  0
SECTION
  2
HEADER
  9
$ACADVER
  1
AC1009
  9
$INSBASE
 10
0.0
 20
0.0
 30
0.0
  9
$EXTMIN
 10
700.15746557509988
 20
-316.88978355090001
 30
0.0
  9
$EXTMAX
 10
975.44739490057395
 20
-126.88978355090001
 30
0.0
  9
$LIMMIN
 10
0.0
 20
0.0
  9
$LIMMAX
 10
0.0
 20
0.0
  9
$ORTHOMODE
 70
     0
  9
$REGENMODE
 70
     1
  9
$FILLMODE
 70
     1
  9
$QTEXTMODE
 70
     0
  9
$MIRRTEXT
 70
     1
  9
$DRAGMODE
 70
     2
  9
$LTSCALE
 40
1.0
  9
$OSMODE
 70
    31
  9
$ATTMODE
 70
     1
  9
$TEXTSIZE
 40
0.0
  9
$TRACEWID
 40
0.05
  9
$TEXTSTYLE
  7
STANDARD
  9
$CLAYER
  8
0
  9
$CELTYPE
  6
CONTINUOUS
  9
$CECOLOR
 62
   256
  9
$DIMSCALE
 40
1.0
  9
$DIMASZ
 40
0.18
  9
$DIMEXO
 40
0.0625
  9
$DIMDLI
 40
0.38
  9
$DIMRND
 40
0.0
  9
$DIMDLE
 40
0.0
  9
$DIMEXE
 40
0.18
  9
$DIMTP
 40
0.0
  9
$DIMTM
 40
0.0
  9
$DIMTXT
 40
0.18
  9
$DIMCEN
 40
0.09
  9
$DIMTSZ
 40
0.0
  9
$DIMTOL
 70
     0
  9
$DIMLIM
 70
     0
  9
$DIMTIH
 70
     1
  9
$DIMTOH
 70
     1
  9
$DIMSE1
 70
     0
  9
$DIMSE2
 70
     0
  9
$DIMTAD
 70
     0
  9
$DIMZIN
 70
     0
  9
$DIMBLK
  1

  9
$DIMASO
 70
     1
  9
$DIMSHO
 70
     1
  9
$DIMPOST
  1

  9
$DIMAPOST
  1

  9
$DIMALT
 70
     0
  9
$DIMALTD
 70
     2
  9
$DIMALTF
 40
25.399999999999999
  9
$DIMLFAC
 40
1.0
  9
$DIMTOFL
 70
     0
  9
$DIMTVP
 40
0.0
  9
$DIMTIX
 70
     0
  9
$DIMSOXD
 70
     0
  9
$DIMSAH
 70
     0
  9
$DIMBLK1
  1

  9
$DIMBLK2
  1

  9
$DIMSTYLE
  2
STANDARD
  9
$DIMCLRD
 70
     0
  9
$DIMCLRE
 70
     0
  9
$DIMCLRT
 70
     0
  9
$DIMTFAC
 40
1.0
  9
$DIMGAP
 40
0.09
  9
$LUNITS
 70
     2
  9
$LUPREC
 70
     4
  9
$SKETCHINC
 40
0.1
  9
$FILLETRAD
 40
0.0
  9
$AUNITS
 70
     0
  9
$AUPREC
 70
     0
  9
$MENU
  1
acad
  9
$ELEVATION
 40
0.0
  9
$PELEVATION
 40
0.0
  9
$THICKNESS
 40
0.0
  9
$LIMCHECK
 70
     0
  9
$BLIPMODE
 70
     0
  9
$CHAMFERA
 40
0.0
  9
$CHAMFERB
 40
0.0
  9
$SKPOLY
 70
     0
  9
$TDCREATE
 40
2454866.7354927198
  9
$TDUPDATE
 40
2454866.7386716092
  9
$TDINDWG
 40
0.0012550463
  9
$TDUSRTIMER
 40
0.0012541435
  9
$USRTIMER
 70
     1
  9
$ANGBASE
 50
0.0
  9
$ANGDIR
 70
     0
  9
$PDMODE
 70
     3
  9
$PDSIZE
 40
-1.0
  9
$PLINEWID
 40
0.0
  9
$COORDS
 70
     2
  9
$SPLFRAME
 70
     0
  9
$SPLINETYPE
 70
     6
  9
$SPLINESEGS
 70
     8
  9
$ATTDIA
 70
     0
  9
$ATTREQ
 70
     1
  9
$HANDLING
 70
     1
  9
$HANDSEED
  5
7F9
  9
$SURFTAB1
 70
     6
  9
$SURFTAB2
 70
     6
  9
$SURFTYPE
 70
     6
  9
$SURFU
 70
     6
  9
$SURFV
 70
     6
  9
$UCSNAME
  2

  9
$UCSORG
 10
0.0
 20
0.0
 30
0.0
  9
$UCSXDIR
 10
1.0
 20
0.0
 30
0.0
  9
$UCSYDIR
 10
0.0
 20
1.0
 30
0.0
  9
$PUCSNAME
  2

  9
$PUCSORG
 10
0.0
 20
0.0
 30
0.0
  9
$PUCSXDIR
 10
1.0
 20
0.0
 30
0.0
  9
$PUCSYDIR
 10
0.0
 20
1.0
 30
0.0
  9
$USERI1
 70
     0
  9
$USERI2
 70
     0
  9
$USERI3
 70
     0
  9
$USERI4
 70
     0
  9
$USERI5
 70
     0
  9
$USERR1
 40
0.0
  9
$USERR2
 40
0.0
  9
$USERR3
 40
0.0
  9
$USERR4
 40
0.0
  9
$USERR5
 40
0.0
  9
$WORLDVIEW
 70
     1
  9
$SHADEDGE
 70
     3
  9
$SHADEDIF
 70
    70
  9
$TILEMODE
 70
     1
  9
$MAXACTVP
 70
    16
  9
$PLIMCHECK
 70
     0
  9
$PEXTMIN
 10
1.0000000000000000E+020
 20
1.0000000000000000E+020
 30
1.0000000000000000E+020
  9
$PEXTMAX
 10
-1.0000000000000000E+020
 20
-1.0000000000000000E+020
 30
-1.0000000000000000E+020
  9
$PLIMMIN
 10
0.0
 20
0.0
  9
$PLIMMAX
 10
12.0
 20
9.0
  9
$UNITMODE
 70
     0
  9
$VISRETAIN
 70
     0
  9
$PLINEGEN
 70
     1
  9
$PSLTSCALE
 70
     0
  0
ENDSEC
  0
SECTION
  2
TABLES
  0
TABLE
  2
VPORT
 70
     2
  0
VPORT
  2
*ACTIVE
 70
     0
 10
0.0
 20
0.0
 11
1.0
 21
1.0
 12
901.27775264461911
 22
-227.08790351055671
 13
0.0
 23
0.0
 14
1.0
 24
1.0
 15
0.0
 25
0.0
 16
0.0
 26
0.0
 36
1.0
 17
0.0
 27
0.0
 37
0.0
 40
66.223391190307197
 41
1.5459688826025451
 42
50.0
 43
0.0
 44
0.0
 50
0.0
 51
0.0
 71
     0
 72
   100
 73
     1
 74
     1
 75
     0
 76
     0
 77
     0
 78
     0
  0
ENDTAB
  0
TABLE
  2
LTYPE
 70
    11
  0
LTYPE
  2
CONTINUOUS
 70
     0
  3
Solid line
 72
    65
 73
     0
 40
0.0
  0
LTYPE
  2
DOT
 70
     0
  3
. . . . . . . . 
 72
    65
 73
     2
 40
1.0
 49
0.0
 49
-1.0
  0
LTYPE
  2
DASHED
 70
     0
  3
___  ___  ___  ___  
 72
    65
 73
     2
 40
4.0
 49
3.0
 49
-1.0
  0
LTYPE
  2
HIDDEN
 70
     0
  3
__ __ __ __ 
 72
    65
 73
     2
 40
3.0
 49
2.0
 49
-1.0
  0
LTYPE
  2
STITCH
 70
     0
  3
_ _ _ _ 
 72
    65
 73
     2
 40
2.0
 49
1.0
 49
-1.0
  0
LTYPE
  2
CENTER
 70
     0
  3
______  __  ______  __  
 72
    65
 73
     4
 40
43.0
 49
40.0
 49
-1.0
 49
1.0
 49
-1.0
  0
LTYPE
  2
DASHDOT
 70
     0
  3
____ . ____ . 
 72
    65
 73
     4
 40
32.0
 49
30.0
 49
-1.0
 49
0.0
 49
-1.0
  0
LTYPE
  2
BORDER
 70
     0
  3
__ . __ . 
 72
    65
 73
     4
 40
22.0
 49
20.0
 49
-1.0
 49
0.0
 49
-1.0
  0
LTYPE
  2
CUTTING
 70
     0
  3
________   ___   ___   
 72
    65
 73
     6
 40
45.0
 49
40.0
 49
-1.0
 49
1.0
 49
-1.0
 49
1.0
 49
-1.0
  0
LTYPE
  2
PHANTOM
 70
     0
  3
______  __  __  
 72
    65
 73
     6
 40
35.0
 49
30.0
 49
-1.0
 49
1.0
 49
-1.0
 49
1.0
 49
-1.0
  0
LTYPE
  2
DIVIDE
 70
     0
  3
____ . . ____ . . 
 72
    65
 73
     6
 40
23.0
 49
20.0
 49
-1.0
 49
0.0
 49
-1.0
 49
0.0
 49
-1.0
  0
ENDTAB
  0
TABLE
  2
LAYER
 70
     4
  0
LAYER
  2
0
 70
     0
 62
     7
  6
CONTINUOUS
  0
LAYER
  2
┌▓È_1
 70
     0
 62
     7
  6
CONTINUOUS
  0
LAYER
  2
Éíû@É³
 70
     0
 62
     7
  6
CONTINUOUS
  0
LAYER
  2
DEFPOINTS
 70
     0
 62
     7
  6
CONTINUOUS
  0
ENDTAB
  0
TABLE
  2
STYLE
 70
     1
  0
STYLE
  2
STANDARD
 70
     0
 40
0.0
 41
1.0
 50
0.0
 71
     0
 42
0.0
  3
txt
  4
extfont
  0
ENDTAB
  0
TABLE
  2
VIEW
 70
     0
  0
ENDTAB
  0
TABLE
  2
UCS
 70
     0
  0
ENDTAB
  0
TABLE
  2
APPID
 70
     2
  0
APPID
  2
ACAD
 70
     0
  0
APPID
  2
DCO15
 70
     0
  0
ENDTAB
  0
TABLE
  2
DIMSTYLE
 70
     3
  0
DIMSTYLE
  2
STANDARD
 70
     0
  3

  4

  5

  6

  7

 40
1.0
 41
0.18
 42
0.0625
 43
0.38
 44
0.18
 45
0.0
 46
0.0
 47
0.0
 48
0.0
140
0.18
141
0.09
142
0.0
143
25.399999999999999
144
1.0
145
0.0
146
1.0
147
0.09
 71
     0
 72
     0
 73
     1
 74
     1
 75
     0
 76
     0
 77
     0
 78
     0
170
     0
171
     2
172
     0
173
     0
174
     0
175
     0
176
     0
177
     0
178
     0
  0
DIMSTYLE
  2
VELDIM0
 70
     0
  3

  4

  5

  6

  7

 40
1.0
 41
3.0
 42
0.0625
 43
0.38
 44
0.5
 45
0.0
 46
3.0
 47
0.0
 48
0.0
140
2.998611020999999
141
0.09
142
0.0
143
25.399999999999999
144
1.0
145
0.0
146
1.0
147
0.09
 71
     0
 72
     0
 73
     0
 74
     0
 75
     0
 76
     0
 77
     0
 78
     8
170
     0
171
     2
172
     0
173
     0
174
     0
175
     0
176
     0
177
     0
178
     0
  0
DIMSTYLE
  2
VELDIM1
 70
     0
  3

  4

  5

  6

  7

 40
1.0
 41
3.0
 42
0.0625
 43
0.38
 44
1.25
 45
0.0
 46
5.0
 47
0.0
 48
0.0
140
2.998611020999999
141
0.09
142
0.0
143
25.399999999999999
144
1.0
145
0.0
146
1.0
147
0.09
 71
     0
 72
     0
 73
     0
 74
     0
 75
     0
 76
     0
 77
     0
 78
     8
170
     0
171
     2
172
     0
173
     0
174
     0
175
     0
176
     0
177
     0
178
     0
  0
ENDTAB
  0
ENDSEC
  0
SECTION
  2
BLOCKS
  0
BLOCK
  8
0
  2
$MODEL_SPACE
 70
     0
 10
0.0
 20
0.0
 30
0.0
  3
$MODEL_SPACE
  1

  0
ENDBLK
  5
70E
  8
0
  0
BLOCK
 67
     1
  8
0
  2
$PAPER_SPACE
 70
     0
 10
0.0
 20
0.0
 30
0.0
  3
$PAPER_SPACE
  1

  0
ENDBLK
  5
70A
 67
     1
  8
0
  0
BLOCK
  8
0
  2
*D2
 70
     1
 10
0.0
 20
0.0
 30
0.0
  3
*D2
  1

  0
TEXT
  5
42
  8
0
 62
     0
 10
777.24205373690006
 20
-146.13000830589999
 30
0.0
 40
2.998611020999999
  1
38
  0
LINE
  5
43
  8
0
 62
     0
 10
798.0059425728
 20
-170.45035629969999
 30
0.0
 11
798.0059425728
 21
-147.15917495670001
 31
0.0
  0
LINE
  5
44
  8
0
 62
     0
 10
760.0059425728
 20
-170.45035629969999
 30
0.0
 11
760.0059425728
 21
-147.15917495670001
 31
0.0
  0
LINE
  5
45
  8
0
 62
     0
 10
798.0059425728
 20
-147.65917495670001
 30
0.0
 11
782.53372024460009
 21
-147.65917495670001
 31
0.0
  0
LINE
  5
46
  8
0
 62
     0
 10
798.0059425728
 20
-147.65917495670001
 30
0.0
 11
775.4781649009999
 21
-147.65917495670001
 31
0.0
  0
LINE
  5
47
  8
0
 62
     0
 10
760.0059425728
 20
-147.65917495670001
 30
0.0
 11
782.53372024460009
 21
-147.65917495670001
 31
0.0
  0
LINE
  5
48
  8
0
 62
     0
 10
760.0059425728
 20
-147.65917495670001
 30
0.0
 11
775.4781649009999
 21
-147.65917495670001
 31
0.0
  0
LINE
  5
49
  8
0
 62
     0
 10
760.0059425728
 20
-147.65917495670001
 30
0.0
 11
763.00594257279988
 21
-147.65917495670001
 31
0.0
  0
SOLID
  5
4A
  8
0
 62
     0
 10
760.0059425728
 20
-147.65917495670001
 30
0.0
 11
763.00594257279988
 21
-146.90917495670001
 31
0.0
 12
763.00594257279988
 22
-148.40917495670001
 32
0.0
 13
762.2559425728
 23
-147.65917495670001
 33
0.0
  0
LINE
  5
4B
  8
0
 62
     0
 10
798.0059425728
 20
-147.65917495670001
 30
0.0
 11
795.00594257279988
 21
-147.65917495670001
 31
0.0
  0
SOLID
  5
4C
  8
0
 62
     0
 10
798.0059425728
 20
-147.65917495670001
 30
0.0
 11
795.00594257279988
 21
-148.40917495670001
 31
0.0
 12
795.00594257279988
 22
-146.90917495670001
 32
0.0
 13
795.7559425728
 23
-147.65917495670001
 33
0.0
  0
ENDBLK
  5
4D
  8
0
  0
BLOCK
  8
0
  2
*D3
 70
     1
 10
0.0
 20
0.0
 30
0.0
  3
*D3
  1

  0
TEXT
  5
52
  8
0
 62
     0
 10
777.24205373690006
 20
-153.30826917549999
 30
0.0
 40
2.998611020999999
  1
28
  0
LINE
  5
53
  8
0
 62
     0
 10
793.0059425728
 20
-168.2503562997
 30
0.0
 11
793.0059425728
 21
-154.33743582619999
 31
0.0
  0
LINE
  5
54
  8
0
 62
     0
 10
765.0059425728
 20
-168.2503562997
 30
0.0
 11
765.0059425728
 21
-154.33743582619999
 31
0.0
  0
LINE
  5
55
  8
0
 62
     0
 10
793.0059425728
 20
-154.83743582619999
 30
0.0
 11
782.53372024460009
 21
-154.83743582619999
 31
0.0
  0
LINE
  5
56
  8
0
 62
     0
 10
793.0059425728
 20
-154.83743582619999
 30
0.0
 11
775.4781649009999
 21
-154.83743582619999
 31
0.0
  0
LINE
  5
57
  8
0
 62
     0
 10
765.0059425728
 20
-154.83743582619999
 30
0.0
 11
782.53372024460009
 21
-154.83743582619999
 31
0.0
  0
LINE
  5
58
  8
0
 62
     0
 10
765.0059425728
 20
-154.83743582619999
 30
0.0
 11
775.4781649009999
 21
-154.83743582619999
 31
0.0
  0
LINE
  5
59
  8
0
 62
     0
 10
765.0059425728
 20
-154.83743582619999
 30
0.0
 11
768.0059425728
 21
-154.83743582619999
 31
0.0
  0
SOLID
  5
5A
  8
0
 62
     0
 10
765.0059425728
 20
-154.83743582619999
 30
0.0
 11
768.0059425728
 21
-154.08743582619999
 31
0.0
 12
768.0059425728
 22
-155.58743582619999
 32
0.0
 13
767.2559425728
 23
-154.83743582619999
 33
0.0
  0
LINE
  5
5B
  8
0
 62
     0
 10
793.0059425728
 20
-154.83743582619999
 30
0.0
 11
790.0059425728
 21
-154.83743582619999
 31
0.0
  0
SOLID
  5
5C
  8
0
 62
     0
 10
793.0059425728
 20
-154.83743582619999
 30
0.0
 11
790.0059425728
 21
-155.58743582619999
 31
0.0
 12
790.0059425728
 22
-154.08743582619999
 32
0.0
 13
790.7559425728
 23
-154.83743582619999
 33
0.0
  0
ENDBLK
  5
5D
  8
0
  0
BLOCK
  8
0
  2
*D4
 70
     1
 10
0.0
 20
0.0
 30
0.0
  3
*D4
  1

  0
TEXT
  5
61
  8
0
 62
     0
 10
751.77235566820002
 20
-178.0821519734998
 30
0.0
 40
2.998611020999999
  1
3.3
  0
LINE
  5
62
  8
0
 62
     0
 10
766.65594257279974
 20
-180.53906560600001
 30
0.0
 11
766.65594257279974
 21
-179.1113186243
 31
0.0
  0
LINE
  5
63
  8
0
 62
     0
 10
763.35594257280002
 20
-180.53906560600001
 30
0.0
 11
763.35594257280002
 21
-179.1113186243
 31
0.0
  0
LINE
  5
64
  8
0
 62
     0
 10
766.65594257279974
 20
-179.6113186243
 30
0.0
 11
758.82791101179998
 21
-179.6113186243
 31
0.0
  0
LINE
  5
65
  8
0
 62
     0
 10
766.65594257279974
 20
-179.6113186243
 30
0.0
 11
750.00846683220004
 21
-179.6113186243
 31
0.0
  0
LINE
  5
66
  8
0
 62
     0
 10
763.35594257280002
 20
-179.6113186243
 30
0.0
 11
758.82791101179998
 21
-179.6113186243
 31
0.0
  0
LINE
  5
67
  8
0
 62
     0
 10
763.35594257280002
 20
-179.6113186243
 30
0.0
 11
750.00846683220004
 21
-179.6113186243
 31
0.0
  0
LINE
  5
68
  8
0
 62
     0
 10
763.35594257280002
 20
-179.6113186243
 30
0.0
 11
760.35594257280002
 21
-179.6113186243
 31
0.0
  0
SOLID
  5
69
  8
0
 62
     0
 10
763.35594257280002
 20
-179.6113186243
 30
0.0
 11
760.35594257280002
 21
-180.3613186243
 31
0.0
 12
760.35594257280002
 22
-178.8613186243
 32
0.0
 13
761.10594257280002
 23
-179.6113186243
 33
0.0
  0
LINE
  5
6A
  8
0
 62
     0
 10
766.65594257279974
 20
-179.6113186243
 30
0.0
 11
769.65594257279974
 21
-179.6113186243
 31
0.0
  0
SOLID
  5
6B
  8
0
 62
     0
 10
766.65594257279974
 20
-179.6113186243
 30
0.0
 11
769.65594257279974
 21
-178.8613186243
 31
0.0
 12
769.65594257279974
 22
-180.3613186243
 32
0.0
 13
768.90594257279974
 23
-179.6113186243
 33
0.0
  0
ENDBLK
  5
6C
  8
0
  0
BLOCK
  8
0
  2
*D5
 70
     1
 10
0.0
 20
0.0
 30
0.0
  3
*D5
  1

  0
TEXT
  5
70
  8
0
 62
     0
 10
771.33780549890002
 20
-160.01289855089999
 30
0.0
 40
2.998611020999999
  1
6
  0
LINE
  5
71
  8
0
 62
     0
 10
768.0059425728
 20
-173.2503562997
 30
0.0
 11
768.0059425728
 21
-161.04206520170001
 31
0.0
  0
LINE
  5
72
  8
0
 62
     0
 10
762.00594257279988
 20
-173.2503562997
 30
0.0
 11
762.00594257279988
 21
-161.04206520170001
 31
0.0
  0
LINE
  5
73
  8
0
 62
     0
 10
768.0059425728
 20
-161.54206520170001
 30
0.0
 11
774.86558317070012
 21
-161.54206520170001
 31
0.0
  0
LINE
  5
74
  8
0
 62
     0
 10
768.0059425728
 20
-161.54206520170001
 30
0.0
 11
769.57391666299998
 21
-161.54206520170001
 31
0.0
  0
LINE
  5
75
  8
0
 62
     0
 10
762.00594257279988
 20
-161.54206520170001
 30
0.0
 11
774.86558317070012
 21
-161.54206520170001
 31
0.0
  0
LINE
  5
76
  8
0
 62
     0
 10
762.00594257279988
 20
-161.54206520170001
 30
0.0
 11
769.57391666299998
 21
-161.54206520170001
 31
0.0
  0
LINE
  5
77
  8
0
 62
     0
 10
762.00594257279988
 20
-161.54206520170001
 30
0.0
 11
765.0059425728
 21
-161.54206520170001
 31
0.0
  0
SOLID
  5
78
  8
0
 62
     0
 10
762.00594257279988
 20
-161.54206520170001
 30
0.0
 11
765.0059425728
 21
-160.79206520170001
 31
0.0
 12
765.0059425728
 22
-162.29206520170001
 32
0.0
 13
764.25594257279988
 23
-161.54206520170001
 33
0.0
  0
LINE
  5
79
  8
0
 62
     0
 10
768.0059425728
 20
-161.54206520170001
 30
0.0
 11
765.0059425728
 21
-161.54206520170001
 31
0.0
  0
SOLID
  5
7A
  8
0
 62
     0
 10
768.0059425728
 20
-161.54206520170001
 30
0.0
 11
765.0059425728
 21
-162.29206520170001
 31
0.0
 12
765.0059425728
 22
-160.79206520170001
 32
0.0
 13
765.7559425728
 23
-161.54206520170001
 33
0.0
  0
ENDBLK
  5
7B
  8
0
  0
BLOCK
  8
0
  2
BALLON0
 70
     0
 10
0.0
 20
0.0
 30
0.0
  3
BALLON0
  1

  0
INSERT
  5
80
  8
0
  6
CONTINUOUS
  2
*U7
 10
0.0
 20
0.0
 30
0.0
  0
CIRCLE
  5
81
  8
┌▓È_1
 10
739.1574903349001
 20
-205.3958518698
 30
0.0
 40
4.0
  0
LINE
  5
82
  8
Éíû@É³
 10
745.82415700160004
 20
-205.3958518698
 30
0.0
 11
743.1574903349001
 21
-205.3958518698
 31
0.0
  0
LINE
  5
83
  8
Éíû@É³
 10
769.35628431350005
 20
-188.96898561660001
 30
0.0
 11
745.82415700160004
 21
-205.3958518698
 31
0.0
  0
SOLID
  5
84
  8
Éíû@É³
 10
769.35628431350005
 20
-188.96898561660001
 30
0.0
 11
766.53428793640001
 21
-191.91454777819999
 31
0.0
 12
766.73235446009994
 22
-190.80064937520001
 32
0.0
 13
766.73235446009994
 23
-190.80064937520001
 33
0.0
  0
SOLID
  5
85
  8
Éíû@É³
 10
766.73235446009994
 20
-190.80064937520001
 30
0.0
 11
765.61845605710005
 21
-190.60258285149999
 31
0.0
 12
769.35628431350005
 22
-188.96898561660001
 32
0.0
 13
769.35628431350005
 23
-188.96898561660001
 33
0.0
  0
ENDBLK
  5
86
  8
0
  0
BLOCK
  8
0
  2
*U7
 70
     1
 10
0.0
 20
0.0
 30
0.0
  3
*U7
  1

  0
TEXT
  5
3C2
  8
┌▓È_1
  6
CONTINUOUS
 10
738.19854366320965
 20
-206.63057405489999
 30
0.0
 40
2.998611020999999
  1
2
  0
ENDBLK
  5
3C4
  8
0
  0
BLOCK
  8
0
  2
BALLON1
 70
     0
 10
0.0
 20
0.0
 30
0.0
  3
BALLON1
  1

  0
INSERT
  5
8A
  8
0
  6
CONTINUOUS
  2
*U9
 10
0.0
 20
0.0
 30
0.0
  0
CIRCLE
  5
8B
  8
┌▓È_1
 10
739.1574903349001
 20
-214.96957685519999
 30
0.0
 40
4.0
  0
LINE
  5
8C
  8
Éíû@É³
 10
745.82415700160004
 20
-214.96957685519999
 30
0.0
 11
743.1574903349001
 21
-214.96957685519999
 31
0.0
  0
LINE
  5
8D
  8
Éíû@É³
 10
772.9511448026999
 20
-191.64076786800001
 30
0.0
 11
745.82415700160004
 21
-214.96957685519999
 31
0.0
  0
SOLID
  5
8E
  8
Éíû@É³
 10
772.9511448026999
 20
-191.64076786800001
 30
0.0
 11
770.4400081478999
 21
-194.8554517872
 31
0.0
 12
770.52493446530002
 22
-193.7272729359
 32
0.0
 13
770.52493446530002
 23
-193.7272729359
 33
0.0
  0
SOLID
  5
8F
  8
Éíû@É³
 10
770.52493446530002
 20
-193.7272729359
 30
0.0
 11
769.39675561390004
 21
-193.6423466184998
 31
0.0
 12
772.9511448026999
 22
-191.64076786800001
 32
0.0
 13
772.9511448026999
 23
-191.64076786800001
 33
0.0
  0
ENDBLK
  5
90
  8
0
  0
BLOCK
  8
0
  2
*U9
 70
     1
 10
0.0
 20
0.0
 30
0.0
  3
*U9
  1

  0
TEXT
  5
3C6
  8
┌▓È_1
  6
CONTINUOUS
 10
738.18332228746851
 20
-216.20429904029999
 30
0.0
 40
2.998611020999999
  1
6
  0
ENDBLK
  5
3C8
  8
0
  0
BLOCK
  8
0
  2
BALLON2
 70
     0
 10
0.0
 20
0.0
 30
0.0
  3
BALLON2
  1

  0
INSERT
  5
94
  8
0
  6
CONTINUOUS
  2
*U11
 10
0.0
 20
0.0
 30
0.0
  0
CIRCLE
  5
95
  8
┌▓È_1
 10
740.77596672660002
 20
-157.80167270090001
 30
0.0
 40
4.0
  0
LINE
  5
96
  8
Éíû@É³
 10
747.44263339329984
 20
-157.80167270090001
 30
0.0
 11
744.77596672660002
 21
-157.80167270090001
 31
0.0
  0
LINE
  5
97
  8
Éíû@É³
 10
777.498372722
 20
-174.23611387720001
 30
0.0
 11
747.44263339329984
 21
-157.80167270090001
 31
0.0
  0
SOLID
  5
98
  8
Éíû@É³
 10
777.498372722
 20
-174.23611387720001
 30
0.0
 11
773.60496685630005
 21
-173.01898990469999
 31
0.0
 12
774.69069497490011
 22
-172.7008791497
 32
0.0
 13
774.69069497490011
 23
-172.7008791497
 33
0.0
  0
SOLID
  5
99
  8
Éíû@É³
 10
774.69069497490011
 20
-172.7008791497
 30
0.0
 11
774.37258422000002
 21
-171.6151510311
 31
0.0
 12
777.498372722
 22
-174.23611387720001
 32
0.0
 13
777.498372722
 23
-174.23611387720001
 33
0.0
  0
ENDBLK
  5
9A
  8
0
  0
BLOCK
  8
0
  2
*U11
 70
     1
 10
0.0
 20
0.0
 30
0.0
  3
*U11
  1

  0
TEXT
  5
3CA
  8
┌▓È_1
  6
CONTINUOUS
 10
739.83224143065092
 20
-159.03639488600001
 30
0.0
 40
2.998611020999999
  1
5
  0
ENDBLK
  5
3CC
  8
0
  0
BLOCK
  8
0
  2
*D12
 70
     1
 10
0.0
 20
0.0
 30
0.0
  3
*D12
  1

  0
TEXT
  5
C8
  8
0
 62
     0
 10
746.65979678100007
 20
-179.98924513559999
 30
0.0
 40
2.998611020999999
  1
14
 50
90.0
  0
LINE
  5
C9
  8
0
 62
     0
 10
764.0059425728
 20
-171.2503562997
 30
0.0
 11
747.68896343179995
 21
-171.2503562997
 31
0.0
  0
LINE
  5
CA
  8
0
 62
     0
 10
764.0059425728
 20
-185.20035629969999
 30
0.0
 11
747.68896343179995
 21
-185.20035629969999
 31
0.0
  0
LINE
  5
CB
  8
0
 62
     0
 10
748.18896343179995
 20
-171.2503562997
 30
0.0
 11
748.18896343179995
 21
-174.69757862789999
 31
0.0
  0
LINE
  5
CC
  8
0
 62
     0
 10
748.18896343179995
 20
-171.2503562997
 30
0.0
 11
748.18896343179995
 21
-181.75313397150001
 31
0.0
  0
LINE
  5
CD
  8
0
 62
     0
 10
748.18896343179995
 20
-185.20035629969999
 30
0.0
 11
748.18896343179995
 21
-174.69757862789999
 31
0.0
  0
LINE
  5
CE
  8
0
 62
     0
 10
748.18896343179995
 20
-185.20035629969999
 30
0.0
 11
748.18896343179995
 21
-181.75313397150001
 31
0.0
  0
LINE
  5
CF
  8
0
 62
     0
 10
748.18896343179995
 20
-185.20035629969999
 30
0.0
 11
748.18896343179995
 21
-182.20035629969999
 31
0.0
  0
SOLID
  5
D0
  8
0
 62
     0
 10
748.18896343179995
 20
-185.20035629969999
 30
0.0
 11
747.43896343179995
 21
-182.20035629969999
 31
0.0
 12
748.93896343179995
 22
-182.20035629969999
 32
0.0
 13
748.18896343179995
 23
-182.95035629969999
 33
0.0
  0
LINE
  5
D1
  8
0
 62
     0
 10
748.18896343179995
 20
-171.2503562997
 30
0.0
 11
748.18896343179995
 21
-174.2503562997
 31
0.0
  0
SOLID
  5
D2
  8
0
 62
     0
 10
748.18896343179995
 20
-171.2503562997
 30
0.0
 11
748.93896343179995
 21
-174.2503562997
 31
0.0
 12
747.43896343179995
 22
-174.2503562997
 32
0.0
 13
748.18896343179995
 23
-173.5003562997
 33
0.0
  0
ENDBLK
  5
D3
  8
0
  0
BLOCK
  8
0
  2
*D13
 70
     1
 10
0.0
 20
0.0
 30
0.0
  3
*D13
  1

  0
TEXT
  5
DA
  8
0
 62
     0
 10
889.08560598550002
 20
-166.26501384299999
 30
0.0
 40
2.998611020999999
  1
2-%%c3.8
 50
30.0
  0
LINE
  5
DB
  8
0
 62
     0
 10
908.89462095140004
 20
-156.2540080919
 30
0.0
 11
889.70296707800003
 21
-167.33431462190001
 31
0.0
  0
SOLID
  5
DC
  8
0
 62
     0
 10
908.89462095140004
 20
-156.2540080919
 30
0.0
 11
906.6715447401001
 21
-158.40352714479999
 31
0.0
 12
905.92154474009988
 22
-157.1044890391
 32
0.0
 13
906.94606379289985
 23
-157.3790080919
 33
0.0
  0
ENDBLK
  5
DD
  8
0
  0
BLOCK
  8
0
  2
*D14
 70
     1
 10
0.0
 20
0.0
 30
0.0
  3
*D14
  1

  0
TEXT
  5
E1
  8
0
 62
     0
 10
917.01229154679993
 20
-136.4821141681
 30
0.0
 40
2.998611020999999
  1
28.5
  0
LINE
  5
E2
  8
0
 62
     0
 10
934.79006921860002
 20
-149.55400809189999
 30
0.0
 11
934.79006921860002
 21
-137.51128081889999
 31
0.0
  0
LINE
  5
E3
  8
0
 62
     0
 10
906.29006921860002
 20
-149.55400809189999
 30
0.0
 11
906.29006921860002
 21
-137.51128081889999
 31
0.0
  0
LINE
  5
E4
  8
0
 62
     0
 10
934.79006921860002
 20
-138.01128081889999
 30
0.0
 11
925.83173572630005
 21
-138.01128081889999
 31
0.0
  0
LINE
  5
E5
  8
0
 62
     0
 10
934.79006921860002
 20
-138.01128081889999
 30
0.0
 11
915.2484027109
 21
-138.01128081889999
 31
0.0
  0
LINE
  5
E6
  8
0
 62
     0
 10
906.29006921860002
 20
-138.01128081889999
 30
0.0
 11
925.83173572630005
 21
-138.01128081889999
 31
0.0
  0
LINE
  5
E7
  8
0
 62
     0
 10
906.29006921860002
 20
-138.01128081889999
 30
0.0
 11
915.2484027109
 21
-138.01128081889999
 31
0.0
  0
LINE
  5
E8
  8
0
 62
     0
 10
906.29006921860002
 20
-138.01128081889999
 30
0.0
 11
909.29006921860014
 21
-138.01128081889999
 31
0.0
  0
SOLID
  5
E9
  8
0
 62
     0
 10
906.29006921860002
 20
-138.01128081889999
 30
0.0
 11
909.29006921860014
 21
-137.26128081889999
 31
0.0
 12
909.29006921860014
 22
-138.76128081889999
 32
0.0
 13
908.54006921860002
 23
-138.01128081889999
 33
0.0
  0
LINE
  5
EA
  8
0
 62
     0
 10
934.79006921860002
 20
-138.01128081889999
 30
0.0
 11
931.79006921860002
 21
-138.01128081889999
 31
0.0
  0
SOLID
  5
EB
  8
0
 62
     0
 10
934.79006921860002
 20
-138.01128081889999
 30
0.0
 11
931.79006921860002
 21
-138.76128081889999
 31
0.0
 12
931.79006921860002
 22
-137.26128081889999
 32
0.0
 13
932.54006921860014
 23
-138.01128081889999
 33
0.0
  0
ENDBLK
  5
EC
  8
0
  0
BLOCK
  8
0
  2
BALLON3
 70
     0
 10
0.0
 20
0.0
 30
0.0
  3
BALLON3
  1

  0
INSERT
  5
F1
  8
0
  6
CONTINUOUS
  2
*U16
 10
0.0
 20
0.0
 30
0.0
  0
CIRCLE
  5
F2
  8
┌▓È_1
 10
897.06593675449983
 20
-175.54436689639999
 30
0.0
 40
4.0
  0
LINE
  5
F3
  8
Éíû@É³
 10
903.7326034212
 20
-175.54436689639999
 30
0.0
 11
901.06593675449994
 21
-175.54436689639999
 31
0.0
  0
LINE
  5
F4
  8
Éíû@É³
 10
913.51187584899992
 20
-185.8242477073
 30
0.0
 11
903.7326034212
 21
-175.54436689639999
 31
0.0
  0
SOLID
  5
F5
  8
Éíû@É³
 10
913.51187584899992
 20
-185.8242477073
 30
0.0
 11
910.17527256250014
 21
-183.47753116960001
 31
0.0
 12
911.30629124979998
 22
-183.5057575573
 32
0.0
 13
911.30629124979998
 23
-183.5057575573
 33
0.0
  0
SOLID
  5
F6
  8
Éíû@É³
 10
911.30629124979998
 20
-183.5057575573
 30
0.0
 11
911.33451763749997
 21
-182.3747388699
 31
0.0
 12
913.51187584899992
 22
-185.8242477073
 32
0.0
 13
913.51187584899992
 23
-185.8242477073
 33
0.0
  0
ENDBLK
  5
F7
  8
0
  0
BLOCK
  8
0
  2
*U16
 70
     1
 10
0.0
 20
0.0
 30
0.0
  3
*U16
  1

  0
TEXT
  5
3F2
  8
┌▓È_1
  6
CONTINUOUS
 10
896.09937939493932
 20
-176.77908908149999
 30
0.0
 40
2.998611020999999
  1
7
  0
ENDBLK
  5
3F4
  8
0
  0
BLOCK
  8
0
  2
*D17
 70
     1
 10
0.0
 20
0.0
 30
0.0
  3
*D17
  1

  0
TEXT
  5
113
  8
0
 62
     0
 10
812.46553457899995
 20
-182.18044382799999
 30
0.0
 40
2.998611020999999
  1
29
 50
90.0
  0
LINE
  5
114
  8
0
 62
     0
 10
784.50594121949985
 20
-194.8827536844
 30
0.0
 11
814.49470122970001
 21
-194.8827536844
 31
0.0
  0
LINE
  5
115
  8
0
 62
     0
 10
788.0059425728
 20
-165.95035629969999
 30
0.0
 11
814.49470122970001
 21
-165.95035629969999
 31
0.0
  0
LINE
  5
116
  8
0
 62
     0
 10
813.99470122970001
 20
-194.8827536844
 30
0.0
 11
813.99470122970001
 21
-176.88877732020001
 31
0.0
  0
LINE
  5
117
  8
0
 62
     0
 10
813.99470122970001
 20
-194.8827536844
 30
0.0
 11
813.99470122970001
 21
-183.9443326638999
 31
0.0
  0
LINE
  5
118
  8
0
 62
     0
 10
813.99470122970001
 20
-165.95035629969999
 30
0.0
 11
813.99470122970001
 21
-176.88877732020001
 31
0.0
  0
LINE
  5
119
  8
0
 62
     0
 10
813.99470122970001
 20
-165.95035629969999
 30
0.0
 11
813.99470122970001
 21
-183.9443326638999
 31
0.0
  0
LINE
  5
11A
  8
0
 62
     0
 10
813.99470122970001
 20
-165.95035629969999
 30
0.0
 11
813.99470122970001
 21
-168.95035629969999
 31
0.0
  0
SOLID
  5
11B
  8
0
 62
     0
 10
813.99470122970001
 20
-165.95035629969999
 30
0.0
 11
814.74470122970001
 21
-168.95035629969999
 31
0.0
 12
813.2447012296999
 22
-168.95035629969999
 32
0.0
 13
813.99470122970001
 23
-168.20035629969999
 33
0.0
  0
LINE
  5
11C
  8
0
 62
     0
 10
813.99470122970001
 20
-194.8827536844
 30
0.0
 11
813.99470122970001
 21
-191.8827536843998
 31
0.0
  0
SOLID
  5
11D
  8
0
 62
     0
 10
813.99470122970001
 20
-194.8827536844
 30
0.0
 11
813.2447012296999
 21
-191.8827536843998
 31
0.0
 12
814.74470122970001
 22
-191.8827536843998
 32
0.0
 13
813.99470122970001
 23
-192.6327536844
 33
0.0
  0
ENDBLK
  5
11E
  8
0
  0
BLOCK
  8
0
  2
*D18
 70
     1
 10
0.0
 20
0.0
 30
0.0
  3
*D18
  1

  0
TEXT
  5
122
  8
0
 62
     0
 10
805.52718902749984
 20
-180.21424513560001
 30
0.0
 40
2.998611020999999
  1
19
 50
90.0
  0
LINE
  5
123
  8
0
 62
     0
 10
796.5059425728
 20
-187.95035629969999
 30
0.0
 11
807.55635567820002
 21
-187.95035629969999
 31
0.0
  0
LINE
  5
124
  8
0
 62
     0
 10
796.5059425728
 20
-168.95035629969999
 30
0.0
 11
807.55635567820002
 21
-168.95035629969999
 31
0.0
  0
LINE
  5
125
  8
0
 62
     0
 10
807.05635567819991
 20
-187.95035629969999
 30
0.0
 11
807.05635567819991
 21
-174.92257862790001
 31
0.0
  0
LINE
  5
126
  8
0
 62
     0
 10
807.05635567819991
 20
-187.95035629969999
 30
0.0
 11
807.05635567819991
 21
-181.9781339715
 31
0.0
  0
LINE
  5
127
  8
0
 62
     0
 10
807.05635567819991
 20
-168.95035629969999
 30
0.0
 11
807.05635567819991
 21
-174.92257862790001
 31
0.0
  0
LINE
  5
128
  8
0
 62
     0
 10
807.05635567819991
 20
-168.95035629969999
 30
0.0
 11
807.05635567819991
 21
-181.9781339715
 31
0.0
  0
LINE
  5
129
  8
0
 62
     0
 10
807.05635567819991
 20
-168.95035629969999
 30
0.0
 11
807.05635567819991
 21
-171.95035629969999
 31
0.0
  0
SOLID
  5
12A
  8
0
 62
     0
 10
807.05635567819991
 20
-168.95035629969999
 30
0.0
 11
807.80635567820002
 21
-171.95035629969999
 31
0.0
 12
806.30635567819991
 22
-171.95035629969999
 32
0.0
 13
807.05635567819991
 23
-171.20035629969999
 33
0.0
  0
LINE
  5
12B
  8
0
 62
     0
 10
807.05635567819991
 20
-187.95035629969999
 30
0.0
 11
807.05635567819991
 21
-184.95035629969999
 31
0.0
  0
SOLID
  5
12C
  8
0
 62
     0
 10
807.05635567819991
 20
-187.95035629969999
 30
0.0
 11
806.30635567819991
 21
-184.95035629969999
 31
0.0
 12
807.80635567820002
 22
-184.95035629969999
 32
0.0
 13
807.05635567819991
 23
-185.70035629969999
 33
0.0
  0
ENDBLK
  5
12D
  8
0
  0
BLOCK
  8
0
  2
*D19
 70
     1
 10
0.0
 20
0.0
 30
0.0
  3
*D19
  1

  0
TEXT
  5
152
  8
0
 62
     0
 10
940.63677404789996
 20
-182.2930202801
 30
0.0
 40
2.998611020999999
  1
16.5
 50
90.0
  0
LINE
  5
153
  8
0
 62
     0
 10
933.16594069860002
 20
-186.71186615080001
 30
0.0
 11
942.66594069860014
 21
-186.71186615080001
 31
0.0
  0
LINE
  5
154
  8
0
 62
     0
 10
921.54006921859991
 20
-170.81861906590001
 30
0.0
 11
942.66594069860014
 21
-170.81861906590001
 31
0.0
  0
LINE
  5
155
  8
0
 62
     0
 10
942.16594069860002
 20
-186.71186615080001
 30
0.0
 11
942.16594069860002
 21
-173.47357610060001
 31
0.0
  0
LINE
  5
156
  8
0
 62
     0
 10
942.16594069860002
 20
-186.71186615080001
 30
0.0
 11
942.16594069860002
 21
-184.05690911600001
 31
0.0
  0
LINE
  5
157
  8
0
 62
     0
 10
942.16594069860002
 20
-170.81861906590001
 30
0.0
 11
942.16594069860002
 21
-173.47357610060001
 31
0.0
  0
LINE
  5
158
  8
0
 62
     0
 10
942.16594069860002
 20
-170.81861906590001
 30
0.0
 11
942.16594069860002
 21
-184.05690911600001
 31
0.0
  0
LINE
  5
159
  8
0
 62
     0
 10
942.16594069860002
 20
-170.81861906590001
 30
0.0
 11
942.16594069860002
 21
-167.81861906590001
 31
0.0
  0
SOLID
  5
15A
  8
0
 62
     0
 10
942.16594069860002
 20
-170.81861906590001
 30
0.0
 11
941.41594069860002
 21
-167.81861906590001
 31
0.0
 12
942.91594069860002
 22
-167.81861906590001
 32
0.0
 13
942.16594069860002
 23
-168.56861906590001
 33
0.0
  0
LINE
  5
15B
  8
0
 62
     0
 10
942.16594069860002
 20
-186.71186615080001
 30
0.0
 11
942.16594069860002
 21
-189.71186615080001
 31
0.0
  0
SOLID
  5
15C
  8
0
 62
     0
 10
942.16594069860002
 20
-186.71186615080001
 30
0.0
 11
942.91594069860002
 21
-189.71186615080001
 31
0.0
 12
941.41594069860002
 22
-189.71186615080001
 32
0.0
 13
942.16594069860002
 23
-188.96186615080001
 33
0.0
  0
ENDBLK
  5
15D
  8
0
  0
BLOCK
  8
0
  2
BALLON4
 70
     0
 10
0.0
 20
0.0
 30
0.0
  3
BALLON4
  1

  0
INSERT
  5
1A0
  8
0
  6
CONTINUOUS
  2
*U21
 10
0.0
 20
0.0
 30
0.0
  0
CIRCLE
  5
1A1
  8
┌▓È_1
 10
739.1574903349001
 20
-196.21741935540001
 30
0.0
 40
4.0
  0
LINE
  5
1A2
  8
Éíû@É³
 10
745.82415700160004
 20
-196.21741935540001
 30
0.0
 11
743.1574903349001
 21
-196.21741935540001
 31
0.0
  0
LINE
  5
1A3
  8
Éíû@É³
 10
760.0059425728
 20
-183.52027564170001
 30
0.0
 11
745.82415700160004
 21
-196.21741935540001
 31
0.0
  0
SOLID
  5
1A4
  8
Éíû@É³
 10
760.0059425728
 20
-183.52027564170001
 30
0.0
 11
757.55945813630001
 21
-186.78443156649999
 31
0.0
 12
757.62185363319998
 22
-185.6547825936
 32
0.0
 13
757.62185363319998
 23
-185.6547825936
 33
0.0
  0
SOLID
  5
1A5
  8
Éíû@É³
 10
757.62185363319998
 20
-185.6547825936
 30
0.0
 11
756.49220466029976
 21
-185.59238709670001
 31
0.0
 12
760.0059425728
 22
-183.52027564170001
 32
0.0
 13
760.0059425728
 23
-183.52027564170001
 33
0.0
  0
ENDBLK
  5
1A6
  8
0
  0
BLOCK
  8
0
  2
*U21
 70
     1
 10
0.0
 20
0.0
 30
0.0
  3
*U21
  1

  0
TEXT
  5
3FA
  8
┌▓È_1
  6
CONTINUOUS
 10
738.37358948423264
 20
-197.45214154039991
 30
0.0
 40
2.998611020999999
  1
1
  0
ENDBLK
  5
3FC
  8
0
  0
BLOCK
  8
0
  2
*D22
 70
     1
 10
0.0
 20
0.0
 30
0.0
  3
*D22
  1

  0
TEXT
  5
1AB
  8
0
 62
     0
 10
817.05725588189989
 20
-245.20253875989999
 30
0.0
 40
2.998611020999999
  1
(8)
 50
90.0
  0
LINE
  5
1AC
  8
0
 62
     0
 10
825.31736459289993
 20
-238.55670550599999
 30
0.0
 11
818.08642253269988
 21
-238.55670550599999
 31
0.0
  0
LINE
  5
1AD
  8
0
 62
     0
 10
834.24976197770025
 20
-246.55670550599999
 30
0.0
 11
818.08642253269988
 21
-246.55670550599999
 31
0.0
  0
LINE
  5
1AE
  8
0
 62
     0
 10
818.5864225327
 20
-238.55670550599999
 30
0.0
 11
818.5864225327
 21
-238.55670550599999
 31
0.0
  0
LINE
  5
1AF
  8
0
 62
     0
 10
818.5864225327
 20
-238.55670550599999
 30
0.0
 11
818.5864225327
 21
-246.55670550599999
 31
0.0
  0
LINE
  5
1B0
  8
0
 62
     0
 10
818.5864225327
 20
-246.55670550599999
 30
0.0
 11
818.5864225327
 21
-238.55670550599999
 31
0.0
  0
LINE
  5
1B1
  8
0
 62
     0
 10
818.5864225327
 20
-246.55670550599999
 30
0.0
 11
818.5864225327
 21
-246.55670550599999
 31
0.0
  0
LINE
  5
1B2
  8
0
 62
     0
 10
818.5864225327
 20
-246.55670550599999
 30
0.0
 11
818.5864225327
 21
-243.55670550599999
 31
0.0
  0
SOLID
  5
1B3
  8
0
 62
     0
 10
818.5864225327
 20
-246.55670550599999
 30
0.0
 11
817.83642253269977
 21
-243.55670550599999
 31
0.0
 12
819.3364225327
 22
-243.55670550599999
 32
0.0
 13
818.5864225327
 23
-244.30670550599999
 33
0.0
  0
LINE
  5
1B4
  8
0
 62
     0
 10
818.5864225327
 20
-238.55670550599999
 30
0.0
 11
818.5864225327
 21
-241.55670550599999
 31
0.0
  0
SOLID
  5
1B5
  8
0
 62
     0
 10
818.5864225327
 20
-238.55670550599999
 30
0.0
 11
819.3364225327
 21
-241.55670550599999
 31
0.0
 12
817.83642253269977
 22
-241.55670550599999
 32
0.0
 13
818.5864225327
 23
-240.80670550599999
 33
0.0
  0
ENDBLK
  5
1B6
  8
0
  0
BLOCK
  8
0
  2
BALLON5
 70
     0
 10
0.0
 20
0.0
 30
0.0
  3
BALLON5
  1

  0
INSERT
  5
1F3
  8
0
  6
CONTINUOUS
  2
*U24
 10
0.0
 20
0.0
 30
0.0
  0
CIRCLE
  5
1F4
  8
┌▓È_1
 10
805.97852965929997
 20
-213.7777012434
 30
0.0
 40
4.0
  0
LINE
  5
1F5
  8
Éíû@É³
 10
799.31186299259991
 20
-213.7777012434
 30
0.0
 11
801.97852965929985
 21
-213.7777012434
 31
0.0
  0
LINE
  5
1F6
  8
Éíû@É³
 10
787.06784571109984
 20
-193.13281484609999
 30
0.0
 11
799.31186299259991
 21
-213.7777012434
 31
0.0
  0
SOLID
  5
1F7
  8
Éíû@É³
 10
787.06784571109984
 20
-193.13281484609999
 30
0.0
 11
789.79637665780001
 21
-196.16516028699999
 31
0.0
 12
788.70020098689974
 22
-195.88516225399999
 32
0.0
 13
788.70020098689974
 23
-195.88516225399999
 33
0.0
  0
SOLID
  5
1F8
  8
Éíû@É³
 10
788.70020098689974
 20
-195.88516225399999
 30
0.0
 11
788.42020295379984
 21
-196.9813379249
 31
0.0
 12
787.06784571109984
 22
-193.13281484609999
 32
0.0
 13
787.06784571109984
 23
-193.13281484609999
 33
0.0
  0
ENDBLK
  5
1F9
  8
0
  0
BLOCK
  8
0
  2
*U24
 70
     1
 10
0.0
 20
0.0
 30
0.0
  3
*U24
  1

  0
TEXT
  5
402
  8
┌▓È_1
  6
CONTINUOUS
 10
805.011972299739
 20
-215.0124234285
 30
0.0
 40
2.998611020999999
  1
4
  0
ENDBLK
  5
404
  8
0
  0
BLOCK
  8
0
  2
BALLON6
 70
     0
 10
0.0
 20
0.0
 30
0.0
  3
BALLON6
  1

  0
INSERT
  5
1FD
  8
0
  6
CONTINUOUS
  2
*U26
 10
0.0
 20
0.0
 30
0.0
  0
CIRCLE
  5
1FE
  8
┌▓È_1
 10
805.97852965929997
 20
-202.53399746700001
 30
0.0
 40
4.0
  0
LINE
  5
1FF
  8
Éíû@É³
 10
799.31186299259991
 20
-202.53399746700001
 30
0.0
 11
801.97852965929985
 21
-202.53399746700001
 31
0.0
  0
LINE
  5
200
  8
Éíû@É³
 10
782.52739324499998
 20
-173.40628961709999
 30
0.0
 11
799.31186299259991
 21
-202.53399746700001
 31
0.0
  0
SOLID
  5
201
  8
Éíû@É³
 10
782.52739324499998
 20
-173.40628961709999
 30
0.0
 11
785.21765355229979
 21
-176.4726391534999
 31
0.0
 12
784.1250781681
 22
-176.17890623080001
 32
0.0
 13
784.1250781681
 23
-176.17890623080001
 33
0.0
  0
SOLID
  5
202
  8
Éíû@É³
 10
784.1250781681
 20
-176.17890623080001
 30
0.0
 11
783.83134524539992
 21
-177.271481615
 31
0.0
 12
782.52739324499998
 22
-173.40628961709999
 32
0.0
 13
782.52739324499998
 23
-173.40628961709999
 33
0.0
  0
ENDBLK
  5
203
  8
0
  0
BLOCK
  8
0
  2
*U26
 70
     1
 10
0.0
 20
0.0
 30
0.0
  3
*U26
  1

  0
TEXT
  5
406
  8
┌▓È_1
  6
CONTINUOUS
 10
805.03480436335053
 20
-203.7687196519999
 30
0.0
 40
2.998611020999999
  1
3
  0
ENDBLK
  5
408
  8
0
  0
BLOCK
  8
0
  2
*D27
 70
     1
 10
0.0
 20
0.0
 30
0.0
  3
*D27
  1

  0
TEXT
  5
26B
  8
0
 62
     0
 10
865.4914957057
 20
-242.18448317779999
 30
0.0
 40
2.998611020999999
  1
15.5
 50
90.0
  0
LINE
  5
26C
  8
0
 62
     0
 10
855.24976197770002
 20
-246.55670550599999
 30
0.0
 11
867.52066235649988
 21
-246.55670550599999
 31
0.0
  0
LINE
  5
26D
  8
0
 62
     0
 10
848.64976197769988
 20
-230.756705506
 30
0.0
 11
867.52066235649988
 21
-230.756705506
 31
0.0
  0
LINE
  5
26E
  8
0
 62
     0
 10
867.02066235649988
 20
-246.55670550599999
 30
0.0
 11
867.02066235649988
 21
-233.36503899830001
 31
0.0
  0
LINE
  5
26F
  8
0
 62
     0
 10
867.02066235649988
 20
-246.55670550599999
 30
0.0
 11
867.02066235649988
 21
-243.94837201370001
 31
0.0
  0
LINE
  5
270
  8
0
 62
     0
 10
867.02066235649988
 20
-230.756705506
 30
0.0
 11
867.02066235649988
 21
-233.36503899830001
 31
0.0
  0
LINE
  5
271
  8
0
 62
     0
 10
867.02066235649988
 20
-230.756705506
 30
0.0
 11
867.02066235649988
 21
-243.94837201370001
 31
0.0
  0
LINE
  5
272
  8
0
 62
     0
 10
867.02066235649988
 20
-230.756705506
 30
0.0
 11
867.02066235649988
 21
-227.756705506
 31
0.0
  0
SOLID
  5
273
  8
0
 62
     0
 10
867.02066235649988
 20
-230.756705506
 30
0.0
 11
866.27066235649966
 21
-227.756705506
 31
0.0
 12
867.77066235649988
 22
-227.756705506
 32
0.0
 13
867.02066235649988
 23
-228.506705506
 33
0.0
  0
LINE
  5
274
  8
0
 62
     0
 10
867.02066235649988
 20
-246.55670550599999
 30
0.0
 11
867.02066235649988
 21
-249.55670550599999
 31
0.0
  0
SOLID
  5
275
  8
0
 62
     0
 10
867.02066235649988
 20
-246.55670550599999
 30
0.0
 11
867.77066235649988
 21
-249.55670550599999
 31
0.0
 12
866.27066235649966
 22
-249.55670550599999
 32
0.0
 13
867.02066235649988
 23
-248.80670550599999
 33
0.0
  0
ENDBLK
  5
276
  8
0
  0
BLOCK
  8
0
  2
*D28
 70
     1
 10
0.0
 20
0.0
 30
0.0
  3
*D28
  1

  0
TEXT
  5
296
  8
0
 62
     0
 10
943.26090256780014
 20
-157.9498413458
 30
0.0
 40
2.998611020999999
  1
9.5
 50
90.0
  0
LINE
  5
297
  8
0
 62
     0
 10
935.79006921859991
 20
-160.05400809189999
 30
0.0
 11
945.29006921860002
 21
-160.05400809189999
 31
0.0
  0
LINE
  5
298
  8
0
 62
     0
 10
935.79006921859991
 20
-150.55400809189999
 30
0.0
 11
945.29006921860002
 21
-150.55400809189999
 31
0.0
  0
LINE
  5
299
  8
0
 62
     0
 10
944.79006921859991
 20
-160.05400809189999
 30
0.0
 11
944.79006921859991
 21
-150.8942860022
 31
0.0
  0
LINE
  5
29A
  8
0
 62
     0
 10
944.79006921859991
 20
-160.05400809189999
 30
0.0
 11
944.79006921859991
 21
-159.71373018169999
 31
0.0
  0
LINE
  5
29B
  8
0
 62
     0
 10
944.79006921859991
 20
-150.55400809189999
 30
0.0
 11
944.79006921859991
 21
-150.8942860022
 31
0.0
  0
LINE
  5
29C
  8
0
 62
     0
 10
944.79006921859991
 20
-150.55400809189999
 30
0.0
 11
944.79006921859991
 21
-159.71373018169999
 31
0.0
  0
LINE
  5
29D
  8
0
 62
     0
 10
944.79006921859991
 20
-150.55400809189999
 30
0.0
 11
944.79006921859991
 21
-147.55400809189999
 31
0.0
  0
SOLID
  5
29E
  8
0
 62
     0
 10
944.79006921859991
 20
-150.55400809189999
 30
0.0
 11
944.04006921860014
 21
-147.55400809189999
 31
0.0
 12
945.54006921860002
 22
-147.55400809189999
 32
0.0
 13
944.79006921859991
 23
-148.30400809189999
 33
0.0
  0
LINE
  5
29F
  8
0
 62
     0
 10
944.79006921859991
 20
-160.05400809189999
 30
0.0
 11
944.79006921859991
 21
-163.05400809189999
 31
0.0
  0
SOLID
  5
2A0
  8
0
 62
     0
 10
944.79006921859991
 20
-160.05400809189999
 30
0.0
 11
945.54006921860002
 21
-163.05400809189999
 31
0.0
 12
944.04006921860014
 22
-163.05400809189999
 32
0.0
 13
944.79006921859991
 23
-162.30400809189999
 33
0.0
  0
ENDBLK
  5
2A1
  8
0
  0
BLOCK
  8
0
  2
*D29
 70
     1
 10
0.0
 20
0.0
 30
0.0
  3
*D29
  1

  0
TEXT
  5
2A5
  8
0
 62
     0
 10
918.77618038270009
 20
-142.92007126979999
 30
0.0
 40
2.998611020999999
  1
20
  0
LINE
  5
2A6
  8
0
 62
     0
 10
930.54006921859991
 20
-151.05400809189999
 30
0.0
 11
930.54006921859991
 21
-143.94923792060001
 31
0.0
  0
LINE
  5
2A7
  8
0
 62
     0
 10
910.54006921860002
 20
-151.05400809189999
 30
0.0
 11
910.54006921860002
 21
-143.94923792060001
 31
0.0
  0
LINE
  5
2A8
  8
0
 62
     0
 10
930.54006921859991
 20
-144.44923792060001
 30
0.0
 11
924.06784689039989
 21
-144.44923792060001
 31
0.0
  0
LINE
  5
2A9
  8
0
 62
     0
 10
930.54006921859991
 20
-144.44923792060001
 30
0.0
 11
917.01229154679993
 21
-144.44923792060001
 31
0.0
  0
LINE
  5
2AA
  8
0
 62
     0
 10
910.54006921860002
 20
-144.44923792060001
 30
0.0
 11
924.06784689039989
 21
-144.44923792060001
 31
0.0
  0
LINE
  5
2AB
  8
0
 62
     0
 10
910.54006921860002
 20
-144.44923792060001
 30
0.0
 11
917.01229154679993
 21
-144.44923792060001
 31
0.0
  0
LINE
  5
2AC
  8
0
 62
     0
 10
910.54006921860002
 20
-144.44923792060001
 30
0.0
 11
913.54006921859991
 21
-144.44923792060001
 31
0.0
  0
SOLID
  5
2AD
  8
0
 62
     0
 10
910.54006921860002
 20
-144.44923792060001
 30
0.0
 11
913.54006921859991
 21
-143.6992379205999
 31
0.0
 12
913.54006921859991
 22
-145.19923792060001
 32
0.0
 13
912.79006921860014
 23
-144.44923792060001
 33
0.0
  0
LINE
  5
2AE
  8
0
 62
     0
 10
930.54006921859991
 20
-144.44923792060001
 30
0.0
 11
927.54006921860002
 21
-144.44923792060001
 31
0.0
  0
SOLID
  5
2AF
  8
0
 62
     0
 10
930.54006921859991
 20
-144.44923792060001
 30
0.0
 11
927.54006921860002
 21
-145.19923792060001
 31
0.0
 12
927.54006921860002
 22
-143.6992379205999
 32
0.0
 13
928.29006921860002
 23
-144.44923792060001
 33
0.0
  0
ENDBLK
  5
2B0
  8
0
  0
BLOCK
  8
0
  2
*D30
 70
     1
 10
0.0
 20
0.0
 30
0.0
  3
*D30
  1

  0
LINE
  5
351
  8
Éíû@É³
 62
     0
 10
811.90400739597249
 20
-249.38213928697911
 30
0.0
 11
803.73556533577255
 21
-249.38213928697911
 31
0.0
  0
LINE
  5
352
  8
Éíû@É³
 62
     0
 10
820.83640478077268
 20
-257.38213928697922
 30
0.0
 11
803.73556533577255
 21
-257.38213928697922
 31
0.0
  0
LINE
  5
353
  8
Éíû@É³
 62
     0
 10
804.23556533577255
 20
-246.3821392869792
 30
0.0
 11
804.23556533577255
 21
-243.38213928697911
 31
0.0
  0
LINE
  5
354
  8
Éíû@É³
 62
     0
 10
804.23556533577255
 20
-260.382139286979
 30
0.0
 11
804.23556533577255
 21
-263.38213928697911
 31
0.0
  0
SOLID
  5
355
  8
Éíû@É³
 62
     0
 10
803.73556533577255
 20
-246.3821392869792
 30
0.0
 11
804.73556533577255
 21
-246.3821392869792
 31
0.0
 12
804.23556533577255
 22
-249.38213928697911
 32
0.0
 13
804.23556533577255
 23
-249.38213928697911
 33
0.0
  0
SOLID
  5
356
  8
Éíû@É³
 62
     0
 10
803.73556533577255
 20
-260.382139286979
 30
0.0
 11
804.73556533577243
 21
-260.382139286979
 31
0.0
 12
804.23556533577255
 22
-257.38213928697922
 32
0.0
 13
804.23556533577255
 23
-257.38213928697922
 33
0.0
  0
INSERT
  5
357
  8
0
  6
CONTINUOUS
  2
*U31
 10
0.0
 20
0.0
 30
0.0
  0
POINT
  5
358
  8
DEFPOINTS
 62
     0
 10
811.9665073959726
 20
-249.38213928697911
 30
0.0
  0
POINT
  5
359
  8
DEFPOINTS
 62
     0
 10
820.89890478077257
 20
-257.38213928697922
 30
0.0
  0
POINT
  5
35A
  8
DEFPOINTS
 62
     0
 10
804.23556533577255
 20
-257.38213928697922
 30
0.0
  0
ENDBLK
  5
2DE
  8
0
  0
BLOCK
  8
0
  2
*U31
 70
     1
 10
0.0
 20
0.0
 30
0.0
  3
*U31
  1

  0
TEXT
  5
4A6
  8
Éíû@É³
  6
CONTINUOUS
 62
     0
 10
805.73487084627254
 20
-256.3807503079791
 30
0.0
 40
2.998611020999999
  1
(8)
 50
90.0
  0
ENDBLK
  5
4A8
  8
0
  0
BLOCK
  8
0
  2
*D32
 70
     1
 10
0.0
 20
0.0
 30
0.0
  3
*D32
  1

  0
LINE
  5
35B
  8
Éíû@É³
 62
     0
 10
781.21758537587255
 20
-198.77579008067909
 30
0.0
 11
793.20549848127268
 21
-198.77579008067909
 31
0.0
  0
LINE
  5
35C
  8
Éíû@É³
 62
     0
 10
781.21758537587255
 20
-179.77579008067909
 30
0.0
 11
793.20549848127268
 21
-179.77579008067909
 31
0.0
  0
LINE
  5
35D
  8
Éíû@É³
 62
     0
 10
792.70549848127268
 20
-195.77579008067909
 30
0.0
 11
792.70549848127268
 21
-191.36486409467921
 31
0.0
  0
LINE
  5
35E
  8
Éíû@É³
 62
     0
 10
792.70549848127268
 20
-182.77579008067909
 30
0.0
 11
792.70549848127268
 21
-187.1867160666792
 31
0.0
  0
SOLID
  5
35F
  8
Éíû@É³
 62
     0
 10
792.20549848127257
 20
-195.77579008067909
 30
0.0
 11
793.20549848127268
 21
-195.77579008067909
 31
0.0
 12
792.70549848127268
 22
-198.77579008067909
 32
0.0
 13
792.70549848127268
 23
-198.77579008067909
 33
0.0
  0
SOLID
  5
360
  8
Éíû@É³
 62
     0
 10
792.20549848127257
 20
-182.77579008067909
 30
0.0
 11
793.20549848127268
 21
-182.77579008067909
 31
0.0
 12
792.70549848127268
 22
-179.77579008067909
 32
0.0
 13
792.70549848127268
 23
-179.77579008067909
 33
0.0
  0
INSERT
  5
361
  8
0
  6
CONTINUOUS
  2
*U33
 10
0.0
 20
0.0
 30
0.0
  0
POINT
  5
362
  8
DEFPOINTS
 62
     0
 10
781.15508537587255
 20
-198.77579008067909
 30
0.0
  0
POINT
  5
363
  8
DEFPOINTS
 62
     0
 10
781.15508537587255
 20
-179.77579008067909
 30
0.0
  0
POINT
  5
364
  8
DEFPOINTS
 62
     0
 10
792.70549848127268
 20
-179.77579008067909
 30
0.0
  0
ENDBLK
  5
2EB
  8
0
  0
BLOCK
  8
0
  2
*U33
 70
     1
 10
0.0
 20
0.0
 30
0.0
  3
*U33
  1

  0
TEXT
  5
4AA
  8
Éíû@É³
  6
CONTINUOUS
 62
     0
 10
794.20480399177279
 20
-191.27486409467909
 30
0.0
 40
2.998611020999999
  1
19
 50
90.0
  0
ENDBLK
  5
4AC
  8
0
  0
BLOCK
  8
0
  2
*D34
 70
     1
 10
0.0
 20
0.0
 30
0.0
  3
*D34
  1

  0
LINE
  5
365
  8
Éíû@É³
 62
     0
 10
769.21758402257262
 20
-205.7081874653791
 30
0.0
 11
800.14384403277256
 21
-205.7081874653791
 31
0.0
  0
LINE
  5
366
  8
Éíû@É³
 62
     0
 10
772.71758537587255
 20
-176.77579008067909
 30
0.0
 11
800.14384403277256
 21
-176.77579008067909
 31
0.0
  0
LINE
  5
367
  8
Éíû@É³
 62
     0
 10
799.64384403277256
 20
-202.7081874653791
 30
0.0
 11
799.64384403277256
 21
-193.83083129047921
 31
0.0
  0
LINE
  5
368
  8
Éíû@É³
 62
     0
 10
799.64384403277256
 20
-179.77579008067909
 30
0.0
 11
799.64384403277256
 21
-188.65314625547919
 31
0.0
  0
SOLID
  5
369
  8
Éíû@É³
 62
     0
 10
799.14384403277256
 20
-202.7081874653791
 30
0.0
 11
800.14384403277256
 21
-202.7081874653791
 31
0.0
 12
799.64384403277256
 22
-205.7081874653791
 32
0.0
 13
799.64384403277256
 23
-205.7081874653791
 33
0.0
  0
SOLID
  5
36A
  8
Éíû@É³
 62
     0
 10
799.14384403277256
 20
-179.77579008067909
 30
0.0
 11
800.14384403277256
 21
-179.77579008067909
 31
0.0
 12
799.64384403277256
 22
-176.77579008067909
 32
0.0
 13
799.64384403277256
 23
-176.77579008067909
 33
0.0
  0
INSERT
  5
36B
  8
0
  6
CONTINUOUS
  2
*U35
 10
0.0
 20
0.0
 30
0.0
  0
POINT
  5
36C
  8
DEFPOINTS
 62
     0
 10
769.15508402257262
 20
-205.7081874653791
 30
0.0
  0
POINT
  5
36D
  8
DEFPOINTS
 62
     0
 10
772.65508537587255
 20
-176.77579008067909
 30
0.0
  0
POINT
  5
36E
  8
DEFPOINTS
 62
     0
 10
799.64384403277256
 20
-176.77579008067909
 30
0.0
  0
ENDBLK
  5
2F8
  8
0
  0
BLOCK
  8
0
  2
*U35
 70
     1
 10
0.0
 20
0.0
 30
0.0
  3
*U35
  1

  0
TEXT
  5
4AE
  8
Éíû@É³
  6
CONTINUOUS
 62
     0
 10
801.14314954327244
 20
-193.74083129047909
 30
0.0
 40
2.998611020999999
  1
29
 50
90.0
  0
ENDBLK
  5
4B0
  8
0
  0
BLOCK
  8
0
  2
*D36
 70
     1
 10
0.0
 20
0.0
 30
0.0
  3
*D36
  1

  0
LINE
  5
36F
  8
Éíû@É³
 62
     0
 10
750.59258537587255
 20
-182.0757900806791
 30
0.0
 11
733.33810623487261
 21
-182.0757900806791
 31
0.0
  0
LINE
  5
370
  8
Éíû@É³
 62
     0
 10
750.59258537587255
 20
-196.02579008067909
 30
0.0
 11
733.33810623487261
 21
-196.02579008067909
 31
0.0
  0
LINE
  5
371
  8
Éíû@É³
 62
     0
 10
733.83810623487261
 20
-185.0757900806791
 30
0.0
 11
733.83810623487261
 21
-186.9617160666792
 31
0.0
  0
LINE
  5
372
  8
Éíû@É³
 62
     0
 10
733.83810623487261
 20
-193.02579008067909
 30
0.0
 11
733.83810623487261
 21
-191.1398640946791
 31
0.0
  0
SOLID
  5
373
  8
Éíû@É³
 62
     0
 10
733.33810623487261
 20
-185.0757900806791
 30
0.0
 11
734.33810623487261
 21
-185.0757900806791
 31
0.0
 12
733.83810623487261
 22
-182.0757900806791
 32
0.0
 13
733.83810623487261
 23
-182.0757900806791
 33
0.0
  0
SOLID
  5
374
  8
Éíû@É³
 62
     0
 10
733.33810623487261
 20
-193.02579008067909
 30
0.0
 11
734.33810623487261
 21
-193.02579008067909
 31
0.0
 12
733.83810623487261
 22
-196.02579008067909
 32
0.0
 13
733.83810623487261
 23
-196.02579008067909
 33
0.0
  0
INSERT
  5
375
  8
0
  6
CONTINUOUS
  2
*U37
 10
0.0
 20
0.0
 30
0.0
  0
POINT
  5
376
  8
DEFPOINTS
 62
     0
 10
750.65508537587255
 20
-182.0757900806791
 30
0.0
  0
POINT
  5
377
  8
DEFPOINTS
 62
     0
 10
750.65508537587255
 20
-196.02579008067909
 30
0.0
  0
POINT
  5
378
  8
DEFPOINTS
 62
     0
 10
733.83810623487261
 20
-196.02579008067909
 30
0.0
  0
ENDBLK
  5
305
  8
0
  0
BLOCK
  8
0
  2
*U37
 70
     1
 10
0.0
 20
0.0
 30
0.0
  3
*U37
  1

  0
TEXT
  5
4B2
  8
Éíû@É³
  6
CONTINUOUS
 62
     0
 10
735.33741174537261
 20
-191.04986409467909
 30
0.0
 40
2.998611020999999
  1
14
 50
90.0
  0
ENDBLK
  5
4B4
  8
0
  0
BLOCK
  8
0
  2
*D38
 70
     1
 10
0.0
 20
0.0
 30
0.0
  3
*D38
  1

  0
LINE
  5
379
  8
Éíû@É³
 62
     0
 10
753.65508537587255
 20
-185.0132900806791
 30
0.0
 11
753.65508537587255
 21
-171.86749898267911
 31
0.0
  0
LINE
  5
37A
  8
Éíû@É³
 62
     0
 10
747.65508537587255
 20
-185.0132900806791
 30
0.0
 11
747.65508537587255
 21
-171.86749898267911
 31
0.0
  0
LINE
  5
37B
  8
Éíû@É³
 62
     0
 10
744.65508537587266
 20
-172.36749898267911
 30
0.0
 11
741.65508537587255
 21
-172.36749898267911
 31
0.0
  0
LINE
  5
37C
  8
Éíû@É³
 62
     0
 10
756.65508537587266
 20
-172.36749898267911
 30
0.0
 11
759.65508537587255
 21
-172.36749898267911
 31
0.0
  0
SOLID
  5
37D
  8
Éíû@É³
 62
     0
 10
744.65508537587266
 20
-171.86749898267911
 30
0.0
 11
744.65508537587266
 21
-172.86749898267911
 31
0.0
 12
747.65508537587255
 22
-172.36749898267911
 32
0.0
 13
747.65508537587255
 23
-172.36749898267911
 33
0.0
  0
SOLID
  5
37E
  8
Éíû@É³
 62
     0
 10
756.65508537587266
 20
-171.86749898267911
 30
0.0
 11
756.65508537587266
 21
-172.86749898267911
 31
0.0
 12
753.65508537587255
 22
-172.36749898267911
 32
0.0
 13
753.65508537587255
 23
-172.36749898267911
 33
0.0
  0
INSERT
  5
37F
  8
0
  6
CONTINUOUS
  2
*U39
 10
0.0
 20
0.0
 30
0.0
  0
POINT
  5
380
  8
DEFPOINTS
 62
     0
 10
753.65508537587255
 20
-185.0757900806791
 30
0.0
  0
POINT
  5
381
  8
DEFPOINTS
 62
     0
 10
747.65508537587255
 20
-185.0757900806791
 30
0.0
  0
POINT
  5
382
  8
DEFPOINTS
 62
     0
 10
747.65508537587255
 20
-172.36749898267911
 30
0.0
  0
ENDBLK
  5
312
  8
0
  0
BLOCK
  8
0
  2
*U39
 70
     1
 10
0.0
 20
0.0
 30
0.0
  3
*U39
  1

  0
TEXT
  5
4B6
  8
Éíû@É³
  6
CONTINUOUS
 62
     0
 10
759.74508537587269
 20
-173.8668044931791
 30
0.0
 40
2.998611020999999
  1
6
  0
ENDBLK
  5
4B8
  8
0
  0
BLOCK
  8
0
  2
*D40
 70
     1
 10
0.0
 20
0.0
 30
0.0
  3
*D40
  1

  0
LINE
  5
383
  8
Éíû@É³
 62
     0
 10
752.30508537587264
 20
-192.30199938697891
 30
0.0
 11
752.30508537587264
 21
-189.93675240527909
 31
0.0
  0
LINE
  5
384
  8
Éíû@É³
 62
     0
 10
749.00508537587257
 20
-192.30199938697891
 30
0.0
 11
749.00508537587257
 21
-189.93675240527909
 31
0.0
  0
LINE
  5
385
  8
Éíû@É³
 62
     0
 10
755.30508537587264
 20
-190.43675240527909
 30
0.0
 11
758.30508537587264
 21
-190.43675240527909
 31
0.0
  0
LINE
  5
386
  8
Éíû@É³
 62
     0
 10
746.0050853758728
 20
-190.43675240527909
 30
0.0
 11
743.0050853758728
 21
-190.43675240527909
 31
0.0
  0
SOLID
  5
387
  8
Éíû@É³
 62
     0
 10
755.30508537587264
 20
-189.93675240527909
 30
0.0
 11
755.30508537587264
 21
-190.93675240527909
 31
0.0
 12
752.30508537587264
 22
-190.43675240527909
 32
0.0
 13
752.30508537587264
 23
-190.43675240527909
 33
0.0
  0
SOLID
  5
388
  8
Éíû@É³
 62
     0
 10
746.0050853758728
 20
-189.93675240527909
 30
0.0
 11
746.0050853758728
 21
-190.93675240527909
 31
0.0
 12
749.00508537587257
 22
-190.43675240527909
 32
0.0
 13
749.00508537587257
 23
-190.43675240527909
 33
0.0
  0
INSERT
  5
389
  8
0
  6
CONTINUOUS
  2
*U41
 10
0.0
 20
0.0
 30
0.0
  0
POINT
  5
38A
  8
DEFPOINTS
 62
     0
 10
752.30508537587264
 20
-192.36449938697911
 30
0.0
  0
POINT
  5
38B
  8
DEFPOINTS
 62
     0
 10
749.00508537587257
 20
-192.36449938697911
 30
0.0
  0
POINT
  5
38C
  8
DEFPOINTS
 62
     0
 10
749.00508537587257
 20
-190.43675240527909
 30
0.0
  0
ENDBLK
  5
31F
  8
0
  0
BLOCK
  8
0
  2
*U41
 70
     1
 10
0.0
 20
0.0
 30
0.0
  3
*U41
  1

  0
TEXT
  5
4BA
  8
Éíû@É³
  6
CONTINUOUS
 62
     0
 10
736.91786333387267
 20
-191.93605791577909
 30
0.0
 40
2.998611020999999
  1
3.3
  0
ENDBLK
  5
4BC
  8
0
  0
BLOCK
  8
0
  2
*D42
 70
     1
 10
0.0
 20
0.0
 30
0.0
  3
*D42
  1

  0
LINE
  5
38D
  8
Éíû@É³
 62
     0
 10
778.65508537587255
 20
-180.0132900806791
 30
0.0
 11
778.65508537587255
 21
-165.16286960717909
 31
0.0
  0
LINE
  5
38E
  8
Éíû@É³
 62
     0
 10
750.65508537587255
 20
-180.0132900806791
 30
0.0
 11
750.65508537587255
 21
-165.16286960717909
 31
0.0
  0
LINE
  5
38F
  8
Éíû@É³
 62
     0
 10
775.65508537587255
 20
-165.66286960717909
 30
0.0
 11
767.24392789337264
 21
-165.66286960717909
 31
0.0
  0
LINE
  5
390
  8
Éíû@É³
 62
     0
 10
753.65508537587255
 20
-165.66286960717909
 30
0.0
 11
762.06624285837268
 21
-165.66286960717909
 31
0.0
  0
SOLID
  5
391
  8
Éíû@É³
 62
     0
 10
775.65508537587255
 20
-165.16286960717909
 30
0.0
 11
775.65508537587255
 21
-166.16286960717909
 31
0.0
 12
778.65508537587255
 22
-165.66286960717909
 32
0.0
 13
778.65508537587255
 23
-165.66286960717909
 33
0.0
  0
SOLID
  5
392
  8
Éíû@É³
 62
     0
 10
753.65508537587255
 20
-165.16286960717909
 30
0.0
 11
753.65508537587255
 21
-166.16286960717909
 31
0.0
 12
750.65508537587255
 22
-165.66286960717909
 32
0.0
 13
750.65508537587255
 23
-165.66286960717909
 33
0.0
  0
INSERT
  5
393
  8
0
  6
CONTINUOUS
  2
*U43
 10
0.0
 20
0.0
 30
0.0
  0
POINT
  5
394
  8
DEFPOINTS
 62
     0
 10
778.65508537587255
 20
-180.0757900806791
 30
0.0
  0
POINT
  5
395
  8
DEFPOINTS
 62
     0
 10
750.65508537587255
 20
-180.0757900806791
 30
0.0
  0
POINT
  5
396
  8
DEFPOINTS
 62
     0
 10
750.65508537587255
 20
-165.66286960717909
 30
0.0
  0
ENDBLK
  5
32C
  8
0
  0
BLOCK
  8
0
  2
*U43
 70
     1
 10
0.0
 20
0.0
 30
0.0
  3
*U43
  1

  0
TEXT
  5
4BE
  8
Éíû@É³
  6
CONTINUOUS
 62
     0
 10
762.15624285837282
 20
-167.16217511767911
 30
0.0
 40
2.998611020999999
  1
28
  0
ENDBLK
  5
4C0
  8
0
  0
BLOCK
  8
0
  2
*D44
 70
     1
 10
0.0
 20
0.0
 30
0.0
  3
*D44
  1

  0
LINE
  5
397
  8
Éíû@É³
 62
     0
 10
783.65508537587255
 20
-182.213290080679
 30
0.0
 11
783.65508537587255
 21
-157.98460873767911
 31
0.0
  0
LINE
  5
398
  8
Éíû@É³
 62
     0
 10
745.65508537587255
 20
-182.213290080679
 30
0.0
 11
745.65508537587255
 21
-157.98460873767911
 31
0.0
  0
LINE
  5
399
  8
Éíû@É³
 62
     0
 10
780.65508537587255
 20
-158.48460873767911
 30
0.0
 11
767.24392789337264
 21
-158.48460873767911
 31
0.0
  0
LINE
  5
39A
  8
Éíû@É³
 62
     0
 10
748.65508537587266
 20
-158.48460873767911
 30
0.0
 11
762.06624285837268
 21
-158.48460873767911
 31
0.0
  0
SOLID
  5
39B
  8
Éíû@É³
 62
     0
 10
780.65508537587255
 20
-157.98460873767911
 30
0.0
 11
780.65508537587255
 21
-158.98460873767911
 31
0.0
 12
783.65508537587255
 22
-158.48460873767911
 32
0.0
 13
783.65508537587255
 23
-158.48460873767911
 33
0.0
  0
SOLID
  5
39C
  8
Éíû@É³
 62
     0
 10
748.65508537587266
 20
-157.98460873767911
 30
0.0
 11
748.65508537587266
 21
-158.98460873767911
 31
0.0
 12
745.65508537587255
 22
-158.48460873767911
 32
0.0
 13
745.65508537587255
 23
-158.48460873767911
 33
0.0
  0
INSERT
  5
39D
  8
0
  6
CONTINUOUS
  2
*U45
 10
0.0
 20
0.0
 30
0.0
  0
POINT
  5
39E
  8
DEFPOINTS
 62
     0
 10
783.65508537587255
 20
-182.27579008067909
 30
0.0
  0
POINT
  5
39F
  8
DEFPOINTS
 62
     0
 10
745.65508537587255
 20
-182.27579008067909
 30
0.0
  0
POINT
  5
3A0
  8
DEFPOINTS
 62
     0
 10
745.65508537587255
 20
-158.48460873767911
 30
0.0
  0
ENDBLK
  5
339
  8
0
  0
BLOCK
  8
0
  2
*U45
 70
     1
 10
0.0
 20
0.0
 30
0.0
  3
*U45
  1

  0
TEXT
  5
4C2
  8
Éíû@É³
  6
CONTINUOUS
 62
     0
 10
762.15624285837282
 20
-159.9839142481791
 30
0.0
 40
2.998611020999999
  1
38
  0
ENDBLK
  5
4C4
  8
0
  0
BLOCK
  8
0
  2
*D46
 70
     1
 10
0.0
 20
0.0
 30
0.0
  3
*D46
  1

  0
LINE
  5
347
  8
Éíû@É³
 62
     0
 10
839.96140478077268
 20
-257.38213928697922
 30
0.0
 11
853.16980515957232
 21
-257.38213928697922
 31
0.0
  0
LINE
  5
348
  8
Éíû@É³
 62
     0
 10
833.36140478077243
 20
-241.5821392869791
 30
0.0
 11
853.16980515957255
 21
-241.5821392869791
 31
0.0
  0
LINE
  5
349
  8
Éíû@É³
 62
     0
 10
852.66980515957243
 20
-254.38213928697911
 30
0.0
 11
852.66980515957243
 21
-253.5702873149792
 31
0.0
  0
LINE
  5
34A
  8
Éíû@É³
 62
     0
 10
852.66980515957243
 20
-244.5821392869791
 30
0.0
 11
852.66980515957243
 21
-245.39399125897921
 31
0.0
  0
SOLID
  5
34B
  8
Éíû@É³
 62
     0
 10
852.16980515957255
 20
-254.38213928697911
 30
0.0
 11
853.16980515957255
 21
-254.38213928697911
 31
0.0
 12
852.66980515957243
 22
-257.38213928697922
 32
0.0
 13
852.66980515957243
 23
-257.38213928697922
 33
0.0
  0
SOLID
  5
34C
  8
Éíû@É³
 62
     0
 10
852.16980515957255
 20
-244.5821392869791
 30
0.0
 11
853.16980515957255
 21
-244.5821392869791
 31
0.0
 12
852.66980515957243
 22
-241.5821392869791
 32
0.0
 13
852.66980515957243
 23
-241.5821392869791
 33
0.0
  0
INSERT
  5
34D
  8
0
  6
CONTINUOUS
  2
*U47
 10
0.0
 20
0.0
 30
0.0
  0
POINT
  5
34E
  8
DEFPOINTS
 62
     0
 10
839.89890478077268
 20
-257.38213928697922
 30
0.0
  0
POINT
  5
34F
  8
DEFPOINTS
 62
     0
 10
833.29890478077255
 20
-241.5821392869791
 30
0.0
  0
POINT
  5
350
  8
DEFPOINTS
 62
     0
 10
852.66980515957243
 20
-241.5821392869791
 30
0.0
  0
ENDBLK
  5
346
  8
0
  0
BLOCK
  8
0
  2
*U47
 70
     1
 10
0.0
 20
0.0
 30
0.0
  3
*U47
  1

  0
TEXT
  5
4A2
  8
Éíû@É³
  6
CONTINUOUS
 62
     0
 10
854.16911067007266
 20
-253.48028731497919
 30
0.0
 40
2.998611020999999
  1
15.5
 50
90.0
  0
ENDBLK
  5
4A4
  8
0
  0
BLOCK
  8
0
  2
*U48
 70
     1
 10
0.0
 20
0.0
 30
0.0
  3
*U48
  1

  0
TEXT
  5
3B2
  8
┌▓È_1
  6
CONTINUOUS
 10
876.00581812835412
 20
-209.83177807262501
 30
0.0
 40
3.5983331442000002
  1
ìÌÄ┐(ÄdÅÒé░)
  0
TEXT
  5
3B3
  8
┌▓È_1
  6
CONTINUOUS
 10
876.00581812835412
 20
-216.04818778536301
 30
0.0
 40
3.5983331442000002
  1
éqéRéWü@üFôSÉ╗ü@âåâjâNâìâüâbâL
  0
TEXT
  5
3B4
  8
┌▓È_1
  6
CONTINUOUS
 10
876.00581812835412
 20
-222.2645974981011
 30
0.0
 40
3.5983331442000002
  1
éqébéRéWüFôSÉ╗ü@âNâìâüü[âgâüâbâL
  0
TEXT
  5
3B5
  8
┌▓È_1
  6
CONTINUOUS
 10
876.00581812835412
 20
-228.4444759098829
 30
0.0
 40
3.5983331442000002
  1
éqéréRéWüFâXâeâôâîâXÉ╗
  0
ENDBLK
  5
3B7
  8
0
  0
BLOCK
  8
0
  2
*U49
 70
     1
 10
0.0
 20
0.0
 30
0.0
  3
*U49
  1

  0
TEXT
  5
3B9
  8
┌▓È_1
  6
CONTINUOUS
 10
895.86599044947434
 20
-255.0023707309193
 30
0.0
 40
2.698749959499998
  1
âXâgâëâCâN
  0
ENDBLK
  5
3BB
  8
0
  0
BLOCK
  8
0
  2
*U50
 70
     1
 10
0.0
 20
0.0
 30
0.0
  3
*U50
  1

  0
TEXT
  5
3BD
  8
┌▓È_1
  6
CONTINUOUS
 10
875.97265964226062
 20
-241.0390715386844
 30
0.0
 40
3.5983331442000002
  1
û{æ╠ârâXüFü{ 3.1x13
  0
TEXT
  5
3BE
  8
┌▓È_1
  6
CONTINUOUS
 10
875.97265964226062
 20
-247.3833408047696
 30
0.0
 40
3.5983331442000002
  1
Ä¾ö┬(âXâgâëâCâN)ârâXüF ü{ 3.1x13
  0
ENDBLK
  5
3C0
  8
0
  0
BLOCK
  8
0
  2
*U51
 70
     1
 10
0.0
 20
0.0
 30
0.0
  3
*U51
  1

  0
TEXT
  5
3CE
  8
┌▓È_1
  6
CONTINUOUS
 10
892.26994037653651
 20
-265.11196463790401
 30
0.0
 40
2.698749959499998
  1
û{æ╠æñâèâxâbâg
  0
ENDBLK
  5
3D0
  8
0
  0
BLOCK
  8
0
  2
*U52
 70
     1
 10
0.0
 20
0.0
 30
0.0
  3
*U52
  1

  0
TEXT
  5
3D2
  8
┌▓È_1
  6
CONTINUOUS
 10
897.83868077520003
 20
-269.96127301579997
 30
0.0
 40
2.698749959499998
  1
âìü[âëü[
  0
ENDBLK
  5
3D4
  8
0
  0
BLOCK
  8
0
  2
*U53
 70
     1
 10
0.0
 20
0.0
 30
0.0
  3
*U53
  1

  0
TEXT
  5
3D6
  8
┌▓È_1
  6
CONTINUOUS
 10
901.3593850370861
 20
-275.02976920766548
 30
0.0
 40
2.698749959499998
  1
âoâl
  0
ENDBLK
  5
3D8
  8
0
  0
BLOCK
  8
0
  2
*U54
 70
     1
 10
0.0
 20
0.0
 30
0.0
  3
*U54
  1

  0
TEXT
  5
3DA
  8
┌▓È_1
  6
CONTINUOUS
 10
899.46204052241205
 20
-279.96127301579997
 30
0.0
 40
2.698749959499998
  1
âAü[âÇ
  0
ENDBLK
  5
3DC
  8
0
  0
BLOCK
  8
0
  2
*U55
 70
     1
 10
0.0
 20
0.0
 30
0.0
  3
*U55
  1

  0
TEXT
  5
3DE
  8
┌▓È_1
  6
CONTINUOUS
 10
901.07855065043782
 20
-285.11196463790412
 30
0.0
 40
2.698749959499998
  1
û{æ╠
  0
ENDBLK
  5
3E0
  8
0
  0
BLOCK
  8
0
  2
*U56
 70
     1
 10
0.0
 20
0.0
 30
0.0
  3
*U56
  1

  0
TEXT
  5
3E2
  8
┌▓È_1
  6
CONTINUOUS
 10
897.12165082490003
 20
-289.97607621996798
 30
0.0
 40
2.337499999999999
  1
òiü@ü@ü@û╝
  0
ENDBLK
  5
3E4
  8
0
  0
BLOCK
  8
0
  2
*U57
 70
     1
 10
0.0
 20
0.0
 30
0.0
  3
*U57
  1

  0
TEXT
  5
3E6
  8
┌▓È_1
  6
CONTINUOUS
 10
903.62285138629989
 20
-303.05147178063498
 30
0.0
 40
2.337499999999999
  1
ü@Ä┌ ü@ôx
  0
ENDBLK
  5
3E8
  8
0
  0
BLOCK
  8
0
  2
*U58
 70
     1
 10
0.0
 20
0.0
 30
0.0
  3
*U58
  1

  0
TEXT
  5
3EA
  8
┌▓È_1
  6
CONTINUOUS
 10
903.62285138629989
 20
-294.56333726286857
 30
0.0
 40
2.337499999999999
  1
ü@ö┬ ü@î·
  0
ENDBLK
  5
3EC
  8
0
  0
BLOCK
  8
0
  2
*U59
 70
     1
 10
0.0
 20
0.0
 30
0.0
  3
*U59
  1

  0
TEXT
  5
3EE
  8
┌▓È_1
  6
CONTINUOUS
 62
     5
 10
908.2682206512419
 20
-307.18281695830001
 30
0.0
 40
2.337499999999999
  1
1üF1
  0
ENDBLK
  5
3F0
  8
0
  0
BLOCK
  8
0
  2
*U60
 70
     1
 10
0.0
 20
0.0
 30
0.0
  3
*U60
  1

  0
TEXT
  5
3F6
  8
┌▓È_1
  6
CONTINUOUS
 10
889.03007050129895
 20
-260.0845661611578
 30
0.0
 40
2.698749959499998
  1
âìü[âëü[æñâèâxâbâg
  0
ENDBLK
  5
3F8
  8
0
  0
BLOCK
  8
0
  2
*U61
 70
     1
 10
0.0
 20
0.0
 30
0.0
  3
*U61
  1

  0
TEXT
  5
3FE
  8
┌▓È_1
  6
CONTINUOUS
 10
759.37296736607254
 20
-182.0061540806791
 30
0.0
 40
2.698749959499998
  1
éréoéf
  0
ENDBLK
  5
400
  8
0
  0
BLOCK
  8
0
  2
*U62
 70
     1
 10
0.0
 20
0.0
 30
0.0
  3
*U62
  1

  0
TEXT
  5
40A
  8
┌▓È_1
  6
CONTINUOUS
 10
862.3780192997998
 20
-314.64222341486652
 30
0.0
 40
4.3179999351999987
  1
èöÄ«ë´Äð
  0
ENDBLK
  5
40C
  8
0
  0
BLOCK
  8
0
  2
*U63
 70
     1
 10
0.0
 20
0.0
 30
0.0
  3
*U63
  1

  0
TEXT
  5
40E
  8
┌▓È_1
  6
CONTINUOUS
 10
855.15746557509999
 20
-303.06333726286857
 30
0.0
 40
2.337499999999999
  1
 É¦îvü@ü@öÆÉ{ëÛ
  0
ENDBLK
  5
410
  8
0
  0
BLOCK
  8
0
  2
*U64
 70
     1
 10
0.0
 20
0.0
 30
0.0
  3
*U64
  1

  0
TEXT
  5
412
  8
┌▓È_1
  6
CONTINUOUS
 10
855.15746557509999
 20
-307.30147178063498
 30
0.0
 40
2.337499999999999
  1
 É╗É}     
  0
ENDBLK
  5
414
  8
0
  0
BLOCK
  8
0
  2
*U65
 70
     1
 10
0.0
 20
0.0
 30
0.0
  3
*U65
  1

  0
TEXT
  5
416
  8
┌▓È_1
  6
CONTINUOUS
 10
887.62285138629989
 20
-303.06333726286857
 30
0.0
 40
2.337499999999999
  1
ü@îƒ ü@É}
  0
ENDBLK
  5
418
  8
0
  0
BLOCK
  8
0
  2
*U66
 70
     1
 10
0.0
 20
0.0
 30
0.0
  3
*U66
  1

  0
TEXT
  5
41A
  8
┌▓È_1
  6
CONTINUOUS
 10
887.62285138629989
 20
-294.51587533393462
 30
0.0
 40
2.337499999999999
  1
ü@ìÌ ü@Ä┐
  0
ENDBLK
  5
41C
  8
0
  0
BLOCK
  8
0
  2
*U67
 70
     1
 10
0.0
 20
0.0
 30
0.0
  3
*U67
  1

  0
TEXT
  5
41E
  8
┌▓È_1
  6
CONTINUOUS
 10
871.62285138629989
 20
-294.55147178063498
 30
0.0
 40
2.337499999999999
  1
ü@ê§ ü@Éö
  0
ENDBLK
  5
420
  8
0
  0
BLOCK
  8
0
  2
*U68
 70
     1
 10
0.0
 20
0.0
 30
0.0
  3
*U68
  1

  0
TEXT
  5
422
  8
┌▓È_1
  6
CONTINUOUS
 10
855.6228513863
 20
-294.48027888723402
 30
0.0
 40
2.337499999999999
  1
ü@ô· ü@òt
  0
ENDBLK
  5
424
  8
0
  0
BLOCK
  8
0
  2
*U69
 70
     1
 10
0.0
 20
0.0
 30
0.0
  3
*U69
  1

  0
TEXT
  5
426
  8
┌▓È_1
  6
CONTINUOUS
 10
877.67916065520001
 20
-255.07305726160001
 30
0.0
 40
2.698749959499998
  1
éV
  0
ENDBLK
  5
428
  8
0
  0
BLOCK
  8
0
  2
*U70
 70
     1
 10
0.0
 20
0.0
 30
0.0
  3
*U70
  1

  0
TEXT
  5
42A
  8
┌▓È_1
  6
CONTINUOUS
 10
875.15746557509988
 20
-289.95234525550097
 30
0.0
 40
2.337499999999999
  1
 É}öÈ
  0
ENDBLK
  5
42C
  8
0
  0
BLOCK
  8
0
  2
*U71
 70
     1
 10
0.0
 20
0.0
 30
0.0
  3
*U71
  1

  0
TEXT
  5
42E
  8
┌▓È_1
  6
CONTINUOUS
 10
877.67916065520001
 20
-285.0730572615999
 30
0.0
 40
2.698749959499998
  1
éP
  0
ENDBLK
  5
430
  8
0
  0
BLOCK
  8
0
  2
*U72
 70
     1
 10
0.0
 20
0.0
 30
0.0
  3
*U72
  1

  0
TEXT
  5
432
  8
┌▓È_1
  6
CONTINUOUS
 10
877.67916065520001
 20
-280.07305726160001
 30
0.0
 40
2.698749959499998
  1
éQ
  0
ENDBLK
  5
434
  8
0
  0
BLOCK
  8
0
  2
*U73
 70
     1
 10
0.0
 20
0.0
 30
0.0
  3
*U73
  1

  0
TEXT
  5
436
  8
┌▓È_1
  6
CONTINUOUS
 10
877.67916065520001
 20
-275.0730572615999
 30
0.0
 40
2.698749959499998
  1
éR
  0
ENDBLK
  5
438
  8
0
  0
BLOCK
  8
0
  2
*U74
 70
     1
 10
0.0
 20
0.0
 30
0.0
  3
*U74
  1

  0
TEXT
  5
43A
  8
┌▓È_1
  6
CONTINUOUS
 10
968.49999194190002
 20
-275.0730572615999
 30
0.0
 40
2.698749959499998
  1
éP
  0
ENDBLK
  5
43C
  8
0
  0
BLOCK
  8
0
  2
*U75
 70
     1
 10
0.0
 20
0.0
 30
0.0
  3
*U75
  1

  0
TEXT
  5
43E
  8
┌▓È_1
  6
CONTINUOUS
 10
933.86929315566863
 20
-275.1530623530233
 30
0.0
 40
2.698749959499998
  1
ôS/âXâeâôâîâX
  0
ENDBLK
  5
440
  8
0
  0
BLOCK
  8
0
  2
*U76
 70
     1
 10
0.0
 20
0.0
 30
0.0
  3
*U76
  1

  0
TEXT
  5
442
  8
┌▓È_1
  6
CONTINUOUS
 10
943.2746417031999
 20
-297.0021579909
 30
0.0
 40
3.5983331442000002
  1
éRéW
  0
ENDBLK
  5
444
  8
0
  0
BLOCK
  8
0
  2
*U77
 70
     1
 10
0.0
 20
0.0
 30
0.0
  3
*U77
  1

  0
TEXT
  5
446
  8
┌▓È_1
  6
CONTINUOUS
 10
931.03029022199996
 20
-305.75280874446912
 30
0.0
 40
3.5983331442000002
  1
âìü[âëü[âLâââbâ`
  0
ENDBLK
  5
448
  8
0
  0
BLOCK
  8
0
  2
*U78
 70
     1
 10
0.0
 20
0.0
 30
0.0
  3
*U78
  1

  0
TEXT
  5
44A
  8
┌▓È_1
  6
CONTINUOUS
 10
920.04796502880004
 20
-294.48697671920092
 30
0.0
 40
2.337499999999999
  1
î^öÈ
  0
ENDBLK
  5
44C
  8
0
  0
BLOCK
  8
0
  2
*U79
 70
     1
 10
0.0
 20
0.0
 30
0.0
  3
*U79
  1

  0
TEXT
  5
44E
  8
┌▓È_1
  6
CONTINUOUS
 10
920.04796502880004
 20
-303.01070768366822
 30
0.0
 40
2.337499999999999
  1
òiû╝
  0
ENDBLK
  5
450
  8
0
  0
BLOCK
  8
0
  2
*U80
 70
     1
 10
0.0
 20
0.0
 30
0.0
  3
*U80
  1

  0
TEXT
  5
452
  8
┌▓È_1
  6
CONTINUOUS
 10
920.04796502880004
 20
-311.48697671920092
 30
0.0
 40
2.337499999999999
  1
É}öÈ
  0
ENDBLK
  5
454
  8
0
  0
BLOCK
  8
0
  2
*U81
 70
     1
 10
0.0
 20
0.0
 30
0.0
  3
*U81
  1

  0
TEXT
  5
456
  8
┌▓È_1
  6
CONTINUOUS
 10
877.67916065520001
 20
-260.0730572615999
 30
0.0
 40
2.698749959499998
  1
éU
  0
ENDBLK
  5
458
  8
0
  0
BLOCK
  8
0
  2
*U82
 70
     1
 10
0.0
 20
0.0
 30
0.0
  3
*U82
  1

  0
TEXT
  5
45A
  8
┌▓È_1
  6
CONTINUOUS
 10
877.67916065520001
 20
-270.07305726160001
 30
0.0
 40
2.698749959499998
  1
éS
  0
ENDBLK
  5
45C
  8
0
  0
BLOCK
  8
0
  2
*U83
 70
     1
 10
0.0
 20
0.0
 30
0.0
  3
*U83
  1

  0
TEXT
  5
45E
  8
┌▓È_1
  6
CONTINUOUS
 10
877.67916065520001
 20
-265.07305726160001
 30
0.0
 40
2.698749959499998
  1
éT
  0
ENDBLK
  5
460
  8
0
  0
BLOCK
  8
0
  2
*U84
 70
     1
 10
0.0
 20
0.0
 30
0.0
  3
*U84
  1

  0
TEXT
  5
462
  8
┌▓È_1
  6
CONTINUOUS
 10
868.67281755369982
 20
-133.03975897425229
 30
0.0
 40
2.998611020999999
  1
Ä¾ö┬(âXâgâëâCâN)
  0
ENDBLK
  5
464
  8
0
  0
BLOCK
  8
0
  2
*U85
 70
     1
 10
0.0
 20
0.0
 30
0.0
  3
*U85
  1

  0
TEXT
  5
466
  8
┌▓È_1
  6
CONTINUOUS
 10
968.49999194190002
 20
-260.0730572615999
 30
0.0
 40
2.698749959499998
  1
éQ
  0
ENDBLK
  5
468
  8
0
  0
BLOCK
  8
0
  2
*U86
 70
     1
 10
0.0
 20
0.0
 30
0.0
  3
*U86
  1

  0
TEXT
  5
46A
  8
┌▓È_1
  6
CONTINUOUS
 10
927.64983893428234
 20
-260.15306235302347
 30
0.0
 40
2.698749959499998
  1
SW/SUS430  âË2.5éÿ12
  0
ENDBLK
  5
46C
  8
0
  0
BLOCK
  8
0
  2
*U87
 70
     1
 10
0.0
 20
0.0
 30
0.0
  3
*U87
  1

  0
TEXT
  5
46E
  8
┌▓È_1
  6
CONTINUOUS
 10
931.23218976884766
 20
-270.19416006814259
 30
0.0
 40
2.698749959499998
  1
ìéê│â|âèâGâ`âîâô
  0
ENDBLK
  5
470
  8
0
  0
BLOCK
  8
0
  2
*U88
 70
     1
 10
0.0
 20
0.0
 30
0.0
  3
*U88
  1

  0
TEXT
  5
472
  8
┌▓È_1
  6
CONTINUOUS
 10
968.49999194190002
 20
-270.07305726160001
 30
0.0
 40
2.698749959499998
  1
éQ
  0
ENDBLK
  5
474
  8
0
  0
BLOCK
  8
0
  2
*U89
 70
     1
 10
0.0
 20
0.0
 30
0.0
  3
*U89
  1

  0
TEXT
  5
476
  8
┌▓È_1
  6
CONTINUOUS
 10
968.49999194190002
 20
-265.07305726160001
 30
0.0
 40
2.698749959499998
  1
éP
  0
ENDBLK
  5
478
  8
0
  0
BLOCK
  8
0
  2
*U90
 70
     1
 10
0.0
 20
0.0
 30
0.0
  3
*U90
  1

  0
TEXT
  5
47A
  8
┌▓È_1
  6
CONTINUOUS
 10
927.65668855346894
 20
-265.15306235302347
 30
0.0
 40
2.698749959499998
  1
SW/SUS430  âË2.5éÿ15
  0
ENDBLK
  5
47C
  8
0
  0
BLOCK
  8
0
  2
*U91
 70
     1
 10
0.0
 20
0.0
 30
0.0
  3
*U91
  1

  0
TEXT
  5
47E
  8
┌▓È_1
  6
CONTINUOUS
 10
968.49999194190002
 20
-255.07305726160001
 30
0.0
 40
2.698749959499998
  1
éP
  0
ENDBLK
  5
480
  8
0
  0
BLOCK
  8
0
  2
*U92
 70
     1
 10
0.0
 20
0.0
 30
0.0
  3
*U92
  1

  0
TEXT
  5
482
  8
┌▓È_1
  6
CONTINUOUS
 10
926.77993729759135
 20
-255.15306235302339
 30
0.0
 40
2.698749959499998
  1
SPCC 0.7t/SUS430 0.7t
  0
ENDBLK
  5
484
  8
0
  0
BLOCK
  8
0
  2
*U93
 70
     1
 10
0.0
 20
0.0
 30
0.0
  3
*U93
  1

  0
TEXT
  5
486
  8
┌▓È_1
  6
CONTINUOUS
 10
968.49999194190002
 20
-280.07305726160001
 30
0.0
 40
2.698749959499998
  1
éQ
  0
ENDBLK
  5
488
  8
0
  0
BLOCK
  8
0
  2
*U94
 70
     1
 10
0.0
 20
0.0
 30
0.0
  3
*U94
  1

  0
TEXT
  5
48A
  8
┌▓È_1
  6
CONTINUOUS
 10
968.49999194190002
 20
-285.0730572615999
 30
0.0
 40
2.698749959499998
  1
éP
  0
ENDBLK
  5
48C
  8
0
  0
BLOCK
  8
0
  2
*U95
 70
     1
 10
0.0
 20
0.0
 30
0.0
  3
*U95
  1

  0
TEXT
  5
48E
  8
┌▓È_1
  6
CONTINUOUS
 10
926.77993729759135
 20
-280.15306235302347
 30
0.0
 40
2.698749959499998
  1
SPCC 0.7t/SUS430 0.7t
  0
ENDBLK
  5
490
  8
0
  0
BLOCK
  8
0
  2
*U96
 70
     1
 10
0.0
 20
0.0
 30
0.0
  3
*U96
  1

  0
TEXT
  5
492
  8
┌▓È_1
  6
CONTINUOUS
 10
926.77993729759135
 20
-285.15306235302347
 30
0.0
 40
2.698749959499998
  1
SPCC 1.0t/SUS430 1.0t
  0
ENDBLK
  5
494
  8
0
  0
BLOCK
  8
0
  2
*U97
 70
     1
 10
0.0
 20
0.0
 30
0.0
  3
*U97
  1

  0
TEXT
  5
496
  8
┌▓È_1
  6
CONTINUOUS
 10
938.62165082490014
 20
-289.9642107377345
 30
0.0
 40
2.337499999999999
  1
ìÌü@ü@ü@Ä┐
  0
ENDBLK
  5
498
  8
0
  0
BLOCK
  8
0
  2
*U98
 70
     1
 10
0.0
 20
0.0
 30
0.0
  3
*U98
  1

  0
TEXT
  5
49A
  8
┌▓È_1
  6
CONTINUOUS
 10
967.41628734369988
 20
-289.99980718443493
 30
0.0
 40
2.337499999999999
  1
Éöù╩
  0
ENDBLK
  5
49C
  8
0
  0
BLOCK
  8
0
  2
*U99
 70
     1
 10
0.0
 20
0.0
 30
0.0
  3
*U99
  1

  0
TEXT
  5
49E
  8
┌▓È_1
  6
CONTINUOUS
 10
940.52556369009994
 20
-314.20308014615978
 30
0.0
 40
3.5983331442000002
  1
ægùºÉ}
  0
ENDBLK
  5
4A0
  8
0
  0
ENDSEC
  0
SECTION
  2
ENTITIES
  0
LINE
  5
2F
  8
┌▓È_1
 62
     5
 10
754.11221220457264
 20
-244.1321392869792
 30
0.0
 11
763.65508672917269
 21
-244.1321392869792
 31
0.0
  0
LINE
  5
30
  8
┌▓È_1
 62
     5
 10
754.11221220457264
 20
-254.6321392869792
 30
0.0
 11
754.11221220457264
 21
-244.1321392869792
 31
0.0
  0
LINE
  5
31
  8
┌▓È_1
 62
     5
 10
975.15746557509988
 20
-316.88978355090001
 30
0.0
 11
975.15746557509988
 21
-126.88978355090001
 31
0.0
  0
INSERT
  5
32
  8
0
  6
CONTINUOUS
  2
*U48
 10
0.0
 20
0.0
 30
0.0
  0
LINE
  5
33
  8
┌▓È_1
 62
     5
 10
700.15746557509988
 20
-316.88978355090001
 30
0.0
 11
700.15746557509988
 21
-126.88978355090001
 31
0.0
  0
LINE
  5
34
  8
┌▓È_1
 62
     5
 10
700.15746557509988
 20
-126.88978355090001
 30
0.0
 11
975.15746557509988
 21
-126.88978355090001
 31
0.0
  0
LINE
  5
35
  8
┌▓È_1
 62
     5
 10
700.15746557509988
 20
-316.88978355090001
 30
0.0
 11
975.15746557509988
 21
-316.88978355090001
 31
0.0
  0
LINE
  5
36
  8
┌▓È_1
  6
BORDER
 62
     3
 10
811.9665073959726
 20
-249.38213928697911
 30
0.0
 11
824.96650739597249
 21
-249.38213928697911
 31
0.0
  0
LINE
  5
37
  8
┌▓È_1
 62
     5
 10
820.89890478077257
 20
-256.382139286979
 30
0.0
 11
839.89890478077268
 21
-256.382139286979
 31
0.0
  0
LINE
  5
38
  8
┌▓È_1
 62
     5
 10
839.89890478077268
 20
-257.38213928697922
 30
0.0
 11
820.89890478077257
 21
-257.38213928697922
 31
0.0
  0
LINE
  5
39
  8
┌▓È_1
 62
     5
 10
814.9665073959726
 20
-244.1321392869792
 30
0.0
 11
832.19890478077275
 21
-244.1321392869792
 31
0.0
  0
LINE
  5
3A
  8
┌▓È_1
 62
     5
 10
814.9665073959726
 20
-254.6321392869792
 30
0.0
 11
832.19890478077275
 21
-254.6321392869792
 31
0.0
  0
LINE
  5
3B
  8
┌▓È_1
 10
875.15746557509988
 20
-256.38978355090001
 30
0.0
 11
975.15746557509988
 21
-256.38978355090001
 31
0.0
  0
LINE
  5
3C
  8
┌▓È_1
 10
875.15746557509988
 20
-251.38978355090001
 30
0.0
 11
975.15746557509988
 21
-251.38978355090001
 31
0.0
  0
INSERT
  5
3D
  8
0
  6
CONTINUOUS
  2
*U49
 10
0.0
 20
0.0
 30
0.0
  0
INSERT
  5
3E
  8
0
  6
CONTINUOUS
  2
*U50
 10
0.0
 20
0.0
 30
0.0
  0
DIMENSION
  5
4F
  8
Éíû@É³
  2
*D44
 10
745.65508537587255
 20
-158.48460873767911
 30
0.0
 11
764.65508537587255
 21
-158.48460873767911
 31
0.0
 70
   128
  1
<>
 13
783.65508537587255
 23
-182.27579008067909
 33
0.0
 14
745.65508537587255
 24
-182.27579008067909
 34
0.0
  0
DIMENSION
  5
5E
  8
Éíû@É³
  2
*D42
 10
750.65508537587255
 20
-165.66286960717909
 30
0.0
 11
764.65508537587255
 21
-165.66286960717909
 31
0.0
 70
   128
  1
<>
 13
778.65508537587255
 23
-180.0757900806791
 33
0.0
 14
750.65508537587255
 24
-180.0757900806791
 34
0.0
  0
DIMENSION
  5
6D
  8
Éíû@É³
  2
*D40
 10
749.00508537587257
 20
-190.43675240527909
 30
0.0
 11
739.91647435487255
 21
-190.43675240527909
 31
0.0
 70
   128
  1
<>
 13
752.30508537587264
 23
-192.36449938697911
 33
0.0
 14
749.00508537587257
 24
-192.36449938697911
 34
0.0
  0
DIMENSION
  5
7C
  8
Éíû@É³
  2
*D38
 10
747.65508537587255
 20
-172.36749898267911
 30
0.0
 11
760.74462238287265
 21
-172.36749898267911
 31
0.0
 70
   128
  1
<>
 13
753.65508537587255
 23
-185.0757900806791
 33
0.0
 14
747.65508537587255
 24
-185.0757900806791
 34
0.0
  0
INSERT
  5
7E
  8
Éíû@É³
  2
BALLON0
 10
-14.350857196927221
 20
-10.82543378097909
 30
0.0
  0
INSERT
  5
88
  8
Éíû@É³
  2
BALLON1
 10
-14.350857196927221
 20
-10.82543378097909
 30
0.0
  0
INSERT
  5
92
  8
Éíû@É³
  2
BALLON2
 10
-14.350857196927221
 20
-10.82543378097909
 30
0.0
  0
LINE
  5
9B
  8
┌▓È_1
 62
     5
 10
758.51590878507261
 20
-192.46053098127911
 30
0.0
 11
754.11221220457264
 21
-198.4549988530791
 31
0.0
  0
LINE
  5
9C
  8
┌▓È_1
 62
     5
 10
754.11221220457264
 20
-198.4549988530791
 30
0.0
 11
757.24317951647265
 21
-203.1500413178791
 31
0.0
  0
LINE
  5
9D
  8
┌▓È_1
  6
BORDER
 62
     3
 10
754.15508672917281
 20
-201.20818746537901
 30
0.0
 11
775.15508402257262
 21
-201.20818746537901
 31
0.0
  0
LINE
  5
9E
  8
┌▓È_1
 62
     5
 10
752.30508537587264
 20
-194.37579008067911
 30
0.0
 11
752.30508537587264
 21
-187.58128404387909
 31
0.0
  0
LINE
  5
9F
  8
┌▓È_1
 62
     5
 10
756.65508537587266
 20
-179.77579008067909
 30
0.0
 11
748.15508537587255
 21
-179.77579008067909
 31
0.0
  0
ARC
  5
A0
  8
┌▓È_1
 62
     5
 10
750.65508537587255
 20
-194.37579008067911
 30
0.0
 40
1.649999999999999
 50
180.0000166577
 51
0.0000088304
  0
LINE
  5
A1
  8
┌▓È_1
 62
     5
 10
754.32613718077255
 20
-198.77579008067909
 30
0.0
 11
748.15508537587255
 21
-198.77579008067909
 31
0.0
  0
ARC
  5
A2
  8
┌▓È_1
 62
     5
 10
750.65508537587255
 20
-185.0757900806791
 30
0.0
 40
3.0
 50
303.3670129692
 51
236.63298703080011
  0
LINE
  5
A3
  8
┌▓È_1
 62
     5
 10
783.65508537587255
 20
-256.382139286979
 30
0.0
 11
745.65508537587255
 21
-256.382139286979
 31
0.0
  0
LINE
  5
A4
  8
┌▓È_1
 62
     5
 10
783.65508537587255
 20
-257.38213928697922
 30
0.0
 11
745.65508537587255
 21
-257.38213928697922
 31
0.0
  0
LINE
  5
A5
  8
┌▓È_1
 62
     5
 10
754.11221220457264
 20
-254.6321392869792
 30
0.0
 11
763.65508672917269
 21
-254.6321392869792
 31
0.0
  0
LINE
  5
A6
  8
┌▓È_1
 62
     5
 10
754.52550774607255
 20
-244.8321392869791
 30
0.0
 11
754.52550774607255
 21
-253.93213928697909
 31
0.0
  0
LINE
  5
A7
  8
┌▓È_1
 62
     5
 10
763.65508672917269
 20
-244.8321392869791
 30
0.0
 11
754.52550774607255
 21
-244.8321392869791
 31
0.0
  0
LINE
  5
A8
  8
┌▓È_1
 62
     5
 10
763.65508672917269
 20
-253.93213928697909
 30
0.0
 11
754.52550774607255
 21
-253.93213928697909
 31
0.0
  0
LINE
  5
A9
  8
┌▓È_1
 10
875.15746557509988
 20
-261.38978355090001
 30
0.0
 11
975.15746557509988
 21
-261.38978355090001
 31
0.0
  0
LINE
  5
AA
  8
┌▓È_1
 10
875.15746557509988
 20
-266.38978355090001
 30
0.0
 11
975.15746557509988
 21
-266.38978355090001
 31
0.0
  0
LINE
  5
AB
  8
┌▓È_1
 10
875.15746557509988
 20
-271.38978355090001
 30
0.0
 11
975.15746557509988
 21
-271.38978355090001
 31
0.0
  0
INSERT
  5
AC
  8
0
  6
CONTINUOUS
  2
*U51
 10
0.0
 20
0.0
 30
0.0
  0
INSERT
  5
AD
  8
0
  6
CONTINUOUS
  2
*U52
 10
0.0
 20
0.0
 30
0.0
  0
INSERT
  5
AE
  8
0
  6
CONTINUOUS
  2
*U53
 10
0.0
 20
0.0
 30
0.0
  0
INSERT
  5
AF
  8
0
  6
CONTINUOUS
  2
*U54
 10
0.0
 20
0.0
 30
0.0
  0
INSERT
  5
B0
  8
0
  6
CONTINUOUS
  2
*U55
 10
0.0
 20
0.0
 30
0.0
  0
INSERT
  5
B1
  8
0
  6
CONTINUOUS
  2
*U56
 10
0.0
 20
0.0
 30
0.0
  0
LINE
  5
B2
  8
┌▓È_1
 10
905.15746557509999
 20
-295.63978355090001
 30
0.0
 11
917.15746557509988
 21
-295.63978355090001
 31
0.0
  0
LINE
  5
B3
  8
┌▓È_1
 10
905.15746557509999
 20
-304.13978355090001
 30
0.0
 11
917.15746557509988
 21
-304.13978355090001
 31
0.0
  0
INSERT
  5
B4
  8
0
  6
CONTINUOUS
  2
*U57
 10
0.0
 20
0.0
 30
0.0
  0
INSERT
  5
B5
  8
0
  6
CONTINUOUS
  2
*U58
 10
0.0
 20
0.0
 30
0.0
  0
INSERT
  5
B6
  8
0
  6
CONTINUOUS
  2
*U59
 10
0.0
 20
0.0
 30
0.0
  0
LINE
  5
B7
  8
┌▓È_1
 62
     5
 10
907.25713790820009
 20
-313.2016451774
 30
0.0
 11
907.25713790820009
 21
-314.64164517739999
 31
0.0
  0
LINE
  5
B8
  8
┌▓È_1
 62
     5
 10
907.25713790820009
 20
-312.56164517740001
 30
0.0
 11
909.67847124149989
 21
-312.56164517740001
 31
0.0
  0
LINE
  5
B9
  8
┌▓È_1
 62
     5
 10
907.25713790820009
 20
-311.12164517740001
 30
0.0
 11
909.25607124149997
 21
-311.12164517740001
 31
0.0
  0
LINE
  5
BA
  8
┌▓È_1
 62
     5
 10
907.25713790820009
 20
-313.2016451774
 30
0.0
 11
909.86620457480001
 21
-313.2016451774
 31
0.0
  0
LINE
  5
BB
  8
┌▓È_1
 62
     5
 10
908.85713790820012
 20
-309.7616451774
 30
0.0
 11
912.05713790820005
 21
-309.7616451774
 31
0.0
  0
LINE
  5
BC
  8
┌▓È_1
 62
     5
 10
909.25607124149997
 20
-311.12164517740001
 30
0.0
 11
908.85713790820012
 21
-309.7616451774
 31
0.0
  0
LINE
  5
BD
  8
┌▓È_1
 10
855.15746557509999
 20
-291.38978355090001
 30
0.0
 11
975.15746557509988
 21
-291.38978355090001
 31
0.0
  0
LINE
  5
BE
  8
┌▓È_1
 10
855.15746557509999
 20
-299.88978355090001
 30
0.0
 11
975.15746557509988
 21
-299.88978355090001
 31
0.0
  0
LINE
  5
BF
  8
┌▓È_1
 10
855.15746557509999
 20
-308.38978355090001
 30
0.0
 11
975.15746557509988
 21
-308.38978355090001
 31
0.0
  0
LINE
  5
C0
  8
┌▓È_1
 62
     5
 10
907.25713790820009
 20
-311.12164517740001
 30
0.0
 11
907.25713790820009
 21
-312.56164517740001
 31
0.0
  0
LINE
  5
C1
  8
┌▓È_1
 62
     5
 10
907.25713790820009
 20
-314.64164517739999
 30
0.0
 11
910.28860457479982
 21
-314.64164517739999
 31
0.0
  0
LINE
  5
C2
  8
┌▓È_1
 62
     5
 10
755.45508537587261
 20
-179.77579008067909
 30
0.0
 11
755.45508537587261
 21
-190.69000364297909
 31
0.0
  0
LINE
  5
C3
  8
┌▓È_1
 62
     5
 10
772.65508537587255
 20
-176.77579008067909
 30
0.0
 11
772.65508537587255
 21
-188.52579008067909
 31
0.0
  0
LINE
  5
C4
  8
┌▓È_1
 62
     5
 10
756.65508537587266
 20
-188.52579008067909
 30
0.0
 11
756.65508537587266
 21
-176.77579008067909
 31
0.0
  0
LINE
  5
C5
  8
┌▓È_1
 62
     5
 10
783.65508537587255
 20
-182.27579008067909
 30
0.0
 11
783.65508537587255
 21
-196.27579008067909
 31
0.0
  0
DIMENSION
  5
D4
  8
Éíû@É³
  2
*D36
 10
733.83810623487261
 20
-196.02579008067909
 30
0.0
 11
733.83810623487261
 21
-189.05079008067909
 31
0.0
 70
   128
  1
14
 13
750.65508537587255
 23
-182.0757900806791
 33
0.0
 14
750.65508537587255
 24
-196.02579008067909
 34
0.0
 50
90.0
  0
LINE
  5
D5
  8
┌▓È_1
  6
BORDER
 62
     3
 10
750.65508537587255
 20
-198.02579008067909
 30
0.0
 11
750.65508537587255
 21
-180.0757900806791
 31
0.0
  0
LINE
  5
D6
  8
┌▓È_1
 62
     5
 10
745.65508537587255
 20
-196.27579008067909
 30
0.0
 11
745.65508537587255
 21
-182.27579008067909
 31
0.0
  0
DIMENSION
  5
DE
  8
Éíû@É³
  2
*D13
 10
912.18551748580001
 20
-154.3540080919
 30
0.0
 11
883.61075788379992
 21
-163.8065369501
 31
0.0
 70
   131
  1
2-%%c<>
 15
908.89462095140004
 25
-156.2540080919
 35
0.0
 40
0.0
  0
DIMENSION
  5
ED
  8
Éíû@É³
  2
*D14
 10
934.79006921860002
 20
-138.01128081889999
 30
0.0
 11
920.54006921860002
 21
-138.01128081889999
 31
0.0
 70
   128
  1
<>
 13
934.79006921860002
 23
-150.55400809189999
 33
0.0
 14
906.29006921860002
 24
-150.55400809189999
 34
0.0
  0
INSERT
  5
EF
  8
Éíû@É³
  2
BALLON3
 10
0.0
 20
0.0
 30
0.0
  0
LINE
  5
F8
  8
┌▓È_1
  6
BORDER
 62
     3
 10
904.29006921860002
 20
-155.30400809189999
 30
0.0
 11
936.79006921859991
 21
-155.30400809189999
 31
0.0
  0
LINE
  5
F9
  8
┌▓È_1
 62
     5
 10
906.29006921860002
 20
-186.11804006689999
 30
0.0
 11
906.86282178079989
 21
-187.89622861219999
 31
0.0
  0
LINE
  5
FA
  8
┌▓È_1
 62
     5
 10
906.29006921860002
 20
-159.05400809189999
 30
0.0
 11
907.29006921859991
 21
-160.05400809189999
 31
0.0
  0
LINE
  5
FB
  8
┌▓È_1
 62
     5
 10
906.29006921860002
 20
-151.55400809189999
 30
0.0
 11
907.29006921859991
 21
-150.55400809189999
 31
0.0
  0
LINE
  5
FC
  8
┌▓È_1
 62
     5
 10
906.29006921860002
 20
-150.55400809189999
 30
0.0
 11
934.79006921860002
 21
-150.55400809189999
 31
0.0
  0
LINE
  5
FD
  8
┌▓È_1
 62
     5
 10
934.79006921860002
 20
-160.05400809189999
 30
0.0
 11
906.29006921860002
 21
-160.05400809189999
 31
0.0
  0
CIRCLE
  5
FE
  8
┌▓È_1
 62
     5
 10
910.54006921860002
 20
-155.30400809189999
 30
0.0
 40
1.8999999999999999
  0
LINE
  5
FF
  8
┌▓È_1
 62
     5
 10
906.29006921860002
 20
-186.11804006689999
 30
0.0
 11
918.59291117880002
 21
-185.61754467079999
 31
0.0
  0
LINE
  5
100
  8
┌▓È_1
 62
     5
 10
906.86282178079989
 20
-187.89622861219999
 30
0.0
 11
908.91419773860014
 21
-186.71186615080001
 31
0.0
  0
LINE
  5
101
  8
┌▓È_1
 62
     5
 10
908.91419773860014
 20
-186.71186615080001
 30
0.0
 11
918.62136454199981
 21
-186.31696615039999
 31
0.0
  0
LINE
  5
102
  8
┌▓È_1
  6
DIVIDE
 62
     4
 10
865.15746557509999
 20
-196.88978355090001
 30
0.0
 11
975.15746557509988
 21
-196.88978355090001
 31
0.0
  0
INSERT
  5
103
  8
0
  6
CONTINUOUS
  2
*U60
 10
0.0
 20
0.0
 30
0.0
  0
LINE
  5
104
  8
┌▓È_1
 10
875.15746557509988
 20
-276.38978355090001
 30
0.0
 11
975.15746557509988
 21
-276.38978355090001
 31
0.0
  0
LINE
  5
105
  8
┌▓È_1
 10
875.15746557509988
 20
-281.38978355090001
 30
0.0
 11
975.15746557509988
 21
-281.38978355090001
 31
0.0
  0
LINE
  5
106
  8
┌▓È_1
 10
875.15746557509988
 20
-286.38978355090001
 30
0.0
 11
975.15746557509988
 21
-286.38978355090001
 31
0.0
  0
LINE
  5
107
  8
┌▓È_1
 62
     5
 10
921.67642761729996
 20
-172.18720035390001
 30
0.0
 11
923.08936669469995
 21
-174.7300537045999
 31
0.0
  0
LINE
  5
108
  8
┌▓È_1
 62
     5
 10
919.4037108199999
 20
-172.18720035390001
 30
0.0
 11
917.99077174249987
 21
-174.7300537045999
 31
0.0
  0
ARC
  5
109
  8
┌▓È_1
 62
     5
 10
922.39006921860005
 20
-175.11861906589999
 30
0.0
 40
1.5
 50
312.9331760064
 51
29.058808924299999
  0
ARC
  5
10A
  8
┌▓È_1
 62
     5
 10
920.54006921860002
 20
-172.81861906590001
 30
0.0
 40
2.0
 50
29.058779434600009
 51
150.94121566999999
  0
LINE
  5
10B
  8
┌▓È_1
  6
BORDER
 62
     3
 10
920.54006921860002
 20
-167.8865967662
 30
0.0
 11
920.54006921860002
 21
-189.5338089393
 31
0.0
  0
LINE
  5
10C
  8
┌▓È_1
  6
DIVIDE
 62
     4
 10
865.15746557509999
 20
-196.88978355090001
 30
0.0
 11
865.15746557509999
 21
-126.88978355090001
 31
0.0
  0
LINE
  5
10D
  8
┌▓È_1
 10
925.15746557509988
 20
-291.38978355090001
 30
0.0
 11
925.15746557509988
 21
-251.38978355090001
 31
0.0
  0
LINE
  5
10E
  8
┌▓È_1
 10
965.15746557510022
 20
-291.38978355090001
 30
0.0
 11
965.15746557510022
 21
-251.38978355090001
 31
0.0
  0
LINE
  5
10F
  8
┌▓È_1
 10
883.65746557509999
 20
-291.38978355090001
 30
0.0
 11
883.65746557509999
 21
-251.38978355090001
 31
0.0
  0
LINE
  5
110
  8
┌▓È_1
 10
875.15746557509988
 20
-251.38978355090001
 30
0.0
 11
875.15746557509988
 21
-291.38978355090001
 31
0.0
  0
DIMENSION
  5
11F
  8
Éíû@É³
  2
*D34
 10
799.64384403277256
 20
-176.77579008067909
 30
0.0
 11
799.64384403277256
 21
-191.24198877297911
 31
0.0
 70
   128
  1
29
 13
769.15508402257262
 23
-205.7081874653791
 33
0.0
 14
772.65508537587255
 24
-176.77579008067909
 34
0.0
 50
90.0
  0
DIMENSION
  5
12E
  8
Éíû@É³
  2
*D32
 10
792.70549848127268
 20
-179.77579008067909
 30
0.0
 11
792.70549848127268
 21
-189.27579008067909
 31
0.0
 70
   128
  1
<>
 13
781.15508537587255
 23
-198.77579008067909
 33
0.0
 14
781.15508537587255
 24
-179.77579008067909
 34
0.0
 50
90.0
  0
ARC
  5
12F
  8
┌▓È_1
 62
     5
 10
778.65508537587255
 20
-185.0757900806791
 30
0.0
 40
3.0
 50
303.3670129692
 51
236.63298703080011
  0
LINE
  5
130
  8
┌▓È_1
  6
STITCH
 10
764.65508537587255
 20
-184.14185153447909
 30
0.0
 11
772.15152140907276
 21
-182.82002760267909
 31
0.0
  0
ARC
  5
131
  8
┌▓È_1
  6
STITCH
 10
764.65508537587255
 20
-186.37579008067911
 30
0.0
 40
2.2000000000000002
 50
127.0141139198
 51
80.000014010800015
  0
LINE
  5
132
  8
┌▓È_1
  6
STITCH
 10
772.27307513347262
 20
-183.50939302977909
 30
0.0
 11
765.97951119567244
 21
-184.6191181568791
 31
0.0
  0
LINE
  5
133
  8
┌▓È_1
  6
STITCH
 10
772.15152140907276
 20
-182.82002760267909
 30
0.0
 11
772.27307513347262
 21
-183.50939302977909
 31
0.0
  0
CIRCLE
  5
134
  8
┌▓È_1
  6
STITCH
 10
764.65508537587255
 20
-186.37579008067911
 30
0.0
 40
1.5
  0
LINE
  5
135
  8
┌▓È_1
  6
STITCH
 10
757.0370956182727
 20
-183.50939302977909
 30
0.0
 11
764.91555764237262
 21
-184.89857845107909
 31
0.0
  0
LINE
  5
136
  8
┌▓È_1
  6
STITCH
 10
757.15864934267256
 20
-182.82002760267909
 30
0.0
 11
757.0370956182727
 21
-183.50939302977909
 31
0.0
  0
LINE
  5
137
  8
┌▓È_1
  6
STITCH
 10
765.03711136677248
 20
-184.20921302397909
 30
0.0
 11
757.15864934267256
 21
-182.82002760267909
 31
0.0
  0
CIRCLE
  5
138
  8
┌▓È_1
 62
     5
 10
764.65508537587255
 20
-186.37579008067911
 30
0.0
 40
2.0
  0
LINE
  5
139
  8
┌▓È_1
  6
BORDER
 62
     3
 10
778.65508537587255
 20
-198.02579008067909
 30
0.0
 11
778.65508537587255
 21
-180.0757900806791
 31
0.0
  0
LINE
  5
13A
  8
┌▓È_1
  6
BORDER
 62
     3
 10
764.65508537587255
 20
-208.77579008067909
 30
0.0
 11
764.65508537587255
 21
-173.77579008067909
 31
0.0
  0
LINE
  5
13B
  8
┌▓È_1
 62
     5
 10
773.85508537587282
 20
-179.77579008067909
 30
0.0
 11
773.85508537587282
 21
-190.69000364297909
 31
0.0
  0
LINE
  5
13C
  8
┌▓È_1
 62
     5
 10
814.9665073959726
 20
-253.93213928697909
 30
0.0
 11
814.9665073959726
 21
-254.6321392869792
 31
0.0
  0
LINE
  5
13D
  8
┌▓È_1
 62
     5
 10
814.9665073959726
 20
-244.1321392869792
 30
0.0
 11
814.9665073959726
 21
-244.8321392869791
 31
0.0
  0
LINE
  5
13E
  8
┌▓È_1
 62
     5
 10
821.21969600837281
 20
-244.1321392869792
 30
0.0
 11
821.21969600837281
 21
-254.6321392869792
 31
0.0
  0
LINE
  5
13F
  8
┌▓È_1
 62
     5
 10
814.9665073959726
 20
-253.93213928697909
 30
0.0
 11
820.59993862207261
 21
-253.93213928697909
 31
0.0
  0
LINE
  5
140
  8
┌▓È_1
 62
     5
 10
814.9665073959726
 20
-244.8321392869791
 30
0.0
 11
820.59993862207261
 21
-244.8321392869791
 31
0.0
  0
LINE
  5
141
  8
┌▓È_1
 62
     5
 10
816.86650739597235
 20
-255.13213928697911
 30
0.0
 11
820.06650739597262
 21
-255.13213928697911
 31
0.0
  0
LINE
  5
142
  8
┌▓È_1
 62
     5
 10
816.86650739597235
 20
-255.13213928697911
 30
0.0
 11
816.86650739597235
 21
-254.6321392869792
 31
0.0
  0
LINE
  5
143
  8
┌▓È_1
 62
     5
 10
820.06650739597262
 20
-255.13213928697911
 30
0.0
 11
820.06650739597262
 21
-254.6321392869792
 31
0.0
  0
ARC
  5
144
  8
┌▓È_1
 62
     5
 10
818.4665073959726
 20
-246.03213928697909
 30
0.0
 40
2.8999999999999999
 50
46.397181027299993
 51
133.60281897269999
  0
LINE
  5
145
  8
┌▓È_1
 62
     5
 10
820.46650739597249
 20
-244.1321392869792
 30
0.0
 11
820.46650739597249
 21
-243.93213928697909
 31
0.0
  0
LINE
  5
146
  8
┌▓È_1
 62
     5
 10
816.4665073959726
 20
-244.1321392869792
 30
0.0
 11
816.4665073959726
 21
-243.93213928697909
 31
0.0
  0
LINE
  5
147
  8
┌▓È_1
 62
     5
 10
817.2165073959726
 20
-245.23213928697911
 30
0.0
 11
817.2165073959726
 21
-244.8321392869791
 31
0.0
  0
LINE
  5
148
  8
┌▓È_1
 62
     5
 10
813.96650739597283
 20
-253.53213928697909
 30
0.0
 11
820.59993862207261
 21
-253.53213928697909
 31
0.0
  0
LINE
  5
149
  8
┌▓È_1
  6
STITCH
 10
820.59993862207261
 20
-253.53213928697909
 30
0.0
 11
822.9665073959726
 21
-253.53213928697909
 31
0.0
  0
LINE
  5
14A
  8
┌▓È_1
 62
     5
 10
813.96650739597283
 20
-245.23213928697911
 30
0.0
 11
813.96650739597283
 21
-253.53213928697909
 31
0.0
  0
LINE
  5
14B
  8
┌▓È_1
  6
STITCH
 10
822.9665073959726
 20
-245.23213928697911
 30
0.0
 11
822.9665073959726
 21
-253.53213928697909
 31
0.0
  0
LINE
  5
14C
  8
┌▓È_1
  6
BORDER
 62
     3
 10
818.4665073959726
 20
-241.13213928697911
 30
0.0
 11
818.4665073959726
 21
-257.13213928697911
 31
0.0
  0
LINE
  5
14D
  8
┌▓È_1
 62
     5
 10
819.71650739597249
 20
-245.23213928697911
 30
0.0
 11
819.71650739597249
 21
-244.8321392869791
 31
0.0
  0
LINE
  5
14E
  8
┌▓È_1
 62
     5
 10
783.65508537587255
 20
-257.38213928697922
 30
0.0
 11
783.65508537587255
 21
-256.382139286979
 31
0.0
  0
LINE
  5
14F
  8
┌▓È_1
 62
     5
 10
745.65508537587255
 20
-257.38213928697922
 30
0.0
 11
745.65508537587255
 21
-256.382139286979
 31
0.0
  0
DIMENSION
  5
15E
  8
Éíû@É³
  2
*D19
 10
942.16594069860002
 20
-186.71186615080001
 30
0.0
 11
942.16594069860002
 21
-178.76524260830001
 31
0.0
 70
   128
  1
16.5
 13
932.16594069860002
 23
-186.71186615080001
 33
0.0
 14
920.54006921860002
 24
-170.81861906590001
 34
0.0
 50
90.0
  0
LINE
  5
15F
  8
┌▓È_1
 62
     5
 10
922.28831290880021
 20
-171.84720566280001
 30
0.0
 11
923.70125198630001
 21
-174.39005901359999
 31
0.0
  0
LINE
  5
160
  8
┌▓È_1
 62
     5
 10
917.37888645089993
 20
-174.39005901359999
 30
0.0
 11
918.79182552839995
 21
-171.84720566280001
 31
0.0
  0
ARC
  5
161
  8
┌▓È_1
 62
     5
 10
920.54006921860002
 20
-172.81861906590001
 30
0.0
 40
1.3
 50
29.058770472700001
 51
150.94118959689999
  0
ARC
  5
162
  8
┌▓È_1
 62
     5
 10
918.6900692186
 20
-175.11861906589999
 30
0.0
 40
1.5
 50
150.94121131099999
 51
227.06683458449999
  0
LINE
  5
163
  8
┌▓È_1
 62
     5
 10
772.65508537587255
 20
-244.1321392869792
 30
0.0
 11
772.65508537587255
 21
-242.5821392869791
 31
0.0
  0
LINE
  5
164
  8
┌▓È_1
 62
     5
 10
773.65508537587266
 20
-253.53213928697909
 30
0.0
 11
773.65508537587266
 21
-245.23213928697911
 31
0.0
  0
LINE
  5
165
  8
┌▓È_1
 62
     5
 10
764.65508537587255
 20
-253.53213928697909
 30
0.0
 11
773.65508537587266
 21
-253.53213928697909
 31
0.0
  0
LINE
  5
166
  8
┌▓È_1
 62
     5
 10
772.65508537587255
 20
-255.18213928697909
 30
0.0
 11
756.65508537587266
 21
-255.18213928697909
 31
0.0
  0
LINE
  5
167
  8
┌▓È_1
 62
     5
 10
772.65508537587255
 20
-243.5821392869791
 30
0.0
 11
770.70669608757248
 21
-243.5821392869791
 31
0.0
  0
LINE
  5
168
  8
┌▓È_1
 62
     5
 10
767.60347195767258
 20
-243.5821392869791
 30
0.0
 11
761.70669879407274
 21
-243.5821392869791
 31
0.0
  0
LINE
  5
169
  8
┌▓È_1
 62
     5
 10
758.60347466427265
 20
-243.5821392869791
 30
0.0
 11
756.65508537587266
 21
-243.5821392869791
 31
0.0
  0
LINE
  5
16A
  8
┌▓È_1
 62
     5
 10
771.65508537587255
 20
-254.6321392869792
 30
0.0
 11
771.65508537587255
 21
-255.18213928697909
 31
0.0
  0
LINE
  5
16B
  8
┌▓È_1
 62
     5
 10
756.65508537587266
 20
-242.5821392869791
 30
0.0
 11
756.65508537587266
 21
-244.1321392869792
 31
0.0
  0
LINE
  5
16C
  8
┌▓È_1
 62
     5
 10
756.65508537587266
 20
-254.6321392869792
 30
0.0
 11
756.65508537587266
 21
-255.18213928697909
 31
0.0
  0
LINE
  5
16D
  8
┌▓È_1
 62
     5
 10
757.65508537587255
 20
-243.5821392869791
 30
0.0
 11
757.65508537587255
 21
-244.1321392869792
 31
0.0
  0
LINE
  5
16E
  8
┌▓È_1
 62
     5
 10
775.19795854717256
 20
-244.1321392869792
 30
0.0
 11
765.65508402257262
 21
-244.1321392869792
 31
0.0
  0
LINE
  5
16F
  8
┌▓È_1
 62
     5
 10
775.19795854717256
 20
-254.6321392869792
 30
0.0
 11
765.65508402257262
 21
-254.6321392869792
 31
0.0
  0
LINE
  5
170
  8
┌▓È_1
 62
     5
 10
775.19795854717256
 20
-244.1321392869792
 30
0.0
 11
775.19795854717256
 21
-254.6321392869792
 31
0.0
  0
LINE
  5
171
  8
┌▓È_1
 62
     5
 10
762.65508537587255
 20
-242.5821392869791
 30
0.0
 11
762.65508537587255
 21
-242.3821392869792
 31
0.0
  0
LINE
  5
172
  8
┌▓È_1
 62
     5
 10
771.65508537587255
 20
-243.5821392869791
 30
0.0
 11
771.65508537587255
 21
-244.1321392869792
 31
0.0
  0
LINE
  5
173
  8
┌▓È_1
 62
     5
 10
772.65508537587255
 20
-255.18213928697909
 30
0.0
 11
772.65508537587255
 21
-254.6321392869792
 31
0.0
  0
LINE
  5
174
  8
┌▓È_1
  6
BORDER
 62
     3
 10
764.65508537587255
 20
-238.5821392869791
 30
0.0
 11
764.65508537587255
 21
-260.382139286979
 31
0.0
  0
LINE
  5
175
  8
┌▓È_1
 62
     5
 10
773.65508537587266
 20
-245.23213928697911
 30
0.0
 11
755.65508672917269
 21
-245.23213928697911
 31
0.0
  0
LINE
  5
176
  8
┌▓È_1
 62
     5
 10
813.96650739597283
 20
-245.23213928697911
 30
0.0
 11
820.59993862207261
 21
-245.23213928697911
 31
0.0
  0
LINE
  5
177
  8
┌▓È_1
  6
STITCH
 10
820.59993862207261
 20
-245.23213928697911
 30
0.0
 11
822.9665073959726
 21
-245.23213928697911
 31
0.0
  0
LINE
  5
178
  8
┌▓È_1
 62
     5
 10
817.2165073959726
 20
-253.53213928697909
 30
0.0
 11
817.2165073959726
 21
-253.93213928697909
 31
0.0
  0
LINE
  5
179
  8
┌▓È_1
 62
     5
 10
819.71650739597249
 20
-253.53213928697909
 30
0.0
 11
819.71650739597249
 21
-253.93213928697909
 31
0.0
  0
LINE
  5
17A
  8
┌▓È_1
 62
     5
 10
820.89890478077257
 20
-257.38213928697922
 30
0.0
 11
820.89890478077257
 21
-256.382139286979
 31
0.0
  0
LINE
  5
17B
  8
┌▓È_1
 62
     5
 10
820.59993862207261
 20
-244.8321392869791
 30
0.0
 11
820.59993862207261
 21
-253.93213928697909
 31
0.0
  0
LINE
  5
17C
  8
┌▓È_1
 62
     5
 10
774.78466300577259
 20
-244.8321392869791
 30
0.0
 11
765.65508402257262
 21
-244.8321392869791
 31
0.0
  0
LINE
  5
17D
  8
┌▓È_1
 62
     5
 10
774.78466300577259
 20
-253.93213928697909
 30
0.0
 11
765.65508402257262
 21
-253.93213928697909
 31
0.0
  0
LINE
  5
17E
  8
┌▓È_1
 62
     5
 10
764.65508537587255
 20
-253.53213928697909
 30
0.0
 11
755.65508537587255
 21
-253.53213928697909
 31
0.0
  0
LINE
  5
17F
  8
┌▓È_1
 62
     5
 10
757.65508537587255
 20
-254.6321392869792
 30
0.0
 11
757.65508537587255
 21
-255.18213928697909
 31
0.0
  0
LINE
  5
180
  8
┌▓È_1
 62
     5
 10
762.15508672917281
 20
-244.1321392869792
 30
0.0
 11
762.15508672917281
 21
-243.93213928697909
 31
0.0
  0
LINE
  5
181
  8
┌▓È_1
 62
     5
 10
758.15508672917281
 20
-244.1321392869792
 30
0.0
 11
758.15508672917281
 21
-243.93213928697909
 31
0.0
  0
ARC
  5
182
  8
┌▓È_1
 62
     5
 10
760.15508672917269
 20
-246.03213928697909
 30
0.0
 40
2.8999999999999999
 50
46.397181027299993
 51
133.60281897269999
  0
LINE
  5
183
  8
┌▓È_1
 62
     5
 10
767.90508402257262
 20
-245.23213928697911
 30
0.0
 11
767.90508402257262
 21
-244.8321392869791
 31
0.0
  0
LINE
  5
184
  8
┌▓È_1
 62
     5
 10
767.90508402257262
 20
-253.53213928697909
 30
0.0
 11
767.90508402257262
 21
-253.93213928697909
 31
0.0
  0
LINE
  5
185
  8
┌▓È_1
 62
     5
 10
770.75508402257265
 20
-255.13213928697911
 30
0.0
 11
767.55508402257249
 21
-255.13213928697911
 31
0.0
  0
LINE
  5
186
  8
┌▓È_1
 62
     5
 10
770.75508402257265
 20
-255.13213928697911
 30
0.0
 11
770.75508402257265
 21
-254.6321392869792
 31
0.0
  0
LINE
  5
187
  8
┌▓È_1
 62
     5
 10
767.55508402257249
 20
-255.13213928697911
 30
0.0
 11
767.55508402257249
 21
-254.6321392869792
 31
0.0
  0
LINE
  5
188
  8
┌▓È_1
 62
     5
 10
761.40508672917269
 20
-245.23213928697911
 30
0.0
 11
761.40508672917269
 21
-244.8321392869791
 31
0.0
  0
LINE
  5
189
  8
┌▓È_1
 62
     5
 10
761.40508672917269
 20
-253.53213928697909
 30
0.0
 11
761.40508672917269
 21
-253.93213928697909
 31
0.0
  0
LINE
  5
18A
  8
┌▓È_1
 62
     5
 10
758.90508672917281
 20
-245.23213928697911
 30
0.0
 11
758.90508672917281
 21
-244.8321392869791
 31
0.0
  0
LINE
  5
18B
  8
┌▓È_1
 62
     5
 10
758.90508672917281
 20
-253.53213928697909
 30
0.0
 11
758.90508672917281
 21
-253.93213928697909
 31
0.0
  0
LINE
  5
18C
  8
┌▓È_1
 62
     5
 10
772.65508537587255
 20
-255.18213928697909
 30
0.0
 11
773.85508537587282
 21
-256.382139286979
 31
0.0
  0
ARC
  5
18D
  8
┌▓È_1
 62
     5
 10
764.65508537587255
 20
-244.48213928697911
 30
0.0
 40
2.8999999999999999
 50
46.397181027299993
 51
133.60281897269999
  0
LINE
  5
18E
  8
┌▓È_1
  6
BORDER
 62
     3
 10
769.15508402257262
 20
-240.5821392869791
 30
0.0
 11
769.15508402257262
 21
-257.38213928697922
 31
0.0
  0
LINE
  5
18F
  8
┌▓È_1
  6
BORDER
 62
     3
 10
760.15508672917269
 20
-240.5821392869791
 30
0.0
 11
760.15508672917269
 21
-257.38213928697922
 31
0.0
  0
LINE
  5
190
  8
┌▓È_1
 62
     5
 10
755.65508537587255
 20
-253.53213928697909
 30
0.0
 11
755.65508672917269
 21
-245.23213928697911
 31
0.0
  0
LINE
  5
191
  8
┌▓È_1
 62
     5
 10
764.65508537587255
 20
-253.53213928697909
 30
0.0
 11
764.65508605257264
 21
-245.23213928697911
 31
0.0
  0
LINE
  5
192
  8
┌▓È_1
 62
     5
 10
758.55508672917256
 20
-255.13213928697911
 30
0.0
 11
758.55508672917256
 21
-254.6321392869792
 31
0.0
  0
LINE
  5
193
  8
┌▓È_1
 62
     5
 10
756.65508537587266
 20
-255.18213928697909
 30
0.0
 11
755.45508537587261
 21
-256.382139286979
 31
0.0
  0
LINE
  5
194
  8
┌▓È_1
 62
     5
 10
772.65508537587255
 20
-242.5821392869791
 30
0.0
 11
756.65508537587266
 21
-242.5821392869791
 31
0.0
  0
LINE
  5
195
  8
┌▓È_1
 62
     5
 10
770.79426196667282
 20
-192.46053098127911
 30
0.0
 11
775.19795854717256
 21
-198.4549988530791
 31
0.0
  0
LINE
  5
196
  8
┌▓È_1
 62
     5
 10
768.15419965277272
 20
-191.4434141744789
 30
0.0
 11
769.3055956839728
 21
-193.77288229377911
 31
0.0
  0
ARC
  5
197
  8
┌▓È_1
 62
     5
 10
762.05244206277257
 20
-191.88651665827911
 30
0.0
 40
1.0
 50
113.69799999999999
 51
153.69799999999981
  0
ARC
  5
198
  8
┌▓È_1
 62
     5
 10
767.25772868907256
 20
-191.88651665827911
 30
0.0
 40
1.0
 50
26.302
 51
66.301999999999992
  0
ARC
  5
199
  8
┌▓È_1
 62
     5
 10
770.90508537587255
 20
-188.52579008067909
 30
0.0
 40
1.75
 50
270.0
 51
0.0
  0
LINE
  5
19A
  8
┌▓È_1
 62
     5
 10
780.30508537587264
 20
-194.37579008067911
 30
0.0
 11
780.30508537587264
 21
-187.58128404387909
 31
0.0
  0
ARC
  5
19B
  8
┌▓È_1
 62
     5
 10
781.15508537587255
 20
-196.27579008067909
 30
0.0
 40
2.5
 50
270.0
 51
0.0
  0
ARC
  5
19C
  8
┌▓È_1
 62
     5
 10
748.15508537587255
 20
-182.27579008067909
 30
0.0
 40
2.5
 50
90.0
 51
180.0
  0
INSERT
  5
19E
  8
Éíû@É³
  2
BALLON4
 10
-14.350857196927221
 20
-10.82543378097909
 30
0.0
  0
ARC
  5
1A7
  8
┌▓È_1
 62
     5
 10
748.15508537587255
 20
-196.27579008067909
 30
0.0
 40
2.5
 50
180.0
 51
270.0
  0
LINE
  5
1A8
  8
┌▓È_1
 62
     5
 10
749.00508537587257
 20
-194.37579008067911
 30
0.0
 11
749.00508537587257
 21
-187.58128404387909
 31
0.0
  0
DIMENSION
  5
1B7
  8
Éíû@É³
  2
*D30
 10
804.23556533577255
 20
-257.38213928697922
 30
0.0
 11
804.23556533577255
 21
-253.38213928697911
 31
0.0
 70
   128
  1
(<>)
 13
811.9665073959726
 23
-249.38213928697911
 33
0.0
 14
820.89890478077257
 24
-257.38213928697922
 34
0.0
 50
90.0
  0
LINE
  5
1B8
  8
┌▓È_1
 62
     5
 10
774.78466300577259
 20
-244.8321392869791
 30
0.0
 11
774.78466300577259
 21
-253.93213928697909
 31
0.0
  0
LINE
  5
1B9
  8
┌▓È_1
 62
     5
 10
765.65508402257262
 20
-254.6321392869792
 30
0.0
 11
765.65508402257262
 21
-253.93213928697909
 31
0.0
  0
LINE
  5
1BA
  8
┌▓È_1
 62
     5
 10
765.65508402257262
 20
-244.1321392869792
 30
0.0
 11
765.65508402257262
 21
-244.8321392869791
 31
0.0
  0
LINE
  5
1BB
  8
┌▓È_1
 62
     5
 10
763.65508672917269
 20
-244.1321392869792
 30
0.0
 11
763.65508672917269
 21
-244.8321392869791
 31
0.0
  0
LINE
  5
1BC
  8
┌▓È_1
 62
     5
 10
763.65508672917269
 20
-254.6321392869792
 30
0.0
 11
763.65508672917269
 21
-253.93213928697909
 31
0.0
  0
LINE
  5
1BD
  8
┌▓È_1
 62
     5
 10
761.75508672917283
 20
-255.13213928697911
 30
0.0
 11
758.55508672917256
 21
-255.13213928697911
 31
0.0
  0
LINE
  5
1BE
  8
┌▓È_1
 62
     5
 10
761.75508672917283
 20
-255.13213928697911
 30
0.0
 11
761.75508672917283
 21
-254.6321392869792
 31
0.0
  0
LINE
  5
1BF
  8
┌▓È_1
 62
     5
 10
766.65508537587255
 20
-242.5821392869791
 30
0.0
 11
766.65508537587255
 21
-242.3821392869792
 31
0.0
  0
ARC
  5
1C0
  8
┌▓È_1
 62
     5
 10
769.15508402257262
 20
-246.03213928697909
 30
0.0
 40
2.8999999999999999
 50
46.397181027299993
 51
133.60281897269999
  0
LINE
  5
1C1
  8
┌▓È_1
 62
     5
 10
767.15508402257262
 20
-244.1321392869792
 30
0.0
 11
767.15508402257262
 21
-243.93213928697909
 31
0.0
  0
LINE
  5
1C2
  8
┌▓È_1
 62
     5
 10
771.15508402257262
 20
-244.1321392869792
 30
0.0
 11
771.15508402257262
 21
-243.93213928697909
 31
0.0
  0
LINE
  5
1C3
  8
┌▓È_1
 62
     5
 10
770.40508402257262
 20
-245.23213928697911
 30
0.0
 11
770.40508402257262
 21
-244.8321392869791
 31
0.0
  0
LINE
  5
1C4
  8
┌▓È_1
 62
     5
 10
770.40508402257262
 20
-253.53213928697909
 30
0.0
 11
770.40508402257262
 21
-253.93213928697909
 31
0.0
  0
ARC
  5
1C5
  8
┌▓È_1
 62
     5
 10
760.90104603157272
 20
-194.21598477757911
 30
0.0
 40
1.0
 50
153.69799999999981
 51
213.69800000000001
  0
LINE
  5
1C6
  8
┌▓È_1
 62
     5
 10
760.06907254227281
 20
-194.77080016407911
 30
0.0
 11
763.06699394187274
 21
-199.26633361287909
 31
0.0
  0
LINE
  5
1C7
  8
┌▓È_1
 62
     5
 10
763.2340444221727
 20
-190.27579008067909
 30
0.0
 11
761.6505262489726
 21
-190.9708400348791
 31
0.0
  0
LINE
  5
1C8
  8
┌▓È_1
 62
     5
 10
766.07612632957262
 20
-190.27579008067909
 30
0.0
 11
767.65964450277272
 21
-190.9708400348791
 31
0.0
  0
LINE
  5
1C9
  8
┌▓È_1
 62
     5
 10
770.90508537587255
 20
-190.27579008067909
 30
0.0
 11
758.40508537587255
 21
-190.27579008067909
 31
0.0
  0
ARC
  5
1CA
  8
┌▓È_1
 62
     5
 10
758.40508537587255
 20
-188.52579008067909
 30
0.0
 40
1.75
 50
180.0
 51
270.0
  0
ARC
  5
1CB
  8
┌▓È_1
 62
     5
 10
760.15508672917269
 20
-201.20818746537901
 30
0.0
 40
4.5
 50
174.75555873100001
 51
72.640441268999993
  0
ARC
  5
1CC
  8
┌▓È_1
 62
     5
 10
769.15508402257262
 20
-201.20818746537901
 30
0.0
 40
3.5
 50
146.30199392700001
 51
326.30200337450009
  0
LINE
  5
1CD
  8
┌▓È_1
 62
     5
 10
775.19795854717256
 20
-198.4549988530791
 30
0.0
 11
772.06699123537248
 21
-203.1500413178791
 31
0.0
  0
CIRCLE
  5
1CE
  8
┌▓È_1
 62
     5
 10
769.15508402257262
 20
-201.20818746537901
 30
0.0
 40
2.0
  0
CIRCLE
  5
1CF
  8
┌▓È_1
 62
     5
 10
760.15508672917269
 20
-201.20818746537901
 30
0.0
 40
2.0
  0
LINE
  5
1D0
  8
┌▓È_1
 62
     5
 10
765.36913064697262
 20
-198.77579008067909
 30
0.0
 11
763.94104010477281
 21
-198.77579008067909
 31
0.0
  0
ARC
  5
1D1
  8
┌▓È_1
 62
     5
 10
769.15508402257262
 20
-201.20818746537901
 30
0.0
 40
4.5
 50
107.35955873100001
 51
5.2444412690000002
  0
ARC
  5
1D2
  8
┌▓È_1
 62
     5
 10
760.15508672917269
 20
-201.20818746537901
 30
0.0
 40
3.5
 50
213.6979966255
 51
33.698006073000002
  0
LINE
  5
1D3
  8
┌▓È_1
  6
BORDER
 62
     3
 10
760.15508672917269
 20
-207.2081874653791
 30
0.0
 11
760.15508672917269
 21
-195.20818746537901
 31
0.0
  0
LINE
  5
1D4
  8
┌▓È_1
  6
BORDER
 62
     3
 10
769.15508402257262
 20
-207.2081874653791
 30
0.0
 11
769.15508402257262
 21
-195.20818746537901
 31
0.0
  0
LINE
  5
1D5
  8
┌▓È_1
 62
     5
 10
760.53981406527259
 20
-192.69000364297909
 30
0.0
 11
768.77035668647261
 21
-192.69000364297909
 31
0.0
  0
LINE
  5
1D6
  8
┌▓È_1
 62
     5
 10
757.45508537587261
 20
-192.69000364297909
 30
0.0
 11
758.34733202437269
 21
-192.69000364297909
 31
0.0
  0
LINE
  5
1D7
  8
┌▓È_1
 62
     5
 10
770.96283872737263
 20
-192.69000364297909
 30
0.0
 11
771.85508541097261
 21
-192.69000364297909
 31
0.0
  0
ARC
  5
1D8
  8
┌▓È_1
 62
     5
 10
771.85508537587282
 20
-190.69000364297909
 30
0.0
 40
2.0
 50
270.0
 51
0.0
  0
ARC
  5
1D9
  8
┌▓È_1
 62
     5
 10
757.45508537587261
 20
-190.69000364297909
 30
0.0
 40
2.0
 50
180.0
 51
270.0
  0
ARC
  5
1DA
  8
┌▓È_1
 62
     5
 10
755.69523212697266
 20
-190.38838639407911
 30
0.0
 40
3.5
 50
323.69799999999998
 51
1.8435448116999991
  0
ARC
  5
1DB
  8
┌▓È_1
 62
     5
 10
768.40912472017271
 20
-194.21598477757911
 30
0.0
 40
1.0
 50
326.30200000000002
 51
26.302
  0
LINE
  5
1DC
  8
┌▓È_1
 62
     5
 10
769.24109820957256
 20
-194.77080016407911
 30
0.0
 11
766.24317680987269
 21
-199.26633361287909
 31
0.0
  0
LINE
  5
1DD
  8
┌▓È_1
 62
     5
 10
777.0050853758728
 20
-194.37579008067911
 30
0.0
 11
777.0050853758728
 21
-187.58128404387909
 31
0.0
  0
LINE
  5
1DE
  8
┌▓È_1
 62
     5
 10
898.28315178949981
 20
-311.6193333914
 30
0.0
 11
901.48315178949997
 21
-311.6193333914
 31
0.0
  0
LINE
  5
1DF
  8
┌▓È_1
 62
     5
 10
901.91220178289996
 20
-312.57690190149998
 30
0.0
 11
901.71972513779997
 21
-312.78949259000001
 31
0.0
  0
ARC
  5
1E0
  8
┌▓È_1
 62
     5
 10
891.75466694110014
 20
-312.96164517739999
 30
0.0
 40
1.1999999999999991
 50
270.0
 51
0.0
  0
LINE
  5
1E1
  8
┌▓È_1
 62
     5
 10
892.95466694109973
 20
-309.7616451774
 30
0.0
 11
892.95466694109973
 21
-311.36164517740002
 31
0.0
  0
LINE
  5
1E2
  8
┌▓È_1
 62
     5
 10
904.68315178950002
 20
-310.96164517739999
 30
0.0
 11
905.48315178949974
 21
-309.7616451774
 31
0.0
  0
LINE
  5
1E3
  8
┌▓È_1
 62
     5
 10
894.95466694109984
 20
-310.96164517739999
 30
0.0
 11
896.15466694109989
 21
-309.7616451774
 31
0.0
  0
LINE
  5
1E4
  8
┌▓È_1
 62
     5
 10
889.35466694110005
 20
-313.7616451774
 30
0.0
 11
891.35466694110005
 21
-313.7616451774
 31
0.0
  0
LINE
  5
1E5
  8
┌▓È_1
 62
     5
 10
905.48315178949974
 20
-309.7616451774
 30
0.0
 11
898.28315178949981
 21
-309.7616451774
 31
0.0
  0
ARC
  5
1E6
  8
┌▓È_1
 62
     5
 10
900.28315178950004
 20
-310.96164517739999
 30
0.0
 40
4.4000000000000004
 50
322.48761197969998
 51
0.0
  0
LINE
  5
1E7
  8
┌▓È_1
 62
     5
 10
891.35466694110005
 20
-312.56164517740001
 30
0.0
 11
892.95466694109973
 21
-312.56164517740001
 31
0.0
  0
POLYLINE
  5
4C5
  8
┌▓È_1
 62
     5
 66
     1
 10
0.0
 20
0.0
 30
0.0
 70
     8
  0
VERTEX
  5
4C6
  8
┌▓È_1
 62
     5
 10
901.03099999999995
 20
-312.072
 30
0.0
 70
    32
  0
VERTEX
  5
4C7
  8
┌▓È_1
 62
     5
 10
901.03599999999994
 20
-312.07799999999997
 30
0.0
 70
    32
  0
VERTEX
  5
4C8
  8
┌▓È_1
 62
     5
 10
901.04100000000005
 20
-312.084
 30
0.0
 70
    32
  0
VERTEX
  5
4C9
  8
┌▓È_1
 62
     5
 10
901.04600000000005
 20
-312.08999999999997
 30
0.0
 70
    32
  0
VERTEX
  5
4CA
  8
┌▓È_1
 62
     5
 10
901.05199999999991
 20
-312.09500000000008
 30
0.0
 70
    32
  0
VERTEX
  5
4CB
  8
┌▓È_1
 62
     5
 10
901.0569999999999
 20
-312.101
 30
0.0
 70
    32
  0
VERTEX
  5
4CC
  8
┌▓È_1
 62
     5
 10
901.06200000000013
 20
-312.10700000000003
 30
0.0
 70
    32
  0
VERTEX
  5
4CD
  8
┌▓È_1
 62
     5
 10
901.06799999999998
 20
-312.113
 30
0.0
 70
    32
  0
VERTEX
  5
4CE
  8
┌▓È_1
 62
     5
 10
901.07299999999998
 20
-312.11900000000003
 30
0.0
 70
    32
  0
VERTEX
  5
4CF
  8
┌▓È_1
 62
     5
 10
901.07799999999997
 20
-312.125
 30
0.0
 70
    32
  0
VERTEX
  5
4D0
  8
┌▓È_1
 62
     5
 10
901.08299999999997
 20
-312.13099999999997
 30
0.0
 70
    32
  0
VERTEX
  5
4D1
  8
┌▓È_1
 62
     5
 10
901.08899999999994
 20
-312.137
 30
0.0
 70
    32
  0
VERTEX
  5
4D2
  8
┌▓È_1
 62
     5
 10
901.09399999999994
 20
-312.142
 30
0.0
 70
    32
  0
VERTEX
  5
4D3
  8
┌▓È_1
 62
     5
 10
901.09899999999993
 20
-312.14800000000002
 30
0.0
 70
    32
  0
VERTEX
  5
4D4
  8
┌▓È_1
 62
     5
 10
901.10500000000002
 20
-312.154
 30
0.0
 70
    32
  0
VERTEX
  5
4D5
  8
┌▓È_1
 62
     5
 10
901.11000000000001
 20
-312.16000000000003
 30
0.0
 70
    32
  0
VERTEX
  5
4D6
  8
┌▓È_1
 62
     5
 10
901.11500000000001
 20
-312.166
 30
0.0
 70
    32
  0
VERTEX
  5
4D7
  8
┌▓È_1
 62
     5
 10
901.12
 20
-312.17200000000003
 30
0.0
 70
    32
  0
VERTEX
  5
4D8
  8
┌▓È_1
 62
     5
 10
901.12600000000009
 20
-312.178
 30
0.0
 70
    32
  0
VERTEX
  5
4D9
  8
┌▓È_1
 62
     5
 10
901.13100000000009
 20
-312.18400000000003
 30
0.0
 70
    32
  0
VERTEX
  5
4DA
  8
┌▓È_1
 62
     5
 10
901.13600000000008
 20
-312.18900000000002
 30
0.0
 70
    32
  0
VERTEX
  5
4DB
  8
┌▓È_1
 62
     5
 10
901.14199999999994
 20
-312.19499999999999
 30
0.0
 70
    32
  0
VERTEX
  5
4DC
  8
┌▓È_1
 62
     5
 10
901.14699999999993
 20
-312.20099999999991
 30
0.0
 70
    32
  0
VERTEX
  5
4DD
  8
┌▓È_1
 62
     5
 10
901.15199999999993
 20
-312.20699999999999
 30
0.0
 70
    32
  0
VERTEX
  5
4DE
  8
┌▓È_1
 62
     5
 10
901.15699999999981
 20
-312.21300000000002
 30
0.0
 70
    32
  0
VERTEX
  5
4DF
  8
┌▓È_1
 62
     5
 10
901.16300000000001
 20
-312.21899999999999
 30
0.0
 70
    32
  0
VERTEX
  5
4E0
  8
┌▓È_1
 62
     5
 10
901.16800000000001
 20
-312.22500000000002
 30
0.0
 70
    32
  0
VERTEX
  5
4E1
  8
┌▓È_1
 62
     5
 10
901.173
 20
-312.23099999999999
 30
0.0
 70
    32
  0
VERTEX
  5
4E2
  8
┌▓È_1
 62
     5
 10
901.17899999999986
 20
-312.23599999999999
 30
0.0
 70
    32
  0
VERTEX
  5
4E3
  8
┌▓È_1
 62
     5
 10
901.18399999999986
 20
-312.24200000000002
 30
0.0
 70
    32
  0
VERTEX
  5
4E4
  8
┌▓È_1
 62
     5
 10
901.18899999999985
 20
-312.24799999999999
 30
0.0
 70
    32
  0
VERTEX
  5
4E5
  8
┌▓È_1
 62
     5
 10
901.19500000000005
 20
-312.25400000000002
 30
0.0
 70
    32
  0
VERTEX
  5
4E6
  8
┌▓È_1
 62
     5
 10
901.20000000000005
 20
-312.25999999999999
 30
0.0
 70
    32
  0
VERTEX
  5
4E7
  8
┌▓È_1
 62
     5
 10
901.20500000000004
 20
-312.26600000000002
 30
0.0
 70
    32
  0
VERTEX
  5
4E8
  8
┌▓È_1
 62
     5
 10
901.21000000000004
 20
-312.27100000000002
 30
0.0
 70
    32
  0
VERTEX
  5
4E9
  8
┌▓È_1
 62
     5
 10
901.21599999999989
 20
-312.27699999999999
 30
0.0
 70
    32
  0
VERTEX
  5
4EA
  8
┌▓È_1
 62
     5
 10
901.22099999999989
 20
-312.28300000000002
 30
0.0
 70
    32
  0
VERTEX
  5
4EB
  8
┌▓È_1
 62
     5
 10
901.22600000000011
 20
-312.28899999999999
 30
0.0
 70
    32
  0
VERTEX
  5
4EC
  8
┌▓È_1
 62
     5
 10
901.23199999999997
 20
-312.29500000000002
 30
0.0
 70
    32
  0
VERTEX
  5
4ED
  8
┌▓È_1
 62
     5
 10
901.23699999999997
 20
-312.30099999999999
 30
0.0
 70
    32
  0
VERTEX
  5
4EE
  8
┌▓È_1
 62
     5
 10
901.24199999999996
 20
-312.30599999999998
 30
0.0
 70
    32
  0
VERTEX
  5
4EF
  8
┌▓È_1
 62
     5
 10
901.24800000000005
 20
-312.31200000000001
 30
0.0
 70
    32
  0
VERTEX
  5
4F0
  8
┌▓È_1
 62
     5
 10
901.25299999999993
 20
-312.31799999999998
 30
0.0
 70
    32
  0
VERTEX
  5
4F1
  8
┌▓È_1
 62
     5
 10
901.25799999999992
 20
-312.32400000000001
 30
0.0
 70
    32
  0
VERTEX
  5
4F2
  8
┌▓È_1
 62
     5
 10
901.2639999999999
 20
-312.32999999999998
 30
0.0
 70
    32
  0
VERTEX
  5
4F3
  8
┌▓È_1
 62
     5
 10
901.26899999999989
 20
-312.33499999999998
 30
0.0
 70
    32
  0
VERTEX
  5
4F4
  8
┌▓È_1
 62
     5
 10
901.27399999999989
 20
-312.34100000000001
 30
0.0
 70
    32
  0
VERTEX
  5
4F5
  8
┌▓È_1
 62
     5
 10
901.27999999999997
 20
-312.34699999999998
 30
0.0
 70
    32
  0
VERTEX
  5
4F6
  8
┌▓È_1
 62
     5
 10
901.28499999999997
 20
-312.35300000000001
 30
0.0
 70
    32
  0
VERTEX
  5
4F7
  8
┌▓È_1
 62
     5
 10
901.28999999999996
 20
-312.35899999999998
 30
0.0
 70
    32
  0
VERTEX
  5
4F8
  8
┌▓È_1
 62
     5
 10
901.29600000000005
 20
-312.36399999999998
 30
0.0
 70
    32
  0
VERTEX
  5
4F9
  8
┌▓È_1
 62
     5
 10
901.30100000000004
 20
-312.37
 30
0.0
 70
    32
  0
VERTEX
  5
4FA
  8
┌▓È_1
 62
     5
 10
901.30600000000015
 20
-312.37599999999998
 30
0.0
 70
    32
  0
VERTEX
  5
4FB
  8
┌▓È_1
 62
     5
 10
901.31200000000001
 20
-312.38200000000001
 30
0.0
 70
    32
  0
VERTEX
  5
4FC
  8
┌▓È_1
 62
     5
 10
901.31700000000001
 20
-312.387
 30
0.0
 70
    32
  0
VERTEX
  5
4FD
  8
┌▓È_1
 62
     5
 10
901.322
 20
-312.39299999999997
 30
0.0
 70
    32
  0
VERTEX
  5
4FE
  8
┌▓È_1
 62
     5
 10
901.32799999999986
 20
-312.399
 30
0.0
 70
    32
  0
VERTEX
  5
4FF
  8
┌▓È_1
 62
     5
 10
901.33300000000008
 20
-312.40499999999997
 30
0.0
 70
    32
  0
VERTEX
  5
500
  8
┌▓È_1
 62
     5
 10
901.33899999999994
 20
-312.41000000000003
 30
0.0
 70
    32
  0
VERTEX
  5
501
  8
┌▓È_1
 62
     5
 10
901.34399999999994
 20
-312.416
 30
0.0
 70
    32
  0
VERTEX
  5
502
  8
┌▓È_1
 62
     5
 10
901.34899999999993
 20
-312.42200000000003
 30
0.0
 70
    32
  0
VERTEX
  5
503
  8
┌▓È_1
 62
     5
 10
901.35500000000002
 20
-312.428
 30
0.0
 70
    32
  0
VERTEX
  5
504
  8
┌▓È_1
 62
     5
 10
901.36000000000001
 20
-312.43299999999999
 30
0.0
 70
    32
  0
VERTEX
  5
505
  8
┌▓È_1
 62
     5
 10
901.36500000000001
 20
-312.43900000000002
 30
0.0
 70
    32
  0
VERTEX
  5
506
  8
┌▓È_1
 62
     5
 10
901.37100000000009
 20
-312.44499999999999
 30
0.0
 70
    32
  0
VERTEX
  5
507
  8
┌▓È_1
 62
     5
 10
901.37600000000009
 20
-312.44999999999999
 30
0.0
 70
    32
  0
VERTEX
  5
508
  8
┌▓È_1
 62
     5
 10
901.38199999999995
 20
-312.45600000000002
 30
0.0
 70
    32
  0
VERTEX
  5
509
  8
┌▓È_1
 62
     5
 10
901.38699999999983
 20
-312.46199999999999
 30
0.0
 70
    32
  0
VERTEX
  5
50A
  8
┌▓È_1
 62
     5
 10
901.39199999999983
 20
-312.46800000000002
 30
0.0
 70
    32
  0
VERTEX
  5
50B
  8
┌▓È_1
 62
     5
 10
901.39800000000002
 20
-312.47300000000001
 30
0.0
 70
    32
  0
VERTEX
  5
50C
  8
┌▓È_1
 62
     5
 10
901.40299999999991
 20
-312.47899999999998
 30
0.0
 70
    32
  0
VERTEX
  5
50D
  8
┌▓È_1
 62
     5
 10
901.40899999999988
 20
-312.48500000000001
 30
0.0
 70
    32
  0
VERTEX
  5
50E
  8
┌▓È_1
 62
     5
 10
901.41399999999987
 20
-312.49000000000001
 30
0.0
 70
    32
  0
VERTEX
  5
50F
  8
┌▓È_1
 62
     5
 10
901.41999999999996
 20
-312.49599999999998
 30
0.0
 70
    32
  0
VERTEX
  5
510
  8
┌▓È_1
 62
     5
 10
901.42499999999995
 20
-312.50200000000001
 30
0.0
 70
    32
  0
VERTEX
  5
511
  8
┌▓È_1
 62
     5
 10
901.42999999999995
 20
-312.50700000000001
 30
0.0
 70
    32
  0
VERTEX
  5
512
  8
┌▓È_1
 62
     5
 10
901.43599999999992
 20
-312.51299999999998
 30
0.0
 70
    32
  0
VERTEX
  5
513
  8
┌▓È_1
 62
     5
 10
901.44099999999992
 20
-312.51799999999997
 30
0.0
 70
    32
  0
VERTEX
  5
514
  8
┌▓È_1
 62
     5
 10
901.44700000000012
 20
-312.524
 30
0.0
 70
    32
  0
VERTEX
  5
515
  8
┌▓È_1
 62
     5
 10
901.452
 20
-312.52999999999997
 30
0.0
 70
    32
  0
VERTEX
  5
516
  8
┌▓È_1
 62
     5
 10
901.45799999999997
 20
-312.53500000000003
 30
0.0
 70
    32
  0
VERTEX
  5
517
  8
┌▓È_1
 62
     5
 10
901.46299999999997
 20
-312.541
 30
0.0
 70
    32
  0
VERTEX
  5
518
  8
┌▓È_1
 62
     5
 10
901.46899999999994
 20
-312.54700000000003
 30
0.0
 70
    32
  0
VERTEX
  5
519
  8
┌▓È_1
 62
     5
 10
901.47399999999993
 20
-312.55200000000002
 30
0.0
 70
    32
  0
VERTEX
  5
51A
  8
┌▓È_1
 62
     5
 10
901.47899999999993
 20
-312.55799999999999
 30
0.0
 70
    32
  0
VERTEX
  5
51B
  8
┌▓È_1
 62
     5
 10
901.48500000000001
 20
-312.56299999999999
 30
0.0
 70
    32
  0
VERTEX
  5
51C
  8
┌▓È_1
 62
     5
 10
901.49000000000001
 20
-312.56900000000002
 30
0.0
 70
    32
  0
VERTEX
  5
51D
  8
┌▓È_1
 62
     5
 10
901.49599999999998
 20
-312.57400000000001
 30
0.0
 70
    32
  0
VERTEX
  5
51E
  8
┌▓È_1
 62
     5
 10
901.50100000000009
 20
-312.57999999999998
 30
0.0
 70
    32
  0
VERTEX
  5
51F
  8
┌▓È_1
 62
     5
 10
901.50699999999995
 20
-312.58499999999998
 30
0.0
 70
    32
  0
VERTEX
  5
520
  8
┌▓È_1
 62
     5
 10
901.51199999999994
 20
-312.59100000000001
 30
0.0
 70
    32
  0
VERTEX
  5
521
  8
┌▓È_1
 62
     5
 10
901.51800000000003
 20
-312.59699999999998
 30
0.0
 70
    32
  0
VERTEX
  5
522
  8
┌▓È_1
 62
     5
 10
901.52300000000002
 20
-312.60199999999998
 30
0.0
 70
    32
  0
VERTEX
  5
523
  8
┌▓È_1
 62
     5
 10
901.529
 20
-312.608
 30
0.0
 70
    32
  0
VERTEX
  5
524
  8
┌▓È_1
 62
     5
 10
901.53399999999999
 20
-312.613
 30
0.0
 70
    32
  0
VERTEX
  5
525
  8
┌▓È_1
 62
     5
 10
901.53999999999985
 20
-312.61900000000003
 30
0.0
 70
    32
  0
VERTEX
  5
526
  8
┌▓È_1
 62
     5
 10
901.54499999999985
 20
-312.62400000000002
 30
0.0
 70
    32
  0
VERTEX
  5
527
  8
┌▓È_1
 62
     5
 10
901.55100000000004
 20
-312.63
 30
0.0
 70
    32
  0
VERTEX
  5
528
  8
┌▓È_1
 62
     5
 10
901.55700000000002
 20
-312.63499999999999
 30
0.0
 70
    32
  0
VERTEX
  5
529
  8
┌▓È_1
 62
     5
 10
901.56200000000001
 20
-312.63999999999999
 30
0.0
 70
    32
  0
VERTEX
  5
52A
  8
┌▓È_1
 62
     5
 10
901.56799999999987
 20
-312.64600000000002
 30
0.0
 70
    32
  0
VERTEX
  5
52B
  8
┌▓È_1
 62
     5
 10
901.57299999999987
 20
-312.65100000000001
 30
0.0
 70
    32
  0
VERTEX
  5
52C
  8
┌▓È_1
 62
     5
 10
901.57899999999995
 20
-312.65699999999998
 30
0.0
 70
    32
  0
VERTEX
  5
52D
  8
┌▓È_1
 62
     5
 10
901.58399999999983
 20
-312.66199999999998
 30
0.0
 70
    32
  0
VERTEX
  5
52E
  8
┌▓È_1
 62
     5
 10
901.59000000000003
 20
-312.66800000000001
 30
0.0
 70
    32
  0
VERTEX
  5
52F
  8
┌▓È_1
 62
     5
 10
901.59500000000003
 20
-312.673
 30
0.0
 70
    32
  0
VERTEX
  5
530
  8
┌▓È_1
 62
     5
 10
901.60100000000011
 20
-312.678
 30
0.0
 70
    32
  0
VERTEX
  5
531
  8
┌▓È_1
 62
     5
 10
901.60699999999986
 20
-312.68400000000003
 30
0.0
 70
    32
  0
VERTEX
  5
532
  8
┌▓È_1
 62
     5
 10
901.61199999999985
 20
-312.68900000000002
 30
0.0
 70
    32
  0
VERTEX
  5
533
  8
┌▓È_1
 62
     5
 10
901.61800000000005
 20
-312.69499999999999
 30
0.0
 70
    32
  0
VERTEX
  5
534
  8
┌▓È_1
 62
     5
 10
901.62300000000005
 20
-312.69999999999999
 30
0.0
 70
    32
  0
VERTEX
  5
535
  8
┌▓È_1
 62
     5
 10
901.62899999999991
 20
-312.70499999999998
 30
0.0
 70
    32
  0
VERTEX
  5
536
  8
┌▓È_1
 62
     5
 10
901.63499999999999
 20
-312.71100000000001
 30
0.0
 70
    32
  0
VERTEX
  5
537
  8
┌▓È_1
 62
     5
 10
901.63999999999999
 20
-312.71600000000001
 30
0.0
 70
    32
  0
VERTEX
  5
538
  8
┌▓È_1
 62
     5
 10
901.64599999999996
 20
-312.721
 30
0.0
 70
    32
  0
VERTEX
  5
539
  8
┌▓È_1
 62
     5
 10
901.65199999999993
 20
-312.72699999999998
 30
0.0
 70
    32
  0
VERTEX
  5
53A
  8
┌▓È_1
 62
     5
 10
901.65699999999993
 20
-312.73200000000003
 30
0.0
 70
    32
  0
VERTEX
  5
53B
  8
┌▓È_1
 62
     5
 10
901.66300000000012
 20
-312.73700000000002
 30
0.0
 70
    32
  0
VERTEX
  5
53C
  8
┌▓È_1
 62
     5
 10
901.66899999999998
 20
-312.74200000000002
 30
0.0
 70
    32
  0
VERTEX
  5
53D
  8
┌▓È_1
 62
     5
 10
901.67399999999998
 20
-312.74799999999999
 30
0.0
 70
    32
  0
VERTEX
  5
53E
  8
┌▓È_1
 62
     5
 10
901.67999999999995
 20
-312.75299999999999
 30
0.0
 70
    32
  0
VERTEX
  5
53F
  8
┌▓È_1
 62
     5
 10
901.68600000000015
 20
-312.75799999999998
 30
0.0
 70
    32
  0
VERTEX
  5
540
  8
┌▓È_1
 62
     5
 10
901.69100000000014
 20
-312.76299999999998
 30
0.0
 70
    32
  0
VERTEX
  5
541
  8
┌▓È_1
 62
     5
 10
901.697
 20
-312.76900000000001
 30
0.0
 70
    32
  0
VERTEX
  5
542
  8
┌▓È_1
 62
     5
 10
901.70299999999997
 20
-312.774
 30
0.0
 70
    32
  0
VERTEX
  5
543
  8
┌▓È_1
 62
     5
 10
901.70800000000008
 20
-312.779
 30
0.0
 70
    32
  0
VERTEX
  5
544
  8
┌▓È_1
 62
     5
 10
901.71399999999994
 20
-312.78399999999999
 30
0.0
 70
    32
  0
VERTEX
  5
545
  8
┌▓È_1
 62
     5
 10
901.72000000000003
 20
-312.78899999999999
 30
0.0
 70
    32
  0
SEQEND
  5
546
  8
┌▓È_1
 62
     5
  0
POLYLINE
  5
547
  8
┌▓È_1
 62
     5
 66
     1
 10
0.0
 20
0.0
 30
0.0
 70
     8
  0
VERTEX
  5
548
  8
┌▓È_1
 62
     5
 10
902.64999999999998
 20
-314.67099999999999
 30
0.0
 70
    32
  0
VERTEX
  5
549
  8
┌▓È_1
 62
     5
 10
902.67200000000003
 20
-314.678
 30
0.0
 70
    32
  0
VERTEX
  5
54A
  8
┌▓È_1
 62
     5
 10
902.69299999999998
 20
-314.68400000000003
 30
0.0
 70
    32
  0
VERTEX
  5
54B
  8
┌▓È_1
 62
     5
 10
902.71500000000003
 20
-314.69099999999997
 30
0.0
 70
    32
  0
VERTEX
  5
54C
  8
┌▓È_1
 62
     5
 10
902.7360000000001
 20
-314.69799999999998
 30
0.0
 70
    32
  0
VERTEX
  5
54D
  8
┌▓È_1
 62
     5
 10
902.75800000000004
 20
-314.70499999999998
 30
0.0
 70
    32
  0
VERTEX
  5
54E
  8
┌▓È_1
 62
     5
 10
902.77999999999986
 20
-314.71100000000001
 30
0.0
 70
    32
  0
VERTEX
  5
54F
  8
┌▓È_1
 62
     5
 10
902.80100000000004
 20
-314.71800000000002
 30
0.0
 70
    32
  0
VERTEX
  5
550
  8
┌▓È_1
 62
     5
 10
902.82299999999998
 20
-314.72500000000002
 30
0.0
 70
    32
  0
VERTEX
  5
551
  8
┌▓È_1
 62
     5
 10
902.84500000000014
 20
-314.73099999999999
 30
0.0
 70
    32
  0
VERTEX
  5
552
  8
┌▓È_1
 62
     5
 10
902.86599999999999
 20
-314.738
 30
0.0
 70
    32
  0
VERTEX
  5
553
  8
┌▓È_1
 62
     5
 10
902.88800000000003
 20
-314.74400000000003
 30
0.0
 70
    32
  0
VERTEX
  5
554
  8
┌▓È_1
 62
     5
 10
902.90999999999985
 20
-314.75099999999998
 30
0.0
 70
    32
  0
VERTEX
  5
555
  8
┌▓È_1
 62
     5
 10
902.93200000000002
 20
-314.75700000000001
 30
0.0
 70
    32
  0
VERTEX
  5
556
  8
┌▓È_1
 62
     5
 10
902.95299999999986
 20
-314.76400000000001
 30
0.0
 70
    32
  0
VERTEX
  5
557
  8
┌▓È_1
 62
     5
 10
902.97499999999991
 20
-314.76999999999998
 30
0.0
 70
    32
  0
VERTEX
  5
558
  8
┌▓È_1
 62
     5
 10
902.99699999999996
 20
-314.77699999999999
 30
0.0
 70
    32
  0
VERTEX
  5
559
  8
┌▓È_1
 62
     5
 10
903.01899999999989
 20
-314.78300000000002
 30
0.0
 70
    32
  0
VERTEX
  5
55A
  8
┌▓È_1
 62
     5
 10
903.03999999999996
 20
-314.78899999999999
 30
0.0
 70
    32
  0
VERTEX
  5
55B
  8
┌▓È_1
 62
     5
 10
903.06200000000001
 20
-314.79599999999999
 30
0.0
 70
    32
  0
VERTEX
  5
55C
  8
┌▓È_1
 62
     5
 10
903.08399999999995
 20
-314.80200000000002
 30
0.0
 70
    32
  0
VERTEX
  5
55D
  8
┌▓È_1
 62
     5
 10
903.10600000000011
 20
-314.80799999999999
 30
0.0
 70
    32
  0
VERTEX
  5
55E
  8
┌▓È_1
 62
     5
 10
903.12800000000004
 20
-314.81400000000002
 30
0.0
 70
    32
  0
VERTEX
  5
55F
  8
┌▓È_1
 62
     5
 10
903.14999999999986
 20
-314.82100000000003
 30
0.0
 70
    32
  0
VERTEX
  5
560
  8
┌▓È_1
 62
     5
 10
903.17199999999991
 20
-314.827
 30
0.0
 70
    32
  0
VERTEX
  5
561
  8
┌▓È_1
 62
     5
 10
903.19399999999996
 20
-314.83300000000003
 30
0.0
 70
    32
  0
VERTEX
  5
562
  8
┌▓È_1
 62
     5
 10
903.21600000000012
 20
-314.839
 30
0.0
 70
    32
  0
VERTEX
  5
563
  8
┌▓È_1
 62
     5
 10
903.23800000000006
 20
-314.84500000000003
 30
0.0
 70
    32
  0
VERTEX
  5
564
  8
┌▓È_1
 62
     5
 10
903.25999999999999
 20
-314.851
 30
0.0
 70
    32
  0
VERTEX
  5
565
  8
┌▓È_1
 62
     5
 10
903.28199999999993
 20
-314.85700000000003
 30
0.0
 70
    32
  0
VERTEX
  5
566
  8
┌▓È_1
 62
     5
 10
903.30399999999986
 20
-314.863
 30
0.0
 70
    32
  0
VERTEX
  5
567
  8
┌▓È_1
 62
     5
 10
903.32600000000002
 20
-314.86900000000003
 30
0.0
 70
    32
  0
VERTEX
  5
568
  8
┌▓È_1
 62
     5
 10
903.34799999999996
 20
-314.875
 30
0.0
 70
    32
  0
VERTEX
  5
569
  8
┌▓È_1
 62
     5
 10
903.36999999999989
 20
-314.88099999999997
 30
0.0
 70
    32
  0
VERTEX
  5
56A
  8
┌▓È_1
 62
     5
 10
903.39200000000005
 20
-314.887
 30
0.0
 70
    32
  0
VERTEX
  5
56B
  8
┌▓È_1
 62
     5
 10
903.41399999999999
 20
-314.89299999999997
 30
0.0
 70
    32
  0
VERTEX
  5
56C
  8
┌▓È_1
 62
     5
 10
903.43600000000015
 20
-314.899
 30
0.0
 70
    32
  0
VERTEX
  5
56D
  8
┌▓È_1
 62
     5
 10
903.45800000000008
 20
-314.904
 30
0.0
 70
    32
  0
VERTEX
  5
56E
  8
┌▓È_1
 62
     5
 10
903.48000000000002
 20
-314.91000000000003
 30
0.0
 70
    32
  0
VERTEX
  5
56F
  8
┌▓È_1
 62
     5
 10
903.50199999999995
 20
-314.916
 30
0.0
 70
    32
  0
VERTEX
  5
570
  8
┌▓È_1
 62
     5
 10
903.52399999999989
 20
-314.92200000000003
 30
0.0
 70
    32
  0
VERTEX
  5
571
  8
┌▓È_1
 62
     5
 10
903.54700000000003
 20
-314.92700000000002
 30
0.0
 70
    32
  0
VERTEX
  5
572
  8
┌▓È_1
 62
     5
 10
903.56899999999996
 20
-314.93299999999999
 30
0.0
 70
    32
  0
VERTEX
  5
573
  8
┌▓È_1
 62
     5
 10
903.59099999999989
 20
-314.93900000000002
 30
0.0
 70
    32
  0
VERTEX
  5
574
  8
┌▓È_1
 62
     5
 10
903.61299999999994
 20
-314.94400000000002
 30
0.0
 70
    32
  0
VERTEX
  5
575
  8
┌▓È_1
 62
     5
 10
903.63499999999999
 20
-314.94999999999999
 30
0.0
 70
    32
  0
VERTEX
  5
576
  8
┌▓È_1
 62
     5
 10
903.65800000000002
 20
-314.95600000000002
 30
0.0
 70
    32
  0
VERTEX
  5
577
  8
┌▓È_1
 62
     5
 10
903.67999999999995
 20
-314.96100000000001
 30
0.0
 70
    32
  0
VERTEX
  5
578
  8
┌▓È_1
 62
     5
 10
903.702
 20
-314.96699999999998
 30
0.0
 70
    32
  0
VERTEX
  5
579
  8
┌▓È_1
 62
     5
 10
903.72399999999982
 20
-314.97199999999998
 30
0.0
 70
    32
  0
VERTEX
  5
57A
  8
┌▓È_1
 62
     5
 10
903.74699999999984
 20
-314.97800000000001
 30
0.0
 70
    32
  0
VERTEX
  5
57B
  8
┌▓È_1
 62
     5
 10
903.76899999999989
 20
-314.983
 30
0.0
 70
    32
  0
VERTEX
  5
57C
  8
┌▓È_1
 62
     5
 10
903.79100000000005
 20
-314.98899999999998
 30
0.0
 70
    32
  0
VERTEX
  5
57D
  8
┌▓È_1
 62
     5
 10
903.81299999999999
 20
-314.99400000000003
 30
0.0
 70
    32
  0
VERTEX
  5
57E
  8
┌▓È_1
 62
     5
 10
903.83600000000001
 20
-315.0
 30
0.0
 70
    32
  0
VERTEX
  5
57F
  8
┌▓È_1
 62
     5
 10
903.85800000000006
 20
-315.005
 30
0.0
 70
    32
  0
VERTEX
  5
580
  8
┌▓È_1
 62
     5
 10
903.88
 20
-315.01100000000002
 30
0.0
 70
    32
  0
VERTEX
  5
581
  8
┌▓È_1
 62
     5
 10
903.90300000000002
 20
-315.01600000000002
 30
0.0
 70
    32
  0
VERTEX
  5
582
  8
┌▓È_1
 62
     5
 10
903.92499999999995
 20
-315.0209999999999
 30
0.0
 70
    32
  0
VERTEX
  5
583
  8
┌▓È_1
 62
     5
 10
903.94699999999989
 20
-315.02699999999999
 30
0.0
 70
    32
  0
VERTEX
  5
584
  8
┌▓È_1
 62
     5
 10
903.96999999999991
 20
-315.03199999999998
 30
0.0
 70
    32
  0
VERTEX
  5
585
  8
┌▓È_1
 62
     5
 10
903.99199999999996
 20
-315.03700000000009
 30
0.0
 70
    32
  0
VERTEX
  5
586
  8
┌▓È_1
 62
     5
 10
904.0139999999999
 20
-315.04300000000001
 30
0.0
 70
    32
  0
VERTEX
  5
587
  8
┌▓È_1
 62
     5
 10
904.03699999999992
 20
-315.048
 30
0.0
 70
    32
  0
VERTEX
  5
588
  8
┌▓È_1
 62
     5
 10
904.05899999999986
 20
-315.053
 30
0.0
 70
    32
  0
VERTEX
  5
589
  8
┌▓È_1
 62
     5
 10
904.08199999999999
 20
-315.05799999999999
 30
0.0
 70
    32
  0
VERTEX
  5
58A
  8
┌▓È_1
 62
     5
 10
904.10399999999981
 20
-315.06400000000002
 30
0.0
 70
    32
  0
VERTEX
  5
58B
  8
┌▓È_1
 62
     5
 10
904.12699999999995
 20
-315.06900000000002
 30
0.0
 70
    32
  0
VERTEX
  5
58C
  8
┌▓È_1
 62
     5
 10
904.14899999999989
 20
-315.07400000000001
 30
0.0
 70
    32
  0
VERTEX
  5
58D
  8
┌▓È_1
 62
     5
 10
904.17100000000005
 20
-315.07900000000001
 30
0.0
 70
    32
  0
VERTEX
  5
58E
  8
┌▓È_1
 62
     5
 10
904.19399999999996
 20
-315.084
 30
0.0
 70
    32
  0
VERTEX
  5
58F
  8
┌▓È_1
 62
     5
 10
904.21600000000001
 20
-315.08999999999997
 30
0.0
 70
    32
  0
VERTEX
  5
590
  8
┌▓È_1
 62
     5
 10
904.23899999999992
 20
-315.09500000000003
 30
0.0
 70
    32
  0
VERTEX
  5
591
  8
┌▓È_1
 62
     5
 10
904.26100000000008
 20
-315.10000000000002
 30
0.0
 70
    32
  0
VERTEX
  5
592
  8
┌▓È_1
 62
     5
 10
904.28399999999988
 20
-315.10500000000002
 30
0.0
 70
    32
  0
VERTEX
  5
593
  8
┌▓È_1
 62
     5
 10
904.30600000000004
 20
-315.11000000000001
 30
0.0
 70
    32
  0
VERTEX
  5
594
  8
┌▓È_1
 62
     5
 10
904.32899999999984
 20
-315.11500000000001
 30
0.0
 70
    32
  0
VERTEX
  5
595
  8
┌▓È_1
 62
     5
 10
904.35100000000011
 20
-315.12
 30
0.0
 70
    32
  0
VERTEX
  5
596
  8
┌▓È_1
 62
     5
 10
904.37399999999991
 20
-315.125
 30
0.0
 70
    32
  0
VERTEX
  5
597
  8
┌▓È_1
 62
     5
 10
904.39599999999996
 20
-315.13
 30
0.0
 70
    32
  0
VERTEX
  5
598
  8
┌▓È_1
 62
     5
 10
904.41899999999998
 20
-315.13499999999999
 30
0.0
 70
    32
  0
VERTEX
  5
599
  8
┌▓È_1
 62
     5
 10
904.44100000000003
 20
-315.13999999999999
 30
0.0
 70
    32
  0
VERTEX
  5
59A
  8
┌▓È_1
 62
     5
 10
904.46399999999994
 20
-315.14499999999998
 30
0.0
 70
    32
  0
VERTEX
  5
59B
  8
┌▓È_1
 62
     5
 10
904.48699999999985
 20
-315.14999999999998
 30
0.0
 70
    32
  0
VERTEX
  5
59C
  8
┌▓È_1
 62
     5
 10
904.50900000000001
 20
-315.15499999999997
 30
0.0
 70
    32
  0
VERTEX
  5
59D
  8
┌▓È_1
 62
     5
 10
904.53200000000004
 20
-315.16000000000003
 30
0.0
 70
    32
  0
VERTEX
  5
59E
  8
┌▓È_1
 62
     5
 10
904.55399999999997
 20
-315.16500000000002
 30
0.0
 70
    32
  0
VERTEX
  5
59F
  8
┌▓È_1
 62
     5
 10
904.577
 20
-315.17000000000002
 30
0.0
 70
    32
  0
VERTEX
  5
5A0
  8
┌▓È_1
 62
     5
 10
904.59899999999993
 20
-315.17500000000001
 30
0.0
 70
    32
  0
VERTEX
  5
5A1
  8
┌▓È_1
 62
     5
 10
904.62199999999984
 20
-315.18000000000001
 30
0.0
 70
    32
  0
VERTEX
  5
5A2
  8
┌▓È_1
 62
     5
 10
904.64499999999998
 20
-315.185
 30
0.0
 70
    32
  0
VERTEX
  5
5A3
  8
┌▓È_1
 62
     5
 10
904.6669999999998
 20
-315.19
 30
0.0
 70
    32
  0
VERTEX
  5
5A4
  8
┌▓È_1
 62
     5
 10
904.69000000000005
 20
-315.19499999999999
 30
0.0
 70
    32
  0
VERTEX
  5
5A5
  8
┌▓È_1
 62
     5
 10
904.71199999999988
 20
-315.19900000000001
 30
0.0
 70
    32
  0
VERTEX
  5
5A6
  8
┌▓È_1
 62
     5
 10
904.7349999999999
 20
-315.20400000000001
 30
0.0
 70
    32
  0
VERTEX
  5
5A7
  8
┌▓È_1
 62
     5
 10
904.75799999999992
 20
-315.209
 30
0.0
 70
    32
  0
VERTEX
  5
5A8
  8
┌▓È_1
 62
     5
 10
904.77999999999997
 20
-315.214
 30
0.0
 70
    32
  0
VERTEX
  5
5A9
  8
┌▓È_1
 62
     5
 10
904.803
 20
-315.21899999999999
 30
0.0
 70
    32
  0
VERTEX
  5
5AA
  8
┌▓È_1
 62
     5
 10
904.82600000000002
 20
-315.22399999999999
 30
0.0
 70
    32
  0
VERTEX
  5
5AB
  8
┌▓È_1
 62
     5
 10
904.84800000000007
 20
-315.2290000000001
 30
0.0
 70
    32
  0
VERTEX
  5
5AC
  8
┌▓È_1
 62
     5
 10
904.87100000000009
 20
-315.233
 30
0.0
 70
    32
  0
VERTEX
  5
5AD
  8
┌▓È_1
 62
     5
 10
904.89300000000003
 20
-315.238
 30
0.0
 70
    32
  0
VERTEX
  5
5AE
  8
┌▓È_1
 62
     5
 10
904.91600000000005
 20
-315.24299999999999
 30
0.0
 70
    32
  0
VERTEX
  5
5AF
  8
┌▓È_1
 62
     5
 10
904.93899999999996
 20
-315.24799999999999
 30
0.0
 70
    32
  0
VERTEX
  5
5B0
  8
┌▓È_1
 62
     5
 10
904.9609999999999
 20
-315.25299999999999
 30
0.0
 70
    32
  0
VERTEX
  5
5B1
  8
┌▓È_1
 62
     5
 10
904.98399999999992
 20
-315.25700000000001
 30
0.0
 70
    32
  0
VERTEX
  5
5B2
  8
┌▓È_1
 62
     5
 10
905.00699999999995
 20
-315.262
 30
0.0
 70
    32
  0
VERTEX
  5
5B3
  8
┌▓È_1
 62
     5
 10
905.029
 20
-315.267
 30
0.0
 70
    32
  0
VERTEX
  5
5B4
  8
┌▓È_1
 62
     5
 10
905.05200000000002
 20
-315.27199999999999
 30
0.0
 70
    32
  0
VERTEX
  5
5B5
  8
┌▓È_1
 62
     5
 10
905.07500000000005
 20
-315.27600000000001
 30
0.0
 70
    32
  0
VERTEX
  5
5B6
  8
┌▓È_1
 62
     5
 10
905.09699999999987
 20
-315.28100000000001
 30
0.0
 70
    32
  0
VERTEX
  5
5B7
  8
┌▓È_1
 62
     5
 10
905.11999999999989
 20
-315.286
 30
0.0
 70
    32
  0
VERTEX
  5
5B8
  8
┌▓È_1
 62
     5
 10
905.14299999999992
 20
-315.291
 30
0.0
 70
    32
  0
VERTEX
  5
5B9
  8
┌▓È_1
 62
     5
 10
905.16499999999996
 20
-315.29500000000002
 30
0.0
 70
    32
  0
VERTEX
  5
5BA
  8
┌▓È_1
 62
     5
 10
905.18799999999999
 20
-315.30000000000001
 30
0.0
 70
    32
  0
VERTEX
  5
5BB
  8
┌▓È_1
 62
     5
 10
905.21100000000001
 20
-315.30500000000001
 30
0.0
 70
    32
  0
VERTEX
  5
5BC
  8
┌▓È_1
 62
     5
 10
905.23399999999992
 20
-315.31
 30
0.0
 70
    32
  0
VERTEX
  5
5BD
  8
┌▓È_1
 62
     5
 10
905.25600000000009
 20
-315.31400000000002
 30
0.0
 70
    32
  0
VERTEX
  5
5BE
  8
┌▓È_1
 62
     5
 10
905.27899999999988
 20
-315.31900000000002
 30
0.0
 70
    32
  0
VERTEX
  5
5BF
  8
┌▓È_1
 62
     5
 10
905.30200000000002
 20
-315.32400000000001
 30
0.0
 70
    32
  0
VERTEX
  5
5C0
  8
┌▓È_1
 62
     5
 10
905.32399999999996
 20
-315.32900000000001
 30
0.0
 70
    32
  0
VERTEX
  5
5C1
  8
┌▓È_1
 62
     5
 10
905.34699999999998
 20
-315.33300000000003
 30
0.0
 70
    32
  0
VERTEX
  5
5C2
  8
┌▓È_1
 62
     5
 10
905.37
 20
-315.33800000000002
 30
0.0
 70
    32
  0
VERTEX
  5
5C3
  8
┌▓È_1
 62
     5
 10
905.39199999999994
 20
-315.34300000000002
 30
0.0
 70
    32
  0
VERTEX
  5
5C4
  8
┌▓È_1
 62
     5
 10
905.41499999999985
 20
-315.34699999999998
 30
0.0
 70
    32
  0
VERTEX
  5
5C5
  8
┌▓È_1
 62
     5
 10
905.43799999999999
 20
-315.35199999999998
 30
0.0
 70
    32
  0
VERTEX
  5
5C6
  8
┌▓È_1
 62
     5
 10
905.46000000000004
 20
-315.35700000000003
 30
0.0
 70
    32
  0
VERTEX
  5
5C7
  8
┌▓È_1
 62
     5
 10
905.48299999999995
 20
-315.36200000000002
 30
0.0
 70
    32
  0
SEQEND
  5
5C8
  8
┌▓È_1
 62
     5
  0
POLYLINE
  5
5C9
  8
┌▓È_1
 62
     5
 66
     1
 10
0.0
 20
0.0
 30
0.0
 70
     8
  0
VERTEX
  5
5CA
  8
┌▓È_1
 62
     5
 10
898.2829999999999
 20
-311.87700000000001
 30
0.0
 70
    32
  0
VERTEX
  5
5CB
  8
┌▓È_1
 62
     5
 10
898.29799999999989
 20
-311.88999999999999
 30
0.0
 70
    32
  0
VERTEX
  5
5CC
  8
┌▓È_1
 62
     5
 10
898.3119999999999
 20
-311.904
 30
0.0
 70
    32
  0
VERTEX
  5
5CD
  8
┌▓È_1
 62
     5
 10
898.32599999999991
 20
-311.91699999999997
 30
0.0
 70
    32
  0
VERTEX
  5
5CE
  8
┌▓È_1
 62
     5
 10
898.34100000000012
 20
-311.93000000000001
 30
0.0
 70
    32
  0
VERTEX
  5
5CF
  8
┌▓È_1
 62
     5
 10
898.35500000000013
 20
-311.94299999999998
 30
0.0
 70
    32
  0
VERTEX
  5
5D0
  8
┌▓È_1
 62
     5
 10
898.37
 20
-311.95699999999999
 30
0.0
 70
    32
  0
VERTEX
  5
5D1
  8
┌▓È_1
 62
     5
 10
898.38399999999979
 20
-311.97000000000003
 30
0.0
 70
    32
  0
VERTEX
  5
5D2
  8
┌▓È_1
 62
     5
 10
898.39800000000002
 20
-311.983
 30
0.0
 70
    32
  0
VERTEX
  5
5D3
  8
┌▓È_1
 62
     5
 10
898.41300000000001
 20
-311.99700000000001
 30
0.0
 70
    32
  0
VERTEX
  5
5D4
  8
┌▓È_1
 62
     5
 10
898.42700000000002
 20
-312.00999999999999
 30
0.0
 70
    32
  0
VERTEX
  5
5D5
  8
┌▓È_1
 62
     5
 10
898.44200000000001
 20
-312.02300000000002
 30
0.0
 70
    32
  0
VERTEX
  5
5D6
  8
┌▓È_1
 62
     5
 10
898.45600000000002
 20
-312.036
 30
0.0
 70
    32
  0
VERTEX
  5
5D7
  8
┌▓È_1
 62
     5
 10
898.47099999999989
 20
-312.05000000000001
 30
0.0
 70
    32
  0
VERTEX
  5
5D8
  8
┌▓È_1
 62
     5
 10
898.4849999999999
 20
-312.06299999999999
 30
0.0
 70
    32
  0
VERTEX
  5
5D9
  8
┌▓È_1
 62
     5
 10
898.49899999999991
 20
-312.07600000000002
 30
0.0
 70
    32
  0
VERTEX
  5
5DA
  8
┌▓È_1
 62
     5
 10
898.5139999999999
 20
-312.089
 30
0.0
 70
    32
  0
VERTEX
  5
5DB
  8
┌▓È_1
 62
     5
 10
898.52800000000013
 20
-312.10300000000001
 30
0.0
 70
    32
  0
VERTEX
  5
5DC
  8
┌▓È_1
 62
     5
 10
898.54300000000001
 20
-312.11599999999999
 30
0.0
 70
    32
  0
VERTEX
  5
5DD
  8
┌▓È_1
 62
     5
 10
898.55700000000002
 20
-312.12900000000002
 30
0.0
 70
    32
  0
VERTEX
  5
5DE
  8
┌▓È_1
 62
     5
 10
898.572
 20
-312.142
 30
0.0
 70
    32
  0
VERTEX
  5
5DF
  8
┌▓È_1
 62
     5
 10
898.58600000000001
 20
-312.15600000000001
 30
0.0
 70
    32
  0
VERTEX
  5
5E0
  8
┌▓È_1
 62
     5
 10
898.60000000000002
 20
-312.16899999999998
 30
0.0
 70
    32
  0
VERTEX
  5
5E1
  8
┌▓È_1
 62
     5
 10
898.61500000000001
 20
-312.18200000000002
 30
0.0
 70
    32
  0
VERTEX
  5
5E2
  8
┌▓È_1
 62
     5
 10
898.62899999999979
 20
-312.19499999999999
 30
0.0
 70
    32
  0
VERTEX
  5
5E3
  8
┌▓È_1
 62
     5
 10
898.64399999999989
 20
-312.20800000000003
 30
0.0
 70
    32
  0
VERTEX
  5
5E4
  8
┌▓È_1
 62
     5
 10
898.65800000000002
 20
-312.22199999999998
 30
0.0
 70
    32
  0
VERTEX
  5
5E5
  8
┌▓È_1
 62
     5
 10
898.67299999999989
 20
-312.23500000000001
 30
0.0
 70
    32
  0
VERTEX
  5
5E6
  8
┌▓È_1
 62
     5
 10
898.6869999999999
 20
-312.24799999999999
 30
0.0
 70
    32
  0
VERTEX
  5
5E7
  8
┌▓È_1
 62
     5
 10
898.70199999999988
 20
-312.26100000000002
 30
0.0
 70
    32
  0
VERTEX
  5
5E8
  8
┌▓È_1
 62
     5
 10
898.71600000000012
 20
-312.274
 30
0.0
 70
    32
  0
VERTEX
  5
5E9
  8
┌▓È_1
 62
     5
 10
898.73099999999999
 20
-312.28699999999998
 30
0.0
 70
    32
  0
VERTEX
  5
5EA
  8
┌▓È_1
 62
     5
 10
898.745
 20
-312.30099999999999
 30
0.0
 70
    32
  0
VERTEX
  5
5EB
  8
┌▓È_1
 62
     5
 10
898.75999999999999
 20
-312.31400000000002
 30
0.0
 70
    32
  0
VERTEX
  5
5EC
  8
┌▓È_1
 62
     5
 10
898.77399999999977
 20
-312.327
 30
0.0
 70
    32
  0
VERTEX
  5
5ED
  8
┌▓È_1
 62
     5
 10
898.78899999999999
 20
-312.33999999999997
 30
0.0
 70
    32
  0
VERTEX
  5
5EE
  8
┌▓È_1
 62
     5
 10
898.803
 20
-312.35300000000001
 30
0.0
 70
    32
  0
VERTEX
  5
5EF
  8
┌▓È_1
 62
     5
 10
898.81799999999987
 20
-312.36599999999999
 30
0.0
 70
    32
  0
VERTEX
  5
5F0
  8
┌▓È_1
 62
     5
 10
898.83199999999988
 20
-312.37900000000002
 30
0.0
 70
    32
  0
VERTEX
  5
5F1
  8
┌▓È_1
 62
     5
 10
898.84699999999987
 20
-312.392
 30
0.0
 70
    32
  0
VERTEX
  5
5F2
  8
┌▓È_1
 62
     5
 10
898.8610000000001
 20
-312.40499999999997
 30
0.0
 70
    32
  0
VERTEX
  5
5F3
  8
┌▓È_1
 62
     5
 10
898.87599999999998
 20
-312.41800000000001
 30
0.0
 70
    32
  0
VERTEX
  5
5F4
  8
┌▓È_1
 62
     5
 10
898.88999999999987
 20
-312.43099999999998
 30
0.0
 70
    32
  0
VERTEX
  5
5F5
  8
┌▓È_1
 62
     5
 10
898.90499999999997
 20
-312.44400000000002
 30
0.0
 70
    32
  0
VERTEX
  5
5F6
  8
┌▓È_1
 62
     5
 10
898.91899999999998
 20
-312.45800000000003
 30
0.0
 70
    32
  0
VERTEX
  5
5F7
  8
┌▓È_1
 62
     5
 10
898.93399999999997
 20
-312.471
 30
0.0
 70
    32
  0
VERTEX
  5
5F8
  8
┌▓È_1
 62
     5
 10
898.94799999999998
 20
-312.48399999999998
 30
0.0
 70
    32
  0
VERTEX
  5
5F9
  8
┌▓È_1
 62
     5
 10
898.96300000000008
 20
-312.49599999999998
 30
0.0
 70
    32
  0
VERTEX
  5
5FA
  8
┌▓È_1
 62
     5
 10
898.97800000000007
 20
-312.50900000000001
 30
0.0
 70
    32
  0
VERTEX
  5
5FB
  8
┌▓È_1
 62
     5
 10
898.99199999999985
 20
-312.52199999999999
 30
0.0
 70
    32
  0
VERTEX
  5
5FC
  8
┌▓È_1
 62
     5
 10
899.00699999999995
 20
-312.53500000000003
 30
0.0
 70
    32
  0
VERTEX
  5
5FD
  8
┌▓È_1
 62
     5
 10
899.02100000000007
 20
-312.548
 30
0.0
 70
    32
  0
VERTEX
  5
5FE
  8
┌▓È_1
 62
     5
 10
899.03599999999994
 20
-312.56099999999998
 30
0.0
 70
    32
  0
VERTEX
  5
5FF
  8
┌▓È_1
 62
     5
 10
899.05100000000004
 20
-312.57400000000001
 30
0.0
 70
    32
  0
VERTEX
  5
600
  8
┌▓È_1
 62
     5
 10
899.06500000000005
 20
-312.58699999999999
 30
0.0
 70
    32
  0
VERTEX
  5
601
  8
┌▓È_1
 62
     5
 10
899.08000000000004
 20
-312.60000000000002
 30
0.0
 70
    32
  0
VERTEX
  5
602
  8
┌▓È_1
 62
     5
 10
899.09400000000005
 20
-312.613
 30
0.0
 70
    32
  0
VERTEX
  5
603
  8
┌▓È_1
 62
     5
 10
899.10899999999992
 20
-312.62599999999998
 30
0.0
 70
    32
  0
VERTEX
  5
604
  8
┌▓È_1
 62
     5
 10
899.12399999999991
 20
-312.63799999999998
 30
0.0
 70
    32
  0
VERTEX
  5
605
  8
┌▓È_1
 62
     5
 10
899.13800000000015
 20
-312.65100000000001
 30
0.0
 70
    32
  0
VERTEX
  5
606
  8
┌▓È_1
 62
     5
 10
899.15300000000002
 20
-312.66399999999999
 30
0.0
 70
    32
  0
VERTEX
  5
607
  8
┌▓È_1
 62
     5
 10
899.16800000000001
 20
-312.67700000000002
 30
0.0
 70
    32
  0
VERTEX
  5
608
  8
┌▓È_1
 62
     5
 10
899.18200000000002
 20
-312.69
 30
0.0
 70
    32
  0
VERTEX
  5
609
  8
┌▓È_1
 62
     5
 10
899.197
 20
-312.702
 30
0.0
 70
    32
  0
VERTEX
  5
60A
  8
┌▓È_1
 62
     5
 10
899.21199999999988
 20
-312.71499999999997
 30
0.0
 70
    32
  0
VERTEX
  5
60B
  8
┌▓È_1
 62
     5
 10
899.22699999999986
 20
-312.72800000000001
 30
0.0
 70
    32
  0
VERTEX
  5
60C
  8
┌▓È_1
 62
     5
 10
899.2410000000001
 20
-312.74000000000001
 30
0.0
 70
    32
  0
VERTEX
  5
60D
  8
┌▓È_1
 62
     5
 10
899.25599999999997
 20
-312.75299999999999
 30
0.0
 70
    32
  0
VERTEX
  5
60E
  8
┌▓È_1
 62
     5
 10
899.27099999999996
 20
-312.76600000000002
 30
0.0
 70
    32
  0
VERTEX
  5
60F
  8
┌▓È_1
 62
     5
 10
899.28599999999994
 20
-312.77800000000002
 30
0.0
 70
    32
  0
VERTEX
  5
610
  8
┌▓È_1
 62
     5
 10
899.29999999999995
 20
-312.791
 30
0.0
 70
    32
  0
VERTEX
  5
611
  8
┌▓È_1
 62
     5
 10
899.31499999999994
 20
-312.80399999999997
 30
0.0
 70
    32
  0
VERTEX
  5
612
  8
┌▓È_1
 62
     5
 10
899.33000000000015
 20
-312.81599999999997
 30
0.0
 70
    32
  0
VERTEX
  5
613
  8
┌▓È_1
 62
     5
 10
899.34500000000014
 20
-312.82900000000001
 30
0.0
 70
    32
  0
VERTEX
  5
614
  8
┌▓È_1
 62
     5
 10
899.36000000000001
 20
-312.84100000000001
 30
0.0
 70
    32
  0
VERTEX
  5
615
  8
┌▓È_1
 62
     5
 10
899.3739999999998
 20
-312.85399999999998
 30
0.0
 70
    32
  0
VERTEX
  5
616
  8
┌▓È_1
 62
     5
 10
899.38899999999978
 20
-312.86599999999999
 30
0.0
 70
    32
  0
VERTEX
  5
617
  8
┌▓È_1
 62
     5
 10
899.404
 20
-312.87900000000002
 30
0.0
 70
    32
  0
VERTEX
  5
618
  8
┌▓È_1
 62
     5
 10
899.41899999999987
 20
-312.89100000000002
 30
0.0
 70
    32
  0
VERTEX
  5
619
  8
┌▓È_1
 62
     5
 10
899.43399999999986
 20
-312.904
 30
0.0
 70
    32
  0
VERTEX
  5
61A
  8
┌▓È_1
 62
     5
 10
899.44899999999984
 20
-312.916
 30
0.0
 70
    32
  0
VERTEX
  5
61B
  8
┌▓È_1
 62
     5
 10
899.46400000000006
 20
-312.928
 30
0.0
 70
    32
  0
VERTEX
  5
61C
  8
┌▓È_1
 62
     5
 10
899.47799999999995
 20
-312.94099999999997
 30
0.0
 70
    32
  0
VERTEX
  5
61D
  8
┌▓È_1
 62
     5
 10
899.49300000000005
 20
-312.95299999999997
 30
0.0
 70
    32
  0
VERTEX
  5
61E
  8
┌▓È_1
 62
     5
 10
899.50799999999992
 20
-312.96499999999997
 30
0.0
 70
    32
  0
VERTEX
  5
61F
  8
┌▓È_1
 62
     5
 10
899.52300000000014
 20
-312.97800000000001
 30
0.0
 70
    32
  0
VERTEX
  5
620
  8
┌▓È_1
 62
     5
 10
899.53800000000001
 20
-312.99000000000001
 30
0.0
 70
    32
  0
VERTEX
  5
621
  8
┌▓È_1
 62
     5
 10
899.553
 20
-313.00200000000001
 30
0.0
 70
    32
  0
VERTEX
  5
622
  8
┌▓È_1
 62
     5
 10
899.56799999999998
 20
-313.01400000000001
 30
0.0
 70
    32
  0
VERTEX
  5
623
  8
┌▓È_1
 62
     5
 10
899.58300000000008
 20
-313.02699999999999
 30
0.0
 70
    32
  0
VERTEX
  5
624
  8
┌▓È_1
 62
     5
 10
899.59800000000007
 20
-313.03899999999999
 30
0.0
 70
    32
  0
VERTEX
  5
625
  8
┌▓È_1
 62
     5
 10
899.61300000000006
 20
-313.05099999999999
 30
0.0
 70
    32
  0
VERTEX
  5
626
  8
┌▓È_1
 62
     5
 10
899.62800000000004
 20
-313.06299999999999
 30
0.0
 70
    32
  0
VERTEX
  5
627
  8
┌▓È_1
 62
     5
 10
899.64300000000003
 20
-313.07499999999999
 30
0.0
 70
    32
  0
VERTEX
  5
628
  8
┌▓È_1
 62
     5
 10
899.6579999999999
 20
-313.08699999999999
 30
0.0
 70
    32
  0
VERTEX
  5
629
  8
┌▓È_1
 62
     5
 10
899.67299999999989
 20
-313.09899999999999
 30
0.0
 70
    32
  0
VERTEX
  5
62A
  8
┌▓È_1
 62
     5
 10
899.68799999999999
 20
-313.11099999999999
 30
0.0
 70
    32
  0
VERTEX
  5
62B
  8
┌▓È_1
 62
     5
 10
899.70399999999995
 20
-313.12299999999999
 30
0.0
 70
    32
  0
VERTEX
  5
62C
  8
┌▓È_1
 62
     5
 10
899.71899999999994
 20
-313.13499999999999
 30
0.0
 70
    32
  0
VERTEX
  5
62D
  8
┌▓È_1
 62
     5
 10
899.73399999999992
 20
-313.14699999999999
 30
0.0
 70
    32
  0
VERTEX
  5
62E
  8
┌▓È_1
 62
     5
 10
899.74899999999991
 20
-313.15899999999999
 30
0.0
 70
    32
  0
VERTEX
  5
62F
  8
┌▓È_1
 62
     5
 10
899.76399999999978
 20
-313.17099999999999
 30
0.0
 70
    32
  0
VERTEX
  5
630
  8
┌▓È_1
 62
     5
 10
899.779
 20
-313.18299999999999
 30
0.0
 70
    32
  0
VERTEX
  5
631
  8
┌▓È_1
 62
     5
 10
899.79499999999985
 20
-313.19499999999999
 30
0.0
 70
    32
  0
VERTEX
  5
632
  8
┌▓È_1
 62
     5
 10
899.80999999999995
 20
-313.20699999999999
 30
0.0
 70
    32
  0
VERTEX
  5
633
  8
┌▓È_1
 62
     5
 10
899.82500000000005
 20
-313.21800000000002
 30
0.0
 70
    32
  0
VERTEX
  5
634
  8
┌▓È_1
 62
     5
 10
899.84000000000003
 20
-313.23000000000002
 30
0.0
 70
    32
  0
VERTEX
  5
635
  8
┌▓È_1
 62
     5
 10
899.8549999999999
 20
-313.24200000000002
 30
0.0
 70
    32
  0
VERTEX
  5
636
  8
┌▓È_1
 62
     5
 10
899.87099999999998
 20
-313.25299999999999
 30
0.0
 70
    32
  0
VERTEX
  5
637
  8
┌▓È_1
 62
     5
 10
899.88599999999997
 20
-313.26499999999999
 30
0.0
 70
    32
  0
VERTEX
  5
638
  8
┌▓È_1
 62
     5
 10
899.90099999999995
 20
-313.27699999999999
 30
0.0
 70
    32
  0
VERTEX
  5
639
  8
┌▓È_1
 62
     5
 10
899.91699999999992
 20
-313.28800000000001
 30
0.0
 70
    32
  0
VERTEX
  5
63A
  8
┌▓È_1
 62
     5
 10
899.93200000000002
 20
-313.30000000000001
 30
0.0
 70
    32
  0
VERTEX
  5
63B
  8
┌▓È_1
 62
     5
 10
899.947
 20
-313.31099999999998
 30
0.0
 70
    32
  0
VERTEX
  5
63C
  8
┌▓È_1
 62
     5
 10
899.96300000000008
 20
-313.32299999999998
 30
0.0
 70
    32
  0
VERTEX
  5
63D
  8
┌▓È_1
 62
     5
 10
899.97800000000007
 20
-313.334
 30
0.0
 70
    32
  0
VERTEX
  5
63E
  8
┌▓È_1
 62
     5
 10
899.9939999999998
 20
-313.346
 30
0.0
 70
    32
  0
VERTEX
  5
63F
  8
┌▓È_1
 62
     5
 10
900.00899999999979
 20
-313.35700000000003
 30
0.0
 70
    32
  0
VERTEX
  5
640
  8
┌▓È_1
 62
     5
 10
900.02399999999989
 20
-313.36900000000003
 30
0.0
 70
    32
  0
VERTEX
  5
641
  8
┌▓È_1
 62
     5
 10
900.03999999999985
 20
-313.38
 30
0.0
 70
    32
  0
VERTEX
  5
642
  8
┌▓È_1
 62
     5
 10
900.05499999999995
 20
-313.39100000000002
 30
0.0
 70
    32
  0
VERTEX
  5
643
  8
┌▓È_1
 62
     5
 10
900.07099999999991
 20
-313.40300000000002
 30
0.0
 70
    32
  0
VERTEX
  5
644
  8
┌▓È_1
 62
     5
 10
900.08600000000013
 20
-313.41399999999999
 30
0.0
 70
    32
  0
VERTEX
  5
645
  8
┌▓È_1
 62
     5
 10
900.10199999999998
 20
-313.42500000000001
 30
0.0
 70
    32
  0
VERTEX
  5
646
  8
┌▓È_1
 62
     5
 10
900.11699999999996
 20
-313.43599999999998
 30
0.0
 70
    32
  0
VERTEX
  5
647
  8
┌▓È_1
 62
     5
 10
900.13300000000015
 20
-313.447
 30
0.0
 70
    32
  0
VERTEX
  5
648
  8
┌▓È_1
 62
     5
 10
900.14899999999977
 20
-313.45800000000003
 30
0.0
 70
    32
  0
VERTEX
  5
649
  8
┌▓È_1
 62
     5
 10
900.16399999999999
 20
-313.46899999999999
 30
0.0
 70
    32
  0
VERTEX
  5
64A
  8
┌▓È_1
 62
     5
 10
900.17999999999995
 20
-313.48099999999999
 30
0.0
 70
    32
  0
VERTEX
  5
64B
  8
┌▓È_1
 62
     5
 10
900.19500000000005
 20
-313.49200000000002
 30
0.0
 70
    32
  0
VERTEX
  5
64C
  8
┌▓È_1
 62
     5
 10
900.21100000000001
 20
-313.50200000000001
 30
0.0
 70
    32
  0
VERTEX
  5
64D
  8
┌▓È_1
 62
     5
 10
900.22699999999986
 20
-313.51299999999998
 30
0.0
 70
    32
  0
VERTEX
  5
64E
  8
┌▓È_1
 62
     5
 10
900.24199999999985
 20
-313.524
 30
0.0
 70
    32
  0
VERTEX
  5
64F
  8
┌▓È_1
 62
     5
 10
900.25800000000004
 20
-313.53500000000003
 30
0.0
 70
    32
  0
VERTEX
  5
650
  8
┌▓È_1
 62
     5
 10
900.27399999999989
 20
-313.54599999999999
 30
0.0
 70
    32
  0
VERTEX
  5
651
  8
┌▓È_1
 62
     5
 10
900.28999999999996
 20
-313.55700000000002
 30
0.0
 70
    32
  0
VERTEX
  5
652
  8
┌▓È_1
 62
     5
 10
900.30499999999995
 20
-313.56700000000001
 30
0.0
 70
    32
  0
VERTEX
  5
653
  8
┌▓È_1
 62
     5
 10
900.32100000000014
 20
-313.57799999999997
 30
0.0
 70
    32
  0
VERTEX
  5
654
  8
┌▓È_1
 62
     5
 10
900.33699999999999
 20
-313.589
 30
0.0
 70
    32
  0
VERTEX
  5
655
  8
┌▓È_1
 62
     5
 10
900.35300000000007
 20
-313.59899999999999
 30
0.0
 70
    32
  0
VERTEX
  5
656
  8
┌▓È_1
 62
     5
 10
900.3689999999998
 20
-313.61000000000001
 30
0.0
 70
    32
  0
VERTEX
  5
657
  8
┌▓È_1
 62
     5
 10
900.38499999999988
 20
-313.62099999999998
 30
0.0
 70
    32
  0
VERTEX
  5
658
  8
┌▓È_1
 62
     5
 10
900.40099999999995
 20
-313.63099999999997
 30
0.0
 70
    32
  0
VERTEX
  5
659
  8
┌▓È_1
 62
     5
 10
900.41700000000003
 20
-313.642
 30
0.0
 70
    32
  0
VERTEX
  5
65A
  8
┌▓È_1
 62
     5
 10
900.4319999999999
 20
-313.65199999999999
 30
0.0
 70
    32
  0
VERTEX
  5
65B
  8
┌▓È_1
 62
     5
 10
900.44799999999987
 20
-313.66200000000009
 30
0.0
 70
    32
  0
VERTEX
  5
65C
  8
┌▓È_1
 62
     5
 10
900.46400000000006
 20
-313.673
 30
0.0
 70
    32
  0
VERTEX
  5
65D
  8
┌▓È_1
 62
     5
 10
900.48000000000013
 20
-313.68299999999999
 30
0.0
 70
    32
  0
VERTEX
  5
65E
  8
┌▓È_1
 62
     5
 10
900.49599999999998
 20
-313.69299999999998
 30
0.0
 70
    32
  0
VERTEX
  5
65F
  8
┌▓È_1
 62
     5
 10
900.51300000000015
 20
-313.70400000000001
 30
0.0
 70
    32
  0
VERTEX
  5
660
  8
┌▓È_1
 62
     5
 10
900.529
 20
-313.714
 30
0.0
 70
    32
  0
VERTEX
  5
661
  8
┌▓È_1
 62
     5
 10
900.54499999999985
 20
-313.72399999999999
 30
0.0
 70
    32
  0
VERTEX
  5
662
  8
┌▓È_1
 62
     5
 10
900.56100000000004
 20
-313.73399999999998
 30
0.0
 70
    32
  0
VERTEX
  5
663
  8
┌▓È_1
 62
     5
 10
900.577
 20
-313.74400000000003
 30
0.0
 70
    32
  0
VERTEX
  5
664
  8
┌▓È_1
 62
     5
 10
900.59300000000007
 20
-313.75400000000002
 30
0.0
 70
    32
  0
VERTEX
  5
665
  8
┌▓È_1
 62
     5
 10
900.60899999999981
 20
-313.76400000000001
 30
0.0
 70
    32
  0
VERTEX
  5
666
  8
┌▓È_1
 62
     5
 10
900.62600000000009
 20
-313.774
 30
0.0
 70
    32
  0
VERTEX
  5
667
  8
┌▓È_1
 62
     5
 10
900.64200000000005
 20
-313.78399999999999
 30
0.0
 70
    32
  0
VERTEX
  5
668
  8
┌▓È_1
 62
     5
 10
900.6579999999999
 20
-313.79399999999998
 30
0.0
 70
    32
  0
VERTEX
  5
669
  8
┌▓È_1
 62
     5
 10
900.67399999999998
 20
-313.80399999999997
 30
0.0
 70
    32
  0
SEQEND
  5
66A
  8
┌▓È_1
 62
     5
  0
POLYLINE
  5
66B
  8
┌▓È_1
 62
     5
 66
     1
 10
0.0
 20
0.0
 30
0.0
 70
     8
  0
VERTEX
  5
66C
  8
┌▓È_1
 62
     5
 10
903.63099999999997
 20
-313.77999999999997
 30
0.0
 70
    32
  0
VERTEX
  5
66D
  8
┌▓È_1
 62
     5
 10
903.64499999999998
 20
-313.78399999999999
 30
0.0
 70
    32
  0
VERTEX
  5
66E
  8
┌▓È_1
 62
     5
 10
903.65899999999999
 20
-313.78800000000001
 30
0.0
 70
    32
  0
VERTEX
  5
66F
  8
┌▓È_1
 62
     5
 10
903.673
 20
-313.79199999999997
 30
0.0
 70
    32
  0
VERTEX
  5
670
  8
┌▓È_1
 62
     5
 10
903.68700000000001
 20
-313.79599999999999
 30
0.0
 70
    32
  0
VERTEX
  5
671
  8
┌▓È_1
 62
     5
 10
903.70100000000002
 20
-313.80000000000001
 30
0.0
 70
    32
  0
VERTEX
  5
672
  8
┌▓È_1
 62
     5
 10
903.71500000000003
 20
-313.80399999999997
 30
0.0
 70
    32
  0
VERTEX
  5
673
  8
┌▓È_1
 62
     5
 10
903.72899999999981
 20
-313.80799999999999
 30
0.0
 70
    32
  0
VERTEX
  5
674
  8
┌▓È_1
 62
     5
 10
903.74300000000005
 20
-313.81200000000001
 30
0.0
 70
    32
  0
VERTEX
  5
675
  8
┌▓È_1
 62
     5
 10
903.75699999999995
 20
-313.815
 30
0.0
 70
    32
  0
VERTEX
  5
676
  8
┌▓È_1
 62
     5
 10
903.77099999999996
 20
-313.81900000000002
 30
0.0
 70
    32
  0
VERTEX
  5
677
  8
┌▓È_1
 62
     5
 10
903.78499999999997
 20
-313.82299999999998
 30
0.0
 70
    32
  0
VERTEX
  5
678
  8
┌▓È_1
 62
     5
 10
903.79999999999995
 20
-313.827
 30
0.0
 70
    32
  0
VERTEX
  5
679
  8
┌▓È_1
 62
     5
 10
903.81399999999996
 20
-313.82999999999998
 30
0.0
 70
    32
  0
VERTEX
  5
67A
  8
┌▓È_1
 62
     5
 10
903.82799999999997
 20
-313.834
 30
0.0
 70
    32
  0
VERTEX
  5
67B
  8
┌▓È_1
 62
     5
 10
903.84199999999998
 20
-313.83800000000002
 30
0.0
 70
    32
  0
VERTEX
  5
67C
  8
┌▓È_1
 62
     5
 10
903.85600000000022
 20
-313.84100000000001
 30
0.0
 70
    32
  0
VERTEX
  5
67D
  8
┌▓È_1
 62
     5
 10
903.87
 20
-313.84500000000003
 30
0.0
 70
    32
  0
VERTEX
  5
67E
  8
┌▓È_1
 62
     5
 10
903.88499999999999
 20
-313.84800000000001
 30
0.0
 70
    32
  0
VERTEX
  5
67F
  8
┌▓È_1
 62
     5
 10
903.89899999999977
 20
-313.85199999999998
 30
0.0
 70
    32
  0
VERTEX
  5
680
  8
┌▓È_1
 62
     5
 10
903.91300000000001
 20
-313.85599999999999
 30
0.0
 70
    32
  0
VERTEX
  5
681
  8
┌▓È_1
 62
     5
 10
903.92700000000002
 20
-313.85900000000009
 30
0.0
 70
    32
  0
VERTEX
  5
682
  8
┌▓È_1
 62
     5
 10
903.94199999999989
 20
-313.863
 30
0.0
 70
    32
  0
VERTEX
  5
683
  8
┌▓È_1
 62
     5
 10
903.9559999999999
 20
-313.86599999999999
 30
0.0
 70
    32
  0
VERTEX
  5
684
  8
┌▓È_1
 62
     5
 10
903.96999999999991
 20
-313.87
 30
0.0
 70
    32
  0
VERTEX
  5
685
  8
┌▓È_1
 62
     5
 10
903.9849999999999
 20
-313.87299999999999
 30
0.0
 70
    32
  0
VERTEX
  5
686
  8
┌▓È_1
 62
     5
 10
903.99899999999991
 20
-313.87700000000001
 30
0.0
 70
    32
  0
VERTEX
  5
687
  8
┌▓È_1
 62
     5
 10
904.01300000000015
 20
-313.88
 30
0.0
 70
    32
  0
VERTEX
  5
688
  8
┌▓È_1
 62
     5
 10
904.02699999999993
 20
-313.88299999999998
 30
0.0
 70
    32
  0
VERTEX
  5
689
  8
┌▓È_1
 62
     5
 10
904.04199999999992
 20
-313.887
 30
0.0
 70
    32
  0
VERTEX
  5
68A
  8
┌▓È_1
 62
     5
 10
904.05600000000015
 20
-313.88999999999999
 30
0.0
 70
    32
  0
VERTEX
  5
68B
  8
┌▓È_1
 62
     5
 10
904.07100000000003
 20
-313.89400000000001
 30
0.0
 70
    32
  0
VERTEX
  5
68C
  8
┌▓È_1
 62
     5
 10
904.08500000000004
 20
-313.89699999999999
 30
0.0
 70
    32
  0
VERTEX
  5
68D
  8
┌▓È_1
 62
     5
 10
904.09899999999982
 20
-313.89999999999998
 30
0.0
 70
    32
  0
VERTEX
  5
68E
  8
┌▓È_1
 62
     5
 10
904.11399999999981
 20
-313.904
 30
0.0
 70
    32
  0
VERTEX
  5
68F
  8
┌▓È_1
 62
     5
 10
904.12800000000004
 20
-313.90699999999998
 30
0.0
 70
    32
  0
VERTEX
  5
690
  8
┌▓È_1
 62
     5
 10
904.14300000000003
 20
-313.91000000000003
 30
0.0
 70
    32
  0
VERTEX
  5
691
  8
┌▓È_1
 62
     5
 10
904.15700000000004
 20
-313.91300000000001
 30
0.0
 70
    32
  0
VERTEX
  5
692
  8
┌▓È_1
 62
     5
 10
904.17100000000005
 20
-313.91699999999997
 30
0.0
 70
    32
  0
VERTEX
  5
693
  8
┌▓È_1
 62
     5
 10
904.18599999999992
 20
-313.92000000000002
 30
0.0
 70
    32
  0
VERTEX
  5
694
  8
┌▓È_1
 62
     5
 10
904.19999999999993
 20
-313.923
 30
0.0
 70
    32
  0
VERTEX
  5
695
  8
┌▓È_1
 62
     5
 10
904.21500000000015
 20
-313.92599999999999
 30
0.0
 70
    32
  0
VERTEX
  5
696
  8
┌▓È_1
 62
     5
 10
904.22899999999993
 20
-313.92899999999997
 30
0.0
 70
    32
  0
VERTEX
  5
697
  8
┌▓È_1
 62
     5
 10
904.24399999999991
 20
-313.93299999999999
 30
0.0
 70
    32
  0
VERTEX
  5
698
  8
┌▓È_1
 62
     5
 10
904.25800000000004
 20
-313.93599999999998
 30
0.0
 70
    32
  0
VERTEX
  5
699
  8
┌▓È_1
 62
     5
 10
904.27300000000002
 20
-313.93900000000002
 30
0.0
 70
    32
  0
VERTEX
  5
69A
  8
┌▓È_1
 62
     5
 10
904.28699999999981
 20
-313.94200000000001
 30
0.0
 70
    32
  0
VERTEX
  5
69B
  8
┌▓È_1
 62
     5
 10
904.30200000000002
 20
-313.94499999999999
 30
0.0
 70
    32
  0
VERTEX
  5
69C
  8
┌▓È_1
 62
     5
 10
904.31600000000003
 20
-313.94799999999998
 30
0.0
 70
    32
  0
VERTEX
  5
69D
  8
┌▓È_1
 62
     5
 10
904.3309999999999
 20
-313.95100000000002
 30
0.0
 70
    32
  0
VERTEX
  5
69E
  8
┌▓È_1
 62
     5
 10
904.34499999999991
 20
-313.95400000000001
 30
0.0
 70
    32
  0
VERTEX
  5
69F
  8
┌▓È_1
 62
     5
 10
904.3599999999999
 20
-313.95699999999999
 30
0.0
 70
    32
  0
VERTEX
  5
6A0
  8
┌▓È_1
 62
     5
 10
904.37399999999991
 20
-313.95999999999998
 30
0.0
 70
    32
  0
VERTEX
  5
6A1
  8
┌▓È_1
 62
     5
 10
904.3889999999999
 20
-313.96300000000002
 30
0.0
 70
    32
  0
VERTEX
  5
6A2
  8
┌▓È_1
 62
     5
 10
904.404
 20
-313.96600000000001
 30
0.0
 70
    32
  0
VERTEX
  5
6A3
  8
┌▓È_1
 62
     5
 10
904.41800000000001
 20
-313.96899999999999
 30
0.0
 70
    32
  0
VERTEX
  5
6A4
  8
┌▓È_1
 62
     5
 10
904.43299999999999
 20
-313.97199999999998
 30
0.0
 70
    32
  0
VERTEX
  5
6A5
  8
┌▓È_1
 62
     5
 10
904.447
 20
-313.97500000000002
 30
0.0
 70
    32
  0
VERTEX
  5
6A6
  8
┌▓È_1
 62
     5
 10
904.46199999999999
 20
-313.97800000000001
 30
0.0
 70
    32
  0
VERTEX
  5
6A7
  8
┌▓È_1
 62
     5
 10
904.47699999999986
 20
-313.98099999999999
 30
0.0
 70
    32
  0
VERTEX
  5
6A8
  8
┌▓È_1
 62
     5
 10
904.4910000000001
 20
-313.98399999999998
 30
0.0
 70
    32
  0
VERTEX
  5
6A9
  8
┌▓È_1
 62
     5
 10
904.50600000000009
 20
-313.98700000000002
 30
0.0
 70
    32
  0
VERTEX
  5
6AA
  8
┌▓È_1
 62
     5
 10
904.52099999999996
 20
-313.99000000000001
 30
0.0
 70
    32
  0
VERTEX
  5
6AB
  8
┌▓È_1
 62
     5
 10
904.53499999999985
 20
-313.99299999999999
 30
0.0
 70
    32
  0
VERTEX
  5
6AC
  8
┌▓È_1
 62
     5
 10
904.54999999999995
 20
-313.99599999999998
 30
0.0
 70
    32
  0
VERTEX
  5
6AD
  8
┌▓È_1
 62
     5
 10
904.56500000000005
 20
-313.99900000000002
 30
0.0
 70
    32
  0
VERTEX
  5
6AE
  8
┌▓È_1
 62
     5
 10
904.57899999999995
 20
-314.00099999999998
 30
0.0
 70
    32
  0
VERTEX
  5
6AF
  8
┌▓È_1
 62
     5
 10
904.59399999999994
 20
-314.00400000000002
 30
0.0
 70
    32
  0
VERTEX
  5
6B0
  8
┌▓È_1
 62
     5
 10
904.60899999999992
 20
-314.00700000000001
 30
0.0
 70
    32
  0
VERTEX
  5
6B1
  8
┌▓È_1
 62
     5
 10
904.62300000000005
 20
-314.00999999999999
 30
0.0
 70
    32
  0
VERTEX
  5
6B2
  8
┌▓È_1
 62
     5
 10
904.63800000000003
 20
-314.01299999999998
 30
0.0
 70
    32
  0
VERTEX
  5
6B3
  8
┌▓È_1
 62
     5
 10
904.65300000000002
 20
-314.01600000000002
 30
0.0
 70
    32
  0
VERTEX
  5
6B4
  8
┌▓È_1
 62
     5
 10
904.6669999999998
 20
-314.01799999999997
 30
0.0
 70
    32
  0
VERTEX
  5
6B5
  8
┌▓È_1
 62
     5
 10
904.68200000000002
 20
-314.02100000000002
 30
0.0
 70
    32
  0
VERTEX
  5
6B6
  8
┌▓È_1
 62
     5
 10
904.69699999999989
 20
-314.024
 30
0.0
 70
    32
  0
VERTEX
  5
6B7
  8
┌▓È_1
 62
     5
 10
904.71199999999988
 20
-314.02699999999999
 30
0.0
 70
    32
  0
VERTEX
  5
6B8
  8
┌▓È_1
 62
     5
 10
904.72600000000011
 20
-314.029
 30
0.0
 70
    32
  0
VERTEX
  5
6B9
  8
┌▓È_1
 62
     5
 10
904.7410000000001
 20
-314.03199999999998
 30
0.0
 70
    32
  0
VERTEX
  5
6BA
  8
┌▓È_1
 62
     5
 10
904.75599999999997
 20
-314.03500000000003
 30
0.0
 70
    32
  0
VERTEX
  5
6BB
  8
┌▓È_1
 62
     5
 10
904.77099999999996
 20
-314.03800000000001
 30
0.0
 70
    32
  0
VERTEX
  5
6BC
  8
┌▓È_1
 62
     5
 10
904.78499999999997
 20
-314.04000000000002
 30
0.0
 70
    32
  0
VERTEX
  5
6BD
  8
┌▓È_1
 62
     5
 10
904.79999999999995
 20
-314.04300000000001
 30
0.0
 70
    32
  0
VERTEX
  5
6BE
  8
┌▓È_1
 62
     5
 10
904.81500000000005
 20
-314.04599999999999
 30
0.0
 70
    32
  0
VERTEX
  5
6BF
  8
┌▓È_1
 62
     5
 10
904.83000000000015
 20
-314.048
 30
0.0
 70
    32
  0
VERTEX
  5
6C0
  8
┌▓È_1
 62
     5
 10
904.84399999999994
 20
-314.05099999999999
 30
0.0
 70
    32
  0
VERTEX
  5
6C1
  8
┌▓È_1
 62
     5
 10
904.85899999999992
 20
-314.05399999999997
 30
0.0
 70
    32
  0
VERTEX
  5
6C2
  8
┌▓È_1
 62
     5
 10
904.8739999999998
 20
-314.05599999999998
 30
0.0
 70
    32
  0
VERTEX
  5
6C3
  8
┌▓È_1
 62
     5
 10
904.88899999999978
 20
-314.05900000000003
 30
0.0
 70
    32
  0
VERTEX
  5
6C4
  8
┌▓È_1
 62
     5
 10
904.90399999999988
 20
-314.06200000000001
 30
0.0
 70
    32
  0
VERTEX
  5
6C5
  8
┌▓È_1
 62
     5
 10
904.91799999999989
 20
-314.06400000000002
 30
0.0
 70
    32
  0
VERTEX
  5
6C6
  8
┌▓È_1
 62
     5
 10
904.93299999999988
 20
-314.06700000000001
 30
0.0
 70
    32
  0
VERTEX
  5
6C7
  8
┌▓È_1
 62
     5
 10
904.94799999999998
 20
-314.06999999999999
 30
0.0
 70
    32
  0
VERTEX
  5
6C8
  8
┌▓È_1
 62
     5
 10
904.96299999999997
 20
-314.072
 30
0.0
 70
    32
  0
VERTEX
  5
6C9
  8
┌▓È_1
 62
     5
 10
904.97799999999995
 20
-314.07499999999999
 30
0.0
 70
    32
  0
VERTEX
  5
6CA
  8
┌▓È_1
 62
     5
 10
904.99300000000005
 20
-314.07799999999997
 30
0.0
 70
    32
  0
VERTEX
  5
6CB
  8
┌▓È_1
 62
     5
 10
905.00699999999995
 20
-314.07999999999998
 30
0.0
 70
    32
  0
VERTEX
  5
6CC
  8
┌▓È_1
 62
     5
 10
905.02199999999993
 20
-314.08300000000003
 30
0.0
 70
    32
  0
VERTEX
  5
6CD
  8
┌▓È_1
 62
     5
 10
905.03699999999992
 20
-314.08499999999998
 30
0.0
 70
    32
  0
VERTEX
  5
6CE
  8
┌▓È_1
 62
     5
 10
905.05200000000002
 20
-314.08800000000002
 30
0.0
 70
    32
  0
VERTEX
  5
6CF
  8
┌▓È_1
 62
     5
 10
905.06700000000001
 20
-314.09100000000001
 30
0.0
 70
    32
  0
VERTEX
  5
6D0
  8
┌▓È_1
 62
     5
 10
905.08199999999988
 20
-314.09300000000002
 30
0.0
 70
    32
  0
VERTEX
  5
6D1
  8
┌▓È_1
 62
     5
 10
905.09599999999989
 20
-314.096
 30
0.0
 70
    32
  0
VERTEX
  5
6D2
  8
┌▓È_1
 62
     5
 10
905.1110000000001
 20
-314.09800000000001
 30
0.0
 70
    32
  0
VERTEX
  5
6D3
  8
┌▓È_1
 62
     5
 10
905.12599999999998
 20
-314.101
 30
0.0
 70
    32
  0
VERTEX
  5
6D4
  8
┌▓È_1
 62
     5
 10
905.14099999999996
 20
-314.10300000000001
 30
0.0
 70
    32
  0
VERTEX
  5
6D5
  8
┌▓È_1
 62
     5
 10
905.15599999999995
 20
-314.10599999999999
 30
0.0
 70
    32
  0
VERTEX
  5
6D6
  8
┌▓È_1
 62
     5
 10
905.17099999999994
 20
-314.10900000000009
 30
0.0
 70
    32
  0
VERTEX
  5
6D7
  8
┌▓È_1
 62
     5
 10
905.18600000000015
 20
-314.11099999999999
 30
0.0
 70
    32
  0
VERTEX
  5
6D8
  8
┌▓È_1
 62
     5
 10
905.20000000000005
 20
-314.11399999999998
 30
0.0
 70
    32
  0
VERTEX
  5
6D9
  8
┌▓È_1
 62
     5
 10
905.21500000000015
 20
-314.11599999999999
 30
0.0
 70
    32
  0
VERTEX
  5
6DA
  8
┌▓È_1
 62
     5
 10
905.23000000000002
 20
-314.11900000000003
 30
0.0
 70
    32
  0
VERTEX
  5
6DB
  8
┌▓È_1
 62
     5
 10
905.245
 20
-314.12099999999998
 30
0.0
 70
    32
  0
VERTEX
  5
6DC
  8
┌▓È_1
 62
     5
 10
905.25999999999988
 20
-314.12400000000002
 30
0.0
 70
    32
  0
VERTEX
  5
6DD
  8
┌▓È_1
 62
     5
 10
905.27499999999986
 20
-314.12599999999998
 30
0.0
 70
    32
  0
VERTEX
  5
6DE
  8
┌▓È_1
 62
     5
 10
905.28999999999985
 20
-314.12900000000002
 30
0.0
 70
    32
  0
VERTEX
  5
6DF
  8
┌▓È_1
 62
     5
 10
905.30499999999984
 20
-314.13099999999997
 30
0.0
 70
    32
  0
VERTEX
  5
6E0
  8
┌▓È_1
 62
     5
 10
905.31899999999985
 20
-314.13400000000001
 30
0.0
 70
    32
  0
VERTEX
  5
6E1
  8
┌▓È_1
 62
     5
 10
905.33399999999995
 20
-314.13600000000002
 30
0.0
 70
    32
  0
VERTEX
  5
6E2
  8
┌▓È_1
 62
     5
 10
905.34900000000005
 20
-314.13900000000001
 30
0.0
 70
    32
  0
VERTEX
  5
6E3
  8
┌▓È_1
 62
     5
 10
905.36399999999992
 20
-314.142
 30
0.0
 70
    32
  0
VERTEX
  5
6E4
  8
┌▓È_1
 62
     5
 10
905.37899999999991
 20
-314.14400000000001
 30
0.0
 70
    32
  0
VERTEX
  5
6E5
  8
┌▓È_1
 62
     5
 10
905.39399999999978
 20
-314.14699999999999
 30
0.0
 70
    32
  0
VERTEX
  5
6E6
  8
┌▓È_1
 62
     5
 10
905.40899999999999
 20
-314.149
 30
0.0
 70
    32
  0
VERTEX
  5
6E7
  8
┌▓È_1
 62
     5
 10
905.42399999999998
 20
-314.15199999999999
 30
0.0
 70
    32
  0
VERTEX
  5
6E8
  8
┌▓È_1
 62
     5
 10
905.43799999999999
 20
-314.154
 30
0.0
 70
    32
  0
VERTEX
  5
6E9
  8
┌▓È_1
 62
     5
 10
905.45299999999986
 20
-314.15699999999998
 30
0.0
 70
    32
  0
VERTEX
  5
6EA
  8
┌▓È_1
 62
     5
 10
905.46800000000007
 20
-314.15899999999999
 30
0.0
 70
    32
  0
VERTEX
  5
6EB
  8
┌▓È_1
 62
     5
 10
905.48299999999995
 20
-314.16199999999998
 30
0.0
 70
    32
  0
SEQEND
  5
6EC
  8
┌▓È_1
 62
     5
  0
LINE
  5
1EC
  8
┌▓È_1
 62
     5
 10
781.15508537587255
 20
-179.77579008067909
 30
0.0
 11
772.65508537587255
 21
-179.77579008067909
 31
0.0
  0
LINE
  5
1ED
  8
┌▓È_1
 62
     5
 10
756.65508537587266
 20
-176.77579008067909
 30
0.0
 11
772.65508537587255
 21
-176.77579008067909
 31
0.0
  0
INSERT
  5
1EE
  8
0
  6
CONTINUOUS
  2
*U61
 10
0.0
 20
0.0
 30
0.0
  0
ARC
  5
1EF
  8
┌▓È_1
 62
     5
 10
781.15508537587255
 20
-182.27579008067909
 30
0.0
 40
2.5
 50
0.0
 51
90.0
  0
INSERT
  5
1F1
  8
Éíû@É³
  2
BALLON5
 10
-14.350857196927221
 20
-10.82543378097909
 30
0.0
  0
INSERT
  5
1FB
  8
Éíû@É³
  2
BALLON6
 10
-14.350857196927221
 20
-10.82543378097909
 30
0.0
  0
ARC
  5
204
  8
┌▓È_1
 62
     5
 10
778.65508537587255
 20
-194.37579008067911
 30
0.0
 40
1.649999999999999
 50
180.00000656899999
 51
359.99998984929999
  0
LINE
  5
205
  8
┌▓È_1
 62
     5
 10
781.15508537587255
 20
-198.77579008067909
 30
0.0
 11
774.98403357097254
 21
-198.77579008067909
 31
0.0
  0
LINE
  5
206
  8
┌▓È_1
  6
BORDER
 62
     3
 10
761.23239034047253
 20
-186.37579008067911
 30
0.0
 11
767.98770948937261
 21
-186.37579008067911
 31
0.0
  0
ARC
  5
207
  8
┌▓È_1
 62
     5
 10
773.61493862477278
 20
-190.38838639407911
 30
0.0
 40
3.5
 50
178.15645518829999
 51
216.30199999999999
  0
LINE
  5
208
  8
┌▓È_1
 62
     5
 10
761.1559710989726
 20
-191.4434141744789
 30
0.0
 11
760.00457506787245
 21
-193.77288229377911
 31
0.0
  0
LINE
  5
209
  8
┌▓È_1
 62
     5
 10
901.48315178949997
 20
-311.6193333914
 30
0.0
 11
901.03060344959999
 21
-312.07188173140008
 31
0.0
  0
LINE
  5
20A
  8
┌▓È_1
 62
     5
 10
892.95466694109973
 20
-312.56164517740001
 30
0.0
 11
892.95466694109973
 21
-312.96164517739999
 31
0.0
  0
LINE
  5
20B
  8
┌▓È_1
 62
     5
 10
894.95466694109984
 20
-311.36164517740002
 30
0.0
 11
894.95466694109984
 21
-310.96164517739999
 31
0.0
  0
LINE
  5
20C
  8
┌▓È_1
 62
     5
 10
896.15466694109989
 20
-311.36164517740002
 30
0.0
 11
894.95466694109984
 21
-311.36164517740002
 31
0.0
  0
LINE
  5
20D
  8
┌▓È_1
 62
     5
 10
888.43378389179998
 20
-312.56164517740001
 30
0.0
 11
889.23378389179993
 21
-312.56164517740001
 31
0.0
  0
ARC
  5
20E
  8
┌▓È_1
 62
     5
 10
900.28315178950004
 20
-310.96164517739999
 30
0.0
 40
4.4000000000000004
 50
270.0
 51
302.54495885400001
  0
LINE
  5
20F
  8
┌▓È_1
 62
     5
 10
894.95466694109984
 20
-312.56164517740001
 30
0.0
 11
896.15466694109989
 21
-312.56164517740001
 31
0.0
  0
ARC
  5
210
  8
┌▓È_1
 62
     5
 10
899.24315178949973
 20
-311.12164517740001
 30
0.0
 40
3.04
 50
331.39928138329998
 51
358.49204224580001
  0
LINE
  5
211
  8
┌▓È_1
 62
     5
 10
898.28315178949981
 20
-315.36164517740002
 30
0.0
 11
900.28315178950004
 21
-315.36164517740002
 31
0.0
  0
LINE
  5
212
  8
┌▓È_1
 62
     5
 10
889.35466694110005
 20
-315.36164517740002
 30
0.0
 11
892.55466694109975
 21
-315.36164517740002
 31
0.0
  0
LINE
  5
213
  8
┌▓È_1
 62
     5
 10
904.68315178950002
 20
-310.96164517739999
 30
0.0
 11
905.48315178949974
 21
-309.7616451774
 31
0.0
  0
LINE
  5
214
  8
┌▓È_1
 62
     5
 10
898.28315178949981
 20
-314.16164517739998
 30
0.0
 11
899.24315178949973
 21
-314.16164517739998
 31
0.0
  0
LINE
  5
215
  8
┌▓È_1
 62
     5
 10
898.28315178949981
 20
-314.16164517739998
 30
0.0
 11
898.28315178949981
 21
-315.36164517740002
 31
0.0
  0
ARC
  5
216
  8
┌▓È_1
 62
     5
 10
899.24315178949973
 20
-311.12164517740001
 30
0.0
 40
3.04
 50
270.0
 51
298.08590481520002
  0
LINE
  5
217
  8
┌▓È_1
 62
     5
 10
903.77332727119995
 20
-313.64095014460008
 30
0.0
 11
903.63084562339975
 21
-313.78045265999998
 31
0.0
  0
LINE
  5
218
  8
┌▓È_1
 62
     5
 10
889.35466694110005
 20
-312.56164517740001
 30
0.0
 11
889.35466694110005
 21
-313.7616451774
 31
0.0
  0
INSERT
  5
219
  8
0
  6
CONTINUOUS
  2
*U62
 10
0.0
 20
0.0
 30
0.0
  0
LINE
  5
21A
  8
┌▓È_1
 62
     5
 10
889.35466694110005
 20
-309.7616451774
 30
0.0
 11
889.35466694110005
 21
-311.36164517740002
 31
0.0
  0
LINE
  5
21B
  8
┌▓È_1
 62
     5
 10
891.35466694110005
 20
-310.96164517739999
 30
0.0
 11
892.55466694109975
 21
-309.7616451774
 31
0.0
  0
LINE
  5
21C
  8
┌▓È_1
 62
     5
 10
892.55466694109975
 20
-309.7616451774
 30
0.0
 11
889.35466694110005
 21
-309.7616451774
 31
0.0
  0
LINE
  5
21D
  8
┌▓È_1
 62
     5
 10
892.95466694109973
 20
-311.36164517740002
 30
0.0
 11
891.35466694110005
 21
-311.36164517740002
 31
0.0
  0
LINE
  5
21E
  8
┌▓È_1
 10
855.15746557509999
 20
-291.38978355090001
 30
0.0
 11
855.15746557509999
 21
-316.88978355090001
 31
0.0
  0
LINE
  5
21F
  8
┌▓È_1
 10
871.15746557509999
 20
-291.38978355090001
 30
0.0
 11
871.15746557509999
 21
-299.88978355090001
 31
0.0
  0
LINE
  5
220
  8
┌▓È_1
 10
903.15746557509988
 20
-291.38978355090001
 30
0.0
 11
903.15746557509988
 21
-308.38978355090001
 31
0.0
  0
LINE
  5
221
  8
┌▓È_1
 62
     5
 10
894.95466694109984
 20
-312.96164517739999
 30
0.0
 11
894.95466694109984
 21
-312.56164517740001
 31
0.0
  0
LINE
  5
222
  8
┌▓È_1
 10
873.15746557509999
 20
-295.63978355090001
 30
0.0
 11
885.15746557509988
 21
-295.63978355090001
 31
0.0
  0
LINE
  5
223
  8
┌▓È_1
 10
857.15746557509999
 20
-304.13978355090001
 30
0.0
 11
885.15746557509988
 21
-304.13978355090001
 31
0.0
  0
LINE
  5
224
  8
┌▓È_1
 10
889.15746557509999
 20
-295.63978355090001
 30
0.0
 11
901.15746557509988
 21
-295.63978355090001
 31
0.0
  0
LINE
  5
225
  8
┌▓È_1
 10
889.15746557509999
 20
-304.13978355090001
 30
0.0
 11
901.15746557509988
 21
-304.13978355090001
 31
0.0
  0
INSERT
  5
226
  8
0
  6
CONTINUOUS
  2
*U63
 10
0.0
 20
0.0
 30
0.0
  0
INSERT
  5
227
  8
0
  6
CONTINUOUS
  2
*U64
 10
0.0
 20
0.0
 30
0.0
  0
INSERT
  5
228
  8
0
  6
CONTINUOUS
  2
*U65
 10
0.0
 20
0.0
 30
0.0
  0
INSERT
  5
229
  8
0
  6
CONTINUOUS
  2
*U66
 10
0.0
 20
0.0
 30
0.0
  0
INSERT
  5
22A
  8
0
  6
CONTINUOUS
  2
*U67
 10
0.0
 20
0.0
 30
0.0
  0
INSERT
  5
22B
  8
0
  6
CONTINUOUS
  2
*U68
 10
0.0
 20
0.0
 30
0.0
  0
ARC
  5
22C
  8
┌▓È_1
 62
     5
 10
892.55466694109975
 20
-312.96164517739999
 30
0.0
 40
2.399999999999999
 50
270.0
 51
0.0
  0
LINE
  5
22D
  8
┌▓È_1
 62
     5
 10
898.28315178949981
 20
-309.7616451774
 30
0.0
 11
898.28315178949981
 21
-311.2016451774
 31
0.0
  0
LINE
  5
22E
  8
┌▓È_1
 62
     5
 10
896.15466694109989
 20
-309.7616451774
 30
0.0
 11
892.95466694109973
 21
-309.7616451774
 31
0.0
  0
LINE
  5
22F
  8
┌▓È_1
 62
     5
 10
891.35466694110005
 20
-313.7616451774
 30
0.0
 11
891.35466694110005
 21
-312.56164517740001
 31
0.0
  0
LINE
  5
230
  8
┌▓È_1
 62
     5
 10
898.28315178949981
 20
-311.2016451774
 30
0.0
 11
902.28315178949993
 21
-311.2016451774
 31
0.0
  0
LINE
  5
231
  8
┌▓È_1
 62
     5
 10
891.75466694110014
 20
-314.16164517739998
 30
0.0
 11
889.35466694110005
 21
-314.16164517739998
 31
0.0
  0
LINE
  5
232
  8
┌▓È_1
 62
     5
 10
889.35466694110005
 20
-314.16164517739998
 30
0.0
 11
889.35466694110005
 21
-315.36164517740002
 31
0.0
  0
LINE
  5
233
  8
┌▓È_1
 62
     5
 10
889.35466694110005
 20
-312.56164517740001
 30
0.0
 11
889.23378389179993
 21
-312.56164517740001
 31
0.0
  0
LINE
  5
234
  8
┌▓È_1
 62
     5
 10
905.48315178949974
 20
-314.16164517739998
 30
0.0
 11
905.48315178949974
 21
-315.36164517740002
 31
0.0
  0
LINE
  5
235
  8
┌▓È_1
 62
     5
 10
889.35466694110005
 20
-311.36164517740002
 30
0.0
 11
888.43378389179998
 21
-311.36164517740002
 31
0.0
  0
LINE
  5
236
  8
┌▓È_1
 62
     5
 10
898.28315178949981
 20
-315.36164517740002
 30
0.0
 11
898.28315178949981
 21
-314.16164517739998
 31
0.0
  0
LINE
  5
237
  8
┌▓È_1
 62
     5
 10
891.35466694110005
 20
-311.36164517740002
 30
0.0
 11
891.35466694110005
 21
-310.96164517739999
 31
0.0
  0
LINE
  5
238
  8
┌▓È_1
 62
     5
 10
896.15466694109989
 20
-311.36164517740002
 30
0.0
 11
896.15466694109989
 21
-312.56164517740001
 31
0.0
  0
LINE
  5
239
  8
┌▓È_1
 62
     5
 10
888.43378389179998
 20
-311.36164517740002
 30
0.0
 11
888.43378389179998
 21
-312.56164517740001
 31
0.0
  0
LINE
  5
23A
  8
┌▓È_1
 62
     5
 10
898.28315178949981
 20
-311.87702160539999
 30
0.0
 11
898.28315178949981
 21
-311.6193333914
 31
0.0
  0
LINE
  5
23B
  8
┌▓È_1
 62
     5
 10
831.29890478077255
 20
-242.5821392869791
 30
0.0
 11
831.29890478077255
 21
-242.3821392869792
 31
0.0
  0
LINE
  5
23C
  8
┌▓È_1
 62
     5
 10
835.29890478077243
 20
-242.5821392869791
 30
0.0
 11
835.29890478077243
 21
-242.3821392869792
 31
0.0
  0
LINE
  5
23D
  8
┌▓È_1
 62
     5
 10
826.98469121837275
 20
-256.382139286979
 30
0.0
 11
828.18469121837268
 21
-255.18213928697909
 31
0.0
  0
LINE
  5
23E
  8
┌▓È_1
 62
     5
 10
841.89890478077268
 20
-255.18213928697909
 30
0.0
 11
828.18469121837268
 21
-255.18213928697909
 31
0.0
  0
LINE
  5
23F
  8
┌▓È_1
 62
     5
 10
839.89890478077268
 20
-256.18213928697912
 30
0.0
 11
839.89890478077268
 21
-257.38213928697922
 31
0.0
  0
ARC
  5
240
  8
┌▓È_1
 62
     5
 10
841.89890478077268
 20
-255.18213928697909
 30
0.0
 40
1.0
 50
270.0
 51
0.0
  0
LINE
  5
241
  8
┌▓È_1
 62
     5
 10
839.89890478077268
 20
-256.18213928697912
 30
0.0
 11
841.89890478077268
 21
-256.18213928697912
 31
0.0
  0
LINE
  5
242
  8
┌▓È_1
  6
STITCH
 10
839.89890478077268
 20
-256.18213928697912
 30
0.0
 11
828.59890478077284
 21
-256.18213928697912
 31
0.0
  0
LINE
  5
243
  8
┌▓È_1
  6
STITCH
 10
828.59890478077284
 20
-256.18213928697912
 30
0.0
 11
827.39890478077268
 21
-257.38213928697922
 31
0.0
  0
LINE
  5
244
  8
┌▓È_1
 62
     5
 10
839.89890478077268
 20
-256.18213928697912
 30
0.0
 11
839.89890478077268
 21
-255.18213928697909
 31
0.0
  0
LINE
  5
245
  8
┌▓È_1
 62
     5
 10
829.39890478077268
 20
-243.5821392869791
 30
0.0
 11
841.89890478077268
 21
-243.5821392869791
 31
0.0
  0
LINE
  5
246
  8
┌▓È_1
 62
     5
 10
829.39890478077268
 20
-242.5821392869791
 30
0.0
 11
829.39890478077268
 21
-243.5821392869791
 31
0.0
  0
ARC
  5
247
  8
┌▓È_1
 62
     5
 10
841.89890478077268
 20
-243.5821392869791
 30
0.0
 40
1.0
 50
0.0
 51
90.0
  0
LINE
  5
248
  8
┌▓È_1
 62
     5
 10
829.39890478077268
 20
-242.5821392869791
 30
0.0
 11
841.89890478077268
 21
-242.5821392869791
 31
0.0
  0
LINE
  5
249
  8
┌▓È_1
 62
     5
 10
832.19890478077275
 20
-243.5821392869791
 30
0.0
 11
832.19890478077275
 21
-255.18213928697909
 31
0.0
  0
ARC
  5
24A
  8
┌▓È_1
 62
     5
 10
833.29890478077255
 20
-244.48213928697911
 30
0.0
 40
2.8999999999999999
 50
46.397181027299993
 51
133.60281897269999
  0
LINE
  5
24B
  8
┌▓È_1
 62
     5
 10
842.89890478077268
 20
-243.5821392869791
 30
0.0
 11
842.89890478077268
 21
-255.18213928697909
 31
0.0
  0
LINE
  5
24C
  8
┌▓È_1
  6
STITCH
 10
841.89890478077268
 20
-243.5821392869791
 30
0.0
 11
841.89890478077268
 21
-255.18213928697909
 31
0.0
  0
INSERT
  5
24D
  8
0
  6
CONTINUOUS
  2
*U69
 10
0.0
 20
0.0
 30
0.0
  0
INSERT
  5
24E
  8
0
  6
CONTINUOUS
  2
*U70
 10
0.0
 20
0.0
 30
0.0
  0
INSERT
  5
24F
  8
0
  6
CONTINUOUS
  2
*U71
 10
0.0
 20
0.0
 30
0.0
  0
INSERT
  5
250
  8
0
  6
CONTINUOUS
  2
*U72
 10
0.0
 20
0.0
 30
0.0
  0
INSERT
  5
251
  8
0
  6
CONTINUOUS
  2
*U73
 10
0.0
 20
0.0
 30
0.0
  0
LINE
  5
252
  8
┌▓È_1
 10
887.15746557509999
 20
-291.38978355090001
 30
0.0
 11
887.15746557509999
 21
-308.38978355090001
 31
0.0
  0
LINE
  5
253
  8
┌▓È_1
 10
857.15746557509999
 20
-295.63978355090001
 30
0.0
 11
869.15746557509988
 21
-295.63978355090001
 31
0.0
  0
INSERT
  5
254
  8
0
  6
CONTINUOUS
  2
*U74
 10
0.0
 20
0.0
 30
0.0
  0
INSERT
  5
255
  8
0
  6
CONTINUOUS
  2
*U75
 10
0.0
 20
0.0
 30
0.0
  0
INSERT
  5
256
  8
0
  6
CONTINUOUS
  2
*U76
 10
0.0
 20
0.0
 30
0.0
  0
INSERT
  5
257
  8
0
  6
CONTINUOUS
  2
*U77
 10
0.0
 20
0.0
 30
0.0
  0
INSERT
  5
258
  8
0
  6
CONTINUOUS
  2
*U78
 10
0.0
 20
0.0
 30
0.0
  0
INSERT
  5
259
  8
0
  6
CONTINUOUS
  2
*U79
 10
0.0
 20
0.0
 30
0.0
  0
INSERT
  5
25A
  8
0
  6
CONTINUOUS
  2
*U80
 10
0.0
 20
0.0
 30
0.0
  0
LINE
  5
25B
  8
┌▓È_1
 62
     5
 10
911.40479399279991
 20
-310.71466206510001
 30
0.0
 11
912.05713790820005
 21
-309.7616451774
 31
0.0
  0
LINE
  5
25C
  8
┌▓È_1
 62
     5
 10
912.53484136999987
 20
-314.64164517739999
 30
0.0
 11
914.45713790820002
 21
-314.64164517739999
 31
0.0
  0
LINE
  5
25D
  8
┌▓È_1
 62
     5
 10
914.45713790820002
 20
-311.12164517740001
 30
0.0
 11
914.45713790820002
 21
-312.56164517740001
 31
0.0
  0
LINE
  5
25E
  8
┌▓È_1
 62
     5
 10
910.61713790820011
 20
-315.7616451774
 30
0.0
 11
910.28860457479982
 21
-314.64164517739999
 31
0.0
  0
LINE
  5
25F
  8
┌▓È_1
 62
     5
 10
912.12046010669985
 20
-313.2016451774
 30
0.0
 11
911.93629065629989
 21
-312.56164517740001
 31
0.0
  0
LINE
  5
260
  8
┌▓È_1
 62
     5
 10
914.45713790820002
 20
-313.2016451774
 30
0.0
 11
914.45713790820002
 21
-314.64164517739999
 31
0.0
  0
LINE
  5
261
  8
┌▓È_1
 62
     5
 10
910.61713790820011
 20
-315.7616451774
 30
0.0
 11
912.85713790820023
 21
-315.7616451774
 31
0.0
  0
LINE
  5
262
  8
┌▓È_1
 62
     5
 10
911.52190939299987
 20
-311.12164517740001
 30
0.0
 11
914.45713790820002
 21
-311.12164517740001
 31
0.0
  0
LINE
  5
263
  8
┌▓È_1
 10
919.15746557509988
 20
-291.38978355090001
 30
0.0
 11
919.15746557509988
 21
-316.88978355090001
 31
0.0
  0
LINE
  5
264
  8
┌▓È_1
 62
     5
 10
911.93629065629989
 20
-312.56164517740001
 30
0.0
 11
914.45713790820002
 21
-312.56164517740001
 31
0.0
  0
LINE
  5
265
  8
┌▓È_1
 62
     5
 10
909.86620457480001
 20
-313.2016451774
 30
0.0
 11
909.67847124149989
 21
-312.56164517740001
 31
0.0
  0
LINE
  5
266
  8
┌▓È_1
 62
     5
 10
911.52190939299987
 20
-311.12164517740001
 30
0.0
 11
911.40479399279991
 21
-310.71466206510001
 31
0.0
  0
LINE
  5
267
  8
┌▓È_1
 62
     5
 10
912.12046010669985
 20
-313.2016451774
 30
0.0
 11
914.45713790820002
 21
-313.2016451774
 31
0.0
  0
LINE
  5
268
  8
┌▓È_1
 62
     5
 10
912.85713790820023
 20
-315.7616451774
 30
0.0
 11
912.53484136999987
 21
-314.64164517739999
 31
0.0
  0
DIMENSION
  5
277
  8
Éíû@É³
  2
*D46
 10
852.66980515957243
 20
-241.5821392869791
 30
0.0
 11
852.66980515957243
 21
-249.48213928697911
 31
0.0
 70
   128
  1
15.5
 13
839.89890478077268
 23
-257.38213928697922
 33
0.0
 14
833.29890478077255
 24
-241.5821392869791
 34
0.0
 50
90.0
  0
INSERT
  5
278
  8
0
  6
CONTINUOUS
  2
*U81
 10
0.0
 20
0.0
 30
0.0
  0
INSERT
  5
279
  8
0
  6
CONTINUOUS
  2
*U82
 10
0.0
 20
0.0
 30
0.0
  0
INSERT
  5
27A
  8
0
  6
CONTINUOUS
  2
*U83
 10
0.0
 20
0.0
 30
0.0
  0
LINE
  5
27B
  8
┌▓È_1
 62
     5
 10
919.39006921860005
 20
-177.81861906590001
 30
0.0
 11
919.84006921859998
 21
-184.31861906590001
 31
0.0
  0
LINE
  5
27C
  8
┌▓È_1
 62
     5
 10
921.69006921859989
 20
-177.81861906590001
 30
0.0
 11
921.24006921859996
 21
-184.31861906590001
 31
0.0
  0
LINE
  5
27D
  8
┌▓È_1
 62
     5
 10
918.14515332669987
 20
-175.70433800079999
 30
0.0
 11
919.86687062399994
 21
-177.30611499779999
 31
0.0
  0
LINE
  5
27E
  8
┌▓È_1
 62
     5
 10
922.93498511049995
 20
-175.70433800079999
 30
0.0
 11
921.21326781319999
 21
-177.30611499779999
 31
0.0
  0
LINE
  5
27F
  8
┌▓È_1
 62
     5
 10
923.41178651589985
 20
-176.21684206890001
 30
0.0
 11
921.69006921859989
 21
-177.81861906590001
 31
0.0
  0
ARC
  5
280
  8
┌▓È_1
 62
     5
 10
922.39006921860005
 20
-175.11861906589999
 30
0.0
 40
0.8
 50
312.93315653029998
 51
29.058782825400002
  0
LINE
  5
281
  8
┌▓È_1
 62
     5
 10
906.29006921860002
 20
-160.05400809189999
 30
0.0
 11
906.29006921860002
 21
-150.55400809189999
 31
0.0
  0
INSERT
  5
282
  8
0
  6
CONTINUOUS
  2
*U84
 10
0.0
 20
0.0
 30
0.0
  0
INSERT
  5
283
  8
0
  6
CONTINUOUS
  2
*U85
 10
0.0
 20
0.0
 30
0.0
  0
INSERT
  5
284
  8
0
  6
CONTINUOUS
  2
*U86
 10
0.0
 20
0.0
 30
0.0
  0
INSERT
  5
285
  8
0
  6
CONTINUOUS
  2
*U87
 10
0.0
 20
0.0
 30
0.0
  0
INSERT
  5
286
  8
0
  6
CONTINUOUS
  2
*U88
 10
0.0
 20
0.0
 30
0.0
  0
INSERT
  5
287
  8
0
  6
CONTINUOUS
  2
*U89
 10
0.0
 20
0.0
 30
0.0
  0
INSERT
  5
288
  8
0
  6
CONTINUOUS
  2
*U90
 10
0.0
 20
0.0
 30
0.0
  0
INSERT
  5
289
  8
0
  6
CONTINUOUS
  2
*U91
 10
0.0
 20
0.0
 30
0.0
  0
INSERT
  5
28A
  8
0
  6
CONTINUOUS
  2
*U92
 10
0.0
 20
0.0
 30
0.0
  0
INSERT
  5
28D
  8
0
  6
CONTINUOUS
  2
*U93
 10
0.0
 20
0.0
 30
0.0
  0
INSERT
  5
28E
  8
0
  6
CONTINUOUS
  2
*U94
 10
0.0
 20
0.0
 30
0.0
  0
INSERT
  5
28F
  8
0
  6
CONTINUOUS
  2
*U95
 10
0.0
 20
0.0
 30
0.0
  0
INSERT
  5
290
  8
0
  6
CONTINUOUS
  2
*U96
 10
0.0
 20
0.0
 30
0.0
  0
INSERT
  5
291
  8
0
  6
CONTINUOUS
  2
*U97
 10
0.0
 20
0.0
 30
0.0
  0
INSERT
  5
292
  8
0
  6
CONTINUOUS
  2
*U98
 10
0.0
 20
0.0
 30
0.0
  0
INSERT
  5
293
  8
0
  6
CONTINUOUS
  2
*U99
 10
0.0
 20
0.0
 30
0.0
  0
DIMENSION
  5
2A2
  8
Éíû@É³
  2
*D28
 10
944.79006921859991
 20
-160.05400809189999
 30
0.0
 11
944.79006921859991
 21
-155.30400809189999
 31
0.0
 70
   128
  1
<>
 13
934.79006921860002
 23
-160.05400809189999
 33
0.0
 14
934.79006921860002
 24
-150.55400809189999
 34
0.0
 50
90.0
  0
DIMENSION
  5
2B1
  8
Éíû@É³
  2
*D29
 10
930.54006921859991
 20
-144.44923792060001
 30
0.0
 11
920.54006921860002
 21
-144.44923792060001
 31
0.0
 70
   128
  1
<>
 13
930.54006921859991
 23
-152.05400809189999
 33
0.0
 14
910.54006921860002
 24
-152.05400809189999
 34
0.0
  0
LINE
  5
2B2
  8
┌▓È_1
 62
     5
 10
923.89006921860005
 20
-150.55400809189999
 30
0.0
 11
923.89006921860005
 21
-160.05400809189999
 31
0.0
  0
LINE
  5
2B3
  8
┌▓È_1
 62
     5
 10
917.1900692186
 20
-150.55400809189999
 30
0.0
 11
917.1900692186
 21
-160.05400809189999
 31
0.0
  0
LINE
  5
2B4
  8
┌▓È_1
 62
     5
 10
934.79006921860002
 20
-159.05400809189999
 30
0.0
 11
933.79006921860002
 21
-160.05400809189999
 31
0.0
  0
LINE
  5
2B5
  8
┌▓È_1
 62
     5
 10
934.79006921860002
 20
-151.55400809189999
 30
0.0
 11
933.79006921860002
 21
-150.55400809189999
 31
0.0
  0
LINE
  5
2B6
  8
┌▓È_1
 62
     5
 10
934.79006921860002
 20
-150.55400809189999
 30
0.0
 11
934.79006921860002
 21
-160.05400809189999
 31
0.0
  0
LINE
  5
2B7
  8
┌▓È_1
  6
BORDER
 62
     3
 10
920.54006921860002
 20
-148.55400809189999
 30
0.0
 11
920.54006921860002
 21
-162.05400809189999
 31
0.0
  0
LINE
  5
2B8
  8
┌▓È_1
  6
BORDER
 62
     3
 10
910.54006921860002
 20
-152.05400809189999
 30
0.0
 11
910.54006921860002
 21
-158.55400809189999
 31
0.0
  0
LINE
  5
2B9
  8
┌▓È_1
  6
BORDER
 62
     3
 10
930.54006921859991
 20
-152.05400809189999
 30
0.0
 11
930.54006921859991
 21
-158.55400809189999
 31
0.0
  0
CIRCLE
  5
2BA
  8
┌▓È_1
 62
     5
 10
930.54006921859991
 20
-155.30400809189999
 30
0.0
 40
1.8999999999999999
  0
LINE
  5
2BB
  8
┌▓È_1
 62
     5
 10
917.66835192129997
 20
-176.21684206890001
 30
0.0
 11
919.39006921860005
 21
-177.81861906590001
 31
0.0
  0
LINE
  5
2BC
  8
┌▓È_1
 62
     5
 10
934.79006921860002
 20
-186.11804006689999
 30
0.0
 11
922.48722725839991
 21
-185.61754467079999
 31
0.0
  0
LINE
  5
2BD
  8
┌▓È_1
 62
     5
 10
934.79006921860002
 20
-186.11804006689999
 30
0.0
 11
934.21731665640004
 21
-187.89622861219999
 31
0.0
  0
LINE
  5
2BE
  8
┌▓È_1
 62
     5
 10
934.21731665640004
 20
-187.89622861219999
 30
0.0
 11
932.16594069860002
 21
-186.71186615080001
 31
0.0
  0
LINE
  5
2BF
  8
┌▓È_1
 62
     5
 10
932.16594069860002
 20
-186.71186615080001
 30
0.0
 11
922.4587738951999
 21
-186.31696615039999
 31
0.0
  0
ARC
  5
2C0
  8
┌▓È_1
 62
     5
 10
918.6900692186
 20
-175.11861906589999
 30
0.0
 40
0.8
 50
150.941206916
 51
227.0669718851
  0
ARC
  5
2C1
  8
┌▓È_1
 62
     5
 10
919.39006921860005
 20
-177.81861906590001
 30
0.0
 40
0.7
 50
3.9879567570999992
 51
47.066859093899993
  0
ARC
  5
2C2
  8
┌▓È_1
 62
     5
 10
921.69006921859989
 20
-177.81861906590001
 30
0.0
 40
0.7
 50
132.9331558426
 51
176.01198889649999
  0
ARC
  5
2C3
  8
┌▓È_1
 62
     5
 10
922.54006921859991
 20
-184.31861906590001
 30
0.0
 40
2.0
 50
176.0120067773
 51
267.67043186439997
  0
ARC
  5
2C4
  8
┌▓È_1
 62
     5
 10
922.54006921859991
 20
-184.31861906590001
 30
0.0
 40
1.3
 50
172.07937633910001
 51
267.67040664630002
  0
ARC
  5
2C5
  8
┌▓È_1
 62
     5
 10
918.54006921860002
 20
-184.31861906590001
 30
0.0
 40
2.0
 50
272.32958681180003
 51
3.9879873466000002
  0
ARC
  5
2C6
  8
┌▓È_1
 62
     5
 10
918.54006921860002
 20
-184.31861906590001
 30
0.0
 40
1.3
 50
272.3295961558
 51
7.9206236608999978
  0
LINE
  5
2C7
  8
┌▓È_1
 62
     5
 10
920.99176416529986
 20
-177.76993588049999
 30
0.0
 11
920.54491192349997
 21
-184.1795242506
 31
0.0
  0
LINE
  5
2C8
  8
┌▓È_1
 62
     5
 10
920.08837427189997
 20
-177.76993588049999
 30
0.0
 11
920.53522651369985
 21
-184.1795242506
 31
0.0
  0
ENDSEC
  0
EOF
