  0
SECTION
  2
HEADER
  9
$ACADVER
  1
AC1009
  9
$INSBASE
 10
0.0
 20
0.0
 30
0.0
  9
$EXTMIN
 10
700.08894193058745
 20
-316.89945352182121
 30
-0.0015258207003583
  9
$EXTMAX
 10
975.47944750987938
 20
-126.87002719321259
 30
0.0000000349246037
  9
$LIMMIN
 10
0.0
 20
0.0
  9
$LIMMAX
 10
0.0
 20
0.0
  9
$ORTHOMODE
 70
     0
  9
$REGENMODE
 70
     1
  9
$FILLMODE
 70
     1
  9
$QTEXTMODE
 70
     0
  9
$MIRRTEXT
 70
     1
  9
$DRAGMODE
 70
     2
  9
$LTSCALE
 40
1.0
  9
$OSMODE
 70
    31
  9
$ATTMODE
 70
     1
  9
$TEXTSIZE
 40
0.0
  9
$TRACEWID
 40
0.05
  9
$TEXTSTYLE
  7
STANDARD
  9
$CLAYER
  8
0
  9
$CELTYPE
  6
CONTINUOUS
  9
$CECOLOR
 62
   256
  9
$DIMSCALE
 40
1.0
  9
$DIMASZ
 40
0.18
  9
$DIMEXO
 40
0.0625
  9
$DIMDLI
 40
0.38
  9
$DIMRND
 40
0.0
  9
$DIMDLE
 40
0.0
  9
$DIMEXE
 40
0.18
  9
$DIMTP
 40
0.0
  9
$DIMTM
 40
0.0
  9
$DIMTXT
 40
0.18
  9
$DIMCEN
 40
0.09
  9
$DIMTSZ
 40
0.0
  9
$DIMTOL
 70
     0
  9
$DIMLIM
 70
     0
  9
$DIMTIH
 70
     1
  9
$DIMTOH
 70
     1
  9
$DIMSE1
 70
     0
  9
$DIMSE2
 70
     0
  9
$DIMTAD
 70
     0
  9
$DIMZIN
 70
     0
  9
$DIMBLK
  1

  9
$DIMASO
 70
     1
  9
$DIMSHO
 70
     1
  9
$DIMPOST
  1

  9
$DIMAPOST
  1

  9
$DIMALT
 70
     0
  9
$DIMALTD
 70
     2
  9
$DIMALTF
 40
25.399999999999999
  9
$DIMLFAC
 40
1.0
  9
$DIMTOFL
 70
     0
  9
$DIMTVP
 40
0.0
  9
$DIMTIX
 70
     0
  9
$DIMSOXD
 70
     0
  9
$DIMSAH
 70
     0
  9
$DIMBLK1
  1

  9
$DIMBLK2
  1

  9
$DIMSTYLE
  2
STANDARD
  9
$DIMCLRD
 70
     0
  9
$DIMCLRE
 70
     0
  9
$DIMCLRT
 70
     0
  9
$DIMTFAC
 40
1.0
  9
$DIMGAP
 40
0.09
  9
$LUNITS
 70
     2
  9
$LUPREC
 70
     4
  9
$SKETCHINC
 40
0.1
  9
$FILLETRAD
 40
0.0
  9
$AUNITS
 70
     0
  9
$AUPREC
 70
     0
  9
$MENU
  1
acad
  9
$ELEVATION
 40
0.0
  9
$PELEVATION
 40
0.0
  9
$THICKNESS
 40
0.0
  9
$LIMCHECK
 70
     0
  9
$BLIPMODE
 70
     0
  9
$CHAMFERA
 40
0.0
  9
$CHAMFERB
 40
0.0
  9
$SKPOLY
 70
     0
  9
$TDCREATE
 40
2454866.7329050121
  9
$TDUPDATE
 40
2454866.738299618
  9
$TDINDWG
 40
0.0018813194
  9
$TDUSRTIMER
 40
0.0018746296
  9
$USRTIMER
 70
     1
  9
$ANGBASE
 50
0.0
  9
$ANGDIR
 70
     0
  9
$PDMODE
 70
     3
  9
$PDSIZE
 40
-1.0
  9
$PLINEWID
 40
0.0
  9
$COORDS
 70
     2
  9
$SPLFRAME
 70
     0
  9
$SPLINETYPE
 70
     6
  9
$SPLINESEGS
 70
     8
  9
$ATTDIA
 70
     0
  9
$ATTREQ
 70
     1
  9
$HANDLING
 70
     1
  9
$HANDSEED
  5
706
  9
$SURFTAB1
 70
     6
  9
$SURFTAB2
 70
     6
  9
$SURFTYPE
 70
     6
  9
$SURFU
 70
     6
  9
$SURFV
 70
     6
  9
$UCSNAME
  2

  9
$UCSORG
 10
0.0
 20
0.0
 30
0.0
  9
$UCSXDIR
 10
1.0
 20
0.0
 30
0.0
  9
$UCSYDIR
 10
0.0
 20
1.0
 30
0.0
  9
$PUCSNAME
  2

  9
$PUCSORG
 10
0.0
 20
0.0
 30
0.0
  9
$PUCSXDIR
 10
1.0
 20
0.0
 30
0.0
  9
$PUCSYDIR
 10
0.0
 20
1.0
 30
0.0
  9
$USERI1
 70
     0
  9
$USERI2
 70
     0
  9
$USERI3
 70
     0
  9
$USERI4
 70
     0
  9
$USERI5
 70
     0
  9
$USERR1
 40
0.0
  9
$USERR2
 40
0.0
  9
$USERR3
 40
0.0
  9
$USERR4
 40
0.0
  9
$USERR5
 40
0.0
  9
$WORLDVIEW
 70
     1
  9
$SHADEDGE
 70
     3
  9
$SHADEDIF
 70
    70
  9
$TILEMODE
 70
     1
  9
$MAXACTVP
 70
    16
  9
$PLIMCHECK
 70
     0
  9
$PEXTMIN
 10
1.0000000000000000E+020
 20
1.0000000000000000E+020
 30
1.0000000000000000E+020
  9
$PEXTMAX
 10
-1.0000000000000000E+020
 20
-1.0000000000000000E+020
 30
-1.0000000000000000E+020
  9
$PLIMMIN
 10
0.0
 20
0.0
  9
$PLIMMAX
 10
12.0
 20
9.0
  9
$UNITMODE
 70
     0
  9
$VISRETAIN
 70
     0
  9
$PLINEGEN
 70
     1
  9
$PSLTSCALE
 70
     0
  0
ENDSEC
  0
SECTION
  2
TABLES
  0
TABLE
  2
VPORT
 70
     2
  0
VPORT
  2
*ACTIVE
 70
     0
 10
0.0
 20
0.0
 11
1.0
 21
1.0
 12
837.78419472023336
 22
-221.8847403575169
 13
0.0
 23
0.0
 14
1.0
 24
1.0
 15
0.0
 25
0.0
 16
0.0
 26
0.0
 36
1.0
 17
0.0
 27
0.0
 37
0.0
 40
191.63984519580009
 41
1.5459688826025451
 42
50.0
 43
0.0
 44
0.0
 50
0.0
 51
0.0
 71
     0
 72
   100
 73
     1
 74
     1
 75
     0
 76
     0
 77
     0
 78
     0
  0
ENDTAB
  0
TABLE
  2
LTYPE
 70
    11
  0
LTYPE
  2
CONTINUOUS
 70
     0
  3
Solid line
 72
    65
 73
     0
 40
0.0
  0
LTYPE
  2
DOT
 70
     0
  3
. . . . . . . . 
 72
    65
 73
     2
 40
1.0
 49
0.0
 49
-1.0
  0
LTYPE
  2
DASHED
 70
     0
  3
___  ___  ___  ___  
 72
    65
 73
     2
 40
4.0
 49
3.0
 49
-1.0
  0
LTYPE
  2
HIDDEN
 70
     0
  3
__ __ __ __ 
 72
    65
 73
     2
 40
3.0
 49
2.0
 49
-1.0
  0
LTYPE
  2
STITCH
 70
     0
  3
_ _ _ _ 
 72
    65
 73
     2
 40
2.0
 49
1.0
 49
-1.0
  0
LTYPE
  2
CENTER
 70
     0
  3
______  __  ______  __  
 72
    65
 73
     4
 40
43.0
 49
40.0
 49
-1.0
 49
1.0
 49
-1.0
  0
LTYPE
  2
DASHDOT
 70
     0
  3
____ . ____ . 
 72
    65
 73
     4
 40
32.0
 49
30.0
 49
-1.0
 49
0.0
 49
-1.0
  0
LTYPE
  2
BORDER
 70
     0
  3
__ . __ . 
 72
    65
 73
     4
 40
22.0
 49
20.0
 49
-1.0
 49
0.0
 49
-1.0
  0
LTYPE
  2
CUTTING
 70
     0
  3
________   ___   ___   
 72
    65
 73
     6
 40
45.0
 49
40.0
 49
-1.0
 49
1.0
 49
-1.0
 49
1.0
 49
-1.0
  0
LTYPE
  2
PHANTOM
 70
     0
  3
______  __  __  
 72
    65
 73
     6
 40
35.0
 49
30.0
 49
-1.0
 49
1.0
 49
-1.0
 49
1.0
 49
-1.0
  0
LTYPE
  2
DIVIDE
 70
     0
  3
____ . . ____ . . 
 72
    65
 73
     6
 40
23.0
 49
20.0
 49
-1.0
 49
0.0
 49
-1.0
 49
0.0
 49
-1.0
  0
ENDTAB
  0
TABLE
  2
LAYER
 70
     3
  0
LAYER
  2
0
 70
     0
 62
     7
  6
CONTINUOUS
  0
LAYER
  2
┌▓È_1
 70
     0
 62
     7
  6
CONTINUOUS
  0
LAYER
  2
Éíû@É³
 70
     0
 62
     7
  6
CONTINUOUS
  0
ENDTAB
  0
TABLE
  2
STYLE
 70
     1
  0
STYLE
  2
STANDARD
 70
     0
 40
0.0
 41
1.0
 50
0.0
 71
     0
 42
0.0
  3
txt
  4
extfont
  0
ENDTAB
  0
TABLE
  2
VIEW
 70
     0
  0
ENDTAB
  0
TABLE
  2
UCS
 70
     0
  0
ENDTAB
  0
TABLE
  2
APPID
 70
     2
  0
APPID
  2
ACAD
 70
     0
  0
APPID
  2
DCO15
 70
     0
  0
ENDTAB
  0
TABLE
  2
DIMSTYLE
 70
     3
  0
DIMSTYLE
  2
STANDARD
 70
     0
  3

  4

  5

  6

  7

 40
1.0
 41
0.18
 42
0.0625
 43
0.38
 44
0.18
 45
0.0
 46
0.0
 47
0.0
 48
0.0
140
0.18
141
0.09
142
0.0
143
25.399999999999999
144
1.0
145
0.0
146
1.0
147
0.09
 71
     0
 72
     0
 73
     1
 74
     1
 75
     0
 76
     0
 77
     0
 78
     0
170
     0
171
     2
172
     0
173
     0
174
     0
175
     0
176
     0
177
     0
178
     0
  0
DIMSTYLE
  2
VELDIM0
 70
     0
  3

  4

  5

  6

  7

 40
1.0
 41
3.0
 42
0.0625
 43
0.38
 44
0.5
 45
0.0
 46
3.0
 47
0.0
 48
0.0
140
2.998611020999999
141
0.09
142
0.0
143
25.399999999999999
144
1.0
145
0.0
146
1.0
147
0.09
 71
     0
 72
     0
 73
     0
 74
     0
 75
     0
 76
     0
 77
     0
 78
     8
170
     0
171
     2
172
     0
173
     0
174
     0
175
     0
176
     0
177
     0
178
     0
  0
DIMSTYLE
  2
VELDIM1
 70
     0
  3

  4

  5

  6

  7

 40
1.0
 41
3.0
 42
0.0625
 43
0.38
 44
1.25
 45
0.0
 46
5.0
 47
0.0
 48
0.0
140
2.998611020999999
141
0.09
142
0.0
143
25.399999999999999
144
1.0
145
0.0
146
1.0
147
0.09
 71
     0
 72
     0
 73
     0
 74
     0
 75
     0
 76
     0
 77
     0
 78
     8
170
     0
171
     2
172
     0
173
     0
174
     0
175
     0
176
     0
177
     0
178
     0
  0
ENDTAB
  0
ENDSEC
  0
SECTION
  2
BLOCKS
  0
BLOCK
  8
0
  2
$MODEL_SPACE
 70
     0
 10
0.0
 20
0.0
 30
0.0
  3
$MODEL_SPACE
  1

  0
ENDBLK
  5
632
  8
0
  0
BLOCK
 67
     1
  8
0
  2
$PAPER_SPACE
 70
     0
 10
0.0
 20
0.0
 30
0.0
  3
$PAPER_SPACE
  1

  0
ENDBLK
  5
62E
 67
     1
  8
0
  0
BLOCK
  8
0
  2
BALLON0
 70
     0
 10
0.0
 20
0.0
 30
0.0
  3
BALLON0
  1

  0
INSERT
  5
3A
  8
0
  6
CONTINUOUS
  2
*U3
 10
0.0
 20
0.0
 30
0.0
  0
CIRCLE
  5
3B
  8
┌▓È_1
 10
788.48477862259995
 20
-211.34686389999999
 30
0.0
 40
4.0
  0
LINE
  5
3C
  8
Éíû@É³
 10
781.81811195590001
 20
-211.34686389999999
 30
0.0
 11
784.48477862259995
 21
-211.34686389999999
 31
0.0
  0
LINE
  5
3D
  8
Éíû@É³
 10
764.02798349949978
 20
-183.86793635719999
 30
0.0
 11
781.81811195590001
 21
-211.34686389999999
 31
0.0
  0
SOLID
  5
3E
  8
Éíû@É³
 10
764.02798349949978
 20
-183.86793635719999
 30
0.0
 11
766.8733679508
 21
-186.79091212239999
 31
0.0
 12
765.76705219049984
 22
-186.5541307076
 32
0.0
 13
765.76705219049984
 23
-186.5541307076
 33
0.0
  0
SOLID
  5
3F
  8
Éíû@É³
 10
765.76705219049984
 20
-186.5541307076
 30
0.0
 11
765.5302707756
 21
-187.66044646789999
 31
0.0
 12
764.02798349949978
 22
-183.86793635719999
 32
0.0
 13
764.02798349949978
 23
-183.86793635719999
 33
0.0
  0
ENDBLK
  5
40
  8
0
  0
BLOCK
  8
0
  2
*U3
 70
     1
 10
0.0
 20
0.0
 30
0.0
  3
*U3
  1

  0
TEXT
  5
2FA
  8
┌▓È_1
  6
CONTINUOUS
 10
787.54105332665074
 20
-212.58158608510001
 30
0.0
 40
2.998611020999999
  1
3
  0
ENDBLK
  5
2FC
  8
0
  0
BLOCK
  8
0
  2
CLUMP0
 70
     0
 10
0.0
 20
0.0
 30
0.0
  3
CLUMP0
  1

  0
LINE
  5
50
  8
┌▓È_1
 62
     5
 10
762.28538245669984
 20
-238.60796253269999
 30
0.0
 11
769.53172575270003
 21
-238.60796253269999
 31
0.0
  0
LINE
  5
51
  8
┌▓È_1
 62
     5
 10
769.53172575270003
 20
-247.60796253269999
 30
0.0
 11
769.53172575270003
 21
-238.60796253269999
 31
0.0
  0
LINE
  5
52
  8
┌▓È_1
 62
     5
 10
753.43913173630006
 20
-238.60796253269999
 30
0.0
 11
753.43913173630006
 21
-247.60796253269999
 31
0.0
  0
LINE
  5
53
  8
┌▓È_1
 62
     5
 10
756.88547503220002
 20
-246.6579625327
 30
0.0
 11
756.88547503220002
 21
-247.10796253269999
 31
0.0
  0
LINE
  5
54
  8
┌▓È_1
 62
     5
 10
756.88547503220002
 20
-239.10796253269999
 30
0.0
 11
756.88547503220002
 21
-239.5579625327
 31
0.0
  0
LINE
  5
55
  8
┌▓È_1
 62
     5
 10
759.08547503220007
 20
-246.6579625327
 30
0.0
 11
759.08547503220007
 21
-247.10796253269999
 31
0.0
  0
LINE
  5
56
  8
┌▓È_1
 62
     5
 10
759.08547503220007
 20
-239.10796253269999
 30
0.0
 11
759.08547503220007
 21
-239.5579625327
 31
0.0
  0
INSERT
  5
58
  8
┌▓È_1
  2
CLUMP1
 10
0.0
 20
0.0
 30
0.0
  0
LINE
  5
5E
  8
┌▓È_1
 62
     5
 10
757.98547503220004
 20
-248.10796253269999
 30
0.0
 11
759.48547503220004
 21
-248.10796253269999
 31
0.0
  0
LINE
  5
5F
  8
┌▓È_1
 62
     5
 10
759.48547503220004
 20
-248.10796253269999
 30
0.0
 11
759.48547503220004
 21
-247.60796253269999
 31
0.0
  0
LINE
  5
60
  8
┌▓È_1
 62
     5
 10
757.98547503220004
 20
-248.10796253269999
 30
0.0
 11
756.48547503220004
 21
-248.10796253269999
 31
0.0
  0
LINE
  5
61
  8
┌▓È_1
 62
     5
 10
756.48547503220004
 20
-248.10796253269999
 30
0.0
 11
756.48547503220004
 21
-247.60796253269999
 31
0.0
  0
LINE
  5
62
  8
┌▓È_1
 62
     5
 10
763.88538245669974
 20
-246.6579625327
 30
0.0
 11
763.88538245669974
 21
-247.10796253269999
 31
0.0
  0
LINE
  5
63
  8
┌▓È_1
 62
     5
 10
763.88538245669974
 20
-239.10796253269999
 30
0.0
 11
763.88538245669974
 21
-239.5579625327
 31
0.0
  0
LINE
  5
64
  8
┌▓È_1
 62
     5
 10
766.08538245669979
 20
-246.6579625327
 30
0.0
 11
766.08538245669979
 21
-247.10796253269999
 31
0.0
  0
LINE
  5
65
  8
┌▓È_1
 62
     5
 10
766.08538245669979
 20
-239.10796253269999
 30
0.0
 11
766.08538245669979
 21
-239.5579625327
 31
0.0
  0
INSERT
  5
67
  8
┌▓È_1
  2
CLUMP2
 10
0.0
 20
0.0
 30
0.0
  0
LINE
  5
6D
  8
┌▓È_1
 62
     5
 10
764.98538245669977
 20
-248.10796253269999
 30
0.0
 11
766.48538245669999
 21
-248.10796253269999
 31
0.0
  0
LINE
  5
6E
  8
┌▓È_1
 62
     5
 10
766.48538245669999
 20
-248.10796253269999
 30
0.0
 11
766.48538245669999
 21
-247.60796253269999
 31
0.0
  0
LINE
  5
6F
  8
┌▓È_1
 62
     5
 10
764.98538245669977
 20
-248.10796253269999
 30
0.0
 11
763.48538245669999
 21
-248.10796253269999
 31
0.0
  0
LINE
  5
70
  8
┌▓È_1
 62
     5
 10
763.48538245669999
 20
-248.10796253269999
 30
0.0
 11
763.48538245669999
 21
-247.60796253269999
 31
0.0
  0
LINE
  5
71
  8
┌▓È_1
 62
     5
 10
761.48542874449981
 20
-246.6579625327
 30
0.0
 11
761.48542874449981
 21
-239.5579625327
 31
0.0
  0
LINE
  5
72
  8
┌▓È_1
 62
     5
 10
768.48538245669988
 20
-239.5579625327
 30
0.0
 11
768.48538245669988
 21
-246.6579625327
 31
0.0
  0
LINE
  5
73
  8
┌▓È_1
 62
     5
 10
754.48547503220004
 20
-239.5579625327
 30
0.0
 11
768.48538245669988
 21
-239.5579625327
 31
0.0
  0
LINE
  5
74
  8
┌▓È_1
 62
     5
 10
754.48547503220004
 20
-246.6579625327
 30
0.0
 11
754.48547503220004
 21
-239.5579625327
 31
0.0
  0
LINE
  5
75
  8
┌▓È_1
 62
     5
 10
768.48538245669988
 20
-246.6579625327
 30
0.0
 11
754.48547503220004
 21
-246.6579625327
 31
0.0
  0
LINE
  5
76
  8
┌▓È_1
 62
     5
 10
762.28538245669984
 20
-247.60796253269999
 30
0.0
 11
769.53172575270003
 21
-247.60796253269999
 31
0.0
  0
LINE
  5
77
  8
┌▓È_1
 62
     5
 10
753.43913173630006
 20
-247.60796253269999
 30
0.0
 11
760.68547503219975
 21
-247.60796253269999
 31
0.0
  0
LINE
  5
78
  8
┌▓È_1
 62
     5
 10
753.72714105490002
 20
-247.10796253269999
 30
0.0
 11
753.72714105490002
 21
-239.10796253269999
 31
0.0
  0
LINE
  5
79
  8
┌▓È_1
 62
     5
 10
760.68547503219975
 20
-247.10796253269999
 30
0.0
 11
753.72714105490002
 21
-247.10796253269999
 31
0.0
  0
LINE
  5
7A
  8
┌▓È_1
 62
     5
 10
760.68547503219975
 20
-239.10796253269999
 30
0.0
 11
753.72714105490002
 21
-239.10796253269999
 31
0.0
  0
LINE
  5
7B
  8
┌▓È_1
 62
     5
 10
769.24371643410007
 20
-239.10796253269999
 30
0.0
 11
762.28538245669984
 21
-239.10796253269999
 31
0.0
  0
LINE
  5
7C
  8
┌▓È_1
 62
     5
 10
769.24371643410007
 20
-247.10796253269999
 30
0.0
 11
769.24371643410007
 21
-239.10796253269999
 31
0.0
  0
LINE
  5
7D
  8
┌▓È_1
 62
     5
 10
762.28538245669984
 20
-247.10796253269999
 30
0.0
 11
769.24371643410007
 21
-247.10796253269999
 31
0.0
  0
LINE
  5
7E
  8
┌▓È_1
 62
     5
 10
760.68547503219975
 20
-247.60796253269999
 30
0.0
 11
760.68547503219975
 21
-247.10796253269999
 31
0.0
  0
LINE
  5
7F
  8
┌▓È_1
 62
     5
 10
762.28538245669984
 20
-247.60796253269999
 30
0.0
 11
762.28538245669984
 21
-247.10796253269999
 31
0.0
  0
LINE
  5
80
  8
┌▓È_1
 62
     5
 10
762.28538245669984
 20
-238.60796253269999
 30
0.0
 11
762.28538245669984
 21
-239.10796253269999
 31
0.0
  0
LINE
  5
81
  8
┌▓È_1
 62
     5
 10
760.68547503219975
 20
-238.60796253269999
 30
0.0
 11
760.68547503219975
 21
-239.10796253269999
 31
0.0
  0
LINE
  5
82
  8
┌▓È_1
 62
     5
 10
760.68547503219975
 20
-238.60796253269999
 30
0.0
 11
753.43913173630006
 21
-238.60796253269999
 31
0.0
  0
ENDBLK
  5
83
  8
0
  0
BLOCK
  8
0
  2
CLUMP1
 70
     0
 10
0.0
 20
0.0
 30
0.0
  3
CLUMP1
  1

  0
LINE
  5
5A
  8
┌▓È_1
 62
     5
 10
759.88547503220002
 20
-238.60796253269999
 30
0.0
 11
759.88547503220002
 21
-238.4079625327
 31
0.0
  0
LINE
  5
5B
  8
┌▓È_1
 62
     5
 10
756.08547503219984
 20
-238.60796253269999
 30
0.0
 11
756.08547503219984
 21
-238.4079625327
 31
0.0
  0
ARC
  5
5C
  8
┌▓È_1
 62
     5
 10
757.98547503220004
 20
-240.26421253269999
 30
0.0
 40
2.65625
 50
44.332691644199997
 51
135.6673083558
  0
ENDBLK
  5
5D
  8
0
  0
BLOCK
  8
0
  2
CLUMP2
 70
     0
 10
0.0
 20
0.0
 30
0.0
  3
CLUMP2
  1

  0
LINE
  5
69
  8
┌▓È_1
 62
     5
 10
766.88538245669986
 20
-238.60796253269999
 30
0.0
 11
766.88538245669986
 21
-238.4079625327
 31
0.0
  0
LINE
  5
6A
  8
┌▓È_1
 62
     5
 10
763.08538245670002
 20
-238.60796253269999
 30
0.0
 11
763.08538245670002
 21
-238.4079625327
 31
0.0
  0
ARC
  5
6B
  8
┌▓È_1
 62
     5
 10
764.98538245669977
 20
-240.26421253269999
 30
0.0
 40
2.65625
 50
44.332691644199997
 51
135.6673083558
  0
ENDBLK
  5
6C
  8
0
  0
BLOCK
  8
0
  2
BALLON1
 70
     0
 10
0.0
 20
0.0
 30
0.0
  3
BALLON1
  1

  0
INSERT
  5
89
  8
0
  6
CONTINUOUS
  2
*U8
 10
0.0
 20
0.0
 30
0.0
  0
CIRCLE
  5
8A
  8
┌▓È_1
 10
788.48477862259995
 20
-221.39558775680001
 30
0.0
 40
4.0
  0
LINE
  5
8B
  8
Éíû@É³
 10
781.81811195590001
 20
-221.39558775680001
 30
0.0
 11
784.48477862259995
 21
-221.39558775680001
 31
0.0
  0
LINE
  5
8C
  8
Éíû@É³
 10
767.14821330999985
 20
-201.53093668599999
 30
0.0
 11
781.81811195590001
 21
-221.39558775680001
 31
0.0
  0
SOLID
  5
8D
  8
Éíû@É³
 10
767.14821330999985
 20
-201.53093668599999
 30
0.0
 11
770.16798723289992
 21
-204.273374553
 31
0.0
 12
769.04920280960005
 22
-204.10508487960001
 32
0.0
 13
769.04920280960005
 23
-204.10508487960001
 33
0.0
  0
SOLID
  5
8E
  8
Éíû@É³
 10
769.04920280960005
 20
-204.10508487960001
 30
0.0
 11
768.88091313610005
 21
-205.22386930280001
 31
0.0
 12
767.14821330999985
 22
-201.53093668599999
 32
0.0
 13
767.14821330999985
 23
-201.53093668599999
 33
0.0
  0
ENDBLK
  5
8F
  8
0
  0
BLOCK
  8
0
  2
*U8
 70
     1
 10
0.0
 20
0.0
 30
0.0
  3
*U8
  1

  0
TEXT
  5
305
  8
┌▓È_1
  6
CONTINUOUS
 10
787.51822126303898
 20
-222.63030994190001
 30
0.0
 40
2.998611020999999
  1
4
  0
ENDBLK
  5
307
  8
0
  0
BLOCK
  8
0
  2
BALLON2
 70
     0
 10
0.0
 20
0.0
 30
0.0
  3
BALLON2
  1

  0
INSERT
  5
93
  8
0
  6
CONTINUOUS
  2
*U10
 10
0.0
 20
0.0
 30
0.0
  0
CIRCLE
  5
94
  8
┌▓È_1
 10
729.40647251960002
 20
-220.92058888540001
 30
0.0
 40
4.0
  0
LINE
  5
95
  8
Éíû@É³
 10
736.07313918630007
 20
-220.92058888540001
 30
0.0
 11
733.40647251960002
 21
-220.92058888540001
 31
0.0
  0
LINE
  5
96
  8
Éíû@É³
 10
756.76139960080002
 20
-200.23232847080001
 30
0.0
 11
736.07313918630007
 21
-220.92058888540001
 31
0.0
  0
SOLID
  5
97
  8
Éíû@É³
 10
756.76139960080002
 20
-200.23232847080001
 30
0.0
 11
754.49865790100012
 21
-203.62644102050001
 31
0.0
 12
754.49865790100012
 22
-202.4950701706
 32
0.0
 13
754.49865790100012
 23
-202.4950701706
 33
0.0
  0
SOLID
  5
98
  8
Éíû@É³
 10
754.49865790100012
 20
-202.4950701706
 30
0.0
 11
753.36728705109999
 21
-202.4950701706
 31
0.0
 12
756.76139960080002
 22
-200.23232847080001
 32
0.0
 13
756.76139960080002
 23
-200.23232847080001
 33
0.0
  0
ENDBLK
  5
99
  8
0
  0
BLOCK
  8
0
  2
*U10
 70
     1
 10
0.0
 20
0.0
 30
0.0
  3
*U10
  1

  0
TEXT
  5
309
  8
┌▓È_1
  6
CONTINUOUS
 10
728.43230447216843
 20
-222.15531107050001
 30
0.0
 40
2.998611020999999
  1
6
  0
ENDBLK
  5
30B
  8
0
  0
BLOCK
  8
0
  2
*D11
 70
     1
 10
0.0
 20
0.0
 30
0.0
  3
*D11
  1

  0
TEXT
  5
9E
  8
0
 62
     0
 10
838.14961018889983
 20
-246.73574020449999
 30
0.0
 40
2.998611020999999
  1
13.5
 50
90.0
  0
LINE
  5
9F
  8
0
 62
     0
 10
828.00237625800003
 20
-250.10796253269999
 30
0.0
 11
840.17877683969982
 21
-250.10796253269999
 31
0.0
  0
LINE
  5
A0
  8
0
 62
     0
 10
822.60237625800005
 20
-236.3079625327
 30
0.0
 11
840.17877683969982
 21
-236.3079625327
 31
0.0
  0
LINE
  5
A1
  8
0
 62
     0
 10
839.67877683970005
 20
-250.10796253269999
 30
0.0
 11
839.67877683970005
 21
-237.91629602500001
 31
0.0
  0
LINE
  5
A2
  8
0
 62
     0
 10
839.67877683970005
 20
-250.10796253269999
 30
0.0
 11
839.67877683970005
 21
-248.49962904040001
 31
0.0
  0
LINE
  5
A3
  8
0
 62
     0
 10
839.67877683970005
 20
-236.3079625327
 30
0.0
 11
839.67877683970005
 21
-237.91629602500001
 31
0.0
  0
LINE
  5
A4
  8
0
 62
     0
 10
839.67877683970005
 20
-236.3079625327
 30
0.0
 11
839.67877683970005
 21
-248.49962904040001
 31
0.0
  0
LINE
  5
A5
  8
0
 62
     0
 10
839.67877683970005
 20
-236.3079625327
 30
0.0
 11
839.67877683970005
 21
-233.3079625327
 31
0.0
  0
SOLID
  5
A6
  8
0
 62
     0
 10
839.67877683970005
 20
-236.3079625327
 30
0.0
 11
838.92877683970005
 21
-233.3079625327
 31
0.0
 12
840.42877683970005
 22
-233.3079625327
 32
0.0
 13
839.67877683970005
 23
-234.0579625327
 33
0.0
  0
LINE
  5
A7
  8
0
 62
     0
 10
839.67877683970005
 20
-250.10796253269999
 30
0.0
 11
839.67877683970005
 21
-253.10796253269999
 31
0.0
  0
SOLID
  5
A8
  8
0
 62
     0
 10
839.67877683970005
 20
-250.10796253269999
 30
0.0
 11
840.42877683970005
 21
-253.10796253269999
 31
0.0
 12
838.92877683970005
 22
-253.10796253269999
 32
0.0
 13
839.67877683970005
 23
-252.35796253269999
 33
0.0
  0
ENDBLK
  5
A9
  8
0
  0
BLOCK
  8
0
  2
*D12
 70
     1
 10
0.0
 20
0.0
 30
0.0
  3
*D12
  1

  0
TEXT
  5
B6
  8
0
 62
     0
 10
759.72153990859999
 20
-160.5919530955
 30
0.0
 40
2.998611020999999
  1
27
  0
LINE
  5
B7
  8
0
 62
     0
 10
774.93542874449975
 20
-181.90092599479999
 30
0.0
 11
774.93542874449975
 21
-161.62111974620001
 31
0.0
  0
LINE
  5
B8
  8
0
 62
     0
 10
748.0354287445
 20
-181.90092599479999
 30
0.0
 11
748.0354287445
 21
-161.62111974620001
 31
0.0
  0
LINE
  5
B9
  8
0
 62
     0
 10
774.93542874449975
 20
-162.12111974620001
 30
0.0
 11
765.01320641630002
 21
-162.12111974620001
 31
0.0
  0
LINE
  5
BA
  8
0
 62
     0
 10
774.93542874449975
 20
-162.12111974620001
 30
0.0
 11
757.95765107269995
 21
-162.12111974620001
 31
0.0
  0
LINE
  5
BB
  8
0
 62
     0
 10
748.0354287445
 20
-162.12111974620001
 30
0.0
 11
765.01320641630002
 21
-162.12111974620001
 31
0.0
  0
LINE
  5
BC
  8
0
 62
     0
 10
748.0354287445
 20
-162.12111974620001
 30
0.0
 11
757.95765107269995
 21
-162.12111974620001
 31
0.0
  0
LINE
  5
BD
  8
0
 62
     0
 10
748.0354287445
 20
-162.12111974620001
 30
0.0
 11
751.03542874449977
 21
-162.12111974620001
 31
0.0
  0
SOLID
  5
BE
  8
0
 62
     0
 10
748.0354287445
 20
-162.12111974620001
 30
0.0
 11
751.03542874449977
 21
-161.37111974620001
 31
0.0
 12
751.03542874449977
 22
-162.87111974620001
 32
0.0
 13
750.2854287445
 23
-162.12111974620001
 33
0.0
  0
LINE
  5
BF
  8
0
 62
     0
 10
774.93542874449975
 20
-162.12111974620001
 30
0.0
 11
771.93542874449975
 21
-162.12111974620001
 31
0.0
  0
SOLID
  5
C0
  8
0
 62
     0
 10
774.93542874449975
 20
-162.12111974620001
 30
0.0
 11
771.93542874449975
 21
-162.87111974620001
 31
0.0
 12
771.93542874449975
 22
-161.37111974620001
 32
0.0
 13
772.68542874449975
 23
-162.12111974620001
 33
0.0
  0
ENDBLK
  5
C1
  8
0
  0
BLOCK
  8
0
  2
*D13
 70
     1
 10
0.0
 20
0.0
 30
0.0
  3
*D13
  1

  0
TEXT
  5
C5
  8
0
 62
     0
 10
759.72153990859999
 20
-166.63121653939999
 30
0.0
 40
2.998611020999999
  1
20
  0
LINE
  5
C6
  8
0
 62
     0
 10
771.33542874449984
 20
-180.8009259948
 30
0.0
 11
771.33542874449984
 21
-167.66038319009999
 31
0.0
  0
LINE
  5
C7
  8
0
 62
     0
 10
751.63542874450002
 20
-180.8009259948
 30
0.0
 11
751.63542874450002
 21
-167.66038319009999
 31
0.0
  0
LINE
  5
C8
  8
0
 62
     0
 10
771.33542874449984
 20
-168.16038319009999
 30
0.0
 11
765.01320641630002
 21
-168.16038319009999
 31
0.0
  0
LINE
  5
C9
  8
0
 62
     0
 10
771.33542874449984
 20
-168.16038319009999
 30
0.0
 11
757.95765107269995
 21
-168.16038319009999
 31
0.0
  0
LINE
  5
CA
  8
0
 62
     0
 10
751.63542874450002
 20
-168.16038319009999
 30
0.0
 11
765.01320641630002
 21
-168.16038319009999
 31
0.0
  0
LINE
  5
CB
  8
0
 62
     0
 10
751.63542874450002
 20
-168.16038319009999
 30
0.0
 11
757.95765107269995
 21
-168.16038319009999
 31
0.0
  0
LINE
  5
CC
  8
0
 62
     0
 10
751.63542874450002
 20
-168.16038319009999
 30
0.0
 11
754.63542874450002
 21
-168.16038319009999
 31
0.0
  0
SOLID
  5
CD
  8
0
 62
     0
 10
751.63542874450002
 20
-168.16038319009999
 30
0.0
 11
754.63542874450002
 21
-167.41038319009999
 31
0.0
 12
754.63542874450002
 22
-168.91038319009999
 32
0.0
 13
753.88542874449979
 23
-168.16038319009999
 33
0.0
  0
LINE
  5
CE
  8
0
 62
     0
 10
771.33542874449984
 20
-168.16038319009999
 30
0.0
 11
768.33542874449984
 21
-168.16038319009999
 31
0.0
  0
SOLID
  5
CF
  8
0
 62
     0
 10
771.33542874449984
 20
-168.16038319009999
 30
0.0
 11
768.33542874449984
 21
-168.91038319009999
 31
0.0
 12
768.33542874449984
 22
-167.41038319009999
 32
0.0
 13
769.08542874449984
 23
-168.16038319009999
 33
0.0
  0
ENDBLK
  5
D0
  8
0
  0
BLOCK
  8
0
  2
*D14
 70
     1
 10
0.0
 20
0.0
 30
0.0
  3
*D14
  1

  0
TEXT
  5
D4
  8
0
 62
     0
 10
764.95695967789993
 20
-172.7210079557
 30
0.0
 40
2.998611020999999
  1
3
  0
LINE
  5
D5
  8
0
 62
     0
 10
772.83542874449984
 20
-184.35092599480001
 30
0.0
 11
772.83542874449984
 21
-173.7501746065
 31
0.0
  0
LINE
  5
D6
  8
0
 62
     0
 10
769.83542874449984
 20
-184.35092599480001
 30
0.0
 11
769.83542874449984
 21
-173.7501746065
 31
0.0
  0
LINE
  5
D7
  8
0
 62
     0
 10
772.83542874449984
 20
-174.2501746065
 30
0.0
 11
768.48473734970003
 21
-174.2501746065
 31
0.0
  0
LINE
  5
D8
  8
0
 62
     0
 10
772.83542874449984
 20
-174.2501746065
 30
0.0
 11
763.193070842
 21
-174.2501746065
 31
0.0
  0
LINE
  5
D9
  8
0
 62
     0
 10
769.83542874449984
 20
-174.2501746065
 30
0.0
 11
768.48473734970003
 21
-174.2501746065
 31
0.0
  0
LINE
  5
DA
  8
0
 62
     0
 10
769.83542874449984
 20
-174.2501746065
 30
0.0
 11
763.193070842
 21
-174.2501746065
 31
0.0
  0
LINE
  5
DB
  8
0
 62
     0
 10
769.83542874449984
 20
-174.2501746065
 30
0.0
 11
766.83542874449984
 21
-174.2501746065
 31
0.0
  0
SOLID
  5
DC
  8
0
 62
     0
 10
769.83542874449984
 20
-174.2501746065
 30
0.0
 11
766.83542874449984
 21
-175.0001746065
 31
0.0
 12
766.83542874449984
 22
-173.5001746065
 32
0.0
 13
767.58542874449984
 23
-174.2501746065
 33
0.0
  0
LINE
  5
DD
  8
0
 62
     0
 10
772.83542874449984
 20
-174.2501746065
 30
0.0
 11
775.83542874449984
 21
-174.2501746065
 31
0.0
  0
SOLID
  5
DE
  8
0
 62
     0
 10
772.83542874449984
 20
-174.2501746065
 30
0.0
 11
775.83542874449984
 21
-173.5001746065
 31
0.0
 12
775.83542874449984
 22
-175.0001746065
 32
0.0
 13
775.08542874449984
 23
-174.2501746065
 33
0.0
  0
ENDBLK
  5
DF
  8
0
  0
BLOCK
  8
0
  2
*D15
 70
     1
 10
0.0
 20
0.0
 30
0.0
  3
*D15
  1

  0
TEXT
  5
E3
  8
0
 62
     0
 10
794.91011457679997
 20
-191.42178761389999
 30
0.0
 40
2.998611020999999
  1
23
 50
90.0
  0
LINE
  5
E4
  8
0
 62
     0
 10
765.98538245669999
 20
-202.27918039229999
 30
0.0
 11
796.93928122759985
 21
-202.27918039229999
 31
0.0
  0
LINE
  5
E5
  8
0
 62
     0
 10
768.38542874450002
 20
-179.40092599479999
 30
0.0
 11
796.93928122759985
 21
-179.40092599479999
 31
0.0
  0
LINE
  5
E6
  8
0
 62
     0
 10
796.43928122759985
 20
-202.27918039229999
 30
0.0
 11
796.43928122759985
 21
-186.13012110619999
 31
0.0
  0
LINE
  5
E7
  8
0
 62
     0
 10
796.43928122759985
 20
-202.27918039229999
 30
0.0
 11
796.43928122759985
 21
-193.1856764497999
 31
0.0
  0
LINE
  5
E8
  8
0
 62
     0
 10
796.43928122759985
 20
-179.40092599479999
 30
0.0
 11
796.43928122759985
 21
-186.13012110619999
 31
0.0
  0
LINE
  5
E9
  8
0
 62
     0
 10
796.43928122759985
 20
-179.40092599479999
 30
0.0
 11
796.43928122759985
 21
-193.1856764497999
 31
0.0
  0
LINE
  5
EA
  8
0
 62
     0
 10
796.43928122759985
 20
-179.40092599479999
 30
0.0
 11
796.43928122759985
 21
-182.40092599479999
 31
0.0
  0
SOLID
  5
EB
  8
0
 62
     0
 10
796.43928122759985
 20
-179.40092599479999
 30
0.0
 11
797.18928122759985
 21
-182.40092599479999
 31
0.0
 12
795.68928122759996
 22
-182.40092599479999
 32
0.0
 13
796.43928122759985
 23
-181.65092599479999
 33
0.0
  0
LINE
  5
EC
  8
0
 62
     0
 10
796.43928122759985
 20
-202.27918039229999
 30
0.0
 11
796.43928122759985
 21
-199.27918039229999
 31
0.0
  0
SOLID
  5
ED
  8
0
 62
     0
 10
796.43928122759985
 20
-202.27918039229999
 30
0.0
 11
795.68928122759996
 21
-199.27918039229999
 31
0.0
 12
797.18928122759985
 22
-199.27918039229999
 32
0.0
 13
796.43928122759985
 23
-200.02918039229999
 33
0.0
  0
ENDBLK
  5
EE
  8
0
  0
BLOCK
  8
0
  2
CLUMP3
 70
     0
 10
0.0
 20
0.0
 30
0.0
  3
CLUMP3
  1

  0
LINE
  5
119
  8
┌▓È_1
 62
     5
 10
763.38542874450002
 20
-237.3079625327
 30
0.0
 11
763.38542874450002
 21
-237.10796253269999
 31
0.0
  0
LINE
  5
11A
  8
┌▓È_1
 62
     5
 10
759.58542874449984
 20
-237.3079625327
 30
0.0
 11
759.58542874449984
 21
-237.10796253269999
 31
0.0
  0
ARC
  5
11B
  8
┌▓È_1
 62
     5
 10
761.48542874449981
 20
-238.9642125327
 30
0.0
 40
2.65625
 50
44.332691644199997
 51
135.6673083558
  0
ENDBLK
  5
11C
  8
0
  0
BLOCK
  8
0
  2
*D17
 70
     1
 10
0.0
 20
0.0
 30
0.0
  3
*D17
  1

  0
TEXT
  5
12A
  8
0
 62
     0
 10
936.88632394800015
 20
-179.28244369820001
 30
0.0
 40
2.998611020999999
  1
12
 50
90.0
  0
LINE
  5
12B
  8
0
 62
     0
 10
929.41549059879992
 20
-183.4731901063
 30
0.0
 11
938.91549059880003
 21
-183.4731901063
 31
0.0
  0
LINE
  5
12C
  8
0
 62
     0
 10
919.05746579740003
 20
-171.5639196182
 30
0.0
 11
938.91549059880003
 21
-171.5639196182
 31
0.0
  0
LINE
  5
12D
  8
0
 62
     0
 10
938.41549059879992
 20
-183.4731901063
 30
0.0
 11
938.41549059879992
 21
-173.99077719050001
 31
0.0
  0
LINE
  5
12E
  8
0
 62
     0
 10
938.41549059879992
 20
-183.4731901063
 30
0.0
 11
938.41549059879992
 21
-181.0463325341
 31
0.0
  0
LINE
  5
12F
  8
0
 62
     0
 10
938.41549059879992
 20
-171.5639196182
 30
0.0
 11
938.41549059879992
 21
-173.99077719050001
 31
0.0
  0
LINE
  5
130
  8
0
 62
     0
 10
938.41549059879992
 20
-171.5639196182
 30
0.0
 11
938.41549059879992
 21
-181.0463325341
 31
0.0
  0
LINE
  5
131
  8
0
 62
     0
 10
938.41549059879992
 20
-171.5639196182
 30
0.0
 11
938.41549059879992
 21
-168.5639196182
 31
0.0
  0
SOLID
  5
132
  8
0
 62
     0
 10
938.41549059879992
 20
-171.5639196182
 30
0.0
 11
937.66549059880015
 21
-168.5639196182
 31
0.0
 12
939.16549059880003
 22
-168.5639196182
 32
0.0
 13
938.41549059879992
 23
-169.3139196182
 33
0.0
  0
LINE
  5
133
  8
0
 62
     0
 10
938.41549059879992
 20
-183.4731901063
 30
0.0
 11
938.41549059879992
 21
-186.4731901063
 31
0.0
  0
SOLID
  5
134
  8
0
 62
     0
 10
938.41549059879992
 20
-183.4731901063
 30
0.0
 11
939.16549059880003
 21
-186.4731901063
 31
0.0
 12
937.66549059880015
 22
-186.4731901063
 32
0.0
 13
938.41549059879992
 23
-185.7231901063
 33
0.0
  0
ENDBLK
  5
135
  8
0
  0
BLOCK
  8
0
  2
BALLON3
 70
     0
 10
0.0
 20
0.0
 30
0.0
  3
BALLON3
  1

  0
INSERT
  5
13F
  8
0
  6
CONTINUOUS
  2
*U19
 10
0.0
 20
0.0
 30
0.0
  0
CIRCLE
  5
140
  8
┌▓È_1
 10
729.40647251960002
 20
-173.84777570399999
 30
0.0
 40
4.0
  0
LINE
  5
141
  8
Éíû@É³
 10
736.07313918630007
 20
-173.84777570399999
 30
0.0
 11
733.40647251960002
 21
-173.84777570399999
 31
0.0
  0
LINE
  5
142
  8
Éíû@É³
 10
760.08933126880004
 20
-186.0417720488
 30
0.0
 11
736.07313918630007
 21
-173.84777570399999
 31
0.0
  0
SOLID
  5
143
  8
Éíû@É³
 10
760.08933126880004
 20
-186.0417720488
 30
0.0
 11
756.16055246350004
 21
-184.94418510509999
 31
0.0
 12
757.23605325610004
 22
-184.59304689129999
 32
0.0
 13
757.23605325610004
 23
-184.59304689129999
 33
0.0
  0
SOLID
  5
144
  8
Éíû@É³
 10
757.23605325610004
 20
-184.59304689129999
 30
0.0
 11
756.88491504230001
 21
-183.5175460987
 31
0.0
 12
760.08933126880004
 22
-186.0417720488
 32
0.0
 13
760.08933126880004
 23
-186.0417720488
 33
0.0
  0
ENDBLK
  5
145
  8
0
  0
BLOCK
  8
0
  2
*U19
 70
     1
 10
0.0
 20
0.0
 30
0.0
  3
*U19
  1

  0
TEXT
  5
33E
  8
┌▓È_1
  6
CONTINUOUS
 10
728.46274722365081
 20
-175.08249788910001
 30
0.0
 40
2.998611020999999
  1
5
  0
ENDBLK
  5
340
  8
0
  0
BLOCK
  8
0
  2
*D20
 70
     1
 10
0.0
 20
0.0
 30
0.0
  3
*D20
  1

  0
TEXT
  5
149
  8
0
 62
     0
 10
888.49251475589983
 20
-165.63399498780001
 30
0.0
 40
2.998611020999999
  1
2-%%c2.8
 50
33.551323873500003
  0
LINE
  5
14A
  8
0
 62
     0
 10
907.89071828729993
 20
-154.2511644999
 30
0.0
 11
889.17492562389975
 21
-166.6630014415
 31
0.0
  0
SOLID
  5
14B
  8
0
 62
     0
 10
907.89071828729993
 20
-154.2511644999
 30
0.0
 11
905.80505785190007
 21
-156.5342590114
 31
0.0
 12
904.97603225070009
 22
-155.28417239340001
 32
0.0
 13
906.01558836029994
 23
-155.4947029018
 33
0.0
  0
ENDBLK
  5
14C
  8
0
  0
BLOCK
  8
0
  2
*D21
 70
     1
 10
0.0
 20
0.0
 30
0.0
  3
*D21
  1

  0
TEXT
  5
150
  8
0
 62
     0
 10
914.52968812559993
 20
-136.24764680409999
 30
0.0
 40
2.998611020999999
  1
24.5
  0
LINE
  5
151
  8
0
 62
     0
 10
930.05746579739991
 20
-148.87740727209999
 30
0.0
 11
930.05746579739991
 21
-137.27681345490001
 31
0.0
  0
LINE
  5
152
  8
0
 62
     0
 10
906.05746579739991
 20
-148.87740727209999
 30
0.0
 11
906.05746579739991
 21
-137.27681345490001
 31
0.0
  0
LINE
  5
153
  8
0
 62
     0
 10
930.05746579739991
 20
-137.77681345490001
 30
0.0
 11
923.3491323052001
 21
-137.77681345490001
 31
0.0
  0
LINE
  5
154
  8
0
 62
     0
 10
930.05746579739991
 20
-137.77681345490001
 30
0.0
 11
912.76579928969988
 21
-137.77681345490001
 31
0.0
  0
LINE
  5
155
  8
0
 62
     0
 10
906.05746579739991
 20
-137.77681345490001
 30
0.0
 11
923.3491323052001
 21
-137.77681345490001
 31
0.0
  0
LINE
  5
156
  8
0
 62
     0
 10
906.05746579739991
 20
-137.77681345490001
 30
0.0
 11
912.76579928969988
 21
-137.77681345490001
 31
0.0
  0
LINE
  5
157
  8
0
 62
     0
 10
906.05746579739991
 20
-137.77681345490001
 30
0.0
 11
909.05746579740003
 21
-137.77681345490001
 31
0.0
  0
SOLID
  5
158
  8
0
 62
     0
 10
906.05746579739991
 20
-137.77681345490001
 30
0.0
 11
909.05746579740003
 21
-137.02681345490001
 31
0.0
 12
909.05746579740003
 22
-138.52681345490001
 32
0.0
 13
908.30746579740003
 23
-137.77681345490001
 33
0.0
  0
LINE
  5
159
  8
0
 62
     0
 10
930.05746579739991
 20
-137.77681345490001
 30
0.0
 11
927.05746579740003
 21
-137.77681345490001
 31
0.0
  0
SOLID
  5
15A
  8
0
 62
     0
 10
930.05746579739991
 20
-137.77681345490001
 30
0.0
 11
927.05746579740003
 21
-138.52681345490001
 31
0.0
 12
927.05746579740003
 22
-137.02681345490001
 32
0.0
 13
927.80746579740003
 23
-137.77681345490001
 33
0.0
  0
ENDBLK
  5
15B
  8
0
  0
BLOCK
  8
0
  2
BALLON4
 70
     0
 10
0.0
 20
0.0
 30
0.0
  3
BALLON4
  1

  0
INSERT
  5
160
  8
0
  6
CONTINUOUS
  2
*U23
 10
0.0
 20
0.0
 30
0.0
  0
CIRCLE
  5
161
  8
┌▓È_1
 10
894.58333333329983
 20
-170.94190941880001
 30
0.0
 40
4.0
  0
LINE
  5
162
  8
Éíû@É³
 10
901.25000000000011
 20
-170.94190941880001
 30
0.0
 11
898.58333333330006
 21
-170.94190941880001
 31
0.0
  0
LINE
  5
163
  8
Éíû@É³
 10
911.02927242780004
 20
-182.70889558580001
 30
0.0
 11
901.25000000000011
 21
-170.94190941880001
 31
0.0
  0
SOLID
  5
164
  8
Éíû@É³
 10
911.02927242780004
 20
-182.70889558580001
 30
0.0
 11
907.85737419539998
 21
-180.14392743720001
 31
0.0
 12
908.98396119499989
 22
-180.2478588203
 32
0.0
 13
908.98396119499989
 23
-180.2478588203
 33
0.0
  0
SOLID
  5
165
  8
Éíû@É³
 10
908.98396119499989
 20
-180.2478588203
 30
0.0
 11
909.08789257809997
 21
-179.12127182079999
 31
0.0
 12
911.02927242780004
 22
-182.70889558580001
 32
0.0
 13
911.02927242780004
 23
-182.70889558580001
 33
0.0
  0
ENDBLK
  5
166
  8
0
  0
BLOCK
  8
0
  2
*U23
 70
     1
 10
0.0
 20
0.0
 30
0.0
  3
*U23
  1

  0
TEXT
  5
342
  8
┌▓È_1
  6
CONTINUOUS
 10
893.61677597373944
 20
-172.17663160390001
 30
0.0
 40
2.998611020999999
  1
7
  0
ENDBLK
  5
344
  8
0
  0
BLOCK
  8
0
  2
CLUMP4
 70
     0
 10
0.0
 20
0.0
 30
0.0
  3
CLUMP4
  1

  0
LINE
  5
16A
  8
┌▓È_1
 62
     5
 10
930.05746579739991
 20
-157.0774072721
 30
0.0
 11
906.05746579739991
 21
-157.0774072721
 31
0.0
  0
LINE
  5
16B
  8
┌▓È_1
 62
     5
 10
906.05746579739991
 20
-149.87740727209999
 30
0.0
 11
930.05746579739991
 21
-149.87740727209999
 31
0.0
  0
LINE
  5
16C
  8
┌▓È_1
  6
BORDER
 62
     3
 10
904.05746579740003
 20
-153.4774072720999
 30
0.0
 11
932.05746579740014
 21
-153.4774072720999
 31
0.0
  0
LINE
  5
16D
  8
┌▓È_1
 62
     5
 10
906.05746579739991
 20
-157.0774072721
 30
0.0
 11
906.05746579739991
 21
-149.87740727209999
 31
0.0
  0
LINE
  5
16E
  8
┌▓È_1
  6
BORDER
 62
     3
 10
918.05746579740003
 20
-147.87740727209999
 30
0.0
 11
918.05746579740003
 21
-159.0774072721
 31
0.0
  0
LINE
  5
16F
  8
┌▓È_1
  6
BORDER
 62
     3
 10
909.05746579740003
 20
-151.0160316107
 30
0.0
 11
909.05746579740003
 21
-156.0160316107
 31
0.0
  0
CIRCLE
  5
170
  8
┌▓È_1
 62
     5
 10
909.05746579740003
 20
-153.4774072720999
 30
0.0
 40
1.399999999999999
  0
LINE
  5
171
  8
┌▓È_1
 62
     5
 10
920.75209191329986
 20
-157.0774072721
 30
0.0
 11
920.75209191329986
 21
-149.87740727209999
 31
0.0
  0
LINE
  5
172
  8
┌▓È_1
 62
     5
 10
915.35209191329989
 20
-157.0774072721
 30
0.0
 11
915.35209191329989
 21
-149.87740727209999
 31
0.0
  0
LINE
  5
173
  8
┌▓È_1
 62
     5
 10
906.05746579739991
 20
-150.87740727209999
 30
0.0
 11
907.05746579740014
 21
-149.87740727209999
 31
0.0
  0
LINE
  5
174
  8
┌▓È_1
 62
     5
 10
907.05746579740014
 20
-157.0774072721
 30
0.0
 11
906.05746579739991
 21
-156.0774072721
 31
0.0
  0
LINE
  5
175
  8
┌▓È_1
 62
     5
 10
930.05746579739991
 20
-149.87740727209999
 30
0.0
 11
930.05746579739991
 21
-157.0774072721
 31
0.0
  0
LINE
  5
176
  8
┌▓È_1
  6
BORDER
 62
     3
 10
927.05746579740003
 20
-150.97740727210001
 30
0.0
 11
927.05746579740003
 21
-155.97740727210001
 31
0.0
  0
CIRCLE
  5
177
  8
┌▓È_1
 62
     5
 10
927.05746579740003
 20
-153.4774072720999
 30
0.0
 40
1.399999999999999
  0
LINE
  5
178
  8
┌▓È_1
 62
     5
 10
929.05746579740003
 20
-149.87740727209999
 30
0.0
 11
930.05746579739991
 21
-150.87740727209999
 31
0.0
  0
LINE
  5
179
  8
┌▓È_1
 62
     5
 10
930.05746579739991
 20
-156.0774072721
 30
0.0
 11
929.05746579740003
 21
-157.0774072721
 31
0.0
  0
ENDBLK
  5
17A
  8
0
  0
BLOCK
  8
0
  2
CLUMP5
 70
     0
 10
0.0
 20
0.0
 30
0.0
  3
CLUMP5
  1

  0
LINE
  5
17E
  8
┌▓È_1
 62
     5
 10
918.16016727889996
 20
-177.02743287179999
 30
0.0
 11
918.56364089809983
 21
-181.60642938180001
 31
0.0
  0
ARC
  5
17F
  8
┌▓È_1
 62
     5
 10
920.15746557509999
 20
-181.4659911418
 30
0.0
 40
1.6000000000000001
 50
185.03554340759999
 51
267.19214952649997
  0
LINE
  5
180
  8
┌▓È_1
 62
     5
 10
928.41549059880003
 20
-183.4731901063
 30
0.0
 11
920.07908688719988
 21
-183.06407023290001
 31
0.0
  0
LINE
  5
181
  8
┌▓È_1
 62
     5
 10
930.04671802910013
 20
-182.95300201379999
 30
0.0
 11
929.46885844929955
 21
-184.52655795690001
 31
0.0
  0
LINE
  5
182
  8
┌▓È_1
 62
     5
 10
929.46885844929955
 20
-184.52655795690001
 30
0.0
 11
928.41595943239997
 21
-183.47365893989999
 31
0.0
  0
LINE
  5
183
  8
┌▓È_1
 62
     5
 10
930.05746579739991
 20
-182.95300049670001
 30
0.0
 11
920.11385253669994
 21
-182.46479067480001
 31
0.0
  0
ARC
  5
184
  8
┌▓È_1
 62
     5
 10
918.86283921660004
 20
-176.9659912429
 30
0.0
 40
0.1
 50
112.61989740689999
 51
185.03553845740001
  0
ARC
  5
185
  8
┌▓È_1
 62
     5
 10
920.16283921660022
 20
-181.4659912429
 30
0.0
 40
1.0
 50
185.035541059
 51
267.19213417790002
  0
LINE
  5
186
  8
┌▓È_1
 62
     5
 10
919.16669879350013
 20
-181.55376514290001
 30
0.0
 11
918.76322517429981
 21
-176.97476863290001
 31
0.0
  0
LINE
  5
187
  8
┌▓È_1
 62
     5
 10
918.82437767809995
 20
-176.87368355059999
 30
0.0
 11
919.1013007549999
 21
-176.7582989352
 31
0.0
  0
ARC
  5
188
  8
┌▓È_1
 62
     5
 10
918.05746579740003
 20
-174.26599104909999
 30
0.0
 40
2.1000000000000001
 50
292.6198583753
 51
90.0
  0
ARC
  5
189
  8
┌▓È_1
 62
     5
 10
918.05746579740003
 20
-174.26599104909999
 30
0.0
 40
2.702071430899998
 50
292.7250388864
 51
90.0
  0
ARC
  5
18A
  8
┌▓È_1
 62
     5
 10
918.05746579740003
 20
-174.26599104909999
 30
0.0
 40
2.702071430899998
 50
90.0
 51
247.27496111350001
  0
ARC
  5
18B
  8
┌▓È_1
 62
     5
 10
918.05746579740003
 20
-174.26599104909999
 30
0.0
 40
2.1000000000000001
 50
90.0
 51
247.3801416247
  0
LINE
  5
18C
  8
┌▓È_1
 62
     5
 10
917.29055391679992
 20
-176.87368355059999
 30
0.0
 11
917.01363083979993
 21
-176.7582989352
 31
0.0
  0
LINE
  5
18D
  8
┌▓È_1
 62
     5
 10
916.94823280139997
 20
-181.55376514290001
 30
0.0
 11
917.35170642059995
 21
-176.97476863290001
 31
0.0
  0
ARC
  5
18E
  8
┌▓È_1
 62
     5
 10
915.95209237830022
 20
-181.4659912429
 30
0.0
 40
1.0
 50
272.80786582209998
 51
354.96445894099998
  0
ARC
  5
18F
  8
┌▓È_1
 62
     5
 10
917.25209237829995
 20
-176.9659912429
 30
0.0
 40
0.1
 50
354.96446154260002
 51
67.380102593100005
  0
LINE
  5
190
  8
┌▓È_1
 62
     5
 10
906.05746579739991
 20
-182.95300049670001
 30
0.0
 11
916.00107905820005
 21
-182.46479067480001
 31
0.0
  0
LINE
  5
191
  8
┌▓È_1
 62
     5
 10
906.64607314550005
 20
-184.52655795690001
 30
0.0
 11
907.69897216250001
 21
-183.47365893989999
 31
0.0
  0
LINE
  5
192
  8
┌▓È_1
 62
     5
 10
906.06821356570003
 20
-182.95300201379999
 30
0.0
 11
906.64607314550005
 21
-184.52655795690001
 31
0.0
  0
LINE
  5
193
  8
┌▓È_1
 62
     5
 10
907.69944099609995
 20
-183.4731901063
 30
0.0
 11
916.03584470769988
 21
-183.06407023290001
 31
0.0
  0
ARC
  5
194
  8
┌▓È_1
 62
     5
 10
915.95746601980022
 20
-181.4659911418
 30
0.0
 40
1.6000000000000001
 50
272.80785047350003
 51
354.96445659239998
  0
LINE
  5
195
  8
┌▓È_1
 62
     5
 10
917.95476431600014
 20
-177.02743287179999
 30
0.0
 11
917.55129069669999
 21
-181.60642938180001
 31
0.0
  0
LINE
  5
196
  8
┌▓È_1
 62
     5
 10
917.52669678899986
 20
-176.3198372956
 30
0.0
 11
917.24977371210002
 21
-176.20445268020001
 31
0.0
  0
ARC
  5
197
  8
┌▓È_1
 62
     5
 10
917.25746601979995
 20
-176.9659911418
 30
0.0
 40
0.7
 50
354.96442786300003
 51
67.38012990899999
  0
LINE
  5
198
  8
┌▓È_1
  6
BORDER
 62
     3
 10
918.05746579740003
 20
-169.0896177477
 30
0.0
 11
918.05746579740003
 21
-185.5896177477
 31
0.0
  0
ARC
  5
199
  8
┌▓È_1
 62
     5
 10
918.85746557509992
 20
-176.9659911418
 30
0.0
 40
0.7
 50
112.619870091
 51
185.035572137
  0
LINE
  5
19A
  8
┌▓È_1
 62
     5
 10
918.58823480579986
 20
-176.3198372956
 30
0.0
 11
918.86515788270003
 21
-176.20445268020001
 31
0.0
  0
ENDBLK
  5
19B
  8
0
  0
BLOCK
  8
0
  2
CLUMP6
 70
     0
 10
0.0
 20
0.0
 30
0.0
  3
CLUMP6
  1

  0
LINE
  5
1AC
  8
┌▓È_1
 62
     5
 10
808.22412186060001
 20
-238.7513266741
 30
0.0
 11
808.22412186060001
 21
-238.55132667410001
 31
0.0
  0
LINE
  5
1AD
  8
┌▓È_1
 62
     5
 10
812.02412186059985
 20
-238.7513266741
 30
0.0
 11
812.02412186059985
 21
-238.55132667410001
 31
0.0
  0
ARC
  5
1AE
  8
┌▓È_1
 62
     5
 10
810.12412186059998
 20
-240.4075766741
 30
0.0
 40
2.65625
 50
44.332691644199997
 51
135.6673083558
  0
ENDBLK
  5
1AF
  8
0
  0
BLOCK
  8
0
  2
*D27
 70
     1
 10
0.0
 20
0.0
 30
0.0
  3
*D27
  1

  0
TEXT
  5
1BE
  8
0
 62
     0
 10
795.73176118350011
 20
-249.3254778573
 30
0.0
 40
2.998611020999999
  1
(7)
 50
90.0
  0
LINE
  5
1BF
  8
0
 62
     0
 10
803.62412186059987
 20
-243.2513266741
 30
0.0
 11
796.76092783429965
 21
-243.2513266741
 31
0.0
  0
LINE
  5
1C0
  8
0
 62
     0
 10
814.20237625799984
 20
-250.10796253269999
 30
0.0
 11
796.76092783429965
 21
-250.10796253269999
 31
0.0
  0
LINE
  5
1C1
  8
0
 62
     0
 10
797.26092783429965
 20
-243.2513266741
 30
0.0
 11
797.26092783429965
 21
-243.2513266741
 31
0.0
  0
LINE
  5
1C2
  8
0
 62
     0
 10
797.26092783429965
 20
-243.2513266741
 30
0.0
 11
797.26092783429965
 21
-250.10796253269999
 31
0.0
  0
LINE
  5
1C3
  8
0
 62
     0
 10
797.26092783429965
 20
-250.10796253269999
 30
0.0
 11
797.26092783429965
 21
-243.2513266741
 31
0.0
  0
LINE
  5
1C4
  8
0
 62
     0
 10
797.26092783429965
 20
-250.10796253269999
 30
0.0
 11
797.26092783429965
 21
-250.10796253269999
 31
0.0
  0
LINE
  5
1C5
  8
0
 62
     0
 10
797.26092783429965
 20
-250.10796253269999
 30
0.0
 11
797.26092783429965
 21
-247.10796253269999
 31
0.0
  0
SOLID
  5
1C6
  8
0
 62
     0
 10
797.26092783429965
 20
-250.10796253269999
 30
0.0
 11
796.51092783429988
 21
-247.10796253269999
 31
0.0
 12
798.01092783429965
 22
-247.10796253269999
 32
0.0
 13
797.26092783429965
 23
-247.85796253269999
 33
0.0
  0
LINE
  5
1C7
  8
0
 62
     0
 10
797.26092783429965
 20
-243.2513266741
 30
0.0
 11
797.26092783429965
 21
-246.2513266741
 31
0.0
  0
SOLID
  5
1C8
  8
0
 62
     0
 10
797.26092783429965
 20
-243.2513266741
 30
0.0
 11
798.01092783429965
 21
-246.2513266741
 31
0.0
 12
796.51092783429988
 22
-246.2513266741
 32
0.0
 13
797.26092783429965
 23
-245.5013266741
 33
0.0
  0
ENDBLK
  5
1C9
  8
0
  0
BLOCK
  8
0
  2
CLUMP7
 70
     0
 10
0.0
 20
0.0
 30
0.0
  3
CLUMP7
  1

  0
LINE
  5
1D1
  8
┌▓È_1
 62
     5
 10
819.70237625799984
 20
-237.3079625327
 30
0.0
 11
819.70237625799984
 21
-237.10796253269999
 31
0.0
  0
LINE
  5
1D2
  8
┌▓È_1
 62
     5
 10
823.50237625800003
 20
-237.3079625327
 30
0.0
 11
823.50237625800003
 21
-237.10796253269999
 31
0.0
  0
ARC
  5
1D3
  8
┌▓È_1
 62
     5
 10
821.60237625800005
 20
-238.9642125327
 30
0.0
 40
2.65625
 50
44.332691644199997
 51
135.6673083558
  0
ENDBLK
  5
1D4
  8
0
  0
BLOCK
  8
0
  2
BALLON5
 70
     0
 10
0.0
 20
0.0
 30
0.0
  3
BALLON5
  1

  0
INSERT
  5
1FC
  8
0
  6
CONTINUOUS
  2
*U30
 10
0.0
 20
0.0
 30
0.0
  0
CIRCLE
  5
1FD
  8
┌▓È_1
 10
729.40647251960002
 20
-202.16843138550001
 30
0.0
 40
4.0
  0
LINE
  5
1FE
  8
Éíû@É³
 10
736.07313918630007
 20
-202.16843138550001
 30
0.0
 11
733.40647251960002
 21
-202.16843138550001
 31
0.0
  0
LINE
  5
1FF
  8
Éíû@É³
 10
748.0354287445
 20
-190.2061418273
 30
0.0
 11
736.07313918630007
 21
-202.16843138550001
 31
0.0
  0
SOLID
  5
200
  8
Éíû@É³
 10
748.0354287445
 20
-190.2061418273
 30
0.0
 11
745.77268704469986
 21
-193.600254377
 31
0.0
 12
745.77268704469986
 22
-192.46888352709999
 32
0.0
 13
745.77268704469986
 23
-192.46888352709999
 33
0.0
  0
SOLID
  5
201
  8
Éíû@É³
 10
745.77268704469986
 20
-192.46888352709999
 30
0.0
 11
744.64131619479986
 21
-192.46888352709999
 31
0.0
 12
748.0354287445
 22
-190.2061418273
 32
0.0
 13
748.0354287445
 23
-190.2061418273
 33
0.0
  0
ENDBLK
  5
202
  8
0
  0
BLOCK
  8
0
  2
*U30
 70
     1
 10
0.0
 20
0.0
 30
0.0
  3
*U30
  1

  0
TEXT
  5
34A
  8
┌▓È_1
  6
CONTINUOUS
 10
728.62257166893255
 20
-203.40315357060001
 30
0.0
 40
2.998611020999999
  1
1
  0
ENDBLK
  5
34C
  8
0
  0
BLOCK
  8
0
  2
BALLON6
 70
     0
 10
0.0
 20
0.0
 30
0.0
  3
BALLON6
  1

  0
INSERT
  5
20D
  8
0
  6
CONTINUOUS
  2
*U32
 10
0.0
 20
0.0
 30
0.0
  0
CIRCLE
  5
20E
  8
┌▓È_1
 10
729.40647251960002
 20
-211.34686389999999
 30
0.0
 40
4.0
  0
LINE
  5
20F
  8
Éíû@É³
 10
736.07313918630007
 20
-211.34686389999999
 30
0.0
 11
733.40647251960002
 21
-211.34686389999999
 31
0.0
  0
LINE
  5
210
  8
Éíû@É³
 10
753.96151211940003
 20
-196.8988230292
 30
0.0
 11
736.07313918630007
 21
-211.34686389999999
 31
0.0
  0
SOLID
  5
211
  8
Éíû@É³
 10
753.96151211940003
 20
-196.8988230292
 30
0.0
 11
751.35238946529989
 21
-200.0345014209
 31
0.0
 12
751.47208263289986
 22
-198.90947984530001
 32
0.0
 13
751.47208263289986
 23
-198.90947984530001
 33
0.0
  0
SOLID
  5
212
  8
Éíû@É³
 10
751.47208263289986
 20
-198.90947984530001
 30
0.0
 11
750.34706105719999
 21
-198.78978667769999
 31
0.0
 12
753.96151211940003
 22
-196.8988230292
 32
0.0
 13
753.96151211940003
 23
-196.8988230292
 33
0.0
  0
ENDBLK
  5
213
  8
0
  0
BLOCK
  8
0
  2
*U32
 70
     1
 10
0.0
 20
0.0
 30
0.0
  3
*U32
  1

  0
TEXT
  5
34E
  8
┌▓È_1
  6
CONTINUOUS
 10
728.44752584790967
 20
-212.58158608510001
 30
0.0
 40
2.998611020999999
  1
2
  0
ENDBLK
  5
350
  8
0
  0
BLOCK
  8
0
  2
*D33
 70
     1
 10
0.0
 20
0.0
 30
0.0
  3
*D33
  1

  0
TEXT
  5
23D
  8
0
 62
     0
 10
787.69484833520005
 20
-189.56481483069999
 30
0.0
 40
2.998611020999999
  1
12
 50
90.0
  0
LINE
  5
23E
  8
0
 62
     0
 10
774.93542874449975
 20
-193.7009259948
 30
0.0
 11
789.72401498589977
 21
-193.7009259948
 31
0.0
  0
LINE
  5
23F
  8
0
 62
     0
 10
774.93542874449975
 20
-181.90092599479999
 30
0.0
 11
789.72401498589977
 21
-181.90092599479999
 31
0.0
  0
LINE
  5
240
  8
0
 62
     0
 10
789.2240149859
 20
-193.7009259948
 30
0.0
 11
789.2240149859
 21
-184.27314832299999
 31
0.0
  0
LINE
  5
241
  8
0
 62
     0
 10
789.2240149859
 20
-193.7009259948
 30
0.0
 11
789.2240149859
 21
-191.32870366669999
 31
0.0
  0
LINE
  5
242
  8
0
 62
     0
 10
789.2240149859
 20
-181.90092599479999
 30
0.0
 11
789.2240149859
 21
-184.27314832299999
 31
0.0
  0
LINE
  5
243
  8
0
 62
     0
 10
789.2240149859
 20
-181.90092599479999
 30
0.0
 11
789.2240149859
 21
-191.32870366669999
 31
0.0
  0
LINE
  5
244
  8
0
 62
     0
 10
789.2240149859
 20
-181.90092599479999
 30
0.0
 11
789.2240149859
 21
-178.90092599479999
 31
0.0
  0
SOLID
  5
245
  8
0
 62
     0
 10
789.2240149859
 20
-181.90092599479999
 30
0.0
 11
788.47401498589966
 21
-178.90092599479999
 31
0.0
 12
789.9740149859
 22
-178.90092599479999
 32
0.0
 13
789.2240149859
 23
-179.65092599479999
 33
0.0
  0
LINE
  5
246
  8
0
 62
     0
 10
789.2240149859
 20
-193.7009259948
 30
0.0
 11
789.2240149859
 21
-196.7009259948
 31
0.0
  0
SOLID
  5
247
  8
0
 62
     0
 10
789.2240149859
 20
-193.7009259948
 30
0.0
 11
789.9740149859
 21
-196.7009259948
 31
0.0
 12
788.47401498589966
 22
-196.7009259948
 32
0.0
 13
789.2240149859
 23
-195.9509259948
 33
0.0
  0
ENDBLK
  5
248
  8
0
  0
BLOCK
  8
0
  2
*D34
 70
     1
 10
0.0
 20
0.0
 30
0.0
  3
*D34
  1

  0
TEXT
  5
24C
  8
0
 62
     0
 10
780.78219010729981
 20
-188.68287041280001
 30
0.0
 40
2.998611020999999
  1
8
 50
90.0
  0
LINE
  5
24D
  8
0
 62
     0
 10
772.33542874449984
 20
-191.75092599480001
 30
0.0
 11
782.81135675809981
 21
-191.75092599480001
 31
0.0
  0
LINE
  5
24E
  8
0
 62
     0
 10
772.33542874449984
 20
-183.85092599480001
 30
0.0
 11
782.81135675809981
 21
-183.85092599480001
 31
0.0
  0
LINE
  5
24F
  8
0
 62
     0
 10
782.31135675809981
 20
-191.75092599480001
 30
0.0
 11
782.31135675809981
 21
-185.15509274099981
 31
0.0
  0
LINE
  5
250
  8
0
 62
     0
 10
782.31135675809981
 20
-191.75092599480001
 30
0.0
 11
782.31135675809981
 21
-190.4467592487
 31
0.0
  0
LINE
  5
251
  8
0
 62
     0
 10
782.31135675809981
 20
-183.85092599480001
 30
0.0
 11
782.31135675809981
 21
-185.15509274099981
 31
0.0
  0
LINE
  5
252
  8
0
 62
     0
 10
782.31135675809981
 20
-183.85092599480001
 30
0.0
 11
782.31135675809981
 21
-190.4467592487
 31
0.0
  0
LINE
  5
253
  8
0
 62
     0
 10
782.31135675809981
 20
-183.85092599480001
 30
0.0
 11
782.31135675809981
 21
-180.85092599480001
 31
0.0
  0
SOLID
  5
254
  8
0
 62
     0
 10
782.31135675809981
 20
-183.85092599480001
 30
0.0
 11
781.56135675809981
 21
-180.85092599480001
 31
0.0
 12
783.06135675809969
 22
-180.85092599480001
 32
0.0
 13
782.31135675809981
 23
-181.60092599480001
 33
0.0
  0
LINE
  5
255
  8
0
 62
     0
 10
782.31135675809981
 20
-191.75092599480001
 30
0.0
 11
782.31135675809981
 21
-194.75092599480001
 31
0.0
  0
SOLID
  5
256
  8
0
 62
     0
 10
782.31135675809981
 20
-191.75092599480001
 30
0.0
 11
783.06135675809969
 21
-194.75092599480001
 31
0.0
 12
781.56135675809981
 22
-194.75092599480001
 32
0.0
 13
782.31135675809981
 23
-194.00092599480001
 33
0.0
  0
ENDBLK
  5
257
  8
0
  0
BLOCK
  8
0
  2
*D35
 70
     1
 10
0.0
 20
0.0
 30
0.0
  3
*D35
  1

  0
TEXT
  5
2AE
  8
0
 62
     0
 10
916.29357696150021
 20
-142.4413291546
 30
0.0
 40
2.998611020999999
  1
18
  0
LINE
  5
2AF
  8
0
 62
     0
 10
927.05746579740003
 20
-149.97740727210001
 30
0.0
 11
927.05746579740003
 21
-143.47049580539999
 31
0.0
  0
LINE
  5
2B0
  8
0
 62
     0
 10
909.05746579740003
 20
-150.0160316107
 30
0.0
 11
909.05746579740003
 21
-143.47049580539999
 31
0.0
  0
LINE
  5
2B1
  8
0
 62
     0
 10
927.05746579740003
 20
-143.97049580539999
 30
0.0
 11
921.5852434691999
 21
-143.97049580539999
 31
0.0
  0
LINE
  5
2B2
  8
0
 62
     0
 10
927.05746579740003
 20
-143.97049580539999
 30
0.0
 11
914.52968812559993
 21
-143.97049580539999
 31
0.0
  0
LINE
  5
2B3
  8
0
 62
     0
 10
909.05746579740003
 20
-143.97049580539999
 30
0.0
 11
921.5852434691999
 21
-143.97049580539999
 31
0.0
  0
LINE
  5
2B4
  8
0
 62
     0
 10
909.05746579740003
 20
-143.97049580539999
 30
0.0
 11
914.52968812559993
 21
-143.97049580539999
 31
0.0
  0
LINE
  5
2B5
  8
0
 62
     0
 10
909.05746579740003
 20
-143.97049580539999
 30
0.0
 11
912.05746579740003
 21
-143.97049580539999
 31
0.0
  0
SOLID
  5
2B6
  8
0
 62
     0
 10
909.05746579740003
 20
-143.97049580539999
 30
0.0
 11
912.05746579740003
 21
-143.22049580539999
 31
0.0
 12
912.05746579740003
 22
-144.72049580539999
 32
0.0
 13
911.30746579739991
 23
-143.97049580539999
 33
0.0
  0
LINE
  5
2B7
  8
0
 62
     0
 10
927.05746579740003
 20
-143.97049580539999
 30
0.0
 11
924.05746579740014
 21
-143.97049580539999
 31
0.0
  0
SOLID
  5
2B8
  8
0
 62
     0
 10
927.05746579740003
 20
-143.97049580539999
 30
0.0
 11
924.05746579740014
 21
-144.72049580539999
 31
0.0
 12
924.05746579740014
 22
-143.22049580539999
 32
0.0
 13
924.80746579739991
 23
-143.97049580539999
 33
0.0
  0
ENDBLK
  5
2B9
  8
0
  0
BLOCK
  8
0
  2
*D36
 70
     1
 10
0.0
 20
0.0
 30
0.0
  3
*D36
  1

  0
TEXT
  5
2BD
  8
0
 62
     0
 10
938.52829914669985
 20
-156.12324052599999
 30
0.0
 40
2.998611020999999
  1
7.2
 50
90.0
  0
LINE
  5
2BE
  8
0
 62
     0
 10
931.05746579739991
 20
-157.0774072721
 30
0.0
 11
940.55746579740003
 21
-157.0774072721
 31
0.0
  0
LINE
  5
2BF
  8
0
 62
     0
 10
931.05746579739991
 20
-149.87740727209999
 30
0.0
 11
940.55746579740003
 21
-149.87740727209999
 31
0.0
  0
LINE
  5
2C0
  8
0
 62
     0
 10
940.05746579740014
 20
-157.0774072721
 30
0.0
 11
940.05746579740014
 21
-157.0774072721
 31
0.0
  0
LINE
  5
2C1
  8
0
 62
     0
 10
940.05746579740014
 20
-157.0774072721
 30
0.0
 11
940.05746579740014
 21
-149.87740727209999
 31
0.0
  0
LINE
  5
2C2
  8
0
 62
     0
 10
940.05746579740014
 20
-149.87740727209999
 30
0.0
 11
940.05746579740014
 21
-157.0774072721
 31
0.0
  0
LINE
  5
2C3
  8
0
 62
     0
 10
940.05746579740014
 20
-149.87740727209999
 30
0.0
 11
940.05746579740014
 21
-149.87740727209999
 31
0.0
  0
LINE
  5
2C4
  8
0
 62
     0
 10
940.05746579740014
 20
-149.87740727209999
 30
0.0
 11
940.05746579740014
 21
-152.87740727209999
 31
0.0
  0
SOLID
  5
2C5
  8
0
 62
     0
 10
940.05746579740014
 20
-149.87740727209999
 30
0.0
 11
940.80746579739991
 21
-152.87740727209999
 31
0.0
 12
939.30746579740003
 22
-152.87740727209999
 32
0.0
 13
940.05746579740014
 23
-152.12740727209999
 33
0.0
  0
LINE
  5
2C6
  8
0
 62
     0
 10
940.05746579740014
 20
-157.0774072721
 30
0.0
 11
940.05746579740014
 21
-154.0774072721
 31
0.0
  0
SOLID
  5
2C7
  8
0
 62
     0
 10
940.05746579740014
 20
-157.0774072721
 30
0.0
 11
939.30746579740003
 21
-154.0774072721
 31
0.0
 12
940.80746579739991
 22
-154.0774072721
 32
0.0
 13
940.05746579740014
 23
-154.8274072721
 33
0.0
  0
ENDBLK
  5
2C8
  8
0
  0
BLOCK
  8
0
  2
*U37
 70
     1
 10
0.0
 20
0.0
 30
0.0
  3
*U37
  1

  0
TEXT
  5
2FE
  8
┌▓È_1
  6
CONTINUOUS
 10
880.9208721662352
 20
-211.65803274382381
 30
0.0
 40
3.5983331442000002
  1
ìÌÄ┐(ÄdÅÒé░)
  0
TEXT
  5
2FF
  8
┌▓È_1
  6
CONTINUOUS
 10
880.9208721662352
 20
-217.87444245656189
 30
0.0
 40
3.5983331442000002
  1
éqéQéUü@üFôSÉ╗ü@âåâjâNâìâüâbâL
  0
TEXT
  5
300
  8
┌▓È_1
  6
CONTINUOUS
 10
880.9208721662352
 20
-224.09085216929989
 30
0.0
 40
3.5983331442000002
  1
éqébéQéUüFôSÉ╗ü@âNâìâüü[âgâüâbâL
  0
TEXT
  5
301
  8
┌▓È_1
  6
CONTINUOUS
 10
880.9208721662352
 20
-230.27073058108161
 30
0.0
 40
3.5983331442000002
  1
éqéréQéUüFâXâeâôâîâXÉ╗
  0
ENDBLK
  5
303
  8
0
  0
BLOCK
  8
0
  2
*U38
 70
     1
 10
0.0
 20
0.0
 30
0.0
  3
*U38
  1

  0
TEXT
  5
30D
  8
┌▓È_1
  6
CONTINUOUS
 10
875.79398888047831
 20
-241.98134788117031
 30
0.0
 40
3.5983331442000002
  1
û{æ╠ârâXüFü{ 2.4x10
  0
TEXT
  5
30E
  8
┌▓È_1
  6
CONTINUOUS
 10
875.79398888047831
 20
-248.3256171472556
 30
0.0
 40
3.5983331442000002
  1
Ä¾ö┬(âXâgâëâCâN)ârâXüF ü{ 2.4x10
  0
ENDBLK
  5
310
  8
0
  0
BLOCK
  8
0
  2
*U39
 70
     1
 10
0.0
 20
0.0
 30
0.0
  3
*U39
  1

  0
TEXT
  5
312
  8
┌▓È_1
  6
CONTINUOUS
 10
901.07855065043782
 20
-285.11196463790412
 30
0.0
 40
2.698749959499998
  1
û{æ╠
  0
ENDBLK
  5
314
  8
0
  0
BLOCK
  8
0
  2
*U40
 70
     1
 10
0.0
 20
0.0
 30
0.0
  3
*U40
  1

  0
TEXT
  5
316
  8
┌▓È_1
  6
CONTINUOUS
 10
897.12165082490003
 20
-289.97607621996798
 30
0.0
 40
2.337499999999999
  1
òiü@ü@ü@û╝
  0
ENDBLK
  5
318
  8
0
  0
BLOCK
  8
0
  2
*U41
 70
     1
 10
0.0
 20
0.0
 30
0.0
  3
*U41
  1

  0
TEXT
  5
31A
  8
┌▓È_1
  6
CONTINUOUS
 10
895.86599044947434
 20
-255.0023707309193
 30
0.0
 40
2.698749959499998
  1
âXâgâëâCâN
  0
ENDBLK
  5
31C
  8
0
  0
BLOCK
  8
0
  2
*U42
 70
     1
 10
0.0
 20
0.0
 30
0.0
  3
*U42
  1

  0
TEXT
  5
31E
  8
┌▓È_1
  6
CONTINUOUS
 10
889.03007050129895
 20
-260.0845661611578
 30
0.0
 40
2.698749959499998
  1
âìü[âëü[æñâèâxâbâg
  0
ENDBLK
  5
320
  8
0
  0
BLOCK
  8
0
  2
*U43
 70
     1
 10
0.0
 20
0.0
 30
0.0
  3
*U43
  1

  0
TEXT
  5
322
  8
┌▓È_1
  6
CONTINUOUS
 10
892.26994037653651
 20
-265.11196463790401
 30
0.0
 40
2.698749959499998
  1
û{æ╠æñâèâxâbâg
  0
ENDBLK
  5
324
  8
0
  0
BLOCK
  8
0
  2
*U44
 70
     1
 10
0.0
 20
0.0
 30
0.0
  3
*U44
  1

  0
TEXT
  5
326
  8
┌▓È_1
  6
CONTINUOUS
 10
897.83868077520003
 20
-269.96127301579997
 30
0.0
 40
2.698749959499998
  1
âìü[âëü[
  0
ENDBLK
  5
328
  8
0
  0
BLOCK
  8
0
  2
*U45
 70
     1
 10
0.0
 20
0.0
 30
0.0
  3
*U45
  1

  0
TEXT
  5
32A
  8
┌▓È_1
  6
CONTINUOUS
 10
901.3593850370861
 20
-275.02976920766548
 30
0.0
 40
2.698749959499998
  1
âoâl
  0
ENDBLK
  5
32C
  8
0
  0
BLOCK
  8
0
  2
*U46
 70
     1
 10
0.0
 20
0.0
 30
0.0
  3
*U46
  1

  0
TEXT
  5
32E
  8
┌▓È_1
  6
CONTINUOUS
 10
899.46204052241205
 20
-279.96127301579997
 30
0.0
 40
2.698749959499998
  1
âAü[âÇ
  0
ENDBLK
  5
330
  8
0
  0
BLOCK
  8
0
  2
*U47
 70
     1
 10
0.0
 20
0.0
 30
0.0
  3
*U47
  1

  0
TEXT
  5
332
  8
┌▓È_1
  6
CONTINUOUS
 10
903.62285138629989
 20
-303.05147178063498
 30
0.0
 40
2.337499999999999
  1
ü@Ä┌ ü@ôx
  0
ENDBLK
  5
334
  8
0
  0
BLOCK
  8
0
  2
*U48
 70
     1
 10
0.0
 20
0.0
 30
0.0
  3
*U48
  1

  0
TEXT
  5
336
  8
┌▓È_1
  6
CONTINUOUS
 10
903.62285138629989
 20
-294.56333726286857
 30
0.0
 40
2.337499999999999
  1
ü@ö┬ ü@î·
  0
ENDBLK
  5
338
  8
0
  0
BLOCK
  8
0
  2
*U49
 70
     1
 10
0.0
 20
0.0
 30
0.0
  3
*U49
  1

  0
TEXT
  5
33A
  8
┌▓È_1
  6
CONTINUOUS
 62
     5
 10
908.2682206512419
 20
-307.18281695830001
 30
0.0
 40
2.337499999999999
  1
1üF1
  0
ENDBLK
  5
33C
  8
0
  0
BLOCK
  8
0
  2
*U50
 70
     1
 10
0.0
 20
0.0
 30
0.0
  3
*U50
  1

  0
TEXT
  5
346
  8
┌▓È_1
  6
CONTINUOUS
 10
756.20331073470004
 20
-182.5277640544
 30
0.0
 40
2.698749959499998
  1
éréoéf
  0
ENDBLK
  5
348
  8
0
  0
BLOCK
  8
0
  2
*U51
 70
     1
 10
0.0
 20
0.0
 30
0.0
  3
*U51
  1

  0
TEXT
  5
352
  8
┌▓È_1
  6
CONTINUOUS
 10
862.3780192997998
 20
-314.64222341486652
 30
0.0
 40
4.3179999351999987
  1
èöÄ«ë´Äð
  0
ENDBLK
  5
354
  8
0
  0
BLOCK
  8
0
  2
*U52
 70
     1
 10
0.0
 20
0.0
 30
0.0
  3
*U52
  1

  0
TEXT
  5
356
  8
┌▓È_1
  6
CONTINUOUS
 10
855.15746557509999
 20
-303.06333726286857
 30
0.0
 40
2.337499999999999
  1
 É¦îvü@ü@öÆÉ{ëÛ
  0
ENDBLK
  5
358
  8
0
  0
BLOCK
  8
0
  2
*U53
 70
     1
 10
0.0
 20
0.0
 30
0.0
  3
*U53
  1

  0
TEXT
  5
35A
  8
┌▓È_1
  6
CONTINUOUS
 10
855.15746557509999
 20
-307.30147178063498
 30
0.0
 40
2.337499999999999
  1
 É╗É}     
  0
ENDBLK
  5
35C
  8
0
  0
BLOCK
  8
0
  2
*U54
 70
     1
 10
0.0
 20
0.0
 30
0.0
  3
*U54
  1

  0
TEXT
  5
35E
  8
┌▓È_1
  6
CONTINUOUS
 10
887.62285138629989
 20
-303.06333726286857
 30
0.0
 40
2.337499999999999
  1
ü@îƒ ü@É}
  0
ENDBLK
  5
360
  8
0
  0
BLOCK
  8
0
  2
*U55
 70
     1
 10
0.0
 20
0.0
 30
0.0
  3
*U55
  1

  0
TEXT
  5
362
  8
┌▓È_1
  6
CONTINUOUS
 10
887.62285138629989
 20
-294.51587533393462
 30
0.0
 40
2.337499999999999
  1
ü@ìÌ ü@Ä┐
  0
ENDBLK
  5
364
  8
0
  0
BLOCK
  8
0
  2
*U56
 70
     1
 10
0.0
 20
0.0
 30
0.0
  3
*U56
  1

  0
TEXT
  5
366
  8
┌▓È_1
  6
CONTINUOUS
 10
871.62285138629989
 20
-294.55147178063498
 30
0.0
 40
2.337499999999999
  1
ü@ê§ ü@Éö
  0
ENDBLK
  5
368
  8
0
  0
BLOCK
  8
0
  2
*U57
 70
     1
 10
0.0
 20
0.0
 30
0.0
  3
*U57
  1

  0
TEXT
  5
36A
  8
┌▓È_1
  6
CONTINUOUS
 10
855.6228513863
 20
-294.48027888723402
 30
0.0
 40
2.337499999999999
  1
ü@ô· ü@òt
  0
ENDBLK
  5
36C
  8
0
  0
BLOCK
  8
0
  2
*U58
 70
     1
 10
0.0
 20
0.0
 30
0.0
  3
*U58
  1

  0
TEXT
  5
36E
  8
┌▓È_1
  6
CONTINUOUS
 10
920.04796502880004
 20
-311.48697671920092
 30
0.0
 40
2.337499999999999
  1
É}öÈ
  0
ENDBLK
  5
370
  8
0
  0
BLOCK
  8
0
  2
*U59
 70
     1
 10
0.0
 20
0.0
 30
0.0
  3
*U59
  1

  0
TEXT
  5
372
  8
┌▓È_1
  6
CONTINUOUS
 10
940.52556369009994
 20
-314.20308014615978
 30
0.0
 40
3.5983331442000002
  1
ægùºÉ}
  0
ENDBLK
  5
374
  8
0
  0
BLOCK
  8
0
  2
*U60
 70
     1
 10
0.0
 20
0.0
 30
0.0
  3
*U60
  1

  0
TEXT
  5
376
  8
┌▓È_1
  6
CONTINUOUS
 10
877.67916065520001
 20
-270.07305726160001
 30
0.0
 40
2.698749959499998
  1
éS
  0
ENDBLK
  5
378
  8
0
  0
BLOCK
  8
0
  2
*U61
 70
     1
 10
0.0
 20
0.0
 30
0.0
  3
*U61
  1

  0
TEXT
  5
37A
  8
┌▓È_1
  6
CONTINUOUS
 10
877.67916065520001
 20
-265.07305726160001
 30
0.0
 40
2.698749959499998
  1
éT
  0
ENDBLK
  5
37C
  8
0
  0
BLOCK
  8
0
  2
*U62
 70
     1
 10
0.0
 20
0.0
 30
0.0
  3
*U62
  1

  0
TEXT
  5
37E
  8
┌▓È_1
  6
CONTINUOUS
 10
877.67916065520001
 20
-260.0730572615999
 30
0.0
 40
2.698749959499998
  1
éU
  0
ENDBLK
  5
380
  8
0
  0
BLOCK
  8
0
  2
*U63
 70
     1
 10
0.0
 20
0.0
 30
0.0
  3
*U63
  1

  0
TEXT
  5
382
  8
┌▓È_1
  6
CONTINUOUS
 10
877.67916065520001
 20
-255.07305726160001
 30
0.0
 40
2.698749959499998
  1
éV
  0
ENDBLK
  5
384
  8
0
  0
BLOCK
  8
0
  2
*U64
 70
     1
 10
0.0
 20
0.0
 30
0.0
  3
*U64
  1

  0
TEXT
  5
386
  8
┌▓È_1
  6
CONTINUOUS
 10
875.15746557509988
 20
-289.95234525550097
 30
0.0
 40
2.337499999999999
  1
 É}öÈ
  0
ENDBLK
  5
388
  8
0
  0
BLOCK
  8
0
  2
*U65
 70
     1
 10
0.0
 20
0.0
 30
0.0
  3
*U65
  1

  0
TEXT
  5
38A
  8
┌▓È_1
  6
CONTINUOUS
 10
877.67916065520001
 20
-285.0730572615999
 30
0.0
 40
2.698749959499998
  1
éP
  0
ENDBLK
  5
38C
  8
0
  0
BLOCK
  8
0
  2
*U66
 70
     1
 10
0.0
 20
0.0
 30
0.0
  3
*U66
  1

  0
TEXT
  5
38E
  8
┌▓È_1
  6
CONTINUOUS
 10
877.67916065520001
 20
-280.07305726160001
 30
0.0
 40
2.698749959499998
  1
éQ
  0
ENDBLK
  5
390
  8
0
  0
BLOCK
  8
0
  2
*U67
 70
     1
 10
0.0
 20
0.0
 30
0.0
  3
*U67
  1

  0
TEXT
  5
392
  8
┌▓È_1
  6
CONTINUOUS
 10
877.67916065520001
 20
-275.0730572615999
 30
0.0
 40
2.698749959499998
  1
éR
  0
ENDBLK
  5
394
  8
0
  0
BLOCK
  8
0
  2
*U68
 70
     1
 10
0.0
 20
0.0
 30
0.0
  3
*U68
  1

  0
TEXT
  5
396
  8
┌▓È_1
  6
CONTINUOUS
 10
868.67281755369982
 20
-133.03975897425229
 30
0.0
 40
2.998611020999999
  1
Ä¾ö┬(âXâgâëâCâN)
  0
ENDBLK
  5
398
  8
0
  0
BLOCK
  8
0
  2
*U69
 70
     1
 10
0.0
 20
0.0
 30
0.0
  3
*U69
  1

  0
TEXT
  5
39A
  8
┌▓È_1
  6
CONTINUOUS
 10
968.49999194190002
 20
-260.0730572615999
 30
0.0
 40
2.698749959499998
  1
éQ
  0
ENDBLK
  5
39C
  8
0
  0
BLOCK
  8
0
  2
*U70
 70
     1
 10
0.0
 20
0.0
 30
0.0
  3
*U70
  1

  0
TEXT
  5
39E
  8
┌▓È_1
  6
CONTINUOUS
 10
968.49999194190002
 20
-270.07305726160001
 30
0.0
 40
2.698749959499998
  1
éQ
  0
ENDBLK
  5
3A0
  8
0
  0
BLOCK
  8
0
  2
*U71
 70
     1
 10
0.0
 20
0.0
 30
0.0
  3
*U71
  1

  0
TEXT
  5
3A2
  8
┌▓È_1
  6
CONTINUOUS
 10
968.49999194190002
 20
-255.07305726160001
 30
0.0
 40
2.698749959499998
  1
éP
  0
ENDBLK
  5
3A4
  8
0
  0
BLOCK
  8
0
  2
*U72
 70
     1
 10
0.0
 20
0.0
 30
0.0
  3
*U72
  1

  0
TEXT
  5
3A6
  8
┌▓È_1
  6
CONTINUOUS
 10
968.49999194190002
 20
-265.07305726160001
 30
0.0
 40
2.698749959499998
  1
éP
  0
ENDBLK
  5
3A8
  8
0
  0
BLOCK
  8
0
  2
*U73
 70
     1
 10
0.0
 20
0.0
 30
0.0
  3
*U73
  1

  0
TEXT
  5
3AA
  8
┌▓È_1
  6
CONTINUOUS
 10
925.89633642252636
 20
-260.15306235302347
 30
0.0
 40
2.698749959499998
  1
SW/SUS430  âË2.2éÿ10.2
  0
ENDBLK
  5
3AC
  8
0
  0
BLOCK
  8
0
  2
*U74
 70
     1
 10
0.0
 20
0.0
 30
0.0
  3
*U74
  1

  0
TEXT
  5
3AE
  8
┌▓È_1
  6
CONTINUOUS
 10
925.91688528008592
 20
-265.15306235302347
 30
0.0
 40
2.698749959499998
  1
SW/SUS430  âË2.2éÿ12.7
  0
ENDBLK
  5
3B0
  8
0
  0
BLOCK
  8
0
  2
*U75
 70
     1
 10
0.0
 20
0.0
 30
0.0
  3
*U75
  1

  0
TEXT
  5
3B2
  8
┌▓È_1
  6
CONTINUOUS
 10
931.23218976884766
 20
-270.19416006814259
 30
0.0
 40
2.698749959499998
  1
ìéê│â|âèâGâ`âîâô
  0
ENDBLK
  5
3B4
  8
0
  0
BLOCK
  8
0
  2
*U76
 70
     1
 10
0.0
 20
0.0
 30
0.0
  3
*U76
  1

  0
TEXT
  5
3B6
  8
┌▓È_1
  6
CONTINUOUS
 10
926.77993729759135
 20
-255.15306235302339
 30
0.0
 40
2.698749959499998
  1
SPCC 0.7t/SUS430 0.6t
  0
ENDBLK
  5
3B8
  8
0
  0
BLOCK
  8
0
  2
*U77
 70
     1
 10
0.0
 20
0.0
 30
0.0
  3
*U77
  1

  0
TEXT
  5
3BA
  8
┌▓È_1
  6
CONTINUOUS
 10
938.62165082490014
 20
-289.9642107377345
 30
0.0
 40
2.337499999999999
  1
ìÌü@ü@ü@Ä┐
  0
ENDBLK
  5
3BC
  8
0
  0
BLOCK
  8
0
  2
*U78
 70
     1
 10
0.0
 20
0.0
 30
0.0
  3
*U78
  1

  0
TEXT
  5
3BE
  8
┌▓È_1
  6
CONTINUOUS
 10
967.41628734369988
 20
-289.99980718443493
 30
0.0
 40
2.337499999999999
  1
Éöù╩
  0
ENDBLK
  5
3C0
  8
0
  0
BLOCK
  8
0
  2
*U79
 70
     1
 10
0.0
 20
0.0
 30
0.0
  3
*U79
  1

  0
TEXT
  5
3C2
  8
┌▓È_1
  6
CONTINUOUS
 10
968.49999194190002
 20
-280.07305726160001
 30
0.0
 40
2.698749959499998
  1
éQ
  0
ENDBLK
  5
3C4
  8
0
  0
BLOCK
  8
0
  2
*U80
 70
     1
 10
0.0
 20
0.0
 30
0.0
  3
*U80
  1

  0
TEXT
  5
3C6
  8
┌▓È_1
  6
CONTINUOUS
 10
968.49999194190002
 20
-275.0730572615999
 30
0.0
 40
2.698749959499998
  1
éP
  0
ENDBLK
  5
3C8
  8
0
  0
BLOCK
  8
0
  2
*U81
 70
     1
 10
0.0
 20
0.0
 30
0.0
  3
*U81
  1

  0
TEXT
  5
3CA
  8
┌▓È_1
  6
CONTINUOUS
 10
968.49999194190002
 20
-285.0730572615999
 30
0.0
 40
2.698749959499998
  1
éP
  0
ENDBLK
  5
3CC
  8
0
  0
BLOCK
  8
0
  2
*U82
 70
     1
 10
0.0
 20
0.0
 30
0.0
  3
*U82
  1

  0
TEXT
  5
3CE
  8
┌▓È_1
  6
CONTINUOUS
 10
933.86929315566863
 20
-275.1530623530233
 30
0.0
 40
2.698749959499998
  1
ôS/âXâeâôâîâX
  0
ENDBLK
  5
3D0
  8
0
  0
BLOCK
  8
0
  2
*U83
 70
     1
 10
0.0
 20
0.0
 30
0.0
  3
*U83
  1

  0
TEXT
  5
3D2
  8
┌▓È_1
  6
CONTINUOUS
 10
926.77993729759135
 20
-280.15306235302347
 30
0.0
 40
2.698749959499998
  1
SPCC 0.5t/SUS430 0.5t
  0
ENDBLK
  5
3D4
  8
0
  0
BLOCK
  8
0
  2
*U84
 70
     1
 10
0.0
 20
0.0
 30
0.0
  3
*U84
  1

  0
TEXT
  5
3D6
  8
┌▓È_1
  6
CONTINUOUS
 10
926.77993729759135
 20
-285.15306235302347
 30
0.0
 40
2.698749959499998
  1
SPCC 1.0t/SUS430 1.0t
  0
ENDBLK
  5
3D8
  8
0
  0
BLOCK
  8
0
  2
*U85
 70
     1
 10
0.0
 20
0.0
 30
0.0
  3
*U85
  1

  0
TEXT
  5
3DA
  8
┌▓È_1
  6
CONTINUOUS
 10
943.2746417031999
 20
-297.0021579909
 30
0.0
 40
3.5983331442000002
  1
éQéU
  0
ENDBLK
  5
3DC
  8
0
  0
BLOCK
  8
0
  2
*U86
 70
     1
 10
0.0
 20
0.0
 30
0.0
  3
*U86
  1

  0
TEXT
  5
3DE
  8
┌▓È_1
  6
CONTINUOUS
 10
931.03029022199996
 20
-305.75280874446912
 30
0.0
 40
3.5983331442000002
  1
âìü[âëü[âLâââbâ`
  0
ENDBLK
  5
3E0
  8
0
  0
BLOCK
  8
0
  2
*U87
 70
     1
 10
0.0
 20
0.0
 30
0.0
  3
*U87
  1

  0
TEXT
  5
3E2
  8
┌▓È_1
  6
CONTINUOUS
 10
920.04796502880004
 20
-294.48697671920092
 30
0.0
 40
2.337499999999999
  1
î^öÈ
  0
ENDBLK
  5
3E4
  8
0
  0
BLOCK
  8
0
  2
*U88
 70
     1
 10
0.0
 20
0.0
 30
0.0
  3
*U88
  1

  0
TEXT
  5
3E6
  8
┌▓È_1
  6
CONTINUOUS
 10
920.04796502880004
 20
-303.01070768366822
 30
0.0
 40
2.337499999999999
  1
òiû╝
  0
ENDBLK
  5
3E8
  8
0
  0
ENDSEC
  0
SECTION
  2
ENTITIES
  0
LINE
  5
2F
  8
┌▓È_1
 62
     5
 10
700.15746557509988
 20
-126.88978355090001
 30
0.0
 11
975.15746557509988
 21
-126.88978355090001
 31
0.0
  0
LINE
  5
30
  8
┌▓È_1
 62
     5
 10
700.15746557509988
 20
-316.88978355090001
 30
0.0
 11
975.15746557509988
 21
-316.88978355090001
 31
0.0
  0
LINE
  5
31
  8
┌▓È_1
 62
     5
 10
769.53172575270003
 20
-195.8960661815
 30
0.0
 11
767.3799416912999
 21
-200.02661218290001
 31
0.0
  0
ARC
  5
32
  8
┌▓È_1
 62
     5
 10
764.98538245669977
 20
-198.77918039229999
 30
0.0
 40
2.7000000000000002
 50
152.48299808869999
 51
332.48300452130002
  0
LINE
  5
33
  8
┌▓È_1
  6
STITCH
 10
767.00530489530001
 20
-181.1064956514
 30
0.0
 11
767.38572617149987
 21
-181.69410066559999
 31
0.0
  0
LINE
  5
34
  8
┌▓È_1
  6
STITCH
 10
760.28981955610004
 20
-185.45416703149999
 30
0.0
 11
767.00530489530001
 21
-181.1064956514
 31
0.0
  0
LINE
  5
35
  8
┌▓È_1
  6
STITCH
 10
767.38572617149987
 20
-181.69410066559999
 30
0.0
 11
760.67024082740011
 21
-186.0417720488
 31
0.0
  0
INSERT
  5
38
  8
Éíû@É³
  2
BALLON0
 10
0.0
 20
0.0
 30
0.0
  0
LINE
  5
41
  8
┌▓È_1
 62
     5
 10
767.38542874450002
 20
-237.9079625327
 30
0.0
 11
766.21165730359985
 21
-237.9079625327
 31
0.0
  0
LINE
  5
42
  8
┌▓È_1
 62
     5
 10
767.38542874450002
 20
-237.3079625327
 30
0.0
 11
755.58542874449984
 21
-237.3079625327
 31
0.0
  0
ARC
  5
43
  8
┌▓È_1
 62
     5
 10
767.13690060709996
 20
-248.9079625327
 30
0.0
 40
0.6
 50
45.0
 51
90.0
  0
LINE
  5
44
  8
┌▓È_1
 62
     5
 10
774.93542874449975
 20
-249.50796253269999
 30
0.0
 11
768.58542874449984
 21
-249.50796253269999
 31
0.0
  0
LINE
  5
45
  8
┌▓È_1
 62
     5
 10
766.7854287445
 20
-248.3079625327
 30
0.0
 11
766.7854287445
 21
-247.60796253269999
 31
0.0
  0
LINE
  5
46
  8
┌▓È_1
 62
     5
 10
767.38542874450002
 20
-248.3079625327
 30
0.0
 11
767.38542874450002
 21
-247.60796253269999
 31
0.0
  0
LINE
  5
47
  8
┌▓È_1
 62
     5
 10
768.58542874449984
 20
-249.50796253269999
 30
0.0
 11
754.38542874450002
 21
-249.50796253269999
 31
0.0
  0
LINE
  5
48
  8
┌▓È_1
 62
     5
 10
767.5611646758
 20
-248.48369846400001
 30
0.0
 11
768.58542874449984
 21
-249.50796253269999
 31
0.0
  0
LINE
  5
49
  8
┌▓È_1
 62
     5
 10
767.13690060709996
 20
-248.3079625327
 30
0.0
 11
755.83395688190001
 21
-248.3079625327
 31
0.0
  0
LINE
  5
4A
  8
┌▓È_1
 62
     5
 10
774.93542874449975
 20
-250.10796253269999
 30
0.0
 11
748.0354287445
 21
-250.10796253269999
 31
0.0
  0
LINE
  5
4B
  8
┌▓È_1
 62
     5
 10
766.7854287445
 20
-238.3108827028
 30
0.0
 11
766.7854287445
 21
-237.9079625327
 31
0.0
  0
LINE
  5
4C
  8
┌▓È_1
 62
     5
 10
767.38542874450002
 20
-238.60796253269999
 30
0.0
 11
767.38542874450002
 21
-237.3079625327
 31
0.0
  0
INSERT
  5
4E
  8
┌▓È_1
  2
CLUMP0
 10
0.0
 20
0.0
 30
0.0
  0
LINE
  5
84
  8
┌▓È_1
 62
     5
 10
975.15746557509988
 20
-316.88978355090001
 30
0.0
 11
975.15746557509988
 21
-126.88978355090001
 31
0.0
  0
INSERT
  5
85
  8
0
  6
CONTINUOUS
  2
*U37
 10
0.0
 20
0.0
 30
0.0
  0
INSERT
  5
87
  8
Éíû@É³
  2
BALLON1
 10
0.0
 20
0.0
 30
0.0
  0
INSERT
  5
91
  8
Éíû@É³
  2
BALLON2
 10
0.0
 20
0.0
 30
0.0
  0
LINE
  5
9A
  8
┌▓È_1
 62
     5
 10
700.15746557509988
 20
-316.88978355090001
 30
0.0
 11
700.15746557509988
 21
-126.88978355090001
 31
0.0
  0
DIMENSION
  5
AA
  8
Éíû@É³
  2
*D11
 10
839.67877683970005
 20
-250.10796253269999
 30
0.0
 11
839.67877683970005
 21
-243.20796253270001
 31
0.0
 70
   128
  1
13.5
 13
827.00237625800014
 23
-250.10796253269999
 33
0.0
 14
821.60237625800005
 24
-236.3079625327
 34
0.0
 50
90.0
  0
LINE
  5
AB
  8
┌▓È_1
 62
     5
 10
907.25713790820009
 20
-313.2016451774
 30
0.0
 11
909.86620457480001
 21
-313.2016451774
 31
0.0
  0
LINE
  5
AC
  8
┌▓È_1
 62
     5
 10
908.85713790820012
 20
-309.7616451774
 30
0.0
 11
912.05713790820005
 21
-309.7616451774
 31
0.0
  0
LINE
  5
AD
  8
┌▓È_1
 62
     5
 10
909.25607124149997
 20
-311.12164517740001
 30
0.0
 11
908.85713790820012
 21
-309.7616451774
 31
0.0
  0
LINE
  5
AE
  8
┌▓È_1
 10
855.15746557509999
 20
-291.38978355090001
 30
0.0
 11
975.15746557509988
 21
-291.38978355090001
 31
0.0
  0
LINE
  5
AF
  8
┌▓È_1
 10
855.15746557509999
 20
-299.88978355090001
 30
0.0
 11
975.15746557509988
 21
-299.88978355090001
 31
0.0
  0
LINE
  5
B0
  8
┌▓È_1
 10
855.15746557509999
 20
-308.38978355090001
 30
0.0
 11
975.15746557509988
 21
-308.38978355090001
 31
0.0
  0
LINE
  5
B1
  8
┌▓È_1
 62
     5
 10
907.25713790820009
 20
-311.12164517740001
 30
0.0
 11
907.25713790820009
 21
-312.56164517740001
 31
0.0
  0
LINE
  5
B2
  8
┌▓È_1
 62
     5
 10
907.25713790820009
 20
-314.64164517739999
 30
0.0
 11
910.28860457479982
 21
-314.64164517739999
 31
0.0
  0
INSERT
  5
B3
  8
0
  6
CONTINUOUS
  2
*U38
 10
0.0
 20
0.0
 30
0.0
  0
DIMENSION
  5
C2
  8
Éíû@É³
  2
*D12
 10
774.93542874449975
 20
-162.12111974620001
 30
0.0
 11
761.48542874449981
 21
-162.12111974620001
 31
0.0
 70
   128
  1
27
 13
774.93542874449975
 23
-182.90092599479999
 33
0.0
 14
748.0354287445
 24
-182.90092599479999
 34
0.0
  0
DIMENSION
  5
D1
  8
Éíû@É³
  2
*D13
 10
771.33542874449984
 20
-168.16038319009999
 30
0.0
 11
761.48542874449981
 21
-168.16038319009999
 31
0.0
 70
   128
  1
20
 13
771.33542874449984
 23
-181.8009259948
 33
0.0
 14
751.63542874450002
 24
-181.8009259948
 34
0.0
  0
DIMENSION
  5
E0
  8
Éíû@É³
  2
*D14
 10
772.83542874449984
 20
-174.2501746065
 30
0.0
 11
765.83890409579999
 21
-174.2501746065
 31
0.0
 70
   128
  1
<>
 13
772.83542874449984
 23
-185.35092599480001
 33
0.0
 14
769.83542874449984
 24
-185.35092599480001
 34
0.0
  0
DIMENSION
  5
EF
  8
Éíû@É³
  2
*D15
 10
796.43928122759985
 20
-202.27918039229999
 30
0.0
 11
796.43928122759985
 21
-189.657898778
 31
0.0
 70
   128
  1
23
 13
764.98538245669977
 23
-202.27918039229999
 33
0.0
 14
767.38542874450002
 24
-179.40092599479999
 34
0.0
 50
90.0
  0
LINE
  5
F0
  8
┌▓È_1
  6
BORDER
 62
     3
 10
767.83542874449984
 20
-187.8009259948
 30
0.0
 11
774.83542874449984
 21
-187.8009259948
 31
0.0
  0
LINE
  5
F1
  8
┌▓È_1
 62
     5
 10
768.58542874449984
 20
-181.90092599479999
 30
0.0
 11
768.58542874449984
 21
-189.7009259948
 31
0.0
  0
ARC
  5
F2
  8
┌▓È_1
 62
     5
 10
766.38542874449979
 20
-189.7009259948
 30
0.0
 40
2.2000000000000002
 50
270.0
 51
0.0
  0
LINE
  5
F3
  8
┌▓È_1
  6
BORDER
 62
     3
 10
752.98547503220004
 20
-198.77918039229999
 30
0.0
 11
769.98538245669999
 21
-198.77918039229999
 31
0.0
  0
ARC
  5
F4
  8
┌▓È_1
 62
     5
 10
764.98538245669977
 20
-198.77918039229999
 30
0.0
 40
3.5
 50
112.9653472028
 51
12.000652797200001
  0
CIRCLE
  5
F5
  8
┌▓È_1
 62
     5
 10
764.98538245669977
 20
-198.77918039229999
 30
0.0
 40
1.8999999999999999
  0
LINE
  5
F6
  8
┌▓È_1
 62
     5
 10
773.93542874449975
 20
-193.7009259948
 30
0.0
 11
767.5482110273
 21
-193.7009259948
 31
0.0
  0
LINE
  5
F7
  8
┌▓È_1
 62
     5
 10
767.38542874450002
 20
-179.40092599479999
 30
0.0
 11
767.38542874450002
 21
-189.7009259948
 31
0.0
  0
ARC
  5
F8
  8
┌▓È_1
 62
     5
 10
766.38542874449979
 20
-189.7009259948
 30
0.0
 40
1.0
 50
270.0
 51
0.0
  0
LINE
  5
F9
  8
┌▓È_1
 62
     5
 10
773.93542874449975
 20
-181.90092599479999
 30
0.0
 11
767.38542874450002
 21
-181.90092599479999
 31
0.0
  0
LINE
  5
FA
  8
┌▓È_1
 62
     5
 10
755.58542874449984
 20
-179.40092599479999
 30
0.0
 11
767.38542874450002
 21
-179.40092599479999
 31
0.0
  0
LINE
  5
FB
  8
┌▓È_1
 62
     5
 10
765.68239358000005
 20
-191.69275411500001
 30
0.0
 11
769.53172575270003
 21
-195.8960661815
 31
0.0
  0
LINE
  5
FC
  8
┌▓È_1
  6
DIVIDE
 62
     4
 10
865.15746557509999
 20
-196.88978355090001
 30
0.0
 11
975.15746557509988
 21
-196.88978355090001
 31
0.0
  0
INSERT
  5
FD
  8
0
  6
CONTINUOUS
  2
*U39
 10
0.0
 20
0.0
 30
0.0
  0
INSERT
  5
FE
  8
0
  6
CONTINUOUS
  2
*U40
 10
0.0
 20
0.0
 30
0.0
  0
LINE
  5
FF
  8
┌▓È_1
 10
875.15746557509988
 20
-251.38978355090001
 30
0.0
 11
975.15746557509988
 21
-251.38978355090001
 31
0.0
  0
LINE
  5
100
  8
┌▓È_1
 10
875.15746557509988
 20
-256.38978355090001
 30
0.0
 11
975.15746557509988
 21
-256.38978355090001
 31
0.0
  0
LINE
  5
101
  8
┌▓È_1
 10
875.15746557509988
 20
-261.38978355090001
 30
0.0
 11
975.15746557509988
 21
-261.38978355090001
 31
0.0
  0
LINE
  5
102
  8
┌▓È_1
 10
875.15746557509988
 20
-266.38978355090001
 30
0.0
 11
975.15746557509988
 21
-266.38978355090001
 31
0.0
  0
LINE
  5
103
  8
┌▓È_1
 10
875.15746557509988
 20
-271.38978355090001
 30
0.0
 11
975.15746557509988
 21
-271.38978355090001
 31
0.0
  0
LINE
  5
104
  8
┌▓È_1
 10
875.15746557509988
 20
-276.38978355090001
 30
0.0
 11
975.15746557509988
 21
-276.38978355090001
 31
0.0
  0
LINE
  5
105
  8
┌▓È_1
 10
875.15746557509988
 20
-281.38978355090001
 30
0.0
 11
975.15746557509988
 21
-281.38978355090001
 31
0.0
  0
LINE
  5
106
  8
┌▓È_1
 10
875.15746557509988
 20
-286.38978355090001
 30
0.0
 11
975.15746557509988
 21
-286.38978355090001
 31
0.0
  0
INSERT
  5
107
  8
0
  6
CONTINUOUS
  2
*U41
 10
0.0
 20
0.0
 30
0.0
  0
INSERT
  5
108
  8
0
  6
CONTINUOUS
  2
*U42
 10
0.0
 20
0.0
 30
0.0
  0
INSERT
  5
109
  8
0
  6
CONTINUOUS
  2
*U43
 10
0.0
 20
0.0
 30
0.0
  0
INSERT
  5
10A
  8
0
  6
CONTINUOUS
  2
*U44
 10
0.0
 20
0.0
 30
0.0
  0
INSERT
  5
10B
  8
0
  6
CONTINUOUS
  2
*U45
 10
0.0
 20
0.0
 30
0.0
  0
INSERT
  5
10C
  8
0
  6
CONTINUOUS
  2
*U46
 10
0.0
 20
0.0
 30
0.0
  0
LINE
  5
10D
  8
┌▓È_1
 10
905.15746557509999
 20
-295.63978355090001
 30
0.0
 11
917.15746557509988
 21
-295.63978355090001
 31
0.0
  0
LINE
  5
10E
  8
┌▓È_1
 10
905.15746557509999
 20
-304.13978355090001
 30
0.0
 11
917.15746557509988
 21
-304.13978355090001
 31
0.0
  0
INSERT
  5
10F
  8
0
  6
CONTINUOUS
  2
*U47
 10
0.0
 20
0.0
 30
0.0
  0
INSERT
  5
110
  8
0
  6
CONTINUOUS
  2
*U48
 10
0.0
 20
0.0
 30
0.0
  0
INSERT
  5
111
  8
0
  6
CONTINUOUS
  2
*U49
 10
0.0
 20
0.0
 30
0.0
  0
LINE
  5
112
  8
┌▓È_1
 62
     5
 10
907.25713790820009
 20
-313.2016451774
 30
0.0
 11
907.25713790820009
 21
-314.64164517739999
 31
0.0
  0
LINE
  5
113
  8
┌▓È_1
 62
     5
 10
907.25713790820009
 20
-312.56164517740001
 30
0.0
 11
909.67847124149989
 21
-312.56164517740001
 31
0.0
  0
LINE
  5
114
  8
┌▓È_1
 62
     5
 10
907.25713790820009
 20
-311.12164517740001
 30
0.0
 11
909.25607124149997
 21
-311.12164517740001
 31
0.0
  0
LINE
  5
115
  8
┌▓È_1
 62
     5
 10
756.75920018539989
 20
-237.9079625327
 30
0.0
 11
755.58542874449984
 21
-237.9079625327
 31
0.0
  0
INSERT
  5
117
  8
┌▓È_1
  2
CLUMP3
 10
0.0
 20
0.0
 30
0.0
  0
LINE
  5
11D
  8
┌▓È_1
 62
     5
 10
755.40969281319997
 20
-248.48369846400001
 30
0.0
 11
754.38542874450002
 21
-249.50796253269999
 31
0.0
  0
ARC
  5
11E
  8
┌▓È_1
 62
     5
 10
755.83395688190001
 20
-248.9079625327
 30
0.0
 40
0.6
 50
90.0
 51
135.0
  0
LINE
  5
11F
  8
┌▓È_1
 62
     5
 10
756.18542874449975
 20
-248.3079625327
 30
0.0
 11
756.18542874449975
 21
-247.60796253269999
 31
0.0
  0
LINE
  5
120
  8
┌▓È_1
 62
     5
 10
755.58542874449984
 20
-247.60796253269999
 30
0.0
 11
755.58542874449984
 21
-248.3079625327
 31
0.0
  0
LINE
  5
121
  8
┌▓È_1
 62
     5
 10
748.0354287445
 20
-249.50796253269999
 30
0.0
 11
748.0354287445
 21
-250.10796253269999
 31
0.0
  0
LINE
  5
122
  8
┌▓È_1
 62
     5
 10
754.38542874450002
 20
-249.50796253269999
 30
0.0
 11
748.0354287445
 21
-249.50796253269999
 31
0.0
  0
LINE
  5
123
  8
┌▓È_1
 62
     5
 10
756.18542874449975
 20
-238.3108827028
 30
0.0
 11
756.18542874449975
 21
-237.9079625327
 31
0.0
  0
LINE
  5
124
  8
┌▓È_1
 62
     5
 10
755.58542874449984
 20
-237.3079625327
 30
0.0
 11
755.58542874449984
 21
-238.60796253269999
 31
0.0
  0
LINE
  5
125
  8
┌▓È_1
  6
BORDER
 62
     3
 10
764.98538245669977
 20
-250.10796253269999
 30
0.0
 11
764.98538245669977
 21
-235.3079625327
 31
0.0
  0
LINE
  5
126
  8
┌▓È_1
  6
BORDER
 62
     3
 10
757.98547503220004
 20
-250.10796253269999
 30
0.0
 11
757.98547503220004
 21
-235.3079625327
 31
0.0
  0
LINE
  5
127
  8
┌▓È_1
  6
BORDER
 62
     3
 10
761.48542874449981
 20
-253.10796253269999
 30
0.0
 11
761.48542874449981
 21
-233.3079625327
 31
0.0
  0
DIMENSION
  5
136
  8
Éíû@É³
  2
*D17
 10
938.41549059879992
 20
-183.4731901063
 30
0.0
 11
938.41549059879992
 21
-177.51855486229999
 31
0.0
 70
   128
  1
12
 13
928.41549059880003
 23
-183.4731901063
 33
0.0
 14
918.05746579740003
 24
-171.5639196182
 34
0.0
 50
90.0
  0
LINE
  5
137
  8
┌▓È_1
  6
DIVIDE
 62
     4
 10
865.15746557509999
 20
-196.88978355090001
 30
0.0
 11
865.15746557509999
 21
-126.88978355090001
 31
0.0
  0
LINE
  5
138
  8
┌▓È_1
 10
925.15746557509988
 20
-291.38978355090001
 30
0.0
 11
925.15746557509988
 21
-251.38978355090001
 31
0.0
  0
LINE
  5
139
  8
┌▓È_1
 10
965.15746557510022
 20
-291.38978355090001
 30
0.0
 11
965.15746557510022
 21
-251.38978355090001
 31
0.0
  0
LINE
  5
13A
  8
┌▓È_1
 10
875.15746557509988
 20
-251.38978355090001
 30
0.0
 11
875.15746557509988
 21
-291.38978355090001
 31
0.0
  0
LINE
  5
13B
  8
┌▓È_1
 10
883.65746557509999
 20
-291.38978355090001
 30
0.0
 11
883.65746557509999
 21
-251.38978355090001
 31
0.0
  0
INSERT
  5
13D
  8
Éíû@É³
  2
BALLON3
 10
0.0
 20
0.0
 30
0.0
  0
DIMENSION
  5
14D
  8
Éíû@É³
  2
*D20
 10
910.22421330760005
 20
-152.70365004429999
 30
0.0
 11
880.07186300169985
 21
-162.7635107676
 31
0.0
 70
   131
  1
2-%%c<>
 15
907.89071828729993
 25
-154.2511644999
 35
0.0
 40
0.0
  0
DIMENSION
  5
15C
  8
Éíû@É³
  2
*D21
 10
930.05746579739991
 20
-137.77681345490001
 30
0.0
 11
918.05746579740003
 21
-137.77681345490001
 31
0.0
 70
   128
  1
24.5
 13
930.05746579739991
 23
-149.87740727209999
 33
0.0
 14
906.05746579739991
 24
-149.87740727209999
 34
0.0
  0
INSERT
  5
15E
  8
Éíû@É³
  2
BALLON4
 10
0.0
 20
0.0
 30
0.0
  0
INSERT
  5
168
  8
┌▓È_1
  6
BORDER
  2
CLUMP4
 10
0.0
 20
0.0
 30
0.0
  0
INSERT
  5
17C
  8
┌▓È_1
  6
BORDER
  2
CLUMP5
 10
0.0
 20
0.0
 30
0.0
  0
LINE
  5
19C
  8
┌▓È_1
 62
     5
 10
827.00237625800014
 20
-248.3079625327
 30
0.0
 11
828.90237625799989
 21
-248.3079625327
 31
0.0
  0
LINE
  5
19D
  8
┌▓È_1
 62
     5
 10
827.00237625800014
 20
-248.9079625327
 30
0.0
 11
827.00237625800014
 21
-250.10796253269999
 31
0.0
  0
LINE
  5
19E
  8
┌▓È_1
 62
     5
 10
827.00237625800014
 20
-248.9079625327
 30
0.0
 11
827.00237625800014
 21
-248.3079625327
 31
0.0
  0
LINE
  5
19F
  8
┌▓È_1
 62
     5
 10
828.90237625799989
 20
-248.9079625327
 30
0.0
 11
827.00237625800014
 21
-248.9079625327
 31
0.0
  0
LINE
  5
1A0
  8
┌▓È_1
 62
     5
 10
811.22412186060001
 20
-246.80132667410001
 30
0.0
 11
811.22412186060001
 21
-247.2513266741
 31
0.0
  0
LINE
  5
1A1
  8
┌▓È_1
  6
STITCH
 10
813.62412186059987
 20
-246.80132667410001
 30
0.0
 11
812.45437588399989
 21
-246.80132667410001
 31
0.0
  0
LINE
  5
1A2
  8
┌▓È_1
  6
BORDER
 62
     3
 10
804.62412186059987
 20
-243.2513266741
 30
0.0
 11
815.62412186059998
 21
-243.2513266741
 31
0.0
  0
LINE
  5
1A3
  8
┌▓È_1
 62
     5
 10
774.93542874449975
 20
-249.50796253269999
 30
0.0
 11
774.93542874449975
 21
-250.10796253269999
 31
0.0
  0
LINE
  5
1A4
  8
┌▓È_1
 62
     5
 10
807.42412186059971
 20
-239.2513266741
 30
0.0
 11
812.45437588399989
 21
-239.2513266741
 31
0.0
  0
LINE
  5
1A5
  8
┌▓È_1
 62
     5
 10
807.42412186059971
 20
-238.7513266741
 30
0.0
 11
820.70237625799984
 21
-238.7513266741
 31
0.0
  0
LINE
  5
1A6
  8
┌▓È_1
 62
     5
 10
811.22412186060001
 20
-239.2513266741
 30
0.0
 11
811.22412186060001
 21
-239.70132667409999
 31
0.0
  0
LINE
  5
1A7
  8
┌▓È_1
  6
STITCH
 10
813.62412186059987
 20
-239.70132667409999
 30
0.0
 11
812.45437588399989
 21
-239.70132667409999
 31
0.0
  0
LINE
  5
1A8
  8
┌▓È_1
 62
     5
 10
806.62412186059998
 20
-239.70132667409999
 30
0.0
 11
812.45437588399989
 21
-239.70132667409999
 31
0.0
  0
INSERT
  5
1AA
  8
┌▓È_1
  2
CLUMP6
 10
0.0
 20
0.0
 30
0.0
  0
LINE
  5
1B0
  8
┌▓È_1
 62
     5
 10
809.02412186059973
 20
-239.2513266741
 30
0.0
 11
809.02412186059973
 21
-239.70132667409999
 31
0.0
  0
LINE
  5
1B1
  8
┌▓È_1
 62
     5
 10
807.42412186059971
 20
-238.7513266741
 30
0.0
 11
807.42412186059971
 21
-239.2513266741
 31
0.0
  0
LINE
  5
1B2
  8
┌▓È_1
 62
     5
 10
820.70237625799984
 20
-237.9079625327
 30
0.0
 11
820.70237625799984
 21
-248.3079625327
 31
0.0
  0
LINE
  5
1B3
  8
┌▓È_1
  6
BORDER
 62
     3
 10
810.12412186059998
 20
-235.7513266741
 30
0.0
 11
810.12412186059998
 21
-250.2513266741
 31
0.0
  0
LINE
  5
1B4
  8
┌▓È_1
 62
     5
 10
812.45437588399989
 20
-239.2513266741
 30
0.0
 11
812.45437588399989
 21
-247.2513266741
 31
0.0
  0
LINE
  5
1B5
  8
┌▓È_1
  6
STITCH
 10
813.62412186059987
 20
-239.70132667409999
 30
0.0
 11
813.62412186059987
 21
-246.80132667410001
 31
0.0
  0
LINE
  5
1B6
  8
┌▓È_1
 62
     5
 10
813.00723607140014
 20
-238.7513266741
 30
0.0
 11
813.00723607140014
 21
-247.7513266741
 31
0.0
  0
LINE
  5
1B7
  8
┌▓È_1
 62
     5
 10
829.50237625799991
 20
-237.9079625327
 30
0.0
 11
829.50237625799991
 21
-248.3079625327
 31
0.0
  0
LINE
  5
1B8
  8
┌▓È_1
 62
     5
 10
806.62412186059998
 20
-239.70132667409999
 30
0.0
 11
806.62412186059998
 21
-246.80132667410001
 31
0.0
  0
LINE
  5
1B9
  8
┌▓È_1
  6
STITCH
 10
828.90237625799989
 20
-237.9079625327
 30
0.0
 11
828.90237625799989
 21
-248.3079625327
 31
0.0
  0
LINE
  5
1BA
  8
┌▓È_1
 62
     5
 10
763.75910760989996
 20
-237.9079625327
 30
0.0
 11
759.21174987910001
 21
-237.9079625327
 31
0.0
  0
INSERT
  5
1BB
  8
0
  6
CONTINUOUS
  2
*U50
 10
0.0
 20
0.0
 30
0.0
  0
DIMENSION
  5
1CA
  8
Éíû@É³
  2
*D27
 10
797.26092783429965
 20
-243.2513266741
 30
0.0
 11
797.26092783429965
 21
-246.67964460339999
 31
0.0
 70
   128
  1
(7)
 13
804.62412186059987
 23
-243.2513266741
 33
0.0
 14
815.20237625799984
 24
-250.10796253269999
 34
0.0
 50
90.0
  0
LINE
  5
1CB
  8
┌▓È_1
 62
     5
 10
818.20237625799984
 20
-237.3079625327
 30
0.0
 11
818.20237625799984
 21
-237.9079625327
 31
0.0
  0
LINE
  5
1CC
  8
┌▓È_1
 62
     5
 10
818.20237625799984
 20
-237.3079625327
 30
0.0
 11
828.90237625799989
 21
-237.3079625327
 31
0.0
  0
ARC
  5
1CD
  8
┌▓È_1
 62
     5
 10
828.90237625799989
 20
-237.9079625327
 30
0.0
 40
0.6
 50
0.0
 51
90.0
  0
INSERT
  5
1CF
  8
┌▓È_1
  2
CLUMP7
 10
0.0
 20
0.0
 30
0.0
  0
LINE
  5
1D5
  8
┌▓È_1
 62
     5
 10
818.20237625799984
 20
-237.9079625327
 30
0.0
 11
828.90237625799989
 21
-237.9079625327
 31
0.0
  0
LINE
  5
1D6
  8
┌▓È_1
 62
     5
 10
806.62412186059998
 20
-246.80132667410001
 30
0.0
 11
812.45437588399989
 21
-246.80132667410001
 31
0.0
  0
LINE
  5
1D7
  8
┌▓È_1
 62
     5
 10
815.20237625799984
 20
-249.50796253269999
 30
0.0
 11
827.00237625800014
 21
-249.50796253269999
 31
0.0
  0
LINE
  5
1D8
  8
┌▓È_1
  6
STITCH
 10
827.00237625800014
 20
-248.9079625327
 30
0.0
 11
818.4509043953999
 21
-248.9079625327
 31
0.0
  0
LINE
  5
1D9
  8
┌▓È_1
  6
STITCH
 10
818.4509043953999
 20
-248.9079625327
 30
0.0
 11
817.25090439539986
 21
-250.10796253269999
 31
0.0
  0
ARC
  5
1DA
  8
┌▓È_1
 62
     5
 10
828.90237625799989
 20
-248.3079625327
 30
0.0
 40
0.6
 50
270.0
 51
0.0
  0
LINE
  5
1DB
  8
┌▓È_1
 62
     5
 10
827.00237625800014
 20
-248.3079625327
 30
0.0
 11
818.4509043953999
 21
-248.3079625327
 31
0.0
  0
LINE
  5
1DC
  8
┌▓È_1
 62
     5
 10
818.02664032669975
 20
-248.48369846400001
 30
0.0
 11
817.00237625799991
 21
-249.50796253269999
 31
0.0
  0
ARC
  5
1DD
  8
┌▓È_1
 62
     5
 10
818.4509043953999
 20
-248.9079625327
 30
0.0
 40
0.6
 50
90.0
 51
135.0
  0
LINE
  5
1DE
  8
┌▓È_1
 62
     5
 10
815.20237625799984
 20
-250.10796253269999
 30
0.0
 11
815.20237625799984
 21
-249.50796253269999
 31
0.0
  0
LINE
  5
1DF
  8
┌▓È_1
 62
     5
 10
827.00237625800014
 20
-250.10796253269999
 30
0.0
 11
815.20237625799984
 21
-250.10796253269999
 31
0.0
  0
LINE
  5
1E0
  8
┌▓È_1
 62
     5
 10
811.62412186059987
 20
-248.2513266741
 30
0.0
 11
811.62412186059987
 21
-247.7513266741
 31
0.0
  0
LINE
  5
1E1
  8
┌▓È_1
 62
     5
 10
810.12412186059998
 20
-248.2513266741
 30
0.0
 11
811.62412186059987
 21
-248.2513266741
 31
0.0
  0
LINE
  5
1E2
  8
┌▓È_1
 62
     5
 10
808.62412186059998
 20
-248.2513266741
 30
0.0
 11
808.62412186059998
 21
-247.7513266741
 31
0.0
  0
LINE
  5
1E3
  8
┌▓È_1
 62
     5
 10
810.12412186059998
 20
-248.2513266741
 30
0.0
 11
808.62412186059998
 21
-248.2513266741
 31
0.0
  0
LINE
  5
1E4
  8
┌▓È_1
 62
     5
 10
809.02412186059973
 20
-246.80132667410001
 30
0.0
 11
809.02412186059973
 21
-247.2513266741
 31
0.0
  0
LINE
  5
1E5
  8
┌▓È_1
 62
     5
 10
807.42412186059971
 20
-247.2513266741
 30
0.0
 11
812.45437588399989
 21
-247.2513266741
 31
0.0
  0
LINE
  5
1E6
  8
┌▓È_1
 62
     5
 10
807.42412186059971
 20
-247.7513266741
 30
0.0
 11
820.70237625799984
 21
-247.7513266741
 31
0.0
  0
LINE
  5
1E7
  8
┌▓È_1
 62
     5
 10
807.42412186059971
 20
-247.7513266741
 30
0.0
 11
807.42412186059971
 21
-247.2513266741
 31
0.0
  0
LINE
  5
1E8
  8
┌▓È_1
 62
     5
 10
762.59082322220002
 20
-197.53174860159999
 30
0.0
 11
764.53851617860005
 21
-193.79297411330001
 31
0.0
  0
ARC
  5
1E9
  8
┌▓È_1
 62
     5
 10
763.65164238809984
 20
-193.330962339
 30
0.0
 40
1.0
 50
332.483
 51
21.599177961199999
  0
LINE
  5
1EA
  8
┌▓È_1
 62
     5
 10
764.58142415550003
 20
-192.96285112609999
 30
0.0
 11
764.06028583509999
 21
-191.64655080270001
 31
0.0
  0
ARC
  5
1EB
  8
┌▓È_1
 62
     5
 10
763.13050406770003
 20
-192.01466201560001
 30
0.0
 40
1.0
 50
21.599177961199999
 51
72.483000000000004
  0
LINE
  5
1EC
  8
┌▓È_1
 62
     5
 10
753.43913173630006
 20
-195.8960661815
 30
0.0
 11
755.59091579770006
 21
-200.02661218290001
 31
0.0
  0
LINE
  5
1ED
  8
┌▓È_1
 62
     5
 10
760.38003426679995
 20
-197.53174860159999
 30
0.0
 11
758.43234131029999
 21
-193.79297411330001
 31
0.0
  0
ARC
  5
1EE
  8
┌▓È_1
 62
     5
 10
759.31921510090001
 20
-193.330962339
 30
0.0
 40
1.0
 50
158.40082203879999
 51
207.51699999999991
  0
LINE
  5
1EF
  8
┌▓È_1
 62
     5
 10
758.38943333350005
 20
-192.96285112609999
 30
0.0
 11
758.91057165389975
 21
-191.64655080270001
 31
0.0
  0
LINE
  5
1F0
  8
┌▓È_1
 62
     5
 10
750.13542874450002
 20
-190.25092599480001
 30
0.0
 11
750.13542874450002
 21
-185.35092599480001
 31
0.0
  0
ARC
  5
1F1
  8
┌▓È_1
 62
     5
 10
749.0354287445
 20
-192.7009259948
 30
0.0
 40
1.0
 50
180.0
 51
270.0
  0
ARC
  5
1F2
  8
┌▓È_1
 62
     5
 10
749.0354287445
 20
-182.90092599479999
 30
0.0
 40
1.0
 50
90.0
 51
180.0
  0
LINE
  5
1F3
  8
┌▓È_1
 62
     5
 10
748.0354287445
 20
-182.90092599479999
 30
0.0
 11
748.0354287445
 21
-192.7009259948
 31
0.0
  0
ARC
  5
1F4
  8
┌▓È_1
 62
     5
 10
751.63542874450002
 20
-190.25092599480001
 30
0.0
 40
1.5
 50
180.0
 51
0.0
  0
LINE
  5
1F5
  8
┌▓È_1
 62
     5
 10
755.47617204489995
 20
-193.7009259948
 30
0.0
 11
749.0354287445
 21
-193.7009259948
 31
0.0
  0
ARC
  5
1F6
  8
┌▓È_1
 62
     5
 10
751.63542874450002
 20
-185.35092599480001
 30
0.0
 40
1.5
 50
0.0
 51
180.0
  0
LINE
  5
1F7
  8
┌▓È_1
 62
     5
 10
755.58542874449984
 20
-181.90092599479999
 30
0.0
 11
749.0354287445
 21
-181.90092599479999
 31
0.0
  0
LINE
  5
1F8
  8
┌▓È_1
  6
BORDER
 62
     3
 10
748.13542874450002
 20
-187.8009259948
 30
0.0
 11
755.13542874450002
 21
-187.8009259948
 31
0.0
  0
INSERT
  5
1FA
  8
Éíû@É³
  2
BALLON5
 10
0.0
 20
0.0
 30
0.0
  0
CIRCLE
  5
203
  8
┌▓È_1
  6
STITCH
 10
761.48542874449981
 20
-187.3009259948
 30
0.0
 40
1.5
  0
LINE
  5
204
  8
┌▓È_1
  6
STITCH
 10
761.22495687160006
 20
-185.8237142959
 30
0.0
 11
761.22495647799985
 21
-185.82371436529991
 31
0.0
  0
LINE
  5
205
  8
┌▓È_1
  6
STITCH
 10
755.58513131749999
 20
-181.69410066559999
 30
0.0
 11
762.30061719339983
 21
-186.04177239309999
 31
0.0
  0
LINE
  5
206
  8
┌▓È_1
  6
STITCH
 10
755.96555259360002
 20
-181.1064956514
 30
0.0
 11
755.58513131749999
 21
-181.69410066559999
 31
0.0
  0
LINE
  5
207
  8
┌▓È_1
  6
STITCH
 10
762.68103780899992
 20
-185.45416695130001
 30
0.0
 11
755.96555259360002
 21
-181.1064956514
 31
0.0
  0
ARC
  5
208
  8
┌▓È_1
  6
STITCH
 10
761.48542874449981
 20
-187.3009259948
 30
0.0
 40
2.2000000000000002
 50
122.9194008891
 51
57.0806029528
  0
LINE
  5
209
  8
┌▓È_1
  6
BORDER
 62
     3
 10
758.06273370899999
 20
-187.3009259948
 30
0.0
 11
764.81805285799999
 21
-187.3009259948
 31
0.0
  0
INSERT
  5
20B
  8
Éíû@É³
  2
BALLON6
 10
0.0
 20
0.0
 30
0.0
  0
ARC
  5
214
  8
┌▓È_1
 62
     5
 10
756.58542874449984
 20
-189.7009259948
 30
0.0
 40
2.2000000000000002
 50
180.0
 51
270.0
  0
LINE
  5
215
  8
┌▓È_1
 62
     5
 10
764.18775866830003
 20
-191.90092599479999
 30
0.0
 11
758.83662440390003
 21
-191.90092599479999
 31
0.0
  0
LINE
  5
216
  8
┌▓È_1
 62
     5
 10
766.38542874449979
 20
-191.90092599479999
 30
0.0
 11
765.89979715720006
 21
-191.90092599479999
 31
0.0
  0
LINE
  5
217
  8
┌▓È_1
 62
     5
 10
757.12458591500001
 20
-191.90092599479999
 30
0.0
 11
756.58542874449984
 21
-191.90092599479999
 31
0.0
  0
LINE
  5
218
  8
┌▓È_1
 62
     5
 10
754.38542874450002
 20
-189.7009259948
 30
0.0
 11
754.38542874450002
 21
-181.90092599479999
 31
0.0
  0
LINE
  5
219
  8
┌▓È_1
  6
BORDER
 62
     3
 10
764.98538245669977
 20
-203.77918039229999
 30
0.0
 11
764.98538245669977
 21
-193.77918039229999
 31
0.0
  0
LINE
  5
21A
  8
┌▓È_1
  6
BORDER
 62
     3
 10
757.98547503220004
 20
-203.77918039229999
 30
0.0
 11
757.98547503220004
 21
-193.77918039229999
 31
0.0
  0
LINE
  5
21B
  8
┌▓È_1
 62
     5
 10
753.13542874450002
 20
-185.35092599480001
 30
0.0
 11
753.13542874450002
 21
-190.25092599480001
 31
0.0
  0
ARC
  5
21C
  8
┌▓È_1
 62
     5
 10
759.84035342120001
 20
-192.01466201560001
 30
0.0
 40
1.0
 50
107.517
 51
158.40082203879999
  0
LINE
  5
21D
  8
┌▓È_1
 62
     5
 10
760.68030187570002
 20
-190.7009259948
 30
0.0
 11
759.53936466149992
 21
-191.06103432809999
 31
0.0
  0
LINE
  5
21E
  8
┌▓È_1
 62
     5
 10
762.29055561329983
 20
-190.7009259948
 30
0.0
 11
763.43149282750005
 21
-191.06103432809999
 31
0.0
  0
ARC
  5
21F
  8
┌▓È_1
 62
     5
 10
757.98547503220004
 20
-198.77918039229999
 30
0.0
 40
3.5
 50
167.99934720280001
 51
67.034652797199996
  0
LINE
  5
220
  8
┌▓È_1
  6
BORDER
 62
     3
 10
761.48542874449981
 20
-176.40092599479999
 30
0.0
 11
761.48542874449981
 21
-206.40092599479999
 31
0.0
  0
LINE
  5
221
  8
┌▓È_1
 62
     5
 10
766.38542874449979
 20
-190.7009259948
 30
0.0
 11
756.58542874449984
 21
-190.7009259948
 31
0.0
  0
ARC
  5
222
  8
┌▓È_1
 62
     5
 10
756.58542874449984
 20
-189.7009259948
 30
0.0
 40
1.0
 50
180.0
 51
270.0
  0
LINE
  5
223
  8
┌▓È_1
 62
     5
 10
764.60745140749987
 20
-193.7009259948
 30
0.0
 11
758.41693166469975
 21
-193.7009259948
 31
0.0
  0
CIRCLE
  5
224
  8
┌▓È_1
 62
     5
 10
761.51219153609975
 20
-187.3009259948
 30
0.0
 40
1.8999999999999999
  0
LINE
  5
225
  8
┌▓È_1
 62
     5
 10
755.58542874449984
 20
-189.7009259948
 30
0.0
 11
755.58542874449984
 21
-179.40092599479999
 31
0.0
  0
CIRCLE
  5
226
  8
┌▓È_1
 62
     5
 10
757.98547503220004
 20
-198.77918039229999
 30
0.0
 40
1.8999999999999999
  0
LINE
  5
227
  8
┌▓È_1
  6
BORDER
 62
     3
 10
751.63542874450002
 20
-181.8009259948
 30
0.0
 11
751.63542874450002
 21
-193.8009259948
 31
0.0
  0
ARC
  5
228
  8
┌▓È_1
 62
     5
 10
767.157349092
 20
-190.3420112684
 30
0.0
 40
2.0
 50
190.33815435119999
 51
222.483
  0
ARC
  5
229
  8
┌▓È_1
 62
     5
 10
755.81350839699985
 20
-190.3420112684
 30
0.0
 40
2.0
 50
317.517
 51
349.66184564880001
  0
ARC
  5
22A
  8
┌▓È_1
 62
     5
 10
757.98547503220004
 20
-198.77918039229999
 30
0.0
 40
2.7000000000000002
 50
207.51699547870001
 51
27.5170019113
  0
LINE
  5
22B
  8
┌▓È_1
 62
     5
 10
757.28846390899969
 20
-191.69275411500001
 30
0.0
 11
753.43913173630006
 21
-195.8960661815
 31
0.0
  0
LINE
  5
22C
  8
┌▓È_1
 62
     5
 10
894.95466694109984
 20
-312.96164517739999
 30
0.0
 11
894.95466694109984
 21
-312.56164517740001
 31
0.0
  0
LINE
  5
22D
  8
┌▓È_1
 62
     5
 10
898.28315178949981
 20
-311.6193333914
 30
0.0
 11
901.48315178949997
 21
-311.6193333914
 31
0.0
  0
LINE
  5
22E
  8
┌▓È_1
 62
     5
 10
901.91220178289996
 20
-312.57690190149998
 30
0.0
 11
901.71972513779997
 21
-312.78949259000001
 31
0.0
  0
ARC
  5
22F
  8
┌▓È_1
 62
     5
 10
891.75466694110014
 20
-312.96164517739999
 30
0.0
 40
1.1999999999999991
 50
270.0
 51
0.0
  0
LINE
  5
230
  8
┌▓È_1
 62
     5
 10
892.95466694109973
 20
-309.7616451774
 30
0.0
 11
892.95466694109973
 21
-311.36164517740002
 31
0.0
  0
LINE
  5
231
  8
┌▓È_1
 62
     5
 10
904.68315178950002
 20
-310.96164517739999
 30
0.0
 11
905.48315178949974
 21
-309.7616451774
 31
0.0
  0
LINE
  5
232
  8
┌▓È_1
 62
     5
 10
894.95466694109984
 20
-310.96164517739999
 30
0.0
 11
896.15466694109989
 21
-309.7616451774
 31
0.0
  0
LINE
  5
233
  8
┌▓È_1
 62
     5
 10
889.35466694110005
 20
-313.7616451774
 30
0.0
 11
891.35466694110005
 21
-313.7616451774
 31
0.0
  0
LINE
  5
234
  8
┌▓È_1
 62
     5
 10
905.48315178949974
 20
-309.7616451774
 30
0.0
 11
898.28315178949981
 21
-309.7616451774
 31
0.0
  0
ARC
  5
235
  8
┌▓È_1
 62
     5
 10
900.28315178950004
 20
-310.96164517739999
 30
0.0
 40
4.4000000000000004
 50
322.48761197969998
 51
0.0
  0
LINE
  5
236
  8
┌▓È_1
 62
     5
 10
891.35466694110005
 20
-312.56164517740001
 30
0.0
 11
892.95466694109973
 21
-312.56164517740001
 31
0.0
  0
POLYLINE
  5
3E9
  8
┌▓È_1
 62
     5
 66
     1
 10
0.0
 20
0.0
 30
0.0
 70
     8
  0
VERTEX
  5
3EA
  8
┌▓È_1
 62
     5
 10
901.03099999999995
 20
-312.072
 30
0.0
 70
    32
  0
VERTEX
  5
3EB
  8
┌▓È_1
 62
     5
 10
901.03599999999994
 20
-312.07799999999997
 30
0.0
 70
    32
  0
VERTEX
  5
3EC
  8
┌▓È_1
 62
     5
 10
901.04100000000005
 20
-312.084
 30
0.0
 70
    32
  0
VERTEX
  5
3ED
  8
┌▓È_1
 62
     5
 10
901.04600000000005
 20
-312.08999999999997
 30
0.0
 70
    32
  0
VERTEX
  5
3EE
  8
┌▓È_1
 62
     5
 10
901.05199999999991
 20
-312.09500000000008
 30
0.0
 70
    32
  0
VERTEX
  5
3EF
  8
┌▓È_1
 62
     5
 10
901.0569999999999
 20
-312.101
 30
0.0
 70
    32
  0
VERTEX
  5
3F0
  8
┌▓È_1
 62
     5
 10
901.06200000000013
 20
-312.10700000000003
 30
0.0
 70
    32
  0
VERTEX
  5
3F1
  8
┌▓È_1
 62
     5
 10
901.06799999999998
 20
-312.113
 30
0.0
 70
    32
  0
VERTEX
  5
3F2
  8
┌▓È_1
 62
     5
 10
901.07299999999998
 20
-312.11900000000003
 30
0.0
 70
    32
  0
VERTEX
  5
3F3
  8
┌▓È_1
 62
     5
 10
901.07799999999997
 20
-312.125
 30
0.0
 70
    32
  0
VERTEX
  5
3F4
  8
┌▓È_1
 62
     5
 10
901.08299999999997
 20
-312.13099999999997
 30
0.0
 70
    32
  0
VERTEX
  5
3F5
  8
┌▓È_1
 62
     5
 10
901.08899999999994
 20
-312.137
 30
0.0
 70
    32
  0
VERTEX
  5
3F6
  8
┌▓È_1
 62
     5
 10
901.09399999999994
 20
-312.142
 30
0.0
 70
    32
  0
VERTEX
  5
3F7
  8
┌▓È_1
 62
     5
 10
901.09899999999993
 20
-312.14800000000002
 30
0.0
 70
    32
  0
VERTEX
  5
3F8
  8
┌▓È_1
 62
     5
 10
901.10500000000002
 20
-312.154
 30
0.0
 70
    32
  0
VERTEX
  5
3F9
  8
┌▓È_1
 62
     5
 10
901.11000000000001
 20
-312.16000000000003
 30
0.0
 70
    32
  0
VERTEX
  5
3FA
  8
┌▓È_1
 62
     5
 10
901.11500000000001
 20
-312.166
 30
0.0
 70
    32
  0
VERTEX
  5
3FB
  8
┌▓È_1
 62
     5
 10
901.12
 20
-312.17200000000003
 30
0.0
 70
    32
  0
VERTEX
  5
3FC
  8
┌▓È_1
 62
     5
 10
901.12600000000009
 20
-312.178
 30
0.0
 70
    32
  0
VERTEX
  5
3FD
  8
┌▓È_1
 62
     5
 10
901.13100000000009
 20
-312.18400000000003
 30
0.0
 70
    32
  0
VERTEX
  5
3FE
  8
┌▓È_1
 62
     5
 10
901.13600000000008
 20
-312.18900000000002
 30
0.0
 70
    32
  0
VERTEX
  5
3FF
  8
┌▓È_1
 62
     5
 10
901.14199999999994
 20
-312.19499999999999
 30
0.0
 70
    32
  0
VERTEX
  5
400
  8
┌▓È_1
 62
     5
 10
901.14699999999993
 20
-312.20099999999991
 30
0.0
 70
    32
  0
VERTEX
  5
401
  8
┌▓È_1
 62
     5
 10
901.15199999999993
 20
-312.20699999999999
 30
0.0
 70
    32
  0
VERTEX
  5
402
  8
┌▓È_1
 62
     5
 10
901.15699999999981
 20
-312.21300000000002
 30
0.0
 70
    32
  0
VERTEX
  5
403
  8
┌▓È_1
 62
     5
 10
901.16300000000001
 20
-312.21899999999999
 30
0.0
 70
    32
  0
VERTEX
  5
404
  8
┌▓È_1
 62
     5
 10
901.16800000000001
 20
-312.22500000000002
 30
0.0
 70
    32
  0
VERTEX
  5
405
  8
┌▓È_1
 62
     5
 10
901.173
 20
-312.23099999999999
 30
0.0
 70
    32
  0
VERTEX
  5
406
  8
┌▓È_1
 62
     5
 10
901.17899999999986
 20
-312.23599999999999
 30
0.0
 70
    32
  0
VERTEX
  5
407
  8
┌▓È_1
 62
     5
 10
901.18399999999986
 20
-312.24200000000002
 30
0.0
 70
    32
  0
VERTEX
  5
408
  8
┌▓È_1
 62
     5
 10
901.18899999999985
 20
-312.24799999999999
 30
0.0
 70
    32
  0
VERTEX
  5
409
  8
┌▓È_1
 62
     5
 10
901.19500000000005
 20
-312.25400000000002
 30
0.0
 70
    32
  0
VERTEX
  5
40A
  8
┌▓È_1
 62
     5
 10
901.20000000000005
 20
-312.25999999999999
 30
0.0
 70
    32
  0
VERTEX
  5
40B
  8
┌▓È_1
 62
     5
 10
901.20500000000004
 20
-312.26600000000002
 30
0.0
 70
    32
  0
VERTEX
  5
40C
  8
┌▓È_1
 62
     5
 10
901.21000000000004
 20
-312.27100000000002
 30
0.0
 70
    32
  0
VERTEX
  5
40D
  8
┌▓È_1
 62
     5
 10
901.21599999999989
 20
-312.27699999999999
 30
0.0
 70
    32
  0
VERTEX
  5
40E
  8
┌▓È_1
 62
     5
 10
901.22099999999989
 20
-312.28300000000002
 30
0.0
 70
    32
  0
VERTEX
  5
40F
  8
┌▓È_1
 62
     5
 10
901.22600000000011
 20
-312.28899999999999
 30
0.0
 70
    32
  0
VERTEX
  5
410
  8
┌▓È_1
 62
     5
 10
901.23199999999997
 20
-312.29500000000002
 30
0.0
 70
    32
  0
VERTEX
  5
411
  8
┌▓È_1
 62
     5
 10
901.23699999999997
 20
-312.30099999999999
 30
0.0
 70
    32
  0
VERTEX
  5
412
  8
┌▓È_1
 62
     5
 10
901.24199999999996
 20
-312.30599999999998
 30
0.0
 70
    32
  0
VERTEX
  5
413
  8
┌▓È_1
 62
     5
 10
901.24800000000005
 20
-312.31200000000001
 30
0.0
 70
    32
  0
VERTEX
  5
414
  8
┌▓È_1
 62
     5
 10
901.25299999999993
 20
-312.31799999999998
 30
0.0
 70
    32
  0
VERTEX
  5
415
  8
┌▓È_1
 62
     5
 10
901.25799999999992
 20
-312.32400000000001
 30
0.0
 70
    32
  0
VERTEX
  5
416
  8
┌▓È_1
 62
     5
 10
901.2639999999999
 20
-312.32999999999998
 30
0.0
 70
    32
  0
VERTEX
  5
417
  8
┌▓È_1
 62
     5
 10
901.26899999999989
 20
-312.33499999999998
 30
0.0
 70
    32
  0
VERTEX
  5
418
  8
┌▓È_1
 62
     5
 10
901.27399999999989
 20
-312.34100000000001
 30
0.0
 70
    32
  0
VERTEX
  5
419
  8
┌▓È_1
 62
     5
 10
901.27999999999997
 20
-312.34699999999998
 30
0.0
 70
    32
  0
VERTEX
  5
41A
  8
┌▓È_1
 62
     5
 10
901.28499999999997
 20
-312.35300000000001
 30
0.0
 70
    32
  0
VERTEX
  5
41B
  8
┌▓È_1
 62
     5
 10
901.28999999999996
 20
-312.35899999999998
 30
0.0
 70
    32
  0
VERTEX
  5
41C
  8
┌▓È_1
 62
     5
 10
901.29600000000005
 20
-312.36399999999998
 30
0.0
 70
    32
  0
VERTEX
  5
41D
  8
┌▓È_1
 62
     5
 10
901.30100000000004
 20
-312.37
 30
0.0
 70
    32
  0
VERTEX
  5
41E
  8
┌▓È_1
 62
     5
 10
901.30600000000015
 20
-312.37599999999998
 30
0.0
 70
    32
  0
VERTEX
  5
41F
  8
┌▓È_1
 62
     5
 10
901.31200000000001
 20
-312.38200000000001
 30
0.0
 70
    32
  0
VERTEX
  5
420
  8
┌▓È_1
 62
     5
 10
901.31700000000001
 20
-312.387
 30
0.0
 70
    32
  0
VERTEX
  5
421
  8
┌▓È_1
 62
     5
 10
901.322
 20
-312.39299999999997
 30
0.0
 70
    32
  0
VERTEX
  5
422
  8
┌▓È_1
 62
     5
 10
901.32799999999986
 20
-312.399
 30
0.0
 70
    32
  0
VERTEX
  5
423
  8
┌▓È_1
 62
     5
 10
901.33300000000008
 20
-312.40499999999997
 30
0.0
 70
    32
  0
VERTEX
  5
424
  8
┌▓È_1
 62
     5
 10
901.33899999999994
 20
-312.41000000000003
 30
0.0
 70
    32
  0
VERTEX
  5
425
  8
┌▓È_1
 62
     5
 10
901.34399999999994
 20
-312.416
 30
0.0
 70
    32
  0
VERTEX
  5
426
  8
┌▓È_1
 62
     5
 10
901.34899999999993
 20
-312.42200000000003
 30
0.0
 70
    32
  0
VERTEX
  5
427
  8
┌▓È_1
 62
     5
 10
901.35500000000002
 20
-312.428
 30
0.0
 70
    32
  0
VERTEX
  5
428
  8
┌▓È_1
 62
     5
 10
901.36000000000001
 20
-312.43299999999999
 30
0.0
 70
    32
  0
VERTEX
  5
429
  8
┌▓È_1
 62
     5
 10
901.36500000000001
 20
-312.43900000000002
 30
0.0
 70
    32
  0
VERTEX
  5
42A
  8
┌▓È_1
 62
     5
 10
901.37100000000009
 20
-312.44499999999999
 30
0.0
 70
    32
  0
VERTEX
  5
42B
  8
┌▓È_1
 62
     5
 10
901.37600000000009
 20
-312.44999999999999
 30
0.0
 70
    32
  0
VERTEX
  5
42C
  8
┌▓È_1
 62
     5
 10
901.38199999999995
 20
-312.45600000000002
 30
0.0
 70
    32
  0
VERTEX
  5
42D
  8
┌▓È_1
 62
     5
 10
901.38699999999983
 20
-312.46199999999999
 30
0.0
 70
    32
  0
VERTEX
  5
42E
  8
┌▓È_1
 62
     5
 10
901.39199999999983
 20
-312.46800000000002
 30
0.0
 70
    32
  0
VERTEX
  5
42F
  8
┌▓È_1
 62
     5
 10
901.39800000000002
 20
-312.47300000000001
 30
0.0
 70
    32
  0
VERTEX
  5
430
  8
┌▓È_1
 62
     5
 10
901.40299999999991
 20
-312.47899999999998
 30
0.0
 70
    32
  0
VERTEX
  5
431
  8
┌▓È_1
 62
     5
 10
901.40899999999988
 20
-312.48500000000001
 30
0.0
 70
    32
  0
VERTEX
  5
432
  8
┌▓È_1
 62
     5
 10
901.41399999999987
 20
-312.49000000000001
 30
0.0
 70
    32
  0
VERTEX
  5
433
  8
┌▓È_1
 62
     5
 10
901.41999999999996
 20
-312.49599999999998
 30
0.0
 70
    32
  0
VERTEX
  5
434
  8
┌▓È_1
 62
     5
 10
901.42499999999995
 20
-312.50200000000001
 30
0.0
 70
    32
  0
VERTEX
  5
435
  8
┌▓È_1
 62
     5
 10
901.42999999999995
 20
-312.50700000000001
 30
0.0
 70
    32
  0
VERTEX
  5
436
  8
┌▓È_1
 62
     5
 10
901.43599999999992
 20
-312.51299999999998
 30
0.0
 70
    32
  0
VERTEX
  5
437
  8
┌▓È_1
 62
     5
 10
901.44099999999992
 20
-312.51799999999997
 30
0.0
 70
    32
  0
VERTEX
  5
438
  8
┌▓È_1
 62
     5
 10
901.44700000000012
 20
-312.524
 30
0.0
 70
    32
  0
VERTEX
  5
439
  8
┌▓È_1
 62
     5
 10
901.452
 20
-312.52999999999997
 30
0.0
 70
    32
  0
VERTEX
  5
43A
  8
┌▓È_1
 62
     5
 10
901.45799999999997
 20
-312.53500000000003
 30
0.0
 70
    32
  0
VERTEX
  5
43B
  8
┌▓È_1
 62
     5
 10
901.46299999999997
 20
-312.541
 30
0.0
 70
    32
  0
VERTEX
  5
43C
  8
┌▓È_1
 62
     5
 10
901.46899999999994
 20
-312.54700000000003
 30
0.0
 70
    32
  0
VERTEX
  5
43D
  8
┌▓È_1
 62
     5
 10
901.47399999999993
 20
-312.55200000000002
 30
0.0
 70
    32
  0
VERTEX
  5
43E
  8
┌▓È_1
 62
     5
 10
901.47899999999993
 20
-312.55799999999999
 30
0.0
 70
    32
  0
VERTEX
  5
43F
  8
┌▓È_1
 62
     5
 10
901.48500000000001
 20
-312.56299999999999
 30
0.0
 70
    32
  0
VERTEX
  5
440
  8
┌▓È_1
 62
     5
 10
901.49000000000001
 20
-312.56900000000002
 30
0.0
 70
    32
  0
VERTEX
  5
441
  8
┌▓È_1
 62
     5
 10
901.49599999999998
 20
-312.57400000000001
 30
0.0
 70
    32
  0
VERTEX
  5
442
  8
┌▓È_1
 62
     5
 10
901.50100000000009
 20
-312.57999999999998
 30
0.0
 70
    32
  0
VERTEX
  5
443
  8
┌▓È_1
 62
     5
 10
901.50699999999995
 20
-312.58499999999998
 30
0.0
 70
    32
  0
VERTEX
  5
444
  8
┌▓È_1
 62
     5
 10
901.51199999999994
 20
-312.59100000000001
 30
0.0
 70
    32
  0
VERTEX
  5
445
  8
┌▓È_1
 62
     5
 10
901.51800000000003
 20
-312.59699999999998
 30
0.0
 70
    32
  0
VERTEX
  5
446
  8
┌▓È_1
 62
     5
 10
901.52300000000002
 20
-312.60199999999998
 30
0.0
 70
    32
  0
VERTEX
  5
447
  8
┌▓È_1
 62
     5
 10
901.529
 20
-312.608
 30
0.0
 70
    32
  0
VERTEX
  5
448
  8
┌▓È_1
 62
     5
 10
901.53399999999999
 20
-312.613
 30
0.0
 70
    32
  0
VERTEX
  5
449
  8
┌▓È_1
 62
     5
 10
901.53999999999985
 20
-312.61900000000003
 30
0.0
 70
    32
  0
VERTEX
  5
44A
  8
┌▓È_1
 62
     5
 10
901.54499999999985
 20
-312.62400000000002
 30
0.0
 70
    32
  0
VERTEX
  5
44B
  8
┌▓È_1
 62
     5
 10
901.55100000000004
 20
-312.63
 30
0.0
 70
    32
  0
VERTEX
  5
44C
  8
┌▓È_1
 62
     5
 10
901.55700000000002
 20
-312.63499999999999
 30
0.0
 70
    32
  0
VERTEX
  5
44D
  8
┌▓È_1
 62
     5
 10
901.56200000000001
 20
-312.63999999999999
 30
0.0
 70
    32
  0
VERTEX
  5
44E
  8
┌▓È_1
 62
     5
 10
901.56799999999987
 20
-312.64600000000002
 30
0.0
 70
    32
  0
VERTEX
  5
44F
  8
┌▓È_1
 62
     5
 10
901.57299999999987
 20
-312.65100000000001
 30
0.0
 70
    32
  0
VERTEX
  5
450
  8
┌▓È_1
 62
     5
 10
901.57899999999995
 20
-312.65699999999998
 30
0.0
 70
    32
  0
VERTEX
  5
451
  8
┌▓È_1
 62
     5
 10
901.58399999999983
 20
-312.66199999999998
 30
0.0
 70
    32
  0
VERTEX
  5
452
  8
┌▓È_1
 62
     5
 10
901.59000000000003
 20
-312.66800000000001
 30
0.0
 70
    32
  0
VERTEX
  5
453
  8
┌▓È_1
 62
     5
 10
901.59500000000003
 20
-312.673
 30
0.0
 70
    32
  0
VERTEX
  5
454
  8
┌▓È_1
 62
     5
 10
901.60100000000011
 20
-312.678
 30
0.0
 70
    32
  0
VERTEX
  5
455
  8
┌▓È_1
 62
     5
 10
901.60699999999986
 20
-312.68400000000003
 30
0.0
 70
    32
  0
VERTEX
  5
456
  8
┌▓È_1
 62
     5
 10
901.61199999999985
 20
-312.68900000000002
 30
0.0
 70
    32
  0
VERTEX
  5
457
  8
┌▓È_1
 62
     5
 10
901.61800000000005
 20
-312.69499999999999
 30
0.0
 70
    32
  0
VERTEX
  5
458
  8
┌▓È_1
 62
     5
 10
901.62300000000005
 20
-312.69999999999999
 30
0.0
 70
    32
  0
VERTEX
  5
459
  8
┌▓È_1
 62
     5
 10
901.62899999999991
 20
-312.70499999999998
 30
0.0
 70
    32
  0
VERTEX
  5
45A
  8
┌▓È_1
 62
     5
 10
901.63499999999999
 20
-312.71100000000001
 30
0.0
 70
    32
  0
VERTEX
  5
45B
  8
┌▓È_1
 62
     5
 10
901.63999999999999
 20
-312.71600000000001
 30
0.0
 70
    32
  0
VERTEX
  5
45C
  8
┌▓È_1
 62
     5
 10
901.64599999999996
 20
-312.721
 30
0.0
 70
    32
  0
VERTEX
  5
45D
  8
┌▓È_1
 62
     5
 10
901.65199999999993
 20
-312.72699999999998
 30
0.0
 70
    32
  0
VERTEX
  5
45E
  8
┌▓È_1
 62
     5
 10
901.65699999999993
 20
-312.73200000000003
 30
0.0
 70
    32
  0
VERTEX
  5
45F
  8
┌▓È_1
 62
     5
 10
901.66300000000012
 20
-312.73700000000002
 30
0.0
 70
    32
  0
VERTEX
  5
460
  8
┌▓È_1
 62
     5
 10
901.66899999999998
 20
-312.74200000000002
 30
0.0
 70
    32
  0
VERTEX
  5
461
  8
┌▓È_1
 62
     5
 10
901.67399999999998
 20
-312.74799999999999
 30
0.0
 70
    32
  0
VERTEX
  5
462
  8
┌▓È_1
 62
     5
 10
901.67999999999995
 20
-312.75299999999999
 30
0.0
 70
    32
  0
VERTEX
  5
463
  8
┌▓È_1
 62
     5
 10
901.68600000000015
 20
-312.75799999999998
 30
0.0
 70
    32
  0
VERTEX
  5
464
  8
┌▓È_1
 62
     5
 10
901.69100000000014
 20
-312.76299999999998
 30
0.0
 70
    32
  0
VERTEX
  5
465
  8
┌▓È_1
 62
     5
 10
901.697
 20
-312.76900000000001
 30
0.0
 70
    32
  0
VERTEX
  5
466
  8
┌▓È_1
 62
     5
 10
901.70299999999997
 20
-312.774
 30
0.0
 70
    32
  0
VERTEX
  5
467
  8
┌▓È_1
 62
     5
 10
901.70800000000008
 20
-312.779
 30
0.0
 70
    32
  0
VERTEX
  5
468
  8
┌▓È_1
 62
     5
 10
901.71399999999994
 20
-312.78399999999999
 30
0.0
 70
    32
  0
VERTEX
  5
469
  8
┌▓È_1
 62
     5
 10
901.72000000000003
 20
-312.78899999999999
 30
0.0
 70
    32
  0
SEQEND
  5
46A
  8
┌▓È_1
 62
     5
  0
POLYLINE
  5
46B
  8
┌▓È_1
 62
     5
 66
     1
 10
0.0
 20
0.0
 30
0.0
 70
     8
  0
VERTEX
  5
46C
  8
┌▓È_1
 62
     5
 10
902.64999999999998
 20
-314.67099999999999
 30
0.0
 70
    32
  0
VERTEX
  5
46D
  8
┌▓È_1
 62
     5
 10
902.67200000000003
 20
-314.678
 30
0.0
 70
    32
  0
VERTEX
  5
46E
  8
┌▓È_1
 62
     5
 10
902.69299999999998
 20
-314.68400000000003
 30
0.0
 70
    32
  0
VERTEX
  5
46F
  8
┌▓È_1
 62
     5
 10
902.71500000000003
 20
-314.69099999999997
 30
0.0
 70
    32
  0
VERTEX
  5
470
  8
┌▓È_1
 62
     5
 10
902.7360000000001
 20
-314.69799999999998
 30
0.0
 70
    32
  0
VERTEX
  5
471
  8
┌▓È_1
 62
     5
 10
902.75800000000004
 20
-314.70499999999998
 30
0.0
 70
    32
  0
VERTEX
  5
472
  8
┌▓È_1
 62
     5
 10
902.77999999999986
 20
-314.71100000000001
 30
0.0
 70
    32
  0
VERTEX
  5
473
  8
┌▓È_1
 62
     5
 10
902.80100000000004
 20
-314.71800000000002
 30
0.0
 70
    32
  0
VERTEX
  5
474
  8
┌▓È_1
 62
     5
 10
902.82299999999998
 20
-314.72500000000002
 30
0.0
 70
    32
  0
VERTEX
  5
475
  8
┌▓È_1
 62
     5
 10
902.84500000000014
 20
-314.73099999999999
 30
0.0
 70
    32
  0
VERTEX
  5
476
  8
┌▓È_1
 62
     5
 10
902.86599999999999
 20
-314.738
 30
0.0
 70
    32
  0
VERTEX
  5
477
  8
┌▓È_1
 62
     5
 10
902.88800000000003
 20
-314.74400000000003
 30
0.0
 70
    32
  0
VERTEX
  5
478
  8
┌▓È_1
 62
     5
 10
902.90999999999985
 20
-314.75099999999998
 30
0.0
 70
    32
  0
VERTEX
  5
479
  8
┌▓È_1
 62
     5
 10
902.93200000000002
 20
-314.75700000000001
 30
0.0
 70
    32
  0
VERTEX
  5
47A
  8
┌▓È_1
 62
     5
 10
902.95299999999986
 20
-314.76400000000001
 30
0.0
 70
    32
  0
VERTEX
  5
47B
  8
┌▓È_1
 62
     5
 10
902.97499999999991
 20
-314.76999999999998
 30
0.0
 70
    32
  0
VERTEX
  5
47C
  8
┌▓È_1
 62
     5
 10
902.99699999999996
 20
-314.77699999999999
 30
0.0
 70
    32
  0
VERTEX
  5
47D
  8
┌▓È_1
 62
     5
 10
903.01899999999989
 20
-314.78300000000002
 30
0.0
 70
    32
  0
VERTEX
  5
47E
  8
┌▓È_1
 62
     5
 10
903.03999999999996
 20
-314.78899999999999
 30
0.0
 70
    32
  0
VERTEX
  5
47F
  8
┌▓È_1
 62
     5
 10
903.06200000000001
 20
-314.79599999999999
 30
0.0
 70
    32
  0
VERTEX
  5
480
  8
┌▓È_1
 62
     5
 10
903.08399999999995
 20
-314.80200000000002
 30
0.0
 70
    32
  0
VERTEX
  5
481
  8
┌▓È_1
 62
     5
 10
903.10600000000011
 20
-314.80799999999999
 30
0.0
 70
    32
  0
VERTEX
  5
482
  8
┌▓È_1
 62
     5
 10
903.12800000000004
 20
-314.81400000000002
 30
0.0
 70
    32
  0
VERTEX
  5
483
  8
┌▓È_1
 62
     5
 10
903.14999999999986
 20
-314.82100000000003
 30
0.0
 70
    32
  0
VERTEX
  5
484
  8
┌▓È_1
 62
     5
 10
903.17199999999991
 20
-314.827
 30
0.0
 70
    32
  0
VERTEX
  5
485
  8
┌▓È_1
 62
     5
 10
903.19399999999996
 20
-314.83300000000003
 30
0.0
 70
    32
  0
VERTEX
  5
486
  8
┌▓È_1
 62
     5
 10
903.21600000000012
 20
-314.839
 30
0.0
 70
    32
  0
VERTEX
  5
487
  8
┌▓È_1
 62
     5
 10
903.23800000000006
 20
-314.84500000000003
 30
0.0
 70
    32
  0
VERTEX
  5
488
  8
┌▓È_1
 62
     5
 10
903.25999999999999
 20
-314.851
 30
0.0
 70
    32
  0
VERTEX
  5
489
  8
┌▓È_1
 62
     5
 10
903.28199999999993
 20
-314.85700000000003
 30
0.0
 70
    32
  0
VERTEX
  5
48A
  8
┌▓È_1
 62
     5
 10
903.30399999999986
 20
-314.863
 30
0.0
 70
    32
  0
VERTEX
  5
48B
  8
┌▓È_1
 62
     5
 10
903.32600000000002
 20
-314.86900000000003
 30
0.0
 70
    32
  0
VERTEX
  5
48C
  8
┌▓È_1
 62
     5
 10
903.34799999999996
 20
-314.875
 30
0.0
 70
    32
  0
VERTEX
  5
48D
  8
┌▓È_1
 62
     5
 10
903.36999999999989
 20
-314.88099999999997
 30
0.0
 70
    32
  0
VERTEX
  5
48E
  8
┌▓È_1
 62
     5
 10
903.39200000000005
 20
-314.887
 30
0.0
 70
    32
  0
VERTEX
  5
48F
  8
┌▓È_1
 62
     5
 10
903.41399999999999
 20
-314.89299999999997
 30
0.0
 70
    32
  0
VERTEX
  5
490
  8
┌▓È_1
 62
     5
 10
903.43600000000015
 20
-314.899
 30
0.0
 70
    32
  0
VERTEX
  5
491
  8
┌▓È_1
 62
     5
 10
903.45800000000008
 20
-314.904
 30
0.0
 70
    32
  0
VERTEX
  5
492
  8
┌▓È_1
 62
     5
 10
903.48000000000002
 20
-314.91000000000003
 30
0.0
 70
    32
  0
VERTEX
  5
493
  8
┌▓È_1
 62
     5
 10
903.50199999999995
 20
-314.916
 30
0.0
 70
    32
  0
VERTEX
  5
494
  8
┌▓È_1
 62
     5
 10
903.52399999999989
 20
-314.92200000000003
 30
0.0
 70
    32
  0
VERTEX
  5
495
  8
┌▓È_1
 62
     5
 10
903.54700000000003
 20
-314.92700000000002
 30
0.0
 70
    32
  0
VERTEX
  5
496
  8
┌▓È_1
 62
     5
 10
903.56899999999996
 20
-314.93299999999999
 30
0.0
 70
    32
  0
VERTEX
  5
497
  8
┌▓È_1
 62
     5
 10
903.59099999999989
 20
-314.93900000000002
 30
0.0
 70
    32
  0
VERTEX
  5
498
  8
┌▓È_1
 62
     5
 10
903.61299999999994
 20
-314.94400000000002
 30
0.0
 70
    32
  0
VERTEX
  5
499
  8
┌▓È_1
 62
     5
 10
903.63499999999999
 20
-314.94999999999999
 30
0.0
 70
    32
  0
VERTEX
  5
49A
  8
┌▓È_1
 62
     5
 10
903.65800000000002
 20
-314.95600000000002
 30
0.0
 70
    32
  0
VERTEX
  5
49B
  8
┌▓È_1
 62
     5
 10
903.67999999999995
 20
-314.96100000000001
 30
0.0
 70
    32
  0
VERTEX
  5
49C
  8
┌▓È_1
 62
     5
 10
903.702
 20
-314.96699999999998
 30
0.0
 70
    32
  0
VERTEX
  5
49D
  8
┌▓È_1
 62
     5
 10
903.72399999999982
 20
-314.97199999999998
 30
0.0
 70
    32
  0
VERTEX
  5
49E
  8
┌▓È_1
 62
     5
 10
903.74699999999984
 20
-314.97800000000001
 30
0.0
 70
    32
  0
VERTEX
  5
49F
  8
┌▓È_1
 62
     5
 10
903.76899999999989
 20
-314.983
 30
0.0
 70
    32
  0
VERTEX
  5
4A0
  8
┌▓È_1
 62
     5
 10
903.79100000000005
 20
-314.98899999999998
 30
0.0
 70
    32
  0
VERTEX
  5
4A1
  8
┌▓È_1
 62
     5
 10
903.81299999999999
 20
-314.99400000000003
 30
0.0
 70
    32
  0
VERTEX
  5
4A2
  8
┌▓È_1
 62
     5
 10
903.83600000000001
 20
-315.0
 30
0.0
 70
    32
  0
VERTEX
  5
4A3
  8
┌▓È_1
 62
     5
 10
903.85800000000006
 20
-315.005
 30
0.0
 70
    32
  0
VERTEX
  5
4A4
  8
┌▓È_1
 62
     5
 10
903.88
 20
-315.01100000000002
 30
0.0
 70
    32
  0
VERTEX
  5
4A5
  8
┌▓È_1
 62
     5
 10
903.90300000000002
 20
-315.01600000000002
 30
0.0
 70
    32
  0
VERTEX
  5
4A6
  8
┌▓È_1
 62
     5
 10
903.92499999999995
 20
-315.0209999999999
 30
0.0
 70
    32
  0
VERTEX
  5
4A7
  8
┌▓È_1
 62
     5
 10
903.94699999999989
 20
-315.02699999999999
 30
0.0
 70
    32
  0
VERTEX
  5
4A8
  8
┌▓È_1
 62
     5
 10
903.96999999999991
 20
-315.03199999999998
 30
0.0
 70
    32
  0
VERTEX
  5
4A9
  8
┌▓È_1
 62
     5
 10
903.99199999999996
 20
-315.03700000000009
 30
0.0
 70
    32
  0
VERTEX
  5
4AA
  8
┌▓È_1
 62
     5
 10
904.0139999999999
 20
-315.04300000000001
 30
0.0
 70
    32
  0
VERTEX
  5
4AB
  8
┌▓È_1
 62
     5
 10
904.03699999999992
 20
-315.048
 30
0.0
 70
    32
  0
VERTEX
  5
4AC
  8
┌▓È_1
 62
     5
 10
904.05899999999986
 20
-315.053
 30
0.0
 70
    32
  0
VERTEX
  5
4AD
  8
┌▓È_1
 62
     5
 10
904.08199999999999
 20
-315.05799999999999
 30
0.0
 70
    32
  0
VERTEX
  5
4AE
  8
┌▓È_1
 62
     5
 10
904.10399999999981
 20
-315.06400000000002
 30
0.0
 70
    32
  0
VERTEX
  5
4AF
  8
┌▓È_1
 62
     5
 10
904.12699999999995
 20
-315.06900000000002
 30
0.0
 70
    32
  0
VERTEX
  5
4B0
  8
┌▓È_1
 62
     5
 10
904.14899999999989
 20
-315.07400000000001
 30
0.0
 70
    32
  0
VERTEX
  5
4B1
  8
┌▓È_1
 62
     5
 10
904.17100000000005
 20
-315.07900000000001
 30
0.0
 70
    32
  0
VERTEX
  5
4B2
  8
┌▓È_1
 62
     5
 10
904.19399999999996
 20
-315.084
 30
0.0
 70
    32
  0
VERTEX
  5
4B3
  8
┌▓È_1
 62
     5
 10
904.21600000000001
 20
-315.08999999999997
 30
0.0
 70
    32
  0
VERTEX
  5
4B4
  8
┌▓È_1
 62
     5
 10
904.23899999999992
 20
-315.09500000000003
 30
0.0
 70
    32
  0
VERTEX
  5
4B5
  8
┌▓È_1
 62
     5
 10
904.26100000000008
 20
-315.10000000000002
 30
0.0
 70
    32
  0
VERTEX
  5
4B6
  8
┌▓È_1
 62
     5
 10
904.28399999999988
 20
-315.10500000000002
 30
0.0
 70
    32
  0
VERTEX
  5
4B7
  8
┌▓È_1
 62
     5
 10
904.30600000000004
 20
-315.11000000000001
 30
0.0
 70
    32
  0
VERTEX
  5
4B8
  8
┌▓È_1
 62
     5
 10
904.32899999999984
 20
-315.11500000000001
 30
0.0
 70
    32
  0
VERTEX
  5
4B9
  8
┌▓È_1
 62
     5
 10
904.35100000000011
 20
-315.12
 30
0.0
 70
    32
  0
VERTEX
  5
4BA
  8
┌▓È_1
 62
     5
 10
904.37399999999991
 20
-315.125
 30
0.0
 70
    32
  0
VERTEX
  5
4BB
  8
┌▓È_1
 62
     5
 10
904.39599999999996
 20
-315.13
 30
0.0
 70
    32
  0
VERTEX
  5
4BC
  8
┌▓È_1
 62
     5
 10
904.41899999999998
 20
-315.13499999999999
 30
0.0
 70
    32
  0
VERTEX
  5
4BD
  8
┌▓È_1
 62
     5
 10
904.44100000000003
 20
-315.13999999999999
 30
0.0
 70
    32
  0
VERTEX
  5
4BE
  8
┌▓È_1
 62
     5
 10
904.46399999999994
 20
-315.14499999999998
 30
0.0
 70
    32
  0
VERTEX
  5
4BF
  8
┌▓È_1
 62
     5
 10
904.48699999999985
 20
-315.14999999999998
 30
0.0
 70
    32
  0
VERTEX
  5
4C0
  8
┌▓È_1
 62
     5
 10
904.50900000000001
 20
-315.15499999999997
 30
0.0
 70
    32
  0
VERTEX
  5
4C1
  8
┌▓È_1
 62
     5
 10
904.53200000000004
 20
-315.16000000000003
 30
0.0
 70
    32
  0
VERTEX
  5
4C2
  8
┌▓È_1
 62
     5
 10
904.55399999999997
 20
-315.16500000000002
 30
0.0
 70
    32
  0
VERTEX
  5
4C3
  8
┌▓È_1
 62
     5
 10
904.577
 20
-315.17000000000002
 30
0.0
 70
    32
  0
VERTEX
  5
4C4
  8
┌▓È_1
 62
     5
 10
904.59899999999993
 20
-315.17500000000001
 30
0.0
 70
    32
  0
VERTEX
  5
4C5
  8
┌▓È_1
 62
     5
 10
904.62199999999984
 20
-315.18000000000001
 30
0.0
 70
    32
  0
VERTEX
  5
4C6
  8
┌▓È_1
 62
     5
 10
904.64499999999998
 20
-315.185
 30
0.0
 70
    32
  0
VERTEX
  5
4C7
  8
┌▓È_1
 62
     5
 10
904.6669999999998
 20
-315.19
 30
0.0
 70
    32
  0
VERTEX
  5
4C8
  8
┌▓È_1
 62
     5
 10
904.69000000000005
 20
-315.19499999999999
 30
0.0
 70
    32
  0
VERTEX
  5
4C9
  8
┌▓È_1
 62
     5
 10
904.71199999999988
 20
-315.19900000000001
 30
0.0
 70
    32
  0
VERTEX
  5
4CA
  8
┌▓È_1
 62
     5
 10
904.7349999999999
 20
-315.20400000000001
 30
0.0
 70
    32
  0
VERTEX
  5
4CB
  8
┌▓È_1
 62
     5
 10
904.75799999999992
 20
-315.209
 30
0.0
 70
    32
  0
VERTEX
  5
4CC
  8
┌▓È_1
 62
     5
 10
904.77999999999997
 20
-315.214
 30
0.0
 70
    32
  0
VERTEX
  5
4CD
  8
┌▓È_1
 62
     5
 10
904.803
 20
-315.21899999999999
 30
0.0
 70
    32
  0
VERTEX
  5
4CE
  8
┌▓È_1
 62
     5
 10
904.82600000000002
 20
-315.22399999999999
 30
0.0
 70
    32
  0
VERTEX
  5
4CF
  8
┌▓È_1
 62
     5
 10
904.84800000000007
 20
-315.2290000000001
 30
0.0
 70
    32
  0
VERTEX
  5
4D0
  8
┌▓È_1
 62
     5
 10
904.87100000000009
 20
-315.233
 30
0.0
 70
    32
  0
VERTEX
  5
4D1
  8
┌▓È_1
 62
     5
 10
904.89300000000003
 20
-315.238
 30
0.0
 70
    32
  0
VERTEX
  5
4D2
  8
┌▓È_1
 62
     5
 10
904.91600000000005
 20
-315.24299999999999
 30
0.0
 70
    32
  0
VERTEX
  5
4D3
  8
┌▓È_1
 62
     5
 10
904.93899999999996
 20
-315.24799999999999
 30
0.0
 70
    32
  0
VERTEX
  5
4D4
  8
┌▓È_1
 62
     5
 10
904.9609999999999
 20
-315.25299999999999
 30
0.0
 70
    32
  0
VERTEX
  5
4D5
  8
┌▓È_1
 62
     5
 10
904.98399999999992
 20
-315.25700000000001
 30
0.0
 70
    32
  0
VERTEX
  5
4D6
  8
┌▓È_1
 62
     5
 10
905.00699999999995
 20
-315.262
 30
0.0
 70
    32
  0
VERTEX
  5
4D7
  8
┌▓È_1
 62
     5
 10
905.029
 20
-315.267
 30
0.0
 70
    32
  0
VERTEX
  5
4D8
  8
┌▓È_1
 62
     5
 10
905.05200000000002
 20
-315.27199999999999
 30
0.0
 70
    32
  0
VERTEX
  5
4D9
  8
┌▓È_1
 62
     5
 10
905.07500000000005
 20
-315.27600000000001
 30
0.0
 70
    32
  0
VERTEX
  5
4DA
  8
┌▓È_1
 62
     5
 10
905.09699999999987
 20
-315.28100000000001
 30
0.0
 70
    32
  0
VERTEX
  5
4DB
  8
┌▓È_1
 62
     5
 10
905.11999999999989
 20
-315.286
 30
0.0
 70
    32
  0
VERTEX
  5
4DC
  8
┌▓È_1
 62
     5
 10
905.14299999999992
 20
-315.291
 30
0.0
 70
    32
  0
VERTEX
  5
4DD
  8
┌▓È_1
 62
     5
 10
905.16499999999996
 20
-315.29500000000002
 30
0.0
 70
    32
  0
VERTEX
  5
4DE
  8
┌▓È_1
 62
     5
 10
905.18799999999999
 20
-315.30000000000001
 30
0.0
 70
    32
  0
VERTEX
  5
4DF
  8
┌▓È_1
 62
     5
 10
905.21100000000001
 20
-315.30500000000001
 30
0.0
 70
    32
  0
VERTEX
  5
4E0
  8
┌▓È_1
 62
     5
 10
905.23399999999992
 20
-315.31
 30
0.0
 70
    32
  0
VERTEX
  5
4E1
  8
┌▓È_1
 62
     5
 10
905.25600000000009
 20
-315.31400000000002
 30
0.0
 70
    32
  0
VERTEX
  5
4E2
  8
┌▓È_1
 62
     5
 10
905.27899999999988
 20
-315.31900000000002
 30
0.0
 70
    32
  0
VERTEX
  5
4E3
  8
┌▓È_1
 62
     5
 10
905.30200000000002
 20
-315.32400000000001
 30
0.0
 70
    32
  0
VERTEX
  5
4E4
  8
┌▓È_1
 62
     5
 10
905.32399999999996
 20
-315.32900000000001
 30
0.0
 70
    32
  0
VERTEX
  5
4E5
  8
┌▓È_1
 62
     5
 10
905.34699999999998
 20
-315.33300000000003
 30
0.0
 70
    32
  0
VERTEX
  5
4E6
  8
┌▓È_1
 62
     5
 10
905.37
 20
-315.33800000000002
 30
0.0
 70
    32
  0
VERTEX
  5
4E7
  8
┌▓È_1
 62
     5
 10
905.39199999999994
 20
-315.34300000000002
 30
0.0
 70
    32
  0
VERTEX
  5
4E8
  8
┌▓È_1
 62
     5
 10
905.41499999999985
 20
-315.34699999999998
 30
0.0
 70
    32
  0
VERTEX
  5
4E9
  8
┌▓È_1
 62
     5
 10
905.43799999999999
 20
-315.35199999999998
 30
0.0
 70
    32
  0
VERTEX
  5
4EA
  8
┌▓È_1
 62
     5
 10
905.46000000000004
 20
-315.35700000000003
 30
0.0
 70
    32
  0
VERTEX
  5
4EB
  8
┌▓È_1
 62
     5
 10
905.48299999999995
 20
-315.36200000000002
 30
0.0
 70
    32
  0
SEQEND
  5
4EC
  8
┌▓È_1
 62
     5
  0
POLYLINE
  5
4ED
  8
┌▓È_1
 62
     5
 66
     1
 10
0.0
 20
0.0
 30
0.0
 70
     8
  0
VERTEX
  5
4EE
  8
┌▓È_1
 62
     5
 10
898.2829999999999
 20
-311.87700000000001
 30
0.0
 70
    32
  0
VERTEX
  5
4EF
  8
┌▓È_1
 62
     5
 10
898.29799999999989
 20
-311.88999999999999
 30
0.0
 70
    32
  0
VERTEX
  5
4F0
  8
┌▓È_1
 62
     5
 10
898.3119999999999
 20
-311.904
 30
0.0
 70
    32
  0
VERTEX
  5
4F1
  8
┌▓È_1
 62
     5
 10
898.32599999999991
 20
-311.91699999999997
 30
0.0
 70
    32
  0
VERTEX
  5
4F2
  8
┌▓È_1
 62
     5
 10
898.34100000000012
 20
-311.93000000000001
 30
0.0
 70
    32
  0
VERTEX
  5
4F3
  8
┌▓È_1
 62
     5
 10
898.35500000000013
 20
-311.94299999999998
 30
0.0
 70
    32
  0
VERTEX
  5
4F4
  8
┌▓È_1
 62
     5
 10
898.37
 20
-311.95699999999999
 30
0.0
 70
    32
  0
VERTEX
  5
4F5
  8
┌▓È_1
 62
     5
 10
898.38399999999979
 20
-311.97000000000003
 30
0.0
 70
    32
  0
VERTEX
  5
4F6
  8
┌▓È_1
 62
     5
 10
898.39800000000002
 20
-311.983
 30
0.0
 70
    32
  0
VERTEX
  5
4F7
  8
┌▓È_1
 62
     5
 10
898.41300000000001
 20
-311.99700000000001
 30
0.0
 70
    32
  0
VERTEX
  5
4F8
  8
┌▓È_1
 62
     5
 10
898.42700000000002
 20
-312.00999999999999
 30
0.0
 70
    32
  0
VERTEX
  5
4F9
  8
┌▓È_1
 62
     5
 10
898.44200000000001
 20
-312.02300000000002
 30
0.0
 70
    32
  0
VERTEX
  5
4FA
  8
┌▓È_1
 62
     5
 10
898.45600000000002
 20
-312.036
 30
0.0
 70
    32
  0
VERTEX
  5
4FB
  8
┌▓È_1
 62
     5
 10
898.47099999999989
 20
-312.05000000000001
 30
0.0
 70
    32
  0
VERTEX
  5
4FC
  8
┌▓È_1
 62
     5
 10
898.4849999999999
 20
-312.06299999999999
 30
0.0
 70
    32
  0
VERTEX
  5
4FD
  8
┌▓È_1
 62
     5
 10
898.49899999999991
 20
-312.07600000000002
 30
0.0
 70
    32
  0
VERTEX
  5
4FE
  8
┌▓È_1
 62
     5
 10
898.5139999999999
 20
-312.089
 30
0.0
 70
    32
  0
VERTEX
  5
4FF
  8
┌▓È_1
 62
     5
 10
898.52800000000013
 20
-312.10300000000001
 30
0.0
 70
    32
  0
VERTEX
  5
500
  8
┌▓È_1
 62
     5
 10
898.54300000000001
 20
-312.11599999999999
 30
0.0
 70
    32
  0
VERTEX
  5
501
  8
┌▓È_1
 62
     5
 10
898.55700000000002
 20
-312.12900000000002
 30
0.0
 70
    32
  0
VERTEX
  5
502
  8
┌▓È_1
 62
     5
 10
898.572
 20
-312.142
 30
0.0
 70
    32
  0
VERTEX
  5
503
  8
┌▓È_1
 62
     5
 10
898.58600000000001
 20
-312.15600000000001
 30
0.0
 70
    32
  0
VERTEX
  5
504
  8
┌▓È_1
 62
     5
 10
898.60000000000002
 20
-312.16899999999998
 30
0.0
 70
    32
  0
VERTEX
  5
505
  8
┌▓È_1
 62
     5
 10
898.61500000000001
 20
-312.18200000000002
 30
0.0
 70
    32
  0
VERTEX
  5
506
  8
┌▓È_1
 62
     5
 10
898.62899999999979
 20
-312.19499999999999
 30
0.0
 70
    32
  0
VERTEX
  5
507
  8
┌▓È_1
 62
     5
 10
898.64399999999989
 20
-312.20800000000003
 30
0.0
 70
    32
  0
VERTEX
  5
508
  8
┌▓È_1
 62
     5
 10
898.65800000000002
 20
-312.22199999999998
 30
0.0
 70
    32
  0
VERTEX
  5
509
  8
┌▓È_1
 62
     5
 10
898.67299999999989
 20
-312.23500000000001
 30
0.0
 70
    32
  0
VERTEX
  5
50A
  8
┌▓È_1
 62
     5
 10
898.6869999999999
 20
-312.24799999999999
 30
0.0
 70
    32
  0
VERTEX
  5
50B
  8
┌▓È_1
 62
     5
 10
898.70199999999988
 20
-312.26100000000002
 30
0.0
 70
    32
  0
VERTEX
  5
50C
  8
┌▓È_1
 62
     5
 10
898.71600000000012
 20
-312.274
 30
0.0
 70
    32
  0
VERTEX
  5
50D
  8
┌▓È_1
 62
     5
 10
898.73099999999999
 20
-312.28699999999998
 30
0.0
 70
    32
  0
VERTEX
  5
50E
  8
┌▓È_1
 62
     5
 10
898.745
 20
-312.30099999999999
 30
0.0
 70
    32
  0
VERTEX
  5
50F
  8
┌▓È_1
 62
     5
 10
898.75999999999999
 20
-312.31400000000002
 30
0.0
 70
    32
  0
VERTEX
  5
510
  8
┌▓È_1
 62
     5
 10
898.77399999999977
 20
-312.327
 30
0.0
 70
    32
  0
VERTEX
  5
511
  8
┌▓È_1
 62
     5
 10
898.78899999999999
 20
-312.33999999999997
 30
0.0
 70
    32
  0
VERTEX
  5
512
  8
┌▓È_1
 62
     5
 10
898.803
 20
-312.35300000000001
 30
0.0
 70
    32
  0
VERTEX
  5
513
  8
┌▓È_1
 62
     5
 10
898.81799999999987
 20
-312.36599999999999
 30
0.0
 70
    32
  0
VERTEX
  5
514
  8
┌▓È_1
 62
     5
 10
898.83199999999988
 20
-312.37900000000002
 30
0.0
 70
    32
  0
VERTEX
  5
515
  8
┌▓È_1
 62
     5
 10
898.84699999999987
 20
-312.392
 30
0.0
 70
    32
  0
VERTEX
  5
516
  8
┌▓È_1
 62
     5
 10
898.8610000000001
 20
-312.40499999999997
 30
0.0
 70
    32
  0
VERTEX
  5
517
  8
┌▓È_1
 62
     5
 10
898.87599999999998
 20
-312.41800000000001
 30
0.0
 70
    32
  0
VERTEX
  5
518
  8
┌▓È_1
 62
     5
 10
898.88999999999987
 20
-312.43099999999998
 30
0.0
 70
    32
  0
VERTEX
  5
519
  8
┌▓È_1
 62
     5
 10
898.90499999999997
 20
-312.44400000000002
 30
0.0
 70
    32
  0
VERTEX
  5
51A
  8
┌▓È_1
 62
     5
 10
898.91899999999998
 20
-312.45800000000003
 30
0.0
 70
    32
  0
VERTEX
  5
51B
  8
┌▓È_1
 62
     5
 10
898.93399999999997
 20
-312.471
 30
0.0
 70
    32
  0
VERTEX
  5
51C
  8
┌▓È_1
 62
     5
 10
898.94799999999998
 20
-312.48399999999998
 30
0.0
 70
    32
  0
VERTEX
  5
51D
  8
┌▓È_1
 62
     5
 10
898.96300000000008
 20
-312.49599999999998
 30
0.0
 70
    32
  0
VERTEX
  5
51E
  8
┌▓È_1
 62
     5
 10
898.97800000000007
 20
-312.50900000000001
 30
0.0
 70
    32
  0
VERTEX
  5
51F
  8
┌▓È_1
 62
     5
 10
898.99199999999985
 20
-312.52199999999999
 30
0.0
 70
    32
  0
VERTEX
  5
520
  8
┌▓È_1
 62
     5
 10
899.00699999999995
 20
-312.53500000000003
 30
0.0
 70
    32
  0
VERTEX
  5
521
  8
┌▓È_1
 62
     5
 10
899.02100000000007
 20
-312.548
 30
0.0
 70
    32
  0
VERTEX
  5
522
  8
┌▓È_1
 62
     5
 10
899.03599999999994
 20
-312.56099999999998
 30
0.0
 70
    32
  0
VERTEX
  5
523
  8
┌▓È_1
 62
     5
 10
899.05100000000004
 20
-312.57400000000001
 30
0.0
 70
    32
  0
VERTEX
  5
524
  8
┌▓È_1
 62
     5
 10
899.06500000000005
 20
-312.58699999999999
 30
0.0
 70
    32
  0
VERTEX
  5
525
  8
┌▓È_1
 62
     5
 10
899.08000000000004
 20
-312.60000000000002
 30
0.0
 70
    32
  0
VERTEX
  5
526
  8
┌▓È_1
 62
     5
 10
899.09400000000005
 20
-312.613
 30
0.0
 70
    32
  0
VERTEX
  5
527
  8
┌▓È_1
 62
     5
 10
899.10899999999992
 20
-312.62599999999998
 30
0.0
 70
    32
  0
VERTEX
  5
528
  8
┌▓È_1
 62
     5
 10
899.12399999999991
 20
-312.63799999999998
 30
0.0
 70
    32
  0
VERTEX
  5
529
  8
┌▓È_1
 62
     5
 10
899.13800000000015
 20
-312.65100000000001
 30
0.0
 70
    32
  0
VERTEX
  5
52A
  8
┌▓È_1
 62
     5
 10
899.15300000000002
 20
-312.66399999999999
 30
0.0
 70
    32
  0
VERTEX
  5
52B
  8
┌▓È_1
 62
     5
 10
899.16800000000001
 20
-312.67700000000002
 30
0.0
 70
    32
  0
VERTEX
  5
52C
  8
┌▓È_1
 62
     5
 10
899.18200000000002
 20
-312.69
 30
0.0
 70
    32
  0
VERTEX
  5
52D
  8
┌▓È_1
 62
     5
 10
899.197
 20
-312.702
 30
0.0
 70
    32
  0
VERTEX
  5
52E
  8
┌▓È_1
 62
     5
 10
899.21199999999988
 20
-312.71499999999997
 30
0.0
 70
    32
  0
VERTEX
  5
52F
  8
┌▓È_1
 62
     5
 10
899.22699999999986
 20
-312.72800000000001
 30
0.0
 70
    32
  0
VERTEX
  5
530
  8
┌▓È_1
 62
     5
 10
899.2410000000001
 20
-312.74000000000001
 30
0.0
 70
    32
  0
VERTEX
  5
531
  8
┌▓È_1
 62
     5
 10
899.25599999999997
 20
-312.75299999999999
 30
0.0
 70
    32
  0
VERTEX
  5
532
  8
┌▓È_1
 62
     5
 10
899.27099999999996
 20
-312.76600000000002
 30
0.0
 70
    32
  0
VERTEX
  5
533
  8
┌▓È_1
 62
     5
 10
899.28599999999994
 20
-312.77800000000002
 30
0.0
 70
    32
  0
VERTEX
  5
534
  8
┌▓È_1
 62
     5
 10
899.29999999999995
 20
-312.791
 30
0.0
 70
    32
  0
VERTEX
  5
535
  8
┌▓È_1
 62
     5
 10
899.31499999999994
 20
-312.80399999999997
 30
0.0
 70
    32
  0
VERTEX
  5
536
  8
┌▓È_1
 62
     5
 10
899.33000000000015
 20
-312.81599999999997
 30
0.0
 70
    32
  0
VERTEX
  5
537
  8
┌▓È_1
 62
     5
 10
899.34500000000014
 20
-312.82900000000001
 30
0.0
 70
    32
  0
VERTEX
  5
538
  8
┌▓È_1
 62
     5
 10
899.36000000000001
 20
-312.84100000000001
 30
0.0
 70
    32
  0
VERTEX
  5
539
  8
┌▓È_1
 62
     5
 10
899.3739999999998
 20
-312.85399999999998
 30
0.0
 70
    32
  0
VERTEX
  5
53A
  8
┌▓È_1
 62
     5
 10
899.38899999999978
 20
-312.86599999999999
 30
0.0
 70
    32
  0
VERTEX
  5
53B
  8
┌▓È_1
 62
     5
 10
899.404
 20
-312.87900000000002
 30
0.0
 70
    32
  0
VERTEX
  5
53C
  8
┌▓È_1
 62
     5
 10
899.41899999999987
 20
-312.89100000000002
 30
0.0
 70
    32
  0
VERTEX
  5
53D
  8
┌▓È_1
 62
     5
 10
899.43399999999986
 20
-312.904
 30
0.0
 70
    32
  0
VERTEX
  5
53E
  8
┌▓È_1
 62
     5
 10
899.44899999999984
 20
-312.916
 30
0.0
 70
    32
  0
VERTEX
  5
53F
  8
┌▓È_1
 62
     5
 10
899.46400000000006
 20
-312.928
 30
0.0
 70
    32
  0
VERTEX
  5
540
  8
┌▓È_1
 62
     5
 10
899.47799999999995
 20
-312.94099999999997
 30
0.0
 70
    32
  0
VERTEX
  5
541
  8
┌▓È_1
 62
     5
 10
899.49300000000005
 20
-312.95299999999997
 30
0.0
 70
    32
  0
VERTEX
  5
542
  8
┌▓È_1
 62
     5
 10
899.50799999999992
 20
-312.96499999999997
 30
0.0
 70
    32
  0
VERTEX
  5
543
  8
┌▓È_1
 62
     5
 10
899.52300000000014
 20
-312.97800000000001
 30
0.0
 70
    32
  0
VERTEX
  5
544
  8
┌▓È_1
 62
     5
 10
899.53800000000001
 20
-312.99000000000001
 30
0.0
 70
    32
  0
VERTEX
  5
545
  8
┌▓È_1
 62
     5
 10
899.553
 20
-313.00200000000001
 30
0.0
 70
    32
  0
VERTEX
  5
546
  8
┌▓È_1
 62
     5
 10
899.56799999999998
 20
-313.01400000000001
 30
0.0
 70
    32
  0
VERTEX
  5
547
  8
┌▓È_1
 62
     5
 10
899.58300000000008
 20
-313.02699999999999
 30
0.0
 70
    32
  0
VERTEX
  5
548
  8
┌▓È_1
 62
     5
 10
899.59800000000007
 20
-313.03899999999999
 30
0.0
 70
    32
  0
VERTEX
  5
549
  8
┌▓È_1
 62
     5
 10
899.61300000000006
 20
-313.05099999999999
 30
0.0
 70
    32
  0
VERTEX
  5
54A
  8
┌▓È_1
 62
     5
 10
899.62800000000004
 20
-313.06299999999999
 30
0.0
 70
    32
  0
VERTEX
  5
54B
  8
┌▓È_1
 62
     5
 10
899.64300000000003
 20
-313.07499999999999
 30
0.0
 70
    32
  0
VERTEX
  5
54C
  8
┌▓È_1
 62
     5
 10
899.6579999999999
 20
-313.08699999999999
 30
0.0
 70
    32
  0
VERTEX
  5
54D
  8
┌▓È_1
 62
     5
 10
899.67299999999989
 20
-313.09899999999999
 30
0.0
 70
    32
  0
VERTEX
  5
54E
  8
┌▓È_1
 62
     5
 10
899.68799999999999
 20
-313.11099999999999
 30
0.0
 70
    32
  0
VERTEX
  5
54F
  8
┌▓È_1
 62
     5
 10
899.70399999999995
 20
-313.12299999999999
 30
0.0
 70
    32
  0
VERTEX
  5
550
  8
┌▓È_1
 62
     5
 10
899.71899999999994
 20
-313.13499999999999
 30
0.0
 70
    32
  0
VERTEX
  5
551
  8
┌▓È_1
 62
     5
 10
899.73399999999992
 20
-313.14699999999999
 30
0.0
 70
    32
  0
VERTEX
  5
552
  8
┌▓È_1
 62
     5
 10
899.74899999999991
 20
-313.15899999999999
 30
0.0
 70
    32
  0
VERTEX
  5
553
  8
┌▓È_1
 62
     5
 10
899.76399999999978
 20
-313.17099999999999
 30
0.0
 70
    32
  0
VERTEX
  5
554
  8
┌▓È_1
 62
     5
 10
899.779
 20
-313.18299999999999
 30
0.0
 70
    32
  0
VERTEX
  5
555
  8
┌▓È_1
 62
     5
 10
899.79499999999985
 20
-313.19499999999999
 30
0.0
 70
    32
  0
VERTEX
  5
556
  8
┌▓È_1
 62
     5
 10
899.80999999999995
 20
-313.20699999999999
 30
0.0
 70
    32
  0
VERTEX
  5
557
  8
┌▓È_1
 62
     5
 10
899.82500000000005
 20
-313.21800000000002
 30
0.0
 70
    32
  0
VERTEX
  5
558
  8
┌▓È_1
 62
     5
 10
899.84000000000003
 20
-313.23000000000002
 30
0.0
 70
    32
  0
VERTEX
  5
559
  8
┌▓È_1
 62
     5
 10
899.8549999999999
 20
-313.24200000000002
 30
0.0
 70
    32
  0
VERTEX
  5
55A
  8
┌▓È_1
 62
     5
 10
899.87099999999998
 20
-313.25299999999999
 30
0.0
 70
    32
  0
VERTEX
  5
55B
  8
┌▓È_1
 62
     5
 10
899.88599999999997
 20
-313.26499999999999
 30
0.0
 70
    32
  0
VERTEX
  5
55C
  8
┌▓È_1
 62
     5
 10
899.90099999999995
 20
-313.27699999999999
 30
0.0
 70
    32
  0
VERTEX
  5
55D
  8
┌▓È_1
 62
     5
 10
899.91699999999992
 20
-313.28800000000001
 30
0.0
 70
    32
  0
VERTEX
  5
55E
  8
┌▓È_1
 62
     5
 10
899.93200000000002
 20
-313.30000000000001
 30
0.0
 70
    32
  0
VERTEX
  5
55F
  8
┌▓È_1
 62
     5
 10
899.947
 20
-313.31099999999998
 30
0.0
 70
    32
  0
VERTEX
  5
560
  8
┌▓È_1
 62
     5
 10
899.96300000000008
 20
-313.32299999999998
 30
0.0
 70
    32
  0
VERTEX
  5
561
  8
┌▓È_1
 62
     5
 10
899.97800000000007
 20
-313.334
 30
0.0
 70
    32
  0
VERTEX
  5
562
  8
┌▓È_1
 62
     5
 10
899.9939999999998
 20
-313.346
 30
0.0
 70
    32
  0
VERTEX
  5
563
  8
┌▓È_1
 62
     5
 10
900.00899999999979
 20
-313.35700000000003
 30
0.0
 70
    32
  0
VERTEX
  5
564
  8
┌▓È_1
 62
     5
 10
900.02399999999989
 20
-313.36900000000003
 30
0.0
 70
    32
  0
VERTEX
  5
565
  8
┌▓È_1
 62
     5
 10
900.03999999999985
 20
-313.38
 30
0.0
 70
    32
  0
VERTEX
  5
566
  8
┌▓È_1
 62
     5
 10
900.05499999999995
 20
-313.39100000000002
 30
0.0
 70
    32
  0
VERTEX
  5
567
  8
┌▓È_1
 62
     5
 10
900.07099999999991
 20
-313.40300000000002
 30
0.0
 70
    32
  0
VERTEX
  5
568
  8
┌▓È_1
 62
     5
 10
900.08600000000013
 20
-313.41399999999999
 30
0.0
 70
    32
  0
VERTEX
  5
569
  8
┌▓È_1
 62
     5
 10
900.10199999999998
 20
-313.42500000000001
 30
0.0
 70
    32
  0
VERTEX
  5
56A
  8
┌▓È_1
 62
     5
 10
900.11699999999996
 20
-313.43599999999998
 30
0.0
 70
    32
  0
VERTEX
  5
56B
  8
┌▓È_1
 62
     5
 10
900.13300000000015
 20
-313.447
 30
0.0
 70
    32
  0
VERTEX
  5
56C
  8
┌▓È_1
 62
     5
 10
900.14899999999977
 20
-313.45800000000003
 30
0.0
 70
    32
  0
VERTEX
  5
56D
  8
┌▓È_1
 62
     5
 10
900.16399999999999
 20
-313.46899999999999
 30
0.0
 70
    32
  0
VERTEX
  5
56E
  8
┌▓È_1
 62
     5
 10
900.17999999999995
 20
-313.48099999999999
 30
0.0
 70
    32
  0
VERTEX
  5
56F
  8
┌▓È_1
 62
     5
 10
900.19500000000005
 20
-313.49200000000002
 30
0.0
 70
    32
  0
VERTEX
  5
570
  8
┌▓È_1
 62
     5
 10
900.21100000000001
 20
-313.50200000000001
 30
0.0
 70
    32
  0
VERTEX
  5
571
  8
┌▓È_1
 62
     5
 10
900.22699999999986
 20
-313.51299999999998
 30
0.0
 70
    32
  0
VERTEX
  5
572
  8
┌▓È_1
 62
     5
 10
900.24199999999985
 20
-313.524
 30
0.0
 70
    32
  0
VERTEX
  5
573
  8
┌▓È_1
 62
     5
 10
900.25800000000004
 20
-313.53500000000003
 30
0.0
 70
    32
  0
VERTEX
  5
574
  8
┌▓È_1
 62
     5
 10
900.27399999999989
 20
-313.54599999999999
 30
0.0
 70
    32
  0
VERTEX
  5
575
  8
┌▓È_1
 62
     5
 10
900.28999999999996
 20
-313.55700000000002
 30
0.0
 70
    32
  0
VERTEX
  5
576
  8
┌▓È_1
 62
     5
 10
900.30499999999995
 20
-313.56700000000001
 30
0.0
 70
    32
  0
VERTEX
  5
577
  8
┌▓È_1
 62
     5
 10
900.32100000000014
 20
-313.57799999999997
 30
0.0
 70
    32
  0
VERTEX
  5
578
  8
┌▓È_1
 62
     5
 10
900.33699999999999
 20
-313.589
 30
0.0
 70
    32
  0
VERTEX
  5
579
  8
┌▓È_1
 62
     5
 10
900.35300000000007
 20
-313.59899999999999
 30
0.0
 70
    32
  0
VERTEX
  5
57A
  8
┌▓È_1
 62
     5
 10
900.3689999999998
 20
-313.61000000000001
 30
0.0
 70
    32
  0
VERTEX
  5
57B
  8
┌▓È_1
 62
     5
 10
900.38499999999988
 20
-313.62099999999998
 30
0.0
 70
    32
  0
VERTEX
  5
57C
  8
┌▓È_1
 62
     5
 10
900.40099999999995
 20
-313.63099999999997
 30
0.0
 70
    32
  0
VERTEX
  5
57D
  8
┌▓È_1
 62
     5
 10
900.41700000000003
 20
-313.642
 30
0.0
 70
    32
  0
VERTEX
  5
57E
  8
┌▓È_1
 62
     5
 10
900.4319999999999
 20
-313.65199999999999
 30
0.0
 70
    32
  0
VERTEX
  5
57F
  8
┌▓È_1
 62
     5
 10
900.44799999999987
 20
-313.66200000000009
 30
0.0
 70
    32
  0
VERTEX
  5
580
  8
┌▓È_1
 62
     5
 10
900.46400000000006
 20
-313.673
 30
0.0
 70
    32
  0
VERTEX
  5
581
  8
┌▓È_1
 62
     5
 10
900.48000000000013
 20
-313.68299999999999
 30
0.0
 70
    32
  0
VERTEX
  5
582
  8
┌▓È_1
 62
     5
 10
900.49599999999998
 20
-313.69299999999998
 30
0.0
 70
    32
  0
VERTEX
  5
583
  8
┌▓È_1
 62
     5
 10
900.51300000000015
 20
-313.70400000000001
 30
0.0
 70
    32
  0
VERTEX
  5
584
  8
┌▓È_1
 62
     5
 10
900.529
 20
-313.714
 30
0.0
 70
    32
  0
VERTEX
  5
585
  8
┌▓È_1
 62
     5
 10
900.54499999999985
 20
-313.72399999999999
 30
0.0
 70
    32
  0
VERTEX
  5
586
  8
┌▓È_1
 62
     5
 10
900.56100000000004
 20
-313.73399999999998
 30
0.0
 70
    32
  0
VERTEX
  5
587
  8
┌▓È_1
 62
     5
 10
900.577
 20
-313.74400000000003
 30
0.0
 70
    32
  0
VERTEX
  5
588
  8
┌▓È_1
 62
     5
 10
900.59300000000007
 20
-313.75400000000002
 30
0.0
 70
    32
  0
VERTEX
  5
589
  8
┌▓È_1
 62
     5
 10
900.60899999999981
 20
-313.76400000000001
 30
0.0
 70
    32
  0
VERTEX
  5
58A
  8
┌▓È_1
 62
     5
 10
900.62600000000009
 20
-313.774
 30
0.0
 70
    32
  0
VERTEX
  5
58B
  8
┌▓È_1
 62
     5
 10
900.64200000000005
 20
-313.78399999999999
 30
0.0
 70
    32
  0
VERTEX
  5
58C
  8
┌▓È_1
 62
     5
 10
900.6579999999999
 20
-313.79399999999998
 30
0.0
 70
    32
  0
VERTEX
  5
58D
  8
┌▓È_1
 62
     5
 10
900.67399999999998
 20
-313.80399999999997
 30
0.0
 70
    32
  0
SEQEND
  5
58E
  8
┌▓È_1
 62
     5
  0
POLYLINE
  5
58F
  8
┌▓È_1
 62
     5
 66
     1
 10
0.0
 20
0.0
 30
0.0
 70
     8
  0
VERTEX
  5
590
  8
┌▓È_1
 62
     5
 10
903.63099999999997
 20
-313.77999999999997
 30
0.0
 70
    32
  0
VERTEX
  5
591
  8
┌▓È_1
 62
     5
 10
903.64499999999998
 20
-313.78399999999999
 30
0.0
 70
    32
  0
VERTEX
  5
592
  8
┌▓È_1
 62
     5
 10
903.65899999999999
 20
-313.78800000000001
 30
0.0
 70
    32
  0
VERTEX
  5
593
  8
┌▓È_1
 62
     5
 10
903.673
 20
-313.79199999999997
 30
0.0
 70
    32
  0
VERTEX
  5
594
  8
┌▓È_1
 62
     5
 10
903.68700000000001
 20
-313.79599999999999
 30
0.0
 70
    32
  0
VERTEX
  5
595
  8
┌▓È_1
 62
     5
 10
903.70100000000002
 20
-313.80000000000001
 30
0.0
 70
    32
  0
VERTEX
  5
596
  8
┌▓È_1
 62
     5
 10
903.71500000000003
 20
-313.80399999999997
 30
0.0
 70
    32
  0
VERTEX
  5
597
  8
┌▓È_1
 62
     5
 10
903.72899999999981
 20
-313.80799999999999
 30
0.0
 70
    32
  0
VERTEX
  5
598
  8
┌▓È_1
 62
     5
 10
903.74300000000005
 20
-313.81200000000001
 30
0.0
 70
    32
  0
VERTEX
  5
599
  8
┌▓È_1
 62
     5
 10
903.75699999999995
 20
-313.815
 30
0.0
 70
    32
  0
VERTEX
  5
59A
  8
┌▓È_1
 62
     5
 10
903.77099999999996
 20
-313.81900000000002
 30
0.0
 70
    32
  0
VERTEX
  5
59B
  8
┌▓È_1
 62
     5
 10
903.78499999999997
 20
-313.82299999999998
 30
0.0
 70
    32
  0
VERTEX
  5
59C
  8
┌▓È_1
 62
     5
 10
903.79999999999995
 20
-313.827
 30
0.0
 70
    32
  0
VERTEX
  5
59D
  8
┌▓È_1
 62
     5
 10
903.81399999999996
 20
-313.82999999999998
 30
0.0
 70
    32
  0
VERTEX
  5
59E
  8
┌▓È_1
 62
     5
 10
903.82799999999997
 20
-313.834
 30
0.0
 70
    32
  0
VERTEX
  5
59F
  8
┌▓È_1
 62
     5
 10
903.84199999999998
 20
-313.83800000000002
 30
0.0
 70
    32
  0
VERTEX
  5
5A0
  8
┌▓È_1
 62
     5
 10
903.85600000000022
 20
-313.84100000000001
 30
0.0
 70
    32
  0
VERTEX
  5
5A1
  8
┌▓È_1
 62
     5
 10
903.87
 20
-313.84500000000003
 30
0.0
 70
    32
  0
VERTEX
  5
5A2
  8
┌▓È_1
 62
     5
 10
903.88499999999999
 20
-313.84800000000001
 30
0.0
 70
    32
  0
VERTEX
  5
5A3
  8
┌▓È_1
 62
     5
 10
903.89899999999977
 20
-313.85199999999998
 30
0.0
 70
    32
  0
VERTEX
  5
5A4
  8
┌▓È_1
 62
     5
 10
903.91300000000001
 20
-313.85599999999999
 30
0.0
 70
    32
  0
VERTEX
  5
5A5
  8
┌▓È_1
 62
     5
 10
903.92700000000002
 20
-313.85900000000009
 30
0.0
 70
    32
  0
VERTEX
  5
5A6
  8
┌▓È_1
 62
     5
 10
903.94199999999989
 20
-313.863
 30
0.0
 70
    32
  0
VERTEX
  5
5A7
  8
┌▓È_1
 62
     5
 10
903.9559999999999
 20
-313.86599999999999
 30
0.0
 70
    32
  0
VERTEX
  5
5A8
  8
┌▓È_1
 62
     5
 10
903.96999999999991
 20
-313.87
 30
0.0
 70
    32
  0
VERTEX
  5
5A9
  8
┌▓È_1
 62
     5
 10
903.9849999999999
 20
-313.87299999999999
 30
0.0
 70
    32
  0
VERTEX
  5
5AA
  8
┌▓È_1
 62
     5
 10
903.99899999999991
 20
-313.87700000000001
 30
0.0
 70
    32
  0
VERTEX
  5
5AB
  8
┌▓È_1
 62
     5
 10
904.01300000000015
 20
-313.88
 30
0.0
 70
    32
  0
VERTEX
  5
5AC
  8
┌▓È_1
 62
     5
 10
904.02699999999993
 20
-313.88299999999998
 30
0.0
 70
    32
  0
VERTEX
  5
5AD
  8
┌▓È_1
 62
     5
 10
904.04199999999992
 20
-313.887
 30
0.0
 70
    32
  0
VERTEX
  5
5AE
  8
┌▓È_1
 62
     5
 10
904.05600000000015
 20
-313.88999999999999
 30
0.0
 70
    32
  0
VERTEX
  5
5AF
  8
┌▓È_1
 62
     5
 10
904.07100000000003
 20
-313.89400000000001
 30
0.0
 70
    32
  0
VERTEX
  5
5B0
  8
┌▓È_1
 62
     5
 10
904.08500000000004
 20
-313.89699999999999
 30
0.0
 70
    32
  0
VERTEX
  5
5B1
  8
┌▓È_1
 62
     5
 10
904.09899999999982
 20
-313.89999999999998
 30
0.0
 70
    32
  0
VERTEX
  5
5B2
  8
┌▓È_1
 62
     5
 10
904.11399999999981
 20
-313.904
 30
0.0
 70
    32
  0
VERTEX
  5
5B3
  8
┌▓È_1
 62
     5
 10
904.12800000000004
 20
-313.90699999999998
 30
0.0
 70
    32
  0
VERTEX
  5
5B4
  8
┌▓È_1
 62
     5
 10
904.14300000000003
 20
-313.91000000000003
 30
0.0
 70
    32
  0
VERTEX
  5
5B5
  8
┌▓È_1
 62
     5
 10
904.15700000000004
 20
-313.91300000000001
 30
0.0
 70
    32
  0
VERTEX
  5
5B6
  8
┌▓È_1
 62
     5
 10
904.17100000000005
 20
-313.91699999999997
 30
0.0
 70
    32
  0
VERTEX
  5
5B7
  8
┌▓È_1
 62
     5
 10
904.18599999999992
 20
-313.92000000000002
 30
0.0
 70
    32
  0
VERTEX
  5
5B8
  8
┌▓È_1
 62
     5
 10
904.19999999999993
 20
-313.923
 30
0.0
 70
    32
  0
VERTEX
  5
5B9
  8
┌▓È_1
 62
     5
 10
904.21500000000015
 20
-313.92599999999999
 30
0.0
 70
    32
  0
VERTEX
  5
5BA
  8
┌▓È_1
 62
     5
 10
904.22899999999993
 20
-313.92899999999997
 30
0.0
 70
    32
  0
VERTEX
  5
5BB
  8
┌▓È_1
 62
     5
 10
904.24399999999991
 20
-313.93299999999999
 30
0.0
 70
    32
  0
VERTEX
  5
5BC
  8
┌▓È_1
 62
     5
 10
904.25800000000004
 20
-313.93599999999998
 30
0.0
 70
    32
  0
VERTEX
  5
5BD
  8
┌▓È_1
 62
     5
 10
904.27300000000002
 20
-313.93900000000002
 30
0.0
 70
    32
  0
VERTEX
  5
5BE
  8
┌▓È_1
 62
     5
 10
904.28699999999981
 20
-313.94200000000001
 30
0.0
 70
    32
  0
VERTEX
  5
5BF
  8
┌▓È_1
 62
     5
 10
904.30200000000002
 20
-313.94499999999999
 30
0.0
 70
    32
  0
VERTEX
  5
5C0
  8
┌▓È_1
 62
     5
 10
904.31600000000003
 20
-313.94799999999998
 30
0.0
 70
    32
  0
VERTEX
  5
5C1
  8
┌▓È_1
 62
     5
 10
904.3309999999999
 20
-313.95100000000002
 30
0.0
 70
    32
  0
VERTEX
  5
5C2
  8
┌▓È_1
 62
     5
 10
904.34499999999991
 20
-313.95400000000001
 30
0.0
 70
    32
  0
VERTEX
  5
5C3
  8
┌▓È_1
 62
     5
 10
904.3599999999999
 20
-313.95699999999999
 30
0.0
 70
    32
  0
VERTEX
  5
5C4
  8
┌▓È_1
 62
     5
 10
904.37399999999991
 20
-313.95999999999998
 30
0.0
 70
    32
  0
VERTEX
  5
5C5
  8
┌▓È_1
 62
     5
 10
904.3889999999999
 20
-313.96300000000002
 30
0.0
 70
    32
  0
VERTEX
  5
5C6
  8
┌▓È_1
 62
     5
 10
904.404
 20
-313.96600000000001
 30
0.0
 70
    32
  0
VERTEX
  5
5C7
  8
┌▓È_1
 62
     5
 10
904.41800000000001
 20
-313.96899999999999
 30
0.0
 70
    32
  0
VERTEX
  5
5C8
  8
┌▓È_1
 62
     5
 10
904.43299999999999
 20
-313.97199999999998
 30
0.0
 70
    32
  0
VERTEX
  5
5C9
  8
┌▓È_1
 62
     5
 10
904.447
 20
-313.97500000000002
 30
0.0
 70
    32
  0
VERTEX
  5
5CA
  8
┌▓È_1
 62
     5
 10
904.46199999999999
 20
-313.97800000000001
 30
0.0
 70
    32
  0
VERTEX
  5
5CB
  8
┌▓È_1
 62
     5
 10
904.47699999999986
 20
-313.98099999999999
 30
0.0
 70
    32
  0
VERTEX
  5
5CC
  8
┌▓È_1
 62
     5
 10
904.4910000000001
 20
-313.98399999999998
 30
0.0
 70
    32
  0
VERTEX
  5
5CD
  8
┌▓È_1
 62
     5
 10
904.50600000000009
 20
-313.98700000000002
 30
0.0
 70
    32
  0
VERTEX
  5
5CE
  8
┌▓È_1
 62
     5
 10
904.52099999999996
 20
-313.99000000000001
 30
0.0
 70
    32
  0
VERTEX
  5
5CF
  8
┌▓È_1
 62
     5
 10
904.53499999999985
 20
-313.99299999999999
 30
0.0
 70
    32
  0
VERTEX
  5
5D0
  8
┌▓È_1
 62
     5
 10
904.54999999999995
 20
-313.99599999999998
 30
0.0
 70
    32
  0
VERTEX
  5
5D1
  8
┌▓È_1
 62
     5
 10
904.56500000000005
 20
-313.99900000000002
 30
0.0
 70
    32
  0
VERTEX
  5
5D2
  8
┌▓È_1
 62
     5
 10
904.57899999999995
 20
-314.00099999999998
 30
0.0
 70
    32
  0
VERTEX
  5
5D3
  8
┌▓È_1
 62
     5
 10
904.59399999999994
 20
-314.00400000000002
 30
0.0
 70
    32
  0
VERTEX
  5
5D4
  8
┌▓È_1
 62
     5
 10
904.60899999999992
 20
-314.00700000000001
 30
0.0
 70
    32
  0
VERTEX
  5
5D5
  8
┌▓È_1
 62
     5
 10
904.62300000000005
 20
-314.00999999999999
 30
0.0
 70
    32
  0
VERTEX
  5
5D6
  8
┌▓È_1
 62
     5
 10
904.63800000000003
 20
-314.01299999999998
 30
0.0
 70
    32
  0
VERTEX
  5
5D7
  8
┌▓È_1
 62
     5
 10
904.65300000000002
 20
-314.01600000000002
 30
0.0
 70
    32
  0
VERTEX
  5
5D8
  8
┌▓È_1
 62
     5
 10
904.6669999999998
 20
-314.01799999999997
 30
0.0
 70
    32
  0
VERTEX
  5
5D9
  8
┌▓È_1
 62
     5
 10
904.68200000000002
 20
-314.02100000000002
 30
0.0
 70
    32
  0
VERTEX
  5
5DA
  8
┌▓È_1
 62
     5
 10
904.69699999999989
 20
-314.024
 30
0.0
 70
    32
  0
VERTEX
  5
5DB
  8
┌▓È_1
 62
     5
 10
904.71199999999988
 20
-314.02699999999999
 30
0.0
 70
    32
  0
VERTEX
  5
5DC
  8
┌▓È_1
 62
     5
 10
904.72600000000011
 20
-314.029
 30
0.0
 70
    32
  0
VERTEX
  5
5DD
  8
┌▓È_1
 62
     5
 10
904.7410000000001
 20
-314.03199999999998
 30
0.0
 70
    32
  0
VERTEX
  5
5DE
  8
┌▓È_1
 62
     5
 10
904.75599999999997
 20
-314.03500000000003
 30
0.0
 70
    32
  0
VERTEX
  5
5DF
  8
┌▓È_1
 62
     5
 10
904.77099999999996
 20
-314.03800000000001
 30
0.0
 70
    32
  0
VERTEX
  5
5E0
  8
┌▓È_1
 62
     5
 10
904.78499999999997
 20
-314.04000000000002
 30
0.0
 70
    32
  0
VERTEX
  5
5E1
  8
┌▓È_1
 62
     5
 10
904.79999999999995
 20
-314.04300000000001
 30
0.0
 70
    32
  0
VERTEX
  5
5E2
  8
┌▓È_1
 62
     5
 10
904.81500000000005
 20
-314.04599999999999
 30
0.0
 70
    32
  0
VERTEX
  5
5E3
  8
┌▓È_1
 62
     5
 10
904.83000000000015
 20
-314.048
 30
0.0
 70
    32
  0
VERTEX
  5
5E4
  8
┌▓È_1
 62
     5
 10
904.84399999999994
 20
-314.05099999999999
 30
0.0
 70
    32
  0
VERTEX
  5
5E5
  8
┌▓È_1
 62
     5
 10
904.85899999999992
 20
-314.05399999999997
 30
0.0
 70
    32
  0
VERTEX
  5
5E6
  8
┌▓È_1
 62
     5
 10
904.8739999999998
 20
-314.05599999999998
 30
0.0
 70
    32
  0
VERTEX
  5
5E7
  8
┌▓È_1
 62
     5
 10
904.88899999999978
 20
-314.05900000000003
 30
0.0
 70
    32
  0
VERTEX
  5
5E8
  8
┌▓È_1
 62
     5
 10
904.90399999999988
 20
-314.06200000000001
 30
0.0
 70
    32
  0
VERTEX
  5
5E9
  8
┌▓È_1
 62
     5
 10
904.91799999999989
 20
-314.06400000000002
 30
0.0
 70
    32
  0
VERTEX
  5
5EA
  8
┌▓È_1
 62
     5
 10
904.93299999999988
 20
-314.06700000000001
 30
0.0
 70
    32
  0
VERTEX
  5
5EB
  8
┌▓È_1
 62
     5
 10
904.94799999999998
 20
-314.06999999999999
 30
0.0
 70
    32
  0
VERTEX
  5
5EC
  8
┌▓È_1
 62
     5
 10
904.96299999999997
 20
-314.072
 30
0.0
 70
    32
  0
VERTEX
  5
5ED
  8
┌▓È_1
 62
     5
 10
904.97799999999995
 20
-314.07499999999999
 30
0.0
 70
    32
  0
VERTEX
  5
5EE
  8
┌▓È_1
 62
     5
 10
904.99300000000005
 20
-314.07799999999997
 30
0.0
 70
    32
  0
VERTEX
  5
5EF
  8
┌▓È_1
 62
     5
 10
905.00699999999995
 20
-314.07999999999998
 30
0.0
 70
    32
  0
VERTEX
  5
5F0
  8
┌▓È_1
 62
     5
 10
905.02199999999993
 20
-314.08300000000003
 30
0.0
 70
    32
  0
VERTEX
  5
5F1
  8
┌▓È_1
 62
     5
 10
905.03699999999992
 20
-314.08499999999998
 30
0.0
 70
    32
  0
VERTEX
  5
5F2
  8
┌▓È_1
 62
     5
 10
905.05200000000002
 20
-314.08800000000002
 30
0.0
 70
    32
  0
VERTEX
  5
5F3
  8
┌▓È_1
 62
     5
 10
905.06700000000001
 20
-314.09100000000001
 30
0.0
 70
    32
  0
VERTEX
  5
5F4
  8
┌▓È_1
 62
     5
 10
905.08199999999988
 20
-314.09300000000002
 30
0.0
 70
    32
  0
VERTEX
  5
5F5
  8
┌▓È_1
 62
     5
 10
905.09599999999989
 20
-314.096
 30
0.0
 70
    32
  0
VERTEX
  5
5F6
  8
┌▓È_1
 62
     5
 10
905.1110000000001
 20
-314.09800000000001
 30
0.0
 70
    32
  0
VERTEX
  5
5F7
  8
┌▓È_1
 62
     5
 10
905.12599999999998
 20
-314.101
 30
0.0
 70
    32
  0
VERTEX
  5
5F8
  8
┌▓È_1
 62
     5
 10
905.14099999999996
 20
-314.10300000000001
 30
0.0
 70
    32
  0
VERTEX
  5
5F9
  8
┌▓È_1
 62
     5
 10
905.15599999999995
 20
-314.10599999999999
 30
0.0
 70
    32
  0
VERTEX
  5
5FA
  8
┌▓È_1
 62
     5
 10
905.17099999999994
 20
-314.10900000000009
 30
0.0
 70
    32
  0
VERTEX
  5
5FB
  8
┌▓È_1
 62
     5
 10
905.18600000000015
 20
-314.11099999999999
 30
0.0
 70
    32
  0
VERTEX
  5
5FC
  8
┌▓È_1
 62
     5
 10
905.20000000000005
 20
-314.11399999999998
 30
0.0
 70
    32
  0
VERTEX
  5
5FD
  8
┌▓È_1
 62
     5
 10
905.21500000000015
 20
-314.11599999999999
 30
0.0
 70
    32
  0
VERTEX
  5
5FE
  8
┌▓È_1
 62
     5
 10
905.23000000000002
 20
-314.11900000000003
 30
0.0
 70
    32
  0
VERTEX
  5
5FF
  8
┌▓È_1
 62
     5
 10
905.245
 20
-314.12099999999998
 30
0.0
 70
    32
  0
VERTEX
  5
600
  8
┌▓È_1
 62
     5
 10
905.25999999999988
 20
-314.12400000000002
 30
0.0
 70
    32
  0
VERTEX
  5
601
  8
┌▓È_1
 62
     5
 10
905.27499999999986
 20
-314.12599999999998
 30
0.0
 70
    32
  0
VERTEX
  5
602
  8
┌▓È_1
 62
     5
 10
905.28999999999985
 20
-314.12900000000002
 30
0.0
 70
    32
  0
VERTEX
  5
603
  8
┌▓È_1
 62
     5
 10
905.30499999999984
 20
-314.13099999999997
 30
0.0
 70
    32
  0
VERTEX
  5
604
  8
┌▓È_1
 62
     5
 10
905.31899999999985
 20
-314.13400000000001
 30
0.0
 70
    32
  0
VERTEX
  5
605
  8
┌▓È_1
 62
     5
 10
905.33399999999995
 20
-314.13600000000002
 30
0.0
 70
    32
  0
VERTEX
  5
606
  8
┌▓È_1
 62
     5
 10
905.34900000000005
 20
-314.13900000000001
 30
0.0
 70
    32
  0
VERTEX
  5
607
  8
┌▓È_1
 62
     5
 10
905.36399999999992
 20
-314.142
 30
0.0
 70
    32
  0
VERTEX
  5
608
  8
┌▓È_1
 62
     5
 10
905.37899999999991
 20
-314.14400000000001
 30
0.0
 70
    32
  0
VERTEX
  5
609
  8
┌▓È_1
 62
     5
 10
905.39399999999978
 20
-314.14699999999999
 30
0.0
 70
    32
  0
VERTEX
  5
60A
  8
┌▓È_1
 62
     5
 10
905.40899999999999
 20
-314.149
 30
0.0
 70
    32
  0
VERTEX
  5
60B
  8
┌▓È_1
 62
     5
 10
905.42399999999998
 20
-314.15199999999999
 30
0.0
 70
    32
  0
VERTEX
  5
60C
  8
┌▓È_1
 62
     5
 10
905.43799999999999
 20
-314.154
 30
0.0
 70
    32
  0
VERTEX
  5
60D
  8
┌▓È_1
 62
     5
 10
905.45299999999986
 20
-314.15699999999998
 30
0.0
 70
    32
  0
VERTEX
  5
60E
  8
┌▓È_1
 62
     5
 10
905.46800000000007
 20
-314.15899999999999
 30
0.0
 70
    32
  0
VERTEX
  5
60F
  8
┌▓È_1
 62
     5
 10
905.48299999999995
 20
-314.16199999999998
 30
0.0
 70
    32
  0
SEQEND
  5
610
  8
┌▓È_1
 62
     5
  0
DIMENSION
  5
249
  8
Éíû@É³
  2
*D33
 10
789.2240149859
 20
-193.7009259948
 30
0.0
 11
789.2240149859
 21
-187.8009259948
 31
0.0
 70
   128
  1
12
 13
773.93542874449975
 23
-193.7009259948
 33
0.0
 14
773.93542874449975
 24
-181.90092599479999
 34
0.0
 50
90.0
  0
DIMENSION
  5
258
  8
Éíû@É³
  2
*D34
 10
782.31135675809981
 20
-191.75092599480001
 30
0.0
 11
782.31135675809981
 21
-187.8009259948
 31
0.0
 70
   128
  1
8
 13
771.33542874449984
 23
-191.75092599480001
 33
0.0
 14
771.33542874449984
 24
-183.85092599480001
 34
0.0
 50
90.0
  0
LINE
  5
259
  8
┌▓È_1
  6
BORDER
 62
     3
 10
771.33542874449984
 20
-181.8009259948
 30
0.0
 11
771.33542874449984
 21
-193.8009259948
 31
0.0
  0
LINE
  5
25A
  8
┌▓È_1
 62
     5
 10
772.83542874449984
 20
-185.35092599480001
 30
0.0
 11
772.83542874449984
 21
-190.25092599480001
 31
0.0
  0
ARC
  5
25B
  8
┌▓È_1
 62
     5
 10
771.33542874449984
 20
-185.35092599480001
 30
0.0
 40
1.5
 50
0.0
 51
180.0
  0
ARC
  5
25C
  8
┌▓È_1
 62
     5
 10
773.93542874449975
 20
-192.7009259948
 30
0.0
 40
1.0
 50
270.0
 51
0.0
  0
LINE
  5
25D
  8
┌▓È_1
 62
     5
 10
769.83542874449984
 20
-190.25092599480001
 30
0.0
 11
769.83542874449984
 21
-185.35092599480001
 31
0.0
  0
ARC
  5
25E
  8
┌▓È_1
 62
     5
 10
773.93542874449975
 20
-182.90092599479999
 30
0.0
 40
1.0
 50
0.0
 51
90.0
  0
LINE
  5
25F
  8
┌▓È_1
 62
     5
 10
774.93542874449975
 20
-182.90092599479999
 30
0.0
 11
774.93542874449975
 21
-192.7009259948
 31
0.0
  0
ARC
  5
260
  8
┌▓È_1
 62
     5
 10
771.33542874449984
 20
-190.25092599480001
 30
0.0
 40
1.5
 50
180.0
 51
0.0
  0
LINE
  5
261
  8
┌▓È_1
 62
     5
 10
898.28315178949981
 20
-311.87702160539999
 30
0.0
 11
898.28315178949981
 21
-311.6193333914
 31
0.0
  0
LINE
  5
262
  8
┌▓È_1
 62
     5
 10
901.48315178949997
 20
-311.6193333914
 30
0.0
 11
901.03060344959999
 21
-312.07188173140008
 31
0.0
  0
LINE
  5
263
  8
┌▓È_1
 62
     5
 10
892.95466694109973
 20
-312.56164517740001
 30
0.0
 11
892.95466694109973
 21
-312.96164517739999
 31
0.0
  0
LINE
  5
264
  8
┌▓È_1
 62
     5
 10
894.95466694109984
 20
-311.36164517740002
 30
0.0
 11
894.95466694109984
 21
-310.96164517739999
 31
0.0
  0
LINE
  5
265
  8
┌▓È_1
 62
     5
 10
896.15466694109989
 20
-311.36164517740002
 30
0.0
 11
894.95466694109984
 21
-311.36164517740002
 31
0.0
  0
LINE
  5
266
  8
┌▓È_1
 62
     5
 10
888.43378389179998
 20
-312.56164517740001
 30
0.0
 11
889.23378389179993
 21
-312.56164517740001
 31
0.0
  0
ARC
  5
267
  8
┌▓È_1
 62
     5
 10
900.28315178950004
 20
-310.96164517739999
 30
0.0
 40
4.4000000000000004
 50
270.0
 51
302.54495885400001
  0
LINE
  5
268
  8
┌▓È_1
 62
     5
 10
894.95466694109984
 20
-312.56164517740001
 30
0.0
 11
896.15466694109989
 21
-312.56164517740001
 31
0.0
  0
ARC
  5
269
  8
┌▓È_1
 62
     5
 10
899.24315178949973
 20
-311.12164517740001
 30
0.0
 40
3.04
 50
331.39928138329998
 51
358.49204224580001
  0
LINE
  5
26A
  8
┌▓È_1
 62
     5
 10
898.28315178949981
 20
-315.36164517740002
 30
0.0
 11
900.28315178950004
 21
-315.36164517740002
 31
0.0
  0
LINE
  5
26B
  8
┌▓È_1
 62
     5
 10
889.35466694110005
 20
-315.36164517740002
 30
0.0
 11
892.55466694109975
 21
-315.36164517740002
 31
0.0
  0
LINE
  5
26C
  8
┌▓È_1
 62
     5
 10
904.68315178950002
 20
-310.96164517739999
 30
0.0
 11
905.48315178949974
 21
-309.7616451774
 31
0.0
  0
LINE
  5
26D
  8
┌▓È_1
 62
     5
 10
898.28315178949981
 20
-314.16164517739998
 30
0.0
 11
899.24315178949973
 21
-314.16164517739998
 31
0.0
  0
LINE
  5
26E
  8
┌▓È_1
 62
     5
 10
898.28315178949981
 20
-314.16164517739998
 30
0.0
 11
898.28315178949981
 21
-315.36164517740002
 31
0.0
  0
ARC
  5
26F
  8
┌▓È_1
 62
     5
 10
899.24315178949973
 20
-311.12164517740001
 30
0.0
 40
3.04
 50
270.0
 51
298.08590481520002
  0
LINE
  5
270
  8
┌▓È_1
 62
     5
 10
903.77332727119995
 20
-313.64095014460008
 30
0.0
 11
903.63084562339975
 21
-313.78045265999998
 31
0.0
  0
LINE
  5
271
  8
┌▓È_1
 62
     5
 10
889.35466694110005
 20
-312.56164517740001
 30
0.0
 11
889.35466694110005
 21
-313.7616451774
 31
0.0
  0
INSERT
  5
272
  8
0
  6
CONTINUOUS
  2
*U51
 10
0.0
 20
0.0
 30
0.0
  0
LINE
  5
273
  8
┌▓È_1
 62
     5
 10
889.35466694110005
 20
-309.7616451774
 30
0.0
 11
889.35466694110005
 21
-311.36164517740002
 31
0.0
  0
LINE
  5
274
  8
┌▓È_1
 62
     5
 10
891.35466694110005
 20
-310.96164517739999
 30
0.0
 11
892.55466694109975
 21
-309.7616451774
 31
0.0
  0
LINE
  5
275
  8
┌▓È_1
 62
     5
 10
892.55466694109975
 20
-309.7616451774
 30
0.0
 11
889.35466694110005
 21
-309.7616451774
 31
0.0
  0
LINE
  5
276
  8
┌▓È_1
 62
     5
 10
892.95466694109973
 20
-311.36164517740002
 30
0.0
 11
891.35466694110005
 21
-311.36164517740002
 31
0.0
  0
LINE
  5
277
  8
┌▓È_1
 10
855.15746557509999
 20
-291.38978355090001
 30
0.0
 11
855.15746557509999
 21
-316.88978355090001
 31
0.0
  0
LINE
  5
278
  8
┌▓È_1
 10
871.15746557509999
 20
-291.38978355090001
 30
0.0
 11
871.15746557509999
 21
-299.88978355090001
 31
0.0
  0
LINE
  5
279
  8
┌▓È_1
 10
903.15746557509988
 20
-291.38978355090001
 30
0.0
 11
903.15746557509988
 21
-308.38978355090001
 31
0.0
  0
LINE
  5
27A
  8
┌▓È_1
 10
857.15746557509999
 20
-295.63978355090001
 30
0.0
 11
869.15746557509988
 21
-295.63978355090001
 31
0.0
  0
LINE
  5
27B
  8
┌▓È_1
 10
873.15746557509999
 20
-295.63978355090001
 30
0.0
 11
885.15746557509988
 21
-295.63978355090001
 31
0.0
  0
LINE
  5
27C
  8
┌▓È_1
 10
857.15746557509999
 20
-304.13978355090001
 30
0.0
 11
885.15746557509988
 21
-304.13978355090001
 31
0.0
  0
LINE
  5
27D
  8
┌▓È_1
 10
889.15746557509999
 20
-295.63978355090001
 30
0.0
 11
901.15746557509988
 21
-295.63978355090001
 31
0.0
  0
LINE
  5
27E
  8
┌▓È_1
 10
889.15746557509999
 20
-304.13978355090001
 30
0.0
 11
901.15746557509988
 21
-304.13978355090001
 31
0.0
  0
INSERT
  5
27F
  8
0
  6
CONTINUOUS
  2
*U52
 10
0.0
 20
0.0
 30
0.0
  0
INSERT
  5
280
  8
0
  6
CONTINUOUS
  2
*U53
 10
0.0
 20
0.0
 30
0.0
  0
INSERT
  5
281
  8
0
  6
CONTINUOUS
  2
*U54
 10
0.0
 20
0.0
 30
0.0
  0
INSERT
  5
282
  8
0
  6
CONTINUOUS
  2
*U55
 10
0.0
 20
0.0
 30
0.0
  0
INSERT
  5
283
  8
0
  6
CONTINUOUS
  2
*U56
 10
0.0
 20
0.0
 30
0.0
  0
INSERT
  5
284
  8
0
  6
CONTINUOUS
  2
*U57
 10
0.0
 20
0.0
 30
0.0
  0
ARC
  5
285
  8
┌▓È_1
 62
     5
 10
892.55466694109975
 20
-312.96164517739999
 30
0.0
 40
2.399999999999999
 50
270.0
 51
0.0
  0
LINE
  5
286
  8
┌▓È_1
 62
     5
 10
898.28315178949981
 20
-309.7616451774
 30
0.0
 11
898.28315178949981
 21
-311.2016451774
 31
0.0
  0
LINE
  5
287
  8
┌▓È_1
 62
     5
 10
896.15466694109989
 20
-309.7616451774
 30
0.0
 11
892.95466694109973
 21
-309.7616451774
 31
0.0
  0
LINE
  5
288
  8
┌▓È_1
 62
     5
 10
891.35466694110005
 20
-313.7616451774
 30
0.0
 11
891.35466694110005
 21
-312.56164517740001
 31
0.0
  0
LINE
  5
289
  8
┌▓È_1
 62
     5
 10
898.28315178949981
 20
-311.2016451774
 30
0.0
 11
902.28315178949993
 21
-311.2016451774
 31
0.0
  0
LINE
  5
28A
  8
┌▓È_1
 62
     5
 10
891.75466694110014
 20
-314.16164517739998
 30
0.0
 11
889.35466694110005
 21
-314.16164517739998
 31
0.0
  0
LINE
  5
28B
  8
┌▓È_1
 62
     5
 10
889.35466694110005
 20
-314.16164517739998
 30
0.0
 11
889.35466694110005
 21
-315.36164517740002
 31
0.0
  0
LINE
  5
28C
  8
┌▓È_1
 62
     5
 10
889.35466694110005
 20
-312.56164517740001
 30
0.0
 11
889.23378389179993
 21
-312.56164517740001
 31
0.0
  0
LINE
  5
28D
  8
┌▓È_1
 62
     5
 10
905.48315178949974
 20
-314.16164517739998
 30
0.0
 11
905.48315178949974
 21
-315.36164517740002
 31
0.0
  0
LINE
  5
28E
  8
┌▓È_1
 62
     5
 10
889.35466694110005
 20
-311.36164517740002
 30
0.0
 11
888.43378389179998
 21
-311.36164517740002
 31
0.0
  0
LINE
  5
28F
  8
┌▓È_1
 62
     5
 10
898.28315178949981
 20
-315.36164517740002
 30
0.0
 11
898.28315178949981
 21
-314.16164517739998
 31
0.0
  0
LINE
  5
290
  8
┌▓È_1
 62
     5
 10
891.35466694110005
 20
-311.36164517740002
 30
0.0
 11
891.35466694110005
 21
-310.96164517739999
 31
0.0
  0
LINE
  5
291
  8
┌▓È_1
 62
     5
 10
896.15466694109989
 20
-311.36164517740002
 30
0.0
 11
896.15466694109989
 21
-312.56164517740001
 31
0.0
  0
LINE
  5
292
  8
┌▓È_1
 62
     5
 10
888.43378389179998
 20
-311.36164517740002
 30
0.0
 11
888.43378389179998
 21
-312.56164517740001
 31
0.0
  0
INSERT
  5
293
  8
0
  6
CONTINUOUS
  2
*U58
 10
0.0
 20
0.0
 30
0.0
  0
LINE
  5
294
  8
┌▓È_1
 62
     5
 10
911.40479399279991
 20
-310.71466206510001
 30
0.0
 11
912.05713790820005
 21
-309.7616451774
 31
0.0
  0
LINE
  5
295
  8
┌▓È_1
 62
     5
 10
912.53484136999987
 20
-314.64164517739999
 30
0.0
 11
914.45713790820002
 21
-314.64164517739999
 31
0.0
  0
LINE
  5
296
  8
┌▓È_1
 62
     5
 10
914.45713790820002
 20
-311.12164517740001
 30
0.0
 11
914.45713790820002
 21
-312.56164517740001
 31
0.0
  0
LINE
  5
297
  8
┌▓È_1
 62
     5
 10
910.61713790820011
 20
-315.7616451774
 30
0.0
 11
910.28860457479982
 21
-314.64164517739999
 31
0.0
  0
LINE
  5
298
  8
┌▓È_1
 62
     5
 10
912.12046010669985
 20
-313.2016451774
 30
0.0
 11
911.93629065629989
 21
-312.56164517740001
 31
0.0
  0
LINE
  5
299
  8
┌▓È_1
 62
     5
 10
914.45713790820002
 20
-313.2016451774
 30
0.0
 11
914.45713790820002
 21
-314.64164517739999
 31
0.0
  0
LINE
  5
29A
  8
┌▓È_1
 62
     5
 10
910.61713790820011
 20
-315.7616451774
 30
0.0
 11
912.85713790820023
 21
-315.7616451774
 31
0.0
  0
LINE
  5
29B
  8
┌▓È_1
 62
     5
 10
911.52190939299987
 20
-311.12164517740001
 30
0.0
 11
914.45713790820002
 21
-311.12164517740001
 31
0.0
  0
LINE
  5
29C
  8
┌▓È_1
 10
919.15746557509988
 20
-291.38978355090001
 30
0.0
 11
919.15746557509988
 21
-316.88978355090001
 31
0.0
  0
LINE
  5
29D
  8
┌▓È_1
 62
     5
 10
911.93629065629989
 20
-312.56164517740001
 30
0.0
 11
914.45713790820002
 21
-312.56164517740001
 31
0.0
  0
LINE
  5
29E
  8
┌▓È_1
 62
     5
 10
909.86620457480001
 20
-313.2016451774
 30
0.0
 11
909.67847124149989
 21
-312.56164517740001
 31
0.0
  0
LINE
  5
29F
  8
┌▓È_1
 62
     5
 10
911.52190939299987
 20
-311.12164517740001
 30
0.0
 11
911.40479399279991
 21
-310.71466206510001
 31
0.0
  0
LINE
  5
2A0
  8
┌▓È_1
 62
     5
 10
912.12046010669985
 20
-313.2016451774
 30
0.0
 11
914.45713790820002
 21
-313.2016451774
 31
0.0
  0
LINE
  5
2A1
  8
┌▓È_1
 62
     5
 10
912.85713790820023
 20
-315.7616451774
 30
0.0
 11
912.53484136999987
 21
-314.64164517739999
 31
0.0
  0
INSERT
  5
2A2
  8
0
  6
CONTINUOUS
  2
*U59
 10
0.0
 20
0.0
 30
0.0
  0
INSERT
  5
2A3
  8
0
  6
CONTINUOUS
  2
*U60
 10
0.0
 20
0.0
 30
0.0
  0
INSERT
  5
2A4
  8
0
  6
CONTINUOUS
  2
*U61
 10
0.0
 20
0.0
 30
0.0
  0
INSERT
  5
2A5
  8
0
  6
CONTINUOUS
  2
*U62
 10
0.0
 20
0.0
 30
0.0
  0
INSERT
  5
2A6
  8
0
  6
CONTINUOUS
  2
*U63
 10
0.0
 20
0.0
 30
0.0
  0
INSERT
  5
2A7
  8
0
  6
CONTINUOUS
  2
*U64
 10
0.0
 20
0.0
 30
0.0
  0
INSERT
  5
2A8
  8
0
  6
CONTINUOUS
  2
*U65
 10
0.0
 20
0.0
 30
0.0
  0
INSERT
  5
2A9
  8
0
  6
CONTINUOUS
  2
*U66
 10
0.0
 20
0.0
 30
0.0
  0
INSERT
  5
2AA
  8
0
  6
CONTINUOUS
  2
*U67
 10
0.0
 20
0.0
 30
0.0
  0
LINE
  5
2AB
  8
┌▓È_1
 10
887.15746557509999
 20
-291.38978355090001
 30
0.0
 11
887.15746557509999
 21
-308.38978355090001
 31
0.0
  0
DIMENSION
  5
2BA
  8
Éíû@É³
  2
*D35
 10
927.05746579740003
 20
-143.97049580539999
 30
0.0
 11
918.05746579740003
 21
-143.97049580539999
 31
0.0
 70
   128
  1
<>
 13
927.05746579740003
 23
-150.97740727210001
 33
0.0
 14
909.05746579740003
 24
-151.0160316107
 34
0.0
  0
DIMENSION
  5
2C9
  8
Éíû@É³
  2
*D36
 10
940.05746579740014
 20
-157.0774072721
 30
0.0
 11
940.05746579740014
 21
-153.4774072720999
 31
0.0
 70
   128
  1
<>
 13
930.05746579739991
 23
-157.0774072721
 33
0.0
 14
930.05746579739991
 24
-149.87740727209999
 34
0.0
 50
90.0
  0
INSERT
  5
2CA
  8
0
  6
CONTINUOUS
  2
*U68
 10
0.0
 20
0.0
 30
0.0
  0
INSERT
  5
2CB
  8
0
  6
CONTINUOUS
  2
*U69
 10
0.0
 20
0.0
 30
0.0
  0
INSERT
  5
2CC
  8
0
  6
CONTINUOUS
  2
*U70
 10
0.0
 20
0.0
 30
0.0
  0
INSERT
  5
2CD
  8
0
  6
CONTINUOUS
  2
*U71
 10
0.0
 20
0.0
 30
0.0
  0
INSERT
  5
2CE
  8
0
  6
CONTINUOUS
  2
*U72
 10
0.0
 20
0.0
 30
0.0
  0
INSERT
  5
2CF
  8
0
  6
CONTINUOUS
  2
*U73
 10
0.0
 20
0.0
 30
0.0
  0
INSERT
  5
2D0
  8
0
  6
CONTINUOUS
  2
*U74
 10
0.0
 20
0.0
 30
0.0
  0
INSERT
  5
2D1
  8
0
  6
CONTINUOUS
  2
*U75
 10
0.0
 20
0.0
 30
0.0
  0
INSERT
  5
2D2
  8
0
  6
CONTINUOUS
  2
*U76
 10
0.0
 20
0.0
 30
0.0
  0
INSERT
  5
2D5
  8
0
  6
CONTINUOUS
  2
*U77
 10
0.0
 20
0.0
 30
0.0
  0
INSERT
  5
2D6
  8
0
  6
CONTINUOUS
  2
*U78
 10
0.0
 20
0.0
 30
0.0
  0
INSERT
  5
2D7
  8
0
  6
CONTINUOUS
  2
*U79
 10
0.0
 20
0.0
 30
0.0
  0
INSERT
  5
2D8
  8
0
  6
CONTINUOUS
  2
*U80
 10
0.0
 20
0.0
 30
0.0
  0
INSERT
  5
2D9
  8
0
  6
CONTINUOUS
  2
*U81
 10
0.0
 20
0.0
 30
0.0
  0
INSERT
  5
2DA
  8
0
  6
CONTINUOUS
  2
*U82
 10
0.0
 20
0.0
 30
0.0
  0
INSERT
  5
2DB
  8
0
  6
CONTINUOUS
  2
*U83
 10
0.0
 20
0.0
 30
0.0
  0
INSERT
  5
2DC
  8
0
  6
CONTINUOUS
  2
*U84
 10
0.0
 20
0.0
 30
0.0
  0
INSERT
  5
2DD
  8
0
  6
CONTINUOUS
  2
*U85
 10
0.0
 20
0.0
 30
0.0
  0
INSERT
  5
2DE
  8
0
  6
CONTINUOUS
  2
*U86
 10
0.0
 20
0.0
 30
0.0
  0
INSERT
  5
2DF
  8
0
  6
CONTINUOUS
  2
*U87
 10
0.0
 20
0.0
 30
0.0
  0
INSERT
  5
2E0
  8
0
  6
CONTINUOUS
  2
*U88
 10
0.0
 20
0.0
 30
0.0
  0
ENDSEC
  0
EOF
