  0
SECTION
  2
HEADER
  9
$ACADVER
  1
AC1015
  9
$ACADMAINTVER
 70
               6
  9
$DWGCODEPAGE
  3
ANSI_932
  9
$INSBASE
 10
0.0
 20
0.0
 30
0.0
  9
$EXTMIN
 10
650.96216216216249
 20
-117.42319819819797
 30
0.0
  9
$EXTMAX
 10
1023.0378378378382
 20
-324.05563063063039
 30
0.0
  9
$LIMMIN
 10
0.0
 20
0.0
  9
$LIMMAX
 10
0.0
 20
0.0
  9
$ORTHOMODE
 70
               0
  9
$REGENMODE
 70
               1
  9
$FILLMODE
 70
               1
  9
$QTEXTMODE
 70
               0
  9
$MIRRTEXT
 70
               1
  9
$LTSCALE
 40
1.0
  9
$ATTMODE
 70
               1
  9
$TEXTSIZE
 40
0.2
  9
$TRACEWID
 40
0.05
  9
$TEXTSTYLE
  7
Standard
  9
$CLAYER
  8
0
  9
$CELTYPE
  6
Continuous
  9
$CECOLOR
 62
             256
  9
$CELTSCALE
 40
1.0
  9
$DISPSILH
 70
               0
  9
$DIMSCALE
 40
1.0
  9
$DIMASZ
 40
3.0
  9
$DIMEXO
 40
1.0
  9
$DIMDLI
 40
0.38
  9
$DIMRND
 40
0.0
  9
$DIMDLE
 40
0.0
  9
$DIMEXE
 40
0.5
  9
$DIMTP
 40
0.0
  9
$DIMTM
 40
0.0
  9
$DIMTXT
 40
3.5277777777777777
  9
$DIMCEN
 40
0.09
  9
$DIMTSZ
 40
0.0
  9
$DIMTOL
 70
               0
  9
$DIMLIM
 70
               0
  9
$DIMTIH
 70
               0
  9
$DIMTOH
 70
               0
  9
$DIMSE1
 70
               0
  9
$DIMSE2
 70
               0
  9
$DIMTAD
 70
               1
  9
$DIMZIN
 70
               0
  9
$DIMBLK
  1

  9
$DIMASO
 70
               1
  9
$DIMSHO
 70
               1
  9
$DIMPOST
  1

  9
$DIMAPOST
  1

  9
$DIMALT
 70
               0
  9
$DIMALTD
 70
               3
  9
$DIMALTF
 40
25.399999999999999
  9
$DIMLFAC
 40
1.0
  9
$DIMTOFL
 70
               0
  9
$DIMTVP
 40
0.0
  9
$DIMTIX
 70
               0
  9
$DIMSOXD
 70
               0
  9
$DIMSAH
 70
               0
  9
$DIMBLK1
  1

  9
$DIMBLK2
  1

  9
$DIMSTYLE
  2
Standard
  9
$DIMCLRD
 70
               7
  9
$DIMCLRE
 70
               7
  9
$DIMCLRT
 70
               7
  9
$DIMTFAC
 40
1.0
  9
$DIMGAP
 40
1.0
  9
$DIMJUST
 70
               0
  9
$DIMSD1
 70
               0
  9
$DIMSD2
 70
               0
  9
$DIMTOLJ
 70
               1
  9
$DIMTZIN
 70
               0
  9
$DIMALTZ
 70
               0
  9
$DIMALTTZ
 70
               0
  9
$DIMUPT
 70
               0
  9
$DIMDEC
 70
               3
  9
$DIMTDEC
 70
               4
  9
$DIMALTU
 70
               2
  9
$DIMALTTD
 70
               2
  9
$DIMTXSTY
  7
Standard
  9
$DIMAUNIT
 70
               0
  9
$DIMADEC
 70
               0
  9
$DIMALTRND
 40
0.0
  9
$DIMAZIN
 70
               0
  9
$DIMDSEP
 70
               0
  9
$DIMATFIT
 70
               3
  9
$DIMFRAC
 70
               0
  9
$DIMLDRBLK
  1

  9
$DIMLUNIT
 70
               2
  9
$DIMLWD
 70
               0
  9
$DIMLWE
 70
               0
  9
$DIMTMOVE
 70
               0
  9
$LUNITS
 70
               2
  9
$LUPREC
 70
               4
  9
$SKETCHINC
 40
0.1
  9
$FILLETRAD
 40
0.0
  9
$AUNITS
 70
               0
  9
$AUPREC
 70
               0
  9
$MENU
  1
acad
  9
$ELEVATION
 40
0.0
  9
$PELEVATION
 40
0.0
  9
$THICKNESS
 40
0.0
  9
$LIMCHECK
 70
               0
  9
$CHAMFERA
 40
0.0
  9
$CHAMFERB
 40
0.0
  9
$CHAMFERC
 40
0.0
  9
$CHAMFERD
 40
0.0
  9
$SKPOLY
 70
               0
  9
$TDCREATE
 40
2455847.751018519
  9
$TDUCREATE
 40
0.000000000
  9
$TDUPDATE
 40
2455847.751018519
  9
$TDUUPDATE
 40
0.000000000
  9
$TDINDWG
 40
0.0000000000
  9
$TDUSRTIMER
 40
0.0000000000
  9
$USRTIMER
 70
               1
  9
$ANGBASE
 50
0.0
  9
$ANGDIR
 70
               0
  9
$PDMODE
 70
               0
  9
$PDSIZE
 40
0.0
  9
$PLINEWID
 40
0.0
  9
$SPLFRAME
 70
               0
  9
$SPLINETYPE
 70
               6
  9
$SPLINESEGS
 70
               8
  9
$HANDSEED
  5
16C
  9
$SURFTAB1
 70
               6
  9
$SURFTAB2
 70
               6
  9
$SURFTYPE
 70
               6
  9
$SURFU
 70
               6
  9
$SURFV
 70
               6
  9
$UCSBASE
  2

  9
$UCSNAME
  2

  9
$UCSORG
 10
0.0
 20
0.0
 30
0.0
  9
$UCSXDIR
 10
1.0
 20
0.0
 30
0.0
  9
$UCSYDIR
 10
0.0
 20
1.0
 30
0.0
  9
$UCSORTHOREF
  2

  9
$UCSORTHOVIEW
 70
               0
  9
$UCSORGTOP
 10
0.0
 20
0.0
 30
0.0
  9
$UCSORGBOTTOM
 10
0.0
 20
0.0
 30
0.0
  9
$UCSORGLEFT
 10
0.0
 20
0.0
 30
0.0
  9
$UCSORGRIGHT
 10
0.0
 20
0.0
 30
0.0
  9
$UCSORGFRONT
 10
0.0
 20
0.0
 30
0.0
  9
$UCSORGBACK
 10
0.0
 20
0.0
 30
0.0
  9
$PUCSBASE
  2

  9
$PUCSNAME
  2

  9
$PUCSORG
 10
0.0
 20
0.0
 30
0.0
  9
$PUCSXDIR
 10
1.0
 20
0.0
 30
0.0
  9
$PUCSYDIR
 10
0.0
 20
1.0
 30
0.0
  9
$PUCSORTHOREF
  2

  9
$PUCSORTHOVIEW
 70
               0
  9
$PUCSORGTOP
 10
0.0
 20
0.0
 30
0.0
  9
$PUCSORGBOTTOM
 10
0.0
 20
0.0
 30
0.0
  9
$PUCSORGLEFT
 10
0.0
 20
0.0
 30
0.0
  9
$PUCSORGRIGHT
 10
0.0
 20
0.0
 30
0.0
  9
$PUCSORGFRONT
 10
0.0
 20
0.0
 30
0.0
  9
$PUCSORGBACK
 10
0.0
 20
0.0
 30
0.0
  9
$USERI1
 70
               0
  9
$USERI2
 70
               0
  9
$USERI3
 70
               0
  9
$USERI4
 70
               0
  9
$USERI5
 70
               0
  9
$USERR1
 40
0.0
  9
$USERR2
 40
0.0
  9
$USERR3
 40
0.0
  9
$USERR4
 40
0.0
  9
$USERR5
 40
0.0
  9
$WORLDVIEW
 70
               1
  9
$SHADEDGE
 70
               3
  9
$SHADEDIF
 70
              70
  9
$TILEMODE
 70
               1
  9
$MAXACTVP
 70
              16
  9
$PINSBASE
 10
0.0
 20
0.0
 30
0.0
  9
$PLIMCHECK
 70
               0
  9
$PEXTMIN
 10
1.0000000000000000E+20
 20
1.0000000000000000E+20
 30
1.0000000000000000E+20
  9
$PEXTMAX
 10
-1.0000000000000000E+20
 20
-1.0000000000000000E+20
 30
-1.0000000000000000E+20
  9
$PLIMMIN
 10
0.0
 20
0.0
  9
$PLIMMAX
 10
12.0
 20
9.0
  9
$UNITMODE
 70
               0
  9
$VISRETAIN
 70
               0
  9
$PLINEGEN
 70
               1
  9
$PSLTSCALE
 70
               0
  9
$TREEDEPTH
 70
            3020
  9
$CMLSTYLE
  2
Standard
  9
$CMLJUST
 70
               0
  9
$CMLSCALE
 40
1.0
  9
$PROXYGRAPHICS
 70
               0
  9
$MEASUREMENT
 70
               0
  9
$CELWEIGHT
370
               0
  9
$ENDCAPS
280
               0
  9
$JOINSTYLE
280
               0
  9
$LWDISPLAY
290
               0
  9
$INSUNITS
 70
               0
  9
$HYPERLINKBASE
  1

  9
$STYLESHEET
  1

  9
$XEDIT
290
               1
  9
$CEPSNTYPE
380
               0
  9
$PSTYLEMODE
290
               1
  9
$FINGERPRINTGUID
  2

  9
$VERSIONGUID
  2

  9
$EXTNAMES
290
               1
  9
$PSVPSCALE
 40
0.0
  0
ENDSEC
  0
SECTION
  2
CLASSES
  0
CLASS
  1
LWPOLYLINE
  2
AcDbPolyline
  3
AutoCAD 2000
 90
        0
280
               0
281
               1
  0
CLASS
  1
IMAGE
  2
AcDbRasterImage
  3
ISM
 90
      127
280
               0
281
               1
  0
CLASS
  1
OLE2FRAME
  2
AcDbOle2Frame
  3
AutoCAD 2000
 90
        0
280
               0
281
               1
  0
CLASS
  1
HATCH
  2
AcDbHatch
  3
AutoCAD 2000
 90
        0
280
               0
281
               1
  0
CLASS
  1
DICTIONARYVAR
  2
AcDbDictionaryVar
  3
AutoCAD 2000
 90
        0
280
               0
281
               0
  0
CLASS
  1
RASTERVARIABLES
  2
AcDbRasterVariables
  3
ISM
 90
        0
280
               0
281
               0
  0
CLASS
  1
IMAGEDEF
  2
AcDbRasterImageDef
  3
ISM
 90
        0
280
               0
281
               0
  0
CLASS
  1
IMAGEDEF_REACTOR
  2
AcDbRasterImageDefReactor
  3
ISM
 90
        1
280
               0
281
               0
  0
CLASS
  1
IDBUFFER
  2
AcDbIdBuffer
  3
AutoCAD 2000
 90
        0
280
               0
281
               0
  0
CLASS
  1
SPATIAL_FILTER
  2
AcDbSpatialFilter
  3
AutoCAD 2000
 90
        0
280
               0
281
               0
  0
CLASS
  1
XRECORD
  2
AcDbXrecord
  3
AutoCAD 2000
 90
        0
280
               0
281
               0
  0
CLASS
  1
SORTENTSTABLE
  2
AcDbSortentsTable
  3
AutoCAD 2000
 90
        0
280
               0
281
               0
  0
CLASS
  1
LAYER_INDEX
  2
AcDbLayerIndex
  3
AutoCAD 2000
 90
        0
280
               0
281
               0
  0
CLASS
  1
SPATIAL_INDEX
  2
AcDbSpatialIndex
  3
AutoCAD 2000
 90
        0
280
               0
281
               0
  0
CLASS
  1
OBJECT_PTR
  2
CAseDLPNTableRecord
  3
"ASE-LPNTableRecord"
 90
        1
280
               0
281
               0
  0
CLASS
  1
LAYOUT
  2
AcDbLayout
  3
AutoCAD 2000
 90
        0
280
               0
281
               0
  0
CLASS
  1
PLOTSETTINGS
  2
AcDbPlotSettings
  3
AutoCAD 2000
 90
        0
280
               0
281
               0
  0
CLASS
  1
ACDBDICTIONARYWDFLT
  2
AcDbDictionaryWithDefault
  3
AutoCAD 2000
 90
        0
280
               0
281
               0
  0
CLASS
  1
ACDBPLACEHOLDER
  2
AcDbPlaceHolder
  3
AutoCAD 2000
 90
        0
280
               0
281
               0
  0
CLASS
  1
VBA_PROJECT
  2
AcDbVbaProject
  3
acadvba
 90
        0
280
               0
281
               0
  0
CLASS
  1
WIPEOUT
  2
AcDbWipeout
  3
WipeOut|AutoCAD Express Tool|expresstools@autodesk.com
 90
      127
280
               0
281
               1
  0
CLASS
  1
WIPEOUTVARIABLES
  2
AcDbWipeoutVariables
  3
WipeOut|AutoCAD Express Tool|expresstools@autodesk.com
 90
        0
280
               0
281
               0
  0
CLASS
  1
RTEXT
  2
RText
  3
RText|AutoCAD Express Tool|expresstools@autodesk.com
 90
        0
280
               0
281
               1
  0
CLASS
  1
ARCALIGNEDTEXT
  2
AcDbArcAlignedText
  3
ATEXT|AutoCAD Express Tool|expresstools@autodesk.com
 90
        0
280
               0
281
               1
  0
ENDSEC
  0
SECTION
  2
TABLES
  0
TABLE
  2
VPORT
  5
7
100
AcDbSymbolTable
 70
               1
  0
VPORT
  5
15
100
AcDbSymbolTableRecord
100
AcDbViewportTableRecord
  2
*ACTIVE
 70
               0
 10
0.0
 20
0.0
 11
1.0
 21
1.0
 12
6.5912879999999996
 22
4.5791839999999997
 13
0.0
 23
0.0
 14
1.0
 24
1.0
 15
0.0
 25
0.0
 16
0.0
 26
0.0
 36
1.0
 17
0.0
 27
0.0
 37
0.0
 40
9.1583690000000004
 41
0.688564
 42
50.0
 43
0.0
 44
0.0
 50
0.0
 51
0.0
 71
               0
 72
             100
 73
               1
 74
               1
 75
               0
 76
               0
 77
               0
 78
               0
281
               0
 65
               0
110
0.0
120
0.0
130
0.0
111
1.0
121
0.0
131
0.0
112
0.0
122
1.0
132
0.0
345
0
346
0
 79
               0
146
0.0
  0
ENDTAB
  0
TABLE
  2
LTYPE
  5
4
100
AcDbSymbolTable
 70
              13
  0
LTYPE
  5
11
100
AcDbSymbolTableRecord
100
AcDbLinetypeTableRecord
  2
ByBlock
 70
              64
  3

 72
              65
 73
               0
 40
0.0
  0
LTYPE
  5
12
100
AcDbSymbolTableRecord
100
AcDbLinetypeTableRecord
  2
ByLayer
 70
              64
  3

 72
              65
 73
               0
 40
0.0
  0
LTYPE
  5
13
100
AcDbSymbolTableRecord
100
AcDbLinetypeTableRecord
  2
Continuous
 70
              64
  3
Solid line
 72
              65
 73
               0
 40
0.0
  0
LTYPE
  5
24
100
AcDbSymbolTableRecord
100
AcDbLinetypeTableRecord
  2
DOT
 70
              64
  3

 72
              65
 73
               2
 40
1.0
 49
0.0
 74
               0
 49
-1.0
 74
               0
  0
LTYPE
  5
25
100
AcDbSymbolTableRecord
100
AcDbLinetypeTableRecord
  2
DASHEDX2
 70
              64
  3

 72
              65
 73
               2
 40
4.0
 49
3.0
 74
               0
 49
-1.0
 74
               0
  0
LTYPE
  5
26
100
AcDbSymbolTableRecord
100
AcDbLinetypeTableRecord
  2
DASHED
 70
              64
  3

 72
              65
 73
               2
 40
3.0
 49
2.0
 74
               0
 49
-1.0
 74
               0
  0
LTYPE
  5
27
100
AcDbSymbolTableRecord
100
AcDbLinetypeTableRecord
  2
DASHED2
 70
              64
  3

 72
              65
 73
               2
 40
2.0
 49
1.0
 74
               0
 49
-1.0
 74
               0
  0
LTYPE
  5
28
100
AcDbSymbolTableRecord
100
AcDbLinetypeTableRecord
  2
CENTERX2
 70
              64
  3

 72
              65
 73
               4
 40
43.0
 49
40.0
 74
               0
 49
-1.0
 74
               0
 49
1.0
 74
               0
 49
-1.0
 74
               0
  0
LTYPE
  5
29
100
AcDbSymbolTableRecord
100
AcDbLinetypeTableRecord
  2
CENTER
 70
              64
  3

 72
              65
 73
               4
 40
33.0
 49
30.0
 74
               0
 49
-1.0
 74
               0
 49
1.0
 74
               0
 49
-1.0
 74
               0
  0
LTYPE
  5
2A
100
AcDbSymbolTableRecord
100
AcDbLinetypeTableRecord
  2
CENTER2
 70
              64
  3

 72
              65
 73
               4
 40
23.0
 49
20.0
 74
               0
 49
-1.0
 74
               0
 49
1.0
 74
               0
 49
-1.0
 74
               0
  0
LTYPE
  5
2B
100
AcDbSymbolTableRecord
100
AcDbLinetypeTableRecord
  2
PHANTOMX2
 70
              64
  3

 72
              65
 73
               6
 40
45.0
 49
40.0
 74
               0
 49
-1.0
 74
               0
 49
1.0
 74
               0
 49
-1.0
 74
               0
 49
1.0
 74
               0
 49
-1.0
 74
               0
  0
LTYPE
  5
2C
100
AcDbSymbolTableRecord
100
AcDbLinetypeTableRecord
  2
PHANTOM
 70
              64
  3

 72
              65
 73
               6
 40
35.0
 49
30.0
 74
               0
 49
-1.0
 74
               0
 49
1.0
 74
               0
 49
-1.0
 74
               0
 49
1.0
 74
               0
 49
-1.0
 74
               0
  0
LTYPE
  5
2D
100
AcDbSymbolTableRecord
100
AcDbLinetypeTableRecord
  2
PHANTOM2
 70
              64
  3

 72
              65
 73
               6
 40
25.0
 49
20.0
 74
               0
 49
-1.0
 74
               0
 49
1.0
 74
               0
 49
-1.0
 74
               0
 49
1.0
 74
               0
 49
-1.0
 74
               0
  0
ENDTAB
  0
TABLE
  2
LAYER
  5
2
100
AcDbSymbolTable
 70
              11
  0
LAYER
  5
14
100
AcDbSymbolTableRecord
100
AcDbLayerTableRecord
  2
0
 70
               0
 62
               7
  6
Continuous
290
               1
370
              -3
390
1D
  0
LAYER
  5
2E
100
AcDbSymbolTableRecord
100
AcDbLayerTableRecord
  2
DEFPOINTS
 70
               0
 62
               7
  6
Continuous
290
               0
370
              -3
390
1D
  0
LAYER
  5
2F
100
AcDbSymbolTableRecord
100
AcDbLayerTableRecord
  2
____1
 70
               0
 62
               7
  6
Continuous
290
               1
370
              -3
390
1D
  0
LAYER
  5
30
100
AcDbSymbolTableRecord
100
AcDbLayerTableRecord
  2
______
 70
               0
 62
               7
  6
Continuous
290
               1
370
              -3
390
1D
  0
LAYER
  5
31
100
AcDbSymbolTableRecord
100
AcDbLayerTableRecord
  2
寸法線_1
 70
               0
 62
               7
  6
Continuous
290
               1
370
              -3
390
1D
  0
LAYER
  5
32
100
AcDbSymbolTableRecord
100
AcDbLayerTableRecord
  2
CONSTRUCTION
 70
               0
 62
               7
  6
Continuous
290
               1
370
              -3
390
1D
  0
LAYER
  5
33
100
AcDbSymbolTableRecord
100
AcDbLayerTableRecord
  2
DIMENSION
 70
               0
 62
               7
  6
Continuous
290
               1
370
              -3
390
1D
  0
LAYER
  5
34
100
AcDbSymbolTableRecord
100
AcDbLayerTableRecord
  2
FORMAT
 70
               0
 62
               7
  6
Continuous
290
               1
370
              -3
390
1D
  0
LAYER
  5
35
100
AcDbSymbolTableRecord
100
AcDbLayerTableRecord
  2
____2
 70
               0
 62
               5
  6
Continuous
290
               1
370
              -3
390
1D
  0
LAYER
  5
36
100
AcDbSymbolTableRecord
100
AcDbLayerTableRecord
  2
0_1
 70
               0
 62
               5
  6
Continuous
290
               1
370
              -3
390
1D
  0
LAYER
  5
37
100
AcDbSymbolTableRecord
100
AcDbLayerTableRecord
  2
DEFPOINTS_1
 70
               0
 62
               5
  6
Continuous
290
               1
370
              -3
390
1D
  0
ENDTAB
  0
TABLE
  2
STYLE
  5
3
100
AcDbSymbolTable
 70
               2
  0
STYLE
  5
17
100
AcDbSymbolTableRecord
100
AcDbTextStyleTableRecord
  2
Standard
 70
               0
 40
0.0
 41
1.0
 50
0.0
 71
               0
 42
0.35
  3
txt
  4

  0
STYLE
  5
B2
100
AcDbSymbolTableRecord
100
AcDbTextStyleTableRecord
  2
Style1
 70
               0
 40
0.0
 41
1.0
 50
0.0
 71
               0
 42
0.35
  3
ＭＳ ゴシック
  4

  0
ENDTAB
  0
TABLE
  2
VIEW
  5
5
100
AcDbSymbolTable
 70
               0
  0
ENDTAB
  0
TABLE
  2
UCS
  5
6
100
AcDbSymbolTable
 70
               0
  0
ENDTAB
  0
TABLE
  2
APPID
  5
8
100
AcDbSymbolTable
 70
               1
  0
APPID
  5
16
100
AcDbSymbolTableRecord
100
AcDbRegAppTableRecord
  2
ACAD
 70
               0
  0
ENDTAB
  0
TABLE
  2
DIMSTYLE
  5
9
100
AcDbSymbolTable
 70
               2
100
AcDbDimStyleTable
 71
               0
  0
DIMSTYLE
105
18
100
AcDbSymbolTableRecord
100
AcDbDimStyleTableRecord
  2
Standard
 70
               0
  3

  4

 40
1.0
 41
3.0
 42
1.0
 43
0.38
 44
0.5
 45
0.0
 46
0.0
 47
0.0
 48
0.0
 71
               0
 72
               0
 73
               0
 74
               0
 75
               0
 76
               0
 77
               1
 78
               0
 79
               0
140
3.5277777777777777
141
0.09
142
0.0
143
25.399999999999999
144
1.0
145
0.0
146
1.0
147
1.0
148
0.0
170
               0
171
               3
172
               0
173
               0
174
               0
175
               0
176
               7
177
               7
178
               7
179
               0
271
               3
272
               4
273
               2
274
               2
275
               0
276
               0
277
               2
278
              46
279
               0
280
               0
281
               0
282
               0
283
               1
284
               0
285
               0
286
               0
288
               0
289
               0
340
17
341
0
342
0
343
0
344
0
371
              -2
372
              -2
  0
DIMSTYLE
105
C1
100
AcDbSymbolTableRecord
100
AcDbDimStyleTableRecord
  2
DS1
 70
               0
  3

  4

 40
1.0
 41
3.0
 42
1.0
 43
0.38
 44
0.5
 45
0.0
 46
0.0
 47
0.0
 48
0.0
 71
               0
 72
               0
 73
               0
 74
               0
 75
               0
 76
               0
 77
               1
 78
               8
 79
               0
140
3.5277776718139648
141
0.09
142
0.0
143
25.399999999999999
144
1.0
145
0.0
146
1.0
147
1.0
148
0.0
170
               0
171
               3
172
               0
173
               0
174
               0
175
               0
176
               7
177
               7
178
               7
179
               0
271
               3
272
               4
273
               2
274
               2
275
               0
276
               0
277
               2
278
              46
279
               0
280
               0
281
               0
282
               0
283
               1
284
               0
285
               0
286
               0
288
               0
289
               3
340
17
341
0
342
0
343
0
344
0
371
              -2
372
              -2
  0
ENDTAB
  0
TABLE
  2
BLOCK_RECORD
  5
1
100
AcDbSymbolTable
 70
              10
  0
BLOCK_RECORD
  5
A
100
AcDbSymbolTableRecord
100
AcDbBlockTableRecord
  2
*MODEL_SPACE
340
20
  0
BLOCK_RECORD
  5
B
100
AcDbSymbolTableRecord
100
AcDbBlockTableRecord
  2
*PAPER_SPACE
340
21
  0
BLOCK_RECORD
  5
B3
100
AcDbSymbolTableRecord
100
AcDbBlockTableRecord
  2
*D0
340
0
  0
BLOCK_RECORD
  5
C2
100
AcDbSymbolTableRecord
100
AcDbBlockTableRecord
  2
*D1
340
0
  0
BLOCK_RECORD
  5
CA
100
AcDbSymbolTableRecord
100
AcDbBlockTableRecord
  2
*D2
340
0
  0
BLOCK_RECORD
  5
DA
100
AcDbSymbolTableRecord
100
AcDbBlockTableRecord
  2
*D3
340
0
  0
BLOCK_RECORD
  5
E8
100
AcDbSymbolTableRecord
100
AcDbBlockTableRecord
  2
*D4
340
0
  0
BLOCK_RECORD
  5
F6
100
AcDbSymbolTableRecord
100
AcDbBlockTableRecord
  2
*D5
340
0
  0
BLOCK_RECORD
  5
104
100
AcDbSymbolTableRecord
100
AcDbBlockTableRecord
  2
*D6
340
0
  0
BLOCK_RECORD
  5
10C
100
AcDbSymbolTableRecord
100
AcDbBlockTableRecord
  2
*D7
340
0
  0
BLOCK_RECORD
  5
14F
100
AcDbSymbolTableRecord
100
AcDbBlockTableRecord
  2
C0
340
0
102
{BLKREFS
331
156
102
}
  0
BLOCK_RECORD
  5
164
100
AcDbSymbolTableRecord
100
AcDbBlockTableRecord
  2
*D9
340
0
  0
ENDTAB
  0
ENDSEC
  0
SECTION
  2
BLOCKS
  0
BLOCK
  5
D
100
AcDbEntity
  8
0
390
0
100
AcDbBlockBegin
  2
*MODEL_SPACE
 70
               0
 10
0.0
 20
0.0
 30
0.0
  3
*MODEL_SPACE
  1

  0
ENDBLK
  5
E
100
AcDbEntity
  8
0
390
0
100
AcDbBlockEnd
  0
BLOCK
  5
F
100
AcDbEntity
 67
               1
  8
0
390
0
100
AcDbBlockBegin
  2
*PAPER_SPACE
 70
               0
 10
0.0
 20
0.0
 30
0.0
  3
*PAPER_SPACE
  1

  0
ENDBLK
  5
10
100
AcDbEntity
 67
               1
  8
0
390
0
100
AcDbBlockEnd
  0
BLOCK
  5
B4
100
AcDbEntity
  8
0
390
0
100
AcDbBlockBegin
  2
*D0
 70
              65
 10
0.0
 20
0.0
 30
0.0
  3
*D0
  1

  0
LINE
  5
B5
100
AcDbEntity
  8
____1
370
               5
390
0
  6
Continuous
 62
               7
100
AcDbLine
 10
823.44353137668634
 20
-181.98649948009904
 30
0.0
 11
838.94353137668645
 21
-181.98649948009904
 31
0.0
  0
LINE
  5
B6
100
AcDbEntity
  8
____1
370
               5
390
0
  6
Continuous
 62
               7
100
AcDbLine
 10
838.94353137668645
 20
-192.98649948009904
 30
0.0
 11
838.94353137668645
 21
-181.48649948009904
 31
0.0
  0
LINE
  5
B7
100
AcDbEntity
  8
____1
370
               5
390
0
  6
Continuous
 62
               7
100
AcDbLine
 10
823.44353137668634
 20
-190.98649948009904
 30
0.0
 11
823.44353137668634
 21
-181.48649948009904
 31
0.0
  0
SOLID
  5
B8
100
AcDbEntity
  8
____1
370
               5
390
0
  6
Continuous
 62
               7
100
AcDbTrace
 10
820.44353137668634
 20
-182.73649948009904
 30
0.0
 11
820.44353137668634
 21
-182.73649948009904
 31
0.0
 12
821.19353137668634
 22
-181.98649948009904
 32
0.0
 13
823.44353137668634
 23
-181.98649948009904
 33
0.0
  0
SOLID
  5
B9
100
AcDbEntity
  8
____1
370
               5
390
0
  6
Continuous
 62
               7
100
AcDbTrace
 10
821.19353137668634
 20
-181.98649948009904
 30
0.0
 11
823.44353137668634
 21
-181.98649948009904
 31
0.0
 12
820.44353137668634
 22
-181.23649948009904
 32
0.0
 13
820.44353137668634
 23
-181.23649948009904
 33
0.0
  0
LINE
  5
BA
100
AcDbEntity
  8
____1
370
               5
390
0
  6
Continuous
 62
               7
100
AcDbLine
 10
823.44353137668634
 20
-181.98649948009904
 30
0.0
 11
820.44353137668634
 21
-181.98649948009904
 31
0.0
  0
SOLID
  5
BB
100
AcDbEntity
  8
____1
370
               5
390
0
  6
Continuous
 62
               7
100
AcDbTrace
 10
841.94353137668645
 20
-182.73649948009904
 30
0.0
 11
841.94353137668645
 21
-182.73649948009904
 31
0.0
 12
838.94353137668645
 22
-181.98649948009904
 32
0.0
 13
841.19353137668645
 23
-181.98649948009904
 33
0.0
  0
SOLID
  5
BC
100
AcDbEntity
  8
____1
370
               5
390
0
  6
Continuous
 62
               7
100
AcDbTrace
 10
838.94353137668645
 20
-181.98649948009904
 30
0.0
 11
841.19353137668645
 21
-181.98649948009904
 31
0.0
 12
841.94353137668645
 22
-181.23649948009904
 32
0.0
 13
841.94353137668645
 23
-181.23649948009904
 33
0.0
  0
LINE
  5
BD
100
AcDbEntity
  8
____1
370
               5
390
0
  6
Continuous
 62
               7
100
AcDbLine
 10
838.94353137668645
 20
-181.98649948009904
 30
0.0
 11
841.94353137668645
 21
-181.98649948009904
 31
0.0
  0
MTEXT
  5
BE
100
AcDbEntity
  8
寸法線_1
370
              18
390
0
  6
Continuous
 62
               7
100
AcDbMText
 10
827.66575370487249
 20
-177.45872180828508
 30
0.0
 40
3.5277776718139648
 41
7.0831161066889763
 71
               1
 72
               1
  1
15.5
  7
Style1
 73
               1
 44
1.0
  0
ENDBLK
  5
BF
100
AcDbEntity
  8
0
390
0
100
AcDbBlockEnd
  0
BLOCK
  5
C3
100
AcDbEntity
  8
0
390
0
100
AcDbBlockBegin
  2
*D1
 70
              65
 10
0.0
 20
0.0
 30
0.0
  3
*D1
  1

  0
SOLID
  5
C4
100
AcDbEntity
  8
____1
370
               5
390
0
  6
Continuous
 62
               7
100
AcDbTrace
 10
769.09582067784436
 20
-262.65560515074287
 30
0.0
 11
769.09582067784436
 21
-262.65560515074287
 31
0.0
 12
768.45942457477645
 22
-261.5949449789631
 32
0.0
 13
769.09582067784436
 23
-261.5949449789631
 33
0.0
  0
SOLID
  5
C5
100
AcDbEntity
  8
____1
370
               5
390
0
  6
Continuous
 62
               7
100
AcDbTrace
 10
768.45942457477645
 20
-261.5949449789631
 30
0.0
 11
770.15648084962413
 21
-261.5949449789631
 31
0.0
 12
767.50483042017459
 22
-260.00395472129333
 32
0.0
 13
767.50483042017459
 23
-260.00395472129333
 33
0.0
  0
LINE
  5
C6
100
AcDbEntity
  8
____1
370
               5
390
0
  6
Continuous
 62
               7
100
AcDbLine
 10
767.50483042017459
 20
-260.00395472129333
 30
0.0
 11
785.22366999383223
 21
-277.7227942949512
 31
0.0
  0
MTEXT
  5
C7
100
AcDbEntity
  8
寸法線_1
370
               5
390
0
  6
Continuous
 62
               7
100
AcDbMText
 10
779.48628431103862
 20
-265.99857137793782
 30
0.0
 40
3.5277776718139648
 41
12.395452708005905
 71
               1
 72
               1
  1
M14ネジ
  7
Style1
 11
0.707106781186543
 21
-0.7071067811865521
 31
0.0
 73
               1
 44
1.0
  0
ENDBLK
  5
C8
100
AcDbEntity
  8
0
390
0
100
AcDbBlockEnd
  0
BLOCK
  5
CB
100
AcDbEntity
  8
0
390
0
100
AcDbBlockBegin
  2
*D2
 70
              65
 10
0.0
 20
0.0
 30
0.0
  3
*D2
  1

  0
LINE
  5
CC
100
AcDbEntity
  8
____1
370
               5
390
0
  6
Continuous
 62
               7
100
AcDbLine
 10
778.71309242642155
 20
-194.98649948009904
 30
0.0
 11
778.71309242642155
 21
-202.98649948009904
 31
0.0
  0
LINE
  5
CD
100
AcDbEntity
  8
____1
370
               5
390
0
  6
Continuous
 62
               7
100
AcDbLine
 10
765.50483042017459
 20
-202.98649948009904
 30
0.0
 11
779.21309242642155
 21
-202.98649948009904
 31
0.0
  0
LINE
  5
CE
100
AcDbEntity
  8
____1
370
               5
390
0
  6
Continuous
 62
               7
100
AcDbLine
 10
765.50483042017459
 20
-194.98649948009904
 30
0.0
 11
779.21309242642155
 21
-194.98649948009904
 31
0.0
  0
SOLID
  5
CF
100
AcDbEntity
  8
____1
370
               5
390
0
  6
Continuous
 62
               7
100
AcDbTrace
 10
778.71309242642155
 20
-194.98649948009904
 30
0.0
 11
778.71309242642155
 21
-194.98649948009904
 31
0.0
 12
778.15059242642155
 22
-192.73649948009904
 32
0.0
 13
779.27559242642155
 23
-192.73649948009904
 33
0.0
  0
SOLID
  5
D0
100
AcDbEntity
  8
____1
370
               5
390
0
  6
Continuous
 62
               7
100
AcDbTrace
 10
778.15059242642155
 20
-192.73649948009904
 30
0.0
 11
778.71309242642155
 21
-192.73649948009904
 31
0.0
 12
777.96309242642155
 22
-191.98649948009904
 32
0.0
 13
777.96309242642155
 23
-191.98649948009904
 33
0.0
  0
SOLID
  5
D1
100
AcDbEntity
  8
____1
370
               5
390
0
  6
Continuous
 62
               7
100
AcDbTrace
 10
778.71309242642155
 20
-192.73649948009904
 30
0.0
 11
779.27559242642155
 21
-192.73649948009904
 31
0.0
 12
779.46309242642155
 22
-191.98649948009904
 32
0.0
 13
779.46309242642155
 23
-191.98649948009904
 33
0.0
  0
LINE
  5
D2
100
AcDbEntity
  8
____1
370
               5
390
0
  6
Continuous
 62
               7
100
AcDbLine
 10
778.71309242642155
 20
-194.98649948009904
 30
0.0
 11
778.71309242642155
 21
-191.98649948009904
 31
0.0
  0
SOLID
  5
D3
100
AcDbEntity
  8
____1
370
               5
390
0
  6
Continuous
 62
               7
100
AcDbTrace
 10
777.96309242642155
 20
-205.98649948009904
 30
0.0
 11
777.96309242642155
 21
-205.98649948009904
 31
0.0
 12
778.15059242642155
 22
-205.23649948009904
 32
0.0
 13
778.71309242642155
 23
-205.23649948009904
 33
0.0
  0
SOLID
  5
D4
100
AcDbEntity
  8
____1
370
               5
390
0
  6
Continuous
 62
               7
100
AcDbTrace
 10
779.46309242642155
 20
-205.98649948009904
 30
0.0
 11
779.46309242642155
 21
-205.98649948009904
 31
0.0
 12
778.71309242642155
 22
-205.23649948009904
 32
0.0
 13
779.27559242642155
 23
-205.23649948009904
 33
0.0
  0
SOLID
  5
D5
100
AcDbEntity
  8
____1
370
               5
390
0
  6
Continuous
 62
               7
100
AcDbTrace
 10
778.15059242642155
 20
-205.23649948009904
 30
0.0
 11
779.27559242642155
 21
-205.23649948009904
 31
0.0
 12
778.71309242642155
 22
-202.98649948009904
 32
0.0
 13
778.71309242642155
 23
-202.98649948009904
 33
0.0
  0
LINE
  5
D6
100
AcDbEntity
  8
____1
370
               5
390
0
  6
Continuous
 62
               7
100
AcDbLine
 10
778.71309242642155
 20
-202.98649948009904
 30
0.0
 11
778.71309242642155
 21
-205.98649948009904
 31
0.0
  0
MTEXT
  5
D7
100
AcDbEntity
  8
寸法線_1
370
              18
390
0
  6
Continuous
 62
               7
100
AcDbMText
 10
774.18531475460759
 20
-199.86844389805253
 30
0.0
 40
3.5277776718139648
 41
1.7707790266722441
 71
               1
 72
               1
  1
8
  7
Style1
 11
0.0
 21
1.0
 31
0.0
 73
               1
 44
1.0
  0
ENDBLK
  5
D8
100
AcDbEntity
  8
0
390
0
100
AcDbBlockEnd
  0
BLOCK
  5
DB
100
AcDbEntity
  8
0
390
0
100
AcDbBlockBegin
  2
*D3
 70
              65
 10
0.0
 20
0.0
 30
0.0
  3
*D3
  1

  0
LINE
  5
DC
100
AcDbEntity
  8
____1
370
               5
390
0
  6
Continuous
 62
               7
100
AcDbLine
 10
764.50483042017459
 20
-218.54349180310982
 30
0.0
 11
756.50483042017459
 21
-218.54349180310982
 31
0.0
  0
LINE
  5
DD
100
AcDbEntity
  8
____1
370
               5
390
0
  6
Continuous
 62
               7
100
AcDbLine
 10
756.50483042017459
 20
-203.98649948009904
 30
0.0
 11
756.50483042017459
 21
-219.04349180310982
 31
0.0
  0
LINE
  5
DE
100
AcDbEntity
  8
____1
370
               5
390
0
  6
Continuous
 62
               7
100
AcDbLine
 10
764.50483042017459
 20
-203.98649948009904
 30
0.0
 11
764.50483042017459
 21
-219.04349180310982
 31
0.0
  0
SOLID
  5
DF
100
AcDbEntity
  8
____1
370
               5
390
0
  6
Continuous
 62
               7
100
AcDbTrace
 10
767.50483042017459
 20
-219.29349180310982
 30
0.0
 11
767.50483042017459
 21
-219.29349180310982
 31
0.0
 12
764.50483042017459
 22
-218.54349180310982
 32
0.0
 13
766.75483042017459
 23
-218.54349180310982
 33
0.0
  0
SOLID
  5
E0
100
AcDbEntity
  8
____1
370
               5
390
0
  6
Continuous
 62
               7
100
AcDbTrace
 10
764.50483042017459
 20
-218.54349180310982
 30
0.0
 11
766.75483042017459
 21
-218.54349180310982
 31
0.0
 12
767.50483042017459
 22
-217.79349180310982
 32
0.0
 13
767.50483042017459
 23
-217.79349180310982
 33
0.0
  0
LINE
  5
E1
100
AcDbEntity
  8
____1
370
               5
390
0
  6
Continuous
 62
               7
100
AcDbLine
 10
764.50483042017459
 20
-218.54349180310982
 30
0.0
 11
767.50483042017459
 21
-218.54349180310982
 31
0.0
  0
SOLID
  5
E2
100
AcDbEntity
  8
____1
370
               5
390
0
  6
Continuous
 62
               7
100
AcDbTrace
 10
753.50483042017459
 20
-219.29349180310982
 30
0.0
 11
753.50483042017459
 21
-219.29349180310982
 31
0.0
 12
754.25483042017459
 22
-218.54349180310982
 32
0.0
 13
756.50483042017459
 23
-218.54349180310982
 33
0.0
  0
SOLID
  5
E3
100
AcDbEntity
  8
____1
370
               5
390
0
  6
Continuous
 62
               7
100
AcDbTrace
 10
754.25483042017459
 20
-218.54349180310982
 30
0.0
 11
756.50483042017459
 21
-218.54349180310982
 31
0.0
 12
753.50483042017459
 22
-217.79349180310982
 32
0.0
 13
753.50483042017459
 23
-217.79349180310982
 33
0.0
  0
LINE
  5
E4
100
AcDbEntity
  8
____1
370
               5
390
0
  6
Continuous
 62
               7
100
AcDbLine
 10
756.50483042017459
 20
-218.54349180310982
 30
0.0
 11
753.50483042017459
 21
-218.54349180310982
 31
0.0
  0
MTEXT
  5
E5
100
AcDbEntity
  8
寸法線_1
370
              18
390
0
  6
Continuous
 62
               7
100
AcDbMText
 10
759.62288600222109
 20
-214.01571413129585
 30
0.0
 40
3.5277776718139648
 41
1.7707790266722441
 71
               1
 72
               1
  1
8
  7
Style1
 73
               1
 44
1.0
  0
ENDBLK
  5
E6
100
AcDbEntity
  8
0
390
0
100
AcDbBlockEnd
  0
BLOCK
  5
E9
100
AcDbEntity
  8
0
390
0
100
AcDbBlockBegin
  2
*D4
 70
              65
 10
0.0
 20
0.0
 30
0.0
  3
*D4
  1

  0
LINE
  5
EA
100
AcDbEntity
  8
____1
370
               5
390
0
  6
Continuous
 62
               7
100
AcDbLine
 10
824.44353137668634
 20
-216.98649948009904
 30
0.0
 11
823.44353137668634
 21
-216.98649948009904
 31
0.0
  0
LINE
  5
EB
100
AcDbEntity
  8
____1
370
               5
390
0
  6
Continuous
 62
               7
100
AcDbLine
 10
823.44353137668634
 20
-206.98649948009904
 30
0.0
 11
823.44353137668634
 21
-217.48649948009904
 31
0.0
  0
LINE
  5
EC
100
AcDbEntity
  8
____1
370
               5
390
0
  6
Continuous
 62
               7
100
AcDbLine
 10
824.44353137668634
 20
-207.98649948009904
 30
0.0
 11
824.44353137668634
 21
-217.48649948009904
 31
0.0
  0
SOLID
  5
ED
100
AcDbEntity
  8
____1
370
               5
390
0
  6
Continuous
 62
               7
100
AcDbTrace
 10
827.44353137668634
 20
-217.73649948009904
 30
0.0
 11
827.44353137668634
 21
-217.73649948009904
 31
0.0
 12
824.44353137668634
 22
-216.98649948009904
 32
0.0
 13
826.69353137668634
 23
-216.98649948009904
 33
0.0
  0
SOLID
  5
EE
100
AcDbEntity
  8
____1
370
               5
390
0
  6
Continuous
 62
               7
100
AcDbTrace
 10
824.44353137668634
 20
-216.98649948009904
 30
0.0
 11
826.69353137668634
 21
-216.98649948009904
 31
0.0
 12
827.44353137668634
 22
-216.23649948009904
 32
0.0
 13
827.44353137668634
 23
-216.23649948009904
 33
0.0
  0
LINE
  5
EF
100
AcDbEntity
  8
____1
370
               5
390
0
  6
Continuous
 62
               7
100
AcDbLine
 10
824.44353137668634
 20
-216.98649948009904
 30
0.0
 11
827.44353137668634
 21
-216.98649948009904
 31
0.0
  0
SOLID
  5
F0
100
AcDbEntity
  8
____1
370
               5
390
0
  6
Continuous
 62
               7
100
AcDbTrace
 10
820.44353137668634
 20
-217.73649948009904
 30
0.0
 11
820.44353137668634
 21
-217.73649948009904
 31
0.0
 12
821.19353137668634
 22
-216.98649948009904
 32
0.0
 13
823.44353137668634
 23
-216.98649948009904
 33
0.0
  0
SOLID
  5
F1
100
AcDbEntity
  8
____1
370
               5
390
0
  6
Continuous
 62
               7
100
AcDbTrace
 10
821.19353137668634
 20
-216.98649948009904
 30
0.0
 11
823.44353137668634
 21
-216.98649948009904
 31
0.0
 12
820.44353137668634
 22
-216.23649948009904
 32
0.0
 13
820.44353137668634
 23
-216.23649948009904
 33
0.0
  0
LINE
  5
F2
100
AcDbEntity
  8
____1
370
               5
390
0
  6
Continuous
 62
               7
100
AcDbLine
 10
823.44353137668634
 20
-216.98649948009904
 30
0.0
 11
814.52746867443045
 21
-216.98649948009904
 31
0.0
  0
MTEXT
  5
F3
100
AcDbEntity
  8
寸法線_1
370
              18
390
0
  6
Continuous
 62
               7
100
AcDbMText
 10
816.29135751033743
 20
-212.45872180828508
 30
0.0
 40
3.5277776718139648
 41
1.7707790266722441
 71
               1
 72
               1
  1
1
  7
Style1
 73
               1
 44
1.0
  0
ENDBLK
  5
F4
100
AcDbEntity
  8
0
390
0
100
AcDbBlockEnd
  0
BLOCK
  5
F7
100
AcDbEntity
  8
0
390
0
100
AcDbBlockBegin
  2
*D5
 70
              65
 10
0.0
 20
0.0
 30
0.0
  3
*D5
  1

  0
LINE
  5
F8
100
AcDbEntity
  8
____1
370
               5
390
0
  6
Continuous
 62
               7
100
AcDbLine
 10
822.94353137668634
 20
-181.98649948009904
 30
0.0
 11
823.44353137668634
 21
-181.98649948009904
 31
0.0
  0
LINE
  5
F9
100
AcDbEntity
  8
____1
370
               5
390
0
  6
Continuous
 62
               7
100
AcDbLine
 10
823.44353137668634
 20
-190.98649948009904
 30
0.0
 11
823.44353137668634
 21
-181.48649948009904
 31
0.0
  0
LINE
  5
FA
100
AcDbEntity
  8
____1
370
               5
390
0
  6
Continuous
 62
               7
100
AcDbLine
 10
822.94353137668634
 20
-193.98649948009904
 30
0.0
 11
822.94353137668634
 21
-181.48649948009904
 31
0.0
  0
SOLID
  5
FB
100
AcDbEntity
  8
____1
370
               5
390
0
  6
Continuous
 62
               7
100
AcDbTrace
 10
819.94353137668634
 20
-182.73649948009904
 30
0.0
 11
819.94353137668634
 21
-182.73649948009904
 31
0.0
 12
820.69353137668634
 22
-181.98649948009904
 32
0.0
 13
822.94353137668634
 23
-181.98649948009904
 33
0.0
  0
SOLID
  5
FC
100
AcDbEntity
  8
____1
370
               5
390
0
  6
Continuous
 62
               7
100
AcDbTrace
 10
820.69353137668634
 20
-181.98649948009904
 30
0.0
 11
822.94353137668634
 21
-181.98649948009904
 31
0.0
 12
819.94353137668634
 22
-181.23649948009904
 32
0.0
 13
819.94353137668634
 23
-181.23649948009904
 33
0.0
  0
LINE
  5
FD
100
AcDbEntity
  8
____1
370
               5
390
0
  6
Continuous
 62
               7
100
AcDbLine
 10
822.94353137668634
 20
-181.98649948009904
 30
0.0
 11
810.2034990067566
 21
-181.98649948009904
 31
0.0
  0
SOLID
  5
FE
100
AcDbEntity
  8
____1
370
               5
390
0
  6
Continuous
 62
               7
100
AcDbTrace
 10
826.44353137668634
 20
-182.73649948009904
 30
0.0
 11
826.44353137668634
 21
-182.73649948009904
 31
0.0
 12
823.44353137668634
 22
-181.98649948009904
 32
0.0
 13
825.69353137668634
 23
-181.98649948009904
 33
0.0
  0
SOLID
  5
FF
100
AcDbEntity
  8
____1
370
               5
390
0
  6
Continuous
 62
               7
100
AcDbTrace
 10
823.44353137668634
 20
-181.98649948009904
 30
0.0
 11
825.69353137668634
 21
-181.98649948009904
 31
0.0
 12
826.44353137668634
 22
-181.23649948009904
 32
0.0
 13
826.44353137668634
 23
-181.23649948009904
 33
0.0
  0
LINE
  5
100
100
AcDbEntity
  8
____1
370
               5
390
0
  6
Continuous
 62
               7
100
AcDbLine
 10
823.44353137668634
 20
-181.98649948009904
 30
0.0
 11
826.44353137668634
 21
-181.98649948009904
 31
0.0
  0
MTEXT
  5
101
100
AcDbEntity
  8
寸法線_1
370
              18
390
0
  6
Continuous
 62
               7
100
AcDbMText
 10
811.96738784266358
 20
-177.45872180828508
 30
0.0
 40
3.5277776718139648
 41
8.8538956120610237
 71
               1
 72
               1
  1
(0.5)
  7
Style1
 73
               1
 44
1.0
  0
ENDBLK
  5
102
100
AcDbEntity
  8
0
390
0
100
AcDbBlockEnd
  0
BLOCK
  5
105
100
AcDbEntity
  8
0
390
0
100
AcDbBlockBegin
  2
*D6
 70
              65
 10
0.0
 20
0.0
 30
0.0
  3
*D6
  1

  0
SOLID
  5
106
100
AcDbEntity
  8
____1
370
               5
390
0
  6
Continuous
 62
               7
100
AcDbTrace
 10
766.16168466966701
 20
-193.32964523060667
 30
0.0
 11
766.16168466966701
 21
-193.32964523060667
 31
0.0
 12
767.11627882426887
 22
-191.73865497293696
 32
0.0
 13
768.81333509911656
 23
-191.73865497293696
 33
0.0
  0
SOLID
  5
107
100
AcDbEntity
  8
____1
370
               5
390
0
  6
Continuous
 62
               7
100
AcDbTrace
 10
767.11627882426887
 20
-191.73865497293696
 30
0.0
 11
767.75267492733678
 21
-191.73865497293696
 31
0.0
 12
767.75267492733678
 22
-190.67799480115713
 32
0.0
 13
767.75267492733678
 23
-190.67799480115713
 33
0.0
  0
LINE
  5
108
100
AcDbEntity
  8
____1
370
               5
390
0
  6
Continuous
 62
               7
100
AcDbLine
 10
766.16168466966701
 20
-193.32964523060667
 30
0.0
 11
778.0110881462665
 21
-181.48024175400727
 31
0.0
  0
MTEXT
  5
109
100
AcDbEntity
  8
寸法線_1
370
               5
390
0
  6
Continuous
 62
               7
100
AcDbMText
 10
770.02863850064045
 20
-183.47585416541372
 30
0.0
 40
3.5277776718139648
 41
7.0831161066889763
 71
               1
 72
               1
  1
φ16
  7
Style1
 11
0.7071067811865496
 21
0.7071067811865456
 31
0.0
 73
               1
 44
1.0
  0
ENDBLK
  5
10A
100
AcDbEntity
  8
0
390
0
100
AcDbBlockEnd
  0
BLOCK
  5
10D
100
AcDbEntity
  8
0
390
0
100
AcDbBlockBegin
  2
*D7
 70
              65
 10
0.0
 20
0.0
 30
0.0
  3
*D7
  1

  0
LINE
  5
10E
100
AcDbEntity
  8
____1
370
               5
390
0
  6
Continuous
 62
               7
100
AcDbLine
 10
838.94353137668645
 20
-216.98649948009904
 30
0.0
 11
824.44353137668634
 21
-216.98649948009904
 31
0.0
  0
LINE
  5
10F
100
AcDbEntity
  8
____1
370
               5
390
0
  6
Continuous
 62
               7
100
AcDbLine
 10
824.44353137668634
 20
-207.98649948009904
 30
0.0
 11
824.44353137668634
 21
-217.48649948009904
 31
0.0
  0
LINE
  5
110
100
AcDbEntity
  8
____1
370
               5
390
0
  6
Continuous
 62
               7
100
AcDbLine
 10
838.94353137668645
 20
-204.98649948009904
 30
0.0
 11
838.94353137668645
 21
-217.48649948009904
 31
0.0
  0
SOLID
  5
111
100
AcDbEntity
  8
____1
370
               5
390
0
  6
Continuous
 62
               7
100
AcDbTrace
 10
841.94353137668645
 20
-217.73649948009904
 30
0.0
 11
841.94353137668645
 21
-217.73649948009904
 31
0.0
 12
838.94353137668645
 22
-216.98649948009904
 32
0.0
 13
841.19353137668645
 23
-216.98649948009904
 33
0.0
  0
SOLID
  5
112
100
AcDbEntity
  8
____1
370
               5
390
0
  6
Continuous
 62
               7
100
AcDbTrace
 10
838.94353137668645
 20
-216.98649948009904
 30
0.0
 11
841.19353137668645
 21
-216.98649948009904
 31
0.0
 12
841.94353137668645
 22
-216.23649948009904
 32
0.0
 13
841.94353137668645
 23
-216.23649948009904
 33
0.0
  0
LINE
  5
113
100
AcDbEntity
  8
____1
370
               5
390
0
  6
Continuous
 62
               7
100
AcDbLine
 10
838.94353137668645
 20
-216.98649948009904
 30
0.0
 11
841.94353137668645
 21
-216.98649948009904
 31
0.0
  0
SOLID
  5
114
100
AcDbEntity
  8
____1
370
               5
390
0
  6
Continuous
 62
               7
100
AcDbTrace
 10
821.44353137668634
 20
-217.73649948009904
 30
0.0
 11
821.44353137668634
 21
-217.73649948009904
 31
0.0
 12
822.19353137668634
 22
-216.98649948009904
 32
0.0
 13
824.44353137668634
 23
-216.98649948009904
 33
0.0
  0
SOLID
  5
115
100
AcDbEntity
  8
____1
370
               5
390
0
  6
Continuous
 62
               7
100
AcDbTrace
 10
822.19353137668634
 20
-216.98649948009904
 30
0.0
 11
824.44353137668634
 21
-216.98649948009904
 31
0.0
 12
821.44353137668634
 22
-216.23649948009904
 32
0.0
 13
821.44353137668634
 23
-216.23649948009904
 33
0.0
  0
LINE
  5
116
100
AcDbEntity
  8
____1
370
               5
390
0
  6
Continuous
 62
               7
100
AcDbLine
 10
824.44353137668634
 20
-216.98649948009904
 30
0.0
 11
821.44353137668634
 21
-216.98649948009904
 31
0.0
  0
MTEXT
  5
117
100
AcDbEntity
  8
寸法線_1
370
              18
390
0
  6
Continuous
 62
               7
100
AcDbMText
 10
828.16575370487249
 20
-212.45872180828508
 30
0.0
 40
3.5277776718139648
 41
7.0831161066889763
 71
               1
 72
               1
  1
14.5
  7
Style1
 73
               1
 44
1.0
  0
ENDBLK
  5
118
100
AcDbEntity
  8
0
390
0
100
AcDbBlockEnd
  0
BLOCK
  5
150
100
AcDbEntity
  8
0
390
0
100
AcDbBlockBegin
  2
C0
 70
              64
 10
0.0
 20
0.0
 30
0.0
  3
C0
  1

  0
LINE
  5
151
100
AcDbEntity
  8
____1
370
              18
390
0
  6
Continuous
 62
               5
100
AcDbLine
 10
887.80352886134324
 20
-135.6961130860567
 30
0.0
 11
892.75352886134306
 21
-135.6961130860567
 31
0.0
  0
MTEXT
  5
152
100
AcDbEntity
  8
____1
370
               5
390
0
  6
Continuous
 62
               7
100
AcDbMText
 10
888.69578583655311
 20
-132.6462970962404
 30
0.0
 40
2.9266439437866216
 41
3.1654860495798762
 71
               1
 72
               1
  1
1
  7
Style1
 73
               1
 44
1.0
  0
LINE
  5
153
100
AcDbEntity
  8
____1
370
              18
390
0
  6
Continuous
 62
               5
100
AcDbLine
 10
890.27852886134315
 20
-131.40928733732375
 30
0.0
 11
887.80352886134324
 21
-135.6961130860567
 31
0.0
  0
LINE
  5
154
100
AcDbEntity
  8
____1
370
              18
390
0
  6
Continuous
 62
               5
100
AcDbLine
 10
890.27852886134315
 20
-131.40928733732375
 30
0.0
 11
892.75352886134306
 21
-135.6961130860567
 31
0.0
  0
ENDBLK
  5
155
100
AcDbEntity
  8
0
390
0
100
AcDbBlockEnd
  0
BLOCK
  5
165
100
AcDbEntity
  8
0
390
0
100
AcDbBlockBegin
  2
*D9
 70
              65
 10
0.0
 20
0.0
 30
0.0
  3
*D9
  1

  0
SOLID
  5
166
100
AcDbEntity
  8
____1
370
               5
390
0
  6
Continuous
 62
               7
100
AcDbTrace
 10
919.39480013459524
 20
-178.19053865798304
 30
0.0
 11
919.39480013459524
 21
-178.19053865798304
 31
0.0
 12
920.34939428919711
 22
-176.59954840031332
 32
0.0
 13
922.04645056404479
 23
-176.59954840031332
 33
0.0
  0
SOLID
  5
167
100
AcDbEntity
  8
____1
370
               5
390
0
  6
Continuous
 62
               7
100
AcDbTrace
 10
920.34939428919711
 20
-176.59954840031332
 30
0.0
 11
920.98579039226502
 21
-176.5995484003133
 31
0.0
 12
920.98579039226502
 22
-175.53888822853349
 32
0.0
 13
920.98579039226502
 23
-175.53888822853349
 33
0.0
  0
LINE
  5
168
100
AcDbEntity
  8
____1
370
               5
390
0
  6
Continuous
 62
               7
100
AcDbLine
 10
919.39480013459524
 20
-178.19053865798304
 30
0.0
 11
931.97666866377051
 21
-165.60867012880777
 31
0.0
  0
MTEXT
  5
169
100
AcDbEntity
  8
寸法線_1
370
               5
390
0
  6
CENTER2
 62
               7
100
AcDbMText
 10
922.74696126101537
 20
-168.8515402973434
 30
0.0
 40
3.5277776718139648
 41
8.8538956120610237
 71
               1
 72
               1
  1
φ 16
  7
Style1
 11
0.707106781186546
 21
0.7071067811865492
 31
0.0
 73
               1
 44
1.0
  0
ENDBLK
  5
16A
100
AcDbEntity
  8
0
390
0
100
AcDbBlockEnd
  0
ENDSEC
  0
SECTION
  2
ENTITIES
  0
LINE
  5
38
100
AcDbEntity
  8
____1
370
               5
390
0
  6
Continuous
 62
               7
100
AcDbLine
 10
871.56281424738609
 20
-290.62690483706001
 30
0.0
 11
871.56281424738609
 21
-299.12690483706001
 31
0.0
  0
LINE
  5
39
100
AcDbEntity
  8
____1
370
               5
390
0
  6
Continuous
 62
               7
100
AcDbLine
 10
903.56281424738609
 20
-290.62690483706001
 30
0.0
 11
903.56281424738609
 21
-307.62690483706001
 31
0.0
  0
LINE
  5
3A
100
AcDbEntity
  8
____1
370
              18
390
0
  6
Continuous
 62
               5
100
AcDbLine
 10
907.66248658049108
 20
-310.35876646354973
 30
0.0
 11
907.66248658049108
 21
-311.79876646354967
 31
0.0
  0
LINE
  5
3B
100
AcDbEntity
  8
____1
370
              18
390
0
  6
Continuous
 62
               5
100
AcDbLine
 10
895.36001561337946
 20
-312.19876646354965
 30
0.0
 11
895.36001561337946
 21
-311.79876646354967
 31
0.0
  0
LINE
  5
3C
100
AcDbEntity
  8
____1
370
              18
390
0
  6
Continuous
 62
               5
100
AcDbLine
 10
898.68850046186424
 20
-310.85645467753477
 30
0.0
 11
901.88850046186417
 21
-310.85645467753477
 31
0.0
  0
LINE
  5
3D
100
AcDbEntity
  8
____1
370
              18
390
0
  6
Continuous
 62
               5
100
AcDbLine
 10
902.31755045521334
 20
-311.81402318763764
 30
0.0
 11
902.12507381016007
 21
-312.02661387608077
 31
0.0
  0
ARC
  5
3E
100
AcDbEntity
  8
____1
370
              18
390
0
  6
Continuous
 62
               5
100
AcDbCircle
 10
892.16001561337953
 20
-312.19876646354965
 30
0.0
 40
1.1999999999999318
210
0.0
220
0.0
230
0.9999999999999999
100
AcDbArc
 50
-90.0
 51
0.0
  0
LINE
  5
3F
100
AcDbEntity
  8
____1
370
              18
390
0
  6
Continuous
 62
               5
100
AcDbLine
 10
893.36001561337946
 20
-308.99876646354971
 30
0.0
 11
893.36001561337946
 21
-310.59876646354974
 31
0.0
  0
LINE
  5
40
100
AcDbEntity
  8
____1
370
              18
390
0
  6
Continuous
 62
               5
100
AcDbLine
 10
912.34163932865329
 20
-311.79876646354967
 30
0.0
 11
914.86248658049112
 21
-311.79876646354967
 31
0.0
  0
LINE
  5
41
100
AcDbEntity
  8
____1
370
              18
390
0
  6
Continuous
 62
               5
100
AcDbLine
 10
905.08850046186421
 20
-310.19876646354965
 30
0.0
 11
905.88850046186417
 21
-308.99876646354971
 31
0.0
  0
LINE
  5
42
100
AcDbEntity
  8
____1
370
              18
390
0
  6
Continuous
 62
               5
100
AcDbLine
 10
910.27155324715773
 20
-312.43876646354965
 30
0.0
 11
910.0838199138243
 21
-311.79876646354967
 31
0.0
  0
LINE
  5
43
100
AcDbEntity
  8
____1
370
              18
390
0
  6
Continuous
 62
               5
100
AcDbLine
 10
895.36001561337946
 20
-310.19876646354965
 30
0.0
 11
896.56001561337951
 21
-308.99876646354971
 31
0.0
  0
LINE
  5
44
100
AcDbEntity
  8
____1
370
              18
390
0
  6
Continuous
 62
               5
100
AcDbLine
 10
889.76001561337944
 20
-312.99876646354971
 30
0.0
 11
891.76001561337944
 21
-312.99876646354971
 31
0.0
  0
LINE
  5
45
100
AcDbEntity
  8
____1
370
              18
390
0
  6
Continuous
 62
               5
100
AcDbLine
 10
975.56281424738609
 20
-316.12690483706001
 30
0.0
 11
975.56281424738609
 21
-126.12690483706001
 31
0.0
  0
LINE
  5
46
100
AcDbEntity
  8
____1
370
              18
390
0
  6
Continuous
 62
               5
100
AcDbLine
 10
700.56281424738609
 20
-316.12690483706001
 30
0.0
 11
700.56281424738609
 21
-126.12690483706001
 31
0.0
  0
LINE
  5
47
100
AcDbEntity
  8
____1
370
              18
390
0
  6
Continuous
 62
               5
100
AcDbLine
 10
700.56281424738609
 20
-126.12690483705998
 30
0.0
 11
975.56281424738609
 21
-126.12690483705998
 31
0.0
  0
LINE
  5
48
100
AcDbEntity
  8
____1
370
              18
390
0
  6
Continuous
 62
               5
100
AcDbLine
 10
700.56281424738609
 20
-316.12690483706001
 30
0.0
 11
975.56281424738609
 21
-316.12690483706001
 31
0.0
  0
LINE
  5
49
100
AcDbEntity
  8
____1
370
              18
390
0
  6
Continuous
 62
               5
100
AcDbLine
 10
905.88850046186417
 20
-308.99876646354971
 30
0.0
 11
898.68850046186424
 21
-308.99876646354971
 31
0.0
  0
LINE
  5
4A
100
AcDbEntity
  8
____1
370
              18
390
0
  6
Continuous
 62
               5
100
AcDbLine
 10
911.92725806532644
 20
-310.35876646354973
 30
0.0
 11
911.81014266514717
 21
-309.951783351176
 31
0.0
  0
LINE
  5
4B
100
AcDbEntity
  8
____1
370
              18
390
0
  6
Continuous
 62
               5
100
AcDbLine
 10
907.66248658049108
 20
-313.87876646354971
 30
0.0
 11
910.69395324715776
 21
-313.87876646354971
 31
0.0
  0
ARC
  5
4C
100
AcDbEntity
  8
____1
370
              18
390
0
  6
Continuous
 62
               5
100
AcDbCircle
 10
900.68850046186424
 20
-310.19876646354965
 30
0.0
 40
4.3999999999999773
210
0.0
220
0.0
230
1.0
100
AcDbArc
 50
-37.512388020300733
 51
0.0
  0
LINE
  5
4D
100
AcDbEntity
  8
____1
370
              18
390
0
  6
Continuous
 62
               5
100
AcDbLine
 10
907.66248658049108
 20
-310.35876646354973
 30
0.0
 11
909.66141991382437
 21
-310.35876646354973
 31
0.0
  0
LINE
  5
4E
100
AcDbEntity
  8
____1
370
              18
390
0
  6
Continuous
 62
               5
100
AcDbLine
 10
895.36001561337946
 20
-310.59876646354974
 30
0.0
 11
895.36001561337946
 21
-310.19876646354965
 31
0.0
  0
LINE
  5
4F
100
AcDbEntity
  8
____1
370
              18
390
0
  6
Continuous
 62
               5
100
AcDbLine
 10
896.56001561337951
 20
-310.59876646354974
 30
0.0
 11
895.36001561337946
 21
-310.59876646354974
 31
0.0
  0
LINE
  5
50
100
AcDbEntity
  8
____1
370
              18
390
0
  6
Continuous
 62
               5
100
AcDbLine
 10
907.66248658049108
 20
-312.43876646354965
 30
0.0
 11
910.27155324715773
 21
-312.43876646354965
 31
0.0
  0
LINE
  5
51
100
AcDbEntity
  8
____1
370
              18
390
0
  6
Continuous
 62
               5
100
AcDbLine
 10
888.83913256413689
 20
-311.79876646354967
 30
0.0
 11
889.63913256413696
 21
-311.79876646354967
 31
0.0
  0
ARC
  5
52
100
AcDbEntity
  8
____1
370
              18
390
0
  6
Continuous
 62
               5
100
AcDbCircle
 10
900.68850046186424
 20
-310.19876646354965
 30
0.0
 40
4.4000000000000465
210
0.0
220
0.0
230
1.0
100
AcDbArc
 50
-90.0
 51
-57.455041145955242
  0
LINE
  5
53
100
AcDbEntity
  8
____1
370
              18
390
0
  6
Continuous
 62
               5
100
AcDbLine
 10
895.36001561337946
 20
-311.79876646354967
 30
0.0
 11
896.56001561337951
 21
-311.79876646354967
 31
0.0
  0
ARC
  5
54
100
AcDbEntity
  8
____1
370
              18
390
0
  6
Continuous
 62
               5
100
AcDbCircle
 10
899.64850046186427
 20
-310.35876646354973
 30
0.0
 40
3.0399999999998646
210
0.0
220
0.0
230
1.0
100
AcDbArc
 50
-28.600718616740252
 51
-1.5079577542375149
  0
LINE
  5
55
100
AcDbEntity
  8
____1
370
              18
390
0
  6
Continuous
 62
               5
100
AcDbLine
 10
898.68850046186424
 20
-314.59876646354974
 30
0.0
 11
900.68850046186435
 21
-314.59876646354974
 31
0.0
  0
LINE
  5
56
100
AcDbEntity
  8
____1
370
              18
390
0
  6
Continuous
 62
               5
100
AcDbLine
 10
889.76001561337944
 20
-314.59876646354974
 30
0.0
 11
892.96001561337948
 21
-314.59876646354974
 31
0.0
  0
LINE
  5
57
100
AcDbEntity
  8
____1
370
              18
390
0
  6
Continuous
 62
               5
100
AcDbLine
 10
905.08850046186421
 20
-310.19876646354965
 30
0.0
 11
905.88850046186417
 21
-308.99876646354971
 31
0.0
  0
LINE
  5
58
100
AcDbEntity
  8
____1
370
              18
390
0
  6
Continuous
 62
               5
100
AcDbLine
 10
909.26248658049099
 20
-308.99876646354971
 30
0.0
 11
912.46248658049103
 21
-308.99876646354971
 31
0.0
  0
LINE
  5
59
100
AcDbEntity
  8
____1
370
              18
390
0
  6
Continuous
 62
               5
100
AcDbLine
 10
898.68850046186424
 20
-313.39876646354969
 30
0.0
 11
899.64850046186427
 21
-313.39876646354969
 31
0.0
  0
LINE
  5
5A
100
AcDbEntity
  8
____1
370
              18
390
0
  6
Continuous
 62
               5
100
AcDbLine
 10
898.68850046186424
 20
-313.39876646354969
 30
0.0
 11
898.68850046186424
 21
-314.59876646354974
 31
0.0
  0
ARC
  5
5B
100
AcDbEntity
  8
____1
370
              18
390
0
  6
Continuous
 62
               5
100
AcDbCircle
 10
899.64850046186427
 20
-310.35876646354973
 30
0.0
 40
3.0399999999999827
210
0.0
220
0.0
230
1.0
100
AcDbArc
 50
-90.0
 51
-61.914095184792608
  0
LINE
  5
5C
100
AcDbEntity
  8
____1
370
              18
390
0
  6
Continuous
 62
               5
100
AcDbLine
 10
904.17867594353436
 20
-312.8780714307286
 30
0.0
 11
904.03619429570051
 21
-313.01757394608012
 31
0.0
  0
LINE
  5
5D
100
AcDbEntity
  8
____1
370
              18
390
0
  6
Continuous
 62
               5
100
AcDbLine
 10
889.76001561337944
 20
-311.79876646354967
 30
0.0
 11
889.76001561337944
 21
-312.99876646354971
 31
0.0
  0
LINE
  5
5E
100
AcDbEntity
  8
____1
370
               5
390
0
  6
Continuous
 62
               7
100
AcDbLine
 10
889.56281424738609
 20
-303.37690483706001
 30
0.0
 11
901.56281424738609
 21
-303.37690483706001
 31
0.0
  0
LINE
  5
5F
100
AcDbEntity
  8
____1
370
              18
390
0
  6
Continuous
 62
               5
100
AcDbLine
 10
911.92725806532644
 20
-310.35876646354973
 30
0.0
 11
914.86248658049112
 21
-310.35876646354973
 31
0.0
  0
LINE
  5
60
100
AcDbEntity
  8
____1
370
              18
390
0
  6
Continuous
 62
               5
100
AcDbLine
 10
909.66141991382437
 20
-310.35876646354973
 30
0.0
 11
909.26248658049099
 21
-308.99876646354971
 31
0.0
  0
LINE
  5
61
100
AcDbEntity
  8
____1
370
              18
390
0
  6
Continuous
 62
               5
100
AcDbLine
 10
889.76001561337944
 20
-308.99876646354971
 30
0.0
 11
889.76001561337944
 21
-310.59876646354974
 31
0.0
  0
LINE
  5
62
100
AcDbEntity
  8
____1
370
               5
390
0
  6
Continuous
 62
               7
100
AcDbLine
 10
855.56281424738609
 20
-290.62690483706001
 30
0.0
 11
855.56281424738609
 21
-316.12690483706001
 31
0.0
  0
LINE
  5
63
100
AcDbEntity
  8
____1
370
               5
390
0
  6
Continuous
 62
               7
100
AcDbLine
 10
919.56281424738609
 20
-290.62690483706001
 30
0.0
 11
919.56281424738609
 21
-316.12690483706001
 31
0.0
  0
LINE
  5
64
100
AcDbEntity
  8
____1
370
               5
390
0
  6
Continuous
 62
               7
100
AcDbLine
 10
855.56281424738609
 20
-290.62690483706001
 30
0.0
 11
975.56281424738609
 21
-290.62690483706001
 31
0.0
  0
LINE
  5
65
100
AcDbEntity
  8
____1
370
               5
390
0
  6
Continuous
 62
               7
100
AcDbLine
 10
855.56281424738609
 20
-307.62690483706001
 30
0.0
 11
975.56281424738609
 21
-307.62690483706001
 31
0.0
  0
ARC
  5
66
100
AcDbEntity
  8
____1
370
              18
390
0
  6
Continuous
 62
               5
100
AcDbCircle
 10
892.96001561337948
 20
-312.19876646354965
 30
0.0
 40
2.3999999999999773
210
0.0
220
0.0
230
1.0
100
AcDbArc
 50
-90.0
 51
0.0
  0
LINE
  5
67
100
AcDbEntity
  8
____1
370
              18
390
0
  6
Continuous
 62
               5
100
AcDbLine
 10
898.68850046186424
 20
-308.99876646354971
 30
0.0
 11
898.68850046186424
 21
-310.43876646354965
 31
0.0
  0
LINE
  5
68
100
AcDbEntity
  8
____1
370
              18
390
0
  6
Continuous
 62
               5
100
AcDbLine
 10
896.56001561337951
 20
-308.99876646354971
 30
0.0
 11
893.36001561337946
 21
-308.99876646354971
 31
0.0
  0
LINE
  5
69
100
AcDbEntity
  8
____1
370
              18
390
0
  6
Continuous
 62
               5
100
AcDbLine
 10
912.94019004234792
 20
-313.87876646354971
 30
0.0
 11
914.86248658049112
 21
-313.87876646354971
 31
0.0
  0
LINE
  5
6A
100
AcDbEntity
  8
____1
370
              18
390
0
  6
Continuous
 62
               5
100
AcDbLine
 10
891.76001561337944
 20
-312.99876646354971
 30
0.0
 11
891.76001561337944
 21
-311.79876646354967
 31
0.0
  0
LINE
  5
6B
100
AcDbEntity
  8
____1
370
              18
390
0
  6
Continuous
 62
               5
100
AcDbLine
 10
907.66248658049108
 20
-312.43876646354965
 30
0.0
 11
907.66248658049108
 21
-313.87876646354971
 31
0.0
  0
LINE
  5
6C
100
AcDbEntity
  8
____1
370
              18
390
0
  6
Continuous
 62
               5
100
AcDbLine
 10
907.66248658049108
 20
-311.79876646354967
 30
0.0
 11
910.0838199138243
 21
-311.79876646354967
 31
0.0
  0
LINE
  5
6D
100
AcDbEntity
  8
____1
370
              18
390
0
  6
Continuous
 62
               5
100
AcDbLine
 10
914.86248658049112
 20
-310.35876646354973
 30
0.0
 11
914.86248658049112
 21
-311.79876646354967
 31
0.0
  0
LINE
  5
6E
100
AcDbEntity
  8
____1
370
              18
390
0
  6
Continuous
 62
               5
100
AcDbLine
 10
898.68850046186424
 20
-310.43876646354965
 30
0.0
 11
902.68850046186424
 21
-310.43876646354965
 31
0.0
  0
LINE
  5
6F
100
AcDbEntity
  8
____1
370
              18
390
0
  6
Continuous
 62
               5
100
AcDbLine
 10
892.16001561337953
 20
-313.39876646354969
 30
0.0
 11
889.76001561337944
 21
-313.39876646354969
 31
0.0
  0
LINE
  5
70
100
AcDbEntity
  8
____1
370
              18
390
0
  6
Continuous
 62
               5
100
AcDbLine
 10
911.02248658049109
 20
-314.99876646354971
 30
0.0
 11
910.69395324715776
 21
-313.87876646354971
 31
0.0
  0
LINE
  5
71
100
AcDbEntity
  8
____1
370
              18
390
0
  6
Continuous
 62
               5
100
AcDbLine
 10
912.52580877902074
 20
-312.43876646354965
 30
0.0
 11
912.34163932865329
 21
-311.79876646354967
 31
0.0
  0
LINE
  5
72
100
AcDbEntity
  8
____1
370
              18
390
0
  6
Continuous
 62
               5
100
AcDbLine
 10
889.76001561337944
 20
-313.39876646354969
 30
0.0
 11
889.76001561337944
 21
-314.59876646354974
 31
0.0
  0
LINE
  5
73
100
AcDbEntity
  8
____1
370
              18
390
0
  6
Continuous
 62
               5
100
AcDbLine
 10
889.76001561337944
 20
-311.79876646354967
 30
0.0
 11
889.63913256413696
 21
-311.79876646354967
 31
0.0
  0
LINE
  5
74
100
AcDbEntity
  8
____1
370
              18
390
0
  6
Continuous
 62
               5
100
AcDbLine
 10
905.88850046186417
 20
-313.39876646354969
 30
0.0
 11
905.88850046186417
 21
-314.59876646354974
 31
0.0
  0
LINE
  5
75
100
AcDbEntity
  8
____1
370
              18
390
0
  6
Continuous
 62
               5
100
AcDbLine
 10
914.86248658049112
 20
-312.43876646354965
 30
0.0
 11
914.86248658049112
 21
-313.87876646354971
 31
0.0
  0
LINE
  5
76
100
AcDbEntity
  8
____1
370
              18
390
0
  6
Continuous
 62
               5
100
AcDbLine
 10
889.76001561337944
 20
-310.59876646354974
 30
0.0
 11
888.83913256413689
 21
-310.59876646354974
 31
0.0
  0
LINE
  5
77
100
AcDbEntity
  8
____1
370
               5
390
0
  6
Continuous
 62
               7
100
AcDbLine
 10
855.56281424738609
 20
-299.12690483706001
 30
0.0
 11
903.56281424738609
 21
-299.12690483706001
 31
0.0
  0
LINE
  5
78
100
AcDbEntity
  8
____1
370
               5
390
0
  6
Continuous
 62
               7
100
AcDbLine
 10
919.56281424738609
 20
-299.12690483706001
 30
0.0
 11
975.56281424738609
 21
-299.12690483706001
 31
0.0
  0
LINE
  5
79
100
AcDbEntity
  8
____1
370
               5
390
0
  6
Continuous
 62
               7
100
AcDbLine
 10
903.56281424738609
 20
-294.87690483706001
 30
0.0
 11
919.56281424738609
 21
-294.87690483706001
 31
0.0
  0
LINE
  5
7A
100
AcDbEntity
  8
____1
370
              18
390
0
  6
Continuous
 62
               5
100
AcDbLine
 10
898.68850046186424
 20
-314.59876646354974
 30
0.0
 11
898.68850046186424
 21
-313.39876646354969
 31
0.0
  0
LINE
  5
7B
100
AcDbEntity
  8
____1
370
              18
390
0
  6
Continuous
 62
               5
100
AcDbLine
 10
912.52580877902074
 20
-312.43876646354965
 30
0.0
 11
914.86248658049112
 21
-312.43876646354965
 31
0.0
  0
LINE
  5
7C
100
AcDbEntity
  8
____1
370
              18
390
0
  6
Continuous
 62
               5
100
AcDbLine
 10
913.26248658049099
 20
-314.99876646354971
 30
0.0
 11
912.94019004234792
 21
-313.87876646354971
 31
0.0
  0
LINE
  5
7D
100
AcDbEntity
  8
____1
370
              18
390
0
  6
Continuous
 62
               5
100
AcDbLine
 10
891.76001561337944
 20
-311.79876646354967
 30
0.0
 11
893.36001561337946
 21
-311.79876646354967
 31
0.0
  0
LINE
  5
7E
100
AcDbEntity
  8
____1
370
              18
390
0
  6
Continuous
 62
               5
100
AcDbLine
 10
893.36001561337946
 20
-311.79876646354967
 30
0.0
 11
893.36001561337946
 21
-312.19876646354965
 31
0.0
  0
LINE
  5
7F
100
AcDbEntity
  8
____1
370
              18
390
0
  6
Continuous
 62
               5
100
AcDbLine
 10
835.44353137668645
 20
-191.98649948009904
 30
0.0
 11
835.44353137668645
 21
-205.98649948009904
 31
0.0
  0
LINE
  5
80
100
AcDbEntity
  8
____1
370
              18
390
0
  6
Continuous
 62
               5
100
AcDbLine
 10
824.44353137668634
 20
-191.98649948009904
 30
0.0
 11
835.44353137668645
 21
-191.98649948009904
 31
0.0
  0
LINE
  5
81
100
AcDbEntity
  8
____1
370
              18
390
0
  6
Continuous
 62
               5
100
AcDbLine
 10
824.44353137668634
 20
-192.98649948009904
 30
0.0
 11
837.94353137668645
 21
-192.98649948009904
 31
0.0
  0
LINE
  5
82
100
AcDbEntity
  8
____1
370
              18
390
0
  6
Continuous
 62
               5
100
AcDbLine
 10
824.44353137668634
 20
-204.98649948009904
 30
0.0
 11
837.94353137668645
 21
-204.98649948009904
 31
0.0
  0
LINE
  5
83
100
AcDbEntity
  8
____1
370
               5
390
0
  6
CENTER2
 62
               3
100
AcDbLine
 10
819.94353137668634
 20
-198.98649948009904
 30
0.0
 11
841.94353137668645
 21
-198.98649948009904
 31
0.0
  0
LINE
  5
84
100
AcDbEntity
  8
____1
370
              18
390
0
  6
Continuous
 62
               5
100
AcDbLine
 10
766.50483042017459
 20
-254.50395472129333
 30
0.0
 11
766.50483042017459
 21
-268.00395472129333
 31
0.0
  0
SPLINE
  5
85
100
AcDbEntity
  8
____1
370
              18
390
0
  6
Continuous
 62
               5
100
AcDbSpline
210
0.0
220
0.0
230
1.0
 70
               0
 71
               3
 72
               8
 73
               4
 74
               0
 42
0.0000001
 43
0.0000001
 12
0.667672669572085
 22
-0.7444549726521311
 32
0.0
 13
0.7413159697197119
 23
-0.6711561912390611
 33
0.0
 40
0.0
 40
0.0
 40
0.0
 40
0.0
 40
1.0
 40
1.0
 40
1.0
 40
1.0
 10
901.43595212190485
 20
-311.30900301749421
 30
0.0
 10
901.65945006375591
 20
-311.55820320460862
 30
0.0
 10
901.88294800560709
 20
-311.80740339172303
 30
0.0
 10
902.12507381016007
 20
-312.02661387608089
 30
0.0
  0
SPLINE
  5
86
100
AcDbEntity
  8
____1
370
              18
390
0
  6
Continuous
 62
               5
100
AcDbSpline
210
0.0
220
0.0
230
1.0
 70
               0
 71
               3
 72
               8
 73
               4
 74
               0
 42
0.0000001
 43
0.0000001
 12
0.9524773181045301
 22
-0.3046095180660017
 32
0.0
 13
0.9790669434801461
 23
-0.2035384980401604
 33
0.0
 40
0.0
 40
0.0
 40
0.0
 40
0.0
 40
1.0
 40
1.0
 40
1.0
 40
1.0
 10
903.05552989714454
 20
-313.90783260646447
 30
0.0
 10
903.96679892606414
 20
-314.19926339904237
 30
0.0
 10
904.92764969396421
 20
-314.39901493129605
 30
0.0
 10
905.88850046186417
 20
-314.59876646354974
 30
0.0
  0
SPLINE
  5
87
100
AcDbEntity
  8
____1
370
              18
390
0
  6
Continuous
 62
               5
100
AcDbSpline
210
0.0
220
0.0
230
1.0
 70
               0
 71
               3
 72
               9
 73
               5
 74
               0
 42
0.0000001
 43
0.0000001
 12
0.7352773642103068
 22
-0.6777663297036403
 32
0.0
 13
0.8572557179984813
 23
-0.5148908951990783
 33
0.0
 40
0.0
 40
0.0
 40
0.0
 40
0.0
 40
0.9999999993702069
 40
1.0
 40
1.0
 40
1.0
 40
1.0
 10
898.68850046186424
 20
-311.1141428915198
 30
0.0
 10
899.4521841445578
 20
-311.81809368868562
 30
0.0
 10
900.21586782773238
 20
-312.5220444862947
 30
0.0
 10
901.07971682898267
 20
-313.04078430784375
 30
0.0
 10
901.07971682952666
 20
-313.04078430817049
 30
0.0
  0
SPLINE
  5
88
100
AcDbEntity
  8
____1
370
              18
390
0
  6
Continuous
 62
               5
100
AcDbSpline
210
0.0
220
0.0
230
1.0
 70
               0
 71
               3
 72
               8
 73
               4
 74
               0
 42
0.0000001
 43
0.0000001
 12
0.9618578240638687
 22
-0.2735498606965832
 32
0.0
 13
0.9860364361538176
 23
-0.1665297167987696
 33
0.0
 40
0.0
 40
0.0
 40
0.0
 40
0.0
 40
1.0
 40
1.0
 40
1.0
 40
1.0
 10
904.03619429570051
 20
-313.01757394608012
 30
0.0
 10
904.62800969852424
 20
-313.18588470568545
 30
0.0
 10
905.25825508019409
 20
-313.29232558461763
 30
0.0
 10
905.88850046186417
 20
-313.39876646354969
 30
0.0
  0
LINE
  5
89
100
AcDbEntity
  8
____1
370
              18
390
0
  6
Continuous
 62
               5
100
AcDbLine
 10
891.76001561337944
 20
-310.59876646354974
 30
0.0
 11
891.76001561337944
 21
-310.19876646354965
 31
0.0
  0
LINE
  5
8A
100
AcDbEntity
  8
____1
370
              18
390
0
  6
Continuous
 62
               5
100
AcDbLine
 10
911.02248658049109
 20
-314.99876646354971
 30
0.0
 11
913.26248658049099
 21
-314.99876646354971
 31
0.0
  0
LINE
  5
8B
100
AcDbEntity
  8
____1
370
              18
390
0
  6
Continuous
 62
               5
100
AcDbLine
 10
896.56001561337951
 20
-310.59876646354974
 30
0.0
 11
896.56001561337951
 21
-311.79876646354967
 31
0.0
  0
LINE
  5
8C
100
AcDbEntity
  8
____1
370
              18
390
0
  6
Continuous
 62
               5
100
AcDbLine
 10
888.83913256413689
 20
-310.59876646354974
 30
0.0
 11
888.83913256413689
 21
-311.79876646354967
 31
0.0
  0
LINE
  5
8D
100
AcDbEntity
  8
____1
370
              18
390
0
  6
Continuous
 62
               5
100
AcDbLine
 10
898.68850046186424
 20
-311.1141428915198
 30
0.0
 11
898.68850046186424
 21
-310.85645467753477
 31
0.0
  0
LINE
  5
8E
100
AcDbEntity
  8
____1
370
              18
390
0
  6
Continuous
 62
               5
100
AcDbLine
 10
901.88850046186417
 20
-310.85645467753477
 30
0.0
 11
901.43595212190485
 21
-311.30900301749421
 31
0.0
  0
LINE
  5
8F
100
AcDbEntity
  8
____1
370
               5
390
0
  6
Continuous
 62
               7
100
AcDbLine
 10
887.56281424738609
 20
-290.62690483706001
 30
0.0
 11
887.56281424738609
 21
-307.62690483706001
 31
0.0
  0
LINE
  5
90
100
AcDbEntity
  8
____1
370
               5
390
0
  6
Continuous
 62
               7
100
AcDbLine
 10
857.56281424738609
 20
-294.87690483706001
 30
0.0
 11
869.56281424738609
 21
-294.87690483706001
 31
0.0
  0
LINE
  5
91
100
AcDbEntity
  8
____1
370
               5
390
0
  6
Continuous
 62
               7
100
AcDbLine
 10
873.56281424738631
 20
-294.87690483706001
 30
0.0
 11
885.56281424738631
 21
-294.87690483706001
 31
0.0
  0
LINE
  5
92
100
AcDbEntity
  8
____1
370
               5
390
0
  6
Continuous
 62
               7
100
AcDbLine
 10
857.56281424738609
 20
-303.37690483706001
 30
0.0
 11
885.56281424738609
 21
-303.37690483706001
 31
0.0
  0
LINE
  5
93
100
AcDbEntity
  8
____1
370
               5
390
0
  6
Continuous
 62
               7
100
AcDbLine
 10
889.56281424738609
 20
-294.87690483706001
 30
0.0
 11
901.56281424738609
 21
-294.87690483706001
 31
0.0
  0
LINE
  5
94
100
AcDbEntity
  8
____1
370
              18
390
0
  6
Continuous
 62
               5
100
AcDbLine
 10
891.76001561337944
 20
-310.19876646354965
 30
0.0
 11
892.96001561337948
 21
-308.99876646354971
 31
0.0
  0
LINE
  5
95
100
AcDbEntity
  8
____1
370
              18
390
0
  6
Continuous
 62
               5
100
AcDbLine
 10
892.96001561337948
 20
-308.99876646354971
 30
0.0
 11
889.76001561337944
 21
-308.99876646354971
 31
0.0
  0
LINE
  5
96
100
AcDbEntity
  8
____1
370
              18
390
0
  6
Continuous
 62
               5
100
AcDbLine
 10
893.36001561337946
 20
-310.59876646354974
 30
0.0
 11
891.76001561337944
 21
-310.59876646354974
 31
0.0
  0
LINE
  5
97
100
AcDbEntity
  8
____1
370
              18
390
0
  6
Continuous
 62
               5
100
AcDbLine
 10
911.81014266514717
 20
-309.951783351176
 30
0.0
 11
912.46248658049103
 21
-308.99876646354971
 31
0.0
  0
LINE
  5
98
100
AcDbEntity
  8
____1
370
              18
390
0
  6
Continuous
 62
               5
100
AcDbLine
 10
766.50483042017459
 20
-268.00395472129333
 30
0.0
 11
765.50483042017459
 21
-269.00395472129333
 31
0.0
  0
LINE
  5
99
100
AcDbEntity
  8
____1
370
              18
390
0
  6
Continuous
 62
               5
100
AcDbLine
 10
755.50483042017459
 20
-269.00395472129333
 30
0.0
 11
754.50483042017459
 21
-268.00395472129333
 31
0.0
  0
LINE
  5
9A
100
AcDbEntity
  8
____1
370
              18
390
0
  6
Continuous
 62
               5
100
AcDbLine
 10
767.50483042017459
 20
-265.50395472129333
 30
0.0
 11
753.50483042017459
 21
-265.50395472129333
 31
0.0
  0
LINE
  5
9B
100
AcDbEntity
  8
____1
370
              18
390
0
  6
Continuous
 62
               5
100
AcDbLine
 10
765.50483042017459
 20
-269.00395472129333
 30
0.0
 11
755.50483042017459
 21
-269.00395472129333
 31
0.0
  0
LINE
  5
9C
100
AcDbEntity
  8
____1
370
              18
390
0
  6
Continuous
 62
               5
100
AcDbLine
 10
756.50483042017459
 20
-200.48649948009904
 30
0.0
 11
764.50483042017459
 21
-200.48649948009904
 31
0.0
  0
LINE
  5
9D
100
AcDbEntity
  8
____1
370
              18
390
0
  6
Continuous
 62
               5
100
AcDbLine
 10
756.50483042017459
 20
-197.48649948009904
 30
0.0
 11
764.50483042017459
 21
-197.48649948009904
 31
0.0
  0
LINE
  5
9E
100
AcDbEntity
  8
____1
370
              18
390
0
  6
Continuous
 62
               5
100
AcDbLine
 10
756.50483042017459
 20
-194.98649948009904
 30
0.0
 11
764.50483042017459
 21
-194.98649948009904
 31
0.0
  0
LINE
  5
9F
100
AcDbEntity
  8
____1
370
              18
390
0
  6
Continuous
 62
               5
100
AcDbLine
 10
764.50483042017459
 20
-194.98649948009904
 30
0.0
 11
764.50483042017459
 21
-202.98649948009904
 31
0.0
  0
LINE
  5
A0
100
AcDbEntity
  8
____1
370
              18
390
0
  6
Continuous
 62
               5
100
AcDbLine
 10
756.50483042017459
 20
-194.98649948009904
 30
0.0
 11
756.50483042017459
 21
-202.98649948009904
 31
0.0
  0
LINE
  5
A1
100
AcDbEntity
  8
____1
370
              18
390
0
  6
Continuous
 62
               5
100
AcDbLine
 10
756.50483042017459
 20
-202.98649948009904
 30
0.0
 11
764.50483042017459
 21
-202.98649948009904
 31
0.0
  0
LINE
  5
A2
100
AcDbEntity
  8
____1
370
              18
390
0
  6
Continuous
 62
               5
100
AcDbLine
 10
837.94353137668645
 20
-192.98649948009904
 30
0.0
 11
837.94353137668645
 21
-204.98649948009904
 31
0.0
  0
LINE
  5
A3
100
AcDbEntity
  8
____1
370
              18
390
0
  6
Continuous
 62
               5
100
AcDbLine
 10
837.94353137668645
 20
-192.98649948009904
 30
0.0
 11
838.94353137668645
 21
-193.98649948009904
 31
0.0
  0
LINE
  5
A4
100
AcDbEntity
  8
____1
370
              18
390
0
  6
Continuous
 62
               5
100
AcDbLine
 10
838.94353137668645
 20
-203.98649948009904
 30
0.0
 11
837.94353137668645
 21
-204.98649948009904
 31
0.0
  0
LINE
  5
A5
100
AcDbEntity
  8
____1
370
              18
390
0
  6
Continuous
 62
               5
100
AcDbLine
 10
838.94353137668645
 20
-193.98649948009904
 30
0.0
 11
838.94353137668645
 21
-203.98649948009904
 31
0.0
  0
ARC
  5
A6
100
AcDbEntity
  8
____1
370
              18
390
0
  6
Continuous
 62
               5
100
AcDbCircle
 10
824.44353137668634
 20
-205.98649948009904
 30
0.0
 40
1.0
100
AcDbArc
 50
180.0
 51
-90.0
  0
LINE
  5
A7
100
AcDbEntity
  8
____1
370
              18
390
0
  6
Continuous
 62
               5
100
AcDbLine
 10
823.44353137668634
 20
-191.98649948009904
 30
0.0
 11
823.44353137668634
 21
-205.98649948009904
 31
0.0
  0
ARC
  5
A8
100
AcDbEntity
  8
____1
370
              18
390
0
  6
Continuous
 62
               5
100
AcDbCircle
 10
824.44353137668634
 20
-191.98649948009904
 30
0.0
 40
1.0
100
AcDbArc
 50
90.0
 51
180.0
  0
LINE
  5
A9
100
AcDbEntity
  8
____1
370
              18
390
0
  6
Continuous
 62
               5
100
AcDbLine
 10
822.94353137668634
 20
-202.98649948009904
 30
0.0
 11
823.44353137668634
 21
-202.98649948009904
 31
0.0
  0
LINE
  5
AA
100
AcDbEntity
  8
____1
370
              18
390
0
  6
Continuous
 62
               5
100
AcDbLine
 10
822.94353137668634
 20
-202.98649948009904
 30
0.0
 11
822.94353137668634
 21
-200.48649948009904
 31
0.0
  0
LINE
  5
AB
100
AcDbEntity
  8
____1
370
              18
390
0
  6
Continuous
 62
               5
100
AcDbLine
 10
822.94353137668634
 20
-200.48649948009904
 30
0.0
 11
823.44353137668634
 21
-200.48649948009904
 31
0.0
  0
LINE
  5
AC
100
AcDbEntity
  8
____1
370
              18
390
0
  6
Continuous
 62
               5
100
AcDbLine
 10
822.94353137668634
 20
-197.48649948009904
 30
0.0
 11
823.44353137668634
 21
-197.48649948009904
 31
0.0
  0
LINE
  5
AD
100
AcDbEntity
  8
____1
370
              18
390
0
  6
Continuous
 62
               5
100
AcDbLine
 10
822.94353137668634
 20
-194.98649948009904
 30
0.0
 11
822.94353137668634
 21
-197.48649948009904
 31
0.0
  0
LINE
  5
AE
100
AcDbEntity
  8
____1
370
              18
390
0
  6
Continuous
 62
               5
100
AcDbLine
 10
822.94353137668634
 20
-194.98649948009904
 30
0.0
 11
823.44353137668634
 21
-194.98649948009904
 31
0.0
  0
LINE
  5
AF
100
AcDbEntity
  8
____1
370
              18
390
0
  6
Continuous
 62
               5
100
AcDbLine
 10
824.44353137668634
 20
-190.98649948009904
 30
0.0
 11
824.44353137668634
 21
-206.98649948009904
 31
0.0
  0
LINE
  5
B0
100
AcDbEntity
  8
____1
370
              18
390
0
  6
Continuous
 62
               5
100
AcDbLine
 10
824.44353137668634
 20
-205.98649948009904
 30
0.0
 11
835.44353137668645
 21
-205.98649948009904
 31
0.0
  0
MTEXT
  5
B1
100
AcDbEntity
  8
____1
370
               5
390
0
  6
Continuous
 62
               7
100
AcDbMText
 10
930.42763530305456
 20
-299.84325970829548
 30
0.0
 40
3.5277776718139648
 41
43.655084411985797
 71
               1
 72
               1
  1
打ち込み式\Pマグネットチャッチ(丸型 )
  7
Style1
 73
               1
 44
1.0
  0
DIMENSION
  5
C0
100
AcDbEntity
  8
寸法線_1
370
               5
390
0
  6
Continuous
 62
               7
100
AcDbDimension
  2
*D0
 10
838.94353137668645
 20
-181.98649948009904
 30
0.0
 11
831.19353137668645
 21
-181.98649948009904
 31
0.0
 71
               5
 72
               1
 41
1.0
 42
0.0
  3
DS1
100
AcDbAlignedDimension
 13
823.44353137668634
 23
-191.98649948009904
 33
0.0
 14
838.94353137668645
 24
-193.98649948009904
 34
0.0
100
AcDbRotatedDimension
  0
DIMENSION
  5
C9
100
AcDbEntity
  8
寸法線_1
370
               5
390
0
  6
Continuous
 62
               7
100
AcDbDimension
  2
*D1
 10
756.19112192118996
 20
-248.69024622230859
 30
0.0
 11
772.55749756113528
 21
-273.35739214499938
 31
0.0
 70
             131
 71
               5
 72
               1
 41
1.0
 42
0.0
  3
DS1
100
AcDbDiametricDimension
 15
767.50483042017459
 25
-260.00395472129333
 35
0.0
 40
0.0
  0
DIMENSION
  5
D9
100
AcDbEntity
  8
寸法線_1
370
               5
390
0
  6
Continuous
 62
               7
100
AcDbDimension
  2
*D2
 10
778.71309242642155
 20
-202.98649948009904
 30
0.0
 11
778.71309242642155
 21
-198.98649948009904
 31
0.0
 71
               5
 72
               1
 41
1.0
 42
0.0
  3
DS1
100
AcDbAlignedDimension
 13
764.50483042017459
 23
-194.98649948009904
 33
0.0
 14
764.50483042017459
 24
-202.98649948009904
 34
0.0
 50
90.0
100
AcDbRotatedDimension
  0
DIMENSION
  5
E7
100
AcDbEntity
  8
寸法線_1
370
               5
390
0
  6
Continuous
 62
               7
100
AcDbDimension
  2
*D3
 10
756.50483042017459
 20
-218.54349180310982
 30
0.0
 11
760.50483042017459
 21
-218.54349180310982
 31
0.0
 71
               5
 72
               1
 41
1.0
 42
0.0
  3
DS1
100
AcDbAlignedDimension
 13
764.50483042017459
 23
-202.98649948009904
 33
0.0
 14
756.50483042017459
 24
-202.98649948009904
 34
0.0
 50
180.0
100
AcDbRotatedDimension
  0
DIMENSION
  5
F5
100
AcDbEntity
  8
寸法線_1
370
               5
390
0
  6
Continuous
 62
               7
100
AcDbDimension
  2
*D4
 10
823.44353137668634
 20
-216.98649948009904
 30
0.0
 11
817.17330192829093
 21
-216.98649948009904
 31
0.0
 71
               5
 72
               1
 41
1.0
 42
0.0
  3
DS1
100
AcDbAlignedDimension
 13
824.44353137668634
 23
-206.98649948009904
 33
0.0
 14
823.44353137668634
 24
-205.98649948009904
 34
0.0
 50
180.0
100
AcDbRotatedDimension
  0
DIMENSION
  5
103
100
AcDbEntity
  8
寸法線_1
370
               5
390
0
  6
Continuous
 62
               7
100
AcDbDimension
  2
*D5
 10
823.44353137668634
 20
-181.98649948009904
 30
0.0
 11
816.37710993243104
 21
-181.98649948009904
 31
0.0
 71
               5
 72
               1
 41
1.0
 42
0.0
  3
DS1
100
AcDbAlignedDimension
 13
822.94353137668634
 23
-194.98649948009904
 33
0.0
 14
823.44353137668634
 24
-191.98649948009904
 34
0.0
100
AcDbRotatedDimension
  0
DIMENSION
  5
10B
100
AcDbEntity
  8
寸法線_1
370
               5
390
0
  6
Continuous
 62
               7
100
AcDbDimension
  2
*D6
 10
754.84797617068216
 20
-204.64335372959141
 30
0.0
 11
786.11726061266017
 21
-183.97475726826536
 31
0.0
 70
             131
 71
               5
 72
               1
 41
1.0
 42
0.0
  3
DS1
100
AcDbDiametricDimension
 15
766.16168466966701
 25
-193.32964523060667
 35
0.0
 40
0.0
  0
DIMENSION
  5
119
100
AcDbEntity
  8
寸法線_1
370
               5
390
0
  6
Continuous
 62
               7
100
AcDbDimension
  2
*D7
 10
824.44353137668634
 20
-216.98649948009904
 30
0.0
 11
831.69353137668645
 21
-216.98649948009904
 31
0.0
 71
               5
 72
               1
 41
1.0
 42
0.0
  3
DS1
100
AcDbAlignedDimension
 13
838.94353137668645
 23
-203.98649948009904
 33
0.0
 14
824.44353137668634
 24
-206.98649948009904
 34
0.0
 50
180.0
100
AcDbRotatedDimension
  0
LINE
  5
11A
100
AcDbEntity
  8
____1
370
               5
390
0
  6
CENTER2
 62
               3
100
AcDbLine
 10
749.50483042017459
 20
-198.98649948009904
 30
0.0
 11
771.50483042017459
 21
-198.98649948009904
 31
0.0
  0
LINE
  5
11B
100
AcDbEntity
  8
____1
370
               5
390
0
  6
CENTER2
 62
               3
100
AcDbLine
 10
760.50483042017459
 20
-187.9864994800989
 30
0.0
 11
760.50483042017459
 21
-209.98649948009898
 31
0.0
  0
CIRCLE
  5
11C
100
AcDbEntity
  8
____1
370
              18
390
0
  6
Continuous
 62
               5
100
AcDbCircle
 10
760.50483042017459
 20
-198.98649948009904
 30
0.0
 40
8.0
  0
LINE
  5
11D
100
AcDbEntity
  8
____1
370
              18
390
0
  6
Continuous
 62
               5
100
AcDbLine
 10
754.50483042017459
 20
-254.50395472129333
 30
0.0
 11
754.50483042017459
 21
-268.00395472129333
 31
0.0
  0
LINE
  5
11E
100
AcDbEntity
  8
____1
370
              18
390
0
  6
Continuous
 62
               5
100
AcDbLine
 10
753.50483042017459
 20
-254.50395472129333
 30
0.0
 11
753.50483042017459
 21
-265.50395472129333
 31
0.0
  0
LINE
  5
11F
100
AcDbEntity
  8
____1
370
              18
390
0
  6
Continuous
 62
               5
100
AcDbLine
 10
767.50483042017459
 20
-254.50395472129333
 30
0.0
 11
767.50483042017459
 21
-265.50395472129333
 31
0.0
  0
LINE
  5
120
100
AcDbEntity
  8
____1
370
               5
390
0
  6
CENTER2
 62
               3
100
AcDbLine
 10
760.50483042017459
 20
-250.00395472129333
 30
0.0
 11
760.50483042017459
 21
-272.00395472129333
 31
0.0
  0
LINE
  5
121
100
AcDbEntity
  8
____1
370
              18
390
0
  6
Continuous
 62
               5
100
AcDbLine
 10
756.50483042017459
 20
-253.00395472129333
 30
0.0
 11
764.50483042017459
 21
-253.00395472129333
 31
0.0
  0
LINE
  5
122
100
AcDbEntity
  8
____1
370
              18
390
0
  6
Continuous
 62
               5
100
AcDbLine
 10
764.50483042017459
 20
-253.00395472129333
 30
0.0
 11
764.50483042017459
 21
-253.50395472129333
 31
0.0
  0
ARC
  5
123
100
AcDbEntity
  8
____1
370
              18
390
0
  6
Continuous
 62
               5
100
AcDbCircle
 10
753.50483042017459
 20
-254.50395472129333
 30
0.0
 40
1.0
100
AcDbArc
 50
90.0
 51
180.0
  0
ARC
  5
124
100
AcDbEntity
  8
____1
370
              18
390
0
  6
Continuous
 62
               5
100
AcDbCircle
 10
767.50483042017459
 20
-254.50395472129333
 30
0.0
 40
1.0
100
AcDbArc
 50
0.0
 51
90.0
  0
LINE
  5
125
100
AcDbEntity
  8
____1
370
              18
390
0
  6
Continuous
 62
               5
100
AcDbLine
 10
768.50483042017459
 20
-254.50395472129333
 30
0.0
 11
752.50483042017459
 21
-254.50395472129333
 31
0.0
  0
CIRCLE
  5
126
100
AcDbEntity
  8
____1
370
              18
390
0
  6
Continuous
 62
               5
100
AcDbCircle
 10
760.50483042017459
 20
-260.00395472129333
 30
0.0
 40
1.7000000000000219
  0
LINE
  5
127
100
AcDbEntity
  8
____1
370
              18
390
0
  6
Continuous
 62
               5
100
AcDbLine
 10
767.50483042017459
 20
-253.50395472129333
 30
0.0
 11
753.50483042017459
 21
-253.50395472129333
 31
0.0
  0
LINE
  5
128
100
AcDbEntity
  8
____1
370
              18
390
0
  6
Continuous
 62
               5
100
AcDbLine
 10
756.50483042017459
 20
-253.00395472129333
 30
0.0
 11
756.50483042017459
 21
-253.50395472129333
 31
0.0
  0
LINE
  5
129
100
AcDbEntity
  8
____1
370
              18
390
0
  6
Continuous
 62
               5
100
AcDbLine
 10
766.50483042017459
 20
-268.00395472129333
 30
0.0
 11
754.50483042017459
 21
-268.00395472129333
 31
0.0
  0
CIRCLE
  5
12A
100
AcDbEntity
  8
____1
370
              18
390
0
  6
Continuous
 62
               5
100
AcDbCircle
 10
913.73794588510282
 20
-183.84739290747547
 30
0.0
 40
1.7500000000000966
  0
LINE
  5
12B
100
AcDbEntity
  8
____1
370
               5
390
0
  6
CENTER2
 62
               3
100
AcDbLine
 10
913.73794588510282
 20
-173.84739290747547
 30
0.0
 11
913.73794588510282
 21
-193.84739290747549
 31
0.0
  0
LINE
  5
12C
100
AcDbEntity
  8
____1
370
               5
390
0
  6
CENTER2
 62
               3
100
AcDbLine
 10
903.73794588510293
 20
-183.84739290747547
 30
0.0
 11
923.73794588510282
 21
-183.84739290747547
 31
0.0
  0
CIRCLE
  5
12D
100
AcDbEntity
  8
____1
370
              18
390
0
  6
Continuous
 62
               5
100
AcDbCircle
 10
913.73794588510282
 20
-183.84739290747547
 30
0.0
 40
8.0000000000000853
  0
LINE
  5
12E
100
AcDbEntity
  8
____1
370
               5
390
0
  6
Continuous
 62
               7
100
AcDbLine
 10
925.69551382691145
 20
-196.78208812260519
 30
0.0
 11
954.57304016480157
 21
-196.78208812260519
 31
0.0
  0
LINE
  5
12F
100
AcDbEntity
  8
____1
370
               5
390
0
  6
Continuous
 62
               7
100
AcDbLine
 10
915.85926622866259
 20
-185.96871325103515
 30
0.0
 11
925.69551382691145
 21
-196.78208812260519
 31
0.0
  0
SOLID
  5
130
100
AcDbEntity
  8
____1
390
0
 62
               7
100
AcDbTrace
 10
915.85926622866259
 20
-185.96871325103515
 30
0.0
 11
917.58067806468648
 21
-189.1718027828631
 31
0.0
 12
915.85926622866259
 22
-185.96871325103515
 32
0.0
 13
917.63963155970782
 23
-187.92593906714481
 33
0.0
  0
SOLID
  5
131
100
AcDbEntity
  8
____1
390
0
 62
               7
100
AcDbTrace
 10
917.63963155970782
 20
-187.92593906714481
 30
0.0
 11
918.88549527542614
 21
-187.98489256216624
 31
0.0
 12
915.85926622866259
 22
-185.96871325103515
 32
0.0
 13
915.85926622866259
 23
-185.96871325103515
 33
0.0
  0
CIRCLE
  5
132
100
AcDbEntity
  8
____1
370
              18
390
0
  6
Continuous
 62
               5
100
AcDbCircle
 10
913.73794588510282
 20
-183.84739290747547
 30
0.0
 40
3.0000000000001248
  0
LINE
  5
133
100
AcDbEntity
  8
____1
370
               5
390
0
  6
CENTER2
 62
               3
100
AcDbLine
 10
865.56281424738609
 20
-210.99051724137914
 30
0.0
 11
865.56281424738609
 21
-148.31772030651325
 31
0.0
  0
LINE
  5
134
100
AcDbEntity
  8
____1
370
               5
390
0
  6
CENTER2
 62
               3
100
AcDbLine
 10
865.56281424738609
 20
-210.99051724137914
 30
0.0
 11
975.56281424738609
 21
-210.99051724137914
 31
0.0
  0
MTEXT
  5
135
100
AcDbEntity
  8
____1
370
               5
390
0
  6
Continuous
 62
               7
100
AcDbMText
 10
855.56281424738609
 20
-299.83243824441684
 30
0.0
 40
2.75
 41
32.0
 71
               1
 72
               1
  1
 設計　　 白須賀
  7
Style1
 73
               1
 44
1.0
  0
MTEXT
  5
136
100
AcDbEntity
  8
____1
370
               5
390
0
  6
Continuous
 62
               7
100
AcDbMText
 10
855.56281424738609
 20
-304.08243824441684
 30
0.0
 40
2.75
 41
32.0
 71
               1
 72
               1
  1
 製図　　  岸本
  7
Style1
 73
               1
 44
1.0
  0
MTEXT
  5
137
100
AcDbEntity
  8
____1
370
               5
390
0
  6
Continuous
 62
               7
100
AcDbMText
 10
856.02820005866306
 20
-291.33243824441684
 30
0.0
 40
2.75
 41
15.0
 71
               1
 72
               1
  1
　日 　付
  7
Style1
 73
               1
 44
1.0
  0
MTEXT
  5
138
100
AcDbEntity
  8
____1
370
               5
390
0
  6
Continuous
 62
               7
100
AcDbMText
 10
920.45331370109432
 20
-291.31540511190678
 30
0.0
 40
2.75
 41
6.0
 71
               1
 72
               1
  1
型番
  7
Style1
 73
               1
 44
1.0
  0
MTEXT
  5
139
100
AcDbEntity
  8
____1
370
               5
390
0
  6
Continuous
 62
               7
100
AcDbMText
 10
920.45331370109432
 20
-299.81540511190678
 30
0.0
 40
2.75
 41
6.0
 71
               1
 72
               1
  1
品名
  7
Style1
 73
               1
 44
1.0
  0
MTEXT
  5
13A
100
AcDbEntity
  8
____1
370
               5
390
0
  6
Continuous
 62
               7
100
AcDbMText
 10
920.45331370109432
 20
-308.31540511190678
 30
0.0
 40
2.75
 41
6.0
 71
               1
 72
               1
  1
図番
  7
Style1
 73
               1
 44
1.0
  0
MTEXT
  5
13B
100
AcDbEntity
  8
____1
370
              18
390
0
  6
Continuous
 62
               5
100
AcDbMText
 10
855.56281424738609
 20
-295.58243824441684
 30
0.0
 40
2.75
 41
16.0
 71
               1
 72
               1
  1
H16.4
  7
Style1
 73
               1
 44
1.0
  0
MTEXT
  5
13C
100
AcDbEntity
  8
____1
370
              18
390
0
  6
Continuous
 62
               5
100
AcDbMText
 10
887.56281424738609
 20
-304.08243824441684
 30
0.0
 40
2.75
 41
16.0
 71
               1
 72
               1
  1
1：1
  7
Style1
 73
               1
 44
1.0
  0
MTEXT
  5
13D
100
AcDbEntity
  8
____1
370
               5
390
0
  6
Continuous
 62
               7
100
AcDbMText
 10
872.02820005866306
 20
-291.33243824441684
 30
0.0
 40
2.75
 41
15.0
 71
               1
 72
               1
  1
　材 　質
  7
Style1
 73
               1
 44
1.0
  0
MTEXT
  5
13E
100
AcDbEntity
  8
____1
370
               5
390
0
  6
Continuous
 62
               7
100
AcDbMText
 10
888.02820005866306
 20
-291.33243824441684
 30
0.0
 40
2.75
 41
15.0
 71
               1
 72
               1
  1
　板 　厚
  7
Style1
 73
               1
 44
1.0
  0
MTEXT
  5
13F
100
AcDbEntity
  8
____1
370
               5
390
0
  6
Continuous
 62
               7
100
AcDbMText
 10
888.02820005866306
 20
-299.83243824441684
 30
0.0
 40
2.75
 41
15.0
 71
               1
 72
               1
  1
　尺 　度
  7
Style1
 73
               1
 44
1.0
  0
MTEXT
  5
140
100
AcDbEntity
  8
____1
370
               5
390
0
  6
Continuous
 62
               7
100
AcDbMText
 10
904.02820005866306
 20
-291.33243824441684
 30
0.0
 40
2.75
 41
15.0
 71
               1
 72
               1
  1
　検 　印
  7
Style1
 73
               1
 44
1.0
  0
MTEXT
  5
141
100
AcDbEntity
  8
____1
370
               5
390
0
  6
Continuous
 62
               7
100
AcDbMText
 10
862.78336797216889
 20
-309.32023817039334
 30
0.0
 40
5.0799999237060547
 41
24.996311053240746
 71
               1
 72
               1
  1
株式会社
  7
Style1
 73
               1
 44
1.0
  0
MTEXT
  5
142
100
AcDbEntity
  8
____1
370
               5
390
0
  6
Continuous
 62
               7
100
AcDbMText
 10
915.83645233265906
 20
-284.43838395242199
 30
0.0
 40
4.2333331108093262
 41
50.0
 71
               1
 72
               1
  1
受板ビス：2.4x13
  7
Style1
 73
               1
 44
1.0
  0
MTEXT
  5
143
100
AcDbEntity
  8
____1
370
               5
390
0
  6
Continuous
 62
               7
100
AcDbMText
 10
943.49137464337764
 20
-292.99032582955971
 30
0.0
 40
3.5277776718139648
 41
8.4423079991920105
 71
               1
 72
               1
  1
１０
  7
Style1
 73
               1
 44
1.0
  0
MTEXT
  5
144
100
AcDbEntity
  8
____1
370
               5
390
0
  6
Continuous
 62
               7
100
AcDbMText
 10
855.83645233265906
 20
-284.43838395242199
 30
0.0
 40
4.2333331108093262
 41
32.795827076286045
 71
               1
 72
               1
  1
色：白・茶
  7
Style1
 73
               1
 44
1.0
  0
LINE
  5
145
100
AcDbEntity
  8
____1
370
              18
390
0
  6
Continuous
 62
               5
100
AcDbLine
 10
890.27852886134315
 20
-136.40928733732369
 30
0.0
 11
892.75352886134306
 21
-140.6961130860567
 31
0.0
  0
LINE
  5
146
100
AcDbEntity
  8
____1
370
              18
390
0
  6
Continuous
 62
               5
100
AcDbLine
 10
890.27852886134315
 20
-136.40928733732369
 30
0.0
 11
887.80352886134324
 21
-140.6961130860567
 31
0.0
  0
MTEXT
  5
147
100
AcDbEntity
  8
____1
370
               5
390
0
  6
Continuous
 62
               7
100
AcDbMText
 10
888.69578583655311
 20
-137.64629709624035
 30
0.0
 40
2.9266439437866216
 41
3.1654860495798762
 71
               1
 72
               1
  1
2
  7
Style1
 73
               1
 44
1.0
  0
LINE
  5
148
100
AcDbEntity
  8
____1
370
              18
390
0
  6
Continuous
 62
               5
100
AcDbLine
 10
887.80352886134324
 20
-140.6961130860567
 30
0.0
 11
892.75352886134306
 21
-140.6961130860567
 31
0.0
  0
MTEXT
  5
149
100
AcDbEntity
  8
____1
370
               5
390
0
  6
Continuous
 62
               7
100
AcDbMText
 10
895.56281424738563
 20
-136.85337617244443
 30
0.0
 40
3.5277776718139648
 41
20.0
 71
               1
 72
               1
  1
H23.10.12
  7
Style1
 73
               1
 44
1.0
  0
MTEXT
  5
14A
100
AcDbEntity
  8
____1
370
               5
390
0
  6
Continuous
 62
               7
100
AcDbMText
 10
915.56281424738563
 20
-136.85337617244443
 30
0.0
 40
3.5277776718139648
 41
60.0
 71
               1
 72
               1
  1
黒色を削除
  7
Style1
 73
               1
 44
1.0
  0
LINE
  5
14B
100
AcDbEntity
  8
____1
370
              18
390
0
  6
Continuous
 62
               5
100
AcDbLine
 10
915.56281424738563
 20
-141.1269048370599
 30
0.0
 11
915.56281424738563
 21
-126.12690483705998
 31
0.0
  0
LINE
  5
14C
100
AcDbEntity
  8
____1
370
              18
390
0
  6
Continuous
 62
               5
100
AcDbLine
 10
915.56281424738563
 20
-141.1269048370599
 30
0.0
 11
915.56281424738563
 21
-126.12690483705998
 31
0.0
  0
MTEXT
  5
14D
100
AcDbEntity
  8
____1
370
               5
390
0
  6
Continuous
 62
               7
100
AcDbMText
 10
915.56281424738563
 20
-126.88880067310738
 30
0.0
 40
3.5277776718139648
 41
60.0
 71
               1
 72
               1
  1
改　訂　内　容
  7
Style1
 73
               1
 44
1.0
  0
MTEXT
  5
14E
100
AcDbEntity
  8
____1
370
               5
390
0
  6
Continuous
 62
               7
100
AcDbMText
 10
915.56281424738563
 20
-131.85337617244448
 30
0.0
 40
3.5277776718139648
 41
60.0
 71
               1
 72
               1
  1
材料板厚ｔ1.5からｔ1.6に変更
  7
Style1
 73
               1
 44
1.0
  0
INSERT
  5
156
100
AcDbEntity
  8
____1
370
               5
390
0
  6
Continuous
 62
             254
100
AcDbBlockReference
  2
C0
 10
0.0
 20
0.0
 30
0.0
  0
LINE
  5
157
100
AcDbEntity
  8
____1
370
              18
390
0
  6
Continuous
 62
               5
100
AcDbLine
 10
887.80352886134324
 20
-130.74611308605671
 30
0.0
 11
892.75352886134306
 21
-130.74611308605671
 31
0.0
  0
LINE
  5
158
100
AcDbEntity
  8
____1
370
              18
390
0
  6
Continuous
 62
               5
100
AcDbLine
 10
890.27852886134315
 20
-126.45928733732389
 30
0.0
 11
892.75352886134306
 21
-130.74611308605671
 31
0.0
  0
LINE
  5
159
100
AcDbEntity
  8
____1
370
              18
390
0
  6
Continuous
 62
               5
100
AcDbLine
 10
890.27852886134315
 20
-126.45928733732389
 30
0.0
 11
887.80352886134324
 21
-130.74611308605671
 31
0.0
  0
LINE
  5
15A
100
AcDbEntity
  8
____1
370
              18
390
0
  6
Continuous
 62
               5
100
AcDbLine
 10
885.56281424738563
 20
-141.1269048370599
 30
0.0
 11
885.56281424738563
 21
-126.12690483705998
 31
0.0
  0
LINE
  5
15B
100
AcDbEntity
  8
____1
370
              18
390
0
  6
Continuous
 62
               5
100
AcDbLine
 10
895.56281424738563
 20
-141.1269048370599
 30
0.0
 11
895.56281424738563
 21
-126.12690483705998
 31
0.0
  0
MTEXT
  5
15C
100
AcDbEntity
  8
____1
370
               5
390
0
  6
Continuous
 62
               7
100
AcDbMText
 10
895.56281424738563
 20
-131.85337617244448
 30
0.0
 40
3.5277776718139648
 41
20.0
 71
               1
 72
               1
  1
H16.12.10
  7
Style1
 73
               1
 44
1.0
  0
MTEXT
  5
15D
100
AcDbEntity
  8
____1
370
               5
390
0
  6
Continuous
 62
               7
100
AcDbMText
 10
895.56281424738563
 20
-126.88880067310738
 30
0.0
 40
3.5277776718139648
 41
20.0
 71
               1
 72
               1
  1
改訂日
  7
Style1
 73
               1
 44
1.0
  0
LINE
  5
15E
100
AcDbEntity
  8
____1
370
              18
390
0
  6
Continuous
 62
               5
100
AcDbLine
 10
885.56281424738563
 20
-141.1269048370599
 30
0.0
 11
975.56281424738609
 21
-141.1269048370599
 31
0.0
  0
LINE
  5
15F
100
AcDbEntity
  8
____1
370
              18
390
0
  6
Continuous
 62
               5
100
AcDbLine
 10
885.56281424738563
 20
-131.12690483705995
 30
0.0
 11
975.56281424738609
 21
-131.12690483705995
 31
0.0
  0
LINE
  5
160
100
AcDbEntity
  8
____1
370
              18
390
0
  6
Continuous
 62
               5
100
AcDbLine
 10
885.56281424738563
 20
-136.1269048370599
 30
0.0
 11
975.56281424738609
 21
-136.1269048370599
 31
0.0
  0
MTEXT
  5
161
100
AcDbEntity
  8
____1
370
               5
390
0
  6
Continuous
 62
               7
100
AcDbMText
 10
936.64938756098741
 20
-178.09699456234983
 30
0.0
 40
3.5277776718139648
 41
12.0
 71
               1
 72
               1
  1
ｔ2
  7
Style1
 73
               1
 44
1.0
  0
MTEXT
  5
162
100
AcDbEntity
  8
____1
370
               5
390
0
  6
Continuous
 62
               7
100
AcDbMText
 10
929.23655098777374
 20
-192.50098824219242
 30
0.0
 40
3.5277776718139648
 41
24.526344011916677
 71
               1
 72
               1
  1
皿ビス用皿穴
  7
Style1
 73
               1
 44
1.0
  0
MTEXT
  5
163
100
AcDbEntity
  8
____1
370
               5
390
0
  6
Continuous
 62
               7
100
AcDbMText
 10
890.17731814134152
 20
-161.39185970685693
 30
0.0
 40
3.5277776718139648
 41
15.0
 71
               1
 72
               1
  1
受板
  7
Style1
 73
               1
 44
1.0
  0
DIMENSION
  5
16B
100
AcDbEntity
  8
寸法線_1
370
               5
390
0
  6
Continuous
 62
               7
100
AcDbDimension
  2
*D9
 10
908.08109163561039
 20
-189.50424715696789
 30
0.0
 11
938.36361498444876
 21
-168.7268145216305
 31
0.0
 70
             131
 71
               5
 72
               1
 41
1.0
 42
0.0
  3
DS1
100
AcDbDiametricDimension
 15
919.39480013459524
 25
-178.19053865798304
 35
0.0
 40
0.0
  0
ENDSEC
  0
SECTION
  2
OBJECTS
  0
DICTIONARY
  5
19
100
AcDbDictionary
280
               0
281
               1
  3
ACAD_GROUP
350
1A
  3
ACAD_MLINESTYLE
350
1B
  3
ACAD_LAYOUT
350
1E
  3
ACAD_PLOTSETTINGS
350
22
  3
ACAD_PLOTSTYLENAME
350
1F
  3
ACAD_WIPEOUT_VARS
350
23
  0
DICTIONARY
  5
1A
102
{ACAD_REACTORS
330
19
102
}
100
AcDbDictionary
280
               0
281
               1
  0
DICTIONARY
  5
1B
102
{ACAD_REACTORS
330
19
102
}
100
AcDbDictionary
280
               0
281
               1
  3
Standard
350
1C
  0
MLINESTYLE
  5
1C
102
{ACAD_REACTORS
330
1B
102
}
100
AcDbMlineStyle
  2
Standard
 70
               0
  3

 62
               0
 51
90.0
 52
90.0
 71
               2
 49
0.5
 62
             256
  6
ByLayer
 49
-0.5
 62
             256
  6
ByLayer
  0
ACDBDICTIONARYWDFLT
  5
1F
102
{ACAD_REACTORS
330
19
102
}
100
AcDbDictionary
281
               1
  3
Normal
350
1D
100
AcDbDictionaryWithDefault
340
1D
  0
ACDBPLACEHOLDER
  5
1D
102
{ACAD_REACTORS
330
1F
102
}
  0
LAYOUT
  5
20
102
{ACAD_REACTORS
330
1E
102
}
100
AcDbPlotSettings
  1

  2

  4

  6

 40
0.0
 41
0.0
 42
0.0
 43
0.0
 44
0.0
 45
0.0
 46
0.0
 47
0.0
 48
0.0
 49
0.0
140
0.0
141
0.0
142
1.0
143
1.0
 70
            1024
 72
               0
 73
               0
 74
               0
  7

 75
               0
147
1.0
148
0.0
149
0.0
100
AcDbLayout
  1
Model
 70
               0
 71
               0
 10
0.0
 20
0.0
 11
0.0
 21
0.0
 12
0.0
 22
0.0
 32
0.0
 14
0.0
 24
0.0
 34
0.0
 15
0.0
 25
0.0
 35
0.0
146
0.0
 13
0.0
 23
0.0
 33
0.0
 16
0.0
 26
0.0
 36
0.0
 17
0.0
 27
0.0
 37
0.0
 76
               0
330
A
331
0
345
0
346
0
  0
LAYOUT
  5
21
102
{ACAD_REACTORS
330
1E
102
}
100
AcDbPlotSettings
  1

  2

  4

  6

 40
0.0
 41
0.0
 42
0.0
 43
0.0
 44
0.0
 45
0.0
 46
0.0
 47
0.0
 48
0.0
 49
0.0
140
0.0
141
0.0
142
1.0
143
1.0
 70
               0
 72
               0
 73
               0
 74
               0
  7

 75
               0
147
1.0
148
0.0
149
0.0
100
AcDbLayout
  1
Layout1
 70
               0
 71
               0
 10
0.0
 20
0.0
 11
0.0
 21
0.0
 12
0.0
 22
0.0
 32
0.0
 14
0.0
 24
0.0
 34
0.0
 15
0.0
 25
0.0
 35
0.0
146
0.0
 13
0.0
 23
0.0
 33
0.0
 16
0.0
 26
0.0
 36
0.0
 17
0.0
 27
0.0
 37
0.0
 76
               0
330
B
331
0
345
0
346
0
  0
DICTIONARY
  5
1E
102
{ACAD_REACTORS
330
19
102
}
100
AcDbDictionary
280
               0
281
               1
  3
Layout1
350
21
  3
Model
350
20
  0
DICTIONARY
  5
22
102
{ACAD_REACTORS
330
19
102
}
100
AcDbDictionary
280
               0
281
               1
  0
WIPEOUTVARIABLES
  5
23
100
AcDbWipeoutVariables
 70
               1
  0
ENDSEC
  0
EOF
