  0
SECTION
  2
HEADER
  9
$ACADVER
  1
AC1015
  9
$ACADMAINTVER
 70
               6
  9
$DWGCODEPAGE
  3
ANSI_932
  9
$INSBASE
 10
0.0
 20
0.0
 30
0.0
  9
$EXTMIN
 10
650.96216216216249
 20
-117.42319819819797
 30
0.0
  9
$EXTMAX
 10
1023.0378378378382
 20
-324.05563063063039
 30
0.0
  9
$LIMMIN
 10
0.0
 20
0.0
  9
$LIMMAX
 10
0.0
 20
0.0
  9
$ORTHOMODE
 70
               0
  9
$REGENMODE
 70
               1
  9
$FILLMODE
 70
               1
  9
$QTEXTMODE
 70
               0
  9
$MIRRTEXT
 70
               1
  9
$LTSCALE
 40
1.0
  9
$ATTMODE
 70
               1
  9
$TEXTSIZE
 40
0.2
  9
$TRACEWID
 40
0.05
  9
$TEXTSTYLE
  7
Standard
  9
$CLAYER
  8
0
  9
$CELTYPE
  6
Continuous
  9
$CECOLOR
 62
             256
  9
$CELTSCALE
 40
1.0
  9
$DISPSILH
 70
               0
  9
$DIMSCALE
 40
1.0
  9
$DIMASZ
 40
3.0
  9
$DIMEXO
 40
1.0
  9
$DIMDLI
 40
0.38
  9
$DIMRND
 40
0.0
  9
$DIMDLE
 40
0.0
  9
$DIMEXE
 40
0.5
  9
$DIMTP
 40
0.0
  9
$DIMTM
 40
0.0
  9
$DIMTXT
 40
3.5277777777777777
  9
$DIMCEN
 40
0.09
  9
$DIMTSZ
 40
0.0
  9
$DIMTOL
 70
               0
  9
$DIMLIM
 70
               0
  9
$DIMTIH
 70
               0
  9
$DIMTOH
 70
               0
  9
$DIMSE1
 70
               0
  9
$DIMSE2
 70
               0
  9
$DIMTAD
 70
               1
  9
$DIMZIN
 70
               0
  9
$DIMBLK
  1

  9
$DIMASO
 70
               1
  9
$DIMSHO
 70
               1
  9
$DIMPOST
  1

  9
$DIMAPOST
  1

  9
$DIMALT
 70
               0
  9
$DIMALTD
 70
               3
  9
$DIMALTF
 40
25.399999999999999
  9
$DIMLFAC
 40
1.0
  9
$DIMTOFL
 70
               0
  9
$DIMTVP
 40
0.0
  9
$DIMTIX
 70
               0
  9
$DIMSOXD
 70
               0
  9
$DIMSAH
 70
               0
  9
$DIMBLK1
  1

  9
$DIMBLK2
  1

  9
$DIMSTYLE
  2
Standard
  9
$DIMCLRD
 70
               7
  9
$DIMCLRE
 70
               7
  9
$DIMCLRT
 70
               7
  9
$DIMTFAC
 40
1.0
  9
$DIMGAP
 40
1.0
  9
$DIMJUST
 70
               0
  9
$DIMSD1
 70
               0
  9
$DIMSD2
 70
               0
  9
$DIMTOLJ
 70
               1
  9
$DIMTZIN
 70
               0
  9
$DIMALTZ
 70
               0
  9
$DIMALTTZ
 70
               0
  9
$DIMUPT
 70
               0
  9
$DIMDEC
 70
               3
  9
$DIMTDEC
 70
               4
  9
$DIMALTU
 70
               2
  9
$DIMALTTD
 70
               2
  9
$DIMTXSTY
  7
Standard
  9
$DIMAUNIT
 70
               0
  9
$DIMADEC
 70
               0
  9
$DIMALTRND
 40
0.0
  9
$DIMAZIN
 70
               0
  9
$DIMDSEP
 70
               0
  9
$DIMATFIT
 70
               3
  9
$DIMFRAC
 70
               0
  9
$DIMLDRBLK
  1

  9
$DIMLUNIT
 70
               2
  9
$DIMLWD
 70
               0
  9
$DIMLWE
 70
               0
  9
$DIMTMOVE
 70
               0
  9
$LUNITS
 70
               2
  9
$LUPREC
 70
               4
  9
$SKETCHINC
 40
0.1
  9
$FILLETRAD
 40
0.0
  9
$AUNITS
 70
               0
  9
$AUPREC
 70
               0
  9
$MENU
  1
acad
  9
$ELEVATION
 40
0.0
  9
$PELEVATION
 40
0.0
  9
$THICKNESS
 40
0.0
  9
$LIMCHECK
 70
               0
  9
$CHAMFERA
 40
0.0
  9
$CHAMFERB
 40
0.0
  9
$CHAMFERC
 40
0.0
  9
$CHAMFERD
 40
0.0
  9
$SKPOLY
 70
               0
  9
$TDCREATE
 40
2455847.744328704
  9
$TDUCREATE
 40
0.000000000
  9
$TDUPDATE
 40
2455847.744328704
  9
$TDUUPDATE
 40
0.000000000
  9
$TDINDWG
 40
0.0000000000
  9
$TDUSRTIMER
 40
0.0000000000
  9
$USRTIMER
 70
               1
  9
$ANGBASE
 50
0.0
  9
$ANGDIR
 70
               0
  9
$PDMODE
 70
               0
  9
$PDSIZE
 40
0.0
  9
$PLINEWID
 40
0.0
  9
$SPLFRAME
 70
               0
  9
$SPLINETYPE
 70
               6
  9
$SPLINESEGS
 70
               8
  9
$HANDSEED
  5
1B7
  9
$SURFTAB1
 70
               6
  9
$SURFTAB2
 70
               6
  9
$SURFTYPE
 70
               6
  9
$SURFU
 70
               6
  9
$SURFV
 70
               6
  9
$UCSBASE
  2

  9
$UCSNAME
  2

  9
$UCSORG
 10
0.0
 20
0.0
 30
0.0
  9
$UCSXDIR
 10
1.0
 20
0.0
 30
0.0
  9
$UCSYDIR
 10
0.0
 20
1.0
 30
0.0
  9
$UCSORTHOREF
  2

  9
$UCSORTHOVIEW
 70
               0
  9
$UCSORGTOP
 10
0.0
 20
0.0
 30
0.0
  9
$UCSORGBOTTOM
 10
0.0
 20
0.0
 30
0.0
  9
$UCSORGLEFT
 10
0.0
 20
0.0
 30
0.0
  9
$UCSORGRIGHT
 10
0.0
 20
0.0
 30
0.0
  9
$UCSORGFRONT
 10
0.0
 20
0.0
 30
0.0
  9
$UCSORGBACK
 10
0.0
 20
0.0
 30
0.0
  9
$PUCSBASE
  2

  9
$PUCSNAME
  2

  9
$PUCSORG
 10
0.0
 20
0.0
 30
0.0
  9
$PUCSXDIR
 10
1.0
 20
0.0
 30
0.0
  9
$PUCSYDIR
 10
0.0
 20
1.0
 30
0.0
  9
$PUCSORTHOREF
  2

  9
$PUCSORTHOVIEW
 70
               0
  9
$PUCSORGTOP
 10
0.0
 20
0.0
 30
0.0
  9
$PUCSORGBOTTOM
 10
0.0
 20
0.0
 30
0.0
  9
$PUCSORGLEFT
 10
0.0
 20
0.0
 30
0.0
  9
$PUCSORGRIGHT
 10
0.0
 20
0.0
 30
0.0
  9
$PUCSORGFRONT
 10
0.0
 20
0.0
 30
0.0
  9
$PUCSORGBACK
 10
0.0
 20
0.0
 30
0.0
  9
$USERI1
 70
               0
  9
$USERI2
 70
               0
  9
$USERI3
 70
               0
  9
$USERI4
 70
               0
  9
$USERI5
 70
               0
  9
$USERR1
 40
0.0
  9
$USERR2
 40
0.0
  9
$USERR3
 40
0.0
  9
$USERR4
 40
0.0
  9
$USERR5
 40
0.0
  9
$WORLDVIEW
 70
               1
  9
$SHADEDGE
 70
               3
  9
$SHADEDIF
 70
              70
  9
$TILEMODE
 70
               1
  9
$MAXACTVP
 70
              16
  9
$PINSBASE
 10
0.0
 20
0.0
 30
0.0
  9
$PLIMCHECK
 70
               0
  9
$PEXTMIN
 10
1.0000000000000000E+20
 20
1.0000000000000000E+20
 30
1.0000000000000000E+20
  9
$PEXTMAX
 10
-1.0000000000000000E+20
 20
-1.0000000000000000E+20
 30
-1.0000000000000000E+20
  9
$PLIMMIN
 10
0.0
 20
0.0
  9
$PLIMMAX
 10
12.0
 20
9.0
  9
$UNITMODE
 70
               0
  9
$VISRETAIN
 70
               0
  9
$PLINEGEN
 70
               1
  9
$PSLTSCALE
 70
               0
  9
$TREEDEPTH
 70
            3020
  9
$CMLSTYLE
  2
Standard
  9
$CMLJUST
 70
               0
  9
$CMLSCALE
 40
1.0
  9
$PROXYGRAPHICS
 70
               0
  9
$MEASUREMENT
 70
               0
  9
$CELWEIGHT
370
               0
  9
$ENDCAPS
280
               0
  9
$JOINSTYLE
280
               0
  9
$LWDISPLAY
290
               0
  9
$INSUNITS
 70
               0
  9
$HYPERLINKBASE
  1

  9
$STYLESHEET
  1

  9
$XEDIT
290
               1
  9
$CEPSNTYPE
380
               0
  9
$PSTYLEMODE
290
               1
  9
$FINGERPRINTGUID
  2

  9
$VERSIONGUID
  2

  9
$EXTNAMES
290
               1
  9
$PSVPSCALE
 40
0.0
  0
ENDSEC
  0
SECTION
  2
CLASSES
  0
CLASS
  1
LWPOLYLINE
  2
AcDbPolyline
  3
AutoCAD 2000
 90
        0
280
               0
281
               1
  0
CLASS
  1
IMAGE
  2
AcDbRasterImage
  3
ISM
 90
      127
280
               0
281
               1
  0
CLASS
  1
OLE2FRAME
  2
AcDbOle2Frame
  3
AutoCAD 2000
 90
        0
280
               0
281
               1
  0
CLASS
  1
HATCH
  2
AcDbHatch
  3
AutoCAD 2000
 90
        0
280
               0
281
               1
  0
CLASS
  1
DICTIONARYVAR
  2
AcDbDictionaryVar
  3
AutoCAD 2000
 90
        0
280
               0
281
               0
  0
CLASS
  1
RASTERVARIABLES
  2
AcDbRasterVariables
  3
ISM
 90
        0
280
               0
281
               0
  0
CLASS
  1
IMAGEDEF
  2
AcDbRasterImageDef
  3
ISM
 90
        0
280
               0
281
               0
  0
CLASS
  1
IMAGEDEF_REACTOR
  2
AcDbRasterImageDefReactor
  3
ISM
 90
        1
280
               0
281
               0
  0
CLASS
  1
IDBUFFER
  2
AcDbIdBuffer
  3
AutoCAD 2000
 90
        0
280
               0
281
               0
  0
CLASS
  1
SPATIAL_FILTER
  2
AcDbSpatialFilter
  3
AutoCAD 2000
 90
        0
280
               0
281
               0
  0
CLASS
  1
XRECORD
  2
AcDbXrecord
  3
AutoCAD 2000
 90
        0
280
               0
281
               0
  0
CLASS
  1
SORTENTSTABLE
  2
AcDbSortentsTable
  3
AutoCAD 2000
 90
        0
280
               0
281
               0
  0
CLASS
  1
LAYER_INDEX
  2
AcDbLayerIndex
  3
AutoCAD 2000
 90
        0
280
               0
281
               0
  0
CLASS
  1
SPATIAL_INDEX
  2
AcDbSpatialIndex
  3
AutoCAD 2000
 90
        0
280
               0
281
               0
  0
CLASS
  1
OBJECT_PTR
  2
CAseDLPNTableRecord
  3
"ASE-LPNTableRecord"
 90
        1
280
               0
281
               0
  0
CLASS
  1
LAYOUT
  2
AcDbLayout
  3
AutoCAD 2000
 90
        0
280
               0
281
               0
  0
CLASS
  1
PLOTSETTINGS
  2
AcDbPlotSettings
  3
AutoCAD 2000
 90
        0
280
               0
281
               0
  0
CLASS
  1
ACDBDICTIONARYWDFLT
  2
AcDbDictionaryWithDefault
  3
AutoCAD 2000
 90
        0
280
               0
281
               0
  0
CLASS
  1
ACDBPLACEHOLDER
  2
AcDbPlaceHolder
  3
AutoCAD 2000
 90
        0
280
               0
281
               0
  0
CLASS
  1
VBA_PROJECT
  2
AcDbVbaProject
  3
acadvba
 90
        0
280
               0
281
               0
  0
CLASS
  1
WIPEOUT
  2
AcDbWipeout
  3
WipeOut|AutoCAD Express Tool|expresstools@autodesk.com
 90
      127
280
               0
281
               1
  0
CLASS
  1
WIPEOUTVARIABLES
  2
AcDbWipeoutVariables
  3
WipeOut|AutoCAD Express Tool|expresstools@autodesk.com
 90
        0
280
               0
281
               0
  0
CLASS
  1
RTEXT
  2
RText
  3
RText|AutoCAD Express Tool|expresstools@autodesk.com
 90
        0
280
               0
281
               1
  0
CLASS
  1
ARCALIGNEDTEXT
  2
AcDbArcAlignedText
  3
ATEXT|AutoCAD Express Tool|expresstools@autodesk.com
 90
        0
280
               0
281
               1
  0
ENDSEC
  0
SECTION
  2
TABLES
  0
TABLE
  2
VPORT
  5
7
100
AcDbSymbolTable
 70
               1
  0
VPORT
  5
15
100
AcDbSymbolTableRecord
100
AcDbViewportTableRecord
  2
*ACTIVE
 70
               0
 10
0.0
 20
0.0
 11
1.0
 21
1.0
 12
6.5912879999999996
 22
4.5791839999999997
 13
0.0
 23
0.0
 14
1.0
 24
1.0
 15
0.0
 25
0.0
 16
0.0
 26
0.0
 36
1.0
 17
0.0
 27
0.0
 37
0.0
 40
9.1583690000000004
 41
0.688564
 42
50.0
 43
0.0
 44
0.0
 50
0.0
 51
0.0
 71
               0
 72
             100
 73
               1
 74
               1
 75
               0
 76
               0
 77
               0
 78
               0
281
               0
 65
               0
110
0.0
120
0.0
130
0.0
111
1.0
121
0.0
131
0.0
112
0.0
122
1.0
132
0.0
345
0
346
0
 79
               0
146
0.0
  0
ENDTAB
  0
TABLE
  2
LTYPE
  5
4
100
AcDbSymbolTable
 70
              13
  0
LTYPE
  5
11
100
AcDbSymbolTableRecord
100
AcDbLinetypeTableRecord
  2
ByBlock
 70
              64
  3

 72
              65
 73
               0
 40
0.0
  0
LTYPE
  5
12
100
AcDbSymbolTableRecord
100
AcDbLinetypeTableRecord
  2
ByLayer
 70
              64
  3

 72
              65
 73
               0
 40
0.0
  0
LTYPE
  5
13
100
AcDbSymbolTableRecord
100
AcDbLinetypeTableRecord
  2
Continuous
 70
              64
  3
Solid line
 72
              65
 73
               0
 40
0.0
  0
LTYPE
  5
24
100
AcDbSymbolTableRecord
100
AcDbLinetypeTableRecord
  2
DOT
 70
              64
  3

 72
              65
 73
               2
 40
1.0
 49
0.0
 74
               0
 49
-1.0
 74
               0
  0
LTYPE
  5
25
100
AcDbSymbolTableRecord
100
AcDbLinetypeTableRecord
  2
DASHEDX2
 70
              64
  3

 72
              65
 73
               2
 40
4.0
 49
3.0
 74
               0
 49
-1.0
 74
               0
  0
LTYPE
  5
26
100
AcDbSymbolTableRecord
100
AcDbLinetypeTableRecord
  2
DASHED
 70
              64
  3

 72
              65
 73
               2
 40
3.0
 49
2.0
 74
               0
 49
-1.0
 74
               0
  0
LTYPE
  5
27
100
AcDbSymbolTableRecord
100
AcDbLinetypeTableRecord
  2
DASHED2
 70
              64
  3

 72
              65
 73
               2
 40
2.0
 49
1.0
 74
               0
 49
-1.0
 74
               0
  0
LTYPE
  5
28
100
AcDbSymbolTableRecord
100
AcDbLinetypeTableRecord
  2
CENTERX2
 70
              64
  3

 72
              65
 73
               4
 40
43.0
 49
40.0
 74
               0
 49
-1.0
 74
               0
 49
1.0
 74
               0
 49
-1.0
 74
               0
  0
LTYPE
  5
29
100
AcDbSymbolTableRecord
100
AcDbLinetypeTableRecord
  2
CENTER
 70
              64
  3

 72
              65
 73
               4
 40
33.0
 49
30.0
 74
               0
 49
-1.0
 74
               0
 49
1.0
 74
               0
 49
-1.0
 74
               0
  0
LTYPE
  5
2A
100
AcDbSymbolTableRecord
100
AcDbLinetypeTableRecord
  2
CENTER2
 70
              64
  3

 72
              65
 73
               4
 40
23.0
 49
20.0
 74
               0
 49
-1.0
 74
               0
 49
1.0
 74
               0
 49
-1.0
 74
               0
  0
LTYPE
  5
2B
100
AcDbSymbolTableRecord
100
AcDbLinetypeTableRecord
  2
PHANTOMX2
 70
              64
  3

 72
              65
 73
               6
 40
45.0
 49
40.0
 74
               0
 49
-1.0
 74
               0
 49
1.0
 74
               0
 49
-1.0
 74
               0
 49
1.0
 74
               0
 49
-1.0
 74
               0
  0
LTYPE
  5
2C
100
AcDbSymbolTableRecord
100
AcDbLinetypeTableRecord
  2
PHANTOM
 70
              64
  3

 72
              65
 73
               6
 40
35.0
 49
30.0
 74
               0
 49
-1.0
 74
               0
 49
1.0
 74
               0
 49
-1.0
 74
               0
 49
1.0
 74
               0
 49
-1.0
 74
               0
  0
LTYPE
  5
2D
100
AcDbSymbolTableRecord
100
AcDbLinetypeTableRecord
  2
PHANTOM2
 70
              64
  3

 72
              65
 73
               6
 40
25.0
 49
20.0
 74
               0
 49
-1.0
 74
               0
 49
1.0
 74
               0
 49
-1.0
 74
               0
 49
1.0
 74
               0
 49
-1.0
 74
               0
  0
ENDTAB
  0
TABLE
  2
LAYER
  5
2
100
AcDbSymbolTable
 70
              11
  0
LAYER
  5
14
100
AcDbSymbolTableRecord
100
AcDbLayerTableRecord
  2
0
 70
               0
 62
               7
  6
Continuous
290
               1
370
              -3
390
1D
  0
LAYER
  5
2E
100
AcDbSymbolTableRecord
100
AcDbLayerTableRecord
  2
DEFPOINTS
 70
               0
 62
               7
  6
Continuous
290
               0
370
              -3
390
1D
  0
LAYER
  5
2F
100
AcDbSymbolTableRecord
100
AcDbLayerTableRecord
  2
____1
 70
               0
 62
               7
  6
Continuous
290
               1
370
              -3
390
1D
  0
LAYER
  5
30
100
AcDbSymbolTableRecord
100
AcDbLayerTableRecord
  2
______
 70
               0
 62
               7
  6
Continuous
290
               1
370
              -3
390
1D
  0
LAYER
  5
31
100
AcDbSymbolTableRecord
100
AcDbLayerTableRecord
  2
寸法線_1
 70
               0
 62
               7
  6
Continuous
290
               1
370
              -3
390
1D
  0
LAYER
  5
32
100
AcDbSymbolTableRecord
100
AcDbLayerTableRecord
  2
CONSTRUCTION
 70
               0
 62
               7
  6
Continuous
290
               1
370
              -3
390
1D
  0
LAYER
  5
33
100
AcDbSymbolTableRecord
100
AcDbLayerTableRecord
  2
DIMENSION
 70
               0
 62
               7
  6
Continuous
290
               1
370
              -3
390
1D
  0
LAYER
  5
34
100
AcDbSymbolTableRecord
100
AcDbLayerTableRecord
  2
FORMAT
 70
               0
 62
               7
  6
Continuous
290
               1
370
              -3
390
1D
  0
LAYER
  5
35
100
AcDbSymbolTableRecord
100
AcDbLayerTableRecord
  2
____2
 70
               0
 62
               5
  6
Continuous
290
               1
370
              -3
390
1D
  0
LAYER
  5
36
100
AcDbSymbolTableRecord
100
AcDbLayerTableRecord
  2
0_1
 70
               0
 62
               5
  6
Continuous
290
               1
370
              -3
390
1D
  0
LAYER
  5
37
100
AcDbSymbolTableRecord
100
AcDbLayerTableRecord
  2
DEFPOINTS_1
 70
               0
 62
               5
  6
Continuous
290
               1
370
              -3
390
1D
  0
ENDTAB
  0
TABLE
  2
STYLE
  5
3
100
AcDbSymbolTable
 70
               2
  0
STYLE
  5
17
100
AcDbSymbolTableRecord
100
AcDbTextStyleTableRecord
  2
Standard
 70
               0
 40
0.0
 41
1.0
 50
0.0
 71
               0
 42
0.35
  3
txt
  4

  0
STYLE
  5
46
100
AcDbSymbolTableRecord
100
AcDbTextStyleTableRecord
  2
Style1
 70
               0
 40
0.0
 41
1.0
 50
0.0
 71
               0
 42
0.35
  3
ＭＳ ゴシック
  4

  0
ENDTAB
  0
TABLE
  2
VIEW
  5
5
100
AcDbSymbolTable
 70
               0
  0
ENDTAB
  0
TABLE
  2
UCS
  5
6
100
AcDbSymbolTable
 70
               0
  0
ENDTAB
  0
TABLE
  2
APPID
  5
8
100
AcDbSymbolTable
 70
               1
  0
APPID
  5
16
100
AcDbSymbolTableRecord
100
AcDbRegAppTableRecord
  2
ACAD
 70
               0
  0
ENDTAB
  0
TABLE
  2
DIMSTYLE
  5
9
100
AcDbSymbolTable
 70
               2
100
AcDbDimStyleTable
 71
               0
  0
DIMSTYLE
105
18
100
AcDbSymbolTableRecord
100
AcDbDimStyleTableRecord
  2
Standard
 70
               0
  3

  4

 40
1.0
 41
3.0
 42
1.0
 43
0.38
 44
0.5
 45
0.0
 46
0.0
 47
0.0
 48
0.0
 71
               0
 72
               0
 73
               0
 74
               0
 75
               0
 76
               0
 77
               1
 78
               0
 79
               0
140
3.5277777777777777
141
0.09
142
0.0
143
25.399999999999999
144
1.0
145
0.0
146
1.0
147
1.0
148
0.0
170
               0
171
               3
172
               0
173
               0
174
               0
175
               0
176
               7
177
               7
178
               7
179
               0
271
               3
272
               4
273
               2
274
               2
275
               0
276
               0
277
               2
278
              46
279
               0
280
               0
281
               0
282
               0
283
               1
284
               0
285
               0
286
               0
288
               0
289
               0
340
17
341
0
342
0
343
0
344
0
371
              -2
372
              -2
  0
DIMSTYLE
105
49
100
AcDbSymbolTableRecord
100
AcDbDimStyleTableRecord
  2
DS1
 70
               0
  3

  4

 40
1.0
 41
3.0
 42
1.0
 43
0.38
 44
0.5
 45
0.0
 46
0.0
 47
0.0
 48
0.0
 71
               0
 72
               0
 73
               0
 74
               0
 75
               0
 76
               0
 77
               1
 78
               8
 79
               0
140
3.5277776718139648
141
0.09
142
0.0
143
25.399999999999999
144
1.0
145
0.0
146
1.0
147
1.0
148
0.0
170
               0
171
               3
172
               0
173
               0
174
               0
175
               0
176
               7
177
               7
178
               7
179
               0
271
               3
272
               4
273
               2
274
               2
275
               0
276
               0
277
               2
278
              46
279
               0
280
               0
281
               0
282
               0
283
               1
284
               0
285
               0
286
               0
288
               0
289
               3
340
17
341
0
342
0
343
0
344
0
371
              -2
372
              -2
  0
ENDTAB
  0
TABLE
  2
BLOCK_RECORD
  5
1
100
AcDbSymbolTable
 70
              13
  0
BLOCK_RECORD
  5
A
100
AcDbSymbolTableRecord
100
AcDbBlockTableRecord
  2
*MODEL_SPACE
340
20
  0
BLOCK_RECORD
  5
B
100
AcDbSymbolTableRecord
100
AcDbBlockTableRecord
  2
*PAPER_SPACE
340
21
  0
BLOCK_RECORD
  5
38
100
AcDbSymbolTableRecord
100
AcDbBlockTableRecord
  2
*D0
340
0
  0
BLOCK_RECORD
  5
4A
100
AcDbSymbolTableRecord
100
AcDbBlockTableRecord
  2
*D1
340
0
  0
BLOCK_RECORD
  5
6E
100
AcDbSymbolTableRecord
100
AcDbBlockTableRecord
  2
*D2
340
0
  0
BLOCK_RECORD
  5
7E
100
AcDbSymbolTableRecord
100
AcDbBlockTableRecord
  2
*D3
340
0
  0
BLOCK_RECORD
  5
8B
100
AcDbSymbolTableRecord
100
AcDbBlockTableRecord
  2
*D4
340
0
  0
BLOCK_RECORD
  5
119
100
AcDbSymbolTableRecord
100
AcDbBlockTableRecord
  2
*D5
340
0
  0
BLOCK_RECORD
  5
127
100
AcDbSymbolTableRecord
100
AcDbBlockTableRecord
  2
*D6
340
0
  0
BLOCK_RECORD
  5
135
100
AcDbSymbolTableRecord
100
AcDbBlockTableRecord
  2
*D7
340
0
  0
BLOCK_RECORD
  5
144
100
AcDbSymbolTableRecord
100
AcDbBlockTableRecord
  2
*D8
340
0
  0
BLOCK_RECORD
  5
14C
100
AcDbSymbolTableRecord
100
AcDbBlockTableRecord
  2
*D9
340
0
  0
BLOCK_RECORD
  5
159
100
AcDbSymbolTableRecord
100
AcDbBlockTableRecord
  2
*D10
340
0
  0
BLOCK_RECORD
  5
19B
100
AcDbSymbolTableRecord
100
AcDbBlockTableRecord
  2
*D11
340
0
  0
BLOCK_RECORD
  5
1AE
100
AcDbSymbolTableRecord
100
AcDbBlockTableRecord
  2
C0
340
0
102
{BLKREFS
331
1B5
102
}
  0
ENDTAB
  0
ENDSEC
  0
SECTION
  2
BLOCKS
  0
BLOCK
  5
D
100
AcDbEntity
  8
0
390
0
100
AcDbBlockBegin
  2
*MODEL_SPACE
 70
               0
 10
0.0
 20
0.0
 30
0.0
  3
*MODEL_SPACE
  1

  0
ENDBLK
  5
E
100
AcDbEntity
  8
0
390
0
100
AcDbBlockEnd
  0
BLOCK
  5
F
100
AcDbEntity
 67
               1
  8
0
390
0
100
AcDbBlockBegin
  2
*PAPER_SPACE
 70
               0
 10
0.0
 20
0.0
 30
0.0
  3
*PAPER_SPACE
  1

  0
ENDBLK
  5
10
100
AcDbEntity
 67
               1
  8
0
390
0
100
AcDbBlockEnd
  0
BLOCK
  5
39
100
AcDbEntity
  8
0
390
0
100
AcDbBlockBegin
  2
*D0
 70
              65
 10
0.0
 20
0.0
 30
0.0
  3
*D0
  1

  0
LINE
  5
3A
100
AcDbEntity
  8
____1
370
               5
390
0
  6
Continuous
 62
               7
100
AcDbLine
 10
756.85448099715063
 20
-185.70559983946117
 30
0.0
 11
756.85448099715063
 21
-177.70559983946117
 31
0.0
  0
LINE
  5
3B
100
AcDbEntity
  8
____1
370
               5
390
0
  6
Continuous
 62
               7
100
AcDbLine
 10
765.85448099715063
 20
-177.70559983946117
 30
0.0
 11
756.35448099715063
 21
-177.70559983946117
 31
0.0
  0
LINE
  5
3C
100
AcDbEntity
  8
____1
370
               5
390
0
  6
Continuous
 62
               7
100
AcDbLine
 10
772.60448099715063
 20
-185.70559983946117
 30
0.0
 11
756.35448099715063
 21
-185.70559983946117
 31
0.0
  0
SOLID
  5
3D
100
AcDbEntity
  8
____1
370
               5
390
0
  6
Continuous
 62
               7
100
AcDbTrace
 10
756.10448099715063
 20
-188.70559983946117
 30
0.0
 11
756.10448099715063
 21
-188.70559983946117
 31
0.0
 12
756.29198099715063
 22
-187.95559983946117
 32
0.0
 13
756.85448099715063
 23
-187.95559983946117
 33
0.0
  0
SOLID
  5
3E
100
AcDbEntity
  8
____1
370
               5
390
0
  6
Continuous
 62
               7
100
AcDbTrace
 10
757.60448099715063
 20
-188.70559983946117
 30
0.0
 11
757.60448099715063
 21
-188.70559983946117
 31
0.0
 12
756.85448099715063
 22
-187.95559983946117
 32
0.0
 13
757.41698099715063
 23
-187.95559983946117
 33
0.0
  0
SOLID
  5
3F
100
AcDbEntity
  8
____1
370
               5
390
0
  6
Continuous
 62
               7
100
AcDbTrace
 10
756.29198099715063
 20
-187.95559983946117
 30
0.0
 11
757.41698099715063
 21
-187.95559983946117
 31
0.0
 12
756.85448099715063
 22
-185.70559983946117
 32
0.0
 13
756.85448099715063
 23
-185.70559983946117
 33
0.0
  0
LINE
  5
40
100
AcDbEntity
  8
____1
370
               5
390
0
  6
Continuous
 62
               7
100
AcDbLine
 10
756.85448099715063
 20
-185.70559983946117
 30
0.0
 11
756.85448099715063
 21
-188.70559983946117
 31
0.0
  0
SOLID
  5
41
100
AcDbEntity
  8
____1
370
               5
390
0
  6
Continuous
 62
               7
100
AcDbTrace
 10
756.85448099715063
 20
-177.70559983946117
 30
0.0
 11
756.85448099715063
 21
-177.70559983946117
 31
0.0
 12
756.29198099715063
 22
-175.45559983946117
 32
0.0
 13
757.41698099715063
 23
-175.45559983946117
 33
0.0
  0
SOLID
  5
42
100
AcDbEntity
  8
____1
370
               5
390
0
  6
Continuous
 62
               7
100
AcDbTrace
 10
756.29198099715063
 20
-175.45559983946117
 30
0.0
 11
756.85448099715063
 21
-175.45559983946117
 31
0.0
 12
756.10448099715063
 22
-174.70559983946117
 32
0.0
 13
756.10448099715063
 23
-174.70559983946117
 33
0.0
  0
SOLID
  5
43
100
AcDbEntity
  8
____1
370
               5
390
0
  6
Continuous
 62
               7
100
AcDbTrace
 10
756.85448099715063
 20
-175.45559983946117
 30
0.0
 11
757.41698099715063
 21
-175.45559983946117
 31
0.0
 12
757.60448099715063
 22
-174.70559983946117
 32
0.0
 13
757.60448099715063
 23
-174.70559983946117
 33
0.0
  0
LINE
  5
44
100
AcDbEntity
  8
____1
370
               5
390
0
  6
Continuous
 62
               7
100
AcDbLine
 10
756.85448099715063
 20
-177.70559983946117
 30
0.0
 11
756.85448099715063
 21
-174.70559983946117
 31
0.0
  0
MTEXT
  5
45
100
AcDbEntity
  8
寸法線_1
370
              18
390
0
  6
Continuous
 62
               7
100
AcDbMText
 10
752.32670332533667
 20
-182.58754425741466
 30
0.0
 40
3.5277776718139648
 41
1.7707790266722441
 71
               1
 72
               1
  1
8
  7
Style1
 11
0.0
 21
1.0
 31
0.0
 73
               1
 44
1.0
  0
ENDBLK
  5
47
100
AcDbEntity
  8
0
390
0
100
AcDbBlockEnd
  0
BLOCK
  5
4B
100
AcDbEntity
  8
0
390
0
100
AcDbBlockBegin
  2
*D1
 70
              65
 10
0.0
 20
0.0
 30
0.0
  3
*D1
  1

  0
LINE
  5
4C
100
AcDbEntity
  8
____1
370
               5
390
0
  6
Continuous
 62
               7
100
AcDbLine
 10
791.85448099715063
 20
-164.36097307989792
 30
0.0
 11
795.35448099715063
 21
-164.36097307989792
 31
0.0
  0
LINE
  5
4D
100
AcDbEntity
  8
____1
370
               5
390
0
  6
Continuous
 62
               7
100
AcDbLine
 10
795.35448099715063
 20
-174.95559983946117
 30
0.0
 11
795.35448099715063
 21
-163.86097307989792
 31
0.0
  0
LINE
  5
4E
100
AcDbEntity
  8
____1
370
               5
390
0
  6
Continuous
 62
               7
100
AcDbLine
 10
791.85448099715063
 20
-174.95559983946117
 30
0.0
 11
791.85448099715063
 21
-163.86097307989792
 31
0.0
  0
SOLID
  5
4F
100
AcDbEntity
  8
____1
370
               5
390
0
  6
Continuous
 62
               7
100
AcDbTrace
 10
788.85448099715063
 20
-165.11097307989792
 30
0.0
 11
788.85448099715063
 21
-165.11097307989792
 31
0.0
 12
789.60448099715063
 22
-164.36097307989792
 32
0.0
 13
791.85448099715063
 23
-164.36097307989792
 33
0.0
  0
SOLID
  5
50
100
AcDbEntity
  8
____1
370
               5
390
0
  6
Continuous
 62
               7
100
AcDbTrace
 10
789.60448099715063
 20
-164.36097307989792
 30
0.0
 11
791.85448099715063
 21
-164.36097307989792
 31
0.0
 12
788.85448099715063
 22
-163.61097307989792
 32
0.0
 13
788.85448099715063
 23
-163.61097307989792
 33
0.0
  0
LINE
  5
51
100
AcDbEntity
  8
____1
370
               5
390
0
  6
Continuous
 62
               7
100
AcDbLine
 10
791.85448099715063
 20
-164.36097307989792
 30
0.0
 11
788.85448099715063
 21
-164.36097307989792
 31
0.0
  0
SOLID
  5
52
100
AcDbEntity
  8
____1
370
               5
390
0
  6
Continuous
 62
               7
100
AcDbTrace
 10
798.35448099715063
 20
-165.11097307989792
 30
0.0
 11
798.35448099715063
 21
-165.11097307989792
 31
0.0
 12
795.35448099715063
 22
-164.36097307989792
 32
0.0
 13
797.60448099715063
 23
-164.36097307989792
 33
0.0
  0
SOLID
  5
53
100
AcDbEntity
  8
____1
370
               5
390
0
  6
Continuous
 62
               7
100
AcDbTrace
 10
795.35448099715063
 20
-164.36097307989792
 30
0.0
 11
797.60448099715063
 21
-164.36097307989792
 31
0.0
 12
798.35448099715063
 22
-163.61097307989792
 32
0.0
 13
798.35448099715063
 23
-163.61097307989792
 33
0.0
  0
LINE
  5
54
100
AcDbEntity
  8
____1
370
               5
390
0
  6
Continuous
 62
               7
100
AcDbLine
 10
795.35448099715063
 20
-164.36097307989792
 30
0.0
 11
804.7298781872621
 21
-164.36097307989792
 31
0.0
  0
MTEXT
  5
55
100
AcDbEntity
  8
寸法線_1
370
              18
390
0
  6
Continuous
 62
               7
100
AcDbMText
 10
797.67432284363417
 20
-159.83319540808395
 30
0.0
 40
3.5277776718139648
 41
5.3123370800167322
 71
               1
 72
               1
  1
3.5
  7
Style1
 73
               1
 44
1.0
  0
ENDBLK
  5
56
100
AcDbEntity
  8
0
390
0
100
AcDbBlockEnd
  0
BLOCK
  5
6F
100
AcDbEntity
  8
0
390
0
100
AcDbBlockBegin
  2
*D2
 70
              65
 10
0.0
 20
0.0
 30
0.0
  3
*D2
  1

  0
LINE
  5
70
100
AcDbEntity
  8
____1
370
               5
390
0
  6
Continuous
 62
               7
100
AcDbLine
 10
803.60448099715063
 20
-175.20559983946117
 30
0.0
 11
803.60448099715063
 21
-180.20559983946117
 31
0.0
  0
LINE
  5
71
100
AcDbEntity
  8
____1
370
               5
390
0
  6
Continuous
 62
               7
100
AcDbLine
 10
794.60448099715063
 20
-180.20559983946117
 30
0.0
 11
804.10448099715063
 21
-180.20559983946117
 31
0.0
  0
LINE
  5
72
100
AcDbEntity
  8
____1
370
               5
390
0
  6
Continuous
 62
               7
100
AcDbLine
 10
794.60448099715063
 20
-175.20559983946117
 30
0.0
 11
804.10448099715063
 21
-175.20559983946117
 31
0.0
  0
SOLID
  5
73
100
AcDbEntity
  8
____1
370
               5
390
0
  6
Continuous
 62
               7
100
AcDbTrace
 10
803.60448099715063
 20
-175.20559983946117
 30
0.0
 11
803.60448099715063
 21
-175.20559983946117
 31
0.0
 12
803.04198099715063
 22
-172.95559983946117
 32
0.0
 13
804.16698099715063
 23
-172.95559983946117
 33
0.0
  0
SOLID
  5
74
100
AcDbEntity
  8
____1
370
               5
390
0
  6
Continuous
 62
               7
100
AcDbTrace
 10
803.04198099715063
 20
-172.95559983946117
 30
0.0
 11
803.60448099715063
 21
-172.95559983946117
 31
0.0
 12
802.85448099715063
 22
-172.20559983946117
 32
0.0
 13
802.85448099715063
 23
-172.20559983946117
 33
0.0
  0
SOLID
  5
75
100
AcDbEntity
  8
____1
370
               5
390
0
  6
Continuous
 62
               7
100
AcDbTrace
 10
803.60448099715063
 20
-172.95559983946117
 30
0.0
 11
804.16698099715063
 21
-172.95559983946117
 31
0.0
 12
804.35448099715063
 22
-172.20559983946117
 32
0.0
 13
804.35448099715063
 23
-172.20559983946117
 33
0.0
  0
LINE
  5
76
100
AcDbEntity
  8
____1
370
               5
390
0
  6
Continuous
 62
               7
100
AcDbLine
 10
803.60448099715063
 20
-175.20559983946117
 30
0.0
 11
803.60448099715063
 21
-172.20559983946117
 31
0.0
  0
SOLID
  5
77
100
AcDbEntity
  8
____1
370
               5
390
0
  6
Continuous
 62
               7
100
AcDbTrace
 10
802.85448099715063
 20
-183.20559983946117
 30
0.0
 11
802.85448099715063
 21
-183.20559983946117
 31
0.0
 12
803.04198099715063
 22
-182.45559983946117
 32
0.0
 13
803.60448099715063
 23
-182.45559983946117
 33
0.0
  0
SOLID
  5
78
100
AcDbEntity
  8
____1
370
               5
390
0
  6
Continuous
 62
               7
100
AcDbTrace
 10
804.35448099715063
 20
-183.20559983946117
 30
0.0
 11
804.35448099715063
 21
-183.20559983946117
 31
0.0
 12
803.60448099715063
 22
-182.45559983946117
 32
0.0
 13
804.16698099715063
 23
-182.45559983946117
 33
0.0
  0
SOLID
  5
79
100
AcDbEntity
  8
____1
370
               5
390
0
  6
Continuous
 62
               7
100
AcDbTrace
 10
803.04198099715063
 20
-182.45559983946117
 30
0.0
 11
804.16698099715063
 21
-182.45559983946117
 31
0.0
 12
803.60448099715063
 22
-180.20559983946117
 32
0.0
 13
803.60448099715063
 23
-180.20559983946117
 33
0.0
  0
LINE
  5
7A
100
AcDbEntity
  8
____1
370
               5
390
0
  6
Continuous
 62
               7
100
AcDbLine
 10
803.60448099715063
 20
-180.20559983946117
 30
0.0
 11
803.60448099715063
 21
-183.20559983946117
 31
0.0
  0
MTEXT
  5
7B
100
AcDbEntity
  8
寸法線_1
370
              18
390
0
  6
Continuous
 62
               7
100
AcDbMText
 10
799.07670332533667
 20
-178.58754425741466
 30
0.0
 40
3.5277776718139648
 41
1.7707790266722441
 71
               1
 72
               1
  1
5
  7
Style1
 11
0.0
 21
1.0
 31
0.0
 73
               1
 44
1.0
  0
ENDBLK
  5
7C
100
AcDbEntity
  8
0
390
0
100
AcDbBlockEnd
  0
BLOCK
  5
7F
100
AcDbEntity
  8
0
390
0
100
AcDbBlockBegin
  2
*D3
 70
              65
 10
0.0
 20
0.0
 30
0.0
  3
*D3
  1

  0
LINE
  5
80
100
AcDbEntity
  8
____1
370
               5
390
0
  6
Continuous
 62
               7
100
AcDbLine
 10
793.60448099715063
 20
-173.20559983946117
 30
0.0
 11
793.60448099715063
 21
-157.51097307989789
 31
0.0
  0
LINE
  5
81
100
AcDbEntity
  8
____1
370
               5
390
0
  6
Continuous
 62
               7
100
AcDbLine
 10
769.60448099715063
 20
-173.95559983946117
 30
0.0
 11
769.60448099715063
 21
-157.51097307989789
 31
0.0
  0
SOLID
  5
82
100
AcDbEntity
  8
____1
370
               5
390
0
  6
Continuous
 62
               7
100
AcDbTrace
 10
772.60448099715063
 20
-158.76097307989789
 30
0.0
 11
772.60448099715063
 21
-158.76097307989789
 31
0.0
 12
769.60448099715063
 22
-158.01097307989789
 32
0.0
 13
771.85448099715063
 23
-158.01097307989789
 33
0.0
  0
SOLID
  5
83
100
AcDbEntity
  8
____1
370
               5
390
0
  6
Continuous
 62
               7
100
AcDbTrace
 10
769.60448099715063
 20
-158.01097307989789
 30
0.0
 11
771.85448099715063
 21
-158.01097307989789
 31
0.0
 12
772.60448099715063
 22
-157.26097307989789
 32
0.0
 13
772.60448099715063
 23
-157.26097307989789
 33
0.0
  0
LINE
  5
84
100
AcDbEntity
  8
____1
370
               5
390
0
  6
Continuous
 62
               7
100
AcDbLine
 10
769.60448099715063
 20
-158.01097307989789
 30
0.0
 11
781.60448099715063
 21
-158.01097307989789
 31
0.0
  0
SOLID
  5
85
100
AcDbEntity
  8
____1
370
               5
390
0
  6
Continuous
 62
               7
100
AcDbTrace
 10
790.60448099715063
 20
-158.76097307989789
 30
0.0
 11
790.60448099715063
 21
-158.76097307989789
 31
0.0
 12
791.35448099715063
 22
-158.01097307989789
 32
0.0
 13
793.60448099715063
 23
-158.01097307989789
 33
0.0
  0
SOLID
  5
86
100
AcDbEntity
  8
____1
370
               5
390
0
  6
Continuous
 62
               7
100
AcDbTrace
 10
791.35448099715063
 20
-158.01097307989789
 30
0.0
 11
793.60448099715063
 21
-158.01097307989789
 31
0.0
 12
790.60448099715063
 22
-157.26097307989789
 32
0.0
 13
790.60448099715063
 23
-157.26097307989789
 33
0.0
  0
LINE
  5
87
100
AcDbEntity
  8
____1
370
               5
390
0
  6
Continuous
 62
               7
100
AcDbLine
 10
793.60448099715063
 20
-158.01097307989789
 30
0.0
 11
781.60448099715063
 21
-158.01097307989789
 31
0.0
  0
MTEXT
  5
88
100
AcDbEntity
  8
寸法線_1
370
              18
390
0
  6
Continuous
 62
               7
100
AcDbMText
 10
779.84059216124365
 20
-153.48319540808393
 30
0.0
 40
3.5277776718139648
 41
3.5415580533444881
 71
               1
 72
               1
  1
24
  7
Style1
 73
               1
 44
1.0
  0
ENDBLK
  5
89
100
AcDbEntity
  8
0
390
0
100
AcDbBlockEnd
  0
BLOCK
  5
8C
100
AcDbEntity
  8
0
390
0
100
AcDbBlockBegin
  2
*D4
 70
              65
 10
0.0
 20
0.0
 30
0.0
  3
*D4
  1

  0
SOLID
  5
8D
100
AcDbEntity
  8
____1
370
               5
390
0
  6
Continuous
 62
               7
100
AcDbTrace
 10
768.36704413007419
 20
-176.4681629723847
 30
0.0
 11
768.36704413007419
 21
-176.4681629723847
 31
0.0
 12
765.71539370062465
 22
-174.87717271471496
 32
0.0
 13
767.41244997547233
 23
-174.87717271471496
 33
0.0
  0
SOLID
  5
8E
100
AcDbEntity
  8
____1
370
               5
390
0
  6
Continuous
 62
               7
100
AcDbTrace
 10
766.77605387240442
 20
-174.87717271471496
 30
0.0
 11
767.41244997547233
 21
-174.87717271471496
 31
0.0
 12
766.77605387240442
 22
-173.81651254293513
 32
0.0
 13
766.77605387240442
 23
-173.81651254293513
 33
0.0
  0
LINE
  5
8F
100
AcDbEntity
  8
____1
370
               5
390
0
  6
Continuous
 62
               7
100
AcDbLine
 10
768.36704413007419
 20
-176.4681629723847
 30
0.0
 11
753.57646657554517
 21
-161.6775854178554
 31
0.0
  0
MTEXT
  5
90
100
AcDbEntity
  8
寸法線_1
370
              18
390
0
  6
Continuous
 62
               7
100
AcDbMText
 10
756.56988519265497
 20
-158.68416680074563
 30
0.0
 40
3.5277776718139648
 41
10.624674160033464
 71
               1
 72
               1
  1
φ 3.5
  7
Style1
 11
0.7071067811865408
 21
-0.7071067811865542
 31
0.0
 73
               1
 44
1.0
  0
ENDBLK
  5
91
100
AcDbEntity
  8
0
390
0
100
AcDbBlockEnd
  0
BLOCK
  5
11A
100
AcDbEntity
  8
0
390
0
100
AcDbBlockBegin
  2
*D5
 70
              65
 10
0.0
 20
0.0
 30
0.0
  3
*D5
  1

  0
LINE
  5
11B
100
AcDbEntity
  8
____1
370
               5
390
0
  6
Continuous
 62
               7
100
AcDbLine
 10
857.0981202641799
 20
-229.68305567364266
 30
0.0
 11
857.5981202641799
 21
-229.68305567364266
 31
0.0
  0
LINE
  5
11C
100
AcDbEntity
  8
____1
370
               5
390
0
  6
Continuous
 62
               7
100
AcDbLine
 10
857.5981202641799
 20
-238.68305567364266
 30
0.0
 11
857.5981202641799
 21
-229.18305567364266
 31
0.0
  0
LINE
  5
11D
100
AcDbEntity
  8
____1
370
               5
390
0
  6
Continuous
 62
               7
100
AcDbLine
 10
857.0981202641799
 20
-242.68305567364266
 30
0.0
 11
857.0981202641799
 21
-229.18305567364266
 31
0.0
  0
SOLID
  5
11E
100
AcDbEntity
  8
____1
370
               5
390
0
  6
Continuous
 62
               7
100
AcDbTrace
 10
854.0981202641799
 20
-230.43305567364266
 30
0.0
 11
854.0981202641799
 21
-230.43305567364266
 31
0.0
 12
854.8481202641799
 22
-229.68305567364266
 32
0.0
 13
857.0981202641799
 23
-229.68305567364266
 33
0.0
  0
SOLID
  5
11F
100
AcDbEntity
  8
____1
370
               5
390
0
  6
Continuous
 62
               7
100
AcDbTrace
 10
854.8481202641799
 20
-229.68305567364266
 30
0.0
 11
857.0981202641799
 21
-229.68305567364266
 31
0.0
 12
854.0981202641799
 22
-228.93305567364266
 32
0.0
 13
854.0981202641799
 23
-228.93305567364266
 33
0.0
  0
LINE
  5
120
100
AcDbEntity
  8
____1
370
               5
390
0
  6
Continuous
 62
               7
100
AcDbLine
 10
857.0981202641799
 20
-229.68305567364266
 30
0.0
 11
843.37683964583425
 21
-229.68305567364266
 31
0.0
  0
SOLID
  5
121
100
AcDbEntity
  8
____1
370
               5
390
0
  6
Continuous
 62
               7
100
AcDbTrace
 10
860.5981202641799
 20
-230.43305567364266
 30
0.0
 11
860.5981202641799
 21
-230.43305567364266
 31
0.0
 12
857.5981202641799
 22
-229.68305567364266
 32
0.0
 13
859.8481202641799
 23
-229.68305567364266
 33
0.0
  0
SOLID
  5
122
100
AcDbEntity
  8
____1
370
               5
390
0
  6
Continuous
 62
               7
100
AcDbTrace
 10
857.5981202641799
 20
-229.68305567364266
 30
0.0
 11
859.8481202641799
 21
-229.68305567364266
 31
0.0
 12
860.5981202641799
 22
-228.93305567364266
 32
0.0
 13
860.5981202641799
 23
-228.93305567364266
 33
0.0
  0
LINE
  5
123
100
AcDbEntity
  8
____1
370
               5
390
0
  6
Continuous
 62
               7
100
AcDbLine
 10
857.5981202641799
 20
-229.68305567364266
 30
0.0
 11
860.5981202641799
 21
-229.68305567364266
 31
0.0
  0
MTEXT
  5
124
100
AcDbEntity
  8
寸法線_1
370
              18
390
0
  6
Continuous
 62
               7
100
AcDbMText
 10
845.14072848174123
 20
-225.15527800182869
 30
0.0
 40
3.5277776718139648
 41
8.8538956120610237
 71
               1
 72
               1
  1
(0.5)
  7
Style1
 73
               1
 44
1.0
  0
ENDBLK
  5
125
100
AcDbEntity
  8
0
390
0
100
AcDbBlockEnd
  0
BLOCK
  5
128
100
AcDbEntity
  8
0
390
0
100
AcDbBlockBegin
  2
*D6
 70
              65
 10
0.0
 20
0.0
 30
0.0
  3
*D6
  1

  0
LINE
  5
129
100
AcDbEntity
  8
____1
370
               5
390
0
  6
Continuous
 62
               7
100
AcDbLine
 10
857.5981202641799
 20
-229.68305567364266
 30
0.0
 11
873.0981202641799
 21
-229.68305567364266
 31
0.0
  0
LINE
  5
12A
100
AcDbEntity
  8
____1
370
               5
390
0
  6
Continuous
 62
               7
100
AcDbLine
 10
873.0981202641799
 20
-242.18305567364266
 30
0.0
 11
873.0981202641799
 21
-229.18305567364266
 31
0.0
  0
LINE
  5
12B
100
AcDbEntity
  8
____1
370
               5
390
0
  6
Continuous
 62
               7
100
AcDbLine
 10
857.5981202641799
 20
-238.68305567364266
 30
0.0
 11
857.5981202641799
 21
-229.18305567364266
 31
0.0
  0
SOLID
  5
12C
100
AcDbEntity
  8
____1
370
               5
390
0
  6
Continuous
 62
               7
100
AcDbTrace
 10
854.5981202641799
 20
-230.43305567364266
 30
0.0
 11
854.5981202641799
 21
-230.43305567364266
 31
0.0
 12
855.3481202641799
 22
-229.68305567364266
 32
0.0
 13
857.5981202641799
 23
-229.68305567364266
 33
0.0
  0
SOLID
  5
12D
100
AcDbEntity
  8
____1
370
               5
390
0
  6
Continuous
 62
               7
100
AcDbTrace
 10
855.3481202641799
 20
-229.68305567364266
 30
0.0
 11
857.5981202641799
 21
-229.68305567364266
 31
0.0
 12
854.5981202641799
 22
-228.93305567364266
 32
0.0
 13
854.5981202641799
 23
-228.93305567364266
 33
0.0
  0
LINE
  5
12E
100
AcDbEntity
  8
____1
370
               5
390
0
  6
Continuous
 62
               7
100
AcDbLine
 10
857.5981202641799
 20
-229.68305567364266
 30
0.0
 11
854.5981202641799
 21
-229.68305567364266
 31
0.0
  0
SOLID
  5
12F
100
AcDbEntity
  8
____1
370
               5
390
0
  6
Continuous
 62
               7
100
AcDbTrace
 10
876.0981202641799
 20
-230.43305567364266
 30
0.0
 11
876.0981202641799
 21
-230.43305567364266
 31
0.0
 12
873.0981202641799
 22
-229.68305567364266
 32
0.0
 13
875.3481202641799
 23
-229.68305567364266
 33
0.0
  0
SOLID
  5
130
100
AcDbEntity
  8
____1
370
               5
390
0
  6
Continuous
 62
               7
100
AcDbTrace
 10
873.0981202641799
 20
-229.68305567364266
 30
0.0
 11
875.3481202641799
 21
-229.68305567364266
 31
0.0
 12
876.0981202641799
 22
-228.93305567364266
 32
0.0
 13
876.0981202641799
 23
-228.93305567364266
 33
0.0
  0
LINE
  5
131
100
AcDbEntity
  8
____1
370
               5
390
0
  6
Continuous
 62
               7
100
AcDbLine
 10
873.0981202641799
 20
-229.68305567364266
 30
0.0
 11
876.0981202641799
 21
-229.68305567364266
 31
0.0
  0
MTEXT
  5
132
100
AcDbEntity
  8
寸法線_1
370
              18
390
0
  6
Continuous
 62
               7
100
AcDbMText
 10
861.82034259236593
 20
-225.15527800182869
 30
0.0
 40
3.5277776718139648
 41
7.0831161066889763
 71
               1
 72
               1
  1
15.5
  7
Style1
 73
               1
 44
1.0
  0
ENDBLK
  5
133
100
AcDbEntity
  8
0
390
0
100
AcDbBlockEnd
  0
BLOCK
  5
136
100
AcDbEntity
  8
0
390
0
100
AcDbBlockBegin
  2
*D7
 70
              65
 10
0.0
 20
0.0
 30
0.0
  3
*D7
  1

  0
LINE
  5
137
100
AcDbEntity
  8
____1
370
               5
390
0
  6
Continuous
 62
               7
100
AcDbLine
 10
798.60448099715063
 20
-256.68305567364263
 30
0.0
 11
808.10448099715063
 21
-256.68305567364263
 31
0.0
  0
LINE
  5
138
100
AcDbEntity
  8
____1
370
               5
390
0
  6
Continuous
 62
               7
100
AcDbLine
 10
782.60448099715063
 20
-239.68305567364266
 30
0.0
 11
808.10448099715063
 21
-239.68305567364266
 31
0.0
  0
SOLID
  5
139
100
AcDbEntity
  8
____1
370
               5
390
0
  6
Continuous
 62
               7
100
AcDbTrace
 10
806.85448099715063
 20
-242.68305567364266
 30
0.0
 11
806.85448099715063
 21
-242.68305567364266
 31
0.0
 12
807.04198099715063
 22
-241.93305567364266
 32
0.0
 13
807.60448099715063
 23
-241.93305567364266
 33
0.0
  0
SOLID
  5
13A
100
AcDbEntity
  8
____1
370
               5
390
0
  6
Continuous
 62
               7
100
AcDbTrace
 10
808.35448099715063
 20
-242.68305567364266
 30
0.0
 11
808.35448099715063
 21
-242.68305567364266
 31
0.0
 12
807.60448099715063
 22
-241.93305567364266
 32
0.0
 13
808.16698099715063
 23
-241.93305567364266
 33
0.0
  0
SOLID
  5
13B
100
AcDbEntity
  8
____1
370
               5
390
0
  6
Continuous
 62
               7
100
AcDbTrace
 10
807.04198099715063
 20
-241.93305567364266
 30
0.0
 11
808.16698099715063
 21
-241.93305567364266
 31
0.0
 12
807.60448099715063
 22
-239.68305567364266
 32
0.0
 13
807.60448099715063
 23
-239.68305567364266
 33
0.0
  0
LINE
  5
13C
100
AcDbEntity
  8
____1
370
               5
390
0
  6
Continuous
 62
               7
100
AcDbLine
 10
807.60448099715063
 20
-239.68305567364266
 30
0.0
 11
807.60448099715063
 21
-248.18305567364266
 31
0.0
  0
SOLID
  5
13D
100
AcDbEntity
  8
____1
370
               5
390
0
  6
Continuous
 62
               7
100
AcDbTrace
 10
807.60448099715063
 20
-256.68305567364263
 30
0.0
 11
807.60448099715063
 21
-256.68305567364263
 31
0.0
 12
807.04198099715063
 22
-254.43305567364263
 32
0.0
 13
808.16698099715063
 23
-254.43305567364263
 33
0.0
  0
SOLID
  5
13E
100
AcDbEntity
  8
____1
370
               5
390
0
  6
Continuous
 62
               7
100
AcDbTrace
 10
807.04198099715063
 20
-254.43305567364263
 30
0.0
 11
807.60448099715063
 21
-254.43305567364263
 31
0.0
 12
806.85448099715063
 22
-253.68305567364263
 32
0.0
 13
806.85448099715063
 23
-253.68305567364263
 33
0.0
  0
SOLID
  5
13F
100
AcDbEntity
  8
____1
370
               5
390
0
  6
Continuous
 62
               7
100
AcDbTrace
 10
807.60448099715063
 20
-254.43305567364263
 30
0.0
 11
808.16698099715063
 21
-254.43305567364263
 31
0.0
 12
808.35448099715063
 22
-253.68305567364263
 32
0.0
 13
808.35448099715063
 23
-253.68305567364263
 33
0.0
  0
LINE
  5
140
100
AcDbEntity
  8
____1
370
               5
390
0
  6
Continuous
 62
               7
100
AcDbLine
 10
807.60448099715063
 20
-256.68305567364263
 30
0.0
 11
807.60448099715063
 21
-248.18305567364266
 31
0.0
  0
MTEXT
  5
141
100
AcDbEntity
  8
寸法線_1
370
              18
390
0
  6
Continuous
 62
               7
100
AcDbMText
 10
803.07670332533667
 20
-249.94694450954964
 30
0.0
 40
3.5277776718139648
 41
3.5415580533444881
 71
               1
 72
               1
  1
17
  7
Style1
 11
0.0
 21
1.0
 31
0.0
 73
               1
 44
1.0
  0
ENDBLK
  5
142
100
AcDbEntity
  8
0
390
0
100
AcDbBlockEnd
  0
BLOCK
  5
145
100
AcDbEntity
  8
0
390
0
100
AcDbBlockBegin
  2
*D8
 70
              65
 10
0.0
 20
0.0
 30
0.0
  3
*D8
  1

  0
SOLID
  5
146
100
AcDbEntity
  8
____1
370
               5
390
0
  6
Continuous
 62
               7
100
AcDbTrace
 10
787.26133524664306
 20
-242.02620142415029
 30
0.0
 11
787.26133524664306
 21
-242.02620142415029
 31
0.0
 12
788.21592940124492
 22
-240.43521116648057
 32
0.0
 13
789.9129856760926
 23
-240.43521116648057
 33
0.0
  0
SOLID
  5
147
100
AcDbEntity
  8
____1
370
               5
390
0
  6
Continuous
 62
               7
100
AcDbTrace
 10
788.21592940124492
 20
-240.43521116648057
 30
0.0
 11
788.85232550431283
 21
-240.43521116648054
 31
0.0
 12
788.85232550431283
 22
-239.37455099470074
 32
0.0
 13
788.85232550431283
 23
-239.37455099470074
 33
0.0
  0
LINE
  5
148
100
AcDbEntity
  8
____1
370
               5
390
0
  6
Continuous
 62
               7
100
AcDbLine
 10
787.26133524664306
 20
-242.02620142415029
 30
0.0
 11
798.60538219683883
 21
-230.68215447395451
 31
0.0
  0
MTEXT
  5
149
100
AcDbEntity
  8
寸法線_1
370
               5
390
0
  6
CENTER2
 62
               7
100
AcDbMText
 10
789.37567479408369
 20
-233.92502464249011
 30
0.0
 40
3.5277776718139648
 41
8.8538956120610237
 71
               1
 72
               1
  1
φ 16
  7
Style1
 11
0.7071067811865539
 21
0.707106781186541
 31
0.0
 73
               1
 44
1.0
  0
ENDBLK
  5
14A
100
AcDbEntity
  8
0
390
0
100
AcDbBlockEnd
  0
BLOCK
  5
14D
100
AcDbEntity
  8
0
390
0
100
AcDbBlockBegin
  2
*D9
 70
              65
 10
0.0
 20
0.0
 30
0.0
  3
*D9
  1

  0
LINE
  5
14E
100
AcDbEntity
  8
____1
370
               5
390
0
  6
Continuous
 62
               7
100
AcDbLine
 10
765.60448099715063
 20
-257.68305567364263
 30
0.0
 11
765.60448099715063
 21
-267.18305567364263
 31
0.0
  0
LINE
  5
14F
100
AcDbEntity
  8
____1
370
               5
390
0
  6
Continuous
 62
               7
100
AcDbLine
 10
797.60448099715063
 20
-257.68305567364263
 30
0.0
 11
797.60448099715063
 21
-267.18305567364263
 31
0.0
  0
SOLID
  5
150
100
AcDbEntity
  8
____1
370
               5
390
0
  6
Continuous
 62
               7
100
AcDbTrace
 10
794.60448099715063
 20
-267.43305567364263
 30
0.0
 11
794.60448099715063
 21
-267.43305567364263
 31
0.0
 12
795.35448099715063
 22
-266.68305567364263
 32
0.0
 13
797.60448099715063
 23
-266.68305567364263
 33
0.0
  0
SOLID
  5
151
100
AcDbEntity
  8
____1
370
               5
390
0
  6
Continuous
 62
               7
100
AcDbTrace
 10
795.35448099715063
 20
-266.68305567364263
 30
0.0
 11
797.60448099715063
 21
-266.68305567364263
 31
0.0
 12
794.60448099715063
 22
-265.93305567364263
 32
0.0
 13
794.60448099715063
 23
-265.93305567364263
 33
0.0
  0
LINE
  5
152
100
AcDbEntity
  8
____1
370
               5
390
0
  6
Continuous
 62
               7
100
AcDbLine
 10
797.60448099715063
 20
-266.68305567364263
 30
0.0
 11
781.60448099715063
 21
-266.68305567364263
 31
0.0
  0
SOLID
  5
153
100
AcDbEntity
  8
____1
370
               5
390
0
  6
Continuous
 62
               7
100
AcDbTrace
 10
768.60448099715063
 20
-267.43305567364263
 30
0.0
 11
768.60448099715063
 21
-267.43305567364263
 31
0.0
 12
765.60448099715063
 22
-266.68305567364263
 32
0.0
 13
767.85448099715063
 23
-266.68305567364263
 33
0.0
  0
SOLID
  5
154
100
AcDbEntity
  8
____1
370
               5
390
0
  6
Continuous
 62
               7
100
AcDbTrace
 10
765.60448099715063
 20
-266.68305567364263
 30
0.0
 11
767.85448099715063
 21
-266.68305567364263
 31
0.0
 12
768.60448099715063
 22
-265.93305567364263
 32
0.0
 13
768.60448099715063
 23
-265.93305567364263
 33
0.0
  0
LINE
  5
155
100
AcDbEntity
  8
____1
370
               5
390
0
  6
Continuous
 62
               7
100
AcDbLine
 10
765.60448099715063
 20
-266.68305567364263
 30
0.0
 11
781.60448099715063
 21
-266.68305567364263
 31
0.0
  0
MTEXT
  5
156
100
AcDbEntity
  8
寸法線_1
370
              18
390
0
  6
Continuous
 62
               7
100
AcDbMText
 10
779.84059216124365
 20
-262.15527800182866
 30
0.0
 40
3.5277776718139648
 41
3.5415580533444881
 71
               1
 72
               1
  1
32
  7
Style1
 73
               1
 44
1.0
  0
ENDBLK
  5
157
100
AcDbEntity
  8
0
390
0
100
AcDbBlockEnd
  0
BLOCK
  5
15A
100
AcDbEntity
  8
0
390
0
100
AcDbBlockBegin
  2
*D10
 70
              65
 10
0.0
 20
0.0
 30
0.0
  3
*D10
  1

  0
LINE
  5
15B
100
AcDbEntity
  8
____1
370
               5
390
0
  6
Continuous
 62
               7
100
AcDbLine
 10
880.5981202641799
 20
-254.18305567364266
 30
0.0
 11
880.5981202641799
 21
-256.68305567364263
 31
0.0
  0
LINE
  5
15C
100
AcDbEntity
  8
____1
370
               5
390
0
  6
Continuous
 62
               7
100
AcDbLine
 10
871.5981202641799
 20
-256.68305567364263
 30
0.0
 11
881.0981202641799
 21
-256.68305567364263
 31
0.0
  0
LINE
  5
15D
100
AcDbEntity
  8
____1
370
               5
390
0
  6
Continuous
 62
               7
100
AcDbLine
 10
871.5981202641799
 20
-254.18305567364266
 30
0.0
 11
881.0981202641799
 21
-254.18305567364266
 31
0.0
  0
SOLID
  5
15E
100
AcDbEntity
  8
____1
370
               5
390
0
  6
Continuous
 62
               7
100
AcDbTrace
 10
880.5981202641799
 20
-254.18305567364266
 30
0.0
 11
880.5981202641799
 21
-254.18305567364266
 31
0.0
 12
880.0356202641799
 22
-251.93305567364266
 32
0.0
 13
881.1606202641799
 23
-251.93305567364266
 33
0.0
  0
SOLID
  5
15F
100
AcDbEntity
  8
____1
370
               5
390
0
  6
Continuous
 62
               7
100
AcDbTrace
 10
880.0356202641799
 20
-251.93305567364266
 30
0.0
 11
880.5981202641799
 21
-251.93305567364266
 31
0.0
 12
879.8481202641799
 22
-251.18305567364266
 32
0.0
 13
879.8481202641799
 23
-251.18305567364266
 33
0.0
  0
SOLID
  5
160
100
AcDbEntity
  8
____1
370
               5
390
0
  6
Continuous
 62
               7
100
AcDbTrace
 10
880.5981202641799
 20
-251.93305567364266
 30
0.0
 11
881.1606202641799
 21
-251.93305567364266
 31
0.0
 12
881.3481202641799
 22
-251.18305567364266
 32
0.0
 13
881.3481202641799
 23
-251.18305567364266
 33
0.0
  0
LINE
  5
161
100
AcDbEntity
  8
____1
370
               5
390
0
  6
Continuous
 62
               7
100
AcDbLine
 10
880.5981202641799
 20
-254.18305567364266
 30
0.0
 11
880.5981202641799
 21
-251.18305567364266
 31
0.0
  0
SOLID
  5
162
100
AcDbEntity
  8
____1
370
               5
390
0
  6
Continuous
 62
               7
100
AcDbTrace
 10
879.8481202641799
 20
-259.68305567364263
 30
0.0
 11
879.8481202641799
 21
-259.68305567364263
 31
0.0
 12
880.0356202641799
 22
-258.93305567364263
 32
0.0
 13
880.5981202641799
 23
-258.93305567364263
 33
0.0
  0
SOLID
  5
163
100
AcDbEntity
  8
____1
370
               5
390
0
  6
Continuous
 62
               7
100
AcDbTrace
 10
881.3481202641799
 20
-259.68305567364263
 30
0.0
 11
881.3481202641799
 21
-259.68305567364263
 31
0.0
 12
880.5981202641799
 22
-258.93305567364263
 32
0.0
 13
881.1606202641799
 23
-258.93305567364263
 33
0.0
  0
SOLID
  5
164
100
AcDbEntity
  8
____1
370
               5
390
0
  6
Continuous
 62
               7
100
AcDbTrace
 10
880.0356202641799
 20
-258.93305567364263
 30
0.0
 11
881.1606202641799
 21
-258.93305567364263
 31
0.0
 12
880.5981202641799
 22
-256.68305567364263
 32
0.0
 13
880.5981202641799
 23
-256.68305567364263
 33
0.0
  0
LINE
  5
165
100
AcDbEntity
  8
____1
370
               5
390
0
  6
Continuous
 62
               7
100
AcDbLine
 10
880.5981202641799
 20
-256.68305567364263
 30
0.0
 11
880.5981202641799
 21
-267.65488149030199
 31
0.0
  0
MTEXT
  5
166
100
AcDbEntity
  8
寸法線_1
370
               5
390
0
  6
CENTER2
 62
               7
100
AcDbMText
 10
876.07034259236593
 20
-265.89099265439501
 30
0.0
 40
3.5277776718139648
 41
5.3123370800167322
 71
               1
 72
               1
  1
2.5
  7
Style1
 11
0.0
 21
1.0
 31
0.0
 73
               1
 44
1.0
  0
ENDBLK
  5
167
100
AcDbEntity
  8
0
390
0
100
AcDbBlockEnd
  0
BLOCK
  5
19C
100
AcDbEntity
  8
0
390
0
100
AcDbBlockBegin
  2
*D11
 70
              65
 10
0.0
 20
0.0
 30
0.0
  3
*D11
  1

  0
SOLID
  5
19D
100
AcDbEntity
  8
____1
370
               5
390
0
  6
Continuous
 62
               7
100
AcDbTrace
 10
919.17336343612237
 20
-173.34682355125082
 30
0.0
 11
919.17336343612237
 21
-173.34682355125082
 31
0.0
 12
920.12795759072424
 22
-171.75583329358111
 32
0.0
 13
921.82501386557192
 23
-171.75583329358111
 33
0.0
  0
SOLID
  5
19E
100
AcDbEntity
  8
____1
370
               5
390
0
  6
Continuous
 62
               7
100
AcDbTrace
 10
920.12795759072424
 20
-171.75583329358111
 30
0.0
 11
920.76435369379215
 21
-171.75583329358108
 31
0.0
 12
920.76435369379215
 22
-170.69517312180128
 32
0.0
 13
920.76435369379215
 23
-170.69517312180128
 33
0.0
  0
LINE
  5
19F
100
AcDbEntity
  8
____1
370
               5
390
0
  6
Continuous
 62
               7
100
AcDbLine
 10
919.17336343612237
 20
-173.34682355125082
 30
0.0
 11
931.75523196529764
 21
-160.76495502207555
 31
0.0
  0
MTEXT
  5
1A0
100
AcDbEntity
  8
寸法線_1
370
               5
390
0
  6
CENTER2
 62
               7
100
AcDbMText
 10
922.5255245625425
 20
-164.00782519061119
 30
0.0
 40
3.5277776718139648
 41
8.8538956120610237
 71
               1
 72
               1
  1
φ 16
  7
Style1
 11
0.707106781186546
 21
0.7071067811865492
 31
0.0
 73
               1
 44
1.0
  0
ENDBLK
  5
1A1
100
AcDbEntity
  8
0
390
0
100
AcDbBlockEnd
  0
BLOCK
  5
1AF
100
AcDbEntity
  8
0
390
0
100
AcDbBlockBegin
  2
C0
 70
              64
 10
0.0
 20
0.0
 30
0.0
  3
C0
  1

  0
LINE
  5
1B0
100
AcDbEntity
  8
____1
370
              18
390
0
  6
Continuous
 62
               5
100
AcDbLine
 10
887.82155752583526
 20
-135.17658372792368
 30
0.0
 11
892.77155752583508
 21
-135.17658372792368
 31
0.0
  0
MTEXT
  5
1B1
100
AcDbEntity
  8
____1
370
               5
390
0
  6
Continuous
 62
               7
100
AcDbMText
 10
888.71381450104514
 20
-132.12676773810739
 30
0.0
 40
2.9266439437866216
 41
3.1654860495798762
 71
               1
 72
               1
  1
1
  7
Style1
 73
               1
 44
1.0
  0
LINE
  5
1B2
100
AcDbEntity
  8
____1
370
              18
390
0
  6
Continuous
 62
               5
100
AcDbLine
 10
890.29655752583517
 20
-130.88975797919073
 30
0.0
 11
887.82155752583526
 21
-135.17658372792368
 31
0.0
  0
LINE
  5
1B3
100
AcDbEntity
  8
____1
370
              18
390
0
  6
Continuous
 62
               5
100
AcDbLine
 10
890.29655752583517
 20
-130.88975797919073
 30
0.0
 11
892.77155752583508
 21
-135.17658372792368
 31
0.0
  0
ENDBLK
  5
1B4
100
AcDbEntity
  8
0
390
0
100
AcDbBlockEnd
  0
ENDSEC
  0
SECTION
  2
ENTITIES
  0
DIMENSION
  5
48
100
AcDbEntity
  8
寸法線_1
370
               5
390
0
  6
Continuous
 62
               7
100
AcDbDimension
  2
*D0
 10
756.85448099715063
 20
-177.70559983946117
 30
0.0
 11
756.85448099715063
 21
-181.70559983946117
 31
0.0
 71
               5
 72
               1
 41
1.0
 42
0.0
  3
DS1
100
AcDbAlignedDimension
 13
773.60448099715063
 23
-185.70559983946117
 33
0.0
 14
766.85448099715063
 24
-177.70559983946117
 34
0.0
 50
90.0
100
AcDbRotatedDimension
  0
DIMENSION
  5
57
100
AcDbEntity
  8
寸法線_1
370
               5
390
0
  6
Continuous
 62
               7
100
AcDbDimension
  2
*D1
 10
795.35448099715063
 20
-164.36097307989792
 30
0.0
 11
800.32015609749465
 21
-164.36097307989792
 31
0.0
 71
               5
 72
               1
 41
1.0
 42
0.0
  3
DS1
100
AcDbAlignedDimension
 13
791.85448099715063
 23
-175.95559983946117
 33
0.0
 14
795.35448099715063
 24
-175.95559983946117
 34
0.0
100
AcDbRotatedDimension
  0
MTEXT
  5
58
100
AcDbEntity
  8
____1
370
              18
390
0
  6
Continuous
 62
               5
100
AcDbMText
 10
855.58084291187765
 20
-295.06290888628376
 30
0.0
 40
2.75
 41
16.0
 71
               1
 72
               1
  1
H16.4
  7
Style1
 73
               1
 44
1.0
  0
MTEXT
  5
59
100
AcDbEntity
  8
____1
370
               5
390
0
  6
Continuous
 62
               7
100
AcDbMText
 10
920.47134236558588
 20
-307.79587575377371
 30
0.0
 40
2.75
 41
6.0
 71
               1
 72
               1
  1
図番
  7
Style1
 73
               1
 44
1.0
  0
MTEXT
  5
5A
100
AcDbEntity
  8
____1
370
               5
390
0
  6
Continuous
 62
               7
100
AcDbMText
 10
920.47134236558588
 20
-299.29587575377371
 30
0.0
 40
2.75
 41
6.0
 71
               1
 72
               1
  1
品名
  7
Style1
 73
               1
 44
1.0
  0
MTEXT
  5
5B
100
AcDbEntity
  8
____1
370
               5
390
0
  6
Continuous
 62
               7
100
AcDbMText
 10
920.47134236558588
 20
-290.79587575377371
 30
0.0
 40
2.75
 41
6.0
 71
               1
 72
               1
  1
型番
  7
Style1
 73
               1
 44
1.0
  0
MTEXT
  5
5C
100
AcDbEntity
  8
____1
370
               5
390
0
  6
Continuous
 62
               7
100
AcDbMText
 10
856.04622872315463
 20
-290.81290888628376
 30
0.0
 40
2.75
 41
15.0
 71
               1
 72
               1
  1
　日 　付
  7
Style1
 73
               1
 44
1.0
  0
MTEXT
  5
5D
100
AcDbEntity
  8
____1
370
               5
390
0
  6
Continuous
 62
               7
100
AcDbMText
 10
855.58084291187765
 20
-303.56290888628376
 30
0.0
 40
2.75
 41
32.0
 71
               1
 72
               1
  1
 製図　　  岸本
  7
Style1
 73
               1
 44
1.0
  0
MTEXT
  5
5E
100
AcDbEntity
  8
____1
370
               5
390
0
  6
Continuous
 62
               7
100
AcDbMText
 10
855.58084291187765
 20
-299.31290888628376
 30
0.0
 40
2.75
 41
32.0
 71
               1
 72
               1
  1
 設計　　 白須賀
  7
Style1
 73
               1
 44
1.0
  0
LINE
  5
5F
100
AcDbEntity
  8
____1
370
               5
390
0
  6
Continuous
 62
               7
100
AcDbLine
 10
889.58084291187765
 20
-302.85737547892694
 30
0.0
 11
901.58084291187765
 21
-302.85737547892694
 31
0.0
  0
LINE
  5
60
100
AcDbEntity
  8
____1
370
               5
390
0
  6
Continuous
 62
               7
100
AcDbLine
 10
889.58084291187765
 20
-294.35737547892694
 30
0.0
 11
901.58084291187765
 21
-294.35737547892694
 31
0.0
  0
LINE
  5
61
100
AcDbEntity
  8
____1
370
               5
390
0
  6
Continuous
 62
               7
100
AcDbLine
 10
857.58084291187765
 20
-302.85737547892694
 30
0.0
 11
885.58084291187765
 21
-302.85737547892694
 31
0.0
  0
LINE
  5
62
100
AcDbEntity
  8
____1
370
               5
390
0
  6
Continuous
 62
               7
100
AcDbLine
 10
873.58084291187788
 20
-294.35737547892694
 30
0.0
 11
885.58084291187788
 21
-294.35737547892694
 31
0.0
  0
LINE
  5
63
100
AcDbEntity
  8
____1
370
               5
390
0
  6
Continuous
 62
               7
100
AcDbLine
 10
857.58084291187765
 20
-294.35737547892694
 30
0.0
 11
869.58084291187765
 21
-294.35737547892694
 31
0.0
  0
LINE
  5
64
100
AcDbEntity
  8
____1
370
               5
390
0
  6
Continuous
 62
               7
100
AcDbLine
 10
887.58084291187765
 20
-290.10737547892694
 30
0.0
 11
887.58084291187765
 21
-307.10737547892694
 31
0.0
  0
LINE
  5
65
100
AcDbEntity
  8
____1
370
              18
390
0
  6
Continuous
 62
               5
100
AcDbLine
 10
975.58084291187765
 20
-315.60737547892694
 30
0.0
 11
975.58084291187765
 21
-125.60737547892697
 31
0.0
  0
LINE
  5
66
100
AcDbEntity
  8
____1
370
              18
390
0
  6
Continuous
 62
               5
100
AcDbLine
 10
700.58084291187765
 20
-315.60737547892694
 30
0.0
 11
700.58084291187765
 21
-125.60737547892697
 31
0.0
  0
LINE
  5
67
100
AcDbEntity
  8
____1
370
              18
390
0
  6
Continuous
 62
               5
100
AcDbLine
 10
700.58084291187765
 20
-315.60737547892694
 30
0.0
 11
975.58084291187765
 21
-315.60737547892694
 31
0.0
  0
LINE
  5
68
100
AcDbEntity
  8
____1
370
              18
390
0
  6
Continuous
 62
               5
100
AcDbLine
 10
700.58084291187765
 20
-125.60737547892694
 30
0.0
 11
975.58084291187765
 21
-125.60737547892694
 31
0.0
  0
MTEXT
  5
69
100
AcDbEntity
  8
____1
370
               5
390
0
  6
Continuous
 62
               7
100
AcDbMText
 10
915.85448099715063
 20
-279.68552148347959
 30
0.0
 40
4.2333331108093262
 41
50.0
 71
               1
 72
               1
  1
本体ビス：＋ 3.1x13\P受板ビス：2.4x13
  7
Style1
 73
               1
 44
1.0
  0
CIRCLE
  5
6A
100
AcDbEntity
  8
____1
370
              18
390
0
  6
Continuous
 62
               5
100
AcDbCircle
 10
939.04382045457476
 20
-281.80435728833555
 30
0.0
 40
2.2500000000000706
  0
MTEXT
  5
6B
100
AcDbEntity
  8
____1
370
               5
390
0
  6
Continuous
 62
               7
100
AcDbMText
 10
941.4146436480072
 20
-292.12141677465962
 30
0.0
 40
4.2333331108093262
 41
14.5
 71
               1
 72
               1
  1
２５Ｓ
  7
Style1
 73
               1
 44
1.0
  0
MTEXT
  5
6C
100
AcDbEntity
  8
____1
370
               5
390
0
  6
Continuous
 62
               7
100
AcDbMText
 10
855.85448099715063
 20
-283.91885459428892
 30
0.0
 40
4.2333331108093262
 41
55.0
 71
               1
 72
               1
  1
色：白・茶
  7
Style1
 73
               1
 44
1.0
  0
MTEXT
  5
6D
100
AcDbEntity
  8
____1
370
               5
390
0
  6
Continuous
 62
               7
100
AcDbMText
 10
930.44566396754612
 20
-299.32373035016246
 30
0.0
 40
3.5277776718139648
 41
43.655084411985797
 71
               1
 72
               1
  1
ねじ止め式\Pマグネットチャッチ(丸型 )
  7
Style1
 73
               1
 44
1.0
  0
DIMENSION
  5
7D
100
AcDbEntity
  8
寸法線_1
370
               5
390
0
  6
Continuous
 62
               7
100
AcDbDimension
  2
*D2
 10
803.60448099715063
 20
-180.20559983946117
 30
0.0
 11
803.60448099715063
 21
-177.70559983946117
 31
0.0
 71
               5
 72
               1
 41
1.0
 42
0.0
  3
DS1
100
AcDbAlignedDimension
 13
793.60448099715063
 23
-175.20559983946117
 33
0.0
 14
793.60448099715063
 24
-180.20559983946117
 34
0.0
 50
90.0
100
AcDbRotatedDimension
  0
DIMENSION
  5
8A
100
AcDbEntity
  8
寸法線_1
370
               5
390
0
  6
Continuous
 62
               7
100
AcDbDimension
  2
*D3
 10
793.60448099715063
 20
-158.01097307989789
 30
0.0
 11
781.60448099715063
 21
-158.01097307989789
 31
0.0
 71
               5
 72
               1
 41
1.0
 42
0.0
  3
DS1
100
AcDbAlignedDimension
 13
769.60448099715063
 23
-174.95559983946117
 33
0.0
 14
793.60448099715063
 24
-174.20559983946117
 34
0.0
100
AcDbRotatedDimension
  0
DIMENSION
  5
92
100
AcDbEntity
  8
寸法線_1
370
               5
390
0
  6
Continuous
 62
               7
100
AcDbDimension
  2
*D4
 10
770.84191786422707
 20
-178.94303670653764
 30
0.0
 11
765.50718537877719
 21
-165.41935868924261
 31
0.0
 70
             131
 71
               5
 72
               1
 41
1.0
 42
0.0
  3
DS1
100
AcDbDiametricDimension
 15
768.36704413007419
 25
-176.4681629723847
 35
0.0
 40
0.0
  0
LINE
  5
93
100
AcDbEntity
  8
____1
370
              18
390
0
  6
Continuous
 62
               5
100
AcDbLine
 10
914.88051524498269
 20
-311.91923710541664
 30
0.0
 11
914.88051524498269
 21
-313.3592371054167
 31
0.0
  0
LINE
  5
94
100
AcDbEntity
  8
____1
370
              18
390
0
  6
Continuous
 62
               5
100
AcDbLine
 10
905.90652912635574
 20
-312.87923710541668
 30
0.0
 11
905.90652912635574
 21
-314.07923710541667
 31
0.0
  0
LINE
  5
95
100
AcDbEntity
  8
____1
370
              18
390
0
  6
Continuous
 62
               5
100
AcDbLine
 10
889.778044277871
 20
-311.27923710541666
 30
0.0
 11
889.65716122862852
 21
-311.27923710541666
 31
0.0
  0
LINE
  5
96
100
AcDbEntity
  8
____1
370
              18
390
0
  6
Continuous
 62
               5
100
AcDbLine
 10
889.778044277871
 20
-312.87923710541668
 30
0.0
 11
889.778044277871
 21
-314.07923710541667
 31
0.0
  0
LINE
  5
97
100
AcDbEntity
  8
____1
370
              18
390
0
  6
Continuous
 62
               5
100
AcDbLine
 10
912.5438374435123
 20
-311.91923710541664
 30
0.0
 11
912.35966799314485
 21
-311.27923710541666
 31
0.0
  0
LINE
  5
98
100
AcDbEntity
  8
____1
370
              18
390
0
  6
Continuous
 62
               5
100
AcDbLine
 10
911.04051524498266
 20
-314.47923710541664
 30
0.0
 11
910.71198191164933
 21
-313.3592371054167
 31
0.0
  0
LINE
  5
99
100
AcDbEntity
  8
____1
370
              18
390
0
  6
Continuous
 62
               5
100
AcDbLine
 10
892.17804427787109
 20
-312.87923710541668
 30
0.0
 11
889.778044277871
 21
-312.87923710541668
 31
0.0
  0
LINE
  5
9A
100
AcDbEntity
  8
____1
370
              18
390
0
  6
Continuous
 62
               5
100
AcDbLine
 10
898.7065291263558
 20
-309.91923710541664
 30
0.0
 11
902.7065291263558
 21
-309.91923710541664
 31
0.0
  0
LINE
  5
9B
100
AcDbEntity
  8
____1
370
              18
390
0
  6
Continuous
 62
               5
100
AcDbLine
 10
914.88051524498269
 20
-309.83923710541671
 30
0.0
 11
914.88051524498269
 21
-311.27923710541666
 31
0.0
  0
LINE
  5
9C
100
AcDbEntity
  8
____1
370
              18
390
0
  6
Continuous
 62
               5
100
AcDbLine
 10
907.68051524498264
 20
-311.27923710541666
 30
0.0
 11
910.10184857831587
 21
-311.27923710541666
 31
0.0
  0
LINE
  5
9D
100
AcDbEntity
  8
____1
370
              18
390
0
  6
Continuous
 62
               5
100
AcDbLine
 10
907.68051524498264
 20
-311.91923710541664
 30
0.0
 11
907.68051524498264
 21
-313.3592371054167
 31
0.0
  0
LINE
  5
9E
100
AcDbEntity
  8
____1
370
              18
390
0
  6
Continuous
 62
               5
100
AcDbLine
 10
891.778044277871
 20
-312.47923710541664
 30
0.0
 11
891.778044277871
 21
-311.27923710541666
 31
0.0
  0
LINE
  5
9F
100
AcDbEntity
  8
____1
370
              18
390
0
  6
Continuous
 62
               5
100
AcDbLine
 10
912.95821870683949
 20
-313.3592371054167
 30
0.0
 11
914.88051524498269
 21
-313.3592371054167
 31
0.0
  0
LINE
  5
A0
100
AcDbEntity
  8
____1
370
              18
390
0
  6
Continuous
 62
               5
100
AcDbLine
 10
896.57804427787107
 20
-308.47923710541664
 30
0.0
 11
893.37804427787103
 21
-308.47923710541664
 31
0.0
  0
LINE
  5
A1
100
AcDbEntity
  8
____1
370
              18
390
0
  6
Continuous
 62
               5
100
AcDbLine
 10
898.7065291263558
 20
-308.47923710541664
 30
0.0
 11
898.7065291263558
 21
-309.91923710541664
 31
0.0
  0
ARC
  5
A2
100
AcDbEntity
  8
____1
370
              18
390
0
  6
Continuous
 62
               5
100
AcDbCircle
 10
892.97804427787105
 20
-311.67923710541663
 30
0.0
 40
2.3999999999999773
210
0.0
220
0.0
230
1.0
100
AcDbArc
 50
-90.0
 51
0.0
  0
LINE
  5
A3
100
AcDbEntity
  8
____1
370
              18
390
0
  6
Continuous
 62
               5
100
AcDbLine
 10
911.82817132963874
 20
-309.43225399304293
 30
0.0
 11
912.4805152449826
 21
-308.47923710541664
 31
0.0
  0
LINE
  5
A4
100
AcDbEntity
  8
____1
370
               5
390
0
  6
Continuous
 62
               7
100
AcDbLine
 10
903.58084291187765
 20
-294.35737547892694
 30
0.0
 11
919.58084291187765
 21
-294.35737547892694
 31
0.0
  0
LINE
  5
A5
100
AcDbEntity
  8
____1
370
               5
390
0
  6
Continuous
 62
               7
100
AcDbLine
 10
919.58084291187765
 20
-298.60737547892694
 30
0.0
 11
975.58084291187765
 21
-298.60737547892694
 31
0.0
  0
LINE
  5
A6
100
AcDbEntity
  8
____1
370
               5
390
0
  6
Continuous
 62
               7
100
AcDbLine
 10
855.58084291187765
 20
-298.60737547892694
 30
0.0
 11
903.58084291187765
 21
-298.60737547892694
 31
0.0
  0
MTEXT
  5
A7
100
AcDbEntity
  8
____1
370
               5
390
0
  6
Continuous
 62
               7
100
AcDbMText
 10
904.04622872315463
 20
-290.81290888628376
 30
0.0
 40
2.75
 41
15.0
 71
               1
 72
               1
  1
　検 　印
  7
Style1
 73
               1
 44
1.0
  0
MTEXT
  5
A8
100
AcDbEntity
  8
____1
370
               5
390
0
  6
Continuous
 62
               7
100
AcDbMText
 10
888.04622872315463
 20
-299.31290888628376
 30
0.0
 40
2.75
 41
15.0
 71
               1
 72
               1
  1
　尺 　度
  7
Style1
 73
               1
 44
1.0
  0
MTEXT
  5
A9
100
AcDbEntity
  8
____1
370
               5
390
0
  6
Continuous
 62
               7
100
AcDbMText
 10
888.04622872315463
 20
-290.81290888628376
 30
0.0
 40
2.75
 41
15.0
 71
               1
 72
               1
  1
　板 　厚
  7
Style1
 73
               1
 44
1.0
  0
MTEXT
  5
AA
100
AcDbEntity
  8
____1
370
               5
390
0
  6
Continuous
 62
               7
100
AcDbMText
 10
872.04622872315463
 20
-290.81290888628376
 30
0.0
 40
2.75
 41
15.0
 71
               1
 72
               1
  1
　材 　質
  7
Style1
 73
               1
 44
1.0
  0
MTEXT
  5
AB
100
AcDbEntity
  8
____1
370
              18
390
0
  6
Continuous
 62
               5
100
AcDbMText
 10
887.58084291187765
 20
-303.56290888628376
 30
0.0
 40
2.75
 41
16.0
 71
               1
 72
               1
  1
1：1
  7
Style1
 73
               1
 44
1.0
  0
LINE
  5
AC
100
AcDbEntity
  8
____1
370
              18
390
0
  6
Continuous
 62
               5
100
AcDbLine
 10
904.19670460802593
 20
-312.35854207259558
 30
0.0
 11
904.05422296019208
 21
-312.49804458794711
 31
0.0
  0
ARC
  5
AD
100
AcDbEntity
  8
____1
370
              18
390
0
  6
Continuous
 62
               5
100
AcDbCircle
 10
899.66652912635584
 20
-309.83923710541671
 30
0.0
 40
3.039999999999933
210
0.0
220
0.0
230
1.0
100
AcDbArc
 50
-90.0
 51
-61.914095184792096
  0
LINE
  5
AE
100
AcDbEntity
  8
____1
370
              18
390
0
  6
Continuous
 62
               5
100
AcDbLine
 10
898.7065291263558
 20
-312.87923710541668
 30
0.0
 11
898.7065291263558
 21
-314.07923710541667
 31
0.0
  0
LINE
  5
AF
100
AcDbEntity
  8
____1
370
              18
390
0
  6
Continuous
 62
               5
100
AcDbLine
 10
898.7065291263558
 20
-312.87923710541668
 30
0.0
 11
899.66652912635584
 21
-312.87923710541668
 31
0.0
  0
LINE
  5
B0
100
AcDbEntity
  8
____1
370
              18
390
0
  6
Continuous
 62
               5
100
AcDbLine
 10
909.28051524498255
 20
-308.47923710541664
 30
0.0
 11
912.4805152449826
 21
-308.47923710541664
 31
0.0
  0
LINE
  5
B1
100
AcDbEntity
  8
____1
370
              18
390
0
  6
Continuous
 62
               5
100
AcDbLine
 10
905.10652912635578
 20
-309.67923710541663
 30
0.0
 11
905.90652912635574
 21
-308.47923710541664
 31
0.0
  0
LINE
  5
B2
100
AcDbEntity
  8
____1
370
              18
390
0
  6
Continuous
 62
               5
100
AcDbLine
 10
889.778044277871
 20
-314.07923710541667
 30
0.0
 11
892.97804427787105
 21
-314.07923710541667
 31
0.0
  0
LINE
  5
B3
100
AcDbEntity
  8
____1
370
              18
390
0
  6
Continuous
 62
               5
100
AcDbLine
 10
898.7065291263558
 20
-314.07923710541667
 30
0.0
 11
900.70652912635592
 21
-314.07923710541667
 31
0.0
  0
ARC
  5
B4
100
AcDbEntity
  8
____1
370
              18
390
0
  6
Continuous
 62
               5
100
AcDbCircle
 10
899.66652912635584
 20
-309.83923710541671
 30
0.0
 40
3.0399999999998646
210
0.0
220
0.0
230
1.0
100
AcDbArc
 50
-28.600718616740252
 51
-1.5079577542375149
  0
LINE
  5
B5
100
AcDbEntity
  8
____1
370
              18
390
0
  6
Continuous
 62
               5
100
AcDbLine
 10
895.37804427787103
 20
-311.27923710541666
 30
0.0
 11
896.57804427787107
 21
-311.27923710541666
 31
0.0
  0
ARC
  5
B6
100
AcDbEntity
  8
____1
370
              18
390
0
  6
Continuous
 62
               5
100
AcDbCircle
 10
900.7065291263558
 20
-309.67923710541663
 30
0.0
 40
4.4000000000000465
210
0.0
220
0.0
230
1.0
100
AcDbArc
 50
-90.0
 51
-57.455041145955242
  0
LINE
  5
B7
100
AcDbEntity
  8
____1
370
              18
390
0
  6
Continuous
 62
               5
100
AcDbLine
 10
888.85716122862846
 20
-311.27923710541666
 30
0.0
 11
889.65716122862852
 21
-311.27923710541666
 31
0.0
  0
LINE
  5
B8
100
AcDbEntity
  8
____1
370
              18
390
0
  6
Continuous
 62
               5
100
AcDbLine
 10
907.68051524498264
 20
-311.91923710541664
 30
0.0
 11
910.28958191164929
 21
-311.91923710541664
 31
0.0
  0
LINE
  5
B9
100
AcDbEntity
  8
____1
370
              18
390
0
  6
Continuous
 62
               5
100
AcDbLine
 10
896.57804427787107
 20
-310.07923710541667
 30
0.0
 11
895.37804427787103
 21
-310.07923710541667
 31
0.0
  0
LINE
  5
BA
100
AcDbEntity
  8
____1
370
              18
390
0
  6
Continuous
 62
               5
100
AcDbLine
 10
895.37804427787103
 20
-310.07923710541667
 30
0.0
 11
895.37804427787103
 21
-309.67923710541663
 31
0.0
  0
LINE
  5
BB
100
AcDbEntity
  8
____1
370
              18
390
0
  6
Continuous
 62
               5
100
AcDbLine
 10
907.68051524498264
 20
-309.83923710541671
 30
0.0
 11
909.67944857831594
 21
-309.83923710541671
 31
0.0
  0
LINE
  5
BC
100
AcDbEntity
  8
____1
370
              18
390
0
  6
Continuous
 62
               5
100
AcDbLine
 10
893.37804427787103
 20
-311.27923710541666
 30
0.0
 11
893.37804427787103
 21
-311.67923710541663
 31
0.0
  0
LINE
  5
BD
100
AcDbEntity
  8
____1
370
              18
390
0
  6
Continuous
 62
               5
100
AcDbLine
 10
901.90652912635574
 20
-310.3369253194017
 30
0.0
 11
901.45398078639641
 21
-310.78947365936114
 31
0.0
  0
LINE
  5
BE
100
AcDbEntity
  8
____1
370
              18
390
0
  6
Continuous
 62
               5
100
AcDbLine
 10
898.7065291263558
 20
-310.59461353338679
 30
0.0
 11
898.7065291263558
 21
-310.3369253194017
 31
0.0
  0
LINE
  5
BF
100
AcDbEntity
  8
____1
370
              18
390
0
  6
Continuous
 62
               5
100
AcDbLine
 10
888.85716122862846
 20
-310.07923710541667
 30
0.0
 11
888.85716122862846
 21
-311.27923710541666
 31
0.0
  0
LINE
  5
C0
100
AcDbEntity
  8
____1
370
              18
390
0
  6
Continuous
 62
               5
100
AcDbLine
 10
896.57804427787107
 20
-310.07923710541667
 30
0.0
 11
896.57804427787107
 21
-311.27923710541666
 31
0.0
  0
LINE
  5
C1
100
AcDbEntity
  8
____1
370
              18
390
0
  6
Continuous
 62
               5
100
AcDbLine
 10
911.04051524498266
 20
-314.47923710541664
 30
0.0
 11
913.28051524498255
 21
-314.47923710541664
 31
0.0
  0
LINE
  5
C2
100
AcDbEntity
  8
____1
370
              18
390
0
  6
Continuous
 62
               5
100
AcDbLine
 10
891.778044277871
 20
-310.07923710541667
 30
0.0
 11
891.778044277871
 21
-309.67923710541663
 31
0.0
  0
LINE
  5
C3
100
AcDbEntity
  8
____1
370
              18
390
0
  6
Continuous
 62
               5
100
AcDbLine
 10
898.7065291263558
 20
-314.07923710541667
 30
0.0
 11
898.7065291263558
 21
-312.87923710541668
 31
0.0
  0
LINE
  5
C4
100
AcDbEntity
  8
____1
370
              18
390
0
  6
Continuous
 62
               5
100
AcDbLine
 10
889.778044277871
 20
-310.07923710541667
 30
0.0
 11
888.85716122862846
 21
-310.07923710541667
 31
0.0
  0
LINE
  5
C5
100
AcDbEntity
  8
____1
370
              18
390
0
  6
Continuous
 62
               5
100
AcDbLine
 10
889.778044277871
 20
-312.47923710541664
 30
0.0
 11
891.778044277871
 21
-312.47923710541664
 31
0.0
  0
LINE
  5
C6
100
AcDbEntity
  8
____1
370
              18
390
0
  6
Continuous
 62
               5
100
AcDbLine
 10
895.37804427787103
 20
-309.67923710541663
 30
0.0
 11
896.57804427787107
 21
-308.47923710541664
 31
0.0
  0
LINE
  5
C7
100
AcDbEntity
  8
____1
370
              18
390
0
  6
Continuous
 62
               5
100
AcDbLine
 10
910.28958191164929
 20
-311.91923710541664
 30
0.0
 11
910.10184857831587
 21
-311.27923710541666
 31
0.0
  0
LINE
  5
C8
100
AcDbEntity
  8
____1
370
              18
390
0
  6
Continuous
 62
               5
100
AcDbLine
 10
905.10652912635578
 20
-309.67923710541663
 30
0.0
 11
905.90652912635574
 21
-308.47923710541664
 31
0.0
  0
LINE
  5
C9
100
AcDbEntity
  8
____1
370
              18
390
0
  6
Continuous
 62
               5
100
AcDbLine
 10
912.35966799314485
 20
-311.27923710541666
 30
0.0
 11
914.88051524498269
 21
-311.27923710541666
 31
0.0
  0
LINE
  5
CA
100
AcDbEntity
  8
____1
370
              18
390
0
  6
Continuous
 62
               5
100
AcDbLine
 10
893.37804427787103
 20
-308.47923710541664
 30
0.0
 11
893.37804427787103
 21
-310.07923710541667
 31
0.0
  0
ARC
  5
CB
100
AcDbEntity
  8
____1
370
              18
390
0
  6
Continuous
 62
               5
100
AcDbCircle
 10
892.17804427787109
 20
-311.67923710541663
 30
0.0
 40
1.1999999999999318
210
0.0
220
0.0
230
0.9999999999999999
100
AcDbArc
 50
-90.0
 51
0.0
  0
LINE
  5
CC
100
AcDbEntity
  8
____1
370
              18
390
0
  6
Continuous
 62
               5
100
AcDbLine
 10
902.3355791197049
 20
-311.29449382950463
 30
0.0
 11
902.14310247465164
 21
-311.50708451794776
 31
0.0
  0
LINE
  5
CD
100
AcDbEntity
  8
____1
370
              18
390
0
  6
Continuous
 62
               5
100
AcDbLine
 10
898.7065291263558
 20
-310.3369253194017
 30
0.0
 11
901.90652912635574
 21
-310.3369253194017
 31
0.0
  0
LINE
  5
CE
100
AcDbEntity
  8
____1
370
              18
390
0
  6
Continuous
 62
               5
100
AcDbLine
 10
895.37804427787103
 20
-311.67923710541663
 30
0.0
 11
895.37804427787103
 21
-311.27923710541666
 31
0.0
  0
LINE
  5
CF
100
AcDbEntity
  8
____1
370
              18
390
0
  6
Continuous
 62
               5
100
AcDbLine
 10
907.68051524498264
 20
-309.83923710541671
 30
0.0
 11
907.68051524498264
 21
-311.27923710541666
 31
0.0
  0
LINE
  5
D0
100
AcDbEntity
  8
____1
370
               5
390
0
  6
Continuous
 62
               7
100
AcDbLine
 10
903.58084291187765
 20
-290.10737547892694
 30
0.0
 11
903.58084291187765
 21
-307.10737547892694
 31
0.0
  0
LINE
  5
D1
100
AcDbEntity
  8
____1
370
               5
390
0
  6
Continuous
 62
               7
100
AcDbLine
 10
871.58084291187765
 20
-290.10737547892694
 30
0.0
 11
871.58084291187765
 21
-298.60737547892694
 31
0.0
  0
LINE
  5
D2
100
AcDbEntity
  8
____1
370
               5
390
0
  6
Continuous
 62
               7
100
AcDbLine
 10
855.58084291187765
 20
-307.10737547892694
 30
0.0
 11
975.58084291187765
 21
-307.10737547892694
 31
0.0
  0
LINE
  5
D3
100
AcDbEntity
  8
____1
370
               5
390
0
  6
Continuous
 62
               7
100
AcDbLine
 10
855.58084291187765
 20
-290.10737547892694
 30
0.0
 11
975.58084291187765
 21
-290.10737547892694
 31
0.0
  0
LINE
  5
D4
100
AcDbEntity
  8
____1
370
               5
390
0
  6
Continuous
 62
               7
100
AcDbLine
 10
919.58084291187765
 20
-290.10737547892694
 30
0.0
 11
919.58084291187765
 21
-315.60737547892694
 31
0.0
  0
LINE
  5
D5
100
AcDbEntity
  8
____1
370
               5
390
0
  6
Continuous
 62
               7
100
AcDbLine
 10
855.58084291187765
 20
-290.10737547892694
 30
0.0
 11
855.58084291187765
 21
-315.60737547892694
 31
0.0
  0
LINE
  5
D6
100
AcDbEntity
  8
____1
370
              18
390
0
  6
Continuous
 62
               5
100
AcDbLine
 10
893.37804427787103
 20
-310.07923710541667
 30
0.0
 11
891.778044277871
 21
-310.07923710541667
 31
0.0
  0
LINE
  5
D7
100
AcDbEntity
  8
____1
370
              18
390
0
  6
Continuous
 62
               5
100
AcDbLine
 10
892.97804427787105
 20
-308.47923710541664
 30
0.0
 11
889.778044277871
 21
-308.47923710541664
 31
0.0
  0
LINE
  5
D8
100
AcDbEntity
  8
____1
370
              18
390
0
  6
Continuous
 62
               5
100
AcDbLine
 10
891.778044277871
 20
-309.67923710541663
 30
0.0
 11
892.97804427787105
 21
-308.47923710541664
 31
0.0
  0
LINE
  5
D9
100
AcDbEntity
  8
____1
370
              18
390
0
  6
Continuous
 62
               5
100
AcDbLine
 10
889.778044277871
 20
-308.47923710541664
 30
0.0
 11
889.778044277871
 21
-310.07923710541667
 31
0.0
  0
LINE
  5
DA
100
AcDbEntity
  8
____1
370
              18
390
0
  6
Continuous
 62
               5
100
AcDbLine
 10
909.67944857831594
 20
-309.83923710541666
 30
0.0
 11
909.28051524498255
 21
-308.47923710541664
 31
0.0
  0
LINE
  5
DB
100
AcDbEntity
  8
____1
370
              18
390
0
  6
Continuous
 62
               5
100
AcDbLine
 10
911.94528672981801
 20
-309.83923710541671
 30
0.0
 11
914.88051524498269
 21
-309.83923710541671
 31
0.0
  0
MTEXT
  5
DC
100
AcDbEntity
  8
____1
370
               5
390
0
  6
Continuous
 62
               7
100
AcDbMText
 10
862.80139663666046
 20
-308.80070881226027
 30
0.0
 40
5.0799999237060547
 41
24.996311053240746
 71
               1
 72
               1
  1
株式会社
  7
Style1
 73
               1
 44
1.0
  0
LINE
  5
DD
100
AcDbEntity
  8
____1
370
              18
390
0
  6
Continuous
 62
               5
100
AcDbLine
 10
889.778044277871
 20
-311.27923710541666
 30
0.0
 11
889.778044277871
 21
-312.47923710541664
 31
0.0
  0
LINE
  5
DE
100
AcDbEntity
  8
____1
370
              18
390
0
  6
Continuous
 62
               5
100
AcDbLine
 10
773.60448099715063
 20
-182.70559983946126
 30
0.0
 11
773.60448099715063
 21
-172.70559983946117
 31
0.0
  0
LINE
  5
DF
100
AcDbEntity
  8
____1
370
              18
390
0
  6
Continuous
 62
               5
100
AcDbLine
 10
777.60448099715063
 20
-186.20559983946117
 30
0.0
 11
779.90448099715059
 21
-186.20559983946117
 31
0.0
  0
ARC
  5
E0
100
AcDbEntity
  8
____1
370
              18
390
0
  6
Continuous
 62
               5
100
AcDbCircle
 10
793.60448099715052
 20
-177.78893317279449
 30
0.0
 40
2.4166666666666172
100
AcDbArc
 50
-136.3971810272937
 51
-43.602818972702579
  0
ARC
  5
E1
100
AcDbEntity
  8
____1
370
              18
390
0
  6
Continuous
 62
               5
100
AcDbCircle
 10
793.60448099715063
 20
-177.62226650612774
 30
0.0
 40
2.4166666666666012
210
0.0
220
0.0
230
1.0
100
AcDbArc
 50
43.602818972701996
 51
136.39718102729799
  0
LINE
  5
E2
100
AcDbEntity
  8
____1
370
               5
390
0
  6
CENTER2
 62
               3
100
AcDbLine
 10
766.85448099715063
 20
-177.70559983946117
 30
0.0
 11
772.35448099715063
 21
-177.70559983946117
 31
0.0
  0
LINE
  5
E3
100
AcDbEntity
  8
____1
370
               5
390
0
  6
CENTER2
 62
               3
100
AcDbLine
 10
769.60448099715063
 20
-174.95559983946117
 30
0.0
 11
769.60448099715063
 21
-180.45559983946117
 31
0.0
  0
LINE
  5
E4
100
AcDbEntity
  8
____1
370
               5
390
0
  6
CENTER2
 62
               3
100
AcDbLine
 10
790.85448099715063
 20
-177.70559983946117
 30
0.0
 11
796.35448099715063
 21
-177.70559983946117
 31
0.0
  0
LINE
  5
E5
100
AcDbEntity
  8
____1
370
               5
390
0
  6
CENTER2
 62
               3
100
AcDbLine
 10
793.60448099715063
 20
-174.20559983946117
 30
0.0
 11
793.60448099715063
 21
-181.20559983946117
 31
0.0
  0
LINE
  5
E6
100
AcDbEntity
  8
____1
370
               5
390
0
  6
CENTER2
 62
               3
100
AcDbLine
 10
781.60448099715063
 20
-167.20559983946117
 30
0.0
 11
781.60448099715063
 21
-189.2055998394612
 31
0.0
  0
LINE
  5
E7
100
AcDbEntity
  8
____1
370
              18
390
0
  6
Continuous
 62
               5
100
AcDbLine
 10
765.60448099715063
 20
-184.7055998394612
 30
0.0
 11
765.60448099715063
 21
-174.20559983946117
 31
0.0
  0
ARC
  5
E8
100
AcDbEntity
  8
____1
370
              18
390
0
  6
Continuous
 62
               5
100
AcDbCircle
 10
767.10448099715063
 20
-174.20559983946117
 30
0.0
 40
1.5
100
AcDbArc
 50
90.0
 51
180.0
  0
LINE
  5
E9
100
AcDbEntity
  8
____1
370
              18
390
0
  6
Continuous
 62
               5
100
AcDbLine
 10
767.10448099715063
 20
-172.70559983946117
 30
0.0
 11
796.10448099715063
 21
-172.70559983946117
 31
0.0
  0
LINE
  5
EA
100
AcDbEntity
  8
____1
370
              18
390
0
  6
Continuous
 62
               5
100
AcDbLine
 10
797.60448099715063
 20
-184.7055998394612
 30
0.0
 11
797.60448099715063
 21
-174.20559983946117
 31
0.0
  0
ARC
  5
EB
100
AcDbEntity
  8
____1
370
              18
390
0
  6
Continuous
 62
               5
100
AcDbCircle
 10
796.10448099715063
 20
-174.20559983946117
 30
0.0
 40
1.5
210
0.0
220
0.0
230
1.0
100
AcDbArc
 50
0.0
 51
90.0
  0
SPLINE
  5
EC
100
AcDbEntity
  8
____1
370
              18
390
0
  6
Continuous
 62
               5
100
AcDbSpline
210
0.0
220
0.0
230
1.0
 70
               0
 71
               3
 72
               8
 73
               4
 74
               0
 42
0.0000001
 43
0.0000001
 12
0.9618578240638687
 22
-0.2735498606965832
 32
0.0
 13
0.9860364361538031
 23
-0.1665297167988561
 33
0.0
 40
0.0
 40
0.0
 40
0.0
 40
0.0
 40
1.0
 40
1.0
 40
1.0
 40
1.0
 10
904.05422296019208
 20
-312.49804458794711
 30
0.0
 10
904.6460383630158
 20
-312.66635534755244
 30
0.0
 10
905.27628374468566
 20
-312.77279622648456
 30
0.0
 10
905.90652912635574
 20
-312.87923710541668
 30
0.0
  0
SPLINE
  5
ED
100
AcDbEntity
  8
____1
370
              18
390
0
  6
Continuous
 62
               5
100
AcDbSpline
210
0.0
220
0.0
230
1.0
 70
               0
 71
               3
 72
               9
 73
               5
 74
               0
 42
0.0000001
 43
0.0000001
 12
0.7352773642103068
 22
-0.6777663297036403
 32
0.0
 13
0.8572557179984813
 23
-0.5148908951990783
 33
0.0
 40
0.0
 40
0.0
 40
0.0
 40
0.0
 40
0.9999999993702069
 40
1.0
 40
1.0
 40
1.0
 40
1.0
 10
898.7065291263558
 20
-310.59461353338679
 30
0.0
 10
899.47021280904937
 20
-311.29856433055261
 30
0.0
 10
900.23389649222395
 20
-312.00251512816169
 30
0.0
 10
901.09774549347424
 20
-312.52125494971074
 30
0.0
 10
901.09774549401823
 20
-312.52125495003747
 30
0.0
  0
SPLINE
  5
EE
100
AcDbEntity
  8
____1
370
              18
390
0
  6
Continuous
 62
               5
100
AcDbSpline
210
0.0
220
0.0
230
1.0
 70
               0
 71
               3
 72
               8
 73
               4
 74
               0
 42
0.0000001
 43
0.0000001
 12
0.9524773181045301
 22
-0.3046095180660017
 32
0.0
 13
0.9790669434801577
 23
-0.2035384980401049
 33
0.0
 40
0.0
 40
0.0
 40
0.0
 40
0.0
 40
1.0
 40
1.0
 40
1.0
 40
1.0
 10
903.0735585616361
 20
-313.38830324833145
 30
0.0
 10
903.98482759055571
 20
-313.67973404090935
 30
0.0
 10
904.94567835845578
 20
-313.87948557316304
 30
0.0
 10
905.90652912635574
 20
-314.07923710541667
 30
0.0
  0
SPLINE
  5
EF
100
AcDbEntity
  8
____1
370
              18
390
0
  6
Continuous
 62
               5
100
AcDbSpline
210
0.0
220
0.0
230
1.0
 70
               0
 71
               3
 72
               8
 73
               4
 74
               0
 42
0.0000001
 43
0.0000001
 12
0.6676726695720007
 22
-0.744454972652207
 32
0.0
 13
0.7413159697197984
 23
-0.6711561912389654
 33
0.0
 40
0.0
 40
0.0
 40
0.0
 40
0.0
 40
1.0
 40
1.0
 40
1.0
 40
1.0
 10
901.45398078639641
 20
-310.78947365936114
 30
0.0
 10
901.67747872824748
 20
-311.0386738464756
 30
0.0
 10
901.90097667009866
 20
-311.28787403359001
 30
0.0
 10
902.14310247465164
 20
-311.50708451794782
 30
0.0
  0
LINE
  5
F0
100
AcDbEntity
  8
____1
370
              18
390
0
  6
Continuous
 62
               5
100
AcDbLine
 10
891.778044277871
 20
-311.27923710541666
 30
0.0
 11
893.37804427787103
 21
-311.27923710541666
 31
0.0
  0
LINE
  5
F1
100
AcDbEntity
  8
____1
370
              18
390
0
  6
Continuous
 62
               5
100
AcDbLine
 10
913.28051524498255
 20
-314.47923710541664
 30
0.0
 11
912.95821870683949
 21
-313.3592371054167
 31
0.0
  0
LINE
  5
F2
100
AcDbEntity
  8
____1
370
              18
390
0
  6
Continuous
 62
               5
100
AcDbLine
 10
912.5438374435123
 20
-311.91923710541664
 30
0.0
 11
914.88051524498269
 21
-311.91923710541664
 31
0.0
  0
ARC
  5
F3
100
AcDbEntity
  8
____1
370
              18
390
0
  6
Continuous
 62
               5
100
AcDbCircle
 10
900.7065291263558
 20
-309.67923710541663
 30
0.0
 40
4.3999999999999773
210
0.0
220
0.0
230
1.0
100
AcDbArc
 50
-37.512388020300733
 51
0.0
  0
LINE
  5
F4
100
AcDbEntity
  8
____1
370
              18
390
0
  6
Continuous
 62
               5
100
AcDbLine
 10
907.68051524498264
 20
-313.3592371054167
 30
0.0
 11
910.71198191164933
 21
-313.3592371054167
 31
0.0
  0
LINE
  5
F5
100
AcDbEntity
  8
____1
370
              18
390
0
  6
Continuous
 62
               5
100
AcDbLine
 10
911.94528672981801
 20
-309.83923710541666
 30
0.0
 11
911.82817132963874
 21
-309.43225399304293
 31
0.0
  0
LINE
  5
F6
100
AcDbEntity
  8
____1
370
              18
390
0
  6
Continuous
 62
               5
100
AcDbLine
 10
905.90652912635574
 20
-308.47923710541664
 30
0.0
 11
898.7065291263558
 21
-308.47923710541664
 31
0.0
  0
LINE
  5
F7
100
AcDbEntity
  8
____1
370
              18
390
0
  6
Continuous
 62
               5
100
AcDbLine
 10
779.90448099715059
 20
-251.68305567364266
 30
0.0
 11
779.90448099715059
 21
-243.68305567364266
 31
0.0
  0
LINE
  5
F8
100
AcDbEntity
  8
____1
370
              18
390
0
  6
Continuous
 62
               5
100
AcDbLine
 10
785.60448099715063
 20
-251.68305567364266
 30
0.0
 11
785.60448099715063
 21
-243.68305567364266
 31
0.0
  0
LINE
  5
F9
100
AcDbEntity
  8
____1
370
              18
390
0
  6
Continuous
 62
               5
100
AcDbLine
 10
777.60448099715063
 20
-251.68305567364266
 30
0.0
 11
777.60448099715063
 21
-243.68305567364266
 31
0.0
  0
LINE
  5
FA
100
AcDbEntity
  8
____1
370
              18
390
0
  6
Continuous
 62
               5
100
AcDbLine
 10
775.50248099715066
 20
-182.70559983946126
 30
0.0
 11
765.60448099715063
 21
-182.70559983946126
 31
0.0
  0
LINE
  5
FB
100
AcDbEntity
  8
____1
370
              18
390
0
  6
Continuous
 62
               5
100
AcDbLine
 10
787.70648099715061
 20
-182.7055998394612
 30
0.0
 11
797.60448099715063
 21
-182.7055998394612
 31
0.0
  0
ARC
  5
FC
100
AcDbEntity
  8
____1
370
              18
390
0
  6
Continuous
 62
               5
100
AcDbCircle
 10
789.10448099715063
 20
-185.20559983946117
 30
0.0
 40
0.5
100
AcDbArc
 50
-90.0
 51
0.0
  0
LINE
  5
FD
100
AcDbEntity
  8
____1
370
              18
390
0
  6
Continuous
 62
               5
100
AcDbLine
 10
789.60448099715063
 20
-184.7055998394612
 30
0.0
 11
789.60448099715063
 21
-185.20559983946117
 31
0.0
  0
LINE
  5
FE
100
AcDbEntity
  8
____1
370
              18
390
0
  6
Continuous
 62
               5
100
AcDbLine
 10
774.10448099715063
 20
-185.70559983946117
 30
0.0
 11
789.10448099715063
 21
-185.70559983946117
 31
0.0
  0
ARC
  5
FF
100
AcDbEntity
  8
____1
370
              18
390
0
  6
Continuous
 62
               5
100
AcDbCircle
 10
774.10448099715063
 20
-185.20559983946117
 30
0.0
 40
0.5
100
AcDbArc
 50
180.0
 51
-90.0
  0
LINE
  5
100
100
AcDbEntity
  8
____1
370
              18
390
0
  6
Continuous
 62
               5
100
AcDbLine
 10
773.60448099715063
 20
-184.7055998394612
 30
0.0
 11
773.60448099715063
 21
-185.20559983946117
 31
0.0
  0
LINE
  5
101
100
AcDbEntity
  8
____1
370
              18
390
0
  6
Continuous
 62
               5
100
AcDbLine
 10
777.60448099715063
 20
-186.20559983946117
 30
0.0
 11
777.60448099715063
 21
-185.70559983946117
 31
0.0
  0
LINE
  5
102
100
AcDbEntity
  8
____1
370
              18
390
0
  6
Continuous
 62
               5
100
AcDbLine
 10
791.85448099715063
 20
-175.95559983946117
 30
0.0
 11
791.85448099715063
 21
-179.4555998394612
 31
0.0
  0
LINE
  5
103
100
AcDbEntity
  8
____1
370
              18
390
0
  6
Continuous
 62
               5
100
AcDbLine
 10
795.35448099715063
 20
-175.95559983946117
 30
0.0
 11
795.35448099715063
 21
-179.4555998394612
 31
0.0
  0
LINE
  5
104
100
AcDbEntity
  8
____1
370
              18
390
0
  6
Continuous
 62
               5
100
AcDbLine
 10
785.60448099715063
 20
-186.20559983946117
 30
0.0
 11
785.60448099715063
 21
-185.70559983946117
 31
0.0
  0
LINE
  5
105
100
AcDbEntity
  8
____1
370
              18
390
0
  6
Continuous
 62
               5
100
AcDbLine
 10
783.30448099715068
 20
-186.20559983946117
 30
0.0
 11
783.30448099715068
 21
-185.70559983946117
 31
0.0
  0
LINE
  5
106
100
AcDbEntity
  8
____1
370
              18
390
0
  6
Continuous
 62
               5
100
AcDbLine
 10
783.30448099715068
 20
-186.20559983946117
 30
0.0
 11
785.60448099715063
 21
-186.20559983946117
 31
0.0
  0
LINE
  5
107
100
AcDbEntity
  8
____1
370
              18
390
0
  6
Continuous
 62
               5
100
AcDbLine
 10
779.90448099715059
 20
-186.20559983946117
 30
0.0
 11
779.90448099715059
 21
-185.70559983946117
 31
0.0
  0
LINE
  5
108
100
AcDbEntity
  8
____1
370
              18
390
0
  6
Continuous
 62
               5
100
AcDbLine
 10
765.60448099715063
 20
-184.7055998394612
 30
0.0
 11
797.60448099715063
 21
-184.7055998394612
 31
0.0
  0
LINE
  5
109
100
AcDbEntity
  8
____1
370
              18
390
0
  6
Continuous
 62
               5
100
AcDbLine
 10
787.60448099715063
 20
-171.20559983946117
 30
0.0
 11
787.60448099715063
 21
-172.70559983946117
 31
0.0
  0
LINE
  5
10A
100
AcDbEntity
  8
____1
370
              18
390
0
  6
Continuous
 62
               5
100
AcDbLine
 10
786.10448099715063
 20
-170.20559983946117
 30
0.0
 11
787.60448099715063
 21
-171.20559983946117
 31
0.0
  0
LINE
  5
10B
100
AcDbEntity
  8
____1
370
              18
390
0
  6
Continuous
 62
               5
100
AcDbLine
 10
777.10448099715063
 20
-170.20559983946117
 30
0.0
 11
786.10448099715063
 21
-170.20559983946117
 31
0.0
  0
LINE
  5
10C
100
AcDbEntity
  8
____1
370
              18
390
0
  6
Continuous
 62
               5
100
AcDbLine
 10
775.60448099715063
 20
-171.20559983946117
 30
0.0
 11
775.60448099715063
 21
-172.70559983946117
 31
0.0
  0
CIRCLE
  5
10D
100
AcDbEntity
  8
____1
370
              18
390
0
  6
Continuous
 62
               5
100
AcDbCircle
 10
769.60448099715063
 20
-177.70559983946117
 30
0.0
 40
1.749999999999994
  0
LINE
  5
10E
100
AcDbEntity
  8
____1
370
              18
390
0
  6
Continuous
 62
               5
100
AcDbLine
 10
777.10448099715063
 20
-170.20559983946117
 30
0.0
 11
775.60448099715063
 21
-171.20559983946117
 31
0.0
  0
LINE
  5
10F
100
AcDbEntity
  8
____1
370
              18
390
0
  6
Continuous
 62
               5
100
AcDbLine
 10
789.60448099715063
 20
-182.7055998394612
 30
0.0
 11
789.60448099715063
 21
-172.70559983946117
 31
0.0
  0
LINE
  5
110
100
AcDbEntity
  8
____1
370
              18
390
0
  6
Continuous
 62
               5
100
AcDbLine
 10
873.0981202641799
 20
-243.18305567364266
 30
0.0
 11
872.0981202641799
 21
-241.68305567364266
 31
0.0
  0
LINE
  5
111
100
AcDbEntity
  8
____1
370
              18
390
0
  6
Continuous
 62
               5
100
AcDbLine
 10
870.5981202641799
 20
-241.68305567364266
 30
0.0
 11
872.0981202641799
 21
-241.68305567364266
 31
0.0
  0
LINE
  5
112
100
AcDbEntity
  8
____1
370
              18
390
0
  6
Continuous
 62
               5
100
AcDbLine
 10
858.5981202641799
 20
-239.68305567364266
 30
0.0
 11
858.5981202641799
 21
-256.68305567364263
 31
0.0
  0
LINE
  5
113
100
AcDbEntity
  8
____1
370
              18
390
0
  6
Continuous
 62
               5
100
AcDbLine
 10
858.5981202641799
 20
-256.68305567364263
 30
0.0
 11
870.5981202641799
 21
-256.68305567364263
 31
0.0
  0
LINE
  5
114
100
AcDbEntity
  8
____1
370
              18
390
0
  6
Continuous
 62
               5
100
AcDbLine
 10
857.0981202641799
 20
-251.68305567364266
 30
0.0
 11
857.5981202641799
 21
-251.68305567364266
 31
0.0
  0
LINE
  5
115
100
AcDbEntity
  8
____1
370
               5
390
0
  6
CENTER2
 62
               3
100
AcDbLine
 10
854.0981202641799
 20
-247.68305567364266
 30
0.0
 11
876.0981202641799
 21
-247.68305567364266
 31
0.0
  0
ARC
  5
116
100
AcDbEntity
  8
____1
370
              18
390
0
  6
Continuous
 62
               5
100
AcDbCircle
 10
858.0981202641799
 20
-255.18305567364266
 30
0.0
 40
0.5
100
AcDbArc
 50
180.0
 51
-90.0
  0
LINE
  5
117
100
AcDbEntity
  8
____1
370
              18
390
0
  6
Continuous
 62
               5
100
AcDbLine
 10
860.5981202641799
 20
-242.50905567364268
 30
0.0
 11
860.5981202641799
 21
-254.18305567364266
 31
0.0
  0
LINE
  5
118
100
AcDbEntity
  8
____1
370
              18
390
0
  6
Continuous
 62
               5
100
AcDbLine
 10
858.0981202641799
 20
-255.68305567364266
 30
0.0
 11
858.5981202641799
 21
-255.68305567364266
 31
0.0
  0
DIMENSION
  5
126
100
AcDbEntity
  8
寸法線_1
370
               5
390
0
  6
Continuous
 62
               7
100
AcDbDimension
  2
*D5
 10
857.5981202641799
 20
-229.68305567364266
 30
0.0
 11
849.55045057150869
 21
-229.68305567364266
 31
0.0
 71
               5
 72
               1
 41
1.0
 42
0.0
  3
DS1
100
AcDbAlignedDimension
 13
857.0981202641799
 23
-243.68305567364266
 33
0.0
 14
857.5981202641799
 24
-239.68305567364266
 34
0.0
100
AcDbRotatedDimension
  0
DIMENSION
  5
134
100
AcDbEntity
  8
寸法線_1
370
               5
390
0
  6
Continuous
 62
               7
100
AcDbDimension
  2
*D6
 10
873.0981202641799
 20
-229.68305567364266
 30
0.0
 11
865.3481202641799
 21
-229.68305567364266
 31
0.0
 71
               5
 72
               1
 41
1.0
 42
0.0
  3
DS1
100
AcDbAlignedDimension
 13
857.5981202641799
 23
-239.68305567364266
 33
0.0
 14
873.0981202641799
 24
-243.18305567364266
 34
0.0
100
AcDbRotatedDimension
  0
DIMENSION
  5
143
100
AcDbEntity
  8
寸法線_1
370
               5
390
0
  6
Continuous
 62
               7
100
AcDbDimension
  2
*D7
 10
807.60448099715063
 20
-256.68305567364263
 30
0.0
 11
807.60448099715063
 21
-248.18305567364266
 31
0.0
 71
               5
 72
               1
 41
1.0
 42
0.0
  3
DS1
100
AcDbAlignedDimension
 13
781.60448099715063
 23
-239.68305567364266
 33
0.0
 14
797.60448099715063
 24
-256.68305567364263
 34
0.0
 50
90.0
100
AcDbRotatedDimension
  0
DIMENSION
  5
14B
100
AcDbEntity
  8
寸法線_1
370
               5
390
0
  6
Continuous
 62
               7
100
AcDbDimension
  2
*D8
 10
775.94762674765821
 20
-253.33990992313502
 30
0.0
 11
805.00524889715575
 21
-233.80029886677724
 31
0.0
 70
             131
 71
               5
 72
               1
 41
1.0
 42
0.0
  3
DS1
100
AcDbDiametricDimension
 15
787.26133524664306
 25
-242.02620142415029
 35
0.0
 40
0.0
  0
DIMENSION
  5
158
100
AcDbEntity
  8
寸法線_1
370
               5
390
0
  6
Continuous
 62
               7
100
AcDbDimension
  2
*D9
 10
765.60448099715063
 20
-266.68305567364263
 30
0.0
 11
781.60448099715063
 21
-266.68305567364263
 31
0.0
 71
               5
 72
               1
 41
1.0
 42
0.0
  3
DS1
100
AcDbAlignedDimension
 13
797.60448099715063
 23
-256.68305567364263
 33
0.0
 14
765.60448099715063
 24
-256.68305567364263
 34
0.0
 50
180.0
100
AcDbRotatedDimension
  0
DIMENSION
  5
168
100
AcDbEntity
  8
寸法線_1
370
               5
390
0
  6
Continuous
 62
               7
100
AcDbDimension
  2
*D10
 10
880.5981202641799
 20
-256.68305567364263
 30
0.0
 11
880.5981202641799
 21
-263.24515940053453
 31
0.0
 71
               5
 72
               1
 41
1.0
 42
0.0
  3
DS1
100
AcDbAlignedDimension
 13
870.5981202641799
 23
-254.18305567364266
 33
0.0
 14
870.5981202641799
 24
-256.68305567364263
 34
0.0
 50
90.0
100
AcDbRotatedDimension
  0
MTEXT
  5
169
100
AcDbEntity
  8
____1
370
               5
390
0
  6
Continuous
 62
               7
100
AcDbMText
 10
843.5981202641799
 20
-266.82501631374117
 30
0.0
 40
3.5277776718139648
 41
15.0
 71
               1
 72
               1
  1
調整可能
  7
Style1
 73
               1
 44
1.0
  0
ARC
  5
16A
100
AcDbEntity
  8
____1
370
              18
390
0
  6
Continuous
 62
               5
100
AcDbCircle
 10
766.60448099715063
 20
-254.54994016801825
 30
0.0
 40
1.0000000000000027
100
AcDbArc
 50
139.70539166135345
 51
180.0
  0
ARC
  5
16B
100
AcDbEntity
  8
____1
370
              18
390
0
  6
Continuous
 62
               5
100
AcDbCircle
 10
796.60448099715063
 20
-254.54994016801825
 30
0.0
 40
1.0000000000000027
210
0.0
220
0.0
230
1.0
100
AcDbArc
 50
0.0
 51
40.294608338646555
  0
LINE
  5
16C
100
AcDbEntity
  8
____1
370
              18
390
0
  6
Continuous
 62
               5
100
AcDbLine
 10
797.60448099715063
 20
-254.54994016801825
 30
0.0
 11
797.60448099715063
 21
-256.68305567364263
 31
0.0
  0
LINE
  5
16D
100
AcDbEntity
  8
____1
370
              18
390
0
  6
Continuous
 62
               5
100
AcDbLine
 10
797.36721018783828
 20
-253.90322216017174
 30
0.0
 11
787.70631452265184
 21
-242.50931161087053
 31
0.0
  0
LINE
  5
16E
100
AcDbEntity
  8
____1
370
              18
390
0
  6
Continuous
 62
               5
100
AcDbLine
 10
765.60448099715063
 20
-254.54994016801825
 30
0.0
 11
765.60448099715063
 21
-256.68305567364263
 31
0.0
  0
LINE
  5
16F
100
AcDbEntity
  8
____1
370
              18
390
0
  6
Continuous
 62
               5
100
AcDbLine
 10
765.84175180646298
 20
-253.90322216017174
 30
0.0
 11
775.50264747164942
 21
-242.50931161087053
 31
0.0
  0
LINE
  5
170
100
AcDbEntity
  8
____1
370
               5
390
0
  6
CENTER2
 62
               3
100
AcDbLine
 10
781.60448099715063
 20
-259.68305567364263
 30
0.0
 11
781.60448099715063
 21
-236.68305567364266
 31
0.0
  0
LINE
  5
171
100
AcDbEntity
  8
____1
370
               5
390
0
  6
CENTER2
 62
               3
100
AcDbLine
 10
771.60448099715063
 20
-247.68305567364266
 30
0.0
 11
791.60448099715063
 21
-247.68305567364266
 31
0.0
  0
LINE
  5
172
100
AcDbEntity
  8
____1
370
              18
390
0
  6
Continuous
 62
               5
100
AcDbLine
 10
765.60448099715063
 20
-256.68305567364263
 30
0.0
 11
797.60448099715063
 21
-256.68305567364263
 31
0.0
  0
LINE
  5
173
100
AcDbEntity
  8
____1
370
              18
390
0
  6
Continuous
 62
               5
100
AcDbLine
 10
890.29655752583517
 20
-125.93975797919082
 30
0.0
 11
892.77155752583508
 21
-130.2265837279237
 31
0.0
  0
LINE
  5
174
100
AcDbEntity
  8
____1
370
              18
390
0
  6
Continuous
 62
               5
100
AcDbLine
 10
890.29655752583517
 20
-125.93975797919082
 30
0.0
 11
887.82155752583526
 21
-130.2265837279237
 31
0.0
  0
LINE
  5
175
100
AcDbEntity
  8
____1
370
              18
390
0
  6
Continuous
 62
               5
100
AcDbLine
 10
885.58084291187765
 20
-140.60737547892688
 30
0.0
 11
885.58084291187765
 21
-125.60737547892694
 31
0.0
  0
LINE
  5
176
100
AcDbEntity
  8
____1
370
              18
390
0
  6
Continuous
 62
               5
100
AcDbLine
 10
895.58084291187765
 20
-140.60737547892688
 30
0.0
 11
895.58084291187765
 21
-125.60737547892694
 31
0.0
  0
MTEXT
  5
177
100
AcDbEntity
  8
____1
370
               5
390
0
  6
Continuous
 62
               7
100
AcDbMText
 10
895.58084291187765
 20
-131.33384681431147
 30
0.0
 40
3.5277776718139648
 41
20.0
 71
               1
 72
               1
  1
H16.12.10
  7
Style1
 73
               1
 44
1.0
  0
MTEXT
  5
178
100
AcDbEntity
  8
____1
370
               5
390
0
  6
Continuous
 62
               7
100
AcDbMText
 10
895.58084291187765
 20
-126.36927131497436
 30
0.0
 40
3.5277776718139648
 41
20.0
 71
               1
 72
               1
  1
改訂日
  7
Style1
 73
               1
 44
1.0
  0
LINE
  5
179
100
AcDbEntity
  8
____1
370
              18
390
0
  6
Continuous
 62
               5
100
AcDbLine
 10
885.58084291187765
 20
-140.60737547892688
 30
0.0
 11
975.58084291187765
 21
-140.60737547892688
 31
0.0
  0
LINE
  5
17A
100
AcDbEntity
  8
____1
370
              18
390
0
  6
Continuous
 62
               5
100
AcDbLine
 10
885.58084291187765
 20
-130.60737547892694
 30
0.0
 11
975.58084291187765
 21
-130.60737547892694
 31
0.0
  0
LINE
  5
17B
100
AcDbEntity
  8
____1
370
              18
390
0
  6
Continuous
 62
               5
100
AcDbLine
 10
885.58084291187765
 20
-135.60737547892688
 30
0.0
 11
975.58084291187765
 21
-135.60737547892688
 31
0.0
  0
LINE
  5
17C
100
AcDbEntity
  8
____1
370
              18
390
0
  6
Continuous
 62
               5
100
AcDbLine
 10
785.60448099715063
 20
-243.68305567364266
 30
0.0
 11
777.60448099715063
 21
-243.68305567364266
 31
0.0
  0
LINE
  5
17D
100
AcDbEntity
  8
____1
370
              18
390
0
  6
Continuous
 62
               5
100
AcDbLine
 10
783.30448099715068
 20
-251.68305567364266
 30
0.0
 11
783.30448099715068
 21
-243.68305567364266
 31
0.0
  0
LINE
  5
17E
100
AcDbEntity
  8
____1
370
              18
390
0
  6
Continuous
 62
               5
100
AcDbLine
 10
858.5981202641799
 20
-263.84638367588724
 30
0.0
 11
843.5981202641799
 21
-263.84638367588724
 31
0.0
  0
SOLID
  5
17F
100
AcDbEntity
  8
____1
390
0
 62
               5
100
AcDbTrace
 10
843.5981202641799
 20
-263.84638367588724
 30
0.0
 11
847.12589793599386
 21
-262.96443925793375
 31
0.0
 12
843.5981202641799
 22
-263.84638367588724
 32
0.0
 13
846.24395351804037
 23
-263.84638367588724
 33
0.0
  0
SOLID
  5
180
100
AcDbEntity
  8
____1
390
0
 62
               5
100
AcDbTrace
 10
846.24395351804037
 20
-263.84638367588724
 30
0.0
 11
847.12589793599386
 21
-264.72832809384073
 31
0.0
 12
843.5981202641799
 22
-263.84638367588724
 32
0.0
 13
843.5981202641799
 23
-263.84638367588724
 33
0.0
  0
CIRCLE
  5
181
100
AcDbEntity
  8
____1
370
              18
390
0
  6
Continuous
 62
               5
100
AcDbCircle
 10
781.60448099715063
 20
-247.68305567364266
 30
0.0
 40
8.0000000000000302
  0
LINE
  5
182
100
AcDbEntity
  8
____1
370
              18
390
0
  6
Continuous
 62
               5
100
AcDbLine
 10
785.60448099715063
 20
-251.68305567364266
 30
0.0
 11
777.60448099715063
 21
-251.68305567364266
 31
0.0
  0
LINE
  5
183
100
AcDbEntity
  8
____1
370
              18
390
0
  6
Continuous
 62
               5
100
AcDbLine
 10
857.5981202641799
 20
-240.18305567364266
 30
0.0
 11
857.5981202641799
 21
-255.18305567364266
 31
0.0
  0
ARC
  5
184
100
AcDbEntity
  8
____1
370
              18
390
0
  6
Continuous
 62
               5
100
AcDbCircle
 10
858.0981202641799
 20
-240.18305567364266
 30
0.0
 40
0.5
100
AcDbArc
 50
90.0
 51
180.0
  0
LINE
  5
185
100
AcDbEntity
  8
____1
370
              18
390
0
  6
Continuous
 62
               5
100
AcDbLine
 10
858.0981202641799
 20
-239.68305567364266
 30
0.0
 11
870.5981202641799
 21
-239.68305567364266
 31
0.0
  0
LINE
  5
186
100
AcDbEntity
  8
____1
370
              18
390
0
  6
Continuous
 62
               5
100
AcDbLine
 10
870.5981202641799
 20
-239.68305567364266
 30
0.0
 11
870.5981202641799
 21
-256.68305567364263
 31
0.0
  0
ARC
  5
187
100
AcDbEntity
  8
____1
370
              18
390
0
  6
Continuous
 62
               5
100
AcDbCircle
 10
869.5981202641799
 20
-255.18305567364266
 30
0.0
 40
1.0
210
0.0
220
0.0
230
1.0
100
AcDbArc
 50
0.0
 51
90.0
  0
LINE
  5
188
100
AcDbEntity
  8
____1
370
              18
390
0
  6
Continuous
 62
               5
100
AcDbLine
 10
860.5981202641799
 20
-254.18305567364266
 30
0.0
 11
869.5981202641799
 21
-254.18305567364266
 31
0.0
  0
LINE
  5
189
100
AcDbEntity
  8
____1
370
              18
390
0
  6
Continuous
 62
               5
100
AcDbLine
 10
857.0981202641799
 20
-243.68305567364266
 30
0.0
 11
857.5981202641799
 21
-243.68305567364266
 31
0.0
  0
LINE
  5
18A
100
AcDbEntity
  8
____1
370
              18
390
0
  6
Continuous
 62
               5
100
AcDbLine
 10
857.0981202641799
 20
-243.68305567364266
 30
0.0
 11
857.0981202641799
 21
-251.68305567364266
 31
0.0
  0
LINE
  5
18B
100
AcDbEntity
  8
____1
370
              18
390
0
  6
Continuous
 62
               5
100
AcDbLine
 10
870.5981202641799
 20
-253.68305567364266
 30
0.0
 11
872.0981202641799
 21
-253.68305567364266
 31
0.0
  0
LINE
  5
18C
100
AcDbEntity
  8
____1
370
              18
390
0
  6
Continuous
 62
               5
100
AcDbLine
 10
873.0981202641799
 20
-252.18305567364266
 30
0.0
 11
872.0981202641799
 21
-253.68305567364266
 31
0.0
  0
LINE
  5
18D
100
AcDbEntity
  8
____1
370
              18
390
0
  6
Continuous
 62
               5
100
AcDbLine
 10
873.0981202641799
 20
-243.18305567364266
 30
0.0
 11
873.0981202641799
 21
-252.18305567364266
 31
0.0
  0
LINE
  5
18E
100
AcDbEntity
  8
____1
370
               5
390
0
  6
CENTER2
 62
               3
100
AcDbLine
 10
865.58084291187765
 20
-202.42091269841259
 30
0.0
 11
975.58084291187765
 21
-202.42091269841259
 31
0.0
  0
LINE
  5
18F
100
AcDbEntity
  8
____1
370
               5
390
0
  6
Continuous
 62
               7
100
AcDbLine
 10
915.63782953018972
 20
-181.12499814430291
 30
0.0
 11
925.47407712843858
 21
-191.93837301587294
 31
0.0
  0
SOLID
  5
190
100
AcDbEntity
  8
____1
390
0
 62
               7
100
AcDbTrace
 10
915.63782953018972
 20
-181.12499814430291
 30
0.0
 11
917.35924136621361
 21
-184.32808767613085
 31
0.0
 12
915.63782953018972
 22
-181.12499814430291
 32
0.0
 13
917.41819486123495
 23
-183.08222396041256
 33
0.0
  0
SOLID
  5
191
100
AcDbEntity
  8
____1
390
0
 62
               7
100
AcDbTrace
 10
917.41819486123495
 20
-183.08222396041256
 30
0.0
 11
918.66405857695327
 21
-183.14117745543399
 31
0.0
 12
915.63782953018972
 22
-181.12499814430291
 32
0.0
 13
915.63782953018972
 23
-181.12499814430291
 33
0.0
  0
LINE
  5
192
100
AcDbEntity
  8
____1
370
               5
390
0
  6
Continuous
 62
               7
100
AcDbLine
 10
925.47407712843858
 20
-191.93837301587294
 30
0.0
 11
954.35160346632881
 21
-191.93837301587294
 31
0.0
  0
CIRCLE
  5
193
100
AcDbEntity
  8
____1
370
              18
390
0
  6
Continuous
 62
               5
100
AcDbCircle
 10
913.51650918662995
 20
-179.00367780074322
 30
0.0
 40
8.0000000000000853
  0
MTEXT
  5
194
100
AcDbEntity
  8
____1
370
               5
390
0
  6
Continuous
 62
               7
100
AcDbMText
 10
936.42795086251454
 20
-173.25327945561759
 30
0.0
 40
3.5277776718139648
 41
12.0
 71
               1
 72
               1
  1
ｔ2
  7
Style1
 73
               1
 44
1.0
  0
LINE
  5
195
100
AcDbEntity
  8
____1
370
               5
390
0
  6
CENTER2
 62
               3
100
AcDbLine
 10
903.51650918662995
 20
-179.00367780074322
 30
0.0
 11
923.51650918662995
 21
-179.00367780074322
 31
0.0
  0
LINE
  5
196
100
AcDbEntity
  8
____1
370
               5
390
0
  6
CENTER2
 62
               3
100
AcDbLine
 10
913.51650918662995
 20
-169.00367780074322
 30
0.0
 11
913.51650918662995
 21
-189.00367780074325
 31
0.0
  0
CIRCLE
  5
197
100
AcDbEntity
  8
____1
370
              18
390
0
  6
Continuous
 62
               5
100
AcDbCircle
 10
913.51650918662995
 20
-179.00367780074322
 30
0.0
 40
1.7500000000000966
  0
CIRCLE
  5
198
100
AcDbEntity
  8
____1
370
              18
390
0
  6
Continuous
 62
               5
100
AcDbCircle
 10
913.51650918662995
 20
-179.00367780074322
 30
0.0
 40
3.0000000000001248
  0
MTEXT
  5
199
100
AcDbEntity
  8
____1
370
               5
390
0
  6
Continuous
 62
               7
100
AcDbMText
 10
929.01511428930087
 20
-187.65727313546017
 30
0.0
 40
3.5277776718139648
 41
24.526344011916677
 71
               1
 72
               1
  1
皿ビス用皿穴
  7
Style1
 73
               1
 44
1.0
  0
MTEXT
  5
19A
100
AcDbEntity
  8
____1
370
               5
390
0
  6
Continuous
 62
               7
100
AcDbMText
 10
889.95588144286864
 20
-156.54814460012469
 30
0.0
 40
3.5277776718139648
 41
15.0
 71
               1
 72
               1
  1
受板
  7
Style1
 73
               1
 44
1.0
  0
DIMENSION
  5
1A2
100
AcDbEntity
  8
寸法線_1
370
               5
390
0
  6
Continuous
 62
               7
100
AcDbDimension
  2
*D11
 10
907.85965493713752
 20
-184.66053205023562
 30
0.0
 11
938.14217828597589
 21
-163.88309941489828
 31
0.0
 70
             131
 71
               5
 72
               1
 41
1.0
 42
0.0
  3
DS1
100
AcDbDiametricDimension
 15
919.17336343612237
 25
-173.34682355125082
 35
0.0
 40
0.0
  0
LINE
  5
1A3
100
AcDbEntity
  8
____1
370
               5
390
0
  6
CENTER2
 62
               3
100
AcDbLine
 10
865.58084291187765
 20
-202.42091269841259
 30
0.0
 11
865.58084291187765
 21
-149.60503968253954
 31
0.0
  0
LINE
  5
1A4
100
AcDbEntity
  8
____1
370
              18
390
0
  6
Continuous
 62
               5
100
AcDbLine
 10
890.29655752583517
 20
-135.88975797919068
 30
0.0
 11
892.77155752583508
 21
-140.17658372792368
 31
0.0
  0
LINE
  5
1A5
100
AcDbEntity
  8
____1
370
              18
390
0
  6
Continuous
 62
               5
100
AcDbLine
 10
890.29655752583517
 20
-135.88975797919068
 30
0.0
 11
887.82155752583526
 21
-140.17658372792368
 31
0.0
  0
MTEXT
  5
1A6
100
AcDbEntity
  8
____1
370
               5
390
0
  6
Continuous
 62
               7
100
AcDbMText
 10
888.71381450104514
 20
-137.12676773810733
 30
0.0
 40
2.9266439437866216
 41
3.1654860495798762
 71
               1
 72
               1
  1
2
  7
Style1
 73
               1
 44
1.0
  0
LINE
  5
1A7
100
AcDbEntity
  8
____1
370
              18
390
0
  6
Continuous
 62
               5
100
AcDbLine
 10
887.82155752583526
 20
-140.17658372792368
 30
0.0
 11
892.77155752583508
 21
-140.17658372792368
 31
0.0
  0
MTEXT
  5
1A8
100
AcDbEntity
  8
____1
370
               5
390
0
  6
Continuous
 62
               7
100
AcDbMText
 10
895.58084291187765
 20
-136.33384681431141
 30
0.0
 40
3.5277776718139648
 41
20.0
 71
               1
 72
               1
  1
H23.10.12
  7
Style1
 73
               1
 44
1.0
  0
MTEXT
  5
1A9
100
AcDbEntity
  8
____1
370
               5
390
0
  6
Continuous
 62
               7
100
AcDbMText
 10
915.58084291187765
 20
-136.33384681431141
 30
0.0
 40
3.5277776718139648
 41
60.0
 71
               1
 72
               1
  1
黒色とベージュを削除
  7
Style1
 73
               1
 44
1.0
  0
LINE
  5
1AA
100
AcDbEntity
  8
____1
370
              18
390
0
  6
Continuous
 62
               5
100
AcDbLine
 10
915.58084291187765
 20
-140.60737547892688
 30
0.0
 11
915.58084291187765
 21
-125.60737547892694
 31
0.0
  0
LINE
  5
1AB
100
AcDbEntity
  8
____1
370
              18
390
0
  6
Continuous
 62
               5
100
AcDbLine
 10
915.58084291187765
 20
-140.60737547892688
 30
0.0
 11
915.58084291187765
 21
-125.60737547892694
 31
0.0
  0
MTEXT
  5
1AC
100
AcDbEntity
  8
____1
370
               5
390
0
  6
Continuous
 62
               7
100
AcDbMText
 10
915.58084291187765
 20
-126.36927131497436
 30
0.0
 40
3.5277776718139648
 41
60.0
 71
               1
 72
               1
  1
改　訂　内　容
  7
Style1
 73
               1
 44
1.0
  0
MTEXT
  5
1AD
100
AcDbEntity
  8
____1
370
               5
390
0
  6
Continuous
 62
               7
100
AcDbMText
 10
915.58084291187765
 20
-131.33384681431147
 30
0.0
 40
3.5277776718139648
 41
60.0
 71
               1
 72
               1
  1
材料板厚ｔ1.5からｔ1.6に変更
  7
Style1
 73
               1
 44
1.0
  0
INSERT
  5
1B5
100
AcDbEntity
  8
____1
370
               5
390
0
  6
Continuous
 62
             254
100
AcDbBlockReference
  2
C0
 10
0.0
 20
0.0
 30
0.0
  0
LINE
  5
1B6
100
AcDbEntity
  8
____1
370
              18
390
0
  6
Continuous
 62
               5
100
AcDbLine
 10
887.82155752583526
 20
-130.2265837279237
 30
0.0
 11
892.77155752583508
 21
-130.2265837279237
 31
0.0
  0
ENDSEC
  0
SECTION
  2
OBJECTS
  0
DICTIONARY
  5
19
100
AcDbDictionary
280
               0
281
               1
  3
ACAD_GROUP
350
1A
  3
ACAD_MLINESTYLE
350
1B
  3
ACAD_LAYOUT
350
1E
  3
ACAD_PLOTSETTINGS
350
22
  3
ACAD_PLOTSTYLENAME
350
1F
  3
ACAD_WIPEOUT_VARS
350
23
  0
DICTIONARY
  5
1A
102
{ACAD_REACTORS
330
19
102
}
100
AcDbDictionary
280
               0
281
               1
  0
DICTIONARY
  5
1B
102
{ACAD_REACTORS
330
19
102
}
100
AcDbDictionary
280
               0
281
               1
  3
Standard
350
1C
  0
MLINESTYLE
  5
1C
102
{ACAD_REACTORS
330
1B
102
}
100
AcDbMlineStyle
  2
Standard
 70
               0
  3

 62
               0
 51
90.0
 52
90.0
 71
               2
 49
0.5
 62
             256
  6
ByLayer
 49
-0.5
 62
             256
  6
ByLayer
  0
ACDBDICTIONARYWDFLT
  5
1F
102
{ACAD_REACTORS
330
19
102
}
100
AcDbDictionary
281
               1
  3
Normal
350
1D
100
AcDbDictionaryWithDefault
340
1D
  0
ACDBPLACEHOLDER
  5
1D
102
{ACAD_REACTORS
330
1F
102
}
  0
LAYOUT
  5
20
102
{ACAD_REACTORS
330
1E
102
}
100
AcDbPlotSettings
  1

  2

  4

  6

 40
0.0
 41
0.0
 42
0.0
 43
0.0
 44
0.0
 45
0.0
 46
0.0
 47
0.0
 48
0.0
 49
0.0
140
0.0
141
0.0
142
1.0
143
1.0
 70
            1024
 72
               0
 73
               0
 74
               0
  7

 75
               0
147
1.0
148
0.0
149
0.0
100
AcDbLayout
  1
Model
 70
               0
 71
               0
 10
0.0
 20
0.0
 11
0.0
 21
0.0
 12
0.0
 22
0.0
 32
0.0
 14
0.0
 24
0.0
 34
0.0
 15
0.0
 25
0.0
 35
0.0
146
0.0
 13
0.0
 23
0.0
 33
0.0
 16
0.0
 26
0.0
 36
0.0
 17
0.0
 27
0.0
 37
0.0
 76
               0
330
A
331
0
345
0
346
0
  0
LAYOUT
  5
21
102
{ACAD_REACTORS
330
1E
102
}
100
AcDbPlotSettings
  1

  2

  4

  6

 40
0.0
 41
0.0
 42
0.0
 43
0.0
 44
0.0
 45
0.0
 46
0.0
 47
0.0
 48
0.0
 49
0.0
140
0.0
141
0.0
142
1.0
143
1.0
 70
               0
 72
               0
 73
               0
 74
               0
  7

 75
               0
147
1.0
148
0.0
149
0.0
100
AcDbLayout
  1
Layout1
 70
               0
 71
               0
 10
0.0
 20
0.0
 11
0.0
 21
0.0
 12
0.0
 22
0.0
 32
0.0
 14
0.0
 24
0.0
 34
0.0
 15
0.0
 25
0.0
 35
0.0
146
0.0
 13
0.0
 23
0.0
 33
0.0
 16
0.0
 26
0.0
 36
0.0
 17
0.0
 27
0.0
 37
0.0
 76
               0
330
B
331
0
345
0
346
0
  0
DICTIONARY
  5
1E
102
{ACAD_REACTORS
330
19
102
}
100
AcDbDictionary
280
               0
281
               1
  3
Layout1
350
21
  3
Model
350
20
  0
DICTIONARY
  5
22
102
{ACAD_REACTORS
330
19
102
}
100
AcDbDictionary
280
               0
281
               1
  0
WIPEOUTVARIABLES
  5
23
100
AcDbWipeoutVariables
 70
               1
  0
ENDSEC
  0
EOF
