  0
SECTION
  2
HEADER
  9
$ACADVER
  1
AC1009
  9
$INSBASE
 10
0.0
 20
0.0
 30
0.0
  9
$EXTMIN
 10
693.49893303893532
 20
-321.38347705652183
 30
-0.0015258207003583
  9
$EXTMAX
 10
980.53055847083124
 20
-119.8688960450672
 30
0.0000000349246037
  9
$LIMMIN
 10
0.0
 20
0.0
  9
$LIMMAX
 10
0.0
 20
0.0
  9
$ORTHOMODE
 70
     0
  9
$REGENMODE
 70
     1
  9
$FILLMODE
 70
     1
  9
$QTEXTMODE
 70
     0
  9
$MIRRTEXT
 70
     1
  9
$DRAGMODE
 70
     2
  9
$LTSCALE
 40
1.0
  9
$OSMODE
 70
    31
  9
$ATTMODE
 70
     1
  9
$TEXTSIZE
 40
0.0
  9
$TRACEWID
 40
0.05
  9
$TEXTSTYLE
  7
STANDARD
  9
$CLAYER
  8
0
  9
$CELTYPE
  6
CONTINUOUS
  9
$CECOLOR
 62
   256
  9
$DIMSCALE
 40
1.0
  9
$DIMASZ
 40
0.18
  9
$DIMEXO
 40
0.0625
  9
$DIMDLI
 40
0.38
  9
$DIMRND
 40
0.0
  9
$DIMDLE
 40
0.0
  9
$DIMEXE
 40
0.18
  9
$DIMTP
 40
0.0
  9
$DIMTM
 40
0.0
  9
$DIMTXT
 40
0.18
  9
$DIMCEN
 40
0.09
  9
$DIMTSZ
 40
0.0
  9
$DIMTOL
 70
     0
  9
$DIMLIM
 70
     0
  9
$DIMTIH
 70
     1
  9
$DIMTOH
 70
     1
  9
$DIMSE1
 70
     0
  9
$DIMSE2
 70
     0
  9
$DIMTAD
 70
     0
  9
$DIMZIN
 70
     0
  9
$DIMBLK
  1

  9
$DIMASO
 70
     1
  9
$DIMSHO
 70
     1
  9
$DIMPOST
  1

  9
$DIMAPOST
  1

  9
$DIMALT
 70
     0
  9
$DIMALTD
 70
     2
  9
$DIMALTF
 40
25.399999999999999
  9
$DIMLFAC
 40
1.0
  9
$DIMTOFL
 70
     0
  9
$DIMTVP
 40
0.0
  9
$DIMTIX
 70
     0
  9
$DIMSOXD
 70
     0
  9
$DIMSAH
 70
     0
  9
$DIMBLK1
  1

  9
$DIMBLK2
  1

  9
$DIMSTYLE
  2
STANDARD
  9
$DIMCLRD
 70
     0
  9
$DIMCLRE
 70
     0
  9
$DIMCLRT
 70
     0
  9
$DIMTFAC
 40
1.0
  9
$DIMGAP
 40
0.09
  9
$LUNITS
 70
     2
  9
$LUPREC
 70
     4
  9
$SKETCHINC
 40
0.1
  9
$FILLETRAD
 40
0.0
  9
$AUNITS
 70
     0
  9
$AUPREC
 70
     0
  9
$MENU
  1
acad
  9
$ELEVATION
 40
0.0
  9
$PELEVATION
 40
0.0
  9
$THICKNESS
 40
0.0
  9
$LIMCHECK
 70
     0
  9
$BLIPMODE
 70
     0
  9
$CHAMFERA
 40
0.0
  9
$CHAMFERB
 40
0.0
  9
$SKPOLY
 70
     0
  9
$TDCREATE
 40
2454865.6879920722
  9
$TDUPDATE
 40
2454865.6882002321
  9
$TDINDWG
 40
0.000218287
  9
$TDUSRTIMER
 40
0.0002177431
  9
$USRTIMER
 70
     1
  9
$ANGBASE
 50
0.0
  9
$ANGDIR
 70
     0
  9
$PDMODE
 70
     3
  9
$PDSIZE
 40
-1.0
  9
$PLINEWID
 40
0.0
  9
$COORDS
 70
     2
  9
$SPLFRAME
 70
     0
  9
$SPLINETYPE
 70
     6
  9
$SPLINESEGS
 70
     8
  9
$ATTDIA
 70
     0
  9
$ATTREQ
 70
     1
  9
$HANDLING
 70
     1
  9
$HANDSEED
  5
48D
  9
$SURFTAB1
 70
     6
  9
$SURFTAB2
 70
     6
  9
$SURFTYPE
 70
     6
  9
$SURFU
 70
     6
  9
$SURFV
 70
     6
  9
$UCSNAME
  2

  9
$UCSORG
 10
0.0
 20
0.0
 30
0.0
  9
$UCSXDIR
 10
1.0
 20
0.0
 30
0.0
  9
$UCSYDIR
 10
0.0
 20
1.0
 30
0.0
  9
$PUCSNAME
  2

  9
$PUCSORG
 10
0.0
 20
0.0
 30
0.0
  9
$PUCSXDIR
 10
1.0
 20
0.0
 30
0.0
  9
$PUCSYDIR
 10
0.0
 20
1.0
 30
0.0
  9
$USERI1
 70
     0
  9
$USERI2
 70
     0
  9
$USERI3
 70
     0
  9
$USERI4
 70
     0
  9
$USERI5
 70
     0
  9
$USERR1
 40
0.0
  9
$USERR2
 40
0.0
  9
$USERR3
 40
0.0
  9
$USERR4
 40
0.0
  9
$USERR5
 40
0.0
  9
$WORLDVIEW
 70
     1
  9
$SHADEDGE
 70
     3
  9
$SHADEDIF
 70
    70
  9
$TILEMODE
 70
     1
  9
$MAXACTVP
 70
    16
  9
$PLIMCHECK
 70
     0
  9
$PEXTMIN
 10
1.0000000000000000E+020
 20
1.0000000000000000E+020
 30
1.0000000000000000E+020
  9
$PEXTMAX
 10
-1.0000000000000000E+020
 20
-1.0000000000000000E+020
 30
-1.0000000000000000E+020
  9
$PLIMMIN
 10
0.0
 20
0.0
  9
$PLIMMAX
 10
12.0
 20
9.0
  9
$UNITMODE
 70
     0
  9
$VISRETAIN
 70
     0
  9
$PLINEGEN
 70
     1
  9
$PSLTSCALE
 70
     0
  0
ENDSEC
  0
SECTION
  2
TABLES
  0
TABLE
  2
VPORT
 70
     2
  0
VPORT
  2
*ACTIVE
 70
     0
 10
0.0
 20
0.0
 11
1.0
 21
1.0
 12
837.01474575488328
 22
-220.6261865507945
 13
0.0
 23
0.0
 14
1.0
 24
1.0
 15
0.0
 25
0.0
 16
0.0
 26
0.0
 36
1.0
 17
0.0
 27
0.0
 37
0.0
 40
203.21752113267809
 41
1.5416078984485191
 42
50.0
 43
0.0
 44
0.0
 50
0.0
 51
0.0
 71
     0
 72
   100
 73
     1
 74
     1
 75
     0
 76
     0
 77
     0
 78
     0
  0
ENDTAB
  0
TABLE
  2
LTYPE
 70
    11
  0
LTYPE
  2
CONTINUOUS
 70
     0
  3
Solid line
 72
    65
 73
     0
 40
0.0
  0
LTYPE
  2
DOT
 70
     0
  3
. . . . . . . . 
 72
    65
 73
     2
 40
1.0
 49
0.0
 49
-1.0
  0
LTYPE
  2
DASHED
 70
     0
  3
___  ___  ___  ___  
 72
    65
 73
     2
 40
4.0
 49
3.0
 49
-1.0
  0
LTYPE
  2
HIDDEN
 70
     0
  3
__ __ __ __ 
 72
    65
 73
     2
 40
3.0
 49
2.0
 49
-1.0
  0
LTYPE
  2
STITCH
 70
     0
  3
_ _ _ _ 
 72
    65
 73
     2
 40
2.0
 49
1.0
 49
-1.0
  0
LTYPE
  2
CENTER
 70
     0
  3
______  __  ______  __  
 72
    65
 73
     4
 40
43.0
 49
40.0
 49
-1.0
 49
1.0
 49
-1.0
  0
LTYPE
  2
DASHDOT
 70
     0
  3
____ . ____ . 
 72
    65
 73
     4
 40
32.0
 49
30.0
 49
-1.0
 49
0.0
 49
-1.0
  0
LTYPE
  2
BORDER
 70
     0
  3
__ . __ . 
 72
    65
 73
     4
 40
22.0
 49
20.0
 49
-1.0
 49
0.0
 49
-1.0
  0
LTYPE
  2
CUTTING
 70
     0
  3
________   ___   ___   
 72
    65
 73
     6
 40
45.0
 49
40.0
 49
-1.0
 49
1.0
 49
-1.0
 49
1.0
 49
-1.0
  0
LTYPE
  2
PHANTOM
 70
     0
  3
______  __  __  
 72
    65
 73
     6
 40
35.0
 49
30.0
 49
-1.0
 49
1.0
 49
-1.0
 49
1.0
 49
-1.0
  0
LTYPE
  2
DIVIDE
 70
     0
  3
____ . . ____ . . 
 72
    65
 73
     6
 40
23.0
 49
20.0
 49
-1.0
 49
0.0
 49
-1.0
 49
0.0
 49
-1.0
  0
ENDTAB
  0
TABLE
  2
LAYER
 70
     5
  0
LAYER
  2
0
 70
     0
 62
     7
  6
CONTINUOUS
  0
LAYER
  2
図枠
 70
     0
 62
     7
  6
CONTINUOUS
  0
LAYER
  2
ﾚｲﾔ_1
 70
     0
 62
     7
  6
CONTINUOUS
  0
LAYER
  2
寸法線
 70
     0
 62
     7
  6
CONTINUOUS
  0
LAYER
  2
改訂
 70
     0
 62
     7
  6
CONTINUOUS
  0
ENDTAB
  0
TABLE
  2
STYLE
 70
     1
  0
STYLE
  2
STANDARD
 70
     0
 40
0.0
 41
1.0
 50
0.0
 71
     0
 42
0.0
  3
txt
  4
extfont
  0
ENDTAB
  0
TABLE
  2
VIEW
 70
     0
  0
ENDTAB
  0
TABLE
  2
UCS
 70
     0
  0
ENDTAB
  0
TABLE
  2
APPID
 70
     2
  0
APPID
  2
ACAD
 70
     0
  0
APPID
  2
DCO15
 70
     0
  0
ENDTAB
  0
TABLE
  2
DIMSTYLE
 70
     2
  0
DIMSTYLE
  2
STANDARD
 70
     0
  3

  4

  5

  6

  7

 40
1.0
 41
0.18
 42
0.0625
 43
0.38
 44
0.18
 45
0.0
 46
0.0
 47
0.0
 48
0.0
140
0.18
141
0.09
142
0.0
143
25.399999999999999
144
1.0
145
0.0
146
1.0
147
0.09
 71
     0
 72
     0
 73
     1
 74
     1
 75
     0
 76
     0
 77
     0
 78
     0
170
     0
171
     2
172
     0
173
     0
174
     0
175
     0
176
     0
177
     0
178
     0
  0
DIMSTYLE
  2
VELDIM0
 70
     0
  3

  4

  5

  6

  7

 40
1.0
 41
3.0
 42
0.0625
 43
0.38
 44
0.5
 45
0.0
 46
3.0
 47
0.0
 48
0.0
140
2.9986110209999999
141
0.09
142
0.0
143
25.399999999999999
144
1.0
145
0.0
146
1.0
147
0.09
 71
     0
 72
     0
 73
     0
 74
     0
 75
     0
 76
     0
 77
     0
 78
     8
170
     0
171
     2
172
     0
173
     0
174
     0
175
     0
176
     0
177
     0
178
     0
  0
ENDTAB
  0
ENDSEC
  0
SECTION
  2
BLOCKS
  0
BLOCK
  8
0
  2
$MODEL_SPACE
 70
     0
 10
0.0
 20
0.0
 30
0.0
  3
$MODEL_SPACE
  1

  0
ENDBLK
  5
E
  8
0
  0
BLOCK
 67
     1
  8
0
  2
$PAPER_SPACE
 70
     0
 10
0.0
 20
0.0
 30
0.0
  3
$PAPER_SPACE
  1

  0
ENDBLK
  5
10
 67
     1
  8
0
  0
BLOCK
  8
0
  2
*D0
 70
     1
 10
0.0
 20
0.0
 30
0.0
  3
*D0
  1

  0
TEXT
  5
DD
  8
0
 62
     0
 10
931.18713678500012
 20
-196.46050341919999
 30
0.0
 40
2.9986110209999999
  1
13
 50
90.0
  0
LINE
  5
DE
  8
0
 62
     0
 10
923.71630343579989
 20
-201.1966145833
 30
0.0
 11
933.2163034358
 21
-201.1966145833
 31
0.0
  0
LINE
  5
DF
  8
0
 62
     0
 10
923.71630343579989
 20
-188.1966145833
 30
0.0
 11
933.2163034358
 21
-188.1966145833
 31
0.0
  0
LINE
  5
E0
  8
0
 62
     0
 10
932.71630343579989
 20
-201.1966145833
 30
0.0
 11
932.71630343579989
 21
-191.16883691149999
 31
0.0
  0
LINE
  5
E1
  8
0
 62
     0
 10
932.71630343579989
 20
-201.1966145833
 30
0.0
 11
932.71630343579989
 21
-198.2243922550999
 31
0.0
  0
LINE
  5
E2
  8
0
 62
     0
 10
932.71630343579989
 20
-188.1966145833
 30
0.0
 11
932.71630343579989
 21
-191.16883691149999
 31
0.0
  0
LINE
  5
E3
  8
0
 62
     0
 10
932.71630343579989
 20
-188.1966145833
 30
0.0
 11
932.71630343579989
 21
-198.2243922550999
 31
0.0
  0
LINE
  5
E4
  8
0
 62
     0
 10
932.71630343579989
 20
-188.1966145833
 30
0.0
 11
932.71630343579989
 21
-185.1966145833
 31
0.0
  0
SOLID
  5
E5
  8
0
 62
     0
 10
932.71630343579989
 20
-188.1966145833
 30
0.0
 11
931.96630343579989
 21
-185.1966145833
 31
0.0
 12
933.46630343579989
 22
-185.1966145833
 32
0.0
 13
932.71630343579989
 23
-185.9466145833
 33
0.0
  0
LINE
  5
E6
  8
0
 62
     0
 10
932.71630343579989
 20
-201.1966145833
 30
0.0
 11
932.71630343579989
 21
-204.1966145833
 31
0.0
  0
SOLID
  5
E7
  8
0
 62
     0
 10
932.71630343579989
 20
-201.1966145833
 30
0.0
 11
933.46630343579989
 21
-204.1966145833
 31
0.0
 12
931.96630343579989
 22
-204.1966145833
 32
0.0
 13
932.71630343579989
 23
-203.4466145833
 33
0.0
  0
ENDBLK
  5
E8
  8
0
  0
BLOCK
  8
0
  2
*D1
 70
     1
 10
0.0
 20
0.0
 30
0.0
  3
*D1
  1

  0
TEXT
  5
ED
  8
0
 62
     0
 10
905.45241459989995
 20
-176.66744793259991
 30
0.0
 40
2.9986110209999999
  1
31
  0
LINE
  5
EE
  8
0
 62
     0
 10
922.7163034358
 20
-187.1966145833
 30
0.0
 11
922.7163034358
 21
-177.6966145833
 31
0.0
  0
LINE
  5
EF
  8
0
 62
     0
 10
891.71630343579989
 20
-187.1966145833
 30
0.0
 11
891.71630343579989
 21
-177.6966145833
 31
0.0
  0
LINE
  5
F0
  8
0
 62
     0
 10
922.7163034358
 20
-178.1966145833
 30
0.0
 11
910.74408110759987
 21
-178.1966145833
 31
0.0
  0
LINE
  5
F1
  8
0
 62
     0
 10
922.7163034358
 20
-178.1966145833
 30
0.0
 11
903.68852576389986
 21
-178.1966145833
 31
0.0
  0
LINE
  5
F2
  8
0
 62
     0
 10
891.71630343579989
 20
-178.1966145833
 30
0.0
 11
910.74408110759987
 21
-178.1966145833
 31
0.0
  0
LINE
  5
F3
  8
0
 62
     0
 10
891.71630343579989
 20
-178.1966145833
 30
0.0
 11
903.68852576389986
 21
-178.1966145833
 31
0.0
  0
LINE
  5
F4
  8
0
 62
     0
 10
891.71630343579989
 20
-178.1966145833
 30
0.0
 11
894.7163034358
 21
-178.1966145833
 31
0.0
  0
SOLID
  5
F5
  8
0
 62
     0
 10
891.71630343579989
 20
-178.1966145833
 30
0.0
 11
894.7163034358
 21
-177.4466145833
 31
0.0
 12
894.7163034358
 22
-178.9466145833
 32
0.0
 13
893.9663034358
 23
-178.1966145833
 33
0.0
  0
LINE
  5
F6
  8
0
 62
     0
 10
922.7163034358
 20
-178.1966145833
 30
0.0
 11
919.7163034358
 21
-178.1966145833
 31
0.0
  0
SOLID
  5
F7
  8
0
 62
     0
 10
922.7163034358
 20
-178.1966145833
 30
0.0
 11
919.7163034358
 21
-178.9466145833
 31
0.0
 12
919.7163034358
 22
-177.4466145833
 32
0.0
 13
920.4663034358
 23
-178.1966145833
 33
0.0
  0
ENDBLK
  5
F8
  8
0
  0
BLOCK
  8
0
  2
*D2
 70
     1
 10
0.0
 20
0.0
 30
0.0
  3
*D2
  1

  0
TEXT
  5
115
  8
0
 62
     0
 10
876.09236885159987
 20
-238.73014319250001
 30
0.0
 40
2.9986110209999999
  1
16.5
  0
LINE
  5
116
  8
0
 62
     0
 10
887.87014652350001
 20
-249.2593098433
 30
0.0
 11
887.87014652350001
 21
-239.7593098433
 31
0.0
  0
LINE
  5
117
  8
0
 62
     0
 10
871.37014652350013
 20
-249.2593099483
 30
0.0
 11
871.37014652350013
 21
-239.7593098433
 31
0.0
  0
LINE
  5
118
  8
0
 62
     0
 10
887.87014652350001
 20
-240.2593098433
 30
0.0
 11
884.91181303120004
 21
-240.2593098433
 31
0.0
  0
LINE
  5
119
  8
0
 62
     0
 10
887.87014652350001
 20
-240.2593098433
 30
0.0
 11
874.32848001570005
 21
-240.2593098433
 31
0.0
  0
LINE
  5
11A
  8
0
 62
     0
 10
871.37014652350013
 20
-240.2593098433
 30
0.0
 11
884.91181303120004
 21
-240.2593098433
 31
0.0
  0
LINE
  5
11B
  8
0
 62
     0
 10
871.37014652350013
 20
-240.2593098433
 30
0.0
 11
874.32848001570005
 21
-240.2593098433
 31
0.0
  0
LINE
  5
11C
  8
0
 62
     0
 10
871.37014652350013
 20
-240.2593098433
 30
0.0
 11
868.3701465234999
 21
-240.2593098433
 31
0.0
  0
SOLID
  5
11D
  8
0
 62
     0
 10
871.37014652350013
 20
-240.2593098433
 30
0.0
 11
868.3701465234999
 21
-241.0093098433
 31
0.0
 12
868.3701465234999
 22
-239.5093098433
 32
0.0
 13
869.12014652350001
 23
-240.2593098433
 33
0.0
  0
LINE
  5
11E
  8
0
 62
     0
 10
887.87014652350001
 20
-240.2593098433
 30
0.0
 11
890.8701465234999
 21
-240.2593098433
 31
0.0
  0
SOLID
  5
11F
  8
0
 62
     0
 10
887.87014652350001
 20
-240.2593098433
 30
0.0
 11
890.8701465234999
 21
-239.5093098433
 31
0.0
 12
890.8701465234999
 22
-241.0093098433
 32
0.0
 13
890.12014652350013
 23
-240.2593098433
 33
0.0
  0
ENDBLK
  5
120
  8
0
  0
BLOCK
  8
0
  2
*D3
 70
     1
 10
0.0
 20
0.0
 30
0.0
  3
*D3
  1

  0
TEXT
  5
124
  8
0
 62
     0
 10
860.20770989159996
 20
-238.73014329759999
 30
0.0
 40
2.9986110209999999
  1
(2)
  0
LINE
  5
125
  8
0
 62
     0
 10
871.37014652350013
 20
-249.2593099483
 30
0.0
 11
871.37014652350013
 21
-239.7593099483
 31
0.0
  0
LINE
  5
126
  8
0
 62
     0
 10
868.87014661539979
 20
-251.7593099483
 30
0.0
 11
868.87014661539979
 21
-239.7593099483
 31
0.0
  0
LINE
  5
127
  8
0
 62
     0
 10
871.37014652350013
 20
-240.2593099483
 30
0.0
 11
867.26326523529997
 21
-240.2593099483
 31
0.0
  0
LINE
  5
128
  8
0
 62
     0
 10
871.37014652350013
 20
-240.2593099483
 30
0.0
 11
858.44382105569991
 21
-240.2593099483
 31
0.0
  0
LINE
  5
129
  8
0
 62
     0
 10
868.87014661539979
 20
-240.2593099483
 30
0.0
 11
867.26326523529997
 21
-240.2593099483
 31
0.0
  0
LINE
  5
12A
  8
0
 62
     0
 10
868.87014661539979
 20
-240.2593099483
 30
0.0
 11
858.44382105569991
 21
-240.2593099483
 31
0.0
  0
LINE
  5
12B
  8
0
 62
     0
 10
868.87014661539979
 20
-240.2593099483
 30
0.0
 11
865.8701466153999
 21
-240.2593099483
 31
0.0
  0
SOLID
  5
12C
  8
0
 62
     0
 10
868.87014661539979
 20
-240.2593099483
 30
0.0
 11
865.8701466153999
 21
-241.0093099483
 31
0.0
 12
865.8701466153999
 22
-239.5093099483
 32
0.0
 13
866.6201466153999
 23
-240.2593099483
 33
0.0
  0
LINE
  5
12D
  8
0
 62
     0
 10
871.37014652350013
 20
-240.2593099483
 30
0.0
 11
874.37014652350001
 21
-240.2593099483
 31
0.0
  0
SOLID
  5
12E
  8
0
 62
     0
 10
871.37014652350013
 20
-240.2593099483
 30
0.0
 11
874.37014652350001
 21
-239.5093099483
 31
0.0
 12
874.37014652350001
 22
-241.0093099483
 32
0.0
 13
873.62014652350001
 23
-240.2593099483
 33
0.0
  0
ENDBLK
  5
12F
  8
0
  0
BLOCK
  8
0
  2
*D4
 70
     1
 10
0.0
 20
0.0
 30
0.0
  3
*D4
  1

  0
TEXT
  5
133
  8
0
 62
     0
 10
811.24063215529986
 20
-260.02319879740003
 30
0.0
 40
2.9986110209999999
  1
16
 50
90.0
  0
LINE
  5
134
  8
0
 62
     0
 10
803.76979880609986
 20
-266.25930996149998
 30
0.0
 11
813.26979880609997
 21
-266.25930996149998
 31
0.0
  0
LINE
  5
135
  8
0
 62
     0
 10
795.26979884289995
 20
-250.25930996150001
 30
0.0
 11
813.26979880609997
 21
-250.25930996150001
 31
0.0
  0
LINE
  5
136
  8
0
 62
     0
 10
812.76979880609986
 20
-266.25930996149998
 30
0.0
 11
812.76979880609986
 21
-254.7315322897
 31
0.0
  0
LINE
  5
137
  8
0
 62
     0
 10
812.76979880609986
 20
-266.25930996149998
 30
0.0
 11
812.76979880609986
 21
-261.78708763330002
 31
0.0
  0
LINE
  5
138
  8
0
 62
     0
 10
812.76979880609986
 20
-250.25930996150001
 30
0.0
 11
812.76979880609986
 21
-254.7315322897
 31
0.0
  0
LINE
  5
139
  8
0
 62
     0
 10
812.76979880609986
 20
-250.25930996150001
 30
0.0
 11
812.76979880609986
 21
-261.78708763330002
 31
0.0
  0
LINE
  5
13A
  8
0
 62
     0
 10
812.76979880609986
 20
-250.25930996150001
 30
0.0
 11
812.76979880609986
 21
-253.25930996150001
 31
0.0
  0
SOLID
  5
13B
  8
0
 62
     0
 10
812.76979880609986
 20
-250.25930996150001
 30
0.0
 11
813.51979880609986
 21
-253.25930996150001
 31
0.0
 12
812.01979880609986
 22
-253.25930996150001
 32
0.0
 13
812.76979880609986
 23
-252.50930996150001
 33
0.0
  0
LINE
  5
13C
  8
0
 62
     0
 10
812.76979880609986
 20
-266.25930996149998
 30
0.0
 11
812.76979880609986
 21
-263.25930996149998
 31
0.0
  0
SOLID
  5
13D
  8
0
 62
     0
 10
812.76979880609986
 20
-266.25930996149998
 30
0.0
 11
812.01979880609986
 21
-263.25930996149998
 31
0.0
 12
813.51979880609986
 22
-263.25930996149998
 32
0.0
 13
812.76979880609986
 23
-264.00930996149998
 33
0.0
  0
ENDBLK
  5
13E
  8
0
  0
BLOCK
  8
0
  2
*D5
 70
     1
 10
0.0
 20
0.0
 30
0.0
  3
*D5
  1

  0
TEXT
  5
142
  8
0
 62
     0
 10
776.50645380679987
 20
-239.2156987011
 30
0.0
 40
2.9986110209999999
  1
35
  0
LINE
  5
143
  8
0
 62
     0
 10
795.76979881990007
 20
-260.25930996149998
 30
0.0
 11
795.76979881990007
 21
-240.24486535189999
 31
0.0
  0
LINE
  5
144
  8
0
 62
     0
 10
760.76979881989996
 20
-260.25930996149998
 30
0.0
 11
760.76979881989996
 21
-240.24486535189999
 31
0.0
  0
LINE
  5
145
  8
0
 62
     0
 10
795.76979881990007
 20
-240.74486535189999
 30
0.0
 11
781.79812031450001
 21
-240.74486535189999
 31
0.0
  0
LINE
  5
146
  8
0
 62
     0
 10
795.76979881990007
 20
-240.74486535189999
 30
0.0
 11
774.74256497089993
 21
-240.74486535189999
 31
0.0
  0
LINE
  5
147
  8
0
 62
     0
 10
760.76979881989996
 20
-240.74486535189999
 30
0.0
 11
781.79812031450001
 21
-240.74486535189999
 31
0.0
  0
LINE
  5
148
  8
0
 62
     0
 10
760.76979881989996
 20
-240.74486535189999
 30
0.0
 11
774.74256497089993
 21
-240.74486535189999
 31
0.0
  0
LINE
  5
149
  8
0
 62
     0
 10
760.76979881989996
 20
-240.74486535189999
 30
0.0
 11
763.76979881990007
 21
-240.74486535189999
 31
0.0
  0
SOLID
  5
14A
  8
0
 62
     0
 10
760.76979881989996
 20
-240.74486535189999
 30
0.0
 11
763.76979881990007
 21
-239.99486535189999
 31
0.0
 12
763.76979881990007
 22
-241.49486535189999
 32
0.0
 13
763.01979881989996
 23
-240.74486535189999
 33
0.0
  0
LINE
  5
14B
  8
0
 62
     0
 10
795.76979881990007
 20
-240.74486535189999
 30
0.0
 11
792.76979881990007
 21
-240.74486535189999
 31
0.0
  0
SOLID
  5
14C
  8
0
 62
     0
 10
795.76979881990007
 20
-240.74486535189999
 30
0.0
 11
792.76979881990007
 21
-241.49486535189999
 31
0.0
 12
792.76979881990007
 22
-239.99486535189999
 32
0.0
 13
793.51979881990007
 23
-240.74486535189999
 33
0.0
  0
ENDBLK
  5
14D
  8
0
  0
BLOCK
  8
0
  2
*D6
 70
     1
 10
0.0
 20
0.0
 30
0.0
  3
*D6
  1

  0
TEXT
  5
151
  8
0
 62
     0
 10
776.50590997020004
 20
-278.33297324390003
 30
0.0
 40
2.9986110209999999
  1
49
  0
LINE
  5
152
  8
0
 62
     0
 10
753.76979880609986
 20
-267.25930996149998
 30
0.0
 11
753.76979880609986
 21
-280.36213989459998
 31
0.0
  0
LINE
  5
153
  8
0
 62
     0
 10
802.76979880609986
 20
-267.25930996149998
 30
0.0
 11
802.76979880609986
 21
-280.36213989459998
 31
0.0
  0
LINE
  5
154
  8
0
 62
     0
 10
753.76979880609986
 20
-279.86213989459998
 30
0.0
 11
781.79757647789995
 21
-279.86213989459998
 31
0.0
  0
LINE
  5
155
  8
0
 62
     0
 10
753.76979880609986
 20
-279.86213989459998
 30
0.0
 11
774.74202113429988
 21
-279.86213989459998
 31
0.0
  0
LINE
  5
156
  8
0
 62
     0
 10
802.76979880609986
 20
-279.86213989459998
 30
0.0
 11
781.79757647789995
 21
-279.86213989459998
 31
0.0
  0
LINE
  5
157
  8
0
 62
     0
 10
802.76979880609986
 20
-279.86213989459998
 30
0.0
 11
774.74202113429988
 21
-279.86213989459998
 31
0.0
  0
LINE
  5
158
  8
0
 62
     0
 10
802.76979880609986
 20
-279.86213989459998
 30
0.0
 11
799.76979880609986
 21
-279.86213989459998
 31
0.0
  0
SOLID
  5
159
  8
0
 62
     0
 10
802.76979880609986
 20
-279.86213989459998
 30
0.0
 11
799.76979880609986
 21
-280.61213989459998
 31
0.0
 12
799.76979880609986
 22
-279.11213989459998
 32
0.0
 13
800.51979880609986
 23
-279.86213989459998
 33
0.0
  0
LINE
  5
15A
  8
0
 62
     0
 10
753.76979880609986
 20
-279.86213989459998
 30
0.0
 11
756.76979880609997
 21
-279.86213989459998
 31
0.0
  0
SOLID
  5
15B
  8
0
 62
     0
 10
753.76979880609986
 20
-279.86213989459998
 30
0.0
 11
756.76979880609997
 21
-279.11213989459998
 31
0.0
 12
756.76979880609997
 22
-280.61213989459998
 32
0.0
 13
756.01979880609986
 23
-279.86213989459998
 33
0.0
  0
ENDBLK
  5
15C
  8
0
  0
BLOCK
  8
0
  2
*D7
 70
     1
 10
0.0
 20
0.0
 30
0.0
  3
*D7
  1

  0
TEXT
  5
160
  8
0
 62
     0
 10
742.24063215529986
 20
-264.64125437939998
 30
0.0
 40
2.9986110209999999
  1
5
 50
90.0
  0
LINE
  5
161
  8
0
 62
     0
 10
753.26979900899994
 20
-261.25930996150009
 30
0.0
 11
743.26979880609997
 21
-261.25930996150009
 31
0.0
  0
LINE
  5
162
  8
0
 62
     0
 10
752.76979880609986
 20
-266.25930996149998
 30
0.0
 11
743.26979880609997
 21
-266.25930996149998
 31
0.0
  0
LINE
  5
163
  8
0
 62
     0
 10
743.76979880609997
 20
-261.25930996150009
 30
0.0
 11
743.76979880609997
 21
-261.25930996150009
 31
0.0
  0
LINE
  5
164
  8
0
 62
     0
 10
743.76979880609997
 20
-261.25930996150009
 30
0.0
 11
743.76979880609997
 21
-266.25930996149998
 31
0.0
  0
LINE
  5
165
  8
0
 62
     0
 10
743.76979880609997
 20
-266.25930996149998
 30
0.0
 11
743.76979880609997
 21
-261.25930996150009
 31
0.0
  0
LINE
  5
166
  8
0
 62
     0
 10
743.76979880609997
 20
-266.25930996149998
 30
0.0
 11
743.76979880609997
 21
-266.25930996149998
 31
0.0
  0
LINE
  5
167
  8
0
 62
     0
 10
743.76979880609997
 20
-266.25930996149998
 30
0.0
 11
743.76979880609997
 21
-269.25930996149998
 31
0.0
  0
SOLID
  5
168
  8
0
 62
     0
 10
743.76979880609997
 20
-266.25930996149998
 30
0.0
 11
744.51979880609986
 21
-269.25930996149998
 31
0.0
 12
743.01979880609986
 22
-269.25930996149998
 32
0.0
 13
743.76979880609997
 23
-268.50930996149998
 33
0.0
  0
LINE
  5
169
  8
0
 62
     0
 10
743.76979880609997
 20
-261.25930996150009
 30
0.0
 11
743.76979880609997
 21
-258.25930996149998
 31
0.0
  0
SOLID
  5
16A
  8
0
 62
     0
 10
743.76979880609997
 20
-261.25930996150009
 30
0.0
 11
743.01979880609986
 21
-258.25930996149998
 31
0.0
 12
744.51979880609986
 22
-258.25930996149998
 32
0.0
 13
743.76979880609997
 23
-259.00930996149998
 33
0.0
  0
ENDBLK
  5
16B
  8
0
  0
BLOCK
  8
0
  2
*D8
 70
     1
 10
0.0
 20
0.0
 30
0.0
  3
*D8
  1

  0
TEXT
  5
180
  8
0
 62
     0
 10
776.75048932649986
 20
-160.63498736139999
 30
0.0
 40
2.9986110209999999
  1
41
  0
LINE
  5
181
  8
0
 62
     0
 10
798.76979872799996
 20
-178.65440936799999
 30
0.0
 11
798.76979872799996
 21
-161.6641540121
 31
0.0
  0
LINE
  5
182
  8
0
 62
     0
 10
757.76979872799996
 20
-178.6544099624
 30
0.0
 11
757.76979872799996
 21
-161.6641540121
 31
0.0
  0
LINE
  5
183
  8
0
 62
     0
 10
798.76979872799996
 20
-162.1641540121
 30
0.0
 11
782.04215583419989
 21
-162.1641540121
 31
0.0
  0
LINE
  5
184
  8
0
 62
     0
 10
798.76979872799996
 20
-162.1641540121
 30
0.0
 11
774.98660049059993
 21
-162.1641540121
 31
0.0
  0
LINE
  5
185
  8
0
 62
     0
 10
757.76979872799996
 20
-162.1641540121
 30
0.0
 11
782.04215583419989
 21
-162.1641540121
 31
0.0
  0
LINE
  5
186
  8
0
 62
     0
 10
757.76979872799996
 20
-162.1641540121
 30
0.0
 11
774.98660049059993
 21
-162.1641540121
 31
0.0
  0
LINE
  5
187
  8
0
 62
     0
 10
757.76979872799996
 20
-162.1641540121
 30
0.0
 11
760.76979872799996
 21
-162.1641540121
 31
0.0
  0
SOLID
  5
188
  8
0
 62
     0
 10
757.76979872799996
 20
-162.1641540121
 30
0.0
 11
760.76979872799996
 21
-161.4141540121
 31
0.0
 12
760.76979872799996
 22
-162.9141540121
 32
0.0
 13
760.01979872799996
 23
-162.1641540121
 33
0.0
  0
LINE
  5
189
  8
0
 62
     0
 10
798.76979872799996
 20
-162.1641540121
 30
0.0
 11
795.76979872799996
 21
-162.1641540121
 31
0.0
  0
SOLID
  5
18A
  8
0
 62
     0
 10
798.76979872799996
 20
-162.1641540121
 30
0.0
 11
795.76979872799996
 21
-162.9141540121
 31
0.0
 12
795.76979872799996
 22
-161.4141540121
 32
0.0
 13
796.51979872799996
 23
-162.1641540121
 33
0.0
  0
ENDBLK
  5
18B
  8
0
  0
BLOCK
  8
0
  2
*D9
 70
     1
 10
0.0
 20
0.0
 30
0.0
  3
*D9
  1

  0
TEXT
  5
18F
  8
0
 62
     0
 10
813.24643995380006
 20
-185.03635378589999
 30
0.0
 40
2.9986110209999999
  1
6
 50
90.0
  0
LINE
  5
190
  8
0
 62
     0
 10
799.76979872799996
 20
-187.15440936799999
 30
0.0
 11
815.27560660459994
 21
-187.15440936799999
 31
0.0
  0
LINE
  5
191
  8
0
 62
     0
 10
799.76979872799996
 20
-181.15440936799999
 30
0.0
 11
815.27560660459994
 21
-181.15440936799999
 31
0.0
  0
LINE
  5
192
  8
0
 62
     0
 10
814.77560660459994
 20
-187.15440936799999
 30
0.0
 11
814.77560660459994
 21
-181.50857611410001
 31
0.0
  0
LINE
  5
193
  8
0
 62
     0
 10
814.77560660459994
 20
-187.15440936799999
 30
0.0
 11
814.77560660459994
 21
-186.80024262180001
 31
0.0
  0
LINE
  5
194
  8
0
 62
     0
 10
814.77560660459994
 20
-181.15440936799999
 30
0.0
 11
814.77560660459994
 21
-181.50857611410001
 31
0.0
  0
LINE
  5
195
  8
0
 62
     0
 10
814.77560660459994
 20
-181.15440936799999
 30
0.0
 11
814.77560660459994
 21
-186.80024262180001
 31
0.0
  0
LINE
  5
196
  8
0
 62
     0
 10
814.77560660459994
 20
-181.15440936799999
 30
0.0
 11
814.77560660459994
 21
-178.15440936799999
 31
0.0
  0
SOLID
  5
197
  8
0
 62
     0
 10
814.77560660459994
 20
-181.15440936799999
 30
0.0
 11
814.02560660460006
 21
-178.15440936799999
 31
0.0
 12
815.52560660459994
 22
-178.15440936799999
 32
0.0
 13
814.77560660459994
 23
-178.90440936799999
 33
0.0
  0
LINE
  5
198
  8
0
 62
     0
 10
814.77560660459994
 20
-187.15440936799999
 30
0.0
 11
814.77560660459994
 21
-190.15440936799999
 31
0.0
  0
SOLID
  5
199
  8
0
 62
     0
 10
814.77560660459994
 20
-187.15440936799999
 30
0.0
 11
815.52560660459994
 21
-190.15440936799999
 31
0.0
 12
814.02560660460006
 22
-190.15440936799999
 32
0.0
 13
814.77560660459994
 23
-189.4044093679999
 33
0.0
  0
ENDBLK
  5
19A
  8
0
  0
BLOCK
  8
0
  2
*D10
 70
     1
 10
0.0
 20
0.0
 30
0.0
  3
*D10
  1

  0
TEXT
  5
19E
  8
0
 62
     0
 10
803.45272228329998
 20
-167.7261945045
 30
0.0
 40
2.9986110209999999
  1
3.5
  0
LINE
  5
19F
  8
0
 62
     0
 10
800.51979872799996
 20
-179.40440900679999
 30
0.0
 11
800.51979872799996
 21
-168.75536115520001
 31
0.0
  0
LINE
  5
1A0
  8
0
 62
     0
 10
797.01979872799996
 20
-179.40440911190001
 30
0.0
 11
797.01979872799996
 21
-168.75536115520001
 31
0.0
  0
LINE
  5
1A1
  8
0
 62
     0
 10
800.51979872799996
 20
-169.25536115520001
 30
0.0
 11
810.50827762699998
 21
-169.25536115520001
 31
0.0
  0
LINE
  5
1A2
  8
0
 62
     0
 10
800.51979872799996
 20
-169.25536115520001
 30
0.0
 11
801.68883344740004
 21
-169.25536115520001
 31
0.0
  0
LINE
  5
1A3
  8
0
 62
     0
 10
797.01979872799996
 20
-169.25536115520001
 30
0.0
 11
810.50827762699998
 21
-169.25536115520001
 31
0.0
  0
LINE
  5
1A4
  8
0
 62
     0
 10
797.01979872799996
 20
-169.25536115520001
 30
0.0
 11
801.68883344740004
 21
-169.25536115520001
 31
0.0
  0
LINE
  5
1A5
  8
0
 62
     0
 10
797.01979872799996
 20
-169.25536115520001
 30
0.0
 11
794.01979872800007
 21
-169.25536115520001
 31
0.0
  0
SOLID
  5
1A6
  8
0
 62
     0
 10
797.01979872799996
 20
-169.25536115520001
 30
0.0
 11
794.01979872800007
 21
-170.00536115520001
 31
0.0
 12
794.01979872800007
 22
-168.50536115520001
 32
0.0
 13
794.76979872799996
 23
-169.25536115520001
 33
0.0
  0
LINE
  5
1A7
  8
0
 62
     0
 10
800.51979872799996
 20
-169.25536115520001
 30
0.0
 11
803.51979872799996
 21
-169.25536115520001
 31
0.0
  0
SOLID
  5
1A8
  8
0
 62
     0
 10
800.51979872799996
 20
-169.25536115520001
 30
0.0
 11
803.51979872799996
 21
-168.50536115520001
 31
0.0
 12
803.51979872799996
 22
-170.00536115520001
 32
0.0
 13
802.76979872800007
 23
-169.25536115520001
 33
0.0
  0
ENDBLK
  5
1A9
  8
0
  0
BLOCK
  8
0
  2
*U11
 70
     1
 10
0.0
 20
0.0
 30
0.0
  3
*U11
  1

  0
TEXT
  5
1F0
  8
図枠
  6
CONTINUOUS
 10
903.90118779487523
 20
-301.70585952652641
 30
0.0
 40
2.337266249999999
  1
園 原
  0
ENDBLK
  5
1F2
  8
0
  0
BLOCK
  8
0
  2
*U12
 70
     1
 10
0.0
 20
0.0
 30
0.0
  3
*U12
  1

  0
TEXT
  5
1F4
  8
図枠
  6
CONTINUOUS
 10
917.43791157942076
 20
-129.37147621299241
 30
0.0
 40
2.698480084499999
  1
改　訂　内　容
  0
ENDBLK
  5
1F6
  8
0
  0
BLOCK
  8
0
  2
*U13
 70
     1
 10
0.0
 20
0.0
 30
0.0
  3
*U13
  1

  0
TEXT
  5
1F8
  8
図枠
  6
CONTINUOUS
 10
903.90118779487523
 20
-305.9554345265264
 30
0.0
 40
2.337266249999999
  1
園 原
  0
ENDBLK
  5
1FA
  8
0
  0
BLOCK
  8
0
  2
*U14
 70
     1
 10
0.0
 20
0.0
 30
0.0
  3
*U14
  1

  0
TEXT
  5
1FC
  8
図枠
  6
CONTINUOUS
 10
888.5098336832001
 20
-301.75331670926749
 30
0.0
 40
2.337266249999999
  1
 照査
  0
ENDBLK
  5
1FE
  8
0
  0
BLOCK
  8
0
  2
*U15
 70
     1
 10
0.0
 20
0.0
 30
0.0
  3
*U15
  1

  0
TEXT
  5
200
  8
図枠
  6
CONTINUOUS
 10
885.62087768383469
 20
-297.39696304810002
 30
0.0
 40
2.337266249999999
  1
1：1
  0
ENDBLK
  5
202
  8
0
  0
BLOCK
  8
0
  2
*U16
 70
     1
 10
0.0
 20
0.0
 30
0.0
  3
*U16
  1

  0
TEXT
  5
204
  8
図枠
  6
CONTINUOUS
 10
873.89232349918996
 20
-306.03848459632343
 30
0.0
 40
2.337266249999999
  1
岸 本
  0
ENDBLK
  5
206
  8
0
  0
BLOCK
  8
0
  2
*U17
 70
     1
 10
0.0
 20
0.0
 30
0.0
  3
*U17
  1

  0
TEXT
  5
208
  8
図枠
  6
CONTINUOUS
 10
858.51283368319991
 20
-301.74145241358229
 30
0.0
 40
2.337266249999999
  1
 設計
  0
ENDBLK
  5
20A
  8
0
  0
BLOCK
  8
0
  2
*U18
 70
     1
 10
0.0
 20
0.0
 30
0.0
  3
*U18
  1

  0
TEXT
  5
20C
  8
図枠
  6
CONTINUOUS
 10
883.33106861657575
 20
-293.26603100495282
 30
0.0
 40
2.337266249999999
  1
尺 　度
  0
ENDBLK
  5
20E
  8
0
  0
BLOCK
  8
0
  2
*U19
 70
     1
 10
0.0
 20
0.0
 30
0.0
  3
*U19
  1

  0
TEXT
  5
210
  8
図枠
  6
CONTINUOUS
 10
864.69746262038279
 20
-297.39696304810002
 30
0.0
 40
2.337266249999999
  1
H16.4
  0
ENDBLK
  5
212
  8
0
  0
BLOCK
  8
0
  2
*U20
 70
     1
 10
0.0
 20
0.0
 30
0.0
  3
*U20
  1

  0
TEXT
  5
214
  8
図枠
  6
CONTINUOUS
 10
862.73296535259999
 20
-313.38810381820662
 30
0.0
 40
4.3175681352000002
  1
株式会社
  0
ENDBLK
  5
216
  8
0
  0
BLOCK
  8
0
  2
*U21
 70
     1
 10
0.0
 20
0.0
 30
0.0
  3
*U21
  1

  0
TEXT
  5
218
  8
ﾚｲﾔ_1
  6
CONTINUOUS
 10
858.48193298080002
 20
-288.0119122290036
 30
0.0
 40
3.5983331442000002
  1
色：白・茶
  0
ENDBLK
  5
21A
  8
0
  0
BLOCK
  8
0
  2
*U22
 70
     1
 10
0.0
 20
0.0
 30
0.0
  3
*U22
  1

  0
TEXT
  5
21C
  8
図枠
  6
CONTINUOUS
 10
863.58221882596661
 20
-293.19484523084111
 30
0.0
 40
2.337266249999999
  1
日 　付
  0
ENDBLK
  5
21E
  8
0
  0
BLOCK
  8
0
  2
*U23
 70
     1
 10
0.0
 20
0.0
 30
0.0
  3
*U23
  1

  0
TEXT
  5
220
  8
図枠
  6
CONTINUOUS
 10
891.36548408051101
 20
-129.34408047609389
 30
0.0
 40
2.698480084499999
  1
改訂日
  0
ENDBLK
  5
222
  8
0
  0
BLOCK
  8
0
  2
*U24
 70
     1
 10
0.0
 20
0.0
 30
0.0
  3
*U24
  1

  0
TEXT
  5
224
  8
図枠
  6
CONTINUOUS
 10
941.14725316441172
 20
-304.14775101831418
 30
0.0
 40
2.9983111599000001
  1
７５ 承認図
  0
ENDBLK
  5
226
  8
0
  0
BLOCK
  8
0
  2
*U25
 70
     1
 10
0.0
 20
0.0
 30
0.0
  3
*U25
  1

  0
TEXT
  5
228
  8
図枠
  6
CONTINUOUS
 10
873.19233005375838
 20
-301.77704530063812
 30
0.0
 40
2.337266249999999
  1
白須賀
  0
ENDBLK
  5
22A
  8
0
  0
BLOCK
  8
0
  2
*U26
 70
     1
 10
0.0
 20
0.0
 30
0.0
  3
*U26
  1

  0
TEXT
  5
22C
  8
図枠
  6
CONTINUOUS
 10
888.5098336832001
 20
-306.02662030063811
 30
0.0
 40
2.337266249999999
  1
 検図
  0
ENDBLK
  5
22E
  8
0
  0
BLOCK
  8
0
  2
*U27
 70
     1
 10
0.0
 20
0.0
 30
0.0
  3
*U27
  1

  0
TEXT
  5
230
  8
図枠
  6
CONTINUOUS
 10
918.79624001885986
 20
-301.53593955948219
 30
0.0
 40
2.337266249999999
  1
図面名
  0
ENDBLK
  5
232
  8
0
  0
BLOCK
  8
0
  2
*U28
 70
     1
 10
0.0
 20
0.0
 30
0.0
  3
*U28
  1

  0
TEXT
  5
234
  8
図枠
  6
CONTINUOUS
 10
941.51252965089702
 20
-293.82983793942481
 30
0.0
 40
2.9983111599000001
  1
ねじ止め式
  0
TEXT
  5
235
  8
図枠
  6
CONTINUOUS
 10
926.01871868247952
 20
-299.13142027799591
 30
0.0
 40
2.9983111599000001
  1
マグネットキャッチ〈角型〉
  0
ENDBLK
  5
237
  8
0
  0
BLOCK
  8
0
  2
*U29
 70
     1
 10
0.0
 20
0.0
 30
0.0
  3
*U29
  1

  0
TEXT
  5
239
  8
図枠
  6
CONTINUOUS
 10
935.79747462276248
 20
-312.58602160390012
 30
0.0
 40
2.9983111599000001
  1
ＳＦＣ０００１１
  0
ENDBLK
  5
23B
  8
0
  0
BLOCK
  8
0
  2
*U30
 70
     1
 10
0.0
 20
0.0
 30
0.0
  3
*U30
  1

  0
TEXT
  5
23D
  8
図枠
  6
CONTINUOUS
 10
918.73098639259092
 20
-293.06051815085277
 30
0.0
 40
2.337266249999999
  1
製品名
  0
ENDBLK
  5
23F
  8
0
  0
BLOCK
  8
0
  2
*U31
 70
     1
 10
0.0
 20
0.0
 30
0.0
  3
*U31
  1

  0
TEXT
  5
241
  8
ﾚｲﾔ_1
  6
CONTINUOUS
 10
921.07350576889985
 20
-283.7183926025852
 30
0.0
 40
3.5983331442000002
  1
本体ビス：3x13　＋　Ｗ付
  0
TEXT
  5
242
  8
ﾚｲﾔ_1
  6
CONTINUOUS
 10
921.07350576889985
 20
-290.06266186867049
 30
0.0
 40
3.5983331442000002
  1
受板ビス：2.7x13
  0
ENDBLK
  5
244
  8
0
  0
BLOCK
  8
0
  2
*U32
 70
     1
 10
0.0
 20
0.0
 30
0.0
  3
*U32
  1

  0
TEXT
  5
246
  8
図枠
  6
CONTINUOUS
 10
859.91415292812383
 20
-306.0147560049528
 30
0.0
 40
2.337266249999999
  1
製図
  0
ENDBLK
  5
248
  8
0
  0
BLOCK
  8
0
  2
*U33
 70
     1
 10
0.0
 20
0.0
 30
0.0
  3
*U33
  1

  0
TEXT
  5
24A
  8
図枠
  6
CONTINUOUS
 10
881.13370911046286
 20
-129.31668473919541
 30
0.0
 40
2.698480084499999
  1
副番
  0
ENDBLK
  5
24C
  8
0
  0
BLOCK
  8
0
  2
*U34
 70
     1
 10
0.0
 20
0.0
 30
0.0
  3
*U34
  1

  0
TEXT
  5
24E
  8
図枠
  6
CONTINUOUS
 10
954.50301169922795
 20
-129.37147621299241
 30
0.0
 40
2.698480084499999
  1
改訂者
  0
ENDBLK
  5
250
  8
0
  0
BLOCK
  8
0
  2
*U35
 70
     1
 10
0.0
 20
0.0
 30
0.0
  3
*U35
  1

  0
TEXT
  5
252
  8
図枠
  6
CONTINUOUS
 10
964.4609180938802
 20
-129.38517408144159
 30
0.0
 40
2.698480084499999
  1
検認者
  0
ENDBLK
  5
254
  8
0
  0
BLOCK
  8
0
  2
*U36
 70
     1
 10
0.0
 20
0.0
 30
0.0
  3
*U36
  1

  0
TEXT
  5
256
  8
図枠
  6
CONTINUOUS
 10
918.78437572317455
 20
-310.01136096811172
 30
0.0
 40
2.337266249999999
  1
図　番
  0
ENDBLK
  5
258
  8
0
  0
BLOCK
  8
0
  2
*U37
 70
     1
 10
0.0
 20
0.0
 30
0.0
  3
*U37
  1

  0
TEXT
  5
25A
  8
ﾚｲﾔ_1
  6
CONTINUOUS
 10
883.12995004379991
 20
-170.13057266785231
 30
0.0
 40
2.9986110209999999
  1
受板
  0
ENDBLK
  5
25C
  8
0
  0
BLOCK
  8
0
  2
*U38
 70
     1
 10
0.0
 20
0.0
 30
0.0
  3
*U38
  1

  0
TEXT
  5
25E
  8
ﾚｲﾔ_1
  6
CONTINUOUS
 10
929.96532823389987
 20
-178.91183878488121
 30
0.0
 40
2.9986110209999999
  1
皿ビス用皿穴
  0
ENDBLK
  5
260
  8
0
  0
BLOCK
  8
0
  2
*U39
 70
     1
 10
0.0
 20
0.0
 30
0.0
  3
*U39
  1

  0
TEXT
  5
262
  8
ﾚｲﾔ_1
  6
CONTINUOUS
 10
936.7163034358
 20
-193.90739672890001
 30
0.0
 40
2.9986110209999999
  1
ｔ1.5
  0
ENDBLK
  5
264
  8
0
  0
ENDSEC
  0
SECTION
  2
ENTITIES
  0
LINE
  5
2F
  8
図枠
 10
907.60759604909993
 20
-309.83454738440003
 30
0.0
 11
909.60632948910006
 21
-309.83454738440003
 31
0.0
  0
LINE
  5
30
  8
図枠
 62
     5
 10
880.51063368320001
 20
-130.620608944
 30
0.0
 11
974.5012336832001
 21
-130.620608944
 31
0.0
  0
LINE
  5
31
  8
図枠
 62
     5
 10
880.51063368320001
 20
-135.62010894400001
 30
0.0
 11
974.5012336832001
 21
-135.62010894400001
 31
0.0
  0
INSERT
  5
32
  8
0
  6
CONTINUOUS
  2
*U11
 10
0.0
 20
0.0
 30
0.0
  0
LINE
  5
33
  8
図枠
 10
910.96726004909999
 20
-314.47408338439999
 30
0.0
 11
913.20703604909988
 21
-314.47408338439999
 31
0.0
  0
LINE
  5
34
  8
図枠
 10
914.80687604909997
 20
-311.91433938440002
 30
0.0
 11
914.80687604909997
 21
-313.35419538439999
 31
0.0
  0
LINE
  5
35
  8
図枠
 10
913.20703604909988
 20
-314.47408338439999
 30
0.0
 11
912.88477174059994
 21
-313.35419538439999
 31
0.0
  0
LINE
  5
36
  8
図枠
 10
912.88477174059994
 20
-313.35419538439999
 30
0.0
 11
914.80687604909997
 21
-313.35419538439999
 31
0.0
  0
LINE
  5
37
  8
図枠
 10
910.96726004909999
 20
-314.47408338439999
 30
0.0
 11
910.63875956909999
 21
-313.35419538439999
 31
0.0
  0
LINE
  5
38
  8
図枠
 10
905.83378732910001
 20
-312.87424338440002
 30
0.0
 11
905.83378732910001
 21
-314.07412338440002
 31
0.0
  0
LINE
  5
39
  8
図枠
 10
918.50683368320006
 20
-290.10465894399999
 30
0.0
 11
918.50683368320006
 21
-315.60210894400001
 31
0.0
  0
ARC
  5
3A
  8
図枠
 10
900.63430732910012
 20
-309.67456338440002
 30
0.0
 40
4.3995600000000001
 50
270.0
 51
302.54495885400001
  0
LINE
  5
3B
  8
図枠
 10
907.60759604909993
 20
-311.91433938440002
 30
0.0
 11
907.60759604909993
 21
-313.35419538439999
 31
0.0
  0
LINE
  5
3C
  8
図枠
 10
907.60759604909993
 20
-313.35419538439999
 30
0.0
 11
910.63875956909999
 21
-313.35419538439999
 31
0.0
  0
CIRCLE
  5
3D
  8
図枠
 10
904.57222728320005
 20
-294.35423394399999
 30
0.0
 40
1.151884799999999
  0
ARC
  5
3E
  8
図枠
 10
899.59441132910013
 20
-309.83454738440003
 30
0.0
 40
3.0396959999999988
 50
270.0
 51
298.08590481520002
  0
LINE
  5
3F
  8
図枠
 10
898.63450732910007
 20
-312.87424338440002
 30
0.0
 11
898.63450732910007
 21
-314.07412338440002
 31
0.0
  0
LINE
  5
40
  8
図枠
 10
909.83818144639997
 20
-293.20234914399998
 30
0.0
 11
914.44572064639999
 21
-292.05046434400009
 31
0.0
  0
INSERT
  5
41
  8
0
  6
CONTINUOUS
  2
*U12
 10
0.0
 20
0.0
 30
0.0
  0
LINE
  5
42
  8
図枠
 10
909.83818144639997
 20
-293.20234914399998
 30
0.0
 11
914.44572064639999
 21
-292.05046434400009
 31
0.0
  0
LINE
  5
43
  8
図枠
 10
909.83818144639997
 20
-295.50611874399999
 30
0.0
 11
914.44572064639999
 21
-296.658003544
 31
0.0
  0
LINE
  5
44
  8
図枠
 10
910.21640180910003
 20
-311.91433938440002
 30
0.0
 11
910.02868724910002
 21
-311.27440338439999
 31
0.0
  0
LINE
  5
45
  8
図枠
 10
909.83818144639997
 20
-293.20234914399998
 30
0.0
 11
909.83818144639997
 21
-295.50611874399999
 31
0.0
  0
LINE
  5
46
  8
図枠
 10
909.83818144639997
 20
-295.50611874399999
 30
0.0
 11
914.44572064639999
 21
-296.658003544
 31
0.0
  0
LINE
  5
47
  8
図枠
 10
909.83818144639997
 20
-295.50611874399999
 30
0.0
 11
914.44572064639999
 21
-296.658003544
 31
0.0
  0
LINE
  5
48
  8
図枠
 10
909.83818144639997
 20
-293.20234914399998
 30
0.0
 11
914.44572064639999
 21
-292.05046434400009
 31
0.0
  0
LINE
  5
49
  8
図枠
  6
BORDER
 10
904.57222728320005
 20
-290.89857954399997
 30
0.0
 11
904.57222728320005
 21
-297.809888344
 31
0.0
  0
LINE
  5
4A
  8
図枠
 10
901.8341873290999
 20
-310.33218582950002
 30
0.0
 11
901.38168424399998
 21
-310.78468891469998
 31
0.0
  0
LINE
  5
4B
  8
図枠
  6
DOT
 10
693.52933368320009
 20
-321.3515339440001
 30
0.0
 11
980.50063368320014
 21
-321.3515339440001
 31
0.0
  0
LINE
  5
4C
  8
図枠
 62
     5
 10
699.5287336831999
 20
-315.60210894400001
 30
0.0
 11
974.5012336832001
 21
-315.60210894400001
 31
0.0
  0
LINE
  5
4D
  8
図枠
 10
889.70691532910007
 20
-314.07412338440002
 30
0.0
 11
892.9065953290999
 21
-314.07412338440002
 31
0.0
  0
LINE
  5
4E
  8
図枠
 10
898.63450732910007
 20
-314.07412338440002
 30
0.0
 11
900.63430732910012
 21
-314.07412338440002
 31
0.0
  0
LINE
  5
4F
  8
図枠
 10
898.63450732910007
 20
-314.07412338440002
 30
0.0
 11
898.63450732910007
 21
-312.87424338440002
 31
0.0
  0
LINE
  5
50
  8
図枠
 10
909.83818144639997
 20
-293.20234914399998
 30
0.0
 11
914.44572064639999
 21
-292.05046434400009
 31
0.0
  0
LINE
  5
51
  8
図枠
  6
BORDER
 10
901.11657288320009
 20
-294.35423394399999
 30
0.0
 11
915.89909448319997
 21
-294.35423394399999
 31
0.0
  0
POLYLINE
  8
図枠
  5
265
  66
     1
 10
0.000000
 20
0.000000
 30
0.000000
  70
     8
  0
VERTEX
  8
図枠
  5
266
 10
898.635
 20
-310.590
 30
0.000000
  70
    32
  0
VERTEX
  8
図枠
  5
267
 10
898.649
 20
-310.603
 30
0.000000
  70
    32
  0
VERTEX
  8
図枠
  5
268
 10
898.663
 20
-310.616
 30
0.000000
  70
    32
  0
VERTEX
  8
図枠
  5
269
 10
898.678
 20
-310.630
 30
0.000000
  70
    32
  0
VERTEX
  8
図枠
  5
26A
 10
898.692
 20
-310.643
 30
0.000000
  70
    32
  0
VERTEX
  8
図枠
  5
26B
 10
898.707
 20
-310.656
 30
0.000000
  70
    32
  0
VERTEX
  8
図枠
  5
26C
 10
898.721
 20
-310.670
 30
0.000000
  70
    32
  0
VERTEX
  8
図枠
  5
26D
 10
898.735
 20
-310.683
 30
0.000000
  70
    32
  0
VERTEX
  8
図枠
  5
26E
 10
898.750
 20
-310.696
 30
0.000000
  70
    32
  0
VERTEX
  8
図枠
  5
26F
 10
898.764
 20
-310.709
 30
0.000000
  70
    32
  0
VERTEX
  8
図枠
  5
270
 10
898.779
 20
-310.723
 30
0.000000
  70
    32
  0
VERTEX
  8
図枠
  5
271
 10
898.793
 20
-310.736
 30
0.000000
  70
    32
  0
VERTEX
  8
図枠
  5
272
 10
898.807
 20
-310.749
 30
0.000000
  70
    32
  0
VERTEX
  8
図枠
  5
273
 10
898.822
 20
-310.762
 30
0.000000
  70
    32
  0
VERTEX
  8
図枠
  5
274
 10
898.836
 20
-310.776
 30
0.000000
  70
    32
  0
VERTEX
  8
図枠
  5
275
 10
898.851
 20
-310.789
 30
0.000000
  70
    32
  0
VERTEX
  8
図枠
  5
276
 10
898.865
 20
-310.802
 30
0.000000
  70
    32
  0
VERTEX
  8
図枠
  5
277
 10
898.880
 20
-310.815
 30
0.000000
  70
    32
  0
VERTEX
  8
図枠
  5
278
 10
898.894
 20
-310.829
 30
0.000000
  70
    32
  0
VERTEX
  8
図枠
  5
279
 10
898.908
 20
-310.842
 30
0.000000
  70
    32
  0
VERTEX
  8
図枠
  5
27A
 10
898.923
 20
-310.855
 30
0.000000
  70
    32
  0
VERTEX
  8
図枠
  5
27B
 10
898.937
 20
-310.868
 30
0.000000
  70
    32
  0
VERTEX
  8
図枠
  5
27C
 10
898.952
 20
-310.882
 30
0.000000
  70
    32
  0
VERTEX
  8
図枠
  5
27D
 10
898.966
 20
-310.895
 30
0.000000
  70
    32
  0
VERTEX
  8
図枠
  5
27E
 10
898.981
 20
-310.908
 30
0.000000
  70
    32
  0
VERTEX
  8
図枠
  5
27F
 10
898.995
 20
-310.921
 30
0.000000
  70
    32
  0
VERTEX
  8
図枠
  5
280
 10
899.010
 20
-310.934
 30
0.000000
  70
    32
  0
VERTEX
  8
図枠
  5
281
 10
899.024
 20
-310.948
 30
0.000000
  70
    32
  0
VERTEX
  8
図枠
  5
282
 10
899.038
 20
-310.961
 30
0.000000
  70
    32
  0
VERTEX
  8
図枠
  5
283
 10
899.053
 20
-310.974
 30
0.000000
  70
    32
  0
VERTEX
  8
図枠
  5
284
 10
899.067
 20
-310.987
 30
0.000000
  70
    32
  0
VERTEX
  8
図枠
  5
285
 10
899.082
 20
-311.000
 30
0.000000
  70
    32
  0
VERTEX
  8
図枠
  5
286
 10
899.096
 20
-311.013
 30
0.000000
  70
    32
  0
VERTEX
  8
図枠
  5
287
 10
899.111
 20
-311.026
 30
0.000000
  70
    32
  0
VERTEX
  8
図枠
  5
288
 10
899.125
 20
-311.040
 30
0.000000
  70
    32
  0
VERTEX
  8
図枠
  5
289
 10
899.140
 20
-311.053
 30
0.000000
  70
    32
  0
VERTEX
  8
図枠
  5
28A
 10
899.154
 20
-311.066
 30
0.000000
  70
    32
  0
VERTEX
  8
図枠
  5
28B
 10
899.169
 20
-311.079
 30
0.000000
  70
    32
  0
VERTEX
  8
図枠
  5
28C
 10
899.183
 20
-311.092
 30
0.000000
  70
    32
  0
VERTEX
  8
図枠
  5
28D
 10
899.198
 20
-311.105
 30
0.000000
  70
    32
  0
VERTEX
  8
図枠
  5
28E
 10
899.212
 20
-311.118
 30
0.000000
  70
    32
  0
VERTEX
  8
図枠
  5
28F
 10
899.227
 20
-311.131
 30
0.000000
  70
    32
  0
VERTEX
  8
図枠
  5
290
 10
899.241
 20
-311.144
 30
0.000000
  70
    32
  0
VERTEX
  8
図枠
  5
291
 10
899.256
 20
-311.157
 30
0.000000
  70
    32
  0
VERTEX
  8
図枠
  5
292
 10
899.271
 20
-311.170
 30
0.000000
  70
    32
  0
VERTEX
  8
図枠
  5
293
 10
899.285
 20
-311.183
 30
0.000000
  70
    32
  0
VERTEX
  8
図枠
  5
294
 10
899.300
 20
-311.196
 30
0.000000
  70
    32
  0
VERTEX
  8
図枠
  5
295
 10
899.314
 20
-311.209
 30
0.000000
  70
    32
  0
VERTEX
  8
図枠
  5
296
 10
899.329
 20
-311.222
 30
0.000000
  70
    32
  0
VERTEX
  8
図枠
  5
297
 10
899.343
 20
-311.235
 30
0.000000
  70
    32
  0
VERTEX
  8
図枠
  5
298
 10
899.358
 20
-311.248
 30
0.000000
  70
    32
  0
VERTEX
  8
図枠
  5
299
 10
899.373
 20
-311.261
 30
0.000000
  70
    32
  0
VERTEX
  8
図枠
  5
29A
 10
899.387
 20
-311.274
 30
0.000000
  70
    32
  0
VERTEX
  8
図枠
  5
29B
 10
899.402
 20
-311.287
 30
0.000000
  70
    32
  0
VERTEX
  8
図枠
  5
29C
 10
899.416
 20
-311.300
 30
0.000000
  70
    32
  0
VERTEX
  8
図枠
  5
29D
 10
899.431
 20
-311.313
 30
0.000000
  70
    32
  0
VERTEX
  8
図枠
  5
29E
 10
899.446
 20
-311.325
 30
0.000000
  70
    32
  0
VERTEX
  8
図枠
  5
29F
 10
899.460
 20
-311.338
 30
0.000000
  70
    32
  0
VERTEX
  8
図枠
  5
2A0
 10
899.475
 20
-311.351
 30
0.000000
  70
    32
  0
VERTEX
  8
図枠
  5
2A1
 10
899.490
 20
-311.364
 30
0.000000
  70
    32
  0
VERTEX
  8
図枠
  5
2A2
 10
899.504
 20
-311.377
 30
0.000000
  70
    32
  0
VERTEX
  8
図枠
  5
2A3
 10
899.519
 20
-311.390
 30
0.000000
  70
    32
  0
VERTEX
  8
図枠
  5
2A4
 10
899.534
 20
-311.402
 30
0.000000
  70
    32
  0
VERTEX
  8
図枠
  5
2A5
 10
899.548
 20
-311.415
 30
0.000000
  70
    32
  0
VERTEX
  8
図枠
  5
2A6
 10
899.563
 20
-311.428
 30
0.000000
  70
    32
  0
VERTEX
  8
図枠
  5
2A7
 10
899.578
 20
-311.440
 30
0.000000
  70
    32
  0
VERTEX
  8
図枠
  5
2A8
 10
899.593
 20
-311.453
 30
0.000000
  70
    32
  0
VERTEX
  8
図枠
  5
2A9
 10
899.607
 20
-311.466
 30
0.000000
  70
    32
  0
VERTEX
  8
図枠
  5
2AA
 10
899.622
 20
-311.478
 30
0.000000
  70
    32
  0
VERTEX
  8
図枠
  5
2AB
 10
899.637
 20
-311.491
 30
0.000000
  70
    32
  0
VERTEX
  8
図枠
  5
2AC
 10
899.652
 20
-311.504
 30
0.000000
  70
    32
  0
VERTEX
  8
図枠
  5
2AD
 10
899.666
 20
-311.516
 30
0.000000
  70
    32
  0
VERTEX
  8
図枠
  5
2AE
 10
899.681
 20
-311.529
 30
0.000000
  70
    32
  0
VERTEX
  8
図枠
  5
2AF
 10
899.696
 20
-311.541
 30
0.000000
  70
    32
  0
VERTEX
  8
図枠
  5
2B0
 10
899.711
 20
-311.554
 30
0.000000
  70
    32
  0
VERTEX
  8
図枠
  5
2B1
 10
899.726
 20
-311.566
 30
0.000000
  70
    32
  0
VERTEX
  8
図枠
  5
2B2
 10
899.740
 20
-311.579
 30
0.000000
  70
    32
  0
VERTEX
  8
図枠
  5
2B3
 10
899.755
 20
-311.591
 30
0.000000
  70
    32
  0
VERTEX
  8
図枠
  5
2B4
 10
899.770
 20
-311.604
 30
0.000000
  70
    32
  0
VERTEX
  8
図枠
  5
2B5
 10
899.785
 20
-311.616
 30
0.000000
  70
    32
  0
VERTEX
  8
図枠
  5
2B6
 10
899.800
 20
-311.629
 30
0.000000
  70
    32
  0
VERTEX
  8
図枠
  5
2B7
 10
899.815
 20
-311.641
 30
0.000000
  70
    32
  0
VERTEX
  8
図枠
  5
2B8
 10
899.830
 20
-311.653
 30
0.000000
  70
    32
  0
VERTEX
  8
図枠
  5
2B9
 10
899.845
 20
-311.666
 30
0.000000
  70
    32
  0
VERTEX
  8
図枠
  5
2BA
 10
899.860
 20
-311.678
 30
0.000000
  70
    32
  0
VERTEX
  8
図枠
  5
2BB
 10
899.874
 20
-311.690
 30
0.000000
  70
    32
  0
VERTEX
  8
図枠
  5
2BC
 10
899.889
 20
-311.703
 30
0.000000
  70
    32
  0
VERTEX
  8
図枠
  5
2BD
 10
899.904
 20
-311.715
 30
0.000000
  70
    32
  0
VERTEX
  8
図枠
  5
2BE
 10
899.919
 20
-311.727
 30
0.000000
  70
    32
  0
VERTEX
  8
図枠
  5
2BF
 10
899.934
 20
-311.739
 30
0.000000
  70
    32
  0
VERTEX
  8
図枠
  5
2C0
 10
899.949
 20
-311.752
 30
0.000000
  70
    32
  0
VERTEX
  8
図枠
  5
2C1
 10
899.964
 20
-311.764
 30
0.000000
  70
    32
  0
VERTEX
  8
図枠
  5
2C2
 10
899.979
 20
-311.776
 30
0.000000
  70
    32
  0
VERTEX
  8
図枠
  5
2C3
 10
899.994
 20
-311.788
 30
0.000000
  70
    32
  0
VERTEX
  8
図枠
  5
2C4
 10
900.010
 20
-311.800
 30
0.000000
  70
    32
  0
VERTEX
  8
図枠
  5
2C5
 10
900.025
 20
-311.812
 30
0.000000
  70
    32
  0
VERTEX
  8
図枠
  5
2C6
 10
900.040
 20
-311.824
 30
0.000000
  70
    32
  0
VERTEX
  8
図枠
  5
2C7
 10
900.055
 20
-311.836
 30
0.000000
  70
    32
  0
VERTEX
  8
図枠
  5
2C8
 10
900.070
 20
-311.848
 30
0.000000
  70
    32
  0
VERTEX
  8
図枠
  5
2C9
 10
900.085
 20
-311.860
 30
0.000000
  70
    32
  0
VERTEX
  8
図枠
  5
2CA
 10
900.100
 20
-311.872
 30
0.000000
  70
    32
  0
VERTEX
  8
図枠
  5
2CB
 10
900.115
 20
-311.884
 30
0.000000
  70
    32
  0
VERTEX
  8
図枠
  5
2CC
 10
900.131
 20
-311.896
 30
0.000000
  70
    32
  0
VERTEX
  8
図枠
  5
2CD
 10
900.146
 20
-311.907
 30
0.000000
  70
    32
  0
VERTEX
  8
図枠
  5
2CE
 10
900.161
 20
-311.919
 30
0.000000
  70
    32
  0
VERTEX
  8
図枠
  5
2CF
 10
900.176
 20
-311.931
 30
0.000000
  70
    32
  0
VERTEX
  8
図枠
  5
2D0
 10
900.191
 20
-311.943
 30
0.000000
  70
    32
  0
VERTEX
  8
図枠
  5
2D1
 10
900.207
 20
-311.954
 30
0.000000
  70
    32
  0
VERTEX
  8
図枠
  5
2D2
 10
900.222
 20
-311.966
 30
0.000000
  70
    32
  0
VERTEX
  8
図枠
  5
2D3
 10
900.237
 20
-311.978
 30
0.000000
  70
    32
  0
VERTEX
  8
図枠
  5
2D4
 10
900.253
 20
-311.989
 30
0.000000
  70
    32
  0
VERTEX
  8
図枠
  5
2D5
 10
900.268
 20
-312.001
 30
0.000000
  70
    32
  0
VERTEX
  8
図枠
  5
2D6
 10
900.283
 20
-312.013
 30
0.000000
  70
    32
  0
VERTEX
  8
図枠
  5
2D7
 10
900.299
 20
-312.024
 30
0.000000
  70
    32
  0
VERTEX
  8
図枠
  5
2D8
 10
900.314
 20
-312.036
 30
0.000000
  70
    32
  0
VERTEX
  8
図枠
  5
2D9
 10
900.329
 20
-312.047
 30
0.000000
  70
    32
  0
VERTEX
  8
図枠
  5
2DA
 10
900.345
 20
-312.059
 30
0.000000
  70
    32
  0
VERTEX
  8
図枠
  5
2DB
 10
900.360
 20
-312.070
 30
0.000000
  70
    32
  0
VERTEX
  8
図枠
  5
2DC
 10
900.376
 20
-312.081
 30
0.000000
  70
    32
  0
VERTEX
  8
図枠
  5
2DD
 10
900.391
 20
-312.093
 30
0.000000
  70
    32
  0
VERTEX
  8
図枠
  5
2DE
 10
900.406
 20
-312.104
 30
0.000000
  70
    32
  0
VERTEX
  8
図枠
  5
2DF
 10
900.422
 20
-312.115
 30
0.000000
  70
    32
  0
VERTEX
  8
図枠
  5
2E0
 10
900.437
 20
-312.126
 30
0.000000
  70
    32
  0
VERTEX
  8
図枠
  5
2E1
 10
900.453
 20
-312.138
 30
0.000000
  70
    32
  0
VERTEX
  8
図枠
  5
2E2
 10
900.469
 20
-312.149
 30
0.000000
  70
    32
  0
VERTEX
  8
図枠
  5
2E3
 10
900.484
 20
-312.160
 30
0.000000
  70
    32
  0
VERTEX
  8
図枠
  5
2E4
 10
900.500
 20
-312.171
 30
0.000000
  70
    32
  0
VERTEX
  8
図枠
  5
2E5
 10
900.515
 20
-312.182
 30
0.000000
  70
    32
  0
VERTEX
  8
図枠
  5
2E6
 10
900.531
 20
-312.193
 30
0.000000
  70
    32
  0
VERTEX
  8
図枠
  5
2E7
 10
900.547
 20
-312.204
 30
0.000000
  70
    32
  0
VERTEX
  8
図枠
  5
2E8
 10
900.562
 20
-312.215
 30
0.000000
  70
    32
  0
VERTEX
  8
図枠
  5
2E9
 10
900.578
 20
-312.226
 30
0.000000
  70
    32
  0
VERTEX
  8
図枠
  5
2EA
 10
900.594
 20
-312.237
 30
0.000000
  70
    32
  0
VERTEX
  8
図枠
  5
2EB
 10
900.609
 20
-312.248
 30
0.000000
  70
    32
  0
VERTEX
  8
図枠
  5
2EC
 10
900.625
 20
-312.259
 30
0.000000
  70
    32
  0
VERTEX
  8
図枠
  5
2ED
 10
900.641
 20
-312.269
 30
0.000000
  70
    32
  0
VERTEX
  8
図枠
  5
2EE
 10
900.657
 20
-312.280
 30
0.000000
  70
    32
  0
VERTEX
  8
図枠
  5
2EF
 10
900.672
 20
-312.291
 30
0.000000
  70
    32
  0
VERTEX
  8
図枠
  5
2F0
 10
900.688
 20
-312.302
 30
0.000000
  70
    32
  0
VERTEX
  8
図枠
  5
2F1
 10
900.704
 20
-312.312
 30
0.000000
  70
    32
  0
VERTEX
  8
図枠
  5
2F2
 10
900.720
 20
-312.323
 30
0.000000
  70
    32
  0
VERTEX
  8
図枠
  5
2F3
 10
900.736
 20
-312.333
 30
0.000000
  70
    32
  0
VERTEX
  8
図枠
  5
2F4
 10
900.752
 20
-312.344
 30
0.000000
  70
    32
  0
VERTEX
  8
図枠
  5
2F5
 10
900.768
 20
-312.354
 30
0.000000
  70
    32
  0
VERTEX
  8
図枠
  5
2F6
 10
900.784
 20
-312.365
 30
0.000000
  70
    32
  0
VERTEX
  8
図枠
  5
2F7
 10
900.800
 20
-312.375
 30
0.000000
  70
    32
  0
VERTEX
  8
図枠
  5
2F8
 10
900.816
 20
-312.385
 30
0.000000
  70
    32
  0
VERTEX
  8
図枠
  5
2F9
 10
900.832
 20
-312.396
 30
0.000000
  70
    32
  0
VERTEX
  8
図枠
  5
2FA
 10
900.848
 20
-312.406
 30
0.000000
  70
    32
  0
VERTEX
  8
図枠
  5
2FB
 10
900.864
 20
-312.416
 30
0.000000
  70
    32
  0
VERTEX
  8
図枠
  5
2FC
 10
900.880
 20
-312.426
 30
0.000000
  70
    32
  0
VERTEX
  8
図枠
  5
2FD
 10
900.896
 20
-312.437
 30
0.000000
  70
    32
  0
VERTEX
  8
図枠
  5
2FE
 10
900.912
 20
-312.447
 30
0.000000
  70
    32
  0
VERTEX
  8
図枠
  5
2FF
 10
900.928
 20
-312.457
 30
0.000000
  70
    32
  0
VERTEX
  8
図枠
  5
300
 10
900.944
 20
-312.467
 30
0.000000
  70
    32
  0
VERTEX
  8
図枠
  5
301
 10
900.960
 20
-312.477
 30
0.000000
  70
    32
  0
VERTEX
  8
図枠
  5
302
 10
900.977
 20
-312.487
 30
0.000000
  70
    32
  0
VERTEX
  8
図枠
  5
303
 10
900.993
 20
-312.497
 30
0.000000
  70
    32
  0
VERTEX
  8
図枠
  5
304
 10
901.009
 20
-312.506
 30
0.000000
  70
    32
  0
VERTEX
  8
図枠
  5
305
 10
901.025
 20
-312.516
 30
0.000000
  70
    32
  0
SEQEND
  8
図枠
  5
306
  0
POLYLINE
  8
図枠
  5
307
  66
     1
 10
0.000000
 20
0.000000
 30
0.000000
  70
     8
  0
VERTEX
  8
図枠
  5
308
 10
903.982
 20
-312.493
 30
0.000000
  70
    32
  0
VERTEX
  8
図枠
  5
309
 10
903.996
 20
-312.497
 30
0.000000
  70
    32
  0
VERTEX
  8
図枠
  5
30A
 10
904.010
 20
-312.501
 30
0.000000
  70
    32
  0
VERTEX
  8
図枠
  5
30B
 10
904.024
 20
-312.505
 30
0.000000
  70
    32
  0
VERTEX
  8
図枠
  5
30C
 10
904.038
 20
-312.509
 30
0.000000
  70
    32
  0
VERTEX
  8
図枠
  5
30D
 10
904.052
 20
-312.513
 30
0.000000
  70
    32
  0
VERTEX
  8
図枠
  5
30E
 10
904.066
 20
-312.517
 30
0.000000
  70
    32
  0
VERTEX
  8
図枠
  5
30F
 10
904.080
 20
-312.520
 30
0.000000
  70
    32
  0
VERTEX
  8
図枠
  5
310
 10
904.094
 20
-312.524
 30
0.000000
  70
    32
  0
VERTEX
  8
図枠
  5
311
 10
904.108
 20
-312.528
 30
0.000000
  70
    32
  0
VERTEX
  8
図枠
  5
312
 10
904.122
 20
-312.532
 30
0.000000
  70
    32
  0
VERTEX
  8
図枠
  5
313
 10
904.136
 20
-312.535
 30
0.000000
  70
    32
  0
VERTEX
  8
図枠
  5
314
 10
904.150
 20
-312.539
 30
0.000000
  70
    32
  0
VERTEX
  8
図枠
  5
315
 10
904.165
 20
-312.543
 30
0.000000
  70
    32
  0
VERTEX
  8
図枠
  5
316
 10
904.179
 20
-312.547
 30
0.000000
  70
    32
  0
VERTEX
  8
図枠
  5
317
 10
904.193
 20
-312.550
 30
0.000000
  70
    32
  0
VERTEX
  8
図枠
  5
318
 10
904.207
 20
-312.554
 30
0.000000
  70
    32
  0
VERTEX
  8
図枠
  5
319
 10
904.221
 20
-312.557
 30
0.000000
  70
    32
  0
VERTEX
  8
図枠
  5
31A
 10
904.235
 20
-312.561
 30
0.000000
  70
    32
  0
VERTEX
  8
図枠
  5
31B
 10
904.250
 20
-312.565
 30
0.000000
  70
    32
  0
VERTEX
  8
図枠
  5
31C
 10
904.264
 20
-312.568
 30
0.000000
  70
    32
  0
VERTEX
  8
図枠
  5
31D
 10
904.278
 20
-312.572
 30
0.000000
  70
    32
  0
VERTEX
  8
図枠
  5
31E
 10
904.292
 20
-312.575
 30
0.000000
  70
    32
  0
VERTEX
  8
図枠
  5
31F
 10
904.307
 20
-312.579
 30
0.000000
  70
    32
  0
VERTEX
  8
図枠
  5
320
 10
904.321
 20
-312.582
 30
0.000000
  70
    32
  0
VERTEX
  8
図枠
  5
321
 10
904.335
 20
-312.586
 30
0.000000
  70
    32
  0
VERTEX
  8
図枠
  5
322
 10
904.350
 20
-312.589
 30
0.000000
  70
    32
  0
VERTEX
  8
図枠
  5
323
 10
904.364
 20
-312.593
 30
0.000000
  70
    32
  0
VERTEX
  8
図枠
  5
324
 10
904.378
 20
-312.596
 30
0.000000
  70
    32
  0
VERTEX
  8
図枠
  5
325
 10
904.393
 20
-312.599
 30
0.000000
  70
    32
  0
VERTEX
  8
図枠
  5
326
 10
904.407
 20
-312.603
 30
0.000000
  70
    32
  0
VERTEX
  8
図枠
  5
327
 10
904.421
 20
-312.606
 30
0.000000
  70
    32
  0
VERTEX
  8
図枠
  5
328
 10
904.436
 20
-312.610
 30
0.000000
  70
    32
  0
VERTEX
  8
図枠
  5
329
 10
904.450
 20
-312.613
 30
0.000000
  70
    32
  0
VERTEX
  8
図枠
  5
32A
 10
904.464
 20
-312.616
 30
0.000000
  70
    32
  0
VERTEX
  8
図枠
  5
32B
 10
904.479
 20
-312.619
 30
0.000000
  70
    32
  0
VERTEX
  8
図枠
  5
32C
 10
904.493
 20
-312.623
 30
0.000000
  70
    32
  0
VERTEX
  8
図枠
  5
32D
 10
904.508
 20
-312.626
 30
0.000000
  70
    32
  0
VERTEX
  8
図枠
  5
32E
 10
904.522
 20
-312.629
 30
0.000000
  70
    32
  0
VERTEX
  8
図枠
  5
32F
 10
904.537
 20
-312.632
 30
0.000000
  70
    32
  0
VERTEX
  8
図枠
  5
330
 10
904.551
 20
-312.636
 30
0.000000
  70
    32
  0
VERTEX
  8
図枠
  5
331
 10
904.566
 20
-312.639
 30
0.000000
  70
    32
  0
VERTEX
  8
図枠
  5
332
 10
904.580
 20
-312.642
 30
0.000000
  70
    32
  0
VERTEX
  8
図枠
  5
333
 10
904.594
 20
-312.645
 30
0.000000
  70
    32
  0
VERTEX
  8
図枠
  5
334
 10
904.609
 20
-312.648
 30
0.000000
  70
    32
  0
VERTEX
  8
図枠
  5
335
 10
904.623
 20
-312.651
 30
0.000000
  70
    32
  0
VERTEX
  8
図枠
  5
336
 10
904.638
 20
-312.655
 30
0.000000
  70
    32
  0
VERTEX
  8
図枠
  5
337
 10
904.652
 20
-312.658
 30
0.000000
  70
    32
  0
VERTEX
  8
図枠
  5
338
 10
904.667
 20
-312.661
 30
0.000000
  70
    32
  0
VERTEX
  8
図枠
  5
339
 10
904.682
 20
-312.664
 30
0.000000
  70
    32
  0
VERTEX
  8
図枠
  5
33A
 10
904.696
 20
-312.667
 30
0.000000
  70
    32
  0
VERTEX
  8
図枠
  5
33B
 10
904.711
 20
-312.670
 30
0.000000
  70
    32
  0
VERTEX
  8
図枠
  5
33C
 10
904.725
 20
-312.673
 30
0.000000
  70
    32
  0
VERTEX
  8
図枠
  5
33D
 10
904.740
 20
-312.676
 30
0.000000
  70
    32
  0
VERTEX
  8
図枠
  5
33E
 10
904.754
 20
-312.679
 30
0.000000
  70
    32
  0
VERTEX
  8
図枠
  5
33F
 10
904.769
 20
-312.682
 30
0.000000
  70
    32
  0
VERTEX
  8
図枠
  5
340
 10
904.784
 20
-312.685
 30
0.000000
  70
    32
  0
VERTEX
  8
図枠
  5
341
 10
904.798
 20
-312.688
 30
0.000000
  70
    32
  0
VERTEX
  8
図枠
  5
342
 10
904.813
 20
-312.691
 30
0.000000
  70
    32
  0
VERTEX
  8
図枠
  5
343
 10
904.827
 20
-312.694
 30
0.000000
  70
    32
  0
VERTEX
  8
図枠
  5
344
 10
904.842
 20
-312.697
 30
0.000000
  70
    32
  0
VERTEX
  8
図枠
  5
345
 10
904.857
 20
-312.700
 30
0.000000
  70
    32
  0
VERTEX
  8
図枠
  5
346
 10
904.871
 20
-312.703
 30
0.000000
  70
    32
  0
VERTEX
  8
図枠
  5
347
 10
904.886
 20
-312.705
 30
0.000000
  70
    32
  0
VERTEX
  8
図枠
  5
348
 10
904.901
 20
-312.708
 30
0.000000
  70
    32
  0
VERTEX
  8
図枠
  5
349
 10
904.915
 20
-312.711
 30
0.000000
  70
    32
  0
VERTEX
  8
図枠
  5
34A
 10
904.930
 20
-312.714
 30
0.000000
  70
    32
  0
VERTEX
  8
図枠
  5
34B
 10
904.945
 20
-312.717
 30
0.000000
  70
    32
  0
VERTEX
  8
図枠
  5
34C
 10
904.959
 20
-312.720
 30
0.000000
  70
    32
  0
VERTEX
  8
図枠
  5
34D
 10
904.974
 20
-312.723
 30
0.000000
  70
    32
  0
VERTEX
  8
図枠
  5
34E
 10
904.989
 20
-312.725
 30
0.000000
  70
    32
  0
VERTEX
  8
図枠
  5
34F
 10
905.003
 20
-312.728
 30
0.000000
  70
    32
  0
VERTEX
  8
図枠
  5
350
 10
905.018
 20
-312.731
 30
0.000000
  70
    32
  0
VERTEX
  8
図枠
  5
351
 10
905.033
 20
-312.734
 30
0.000000
  70
    32
  0
VERTEX
  8
図枠
  5
352
 10
905.048
 20
-312.736
 30
0.000000
  70
    32
  0
VERTEX
  8
図枠
  5
353
 10
905.062
 20
-312.739
 30
0.000000
  70
    32
  0
VERTEX
  8
図枠
  5
354
 10
905.077
 20
-312.742
 30
0.000000
  70
    32
  0
VERTEX
  8
図枠
  5
355
 10
905.092
 20
-312.745
 30
0.000000
  70
    32
  0
VERTEX
  8
図枠
  5
356
 10
905.107
 20
-312.747
 30
0.000000
  70
    32
  0
VERTEX
  8
図枠
  5
357
 10
905.121
 20
-312.750
 30
0.000000
  70
    32
  0
VERTEX
  8
図枠
  5
358
 10
905.136
 20
-312.753
 30
0.000000
  70
    32
  0
VERTEX
  8
図枠
  5
359
 10
905.151
 20
-312.756
 30
0.000000
  70
    32
  0
VERTEX
  8
図枠
  5
35A
 10
905.166
 20
-312.758
 30
0.000000
  70
    32
  0
VERTEX
  8
図枠
  5
35B
 10
905.180
 20
-312.761
 30
0.000000
  70
    32
  0
VERTEX
  8
図枠
  5
35C
 10
905.195
 20
-312.764
 30
0.000000
  70
    32
  0
VERTEX
  8
図枠
  5
35D
 10
905.210
 20
-312.766
 30
0.000000
  70
    32
  0
VERTEX
  8
図枠
  5
35E
 10
905.225
 20
-312.769
 30
0.000000
  70
    32
  0
VERTEX
  8
図枠
  5
35F
 10
905.240
 20
-312.772
 30
0.000000
  70
    32
  0
VERTEX
  8
図枠
  5
360
 10
905.254
 20
-312.774
 30
0.000000
  70
    32
  0
VERTEX
  8
図枠
  5
361
 10
905.269
 20
-312.777
 30
0.000000
  70
    32
  0
VERTEX
  8
図枠
  5
362
 10
905.284
 20
-312.780
 30
0.000000
  70
    32
  0
VERTEX
  8
図枠
  5
363
 10
905.299
 20
-312.782
 30
0.000000
  70
    32
  0
VERTEX
  8
図枠
  5
364
 10
905.314
 20
-312.785
 30
0.000000
  70
    32
  0
VERTEX
  8
図枠
  5
365
 10
905.328
 20
-312.788
 30
0.000000
  70
    32
  0
VERTEX
  8
図枠
  5
366
 10
905.343
 20
-312.790
 30
0.000000
  70
    32
  0
VERTEX
  8
図枠
  5
367
 10
905.358
 20
-312.793
 30
0.000000
  70
    32
  0
VERTEX
  8
図枠
  5
368
 10
905.373
 20
-312.795
 30
0.000000
  70
    32
  0
VERTEX
  8
図枠
  5
369
 10
905.388
 20
-312.798
 30
0.000000
  70
    32
  0
VERTEX
  8
図枠
  5
36A
 10
905.403
 20
-312.801
 30
0.000000
  70
    32
  0
VERTEX
  8
図枠
  5
36B
 10
905.417
 20
-312.803
 30
0.000000
  70
    32
  0
VERTEX
  8
図枠
  5
36C
 10
905.432
 20
-312.806
 30
0.000000
  70
    32
  0
VERTEX
  8
図枠
  5
36D
 10
905.447
 20
-312.808
 30
0.000000
  70
    32
  0
VERTEX
  8
図枠
  5
36E
 10
905.462
 20
-312.811
 30
0.000000
  70
    32
  0
VERTEX
  8
図枠
  5
36F
 10
905.477
 20
-312.813
 30
0.000000
  70
    32
  0
VERTEX
  8
図枠
  5
370
 10
905.492
 20
-312.816
 30
0.000000
  70
    32
  0
VERTEX
  8
図枠
  5
371
 10
905.506
 20
-312.819
 30
0.000000
  70
    32
  0
VERTEX
  8
図枠
  5
372
 10
905.521
 20
-312.821
 30
0.000000
  70
    32
  0
VERTEX
  8
図枠
  5
373
 10
905.536
 20
-312.824
 30
0.000000
  70
    32
  0
VERTEX
  8
図枠
  5
374
 10
905.551
 20
-312.826
 30
0.000000
  70
    32
  0
VERTEX
  8
図枠
  5
375
 10
905.566
 20
-312.829
 30
0.000000
  70
    32
  0
VERTEX
  8
図枠
  5
376
 10
905.581
 20
-312.831
 30
0.000000
  70
    32
  0
VERTEX
  8
図枠
  5
377
 10
905.596
 20
-312.834
 30
0.000000
  70
    32
  0
VERTEX
  8
図枠
  5
378
 10
905.611
 20
-312.836
 30
0.000000
  70
    32
  0
VERTEX
  8
図枠
  5
379
 10
905.625
 20
-312.839
 30
0.000000
  70
    32
  0
VERTEX
  8
図枠
  5
37A
 10
905.640
 20
-312.841
 30
0.000000
  70
    32
  0
VERTEX
  8
図枠
  5
37B
 10
905.655
 20
-312.844
 30
0.000000
  70
    32
  0
VERTEX
  8
図枠
  5
37C
 10
905.670
 20
-312.847
 30
0.000000
  70
    32
  0
VERTEX
  8
図枠
  5
37D
 10
905.685
 20
-312.849
 30
0.000000
  70
    32
  0
VERTEX
  8
図枠
  5
37E
 10
905.700
 20
-312.852
 30
0.000000
  70
    32
  0
VERTEX
  8
図枠
  5
37F
 10
905.715
 20
-312.854
 30
0.000000
  70
    32
  0
VERTEX
  8
図枠
  5
380
 10
905.730
 20
-312.857
 30
0.000000
  70
    32
  0
VERTEX
  8
図枠
  5
381
 10
905.744
 20
-312.859
 30
0.000000
  70
    32
  0
VERTEX
  8
図枠
  5
382
 10
905.759
 20
-312.862
 30
0.000000
  70
    32
  0
VERTEX
  8
図枠
  5
383
 10
905.774
 20
-312.864
 30
0.000000
  70
    32
  0
VERTEX
  8
図枠
  5
384
 10
905.789
 20
-312.867
 30
0.000000
  70
    32
  0
VERTEX
  8
図枠
  5
385
 10
905.804
 20
-312.869
 30
0.000000
  70
    32
  0
VERTEX
  8
図枠
  5
386
 10
905.819
 20
-312.872
 30
0.000000
  70
    32
  0
VERTEX
  8
図枠
  5
387
 10
905.834
 20
-312.874
 30
0.000000
  70
    32
  0
SEQEND
  8
図枠
  5
388
  0
LINE
  5
54
  8
図枠
 10
909.83818144639997
 20
-293.20234914399998
 30
0.0
 11
909.83818144639997
 21
-295.50611874399999
 31
0.0
  0
LINE
  5
55
  8
図枠
 10
909.83818144639997
 20
-293.20234914399998
 30
0.0
 11
909.83818144639997
 21
-295.50611874399999
 31
0.0
  0
LINE
  5
56
  8
図枠
 10
891.70671532910001
 20
-312.4742833844
 30
0.0
 11
891.70671532910001
 21
-311.27440338439999
 31
0.0
  0
INSERT
  5
57
  8
0
  6
CONTINUOUS
  2
*U13
 10
0.0
 20
0.0
 30
0.0
  0
LINE
  5
58
  8
図枠
 10
858.51283368319991
 20
-290.10465894399999
 30
0.0
 11
974.5012336832001
 21
-290.10465894399999
 31
0.0
  0
LINE
  5
59
  8
図枠
 62
     5
 10
880.51063368320001
 20
-140.61960894399999
 30
0.0
 11
974.5012336832001
 21
-140.61960894399999
 31
0.0
  0
LINE
  5
5A
  8
図枠
 10
858.51283368319991
 20
-298.60380894399998
 30
0.0
 11
974.5012336832001
 21
-298.60380894399998
 31
0.0
  0
LINE
  5
5B
  8
図枠
 10
858.51283368319991
 20
-307.10295894400002
 30
0.0
 11
974.5012336832001
 21
-307.10295894400002
 31
0.0
  0
LINE
  5
5C
  8
図枠
 10
890.50963368320004
 20
-302.85338394399997
 30
0.0
 11
916.50703368320001
 21
-302.85338394399997
 31
0.0
  0
LINE
  5
5D
  8
図枠
 10
893.30655532910009
 20
-310.07452338439998
 30
0.0
 11
891.70671532910001
 21
-310.07452338439998
 31
0.0
  0
ARC
  5
5E
  8
図枠
 10
892.10667532909997
 20
-311.67436338440001
 30
0.0
 40
1.1998799999999989
 50
270.0
 51
0.0
  0
INSERT
  5
5F
  8
0
  6
CONTINUOUS
  2
*U14
 10
0.0
 20
0.0
 30
0.0
  0
LINE
  5
60
  8
図枠
 10
895.30635532910003
 20
-310.07452338439998
 30
0.0
 11
895.30635532910003
 21
-309.67456338440002
 31
0.0
  0
LINE
  5
61
  8
図枠
 10
889.70691532910007
 20
-311.27440338439999
 30
0.0
 11
889.58604436810003
 21
-311.27440338439999
 31
0.0
  0
INSERT
  5
62
  8
0
  6
CONTINUOUS
  2
*U15
 10
0.0
 20
0.0
 30
0.0
  0
INSERT
  5
63
  8
0
  6
CONTINUOUS
  2
*U16
 10
0.0
 20
0.0
 30
0.0
  0
CIRCLE
  5
64
  8
図枠
 10
904.57222728320005
 20
-294.35423394399999
 30
0.0
 40
2.303769599999999
  0
ARC
  5
65
  8
図枠
 10
899.59441132910013
 20
-309.83454738440003
 30
0.0
 40
3.0396959999999988
 50
331.39928138329998
 51
358.49204224580001
  0
LINE
  5
66
  8
図枠
 10
858.51283368319991
 20
-290.10465894399999
 30
0.0
 11
858.51283368319991
 21
-315.60210894400001
 31
0.0
  0
ARC
  5
67
  8
図枠
 10
892.9065953290999
 20
-311.67436338440001
 30
0.0
 40
2.3997599999999988
 50
270.0
 51
0.0
  0
LINE
  5
68
  8
図枠
  6
DOT
 10
980.50063368320014
 20
-321.3515339440001
 30
0.0
 11
980.50063368320014
 21
-119.871683944
 31
0.0
  0
LINE
  5
69
  8
図枠
 62
     5
 10
699.5287336831999
 20
-315.60210894400001
 30
0.0
 11
699.5287336831999
 21
-125.621108944
 31
0.0
  0
LINE
  5
6A
  8
図枠
  6
DOT
 10
693.53233338320013
 20
-321.3515339440001
 30
0.0
 11
693.53233338320013
 21
-119.871683944
 31
0.0
  0
CIRCLE
  5
6B
  8
図枠
 10
904.57222728320005
 20
-294.35423394399999
 30
0.0
 40
2.303769599999999
  0
LINE
  5
6C
  8
図枠
 10
904.12413379320003
 20
-312.3536004211
 30
0.0
 11
903.98166639350006
 21
-312.49308898620001
 31
0.0
  0
LINE
  5
6D
  8
図枠
  6
DOT
 10
693.52933368320009
 20
-119.871683944
 30
0.0
 11
980.50063368320014
 21
-119.871683944
 31
0.0
  0
LINE
  5
6E
  8
図枠
 62
     5
 10
699.5287336831999
 20
-125.621108944
 30
0.0
 11
974.5012336832001
 21
-125.621108944
 31
0.0
  0
LINE
  5
6F
  8
図枠
 10
891.70671532910001
 20
-310.07452338439998
 30
0.0
 11
891.70671532910001
 21
-309.67456338440002
 31
0.0
  0
LINE
  5
70
  8
図枠
 10
892.9065953290999
 20
-308.47468338440001
 30
0.0
 11
889.70691532910007
 21
-308.47468338440001
 31
0.0
  0
INSERT
  5
71
  8
0
  6
CONTINUOUS
  2
*U17
 10
0.0
 20
0.0
 30
0.0
  0
LINE
  5
72
  8
図枠
 10
888.78612436809988
 20
-311.27440338439999
 30
0.0
 11
889.58604436810003
 21
-311.27440338439999
 31
0.0
  0
LINE
  5
73
  8
図枠
 10
891.70671532910001
 20
-309.67456338440002
 30
0.0
 11
892.9065953290999
 21
-308.47468338440001
 31
0.0
  0
LINE
  5
74
  8
図枠
 10
880.51063368320001
 20
-294.35423394399999
 30
0.0
 11
894.50923368320014
 21
-294.35423394399999
 31
0.0
  0
INSERT
  5
75
  8
0
  6
CONTINUOUS
  2
*U18
 10
0.0
 20
0.0
 30
0.0
  0
INSERT
  5
76
  8
0
  6
CONTINUOUS
  2
*U19
 10
0.0
 20
0.0
 30
0.0
  0
INSERT
  5
77
  8
0
  6
CONTINUOUS
  2
*U20
 10
0.0
 20
0.0
 30
0.0
  0
LINE
  5
78
  8
図枠
 10
893.30655532910009
 20
-308.47468338440001
 30
0.0
 11
893.30655532910009
 21
-310.07452338439998
 31
0.0
  0
LINE
  5
79
  8
図枠
 10
891.70671532910001
 20
-311.27440338439999
 30
0.0
 11
893.30655532910009
 21
-311.27440338439999
 31
0.0
  0
LINE
  5
7A
  8
図枠
 10
895.30635532910003
 20
-311.67436338440001
 30
0.0
 11
895.30635532910003
 21
-311.27440338439999
 31
0.0
  0
INSERT
  5
7C
  8
0
  6
CONTINUOUS
  2
*U21
 10
0.0
 20
0.0
 30
0.0
  0
INSERT
  5
7D
  8
0
  6
CONTINUOUS
  2
*U22
 10
0.0
 20
0.0
 30
0.0
  0
CIRCLE
  5
7E
  8
図枠
 10
904.57222728320005
 20
-294.35423394399999
 30
0.0
 40
2.303769599999999
  0
LINE
  5
7F
  8
図枠
 10
905.03386732910008
 20
-309.67456338440002
 30
0.0
 11
905.83378732910001
 21
-308.47468338440001
 31
0.0
  0
LINE
  5
80
  8
図枠
  6
BORDER
 10
904.57222728320005
 20
-290.89857954399997
 30
0.0
 11
904.57222728320005
 21
-297.809888344
 31
0.0
  0
LINE
  5
81
  8
図枠
 10
907.60759604909993
 20
-311.91433938440002
 30
0.0
 11
910.21640180910003
 21
-311.91433938440002
 31
0.0
  0
POLYLINE
  8
図枠
  5
389
  66
     1
 10
0.000000
 20
0.000000
 30
0.000000
  70
     8
  0
VERTEX
  8
図枠
  5
38A
 10
901.382
 20
-310.785
 30
0.000000
  70
    32
  0
VERTEX
  8
図枠
  5
38B
 10
901.387
 20
-310.791
 30
0.000000
  70
    32
  0
VERTEX
  8
図枠
  5
38C
 10
901.392
 20
-310.796
 30
0.000000
  70
    32
  0
VERTEX
  8
図枠
  5
38D
 10
901.398
 20
-310.802
 30
0.000000
  70
    32
  0
VERTEX
  8
図枠
  5
38E
 10
901.403
 20
-310.808
 30
0.000000
  70
    32
  0
VERTEX
  8
図枠
  5
38F
 10
901.408
 20
-310.814
 30
0.000000
  70
    32
  0
VERTEX
  8
図枠
  5
390
 10
901.413
 20
-310.820
 30
0.000000
  70
    32
  0
VERTEX
  8
図枠
  5
391
 10
901.419
 20
-310.826
 30
0.000000
  70
    32
  0
VERTEX
  8
図枠
  5
392
 10
901.424
 20
-310.832
 30
0.000000
  70
    32
  0
VERTEX
  8
図枠
  5
393
 10
901.429
 20
-310.838
 30
0.000000
  70
    32
  0
VERTEX
  8
図枠
  5
394
 10
901.434
 20
-310.844
 30
0.000000
  70
    32
  0
VERTEX
  8
図枠
  5
395
 10
901.440
 20
-310.849
 30
0.000000
  70
    32
  0
VERTEX
  8
図枠
  5
396
 10
901.445
 20
-310.855
 30
0.000000
  70
    32
  0
VERTEX
  8
図枠
  5
397
 10
901.450
 20
-310.861
 30
0.000000
  70
    32
  0
VERTEX
  8
図枠
  5
398
 10
901.456
 20
-310.867
 30
0.000000
  70
    32
  0
VERTEX
  8
図枠
  5
399
 10
901.461
 20
-310.873
 30
0.000000
  70
    32
  0
VERTEX
  8
図枠
  5
39A
 10
901.466
 20
-310.879
 30
0.000000
  70
    32
  0
VERTEX
  8
図枠
  5
39B
 10
901.471
 20
-310.885
 30
0.000000
  70
    32
  0
VERTEX
  8
図枠
  5
39C
 10
901.477
 20
-310.891
 30
0.000000
  70
    32
  0
VERTEX
  8
図枠
  5
39D
 10
901.482
 20
-310.896
 30
0.000000
  70
    32
  0
VERTEX
  8
図枠
  5
39E
 10
901.487
 20
-310.902
 30
0.000000
  70
    32
  0
VERTEX
  8
図枠
  5
39F
 10
901.493
 20
-310.908
 30
0.000000
  70
    32
  0
VERTEX
  8
図枠
  5
3A0
 10
901.498
 20
-310.914
 30
0.000000
  70
    32
  0
VERTEX
  8
図枠
  5
3A1
 10
901.503
 20
-310.920
 30
0.000000
  70
    32
  0
VERTEX
  8
図枠
  5
3A2
 10
901.509
 20
-310.926
 30
0.000000
  70
    32
  0
VERTEX
  8
図枠
  5
3A3
 10
901.514
 20
-310.932
 30
0.000000
  70
    32
  0
VERTEX
  8
図枠
  5
3A4
 10
901.519
 20
-310.937
 30
0.000000
  70
    32
  0
VERTEX
  8
図枠
  5
3A5
 10
901.524
 20
-310.943
 30
0.000000
  70
    32
  0
VERTEX
  8
図枠
  5
3A6
 10
901.530
 20
-310.949
 30
0.000000
  70
    32
  0
VERTEX
  8
図枠
  5
3A7
 10
901.535
 20
-310.955
 30
0.000000
  70
    32
  0
VERTEX
  8
図枠
  5
3A8
 10
901.540
 20
-310.961
 30
0.000000
  70
    32
  0
VERTEX
  8
図枠
  5
3A9
 10
901.546
 20
-310.967
 30
0.000000
  70
    32
  0
VERTEX
  8
図枠
  5
3AA
 10
901.551
 20
-310.973
 30
0.000000
  70
    32
  0
VERTEX
  8
図枠
  5
3AB
 10
901.556
 20
-310.978
 30
0.000000
  70
    32
  0
VERTEX
  8
図枠
  5
3AC
 10
901.562
 20
-310.984
 30
0.000000
  70
    32
  0
VERTEX
  8
図枠
  5
3AD
 10
901.567
 20
-310.990
 30
0.000000
  70
    32
  0
VERTEX
  8
図枠
  5
3AE
 10
901.572
 20
-310.996
 30
0.000000
  70
    32
  0
VERTEX
  8
図枠
  5
3AF
 10
901.577
 20
-311.002
 30
0.000000
  70
    32
  0
VERTEX
  8
図枠
  5
3B0
 10
901.583
 20
-311.008
 30
0.000000
  70
    32
  0
VERTEX
  8
図枠
  5
3B1
 10
901.588
 20
-311.013
 30
0.000000
  70
    32
  0
VERTEX
  8
図枠
  5
3B2
 10
901.593
 20
-311.019
 30
0.000000
  70
    32
  0
VERTEX
  8
図枠
  5
3B3
 10
901.599
 20
-311.025
 30
0.000000
  70
    32
  0
VERTEX
  8
図枠
  5
3B4
 10
901.604
 20
-311.031
 30
0.000000
  70
    32
  0
VERTEX
  8
図枠
  5
3B5
 10
901.609
 20
-311.037
 30
0.000000
  70
    32
  0
VERTEX
  8
図枠
  5
3B6
 10
901.615
 20
-311.042
 30
0.000000
  70
    32
  0
VERTEX
  8
図枠
  5
3B7
 10
901.620
 20
-311.048
 30
0.000000
  70
    32
  0
VERTEX
  8
図枠
  5
3B8
 10
901.625
 20
-311.054
 30
0.000000
  70
    32
  0
VERTEX
  8
図枠
  5
3B9
 10
901.631
 20
-311.060
 30
0.000000
  70
    32
  0
VERTEX
  8
図枠
  5
3BA
 10
901.636
 20
-311.066
 30
0.000000
  70
    32
  0
VERTEX
  8
図枠
  5
3BB
 10
901.641
 20
-311.071
 30
0.000000
  70
    32
  0
VERTEX
  8
図枠
  5
3BC
 10
901.647
 20
-311.077
 30
0.000000
  70
    32
  0
VERTEX
  8
図枠
  5
3BD
 10
901.652
 20
-311.083
 30
0.000000
  70
    32
  0
VERTEX
  8
図枠
  5
3BE
 10
901.657
 20
-311.089
 30
0.000000
  70
    32
  0
VERTEX
  8
図枠
  5
3BF
 10
901.663
 20
-311.094
 30
0.000000
  70
    32
  0
VERTEX
  8
図枠
  5
3C0
 10
901.668
 20
-311.100
 30
0.000000
  70
    32
  0
VERTEX
  8
図枠
  5
3C1
 10
901.674
 20
-311.106
 30
0.000000
  70
    32
  0
VERTEX
  8
図枠
  5
3C2
 10
901.679
 20
-311.112
 30
0.000000
  70
    32
  0
VERTEX
  8
図枠
  5
3C3
 10
901.684
 20
-311.117
 30
0.000000
  70
    32
  0
VERTEX
  8
図枠
  5
3C4
 10
901.690
 20
-311.123
 30
0.000000
  70
    32
  0
VERTEX
  8
図枠
  5
3C5
 10
901.695
 20
-311.129
 30
0.000000
  70
    32
  0
VERTEX
  8
図枠
  5
3C6
 10
901.700
 20
-311.135
 30
0.000000
  70
    32
  0
VERTEX
  8
図枠
  5
3C7
 10
901.706
 20
-311.140
 30
0.000000
  70
    32
  0
VERTEX
  8
図枠
  5
3C8
 10
901.711
 20
-311.146
 30
0.000000
  70
    32
  0
VERTEX
  8
図枠
  5
3C9
 10
901.717
 20
-311.152
 30
0.000000
  70
    32
  0
VERTEX
  8
図枠
  5
3CA
 10
901.722
 20
-311.158
 30
0.000000
  70
    32
  0
VERTEX
  8
図枠
  5
3CB
 10
901.727
 20
-311.163
 30
0.000000
  70
    32
  0
VERTEX
  8
図枠
  5
3CC
 10
901.733
 20
-311.169
 30
0.000000
  70
    32
  0
VERTEX
  8
図枠
  5
3CD
 10
901.738
 20
-311.175
 30
0.000000
  70
    32
  0
VERTEX
  8
図枠
  5
3CE
 10
901.744
 20
-311.180
 30
0.000000
  70
    32
  0
VERTEX
  8
図枠
  5
3CF
 10
901.749
 20
-311.186
 30
0.000000
  70
    32
  0
VERTEX
  8
図枠
  5
3D0
 10
901.754
 20
-311.192
 30
0.000000
  70
    32
  0
VERTEX
  8
図枠
  5
3D1
 10
901.760
 20
-311.197
 30
0.000000
  70
    32
  0
VERTEX
  8
図枠
  5
3D2
 10
901.765
 20
-311.203
 30
0.000000
  70
    32
  0
VERTEX
  8
図枠
  5
3D3
 10
901.771
 20
-311.209
 30
0.000000
  70
    32
  0
VERTEX
  8
図枠
  5
3D4
 10
901.776
 20
-311.214
 30
0.000000
  70
    32
  0
VERTEX
  8
図枠
  5
3D5
 10
901.781
 20
-311.220
 30
0.000000
  70
    32
  0
VERTEX
  8
図枠
  5
3D6
 10
901.787
 20
-311.226
 30
0.000000
  70
    32
  0
VERTEX
  8
図枠
  5
3D7
 10
901.792
 20
-311.231
 30
0.000000
  70
    32
  0
VERTEX
  8
図枠
  5
3D8
 10
901.798
 20
-311.237
 30
0.000000
  70
    32
  0
VERTEX
  8
図枠
  5
3D9
 10
901.803
 20
-311.242
 30
0.000000
  70
    32
  0
VERTEX
  8
図枠
  5
3DA
 10
901.809
 20
-311.248
 30
0.000000
  70
    32
  0
VERTEX
  8
図枠
  5
3DB
 10
901.814
 20
-311.254
 30
0.000000
  70
    32
  0
VERTEX
  8
図枠
  5
3DC
 10
901.820
 20
-311.259
 30
0.000000
  70
    32
  0
VERTEX
  8
図枠
  5
3DD
 10
901.825
 20
-311.265
 30
0.000000
  70
    32
  0
VERTEX
  8
図枠
  5
3DE
 10
901.831
 20
-311.270
 30
0.000000
  70
    32
  0
VERTEX
  8
図枠
  5
3DF
 10
901.836
 20
-311.276
 30
0.000000
  70
    32
  0
VERTEX
  8
図枠
  5
3E0
 10
901.841
 20
-311.282
 30
0.000000
  70
    32
  0
VERTEX
  8
図枠
  5
3E1
 10
901.847
 20
-311.287
 30
0.000000
  70
    32
  0
VERTEX
  8
図枠
  5
3E2
 10
901.852
 20
-311.293
 30
0.000000
  70
    32
  0
VERTEX
  8
図枠
  5
3E3
 10
901.858
 20
-311.298
 30
0.000000
  70
    32
  0
VERTEX
  8
図枠
  5
3E4
 10
901.863
 20
-311.304
 30
0.000000
  70
    32
  0
VERTEX
  8
図枠
  5
3E5
 10
901.869
 20
-311.309
 30
0.000000
  70
    32
  0
VERTEX
  8
図枠
  5
3E6
 10
901.874
 20
-311.315
 30
0.000000
  70
    32
  0
VERTEX
  8
図枠
  5
3E7
 10
901.880
 20
-311.320
 30
0.000000
  70
    32
  0
VERTEX
  8
図枠
  5
3E8
 10
901.885
 20
-311.326
 30
0.000000
  70
    32
  0
VERTEX
  8
図枠
  5
3E9
 10
901.891
 20
-311.331
 30
0.000000
  70
    32
  0
VERTEX
  8
図枠
  5
3EA
 10
901.897
 20
-311.337
 30
0.000000
  70
    32
  0
VERTEX
  8
図枠
  5
3EB
 10
901.902
 20
-311.342
 30
0.000000
  70
    32
  0
VERTEX
  8
図枠
  5
3EC
 10
901.908
 20
-311.348
 30
0.000000
  70
    32
  0
VERTEX
  8
図枠
  5
3ED
 10
901.913
 20
-311.353
 30
0.000000
  70
    32
  0
VERTEX
  8
図枠
  5
3EE
 10
901.919
 20
-311.359
 30
0.000000
  70
    32
  0
VERTEX
  8
図枠
  5
3EF
 10
901.924
 20
-311.364
 30
0.000000
  70
    32
  0
VERTEX
  8
図枠
  5
3F0
 10
901.930
 20
-311.370
 30
0.000000
  70
    32
  0
VERTEX
  8
図枠
  5
3F1
 10
901.935
 20
-311.375
 30
0.000000
  70
    32
  0
VERTEX
  8
図枠
  5
3F2
 10
901.941
 20
-311.380
 30
0.000000
  70
    32
  0
VERTEX
  8
図枠
  5
3F3
 10
901.947
 20
-311.386
 30
0.000000
  70
    32
  0
VERTEX
  8
図枠
  5
3F4
 10
901.952
 20
-311.391
 30
0.000000
  70
    32
  0
VERTEX
  8
図枠
  5
3F5
 10
901.958
 20
-311.397
 30
0.000000
  70
    32
  0
VERTEX
  8
図枠
  5
3F6
 10
901.963
 20
-311.402
 30
0.000000
  70
    32
  0
VERTEX
  8
図枠
  5
3F7
 10
901.969
 20
-311.407
 30
0.000000
  70
    32
  0
VERTEX
  8
図枠
  5
3F8
 10
901.974
 20
-311.413
 30
0.000000
  70
    32
  0
VERTEX
  8
図枠
  5
3F9
 10
901.980
 20
-311.418
 30
0.000000
  70
    32
  0
VERTEX
  8
図枠
  5
3FA
 10
901.986
 20
-311.423
 30
0.000000
  70
    32
  0
VERTEX
  8
図枠
  5
3FB
 10
901.991
 20
-311.429
 30
0.000000
  70
    32
  0
VERTEX
  8
図枠
  5
3FC
 10
901.997
 20
-311.434
 30
0.000000
  70
    32
  0
VERTEX
  8
図枠
  5
3FD
 10
902.003
 20
-311.439
 30
0.000000
  70
    32
  0
VERTEX
  8
図枠
  5
3FE
 10
902.008
 20
-311.445
 30
0.000000
  70
    32
  0
VERTEX
  8
図枠
  5
3FF
 10
902.014
 20
-311.450
 30
0.000000
  70
    32
  0
VERTEX
  8
図枠
  5
400
 10
902.020
 20
-311.455
 30
0.000000
  70
    32
  0
VERTEX
  8
図枠
  5
401
 10
902.025
 20
-311.460
 30
0.000000
  70
    32
  0
VERTEX
  8
図枠
  5
402
 10
902.031
 20
-311.466
 30
0.000000
  70
    32
  0
VERTEX
  8
図枠
  5
403
 10
902.037
 20
-311.471
 30
0.000000
  70
    32
  0
VERTEX
  8
図枠
  5
404
 10
902.042
 20
-311.476
 30
0.000000
  70
    32
  0
VERTEX
  8
図枠
  5
405
 10
902.048
 20
-311.481
 30
0.000000
  70
    32
  0
VERTEX
  8
図枠
  5
406
 10
902.054
 20
-311.487
 30
0.000000
  70
    32
  0
VERTEX
  8
図枠
  5
407
 10
902.059
 20
-311.492
 30
0.000000
  70
    32
  0
VERTEX
  8
図枠
  5
408
 10
902.065
 20
-311.497
 30
0.000000
  70
    32
  0
VERTEX
  8
図枠
  5
409
 10
902.071
 20
-311.502
 30
0.000000
  70
    32
  0
SEQEND
  8
図枠
  5
40A
  0
POLYLINE
  8
図枠
  5
40B
  66
     1
 10
0.000000
 20
0.000000
 30
0.000000
  70
     8
  0
VERTEX
  8
図枠
  5
40C
 10
903.001
 20
-313.383
 30
0.000000
  70
    32
  0
VERTEX
  8
図枠
  5
40D
 10
903.023
 20
-313.390
 30
0.000000
  70
    32
  0
VERTEX
  8
図枠
  5
40E
 10
903.044
 20
-313.397
 30
0.000000
  70
    32
  0
VERTEX
  8
図枠
  5
40F
 10
903.066
 20
-313.404
 30
0.000000
  70
    32
  0
VERTEX
  8
図枠
  5
410
 10
903.087
 20
-313.411
 30
0.000000
  70
    32
  0
VERTEX
  8
図枠
  5
411
 10
903.109
 20
-313.417
 30
0.000000
  70
    32
  0
VERTEX
  8
図枠
  5
412
 10
903.131
 20
-313.424
 30
0.000000
  70
    32
  0
VERTEX
  8
図枠
  5
413
 10
903.152
 20
-313.431
 30
0.000000
  70
    32
  0
VERTEX
  8
図枠
  5
414
 10
903.174
 20
-313.437
 30
0.000000
  70
    32
  0
VERTEX
  8
図枠
  5
415
 10
903.196
 20
-313.444
 30
0.000000
  70
    32
  0
VERTEX
  8
図枠
  5
416
 10
903.217
 20
-313.450
 30
0.000000
  70
    32
  0
VERTEX
  8
図枠
  5
417
 10
903.239
 20
-313.457
 30
0.000000
  70
    32
  0
VERTEX
  8
図枠
  5
418
 10
903.261
 20
-313.463
 30
0.000000
  70
    32
  0
VERTEX
  8
図枠
  5
419
 10
903.282
 20
-313.470
 30
0.000000
  70
    32
  0
VERTEX
  8
図枠
  5
41A
 10
903.304
 20
-313.476
 30
0.000000
  70
    32
  0
VERTEX
  8
図枠
  5
41B
 10
903.326
 20
-313.483
 30
0.000000
  70
    32
  0
VERTEX
  8
図枠
  5
41C
 10
903.348
 20
-313.489
 30
0.000000
  70
    32
  0
VERTEX
  8
図枠
  5
41D
 10
903.370
 20
-313.496
 30
0.000000
  70
    32
  0
VERTEX
  8
図枠
  5
41E
 10
903.391
 20
-313.502
 30
0.000000
  70
    32
  0
VERTEX
  8
図枠
  5
41F
 10
903.413
 20
-313.508
 30
0.000000
  70
    32
  0
VERTEX
  8
図枠
  5
420
 10
903.435
 20
-313.514
 30
0.000000
  70
    32
  0
VERTEX
  8
図枠
  5
421
 10
903.457
 20
-313.521
 30
0.000000
  70
    32
  0
VERTEX
  8
図枠
  5
422
 10
903.479
 20
-313.527
 30
0.000000
  70
    32
  0
VERTEX
  8
図枠
  5
423
 10
903.501
 20
-313.533
 30
0.000000
  70
    32
  0
VERTEX
  8
図枠
  5
424
 10
903.523
 20
-313.539
 30
0.000000
  70
    32
  0
VERTEX
  8
図枠
  5
425
 10
903.545
 20
-313.545
 30
0.000000
  70
    32
  0
VERTEX
  8
図枠
  5
426
 10
903.567
 20
-313.551
 30
0.000000
  70
    32
  0
VERTEX
  8
図枠
  5
427
 10
903.588
 20
-313.558
 30
0.000000
  70
    32
  0
VERTEX
  8
図枠
  5
428
 10
903.610
 20
-313.564
 30
0.000000
  70
    32
  0
VERTEX
  8
図枠
  5
429
 10
903.632
 20
-313.570
 30
0.000000
  70
    32
  0
VERTEX
  8
図枠
  5
42A
 10
903.654
 20
-313.576
 30
0.000000
  70
    32
  0
VERTEX
  8
図枠
  5
42B
 10
903.676
 20
-313.582
 30
0.000000
  70
    32
  0
VERTEX
  8
図枠
  5
42C
 10
903.699
 20
-313.588
 30
0.000000
  70
    32
  0
VERTEX
  8
図枠
  5
42D
 10
903.721
 20
-313.593
 30
0.000000
  70
    32
  0
VERTEX
  8
図枠
  5
42E
 10
903.743
 20
-313.599
 30
0.000000
  70
    32
  0
VERTEX
  8
図枠
  5
42F
 10
903.765
 20
-313.605
 30
0.000000
  70
    32
  0
VERTEX
  8
図枠
  5
430
 10
903.787
 20
-313.611
 30
0.000000
  70
    32
  0
VERTEX
  8
図枠
  5
431
 10
903.809
 20
-313.617
 30
0.000000
  70
    32
  0
VERTEX
  8
図枠
  5
432
 10
903.831
 20
-313.623
 30
0.000000
  70
    32
  0
VERTEX
  8
図枠
  5
433
 10
903.853
 20
-313.628
 30
0.000000
  70
    32
  0
VERTEX
  8
図枠
  5
434
 10
903.875
 20
-313.634
 30
0.000000
  70
    32
  0
VERTEX
  8
図枠
  5
435
 10
903.897
 20
-313.640
 30
0.000000
  70
    32
  0
VERTEX
  8
図枠
  5
436
 10
903.920
 20
-313.646
 30
0.000000
  70
    32
  0
VERTEX
  8
図枠
  5
437
 10
903.942
 20
-313.651
 30
0.000000
  70
    32
  0
VERTEX
  8
図枠
  5
438
 10
903.964
 20
-313.657
 30
0.000000
  70
    32
  0
VERTEX
  8
図枠
  5
439
 10
903.986
 20
-313.663
 30
0.000000
  70
    32
  0
VERTEX
  8
図枠
  5
43A
 10
904.008
 20
-313.668
 30
0.000000
  70
    32
  0
VERTEX
  8
図枠
  5
43B
 10
904.031
 20
-313.674
 30
0.000000
  70
    32
  0
VERTEX
  8
図枠
  5
43C
 10
904.053
 20
-313.679
 30
0.000000
  70
    32
  0
VERTEX
  8
図枠
  5
43D
 10
904.075
 20
-313.685
 30
0.000000
  70
    32
  0
VERTEX
  8
図枠
  5
43E
 10
904.097
 20
-313.690
 30
0.000000
  70
    32
  0
VERTEX
  8
図枠
  5
43F
 10
904.120
 20
-313.696
 30
0.000000
  70
    32
  0
VERTEX
  8
図枠
  5
440
 10
904.142
 20
-313.701
 30
0.000000
  70
    32
  0
VERTEX
  8
図枠
  5
441
 10
904.164
 20
-313.707
 30
0.000000
  70
    32
  0
VERTEX
  8
図枠
  5
442
 10
904.186
 20
-313.712
 30
0.000000
  70
    32
  0
VERTEX
  8
図枠
  5
443
 10
904.209
 20
-313.718
 30
0.000000
  70
    32
  0
VERTEX
  8
図枠
  5
444
 10
904.231
 20
-313.723
 30
0.000000
  70
    32
  0
VERTEX
  8
図枠
  5
445
 10
904.253
 20
-313.729
 30
0.000000
  70
    32
  0
VERTEX
  8
図枠
  5
446
 10
904.276
 20
-313.734
 30
0.000000
  70
    32
  0
VERTEX
  8
図枠
  5
447
 10
904.298
 20
-313.739
 30
0.000000
  70
    32
  0
VERTEX
  8
図枠
  5
448
 10
904.321
 20
-313.745
 30
0.000000
  70
    32
  0
VERTEX
  8
図枠
  5
449
 10
904.343
 20
-313.750
 30
0.000000
  70
    32
  0
VERTEX
  8
図枠
  5
44A
 10
904.365
 20
-313.755
 30
0.000000
  70
    32
  0
VERTEX
  8
図枠
  5
44B
 10
904.388
 20
-313.760
 30
0.000000
  70
    32
  0
VERTEX
  8
図枠
  5
44C
 10
904.410
 20
-313.766
 30
0.000000
  70
    32
  0
VERTEX
  8
図枠
  5
44D
 10
904.432
 20
-313.771
 30
0.000000
  70
    32
  0
VERTEX
  8
図枠
  5
44E
 10
904.455
 20
-313.776
 30
0.000000
  70
    32
  0
VERTEX
  8
図枠
  5
44F
 10
904.477
 20
-313.781
 30
0.000000
  70
    32
  0
VERTEX
  8
図枠
  5
450
 10
904.500
 20
-313.787
 30
0.000000
  70
    32
  0
VERTEX
  8
図枠
  5
451
 10
904.522
 20
-313.792
 30
0.000000
  70
    32
  0
VERTEX
  8
図枠
  5
452
 10
904.545
 20
-313.797
 30
0.000000
  70
    32
  0
VERTEX
  8
図枠
  5
453
 10
904.567
 20
-313.802
 30
0.000000
  70
    32
  0
VERTEX
  8
図枠
  5
454
 10
904.590
 20
-313.807
 30
0.000000
  70
    32
  0
VERTEX
  8
図枠
  5
455
 10
904.612
 20
-313.812
 30
0.000000
  70
    32
  0
VERTEX
  8
図枠
  5
456
 10
904.635
 20
-313.817
 30
0.000000
  70
    32
  0
VERTEX
  8
図枠
  5
457
 10
904.657
 20
-313.822
 30
0.000000
  70
    32
  0
VERTEX
  8
図枠
  5
458
 10
904.680
 20
-313.828
 30
0.000000
  70
    32
  0
VERTEX
  8
図枠
  5
459
 10
904.702
 20
-313.833
 30
0.000000
  70
    32
  0
VERTEX
  8
図枠
  5
45A
 10
904.725
 20
-313.838
 30
0.000000
  70
    32
  0
VERTEX
  8
図枠
  5
45B
 10
904.747
 20
-313.843
 30
0.000000
  70
    32
  0
VERTEX
  8
図枠
  5
45C
 10
904.770
 20
-313.848
 30
0.000000
  70
    32
  0
VERTEX
  8
図枠
  5
45D
 10
904.792
 20
-313.853
 30
0.000000
  70
    32
  0
VERTEX
  8
図枠
  5
45E
 10
904.815
 20
-313.858
 30
0.000000
  70
    32
  0
VERTEX
  8
図枠
  5
45F
 10
904.837
 20
-313.863
 30
0.000000
  70
    32
  0
VERTEX
  8
図枠
  5
460
 10
904.860
 20
-313.868
 30
0.000000
  70
    32
  0
VERTEX
  8
図枠
  5
461
 10
904.882
 20
-313.873
 30
0.000000
  70
    32
  0
VERTEX
  8
図枠
  5
462
 10
904.905
 20
-313.878
 30
0.000000
  70
    32
  0
VERTEX
  8
図枠
  5
463
 10
904.928
 20
-313.883
 30
0.000000
  70
    32
  0
VERTEX
  8
図枠
  5
464
 10
904.950
 20
-313.887
 30
0.000000
  70
    32
  0
VERTEX
  8
図枠
  5
465
 10
904.973
 20
-313.892
 30
0.000000
  70
    32
  0
VERTEX
  8
図枠
  5
466
 10
904.995
 20
-313.897
 30
0.000000
  70
    32
  0
VERTEX
  8
図枠
  5
467
 10
905.018
 20
-313.902
 30
0.000000
  70
    32
  0
VERTEX
  8
図枠
  5
468
 10
905.041
 20
-313.907
 30
0.000000
  70
    32
  0
VERTEX
  8
図枠
  5
469
 10
905.063
 20
-313.912
 30
0.000000
  70
    32
  0
VERTEX
  8
図枠
  5
46A
 10
905.086
 20
-313.917
 30
0.000000
  70
    32
  0
VERTEX
  8
図枠
  5
46B
 10
905.108
 20
-313.922
 30
0.000000
  70
    32
  0
VERTEX
  8
図枠
  5
46C
 10
905.131
 20
-313.927
 30
0.000000
  70
    32
  0
VERTEX
  8
図枠
  5
46D
 10
905.154
 20
-313.931
 30
0.000000
  70
    32
  0
VERTEX
  8
図枠
  5
46E
 10
905.176
 20
-313.936
 30
0.000000
  70
    32
  0
VERTEX
  8
図枠
  5
46F
 10
905.199
 20
-313.941
 30
0.000000
  70
    32
  0
VERTEX
  8
図枠
  5
470
 10
905.221
 20
-313.946
 30
0.000000
  70
    32
  0
VERTEX
  8
図枠
  5
471
 10
905.244
 20
-313.951
 30
0.000000
  70
    32
  0
VERTEX
  8
図枠
  5
472
 10
905.267
 20
-313.955
 30
0.000000
  70
    32
  0
VERTEX
  8
図枠
  5
473
 10
905.289
 20
-313.960
 30
0.000000
  70
    32
  0
VERTEX
  8
図枠
  5
474
 10
905.312
 20
-313.965
 30
0.000000
  70
    32
  0
VERTEX
  8
図枠
  5
475
 10
905.335
 20
-313.970
 30
0.000000
  70
    32
  0
VERTEX
  8
図枠
  5
476
 10
905.357
 20
-313.975
 30
0.000000
  70
    32
  0
VERTEX
  8
図枠
  5
477
 10
905.380
 20
-313.979
 30
0.000000
  70
    32
  0
VERTEX
  8
図枠
  5
478
 10
905.403
 20
-313.984
 30
0.000000
  70
    32
  0
VERTEX
  8
図枠
  5
479
 10
905.425
 20
-313.989
 30
0.000000
  70
    32
  0
VERTEX
  8
図枠
  5
47A
 10
905.448
 20
-313.994
 30
0.000000
  70
    32
  0
VERTEX
  8
図枠
  5
47B
 10
905.471
 20
-313.998
 30
0.000000
  70
    32
  0
VERTEX
  8
図枠
  5
47C
 10
905.493
 20
-314.003
 30
0.000000
  70
    32
  0
VERTEX
  8
図枠
  5
47D
 10
905.516
 20
-314.008
 30
0.000000
  70
    32
  0
VERTEX
  8
図枠
  5
47E
 10
905.539
 20
-314.013
 30
0.000000
  70
    32
  0
VERTEX
  8
図枠
  5
47F
 10
905.561
 20
-314.017
 30
0.000000
  70
    32
  0
VERTEX
  8
図枠
  5
480
 10
905.584
 20
-314.022
 30
0.000000
  70
    32
  0
VERTEX
  8
図枠
  5
481
 10
905.607
 20
-314.027
 30
0.000000
  70
    32
  0
VERTEX
  8
図枠
  5
482
 10
905.630
 20
-314.032
 30
0.000000
  70
    32
  0
VERTEX
  8
図枠
  5
483
 10
905.652
 20
-314.036
 30
0.000000
  70
    32
  0
VERTEX
  8
図枠
  5
484
 10
905.675
 20
-314.041
 30
0.000000
  70
    32
  0
VERTEX
  8
図枠
  5
485
 10
905.698
 20
-314.046
 30
0.000000
  70
    32
  0
VERTEX
  8
図枠
  5
486
 10
905.720
 20
-314.051
 30
0.000000
  70
    32
  0
VERTEX
  8
図枠
  5
487
 10
905.743
 20
-314.055
 30
0.000000
  70
    32
  0
VERTEX
  8
図枠
  5
488
 10
905.766
 20
-314.060
 30
0.000000
  70
    32
  0
VERTEX
  8
図枠
  5
489
 10
905.788
 20
-314.065
 30
0.000000
  70
    32
  0
VERTEX
  8
図枠
  5
48A
 10
905.811
 20
-314.069
 30
0.000000
  70
    32
  0
VERTEX
  8
図枠
  5
48B
 10
905.834
 20
-314.074
 30
0.000000
  70
    32
  0
SEQEND
  8
図枠
  5
48C
  0
LINE
  5
84
  8
図枠
 10
909.83818144639997
 20
-293.20234914399998
 30
0.0
 11
909.83818144639997
 21
-295.50611874399999
 31
0.0
  0
CIRCLE
  5
85
  8
図枠
 10
904.57222728320005
 20
-294.35423394399999
 30
0.0
 40
1.151884799999999
  0
LINE
  5
86
  8
図枠
 10
889.70691532910007
 20
-312.4742833844
 30
0.0
 11
891.70671532910001
 21
-312.4742833844
 31
0.0
  0
LINE
  5
87
  8
図枠
 10
907.60759604909993
 20
-311.27440338439999
 30
0.0
 11
910.02868724910002
 21
-311.27440338439999
 31
0.0
  0
LINE
  5
88
  8
図枠
 10
909.60632948910006
 20
-309.83454738440003
 30
0.0
 11
909.20743604910001
 21
-308.47468338440001
 31
0.0
  0
LINE
  5
89
  8
図枠
 10
898.63450732910007
 20
-309.91453938439997
 30
0.0
 11
902.63410732909995
 21
-309.91453938439997
 31
0.0
  0
LINE
  5
8A
  8
図枠
 10
898.63450732910007
 20
-308.47468338440001
 30
0.0
 11
898.63450732910007
 21
-309.91453938439997
 31
0.0
  0
LINE
  5
8B
  8
図枠
 10
898.50883368320012
 20
-290.10465894399999
 30
0.0
 11
898.50883368320012
 21
-298.60380894399998
 31
0.0
  0
LINE
  5
8C
  8
図枠
 10
898.63450732910007
 20
-310.58984827469999
 30
0.0
 11
898.63450732910007
 21
-310.33218582950002
 31
0.0
  0
LINE
  5
8D
  8
図枠
 10
905.83378732910001
 20
-308.47468338440001
 30
0.0
 11
898.63450732910007
 21
-308.47468338440001
 31
0.0
  0
LINE
  5
8E
  8
図枠
 62
     5
 10
880.51063368320001
 20
-140.61960894399999
 30
0.0
 11
880.51063368320001
 21
-125.621108944
 31
0.0
  0
INSERT
  5
8F
  8
0
  6
CONTINUOUS
  2
*U23
 10
0.0
 20
0.0
 30
0.0
  0
INSERT
  5
90
  8
0
  6
CONTINUOUS
  2
*U24
 10
0.0
 20
0.0
 30
0.0
  0
CIRCLE
  5
91
  8
ﾚｲﾔ_1
 62
     5
 10
957.15266877689987
 20
-281.84873703400001
 30
0.0
 40
2.5
  0
LINE
  5
92
  8
図枠
 10
914.44572064639999
 20
-292.05046434400009
 30
0.0
 11
914.44572064639999
 21
-296.658003544
 31
0.0
  0
LINE
  5
93
  8
図枠
 10
914.44572064639999
 20
-292.05046434400009
 30
0.0
 11
914.44572064639999
 21
-296.658003544
 31
0.0
  0
LINE
  5
94
  8
図枠
 10
914.80687604909997
 20
-309.83454738440003
 30
0.0
 11
914.80687604909997
 21
-311.27440338439999
 31
0.0
  0
LINE
  5
95
  8
図枠
 10
912.47043191539979
 20
-311.91433938440002
 30
0.0
 11
914.80687604909997
 21
-311.91433938440002
 31
0.0
  0
LINE
  5
96
  8
図枠
 10
911.75483736809997
 20
-309.42760497030002
 30
0.0
 11
912.40711604909995
 21
-308.47468338440001
 31
0.0
  0
INSERT
  5
97
  8
0
  6
CONTINUOUS
  2
*U25
 10
0.0
 20
0.0
 30
0.0
  0
LINE
  5
98
  8
図枠
 10
878.51083368320008
 20
-290.10465894399999
 30
0.0
 11
878.51083368320008
 21
-298.60380894399998
 31
0.0
  0
LINE
  5
99
  8
図枠
 10
888.5098336832001
 20
-298.60380894399998
 30
0.0
 11
888.5098336832001
 21
-307.10295894400002
 31
0.0
  0
INSERT
  5
9A
  8
0
  6
CONTINUOUS
  2
*U26
 10
0.0
 20
0.0
 30
0.0
  0
LINE
  5
9B
  8
図枠
 10
889.70691532910007
 20
-312.87424338440002
 30
0.0
 11
889.70691532910007
 21
-314.07412338440002
 31
0.0
  0
LINE
  5
9C
  8
図枠
 62
     5
 10
974.5012336832001
 20
-315.60210894400001
 30
0.0
 11
974.5012336832001
 21
-125.621108944
 31
0.0
  0
LINE
  5
9D
  8
図枠
 10
905.03386732910008
 20
-309.67456338440002
 30
0.0
 11
905.83378732910001
 21
-308.47468338440001
 31
0.0
  0
LINE
  5
9E
  8
図枠
 10
895.30635532910003
 20
-311.27440338439999
 30
0.0
 11
896.50623532910015
 21
-311.27440338439999
 31
0.0
  0
LINE
  5
9F
  8
図枠
 10
907.60759604909993
 20
-309.83454738440003
 30
0.0
 11
907.60759604909993
 21
-311.27440338439999
 31
0.0
  0
ARC
  5
A0
  8
図枠
 10
900.63430732910012
 20
-309.67456338440002
 30
0.0
 40
4.3995600000000001
 50
322.48761197969998
 51
0.0
  0
CIRCLE
  5
A1
  8
図枠
 10
904.57222728320005
 20
-294.35423394399999
 30
0.0
 40
1.151884799999999
  0
INSERT
  5
A2
  8
0
  6
CONTINUOUS
  2
*U27
 10
0.0
 20
0.0
 30
0.0
  0
INSERT
  5
A3
  8
0
  6
CONTINUOUS
  2
*U28
 10
0.0
 20
0.0
 30
0.0
  0
INSERT
  5
A4
  8
0
  6
CONTINUOUS
  2
*U29
 10
0.0
 20
0.0
 30
0.0
  0
LINE
  5
A5
  8
図枠
 10
911.87194105679987
 20
-309.83454738440003
 30
0.0
 11
914.80687604909997
 21
-309.83454738440003
 31
0.0
  0
LINE
  5
A6
  8
図枠
 10
914.44572064639999
 20
-292.05046434400009
 30
0.0
 11
914.44572064639999
 21
-296.658003544
 31
0.0
  0
INSERT
  5
A7
  8
0
  6
CONTINUOUS
  2
*U30
 10
0.0
 20
0.0
 30
0.0
  0
LINE
  5
A8
  8
図枠
 10
912.47043191539979
 20
-311.91433938440002
 30
0.0
 11
912.28628088199991
 21
-311.27440338439999
 31
0.0
  0
INSERT
  5
A9
  8
0
  6
CONTINUOUS
  2
*U31
 10
0.0
 20
0.0
 30
0.0
  0
LINE
  5
AA
  8
図枠
 10
896.50623532910015
 20
-310.07452338439998
 30
0.0
 11
896.50623532910015
 21
-311.27440338439999
 31
0.0
  0
LINE
  5
AB
  8
図枠
 10
902.26319441740009
 20
-311.28965858279997
 30
0.0
 11
902.07073702000002
 21
-311.50222801220002
 31
0.0
  0
LINE
  5
AC
  8
図枠
 10
892.10667532909997
 20
-312.87424338440002
 30
0.0
 11
889.70691532910007
 21
-312.87424338440002
 31
0.0
  0
LINE
  5
AD
  8
図枠
 10
911.87194105679987
 20
-309.83454738440003
 30
0.0
 11
911.75483736809997
 21
-309.42760497030002
 31
0.0
  0
LINE
  5
AE
  8
ﾚｲﾔ_1
 62
     5
 10
882.75134829719991
 20
-135.18981719300001
 30
0.0
 11
887.70134829719996
 21
-135.18981719300001
 31
0.0
  0
LINE
  5
AF
  8
ﾚｲﾔ_1
 62
     5
 10
885.22634829720005
 20
-130.9029914443
 30
0.0
 11
882.75134829719991
 21
-135.18981719300001
 31
0.0
  0
LINE
  5
B0
  8
図枠
 10
860.51263368319997
 20
-294.35423394399999
 30
0.0
 11
876.51103368320003
 21
-294.35423394399999
 31
0.0
  0
LINE
  5
B1
  8
図枠
 10
889.70691532910007
 20
-311.27440338439999
 30
0.0
 11
889.70691532910007
 21
-312.4742833844
 31
0.0
  0
LINE
  5
B2
  8
図枠
 10
889.70691532910007
 20
-308.47468338440001
 30
0.0
 11
889.70691532910007
 21
-310.07452338439998
 31
0.0
  0
LINE
  5
B3
  8
図枠
 10
896.50623532910015
 20
-310.07452338439998
 30
0.0
 11
895.30635532910003
 21
-310.07452338439998
 31
0.0
  0
LINE
  5
B4
  8
図枠
 10
909.20743604910001
 20
-308.47468338440001
 30
0.0
 11
912.40711604909995
 21
-308.47468338440001
 31
0.0
  0
LINE
  5
B5
  8
図枠
 10
909.83818144639997
 20
-295.50611874399999
 30
0.0
 11
914.44572064639999
 21
-296.658003544
 31
0.0
  0
LINE
  5
B6
  8
図枠
  6
BORDER
 10
904.57222728320005
 20
-290.89857954399997
 30
0.0
 11
904.57222728320005
 21
-297.809888344
 31
0.0
  0
LINE
  5
B7
  8
図枠
 10
893.30655532910009
 20
-311.27440338439999
 30
0.0
 11
893.30655532910009
 21
-311.67436338440001
 31
0.0
  0
LINE
  5
B8
  8
図枠
 10
895.30635532910003
 20
-309.67456338440002
 30
0.0
 11
896.50623532910015
 21
-308.47468338440001
 31
0.0
  0
INSERT
  5
B9
  8
0
  6
CONTINUOUS
  2
*U32
 10
0.0
 20
0.0
 30
0.0
  0
LINE
  5
BA
  8
図枠
 10
860.51263368319997
 20
-302.85338394399997
 30
0.0
 11
886.51003368320005
 21
-302.85338394399997
 31
0.0
  0
CIRCLE
  5
BB
  8
ﾚｲﾔ_1
 62
     5
 10
907.2163034358
 20
-194.6966145833
 30
0.0
 40
3.0
  0
LINE
  5
BC
  8
ﾚｲﾔ_1
  6
BORDER
 62
     3
 10
907.2163034358
 20
-185.1966145833
 30
0.0
 11
907.2163034358
 21
-204.1966145833
 31
0.0
  0
LINE
  5
BD
  8
ﾚｲﾔ_1
  6
BORDER
 62
     3
 10
863.90369205449986
 20
-154.11281917030001
 30
0.0
 11
973.90369205449997
 21
-154.11281917030001
 31
0.0
  0
LINE
  5
BE
  8
ﾚｲﾔ_1
 62
     5
 10
885.22634829720005
 20
-130.9029914443
 30
0.0
 11
887.70134829719996
 21
-135.18981719300001
 31
0.0
  0
LINE
  5
BF
  8
図枠
 62
     5
 10
881.75122422569996
 20
-140.13886527220001
 30
0.0
 11
886.70072922570012
 21
-140.13886527220001
 31
0.0
  0
LINE
  5
C0
  8
図枠
 10
889.70691532910007
 20
-310.07452338439998
 30
0.0
 11
888.78612436809988
 21
-310.07452338439998
 31
0.0
  0
INSERT
  5
C1
  8
0
  6
CONTINUOUS
  2
*U33
 10
0.0
 20
0.0
 30
0.0
  0
LINE
  5
C2
  8
図枠
 62
     5
 10
888.5098336832001
 20
-140.61960894399999
 30
0.0
 11
888.5098336832001
 21
-125.621108944
 31
0.0
  0
INSERT
  5
C3
  8
0
  6
CONTINUOUS
  2
*U34
 10
0.0
 20
0.0
 30
0.0
  0
INSERT
  5
C4
  8
0
  6
CONTINUOUS
  2
*U35
 10
0.0
 20
0.0
 30
0.0
  0
LINE
  5
C5
  8
図枠
 62
     5
 10
964.50223368320007
 20
-140.61960894399999
 30
0.0
 11
964.50223368320007
 21
-125.621108944
 31
0.0
  0
LINE
  5
C6
  8
図枠
 62
     5
 10
954.50323368320005
 20
-140.61960894399999
 30
0.0
 11
954.50323368320005
 21
-125.621108944
 31
0.0
  0
LINE
  5
C7
  8
図枠
 10
898.63450732910007
 20
-312.87424338440002
 30
0.0
 11
899.59441132910013
 21
-312.87424338440002
 31
0.0
  0
LINE
  5
C8
  8
図枠
 10
898.63450732910007
 20
-310.33218582950002
 30
0.0
 11
901.8341873290999
 21
-310.33218582950002
 31
0.0
  0
INSERT
  5
C9
  8
0
  6
CONTINUOUS
  2
*U36
 10
0.0
 20
0.0
 30
0.0
  0
LINE
  5
CA
  8
図枠
 62
     5
 10
904.50823368320005
 20
-140.61960894399999
 30
0.0
 11
904.50823368320005
 21
-125.621108944
 31
0.0
  0
LINE
  5
CB
  8
図枠
 62
     5
 10
884.22597672570009
 20
-135.85246820610001
 30
0.0
 11
881.75122422569996
 21
-140.13886527220001
 31
0.0
  0
LINE
  5
CC
  8
図枠
 62
     5
 10
884.22597672570009
 20
-135.85246820610001
 30
0.0
 11
886.70072922570012
 21
-140.13886527220001
 31
0.0
  0
CIRCLE
  5
CD
  8
図枠
 10
904.57222728320005
 20
-294.35423394399999
 30
0.0
 40
2.303769599999999
  0
LINE
  5
CE
  8
図枠
  6
BORDER
 10
904.57222728320005
 20
-290.89857954399997
 30
0.0
 11
904.57222728320005
 21
-297.809888344
 31
0.0
  0
LINE
  5
CF
  8
図枠
 10
888.78612436809988
 20
-310.07452338439998
 30
0.0
 11
888.78612436809988
 21
-311.27440338439999
 31
0.0
  0
LINE
  5
D0
  8
図枠
 10
912.28628088199991
 20
-311.27440338439999
 30
0.0
 11
914.80687604909997
 21
-311.27440338439999
 31
0.0
  0
LINE
  5
D1
  8
図枠
 10
914.44572064639999
 20
-292.05046434400009
 30
0.0
 11
914.44572064639999
 21
-296.658003544
 31
0.0
  0
CIRCLE
  5
D2
  8
図枠
 10
904.57222728320005
 20
-294.35423394399999
 30
0.0
 40
1.151884799999999
  0
LINE
  5
D3
  8
図枠
 10
896.50623532910015
 20
-308.47468338440001
 30
0.0
 11
893.30655532910009
 21
-308.47468338440001
 31
0.0
  0
LINE
  5
D4
  8
ﾚｲﾔ_1
 62
     5
 10
760.76979881989996
 20
-261.25930996150009
 30
0.0
 11
761.68712025130003
 21
-251.16877421539999
 31
0.0
  0
ARC
  5
D5
  8
ﾚｲﾔ_1
 62
     5
 10
762.68301345780003
 20
-251.25930996150001
 30
0.0
 40
1.0
 50
90.0
 51
174.8055710923
  0
LINE
  5
D6
  8
ﾚｲﾔ_1
 62
     5
 10
793.85658418189996
 20
-250.25930996150001
 30
0.0
 11
762.68301345780003
 21
-250.25930996150001
 31
0.0
  0
LINE
  5
D7
  8
ﾚｲﾔ_1
 62
     5
 10
794.85247738839985
 20
-251.16877421539999
 30
0.0
 11
795.76979881990007
 21
-261.25930996150009
 31
0.0
  0
ARC
  5
D8
  8
ﾚｲﾔ_1
 62
     5
 10
793.85658418189996
 20
-251.25930996150001
 30
0.0
 40
1.0
 50
5.1944289076999999
 51
90.0
  0
LINE
  5
D9
  8
ﾚｲﾔ_1
 62
     5
 10
791.76979879780004
 20
-258.45930996150003
 30
0.0
 11
791.76979880609986
 21
-260.25930996149998
 31
0.0
  0
DIMENSION
  5
EA
  8
寸法線
  2
*D0
 10
932.71630343579989
 20
-201.1966145833
 30
0.0
 11
932.71630343579989
 21
-194.6966145833
 31
0.0
 70
   128
  1
<>
 13
922.7163034358
 23
-201.1966145833
 33
0.0
 14
922.7163034358
 24
-188.1966145833
 34
0.0
 50
90.0
  0
DIMENSION
  5
F9
  8
寸法線
  2
*D1
 10
922.7163034358
 20
-178.1966145833
 30
0.0
 11
907.2163034358
 21
-178.1966145833
 31
0.0
 70
   128
  1
<>
 13
922.7163034358
 23
-188.1966145833
 33
0.0
 14
891.71630343579989
 24
-188.1966145833
 34
0.0
  0
INSERT
  5
FA
  8
0
  6
CONTINUOUS
  2
*U37
 10
0.0
 20
0.0
 30
0.0
  0
INSERT
  5
FB
  8
0
  6
CONTINUOUS
  2
*U38
 10
0.0
 20
0.0
 30
0.0
  0
LINE
  5
FC
  8
ﾚｲﾔ_1
 62
     5
 10
921.7163034358
 20
-201.1966145833
 30
0.0
 11
922.7163034358
 21
-200.1966145833
 31
0.0
  0
LINE
  5
FD
  8
ﾚｲﾔ_1
 62
     5
 10
922.7163034358
 20
-188.1966145833
 30
0.0
 11
922.7163034358
 21
-201.1966145833
 31
0.0
  0
LINE
  5
FE
  8
ﾚｲﾔ_1
 62
     5
 10
921.7163034358
 20
-188.1966145833
 30
0.0
 11
922.7163034358
 21
-189.1966145833
 31
0.0
  0
LINE
  5
FF
  8
ﾚｲﾔ_1
  6
BORDER
 62
     3
 10
888.96630343579989
 20
-194.6966145833
 30
0.0
 11
925.71630343579989
 21
-194.6966145833
 31
0.0
  0
LINE
  5
100
  8
ﾚｲﾔ_1
 62
     5
 10
891.71630343579989
 20
-188.1966145833
 30
0.0
 11
922.7163034358
 21
-188.1966145833
 31
0.0
  0
LINE
  5
101
  8
ﾚｲﾔ_1
 62
     5
 10
922.7163034358
 20
-201.1966145833
 30
0.0
 11
891.71630343579989
 21
-201.1966145833
 31
0.0
  0
LINE
  5
102
  8
ﾚｲﾔ_1
 62
     5
 10
892.71630343580011
 20
-201.1966145833
 30
0.0
 11
891.71630343579989
 21
-200.1966145833
 31
0.0
  0
LINE
  5
103
  8
ﾚｲﾔ_1
 62
     5
 10
891.71630343579989
 20
-201.1966145833
 30
0.0
 11
891.71630343579989
 21
-188.1966145833
 31
0.0
  0
LINE
  5
104
  8
ﾚｲﾔ_1
 62
     5
 10
892.71630343580011
 20
-188.1966145833
 30
0.0
 11
891.71630343579989
 21
-189.1966145833
 31
0.0
  0
LINE
  5
105
  8
ﾚｲﾔ_1
  6
BORDER
 62
     3
 10
863.90369205449986
 20
-224.11281917030001
 30
0.0
 11
863.90369205449986
 21
-154.11281917030001
 31
0.0
  0
LINE
  5
106
  8
ﾚｲﾔ_1
  6
BORDER
 62
     3
 10
863.90369205449986
 20
-224.11281917030001
 30
0.0
 11
973.90369205449997
 21
-224.11281917030001
 31
0.0
  0
LINE
  5
107
  8
ﾚｲﾔ_1
 10
925.57610661659999
 20
-179.74902162480001
 30
0.0
 11
952.92931630019996
 21
-179.74902162480001
 31
0.0
  0
LINE
  5
108
  8
ﾚｲﾔ_1
 10
909.56623588469995
 20
-192.83172383979999
 30
0.0
 11
925.57610661659999
 21
-179.74902162480001
 31
0.0
  0
SOLID
  5
109
  8
ﾚｲﾔ_1
 10
909.56623588469995
 20
-192.83172383979999
 30
0.0
 11
911.69981470699986
 21
-189.86750674789999
 31
0.0
 12
911.56598669979985
 22
-191.1975979398
 32
0.0
 13
911.56598669979985
 23
-191.1975979398
 33
0.0
  0
SOLID
  5
10A
  8
ﾚｲﾔ_1
 10
909.56623588469995
 20
-192.83172383979999
 30
0.0
 11
912.89607789179991
 21
-191.33142594700001
 31
0.0
 12
911.56598669979985
 22
-191.1975979398
 32
0.0
 13
911.56598669979985
 23
-191.1975979398
 33
0.0
  0
INSERT
  5
10B
  8
0
  6
CONTINUOUS
  2
*U39
 10
0.0
 20
0.0
 30
0.0
  0
CIRCLE
  5
10C
  8
ﾚｲﾔ_1
 62
     5
 10
907.2163034358
 20
-194.6966145833
 30
0.0
 40
2.0
  0
LINE
  5
10D
  8
ﾚｲﾔ_1
 62
     5
 10
868.87014661539979
 20
-254.55930994830001
 30
0.0
 11
871.3701466153999
 21
-254.55930994830001
 31
0.0
  0
LINE
  5
10E
  8
ﾚｲﾔ_1
 62
     5
 10
868.87014661539979
 20
-252.7593099483
 30
0.0
 11
868.87014661539979
 21
-254.55930994830001
 31
0.0
  0
ARC
  5
10F
  8
ﾚｲﾔ_1
 62
     5
 10
872.37014653000006
 20
-251.25930994180001
 30
0.0
 40
1.0
 50
90.000000376100004
 51
179.99998982610001
  0
LINE
  5
110
  8
ﾚｲﾔ_1
 62
     5
 10
868.87014654179995
 20
-260.25930994829997
 30
0.0
 11
868.87014654179995
 21
-258.45930994830002
 31
0.0
  0
LINE
  5
111
  8
ﾚｲﾔ_1
 62
     5
 10
868.87014654179995
 20
-258.45930994830002
 30
0.0
 11
871.37014654179995
 21
-258.45930994830002
 31
0.0
  0
LINE
  5
112
  8
ﾚｲﾔ_1
 62
     5
 10
868.87014654179995
 20
-260.25930994829997
 30
0.0
 11
871.37014654179995
 21
-260.25930994829997
 31
0.0
  0
DIMENSION
  5
121
  8
寸法線
  2
*D2
 10
887.87014652350001
 20
-240.2593098433
 30
0.0
 11
879.62014652350001
 21
-240.2593098433
 31
0.0
 70
   128
  1
<>
 13
887.87014652350001
 23
-250.2593098433
 33
0.0
 14
871.37014652350013
 24
-250.2593099483
 34
0.0
  0
DIMENSION
  5
130
  8
寸法線
  2
*D3
 10
871.37014652350013
 20
-240.2593099483
 30
0.0
 11
862.8535431455
 21
-240.2593099483
 31
0.0
 70
   128
  1
(2)
 13
871.37014652350013
 23
-250.2593099483
 33
0.0
 14
868.87014661539979
 24
-252.7593099483
 34
0.0
  0
DIMENSION
  5
13F
  8
寸法線
  2
*D4
 10
812.76979880609986
 20
-266.25930996149998
 30
0.0
 11
812.76979880609986
 21
-258.25930996149998
 31
0.0
 70
   128
  1
<>
 13
802.76979880609986
 23
-266.25930996149998
 33
0.0
 14
794.26979884289995
 24
-250.25930996150001
 34
0.0
 50
90.0
  0
DIMENSION
  5
14E
  8
寸法線
  2
*D5
 10
795.76979881990007
 20
-240.74486535189999
 30
0.0
 11
778.27034264270003
 21
-240.74486535189999
 31
0.0
 70
   128
  1
<>
 13
795.76979881990007
 23
-261.25930996150009
 33
0.0
 14
760.76979881989996
 24
-261.25930996150009
 34
0.0
  0
DIMENSION
  5
15D
  8
寸法線
  2
*D6
 10
753.76979880609986
 20
-279.86213989459998
 30
0.0
 11
778.26979880609986
 21
-279.86213989459998
 31
0.0
 70
   128
  1
<>
 13
753.76979880609986
 23
-266.25930996149998
 33
0.0
 14
802.76979880609986
 24
-266.25930996149998
 34
0.0
 50
180.0
  0
DIMENSION
  5
16C
  8
寸法線
  2
*D7
 10
743.76979880609997
 20
-261.25930996150009
 30
0.0
 11
743.76979880609997
 21
-263.75930996149998
 31
0.0
 70
   128
  1
<>
 13
754.26979900899994
 23
-261.25930996150009
 33
0.0
 14
753.76979880609986
 24
-266.25930996149998
 34
0.0
 50
90.0
  0
LINE
  5
16D
  8
ﾚｲﾔ_1
 62
     5
 10
887.87014653000006
 20
-251.25931001949999
 30
0.0
 11
887.87014651689992
 21
-266.2593098433
 31
0.0
  0
LINE
  5
16E
  8
ﾚｲﾔ_1
 62
     5
 10
871.37014651690004
 20
-266.25930994829997
 30
0.0
 11
887.87014651689992
 21
-266.2593098433
 31
0.0
  0
LINE
  5
16F
  8
ﾚｲﾔ_1
 62
     5
 10
871.37014653000006
 20
-251.2593097642
 30
0.0
 11
871.37014651690004
 21
-266.25930994829997
 31
0.0
  0
LINE
  5
170
  8
ﾚｲﾔ_1
  6
BORDER
 62
     3
 10
879.62014660190005
 20
-247.25930989579999
 30
0.0
 11
879.6201465035
 21
-269.25930996149998
 31
0.0
  0
LINE
  5
171
  8
ﾚｲﾔ_1
 62
     5
 10
753.76979880609986
 20
-266.25930996149998
 30
0.0
 11
802.76979880609986
 21
-266.25930996149998
 31
0.0
  0
LINE
  5
172
  8
ﾚｲﾔ_1
 62
     5
 10
753.76979880609986
 20
-266.25930996149998
 30
0.0
 11
802.76979880609986
 21
-266.25930996149998
 31
0.0
  0
LINE
  5
173
  8
ﾚｲﾔ_1
 62
     5
 10
753.76979881670002
 20
-262.25930996149998
 30
0.0
 11
753.76979880609986
 21
-266.25930996149998
 31
0.0
  0
LINE
  5
174
  8
ﾚｲﾔ_1
 62
     5
 10
802.76979881670002
 20
-262.25930996149998
 30
0.0
 11
802.76979880609986
 21
-266.25930996149998
 31
0.0
  0
LINE
  5
175
  8
ﾚｲﾔ_1
  6
BORDER
 62
     3
 10
778.26979881989996
 20
-246.25930996150001
 30
0.0
 11
778.26979881989996
 21
-269.25930996149998
 31
0.0
  0
ARC
  5
176
  8
ﾚｲﾔ_1
 62
     5
 10
754.76979881670002
 20
-262.25930996149998
 30
0.0
 40
1.0
 50
90.0
 51
180.0
  0
ARC
  5
177
  8
ﾚｲﾔ_1
 62
     5
 10
801.76979881670002
 20
-262.25930996149998
 30
0.0
 40
1.0
 50
0.0
 51
90.0
  0
LINE
  5
178
  8
ﾚｲﾔ_1
 62
     5
 10
801.76979881670002
 20
-261.25930996150009
 30
0.0
 11
795.76979881990007
 21
-261.25930996150009
 31
0.0
  0
LINE
  5
179
  8
ﾚｲﾔ_1
 62
     5
 10
754.76979881670002
 20
-261.25930996150009
 30
0.0
 11
760.76979881989996
 21
-261.25930996150009
 31
0.0
  0
LINE
  5
17A
  8
ﾚｲﾔ_1
 62
     5
 10
759.51979872799996
 20
-185.40441021149999
 30
0.0
 11
759.51979872799996
 21
-182.9044097064
 31
0.0
  0
LINE
  5
17B
  8
ﾚｲﾔ_1
  6
BORDER
 62
     3
 10
757.76979872799996
 20
-188.6544099624
 30
0.0
 11
757.76979872799996
 21
-179.6544099624
 31
0.0
  0
ARC
  5
17C
  8
ﾚｲﾔ_1
 62
     5
 10
757.76979872799996
 20
-182.9044099624
 30
0.0
 40
1.75
 50
0.0000083838
 51
179.99998817540001
  0
LINE
  5
17D
  8
ﾚｲﾔ_1
  6
BORDER
 62
     3
 10
805.76979872799996
 20
-184.1544092689
 30
0.0
 11
750.76979872800007
 21
-184.15441006149999
 31
0.0
  0
DIMENSION
  5
18C
  8
寸法線
  2
*D8
 10
798.76979872799996
 20
-162.1641540121
 30
0.0
 11
778.51437816240002
 21
-162.1641540121
 31
0.0
 70
   128
  1
<>
 13
798.76979872799996
 23
-179.65440936799999
 33
0.0
 14
757.76979872799996
 24
-179.6544099624
 34
0.0
  0
DIMENSION
  5
19B
  8
寸法線
  2
*D9
 10
814.77560660459994
 20
-187.15440936799999
 30
0.0
 11
814.77560660459994
 21
-184.1544093679999
 31
0.0
 70
   128
  1
<>
 13
798.76979872799996
 23
-187.15440936799999
 33
0.0
 14
798.76979872799996
 24
-181.15440936799999
 34
0.0
 50
90.0
  0
DIMENSION
  5
1AA
  8
寸法線
  2
*D10
 10
800.51979872799996
 20
-169.25536115520001
 30
0.0
 11
806.0985555371999
 21
-169.25536115520001
 31
0.0
 70
   128
  1
<>
 13
800.51979872799996
 23
-180.40440900679999
 33
0.0
 14
797.01979872799996
 24
-180.40440911190001
 34
0.0
  0
LINE
  5
1B1
  8
ﾚｲﾔ_1
 62
     5
 10
764.76979879780004
 20
-258.45930996150003
 30
0.0
 11
764.76979880609997
 21
-260.25930996149998
 31
0.0
  0
LINE
  5
1B2
  8
ﾚｲﾔ_1
 62
     5
 10
791.76979879780004
 20
-258.45930996150003
 30
0.0
 11
764.76979879780004
 21
-258.45930996150003
 31
0.0
  0
LINE
  5
1B3
  8
ﾚｲﾔ_1
 62
     5
 10
791.76979880609986
 20
-260.25930996149998
 30
0.0
 11
764.76979880609997
 21
-260.25930996149998
 31
0.0
  0
LINE
  5
1B4
  8
ﾚｲﾔ_1
 62
     5
 10
791.76979885799994
 20
-254.55930996149999
 30
0.0
 11
764.76979885799994
 21
-254.55930996149999
 31
0.0
  0
LINE
  5
1B5
  8
ﾚｲﾔ_1
 62
     5
 10
791.76979884970001
 20
-252.75930996150001
 30
0.0
 11
764.76979884970001
 21
-252.75930996150001
 31
0.0
  0
LINE
  5
1B6
  8
ﾚｲﾔ_1
 62
     5
 10
791.76979884970001
 20
-252.75930996150001
 30
0.0
 11
791.76979885799994
 21
-254.55930996149999
 31
0.0
  0
LINE
  5
1B7
  8
ﾚｲﾔ_1
 62
     5
 10
764.76979884970001
 20
-252.75930996150001
 30
0.0
 11
764.76979885799994
 21
-254.55930996149999
 31
0.0
  0
ARC
  5
1B8
  8
ﾚｲﾔ_1
 62
     5
 10
886.87014651100003
 20
-262.25930984989998
 30
0.0
 40
1.0
 50
0.0000003761
 51
90.000000376100004
  0
ARC
  5
1B9
  8
ﾚｲﾔ_1
 62
     5
 10
886.87014653000006
 20
-251.25930984990001
 30
0.0
 40
1.0
 50
359.99999028000002
 51
90.000000376100004
  0
LINE
  5
1BA
  8
ﾚｲﾔ_1
 62
     5
 10
872.37014652350001
 20
-250.25930994180001
 30
0.0
 11
886.87014652350001
 21
-250.25930984990001
 31
0.0
  0
LINE
  5
1BB
  8
ﾚｲﾔ_1
 62
     5
 10
872.37014650449987
 20
-261.25930994179998
 30
0.0
 11
886.87014650449987
 21
-261.25930984989998
 31
0.0
  0
ARC
  5
1BC
  8
ﾚｲﾔ_1
 62
     5
 10
872.37014651100003
 20
-262.25930994179998
 30
0.0
 40
1.0
 50
90.000000376100004
 51
180.00000037609999
  0
LINE
  5
1BD
  8
ﾚｲﾔ_1
 62
     5
 10
868.87014661539979
 20
-252.7593099483
 30
0.0
 11
871.3701466153999
 21
-252.7593099483
 31
0.0
  0
ARC
  5
1BE
  8
ﾚｲﾔ_1
 62
     5
 10
757.76979872799996
 20
-185.4044099624
 30
0.0
 40
1.75
 50
180.00000828579999
 51
359.99999184469999
  0
LINE
  5
1BF
  8
ﾚｲﾔ_1
 62
     5
 10
764.76979877799988
 20
-194.4044095232
 30
0.0
 11
764.76979877799988
 21
-192.4044095232
 31
0.0
  0
LINE
  5
1C0
  8
ﾚｲﾔ_1
 62
     5
 10
791.76979877799999
 20
-194.4044095232
 30
0.0
 11
764.76979877799988
 21
-194.4044095232
 31
0.0
  0
LINE
  5
1C1
  8
ﾚｲﾔ_1
 62
     5
 10
791.76979877799999
 20
-194.4044095232
 30
0.0
 11
791.76979877799999
 21
-192.4044095232
 31
0.0
  0
ARC
  5
1C2
  8
ﾚｲﾔ_1
 62
     5
 10
801.76979882880005
 20
-191.4044094711
 30
0.0
 40
1.0
 50
269.99999217530001
 51
0.0
  0
LINE
  5
1C3
  8
ﾚｲﾔ_1
 62
     5
 10
754.7697990014999
 20
-192.40440985929999
 30
0.0
 11
801.76979869219997
 21
-192.4044094711
 31
0.0
  0
ARC
  5
1C4
  8
ﾚｲﾔ_1
 62
     5
 10
754.76979882880005
 20
-191.40440985929999
 30
0.0
 40
1.0
 50
180.0
 51
270.00000990000001
  0
ARC
  5
1C5
  8
ﾚｲﾔ_1
 62
     5
 10
794.76979881190005
 20
-191.404409413
 30
0.0
 40
1.0
 50
270.0
 51
0.0
  0
ARC
  5
1C6
  8
ﾚｲﾔ_1
 62
     5
 10
798.76979872799996
 20
-185.40440936799999
 30
0.0
 40
1.75
 50
180.00000815529989
 51
359.99999171420001
  0
LINE
  5
1C7
  8
ﾚｲﾔ_1
 62
     5
 10
800.51979872799996
 20
-185.40440962100001
 30
0.0
 11
800.51979872799996
 21
-182.90440900679999
 31
0.0
  0
LINE
  5
1C8
  8
ﾚｲﾔ_1
  6
BORDER
 62
     3
 10
798.76979872799996
 20
-188.65440936799999
 30
0.0
 11
798.76979872799996
 21
-179.65440936799999
 31
0.0
  0
ARC
  5
1C9
  8
ﾚｲﾔ_1
 62
     5
 10
798.76979872799996
 20
-182.90440936799999
 30
0.0
 40
1.75
 50
0.0000118246
 51
179.99999161619999
  0
LINE
  5
1CA
  8
ﾚｲﾔ_1
 62
     5
 10
797.01979872799996
 20
-185.40440961709999
 30
0.0
 11
797.01979872799996
 21
-182.90440911190001
 31
0.0
  0
ARC
  5
1CB
  8
ﾚｲﾔ_1
 62
     5
 10
761.76979881190005
 20
-191.40440991739999
 30
0.0
 40
1.0
 50
180.0
 51
270.0
  0
LINE
  5
1CC
  8
ﾚｲﾔ_1
 62
     5
 10
760.76979839490002
 20
-176.90440991739999
 30
0.0
 11
760.76979881190005
 21
-191.40440991739999
 31
0.0
  0
LINE
  5
1CD
  8
ﾚｲﾔ_1
 62
     5
 10
795.76979839490002
 20
-176.904409413
 30
0.0
 11
795.76979881190005
 21
-191.404409413
 31
0.0
  0
LINE
  5
1CE
  8
ﾚｲﾔ_1
 62
     5
 10
753.76979882880005
 20
-191.40440985929999
 30
0.0
 11
753.76979841179991
 21
-176.90440985929999
 31
0.0
  0
LINE
  5
1CF
  8
ﾚｲﾔ_1
 62
     5
 10
802.76979882880005
 20
-191.4044094711
 30
0.0
 11
802.76979841179991
 21
-176.9044094711
 31
0.0
  0
LINE
  5
1D0
  8
ﾚｲﾔ_1
  6
BORDER
 62
     3
 10
778.26979841179991
 20
-172.9044095232
 30
0.0
 11
778.26979882880005
 21
-197.4044095232
 31
0.0
  0
ARC
  5
1D1
  8
ﾚｲﾔ_1
 62
     5
 10
801.76979841179991
 20
-176.9044094711
 30
0.0
 40
1.0
 50
0.0
 51
89.999987624500008
  0
LINE
  5
1D2
  8
ﾚｲﾔ_1
 62
     5
 10
754.76979859039977
 20
-175.90440985929999
 30
0.0
 11
801.7697986277999
 21
-175.9044094711
 31
0.0
  0
ARC
  5
1D3
  8
ﾚｲﾔ_1
 62
     5
 10
754.7697984117998
 20
-176.90440985929999
 30
0.0
 40
1.0
 50
89.999989765199999
 51
180.0
  0
ARC
  5
1D4
  8
ﾚｲﾔ_1
 62
     5
 10
794.76979839490002
 20
-176.904409413
 30
0.0
 40
1.0
 50
0.0
 51
90.0
  0
ARC
  5
1D5
  8
ﾚｲﾔ_1
 62
     5
 10
761.76979839490002
 20
-176.90440991739999
 30
0.0
 40
1.0
 50
90.0
 51
180.0
  0
LINE
  5
1D6
  8
ﾚｲﾔ_1
 62
     5
 10
756.01979872799996
 20
-185.40441021550001
 30
0.0
 11
756.01979872799996
 21
-182.90440960129999
 31
0.0
  0
ENDSEC
  0
EOF
