  0
SECTION
  2
HEADER
  9
$ACADVER
  1
AC1009
  9
$INSBASE
 10
0.0
 20
0.0
 30
0.0
  9
$EXTMIN
 10
-284.44133273789998
 20
-176.20303341429999
 30
0.0
  9
$EXTMAX
 10
289.50126726209999
 20
226.7566665857
 30
0.0
  9
$LIMMIN
 10
0.0
 20
0.0
  9
$LIMMAX
 10
0.0
 20
0.0
  9
$ORTHOMODE
 70
     0
  9
$REGENMODE
 70
     1
  9
$FILLMODE
 70
     1
  9
$QTEXTMODE
 70
     0
  9
$MIRRTEXT
 70
     1
  9
$DRAGMODE
 70
     2
  9
$LTSCALE
 40
1.0
  9
$OSMODE
 70
    31
  9
$ATTMODE
 70
     1
  9
$TEXTSIZE
 40
0.0
  9
$TRACEWID
 40
0.05
  9
$TEXTSTYLE
  7
STANDARD
  9
$CLAYER
  8
0
  9
$CELTYPE
  6
CONTINUOUS
  9
$CECOLOR
 62
   256
  9
$DIMSCALE
 40
1.0
  9
$DIMASZ
 40
0.18
  9
$DIMEXO
 40
0.0625
  9
$DIMDLI
 40
0.38
  9
$DIMRND
 40
0.0
  9
$DIMDLE
 40
0.0
  9
$DIMEXE
 40
0.18
  9
$DIMTP
 40
0.0
  9
$DIMTM
 40
0.0
  9
$DIMTXT
 40
0.18
  9
$DIMCEN
 40
0.09
  9
$DIMTSZ
 40
0.0
  9
$DIMTOL
 70
     0
  9
$DIMLIM
 70
     0
  9
$DIMTIH
 70
     1
  9
$DIMTOH
 70
     1
  9
$DIMSE1
 70
     0
  9
$DIMSE2
 70
     0
  9
$DIMTAD
 70
     0
  9
$DIMZIN
 70
     0
  9
$DIMBLK
  1

  9
$DIMASO
 70
     1
  9
$DIMSHO
 70
     1
  9
$DIMPOST
  1

  9
$DIMAPOST
  1

  9
$DIMALT
 70
     0
  9
$DIMALTD
 70
     2
  9
$DIMALTF
 40
25.399999999999999
  9
$DIMLFAC
 40
1.0
  9
$DIMTOFL
 70
     0
  9
$DIMTVP
 40
0.0
  9
$DIMTIX
 70
     0
  9
$DIMSOXD
 70
     0
  9
$DIMSAH
 70
     0
  9
$DIMBLK1
  1

  9
$DIMBLK2
  1

  9
$DIMSTYLE
  2
STANDARD
  9
$DIMCLRD
 70
     0
  9
$DIMCLRE
 70
     0
  9
$DIMCLRT
 70
     0
  9
$DIMTFAC
 40
1.0
  9
$DIMGAP
 40
0.09
  9
$LUNITS
 70
     2
  9
$LUPREC
 70
     4
  9
$SKETCHINC
 40
0.1
  9
$FILLETRAD
 40
0.0
  9
$AUNITS
 70
     0
  9
$AUPREC
 70
     0
  9
$MENU
  1
acad
  9
$ELEVATION
 40
0.0
  9
$PELEVATION
 40
0.0
  9
$THICKNESS
 40
0.0
  9
$LIMCHECK
 70
     0
  9
$BLIPMODE
 70
     0
  9
$CHAMFERA
 40
0.0
  9
$CHAMFERB
 40
0.0
  9
$SKPOLY
 70
     0
  9
$TDCREATE
 40
2454863.5424650931
  9
$TDUPDATE
 40
2454863.542671076
  9
$TDINDWG
 40
0.0002181019
  9
$TDUSRTIMER
 40
0.0002175579
  9
$USRTIMER
 70
     1
  9
$ANGBASE
 50
0.0
  9
$ANGDIR
 70
     0
  9
$PDMODE
 70
     3
  9
$PDSIZE
 40
-1.0
  9
$PLINEWID
 40
0.0
  9
$COORDS
 70
     2
  9
$SPLFRAME
 70
     0
  9
$SPLINETYPE
 70
     6
  9
$SPLINESEGS
 70
     8
  9
$ATTDIA
 70
     0
  9
$ATTREQ
 70
     1
  9
$HANDLING
 70
     1
  9
$HANDSEED
  5
4E6
  9
$SURFTAB1
 70
     6
  9
$SURFTAB2
 70
     6
  9
$SURFTYPE
 70
     6
  9
$SURFU
 70
     6
  9
$SURFV
 70
     6
  9
$UCSNAME
  2

  9
$UCSORG
 10
0.0
 20
0.0
 30
0.0
  9
$UCSXDIR
 10
1.0
 20
0.0
 30
0.0
  9
$UCSYDIR
 10
0.0
 20
1.0
 30
0.0
  9
$PUCSNAME
  2

  9
$PUCSORG
 10
0.0
 20
0.0
 30
0.0
  9
$PUCSXDIR
 10
1.0
 20
0.0
 30
0.0
  9
$PUCSYDIR
 10
0.0
 20
1.0
 30
0.0
  9
$USERI1
 70
     0
  9
$USERI2
 70
     0
  9
$USERI3
 70
     0
  9
$USERI4
 70
     0
  9
$USERI5
 70
     0
  9
$USERR1
 40
0.0
  9
$USERR2
 40
0.0
  9
$USERR3
 40
0.0
  9
$USERR4
 40
0.0
  9
$USERR5
 40
0.0
  9
$WORLDVIEW
 70
     1
  9
$SHADEDGE
 70
     3
  9
$SHADEDIF
 70
    70
  9
$TILEMODE
 70
     1
  9
$MAXACTVP
 70
    16
  9
$PLIMCHECK
 70
     0
  9
$PEXTMIN
 10
1.0000000000000000E+020
 20
1.0000000000000000E+020
 30
1.0000000000000000E+020
  9
$PEXTMAX
 10
-1.0000000000000000E+020
 20
-1.0000000000000000E+020
 30
-1.0000000000000000E+020
  9
$PLIMMIN
 10
0.0
 20
0.0
  9
$PLIMMAX
 10
12.0
 20
9.0
  9
$UNITMODE
 70
     0
  9
$VISRETAIN
 70
     0
  9
$PLINEGEN
 70
     1
  9
$PSLTSCALE
 70
     0
  0
ENDSEC
  0
SECTION
  2
TABLES
  0
TABLE
  2
VPORT
 70
     2
  0
VPORT
  2
*ACTIVE
 70
     0
 10
0.0
 20
0.0
 11
1.0
 21
1.0
 12
2.5299672621000009
 22
25.276816585700011
 13
0.0
 23
0.0
 14
1.0
 24
1.0
 15
0.0
 25
0.0
 16
0.0
 26
0.0
 36
1.0
 17
0.0
 27
0.0
 37
0.0
 40
407.67435817948888
 41
1.4164265129682989
 42
50.0
 43
0.0
 44
0.0
 50
0.0
 51
0.0
 71
     0
 72
   100
 73
     1
 74
     1
 75
     0
 76
     0
 77
     0
 78
     0
  0
ENDTAB
  0
TABLE
  2
LTYPE
 70
    11
  0
LTYPE
  2
CONTINUOUS
 70
     0
  3
Solid line
 72
    65
 73
     0
 40
0.0
  0
LTYPE
  2
DOT
 70
     0
  3
. . . . . . . . 
 72
    65
 73
     2
 40
1.0
 49
0.0
 49
-1.0
  0
LTYPE
  2
DASHED
 70
     0
  3
___  ___  ___  ___  
 72
    65
 73
     2
 40
4.0
 49
3.0
 49
-1.0
  0
LTYPE
  2
HIDDEN
 70
     0
  3
__ __ __ __ 
 72
    65
 73
     2
 40
3.0
 49
2.0
 49
-1.0
  0
LTYPE
  2
STITCH
 70
     0
  3
_ _ _ _ 
 72
    65
 73
     2
 40
2.0
 49
1.0
 49
-1.0
  0
LTYPE
  2
CENTER
 70
     0
  3
______  __  ______  __  
 72
    65
 73
     4
 40
43.0
 49
40.0
 49
-1.0
 49
1.0
 49
-1.0
  0
LTYPE
  2
DASHDOT
 70
     0
  3
____ . ____ . 
 72
    65
 73
     4
 40
32.0
 49
30.0
 49
-1.0
 49
0.0
 49
-1.0
  0
LTYPE
  2
BORDER
 70
     0
  3
__ . __ . 
 72
    65
 73
     4
 40
22.0
 49
20.0
 49
-1.0
 49
0.0
 49
-1.0
  0
LTYPE
  2
CUTTING
 70
     0
  3
________   ___   ___   
 72
    65
 73
     6
 40
45.0
 49
40.0
 49
-1.0
 49
1.0
 49
-1.0
 49
1.0
 49
-1.0
  0
LTYPE
  2
PHANTOM
 70
     0
  3
______  __  __  
 72
    65
 73
     6
 40
35.0
 49
30.0
 49
-1.0
 49
1.0
 49
-1.0
 49
1.0
 49
-1.0
  0
LTYPE
  2
DIVIDE
 70
     0
  3
____ . . ____ . . 
 72
    65
 73
     6
 40
23.0
 49
20.0
 49
-1.0
 49
0.0
 49
-1.0
 49
0.0
 49
-1.0
  0
ENDTAB
  0
TABLE
  2
LAYER
 70
     5
  0
LAYER
  2
0
 70
     0
 62
     7
  6
CONTINUOUS
  0
LAYER
  2
図枠
 70
     0
 62
     7
  6
CONTINUOUS
  0
LAYER
  2
ﾚｲﾔ_1
 70
     0
 62
     7
  6
CONTINUOUS
  0
LAYER
  2
寸法線
 70
     0
 62
     7
  6
CONTINUOUS
  0
LAYER
  2
Defpoints
 70
     0
 62
     7
  6
CONTINUOUS
  0
ENDTAB
  0
TABLE
  2
STYLE
 70
     1
  0
STYLE
  2
STANDARD
 70
     0
 40
0.0
 41
1.0
 50
0.0
 71
     0
 42
0.0
  3
txt
  4
extfont
  0
ENDTAB
  0
TABLE
  2
VIEW
 70
     0
  0
ENDTAB
  0
TABLE
  2
UCS
 70
     0
  0
ENDTAB
  0
TABLE
  2
APPID
 70
     2
  0
APPID
  2
ACAD
 70
     0
  0
APPID
  2
DCO15
 70
     0
  0
ENDTAB
  0
TABLE
  2
DIMSTYLE
 70
     4
  0
DIMSTYLE
  2
STANDARD
 70
     0
  3

  4

  5

  6

  7

 40
1.0
 41
0.18
 42
0.0625
 43
0.38
 44
0.18
 45
0.0
 46
0.0
 47
0.0
 48
0.0
140
0.18
141
0.09
142
0.0
143
25.399999999999999
144
1.0
145
0.0
146
1.0
147
0.09
 71
     0
 72
     0
 73
     1
 74
     1
 75
     0
 76
     0
 77
     0
 78
     0
170
     0
171
     2
172
     0
173
     0
174
     0
175
     0
176
     0
177
     0
178
     0
  0
DIMSTYLE
  2
VELDIM0
 70
     0
  3

  4

  5

  6

  7

 40
1.0
 41
6.0
 42
0.0625
 43
0.38
 44
1.0
 45
0.0
 46
5.0
 47
0.0
 48
0.0
140
5.9972220420999998
141
0.09
142
0.0
143
25.399999999999999
144
1.0
145
0.0
146
1.0
147
0.09
 71
     0
 72
     0
 73
     0
 74
     0
 75
     0
 76
     0
 77
     0
 78
     8
170
     0
171
     2
172
     0
173
     0
174
     0
175
     0
176
     0
177
     0
178
     0
  0
DIMSTYLE
  2
VELDIM1
 70
     0
  3

  4

  5

  6

  7

 40
1.0
 41
6.0
 42
0.0625
 43
0.38
 44
1.25
 45
0.0
 46
5.0
 47
0.0
 48
0.0
140
5.9972220420999998
141
0.09
142
0.0
143
25.399999999999999
144
1.0
145
0.0
146
1.0
147
0.09
 71
     0
 72
     0
 73
     0
 74
     0
 75
     0
 76
     0
 77
     0
 78
     8
170
     0
171
     2
172
     0
173
     0
174
     0
175
     0
176
     0
177
     0
178
     0
  0
DIMSTYLE
  2
VELDIM2
 70
     0
  3

  4

  5

  6

  7

 40
1.0
 41
6.0
 42
0.0625
 43
0.38
 44
1.25
 45
0.0
 46
5.0
 47
0.0
 48
0.0
140
5.9972220420999998
141
0.09
142
0.0
143
25.399999999999999
144
1.0
145
0.0
146
1.0
147
0.09
 71
     0
 72
     0
 73
     0
 74
     0
 75
     0
 76
     0
 77
     0
 78
     8
170
     0
171
     2
172
     0
173
     0
174
     0
175
     0
176
     0
177
     0
178
     0
  0
ENDTAB
  0
ENDSEC
  0
SECTION
  2
BLOCKS
  0
BLOCK
  8
0
  2
$MODEL_SPACE
 70
     0
 10
0.0
 20
0.0
 30
0.0
  3
$MODEL_SPACE
  1

  0
ENDBLK
  5
E
  8
0
  0
BLOCK
 67
     1
  8
0
  2
$PAPER_SPACE
 70
     0
 10
0.0
 20
0.0
 30
0.0
  3
$PAPER_SPACE
  1

  0
ENDBLK
  5
10
 67
     1
  8
0
  0
BLOCK
  8
0
  2
*D0
 70
     1
 10
0.0
 20
0.0
 30
0.0
  3
*D0
  1

  0
TEXT
  5
40
  8
0
 62
     0
 10
195.13495019280001
 20
171.75591403070001
 30
0.0
 40
5.9972220420999998
  1
50
  0
LINE
  5
41
  8
0
 62
     0
 10
223.66272786459999
 20
155.0
 30
0.0
 11
223.66272786459999
 21
170.69758072920001
 31
0.0
  0
LINE
  5
42
  8
0
 62
     0
 10
173.66272786459999
 20
134.5
 30
0.0
 11
173.66272786459999
 21
170.69758072920001
 31
0.0
  0
LINE
  5
43
  8
0
 62
     0
 10
223.66272786459999
 20
169.69758072920001
 30
0.0
 11
205.71828320820001
 21
169.69758072920001
 31
0.0
  0
LINE
  5
44
  8
0
 62
     0
 10
223.66272786459999
 20
169.69758072920001
 30
0.0
 11
191.607172521
 21
169.69758072920001
 31
0.0
  0
LINE
  5
45
  8
0
 62
     0
 10
173.66272786459999
 20
169.69758072920001
 30
0.0
 11
205.71828320820001
 21
169.69758072920001
 31
0.0
  0
LINE
  5
46
  8
0
 62
     0
 10
173.66272786459999
 20
169.69758072920001
 30
0.0
 11
191.607172521
 21
169.69758072920001
 31
0.0
  0
LINE
  5
47
  8
0
 62
     0
 10
173.66272786459999
 20
169.69758072920001
 30
0.0
 11
178.6627278645999
 21
169.69758072920001
 31
0.0
  0
SOLID
  5
48
  8
0
 62
     0
 10
173.66272786459999
 20
169.69758072920001
 30
0.0
 11
179.66272786459999
 21
171.19758072920001
 31
0.0
 12
179.66272786459999
 22
168.19758072920001
 32
0.0
 13
178.16272786459999
 23
169.69758072920001
 33
0.0
  0
LINE
  5
49
  8
0
 62
     0
 10
223.66272786459999
 20
169.69758072920001
 30
0.0
 11
218.66272786459999
 21
169.69758072920001
 31
0.0
  0
SOLID
  5
4A
  8
0
 62
     0
 10
223.66272786459999
 20
169.69758072920001
 30
0.0
 11
217.66272786459999
 21
168.19758072920001
 31
0.0
 12
217.66272786459999
 22
171.19758072920001
 32
0.0
 13
219.16272786459999
 23
169.69758072920001
 33
0.0
  0
ENDBLK
  5
4B
  8
0
  0
BLOCK
  8
0
  2
*D1
 70
     1
 10
0.0
 20
0.0
 30
0.0
  3
*D1
  1

  0
TEXT
  5
50
  8
0
 62
     0
 10
150.13495019280001
 20
171.75591403070001
 30
0.0
 40
5.9972220420999998
  1
40
  0
LINE
  5
51
  8
0
 62
     0
 10
173.66272786459999
 20
134.5
 30
0.0
 11
173.66272786459999
 21
170.69758072920001
 31
0.0
  0
LINE
  5
52
  8
0
 62
     0
 10
133.66272786459999
 20
134.5
 30
0.0
 11
133.66272786459999
 21
170.69758072920001
 31
0.0
  0
LINE
  5
53
  8
0
 62
     0
 10
173.66272786459999
 20
169.69758072920001
 30
0.0
 11
160.71828320820001
 21
169.69758072920001
 31
0.0
  0
LINE
  5
54
  8
0
 62
     0
 10
173.66272786459999
 20
169.69758072920001
 30
0.0
 11
146.607172521
 21
169.69758072920001
 31
0.0
  0
LINE
  5
55
  8
0
 62
     0
 10
133.66272786459999
 20
169.69758072920001
 30
0.0
 11
160.71828320820001
 21
169.69758072920001
 31
0.0
  0
LINE
  5
56
  8
0
 62
     0
 10
133.66272786459999
 20
169.69758072920001
 30
0.0
 11
146.607172521
 21
169.69758072920001
 31
0.0
  0
LINE
  5
57
  8
0
 62
     0
 10
133.66272786459999
 20
169.69758072920001
 30
0.0
 11
138.66272786459999
 21
169.69758072920001
 31
0.0
  0
SOLID
  5
58
  8
0
 62
     0
 10
133.66272786459999
 20
169.69758072920001
 30
0.0
 11
139.66272786459999
 21
171.19758072920001
 31
0.0
 12
139.66272786459999
 22
168.19758072920001
 32
0.0
 13
138.16272786459999
 23
169.69758072920001
 33
0.0
  0
LINE
  5
59
  8
0
 62
     0
 10
173.66272786459999
 20
169.69758072920001
 30
0.0
 11
168.66272786459999
 21
169.69758072920001
 31
0.0
  0
SOLID
  5
5A
  8
0
 62
     0
 10
173.66272786459999
 20
169.69758072920001
 30
0.0
 11
167.66272786459999
 21
168.19758072920001
 31
0.0
 12
167.66272786459999
 22
171.19758072920001
 32
0.0
 13
169.16272786459999
 23
169.69758072920001
 33
0.0
  0
ENDBLK
  5
5B
  8
0
  0
BLOCK
  8
0
  2
*D2
 70
     1
 10
0.0
 20
0.0
 30
0.0
  3
*D2
  1

  0
TEXT
  5
5F
  8
0
 62
     0
 10
110.13495019280001
 20
171.75591403070001
 30
0.0
 40
5.9972220420999998
  1
40
  0
LINE
  5
60
  8
0
 62
     0
 10
133.66272786459999
 20
134.5
 30
0.0
 11
133.66272786459999
 21
170.69758072920001
 31
0.0
  0
LINE
  5
61
  8
0
 62
     0
 10
93.662727864599987
 20
134.5
 30
0.0
 11
93.662727864599987
 21
170.69758072920001
 31
0.0
  0
LINE
  5
62
  8
0
 62
     0
 10
133.66272786459999
 20
169.69758072920001
 30
0.0
 11
120.71828320820001
 21
169.69758072920001
 31
0.0
  0
LINE
  5
63
  8
0
 62
     0
 10
133.66272786459999
 20
169.69758072920001
 30
0.0
 11
106.607172521
 21
169.69758072920001
 31
0.0
  0
LINE
  5
64
  8
0
 62
     0
 10
93.662727864599987
 20
169.69758072920001
 30
0.0
 11
120.71828320820001
 21
169.69758072920001
 31
0.0
  0
LINE
  5
65
  8
0
 62
     0
 10
93.662727864599987
 20
169.69758072920001
 30
0.0
 11
106.607172521
 21
169.69758072920001
 31
0.0
  0
LINE
  5
66
  8
0
 62
     0
 10
93.662727864599987
 20
169.69758072920001
 30
0.0
 11
98.662727864599987
 21
169.69758072920001
 31
0.0
  0
SOLID
  5
67
  8
0
 62
     0
 10
93.662727864599987
 20
169.69758072920001
 30
0.0
 11
99.662727864599987
 21
171.19758072920001
 31
0.0
 12
99.662727864599987
 22
168.19758072920001
 32
0.0
 13
98.162727864599987
 23
169.69758072920001
 33
0.0
  0
LINE
  5
68
  8
0
 62
     0
 10
133.66272786459999
 20
169.69758072920001
 30
0.0
 11
128.66272786459999
 21
169.69758072920001
 31
0.0
  0
SOLID
  5
69
  8
0
 62
     0
 10
133.66272786459999
 20
169.69758072920001
 30
0.0
 11
127.6627278646
 21
168.19758072920001
 31
0.0
 12
127.6627278646
 22
171.19758072920001
 32
0.0
 13
129.16272786459999
 23
169.69758072920001
 33
0.0
  0
ENDBLK
  5
6A
  8
0
  0
BLOCK
  8
0
  2
*D3
 70
     1
 10
0.0
 20
0.0
 30
0.0
  3
*D3
  1

  0
TEXT
  5
6E
  8
0
 62
     0
 10
80.134950192799977
 20
171.75591403070001
 30
0.0
 40
5.9972220420999998
  1
20
  0
LINE
  5
6F
  8
0
 62
     0
 10
93.662727864599987
 20
134.5
 30
0.0
 11
93.662727864599987
 21
170.69758072920001
 31
0.0
  0
LINE
  5
70
  8
0
 62
     0
 10
73.662727864600001
 20
152.0
 30
0.0
 11
73.662727864600001
 21
170.69758072920001
 31
0.0
  0
LINE
  5
71
  8
0
 62
     0
 10
93.662727864599987
 20
169.69758072920001
 30
0.0
 11
90.718283208199992
 21
169.69758072920001
 31
0.0
  0
LINE
  5
72
  8
0
 62
     0
 10
93.662727864599987
 20
169.69758072920001
 30
0.0
 11
76.60717252100001
 21
169.69758072920001
 31
0.0
  0
LINE
  5
73
  8
0
 62
     0
 10
73.662727864600001
 20
169.69758072920001
 30
0.0
 11
90.718283208199992
 21
169.69758072920001
 31
0.0
  0
LINE
  5
74
  8
0
 62
     0
 10
73.662727864600001
 20
169.69758072920001
 30
0.0
 11
76.60717252100001
 21
169.69758072920001
 31
0.0
  0
LINE
  5
75
  8
0
 62
     0
 10
73.662727864600001
 20
169.69758072920001
 30
0.0
 11
68.662727864600001
 21
169.69758072920001
 31
0.0
  0
SOLID
  5
76
  8
0
 62
     0
 10
73.662727864600001
 20
169.69758072920001
 30
0.0
 11
67.662727864600001
 21
168.19758072920001
 31
0.0
 12
67.662727864600001
 22
171.19758072920001
 32
0.0
 13
69.162727864600001
 23
169.69758072920001
 33
0.0
  0
LINE
  5
77
  8
0
 62
     0
 10
93.662727864599987
 20
169.69758072920001
 30
0.0
 11
98.662727864599987
 21
169.69758072920001
 31
0.0
  0
SOLID
  5
78
  8
0
 62
     0
 10
93.662727864599987
 20
169.69758072920001
 30
0.0
 11
99.662727864599987
 21
171.19758072920001
 31
0.0
 12
99.662727864599987
 22
168.19758072920001
 32
0.0
 13
98.162727864599987
 23
169.69758072920001
 33
0.0
  0
ENDBLK
  5
79
  8
0
  0
BLOCK
  8
0
  2
*D4
 70
     1
 10
0.0
 20
0.0
 30
0.0
  3
*D4
  1

  0
TEXT
  5
7E
  8
0
 62
     0
 10
179.87567872689999
 20
85.315504316999991
 30
0.0
 40
5.9972220420999998
  1
6-%%c 6
  0
LINE
  5
7F
  8
0
 62
     0
 10
168.41911771939999
 20
84.257171015400004
 30
0.0
 11
211.62567777320001
 21
84.257171015400004
 31
0.0
  0
LINE
  5
80
  8
0
 62
     0
 10
135.5290142982
 20
125.6511758372
 30
0.0
 11
168.41911771939999
 21
84.257171015400004
 31
0.0
  0
SOLID
  5
81
  8
0
 62
     0
 10
135.5290142982
 20
125.6511758372
 30
0.0
 11
140.43599924680001
 21
121.88667072849999
 31
0.0
 12
138.08717508410001
 22
120.0203842948
 32
0.0
 13
138.32844394860001
 23
122.12793959299999
 33
0.0
  0
ENDBLK
  5
82
  8
0
  0
BLOCK
  8
0
  2
*D5
 70
     1
 10
0.0
 20
0.0
 30
0.0
  3
*D5
  1

  0
TEXT
  5
131
  8
0
 62
     0
 10
-145.52777767180001
 20
171.75591403070001
 30
0.0
 40
5.9972220420999998
  1
50
  0
LINE
  5
132
  8
0
 62
     0
 10
-117.0
 20
134.5
 30
0.0
 11
-117.0
 21
170.69758072920001
 31
0.0
  0
LINE
  5
133
  8
0
 62
     0
 10
-167.0
 20
155.0
 30
0.0
 11
-167.0
 21
170.69758072920001
 31
0.0
  0
LINE
  5
134
  8
0
 62
     0
 10
-117.0
 20
169.69758072920001
 30
0.0
 11
-134.94444465640001
 21
169.69758072920001
 31
0.0
  0
LINE
  5
135
  8
0
 62
     0
 10
-117.0
 20
169.69758072920001
 30
0.0
 11
-149.05555534359999
 21
169.69758072920001
 31
0.0
  0
LINE
  5
136
  8
0
 62
     0
 10
-167.0
 20
169.69758072920001
 30
0.0
 11
-134.94444465640001
 21
169.69758072920001
 31
0.0
  0
LINE
  5
137
  8
0
 62
     0
 10
-167.0
 20
169.69758072920001
 30
0.0
 11
-149.05555534359999
 21
169.69758072920001
 31
0.0
  0
LINE
  5
138
  8
0
 62
     0
 10
-167.0
 20
169.69758072920001
 30
0.0
 11
-162.0
 21
169.69758072920001
 31
0.0
  0
SOLID
  5
139
  8
0
 62
     0
 10
-167.0
 20
169.69758072920001
 30
0.0
 11
-161.0
 21
171.19758072920001
 31
0.0
 12
-161.0
 22
168.19758072920001
 32
0.0
 13
-162.5
 23
169.69758072920001
 33
0.0
  0
LINE
  5
13A
  8
0
 62
     0
 10
-117.0
 20
169.69758072920001
 30
0.0
 11
-122.0
 21
169.69758072920001
 31
0.0
  0
SOLID
  5
13B
  8
0
 62
     0
 10
-117.0
 20
169.69758072920001
 30
0.0
 11
-123.0
 21
168.19758072920001
 31
0.0
 12
-123.0
 22
171.19758072920001
 32
0.0
 13
-121.5
 23
169.69758072920001
 33
0.0
  0
ENDBLK
  5
13C
  8
0
  0
BLOCK
  8
0
  2
*D6
 70
     1
 10
0.0
 20
0.0
 30
0.0
  3
*D6
  1

  0
TEXT
  5
140
  8
0
 62
     0
 10
-100.5277776718
 20
171.75591403070001
 30
0.0
 40
5.9972220420999998
  1
40
  0
LINE
  5
141
  8
0
 62
     0
 10
-77.0
 20
134.5
 30
0.0
 11
-77.0
 21
170.69758072920001
 31
0.0
  0
LINE
  5
142
  8
0
 62
     0
 10
-117.0
 20
134.5
 30
0.0
 11
-117.0
 21
170.69758072920001
 31
0.0
  0
LINE
  5
143
  8
0
 62
     0
 10
-77.0
 20
169.69758072920001
 30
0.0
 11
-89.944444656399995
 21
169.69758072920001
 31
0.0
  0
LINE
  5
144
  8
0
 62
     0
 10
-77.0
 20
169.69758072920001
 30
0.0
 11
-104.05555534360001
 21
169.69758072920001
 31
0.0
  0
LINE
  5
145
  8
0
 62
     0
 10
-117.0
 20
169.69758072920001
 30
0.0
 11
-89.944444656399995
 21
169.69758072920001
 31
0.0
  0
LINE
  5
146
  8
0
 62
     0
 10
-117.0
 20
169.69758072920001
 30
0.0
 11
-104.05555534360001
 21
169.69758072920001
 31
0.0
  0
LINE
  5
147
  8
0
 62
     0
 10
-117.0
 20
169.69758072920001
 30
0.0
 11
-112.0
 21
169.69758072920001
 31
0.0
  0
SOLID
  5
148
  8
0
 62
     0
 10
-117.0
 20
169.69758072920001
 30
0.0
 11
-111.0
 21
171.19758072920001
 31
0.0
 12
-111.0
 22
168.19758072920001
 32
0.0
 13
-112.5
 23
169.69758072920001
 33
0.0
  0
LINE
  5
149
  8
0
 62
     0
 10
-77.0
 20
169.69758072920001
 30
0.0
 11
-82.0
 21
169.69758072920001
 31
0.0
  0
SOLID
  5
14A
  8
0
 62
     0
 10
-77.0
 20
169.69758072920001
 30
0.0
 11
-83.0
 21
168.19758072920001
 31
0.0
 12
-83.0
 22
171.19758072920001
 32
0.0
 13
-81.5
 23
169.69758072920001
 33
0.0
  0
ENDBLK
  5
14B
  8
0
  0
BLOCK
  8
0
  2
*D7
 70
     1
 10
0.0
 20
0.0
 30
0.0
  3
*D7
  1

  0
TEXT
  5
14F
  8
0
 62
     0
 10
-60.527777671800003
 20
171.75591403070001
 30
0.0
 40
5.9972220420999998
  1
40
  0
LINE
  5
150
  8
0
 62
     0
 10
-37.0
 20
134.5
 30
0.0
 11
-37.0
 21
170.69758072920001
 31
0.0
  0
LINE
  5
151
  8
0
 62
     0
 10
-77.0
 20
134.5
 30
0.0
 11
-77.0
 21
170.69758072920001
 31
0.0
  0
LINE
  5
152
  8
0
 62
     0
 10
-37.0
 20
169.69758072920001
 30
0.0
 11
-49.944444656400002
 21
169.69758072920001
 31
0.0
  0
LINE
  5
153
  8
0
 62
     0
 10
-37.0
 20
169.69758072920001
 30
0.0
 11
-64.055555343599991
 21
169.69758072920001
 31
0.0
  0
LINE
  5
154
  8
0
 62
     0
 10
-77.0
 20
169.69758072920001
 30
0.0
 11
-49.944444656400002
 21
169.69758072920001
 31
0.0
  0
LINE
  5
155
  8
0
 62
     0
 10
-77.0
 20
169.69758072920001
 30
0.0
 11
-64.055555343599991
 21
169.69758072920001
 31
0.0
  0
LINE
  5
156
  8
0
 62
     0
 10
-77.0
 20
169.69758072920001
 30
0.0
 11
-72.0
 21
169.69758072920001
 31
0.0
  0
SOLID
  5
157
  8
0
 62
     0
 10
-77.0
 20
169.69758072920001
 30
0.0
 11
-71.0
 21
171.19758072920001
 31
0.0
 12
-71.0
 22
168.19758072920001
 32
0.0
 13
-72.5
 23
169.69758072920001
 33
0.0
  0
LINE
  5
158
  8
0
 62
     0
 10
-37.0
 20
169.69758072920001
 30
0.0
 11
-42.0
 21
169.69758072920001
 31
0.0
  0
SOLID
  5
159
  8
0
 62
     0
 10
-37.0
 20
169.69758072920001
 30
0.0
 11
-43.0
 21
168.19758072920001
 31
0.0
 12
-43.0
 22
171.19758072920001
 32
0.0
 13
-41.5
 23
169.69758072920001
 33
0.0
  0
ENDBLK
  5
15A
  8
0
  0
BLOCK
  8
0
  2
*D8
 70
     1
 10
0.0
 20
0.0
 30
0.0
  3
*D8
  1

  0
TEXT
  5
15E
  8
0
 62
     0
 10
-30.527777671799999
 20
171.75591403070001
 30
0.0
 40
5.9972220420999998
  1
20
  0
LINE
  5
15F
  8
0
 62
     0
 10
-17.0
 20
152.0
 30
0.0
 11
-17.0
 21
170.69758072920001
 31
0.0
  0
LINE
  5
160
  8
0
 62
     0
 10
-37.0
 20
134.5
 30
0.0
 11
-37.0
 21
170.69758072920001
 31
0.0
  0
LINE
  5
161
  8
0
 62
     0
 10
-17.0
 20
169.69758072920001
 30
0.0
 11
-19.944444656400002
 21
169.69758072920001
 31
0.0
  0
LINE
  5
162
  8
0
 62
     0
 10
-17.0
 20
169.69758072920001
 30
0.0
 11
-34.055555343599998
 21
169.69758072920001
 31
0.0
  0
LINE
  5
163
  8
0
 62
     0
 10
-37.0
 20
169.69758072920001
 30
0.0
 11
-19.944444656400002
 21
169.69758072920001
 31
0.0
  0
LINE
  5
164
  8
0
 62
     0
 10
-37.0
 20
169.69758072920001
 30
0.0
 11
-34.055555343599998
 21
169.69758072920001
 31
0.0
  0
LINE
  5
165
  8
0
 62
     0
 10
-37.0
 20
169.69758072920001
 30
0.0
 11
-42.0
 21
169.69758072920001
 31
0.0
  0
SOLID
  5
166
  8
0
 62
     0
 10
-37.0
 20
169.69758072920001
 30
0.0
 11
-43.0
 21
168.19758072920001
 31
0.0
 12
-43.0
 22
171.19758072920001
 32
0.0
 13
-41.5
 23
169.69758072920001
 33
0.0
  0
LINE
  5
167
  8
0
 62
     0
 10
-17.0
 20
169.69758072920001
 30
0.0
 11
-12.0
 21
169.69758072920001
 31
0.0
  0
SOLID
  5
168
  8
0
 62
     0
 10
-17.0
 20
169.69758072920001
 30
0.0
 11
-11.0
 21
171.19758072920001
 31
0.0
 12
-11.0
 22
168.19758072920001
 32
0.0
 13
-12.5
 23
169.69758072920001
 33
0.0
  0
ENDBLK
  5
169
  8
0
  0
BLOCK
  8
0
  2
*D9
 70
     1
 10
0.0
 20
0.0
 30
0.0
  3
*D9
  1

  0
TEXT
  5
16D
  8
0
 62
     0
 10
-206.0945637703
 20
124.4722223282
 30
0.0
 40
5.9972220420999998
  1
50
 50
90.0
  0
LINE
  5
16E
  8
0
 62
     0
 10
-169.0
 20
153.0
 30
0.0
 11
-205.0362304688
 21
153.0
 31
0.0
  0
LINE
  5
16F
  8
0
 62
     0
 10
-169.0
 20
103.0
 30
0.0
 11
-205.0362304688
 21
103.0
 31
0.0
  0
LINE
  5
170
  8
0
 62
     0
 10
-204.0362304688
 20
153.0
 30
0.0
 11
-204.0362304688
 21
135.05555534359999
 31
0.0
  0
LINE
  5
171
  8
0
 62
     0
 10
-204.0362304688
 20
153.0
 30
0.0
 11
-204.0362304688
 21
120.94444465639999
 31
0.0
  0
LINE
  5
172
  8
0
 62
     0
 10
-204.0362304688
 20
103.0
 30
0.0
 11
-204.0362304688
 21
135.05555534359999
 31
0.0
  0
LINE
  5
173
  8
0
 62
     0
 10
-204.0362304688
 20
103.0
 30
0.0
 11
-204.0362304688
 21
120.94444465639999
 31
0.0
  0
LINE
  5
174
  8
0
 62
     0
 10
-204.0362304688
 20
103.0
 30
0.0
 11
-204.0362304688
 21
108.0
 31
0.0
  0
SOLID
  5
175
  8
0
 62
     0
 10
-204.0362304688
 20
103.0
 30
0.0
 11
-205.5362304688
 21
109.0
 31
0.0
 12
-202.5362304688
 22
109.0
 32
0.0
 13
-204.0362304688
 23
107.5
 33
0.0
  0
LINE
  5
176
  8
0
 62
     0
 10
-204.0362304688
 20
153.0
 30
0.0
 11
-204.0362304688
 21
148.0
 31
0.0
  0
SOLID
  5
177
  8
0
 62
     0
 10
-204.0362304688
 20
153.0
 30
0.0
 11
-202.5362304688
 21
147.0
 31
0.0
 12
-205.5362304688
 22
147.0
 32
0.0
 13
-204.0362304688
 23
148.5
 33
0.0
  0
ENDBLK
  5
178
  8
0
  0
BLOCK
  8
0
  2
*D10
 70
     1
 10
0.0
 20
0.0
 30
0.0
  3
*D10
  1

  0
TEXT
  5
17C
  8
0
 62
     0
 10
-190.9637043953
 20
111.9722223282
 30
0.0
 40
5.9972220420999998
  1
25
 50
90.0
  0
LINE
  5
17D
  8
0
 62
     0
 10
-177.28759765629999
 20
128.0
 30
0.0
 11
-189.9053710938
 21
128.0
 31
0.0
  0
LINE
  5
17E
  8
0
 62
     0
 10
-169.0
 20
103.0
 30
0.0
 11
-189.9053710938
 21
103.0
 31
0.0
  0
LINE
  5
17F
  8
0
 62
     0
 10
-188.9053710938
 20
128.0
 30
0.0
 11
-188.9053710938
 21
122.55555534360001
 31
0.0
  0
LINE
  5
180
  8
0
 62
     0
 10
-188.9053710938
 20
128.0
 30
0.0
 11
-188.9053710938
 21
108.44444465639999
 31
0.0
  0
LINE
  5
181
  8
0
 62
     0
 10
-188.9053710938
 20
103.0
 30
0.0
 11
-188.9053710938
 21
122.55555534360001
 31
0.0
  0
LINE
  5
182
  8
0
 62
     0
 10
-188.9053710938
 20
103.0
 30
0.0
 11
-188.9053710938
 21
108.44444465639999
 31
0.0
  0
LINE
  5
183
  8
0
 62
     0
 10
-188.9053710938
 20
103.0
 30
0.0
 11
-188.9053710938
 21
98.0
 31
0.0
  0
SOLID
  5
184
  8
0
 62
     0
 10
-188.9053710938
 20
103.0
 30
0.0
 11
-187.4053710938
 21
97.0
 31
0.0
 12
-190.4053710938
 22
97.0
 32
0.0
 13
-188.9053710938
 23
98.500000000000014
 33
0.0
  0
LINE
  5
185
  8
0
 62
     0
 10
-188.9053710938
 20
128.0
 30
0.0
 11
-188.9053710938
 21
133.0
 31
0.0
  0
SOLID
  5
186
  8
0
 62
     0
 10
-188.9053710938
 20
128.0
 30
0.0
 11
-190.4053710938
 21
134.0
 31
0.0
 12
-187.4053710938
 22
134.0
 32
0.0
 13
-188.9053710938
 23
132.5
 33
0.0
  0
ENDBLK
  5
187
  8
0
  0
BLOCK
  8
0
  2
*D11
 70
     1
 10
0.0
 20
0.0
 30
0.0
  3
*D11
  1

  0
TEXT
  5
18B
  8
0
 62
     0
 10
-190.9637043953
 20
136.97222232819999
 30
0.0
 40
5.9972220420999998
  1
25
 50
90.0
  0
LINE
  5
18C
  8
0
 62
     0
 10
-169.0
 20
153.0
 30
0.0
 11
-189.9053710938
 21
153.0
 31
0.0
  0
LINE
  5
18D
  8
0
 62
     0
 10
-177.28759765629999
 20
128.0
 30
0.0
 11
-189.9053710938
 21
128.0
 31
0.0
  0
LINE
  5
18E
  8
0
 62
     0
 10
-188.9053710938
 20
153.0
 30
0.0
 11
-188.9053710938
 21
147.55555534359999
 31
0.0
  0
LINE
  5
18F
  8
0
 62
     0
 10
-188.9053710938
 20
153.0
 30
0.0
 11
-188.9053710938
 21
133.4444446563999
 31
0.0
  0
LINE
  5
190
  8
0
 62
     0
 10
-188.9053710938
 20
128.0
 30
0.0
 11
-188.9053710938
 21
147.55555534359999
 31
0.0
  0
LINE
  5
191
  8
0
 62
     0
 10
-188.9053710938
 20
128.0
 30
0.0
 11
-188.9053710938
 21
133.4444446563999
 31
0.0
  0
LINE
  5
192
  8
0
 62
     0
 10
-188.9053710938
 20
128.0
 30
0.0
 11
-188.9053710938
 21
123.0
 31
0.0
  0
SOLID
  5
193
  8
0
 62
     0
 10
-188.9053710938
 20
128.0
 30
0.0
 11
-187.4053710938
 21
122.0
 31
0.0
 12
-190.4053710938
 22
122.0
 32
0.0
 13
-188.9053710938
 23
123.5
 33
0.0
  0
LINE
  5
194
  8
0
 62
     0
 10
-188.9053710938
 20
153.0
 30
0.0
 11
-188.9053710938
 21
158.0
 31
0.0
  0
SOLID
  5
195
  8
0
 62
     0
 10
-188.9053710938
 20
153.0
 30
0.0
 11
-190.4053710938
 21
159.0
 31
0.0
 12
-187.4053710938
 22
159.0
 32
0.0
 13
-188.9053710938
 23
157.5
 33
0.0
  0
ENDBLK
  5
196
  8
0
  0
BLOCK
  8
0
  2
*D12
 70
     1
 10
0.0
 20
0.0
 30
0.0
  3
*D12
  1

  0
TEXT
  5
1AA
  8
0
 62
     0
 10
-97.2916665077
 20
-96.894541698500021
 30
0.0
 40
5.9972220420999998
  1
150
  0
LINE
  5
1AB
  8
0
 62
     0
 10
-167.0
 20
-75.452875000000006
 30
0.0
 11
-167.0
 21
-99.952875000000006
 31
0.0
  0
LINE
  5
1AC
  8
0
 62
     0
 10
-17.0
 20
-80.952875000000006
 30
0.0
 11
-17.0
 21
-99.952875000000006
 31
0.0
  0
LINE
  5
1AD
  8
0
 62
     0
 10
-167.0
 20
-98.95287500000002
 30
0.0
 11
-83.180555820500004
 21
-98.95287500000002
 31
0.0
  0
LINE
  5
1AE
  8
0
 62
     0
 10
-167.0
 20
-98.95287500000002
 30
0.0
 11
-100.8194441795
 21
-98.95287500000002
 31
0.0
  0
LINE
  5
1AF
  8
0
 62
     0
 10
-17.0
 20
-98.95287500000002
 30
0.0
 11
-83.180555820500004
 21
-98.95287500000002
 31
0.0
  0
LINE
  5
1B0
  8
0
 62
     0
 10
-17.0
 20
-98.95287500000002
 30
0.0
 11
-100.8194441795
 21
-98.95287500000002
 31
0.0
  0
LINE
  5
1B1
  8
0
 62
     0
 10
-17.0
 20
-98.95287500000002
 30
0.0
 11
-22.0
 21
-98.95287500000002
 31
0.0
  0
SOLID
  5
1B2
  8
0
 62
     0
 10
-17.0
 20
-98.95287500000002
 30
0.0
 11
-23.0
 21
-100.45287500000001
 31
0.0
 12
-23.0
 22
-97.452875000000006
 32
0.0
 13
-21.5
 23
-98.95287500000002
 33
0.0
  0
LINE
  5
1B3
  8
0
 62
     0
 10
-167.0
 20
-98.95287500000002
 30
0.0
 11
-162.0
 21
-98.95287500000002
 31
0.0
  0
SOLID
  5
1B4
  8
0
 62
     0
 10
-167.0
 20
-98.95287500000002
 30
0.0
 11
-161.0
 21
-97.452875000000006
 31
0.0
 12
-161.0
 22
-100.45287500000001
 32
0.0
 13
-162.5
 23
-98.95287500000002
 33
0.0
  0
ENDBLK
  5
1B5
  8
0
  0
BLOCK
  8
0
  2
*D13
 70
     1
 10
0.0
 20
0.0
 30
0.0
  3
*D13
  1

  0
TEXT
  5
1CB
  8
0
 62
     0
 10
0.9416666985
 20
-66.129298749499995
 30
0.0
 40
5.9972220420999998
  1
4.5t
 50
90.0
  0
LINE
  5
1CC
  8
0
 62
     0
 10
-15.0
 20
-78.952875000000006
 30
0.0
 11
4.0
 21
-78.952875000000006
 31
0.0
  0
LINE
  5
1CD
  8
0
 62
     0
 10
-15.0
 20
-74.452875000000006
 30
0.0
 11
4.0
 21
-74.452875000000006
 31
0.0
  0
LINE
  5
1CE
  8
0
 62
     0
 10
3.0
 20
-78.952875000000006
 30
0.0
 11
3.0
 21
-48.490410390500003
 31
0.0
  0
LINE
  5
1CF
  8
0
 62
     0
 10
3.0
 20
-78.952875000000006
 30
0.0
 11
3.0
 21
-69.657076421400006
 31
0.0
  0
LINE
  5
1D0
  8
0
 62
     0
 10
3.0
 20
-74.452875000000006
 30
0.0
 11
3.0
 21
-48.490410390500003
 31
0.0
  0
LINE
  5
1D1
  8
0
 62
     0
 10
3.0
 20
-74.452875000000006
 30
0.0
 11
3.0
 21
-69.657076421400006
 31
0.0
  0
LINE
  5
1D2
  8
0
 62
     0
 10
3.0
 20
-74.452875000000006
 30
0.0
 11
3.0
 21
-69.452875000000006
 31
0.0
  0
SOLID
  5
1D3
  8
0
 62
     0
 10
3.0
 20
-74.452875000000006
 30
0.0
 11
1.5
 21
-68.452875000000006
 31
0.0
 12
4.5
 22
-68.452875000000006
 32
0.0
 13
3.0
 23
-69.952875000000006
 33
0.0
  0
LINE
  5
1D4
  8
0
 62
     0
 10
3.0
 20
-78.952875000000006
 30
0.0
 11
3.0
 21
-83.952875000000006
 31
0.0
  0
SOLID
  5
1D5
  8
0
 62
     0
 10
3.0
 20
-78.952875000000006
 30
0.0
 11
4.5
 21
-84.952875000000006
 31
0.0
 12
1.5
 22
-84.952875000000006
 32
0.0
 13
3.0
 23
-83.452875000000006
 33
0.0
  0
ENDBLK
  5
1D6
  8
0
  0
BLOCK
  8
0
  2
*D14
 70
     1
 10
0.0
 20
0.0
 30
0.0
  3
*D14
  1

  0
TEXT
  5
1DA
  8
0
 62
     0
 10
-1.659521483799999
 20
88.810956286800007
 30
0.0
 40
5.9972220420999998
  1
4-R 3
  0
LINE
  5
1DB
  8
0
 62
     0
 10
-1.752622985299999
 20
87.752622985299993
 30
0.0
 11
26.56269989070001
 21
87.752622985299993
 31
0.0
  0
LINE
  5
1DC
  8
0
 62
     0
 10
-17.878679656399999
 20
103.8786796564
 30
0.0
 11
-1.752622985299999
 21
87.752622985299993
 31
0.0
  0
SOLID
  5
1DD
  8
0
 62
     0
 10
-17.878679656399999
 20
103.8786796564
 30
0.0
 11
-12.575378797500001
 21
100.6966991411
 31
0.0
 12
-14.696699141099989
 22
98.575378797499994
 32
0.0
 13
-14.696699141099989
 23
100.6966991411
 33
0.0
  0
ENDBLK
  5
1DE
  8
0
  0
BLOCK
  8
0
  2
*D15
 70
     1
 10
0.0
 20
0.0
 30
0.0
  3
*D15
  1

  0
TEXT
  5
1E9
  8
0
 62
     0
 10
-122.29664849309999
 20
-20.142580150400001
 30
0.0
 40
5.9972220420999998
  1
90%%d
 50
318.99765103200002
  0
ARC
  5
1EA
  8
0
 62
     0
 10
-162.5
 20
-74.452875000000006
 30
0.0
 40
64.189054787900005
 50
83.250571272100004
 51
90.0
  0
ARC
  5
1EB
  8
0
 62
     0
 10
-162.5
 20
-74.452875000000006
 30
0.0
 40
64.189054787900005
 50
0.0
 51
6.7494287278999998
  0
SOLID
  5
1EC
  8
0
 62
     0
 10
-98.310945212099995
 20
-74.452875000000006
 30
0.0
 11
-96.810945212099995
 21
-80.452875000000006
 31
0.0
 12
-99.810945212099995
 22
-80.452875000000006
 32
0.0
 13
-98.310945212099995
 23
-78.952875000000006
 33
0.0
  0
SOLID
  5
1ED
  8
0
 62
     0
 10
-162.5
 20
-10.263820212100001
 30
0.0
 11
-168.5
 21
-11.763820212100001
 31
0.0
 12
-168.5
 22
-8.7638202121000006
 32
0.0
 13
-167.0
 23
-10.263820212100001
 33
0.0
  0
ARC
  5
1EE
  8
0
 62
     0
 10
-162.5
 20
-74.452875000000006
 30
0.0
 40
64.189054787900005
 50
0.0
 51
41.000712327599999
  0
ARC
  5
1EF
  8
0
 62
     0
 10
-162.5
 20
-74.452875000000006
 30
0.0
 40
64.189054787900005
 50
56.9945897363
 51
90.0
  0
LINE
  5
1F0
  8
0
 62
     0
 10
-21.0
 20
-74.452875000000006
 30
0.0
 11
-102.31094521209999
 21
-74.452875000000006
 31
0.0
  0
LINE
  5
1F1
  8
0
 62
     0
 10
-162.5
 20
67.047124999999994
 30
0.0
 11
-162.5
 21
-14.263820212100001
 31
0.0
  0
ENDBLK
  5
1F2
  8
0
  0
BLOCK
  8
0
  2
*D16
 70
     1
 10
0.0
 20
0.0
 30
0.0
  3
*D16
  1

  0
TEXT
  5
1F6
  8
0
 62
     0
 10
-206.0945637703
 20
-9.2445415076999993
 30
0.0
 40
5.9972220420999998
  1
150
 50
90.0
  0
LINE
  5
1F7
  8
0
 62
     0
 10
-169.0
 20
71.047124999999994
 30
0.0
 11
-205.0362304688
 21
71.047124999999994
 31
0.0
  0
LINE
  5
1F8
  8
0
 62
     0
 10
-163.5
 20
-78.952875000000006
 30
0.0
 11
-205.0362304688
 21
-78.952875000000006
 31
0.0
  0
LINE
  5
1F9
  8
0
 62
     0
 10
-204.0362304688
 20
71.047124999999994
 30
0.0
 11
-204.0362304688
 21
4.866569179499999
 31
0.0
  0
LINE
  5
1FA
  8
0
 62
     0
 10
-204.0362304688
 20
71.047124999999994
 30
0.0
 11
-204.0362304688
 21
-12.7723191795
 31
0.0
  0
LINE
  5
1FB
  8
0
 62
     0
 10
-204.0362304688
 20
-78.952875000000006
 30
0.0
 11
-204.0362304688
 21
4.866569179499999
 31
0.0
  0
LINE
  5
1FC
  8
0
 62
     0
 10
-204.0362304688
 20
-78.952875000000006
 30
0.0
 11
-204.0362304688
 21
-12.7723191795
 31
0.0
  0
LINE
  5
1FD
  8
0
 62
     0
 10
-204.0362304688
 20
-78.952875000000006
 30
0.0
 11
-204.0362304688
 21
-73.952875000000006
 31
0.0
  0
SOLID
  5
1FE
  8
0
 62
     0
 10
-204.0362304688
 20
-78.952875000000006
 30
0.0
 11
-205.5362304688
 21
-72.952875000000006
 31
0.0
 12
-202.5362304688
 22
-72.952875000000006
 32
0.0
 13
-204.0362304688
 23
-74.452875000000006
 33
0.0
  0
LINE
  5
1FF
  8
0
 62
     0
 10
-204.0362304688
 20
71.047124999999994
 30
0.0
 11
-204.0362304688
 21
66.047124999999994
 31
0.0
  0
SOLID
  5
200
  8
0
 62
     0
 10
-204.0362304688
 20
71.047124999999994
 30
0.0
 11
-202.5362304688
 21
65.047124999999994
 31
0.0
 12
-205.5362304688
 22
65.047124999999994
 32
0.0
 13
-204.0362304688
 23
66.547124999999994
 33
0.0
  0
ENDBLK
  5
201
  8
0
  0
BLOCK
  8
0
  2
*U17
 70
     1
 10
0.0
 20
0.0
 30
0.0
  3
*U17
  1

  0
TEXT
  5
22B
  8
図枠
  6
CONTINUOUS
 10
163.37582305498881
 20
207.75708204782029
 30
0.0
 40
5.3969601688999989
  1
改　訂　内　容
  0
ENDBLK
  5
22D
  8
0
  0
BLOCK
  8
0
  2
*U18
 70
     1
 10
0.0
 20
0.0
 30
0.0
  3
*U18
  1

  0
TEXT
  5
22F
  8
図枠
  6
CONTINUOUS
 10
111.2309680569124
 20
207.81187352161621
 30
0.0
 40
5.3969601688999989
  1
改訂日
  0
ENDBLK
  5
231
  8
0
  0
BLOCK
  8
0
  2
*U19
 70
     1
 10
0.0
 20
0.0
 30
0.0
  3
*U19
  1

  0
TEXT
  5
233
  8
図枠
  6
CONTINUOUS
 10
90.767418116750491
 20
207.86666499541221
 30
0.0
 40
5.3969601688999989
  1
副番
  0
ENDBLK
  5
235
  8
0
  0
BLOCK
  8
0
  2
*U20
 70
     1
 10
0.0
 20
0.0
 30
0.0
  3
*U20
  1

  0
TEXT
  5
237
  8
図枠
  6
CONTINUOUS
 10
237.50602329434111
 20
207.75708204782029
 30
0.0
 40
5.3969601688999989
  1
改訂者
  0
ENDBLK
  5
239
  8
0
  0
BLOCK
  8
0
  2
*U21
 70
     1
 10
0.0
 20
0.0
 30
0.0
  3
*U21
  1

  0
TEXT
  5
23B
  8
図枠
  6
CONTINUOUS
 10
257.42183608364718
 20
207.7296863109224
 30
0.0
 40
5.3969601688999989
  1
検認者
  0
ENDBLK
  5
23D
  8
0
  0
BLOCK
  8
0
  2
*U22
 70
     1
 10
0.0
 20
0.0
 30
0.0
  3
*U22
  1

  0
TEXT
  5
23F
  8
図枠
  6
CONTINUOUS
 10
119.922136391132
 20
-110.83281973476289
 30
0.0
 40
5.6094389188999987
  1
指定無き公差はJIS 0408-Bによること
  0
ENDBLK
  5
241
  8
0
  0
BLOCK
  8
0
  2
*U23
 70
     1
 10
0.0
 20
0.0
 30
0.0
  3
*U23
  1

  0
TEXT
  5
243
  8
図枠
  6
CONTINUOUS
 10
204.3260684425785
 20
-125.2842028783523
 30
0.0
 40
5.9966223199000002
  1
Ｌ型ブラケット
  0
ENDBLK
  5
245
  8
0
  0
BLOCK
  8
0
  2
*U24
 70
     1
 10
0.0
 20
0.0
 30
0.0
  3
*U24
  1

  0
TEXT
  5
247
  8
図枠
  6
CONTINUOUS
 10
228.22744612239319
 20
-88.871767333200026
 30
0.0
 40
6.4593539188999989
  1
4.5t
  0
ENDBLK
  5
249
  8
0
  0
BLOCK
  8
0
  2
*U25
 70
     1
 10
0.0
 20
0.0
 30
0.0
  3
*U25
  1

  0
TEXT
  5
24B
  8
図枠
  6
CONTINUOUS
 10
51.158378254054071
 20
-99.776971116296963
 30
0.0
 40
5.6094389188999987
  1
表面処理
  0
ENDBLK
  5
24D
  8
0
  0
BLOCK
  8
0
  2
*U26
 70
     1
 10
0.0
 20
0.0
 30
0.0
  3
*U26
  1

  0
TEXT
  5
24F
  8
図枠
  6
CONTINUOUS
 10
114.69496250974311
 20
-88.409035734200003
 30
0.0
 40
5.9966223199000002
  1
SPCC
  0
ENDBLK
  5
251
  8
0
  0
BLOCK
  8
0
  2
*U27
 70
     1
 10
0.0
 20
0.0
 30
0.0
  3
*U27
  1

  0
TEXT
  5
253
  8
図枠
  6
CONTINUOUS
 10
95.162137128851256
 20
-120.0320275361056
 30
0.0
 40
4.6745324999999989
  1
尺 　度
  0
ENDBLK
  5
255
  8
0
  0
BLOCK
  8
0
  2
*U28
 70
     1
 10
0.0
 20
0.0
 30
0.0
  3
*U28
  1

  0
TEXT
  5
257
  8
図枠
  6
CONTINUOUS
 10
200.15582855513529
 20
-158.67200873420001
 30
0.0
 40
5.9966223199000002
  1
ＳＲＫ００１２５
  0
ENDBLK
  5
259
  8
0
  0
BLOCK
  8
0
  2
*U29
 70
     1
 10
0.0
 20
0.0
 30
0.0
  3
*U29
  1

  0
TEXT
  5
25B
  8
図枠
  6
CONTINUOUS
 10
48.328305751947717
 20
-145.52947753610559
 30
0.0
 40
4.6745324999999989
  1
製図
  0
ENDBLK
  5
25D
  8
0
  0
BLOCK
  8
0
  2
*U30
 70
     1
 10
0.0
 20
0.0
 30
0.0
  3
*U30
  1

  0
TEXT
  5
25F
  8
図枠
  6
CONTINUOUS
 10
156.42620082783151
 20
-99.691548188597991
 30
0.0
 40
5.6094389188999987
  1
ユニクロメッキ
  0
ENDBLK
  5
261
  8
0
  0
BLOCK
  8
0
  2
*U31
 70
     1
 10
0.0
 20
0.0
 30
0.0
  3
*U31
  1

  0
TEXT
  5
263
  8
図枠
  6
CONTINUOUS
 10
163.13294109943749
 20
-88.835019734762952
 30
0.0
 40
5.6094389188999987
  1
板　　厚
  0
ENDBLK
  5
265
  8
0
  0
BLOCK
  8
0
  2
*U32
 70
     1
 10
0.0
 20
0.0
 30
0.0
  3
*U32
  1

  0
TEXT
  5
267
  8
図枠
  6
CONTINUOUS
 10
53.965930600900002
 20
-160.27617316260759
 30
0.0
 40
8.6351362703000003
  1
株式会社
  0
ENDBLK
  5
269
  8
0
  0
BLOCK
  8
0
  2
*U33
 70
     1
 10
0.0
 20
0.0
 30
0.0
  3
*U33
  1

  0
TEXT
  5
26B
  8
図枠
  6
CONTINUOUS
 10
51.300749800219037
 20
-110.8897683532289
 30
0.0
 40
5.6094389188999987
  1
一般公差
  0
ENDBLK
  5
26D
  8
0
  0
BLOCK
  8
0
  2
*U34
 70
     1
 10
0.0
 20
0.0
 30
0.0
  3
*U34
  1

  0
TEXT
  5
26F
  8
図枠
  6
CONTINUOUS
 10
51.215326872520059
 20
-88.721122497830962
 30
0.0
 40
5.6094389188999987
  1
材　　質
  0
ENDBLK
  5
271
  8
0
  0
BLOCK
  8
0
  2
*U35
 70
     1
 10
0.0
 20
0.0
 30
0.0
  3
*U35
  1

  0
TEXT
  5
273
  8
図枠
  6
CONTINUOUS
 10
99.314640618698974
 20
-128.2938916224
 30
0.0
 40
4.6745324999999989
  1
1：2
  0
ENDBLK
  5
275
  8
0
  0
BLOCK
  8
0
  2
*U36
 70
     1
 10
0.0
 20
0.0
 30
0.0
  3
*U36
  1

  0
TEXT
  5
277
  8
図枠
  6
CONTINUOUS
 10
105.5196672621
 20
-145.5532061274761
 30
0.0
 40
4.6745324999999989
  1
 検図
  0
ENDBLK
  5
279
  8
0
  0
BLOCK
  8
0
  2
*U37
 70
     1
 10
0.0
 20
0.0
 30
0.0
  3
*U37
  1

  0
TEXT
  5
27B
  8
図枠
  6
CONTINUOUS
 10
76.308375485450256
 20
-145.41083457925279
 30
0.0
 40
4.6745324999999989
  1
園 原
  0
ENDBLK
  5
27D
  8
0
  0
BLOCK
  8
0
  2
*U38
 70
     1
 10
0.0
 20
0.0
 30
0.0
  3
*U38
  1

  0
TEXT
  5
27F
  8
図枠
  6
CONTINUOUS
 10
105.5196672621
 20
-137.006598944735
 30
0.0
 40
4.6745324999999989
  1
 照査
  0
ENDBLK
  5
281
  8
0
  0
BLOCK
  8
0
  2
*U39
 70
     1
 10
0.0
 20
0.0
 30
0.0
  3
*U39
  1

  0
TEXT
  5
283
  8
図枠
  6
CONTINUOUS
 10
205.77195453494011
 20
-141.7954675630304
 30
0.0
 40
5.9966223199000002
  1
LY-619 承認図
  0
ENDBLK
  5
285
  8
0
  0
BLOCK
  8
0
  2
*U40
 70
     1
 10
0.0
 20
0.0
 30
0.0
  3
*U40
  1

  0
TEXT
  5
287
  8
図枠
  6
CONTINUOUS
 10
136.16000393722689
 20
-145.52947753610559
 30
0.0
 40
4.6745324999999989
  1
柳 原
  0
ENDBLK
  5
289
  8
0
  0
BLOCK
  8
0
  2
*U41
 70
     1
 10
0.0
 20
0.0
 30
0.0
  3
*U41
  1

  0
TEXT
  5
28B
  8
図枠
  6
CONTINUOUS
 10
56.862731411846198
 20
-128.2938916224
 30
0.0
 40
4.6745324999999989
  1
H12.11
  0
ENDBLK
  5
28D
  8
0
  0
BLOCK
  8
0
  2
*U42
 70
     1
 10
0.0
 20
0.0
 30
0.0
  3
*U42
  1

  0
TEXT
  5
28F
  8
図枠
  6
CONTINUOUS
 10
119.922136391132
 20
-110.83281973476289
 30
0.0
 40
5.6094389188999987
  1
指定無き公差はJIS 0408-Bによること
  0
ENDBLK
  5
291
  8
0
  0
BLOCK
  8
0
  2
*U43
 70
     1
 10
0.0
 20
0.0
 30
0.0
  3
*U43
  1

  0
TEXT
  5
293
  8
図枠
  6
CONTINUOUS
 10
55.664437547633
 20
-119.88965598788219
 30
0.0
 40
4.6745324999999989
  1
日 　付
  0
ENDBLK
  5
295
  8
0
  0
BLOCK
  8
0
  2
*U44
 70
     1
 10
0.0
 20
0.0
 30
0.0
  3
*U44
  1

  0
TEXT
  5
297
  8
図枠
  6
CONTINUOUS
 10
136.16000393722689
 20
-137.0303275361056
 30
0.0
 40
4.6745324999999989
  1
柳 原
  0
ENDBLK
  5
299
  8
0
  0
BLOCK
  8
0
  2
*U45
 70
     1
 10
0.0
 20
0.0
 30
0.0
  3
*U45
  1

  0
TEXT
  5
29B
  8
図枠
  6
CONTINUOUS
 10
166.06875134204921
 20
-153.52268746252341
 30
0.0
 40
4.6745324999999989
  1
図　番
  0
ENDBLK
  5
29D
  8
0
  0
BLOCK
  8
0
  2
*U46
 70
     1
 10
0.0
 20
0.0
 30
0.0
  3
*U46
  1

  0
TEXT
  5
29F
  8
図枠
  6
CONTINUOUS
 10
45.525667262100001
 20
-136.9828703533644
 30
0.0
 40
4.6745324999999989
  1
 設計
  0
ENDBLK
  5
2A1
  8
0
  0
BLOCK
  8
0
  2
*U47
 70
     1
 10
0.0
 20
0.0
 30
0.0
  3
*U47
  1

  0
TEXT
  5
2A3
  8
図枠
  6
CONTINUOUS
 10
166.09247993341981
 20
-136.57184464526449
 30
0.0
 40
4.6745324999999989
  1
図面名
  0
ENDBLK
  5
2A5
  8
0
  0
BLOCK
  8
0
  2
*U48
 70
     1
 10
0.0
 20
0.0
 30
0.0
  3
*U48
  1

  0
TEXT
  5
2A7
  8
図枠
  6
CONTINUOUS
 10
165.9619726808817
 20
-119.6210018280056
 30
0.0
 40
4.6745324999999989
  1
製品名
  0
ENDBLK
  5
2A9
  8
0
  0
BLOCK
  8
0
  2
*U49
 70
     1
 10
0.0
 20
0.0
 30
0.0
  3
*U49
  1

  0
TEXT
  5
2AB
  8
図枠
  6
CONTINUOUS
 10
76.308375485450256
 20
-136.91168457925281
 30
0.0
 40
4.6745324999999989
  1
園 原
  0
ENDBLK
  5
2AD
  8
0
  0
BLOCK
  8
0
  2
*D50
 70
     1
 10
0.0
 20
0.0
 30
0.0
  3
*D50
  1

  0
LINE
  5
2B0
  8
寸法線
 62
     0
 10
-17.0625
 20
-74.452874999999992
 30
0.0
 11
-99.560945212156341
 21
-74.45287500000002
 31
0.0
  0
LINE
  5
2B1
  8
寸法線
 62
     0
 10
-162.5
 20
70.984624999999994
 30
0.0
 11
-162.5
 21
-11.51382021215634
 31
0.0
  0
ARC
  5
2B2
  8
寸法線
 62
     0
 10
-162.5
 20
-74.452875000000006
 30
0.0
 40
64.189054787843659
 50
5.3576104983587456
 51
40.770080842850142
  0
ARC
  5
2B3
  8
寸法線
 62
     0
 10
-162.5
 20
-74.452875000000006
 30
0.0
 40
64.189054787843659
 50
57.225221221189258
 51
84.642389501641247
  0
SOLID
  5
2B4
  8
寸法線
 62
     0
 10
-97.592459619793004
 20
-68.41269466713193
 30
0.0
 11
-99.59027408409419
 21
-68.506168547061009
 31
0.0
 12
-98.310945212156341
 22
-74.452875000000006
 32
0.0
 13
-98.310945212156341
 23
-74.452875000000006
 33
0.0
  0
SOLID
  5
2B5
  8
寸法線
 62
     0
 10
-156.553293547061
 20
-11.54314908409417
 30
0.0
 11
-156.45981966713191
 21
-9.545334619792996
 31
0.0
 12
-162.5
 22
-10.26382021215634
 32
0.0
 13
-162.5
 23
-10.26382021215634
 33
0.0
  0
TEXT
  8
寸法線
  40
5.99722
  5
2BD
  62
0
  72
0
  71
0
 10
-132.381
 20
-36.6256
 30
0.000000
  1
90°
  0
POINT
  5
2B7
  8
Defpoints
 62
     0
 10
-162.5
 20
-74.452875000000006
 30
0.0
  0
POINT
  5
2B8
  8
Defpoints
 62
     0
 10
-17.000000000000011
 20
-74.452875000000006
 30
0.0
  0
POINT
  5
2B9
  8
Defpoints
 62
     0
 10
-162.5
 20
71.047124999999994
 30
0.0
  0
POINT
  5
2BA
  8
Defpoints
 62
     0
 10
-106.9106479088162
 20
-42.358347606078183
 30
0.0
  0
ENDBLK
  5
2BC
  8
0
  0
ENDSEC
  0
SECTION
  2
ENTITIES
  0
LINE
  5
2F
  8
図枠
 62
     5
 10
237.50646726209999
 20
185.26081658570001
 30
0.0
 11
237.50646726209999
 21
215.2578165857
 31
0.0
  0
LINE
  5
30
  8
図枠
 62
     5
 10
92.002448347099985
 20
186.22230392930001
 30
0.0
 11
101.9014583471
 21
186.22230392930001
 31
0.0
  0
LINE
  5
31
  8
図枠
 62
     5
 10
89.521267262099997
 20
195.25981658570001
 30
0.0
 11
277.50246726210003
 21
195.25981658570001
 31
0.0
  0
INSERT
  5
32
  8
0
  6
CONTINUOUS
  2
*U17
 10
0.0
 20
0.0
 30
0.0
  0
LINE
  5
33
  8
図枠
 62
     5
 10
96.951953347100002
 20
204.69410806159999
 30
0.0
 11
92.002448347099985
 21
196.12131392929999
 31
0.0
  0
LINE
  5
34
  8
図枠
 62
     5
 10
89.521267262099997
 20
185.26081658570001
 30
0.0
 11
89.521267262099997
 21
215.2578165857
 31
0.0
  0
LINE
  5
36
  8
ﾚｲﾔ_1
  6
BORDER
 62
     3
 10
133.66272786459999
 20
132.5
 30
0.0
 11
133.66272786459999
 21
123.5
 31
0.0
  0
CIRCLE
  5
37
  8
ﾚｲﾔ_1
 62
     5
 10
133.66272786459999
 20
128.0
 30
0.0
 40
3.0
  0
CIRCLE
  5
38
  8
ﾚｲﾔ_1
 62
     5
 10
93.662727864599987
 20
128.0
 30
0.0
 40
3.0
  0
LINE
  5
39
  8
ﾚｲﾔ_1
  6
BORDER
 62
     3
 10
93.662727864599987
 20
132.5
 30
0.0
 11
93.662727864599987
 21
123.5
 31
0.0
  0
LINE
  5
3A
  8
ﾚｲﾔ_1
  6
BORDER
 62
     3
 10
98.162727864599987
 20
128.0
 30
0.0
 11
89.162727864599987
 21
128.0
 31
0.0
  0
ARC
  5
3B
  8
ﾚｲﾔ_1
 62
     5
 10
76.662727864600001
 20
106.0
 30
0.0
 40
3.0
 50
180.0
 51
270.0
  0
LINE
  5
3C
  8
ﾚｲﾔ_1
 62
     5
 10
223.66272786459999
 20
103.0
 30
0.0
 11
76.662727864600001
 21
103.0
 31
0.0
  0
DIMENSION
  5
4D
  8
寸法線
  2
*D0
 10
223.66272786459999
 20
169.69758072920001
 30
0.0
 11
198.66272786459999
 21
169.69758072920001
 31
0.0
 70
   128
  1
<>
 13
223.66272786459999
 23
153.0
 33
0.0
 14
173.66272786459999
 24
132.5
 34
0.0
  0
DIMENSION
  5
5C
  8
寸法線
  2
*D1
 10
173.66272786459999
 20
169.69758072920001
 30
0.0
 11
153.6627278645999
 21
169.69758072920001
 31
0.0
 70
   128
  1
<>
 13
173.66272786459999
 23
132.5
 33
0.0
 14
133.66272786459999
 24
132.5
 34
0.0
  0
DIMENSION
  5
6B
  8
寸法線
  2
*D2
 10
133.66272786459999
 20
169.69758072920001
 30
0.0
 11
113.6627278646
 21
169.69758072920001
 31
0.0
 70
   128
  1
<>
 13
133.66272786459999
 23
132.5
 33
0.0
 14
93.662727864599987
 24
132.5
 34
0.0
  0
DIMENSION
  5
7A
  8
寸法線
  2
*D3
 10
93.662727864599987
 20
169.69758072920001
 30
0.0
 11
83.662727864599987
 21
169.69758072920001
 31
0.0
 70
   128
  1
<>
 13
93.662727864599987
 23
132.5
 33
0.0
 14
73.662727864600001
 24
150.0
 34
0.0
  0
DIMENSION
  5
83
  8
寸法線
  2
*D4
 10
131.79644143100001
 20
130.34882416280001
 30
0.0
 11
179.87567872689999
 21
84.257171015400004
 31
0.0
 70
   131
  1
6-%%c <>
 15
135.5290142982
 25
125.6511758372
 35
0.0
 40
0.0
  0
INSERT
  5
84
  8
0
  6
CONTINUOUS
  2
*U18
 10
0.0
 20
0.0
 30
0.0
  0
INSERT
  5
85
  8
0
  6
CONTINUOUS
  2
*U19
 10
0.0
 20
0.0
 30
0.0
  0
LINE
  5
86
  8
図枠
 62
     5
 10
257.50446726209998
 20
185.26081658570001
 30
0.0
 11
257.50446726209998
 21
215.2578165857
 31
0.0
  0
INSERT
  5
87
  8
0
  6
CONTINUOUS
  2
*U20
 10
0.0
 20
0.0
 30
0.0
  0
INSERT
  5
88
  8
0
  6
CONTINUOUS
  2
*U21
 10
0.0
 20
0.0
 30
0.0
  0
LINE
  5
89
  8
図枠
 62
     5
 10
105.5196672621
 20
185.26081658570001
 30
0.0
 11
105.5196672621
 21
215.2578165857
 31
0.0
  0
LINE
  5
8A
  8
図枠
 62
     5
 10
96.951953347100002
 20
204.69410806159999
 30
0.0
 11
101.9014583471
 21
196.12131392929999
 31
0.0
  0
LINE
  5
8B
  8
図枠
 62
     5
 10
137.51646726210001
 20
185.26081658570001
 30
0.0
 11
137.51646726210001
 21
215.2578165857
 31
0.0
  0
LINE
  5
8C
  8
図枠
 62
     5
 10
89.521267262099997
 20
185.26081658570001
 30
0.0
 11
277.50246726210003
 21
185.26081658570001
 31
0.0
  0
LINE
  5
8D
  8
図枠
 62
     5
 10
96.951953347100002
 20
194.7950980615999
 30
0.0
 11
92.002448347099985
 21
186.22230392930001
 31
0.0
  0
LINE
  5
8E
  8
図枠
 62
     5
 10
96.951953347100002
 20
194.7950980615999
 30
0.0
 11
101.9014583471
 21
186.22230392930001
 31
0.0
  0
LINE
  5
8F
  8
図枠
 62
     5
 10
92.002448347099985
 20
196.12131392929999
 30
0.0
 11
101.9014583471
 21
196.12131392929999
 31
0.0
  0
LINE
  5
90
  8
図枠
 62
     5
 10
89.521267262099997
 20
205.2588165857
 30
0.0
 11
277.50246726210003
 21
205.2588165857
 31
0.0
  0
LINE
  5
91
  8
図枠
 10
148.17636278840001
 20
-124.5122030143
 30
0.0
 11
157.39144118839999
 21
-126.81597261429999
 31
0.0
  0
LINE
  5
92
  8
図枠
 10
154.2695433769
 20
-160.20835629499999
 30
0.0
 11
158.11375199380001
 21
-160.20835629499999
 31
0.0
  0
LINE
  5
93
  8
図枠
 10
114.3131905538
 20
-150.449332295
 30
0.0
 11
107.9138305538
 21
-150.449332295
 31
0.0
  0
LINE
  5
94
  8
図枠
 10
152.0096746319
 20
-152.35517546689999
 30
0.0
 11
153.31423199380001
 21
-150.449332295
 31
0.0
  0
LINE
  5
95
  8
図枠
 10
125.76901455380001
 20
-154.67966207559999
 30
0.0
 11
125.76901455380001
 21
-154.16433718530001
 31
0.0
  0
LINE
  5
96
  8
図枠
 10
111.9134305538
 20
-153.64901229500001
 30
0.0
 11
111.9134305538
 21
-152.84909229499999
 31
0.0
  0
ARC
  5
97
  8
図枠
 10
127.68882255379999
 20
-153.16906029500001
 30
0.0
 40
6.0793919999999986
 50
331.39928138329998
 51
358.49204224580001
  0
INSERT
  5
98
  8
0
  6
CONTINUOUS
  2
*U22
 10
0.0
 20
0.0
 30
0.0
  0
INSERT
  5
99
  8
0
  6
CONTINUOUS
  2
*U23
 10
0.0
 20
0.0
 30
0.0
  0
LINE
  5
9A
  8
図枠
 10
159.51426726209999
 20
-91.711483414300005
 30
0.0
 11
159.51426726209999
 21
-80.712583414299999
 31
0.0
  0
LINE
  5
9B
  8
図枠
 10
148.17636278840001
 20
-119.90466381429999
 30
0.0
 11
157.39144118839999
 21
-117.6008942143
 31
0.0
  0
LINE
  5
9C
  8
図枠
 10
148.17636278840001
 20
-119.90466381429999
 30
0.0
 11
148.17636278840001
 21
-124.5122030143
 31
0.0
  0
INSERT
  5
9D
  8
0
  6
CONTINUOUS
  2
*U24
 10
0.0
 20
0.0
 30
0.0
  0
LINE
  5
9E
  8
ﾚｲﾔ_1
 62
     5
 10
73.662727864600001
 20
106.0
 30
0.0
 11
73.662727864600001
 21
150.0
 31
0.0
  0
ARC
  5
9F
  8
ﾚｲﾔ_1
 62
     5
 10
76.662727864600001
 20
150.0
 30
0.0
 40
3.0
 50
90.0
 51
180.0
  0
LINE
  5
A0
  8
ﾚｲﾔ_1
 62
     5
 10
76.662727864600001
 20
153.0
 30
0.0
 11
223.66272786459999
 21
153.0
 31
0.0
  0
LINE
  5
A1
  8
ﾚｲﾔ_1
 62
     5
 10
219.16272786459999
 20
153.0
 30
0.0
 11
219.16272786459999
 21
103.0
 31
0.0
  0
LINE
  5
A2
  8
ﾚｲﾔ_1
 62
     5
 10
223.66272786459999
 20
153.0
 30
0.0
 11
223.66272786459999
 21
103.0
 31
0.0
  0
LINE
  5
A3
  8
ﾚｲﾔ_1
  6
STITCH
 10
219.16272786459999
 20
125.0
 30
0.0
 11
223.66272786459999
 21
125.0
 31
0.0
  0
LINE
  5
A4
  8
ﾚｲﾔ_1
  6
STITCH
 10
219.16272786459999
 20
131.0
 30
0.0
 11
223.66272786459999
 21
131.0
 31
0.0
  0
LINE
  5
A5
  8
ﾚｲﾔ_1
  6
BORDER
 62
     3
 10
211.77584635420001
 20
128.0
 30
0.0
 11
231.95032552079999
 21
128.0
 31
0.0
  0
CIRCLE
  5
A6
  8
ﾚｲﾔ_1
 62
     5
 10
173.66272786459999
 20
128.0
 30
0.0
 40
3.0
  0
LINE
  5
A7
  8
ﾚｲﾔ_1
  6
BORDER
 62
     3
 10
173.66272786459999
 20
132.5
 30
0.0
 11
173.66272786459999
 21
123.5
 31
0.0
  0
LINE
  5
A8
  8
ﾚｲﾔ_1
  6
BORDER
 62
     3
 10
178.16272786459999
 20
128.0
 30
0.0
 11
169.16272786459999
 21
128.0
 31
0.0
  0
LINE
  5
A9
  8
ﾚｲﾔ_1
  6
BORDER
 62
     3
 10
138.16272786459999
 20
128.0
 30
0.0
 11
129.16272786459999
 21
128.0
 31
0.0
  0
LINE
  5
AA
  8
図枠
 10
143.7151919938
 20
-157.328644295
 30
0.0
 11
148.9328035138
 21
-157.328644295
 31
0.0
  0
LINE
  5
AB
  8
図枠
 10
157.39144118839999
 20
-117.6008942143
 30
0.0
 11
157.39144118839999
 21
-126.81597261429999
 31
0.0
  0
INSERT
  5
AC
  8
0
  6
CONTINUOUS
  2
*U25
 10
0.0
 20
0.0
 30
0.0
  0
INSERT
  5
AD
  8
0
  6
CONTINUOUS
  2
*U26
 10
0.0
 20
0.0
 30
0.0
  0
CIRCLE
  5
AE
  8
図枠
 10
137.64445446209999
 20
-122.2084334143
 30
0.0
 40
2.303769599999999
  0
INSERT
  5
AF
  8
0
  6
CONTINUOUS
  2
*U27
 10
0.0
 20
0.0
 30
0.0
  0
ARC
  5
B0
  8
図枠
 10
114.3131905538
 20
-156.84869229500001
 30
0.0
 40
4.7995199999999993
 50
270.0
 51
0.0
  0
LINE
  5
B1
  8
図枠
 10
45.525667262100001
 20
-113.7092834143
 30
0.0
 11
45.525667262100001
 21
-164.70418341429999
 31
0.0
  0
LINE
  5
B2
  8
図枠
 10
148.17636278840001
 20
-119.90466381429999
 30
0.0
 11
157.39144118839999
 21
-117.6008942143
 31
0.0
  0
LINE
  5
B3
  8
図枠
 10
85.521667262099996
 20
-113.7092834143
 30
0.0
 11
85.521667262099996
 21
-130.70758341429999
 31
0.0
  0
LINE
  5
B4
  8
図枠
 10
119.1127105538
 20
-156.84869229500001
 30
0.0
 11
119.1127105538
 21
-156.04877229499999
 31
0.0
  0
LINE
  5
B5
  8
図枠
 10
148.17636278840001
 20
-119.90466381429999
 30
0.0
 11
148.17636278840001
 21
-124.5122030143
 31
0.0
  0
INSERT
  5
B6
  8
0
  6
CONTINUOUS
  2
*U28
 10
0.0
 20
0.0
 30
0.0
  0
LINE
  5
B7
  8
図枠
 10
143.7151919938
 20
-157.328644295
 30
0.0
 11
143.7151919938
 21
-160.20835629499999
 31
0.0
  0
LINE
  5
B8
  8
図枠
 10
148.17636278840001
 20
-119.90466381429999
 30
0.0
 11
148.17636278840001
 21
-124.5122030143
 31
0.0
  0
LINE
  5
B9
  8
図枠
 10
107.9138305538
 20
-159.24845229499999
 30
0.0
 11
107.9138305538
 21
-161.64821229500001
 31
0.0
  0
INSERT
  5
BA
  8
0
  6
CONTINUOUS
  2
*U29
 10
0.0
 20
0.0
 30
0.0
  0
LINE
  5
BB
  8
図枠
 10
136.7482674821
 20
-158.20716636829999
 30
0.0
 11
136.46333268270001
 21
-158.48614349850001
 31
0.0
  0
LINE
  5
BC
  8
図枠
 10
140.16757455379999
 20
-150.449332295
 30
0.0
 11
125.76901455380001
 21
-150.449332295
 31
0.0
  0
LINE
  5
BD
  8
図枠
 10
45.525667262100001
 20
-130.70758341429999
 30
0.0
 11
277.50246726210003
 21
-130.70758341429999
 31
0.0
  0
LINE
  5
BE
  8
図枠
 10
45.525667262100001
 20
-147.70588341429999
 30
0.0
 11
277.50246726210003
 21
-147.70588341429999
 31
0.0
  0
CIRCLE
  5
BF
  8
図枠
 10
137.64445446209999
 20
-122.2084334143
 30
0.0
 40
4.6075391999999988
  0
INSERT
  5
C0
  8
0
  6
CONTINUOUS
  2
*U30
 10
0.0
 20
0.0
 30
0.0
  0
LINE
  5
C1
  8
図枠
 10
125.76901455380001
 20
-153.32904429499999
 30
0.0
 11
133.76821455379999
 21
-153.32904429499999
 31
0.0
  0
LINE
  5
C2
  8
図枠
 10
150.4345199938
 20
-162.44813229499999
 30
0.0
 11
149.77751903379999
 21
-160.20835629499999
 31
0.0
  0
LINE
  5
C3
  8
図枠
 10
125.76901455380001
 20
-159.24845229499999
 30
0.0
 11
127.68882255379999
 21
-159.24845229499999
 31
0.0
  0
LINE
  5
C4
  8
図枠
 10
85.521667262099996
 20
-113.7092834143
 30
0.0
 11
85.521667262099996
 21
-80.712583414299999
 31
0.0
  0
LINE
  5
C5
  8
図枠
 10
107.9138305538
 20
-158.44853229500001
 30
0.0
 11
111.9134305538
 21
-158.44853229500001
 31
0.0
  0
LINE
  5
C6
  8
図枠
 10
45.525667262100001
 20
-80.712583414299999
 30
0.0
 11
45.525667262100001
 21
-113.7092834143
 31
0.0
  0
INSERT
  5
C7
  8
0
  6
CONTINUOUS
  2
*U31
 10
0.0
 20
0.0
 30
0.0
  0
CIRCLE
  5
C8
  8
図枠
 10
137.64445446209999
 20
-122.2084334143
 30
0.0
 40
4.6075391999999988
  0
CIRCLE
  5
C9
  8
図枠
 10
137.64445446209999
 20
-122.2084334143
 30
0.0
 40
2.303769599999999
  0
INSERT
  5
CA
  8
0
  6
CONTINUOUS
  2
*U32
 10
0.0
 20
0.0
 30
0.0
  0
INSERT
  5
CB
  8
0
  6
CONTINUOUS
  2
*U33
 10
0.0
 20
0.0
 30
0.0
  0
LINE
  5
CC
  8
図枠
 10
106.0722486319
 20
-153.64901229500001
 30
0.0
 11
106.0722486319
 21
-156.04877229499999
 31
0.0
  0
INSERT
  5
CD
  8
0
  6
CONTINUOUS
  2
*U34
 10
0.0
 20
0.0
 30
0.0
  0
LINE
  5
CE
  8
図枠
 10
153.07256165960001
 20
-156.04877229499999
 30
0.0
 11
158.11375199380001
 21
-156.04877229499999
 31
0.0
  0
LINE
  5
CF
  8
図枠
 10
125.76901455380001
 20
-154.16433718530001
 30
0.0
 11
132.16837455379999
 21
-154.16433718530001
 31
0.0
  0
INSERT
  5
D0
  8
0
  6
CONTINUOUS
  2
*U35
 10
0.0
 20
0.0
 30
0.0
  0
LINE
  5
D1
  8
図枠
 10
49.525267262100002
 20
-139.2067334143
 30
0.0
 11
101.5200672621
 21
-139.2067334143
 31
0.0
  0
LINE
  5
D2
  8
図枠
  6
BORDER
 10
137.64445446209999
 20
-115.2971246143
 30
0.0
 11
137.64445446209999
 21
-129.1197422143
 31
0.0
  0
CIRCLE
  5
D3
  8
図枠
 10
137.64445446209999
 20
-122.2084334143
 30
0.0
 40
4.6075391999999988
  0
LINE
  5
D4
  8
図枠
 10
140.16757455379999
 20
-159.24845229499999
 30
0.0
 11
140.16757455379999
 21
-161.64821229500001
 31
0.0
  0
LINE
  5
D5
  8
図枠
  6
BORDER
 10
137.64445446209999
 20
-115.2971246143
 30
0.0
 11
137.64445446209999
 21
-129.1197422143
 31
0.0
  0
LINE
  5
D6
  8
図枠
 10
148.17636278840001
 20
-124.5122030143
 30
0.0
 11
157.39144118839999
 21
-126.81597261429999
 31
0.0
  0
LINE
  5
D7
  8
図枠
 10
153.4408637265
 20
-157.328644295
 30
0.0
 11
153.07256165960001
 21
-156.04877229499999
 31
0.0
  0
INSERT
  5
D8
  8
0
  6
CONTINUOUS
  2
*U36
 10
0.0
 20
0.0
 30
0.0
  0
LINE
  5
D9
  8
図枠
 10
107.9138305538
 20
-153.64901229500001
 30
0.0
 11
106.0722486319
 21
-153.64901229500001
 31
0.0
  0
LINE
  5
DA
  8
図枠
 10
109.5192672621
 20
-139.2067334143
 30
0.0
 11
161.51406726210001
 21
-139.2067334143
 31
0.0
  0
LINE
  5
DB
  8
図枠
 10
111.9134305538
 20
-158.44853229500001
 30
0.0
 11
111.9134305538
 21
-156.04877229499999
 31
0.0
  0
LINE
  5
DC
  8
図枠
 10
119.1127105538
 20
-156.04877229499999
 30
0.0
 11
121.5124705538
 21
-156.04877229499999
 31
0.0
  0
INSERT
  5
DD
  8
0
  6
CONTINUOUS
  2
*U37
 10
0.0
 20
0.0
 30
0.0
  0
LINE
  5
DE
  8
図枠
 10
157.39144118839999
 20
-117.6008942143
 30
0.0
 11
157.39144118839999
 21
-126.81597261429999
 31
0.0
  0
LINE
  5
DF
  8
図枠
 10
125.76901455380001
 20
-150.449332295
 30
0.0
 11
125.76901455380001
 21
-153.32904429499999
 31
0.0
  0
INSERT
  5
E0
  8
0
  6
CONTINUOUS
  2
*U38
 10
0.0
 20
0.0
 30
0.0
  0
LINE
  5
E1
  8
図枠
 10
125.51766726210001
 20
-113.7092834143
 30
0.0
 11
125.51766726210001
 21
-130.70758341429999
 31
0.0
  0
LINE
  5
E2
  8
図枠
 10
45.525667262100001
 20
-102.7103834143
 30
0.0
 11
277.50246726210003
 21
-102.7103834143
 31
0.0
  0
LINE
  5
E3
  8
図枠
 10
121.5124705538
 20
-150.449332295
 30
0.0
 11
115.1131105538
 21
-150.449332295
 31
0.0
  0
INSERT
  5
E4
  8
0
  6
CONTINUOUS
  2
*U39
 10
0.0
 20
0.0
 30
0.0
  0
LINE
  5
E5
  8
図枠
 10
115.1131105538
 20
-153.64901229500001
 30
0.0
 11
111.9134305538
 21
-153.64901229500001
 31
0.0
  0
LINE
  5
E6
  8
図枠
 10
45.525667262100001
 20
-113.7092834143
 30
0.0
 11
277.50246726210003
 21
-113.7092834143
 31
0.0
  0
LINE
  5
E7
  8
図枠
 10
111.9134305538
 20
-156.04877229499999
 30
0.0
 11
115.1131105538
 21
-156.04877229499999
 31
0.0
  0
LINE
  5
E8
  8
図枠
 10
125.76901455380001
 20
-161.64821229500001
 30
0.0
 11
129.76861455379989
 21
-161.64821229500001
 31
0.0
  0
CIRCLE
  5
E9
  8
図枠
 10
137.64445446209999
 20
-122.2084334143
 30
0.0
 40
2.303769599999999
  0
INSERT
  5
EA
  8
0
  6
CONTINUOUS
  2
*U40
 10
0.0
 20
0.0
 30
0.0
  0
INSERT
  5
EB
  8
0
  6
CONTINUOUS
  2
*U41
 10
0.0
 20
0.0
 30
0.0
  0
LINE
  5
EC
  8
図枠
  6
BORDER
 10
130.73314566209999
 20
-122.2084334143
 30
0.0
 11
160.29818886210001
 21
-122.2084334143
 31
0.0
  0
LINE
  5
ED
  8
図枠
 10
148.17636278840001
 20
-124.5122030143
 30
0.0
 11
157.39144118839999
 21
-126.81597261429999
 31
0.0
  0
LINE
  5
EE
  8
図枠
 10
133.0263887305
 20
-156.07928269179999
 30
0.0
 11
132.64147393569999
 21
-156.5044215506
 31
0.0
  0
INSERT
  5
EF
  8
0
  6
CONTINUOUS
  2
*U42
 10
0.0
 20
0.0
 30
0.0
  0
LINE
  5
F0
  8
図枠
 10
157.39144118839999
 20
-117.6008942143
 30
0.0
 11
157.39144118839999
 21
-126.81597261429999
 31
0.0
  0
LINE
  5
F1
  8
図枠
 10
152.24388200920001
 20
-153.16906029500001
 30
0.0
 11
152.0096746319
 21
-152.35517546689999
 31
0.0
  0
LINE
  5
F2
  8
図枠
 10
146.91487199380001
 20
-150.449332295
 30
0.0
 11
153.31423199380001
 21
-150.449332295
 31
0.0
  0
LINE
  5
F3
  8
図枠
 10
150.4345199938
 20
-162.44813229499999
 30
0.0
 11
154.91407199380001
 21
-162.44813229499999
 31
0.0
  0
LINE
  5
F4
  8
図枠
 10
107.9138305538
 20
-161.64821229500001
 30
0.0
 11
114.3131905538
 21
-161.64821229500001
 31
0.0
  0
LINE
  5
F5
  8
図枠
  6
BORDER
 10
137.64445446209999
 20
-115.2971246143
 30
0.0
 11
137.64445446209999
 21
-129.1197422143
 31
0.0
  0
LINE
  5
F6
  8
図枠
 10
49.525267262100002
 20
-122.2084334143
 30
0.0
 11
81.522067262099995
 21
-122.2084334143
 31
0.0
  0
ARC
  5
F7
  8
図枠
 10
129.76861455379989
 20
-152.84909229499999
 30
0.0
 40
8.7991200000000003
 50
270.0
 51
302.54495885400001
  0
LINE
  5
F8
  8
図枠
 10
107.9138305538
 20
-156.04877229499999
 30
0.0
 11
107.9138305538
 21
-158.44853229500001
 31
0.0
  0
LINE
  5
F9
  8
図枠
 10
107.9138305538
 20
-150.449332295
 30
0.0
 11
107.9138305538
 21
-153.64901229500001
 31
0.0
  0
LINE
  5
FA
  8
図枠
 10
115.1131105538
 20
-156.04877229499999
 30
0.0
 11
115.1131105538
 21
-156.84869229500001
 31
0.0
  0
CIRCLE
  5
FB
  8
図枠
 10
137.64445446209999
 20
-122.2084334143
 30
0.0
 40
2.303769599999999
  0
LINE
  5
FC
  8
図枠
 10
121.5124705538
 20
-153.64901229500001
 30
0.0
 11
119.1127105538
 21
-153.64901229500001
 31
0.0
  0
LINE
  5
FD
  8
図枠
 10
121.5124705538
 20
-153.64901229500001
 30
0.0
 11
121.5124705538
 21
-156.04877229499999
 31
0.0
  0
LINE
  5
FE
  8
図枠
 10
158.11375199380001
 20
-157.328644295
 30
0.0
 11
158.11375199380001
 21
-160.20835629499999
 31
0.0
  0
LINE
  5
FF
  8
図枠
 10
154.91407199380001
 20
-162.44813229499999
 30
0.0
 11
154.2695433769
 21
-160.20835629499999
 31
0.0
  0
LINE
  5
100
  8
図枠
 10
147.7126588738
 20
-153.16906029500001
 30
0.0
 11
146.91487199380001
 21
-150.449332295
 31
0.0
  0
CIRCLE
  5
101
  8
図枠
 10
137.64445446209999
 20
-122.2084334143
 30
0.0
 40
4.6075391999999988
  0
LINE
  5
102
  8
図枠
 10
119.1127105538
 20
-152.84909229499999
 30
0.0
 11
121.5124705538
 21
-150.449332295
 31
0.0
  0
LINE
  5
103
  8
図枠
 10
115.1131105538
 20
-150.449332295
 30
0.0
 11
115.1131105538
 21
-153.64901229500001
 31
0.0
  0
LINE
  5
104
  8
図枠
 10
125.76901455380001
 20
-161.64821229500001
 30
0.0
 11
125.76901455380001
 21
-159.24845229499999
 31
0.0
  0
INSERT
  5
105
  8
0
  6
CONTINUOUS
  2
*U43
 10
0.0
 20
0.0
 30
0.0
  0
LINE
  5
106
  8
図枠
 10
143.7151919938
 20
-160.20835629499999
 30
0.0
 11
149.77751903379999
 21
-160.20835629499999
 31
0.0
  0
POLYLINE
  8
図枠
  5
2BE
  66
     1
 10
0.000000
 20
0.000000
 30
0.000000
  70
     8
  0
VERTEX
  8
図枠
  5
2BF
 10
131.263
 20
-155.069
 30
0.000000
  70
    32
  0
VERTEX
  8
図枠
  5
2C0
 10
131.274
 20
-155.081
 30
0.000000
  70
    32
  0
VERTEX
  8
図枠
  5
2C1
 10
131.284
 20
-155.093
 30
0.000000
  70
    32
  0
VERTEX
  8
図枠
  5
2C2
 10
131.295
 20
-155.105
 30
0.000000
  70
    32
  0
VERTEX
  8
図枠
  5
2C3
 10
131.306
 20
-155.116
 30
0.000000
  70
    32
  0
VERTEX
  8
図枠
  5
2C4
 10
131.316
 20
-155.128
 30
0.000000
  70
    32
  0
VERTEX
  8
図枠
  5
2C5
 10
131.327
 20
-155.140
 30
0.000000
  70
    32
  0
VERTEX
  8
図枠
  5
2C6
 10
131.337
 20
-155.152
 30
0.000000
  70
    32
  0
VERTEX
  8
図枠
  5
2C7
 10
131.348
 20
-155.164
 30
0.000000
  70
    32
  0
VERTEX
  8
図枠
  5
2C8
 10
131.358
 20
-155.175
 30
0.000000
  70
    32
  0
VERTEX
  8
図枠
  5
2C9
 10
131.369
 20
-155.187
 30
0.000000
  70
    32
  0
VERTEX
  8
図枠
  5
2CA
 10
131.380
 20
-155.199
 30
0.000000
  70
    32
  0
VERTEX
  8
図枠
  5
2CB
 10
131.390
 20
-155.211
 30
0.000000
  70
    32
  0
VERTEX
  8
図枠
  5
2CC
 10
131.401
 20
-155.222
 30
0.000000
  70
    32
  0
VERTEX
  8
図枠
  5
2CD
 10
131.411
 20
-155.234
 30
0.000000
  70
    32
  0
VERTEX
  8
図枠
  5
2CE
 10
131.422
 20
-155.246
 30
0.000000
  70
    32
  0
VERTEX
  8
図枠
  5
2CF
 10
131.432
 20
-155.258
 30
0.000000
  70
    32
  0
VERTEX
  8
図枠
  5
2D0
 10
131.443
 20
-155.269
 30
0.000000
  70
    32
  0
VERTEX
  8
図枠
  5
2D1
 10
131.454
 20
-155.281
 30
0.000000
  70
    32
  0
VERTEX
  8
図枠
  5
2D2
 10
131.464
 20
-155.293
 30
0.000000
  70
    32
  0
VERTEX
  8
図枠
  5
2D3
 10
131.475
 20
-155.305
 30
0.000000
  70
    32
  0
VERTEX
  8
図枠
  5
2D4
 10
131.485
 20
-155.316
 30
0.000000
  70
    32
  0
VERTEX
  8
図枠
  5
2D5
 10
131.496
 20
-155.328
 30
0.000000
  70
    32
  0
VERTEX
  8
図枠
  5
2D6
 10
131.506
 20
-155.340
 30
0.000000
  70
    32
  0
VERTEX
  8
図枠
  5
2D7
 10
131.517
 20
-155.351
 30
0.000000
  70
    32
  0
VERTEX
  8
図枠
  5
2D8
 10
131.528
 20
-155.363
 30
0.000000
  70
    32
  0
VERTEX
  8
図枠
  5
2D9
 10
131.538
 20
-155.375
 30
0.000000
  70
    32
  0
VERTEX
  8
図枠
  5
2DA
 10
131.549
 20
-155.387
 30
0.000000
  70
    32
  0
VERTEX
  8
図枠
  5
2DB
 10
131.559
 20
-155.398
 30
0.000000
  70
    32
  0
VERTEX
  8
図枠
  5
2DC
 10
131.570
 20
-155.410
 30
0.000000
  70
    32
  0
VERTEX
  8
図枠
  5
2DD
 10
131.581
 20
-155.422
 30
0.000000
  70
    32
  0
VERTEX
  8
図枠
  5
2DE
 10
131.591
 20
-155.433
 30
0.000000
  70
    32
  0
VERTEX
  8
図枠
  5
2DF
 10
131.602
 20
-155.445
 30
0.000000
  70
    32
  0
VERTEX
  8
図枠
  5
2E0
 10
131.612
 20
-155.457
 30
0.000000
  70
    32
  0
VERTEX
  8
図枠
  5
2E1
 10
131.623
 20
-155.468
 30
0.000000
  70
    32
  0
VERTEX
  8
図枠
  5
2E2
 10
131.634
 20
-155.480
 30
0.000000
  70
    32
  0
VERTEX
  8
図枠
  5
2E3
 10
131.644
 20
-155.492
 30
0.000000
  70
    32
  0
VERTEX
  8
図枠
  5
2E4
 10
131.655
 20
-155.503
 30
0.000000
  70
    32
  0
VERTEX
  8
図枠
  5
2E5
 10
131.666
 20
-155.515
 30
0.000000
  70
    32
  0
VERTEX
  8
図枠
  5
2E6
 10
131.676
 20
-155.527
 30
0.000000
  70
    32
  0
VERTEX
  8
図枠
  5
2E7
 10
131.687
 20
-155.538
 30
0.000000
  70
    32
  0
VERTEX
  8
図枠
  5
2E8
 10
131.697
 20
-155.550
 30
0.000000
  70
    32
  0
VERTEX
  8
図枠
  5
2E9
 10
131.708
 20
-155.562
 30
0.000000
  70
    32
  0
VERTEX
  8
図枠
  5
2EA
 10
131.719
 20
-155.573
 30
0.000000
  70
    32
  0
VERTEX
  8
図枠
  5
2EB
 10
131.729
 20
-155.585
 30
0.000000
  70
    32
  0
VERTEX
  8
図枠
  5
2EC
 10
131.740
 20
-155.596
 30
0.000000
  70
    32
  0
VERTEX
  8
図枠
  5
2ED
 10
131.751
 20
-155.608
 30
0.000000
  70
    32
  0
VERTEX
  8
図枠
  5
2EE
 10
131.761
 20
-155.620
 30
0.000000
  70
    32
  0
VERTEX
  8
図枠
  5
2EF
 10
131.772
 20
-155.631
 30
0.000000
  70
    32
  0
VERTEX
  8
図枠
  5
2F0
 10
131.783
 20
-155.643
 30
0.000000
  70
    32
  0
VERTEX
  8
図枠
  5
2F1
 10
131.794
 20
-155.654
 30
0.000000
  70
    32
  0
VERTEX
  8
図枠
  5
2F2
 10
131.804
 20
-155.666
 30
0.000000
  70
    32
  0
VERTEX
  8
図枠
  5
2F3
 10
131.815
 20
-155.677
 30
0.000000
  70
    32
  0
VERTEX
  8
図枠
  5
2F4
 10
131.826
 20
-155.689
 30
0.000000
  70
    32
  0
VERTEX
  8
図枠
  5
2F5
 10
131.836
 20
-155.700
 30
0.000000
  70
    32
  0
VERTEX
  8
図枠
  5
2F6
 10
131.847
 20
-155.712
 30
0.000000
  70
    32
  0
VERTEX
  8
図枠
  5
2F7
 10
131.858
 20
-155.723
 30
0.000000
  70
    32
  0
VERTEX
  8
図枠
  5
2F8
 10
131.869
 20
-155.735
 30
0.000000
  70
    32
  0
VERTEX
  8
図枠
  5
2F9
 10
131.879
 20
-155.746
 30
0.000000
  70
    32
  0
VERTEX
  8
図枠
  5
2FA
 10
131.890
 20
-155.758
 30
0.000000
  70
    32
  0
VERTEX
  8
図枠
  5
2FB
 10
131.901
 20
-155.769
 30
0.000000
  70
    32
  0
VERTEX
  8
図枠
  5
2FC
 10
131.912
 20
-155.781
 30
0.000000
  70
    32
  0
VERTEX
  8
図枠
  5
2FD
 10
131.922
 20
-155.792
 30
0.000000
  70
    32
  0
VERTEX
  8
図枠
  5
2FE
 10
131.933
 20
-155.804
 30
0.000000
  70
    32
  0
VERTEX
  8
図枠
  5
2FF
 10
131.944
 20
-155.815
 30
0.000000
  70
    32
  0
VERTEX
  8
図枠
  5
300
 10
131.955
 20
-155.826
 30
0.000000
  70
    32
  0
VERTEX
  8
図枠
  5
301
 10
131.965
 20
-155.838
 30
0.000000
  70
    32
  0
VERTEX
  8
図枠
  5
302
 10
131.976
 20
-155.849
 30
0.000000
  70
    32
  0
VERTEX
  8
図枠
  5
303
 10
131.987
 20
-155.861
 30
0.000000
  70
    32
  0
VERTEX
  8
図枠
  5
304
 10
131.998
 20
-155.872
 30
0.000000
  70
    32
  0
VERTEX
  8
図枠
  5
305
 10
132.009
 20
-155.883
 30
0.000000
  70
    32
  0
VERTEX
  8
図枠
  5
306
 10
132.019
 20
-155.895
 30
0.000000
  70
    32
  0
VERTEX
  8
図枠
  5
307
 10
132.030
 20
-155.906
 30
0.000000
  70
    32
  0
VERTEX
  8
図枠
  5
308
 10
132.041
 20
-155.917
 30
0.000000
  70
    32
  0
VERTEX
  8
図枠
  5
309
 10
132.052
 20
-155.929
 30
0.000000
  70
    32
  0
VERTEX
  8
図枠
  5
30A
 10
132.063
 20
-155.940
 30
0.000000
  70
    32
  0
VERTEX
  8
図枠
  5
30B
 10
132.074
 20
-155.951
 30
0.000000
  70
    32
  0
VERTEX
  8
図枠
  5
30C
 10
132.085
 20
-155.962
 30
0.000000
  70
    32
  0
VERTEX
  8
図枠
  5
30D
 10
132.096
 20
-155.974
 30
0.000000
  70
    32
  0
VERTEX
  8
図枠
  5
30E
 10
132.106
 20
-155.985
 30
0.000000
  70
    32
  0
VERTEX
  8
図枠
  5
30F
 10
132.117
 20
-155.996
 30
0.000000
  70
    32
  0
VERTEX
  8
図枠
  5
310
 10
132.128
 20
-156.007
 30
0.000000
  70
    32
  0
VERTEX
  8
図枠
  5
311
 10
132.139
 20
-156.019
 30
0.000000
  70
    32
  0
VERTEX
  8
図枠
  5
312
 10
132.150
 20
-156.030
 30
0.000000
  70
    32
  0
VERTEX
  8
図枠
  5
313
 10
132.161
 20
-156.041
 30
0.000000
  70
    32
  0
VERTEX
  8
図枠
  5
314
 10
132.172
 20
-156.052
 30
0.000000
  70
    32
  0
VERTEX
  8
図枠
  5
315
 10
132.183
 20
-156.063
 30
0.000000
  70
    32
  0
VERTEX
  8
図枠
  5
316
 10
132.194
 20
-156.074
 30
0.000000
  70
    32
  0
VERTEX
  8
図枠
  5
317
 10
132.205
 20
-156.085
 30
0.000000
  70
    32
  0
VERTEX
  8
図枠
  5
318
 10
132.216
 20
-156.096
 30
0.000000
  70
    32
  0
VERTEX
  8
図枠
  5
319
 10
132.227
 20
-156.107
 30
0.000000
  70
    32
  0
VERTEX
  8
図枠
  5
31A
 10
132.238
 20
-156.119
 30
0.000000
  70
    32
  0
VERTEX
  8
図枠
  5
31B
 10
132.249
 20
-156.130
 30
0.000000
  70
    32
  0
VERTEX
  8
図枠
  5
31C
 10
132.260
 20
-156.141
 30
0.000000
  70
    32
  0
VERTEX
  8
図枠
  5
31D
 10
132.271
 20
-156.152
 30
0.000000
  70
    32
  0
VERTEX
  8
図枠
  5
31E
 10
132.282
 20
-156.163
 30
0.000000
  70
    32
  0
VERTEX
  8
図枠
  5
31F
 10
132.293
 20
-156.174
 30
0.000000
  70
    32
  0
VERTEX
  8
図枠
  5
320
 10
132.304
 20
-156.185
 30
0.000000
  70
    32
  0
VERTEX
  8
図枠
  5
321
 10
132.315
 20
-156.195
 30
0.000000
  70
    32
  0
VERTEX
  8
図枠
  5
322
 10
132.326
 20
-156.206
 30
0.000000
  70
    32
  0
VERTEX
  8
図枠
  5
323
 10
132.337
 20
-156.217
 30
0.000000
  70
    32
  0
VERTEX
  8
図枠
  5
324
 10
132.348
 20
-156.228
 30
0.000000
  70
    32
  0
VERTEX
  8
図枠
  5
325
 10
132.360
 20
-156.239
 30
0.000000
  70
    32
  0
VERTEX
  8
図枠
  5
326
 10
132.371
 20
-156.250
 30
0.000000
  70
    32
  0
VERTEX
  8
図枠
  5
327
 10
132.382
 20
-156.261
 30
0.000000
  70
    32
  0
VERTEX
  8
図枠
  5
328
 10
132.393
 20
-156.272
 30
0.000000
  70
    32
  0
VERTEX
  8
図枠
  5
329
 10
132.404
 20
-156.282
 30
0.000000
  70
    32
  0
VERTEX
  8
図枠
  5
32A
 10
132.415
 20
-156.293
 30
0.000000
  70
    32
  0
VERTEX
  8
図枠
  5
32B
 10
132.427
 20
-156.304
 30
0.000000
  70
    32
  0
VERTEX
  8
図枠
  5
32C
 10
132.438
 20
-156.315
 30
0.000000
  70
    32
  0
VERTEX
  8
図枠
  5
32D
 10
132.449
 20
-156.325
 30
0.000000
  70
    32
  0
VERTEX
  8
図枠
  5
32E
 10
132.460
 20
-156.336
 30
0.000000
  70
    32
  0
VERTEX
  8
図枠
  5
32F
 10
132.471
 20
-156.347
 30
0.000000
  70
    32
  0
VERTEX
  8
図枠
  5
330
 10
132.483
 20
-156.357
 30
0.000000
  70
    32
  0
VERTEX
  8
図枠
  5
331
 10
132.494
 20
-156.368
 30
0.000000
  70
    32
  0
VERTEX
  8
図枠
  5
332
 10
132.505
 20
-156.379
 30
0.000000
  70
    32
  0
VERTEX
  8
図枠
  5
333
 10
132.516
 20
-156.389
 30
0.000000
  70
    32
  0
VERTEX
  8
図枠
  5
334
 10
132.528
 20
-156.400
 30
0.000000
  70
    32
  0
VERTEX
  8
図枠
  5
335
 10
132.539
 20
-156.410
 30
0.000000
  70
    32
  0
VERTEX
  8
図枠
  5
336
 10
132.550
 20
-156.421
 30
0.000000
  70
    32
  0
VERTEX
  8
図枠
  5
337
 10
132.562
 20
-156.431
 30
0.000000
  70
    32
  0
VERTEX
  8
図枠
  5
338
 10
132.573
 20
-156.442
 30
0.000000
  70
    32
  0
VERTEX
  8
図枠
  5
339
 10
132.584
 20
-156.452
 30
0.000000
  70
    32
  0
VERTEX
  8
図枠
  5
33A
 10
132.596
 20
-156.463
 30
0.000000
  70
    32
  0
VERTEX
  8
図枠
  5
33B
 10
132.607
 20
-156.473
 30
0.000000
  70
    32
  0
VERTEX
  8
図枠
  5
33C
 10
132.619
 20
-156.484
 30
0.000000
  70
    32
  0
VERTEX
  8
図枠
  5
33D
 10
132.630
 20
-156.494
 30
0.000000
  70
    32
  0
VERTEX
  8
図枠
  5
33E
 10
132.641
 20
-156.504
 30
0.000000
  70
    32
  0
SEQEND
  8
図枠
  5
33F
  0
POLYLINE
  8
図枠
  5
340
  66
     1
 10
0.000000
 20
0.000000
 30
0.000000
  70
     8
  0
VERTEX
  8
図枠
  5
341
 10
136.463
 20
-158.486
 30
0.000000
  70
    32
  0
VERTEX
  8
図枠
  5
342
 10
136.491
 20
-158.494
 30
0.000000
  70
    32
  0
VERTEX
  8
図枠
  5
343
 10
136.519
 20
-158.502
 30
0.000000
  70
    32
  0
VERTEX
  8
図枠
  5
344
 10
136.547
 20
-158.510
 30
0.000000
  70
    32
  0
VERTEX
  8
図枠
  5
345
 10
136.575
 20
-158.518
 30
0.000000
  70
    32
  0
VERTEX
  8
図枠
  5
346
 10
136.603
 20
-158.525
 30
0.000000
  70
    32
  0
VERTEX
  8
図枠
  5
347
 10
136.632
 20
-158.533
 30
0.000000
  70
    32
  0
VERTEX
  8
図枠
  5
348
 10
136.660
 20
-158.541
 30
0.000000
  70
    32
  0
VERTEX
  8
図枠
  5
349
 10
136.688
 20
-158.548
 30
0.000000
  70
    32
  0
VERTEX
  8
図枠
  5
34A
 10
136.716
 20
-158.556
 30
0.000000
  70
    32
  0
VERTEX
  8
図枠
  5
34B
 10
136.744
 20
-158.563
 30
0.000000
  70
    32
  0
VERTEX
  8
図枠
  5
34C
 10
136.773
 20
-158.571
 30
0.000000
  70
    32
  0
VERTEX
  8
図枠
  5
34D
 10
136.801
 20
-158.578
 30
0.000000
  70
    32
  0
VERTEX
  8
図枠
  5
34E
 10
136.829
 20
-158.586
 30
0.000000
  70
    32
  0
VERTEX
  8
図枠
  5
34F
 10
136.857
 20
-158.593
 30
0.000000
  70
    32
  0
VERTEX
  8
図枠
  5
350
 10
136.886
 20
-158.600
 30
0.000000
  70
    32
  0
VERTEX
  8
図枠
  5
351
 10
136.914
 20
-158.608
 30
0.000000
  70
    32
  0
VERTEX
  8
図枠
  5
352
 10
136.943
 20
-158.615
 30
0.000000
  70
    32
  0
VERTEX
  8
図枠
  5
353
 10
136.971
 20
-158.622
 30
0.000000
  70
    32
  0
VERTEX
  8
図枠
  5
354
 10
136.999
 20
-158.629
 30
0.000000
  70
    32
  0
VERTEX
  8
図枠
  5
355
 10
137.028
 20
-158.636
 30
0.000000
  70
    32
  0
VERTEX
  8
図枠
  5
356
 10
137.056
 20
-158.644
 30
0.000000
  70
    32
  0
VERTEX
  8
図枠
  5
357
 10
137.085
 20
-158.651
 30
0.000000
  70
    32
  0
VERTEX
  8
図枠
  5
358
 10
137.113
 20
-158.658
 30
0.000000
  70
    32
  0
VERTEX
  8
図枠
  5
359
 10
137.142
 20
-158.665
 30
0.000000
  70
    32
  0
VERTEX
  8
図枠
  5
35A
 10
137.171
 20
-158.671
 30
0.000000
  70
    32
  0
VERTEX
  8
図枠
  5
35B
 10
137.199
 20
-158.678
 30
0.000000
  70
    32
  0
VERTEX
  8
図枠
  5
35C
 10
137.228
 20
-158.685
 30
0.000000
  70
    32
  0
VERTEX
  8
図枠
  5
35D
 10
137.257
 20
-158.692
 30
0.000000
  70
    32
  0
VERTEX
  8
図枠
  5
35E
 10
137.285
 20
-158.699
 30
0.000000
  70
    32
  0
VERTEX
  8
図枠
  5
35F
 10
137.314
 20
-158.706
 30
0.000000
  70
    32
  0
VERTEX
  8
図枠
  5
360
 10
137.343
 20
-158.712
 30
0.000000
  70
    32
  0
VERTEX
  8
図枠
  5
361
 10
137.371
 20
-158.719
 30
0.000000
  70
    32
  0
VERTEX
  8
図枠
  5
362
 10
137.400
 20
-158.726
 30
0.000000
  70
    32
  0
VERTEX
  8
図枠
  5
363
 10
137.429
 20
-158.732
 30
0.000000
  70
    32
  0
VERTEX
  8
図枠
  5
364
 10
137.458
 20
-158.739
 30
0.000000
  70
    32
  0
VERTEX
  8
図枠
  5
365
 10
137.487
 20
-158.745
 30
0.000000
  70
    32
  0
VERTEX
  8
図枠
  5
366
 10
137.515
 20
-158.752
 30
0.000000
  70
    32
  0
VERTEX
  8
図枠
  5
367
 10
137.544
 20
-158.758
 30
0.000000
  70
    32
  0
VERTEX
  8
図枠
  5
368
 10
137.573
 20
-158.765
 30
0.000000
  70
    32
  0
VERTEX
  8
図枠
  5
369
 10
137.602
 20
-158.771
 30
0.000000
  70
    32
  0
VERTEX
  8
図枠
  5
36A
 10
137.631
 20
-158.778
 30
0.000000
  70
    32
  0
VERTEX
  8
図枠
  5
36B
 10
137.660
 20
-158.784
 30
0.000000
  70
    32
  0
VERTEX
  8
図枠
  5
36C
 10
137.689
 20
-158.790
 30
0.000000
  70
    32
  0
VERTEX
  8
図枠
  5
36D
 10
137.718
 20
-158.797
 30
0.000000
  70
    32
  0
VERTEX
  8
図枠
  5
36E
 10
137.747
 20
-158.803
 30
0.000000
  70
    32
  0
VERTEX
  8
図枠
  5
36F
 10
137.776
 20
-158.809
 30
0.000000
  70
    32
  0
VERTEX
  8
図枠
  5
370
 10
137.805
 20
-158.815
 30
0.000000
  70
    32
  0
VERTEX
  8
図枠
  5
371
 10
137.834
 20
-158.821
 30
0.000000
  70
    32
  0
VERTEX
  8
図枠
  5
372
 10
137.863
 20
-158.828
 30
0.000000
  70
    32
  0
VERTEX
  8
図枠
  5
373
 10
137.892
 20
-158.834
 30
0.000000
  70
    32
  0
VERTEX
  8
図枠
  5
374
 10
137.921
 20
-158.840
 30
0.000000
  70
    32
  0
VERTEX
  8
図枠
  5
375
 10
137.950
 20
-158.846
 30
0.000000
  70
    32
  0
VERTEX
  8
図枠
  5
376
 10
137.980
 20
-158.852
 30
0.000000
  70
    32
  0
VERTEX
  8
図枠
  5
377
 10
138.009
 20
-158.858
 30
0.000000
  70
    32
  0
VERTEX
  8
図枠
  5
378
 10
138.038
 20
-158.864
 30
0.000000
  70
    32
  0
VERTEX
  8
図枠
  5
379
 10
138.067
 20
-158.870
 30
0.000000
  70
    32
  0
VERTEX
  8
図枠
  5
37A
 10
138.096
 20
-158.876
 30
0.000000
  70
    32
  0
VERTEX
  8
図枠
  5
37B
 10
138.126
 20
-158.882
 30
0.000000
  70
    32
  0
VERTEX
  8
図枠
  5
37C
 10
138.155
 20
-158.888
 30
0.000000
  70
    32
  0
VERTEX
  8
図枠
  5
37D
 10
138.184
 20
-158.893
 30
0.000000
  70
    32
  0
VERTEX
  8
図枠
  5
37E
 10
138.213
 20
-158.899
 30
0.000000
  70
    32
  0
VERTEX
  8
図枠
  5
37F
 10
138.243
 20
-158.905
 30
0.000000
  70
    32
  0
VERTEX
  8
図枠
  5
380
 10
138.272
 20
-158.911
 30
0.000000
  70
    32
  0
VERTEX
  8
図枠
  5
381
 10
138.301
 20
-158.917
 30
0.000000
  70
    32
  0
VERTEX
  8
図枠
  5
382
 10
138.331
 20
-158.922
 30
0.000000
  70
    32
  0
VERTEX
  8
図枠
  5
383
 10
138.360
 20
-158.928
 30
0.000000
  70
    32
  0
VERTEX
  8
図枠
  5
384
 10
138.389
 20
-158.934
 30
0.000000
  70
    32
  0
VERTEX
  8
図枠
  5
385
 10
138.419
 20
-158.939
 30
0.000000
  70
    32
  0
VERTEX
  8
図枠
  5
386
 10
138.448
 20
-158.945
 30
0.000000
  70
    32
  0
VERTEX
  8
図枠
  5
387
 10
138.477
 20
-158.951
 30
0.000000
  70
    32
  0
VERTEX
  8
図枠
  5
388
 10
138.507
 20
-158.956
 30
0.000000
  70
    32
  0
VERTEX
  8
図枠
  5
389
 10
138.536
 20
-158.962
 30
0.000000
  70
    32
  0
VERTEX
  8
図枠
  5
38A
 10
138.566
 20
-158.967
 30
0.000000
  70
    32
  0
VERTEX
  8
図枠
  5
38B
 10
138.595
 20
-158.973
 30
0.000000
  70
    32
  0
VERTEX
  8
図枠
  5
38C
 10
138.625
 20
-158.978
 30
0.000000
  70
    32
  0
VERTEX
  8
図枠
  5
38D
 10
138.654
 20
-158.984
 30
0.000000
  70
    32
  0
VERTEX
  8
図枠
  5
38E
 10
138.684
 20
-158.989
 30
0.000000
  70
    32
  0
VERTEX
  8
図枠
  5
38F
 10
138.713
 20
-158.995
 30
0.000000
  70
    32
  0
VERTEX
  8
図枠
  5
390
 10
138.743
 20
-159.000
 30
0.000000
  70
    32
  0
VERTEX
  8
図枠
  5
391
 10
138.772
 20
-159.006
 30
0.000000
  70
    32
  0
VERTEX
  8
図枠
  5
392
 10
138.802
 20
-159.011
 30
0.000000
  70
    32
  0
VERTEX
  8
図枠
  5
393
 10
138.831
 20
-159.017
 30
0.000000
  70
    32
  0
VERTEX
  8
図枠
  5
394
 10
138.861
 20
-159.022
 30
0.000000
  70
    32
  0
VERTEX
  8
図枠
  5
395
 10
138.890
 20
-159.027
 30
0.000000
  70
    32
  0
VERTEX
  8
図枠
  5
396
 10
138.920
 20
-159.033
 30
0.000000
  70
    32
  0
VERTEX
  8
図枠
  5
397
 10
138.949
 20
-159.038
 30
0.000000
  70
    32
  0
VERTEX
  8
図枠
  5
398
 10
138.979
 20
-159.043
 30
0.000000
  70
    32
  0
VERTEX
  8
図枠
  5
399
 10
139.009
 20
-159.049
 30
0.000000
  70
    32
  0
VERTEX
  8
図枠
  5
39A
 10
139.038
 20
-159.054
 30
0.000000
  70
    32
  0
VERTEX
  8
図枠
  5
39B
 10
139.068
 20
-159.059
 30
0.000000
  70
    32
  0
VERTEX
  8
図枠
  5
39C
 10
139.098
 20
-159.065
 30
0.000000
  70
    32
  0
VERTEX
  8
図枠
  5
39D
 10
139.127
 20
-159.070
 30
0.000000
  70
    32
  0
VERTEX
  8
図枠
  5
39E
 10
139.157
 20
-159.075
 30
0.000000
  70
    32
  0
VERTEX
  8
図枠
  5
39F
 10
139.186
 20
-159.080
 30
0.000000
  70
    32
  0
VERTEX
  8
図枠
  5
3A0
 10
139.216
 20
-159.086
 30
0.000000
  70
    32
  0
VERTEX
  8
図枠
  5
3A1
 10
139.246
 20
-159.091
 30
0.000000
  70
    32
  0
VERTEX
  8
図枠
  5
3A2
 10
139.275
 20
-159.096
 30
0.000000
  70
    32
  0
VERTEX
  8
図枠
  5
3A3
 10
139.305
 20
-159.101
 30
0.000000
  70
    32
  0
VERTEX
  8
図枠
  5
3A4
 10
139.335
 20
-159.106
 30
0.000000
  70
    32
  0
VERTEX
  8
図枠
  5
3A5
 10
139.364
 20
-159.112
 30
0.000000
  70
    32
  0
VERTEX
  8
図枠
  5
3A6
 10
139.394
 20
-159.117
 30
0.000000
  70
    32
  0
VERTEX
  8
図枠
  5
3A7
 10
139.424
 20
-159.122
 30
0.000000
  70
    32
  0
VERTEX
  8
図枠
  5
3A8
 10
139.454
 20
-159.127
 30
0.000000
  70
    32
  0
VERTEX
  8
図枠
  5
3A9
 10
139.483
 20
-159.132
 30
0.000000
  70
    32
  0
VERTEX
  8
図枠
  5
3AA
 10
139.513
 20
-159.137
 30
0.000000
  70
    32
  0
VERTEX
  8
図枠
  5
3AB
 10
139.543
 20
-159.142
 30
0.000000
  70
    32
  0
VERTEX
  8
図枠
  5
3AC
 10
139.572
 20
-159.147
 30
0.000000
  70
    32
  0
VERTEX
  8
図枠
  5
3AD
 10
139.602
 20
-159.153
 30
0.000000
  70
    32
  0
VERTEX
  8
図枠
  5
3AE
 10
139.632
 20
-159.158
 30
0.000000
  70
    32
  0
VERTEX
  8
図枠
  5
3AF
 10
139.662
 20
-159.163
 30
0.000000
  70
    32
  0
VERTEX
  8
図枠
  5
3B0
 10
139.691
 20
-159.168
 30
0.000000
  70
    32
  0
VERTEX
  8
図枠
  5
3B1
 10
139.721
 20
-159.173
 30
0.000000
  70
    32
  0
VERTEX
  8
図枠
  5
3B2
 10
139.751
 20
-159.178
 30
0.000000
  70
    32
  0
VERTEX
  8
図枠
  5
3B3
 10
139.781
 20
-159.183
 30
0.000000
  70
    32
  0
VERTEX
  8
図枠
  5
3B4
 10
139.810
 20
-159.188
 30
0.000000
  70
    32
  0
VERTEX
  8
図枠
  5
3B5
 10
139.840
 20
-159.193
 30
0.000000
  70
    32
  0
VERTEX
  8
図枠
  5
3B6
 10
139.870
 20
-159.198
 30
0.000000
  70
    32
  0
VERTEX
  8
図枠
  5
3B7
 10
139.900
 20
-159.203
 30
0.000000
  70
    32
  0
VERTEX
  8
図枠
  5
3B8
 10
139.929
 20
-159.208
 30
0.000000
  70
    32
  0
VERTEX
  8
図枠
  5
3B9
 10
139.959
 20
-159.213
 30
0.000000
  70
    32
  0
VERTEX
  8
図枠
  5
3BA
 10
139.989
 20
-159.218
 30
0.000000
  70
    32
  0
VERTEX
  8
図枠
  5
3BB
 10
140.019
 20
-159.223
 30
0.000000
  70
    32
  0
VERTEX
  8
図枠
  5
3BC
 10
140.048
 20
-159.228
 30
0.000000
  70
    32
  0
VERTEX
  8
図枠
  5
3BD
 10
140.078
 20
-159.233
 30
0.000000
  70
    32
  0
VERTEX
  8
図枠
  5
3BE
 10
140.108
 20
-159.238
 30
0.000000
  70
    32
  0
VERTEX
  8
図枠
  5
3BF
 10
140.138
 20
-159.243
 30
0.000000
  70
    32
  0
VERTEX
  8
図枠
  5
3C0
 10
140.168
 20
-159.248
 30
0.000000
  70
    32
  0
SEQEND
  8
図枠
  5
3C1
  0
INSERT
  5
109
  8
0
  6
CONTINUOUS
  2
*U44
 10
0.0
 20
0.0
 30
0.0
  0
LINE
  5
10A
  8
図枠
 10
45.525667262100001
 20
-80.712583414299999
 30
0.0
 11
277.50246726210003
 21
-80.712583414299999
 31
0.0
  0
LINE
  5
10B
  8
図枠
 10
143.7151919938
 20
-153.16906029500001
 30
0.0
 11
147.7126588738
 21
-153.16906029500001
 31
0.0
  0
LINE
  5
10C
  8
図枠
 10
153.4408637265
 20
-157.328644295
 30
0.0
 11
158.11375199380001
 21
-157.328644295
 31
0.0
  0
LINE
  5
10D
  8
図枠
 10
148.17636278840001
 20
-119.90466381429999
 30
0.0
 11
157.39144118839999
 21
-117.6008942143
 31
0.0
  0
LINE
  5
10E
  8
図枠
 10
143.7151919938
 20
-156.04877229499999
 30
0.0
 11
148.55737439379999
 21
-156.04877229499999
 31
0.0
  0
INSERT
  5
10F
  8
0
  6
CONTINUOUS
  2
*U45
 10
0.0
 20
0.0
 30
0.0
  0
LINE
  5
110
  8
図枠
 10
45.525667262100001
 20
-80.712583414299999
 30
0.0
 11
45.525667262100001
 21
-113.7092834143
 31
0.0
  0
LINE
  5
111
  8
図枠
 10
125.76901455380001
 20
-159.24845229499999
 30
0.0
 11
125.76901455380001
 21
-161.64821229500001
 31
0.0
  0
INSERT
  5
112
  8
0
  6
CONTINUOUS
  2
*U46
 10
0.0
 20
0.0
 30
0.0
  0
LINE
  5
113
  8
図枠
 10
106.0722486319
 20
-156.04877229499999
 30
0.0
 11
107.6720886319
 21
-156.04877229499999
 31
0.0
  0
LINE
  5
114
  8
図枠
 10
138.56773455379999
 20
-152.84909229499999
 30
0.0
 11
140.16757455379999
 21
-150.449332295
 31
0.0
  0
POLYLINE
  8
図枠
  5
3C2
  66
     1
 10
0.000000
 20
0.000000
 30
0.000000
  70
     8
  0
VERTEX
  8
図枠
  5
3C3
 10
125.769
 20
-154.680
 30
0.000000
  70
    32
  0
VERTEX
  8
図枠
  5
3C4
 10
125.798
 20
-154.706
 30
0.000000
  70
    32
  0
VERTEX
  8
図枠
  5
3C5
 10
125.827
 20
-154.733
 30
0.000000
  70
    32
  0
VERTEX
  8
図枠
  5
3C6
 10
125.855
 20
-154.759
 30
0.000000
  70
    32
  0
VERTEX
  8
図枠
  5
3C7
 10
125.884
 20
-154.786
 30
0.000000
  70
    32
  0
VERTEX
  8
図枠
  5
3C8
 10
125.913
 20
-154.812
 30
0.000000
  70
    32
  0
VERTEX
  8
図枠
  5
3C9
 10
125.942
 20
-154.839
 30
0.000000
  70
    32
  0
VERTEX
  8
図枠
  5
3CA
 10
125.971
 20
-154.866
 30
0.000000
  70
    32
  0
VERTEX
  8
図枠
  5
3CB
 10
126.000
 20
-154.892
 30
0.000000
  70
    32
  0
VERTEX
  8
図枠
  5
3CC
 10
126.028
 20
-154.919
 30
0.000000
  70
    32
  0
VERTEX
  8
図枠
  5
3CD
 10
126.057
 20
-154.945
 30
0.000000
  70
    32
  0
VERTEX
  8
図枠
  5
3CE
 10
126.086
 20
-154.972
 30
0.000000
  70
    32
  0
VERTEX
  8
図枠
  5
3CF
 10
126.115
 20
-154.998
 30
0.000000
  70
    32
  0
VERTEX
  8
図枠
  5
3D0
 10
126.144
 20
-155.025
 30
0.000000
  70
    32
  0
VERTEX
  8
図枠
  5
3D1
 10
126.173
 20
-155.051
 30
0.000000
  70
    32
  0
VERTEX
  8
図枠
  5
3D2
 10
126.201
 20
-155.078
 30
0.000000
  70
    32
  0
VERTEX
  8
図枠
  5
3D3
 10
126.230
 20
-155.104
 30
0.000000
  70
    32
  0
VERTEX
  8
図枠
  5
3D4
 10
126.259
 20
-155.131
 30
0.000000
  70
    32
  0
VERTEX
  8
図枠
  5
3D5
 10
126.288
 20
-155.157
 30
0.000000
  70
    32
  0
VERTEX
  8
図枠
  5
3D6
 10
126.317
 20
-155.184
 30
0.000000
  70
    32
  0
VERTEX
  8
図枠
  5
3D7
 10
126.346
 20
-155.210
 30
0.000000
  70
    32
  0
VERTEX
  8
図枠
  5
3D8
 10
126.375
 20
-155.237
 30
0.000000
  70
    32
  0
VERTEX
  8
図枠
  5
3D9
 10
126.403
 20
-155.263
 30
0.000000
  70
    32
  0
VERTEX
  8
図枠
  5
3DA
 10
126.432
 20
-155.289
 30
0.000000
  70
    32
  0
VERTEX
  8
図枠
  5
3DB
 10
126.461
 20
-155.316
 30
0.000000
  70
    32
  0
VERTEX
  8
図枠
  5
3DC
 10
126.490
 20
-155.342
 30
0.000000
  70
    32
  0
VERTEX
  8
図枠
  5
3DD
 10
126.519
 20
-155.369
 30
0.000000
  70
    32
  0
VERTEX
  8
図枠
  5
3DE
 10
126.548
 20
-155.395
 30
0.000000
  70
    32
  0
VERTEX
  8
図枠
  5
3DF
 10
126.577
 20
-155.421
 30
0.000000
  70
    32
  0
VERTEX
  8
図枠
  5
3E0
 10
126.606
 20
-155.448
 30
0.000000
  70
    32
  0
VERTEX
  8
図枠
  5
3E1
 10
126.635
 20
-155.474
 30
0.000000
  70
    32
  0
VERTEX
  8
図枠
  5
3E2
 10
126.664
 20
-155.500
 30
0.000000
  70
    32
  0
VERTEX
  8
図枠
  5
3E3
 10
126.693
 20
-155.527
 30
0.000000
  70
    32
  0
VERTEX
  8
図枠
  5
3E4
 10
126.722
 20
-155.553
 30
0.000000
  70
    32
  0
VERTEX
  8
図枠
  5
3E5
 10
126.751
 20
-155.579
 30
0.000000
  70
    32
  0
VERTEX
  8
図枠
  5
3E6
 10
126.780
 20
-155.605
 30
0.000000
  70
    32
  0
VERTEX
  8
図枠
  5
3E7
 10
126.809
 20
-155.632
 30
0.000000
  70
    32
  0
VERTEX
  8
図枠
  5
3E8
 10
126.838
 20
-155.658
 30
0.000000
  70
    32
  0
VERTEX
  8
図枠
  5
3E9
 10
126.867
 20
-155.684
 30
0.000000
  70
    32
  0
VERTEX
  8
図枠
  5
3EA
 10
126.896
 20
-155.710
 30
0.000000
  70
    32
  0
VERTEX
  8
図枠
  5
3EB
 10
126.925
 20
-155.736
 30
0.000000
  70
    32
  0
VERTEX
  8
図枠
  5
3EC
 10
126.954
 20
-155.762
 30
0.000000
  70
    32
  0
VERTEX
  8
図枠
  5
3ED
 10
126.983
 20
-155.788
 30
0.000000
  70
    32
  0
VERTEX
  8
図枠
  5
3EE
 10
127.012
 20
-155.814
 30
0.000000
  70
    32
  0
VERTEX
  8
図枠
  5
3EF
 10
127.041
 20
-155.841
 30
0.000000
  70
    32
  0
VERTEX
  8
図枠
  5
3F0
 10
127.070
 20
-155.867
 30
0.000000
  70
    32
  0
VERTEX
  8
図枠
  5
3F1
 10
127.099
 20
-155.893
 30
0.000000
  70
    32
  0
VERTEX
  8
図枠
  5
3F2
 10
127.129
 20
-155.918
 30
0.000000
  70
    32
  0
VERTEX
  8
図枠
  5
3F3
 10
127.158
 20
-155.944
 30
0.000000
  70
    32
  0
VERTEX
  8
図枠
  5
3F4
 10
127.187
 20
-155.970
 30
0.000000
  70
    32
  0
VERTEX
  8
図枠
  5
3F5
 10
127.216
 20
-155.996
 30
0.000000
  70
    32
  0
VERTEX
  8
図枠
  5
3F6
 10
127.245
 20
-156.022
 30
0.000000
  70
    32
  0
VERTEX
  8
図枠
  5
3F7
 10
127.274
 20
-156.048
 30
0.000000
  70
    32
  0
VERTEX
  8
図枠
  5
3F8
 10
127.304
 20
-156.074
 30
0.000000
  70
    32
  0
VERTEX
  8
図枠
  5
3F9
 10
127.333
 20
-156.099
 30
0.000000
  70
    32
  0
VERTEX
  8
図枠
  5
3FA
 10
127.362
 20
-156.125
 30
0.000000
  70
    32
  0
VERTEX
  8
図枠
  5
3FB
 10
127.391
 20
-156.151
 30
0.000000
  70
    32
  0
VERTEX
  8
図枠
  5
3FC
 10
127.421
 20
-156.177
 30
0.000000
  70
    32
  0
VERTEX
  8
図枠
  5
3FD
 10
127.450
 20
-156.202
 30
0.000000
  70
    32
  0
VERTEX
  8
図枠
  5
3FE
 10
127.479
 20
-156.228
 30
0.000000
  70
    32
  0
VERTEX
  8
図枠
  5
3FF
 10
127.509
 20
-156.253
 30
0.000000
  70
    32
  0
VERTEX
  8
図枠
  5
400
 10
127.538
 20
-156.279
 30
0.000000
  70
    32
  0
VERTEX
  8
図枠
  5
401
 10
127.567
 20
-156.305
 30
0.000000
  70
    32
  0
VERTEX
  8
図枠
  5
402
 10
127.597
 20
-156.330
 30
0.000000
  70
    32
  0
VERTEX
  8
図枠
  5
403
 10
127.626
 20
-156.355
 30
0.000000
  70
    32
  0
VERTEX
  8
図枠
  5
404
 10
127.656
 20
-156.381
 30
0.000000
  70
    32
  0
VERTEX
  8
図枠
  5
405
 10
127.685
 20
-156.406
 30
0.000000
  70
    32
  0
VERTEX
  8
図枠
  5
406
 10
127.715
 20
-156.432
 30
0.000000
  70
    32
  0
VERTEX
  8
図枠
  5
407
 10
127.744
 20
-156.457
 30
0.000000
  70
    32
  0
VERTEX
  8
図枠
  5
408
 10
127.774
 20
-156.482
 30
0.000000
  70
    32
  0
VERTEX
  8
図枠
  5
409
 10
127.803
 20
-156.507
 30
0.000000
  70
    32
  0
VERTEX
  8
図枠
  5
40A
 10
127.833
 20
-156.533
 30
0.000000
  70
    32
  0
VERTEX
  8
図枠
  5
40B
 10
127.862
 20
-156.558
 30
0.000000
  70
    32
  0
VERTEX
  8
図枠
  5
40C
 10
127.892
 20
-156.583
 30
0.000000
  70
    32
  0
VERTEX
  8
図枠
  5
40D
 10
127.922
 20
-156.608
 30
0.000000
  70
    32
  0
VERTEX
  8
図枠
  5
40E
 10
127.951
 20
-156.633
 30
0.000000
  70
    32
  0
VERTEX
  8
図枠
  5
40F
 10
127.981
 20
-156.658
 30
0.000000
  70
    32
  0
VERTEX
  8
図枠
  5
410
 10
128.011
 20
-156.683
 30
0.000000
  70
    32
  0
VERTEX
  8
図枠
  5
411
 10
128.040
 20
-156.708
 30
0.000000
  70
    32
  0
VERTEX
  8
図枠
  5
412
 10
128.070
 20
-156.733
 30
0.000000
  70
    32
  0
VERTEX
  8
図枠
  5
413
 10
128.100
 20
-156.757
 30
0.000000
  70
    32
  0
VERTEX
  8
図枠
  5
414
 10
128.130
 20
-156.782
 30
0.000000
  70
    32
  0
VERTEX
  8
図枠
  5
415
 10
128.159
 20
-156.807
 30
0.000000
  70
    32
  0
VERTEX
  8
図枠
  5
416
 10
128.189
 20
-156.832
 30
0.000000
  70
    32
  0
VERTEX
  8
図枠
  5
417
 10
128.219
 20
-156.856
 30
0.000000
  70
    32
  0
VERTEX
  8
図枠
  5
418
 10
128.249
 20
-156.881
 30
0.000000
  70
    32
  0
VERTEX
  8
図枠
  5
419
 10
128.279
 20
-156.905
 30
0.000000
  70
    32
  0
VERTEX
  8
図枠
  5
41A
 10
128.309
 20
-156.930
 30
0.000000
  70
    32
  0
VERTEX
  8
図枠
  5
41B
 10
128.339
 20
-156.954
 30
0.000000
  70
    32
  0
VERTEX
  8
図枠
  5
41C
 10
128.369
 20
-156.979
 30
0.000000
  70
    32
  0
VERTEX
  8
図枠
  5
41D
 10
128.399
 20
-157.003
 30
0.000000
  70
    32
  0
VERTEX
  8
図枠
  5
41E
 10
128.429
 20
-157.027
 30
0.000000
  70
    32
  0
VERTEX
  8
図枠
  5
41F
 10
128.459
 20
-157.052
 30
0.000000
  70
    32
  0
VERTEX
  8
図枠
  5
420
 10
128.489
 20
-157.076
 30
0.000000
  70
    32
  0
VERTEX
  8
図枠
  5
421
 10
128.519
 20
-157.100
 30
0.000000
  70
    32
  0
VERTEX
  8
図枠
  5
422
 10
128.549
 20
-157.124
 30
0.000000
  70
    32
  0
VERTEX
  8
図枠
  5
423
 10
128.579
 20
-157.148
 30
0.000000
  70
    32
  0
VERTEX
  8
図枠
  5
424
 10
128.610
 20
-157.172
 30
0.000000
  70
    32
  0
VERTEX
  8
図枠
  5
425
 10
128.640
 20
-157.196
 30
0.000000
  70
    32
  0
VERTEX
  8
図枠
  5
426
 10
128.670
 20
-157.220
 30
0.000000
  70
    32
  0
VERTEX
  8
図枠
  5
427
 10
128.700
 20
-157.244
 30
0.000000
  70
    32
  0
VERTEX
  8
図枠
  5
428
 10
128.731
 20
-157.267
 30
0.000000
  70
    32
  0
VERTEX
  8
図枠
  5
429
 10
128.761
 20
-157.291
 30
0.000000
  70
    32
  0
VERTEX
  8
図枠
  5
42A
 10
128.791
 20
-157.315
 30
0.000000
  70
    32
  0
VERTEX
  8
図枠
  5
42B
 10
128.822
 20
-157.338
 30
0.000000
  70
    32
  0
VERTEX
  8
図枠
  5
42C
 10
128.852
 20
-157.362
 30
0.000000
  70
    32
  0
VERTEX
  8
図枠
  5
42D
 10
128.883
 20
-157.385
 30
0.000000
  70
    32
  0
VERTEX
  8
図枠
  5
42E
 10
128.913
 20
-157.409
 30
0.000000
  70
    32
  0
VERTEX
  8
図枠
  5
42F
 10
128.944
 20
-157.432
 30
0.000000
  70
    32
  0
VERTEX
  8
図枠
  5
430
 10
128.974
 20
-157.456
 30
0.000000
  70
    32
  0
VERTEX
  8
図枠
  5
431
 10
129.005
 20
-157.479
 30
0.000000
  70
    32
  0
VERTEX
  8
図枠
  5
432
 10
129.036
 20
-157.502
 30
0.000000
  70
    32
  0
VERTEX
  8
図枠
  5
433
 10
129.066
 20
-157.525
 30
0.000000
  70
    32
  0
VERTEX
  8
図枠
  5
434
 10
129.097
 20
-157.548
 30
0.000000
  70
    32
  0
VERTEX
  8
図枠
  5
435
 10
129.128
 20
-157.571
 30
0.000000
  70
    32
  0
VERTEX
  8
図枠
  5
436
 10
129.159
 20
-157.594
 30
0.000000
  70
    32
  0
VERTEX
  8
図枠
  5
437
 10
129.189
 20
-157.617
 30
0.000000
  70
    32
  0
VERTEX
  8
図枠
  5
438
 10
129.220
 20
-157.640
 30
0.000000
  70
    32
  0
VERTEX
  8
図枠
  5
439
 10
129.251
 20
-157.663
 30
0.000000
  70
    32
  0
VERTEX
  8
図枠
  5
43A
 10
129.282
 20
-157.685
 30
0.000000
  70
    32
  0
VERTEX
  8
図枠
  5
43B
 10
129.313
 20
-157.708
 30
0.000000
  70
    32
  0
VERTEX
  8
図枠
  5
43C
 10
129.344
 20
-157.730
 30
0.000000
  70
    32
  0
VERTEX
  8
図枠
  5
43D
 10
129.375
 20
-157.753
 30
0.000000
  70
    32
  0
VERTEX
  8
図枠
  5
43E
 10
129.406
 20
-157.775
 30
0.000000
  70
    32
  0
VERTEX
  8
図枠
  5
43F
 10
129.437
 20
-157.798
 30
0.000000
  70
    32
  0
VERTEX
  8
図枠
  5
440
 10
129.468
 20
-157.820
 30
0.000000
  70
    32
  0
VERTEX
  8
図枠
  5
441
 10
129.499
 20
-157.842
 30
0.000000
  70
    32
  0
VERTEX
  8
図枠
  5
442
 10
129.531
 20
-157.864
 30
0.000000
  70
    32
  0
VERTEX
  8
図枠
  5
443
 10
129.562
 20
-157.886
 30
0.000000
  70
    32
  0
VERTEX
  8
図枠
  5
444
 10
129.593
 20
-157.908
 30
0.000000
  70
    32
  0
VERTEX
  8
図枠
  5
445
 10
129.624
 20
-157.930
 30
0.000000
  70
    32
  0
VERTEX
  8
図枠
  5
446
 10
129.656
 20
-157.952
 30
0.000000
  70
    32
  0
VERTEX
  8
図枠
  5
447
 10
129.687
 20
-157.974
 30
0.000000
  70
    32
  0
VERTEX
  8
図枠
  5
448
 10
129.719
 20
-157.996
 30
0.000000
  70
    32
  0
VERTEX
  8
図枠
  5
449
 10
129.750
 20
-158.017
 30
0.000000
  70
    32
  0
VERTEX
  8
図枠
  5
44A
 10
129.782
 20
-158.039
 30
0.000000
  70
    32
  0
VERTEX
  8
図枠
  5
44B
 10
129.813
 20
-158.060
 30
0.000000
  70
    32
  0
VERTEX
  8
図枠
  5
44C
 10
129.845
 20
-158.082
 30
0.000000
  70
    32
  0
VERTEX
  8
図枠
  5
44D
 10
129.876
 20
-158.103
 30
0.000000
  70
    32
  0
VERTEX
  8
図枠
  5
44E
 10
129.908
 20
-158.124
 30
0.000000
  70
    32
  0
VERTEX
  8
図枠
  5
44F
 10
129.940
 20
-158.145
 30
0.000000
  70
    32
  0
VERTEX
  8
図枠
  5
450
 10
129.972
 20
-158.167
 30
0.000000
  70
    32
  0
VERTEX
  8
図枠
  5
451
 10
130.003
 20
-158.188
 30
0.000000
  70
    32
  0
VERTEX
  8
図枠
  5
452
 10
130.035
 20
-158.209
 30
0.000000
  70
    32
  0
VERTEX
  8
図枠
  5
453
 10
130.067
 20
-158.229
 30
0.000000
  70
    32
  0
VERTEX
  8
図枠
  5
454
 10
130.099
 20
-158.250
 30
0.000000
  70
    32
  0
VERTEX
  8
図枠
  5
455
 10
130.131
 20
-158.271
 30
0.000000
  70
    32
  0
VERTEX
  8
図枠
  5
456
 10
130.163
 20
-158.292
 30
0.000000
  70
    32
  0
VERTEX
  8
図枠
  5
457
 10
130.195
 20
-158.312
 30
0.000000
  70
    32
  0
VERTEX
  8
図枠
  5
458
 10
130.227
 20
-158.333
 30
0.000000
  70
    32
  0
VERTEX
  8
図枠
  5
459
 10
130.260
 20
-158.353
 30
0.000000
  70
    32
  0
VERTEX
  8
図枠
  5
45A
 10
130.292
 20
-158.373
 30
0.000000
  70
    32
  0
VERTEX
  8
図枠
  5
45B
 10
130.324
 20
-158.393
 30
0.000000
  70
    32
  0
VERTEX
  8
図枠
  5
45C
 10
130.356
 20
-158.414
 30
0.000000
  70
    32
  0
VERTEX
  8
図枠
  5
45D
 10
130.389
 20
-158.434
 30
0.000000
  70
    32
  0
VERTEX
  8
図枠
  5
45E
 10
130.421
 20
-158.454
 30
0.000000
  70
    32
  0
VERTEX
  8
図枠
  5
45F
 10
130.453
 20
-158.473
 30
0.000000
  70
    32
  0
VERTEX
  8
図枠
  5
460
 10
130.486
 20
-158.493
 30
0.000000
  70
    32
  0
VERTEX
  8
図枠
  5
461
 10
130.518
 20
-158.513
 30
0.000000
  70
    32
  0
VERTEX
  8
図枠
  5
462
 10
130.551
 20
-158.533
 30
0.000000
  70
    32
  0
SEQEND
  8
図枠
  5
463
  0
POLYLINE
  8
図枠
  5
464
  66
     1
 10
0.000000
 20
0.000000
 30
0.000000
  70
     8
  0
VERTEX
  8
図枠
  5
465
 10
134.502
 20
-160.266
 30
0.000000
  70
    32
  0
VERTEX
  8
図枠
  5
466
 10
134.545
 20
-160.280
 30
0.000000
  70
    32
  0
VERTEX
  8
図枠
  5
467
 10
134.588
 20
-160.294
 30
0.000000
  70
    32
  0
VERTEX
  8
図枠
  5
468
 10
134.632
 20
-160.307
 30
0.000000
  70
    32
  0
VERTEX
  8
図枠
  5
469
 10
134.675
 20
-160.321
 30
0.000000
  70
    32
  0
VERTEX
  8
図枠
  5
46A
 10
134.718
 20
-160.334
 30
0.000000
  70
    32
  0
VERTEX
  8
図枠
  5
46B
 10
134.761
 20
-160.348
 30
0.000000
  70
    32
  0
VERTEX
  8
図枠
  5
46C
 10
134.804
 20
-160.361
 30
0.000000
  70
    32
  0
VERTEX
  8
図枠
  5
46D
 10
134.848
 20
-160.374
 30
0.000000
  70
    32
  0
VERTEX
  8
図枠
  5
46E
 10
134.891
 20
-160.388
 30
0.000000
  70
    32
  0
VERTEX
  8
図枠
  5
46F
 10
134.934
 20
-160.401
 30
0.000000
  70
    32
  0
VERTEX
  8
図枠
  5
470
 10
134.978
 20
-160.414
 30
0.000000
  70
    32
  0
VERTEX
  8
図枠
  5
471
 10
135.021
 20
-160.427
 30
0.000000
  70
    32
  0
VERTEX
  8
図枠
  5
472
 10
135.065
 20
-160.440
 30
0.000000
  70
    32
  0
VERTEX
  8
図枠
  5
473
 10
135.108
 20
-160.453
 30
0.000000
  70
    32
  0
VERTEX
  8
図枠
  5
474
 10
135.152
 20
-160.466
 30
0.000000
  70
    32
  0
VERTEX
  8
図枠
  5
475
 10
135.195
 20
-160.478
 30
0.000000
  70
    32
  0
VERTEX
  8
図枠
  5
476
 10
135.239
 20
-160.491
 30
0.000000
  70
    32
  0
VERTEX
  8
図枠
  5
477
 10
135.283
 20
-160.504
 30
0.000000
  70
    32
  0
VERTEX
  8
図枠
  5
478
 10
135.326
 20
-160.516
 30
0.000000
  70
    32
  0
VERTEX
  8
図枠
  5
479
 10
135.370
 20
-160.529
 30
0.000000
  70
    32
  0
VERTEX
  8
図枠
  5
47A
 10
135.414
 20
-160.541
 30
0.000000
  70
    32
  0
VERTEX
  8
図枠
  5
47B
 10
135.458
 20
-160.554
 30
0.000000
  70
    32
  0
VERTEX
  8
図枠
  5
47C
 10
135.501
 20
-160.566
 30
0.000000
  70
    32
  0
VERTEX
  8
図枠
  5
47D
 10
135.545
 20
-160.578
 30
0.000000
  70
    32
  0
VERTEX
  8
図枠
  5
47E
 10
135.589
 20
-160.591
 30
0.000000
  70
    32
  0
VERTEX
  8
図枠
  5
47F
 10
135.633
 20
-160.603
 30
0.000000
  70
    32
  0
VERTEX
  8
図枠
  5
480
 10
135.677
 20
-160.615
 30
0.000000
  70
    32
  0
VERTEX
  8
図枠
  5
481
 10
135.721
 20
-160.627
 30
0.000000
  70
    32
  0
VERTEX
  8
図枠
  5
482
 10
135.765
 20
-160.639
 30
0.000000
  70
    32
  0
VERTEX
  8
図枠
  5
483
 10
135.809
 20
-160.651
 30
0.000000
  70
    32
  0
VERTEX
  8
図枠
  5
484
 10
135.853
 20
-160.663
 30
0.000000
  70
    32
  0
VERTEX
  8
図枠
  5
485
 10
135.897
 20
-160.675
 30
0.000000
  70
    32
  0
VERTEX
  8
図枠
  5
486
 10
135.941
 20
-160.687
 30
0.000000
  70
    32
  0
VERTEX
  8
図枠
  5
487
 10
135.985
 20
-160.699
 30
0.000000
  70
    32
  0
VERTEX
  8
図枠
  5
488
 10
136.029
 20
-160.710
 30
0.000000
  70
    32
  0
VERTEX
  8
図枠
  5
489
 10
136.074
 20
-160.722
 30
0.000000
  70
    32
  0
VERTEX
  8
図枠
  5
48A
 10
136.118
 20
-160.734
 30
0.000000
  70
    32
  0
VERTEX
  8
図枠
  5
48B
 10
136.162
 20
-160.745
 30
0.000000
  70
    32
  0
VERTEX
  8
図枠
  5
48C
 10
136.206
 20
-160.757
 30
0.000000
  70
    32
  0
VERTEX
  8
図枠
  5
48D
 10
136.251
 20
-160.768
 30
0.000000
  70
    32
  0
VERTEX
  8
図枠
  5
48E
 10
136.295
 20
-160.780
 30
0.000000
  70
    32
  0
VERTEX
  8
図枠
  5
48F
 10
136.339
 20
-160.791
 30
0.000000
  70
    32
  0
VERTEX
  8
図枠
  5
490
 10
136.384
 20
-160.803
 30
0.000000
  70
    32
  0
VERTEX
  8
図枠
  5
491
 10
136.428
 20
-160.814
 30
0.000000
  70
    32
  0
VERTEX
  8
図枠
  5
492
 10
136.472
 20
-160.825
 30
0.000000
  70
    32
  0
VERTEX
  8
図枠
  5
493
 10
136.517
 20
-160.836
 30
0.000000
  70
    32
  0
VERTEX
  8
図枠
  5
494
 10
136.561
 20
-160.847
 30
0.000000
  70
    32
  0
VERTEX
  8
図枠
  5
495
 10
136.606
 20
-160.859
 30
0.000000
  70
    32
  0
VERTEX
  8
図枠
  5
496
 10
136.650
 20
-160.870
 30
0.000000
  70
    32
  0
VERTEX
  8
図枠
  5
497
 10
136.695
 20
-160.881
 30
0.000000
  70
    32
  0
VERTEX
  8
図枠
  5
498
 10
136.739
 20
-160.892
 30
0.000000
  70
    32
  0
VERTEX
  8
図枠
  5
499
 10
136.784
 20
-160.903
 30
0.000000
  70
    32
  0
VERTEX
  8
図枠
  5
49A
 10
136.828
 20
-160.914
 30
0.000000
  70
    32
  0
VERTEX
  8
図枠
  5
49B
 10
136.873
 20
-160.925
 30
0.000000
  70
    32
  0
VERTEX
  8
図枠
  5
49C
 10
136.918
 20
-160.935
 30
0.000000
  70
    32
  0
VERTEX
  8
図枠
  5
49D
 10
136.962
 20
-160.946
 30
0.000000
  70
    32
  0
VERTEX
  8
図枠
  5
49E
 10
137.007
 20
-160.957
 30
0.000000
  70
    32
  0
VERTEX
  8
図枠
  5
49F
 10
137.052
 20
-160.968
 30
0.000000
  70
    32
  0
VERTEX
  8
図枠
  5
4A0
 10
137.096
 20
-160.978
 30
0.000000
  70
    32
  0
VERTEX
  8
図枠
  5
4A1
 10
137.141
 20
-160.989
 30
0.000000
  70
    32
  0
VERTEX
  8
図枠
  5
4A2
 10
137.186
 20
-161.000
 30
0.000000
  70
    32
  0
VERTEX
  8
図枠
  5
4A3
 10
137.231
 20
-161.010
 30
0.000000
  70
    32
  0
VERTEX
  8
図枠
  5
4A4
 10
137.275
 20
-161.021
 30
0.000000
  70
    32
  0
VERTEX
  8
図枠
  5
4A5
 10
137.320
 20
-161.031
 30
0.000000
  70
    32
  0
VERTEX
  8
図枠
  5
4A6
 10
137.365
 20
-161.042
 30
0.000000
  70
    32
  0
VERTEX
  8
図枠
  5
4A7
 10
137.410
 20
-161.052
 30
0.000000
  70
    32
  0
VERTEX
  8
図枠
  5
4A8
 10
137.455
 20
-161.063
 30
0.000000
  70
    32
  0
VERTEX
  8
図枠
  5
4A9
 10
137.500
 20
-161.073
 30
0.000000
  70
    32
  0
VERTEX
  8
図枠
  5
4AA
 10
137.544
 20
-161.083
 30
0.000000
  70
    32
  0
VERTEX
  8
図枠
  5
4AB
 10
137.589
 20
-161.094
 30
0.000000
  70
    32
  0
VERTEX
  8
図枠
  5
4AC
 10
137.634
 20
-161.104
 30
0.000000
  70
    32
  0
VERTEX
  8
図枠
  5
4AD
 10
137.679
 20
-161.114
 30
0.000000
  70
    32
  0
VERTEX
  8
図枠
  5
4AE
 10
137.724
 20
-161.125
 30
0.000000
  70
    32
  0
VERTEX
  8
図枠
  5
4AF
 10
137.769
 20
-161.135
 30
0.000000
  70
    32
  0
VERTEX
  8
図枠
  5
4B0
 10
137.814
 20
-161.145
 30
0.000000
  70
    32
  0
VERTEX
  8
図枠
  5
4B1
 10
137.859
 20
-161.155
 30
0.000000
  70
    32
  0
VERTEX
  8
図枠
  5
4B2
 10
137.904
 20
-161.165
 30
0.000000
  70
    32
  0
VERTEX
  8
図枠
  5
4B3
 10
137.949
 20
-161.175
 30
0.000000
  70
    32
  0
VERTEX
  8
図枠
  5
4B4
 10
137.994
 20
-161.185
 30
0.000000
  70
    32
  0
VERTEX
  8
図枠
  5
4B5
 10
138.039
 20
-161.195
 30
0.000000
  70
    32
  0
VERTEX
  8
図枠
  5
4B6
 10
138.084
 20
-161.205
 30
0.000000
  70
    32
  0
VERTEX
  8
図枠
  5
4B7
 10
138.129
 20
-161.215
 30
0.000000
  70
    32
  0
VERTEX
  8
図枠
  5
4B8
 10
138.175
 20
-161.225
 30
0.000000
  70
    32
  0
VERTEX
  8
図枠
  5
4B9
 10
138.220
 20
-161.235
 30
0.000000
  70
    32
  0
VERTEX
  8
図枠
  5
4BA
 10
138.265
 20
-161.245
 30
0.000000
  70
    32
  0
VERTEX
  8
図枠
  5
4BB
 10
138.310
 20
-161.255
 30
0.000000
  70
    32
  0
VERTEX
  8
図枠
  5
4BC
 10
138.355
 20
-161.265
 30
0.000000
  70
    32
  0
VERTEX
  8
図枠
  5
4BD
 10
138.400
 20
-161.275
 30
0.000000
  70
    32
  0
VERTEX
  8
図枠
  5
4BE
 10
138.445
 20
-161.285
 30
0.000000
  70
    32
  0
VERTEX
  8
図枠
  5
4BF
 10
138.491
 20
-161.295
 30
0.000000
  70
    32
  0
VERTEX
  8
図枠
  5
4C0
 10
138.536
 20
-161.304
 30
0.000000
  70
    32
  0
VERTEX
  8
図枠
  5
4C1
 10
138.581
 20
-161.314
 30
0.000000
  70
    32
  0
VERTEX
  8
図枠
  5
4C2
 10
138.626
 20
-161.324
 30
0.000000
  70
    32
  0
VERTEX
  8
図枠
  5
4C3
 10
138.671
 20
-161.334
 30
0.000000
  70
    32
  0
VERTEX
  8
図枠
  5
4C4
 10
138.717
 20
-161.343
 30
0.000000
  70
    32
  0
VERTEX
  8
図枠
  5
4C5
 10
138.762
 20
-161.353
 30
0.000000
  70
    32
  0
VERTEX
  8
図枠
  5
4C6
 10
138.807
 20
-161.363
 30
0.000000
  70
    32
  0
VERTEX
  8
図枠
  5
4C7
 10
138.852
 20
-161.372
 30
0.000000
  70
    32
  0
VERTEX
  8
図枠
  5
4C8
 10
138.898
 20
-161.382
 30
0.000000
  70
    32
  0
VERTEX
  8
図枠
  5
4C9
 10
138.943
 20
-161.392
 30
0.000000
  70
    32
  0
VERTEX
  8
図枠
  5
4CA
 10
138.988
 20
-161.401
 30
0.000000
  70
    32
  0
VERTEX
  8
図枠
  5
4CB
 10
139.034
 20
-161.411
 30
0.000000
  70
    32
  0
VERTEX
  8
図枠
  5
4CC
 10
139.079
 20
-161.421
 30
0.000000
  70
    32
  0
VERTEX
  8
図枠
  5
4CD
 10
139.124
 20
-161.430
 30
0.000000
  70
    32
  0
VERTEX
  8
図枠
  5
4CE
 10
139.170
 20
-161.440
 30
0.000000
  70
    32
  0
VERTEX
  8
図枠
  5
4CF
 10
139.215
 20
-161.449
 30
0.000000
  70
    32
  0
VERTEX
  8
図枠
  5
4D0
 10
139.260
 20
-161.459
 30
0.000000
  70
    32
  0
VERTEX
  8
図枠
  5
4D1
 10
139.305
 20
-161.468
 30
0.000000
  70
    32
  0
VERTEX
  8
図枠
  5
4D2
 10
139.351
 20
-161.478
 30
0.000000
  70
    32
  0
VERTEX
  8
図枠
  5
4D3
 10
139.396
 20
-161.487
 30
0.000000
  70
    32
  0
VERTEX
  8
図枠
  5
4D4
 10
139.442
 20
-161.497
 30
0.000000
  70
    32
  0
VERTEX
  8
図枠
  5
4D5
 10
139.487
 20
-161.506
 30
0.000000
  70
    32
  0
VERTEX
  8
図枠
  5
4D6
 10
139.532
 20
-161.516
 30
0.000000
  70
    32
  0
VERTEX
  8
図枠
  5
4D7
 10
139.578
 20
-161.525
 30
0.000000
  70
    32
  0
VERTEX
  8
図枠
  5
4D8
 10
139.623
 20
-161.535
 30
0.000000
  70
    32
  0
VERTEX
  8
図枠
  5
4D9
 10
139.668
 20
-161.544
 30
0.000000
  70
    32
  0
VERTEX
  8
図枠
  5
4DA
 10
139.714
 20
-161.554
 30
0.000000
  70
    32
  0
VERTEX
  8
図枠
  5
4DB
 10
139.759
 20
-161.563
 30
0.000000
  70
    32
  0
VERTEX
  8
図枠
  5
4DC
 10
139.804
 20
-161.573
 30
0.000000
  70
    32
  0
VERTEX
  8
図枠
  5
4DD
 10
139.850
 20
-161.582
 30
0.000000
  70
    32
  0
VERTEX
  8
図枠
  5
4DE
 10
139.895
 20
-161.592
 30
0.000000
  70
    32
  0
VERTEX
  8
図枠
  5
4DF
 10
139.941
 20
-161.601
 30
0.000000
  70
    32
  0
VERTEX
  8
図枠
  5
4E0
 10
139.986
 20
-161.610
 30
0.000000
  70
    32
  0
VERTEX
  8
図枠
  5
4E1
 10
140.031
 20
-161.620
 30
0.000000
  70
    32
  0
VERTEX
  8
図枠
  5
4E2
 10
140.077
 20
-161.629
 30
0.000000
  70
    32
  0
VERTEX
  8
図枠
  5
4E3
 10
140.122
 20
-161.639
 30
0.000000
  70
    32
  0
VERTEX
  8
図枠
  5
4E4
 10
140.168
 20
-161.648
 30
0.000000
  70
    32
  0
SEQEND
  8
図枠
  5
4E5
  0
ARC
  5
117
  8
図枠
 10
129.76861455379989
 20
-152.84909229499999
 30
0.0
 40
8.7991200000000003
 50
322.48761197969998
 51
0.0
  0
LINE
  5
118
  8
図枠
 10
112.7133505538
 20
-159.24845229499999
 30
0.0
 11
107.9138305538
 21
-159.24845229499999
 31
0.0
  0
LINE
  5
119
  8
図枠
 10
165.5136672621
 20
-113.7092834143
 30
0.0
 11
165.5136672621
 21
-164.70418341429999
 31
0.0
  0
LINE
  5
11A
  8
図枠
 10
143.7151919938
 20
-153.16906029500001
 30
0.0
 11
143.7151919938
 21
-156.04877229499999
 31
0.0
  0
LINE
  5
11B
  8
図枠
 10
158.11375199380001
 20
-153.16906029500001
 30
0.0
 11
158.11375199380001
 21
-156.04877229499999
 31
0.0
  0
LINE
  5
11C
  8
図枠
 10
148.9328035138
 20
-157.328644295
 30
0.0
 11
148.55737439379999
 21
-156.04877229499999
 31
0.0
  0
LINE
  5
11D
  8
図枠
 10
148.17636278840001
 20
-119.90466381429999
 30
0.0
 11
148.17636278840001
 21
-124.5122030143
 31
0.0
  0
LINE
  5
11E
  8
図枠
 10
119.1127105538
 20
-153.64901229500001
 30
0.0
 11
119.1127105538
 21
-152.84909229499999
 31
0.0
  0
LINE
  5
11F
  8
図枠
 10
107.9138305538
 20
-156.04877229499999
 30
0.0
 11
107.6720886319
 21
-156.04877229499999
 31
0.0
  0
LINE
  5
120
  8
図枠
 10
132.16837455379999
 20
-154.16433718530001
 30
0.0
 11
131.26336838360001
 21
-155.06934335560001
 31
0.0
  0
ARC
  5
121
  8
図枠
 10
127.68882255379999
 20
-153.16906029500001
 30
0.0
 40
6.0793919999999986
 50
270.0
 51
298.08590481520002
  0
LINE
  5
122
  8
図枠
 10
89.521267262099997
 20
-122.2084334143
 30
0.0
 11
117.5184672621
 21
-122.2084334143
 31
0.0
  0
INSERT
  5
123
  8
0
  6
CONTINUOUS
  2
*U47
 10
0.0
 20
0.0
 30
0.0
  0
INSERT
  5
124
  8
0
  6
CONTINUOUS
  2
*U48
 10
0.0
 20
0.0
 30
0.0
  0
LINE
  5
125
  8
図枠
 10
105.5196672621
 20
-130.70758341429999
 30
0.0
 11
105.5196672621
 21
-147.70588341429999
 31
0.0
  0
LINE
  5
126
  8
図枠
  6
BORDER
 10
137.64445446209999
 20
-115.2971246143
 30
0.0
 11
137.64445446209999
 21
-129.1197422143
 31
0.0
  0
LINE
  5
127
  8
ﾚｲﾔ_1
  6
STITCH
 10
-167.0
 20
54.047125000000001
 30
0.0
 11
-162.5
 21
54.047125000000001
 31
0.0
  0
LINE
  5
128
  8
ﾚｲﾔ_1
  6
STITCH
 10
-162.5
 20
125.0
 30
0.0
 11
-167.0
 21
125.0
 31
0.0
  0
LINE
  5
129
  8
ﾚｲﾔ_1
  6
STITCH
 10
-162.5
 20
131.0
 30
0.0
 11
-167.0
 21
131.0
 31
0.0
  0
LINE
  5
12A
  8
ﾚｲﾔ_1
 62
     5
 10
-167.0
 20
153.0
 30
0.0
 11
-167.0
 21
103.0
 31
0.0
  0
LINE
  5
12B
  8
ﾚｲﾔ_1
 62
     5
 10
-162.5
 20
71.047124999999994
 30
0.0
 11
-167.0
 21
71.047124999999994
 31
0.0
  0
LINE
  5
12C
  8
ﾚｲﾔ_1
 62
     5
 10
-162.5
 20
153.0
 30
0.0
 11
-162.5
 21
103.0
 31
0.0
  0
LINE
  5
12D
  8
ﾚｲﾔ_1
 62
     5
 10
-20.0
 20
153.0
 30
0.0
 11
-167.0
 21
153.0
 31
0.0
  0
ARC
  5
12E
  8
ﾚｲﾔ_1
 62
     5
 10
-20.0
 20
150.0
 30
0.0
 40
3.0
 50
0.0
 51
90.0
  0
DIMENSION
  5
13D
  8
寸法線
  2
*D5
 10
-117.0
 20
169.69758072920001
 30
0.0
 11
-142.0
 21
169.69758072920001
 31
0.0
 70
   128
  1
<>
 13
-117.0
 23
132.5
 33
0.0
 14
-167.0
 24
153.0
 34
0.0
  0
DIMENSION
  5
14C
  8
寸法線
  2
*D6
 10
-77.0
 20
169.69758072920001
 30
0.0
 11
-97.0
 21
169.69758072920001
 31
0.0
 70
   128
  1
<>
 13
-77.0
 23
132.5
 33
0.0
 14
-117.0
 24
132.5
 34
0.0
  0
DIMENSION
  5
15B
  8
寸法線
  2
*D7
 10
-37.0
 20
169.69758072920001
 30
0.0
 11
-57.0
 21
169.69758072920001
 31
0.0
 70
   128
  1
<>
 13
-37.0
 23
132.5
 33
0.0
 14
-77.0
 24
132.5
 34
0.0
  0
DIMENSION
  5
16A
  8
寸法線
  2
*D8
 10
-17.0
 20
169.69758072920001
 30
0.0
 11
-27.0
 21
169.69758072920001
 31
0.0
 70
   128
  1
<>
 13
-17.0
 23
150.0
 33
0.0
 14
-37.0
 24
132.5
 34
0.0
  0
DIMENSION
  5
179
  8
寸法線
  2
*D9
 10
-204.0362304688
 20
153.0
 30
0.0
 11
-204.0362304688
 21
128.0
 31
0.0
 70
   128
  1
<>
 13
-167.0
 23
153.0
 33
0.0
 14
-167.0
 24
103.0
 34
0.0
 50
90.0
  0
DIMENSION
  5
188
  8
寸法線
  2
*D10
 10
-188.9053710938
 20
128.0
 30
0.0
 11
-188.9053710938
 21
115.5
 31
0.0
 70
   128
  1
<>
 13
-175.28759765629999
 23
128.0
 33
0.0
 14
-167.0
 24
103.0
 34
0.0
 50
90.0
  0
DIMENSION
  5
197
  8
寸法線
  2
*D11
 10
-188.9053710938
 20
153.0
 30
0.0
 11
-188.9053710938
 21
140.5
 31
0.0
 70
   128
  1
<>
 13
-167.0
 23
153.0
 33
0.0
 14
-175.28759765629999
 24
128.0
 34
0.0
 50
90.0
  0
ARC
  5
198
  8
図枠
 10
112.7133505538
 20
-156.84869229500001
 30
0.0
 40
2.3997599999999988
 50
270.0
 51
0.0
  0
LINE
  5
199
  8
図枠
 10
152.24388200920001
 20
-153.16906029500001
 30
0.0
 11
158.11375199380001
 21
-153.16906029500001
 31
0.0
  0
LINE
  5
19A
  8
図枠
 10
148.17636278840001
 20
-119.90466381429999
 30
0.0
 11
157.39144118839999
 21
-117.6008942143
 31
0.0
  0
INSERT
  5
19B
  8
0
  6
CONTINUOUS
  2
*U49
 10
0.0
 20
0.0
 30
0.0
  0
LINE
  5
19C
  8
図枠
 10
111.9134305538
 20
-152.84909229499999
 30
0.0
 11
114.3131905538
 21
-150.449332295
 31
0.0
  0
LINE
  5
19D
  8
図枠
 10
148.17636278840001
 20
-124.5122030143
 30
0.0
 11
157.39144118839999
 21
-126.81597261429999
 31
0.0
  0
LINE
  5
19E
  8
図枠
 10
157.39144118839999
 20
-117.6008942143
 30
0.0
 11
157.39144118839999
 21
-126.81597261429999
 31
0.0
  0
LINE
  5
19F
  8
図枠
 10
45.525667262100001
 20
-91.711483414300005
 30
0.0
 11
277.50246726210003
 21
-91.711483414300005
 31
0.0
  0
LINE
  5
1A0
  8
図枠
 10
138.56773455379999
 20
-152.84909229499999
 30
0.0
 11
140.16757455379999
 21
-150.449332295
 31
0.0
  0
LINE
  5
1A1
  8
図枠
 10
195.5106672620999
 20
-91.711483414300005
 30
0.0
 11
195.5106672620999
 21
-80.712583414299999
 31
0.0
  0
LINE
  5
1A2
  8
ﾚｲﾔ_1
  6
BORDER
 62
     3
 10
-117.0
 20
-88.220575821299974
 30
0.0
 11
-117.0
 21
-66.51117411189999
 31
0.0
  0
LINE
  5
1A3
  8
ﾚｲﾔ_1
  6
BORDER
 62
     3
 10
-77.0
 20
-88.220575821299974
 30
0.0
 11
-77.0
 21
-66.51117411189999
 31
0.0
  0
LINE
  5
1A4
  8
ﾚｲﾔ_1
  6
BORDER
 62
     3
 10
-37.0
 20
-88.220575821299974
 30
0.0
 11
-37.0
 21
-66.51117411189999
 31
0.0
  0
LINE
  5
1A5
  8
ﾚｲﾔ_1
  6
STITCH
 10
-34.0
 20
-78.952875000000006
 30
0.0
 11
-34.0
 21
-74.452875000000006
 31
0.0
  0
LINE
  5
1A6
  8
ﾚｲﾔ_1
  6
STITCH
 10
-40.0
 20
-78.952875000000006
 30
0.0
 11
-40.0
 21
-74.452875000000006
 31
0.0
  0
LINE
  5
1A7
  8
ﾚｲﾔ_1
  6
STITCH
 10
-80.0
 20
-78.952875000000006
 30
0.0
 11
-80.0
 21
-74.452875000000006
 31
0.0
  0
DIMENSION
  5
1B6
  8
寸法線
  2
*D12
 10
-167.0
 20
-98.95287500000002
 30
0.0
 11
-92.0
 21
-98.95287500000002
 31
0.0
 70
   128
  1
<>
 13
-167.0
 23
-73.452875000000006
 33
0.0
 14
-17.0
 24
-78.952875000000006
 34
0.0
 50
180.0
  0
LINE
  5
1B7
  8
ﾚｲﾔ_1
 62
     5
 10
-17.0
 20
106.0
 30
0.0
 11
-17.0
 21
150.0
 31
0.0
  0
LINE
  5
1B8
  8
ﾚｲﾔ_1
 62
     5
 10
-167.0
 20
103.0
 30
0.0
 11
-20.0
 21
103.0
 31
0.0
  0
ARC
  5
1B9
  8
ﾚｲﾔ_1
 62
     5
 10
-20.0
 20
106.0
 30
0.0
 40
3.0
 50
270.0
 51
0.0
  0
LINE
  5
1BA
  8
ﾚｲﾔ_1
  6
BORDER
 62
     3
 10
-41.5
 20
128.0
 30
0.0
 11
-32.5
 21
128.0
 31
0.0
  0
LINE
  5
1BB
  8
ﾚｲﾔ_1
  6
BORDER
 62
     3
 10
-37.0
 20
132.5
 30
0.0
 11
-37.0
 21
123.5
 31
0.0
  0
CIRCLE
  5
1BC
  8
ﾚｲﾔ_1
 62
     5
 10
-37.0
 20
128.0
 30
0.0
 40
3.0
  0
CIRCLE
  5
1BD
  8
ﾚｲﾔ_1
 62
     5
 10
-77.0
 20
128.0
 30
0.0
 40
3.0
  0
LINE
  5
1BE
  8
ﾚｲﾔ_1
  6
BORDER
 62
     3
 10
-77.0
 20
132.5
 30
0.0
 11
-77.0
 21
123.5
 31
0.0
  0
LINE
  5
1BF
  8
ﾚｲﾔ_1
  6
BORDER
 62
     3
 10
-81.5
 20
128.0
 30
0.0
 11
-72.5
 21
128.0
 31
0.0
  0
LINE
  5
1C0
  8
ﾚｲﾔ_1
  6
BORDER
 62
     3
 10
-121.5
 20
128.0
 30
0.0
 11
-112.5
 21
128.0
 31
0.0
  0
LINE
  5
1C1
  8
ﾚｲﾔ_1
  6
BORDER
 62
     3
 10
-117.0
 20
132.5
 30
0.0
 11
-117.0
 21
123.5
 31
0.0
  0
CIRCLE
  5
1C2
  8
ﾚｲﾔ_1
 62
     5
 10
-117.0
 20
128.0
 30
0.0
 40
3.0
  0
LINE
  5
1C3
  8
ﾚｲﾔ_1
  6
BORDER
 62
     3
 10
-155.1131184896
 20
128.0
 30
0.0
 11
-175.28759765629999
 21
128.0
 31
0.0
  0
LINE
  5
1C4
  8
ﾚｲﾔ_1
  6
BORDER
 62
     3
 10
-176.2677008213
 20
51.047125000000001
 30
0.0
 11
-154.5582991119
 21
51.047125000000001
 31
0.0
  0
LINE
  5
1C5
  8
ﾚｲﾔ_1
  6
BORDER
 62
     3
 10
-176.2677008213
 20
11.047124999999999
 30
0.0
 11
-154.5582991119
 21
11.047124999999999
 31
0.0
  0
LINE
  5
1C6
  8
ﾚｲﾔ_1
  6
STITCH
 10
-167.0
 20
14.047124999999999
 30
0.0
 11
-162.5
 21
14.047124999999999
 31
0.0
  0
LINE
  5
1C7
  8
ﾚｲﾔ_1
  6
STITCH
 10
-167.0
 20
8.0471249999999994
 30
0.0
 11
-162.5
 21
8.0471249999999994
 31
0.0
  0
LINE
  5
1C8
  8
ﾚｲﾔ_1
  6
STITCH
 10
-167.0
 20
48.047125000000001
 30
0.0
 11
-162.5
 21
48.047125000000001
 31
0.0
  0
DIMENSION
  5
1D7
  8
寸法線
  2
*D13
 10
3.0
 20
-78.952875000000006
 30
0.0
 11
3.0
 21
-59.073743405899997
 31
0.0
 70
   128
  1
<>t
 13
-17.0
 23
-78.952875000000006
 33
0.0
 14
-17.0
 24
-74.452875000000006
 34
0.0
 50
90.0
  0
DIMENSION
  5
1DF
  8
寸法線
  2
*D14
 10
-20.0
 20
106.0
 30
0.0
 11
-1.659521483799999
 21
87.752622985299993
 31
0.0
 70
   132
  1
4-R <>
 15
-17.878679656399999
 25
103.8786796564
 35
0.0
 40
0.0
  0
LINE
  5
1E0
  8
図枠
  6
DOT
 10
-284.44133273789998
 20
226.7566665857
 30
0.0
 11
289.50126726209999
 21
226.7566665857
 31
0.0
  0
LINE
  5
1E1
  8
図枠
 62
     5
 10
-272.44253273790002
 20
215.2578165857
 30
0.0
 11
277.50246726210003
 21
215.2578165857
 31
0.0
  0
LINE
  5
1E2
  8
図枠
  6
DOT
 10
-284.44133273789998
 20
-176.20303341429999
 30
0.0
 11
289.50126726209999
 21
-176.20303341429999
 31
0.0
  0
LINE
  5
1E3
  8
図枠
 62
     5
 10
-272.44253273790002
 20
-164.70418341429999
 30
0.0
 11
277.50246726210003
 21
-164.70418341429999
 31
0.0
  0
LINE
  5
1E4
  8
ﾚｲﾔ_1
 62
     5
 10
-167.0
 20
71.047124999999994
 30
0.0
 11
-167.0
 21
-73.452875000000006
 31
0.0
  0
LINE
  5
1E5
  8
ﾚｲﾔ_1
 62
     5
 10
-162.5
 20
71.047124999999994
 30
0.0
 11
-162.5
 21
-73.452875000000006
 31
0.0
  0
DIMENSION
  5
1F3
  8
寸法線
  2
*D50
 10
-106.9106479088162
 20
-42.358347606078183
 30
0.0
 11
-120.386205006
 21
-26.0105069142
 31
0.0
 70
   133
  1
<>
 13
-162.5
 23
71.047124999999994
 33
0.0
 14
-17.0
 24
-74.452875000000006
 34
0.0
 15
-162.5
 25
-74.452875000000006
 35
0.0
1001
ACAD
1000
DSTYLE
1002
{
1070
   271
1070
     0
1002
}
  0
DIMENSION
  5
202
  8
寸法線
  2
*D16
 10
-204.0362304688
 20
71.047124999999994
 30
0.0
 11
-204.0362304688
 21
-3.9528750000000001
 31
0.0
 70
   128
  1
<>
 13
-167.0
 23
71.047124999999994
 33
0.0
 14
-161.5
 24
-78.952875000000006
 34
0.0
 50
90.0
  0
LINE
  5
203
  8
図枠
 62
     5
 10
-272.44253273790002
 20
-164.70418341429999
 30
0.0
 11
-272.44253273790002
 21
215.2578165857
 31
0.0
  0
LINE
  5
204
  8
図枠
  6
DOT
 10
-284.43533333789998
 20
-176.20303341429999
 30
0.0
 11
-284.43533333789998
 21
226.7566665857
 31
0.0
  0
LINE
  5
205
  8
図枠
 62
     5
 10
277.50246726210003
 20
-164.70418341429999
 30
0.0
 11
277.50246726210003
 21
215.2578165857
 31
0.0
  0
LINE
  5
206
  8
図枠
  6
DOT
 10
289.50126726209999
 20
-176.20303341429999
 30
0.0
 11
289.50126726209999
 21
226.7566665857
 31
0.0
  0
LINE
  5
207
  8
ﾚｲﾔ_1
  6
STITCH
 10
-74.0
 20
-78.952875000000006
 30
0.0
 11
-74.0
 21
-74.452875000000006
 31
0.0
  0
LINE
  5
208
  8
ﾚｲﾔ_1
  6
STITCH
 10
-114.0
 20
-78.952875000000006
 30
0.0
 11
-114.0
 21
-74.452875000000006
 31
0.0
  0
LINE
  5
209
  8
ﾚｲﾔ_1
  6
STITCH
 10
-120.0
 20
-78.952875000000006
 30
0.0
 11
-120.0
 21
-74.452875000000006
 31
0.0
  0
LINE
  5
20A
  8
ﾚｲﾔ_1
  6
STITCH
 10
-167.0
 20
-31.952874999999999
 30
0.0
 11
-162.5
 21
-31.952874999999999
 31
0.0
  0
LINE
  5
20B
  8
ﾚｲﾔ_1
  6
STITCH
 10
-167.0
 20
-25.952874999999999
 30
0.0
 11
-162.5
 21
-25.952874999999999
 31
0.0
  0
LINE
  5
20C
  8
ﾚｲﾔ_1
 62
     5
 10
-161.5
 20
-78.952875000000006
 30
0.0
 11
-17.0
 21
-78.952875000000006
 31
0.0
  0
ARC
  5
20D
  8
ﾚｲﾔ_1
 62
     5
 10
-161.5
 20
-73.452875000000006
 30
0.0
 40
5.5
 50
180.0
 51
270.0
  0
LINE
  5
20E
  8
ﾚｲﾔ_1
 62
     5
 10
-161.5
 20
-74.452875000000006
 30
0.0
 11
-17.0
 21
-74.452875000000006
 31
0.0
  0
ARC
  5
20F
  8
ﾚｲﾔ_1
 62
     5
 10
-161.5
 20
-73.452875000000006
 30
0.0
 40
1.0
 50
180.0
 51
270.0
  0
LINE
  5
210
  8
ﾚｲﾔ_1
 62
     5
 10
-17.0
 20
-78.952875000000006
 30
0.0
 11
-17.0
 21
-74.452875000000006
 31
0.0
  0
LINE
  5
211
  8
ﾚｲﾔ_1
  6
BORDER
 62
     3
 10
-176.2677008213
 20
-28.952874999999999
 30
0.0
 11
-154.5582991119
 21
-28.952874999999999
 31
0.0
  0
ENDSEC
  0
EOF
