  0
SECTION
  2
HEADER
  9
$ACADVER
  1
AC1009
  9
$INSBASE
 10
0.0
 20
0.0
 30
0.0
  9
$EXTMIN
 10
-284.4426205291
 20
-176.20442235039999
 30
0.0
  9
$EXTMAX
 10
289.49997947089997
 20
226.7552776496
 30
0.0
  9
$LIMMIN
 10
0.0
 20
0.0
  9
$LIMMAX
 10
0.0
 20
0.0
  9
$ORTHOMODE
 70
     0
  9
$REGENMODE
 70
     1
  9
$FILLMODE
 70
     1
  9
$QTEXTMODE
 70
     0
  9
$MIRRTEXT
 70
     1
  9
$DRAGMODE
 70
     2
  9
$LTSCALE
 40
1.0
  9
$OSMODE
 70
    31
  9
$ATTMODE
 70
     1
  9
$TEXTSIZE
 40
0.0
  9
$TRACEWID
 40
0.05
  9
$TEXTSTYLE
  7
STANDARD
  9
$CLAYER
  8
0
  9
$CELTYPE
  6
CONTINUOUS
  9
$CECOLOR
 62
   256
  9
$DIMSCALE
 40
1.0
  9
$DIMASZ
 40
0.18
  9
$DIMEXO
 40
0.0625
  9
$DIMDLI
 40
0.38
  9
$DIMRND
 40
0.0
  9
$DIMDLE
 40
0.0
  9
$DIMEXE
 40
0.18
  9
$DIMTP
 40
0.0
  9
$DIMTM
 40
0.0
  9
$DIMTXT
 40
0.18
  9
$DIMCEN
 40
0.09
  9
$DIMTSZ
 40
0.0
  9
$DIMTOL
 70
     0
  9
$DIMLIM
 70
     0
  9
$DIMTIH
 70
     1
  9
$DIMTOH
 70
     1
  9
$DIMSE1
 70
     0
  9
$DIMSE2
 70
     0
  9
$DIMTAD
 70
     0
  9
$DIMZIN
 70
     0
  9
$DIMBLK
  1

  9
$DIMASO
 70
     1
  9
$DIMSHO
 70
     1
  9
$DIMPOST
  1

  9
$DIMAPOST
  1

  9
$DIMALT
 70
     0
  9
$DIMALTD
 70
     2
  9
$DIMALTF
 40
25.399999999999999
  9
$DIMLFAC
 40
1.0
  9
$DIMTOFL
 70
     0
  9
$DIMTVP
 40
0.0
  9
$DIMTIX
 70
     0
  9
$DIMSOXD
 70
     0
  9
$DIMSAH
 70
     0
  9
$DIMBLK1
  1

  9
$DIMBLK2
  1

  9
$DIMSTYLE
  2
STANDARD
  9
$DIMCLRD
 70
     0
  9
$DIMCLRE
 70
     0
  9
$DIMCLRT
 70
     0
  9
$DIMTFAC
 40
1.0
  9
$DIMGAP
 40
0.09
  9
$LUNITS
 70
     2
  9
$LUPREC
 70
     4
  9
$SKETCHINC
 40
0.1
  9
$FILLETRAD
 40
0.0
  9
$AUNITS
 70
     0
  9
$AUPREC
 70
     0
  9
$MENU
  1
acad
  9
$ELEVATION
 40
0.0
  9
$PELEVATION
 40
0.0
  9
$THICKNESS
 40
0.0
  9
$LIMCHECK
 70
     0
  9
$BLIPMODE
 70
     0
  9
$CHAMFERA
 40
0.0
  9
$CHAMFERB
 40
0.0
  9
$SKPOLY
 70
     0
  9
$TDCREATE
 40
2454863.5339346412
  9
$TDUPDATE
 40
2454863.5345173152
  9
$TDINDWG
 40
0.0005949769
  9
$TDUSRTIMER
 40
0.0005946181
  9
$USRTIMER
 70
     1
  9
$ANGBASE
 50
0.0
  9
$ANGDIR
 70
     0
  9
$PDMODE
 70
     3
  9
$PDSIZE
 40
-1.0
  9
$PLINEWID
 40
0.0
  9
$COORDS
 70
     2
  9
$SPLFRAME
 70
     0
  9
$SPLINETYPE
 70
     6
  9
$SPLINESEGS
 70
     8
  9
$ATTDIA
 70
     0
  9
$ATTREQ
 70
     1
  9
$HANDLING
 70
     1
  9
$HANDSEED
  5
602
  9
$SURFTAB1
 70
     6
  9
$SURFTAB2
 70
     6
  9
$SURFTYPE
 70
     6
  9
$SURFU
 70
     6
  9
$SURFV
 70
     6
  9
$UCSNAME
  2

  9
$UCSORG
 10
0.0
 20
0.0
 30
0.0
  9
$UCSXDIR
 10
1.0
 20
0.0
 30
0.0
  9
$UCSYDIR
 10
0.0
 20
1.0
 30
0.0
  9
$PUCSNAME
  2

  9
$PUCSORG
 10
0.0
 20
0.0
 30
0.0
  9
$PUCSXDIR
 10
1.0
 20
0.0
 30
0.0
  9
$PUCSYDIR
 10
0.0
 20
1.0
 30
0.0
  9
$USERI1
 70
     0
  9
$USERI2
 70
     0
  9
$USERI3
 70
     0
  9
$USERI4
 70
     0
  9
$USERI5
 70
     0
  9
$USERR1
 40
0.0
  9
$USERR2
 40
0.0
  9
$USERR3
 40
0.0
  9
$USERR4
 40
0.0
  9
$USERR5
 40
0.0
  9
$WORLDVIEW
 70
     1
  9
$SHADEDGE
 70
     3
  9
$SHADEDIF
 70
    70
  9
$TILEMODE
 70
     1
  9
$MAXACTVP
 70
    16
  9
$PLIMCHECK
 70
     0
  9
$PEXTMIN
 10
1.0000000000000000E+020
 20
1.0000000000000000E+020
 30
1.0000000000000000E+020
  9
$PEXTMAX
 10
-1.0000000000000000E+020
 20
-1.0000000000000000E+020
 30
-1.0000000000000000E+020
  9
$PLIMMIN
 10
0.0
 20
0.0
  9
$PLIMMAX
 10
12.0
 20
9.0
  9
$UNITMODE
 70
     0
  9
$VISRETAIN
 70
     0
  9
$PLINEGEN
 70
     1
  9
$PSLTSCALE
 70
     0
  0
ENDSEC
  0
SECTION
  2
TABLES
  0
TABLE
  2
VPORT
 70
     2
  0
VPORT
  2
*ACTIVE
 70
     0
 10
0.0
 20
0.0
 11
1.0
 21
1.0
 12
21.461320384260379
 22
-37.17798374167603
 13
0.0
 23
0.0
 14
1.0
 24
1.0
 15
0.0
 25
0.0
 16
0.0
 26
0.0
 36
1.0
 17
0.0
 27
0.0
 37
0.0
 40
308.50935709833828
 41
1.4164265129682989
 42
50.0
 43
0.0
 44
0.0
 50
0.0
 51
0.0
 71
     0
 72
   100
 73
     1
 74
     1
 75
     0
 76
     0
 77
     0
 78
     0
  0
ENDTAB
  0
TABLE
  2
LTYPE
 70
    11
  0
LTYPE
  2
CONTINUOUS
 70
     0
  3
Solid line
 72
    65
 73
     0
 40
0.0
  0
LTYPE
  2
DOT
 70
     0
  3
. . . . . . . . 
 72
    65
 73
     2
 40
1.0
 49
0.0
 49
-1.0
  0
LTYPE
  2
DASHED
 70
     0
  3
___  ___  ___  ___  
 72
    65
 73
     2
 40
4.0
 49
3.0
 49
-1.0
  0
LTYPE
  2
HIDDEN
 70
     0
  3
__ __ __ __ 
 72
    65
 73
     2
 40
3.0
 49
2.0
 49
-1.0
  0
LTYPE
  2
STITCH
 70
     0
  3
_ _ _ _ 
 72
    65
 73
     2
 40
2.0
 49
1.0
 49
-1.0
  0
LTYPE
  2
CENTER
 70
     0
  3
______  __  ______  __  
 72
    65
 73
     4
 40
43.0
 49
40.0
 49
-1.0
 49
1.0
 49
-1.0
  0
LTYPE
  2
DASHDOT
 70
     0
  3
____ . ____ . 
 72
    65
 73
     4
 40
32.0
 49
30.0
 49
-1.0
 49
0.0
 49
-1.0
  0
LTYPE
  2
BORDER
 70
     0
  3
__ . __ . 
 72
    65
 73
     4
 40
22.0
 49
20.0
 49
-1.0
 49
0.0
 49
-1.0
  0
LTYPE
  2
CUTTING
 70
     0
  3
________   ___   ___   
 72
    65
 73
     6
 40
45.0
 49
40.0
 49
-1.0
 49
1.0
 49
-1.0
 49
1.0
 49
-1.0
  0
LTYPE
  2
PHANTOM
 70
     0
  3
______  __  __  
 72
    65
 73
     6
 40
35.0
 49
30.0
 49
-1.0
 49
1.0
 49
-1.0
 49
1.0
 49
-1.0
  0
LTYPE
  2
DIVIDE
 70
     0
  3
____ . . ____ . . 
 72
    65
 73
     6
 40
23.0
 49
20.0
 49
-1.0
 49
0.0
 49
-1.0
 49
0.0
 49
-1.0
  0
ENDTAB
  0
TABLE
  2
LAYER
 70
     5
  0
LAYER
  2
0
 70
     0
 62
     7
  6
CONTINUOUS
  0
LAYER
  2
図枠
 70
     0
 62
     7
  6
CONTINUOUS
  0
LAYER
  2
ﾚｲﾔ_1
 70
     0
 62
     7
  6
CONTINUOUS
  0
LAYER
  2
寸法線
 70
     0
 62
     7
  6
CONTINUOUS
  0
LAYER
  2
DEFPOINTS
 70
     0
 62
     7
  6
CONTINUOUS
  0
ENDTAB
  0
TABLE
  2
STYLE
 70
     1
  0
STYLE
  2
STANDARD
 70
     0
 40
0.0
 41
1.0
 50
0.0
 71
     0
 42
0.0
  3
txt
  4
extfont
  0
ENDTAB
  0
TABLE
  2
VIEW
 70
     0
  0
ENDTAB
  0
TABLE
  2
UCS
 70
     0
  0
ENDTAB
  0
TABLE
  2
APPID
 70
     2
  0
APPID
  2
ACAD
 70
     0
  0
APPID
  2
DCO15
 70
     0
  0
ENDTAB
  0
TABLE
  2
DIMSTYLE
 70
     5
  0
DIMSTYLE
  2
STANDARD
 70
     0
  3

  4

  5

  6

  7

 40
1.0
 41
0.18
 42
0.0625
 43
0.38
 44
0.18
 45
0.0
 46
0.0
 47
0.0
 48
0.0
140
0.18
141
0.09
142
0.0
143
25.399999999999999
144
1.0
145
0.0
146
1.0
147
0.09
 71
     0
 72
     0
 73
     1
 74
     1
 75
     0
 76
     0
 77
     0
 78
     0
170
     0
171
     2
172
     0
173
     0
174
     0
175
     0
176
     0
177
     0
178
     0
  0
DIMSTYLE
  2
VELDIM0
 70
     0
  3

  4

  5

  6

  7

 40
1.0
 41
6.0
 42
0.0625
 43
0.38
 44
1.0
 45
0.0
 46
5.0
 47
0.0
 48
0.0
140
5.9972220420999998
141
0.09
142
0.0
143
25.399999999999999
144
1.0
145
0.0
146
1.0
147
0.09
 71
     0
 72
     0
 73
     0
 74
     0
 75
     0
 76
     0
 77
     0
 78
     8
170
     0
171
     2
172
     0
173
     0
174
     0
175
     0
176
     0
177
     0
178
     0
  0
DIMSTYLE
  2
VELDIM1
 70
     0
  3

  4

  5

  6

  7

 40
1.0
 41
1.200000047699999
 42
0.0625
 43
0.38
 44
1.25
 45
0.0
 46
5.0
 47
0.0
 48
0.0
140
1.079499983799999
141
0.09
142
0.0
143
25.399999999999999
144
1.0
145
0.0
146
1.0
147
0.09
 71
     0
 72
     0
 73
     0
 74
     0
 75
     0
 76
     0
 77
     0
 78
     8
170
     0
171
     2
172
     0
173
     0
174
     0
175
     0
176
     0
177
     0
178
     0
  0
DIMSTYLE
  2
VELDIM2
 70
     0
  3

  4

  5

  6

  7

 40
1.0
 41
1.200000047699999
 42
0.0625
 43
0.38
 44
0.8000000119
 45
0.0
 46
2.0
 47
0.0
 48
0.0
140
1.079499983799999
141
0.09
142
0.0
143
25.399999999999999
144
1.0
145
0.0
146
1.0
147
0.09
 71
     0
 72
     0
 73
     0
 74
     0
 75
     0
 76
     0
 77
     0
 78
     8
170
     0
171
     2
172
     0
173
     0
174
     0
175
     0
176
     0
177
     0
178
     0
  0
DIMSTYLE
  2
VELDIM3
 70
     0
  3

  4

  5

  6

  7

 40
1.0
 41
6.0
 42
0.0625
 43
0.38
 44
1.25
 45
0.0
 46
5.0
 47
0.0
 48
0.0
140
5.9972220420999998
141
0.09
142
0.0
143
25.399999999999999
144
1.0
145
0.0
146
1.0
147
0.09
 71
     0
 72
     0
 73
     0
 74
     0
 75
     0
 76
     0
 77
     0
 78
     8
170
     0
171
     2
172
     0
173
     0
174
     0
175
     0
176
     0
177
     0
178
     0
  0
ENDTAB
  0
ENDSEC
  0
SECTION
  2
BLOCKS
  0
BLOCK
  8
0
  2
$MODEL_SPACE
 70
     0
 10
0.0
 20
0.0
 30
0.0
  3
$MODEL_SPACE
  1

  0
ENDBLK
  5
E
  8
0
  0
BLOCK
 67
     1
  8
0
  2
$PAPER_SPACE
 70
     0
 10
0.0
 20
0.0
 30
0.0
  3
$PAPER_SPACE
  1

  0
ENDBLK
  5
10
 67
     1
  8
0
  0
BLOCK
  8
0
  2
*D0
 70
     1
 10
0.0
 20
0.0
 30
0.0
  3
*D0
  1

  0
TEXT
  5
49
  8
0
 62
     0
 10
84.07183170319999
 20
83.831575488999988
 30
0.0
 40
5.9972220420999998
  1
22
  0
LINE
  5
4A
  8
0
 62
     0
 10
76.599609375
 20
113.7732421875
 30
0.0
 11
76.599609375
 21
80.773242187500003
 31
0.0
  0
LINE
  5
4B
  8
0
 62
     0
 10
98.599609375
 20
113.7732421875
 30
0.0
 11
98.599609375
 21
80.773242187500003
 31
0.0
  0
LINE
  5
4C
  8
0
 62
     0
 10
76.599609375
 20
81.773242187499989
 30
0.0
 11
94.655164718600005
 21
81.773242187499989
 31
0.0
  0
LINE
  5
4D
  8
0
 62
     0
 10
76.599609375
 20
81.773242187499989
 30
0.0
 11
80.544054031399995
 21
81.773242187499989
 31
0.0
  0
LINE
  5
4E
  8
0
 62
     0
 10
98.599609375
 20
81.773242187499989
 30
0.0
 11
94.655164718600005
 21
81.773242187499989
 31
0.0
  0
LINE
  5
4F
  8
0
 62
     0
 10
98.599609375
 20
81.773242187499989
 30
0.0
 11
80.544054031399995
 21
81.773242187499989
 31
0.0
  0
LINE
  5
50
  8
0
 62
     0
 10
98.599609375
 20
81.773242187499989
 30
0.0
 11
103.599609375
 21
81.773242187499989
 31
0.0
  0
SOLID
  5
51
  8
0
 62
     0
 10
98.599609375
 20
81.773242187499989
 30
0.0
 11
104.599609375
 21
83.273242187500003
 31
0.0
 12
104.599609375
 22
80.273242187500017
 32
0.0
 13
103.099609375
 23
81.773242187499989
 33
0.0
  0
LINE
  5
52
  8
0
 62
     0
 10
76.599609375
 20
81.773242187499989
 30
0.0
 11
71.599609375
 21
81.773242187499989
 31
0.0
  0
SOLID
  5
53
  8
0
 62
     0
 10
76.599609375
 20
81.773242187499989
 30
0.0
 11
70.599609375
 21
80.273242187500017
 31
0.0
 12
70.599609375
 22
83.273242187500003
 32
0.0
 13
72.099609375
 23
81.773242187499989
 33
0.0
  0
ENDBLK
  5
54
  8
0
  0
BLOCK
  8
0
  2
*D1
 70
     1
 10
0.0
 20
0.0
 30
0.0
  3
*D1
  1

  0
TEXT
  5
59
  8
0
 62
     0
 10
106.0718317032
 20
83.831575488999988
 30
0.0
 40
5.9972220420999998
  1
22
  0
LINE
  5
5A
  8
0
 62
     0
 10
98.599609375
 20
113.7732421875
 30
0.0
 11
98.599609375
 21
80.773242187500003
 31
0.0
  0
LINE
  5
5B
  8
0
 62
     0
 10
120.599609375
 20
113.7732421875
 30
0.0
 11
120.599609375
 21
80.773242187500003
 31
0.0
  0
LINE
  5
5C
  8
0
 62
     0
 10
98.599609375
 20
81.773242187499989
 30
0.0
 11
116.65516471860001
 21
81.773242187499989
 31
0.0
  0
LINE
  5
5D
  8
0
 62
     0
 10
98.599609375
 20
81.773242187499989
 30
0.0
 11
102.54405403139999
 21
81.773242187499989
 31
0.0
  0
LINE
  5
5E
  8
0
 62
     0
 10
120.599609375
 20
81.773242187499989
 30
0.0
 11
116.65516471860001
 21
81.773242187499989
 31
0.0
  0
LINE
  5
5F
  8
0
 62
     0
 10
120.599609375
 20
81.773242187499989
 30
0.0
 11
102.54405403139999
 21
81.773242187499989
 31
0.0
  0
LINE
  5
60
  8
0
 62
     0
 10
120.599609375
 20
81.773242187499989
 30
0.0
 11
125.599609375
 21
81.773242187499989
 31
0.0
  0
SOLID
  5
61
  8
0
 62
     0
 10
120.599609375
 20
81.773242187499989
 30
0.0
 11
126.599609375
 21
83.273242187500003
 31
0.0
 12
126.599609375
 22
80.273242187500017
 32
0.0
 13
125.099609375
 23
81.773242187499989
 33
0.0
  0
LINE
  5
62
  8
0
 62
     0
 10
98.599609375
 20
81.773242187499989
 30
0.0
 11
93.599609375
 21
81.773242187499989
 31
0.0
  0
SOLID
  5
63
  8
0
 62
     0
 10
98.599609375
 20
81.773242187499989
 30
0.0
 11
92.599609375
 21
80.273242187500017
 31
0.0
 12
92.599609375
 22
83.273242187500003
 32
0.0
 13
94.099609375000014
 23
81.773242187499989
 33
0.0
  0
ENDBLK
  5
64
  8
0
  0
BLOCK
  8
0
  2
*D2
 70
     1
 10
0.0
 20
0.0
 30
0.0
  3
*D2
  1

  0
TEXT
  5
68
  8
0
 62
     0
 10
131.07183170319999
 20
83.831575488999988
 30
0.0
 40
5.9972220420999998
  1
28
  0
LINE
  5
69
  8
0
 62
     0
 10
120.599609375
 20
113.7732421875
 30
0.0
 11
120.599609375
 21
80.773242187500003
 31
0.0
  0
LINE
  5
6A
  8
0
 62
     0
 10
148.599609375
 20
99.773242187500003
 30
0.0
 11
148.599609375
 21
80.773242187500003
 31
0.0
  0
LINE
  5
6B
  8
0
 62
     0
 10
120.599609375
 20
81.773242187499989
 30
0.0
 11
141.65516471859999
 21
81.773242187499989
 31
0.0
  0
LINE
  5
6C
  8
0
 62
     0
 10
120.599609375
 20
81.773242187499989
 30
0.0
 11
127.54405403139999
 21
81.773242187499989
 31
0.0
  0
LINE
  5
6D
  8
0
 62
     0
 10
148.599609375
 20
81.773242187499989
 30
0.0
 11
141.65516471859999
 21
81.773242187499989
 31
0.0
  0
LINE
  5
6E
  8
0
 62
     0
 10
148.599609375
 20
81.773242187499989
 30
0.0
 11
127.54405403139999
 21
81.773242187499989
 31
0.0
  0
LINE
  5
6F
  8
0
 62
     0
 10
148.599609375
 20
81.773242187499989
 30
0.0
 11
143.599609375
 21
81.773242187499989
 31
0.0
  0
SOLID
  5
70
  8
0
 62
     0
 10
148.599609375
 20
81.773242187499989
 30
0.0
 11
142.599609375
 21
80.273242187500017
 31
0.0
 12
142.599609375
 22
83.273242187500003
 32
0.0
 13
144.099609375
 23
81.773242187499989
 33
0.0
  0
LINE
  5
71
  8
0
 62
     0
 10
120.599609375
 20
81.773242187499989
 30
0.0
 11
125.599609375
 21
81.773242187499989
 31
0.0
  0
SOLID
  5
72
  8
0
 62
     0
 10
120.599609375
 20
81.773242187499989
 30
0.0
 11
126.599609375
 21
83.273242187500003
 31
0.0
 12
126.599609375
 22
80.273242187500017
 32
0.0
 13
125.099609375
 23
81.773242187499989
 33
0.0
  0
ENDBLK
  5
73
  8
0
  0
BLOCK
  8
0
  2
*D3
 70
     1
 10
0.0
 20
0.0
 30
0.0
  3
*D3
  1

  0
TEXT
  5
77
  8
0
 62
     0
 10
36.541276073500001
 20
126.74546451569999
 30
0.0
 40
5.9972220420999998
  1
19
 50
90.0
  0
LINE
  5
78
  8
0
 62
     0
 10
56.599609375
 20
139.77324218749999
 30
0.0
 11
37.599609375
 21
139.77324218749999
 31
0.0
  0
LINE
  5
79
  8
0
 62
     0
 10
69.599609375
 20
120.7732421875
 30
0.0
 11
37.599609375
 21
120.7732421875
 31
0.0
  0
LINE
  5
7A
  8
0
 62
     0
 10
38.599609375
 20
139.77324218749999
 30
0.0
 11
38.599609375
 21
137.32879753110001
 31
0.0
  0
LINE
  5
7B
  8
0
 62
     0
 10
38.599609375
 20
139.77324218749999
 30
0.0
 11
38.599609375
 21
123.2176868439
 31
0.0
  0
LINE
  5
7C
  8
0
 62
     0
 10
38.599609375
 20
120.7732421875
 30
0.0
 11
38.599609375
 21
137.32879753110001
 31
0.0
  0
LINE
  5
7D
  8
0
 62
     0
 10
38.599609375
 20
120.7732421875
 30
0.0
 11
38.599609375
 21
123.2176868439
 31
0.0
  0
LINE
  5
7E
  8
0
 62
     0
 10
38.599609375
 20
120.7732421875
 30
0.0
 11
38.599609375
 21
115.7732421875
 31
0.0
  0
SOLID
  5
7F
  8
0
 62
     0
 10
38.599609375
 20
120.7732421875
 30
0.0
 11
40.099609374999993
 21
114.7732421875
 31
0.0
 12
37.099609375
 22
114.7732421875
 32
0.0
 13
38.599609375
 23
116.2732421875
 33
0.0
  0
LINE
  5
80
  8
0
 62
     0
 10
38.599609375
 20
139.77324218749999
 30
0.0
 11
38.599609375
 21
144.77324218749999
 31
0.0
  0
SOLID
  5
81
  8
0
 62
     0
 10
38.599609375
 20
139.77324218749999
 30
0.0
 11
37.099609375
 21
145.77324218749999
 31
0.0
 12
40.099609374999993
 22
145.77324218749999
 32
0.0
 13
38.599609375
 23
144.27324218749999
 33
0.0
  0
ENDBLK
  5
82
  8
0
  0
BLOCK
  8
0
  2
*D4
 70
     1
 10
0.0
 20
0.0
 30
0.0
  3
*D4
  1

  0
TEXT
  5
86
  8
0
 62
     0
 10
36.541276073500001
 20
107.74546451569999
 30
0.0
 40
5.9972220420999998
  1
19
 50
90.0
  0
LINE
  5
87
  8
0
 62
     0
 10
69.599609375
 20
120.7732421875
 30
0.0
 11
37.599609375
 21
120.7732421875
 31
0.0
  0
LINE
  5
88
  8
0
 62
     0
 10
56.599609375
 20
101.7732421875
 30
0.0
 11
37.599609375
 21
101.7732421875
 31
0.0
  0
LINE
  5
89
  8
0
 62
     0
 10
38.599609375
 20
120.7732421875
 30
0.0
 11
38.599609375
 21
118.32879753109999
 31
0.0
  0
LINE
  5
8A
  8
0
 62
     0
 10
38.599609375
 20
120.7732421875
 30
0.0
 11
38.599609375
 21
104.2176868439
 31
0.0
  0
LINE
  5
8B
  8
0
 62
     0
 10
38.599609375
 20
101.7732421875
 30
0.0
 11
38.599609375
 21
118.32879753109999
 31
0.0
  0
LINE
  5
8C
  8
0
 62
     0
 10
38.599609375
 20
101.7732421875
 30
0.0
 11
38.599609375
 21
104.2176868439
 31
0.0
  0
LINE
  5
8D
  8
0
 62
     0
 10
38.599609375
 20
101.7732421875
 30
0.0
 11
38.599609375
 21
96.773242187500017
 31
0.0
  0
SOLID
  5
8E
  8
0
 62
     0
 10
38.599609375
 20
101.7732421875
 30
0.0
 11
40.099609374999993
 21
95.773242187500003
 31
0.0
 12
37.099609375
 22
95.773242187500003
 32
0.0
 13
38.599609375
 23
97.273242187500003
 33
0.0
  0
LINE
  5
8F
  8
0
 62
     0
 10
38.599609375
 20
120.7732421875
 30
0.0
 11
38.599609375
 21
125.7732421875
 31
0.0
  0
SOLID
  5
90
  8
0
 62
     0
 10
38.599609375
 20
120.7732421875
 30
0.0
 11
37.099609375
 21
126.7732421875
 31
0.0
 12
40.099609374999993
 22
126.7732421875
 32
0.0
 13
38.599609375
 23
125.2732421875
 33
0.0
  0
ENDBLK
  5
91
  8
0
  0
BLOCK
  8
0
  2
*D5
 70
     1
 10
0.0
 20
0.0
 30
0.0
  3
*D5
  1

  0
TEXT
  5
95
  8
0
 62
     0
 10
64.07183170319999
 20
83.831575488999988
 30
0.0
 40
5.9972220420999998
  1
18
  0
LINE
  5
96
  8
0
 62
     0
 10
58.599609375
 20
99.773242187500003
 30
0.0
 11
58.599609375
 21
80.773242187500003
 31
0.0
  0
LINE
  5
97
  8
0
 62
     0
 10
76.599609375
 20
113.7732421875
 30
0.0
 11
76.599609375
 21
80.773242187500003
 31
0.0
  0
LINE
  5
98
  8
0
 62
     0
 10
58.599609375
 20
81.773242187499989
 30
0.0
 11
74.655164718599991
 21
81.773242187499989
 31
0.0
  0
LINE
  5
99
  8
0
 62
     0
 10
58.599609375
 20
81.773242187499989
 30
0.0
 11
60.544054031400002
 21
81.773242187499989
 31
0.0
  0
LINE
  5
9A
  8
0
 62
     0
 10
76.599609375
 20
81.773242187499989
 30
0.0
 11
74.655164718599991
 21
81.773242187499989
 31
0.0
  0
LINE
  5
9B
  8
0
 62
     0
 10
76.599609375
 20
81.773242187499989
 30
0.0
 11
60.544054031400002
 21
81.773242187499989
 31
0.0
  0
LINE
  5
9C
  8
0
 62
     0
 10
76.599609375
 20
81.773242187499989
 30
0.0
 11
81.599609375000014
 21
81.773242187499989
 31
0.0
  0
SOLID
  5
9D
  8
0
 62
     0
 10
76.599609375
 20
81.773242187499989
 30
0.0
 11
82.599609375
 21
83.273242187500003
 31
0.0
 12
82.599609375
 22
80.273242187500017
 32
0.0
 13
81.099609375
 23
81.773242187499989
 33
0.0
  0
LINE
  5
9E
  8
0
 62
     0
 10
58.599609375
 20
81.773242187499989
 30
0.0
 11
53.599609375
 21
81.773242187499989
 31
0.0
  0
SOLID
  5
9F
  8
0
 62
     0
 10
58.599609375
 20
81.773242187499989
 30
0.0
 11
52.599609375
 21
80.273242187500017
 31
0.0
 12
52.599609375
 22
83.273242187500003
 32
0.0
 13
54.099609375
 23
81.773242187499989
 33
0.0
  0
ENDBLK
  5
A0
  8
0
  0
BLOCK
  8
0
  2
*D6
 70
     1
 10
0.0
 20
0.0
 30
0.0
  3
*D6
  1

  0
TEXT
  5
148
  8
0
 62
     0
 10
-64.188715171799998
 20
83.831575488999988
 30
0.0
 40
5.9972220420999998
  1
18
  0
LINE
  5
149
  8
0
 62
     0
 10
-69.660937500000003
 20
113.7732421875
 30
0.0
 11
-69.660937500000003
 21
80.773242187500003
 31
0.0
  0
LINE
  5
14A
  8
0
 62
     0
 10
-51.660937500000003
 20
99.773242187500003
 30
0.0
 11
-51.660937500000003
 21
80.773242187500003
 31
0.0
  0
LINE
  5
14B
  8
0
 62
     0
 10
-69.660937500000003
 20
81.773242187499989
 30
0.0
 11
-53.605382156399997
 21
81.773242187499989
 31
0.0
  0
LINE
  5
14C
  8
0
 62
     0
 10
-69.660937500000003
 20
81.773242187499989
 30
0.0
 11
-67.716492843599994
 21
81.773242187499989
 31
0.0
  0
LINE
  5
14D
  8
0
 62
     0
 10
-51.660937500000003
 20
81.773242187499989
 30
0.0
 11
-53.605382156399997
 21
81.773242187499989
 31
0.0
  0
LINE
  5
14E
  8
0
 62
     0
 10
-51.660937500000003
 20
81.773242187499989
 30
0.0
 11
-67.716492843599994
 21
81.773242187499989
 31
0.0
  0
LINE
  5
14F
  8
0
 62
     0
 10
-51.660937500000003
 20
81.773242187499989
 30
0.0
 11
-46.660937500000003
 21
81.773242187499989
 31
0.0
  0
SOLID
  5
150
  8
0
 62
     0
 10
-51.660937500000003
 20
81.773242187499989
 30
0.0
 11
-45.660937500000003
 21
83.273242187500003
 31
0.0
 12
-45.660937500000003
 22
80.273242187500017
 32
0.0
 13
-47.160937500000003
 23
81.773242187499989
 33
0.0
  0
LINE
  5
151
  8
0
 62
     0
 10
-69.660937500000003
 20
81.773242187499989
 30
0.0
 11
-74.660937500000003
 21
81.773242187499989
 31
0.0
  0
SOLID
  5
152
  8
0
 62
     0
 10
-69.660937500000003
 20
81.773242187499989
 30
0.0
 11
-75.660937500000003
 21
80.273242187500017
 31
0.0
 12
-75.660937500000003
 22
83.273242187500003
 32
0.0
 13
-74.160937500000003
 23
81.773242187499989
 33
0.0
  0
ENDBLK
  5
153
  8
0
  0
BLOCK
  8
0
  2
*D7
 70
     1
 10
0.0
 20
0.0
 30
0.0
  3
*D7
  1

  0
TEXT
  5
157
  8
0
 62
     0
 10
-167.106148456
 20
126.74546451569999
 30
0.0
 40
5.9972220420999998
  1
19
 50
90.0
  0
LINE
  5
158
  8
0
 62
     0
 10
-143.66093749999999
 20
139.77324218749999
 30
0.0
 11
-166.04781515440001
 21
139.77324218749999
 31
0.0
  0
LINE
  5
159
  8
0
 62
     0
 10
-147.04781515440001
 20
120.7732421875
 30
0.0
 11
-166.04781515440001
 21
120.7732421875
 31
0.0
  0
LINE
  5
15A
  8
0
 62
     0
 10
-165.04781515440001
 20
139.77324218749999
 30
0.0
 11
-165.04781515440001
 21
137.32879753110001
 31
0.0
  0
LINE
  5
15B
  8
0
 62
     0
 10
-165.04781515440001
 20
139.77324218749999
 30
0.0
 11
-165.04781515440001
 21
123.2176868439
 31
0.0
  0
LINE
  5
15C
  8
0
 62
     0
 10
-165.04781515440001
 20
120.7732421875
 30
0.0
 11
-165.04781515440001
 21
137.32879753110001
 31
0.0
  0
LINE
  5
15D
  8
0
 62
     0
 10
-165.04781515440001
 20
120.7732421875
 30
0.0
 11
-165.04781515440001
 21
123.2176868439
 31
0.0
  0
LINE
  5
15E
  8
0
 62
     0
 10
-165.04781515440001
 20
120.7732421875
 30
0.0
 11
-165.04781515440001
 21
115.7732421875
 31
0.0
  0
SOLID
  5
15F
  8
0
 62
     0
 10
-165.04781515440001
 20
120.7732421875
 30
0.0
 11
-163.54781515440001
 21
114.7732421875
 31
0.0
 12
-166.54781515440001
 22
114.7732421875
 32
0.0
 13
-165.04781515440001
 23
116.2732421875
 33
0.0
  0
LINE
  5
160
  8
0
 62
     0
 10
-165.04781515440001
 20
139.77324218749999
 30
0.0
 11
-165.04781515440001
 21
144.77324218749999
 31
0.0
  0
SOLID
  5
161
  8
0
 62
     0
 10
-165.04781515440001
 20
139.77324218749999
 30
0.0
 11
-166.54781515440001
 21
145.77324218749999
 31
0.0
 12
-163.54781515440001
 22
145.77324218749999
 32
0.0
 13
-165.04781515440001
 23
144.27324218749999
 33
0.0
  0
ENDBLK
  5
162
  8
0
  0
BLOCK
  8
0
  2
*D8
 70
     1
 10
0.0
 20
0.0
 30
0.0
  3
*D8
  1

  0
TEXT
  5
166
  8
0
 62
     0
 10
-137.15808551399999
 20
45.620326398899998
 30
0.0
 40
5.9972220420999998
  1
3.2t
  0
LINE
  5
167
  8
0
 62
     0
 10
-138.4609375
 20
31.004101562500001
 30
0.0
 11
-138.4609375
 21
44.561993097399991
 31
0.0
  0
LINE
  5
168
  8
0
 62
     0
 10
-141.66093749999999
 20
31.004101562500001
 30
0.0
 11
-141.66093749999999
 21
44.561993097399991
 31
0.0
  0
LINE
  5
169
  8
0
 62
     0
 10
-138.4609375
 20
43.561993097399998
 30
0.0
 11
-119.5191971549
 21
43.561993097399998
 31
0.0
  0
LINE
  5
16A
  8
0
 62
     0
 10
-138.4609375
 20
43.561993097399998
 30
0.0
 11
-140.6858631858
 21
43.561993097399998
 31
0.0
  0
LINE
  5
16B
  8
0
 62
     0
 10
-141.66093749999999
 20
43.561993097399998
 30
0.0
 11
-119.5191971549
 21
43.561993097399998
 31
0.0
  0
LINE
  5
16C
  8
0
 62
     0
 10
-141.66093749999999
 20
43.561993097399998
 30
0.0
 11
-140.6858631858
 21
43.561993097399998
 31
0.0
  0
LINE
  5
16D
  8
0
 62
     0
 10
-141.66093749999999
 20
43.561993097399998
 30
0.0
 11
-146.66093749999999
 21
43.561993097399998
 31
0.0
  0
SOLID
  5
16E
  8
0
 62
     0
 10
-141.66093749999999
 20
43.561993097399998
 30
0.0
 11
-147.66093749999999
 21
42.061993097399991
 31
0.0
 12
-147.66093749999999
 22
45.061993097399998
 32
0.0
 13
-146.16093749999999
 23
43.561993097399998
 33
0.0
  0
LINE
  5
16F
  8
0
 62
     0
 10
-138.4609375
 20
43.561993097399998
 30
0.0
 11
-133.4609375
 21
43.561993097399998
 31
0.0
  0
SOLID
  5
170
  8
0
 62
     0
 10
-138.4609375
 20
43.561993097399998
 30
0.0
 11
-132.4609375
 21
45.061993097399998
 31
0.0
 12
-132.4609375
 22
42.061993097399991
 32
0.0
 13
-133.9609375
 23
43.561993097399998
 33
0.0
  0
ENDBLK
  5
171
  8
0
  0
BLOCK
  8
0
  2
*D9
 70
     1
 10
0.0
 20
0.0
 30
0.0
  3
*D9
  1

  0
TEXT
  5
175
  8
0
 62
     0
 10
-167.106148456
 20
107.74546451569999
 30
0.0
 40
5.9972220420999998
  1
19
 50
90.0
  0
LINE
  5
176
  8
0
 62
     0
 10
-147.04781515440001
 20
120.7732421875
 30
0.0
 11
-166.04781515440001
 21
120.7732421875
 31
0.0
  0
LINE
  5
177
  8
0
 62
     0
 10
-143.66093749999999
 20
101.7732421875
 30
0.0
 11
-166.04781515440001
 21
101.7732421875
 31
0.0
  0
LINE
  5
178
  8
0
 62
     0
 10
-165.04781515440001
 20
120.7732421875
 30
0.0
 11
-165.04781515440001
 21
118.32879753109999
 31
0.0
  0
LINE
  5
179
  8
0
 62
     0
 10
-165.04781515440001
 20
120.7732421875
 30
0.0
 11
-165.04781515440001
 21
104.2176868439
 31
0.0
  0
LINE
  5
17A
  8
0
 62
     0
 10
-165.04781515440001
 20
101.7732421875
 30
0.0
 11
-165.04781515440001
 21
118.32879753109999
 31
0.0
  0
LINE
  5
17B
  8
0
 62
     0
 10
-165.04781515440001
 20
101.7732421875
 30
0.0
 11
-165.04781515440001
 21
104.2176868439
 31
0.0
  0
LINE
  5
17C
  8
0
 62
     0
 10
-165.04781515440001
 20
101.7732421875
 30
0.0
 11
-165.04781515440001
 21
96.773242187500017
 31
0.0
  0
SOLID
  5
17D
  8
0
 62
     0
 10
-165.04781515440001
 20
101.7732421875
 30
0.0
 11
-163.54781515440001
 21
95.773242187500003
 31
0.0
 12
-166.54781515440001
 22
95.773242187500003
 32
0.0
 13
-165.04781515440001
 23
97.273242187500003
 33
0.0
  0
LINE
  5
17E
  8
0
 62
     0
 10
-165.04781515440001
 20
120.7732421875
 30
0.0
 11
-165.04781515440001
 21
125.7732421875
 31
0.0
  0
SOLID
  5
17F
  8
0
 62
     0
 10
-165.04781515440001
 20
120.7732421875
 30
0.0
 11
-166.54781515440001
 21
126.7732421875
 31
0.0
 12
-163.54781515440001
 22
126.7732421875
 32
0.0
 13
-165.04781515440001
 23
125.2732421875
 33
0.0
  0
ENDBLK
  5
180
  8
0
  0
BLOCK
  8
0
  2
*D10
 70
     1
 10
0.0
 20
0.0
 30
0.0
  3
*D10
  1

  0
TEXT
  5
184
  8
0
 62
     0
 10
-181.94720048900001
 20
117.24546451569999
 30
0.0
 40
5.9972220420999998
  1
38
 50
90.0
  0
LINE
  5
185
  8
0
 62
     0
 10
-143.66093749999999
 20
139.77324218749999
 30
0.0
 11
-180.88886718750001
 21
139.77324218749999
 31
0.0
  0
LINE
  5
186
  8
0
 62
     0
 10
-143.66093749999999
 20
101.7732421875
 30
0.0
 11
-180.88886718750001
 21
101.7732421875
 31
0.0
  0
LINE
  5
187
  8
0
 62
     0
 10
-179.88886718750001
 20
139.77324218749999
 30
0.0
 11
-179.88886718750001
 21
127.82879753109999
 31
0.0
  0
LINE
  5
188
  8
0
 62
     0
 10
-179.88886718750001
 20
139.77324218749999
 30
0.0
 11
-179.88886718750001
 21
113.7176868439
 31
0.0
  0
LINE
  5
189
  8
0
 62
     0
 10
-179.88886718750001
 20
101.7732421875
 30
0.0
 11
-179.88886718750001
 21
127.82879753109999
 31
0.0
  0
LINE
  5
18A
  8
0
 62
     0
 10
-179.88886718750001
 20
101.7732421875
 30
0.0
 11
-179.88886718750001
 21
113.7176868439
 31
0.0
  0
LINE
  5
18B
  8
0
 62
     0
 10
-179.88886718750001
 20
101.7732421875
 30
0.0
 11
-179.88886718750001
 21
106.7732421875
 31
0.0
  0
SOLID
  5
18C
  8
0
 62
     0
 10
-179.88886718750001
 20
101.7732421875
 30
0.0
 11
-181.38886718750001
 21
107.7732421875
 31
0.0
 12
-178.38886718750001
 22
107.7732421875
 32
0.0
 13
-179.88886718750001
 23
106.2732421875
 33
0.0
  0
LINE
  5
18D
  8
0
 62
     0
 10
-179.88886718750001
 20
139.77324218749999
 30
0.0
 11
-179.88886718750001
 21
134.77324218749999
 31
0.0
  0
SOLID
  5
18E
  8
0
 62
     0
 10
-179.88886718750001
 20
139.77324218749999
 30
0.0
 11
-178.38886718750001
 21
133.77324218749999
 31
0.0
 12
-181.38886718750001
 22
133.77324218749999
 32
0.0
 13
-179.88886718750001
 23
135.27324218749999
 33
0.0
  0
ENDBLK
  5
18F
  8
0
  0
BLOCK
  8
0
  2
*D11
 70
     1
 10
0.0
 20
0.0
 30
0.0
  3
*D11
  1

  0
TEXT
  5
193
  8
0
 62
     0
 10
-131.1887151718
 20
83.831575488999988
 30
0.0
 40
5.9972220420999998
  1
28
  0
LINE
  5
194
  8
0
 62
     0
 10
-141.66093749999999
 20
99.773242187500003
 30
0.0
 11
-141.66093749999999
 21
80.773242187500003
 31
0.0
  0
LINE
  5
195
  8
0
 62
     0
 10
-113.6609375
 20
113.7732421875
 30
0.0
 11
-113.6609375
 21
80.773242187500003
 31
0.0
  0
LINE
  5
196
  8
0
 62
     0
 10
-141.66093749999999
 20
81.773242187499989
 30
0.0
 11
-120.6053821564
 21
81.773242187499989
 31
0.0
  0
LINE
  5
197
  8
0
 62
     0
 10
-141.66093749999999
 20
81.773242187499989
 30
0.0
 11
-134.71649284360001
 21
81.773242187499989
 31
0.0
  0
LINE
  5
198
  8
0
 62
     0
 10
-113.6609375
 20
81.773242187499989
 30
0.0
 11
-120.6053821564
 21
81.773242187499989
 31
0.0
  0
LINE
  5
199
  8
0
 62
     0
 10
-113.6609375
 20
81.773242187499989
 30
0.0
 11
-134.71649284360001
 21
81.773242187499989
 31
0.0
  0
LINE
  5
19A
  8
0
 62
     0
 10
-113.6609375
 20
81.773242187499989
 30
0.0
 11
-118.6609375
 21
81.773242187499989
 31
0.0
  0
SOLID
  5
19B
  8
0
 62
     0
 10
-113.6609375
 20
81.773242187499989
 30
0.0
 11
-119.6609375
 21
80.273242187500017
 31
0.0
 12
-119.6609375
 22
83.273242187500003
 32
0.0
 13
-118.1609375
 23
81.773242187499989
 33
0.0
  0
LINE
  5
19C
  8
0
 62
     0
 10
-141.66093749999999
 20
81.773242187499989
 30
0.0
 11
-136.66093749999999
 21
81.773242187499989
 31
0.0
  0
SOLID
  5
19D
  8
0
 62
     0
 10
-141.66093749999999
 20
81.773242187499989
 30
0.0
 11
-135.66093749999999
 21
83.273242187500003
 31
0.0
 12
-135.66093749999999
 22
80.273242187500017
 32
0.0
 13
-137.16093749999999
 23
81.773242187499989
 33
0.0
  0
ENDBLK
  5
19E
  8
0
  0
BLOCK
  8
0
  2
*D12
 70
     1
 10
0.0
 20
0.0
 30
0.0
  3
*D12
  1

  0
TEXT
  5
1A2
  8
0
 62
     0
 10
-106.1887151718
 20
83.831575488999988
 30
0.0
 40
5.9972220420999998
  1
22
  0
LINE
  5
1A3
  8
0
 62
     0
 10
-113.6609375
 20
113.7732421875
 30
0.0
 11
-113.6609375
 21
80.773242187500003
 31
0.0
  0
LINE
  5
1A4
  8
0
 62
     0
 10
-91.660937499999989
 20
113.7732421875
 30
0.0
 11
-91.660937499999989
 21
80.773242187500003
 31
0.0
  0
LINE
  5
1A5
  8
0
 62
     0
 10
-113.6609375
 20
81.773242187499989
 30
0.0
 11
-95.605382156399983
 21
81.773242187499989
 31
0.0
  0
LINE
  5
1A6
  8
0
 62
     0
 10
-113.6609375
 20
81.773242187499989
 30
0.0
 11
-109.71649284359999
 21
81.773242187499989
 31
0.0
  0
LINE
  5
1A7
  8
0
 62
     0
 10
-91.660937499999989
 20
81.773242187499989
 30
0.0
 11
-95.605382156399983
 21
81.773242187499989
 31
0.0
  0
LINE
  5
1A8
  8
0
 62
     0
 10
-91.660937499999989
 20
81.773242187499989
 30
0.0
 11
-109.71649284359999
 21
81.773242187499989
 31
0.0
  0
LINE
  5
1A9
  8
0
 62
     0
 10
-91.660937499999989
 20
81.773242187499989
 30
0.0
 11
-86.660937499999989
 21
81.773242187499989
 31
0.0
  0
SOLID
  5
1AA
  8
0
 62
     0
 10
-91.660937499999989
 20
81.773242187499989
 30
0.0
 11
-85.660937500000003
 21
83.273242187500003
 31
0.0
 12
-85.660937500000003
 22
80.273242187500017
 32
0.0
 13
-87.160937500000003
 23
81.773242187499989
 33
0.0
  0
LINE
  5
1AB
  8
0
 62
     0
 10
-113.6609375
 20
81.773242187499989
 30
0.0
 11
-118.6609375
 21
81.773242187499989
 31
0.0
  0
SOLID
  5
1AC
  8
0
 62
     0
 10
-113.6609375
 20
81.773242187499989
 30
0.0
 11
-119.6609375
 21
80.273242187500017
 31
0.0
 12
-119.6609375
 22
83.273242187500003
 32
0.0
 13
-118.1609375
 23
81.773242187499989
 33
0.0
  0
ENDBLK
  5
1AD
  8
0
  0
BLOCK
  8
0
  2
*D13
 70
     1
 10
0.0
 20
0.0
 30
0.0
  3
*D13
  1

  0
TEXT
  5
1B1
  8
0
 62
     0
 10
-84.188715171799984
 20
83.831575488999988
 30
0.0
 40
5.9972220420999998
  1
22
  0
LINE
  5
1B2
  8
0
 62
     0
 10
-91.660937499999989
 20
113.7732421875
 30
0.0
 11
-91.660937499999989
 21
80.773242187500003
 31
0.0
  0
LINE
  5
1B3
  8
0
 62
     0
 10
-69.660937500000003
 20
113.7732421875
 30
0.0
 11
-69.660937500000003
 21
80.773242187500003
 31
0.0
  0
LINE
  5
1B4
  8
0
 62
     0
 10
-91.660937499999989
 20
81.773242187499989
 30
0.0
 11
-73.605382156399997
 21
81.773242187499989
 31
0.0
  0
LINE
  5
1B5
  8
0
 62
     0
 10
-91.660937499999989
 20
81.773242187499989
 30
0.0
 11
-87.716492843599994
 21
81.773242187499989
 31
0.0
  0
LINE
  5
1B6
  8
0
 62
     0
 10
-69.660937500000003
 20
81.773242187499989
 30
0.0
 11
-73.605382156399997
 21
81.773242187499989
 31
0.0
  0
LINE
  5
1B7
  8
0
 62
     0
 10
-69.660937500000003
 20
81.773242187499989
 30
0.0
 11
-87.716492843599994
 21
81.773242187499989
 31
0.0
  0
LINE
  5
1B8
  8
0
 62
     0
 10
-69.660937500000003
 20
81.773242187499989
 30
0.0
 11
-64.660937500000003
 21
81.773242187499989
 31
0.0
  0
SOLID
  5
1B9
  8
0
 62
     0
 10
-69.660937500000003
 20
81.773242187499989
 30
0.0
 11
-63.660937500000003
 21
83.273242187500003
 31
0.0
 12
-63.660937500000003
 22
80.273242187500017
 32
0.0
 13
-65.160937500000003
 23
81.773242187499989
 33
0.0
  0
LINE
  5
1BA
  8
0
 62
     0
 10
-91.660937499999989
 20
81.773242187499989
 30
0.0
 11
-96.660937500000017
 21
81.773242187499989
 31
0.0
  0
SOLID
  5
1BB
  8
0
 62
     0
 10
-91.660937499999989
 20
81.773242187499989
 30
0.0
 11
-97.660937500000017
 21
80.273242187500017
 31
0.0
 12
-97.660937500000017
 22
83.273242187500003
 32
0.0
 13
-96.160937500000003
 23
81.773242187499989
 33
0.0
  0
ENDBLK
  5
1BC
  8
0
  0
BLOCK
  8
0
  2
*D14
 70
     1
 10
0.0
 20
0.0
 30
0.0
  3
*D14
  1

  0
TEXT
  5
1CC
  8
0
 62
     0
 10
-70.613437485700004
 20
-50.274366132899992
 30
0.0
 40
1.079499983799999
  1
90%%d
  0
ARC
  5
1CD
  8
0
 62
     0
 10
-69.660937500000003
 20
-61.5458984375
 30
0.0
 40
10.700032313199999
 50
130.9684127134
 51
138.34266046810001
  0
ARC
  5
1CE
  8
0
 62
     0
 10
-69.660937500000003
 20
-61.5458984375
 30
0.0
 40
10.700032313199999
 50
41.6573395319
 51
49.031587286600001
  0
SOLID
  5
1CF
  8
0
 62
     0
 10
-61.666587230300003
 20
-54.433862493500001
 30
0.0
 11
-60.628700043099997
 21
-55.116663236599997
 31
0.0
 12
-61.109256156000001
 22
-55.544181700599999
 32
0.0
 13
-61.068380382200012
 23
-55.10628247479999
 33
0.0
  0
SOLID
  5
1D0
  8
0
 62
     0
 10
-77.655287769699996
 20
-54.433862493500001
 30
0.0
 11
-78.212618843999991
 21
-55.544181700599999
 31
0.0
 12
-78.693174956899995
 22
-55.116663236599997
 32
0.0
 13
-78.253494617800001
 23
-55.10628247479999
 33
0.0
  0
ARC
  5
1D1
  8
0
 62
     0
 10
-69.660937500000003
 20
-61.5458984375
 30
0.0
 40
10.700032313199999
 50
41.6573395319
 51
81.3587893216
  0
ARC
  5
1D2
  8
0
 62
     0
 10
-69.660937500000003
 20
-61.5458984375
 30
0.0
 40
10.700032313199999
 50
98.641210678400014
 51
138.34266046810001
  0
LINE
  5
1D3
  8
0
 62
     0
 10
-64.845252066599997
 20
-57.230213004100001
 30
0.0
 11
-61.279186658999997
 21
-53.664147596499987
 31
0.0
  0
LINE
  5
1D4
  8
0
 62
     0
 10
-74.476622933399995
 20
-57.230213004100001
 30
0.0
 11
-78.042688341000002
 21
-53.664147596499987
 31
0.0
  0
ENDBLK
  5
1D5
  8
0
  0
BLOCK
  8
0
  2
*D15
 70
     1
 10
0.0
 20
0.0
 30
0.0
  3
*D15
  1

  0
TEXT
  5
208
  8
0
 62
     0
 10
-70.613437485700004
 20
-65.907200734699984
 30
0.0
 40
1.079499983799999
  1
%%c4
  0
LINE
  5
209
  8
0
 62
     0
 10
-71.910937500000003
 20
-62.995898437500003
 30
0.0
 11
-71.910937500000003
 21
-67.297700749699999
 31
0.0
  0
LINE
  5
20A
  8
0
 62
     0
 10
-67.410937500000003
 20
-62.995898437500003
 30
0.0
 11
-67.410937500000003
 21
-67.297700749699999
 31
0.0
  0
LINE
  5
20B
  8
0
 62
     0
 10
-71.910937500000003
 20
-66.497700737800002
 30
0.0
 11
-68.073437523799996
 21
-66.497700737800002
 31
0.0
  0
LINE
  5
20C
  8
0
 62
     0
 10
-71.910937500000003
 20
-66.497700737800002
 30
0.0
 11
-71.248437476199996
 21
-66.497700737800002
 31
0.0
  0
LINE
  5
20D
  8
0
 62
     0
 10
-67.410937500000003
 20
-66.497700737800002
 30
0.0
 11
-68.073437523799996
 21
-66.497700737800002
 31
0.0
  0
LINE
  5
20E
  8
0
 62
     0
 10
-67.410937500000003
 20
-66.497700737800002
 30
0.0
 11
-71.248437476199996
 21
-66.497700737800002
 31
0.0
  0
LINE
  5
20F
  8
0
 62
     0
 10
-67.410937500000003
 20
-66.497700737800002
 30
0.0
 11
-65.410937500000003
 21
-66.497700737800002
 31
0.0
  0
SOLID
  5
210
  8
0
 62
     0
 10
-67.410937500000003
 20
-66.497700737800002
 30
0.0
 11
-66.210937452300001
 21
-66.176100747700005
 31
0.0
 12
-66.210937452300001
 22
-66.8193007279
 32
0.0
 13
-66.510937464199984
 23
-66.497700737800002
 33
0.0
  0
LINE
  5
211
  8
0
 62
     0
 10
-71.910937500000003
 20
-66.497700737800002
 30
0.0
 11
-73.910937500000003
 21
-66.497700737800002
 31
0.0
  0
SOLID
  5
212
  8
0
 62
     0
 10
-71.910937500000003
 20
-66.497700737800002
 30
0.0
 11
-73.110937547700004
 21
-66.8193007279
 31
0.0
 12
-73.110937547700004
 22
-66.176100747700005
 32
0.0
 13
-72.810937535799994
 23
-66.497700737800002
 33
0.0
  0
ENDBLK
  5
213
  8
0
  0
BLOCK
  8
0
  2
*D16
 70
     1
 10
0.0
 20
0.0
 30
0.0
  3
*D16
  1

  0
TEXT
  5
217
  8
0
 62
     0
 10
-70.613437485700004
 20
-53.81852078
 30
0.0
 40
1.079499983799999
  1
%%c8
  0
LINE
  5
218
  8
0
 62
     0
 10
-65.410937500000003
 20
-55.7958984375
 30
0.0
 11
-65.410937500000003
 21
-53.609020771099999
 31
0.0
  0
LINE
  5
219
  8
0
 62
     0
 10
-73.910937500000003
 20
-55.7958984375
 30
0.0
 11
-73.910937500000003
 21
-53.609020771099999
 31
0.0
  0
LINE
  5
21A
  8
0
 62
     0
 10
-65.410937500000003
 20
-54.409020783099997
 30
0.0
 11
-68.073437523799996
 21
-54.409020783099997
 31
0.0
  0
LINE
  5
21B
  8
0
 62
     0
 10
-65.410937500000003
 20
-54.409020783099997
 30
0.0
 11
-71.248437476199996
 21
-54.409020783099997
 31
0.0
  0
LINE
  5
21C
  8
0
 62
     0
 10
-73.910937500000003
 20
-54.409020783099997
 30
0.0
 11
-68.073437523799996
 21
-54.409020783099997
 31
0.0
  0
LINE
  5
21D
  8
0
 62
     0
 10
-73.910937500000003
 20
-54.409020783099997
 30
0.0
 11
-71.248437476199996
 21
-54.409020783099997
 31
0.0
  0
LINE
  5
21E
  8
0
 62
     0
 10
-73.910937500000003
 20
-54.409020783099997
 30
0.0
 11
-71.910937500000003
 21
-54.409020783099997
 31
0.0
  0
SOLID
  5
21F
  8
0
 62
     0
 10
-73.910937500000003
 20
-54.409020783099997
 30
0.0
 11
-72.710937452300001
 21
-54.087420792899998
 31
0.0
 12
-72.710937452300001
 22
-54.730620773199988
 32
0.0
 13
-73.010937464199998
 23
-54.409020783099997
 33
0.0
  0
LINE
  5
220
  8
0
 62
     0
 10
-65.410937500000003
 20
-54.409020783099997
 30
0.0
 11
-67.410937500000003
 21
-54.409020783099997
 31
0.0
  0
SOLID
  5
221
  8
0
 62
     0
 10
-65.410937500000003
 20
-54.409020783099997
 30
0.0
 11
-66.610937547700004
 21
-54.730620773199988
 31
0.0
 12
-66.610937547700004
 22
-54.087420792899998
 32
0.0
 13
-66.310937535799994
 23
-54.409020783099997
 33
0.0
  0
ENDBLK
  5
222
  8
0
  0
BLOCK
  8
0
  2
*D17
 70
     1
 10
0.0
 20
0.0
 30
0.0
  3
*D17
  1

  0
TEXT
  5
226
  8
0
 62
     0
 10
-100.1887151718
 20
-78.937565136000003
 30
0.0
 40
5.9972220420999998
  1
90
  0
LINE
  5
227
  8
0
 62
     0
 10
-141.66093749999999
 20
-58.995898437500003
 30
0.0
 11
-141.66093749999999
 21
-81.995898437500003
 31
0.0
  0
LINE
  5
228
  8
0
 62
     0
 10
-51.660937500000003
 20
-62.995898437500003
 30
0.0
 11
-51.660937500000003
 21
-81.995898437500003
 31
0.0
  0
LINE
  5
229
  8
0
 62
     0
 10
-141.66093749999999
 20
-80.995898437500017
 30
0.0
 11
-89.605382156399983
 21
-80.995898437500017
 31
0.0
  0
LINE
  5
22A
  8
0
 62
     0
 10
-141.66093749999999
 20
-80.995898437500017
 30
0.0
 11
-103.71649284359999
 21
-80.995898437500017
 31
0.0
  0
LINE
  5
22B
  8
0
 62
     0
 10
-51.660937500000003
 20
-80.995898437500017
 30
0.0
 11
-89.605382156399983
 21
-80.995898437500017
 31
0.0
  0
LINE
  5
22C
  8
0
 62
     0
 10
-51.660937500000003
 20
-80.995898437500017
 30
0.0
 11
-103.71649284359999
 21
-80.995898437500017
 31
0.0
  0
LINE
  5
22D
  8
0
 62
     0
 10
-51.660937500000003
 20
-80.995898437500017
 30
0.0
 11
-56.660937500000003
 21
-80.995898437500017
 31
0.0
  0
SOLID
  5
22E
  8
0
 62
     0
 10
-51.660937500000003
 20
-80.995898437500017
 30
0.0
 11
-57.660937500000003
 21
-82.495898437499989
 31
0.0
 12
-57.660937500000003
 22
-79.495898437500003
 32
0.0
 13
-56.160937500000003
 23
-80.995898437500017
 33
0.0
  0
LINE
  5
22F
  8
0
 62
     0
 10
-141.66093749999999
 20
-80.995898437500017
 30
0.0
 11
-136.66093749999999
 21
-80.995898437500017
 31
0.0
  0
SOLID
  5
230
  8
0
 62
     0
 10
-141.66093749999999
 20
-80.995898437500017
 30
0.0
 11
-135.66093749999999
 21
-79.495898437500003
 31
0.0
 12
-135.66093749999999
 22
-82.495898437499989
 32
0.0
 13
-137.16093749999999
 23
-80.995898437500017
 33
0.0
  0
ENDBLK
  5
231
  8
0
  0
BLOCK
  8
0
  2
*D18
 70
     1
 10
0.0
 20
0.0
 30
0.0
  3
*D18
  1

  0
TEXT
  5
23B
  8
0
 62
     0
 10
-167.106148456
 20
-19.523676109299998
 30
0.0
 40
5.9972220420999998
  1
90
 50
90.0
  0
LINE
  5
23C
  8
0
 62
     0
 10
-143.66093749999999
 20
29.004101562500001
 30
0.0
 11
-166.04781515440001
 21
29.004101562500001
 31
0.0
  0
LINE
  5
23D
  8
0
 62
     0
 10
-139.66093749999999
 20
-60.995898437500003
 30
0.0
 11
-166.04781515440001
 21
-60.995898437500003
 31
0.0
  0
LINE
  5
23E
  8
0
 62
     0
 10
-165.04781515440001
 20
29.004101562500001
 30
0.0
 11
-165.04781515440001
 21
-8.9403430938999993
 31
0.0
  0
LINE
  5
23F
  8
0
 62
     0
 10
-165.04781515440001
 20
29.004101562500001
 30
0.0
 11
-165.04781515440001
 21
-23.051453781100001
 31
0.0
  0
LINE
  5
240
  8
0
 62
     0
 10
-165.04781515440001
 20
-60.995898437500003
 30
0.0
 11
-165.04781515440001
 21
-8.9403430938999993
 31
0.0
  0
LINE
  5
241
  8
0
 62
     0
 10
-165.04781515440001
 20
-60.995898437500003
 30
0.0
 11
-165.04781515440001
 21
-23.051453781100001
 31
0.0
  0
LINE
  5
242
  8
0
 62
     0
 10
-165.04781515440001
 20
-60.995898437500003
 30
0.0
 11
-165.04781515440001
 21
-55.995898437500003
 31
0.0
  0
SOLID
  5
243
  8
0
 62
     0
 10
-165.04781515440001
 20
-60.995898437500003
 30
0.0
 11
-166.54781515440001
 21
-54.995898437500003
 31
0.0
 12
-163.54781515440001
 22
-54.995898437500003
 32
0.0
 13
-165.04781515440001
 23
-56.495898437500003
 33
0.0
  0
LINE
  5
244
  8
0
 62
     0
 10
-165.04781515440001
 20
29.004101562500001
 30
0.0
 11
-165.04781515440001
 21
24.004101562500001
 31
0.0
  0
SOLID
  5
245
  8
0
 62
     0
 10
-165.04781515440001
 20
29.004101562500001
 30
0.0
 11
-163.54781515440001
 21
23.004101562500001
 31
0.0
 12
-166.54781515440001
 22
23.004101562500001
 32
0.0
 13
-165.04781515440001
 23
24.504101562500001
 33
0.0
  0
ENDBLK
  5
246
  8
0
  0
BLOCK
  8
0
  2
*D19
 70
     1
 10
0.0
 20
0.0
 30
0.0
  3
*D19
  1

  0
TEXT
  5
24B
  8
0
 62
     0
 10
-107.0305849369
 20
-7.3559060821999998
 30
0.0
 40
5.9972220420999998
  1
90%%d
 50
322.96368778819999
  0
ARC
  5
24C
  8
0
 62
     0
 10
-138.4609375
 20
-57.7958984375
 30
0.0
 40
56.020085673599993
 50
82.092686598900002
 51
90.0
  0
ARC
  5
24D
  8
0
 62
     0
 10
-138.4609375
 20
-57.7958984375
 30
0.0
 40
56.020085673599993
 50
0.0
 51
7.9073134010999997
  0
SOLID
  5
24E
  8
0
 62
     0
 10
-82.440851826400007
 20
-57.7958984375
 30
0.0
 11
-80.940851826400007
 21
-63.7958984375
 31
0.0
 12
-83.940851826400007
 22
-63.7958984375
 32
0.0
 13
-82.440851826400007
 23
-62.2958984375
 33
0.0
  0
SOLID
  5
24F
  8
0
 62
     0
 10
-138.4609375
 20
-1.775812763899999
 30
0.0
 11
-144.4609375
 21
-3.275812763899999
 31
0.0
 12
-144.4609375
 22
-0.2758127639
 32
0.0
 13
-142.9609375
 23
-1.775812763899999
 33
0.0
  0
ARC
  5
250
  8
0
 62
     0
 10
-138.4609375
 20
-57.7958984375
 30
0.0
 40
56.020085673599993
 50
0.0
 51
43.7895351863
  0
ARC
  5
251
  8
0
 62
     0
 10
-138.4609375
 20
-57.7958984375
 30
0.0
 40
56.020085673599993
 50
62.137840390100003
 51
90.0
  0
LINE
  5
252
  8
0
 62
     0
 10
-55.660937500000003
 20
-57.7958984375
 30
0.0
 11
-86.440851826399992
 21
-57.7958984375
 31
0.0
  0
LINE
  5
253
  8
0
 62
     0
 10
-138.4609375
 20
25.004101562500001
 30
0.0
 11
-138.4609375
 21
-5.7758127638999994
 31
0.0
  0
ENDBLK
  5
254
  8
0
  0
BLOCK
  8
0
  2
*D20
 70
     1
 10
0.0
 20
0.0
 30
0.0
  3
*D20
  1

  0
LINE
  5
271
  8
寸法線
 62
     0
 10
76.145911248542546
 20
-21.028590472131452
 30
0.0
 11
76.145911248542546
 21
-31.815170566196631
 31
0.0
  0
LINE
  5
272
  8
寸法線
 62
     0
 10
85.745911248542484
 20
-21.028590472131452
 30
0.0
 11
85.745911248542484
 21
-31.815170566196631
 31
0.0
  0
LINE
  5
273
  8
寸法線
 62
     0
 10
80.645911248542546
 20
-30.815170566196631
 30
0.0
 11
81.245911248542484
 21
-30.815170566196631
 31
0.0
  0
LINE
  5
274
  8
寸法線
 62
     0
 10
85.745911248542484
 20
-30.815170566196631
 30
0.0
 11
90.245911248542484
 21
-30.815170566196631
 31
0.0
  0
SOLID
  5
275
  8
寸法線
 62
     0
 10
80.645911248542546
 20
-30.065170566196631
 30
0.0
 11
80.645911248542546
 21
-31.565170566196631
 31
0.0
 12
76.145911248542546
 22
-30.815170566196631
 32
0.0
 13
76.145911248542546
 23
-30.815170566196631
 33
0.0
  0
SOLID
  5
276
  8
寸法線
 62
     0
 10
81.245911248542484
 20
-30.065170566196631
 30
0.0
 11
81.245911248542484
 21
-31.565170566196631
 31
0.0
 12
85.745911248542484
 22
-30.815170566196631
 32
0.0
 13
85.745911248542484
 23
-30.815170566196631
 33
0.0
  0
INSERT
  5
277
  8
0
  6
CONTINUOUS
  2
*U63
 10
0.0
 20
0.0
 30
0.0
  0
POINT
  5
278
  8
DEFPOINTS
 62
     0
 10
76.145911248542546
 20
-20.966090472131452
 30
0.0
  0
POINT
  5
279
  8
DEFPOINTS
 62
     0
 10
85.745911248542484
 20
-20.966090472131452
 30
0.0
  0
POINT
  5
27A
  8
DEFPOINTS
 62
     0
 10
85.745911248542484
 20
-30.815170566196631
 30
0.0
  0
ENDBLK
  5
27B
  8
0
  0
BLOCK
  8
0
  2
*D21
 70
     1
 10
0.0
 20
0.0
 30
0.0
  3
*D21
  1

  0
LINE
  5
27E
  8
寸法線
 62
     0
 10
90.050765594166705
 20
-13.4612361265073
 30
0.0
 11
106.84964057954841
 21
3.3376388588744428
 31
0.0
  0
LINE
  5
27F
  8
寸法線
 62
     0
 10
71.841056903118925
 20
-13.46123612650681
 30
0.0
 11
55.04218191782261
 21
3.337638859160367
 31
0.0
  0
ARC
  5
280
  8
寸法線
 62
     0
 10
80.945911248542558
 20
-22.566090472131449
 30
0.0
 40
35.633405335950272
 50
52.240471233183783
 51
79.725567809004772
  0
ARC
  5
281
  8
寸法線
 62
     0
 10
80.945911248542558
 20
-22.566090472131449
 30
0.0
 40
35.633405335950272
 50
102.094781328133
 51
127.75952876618381
  0
SOLID
  5
282
  8
寸法線
 62
     0
 10
103.2617683474969
 20
6.168001571139766
 30
0.0
 11
102.2701979956133
 21
5.0424846955375049
 31
0.0
 12
106.1425337983619
 22
2.6305320776878971
 32
0.0
 13
106.1425337983619
 23
2.6305320776878971
 33
0.0
  0
SOLID
  5
283
  8
寸法線
 62
     0
 10
59.621624501776537
 20
5.0424846957728819
 30
0.0
 11
58.630054149905391
 21
6.1680015713860881
 31
0.0
 12
55.74928869900134
 22
2.6305320779660151
 32
0.0
 13
55.74928869900134
 23
2.6305320779660151
 33
0.0
  0
INSERT
  5
284
  8
0
  6
CONTINUOUS
  2
*U64
 10
0.0
 20
0.0
 30
0.0
  0
POINT
  5
285
  8
DEFPOINTS
 62
     0
 10
80.945911248542558
 20
-22.566090472131449
 30
0.0
  0
POINT
  5
286
  8
DEFPOINTS
 62
     0
 10
90.006571420342539
 20
-13.50543030033146
 30
0.0
  0
POINT
  5
287
  8
DEFPOINTS
 62
     0
 10
71.885251076942595
 20
-13.505430300331451
 30
0.0
  0
POINT
  5
288
  8
DEFPOINTS
 62
     0
 10
90.168515191470917
 20
11.85313602045567
 30
0.0
  0
ENDBLK
  5
289
  8
0
  0
BLOCK
  8
0
  2
*D22
 70
     1
 10
0.0
 20
0.0
 30
0.0
  3
*D22
  1

  0
LINE
  5
28C
  8
寸法線
 62
     0
 10
88.945911248542529
 20
-14.503590472131449
 30
0.0
 11
88.945911248542529
 21
1.8809947427057521
 31
0.0
  0
LINE
  5
28D
  8
寸法線
 62
     0
 10
72.945911248542558
 20
-14.503590472131449
 30
0.0
 11
72.945911248542558
 21
1.8809947427057521
 31
0.0
  0
LINE
  5
28E
  8
寸法線
 62
     0
 10
93.445911248542515
 20
0.8809947427057522
 30
0.0
 11
97.945911248542529
 21
0.8809947427057522
 31
0.0
  0
LINE
  5
28F
  8
寸法線
 62
     0
 10
68.445911248542558
 20
0.8809947427057522
 30
0.0
 11
63.945911248542551
 21
0.8809947427057522
 31
0.0
  0
SOLID
  5
290
  8
寸法線
 62
     0
 10
93.445911248542515
 20
1.6309947427057521
 30
0.0
 11
93.445911248542515
 21
0.1309947427057523
 31
0.0
 12
88.945911248542529
 22
0.8809947427057522
 32
0.0
 13
88.945911248542529
 23
0.8809947427057522
 33
0.0
  0
SOLID
  5
291
  8
寸法線
 62
     0
 10
68.445911248542558
 20
1.6309947427057521
 30
0.0
 11
68.445911248542558
 21
0.1309947427057523
 31
0.0
 12
72.945911248542558
 22
0.8809947427057522
 32
0.0
 13
72.945911248542558
 23
0.8809947427057522
 33
0.0
  0
INSERT
  5
292
  8
0
  6
CONTINUOUS
  2
*U65
 10
0.0
 20
0.0
 30
0.0
  0
POINT
  5
293
  8
DEFPOINTS
 62
     0
 10
88.945911248542529
 20
-14.566090472131449
 30
0.0
  0
POINT
  5
294
  8
DEFPOINTS
 62
     0
 10
72.945911248542558
 20
-14.566090472131449
 30
0.0
  0
POINT
  5
295
  8
DEFPOINTS
 62
     0
 10
72.945911248542558
 20
0.8809947427057522
 30
0.0
  0
ENDBLK
  5
296
  8
0
  0
BLOCK
  8
0
  2
*D24
 70
     1
 10
0.0
 20
0.0
 30
0.0
  3
*D24
  1

  0
LINE
  5
2DA
  8
寸法線
 62
     0
 10
112.7043797634793
 20
-19.51486891743194
 30
0.0
 11
112.7043797634793
 21
-3.1302837025947379
 31
0.0
  0
LINE
  5
2DB
  8
寸法線
 62
     0
 10
96.704379763479352
 20
-19.51486891743194
 30
0.0
 11
96.704379763479352
 21
-3.1302837025947379
 31
0.0
  0
LINE
  5
2DC
  8
寸法線
 62
     0
 10
118.7043797634793
 20
-4.1302837025947383
 30
0.0
 11
124.7043797634793
 21
-4.1302837025947383
 31
0.0
  0
LINE
  5
2DD
  8
寸法線
 62
     0
 10
90.704379763479352
 20
-4.1302837025947383
 30
0.0
 11
84.704379763479366
 21
-4.1302837025947383
 31
0.0
  0
SOLID
  5
2DE
  8
寸法線
 62
     0
 10
118.7043797634793
 20
-3.1302837025947379
 30
0.0
 11
118.7043797634793
 21
-5.1302837025947383
 31
0.0
 12
112.7043797634793
 22
-4.1302837025947383
 32
0.0
 13
112.7043797634793
 23
-4.1302837025947383
 33
0.0
  0
SOLID
  5
2DF
  8
寸法線
 62
     0
 10
90.704379763479352
 20
-3.1302837025947379
 30
0.0
 11
90.704379763479352
 21
-5.1302837025947383
 31
0.0
 12
96.704379763479352
 22
-4.1302837025947383
 32
0.0
 13
96.704379763479352
 23
-4.1302837025947383
 33
0.0
  0
INSERT
  5
2E0
  8
0
  6
CONTINUOUS
  2
*U66
 10
0.0
 20
0.0
 30
0.0
  0
POINT
  5
2E1
  8
DEFPOINTS
 62
     0
 10
112.7043797634793
 20
-19.57736891743194
 30
0.0
  0
POINT
  5
2E2
  8
DEFPOINTS
 62
     0
 10
96.704379763479352
 20
-19.57736891743194
 30
0.0
  0
POINT
  5
2E3
  8
DEFPOINTS
 62
     0
 10
96.704379763479352
 20
-4.1302837025947383
 30
0.0
  0
ENDBLK
  5
2BE
  8
0
  0
BLOCK
  8
0
  2
*D25
 70
     1
 10
0.0
 20
0.0
 30
0.0
  3
*D25
  1

  0
LINE
  5
3C4
  8
寸法線
 62
     0
 10
113.8092341091035
 20
-18.472514571807789
 30
0.0
 11
130.6081090944852
 21
-1.6736395864260341
 31
0.0
  0
LINE
  5
3C5
  8
寸法線
 62
     0
 10
95.599525418055705
 20
-18.472514571807299
 30
0.0
 11
78.800650432759397
 21
-1.673639586140115
 31
0.0
  0
ARC
  5
3C6
  8
寸法線
 62
     0
 10
104.7043797634793
 20
-27.577368917431951
 30
0.0
 40
35.633405335950279
 50
54.65897283874903
 51
75.971453317866946
  0
ARC
  5
3C7
  8
寸法線
 62
     0
 10
104.7043797634793
 20
-27.577368917431951
 30
0.0
 40
35.633405335950279
 50
105.84889581927079
 51
125.34102716061849
  0
SOLID
  5
3C8
  8
寸法線
 62
     0
 10
125.96129822336989
 20
2.2537688911603131
 30
0.0
 11
124.6711691713316
 21
0.7255126858443529
 31
0.0
 12
129.9010023132987
 22
-2.3807463676125851
 32
0.0
 13
129.9010023132987
 23
-2.3807463676125851
 33
0.0
  0
SOLID
  5
3C9
  8
寸法線
 62
     0
 10
84.73759035593946
 20
0.725512686064743
 30
0.0
 11
83.447461303918018
 21
2.2537688913949441
 31
0.0
 12
79.507757213938135
 22
-2.3807463673344671
 32
0.0
 13
79.507757213938135
 23
-2.3807463673344671
 33
0.0
  0
TEXT
  8
寸法線
  40
5.99722
  5
3D7
  62
0
  72
0
  71
0
 10
92.1439
 20
-2.56354
 30
0.000000
  1
90°
  0
POINT
  5
3CB
  8
DEFPOINTS
 62
     0
 10
104.7043797634793
 20
-27.577368917431951
 30
0.0
  0
POINT
  5
3CC
  8
DEFPOINTS
 62
     0
 10
113.7650399352793
 20
-18.516708745631949
 30
0.0
  0
POINT
  5
3CD
  8
DEFPOINTS
 62
     0
 10
95.643719591879389
 20
-18.516708745631949
 30
0.0
  0
POINT
  5
3CE
  8
DEFPOINTS
 62
     0
 10
113.9269837064077
 20
6.8418575751551893
 30
0.0
  0
ENDBLK
  5
2CC
  8
0
  0
BLOCK
  8
0
  2
*D26
 70
     1
 10
0.0
 20
0.0
 30
0.0
  3
*D26
  1

  0
LINE
  5
2F9
  8
寸法線
 62
     0
 10
99.904379763479341
 20
-26.039868917431939
 30
0.0
 11
99.904379763479341
 21
-36.826449011497118
 31
0.0
  0
LINE
  5
2FA
  8
寸法線
 62
     0
 10
109.50437976347931
 20
-26.039868917431939
 30
0.0
 11
109.50437976347931
 21
-36.826449011497118
 31
0.0
  0
LINE
  5
2FB
  8
寸法線
 62
     0
 10
93.904379763479341
 20
-35.826449011497118
 30
0.0
 11
87.904379763479341
 21
-35.826449011497118
 31
0.0
  0
LINE
  5
2FC
  8
寸法線
 62
     0
 10
115.50437976347921
 20
-35.826449011497118
 30
0.0
 11
125.5025277915459
 21
-35.826449011497118
 31
0.0
  0
SOLID
  5
2FD
  8
寸法線
 62
     0
 10
93.904379763479341
 20
-34.826449011497118
 30
0.0
 11
93.904379763479341
 21
-36.826449011497118
 31
0.0
 12
99.904379763479341
 22
-35.826449011497118
 32
0.0
 13
99.904379763479341
 23
-35.826449011497118
 33
0.0
  0
SOLID
  5
2FE
  8
寸法線
 62
     0
 10
115.50437976347921
 20
-34.826449011497118
 30
0.0
 11
115.50437976347921
 21
-36.826449011497118
 31
0.0
 12
109.50437976347931
 22
-35.826449011497118
 32
0.0
 13
109.50437976347931
 23
-35.826449011497118
 33
0.0
  0
INSERT
  5
2FF
  8
0
  6
CONTINUOUS
  2
*U67
 10
0.0
 20
0.0
 30
0.0
  0
POINT
  5
300
  8
DEFPOINTS
 62
     0
 10
99.904379763479341
 20
-25.977368917431939
 30
0.0
  0
POINT
  5
301
  8
DEFPOINTS
 62
     0
 10
109.50437976347931
 20
-25.977368917431939
 30
0.0
  0
POINT
  5
302
  8
DEFPOINTS
 62
     0
 10
109.50437976347931
 20
-35.826449011497118
 30
0.0
  0
ENDBLK
  5
2D9
  8
0
  0
BLOCK
  8
0
  2
*U27
 70
     1
 10
0.0
 20
0.0
 30
0.0
  3
*U27
  1

  0
TEXT
  5
314
  8
図枠
  6
CONTINUOUS
 10
111.2296802657124
 20
207.81048458551621
 30
0.0
 40
5.3969601688999989
  1
改訂日
  0
ENDBLK
  5
316
  8
0
  0
BLOCK
  8
0
  2
*U28
 70
     1
 10
0.0
 20
0.0
 30
0.0
  3
*U28
  1

  0
TEXT
  5
318
  8
図枠
  6
CONTINUOUS
 10
163.3745352637888
 20
207.75569311172029
 30
0.0
 40
5.3969601688999989
  1
改　訂　内　容
  0
ENDBLK
  5
31A
  8
0
  0
BLOCK
  8
0
  2
*U29
 70
     1
 10
0.0
 20
0.0
 30
0.0
  3
*U29
  1

  0
TEXT
  5
31C
  8
図枠
  6
CONTINUOUS
 10
257.42054829244722
 20
207.72829737482229
 30
0.0
 40
5.3969601688999989
  1
検認者
  0
ENDBLK
  5
31E
  8
0
  0
BLOCK
  8
0
  2
*U30
 70
     1
 10
0.0
 20
0.0
 30
0.0
  3
*U30
  1

  0
TEXT
  5
320
  8
図枠
  6
CONTINUOUS
 10
237.50473550314109
 20
207.75569311172029
 30
0.0
 40
5.3969601688999989
  1
改訂者
  0
ENDBLK
  5
322
  8
0
  0
BLOCK
  8
0
  2
*U31
 70
     1
 10
0.0
 20
0.0
 30
0.0
  3
*U31
  1

  0
TEXT
  5
324
  8
図枠
  6
CONTINUOUS
 10
90.766130325550506
 20
207.86527605931221
 30
0.0
 40
5.3969601688999989
  1
副番
  0
ENDBLK
  5
326
  8
0
  0
BLOCK
  8
0
  2
*U32
 70
     1
 10
0.0
 20
0.0
 30
0.0
  3
*U32
  1

  0
TEXT
  5
328
  8
図枠
  6
CONTINUOUS
 10
200.15454076383531
 20
-158.67339767030001
 30
0.0
 40
5.9966223199000002
  1
ＳＲＫ００１１５
  0
ENDBLK
  5
32A
  8
0
  0
BLOCK
  8
0
  2
*U33
 70
     1
 10
0.0
 20
0.0
 30
0.0
  3
*U33
  1

  0
TEXT
  5
32C
  8
図枠
  6
CONTINUOUS
 10
166.0911921422198
 20
-136.57323358136449
 30
0.0
 40
4.6745324999999989
  1
図面名
  0
ENDBLK
  5
32E
  8
0
  0
BLOCK
  8
0
  2
*U34
 70
     1
 10
0.0
 20
0.0
 30
0.0
  3
*U34
  1

  0
TEXT
  5
330
  8
図枠
  6
CONTINUOUS
 10
166.0674635508492
 20
-153.52407639862341
 30
0.0
 40
4.6745324999999989
  1
図　番
  0
ENDBLK
  5
332
  8
0
  0
BLOCK
  8
0
  2
*U35
 70
     1
 10
0.0
 20
0.0
 30
0.0
  3
*U35
  1

  0
TEXT
  5
334
  8
図枠
  6
CONTINUOUS
 10
204.3247806512785
 20
-125.2855918144523
 30
0.0
 40
5.9966223199000002
  1
Ｌ型ブラケット
  0
ENDBLK
  5
336
  8
0
  0
BLOCK
  8
0
  2
*U36
 70
     1
 10
0.0
 20
0.0
 30
0.0
  3
*U36
  1

  0
TEXT
  5
338
  8
図枠
  6
CONTINUOUS
 10
119.920848599932
 20
-110.83420867086291
 30
0.0
 40
5.6094389188999987
  1
指定無き公差はJIS 0408-Bによること
  0
ENDBLK
  5
33A
  8
0
  0
BLOCK
  8
0
  2
*U37
 70
     1
 10
0.0
 20
0.0
 30
0.0
  3
*U37
  1

  0
TEXT
  5
33C
  8
図枠
  6
CONTINUOUS
 10
156.42491303663141
 20
-99.692937124697991
 30
0.0
 40
5.6094389188999987
  1
ユニクロメッキ
  0
ENDBLK
  5
33E
  8
0
  0
BLOCK
  8
0
  2
*U38
 70
     1
 10
0.0
 20
0.0
 30
0.0
  3
*U38
  1

  0
TEXT
  5
340
  8
図枠
  6
CONTINUOUS
 10
228.1769754333335
 20
-88.873156269300026
 30
0.0
 40
6.4593539188999989
  1
3.2t
  0
ENDBLK
  5
342
  8
0
  0
BLOCK
  8
0
  2
*U39
 70
     1
 10
0.0
 20
0.0
 30
0.0
  3
*U39
  1

  0
TEXT
  5
344
  8
図枠
  6
CONTINUOUS
 10
163.1316533082375
 20
-88.836408670862951
 30
0.0
 40
5.6094389188999987
  1
板　　厚
  0
ENDBLK
  5
346
  8
0
  0
BLOCK
  8
0
  2
*U40
 70
     1
 10
0.0
 20
0.0
 30
0.0
  3
*U40
  1

  0
TEXT
  5
348
  8
図枠
  6
CONTINUOUS
 10
55.663149756433
 20
-119.89104492398219
 30
0.0
 40
4.6745324999999989
  1
日 　付
  0
ENDBLK
  5
34A
  8
0
  0
BLOCK
  8
0
  2
*U41
 70
     1
 10
0.0
 20
0.0
 30
0.0
  3
*U41
  1

  0
TEXT
  5
34C
  8
図枠
  6
CONTINUOUS
 10
114.69367471854309
 20
-88.410424670300003
 30
0.0
 40
5.9966223199000002
  1
SPCC
  0
ENDBLK
  5
34E
  8
0
  0
BLOCK
  8
0
  2
*U42
 70
     1
 10
0.0
 20
0.0
 30
0.0
  3
*U42
  1

  0
TEXT
  5
350
  8
図枠
  6
CONTINUOUS
 10
51.157090462854072
 20
-99.778360052396962
 30
0.0
 40
5.6094389188999987
  1
表面処理
  0
ENDBLK
  5
352
  8
0
  0
BLOCK
  8
0
  2
*U43
 70
     1
 10
0.0
 20
0.0
 30
0.0
  3
*U43
  1

  0
TEXT
  5
354
  8
図枠
  6
CONTINUOUS
 10
205.77066674364011
 20
-141.79685649913051
 30
0.0
 40
5.9966223199000002
  1
LY-604 承認図
  0
ENDBLK
  5
356
  8
0
  0
BLOCK
  8
0
  2
*U44
 70
     1
 10
0.0
 20
0.0
 30
0.0
  3
*U44
  1

  0
TEXT
  5
358
  8
図枠
  6
CONTINUOUS
 10
76.307087694250257
 20
-145.41222351535279
 30
0.0
 40
4.6745324999999989
  1
園 原
  0
ENDBLK
  5
35A
  8
0
  0
BLOCK
  8
0
  2
*U45
 70
     1
 10
0.0
 20
0.0
 30
0.0
  3
*U45
  1

  0
TEXT
  5
35C
  8
図枠
  6
CONTINUOUS
 10
105.5183794709
 20
-145.5545950635761
 30
0.0
 40
4.6745324999999989
  1
 検図
  0
ENDBLK
  5
35E
  8
0
  0
BLOCK
  8
0
  2
*U46
 70
     1
 10
0.0
 20
0.0
 30
0.0
  3
*U46
  1

  0
TEXT
  5
360
  8
図枠
  6
CONTINUOUS
 10
165.96068488968169
 20
-119.6223907641056
 30
0.0
 40
4.6745324999999989
  1
製品名
  0
ENDBLK
  5
362
  8
0
  0
BLOCK
  8
0
  2
*U47
 70
     1
 10
0.0
 20
0.0
 30
0.0
  3
*U47
  1

  0
TEXT
  5
364
  8
図枠
  6
CONTINUOUS
 10
105.5183794709
 20
-137.007987880835
 30
0.0
 40
4.6745324999999989
  1
 照査
  0
ENDBLK
  5
366
  8
0
  0
BLOCK
  8
0
  2
*U48
 70
     1
 10
0.0
 20
0.0
 30
0.0
  3
*U48
  1

  0
TEXT
  5
368
  8
図枠
  6
CONTINUOUS
 10
53.964642809700003
 20
-160.27756209870759
 30
0.0
 40
8.6351362703000003
  1
株式会社
  0
ENDBLK
  5
36A
  8
0
  0
BLOCK
  8
0
  2
*U49
 70
     1
 10
0.0
 20
0.0
 30
0.0
  3
*U49
  1

  0
TEXT
  5
36C
  8
図枠
  6
CONTINUOUS
 10
51.214039081320053
 20
-88.722511433930961
 30
0.0
 40
5.6094389188999987
  1
材　　質
  0
ENDBLK
  5
36E
  8
0
  0
BLOCK
  8
0
  2
*U50
 70
     1
 10
0.0
 20
0.0
 30
0.0
  3
*U50
  1

  0
TEXT
  5
370
  8
図枠
  6
CONTINUOUS
 10
76.307087694250257
 20
-136.91307351535281
 30
0.0
 40
4.6745324999999989
  1
園 原
  0
ENDBLK
  5
372
  8
0
  0
BLOCK
  8
0
  2
*U51
 70
     1
 10
0.0
 20
0.0
 30
0.0
  3
*U51
  1

  0
TEXT
  5
374
  8
図枠
  6
CONTINUOUS
 10
45.524379470900001
 20
-136.98425928946449
 30
0.0
 40
4.6745324999999989
  1
 設計
  0
ENDBLK
  5
376
  8
0
  0
BLOCK
  8
0
  2
*U52
 70
     1
 10
0.0
 20
0.0
 30
0.0
  3
*U52
  1

  0
TEXT
  5
378
  8
図枠
  6
CONTINUOUS
 10
51.299462009019052
 20
-110.8911572893289
 30
0.0
 40
5.6094389188999987
  1
一般公差
  0
ENDBLK
  5
37A
  8
0
  0
BLOCK
  8
0
  2
*U53
 70
     1
 10
0.0
 20
0.0
 30
0.0
  3
*U53
  1

  0
TEXT
  5
37C
  8
図枠
  6
CONTINUOUS
 10
48.327017960747717
 20
-145.53086647220559
 30
0.0
 40
4.6745324999999989
  1
製図
  0
ENDBLK
  5
37E
  8
0
  0
BLOCK
  8
0
  2
*U54
 70
     1
 10
0.0
 20
0.0
 30
0.0
  3
*U54
  1

  0
TEXT
  5
380
  8
図枠
  6
CONTINUOUS
 10
119.920848599932
 20
-110.83420867086291
 30
0.0
 40
5.6094389188999987
  1
指定無き公差はJIS 0408-Bによること
  0
ENDBLK
  5
382
  8
0
  0
BLOCK
  8
0
  2
*U55
 70
     1
 10
0.0
 20
0.0
 30
0.0
  3
*U55
  1

  0
TEXT
  5
384
  8
図枠
  6
CONTINUOUS
 10
95.160849337651257
 20
-120.0334164722056
 30
0.0
 40
4.6745324999999989
  1
尺 　度
  0
ENDBLK
  5
386
  8
0
  0
BLOCK
  8
0
  2
*U56
 70
     1
 10
0.0
 20
0.0
 30
0.0
  3
*U56
  1

  0
TEXT
  5
388
  8
図枠
  6
CONTINUOUS
 10
57.964823119377151
 20
-128.2952805585
 30
0.0
 40
4.6745324999999989
  1
H12.5
  0
ENDBLK
  5
38A
  8
0
  0
BLOCK
  8
0
  2
*U57
 70
     1
 10
0.0
 20
0.0
 30
0.0
  3
*U57
  1

  0
TEXT
  5
38C
  8
図枠
  6
CONTINUOUS
 10
136.1587161460269
 20
-145.53086647220559
 30
0.0
 40
4.6745324999999989
  1
柳 原
  0
ENDBLK
  5
38E
  8
0
  0
BLOCK
  8
0
  2
*U58
 70
     1
 10
0.0
 20
0.0
 30
0.0
  3
*U58
  1

  0
TEXT
  5
390
  8
ﾚｲﾔ_1
  6
CONTINUOUS
 10
83.728779862400003
 20
-58.171437505892897
 30
0.0
 40
5.9972220420999998
  1
皿加工部詳細
  0
ENDBLK
  5
392
  8
0
  0
BLOCK
  8
0
  2
*U59
 70
     1
 10
0.0
 20
0.0
 30
0.0
  3
*U59
  1

  0
TEXT
  5
394
  8
図枠
  6
CONTINUOUS
 10
99.313352827498974
 20
-128.2952805585
 30
0.0
 40
4.6745324999999989
  1
1：2
  0
ENDBLK
  5
396
  8
0
  0
BLOCK
  8
0
  2
*U60
 70
     1
 10
0.0
 20
0.0
 30
0.0
  3
*U60
  1

  0
TEXT
  5
398
  8
図枠
  6
CONTINUOUS
 10
136.1587161460269
 20
-137.0317164722056
 30
0.0
 40
4.6745324999999989
  1
柳 原
  0
ENDBLK
  5
39A
  8
0
  0
BLOCK
  8
0
  2
*D61
 70
     1
 10
0.0
 20
0.0
 30
0.0
  3
*D61
  1

  0
LINE
  5
39C
  8
寸法線
 62
     0
 10
-65.083911583916432
 20
-57.474026211026029
 30
0.0
 11
-60.732670626634047
 21
-53.603019682005851
 31
0.0
  0
LINE
  5
39D
  8
寸法線
 62
     0
 10
-74.237963416083574
 20
-57.474026211026029
 30
0.0
 11
-78.589204373365945
 21
-53.603019682005851
 31
0.0
  0
ARC
  5
39E
  8
寸法線
 62
     0
 10
-69.660937500000003
 20
-61.5458984375
 30
0.0
 40
10.700032313199999
 50
48.086387495017618
 51
80.221991671766233
  0
ARC
  5
39F
  8
寸法線
 62
     0
 10
-69.660937500000003
 20
-61.5458984375
 30
0.0
 40
10.700032313199999
 50
99.778008328233767
 51
131.91361250498241
  0
SOLID
  5
3A0
  8
寸法線
 62
     0
 10
-62.371478346466283
 20
-53.442334061206189
 30
0.0
 11
-62.654952912818331
 21
-53.724543527651797
 31
0.0
 12
-61.666587230305467
 22
-54.433862493485158
 32
0.0
 13
-61.666587230305467
 23
-54.433862493485158
 33
0.0
  0
SOLID
  5
3A1
  8
寸法線
 62
     0
 10
-76.666922087181661
 20
-53.724543527651797
 30
0.0
 11
-76.950396653533716
 21
-53.442334061206189
 31
0.0
 12
-77.655287769694525
 22
-54.433862493485158
 32
0.0
 13
-77.655287769694525
 23
-54.433862493485158
 33
0.0
  0
TEXT
  8
寸法線
  40
1.0795
  5
3D8
  62
0
  72
0
  71
0
 10
-71.8199
 20
-52.7566
 30
0.000000
  1
97°
  0
POINT
  5
3A3
  8
DEFPOINTS
 62
     0
 10
-69.660937500000003
 20
-61.5458984375
 30
0.0
  0
POINT
  5
3A4
  8
DEFPOINTS
 62
     0
 10
-65.130607414099998
 20
-57.515568351599988
 30
0.0
  0
POINT
  5
3A5
  8
DEFPOINTS
 62
     0
 10
-74.191267585899993
 20
-57.515568351599988
 30
0.0
  0
POINT
  5
3A6
  8
DEFPOINTS
 62
     0
 10
-66.691110370601422
 20
-51.266267202625258
 30
0.0
  0
ENDBLK
  5
3A8
  8
0
  0
BLOCK
  8
0
  2
*D62
 70
     1
 10
0.0
 20
0.0
 30
0.0
  3
*D62
  1

  0
LINE
  5
3AA
  8
寸法線
 62
     0
 10
-51.723437500000003
 20
-57.7958984375
 30
0.0
 11
-83.690851826389078
 21
-57.795898437499993
 31
0.0
  0
LINE
  5
3AB
  8
寸法線
 62
     0
 10
-138.4609375
 20
28.941601562500001
 30
0.0
 11
-138.4609375
 21
-3.0258127638890491
 31
0.0
  0
ARC
  5
3AC
  8
寸法線
 62
     0
 10
-138.4609375
 20
-57.7958984375
 30
0.0
 40
56.020085673610943
 50
6.139569415284865
 51
43.526103184033587
  0
ARC
  5
3AD
  8
寸法線
 62
     0
 10
-138.4609375
 20
-57.7958984375
 30
0.0
 40
56.020085673610943
 50
62.401272392295802
 51
83.860430584715118
  0
SOLID
  5
3AE
  8
寸法線
 62
     0
 10
-81.763600101205228
 20
-51.75095591496634
 30
0.0
 11
-83.760730201766648
 21
-51.858060356665298
 31
0.0
 12
-82.440851826389064
 22
-57.7958984375
 32
0.0
 13
-82.440851826389064
 23
-57.7958984375
 33
0.0
  0
SOLID
  5
3AF
  8
寸法線
 62
     0
 10
-132.52309941916531
 20
-3.0956911392666342
 30
0.0
 11
-132.41599497746631
 21
-1.098561038705234
 31
0.0
 12
-138.4609375
 22
-1.7758127638890491
 32
0.0
 13
-138.4609375
 23
-1.7758127638890491
 33
0.0
  0
TEXT
  8
寸法線
  40
5.99722
  5
3D9
  62
0
  72
0
  71
0
 10
-116.713
 20
-23.6927
 30
0.000000
  1
90°
  0
POINT
  5
3B1
  8
DEFPOINTS
 62
     0
 10
-138.4609375
 20
-57.7958984375
 30
0.0
  0
POINT
  5
3B2
  8
DEFPOINTS
 62
     0
 10
-51.660937500000003
 20
-57.7958984375
 30
0.0
  0
POINT
  5
3B3
  8
DEFPOINTS
 62
     0
 10
-138.4609375
 20
29.004101562500001
 30
0.0
  0
POINT
  5
3B4
  8
DEFPOINTS
 62
     0
 10
-89.946120184472264
 20
-29.785855600694539
 30
0.0
  0
ENDBLK
  5
3B6
  8
0
  0
BLOCK
  8
0
  2
*U63
 70
     1
 10
0.0
 20
0.0
 30
0.0
  3
*U63
  1

  0
TEXT
  5
3B8
  8
寸法線
  6
CONTINUOUS
 62
     0
 10
90.335911248542487
 20
-33.064128831996634
 30
0.0
 40
4.4979165315999996
  1
\U+2205
  0
TEXT
  5
3B9
  8
寸法線
  6
CONTINUOUS
 62
     0
 10
94.833827780142485
 20
-33.064128831996634
 30
0.0
 40
4.4979165315999996
  1
4.5
  0
ENDBLK
  5
3BB
  8
0
  0
BLOCK
  8
0
  2
*U64
 70
     1
 10
0.0
 20
0.0
 30
0.0
  3
*U64
  1

  0
TEXT
  5
3BD
  8
寸法線
  6
CONTINUOUS
 62
     0
 10
73.594624140257963
 20
10.705780320053069
 30
0.0
 40
4.4979165315999996
  1
90°
 50
0.9101745685689267
  0
ENDBLK
  5
3BF
  8
0
  0
BLOCK
  8
0
  2
*U65
 70
     1
 10
0.0
 20
0.0
 30
0.0
  3
*U65
  1

  0
TEXT
  5
3C1
  8
寸法線
  6
CONTINUOUS
 62
     0
 10
76.936289758292261
 20
-1.3679635230942471
 30
0.0
 40
4.4979165315999996
  1
φ8
  0
ENDBLK
  5
3C3
  8
0
  0
BLOCK
  8
0
  2
*U66
 70
     1
 10
0.0
 20
0.0
 30
0.0
  3
*U66
  1

  0
TEXT
  5
3D0
  8
寸法線
  6
CONTINUOUS
 62
     0
 10
99.445337014479051
 20
-7.1288947236447378
 30
0.0
 40
5.9972220420999998
  1
φ8
  0
ENDBLK
  5
3D2
  8
0
  0
BLOCK
  8
0
  2
*U67
 70
     1
 10
0.0
 20
0.0
 30
0.0
  3
*U67
  1

  0
TEXT
  5
3D4
  8
寸法線
  6
CONTINUOUS
 62
     0
 10
125.5925277915459
 20
-38.825060032547121
 30
0.0
 40
5.9972220420999998
  1
φ4
  0
ENDBLK
  5
3D6
  8
0
  0
ENDSEC
  0
SECTION
  2
ENTITIES
  0
INSERT
  5
2F
  8
0
  6
CONTINUOUS
  2
*U27
 10
0.0
 20
0.0
 30
0.0
  0
LINE
  5
30
  8
図枠
 62
     5
 10
92.001160555799999
 20
186.22091499320001
 30
0.0
 11
101.9001705558
 21
186.22091499320001
 31
0.0
  0
LINE
  5
31
  8
図枠
 62
     5
 10
92.001160555799999
 20
196.11992499319999
 30
0.0
 11
101.9001705558
 21
196.11992499319999
 31
0.0
  0
LINE
  5
32
  8
図枠
 62
     5
 10
96.950665555800001
 20
194.7937091254999
 30
0.0
 11
101.9001705558
 21
186.22091499320001
 31
0.0
  0
LINE
  5
33
  8
図枠
 62
     5
 10
96.950665555800001
 20
194.7937091254999
 30
0.0
 11
92.001160555799999
 21
186.22091499320001
 31
0.0
  0
LINE
  5
34
  8
図枠
 62
     5
 10
89.519979470899983
 20
185.25942764960001
 30
0.0
 11
277.50117947090001
 21
185.25942764960001
 31
0.0
  0
LINE
  5
35
  8
図枠
 62
     5
 10
137.51517947089999
 20
185.25942764960001
 30
0.0
 11
137.51517947089999
 21
215.2564276496
 31
0.0
  0
INSERT
  5
36
  8
0
  6
CONTINUOUS
  2
*U28
 10
0.0
 20
0.0
 30
0.0
  0
LINE
  5
37
  8
図枠
 62
     5
 10
89.519979470899983
 20
195.25842764960001
 30
0.0
 11
277.50117947090001
 21
195.25842764960001
 31
0.0
  0
LINE
  5
38
  8
図枠
 62
     5
 10
89.519979470899983
 20
205.2574276496
 30
0.0
 11
277.50117947090001
 21
205.2574276496
 31
0.0
  0
LINE
  5
39
  8
図枠
 62
     5
 10
257.50317947090002
 20
185.25942764960001
 30
0.0
 11
257.50317947090002
 21
215.2564276496
 31
0.0
  0
LINE
  5
3B
  8
ﾚｲﾔ_1
  6
STITCH
 10
147.39960937500001
 20
123.0232421875
 30
0.0
 11
147.39960937500001
 21
118.5232421875
 31
0.0
  0
LINE
  5
3C
  8
ﾚｲﾔ_1
  6
STITCH
 10
147.39960937500001
 20
118.5232421875
 30
0.0
 11
148.599609375
 21
118.5232421875
 31
0.0
  0
LINE
  5
3D
  8
ﾚｲﾔ_1
  6
STITCH
 10
145.39960937500001
 20
125.0232421875
 30
0.0
 11
147.39960937500001
 21
123.0232421875
 31
0.0
  0
LINE
  5
3E
  8
ﾚｲﾔ_1
  6
STITCH
 10
147.39960937500001
 20
118.5232421875
 30
0.0
 11
145.39960937500001
 21
116.5232421875
 31
0.0
  0
CIRCLE
  5
3F
  8
ﾚｲﾔ_1
 62
     5
 10
120.599609375
 20
120.7732421875
 30
0.0
 40
2.25
  0
CIRCLE
  5
40
  8
ﾚｲﾔ_1
 62
     5
 10
98.599609375
 20
120.7732421875
 30
0.0
 40
2.25
  0
CIRCLE
  5
41
  8
ﾚｲﾔ_1
 62
     5
 10
76.599609375
 20
120.7732421875
 30
0.0
 40
2.25
  0
CIRCLE
  5
42
  8
ﾚｲﾔ_1
  6
STITCH
 10
76.599609375
 20
120.7732421875
 30
0.0
 40
4.25
  0
CIRCLE
  5
43
  8
ﾚｲﾔ_1
  6
STITCH
 10
98.599609375
 20
120.7732421875
 30
0.0
 40
4.25
  0
CIRCLE
  5
44
  8
ﾚｲﾔ_1
  6
STITCH
 10
120.599609375
 20
120.7732421875
 30
0.0
 40
4.25
  0
LINE
  5
45
  8
ﾚｲﾔ_1
  6
BORDER
 62
     3
 10
125.599609375
 20
120.7732421875
 30
0.0
 11
115.599609375
 21
120.7732421875
 31
0.0
  0
DIMENSION
  5
56
  8
寸法線
  2
*D0
 10
76.599609375
 20
81.773242187499989
 30
0.0
 11
87.599609375
 21
81.773242187499989
 31
0.0
 70
   128
  1
<>
 13
76.599609375
 23
115.7732421875
 33
0.0
 14
98.599609375
 24
115.7732421875
 34
0.0
 50
180.0
  0
DIMENSION
  5
65
  8
寸法線
  2
*D1
 10
98.599609375
 20
81.773242187499989
 30
0.0
 11
109.599609375
 21
81.773242187499989
 31
0.0
 70
   128
  1
<>
 13
98.599609375
 23
115.7732421875
 33
0.0
 14
120.599609375
 24
115.7732421875
 34
0.0
 50
180.0
  0
DIMENSION
  5
74
  8
寸法線
  2
*D2
 10
120.599609375
 20
81.773242187499989
 30
0.0
 11
134.599609375
 21
81.773242187499989
 31
0.0
 70
   128
  1
<>
 13
120.599609375
 23
115.7732421875
 33
0.0
 14
148.599609375
 24
101.7732421875
 34
0.0
 50
180.0
  0
DIMENSION
  5
83
  8
寸法線
  2
*D3
 10
38.599609375
 20
139.77324218749999
 30
0.0
 11
38.599609375
 21
130.27324218749999
 31
0.0
 70
   128
  1
<>
 13
58.599609375
 23
139.77324218749999
 33
0.0
 14
71.599609375
 24
120.7732421875
 34
0.0
 50
90.0
  0
DIMENSION
  5
92
  8
寸法線
  2
*D4
 10
38.599609375
 20
120.7732421875
 30
0.0
 11
38.599609375
 21
111.2732421875
 31
0.0
 70
   128
  1
<>
 13
71.599609375
 23
120.7732421875
 33
0.0
 14
58.599609375
 24
101.7732421875
 34
0.0
 50
90.0
  0
DIMENSION
  5
A1
  8
寸法線
  2
*D5
 10
58.599609375
 20
81.773242187499989
 30
0.0
 11
67.599609375
 21
81.773242187499989
 31
0.0
 70
   128
  1
<>
 13
58.599609375
 23
101.7732421875
 33
0.0
 14
76.599609375
 24
115.7732421875
 34
0.0
 50
180.0
  0
LINE
  5
A2
  8
図枠
 62
     5
 10
237.5051794709
 20
185.25942764960001
 30
0.0
 11
237.5051794709
 21
215.2564276496
 31
0.0
  0
LINE
  5
A3
  8
図枠
 62
     5
 10
89.519979470899983
 20
185.25942764960001
 30
0.0
 11
89.519979470899983
 21
215.2564276496
 31
0.0
  0
LINE
  5
A4
  8
図枠
 62
     5
 10
96.950665555800001
 20
204.69271912549999
 30
0.0
 11
92.001160555799999
 21
196.11992499319999
 31
0.0
  0
LINE
  5
A5
  8
図枠
 62
     5
 10
96.950665555800001
 20
204.69271912549999
 30
0.0
 11
101.9001705558
 21
196.11992499319999
 31
0.0
  0
LINE
  5
A6
  8
図枠
 62
     5
 10
105.5183794709
 20
185.25942764960001
 30
0.0
 11
105.5183794709
 21
215.2564276496
 31
0.0
  0
INSERT
  5
A7
  8
0
  6
CONTINUOUS
  2
*U29
 10
0.0
 20
0.0
 30
0.0
  0
INSERT
  5
A8
  8
0
  6
CONTINUOUS
  2
*U30
 10
0.0
 20
0.0
 30
0.0
  0
INSERT
  5
A9
  8
0
  6
CONTINUOUS
  2
*U31
 10
0.0
 20
0.0
 30
0.0
  0
LINE
  5
AA
  8
図枠
 10
143.71390420259999
 20
-160.20974523109999
 30
0.0
 11
149.77623124260001
 21
-160.20974523109999
 31
0.0
  0
LINE
  5
AB
  8
図枠
 10
153.0712738684
 20
-156.05016123109999
 30
0.0
 11
158.11246420259999
 21
-156.05016123109999
 31
0.0
  0
LINE
  5
AC
  8
図枠
 10
148.17507499710001
 20
-119.90605275039999
 30
0.0
 11
148.17507499710001
 21
-124.5135919504
 31
0.0
  0
LINE
  5
AD
  8
図枠
 10
143.71390420259999
 20
-157.3300332311
 30
0.0
 11
143.71390420259999
 21
-160.20974523109999
 31
0.0
  0
INSERT
  5
AE
  8
0
  6
CONTINUOUS
  2
*U32
 10
0.0
 20
0.0
 30
0.0
  0
LINE
  5
AF
  8
図枠
 10
148.17507499710001
 20
-119.90605275039999
 30
0.0
 11
148.17507499710001
 21
-124.5135919504
 31
0.0
  0
LINE
  5
B0
  8
図枠
 10
45.524379470900001
 20
-113.7106723504
 30
0.0
 11
277.50117947090001
 21
-113.7106723504
 31
0.0
  0
LINE
  5
B1
  8
図枠
 10
115.1118227626
 20
-153.65040123110001
 30
0.0
 11
111.9121427626
 21
-153.65040123110001
 31
0.0
  0
LINE
  5
B2
  8
図枠
 10
148.17507499710001
 20
-119.90605275039999
 30
0.0
 11
157.39015339709999
 21
-117.6022831504
 31
0.0
  0
LINE
  5
B3
  8
図枠
 10
152.24259421799999
 20
-153.17044923110001
 30
0.0
 11
158.11246420259999
 21
-153.17044923110001
 31
0.0
  0
LINE
  5
B4
  8
図枠
 10
147.71137108260001
 20
-153.17044923110001
 30
0.0
 11
146.91358420259999
 21
-150.4507212311
 31
0.0
  0
LINE
  5
B5
  8
図枠
 10
143.71390420259999
 20
-156.05016123109999
 30
0.0
 11
148.5560866026
 21
-156.05016123109999
 31
0.0
  0
LINE
  5
B6
  8
図枠
 10
195.5093794709
 20
-91.712872350400005
 30
0.0
 11
195.5093794709
 21
-80.713972350399999
 31
0.0
  0
LINE
  5
B7
  8
ﾚｲﾔ_1
 62
     5
 10
145.39960937500001
 20
139.77324218749999
 30
0.0
 11
145.39960937500001
 21
101.7732421875
 31
0.0
  0
LINE
  5
B8
  8
ﾚｲﾔ_1
 62
     5
 10
148.599609375
 20
139.77324218749999
 30
0.0
 11
148.599609375
 21
101.7732421875
 31
0.0
  0
LINE
  5
B9
  8
ﾚｲﾔ_1
 62
     5
 10
58.599609375
 20
139.77324218749999
 30
0.0
 11
148.599609375
 21
139.77324218749999
 31
0.0
  0
LINE
  5
BA
  8
ﾚｲﾔ_1
 62
     5
 10
58.599609375
 20
101.7732421875
 30
0.0
 11
58.599609375
 21
139.77324218749999
 31
0.0
  0
LINE
  5
BB
  8
ﾚｲﾔ_1
 62
     5
 10
148.599609375
 20
101.7732421875
 30
0.0
 11
58.599609375
 21
101.7732421875
 31
0.0
  0
LINE
  5
BC
  8
ﾚｲﾔ_1
  6
BORDER
 62
     3
 10
152.01273172059999
 20
120.7732421875
 30
0.0
 11
142.01273172059999
 21
120.7732421875
 31
0.0
  0
LINE
  5
BD
  8
ﾚｲﾔ_1
  6
BORDER
 62
     3
 10
76.599609375
 20
125.7732421875
 30
0.0
 11
76.599609375
 21
115.7732421875
 31
0.0
  0
LINE
  5
BE
  8
ﾚｲﾔ_1
  6
BORDER
 62
     3
 10
81.599609375000014
 20
120.7732421875
 30
0.0
 11
71.599609375
 21
120.7732421875
 31
0.0
  0
LINE
  5
BF
  8
ﾚｲﾔ_1
  6
BORDER
 62
     3
 10
103.599609375
 20
120.7732421875
 30
0.0
 11
93.599609375
 21
120.7732421875
 31
0.0
  0
LINE
  5
C0
  8
ﾚｲﾔ_1
  6
BORDER
 62
     3
 10
98.599609375
 20
125.7732421875
 30
0.0
 11
98.599609375
 21
115.7732421875
 31
0.0
  0
LINE
  5
C1
  8
ﾚｲﾔ_1
  6
BORDER
 62
     3
 10
120.599609375
 20
125.7732421875
 30
0.0
 11
120.599609375
 21
115.7732421875
 31
0.0
  0
LINE
  5
C2
  8
ﾚｲﾔ_1
  6
STITCH
 10
147.39960937500001
 20
123.0232421875
 30
0.0
 11
148.599609375
 21
123.0232421875
 31
0.0
  0
LINE
  5
C3
  8
図枠
 10
153.4395759352
 20
-157.3300332311
 30
0.0
 11
158.11246420259999
 21
-157.3300332311
 31
0.0
  0
LINE
  5
C4
  8
図枠
 10
143.71390420259999
 20
-153.17044923110001
 30
0.0
 11
147.71137108260001
 21
-153.17044923110001
 31
0.0
  0
LINE
  5
C5
  8
図枠
 10
158.11246420259999
 20
-153.17044923110001
 30
0.0
 11
158.11246420259999
 21
-156.05016123109999
 31
0.0
  0
LINE
  5
C6
  8
図枠
 10
154.2682555856
 20
-160.20974523109999
 30
0.0
 11
158.11246420259999
 21
-160.20974523109999
 31
0.0
  0
LINE
  5
C7
  8
図枠
 10
148.17507499710001
 20
-124.5135919504
 30
0.0
 11
157.39015339709999
 21
-126.81736155039999
 31
0.0
  0
LINE
  5
C8
  8
図枠
 10
150.43323220260001
 20
-162.44952123109999
 30
0.0
 11
149.77623124260001
 21
-160.20974523109999
 31
0.0
  0
LINE
  5
C9
  8
図枠
 10
153.4395759352
 20
-157.3300332311
 30
0.0
 11
153.0712738684
 21
-156.05016123109999
 31
0.0
  0
LINE
  5
CA
  8
図枠
 10
148.17507499710001
 20
-124.5135919504
 30
0.0
 11
157.39015339709999
 21
-126.81736155039999
 31
0.0
  0
LINE
  5
CB
  8
図枠
 10
143.71390420259999
 20
-153.17044923110001
 30
0.0
 11
143.71390420259999
 21
-156.05016123109999
 31
0.0
  0
LINE
  5
CC
  8
図枠
 10
165.51237947089999
 20
-113.7106723504
 30
0.0
 11
165.51237947089999
 21
-164.70557235039999
 31
0.0
  0
LINE
  5
CD
  8
図枠
 10
148.17507499710001
 20
-124.5135919504
 30
0.0
 11
157.39015339709999
 21
-126.81736155039999
 31
0.0
  0
LINE
  5
CE
  8
図枠
 10
148.17507499710001
 20
-124.5135919504
 30
0.0
 11
157.39015339709999
 21
-126.81736155039999
 31
0.0
  0
INSERT
  5
CF
  8
0
  6
CONTINUOUS
  2
*U33
 10
0.0
 20
0.0
 30
0.0
  0
INSERT
  5
D0
  8
0
  6
CONTINUOUS
  2
*U34
 10
0.0
 20
0.0
 30
0.0
  0
LINE
  5
D1
  8
図枠
 10
119.1114227626
 20
-156.85008123110001
 30
0.0
 11
119.1114227626
 21
-156.05016123109999
 31
0.0
  0
LINE
  5
D2
  8
図枠
 10
85.520379470899996
 20
-113.7106723504
 30
0.0
 11
85.520379470899996
 21
-130.70897235039999
 31
0.0
  0
LINE
  5
D3
  8
図枠
 10
152.24259421799999
 20
-153.17044923110001
 30
0.0
 11
152.00838684070001
 21
-152.35656440299999
 31
0.0
  0
LINE
  5
D4
  8
図枠
 10
157.39015339709999
 20
-117.6022831504
 30
0.0
 11
157.39015339709999
 21
-126.81736155039999
 31
0.0
  0
LINE
  5
D5
  8
図枠
 10
148.17507499710001
 20
-119.90605275039999
 30
0.0
 11
157.39015339709999
 21
-117.6022831504
 31
0.0
  0
LINE
  5
D6
  8
図枠
 10
148.17507499710001
 20
-119.90605275039999
 30
0.0
 11
148.17507499710001
 21
-124.5135919504
 31
0.0
  0
LINE
  5
D7
  8
図枠
 10
148.17507499710001
 20
-119.90605275039999
 30
0.0
 11
157.39015339709999
 21
-117.6022831504
 31
0.0
  0
LINE
  5
D8
  8
図枠
 10
159.51297947090001
 20
-91.712872350400005
 30
0.0
 11
159.51297947090001
 21
-80.713972350399999
 31
0.0
  0
INSERT
  5
D9
  8
0
  6
CONTINUOUS
  2
*U35
 10
0.0
 20
0.0
 30
0.0
  0
INSERT
  5
DA
  8
0
  6
CONTINUOUS
  2
*U36
 10
0.0
 20
0.0
 30
0.0
  0
INSERT
  5
DB
  8
0
  6
CONTINUOUS
  2
*U37
 10
0.0
 20
0.0
 30
0.0
  0
LINE
  5
DC
  8
図枠
 10
150.43323220260001
 20
-162.44952123109999
 30
0.0
 11
154.91278420259999
 21
-162.44952123109999
 31
0.0
  0
LINE
  5
DD
  8
図枠
 10
146.91358420259999
 20
-150.4507212311
 30
0.0
 11
153.31294420259999
 21
-150.4507212311
 31
0.0
  0
LINE
  5
DE
  8
図枠
 10
154.91278420259999
 20
-162.44952123109999
 30
0.0
 11
154.2682555856
 21
-160.20974523109999
 31
0.0
  0
LINE
  5
DF
  8
図枠
 10
158.11246420259999
 20
-157.3300332311
 30
0.0
 11
158.11246420259999
 21
-160.20974523109999
 31
0.0
  0
INSERT
  5
E0
  8
0
  6
CONTINUOUS
  2
*U38
 10
0.0
 20
0.0
 30
0.0
  0
LINE
  5
E1
  8
図枠
 10
121.5111827626
 20
-153.65040123110001
 30
0.0
 11
121.5111827626
 21
-156.05016123109999
 31
0.0
  0
LINE
  5
E2
  8
図枠
 10
121.5111827626
 20
-153.65040123110001
 30
0.0
 11
119.1114227626
 21
-153.65040123110001
 31
0.0
  0
INSERT
  5
E3
  8
0
  6
CONTINUOUS
  2
*U39
 10
0.0
 20
0.0
 30
0.0
  0
LINE
  5
E4
  8
図枠
 10
107.9125427626
 20
-150.4507212311
 30
0.0
 11
107.9125427626
 21
-153.65040123110001
 31
0.0
  0
LINE
  5
E5
  8
図枠
 10
107.9125427626
 20
-156.05016123109999
 30
0.0
 11
107.9125427626
 21
-158.44992123110001
 31
0.0
  0
ARC
  5
E6
  8
図枠
 10
129.76732676259999
 20
-152.85048123109999
 30
0.0
 40
8.7991200000000003
 50
270.0
 51
302.54495885400001
  0
LINE
  5
E7
  8
図枠
 10
49.523979470900002
 20
-122.2098223504
 30
0.0
 11
81.520779470899996
 21
-122.2098223504
 31
0.0
  0
INSERT
  5
E8
  8
0
  6
CONTINUOUS
  2
*U40
 10
0.0
 20
0.0
 30
0.0
  0
LINE
  5
E9
  8
図枠
 10
132.16708676260001
 20
-154.16572612140001
 30
0.0
 11
131.26208059230001
 21
-155.07073229170001
 31
0.0
  0
CIRCLE
  5
EA
  8
図枠
 10
137.6431666709
 20
-122.2098223504
 30
0.0
 40
2.303769599999999
  0
INSERT
  5
EB
  8
0
  6
CONTINUOUS
  2
*U41
 10
0.0
 20
0.0
 30
0.0
  0
INSERT
  5
EC
  8
0
  6
CONTINUOUS
  2
*U42
 10
0.0
 20
0.0
 30
0.0
  0
LINE
  5
ED
  8
図枠
 10
157.39015339709999
 20
-117.6022831504
 30
0.0
 11
157.39015339709999
 21
-126.81736155039999
 31
0.0
  0
LINE
  5
EE
  8
図枠
 10
143.71390420259999
 20
-157.3300332311
 30
0.0
 11
148.93151572260001
 21
-157.3300332311
 31
0.0
  0
LINE
  5
EF
  8
図枠
 10
152.00838684070001
 20
-152.35656440299999
 30
0.0
 11
153.31294420259999
 21
-150.4507212311
 31
0.0
  0
INSERT
  5
F0
  8
0
  6
CONTINUOUS
  2
*U43
 10
0.0
 20
0.0
 30
0.0
  0
LINE
  5
F1
  8
図枠
 10
157.39015339709999
 20
-117.6022831504
 30
0.0
 11
157.39015339709999
 21
-126.81736155039999
 31
0.0
  0
INSERT
  5
F2
  8
0
  6
CONTINUOUS
  2
*U44
 10
0.0
 20
0.0
 30
0.0
  0
LINE
  5
F3
  8
図枠
 10
119.1114227626
 20
-156.05016123109999
 30
0.0
 11
121.5111827626
 21
-156.05016123109999
 31
0.0
  0
LINE
  5
F4
  8
図枠
 10
148.17507499710001
 20
-119.90605275039999
 30
0.0
 11
157.39015339709999
 21
-117.6022831504
 31
0.0
  0
LINE
  5
F5
  8
図枠
 10
107.9125427626
 20
-153.65040123110001
 30
0.0
 11
106.0709608407
 21
-153.65040123110001
 31
0.0
  0
INSERT
  5
F6
  8
0
  6
CONTINUOUS
  2
*U45
 10
0.0
 20
0.0
 30
0.0
  0
LINE
  5
F7
  8
図枠
 10
105.5183794709
 20
-130.70897235039999
 30
0.0
 11
105.5183794709
 21
-147.70727235039999
 31
0.0
  0
INSERT
  5
F8
  8
0
  6
CONTINUOUS
  2
*U46
 10
0.0
 20
0.0
 30
0.0
  0
LINE
  5
F9
  8
図枠
 10
157.39015339709999
 20
-117.6022831504
 30
0.0
 11
157.39015339709999
 21
-126.81736155039999
 31
0.0
  0
LINE
  5
FA
  8
図枠
 10
107.9125427626
 20
-156.05016123109999
 30
0.0
 11
107.6708008407
 21
-156.05016123109999
 31
0.0
  0
LINE
  5
FB
  8
図枠
 10
119.1114227626
 20
-153.65040123110001
 30
0.0
 11
119.1114227626
 21
-152.85048123109999
 31
0.0
  0
LINE
  5
FC
  8
図枠
 10
148.17507499710001
 20
-119.90605275039999
 30
0.0
 11
148.17507499710001
 21
-124.5135919504
 31
0.0
  0
LINE
  5
FD
  8
図枠
 10
148.93151572260001
 20
-157.3300332311
 30
0.0
 11
148.5560866026
 21
-156.05016123109999
 31
0.0
  0
LINE
  5
FE
  8
図枠
 10
125.51637947090001
 20
-113.7106723504
 30
0.0
 11
125.51637947090001
 21
-130.70897235039999
 31
0.0
  0
INSERT
  5
FF
  8
0
  6
CONTINUOUS
  2
*U47
 10
0.0
 20
0.0
 30
0.0
  0
LINE
  5
100
  8
図枠
 10
125.76772676260001
 20
-150.4507212311
 30
0.0
 11
125.76772676260001
 21
-153.33043323109999
 31
0.0
  0
ARC
  5
101
  8
図枠
 10
112.7120627626
 20
-156.85008123110001
 30
0.0
 40
2.3997599999999988
 50
270.0
 51
0.0
  0
LINE
  5
102
  8
図枠
 10
125.76772676260001
 20
-154.16572612140001
 30
0.0
 11
132.16708676260001
 21
-154.16572612140001
 31
0.0
  0
CIRCLE
  5
103
  8
図枠
 10
137.6431666709
 20
-122.2098223504
 30
0.0
 40
2.303769599999999
  0
CIRCLE
  5
104
  8
図枠
 10
137.6431666709
 20
-122.2098223504
 30
0.0
 40
4.6075391999999988
  0
ARC
  5
105
  8
図枠
 10
127.6875347626
 20
-153.17044923110001
 30
0.0
 40
6.0793919999999986
 50
331.39928138329998
 51
358.49204224580001
  0
LINE
  5
106
  8
図枠
 10
111.9121427626
 20
-153.65040123110001
 30
0.0
 11
111.9121427626
 21
-152.85048123109999
 31
0.0
  0
LINE
  5
107
  8
図枠
 10
121.5111827626
 20
-150.4507212311
 30
0.0
 11
115.1118227626
 21
-150.4507212311
 31
0.0
  0
LINE
  5
108
  8
図枠
 10
45.524379470900001
 20
-113.7106723504
 30
0.0
 11
45.524379470900001
 21
-164.70557235039999
 31
0.0
  0
LINE
  5
109
  8
図枠
 10
45.524379470900001
 20
-80.713972350399999
 30
0.0
 11
45.524379470900001
 21
-113.7106723504
 31
0.0
  0
LINE
  5
10A
  8
図枠
 10
107.9125427626
 20
-158.44992123110001
 30
0.0
 11
111.9121427626
 21
-158.44992123110001
 31
0.0
  0
LINE
  5
10B
  8
図枠
 10
85.520379470899996
 20
-113.7106723504
 30
0.0
 11
85.520379470899996
 21
-80.713972350399999
 31
0.0
  0
LINE
  5
10C
  8
図枠
 10
125.76772676260001
 20
-159.24984123109999
 30
0.0
 11
127.6875347626
 21
-159.24984123109999
 31
0.0
  0
LINE
  5
10D
  8
図枠
 10
107.9125427626
 20
-161.64960123110001
 30
0.0
 11
114.3119027626
 21
-161.64960123110001
 31
0.0
  0
LINE
  5
10E
  8
図枠
 10
125.76772676260001
 20
-161.64960123110001
 30
0.0
 11
129.76732676259999
 21
-161.64960123110001
 31
0.0
  0
LINE
  5
10F
  8
図枠
 10
111.9121427626
 20
-156.05016123109999
 30
0.0
 11
115.1118227626
 21
-156.05016123109999
 31
0.0
  0
LINE
  5
110
  8
図枠
 10
125.76772676260001
 20
-161.64960123110001
 30
0.0
 11
125.76772676260001
 21
-159.24984123109999
 31
0.0
  0
LINE
  5
111
  8
図枠
 10
115.1118227626
 20
-150.4507212311
 30
0.0
 11
115.1118227626
 21
-153.65040123110001
 31
0.0
  0
LINE
  5
112
  8
図枠
 10
119.1114227626
 20
-152.85048123109999
 30
0.0
 11
121.5111827626
 21
-150.4507212311
 31
0.0
  0
CIRCLE
  5
113
  8
図枠
 10
137.6431666709
 20
-122.2098223504
 30
0.0
 40
4.6075391999999988
  0
CIRCLE
  5
114
  8
図枠
 10
137.6431666709
 20
-122.2098223504
 30
0.0
 40
2.303769599999999
  0
LINE
  5
115
  8
図枠
 10
115.1118227626
 20
-156.05016123109999
 30
0.0
 11
115.1118227626
 21
-156.85008123110001
 31
0.0
  0
LINE
  5
116
  8
図枠
 10
112.7120627626
 20
-159.24984123109999
 30
0.0
 11
107.9125427626
 21
-159.24984123109999
 31
0.0
  0
ARC
  5
117
  8
図枠
 10
129.76732676259999
 20
-152.85048123109999
 30
0.0
 40
8.7991200000000003
 50
322.48761197969998
 51
0.0
  0
CIRCLE
  5
118
  8
図枠
 10
137.6431666709
 20
-122.2098223504
 30
0.0
 40
2.303769599999999
  0
LINE
  5
119
  8
図枠
  6
BORDER
 10
137.6431666709
 20
-115.2985135504
 30
0.0
 11
137.6431666709
 21
-129.1211311504
 31
0.0
  0
LINE
  5
11A
  8
図枠
  6
BORDER
 10
137.6431666709
 20
-115.2985135504
 30
0.0
 11
137.6431666709
 21
-129.1211311504
 31
0.0
  0
POLYLINE
  8
図枠
  5
3DA
  66
     1
 10
0.000000
 20
0.000000
 30
0.000000
  70
     8
  0
VERTEX
  8
図枠
  5
3DB
 10
136.462
 20
-158.488
 30
0.000000
  70
    32
  0
VERTEX
  8
図枠
  5
3DC
 10
136.490
 20
-158.495
 30
0.000000
  70
    32
  0
VERTEX
  8
図枠
  5
3DD
 10
136.518
 20
-158.503
 30
0.000000
  70
    32
  0
VERTEX
  8
図枠
  5
3DE
 10
136.546
 20
-158.511
 30
0.000000
  70
    32
  0
VERTEX
  8
図枠
  5
3DF
 10
136.574
 20
-158.519
 30
0.000000
  70
    32
  0
VERTEX
  8
図枠
  5
3E0
 10
136.602
 20
-158.527
 30
0.000000
  70
    32
  0
VERTEX
  8
図枠
  5
3E1
 10
136.630
 20
-158.534
 30
0.000000
  70
    32
  0
VERTEX
  8
図枠
  5
3E2
 10
136.658
 20
-158.542
 30
0.000000
  70
    32
  0
VERTEX
  8
図枠
  5
3E3
 10
136.687
 20
-158.550
 30
0.000000
  70
    32
  0
VERTEX
  8
図枠
  5
3E4
 10
136.715
 20
-158.557
 30
0.000000
  70
    32
  0
VERTEX
  8
図枠
  5
3E5
 10
136.743
 20
-158.565
 30
0.000000
  70
    32
  0
VERTEX
  8
図枠
  5
3E6
 10
136.771
 20
-158.572
 30
0.000000
  70
    32
  0
VERTEX
  8
図枠
  5
3E7
 10
136.800
 20
-158.580
 30
0.000000
  70
    32
  0
VERTEX
  8
図枠
  5
3E8
 10
136.828
 20
-158.587
 30
0.000000
  70
    32
  0
VERTEX
  8
図枠
  5
3E9
 10
136.856
 20
-158.595
 30
0.000000
  70
    32
  0
VERTEX
  8
図枠
  5
3EA
 10
136.884
 20
-158.602
 30
0.000000
  70
    32
  0
VERTEX
  8
図枠
  5
3EB
 10
136.913
 20
-158.609
 30
0.000000
  70
    32
  0
VERTEX
  8
図枠
  5
3EC
 10
136.941
 20
-158.616
 30
0.000000
  70
    32
  0
VERTEX
  8
図枠
  5
3ED
 10
136.970
 20
-158.624
 30
0.000000
  70
    32
  0
VERTEX
  8
図枠
  5
3EE
 10
136.998
 20
-158.631
 30
0.000000
  70
    32
  0
VERTEX
  8
図枠
  5
3EF
 10
137.027
 20
-158.638
 30
0.000000
  70
    32
  0
VERTEX
  8
図枠
  5
3F0
 10
137.055
 20
-158.645
 30
0.000000
  70
    32
  0
VERTEX
  8
図枠
  5
3F1
 10
137.084
 20
-158.652
 30
0.000000
  70
    32
  0
VERTEX
  8
図枠
  5
3F2
 10
137.112
 20
-158.659
 30
0.000000
  70
    32
  0
VERTEX
  8
図枠
  5
3F3
 10
137.141
 20
-158.666
 30
0.000000
  70
    32
  0
VERTEX
  8
図枠
  5
3F4
 10
137.169
 20
-158.673
 30
0.000000
  70
    32
  0
VERTEX
  8
図枠
  5
3F5
 10
137.198
 20
-158.680
 30
0.000000
  70
    32
  0
VERTEX
  8
図枠
  5
3F6
 10
137.227
 20
-158.687
 30
0.000000
  70
    32
  0
VERTEX
  8
図枠
  5
3F7
 10
137.255
 20
-158.693
 30
0.000000
  70
    32
  0
VERTEX
  8
図枠
  5
3F8
 10
137.284
 20
-158.700
 30
0.000000
  70
    32
  0
VERTEX
  8
図枠
  5
3F9
 10
137.313
 20
-158.707
 30
0.000000
  70
    32
  0
VERTEX
  8
図枠
  5
3FA
 10
137.341
 20
-158.714
 30
0.000000
  70
    32
  0
VERTEX
  8
図枠
  5
3FB
 10
137.370
 20
-158.720
 30
0.000000
  70
    32
  0
VERTEX
  8
図枠
  5
3FC
 10
137.399
 20
-158.727
 30
0.000000
  70
    32
  0
VERTEX
  8
図枠
  5
3FD
 10
137.428
 20
-158.734
 30
0.000000
  70
    32
  0
VERTEX
  8
図枠
  5
3FE
 10
137.456
 20
-158.740
 30
0.000000
  70
    32
  0
VERTEX
  8
図枠
  5
3FF
 10
137.485
 20
-158.747
 30
0.000000
  70
    32
  0
VERTEX
  8
図枠
  5
400
 10
137.514
 20
-158.753
 30
0.000000
  70
    32
  0
VERTEX
  8
図枠
  5
401
 10
137.543
 20
-158.760
 30
0.000000
  70
    32
  0
VERTEX
  8
図枠
  5
402
 10
137.572
 20
-158.766
 30
0.000000
  70
    32
  0
VERTEX
  8
図枠
  5
403
 10
137.601
 20
-158.773
 30
0.000000
  70
    32
  0
VERTEX
  8
図枠
  5
404
 10
137.630
 20
-158.779
 30
0.000000
  70
    32
  0
VERTEX
  8
図枠
  5
405
 10
137.659
 20
-158.785
 30
0.000000
  70
    32
  0
VERTEX
  8
図枠
  5
406
 10
137.688
 20
-158.792
 30
0.000000
  70
    32
  0
VERTEX
  8
図枠
  5
407
 10
137.717
 20
-158.798
 30
0.000000
  70
    32
  0
VERTEX
  8
図枠
  5
408
 10
137.746
 20
-158.804
 30
0.000000
  70
    32
  0
VERTEX
  8
図枠
  5
409
 10
137.775
 20
-158.810
 30
0.000000
  70
    32
  0
VERTEX
  8
図枠
  5
40A
 10
137.804
 20
-158.817
 30
0.000000
  70
    32
  0
VERTEX
  8
図枠
  5
40B
 10
137.833
 20
-158.823
 30
0.000000
  70
    32
  0
VERTEX
  8
図枠
  5
40C
 10
137.862
 20
-158.829
 30
0.000000
  70
    32
  0
VERTEX
  8
図枠
  5
40D
 10
137.891
 20
-158.835
 30
0.000000
  70
    32
  0
VERTEX
  8
図枠
  5
40E
 10
137.920
 20
-158.841
 30
0.000000
  70
    32
  0
VERTEX
  8
図枠
  5
40F
 10
137.949
 20
-158.847
 30
0.000000
  70
    32
  0
VERTEX
  8
図枠
  5
410
 10
137.978
 20
-158.853
 30
0.000000
  70
    32
  0
VERTEX
  8
図枠
  5
411
 10
138.007
 20
-158.859
 30
0.000000
  70
    32
  0
VERTEX
  8
図枠
  5
412
 10
138.037
 20
-158.865
 30
0.000000
  70
    32
  0
VERTEX
  8
図枠
  5
413
 10
138.066
 20
-158.871
 30
0.000000
  70
    32
  0
VERTEX
  8
図枠
  5
414
 10
138.095
 20
-158.877
 30
0.000000
  70
    32
  0
VERTEX
  8
図枠
  5
415
 10
138.124
 20
-158.883
 30
0.000000
  70
    32
  0
VERTEX
  8
図枠
  5
416
 10
138.154
 20
-158.889
 30
0.000000
  70
    32
  0
VERTEX
  8
図枠
  5
417
 10
138.183
 20
-158.895
 30
0.000000
  70
    32
  0
VERTEX
  8
図枠
  5
418
 10
138.212
 20
-158.901
 30
0.000000
  70
    32
  0
VERTEX
  8
図枠
  5
419
 10
138.241
 20
-158.906
 30
0.000000
  70
    32
  0
VERTEX
  8
図枠
  5
41A
 10
138.271
 20
-158.912
 30
0.000000
  70
    32
  0
VERTEX
  8
図枠
  5
41B
 10
138.300
 20
-158.918
 30
0.000000
  70
    32
  0
VERTEX
  8
図枠
  5
41C
 10
138.329
 20
-158.924
 30
0.000000
  70
    32
  0
VERTEX
  8
図枠
  5
41D
 10
138.359
 20
-158.929
 30
0.000000
  70
    32
  0
VERTEX
  8
図枠
  5
41E
 10
138.388
 20
-158.935
 30
0.000000
  70
    32
  0
VERTEX
  8
図枠
  5
41F
 10
138.417
 20
-158.941
 30
0.000000
  70
    32
  0
VERTEX
  8
図枠
  5
420
 10
138.447
 20
-158.946
 30
0.000000
  70
    32
  0
VERTEX
  8
図枠
  5
421
 10
138.476
 20
-158.952
 30
0.000000
  70
    32
  0
VERTEX
  8
図枠
  5
422
 10
138.506
 20
-158.958
 30
0.000000
  70
    32
  0
VERTEX
  8
図枠
  5
423
 10
138.535
 20
-158.963
 30
0.000000
  70
    32
  0
VERTEX
  8
図枠
  5
424
 10
138.564
 20
-158.969
 30
0.000000
  70
    32
  0
VERTEX
  8
図枠
  5
425
 10
138.594
 20
-158.974
 30
0.000000
  70
    32
  0
VERTEX
  8
図枠
  5
426
 10
138.623
 20
-158.980
 30
0.000000
  70
    32
  0
VERTEX
  8
図枠
  5
427
 10
138.653
 20
-158.985
 30
0.000000
  70
    32
  0
VERTEX
  8
図枠
  5
428
 10
138.682
 20
-158.991
 30
0.000000
  70
    32
  0
VERTEX
  8
図枠
  5
429
 10
138.712
 20
-158.996
 30
0.000000
  70
    32
  0
VERTEX
  8
図枠
  5
42A
 10
138.741
 20
-159.002
 30
0.000000
  70
    32
  0
VERTEX
  8
図枠
  5
42B
 10
138.771
 20
-159.007
 30
0.000000
  70
    32
  0
VERTEX
  8
図枠
  5
42C
 10
138.800
 20
-159.013
 30
0.000000
  70
    32
  0
VERTEX
  8
図枠
  5
42D
 10
138.830
 20
-159.018
 30
0.000000
  70
    32
  0
VERTEX
  8
図枠
  5
42E
 10
138.859
 20
-159.023
 30
0.000000
  70
    32
  0
VERTEX
  8
図枠
  5
42F
 10
138.889
 20
-159.029
 30
0.000000
  70
    32
  0
VERTEX
  8
図枠
  5
430
 10
138.919
 20
-159.034
 30
0.000000
  70
    32
  0
VERTEX
  8
図枠
  5
431
 10
138.948
 20
-159.040
 30
0.000000
  70
    32
  0
VERTEX
  8
図枠
  5
432
 10
138.978
 20
-159.045
 30
0.000000
  70
    32
  0
VERTEX
  8
図枠
  5
433
 10
139.007
 20
-159.050
 30
0.000000
  70
    32
  0
VERTEX
  8
図枠
  5
434
 10
139.037
 20
-159.055
 30
0.000000
  70
    32
  0
VERTEX
  8
図枠
  5
435
 10
139.067
 20
-159.061
 30
0.000000
  70
    32
  0
VERTEX
  8
図枠
  5
436
 10
139.096
 20
-159.066
 30
0.000000
  70
    32
  0
VERTEX
  8
図枠
  5
437
 10
139.126
 20
-159.071
 30
0.000000
  70
    32
  0
VERTEX
  8
図枠
  5
438
 10
139.155
 20
-159.077
 30
0.000000
  70
    32
  0
VERTEX
  8
図枠
  5
439
 10
139.185
 20
-159.082
 30
0.000000
  70
    32
  0
VERTEX
  8
図枠
  5
43A
 10
139.215
 20
-159.087
 30
0.000000
  70
    32
  0
VERTEX
  8
図枠
  5
43B
 10
139.244
 20
-159.092
 30
0.000000
  70
    32
  0
VERTEX
  8
図枠
  5
43C
 10
139.274
 20
-159.097
 30
0.000000
  70
    32
  0
VERTEX
  8
図枠
  5
43D
 10
139.304
 20
-159.103
 30
0.000000
  70
    32
  0
VERTEX
  8
図枠
  5
43E
 10
139.333
 20
-159.108
 30
0.000000
  70
    32
  0
VERTEX
  8
図枠
  5
43F
 10
139.363
 20
-159.113
 30
0.000000
  70
    32
  0
VERTEX
  8
図枠
  5
440
 10
139.393
 20
-159.118
 30
0.000000
  70
    32
  0
VERTEX
  8
図枠
  5
441
 10
139.423
 20
-159.123
 30
0.000000
  70
    32
  0
VERTEX
  8
図枠
  5
442
 10
139.452
 20
-159.128
 30
0.000000
  70
    32
  0
VERTEX
  8
図枠
  5
443
 10
139.482
 20
-159.133
 30
0.000000
  70
    32
  0
VERTEX
  8
図枠
  5
444
 10
139.512
 20
-159.139
 30
0.000000
  70
    32
  0
VERTEX
  8
図枠
  5
445
 10
139.541
 20
-159.144
 30
0.000000
  70
    32
  0
VERTEX
  8
図枠
  5
446
 10
139.571
 20
-159.149
 30
0.000000
  70
    32
  0
VERTEX
  8
図枠
  5
447
 10
139.601
 20
-159.154
 30
0.000000
  70
    32
  0
VERTEX
  8
図枠
  5
448
 10
139.631
 20
-159.159
 30
0.000000
  70
    32
  0
VERTEX
  8
図枠
  5
449
 10
139.660
 20
-159.164
 30
0.000000
  70
    32
  0
VERTEX
  8
図枠
  5
44A
 10
139.690
 20
-159.169
 30
0.000000
  70
    32
  0
VERTEX
  8
図枠
  5
44B
 10
139.720
 20
-159.174
 30
0.000000
  70
    32
  0
VERTEX
  8
図枠
  5
44C
 10
139.750
 20
-159.179
 30
0.000000
  70
    32
  0
VERTEX
  8
図枠
  5
44D
 10
139.779
 20
-159.184
 30
0.000000
  70
    32
  0
VERTEX
  8
図枠
  5
44E
 10
139.809
 20
-159.189
 30
0.000000
  70
    32
  0
VERTEX
  8
図枠
  5
44F
 10
139.839
 20
-159.194
 30
0.000000
  70
    32
  0
VERTEX
  8
図枠
  5
450
 10
139.869
 20
-159.199
 30
0.000000
  70
    32
  0
VERTEX
  8
図枠
  5
451
 10
139.898
 20
-159.205
 30
0.000000
  70
    32
  0
VERTEX
  8
図枠
  5
452
 10
139.928
 20
-159.210
 30
0.000000
  70
    32
  0
VERTEX
  8
図枠
  5
453
 10
139.958
 20
-159.215
 30
0.000000
  70
    32
  0
VERTEX
  8
図枠
  5
454
 10
139.988
 20
-159.220
 30
0.000000
  70
    32
  0
VERTEX
  8
図枠
  5
455
 10
140.017
 20
-159.225
 30
0.000000
  70
    32
  0
VERTEX
  8
図枠
  5
456
 10
140.047
 20
-159.230
 30
0.000000
  70
    32
  0
VERTEX
  8
図枠
  5
457
 10
140.077
 20
-159.235
 30
0.000000
  70
    32
  0
VERTEX
  8
図枠
  5
458
 10
140.107
 20
-159.240
 30
0.000000
  70
    32
  0
VERTEX
  8
図枠
  5
459
 10
140.137
 20
-159.245
 30
0.000000
  70
    32
  0
VERTEX
  8
図枠
  5
45A
 10
140.166
 20
-159.250
 30
0.000000
  70
    32
  0
SEQEND
  8
図枠
  5
45B
  0
LINE
  5
11C
  8
図枠
 10
138.56644676260001
 20
-152.85048123109999
 30
0.0
 11
140.16628676260001
 21
-150.4507212311
 31
0.0
  0
CIRCLE
  5
11D
  8
図枠
 10
137.6431666709
 20
-122.2098223504
 30
0.0
 40
4.6075391999999988
  0
LINE
  5
11E
  8
図枠
  6
BORDER
 10
137.6431666709
 20
-115.2985135504
 30
0.0
 11
137.6431666709
 21
-129.1211311504
 31
0.0
  0
INSERT
  5
11F
  8
0
  6
CONTINUOUS
  2
*U48
 10
0.0
 20
0.0
 30
0.0
  0
POLYLINE
  8
図枠
  5
45C
  66
     1
 10
0.000000
 20
0.000000
 30
0.000000
  70
     8
  0
VERTEX
  8
図枠
  5
45D
 10
125.768
 20
-154.681
 30
0.000000
  70
    32
  0
VERTEX
  8
図枠
  5
45E
 10
125.797
 20
-154.708
 30
0.000000
  70
    32
  0
VERTEX
  8
図枠
  5
45F
 10
125.825
 20
-154.734
 30
0.000000
  70
    32
  0
VERTEX
  8
図枠
  5
460
 10
125.854
 20
-154.761
 30
0.000000
  70
    32
  0
VERTEX
  8
図枠
  5
461
 10
125.883
 20
-154.787
 30
0.000000
  70
    32
  0
VERTEX
  8
図枠
  5
462
 10
125.912
 20
-154.814
 30
0.000000
  70
    32
  0
VERTEX
  8
図枠
  5
463
 10
125.941
 20
-154.840
 30
0.000000
  70
    32
  0
VERTEX
  8
図枠
  5
464
 10
125.969
 20
-154.867
 30
0.000000
  70
    32
  0
VERTEX
  8
図枠
  5
465
 10
125.998
 20
-154.893
 30
0.000000
  70
    32
  0
VERTEX
  8
図枠
  5
466
 10
126.027
 20
-154.920
 30
0.000000
  70
    32
  0
VERTEX
  8
図枠
  5
467
 10
126.056
 20
-154.947
 30
0.000000
  70
    32
  0
VERTEX
  8
図枠
  5
468
 10
126.085
 20
-154.973
 30
0.000000
  70
    32
  0
VERTEX
  8
図枠
  5
469
 10
126.114
 20
-155.000
 30
0.000000
  70
    32
  0
VERTEX
  8
図枠
  5
46A
 10
126.142
 20
-155.026
 30
0.000000
  70
    32
  0
VERTEX
  8
図枠
  5
46B
 10
126.171
 20
-155.053
 30
0.000000
  70
    32
  0
VERTEX
  8
図枠
  5
46C
 10
126.200
 20
-155.079
 30
0.000000
  70
    32
  0
VERTEX
  8
図枠
  5
46D
 10
126.229
 20
-155.106
 30
0.000000
  70
    32
  0
VERTEX
  8
図枠
  5
46E
 10
126.258
 20
-155.132
 30
0.000000
  70
    32
  0
VERTEX
  8
図枠
  5
46F
 10
126.287
 20
-155.159
 30
0.000000
  70
    32
  0
VERTEX
  8
図枠
  5
470
 10
126.316
 20
-155.185
 30
0.000000
  70
    32
  0
VERTEX
  8
図枠
  5
471
 10
126.344
 20
-155.212
 30
0.000000
  70
    32
  0
VERTEX
  8
図枠
  5
472
 10
126.373
 20
-155.238
 30
0.000000
  70
    32
  0
VERTEX
  8
図枠
  5
473
 10
126.402
 20
-155.264
 30
0.000000
  70
    32
  0
VERTEX
  8
図枠
  5
474
 10
126.431
 20
-155.291
 30
0.000000
  70
    32
  0
VERTEX
  8
図枠
  5
475
 10
126.460
 20
-155.317
 30
0.000000
  70
    32
  0
VERTEX
  8
図枠
  5
476
 10
126.489
 20
-155.344
 30
0.000000
  70
    32
  0
VERTEX
  8
図枠
  5
477
 10
126.518
 20
-155.370
 30
0.000000
  70
    32
  0
VERTEX
  8
図枠
  5
478
 10
126.547
 20
-155.396
 30
0.000000
  70
    32
  0
VERTEX
  8
図枠
  5
479
 10
126.576
 20
-155.423
 30
0.000000
  70
    32
  0
VERTEX
  8
図枠
  5
47A
 10
126.605
 20
-155.449
 30
0.000000
  70
    32
  0
VERTEX
  8
図枠
  5
47B
 10
126.634
 20
-155.475
 30
0.000000
  70
    32
  0
VERTEX
  8
図枠
  5
47C
 10
126.662
 20
-155.502
 30
0.000000
  70
    32
  0
VERTEX
  8
図枠
  5
47D
 10
126.691
 20
-155.528
 30
0.000000
  70
    32
  0
VERTEX
  8
図枠
  5
47E
 10
126.720
 20
-155.554
 30
0.000000
  70
    32
  0
VERTEX
  8
図枠
  5
47F
 10
126.749
 20
-155.581
 30
0.000000
  70
    32
  0
VERTEX
  8
図枠
  5
480
 10
126.778
 20
-155.607
 30
0.000000
  70
    32
  0
VERTEX
  8
図枠
  5
481
 10
126.807
 20
-155.633
 30
0.000000
  70
    32
  0
VERTEX
  8
図枠
  5
482
 10
126.836
 20
-155.659
 30
0.000000
  70
    32
  0
VERTEX
  8
図枠
  5
483
 10
126.865
 20
-155.685
 30
0.000000
  70
    32
  0
VERTEX
  8
図枠
  5
484
 10
126.894
 20
-155.711
 30
0.000000
  70
    32
  0
VERTEX
  8
図枠
  5
485
 10
126.924
 20
-155.738
 30
0.000000
  70
    32
  0
VERTEX
  8
図枠
  5
486
 10
126.953
 20
-155.764
 30
0.000000
  70
    32
  0
VERTEX
  8
図枠
  5
487
 10
126.982
 20
-155.790
 30
0.000000
  70
    32
  0
VERTEX
  8
図枠
  5
488
 10
127.011
 20
-155.816
 30
0.000000
  70
    32
  0
VERTEX
  8
図枠
  5
489
 10
127.040
 20
-155.842
 30
0.000000
  70
    32
  0
VERTEX
  8
図枠
  5
48A
 10
127.069
 20
-155.868
 30
0.000000
  70
    32
  0
VERTEX
  8
図枠
  5
48B
 10
127.098
 20
-155.894
 30
0.000000
  70
    32
  0
VERTEX
  8
図枠
  5
48C
 10
127.127
 20
-155.920
 30
0.000000
  70
    32
  0
VERTEX
  8
図枠
  5
48D
 10
127.156
 20
-155.946
 30
0.000000
  70
    32
  0
VERTEX
  8
図枠
  5
48E
 10
127.186
 20
-155.972
 30
0.000000
  70
    32
  0
VERTEX
  8
図枠
  5
48F
 10
127.215
 20
-155.998
 30
0.000000
  70
    32
  0
VERTEX
  8
図枠
  5
490
 10
127.244
 20
-156.023
 30
0.000000
  70
    32
  0
VERTEX
  8
図枠
  5
491
 10
127.273
 20
-156.049
 30
0.000000
  70
    32
  0
VERTEX
  8
図枠
  5
492
 10
127.302
 20
-156.075
 30
0.000000
  70
    32
  0
VERTEX
  8
図枠
  5
493
 10
127.332
 20
-156.101
 30
0.000000
  70
    32
  0
VERTEX
  8
図枠
  5
494
 10
127.361
 20
-156.127
 30
0.000000
  70
    32
  0
VERTEX
  8
図枠
  5
495
 10
127.390
 20
-156.152
 30
0.000000
  70
    32
  0
VERTEX
  8
図枠
  5
496
 10
127.419
 20
-156.178
 30
0.000000
  70
    32
  0
VERTEX
  8
図枠
  5
497
 10
127.449
 20
-156.204
 30
0.000000
  70
    32
  0
VERTEX
  8
図枠
  5
498
 10
127.478
 20
-156.229
 30
0.000000
  70
    32
  0
VERTEX
  8
図枠
  5
499
 10
127.507
 20
-156.255
 30
0.000000
  70
    32
  0
VERTEX
  8
図枠
  5
49A
 10
127.537
 20
-156.280
 30
0.000000
  70
    32
  0
VERTEX
  8
図枠
  5
49B
 10
127.566
 20
-156.306
 30
0.000000
  70
    32
  0
VERTEX
  8
図枠
  5
49C
 10
127.596
 20
-156.331
 30
0.000000
  70
    32
  0
VERTEX
  8
図枠
  5
49D
 10
127.625
 20
-156.357
 30
0.000000
  70
    32
  0
VERTEX
  8
図枠
  5
49E
 10
127.654
 20
-156.382
 30
0.000000
  70
    32
  0
VERTEX
  8
図枠
  5
49F
 10
127.684
 20
-156.408
 30
0.000000
  70
    32
  0
VERTEX
  8
図枠
  5
4A0
 10
127.713
 20
-156.433
 30
0.000000
  70
    32
  0
VERTEX
  8
図枠
  5
4A1
 10
127.743
 20
-156.458
 30
0.000000
  70
    32
  0
VERTEX
  8
図枠
  5
4A2
 10
127.772
 20
-156.484
 30
0.000000
  70
    32
  0
VERTEX
  8
図枠
  5
4A3
 10
127.802
 20
-156.509
 30
0.000000
  70
    32
  0
VERTEX
  8
図枠
  5
4A4
 10
127.831
 20
-156.534
 30
0.000000
  70
    32
  0
VERTEX
  8
図枠
  5
4A5
 10
127.861
 20
-156.559
 30
0.000000
  70
    32
  0
VERTEX
  8
図枠
  5
4A6
 10
127.891
 20
-156.584
 30
0.000000
  70
    32
  0
VERTEX
  8
図枠
  5
4A7
 10
127.920
 20
-156.609
 30
0.000000
  70
    32
  0
VERTEX
  8
図枠
  5
4A8
 10
127.950
 20
-156.634
 30
0.000000
  70
    32
  0
VERTEX
  8
図枠
  5
4A9
 10
127.980
 20
-156.659
 30
0.000000
  70
    32
  0
VERTEX
  8
図枠
  5
4AA
 10
128.009
 20
-156.684
 30
0.000000
  70
    32
  0
VERTEX
  8
図枠
  5
4AB
 10
128.039
 20
-156.709
 30
0.000000
  70
    32
  0
VERTEX
  8
図枠
  5
4AC
 10
128.069
 20
-156.734
 30
0.000000
  70
    32
  0
VERTEX
  8
図枠
  5
4AD
 10
128.098
 20
-156.759
 30
0.000000
  70
    32
  0
VERTEX
  8
図枠
  5
4AE
 10
128.128
 20
-156.784
 30
0.000000
  70
    32
  0
VERTEX
  8
図枠
  5
4AF
 10
128.158
 20
-156.808
 30
0.000000
  70
    32
  0
VERTEX
  8
図枠
  5
4B0
 10
128.188
 20
-156.833
 30
0.000000
  70
    32
  0
VERTEX
  8
図枠
  5
4B1
 10
128.218
 20
-156.858
 30
0.000000
  70
    32
  0
VERTEX
  8
図枠
  5
4B2
 10
128.248
 20
-156.882
 30
0.000000
  70
    32
  0
VERTEX
  8
図枠
  5
4B3
 10
128.278
 20
-156.907
 30
0.000000
  70
    32
  0
VERTEX
  8
図枠
  5
4B4
 10
128.307
 20
-156.931
 30
0.000000
  70
    32
  0
VERTEX
  8
図枠
  5
4B5
 10
128.337
 20
-156.956
 30
0.000000
  70
    32
  0
VERTEX
  8
図枠
  5
4B6
 10
128.367
 20
-156.980
 30
0.000000
  70
    32
  0
VERTEX
  8
図枠
  5
4B7
 10
128.397
 20
-157.004
 30
0.000000
  70
    32
  0
VERTEX
  8
図枠
  5
4B8
 10
128.427
 20
-157.029
 30
0.000000
  70
    32
  0
VERTEX
  8
図枠
  5
4B9
 10
128.458
 20
-157.053
 30
0.000000
  70
    32
  0
VERTEX
  8
図枠
  5
4BA
 10
128.488
 20
-157.077
 30
0.000000
  70
    32
  0
VERTEX
  8
図枠
  5
4BB
 10
128.518
 20
-157.101
 30
0.000000
  70
    32
  0
VERTEX
  8
図枠
  5
4BC
 10
128.548
 20
-157.125
 30
0.000000
  70
    32
  0
VERTEX
  8
図枠
  5
4BD
 10
128.578
 20
-157.149
 30
0.000000
  70
    32
  0
VERTEX
  8
図枠
  5
4BE
 10
128.608
 20
-157.173
 30
0.000000
  70
    32
  0
VERTEX
  8
図枠
  5
4BF
 10
128.639
 20
-157.197
 30
0.000000
  70
    32
  0
VERTEX
  8
図枠
  5
4C0
 10
128.669
 20
-157.221
 30
0.000000
  70
    32
  0
VERTEX
  8
図枠
  5
4C1
 10
128.699
 20
-157.245
 30
0.000000
  70
    32
  0
VERTEX
  8
図枠
  5
4C2
 10
128.729
 20
-157.269
 30
0.000000
  70
    32
  0
VERTEX
  8
図枠
  5
4C3
 10
128.760
 20
-157.293
 30
0.000000
  70
    32
  0
VERTEX
  8
図枠
  5
4C4
 10
128.790
 20
-157.316
 30
0.000000
  70
    32
  0
VERTEX
  8
図枠
  5
4C5
 10
128.821
 20
-157.340
 30
0.000000
  70
    32
  0
VERTEX
  8
図枠
  5
4C6
 10
128.851
 20
-157.363
 30
0.000000
  70
    32
  0
VERTEX
  8
図枠
  5
4C7
 10
128.882
 20
-157.387
 30
0.000000
  70
    32
  0
VERTEX
  8
図枠
  5
4C8
 10
128.912
 20
-157.410
 30
0.000000
  70
    32
  0
VERTEX
  8
図枠
  5
4C9
 10
128.943
 20
-157.434
 30
0.000000
  70
    32
  0
VERTEX
  8
図枠
  5
4CA
 10
128.973
 20
-157.457
 30
0.000000
  70
    32
  0
VERTEX
  8
図枠
  5
4CB
 10
129.004
 20
-157.480
 30
0.000000
  70
    32
  0
VERTEX
  8
図枠
  5
4CC
 10
129.034
 20
-157.503
 30
0.000000
  70
    32
  0
VERTEX
  8
図枠
  5
4CD
 10
129.065
 20
-157.526
 30
0.000000
  70
    32
  0
VERTEX
  8
図枠
  5
4CE
 10
129.096
 20
-157.550
 30
0.000000
  70
    32
  0
VERTEX
  8
図枠
  5
4CF
 10
129.127
 20
-157.573
 30
0.000000
  70
    32
  0
VERTEX
  8
図枠
  5
4D0
 10
129.157
 20
-157.595
 30
0.000000
  70
    32
  0
VERTEX
  8
図枠
  5
4D1
 10
129.188
 20
-157.618
 30
0.000000
  70
    32
  0
VERTEX
  8
図枠
  5
4D2
 10
129.219
 20
-157.641
 30
0.000000
  70
    32
  0
VERTEX
  8
図枠
  5
4D3
 10
129.250
 20
-157.664
 30
0.000000
  70
    32
  0
VERTEX
  8
図枠
  5
4D4
 10
129.281
 20
-157.687
 30
0.000000
  70
    32
  0
VERTEX
  8
図枠
  5
4D5
 10
129.312
 20
-157.709
 30
0.000000
  70
    32
  0
VERTEX
  8
図枠
  5
4D6
 10
129.343
 20
-157.732
 30
0.000000
  70
    32
  0
VERTEX
  8
図枠
  5
4D7
 10
129.374
 20
-157.754
 30
0.000000
  70
    32
  0
VERTEX
  8
図枠
  5
4D8
 10
129.405
 20
-157.777
 30
0.000000
  70
    32
  0
VERTEX
  8
図枠
  5
4D9
 10
129.436
 20
-157.799
 30
0.000000
  70
    32
  0
VERTEX
  8
図枠
  5
4DA
 10
129.467
 20
-157.821
 30
0.000000
  70
    32
  0
VERTEX
  8
図枠
  5
4DB
 10
129.498
 20
-157.843
 30
0.000000
  70
    32
  0
VERTEX
  8
図枠
  5
4DC
 10
129.529
 20
-157.866
 30
0.000000
  70
    32
  0
VERTEX
  8
図枠
  5
4DD
 10
129.561
 20
-157.888
 30
0.000000
  70
    32
  0
VERTEX
  8
図枠
  5
4DE
 10
129.592
 20
-157.910
 30
0.000000
  70
    32
  0
VERTEX
  8
図枠
  5
4DF
 10
129.623
 20
-157.932
 30
0.000000
  70
    32
  0
VERTEX
  8
図枠
  5
4E0
 10
129.655
 20
-157.953
 30
0.000000
  70
    32
  0
VERTEX
  8
図枠
  5
4E1
 10
129.686
 20
-157.975
 30
0.000000
  70
    32
  0
VERTEX
  8
図枠
  5
4E2
 10
129.717
 20
-157.997
 30
0.000000
  70
    32
  0
VERTEX
  8
図枠
  5
4E3
 10
129.749
 20
-158.019
 30
0.000000
  70
    32
  0
VERTEX
  8
図枠
  5
4E4
 10
129.780
 20
-158.040
 30
0.000000
  70
    32
  0
VERTEX
  8
図枠
  5
4E5
 10
129.812
 20
-158.062
 30
0.000000
  70
    32
  0
VERTEX
  8
図枠
  5
4E6
 10
129.844
 20
-158.083
 30
0.000000
  70
    32
  0
VERTEX
  8
図枠
  5
4E7
 10
129.875
 20
-158.104
 30
0.000000
  70
    32
  0
VERTEX
  8
図枠
  5
4E8
 10
129.907
 20
-158.126
 30
0.000000
  70
    32
  0
VERTEX
  8
図枠
  5
4E9
 10
129.939
 20
-158.147
 30
0.000000
  70
    32
  0
VERTEX
  8
図枠
  5
4EA
 10
129.970
 20
-158.168
 30
0.000000
  70
    32
  0
VERTEX
  8
図枠
  5
4EB
 10
130.002
 20
-158.189
 30
0.000000
  70
    32
  0
VERTEX
  8
図枠
  5
4EC
 10
130.034
 20
-158.210
 30
0.000000
  70
    32
  0
VERTEX
  8
図枠
  5
4ED
 10
130.066
 20
-158.231
 30
0.000000
  70
    32
  0
VERTEX
  8
図枠
  5
4EE
 10
130.098
 20
-158.252
 30
0.000000
  70
    32
  0
VERTEX
  8
図枠
  5
4EF
 10
130.130
 20
-158.272
 30
0.000000
  70
    32
  0
VERTEX
  8
図枠
  5
4F0
 10
130.162
 20
-158.293
 30
0.000000
  70
    32
  0
VERTEX
  8
図枠
  5
4F1
 10
130.194
 20
-158.313
 30
0.000000
  70
    32
  0
VERTEX
  8
図枠
  5
4F2
 10
130.226
 20
-158.334
 30
0.000000
  70
    32
  0
VERTEX
  8
図枠
  5
4F3
 10
130.258
 20
-158.354
 30
0.000000
  70
    32
  0
VERTEX
  8
図枠
  5
4F4
 10
130.290
 20
-158.375
 30
0.000000
  70
    32
  0
VERTEX
  8
図枠
  5
4F5
 10
130.323
 20
-158.395
 30
0.000000
  70
    32
  0
VERTEX
  8
図枠
  5
4F6
 10
130.355
 20
-158.415
 30
0.000000
  70
    32
  0
VERTEX
  8
図枠
  5
4F7
 10
130.387
 20
-158.435
 30
0.000000
  70
    32
  0
VERTEX
  8
図枠
  5
4F8
 10
130.420
 20
-158.455
 30
0.000000
  70
    32
  0
VERTEX
  8
図枠
  5
4F9
 10
130.452
 20
-158.475
 30
0.000000
  70
    32
  0
VERTEX
  8
図枠
  5
4FA
 10
130.485
 20
-158.495
 30
0.000000
  70
    32
  0
VERTEX
  8
図枠
  5
4FB
 10
130.517
 20
-158.514
 30
0.000000
  70
    32
  0
VERTEX
  8
図枠
  5
4FC
 10
130.550
 20
-158.534
 30
0.000000
  70
    32
  0
SEQEND
  8
図枠
  5
4FD
  0
LINE
  5
121
  8
図枠
 10
111.9121427626
 20
-158.44992123110001
 30
0.0
 11
111.9121427626
 21
-156.05016123109999
 31
0.0
  0
LINE
  5
122
  8
図枠
 10
114.3119027626
 20
-150.4507212311
 30
0.0
 11
107.9125427626
 21
-150.4507212311
 31
0.0
  0
POLYLINE
  8
図枠
  5
4FE
  66
     1
 10
0.000000
 20
0.000000
 30
0.000000
  70
     8
  0
VERTEX
  8
図枠
  5
4FF
 10
131.262
 20
-155.071
 30
0.000000
  70
    32
  0
VERTEX
  8
図枠
  5
500
 10
131.273
 20
-155.083
 30
0.000000
  70
    32
  0
VERTEX
  8
図枠
  5
501
 10
131.283
 20
-155.094
 30
0.000000
  70
    32
  0
VERTEX
  8
図枠
  5
502
 10
131.294
 20
-155.106
 30
0.000000
  70
    32
  0
VERTEX
  8
図枠
  5
503
 10
131.304
 20
-155.118
 30
0.000000
  70
    32
  0
VERTEX
  8
図枠
  5
504
 10
131.315
 20
-155.130
 30
0.000000
  70
    32
  0
VERTEX
  8
図枠
  5
505
 10
131.325
 20
-155.141
 30
0.000000
  70
    32
  0
VERTEX
  8
図枠
  5
506
 10
131.336
 20
-155.153
 30
0.000000
  70
    32
  0
VERTEX
  8
図枠
  5
507
 10
131.347
 20
-155.165
 30
0.000000
  70
    32
  0
VERTEX
  8
図枠
  5
508
 10
131.357
 20
-155.177
 30
0.000000
  70
    32
  0
VERTEX
  8
図枠
  5
509
 10
131.368
 20
-155.188
 30
0.000000
  70
    32
  0
VERTEX
  8
図枠
  5
50A
 10
131.378
 20
-155.200
 30
0.000000
  70
    32
  0
VERTEX
  8
図枠
  5
50B
 10
131.389
 20
-155.212
 30
0.000000
  70
    32
  0
VERTEX
  8
図枠
  5
50C
 10
131.399
 20
-155.224
 30
0.000000
  70
    32
  0
VERTEX
  8
図枠
  5
50D
 10
131.410
 20
-155.235
 30
0.000000
  70
    32
  0
VERTEX
  8
図枠
  5
50E
 10
131.421
 20
-155.247
 30
0.000000
  70
    32
  0
VERTEX
  8
図枠
  5
50F
 10
131.431
 20
-155.259
 30
0.000000
  70
    32
  0
VERTEX
  8
図枠
  5
510
 10
131.442
 20
-155.271
 30
0.000000
  70
    32
  0
VERTEX
  8
図枠
  5
511
 10
131.452
 20
-155.282
 30
0.000000
  70
    32
  0
VERTEX
  8
図枠
  5
512
 10
131.463
 20
-155.294
 30
0.000000
  70
    32
  0
VERTEX
  8
図枠
  5
513
 10
131.473
 20
-155.306
 30
0.000000
  70
    32
  0
VERTEX
  8
図枠
  5
514
 10
131.484
 20
-155.318
 30
0.000000
  70
    32
  0
VERTEX
  8
図枠
  5
515
 10
131.495
 20
-155.329
 30
0.000000
  70
    32
  0
VERTEX
  8
図枠
  5
516
 10
131.505
 20
-155.341
 30
0.000000
  70
    32
  0
VERTEX
  8
図枠
  5
517
 10
131.516
 20
-155.353
 30
0.000000
  70
    32
  0
VERTEX
  8
図枠
  5
518
 10
131.526
 20
-155.365
 30
0.000000
  70
    32
  0
VERTEX
  8
図枠
  5
519
 10
131.537
 20
-155.376
 30
0.000000
  70
    32
  0
VERTEX
  8
図枠
  5
51A
 10
131.548
 20
-155.388
 30
0.000000
  70
    32
  0
VERTEX
  8
図枠
  5
51B
 10
131.558
 20
-155.400
 30
0.000000
  70
    32
  0
VERTEX
  8
図枠
  5
51C
 10
131.569
 20
-155.411
 30
0.000000
  70
    32
  0
VERTEX
  8
図枠
  5
51D
 10
131.579
 20
-155.423
 30
0.000000
  70
    32
  0
VERTEX
  8
図枠
  5
51E
 10
131.590
 20
-155.435
 30
0.000000
  70
    32
  0
VERTEX
  8
図枠
  5
51F
 10
131.601
 20
-155.446
 30
0.000000
  70
    32
  0
VERTEX
  8
図枠
  5
520
 10
131.611
 20
-155.458
 30
0.000000
  70
    32
  0
VERTEX
  8
図枠
  5
521
 10
131.622
 20
-155.470
 30
0.000000
  70
    32
  0
VERTEX
  8
図枠
  5
522
 10
131.632
 20
-155.481
 30
0.000000
  70
    32
  0
VERTEX
  8
図枠
  5
523
 10
131.643
 20
-155.493
 30
0.000000
  70
    32
  0
VERTEX
  8
図枠
  5
524
 10
131.654
 20
-155.505
 30
0.000000
  70
    32
  0
VERTEX
  8
図枠
  5
525
 10
131.664
 20
-155.516
 30
0.000000
  70
    32
  0
VERTEX
  8
図枠
  5
526
 10
131.675
 20
-155.528
 30
0.000000
  70
    32
  0
VERTEX
  8
図枠
  5
527
 10
131.686
 20
-155.540
 30
0.000000
  70
    32
  0
VERTEX
  8
図枠
  5
528
 10
131.696
 20
-155.551
 30
0.000000
  70
    32
  0
VERTEX
  8
図枠
  5
529
 10
131.707
 20
-155.563
 30
0.000000
  70
    32
  0
VERTEX
  8
図枠
  5
52A
 10
131.718
 20
-155.575
 30
0.000000
  70
    32
  0
VERTEX
  8
図枠
  5
52B
 10
131.728
 20
-155.586
 30
0.000000
  70
    32
  0
VERTEX
  8
図枠
  5
52C
 10
131.739
 20
-155.598
 30
0.000000
  70
    32
  0
VERTEX
  8
図枠
  5
52D
 10
131.750
 20
-155.609
 30
0.000000
  70
    32
  0
VERTEX
  8
図枠
  5
52E
 10
131.760
 20
-155.621
 30
0.000000
  70
    32
  0
VERTEX
  8
図枠
  5
52F
 10
131.771
 20
-155.633
 30
0.000000
  70
    32
  0
VERTEX
  8
図枠
  5
530
 10
131.782
 20
-155.644
 30
0.000000
  70
    32
  0
VERTEX
  8
図枠
  5
531
 10
131.792
 20
-155.656
 30
0.000000
  70
    32
  0
VERTEX
  8
図枠
  5
532
 10
131.803
 20
-155.667
 30
0.000000
  70
    32
  0
VERTEX
  8
図枠
  5
533
 10
131.814
 20
-155.679
 30
0.000000
  70
    32
  0
VERTEX
  8
図枠
  5
534
 10
131.824
 20
-155.690
 30
0.000000
  70
    32
  0
VERTEX
  8
図枠
  5
535
 10
131.835
 20
-155.702
 30
0.000000
  70
    32
  0
VERTEX
  8
図枠
  5
536
 10
131.846
 20
-155.713
 30
0.000000
  70
    32
  0
VERTEX
  8
図枠
  5
537
 10
131.857
 20
-155.725
 30
0.000000
  70
    32
  0
VERTEX
  8
図枠
  5
538
 10
131.867
 20
-155.736
 30
0.000000
  70
    32
  0
VERTEX
  8
図枠
  5
539
 10
131.878
 20
-155.748
 30
0.000000
  70
    32
  0
VERTEX
  8
図枠
  5
53A
 10
131.889
 20
-155.759
 30
0.000000
  70
    32
  0
VERTEX
  8
図枠
  5
53B
 10
131.899
 20
-155.771
 30
0.000000
  70
    32
  0
VERTEX
  8
図枠
  5
53C
 10
131.910
 20
-155.782
 30
0.000000
  70
    32
  0
VERTEX
  8
図枠
  5
53D
 10
131.921
 20
-155.794
 30
0.000000
  70
    32
  0
VERTEX
  8
図枠
  5
53E
 10
131.932
 20
-155.805
 30
0.000000
  70
    32
  0
VERTEX
  8
図枠
  5
53F
 10
131.943
 20
-155.816
 30
0.000000
  70
    32
  0
VERTEX
  8
図枠
  5
540
 10
131.953
 20
-155.828
 30
0.000000
  70
    32
  0
VERTEX
  8
図枠
  5
541
 10
131.964
 20
-155.839
 30
0.000000
  70
    32
  0
VERTEX
  8
図枠
  5
542
 10
131.975
 20
-155.851
 30
0.000000
  70
    32
  0
VERTEX
  8
図枠
  5
543
 10
131.986
 20
-155.862
 30
0.000000
  70
    32
  0
VERTEX
  8
図枠
  5
544
 10
131.997
 20
-155.873
 30
0.000000
  70
    32
  0
VERTEX
  8
図枠
  5
545
 10
132.007
 20
-155.885
 30
0.000000
  70
    32
  0
VERTEX
  8
図枠
  5
546
 10
132.018
 20
-155.896
 30
0.000000
  70
    32
  0
VERTEX
  8
図枠
  5
547
 10
132.029
 20
-155.907
 30
0.000000
  70
    32
  0
VERTEX
  8
図枠
  5
548
 10
132.040
 20
-155.919
 30
0.000000
  70
    32
  0
VERTEX
  8
図枠
  5
549
 10
132.051
 20
-155.930
 30
0.000000
  70
    32
  0
VERTEX
  8
図枠
  5
54A
 10
132.062
 20
-155.941
 30
0.000000
  70
    32
  0
VERTEX
  8
図枠
  5
54B
 10
132.072
 20
-155.953
 30
0.000000
  70
    32
  0
VERTEX
  8
図枠
  5
54C
 10
132.083
 20
-155.964
 30
0.000000
  70
    32
  0
VERTEX
  8
図枠
  5
54D
 10
132.094
 20
-155.975
 30
0.000000
  70
    32
  0
VERTEX
  8
図枠
  5
54E
 10
132.105
 20
-155.986
 30
0.000000
  70
    32
  0
VERTEX
  8
図枠
  5
54F
 10
132.116
 20
-155.998
 30
0.000000
  70
    32
  0
VERTEX
  8
図枠
  5
550
 10
132.127
 20
-156.009
 30
0.000000
  70
    32
  0
VERTEX
  8
図枠
  5
551
 10
132.138
 20
-156.020
 30
0.000000
  70
    32
  0
VERTEX
  8
図枠
  5
552
 10
132.149
 20
-156.031
 30
0.000000
  70
    32
  0
VERTEX
  8
図枠
  5
553
 10
132.160
 20
-156.042
 30
0.000000
  70
    32
  0
VERTEX
  8
図枠
  5
554
 10
132.171
 20
-156.053
 30
0.000000
  70
    32
  0
VERTEX
  8
図枠
  5
555
 10
132.182
 20
-156.065
 30
0.000000
  70
    32
  0
VERTEX
  8
図枠
  5
556
 10
132.193
 20
-156.076
 30
0.000000
  70
    32
  0
VERTEX
  8
図枠
  5
557
 10
132.204
 20
-156.087
 30
0.000000
  70
    32
  0
VERTEX
  8
図枠
  5
558
 10
132.215
 20
-156.098
 30
0.000000
  70
    32
  0
VERTEX
  8
図枠
  5
559
 10
132.226
 20
-156.109
 30
0.000000
  70
    32
  0
VERTEX
  8
図枠
  5
55A
 10
132.237
 20
-156.120
 30
0.000000
  70
    32
  0
VERTEX
  8
図枠
  5
55B
 10
132.248
 20
-156.131
 30
0.000000
  70
    32
  0
VERTEX
  8
図枠
  5
55C
 10
132.259
 20
-156.142
 30
0.000000
  70
    32
  0
VERTEX
  8
図枠
  5
55D
 10
132.270
 20
-156.153
 30
0.000000
  70
    32
  0
VERTEX
  8
図枠
  5
55E
 10
132.281
 20
-156.164
 30
0.000000
  70
    32
  0
VERTEX
  8
図枠
  5
55F
 10
132.292
 20
-156.175
 30
0.000000
  70
    32
  0
VERTEX
  8
図枠
  5
560
 10
132.303
 20
-156.186
 30
0.000000
  70
    32
  0
VERTEX
  8
図枠
  5
561
 10
132.314
 20
-156.197
 30
0.000000
  70
    32
  0
VERTEX
  8
図枠
  5
562
 10
132.325
 20
-156.208
 30
0.000000
  70
    32
  0
VERTEX
  8
図枠
  5
563
 10
132.336
 20
-156.219
 30
0.000000
  70
    32
  0
VERTEX
  8
図枠
  5
564
 10
132.347
 20
-156.230
 30
0.000000
  70
    32
  0
VERTEX
  8
図枠
  5
565
 10
132.358
 20
-156.240
 30
0.000000
  70
    32
  0
VERTEX
  8
図枠
  5
566
 10
132.369
 20
-156.251
 30
0.000000
  70
    32
  0
VERTEX
  8
図枠
  5
567
 10
132.381
 20
-156.262
 30
0.000000
  70
    32
  0
VERTEX
  8
図枠
  5
568
 10
132.392
 20
-156.273
 30
0.000000
  70
    32
  0
VERTEX
  8
図枠
  5
569
 10
132.403
 20
-156.284
 30
0.000000
  70
    32
  0
VERTEX
  8
図枠
  5
56A
 10
132.414
 20
-156.294
 30
0.000000
  70
    32
  0
VERTEX
  8
図枠
  5
56B
 10
132.425
 20
-156.305
 30
0.000000
  70
    32
  0
VERTEX
  8
図枠
  5
56C
 10
132.436
 20
-156.316
 30
0.000000
  70
    32
  0
VERTEX
  8
図枠
  5
56D
 10
132.448
 20
-156.327
 30
0.000000
  70
    32
  0
VERTEX
  8
図枠
  5
56E
 10
132.459
 20
-156.337
 30
0.000000
  70
    32
  0
VERTEX
  8
図枠
  5
56F
 10
132.470
 20
-156.348
 30
0.000000
  70
    32
  0
VERTEX
  8
図枠
  5
570
 10
132.481
 20
-156.359
 30
0.000000
  70
    32
  0
VERTEX
  8
図枠
  5
571
 10
132.493
 20
-156.369
 30
0.000000
  70
    32
  0
VERTEX
  8
図枠
  5
572
 10
132.504
 20
-156.380
 30
0.000000
  70
    32
  0
VERTEX
  8
図枠
  5
573
 10
132.515
 20
-156.391
 30
0.000000
  70
    32
  0
VERTEX
  8
図枠
  5
574
 10
132.526
 20
-156.401
 30
0.000000
  70
    32
  0
VERTEX
  8
図枠
  5
575
 10
132.538
 20
-156.412
 30
0.000000
  70
    32
  0
VERTEX
  8
図枠
  5
576
 10
132.549
 20
-156.422
 30
0.000000
  70
    32
  0
VERTEX
  8
図枠
  5
577
 10
132.560
 20
-156.433
 30
0.000000
  70
    32
  0
VERTEX
  8
図枠
  5
578
 10
132.572
 20
-156.443
 30
0.000000
  70
    32
  0
VERTEX
  8
図枠
  5
579
 10
132.583
 20
-156.454
 30
0.000000
  70
    32
  0
VERTEX
  8
図枠
  5
57A
 10
132.595
 20
-156.464
 30
0.000000
  70
    32
  0
VERTEX
  8
図枠
  5
57B
 10
132.606
 20
-156.475
 30
0.000000
  70
    32
  0
VERTEX
  8
図枠
  5
57C
 10
132.617
 20
-156.485
 30
0.000000
  70
    32
  0
VERTEX
  8
図枠
  5
57D
 10
132.629
 20
-156.495
 30
0.000000
  70
    32
  0
VERTEX
  8
図枠
  5
57E
 10
132.640
 20
-156.506
 30
0.000000
  70
    32
  0
SEQEND
  8
図枠
  5
57F
  0
LINE
  5
124
  8
図枠
 10
125.76772676260001
 20
-153.33043323109999
 30
0.0
 11
133.76692676260001
 21
-153.33043323109999
 31
0.0
  0
INSERT
  5
125
  8
0
  6
CONTINUOUS
  2
*U49
 10
0.0
 20
0.0
 30
0.0
  0
LINE
  5
126
  8
図枠
 10
106.0709608407
 20
-153.65040123110001
 30
0.0
 11
106.0709608407
 21
-156.05016123109999
 31
0.0
  0
CIRCLE
  5
127
  8
図枠
 10
137.6431666709
 20
-122.2098223504
 30
0.0
 40
4.6075391999999988
  0
LINE
  5
128
  8
図枠
 10
45.524379470900001
 20
-147.70727235039999
 30
0.0
 11
277.50117947090001
 21
-147.70727235039999
 31
0.0
  0
LINE
  5
129
  8
図枠
 10
138.56644676260001
 20
-152.85048123109999
 30
0.0
 11
140.16628676260001
 21
-150.4507212311
 31
0.0
  0
LINE
  5
12A
  8
図枠
 10
45.524379470900001
 20
-91.712872350400005
 30
0.0
 11
277.50117947090001
 21
-91.712872350400005
 31
0.0
  0
LINE
  5
12B
  8
図枠
  6
BORDER
 10
137.6431666709
 20
-115.2985135504
 30
0.0
 11
137.6431666709
 21
-129.1211311504
 31
0.0
  0
LINE
  5
12C
  8
図枠
 10
125.76772676260001
 20
-154.68105101169999
 30
0.0
 11
125.76772676260001
 21
-154.16572612140001
 31
0.0
  0
LINE
  5
12D
  8
図枠
 10
111.9121427626
 20
-152.85048123109999
 30
0.0
 11
114.3119027626
 21
-150.4507212311
 31
0.0
  0
INSERT
  5
12E
  8
0
  6
CONTINUOUS
  2
*U50
 10
0.0
 20
0.0
 30
0.0
  0
LINE
  5
12F
  8
図枠
 10
106.0709608407
 20
-156.05016123109999
 30
0.0
 11
107.6708008407
 21
-156.05016123109999
 31
0.0
  0
INSERT
  5
130
  8
0
  6
CONTINUOUS
  2
*U51
 10
0.0
 20
0.0
 30
0.0
  0
LINE
  5
131
  8
図枠
 10
49.523979470900002
 20
-139.2081223504
 30
0.0
 11
101.5187794709
 21
-139.2081223504
 31
0.0
  0
LINE
  5
132
  8
図枠
 10
125.76772676260001
 20
-159.24984123109999
 30
0.0
 11
125.76772676260001
 21
-161.64960123110001
 31
0.0
  0
LINE
  5
133
  8
図枠
 10
45.524379470900001
 20
-80.713972350399999
 30
0.0
 11
45.524379470900001
 21
-113.7106723504
 31
0.0
  0
INSERT
  5
134
  8
0
  6
CONTINUOUS
  2
*U52
 10
0.0
 20
0.0
 30
0.0
  0
INSERT
  5
135
  8
0
  6
CONTINUOUS
  2
*U53
 10
0.0
 20
0.0
 30
0.0
  0
LINE
  5
136
  8
図枠
 10
107.9125427626
 20
-159.24984123109999
 30
0.0
 11
107.9125427626
 21
-161.64960123110001
 31
0.0
  0
INSERT
  5
137
  8
0
  6
CONTINUOUS
  2
*U54
 10
0.0
 20
0.0
 30
0.0
  0
LINE
  5
138
  8
図枠
 10
133.02510093929999
 20
-156.08067162789999
 30
0.0
 11
132.64018614450001
 21
-156.5058104867
 31
0.0
  0
ARC
  5
139
  8
図枠
 10
114.3119027626
 20
-156.85008123110001
 30
0.0
 40
4.7995199999999993
 50
270.0
 51
0.0
  0
INSERT
  5
13A
  8
0
  6
CONTINUOUS
  2
*U55
 10
0.0
 20
0.0
 30
0.0
  0
LINE
  5
13B
  8
図枠
 10
89.519979470899983
 20
-122.2098223504
 30
0.0
 11
117.5171794709
 21
-122.2098223504
 31
0.0
  0
ARC
  5
13C
  8
図枠
 10
127.6875347626
 20
-153.17044923110001
 30
0.0
 40
6.0793919999999986
 50
270.0
 51
298.08590481520002
  0
INSERT
  5
13D
  8
0
  6
CONTINUOUS
  2
*U56
 10
0.0
 20
0.0
 30
0.0
  0
INSERT
  5
13E
  8
0
  6
CONTINUOUS
  2
*U57
 10
0.0
 20
0.0
 30
0.0
  0
LINE
  5
13F
  8
図枠
 10
45.524379470900001
 20
-130.70897235039999
 30
0.0
 11
277.50117947090001
 21
-130.70897235039999
 31
0.0
  0
LINE
  5
140
  8
ﾚｲﾔ_1
  6
BORDER
 62
     3
 10
-74.660937500000003
 20
120.7732421875
 30
0.0
 11
-64.660937500000003
 21
120.7732421875
 31
0.0
  0
LINE
  5
141
  8
ﾚｲﾔ_1
  6
BORDER
 62
     3
 10
-96.660937500000017
 20
120.7732421875
 30
0.0
 11
-86.660937499999989
 21
120.7732421875
 31
0.0
  0
LINE
  5
142
  8
ﾚｲﾔ_1
  6
BORDER
 62
     3
 10
-91.660937499999989
 20
125.7732421875
 30
0.0
 11
-91.660937499999989
 21
115.7732421875
 31
0.0
  0
LINE
  5
143
  8
ﾚｲﾔ_1
  6
BORDER
 62
     3
 10
-113.6609375
 20
125.7732421875
 30
0.0
 11
-113.6609375
 21
115.7732421875
 31
0.0
  0
LINE
  5
144
  8
ﾚｲﾔ_1
  6
BORDER
 62
     3
 10
-118.6609375
 20
120.7732421875
 30
0.0
 11
-108.6609375
 21
120.7732421875
 31
0.0
  0
LINE
  5
145
  8
ﾚｲﾔ_1
 62
     5
 10
-138.4609375
 20
139.77324218749999
 30
0.0
 11
-138.4609375
 21
101.7732421875
 31
0.0
  0
DIMENSION
  5
154
  8
寸法線
  2
*D6
 10
-69.660937500000003
 20
81.773242187499989
 30
0.0
 11
-60.660937500000003
 21
81.773242187499989
 31
0.0
 70
   128
  1
<>
 13
-69.660937500000003
 23
115.7732421875
 33
0.0
 14
-51.660937500000003
 24
101.7732421875
 34
0.0
 50
180.0
  0
DIMENSION
  5
163
  8
寸法線
  2
*D7
 10
-165.04781515440001
 20
139.77324218749999
 30
0.0
 11
-165.04781515440001
 21
130.27324218749999
 31
0.0
 70
   128
  1
<>
 13
-141.66093749999999
 23
139.77324218749999
 33
0.0
 14
-145.04781515440001
 24
120.7732421875
 34
0.0
 50
90.0
  0
DIMENSION
  5
172
  8
寸法線
  2
*D8
 10
-138.4609375
 20
43.561993097399998
 30
0.0
 11
-130.10253017030001
 21
43.561993097399998
 31
0.0
 70
   128
  1
<>t
 13
-138.4609375
 23
29.004101562500001
 33
0.0
 14
-141.66093749999999
 24
29.004101562500001
 34
0.0
  0
DIMENSION
  5
181
  8
寸法線
  2
*D9
 10
-165.04781515440001
 20
120.7732421875
 30
0.0
 11
-165.04781515440001
 21
111.2732421875
 31
0.0
 70
   128
  1
<>
 13
-145.04781515440001
 23
120.7732421875
 33
0.0
 14
-141.66093749999999
 24
101.7732421875
 34
0.0
 50
90.0
  0
DIMENSION
  5
190
  8
寸法線
  2
*D10
 10
-179.88886718750001
 20
139.77324218749999
 30
0.0
 11
-179.88886718750001
 21
120.7732421875
 31
0.0
 70
   128
  1
<>
 13
-141.66093749999999
 23
139.77324218749999
 33
0.0
 14
-141.66093749999999
 24
101.7732421875
 34
0.0
 50
90.0
  0
DIMENSION
  5
19F
  8
寸法線
  2
*D11
 10
-141.66093749999999
 20
81.773242187499989
 30
0.0
 11
-127.6609375
 21
81.773242187499989
 31
0.0
 70
   128
  1
<>
 13
-141.66093749999999
 23
101.7732421875
 33
0.0
 14
-113.6609375
 24
115.7732421875
 34
0.0
 50
180.0
  0
DIMENSION
  5
1AE
  8
寸法線
  2
*D12
 10
-113.6609375
 20
81.773242187499989
 30
0.0
 11
-102.6609375
 21
81.773242187499989
 31
0.0
 70
   128
  1
<>
 13
-113.6609375
 23
115.7732421875
 33
0.0
 14
-91.660937499999989
 24
115.7732421875
 34
0.0
 50
180.0
  0
DIMENSION
  5
1BD
  8
寸法線
  2
*D13
 10
-91.660937499999989
 20
81.773242187499989
 30
0.0
 11
-80.660937500000003
 21
81.773242187499989
 31
0.0
 70
   128
  1
<>
 13
-91.660937499999989
 23
115.7732421875
 33
0.0
 14
-69.660937500000003
 24
115.7732421875
 34
0.0
 50
180.0
  0
INSERT
  5
1BE
  8
0
  6
CONTINUOUS
  2
*U58
 10
0.0
 20
0.0
 30
0.0
  0
INSERT
  5
1BF
  8
0
  6
CONTINUOUS
  2
*U59
 10
0.0
 20
0.0
 30
0.0
  0
LINE
  5
1C0
  8
図枠
 10
109.5179794709
 20
-139.2081223504
 30
0.0
 11
161.5127794709
 21
-139.2081223504
 31
0.0
  0
LINE
  5
1C1
  8
図枠
 10
45.524379470900001
 20
-80.713972350399999
 30
0.0
 11
277.50117947090001
 21
-80.713972350399999
 31
0.0
  0
INSERT
  5
1C2
  8
0
  6
CONTINUOUS
  2
*U60
 10
0.0
 20
0.0
 30
0.0
  0
POLYLINE
  8
図枠
  5
580
  66
     1
 10
0.000000
 20
0.000000
 30
0.000000
  70
     8
  0
VERTEX
  8
図枠
  5
581
 10
134.501
 20
-160.268
 30
0.000000
  70
    32
  0
VERTEX
  8
図枠
  5
582
 10
134.544
 20
-160.282
 30
0.000000
  70
    32
  0
VERTEX
  8
図枠
  5
583
 10
134.587
 20
-160.295
 30
0.000000
  70
    32
  0
VERTEX
  8
図枠
  5
584
 10
134.630
 20
-160.309
 30
0.000000
  70
    32
  0
VERTEX
  8
図枠
  5
585
 10
134.673
 20
-160.322
 30
0.000000
  70
    32
  0
VERTEX
  8
図枠
  5
586
 10
134.717
 20
-160.336
 30
0.000000
  70
    32
  0
VERTEX
  8
図枠
  5
587
 10
134.760
 20
-160.349
 30
0.000000
  70
    32
  0
VERTEX
  8
図枠
  5
588
 10
134.803
 20
-160.363
 30
0.000000
  70
    32
  0
VERTEX
  8
図枠
  5
589
 10
134.846
 20
-160.376
 30
0.000000
  70
    32
  0
VERTEX
  8
図枠
  5
58A
 10
134.890
 20
-160.389
 30
0.000000
  70
    32
  0
VERTEX
  8
図枠
  5
58B
 10
134.933
 20
-160.402
 30
0.000000
  70
    32
  0
VERTEX
  8
図枠
  5
58C
 10
134.977
 20
-160.415
 30
0.000000
  70
    32
  0
VERTEX
  8
図枠
  5
58D
 10
135.020
 20
-160.428
 30
0.000000
  70
    32
  0
VERTEX
  8
図枠
  5
58E
 10
135.064
 20
-160.441
 30
0.000000
  70
    32
  0
VERTEX
  8
図枠
  5
58F
 10
135.107
 20
-160.454
 30
0.000000
  70
    32
  0
VERTEX
  8
図枠
  5
590
 10
135.151
 20
-160.467
 30
0.000000
  70
    32
  0
VERTEX
  8
図枠
  5
591
 10
135.194
 20
-160.480
 30
0.000000
  70
    32
  0
VERTEX
  8
図枠
  5
592
 10
135.238
 20
-160.492
 30
0.000000
  70
    32
  0
VERTEX
  8
図枠
  5
593
 10
135.281
 20
-160.505
 30
0.000000
  70
    32
  0
VERTEX
  8
図枠
  5
594
 10
135.325
 20
-160.518
 30
0.000000
  70
    32
  0
VERTEX
  8
図枠
  5
595
 10
135.369
 20
-160.530
 30
0.000000
  70
    32
  0
VERTEX
  8
図枠
  5
596
 10
135.413
 20
-160.543
 30
0.000000
  70
    32
  0
VERTEX
  8
図枠
  5
597
 10
135.456
 20
-160.555
 30
0.000000
  70
    32
  0
VERTEX
  8
図枠
  5
598
 10
135.500
 20
-160.568
 30
0.000000
  70
    32
  0
VERTEX
  8
図枠
  5
599
 10
135.544
 20
-160.580
 30
0.000000
  70
    32
  0
VERTEX
  8
図枠
  5
59A
 10
135.588
 20
-160.592
 30
0.000000
  70
    32
  0
VERTEX
  8
図枠
  5
59B
 10
135.632
 20
-160.604
 30
0.000000
  70
    32
  0
VERTEX
  8
図枠
  5
59C
 10
135.676
 20
-160.616
 30
0.000000
  70
    32
  0
VERTEX
  8
図枠
  5
59D
 10
135.720
 20
-160.629
 30
0.000000
  70
    32
  0
VERTEX
  8
図枠
  5
59E
 10
135.764
 20
-160.641
 30
0.000000
  70
    32
  0
VERTEX
  8
図枠
  5
59F
 10
135.808
 20
-160.653
 30
0.000000
  70
    32
  0
VERTEX
  8
図枠
  5
5A0
 10
135.852
 20
-160.665
 30
0.000000
  70
    32
  0
VERTEX
  8
図枠
  5
5A1
 10
135.896
 20
-160.676
 30
0.000000
  70
    32
  0
VERTEX
  8
図枠
  5
5A2
 10
135.940
 20
-160.688
 30
0.000000
  70
    32
  0
VERTEX
  8
図枠
  5
5A3
 10
135.984
 20
-160.700
 30
0.000000
  70
    32
  0
VERTEX
  8
図枠
  5
5A4
 10
136.028
 20
-160.712
 30
0.000000
  70
    32
  0
VERTEX
  8
図枠
  5
5A5
 10
136.072
 20
-160.723
 30
0.000000
  70
    32
  0
VERTEX
  8
図枠
  5
5A6
 10
136.116
 20
-160.735
 30
0.000000
  70
    32
  0
VERTEX
  8
図枠
  5
5A7
 10
136.161
 20
-160.747
 30
0.000000
  70
    32
  0
VERTEX
  8
図枠
  5
5A8
 10
136.205
 20
-160.758
 30
0.000000
  70
    32
  0
VERTEX
  8
図枠
  5
5A9
 10
136.249
 20
-160.770
 30
0.000000
  70
    32
  0
VERTEX
  8
図枠
  5
5AA
 10
136.294
 20
-160.781
 30
0.000000
  70
    32
  0
VERTEX
  8
図枠
  5
5AB
 10
136.338
 20
-160.793
 30
0.000000
  70
    32
  0
VERTEX
  8
図枠
  5
5AC
 10
136.382
 20
-160.804
 30
0.000000
  70
    32
  0
VERTEX
  8
図枠
  5
5AD
 10
136.427
 20
-160.815
 30
0.000000
  70
    32
  0
VERTEX
  8
図枠
  5
5AE
 10
136.471
 20
-160.826
 30
0.000000
  70
    32
  0
VERTEX
  8
図枠
  5
5AF
 10
136.515
 20
-160.838
 30
0.000000
  70
    32
  0
VERTEX
  8
図枠
  5
5B0
 10
136.560
 20
-160.849
 30
0.000000
  70
    32
  0
VERTEX
  8
図枠
  5
5B1
 10
136.604
 20
-160.860
 30
0.000000
  70
    32
  0
VERTEX
  8
図枠
  5
5B2
 10
136.649
 20
-160.871
 30
0.000000
  70
    32
  0
VERTEX
  8
図枠
  5
5B3
 10
136.693
 20
-160.882
 30
0.000000
  70
    32
  0
VERTEX
  8
図枠
  5
5B4
 10
136.738
 20
-160.893
 30
0.000000
  70
    32
  0
VERTEX
  8
図枠
  5
5B5
 10
136.782
 20
-160.904
 30
0.000000
  70
    32
  0
VERTEX
  8
図枠
  5
5B6
 10
136.827
 20
-160.915
 30
0.000000
  70
    32
  0
VERTEX
  8
図枠
  5
5B7
 10
136.872
 20
-160.926
 30
0.000000
  70
    32
  0
VERTEX
  8
図枠
  5
5B8
 10
136.916
 20
-160.937
 30
0.000000
  70
    32
  0
VERTEX
  8
図枠
  5
5B9
 10
136.961
 20
-160.948
 30
0.000000
  70
    32
  0
VERTEX
  8
図枠
  5
5BA
 10
137.006
 20
-160.958
 30
0.000000
  70
    32
  0
VERTEX
  8
図枠
  5
5BB
 10
137.050
 20
-160.969
 30
0.000000
  70
    32
  0
VERTEX
  8
図枠
  5
5BC
 10
137.095
 20
-160.980
 30
0.000000
  70
    32
  0
VERTEX
  8
図枠
  5
5BD
 10
137.140
 20
-160.990
 30
0.000000
  70
    32
  0
VERTEX
  8
図枠
  5
5BE
 10
137.184
 20
-161.001
 30
0.000000
  70
    32
  0
VERTEX
  8
図枠
  5
5BF
 10
137.229
 20
-161.012
 30
0.000000
  70
    32
  0
VERTEX
  8
図枠
  5
5C0
 10
137.274
 20
-161.022
 30
0.000000
  70
    32
  0
VERTEX
  8
図枠
  5
5C1
 10
137.319
 20
-161.033
 30
0.000000
  70
    32
  0
VERTEX
  8
図枠
  5
5C2
 10
137.364
 20
-161.043
 30
0.000000
  70
    32
  0
VERTEX
  8
図枠
  5
5C3
 10
137.408
 20
-161.054
 30
0.000000
  70
    32
  0
VERTEX
  8
図枠
  5
5C4
 10
137.453
 20
-161.064
 30
0.000000
  70
    32
  0
VERTEX
  8
図枠
  5
5C5
 10
137.498
 20
-161.074
 30
0.000000
  70
    32
  0
VERTEX
  8
図枠
  5
5C6
 10
137.543
 20
-161.085
 30
0.000000
  70
    32
  0
VERTEX
  8
図枠
  5
5C7
 10
137.588
 20
-161.095
 30
0.000000
  70
    32
  0
VERTEX
  8
図枠
  5
5C8
 10
137.633
 20
-161.105
 30
0.000000
  70
    32
  0
VERTEX
  8
図枠
  5
5C9
 10
137.678
 20
-161.116
 30
0.000000
  70
    32
  0
VERTEX
  8
図枠
  5
5CA
 10
137.723
 20
-161.126
 30
0.000000
  70
    32
  0
VERTEX
  8
図枠
  5
5CB
 10
137.768
 20
-161.136
 30
0.000000
  70
    32
  0
VERTEX
  8
図枠
  5
5CC
 10
137.813
 20
-161.146
 30
0.000000
  70
    32
  0
VERTEX
  8
図枠
  5
5CD
 10
137.858
 20
-161.156
 30
0.000000
  70
    32
  0
VERTEX
  8
図枠
  5
5CE
 10
137.903
 20
-161.167
 30
0.000000
  70
    32
  0
VERTEX
  8
図枠
  5
5CF
 10
137.948
 20
-161.177
 30
0.000000
  70
    32
  0
VERTEX
  8
図枠
  5
5D0
 10
137.993
 20
-161.187
 30
0.000000
  70
    32
  0
VERTEX
  8
図枠
  5
5D1
 10
138.038
 20
-161.197
 30
0.000000
  70
    32
  0
VERTEX
  8
図枠
  5
5D2
 10
138.083
 20
-161.207
 30
0.000000
  70
    32
  0
VERTEX
  8
図枠
  5
5D3
 10
138.128
 20
-161.217
 30
0.000000
  70
    32
  0
VERTEX
  8
図枠
  5
5D4
 10
138.173
 20
-161.227
 30
0.000000
  70
    32
  0
VERTEX
  8
図枠
  5
5D5
 10
138.218
 20
-161.237
 30
0.000000
  70
    32
  0
VERTEX
  8
図枠
  5
5D6
 10
138.263
 20
-161.247
 30
0.000000
  70
    32
  0
VERTEX
  8
図枠
  5
5D7
 10
138.309
 20
-161.257
 30
0.000000
  70
    32
  0
VERTEX
  8
図枠
  5
5D8
 10
138.354
 20
-161.266
 30
0.000000
  70
    32
  0
VERTEX
  8
図枠
  5
5D9
 10
138.399
 20
-161.276
 30
0.000000
  70
    32
  0
VERTEX
  8
図枠
  5
5DA
 10
138.444
 20
-161.286
 30
0.000000
  70
    32
  0
VERTEX
  8
図枠
  5
5DB
 10
138.489
 20
-161.296
 30
0.000000
  70
    32
  0
VERTEX
  8
図枠
  5
5DC
 10
138.535
 20
-161.306
 30
0.000000
  70
    32
  0
VERTEX
  8
図枠
  5
5DD
 10
138.580
 20
-161.315
 30
0.000000
  70
    32
  0
VERTEX
  8
図枠
  5
5DE
 10
138.625
 20
-161.325
 30
0.000000
  70
    32
  0
VERTEX
  8
図枠
  5
5DF
 10
138.670
 20
-161.335
 30
0.000000
  70
    32
  0
VERTEX
  8
図枠
  5
5E0
 10
138.715
 20
-161.345
 30
0.000000
  70
    32
  0
VERTEX
  8
図枠
  5
5E1
 10
138.761
 20
-161.354
 30
0.000000
  70
    32
  0
VERTEX
  8
図枠
  5
5E2
 10
138.806
 20
-161.364
 30
0.000000
  70
    32
  0
VERTEX
  8
図枠
  5
5E3
 10
138.851
 20
-161.374
 30
0.000000
  70
    32
  0
VERTEX
  8
図枠
  5
5E4
 10
138.896
 20
-161.383
 30
0.000000
  70
    32
  0
VERTEX
  8
図枠
  5
5E5
 10
138.942
 20
-161.393
 30
0.000000
  70
    32
  0
VERTEX
  8
図枠
  5
5E6
 10
138.987
 20
-161.403
 30
0.000000
  70
    32
  0
VERTEX
  8
図枠
  5
5E7
 10
139.032
 20
-161.412
 30
0.000000
  70
    32
  0
VERTEX
  8
図枠
  5
5E8
 10
139.078
 20
-161.422
 30
0.000000
  70
    32
  0
VERTEX
  8
図枠
  5
5E9
 10
139.123
 20
-161.431
 30
0.000000
  70
    32
  0
VERTEX
  8
図枠
  5
5EA
 10
139.168
 20
-161.441
 30
0.000000
  70
    32
  0
VERTEX
  8
図枠
  5
5EB
 10
139.214
 20
-161.451
 30
0.000000
  70
    32
  0
VERTEX
  8
図枠
  5
5EC
 10
139.259
 20
-161.460
 30
0.000000
  70
    32
  0
VERTEX
  8
図枠
  5
5ED
 10
139.304
 20
-161.470
 30
0.000000
  70
    32
  0
VERTEX
  8
図枠
  5
5EE
 10
139.350
 20
-161.479
 30
0.000000
  70
    32
  0
VERTEX
  8
図枠
  5
5EF
 10
139.395
 20
-161.489
 30
0.000000
  70
    32
  0
VERTEX
  8
図枠
  5
5F0
 10
139.440
 20
-161.498
 30
0.000000
  70
    32
  0
VERTEX
  8
図枠
  5
5F1
 10
139.486
 20
-161.508
 30
0.000000
  70
    32
  0
VERTEX
  8
図枠
  5
5F2
 10
139.531
 20
-161.517
 30
0.000000
  70
    32
  0
VERTEX
  8
図枠
  5
5F3
 10
139.576
 20
-161.527
 30
0.000000
  70
    32
  0
VERTEX
  8
図枠
  5
5F4
 10
139.622
 20
-161.536
 30
0.000000
  70
    32
  0
VERTEX
  8
図枠
  5
5F5
 10
139.667
 20
-161.546
 30
0.000000
  70
    32
  0
VERTEX
  8
図枠
  5
5F6
 10
139.712
 20
-161.555
 30
0.000000
  70
    32
  0
VERTEX
  8
図枠
  5
5F7
 10
139.758
 20
-161.565
 30
0.000000
  70
    32
  0
VERTEX
  8
図枠
  5
5F8
 10
139.803
 20
-161.574
 30
0.000000
  70
    32
  0
VERTEX
  8
図枠
  5
5F9
 10
139.849
 20
-161.584
 30
0.000000
  70
    32
  0
VERTEX
  8
図枠
  5
5FA
 10
139.894
 20
-161.593
 30
0.000000
  70
    32
  0
VERTEX
  8
図枠
  5
5FB
 10
139.939
 20
-161.602
 30
0.000000
  70
    32
  0
VERTEX
  8
図枠
  5
5FC
 10
139.985
 20
-161.612
 30
0.000000
  70
    32
  0
VERTEX
  8
図枠
  5
5FD
 10
140.030
 20
-161.621
 30
0.000000
  70
    32
  0
VERTEX
  8
図枠
  5
5FE
 10
140.076
 20
-161.631
 30
0.000000
  70
    32
  0
VERTEX
  8
図枠
  5
5FF
 10
140.121
 20
-161.640
 30
0.000000
  70
    32
  0
VERTEX
  8
図枠
  5
600
 10
140.166
 20
-161.650
 30
0.000000
  70
    32
  0
SEQEND
  8
図枠
  5
601
  0
LINE
  5
1C4
  8
図枠
 10
140.16628676260001
 20
-150.4507212311
 30
0.0
 11
125.76772676260001
 21
-150.4507212311
 31
0.0
  0
LINE
  5
1C5
  8
図枠
 10
140.16628676260001
 20
-159.24984123109999
 30
0.0
 11
140.16628676260001
 21
-161.64960123110001
 31
0.0
  0
LINE
  5
1C6
  8
図枠
 10
45.524379470900001
 20
-102.7117723504
 30
0.0
 11
277.50117947090001
 21
-102.7117723504
 31
0.0
  0
LINE
  5
1C7
  8
図枠
 10
136.7469796908
 20
-158.20855530439999
 30
0.0
 11
136.4620448915
 21
-158.48753243460001
 31
0.0
  0
LINE
  5
1C8
  8
図枠
  6
BORDER
 10
130.7318578709
 20
-122.2098223504
 30
0.0
 11
160.29690107089999
 21
-122.2098223504
 31
0.0
  0
DIMENSION
  5
1D6
  8
寸法線
  2
*D61
 10
-66.691110370601422
 20
-51.266267202625258
 30
0.0
 11
-69.660937500000003
 21
-50.845866124300002
 31
0.0
 70
   133
  1
<>
 13
-74.191267585899993
 23
-57.515568351599988
 33
0.0
 14
-65.130607414099998
 24
-57.515568351599988
 34
0.0
 15
-69.660937500000003
 25
-61.5458984375
 35
0.0
1001
ACAD
1000
DSTYLE
1002
{
1070
   271
1070
     0
1002
}
  0
LINE
  5
1D7
  8
ﾚｲﾔ_1
 62
     5
 10
-141.66093749999999
 20
139.77324218749999
 30
0.0
 11
-141.66093749999999
 21
101.7732421875
 31
0.0
  0
LINE
  5
1D8
  8
ﾚｲﾔ_1
 62
     5
 10
-51.660937500000003
 20
139.77324218749999
 30
0.0
 11
-141.66093749999999
 21
139.77324218749999
 31
0.0
  0
LINE
  5
1D9
  8
ﾚｲﾔ_1
 62
     5
 10
-51.660937500000003
 20
101.7732421875
 30
0.0
 11
-51.660937500000003
 21
139.77324218749999
 31
0.0
  0
LINE
  5
1DA
  8
ﾚｲﾔ_1
  6
STITCH
 10
-139.66093749999999
 20
123.0232421875
 30
0.0
 11
-138.4609375
 21
123.0232421875
 31
0.0
  0
LINE
  5
1DB
  8
ﾚｲﾔ_1
  6
STITCH
 10
-139.66093749999999
 20
123.0232421875
 30
0.0
 11
-139.66093749999999
 21
118.5232421875
 31
0.0
  0
LINE
  5
1DC
  8
ﾚｲﾔ_1
  6
STITCH
 10
-139.66093749999999
 20
118.5232421875
 30
0.0
 11
-138.4609375
 21
118.5232421875
 31
0.0
  0
LINE
  5
1DD
  8
ﾚｲﾔ_1
  6
STITCH
 10
-141.66093749999999
 20
125.0232421875
 30
0.0
 11
-139.66093749999999
 21
123.0232421875
 31
0.0
  0
LINE
  5
1DE
  8
ﾚｲﾔ_1
 62
     5
 10
-141.66093749999999
 20
101.7732421875
 30
0.0
 11
-51.660937500000003
 21
101.7732421875
 31
0.0
  0
LINE
  5
1DF
  8
ﾚｲﾔ_1
  6
STITCH
 10
-139.66093749999999
 20
118.5232421875
 30
0.0
 11
-141.66093749999999
 21
116.5232421875
 31
0.0
  0
CIRCLE
  5
1E0
  8
ﾚｲﾔ_1
 62
     5
 10
-113.6609375
 20
120.7732421875
 30
0.0
 40
2.25
  0
CIRCLE
  5
1E1
  8
ﾚｲﾔ_1
 62
     5
 10
-91.660937499999989
 20
120.7732421875
 30
0.0
 40
2.25
  0
CIRCLE
  5
1E2
  8
ﾚｲﾔ_1
 62
     5
 10
-69.660937500000003
 20
120.7732421875
 30
0.0
 40
2.25
  0
CIRCLE
  5
1E3
  8
ﾚｲﾔ_1
 62
     5
 10
-113.6609375
 20
120.7732421875
 30
0.0
 40
4.25
  0
CIRCLE
  5
1E4
  8
ﾚｲﾔ_1
 62
     5
 10
-91.660937499999989
 20
120.7732421875
 30
0.0
 40
4.25
  0
CIRCLE
  5
1E5
  8
ﾚｲﾔ_1
 62
     5
 10
-69.660937500000003
 20
120.7732421875
 30
0.0
 40
4.25
  0
LINE
  5
1E6
  8
ﾚｲﾔ_1
  6
STITCH
 10
-139.66093749999999
 20
8.7541015625000007
 30
0.0
 11
-141.66093749999999
 21
6.7541015624999989
 31
0.0
  0
LINE
  5
1E7
  8
ﾚｲﾔ_1
  6
STITCH
 10
-141.66093749999999
 20
15.254101562500001
 30
0.0
 11
-139.66093749999999
 21
13.254101562500001
 31
0.0
  0
LINE
  5
1E8
  8
ﾚｲﾔ_1
  6
STITCH
 10
-139.66093749999999
 20
8.7541015625000007
 30
0.0
 11
-138.4609375
 21
8.7541015625000007
 31
0.0
  0
LINE
  5
1E9
  8
ﾚｲﾔ_1
  6
STITCH
 10
-139.66093749999999
 20
13.254101562500001
 30
0.0
 11
-139.66093749999999
 21
8.7541015625000007
 31
0.0
  0
LINE
  5
1EA
  8
ﾚｲﾔ_1
  6
STITCH
 10
-139.66093749999999
 20
13.254101562500001
 30
0.0
 11
-138.4609375
 21
13.254101562500001
 31
0.0
  0
LINE
  5
1EB
  8
ﾚｲﾔ_1
 62
     5
 10
-138.4609375
 20
29.004101562500001
 30
0.0
 11
-141.66093749999999
 21
29.004101562500001
 31
0.0
  0
LINE
  5
1EC
  8
ﾚｲﾔ_1
  6
BORDER
 62
     3
 10
-135.04781515440001
 20
11.004101562500001
 30
0.0
 11
-145.04781515440001
 21
11.004101562500001
 31
0.0
  0
LINE
  5
1ED
  8
ﾚｲﾔ_1
  6
BORDER
 62
     3
 10
-135.04781515440001
 20
120.7732421875
 30
0.0
 11
-145.04781515440001
 21
120.7732421875
 31
0.0
  0
LINE
  5
1EE
  8
ﾚｲﾔ_1
  6
BORDER
 62
     3
 10
-69.660937500000003
 20
125.7732421875
 30
0.0
 11
-69.660937500000003
 21
115.7732421875
 31
0.0
  0
LINE
  5
1EF
  8
ﾚｲﾔ_1
 62
     5
 10
-137.66093749999999
 20
-60.995898437500003
 30
0.0
 11
-51.660937500000003
 21
-60.995898437500003
 31
0.0
  0
LINE
  5
1F0
  8
ﾚｲﾔ_1
  6
BORDER
 62
     3
 10
-69.660937500000003
 20
-64.409020783100004
 30
0.0
 11
-69.660937500000003
 21
-54.409020783099997
 31
0.0
  0
LINE
  5
1F1
  8
ﾚｲﾔ_1
  6
BORDER
 62
     3
 10
-91.660937499999989
 20
-64.409020783100004
 30
0.0
 11
-91.660937499999989
 21
-54.409020783099997
 31
0.0
  0
LINE
  5
1F2
  8
ﾚｲﾔ_1
  6
BORDER
 62
     3
 10
-113.6609375
 20
-64.409020783100004
 30
0.0
 11
-113.6609375
 21
-54.409020783099997
 31
0.0
  0
LINE
  5
1F3
  8
ﾚｲﾔ_1
  6
BORDER
 62
     3
 10
-135.04781515440001
 20
-32.99589843750001
 30
0.0
 11
-145.04781515440001
 21
-32.99589843750001
 31
0.0
  0
LINE
  5
1F4
  8
ﾚｲﾔ_1
  6
STITCH
 10
-139.66093749999999
 20
-8.7458984374999993
 30
0.0
 11
-138.4609375
 21
-8.7458984374999993
 31
0.0
  0
LINE
  5
1F5
  8
ﾚｲﾔ_1
  6
STITCH
 10
-139.66093749999999
 20
-8.7458984374999993
 30
0.0
 11
-139.66093749999999
 21
-13.245898437499999
 31
0.0
  0
LINE
  5
1F6
  8
ﾚｲﾔ_1
  6
STITCH
 10
-139.66093749999999
 20
-13.245898437499999
 30
0.0
 11
-138.4609375
 21
-13.245898437499999
 31
0.0
  0
LINE
  5
1F7
  8
ﾚｲﾔ_1
  6
STITCH
 10
-141.66093749999999
 20
-6.7458984375000002
 30
0.0
 11
-139.66093749999999
 21
-8.7458984374999993
 31
0.0
  0
LINE
  5
1F8
  8
ﾚｲﾔ_1
  6
STITCH
 10
-139.66093749999999
 20
-13.245898437499999
 30
0.0
 11
-141.66093749999999
 21
-15.245898437499999
 31
0.0
  0
LINE
  5
1F9
  8
ﾚｲﾔ_1
  6
STITCH
 10
-139.66093749999999
 20
-35.245898437500003
 30
0.0
 11
-141.66093749999999
 21
-37.245898437500003
 31
0.0
  0
LINE
  5
1FA
  8
ﾚｲﾔ_1
  6
STITCH
 10
-141.66093749999999
 20
-28.745898437499999
 30
0.0
 11
-139.66093749999999
 21
-30.745898437499999
 31
0.0
  0
LINE
  5
1FB
  8
ﾚｲﾔ_1
  6
STITCH
 10
-139.66093749999999
 20
-35.245898437500003
 30
0.0
 11
-138.4609375
 21
-35.245898437500003
 31
0.0
  0
LINE
  5
1FC
  8
ﾚｲﾔ_1
  6
STITCH
 10
-139.66093749999999
 20
-30.745898437499999
 30
0.0
 11
-139.66093749999999
 21
-35.245898437500003
 31
0.0
  0
LINE
  5
1FD
  8
ﾚｲﾔ_1
  6
STITCH
 10
-111.4109375
 20
-59.7958984375
 30
0.0
 11
-115.9109375
 21
-59.7958984375
 31
0.0
  0
LINE
  5
1FE
  8
ﾚｲﾔ_1
  6
STITCH
 10
-115.9109375
 20
-59.7958984375
 30
0.0
 11
-115.9109375
 21
-60.995898437500003
 31
0.0
  0
LINE
  5
1FF
  8
ﾚｲﾔ_1
  6
STITCH
 10
-109.4109375
 20
-57.7958984375
 30
0.0
 11
-111.4109375
 21
-59.7958984375
 31
0.0
  0
LINE
  5
200
  8
ﾚｲﾔ_1
  6
STITCH
 10
-115.9109375
 20
-59.7958984375
 30
0.0
 11
-117.9109375
 21
-57.7958984375
 31
0.0
  0
LINE
  5
201
  8
ﾚｲﾔ_1
  6
STITCH
 10
-93.910937500000017
 20
-59.7958984375
 30
0.0
 11
-95.910937500000003
 21
-57.7958984375
 31
0.0
  0
LINE
  5
202
  8
ﾚｲﾔ_1
  6
STITCH
 10
-87.410937500000003
 20
-57.7958984375
 30
0.0
 11
-89.410937500000003
 21
-59.7958984375
 31
0.0
  0
LINE
  5
203
  8
ﾚｲﾔ_1
  6
STITCH
 10
-93.910937500000017
 20
-59.7958984375
 30
0.0
 11
-93.910937500000017
 21
-60.995898437500003
 31
0.0
  0
LINE
  5
204
  8
ﾚｲﾔ_1
  6
STITCH
 10
-89.410937500000003
 20
-59.7958984375
 30
0.0
 11
-93.910937500000017
 21
-59.7958984375
 31
0.0
  0
DIMENSION
  5
214
  8
寸法線
  2
*D15
 10
-71.910937500000003
 20
-66.497700737800002
 30
0.0
 11
-69.660937500000003
 21
-66.497700737800002
 31
0.0
 70
   128
  1
%%c4
 13
-71.910937500000003
 23
-60.995898437500003
 33
0.0
 14
-67.410937500000003
 24
-60.995898437500003
 34
0.0
 50
180.0
  0
DIMENSION
  5
223
  8
寸法線
  2
*D16
 10
-65.410937500000003
 20
-54.409020783099997
 30
0.0
 11
-69.660937500000003
 21
-54.409020783099997
 31
0.0
 70
   128
  1
%%c8
 13
-65.410937500000003
 23
-57.7958984375
 33
0.0
 14
-73.910937500000003
 24
-57.7958984375
 34
0.0
  0
DIMENSION
  5
232
  8
寸法線
  2
*D17
 10
-141.66093749999999
 20
-80.995898437500017
 30
0.0
 11
-96.660937500000017
 21
-80.995898437500017
 31
0.0
 70
   128
  1
<>
 13
-141.66093749999999
 23
-56.995898437500003
 33
0.0
 14
-51.660937500000003
 24
-60.995898437500003
 34
0.0
 50
180.0
  0
LINE
  5
233
  8
図枠
 62
     5
 10
-272.44382052909998
 20
-164.70557235039999
 30
0.0
 11
277.50117947090001
 21
-164.70557235039999
 31
0.0
  0
LINE
  5
234
  8
図枠
  6
DOT
 10
-284.4426205291
 20
-176.20442235039999
 30
0.0
 11
289.49997947089997
 21
-176.20442235039999
 31
0.0
  0
LINE
  5
235
  8
図枠
 62
     5
 10
-272.44382052909998
 20
215.2564276496
 30
0.0
 11
277.50117947090001
 21
215.2564276496
 31
0.0
  0
LINE
  5
236
  8
図枠
  6
DOT
 10
-284.4426205291
 20
226.7552776496
 30
0.0
 11
289.49997947089997
 21
226.7552776496
 31
0.0
  0
LINE
  5
237
  8
ﾚｲﾔ_1
 62
     5
 10
-138.4609375
 20
29.004101562500001
 30
0.0
 11
-138.4609375
 21
-56.995898437500003
 31
0.0
  0
LINE
  5
238
  8
ﾚｲﾔ_1
 62
     5
 10
-141.66093749999999
 20
29.004101562500001
 30
0.0
 11
-141.66093749999999
 21
-56.995898437500003
 31
0.0
  0
DIMENSION
  5
247
  8
寸法線
  2
*D18
 10
-165.04781515440001
 20
29.004101562500001
 30
0.0
 11
-165.04781515440001
 21
-15.995898437499999
 31
0.0
 70
   128
  1
<>
 13
-141.66093749999999
 23
29.004101562500001
 33
0.0
 14
-137.66093749999999
 24
-60.995898437500003
 34
0.0
 50
90.0
  0
DIMENSION
  5
255
  8
寸法線
  2
*D62
 10
-89.946120184472264
 20
-29.785855600694539
 30
0.0
 11
-104.7188605858
 21
-13.0776443974
 31
0.0
 70
   133
  1
<>
 13
-138.4609375
 23
29.004101562500001
 33
0.0
 14
-51.660937500000003
 24
-57.7958984375
 34
0.0
 15
-138.4609375
 25
-57.7958984375
 35
0.0
1001
ACAD
1000
DSTYLE
1002
{
1070
   271
1070
     0
1002
}
  0
LINE
  5
256
  8
図枠
  6
DOT
 10
-284.43662112909999
 20
-176.20442235039999
 30
0.0
 11
-284.43662112909999
 21
226.7552776496
 31
0.0
  0
LINE
  5
257
  8
図枠
 62
     5
 10
-272.44382052909998
 20
-164.70557235039999
 30
0.0
 11
-272.44382052909998
 21
215.2564276496
 31
0.0
  0
LINE
  5
258
  8
図枠
  6
DOT
 10
289.49997947089997
 20
-176.20442235039999
 30
0.0
 11
289.49997947089997
 21
226.7552776496
 31
0.0
  0
LINE
  5
259
  8
図枠
 62
     5
 10
277.50117947090001
 20
-164.70557235039999
 30
0.0
 11
277.50117947090001
 21
215.2564276496
 31
0.0
  0
LINE
  5
25A
  8
ﾚｲﾔ_1
  6
STITCH
 10
-139.66093749999999
 20
-30.745898437499999
 30
0.0
 11
-138.4609375
 21
-30.745898437499999
 31
0.0
  0
LINE
  5
25B
  8
ﾚｲﾔ_1
  6
STITCH
 10
-111.4109375
 20
-59.7958984375
 30
0.0
 11
-111.4109375
 21
-60.995898437500003
 31
0.0
  0
LINE
  5
25C
  8
ﾚｲﾔ_1
  6
STITCH
 10
-89.410937500000003
 20
-59.7958984375
 30
0.0
 11
-89.410937500000003
 21
-60.995898437500003
 31
0.0
  0
LINE
  5
25D
  8
ﾚｲﾔ_1
  6
STITCH
 10
-67.410937500000003
 20
-59.7958984375
 30
0.0
 11
-67.410937500000003
 21
-60.995898437500003
 31
0.0
  0
LINE
  5
25E
  8
ﾚｲﾔ_1
  6
STITCH
 10
-67.410937500000003
 20
-59.7958984375
 30
0.0
 11
-71.910937500000003
 21
-59.7958984375
 31
0.0
  0
LINE
  5
25F
  8
ﾚｲﾔ_1
  6
STITCH
 10
-71.910937500000003
 20
-59.7958984375
 30
0.0
 11
-71.910937500000003
 21
-60.995898437500003
 31
0.0
  0
LINE
  5
260
  8
ﾚｲﾔ_1
  6
STITCH
 10
-65.410937500000003
 20
-57.7958984375
 30
0.0
 11
-67.410937500000003
 21
-59.7958984375
 31
0.0
  0
LINE
  5
261
  8
ﾚｲﾔ_1
  6
STITCH
 10
-71.910937500000003
 20
-59.7958984375
 30
0.0
 11
-73.910937500000003
 21
-57.7958984375
 31
0.0
  0
LINE
  5
262
  8
ﾚｲﾔ_1
  6
BORDER
 62
     3
 10
-135.04781515440001
 20
-10.995898437499999
 30
0.0
 11
-145.04781515440001
 21
-10.995898437499999
 31
0.0
  0
LINE
  5
263
  8
ﾚｲﾔ_1
 62
     5
 10
-51.660937500000003
 20
-60.995898437500003
 30
0.0
 11
-51.660937500000003
 21
-57.7958984375
 31
0.0
  0
ARC
  5
264
  8
ﾚｲﾔ_1
 62
     5
 10
-137.66093749999999
 20
-56.995898437500003
 30
0.0
 40
0.8
 50
180.0
 51
270.0
  0
LINE
  5
265
  8
ﾚｲﾔ_1
 62
     5
 10
-137.66093749999999
 20
-57.7958984375
 30
0.0
 11
-51.660937500000003
 21
-57.7958984375
 31
0.0
  0
ARC
  5
266
  8
ﾚｲﾔ_1
 62
     5
 10
-137.66093749999999
 20
-56.995898437500003
 30
0.0
 40
4.0
 50
180.0
 51
270.0
  0
LINE
  5
2A7
  8
ﾚｲﾔ_1
  6
STITCH
 10
112.7043797634793
 20
-19.57736891743194
 30
0.0
 11
109.50437976347931
 21
-22.77736891743195
 31
0.0
  0
LINE
  5
2A8
  8
ﾚｲﾔ_1
 62
     5
 10
77.936341030323547
 20
-19.57736891743194
 30
0.0
 11
130.23377290387469
 21
-19.57736891743194
 31
0.0
  0
LINE
  5
2A9
  8
ﾚｲﾔ_1
 62
     5
 10
77.936341030323547
 20
-25.977368917431939
 30
0.0
 11
130.23377290387469
 21
-25.977368917431939
 31
0.0
  0
LINE
  5
2AA
  8
ﾚｲﾔ_1
  6
BORDER
 62
     3
 10
104.7043797634793
 20
-14.09063743603194
 30
0.0
 11
104.7043797634793
 21
-31.68542910263195
 31
0.0
  0
DIMENSION
  5
2AB
  8
寸法線
  2
*D24
 10
96.704379763479352
 20
-4.1302837025947383
 30
0.0
 11
104.4430220495624
 21
-4.1302837025947383
 31
0.0
 70
   128
  1
φ8
 13
112.7043797634793
 23
-19.57736891743194
 33
0.0
 14
96.704379763479352
 24
-19.57736891743194
 34
0.0
  0
DIMENSION
  5
2AC
  8
寸法線
  2
*D25
 10
113.9269837064077
 20
6.8418575751551893
 30
0.0
 11
104.1383475782709
 21
8.0515404596657199
 31
0.0
 70
   133
 13
95.643719591879375
 23
-18.516708745631941
 33
0.0
 14
113.7650399352793
 24
-18.516708745631941
 34
0.0
 15
104.7043797634793
 25
-27.57736891743194
 35
0.0
1001
ACAD
1000
DSTYLE
1002
{
1070
   271
1070
     0
1002
}
  0
DIMENSION
  5
2AD
  8
寸法線
  2
*D26
 10
109.50437976347931
 20
-35.826449011497118
 30
0.0
 11
130.59021282662931
 21
-35.826449011497118
 31
0.0
 70
   128
  1
φ4
 13
99.904379763479341
 23
-25.977368917431939
 33
0.0
 14
109.50437976347931
 24
-25.977368917431939
 34
0.0
 50
180.0
  0
LINE
  5
2AE
  8
ﾚｲﾔ_1
  6
STITCH
 10
99.904379763479341
 20
-22.77736891743195
 30
0.0
 11
99.904379763479341
 21
-25.977368917431939
 31
0.0
  0
LINE
  5
2AF
  8
ﾚｲﾔ_1
  6
STITCH
 10
109.50437976347931
 20
-22.77736891743195
 30
0.0
 11
109.50437976347931
 21
-25.977368917431939
 31
0.0
  0
LINE
  5
2B0
  8
ﾚｲﾔ_1
  6
STITCH
 10
109.50437976347931
 20
-22.77736891743195
 30
0.0
 11
99.904379763479341
 21
-22.77736891743195
 31
0.0
  0
LINE
  5
2B1
  8
ﾚｲﾔ_1
  6
STITCH
 10
99.904379763479341
 20
-22.77736891743195
 30
0.0
 11
96.704379763479352
 21
-19.57736891743194
 31
0.0
  0
ENDSEC
  0
EOF
