  0
SECTION
  2
HEADER
  9
$ACADVER
  1
AC1009
  9
$INSBASE
 10
0.0
 20
0.0
 30
0.0
  9
$EXTMIN
 10
-140.9793869560082
 20
-75.502853671945559
 30
-0.0015258207003583
  9
$EXTMAX
 10
146.0381301338559
 20
126.0094449120532
 30
0.0000000349246037
  9
$LIMMIN
 10
0.0
 20
0.0
  9
$LIMMAX
 10
0.0
 20
0.0
  9
$ORTHOMODE
 70
     0
  9
$REGENMODE
 70
     1
  9
$FILLMODE
 70
     1
  9
$QTEXTMODE
 70
     0
  9
$MIRRTEXT
 70
     1
  9
$DRAGMODE
 70
     2
  9
$LTSCALE
 40
1.0
  9
$OSMODE
 70
    31
  9
$ATTMODE
 70
     1
  9
$TEXTSIZE
 40
0.0
  9
$TRACEWID
 40
0.05
  9
$TEXTSTYLE
  7
STANDARD
  9
$CLAYER
  8
0
  9
$CELTYPE
  6
CONTINUOUS
  9
$CECOLOR
 62
   256
  9
$DIMSCALE
 40
0.0
  9
$DIMASZ
 40
1.5
  9
$DIMEXO
 40
2.5
  9
$DIMDLI
 40
7.0
  9
$DIMRND
 40
0.0
  9
$DIMDLE
 40
0.0
  9
$DIMEXE
 40
0.1
  9
$DIMTP
 40
0.0
  9
$DIMTM
 40
0.0
  9
$DIMTXT
 40
2.5
  9
$DIMCEN
 40
1.0
  9
$DIMTSZ
 40
0.0
  9
$DIMTOL
 70
     0
  9
$DIMLIM
 70
     0
  9
$DIMTIH
 70
     0
  9
$DIMTOH
 70
     0
  9
$DIMSE1
 70
     0
  9
$DIMSE2
 70
     0
  9
$DIMTAD
 70
     1
  9
$DIMZIN
 70
     8
  9
$DIMBLK
  1

  9
$DIMASO
 70
     1
  9
$DIMSHO
 70
     1
  9
$DIMPOST
  1

  9
$DIMAPOST
  1

  9
$DIMALT
 70
     0
  9
$DIMALTD
 70
     4
  9
$DIMALTF
 40
0.0394
  9
$DIMLFAC
 40
1.0
  9
$DIMTOFL
 70
     1
  9
$DIMTVP
 40
0.0
  9
$DIMTIX
 70
     0
  9
$DIMSOXD
 70
     0
  9
$DIMSAH
 70
     0
  9
$DIMBLK1
  1

  9
$DIMBLK2
  1

  9
$DIMSTYLE
  2
基本_１_１_
  9
$DIMCLRD
 70
     4
  9
$DIMCLRE
 70
     4
  9
$DIMCLRT
 70
     4
  9
$DIMTFAC
 40
1.0
  9
$DIMGAP
 40
0.5
  9
$LUNITS
 70
     2
  9
$LUPREC
 70
     4
  9
$SKETCHINC
 40
0.1
  9
$FILLETRAD
 40
0.0
  9
$AUNITS
 70
     0
  9
$AUPREC
 70
     0
  9
$MENU
  1
acad
  9
$ELEVATION
 40
0.0
  9
$PELEVATION
 40
0.0
  9
$THICKNESS
 40
0.0
  9
$LIMCHECK
 70
     0
  9
$BLIPMODE
 70
     0
  9
$CHAMFERA
 40
0.0
  9
$CHAMFERB
 40
0.0
  9
$SKPOLY
 70
     0
  9
$TDCREATE
 40
2454863.5141898151
  9
$TDUPDATE
 40
2454863.6182020381
  9
$TDINDWG
 40
0.0984827083
  9
$TDUSRTIMER
 40
0.0984738542
  9
$USRTIMER
 70
     1
  9
$ANGBASE
 50
0.0
  9
$ANGDIR
 70
     0
  9
$PDMODE
 70
     3
  9
$PDSIZE
 40
-1.0
  9
$PLINEWID
 40
0.0
  9
$COORDS
 70
     2
  9
$SPLFRAME
 70
     0
  9
$SPLINETYPE
 70
     6
  9
$SPLINESEGS
 70
     8
  9
$ATTDIA
 70
     0
  9
$ATTREQ
 70
     1
  9
$HANDLING
 70
     1
  9
$HANDSEED
  5
137B
  9
$SURFTAB1
 70
     6
  9
$SURFTAB2
 70
     6
  9
$SURFTYPE
 70
     6
  9
$SURFU
 70
     6
  9
$SURFV
 70
     6
  9
$UCSNAME
  2

  9
$UCSORG
 10
0.0
 20
0.0
 30
0.0
  9
$UCSXDIR
 10
1.0
 20
0.0
 30
0.0
  9
$UCSYDIR
 10
0.0
 20
1.0
 30
0.0
  9
$PUCSNAME
  2

  9
$PUCSORG
 10
0.0
 20
0.0
 30
0.0
  9
$PUCSXDIR
 10
1.0
 20
0.0
 30
0.0
  9
$PUCSYDIR
 10
0.0
 20
1.0
 30
0.0
  9
$USERI1
 70
     0
  9
$USERI2
 70
     0
  9
$USERI3
 70
     0
  9
$USERI4
 70
     0
  9
$USERI5
 70
     0
  9
$USERR1
 40
0.0
  9
$USERR2
 40
0.0
  9
$USERR3
 40
0.0
  9
$USERR4
 40
0.0
  9
$USERR5
 40
0.0
  9
$WORLDVIEW
 70
     1
  9
$SHADEDGE
 70
     3
  9
$SHADEDIF
 70
    70
  9
$TILEMODE
 70
     1
  9
$MAXACTVP
 70
    16
  9
$PLIMCHECK
 70
     0
  9
$PEXTMIN
 10
1.0000000000000000E+020
 20
1.0000000000000000E+020
 30
1.0000000000000000E+020
  9
$PEXTMAX
 10
-1.0000000000000000E+020
 20
-1.0000000000000000E+020
 30
-1.0000000000000000E+020
  9
$PLIMMIN
 10
0.0
 20
0.0
  9
$PLIMMAX
 10
12.0
 20
9.0
  9
$UNITMODE
 70
     0
  9
$VISRETAIN
 70
     0
  9
$PLINEGEN
 70
     1
  9
$PSLTSCALE
 70
     0
  0
ENDSEC
  0
SECTION
  2
TABLES
  0
TABLE
  2
VPORT
 70
     4
  0
VPORT
  2
*ACTIVE
 70
     0
 10
0.0
 20
0.0
 11
1.0
 21
1.0
 12
2.5293715889238761
 22
25.253295620053819
 13
0.0
 23
0.0
 14
1.0
 24
1.0
 15
0.0
 25
0.0
 16
0.0
 26
0.0
 36
1.0
 17
0.0
 27
0.0
 37
0.0
 40
203.18459981706101
 41
1.6343490304709141
 42
50.0
 43
0.0
 44
0.0
 50
0.0
 51
0.0
 71
     0
 72
   100
 73
     1
 74
     1
 75
     0
 76
     0
 77
     0
 78
     0
  0
ENDTAB
  0
TABLE
  2
LTYPE
 70
    11
  0
LTYPE
  2
CONTINUOUS
 70
     0
  3
Solid line
 72
    65
 73
     0
 40
0.0
  0
LTYPE
  2
DOT
 70
     0
  3
. . . . . . . . 
 72
    65
 73
     2
 40
1.0
 49
0.0
 49
-1.0
  0
LTYPE
  2
DASHED
 70
     0
  3
___  ___  ___  ___  
 72
    65
 73
     2
 40
4.0
 49
3.0
 49
-1.0
  0
LTYPE
  2
HIDDEN
 70
     0
  3
__ __ __ __ 
 72
    65
 73
     2
 40
3.0
 49
2.0
 49
-1.0
  0
LTYPE
  2
STITCH
 70
     0
  3
_ _ _ _ 
 72
    65
 73
     2
 40
2.0
 49
1.0
 49
-1.0
  0
LTYPE
  2
CENTER
 70
     0
  3
______  __  ______  __  
 72
    65
 73
     4
 40
43.0
 49
40.0
 49
-1.0
 49
1.0
 49
-1.0
  0
LTYPE
  2
DASHDOT
 70
     0
  3
____ . ____ . 
 72
    65
 73
     4
 40
32.0
 49
30.0
 49
-1.0
 49
0.0
 49
-1.0
  0
LTYPE
  2
BORDER
 70
     0
  3
__ . __ . 
 72
    65
 73
     4
 40
22.0
 49
20.0
 49
-1.0
 49
0.0
 49
-1.0
  0
LTYPE
  2
CUTTING
 70
     0
  3
________   ___   ___   
 72
    65
 73
     6
 40
45.0
 49
40.0
 49
-1.0
 49
1.0
 49
-1.0
 49
1.0
 49
-1.0
  0
LTYPE
  2
PHANTOM
 70
     0
  3
______  __  __  
 72
    65
 73
     6
 40
35.0
 49
30.0
 49
-1.0
 49
1.0
 49
-1.0
 49
1.0
 49
-1.0
  0
LTYPE
  2
DIVIDE
 70
     0
  3
____ . . ____ . . 
 72
    65
 73
     6
 40
23.0
 49
20.0
 49
-1.0
 49
0.0
 49
-1.0
 49
0.0
 49
-1.0
  0
ENDTAB
  0
TABLE
  2
LAYER
 70
     5
  0
LAYER
  2
0
 70
     0
 62
     7
  6
CONTINUOUS
  0
LAYER
  2
図枠
 70
     0
 62
     7
  6
CONTINUOUS
  0
LAYER
  2
ﾚｲﾔ_1
 70
     0
 62
     7
  6
CONTINUOUS
  0
LAYER
  2
寸法線
 70
     0
 62
     7
  6
CONTINUOUS
  0
LAYER
  2
DEFPOINTS
 70
     0
 62
     7
  6
CONTINUOUS
  0
ENDTAB
  0
TABLE
  2
STYLE
 70
     2
  0
STYLE
  2
STANDARD
 70
     0
 40
0.0
 41
1.0
 50
0.0
 71
     0
 42
0.0
  3
txt
  4
extfont
  0
STYLE
  2
ゴシック
 70
     0
 40
0.0
 41
1.0
 50
0.0
 71
     0
 42
1.7676767676767671
  3
txt
  4

  0
ENDTAB
  0
TABLE
  2
VIEW
 70
     0
  0
ENDTAB
  0
TABLE
  2
UCS
 70
     0
  0
ENDTAB
  0
TABLE
  2
APPID
 70
     2
  0
APPID
  2
ACAD
 70
     0
  0
APPID
  2
DCO15
 70
     0
  0
ENDTAB
  0
TABLE
  2
DIMSTYLE
 70
     9
  0
DIMSTYLE
  2
STANDARD
 70
     0
  3

  4

  5

  6

  7

 40
1.0
 41
0.18
 42
0.0625
 43
0.38
 44
0.18
 45
0.0
 46
0.0
 47
0.0
 48
0.0
140
0.18
141
0.09
142
0.0
143
25.399999999999999
144
1.0
145
0.0
146
1.0
147
0.09
 71
     0
 72
     0
 73
     1
 74
     1
 75
     0
 76
     0
 77
     0
 78
     0
170
     0
171
     2
172
     0
173
     0
174
     0
175
     0
176
     0
177
     0
178
     0
  0
DIMSTYLE
  2
VELDIM0
 70
     0
  3

  4

  5

  6

  7

 40
1.0
 41
3.0
 42
0.0625
 43
0.38
 44
1.0
 45
0.0
 46
5.0
 47
0.0
 48
0.0
140
2.9986110209999981
141
0.09
142
0.0
143
25.399999999999999
144
1.0
145
0.0
146
1.0
147
0.09
 71
     0
 72
     0
 73
     0
 74
     0
 75
     0
 76
     0
 77
     0
 78
     8
170
     0
171
     2
172
     0
173
     0
174
     0
175
     0
176
     0
177
     0
178
     0
  0
DIMSTYLE
  2
VELDIM1
 70
     0
  3

  4

  5

  6

  7

 40
1.0
 41
0.8571428657
 42
0.0625
 43
0.38
 44
0.5714285970000002
 45
0.0
 46
1.428571462599999
 47
0.0
 48
0.0
140
0.7710714459
141
0.09
142
0.0
143
25.399999999999999
144
1.0
145
0.0
146
1.0
147
0.09
 71
     0
 72
     0
 73
     0
 74
     0
 75
     0
 76
     0
 77
     0
 78
     8
170
     0
171
     2
172
     0
173
     0
174
     0
175
     0
176
     0
177
     0
178
     0
  0
DIMSTYLE
  2
VELDIM2
 70
     0
  3

  4

  5

  6

  7

 40
1.0
 41
0.8571428657
 42
0.0625
 43
0.38
 44
1.25
 45
0.0
 46
5.0
 47
0.0
 48
0.0
140
0.7710714459
141
0.09
142
0.0
143
25.399999999999999
144
1.0
145
0.0
146
1.0
147
0.09
 71
     0
 72
     0
 73
     0
 74
     0
 75
     0
 76
     0
 77
     0
 78
     8
170
     0
171
     2
172
     0
173
     0
174
     0
175
     0
176
     0
177
     0
178
     0
  0
DIMSTYLE
  2
VELDIM3
 70
     0
  3

  4

  5

  6

  7

 40
1.0
 41
3.0
 42
0.0625
 43
0.38
 44
1.25
 45
0.0
 46
5.0
 47
0.0
 48
0.0
140
2.9986110209999981
141
0.09
142
0.0
143
25.399999999999999
144
1.0
145
0.0
146
1.0
147
0.09
 71
     0
 72
     0
 73
     0
 74
     0
 75
     0
 76
     0
 77
     0
 78
     8
170
     0
171
     2
172
     0
173
     0
174
     0
175
     0
176
     0
177
     0
178
     0
  0
DIMSTYLE
  2
ISO-25
 70
     0
  3

  4

  5

  6

  7

 40
1.0
 41
2.5
 42
0.625
 43
3.75
 44
1.25
 45
0.0
 46
0.0
 47
0.0
 48
0.0
140
2.5
141
2.5
142
0.0
143
0.03937007874016
144
1.0
145
0.0
146
1.0
147
0.625
 71
     0
 72
     0
 73
     0
 74
     0
 75
     0
 76
     0
 77
     1
 78
     8
170
     0
171
     3
172
     1
173
     0
174
     0
175
     0
176
     0
177
     0
178
     0
  0
DIMSTYLE
  2
基本_１_１_
 70
     0
  3

  4

  5

  6

  7

 40
0.0
 41
1.5
 42
2.5
 43
7.0
 44
0.1
 45
0.0
 46
0.0
 47
0.0
 48
0.0
140
2.5
141
1.0
142
0.0
143
0.0394
144
1.0
145
0.0
146
1.0
147
0.5
 71
     0
 72
     0
 73
     0
 74
     0
 75
     0
 76
     0
 77
     1
 78
     8
170
     0
171
     4
172
     1
173
     0
174
     0
175
     0
176
     4
177
     4
178
     4
  0
DIMSTYLE
  2
基本_１_２_
 70
     0
  3

  4

  5

  6

  7

 40
0.0
 41
2.5
 42
2.5
 43
14.0
 44
2.0
 45
0.0
 46
0.0
 47
0.0
 48
0.0
140
5.0
141
2.0
142
0.0
143
0.0394
144
1.0
145
0.0
146
1.0
147
1.0
 71
     0
 72
     0
 73
     0
 74
     0
 75
     0
 76
     0
 77
     1
 78
     8
170
     0
171
     4
172
     1
173
     0
174
     0
175
     0
176
     4
177
     4
178
     4
  0
DIMSTYLE
  2
基本_１_２_0
 70
     0
  3

  4

  5

  6

  7

 40
0.0
 41
2.5
 42
2.5
 43
14.0
 44
2.0
 45
0.0
 46
0.0
 47
0.0
 48
0.0
140
5.0
141
2.0
142
0.0
143
0.0394
144
1.0
145
0.0
146
1.0
147
1.0
 71
     0
 72
     0
 73
     0
 74
     0
 75
     0
 76
     0
 77
     1
 78
     8
170
     0
171
     4
172
     1
173
     0
174
     0
175
     0
176
     4
177
     4
178
     4
  0
ENDTAB
  0
ENDSEC
  0
SECTION
  2
BLOCKS
  0
BLOCK
  8
0
  2
$MODEL_SPACE
 70
     0
 10
0.0
 20
0.0
 30
0.0
  3
$MODEL_SPACE
  1

  0
ENDBLK
  5
1157
  8
0
  0
BLOCK
 67
     1
  8
0
  2
$PAPER_SPACE
 70
     0
 10
0.0
 20
0.0
 30
0.0
  3
$PAPER_SPACE
  1

  0
ENDBLK
  5
1153
 67
     1
  8
0
  0
BLOCK
  8
0
  2
*D2
 70
     1
 10
0.0
 20
0.0
 30
0.0
  3
*D2
  1

  0
TEXT
  5
39
  8
0
 62
     0
 10
47.128703756699991
 20
39.841123118399999
 30
0.0
 40
2.9986110209999981
  1
10
  0
LINE
  5
3A
  8
0
 62
     0
 10
43.892592592600003
 20
46.311956467700007
 30
0.0
 11
43.892592592600003
 21
37.3119564677
 31
0.0
  0
LINE
  5
3B
  8
0
 62
     0
 10
53.89259259260001
 20
55.311956467700007
 30
0.0
 11
53.89259259260001
 21
37.3119564677
 31
0.0
  0
LINE
  5
3C
  8
0
 62
     0
 10
43.892592592600003
 20
38.3119564677
 30
0.0
 11
52.420370264399999
 21
38.3119564677
 31
0.0
  0
LINE
  5
3D
  8
0
 62
     0
 10
43.892592592600003
 20
38.3119564677
 30
0.0
 11
45.364814920800001
 21
38.3119564677
 31
0.0
  0
LINE
  5
3E
  8
0
 62
     0
 10
53.89259259260001
 20
38.3119564677
 30
0.0
 11
52.420370264399999
 21
38.3119564677
 31
0.0
  0
LINE
  5
3F
  8
0
 62
     0
 10
53.89259259260001
 20
38.3119564677
 30
0.0
 11
45.364814920800001
 21
38.3119564677
 31
0.0
  0
LINE
  5
40
  8
0
 62
     0
 10
53.89259259260001
 20
38.3119564677
 30
0.0
 11
58.89259259260001
 21
38.3119564677
 31
0.0
  0
SOLID
  5
41
  8
0
 62
     0
 10
53.89259259260001
 20
38.3119564677
 30
0.0
 11
56.892592592600003
 21
39.0619564677
 31
0.0
 12
56.892592592600003
 22
37.5619564677
 32
0.0
 13
56.142592592600003
 23
38.3119564677
 33
0.0
  0
LINE
  5
42
  8
0
 62
     0
 10
43.892592592600003
 20
38.3119564677
 30
0.0
 11
38.89259259260001
 21
38.3119564677
 31
0.0
  0
SOLID
  5
43
  8
0
 62
     0
 10
43.892592592600003
 20
38.3119564677
 30
0.0
 11
40.892592592600003
 21
37.5619564677
 31
0.0
 12
40.892592592600003
 22
39.0619564677
 32
0.0
 13
41.642592592600003
 23
38.3119564677
 33
0.0
  0
ENDBLK
  5
44
  8
0
  0
BLOCK
  8
0
  2
*D3
 70
     1
 10
0.0
 20
0.0
 30
0.0
  3
*D3
  1

  0
TEXT
  5
49
  8
0
 62
     0
 10
32.363425941800003
 20
54.048067631800002
 30
0.0
 40
2.9986110209999981
  1
15
 50
90.0
  0
LINE
  5
4A
  8
0
 62
     0
 10
45.892592592600003
 20
63.311956467700007
 30
0.0
 11
32.892592592600003
 21
63.311956467700007
 31
0.0
  0
LINE
  5
4B
  8
0
 62
     0
 10
41.892592592600003
 20
48.311956467700007
 30
0.0
 11
32.892592592600003
 21
48.311956467700007
 31
0.0
  0
LINE
  5
4C
  8
0
 62
     0
 10
33.89259259260001
 20
63.311956467700007
 30
0.0
 11
33.89259259260001
 21
59.339734139499988
 31
0.0
  0
LINE
  5
4D
  8
0
 62
     0
 10
33.89259259260001
 20
63.311956467700007
 30
0.0
 11
33.89259259260001
 21
52.284178795800003
 31
0.0
  0
LINE
  5
4E
  8
0
 62
     0
 10
33.89259259260001
 20
48.311956467700007
 30
0.0
 11
33.89259259260001
 21
59.339734139499988
 31
0.0
  0
LINE
  5
4F
  8
0
 62
     0
 10
33.89259259260001
 20
48.311956467700007
 30
0.0
 11
33.89259259260001
 21
52.284178795800003
 31
0.0
  0
LINE
  5
50
  8
0
 62
     0
 10
33.89259259260001
 20
48.311956467700007
 30
0.0
 11
33.89259259260001
 21
53.311956467700007
 31
0.0
  0
SOLID
  5
51
  8
0
 62
     0
 10
33.89259259260001
 20
48.311956467700007
 30
0.0
 11
33.142592592600003
 21
51.311956467700007
 31
0.0
 12
34.642592592600003
 22
51.311956467700007
 32
0.0
 13
33.89259259260001
 23
50.5619564677
 33
0.0
  0
LINE
  5
52
  8
0
 62
     0
 10
33.89259259260001
 20
63.311956467700007
 30
0.0
 11
33.89259259260001
 21
58.311956467700007
 31
0.0
  0
SOLID
  5
53
  8
0
 62
     0
 10
33.89259259260001
 20
63.311956467700007
 30
0.0
 11
34.642592592600003
 21
60.311956467700007
 31
0.0
 12
33.142592592600003
 22
60.311956467700007
 32
0.0
 13
33.89259259260001
 23
61.0619564677
 33
0.0
  0
ENDBLK
  5
54
  8
0
  0
BLOCK
  8
0
  2
*D4
 70
     1
 10
0.0
 20
0.0
 30
0.0
  3
*D4
  1

  0
TEXT
  5
58
  8
0
 62
     0
 10
32.363425941800003
 20
69.048067631800009
 30
0.0
 40
2.9986110209999981
  1
15
 50
90.0
  0
LINE
  5
59
  8
0
 62
     0
 10
41.892592592600003
 20
78.3119564677
 30
0.0
 11
32.892592592600003
 21
78.3119564677
 31
0.0
  0
LINE
  5
5A
  8
0
 62
     0
 10
45.892592592600003
 20
63.311956467700007
 30
0.0
 11
32.892592592600003
 21
63.311956467700007
 31
0.0
  0
LINE
  5
5B
  8
0
 62
     0
 10
33.89259259260001
 20
78.3119564677
 30
0.0
 11
33.89259259260001
 21
74.339734139499996
 31
0.0
  0
LINE
  5
5C
  8
0
 62
     0
 10
33.89259259260001
 20
78.3119564677
 30
0.0
 11
33.89259259260001
 21
67.284178795800003
 31
0.0
  0
LINE
  5
5D
  8
0
 62
     0
 10
33.89259259260001
 20
63.311956467700007
 30
0.0
 11
33.89259259260001
 21
74.339734139499996
 31
0.0
  0
LINE
  5
5E
  8
0
 62
     0
 10
33.89259259260001
 20
63.311956467700007
 30
0.0
 11
33.89259259260001
 21
67.284178795800003
 31
0.0
  0
LINE
  5
5F
  8
0
 62
     0
 10
33.89259259260001
 20
63.311956467700007
 30
0.0
 11
33.89259259260001
 21
68.3119564677
 31
0.0
  0
SOLID
  5
60
  8
0
 62
     0
 10
33.89259259260001
 20
63.311956467700007
 30
0.0
 11
33.142592592600003
 21
66.3119564677
 31
0.0
 12
34.642592592600003
 22
66.3119564677
 32
0.0
 13
33.89259259260001
 23
65.561956467699986
 33
0.0
  0
LINE
  5
61
  8
0
 62
     0
 10
33.89259259260001
 20
78.3119564677
 30
0.0
 11
33.89259259260001
 21
73.3119564677
 31
0.0
  0
SOLID
  5
62
  8
0
 62
     0
 10
33.89259259260001
 20
78.3119564677
 30
0.0
 11
34.642592592600003
 21
75.3119564677
 31
0.0
 12
33.142592592600003
 22
75.3119564677
 32
0.0
 13
33.89259259260001
 23
76.0619564677
 33
0.0
  0
ENDBLK
  5
63
  8
0
  0
BLOCK
  8
0
  2
*D5
 70
     1
 10
0.0
 20
0.0
 30
0.0
  3
*D5
  1

  0
TEXT
  5
67
  8
0
 62
     0
 10
61.964814920800002
 20
39.841123118399999
 30
0.0
 40
2.9986110209999981
  1
23.2
  0
LINE
  5
68
  8
0
 62
     0
 10
53.89259259260001
 20
55.311956467700007
 30
0.0
 11
53.89259259260001
 21
37.3119564677
 31
0.0
  0
LINE
  5
69
  8
0
 62
     0
 10
77.092592592599999
 20
46.311956467700007
 30
0.0
 11
77.092592592599999
 21
37.3119564677
 31
0.0
  0
LINE
  5
6A
  8
0
 62
     0
 10
53.89259259260001
 20
38.3119564677
 30
0.0
 11
70.784259100299991
 21
38.3119564677
 31
0.0
  0
LINE
  5
6B
  8
0
 62
     0
 10
53.89259259260001
 20
38.3119564677
 30
0.0
 11
60.20092608489999
 21
38.3119564677
 31
0.0
  0
LINE
  5
6C
  8
0
 62
     0
 10
77.092592592599999
 20
38.3119564677
 30
0.0
 11
70.784259100299991
 21
38.3119564677
 31
0.0
  0
LINE
  5
6D
  8
0
 62
     0
 10
77.092592592599999
 20
38.3119564677
 30
0.0
 11
60.20092608489999
 21
38.3119564677
 31
0.0
  0
LINE
  5
6E
  8
0
 62
     0
 10
77.092592592599999
 20
38.3119564677
 30
0.0
 11
72.092592592599999
 21
38.3119564677
 31
0.0
  0
SOLID
  5
6F
  8
0
 62
     0
 10
77.092592592599999
 20
38.3119564677
 30
0.0
 11
74.092592592599999
 21
37.5619564677
 31
0.0
 12
74.092592592599999
 22
39.0619564677
 32
0.0
 13
74.842592592599985
 23
38.3119564677
 33
0.0
  0
LINE
  5
70
  8
0
 62
     0
 10
53.89259259260001
 20
38.3119564677
 30
0.0
 11
58.89259259260001
 21
38.3119564677
 31
0.0
  0
SOLID
  5
71
  8
0
 62
     0
 10
53.89259259260001
 20
38.3119564677
 30
0.0
 11
56.892592592600003
 21
39.0619564677
 31
0.0
 12
56.892592592600003
 22
37.5619564677
 32
0.0
 13
56.142592592600003
 23
38.3119564677
 33
0.0
  0
ENDBLK
  5
72
  8
0
  0
BLOCK
  8
0
  2
*D6
 70
     1
 10
0.0
 20
0.0
 30
0.0
  3
*D6
  1

  0
TEXT
  5
76
  8
0
 62
     0
 10
57.128703756699998
 20
89.841123118400006
 30
0.0
 40
2.9986110209999981
  1
30
  0
LINE
  5
77
  8
0
 62
     0
 10
73.892592592599982
 20
80.311956467699986
 30
0.0
 11
73.892592592599982
 21
89.311956467699986
 31
0.0
  0
LINE
  5
78
  8
0
 62
     0
 10
43.892592592600003
 20
80.311956467699986
 30
0.0
 11
43.892592592600003
 21
89.311956467699986
 31
0.0
  0
LINE
  5
79
  8
0
 62
     0
 10
73.892592592599982
 20
88.3119564677
 30
0.0
 11
62.420370264399999
 21
88.3119564677
 31
0.0
  0
LINE
  5
7A
  8
0
 62
     0
 10
73.892592592599982
 20
88.3119564677
 30
0.0
 11
55.364814920800001
 21
88.3119564677
 31
0.0
  0
LINE
  5
7B
  8
0
 62
     0
 10
43.892592592600003
 20
88.3119564677
 30
0.0
 11
62.420370264399999
 21
88.3119564677
 31
0.0
  0
LINE
  5
7C
  8
0
 62
     0
 10
43.892592592600003
 20
88.3119564677
 30
0.0
 11
55.364814920800001
 21
88.3119564677
 31
0.0
  0
LINE
  5
7D
  8
0
 62
     0
 10
43.892592592600003
 20
88.3119564677
 30
0.0
 11
48.89259259260001
 21
88.3119564677
 31
0.0
  0
SOLID
  5
7E
  8
0
 62
     0
 10
43.892592592600003
 20
88.3119564677
 30
0.0
 11
46.892592592600003
 21
89.061956467699986
 31
0.0
 12
46.892592592600003
 22
87.561956467700014
 32
0.0
 13
46.142592592600003
 23
88.3119564677
 33
0.0
  0
LINE
  5
7F
  8
0
 62
     0
 10
73.892592592599982
 20
88.3119564677
 30
0.0
 11
68.892592592599996
 21
88.3119564677
 31
0.0
  0
SOLID
  5
80
  8
0
 62
     0
 10
73.892592592599982
 20
88.3119564677
 30
0.0
 11
70.892592592599996
 21
87.561956467700014
 31
0.0
 12
70.892592592599996
 22
89.061956467699986
 32
0.0
 13
71.642592592599996
 23
88.3119564677
 33
0.0
  0
ENDBLK
  5
81
  8
0
  0
BLOCK
  8
0
  2
*D7
 70
     1
 10
0.0
 20
0.0
 30
0.0
  3
*D7
  1

  0
TEXT
  5
85
  8
0
 62
     0
 10
72.846759338699982
 20
89.841123118400006
 30
0.0
 40
2.9986110209999981
  1
3.2
  0
LINE
  5
86
  8
0
 62
     0
 10
77.092592592599999
 20
80.311956467699986
 30
0.0
 11
77.092592592599999
 21
89.311956467699986
 31
0.0
  0
LINE
  5
87
  8
0
 62
     0
 10
73.892592592599982
 20
80.311956467699986
 30
0.0
 11
73.892592592599982
 21
89.311956467699986
 31
0.0
  0
LINE
  5
88
  8
0
 62
     0
 10
77.092592592599999
 20
88.3119564677
 30
0.0
 11
77.092592592599999
 21
88.3119564677
 31
0.0
  0
LINE
  5
89
  8
0
 62
     0
 10
77.092592592599999
 20
88.3119564677
 30
0.0
 11
73.892592592599982
 21
88.3119564677
 31
0.0
  0
LINE
  5
8A
  8
0
 62
     0
 10
73.892592592599982
 20
88.3119564677
 30
0.0
 11
77.092592592599999
 21
88.3119564677
 31
0.0
  0
LINE
  5
8B
  8
0
 62
     0
 10
73.892592592599982
 20
88.3119564677
 30
0.0
 11
73.892592592599982
 21
88.3119564677
 31
0.0
  0
LINE
  5
8C
  8
0
 62
     0
 10
73.892592592599982
 20
88.3119564677
 30
0.0
 11
68.892592592599996
 21
88.3119564677
 31
0.0
  0
SOLID
  5
8D
  8
0
 62
     0
 10
73.892592592599982
 20
88.3119564677
 30
0.0
 11
70.892592592599996
 21
87.561956467700014
 31
0.0
 12
70.892592592599996
 22
89.061956467699986
 32
0.0
 13
71.642592592599996
 23
88.3119564677
 33
0.0
  0
LINE
  5
8E
  8
0
 62
     0
 10
77.092592592599999
 20
88.3119564677
 30
0.0
 11
82.092592592599985
 21
88.3119564677
 31
0.0
  0
SOLID
  5
8F
  8
0
 62
     0
 10
77.092592592599999
 20
88.3119564677
 30
0.0
 11
80.092592592599999
 21
89.061956467699986
 31
0.0
 12
80.092592592599999
 22
87.561956467700014
 32
0.0
 13
79.342592592599999
 23
88.3119564677
 33
0.0
  0
ENDBLK
  5
90
  8
0
  0
BLOCK
  8
0
  2
*D8
 70
     1
 10
0.0
 20
0.0
 30
0.0
  3
*D8
  1

  0
TEXT
  5
13A
  8
0
 62
     0
 10
-66.568944391499997
 20
39.841123118399999
 30
0.0
 40
2.9986110209999981
  1
30
  0
LINE
  5
13B
  8
0
 62
     0
 10
-79.805055555600006
 20
46.311956467700007
 30
0.0
 11
-79.805055555600006
 21
37.3119564677
 31
0.0
  0
LINE
  5
13C
  8
0
 62
     0
 10
-49.805055555599999
 20
64.311956467699986
 30
0.0
 11
-49.805055555599999
 21
37.3119564677
 31
0.0
  0
LINE
  5
13D
  8
0
 62
     0
 10
-79.805055555600006
 20
38.3119564677
 30
0.0
 11
-61.277277883700002
 21
38.3119564677
 31
0.0
  0
LINE
  5
13E
  8
0
 62
     0
 10
-79.805055555600006
 20
38.3119564677
 30
0.0
 11
-68.332833227400002
 21
38.3119564677
 31
0.0
  0
LINE
  5
13F
  8
0
 62
     0
 10
-49.805055555599999
 20
38.3119564677
 30
0.0
 11
-61.277277883700002
 21
38.3119564677
 31
0.0
  0
LINE
  5
140
  8
0
 62
     0
 10
-49.805055555599999
 20
38.3119564677
 30
0.0
 11
-68.332833227400002
 21
38.3119564677
 31
0.0
  0
LINE
  5
141
  8
0
 62
     0
 10
-49.805055555599999
 20
38.3119564677
 30
0.0
 11
-54.805055555599999
 21
38.3119564677
 31
0.0
  0
SOLID
  5
142
  8
0
 62
     0
 10
-49.805055555599999
 20
38.3119564677
 30
0.0
 11
-52.805055555600013
 21
37.5619564677
 31
0.0
 12
-52.805055555600013
 22
39.0619564677
 32
0.0
 13
-52.055055555600013
 23
38.3119564677
 33
0.0
  0
LINE
  5
143
  8
0
 62
     0
 10
-79.805055555600006
 20
38.3119564677
 30
0.0
 11
-74.805055555600006
 21
38.3119564677
 31
0.0
  0
SOLID
  5
144
  8
0
 62
     0
 10
-79.805055555600006
 20
38.3119564677
 30
0.0
 11
-76.805055555600006
 21
39.0619564677
 31
0.0
 12
-76.805055555600006
 22
37.5619564677
 32
0.0
 13
-77.555055555600006
 23
38.3119564677
 33
0.0
  0
ENDBLK
  5
145
  8
0
  0
BLOCK
  8
0
  2
*D9
 70
     1
 10
0.0
 20
0.0
 30
0.0
  3
*D9
  1

  0
TEXT
  5
149
  8
0
 62
     0
 10
-8.5663314016999976
 20
84.096982891099998
 30
0.0
 40
2.9986110209999981
  1
12.75
 50
90.0
  0
LINE
  5
14A
  8
0
 62
     0
 10
-33.055055555599999
 20
65.561956467699986
 30
0.0
 11
-6.0371647509999971
 21
65.561956467699986
 31
0.0
  0
LINE
  5
14B
  8
0
 62
     0
 10
-17.805055555599999
 20
78.3119564677
 30
0.0
 11
-6.0371647509999971
 21
78.3119564677
 31
0.0
  0
LINE
  5
14C
  8
0
 62
     0
 10
-7.0371647509999971
 20
65.561956467699986
 30
0.0
 11
-7.0371647509999971
 21
94.680315906499985
 31
0.0
  0
LINE
  5
14D
  8
0
 62
     0
 10
-7.0371647509999971
 20
65.561956467699986
 30
0.0
 11
-7.0371647509999971
 21
82.333094055200007
 31
0.0
  0
LINE
  5
14E
  8
0
 62
     0
 10
-7.0371647509999971
 20
78.3119564677
 30
0.0
 11
-7.0371647509999971
 21
94.680315906499985
 31
0.0
  0
LINE
  5
14F
  8
0
 62
     0
 10
-7.0371647509999971
 20
78.3119564677
 30
0.0
 11
-7.0371647509999971
 21
82.333094055200007
 31
0.0
  0
LINE
  5
150
  8
0
 62
     0
 10
-7.0371647509999971
 20
78.3119564677
 30
0.0
 11
-7.0371647509999971
 21
73.3119564677
 31
0.0
  0
SOLID
  5
151
  8
0
 62
     0
 10
-7.0371647509999971
 20
78.3119564677
 30
0.0
 11
-6.2871647509999971
 21
75.3119564677
 31
0.0
 12
-7.7871647509999979
 22
75.3119564677
 32
0.0
 13
-7.0371647509999971
 23
76.0619564677
 33
0.0
  0
LINE
  5
152
  8
0
 62
     0
 10
-7.0371647509999971
 20
65.561956467699986
 30
0.0
 11
-7.0371647509999971
 21
70.561956467699986
 31
0.0
  0
SOLID
  5
153
  8
0
 62
     0
 10
-7.0371647509999971
 20
65.561956467699986
 30
0.0
 11
-7.7871647509999979
 21
68.5619564677
 31
0.0
 12
-6.2871647509999971
 22
68.5619564677
 32
0.0
 13
-7.0371647509999971
 23
67.8119564677
 33
0.0
  0
ENDBLK
  5
154
  8
0
  0
BLOCK
  8
0
  2
*D10
 70
     1
 10
0.0
 20
0.0
 30
0.0
  3
*D10
  1

  0
TEXT
  5
158
  8
0
 62
     0
 10
-74.568944391499983
 20
89.841123118400006
 30
0.0
 40
2.9986110209999981
  1
14
  0
LINE
  5
159
  8
0
 62
     0
 10
-65.805055555600006
 20
65.3119564677
 30
0.0
 11
-65.805055555600006
 21
89.311956467699986
 31
0.0
  0
LINE
  5
15A
  8
0
 62
     0
 10
-79.805055555600006
 20
80.311956467699986
 30
0.0
 11
-79.805055555600006
 21
89.311956467699986
 31
0.0
  0
LINE
  5
15B
  8
0
 62
     0
 10
-65.805055555600006
 20
88.3119564677
 30
0.0
 11
-69.277277883699995
 21
88.3119564677
 31
0.0
  0
LINE
  5
15C
  8
0
 62
     0
 10
-65.805055555600006
 20
88.3119564677
 30
0.0
 11
-76.332833227400002
 21
88.3119564677
 31
0.0
  0
LINE
  5
15D
  8
0
 62
     0
 10
-79.805055555600006
 20
88.3119564677
 30
0.0
 11
-69.277277883699995
 21
88.3119564677
 31
0.0
  0
LINE
  5
15E
  8
0
 62
     0
 10
-79.805055555600006
 20
88.3119564677
 30
0.0
 11
-76.332833227400002
 21
88.3119564677
 31
0.0
  0
LINE
  5
15F
  8
0
 62
     0
 10
-79.805055555600006
 20
88.3119564677
 30
0.0
 11
-74.805055555600006
 21
88.3119564677
 31
0.0
  0
SOLID
  5
160
  8
0
 62
     0
 10
-79.805055555600006
 20
88.3119564677
 30
0.0
 11
-76.805055555600006
 21
89.061956467699986
 31
0.0
 12
-76.805055555600006
 22
87.561956467700014
 32
0.0
 13
-77.555055555600006
 23
88.3119564677
 33
0.0
  0
LINE
  5
161
  8
0
 62
     0
 10
-65.805055555600006
 20
88.3119564677
 30
0.0
 11
-70.805055555600021
 21
88.3119564677
 31
0.0
  0
SOLID
  5
162
  8
0
 62
     0
 10
-65.805055555600006
 20
88.3119564677
 30
0.0
 11
-68.805055555600006
 21
87.561956467700014
 31
0.0
 12
-68.805055555600006
 22
89.061956467699986
 32
0.0
 13
-68.055055555600006
 23
88.3119564677
 33
0.0
  0
ENDBLK
  5
163
  8
0
  0
BLOCK
  8
0
  2
*D11
 70
     1
 10
0.0
 20
0.0
 30
0.0
  3
*D11
  1

  0
TEXT
  5
167
  8
0
 62
     0
 10
-51.068944391499997
 20
89.841123118400006
 30
0.0
 40
2.9986110209999981
  1
33
  0
LINE
  5
168
  8
0
 62
     0
 10
-32.805055555599999
 20
65.3119564677
 30
0.0
 11
-32.805055555599999
 21
89.311956467699986
 31
0.0
  0
LINE
  5
169
  8
0
 62
     0
 10
-65.805055555600006
 20
65.3119564677
 30
0.0
 11
-65.805055555600006
 21
89.311956467699986
 31
0.0
  0
LINE
  5
16A
  8
0
 62
     0
 10
-32.805055555599999
 20
88.3119564677
 30
0.0
 11
-45.777277883700002
 21
88.3119564677
 31
0.0
  0
LINE
  5
16B
  8
0
 62
     0
 10
-32.805055555599999
 20
88.3119564677
 30
0.0
 11
-52.832833227400002
 21
88.3119564677
 31
0.0
  0
LINE
  5
16C
  8
0
 62
     0
 10
-65.805055555600006
 20
88.3119564677
 30
0.0
 11
-45.777277883700002
 21
88.3119564677
 31
0.0
  0
LINE
  5
16D
  8
0
 62
     0
 10
-65.805055555600006
 20
88.3119564677
 30
0.0
 11
-52.832833227400002
 21
88.3119564677
 31
0.0
  0
LINE
  5
16E
  8
0
 62
     0
 10
-65.805055555600006
 20
88.3119564677
 30
0.0
 11
-60.805055555600013
 21
88.3119564677
 31
0.0
  0
SOLID
  5
16F
  8
0
 62
     0
 10
-65.805055555600006
 20
88.3119564677
 30
0.0
 11
-62.805055555600013
 21
89.061956467699986
 31
0.0
 12
-62.805055555600013
 22
87.561956467700014
 32
0.0
 13
-63.555055555599999
 23
88.3119564677
 33
0.0
  0
LINE
  5
170
  8
0
 62
     0
 10
-32.805055555599999
 20
88.3119564677
 30
0.0
 11
-37.805055555599999
 21
88.3119564677
 31
0.0
  0
SOLID
  5
171
  8
0
 62
     0
 10
-32.805055555599999
 20
88.3119564677
 30
0.0
 11
-35.805055555599999
 21
87.561956467700014
 31
0.0
 12
-35.805055555599999
 22
89.061956467699986
 32
0.0
 13
-35.055055555599999
 23
88.3119564677
 33
0.0
  0
ENDBLK
  5
172
  8
0
  0
BLOCK
  8
0
  2
*D12
 70
     1
 10
0.0
 20
0.0
 30
0.0
  3
*D12
  1

  0
TEXT
  5
176
  8
0
 62
     0
 10
-28.068944391500001
 20
89.841123118400006
 30
0.0
 40
2.9986110209999981
  1
13
  0
LINE
  5
177
  8
0
 62
     0
 10
-19.805055555599999
 20
80.311956467699986
 30
0.0
 11
-19.805055555599999
 21
89.311956467699986
 31
0.0
  0
LINE
  5
178
  8
0
 62
     0
 10
-32.805055555599999
 20
65.3119564677
 30
0.0
 11
-32.805055555599999
 21
89.311956467699986
 31
0.0
  0
LINE
  5
179
  8
0
 62
     0
 10
-19.805055555599999
 20
88.3119564677
 30
0.0
 11
-22.777277883699998
 21
88.3119564677
 31
0.0
  0
LINE
  5
17A
  8
0
 62
     0
 10
-19.805055555599999
 20
88.3119564677
 30
0.0
 11
-29.832833227399998
 21
88.3119564677
 31
0.0
  0
LINE
  5
17B
  8
0
 62
     0
 10
-32.805055555599999
 20
88.3119564677
 30
0.0
 11
-22.777277883699998
 21
88.3119564677
 31
0.0
  0
LINE
  5
17C
  8
0
 62
     0
 10
-32.805055555599999
 20
88.3119564677
 30
0.0
 11
-29.832833227399998
 21
88.3119564677
 31
0.0
  0
LINE
  5
17D
  8
0
 62
     0
 10
-32.805055555599999
 20
88.3119564677
 30
0.0
 11
-37.805055555599999
 21
88.3119564677
 31
0.0
  0
SOLID
  5
17E
  8
0
 62
     0
 10
-32.805055555599999
 20
88.3119564677
 30
0.0
 11
-35.805055555599999
 21
87.561956467700014
 31
0.0
 12
-35.805055555599999
 22
89.061956467699986
 32
0.0
 13
-35.055055555599999
 23
88.3119564677
 33
0.0
  0
LINE
  5
17F
  8
0
 62
     0
 10
-19.805055555599999
 20
88.3119564677
 30
0.0
 11
-14.805055555599999
 21
88.3119564677
 31
0.0
  0
SOLID
  5
180
  8
0
 62
     0
 10
-19.805055555599999
 20
88.3119564677
 30
0.0
 11
-16.805055555599999
 21
89.061956467699986
 31
0.0
 12
-16.805055555599999
 22
87.561956467700014
 32
0.0
 13
-17.555055555599999
 23
88.3119564677
 33
0.0
  0
ENDBLK
  5
181
  8
0
  0
BLOCK
  8
0
  2
*D13
 70
     1
 10
0.0
 20
0.0
 30
0.0
  3
*D13
  1

  0
TEXT
  5
185
  8
0
 62
     0
 10
-30.068944391500001
 20
39.841123118399999
 30
0.0
 40
2.9986110209999981
  1
17
  0
LINE
  5
186
  8
0
 62
     0
 10
-36.805055555599999
 20
46.311956467700007
 30
0.0
 11
-36.805055555599999
 21
37.3119564677
 31
0.0
  0
LINE
  5
187
  8
0
 62
     0
 10
-19.805055555599999
 20
46.311956467700007
 30
0.0
 11
-19.805055555599999
 21
37.3119564677
 31
0.0
  0
LINE
  5
188
  8
0
 62
     0
 10
-36.805055555599999
 20
38.3119564677
 30
0.0
 11
-24.777277883699998
 21
38.3119564677
 31
0.0
  0
LINE
  5
189
  8
0
 62
     0
 10
-36.805055555599999
 20
38.3119564677
 30
0.0
 11
-31.832833227399998
 21
38.3119564677
 31
0.0
  0
LINE
  5
18A
  8
0
 62
     0
 10
-19.805055555599999
 20
38.3119564677
 30
0.0
 11
-24.777277883699998
 21
38.3119564677
 31
0.0
  0
LINE
  5
18B
  8
0
 62
     0
 10
-19.805055555599999
 20
38.3119564677
 30
0.0
 11
-31.832833227399998
 21
38.3119564677
 31
0.0
  0
LINE
  5
18C
  8
0
 62
     0
 10
-19.805055555599999
 20
38.3119564677
 30
0.0
 11
-24.805055555599999
 21
38.3119564677
 31
0.0
  0
SOLID
  5
18D
  8
0
 62
     0
 10
-19.805055555599999
 20
38.3119564677
 30
0.0
 11
-22.805055555599999
 21
37.5619564677
 31
0.0
 12
-22.805055555599999
 22
39.0619564677
 32
0.0
 13
-22.055055555599999
 23
38.3119564677
 33
0.0
  0
LINE
  5
18E
  8
0
 62
     0
 10
-36.805055555599999
 20
38.3119564677
 30
0.0
 11
-31.805055555599999
 21
38.3119564677
 31
0.0
  0
SOLID
  5
18F
  8
0
 62
     0
 10
-36.805055555599999
 20
38.3119564677
 30
0.0
 11
-33.805055555599999
 21
39.0619564677
 31
0.0
 12
-33.805055555599999
 22
37.5619564677
 32
0.0
 13
-34.555055555599999
 23
38.3119564677
 33
0.0
  0
ENDBLK
  5
190
  8
0
  0
BLOCK
  8
0
  2
*D14
 70
     1
 10
0.0
 20
0.0
 30
0.0
  3
*D14
  1

  0
TEXT
  5
1BA
  8
0
 62
     0
 10
-8.5663314016999976
 20
30.766714691800001
 30
0.0
 40
2.9986110209999981
  1
12.75
 50
90.0
  0
LINE
  5
1BB
  8
0
 62
     0
 10
-17.805055555599999
 20
48.311956467700007
 30
0.0
 11
-6.0371647509999971
 21
48.311956467700007
 31
0.0
  0
LINE
  5
1BC
  8
0
 62
     0
 10
-33.055055555599999
 20
61.0619564677
 30
0.0
 11
-6.0371647509999971
 21
61.0619564677
 31
0.0
  0
LINE
  5
1BD
  8
0
 62
     0
 10
-7.0371647509999971
 20
48.311956467700007
 30
0.0
 11
-7.0371647509999971
 21
41.3500477073
 31
0.0
  0
LINE
  5
1BE
  8
0
 62
     0
 10
-7.0371647509999971
 20
48.311956467700007
 30
0.0
 11
-7.0371647509999971
 21
29.002825855899999
 31
0.0
  0
LINE
  5
1BF
  8
0
 62
     0
 10
-7.0371647509999971
 20
61.0619564677
 30
0.0
 11
-7.0371647509999971
 21
41.3500477073
 31
0.0
  0
LINE
  5
1C0
  8
0
 62
     0
 10
-7.0371647509999971
 20
61.0619564677
 30
0.0
 11
-7.0371647509999971
 21
29.002825855899999
 31
0.0
  0
LINE
  5
1C1
  8
0
 62
     0
 10
-7.0371647509999971
 20
61.0619564677
 30
0.0
 11
-7.0371647509999971
 21
56.0619564677
 31
0.0
  0
SOLID
  5
1C2
  8
0
 62
     0
 10
-7.0371647509999971
 20
61.0619564677
 30
0.0
 11
-6.2871647509999971
 21
58.0619564677
 31
0.0
 12
-7.7871647509999979
 22
58.0619564677
 32
0.0
 13
-7.0371647509999971
 23
58.811956467700007
 33
0.0
  0
LINE
  5
1C3
  8
0
 62
     0
 10
-7.0371647509999971
 20
48.311956467700007
 30
0.0
 11
-7.0371647509999971
 21
53.311956467700007
 31
0.0
  0
SOLID
  5
1C4
  8
0
 62
     0
 10
-7.0371647509999971
 20
48.311956467700007
 30
0.0
 11
-7.7871647509999979
 21
51.311956467700007
 31
0.0
 12
-6.2871647509999971
 22
51.311956467700007
 32
0.0
 13
-7.0371647509999971
 23
50.5619564677
 33
0.0
  0
ENDBLK
  5
1C5
  8
0
  0
BLOCK
  8
0
  2
*D15
 70
     1
 10
0.0
 20
0.0
 30
0.0
  3
*D15
  1

  0
TEXT
  5
1C9
  8
0
 62
     0
 10
-8.5663314016999976
 20
60.666123213799999
 30
0.0
 40
2.9986110209999981
  1
4.5
 50
90.0
  0
LINE
  5
1CA
  8
0
 62
     0
 10
-33.055055555599999
 20
61.0619564677
 30
0.0
 11
-6.0371647509999971
 21
61.0619564677
 31
0.0
  0
LINE
  5
1CB
  8
0
 62
     0
 10
-33.055055555599999
 20
65.561956467699986
 30
0.0
 11
-6.0371647509999971
 21
65.561956467699986
 31
0.0
  0
LINE
  5
1CC
  8
0
 62
     0
 10
-7.0371647509999971
 20
61.0619564677
 30
0.0
 11
-7.0371647509999971
 21
61.0619564677
 31
0.0
  0
LINE
  5
1CD
  8
0
 62
     0
 10
-7.0371647509999971
 20
61.0619564677
 30
0.0
 11
-7.0371647509999971
 21
65.561956467699986
 31
0.0
  0
LINE
  5
1CE
  8
0
 62
     0
 10
-7.0371647509999971
 20
65.561956467699986
 30
0.0
 11
-7.0371647509999971
 21
61.0619564677
 31
0.0
  0
LINE
  5
1CF
  8
0
 62
     0
 10
-7.0371647509999971
 20
65.561956467699986
 30
0.0
 11
-7.0371647509999971
 21
65.561956467699986
 31
0.0
  0
LINE
  5
1D0
  8
0
 62
     0
 10
-7.0371647509999971
 20
65.561956467699986
 30
0.0
 11
-7.0371647509999971
 21
70.561956467699986
 31
0.0
  0
SOLID
  5
1D1
  8
0
 62
     0
 10
-7.0371647509999971
 20
65.561956467699986
 30
0.0
 11
-7.7871647509999979
 21
68.5619564677
 31
0.0
 12
-6.2871647509999971
 22
68.5619564677
 32
0.0
 13
-7.0371647509999971
 23
67.8119564677
 33
0.0
  0
LINE
  5
1D2
  8
0
 62
     0
 10
-7.0371647509999971
 20
61.0619564677
 30
0.0
 11
-7.0371647509999971
 21
56.0619564677
 31
0.0
  0
SOLID
  5
1D3
  8
0
 62
     0
 10
-7.0371647509999971
 20
61.0619564677
 30
0.0
 11
-6.2871647509999971
 21
58.0619564677
 31
0.0
 12
-7.7871647509999979
 22
58.0619564677
 32
0.0
 13
-7.0371647509999971
 23
58.811956467700007
 33
0.0
  0
ENDBLK
  5
1D4
  8
0
  0
BLOCK
  8
0
  2
*D16
 70
     1
 10
0.0
 20
0.0
 30
0.0
  3
*D16
  1

  0
TEXT
  5
1D8
  8
0
 62
     0
 10
-45.06894439149999
 20
39.841123118399999
 30
0.0
 40
2.9986110209999981
  1
13
  0
LINE
  5
1D9
  8
0
 62
     0
 10
-49.805055555599999
 20
64.311956467699986
 30
0.0
 11
-49.805055555599999
 21
37.3119564677
 31
0.0
  0
LINE
  5
1DA
  8
0
 62
     0
 10
-36.805055555599999
 20
46.311956467700007
 30
0.0
 11
-36.805055555599999
 21
37.3119564677
 31
0.0
  0
LINE
  5
1DB
  8
0
 62
     0
 10
-49.805055555599999
 20
38.3119564677
 30
0.0
 11
-39.777277883700002
 21
38.3119564677
 31
0.0
  0
LINE
  5
1DC
  8
0
 62
     0
 10
-49.805055555599999
 20
38.3119564677
 30
0.0
 11
-46.832833227399981
 21
38.3119564677
 31
0.0
  0
LINE
  5
1DD
  8
0
 62
     0
 10
-36.805055555599999
 20
38.3119564677
 30
0.0
 11
-39.777277883700002
 21
38.3119564677
 31
0.0
  0
LINE
  5
1DE
  8
0
 62
     0
 10
-36.805055555599999
 20
38.3119564677
 30
0.0
 11
-46.832833227399981
 21
38.3119564677
 31
0.0
  0
LINE
  5
1DF
  8
0
 62
     0
 10
-36.805055555599999
 20
38.3119564677
 30
0.0
 11
-31.805055555599999
 21
38.3119564677
 31
0.0
  0
SOLID
  5
1E0
  8
0
 62
     0
 10
-36.805055555599999
 20
38.3119564677
 30
0.0
 11
-33.805055555599999
 21
39.0619564677
 31
0.0
 12
-33.805055555599999
 22
37.5619564677
 32
0.0
 13
-34.555055555599999
 23
38.3119564677
 33
0.0
  0
LINE
  5
1E1
  8
0
 62
     0
 10
-49.805055555599999
 20
38.3119564677
 30
0.0
 11
-54.805055555599999
 21
38.3119564677
 31
0.0
  0
SOLID
  5
1E2
  8
0
 62
     0
 10
-49.805055555599999
 20
38.3119564677
 30
0.0
 11
-52.805055555600013
 21
37.5619564677
 31
0.0
 12
-52.805055555600013
 22
39.0619564677
 32
0.0
 13
-52.055055555600013
 23
38.3119564677
 33
0.0
  0
ENDBLK
  5
1E3
  8
0
  0
BLOCK
  8
0
  2
*D17
 70
     1
 10
0.0
 20
0.0
 30
0.0
  3
*D17
  1

  0
TEXT
  5
1E7
  8
0
 62
     0
 10
-94.534222206299987
 20
61.548067631800002
 30
0.0
 40
2.9986110209999981
  1
30
 50
90.0
  0
LINE
  5
1E8
  8
0
 62
     0
 10
-85.005055555600009
 20
78.3119564677
 30
0.0
 11
-94.005055555599995
 21
78.3119564677
 31
0.0
  0
LINE
  5
1E9
  8
0
 62
     0
 10
-85.005055555600009
 20
48.311956467700007
 30
0.0
 11
-94.005055555599995
 21
48.311956467700007
 31
0.0
  0
LINE
  5
1EA
  8
0
 62
     0
 10
-93.005055555599995
 20
78.3119564677
 30
0.0
 11
-93.005055555599995
 21
66.839734139499996
 31
0.0
  0
LINE
  5
1EB
  8
0
 62
     0
 10
-93.005055555599995
 20
78.3119564677
 30
0.0
 11
-93.005055555599995
 21
59.784178795800003
 31
0.0
  0
LINE
  5
1EC
  8
0
 62
     0
 10
-93.005055555599995
 20
48.311956467700007
 30
0.0
 11
-93.005055555599995
 21
66.839734139499996
 31
0.0
  0
LINE
  5
1ED
  8
0
 62
     0
 10
-93.005055555599995
 20
48.311956467700007
 30
0.0
 11
-93.005055555599995
 21
59.784178795800003
 31
0.0
  0
LINE
  5
1EE
  8
0
 62
     0
 10
-93.005055555599995
 20
48.311956467700007
 30
0.0
 11
-93.005055555599995
 21
53.311956467700007
 31
0.0
  0
SOLID
  5
1EF
  8
0
 62
     0
 10
-93.005055555599995
 20
48.311956467700007
 30
0.0
 11
-93.755055555599995
 21
51.311956467700007
 31
0.0
 12
-92.255055555599995
 22
51.311956467700007
 32
0.0
 13
-93.005055555599995
 23
50.5619564677
 33
0.0
  0
LINE
  5
1F0
  8
0
 62
     0
 10
-93.005055555599995
 20
78.3119564677
 30
0.0
 11
-93.005055555599995
 21
73.3119564677
 31
0.0
  0
SOLID
  5
1F1
  8
0
 62
     0
 10
-93.005055555599995
 20
78.3119564677
 30
0.0
 11
-92.255055555599995
 21
75.3119564677
 31
0.0
 12
-93.755055555599995
 22
75.3119564677
 32
0.0
 13
-93.005055555599995
 23
76.0619564677
 33
0.0
  0
ENDBLK
  5
1F2
  8
0
  0
BLOCK
  8
0
  2
*D18
 70
     1
 10
0.0
 20
0.0
 30
0.0
  3
*D18
  1

  0
TEXT
  5
1F6
  8
0
 62
     0
 10
-84.050888809399993
 20
97.958842254400011
 30
0.0
 40
2.9986110209999981
  1
3.2
  0
LINE
  5
1F7
  8
0
 62
     0
 10
-79.805055555600006
 20
80.311956467699986
 30
0.0
 11
-79.805055555600006
 21
97.429675603700005
 31
0.0
  0
LINE
  5
1F8
  8
0
 62
     0
 10
-83.005055555599995
 20
80.311956467699986
 30
0.0
 11
-83.005055555599995
 21
97.429675603700005
 31
0.0
  0
LINE
  5
1F9
  8
0
 62
     0
 10
-79.805055555600006
 20
96.429675603700005
 30
0.0
 11
-79.805055555600006
 21
96.429675603700005
 31
0.0
  0
LINE
  5
1FA
  8
0
 62
     0
 10
-79.805055555600006
 20
96.429675603700005
 30
0.0
 11
-83.005055555599995
 21
96.429675603700005
 31
0.0
  0
LINE
  5
1FB
  8
0
 62
     0
 10
-83.005055555599995
 20
96.429675603700005
 30
0.0
 11
-79.805055555600006
 21
96.429675603700005
 31
0.0
  0
LINE
  5
1FC
  8
0
 62
     0
 10
-83.005055555599995
 20
96.429675603700005
 30
0.0
 11
-83.005055555599995
 21
96.429675603700005
 31
0.0
  0
LINE
  5
1FD
  8
0
 62
     0
 10
-83.005055555599995
 20
96.429675603700005
 30
0.0
 11
-88.005055555599995
 21
96.429675603700005
 31
0.0
  0
SOLID
  5
1FE
  8
0
 62
     0
 10
-83.005055555599995
 20
96.429675603700005
 30
0.0
 11
-86.005055555599981
 21
95.679675603700005
 31
0.0
 12
-86.005055555599981
 22
97.179675603700005
 32
0.0
 13
-85.255055555599981
 23
96.429675603700005
 33
0.0
  0
LINE
  5
1FF
  8
0
 62
     0
 10
-79.805055555600006
 20
96.429675603700005
 30
0.0
 11
-74.805055555600006
 21
96.429675603700005
 31
0.0
  0
SOLID
  5
200
  8
0
 62
     0
 10
-79.805055555600006
 20
96.429675603700005
 30
0.0
 11
-76.805055555600006
 21
97.179675603700005
 31
0.0
 12
-76.805055555600006
 22
95.679675603700005
 32
0.0
 13
-77.555055555600006
 23
96.429675603700005
 33
0.0
  0
ENDBLK
  5
201
  8
0
  0
BLOCK
  8
0
  2
*D19
 70
     1
 10
0.0
 20
0.0
 30
0.0
  3
*D19
  1

  0
TEXT
  5
205
  8
0
 62
     0
 10
-51.568944391499997
 20
97.958842254400011
 30
0.0
 40
2.9986110209999981
  1
60
  0
LINE
  5
206
  8
0
 62
     0
 10
-19.805055555599999
 20
80.311956467699986
 30
0.0
 11
-19.805055555599999
 21
97.429675603700005
 31
0.0
  0
LINE
  5
207
  8
0
 62
     0
 10
-79.805055555600006
 20
80.311956467699986
 30
0.0
 11
-79.805055555600006
 21
97.429675603700005
 31
0.0
  0
LINE
  5
208
  8
0
 62
     0
 10
-19.805055555599999
 20
96.429675603700005
 30
0.0
 11
-46.277277883700002
 21
96.429675603700005
 31
0.0
  0
LINE
  5
209
  8
0
 62
     0
 10
-19.805055555599999
 20
96.429675603700005
 30
0.0
 11
-53.332833227399981
 21
96.429675603700005
 31
0.0
  0
LINE
  5
20A
  8
0
 62
     0
 10
-79.805055555600006
 20
96.429675603700005
 30
0.0
 11
-46.277277883700002
 21
96.429675603700005
 31
0.0
  0
LINE
  5
20B
  8
0
 62
     0
 10
-79.805055555600006
 20
96.429675603700005
 30
0.0
 11
-53.332833227399981
 21
96.429675603700005
 31
0.0
  0
LINE
  5
20C
  8
0
 62
     0
 10
-79.805055555600006
 20
96.429675603700005
 30
0.0
 11
-74.805055555600006
 21
96.429675603700005
 31
0.0
  0
SOLID
  5
20D
  8
0
 62
     0
 10
-79.805055555600006
 20
96.429675603700005
 30
0.0
 11
-76.805055555600006
 21
97.179675603700005
 31
0.0
 12
-76.805055555600006
 22
95.679675603700005
 32
0.0
 13
-77.555055555600006
 23
96.429675603700005
 33
0.0
  0
LINE
  5
20E
  8
0
 62
     0
 10
-19.805055555599999
 20
96.429675603700005
 30
0.0
 11
-24.805055555599999
 21
96.429675603700005
 31
0.0
  0
SOLID
  5
20F
  8
0
 62
     0
 10
-19.805055555599999
 20
96.429675603700005
 30
0.0
 11
-22.805055555599999
 21
95.679675603700005
 31
0.0
 12
-22.805055555599999
 22
97.179675603700005
 32
0.0
 13
-22.055055555599999
 23
96.429675603700005
 33
0.0
  0
ENDBLK
  5
210
  8
0
  0
BLOCK
  8
0
  2
*D20
 70
     1
 10
0.0
 20
0.0
 30
0.0
  3
*D20
  1

  0
TEXT
  5
21F
  8
0
 62
     0
 10
-50.938984152499991
 20
-22.059268415599998
 30
0.0
 40
0.7710714459
  1
%%c4.5
  0
LINE
  5
220
  8
0
 62
     0
 10
-52.205055555599998
 20
-20.157695273600002
 30
0.0
 11
-52.205055555599998
 21
-23.052482742700001
 31
0.0
  0
LINE
  5
221
  8
0
 62
     0
 10
-47.405055555600008
 20
-20.157695273600002
 30
0.0
 11
-47.405055555600008
 21
-23.052482742700001
 31
0.0
  0
LINE
  5
222
  8
0
 62
     0
 10
-52.205055555599998
 20
-22.4810541457
 30
0.0
 11
-48.217555519799987
 21
-22.4810541457
 31
0.0
  0
LINE
  5
223
  8
0
 62
     0
 10
-52.205055555599998
 20
-22.4810541457
 30
0.0
 11
-51.392555591300003
 21
-22.4810541457
 31
0.0
  0
LINE
  5
224
  8
0
 62
     0
 10
-47.405055555600008
 20
-22.4810541457
 30
0.0
 11
-48.217555519799987
 21
-22.4810541457
 31
0.0
  0
LINE
  5
225
  8
0
 62
     0
 10
-47.405055555600008
 20
-22.4810541457
 30
0.0
 11
-51.392555591300003
 21
-22.4810541457
 31
0.0
  0
LINE
  5
226
  8
0
 62
     0
 10
-47.405055555600008
 20
-22.4810541457
 30
0.0
 11
-45.976484092900002
 21
-22.4810541457
 31
0.0
  0
SOLID
  5
227
  8
0
 62
     0
 10
-47.405055555600008
 20
-22.4810541457
 30
0.0
 11
-46.547912689899981
 21
-22.251339856400001
 31
0.0
 12
-46.547912689899981
 22
-22.7107684351
 32
0.0
 13
-46.762198406299987
 23
-22.4810541457
 33
0.0
  0
LINE
  5
228
  8
0
 62
     0
 10
-52.205055555599998
 20
-22.4810541457
 30
0.0
 11
-53.633627018199988
 21
-22.4810541457
 31
0.0
  0
SOLID
  5
229
  8
0
 62
     0
 10
-52.205055555599998
 20
-22.4810541457
 30
0.0
 11
-53.062198421200002
 21
-22.7107684351
 31
0.0
 12
-53.062198421200002
 22
-22.251339856400001
 32
0.0
 13
-52.847912704799988
 23
-22.4810541457
 33
0.0
  0
ENDBLK
  5
22A
  8
0
  0
BLOCK
  8
0
  2
*D21
 70
     1
 10
0.0
 20
0.0
 30
0.0
  3
*D21
  1

  0
TEXT
  5
22F
  8
0
 62
     0
 10
-50.485412713700001
 20
-9.6635439877000007
 30
0.0
 40
0.7710714459
  1
90%%d
  0
ARC
  5
230
  8
0
 62
     0
 10
-49.805055555599999
 20
-18.957695273599999
 30
0.0
 40
8.8859369909999977
 50
128.79174382490001
 51
135.0
  0
ARC
  5
231
  8
0
 62
     0
 10
-49.805055555599999
 20
-18.957695273599999
 30
0.0
 40
8.8859369909999977
 50
45.0
 51
51.208256175099997
  0
SOLID
  5
232
  8
0
 62
     0
 10
-43.521749251999992
 20
-12.674388970100001
 30
0.0
 11
-42.7532251875
 21
-13.118047971099999
 31
0.0
 12
-43.078090250999999
 22
-13.4429130345
 32
0.0
 13
-43.067180602400001
 23
-13.1289576196
 33
0.0
  0
SOLID
  5
233
  8
0
 62
     0
 10
-56.088361859099997
 20
-12.674388970100001
 30
0.0
 11
-56.532020860200006
 21
-13.4429130345
 31
0.0
 12
-56.856885923599997
 22
-13.118047971099999
 32
0.0
 13
-56.542930508699982
 23
-13.1289576196
 33
0.0
  0
ARC
  5
234
  8
0
 62
     0
 10
-49.805055555599999
 20
-18.957695273599999
 30
0.0
 40
8.8859369909999977
 50
45.0
 51
82.577925562900006
  0
ARC
  5
235
  8
0
 62
     0
 10
-49.805055555599999
 20
-18.957695273599999
 30
0.0
 40
8.8859369909999977
 50
97.422074437099994
 51
135.0
  0
LINE
  5
236
  8
0
 62
     0
 10
-45.400994519699992
 20
-14.553634237700001
 30
0.0
 11
-43.117688216099999
 21
-12.270327934199999
 31
0.0
  0
LINE
  5
237
  8
0
 62
     0
 10
-54.209116591399997
 20
-14.553634237700001
 30
0.0
 11
-56.492422894999997
 21
-12.270327934199999
 31
0.0
  0
ENDBLK
  5
238
  8
0
  0
BLOCK
  8
0
  2
*D22
 70
     1
 10
0.0
 20
0.0
 30
0.0
  3
*D22
  1

  0
TEXT
  5
23C
  8
0
 62
     0
 10
-50.485412713700001
 20
-11.1733992767
 30
0.0
 40
0.7710714459
  1
%%c8
  0
LINE
  5
23D
  8
0
 62
     0
 10
-45.805055555600013
 20
-12.957695273600001
 30
0.0
 11
-45.805055555600013
 21
-11.023756409800001
 31
0.0
  0
LINE
  5
23E
  8
0
 62
     0
 10
-53.805055555599999
 20
-12.957695273600001
 30
0.0
 11
-53.805055555599999
 21
-11.023756409800001
 31
0.0
  0
LINE
  5
23F
  8
0
 62
     0
 10
-45.805055555600013
 20
-11.5951850068
 30
0.0
 11
-48.671126958599999
 21
-11.5951850068
 31
0.0
  0
LINE
  5
240
  8
0
 62
     0
 10
-45.805055555600013
 20
-11.5951850068
 30
0.0
 11
-50.938984152499991
 21
-11.5951850068
 31
0.0
  0
LINE
  5
241
  8
0
 62
     0
 10
-53.805055555599999
 20
-11.5951850068
 30
0.0
 11
-48.671126958599999
 21
-11.5951850068
 31
0.0
  0
LINE
  5
242
  8
0
 62
     0
 10
-53.805055555599999
 20
-11.5951850068
 30
0.0
 11
-50.938984152499991
 21
-11.5951850068
 31
0.0
  0
LINE
  5
243
  8
0
 62
     0
 10
-53.805055555599999
 20
-11.5951850068
 30
0.0
 11
-52.3764840929
 21
-11.5951850068
 31
0.0
  0
SOLID
  5
244
  8
0
 62
     0
 10
-53.805055555599999
 20
-11.5951850068
 30
0.0
 11
-52.947912689900001
 21
-11.365470717499999
 31
0.0
 12
-52.947912689900001
 22
-11.824899296099989
 32
0.0
 13
-53.1621984063
 23
-11.5951850068
 33
0.0
  0
LINE
  5
245
  8
0
 62
     0
 10
-45.805055555600013
 20
-11.5951850068
 30
0.0
 11
-47.233627018200004
 21
-11.5951850068
 31
0.0
  0
SOLID
  5
246
  8
0
 62
     0
 10
-45.805055555600013
 20
-11.5951850068
 30
0.0
 11
-46.662198421199989
 21
-11.824899296099989
 31
0.0
 12
-46.662198421199989
 22
-11.365470717499999
 32
0.0
 13
-46.44791270479999
 23
-11.5951850068
 33
0.0
  0
ENDBLK
  5
247
  8
0
  0
BLOCK
  8
0
  2
*D23
 70
     1
 10
0.0
 20
0.0
 30
0.0
  3
*D23
  1

  0
TEXT
  5
24B
  8
0
 62
     0
 10
-51.568944391499997
 20
-29.416944460300002
 30
0.0
 40
2.9986110209999981
  1
60
  0
LINE
  5
24C
  8
0
 62
     0
 10
-79.805055555600006
 20
-15.6576952736
 30
0.0
 11
-79.805055555600006
 21
-31.946111111099999
 31
0.0
  0
LINE
  5
24D
  8
0
 62
     0
 10
-19.805055555599999
 20
-20.157695273600002
 30
0.0
 11
-19.805055555599999
 21
-31.946111111099999
 31
0.0
  0
LINE
  5
24E
  8
0
 62
     0
 10
-79.805055555600006
 20
-30.946111111099999
 30
0.0
 11
-46.277277883700002
 21
-30.946111111099999
 31
0.0
  0
LINE
  5
24F
  8
0
 62
     0
 10
-79.805055555600006
 20
-30.946111111099999
 30
0.0
 11
-53.332833227399981
 21
-30.946111111099999
 31
0.0
  0
LINE
  5
250
  8
0
 62
     0
 10
-19.805055555599999
 20
-30.946111111099999
 30
0.0
 11
-46.277277883700002
 21
-30.946111111099999
 31
0.0
  0
LINE
  5
251
  8
0
 62
     0
 10
-19.805055555599999
 20
-30.946111111099999
 30
0.0
 11
-53.332833227399981
 21
-30.946111111099999
 31
0.0
  0
LINE
  5
252
  8
0
 62
     0
 10
-19.805055555599999
 20
-30.946111111099999
 30
0.0
 11
-24.805055555599999
 21
-30.946111111099999
 31
0.0
  0
SOLID
  5
253
  8
0
 62
     0
 10
-19.805055555599999
 20
-30.946111111099999
 30
0.0
 11
-22.805055555599999
 21
-31.696111111099999
 31
0.0
 12
-22.805055555599999
 22
-30.196111111100009
 32
0.0
 13
-22.055055555599999
 23
-30.946111111099999
 33
0.0
  0
LINE
  5
254
  8
0
 62
     0
 10
-79.805055555600006
 20
-30.946111111099999
 30
0.0
 11
-74.805055555600006
 21
-30.946111111099999
 31
0.0
  0
SOLID
  5
255
  8
0
 62
     0
 10
-79.805055555600006
 20
-30.946111111099999
 30
0.0
 11
-76.805055555600006
 21
-30.196111111100009
 31
0.0
 12
-76.805055555600006
 22
-31.696111111099999
 32
0.0
 13
-77.555055555600006
 23
-30.946111111099999
 33
0.0
  0
ENDBLK
  5
256
  8
0
  0
BLOCK
  8
0
  2
*D24
 70
     1
 10
0.0
 20
0.0
 30
0.0
  3
*D24
  1

  0
TEXT
  5
25A
  8
0
 62
     0
 10
-11.3342222063
 20
-10.6071009285
 30
0.0
 40
2.9986110209999981
  1
3.2t
 50
90.0
  0
LINE
  5
25B
  8
0
 62
     0
 10
-17.805055555599999
 20
-18.157695273600002
 30
0.0
 11
-8.8050555555999992
 21
-18.157695273600002
 31
0.0
  0
LINE
  5
25C
  8
0
 62
     0
 10
-17.805055555599999
 20
-14.957695273600001
 30
0.0
 11
-8.8050555555999992
 21
-14.957695273600001
 31
0.0
  0
LINE
  5
25D
  8
0
 62
     0
 10
-9.8050555555999992
 20
-18.157695273600002
 30
0.0
 11
-9.8050555555999992
 21
-1.787656748899999
 31
0.0
  0
LINE
  5
25E
  8
0
 62
     0
 10
-9.8050555555999992
 20
-18.157695273600002
 30
0.0
 11
-9.8050555555999992
 21
-12.370989764400001
 31
0.0
  0
LINE
  5
25F
  8
0
 62
     0
 10
-9.8050555555999992
 20
-14.957695273600001
 30
0.0
 11
-9.8050555555999992
 21
-1.787656748899999
 31
0.0
  0
LINE
  5
260
  8
0
 62
     0
 10
-9.8050555555999992
 20
-14.957695273600001
 30
0.0
 11
-9.8050555555999992
 21
-12.370989764400001
 31
0.0
  0
LINE
  5
261
  8
0
 62
     0
 10
-9.8050555555999992
 20
-14.957695273600001
 30
0.0
 11
-9.8050555555999992
 21
-9.9576952736000006
 31
0.0
  0
SOLID
  5
262
  8
0
 62
     0
 10
-9.8050555555999992
 20
-14.957695273600001
 30
0.0
 11
-10.555055555599999
 21
-11.957695273600001
 31
0.0
 12
-9.0550555555999992
 22
-11.957695273600001
 32
0.0
 13
-9.8050555555999992
 23
-12.707695273600001
 33
0.0
  0
LINE
  5
263
  8
0
 62
     0
 10
-9.8050555555999992
 20
-18.157695273600002
 30
0.0
 11
-9.8050555555999992
 21
-23.157695273600002
 31
0.0
  0
SOLID
  5
264
  8
0
 62
     0
 10
-9.8050555555999992
 20
-18.157695273600002
 30
0.0
 11
-9.0550555555999992
 21
-21.157695273600002
 31
0.0
 12
-10.555055555599999
 22
-21.157695273600002
 32
0.0
 13
-9.8050555555999992
 23
-20.407695273600002
 33
0.0
  0
ENDBLK
  5
265
  8
0
  0
BLOCK
  8
0
  2
*D25
 70
     1
 10
0.0
 20
0.0
 30
0.0
  3
*D25
  1

  0
TEXT
  5
273
  8
0
 62
     0
 10
-1.0348905314000001
 20
50.430012049699997
 30
0.0
 40
2.9986110209999981
  1
6
 50
90.0
  0
LINE
  5
274
  8
0
 62
     0
 10
-17.805055555599999
 20
48.311956467700007
 30
0.0
 11
1.4942761194
 21
48.311956467700007
 31
0.0
  0
LINE
  5
275
  8
0
 62
     0
 10
-28.805055555599999
 20
54.3119564677
 30
0.0
 11
1.4942761194
 21
54.3119564677
 31
0.0
  0
LINE
  5
276
  8
0
 62
     0
 10
0.4942761194
 20
48.311956467700007
 30
0.0
 11
0.4942761194
 21
53.957789721499999
 31
0.0
  0
LINE
  5
277
  8
0
 62
     0
 10
0.4942761194
 20
48.311956467700007
 30
0.0
 11
0.4942761194
 21
48.666123213799992
 31
0.0
  0
LINE
  5
278
  8
0
 62
     0
 10
0.4942761194
 20
54.3119564677
 30
0.0
 11
0.4942761194
 21
53.957789721499999
 31
0.0
  0
LINE
  5
279
  8
0
 62
     0
 10
0.4942761194
 20
54.3119564677
 30
0.0
 11
0.4942761194
 21
48.666123213799992
 31
0.0
  0
LINE
  5
27A
  8
0
 62
     0
 10
0.4942761194
 20
54.3119564677
 30
0.0
 11
0.4942761194
 21
59.3119564677
 31
0.0
  0
SOLID
  5
27B
  8
0
 62
     0
 10
0.4942761194
 20
54.3119564677
 30
0.0
 11
-0.2557238806
 21
57.3119564677
 31
0.0
 12
1.2442761194
 22
57.3119564677
 32
0.0
 13
0.4942761194
 23
56.561956467700007
 33
0.0
  0
LINE
  5
27C
  8
0
 62
     0
 10
0.4942761194
 20
48.311956467700007
 30
0.0
 11
0.4942761194
 21
43.311956467700007
 31
0.0
  0
SOLID
  5
27D
  8
0
 62
     0
 10
0.4942761194
 20
48.311956467700007
 30
0.0
 11
1.2442761194
 21
45.3119564677
 31
0.0
 12
-0.2557238806
 22
45.3119564677
 32
0.0
 13
0.4942761194
 23
46.0619564677
 33
0.0
  0
ENDBLK
  5
27E
  8
0
  0
BLOCK
  8
0
  2
*D26
 70
     1
 10
0.0
 20
0.0
 30
0.0
  3
*D26
  1

  0
TEXT
  5
282
  8
0
 62
     0
 10
-1.0348905314000001
 20
61.548067631800002
 30
0.0
 40
2.9986110209999981
  1
18
 50
90.0
  0
LINE
  5
283
  8
0
 62
     0
 10
-28.805055555599999
 20
54.3119564677
 30
0.0
 11
1.4942761194
 21
54.3119564677
 31
0.0
  0
LINE
  5
284
  8
0
 62
     0
 10
-41.805055555599992
 20
72.3119564677
 30
0.0
 11
1.4942761194
 21
72.3119564677
 31
0.0
  0
LINE
  5
285
  8
0
 62
     0
 10
0.4942761194
 20
54.3119564677
 30
0.0
 11
0.4942761194
 21
66.839734139499996
 31
0.0
  0
LINE
  5
286
  8
0
 62
     0
 10
0.4942761194
 20
54.3119564677
 30
0.0
 11
0.4942761194
 21
59.784178795800003
 31
0.0
  0
LINE
  5
287
  8
0
 62
     0
 10
0.4942761194
 20
72.3119564677
 30
0.0
 11
0.4942761194
 21
66.839734139499996
 31
0.0
  0
LINE
  5
288
  8
0
 62
     0
 10
0.4942761194
 20
72.3119564677
 30
0.0
 11
0.4942761194
 21
59.784178795800003
 31
0.0
  0
LINE
  5
289
  8
0
 62
     0
 10
0.4942761194
 20
72.3119564677
 30
0.0
 11
0.4942761194
 21
67.3119564677
 31
0.0
  0
SOLID
  5
28A
  8
0
 62
     0
 10
0.4942761194
 20
72.3119564677
 30
0.0
 11
1.2442761194
 21
69.311956467699986
 31
0.0
 12
-0.2557238806
 22
69.311956467699986
 32
0.0
 13
0.4942761194
 23
70.0619564677
 33
0.0
  0
LINE
  5
28B
  8
0
 62
     0
 10
0.4942761194
 20
54.3119564677
 30
0.0
 11
0.4942761194
 21
59.3119564677
 31
0.0
  0
SOLID
  5
28C
  8
0
 62
     0
 10
0.4942761194
 20
54.3119564677
 30
0.0
 11
-0.2557238806
 21
57.3119564677
 31
0.0
 12
1.2442761194
 22
57.3119564677
 32
0.0
 13
0.4942761194
 23
56.561956467700007
 33
0.0
  0
ENDBLK
  5
28D
  8
0
  0
BLOCK
  8
0
  2
*D27
 70
     1
 10
0.0
 20
0.0
 30
0.0
  3
*D27
  1

  0
TEXT
  5
291
  8
0
 62
     0
 10
-1.0348905314000001
 20
74.430012049699982
 30
0.0
 40
2.9986110209999981
  1
6
 50
90.0
  0
LINE
  5
292
  8
0
 62
     0
 10
-41.805055555599992
 20
72.3119564677
 30
0.0
 11
1.4942761194
 21
72.3119564677
 31
0.0
  0
LINE
  5
293
  8
0
 62
     0
 10
-17.805055555599999
 20
78.3119564677
 30
0.0
 11
1.4942761194
 21
78.3119564677
 31
0.0
  0
LINE
  5
294
  8
0
 62
     0
 10
0.4942761194
 20
72.3119564677
 30
0.0
 11
0.4942761194
 21
77.957789721499992
 31
0.0
  0
LINE
  5
295
  8
0
 62
     0
 10
0.4942761194
 20
72.3119564677
 30
0.0
 11
0.4942761194
 21
72.666123213800006
 31
0.0
  0
LINE
  5
296
  8
0
 62
     0
 10
0.4942761194
 20
78.3119564677
 30
0.0
 11
0.4942761194
 21
77.957789721499992
 31
0.0
  0
LINE
  5
297
  8
0
 62
     0
 10
0.4942761194
 20
78.3119564677
 30
0.0
 11
0.4942761194
 21
72.666123213800006
 31
0.0
  0
LINE
  5
298
  8
0
 62
     0
 10
0.4942761194
 20
78.3119564677
 30
0.0
 11
0.4942761194
 21
83.3119564677
 31
0.0
  0
SOLID
  5
299
  8
0
 62
     0
 10
0.4942761194
 20
78.3119564677
 30
0.0
 11
-0.2557238806
 21
81.311956467700014
 31
0.0
 12
1.2442761194
 22
81.311956467700014
 32
0.0
 13
0.4942761194
 23
80.561956467699986
 33
0.0
  0
LINE
  5
29A
  8
0
 62
     0
 10
0.4942761194
 20
72.3119564677
 30
0.0
 11
0.4942761194
 21
67.3119564677
 31
0.0
  0
SOLID
  5
29B
  8
0
 62
     0
 10
0.4942761194
 20
72.3119564677
 30
0.0
 11
1.2442761194
 21
69.311956467699986
 31
0.0
 12
-0.2557238806
 22
69.311956467699986
 32
0.0
 13
0.4942761194
 23
70.0619564677
 33
0.0
  0
ENDBLK
  5
29C
  8
0
  0
BLOCK
  8
0
  2
*D28
 70
     1
 10
0.0
 20
0.0
 30
0.0
  3
*D28
  1

  0
TEXT
  5
2A8
  8
0
 62
     0
 10
-70.179348311200002
 20
-0.9059679674999999
 30
0.0
 40
2.9986110209999981
  1
90%%d
 50
316.651552358
  0
ARC
  5
2A9
  8
0
 62
     0
 10
-79.805055555600006
 20
-14.957695273600001
 30
0.0
 40
15.2382198431
 50
71.588933288800021
 51
90.0
  0
ARC
  5
2AA
  8
0
 62
     0
 10
-79.805055555600006
 20
-14.957695273600001
 30
0.0
 40
15.2382198431
 50
0.0
 51
18.4110667112
  0
SOLID
  5
2AB
  8
0
 62
     0
 10
-64.566835712499994
 20
-14.957695273600001
 30
0.0
 11
-63.816835712500001
 21
-17.957695273599999
 31
0.0
 12
-65.316835712499994
 22
-17.957695273599999
 32
0.0
 13
-64.566835712499994
 23
-17.207695273599999
 33
0.0
  0
SOLID
  5
2AC
  8
0
 62
     0
 10
-79.805055555600006
 20
0.2805245694
 30
0.0
 11
-82.805055555600006
 21
-0.4694754306
 31
0.0
 12
-82.805055555600006
 22
1.0305245694
 32
0.0
 13
-82.055055555600006
 23
0.2805245694
 33
0.0
  0
ARC
  5
2AD
  8
0
 62
     0
 10
-79.805055555600006
 20
-14.957695273600001
 30
0.0
 40
15.2382198431
 50
0.0
 51
29.771907535900009
  0
ARC
  5
2AE
  8
0
 62
     0
 10
-79.805055555600006
 20
-14.957695273600001
 30
0.0
 40
15.2382198431
 50
63.531197180200003
 51
90.0
  0
LINE
  5
2AF
  8
0
 62
     0
 10
-21.805055555599999
 20
-14.957695273600001
 30
0.0
 11
-66.566835712499994
 21
-14.957695273600001
 31
0.0
  0
LINE
  5
2B0
  8
0
 62
     0
 10
-79.805055555600006
 20
13.042304726399999
 30
0.0
 11
-79.805055555600006
 21
-1.7194754306
 31
0.0
  0
ENDBLK
  5
2B1
  8
0
  0
BLOCK
  8
0
  2
*D29
 70
     1
 10
0.0
 20
0.0
 30
0.0
  3
*D29
  1

  0
TEXT
  5
2B5
  8
0
 62
     0
 10
-94.534222206299987
 20
-1.7215841095
 30
0.0
 40
2.9986110209999981
  1
30
 50
90.0
  0
LINE
  5
2B6
  8
0
 62
     0
 10
-85.005055555600009
 20
15.042304726399999
 30
0.0
 11
-94.005055555599995
 21
15.042304726399999
 31
0.0
  0
LINE
  5
2B7
  8
0
 62
     0
 10
-80.505055555599995
 20
-14.957695273600001
 30
0.0
 11
-94.005055555599995
 21
-14.957695273600001
 31
0.0
  0
LINE
  5
2B8
  8
0
 62
     0
 10
-93.005055555599995
 20
15.042304726399999
 30
0.0
 11
-93.005055555599995
 21
3.5700823981999981
 31
0.0
  0
LINE
  5
2B9
  8
0
 62
     0
 10
-93.005055555599995
 20
15.042304726399999
 30
0.0
 11
-93.005055555599995
 21
-3.4854729454000002
 31
0.0
  0
LINE
  5
2BA
  8
0
 62
     0
 10
-93.005055555599995
 20
-14.957695273600001
 30
0.0
 11
-93.005055555599995
 21
3.5700823981999981
 31
0.0
  0
LINE
  5
2BB
  8
0
 62
     0
 10
-93.005055555599995
 20
-14.957695273600001
 30
0.0
 11
-93.005055555599995
 21
-3.4854729454000002
 31
0.0
  0
LINE
  5
2BC
  8
0
 62
     0
 10
-93.005055555599995
 20
-14.957695273600001
 30
0.0
 11
-93.005055555599995
 21
-9.9576952736000006
 31
0.0
  0
SOLID
  5
2BD
  8
0
 62
     0
 10
-93.005055555599995
 20
-14.957695273600001
 30
0.0
 11
-93.755055555599995
 21
-11.957695273600001
 31
0.0
 12
-92.255055555599995
 22
-11.957695273600001
 32
0.0
 13
-93.005055555599995
 23
-12.707695273600001
 33
0.0
  0
LINE
  5
2BE
  8
0
 62
     0
 10
-93.005055555599995
 20
15.042304726399999
 30
0.0
 11
-93.005055555599995
 21
10.042304726399999
 31
0.0
  0
SOLID
  5
2BF
  8
0
 62
     0
 10
-93.005055555599995
 20
15.042304726399999
 30
0.0
 11
-92.255055555599995
 21
12.042304726399999
 31
0.0
 12
-93.755055555599995
 22
12.042304726399999
 32
0.0
 13
-93.005055555599995
 23
12.792304726399999
 33
0.0
  0
ENDBLK
  5
2C0
  8
0
  0
BLOCK
  8
0
  2
*D30
 70
     1
 10
0.0
 20
0.0
 30
0.0
  3
*D30
  1

  0
LINE
  5
31C
  8
寸法線
 62
     0
 10
284.04197595765243
 20
-14.98208327828095
 30
0.0
 11
238.09269580075059
 21
-14.982083278280911
 31
0.0
  0
LINE
  5
31D
  8
寸法線
 62
     0
 10
224.1044759576524
 20
45.705416721719061
 30
0.0
 11
224.1044759576524
 21
-0.9938634351827032
 31
0.0
  0
ARC
  5
31E
  8
寸法線
 62
     0
 10
224.1044759576524
 20
-14.982083278280919
 30
0.0
 40
15.238219843098211
 50
11.29831106159563
 51
28.931932479047461
  0
ARC
  5
31F
  8
寸法線
 62
     0
 10
224.1044759576524
 20
-14.982083278280919
 30
0.0
 40
15.238219843098211
 50
64.371172236392113
 51
78.701688938404345
  0
SOLID
  5
320
  8
寸法線
 62
     0
 10
239.54495737297981
 20
-11.94743498623793
 30
0.0
 11
238.5498140581426
 21
-12.04587168130106
 31
0.0
 12
239.34269580075059
 22
-14.982083278280919
 32
0.0
 13
239.34269580075059
 23
-14.982083278280919
 33
0.0
  0
SOLID
  5
321
  8
寸法線
 62
     0
 10
227.0406875546322
 20
-0.5367451777906638
 30
0.0
 11
227.13912424969541
 21
0.4583981370464585
 31
0.0
 12
224.1044759576524
 22
0.2561365648173108
 32
0.0
 13
224.1044759576524
 23
0.2561365648173108
 33
0.0
  0
INSERT
  5
322
  8
0
  6
CONTINUOUS
  2
*U31
 10
0.0
 20
0.0
 30
0.0
  0
POINT
  5
323
  8
DEFPOINTS
 62
     0
 10
224.1044759576524
 20
-14.982083278280919
 30
0.0
  0
POINT
  5
324
  8
DEFPOINTS
 62
     0
 10
284.10447595765243
 20
-14.982083278280919
 30
0.0
  0
POINT
  5
325
  8
DEFPOINTS
 62
     0
 10
224.1044759576524
 20
45.767916721719097
 30
0.0
  0
POINT
  5
326
  8
DEFPOINTS
 62
     0
 10
237.30116145022751
 20
-7.3629733567318141
 30
0.0
  0
ENDBLK
  5
2F3
  8
0
  0
BLOCK
  8
0
  2
*U31
 70
     1
 10
0.0
 20
0.0
 30
0.0
  3
*U31
  1

  0
TEXT
  5
79F
  8
寸法線
  6
CONTINUOUS
 62
     0
 10
230.2281325219748
 20
-1.869420256095883
 30
0.0
 40
2.9986110209999981
  1
90°
 50
316.65155235771982
  0
ENDBLK
  5
7A1
  8
0
  0
BLOCK
  8
0
  2
*D32
 70
     1
 10
0.0
 20
0.0
 30
0.0
  3
*D32
  1

  0
LINE
  5
793
  8
寸法線
 62
     0
 10
55.225539469021989
 20
2.654728736775771
 30
0.0
 11
65.940482226109964
 21
13.36967149386377
 31
0.0
  0
LINE
  5
794
  8
寸法線
 62
     0
 10
37.01583077797423
 20
2.6547287367762591
 30
0.0
 11
26.300888020904502
 21
13.369671494082519
 31
0.0
  0
ARC
  5
795
  8
寸法線
 62
     0
 10
46.120685123397848
 20
-6.4501256088483832
 30
0.0
 40
27.029425866138489
 50
51.362535737406809
 51
80.792842464310112
  0
ARC
  5
796
  8
寸法線
 62
     0
 10
46.120685123397848
 20
-6.4501256088483832
 30
0.0
 40
27.029425866138489
 50
100.5530290130779
 51
128.63746426196079
  0
SOLID
  5
797
  8
寸法線
 62
     0
 10
63.330989387791263
 20
15.03552221116494
 30
0.0
 11
62.664213229207782
 21
14.290264165690299
 31
0.0
 12
65.233375444923439
 22
12.662564712677231
 32
0.0
 13
65.233375444923439
 23
12.662564712677231
 33
0.0
  0
SOLID
  5
798
  8
寸法線
 62
     0
 10
29.577157017816852
 20
14.29026416587288
 30
0.0
 11
28.91038085924162
 21
15.035522211354889
 31
0.0
 12
27.007994802083239
 22
12.66256471288817
 32
0.0
 13
27.007994802083239
 23
12.66256471288817
 33
0.0
  0
TEXT
  5
7AA
  8
寸法線
 62
     0
 10
39.805999999999997
 20
15.2699
 30
0.0
 40
2.9986099999999949
  1
90°
  0
POINT
  5
79A
  8
DEFPOINTS
 62
     0
 10
46.120685123397848
 20
-6.4501256088483832
 30
0.0
  0
POINT
  5
79B
  8
DEFPOINTS
 62
     0
 10
55.181345295197843
 20
2.610534562951611
 30
0.0
  0
POINT
  5
79C
  8
DEFPOINTS
 62
     0
 10
37.060024951797878
 20
2.610534562951611
 30
0.0
  0
POINT
  5
79D
  8
DEFPOINTS
 62
     0
 10
53.116415315837251
 20
19.658294904994811
 30
0.0
  0
ENDBLK
  5
301
  8
0
  0
BLOCK
  8
0
  2
*D33
 70
     1
 10
0.0
 20
0.0
 30
0.0
  3
*D33
  1

  0
LINE
  5
572
  8
寸法線
 62
     0
 10
54.12068512339782
 20
1.6123743911516151
 30
0.0
 11
54.12068512339782
 21
10.99609221493057
 31
0.0
  0
LINE
  5
573
  8
寸法線
 62
     0
 10
38.120685123397848
 20
1.6123743911516151
 30
0.0
 11
38.120685123397848
 21
10.99609221493057
 31
0.0
  0
LINE
  5
574
  8
寸法線
 62
     0
 10
51.120685123397813
 20
9.9960922149305702
 30
0.0
 11
49.585594192909213
 21
9.9960922149305702
 31
0.0
  0
LINE
  5
575
  8
寸法線
 62
     0
 10
41.120685123397841
 20
9.9960922149305702
 30
0.0
 11
44.407909157909202
 21
9.9960922149305702
 31
0.0
  0
SOLID
  5
576
  8
寸法線
 62
     0
 10
51.120685123397813
 20
10.49609221493057
 30
0.0
 11
51.120685123397813
 21
9.4960922149305702
 31
0.0
 12
54.12068512339782
 22
9.9960922149305702
 32
0.0
 13
54.12068512339782
 23
9.9960922149305702
 33
0.0
  0
SOLID
  5
577
  8
寸法線
 62
     0
 10
41.120685123397841
 20
10.49609221493057
 30
0.0
 11
41.120685123397841
 21
9.4960922149305702
 31
0.0
 12
38.120685123397848
 22
9.9960922149305702
 32
0.0
 13
38.120685123397848
 23
9.9960922149305702
 33
0.0
  0
INSERT
  5
578
  8
0
  6
CONTINUOUS
  2
*U34
 10
0.0
 20
0.0
 30
0.0
  0
POINT
  5
579
  8
DEFPOINTS
 62
     0
 10
54.12068512339782
 20
1.5498743911516151
 30
0.0
  0
POINT
  5
57A
  8
DEFPOINTS
 62
     0
 10
38.120685123397848
 20
1.5498743911516151
 30
0.0
  0
POINT
  5
57B
  8
DEFPOINTS
 62
     0
 10
38.120685123397848
 20
9.9960922149305702
 30
0.0
  0
ENDBLK
  5
30E
  8
0
  0
BLOCK
  8
0
  2
*U34
 70
     1
 10
0.0
 20
0.0
 30
0.0
  3
*U34
  1

  0
TEXT
  5
7A3
  8
寸法線
  6
CONTINUOUS
 62
     0
 10
44.49790915790917
 20
8.4967867044305692
 30
0.0
 40
2.9986110209999981
  1
φ8
  0
ENDBLK
  5
7A5
  8
0
  0
BLOCK
  8
0
  2
*D35
 70
     1
 10
0.0
 20
0.0
 30
0.0
  3
*D35
  1

  0
LINE
  5
633
  8
寸法線
 62
     0
 10
41.320685123397851
 20
-4.9126256088483826
 30
0.0
 11
41.320685123397851
 21
-15.699205702913559
 31
0.0
  0
LINE
  5
634
  8
寸法線
 62
     0
 10
50.920685123397782
 20
-4.9126256088483826
 30
0.0
 11
50.920685123397782
 21
-15.699205702913559
 31
0.0
  0
LINE
  5
635
  8
寸法線
 62
     0
 10
44.320685123397837
 20
-14.699205702913559
 30
0.0
 11
47.920685123397782
 21
-14.699205702913559
 31
0.0
  0
LINE
  5
636
  8
寸法線
 62
     0
 10
50.920685123397782
 20
-14.699205702913559
 30
0.0
 11
55.919759137397783
 21
-14.699205702913559
 31
0.0
  0
SOLID
  5
637
  8
寸法線
 62
     0
 10
44.320685123397837
 20
-14.199205702913559
 30
0.0
 11
44.320685123397837
 21
-15.199205702913559
 31
0.0
 12
41.320685123397851
 22
-14.699205702913559
 32
0.0
 13
41.320685123397851
 23
-14.699205702913559
 33
0.0
  0
SOLID
  5
638
  8
寸法線
 62
     0
 10
47.920685123397782
 20
-14.199205702913559
 30
0.0
 11
47.920685123397782
 21
-15.199205702913559
 31
0.0
 12
50.920685123397782
 22
-14.699205702913559
 32
0.0
 13
50.920685123397782
 23
-14.699205702913559
 33
0.0
  0
INSERT
  5
639
  8
0
  6
CONTINUOUS
  2
*U36
 10
0.0
 20
0.0
 30
0.0
  0
POINT
  5
63A
  8
DEFPOINTS
 62
     0
 10
41.320685123397851
 20
-4.8501256088483826
 30
0.0
  0
POINT
  5
63B
  8
DEFPOINTS
 62
     0
 10
50.920685123397782
 20
-4.8501256088483826
 30
0.0
  0
POINT
  5
63C
  8
DEFPOINTS
 62
     0
 10
50.920685123397782
 20
-14.699205702913559
 30
0.0
  0
ENDBLK
  5
31B
  8
0
  0
BLOCK
  8
0
  2
*U36
 70
     1
 10
0.0
 20
0.0
 30
0.0
  3
*U36
  1

  0
TEXT
  5
7A7
  8
寸法線
  6
CONTINUOUS
 62
     0
 10
56.009759137397779
 20
-16.19851121341356
 30
0.0
 40
2.9986110209999981
  1
φ4
  0
ENDBLK
  5
7A9
  8
0
  0
BLOCK
  8
0
  2
*U37
 70
     1
 10
0.0
 20
0.0
 30
0.0
  3
*U37
  1

  0
TEXT
  5
6FE
  8
図枠
  6
CONTINUOUS
 10
82.960341914002043
 20
116.50255280766901
 30
0.0
 40
2.6987499594999962
  1
改　訂　内　容
  0
ENDBLK
  5
700
  8
0
  0
BLOCK
  8
0
  2
*U38
 70
     1
 10
0.0
 20
0.0
 30
0.0
  3
*U38
  1

  0
TEXT
  5
702
  8
図枠
  6
CONTINUOUS
 10
129.9880511994005
 20
116.4888535692959
 30
0.0
 40
2.6987499594999962
  1
検認者
  0
ENDBLK
  5
704
  8
0
  0
BLOCK
  8
0
  2
*U39
 70
     1
 10
0.0
 20
0.0
 30
0.0
  3
*U39
  1

  0
TEXT
  5
706
  8
図枠
  6
CONTINUOUS
 10
120.02914891451979
 20
116.50255280766901
 30
0.0
 40
2.6987499594999962
  1
改訂者
  0
ENDBLK
  5
708
  8
0
  0
BLOCK
  8
0
  2
*U40
 70
     1
 10
0.0
 20
0.0
 30
0.0
  3
*U40
  1

  0
TEXT
  5
70A
  8
図枠
  6
CONTINUOUS
 10
46.652508661731723
 20
116.5573497611614
 30
0.0
 40
2.6987499594999962
  1
副番
  0
ENDBLK
  5
70C
  8
0
  0
BLOCK
  8
0
  2
*U41
 70
     1
 10
0.0
 20
0.0
 30
0.0
  3
*U41
  1

  0
TEXT
  5
70E
  8
図枠
  6
CONTINUOUS
 10
56.885306911602271
 20
116.5299512844152
 30
0.0
 40
2.6987499594999962
  1
改訂日
  0
ENDBLK
  5
710
  8
0
  0
BLOCK
  8
0
  2
*U42
 70
     1
 10
0.0
 20
0.0
 30
0.0
  3
*U42
  1

  0
TEXT
  5
712
  8
図枠
  6
CONTINUOUS
 10
103.4375123252335
 20
-50.034743384922329
 30
0.0
 40
2.9986110209999981
  1
Ｌ型ブラケット
  0
ENDBLK
  5
714
  8
0
  0
BLOCK
  8
0
  2
*U43
 70
     1
 10
0.0
 20
0.0
 30
0.0
  3
*U43
  1

  0
TEXT
  5
716
  8
図枠
  6
CONTINUOUS
 10
61.231325680098479
 20
-42.80832917182078
 30
0.0
 40
2.804999959499999
  1
指定無き公差はJIS 0408-Bによること
  0
ENDBLK
  5
718
  8
0
  0
BLOCK
  8
0
  2
*U44
 70
     1
 10
0.0
 20
0.0
 30
0.0
  3
*U44
  1

  0
TEXT
  5
71A
  8
図枠
  6
CONTINUOUS
 10
79.485183284560406
 20
-37.237136279447718
 30
0.0
 40
2.804999959499999
  1
ユニクロメッキ
  0
ENDBLK
  5
71C
  8
0
  0
BLOCK
  8
0
  2
*U45
 70
     1
 10
0.0
 20
0.0
 30
0.0
  3
*U45
  1

  0
TEXT
  5
71E
  8
図枠
  6
CONTINUOUS
 10
39.422264321715232
 20
-60.099065667567501
 30
0.0
 40
2.337499999999999
  1
園 原
  0
ENDBLK
  5
720
  8
0
  0
BLOCK
  8
0
  2
*U46
 70
     1
 10
0.0
 20
0.0
 30
0.0
  3
*U46
  1

  0
TEXT
  5
722
  8
図枠
  6
CONTINUOUS
 10
101.32174109721819
 20
-66.7303158701
 30
0.0
 40
2.9986110209999981
  1
ＳＲＫ００１１２
  0
ENDBLK
  5
724
  8
0
  0
BLOCK
  8
0
  2
*U47
 70
     1
 10
0.0
 20
0.0
 30
0.0
  3
*U47
  1

  0
TEXT
  5
726
  8
図枠
  6
CONTINUOUS
 10
84.318806199887774
 20
-55.679128706968008
 30
0.0
 40
2.337499999999999
  1
図面名
  0
ENDBLK
  5
728
  8
0
  0
BLOCK
  8
0
  2
*U48
 70
     1
 10
0.0
 20
0.0
 30
0.0
  3
*U48
  1

  0
TEXT
  5
72A
  8
図枠
  6
CONTINUOUS
 10
84.306940717654285
 20
-64.155397742501009
 30
0.0
 40
2.337499999999999
  1
図　番
  0
ENDBLK
  5
72C
  8
0
  0
BLOCK
  8
0
  2
*U49
 70
     1
 10
0.0
 20
0.0
 30
0.0
  3
*U49
  1

  0
TEXT
  5
72E
  8
図枠
  6
CONTINUOUS
 10
115.3648024449995
 20
-31.826704808600009
 30
0.0
 40
3.2299999594999962
  1
3.2t
  0
ENDBLK
  5
730
  8
0
  0
BLOCK
  8
0
  2
*U50
 70
     1
 10
0.0
 20
0.0
 30
0.0
  3
*U50
  1

  0
TEXT
  5
732
  8
図枠
  6
CONTINUOUS
 10
82.838888791017297
 20
-31.808329171820809
 30
0.0
 40
2.804999959499999
  1
板　　厚
  0
ENDBLK
  5
734
  8
0
  0
BLOCK
  8
0
  2
*U51
 70
     1
 10
0.0
 20
0.0
 30
0.0
  3
*U51
  1

  0
TEXT
  5
736
  8
図枠
  6
CONTINUOUS
 10
29.099263052679689
 20
-47.337200185333991
 30
0.0
 40
2.337499999999999
  1
日 　付
  0
ENDBLK
  5
738
  8
0
  0
BLOCK
  8
0
  2
*U52
 70
     1
 10
0.0
 20
0.0
 30
0.0
  3
*U52
  1

  0
TEXT
  5
73A
  8
図枠
  6
CONTINUOUS
 10
98.315519388347695
 20
-58.29120137306446
 30
0.0
 40
2.9986110209999981
  1
LY-602 30x60 承認図
  0
ENDBLK
  5
73C
  8
0
  0
BLOCK
  8
0
  2
*U53
 70
     1
 10
0.0
 20
0.0
 30
0.0
  3
*U53
  1

  0
TEXT
  5
73E
  8
図枠
  6
CONTINUOUS
 10
26.87448523720381
 20
-31.75137485792234
 30
0.0
 40
2.804999959499999
  1
材　　質
  0
ENDBLK
  5
740
  8
0
  0
BLOCK
  8
0
  2
*U54
 70
     1
 10
0.0
 20
0.0
 30
0.0
  3
*U54
  1

  0
TEXT
  5
742
  8
図枠
  6
CONTINUOUS
 10
54.029370920700003
 20
-60.170258560968541
 30
0.0
 40
2.337499999999999
  1
 検図
  0
ENDBLK
  5
744
  8
0
  0
BLOCK
  8
0
  2
*U55
 70
     1
 10
0.0
 20
0.0
 30
0.0
  3
*U55
  1

  0
TEXT
  5
746
  8
図枠
  6
CONTINUOUS
 10
84.253546047603564
 20
-47.202859671435021
 30
0.0
 40
2.337499999999999
  1
製品名
  0
ENDBLK
  5
748
  8
0
  0
BLOCK
  8
0
  2
*U56
 70
     1
 10
0.0
 20
0.0
 30
0.0
  3
*U56
  1

  0
TEXT
  5
74A
  8
図枠
  6
CONTINUOUS
 10
30.25021482932944
 20
-51.539738256400007
 30
0.0
 40
2.337499999999999
  1
H12.5
  0
ENDBLK
  5
74C
  8
0
  0
BLOCK
  8
0
  2
*U57
 70
     1
 10
0.0
 20
0.0
 30
0.0
  3
*U57
  1

  0
TEXT
  5
74E
  8
図枠
  6
CONTINUOUS
 10
69.351071428314214
 20
-60.158393078735017
 30
0.0
 40
2.337499999999999
  1
柳 原
  0
ENDBLK
  5
750
  8
0
  0
BLOCK
  8
0
  2
*U58
 70
     1
 10
0.0
 20
0.0
 30
0.0
  3
*U58
  1

  0
TEXT
  5
752
  8
図枠
  6
CONTINUOUS
 10
58.617477355232992
 20
-31.595315870099999
 30
0.0
 40
2.9986110209999981
  1
SPCC
  0
ENDBLK
  5
754
  8
0
  0
BLOCK
  8
0
  2
*U59
 70
     1
 10
0.0
 20
0.0
 30
0.0
  3
*U59
  1

  0
TEXT
  5
756
  8
図枠
  6
CONTINUOUS
 10
26.84600808025457
 20
-37.279852014871572
 30
0.0
 40
2.804999959499999
  1
表面処理
  0
ENDBLK
  5
758
  8
0
  0
BLOCK
  8
0
  2
*U60
 70
     1
 10
0.0
 20
0.0
 30
0.0
  3
*U60
  1

  0
TEXT
  5
75A
  8
図枠
  6
CONTINUOUS
 10
28.2499246454
 20
-67.532478300666497
 30
0.0
 40
4.3179999351999987
  1
株式会社
  0
ENDBLK
  5
75C
  8
0
  0
BLOCK
  8
0
  2
*U61
 70
     1
 10
0.0
 20
0.0
 30
0.0
  3
*U61
  1

  0
TEXT
  5
75E
  8
図枠
  6
CONTINUOUS
 10
39.422264321715232
 20
-55.849065667567508
 30
0.0
 40
2.337499999999999
  1
園 原
  0
ENDBLK
  5
760
  8
0
  0
BLOCK
  8
0
  2
*U62
 70
     1
 10
0.0
 20
0.0
 30
0.0
  3
*U62
  1

  0
TEXT
  5
762
  8
図枠
  6
CONTINUOUS
 10
24.029370920700011
 20
-55.884662114268018
 30
0.0
 40
2.337499999999999
  1
 設計
  0
ENDBLK
  5
764
  8
0
  0
BLOCK
  8
0
  2
*U63
 70
     1
 10
0.0
 20
0.0
 30
0.0
  3
*U63
  1

  0
TEXT
  5
766
  8
図枠
  6
CONTINUOUS
 10
51.140125996842137
 20
-51.539738256400007
 30
0.0
 40
2.337499999999999
  1
1：1
  0
ENDBLK
  5
768
  8
0
  0
BLOCK
  8
0
  2
*U64
 70
     1
 10
0.0
 20
0.0
 30
0.0
  3
*U64
  1

  0
TEXT
  5
76A
  8
図枠
  6
CONTINUOUS
 10
26.917200972627668
 20
-42.836806328770031
 30
0.0
 40
2.804999959499999
  1
一般公差
  0
ENDBLK
  5
76C
  8
0
  0
BLOCK
  8
0
  2
*U65
 70
     1
 10
0.0
 20
0.0
 30
0.0
  3
*U65
  1

  0
TEXT
  5
76E
  8
図枠
  6
CONTINUOUS
 10
54.029370920700003
 20
-55.896527596501521
 30
0.0
 40
2.337499999999999
  1
 照査
  0
ENDBLK
  5
770
  8
0
  0
BLOCK
  8
0
  2
*U66
 70
     1
 10
0.0
 20
0.0
 30
0.0
  3
*U66
  1

  0
TEXT
  5
772
  8
図枠
  6
CONTINUOUS
 10
25.43083031156295
 20
-60.158393078735017
 30
0.0
 40
2.337499999999999
  1
製図
  0
ENDBLK
  5
774
  8
0
  0
BLOCK
  8
0
  2
*U67
 70
     1
 10
0.0
 20
0.0
 30
0.0
  3
*U67
  1

  0
TEXT
  5
776
  8
図枠
  6
CONTINUOUS
 10
61.231325680098479
 20
-42.80832917182078
 30
0.0
 40
2.804999959499999
  1
指定無き公差はJIS 0408-Bによること
  0
ENDBLK
  5
778
  8
0
  0
BLOCK
  8
0
  2
*U68
 70
     1
 10
0.0
 20
0.0
 30
0.0
  3
*U68
  1

  0
TEXT
  5
77A
  8
図枠
  6
CONTINUOUS
 10
48.850087925776137
 20
-47.408393078735017
 30
0.0
 40
2.337499999999999
  1
尺 　度
  0
ENDBLK
  5
77C
  8
0
  0
BLOCK
  8
0
  2
*U69
 70
     1
 10
0.0
 20
0.0
 30
0.0
  3
*U69
  1

  0
TEXT
  5
77E
  8
ﾚｲﾔ_1
  6
CONTINUOUS
 10
33.836806747300002
 20
-23.5840084152934
 30
0.0
 40
2.9986110209999981
  1
皿加工部詳細
  0
ENDBLK
  5
780
  8
0
  0
BLOCK
  8
0
  2
*U70
 70
     1
 10
0.0
 20
0.0
 30
0.0
  3
*U70
  1

  0
TEXT
  5
782
  8
図枠
  6
CONTINUOUS
 10
69.351071428314214
 20
-55.908393078735017
 30
0.0
 40
2.337499999999999
  1
柳 原
  0
ENDBLK
  5
784
  8
0
  0
BLOCK
  8
0
  2
*D71
 70
     1
 10
0.0
 20
0.0
 30
0.0
  3
*D71
  1

  0
LINE
  5
786
  8
寸法線
 62
     0
 10
-19.867555555599999
 20
-14.957695273600001
 30
0.0
 11
-65.816835712501799
 21
-14.95769527359999
 31
0.0
  0
LINE
  5
787
  8
寸法線
 62
     0
 10
-79.805055555600006
 20
45.729804726399998
 30
0.0
 11
-79.805055555600006
 21
-0.9694754305017951
 31
0.0
  0
ARC
  5
788
  8
寸法線
 62
     0
 10
-79.805055555600006
 20
-14.95769527359999
 30
0.0
 40
15.238219843098211
 50
11.298311061595641
 51
28.931932479047461
  0
ARC
  5
789
  8
寸法線
 62
     0
 10
-79.805055555600006
 20
-14.95769527359999
 30
0.0
 40
15.238219843098211
 50
64.371172236392056
 51
78.701688938404345
  0
SOLID
  5
78A
  8
寸法線
 62
     0
 10
-64.364574140272623
 20
-11.923046981557009
 30
0.0
 11
-65.359717455109759
 21
-12.02148367662015
 31
0.0
 12
-64.566835712501785
 22
-14.957695273600001
 32
0.0
 13
-64.566835712501785
 23
-14.957695273600001
 33
0.0
  0
SOLID
  5
78B
  8
寸法線
 62
     0
 10
-76.868843958620161
 20
-0.5123571731097414
 30
0.0
 11
-76.770407263557018
 21
0.4827861417273951
 31
0.0
 12
-79.805055555600006
 22
0.280524569498219
 32
0.0
 13
-79.805055555600006
 23
0.280524569498219
 33
0.0
  0
TEXT
  5
7AB
  8
寸法線
 62
     0
 10
-75.34229999999998
 20
-9.1841200000000001
 30
0.0
 40
2.9986099999999949
  1
90°
  0
POINT
  5
78D
  8
DEFPOINTS
 62
     0
 10
-79.805055555600006
 20
-14.95769527359999
 30
0.0
  0
POINT
  5
78E
  8
DEFPOINTS
 62
     0
 10
-19.805055555599999
 20
-14.957695273600001
 30
0.0
  0
POINT
  5
78F
  8
DEFPOINTS
 62
     0
 10
-79.805055555600006
 20
45.792304726399998
 30
0.0
  0
POINT
  5
790
  8
DEFPOINTS
 62
     0
 10
-66.60837006302485
 20
-7.3385853520508881
 30
0.0
  0
ENDBLK
  5
792
  8
0
  0
BLOCK
  8
0
  2
*D72
 70
     1
 10
0.0
 20
0.0
 30
0.0
  3
*D72
  1

  0
LINE
  5
AFA
  8
寸法線
 62
     0
 10
41.320685123397851
 20
-4.9126256088483826
 30
0.0
 11
41.320685123397851
 21
-14.879205702913559
 31
0.0
  0
LINE
  5
AFB
  8
寸法線
 62
     0
 10
50.920685123397782
 20
-4.9126256088483826
 30
0.0
 11
50.920685123397782
 21
-14.879205702913559
 31
0.0
  0
LINE
  5
AFC
  8
寸法線
 62
     0
 10
41.500685123397837
 20
-14.699205702913559
 30
0.0
 11
50.740685123397782
 21
-14.699205702913559
 31
0.0
  0
INSERT
  5
AFD
  8
0
  6
CONTINUOUS
  2
*U73
 10
0.0
 20
0.0
 30
0.0
  0
SOLID
  5
AFE
  8
寸法線
 62
     0
 10
41.500685123397837
 20
-14.66920570291356
 30
0.0
 11
41.500685123397837
 21
-14.729205702913561
 31
0.0
 12
41.320685123397851
 22
-14.699205702913559
 32
0.0
 13
41.320685123397851
 23
-14.699205702913559
 33
0.0
  0
SOLID
  5
AFF
  8
寸法線
 62
     0
 10
50.740685123397782
 20
-14.66920570291356
 30
0.0
 11
50.740685123397782
 21
-14.729205702913561
 31
0.0
 12
50.920685123397782
 22
-14.699205702913559
 32
0.0
 13
50.920685123397782
 23
-14.699205702913559
 33
0.0
  0
POINT
  5
B00
  8
DEFPOINTS
 62
     0
 10
41.320685123397851
 20
-4.8501256088483826
 30
0.0
  0
POINT
  5
B01
  8
DEFPOINTS
 62
     0
 10
50.920685123397782
 20
-4.8501256088483826
 30
0.0
  0
POINT
  5
B02
  8
DEFPOINTS
 62
     0
 10
50.920685123397782
 20
-14.699205702913559
 30
0.0
  0
ENDBLK
  5
AC3
  8
0
  0
BLOCK
  8
0
  2
*U73
 70
     1
 10
0.0
 20
0.0
 30
0.0
  3
*U73
  1

  0
TEXT
  5
C9F
  8
寸法線
  6
CONTINUOUS
 62
     0
 10
58.238601654897792
 20
-14.789205702913559
 30
0.0
 40
0.18
  1
φ4.5
  0
ENDBLK
  5
CA1
  8
0
  0
BLOCK
  8
0
  2
*D74
 70
     1
 10
0.0
 20
0.0
 30
0.0
  3
*D74
  1

  0
LINE
  5
B39
  8
寸法線
 62
     0
 10
41.320685123397851
 20
-4.9751256088483826
 30
0.0
 11
41.320685123397851
 21
-14.84920570291356
 31
0.0
  0
LINE
  5
B3A
  8
寸法線
 62
     0
 10
50.920685123397782
 20
-4.9751256088483826
 30
0.0
 11
50.920685123397782
 21
-14.84920570291356
 31
0.0
  0
LINE
  5
B3B
  8
寸法線
 62
     0
 10
41.500685123397837
 20
-14.66920570291356
 30
0.0
 11
45.76068512339782
 21
-14.66920570291356
 31
0.0
  0
LINE
  5
B3C
  8
寸法線
 62
     0
 10
50.740685123397782
 20
-14.66920570291356
 30
0.0
 11
46.480685123397819
 21
-14.66920570291356
 31
0.0
  0
SOLID
  5
B3D
  8
寸法線
 62
     0
 10
41.500685123397837
 20
-14.639205702913561
 30
0.0
 11
41.500685123397837
 21
-14.699205702913559
 31
0.0
 12
41.320685123397851
 22
-14.66920570291356
 32
0.0
 13
41.320685123397851
 23
-14.66920570291356
 33
0.0
  0
SOLID
  5
B3E
  8
寸法線
 62
     0
 10
50.740685123397782
 20
-14.639205702913561
 30
0.0
 11
50.740685123397782
 21
-14.699205702913559
 31
0.0
 12
50.920685123397782
 22
-14.66920570291356
 32
0.0
 13
50.920685123397782
 23
-14.66920570291356
 33
0.0
  0
INSERT
  5
B3F
  8
0
  6
CONTINUOUS
  2
*U75
 10
0.0
 20
0.0
 30
0.0
  0
POINT
  5
B40
  8
DEFPOINTS
 62
     0
 10
41.320685123397851
 20
-4.9126256088483826
 30
0.0
  0
POINT
  5
B41
  8
DEFPOINTS
 62
     0
 10
50.920685123397782
 20
-4.9126256088483826
 30
0.0
  0
POINT
  5
B42
  8
DEFPOINTS
 62
     0
 10
50.920685123397782
 20
-14.66920570291356
 30
0.0
  0
ENDBLK
  5
B10
  8
0
  0
BLOCK
  8
0
  2
*U75
 70
     1
 10
0.0
 20
0.0
 30
0.0
  3
*U75
  1

  0
TEXT
  5
CA3
  8
寸法線
  6
CONTINUOUS
 62
     0
 10
45.850685123397803
 20
-14.75920570291356
 30
0.0
 40
0.18
  1
φ4.5
  0
ENDBLK
  5
CA5
  8
0
  0
BLOCK
  8
0
  2
*D76
 70
     1
 10
0.0
 20
0.0
 30
0.0
  3
*D76
  1

  0
LINE
  5
B45
  8
寸法線
 62
     0
 10
76.145911248542546
 20
-21.028590472131452
 30
0.0
 11
76.145911248542546
 21
-31.815170566196631
 31
0.0
  0
LINE
  5
B46
  8
寸法線
 62
     0
 10
85.745911248542484
 20
-21.028590472131452
 30
0.0
 11
85.745911248542484
 21
-31.815170566196631
 31
0.0
  0
LINE
  5
B47
  8
寸法線
 62
     0
 10
80.645911248542546
 20
-30.815170566196631
 30
0.0
 11
81.245911248542484
 21
-30.815170566196631
 31
0.0
  0
LINE
  5
B48
  8
寸法線
 62
     0
 10
85.745911248542484
 20
-30.815170566196631
 30
0.0
 11
90.245911248542484
 21
-30.815170566196631
 31
0.0
  0
SOLID
  5
B49
  8
寸法線
 62
     0
 10
80.645911248542546
 20
-30.065170566196631
 30
0.0
 11
80.645911248542546
 21
-31.565170566196631
 31
0.0
 12
76.145911248542546
 22
-30.815170566196631
 32
0.0
 13
76.145911248542546
 23
-30.815170566196631
 33
0.0
  0
SOLID
  5
B4A
  8
寸法線
 62
     0
 10
81.245911248542484
 20
-30.065170566196631
 30
0.0
 11
81.245911248542484
 21
-31.565170566196631
 31
0.0
 12
85.745911248542484
 22
-30.815170566196631
 32
0.0
 13
85.745911248542484
 23
-30.815170566196631
 33
0.0
  0
INSERT
  5
B4B
  8
0
  6
CONTINUOUS
  2
*U77
 10
0.0
 20
0.0
 30
0.0
  0
POINT
  5
B4C
  8
DEFPOINTS
 62
     0
 10
76.145911248542546
 20
-20.966090472131452
 30
0.0
  0
POINT
  5
B4D
  8
DEFPOINTS
 62
     0
 10
85.745911248542484
 20
-20.966090472131452
 30
0.0
  0
POINT
  5
B4E
  8
DEFPOINTS
 62
     0
 10
85.745911248542484
 20
-30.815170566196631
 30
0.0
  0
ENDBLK
  5
B4F
  8
0
  0
BLOCK
  8
0
  2
*U77
 70
     1
 10
0.0
 20
0.0
 30
0.0
  3
*U77
  1

  0
TEXT
  5
B52
  8
寸法線
  6
CONTINUOUS
 62
     0
 10
90.335911248542487
 20
-33.064128831996634
 30
0.0
 40
4.4979165315999987
  1
\U+2205
  0
TEXT
  5
B53
  8
寸法線
  6
CONTINUOUS
 62
     0
 10
94.833827780142485
 20
-33.064128831996634
 30
0.0
 40
4.4979165315999987
  1
4.5
  0
ENDBLK
  5
B54
  8
0
  0
BLOCK
  8
0
  2
*D78
 70
     1
 10
0.0
 20
0.0
 30
0.0
  3
*D78
  1

  0
LINE
  5
B57
  8
寸法線
 62
     0
 10
90.050765594166705
 20
-13.4612361265073
 30
0.0
 11
106.84964057954841
 21
3.3376388588744512
 31
0.0
  0
LINE
  5
B58
  8
寸法線
 62
     0
 10
71.84105690311894
 20
-13.46123612650681
 30
0.0
 11
55.042181917822603
 21
3.3376388591603701
 31
0.0
  0
ARC
  5
B59
  8
寸法線
 62
     0
 10
80.945911248542572
 20
-22.566090472131449
 30
0.0
 40
35.633405335950272
 50
52.240471233183783
 51
79.725567809004787
  0
ARC
  5
B5A
  8
寸法線
 62
     0
 10
80.945911248542572
 20
-22.566090472131449
 30
0.0
 40
35.633405335950272
 50
102.094781328133
 51
127.75952876618381
  0
SOLID
  5
B5B
  8
寸法線
 62
     0
 10
103.2617683474969
 20
6.168001571139766
 30
0.0
 11
102.2701979956133
 21
5.0424846955375084
 31
0.0
 12
106.1425337983619
 22
2.6305320776879002
 32
0.0
 13
106.1425337983619
 23
2.6305320776879002
 33
0.0
  0
SOLID
  5
B5C
  8
寸法線
 62
     0
 10
59.621624501776537
 20
5.042484695772889
 30
0.0
 11
58.630054149905391
 21
6.1680015713860952
 31
0.0
 12
55.74928869900134
 22
2.6305320779660222
 32
0.0
 13
55.74928869900134
 23
2.6305320779660222
 33
0.0
  0
TEXT
  5
B5D
  8
寸法線
 62
     0
 10
71.384
 20
5.1015100000000002
 30
0.0
 40
4.497919999999997
  1
90°
  0
POINT
  5
B5E
  8
DEFPOINTS
 62
     0
 10
80.945911248542572
 20
-22.566090472131449
 30
0.0
  0
POINT
  5
B5F
  8
DEFPOINTS
 62
     0
 10
90.006571420342539
 20
-13.50543030033146
 30
0.0
  0
POINT
  5
B60
  8
DEFPOINTS
 62
     0
 10
71.885251076942595
 20
-13.505430300331451
 30
0.0
  0
POINT
  5
B61
  8
DEFPOINTS
 62
     0
 10
90.168515191470945
 20
11.85313602045567
 30
0.0
  0
ENDBLK
  5
B62
  8
0
  0
BLOCK
  8
0
  2
*D79
 70
     1
 10
0.0
 20
0.0
 30
0.0
  3
*D79
  1

  0
LINE
  5
B65
  8
寸法線
 62
     0
 10
88.945911248542544
 20
-14.503590472131449
 30
0.0
 11
88.945911248542544
 21
1.8809947427057521
 31
0.0
  0
LINE
  5
B66
  8
寸法線
 62
     0
 10
72.945911248542572
 20
-14.503590472131449
 30
0.0
 11
72.945911248542572
 21
1.8809947427057521
 31
0.0
  0
LINE
  5
B67
  8
寸法線
 62
     0
 10
93.445911248542515
 20
0.8809947427057521
 30
0.0
 11
97.945911248542544
 21
0.8809947427057521
 31
0.0
  0
LINE
  5
B68
  8
寸法線
 62
     0
 10
68.445911248542572
 20
0.8809947427057521
 30
0.0
 11
63.945911248542551
 21
0.8809947427057521
 31
0.0
  0
SOLID
  5
B69
  8
寸法線
 62
     0
 10
93.445911248542515
 20
1.6309947427057521
 30
0.0
 11
93.445911248542515
 21
0.1309947427057523
 31
0.0
 12
88.945911248542544
 22
0.8809947427057521
 32
0.0
 13
88.945911248542544
 23
0.8809947427057521
 33
0.0
  0
SOLID
  5
B6A
  8
寸法線
 62
     0
 10
68.445911248542572
 20
1.6309947427057521
 30
0.0
 11
68.445911248542572
 21
0.1309947427057523
 31
0.0
 12
72.945911248542572
 22
0.8809947427057521
 32
0.0
 13
72.945911248542572
 23
0.8809947427057521
 33
0.0
  0
INSERT
  5
B6B
  8
0
  6
CONTINUOUS
  2
*U80
 10
0.0
 20
0.0
 30
0.0
  0
POINT
  5
B6C
  8
DEFPOINTS
 62
     0
 10
88.945911248542544
 20
-14.566090472131441
 30
0.0
  0
POINT
  5
B6D
  8
DEFPOINTS
 62
     0
 10
72.945911248542572
 20
-14.566090472131441
 30
0.0
  0
POINT
  5
B6E
  8
DEFPOINTS
 62
     0
 10
72.945911248542572
 20
0.8809947427057521
 30
0.0
  0
ENDBLK
  5
B6F
  8
0
  0
BLOCK
  8
0
  2
*U80
 70
     1
 10
0.0
 20
0.0
 30
0.0
  3
*U80
  1

  0
TEXT
  5
B72
  8
寸法線
  6
CONTINUOUS
 62
     0
 10
76.936289758292261
 20
-1.3679635230942471
 30
0.0
 40
4.4979165315999987
  1
φ8
  0
ENDBLK
  5
B73
  8
0
  0
BLOCK
  8
0
  2
*D81
 70
     1
 10
0.0
 20
0.0
 30
0.0
  3
*D81
  1

  0
LINE
  5
C71
  8
0
 62
     4
 10
49.150867861433213
 20
3.9243088585209991
 30
0.0
 11
49.150867861433213
 21
12.69672141914123
 31
0.0
  0
LINE
  5
C72
  8
0
 62
     4
 10
33.150867861433241
 20
3.9243088585209991
 30
0.0
 11
33.150867861433241
 21
12.69672141914123
 31
0.0
  0
LINE
  5
C73
  8
0
 62
     4
 10
46.650867861433213
 20
10.69672141914122
 30
0.0
 11
35.650867861433241
 21
10.69672141914122
 31
0.0
  0
SOLID
  5
C74
  8
0
 62
     4
 10
46.650867861433213
 20
11.11338808580788
 30
0.0
 11
46.650867861433213
 21
10.280054752474561
 31
0.0
 12
49.150867861433213
 22
10.69672141914122
 32
0.0
 13
49.150867861433213
 23
10.69672141914122
 33
0.0
  0
SOLID
  5
C75
  8
0
 62
     4
 10
35.650867861433241
 20
11.11338808580788
 30
0.0
 11
35.650867861433241
 21
10.280054752474561
 31
0.0
 12
33.150867861433241
 22
10.69672141914122
 32
0.0
 13
33.150867861433241
 23
10.69672141914122
 33
0.0
  0
INSERT
  5
C76
  8
0
  6
CONTINUOUS
  2
*U82
 10
0.0
 20
0.0
 30
0.0
  0
POINT
  5
C77
  8
DEFPOINTS
 62
     0
 10
49.150867861433213
 20
1.4243088585210011
 30
0.0
  0
POINT
  5
C78
  8
DEFPOINTS
 62
     0
 10
33.150867861433241
 20
1.4243088585210011
 30
0.0
  0
POINT
  5
C79
  8
DEFPOINTS
 62
     0
 10
33.150867861433241
 20
10.69672141914122
 30
0.0
  0
ENDBLK
  5
B9A
  8
0
  0
BLOCK
  8
0
  2
*U82
 70
     1
 10
0.0
 20
0.0
 30
0.0
  3
*U82
  1

  0
TEXT
  5
CC6
  8
0
  6
CONTINUOUS
 62
     4
 10
36.421628060001417
 20
12.90410778277759
 30
0.0
 40
5.0
  1
φ8
  7
ゴシック
  0
ENDBLK
  5
CC8
  8
0
  0
BLOCK
  8
0
  2
*D83
 70
     1
 10
0.0
 20
0.0
 30
0.0
  3
*D83
  1

  0
LINE
  5
CA6
  8
0
 62
     4
 10
51.979294986199569
 20
4.2527359832873692
 30
0.0
 11
63.050736486598737
 21
15.324177483686571
 31
0.0
  0
LINE
  5
CA7
  8
0
 62
     4
 10
30.322440736886399
 20
4.2527359833068754
 30
0.0
 11
19.250999236509411
 21
15.32417748392824
 31
0.0
  0
ARC
  5
CA8
  8
0
 62
     4
 10
41.150867861433213
 20
-6.5756911414789982
 30
0.0
 40
28.971091223898132
 50
49.945755331686527
 51
130.05424466768119
  0
SOLID
  5
CA9
  8
0
 62
     4
 10
60.075770614108272
 20
15.90687737401351
 30
0.0
 11
59.512487997563241
 21
15.292746167883539
 31
0.0
 12
61.636522924225652
 22
13.909963921313469
 32
0.0
 13
61.636522924225652
 23
13.909963921313469
 33
0.0
  0
SOLID
  5
CAA
  8
0
 62
     4
 10
22.789247725544548
 20
15.29274616808617
 30
0.0
 11
22.22596510900631
 21
15.906877374222351
 31
0.0
 12
20.6652127988669
 22
13.909963921539539
 32
0.0
 13
20.6652127988669
 23
13.909963921539539
 33
0.0
  0
TEXT
  5
CC9
  8
0
 62
     4
 10
32.67860000000001
 20
17.009399999999999
 30
0.0
 40
5.0
  1
90°
  7
ゴシック
  0
POINT
  5
CAC
  8
DEFPOINTS
 62
     0
 10
41.150867861433213
 20
-6.5756911414789982
 30
0.0
  0
POINT
  5
CAD
  8
DEFPOINTS
 62
     0
 10
50.211528033233208
 20
2.484969030320995
 30
0.0
  0
POINT
  5
CAE
  8
DEFPOINTS
 62
     0
 10
32.090207689833242
 20
2.484969030320995
 30
0.0
  0
POINT
  5
CAF
  8
DEFPOINTS
 62
     0
 10
33.652597695491792
 20
21.40823408751594
 30
0.0
  0
ENDBLK
  5
BA8
  8
0
  0
BLOCK
  8
0
  2
*D84
 70
     1
 10
0.0
 20
0.0
 30
0.0
  3
*D84
  1

  0
LINE
  5
C67
  8
0
 62
     4
 10
36.350867861433223
 20
-7.4756911414790004
 30
0.0
 11
36.350867861433223
 21
-16.824771235544169
 31
0.0
  0
LINE
  5
C68
  8
0
 62
     4
 10
45.950867861433153
 20
-7.4756911414790004
 30
0.0
 11
45.950867861433153
 21
-16.824771235544169
 31
0.0
  0
LINE
  5
C69
  8
0
 62
     4
 10
38.850867861433223
 20
-14.824771235544169
 30
0.0
 11
43.450867861433153
 21
-14.824771235544169
 31
0.0
  0
LINE
  5
C6A
  8
0
 62
     4
 10
45.950867861433153
 20
-14.824771235544169
 30
0.0
 11
64.225242658833153
 21
-14.824771235544169
 31
0.0
  0
SOLID
  5
C6B
  8
0
 62
     4
 10
38.850867861433223
 20
-14.40810456887751
 30
0.0
 11
38.850867861433223
 21
-15.241437902210841
 31
0.0
 12
36.350867861433223
 22
-14.824771235544169
 32
0.0
 13
36.350867861433223
 23
-14.824771235544169
 33
0.0
  0
SOLID
  5
C6C
  8
0
 62
     4
 10
43.450867861433153
 20
-14.40810456887751
 30
0.0
 11
43.450867861433153
 21
-15.241437902210841
 31
0.0
 12
45.950867861433153
 22
-14.824771235544169
 32
0.0
 13
45.950867861433153
 23
-14.824771235544169
 33
0.0
  0
INSERT
  5
C6D
  8
0
  6
CONTINUOUS
  2
*U85
 10
0.0
 20
0.0
 30
0.0
  0
POINT
  5
C6E
  8
DEFPOINTS
 62
     0
 10
36.350867861433223
 20
-4.9756911414790004
 30
0.0
  0
POINT
  5
C6F
  8
DEFPOINTS
 62
     0
 10
45.950867861433153
 20
-4.9756911414790004
 30
0.0
  0
POINT
  5
C70
  8
DEFPOINTS
 62
     0
 10
45.950867861433153
 20
-14.824771235544169
 30
0.0
  0
ENDBLK
  5
BB4
  8
0
  0
BLOCK
  8
0
  2
*U85
 70
     1
 10
0.0
 20
0.0
 30
0.0
  3
*U85
  1

  0
TEXT
  5
CC1
  8
0
  6
CONTINUOUS
 62
     4
 10
51.26501538610588
 20
-13.824771235544169
 30
0.0
 40
5.0
  1
\U+2205
  7
ゴシック
  0
TEXT
  5
CC2
  8
0
  6
CONTINUOUS
 62
     4
 10
54.90137902246952
 20
-13.824771235544169
 30
0.0
 40
5.0
  1
4.5
  7
ゴシック
  0
ENDBLK
  5
CC4
  8
0
  0
BLOCK
  8
0
  2
*D86
 70
     1
 10
0.0
 20
0.0
 30
0.0
  3
*D86
  1

  0
LINE
  5
C05
  8
0
 62
     4
 10
1626.4379399384179
 20
1166.4237780764799
 30
0.0
 11
1626.4379399384179
 21
1133.832062445726
 31
0.0
  0
LINE
  5
C06
  8
0
 62
     4
 10
1638.4379399384179
 20
1166.4237780764799
 30
0.0
 11
1638.4379399384179
 21
1133.832062445726
 31
0.0
  0
LINE
  5
C07
  8
0
 62
     4
 10
1628.9379399384179
 20
1135.832062445726
 30
0.0
 11
1635.9379399384179
 21
1135.832062445726
 31
0.0
  0
SOLID
  5
C08
  8
0
 62
     4
 10
1628.9379399384179
 20
1136.248729112393
 30
0.0
 11
1628.9379399384179
 21
1135.4153957790591
 31
0.0
 12
1626.4379399384179
 22
1135.832062445726
 32
0.0
 13
1626.4379399384179
 23
1135.832062445726
 33
0.0
  0
SOLID
  5
C09
  8
0
 62
     4
 10
1635.9379399384179
 20
1136.248729112393
 30
0.0
 11
1635.9379399384179
 21
1135.4153957790591
 31
0.0
 12
1638.4379399384179
 22
1135.832062445726
 32
0.0
 13
1638.4379399384179
 23
1135.832062445726
 33
0.0
  0
INSERT
  5
C0A
  8
0
  6
CONTINUOUS
  2
*U87
 10
0.0
 20
0.0
 30
0.0
  0
POINT
  5
C0B
  8
DEFPOINTS
 62
     0
 10
1626.4379399384179
 20
1168.9237780764799
 30
178.5
  0
POINT
  5
C0C
  8
DEFPOINTS
 62
     0
 10
1638.4379399384179
 20
1168.9237780764799
 30
178.5
  0
POINT
  5
C0D
  8
DEFPOINTS
 62
     0
 10
1638.4379399384179
 20
1135.832062445726
 30
0.0
  0
ENDBLK
  5
C0E
  8
0
  0
BLOCK
  8
0
  2
*U87
 70
     1
 10
0.0
 20
0.0
 30
0.0
  3
*U87
  1

  0
TEXT
  5
CB1
  8
0
  6
CONTINUOUS
 62
     4
 10
1628.60271266569
 20
1136.832062445726
 30
0.0
 40
5.0
  1
12
  7
ゴシック
  0
ENDBLK
  5
CB3
  8
0
  0
BLOCK
  8
0
  2
*D88
 70
     1
 10
0.0
 20
0.0
 30
0.0
  3
*D88
  1

  0
LINE
  5
C11
  8
0
 62
     4
 10
1608.4379399384179
 20
1169.4237780764799
 30
0.0
 11
1608.4379399384179
 21
1122.4904361743449
 31
0.0
  0
LINE
  5
C12
  8
0
 62
     4
 10
1656.4379399384179
 20
1169.4237780764799
 30
0.0
 11
1656.4379399384179
 21
1122.4904361743449
 31
0.0
  0
LINE
  5
C13
  8
0
 62
     4
 10
1610.9379399384179
 20
1124.4904361743449
 30
0.0
 11
1653.9379399384179
 21
1124.4904361743449
 31
0.0
  0
SOLID
  5
C14
  8
0
 62
     4
 10
1610.9379399384179
 20
1124.907102841011
 30
0.0
 11
1610.9379399384179
 21
1124.073769507678
 31
0.0
 12
1608.4379399384179
 22
1124.4904361743449
 32
0.0
 13
1608.4379399384179
 23
1124.4904361743449
 33
0.0
  0
SOLID
  5
C15
  8
0
 62
     4
 10
1653.9379399384179
 20
1124.907102841011
 30
0.0
 11
1653.9379399384179
 21
1124.073769507678
 31
0.0
 12
1656.4379399384179
 22
1124.4904361743449
 32
0.0
 13
1656.4379399384179
 23
1124.4904361743449
 33
0.0
  0
INSERT
  5
C16
  8
0
  6
CONTINUOUS
  2
*U89
 10
0.0
 20
0.0
 30
0.0
  0
POINT
  5
C17
  8
DEFPOINTS
 62
     0
 10
1608.4379399384179
 20
1171.9237780764799
 30
167.0
  0
POINT
  5
C18
  8
DEFPOINTS
 62
     0
 10
1656.4379399384179
 20
1171.9237780764799
 30
167.0
  0
POINT
  5
C19
  8
DEFPOINTS
 62
     0
 10
1656.4379399384179
 20
1124.4904361743449
 30
0.0
  0
ENDBLK
  5
C1A
  8
0
  0
BLOCK
  8
0
  2
*U89
 70
     1
 10
0.0
 20
0.0
 30
0.0
  3
*U89
  1

  0
TEXT
  5
CB5
  8
0
  6
CONTINUOUS
 62
     4
 10
1628.8441899384179
 20
1125.490436174344
 30
0.0
 40
5.0
  1
48
  7
ゴシック
  0
ENDBLK
  5
CB7
  8
0
  0
BLOCK
  8
0
  2
*D90
 70
     1
 10
0.0
 20
0.0
 30
0.0
  3
*D90
  1

  0
LINE
  5
C42
  8
0
 62
     4
 10
84.109393122324263
 20
41.643668663923222
 30
0.0
 11
84.109393122324263
 21
-5.2896732382124574
 31
0.0
  0
LINE
  5
C43
  8
0
 62
     4
 10
132.10939312232449
 20
41.643668663923222
 30
0.0
 11
132.10939312232449
 21
-5.2896732382124574
 31
0.0
  0
LINE
  5
C44
  8
0
 62
     4
 10
86.609393122324263
 20
-3.2896732382124561
 30
0.0
 11
129.60939312232449
 21
-3.2896732382124561
 31
0.0
  0
SOLID
  5
C45
  8
0
 62
     4
 10
86.609393122324263
 20
-2.87300657154579
 30
0.0
 11
86.609393122324263
 21
-3.706339904879123
 31
0.0
 12
84.109393122324263
 22
-3.2896732382124561
 32
0.0
 13
84.109393122324263
 23
-3.2896732382124561
 33
0.0
  0
SOLID
  5
C46
  8
0
 62
     4
 10
129.60939312232449
 20
-2.87300657154579
 30
0.0
 11
129.60939312232449
 21
-3.706339904879123
 31
0.0
 12
132.10939312232449
 22
-3.2896732382124561
 32
0.0
 13
132.10939312232449
 23
-3.2896732382124561
 33
0.0
  0
INSERT
  5
C47
  8
0
  6
CONTINUOUS
  2
*U91
 10
0.0
 20
0.0
 30
0.0
  0
POINT
  5
C48
  8
DEFPOINTS
 62
     0
 10
84.109393122324263
 20
44.143668663923201
 30
167.0
  0
POINT
  5
C49
  8
DEFPOINTS
 62
     0
 10
132.10939312232449
 20
44.143668663923201
 30
167.0
  0
POINT
  5
C4A
  8
DEFPOINTS
 62
     0
 10
132.10939312232449
 20
-3.2896732382124561
 30
0.0
  0
ENDBLK
  5
C35
  8
0
  0
BLOCK
  8
0
  2
*U91
 70
     1
 10
0.0
 20
0.0
 30
0.0
  3
*U91
  1

  0
TEXT
  5
CB9
  8
0
  6
CONTINUOUS
 62
     4
 10
104.51564312232431
 20
-2.2896732382124561
 30
0.0
 40
5.0
  1
48
  7
ゴシック
  0
ENDBLK
  5
CBB
  8
0
  0
BLOCK
  8
0
  2
*D92
 70
     1
 10
0.0
 20
0.0
 30
0.0
  3
*D92
  1

  0
LINE
  5
C4B
  8
0
 62
     4
 10
102.10939312232421
 20
38.643668663923222
 30
0.0
 11
102.10939312232421
 21
6.051953033168842
 31
0.0
  0
LINE
  5
C4C
  8
0
 62
     4
 10
114.10939312232421
 20
38.643668663923222
 30
0.0
 11
114.10939312232421
 21
6.051953033168842
 31
0.0
  0
LINE
  5
C4D
  8
0
 62
     4
 10
104.60939312232421
 20
8.0519530331688411
 30
0.0
 11
111.60939312232421
 21
8.0519530331688411
 31
0.0
  0
SOLID
  5
C4E
  8
0
 62
     4
 10
104.60939312232421
 20
8.4686196998355072
 30
0.0
 11
104.60939312232421
 21
7.6352863665021742
 31
0.0
 12
102.10939312232421
 22
8.0519530331688411
 32
0.0
 13
102.10939312232421
 23
8.0519530331688411
 33
0.0
  0
SOLID
  5
C4F
  8
0
 62
     4
 10
111.60939312232421
 20
8.4686196998355072
 30
0.0
 11
111.60939312232421
 21
7.6352863665021742
 31
0.0
 12
114.10939312232421
 22
8.0519530331688411
 32
0.0
 13
114.10939312232421
 23
8.0519530331688411
 33
0.0
  0
INSERT
  5
C50
  8
0
  6
CONTINUOUS
  2
*U93
 10
0.0
 20
0.0
 30
0.0
  0
POINT
  5
C51
  8
DEFPOINTS
 62
     0
 10
102.10939312232421
 20
41.143668663923222
 30
178.5
  0
POINT
  5
C52
  8
DEFPOINTS
 62
     0
 10
114.10939312232421
 20
41.143668663923222
 30
178.5
  0
POINT
  5
C53
  8
DEFPOINTS
 62
     0
 10
114.10939312232421
 20
8.0519530331688411
 30
0.0
  0
ENDBLK
  5
C41
  8
0
  0
BLOCK
  8
0
  2
*U93
 70
     1
 10
0.0
 20
0.0
 30
0.0
  3
*U93
  1

  0
TEXT
  5
CBD
  8
0
  6
CONTINUOUS
 62
     4
 10
104.274165849597
 20
9.0519530331688394
 30
0.0
 40
5.0
  1
12
  7
ゴシック
  0
ENDBLK
  5
CBF
  8
0
  0
BLOCK
  8
0
  2
*D94
 70
     1
 10
0.0
 20
0.0
 30
0.0
  3
*D94
  1

  0
LINE
  5
C89
  8
寸法線
 62
     0
 10
-19.867555555599999
 20
-14.957695273600001
 30
0.0
 11
-64.746835712501806
 21
-14.957695273600001
 31
0.0
  0
LINE
  5
C8A
  8
寸法線
 62
     0
 10
-79.805055555600006
 20
45.729804726399998
 30
0.0
 11
-79.805055555600006
 21
0.1005245694981909
 31
0.0
  0
ARC
  5
C8B
  8
寸法線
 62
     0
 10
-79.805055555600006
 20
-14.95769527359999
 30
0.0
 40
15.2382198430982
 50
0.676804796053867
 51
45.674365461032842
  0
ARC
  5
C8C
  8
寸法線
 62
     0
 10
-79.805055555600006
 20
-14.95769527359999
 30
0.0
 40
15.2382198430982
 50
47.646725076005659
 51
89.323195203946113
  0
SOLID
  5
C8D
  8
寸法線
 62
     0
 10
-64.537899352061345
 20
-14.777521227065931
 30
0.0
 11
-64.59789830555566
 21
-14.77787559916815
 31
0.0
 12
-64.566835712501828
 22
-14.95769527359999
 32
0.0
 13
-64.566835712501828
 23
-14.95769527359999
 33
0.0
  0
SOLID
  5
C8E
  8
寸法線
 62
     0
 10
-79.62523588116818
 20
0.2494619764443655
 30
0.0
 11
-79.624881509065929
 21
0.3094609299386803
 31
0.0
 12
-79.805055555600006
 22
0.2805245694982119
 32
0.0
 13
-79.805055555600006
 23
0.2805245694982119
 33
0.0
  0
TEXT
  5
CCA
  8
寸法線
 62
     0
 10
-69.704999999999998
 20
-4.1951700000000001
 30
0.0
 40
0.18
  1
90°
  0
POINT
  5
C90
  8
DEFPOINTS
 62
     0
 10
-79.805055555600006
 20
-14.95769527359999
 30
0.0
  0
POINT
  5
C91
  8
DEFPOINTS
 62
     0
 10
-19.805055555599999
 20
-14.957695273600001
 30
0.0
  0
POINT
  5
C92
  8
DEFPOINTS
 62
     0
 10
-79.805055555600006
 20
45.792304726399998
 30
0.0
  0
POINT
  5
C93
  8
DEFPOINTS
 62
     0
 10
-66.60837006302485
 20
-7.3385853520509023
 30
0.0
  0
ENDBLK
  5
C95
  8
0
  0
BLOCK
  8
0
  2
*D95
 70
     1
 10
0.0
 20
0.0
 30
0.0
  3
*D95
  1

  0
LINE
  5
DD5
  8
0
 62
     4
 10
49.150867861433213
 20
3.9243088585209991
 30
0.0
 11
49.150867861433213
 21
12.69672141914122
 31
0.0
  0
LINE
  5
DD6
  8
0
 62
     4
 10
33.150867861433241
 20
3.9243088585209991
 30
0.0
 11
33.150867861433241
 21
12.69672141914122
 31
0.0
  0
LINE
  5
DD7
  8
0
 62
     4
 10
46.650867861433213
 20
10.69672141914122
 30
0.0
 11
46.133749272122607
 21
10.69672141914122
 31
0.0
  0
LINE
  5
DD8
  8
0
 62
     4
 10
35.650867861433241
 20
10.69672141914122
 30
0.0
 11
35.800415938789307
 21
10.69672141914122
 31
0.0
  0
INSERT
  5
DD9
  8
0
  6
CONTINUOUS
  2
*U96
 10
0.0
 20
0.0
 30
0.0
  0
SOLID
  5
DDA
  8
0
 62
     4
 10
46.650867861433213
 20
11.11338808580788
 30
0.0
 11
46.650867861433213
 21
10.28005475247455
 31
0.0
 12
49.150867861433213
 22
10.69672141914122
 32
0.0
 13
49.150867861433213
 23
10.69672141914122
 33
0.0
  0
SOLID
  5
DDB
  8
0
 62
     4
 10
35.650867861433241
 20
11.11338808580788
 30
0.0
 11
35.650867861433241
 21
10.28005475247455
 31
0.0
 12
33.150867861433241
 22
10.69672141914122
 32
0.0
 13
33.150867861433241
 23
10.69672141914122
 33
0.0
  0
POINT
  5
DDC
  8
DEFPOINTS
 62
     0
 10
49.150867861433213
 20
1.4243088585210011
 30
0.0
  0
POINT
  5
DDD
  8
DEFPOINTS
 62
     0
 10
33.150867861433241
 20
1.4243088585210011
 30
0.0
  0
POINT
  5
DDE
  8
DEFPOINTS
 62
     0
 10
33.150867861433241
 20
10.69672141914122
 30
0.0
  0
ENDBLK
  5
DD4
  8
0
  0
BLOCK
  8
0
  2
*U96
 70
     1
 10
0.0
 20
0.0
 30
0.0
  3
*U96
  1

  0
TEXT
  5
E14
  8
0
  6
CONTINUOUS
 62
     4
 10
36.800415938789307
 20
8.1967214191412214
 30
0.0
 40
5.0
  1
φ8
  0
ENDBLK
  5
E16
  8
0
  0
BLOCK
  8
0
  2
*D97
 70
     1
 10
0.0
 20
0.0
 30
0.0
  3
*D97
  1

  0
LINE
  5
DE0
  8
0
 62
     4
 10
36.350867861433223
 20
-7.4756911414790004
 30
0.0
 11
36.350867861433223
 21
-16.824771235544169
 31
0.0
  0
LINE
  5
DE1
  8
0
 62
     4
 10
45.950867861433153
 20
-7.4756911414790004
 30
0.0
 11
45.950867861433153
 21
-16.824771235544169
 31
0.0
  0
LINE
  5
DE2
  8
0
 62
     4
 10
38.850867861433223
 20
-14.824771235544169
 30
0.0
 11
43.450867861433153
 21
-14.824771235544169
 31
0.0
  0
INSERT
  5
DE3
  8
0
  6
CONTINUOUS
  2
*U98
 10
0.0
 20
0.0
 30
0.0
  0
SOLID
  5
DE4
  8
0
 62
     4
 10
38.850867861433223
 20
-14.4081045688775
 30
0.0
 11
38.850867861433223
 21
-15.24143790221083
 31
0.0
 12
36.350867861433223
 22
-14.824771235544169
 32
0.0
 13
36.350867861433223
 23
-14.824771235544169
 33
0.0
  0
SOLID
  5
DE5
  8
0
 62
     4
 10
43.450867861433153
 20
-14.4081045688775
 30
0.0
 11
43.450867861433153
 21
-15.24143790221083
 31
0.0
 12
45.950867861433153
 22
-14.824771235544169
 32
0.0
 13
45.950867861433153
 23
-14.824771235544169
 33
0.0
  0
POINT
  5
DE6
  8
DEFPOINTS
 62
     0
 10
36.350867861433223
 20
-4.9756911414790004
 30
0.0
  0
POINT
  5
DE7
  8
DEFPOINTS
 62
     0
 10
45.950867861433153
 20
-4.9756911414790004
 30
0.0
  0
POINT
  5
DE8
  8
DEFPOINTS
 62
     0
 10
45.950867861433153
 20
-14.824771235544169
 30
0.0
  0
ENDBLK
  5
DEA
  8
0
  0
BLOCK
  8
0
  2
*U98
 70
     1
 10
0.0
 20
0.0
 30
0.0
  3
*U98
  1

  0
TEXT
  5
E18
  8
0
  6
CONTINUOUS
 62
     4
 10
49.787742658833153
 20
-17.324771235544169
 30
0.0
 40
5.0
  1
\U+2205
  0
TEXT
  5
E19
  8
0
  6
CONTINUOUS
 62
     4
 10
54.787742658833153
 20
-17.324771235544169
 30
0.0
 40
5.0
  1
4.5
  0
ENDBLK
  5
E1B
  8
0
  0
BLOCK
  8
0
  2
*D99
 70
     1
 10
0.0
 20
0.0
 30
0.0
  3
*D99
  1

  0
LINE
  5
DF0
  8
寸法線
 62
     0
 10
-19.867555555599999
 20
-14.957695273600001
 30
0.0
 11
-64.746835712501806
 21
-14.957695273600001
 31
0.0
  0
LINE
  5
DF1
  8
寸法線
 62
     0
 10
-79.805055555600006
 20
45.729804726399998
 30
0.0
 11
-79.805055555600006
 21
0.1005245694981909
 31
0.0
  0
ARC
  5
DF2
  8
寸法線
 62
     0
 10
-79.805055555600006
 20
-14.95769527359999
 30
0.0
 40
15.2382198430982
 50
0.676804796053867
 51
45.674365461032878
  0
ARC
  5
DF3
  8
寸法線
 62
     0
 10
-79.805055555600006
 20
-14.95769527359999
 30
0.0
 40
15.2382198430982
 50
47.646725076005659
 51
89.323195203946113
  0
SOLID
  5
DF4
  8
寸法線
 62
     0
 10
-64.537899352061345
 20
-14.777521227065931
 30
0.0
 11
-64.59789830555566
 21
-14.77787559916815
 31
0.0
 12
-64.566835712501828
 22
-14.95769527359999
 32
0.0
 13
-64.566835712501828
 23
-14.95769527359999
 33
0.0
  0
SOLID
  5
DF5
  8
寸法線
 62
     0
 10
-79.62523588116818
 20
0.2494619764443655
 30
0.0
 11
-79.624881509065929
 21
0.3094609299386803
 31
0.0
 12
-79.805055555600006
 22
0.2805245694982119
 32
0.0
 13
-79.805055555600006
 23
0.2805245694982119
 33
0.0
  0
TEXT
  5
E1C
  8
寸法線
 62
     0
 10
-69.704999999999998
 20
-4.1951700000000001
 30
0.0
 40
0.18
  1
90°
  0
POINT
  5
DF7
  8
DEFPOINTS
 62
     0
 10
-79.805055555600006
 20
-14.95769527359999
 30
0.0
  0
POINT
  5
DF8
  8
DEFPOINTS
 62
     0
 10
-19.805055555599999
 20
-14.957695273600001
 30
0.0
  0
POINT
  5
DF9
  8
DEFPOINTS
 62
     0
 10
-79.805055555600006
 20
45.792304726399998
 30
0.0
  0
POINT
  5
DFA
  8
DEFPOINTS
 62
     0
 10
-66.60837006302485
 20
-7.3385853520509023
 30
0.0
  0
ENDBLK
  5
DFC
  8
0
  0
BLOCK
  8
0
  2
*D100
 70
     1
 10
0.0
 20
0.0
 30
0.0
  3
*D100
  1

  0
LINE
  5
DFE
  8
0
 62
     0
 10
50.25572220705736
 20
2.5291632041451542
 30
0.0
 11
61.763802144839232
 21
14.037243141927039
 31
0.0
  0
LINE
  5
DFF
  8
0
 62
     0
 10
32.046013516009573
 20
2.5291632041456431
 30
0.0
 11
20.53793357825473
 21
14.037243142154519
 31
0.0
  0
ARC
  5
E00
  8
0
 62
     0
 10
41.150867861433213
 20
-6.5756911414789982
 30
0.0
 40
28.971091223898132
 50
45.355984412907411
 51
86.584399922597996
  0
ARC
  5
E01
  8
0
 62
     0
 10
41.150867861433213
 20
-6.5756911414789982
 30
0.0
 40
28.971091223898132
 50
88.02183111524046
 51
134.64401558646031
  0
SOLID
  5
E02
  8
0
 62
     0
 10
61.529996120445702
 20
14.058126129978261
 30
0.0
 11
61.487701717839833
 21
14.01556812828397
 31
0.0
 12
61.636522924225652
 22
13.90996392131346
 32
0.0
 13
61.636522924225652
 23
13.90996392131346
 33
0.0
  0
SOLID
  5
E03
  8
0
 62
     0
 10
20.81403400525388
 20
14.0155681285084
 30
0.0
 11
20.771739602648449
 21
14.05812613020316
 31
0.0
 12
20.6652127988669
 22
13.90996392153953
 32
0.0
 13
20.6652127988669
 23
13.90996392153953
 33
0.0
  0
TEXT
  5
E1D
  8
0
 62
     0
 10
42.1539
 20
22.044699999999999
 30
0.0
 40
0.18
  1
90°
  0
POINT
  5
E05
  8
DEFPOINTS
 62
     0
 10
41.150867861433213
 20
-6.5756911414789982
 30
0.0
  0
POINT
  5
E06
  8
DEFPOINTS
 62
     0
 10
50.211528033233208
 20
2.484969030320995
 30
0.0
  0
POINT
  5
E07
  8
DEFPOINTS
 62
     0
 10
32.090207689833242
 20
2.484969030320995
 30
0.0
  0
POINT
  5
E08
  8
DEFPOINTS
 62
     0
 10
33.652597695491792
 20
21.40823408751595
 30
0.0
  0
ENDBLK
  5
E0A
  8
0
  0
BLOCK
  8
0
  2
*D101
 70
     1
 10
0.0
 20
0.0
 30
0.0
  3
*D101
  1

  0
LINE
  5
F70
  8
0
  6
CONTINUOUS
 62
     4
 10
36.350867861433223
 20
-7.4756911414790004
 30
0.0
 11
36.350867861433223
 21
-17.365824532396861
 31
0.0
  0
LINE
  5
F71
  8
0
  6
CONTINUOUS
 62
     4
 10
45.950867861433153
 20
-7.4756911414790004
 30
0.0
 11
45.950867861433153
 21
-17.365824532396861
 31
0.0
  0
LINE
  5
F72
  8
0
  6
CONTINUOUS
 62
     4
 10
38.850867861433223
 20
-15.365824532396861
 30
0.0
 11
43.450867861433153
 21
-15.365824532396861
 31
0.0
  0
LINE
  5
F73
  8
0
  6
CONTINUOUS
 62
     4
 10
45.950867861433153
 20
-15.365824532396861
 30
0.0
 11
65.450867861433153
 21
-15.365824532396861
 31
0.0
  0
SOLID
  5
F74
  8
0
  6
CONTINUOUS
 62
     4
 10
38.850867861433223
 20
-14.949157865730189
 30
0.0
 11
38.850867861433223
 21
-15.78249119906352
 31
0.0
 12
36.350867861433223
 22
-15.365824532396861
 32
0.0
 13
36.350867861433223
 23
-15.365824532396861
 33
0.0
  0
SOLID
  5
F75
  8
0
  6
CONTINUOUS
 62
     4
 10
43.450867861433153
 20
-14.949157865730189
 30
0.0
 11
43.450867861433153
 21
-15.78249119906352
 31
0.0
 12
45.950867861433153
 22
-15.365824532396861
 32
0.0
 13
45.950867861433153
 23
-15.365824532396861
 33
0.0
  0
TEXT
  5
F7A
  8
0
 62
     4
 10
46.95089999999999
 20
-20.715800000000002
 30
0.0
 40
5.0
  1
φ4.8
  0
POINT
  5
F77
  8
DEFPOINTS
  6
CONTINUOUS
 62
     0
 10
36.350867861433223
 20
-4.9756911414790004
 30
0.0
  0
POINT
  5
F78
  8
DEFPOINTS
  6
CONTINUOUS
 62
     0
 10
45.950867861433153
 20
-4.9756911414790004
 30
0.0
  0
POINT
  5
F79
  8
DEFPOINTS
  6
CONTINUOUS
 62
     0
 10
45.950867861433153
 20
-15.365824532396861
 30
0.0
  0
ENDBLK
  5
F34
  8
0
  0
BLOCK
  8
0
  2
*D102
 70
     1
 10
0.0
 20
0.0
 30
0.0
  3
*D102
  1

  0
LINE
  5
F5E
  8
0
 62
     4
 10
51.979294986199591
 20
4.252735983287363
 30
0.0
 11
63.050736486598773
 21
15.32417748368654
 31
0.0
  0
LINE
  5
F5F
  8
0
 62
     4
 10
30.322440736886399
 20
4.2527359833068754
 30
0.0
 11
19.250999236509411
 21
15.32417748392824
 31
0.0
  0
ARC
  5
F60
  8
0
 62
     4
 10
41.150867861433241
 20
-6.5756911414789982
 30
0.0
 40
28.971091223898121
 50
49.945755331686492
 51
130.0542446676811
  0
SOLID
  5
F61
  8
0
 62
     4
 10
60.075770614108279
 20
15.90687737401349
 30
0.0
 11
59.512487997563277
 21
15.29274616788352
 31
0.0
 12
61.636522924225673
 22
13.90996392131345
 32
0.0
 13
61.636522924225673
 23
13.90996392131345
 33
0.0
  0
SOLID
  5
F62
  8
0
 62
     4
 10
22.78924772554457
 20
15.29274616808617
 30
0.0
 11
22.225965109006331
 21
15.906877374222359
 31
0.0
 12
20.665212798866911
 22
13.909963921539539
 32
0.0
 13
20.665212798866911
 23
13.909963921539539
 33
0.0
  0
TEXT
  5
F7B
  8
0
 62
     4
 10
32.67860000000001
 20
17.009399999999999
 30
0.0
 40
5.0
  1
90°
  0
POINT
  5
F64
  8
DEFPOINTS
 62
     0
 10
41.150867861433241
 20
-6.5756911414789982
 30
0.0
  0
POINT
  5
F65
  8
DEFPOINTS
 62
     0
 10
50.211528033233222
 20
2.4849690303209941
 30
0.0
  0
POINT
  5
F66
  8
DEFPOINTS
 62
     0
 10
32.09020768983325
 20
2.484969030320995
 30
0.0
  0
POINT
  5
F67
  8
DEFPOINTS
 62
     0
 10
33.652597695491821
 20
21.40823408751595
 30
0.0
  0
ENDBLK
  5
F41
  8
0
  0
BLOCK
  8
0
  2
*D103
 70
     1
 10
0.0
 20
0.0
 30
0.0
  3
*D103
  1

  0
LINE
  5
F51
  8
寸法線
 62
     0
 10
-19.867555555599999
 20
-14.957695273600001
 30
0.0
 11
-64.746835712501806
 21
-14.957695273600001
 31
0.0
  0
LINE
  5
F52
  8
寸法線
 62
     0
 10
-79.805055555600006
 20
45.729804726399998
 30
0.0
 11
-79.805055555600006
 21
0.1005245694981909
 31
0.0
  0
ARC
  5
F53
  8
寸法線
 62
     0
 10
-79.805055555600006
 20
-14.95769527359999
 30
0.0
 40
15.2382198430982
 50
0.676804796053867
 51
45.674365461032892
  0
ARC
  5
F54
  8
寸法線
 62
     0
 10
-79.805055555600006
 20
-14.95769527359999
 30
0.0
 40
15.2382198430982
 50
47.646725076005673
 51
89.323195203946113
  0
SOLID
  5
F55
  8
寸法線
 62
     0
 10
-64.537899352061345
 20
-14.777521227065931
 30
0.0
 11
-64.59789830555566
 21
-14.77787559916815
 31
0.0
 12
-64.566835712501828
 22
-14.95769527359999
 32
0.0
 13
-64.566835712501828
 23
-14.95769527359999
 33
0.0
  0
SOLID
  5
F56
  8
寸法線
 62
     0
 10
-79.62523588116818
 20
0.2494619764443655
 30
0.0
 11
-79.624881509065929
 21
0.3094609299386803
 31
0.0
 12
-79.805055555600006
 22
0.2805245694982119
 32
0.0
 13
-79.805055555600006
 23
0.2805245694982119
 33
0.0
  0
TEXT
  5
F7C
  8
寸法線
 62
     0
 10
-69.704999999999998
 20
-4.1951700000000001
 30
0.0
 40
0.18
  1
90°
  0
POINT
  5
F58
  8
DEFPOINTS
 62
     0
 10
-79.805055555600006
 20
-14.95769527359999
 30
0.0
  0
POINT
  5
F59
  8
DEFPOINTS
 62
     0
 10
-19.805055555599999
 20
-14.957695273600001
 30
0.0
  0
POINT
  5
F5A
  8
DEFPOINTS
 62
     0
 10
-79.805055555600006
 20
45.792304726399998
 30
0.0
  0
POINT
  5
F5B
  8
DEFPOINTS
 62
     0
 10
-66.60837006302485
 20
-7.3385853520509023
 30
0.0
  0
ENDBLK
  5
F5D
  8
0
  0
BLOCK
  8
0
  2
*D104
 70
     1
 10
0.0
 20
0.0
 30
0.0
  3
*D104
  1

  0
LINE
  5
10DB
  8
0
 62
     0
 10
36.350867861433223
 20
-5.0381911414790004
 30
0.0
 11
36.350867861433223
 21
-15.54582453239686
 31
0.0
  0
LINE
  5
10DC
  8
0
 62
     0
 10
45.950867861433153
 20
-5.0381911414790004
 30
0.0
 11
45.950867861433153
 21
-15.54582453239686
 31
0.0
  0
LINE
  5
10DD
  8
0
 62
     0
 10
36.530867861433222
 20
-15.365824532396861
 30
0.0
 11
40.790867861433163
 21
-15.365824532396861
 31
0.0
  0
LINE
  5
10DE
  8
0
 62
     0
 10
45.770867861433153
 20
-15.365824532396861
 30
0.0
 11
41.510867861433162
 21
-15.365824532396861
 31
0.0
  0
SOLID
  5
10DF
  8
0
 62
     0
 10
36.530867861433222
 20
-15.33582453239686
 30
0.0
 11
36.530867861433222
 21
-15.39582453239686
 31
0.0
 12
36.350867861433223
 22
-15.365824532396861
 32
0.0
 13
36.350867861433223
 23
-15.365824532396861
 33
0.0
  0
SOLID
  5
10E0
  8
0
 62
     0
 10
45.770867861433153
 20
-15.33582453239686
 30
0.0
 11
45.770867861433153
 21
-15.39582453239686
 31
0.0
 12
45.950867861433153
 22
-15.365824532396861
 32
0.0
 13
45.950867861433153
 23
-15.365824532396861
 33
0.0
  0
INSERT
  5
10E1
  8
0
  6
CONTINUOUS
  2
*U105
 10
0.0
 20
0.0
 30
0.0
  0
POINT
  5
10E2
  8
DEFPOINTS
 62
     0
 10
36.350867861433223
 20
-4.9756911414790004
 30
0.0
  0
POINT
  5
10E3
  8
DEFPOINTS
 62
     0
 10
45.950867861433153
 20
-4.9756911414790004
 30
0.0
  0
POINT
  5
10E4
  8
DEFPOINTS
 62
     0
 10
45.950867861433153
 20
-15.365824532396861
 30
0.0
  0
ENDBLK
  5
10B2
  8
0
  0
BLOCK
  8
0
  2
*U105
 70
     1
 10
0.0
 20
0.0
 30
0.0
  3
*U105
  1

  0
TEXT
  5
1126
  8
0
  6
CONTINUOUS
 62
     0
 10
40.880867861433181
 20
-15.455824532396861
 30
0.0
 40
0.18
  1
φ4.5
  0
ENDBLK
  5
1128
  8
0
  0
BLOCK
  8
0
  2
*D106
 70
     1
 10
0.0
 20
0.0
 30
0.0
  3
*D106
  1

  0
LINE
  5
1129
  8
0
  6
CONTINUOUS
 62
     4
 10
36.350867861433223
 20
-7.4756911414790004
 30
0.0
 11
36.350867861433223
 21
-16.037801866860711
 31
0.0
  0
LINE
  5
112A
  8
0
  6
CONTINUOUS
 62
     4
 10
45.950867861433153
 20
-7.4756911414790004
 30
0.0
 11
45.950867861433153
 21
-16.037801866860711
 31
0.0
  0
LINE
  5
112B
  8
0
  6
CONTINUOUS
 62
     4
 10
38.850867861433223
 20
-14.03780186686072
 30
0.0
 11
43.450867861433153
 21
-14.03780186686072
 31
0.0
  0
LINE
  5
112C
  8
0
  6
CONTINUOUS
 62
     4
 10
45.950867861433153
 20
-14.03780186686072
 30
0.0
 11
65.450867861433153
 21
-14.03780186686072
 31
0.0
  0
SOLID
  5
112D
  8
0
  6
CONTINUOUS
 62
     4
 10
38.850867861433223
 20
-13.62113520019405
 30
0.0
 11
38.850867861433223
 21
-14.454468533527381
 31
0.0
 12
36.350867861433223
 22
-14.03780186686072
 32
0.0
 13
36.350867861433223
 23
-14.03780186686072
 33
0.0
  0
SOLID
  5
112E
  8
0
  6
CONTINUOUS
 62
     4
 10
43.450867861433153
 20
-13.62113520019405
 30
0.0
 11
43.450867861433153
 21
-14.454468533527381
 31
0.0
 12
45.950867861433153
 22
-14.03780186686072
 32
0.0
 13
45.950867861433153
 23
-14.03780186686072
 33
0.0
  0
TEXT
  5
1133
  8
0
 62
     4
 10
46.95089999999999
 20
-19.387799999999999
 30
0.0
 40
5.0
  1
φ4.5
  0
POINT
  5
1130
  8
DEFPOINTS
  6
CONTINUOUS
 62
     0
 10
36.350867861433223
 20
-4.9756911414790004
 30
0.0
  0
POINT
  5
1131
  8
DEFPOINTS
  6
CONTINUOUS
 62
     0
 10
45.950867861433153
 20
-4.9756911414790004
 30
0.0
  0
POINT
  5
1132
  8
DEFPOINTS
  6
CONTINUOUS
 62
     0
 10
45.950867861433153
 20
-14.03780186686072
 30
0.0
  0
ENDBLK
  5
10F2
  8
0
  0
BLOCK
  8
0
  2
*D107
 70
     1
 10
0.0
 20
0.0
 30
0.0
  3
*D107
  1

  0
LINE
  5
1102
  8
寸法線
 62
     0
 10
-19.867555555599999
 20
-14.957695273600001
 30
0.0
 11
-64.746835712501806
 21
-14.957695273600001
 31
0.0
  0
LINE
  5
1103
  8
寸法線
 62
     0
 10
-79.805055555600006
 20
45.729804726399998
 30
0.0
 11
-79.805055555600006
 21
0.1005245694981909
 31
0.0
  0
ARC
  5
1104
  8
寸法線
 62
     0
 10
-79.805055555600006
 20
-14.95769527359999
 30
0.0
 40
15.2382198430982
 50
0.676804796053867
 51
45.674365461032899
  0
ARC
  5
1105
  8
寸法線
 62
     0
 10
-79.805055555600006
 20
-14.95769527359999
 30
0.0
 40
15.2382198430982
 50
47.64672507600568
 51
89.323195203946113
  0
SOLID
  5
1106
  8
寸法線
 62
     0
 10
-64.537899352061345
 20
-14.777521227065931
 30
0.0
 11
-64.59789830555566
 21
-14.77787559916815
 31
0.0
 12
-64.566835712501828
 22
-14.95769527359999
 32
0.0
 13
-64.566835712501828
 23
-14.95769527359999
 33
0.0
  0
SOLID
  5
1107
  8
寸法線
 62
     0
 10
-79.62523588116818
 20
0.2494619764443655
 30
0.0
 11
-79.624881509065929
 21
0.3094609299386803
 31
0.0
 12
-79.805055555600006
 22
0.2805245694982119
 32
0.0
 13
-79.805055555600006
 23
0.2805245694982119
 33
0.0
  0
TEXT
  5
1134
  8
寸法線
 62
     0
 10
-69.704999999999998
 20
-4.1951700000000001
 30
0.0
 40
0.18
  1
90°
  0
POINT
  5
1109
  8
DEFPOINTS
 62
     0
 10
-79.805055555600006
 20
-14.95769527359999
 30
0.0
  0
POINT
  5
110A
  8
DEFPOINTS
 62
     0
 10
-19.805055555599999
 20
-14.957695273600001
 30
0.0
  0
POINT
  5
110B
  8
DEFPOINTS
 62
     0
 10
-79.805055555600006
 20
45.792304726399998
 30
0.0
  0
POINT
  5
110C
  8
DEFPOINTS
 62
     0
 10
-66.60837006302485
 20
-7.3385853520509023
 30
0.0
  0
ENDBLK
  5
110E
  8
0
  0
BLOCK
  8
0
  2
*D108
 70
     1
 10
0.0
 20
0.0
 30
0.0
  3
*D108
  1

  0
LINE
  5
1110
  8
0
 62
     0
 10
50.25572220705736
 20
2.5291632041451542
 30
0.0
 11
61.763802144839232
 21
14.037243141927039
 31
0.0
  0
LINE
  5
1111
  8
0
 62
     0
 10
32.046013516009573
 20
2.5291632041456422
 30
0.0
 11
20.53793357825473
 21
14.037243142154519
 31
0.0
  0
ARC
  5
1112
  8
0
 62
     0
 10
41.150867861433213
 20
-6.5756911414789982
 30
0.0
 40
28.971091223898132
 50
45.355984412907411
 51
86.584399922597996
  0
ARC
  5
1113
  8
0
 62
     0
 10
41.150867861433213
 20
-6.5756911414789982
 30
0.0
 40
28.971091223898132
 50
88.02183111524046
 51
134.64401558646031
  0
SOLID
  5
1114
  8
0
 62
     0
 10
61.529996120445702
 20
14.058126129978261
 30
0.0
 11
61.487701717839833
 21
14.01556812828397
 31
0.0
 12
61.636522924225652
 22
13.90996392131346
 32
0.0
 13
61.636522924225652
 23
13.90996392131346
 33
0.0
  0
SOLID
  5
1115
  8
0
 62
     0
 10
20.81403400525388
 20
14.0155681285084
 30
0.0
 11
20.771739602648449
 21
14.05812613020316
 31
0.0
 12
20.6652127988669
 22
13.90996392153953
 32
0.0
 13
20.6652127988669
 23
13.90996392153953
 33
0.0
  0
TEXT
  5
1135
  8
0
 62
     0
 10
42.1539
 20
22.044699999999999
 30
0.0
 40
0.18
  1
90°
  0
POINT
  5
1117
  8
DEFPOINTS
 62
     0
 10
41.15086786143322
 20
-6.5756911414789982
 30
0.0
  0
POINT
  5
1118
  8
DEFPOINTS
 62
     0
 10
50.211528033233208
 20
2.484969030320995
 30
0.0
  0
POINT
  5
1119
  8
DEFPOINTS
 62
     0
 10
32.090207689833242
 20
2.484969030320995
 30
0.0
  0
POINT
  5
111A
  8
DEFPOINTS
 62
     0
 10
33.652597695491792
 20
21.40823408751595
 30
0.0
  0
ENDBLK
  5
111C
  8
0
  0
BLOCK
  8
0
  2
*U109
 70
     1
 10
0.0
 20
0.0
 30
0.0
  3
*U109
  1

  0
TEXT
  5
1255
  8
ﾚｲﾔ_1
  6
CONTINUOUS
 10
114.5259489319
 20
-66.625775672492892
 30
0.0
 40
5.9972220420999989
  1
皿加工部詳細
  0
ENDBLK
  5
1256
  8
0
  0
BLOCK
  8
0
  2
*D110
 70
     1
 10
0.0
 20
0.0
 30
0.0
  3
*D110
  1

  0
LINE
  5
1259
  8
0
  6
CONTINUOUS
 62
     4
 10
126.3132160380861
 20
-30.822488686615898
 30
0.0
 11
126.3132160380861
 21
-51.826218802956312
 31
0.0
  0
LINE
  5
125A
  8
0
  6
CONTINUOUS
 62
     4
 10
135.91321603808601
 20
-30.822488686615898
 30
0.0
 11
135.91321603808601
 21
-51.826218802956312
 31
0.0
  0
LINE
  5
125B
  8
0
  6
CONTINUOUS
 62
     4
 10
128.8132160380861
 20
-49.826218802956312
 30
0.0
 11
133.41321603808601
 21
-49.826218802956312
 31
0.0
  0
LINE
  5
125C
  8
0
  6
CONTINUOUS
 62
     4
 10
135.91321603808601
 20
-49.826218802956312
 30
0.0
 11
149.6177614926315
 21
-49.826218802956312
 31
0.0
  0
SOLID
  5
125D
  8
0
  6
CONTINUOUS
 62
     4
 10
128.8132160380861
 20
-49.409552136289641
 30
0.0
 11
128.8132160380861
 21
-50.242885469622969
 31
0.0
 12
126.3132160380861
 22
-49.826218802956312
 32
0.0
 13
126.3132160380861
 23
-49.826218802956312
 33
0.0
  0
SOLID
  5
125E
  8
0
  6
CONTINUOUS
 62
     4
 10
133.41321603808601
 20
-49.409552136289641
 30
0.0
 11
133.41321603808601
 21
-50.242885469622969
 31
0.0
 12
135.91321603808601
 22
-49.826218802956312
 32
0.0
 13
135.91321603808601
 23
-49.826218802956312
 33
0.0
  0
INSERT
  5
125F
  8
0
  6
CONTINUOUS
  2
*U120
 10
0.0
 20
0.0
 30
0.0
  0
POINT
  5
1260
  8
DEFPOINTS
  6
CONTINUOUS
 62
     0
 10
126.3132160380861
 20
-28.322488686615898
 30
0.0
  0
POINT
  5
1261
  8
DEFPOINTS
  6
CONTINUOUS
 62
     0
 10
135.91321603808601
 20
-28.322488686615898
 30
0.0
  0
POINT
  5
1262
  8
DEFPOINTS
  6
CONTINUOUS
 62
     0
 10
135.91321603808601
 20
-49.826218802956312
 30
0.0
  0
ENDBLK
  5
1263
  8
0
  0
BLOCK
  8
0
  2
*D111
 70
     1
 10
0.0
 20
0.0
 30
0.0
  3
*D111
  1

  0
LINE
  5
1266
  8
0
  6
CONTINUOUS
 62
     4
 10
123.11321603808599
 20
-19.422488686615878
 30
0.0
 11
123.11321603808599
 21
-1.992296491435581
 31
0.0
  0
LINE
  5
1267
  8
0
  6
CONTINUOUS
 62
     4
 10
139.11321603808611
 20
-19.422488686615878
 30
0.0
 11
139.11321603808611
 21
-1.992296491435581
 31
0.0
  0
LINE
  5
1268
  8
0
  6
CONTINUOUS
 62
     4
 10
125.61321603808599
 20
-3.9922964914355812
 30
0.0
 11
136.61321603808611
 21
-3.9922964914355812
 31
0.0
  0
SOLID
  5
1269
  8
0
  6
CONTINUOUS
 62
     4
 10
125.61321603808599
 20
-3.5756298247689151
 30
0.0
 11
125.61321603808599
 21
-4.4089631581022477
 31
0.0
 12
123.11321603808599
 22
-3.9922964914355812
 32
0.0
 13
123.11321603808599
 23
-3.9922964914355812
 33
0.0
  0
SOLID
  5
126A
  8
0
  6
CONTINUOUS
 62
     4
 10
136.61321603808611
 20
-3.5756298247689151
 30
0.0
 11
136.61321603808611
 21
-4.4089631581022477
 31
0.0
 12
139.11321603808611
 22
-3.9922964914355812
 32
0.0
 13
139.11321603808611
 23
-3.9922964914355812
 33
0.0
  0
INSERT
  5
126B
  8
0
  6
CONTINUOUS
  2
*U121
 10
0.0
 20
0.0
 30
0.0
  0
POINT
  5
126C
  8
DEFPOINTS
  6
CONTINUOUS
 62
     0
 10
123.11321603808599
 20
-21.922488686615889
 30
0.0
  0
POINT
  5
126D
  8
DEFPOINTS
  6
CONTINUOUS
 62
     0
 10
139.11321603808611
 20
-21.922488686615889
 30
0.0
  0
POINT
  5
126E
  8
DEFPOINTS
  6
CONTINUOUS
 62
     0
 10
139.11321603808611
 20
-3.9922964914355812
 30
0.0
  0
ENDBLK
  5
126F
  8
0
  0
BLOCK
  8
0
  2
*D112
 70
     1
 10
0.0
 20
0.0
 30
0.0
  3
*D112
  1

  0
LINE
  5
1272
  8
0
  6
CONTINUOUS
 62
     4
 10
140.88098299105249
 20
-20.154721733649549
 30
0.0
 11
165.29461020109881
 21
4.2589054763957641
 31
0.0
  0
LINE
  5
1273
  8
0
  6
CONTINUOUS
 62
     4
 10
121.3454490851197
 20
-20.15472173364952
 30
0.0
 11
96.931821875073709
 21
4.2589054763963503
 31
0.0
  0
ARC
  5
1274
  8
0
  6
CONTINUOUS
 62
     4
 10
131.11321603808591
 20
-29.92248868661575
 30
0.0
 40
46.339791206152363
 50
48.091443048884308
 51
131.90855695111469
  0
SOLID
  5
1275
  8
0
  6
CONTINUOUS
 62
     4
 10
162.3521611675408
 20
4.8665988000398377
 30
0.0
 11
161.77901490565341
 21
4.2616625993303119
 31
0.0
 12
163.8803966387257
 22
2.8446919140226958
 32
0.0
 13
163.8803966387257
 23
2.8446919140226958
 33
0.0
  0
SOLID
  5
1276
  8
0
  6
CONTINUOUS
 62
     4
 10
100.4474171705191
 20
4.2616625993308377
 30
0.0
 11
99.874270908631686
 21
4.8665988000403742
 31
0.0
 12
98.346035437446801
 22
2.8446919140232581
 32
0.0
 13
98.346035437446801
 23
2.8446919140232581
 33
0.0
  0
INSERT
  5
1277
  8
0
  6
CONTINUOUS
  2
*U122
 10
0.0
 20
0.0
 30
0.0
  0
POINT
  5
1278
  8
DEFPOINTS
  6
CONTINUOUS
 62
     0
 10
143.106836548313
 20
14.838312424249731
 30
0.0
  0
POINT
  5
1279
  8
DEFPOINTS
  6
CONTINUOUS
 62
     0
 10
123.11321603808599
 20
-21.922488686615889
 30
0.0
  0
POINT
  5
127A
  8
DEFPOINTS
  6
CONTINUOUS
 62
     0
 10
135.91321603808601
 20
-25.122488686615899
 30
0.0
  0
POINT
  5
127B
  8
DEFPOINTS
  6
CONTINUOUS
 62
     0
 10
139.11321603808611
 20
-21.922488686615889
 30
0.0
  0
POINT
  5
127C
  8
DEFPOINTS
  6
CONTINUOUS
 62
     0
 10
126.3132160380861
 20
-25.122488686615899
 30
0.0
  0
ENDBLK
  5
127D
  8
0
  0
BLOCK
  8
0
  2
*D114
 70
     1
 10
0.0
 20
0.0
 30
0.0
  3
*D114
  1

  0
LINE
  5
12C3
  8
0
  6
CONTINUOUS
 62
     4
 10
212.4772443143321
 20
0.7025570470196713
 30
0.0
 11
236.8908715243783
 21
25.116184257065029
 31
0.0
  0
LINE
  5
12C4
  8
0
  6
CONTINUOUS
 62
     4
 10
192.94171040839919
 20
0.7025570470197003
 30
0.0
 11
168.5280831983533
 21
25.116184257065608
 31
0.0
  0
ARC
  5
12C5
  8
0
  6
CONTINUOUS
 62
     4
 10
202.70947736136549
 20
-9.0652099059465332
 30
0.0
 40
46.339791206152377
 50
48.0914430488844
 51
131.9085569511146
  0
SOLID
  5
12C6
  8
0
  6
CONTINUOUS
 62
     4
 10
233.94842249082041
 20
25.7238775807091
 30
0.0
 11
233.3752762289329
 21
25.11894137999958
 31
0.0
 12
235.47665796200519
 22
23.701970694691958
 32
0.0
 13
235.47665796200519
 23
23.701970694691958
 33
0.0
  0
SOLID
  5
12C7
  8
0
  6
CONTINUOUS
 62
     4
 10
172.04367849379869
 20
25.118941380000091
 30
0.0
 11
171.47053223191131
 21
25.72387758070963
 31
0.0
 12
169.94229676072641
 22
23.70197069469252
 32
0.0
 13
169.94229676072641
 23
23.70197069469252
 33
0.0
  0
INSERT
  5
12C8
  8
0
  6
CONTINUOUS
  2
*U123
 10
0.0
 20
0.0
 30
0.0
  0
POINT
  5
12C9
  8
DEFPOINTS
  6
CONTINUOUS
 62
     0
 10
214.7030978715926
 20
35.695591204918969
 30
0.0
  0
POINT
  5
12CA
  8
DEFPOINTS
  6
CONTINUOUS
 62
     0
 10
194.7094773613656
 20
-1.065209905946666
 30
0.0
  0
POINT
  5
12CB
  8
DEFPOINTS
  6
CONTINUOUS
 62
     0
 10
207.50947736136561
 20
-4.2652099059466764
 30
0.0
  0
POINT
  5
12CC
  8
DEFPOINTS
  6
CONTINUOUS
 62
     0
 10
210.70947736136571
 20
-1.065209905946666
 30
0.0
  0
POINT
  5
12CD
  8
DEFPOINTS
  6
CONTINUOUS
 62
     0
 10
197.90947736136559
 20
-4.2652099059466764
 30
0.0
  0
ENDBLK
  5
12AA
  8
0
  0
BLOCK
  8
0
  2
*D115
 70
     1
 10
0.0
 20
0.0
 30
0.0
  3
*D115
  1

  0
LINE
  5
12CE
  8
0
  6
CONTINUOUS
 62
     4
 10
194.7094773613656
 20
1.4347900940533329
 30
0.0
 11
194.7094773613656
 21
18.864982289233641
 31
0.0
  0
LINE
  5
12CF
  8
0
  6
CONTINUOUS
 62
     4
 10
210.70947736136571
 20
1.4347900940533329
 30
0.0
 11
210.70947736136571
 21
18.864982289233641
 31
0.0
  0
LINE
  5
12D0
  8
0
  6
CONTINUOUS
 62
     4
 10
197.2094773613656
 20
16.864982289233641
 30
0.0
 11
208.20947736136571
 21
16.864982289233641
 31
0.0
  0
SOLID
  5
12D1
  8
0
  6
CONTINUOUS
 62
     4
 10
197.2094773613656
 20
17.281648955900302
 30
0.0
 11
197.2094773613656
 21
16.44831562256697
 31
0.0
 12
194.7094773613656
 22
16.864982289233641
 32
0.0
 13
194.7094773613656
 23
16.864982289233641
 33
0.0
  0
SOLID
  5
12D2
  8
0
  6
CONTINUOUS
 62
     4
 10
208.20947736136571
 20
17.281648955900302
 30
0.0
 11
208.20947736136571
 21
16.44831562256697
 31
0.0
 12
210.70947736136571
 22
16.864982289233641
 32
0.0
 13
210.70947736136571
 23
16.864982289233641
 33
0.0
  0
INSERT
  5
12D3
  8
0
  6
CONTINUOUS
  2
*U124
 10
0.0
 20
0.0
 30
0.0
  0
POINT
  5
12D4
  8
DEFPOINTS
  6
CONTINUOUS
 62
     0
 10
194.7094773613656
 20
-1.065209905946666
 30
0.0
  0
POINT
  5
12D5
  8
DEFPOINTS
  6
CONTINUOUS
 62
     0
 10
210.70947736136571
 20
-1.065209905946666
 30
0.0
  0
POINT
  5
12D6
  8
DEFPOINTS
  6
CONTINUOUS
 62
     0
 10
210.70947736136571
 20
16.864982289233641
 30
0.0
  0
ENDBLK
  5
12B6
  8
0
  0
BLOCK
  8
0
  2
*D116
 70
     1
 10
0.0
 20
0.0
 30
0.0
  3
*D116
  1

  0
LINE
  5
12D7
  8
0
  6
CONTINUOUS
 62
     4
 10
197.90947736136559
 20
-9.9652099059466792
 30
0.0
 11
197.90947736136559
 21
-30.968940022287089
 31
0.0
  0
LINE
  5
12D8
  8
0
  6
CONTINUOUS
 62
     4
 10
207.50947736136561
 20
-9.9652099059466792
 30
0.0
 11
207.50947736136561
 21
-30.968940022287089
 31
0.0
  0
LINE
  5
12D9
  8
0
  6
CONTINUOUS
 62
     4
 10
200.4094773613657
 20
-28.968940022287089
 30
0.0
 11
205.00947736136561
 21
-28.968940022287089
 31
0.0
  0
SOLID
  5
12DA
  8
0
  6
CONTINUOUS
 62
     4
 10
200.4094773613657
 20
-28.552273355620422
 30
0.0
 11
200.4094773613657
 21
-29.38560668895375
 31
0.0
 12
197.90947736136559
 22
-28.968940022287089
 32
0.0
 13
197.90947736136559
 23
-28.968940022287089
 33
0.0
  0
SOLID
  5
12DB
  8
0
  6
CONTINUOUS
 62
     4
 10
205.00947736136561
 20
-28.552273355620422
 30
0.0
 11
205.00947736136561
 21
-29.38560668895375
 31
0.0
 12
207.50947736136561
 22
-28.968940022287089
 32
0.0
 13
207.50947736136561
 23
-28.968940022287089
 33
0.0
  0
INSERT
  5
12DC
  8
0
  6
CONTINUOUS
  2
*U125
 10
0.0
 20
0.0
 30
0.0
  0
POINT
  5
12DD
  8
DEFPOINTS
  6
CONTINUOUS
 62
     0
 10
197.90947736136559
 20
-7.4652099059466792
 30
0.0
  0
POINT
  5
12DE
  8
DEFPOINTS
  6
CONTINUOUS
 62
     0
 10
207.50947736136561
 20
-7.4652099059466792
 30
0.0
  0
POINT
  5
12DF
  8
DEFPOINTS
  6
CONTINUOUS
 62
     0
 10
207.50947736136561
 20
-28.968940022287089
 30
0.0
  0
ENDBLK
  5
12C2
  8
0
  0
BLOCK
  8
0
  2
*D117
 70
     1
 10
0.0
 20
0.0
 30
0.0
  3
*D117
  1

  0
LINE
  5
1366
  8
0
  6
CONTINUOUS
 62
     4
 10
50.91863481439961
 20
3.1920758114873351
 30
0.0
 11
59.04102542659782
 21
11.31446642368523
 31
0.0
  0
LINE
  5
1367
  8
0
  6
CONTINUOUS
 62
     4
 10
31.38310090846678
 20
3.1920758114873671
 30
0.0
 11
23.260710296268581
 21
11.314466423685561
 31
0.0
  0
ARC
  5
1368
  8
0
  6
CONTINUOUS
 62
     4
 10
41.150867861433042
 20
-6.575691141478873
 30
0.0
 40
25.200503461647191
 50
48.410898583341357
 51
78.334154305445495
  0
ARC
  5
1369
  8
0
  6
CONTINUOUS
 62
     4
 10
41.150867861433042
 20
-6.575691141478873
 30
0.0
 40
25.200503461647191
 50
97.944775161287353
 51
131.5891014166576
  0
SOLID
  5
136A
  8
0
  6
CONTINUOUS
 62
     4
 10
58.049995059817803
 20
12.45433894000727
 30
0.0
 11
57.70712049344035
 21
12.090419949390579
 31
0.0
 12
58.970314748479169
 22
11.243755745566579
 32
0.0
 13
58.970314748479169
 23
11.243755745566579
 33
0.0
  0
SOLID
  5
136B
  8
0
  6
CONTINUOUS
 62
     4
 10
24.594615229426068
 20
12.090419949390879
 30
0.0
 11
24.251740663048629
 21
12.454338940007579
 31
0.0
 12
23.331420974387239
 22
11.243755745566901
 32
0.0
 13
23.331420974387239
 23
11.243755745566901
 33
0.0
  0
TEXT
  8
0
  40
2.5
  5
137A
  62
4
  72
0
  71
0
 10
36.9690
 20
14.1865
 30
0.000000
  1
90°
  0
POINT
  5
136D
  8
DEFPOINTS
  6
CONTINUOUS
 62
     0
 10
34.628497619386891
 20
17.76612598761325
 30
0.0
  0
POINT
  5
136E
  8
DEFPOINTS
  6
CONTINUOUS
 62
     0
 10
33.150867861433149
 20
1.4243088585210011
 30
0.0
  0
POINT
  5
136F
  8
DEFPOINTS
  6
CONTINUOUS
 62
     0
 10
45.950867861433082
 20
-1.775691141479008
 30
0.0
  0
POINT
  5
1370
  8
DEFPOINTS
  6
CONTINUOUS
 62
     0
 10
49.150867861433198
 20
1.4243088585210011
 30
0.0
  0
POINT
  5
1371
  8
DEFPOINTS
  6
CONTINUOUS
 62
     0
 10
36.350867861433173
 20
-1.775691141479008
 30
0.0
  0
ENDBLK
  5
12EE
  8
0
  0
BLOCK
  8
0
  2
*D118
 70
     1
 10
0.0
 20
0.0
 30
0.0
  3
*D118
  1

  0
LINE
  5
1329
  8
0
 62
     4
 10
49.150867861433213
 20
3.9243088585210009
 30
0.0
 11
49.150867861433213
 21
10.796721419141219
 31
0.0
  0
LINE
  5
132A
  8
0
 62
     4
 10
33.150867861433241
 20
3.9243088585210009
 30
0.0
 11
33.150867861433241
 21
10.796721419141219
 31
0.0
  0
LINE
  5
132B
  8
0
 62
     4
 10
47.650867861433213
 20
10.69672141914122
 30
0.0
 11
43.5504159387893
 21
10.69672141914122
 31
0.0
  0
LINE
  5
132C
  8
0
 62
     4
 10
34.650867861433241
 20
10.69672141914122
 30
0.0
 11
38.383749272122643
 21
10.69672141914122
 31
0.0
  0
INSERT
  5
132D
  8
0
  6
CONTINUOUS
  2
*U126
 10
0.0
 20
0.0
 30
0.0
  0
SOLID
  5
132E
  8
0
 62
     4
 10
47.650867861433213
 20
10.94672141914122
 30
0.0
 11
47.650867861433213
 21
10.44672141914122
 31
0.0
 12
49.150867861433213
 22
10.69672141914122
 32
0.0
 13
49.150867861433213
 23
10.69672141914122
 33
0.0
  0
SOLID
  5
132F
  8
0
 62
     4
 10
34.650867861433241
 20
10.94672141914122
 30
0.0
 11
34.650867861433241
 21
10.44672141914122
 31
0.0
 12
33.150867861433241
 22
10.69672141914122
 32
0.0
 13
33.150867861433241
 23
10.69672141914122
 33
0.0
  0
POINT
  5
1330
  8
DEFPOINTS
 62
     0
 10
49.150867861433213
 20
1.4243088585210011
 30
0.0
  0
POINT
  5
1331
  8
DEFPOINTS
 62
     0
 10
33.150867861433241
 20
1.4243088585210011
 30
0.0
  0
POINT
  5
1332
  8
DEFPOINTS
 62
     0
 10
33.150867861433241
 20
10.69672141914122
 30
0.0
  0
ENDBLK
  5
1334
  8
0
  0
BLOCK
  8
0
  2
*D119
 70
     1
 10
0.0
 20
0.0
 30
0.0
  3
*D119
  1

  0
LINE
  5
1336
  8
0
  6
CONTINUOUS
 62
     4
 10
36.350867861433223
 20
-7.4756911414790004
 30
0.0
 11
36.350867861433223
 21
-14.13780186686072
 31
0.0
  0
LINE
  5
1337
  8
0
  6
CONTINUOUS
 62
     4
 10
45.950867861433153
 20
-7.4756911414790004
 30
0.0
 11
45.950867861433153
 21
-14.13780186686072
 31
0.0
  0
LINE
  5
1338
  8
0
  6
CONTINUOUS
 62
     4
 10
37.85086786143323
 20
-14.03780186686072
 30
0.0
 11
44.450867861433153
 21
-14.03780186686072
 31
0.0
  0
SOLID
  5
1339
  8
0
  6
CONTINUOUS
 62
     4
 10
37.85086786143323
 20
-13.78780186686072
 30
0.0
 11
37.85086786143323
 21
-14.28780186686072
 31
0.0
 12
36.350867861433223
 22
-14.03780186686072
 32
0.0
 13
36.350867861433223
 23
-14.03780186686072
 33
0.0
  0
SOLID
  5
133A
  8
0
  6
CONTINUOUS
 62
     4
 10
44.450867861433153
 20
-13.78780186686072
 30
0.0
 11
44.450867861433153
 21
-14.28780186686072
 31
0.0
 12
45.950867861433153
 22
-14.03780186686072
 32
0.0
 13
45.950867861433153
 23
-14.03780186686072
 33
0.0
  0
INSERT
  5
133B
  8
0
  6
CONTINUOUS
  2
*U127
 10
0.0
 20
0.0
 30
0.0
  0
POINT
  5
133C
  8
DEFPOINTS
  6
CONTINUOUS
 62
     0
 10
36.350867861433223
 20
-4.9756911414790004
 30
0.0
  0
POINT
  5
133D
  8
DEFPOINTS
  6
CONTINUOUS
 62
     0
 10
45.950867861433153
 20
-4.9756911414790004
 30
0.0
  0
POINT
  5
133E
  8
DEFPOINTS
  6
CONTINUOUS
 62
     0
 10
45.950867861433153
 20
-14.03780186686072
 30
0.0
  0
ENDBLK
  5
1340
  8
0
  0
BLOCK
  8
0
  2
*U120
 70
     1
 10
0.0
 20
0.0
 30
0.0
  3
*U120
  1

  0
TEXT
  5
134F
  8
0
  6
CONTINUOUS
 62
     4
 10
140.2654887653587
 20
-48.073377893865398
 30
0.0
 40
5.0
  1
φ4
  7
ゴシック
  0
ENDBLK
  5
1351
  8
0
  0
BLOCK
  8
0
  2
*U121
 70
     1
 10
0.0
 20
0.0
 30
0.0
  3
*U121
  1

  0
TEXT
  5
1353
  8
0
  6
CONTINUOUS
 62
     4
 10
127.36321603808609
 20
-2.239455582344672
 30
0.0
 40
5.0
  1
φ8
  7
ゴシック
  0
ENDBLK
  5
1355
  8
0
  0
BLOCK
  8
0
  2
*U122
 70
     1
 10
0.0
 20
0.0
 30
0.0
  3
*U122
  1

  0
TEXT
  5
1357
  8
0
  6
CONTINUOUS
 62
     4
 10
124.86321603808631
 20
17.41730251953663
 30
0.0
 40
5.0
  1
90°
  7
ゴシック
  0
ENDBLK
  5
1359
  8
0
  0
BLOCK
  8
0
  2
*U123
 70
     1
 10
0.0
 20
0.0
 30
0.0
  3
*U123
  1

  0
TEXT
  5
135B
  8
0
  6
CONTINUOUS
 62
     4
 10
196.45947736136591
 20
38.274581300205853
 30
0.0
 40
5.0
  1
90°
  7
ゴシック
  0
ENDBLK
  5
135D
  8
0
  0
BLOCK
  8
0
  2
*U124
 70
     1
 10
0.0
 20
0.0
 30
0.0
  3
*U124
  1

  0
TEXT
  5
135F
  8
0
  6
CONTINUOUS
 62
     4
 10
198.95947736136571
 20
17.86498228923363
 30
0.0
 40
5.0
  1
φ8
  7
ゴシック
  0
ENDBLK
  5
1361
  8
0
  0
BLOCK
  8
0
  2
*U125
 70
     1
 10
0.0
 20
0.0
 30
0.0
  3
*U125
  1

  0
TEXT
  5
1363
  8
0
  6
CONTINUOUS
 62
     4
 10
198.9594773613656
 20
-27.968940022287089
 30
0.0
 40
5.0
  1
φ4
  7
ゴシック
  0
ENDBLK
  5
1365
  8
0
  0
BLOCK
  8
0
  2
*U126
 70
     1
 10
0.0
 20
0.0
 30
0.0
  3
*U126
  1

  0
TEXT
  5
1373
  8
0
  6
CONTINUOUS
 62
     4
 10
38.883749272122643
 20
9.4467214191412214
 30
0.0
 40
2.5
  1
φ8
  0
ENDBLK
  5
1375
  8
0
  0
BLOCK
  8
0
  2
*U127
 70
     1
 10
0.0
 20
0.0
 30
0.0
  3
*U127
  1

  0
TEXT
  5
1377
  8
0
  6
CONTINUOUS
 62
     4
 10
37.400867861433191
 20
-13.53780186686072
 30
0.0
 40
2.5
  1
φ4.5
  0
ENDBLK
  5
1379
  8
0
  0
ENDSEC
  0
SECTION
  2
ENTITIES
  0
LINE
  5
2F
  8
図枠
 62
     5
 10
70.029370920700003
 20
105.2532951509
 30
0.0
 11
70.029370920700003
 21
120.2532951509
 31
0.0
  0
INSERT
  5
30
  8
0
  6
CONTINUOUS
  2
*U37
 10
0.0
 20
0.0
 30
0.0
  0
LINE
  5
31
  8
図枠
 62
     5
 10
46.029370920699989
 20
110.2532951509
 30
0.0
 11
140.02937092069999
 21
110.2532951509
 31
0.0
  0
LINE
  5
33
  8
ﾚｲﾔ_1
  6
STITCH
 10
73.892592592599982
 20
65.561956467699986
 30
0.0
 11
77.092592592599999
 21
65.561956467699986
 31
0.0
  0
LINE
  5
34
  8
ﾚｲﾔ_1
  6
BORDER
 62
     3
 10
71.149226851899996
 20
54.3119564677
 30
0.0
 11
79.946622685199983
 21
54.3119564677
 31
0.0
  0
LINE
  5
35
  8
ﾚｲﾔ_1
  6
STITCH
 10
73.892592592599982
 20
58.311956467700007
 30
0.0
 11
75.492592592600005
 21
56.711956467700013
 31
0.0
  0
DIMENSION
  5
46
  8
寸法線
  2
*D2
 10
43.892592592600003
 20
38.3119564677
 30
0.0
 11
48.89259259260001
 21
38.3119564677
 31
0.0
 70
   128
  1
<>
 13
43.892592592600003
 23
48.311956467700007
 33
0.0
 14
53.89259259260001
 24
57.3119564677
 34
0.0
 50
180.0
  0
DIMENSION
  5
55
  8
寸法線
  2
*D3
 10
33.89259259260001
 20
63.311956467700007
 30
0.0
 11
33.89259259260001
 21
55.811956467700007
 31
0.0
 70
   128
  1
<>
 13
47.892592592600003
 23
63.311956467700007
 33
0.0
 14
43.892592592600003
 24
48.311956467700007
 34
0.0
 50
90.0
  0
DIMENSION
  5
64
  8
寸法線
  2
*D4
 10
33.89259259260001
 20
78.3119564677
 30
0.0
 11
33.89259259260001
 21
70.8119564677
 31
0.0
 70
   128
  1
<>
 13
43.892592592600003
 23
78.3119564677
 33
0.0
 14
47.892592592600003
 24
63.311956467700007
 34
0.0
 50
90.0
  0
DIMENSION
  5
73
  8
寸法線
  2
*D5
 10
53.89259259260001
 20
38.3119564677
 30
0.0
 11
65.492592592600005
 21
38.3119564677
 31
0.0
 70
   128
  1
<>
 13
53.89259259260001
 23
57.3119564677
 33
0.0
 14
77.092592592599999
 24
48.311956467700007
 34
0.0
 50
180.0
  0
DIMENSION
  5
82
  8
寸法線
  2
*D6
 10
73.892592592599982
 20
88.3119564677
 30
0.0
 11
58.89259259260001
 21
88.3119564677
 31
0.0
 70
   128
  1
<>
 13
73.892592592599982
 23
78.3119564677
 33
0.0
 14
43.892592592600003
 24
78.3119564677
 34
0.0
  0
DIMENSION
  5
91
  8
寸法線
  2
*D7
 10
77.092592592599999
 20
88.3119564677
 30
0.0
 11
75.492592592600005
 21
88.3119564677
 31
0.0
 70
   128
  1
<>
 13
77.092592592599999
 23
78.3119564677
 33
0.0
 14
73.892592592599982
 24
78.3119564677
 34
0.0
  0
LINE
  5
92
  8
図枠
 62
     5
 10
46.029370920699989
 20
115.2532951509
 30
0.0
 11
140.02937092069999
 21
115.2532951509
 31
0.0
  0
LINE
  5
93
  8
図枠
 62
     5
 10
130.02937092069999
 20
105.2532951509
 30
0.0
 11
130.02937092069999
 21
120.2532951509
 31
0.0
  0
LINE
  5
94
  8
図枠
 62
     5
 10
120.0293709207
 20
105.2532951509
 30
0.0
 11
120.0293709207
 21
120.2532951509
 31
0.0
  0
LINE
  5
95
  8
図枠
 62
     5
 10
46.029370920699989
 20
105.2532951509
 30
0.0
 11
46.029370920699989
 21
120.2532951509
 31
0.0
  0
LINE
  5
96
  8
図枠
 62
     5
 10
49.745085534600001
 20
114.9709126507
 30
0.0
 11
47.2700855346
 21
110.6840869019
 31
0.0
  0
LINE
  5
97
  8
図枠
 62
     5
 10
49.745085534600001
 20
114.9709126507
 30
0.0
 11
52.220085534600003
 21
110.6840869019
 31
0.0
  0
LINE
  5
98
  8
図枠
 62
     5
 10
54.029370920700003
 20
105.2532951509
 30
0.0
 11
54.029370920700003
 21
120.2532951509
 31
0.0
  0
INSERT
  5
99
  8
0
  6
CONTINUOUS
  2
*U38
 10
0.0
 20
0.0
 30
0.0
  0
INSERT
  5
9A
  8
0
  6
CONTINUOUS
  2
*U39
 10
0.0
 20
0.0
 30
0.0
  0
INSERT
  5
9B
  8
0
  6
CONTINUOUS
  2
*U40
 10
0.0
 20
0.0
 30
0.0
  0
INSERT
  5
9C
  8
0
  6
CONTINUOUS
  2
*U41
 10
0.0
 20
0.0
 30
0.0
  0
LINE
  5
9D
  8
図枠
 62
     5
 10
47.2700855346
 20
105.7340869019
 30
0.0
 11
52.220085534600003
 21
105.7340869019
 31
0.0
  0
LINE
  5
9E
  8
図枠
 62
     5
 10
47.2700855346
 20
110.6840869019
 30
0.0
 11
52.220085534600003
 21
110.6840869019
 31
0.0
  0
LINE
  5
9F
  8
図枠
 62
     5
 10
49.745085534600001
 20
110.0209126507
 30
0.0
 11
52.220085534600003
 21
105.7340869019
 31
0.0
  0
LINE
  5
A0
  8
図枠
 62
     5
 10
49.745085534600001
 20
110.0209126507
 30
0.0
 11
47.2700855346
 21
105.7340869019
 31
0.0
  0
LINE
  5
A1
  8
図枠
 62
     5
 10
46.029370920699989
 20
105.2532951509
 30
0.0
 11
140.02937092069999
 21
105.2532951509
 31
0.0
  0
LINE
  5
A2
  8
図枠
 10
75.35985173189998
 20
-47.344704849099998
 30
0.0
 11
79.967851731899998
 21
-46.192704849099989
 31
0.0
  0
LINE
  5
A3
  8
図枠
 10
81.029370920700003
 20
-33.246704849099999
 30
0.0
 11
81.029370920700003
 21
-27.746704849099999
 31
0.0
  0
INSERT
  5
A4
  8
0
  6
CONTINUOUS
  2
*U42
 10
0.0
 20
0.0
 30
0.0
  0
INSERT
  5
A5
  8
0
  6
CONTINUOUS
  2
*U43
 10
0.0
 20
0.0
 30
0.0
  0
INSERT
  5
A6
  8
0
  6
CONTINUOUS
  2
*U44
 10
0.0
 20
0.0
 30
0.0
  0
LINE
  5
A7
  8
ﾚｲﾔ_1
  6
STITCH
 10
75.492592592600005
 20
56.711956467700013
 30
0.0
 11
75.492592592600005
 21
51.911956467700001
 31
0.0
  0
LINE
  5
A8
  8
ﾚｲﾔ_1
  6
STITCH
 10
75.492592592600005
 20
51.911956467700001
 30
0.0
 11
73.892592592599982
 21
50.311956467700007
 31
0.0
  0
LINE
  5
A9
  8
ﾚｲﾔ_1
  6
STITCH
 10
75.492592592600005
 20
56.711956467700013
 30
0.0
 11
77.092592592599999
 21
56.711956467700013
 31
0.0
  0
LINE
  5
AA
  8
ﾚｲﾔ_1
  6
STITCH
 10
75.492592592600005
 20
51.911956467700001
 30
0.0
 11
77.092592592599999
 21
51.911956467700001
 31
0.0
  0
LINE
  5
AB
  8
ﾚｲﾔ_1
  6
STITCH
 10
75.492592592600005
 20
69.911956467700008
 30
0.0
 11
77.092592592599999
 21
69.911956467700008
 31
0.0
  0
CIRCLE
  5
AC
  8
ﾚｲﾔ_1
  6
STITCH
 10
53.89259259260001
 20
63.311956467700007
 30
0.0
 40
4.0
  0
LINE
  5
AD
  8
ﾚｲﾔ_1
  6
BORDER
 62
     3
 10
47.892592592600003
 20
63.311956467700007
 30
0.0
 11
59.892592592600003
 21
63.311956467700007
 31
0.0
  0
LINE
  5
AE
  8
ﾚｲﾔ_1
  6
BORDER
 62
     3
 10
53.89259259260001
 20
69.311956467699986
 30
0.0
 11
53.89259259260001
 21
57.3119564677
 31
0.0
  0
CIRCLE
  5
AF
  8
ﾚｲﾔ_1
 62
     5
 10
53.89259259260001
 20
63.311956467700007
 30
0.0
 40
2.399999999999999
  0
LINE
  5
B0
  8
ﾚｲﾔ_1
 62
     5
 10
43.892592592600003
 20
78.3119564677
 30
0.0
 11
43.892592592600003
 21
48.311956467700007
 31
0.0
  0
LINE
  5
B1
  8
ﾚｲﾔ_1
 62
     5
 10
77.092592592599999
 20
78.3119564677
 30
0.0
 11
77.092592592599999
 21
48.311956467700007
 31
0.0
  0
LINE
  5
B2
  8
ﾚｲﾔ_1
 62
     5
 10
77.092592592599999
 20
78.3119564677
 30
0.0
 11
43.892592592600003
 21
78.3119564677
 31
0.0
  0
LINE
  5
B3
  8
ﾚｲﾔ_1
 62
     5
 10
43.892592592600003
 20
48.311956467700007
 30
0.0
 11
77.092592592599999
 21
48.311956467700007
 31
0.0
  0
LINE
  5
B4
  8
ﾚｲﾔ_1
  6
STITCH
 10
75.492592592600005
 20
74.711956467700006
 30
0.0
 11
77.092592592599999
 21
74.711956467700006
 31
0.0
  0
LINE
  5
B5
  8
ﾚｲﾔ_1
  6
STITCH
 10
75.492592592600005
 20
69.911956467700008
 30
0.0
 11
73.892592592599982
 21
68.3119564677
 31
0.0
  0
LINE
  5
B6
  8
ﾚｲﾔ_1
  6
STITCH
 10
75.492592592600005
 20
74.711956467700006
 30
0.0
 11
75.492592592600005
 21
69.911956467700008
 31
0.0
  0
LINE
  5
B7
  8
ﾚｲﾔ_1
  6
STITCH
 10
73.892592592599982
 20
76.3119564677
 30
0.0
 11
75.492592592600005
 21
74.711956467700006
 31
0.0
  0
LINE
  5
B8
  8
ﾚｲﾔ_1
  6
BORDER
 62
     3
 10
71.149226851899996
 20
72.3119564677
 30
0.0
 11
79.946622685199983
 21
72.3119564677
 31
0.0
  0
LINE
  5
B9
  8
ﾚｲﾔ_1
 62
     5
 10
73.892592592599982
 20
48.311956467700007
 30
0.0
 11
73.892592592599982
 21
78.3119564677
 31
0.0
  0
LINE
  5
BA
  8
ﾚｲﾔ_1
  6
STITCH
 10
73.892592592599982
 20
61.0619564677
 30
0.0
 11
77.092592592599999
 21
61.0619564677
 31
0.0
  0
LINE
  5
BB
  8
図枠
 10
79.967851731899998
 20
-46.192704849099989
 30
0.0
 11
79.967851731899998
 21
-50.800704849100001
 31
0.0
  0
INSERT
  5
BC
  8
0
  6
CONTINUOUS
  2
*U45
 10
0.0
 20
0.0
 30
0.0
  0
LINE
  5
BD
  8
図枠
 10
60.826572286599998
 20
-65.418566475600002
 30
0.0
 11
62.0265722866
 21
-65.418566475600002
 31
0.0
  0
LINE
  5
BE
  8
図枠
 10
75.35985173189998
 20
-47.344704849099998
 30
0.0
 11
79.967851731899998
 21
-46.192704849099989
 31
0.0
  0
LINE
  5
BF
  8
図枠
 10
77.992365452299993
 20
-66.058566475600003
 30
0.0
 11
80.329043253799981
 21
-66.058566475600003
 31
0.0
  0
LINE
  5
C0
  8
図枠
 10
73.129043253800006
 20
-63.978566475600012
 30
0.0
 11
75.12797658709998
 21
-63.978566475600012
 31
0.0
  0
LINE
  5
C1
  8
図枠
 10
80.329043253799981
 20
-63.978566475600012
 30
0.0
 11
80.329043253799981
 21
-65.418566475600002
 31
0.0
  0
LINE
  5
C2
  8
図枠
 10
78.406746715600008
 20
-67.498566475600001
 30
0.0
 11
80.329043253799981
 21
-67.498566475600001
 31
0.0
  0
LINE
  5
C3
  8
図枠
 10
75.35985173189998
 20
-49.6487048491
 30
0.0
 11
79.967851731899998
 21
-50.800704849100001
 31
0.0
  0
LINE
  5
C4
  8
図枠
 10
76.489043253800006
 20
-68.618566475600005
 30
0.0
 11
76.160509920400003
 21
-67.498566475600001
 31
0.0
  0
LINE
  5
C5
  8
図枠
 10
77.992365452299993
 20
-66.058566475600003
 30
0.0
 11
77.808196001900001
 21
-65.418566475600002
 31
0.0
  0
LINE
  5
C6
  8
図枠
 10
73.129043253800006
 20
-66.058566475600003
 30
0.0
 11
73.129043253800006
 21
-67.498566475600001
 31
0.0
  0
INSERT
  5
C7
  8
0
  6
CONTINUOUS
  2
*U46
 10
0.0
 20
0.0
 30
0.0
  0
LINE
  5
C8
  8
図枠
 10
75.35985173189998
 20
-47.344704849099998
 30
0.0
 11
75.35985173189998
 21
-49.6487048491
 31
0.0
  0
LINE
  5
C9
  8
図枠
 10
84.029370920700003
 20
-44.246704849099999
 30
0.0
 11
84.029370920700003
 21
-69.746704849099984
 31
0.0
  0
LINE
  5
CA
  8
図枠
 10
75.35985173189998
 20
-49.6487048491
 30
0.0
 11
79.967851731899998
 21
-50.800704849100001
 31
0.0
  0
LINE
  5
CB
  8
図枠
 10
75.35985173189998
 20
-49.6487048491
 30
0.0
 11
79.967851731899998
 21
-50.800704849100001
 31
0.0
  0
INSERT
  5
CC
  8
0
  6
CONTINUOUS
  2
*U47
 10
0.0
 20
0.0
 30
0.0
  0
INSERT
  5
CD
  8
0
  6
CONTINUOUS
  2
*U48
 10
0.0
 20
0.0
 30
0.0
  0
LINE
  5
CE
  8
図枠
 10
75.12797658709998
 20
-63.978566475600012
 30
0.0
 11
74.7290432538
 21
-62.618566475600012
 31
0.0
  0
LINE
  5
CF
  8
図枠
 10
73.129043253800006
 20
-65.418566475600002
 30
0.0
 11
75.550376587100004
 21
-65.418566475600002
 31
0.0
  0
LINE
  5
D0
  8
図枠
 10
99.029370920700003
 20
-33.246704849099999
 30
0.0
 11
99.029370920700003
 21
-27.746704849099999
 31
0.0
  0
LINE
  5
D1
  8
図枠
 10
79.967851731899998
 20
-46.192704849099989
 30
0.0
 11
79.967851731899998
 21
-50.800704849100001
 31
0.0
  0
LINE
  5
D2
  8
図枠
 10
75.35985173189998
 20
-47.344704849099998
 30
0.0
 11
79.967851731899998
 21
-46.192704849099989
 31
0.0
  0
LINE
  5
D3
  8
図枠
 10
75.35985173189998
 20
-47.344704849099998
 30
0.0
 11
75.35985173189998
 21
-49.6487048491
 31
0.0
  0
LINE
  5
D4
  8
図枠
 10
44.029370920700003
 20
-44.246704849099999
 30
0.0
 11
44.029370920700003
 21
-27.746704849099999
 31
0.0
  0
LINE
  5
D5
  8
図枠
 10
64.155057135099995
 20
-67.018566475600011
 30
0.0
 11
65.115057135100002
 21
-67.018566475600011
 31
0.0
  0
LINE
  5
D6
  8
図枠
 10
55.226572286599989
 20
-68.218566475599999
 30
0.0
 11
58.426572286599999
 21
-68.218566475599999
 31
0.0
  0
LINE
  5
D7
  8
図枠
 10
76.489043253800006
 20
-68.618566475600005
 30
0.0
 11
78.7290432538
 21
-68.618566475600005
 31
0.0
  0
LINE
  5
D8
  8
図枠
 10
74.7290432538
 20
-62.618566475600012
 30
0.0
 11
77.929043253800003
 21
-62.618566475600012
 31
0.0
  0
LINE
  5
D9
  8
図枠
 10
78.7290432538
 20
-68.618566475600005
 30
0.0
 11
78.406746715600008
 21
-67.498566475600001
 31
0.0
  0
LINE
  5
DA
  8
図枠
 10
80.329043253799981
 20
-66.058566475600003
 30
0.0
 11
80.329043253799981
 21
-67.498566475600001
 31
0.0
  0
INSERT
  5
DB
  8
0
  6
CONTINUOUS
  2
*U49
 10
0.0
 20
0.0
 30
0.0
  0
LINE
  5
DC
  8
図枠
 10
62.0265722866
 20
-64.218566475599999
 30
0.0
 11
62.0265722866
 21
-65.418566475600002
 31
0.0
  0
LINE
  5
DD
  8
図枠
 10
62.0265722866
 20
-64.218566475599999
 30
0.0
 11
60.826572286599998
 21
-64.218566475599999
 31
0.0
  0
INSERT
  5
DE
  8
0
  6
CONTINUOUS
  2
*U50
 10
0.0
 20
0.0
 30
0.0
  0
LINE
  5
DF
  8
図枠
 10
73.129043253800006
 20
-67.498566475600001
 30
0.0
 11
76.160509920400003
 21
-67.498566475600001
 31
0.0
  0
LINE
  5
E0
  8
図枠
 10
77.808196001900001
 20
-65.418566475600002
 30
0.0
 11
80.329043253799981
 21
-65.418566475600002
 31
0.0
  0
LINE
  5
E1
  8
図枠
 10
75.35985173189998
 20
-47.344704849099998
 30
0.0
 11
75.35985173189998
 21
-49.6487048491
 31
0.0
  0
ARC
  5
E2
  8
図枠
 10
66.155057135100009
 20
-63.818566475600001
 30
0.0
 40
4.4000000000000004
 50
270.0
 51
302.54495885400001
  0
LINE
  5
E3
  8
図枠
 10
26.0293709207
 20
-48.496704849099991
 30
0.0
 11
42.029370920700003
 21
-48.496704849099991
 31
0.0
  0
INSERT
  5
E4
  8
0
  6
CONTINUOUS
  2
*U51
 10
0.0
 20
0.0
 30
0.0
  0
LINE
  5
E5
  8
図枠
 10
67.355057135099997
 20
-64.476254689499996
 30
0.0
 11
66.902508795200006
 21
-64.928803029500003
 31
0.0
  0
LINE
  5
E6
  8
図枠
 10
58.826572286599998
 20
-64.218566475599999
 30
0.0
 11
57.226572286600003
 21
-64.218566475599999
 31
0.0
  0
LINE
  5
E7
  8
図枠
 10
75.35985173189998
 20
-47.344704849099998
 30
0.0
 11
79.967851731899998
 21
-46.192704849099989
 31
0.0
  0
LINE
  5
E8
  8
図枠
 10
77.393814738599986
 20
-63.978566475600012
 30
0.0
 11
80.329043253799981
 21
-63.978566475600012
 31
0.0
  0
LINE
  5
E9
  8
図枠
 10
79.967851731899998
 20
-46.192704849099989
 30
0.0
 11
79.967851731899998
 21
-50.800704849100001
 31
0.0
  0
LINE
  5
EA
  8
図枠
 10
73.129043253800006
 20
-66.058566475600003
 30
0.0
 11
75.738109920400007
 21
-66.058566475600003
 31
0.0
  0
LINE
  5
EB
  8
図枠
 10
77.276699338400007
 20
-63.571583363199998
 30
0.0
 11
77.929043253800003
 21
-62.618566475600012
 31
0.0
  0
INSERT
  5
EC
  8
0
  6
CONTINUOUS
  2
*U52
 10
0.0
 20
0.0
 30
0.0
  0
LINE
  5
ED
  8
図枠
 10
64.155057135099995
 20
-64.058566475600003
 30
0.0
 11
68.155057135100009
 21
-64.058566475600003
 31
0.0
  0
INSERT
  5
EE
  8
0
  6
CONTINUOUS
  2
*U53
 10
0.0
 20
0.0
 30
0.0
  0
LINE
  5
EF
  8
図枠
 10
54.305689237400003
 20
-64.218566475599999
 30
0.0
 11
54.305689237400003
 21
-65.418566475600002
 31
0.0
  0
LINE
  5
F0
  8
図枠
 10
55.226572286599989
 20
-64.218566475599999
 30
0.0
 11
54.305689237400003
 21
-64.218566475599999
 31
0.0
  0
INSERT
  5
F1
  8
0
  6
CONTINUOUS
  2
*U54
 10
0.0
 20
0.0
 30
0.0
  0
LINE
  5
F2
  8
図枠
 10
54.029370920700003
 20
-52.746704849099999
 30
0.0
 11
54.029370920700003
 21
-61.246704849099999
 31
0.0
  0
INSERT
  5
F3
  8
0
  6
CONTINUOUS
  2
*U55
 10
0.0
 20
0.0
 30
0.0
  0
LINE
  5
F4
  8
図枠
 10
79.967851731899998
 20
-46.192704849099989
 30
0.0
 11
79.967851731899998
 21
-50.800704849100001
 31
0.0
  0
LINE
  5
F5
  8
図枠
 10
55.226572286599989
 20
-65.418566475600002
 30
0.0
 11
55.1056892374
 21
-65.418566475600002
 31
0.0
  0
LINE
  5
F6
  8
図枠
 10
60.826572286599998
 20
-64.218566475599999
 30
0.0
 11
60.826572286599998
 21
-63.818566475600001
 31
0.0
  0
LINE
  5
F7
  8
図枠
 10
75.35985173189998
 20
-47.344704849099998
 30
0.0
 11
75.35985173189998
 21
-49.6487048491
 31
0.0
  0
LINE
  5
F8
  8
図枠
 10
75.738109920400007
 20
-66.058566475600003
 30
0.0
 11
75.550376587100004
 21
-65.418566475600002
 31
0.0
  0
LINE
  5
F9
  8
図枠
 10
75.35985173189998
 20
-49.6487048491
 30
0.0
 11
79.967851731899998
 21
-50.800704849100001
 31
0.0
  0
LINE
  5
FA
  8
図枠
 10
73.129043253800006
 20
-63.978566475600012
 30
0.0
 11
73.129043253800006
 21
-65.418566475600002
 31
0.0
  0
LINE
  5
FB
  8
図枠
 10
64.155057135099995
 20
-62.618566475600012
 30
0.0
 11
64.155057135099995
 21
-64.058566475600003
 31
0.0
  0
ARC
  5
FC
  8
図枠
 10
57.626572286600002
 20
-65.818566475600008
 30
0.0
 40
1.1999999999999991
 50
270.0
 51
0.0
  0
LINE
  5
FD
  8
図枠
 10
64.155057135099995
 20
-64.476254689499996
 30
0.0
 11
67.355057135099997
 21
-64.476254689499996
 31
0.0
  0
LINE
  5
FE
  8
図枠
 10
60.826572286599998
 20
-65.818566475600008
 30
0.0
 11
60.826572286599998
 21
-65.418566475600002
 31
0.0
  0
LINE
  5
FF
  8
図枠
 10
44.029370920700003
 20
-44.246704849099999
 30
0.0
 11
44.029370920700003
 21
-52.746704849099999
 31
0.0
  0
LINE
  5
100
  8
図枠
 10
77.393814738599986
 20
-63.978566475600012
 30
0.0
 11
77.276699338400007
 21
-63.571583363199998
 31
0.0
  0
LINE
  5
101
  8
図枠
 10
57.226572286600003
 20
-64.218566475599999
 30
0.0
 11
57.226572286600003
 21
-63.818566475600001
 31
0.0
  0
LINE
  5
102
  8
図枠
 10
62.0265722866
 20
-62.618566475600012
 30
0.0
 11
58.826572286599998
 21
-62.618566475600012
 31
0.0
  0
LINE
  5
103
  8
図枠
 10
24.029370920700011
 20
-44.246704849099999
 30
0.0
 11
24.029370920700011
 21
-69.746704849099984
 31
0.0
  0
LINE
  5
104
  8
図枠
 10
24.029370920700011
 20
-27.746704849099999
 30
0.0
 11
24.029370920700011
 21
-44.246704849099999
 31
0.0
  0
LINE
  5
105
  8
図枠
 10
55.226572286599989
 20
-66.618566475600005
 30
0.0
 11
57.226572286600003
 21
-66.618566475600005
 31
0.0
  0
INSERT
  5
106
  8
0
  6
CONTINUOUS
  2
*U56
 10
0.0
 20
0.0
 30
0.0
  0
INSERT
  5
107
  8
0
  6
CONTINUOUS
  2
*U57
 10
0.0
 20
0.0
 30
0.0
  0
LINE
  5
108
  8
図枠
 10
24.029370920700011
 20
-52.746704849099999
 30
0.0
 11
140.02937092069999
 21
-52.746704849099999
 31
0.0
  0
LINE
  5
109
  8
図枠
 10
64.155057135099995
 20
-68.218566475599999
 30
0.0
 11
66.155057135100009
 21
-68.218566475599999
 31
0.0
  0
LINE
  5
10A
  8
図枠
 10
57.226572286600003
 20
-65.418566475600002
 30
0.0
 11
58.826572286599998
 21
-65.418566475600002
 31
0.0
  0
LINE
  5
10B
  8
図枠
 10
64.155057135099995
 20
-68.218566475599999
 30
0.0
 11
64.155057135099995
 21
-67.018566475600011
 31
0.0
  0
LINE
  5
10C
  8
図枠
 10
58.826572286599998
 20
-62.618566475600012
 30
0.0
 11
58.826572286599998
 21
-64.218566475599999
 31
0.0
  0
LINE
  5
10D
  8
図枠
 10
60.826572286599998
 20
-63.818566475600001
 30
0.0
 11
62.0265722866
 21
-62.618566475600012
 31
0.0
  0
CIRCLE
  5
10E
  8
図枠
 10
70.093370920699996
 20
-48.496704849099991
 30
0.0
 40
2.303999999999998
  0
CIRCLE
  5
10F
  8
図枠
 10
70.093370920699996
 20
-48.496704849099991
 30
0.0
 40
1.151999999999999
  0
LINE
  5
110
  8
図枠
 10
58.826572286599998
 20
-65.418566475600002
 30
0.0
 11
58.826572286599998
 21
-65.818566475600008
 31
0.0
  0
LINE
  5
111
  8
図枠
 10
57.626572286600002
 20
-67.018566475600011
 30
0.0
 11
55.226572286599989
 21
-67.018566475600011
 31
0.0
  0
LINE
  5
112
  8
図枠
 10
55.226572286599989
 20
-62.618566475600012
 30
0.0
 11
55.226572286599989
 21
-64.218566475599999
 31
0.0
  0
LINE
  5
113
  8
図枠
 10
55.226572286599989
 20
-65.418566475600002
 30
0.0
 11
55.226572286599989
 21
-66.618566475600005
 31
0.0
  0
LINE
  5
114
  8
図枠
  6
BORDER
 10
70.093370920699996
 20
-45.040704849099967
 30
0.0
 11
70.093370920699996
 21
-51.952704849100002
 31
0.0
  0
LINE
  5
115
  8
図枠
  6
BORDER
 10
70.093370920699996
 20
-45.040704849099967
 30
0.0
 11
70.093370920699996
 21
-51.952704849100002
 31
0.0
  0
POLYLINE
  5
7AC
  8
図枠
 66
     1
 10
0.0
 20
0.0
 30
0.0
 70
     8
  0
VERTEX
  5
7AD
  8
図枠
 10
69.502799999999993
 20
-66.6374
 30
0.0
 70
    32
  0
VERTEX
  5
7AE
  8
図枠
 10
69.5167
 20
-66.641300000000001
 30
0.0
 70
    32
  0
VERTEX
  5
7AF
  8
図枠
 10
69.530699999999996
 20
-66.645300000000006
 30
0.0
 70
    32
  0
VERTEX
  5
7B0
  8
図枠
 10
69.544799999999995
 20
-66.649199999999993
 30
0.0
 70
    32
  0
VERTEX
  5
7B1
  8
図枠
 10
69.558800000000005
 20
-66.653099999999995
 30
0.0
 70
    32
  0
VERTEX
  5
7B2
  8
図枠
 10
69.572800000000001
 20
-66.656999999999996
 30
0.0
 70
    32
  0
VERTEX
  5
7B3
  8
図枠
 10
69.5869
 20
-66.660799999999995
 30
0.0
 70
    32
  0
VERTEX
  5
7B4
  8
図枠
 10
69.600999999999999
 20
-66.664699999999996
 30
0.0
 70
    32
  0
VERTEX
  5
7B5
  8
図枠
 10
69.614999999999995
 20
-66.668499999999995
 30
0.0
 70
    32
  0
VERTEX
  5
7B6
  8
図枠
 10
69.629099999999994
 20
-66.672200000000004
 30
0.0
 70
    32
  0
VERTEX
  5
7B7
  8
図枠
 10
69.643199999999993
 20
-66.676000000000002
 30
0.0
 70
    32
  0
VERTEX
  5
7B8
  8
図枠
 10
69.657399999999996
 20
-66.6798
 30
0.0
 70
    32
  0
VERTEX
  5
7B9
  8
図枠
 10
69.671499999999995
 20
-66.683499999999995
 30
0.0
 70
    32
  0
VERTEX
  5
7BA
  8
図枠
 10
69.685699999999997
 20
-66.687200000000004
 30
0.0
 70
    32
  0
VERTEX
  5
7BB
  8
図枠
 10
69.699799999999996
 20
-66.690899999999999
 30
0.0
 70
    32
  0
VERTEX
  5
7BC
  8
図枠
 10
69.713999999999999
 20
-66.694500000000005
 30
0.0
 70
    32
  0
VERTEX
  5
7BD
  8
図枠
 10
69.728200000000001
 20
-66.6982
 30
0.0
 70
    32
  0
VERTEX
  5
7BE
  8
図枠
 10
69.742400000000004
 20
-66.701800000000006
 30
0.0
 70
    32
  0
VERTEX
  5
7BF
  8
図枠
 10
69.756600000000006
 20
-66.705399999999983
 30
0.0
 70
    32
  0
VERTEX
  5
7C0
  8
図枠
 10
69.770799999999994
 20
-66.709000000000003
 30
0.0
 70
    32
  0
VERTEX
  5
7C1
  8
図枠
 10
69.785099999999986
 20
-66.712500000000006
 30
0.0
 70
    32
  0
VERTEX
  5
7C2
  8
図枠
 10
69.799300000000002
 20
-66.716099999999997
 30
0.0
 70
    32
  0
VERTEX
  5
7C3
  8
図枠
 10
69.813599999999994
 20
-66.7196
 30
0.0
 70
    32
  0
VERTEX
  5
7C4
  8
図枠
 10
69.827799999999996
 20
-66.723100000000002
 30
0.0
 70
    32
  0
VERTEX
  5
7C5
  8
図枠
 10
69.842100000000002
 20
-66.726600000000005
 30
0.0
 70
    32
  0
VERTEX
  5
7C6
  8
図枠
 10
69.856399999999994
 20
-66.730000000000004
 30
0.0
 70
    32
  0
VERTEX
  5
7C7
  8
図枠
 10
69.870699999999999
 20
-66.733500000000006
 30
0.0
 70
    32
  0
VERTEX
  5
7C8
  8
図枠
 10
69.885000000000005
 20
-66.736900000000006
 30
0.0
 70
    32
  0
VERTEX
  5
7C9
  8
図枠
 10
69.8994
 20
-66.740300000000005
 30
0.0
 70
    32
  0
VERTEX
  5
7CA
  8
図枠
 10
69.913700000000006
 20
-66.743700000000004
 30
0.0
 70
    32
  0
VERTEX
  5
7CB
  8
図枠
 10
69.928100000000001
 20
-66.747100000000003
 30
0.0
 70
    32
  0
VERTEX
  5
7CC
  8
図枠
 10
69.942400000000006
 20
-66.750500000000002
 30
0.0
 70
    32
  0
VERTEX
  5
7CD
  8
図枠
 10
69.956800000000001
 20
-66.753799999999998
 30
0.0
 70
    32
  0
VERTEX
  5
7CE
  8
図枠
 10
69.971199999999996
 20
-66.757099999999994
 30
0.0
 70
    32
  0
VERTEX
  5
7CF
  8
図枠
 10
69.985600000000005
 20
-66.760400000000004
 30
0.0
 70
    32
  0
VERTEX
  5
7D0
  8
図枠
 10
70.0
 20
-66.7637
 30
0.0
 70
    32
  0
VERTEX
  5
7D1
  8
図枠
 10
70.014399999999995
 20
-66.766999999999996
 30
0.0
 70
    32
  0
VERTEX
  5
7D2
  8
図枠
 10
70.028800000000004
 20
-66.770300000000006
 30
0.0
 70
    32
  0
VERTEX
  5
7D3
  8
図枠
 10
70.043300000000002
 20
-66.773499999999999
 30
0.0
 70
    32
  0
VERTEX
  5
7D4
  8
図枠
 10
70.057699999999997
 20
-66.776700000000005
 30
0.0
 70
    32
  0
VERTEX
  5
7D5
  8
図枠
 10
70.072199999999995
 20
-66.779899999999998
 30
0.0
 70
    32
  0
VERTEX
  5
7D6
  8
図枠
 10
70.086600000000004
 20
-66.783100000000005
 30
0.0
 70
    32
  0
VERTEX
  5
7D7
  8
図枠
 10
70.101100000000002
 20
-66.786299999999997
 30
0.0
 70
    32
  0
VERTEX
  5
7D8
  8
図枠
 10
70.115600000000001
 20
-66.789500000000004
 30
0.0
 70
    32
  0
VERTEX
  5
7D9
  8
図枠
 10
70.130099999999999
 20
-66.792599999999993
 30
0.0
 70
    32
  0
VERTEX
  5
7DA
  8
図枠
 10
70.144599999999997
 20
-66.795699999999997
 30
0.0
 70
    32
  0
VERTEX
  5
7DB
  8
図枠
 10
70.159099999999995
 20
-66.798900000000003
 30
0.0
 70
    32
  0
VERTEX
  5
7DC
  8
図枠
 10
70.173599999999993
 20
-66.802000000000007
 30
0.0
 70
    32
  0
VERTEX
  5
7DD
  8
図枠
 10
70.188199999999995
 20
-66.805000000000007
 30
0.0
 70
    32
  0
VERTEX
  5
7DE
  8
図枠
 10
70.202699999999993
 20
-66.808099999999996
 30
0.0
 70
    32
  0
VERTEX
  5
7DF
  8
図枠
 10
70.217299999999994
 20
-66.811199999999985
 30
0.0
 70
    32
  0
VERTEX
  5
7E0
  8
図枠
 10
70.231800000000007
 20
-66.8142
 30
0.0
 70
    32
  0
VERTEX
  5
7E1
  8
図枠
 10
70.246399999999994
 20
-66.8172
 30
0.0
 70
    32
  0
VERTEX
  5
7E2
  8
図枠
 10
70.260999999999996
 20
-66.820300000000003
 30
0.0
 70
    32
  0
VERTEX
  5
7E3
  8
図枠
 10
70.275599999999997
 20
-66.823300000000003
 30
0.0
 70
    32
  0
VERTEX
  5
7E4
  8
図枠
 10
70.290099999999995
 20
-66.826300000000003
 30
0.0
 70
    32
  0
VERTEX
  5
7E5
  8
図枠
 10
70.304699999999997
 20
-66.8292
 30
0.0
 70
    32
  0
VERTEX
  5
7E6
  8
図枠
 10
70.319400000000002
 20
-66.8322
 30
0.0
 70
    32
  0
VERTEX
  5
7E7
  8
図枠
 10
70.334000000000003
 20
-66.8352
 30
0.0
 70
    32
  0
VERTEX
  5
7E8
  8
図枠
 10
70.348600000000005
 20
-66.838099999999997
 30
0.0
 70
    32
  0
VERTEX
  5
7E9
  8
図枠
 10
70.363200000000006
 20
-66.840999999999994
 30
0.0
 70
    32
  0
VERTEX
  5
7EA
  8
図枠
 10
70.377899999999997
 20
-66.843900000000005
 30
0.0
 70
    32
  0
VERTEX
  5
7EB
  8
図枠
 10
70.392499999999998
 20
-66.846800000000002
 30
0.0
 70
    32
  0
VERTEX
  5
7EC
  8
図枠
 10
70.407200000000003
 20
-66.849699999999984
 30
0.0
 70
    32
  0
VERTEX
  5
7ED
  8
図枠
 10
70.421800000000005
 20
-66.852599999999995
 30
0.0
 70
    32
  0
VERTEX
  5
7EE
  8
図枠
 10
70.436499999999995
 20
-66.855500000000006
 30
0.0
 70
    32
  0
VERTEX
  5
7EF
  8
図枠
 10
70.4512
 20
-66.8583
 30
0.0
 70
    32
  0
VERTEX
  5
7F0
  8
図枠
 10
70.465800000000002
 20
-66.861199999999997
 30
0.0
 70
    32
  0
VERTEX
  5
7F1
  8
図枠
 10
70.480500000000021
 20
-66.864000000000004
 30
0.0
 70
    32
  0
VERTEX
  5
7F2
  8
図枠
 10
70.495199999999997
 20
-66.866799999999984
 30
0.0
 70
    32
  0
VERTEX
  5
7F3
  8
図枠
 10
70.509900000000002
 20
-66.869699999999995
 30
0.0
 70
    32
  0
VERTEX
  5
7F4
  8
図枠
 10
70.524600000000021
 20
-66.872500000000002
 30
0.0
 70
    32
  0
VERTEX
  5
7F5
  8
図枠
 10
70.539400000000001
 20
-66.875299999999996
 30
0.0
 70
    32
  0
VERTEX
  5
7F6
  8
図枠
 10
70.554100000000005
 20
-66.878
 30
0.0
 70
    32
  0
VERTEX
  5
7F7
  8
図枠
 10
70.568799999999996
 20
-66.880799999999994
 30
0.0
 70
    32
  0
VERTEX
  5
7F8
  8
図枠
 10
70.583500000000001
 20
-66.883600000000001
 30
0.0
 70
    32
  0
VERTEX
  5
7F9
  8
図枠
 10
70.598299999999995
 20
-66.886300000000006
 30
0.0
 70
    32
  0
VERTEX
  5
7FA
  8
図枠
 10
70.613
 20
-66.889099999999985
 30
0.0
 70
    32
  0
VERTEX
  5
7FB
  8
図枠
 10
70.627799999999979
 20
-66.891800000000003
 30
0.0
 70
    32
  0
VERTEX
  5
7FC
  8
図枠
 10
70.642499999999998
 20
-66.894499999999994
 30
0.0
 70
    32
  0
VERTEX
  5
7FD
  8
図枠
 10
70.657300000000021
 20
-66.897300000000001
 30
0.0
 70
    32
  0
VERTEX
  5
7FE
  8
図枠
 10
70.671999999999997
 20
-66.900000000000006
 30
0.0
 70
    32
  0
VERTEX
  5
7FF
  8
図枠
 10
70.686800000000019
 20
-66.902699999999996
 30
0.0
 70
    32
  0
VERTEX
  5
800
  8
図枠
 10
70.701599999999999
 20
-66.9054
 30
0.0
 70
    32
  0
VERTEX
  5
801
  8
図枠
 10
70.716399999999979
 20
-66.908000000000001
 30
0.0
 70
    32
  0
VERTEX
  5
802
  8
図枠
 10
70.731200000000001
 20
-66.910700000000006
 30
0.0
 70
    32
  0
VERTEX
  5
803
  8
図枠
 10
70.745999999999995
 20
-66.913399999999996
 30
0.0
 70
    32
  0
VERTEX
  5
804
  8
図枠
 10
70.760800000000003
 20
-66.9161
 30
0.0
 70
    32
  0
VERTEX
  5
805
  8
図枠
 10
70.775599999999997
 20
-66.918700000000001
 30
0.0
 70
    32
  0
VERTEX
  5
806
  8
図枠
 10
70.79040000000002
 20
-66.921400000000006
 30
0.0
 70
    32
  0
VERTEX
  5
807
  8
図枠
 10
70.805199999999985
 20
-66.924000000000007
 30
0.0
 70
    32
  0
VERTEX
  5
808
  8
図枠
 10
70.819999999999979
 20
-66.926599999999993
 30
0.0
 70
    32
  0
VERTEX
  5
809
  8
図枠
 10
70.834800000000001
 20
-66.929299999999998
 30
0.0
 70
    32
  0
VERTEX
  5
80A
  8
図枠
 10
70.849599999999995
 20
-66.931899999999999
 30
0.0
 70
    32
  0
VERTEX
  5
80B
  8
図枠
 10
70.864400000000003
 20
-66.9345
 30
0.0
 70
    32
  0
VERTEX
  5
80C
  8
図枠
 10
70.879300000000001
 20
-66.937100000000001
 30
0.0
 70
    32
  0
VERTEX
  5
80D
  8
図枠
 10
70.894099999999995
 20
-66.939700000000002
 30
0.0
 70
    32
  0
VERTEX
  5
80E
  8
図枠
 10
70.908900000000003
 20
-66.942300000000003
 30
0.0
 70
    32
  0
VERTEX
  5
80F
  8
図枠
 10
70.9238
 20
-66.944900000000004
 30
0.0
 70
    32
  0
VERTEX
  5
810
  8
図枠
 10
70.938599999999994
 20
-66.947500000000005
 30
0.0
 70
    32
  0
VERTEX
  5
811
  8
図枠
 10
70.95350000000002
 20
-66.950100000000006
 30
0.0
 70
    32
  0
VERTEX
  5
812
  8
図枠
 10
70.968299999999999
 20
-66.952699999999993
 30
0.0
 70
    32
  0
VERTEX
  5
813
  8
図枠
 10
70.983199999999997
 20
-66.955200000000005
 30
0.0
 70
    32
  0
VERTEX
  5
814
  8
図枠
 10
70.998000000000005
 20
-66.957800000000006
 30
0.0
 70
    32
  0
VERTEX
  5
815
  8
図枠
 10
71.012900000000002
 20
-66.960400000000007
 30
0.0
 70
    32
  0
VERTEX
  5
816
  8
図枠
 10
71.027699999999996
 20
-66.962900000000005
 30
0.0
 70
    32
  0
VERTEX
  5
817
  8
図枠
 10
71.042599999999979
 20
-66.965500000000006
 30
0.0
 70
    32
  0
VERTEX
  5
818
  8
図枠
 10
71.057500000000019
 20
-66.968000000000004
 30
0.0
 70
    32
  0
VERTEX
  5
819
  8
図枠
 10
71.072299999999998
 20
-66.970600000000005
 30
0.0
 70
    32
  0
VERTEX
  5
81A
  8
図枠
 10
71.087199999999996
 20
-66.973100000000002
 30
0.0
 70
    32
  0
VERTEX
  5
81B
  8
図枠
 10
71.102099999999979
 20
-66.975700000000003
 30
0.0
 70
    32
  0
VERTEX
  5
81C
  8
図枠
 10
71.116900000000001
 20
-66.978200000000001
 30
0.0
 70
    32
  0
VERTEX
  5
81D
  8
図枠
 10
71.131799999999984
 20
-66.980699999999999
 30
0.0
 70
    32
  0
VERTEX
  5
81E
  8
図枠
 10
71.146699999999996
 20
-66.9833
 30
0.0
 70
    32
  0
VERTEX
  5
81F
  8
図枠
 10
71.161600000000021
 20
-66.985799999999983
 30
0.0
 70
    32
  0
VERTEX
  5
820
  8
図枠
 10
71.176400000000001
 20
-66.988299999999995
 30
0.0
 70
    32
  0
VERTEX
  5
821
  8
図枠
 10
71.191299999999998
 20
-66.990899999999996
 30
0.0
 70
    32
  0
VERTEX
  5
822
  8
図枠
 10
71.206199999999995
 20
-66.993399999999994
 30
0.0
 70
    32
  0
VERTEX
  5
823
  8
図枠
 10
71.221100000000021
 20
-66.995900000000006
 30
0.0
 70
    32
  0
VERTEX
  5
824
  8
図枠
 10
71.236000000000004
 20
-66.998400000000004
 30
0.0
 70
    32
  0
VERTEX
  5
825
  8
図枠
 10
71.250799999999998
 20
-67.001000000000005
 30
0.0
 70
    32
  0
VERTEX
  5
826
  8
図枠
 10
71.265699999999995
 20
-67.003500000000003
 30
0.0
 70
    32
  0
VERTEX
  5
827
  8
図枠
 10
71.280600000000021
 20
-67.006
 30
0.0
 70
    32
  0
VERTEX
  5
828
  8
図枠
 10
71.295500000000004
 20
-67.008499999999984
 30
0.0
 70
    32
  0
VERTEX
  5
829
  8
図枠
 10
71.310400000000001
 20
-67.010999999999996
 30
0.0
 70
    32
  0
VERTEX
  5
82A
  8
図枠
 10
71.325299999999999
 20
-67.013499999999993
 30
0.0
 70
    32
  0
VERTEX
  5
82B
  8
図枠
 10
71.340199999999996
 20
-67.016099999999994
 30
0.0
 70
    32
  0
VERTEX
  5
82C
  8
図枠
 10
71.355099999999979
 20
-67.018600000000006
 30
0.0
 70
    32
  0
SEQEND
  5
82D
  8
図枠
  0
CIRCLE
  5
117
  8
図枠
 10
70.093370920699996
 20
-48.496704849099991
 30
0.0
 40
1.151999999999999
  0
INSERT
  5
118
  8
0
  6
CONTINUOUS
  2
*U58
 10
0.0
 20
0.0
 30
0.0
  0
INSERT
  5
119
  8
0
  6
CONTINUOUS
  2
*U59
 10
0.0
 20
0.0
 30
0.0
  0
INSERT
  5
11A
  8
0
  6
CONTINUOUS
  2
*U60
 10
0.0
 20
0.0
 30
0.0
  0
POLYLINE
  5
82E
  8
図枠
 66
     1
 10
0.0
 20
0.0
 30
0.0
 70
     8
  0
VERTEX
  5
82F
  8
図枠
 10
64.155100000000004
 20
-64.733900000000006
 30
0.0
 70
    32
  0
VERTEX
  5
830
  8
図枠
 10
64.169499999999985
 20
-64.747200000000007
 30
0.0
 70
    32
  0
VERTEX
  5
831
  8
図枠
 10
64.183899999999994
 20
-64.760499999999993
 30
0.0
 70
    32
  0
VERTEX
  5
832
  8
図枠
 10
64.198300000000003
 20
-64.773799999999994
 30
0.0
 70
    32
  0
VERTEX
  5
833
  8
図枠
 10
64.212699999999984
 20
-64.787099999999995
 30
0.0
 70
    32
  0
VERTEX
  5
834
  8
図枠
 10
64.227099999999993
 20
-64.800299999999993
 30
0.0
 70
    32
  0
VERTEX
  5
835
  8
図枠
 10
64.241500000000002
 20
-64.813599999999994
 30
0.0
 70
    32
  0
VERTEX
  5
836
  8
図枠
 10
64.255899999999997
 20
-64.826899999999995
 30
0.0
 70
    32
  0
VERTEX
  5
837
  8
図枠
 10
64.270300000000006
 20
-64.840199999999996
 30
0.0
 70
    32
  0
VERTEX
  5
838
  8
図枠
 10
64.284800000000004
 20
-64.853399999999993
 30
0.0
 70
    32
  0
VERTEX
  5
839
  8
図枠
 10
64.299199999999999
 20
-64.866699999999994
 30
0.0
 70
    32
  0
VERTEX
  5
83A
  8
図枠
 10
64.313599999999994
 20
-64.879999999999995
 30
0.0
 70
    32
  0
VERTEX
  5
83B
  8
図枠
 10
64.328000000000003
 20
-64.893199999999993
 30
0.0
 70
    32
  0
VERTEX
  5
83C
  8
図枠
 10
64.342399999999984
 20
-64.906499999999994
 30
0.0
 70
    32
  0
VERTEX
  5
83D
  8
図枠
 10
64.356899999999996
 20
-64.919799999999995
 30
0.0
 70
    32
  0
VERTEX
  5
83E
  8
図枠
 10
64.371300000000005
 20
-64.933000000000007
 30
0.0
 70
    32
  0
VERTEX
  5
83F
  8
図枠
 10
64.3857
 20
-64.946299999999994
 30
0.0
 70
    32
  0
VERTEX
  5
840
  8
図枠
 10
64.400099999999995
 20
-64.959500000000006
 30
0.0
 70
    32
  0
VERTEX
  5
841
  8
図枠
 10
64.414599999999993
 20
-64.972800000000007
 30
0.0
 70
    32
  0
VERTEX
  5
842
  8
図枠
 10
64.429000000000002
 20
-64.986000000000004
 30
0.0
 70
    32
  0
VERTEX
  5
843
  8
図枠
 10
64.443399999999997
 20
-64.999200000000002
 30
0.0
 70
    32
  0
VERTEX
  5
844
  8
図枠
 10
64.457899999999995
 20
-65.0124
 30
0.0
 70
    32
  0
VERTEX
  5
845
  8
図枠
 10
64.472300000000004
 20
-65.025700000000001
 30
0.0
 70
    32
  0
VERTEX
  5
846
  8
図枠
 10
64.486800000000002
 20
-65.038899999999998
 30
0.0
 70
    32
  0
VERTEX
  5
847
  8
図枠
 10
64.501199999999997
 20
-65.052099999999996
 30
0.0
 70
    32
  0
VERTEX
  5
848
  8
図枠
 10
64.515699999999995
 20
-65.065299999999993
 30
0.0
 70
    32
  0
VERTEX
  5
849
  8
図枠
 10
64.530100000000004
 20
-65.078500000000005
 30
0.0
 70
    32
  0
VERTEX
  5
84A
  8
図枠
 10
64.544600000000003
 20
-65.091700000000003
 30
0.0
 70
    32
  0
VERTEX
  5
84B
  8
図枠
 10
64.559100000000001
 20
-65.104799999999997
 30
0.0
 70
    32
  0
VERTEX
  5
84C
  8
図枠
 10
64.573499999999996
 20
-65.117999999999995
 30
0.0
 70
    32
  0
VERTEX
  5
84D
  8
図枠
 10
64.587999999999994
 20
-65.131200000000007
 30
0.0
 70
    32
  0
VERTEX
  5
84E
  8
図枠
 10
64.602500000000006
 20
-65.144300000000001
 30
0.0
 70
    32
  0
VERTEX
  5
84F
  8
図枠
 10
64.617000000000004
 20
-65.157499999999999
 30
0.0
 70
    32
  0
VERTEX
  5
850
  8
図枠
 10
64.631500000000003
 20
-65.170599999999993
 30
0.0
 70
    32
  0
VERTEX
  5
851
  8
図枠
 10
64.645899999999997
 20
-65.183700000000002
 30
0.0
 70
    32
  0
VERTEX
  5
852
  8
図枠
 10
64.660399999999996
 20
-65.196799999999996
 30
0.0
 70
    32
  0
VERTEX
  5
853
  8
図枠
 10
64.674899999999994
 20
-65.209900000000005
 30
0.0
 70
    32
  0
VERTEX
  5
854
  8
図枠
 10
64.689499999999995
 20
-65.222999999999999
 30
0.0
 70
    32
  0
VERTEX
  5
855
  8
図枠
 10
64.703999999999994
 20
-65.236099999999993
 30
0.0
 70
    32
  0
VERTEX
  5
856
  8
図枠
 10
64.718500000000006
 20
-65.249200000000002
 30
0.0
 70
    32
  0
VERTEX
  5
857
  8
図枠
 10
64.733000000000004
 20
-65.262299999999996
 30
0.0
 70
    32
  0
VERTEX
  5
858
  8
図枠
 10
64.747500000000002
 20
-65.275300000000001
 30
0.0
 70
    32
  0
VERTEX
  5
859
  8
図枠
 10
64.762100000000004
 20
-65.288399999999996
 30
0.0
 70
    32
  0
VERTEX
  5
85A
  8
図枠
 10
64.776600000000002
 20
-65.301400000000001
 30
0.0
 70
    32
  0
VERTEX
  5
85B
  8
図枠
 10
64.791200000000003
 20
-65.314400000000006
 30
0.0
 70
    32
  0
VERTEX
  5
85C
  8
図枠
 10
64.805700000000002
 20
-65.327399999999997
 30
0.0
 70
    32
  0
VERTEX
  5
85D
  8
図枠
 10
64.820300000000003
 20
-65.340400000000002
 30
0.0
 70
    32
  0
VERTEX
  5
85E
  8
図枠
 10
64.834900000000005
 20
-65.353399999999993
 30
0.0
 70
    32
  0
VERTEX
  5
85F
  8
図枠
 10
64.849500000000006
 20
-65.366399999999999
 30
0.0
 70
    32
  0
VERTEX
  5
860
  8
図枠
 10
64.864000000000004
 20
-65.379300000000001
 30
0.0
 70
    32
  0
VERTEX
  5
861
  8
図枠
 10
64.878600000000006
 20
-65.392300000000006
 30
0.0
 70
    32
  0
VERTEX
  5
862
  8
図枠
 10
64.893199999999993
 20
-65.405199999999994
 30
0.0
 70
    32
  0
VERTEX
  5
863
  8
図枠
 10
64.907799999999995
 20
-65.418099999999995
 30
0.0
 70
    32
  0
VERTEX
  5
864
  8
図枠
 10
64.922499999999999
 20
-65.430999999999983
 30
0.0
 70
    32
  0
VERTEX
  5
865
  8
図枠
 10
64.937100000000001
 20
-65.443899999999985
 30
0.0
 70
    32
  0
VERTEX
  5
866
  8
図枠
 10
64.951700000000002
 20
-65.456800000000001
 30
0.0
 70
    32
  0
VERTEX
  5
867
  8
図枠
 10
64.966300000000004
 20
-65.4696
 30
0.0
 70
    32
  0
VERTEX
  5
868
  8
図枠
 10
64.980999999999995
 20
-65.482500000000002
 30
0.0
 70
    32
  0
VERTEX
  5
869
  8
図枠
 10
64.995599999999996
 20
-65.4953
 30
0.0
 70
    32
  0
VERTEX
  5
86A
  8
図枠
 10
65.010300000000001
 20
-65.508099999999999
 30
0.0
 70
    32
  0
VERTEX
  5
86B
  8
図枠
 10
65.025000000000006
 20
-65.520899999999983
 30
0.0
 70
    32
  0
VERTEX
  5
86C
  8
図枠
 10
65.039699999999996
 20
-65.533699999999996
 30
0.0
 70
    32
  0
VERTEX
  5
86D
  8
図枠
 10
65.054400000000001
 20
-65.546499999999995
 30
0.0
 70
    32
  0
VERTEX
  5
86E
  8
図枠
 10
65.069100000000006
 20
-65.559200000000004
 30
0.0
 70
    32
  0
VERTEX
  5
86F
  8
図枠
 10
65.083799999999997
 20
-65.571899999999999
 30
0.0
 70
    32
  0
VERTEX
  5
870
  8
図枠
 10
65.098500000000001
 20
-65.584599999999995
 30
0.0
 70
    32
  0
VERTEX
  5
871
  8
図枠
 10
65.113200000000006
 20
-65.597300000000004
 30
0.0
 70
    32
  0
VERTEX
  5
872
  8
図枠
 10
65.128
 20
-65.609999999999985
 30
0.0
 70
    32
  0
VERTEX
  5
873
  8
図枠
 10
65.142700000000005
 20
-65.622600000000006
 30
0.0
 70
    32
  0
VERTEX
  5
874
  8
図枠
 10
65.157499999999999
 20
-65.635300000000001
 30
0.0
 70
    32
  0
VERTEX
  5
875
  8
図枠
 10
65.172200000000004
 20
-65.647900000000007
 30
0.0
 70
    32
  0
VERTEX
  5
876
  8
図枠
 10
65.186999999999983
 20
-65.660499999999999
 30
0.0
 70
    32
  0
VERTEX
  5
877
  8
図枠
 10
65.201800000000006
 20
-65.673100000000005
 30
0.0
 70
    32
  0
VERTEX
  5
878
  8
図枠
 10
65.2166
 20
-65.685599999999994
 30
0.0
 70
    32
  0
VERTEX
  5
879
  8
図枠
 10
65.231399999999994
 20
-65.698099999999997
 30
0.0
 70
    32
  0
VERTEX
  5
87A
  8
図枠
 10
65.246300000000005
 20
-65.710700000000003
 30
0.0
 70
    32
  0
VERTEX
  5
87B
  8
図枠
 10
65.261099999999999
 20
-65.723200000000006
 30
0.0
 70
    32
  0
VERTEX
  5
87C
  8
図枠
 10
65.275899999999993
 20
-65.735600000000005
 30
0.0
 70
    32
  0
VERTEX
  5
87D
  8
図枠
 10
65.290800000000004
 20
-65.748099999999994
 30
0.0
 70
    32
  0
VERTEX
  5
87E
  8
図枠
 10
65.305700000000002
 20
-65.760499999999993
 30
0.0
 70
    32
  0
VERTEX
  5
87F
  8
図枠
 10
65.320499999999996
 20
-65.772900000000007
 30
0.0
 70
    32
  0
VERTEX
  5
880
  8
図枠
 10
65.335400000000007
 20
-65.785300000000007
 30
0.0
 70
    32
  0
VERTEX
  5
881
  8
図枠
 10
65.350300000000004
 20
-65.797700000000006
 30
0.0
 70
    32
  0
VERTEX
  5
882
  8
図枠
 10
65.365300000000005
 20
-65.810000000000002
 30
0.0
 70
    32
  0
VERTEX
  5
883
  8
図枠
 10
65.380200000000002
 20
-65.822299999999998
 30
0.0
 70
    32
  0
VERTEX
  5
884
  8
図枠
 10
65.395099999999985
 20
-65.834599999999995
 30
0.0
 70
    32
  0
VERTEX
  5
885
  8
図枠
 10
65.410099999999986
 20
-65.846900000000005
 30
0.0
 70
    32
  0
VERTEX
  5
886
  8
図枠
 10
65.4251
 20
-65.859099999999998
 30
0.0
 70
    32
  0
VERTEX
  5
887
  8
図枠
 10
65.439999999999998
 20
-65.871399999999994
 30
0.0
 70
    32
  0
VERTEX
  5
888
  8
図枠
 10
65.454999999999998
 20
-65.883600000000001
 30
0.0
 70
    32
  0
VERTEX
  5
889
  8
図枠
 10
65.469999999999999
 20
-65.895700000000005
 30
0.0
 70
    32
  0
VERTEX
  5
88A
  8
図枠
 10
65.485100000000003
 20
-65.907899999999998
 30
0.0
 70
    32
  0
VERTEX
  5
88B
  8
図枠
 10
65.500100000000003
 20
-65.920000000000002
 30
0.0
 70
    32
  0
VERTEX
  5
88C
  8
図枠
 10
65.515100000000004
 20
-65.932100000000005
 30
0.0
 70
    32
  0
VERTEX
  5
88D
  8
図枠
 10
65.530199999999994
 20
-65.944199999999995
 30
0.0
 70
    32
  0
VERTEX
  5
88E
  8
図枠
 10
65.545299999999983
 20
-65.956199999999995
 30
0.0
 70
    32
  0
VERTEX
  5
88F
  8
図枠
 10
65.560400000000001
 20
-65.968299999999999
 30
0.0
 70
    32
  0
VERTEX
  5
890
  8
図枠
 10
65.575500000000005
 20
-65.9803
 30
0.0
 70
    32
  0
VERTEX
  5
891
  8
図枠
 10
65.590599999999995
 20
-65.992199999999997
 30
0.0
 70
    32
  0
VERTEX
  5
892
  8
図枠
 10
65.605699999999999
 20
-66.004199999999983
 30
0.0
 70
    32
  0
VERTEX
  5
893
  8
図枠
 10
65.620900000000006
 20
-66.016099999999994
 30
0.0
 70
    32
  0
VERTEX
  5
894
  8
図枠
 10
65.636099999999999
 20
-66.028000000000006
 30
0.0
 70
    32
  0
VERTEX
  5
895
  8
図枠
 10
65.651200000000003
 20
-66.039799999999985
 30
0.0
 70
    32
  0
VERTEX
  5
896
  8
図枠
 10
65.666399999999996
 20
-66.051599999999993
 30
0.0
 70
    32
  0
VERTEX
  5
897
  8
図枠
 10
65.681600000000003
 20
-66.063500000000005
 30
0.0
 70
    32
  0
VERTEX
  5
898
  8
図枠
 10
65.696899999999999
 20
-66.075199999999995
 30
0.0
 70
    32
  0
VERTEX
  5
899
  8
図枠
 10
65.712100000000007
 20
-66.087000000000003
 30
0.0
 70
    32
  0
VERTEX
  5
89A
  8
図枠
 10
65.727400000000003
 20
-66.098699999999994
 30
0.0
 70
    32
  0
VERTEX
  5
89B
  8
図枠
 10
65.742599999999996
 20
-66.110399999999998
 30
0.0
 70
    32
  0
VERTEX
  5
89C
  8
図枠
 10
65.757900000000006
 20
-66.122
 30
0.0
 70
    32
  0
VERTEX
  5
89D
  8
図枠
 10
65.773200000000003
 20
-66.133600000000001
 30
0.0
 70
    32
  0
VERTEX
  5
89E
  8
図枠
 10
65.788499999999999
 20
-66.145200000000003
 30
0.0
 70
    32
  0
VERTEX
  5
89F
  8
図枠
 10
65.803899999999999
 20
-66.156800000000004
 30
0.0
 70
    32
  0
VERTEX
  5
8A0
  8
図枠
 10
65.819199999999995
 20
-66.168300000000002
 30
0.0
 70
    32
  0
VERTEX
  5
8A1
  8
図枠
 10
65.834599999999995
 20
-66.1798
 30
0.0
 70
    32
  0
VERTEX
  5
8A2
  8
図枠
 10
65.849999999999994
 20
-66.191299999999998
 30
0.0
 70
    32
  0
VERTEX
  5
8A3
  8
図枠
 10
65.865399999999994
 20
-66.202699999999993
 30
0.0
 70
    32
  0
VERTEX
  5
8A4
  8
図枠
 10
65.880799999999994
 20
-66.214200000000005
 30
0.0
 70
    32
  0
VERTEX
  5
8A5
  8
図枠
 10
65.896299999999997
 20
-66.225499999999997
 30
0.0
 70
    32
  0
VERTEX
  5
8A6
  8
図枠
 10
65.911699999999996
 20
-66.236900000000006
 30
0.0
 70
    32
  0
VERTEX
  5
8A7
  8
図枠
 10
65.927199999999985
 20
-66.248199999999997
 30
0.0
 70
    32
  0
VERTEX
  5
8A8
  8
図枠
 10
65.942700000000002
 20
-66.259399999999985
 30
0.0
 70
    32
  0
VERTEX
  5
8A9
  8
図枠
 10
65.958200000000005
 20
-66.270700000000005
 30
0.0
 70
    32
  0
VERTEX
  5
8AA
  8
図枠
 10
65.973799999999997
 20
-66.281899999999993
 30
0.0
 70
    32
  0
VERTEX
  5
8AB
  8
図枠
 10
65.9893
 20
-66.293099999999995
 30
0.0
 70
    32
  0
VERTEX
  5
8AC
  8
図枠
 10
66.004900000000006
 20
-66.304199999999994
 30
0.0
 70
    32
  0
VERTEX
  5
8AD
  8
図枠
 10
66.020499999999998
 20
-66.315299999999993
 30
0.0
 70
    32
  0
VERTEX
  5
8AE
  8
図枠
 10
66.036100000000005
 20
-66.326400000000007
 30
0.0
 70
    32
  0
VERTEX
  5
8AF
  8
図枠
 10
66.051699999999997
 20
-66.337400000000002
 30
0.0
 70
    32
  0
VERTEX
  5
8B0
  8
図枠
 10
66.067300000000003
 20
-66.348399999999998
 30
0.0
 70
    32
  0
VERTEX
  5
8B1
  8
図枠
 10
66.082999999999984
 20
-66.359399999999994
 30
0.0
 70
    32
  0
VERTEX
  5
8B2
  8
図枠
 10
66.098699999999994
 20
-66.3703
 30
0.0
 70
    32
  0
VERTEX
  5
8B3
  8
図枠
 10
66.114400000000003
 20
-66.381200000000007
 30
0.0
 70
    32
  0
VERTEX
  5
8B4
  8
図枠
 10
66.130099999999999
 20
-66.392099999999999
 30
0.0
 70
    32
  0
VERTEX
  5
8B5
  8
図枠
 10
66.145799999999994
 20
-66.402900000000002
 30
0.0
 70
    32
  0
VERTEX
  5
8B6
  8
図枠
 10
66.161600000000007
 20
-66.413700000000006
 30
0.0
 70
    32
  0
VERTEX
  5
8B7
  8
図枠
 10
66.177400000000006
 20
-66.424400000000006
 30
0.0
 70
    32
  0
VERTEX
  5
8B8
  8
図枠
 10
66.193200000000004
 20
-66.435100000000006
 30
0.0
 70
    32
  0
VERTEX
  5
8B9
  8
図枠
 10
66.209000000000003
 20
-66.445800000000006
 30
0.0
 70
    32
  0
VERTEX
  5
8BA
  8
図枠
 10
66.224800000000002
 20
-66.456400000000002
 30
0.0
 70
    32
  0
VERTEX
  5
8BB
  8
図枠
 10
66.240700000000004
 20
-66.466999999999999
 30
0.0
 70
    32
  0
VERTEX
  5
8BC
  8
図枠
 10
66.256600000000006
 20
-66.477599999999995
 30
0.0
 70
    32
  0
VERTEX
  5
8BD
  8
図枠
 10
66.272499999999994
 20
-66.488100000000003
 30
0.0
 70
    32
  0
VERTEX
  5
8BE
  8
図枠
 10
66.288399999999996
 20
-66.498500000000007
 30
0.0
 70
    32
  0
VERTEX
  5
8BF
  8
図枠
 10
66.304400000000001
 20
-66.509
 30
0.0
 70
    32
  0
VERTEX
  5
8C0
  8
図枠
 10
66.320300000000003
 20
-66.519400000000005
 30
0.0
 70
    32
  0
VERTEX
  5
8C1
  8
図枠
 10
66.336299999999994
 20
-66.529700000000005
 30
0.0
 70
    32
  0
VERTEX
  5
8C2
  8
図枠
 10
66.352400000000003
 20
-66.540000000000006
 30
0.0
 70
    32
  0
VERTEX
  5
8C3
  8
図枠
 10
66.368399999999994
 20
-66.550299999999993
 30
0.0
 70
    32
  0
VERTEX
  5
8C4
  8
図枠
 10
66.384399999999999
 20
-66.560599999999994
 30
0.0
 70
    32
  0
VERTEX
  5
8C5
  8
図枠
 10
66.400499999999994
 20
-66.570700000000002
 30
0.0
 70
    32
  0
VERTEX
  5
8C6
  8
図枠
 10
66.416600000000003
 20
-66.5809
 30
0.0
 70
    32
  0
VERTEX
  5
8C7
  8
図枠
 10
66.4328
 20
-66.590999999999994
 30
0.0
 70
    32
  0
VERTEX
  5
8C8
  8
図枠
 10
66.448899999999995
 20
-66.601100000000002
 30
0.0
 70
    32
  0
VERTEX
  5
8C9
  8
図枠
 10
66.465100000000007
 20
-66.611099999999993
 30
0.0
 70
    32
  0
VERTEX
  5
8CA
  8
図枠
 10
66.481300000000005
 20
-66.621099999999998
 30
0.0
 70
    32
  0
VERTEX
  5
8CB
  8
図枠
 10
66.497500000000002
 20
-66.631
 30
0.0
 70
    32
  0
VERTEX
  5
8CC
  8
図枠
 10
66.5137
 20
-66.640900000000002
 30
0.0
 70
    32
  0
VERTEX
  5
8CD
  8
図枠
 10
66.530000000000001
 20
-66.650800000000004
 30
0.0
 70
    32
  0
VERTEX
  5
8CE
  8
図枠
 10
66.546300000000002
 20
-66.660600000000002
 30
0.0
 70
    32
  0
SEQEND
  5
8CF
  8
図枠
  0
LINE
  5
11C
  8
図枠
 10
57.226572286600003
 20
-66.618566475600005
 30
0.0
 11
57.226572286600003
 21
-65.418566475600002
 31
0.0
  0
LINE
  5
11D
  8
図枠
 10
58.426572286599999
 20
-62.618566475600012
 30
0.0
 11
55.226572286599989
 21
-62.618566475600012
 31
0.0
  0
POLYLINE
  5
8D0
  8
図枠
 66
     1
 10
0.0
 20
0.0
 30
0.0
 70
     8
  0
VERTEX
  5
8D1
  8
図枠
 10
66.902500000000003
 20
-64.928799999999995
 30
0.0
 70
    32
  0
VERTEX
  5
8D2
  8
図枠
 10
66.907799999999995
 20
-64.934700000000007
 30
0.0
 70
    32
  0
VERTEX
  5
8D3
  8
図枠
 10
66.9131
 20
-64.940600000000003
 30
0.0
 70
    32
  0
VERTEX
  5
8D4
  8
図枠
 10
66.918300000000002
 20
-64.9465
 30
0.0
 70
    32
  0
VERTEX
  5
8D5
  8
図枠
 10
66.923599999999993
 20
-64.952299999999994
 30
0.0
 70
    32
  0
VERTEX
  5
8D6
  8
図枠
 10
66.928899999999999
 20
-64.958200000000005
 30
0.0
 70
    32
  0
VERTEX
  5
8D7
  8
図枠
 10
66.934200000000004
 20
-64.964100000000002
 30
0.0
 70
    32
  0
VERTEX
  5
8D8
  8
図枠
 10
66.939499999999995
 20
-64.969999999999985
 30
0.0
 70
    32
  0
VERTEX
  5
8D9
  8
図枠
 10
66.944699999999983
 20
-64.975899999999996
 30
0.0
 70
    32
  0
VERTEX
  5
8DA
  8
図枠
 10
66.950000000000003
 20
-64.981800000000007
 30
0.0
 70
    32
  0
VERTEX
  5
8DB
  8
図枠
 10
66.955299999999994
 20
-64.987700000000004
 30
0.0
 70
    32
  0
VERTEX
  5
8DC
  8
図枠
 10
66.960599999999999
 20
-64.993499999999983
 30
0.0
 70
    32
  0
VERTEX
  5
8DD
  8
図枠
 10
66.965900000000005
 20
-64.999399999999994
 30
0.0
 70
    32
  0
VERTEX
  5
8DE
  8
図枠
 10
66.971199999999996
 20
-65.005300000000005
 30
0.0
 70
    32
  0
VERTEX
  5
8DF
  8
図枠
 10
66.976399999999984
 20
-65.011200000000002
 30
0.0
 70
    32
  0
VERTEX
  5
8E0
  8
図枠
 10
66.981700000000004
 20
-65.017099999999999
 30
0.0
 70
    32
  0
VERTEX
  5
8E1
  8
図枠
 10
66.986999999999995
 20
-65.022900000000007
 30
0.0
 70
    32
  0
VERTEX
  5
8E2
  8
図枠
 10
66.9923
 20
-65.028800000000004
 30
0.0
 70
    32
  0
VERTEX
  5
8E3
  8
図枠
 10
66.997600000000006
 20
-65.034700000000001
 30
0.0
 70
    32
  0
VERTEX
  5
8E4
  8
図枠
 10
67.002899999999997
 20
-65.040499999999994
 30
0.0
 70
    32
  0
VERTEX
  5
8E5
  8
図枠
 10
67.008200000000002
 20
-65.046400000000006
 30
0.0
 70
    32
  0
VERTEX
  5
8E6
  8
図枠
 10
67.013499999999993
 20
-65.052300000000002
 30
0.0
 70
    32
  0
VERTEX
  5
8E7
  8
図枠
 10
67.018799999999999
 20
-65.058199999999985
 30
0.0
 70
    32
  0
VERTEX
  5
8E8
  8
図枠
 10
67.024000000000001
 20
-65.063999999999993
 30
0.0
 70
    32
  0
VERTEX
  5
8E9
  8
図枠
 10
67.029300000000006
 20
-65.069900000000004
 30
0.0
 70
    32
  0
VERTEX
  5
8EA
  8
図枠
 10
67.034599999999983
 20
-65.075699999999998
 30
0.0
 70
    32
  0
VERTEX
  5
8EB
  8
図枠
 10
67.039900000000003
 20
-65.081599999999995
 30
0.0
 70
    32
  0
VERTEX
  5
8EC
  8
図枠
 10
67.045199999999994
 20
-65.087500000000006
 30
0.0
 70
    32
  0
VERTEX
  5
8ED
  8
図枠
 10
67.050499999999985
 20
-65.093299999999999
 30
0.0
 70
    32
  0
VERTEX
  5
8EE
  8
図枠
 10
67.055800000000005
 20
-65.099199999999996
 30
0.0
 70
    32
  0
VERTEX
  5
8EF
  8
図枠
 10
67.061099999999996
 20
-65.105000000000004
 30
0.0
 70
    32
  0
VERTEX
  5
8F0
  8
図枠
 10
67.066400000000002
 20
-65.110900000000001
 30
0.0
 70
    32
  0
VERTEX
  5
8F1
  8
図枠
 10
67.071799999999996
 20
-65.116699999999994
 30
0.0
 70
    32
  0
VERTEX
  5
8F2
  8
図枠
 10
67.077100000000002
 20
-65.122500000000002
 30
0.0
 70
    32
  0
VERTEX
  5
8F3
  8
図枠
 10
67.082400000000007
 20
-65.128399999999999
 30
0.0
 70
    32
  0
VERTEX
  5
8F4
  8
図枠
 10
67.087699999999998
 20
-65.134200000000007
 30
0.0
 70
    32
  0
VERTEX
  5
8F5
  8
図枠
 10
67.093000000000004
 20
-65.140000000000001
 30
0.0
 70
    32
  0
VERTEX
  5
8F6
  8
図枠
 10
67.098299999999995
 20
-65.145899999999997
 30
0.0
 70
    32
  0
VERTEX
  5
8F7
  8
図枠
 10
67.1036
 20
-65.151700000000005
 30
0.0
 70
    32
  0
VERTEX
  5
8F8
  8
図枠
 10
67.108900000000006
 20
-65.157499999999999
 30
0.0
 70
    32
  0
VERTEX
  5
8F9
  8
図枠
 10
67.1143
 20
-65.163300000000007
 30
0.0
 70
    32
  0
VERTEX
  5
8FA
  8
図枠
 10
67.119600000000005
 20
-65.1691
 30
0.0
 70
    32
  0
VERTEX
  5
8FB
  8
図枠
 10
67.124899999999997
 20
-65.174999999999997
 30
0.0
 70
    32
  0
VERTEX
  5
8FC
  8
図枠
 10
67.130200000000002
 20
-65.180800000000005
 30
0.0
 70
    32
  0
VERTEX
  5
8FD
  8
図枠
 10
67.135599999999997
 20
-65.186599999999999
 30
0.0
 70
    32
  0
VERTEX
  5
8FE
  8
図枠
 10
67.140900000000002
 20
-65.192400000000006
 30
0.0
 70
    32
  0
VERTEX
  5
8FF
  8
図枠
 10
67.146199999999993
 20
-65.1982
 30
0.0
 70
    32
  0
VERTEX
  5
900
  8
図枠
 10
67.151600000000002
 20
-65.203999999999994
 30
0.0
 70
    32
  0
VERTEX
  5
901
  8
図枠
 10
67.156899999999993
 20
-65.209699999999998
 30
0.0
 70
    32
  0
VERTEX
  5
902
  8
図枠
 10
67.162300000000002
 20
-65.215500000000006
 30
0.0
 70
    32
  0
VERTEX
  5
903
  8
図枠
 10
67.167599999999993
 20
-65.221299999999999
 30
0.0
 70
    32
  0
VERTEX
  5
904
  8
図枠
 10
67.173000000000002
 20
-65.227099999999993
 30
0.0
 70
    32
  0
VERTEX
  5
905
  8
図枠
 10
67.178299999999993
 20
-65.232799999999983
 30
0.0
 70
    32
  0
VERTEX
  5
906
  8
図枠
 10
67.183700000000002
 20
-65.238600000000005
 30
0.0
 70
    32
  0
VERTEX
  5
907
  8
図枠
 10
67.188999999999993
 20
-65.244399999999999
 30
0.0
 70
    32
  0
VERTEX
  5
908
  8
図枠
 10
67.194400000000002
 20
-65.250100000000003
 30
0.0
 70
    32
  0
VERTEX
  5
909
  8
図枠
 10
67.199799999999996
 20
-65.255899999999997
 30
0.0
 70
    32
  0
VERTEX
  5
90A
  8
図枠
 10
67.205100000000002
 20
-65.261600000000001
 30
0.0
 70
    32
  0
VERTEX
  5
90B
  8
図枠
 10
67.210499999999996
 20
-65.267399999999995
 30
0.0
 70
    32
  0
VERTEX
  5
90C
  8
図枠
 10
67.215900000000005
 20
-65.273099999999985
 30
0.0
 70
    32
  0
VERTEX
  5
90D
  8
図枠
 10
67.221199999999996
 20
-65.278800000000004
 30
0.0
 70
    32
  0
VERTEX
  5
90E
  8
図枠
 10
67.226600000000005
 20
-65.284599999999983
 30
0.0
 70
    32
  0
VERTEX
  5
90F
  8
図枠
 10
67.231999999999999
 20
-65.290300000000002
 30
0.0
 70
    32
  0
VERTEX
  5
910
  8
図枠
 10
67.237399999999994
 20
-65.296000000000006
 30
0.0
 70
    32
  0
VERTEX
  5
911
  8
図枠
 10
67.242800000000003
 20
-65.301699999999997
 30
0.0
 70
    32
  0
VERTEX
  5
912
  8
図枠
 10
67.248199999999997
 20
-65.307400000000001
 30
0.0
 70
    32
  0
VERTEX
  5
913
  8
図枠
 10
67.253600000000006
 20
-65.313100000000006
 30
0.0
 70
    32
  0
VERTEX
  5
914
  8
図枠
 10
67.259
 20
-65.318799999999996
 30
0.0
 70
    32
  0
VERTEX
  5
915
  8
図枠
 10
67.264399999999995
 20
-65.3245
 30
0.0
 70
    32
  0
VERTEX
  5
916
  8
図枠
 10
67.269800000000004
 20
-65.330200000000005
 30
0.0
 70
    32
  0
VERTEX
  5
917
  8
図枠
 10
67.275199999999998
 20
-65.335800000000006
 30
0.0
 70
    32
  0
VERTEX
  5
918
  8
図枠
 10
67.280600000000007
 20
-65.341499999999996
 30
0.0
 70
    32
  0
VERTEX
  5
919
  8
図枠
 10
67.286000000000001
 20
-65.347200000000001
 30
0.0
 70
    32
  0
VERTEX
  5
91A
  8
図枠
 10
67.291399999999996
 20
-65.352800000000002
 30
0.0
 70
    32
  0
VERTEX
  5
91B
  8
図枠
 10
67.296899999999994
 20
-65.358500000000006
 30
0.0
 70
    32
  0
VERTEX
  5
91C
  8
図枠
 10
67.302300000000002
 20
-65.364099999999993
 30
0.0
 70
    32
  0
VERTEX
  5
91D
  8
図枠
 10
67.307699999999997
 20
-65.369799999999984
 30
0.0
 70
    32
  0
VERTEX
  5
91E
  8
図枠
 10
67.313199999999995
 20
-65.375399999999985
 30
0.0
 70
    32
  0
VERTEX
  5
91F
  8
図枠
 10
67.318600000000004
 20
-65.381
 30
0.0
 70
    32
  0
VERTEX
  5
920
  8
図枠
 10
67.324100000000001
 20
-65.386600000000001
 30
0.0
 70
    32
  0
VERTEX
  5
921
  8
図枠
 10
67.329499999999996
 20
-65.392200000000003
 30
0.0
 70
    32
  0
VERTEX
  5
922
  8
図枠
 10
67.334999999999994
 20
-65.397800000000004
 30
0.0
 70
    32
  0
VERTEX
  5
923
  8
図枠
 10
67.340400000000002
 20
-65.403400000000005
 30
0.0
 70
    32
  0
VERTEX
  5
924
  8
図枠
 10
67.3459
 20
-65.409000000000006
 30
0.0
 70
    32
  0
VERTEX
  5
925
  8
図枠
 10
67.351399999999998
 20
-65.414599999999993
 30
0.0
 70
    32
  0
VERTEX
  5
926
  8
図枠
 10
67.356800000000007
 20
-65.420199999999994
 30
0.0
 70
    32
  0
VERTEX
  5
927
  8
図枠
 10
67.362300000000005
 20
-65.425700000000006
 30
0.0
 70
    32
  0
VERTEX
  5
928
  8
図枠
 10
67.367800000000003
 20
-65.431299999999993
 30
0.0
 70
    32
  0
VERTEX
  5
929
  8
図枠
 10
67.3733
 20
-65.436800000000005
 30
0.0
 70
    32
  0
VERTEX
  5
92A
  8
図枠
 10
67.378799999999998
 20
-65.442400000000006
 30
0.0
 70
    32
  0
VERTEX
  5
92B
  8
図枠
 10
67.384299999999996
 20
-65.447900000000004
 30
0.0
 70
    32
  0
VERTEX
  5
92C
  8
図枠
 10
67.389799999999994
 20
-65.453500000000005
 30
0.0
 70
    32
  0
VERTEX
  5
92D
  8
図枠
 10
67.395300000000006
 20
-65.459000000000003
 30
0.0
 70
    32
  0
VERTEX
  5
92E
  8
図枠
 10
67.400800000000004
 20
-65.464500000000001
 30
0.0
 70
    32
  0
VERTEX
  5
92F
  8
図枠
 10
67.406300000000002
 20
-65.469999999999999
 30
0.0
 70
    32
  0
VERTEX
  5
930
  8
図枠
 10
67.411900000000003
 20
-65.475499999999997
 30
0.0
 70
    32
  0
VERTEX
  5
931
  8
図枠
 10
67.417400000000001
 20
-65.480999999999995
 30
0.0
 70
    32
  0
VERTEX
  5
932
  8
図枠
 10
67.422899999999998
 20
-65.486400000000003
 30
0.0
 70
    32
  0
VERTEX
  5
933
  8
図枠
 10
67.4285
 20
-65.491900000000001
 30
0.0
 70
    32
  0
VERTEX
  5
934
  8
図枠
 10
67.433999999999997
 20
-65.497399999999985
 30
0.0
 70
    32
  0
VERTEX
  5
935
  8
図枠
 10
67.439599999999999
 20
-65.502799999999993
 30
0.0
 70
    32
  0
VERTEX
  5
936
  8
図枠
 10
67.445099999999996
 20
-65.508300000000006
 30
0.0
 70
    32
  0
VERTEX
  5
937
  8
図枠
 10
67.450699999999998
 20
-65.5137
 30
0.0
 70
    32
  0
VERTEX
  5
938
  8
図枠
 10
67.456199999999995
 20
-65.519099999999995
 30
0.0
 70
    32
  0
VERTEX
  5
939
  8
図枠
 10
67.461799999999997
 20
-65.524500000000003
 30
0.0
 70
    32
  0
VERTEX
  5
93A
  8
図枠
 10
67.467399999999984
 20
-65.529899999999998
 30
0.0
 70
    32
  0
VERTEX
  5
93B
  8
図枠
 10
67.472999999999999
 20
-65.535300000000007
 30
0.0
 70
    32
  0
VERTEX
  5
93C
  8
図枠
 10
67.4786
 20
-65.540700000000001
 30
0.0
 70
    32
  0
VERTEX
  5
93D
  8
図枠
 10
67.484099999999984
 20
-65.546099999999996
 30
0.0
 70
    32
  0
VERTEX
  5
93E
  8
図枠
 10
67.489699999999985
 20
-65.551500000000004
 30
0.0
 70
    32
  0
VERTEX
  5
93F
  8
図枠
 10
67.495400000000004
 20
-65.556799999999996
 30
0.0
 70
    32
  0
VERTEX
  5
940
  8
図枠
 10
67.501000000000005
 20
-65.562200000000004
 30
0.0
 70
    32
  0
VERTEX
  5
941
  8
図枠
 10
67.506600000000006
 20
-65.567499999999995
 30
0.0
 70
    32
  0
VERTEX
  5
942
  8
図枠
 10
67.512200000000007
 20
-65.572900000000004
 30
0.0
 70
    32
  0
VERTEX
  5
943
  8
図枠
 10
67.517799999999994
 20
-65.578199999999995
 30
0.0
 70
    32
  0
VERTEX
  5
944
  8
図枠
 10
67.523499999999984
 20
-65.583500000000001
 30
0.0
 70
    32
  0
VERTEX
  5
945
  8
図枠
 10
67.529099999999985
 20
-65.588800000000006
 30
0.0
 70
    32
  0
VERTEX
  5
946
  8
図枠
 10
67.534800000000004
 20
-65.594099999999983
 30
0.0
 70
    32
  0
VERTEX
  5
947
  8
図枠
 10
67.540400000000005
 20
-65.599400000000003
 30
0.0
 70
    32
  0
VERTEX
  5
948
  8
図枠
 10
67.546099999999996
 20
-65.604600000000005
 30
0.0
 70
    32
  0
VERTEX
  5
949
  8
図枠
 10
67.5518
 20
-65.609899999999996
 30
0.0
 70
    32
  0
VERTEX
  5
94A
  8
図枠
 10
67.557400000000001
 20
-65.615099999999998
 30
0.0
 70
    32
  0
VERTEX
  5
94B
  8
図枠
 10
67.563100000000006
 20
-65.620400000000004
 30
0.0
 70
    32
  0
VERTEX
  5
94C
  8
図枠
 10
67.568799999999996
 20
-65.625600000000006
 30
0.0
 70
    32
  0
VERTEX
  5
94D
  8
図枠
 10
67.5745
 20
-65.630799999999994
 30
0.0
 70
    32
  0
VERTEX
  5
94E
  8
図枠
 10
67.580200000000005
 20
-65.635999999999996
 30
0.0
 70
    32
  0
VERTEX
  5
94F
  8
図枠
 10
67.585899999999995
 20
-65.641199999999984
 30
0.0
 70
    32
  0
VERTEX
  5
950
  8
図枠
 10
67.5916
 20
-65.6464
 30
0.0
 70
    32
  0
SEQEND
  5
951
  8
図枠
  0
LINE
  5
11F
  8
図枠
 10
24.029370920700011
 20
-33.246704849099999
 30
0.0
 11
140.02937092069999
 21
-33.246704849099999
 31
0.0
  0
LINE
  5
120
  8
図枠
  6
BORDER
 10
70.093370920699996
 20
-45.040704849099967
 30
0.0
 11
70.093370920699996
 21
-51.952704849100002
 31
0.0
  0
LINE
  5
121
  8
図枠
 10
64.155057135099995
 20
-64.733942903499994
 30
0.0
 11
64.155057135099995
 21
-64.476254689499996
 31
0.0
  0
LINE
  5
122
  8
図枠
 10
57.226572286600003
 20
-63.818566475600001
 30
0.0
 11
58.426572286599999
 21
-62.618566475600012
 31
0.0
  0
INSERT
  5
123
  8
0
  6
CONTINUOUS
  2
*U61
 10
0.0
 20
0.0
 30
0.0
  0
LINE
  5
124
  8
図枠
 10
54.305689237400003
 20
-65.418566475600002
 30
0.0
 11
55.1056892374
 21
-65.418566475600002
 31
0.0
  0
INSERT
  5
125
  8
0
  6
CONTINUOUS
  2
*U62
 10
0.0
 20
0.0
 30
0.0
  0
LINE
  5
126
  8
図枠
 10
26.0293709207
 20
-56.996704849099999
 30
0.0
 11
52.029370920699989
 21
-56.996704849099999
 31
0.0
  0
INSERT
  5
127
  8
0
  6
CONTINUOUS
  2
*U63
 10
0.0
 20
0.0
 30
0.0
  0
LINE
  5
128
  8
図枠
 10
24.029370920700011
 20
-27.746704849099999
 30
0.0
 11
24.029370920700011
 21
-44.246704849099999
 31
0.0
  0
INSERT
  5
129
  8
0
  6
CONTINUOUS
  2
*U64
 10
0.0
 20
0.0
 30
0.0
  0
LINE
  5
12A
  8
図枠
 10
64.155057135099995
 20
-67.018566475600011
 30
0.0
 11
64.155057135099995
 21
-68.218566475599999
 31
0.0
  0
LINE
  5
12B
  8
図枠
 10
64.029370920700003
 20
-44.246704849099999
 30
0.0
 11
64.029370920700003
 21
-52.746704849099999
 31
0.0
  0
INSERT
  5
12C
  8
0
  6
CONTINUOUS
  2
*U65
 10
0.0
 20
0.0
 30
0.0
  0
INSERT
  5
12D
  8
0
  6
CONTINUOUS
  2
*U66
 10
0.0
 20
0.0
 30
0.0
  0
LINE
  5
12E
  8
図枠
 10
55.226572286599989
 20
-67.018566475600011
 30
0.0
 11
55.226572286599989
 21
-68.218566475599999
 31
0.0
  0
INSERT
  5
12F
  8
0
  6
CONTINUOUS
  2
*U67
 10
0.0
 20
0.0
 30
0.0
  0
CIRCLE
  5
130
  8
図枠
 10
70.093370920699996
 20
-48.496704849099991
 30
0.0
 40
1.151999999999999
  0
CIRCLE
  5
131
  8
図枠
 10
70.093370920699996
 20
-48.496704849099991
 30
0.0
 40
2.303999999999998
  0
ARC
  5
132
  8
図枠
 10
65.115057135100002
 20
-63.978566475600012
 30
0.0
 40
3.04
 50
331.39928138329998
 51
358.49204224580001
  0
LINE
  5
133
  8
図枠
 10
67.784107128499997
 20
-65.433823199700001
 30
0.0
 11
67.591630483399996
 21
-65.6464138881
 31
0.0
  0
ARC
  5
134
  8
図枠
 10
58.426572286599999
 20
-65.818566475600008
 30
0.0
 40
2.399999999999999
 50
270.0
 51
0.0
  0
INSERT
  5
135
  8
0
  6
CONTINUOUS
  2
*U68
 10
0.0
 20
0.0
 30
0.0
  0
LINE
  5
136
  8
図枠
 10
46.029370920699989
 20
-48.496704849099991
 30
0.0
 11
60.029370920699989
 21
-48.496704849099991
 31
0.0
  0
ARC
  5
137
  8
図枠
 10
65.115057135100002
 20
-63.978566475600012
 30
0.0
 40
3.04
 50
270.0
 51
298.08590481520002
  0
DIMENSION
  5
146
  8
寸法線
  2
*D8
 10
-79.805055555600006
 20
38.3119564677
 30
0.0
 11
-64.805055555600006
 21
38.3119564677
 31
0.0
 70
   128
  1
<>
 13
-79.805055555600006
 23
48.311956467700007
 33
0.0
 14
-49.805055555599999
 24
66.3119564677
 34
0.0
 50
180.0
  0
DIMENSION
  5
155
  8
寸法線
  2
*D9
 10
-7.0371647509999971
 20
65.561956467699986
 30
0.0
 11
-7.0371647509999971
 21
88.506704980799967
 31
0.0
 70
   128
  1
<>
 13
-35.055055555599999
 23
65.561956467699986
 33
0.0
 14
-19.805055555599999
 24
78.3119564677
 34
0.0
 50
90.0
  0
DIMENSION
  5
164
  8
寸法線
  2
*D10
 10
-65.805055555600006
 20
88.3119564677
 30
0.0
 11
-72.805055555600006
 21
88.3119564677
 31
0.0
 70
   128
  1
<>
 13
-65.805055555600006
 23
63.311956467700007
 33
0.0
 14
-79.805055555600006
 24
78.3119564677
 34
0.0
  0
DIMENSION
  5
173
  8
寸法線
  2
*D11
 10
-32.805055555599999
 20
88.3119564677
 30
0.0
 11
-49.305055555599999
 21
88.3119564677
 31
0.0
 70
   128
  1
<>
 13
-32.805055555599999
 23
63.311956467700007
 33
0.0
 14
-65.805055555600006
 24
63.311956467700007
 34
0.0
  0
DIMENSION
  5
182
  8
寸法線
  2
*D12
 10
-19.805055555599999
 20
88.3119564677
 30
0.0
 11
-26.305055555599999
 21
88.3119564677
 31
0.0
 70
   128
  1
<>
 13
-19.805055555599999
 23
78.3119564677
 33
0.0
 14
-32.805055555599999
 24
63.311956467700007
 34
0.0
  0
DIMENSION
  5
191
  8
寸法線
  2
*D13
 10
-36.805055555599999
 20
38.3119564677
 30
0.0
 11
-28.305055555599999
 21
38.3119564677
 31
0.0
 70
   128
  1
<>
 13
-36.805055555599999
 23
48.311956467700007
 33
0.0
 14
-19.805055555599999
 24
48.311956467700007
 34
0.0
 50
180.0
  0
INSERT
  5
192
  8
0
  6
CONTINUOUS
  2
*U69
 10
0.0
 20
0.0
 30
0.0
  0
LINE
  5
193
  8
図枠
 10
24.029370920700011
 20
-27.746704849099999
 30
0.0
 11
140.02937092069999
 21
-27.746704849099999
 31
0.0
  0
INSERT
  5
194
  8
0
  6
CONTINUOUS
  2
*U70
 10
0.0
 20
0.0
 30
0.0
  0
POLYLINE
  5
952
  8
図枠
 66
     1
 10
0.0
 20
0.0
 30
0.0
 70
     8
  0
VERTEX
  5
953
  8
図枠
 10
68.522099999999995
 20
-67.527600000000007
 30
0.0
 70
    32
  0
VERTEX
  5
954
  8
図枠
 10
68.543599999999984
 20
-67.534499999999994
 30
0.0
 70
    32
  0
VERTEX
  5
955
  8
図枠
 10
68.565200000000004
 20
-67.541300000000007
 30
0.0
 70
    32
  0
VERTEX
  5
956
  8
図枠
 10
68.586699999999993
 20
-67.548100000000005
 30
0.0
 70
    32
  0
VERTEX
  5
957
  8
図枠
 10
68.608299999999986
 20
-67.554900000000004
 30
0.0
 70
    32
  0
VERTEX
  5
958
  8
図枠
 10
68.629900000000006
 20
-67.561599999999999
 30
0.0
 70
    32
  0
VERTEX
  5
959
  8
図枠
 10
68.651600000000002
 20
-67.568299999999994
 30
0.0
 70
    32
  0
VERTEX
  5
95A
  8
図枠
 10
68.673199999999994
 20
-67.575000000000003
 30
0.0
 70
    32
  0
VERTEX
  5
95B
  8
図枠
 10
68.694900000000004
 20
-67.581599999999995
 30
0.0
 70
    32
  0
VERTEX
  5
95C
  8
図枠
 10
68.7166
 20
-67.588200000000001
 30
0.0
 70
    32
  0
VERTEX
  5
95D
  8
図枠
 10
68.738200000000006
 20
-67.594800000000006
 30
0.0
 70
    32
  0
VERTEX
  5
95E
  8
図枠
 10
68.760000000000005
 20
-67.601399999999984
 30
0.0
 70
    32
  0
VERTEX
  5
95F
  8
図枠
 10
68.781700000000001
 20
-67.607900000000001
 30
0.0
 70
    32
  0
VERTEX
  5
960
  8
図枠
 10
68.803399999999996
 20
-67.6143
 30
0.0
 70
    32
  0
VERTEX
  5
961
  8
図枠
 10
68.825199999999995
 20
-67.620800000000003
 30
0.0
 70
    32
  0
VERTEX
  5
962
  8
図枠
 10
68.846999999999994
 20
-67.627200000000002
 30
0.0
 70
    32
  0
VERTEX
  5
963
  8
図枠
 10
68.868799999999993
 20
-67.633600000000001
 30
0.0
 70
    32
  0
VERTEX
  5
964
  8
図枠
 10
68.890600000000006
 20
-67.640000000000001
 30
0.0
 70
    32
  0
VERTEX
  5
965
  8
図枠
 10
68.912400000000005
 20
-67.646299999999997
 30
0.0
 70
    32
  0
VERTEX
  5
966
  8
図枠
 10
68.934200000000004
 20
-67.652600000000007
 30
0.0
 70
    32
  0
VERTEX
  5
967
  8
図枠
 10
68.956100000000006
 20
-67.658900000000003
 30
0.0
 70
    32
  0
VERTEX
  5
968
  8
図枠
 10
68.977999999999994
 20
-67.665099999999995
 30
0.0
 70
    32
  0
VERTEX
  5
969
  8
図枠
 10
68.999899999999997
 20
-67.671300000000002
 30
0.0
 70
    32
  0
VERTEX
  5
96A
  8
図枠
 10
69.021799999999999
 20
-67.677499999999995
 30
0.0
 70
    32
  0
VERTEX
  5
96B
  8
図枠
 10
69.043700000000001
 20
-67.683599999999998
 30
0.0
 70
    32
  0
VERTEX
  5
96C
  8
図枠
 10
69.065600000000003
 20
-67.689800000000005
 30
0.0
 70
    32
  0
VERTEX
  5
96D
  8
図枠
 10
69.087599999999995
 20
-67.695899999999995
 30
0.0
 70
    32
  0
VERTEX
  5
96E
  8
図枠
 10
69.109499999999997
 20
-67.701999999999984
 30
0.0
 70
    32
  0
VERTEX
  5
96F
  8
図枠
 10
69.131500000000003
 20
-67.707999999999998
 30
0.0
 70
    32
  0
VERTEX
  5
970
  8
図枠
 10
69.153499999999994
 20
-67.713999999999984
 30
0.0
 70
    32
  0
VERTEX
  5
971
  8
図枠
 10
69.1755
 20
-67.719999999999999
 30
0.0
 70
    32
  0
VERTEX
  5
972
  8
図枠
 10
69.197500000000005
 20
-67.725999999999999
 30
0.0
 70
    32
  0
VERTEX
  5
973
  8
図枠
 10
69.2196
 20
-67.731899999999996
 30
0.0
 70
    32
  0
VERTEX
  5
974
  8
図枠
 10
69.241600000000005
 20
-67.737799999999993
 30
0.0
 70
    32
  0
VERTEX
  5
975
  8
図枠
 10
69.2637
 20
-67.743700000000004
 30
0.0
 70
    32
  0
VERTEX
  5
976
  8
図枠
 10
69.285799999999995
 20
-67.749600000000001
 30
0.0
 70
    32
  0
VERTEX
  5
977
  8
図枠
 10
69.3078
 20
-67.755499999999984
 30
0.0
 70
    32
  0
VERTEX
  5
978
  8
図枠
 10
69.329899999999995
 20
-67.761300000000006
 30
0.0
 70
    32
  0
VERTEX
  5
979
  8
図枠
 10
69.352099999999993
 20
-67.767099999999999
 30
0.0
 70
    32
  0
VERTEX
  5
97A
  8
図枠
 10
69.374200000000002
 20
-67.772800000000004
 30
0.0
 70
    32
  0
VERTEX
  5
97B
  8
図枠
 10
69.396299999999997
 20
-67.778599999999997
 30
0.0
 70
    32
  0
VERTEX
  5
97C
  8
図枠
 10
69.418499999999995
 20
-67.784300000000002
 30
0.0
 70
    32
  0
VERTEX
  5
97D
  8
図枠
 10
69.440700000000007
 20
-67.790000000000006
 30
0.0
 70
    32
  0
VERTEX
  5
97E
  8
図枠
 10
69.462800000000001
 20
-67.795699999999997
 30
0.0
 70
    32
  0
VERTEX
  5
97F
  8
図枠
 10
69.484999999999999
 20
-67.801299999999983
 30
0.0
 70
    32
  0
VERTEX
  5
980
  8
図枠
 10
69.507199999999997
 20
-67.807000000000002
 30
0.0
 70
    32
  0
VERTEX
  5
981
  8
図枠
 10
69.529399999999995
 20
-67.812600000000003
 30
0.0
 70
    32
  0
VERTEX
  5
982
  8
図枠
 10
69.551699999999997
 20
-67.818200000000004
 30
0.0
 70
    32
  0
VERTEX
  5
983
  8
図枠
 10
69.573899999999995
 20
-67.823700000000002
 30
0.0
 70
    32
  0
VERTEX
  5
984
  8
図枠
 10
69.596199999999996
 20
-67.829300000000003
 30
0.0
 70
    32
  0
VERTEX
  5
985
  8
図枠
 10
69.618399999999994
 20
-67.834800000000001
 30
0.0
 70
    32
  0
VERTEX
  5
986
  8
図枠
 10
69.640699999999995
 20
-67.840299999999999
 30
0.0
 70
    32
  0
VERTEX
  5
987
  8
図枠
 10
69.662999999999997
 20
-67.845799999999997
 30
0.0
 70
    32
  0
VERTEX
  5
988
  8
図枠
 10
69.685299999999998
 20
-67.851299999999995
 30
0.0
 70
    32
  0
VERTEX
  5
989
  8
図枠
 10
69.707599999999999
 20
-67.856700000000004
 30
0.0
 70
    32
  0
VERTEX
  5
98A
  8
図枠
 10
69.729900000000001
 20
-67.862099999999998
 30
0.0
 70
    32
  0
VERTEX
  5
98B
  8
図枠
 10
69.752200000000002
 20
-67.867500000000007
 30
0.0
 70
    32
  0
VERTEX
  5
98C
  8
図枠
 10
69.774600000000007
 20
-67.872900000000001
 30
0.0
 70
    32
  0
VERTEX
  5
98D
  8
図枠
 10
69.796899999999994
 20
-67.878299999999996
 30
0.0
 70
    32
  0
VERTEX
  5
98E
  8
図枠
 10
69.819299999999998
 20
-67.883600000000001
 30
0.0
 70
    32
  0
VERTEX
  5
98F
  8
図枠
 10
69.8416
 20
-67.888999999999996
 30
0.0
 70
    32
  0
VERTEX
  5
990
  8
図枠
 10
69.864000000000004
 20
-67.894300000000001
 30
0.0
 70
    32
  0
VERTEX
  5
991
  8
図枠
 10
69.886399999999995
 20
-67.899600000000007
 30
0.0
 70
    32
  0
VERTEX
  5
992
  8
図枠
 10
69.908799999999999
 20
-67.904799999999994
 30
0.0
 70
    32
  0
VERTEX
  5
993
  8
図枠
 10
69.931200000000004
 20
-67.910099999999986
 30
0.0
 70
    32
  0
VERTEX
  5
994
  8
図枠
 10
69.953599999999994
 20
-67.915400000000005
 30
0.0
 70
    32
  0
VERTEX
  5
995
  8
図枠
 10
69.975999999999999
 20
-67.920599999999993
 30
0.0
 70
    32
  0
VERTEX
  5
996
  8
図枠
 10
69.998400000000004
 20
-67.925799999999995
 30
0.0
 70
    32
  0
VERTEX
  5
997
  8
図枠
 10
70.020899999999983
 20
-67.930999999999983
 30
0.0
 70
    32
  0
VERTEX
  5
998
  8
図枠
 10
70.043300000000002
 20
-67.936199999999999
 30
0.0
 70
    32
  0
VERTEX
  5
999
  8
図枠
 10
70.065799999999996
 20
-67.941299999999998
 30
0.0
 70
    32
  0
VERTEX
  5
99A
  8
図枠
 10
70.088300000000004
 20
-67.9465
 30
0.0
 70
    32
  0
VERTEX
  5
99B
  8
図枠
 10
70.110699999999994
 20
-67.951599999999999
 30
0.0
 70
    32
  0
VERTEX
  5
99C
  8
図枠
 10
70.133200000000002
 20
-67.956699999999998
 30
0.0
 70
    32
  0
VERTEX
  5
99D
  8
図枠
 10
70.155699999999996
 20
-67.961799999999997
 30
0.0
 70
    32
  0
VERTEX
  5
99E
  8
図枠
 10
70.178200000000004
 20
-67.966899999999995
 30
0.0
 70
    32
  0
VERTEX
  5
99F
  8
図枠
 10
70.200699999999998
 20
-67.971999999999994
 30
0.0
 70
    32
  0
VERTEX
  5
9A0
  8
図枠
 10
70.223200000000006
 20
-67.977000000000004
 30
0.0
 70
    32
  0
VERTEX
  5
9A1
  8
図枠
 10
70.245699999999999
 20
-67.982100000000003
 30
0.0
 70
    32
  0
VERTEX
  5
9A2
  8
図枠
 10
70.268299999999996
 20
-67.987099999999984
 30
0.0
 70
    32
  0
VERTEX
  5
9A3
  8
図枠
 10
70.290800000000004
 20
-67.992099999999994
 30
0.0
 70
    32
  0
VERTEX
  5
9A4
  8
図枠
 10
70.313299999999998
 20
-67.997200000000007
 30
0.0
 70
    32
  0
VERTEX
  5
9A5
  8
図枠
 10
70.335899999999995
 20
-68.002200000000002
 30
0.0
 70
    32
  0
VERTEX
  5
9A6
  8
図枠
 10
70.358400000000003
 20
-68.007099999999994
 30
0.0
 70
    32
  0
VERTEX
  5
9A7
  8
図枠
 10
70.381
 20
-68.012100000000004
 30
0.0
 70
    32
  0
VERTEX
  5
9A8
  8
図枠
 10
70.403599999999983
 20
-68.017099999999985
 30
0.0
 70
    32
  0
VERTEX
  5
9A9
  8
図枠
 10
70.426100000000019
 20
-68.022000000000006
 30
0.0
 70
    32
  0
VERTEX
  5
9AA
  8
図枠
 10
70.448700000000002
 20
-68.027000000000001
 30
0.0
 70
    32
  0
VERTEX
  5
9AB
  8
図枠
 10
70.471299999999999
 20
-68.031899999999993
 30
0.0
 70
    32
  0
VERTEX
  5
9AC
  8
図枠
 10
70.493899999999996
 20
-68.036799999999985
 30
0.0
 70
    32
  0
VERTEX
  5
9AD
  8
図枠
 10
70.516499999999994
 20
-68.041700000000006
 30
0.0
 70
    32
  0
VERTEX
  5
9AE
  8
図枠
 10
70.539100000000005
 20
-68.046599999999998
 30
0.0
 70
    32
  0
VERTEX
  5
9AF
  8
図枠
 10
70.561700000000002
 20
-68.051500000000004
 30
0.0
 70
    32
  0
VERTEX
  5
9B0
  8
図枠
 10
70.584299999999999
 20
-68.056399999999996
 30
0.0
 70
    32
  0
VERTEX
  5
9B1
  8
図枠
 10
70.606899999999996
 20
-68.061199999999985
 30
0.0
 70
    32
  0
VERTEX
  5
9B2
  8
図枠
 10
70.629499999999979
 20
-68.066100000000006
 30
0.0
 70
    32
  0
VERTEX
  5
9B3
  8
図枠
 10
70.652199999999979
 20
-68.070999999999998
 30
0.0
 70
    32
  0
VERTEX
  5
9B4
  8
図枠
 10
70.674800000000019
 20
-68.075800000000001
 30
0.0
 70
    32
  0
VERTEX
  5
9B5
  8
図枠
 10
70.697400000000002
 20
-68.080600000000004
 30
0.0
 70
    32
  0
VERTEX
  5
9B6
  8
図枠
 10
70.720100000000002
 20
-68.085499999999996
 30
0.0
 70
    32
  0
VERTEX
  5
9B7
  8
図枠
 10
70.742699999999999
 20
-68.090299999999985
 30
0.0
 70
    32
  0
VERTEX
  5
9B8
  8
図枠
 10
70.7654
 20
-68.095100000000002
 30
0.0
 70
    32
  0
VERTEX
  5
9B9
  8
図枠
 10
70.787999999999997
 20
-68.099900000000005
 30
0.0
 70
    32
  0
VERTEX
  5
9BA
  8
図枠
 10
70.810699999999997
 20
-68.104699999999994
 30
0.0
 70
    32
  0
VERTEX
  5
9BB
  8
図枠
 10
70.833299999999994
 20
-68.109499999999997
 30
0.0
 70
    32
  0
VERTEX
  5
9BC
  8
図枠
 10
70.855999999999995
 20
-68.1143
 30
0.0
 70
    32
  0
VERTEX
  5
9BD
  8
図枠
 10
70.87860000000002
 20
-68.119100000000003
 30
0.0
 70
    32
  0
VERTEX
  5
9BE
  8
図枠
 10
70.90130000000002
 20
-68.123800000000003
 30
0.0
 70
    32
  0
VERTEX
  5
9BF
  8
図枠
 10
70.924000000000021
 20
-68.128600000000006
 30
0.0
 70
    32
  0
VERTEX
  5
9C0
  8
図枠
 10
70.946600000000004
 20
-68.133399999999995
 30
0.0
 70
    32
  0
VERTEX
  5
9C1
  8
図枠
 10
70.969300000000004
 20
-68.138099999999994
 30
0.0
 70
    32
  0
VERTEX
  5
9C2
  8
図枠
 10
70.992000000000004
 20
-68.142899999999983
 30
0.0
 70
    32
  0
VERTEX
  5
9C3
  8
図枠
 10
71.014700000000019
 20
-68.147599999999997
 30
0.0
 70
    32
  0
VERTEX
  5
9C4
  8
図枠
 10
71.037400000000005
 20
-68.1524
 30
0.0
 70
    32
  0
VERTEX
  5
9C5
  8
図枠
 10
71.060000000000002
 20
-68.1571
 30
0.0
 70
    32
  0
VERTEX
  5
9C6
  8
図枠
 10
71.082700000000003
 20
-68.161900000000003
 30
0.0
 70
    32
  0
VERTEX
  5
9C7
  8
図枠
 10
71.105400000000003
 20
-68.166600000000003
 30
0.0
 70
    32
  0
VERTEX
  5
9C8
  8
図枠
 10
71.128100000000003
 20
-68.171300000000002
 30
0.0
 70
    32
  0
VERTEX
  5
9C9
  8
図枠
 10
71.150800000000004
 20
-68.176100000000005
 30
0.0
 70
    32
  0
VERTEX
  5
9CA
  8
図枠
 10
71.173500000000004
 20
-68.180800000000005
 30
0.0
 70
    32
  0
VERTEX
  5
9CB
  8
図枠
 10
71.196200000000019
 20
-68.185500000000005
 30
0.0
 70
    32
  0
VERTEX
  5
9CC
  8
図枠
 10
71.218900000000019
 20
-68.190200000000004
 30
0.0
 70
    32
  0
VERTEX
  5
9CD
  8
図枠
 10
71.24160000000002
 20
-68.194999999999993
 30
0.0
 70
    32
  0
VERTEX
  5
9CE
  8
図枠
 10
71.26430000000002
 20
-68.199700000000007
 30
0.0
 70
    32
  0
VERTEX
  5
9CF
  8
図枠
 10
71.28700000000002
 20
-68.204400000000007
 30
0.0
 70
    32
  0
VERTEX
  5
9D0
  8
図枠
 10
71.309700000000021
 20
-68.209100000000007
 30
0.0
 70
    32
  0
VERTEX
  5
9D1
  8
図枠
 10
71.332400000000021
 20
-68.213800000000006
 30
0.0
 70
    32
  0
VERTEX
  5
9D2
  8
図枠
 10
71.355099999999979
 20
-68.218599999999995
 30
0.0
 70
    32
  0
SEQEND
  5
9D3
  8
図枠
  0
LINE
  5
196
  8
図枠
 10
70.5550571351
 20
-63.818566475600001
 30
0.0
 11
71.355057135099983
 21
-62.618566475600012
 31
0.0
  0
LINE
  5
197
  8
図枠
 10
56.029370920700003
 20
-56.996704849099999
 30
0.0
 11
82.029370920699989
 21
-56.996704849099999
 31
0.0
  0
ARC
  5
198
  8
図枠
 10
66.155057135100009
 20
-63.818566475600001
 30
0.0
 40
4.4000000000000004
 50
322.48761197969998
 51
0.0
  0
CIRCLE
  5
199
  8
図枠
 10
70.093370920699996
 20
-48.496704849099991
 30
0.0
 40
1.151999999999999
  0
CIRCLE
  5
19A
  8
図枠
 10
70.093370920699996
 20
-48.496704849099991
 30
0.0
 40
2.303999999999998
  0
LINE
  5
19B
  8
図枠
  6
BORDER
 10
70.093370920699996
 20
-45.040704849099967
 30
0.0
 11
70.093370920699996
 21
-51.952704849100002
 31
0.0
  0
LINE
  5
19C
  8
図枠
 10
71.355057135099983
 20
-62.618566475600012
 30
0.0
 11
64.155057135099995
 21
-62.618566475600012
 31
0.0
  0
LINE
  5
19D
  8
図枠
 10
71.355057135099983
 20
-67.018566475600011
 30
0.0
 11
71.355057135099983
 21
-68.218566475599999
 31
0.0
  0
LINE
  5
19E
  8
図枠
 10
24.029370920700011
 20
-38.746704849099999
 30
0.0
 11
140.02937092069999
 21
-38.746704849099999
 31
0.0
  0
LINE
  5
19F
  8
図枠
 10
69.645232616800001
 20
-66.497871442700003
 30
0.0
 11
69.50275096899999
 21
-66.6373739581
 31
0.0
  0
LINE
  5
1A0
  8
図枠
  6
BORDER
 10
66.637370920699993
 20
-48.496704849099991
 30
0.0
 11
81.421370920699985
 21
-48.496704849099991
 31
0.0
  0
CIRCLE
  5
1A1
  8
図枠
 10
70.093370920699996
 20
-48.496704849099991
 30
0.0
 40
2.303999999999998
  0
LINE
  5
1A2
  8
図枠
 10
24.029370920700011
 20
-61.246704849099999
 30
0.0
 11
140.02937092069999
 21
-61.246704849099999
 31
0.0
  0
LINE
  5
1A3
  8
図枠
 10
24.029370920700011
 20
-44.246704849099999
 30
0.0
 11
140.02937092069999
 21
-44.246704849099999
 31
0.0
  0
LINE
  5
1A4
  8
図枠
 10
70.5550571351
 20
-63.818566475600001
 30
0.0
 11
71.355057135099983
 21
-62.618566475600012
 31
0.0
  0
LINE
  5
1A5
  8
ﾚｲﾔ_1
 62
     5
 10
-79.805055555600006
 20
78.3119564677
 30
0.0
 11
-79.805055555600006
 21
48.311956467700007
 31
0.0
  0
CIRCLE
  5
1A6
  8
ﾚｲﾔ_1
 62
     5
 10
-49.805055555599999
 20
72.3119564677
 30
0.0
 40
4.0
  0
CIRCLE
  5
1A7
  8
ﾚｲﾔ_1
 62
     5
 10
-49.805055555599999
 20
72.3119564677
 30
0.0
 40
2.399999999999999
  0
CIRCLE
  5
1A8
  8
ﾚｲﾔ_1
 62
     5
 10
-36.805055555599999
 20
54.3119564677
 30
0.0
 40
2.399999999999999
  0
CIRCLE
  5
1A9
  8
ﾚｲﾔ_1
 62
     5
 10
-36.805055555599999
 20
54.3119564677
 30
0.0
 40
4.0
  0
LINE
  5
1AA
  8
ﾚｲﾔ_1
  6
BORDER
 62
     3
 10
-36.805055555599999
 20
60.311956467700007
 30
0.0
 11
-36.805055555599999
 21
48.311956467700007
 31
0.0
  0
LINE
  5
1AB
  8
ﾚｲﾔ_1
  6
BORDER
 62
     3
 10
-42.805055555599999
 20
54.3119564677
 30
0.0
 11
-30.805055555599999
 21
54.3119564677
 31
0.0
  0
LINE
  5
1AC
  8
ﾚｲﾔ_1
 62
     5
 10
-63.555055555599999
 20
61.0619564677
 30
0.0
 11
-35.055055555599999
 21
61.0619564677
 31
0.0
  0
LINE
  5
1AD
  8
ﾚｲﾔ_1
 62
     5
 10
-35.055055555599999
 20
65.561956467699986
 30
0.0
 11
-63.555055555599999
 21
65.561956467699986
 31
0.0
  0
ARC
  5
1AE
  8
ﾚｲﾔ_1
 62
     5
 10
-35.055055555599999
 20
63.311956467700007
 30
0.0
 40
2.25
 50
270.0
 51
90.0
  0
ARC
  5
1AF
  8
ﾚｲﾔ_1
 62
     5
 10
-63.555055555599999
 20
63.311956467700007
 30
0.0
 40
2.25
 50
90.0
 51
270.0
  0
LINE
  5
1B0
  8
ﾚｲﾔ_1
 62
     5
 10
-19.805055555599999
 20
48.311956467700007
 30
0.0
 11
-19.805055555599999
 21
78.3119564677
 31
0.0
  0
LINE
  5
1B1
  8
ﾚｲﾔ_1
  6
BORDER
 62
     3
 10
-55.805055555600013
 20
72.3119564677
 30
0.0
 11
-43.805055555599999
 21
72.3119564677
 31
0.0
  0
LINE
  5
1B2
  8
ﾚｲﾔ_1
  6
BORDER
 62
     3
 10
-49.805055555599999
 20
78.3119564677
 30
0.0
 11
-49.805055555599999
 21
66.3119564677
 31
0.0
  0
LINE
  5
1B3
  8
ﾚｲﾔ_1
 62
     5
 10
-83.005055555599995
 20
48.311956467700007
 30
0.0
 11
-83.005055555599995
 21
78.3119564677
 31
0.0
  0
LINE
  5
1B4
  8
ﾚｲﾔ_1
 62
     5
 10
-83.005055555599995
 20
48.311956467700007
 30
0.0
 11
-19.805055555599999
 21
48.311956467700007
 31
0.0
  0
LINE
  5
1B5
  8
ﾚｲﾔ_1
 62
     5
 10
-19.805055555599999
 20
78.3119564677
 30
0.0
 11
-83.005055555599995
 21
78.3119564677
 31
0.0
  0
LINE
  5
1B6
  8
ﾚｲﾔ_1
  6
STITCH
 10
-83.005055555599995
 20
9.0423047263999994
 30
0.0
 11
-81.405055555600001
 21
7.4423047263999988
 31
0.0
  0
LINE
  5
1B7
  8
ﾚｲﾔ_1
  6
STITCH
 10
-81.405055555600001
 20
7.4423047263999988
 30
0.0
 11
-79.805055555600006
 21
7.4423047263999988
 31
0.0
  0
DIMENSION
  5
1C6
  8
寸法線
  2
*D14
 10
-7.0371647509999971
 20
48.311956467700007
 30
0.0
 11
-7.0371647509999971
 21
35.17643678160001
 31
0.0
 70
   128
  1
<>
 13
-19.805055555599999
 23
48.311956467700007
 33
0.0
 14
-35.055055555599999
 24
61.0619564677
 34
0.0
 50
90.0
  0
DIMENSION
  5
1D5
  8
寸法線
  2
*D15
 10
-7.0371647509999971
 20
61.0619564677
 30
0.0
 11
-7.0371647509999971
 21
63.311956467700007
 31
0.0
 70
   128
  1
<>
 13
-35.055055555599999
 23
61.0619564677
 33
0.0
 14
-35.055055555599999
 24
65.561956467699986
 34
0.0
 50
90.0
  0
DIMENSION
  5
1E4
  8
寸法線
  2
*D16
 10
-49.805055555599999
 20
38.3119564677
 30
0.0
 11
-43.305055555600013
 21
38.3119564677
 31
0.0
 70
   128
  1
<>
 13
-49.805055555599999
 23
66.3119564677
 33
0.0
 14
-36.805055555599999
 24
48.311956467700007
 34
0.0
 50
180.0
  0
DIMENSION
  5
1F3
  8
寸法線
  2
*D17
 10
-93.005055555599995
 20
78.3119564677
 30
0.0
 11
-93.005055555599995
 21
63.311956467700007
 31
0.0
 70
   128
  1
<>
 13
-83.005055555599995
 23
78.3119564677
 33
0.0
 14
-83.005055555599995
 24
48.311956467700007
 34
0.0
 50
90.0
  0
DIMENSION
  5
202
  8
寸法線
  2
*D18
 10
-79.805055555600006
 20
96.429675603700005
 30
0.0
 11
-81.405055555600001
 21
96.429675603700005
 31
0.0
 70
   128
  1
<>
 13
-79.805055555600006
 23
78.3119564677
 33
0.0
 14
-83.005055555599995
 24
78.3119564677
 34
0.0
  0
DIMENSION
  5
211
  8
寸法線
  2
*D19
 10
-19.805055555599999
 20
96.429675603700005
 30
0.0
 11
-49.805055555599999
 21
96.429675603700005
 31
0.0
 70
   128
  1
<>
 13
-19.805055555599999
 23
78.3119564677
 33
0.0
 14
-79.805055555600006
 24
78.3119564677
 34
0.0
  0
LINE
  5
212
  8
ﾚｲﾔ_1
  6
STITCH
 10
-52.205055555599998
 20
-16.5576952736
 30
0.0
 11
-53.805055555599999
 21
-14.957695273600001
 31
0.0
  0
LINE
  5
213
  8
ﾚｲﾔ_1
  6
STITCH
 10
-47.405055555600008
 20
-16.5576952736
 30
0.0
 11
-52.205055555599998
 21
-16.5576952736
 31
0.0
  0
LINE
  5
214
  8
ﾚｲﾔ_1
  6
STITCH
 10
-47.405055555600008
 20
-16.5576952736
 30
0.0
 11
-47.405055555600008
 21
-18.157695273600002
 31
0.0
  0
LINE
  5
215
  8
ﾚｲﾔ_1
  6
STITCH
 10
-52.205055555599998
 20
-16.5576952736
 30
0.0
 11
-52.205055555599998
 21
-18.157695273600002
 31
0.0
  0
LINE
  5
216
  8
ﾚｲﾔ_1
  6
STITCH
 10
-39.205055555599998
 20
-16.5576952736
 30
0.0
 11
-39.205055555599998
 21
-18.157695273600002
 31
0.0
  0
LINE
  5
217
  8
ﾚｲﾔ_1
  6
STITCH
 10
-34.405055555600001
 20
-16.5576952736
 30
0.0
 11
-34.405055555600001
 21
-18.157695273600002
 31
0.0
  0
LINE
  5
218
  8
ﾚｲﾔ_1
  6
STITCH
 10
-34.405055555600001
 20
-16.5576952736
 30
0.0
 11
-39.205055555599998
 21
-16.5576952736
 31
0.0
  0
LINE
  5
219
  8
ﾚｲﾔ_1
  6
STITCH
 10
-39.205055555599998
 20
-16.5576952736
 30
0.0
 11
-40.805055555599999
 21
-14.957695273600001
 31
0.0
  0
LINE
  5
21A
  8
ﾚｲﾔ_1
  6
STITCH
 10
-32.805055555599999
 20
-14.957695273600001
 30
0.0
 11
-34.405055555600001
 21
-16.5576952736
 31
0.0
  0
LINE
  5
21B
  8
ﾚｲﾔ_1
 62
     5
 10
-19.805055555599999
 20
-18.157695273600002
 30
0.0
 11
-19.805055555599999
 21
-14.957695273600001
 31
0.0
  0
DIMENSION
  5
257
  8
寸法線
  2
*D23
 10
-79.805055555600006
 20
-30.946111111099999
 30
0.0
 11
-49.805055555599999
 21
-30.946111111099999
 31
0.0
 70
   128
  1
<>
 13
-79.805055555600006
 23
-13.6576952736
 33
0.0
 14
-19.805055555599999
 24
-18.157695273600002
 34
0.0
 50
180.0
  0
DIMENSION
  5
266
  8
寸法線
  2
*D24
 10
-9.8050555555999992
 20
-18.157695273600002
 30
0.0
 11
-9.8050555555999992
 21
-7.0793232566999986
 31
0.0
 70
   128
  1
<>t
 13
-19.805055555599999
 23
-18.157695273600002
 33
0.0
 14
-19.805055555599999
 24
-14.957695273600001
 34
0.0
 50
90.0
  0
LINE
  5
267
  8
ﾚｲﾔ_1
  6
BORDER
 62
     3
 10
-85.748421296299966
 20
5.0423047264000003
 30
0.0
 11
-76.951025463000008
 21
5.0423047264000003
 31
0.0
  0
LINE
  5
268
  8
ﾚｲﾔ_1
  6
STITCH
 10
-81.405055555600001
 20
7.4423047263999988
 30
0.0
 11
-81.405055555600001
 21
2.642304726399999
 31
0.0
  0
LINE
  5
269
  8
ﾚｲﾔ_1
  6
STITCH
 10
-81.405055555600001
 20
2.642304726399999
 30
0.0
 11
-79.805055555600006
 21
2.642304726399999
 31
0.0
  0
LINE
  5
26A
  8
ﾚｲﾔ_1
 62
     5
 10
-79.805055555600006
 20
15.042304726399999
 30
0.0
 11
-83.005055555599995
 21
15.042304726399999
 31
0.0
  0
LINE
  5
26B
  8
ﾚｲﾔ_1
  6
BORDER
 62
     3
 10
-85.748421296299966
 20
63.311956467700007
 30
0.0
 11
-76.951025463000008
 21
63.311956467700007
 31
0.0
  0
LINE
  5
26C
  8
ﾚｲﾔ_1
  6
STITCH
 10
-83.005055555599995
 20
67.3119564677
 30
0.0
 11
-81.405055555600001
 21
65.711956467700006
 31
0.0
  0
LINE
  5
26D
  8
ﾚｲﾔ_1
  6
STITCH
 10
-81.405055555600001
 20
65.711956467700006
 30
0.0
 11
-81.405055555600001
 21
60.911956467700001
 31
0.0
  0
LINE
  5
26E
  8
ﾚｲﾔ_1
  6
STITCH
 10
-81.405055555600001
 20
60.911956467700001
 30
0.0
 11
-83.005055555599995
 21
59.3119564677
 31
0.0
  0
LINE
  5
26F
  8
ﾚｲﾔ_1
  6
STITCH
 10
-81.405055555600001
 20
65.711956467700006
 30
0.0
 11
-79.805055555600006
 21
65.711956467700006
 31
0.0
  0
LINE
  5
270
  8
ﾚｲﾔ_1
  6
STITCH
 10
-81.405055555600001
 20
60.911956467700001
 30
0.0
 11
-79.805055555600006
 21
60.911956467700001
 31
0.0
  0
DIMENSION
  5
27F
  8
寸法線
  2
*D25
 10
0.4942761194
 20
48.311956467700007
 30
0.0
 11
0.4942761194
 21
51.311956467700007
 31
0.0
 70
   128
  1
<>
 13
-19.805055555599999
 23
48.311956467700007
 33
0.0
 14
-30.805055555599999
 24
54.3119564677
 34
0.0
 50
90.0
  0
DIMENSION
  5
28E
  8
寸法線
  2
*D26
 10
0.4942761194
 20
54.3119564677
 30
0.0
 11
0.4942761194
 21
63.311956467700007
 31
0.0
 70
   128
  1
<>
 13
-30.805055555599999
 23
54.3119564677
 33
0.0
 14
-43.805055555599999
 24
72.3119564677
 34
0.0
 50
90.0
  0
DIMENSION
  5
29D
  8
寸法線
  2
*D27
 10
0.4942761194
 20
72.3119564677
 30
0.0
 11
0.4942761194
 21
75.3119564677
 31
0.0
 70
   128
  1
<>
 13
-43.805055555599999
 23
72.3119564677
 33
0.0
 14
-19.805055555599999
 24
78.3119564677
 34
0.0
 50
90.0
  0
LINE
  5
29E
  8
図枠
 62
     5
 10
-134.97062907930001
 20
-69.746704849099984
 30
0.0
 11
140.02937092069999
 21
-69.746704849099984
 31
0.0
  0
LINE
  5
29F
  8
図枠
  6
DOT
 10
-140.97062907930001
 20
-75.496704849099999
 30
0.0
 11
146.02937092069999
 21
-75.496704849099999
 31
0.0
  0
LINE
  5
2A0
  8
図枠
 62
     5
 10
-134.97062907930001
 20
120.2532951509
 30
0.0
 11
140.02937092069999
 21
120.2532951509
 31
0.0
  0
LINE
  5
2A1
  8
図枠
  6
DOT
 10
-140.97062907930001
 20
126.0032951509
 30
0.0
 11
146.02937092069999
 21
126.0032951509
 31
0.0
  0
LINE
  5
2A2
  8
ﾚｲﾔ_1
  6
STITCH
 10
-81.405055555600001
 20
2.642304726399999
 30
0.0
 11
-83.005055555599995
 21
1.0423047264
 31
0.0
  0
LINE
  5
2A3
  8
ﾚｲﾔ_1
 62
     5
 10
-83.005055555599995
 20
15.042304726399999
 30
0.0
 11
-83.005055555599995
 21
-13.1576952736
 31
0.0
  0
LINE
  5
2A4
  8
ﾚｲﾔ_1
 62
     5
 10
-79.805055555600006
 20
15.042304726399999
 30
0.0
 11
-79.805055555600006
 21
-13.1576952736
 31
0.0
  0
DIMENSION
  5
2C1
  8
寸法線
  2
*D29
 10
-93.005055555599995
 20
15.042304726399999
 30
0.0
 11
-93.005055555599995
 21
0.0423047264
 31
0.0
 70
   128
  1
<>
 13
-83.005055555599995
 23
15.042304726399999
 33
0.0
 14
-78.505055555600009
 24
-14.957695273600001
 34
0.0
 50
90.0
  0
LINE
  5
2C2
  8
図枠
  6
DOT
 10
-140.9676290793
 20
-75.496704849099999
 30
0.0
 11
-140.9676290793
 21
126.0032951509
 31
0.0
  0
LINE
  5
2C3
  8
図枠
 62
     5
 10
-134.97062907930001
 20
-69.746704849099984
 30
0.0
 11
-134.97062907930001
 21
120.2532951509
 31
0.0
  0
LINE
  5
2C4
  8
図枠
  6
DOT
 10
146.02937092069999
 20
-75.496704849099999
 30
0.0
 11
146.02937092069999
 21
126.0032951509
 31
0.0
  0
LINE
  5
2C5
  8
図枠
 62
     5
 10
140.02937092069999
 20
-69.746704849099984
 30
0.0
 11
140.02937092069999
 21
120.2532951509
 31
0.0
  0
LINE
  5
2C6
  8
ﾚｲﾔ_1
  6
BORDER
 62
     3
 10
-49.805055555599999
 20
-12.214329532900001
 30
0.0
 11
-49.805055555599999
 21
-21.0117253662
 31
0.0
  0
LINE
  5
2C7
  8
ﾚｲﾔ_1
  6
BORDER
 62
     3
 10
-36.805055555599999
 20
-12.214329532900001
 30
0.0
 11
-36.805055555599999
 21
-21.0117253662
 31
0.0
  0
LINE
  5
2C8
  8
ﾚｲﾔ_1
 62
     5
 10
-78.005055555599981
 20
-18.157695273600002
 30
0.0
 11
-19.805055555599999
 21
-18.157695273600002
 31
0.0
  0
ARC
  5
2C9
  8
ﾚｲﾔ_1
 62
     5
 10
-78.005055555599981
 20
-13.1576952736
 30
0.0
 40
5.0
 50
180.0
 51
270.0
  0
LINE
  5
2CA
  8
ﾚｲﾔ_1
 62
     5
 10
-78.005055555599981
 20
-14.957695273600001
 30
0.0
 11
-19.805055555599999
 21
-14.957695273600001
 31
0.0
  0
ARC
  5
2CB
  8
ﾚｲﾔ_1
 62
     5
 10
-78.005055555599981
 20
-13.1576952736
 30
0.0
 40
1.8
 50
180.0
 51
270.0
  0
LINE
  5
2CC
  8
ﾚｲﾔ_1
  6
STITCH
 10
-32.805055555599999
 20
-14.957695273600001
 30
0.0
 11
-32.805055555599999
 21
-18.157695273600002
 31
0.0
  0
LINE
  5
2CD
  8
ﾚｲﾔ_1
  6
STITCH
 10
-65.805055555600006
 20
-14.957695273600001
 30
0.0
 11
-65.805055555600006
 21
-18.157695273600002
 31
0.0
  0
LINE
  5
2CE
  8
ﾚｲﾔ_1
  6
STITCH
 10
-45.805055555600013
 20
-14.957695273600001
 30
0.0
 11
-47.405055555600008
 21
-16.5576952736
 31
0.0
  0
LINE
  5
B83
  8
ﾚｲﾔ_1
  6
STITCH
 10
49.150867861433213
 20
1.4243088585210011
 30
0.0
 11
45.950867861433153
 21
-1.7756911414789971
 31
0.0
  0
LINE
  5
B84
  8
ﾚｲﾔ_1
 62
     5
 10
14.38282912827742
 20
1.4243088585210011
 30
0.0
 11
66.680261001828555
 21
1.4243088585210011
 31
0.0
  0
LINE
  5
B85
  8
ﾚｲﾔ_1
 62
     5
 10
14.38282912827742
 20
-4.9756911414790004
 30
0.0
 11
66.680261001828555
 21
-4.9756911414789871
 31
0.0
  0
LINE
  5
B86
  8
ﾚｲﾔ_1
  6
BORDER
 62
     3
 10
41.150867861433241
 20
6.911040339920997
 30
0.0
 11
41.150867861433241
 21
-10.68375132667901
 31
0.0
  0
DIMENSION
  5
B87
  8
0
  2
*D118
 10
33.150867861433241
 20
10.69672141914122
 30
0.0
 11
40.967082605455971
 21
10.69672141914122
 31
0.0
 70
   128
  1
φ8
 13
49.150867861433213
 23
1.4243088585210011
 33
0.0
 14
33.150867861433241
 24
1.4243088585210011
 34
0.0
1001
ACAD
1000
DSTYLE
1002
{
1070
    40
1040
1.0
1002
}
  0
LINE
  5
B8A
  8
ﾚｲﾔ_1
  6
STITCH
 10
36.350867861433223
 20
-1.7756911414789971
 30
0.0
 11
36.350867861433223
 21
-4.9756911414790004
 31
0.0
  0
LINE
  5
B8B
  8
ﾚｲﾔ_1
  6
STITCH
 10
45.950867861433153
 20
-1.7756911414789971
 30
0.0
 11
45.950867861433153
 21
-4.9756911414790004
 31
0.0
  0
LINE
  5
B8C
  8
ﾚｲﾔ_1
  6
STITCH
 10
45.950867861433153
 20
-1.7756911414789971
 30
0.0
 11
36.350867861433223
 21
-1.7756911414789971
 31
0.0
  0
LINE
  5
B8D
  8
ﾚｲﾔ_1
  6
STITCH
 10
36.350867861433223
 20
-1.7756911414789971
 30
0.0
 11
33.150867861433241
 21
1.4243088585210011
 31
0.0
  0
DIMENSION
  5
10E5
  8
0
  6
CONTINUOUS
  2
*D119
 10
45.950867861433153
 20
-14.03780186686072
 30
0.0
 11
41.150867861433177
 21
-12.28780186686072
 31
0.0
 70
     0
  1
φ4.5
 13
36.350867861433223
 23
-4.9756911414790004
 33
0.0
 14
45.950867861433153
 24
-4.9756911414790004
 34
0.0
1001
ACAD
1000
DSTYLE
1002
{
1070
    40
1040
1.0
1002
}
  0
DIMENSION
  5
12E0
  8
0
  6
CONTINUOUS
  2
*D117
 10
36.350867861433173
 20
-1.775691141479008
 30
0.0
 11
41.969046552343897
 21
18.611527012780069
 31
0.0
 70
   130
 13
45.950867861433082
 23
-1.775691141479008
 33
0.0
 14
49.150867861433213
 24
1.4243088585210011
 34
0.0
 15
33.150867861433163
 25
1.4243088585210011
 35
0.0
 16
34.628497619386891
 26
17.76612598761325
 36
0.0
1001
ACAD
1000
DSTYLE
1002
{
1070
   271
1070
     0
1070
    40
1040
1.0
1002
}
  0
ENDSEC
  0
EOF
