  0
SECTION
  2
HEADER
  9
$ACADVER
  1
AC1009
  9
$INSBASE
 10
0.0
 20
0.0
 30
0.0
  9
$EXTMIN
 10
-212.72063657876231
 20
-125.87922418826849
 30
-0.0015258207003583
  9
$EXTMAX
 10
217.8056390560339
 20
176.3892236877295
 30
0.0000000349246037
  9
$LIMMIN
 10
0.0
 20
0.0
  9
$LIMMAX
 10
0.0
 20
0.0
  9
$ORTHOMODE
 70
     1
  9
$REGENMODE
 70
     1
  9
$FILLMODE
 70
     1
  9
$QTEXTMODE
 70
     0
  9
$MIRRTEXT
 70
     1
  9
$DRAGMODE
 70
     2
  9
$LTSCALE
 40
1.0
  9
$OSMODE
 70
    31
  9
$ATTMODE
 70
     1
  9
$TEXTSIZE
 40
0.0
  9
$TRACEWID
 40
0.05
  9
$TEXTSTYLE
  7
STANDARD
  9
$CLAYER
  8
0
  9
$CELTYPE
  6
CONTINUOUS
  9
$CECOLOR
 62
   256
  9
$DIMSCALE
 40
0.0
  9
$DIMASZ
 40
2.5
  9
$DIMEXO
 40
2.5
  9
$DIMDLI
 40
14.0
  9
$DIMRND
 40
0.0
  9
$DIMDLE
 40
0.0
  9
$DIMEXE
 40
2.0
  9
$DIMTP
 40
0.0
  9
$DIMTM
 40
0.0
  9
$DIMTXT
 40
5.0
  9
$DIMCEN
 40
2.0
  9
$DIMTSZ
 40
0.0
  9
$DIMTOL
 70
     0
  9
$DIMLIM
 70
     0
  9
$DIMTIH
 70
     0
  9
$DIMTOH
 70
     0
  9
$DIMSE1
 70
     0
  9
$DIMSE2
 70
     0
  9
$DIMTAD
 70
     1
  9
$DIMZIN
 70
     8
  9
$DIMBLK
  1

  9
$DIMASO
 70
     1
  9
$DIMSHO
 70
     1
  9
$DIMPOST
  1

  9
$DIMAPOST
  1

  9
$DIMALT
 70
     0
  9
$DIMALTD
 70
     4
  9
$DIMALTF
 40
0.0394
  9
$DIMLFAC
 40
1.0
  9
$DIMTOFL
 70
     1
  9
$DIMTVP
 40
0.0
  9
$DIMTIX
 70
     0
  9
$DIMSOXD
 70
     0
  9
$DIMSAH
 70
     0
  9
$DIMBLK1
  1

  9
$DIMBLK2
  1

  9
$DIMSTYLE
  2
基本_１_２_
  9
$DIMCLRD
 70
     4
  9
$DIMCLRE
 70
     4
  9
$DIMCLRT
 70
     4
  9
$DIMTFAC
 40
1.0
  9
$DIMGAP
 40
1.0
  9
$LUNITS
 70
     2
  9
$LUPREC
 70
     4
  9
$SKETCHINC
 40
0.1
  9
$FILLETRAD
 40
0.0
  9
$AUNITS
 70
     0
  9
$AUPREC
 70
     0
  9
$MENU
  1
acad
  9
$ELEVATION
 40
0.0
  9
$PELEVATION
 40
0.0
  9
$THICKNESS
 40
0.0
  9
$LIMCHECK
 70
     0
  9
$BLIPMODE
 70
     0
  9
$CHAMFERA
 40
0.0
  9
$CHAMFERB
 40
0.0
  9
$SKPOLY
 70
     0
  9
$TDCREATE
 40
2454863.471115266
  9
$TDUPDATE
 40
2454863.4774658098
  9
$TDINDWG
 40
0.0062687963
  9
$TDUSRTIMER
 40
0.0062684375
  9
$USRTIMER
 70
     1
  9
$ANGBASE
 50
0.0
  9
$ANGDIR
 70
     0
  9
$PDMODE
 70
     3
  9
$PDSIZE
 40
-1.0
  9
$PLINEWID
 40
0.0
  9
$COORDS
 70
     2
  9
$SPLFRAME
 70
     0
  9
$SPLINETYPE
 70
     6
  9
$SPLINESEGS
 70
     8
  9
$ATTDIA
 70
     0
  9
$ATTREQ
 70
     1
  9
$HANDLING
 70
     1
  9
$HANDSEED
  5
D42
  9
$SURFTAB1
 70
     6
  9
$SURFTAB2
 70
     6
  9
$SURFTYPE
 70
     6
  9
$SURFU
 70
     6
  9
$SURFV
 70
     6
  9
$UCSNAME
  2

  9
$UCSORG
 10
0.0
 20
0.0
 30
0.0
  9
$UCSXDIR
 10
1.0
 20
0.0
 30
0.0
  9
$UCSYDIR
 10
0.0
 20
1.0
 30
0.0
  9
$PUCSNAME
  2

  9
$PUCSORG
 10
0.0
 20
0.0
 30
0.0
  9
$PUCSXDIR
 10
1.0
 20
0.0
 30
0.0
  9
$PUCSYDIR
 10
0.0
 20
1.0
 30
0.0
  9
$USERI1
 70
     0
  9
$USERI2
 70
     0
  9
$USERI3
 70
     0
  9
$USERI4
 70
     0
  9
$USERI5
 70
     0
  9
$USERR1
 40
0.0
  9
$USERR2
 40
0.0
  9
$USERR3
 40
0.0
  9
$USERR4
 40
0.0
  9
$USERR5
 40
0.0
  9
$WORLDVIEW
 70
     1
  9
$SHADEDGE
 70
     3
  9
$SHADEDIF
 70
    70
  9
$TILEMODE
 70
     1
  9
$MAXACTVP
 70
    16
  9
$PLIMCHECK
 70
     0
  9
$PEXTMIN
 10
1.0000000000000000E+020
 20
1.0000000000000000E+020
 30
1.0000000000000000E+020
  9
$PEXTMAX
 10
-1.0000000000000000E+020
 20
-1.0000000000000000E+020
 30
-1.0000000000000000E+020
  9
$PLIMMIN
 10
0.0
 20
0.0
  9
$PLIMMAX
 10
12.0
 20
9.0
  9
$UNITMODE
 70
     0
  9
$VISRETAIN
 70
     0
  9
$PLINEGEN
 70
     1
  9
$PSLTSCALE
 70
     0
  0
ENDSEC
  0
SECTION
  2
TABLES
  0
TABLE
  2
VPORT
 70
     3
  0
VPORT
  2
*ACTIVE
 70
     0
 10
0.0
 20
0.0
 11
1.0
 21
1.0
 12
2.542501238635765
 22
25.25499974973053
 13
0.0
 23
0.0
 14
1.0
 24
1.0
 15
0.0
 25
0.0
 16
0.0
 26
0.0
 36
1.0
 17
0.0
 27
0.0
 37
0.0
 40
305.80501098684999
 41
1.4164265129682989
 42
50.0
 43
0.0
 44
0.0
 50
0.0
 51
0.0
 71
     0
 72
   100
 73
     1
 74
     1
 75
     0
 76
     0
 77
     0
 78
     0
  0
ENDTAB
  0
TABLE
  2
LTYPE
 70
    11
  0
LTYPE
  2
CONTINUOUS
 70
     0
  3
Solid line
 72
    65
 73
     0
 40
0.0
  0
LTYPE
  2
DOT
 70
     0
  3
. . . . . . . . 
 72
    65
 73
     2
 40
1.0
 49
0.0
 49
-1.0
  0
LTYPE
  2
DASHED
 70
     0
  3
___  ___  ___  ___  
 72
    65
 73
     2
 40
4.0
 49
3.0
 49
-1.0
  0
LTYPE
  2
HIDDEN
 70
     0
  3
__ __ __ __ 
 72
    65
 73
     2
 40
3.0
 49
2.0
 49
-1.0
  0
LTYPE
  2
STITCH
 70
     0
  3
_ _ _ _ 
 72
    65
 73
     2
 40
2.0
 49
1.0
 49
-1.0
  0
LTYPE
  2
CENTER
 70
     0
  3
______  __  ______  __  
 72
    65
 73
     4
 40
43.0
 49
40.0
 49
-1.0
 49
1.0
 49
-1.0
  0
LTYPE
  2
DASHDOT
 70
     0
  3
____ . ____ . 
 72
    65
 73
     4
 40
32.0
 49
30.0
 49
-1.0
 49
0.0
 49
-1.0
  0
LTYPE
  2
BORDER
 70
     0
  3
__ . __ . 
 72
    65
 73
     4
 40
22.0
 49
20.0
 49
-1.0
 49
0.0
 49
-1.0
  0
LTYPE
  2
CUTTING
 70
     0
  3
________   ___   ___   
 72
    65
 73
     6
 40
45.0
 49
40.0
 49
-1.0
 49
1.0
 49
-1.0
 49
1.0
 49
-1.0
  0
LTYPE
  2
PHANTOM
 70
     0
  3
______  __  __  
 72
    65
 73
     6
 40
35.0
 49
30.0
 49
-1.0
 49
1.0
 49
-1.0
 49
1.0
 49
-1.0
  0
LTYPE
  2
DIVIDE
 70
     0
  3
____ . . ____ . . 
 72
    65
 73
     6
 40
23.0
 49
20.0
 49
-1.0
 49
0.0
 49
-1.0
 49
0.0
 49
-1.0
  0
ENDTAB
  0
TABLE
  2
LAYER
 70
     6
  0
LAYER
  2
0
 70
     0
 62
     7
  6
CONTINUOUS
  0
LAYER
  2
ﾚｲﾔ_10
 70
     0
 62
     7
  6
CONTINUOUS
  0
LAYER
  2
寸法線
 70
     0
 62
     7
  6
CONTINUOUS
  0
LAYER
  2
図枠
 70
     0
 62
     7
  6
CONTINUOUS
  0
LAYER
  2
ﾚｲﾔ_1
 70
     0
 62
     7
  6
CONTINUOUS
  0
LAYER
  2
DEFPOINTS
 70
     0
 62
     7
  6
CONTINUOUS
  0
ENDTAB
  0
TABLE
  2
STYLE
 70
     2
  0
STYLE
  2
STANDARD
 70
     0
 40
0.0
 41
1.0
 50
0.0
 71
     0
 42
0.0
  3
txt
  4
extfont
  0
STYLE
  2
ゴシック
 70
     0
 40
0.0
 41
1.0
 50
0.0
 71
     0
 42
1.7676767676767671
  3
txt
  4

  0
ENDTAB
  0
TABLE
  2
VIEW
 70
     0
  0
ENDTAB
  0
TABLE
  2
UCS
 70
     0
  0
ENDTAB
  0
TABLE
  2
APPID
 70
     2
  0
APPID
  2
ACAD
 70
     0
  0
APPID
  2
DCO15
 70
     0
  0
ENDTAB
  0
TABLE
  2
DIMSTYLE
 70
     4
  0
DIMSTYLE
  2
STANDARD
 70
     0
  3

  4

  5

  6

  7

 40
1.0
 41
0.18
 42
0.0625
 43
0.38
 44
0.18
 45
0.0
 46
0.0
 47
0.0
 48
0.0
140
0.18
141
0.09
142
0.0
143
25.399999999999999
144
1.0
145
0.0
146
1.0
147
0.09
 71
     0
 72
     0
 73
     1
 74
     1
 75
     0
 76
     0
 77
     0
 78
     0
170
     0
171
     2
172
     0
173
     0
174
     0
175
     0
176
     0
177
     0
178
     0
  0
DIMSTYLE
  2
VELDIM0
 70
     0
  3

  4

  5

  6

  7

 40
1.0
 41
4.5
 42
0.0625
 43
0.38
 44
1.25
 45
0.0
 46
5.0
 47
0.0
 48
0.0
140
4.4979165315999996
141
0.09
142
0.0
143
25.399999999999999
144
1.0
145
0.0
146
1.0
147
0.09
 71
     0
 72
     0
 73
     0
 74
     0
 75
     0
 76
     0
 77
     0
 78
     8
170
     0
171
     2
172
     0
173
     0
174
     0
175
     0
176
     0
177
     0
178
     0
  0
DIMSTYLE
  2
VELDIM1
 70
     0
  3

  4

  5

  6

  7

 40
1.0
 41
4.5
 42
0.0625
 43
0.38
 44
1.0
 45
0.0
 46
5.0
 47
0.0
 48
0.0
140
4.4979165315999996
141
0.09
142
0.0
143
25.399999999999999
144
1.0
145
0.0
146
1.0
147
0.09
 71
     0
 72
     0
 73
     0
 74
     0
 75
     0
 76
     0
 77
     0
 78
     8
170
     0
171
     2
172
     0
173
     0
174
     0
175
     0
176
     0
177
     0
178
     0
  0
DIMSTYLE
  2
基本_１_２_
 70
     0
  3

  4

  5

  6

  7

 40
0.0
 41
2.5
 42
2.5
 43
14.0
 44
2.0
 45
0.0
 46
0.0
 47
0.0
 48
0.0
140
5.0
141
2.0
142
0.0
143
0.0394
144
1.0
145
0.0
146
1.0
147
1.0
 71
     0
 72
     0
 73
     0
 74
     0
 75
     0
 76
     0
 77
     1
 78
     8
170
     0
171
     4
172
     1
173
     0
174
     0
175
     0
176
     4
177
     4
178
     4
  0
ENDTAB
  0
ENDSEC
  0
SECTION
  2
BLOCKS
  0
BLOCK
  8
0
  2
$MODEL_SPACE
 70
     0
 10
0.0
 20
0.0
 30
0.0
  3
$MODEL_SPACE
  1

  0
ENDBLK
  5
E
  8
0
  0
BLOCK
 67
     1
  8
0
  2
$PAPER_SPACE
 70
     0
 10
0.0
 20
0.0
 30
0.0
  3
$PAPER_SPACE
  1

  0
ENDBLK
  5
10
 67
     1
  8
0
  0
BLOCK
  8
0
  2
CLUMP0
 70
     0
 10
0.0
 20
0.0
 30
0.0
  3
CLUMP0
  1

  0
LINE
  5
32
  8
ﾚｲﾔ_10
  6
STITCH
 10
-122.23583984379999
 20
-17.074934895799998
 30
0.0
 11
-123.8858398438
 21
-15.4249348958
 31
0.0
  0
ARC
  5
33
  8
ﾚｲﾔ_10
 62
     5
 10
-120.23583984379999
 20
-19.324934895799998
 30
0.0
 40
5.0
 50
180.0
 51
270.0
  0
ARC
  5
34
  8
ﾚｲﾔ_10
 62
     5
 10
-120.23583984379999
 20
-19.324934895799998
 30
0.0
 40
2.0
 50
180.0
 51
270.0
  0
LINE
  5
35
  8
ﾚｲﾔ_10
 10
-118.9653072774
 20
119.9239735414
 30
0.0
 11
-98.124281636299997
 21
119.9239735414
 31
0.0
  0
LINE
  5
36
  8
ﾚｲﾔ_10
 10
-118.9653072774
 20
120.9239735414
 30
0.0
 11
-98.124281636299997
 21
120.9239735414
 31
0.0
  0
LINE
  5
37
  8
ﾚｲﾔ_10
 10
-118.9653072774
 20
116.9239735414
 30
0.0
 11
-98.124281636299997
 21
116.9239735414
 31
0.0
  0
DIMENSION
  5
40
  8
寸法線
  2
*D1
 10
52.230761718799997
 20
97.490950520800013
 30
0.0
 11
-23.694332022200001
 21
110.8035659042
 31
0.0
 70
   132
  1
<>
  3
VELDIM0
 15
20.3552094512
 25
106.0319790092
 35
0.0
 40
0.0
  0
LINE
  5
42
  8
図枠
 62
     5
 10
-203.70749976370001
 20
167.75499904599999
 30
0.0
 11
208.79250023629999
 21
167.75499904599999
 31
0.0
  0
LINE
  5
43
  8
図枠
 62
     5
 10
-203.70749976370001
 20
-117.24500095400001
 30
0.0
 11
208.79250023629999
 21
-117.24500095400001
 31
0.0
  0
LINE
  5
44
  8
図枠
  6
DOT
 10
-212.70749976370001
 20
176.37999904599999
 30
0.0
 11
217.79250023629999
 21
176.37999904599999
 31
0.0
  0
LINE
  5
45
  8
図枠
  6
DOT
 10
-212.70749976370001
 20
-125.87000095400001
 30
0.0
 11
217.79250023629999
 21
-125.87000095400001
 31
0.0
  0
LINE
  5
46
  8
ﾚｲﾔ_10
  6
BORDER
 62
     3
 10
-118.80481119789999
 20
0.6750651042
 30
0.0
 11
-129.02528738839999
 21
0.6750651042
 31
0.0
  0
LINE
  5
47
  8
ﾚｲﾔ_10
  6
STITCH
 10
-123.8858398438
 20
-1.4249348958000001
 30
0.0
 11
-125.23583984379999
 21
-1.4249348958000001
 31
0.0
  0
LINE
  5
48
  8
ﾚｲﾔ_10
  6
STITCH
 10
-122.23583984379999
 20
-3.0749348957999989
 30
0.0
 11
-123.8858398438
 21
-1.4249348958000001
 31
0.0
  0
LINE
  5
49
  8
ﾚｲﾔ_10
 62
     5
 10
-122.23583984379999
 20
10.6750651042
 30
0.0
 11
-122.23583984379999
 21
-19.324934895799998
 31
0.0
  0
LINE
  5
4A
  8
ﾚｲﾔ_10
 62
     5
 10
-125.23583984379999
 20
10.6750651042
 30
0.0
 11
-125.23583984379999
 21
-19.324934895799998
 31
0.0
  0
LINE
  5
4B
  8
ﾚｲﾔ_10
  6
STITCH
 10
-123.8858398438
 20
2.7750651041999999
 30
0.0
 11
-123.8858398438
 21
-1.4249348958000001
 31
0.0
  0
DIMENSION
  5
5B
  8
寸法線
  2
*D2
 10
-145.23583984379999
 20
10.6750651042
 30
0.0
 11
-145.23583984379999
 21
-6.8249348958000002
 31
0.0
 70
   128
  1
<>
  3
VELDIM1
 13
-125.23583984379999
 23
10.6750651042
 33
0.0
 14
-120.23583984379999
 24
-24.324934895799998
 34
0.0
 50
90.0
  0
DIMENSION
  5
68
  8
寸法線
  2
*D3
 10
-110.8508056558
 20
-10.200626681699999
 30
0.0
 11
-111.4508535315
 21
-9.6179580466000001
 31
0.0
 70
   133
  1
<>
  3
VELDIM0
 13
-122.23583984379999
 23
10.6750651042
 33
0.0
 14
-89.485839843799994
 24
-21.324934895799998
 34
0.0
 15
-122.23583984379999
 25
-21.324934895799998
 35
0.0
1001
ACAD
1000
DSTYLE
1002
{
1070
   271
1070
     0
1002
}
  0
LINE
  5
69
  8
図枠
 62
     5
 10
-203.70749976370001
 20
-117.24500095400001
 30
0.0
 11
-203.70749976370001
 21
167.75499904599999
 31
0.0
  0
LINE
  5
6A
  8
図枠
  6
DOT
 10
-212.70299976370001
 20
-125.87000095400001
 30
0.0
 11
-212.70299976370001
 21
176.37999904599999
 31
0.0
  0
LINE
  5
6B
  8
図枠
  6
DOT
 10
217.79250023629999
 20
-125.87000095400001
 30
0.0
 11
217.79250023629999
 21
176.37999904599999
 31
0.0
  0
LINE
  5
6C
  8
図枠
 62
     5
 10
208.79250023629999
 20
-117.24500095400001
 30
0.0
 11
208.79250023629999
 21
167.75499904599999
 31
0.0
  0
LINE
  5
6D
  8
ﾚｲﾔ_10
  6
STITCH
 10
-122.23583984379999
 20
-9.5749348958000002
 30
0.0
 11
-123.8858398438
 21
-11.224934895800001
 31
0.0
  0
LINE
  5
6E
  8
ﾚｲﾔ_10
  6
STITCH
 10
-123.8858398438
 20
-11.224934895800001
 30
0.0
 11
-123.8858398438
 21
-15.4249348958
 31
0.0
  0
LINE
  5
6F
  8
ﾚｲﾔ_10
  6
STITCH
 10
-123.8858398438
 20
-15.4249348958
 30
0.0
 11
-125.23583984379999
 21
-15.4249348958
 31
0.0
  0
LINE
  5
70
  8
ﾚｲﾔ_10
  6
STITCH
 10
-123.8858398438
 20
-11.224934895800001
 30
0.0
 11
-125.23583984379999
 21
-11.224934895800001
 31
0.0
  0
LINE
  5
71
  8
ﾚｲﾔ_10
  6
BORDER
 62
     3
 10
-118.80481119789999
 20
-13.3249348958
 30
0.0
 11
-129.02528738839999
 21
-13.3249348958
 31
0.0
  0
LINE
  5
72
  8
ﾚｲﾔ_10
  6
STITCH
 10
-123.8858398438
 20
95.390950520800004
 30
0.0
 11
-123.8858398438
 21
99.590950520800007
 31
0.0
  0
LINE
  5
73
  8
ﾚｲﾔ_10
  6
STITCH
 10
-122.23583984379999
 20
93.740950520799984
 30
0.0
 11
-123.8858398438
 21
95.390950520800004
 31
0.0
  0
LINE
  5
74
  8
ﾚｲﾔ_10
  6
STITCH
 10
-123.8858398438
 20
104.3909505208
 30
0.0
 11
-125.23583984379999
 21
104.3909505208
 31
0.0
  0
LINE
  5
75
  8
ﾚｲﾔ_10
  6
BORDER
 62
     3
 10
-114.23583984379999
 20
-17.893906250000001
 30
0.0
 11
-114.23583984379999
 21
-28.114382440499998
 31
0.0
  0
LINE
  5
76
  8
ﾚｲﾔ_10
  6
STITCH
 10
-112.1358398438
 20
-22.974934895800001
 30
0.0
 11
-112.1358398438
 21
-24.324934895799998
 31
0.0
  0
LINE
  5
77
  8
ﾚｲﾔ_10
  6
STITCH
 10
-116.3358398438
 20
-22.974934895800001
 30
0.0
 11
-116.3358398438
 21
-24.324934895799998
 31
0.0
  0
LINE
  5
78
  8
ﾚｲﾔ_10
  6
STITCH
 10
-112.1358398438
 20
-22.974934895800001
 30
0.0
 11
-116.3358398438
 21
-22.974934895800001
 31
0.0
  0
LINE
  5
79
  8
ﾚｲﾔ_10
  6
STITCH
 10
-110.48583984379999
 20
-21.324934895799998
 30
0.0
 11
-112.1358398438
 21
-22.974934895800001
 31
0.0
  0
LINE
  5
7A
  8
ﾚｲﾔ_10
  6
STITCH
 10
-117.98583984379999
 20
-21.324934895799998
 30
0.0
 11
-116.3358398438
 21
-22.974934895800001
 31
0.0
  0
LINE
  5
7B
  8
ﾚｲﾔ_10
 62
     5
 10
-90.235839843799994
 20
-24.324934895799998
 30
0.0
 11
-90.235839843799994
 21
-21.324934895799998
 31
0.0
  0
LINE
  5
7C
  8
ﾚｲﾔ_10
 62
     5
 10
-93.845839843799979
 20
-24.324934895799998
 30
0.0
 11
-93.845839843799979
 21
-21.324934895799998
 31
0.0
  0
LINE
  5
7D
  8
ﾚｲﾔ_10
  6
BORDER
 62
     3
 10
-100.23583984379999
 20
-17.893906250000001
 30
0.0
 11
-100.23583984379999
 21
-28.114382440499998
 31
0.0
  0
LINE
  5
7E
  8
ﾚｲﾔ_10
  6
STITCH
 10
-98.135839843799985
 20
-22.974934895800001
 30
0.0
 11
-98.135839843799985
 21
-24.324934895799998
 31
0.0
  0
LINE
  5
7F
  8
ﾚｲﾔ_10
  6
STITCH
 10
-102.3358398438
 20
-22.974934895800001
 30
0.0
 11
-102.3358398438
 21
-24.324934895799998
 31
0.0
  0
LINE
  5
80
  8
ﾚｲﾔ_10
  6
STITCH
 10
-98.135839843799985
 20
-22.974934895800001
 30
0.0
 11
-102.3358398438
 21
-22.974934895800001
 31
0.0
  0
LINE
  5
81
  8
ﾚｲﾔ_10
  6
STITCH
 10
-96.485839843799994
 20
-21.324934895799998
 30
0.0
 11
-98.135839843799985
 21
-22.974934895800001
 31
0.0
  0
LINE
  5
82
  8
ﾚｲﾔ_10
 62
     5
 10
-120.23583984379999
 20
-21.324934895799998
 30
0.0
 11
-90.235839843799994
 21
-21.324934895799998
 31
0.0
  0
LINE
  5
83
  8
ﾚｲﾔ_10
 62
     5
 10
-120.23583984379999
 20
-24.324934895799998
 30
0.0
 11
-90.235839843799994
 21
-24.324934895799998
 31
0.0
  0
LINE
  5
84
  8
ﾚｲﾔ_10
  6
STITCH
 10
-103.98583984379999
 20
-21.324934895799998
 30
0.0
 11
-102.3358398438
 21
-22.974934895800001
 31
0.0
  0
DIMENSION
  5
93
  8
寸法線
  2
*D4
 10
-125.23583984379999
 20
-44.324934895799991
 30
0.0
 11
-107.73583984379999
 21
-44.324934895799991
 31
0.0
 70
   128
  1
<>
  3
VELDIM1
 13
-125.23583984379999
 23
-19.324934895799998
 33
0.0
 14
-90.235839843799994
 24
-24.324934895799998
 34
0.0
 50
180.0
  0
LINE
  5
94
  8
ﾚｲﾔ_10
  6
STITCH
 10
-122.23583984379999
 20
4.4250651041999989
 30
0.0
 11
-123.8858398438
 21
2.7750651041999999
 31
0.0
  0
LINE
  5
95
  8
ﾚｲﾔ_10
  6
STITCH
 10
-123.8858398438
 20
2.7750651041999999
 30
0.0
 11
-125.23583984379999
 21
2.7750651041999999
 31
0.0
  0
LINE
  5
96
  8
ﾚｲﾔ_10
 10
-118.9653072774
 20
117.9239735414
 30
0.0
 11
-98.124281636299997
 21
117.9239735414
 31
0.0
  0
INSERT
  5
97
  8
0
  6
CONTINUOUS
  2
*U62
 10
0.0
 20
0.0
 30
0.0
  0
LINE
  5
98
  8
ﾚｲﾔ_10
 10
-118.9653072774
 20
118.9239735414
 30
0.0
 11
-98.124281636299997
 21
118.9239735414
 31
0.0
  0
DIMENSION
  5
A7
  8
寸法線
  2
*D5
 10
-73.841962930400001
 20
82.490950520799984
 30
0.0
 11
-73.841962930400001
 21
74.007747395799996
 31
0.0
 70
   128
  1
<>
  3
VELDIM1
 13
-93.841962930400015
 23
82.490950520799984
 33
0.0
 14
-95.235839843799994
 24
88.490950520799998
 34
0.0
 50
90.0
  0
DIMENSION
  5
AE
  8
寸法線
  2
*D6
 10
-123.23583984379999
 20
97.490950520800013
 30
0.0
 11
-35.508515267900002
 21
115.8929847923
 31
0.0
 70
   132
  1
<>
  3
VELDIM0
 15
-91.360287576200008
 25
106.0319790092
 35
0.0
 40
0.0
  0
INSERT
  5
AF
  8
0
  6
CONTINUOUS
  2
*U63
 10
0.0
 20
0.0
 30
0.0
  0
ARC
  5
B0
  8
ﾚｲﾔ_10
 62
     5
 10
-123.23583984379999
 20
97.490950520800013
 30
0.0
 40
33.0
 50
332.9643082106
 51
27.035691789400001
  0
LINE
  5
B1
  8
ﾚｲﾔ_10
  6
BORDER
 62
     3
 10
-105.23583984379999
 20
106.4909505208
 30
0.0
 11
-95.235839843799994
 21
106.4909505208
 31
0.0
  0
LINE
  5
B2
  8
ﾚｲﾔ_10
  6
BORDER
 62
     3
 10
-100.23583984379999
 20
111.4909505208
 30
0.0
 11
-100.23583984379999
 21
101.4909505208
 31
0.0
  0
CIRCLE
  5
B3
  8
ﾚｲﾔ_10
 62
     5
 10
-100.23583984379999
 20
106.4909505208
 30
0.0
 40
3.75
  0
CIRCLE
  5
B4
  8
ﾚｲﾔ_10
 62
     5
 10
-100.23583984379999
 20
106.4909505208
 30
0.0
 40
2.1000000000000001
  0
CIRCLE
  5
B5
  8
ﾚｲﾔ_10
 62
     5
 10
-100.23583984379999
 20
88.490950520799998
 30
0.0
 40
2.1000000000000001
  0
CIRCLE
  5
B6
  8
ﾚｲﾔ_10
 62
     5
 10
-100.23583984379999
 20
88.490950520799998
 30
0.0
 40
3.75
  0
LINE
  5
B7
  8
ﾚｲﾔ_10
  6
BORDER
 62
     3
 10
-100.23583984379999
 20
93.490950520799998
 30
0.0
 11
-100.23583984379999
 21
83.490950520799998
 31
0.0
  0
LINE
  5
B8
  8
ﾚｲﾔ_10
  6
BORDER
 62
     3
 10
-105.23583984379999
 20
88.490950520799998
 30
0.0
 11
-95.235839843799994
 21
88.490950520799998
 31
0.0
  0
LINE
  5
B9
  8
ﾚｲﾔ_10
 62
     5
 10
-125.23583984379999
 20
82.490950520799984
 30
0.0
 11
-93.841962930400015
 21
82.490950520799984
 31
0.0
  0
LINE
  5
BA
  8
ﾚｲﾔ_10
 62
     5
 10
-93.841962930400015
 20
112.4909505208
 30
0.0
 11
-125.23583984379999
 21
112.4909505208
 31
0.0
  0
LINE
  5
BB
  8
ﾚｲﾔ_10
 62
     5
 10
-122.23583984379999
 20
7.0650651041999986
 30
0.0
 11
-125.23583984379999
 21
7.0650651041999986
 31
0.0
  0
LINE
  5
BC
  8
ﾚｲﾔ_10
 62
     5
 10
-122.23583984379999
 20
10.6750651042
 30
0.0
 11
-125.23583984379999
 21
10.6750651042
 31
0.0
  0
LINE
  5
BD
  8
ﾚｲﾔ_10
  6
BORDER
 62
     3
 10
-118.80481119789999
 20
97.490950520800013
 30
0.0
 11
-129.02528738839999
 21
97.490950520800013
 31
0.0
  0
LINE
  5
BE
  8
ﾚｲﾔ_10
  6
BORDER
 62
     3
 10
-118.80481119789999
 20
106.4909505208
 30
0.0
 11
-129.02528738839999
 21
106.4909505208
 31
0.0
  0
LINE
  5
BF
  8
ﾚｲﾔ_10
  6
BORDER
 62
     3
 10
-118.80481119789999
 20
88.490950520799998
 30
0.0
 11
-129.02528738839999
 21
88.490950520799998
 31
0.0
  0
LINE
  5
C0
  8
ﾚｲﾔ_10
  6
STITCH
 10
-122.23583984379999
 20
110.2409505208
 30
0.0
 11
-123.8858398438
 21
108.59095052080001
 31
0.0
  0
LINE
  5
C1
  8
ﾚｲﾔ_10
 62
     5
 10
-125.23583984379999
 20
112.4909505208
 30
0.0
 11
-125.23583984379999
 21
82.490950520799984
 31
0.0
  0
LINE
  5
C2
  8
ﾚｲﾔ_10
 62
     5
 10
-122.23583984379999
 20
112.4909505208
 30
0.0
 11
-122.23583984379999
 21
82.490950520799984
 31
0.0
  0
LINE
  5
C3
  8
ﾚｲﾔ_10
  6
STITCH
 10
-122.23583984379999
 20
102.7409505208
 30
0.0
 11
-123.8858398438
 21
104.3909505208
 31
0.0
  0
LINE
  5
C4
  8
ﾚｲﾔ_10
  6
STITCH
 10
-123.8858398438
 20
104.3909505208
 30
0.0
 11
-123.8858398438
 21
108.59095052080001
 31
0.0
  0
LINE
  5
C5
  8
ﾚｲﾔ_10
  6
STITCH
 10
-123.8858398438
 20
108.59095052080001
 30
0.0
 11
-125.23583984379999
 21
108.59095052080001
 31
0.0
  0
LINE
  5
C6
  8
図枠
 10
37.7925002363
 20
-98.120000954000005
 30
0.0
 11
76.7925002363
 21
-98.120000954000005
 31
0.0
  0
INSERT
  5
C7
  8
0
  6
CONTINUOUS
  2
*U64
 10
0.0
 20
0.0
 30
0.0
  0
LINE
  5
C8
  8
図枠
 10
34.7925002363
 20
-54.245000953999991
 30
0.0
 11
34.7925002363
 21
-78.995000953999991
 31
0.0
  0
LINE
  5
C9
  8
ﾚｲﾔ_10
  6
STITCH
 10
-123.8858398438
 20
90.590950520799993
 30
0.0
 11
-125.23583984379999
 21
90.590950520799993
 31
0.0
  0
LINE
  5
CA
  8
ﾚｲﾔ_10
  6
STITCH
 10
-123.8858398438
 20
86.390950520800004
 30
0.0
 11
-125.23583984379999
 21
86.390950520800004
 31
0.0
  0
LINE
  5
CB
  8
ﾚｲﾔ_10
  6
STITCH
 10
-123.8858398438
 20
90.590950520799993
 30
0.0
 11
-123.8858398438
 21
86.390950520800004
 31
0.0
  0
LINE
  5
CC
  8
ﾚｲﾔ_10
  6
STITCH
 10
-122.23583984379999
 20
92.240950520799998
 30
0.0
 11
-123.8858398438
 21
90.590950520799993
 31
0.0
  0
LINE
  5
CD
  8
ﾚｲﾔ_10
  6
STITCH
 10
-122.23583984379999
 20
84.740950520799998
 30
0.0
 11
-123.8858398438
 21
86.390950520800004
 31
0.0
  0
LINE
  5
CE
  8
ﾚｲﾔ_10
  6
STITCH
 10
-123.8858398438
 20
95.390950520800004
 30
0.0
 11
-125.23583984379999
 21
95.390950520800004
 31
0.0
  0
LINE
  5
CF
  8
ﾚｲﾔ_10
  6
STITCH
 10
-123.8858398438
 20
99.590950520800007
 30
0.0
 11
-125.23583984379999
 21
99.590950520800007
 31
0.0
  0
LINE
  5
D0
  8
ﾚｲﾔ_10
 62
     5
 10
-125.23583984379999
 20
112.4909505208
 30
0.0
 11
-125.23583984379999
 21
82.490950520799984
 31
0.0
  0
CIRCLE
  5
D1
  8
ﾚｲﾔ_10
 62
     5
 10
-114.23583984379999
 20
97.490950520800013
 30
0.0
 40
3.75
  0
LINE
  5
D2
  8
ﾚｲﾔ_10
  6
BORDER
 62
     3
 10
-114.23583984379999
 20
102.4909505208
 30
0.0
 11
-114.23583984379999
 21
92.490950520799984
 31
0.0
  0
LINE
  5
D3
  8
ﾚｲﾔ_10
  6
BORDER
 62
     3
 10
-119.23583984379999
 20
97.490950520800013
 30
0.0
 11
-109.23583984379999
 21
97.490950520800013
 31
0.0
  0
CIRCLE
  5
D4
  8
ﾚｲﾔ_10
 62
     5
 10
-114.23583984379999
 20
97.490950520800013
 30
0.0
 40
2.1000000000000001
  0
LINE
  5
D5
  8
ﾚｲﾔ_10
  6
STITCH
 10
-122.23583984379999
 20
101.2409505208
 30
0.0
 11
-123.8858398438
 21
99.590950520800007
 31
0.0
  0
DIMENSION
  5
E4
  8
寸法線
  2
*D7
 10
-114.23583984379999
 20
68.490950520799998
 30
0.0
 11
-107.23583984379999
 21
68.490950520799998
 31
0.0
 70
   128
  1
<>
  3
VELDIM1
 13
-114.23583984379999
 23
92.490950520799984
 33
0.0
 14
-100.23583984379999
 24
83.490950520799998
 34
0.0
 50
180.0
  0
DIMENSION
  5
F3
  8
寸法線
  2
*D8
 10
-144.02528738839999
 20
112.4909505208
 30
0.0
 11
-144.02528738839999
 21
104.9909505208
 31
0.0
 70
   128
  1
<>
  3
VELDIM1
 13
-125.23583984379999
 23
112.4909505208
 33
0.0
 14
-129.02528738839999
 24
97.490950520800013
 34
0.0
 50
90.0
  0
DIMENSION
  5
102
  8
寸法線
  2
*D9
 10
-144.02528738839999
 20
97.490950520800013
 30
0.0
 11
-144.02528738839999
 21
89.990950520799984
 31
0.0
 70
   128
  1
<>
  3
VELDIM1
 13
-129.02528738839999
 23
97.490950520800013
 33
0.0
 14
-125.23583984379999
 24
82.490950520799984
 34
0.0
 50
90.0
  0
DIMENSION
  5
111
  8
寸法線
  2
*D10
 10
-100.23583984379999
 20
68.490950520799998
 30
0.0
 11
-95.235839843799994
 21
68.490950520799998
 31
0.0
 70
   128
  1
<>
  3
VELDIM1
 13
-100.23583984379999
 23
83.490950520799998
 33
0.0
 14
-90.235839843799994
 24
97.490950520800013
 34
0.0
 50
180.0
  0
DIMENSION
  5
120
  8
寸法線
  2
*D11
 10
-125.23583984379999
 20
68.490950520799998
 30
0.0
 11
-119.73583984379999
 21
68.490950520799998
 31
0.0
 70
   128
  1
<>
  3
VELDIM1
 13
-125.23583984379999
 23
82.490950520799984
 33
0.0
 14
-114.23583984379999
 24
92.490950520799984
 34
0.0
 50
180.0
  0
DIMENSION
  5
12F
  8
寸法線
  2
*D12
 10
-73.841962930400001
 20
88.490950520799998
 30
0.0
 11
-73.841962930400001
 21
97.490950520800013
 31
0.0
 70
   128
  1
<>
  3
VELDIM1
 13
-95.235839843799994
 23
88.490950520799998
 33
0.0
 14
-95.235839843799994
 24
106.4909505208
 34
0.0
 50
90.0
  0
DIMENSION
  5
13E
  8
寸法線
  2
*D13
 10
-73.841962930400001
 20
106.4909505208
 30
0.0
 11
-73.841962930400001
 21
121.1366536458
 31
0.0
 70
   128
  1
<>
  3
VELDIM1
 13
-95.235839843799994
 23
106.4909505208
 33
0.0
 14
-93.841962930400015
 24
112.4909505208
 34
0.0
 50
90.0
  0
DIMENSION
  5
14D
  8
寸法線
  2
*D14
 10
-122.23583984379999
 20
25.675065104200002
 30
0.0
 11
-116.4306452014
 21
25.675065104200002
 31
0.0
 70
   128
  1
<>t
  3
VELDIM1
 13
-122.23583984379999
 23
10.6750651042
 33
0.0
 14
-125.23583984379999
 24
10.6750651042
 34
0.0
  0
DIMENSION
  5
15C
  8
寸法線
  2
*D15
 10
-157.2679352737
 20
112.4909505208
 30
0.0
 11
-157.2679352737
 21
97.490950520800013
 31
0.0
 70
   128
  1
<>
  3
VELDIM1
 13
-125.23583984379999
 23
112.4909505208
 33
0.0
 14
-125.23583984379999
 24
82.490950520799984
 34
0.0
 50
90.0
  0
LINE
  5
15D
  8
図枠
 10
81.588302285300003
 20
-110.7527933937
 30
0.0
 11
81.588302285300003
 21
-112.5527933937
 31
0.0
  0
LINE
  5
15E
  8
図枠
  6
BORDER
 10
103.8885002363
 20
-80.186000953999994
 30
0.0
 11
103.8885002363
 21
-90.554000954000017
 31
0.0
  0
LINE
  5
15F
  8
図枠
  6
BORDER
 10
103.8885002363
 20
-80.186000953999994
 30
0.0
 11
103.8885002363
 21
-90.554000954000017
 31
0.0
  0
LINE
  5
160
  8
図枠
 10
118.7002214531
 20
-81.914000954000002
 30
0.0
 11
118.7002214531
 21
-88.826000953999994
 31
0.0
  0
LINE
  5
161
  8
図枠
 10
108.4420087359
 20
-108.59279339370001
 30
0.0
 11
108.4420087359
 21
-110.7527933937
 31
0.0
  0
LINE
  5
162
  8
図枠
 10
37.7925002363
 20
-85.370000953999991
 30
0.0
 11
61.7925002363
 21
-85.370000953999991
 31
0.0
  0
INSERT
  5
163
  8
0
  6
CONTINUOUS
  2
*U65
 10
0.0
 20
0.0
 30
0.0
  0
LINE
  5
164
  8
図枠
 10
99.781029557999986
 20
-109.3393257147
 30
0.0
 11
99.102207047999997
 21
-110.0181482246
 31
0.0
  0
LINE
  5
165
  8
図枠
 10
94.981029557999975
 20
-109.7258580356
 30
0.0
 11
94.981029557999975
 21
-109.3393257147
 31
0.0
  0
INSERT
  5
166
  8
0
  6
CONTINUOUS
  2
*U66
 10
0.0
 20
0.0
 30
0.0
  0
LINE
  5
167
  8
図枠
 10
124.7925002363
 20
-78.995000953999991
 30
0.0
 11
124.7925002363
 21
-117.24500095400001
 31
0.0
  0
INSERT
  5
168
  8
0
  6
CONTINUOUS
  2
*U67
 10
0.0
 20
0.0
 30
0.0
  0
INSERT
  5
169
  8
0
  6
CONTINUOUS
  2
*U68
 10
0.0
 20
0.0
 30
0.0
  0
INSERT
  5
16A
  8
0
  6
CONTINUOUS
  2
*U69
 10
0.0
 20
0.0
 30
0.0
  0
INSERT
  5
16B
  8
0
  6
CONTINUOUS
  2
*U70
 10
0.0
 20
0.0
 30
0.0
  0
LINE
  5
16C
  8
図枠
 10
111.78822145309999
 20
-83.642000953999997
 30
0.0
 11
118.7002214531
 21
-81.914000954000002
 31
0.0
  0
CIRCLE
  5
16D
  8
図枠
 10
103.8885002363
 20
-85.370000953999991
 30
0.0
 40
1.728
  0
LINE
  5
16E
  8
図枠
 10
80.2069777114
 20
-110.7527933937
 30
0.0
 11
81.406977711400003
 21
-110.7527933937
 31
0.0
  0
CIRCLE
  5
16F
  8
図枠
 10
103.8885002363
 20
-85.370000953999991
 30
0.0
 40
3.456
  0
LINE
  5
170
  8
図枠
 10
111.78822145309999
 20
-83.642000953999997
 30
0.0
 11
118.7002214531
 21
-81.914000954000002
 31
0.0
  0
CIRCLE
  5
171
  8
図枠
 10
103.8885002363
 20
-85.370000953999991
 30
0.0
 40
3.456
  0
INSERT
  5
172
  8
0
  6
CONTINUOUS
  2
*U71
 10
0.0
 20
0.0
 30
0.0
  0
LINE
  5
173
  8
図枠
 10
34.7925002363
 20
-104.49500095400001
 30
0.0
 11
208.79250023629999
 21
-104.49500095400001
 31
0.0
  0
INSERT
  5
174
  8
0
  6
CONTINUOUS
  2
*U72
 10
0.0
 20
0.0
 30
0.0
  0
LINE
  5
175
  8
図枠
 10
118.7002214531
 20
-81.914000954000002
 30
0.0
 11
118.7002214531
 21
-88.826000953999994
 31
0.0
  0
INSERT
  5
176
  8
0
  6
CONTINUOUS
  2
*U73
 10
0.0
 20
0.0
 30
0.0
  0
INSERT
  5
177
  8
0
  6
CONTINUOUS
  2
*U74
 10
0.0
 20
0.0
 30
0.0
  0
LINE
  5
178
  8
図枠
 10
81.588302285300003
 20
-113.15279339369999
 30
0.0
 11
81.588302285300003
 21
-114.95279339370001
 31
0.0
  0
CIRCLE
  5
179
  8
図枠
 10
103.8885002363
 20
-85.370000953999991
 30
0.0
 40
3.456
  0
LINE
  5
17A
  8
図枠
  6
BORDER
 10
98.704500236299992
 20
-85.370000953999991
 30
0.0
 11
120.88050023629999
 21
-85.370000953999991
 31
0.0
  0
LINE
  5
17B
  8
図枠
 10
94.981029557999975
 20
-106.5527933937
 30
0.0
 11
94.981029557999975
 21
-108.7127933937
 31
0.0
  0
ARC
  5
17C
  8
図枠
 10
85.188302285299983
 20
-111.3527933937
 30
0.0
 40
1.8
 50
270.0
 51
0.0
  0
LINE
  5
17D
  8
図枠
 10
94.981029557999975
 20
-109.3393257147
 30
0.0
 11
99.781029557999986
 21
-109.3393257147
 31
0.0
  0
LINE
  5
17E
  8
図枠
 10
89.988302285300009
 20
-111.3527933937
 30
0.0
 11
89.988302285300009
 21
-110.7527933937
 31
0.0
  0
INSERT
  5
17F
  8
0
  6
CONTINUOUS
  2
*U75
 10
0.0
 20
0.0
 30
0.0
  0
LINE
  5
180
  8
図枠
 10
64.7925002363
 20
-78.995000953999991
 30
0.0
 11
64.7925002363
 21
-91.745000953999991
 31
0.0
  0
INSERT
  5
181
  8
0
  6
CONTINUOUS
  2
*U76
 10
0.0
 20
0.0
 30
0.0
  0
ARC
  5
182
  8
図枠
 10
96.421029557999987
 20
-108.59279339370001
 30
0.0
 40
4.5599999999999987
 50
331.39928138329998
 51
358.49204224580001
  0
LINE
  5
183
  8
図枠
 10
91.788302285300006
 20
-108.95279339370001
 30
0.0
 11
89.988302285300009
 21
-108.95279339370001
 31
0.0
  0
LINE
  5
184
  8
図枠
 10
86.988302285300009
 20
-110.7527933937
 30
0.0
 11
86.988302285300009
 21
-111.3527933937
 31
0.0
  0
LINE
  5
185
  8
図枠
 10
111.78822145309999
 20
-87.098000954
 30
0.0
 11
118.7002214531
 21
-88.826000953999994
 31
0.0
  0
CIRCLE
  5
186
  8
図枠
 10
103.8885002363
 20
-85.370000953999991
 30
0.0
 40
1.728
  0
LINE
  5
187
  8
図枠
 10
113.4820087359
 20
-115.5527933937
 30
0.0
 11
112.98920873589999
 21
-113.87279339369999
 31
0.0
  0
LINE
  5
188
  8
図枠
 10
85.188302285299983
 20
-113.15279339369999
 30
0.0
 11
81.588302285300003
 21
-113.15279339369999
 31
0.0
  0
LINE
  5
189
  8
図枠
 10
34.7925002363
 20
-78.995000953999991
 30
0.0
 11
208.79250023629999
 21
-78.995000953999991
 31
0.0
  0
LINE
  5
18A
  8
図枠
 10
81.588302285300003
 20
-106.5527933937
 30
0.0
 11
81.588302285300003
 21
-108.95279339370001
 31
0.0
  0
LINE
  5
18B
  8
図枠
 10
111.78822145309999
 20
-83.642000953999997
 30
0.0
 11
111.78822145309999
 21
-87.098000954
 31
0.0
  0
LINE
  5
18C
  8
図枠
 10
112.35560873590001
 20
-111.7127933937
 30
0.0
 11
112.07400873589999
 21
-110.7527933937
 31
0.0
  0
LINE
  5
18D
  8
図枠
 10
104.581029558
 20
-108.3527933937
 30
0.0
 11
105.781029558
 21
-106.5527933937
 31
0.0
  0
LINE
  5
18E
  8
図枠
 10
111.78822145309999
 20
-87.098000954
 30
0.0
 11
118.7002214531
 21
-88.826000953999994
 31
0.0
  0
LINE
  5
18F
  8
図枠
 10
84.588302285300003
 20
-112.5527933937
 30
0.0
 11
84.588302285300003
 21
-110.7527933937
 31
0.0
  0
LINE
  5
190
  8
図枠
 10
116.35856392869999
 20
-113.87279339369999
 30
0.0
 11
119.2420087359
 21
-113.87279339369999
 31
0.0
  0
LINE
  5
191
  8
図枠
 10
86.3883022853
 20
-106.5527933937
 30
0.0
 11
81.588302285300003
 21
-106.5527933937
 31
0.0
  0
ARC
  5
192
  8
図枠
 10
97.981029557999989
 20
-108.3527933937
 30
0.0
 40
6.5999999999999988
 50
270.0
 51
302.54495885400001
  0
POLYLINE
  8
図枠
  5
8F0
  66
     1
 10
0.000000
 20
0.000000
 30
0.000000
  70
     8
  0
VERTEX
  8
図枠
  5
8F1
 10
101.532
 20
-113.916
 30
0.000000
  70
    32
  0
VERTEX
  8
図枠
  5
8F2
 10
101.564
 20
-113.927
 30
0.000000
  70
    32
  0
VERTEX
  8
図枠
  5
8F3
 10
101.596
 20
-113.937
 30
0.000000
  70
    32
  0
VERTEX
  8
図枠
  5
8F4
 10
101.629
 20
-113.947
 30
0.000000
  70
    32
  0
VERTEX
  8
図枠
  5
8F5
 10
101.661
 20
-113.957
 30
0.000000
  70
    32
  0
VERTEX
  8
図枠
  5
8F6
 10
101.693
 20
-113.967
 30
0.000000
  70
    32
  0
VERTEX
  8
図枠
  5
8F7
 10
101.726
 20
-113.977
 30
0.000000
  70
    32
  0
VERTEX
  8
図枠
  5
8F8
 10
101.758
 20
-113.987
 30
0.000000
  70
    32
  0
VERTEX
  8
図枠
  5
8F9
 10
101.791
 20
-113.997
 30
0.000000
  70
    32
  0
VERTEX
  8
図枠
  5
8FA
 10
101.823
 20
-114.007
 30
0.000000
  70
    32
  0
VERTEX
  8
図枠
  5
8FB
 10
101.856
 20
-114.017
 30
0.000000
  70
    32
  0
VERTEX
  8
図枠
  5
8FC
 10
101.888
 20
-114.027
 30
0.000000
  70
    32
  0
VERTEX
  8
図枠
  5
8FD
 10
101.921
 20
-114.037
 30
0.000000
  70
    32
  0
VERTEX
  8
図枠
  5
8FE
 10
101.954
 20
-114.046
 30
0.000000
  70
    32
  0
VERTEX
  8
図枠
  5
8FF
 10
101.986
 20
-114.056
 30
0.000000
  70
    32
  0
VERTEX
  8
図枠
  5
900
 10
102.019
 20
-114.066
 30
0.000000
  70
    32
  0
VERTEX
  8
図枠
  5
901
 10
102.052
 20
-114.075
 30
0.000000
  70
    32
  0
VERTEX
  8
図枠
  5
902
 10
102.084
 20
-114.085
 30
0.000000
  70
    32
  0
VERTEX
  8
図枠
  5
903
 10
102.117
 20
-114.094
 30
0.000000
  70
    32
  0
VERTEX
  8
図枠
  5
904
 10
102.150
 20
-114.104
 30
0.000000
  70
    32
  0
VERTEX
  8
図枠
  5
905
 10
102.183
 20
-114.113
 30
0.000000
  70
    32
  0
VERTEX
  8
図枠
  5
906
 10
102.215
 20
-114.123
 30
0.000000
  70
    32
  0
VERTEX
  8
図枠
  5
907
 10
102.248
 20
-114.132
 30
0.000000
  70
    32
  0
VERTEX
  8
図枠
  5
908
 10
102.281
 20
-114.141
 30
0.000000
  70
    32
  0
VERTEX
  8
図枠
  5
909
 10
102.314
 20
-114.150
 30
0.000000
  70
    32
  0
VERTEX
  8
図枠
  5
90A
 10
102.347
 20
-114.160
 30
0.000000
  70
    32
  0
VERTEX
  8
図枠
  5
90B
 10
102.380
 20
-114.169
 30
0.000000
  70
    32
  0
VERTEX
  8
図枠
  5
90C
 10
102.413
 20
-114.178
 30
0.000000
  70
    32
  0
VERTEX
  8
図枠
  5
90D
 10
102.446
 20
-114.187
 30
0.000000
  70
    32
  0
VERTEX
  8
図枠
  5
90E
 10
102.479
 20
-114.196
 30
0.000000
  70
    32
  0
VERTEX
  8
図枠
  5
90F
 10
102.512
 20
-114.205
 30
0.000000
  70
    32
  0
VERTEX
  8
図枠
  5
910
 10
102.545
 20
-114.214
 30
0.000000
  70
    32
  0
VERTEX
  8
図枠
  5
911
 10
102.578
 20
-114.223
 30
0.000000
  70
    32
  0
VERTEX
  8
図枠
  5
912
 10
102.611
 20
-114.232
 30
0.000000
  70
    32
  0
VERTEX
  8
図枠
  5
913
 10
102.644
 20
-114.241
 30
0.000000
  70
    32
  0
VERTEX
  8
図枠
  5
914
 10
102.677
 20
-114.249
 30
0.000000
  70
    32
  0
VERTEX
  8
図枠
  5
915
 10
102.710
 20
-114.258
 30
0.000000
  70
    32
  0
VERTEX
  8
図枠
  5
916
 10
102.743
 20
-114.267
 30
0.000000
  70
    32
  0
VERTEX
  8
図枠
  5
917
 10
102.777
 20
-114.276
 30
0.000000
  70
    32
  0
VERTEX
  8
図枠
  5
918
 10
102.810
 20
-114.284
 30
0.000000
  70
    32
  0
VERTEX
  8
図枠
  5
919
 10
102.843
 20
-114.293
 30
0.000000
  70
    32
  0
VERTEX
  8
図枠
  5
91A
 10
102.876
 20
-114.301
 30
0.000000
  70
    32
  0
VERTEX
  8
図枠
  5
91B
 10
102.909
 20
-114.310
 30
0.000000
  70
    32
  0
VERTEX
  8
図枠
  5
91C
 10
102.943
 20
-114.318
 30
0.000000
  70
    32
  0
VERTEX
  8
図枠
  5
91D
 10
102.976
 20
-114.327
 30
0.000000
  70
    32
  0
VERTEX
  8
図枠
  5
91E
 10
103.009
 20
-114.335
 30
0.000000
  70
    32
  0
VERTEX
  8
図枠
  5
91F
 10
103.043
 20
-114.344
 30
0.000000
  70
    32
  0
VERTEX
  8
図枠
  5
920
 10
103.076
 20
-114.352
 30
0.000000
  70
    32
  0
VERTEX
  8
図枠
  5
921
 10
103.109
 20
-114.361
 30
0.000000
  70
    32
  0
VERTEX
  8
図枠
  5
922
 10
103.143
 20
-114.369
 30
0.000000
  70
    32
  0
VERTEX
  8
図枠
  5
923
 10
103.176
 20
-114.377
 30
0.000000
  70
    32
  0
VERTEX
  8
図枠
  5
924
 10
103.209
 20
-114.385
 30
0.000000
  70
    32
  0
VERTEX
  8
図枠
  5
925
 10
103.243
 20
-114.394
 30
0.000000
  70
    32
  0
VERTEX
  8
図枠
  5
926
 10
103.276
 20
-114.402
 30
0.000000
  70
    32
  0
VERTEX
  8
図枠
  5
927
 10
103.310
 20
-114.410
 30
0.000000
  70
    32
  0
VERTEX
  8
図枠
  5
928
 10
103.343
 20
-114.418
 30
0.000000
  70
    32
  0
VERTEX
  8
図枠
  5
929
 10
103.377
 20
-114.426
 30
0.000000
  70
    32
  0
VERTEX
  8
図枠
  5
92A
 10
103.410
 20
-114.434
 30
0.000000
  70
    32
  0
VERTEX
  8
図枠
  5
92B
 10
103.444
 20
-114.442
 30
0.000000
  70
    32
  0
VERTEX
  8
図枠
  5
92C
 10
103.477
 20
-114.450
 30
0.000000
  70
    32
  0
VERTEX
  8
図枠
  5
92D
 10
103.511
 20
-114.458
 30
0.000000
  70
    32
  0
VERTEX
  8
図枠
  5
92E
 10
103.544
 20
-114.466
 30
0.000000
  70
    32
  0
VERTEX
  8
図枠
  5
92F
 10
103.578
 20
-114.474
 30
0.000000
  70
    32
  0
VERTEX
  8
図枠
  5
930
 10
103.612
 20
-114.482
 30
0.000000
  70
    32
  0
VERTEX
  8
図枠
  5
931
 10
103.645
 20
-114.490
 30
0.000000
  70
    32
  0
VERTEX
  8
図枠
  5
932
 10
103.679
 20
-114.498
 30
0.000000
  70
    32
  0
VERTEX
  8
図枠
  5
933
 10
103.712
 20
-114.506
 30
0.000000
  70
    32
  0
VERTEX
  8
図枠
  5
934
 10
103.746
 20
-114.514
 30
0.000000
  70
    32
  0
VERTEX
  8
図枠
  5
935
 10
103.780
 20
-114.521
 30
0.000000
  70
    32
  0
VERTEX
  8
図枠
  5
936
 10
103.813
 20
-114.529
 30
0.000000
  70
    32
  0
VERTEX
  8
図枠
  5
937
 10
103.847
 20
-114.537
 30
0.000000
  70
    32
  0
VERTEX
  8
図枠
  5
938
 10
103.881
 20
-114.545
 30
0.000000
  70
    32
  0
VERTEX
  8
図枠
  5
939
 10
103.915
 20
-114.552
 30
0.000000
  70
    32
  0
VERTEX
  8
図枠
  5
93A
 10
103.948
 20
-114.560
 30
0.000000
  70
    32
  0
VERTEX
  8
図枠
  5
93B
 10
103.982
 20
-114.568
 30
0.000000
  70
    32
  0
VERTEX
  8
図枠
  5
93C
 10
104.016
 20
-114.575
 30
0.000000
  70
    32
  0
VERTEX
  8
図枠
  5
93D
 10
104.050
 20
-114.583
 30
0.000000
  70
    32
  0
VERTEX
  8
図枠
  5
93E
 10
104.083
 20
-114.591
 30
0.000000
  70
    32
  0
VERTEX
  8
図枠
  5
93F
 10
104.117
 20
-114.598
 30
0.000000
  70
    32
  0
VERTEX
  8
図枠
  5
940
 10
104.151
 20
-114.606
 30
0.000000
  70
    32
  0
VERTEX
  8
図枠
  5
941
 10
104.185
 20
-114.613
 30
0.000000
  70
    32
  0
VERTEX
  8
図枠
  5
942
 10
104.218
 20
-114.621
 30
0.000000
  70
    32
  0
VERTEX
  8
図枠
  5
943
 10
104.252
 20
-114.628
 30
0.000000
  70
    32
  0
VERTEX
  8
図枠
  5
944
 10
104.286
 20
-114.636
 30
0.000000
  70
    32
  0
VERTEX
  8
図枠
  5
945
 10
104.320
 20
-114.643
 30
0.000000
  70
    32
  0
VERTEX
  8
図枠
  5
946
 10
104.354
 20
-114.651
 30
0.000000
  70
    32
  0
VERTEX
  8
図枠
  5
947
 10
104.388
 20
-114.658
 30
0.000000
  70
    32
  0
VERTEX
  8
図枠
  5
948
 10
104.422
 20
-114.665
 30
0.000000
  70
    32
  0
VERTEX
  8
図枠
  5
949
 10
104.455
 20
-114.673
 30
0.000000
  70
    32
  0
VERTEX
  8
図枠
  5
94A
 10
104.489
 20
-114.680
 30
0.000000
  70
    32
  0
VERTEX
  8
図枠
  5
94B
 10
104.523
 20
-114.688
 30
0.000000
  70
    32
  0
VERTEX
  8
図枠
  5
94C
 10
104.557
 20
-114.695
 30
0.000000
  70
    32
  0
VERTEX
  8
図枠
  5
94D
 10
104.591
 20
-114.702
 30
0.000000
  70
    32
  0
VERTEX
  8
図枠
  5
94E
 10
104.625
 20
-114.710
 30
0.000000
  70
    32
  0
VERTEX
  8
図枠
  5
94F
 10
104.659
 20
-114.717
 30
0.000000
  70
    32
  0
VERTEX
  8
図枠
  5
950
 10
104.693
 20
-114.724
 30
0.000000
  70
    32
  0
VERTEX
  8
図枠
  5
951
 10
104.727
 20
-114.731
 30
0.000000
  70
    32
  0
VERTEX
  8
図枠
  5
952
 10
104.761
 20
-114.739
 30
0.000000
  70
    32
  0
VERTEX
  8
図枠
  5
953
 10
104.795
 20
-114.746
 30
0.000000
  70
    32
  0
VERTEX
  8
図枠
  5
954
 10
104.829
 20
-114.753
 30
0.000000
  70
    32
  0
VERTEX
  8
図枠
  5
955
 10
104.863
 20
-114.760
 30
0.000000
  70
    32
  0
VERTEX
  8
図枠
  5
956
 10
104.896
 20
-114.768
 30
0.000000
  70
    32
  0
VERTEX
  8
図枠
  5
957
 10
104.930
 20
-114.775
 30
0.000000
  70
    32
  0
VERTEX
  8
図枠
  5
958
 10
104.964
 20
-114.782
 30
0.000000
  70
    32
  0
VERTEX
  8
図枠
  5
959
 10
104.998
 20
-114.789
 30
0.000000
  70
    32
  0
VERTEX
  8
図枠
  5
95A
 10
105.032
 20
-114.796
 30
0.000000
  70
    32
  0
VERTEX
  8
図枠
  5
95B
 10
105.066
 20
-114.804
 30
0.000000
  70
    32
  0
VERTEX
  8
図枠
  5
95C
 10
105.100
 20
-114.811
 30
0.000000
  70
    32
  0
VERTEX
  8
図枠
  5
95D
 10
105.134
 20
-114.818
 30
0.000000
  70
    32
  0
VERTEX
  8
図枠
  5
95E
 10
105.168
 20
-114.825
 30
0.000000
  70
    32
  0
VERTEX
  8
図枠
  5
95F
 10
105.202
 20
-114.832
 30
0.000000
  70
    32
  0
VERTEX
  8
図枠
  5
960
 10
105.236
 20
-114.839
 30
0.000000
  70
    32
  0
VERTEX
  8
図枠
  5
961
 10
105.270
 20
-114.846
 30
0.000000
  70
    32
  0
VERTEX
  8
図枠
  5
962
 10
105.304
 20
-114.854
 30
0.000000
  70
    32
  0
VERTEX
  8
図枠
  5
963
 10
105.339
 20
-114.861
 30
0.000000
  70
    32
  0
VERTEX
  8
図枠
  5
964
 10
105.373
 20
-114.868
 30
0.000000
  70
    32
  0
VERTEX
  8
図枠
  5
965
 10
105.407
 20
-114.875
 30
0.000000
  70
    32
  0
VERTEX
  8
図枠
  5
966
 10
105.441
 20
-114.882
 30
0.000000
  70
    32
  0
VERTEX
  8
図枠
  5
967
 10
105.475
 20
-114.889
 30
0.000000
  70
    32
  0
VERTEX
  8
図枠
  5
968
 10
105.509
 20
-114.896
 30
0.000000
  70
    32
  0
VERTEX
  8
図枠
  5
969
 10
105.543
 20
-114.903
 30
0.000000
  70
    32
  0
VERTEX
  8
図枠
  5
96A
 10
105.577
 20
-114.910
 30
0.000000
  70
    32
  0
VERTEX
  8
図枠
  5
96B
 10
105.611
 20
-114.917
 30
0.000000
  70
    32
  0
VERTEX
  8
図枠
  5
96C
 10
105.645
 20
-114.924
 30
0.000000
  70
    32
  0
VERTEX
  8
図枠
  5
96D
 10
105.679
 20
-114.932
 30
0.000000
  70
    32
  0
VERTEX
  8
図枠
  5
96E
 10
105.713
 20
-114.939
 30
0.000000
  70
    32
  0
VERTEX
  8
図枠
  5
96F
 10
105.747
 20
-114.946
 30
0.000000
  70
    32
  0
VERTEX
  8
図枠
  5
970
 10
105.781
 20
-114.953
 30
0.000000
  70
    32
  0
SEQEND
  8
図枠
  5
971
  0
POLYLINE
  8
図枠
  5
972
  66
     1
 10
0.000000
 20
0.000000
 30
0.000000
  70
     8
  0
VERTEX
  8
図枠
  5
973
 10
99.1022
 20
-110.018
 30
0.000000
  70
    32
  0
VERTEX
  8
図枠
  5
974
 10
99.1101
 20
-110.027
 30
0.000000
  70
    32
  0
VERTEX
  8
図枠
  5
975
 10
99.1180
 20
-110.036
 30
0.000000
  70
    32
  0
VERTEX
  8
図枠
  5
976
 10
99.1260
 20
-110.045
 30
0.000000
  70
    32
  0
VERTEX
  8
図枠
  5
977
 10
99.1339
 20
-110.053
 30
0.000000
  70
    32
  0
VERTEX
  8
図枠
  5
978
 10
99.1418
 20
-110.062
 30
0.000000
  70
    32
  0
VERTEX
  8
図枠
  5
979
 10
99.1497
 20
-110.071
 30
0.000000
  70
    32
  0
VERTEX
  8
図枠
  5
97A
 10
99.1576
 20
-110.080
 30
0.000000
  70
    32
  0
VERTEX
  8
図枠
  5
97B
 10
99.1656
 20
-110.089
 30
0.000000
  70
    32
  0
VERTEX
  8
図枠
  5
97C
 10
99.1735
 20
-110.098
 30
0.000000
  70
    32
  0
VERTEX
  8
図枠
  5
97D
 10
99.1814
 20
-110.106
 30
0.000000
  70
    32
  0
VERTEX
  8
図枠
  5
97E
 10
99.1893
 20
-110.115
 30
0.000000
  70
    32
  0
VERTEX
  8
図枠
  5
97F
 10
99.1973
 20
-110.124
 30
0.000000
  70
    32
  0
VERTEX
  8
図枠
  5
980
 10
99.2052
 20
-110.133
 30
0.000000
  70
    32
  0
VERTEX
  8
図枠
  5
981
 10
99.2131
 20
-110.142
 30
0.000000
  70
    32
  0
VERTEX
  8
図枠
  5
982
 10
99.2210
 20
-110.151
 30
0.000000
  70
    32
  0
VERTEX
  8
図枠
  5
983
 10
99.2290
 20
-110.159
 30
0.000000
  70
    32
  0
VERTEX
  8
図枠
  5
984
 10
99.2369
 20
-110.168
 30
0.000000
  70
    32
  0
VERTEX
  8
図枠
  5
985
 10
99.2448
 20
-110.177
 30
0.000000
  70
    32
  0
VERTEX
  8
図枠
  5
986
 10
99.2528
 20
-110.186
 30
0.000000
  70
    32
  0
VERTEX
  8
図枠
  5
987
 10
99.2607
 20
-110.195
 30
0.000000
  70
    32
  0
VERTEX
  8
図枠
  5
988
 10
99.2686
 20
-110.203
 30
0.000000
  70
    32
  0
VERTEX
  8
図枠
  5
989
 10
99.2766
 20
-110.212
 30
0.000000
  70
    32
  0
VERTEX
  8
図枠
  5
98A
 10
99.2845
 20
-110.221
 30
0.000000
  70
    32
  0
VERTEX
  8
図枠
  5
98B
 10
99.2925
 20
-110.230
 30
0.000000
  70
    32
  0
VERTEX
  8
図枠
  5
98C
 10
99.3004
 20
-110.239
 30
0.000000
  70
    32
  0
VERTEX
  8
図枠
  5
98D
 10
99.3083
 20
-110.247
 30
0.000000
  70
    32
  0
VERTEX
  8
図枠
  5
98E
 10
99.3163
 20
-110.256
 30
0.000000
  70
    32
  0
VERTEX
  8
図枠
  5
98F
 10
99.3242
 20
-110.265
 30
0.000000
  70
    32
  0
VERTEX
  8
図枠
  5
990
 10
99.3322
 20
-110.274
 30
0.000000
  70
    32
  0
VERTEX
  8
図枠
  5
991
 10
99.3402
 20
-110.282
 30
0.000000
  70
    32
  0
VERTEX
  8
図枠
  5
992
 10
99.3481
 20
-110.291
 30
0.000000
  70
    32
  0
VERTEX
  8
図枠
  5
993
 10
99.3561
 20
-110.300
 30
0.000000
  70
    32
  0
VERTEX
  8
図枠
  5
994
 10
99.3640
 20
-110.309
 30
0.000000
  70
    32
  0
VERTEX
  8
図枠
  5
995
 10
99.3720
 20
-110.318
 30
0.000000
  70
    32
  0
VERTEX
  8
図枠
  5
996
 10
99.3800
 20
-110.326
 30
0.000000
  70
    32
  0
VERTEX
  8
図枠
  5
997
 10
99.3879
 20
-110.335
 30
0.000000
  70
    32
  0
VERTEX
  8
図枠
  5
998
 10
99.3959
 20
-110.344
 30
0.000000
  70
    32
  0
VERTEX
  8
図枠
  5
999
 10
99.4039
 20
-110.352
 30
0.000000
  70
    32
  0
VERTEX
  8
図枠
  5
99A
 10
99.4119
 20
-110.361
 30
0.000000
  70
    32
  0
VERTEX
  8
図枠
  5
99B
 10
99.4198
 20
-110.370
 30
0.000000
  70
    32
  0
VERTEX
  8
図枠
  5
99C
 10
99.4278
 20
-110.379
 30
0.000000
  70
    32
  0
VERTEX
  8
図枠
  5
99D
 10
99.4358
 20
-110.387
 30
0.000000
  70
    32
  0
VERTEX
  8
図枠
  5
99E
 10
99.4438
 20
-110.396
 30
0.000000
  70
    32
  0
VERTEX
  8
図枠
  5
99F
 10
99.4518
 20
-110.405
 30
0.000000
  70
    32
  0
VERTEX
  8
図枠
  5
9A0
 10
99.4598
 20
-110.413
 30
0.000000
  70
    32
  0
VERTEX
  8
図枠
  5
9A1
 10
99.4678
 20
-110.422
 30
0.000000
  70
    32
  0
VERTEX
  8
図枠
  5
9A2
 10
99.4758
 20
-110.431
 30
0.000000
  70
    32
  0
VERTEX
  8
図枠
  5
9A3
 10
99.4838
 20
-110.440
 30
0.000000
  70
    32
  0
VERTEX
  8
図枠
  5
9A4
 10
99.4919
 20
-110.448
 30
0.000000
  70
    32
  0
VERTEX
  8
図枠
  5
9A5
 10
99.4999
 20
-110.457
 30
0.000000
  70
    32
  0
VERTEX
  8
図枠
  5
9A6
 10
99.5079
 20
-110.466
 30
0.000000
  70
    32
  0
VERTEX
  8
図枠
  5
9A7
 10
99.5159
 20
-110.474
 30
0.000000
  70
    32
  0
VERTEX
  8
図枠
  5
9A8
 10
99.5240
 20
-110.483
 30
0.000000
  70
    32
  0
VERTEX
  8
図枠
  5
9A9
 10
99.5320
 20
-110.492
 30
0.000000
  70
    32
  0
VERTEX
  8
図枠
  5
9AA
 10
99.5400
 20
-110.500
 30
0.000000
  70
    32
  0
VERTEX
  8
図枠
  5
9AB
 10
99.5481
 20
-110.509
 30
0.000000
  70
    32
  0
VERTEX
  8
図枠
  5
9AC
 10
99.5561
 20
-110.517
 30
0.000000
  70
    32
  0
VERTEX
  8
図枠
  5
9AD
 10
99.5642
 20
-110.526
 30
0.000000
  70
    32
  0
VERTEX
  8
図枠
  5
9AE
 10
99.5722
 20
-110.535
 30
0.000000
  70
    32
  0
VERTEX
  8
図枠
  5
9AF
 10
99.5803
 20
-110.543
 30
0.000000
  70
    32
  0
VERTEX
  8
図枠
  5
9B0
 10
99.5884
 20
-110.552
 30
0.000000
  70
    32
  0
VERTEX
  8
図枠
  5
9B1
 10
99.5964
 20
-110.560
 30
0.000000
  70
    32
  0
VERTEX
  8
図枠
  5
9B2
 10
99.6045
 20
-110.569
 30
0.000000
  70
    32
  0
VERTEX
  8
図枠
  5
9B3
 10
99.6126
 20
-110.578
 30
0.000000
  70
    32
  0
VERTEX
  8
図枠
  5
9B4
 10
99.6207
 20
-110.586
 30
0.000000
  70
    32
  0
VERTEX
  8
図枠
  5
9B5
 10
99.6288
 20
-110.595
 30
0.000000
  70
    32
  0
VERTEX
  8
図枠
  5
9B6
 10
99.6369
 20
-110.603
 30
0.000000
  70
    32
  0
VERTEX
  8
図枠
  5
9B7
 10
99.6450
 20
-110.612
 30
0.000000
  70
    32
  0
VERTEX
  8
図枠
  5
9B8
 10
99.6531
 20
-110.620
 30
0.000000
  70
    32
  0
VERTEX
  8
図枠
  5
9B9
 10
99.6612
 20
-110.629
 30
0.000000
  70
    32
  0
VERTEX
  8
図枠
  5
9BA
 10
99.6694
 20
-110.637
 30
0.000000
  70
    32
  0
VERTEX
  8
図枠
  5
9BB
 10
99.6775
 20
-110.646
 30
0.000000
  70
    32
  0
VERTEX
  8
図枠
  5
9BC
 10
99.6856
 20
-110.654
 30
0.000000
  70
    32
  0
VERTEX
  8
図枠
  5
9BD
 10
99.6938
 20
-110.663
 30
0.000000
  70
    32
  0
VERTEX
  8
図枠
  5
9BE
 10
99.7019
 20
-110.671
 30
0.000000
  70
    32
  0
VERTEX
  8
図枠
  5
9BF
 10
99.7101
 20
-110.680
 30
0.000000
  70
    32
  0
VERTEX
  8
図枠
  5
9C0
 10
99.7182
 20
-110.688
 30
0.000000
  70
    32
  0
VERTEX
  8
図枠
  5
9C1
 10
99.7264
 20
-110.696
 30
0.000000
  70
    32
  0
VERTEX
  8
図枠
  5
9C2
 10
99.7346
 20
-110.705
 30
0.000000
  70
    32
  0
VERTEX
  8
図枠
  5
9C3
 10
99.7427
 20
-110.713
 30
0.000000
  70
    32
  0
VERTEX
  8
図枠
  5
9C4
 10
99.7509
 20
-110.722
 30
0.000000
  70
    32
  0
VERTEX
  8
図枠
  5
9C5
 10
99.7591
 20
-110.730
 30
0.000000
  70
    32
  0
VERTEX
  8
図枠
  5
9C6
 10
99.7673
 20
-110.738
 30
0.000000
  70
    32
  0
VERTEX
  8
図枠
  5
9C7
 10
99.7755
 20
-110.747
 30
0.000000
  70
    32
  0
VERTEX
  8
図枠
  5
9C8
 10
99.7837
 20
-110.755
 30
0.000000
  70
    32
  0
VERTEX
  8
図枠
  5
9C9
 10
99.7919
 20
-110.764
 30
0.000000
  70
    32
  0
VERTEX
  8
図枠
  5
9CA
 10
99.8002
 20
-110.772
 30
0.000000
  70
    32
  0
VERTEX
  8
図枠
  5
9CB
 10
99.8084
 20
-110.780
 30
0.000000
  70
    32
  0
VERTEX
  8
図枠
  5
9CC
 10
99.8166
 20
-110.789
 30
0.000000
  70
    32
  0
VERTEX
  8
図枠
  5
9CD
 10
99.8249
 20
-110.797
 30
0.000000
  70
    32
  0
VERTEX
  8
図枠
  5
9CE
 10
99.8331
 20
-110.805
 30
0.000000
  70
    32
  0
VERTEX
  8
図枠
  5
9CF
 10
99.8414
 20
-110.813
 30
0.000000
  70
    32
  0
VERTEX
  8
図枠
  5
9D0
 10
99.8497
 20
-110.822
 30
0.000000
  70
    32
  0
VERTEX
  8
図枠
  5
9D1
 10
99.8579
 20
-110.830
 30
0.000000
  70
    32
  0
VERTEX
  8
図枠
  5
9D2
 10
99.8662
 20
-110.838
 30
0.000000
  70
    32
  0
VERTEX
  8
図枠
  5
9D3
 10
99.8745
 20
-110.846
 30
0.000000
  70
    32
  0
VERTEX
  8
図枠
  5
9D4
 10
99.8828
 20
-110.855
 30
0.000000
  70
    32
  0
VERTEX
  8
図枠
  5
9D5
 10
99.8911
 20
-110.863
 30
0.000000
  70
    32
  0
VERTEX
  8
図枠
  5
9D6
 10
99.8994
 20
-110.871
 30
0.000000
  70
    32
  0
VERTEX
  8
図枠
  5
9D7
 10
99.9078
 20
-110.879
 30
0.000000
  70
    32
  0
VERTEX
  8
図枠
  5
9D8
 10
99.9161
 20
-110.887
 30
0.000000
  70
    32
  0
VERTEX
  8
図枠
  5
9D9
 10
99.9244
 20
-110.895
 30
0.000000
  70
    32
  0
VERTEX
  8
図枠
  5
9DA
 10
99.9328
 20
-110.904
 30
0.000000
  70
    32
  0
VERTEX
  8
図枠
  5
9DB
 10
99.9411
 20
-110.912
 30
0.000000
  70
    32
  0
VERTEX
  8
図枠
  5
9DC
 10
99.9495
 20
-110.920
 30
0.000000
  70
    32
  0
VERTEX
  8
図枠
  5
9DD
 10
99.9579
 20
-110.928
 30
0.000000
  70
    32
  0
VERTEX
  8
図枠
  5
9DE
 10
99.9663
 20
-110.936
 30
0.000000
  70
    32
  0
VERTEX
  8
図枠
  5
9DF
 10
99.9747
 20
-110.944
 30
0.000000
  70
    32
  0
VERTEX
  8
図枠
  5
9E0
 10
99.9831
 20
-110.952
 30
0.000000
  70
    32
  0
VERTEX
  8
図枠
  5
9E1
 10
99.9915
 20
-110.960
 30
0.000000
  70
    32
  0
VERTEX
  8
図枠
  5
9E2
 10
99.9999
 20
-110.968
 30
0.000000
  70
    32
  0
VERTEX
  8
図枠
  5
9E3
 10
100.008
 20
-110.976
 30
0.000000
  70
    32
  0
VERTEX
  8
図枠
  5
9E4
 10
100.017
 20
-110.984
 30
0.000000
  70
    32
  0
VERTEX
  8
図枠
  5
9E5
 10
100.025
 20
-110.992
 30
0.000000
  70
    32
  0
VERTEX
  8
図枠
  5
9E6
 10
100.034
 20
-111.000
 30
0.000000
  70
    32
  0
VERTEX
  8
図枠
  5
9E7
 10
100.042
 20
-111.008
 30
0.000000
  70
    32
  0
VERTEX
  8
図枠
  5
9E8
 10
100.051
 20
-111.016
 30
0.000000
  70
    32
  0
VERTEX
  8
図枠
  5
9E9
 10
100.059
 20
-111.024
 30
0.000000
  70
    32
  0
VERTEX
  8
図枠
  5
9EA
 10
100.068
 20
-111.032
 30
0.000000
  70
    32
  0
VERTEX
  8
図枠
  5
9EB
 10
100.076
 20
-111.040
 30
0.000000
  70
    32
  0
VERTEX
  8
図枠
  5
9EC
 10
100.085
 20
-111.048
 30
0.000000
  70
    32
  0
VERTEX
  8
図枠
  5
9ED
 10
100.093
 20
-111.056
 30
0.000000
  70
    32
  0
VERTEX
  8
図枠
  5
9EE
 10
100.102
 20
-111.063
 30
0.000000
  70
    32
  0
VERTEX
  8
図枠
  5
9EF
 10
100.110
 20
-111.071
 30
0.000000
  70
    32
  0
VERTEX
  8
図枠
  5
9F0
 10
100.119
 20
-111.079
 30
0.000000
  70
    32
  0
VERTEX
  8
図枠
  5
9F1
 10
100.127
 20
-111.087
 30
0.000000
  70
    32
  0
VERTEX
  8
図枠
  5
9F2
 10
100.136
 20
-111.095
 30
0.000000
  70
    32
  0
SEQEND
  8
図枠
  5
9F3
  0
LINE
  5
195
  8
図枠
 10
94.981029557999975
 20
-108.7127933937
 30
0.0
 11
100.981029558
 21
-108.7127933937
 31
0.0
  0
LINE
  5
196
  8
図枠
 10
108.4420087359
 20
-111.7127933937
 30
0.0
 11
108.4420087359
 21
-113.87279339369999
 31
0.0
  0
LINE
  5
197
  8
図枠
 10
111.78822145309999
 20
-83.642000953999997
 30
0.0
 11
111.78822145309999
 21
-87.098000954
 31
0.0
  0
LINE
  5
198
  8
図枠
 10
111.78822145309999
 20
-83.642000953999997
 30
0.0
 11
118.7002214531
 21
-81.914000954000002
 31
0.0
  0
INSERT
  5
199
  8
0
  6
CONTINUOUS
  2
*U77
 10
0.0
 20
0.0
 30
0.0
  0
LINE
  5
19A
  8
図枠
 10
89.988302285300009
 20
-110.7527933937
 30
0.0
 11
91.788302285300006
 21
-110.7527933937
 31
0.0
  0
LINE
  5
19B
  8
図枠
 10
80.2069777114
 20
-108.95279339370001
 30
0.0
 11
80.2069777114
 21
-110.7527933937
 31
0.0
  0
LINE
  5
19C
  8
図枠
 10
94.981029557999975
 20
-113.15279339369999
 30
0.0
 11
94.981029557999975
 21
-114.95279339370001
 31
0.0
  0
POLYLINE
  8
図枠
  5
9F4
  66
     1
 10
0.000000
 20
0.000000
 30
0.000000
  70
     8
  0
VERTEX
  8
図枠
  5
9F5
 10
103.003
 20
-112.581
 30
0.000000
  70
    32
  0
VERTEX
  8
図枠
  5
9F6
 10
103.024
 20
-112.587
 30
0.000000
  70
    32
  0
VERTEX
  8
図枠
  5
9F7
 10
103.045
 20
-112.593
 30
0.000000
  70
    32
  0
VERTEX
  8
図枠
  5
9F8
 10
103.066
 20
-112.599
 30
0.000000
  70
    32
  0
VERTEX
  8
図枠
  5
9F9
 10
103.087
 20
-112.605
 30
0.000000
  70
    32
  0
VERTEX
  8
図枠
  5
9FA
 10
103.108
 20
-112.610
 30
0.000000
  70
    32
  0
VERTEX
  8
図枠
  5
9FB
 10
103.129
 20
-112.616
 30
0.000000
  70
    32
  0
VERTEX
  8
図枠
  5
9FC
 10
103.150
 20
-112.622
 30
0.000000
  70
    32
  0
VERTEX
  8
図枠
  5
9FD
 10
103.171
 20
-112.628
 30
0.000000
  70
    32
  0
VERTEX
  8
図枠
  5
9FE
 10
103.192
 20
-112.633
 30
0.000000
  70
    32
  0
VERTEX
  8
図枠
  5
9FF
 10
103.213
 20
-112.639
 30
0.000000
  70
    32
  0
VERTEX
  8
図枠
  5
A00
 10
103.234
 20
-112.645
 30
0.000000
  70
    32
  0
VERTEX
  8
図枠
  5
A01
 10
103.256
 20
-112.650
 30
0.000000
  70
    32
  0
VERTEX
  8
図枠
  5
A02
 10
103.277
 20
-112.656
 30
0.000000
  70
    32
  0
VERTEX
  8
図枠
  5
A03
 10
103.298
 20
-112.661
 30
0.000000
  70
    32
  0
VERTEX
  8
図枠
  5
A04
 10
103.319
 20
-112.667
 30
0.000000
  70
    32
  0
VERTEX
  8
図枠
  5
A05
 10
103.341
 20
-112.672
 30
0.000000
  70
    32
  0
VERTEX
  8
図枠
  5
A06
 10
103.362
 20
-112.678
 30
0.000000
  70
    32
  0
VERTEX
  8
図枠
  5
A07
 10
103.383
 20
-112.683
 30
0.000000
  70
    32
  0
VERTEX
  8
図枠
  5
A08
 10
103.405
 20
-112.688
 30
0.000000
  70
    32
  0
VERTEX
  8
図枠
  5
A09
 10
103.426
 20
-112.694
 30
0.000000
  70
    32
  0
VERTEX
  8
図枠
  5
A0A
 10
103.447
 20
-112.699
 30
0.000000
  70
    32
  0
VERTEX
  8
図枠
  5
A0B
 10
103.469
 20
-112.704
 30
0.000000
  70
    32
  0
VERTEX
  8
図枠
  5
A0C
 10
103.490
 20
-112.710
 30
0.000000
  70
    32
  0
VERTEX
  8
図枠
  5
A0D
 10
103.512
 20
-112.715
 30
0.000000
  70
    32
  0
VERTEX
  8
図枠
  5
A0E
 10
103.533
 20
-112.720
 30
0.000000
  70
    32
  0
VERTEX
  8
図枠
  5
A0F
 10
103.555
 20
-112.725
 30
0.000000
  70
    32
  0
VERTEX
  8
図枠
  5
A10
 10
103.576
 20
-112.730
 30
0.000000
  70
    32
  0
VERTEX
  8
図枠
  5
A11
 10
103.598
 20
-112.735
 30
0.000000
  70
    32
  0
VERTEX
  8
図枠
  5
A12
 10
103.619
 20
-112.741
 30
0.000000
  70
    32
  0
VERTEX
  8
図枠
  5
A13
 10
103.641
 20
-112.746
 30
0.000000
  70
    32
  0
VERTEX
  8
図枠
  5
A14
 10
103.662
 20
-112.751
 30
0.000000
  70
    32
  0
VERTEX
  8
図枠
  5
A15
 10
103.684
 20
-112.756
 30
0.000000
  70
    32
  0
VERTEX
  8
図枠
  5
A16
 10
103.705
 20
-112.761
 30
0.000000
  70
    32
  0
VERTEX
  8
図枠
  5
A17
 10
103.727
 20
-112.766
 30
0.000000
  70
    32
  0
VERTEX
  8
図枠
  5
A18
 10
103.748
 20
-112.771
 30
0.000000
  70
    32
  0
VERTEX
  8
図枠
  5
A19
 10
103.770
 20
-112.775
 30
0.000000
  70
    32
  0
VERTEX
  8
図枠
  5
A1A
 10
103.792
 20
-112.780
 30
0.000000
  70
    32
  0
VERTEX
  8
図枠
  5
A1B
 10
103.813
 20
-112.785
 30
0.000000
  70
    32
  0
VERTEX
  8
図枠
  5
A1C
 10
103.835
 20
-112.790
 30
0.000000
  70
    32
  0
VERTEX
  8
図枠
  5
A1D
 10
103.857
 20
-112.795
 30
0.000000
  70
    32
  0
VERTEX
  8
図枠
  5
A1E
 10
103.878
 20
-112.800
 30
0.000000
  70
    32
  0
VERTEX
  8
図枠
  5
A1F
 10
103.900
 20
-112.804
 30
0.000000
  70
    32
  0
VERTEX
  8
図枠
  5
A20
 10
103.922
 20
-112.809
 30
0.000000
  70
    32
  0
VERTEX
  8
図枠
  5
A21
 10
103.944
 20
-112.814
 30
0.000000
  70
    32
  0
VERTEX
  8
図枠
  5
A22
 10
103.965
 20
-112.819
 30
0.000000
  70
    32
  0
VERTEX
  8
図枠
  5
A23
 10
103.987
 20
-112.823
 30
0.000000
  70
    32
  0
VERTEX
  8
図枠
  5
A24
 10
104.009
 20
-112.828
 30
0.000000
  70
    32
  0
VERTEX
  8
図枠
  5
A25
 10
104.031
 20
-112.833
 30
0.000000
  70
    32
  0
VERTEX
  8
図枠
  5
A26
 10
104.053
 20
-112.837
 30
0.000000
  70
    32
  0
VERTEX
  8
図枠
  5
A27
 10
104.074
 20
-112.842
 30
0.000000
  70
    32
  0
VERTEX
  8
図枠
  5
A28
 10
104.096
 20
-112.846
 30
0.000000
  70
    32
  0
VERTEX
  8
図枠
  5
A29
 10
104.118
 20
-112.851
 30
0.000000
  70
    32
  0
VERTEX
  8
図枠
  5
A2A
 10
104.140
 20
-112.855
 30
0.000000
  70
    32
  0
VERTEX
  8
図枠
  5
A2B
 10
104.162
 20
-112.860
 30
0.000000
  70
    32
  0
VERTEX
  8
図枠
  5
A2C
 10
104.184
 20
-112.864
 30
0.000000
  70
    32
  0
VERTEX
  8
図枠
  5
A2D
 10
104.206
 20
-112.869
 30
0.000000
  70
    32
  0
VERTEX
  8
図枠
  5
A2E
 10
104.227
 20
-112.873
 30
0.000000
  70
    32
  0
VERTEX
  8
図枠
  5
A2F
 10
104.249
 20
-112.878
 30
0.000000
  70
    32
  0
VERTEX
  8
図枠
  5
A30
 10
104.271
 20
-112.882
 30
0.000000
  70
    32
  0
VERTEX
  8
図枠
  5
A31
 10
104.293
 20
-112.886
 30
0.000000
  70
    32
  0
VERTEX
  8
図枠
  5
A32
 10
104.315
 20
-112.891
 30
0.000000
  70
    32
  0
VERTEX
  8
図枠
  5
A33
 10
104.337
 20
-112.895
 30
0.000000
  70
    32
  0
VERTEX
  8
図枠
  5
A34
 10
104.359
 20
-112.900
 30
0.000000
  70
    32
  0
VERTEX
  8
図枠
  5
A35
 10
104.381
 20
-112.904
 30
0.000000
  70
    32
  0
VERTEX
  8
図枠
  5
A36
 10
104.403
 20
-112.908
 30
0.000000
  70
    32
  0
VERTEX
  8
図枠
  5
A37
 10
104.425
 20
-112.912
 30
0.000000
  70
    32
  0
VERTEX
  8
図枠
  5
A38
 10
104.447
 20
-112.917
 30
0.000000
  70
    32
  0
VERTEX
  8
図枠
  5
A39
 10
104.469
 20
-112.921
 30
0.000000
  70
    32
  0
VERTEX
  8
図枠
  5
A3A
 10
104.491
 20
-112.925
 30
0.000000
  70
    32
  0
VERTEX
  8
図枠
  5
A3B
 10
104.513
 20
-112.929
 30
0.000000
  70
    32
  0
VERTEX
  8
図枠
  5
A3C
 10
104.535
 20
-112.934
 30
0.000000
  70
    32
  0
VERTEX
  8
図枠
  5
A3D
 10
104.557
 20
-112.938
 30
0.000000
  70
    32
  0
VERTEX
  8
図枠
  5
A3E
 10
104.580
 20
-112.942
 30
0.000000
  70
    32
  0
VERTEX
  8
図枠
  5
A3F
 10
104.602
 20
-112.946
 30
0.000000
  70
    32
  0
VERTEX
  8
図枠
  5
A40
 10
104.624
 20
-112.950
 30
0.000000
  70
    32
  0
VERTEX
  8
図枠
  5
A41
 10
104.646
 20
-112.954
 30
0.000000
  70
    32
  0
VERTEX
  8
図枠
  5
A42
 10
104.668
 20
-112.959
 30
0.000000
  70
    32
  0
VERTEX
  8
図枠
  5
A43
 10
104.690
 20
-112.963
 30
0.000000
  70
    32
  0
VERTEX
  8
図枠
  5
A44
 10
104.712
 20
-112.967
 30
0.000000
  70
    32
  0
VERTEX
  8
図枠
  5
A45
 10
104.734
 20
-112.971
 30
0.000000
  70
    32
  0
VERTEX
  8
図枠
  5
A46
 10
104.757
 20
-112.975
 30
0.000000
  70
    32
  0
VERTEX
  8
図枠
  5
A47
 10
104.779
 20
-112.979
 30
0.000000
  70
    32
  0
VERTEX
  8
図枠
  5
A48
 10
104.801
 20
-112.983
 30
0.000000
  70
    32
  0
VERTEX
  8
図枠
  5
A49
 10
104.823
 20
-112.987
 30
0.000000
  70
    32
  0
VERTEX
  8
図枠
  5
A4A
 10
104.845
 20
-112.991
 30
0.000000
  70
    32
  0
VERTEX
  8
図枠
  5
A4B
 10
104.867
 20
-112.995
 30
0.000000
  70
    32
  0
VERTEX
  8
図枠
  5
A4C
 10
104.890
 20
-112.999
 30
0.000000
  70
    32
  0
VERTEX
  8
図枠
  5
A4D
 10
104.912
 20
-113.003
 30
0.000000
  70
    32
  0
VERTEX
  8
図枠
  5
A4E
 10
104.934
 20
-113.007
 30
0.000000
  70
    32
  0
VERTEX
  8
図枠
  5
A4F
 10
104.956
 20
-113.011
 30
0.000000
  70
    32
  0
VERTEX
  8
図枠
  5
A50
 10
104.978
 20
-113.015
 30
0.000000
  70
    32
  0
VERTEX
  8
図枠
  5
A51
 10
105.001
 20
-113.019
 30
0.000000
  70
    32
  0
VERTEX
  8
図枠
  5
A52
 10
105.023
 20
-113.023
 30
0.000000
  70
    32
  0
VERTEX
  8
図枠
  5
A53
 10
105.045
 20
-113.027
 30
0.000000
  70
    32
  0
VERTEX
  8
図枠
  5
A54
 10
105.067
 20
-113.031
 30
0.000000
  70
    32
  0
VERTEX
  8
図枠
  5
A55
 10
105.090
 20
-113.035
 30
0.000000
  70
    32
  0
VERTEX
  8
図枠
  5
A56
 10
105.112
 20
-113.038
 30
0.000000
  70
    32
  0
VERTEX
  8
図枠
  5
A57
 10
105.134
 20
-113.042
 30
0.000000
  70
    32
  0
VERTEX
  8
図枠
  5
A58
 10
105.156
 20
-113.046
 30
0.000000
  70
    32
  0
VERTEX
  8
図枠
  5
A59
 10
105.179
 20
-113.050
 30
0.000000
  70
    32
  0
VERTEX
  8
図枠
  5
A5A
 10
105.201
 20
-113.054
 30
0.000000
  70
    32
  0
VERTEX
  8
図枠
  5
A5B
 10
105.223
 20
-113.058
 30
0.000000
  70
    32
  0
VERTEX
  8
図枠
  5
A5C
 10
105.245
 20
-113.062
 30
0.000000
  70
    32
  0
VERTEX
  8
図枠
  5
A5D
 10
105.268
 20
-113.065
 30
0.000000
  70
    32
  0
VERTEX
  8
図枠
  5
A5E
 10
105.290
 20
-113.069
 30
0.000000
  70
    32
  0
VERTEX
  8
図枠
  5
A5F
 10
105.312
 20
-113.073
 30
0.000000
  70
    32
  0
VERTEX
  8
図枠
  5
A60
 10
105.335
 20
-113.077
 30
0.000000
  70
    32
  0
VERTEX
  8
図枠
  5
A61
 10
105.357
 20
-113.081
 30
0.000000
  70
    32
  0
VERTEX
  8
図枠
  5
A62
 10
105.379
 20
-113.085
 30
0.000000
  70
    32
  0
VERTEX
  8
図枠
  5
A63
 10
105.402
 20
-113.088
 30
0.000000
  70
    32
  0
VERTEX
  8
図枠
  5
A64
 10
105.424
 20
-113.092
 30
0.000000
  70
    32
  0
VERTEX
  8
図枠
  5
A65
 10
105.446
 20
-113.096
 30
0.000000
  70
    32
  0
VERTEX
  8
図枠
  5
A66
 10
105.468
 20
-113.100
 30
0.000000
  70
    32
  0
VERTEX
  8
図枠
  5
A67
 10
105.491
 20
-113.104
 30
0.000000
  70
    32
  0
VERTEX
  8
図枠
  5
A68
 10
105.513
 20
-113.107
 30
0.000000
  70
    32
  0
VERTEX
  8
図枠
  5
A69
 10
105.535
 20
-113.111
 30
0.000000
  70
    32
  0
VERTEX
  8
図枠
  5
A6A
 10
105.558
 20
-113.115
 30
0.000000
  70
    32
  0
VERTEX
  8
図枠
  5
A6B
 10
105.580
 20
-113.119
 30
0.000000
  70
    32
  0
VERTEX
  8
図枠
  5
A6C
 10
105.602
 20
-113.123
 30
0.000000
  70
    32
  0
VERTEX
  8
図枠
  5
A6D
 10
105.625
 20
-113.126
 30
0.000000
  70
    32
  0
VERTEX
  8
図枠
  5
A6E
 10
105.647
 20
-113.130
 30
0.000000
  70
    32
  0
VERTEX
  8
図枠
  5
A6F
 10
105.669
 20
-113.134
 30
0.000000
  70
    32
  0
VERTEX
  8
図枠
  5
A70
 10
105.692
 20
-113.138
 30
0.000000
  70
    32
  0
VERTEX
  8
図枠
  5
A71
 10
105.714
 20
-113.141
 30
0.000000
  70
    32
  0
VERTEX
  8
図枠
  5
A72
 10
105.736
 20
-113.145
 30
0.000000
  70
    32
  0
VERTEX
  8
図枠
  5
A73
 10
105.759
 20
-113.149
 30
0.000000
  70
    32
  0
VERTEX
  8
図枠
  5
A74
 10
105.781
 20
-113.153
 30
0.000000
  70
    32
  0
SEQEND
  8
図枠
  5
A75
  0
LINE
  5
19E
  8
図枠
 10
111.78822145309999
 20
-87.098000954
 30
0.0
 11
118.7002214531
 21
-88.826000953999994
 31
0.0
  0
CIRCLE
  5
19F
  8
図枠
 10
103.8885002363
 20
-85.370000953999991
 30
0.0
 40
1.728
  0
LINE
  5
1A0
  8
図枠
 10
111.78822145309999
 20
-87.098000954
 30
0.0
 11
118.7002214531
 21
-88.826000953999994
 31
0.0
  0
INSERT
  5
1A1
  8
0
  6
CONTINUOUS
  2
*U78
 10
0.0
 20
0.0
 30
0.0
  0
INSERT
  5
1A2
  8
0
  6
CONTINUOUS
  2
*U79
 10
0.0
 20
0.0
 30
0.0
  0
LINE
  5
1A3
  8
図枠
 10
81.588302285300003
 20
-110.7527933937
 30
0.0
 11
81.406977711400003
 21
-110.7527933937
 31
0.0
  0
LINE
  5
1A4
  8
図枠
 10
89.988302285300009
 20
-108.95279339370001
 30
0.0
 11
89.988302285300009
 21
-108.3527933937
 31
0.0
  0
LINE
  5
1A5
  8
図枠
 10
114.8391659632
 20
-108.59279339370001
 30
0.0
 11
114.6634928629
 21
-107.9823187251
 31
0.0
  0
LINE
  5
1A6
  8
図枠
 10
94.792500236299986
 20
-78.995000953999991
 30
0.0
 11
94.792500236299986
 21
-91.745000953999991
 31
0.0
  0
INSERT
  5
1A7
  8
0
  6
CONTINUOUS
  2
*U80
 10
0.0
 20
0.0
 30
0.0
  0
LINE
  5
1A8
  8
図枠
 10
82.7925002363
 20
-98.120000954000005
 30
0.0
 11
121.7925002363
 21
-98.120000954000005
 31
0.0
  0
ARC
  5
1A9
  8
図枠
 10
96.421029557999987
 20
-108.59279339370001
 30
0.0
 40
4.5599999999999987
 50
270.0
 51
298.08590481520002
  0
ARC
  5
1AA
  8
図枠
 10
97.981029557999989
 20
-108.3527933937
 30
0.0
 40
6.5999999999999988
 50
322.48761197969998
 51
0.0
  0
LINE
  5
1AB
  8
図枠
 10
103.2162927805
 20
-112.3717508445
 30
0.0
 11
103.0025703087
 21
-112.5810046175
 31
0.0
  0
LINE
  5
1AC
  8
図枠
 10
119.2420087359
 20
-111.7127933937
 30
0.0
 11
119.2420087359
 21
-113.87279339369999
 31
0.0
  0
INSERT
  5
1AD
  8
0
  6
CONTINUOUS
  2
*U81
 10
0.0
 20
0.0
 30
0.0
  0
LINE
  5
1AE
  8
図枠
 10
94.981029557999975
 20
-113.15279339369999
 30
0.0
 11
96.421029557999987
 21
-113.15279339369999
 31
0.0
  0
INSERT
  5
1AF
  8
0
  6
CONTINUOUS
  2
*U82
 10
0.0
 20
0.0
 30
0.0
  0
INSERT
  5
1B0
  8
0
  6
CONTINUOUS
  2
*U83
 10
0.0
 20
0.0
 30
0.0
  0
LINE
  5
1B1
  8
図枠
 10
81.588302285300003
 20
-114.95279339370001
 30
0.0
 11
86.3883022853
 21
-114.95279339370001
 31
0.0
  0
LINE
  5
1B2
  8
図枠
 10
94.981029557999975
 20
-114.95279339370001
 30
0.0
 11
97.981029557999989
 21
-114.95279339370001
 31
0.0
  0
LINE
  5
1B3
  8
図枠
 10
84.588302285300003
 20
-110.7527933937
 30
0.0
 11
86.988302285300009
 21
-110.7527933937
 31
0.0
  0
CIRCLE
  5
1B4
  8
図枠
 10
103.8885002363
 20
-85.370000953999991
 30
0.0
 40
3.456
  0
INSERT
  5
1B5
  8
0
  6
CONTINUOUS
  2
*U84
 10
0.0
 20
0.0
 30
0.0
  0
LINE
  5
1B6
  8
図枠
 10
34.7925002363
 20
-91.745000953999991
 30
0.0
 11
208.79250023629999
 21
-91.745000953999991
 31
0.0
  0
LINE
  5
1B7
  8
図枠
 10
34.7925002363
 20
-54.245000953999991
 30
0.0
 11
208.79250023629999
 21
-54.245000953999991
 31
0.0
  0
LINE
  5
1B8
  8
図枠
 10
118.7002214531
 20
-81.914000954000002
 30
0.0
 11
118.7002214531
 21
-88.826000953999994
 31
0.0
  0
LINE
  5
1B9
  8
図枠
 10
120.2925002363
 20
-62.495000953999998
 30
0.0
 11
120.2925002363
 21
-54.245000953999991
 31
0.0
  0
INSERT
  5
1BA
  8
0
  6
CONTINUOUS
  2
*U85
 10
0.0
 20
0.0
 30
0.0
  0
INSERT
  5
1BB
  8
0
  6
CONTINUOUS
  2
*U86
 10
0.0
 20
0.0
 30
0.0
  0
LINE
  5
1BC
  8
図枠
 10
111.78822145309999
 20
-83.642000953999997
 30
0.0
 11
118.7002214531
 21
-81.914000954000002
 31
0.0
  0
POLYLINE
  8
図枠
  5
A76
  66
     1
 10
0.000000
 20
0.000000
 30
0.000000
  70
     8
  0
VERTEX
  8
図枠
  5
A77
 10
94.9810
 20
-109.726
 30
0.000000
  70
    32
  0
VERTEX
  8
図枠
  5
A78
 10
95.0026
 20
-109.746
 30
0.000000
  70
    32
  0
VERTEX
  8
図枠
  5
A79
 10
95.0243
 20
-109.766
 30
0.000000
  70
    32
  0
VERTEX
  8
図枠
  5
A7A
 10
95.0459
 20
-109.786
 30
0.000000
  70
    32
  0
VERTEX
  8
図枠
  5
A7B
 10
95.0675
 20
-109.806
 30
0.000000
  70
    32
  0
VERTEX
  8
図枠
  5
A7C
 10
95.0891
 20
-109.825
 30
0.000000
  70
    32
  0
VERTEX
  8
図枠
  5
A7D
 10
95.1107
 20
-109.845
 30
0.000000
  70
    32
  0
VERTEX
  8
図枠
  5
A7E
 10
95.1323
 20
-109.865
 30
0.000000
  70
    32
  0
VERTEX
  8
図枠
  5
A7F
 10
95.1540
 20
-109.885
 30
0.000000
  70
    32
  0
VERTEX
  8
図枠
  5
A80
 10
95.1756
 20
-109.905
 30
0.000000
  70
    32
  0
VERTEX
  8
図枠
  5
A81
 10
95.1972
 20
-109.925
 30
0.000000
  70
    32
  0
VERTEX
  8
図枠
  5
A82
 10
95.2188
 20
-109.945
 30
0.000000
  70
    32
  0
VERTEX
  8
図枠
  5
A83
 10
95.2405
 20
-109.965
 30
0.000000
  70
    32
  0
VERTEX
  8
図枠
  5
A84
 10
95.2621
 20
-109.985
 30
0.000000
  70
    32
  0
VERTEX
  8
図枠
  5
A85
 10
95.2837
 20
-110.005
 30
0.000000
  70
    32
  0
VERTEX
  8
図枠
  5
A86
 10
95.3054
 20
-110.024
 30
0.000000
  70
    32
  0
VERTEX
  8
図枠
  5
A87
 10
95.3270
 20
-110.044
 30
0.000000
  70
    32
  0
VERTEX
  8
図枠
  5
A88
 10
95.3486
 20
-110.064
 30
0.000000
  70
    32
  0
VERTEX
  8
図枠
  5
A89
 10
95.3703
 20
-110.084
 30
0.000000
  70
    32
  0
VERTEX
  8
図枠
  5
A8A
 10
95.3919
 20
-110.104
 30
0.000000
  70
    32
  0
VERTEX
  8
図枠
  5
A8B
 10
95.4136
 20
-110.124
 30
0.000000
  70
    32
  0
VERTEX
  8
図枠
  5
A8C
 10
95.4353
 20
-110.144
 30
0.000000
  70
    32
  0
VERTEX
  8
図枠
  5
A8D
 10
95.4569
 20
-110.163
 30
0.000000
  70
    32
  0
VERTEX
  8
図枠
  5
A8E
 10
95.4786
 20
-110.183
 30
0.000000
  70
    32
  0
VERTEX
  8
図枠
  5
A8F
 10
95.5003
 20
-110.203
 30
0.000000
  70
    32
  0
VERTEX
  8
図枠
  5
A90
 10
95.5220
 20
-110.223
 30
0.000000
  70
    32
  0
VERTEX
  8
図枠
  5
A91
 10
95.5436
 20
-110.243
 30
0.000000
  70
    32
  0
VERTEX
  8
図枠
  5
A92
 10
95.5653
 20
-110.262
 30
0.000000
  70
    32
  0
VERTEX
  8
図枠
  5
A93
 10
95.5870
 20
-110.282
 30
0.000000
  70
    32
  0
VERTEX
  8
図枠
  5
A94
 10
95.6087
 20
-110.302
 30
0.000000
  70
    32
  0
VERTEX
  8
図枠
  5
A95
 10
95.6304
 20
-110.322
 30
0.000000
  70
    32
  0
VERTEX
  8
図枠
  5
A96
 10
95.6522
 20
-110.341
 30
0.000000
  70
    32
  0
VERTEX
  8
図枠
  5
A97
 10
95.6739
 20
-110.361
 30
0.000000
  70
    32
  0
VERTEX
  8
図枠
  5
A98
 10
95.6956
 20
-110.381
 30
0.000000
  70
    32
  0
VERTEX
  8
図枠
  5
A99
 10
95.7174
 20
-110.401
 30
0.000000
  70
    32
  0
VERTEX
  8
図枠
  5
A9A
 10
95.7391
 20
-110.420
 30
0.000000
  70
    32
  0
VERTEX
  8
図枠
  5
A9B
 10
95.7609
 20
-110.440
 30
0.000000
  70
    32
  0
VERTEX
  8
図枠
  5
A9C
 10
95.7826
 20
-110.460
 30
0.000000
  70
    32
  0
VERTEX
  8
図枠
  5
A9D
 10
95.8044
 20
-110.479
 30
0.000000
  70
    32
  0
VERTEX
  8
図枠
  5
A9E
 10
95.8262
 20
-110.499
 30
0.000000
  70
    32
  0
VERTEX
  8
図枠
  5
A9F
 10
95.8480
 20
-110.518
 30
0.000000
  70
    32
  0
VERTEX
  8
図枠
  5
AA0
 10
95.8698
 20
-110.538
 30
0.000000
  70
    32
  0
VERTEX
  8
図枠
  5
AA1
 10
95.8916
 20
-110.558
 30
0.000000
  70
    32
  0
VERTEX
  8
図枠
  5
AA2
 10
95.9134
 20
-110.577
 30
0.000000
  70
    32
  0
VERTEX
  8
図枠
  5
AA3
 10
95.9352
 20
-110.597
 30
0.000000
  70
    32
  0
VERTEX
  8
図枠
  5
AA4
 10
95.9571
 20
-110.616
 30
0.000000
  70
    32
  0
VERTEX
  8
図枠
  5
AA5
 10
95.9789
 20
-110.636
 30
0.000000
  70
    32
  0
VERTEX
  8
図枠
  5
AA6
 10
96.0008
 20
-110.655
 30
0.000000
  70
    32
  0
VERTEX
  8
図枠
  5
AA7
 10
96.0226
 20
-110.675
 30
0.000000
  70
    32
  0
VERTEX
  8
図枠
  5
AA8
 10
96.0445
 20
-110.694
 30
0.000000
  70
    32
  0
VERTEX
  8
図枠
  5
AA9
 10
96.0664
 20
-110.713
 30
0.000000
  70
    32
  0
VERTEX
  8
図枠
  5
AAA
 10
96.0883
 20
-110.733
 30
0.000000
  70
    32
  0
VERTEX
  8
図枠
  5
AAB
 10
96.1102
 20
-110.752
 30
0.000000
  70
    32
  0
VERTEX
  8
図枠
  5
AAC
 10
96.1321
 20
-110.771
 30
0.000000
  70
    32
  0
VERTEX
  8
図枠
  5
AAD
 10
96.1541
 20
-110.791
 30
0.000000
  70
    32
  0
VERTEX
  8
図枠
  5
AAE
 10
96.1760
 20
-110.810
 30
0.000000
  70
    32
  0
VERTEX
  8
図枠
  5
AAF
 10
96.1980
 20
-110.829
 30
0.000000
  70
    32
  0
VERTEX
  8
図枠
  5
AB0
 10
96.2199
 20
-110.849
 30
0.000000
  70
    32
  0
VERTEX
  8
図枠
  5
AB1
 10
96.2419
 20
-110.868
 30
0.000000
  70
    32
  0
VERTEX
  8
図枠
  5
AB2
 10
96.2639
 20
-110.887
 30
0.000000
  70
    32
  0
VERTEX
  8
図枠
  5
AB3
 10
96.2859
 20
-110.906
 30
0.000000
  70
    32
  0
VERTEX
  8
図枠
  5
AB4
 10
96.3079
 20
-110.925
 30
0.000000
  70
    32
  0
VERTEX
  8
図枠
  5
AB5
 10
96.3300
 20
-110.945
 30
0.000000
  70
    32
  0
VERTEX
  8
図枠
  5
AB6
 10
96.3520
 20
-110.964
 30
0.000000
  70
    32
  0
VERTEX
  8
図枠
  5
AB7
 10
96.3741
 20
-110.983
 30
0.000000
  70
    32
  0
VERTEX
  8
図枠
  5
AB8
 10
96.3962
 20
-111.002
 30
0.000000
  70
    32
  0
VERTEX
  8
図枠
  5
AB9
 10
96.4183
 20
-111.021
 30
0.000000
  70
    32
  0
VERTEX
  8
図枠
  5
ABA
 10
96.4404
 20
-111.040
 30
0.000000
  70
    32
  0
VERTEX
  8
図枠
  5
ABB
 10
96.4625
 20
-111.059
 30
0.000000
  70
    32
  0
VERTEX
  8
図枠
  5
ABC
 10
96.4847
 20
-111.078
 30
0.000000
  70
    32
  0
VERTEX
  8
図枠
  5
ABD
 10
96.5068
 20
-111.097
 30
0.000000
  70
    32
  0
VERTEX
  8
図枠
  5
ABE
 10
96.5290
 20
-111.116
 30
0.000000
  70
    32
  0
VERTEX
  8
図枠
  5
ABF
 10
96.5512
 20
-111.135
 30
0.000000
  70
    32
  0
VERTEX
  8
図枠
  5
AC0
 10
96.5734
 20
-111.153
 30
0.000000
  70
    32
  0
VERTEX
  8
図枠
  5
AC1
 10
96.5956
 20
-111.172
 30
0.000000
  70
    32
  0
VERTEX
  8
図枠
  5
AC2
 10
96.6178
 20
-111.191
 30
0.000000
  70
    32
  0
VERTEX
  8
図枠
  5
AC3
 10
96.6401
 20
-111.210
 30
0.000000
  70
    32
  0
VERTEX
  8
図枠
  5
AC4
 10
96.6623
 20
-111.228
 30
0.000000
  70
    32
  0
VERTEX
  8
図枠
  5
AC5
 10
96.6846
 20
-111.247
 30
0.000000
  70
    32
  0
VERTEX
  8
図枠
  5
AC6
 10
96.7069
 20
-111.266
 30
0.000000
  70
    32
  0
VERTEX
  8
図枠
  5
AC7
 10
96.7293
 20
-111.284
 30
0.000000
  70
    32
  0
VERTEX
  8
図枠
  5
AC8
 10
96.7516
 20
-111.303
 30
0.000000
  70
    32
  0
VERTEX
  8
図枠
  5
AC9
 10
96.7740
 20
-111.321
 30
0.000000
  70
    32
  0
VERTEX
  8
図枠
  5
ACA
 10
96.7963
 20
-111.340
 30
0.000000
  70
    32
  0
VERTEX
  8
図枠
  5
ACB
 10
96.8187
 20
-111.358
 30
0.000000
  70
    32
  0
VERTEX
  8
図枠
  5
ACC
 10
96.8411
 20
-111.377
 30
0.000000
  70
    32
  0
VERTEX
  8
図枠
  5
ACD
 10
96.8636
 20
-111.395
 30
0.000000
  70
    32
  0
VERTEX
  8
図枠
  5
ACE
 10
96.8860
 20
-111.414
 30
0.000000
  70
    32
  0
VERTEX
  8
図枠
  5
ACF
 10
96.9085
 20
-111.432
 30
0.000000
  70
    32
  0
VERTEX
  8
図枠
  5
AD0
 10
96.9310
 20
-111.450
 30
0.000000
  70
    32
  0
VERTEX
  8
図枠
  5
AD1
 10
96.9535
 20
-111.469
 30
0.000000
  70
    32
  0
VERTEX
  8
図枠
  5
AD2
 10
96.9760
 20
-111.487
 30
0.000000
  70
    32
  0
VERTEX
  8
図枠
  5
AD3
 10
96.9986
 20
-111.505
 30
0.000000
  70
    32
  0
VERTEX
  8
図枠
  5
AD4
 10
97.0212
 20
-111.523
 30
0.000000
  70
    32
  0
VERTEX
  8
図枠
  5
AD5
 10
97.0438
 20
-111.541
 30
0.000000
  70
    32
  0
VERTEX
  8
図枠
  5
AD6
 10
97.0664
 20
-111.559
 30
0.000000
  70
    32
  0
VERTEX
  8
図枠
  5
AD7
 10
97.0890
 20
-111.577
 30
0.000000
  70
    32
  0
VERTEX
  8
図枠
  5
AD8
 10
97.1117
 20
-111.595
 30
0.000000
  70
    32
  0
VERTEX
  8
図枠
  5
AD9
 10
97.1344
 20
-111.613
 30
0.000000
  70
    32
  0
VERTEX
  8
図枠
  5
ADA
 10
97.1571
 20
-111.631
 30
0.000000
  70
    32
  0
VERTEX
  8
図枠
  5
ADB
 10
97.1798
 20
-111.649
 30
0.000000
  70
    32
  0
VERTEX
  8
図枠
  5
ADC
 10
97.2025
 20
-111.667
 30
0.000000
  70
    32
  0
VERTEX
  8
図枠
  5
ADD
 10
97.2253
 20
-111.685
 30
0.000000
  70
    32
  0
VERTEX
  8
図枠
  5
ADE
 10
97.2481
 20
-111.702
 30
0.000000
  70
    32
  0
VERTEX
  8
図枠
  5
ADF
 10
97.2709
 20
-111.720
 30
0.000000
  70
    32
  0
VERTEX
  8
図枠
  5
AE0
 10
97.2937
 20
-111.738
 30
0.000000
  70
    32
  0
VERTEX
  8
図枠
  5
AE1
 10
97.3166
 20
-111.755
 30
0.000000
  70
    32
  0
VERTEX
  8
図枠
  5
AE2
 10
97.3395
 20
-111.773
 30
0.000000
  70
    32
  0
VERTEX
  8
図枠
  5
AE3
 10
97.3624
 20
-111.790
 30
0.000000
  70
    32
  0
VERTEX
  8
図枠
  5
AE4
 10
97.3853
 20
-111.808
 30
0.000000
  70
    32
  0
VERTEX
  8
図枠
  5
AE5
 10
97.4083
 20
-111.825
 30
0.000000
  70
    32
  0
VERTEX
  8
図枠
  5
AE6
 10
97.4313
 20
-111.843
 30
0.000000
  70
    32
  0
VERTEX
  8
図枠
  5
AE7
 10
97.4543
 20
-111.860
 30
0.000000
  70
    32
  0
VERTEX
  8
図枠
  5
AE8
 10
97.4773
 20
-111.877
 30
0.000000
  70
    32
  0
VERTEX
  8
図枠
  5
AE9
 10
97.5004
 20
-111.895
 30
0.000000
  70
    32
  0
VERTEX
  8
図枠
  5
AEA
 10
97.5235
 20
-111.912
 30
0.000000
  70
    32
  0
VERTEX
  8
図枠
  5
AEB
 10
97.5466
 20
-111.929
 30
0.000000
  70
    32
  0
VERTEX
  8
図枠
  5
AEC
 10
97.5697
 20
-111.946
 30
0.000000
  70
    32
  0
VERTEX
  8
図枠
  5
AED
 10
97.5929
 20
-111.963
 30
0.000000
  70
    32
  0
VERTEX
  8
図枠
  5
AEE
 10
97.6160
 20
-111.980
 30
0.000000
  70
    32
  0
VERTEX
  8
図枠
  5
AEF
 10
97.6393
 20
-111.997
 30
0.000000
  70
    32
  0
VERTEX
  8
図枠
  5
AF0
 10
97.6625
 20
-112.014
 30
0.000000
  70
    32
  0
VERTEX
  8
図枠
  5
AF1
 10
97.6858
 20
-112.031
 30
0.000000
  70
    32
  0
VERTEX
  8
図枠
  5
AF2
 10
97.7091
 20
-112.048
 30
0.000000
  70
    32
  0
VERTEX
  8
図枠
  5
AF3
 10
97.7324
 20
-112.065
 30
0.000000
  70
    32
  0
VERTEX
  8
図枠
  5
AF4
 10
97.7557
 20
-112.081
 30
0.000000
  70
    32
  0
VERTEX
  8
図枠
  5
AF5
 10
97.7791
 20
-112.098
 30
0.000000
  70
    32
  0
VERTEX
  8
図枠
  5
AF6
 10
97.8025
 20
-112.115
 30
0.000000
  70
    32
  0
VERTEX
  8
図枠
  5
AF7
 10
97.8260
 20
-112.131
 30
0.000000
  70
    32
  0
VERTEX
  8
図枠
  5
AF8
 10
97.8494
 20
-112.148
 30
0.000000
  70
    32
  0
VERTEX
  8
図枠
  5
AF9
 10
97.8729
 20
-112.164
 30
0.000000
  70
    32
  0
VERTEX
  8
図枠
  5
AFA
 10
97.8965
 20
-112.180
 30
0.000000
  70
    32
  0
VERTEX
  8
図枠
  5
AFB
 10
97.9200
 20
-112.197
 30
0.000000
  70
    32
  0
VERTEX
  8
図枠
  5
AFC
 10
97.9436
 20
-112.213
 30
0.000000
  70
    32
  0
VERTEX
  8
図枠
  5
AFD
 10
97.9672
 20
-112.229
 30
0.000000
  70
    32
  0
VERTEX
  8
図枠
  5
AFE
 10
97.9908
 20
-112.245
 30
0.000000
  70
    32
  0
VERTEX
  8
図枠
  5
AFF
 10
98.0145
 20
-112.262
 30
0.000000
  70
    32
  0
VERTEX
  8
図枠
  5
B00
 10
98.0382
 20
-112.278
 30
0.000000
  70
    32
  0
VERTEX
  8
図枠
  5
B01
 10
98.0620
 20
-112.294
 30
0.000000
  70
    32
  0
VERTEX
  8
図枠
  5
B02
 10
98.0857
 20
-112.310
 30
0.000000
  70
    32
  0
VERTEX
  8
図枠
  5
B03
 10
98.1095
 20
-112.325
 30
0.000000
  70
    32
  0
VERTEX
  8
図枠
  5
B04
 10
98.1333
 20
-112.341
 30
0.000000
  70
    32
  0
VERTEX
  8
図枠
  5
B05
 10
98.1572
 20
-112.357
 30
0.000000
  70
    32
  0
VERTEX
  8
図枠
  5
B06
 10
98.1811
 20
-112.373
 30
0.000000
  70
    32
  0
VERTEX
  8
図枠
  5
B07
 10
98.2050
 20
-112.388
 30
0.000000
  70
    32
  0
VERTEX
  8
図枠
  5
B08
 10
98.2290
 20
-112.404
 30
0.000000
  70
    32
  0
VERTEX
  8
図枠
  5
B09
 10
98.2530
 20
-112.420
 30
0.000000
  70
    32
  0
VERTEX
  8
図枠
  5
B0A
 10
98.2770
 20
-112.435
 30
0.000000
  70
    32
  0
VERTEX
  8
図枠
  5
B0B
 10
98.3010
 20
-112.450
 30
0.000000
  70
    32
  0
VERTEX
  8
図枠
  5
B0C
 10
98.3251
 20
-112.466
 30
0.000000
  70
    32
  0
VERTEX
  8
図枠
  5
B0D
 10
98.3492
 20
-112.481
 30
0.000000
  70
    32
  0
VERTEX
  8
図枠
  5
B0E
 10
98.3734
 20
-112.496
 30
0.000000
  70
    32
  0
VERTEX
  8
図枠
  5
B0F
 10
98.3976
 20
-112.511
 30
0.000000
  70
    32
  0
VERTEX
  8
図枠
  5
B10
 10
98.4218
 20
-112.527
 30
0.000000
  70
    32
  0
VERTEX
  8
図枠
  5
B11
 10
98.4461
 20
-112.542
 30
0.000000
  70
    32
  0
VERTEX
  8
図枠
  5
B12
 10
98.4703
 20
-112.557
 30
0.000000
  70
    32
  0
VERTEX
  8
図枠
  5
B13
 10
98.4947
 20
-112.571
 30
0.000000
  70
    32
  0
VERTEX
  8
図枠
  5
B14
 10
98.5190
 20
-112.586
 30
0.000000
  70
    32
  0
VERTEX
  8
図枠
  5
B15
 10
98.5434
 20
-112.601
 30
0.000000
  70
    32
  0
VERTEX
  8
図枠
  5
B16
 10
98.5679
 20
-112.616
 30
0.000000
  70
    32
  0
SEQEND
  8
図枠
  5
B17
  0
LINE
  5
1BE
  8
図枠
 10
115.73699203370001
 20
-111.7127933937
 30
0.0
 11
119.2420087359
 21
-111.7127933937
 31
0.0
  0
LINE
  5
1BF
  8
図枠
 10
108.4420087359
 20
-108.59279339370001
 30
0.0
 11
111.44040873589999
 21
-108.59279339370001
 31
0.0
  0
LINE
  5
1C0
  8
図枠
 10
119.2420087359
 20
-108.59279339370001
 30
0.0
 11
119.2420087359
 21
-110.7527933937
 31
0.0
  0
LINE
  5
1C1
  8
ﾚｲﾔ_10
  6
STITCH
 10
52.880761718800002
 20
95.390950520800004
 30
0.0
 11
52.880761718800002
 21
99.590950520800007
 31
0.0
  0
LINE
  5
1C2
  8
ﾚｲﾔ_10
  6
STITCH
 10
52.880761718800002
 20
99.590950520800007
 30
0.0
 11
54.230761718799997
 21
99.590950520800007
 31
0.0
  0
LINE
  5
1C3
  8
ﾚｲﾔ_10
  6
STITCH
 10
52.880761718800002
 20
95.390950520800004
 30
0.0
 11
54.230761718799997
 21
95.390950520800004
 31
0.0
  0
LINE
  5
1C4
  8
図枠
 10
115.73699203370001
 20
-111.7127933937
 30
0.0
 11
115.46073785820001
 21
-110.7527933937
 31
0.0
  0
LINE
  5
1C5
  8
図枠
 10
108.4420087359
 20
-113.87279339369999
 30
0.0
 11
112.98920873589999
 21
-113.87279339369999
 31
0.0
  0
LINE
  5
1C6
  8
図枠
 10
105.781029558
 20
-106.5527933937
 30
0.0
 11
94.981029557999975
 21
-106.5527933937
 31
0.0
  0
LINE
  5
1C7
  8
図枠
 10
81.588302285300003
 20
-112.5527933937
 30
0.0
 11
84.588302285300003
 21
-112.5527933937
 31
0.0
  0
LINE
  5
1C8
  8
図枠
 10
115.46073785820001
 20
-110.7527933937
 30
0.0
 11
119.2420087359
 21
-110.7527933937
 31
0.0
  0
LINE
  5
1C9
  8
図枠
 10
111.78822145309999
 20
-83.642000953999997
 30
0.0
 11
111.78822145309999
 21
-87.098000954
 31
0.0
  0
LINE
  5
1CA
  8
図枠
 10
111.44040873589999
 20
-108.59279339370001
 30
0.0
 11
110.8420087359
 21
-106.5527933937
 31
0.0
  0
LINE
  5
1CB
  8
図枠
 10
114.8391659632
 20
-108.59279339370001
 30
0.0
 11
119.2420087359
 21
-108.59279339370001
 31
0.0
  0
LINE
  5
1CC
  8
図枠
 10
118.7002214531
 20
-81.914000954000002
 30
0.0
 11
118.7002214531
 21
-88.826000953999994
 31
0.0
  0
LINE
  5
1CD
  8
図枠
 10
105.781029558
 20
-113.15279339369999
 30
0.0
 11
105.781029558
 21
-114.95279339370001
 31
0.0
  0
LINE
  5
1CE
  8
図枠
 10
84.588302285300003
 20
-108.3527933937
 30
0.0
 11
86.3883022853
 21
-106.5527933937
 31
0.0
  0
LINE
  5
1CF
  8
図枠
 10
81.588302285300003
 20
-108.95279339370001
 30
0.0
 11
80.2069777114
 21
-108.95279339370001
 31
0.0
  0
INSERT
  5
1D0
  8
0
  6
CONTINUOUS
  2
*U87
 10
0.0
 20
0.0
 30
0.0
  0
LINE
  5
1D1
  8
図枠
 10
113.4820087359
 20
-115.5527933937
 30
0.0
 11
116.8420087359
 21
-115.5527933937
 31
0.0
  0
LINE
  5
1D2
  8
図枠
 10
79.7925002363
 20
-91.745000953999991
 30
0.0
 11
79.7925002363
 21
-104.49500095400001
 31
0.0
  0
LINE
  5
1D3
  8
図枠
 10
100.424604548
 20
-110.77567847980001
 30
0.0
 11
100.1358895804
 21
-111.0945645125
 31
0.0
  0
ARC
  5
1D4
  8
図枠
 10
86.3883022853
 20
-111.3527933937
 30
0.0
 40
3.6000000000000001
 50
270.0
 51
0.0
  0
INSERT
  5
1D5
  8
0
  6
CONTINUOUS
  2
*U88
 10
0.0
 20
0.0
 30
0.0
  0
LINE
  5
1D6
  8
図枠
 10
67.7925002363
 20
-85.370000953999991
 30
0.0
 11
88.792500236299986
 21
-85.370000953999991
 31
0.0
  0
LINE
  5
1D7
  8
図枠
 10
110.8420087359
 20
-106.5527933937
 30
0.0
 11
115.64200873590001
 21
-106.5527933937
 31
0.0
  0
LINE
  5
1D8
  8
図枠
 10
104.581029558
 20
-108.3527933937
 30
0.0
 11
105.781029558
 21
-106.5527933937
 31
0.0
  0
LINE
  5
1D9
  8
図枠
 10
116.8420087359
 20
-115.5527933937
 30
0.0
 11
116.35856392869999
 21
-113.87279339369999
 31
0.0
  0
LINE
  5
1DA
  8
ﾚｲﾔ_10
  6
BORDER
 62
     3
 10
43.230761718700002
 20
102.4909505208
 30
0.0
 11
43.230761718700002
 21
92.490950520799984
 31
0.0
  0
LINE
  5
1DB
  8
ﾚｲﾔ_10
  6
BORDER
 62
     3
 10
38.230761718700002
 20
97.490950520800013
 30
0.0
 11
48.230761718799997
 21
97.490950520800013
 31
0.0
  0
CIRCLE
  5
1DC
  8
ﾚｲﾔ_10
 62
     5
 10
43.230761718700002
 20
97.490950520800013
 30
0.0
 40
2.1000000000000001
  0
CIRCLE
  5
1DD
  8
図枠
 10
103.8885002363
 20
-85.370000953999991
 30
0.0
 40
1.728
  0
LINE
  5
1DE
  8
図枠
 10
108.4420087359
 20
-110.7527933937
 30
0.0
 11
112.07400873589999
 21
-110.7527933937
 31
0.0
  0
LINE
  5
1DF
  8
図枠
 10
34.7925002363
 20
-70.745000953999991
 30
0.0
 11
208.79250023629999
 21
-70.745000953999991
 31
0.0
  0
LINE
  5
1E0
  8
図枠
 10
34.7925002363
 20
-62.495000953999998
 30
0.0
 11
208.79250023629999
 21
-62.495000953999998
 31
0.0
  0
LINE
  5
1E1
  8
図枠
  6
BORDER
 10
103.8885002363
 20
-80.186000953999994
 30
0.0
 11
103.8885002363
 21
-90.554000954000017
 31
0.0
  0
LINE
  5
1E2
  8
図枠
 10
64.7925002363
 20
-78.995000953999991
 30
0.0
 11
64.7925002363
 21
-54.245000953999991
 31
0.0
  0
LINE
  5
1E3
  8
図枠
 10
147.29250023629999
 20
-62.495000953999998
 30
0.0
 11
147.29250023629999
 21
-54.245000953999991
 31
0.0
  0
LINE
  5
1E4
  8
図枠
 10
108.4420087359
 20
-111.7127933937
 30
0.0
 11
112.35560873590001
 21
-111.7127933937
 31
0.0
  0
LINE
  5
1E5
  8
図枠
 10
114.6634928629
 20
-107.9823187251
 30
0.0
 11
115.64200873590001
 21
-106.5527933937
 31
0.0
  0
LINE
  5
1E6
  8
図枠
 10
86.988302285300009
 20
-108.95279339370001
 30
0.0
 11
84.588302285300003
 21
-108.95279339370001
 31
0.0
  0
LINE
  5
1E7
  8
図枠
 10
94.981029557999975
 20
-114.95279339370001
 30
0.0
 11
94.981029557999975
 21
-113.15279339369999
 31
0.0
  0
LINE
  5
1E8
  8
図枠
 10
86.988302285300009
 20
-106.5527933937
 30
0.0
 11
86.988302285300009
 21
-108.95279339370001
 31
0.0
  0
LINE
  5
1E9
  8
図枠
  6
BORDER
 10
103.8885002363
 20
-80.186000953999994
 30
0.0
 11
103.8885002363
 21
-90.554000954000017
 31
0.0
  0
LINE
  5
1EA
  8
図枠
 10
111.78822145309999
 20
-83.642000953999997
 30
0.0
 11
111.78822145309999
 21
-87.098000954
 31
0.0
  0
LINE
  5
1EB
  8
図枠
 10
89.988302285300009
 20
-108.3527933937
 30
0.0
 11
91.788302285300006
 21
-106.5527933937
 31
0.0
  0
LINE
  5
1EC
  8
図枠
 10
91.788302285300006
 20
-108.95279339370001
 30
0.0
 11
91.788302285300006
 21
-110.7527933937
 31
0.0
  0
LINE
  5
1ED
  8
図枠
 10
84.588302285300003
 20
-108.95279339370001
 30
0.0
 11
84.588302285300003
 21
-108.3527933937
 31
0.0
  0
INSERT
  5
1EE
  8
0
  6
CONTINUOUS
  2
*U89
 10
0.0
 20
0.0
 30
0.0
  0
LINE
  5
1EF
  8
図枠
 10
91.788302285300006
 20
-106.5527933937
 30
0.0
 11
86.988302285300009
 21
-106.5527933937
 31
0.0
  0
LINE
  5
1F0
  8
図枠
 10
34.7925002363
 20
-78.995000953999991
 30
0.0
 11
34.7925002363
 21
-117.24500095400001
 31
0.0
  0
LINE
  5
1F1
  8
図枠
 10
34.7925002363
 20
-54.245000953999991
 30
0.0
 11
34.7925002363
 21
-78.995000953999991
 31
0.0
  0
LINE
  5
1F2
  8
ﾚｲﾔ_10
  6
STITCH
 10
51.230761718800011
 20
84.740950520799998
 30
0.0
 11
52.880761718800002
 21
86.390950520800004
 31
0.0
  0
LINE
  5
1F3
  8
図枠
 62
     5
 10
69.653572157200003
 20
153.40118667260001
 30
0.0
 11
77.0785721572
 21
153.40118667260001
 31
0.0
  0
INSERT
  5
1F4
  8
0
  6
CONTINUOUS
  2
*U90
 10
0.0
 20
0.0
 30
0.0
  0
LINE
  5
1F5
  8
図枠
 62
     5
 10
103.7925002363
 20
145.25499904599999
 30
0.0
 11
103.7925002363
 21
167.75499904599999
 31
0.0
  0
LINE
  5
1F6
  8
ﾚｲﾔ_10
  6
BORDER
 62
     3
 10
47.79973307289999
 20
97.490950520800013
 30
0.0
 11
58.020209263399991
 21
97.490950520800013
 31
0.0
  0
LINE
  5
1F7
  8
ﾚｲﾔ_10
  6
STITCH
 10
51.230761718800011
 20
92.240950520799998
 30
0.0
 11
52.880761718800002
 21
90.590950520799993
 31
0.0
  0
LINE
  5
1F8
  8
ﾚｲﾔ_10
  6
STITCH
 10
52.880761718800002
 20
90.590950520799993
 30
0.0
 11
52.880761718800002
 21
86.390950520800004
 31
0.0
  0
LINE
  5
1F9
  8
ﾚｲﾔ_10
  6
STITCH
 10
51.230761718800011
 20
101.2409505208
 30
0.0
 11
52.880761718800002
 21
99.590950520800007
 31
0.0
  0
LINE
  5
1FA
  8
ﾚｲﾔ_10
  6
STITCH
 10
51.230761718800011
 20
93.740950520799984
 30
0.0
 11
52.880761718800002
 21
95.390950520800004
 31
0.0
  0
LINE
  5
1FB
  8
ﾚｲﾔ_10
  6
STITCH
 10
51.230761718800011
 20
102.7409505208
 30
0.0
 11
52.880761718800002
 21
104.3909505208
 31
0.0
  0
LINE
  5
1FC
  8
ﾚｲﾔ_10
  6
STITCH
 10
51.230761718800011
 20
110.2409505208
 30
0.0
 11
52.880761718800002
 21
108.59095052080001
 31
0.0
  0
LINE
  5
1FD
  8
ﾚｲﾔ_10
  6
BORDER
 62
     3
 10
47.79973307289999
 20
88.490950520799998
 30
0.0
 11
58.020209263399991
 21
88.490950520799998
 31
0.0
  0
LINE
  5
1FE
  8
ﾚｲﾔ_10
  6
BORDER
 62
     3
 10
47.79973307289999
 20
106.4909505208
 30
0.0
 11
58.020209263399991
 21
106.4909505208
 31
0.0
  0
LINE
  5
1FF
  8
ﾚｲﾔ_10
  6
BORDER
 62
     3
 10
29.2307617188
 20
111.4909505208
 30
0.0
 11
29.2307617188
 21
101.4909505208
 31
0.0
  0
CIRCLE
  5
200
  8
ﾚｲﾔ_10
 62
     5
 10
29.2307617188
 20
88.490950520799998
 30
0.0
 40
3.75
  0
LINE
  5
201
  8
ﾚｲﾔ_10
  6
BORDER
 62
     3
 10
29.2307617188
 20
93.490950520799998
 30
0.0
 11
29.2307617188
 21
83.490950520799998
 31
0.0
  0
LINE
  5
202
  8
ﾚｲﾔ_10
  6
BORDER
 62
     3
 10
34.230761718799997
 20
88.490950520799998
 30
0.0
 11
24.2307617188
 21
88.490950520799998
 31
0.0
  0
ARC
  5
203
  8
ﾚｲﾔ_10
 62
     5
 10
52.230761718799997
 20
97.490950520800013
 30
0.0
 40
33.0
 50
152.9643082106
 51
207.0356917894
  0
LINE
  5
204
  8
ﾚｲﾔ_10
 62
     5
 10
22.8368848054
 20
112.4909505208
 30
0.0
 11
54.230761718799997
 21
112.4909505208
 31
0.0
  0
LINE
  5
205
  8
ﾚｲﾔ_10
 62
     5
 10
54.230761718799997
 20
82.490950520799984
 30
0.0
 11
22.8368848054
 21
82.490950520799984
 31
0.0
  0
LINE
  5
206
  8
ﾚｲﾔ_10
  6
BORDER
 62
     3
 10
34.230761718799997
 20
106.4909505208
 30
0.0
 11
24.2307617188
 21
106.4909505208
 31
0.0
  0
LINE
  5
207
  8
ﾚｲﾔ_10
  6
STITCH
 10
52.880761718800002
 20
104.3909505208
 30
0.0
 11
54.230761718799997
 21
104.3909505208
 31
0.0
  0
LINE
  5
208
  8
ﾚｲﾔ_10
  6
STITCH
 10
52.880761718800002
 20
108.59095052080001
 30
0.0
 11
54.230761718799997
 21
108.59095052080001
 31
0.0
  0
CIRCLE
  5
209
  8
ﾚｲﾔ_10
 62
     5
 10
29.2307617188
 20
106.4909505208
 30
0.0
 40
3.75
  0
CIRCLE
  5
20A
  8
ﾚｲﾔ_10
 62
     5
 10
29.2307617188
 20
106.4909505208
 30
0.0
 40
2.1000000000000001
  0
CIRCLE
  5
20B
  8
ﾚｲﾔ_10
 62
     5
 10
29.2307617188
 20
88.490950520799998
 30
0.0
 40
2.1000000000000001
  0
LINE
  5
20C
  8
図枠
 62
     5
 10
73.366072157199994
 20
152.40642529569999
 30
0.0
 11
77.0785721572
 21
145.97618667259999
 31
0.0
  0
LINE
  5
20D
  8
図枠
 62
     5
 10
73.366072157199994
 20
152.40642529569999
 30
0.0
 11
69.653572157200003
 21
145.97618667259999
 31
0.0
  0
INSERT
  5
20E
  8
0
  6
CONTINUOUS
  2
*U91
 10
0.0
 20
0.0
 30
0.0
  0
CIRCLE
  5
20F
  8
ﾚｲﾔ_10
 62
     5
 10
43.230761718700002
 20
97.490950520800013
 30
0.0
 40
3.75
  0
LINE
  5
210
  8
ﾚｲﾔ_10
  6
STITCH
 10
52.880761718800002
 20
104.3909505208
 30
0.0
 11
52.880761718800002
 21
108.59095052080001
 31
0.0
  0
LINE
  5
211
  8
ﾚｲﾔ_10
  6
STITCH
 10
52.880761718800002
 20
86.390950520800004
 30
0.0
 11
54.230761718799997
 21
86.390950520800004
 31
0.0
  0
LINE
  5
212
  8
ﾚｲﾔ_10
  6
STITCH
 10
52.880761718800002
 20
90.590950520799993
 30
0.0
 11
54.230761718799997
 21
90.590950520799993
 31
0.0
  0
LINE
  5
213
  8
ﾚｲﾔ_10
 62
     5
 10
54.230761718799997
 20
112.4909505208
 30
0.0
 11
54.230761718799997
 21
82.490950520799984
 31
0.0
  0
LINE
  5
214
  8
ﾚｲﾔ_10
 62
     5
 10
51.230761718800011
 20
112.4909505208
 30
0.0
 11
51.230761718800011
 21
82.490950520799984
 31
0.0
  0
DIMENSION
  5
223
  8
寸法線
  2
*D16
 10
19.230761718699998
 20
67.490950520799998
 30
0.0
 11
24.2307617188
 21
67.490950520799998
 31
0.0
 70
   128
  1
<>
  3
VELDIM1
 13
19.230761718699998
 23
97.490950520800013
 33
0.0
 14
29.2307617188
 24
82.490950520799984
 34
0.0
 50
180.0
  0
DIMENSION
  5
232
  8
寸法線
  2
*D17
 10
29.2307617188
 20
67.490950520799998
 30
0.0
 11
36.230761718800011
 21
67.490950520799998
 31
0.0
 70
   128
  1
<>
  3
VELDIM1
 13
29.2307617188
 23
82.490950520799984
 33
0.0
 14
43.230761718700002
 24
92.490950520799984
 34
0.0
 50
180.0
  0
DIMENSION
  5
241
  8
寸法線
  2
*D18
 10
43.230761718700002
 20
67.490950520799998
 30
0.0
 11
48.730761718800011
 21
67.490950520799998
 31
0.0
 70
   128
  1
<>
  3
VELDIM1
 13
43.230761718700002
 23
92.490950520799984
 33
0.0
 14
54.230761718799997
 24
82.490950520799984
 34
0.0
 50
180.0
  0
LINE
  5
242
  8
図枠
 62
     5
 10
67.7925002363
 20
152.75499904599999
 30
0.0
 11
208.79250023629999
 21
152.75499904599999
 31
0.0
  0
LINE
  5
243
  8
図枠
 62
     5
 10
67.7925002363
 20
160.25499904599999
 30
0.0
 11
208.79250023629999
 21
160.25499904599999
 31
0.0
  0
LINE
  5
244
  8
図枠
 62
     5
 10
193.79250023629999
 20
145.25499904599999
 30
0.0
 11
193.79250023629999
 21
167.75499904599999
 31
0.0
  0
LINE
  5
245
  8
図枠
 62
     5
 10
79.7925002363
 20
145.25499904599999
 30
0.0
 11
79.7925002363
 21
167.75499904599999
 31
0.0
  0
LINE
  5
246
  8
図枠
 62
     5
 10
178.79250023629999
 20
145.25499904599999
 30
0.0
 11
178.79250023629999
 21
167.75499904599999
 31
0.0
  0
INSERT
  5
247
  8
0
  6
CONTINUOUS
  2
*U92
 10
0.0
 20
0.0
 30
0.0
  0
INSERT
  5
248
  8
0
  6
CONTINUOUS
  2
*U93
 10
0.0
 20
0.0
 30
0.0
  0
INSERT
  5
249
  8
0
  6
CONTINUOUS
  2
*U94
 10
0.0
 20
0.0
 30
0.0
  0
LINE
  5
24A
  8
図枠
 62
     5
 10
69.653572157200003
 20
145.97618667259999
 30
0.0
 11
77.0785721572
 21
145.97618667259999
 31
0.0
  0
LINE
  5
24B
  8
図枠
 62
     5
 10
67.7925002363
 20
145.25499904599999
 30
0.0
 11
67.7925002363
 21
167.75499904599999
 31
0.0
  0
LINE
  5
24C
  8
図枠
 62
     5
 10
67.7925002363
 20
145.25499904599999
 30
0.0
 11
208.79250023629999
 21
145.25499904599999
 31
0.0
  0
LINE
  5
24D
  8
図枠
 62
     5
 10
73.366072157199994
 20
159.8314252957
 30
0.0
 11
69.653572157200003
 21
153.40118667260001
 31
0.0
  0
LINE
  5
24E
  8
図枠
 62
     5
 10
73.366072157199994
 20
159.8314252957
 30
0.0
 11
77.0785721572
 21
153.40118667260001
 31
0.0
  0
ENDBLK
  5
24F
  8
0
  0
BLOCK
  8
0
  2
*D1
 70
     1
 10
0.0
 20
0.0
 30
0.0
  3
*D1
  1

  0
TEXT
  5
3B
  8
0
 62
     0
 10
-2.0845981921000001
 20
113.9621250471
 30
0.0
 40
4.4979165315999996
  1
R33
 50
345.0
  0
LINE
  5
3C
  8
0
 62
     0
 10
20.3552094512
 20
106.0319790092
 30
0.0
 11
-2.5639526175
 21
112.1731499767
 31
0.0
  0
SOLID
  5
3D
  8
0
 62
     0
 10
20.3552094512
 20
106.0319790092
 30
0.0
 11
15.717371807199999
 21
106.1099981576
 31
0.0
 12
16.29971465869999
 22
108.2833312668
 32
0.0
 13
17.0952097875
 23
106.9054932864
 33
0.0
  0
ENDBLK
  5
3E
  8
0
  0
BLOCK
  8
0
  2
*D2
 70
     1
 10
0.0
 20
0.0
 30
0.0
  3
*D2
  1

  0
TEXT
  5
4F
  8
0
 62
     0
 10
-147.0295898199
 20
-9.4707681496999996
 30
0.0
 40
4.4979165315999996
  1
35
 50
90.0
  0
LINE
  5
50
  8
0
 62
     0
 10
-127.23583984379999
 20
10.6750651042
 30
0.0
 11
-146.23583984379999
 21
10.6750651042
 31
0.0
  0
LINE
  5
51
  8
0
 62
     0
 10
-122.23583984379999
 20
-24.324934895799998
 30
0.0
 11
-146.23583984379999
 21
-24.324934895799998
 31
0.0
  0
LINE
  5
52
  8
0
 62
     0
 10
-145.23583984379999
 20
10.6750651042
 30
0.0
 11
-145.23583984379999
 21
-1.5332683880999991
 31
0.0
  0
LINE
  5
53
  8
0
 62
     0
 10
-145.23583984379999
 20
10.6750651042
 30
0.0
 11
-145.23583984379999
 21
-12.116601403600001
 31
0.0
  0
LINE
  5
54
  8
0
 62
     0
 10
-145.23583984379999
 20
-24.324934895799998
 30
0.0
 11
-145.23583984379999
 21
-1.5332683880999991
 31
0.0
  0
LINE
  5
55
  8
0
 62
     0
 10
-145.23583984379999
 20
-24.324934895799998
 30
0.0
 11
-145.23583984379999
 21
-12.116601403600001
 31
0.0
  0
LINE
  5
56
  8
0
 62
     0
 10
-145.23583984379999
 20
-24.324934895799998
 30
0.0
 11
-145.23583984379999
 21
-19.324934895799998
 31
0.0
  0
SOLID
  5
57
  8
0
 62
     0
 10
-145.23583984379999
 20
-24.324934895799998
 30
0.0
 11
-146.36083984379999
 21
-19.824934895799998
 31
0.0
 12
-144.11083984379999
 22
-19.824934895799998
 32
0.0
 13
-145.23583984379999
 23
-20.949934895799998
 33
0.0
  0
LINE
  5
58
  8
0
 62
     0
 10
-145.23583984379999
 20
10.6750651042
 30
0.0
 11
-145.23583984379999
 21
5.6750651041999989
 31
0.0
  0
SOLID
  5
59
  8
0
 62
     0
 10
-145.23583984379999
 20
10.6750651042
 30
0.0
 11
-144.11083984379999
 21
6.1750651041999989
 31
0.0
 12
-146.36083984379999
 22
6.1750651041999989
 32
0.0
 13
-145.23583984379999
 23
7.3000651041999989
 33
0.0
  0
ENDBLK
  5
5A
  8
0
  0
BLOCK
  8
0
  2
*D3
 70
     1
 10
0.0
 20
0.0
 30
0.0
  3
*D3
  1

  0
TEXT
  5
5E
  8
0
 62
     0
 10
-112.7563484535
 20
-5.1775740714999987
 30
0.0
 40
4.4979165315999996
  1
90%%d
 50
317.34735435160002
  0
ARC
  5
5F
  8
0
 62
     0
 10
-122.23583984379999
 20
-21.324934895799998
 30
0.0
 40
15.917576345200001
 50
50.5134454166
 51
90.0
  0
ARC
  5
60
  8
0
 62
     0
 10
-122.23583984379999
 20
-21.324934895799998
 30
0.0
 40
15.917576345200001
 50
0.0
 51
39.4865545834
  0
SOLID
  5
61
  8
0
 62
     0
 10
-106.3182634986
 20
-21.324934895799998
 30
0.0
 11
-105.1932634986
 21
-25.824934895799998
 31
0.0
 12
-107.4432634986
 22
-25.824934895799998
 32
0.0
 13
-106.3182634986
 23
-24.699934895799998
 33
0.0
  0
SOLID
  5
62
  8
0
 62
     0
 10
-122.23583984379999
 20
-5.4073585506999997
 30
0.0
 11
-126.73583984379999
 21
-6.5323585506999997
 31
0.0
 12
-126.73583984379999
 22
-4.2823585506999988
 32
0.0
 13
-125.61083984379999
 23
-5.4073585506999997
 33
0.0
  0
ARC
  5
63
  8
0
 62
     0
 10
-122.23583984379999
 20
-21.324934895799998
 30
0.0
 40
15.917576345200001
 50
0.0
 51
23.351145624400001
  0
ARC
  5
64
  8
0
 62
     0
 10
-122.23583984379999
 20
-21.324934895799998
 30
0.0
 40
15.917576345200001
 50
71.343563078800003
 51
90.0
  0
LINE
  5
65
  8
0
 62
     0
 10
-93.235839843799994
 20
-21.324934895799998
 30
0.0
 11
-109.3182634986
 21
-21.324934895799998
 31
0.0
  0
LINE
  5
66
  8
0
 62
     0
 10
-122.23583984379999
 20
7.6750651041999989
 30
0.0
 11
-122.23583984379999
 21
-8.4073585506999997
 31
0.0
  0
ENDBLK
  5
67
  8
0
  0
BLOCK
  8
0
  2
*D4
 70
     1
 10
0.0
 20
0.0
 30
0.0
  3
*D4
  1

  0
TEXT
  5
87
  8
0
 62
     0
 10
-110.3816730976
 20
-42.531184919699989
 30
0.0
 40
4.4979165315999996
  1
35
  0
LINE
  5
88
  8
0
 62
     0
 10
-125.23583984379999
 20
-21.324934895799998
 30
0.0
 11
-125.23583984379999
 21
-45.324934895799998
 31
0.0
  0
LINE
  5
89
  8
0
 62
     0
 10
-90.235839843799994
 20
-26.324934895799998
 30
0.0
 11
-90.235839843799994
 21
-45.324934895799998
 31
0.0
  0
LINE
  5
8A
  8
0
 62
     0
 10
-125.23583984379999
 20
-44.324934895799991
 30
0.0
 11
-102.44417333600001
 21
-44.324934895799991
 31
0.0
  0
LINE
  5
8B
  8
0
 62
     0
 10
-125.23583984379999
 20
-44.324934895799991
 30
0.0
 11
-113.02750635149999
 21
-44.324934895799991
 31
0.0
  0
LINE
  5
8C
  8
0
 62
     0
 10
-90.235839843799994
 20
-44.324934895799991
 30
0.0
 11
-102.44417333600001
 21
-44.324934895799991
 31
0.0
  0
LINE
  5
8D
  8
0
 62
     0
 10
-90.235839843799994
 20
-44.324934895799991
 30
0.0
 11
-113.02750635149999
 21
-44.324934895799991
 31
0.0
  0
LINE
  5
8E
  8
0
 62
     0
 10
-90.235839843799994
 20
-44.324934895799991
 30
0.0
 11
-95.235839843799994
 21
-44.324934895799991
 31
0.0
  0
SOLID
  5
8F
  8
0
 62
     0
 10
-90.235839843799994
 20
-44.324934895799991
 30
0.0
 11
-94.735839843799994
 21
-45.449934895799998
 31
0.0
 12
-94.735839843799994
 22
-43.199934895799991
 32
0.0
 13
-93.610839843799994
 23
-44.324934895799991
 33
0.0
  0
LINE
  5
90
  8
0
 62
     0
 10
-125.23583984379999
 20
-44.324934895799991
 30
0.0
 11
-120.23583984379999
 21
-44.324934895799991
 31
0.0
  0
SOLID
  5
91
  8
0
 62
     0
 10
-125.23583984379999
 20
-44.324934895799991
 30
0.0
 11
-120.73583984379999
 21
-43.199934895799991
 31
0.0
 12
-120.73583984379999
 22
-45.449934895799998
 32
0.0
 13
-121.86083984379999
 23
-44.324934895799991
 33
0.0
  0
ENDBLK
  5
92
  8
0
  0
BLOCK
  8
0
  2
*D5
 70
     1
 10
0.0
 20
0.0
 30
0.0
  3
*D5
  1

  0
TEXT
  5
9B
  8
0
 62
     0
 10
-75.63571290649999
 20
72.684830768899985
 30
0.0
 40
4.4979165315999996
  1
6
 50
90.0
  0
LINE
  5
9C
  8
0
 62
     0
 10
-91.841962930400015
 20
82.490950520799984
 30
0.0
 11
-72.841962930400001
 21
82.490950520799984
 31
0.0
  0
LINE
  5
9D
  8
0
 62
     0
 10
-93.235839843799994
 20
88.490950520799998
 30
0.0
 11
-72.841962930400001
 21
88.490950520799998
 31
0.0
  0
LINE
  5
9E
  8
0
 62
     0
 10
-73.841962930400001
 20
82.490950520799984
 30
0.0
 11
-73.841962930400001
 21
77.9764972766
 31
0.0
  0
LINE
  5
9F
  8
0
 62
     0
 10
-73.841962930400001
 20
82.490950520799984
 30
0.0
 11
-73.841962930400001
 21
70.038997515000005
 31
0.0
  0
LINE
  5
A0
  8
0
 62
     0
 10
-73.841962930400001
 20
88.490950520799998
 30
0.0
 11
-73.841962930400001
 21
77.9764972766
 31
0.0
  0
LINE
  5
A1
  8
0
 62
     0
 10
-73.841962930400001
 20
88.490950520799998
 30
0.0
 11
-73.841962930400001
 21
70.038997515000005
 31
0.0
  0
LINE
  5
A2
  8
0
 62
     0
 10
-73.841962930400001
 20
88.490950520799998
 30
0.0
 11
-73.841962930400001
 21
93.490950520799998
 31
0.0
  0
SOLID
  5
A3
  8
0
 62
     0
 10
-73.841962930400001
 20
88.490950520799998
 30
0.0
 11
-74.966962930400001
 21
92.990950520799998
 31
0.0
 12
-72.716962930400001
 22
92.990950520799998
 32
0.0
 13
-73.841962930400001
 23
91.865950520799984
 33
0.0
  0
LINE
  5
A4
  8
0
 62
     0
 10
-73.841962930400001
 20
82.490950520799984
 30
0.0
 11
-73.841962930400001
 21
77.490950520799998
 31
0.0
  0
SOLID
  5
A5
  8
0
 62
     0
 10
-73.841962930400001
 20
82.490950520799984
 30
0.0
 11
-72.716962930400001
 21
77.990950520799998
 31
0.0
 12
-74.966962930400001
 22
77.990950520799998
 32
0.0
 13
-73.841962930400001
 23
79.115950520799998
 33
0.0
  0
ENDBLK
  5
A6
  8
0
  0
BLOCK
  8
0
  2
*D6
 70
     1
 10
0.0
 20
0.0
 30
0.0
  3
*D6
  1

  0
TEXT
  5
AA
  8
0
 62
     0
 10
-60.149224749299997
 20
116.31237579010001
 30
0.0
 40
4.4979165315999996
  1
R33
 50
15.0
  0
LINE
  5
AB
  8
0
 62
     0
 10
-91.360287576200008
 20
106.0319790092
 30
0.0
 11
-49.447155636099993
 21
117.2625688648
 31
0.0
  0
SOLID
  5
AC
  8
0
 62
     0
 10
-91.360287576200008
 20
106.0319790092
 30
0.0
 11
-87.304792783700009
 21
108.2833312668
 31
0.0
 12
-86.722449932199993
 22
106.1099981576
 32
0.0
 13
-88.100287912499994
 23
106.9054932864
 33
0.0
  0
ENDBLK
  5
AD
  8
0
  0
BLOCK
  8
0
  2
*D7
 70
     1
 10
0.0
 20
0.0
 30
0.0
  3
*D7
  1

  0
TEXT
  5
D8
  8
0
 62
     0
 10
-109.8816730976
 20
70.284700497000003
 30
0.0
 40
4.4979165315999996
  1
14
  0
LINE
  5
D9
  8
0
 62
     0
 10
-114.23583984379999
 20
90.490950520799998
 30
0.0
 11
-114.23583984379999
 21
67.490950520799998
 31
0.0
  0
LINE
  5
DA
  8
0
 62
     0
 10
-100.23583984379999
 20
81.490950520799984
 30
0.0
 11
-100.23583984379999
 21
67.490950520799998
 31
0.0
  0
LINE
  5
DB
  8
0
 62
     0
 10
-114.23583984379999
 20
68.490950520799998
 30
0.0
 11
-101.94417333600001
 21
68.490950520799998
 31
0.0
  0
LINE
  5
DC
  8
0
 62
     0
 10
-114.23583984379999
 20
68.490950520799998
 30
0.0
 11
-112.52750635149999
 21
68.490950520799998
 31
0.0
  0
LINE
  5
DD
  8
0
 62
     0
 10
-100.23583984379999
 20
68.490950520799998
 30
0.0
 11
-101.94417333600001
 21
68.490950520799998
 31
0.0
  0
LINE
  5
DE
  8
0
 62
     0
 10
-100.23583984379999
 20
68.490950520799998
 30
0.0
 11
-112.52750635149999
 21
68.490950520799998
 31
0.0
  0
LINE
  5
DF
  8
0
 62
     0
 10
-100.23583984379999
 20
68.490950520799998
 30
0.0
 11
-95.235839843799994
 21
68.490950520799998
 31
0.0
  0
SOLID
  5
E0
  8
0
 62
     0
 10
-100.23583984379999
 20
68.490950520799998
 30
0.0
 11
-95.735839843799994
 21
69.615950520799984
 31
0.0
 12
-95.735839843799994
 22
67.365950520799998
 32
0.0
 13
-96.860839843799994
 23
68.490950520799998
 33
0.0
  0
LINE
  5
E1
  8
0
 62
     0
 10
-114.23583984379999
 20
68.490950520799998
 30
0.0
 11
-119.23583984379999
 21
68.490950520799998
 31
0.0
  0
SOLID
  5
E2
  8
0
 62
     0
 10
-114.23583984379999
 20
68.490950520799998
 30
0.0
 11
-118.73583984379999
 21
67.365950520799998
 31
0.0
 12
-118.73583984379999
 22
69.615950520799984
 32
0.0
 13
-117.61083984379999
 23
68.490950520799998
 33
0.0
  0
ENDBLK
  5
E3
  8
0
  0
BLOCK
  8
0
  2
*D8
 70
     1
 10
0.0
 20
0.0
 30
0.0
  3
*D8
  1

  0
TEXT
  5
E7
  8
0
 62
     0
 10
-145.81903736460001
 20
102.34511726700001
 30
0.0
 40
4.4979165315999996
  1
15
 50
90.0
  0
LINE
  5
E8
  8
0
 62
     0
 10
-127.23583984379999
 20
112.4909505208
 30
0.0
 11
-145.02528738839999
 21
112.4909505208
 31
0.0
  0
LINE
  5
E9
  8
0
 62
     0
 10
-131.02528738839999
 20
97.490950520800013
 30
0.0
 11
-145.02528738839999
 21
97.490950520800013
 31
0.0
  0
LINE
  5
EA
  8
0
 62
     0
 10
-144.02528738839999
 20
112.4909505208
 30
0.0
 11
-144.02528738839999
 21
110.2826170286
 31
0.0
  0
LINE
  5
EB
  8
0
 62
     0
 10
-144.02528738839999
 20
112.4909505208
 30
0.0
 11
-144.02528738839999
 21
99.699284013099984
 31
0.0
  0
LINE
  5
EC
  8
0
 62
     0
 10
-144.02528738839999
 20
97.490950520800013
 30
0.0
 11
-144.02528738839999
 21
110.2826170286
 31
0.0
  0
LINE
  5
ED
  8
0
 62
     0
 10
-144.02528738839999
 20
97.490950520800013
 30
0.0
 11
-144.02528738839999
 21
99.699284013099984
 31
0.0
  0
LINE
  5
EE
  8
0
 62
     0
 10
-144.02528738839999
 20
97.490950520800013
 30
0.0
 11
-144.02528738839999
 21
92.490950520799984
 31
0.0
  0
SOLID
  5
EF
  8
0
 62
     0
 10
-144.02528738839999
 20
97.490950520800013
 30
0.0
 11
-142.90028738839999
 21
92.990950520799998
 31
0.0
 12
-145.15028738839999
 22
92.990950520799998
 32
0.0
 13
-144.02528738839999
 23
94.115950520799998
 33
0.0
  0
LINE
  5
F0
  8
0
 62
     0
 10
-144.02528738839999
 20
112.4909505208
 30
0.0
 11
-144.02528738839999
 21
117.4909505208
 31
0.0
  0
SOLID
  5
F1
  8
0
 62
     0
 10
-144.02528738839999
 20
112.4909505208
 30
0.0
 11
-145.15028738839999
 21
116.9909505208
 31
0.0
 12
-142.90028738839999
 22
116.9909505208
 32
0.0
 13
-144.02528738839999
 23
115.8659505208
 33
0.0
  0
ENDBLK
  5
F2
  8
0
  0
BLOCK
  8
0
  2
*D9
 70
     1
 10
0.0
 20
0.0
 30
0.0
  3
*D9
  1

  0
TEXT
  5
F6
  8
0
 62
     0
 10
-145.81903736460001
 20
87.345117267000006
 30
0.0
 40
4.4979165315999996
  1
15
 50
90.0
  0
LINE
  5
F7
  8
0
 62
     0
 10
-131.02528738839999
 20
97.490950520800013
 30
0.0
 11
-145.02528738839999
 21
97.490950520800013
 31
0.0
  0
LINE
  5
F8
  8
0
 62
     0
 10
-127.23583984379999
 20
82.490950520799984
 30
0.0
 11
-145.02528738839999
 21
82.490950520799984
 31
0.0
  0
LINE
  5
F9
  8
0
 62
     0
 10
-144.02528738839999
 20
97.490950520800013
 30
0.0
 11
-144.02528738839999
 21
95.282617028600001
 31
0.0
  0
LINE
  5
FA
  8
0
 62
     0
 10
-144.02528738839999
 20
97.490950520800013
 30
0.0
 11
-144.02528738839999
 21
84.699284013099984
 31
0.0
  0
LINE
  5
FB
  8
0
 62
     0
 10
-144.02528738839999
 20
82.490950520799984
 30
0.0
 11
-144.02528738839999
 21
95.282617028600001
 31
0.0
  0
LINE
  5
FC
  8
0
 62
     0
 10
-144.02528738839999
 20
82.490950520799984
 30
0.0
 11
-144.02528738839999
 21
84.699284013099984
 31
0.0
  0
LINE
  5
FD
  8
0
 62
     0
 10
-144.02528738839999
 20
82.490950520799984
 30
0.0
 11
-144.02528738839999
 21
77.490950520799998
 31
0.0
  0
SOLID
  5
FE
  8
0
 62
     0
 10
-144.02528738839999
 20
82.490950520799984
 30
0.0
 11
-142.90028738839999
 21
77.990950520799998
 31
0.0
 12
-145.15028738839999
 22
77.990950520799998
 32
0.0
 13
-144.02528738839999
 23
79.115950520799998
 33
0.0
  0
LINE
  5
FF
  8
0
 62
     0
 10
-144.02528738839999
 20
97.490950520800013
 30
0.0
 11
-144.02528738839999
 21
102.4909505208
 31
0.0
  0
SOLID
  5
100
  8
0
 62
     0
 10
-144.02528738839999
 20
97.490950520800013
 30
0.0
 11
-145.15028738839999
 21
101.9909505208
 31
0.0
 12
-142.90028738839999
 22
101.9909505208
 32
0.0
 13
-144.02528738839999
 23
100.8659505208
 33
0.0
  0
ENDBLK
  5
101
  8
0
  0
BLOCK
  8
0
  2
*D10
 70
     1
 10
0.0
 20
0.0
 30
0.0
  3
*D10
  1

  0
TEXT
  5
105
  8
0
 62
     0
 10
-97.8816730976
 20
70.284700497000003
 30
0.0
 40
4.4979165315999996
  1
10
  0
LINE
  5
106
  8
0
 62
     0
 10
-100.23583984379999
 20
81.490950520799984
 30
0.0
 11
-100.23583984379999
 21
67.490950520799998
 31
0.0
  0
LINE
  5
107
  8
0
 62
     0
 10
-90.235839843799994
 20
95.490950520799998
 30
0.0
 11
-90.235839843799994
 21
67.490950520799998
 31
0.0
  0
LINE
  5
108
  8
0
 62
     0
 10
-100.23583984379999
 20
68.490950520799998
 30
0.0
 11
-100.23583984379999
 21
68.490950520799998
 31
0.0
  0
LINE
  5
109
  8
0
 62
     0
 10
-100.23583984379999
 20
68.490950520799998
 30
0.0
 11
-90.235839843799994
 21
68.490950520799998
 31
0.0
  0
LINE
  5
10A
  8
0
 62
     0
 10
-90.235839843799994
 20
68.490950520799998
 30
0.0
 11
-100.23583984379999
 21
68.490950520799998
 31
0.0
  0
LINE
  5
10B
  8
0
 62
     0
 10
-90.235839843799994
 20
68.490950520799998
 30
0.0
 11
-90.235839843799994
 21
68.490950520799998
 31
0.0
  0
LINE
  5
10C
  8
0
 62
     0
 10
-90.235839843799994
 20
68.490950520799998
 30
0.0
 11
-95.235839843799994
 21
68.490950520799998
 31
0.0
  0
SOLID
  5
10D
  8
0
 62
     0
 10
-90.235839843799994
 20
68.490950520799998
 30
0.0
 11
-94.735839843799994
 21
67.365950520799998
 31
0.0
 12
-94.735839843799994
 22
69.615950520799984
 32
0.0
 13
-93.610839843799994
 23
68.490950520799998
 33
0.0
  0
LINE
  5
10E
  8
0
 62
     0
 10
-100.23583984379999
 20
68.490950520799998
 30
0.0
 11
-95.235839843799994
 21
68.490950520799998
 31
0.0
  0
SOLID
  5
10F
  8
0
 62
     0
 10
-100.23583984379999
 20
68.490950520799998
 30
0.0
 11
-95.735839843799994
 21
69.615950520799984
 31
0.0
 12
-95.735839843799994
 22
67.365950520799998
 32
0.0
 13
-96.860839843799994
 23
68.490950520799998
 33
0.0
  0
ENDBLK
  5
110
  8
0
  0
BLOCK
  8
0
  2
*D11
 70
     1
 10
0.0
 20
0.0
 30
0.0
  3
*D11
  1

  0
TEXT
  5
114
  8
0
 62
     0
 10
-122.3816730976
 20
70.284700497000003
 30
0.0
 40
4.4979165315999996
  1
11
  0
LINE
  5
115
  8
0
 62
     0
 10
-125.23583984379999
 20
80.490950520799998
 30
0.0
 11
-125.23583984379999
 21
67.490950520799998
 31
0.0
  0
LINE
  5
116
  8
0
 62
     0
 10
-114.23583984379999
 20
90.490950520799998
 30
0.0
 11
-114.23583984379999
 21
67.490950520799998
 31
0.0
  0
LINE
  5
117
  8
0
 62
     0
 10
-125.23583984379999
 20
68.490950520799998
 30
0.0
 11
-114.44417333600001
 21
68.490950520799998
 31
0.0
  0
LINE
  5
118
  8
0
 62
     0
 10
-125.23583984379999
 20
68.490950520799998
 30
0.0
 11
-125.02750635149999
 21
68.490950520799998
 31
0.0
  0
LINE
  5
119
  8
0
 62
     0
 10
-114.23583984379999
 20
68.490950520799998
 30
0.0
 11
-114.44417333600001
 21
68.490950520799998
 31
0.0
  0
LINE
  5
11A
  8
0
 62
     0
 10
-114.23583984379999
 20
68.490950520799998
 30
0.0
 11
-125.02750635149999
 21
68.490950520799998
 31
0.0
  0
LINE
  5
11B
  8
0
 62
     0
 10
-114.23583984379999
 20
68.490950520799998
 30
0.0
 11
-109.23583984379999
 21
68.490950520799998
 31
0.0
  0
SOLID
  5
11C
  8
0
 62
     0
 10
-114.23583984379999
 20
68.490950520799998
 30
0.0
 11
-109.73583984379999
 21
69.615950520799984
 31
0.0
 12
-109.73583984379999
 22
67.365950520799998
 32
0.0
 13
-110.86083984379999
 23
68.490950520799998
 33
0.0
  0
LINE
  5
11D
  8
0
 62
     0
 10
-125.23583984379999
 20
68.490950520799998
 30
0.0
 11
-130.23583984379999
 21
68.490950520799998
 31
0.0
  0
SOLID
  5
11E
  8
0
 62
     0
 10
-125.23583984379999
 20
68.490950520799998
 30
0.0
 11
-129.73583984379999
 21
67.365950520799998
 31
0.0
 12
-129.73583984379999
 22
69.615950520799984
 32
0.0
 13
-128.61083984379999
 23
68.490950520799998
 33
0.0
  0
ENDBLK
  5
11F
  8
0
  0
BLOCK
  8
0
  2
*D12
 70
     1
 10
0.0
 20
0.0
 30
0.0
  3
*D12
  1

  0
TEXT
  5
123
  8
0
 62
     0
 10
-75.63571290649999
 20
94.845117267000006
 30
0.0
 40
4.4979165315999996
  1
18
 50
90.0
  0
LINE
  5
124
  8
0
 62
     0
 10
-93.235839843799994
 20
88.490950520799998
 30
0.0
 11
-72.841962930400001
 21
88.490950520799998
 31
0.0
  0
LINE
  5
125
  8
0
 62
     0
 10
-93.235839843799994
 20
106.4909505208
 30
0.0
 11
-72.841962930400001
 21
106.4909505208
 31
0.0
  0
LINE
  5
126
  8
0
 62
     0
 10
-73.841962930400001
 20
88.490950520799998
 30
0.0
 11
-73.841962930400001
 21
102.7826170286
 31
0.0
  0
LINE
  5
127
  8
0
 62
     0
 10
-73.841962930400001
 20
88.490950520799998
 30
0.0
 11
-73.841962930400001
 21
92.199284013099984
 31
0.0
  0
LINE
  5
128
  8
0
 62
     0
 10
-73.841962930400001
 20
106.4909505208
 30
0.0
 11
-73.841962930400001
 21
102.7826170286
 31
0.0
  0
LINE
  5
129
  8
0
 62
     0
 10
-73.841962930400001
 20
106.4909505208
 30
0.0
 11
-73.841962930400001
 21
92.199284013099984
 31
0.0
  0
LINE
  5
12A
  8
0
 62
     0
 10
-73.841962930400001
 20
106.4909505208
 30
0.0
 11
-73.841962930400001
 21
111.4909505208
 31
0.0
  0
SOLID
  5
12B
  8
0
 62
     0
 10
-73.841962930400001
 20
106.4909505208
 30
0.0
 11
-74.966962930400001
 21
110.9909505208
 31
0.0
 12
-72.716962930400001
 22
110.9909505208
 32
0.0
 13
-73.841962930400001
 23
109.8659505208
 33
0.0
  0
LINE
  5
12C
  8
0
 62
     0
 10
-73.841962930400001
 20
88.490950520799998
 30
0.0
 11
-73.841962930400001
 21
83.490950520799998
 31
0.0
  0
SOLID
  5
12D
  8
0
 62
     0
 10
-73.841962930400001
 20
88.490950520799998
 30
0.0
 11
-72.716962930400001
 21
83.990950520799984
 31
0.0
 12
-74.966962930400001
 22
83.990950520799984
 32
0.0
 13
-73.841962930400001
 23
85.115950520799998
 33
0.0
  0
ENDBLK
  5
12E
  8
0
  0
BLOCK
  8
0
  2
*D13
 70
     1
 10
0.0
 20
0.0
 30
0.0
  3
*D13
  1

  0
TEXT
  5
132
  8
0
 62
     0
 10
-75.63571290649999
 20
119.8137370189
 30
0.0
 40
4.4979165315999996
  1
6
 50
90.0
  0
LINE
  5
133
  8
0
 62
     0
 10
-93.235839843799994
 20
106.4909505208
 30
0.0
 11
-72.841962930400001
 21
106.4909505208
 31
0.0
  0
LINE
  5
134
  8
0
 62
     0
 10
-91.841962930400015
 20
112.4909505208
 30
0.0
 11
-72.841962930400001
 21
112.4909505208
 31
0.0
  0
LINE
  5
135
  8
0
 62
     0
 10
-73.841962930400001
 20
106.4909505208
 30
0.0
 11
-73.841962930400001
 21
125.1054035266
 31
0.0
  0
LINE
  5
136
  8
0
 62
     0
 10
-73.841962930400001
 20
106.4909505208
 30
0.0
 11
-73.841962930400001
 21
117.16790376500001
 31
0.0
  0
LINE
  5
137
  8
0
 62
     0
 10
-73.841962930400001
 20
112.4909505208
 30
0.0
 11
-73.841962930400001
 21
125.1054035266
 31
0.0
  0
LINE
  5
138
  8
0
 62
     0
 10
-73.841962930400001
 20
112.4909505208
 30
0.0
 11
-73.841962930400001
 21
117.16790376500001
 31
0.0
  0
LINE
  5
139
  8
0
 62
     0
 10
-73.841962930400001
 20
112.4909505208
 30
0.0
 11
-73.841962930400001
 21
117.4909505208
 31
0.0
  0
SOLID
  5
13A
  8
0
 62
     0
 10
-73.841962930400001
 20
112.4909505208
 30
0.0
 11
-74.966962930400001
 21
116.9909505208
 31
0.0
 12
-72.716962930400001
 22
116.9909505208
 32
0.0
 13
-73.841962930400001
 23
115.8659505208
 33
0.0
  0
LINE
  5
13B
  8
0
 62
     0
 10
-73.841962930400001
 20
106.4909505208
 30
0.0
 11
-73.841962930400001
 21
101.4909505208
 31
0.0
  0
SOLID
  5
13C
  8
0
 62
     0
 10
-73.841962930400001
 20
106.4909505208
 30
0.0
 11
-72.716962930400001
 21
101.9909505208
 31
0.0
 12
-74.966962930400001
 22
101.9909505208
 32
0.0
 13
-73.841962930400001
 23
103.1159505208
 33
0.0
  0
ENDBLK
  5
13D
  8
0
  0
BLOCK
  8
0
  2
*D14
 70
     1
 10
0.0
 20
0.0
 30
0.0
  3
*D14
  1

  0
TEXT
  5
141
  8
0
 62
     0
 10
-119.07647845530001
 20
27.468815080300001
 30
0.0
 40
4.4979165315999996
  1
3t
  0
LINE
  5
142
  8
0
 62
     0
 10
-122.23583984379999
 20
12.6750651042
 30
0.0
 11
-122.23583984379999
 21
26.675065104200002
 31
0.0
  0
LINE
  5
143
  8
0
 62
     0
 10
-125.23583984379999
 20
12.6750651042
 30
0.0
 11
-125.23583984379999
 21
26.675065104200002
 31
0.0
  0
LINE
  5
144
  8
0
 62
     0
 10
-122.23583984379999
 20
25.675065104200002
 30
0.0
 11
-111.1389786937
 21
25.675065104200002
 31
0.0
  0
LINE
  5
145
  8
0
 62
     0
 10
-122.23583984379999
 20
25.675065104200002
 30
0.0
 11
-121.7223117091
 21
25.675065104200002
 31
0.0
  0
LINE
  5
146
  8
0
 62
     0
 10
-125.23583984379999
 20
25.675065104200002
 30
0.0
 11
-111.1389786937
 21
25.675065104200002
 31
0.0
  0
LINE
  5
147
  8
0
 62
     0
 10
-125.23583984379999
 20
25.675065104200002
 30
0.0
 11
-121.7223117091
 21
25.675065104200002
 31
0.0
  0
LINE
  5
148
  8
0
 62
     0
 10
-125.23583984379999
 20
25.675065104200002
 30
0.0
 11
-130.23583984379999
 21
25.675065104200002
 31
0.0
  0
SOLID
  5
149
  8
0
 62
     0
 10
-125.23583984379999
 20
25.675065104200002
 30
0.0
 11
-129.73583984379999
 21
24.550065104200002
 31
0.0
 12
-129.73583984379999
 22
26.800065104200002
 32
0.0
 13
-128.61083984379999
 23
25.675065104200002
 33
0.0
  0
LINE
  5
14A
  8
0
 62
     0
 10
-122.23583984379999
 20
25.675065104200002
 30
0.0
 11
-117.23583984379999
 21
25.675065104200002
 31
0.0
  0
SOLID
  5
14B
  8
0
 62
     0
 10
-122.23583984379999
 20
25.675065104200002
 30
0.0
 11
-117.73583984379999
 21
26.800065104200002
 31
0.0
 12
-117.73583984379999
 22
24.550065104200002
 32
0.0
 13
-118.86083984379999
 23
25.675065104200002
 33
0.0
  0
ENDBLK
  5
14C
  8
0
  0
BLOCK
  8
0
  2
*D15
 70
     1
 10
0.0
 20
0.0
 30
0.0
  3
*D15
  1

  0
TEXT
  5
150
  8
0
 62
     0
 10
-159.06168524980001
 20
94.845117267000006
 30
0.0
 40
4.4979165315999996
  1
30
 50
90.0
  0
LINE
  5
151
  8
0
 62
     0
 10
-127.23583984379999
 20
112.4909505208
 30
0.0
 11
-158.2679352737
 21
112.4909505208
 31
0.0
  0
LINE
  5
152
  8
0
 62
     0
 10
-127.23583984379999
 20
82.490950520799984
 30
0.0
 11
-158.2679352737
 21
82.490950520799984
 31
0.0
  0
LINE
  5
153
  8
0
 62
     0
 10
-157.2679352737
 20
112.4909505208
 30
0.0
 11
-157.2679352737
 21
102.7826170286
 31
0.0
  0
LINE
  5
154
  8
0
 62
     0
 10
-157.2679352737
 20
112.4909505208
 30
0.0
 11
-157.2679352737
 21
92.199284013099984
 31
0.0
  0
LINE
  5
155
  8
0
 62
     0
 10
-157.2679352737
 20
82.490950520799984
 30
0.0
 11
-157.2679352737
 21
102.7826170286
 31
0.0
  0
LINE
  5
156
  8
0
 62
     0
 10
-157.2679352737
 20
82.490950520799984
 30
0.0
 11
-157.2679352737
 21
92.199284013099984
 31
0.0
  0
LINE
  5
157
  8
0
 62
     0
 10
-157.2679352737
 20
82.490950520799984
 30
0.0
 11
-157.2679352737
 21
87.490950520799984
 31
0.0
  0
SOLID
  5
158
  8
0
 62
     0
 10
-157.2679352737
 20
82.490950520799984
 30
0.0
 11
-158.3929352737
 21
86.990950520799998
 31
0.0
 12
-156.1429352737
 22
86.990950520799998
 32
0.0
 13
-157.2679352737
 23
85.865950520799984
 33
0.0
  0
LINE
  5
159
  8
0
 62
     0
 10
-157.2679352737
 20
112.4909505208
 30
0.0
 11
-157.2679352737
 21
107.4909505208
 31
0.0
  0
SOLID
  5
15A
  8
0
 62
     0
 10
-157.2679352737
 20
112.4909505208
 30
0.0
 11
-156.1429352737
 21
107.9909505208
 31
0.0
 12
-158.3929352737
 22
107.9909505208
 32
0.0
 13
-157.2679352737
 23
109.1159505208
 33
0.0
  0
ENDBLK
  5
15B
  8
0
  0
BLOCK
  8
0
  2
*D16
 70
     1
 10
0.0
 20
0.0
 30
0.0
  3
*D16
  1

  0
TEXT
  5
217
  8
0
 62
     0
 10
21.584928464899999
 20
69.284700497000003
 30
0.0
 40
4.4979165315999996
  1
10
  0
LINE
  5
218
  8
0
 62
     0
 10
19.230761718699998
 20
95.490950520799998
 30
0.0
 11
19.230761718699998
 21
66.490950520799984
 31
0.0
  0
LINE
  5
219
  8
0
 62
     0
 10
29.2307617188
 20
80.490950520799998
 30
0.0
 11
29.2307617188
 21
66.490950520799984
 31
0.0
  0
LINE
  5
21A
  8
0
 62
     0
 10
19.230761718699998
 20
67.490950520799998
 30
0.0
 11
19.230761718699998
 21
67.490950520799998
 31
0.0
  0
LINE
  5
21B
  8
0
 62
     0
 10
19.230761718699998
 20
67.490950520799998
 30
0.0
 11
29.2307617188
 21
67.490950520799998
 31
0.0
  0
LINE
  5
21C
  8
0
 62
     0
 10
29.2307617188
 20
67.490950520799998
 30
0.0
 11
19.230761718699998
 21
67.490950520799998
 31
0.0
  0
LINE
  5
21D
  8
0
 62
     0
 10
29.2307617188
 20
67.490950520799998
 30
0.0
 11
29.2307617188
 21
67.490950520799998
 31
0.0
  0
LINE
  5
21E
  8
0
 62
     0
 10
29.2307617188
 20
67.490950520799998
 30
0.0
 11
24.2307617188
 21
67.490950520799998
 31
0.0
  0
SOLID
  5
21F
  8
0
 62
     0
 10
29.2307617188
 20
67.490950520799998
 30
0.0
 11
24.7307617188
 21
66.365950520799998
 31
0.0
 12
24.7307617188
 22
68.615950520799998
 32
0.0
 13
25.8557617188
 23
67.490950520799998
 33
0.0
  0
LINE
  5
220
  8
0
 62
     0
 10
19.230761718699998
 20
67.490950520799998
 30
0.0
 11
24.230761718699998
 21
67.490950520799998
 31
0.0
  0
SOLID
  5
221
  8
0
 62
     0
 10
19.230761718699998
 20
67.490950520799998
 30
0.0
 11
23.730761718699998
 21
68.615950520799998
 31
0.0
 12
23.730761718699998
 22
66.365950520799998
 32
0.0
 13
22.605761718699998
 23
67.490950520799998
 33
0.0
  0
ENDBLK
  5
222
  8
0
  0
BLOCK
  8
0
  2
*D17
 70
     1
 10
0.0
 20
0.0
 30
0.0
  3
*D17
  1

  0
TEXT
  5
226
  8
0
 62
     0
 10
33.584928464900003
 20
69.284700497000003
 30
0.0
 40
4.4979165315999996
  1
14
  0
LINE
  5
227
  8
0
 62
     0
 10
29.2307617188
 20
80.490950520799998
 30
0.0
 11
29.2307617188
 21
66.490950520799984
 31
0.0
  0
LINE
  5
228
  8
0
 62
     0
 10
43.230761718700002
 20
90.490950520799998
 30
0.0
 11
43.230761718700002
 21
66.490950520799984
 31
0.0
  0
LINE
  5
229
  8
0
 62
     0
 10
29.2307617188
 20
67.490950520799998
 30
0.0
 11
41.522428226499997
 21
67.490950520799998
 31
0.0
  0
LINE
  5
22A
  8
0
 62
     0
 10
29.2307617188
 20
67.490950520799998
 30
0.0
 11
30.939095211000001
 21
67.490950520799998
 31
0.0
  0
LINE
  5
22B
  8
0
 62
     0
 10
43.230761718700002
 20
67.490950520799998
 30
0.0
 11
41.522428226499997
 21
67.490950520799998
 31
0.0
  0
LINE
  5
22C
  8
0
 62
     0
 10
43.230761718700002
 20
67.490950520799998
 30
0.0
 11
30.939095211000001
 21
67.490950520799998
 31
0.0
  0
LINE
  5
22D
  8
0
 62
     0
 10
43.230761718700002
 20
67.490950520799998
 30
0.0
 11
48.230761718700002
 21
67.490950520799998
 31
0.0
  0
SOLID
  5
22E
  8
0
 62
     0
 10
43.230761718700002
 20
67.490950520799998
 30
0.0
 11
47.730761718700002
 21
68.615950520799998
 31
0.0
 12
47.730761718700002
 22
66.365950520799998
 32
0.0
 13
46.605761718700002
 23
67.490950520799998
 33
0.0
  0
LINE
  5
22F
  8
0
 62
     0
 10
29.2307617188
 20
67.490950520799998
 30
0.0
 11
24.2307617188
 21
67.490950520799998
 31
0.0
  0
SOLID
  5
230
  8
0
 62
     0
 10
29.2307617188
 20
67.490950520799998
 30
0.0
 11
24.7307617188
 21
66.365950520799998
 31
0.0
 12
24.7307617188
 22
68.615950520799998
 32
0.0
 13
25.8557617188
 23
67.490950520799998
 33
0.0
  0
ENDBLK
  5
231
  8
0
  0
BLOCK
  8
0
  2
*D18
 70
     1
 10
0.0
 20
0.0
 30
0.0
  3
*D18
  1

  0
TEXT
  5
235
  8
0
 62
     0
 10
46.084928464899988
 20
69.284700497000003
 30
0.0
 40
4.4979165315999996
  1
11
  0
LINE
  5
236
  8
0
 62
     0
 10
43.230761718700002
 20
90.490950520799998
 30
0.0
 11
43.230761718700002
 21
66.490950520799984
 31
0.0
  0
LINE
  5
237
  8
0
 62
     0
 10
54.230761718799997
 20
80.490950520799998
 30
0.0
 11
54.230761718799997
 21
66.490950520799984
 31
0.0
  0
LINE
  5
238
  8
0
 62
     0
 10
43.230761718700002
 20
67.490950520799998
 30
0.0
 11
54.02242822649999
 21
67.490950520799998
 31
0.0
  0
LINE
  5
239
  8
0
 62
     0
 10
43.230761718700002
 20
67.490950520799998
 30
0.0
 11
43.439095211000001
 21
67.490950520799998
 31
0.0
  0
LINE
  5
23A
  8
0
 62
     0
 10
54.230761718799997
 20
67.490950520799998
 30
0.0
 11
54.02242822649999
 21
67.490950520799998
 31
0.0
  0
LINE
  5
23B
  8
0
 62
     0
 10
54.230761718799997
 20
67.490950520799998
 30
0.0
 11
43.439095211000001
 21
67.490950520799998
 31
0.0
  0
LINE
  5
23C
  8
0
 62
     0
 10
54.230761718799997
 20
67.490950520799998
 30
0.0
 11
59.230761718799997
 21
67.490950520799998
 31
0.0
  0
SOLID
  5
23D
  8
0
 62
     0
 10
54.230761718799997
 20
67.490950520799998
 30
0.0
 11
58.730761718800011
 21
68.615950520799998
 31
0.0
 12
58.730761718800011
 22
66.365950520799998
 32
0.0
 13
57.605761718799997
 23
67.490950520799998
 33
0.0
  0
LINE
  5
23E
  8
0
 62
     0
 10
43.230761718700002
 20
67.490950520799998
 30
0.0
 11
38.230761718700002
 21
67.490950520799998
 31
0.0
  0
SOLID
  5
23F
  8
0
 62
     0
 10
43.230761718700002
 20
67.490950520799998
 30
0.0
 11
38.730761718700002
 21
66.365950520799998
 31
0.0
 12
38.730761718700002
 22
68.615950520799998
 32
0.0
 13
39.855761718700002
 23
67.490950520799998
 33
0.0
  0
ENDBLK
  5
240
  8
0
  0
BLOCK
  8
0
  2
*D19
 70
     1
 10
0.0
 20
0.0
 30
0.0
  3
*D19
  1

  0
LINE
  5
265
  8
0
 62
     4
 10
99.654321868384983
 20
-1.622089728898787
 30
0.0
 11
117.25710668575741
 21
15.980695088473629
 31
0.0
  0
LINE
  5
266
  8
0
 62
     4
 10
49.549603485052401
 20
-1.6220897288987779
 30
0.0
 11
31.946818667679931
 21
15.98069508847383
 31
0.0
  0
ARC
  5
267
  8
0
 62
     4
 10
74.601962676718585
 20
-26.67444892056514
 30
0.0
 40
58.323483162560159
 50
47.456136176855878
 51
132.54386382314379
  0
SOLID
  5
268
  8
0
 62
     4
 10
114.32589073202899
 20
16.59682998282743
 30
0.0
 11
113.7493994699205
 21
15.99508064202424
 31
0.0
 12
115.8428931233843
 22
14.56648152610053
 32
0.0
 13
115.8428931233843
 23
14.56648152610053
 33
0.0
  0
SOLID
  5
269
  8
0
 62
     4
 10
35.454525883516801
 20
15.99508064202444
 30
0.0
 11
34.878034621408382
 21
16.596829982827629
 31
0.0
 12
33.36103223005302
 22
14.566481526100739
 32
0.0
 13
33.36103223005302
 23
14.566481526100739
 33
0.0
  0
INSERT
  5
26A
  8
0
  6
CONTINUOUS
  2
*U95
 10
0.0
 20
0.0
 30
0.0
  0
POINT
  5
26B
  8
DEFPOINTS
 62
     0
 10
74.601962676718585
 20
-26.67444892056514
 30
0.0
  0
POINT
  5
26C
  8
DEFPOINTS
 62
     0
 10
97.886554915418614
 20
-3.3898566818651541
 30
0.0
  0
POINT
  5
26D
  8
DEFPOINTS
 62
     0
 10
51.31737043801877
 20
-3.3898566818651541
 30
0.0
  0
POINT
  5
26E
  8
DEFPOINTS
 62
     0
 10
59.506734457531977
 20
29.6617097452874
 30
0.0
  0
ENDBLK
  5
26F
  8
0
  0
BLOCK
  8
0
  2
*D20
 70
     1
 10
0.0
 20
0.0
 30
0.0
  3
*D20
  1

  0
LINE
  5
272
  8
0
 62
     4
 10
54.601962676718578
 20
-4.1119489205651396
 30
0.0
 11
54.601962676718578
 21
14.29740881552493
 31
0.0
  0
LINE
  5
273
  8
0
 62
     4
 10
94.601962676718585
 20
-4.1119489205651396
 30
0.0
 11
94.601962676718585
 21
14.29740881552493
 31
0.0
  0
LINE
  5
274
  8
0
 62
     4
 10
57.101962676718578
 20
12.29740881552493
 30
0.0
 11
92.101962676718585
 21
12.29740881552493
 31
0.0
  0
SOLID
  5
275
  8
0
 62
     4
 10
57.101962676718578
 20
12.7140754821916
 30
0.0
 11
57.101962676718578
 21
11.880742148858261
 31
0.0
 12
54.601962676718578
 22
12.29740881552493
 32
0.0
 13
54.601962676718578
 23
12.29740881552493
 33
0.0
  0
SOLID
  5
276
  8
0
 62
     4
 10
92.101962676718585
 20
12.7140754821916
 30
0.0
 11
92.101962676718585
 21
11.880742148858261
 31
0.0
 12
94.601962676718585
 22
12.29740881552493
 32
0.0
 13
94.601962676718585
 23
12.29740881552493
 33
0.0
  0
INSERT
  5
277
  8
0
  6
CONTINUOUS
  2
*U96
 10
0.0
 20
0.0
 30
0.0
  0
POINT
  5
278
  8
DEFPOINTS
 62
     0
 10
54.601962676718578
 20
-6.6119489205651396
 30
0.0
  0
POINT
  5
279
  8
DEFPOINTS
 62
     0
 10
94.601962676718585
 20
-6.6119489205651396
 30
0.0
  0
POINT
  5
27A
  8
DEFPOINTS
 62
     0
 10
94.601962676718585
 20
12.29740881552493
 30
0.0
  0
ENDBLK
  5
27B
  8
0
  0
BLOCK
  8
0
  2
*D21
 70
     1
 10
0.0
 20
0.0
 30
0.0
  3
*D21
  1

  0
LINE
  5
27E
  8
0
 62
     4
 10
64.601962676718699
 20
-24.23694892056514
 30
0.0
 11
64.601962676718699
 21
-43.888937011566213
 31
0.0
  0
LINE
  5
27F
  8
0
 62
     4
 10
84.601962676718585
 20
-24.23694892056514
 30
0.0
 11
84.601962676718585
 21
-43.888937011566213
 31
0.0
  0
LINE
  5
280
  8
0
 62
     4
 10
67.101962676718699
 20
-41.888937011566213
 30
0.0
 11
82.101962676718585
 21
-41.888937011566213
 31
0.0
  0
SOLID
  5
281
  8
0
 62
     4
 10
67.101962676718699
 20
-41.472270344899542
 30
0.0
 11
67.101962676718699
 21
-42.30560367823287
 31
0.0
 12
64.601962676718699
 22
-41.888937011566213
 32
0.0
 13
64.601962676718699
 23
-41.888937011566213
 33
0.0
  0
SOLID
  5
282
  8
0
 62
     4
 10
82.101962676718585
 20
-41.472270344899542
 30
0.0
 11
82.101962676718585
 21
-42.30560367823287
 31
0.0
 12
84.601962676718585
 22
-41.888937011566213
 32
0.0
 13
84.601962676718585
 23
-41.888937011566213
 33
0.0
  0
INSERT
  5
283
  8
0
  6
CONTINUOUS
  2
*U97
 10
0.0
 20
0.0
 30
0.0
  0
POINT
  5
284
  8
DEFPOINTS
 62
     0
 10
64.601962676718699
 20
-21.73694892056514
 30
0.0
  0
POINT
  5
285
  8
DEFPOINTS
 62
     0
 10
84.601962676718585
 20
-21.73694892056514
 30
0.0
  0
POINT
  5
286
  8
DEFPOINTS
 62
     0
 10
84.601962676718585
 20
-41.888937011566213
 30
0.0
  0
ENDBLK
  5
287
  8
0
  0
BLOCK
  8
0
  2
*D23
 70
     1
 10
0.0
 20
0.0
 30
0.0
  3
*D23
  1

  0
LINE
  5
2CE
  8
0
 62
     4
 10
63.148220203857697
 20
-21.970026741781769
 30
0.0
 11
63.148220203857697
 21
-41.622014832782831
 31
0.0
  0
LINE
  5
2CF
  8
0
 62
     4
 10
83.148220203857605
 20
-21.970026741781769
 30
0.0
 11
83.148220203857605
 21
-41.622014832782831
 31
0.0
  0
LINE
  5
2D0
  8
0
 62
     4
 10
65.648220203857704
 20
-39.622014832782838
 30
0.0
 11
80.648220203857605
 21
-39.622014832782838
 31
0.0
  0
SOLID
  5
2D1
  8
0
 62
     4
 10
65.648220203857704
 20
-39.205348166116167
 30
0.0
 11
65.648220203857704
 21
-40.038681499449503
 31
0.0
 12
63.148220203857697
 22
-39.622014832782838
 32
0.0
 13
63.148220203857697
 23
-39.622014832782838
 33
0.0
  0
SOLID
  5
2D2
  8
0
 62
     4
 10
80.648220203857605
 20
-39.205348166116167
 30
0.0
 11
80.648220203857605
 21
-40.038681499449503
 31
0.0
 12
83.148220203857605
 22
-39.622014832782838
 32
0.0
 13
83.148220203857605
 23
-39.622014832782838
 33
0.0
  0
INSERT
  5
2D3
  8
0
  6
CONTINUOUS
  2
*U98
 10
0.0
 20
0.0
 30
0.0
  0
POINT
  5
2D4
  8
DEFPOINTS
 62
     0
 10
63.148220203857697
 20
-19.470026741781759
 30
0.0
  0
POINT
  5
2D5
  8
DEFPOINTS
 62
     0
 10
83.148220203857605
 20
-19.470026741781759
 30
0.0
  0
POINT
  5
2D6
  8
DEFPOINTS
 62
     0
 10
83.148220203857605
 20
-39.622014832782838
 30
0.0
  0
ENDBLK
  5
2B4
  8
0
  0
BLOCK
  8
0
  2
*D24
 70
     1
 10
0.0
 20
0.0
 30
0.0
  3
*D24
  1

  0
LINE
  5
2D7
  8
0
 62
     4
 10
53.148220203857591
 20
-1.845026741781765
 30
0.0
 11
53.148220203857591
 21
16.5643309943083
 31
0.0
  0
LINE
  5
2D8
  8
0
 62
     4
 10
93.148220203857605
 20
-1.845026741781765
 30
0.0
 11
93.148220203857605
 21
16.5643309943083
 31
0.0
  0
LINE
  5
2D9
  8
0
 62
     4
 10
55.648220203857591
 20
14.56433099430831
 30
0.0
 11
90.648220203857605
 21
14.56433099430831
 31
0.0
  0
SOLID
  5
2DA
  8
0
 62
     4
 10
55.648220203857591
 20
14.980997660974969
 30
0.0
 11
55.648220203857591
 21
14.147664327641641
 31
0.0
 12
53.148220203857591
 22
14.56433099430831
 32
0.0
 13
53.148220203857591
 23
14.56433099430831
 33
0.0
  0
SOLID
  5
2DB
  8
0
 62
     4
 10
90.648220203857605
 20
14.980997660974969
 30
0.0
 11
90.648220203857605
 21
14.147664327641641
 31
0.0
 12
93.148220203857605
 22
14.56433099430831
 32
0.0
 13
93.148220203857605
 23
14.56433099430831
 33
0.0
  0
INSERT
  5
2DC
  8
0
  6
CONTINUOUS
  2
*U99
 10
0.0
 20
0.0
 30
0.0
  0
POINT
  5
2DD
  8
DEFPOINTS
 62
     0
 10
53.148220203857591
 20
-4.3450267417817647
 30
0.0
  0
POINT
  5
2DE
  8
DEFPOINTS
 62
     0
 10
93.148220203857605
 20
-4.3450267417817647
 30
0.0
  0
POINT
  5
2DF
  8
DEFPOINTS
 62
     0
 10
93.148220203857605
 20
14.56433099430831
 30
0.0
  0
ENDBLK
  5
2C0
  8
0
  0
BLOCK
  8
0
  2
*D25
 70
     1
 10
0.0
 20
0.0
 30
0.0
  3
*D25
  1

  0
LINE
  5
7C4
  8
0
 62
     4
 10
98.200579395524002
 20
0.6448324498845875
 30
0.0
 11
115.8033642128964
 21
18.24761726725702
 31
0.0
  0
LINE
  5
7C5
  8
0
 62
     4
 10
48.095861012191413
 20
0.6448324498845957
 30
0.0
 11
30.493076194818929
 21
18.247617267257208
 31
0.0
  0
ARC
  5
7C6
  8
0
 62
     4
 10
73.148220203857605
 20
-24.407526741781769
 30
0.0
 40
58.32348316256018
 50
47.4561361768559
 51
132.54386382314379
  0
SOLID
  5
7C7
  8
0
 62
     4
 10
112.872148259168
 20
18.863752161610819
 30
0.0
 11
112.2956569970596
 21
18.262002820807631
 31
0.0
 12
114.38915065052331
 22
16.833403704883921
 32
0.0
 13
114.38915065052331
 23
16.833403704883921
 33
0.0
  0
SOLID
  5
7C8
  8
0
 62
     4
 10
34.000783410655806
 20
18.262002820807819
 30
0.0
 11
33.424292148547373
 21
18.863752161611
 31
0.0
 12
31.907289757192022
 22
16.833403704884109
 32
0.0
 13
31.907289757192022
 23
16.833403704884109
 33
0.0
  0
TEXT
  8
0
  40
5
  5
B18
  62
4
  72
0
  71
0
 10
65.1097
 20
28.5348
 30
0.000000
  1
90°
  7
ゴシック
  0
POINT
  5
7CA
  8
DEFPOINTS
 62
     0
 10
73.148220203857605
 20
-24.407526741781769
 30
0.0
  0
POINT
  5
7CB
  8
DEFPOINTS
 62
     0
 10
96.432812442557648
 20
-1.122934503081779
 30
0.0
  0
POINT
  5
7CC
  8
DEFPOINTS
 62
     0
 10
49.863627965157768
 20
-1.122934503081779
 30
0.0
  0
POINT
  5
7CD
  8
DEFPOINTS
 62
     0
 10
58.052991984670982
 20
31.928631924070778
 30
0.0
  0
ENDBLK
  5
2CD
  8
0
  0
BLOCK
  8
0
  2
*D26
 70
     1
 10
0.0
 20
0.0
 30
0.0
  3
*D26
  1

  0
LINE
  5
4FE
  8
寸法線
 62
     0
 10
-16.056663998907361
 20
115.7885110950611
 30
0.0
 11
16.008543232899221
 21
107.19666471216139
 31
0.0
  0
INSERT
  5
4FF
  8
0
  6
CONTINUOUS
  2
*U133
 10
0.0
 20
0.0
 30
0.0
  0
SOLID
  5
500
  8
寸法線
 62
     0
 10
16.20265751672612
 20
107.9211090818782
 30
0.0
 11
15.814428949072321
 21
106.4722203424446
 31
0.0
 12
20.355209451200011
 22
106.0319790092
 32
0.0
 13
20.355209451200011
 23
106.0319790092
 33
0.0
  0
LINE
  5
501
  8
寸法線
 62
     0
 10
52.140761718800022
 20
97.490950520800027
 30
0.0
 11
52.320761718800021
 21
97.490950520800027
 31
0.0
  0
LINE
  5
502
  8
寸法線
 62
     0
 10
52.230761718800018
 20
97.400950520800038
 30
0.0
 11
52.230761718800018
 21
97.58095052080003
 31
0.0
  0
POINT
  5
503
  8
DEFPOINTS
 62
     0
 10
20.355209451200011
 20
106.0319790092
 30
0.0
  0
POINT
  5
504
  8
DEFPOINTS
 62
     0
 10
52.230761718800018
 20
97.490950520800027
 30
0.0
  0
ENDBLK
  5
422
  8
0
  0
BLOCK
  8
0
  2
*D27
 70
     1
 10
0.0
 20
0.0
 30
0.0
  3
*D27
  1

  0
LINE
  5
505
  8
寸法線
 62
     0
 10
-125.29833984379999
 20
10.6750651042
 30
0.0
 11
-146.23583984379999
 21
10.6750651042
 31
0.0
  0
LINE
  5
506
  8
寸法線
 62
     0
 10
-120.29833984379999
 20
-24.324934895799998
 30
0.0
 11
-146.23583984379999
 21
-24.324934895799998
 31
0.0
  0
LINE
  5
507
  8
寸法線
 62
     0
 10
-145.23583984379999
 20
6.1750651042000051
 30
0.0
 11
-145.23583984379999
 21
-2.9866711194666431
 31
0.0
  0
LINE
  5
508
  8
寸法線
 62
     0
 10
-145.23583984379999
 20
-19.824934895799991
 30
0.0
 11
-145.23583984379999
 21
-10.66319867213331
 31
0.0
  0
SOLID
  5
509
  8
寸法線
 62
     0
 10
-145.98583984379999
 20
6.1750651042000051
 30
0.0
 11
-144.48583984379999
 21
6.1750651042000051
 31
0.0
 12
-145.23583984379999
 22
10.6750651042
 32
0.0
 13
-145.23583984379999
 23
10.6750651042
 33
0.0
  0
SOLID
  5
50A
  8
寸法線
 62
     0
 10
-145.98583984379999
 20
-19.824934895799991
 30
0.0
 11
-144.48583984379999
 21
-19.824934895799991
 31
0.0
 12
-145.23583984379999
 22
-24.324934895799998
 32
0.0
 13
-145.23583984379999
 23
-24.324934895799998
 33
0.0
  0
INSERT
  5
50B
  8
0
  6
CONTINUOUS
  2
*U134
 10
0.0
 20
0.0
 30
0.0
  0
POINT
  5
50C
  8
DEFPOINTS
 62
     0
 10
-125.23583984379999
 20
10.6750651042
 30
0.0
  0
POINT
  5
50D
  8
DEFPOINTS
 62
     0
 10
-120.23583984379999
 20
-24.324934895799998
 30
0.0
  0
POINT
  5
50E
  8
DEFPOINTS
 62
     0
 10
-145.23583984379999
 20
-24.324934895799998
 30
0.0
  0
ENDBLK
  5
42F
  8
0
  0
BLOCK
  8
0
  2
*D28
 70
     1
 10
0.0
 20
0.0
 30
0.0
  3
*D28
  1

  0
LINE
  5
50F
  8
寸法線
 62
     0
 10
-89.548339843799994
 20
-21.324934895799998
 30
0.0
 11
-107.5682634986335
 21
-21.324934895799998
 31
0.0
  0
LINE
  5
510
  8
寸法線
 62
     0
 10
-122.23583984379999
 20
10.61256510419998
 30
0.0
 11
-122.23583984379999
 21
-6.6573585506335391
 31
0.0
  0
ARC
  5
511
  8
寸法線
 62
     0
 10
-122.23583984379999
 20
-21.324934895799998
 30
0.0
 40
15.91757634516645
 50
16.252312760547081
 51
21.611242864085419
  0
ARC
  5
512
  8
寸法線
 62
     0
 10
-122.23583984379999
 20
-21.324934895799998
 30
0.0
 40
15.91757634516645
 50
73.083465838872996
 51
73.747687239452929
  0
SOLID
  5
513
  8
寸法線
 62
     0
 10
-106.211883375665
 20
-16.76410347275473
 30
0.0
 11
-107.6968222222185
 21
-16.976133239524131
 31
0.0
 12
-106.3182634986335
 22
-21.324934895799998
 32
0.0
 13
-106.3182634986335
 23
-21.324934895799998
 33
0.0
  0
SOLID
  5
514
  8
寸法線
 62
     0
 10
-117.8870381875241
 20
-6.785917274218547
 30
0.0
 11
-117.67500842075469
 21
-5.3009784276650294
 31
0.0
 12
-122.23583984379999
 22
-5.4073585506335462
 32
0.0
 13
-122.23583984379999
 23
-5.4073585506335462
 33
0.0
  0
INSERT
  5
515
  8
0
  6
CONTINUOUS
  2
*U135
 10
0.0
 20
0.0
 30
0.0
  0
POINT
  5
516
  8
DEFPOINTS
 62
     0
 10
-122.23583984379999
 20
-21.324934895799998
 30
0.0
  0
POINT
  5
517
  8
DEFPOINTS
 62
     0
 10
-89.485839843799994
 20
-21.324934895799998
 30
0.0
  0
POINT
  5
518
  8
DEFPOINTS
 62
     0
 10
-122.23583984379999
 20
10.675065104199991
 30
0.0
  0
POINT
  5
519
  8
DEFPOINTS
 62
     0
 10
-108.45081436220759
 20
-13.36614672321676
 30
0.0
  0
ENDBLK
  5
43D
  8
0
  0
BLOCK
  8
0
  2
*D29
 70
     1
 10
0.0
 20
0.0
 30
0.0
  3
*D29
  1

  0
LINE
  5
51A
  8
寸法線
 62
     0
 10
-125.23583984379999
 20
-19.387434895799998
 30
0.0
 11
-125.23583984379999
 21
-45.324934895799998
 31
0.0
  0
LINE
  5
51B
  8
寸法線
 62
     0
 10
-90.235839843799994
 20
-24.387434895799998
 30
0.0
 11
-90.235839843799994
 21
-45.324934895799998
 31
0.0
  0
LINE
  5
51C
  8
寸法線
 62
     0
 10
-120.73583984379999
 20
-44.324934895799991
 30
0.0
 11
-111.5741036201333
 21
-44.324934895799991
 31
0.0
  0
LINE
  5
51D
  8
寸法線
 62
     0
 10
-94.735839843799994
 20
-44.324934895799991
 30
0.0
 11
-103.8975760674666
 21
-44.324934895799991
 31
0.0
  0
SOLID
  5
51E
  8
寸法線
 62
     0
 10
-120.73583984379999
 20
-43.574934895799998
 30
0.0
 11
-120.73583984379999
 21
-45.074934895799991
 31
0.0
 12
-125.23583984379999
 22
-44.324934895799991
 32
0.0
 13
-125.23583984379999
 23
-44.324934895799991
 33
0.0
  0
SOLID
  5
51F
  8
寸法線
 62
     0
 10
-94.735839843799994
 20
-43.574934895799998
 30
0.0
 11
-94.735839843799994
 21
-45.074934895799991
 31
0.0
 12
-90.235839843799994
 22
-44.324934895799991
 32
0.0
 13
-90.235839843799994
 23
-44.324934895799991
 33
0.0
  0
INSERT
  5
520
  8
0
  6
CONTINUOUS
  2
*U136
 10
0.0
 20
0.0
 30
0.0
  0
POINT
  5
521
  8
DEFPOINTS
 62
     0
 10
-125.23583984379999
 20
-19.324934895799998
 30
0.0
  0
POINT
  5
522
  8
DEFPOINTS
 62
     0
 10
-90.235839843799994
 20
-24.324934895799998
 30
0.0
  0
POINT
  5
523
  8
DEFPOINTS
 62
     0
 10
-90.235839843799994
 20
-44.324934895799991
 30
0.0
  0
ENDBLK
  5
44A
  8
0
  0
BLOCK
  8
0
  2
*D30
 70
     1
 10
0.0
 20
0.0
 30
0.0
  3
*D30
  1

  0
LINE
  5
524
  8
寸法線
 62
     0
 10
-93.779462930400015
 20
82.490950520799984
 30
0.0
 11
-72.841962930399987
 21
82.490950520799984
 31
0.0
  0
LINE
  5
525
  8
寸法線
 62
     0
 10
-95.173339843799994
 20
88.490950520799998
 30
0.0
 11
-72.841962930399987
 21
88.490950520799998
 31
0.0
  0
LINE
  5
526
  8
寸法線
 62
     0
 10
-73.841962930399987
 20
92.990950520799998
 30
0.0
 11
-73.841962930399973
 21
97.490950520800013
 31
0.0
  0
LINE
  5
527
  8
寸法線
 62
     0
 10
-73.841962930399987
 20
77.990950520799998
 30
0.0
 11
-73.841962930399987
 21
73.490950520799998
 31
0.0
  0
SOLID
  5
528
  8
寸法線
 62
     0
 10
-74.591962930399987
 20
92.990950520799998
 30
0.0
 11
-73.091962930399987
 21
92.990950520799998
 31
0.0
 12
-73.841962930399987
 22
88.490950520799998
 32
0.0
 13
-73.841962930399987
 23
88.490950520799998
 33
0.0
  0
SOLID
  5
529
  8
寸法線
 62
     0
 10
-74.591962930399987
 20
77.990950520799998
 30
0.0
 11
-73.091962930399987
 21
77.990950520799998
 31
0.0
 12
-73.841962930399987
 22
82.490950520799984
 32
0.0
 13
-73.841962930399987
 23
82.490950520799984
 33
0.0
  0
INSERT
  5
52A
  8
0
  6
CONTINUOUS
  2
*U137
 10
0.0
 20
0.0
 30
0.0
  0
POINT
  5
52B
  8
DEFPOINTS
 62
     0
 10
-93.841962930400015
 20
82.490950520799984
 30
0.0
  0
POINT
  5
52C
  8
DEFPOINTS
 62
     0
 10
-95.235839843799994
 20
88.490950520799998
 30
0.0
  0
POINT
  5
52D
  8
DEFPOINTS
 62
     0
 10
-73.841962930399987
 20
88.490950520799998
 30
0.0
  0
ENDBLK
  5
457
  8
0
  0
BLOCK
  8
0
  2
*D31
 70
     1
 10
0.0
 20
0.0
 30
0.0
  3
*D31
  1

  0
LINE
  5
52E
  8
寸法線
 62
     0
 10
-42.664428124441947
 20
119.0799952240389
 30
0.0
 11
-87.013621357899225
 21
107.19666471216139
 31
0.0
  0
INSERT
  5
52F
  8
0
  6
CONTINUOUS
  2
*U138
 10
0.0
 20
0.0
 30
0.0
  0
SOLID
  5
530
  8
寸法線
 62
     0
 10
-87.207735641726131
 20
107.9211090818782
 30
0.0
 11
-86.819507074072334
 21
106.4722203424446
 31
0.0
 12
-91.360287576200008
 22
106.0319790092
 32
0.0
 13
-91.360287576200008
 23
106.0319790092
 33
0.0
  0
LINE
  5
531
  8
寸法線
 62
     0
 10
-123.3258398438
 20
97.490950520800013
 30
0.0
 11
-123.1458398438
 21
97.490950520800013
 31
0.0
  0
LINE
  5
532
  8
寸法線
 62
     0
 10
-123.23583984379999
 20
97.400950520799995
 30
0.0
 11
-123.23583984379999
 21
97.580950520800016
 31
0.0
  0
POINT
  5
533
  8
DEFPOINTS
 62
     0
 10
-91.360287576200008
 20
106.0319790092
 30
0.0
  0
POINT
  5
534
  8
DEFPOINTS
 62
     0
 10
-123.23583984379999
 20
97.490950520800013
 30
0.0
  0
ENDBLK
  5
461
  8
0
  0
BLOCK
  8
0
  2
*D32
 70
     1
 10
0.0
 20
0.0
 30
0.0
  3
*D32
  1

  0
LINE
  5
535
  8
寸法線
 62
     0
 10
-114.23583984379999
 20
92.428450520799984
 30
0.0
 11
-114.23583984379999
 21
67.490950520799998
 31
0.0
  0
LINE
  5
536
  8
寸法線
 62
     0
 10
-100.23583984379999
 20
83.428450520799984
 30
0.0
 11
-100.23583984379999
 21
67.490950520799998
 31
0.0
  0
LINE
  5
537
  8
寸法線
 62
     0
 10
-118.73583984379999
 20
68.490950520799998
 30
0.0
 11
-123.23583984379999
 21
68.490950520799998
 31
0.0
  0
LINE
  5
538
  8
寸法線
 62
     0
 10
-95.735839843799994
 20
68.490950520799998
 30
0.0
 11
-91.235839843799994
 21
68.490950520799998
 31
0.0
  0
SOLID
  5
539
  8
寸法線
 62
     0
 10
-118.73583984379999
 20
69.240950520799998
 30
0.0
 11
-118.73583984379999
 21
67.740950520799984
 31
0.0
 12
-114.23583984379999
 22
68.490950520799998
 32
0.0
 13
-114.23583984379999
 23
68.490950520799998
 33
0.0
  0
SOLID
  5
53A
  8
寸法線
 62
     0
 10
-95.735839843799994
 20
69.240950520799998
 30
0.0
 11
-95.735839843799994
 21
67.740950520799984
 31
0.0
 12
-100.23583984379999
 22
68.490950520799998
 32
0.0
 13
-100.23583984379999
 23
68.490950520799998
 33
0.0
  0
INSERT
  5
53B
  8
0
  6
CONTINUOUS
  2
*U139
 10
0.0
 20
0.0
 30
0.0
  0
POINT
  5
53C
  8
DEFPOINTS
 62
     0
 10
-114.23583984379999
 20
92.490950520799984
 30
0.0
  0
POINT
  5
53D
  8
DEFPOINTS
 62
     0
 10
-100.23583984379999
 20
83.490950520799998
 30
0.0
  0
POINT
  5
53E
  8
DEFPOINTS
 62
     0
 10
-100.23583984379999
 20
68.490950520799998
 30
0.0
  0
ENDBLK
  5
46E
  8
0
  0
BLOCK
  8
0
  2
*D33
 70
     1
 10
0.0
 20
0.0
 30
0.0
  3
*D33
  1

  0
LINE
  5
53F
  8
寸法線
 62
     0
 10
-125.29833984379999
 20
112.4909505208
 30
0.0
 11
-145.0252873883999
 21
112.4909505208
 31
0.0
  0
LINE
  5
540
  8
寸法線
 62
     0
 10
-129.08778738839999
 20
97.490950520800013
 30
0.0
 11
-145.0252873883999
 21
97.490950520800013
 31
0.0
  0
LINE
  5
541
  8
寸法線
 62
     0
 10
-144.0252873883999
 20
116.9909505208
 30
0.0
 11
-144.0252873883999
 21
121.4909505208
 31
0.0
  0
LINE
  5
542
  8
寸法線
 62
     0
 10
-144.0252873883999
 20
92.990950520799998
 30
0.0
 11
-144.0252873883999
 21
88.490950520799998
 31
0.0
  0
SOLID
  5
543
  8
寸法線
 62
     0
 10
-144.7752873883999
 20
116.9909505208
 30
0.0
 11
-143.2752873883999
 21
116.9909505208
 31
0.0
 12
-144.0252873883999
 22
112.4909505208
 32
0.0
 13
-144.0252873883999
 23
112.4909505208
 33
0.0
  0
SOLID
  5
544
  8
寸法線
 62
     0
 10
-144.7752873883999
 20
92.990950520799998
 30
0.0
 11
-143.2752873883999
 21
92.990950520799998
 31
0.0
 12
-144.0252873883999
 22
97.490950520800013
 32
0.0
 13
-144.0252873883999
 23
97.490950520800013
 33
0.0
  0
INSERT
  5
545
  8
0
  6
CONTINUOUS
  2
*U140
 10
0.0
 20
0.0
 30
0.0
  0
POINT
  5
546
  8
DEFPOINTS
 62
     0
 10
-125.23583984379999
 20
112.4909505208
 30
0.0
  0
POINT
  5
547
  8
DEFPOINTS
 62
     0
 10
-129.02528738839999
 20
97.490950520800013
 30
0.0
  0
POINT
  5
548
  8
DEFPOINTS
 62
     0
 10
-144.0252873883999
 20
97.490950520800013
 30
0.0
  0
ENDBLK
  5
47B
  8
0
  0
BLOCK
  8
0
  2
*D34
 70
     1
 10
0.0
 20
0.0
 30
0.0
  3
*D34
  1

  0
LINE
  5
549
  8
寸法線
 62
     0
 10
-129.08778738839999
 20
97.490950520800013
 30
0.0
 11
-145.0252873883999
 21
97.490950520800013
 31
0.0
  0
LINE
  5
54A
  8
寸法線
 62
     0
 10
-125.29833984379999
 20
82.490950520799984
 30
0.0
 11
-145.0252873883999
 21
82.490950520799984
 31
0.0
  0
LINE
  5
54B
  8
寸法線
 62
     0
 10
-144.0252873883999
 20
101.9909505208
 30
0.0
 11
-144.0252873883999
 21
106.4909505208
 31
0.0
  0
LINE
  5
54C
  8
寸法線
 62
     0
 10
-144.0252873883999
 20
77.990950520799998
 30
0.0
 11
-144.0252873883999
 21
73.490950520799998
 31
0.0
  0
SOLID
  5
54D
  8
寸法線
 62
     0
 10
-144.7752873883999
 20
101.9909505208
 30
0.0
 11
-143.2752873883999
 21
101.9909505208
 31
0.0
 12
-144.0252873883999
 22
97.490950520800013
 32
0.0
 13
-144.0252873883999
 23
97.490950520800013
 33
0.0
  0
SOLID
  5
54E
  8
寸法線
 62
     0
 10
-144.7752873883999
 20
77.990950520799998
 30
0.0
 11
-143.2752873883999
 21
77.990950520799998
 31
0.0
 12
-144.0252873883999
 22
82.490950520799984
 32
0.0
 13
-144.0252873883999
 23
82.490950520799984
 33
0.0
  0
INSERT
  5
54F
  8
0
  6
CONTINUOUS
  2
*U141
 10
0.0
 20
0.0
 30
0.0
  0
POINT
  5
550
  8
DEFPOINTS
 62
     0
 10
-129.02528738839999
 20
97.490950520800013
 30
0.0
  0
POINT
  5
551
  8
DEFPOINTS
 62
     0
 10
-125.23583984379999
 20
82.490950520799984
 30
0.0
  0
POINT
  5
552
  8
DEFPOINTS
 62
     0
 10
-144.0252873883999
 20
82.490950520799984
 30
0.0
  0
ENDBLK
  5
488
  8
0
  0
BLOCK
  8
0
  2
*D35
 70
     1
 10
0.0
 20
0.0
 30
0.0
  3
*D35
  1

  0
LINE
  5
553
  8
寸法線
 62
     0
 10
-100.23583984379999
 20
83.428450520799984
 30
0.0
 11
-100.23583984379999
 21
67.490950520799998
 31
0.0
  0
LINE
  5
554
  8
寸法線
 62
     0
 10
-90.235839843799994
 20
97.428450520799984
 30
0.0
 11
-90.235839843799994
 21
67.490950520799998
 31
0.0
  0
LINE
  5
555
  8
寸法線
 62
     0
 10
-104.73583984379999
 20
68.490950520799998
 30
0.0
 11
-109.23583984379999
 21
68.490950520799998
 31
0.0
  0
LINE
  5
556
  8
寸法線
 62
     0
 10
-85.735839843799994
 20
68.490950520799998
 30
0.0
 11
-81.235839843799994
 21
68.490950520799998
 31
0.0
  0
SOLID
  5
557
  8
寸法線
 62
     0
 10
-104.73583984379999
 20
69.240950520799998
 30
0.0
 11
-104.73583984379999
 21
67.740950520799984
 31
0.0
 12
-100.23583984379999
 22
68.490950520799998
 32
0.0
 13
-100.23583984379999
 23
68.490950520799998
 33
0.0
  0
SOLID
  5
558
  8
寸法線
 62
     0
 10
-85.735839843799994
 20
69.240950520799998
 30
0.0
 11
-85.735839843799994
 21
67.740950520799984
 31
0.0
 12
-90.235839843799994
 22
68.490950520799998
 32
0.0
 13
-90.235839843799994
 23
68.490950520799998
 33
0.0
  0
INSERT
  5
559
  8
0
  6
CONTINUOUS
  2
*U142
 10
0.0
 20
0.0
 30
0.0
  0
POINT
  5
55A
  8
DEFPOINTS
 62
     0
 10
-100.23583984379999
 20
83.490950520799998
 30
0.0
  0
POINT
  5
55B
  8
DEFPOINTS
 62
     0
 10
-90.235839843799994
 20
97.490950520800013
 30
0.0
  0
POINT
  5
55C
  8
DEFPOINTS
 62
     0
 10
-90.235839843799994
 20
68.490950520799998
 30
0.0
  0
ENDBLK
  5
495
  8
0
  0
BLOCK
  8
0
  2
*D36
 70
     1
 10
0.0
 20
0.0
 30
0.0
  3
*D36
  1

  0
LINE
  5
55D
  8
寸法線
 62
     0
 10
-125.23583984379999
 20
82.428450520799984
 30
0.0
 11
-125.23583984379999
 21
67.490950520799998
 31
0.0
  0
LINE
  5
55E
  8
寸法線
 62
     0
 10
-114.23583984379999
 20
92.428450520799984
 30
0.0
 11
-114.23583984379999
 21
67.490950520799998
 31
0.0
  0
LINE
  5
55F
  8
寸法線
 62
     0
 10
-129.73583984379999
 20
68.490950520799998
 30
0.0
 11
-134.23583984379999
 21
68.490950520799998
 31
0.0
  0
LINE
  5
560
  8
寸法線
 62
     0
 10
-109.73583984379999
 20
68.490950520799998
 30
0.0
 11
-105.23583984379999
 21
68.490950520799998
 31
0.0
  0
SOLID
  5
561
  8
寸法線
 62
     0
 10
-129.73583984379999
 20
69.240950520799998
 30
0.0
 11
-129.73583984379999
 21
67.740950520799984
 31
0.0
 12
-125.23583984379999
 22
68.490950520799998
 32
0.0
 13
-125.23583984379999
 23
68.490950520799998
 33
0.0
  0
SOLID
  5
562
  8
寸法線
 62
     0
 10
-109.73583984379999
 20
69.240950520799998
 30
0.0
 11
-109.73583984379999
 21
67.740950520799984
 31
0.0
 12
-114.23583984379999
 22
68.490950520799998
 32
0.0
 13
-114.23583984379999
 23
68.490950520799998
 33
0.0
  0
INSERT
  5
563
  8
0
  6
CONTINUOUS
  2
*U143
 10
0.0
 20
0.0
 30
0.0
  0
POINT
  5
564
  8
DEFPOINTS
 62
     0
 10
-125.23583984379999
 20
82.490950520799984
 30
0.0
  0
POINT
  5
565
  8
DEFPOINTS
 62
     0
 10
-114.23583984379999
 20
92.490950520799984
 30
0.0
  0
POINT
  5
566
  8
DEFPOINTS
 62
     0
 10
-114.23583984379999
 20
68.490950520799998
 30
0.0
  0
ENDBLK
  5
4A2
  8
0
  0
BLOCK
  8
0
  2
*D37
 70
     1
 10
0.0
 20
0.0
 30
0.0
  3
*D37
  1

  0
LINE
  5
567
  8
寸法線
 62
     0
 10
-95.173339843799994
 20
88.490950520799998
 30
0.0
 11
-72.841962930399987
 21
88.490950520799998
 31
0.0
  0
LINE
  5
568
  8
寸法線
 62
     0
 10
-95.173339843799994
 20
106.4909505208
 30
0.0
 11
-72.841962930399973
 21
106.4909505208
 31
0.0
  0
LINE
  5
569
  8
寸法線
 62
     0
 10
-73.841962930399987
 20
92.990950520799998
 30
0.0
 11
-73.841962930399987
 21
94.402339499733344
 31
0.0
  0
LINE
  5
56A
  8
寸法線
 62
     0
 10
-73.841962930399973
 20
101.9909505208
 30
0.0
 11
-73.841962930399973
 21
100.5795615418667
 31
0.0
  0
SOLID
  5
56B
  8
寸法線
 62
     0
 10
-74.591962930399987
 20
92.990950520799998
 30
0.0
 11
-73.091962930399987
 21
92.990950520799998
 31
0.0
 12
-73.841962930399987
 22
88.490950520799998
 32
0.0
 13
-73.841962930399987
 23
88.490950520799998
 33
0.0
  0
SOLID
  5
56C
  8
寸法線
 62
     0
 10
-74.591962930399973
 20
101.9909505208
 30
0.0
 11
-73.091962930399973
 21
101.9909505208
 31
0.0
 12
-73.841962930399973
 22
106.4909505208
 32
0.0
 13
-73.841962930399973
 23
106.4909505208
 33
0.0
  0
INSERT
  5
56D
  8
0
  6
CONTINUOUS
  2
*U144
 10
0.0
 20
0.0
 30
0.0
  0
POINT
  5
56E
  8
DEFPOINTS
 62
     0
 10
-95.235839843799994
 20
88.490950520799998
 30
0.0
  0
POINT
  5
56F
  8
DEFPOINTS
 62
     0
 10
-95.235839843799994
 20
106.4909505208
 30
0.0
  0
POINT
  5
570
  8
DEFPOINTS
 62
     0
 10
-73.841962930399973
 20
106.4909505208
 30
0.0
  0
ENDBLK
  5
4AF
  8
0
  0
BLOCK
  8
0
  2
*D38
 70
     1
 10
0.0
 20
0.0
 30
0.0
  3
*D38
  1

  0
LINE
  5
571
  8
寸法線
 62
     0
 10
-95.173339843799994
 20
106.4909505208
 30
0.0
 11
-72.841962930399987
 21
106.4909505208
 31
0.0
  0
LINE
  5
572
  8
寸法線
 62
     0
 10
-93.779462930400015
 20
112.4909505208
 30
0.0
 11
-72.841962930399987
 21
112.4909505208
 31
0.0
  0
LINE
  5
573
  8
寸法線
 62
     0
 10
-73.841962930399987
 20
101.9909505208
 30
0.0
 11
-73.841962930399987
 21
97.490950520800013
 31
0.0
  0
LINE
  5
574
  8
寸法線
 62
     0
 10
-73.841962930399987
 20
116.9909505208
 30
0.0
 11
-73.841962930399987
 21
121.4909505208
 31
0.0
  0
SOLID
  5
575
  8
寸法線
 62
     0
 10
-74.591962930399987
 20
101.9909505208
 30
0.0
 11
-73.091962930399987
 21
101.9909505208
 31
0.0
 12
-73.841962930399987
 22
106.4909505208
 32
0.0
 13
-73.841962930399987
 23
106.4909505208
 33
0.0
  0
SOLID
  5
576
  8
寸法線
 62
     0
 10
-74.591962930399987
 20
116.9909505208
 30
0.0
 11
-73.091962930399987
 21
116.9909505208
 31
0.0
 12
-73.841962930399987
 22
112.4909505208
 32
0.0
 13
-73.841962930399987
 23
112.4909505208
 33
0.0
  0
INSERT
  5
577
  8
0
  6
CONTINUOUS
  2
*U145
 10
0.0
 20
0.0
 30
0.0
  0
POINT
  5
578
  8
DEFPOINTS
 62
     0
 10
-95.235839843799994
 20
106.4909505208
 30
0.0
  0
POINT
  5
579
  8
DEFPOINTS
 62
     0
 10
-93.841962930400015
 20
112.4909505208
 30
0.0
  0
POINT
  5
57A
  8
DEFPOINTS
 62
     0
 10
-73.841962930399987
 20
112.4909505208
 30
0.0
  0
ENDBLK
  5
4BC
  8
0
  0
BLOCK
  8
0
  2
*D39
 70
     1
 10
0.0
 20
0.0
 30
0.0
  3
*D39
  1

  0
LINE
  5
57B
  8
寸法線
 62
     0
 10
-122.23583984379999
 20
10.7375651042
 30
0.0
 11
-122.23583984379999
 21
26.675065104200002
 31
0.0
  0
LINE
  5
57C
  8
寸法線
 62
     0
 10
-125.23583984379999
 20
10.7375651042
 30
0.0
 11
-125.23583984379999
 21
26.675065104200002
 31
0.0
  0
LINE
  5
57D
  8
寸法線
 62
     0
 10
-129.73583984379999
 20
25.675065104200002
 30
0.0
 11
-134.23583984379999
 21
25.675065104200002
 31
0.0
  0
LINE
  5
57E
  8
寸法線
 62
     0
 10
-117.73583984379999
 20
25.675065104200002
 30
0.0
 11
-113.23583984379999
 21
25.675065104200002
 31
0.0
  0
SOLID
  5
57F
  8
寸法線
 62
     0
 10
-129.73583984379999
 20
26.425065104200002
 30
0.0
 11
-129.73583984379999
 21
24.925065104200002
 31
0.0
 12
-125.23583984379999
 22
25.675065104200002
 32
0.0
 13
-125.23583984379999
 23
25.675065104200002
 33
0.0
  0
SOLID
  5
580
  8
寸法線
 62
     0
 10
-117.73583984379999
 20
26.425065104200002
 30
0.0
 11
-117.73583984379999
 21
24.925065104200002
 31
0.0
 12
-122.23583984379999
 22
25.675065104200002
 32
0.0
 13
-122.23583984379999
 23
25.675065104200002
 33
0.0
  0
INSERT
  5
581
  8
0
  6
CONTINUOUS
  2
*U146
 10
0.0
 20
0.0
 30
0.0
  0
POINT
  5
582
  8
DEFPOINTS
 62
     0
 10
-122.23583984379999
 20
10.6750651042
 30
0.0
  0
POINT
  5
583
  8
DEFPOINTS
 62
     0
 10
-125.23583984379999
 20
10.6750651042
 30
0.0
  0
POINT
  5
584
  8
DEFPOINTS
 62
     0
 10
-125.23583984379999
 20
25.675065104200002
 30
0.0
  0
ENDBLK
  5
4C9
  8
0
  0
BLOCK
  8
0
  2
*D40
 70
     1
 10
0.0
 20
0.0
 30
0.0
  3
*D40
  1

  0
LINE
  5
585
  8
寸法線
 62
     0
 10
-125.29833984379999
 20
112.4909505208
 30
0.0
 11
-158.2679352737
 21
112.4909505208
 31
0.0
  0
LINE
  5
586
  8
寸法線
 62
     0
 10
-125.29833984379999
 20
82.490950520799984
 30
0.0
 11
-158.2679352737
 21
82.490950520799984
 31
0.0
  0
LINE
  5
587
  8
寸法線
 62
     0
 10
-157.26793527369989
 20
107.9909505208
 30
0.0
 11
-157.26793527369989
 21
100.95438791949999
 31
0.0
  0
LINE
  5
588
  8
寸法線
 62
     0
 10
-157.26793527369989
 20
86.990950520799998
 30
0.0
 11
-157.26793527369989
 21
94.027513122100018
 31
0.0
  0
SOLID
  5
589
  8
寸法線
 62
     0
 10
-158.0179352737
 20
107.9909505208
 30
0.0
 11
-156.51793527369989
 21
107.9909505208
 31
0.0
 12
-157.26793527369989
 22
112.4909505208
 32
0.0
 13
-157.26793527369989
 23
112.4909505208
 33
0.0
  0
SOLID
  5
58A
  8
寸法線
 62
     0
 10
-158.0179352737
 20
86.990950520799998
 30
0.0
 11
-156.51793527369989
 21
86.990950520799998
 31
0.0
 12
-157.26793527369989
 22
82.490950520799984
 32
0.0
 13
-157.26793527369989
 23
82.490950520799984
 33
0.0
  0
INSERT
  5
58B
  8
0
  6
CONTINUOUS
  2
*U147
 10
0.0
 20
0.0
 30
0.0
  0
POINT
  5
58C
  8
DEFPOINTS
 62
     0
 10
-125.23583984379999
 20
112.4909505208
 30
0.0
  0
POINT
  5
58D
  8
DEFPOINTS
 62
     0
 10
-125.23583984379999
 20
82.490950520799984
 30
0.0
  0
POINT
  5
58E
  8
DEFPOINTS
 62
     0
 10
-157.26793527369989
 20
82.490950520799984
 30
0.0
  0
ENDBLK
  5
4D6
  8
0
  0
BLOCK
  8
0
  2
*D41
 70
     1
 10
0.0
 20
0.0
 30
0.0
  3
*D41
  1

  0
LINE
  5
58F
  8
寸法線
 62
     0
 10
19.230761718699998
 20
97.428450520799984
 30
0.0
 11
19.230761718699991
 21
66.490950520799984
 31
0.0
  0
LINE
  5
590
  8
寸法線
 62
     0
 10
29.2307617188
 20
82.428450520799984
 30
0.0
 11
29.2307617188
 21
66.490950520799984
 31
0.0
  0
LINE
  5
591
  8
寸法線
 62
     0
 10
14.73076171869999
 20
67.490950520799998
 30
0.0
 11
10.23076171869999
 21
67.490950520799998
 31
0.0
  0
LINE
  5
592
  8
寸法線
 62
     0
 10
33.730761718799997
 20
67.490950520799998
 30
0.0
 11
38.230761718799997
 21
67.490950520799998
 31
0.0
  0
SOLID
  5
593
  8
寸法線
 62
     0
 10
14.73076171869999
 20
68.240950520799998
 30
0.0
 11
14.73076171869999
 21
66.740950520799998
 31
0.0
 12
19.230761718699991
 22
67.490950520799998
 32
0.0
 13
19.230761718699991
 23
67.490950520799998
 33
0.0
  0
SOLID
  5
594
  8
寸法線
 62
     0
 10
33.730761718799997
 20
68.240950520799998
 30
0.0
 11
33.730761718799997
 21
66.740950520799998
 31
0.0
 12
29.2307617188
 22
67.490950520799998
 32
0.0
 13
29.2307617188
 23
67.490950520799998
 33
0.0
  0
INSERT
  5
595
  8
0
  6
CONTINUOUS
  2
*U148
 10
0.0
 20
0.0
 30
0.0
  0
POINT
  5
596
  8
DEFPOINTS
 62
     0
 10
19.230761718699998
 20
97.490950520800013
 30
0.0
  0
POINT
  5
597
  8
DEFPOINTS
 62
     0
 10
29.2307617188
 20
82.490950520799984
 30
0.0
  0
POINT
  5
598
  8
DEFPOINTS
 62
     0
 10
29.2307617188
 20
67.490950520799998
 30
0.0
  0
ENDBLK
  5
4E3
  8
0
  0
BLOCK
  8
0
  2
*D42
 70
     1
 10
0.0
 20
0.0
 30
0.0
  3
*D42
  1

  0
LINE
  5
599
  8
寸法線
 62
     0
 10
29.2307617188
 20
82.428450520799984
 30
0.0
 11
29.2307617188
 21
66.490950520799984
 31
0.0
  0
LINE
  5
59A
  8
寸法線
 62
     0
 10
43.230761718700002
 20
92.428450520799984
 30
0.0
 11
43.230761718700002
 21
66.490950520799984
 31
0.0
  0
LINE
  5
59B
  8
寸法線
 62
     0
 10
24.7307617188
 20
67.490950520799998
 30
0.0
 11
20.2307617188
 21
67.490950520799998
 31
0.0
  0
LINE
  5
59C
  8
寸法線
 62
     0
 10
47.730761718700002
 20
67.490950520799998
 30
0.0
 11
52.230761718700002
 21
67.490950520799998
 31
0.0
  0
SOLID
  5
59D
  8
寸法線
 62
     0
 10
24.7307617188
 20
68.240950520799998
 30
0.0
 11
24.7307617188
 21
66.740950520799998
 31
0.0
 12
29.2307617188
 22
67.490950520799998
 32
0.0
 13
29.2307617188
 23
67.490950520799998
 33
0.0
  0
SOLID
  5
59E
  8
寸法線
 62
     0
 10
47.730761718700002
 20
68.240950520799998
 30
0.0
 11
47.730761718700002
 21
66.740950520799998
 31
0.0
 12
43.230761718700002
 22
67.490950520799998
 32
0.0
 13
43.230761718700002
 23
67.490950520799998
 33
0.0
  0
INSERT
  5
59F
  8
0
  6
CONTINUOUS
  2
*U149
 10
0.0
 20
0.0
 30
0.0
  0
POINT
  5
5A0
  8
DEFPOINTS
 62
     0
 10
29.2307617188
 20
82.490950520799984
 30
0.0
  0
POINT
  5
5A1
  8
DEFPOINTS
 62
     0
 10
43.230761718700002
 20
92.490950520799984
 30
0.0
  0
POINT
  5
5A2
  8
DEFPOINTS
 62
     0
 10
43.230761718700002
 20
67.490950520799998
 30
0.0
  0
ENDBLK
  5
4F0
  8
0
  0
BLOCK
  8
0
  2
*D43
 70
     1
 10
0.0
 20
0.0
 30
0.0
  3
*D43
  1

  0
LINE
  5
5A3
  8
寸法線
 62
     0
 10
43.230761718700002
 20
92.428450520799984
 30
0.0
 11
43.230761718700002
 21
66.490950520799984
 31
0.0
  0
LINE
  5
5A4
  8
寸法線
 62
     0
 10
54.230761718799997
 20
82.428450520799984
 30
0.0
 11
54.230761718799997
 21
66.490950520799984
 31
0.0
  0
LINE
  5
5A5
  8
寸法線
 62
     0
 10
38.730761718700002
 20
67.490950520799998
 30
0.0
 11
34.230761718700002
 21
67.490950520799998
 31
0.0
  0
LINE
  5
5A6
  8
寸法線
 62
     0
 10
58.730761718800011
 20
67.490950520799998
 30
0.0
 11
63.230761718799997
 21
67.490950520799998
 31
0.0
  0
SOLID
  5
5A7
  8
寸法線
 62
     0
 10
38.730761718700002
 20
68.240950520799998
 30
0.0
 11
38.730761718700002
 21
66.740950520799998
 31
0.0
 12
43.230761718700002
 22
67.490950520799998
 32
0.0
 13
43.230761718700002
 23
67.490950520799998
 33
0.0
  0
SOLID
  5
5A8
  8
寸法線
 62
     0
 10
58.730761718800011
 20
68.240950520799998
 30
0.0
 11
58.730761718800011
 21
66.740950520799998
 31
0.0
 12
54.230761718799997
 22
67.490950520799998
 32
0.0
 13
54.230761718799997
 23
67.490950520799998
 33
0.0
  0
INSERT
  5
5A9
  8
0
  6
CONTINUOUS
  2
*U150
 10
0.0
 20
0.0
 30
0.0
  0
POINT
  5
5AA
  8
DEFPOINTS
 62
     0
 10
43.230761718700002
 20
92.490950520799984
 30
0.0
  0
POINT
  5
5AB
  8
DEFPOINTS
 62
     0
 10
54.230761718799997
 20
82.490950520799984
 30
0.0
  0
POINT
  5
5AC
  8
DEFPOINTS
 62
     0
 10
54.230761718799997
 20
67.490950520799998
 30
0.0
  0
ENDBLK
  5
4FD
  8
0
  0
BLOCK
  8
0
  2
*D44
 70
     1
 10
0.0
 20
0.0
 30
0.0
  3
*D44
  1

  0
LINE
  5
5BB
  8
0
 62
     4
 10
-127.73583984379999
 20
112.4909505208
 30
0.0
 11
-139.28670039934451
 21
112.4909505208
 31
0.0
  0
LINE
  5
5BC
  8
0
 62
     4
 10
-131.52528738839999
 20
97.490950520800013
 30
0.0
 11
-139.28670039934451
 21
97.490950520800013
 31
0.0
  0
LINE
  5
5BD
  8
0
 62
     4
 10
-137.28670039934451
 20
109.9909505208
 30
0.0
 11
-137.28670039934451
 21
99.990950520800013
 31
0.0
  0
SOLID
  5
5BE
  8
0
 62
     4
 10
-137.7033670660112
 20
109.9909505208
 30
0.0
 11
-136.87003373267791
 21
109.9909505208
 31
0.0
 12
-137.28670039934451
 22
112.4909505208
 32
0.0
 13
-137.28670039934451
 23
112.4909505208
 33
0.0
  0
SOLID
  5
5BF
  8
0
 62
     4
 10
-137.7033670660112
 20
99.990950520800013
 30
0.0
 11
-136.87003373267791
 21
99.990950520800013
 31
0.0
 12
-137.28670039934451
 22
97.490950520800013
 32
0.0
 13
-137.28670039934451
 23
97.490950520800013
 33
0.0
  0
INSERT
  5
5C0
  8
0
  6
CONTINUOUS
  2
*U151
 10
0.0
 20
0.0
 30
0.0
  0
POINT
  5
5C1
  8
DEFPOINTS
 62
     0
 10
-125.23583984379999
 20
112.4909505208
 30
0.0
  0
POINT
  5
5C2
  8
DEFPOINTS
 62
     0
 10
-129.02528738839999
 20
97.490950520800013
 30
0.0
  0
POINT
  5
5C3
  8
DEFPOINTS
 62
     0
 10
-137.28670039934451
 20
97.490950520800013
 30
0.0
  0
ENDBLK
  5
5BA
  8
0
  0
BLOCK
  8
0
  2
*D45
 70
     1
 10
0.0
 20
0.0
 30
0.0
  3
*D45
  1

  0
LINE
  5
5C6
  8
0
  6
CONTINUOUS
 62
     4
 10
-131.52528738839999
 20
97.490950520800013
 30
0.0
 11
-139.28670039934451
 21
97.490950520800013
 31
0.0
  0
LINE
  5
5C7
  8
0
  6
CONTINUOUS
 62
     4
 10
-127.73583984379999
 20
82.490950520799984
 30
0.0
 11
-139.28670039934451
 21
82.490950520799984
 31
0.0
  0
LINE
  5
5C8
  8
0
  6
CONTINUOUS
 62
     4
 10
-137.28670039934451
 20
94.990950520799984
 30
0.0
 11
-137.28670039934451
 21
84.990950520799984
 31
0.0
  0
SOLID
  5
5C9
  8
0
  6
CONTINUOUS
 62
     4
 10
-137.7033670660112
 20
94.990950520799984
 30
0.0
 11
-136.87003373267791
 21
94.990950520799984
 31
0.0
 12
-137.28670039934451
 22
97.490950520800013
 32
0.0
 13
-137.28670039934451
 23
97.490950520800013
 33
0.0
  0
SOLID
  5
5CA
  8
0
  6
CONTINUOUS
 62
     4
 10
-137.7033670660112
 20
84.990950520799984
 30
0.0
 11
-136.87003373267791
 21
84.990950520799984
 31
0.0
 12
-137.28670039934451
 22
82.490950520799984
 32
0.0
 13
-137.28670039934451
 23
82.490950520799984
 33
0.0
  0
INSERT
  5
5CB
  8
0
  6
CONTINUOUS
  2
*U152
 10
0.0
 20
0.0
 30
0.0
  0
POINT
  5
5CC
  8
DEFPOINTS
  6
CONTINUOUS
 62
     0
 10
-129.02528738839999
 20
97.490950520800013
 30
0.0
  0
POINT
  5
5CD
  8
DEFPOINTS
  6
CONTINUOUS
 62
     0
 10
-125.23583984379999
 20
82.490950520799984
 30
0.0
  0
POINT
  5
5CE
  8
DEFPOINTS
  6
CONTINUOUS
 62
     0
 10
-137.28670039934451
 20
82.490950520799984
 30
0.0
  0
ENDBLK
  5
5D0
  8
0
  0
BLOCK
  8
0
  2
*D46
 70
     1
 10
0.0
 20
0.0
 30
0.0
  3
*D46
  1

  0
LINE
  5
5D3
  8
0
  6
CONTINUOUS
 62
     4
 10
-130.23583984379999
 20
82.490950520799984
 30
0.0
 11
-150.38087666566341
 21
82.490950520799984
 31
0.0
  0
LINE
  5
5D4
  8
0
  6
CONTINUOUS
 62
     4
 10
-130.23583984379999
 20
112.4909505208
 30
0.0
 11
-150.38087666566341
 21
112.4909505208
 31
0.0
  0
LINE
  5
5D5
  8
0
  6
CONTINUOUS
 62
     4
 10
-148.38087666566341
 20
84.990950520799984
 30
0.0
 11
-148.38087666566341
 21
109.9909505208
 31
0.0
  0
SOLID
  5
5D6
  8
0
  6
CONTINUOUS
 62
     4
 10
-148.79754333233009
 20
84.990950520799984
 30
0.0
 11
-147.96420999899669
 21
84.990950520799984
 31
0.0
 12
-148.38087666566341
 22
82.490950520799984
 32
0.0
 13
-148.38087666566341
 23
82.490950520799984
 33
0.0
  0
SOLID
  5
5D7
  8
0
  6
CONTINUOUS
 62
     4
 10
-148.79754333233009
 20
109.9909505208
 30
0.0
 11
-147.96420999899669
 21
109.9909505208
 31
0.0
 12
-148.38087666566341
 22
112.4909505208
 32
0.0
 13
-148.38087666566341
 23
112.4909505208
 33
0.0
  0
INSERT
  5
5D8
  8
0
  6
CONTINUOUS
  2
*U153
 10
0.0
 20
0.0
 30
0.0
  0
POINT
  5
5D9
  8
DEFPOINTS
  6
CONTINUOUS
 62
     0
 10
-127.73583984379999
 20
82.490950520799984
 30
0.0
  0
POINT
  5
5DA
  8
DEFPOINTS
  6
CONTINUOUS
 62
     0
 10
-127.73583984379999
 20
112.4909505208
 30
0.0
  0
POINT
  5
5DB
  8
DEFPOINTS
  6
CONTINUOUS
 62
     0
 10
-148.38087666566341
 20
112.4909505208
 30
0.0
  0
ENDBLK
  5
5DD
  8
0
  0
BLOCK
  8
0
  2
*D47
 70
     1
 10
0.0
 20
0.0
 30
0.0
  3
*D47
  1

  0
LINE
  5
5E0
  8
0
  6
CONTINUOUS
 62
     4
 10
-125.23583984379999
 20
79.990950520799998
 30
0.0
 11
-125.23583984379999
 21
60.546877484018182
 31
0.0
  0
LINE
  5
5E1
  8
0
  6
CONTINUOUS
 62
     4
 10
-114.23583984379999
 20
89.990950520799984
 30
0.0
 11
-114.23583984379999
 21
60.546877484018182
 31
0.0
  0
LINE
  5
5E2
  8
0
  6
CONTINUOUS
 62
     4
 10
-122.73583984379999
 20
62.546877484018182
 30
0.0
 11
-116.73583984379999
 21
62.546877484018182
 31
0.0
  0
SOLID
  5
5E3
  8
0
  6
CONTINUOUS
 62
     4
 10
-122.73583984379999
 20
62.963544150684847
 30
0.0
 11
-122.73583984379999
 21
62.130210817351518
 31
0.0
 12
-125.23583984379999
 22
62.546877484018182
 32
0.0
 13
-125.23583984379999
 23
62.546877484018182
 33
0.0
  0
SOLID
  5
5E4
  8
0
  6
CONTINUOUS
 62
     4
 10
-116.73583984379999
 20
62.963544150684847
 30
0.0
 11
-116.73583984379999
 21
62.130210817351518
 31
0.0
 12
-114.23583984379999
 22
62.546877484018182
 32
0.0
 13
-114.23583984379999
 23
62.546877484018182
 33
0.0
  0
INSERT
  5
5E5
  8
0
  6
CONTINUOUS
  2
*U154
 10
0.0
 20
0.0
 30
0.0
  0
POINT
  5
5E6
  8
DEFPOINTS
  6
CONTINUOUS
 62
     0
 10
-125.23583984379999
 20
82.490950520799984
 30
0.0
  0
POINT
  5
5E7
  8
DEFPOINTS
  6
CONTINUOUS
 62
     0
 10
-114.23583984379999
 20
92.490950520799984
 30
0.0
  0
POINT
  5
5E8
  8
DEFPOINTS
  6
CONTINUOUS
 62
     0
 10
-114.23583984379999
 20
62.546877484018182
 30
0.0
  0
ENDBLK
  5
5EA
  8
0
  0
BLOCK
  8
0
  2
*D48
 70
     1
 10
0.0
 20
0.0
 30
0.0
  3
*D48
  1

  0
LINE
  5
5ED
  8
0
  6
CONTINUOUS
 62
     4
 10
-114.23583984379999
 20
87.490950520799984
 30
0.0
 11
-114.23583984379999
 21
60.546877484018182
 31
0.0
  0
LINE
  5
5EE
  8
0
  6
CONTINUOUS
 62
     4
 10
-100.23583984379999
 20
80.990950520799998
 30
0.0
 11
-100.23583984379999
 21
60.546877484018182
 31
0.0
  0
LINE
  5
5EF
  8
0
  6
CONTINUOUS
 62
     4
 10
-111.73583984379999
 20
62.546877484018182
 30
0.0
 11
-102.73583984379999
 21
62.546877484018182
 31
0.0
  0
SOLID
  5
5F0
  8
0
  6
CONTINUOUS
 62
     4
 10
-111.73583984379999
 20
62.963544150684847
 30
0.0
 11
-111.73583984379999
 21
62.130210817351518
 31
0.0
 12
-114.23583984379999
 22
62.546877484018182
 32
0.0
 13
-114.23583984379999
 23
62.546877484018182
 33
0.0
  0
SOLID
  5
5F1
  8
0
  6
CONTINUOUS
 62
     4
 10
-102.73583984379999
 20
62.963544150684847
 30
0.0
 11
-102.73583984379999
 21
62.130210817351518
 31
0.0
 12
-100.23583984379999
 22
62.546877484018182
 32
0.0
 13
-100.23583984379999
 23
62.546877484018182
 33
0.0
  0
INSERT
  5
5F2
  8
0
  6
CONTINUOUS
  2
*U155
 10
0.0
 20
0.0
 30
0.0
  0
POINT
  5
5F3
  8
DEFPOINTS
  6
CONTINUOUS
 62
     0
 10
-114.23583984379999
 20
89.990950520799984
 30
0.0
  0
POINT
  5
5F4
  8
DEFPOINTS
  6
CONTINUOUS
 62
     0
 10
-100.23583984379999
 20
83.490950520799998
 30
0.0
  0
POINT
  5
5F5
  8
DEFPOINTS
  6
CONTINUOUS
 62
     0
 10
-100.23583984379999
 20
62.546877484018182
 30
0.0
  0
ENDBLK
  5
5F7
  8
0
  0
BLOCK
  8
0
  2
*D49
 70
     1
 10
0.0
 20
0.0
 30
0.0
  3
*D49
  1

  0
LINE
  5
5FA
  8
0
  6
CONTINUOUS
 62
     4
 10
-100.23583984379999
 20
80.990950520799998
 30
0.0
 11
-100.23583984379999
 21
60.546877484018182
 31
0.0
  0
LINE
  5
5FB
  8
0
  6
CONTINUOUS
 62
     4
 10
-90.235839843799994
 20
94.990950520799984
 30
0.0
 11
-90.235839843799994
 21
60.546877484018182
 31
0.0
  0
LINE
  5
5FC
  8
0
  6
CONTINUOUS
 62
     4
 10
-97.735839843799994
 20
62.546877484018182
 30
0.0
 11
-92.735839843799994
 21
62.546877484018182
 31
0.0
  0
SOLID
  5
5FD
  8
0
  6
CONTINUOUS
 62
     4
 10
-97.735839843799994
 20
62.963544150684847
 30
0.0
 11
-97.735839843799994
 21
62.130210817351518
 31
0.0
 12
-100.23583984379999
 22
62.546877484018182
 32
0.0
 13
-100.23583984379999
 23
62.546877484018182
 33
0.0
  0
SOLID
  5
5FE
  8
0
  6
CONTINUOUS
 62
     4
 10
-92.735839843799994
 20
62.963544150684847
 30
0.0
 11
-92.735839843799994
 21
62.130210817351518
 31
0.0
 12
-90.235839843799994
 22
62.546877484018182
 32
0.0
 13
-90.235839843799994
 23
62.546877484018182
 33
0.0
  0
INSERT
  5
5FF
  8
0
  6
CONTINUOUS
  2
*U156
 10
0.0
 20
0.0
 30
0.0
  0
POINT
  5
600
  8
DEFPOINTS
  6
CONTINUOUS
 62
     0
 10
-100.23583984379999
 20
83.490950520799998
 30
0.0
  0
POINT
  5
601
  8
DEFPOINTS
  6
CONTINUOUS
 62
     0
 10
-90.235839843799994
 20
97.490950520800013
 30
0.0
  0
POINT
  5
602
  8
DEFPOINTS
  6
CONTINUOUS
 62
     0
 10
-90.235839843799994
 20
62.546877484018182
 30
0.0
  0
ENDBLK
  5
604
  8
0
  0
BLOCK
  8
0
  2
*D50
 70
     1
 10
0.0
 20
0.0
 30
0.0
  3
*D50
  1

  0
LINE
  5
607
  8
0
  6
CONTINUOUS
 62
     4
 10
-91.341962930400015
 20
82.490950520799984
 30
0.0
 11
-68.845972994402587
 21
82.490950520799984
 31
0.0
  0
LINE
  5
608
  8
0
  6
CONTINUOUS
 62
     4
 10
-92.735839843799994
 20
88.490950520799998
 30
0.0
 11
-68.845972994402587
 21
88.490950520799998
 31
0.0
  0
LINE
  5
609
  8
0
  6
CONTINUOUS
 62
     4
 10
-70.845972994402587
 20
79.990950520799998
 30
0.0
 11
-70.845972994402587
 21
77.490950520799998
 31
0.0
  0
LINE
  5
60A
  8
0
  6
CONTINUOUS
 62
     4
 10
-70.845972994402587
 20
90.990950520799998
 30
0.0
 11
-70.845972994402587
 21
93.490950520799998
 31
0.0
  0
LINE
  5
60B
  8
0
  6
CONTINUOUS
 62
     4
 10
-70.845972994402587
 20
82.490950520799984
 30
0.0
 11
-70.845972994402587
 21
88.490950520799998
 31
0.0
  0
SOLID
  5
60C
  8
0
  6
CONTINUOUS
 62
     4
 10
-71.262639661069244
 20
79.990950520799998
 30
0.0
 11
-70.429306327735915
 21
79.990950520799998
 31
0.0
 12
-70.845972994402587
 22
82.490950520799984
 32
0.0
 13
-70.845972994402587
 23
82.490950520799984
 33
0.0
  0
SOLID
  5
60D
  8
0
  6
CONTINUOUS
 62
     4
 10
-71.262639661069244
 20
90.990950520799998
 30
0.0
 11
-70.429306327735915
 21
90.990950520799998
 31
0.0
 12
-70.845972994402587
 22
88.490950520799998
 32
0.0
 13
-70.845972994402587
 23
88.490950520799998
 33
0.0
  0
INSERT
  5
60E
  8
0
  6
CONTINUOUS
  2
*U157
 10
0.0
 20
0.0
 30
0.0
  0
POINT
  5
60F
  8
DEFPOINTS
  6
CONTINUOUS
 62
     0
 10
-93.841962930400015
 20
82.490950520799984
 30
0.0
  0
POINT
  5
610
  8
DEFPOINTS
  6
CONTINUOUS
 62
     0
 10
-95.235839843799994
 20
88.490950520799998
 30
0.0
  0
POINT
  5
611
  8
DEFPOINTS
  6
CONTINUOUS
 62
     0
 10
-70.845972994402587
 20
88.490950520799998
 30
0.0
  0
ENDBLK
  5
613
  8
0
  0
BLOCK
  8
0
  2
*D51
 70
     1
 10
0.0
 20
0.0
 30
0.0
  3
*D51
  1

  0
LINE
  5
616
  8
0
  6
CONTINUOUS
 62
     4
 10
-92.735839843799994
 20
88.490950520799998
 30
0.0
 11
-68.845972994402587
 21
88.490950520799998
 31
0.0
  0
LINE
  5
617
  8
0
  6
CONTINUOUS
 62
     4
 10
-92.735839843799994
 20
106.4909505208
 30
0.0
 11
-68.845972994402572
 21
106.4909505208
 31
0.0
  0
LINE
  5
618
  8
0
  6
CONTINUOUS
 62
     4
 10
-70.845972994402587
 20
90.990950520799998
 30
0.0
 11
-70.845972994402572
 21
103.9909505208
 31
0.0
  0
SOLID
  5
619
  8
0
  6
CONTINUOUS
 62
     4
 10
-71.262639661069244
 20
90.990950520799998
 30
0.0
 11
-70.429306327735915
 21
90.990950520799998
 31
0.0
 12
-70.845972994402587
 22
88.490950520799998
 32
0.0
 13
-70.845972994402587
 23
88.490950520799998
 33
0.0
  0
SOLID
  5
61A
  8
0
  6
CONTINUOUS
 62
     4
 10
-71.262639661069244
 20
103.9909505208
 30
0.0
 11
-70.429306327735901
 21
103.9909505208
 31
0.0
 12
-70.845972994402572
 22
106.4909505208
 32
0.0
 13
-70.845972994402572
 23
106.4909505208
 33
0.0
  0
INSERT
  5
61B
  8
0
  6
CONTINUOUS
  2
*U158
 10
0.0
 20
0.0
 30
0.0
  0
POINT
  5
61C
  8
DEFPOINTS
  6
CONTINUOUS
 62
     0
 10
-95.235839843799994
 20
88.490950520799998
 30
0.0
  0
POINT
  5
61D
  8
DEFPOINTS
  6
CONTINUOUS
 62
     0
 10
-95.235839843799994
 20
106.4909505208
 30
0.0
  0
POINT
  5
61E
  8
DEFPOINTS
  6
CONTINUOUS
 62
     0
 10
-70.845972994402572
 20
106.4909505208
 30
0.0
  0
ENDBLK
  5
620
  8
0
  0
BLOCK
  8
0
  2
*D52
 70
     1
 10
0.0
 20
0.0
 30
0.0
  3
*D52
  1

  0
LINE
  5
623
  8
0
  6
CONTINUOUS
 62
     4
 10
-92.735839843799994
 20
106.4909505208
 30
0.0
 11
-68.845972994402572
 21
106.4909505208
 31
0.0
  0
LINE
  5
624
  8
0
  6
CONTINUOUS
 62
     4
 10
-91.341962930398637
 20
112.4909505207937
 30
0.0
 11
-68.845972994402572
 21
112.4909505207937
 31
0.0
  0
LINE
  5
625
  8
0
  6
CONTINUOUS
 62
     4
 10
-70.845972994402572
 20
103.9909505208
 30
0.0
 11
-70.845972994402572
 21
101.4909505208
 31
0.0
  0
LINE
  5
626
  8
0
  6
CONTINUOUS
 62
     4
 10
-70.845972994402572
 20
114.9909505207937
 30
0.0
 11
-70.845972994402572
 21
117.4909505207937
 31
0.0
  0
LINE
  5
627
  8
0
  6
CONTINUOUS
 62
     4
 10
-70.845972994402572
 20
106.4909505208
 30
0.0
 11
-70.845972994402572
 21
112.4909505207937
 31
0.0
  0
SOLID
  5
628
  8
0
  6
CONTINUOUS
 62
     4
 10
-71.262639661069244
 20
103.9909505208
 30
0.0
 11
-70.429306327735901
 21
103.9909505208
 31
0.0
 12
-70.845972994402572
 22
106.4909505208
 32
0.0
 13
-70.845972994402572
 23
106.4909505208
 33
0.0
  0
SOLID
  5
629
  8
0
  6
CONTINUOUS
 62
     4
 10
-71.262639661069244
 20
114.9909505207937
 30
0.0
 11
-70.429306327735901
 21
114.9909505207937
 31
0.0
 12
-70.845972994402572
 22
112.4909505207937
 32
0.0
 13
-70.845972994402572
 23
112.4909505207937
 33
0.0
  0
INSERT
  5
62A
  8
0
  6
CONTINUOUS
  2
*U159
 10
0.0
 20
0.0
 30
0.0
  0
POINT
  5
62B
  8
DEFPOINTS
  6
CONTINUOUS
 62
     0
 10
-95.235839843799994
 20
106.4909505208
 30
0.0
  0
POINT
  5
62C
  8
DEFPOINTS
  6
CONTINUOUS
 62
     0
 10
-93.841962930398637
 20
112.4909505207937
 30
0.0
  0
POINT
  5
62D
  8
DEFPOINTS
  6
CONTINUOUS
 62
     0
 10
-70.845972994402572
 20
112.4909505207937
 30
0.0
  0
ENDBLK
  5
62F
  8
0
  0
BLOCK
  8
0
  2
*D53
 70
     1
 10
0.0
 20
0.0
 30
0.0
  3
*D53
  1

  0
LINE
  5
632
  8
0
  6
CONTINUOUS
 62
     4
 10
19.2307617188
 20
94.990950520799984
 30
0.0
 11
19.2307617188
 21
61.765656455149042
 31
0.0
  0
LINE
  5
633
  8
0
  6
CONTINUOUS
 62
     4
 10
29.2307617188
 20
80.990950520799998
 30
0.0
 11
29.2307617188
 21
61.765656455149042
 31
0.0
  0
LINE
  5
634
  8
0
  6
CONTINUOUS
 62
     4
 10
21.7307617188
 20
63.765656455149042
 30
0.0
 11
26.7307617188
 21
63.765656455149042
 31
0.0
  0
SOLID
  5
635
  8
0
  6
CONTINUOUS
 62
     4
 10
21.7307617188
 20
64.182323121815713
 30
0.0
 11
21.7307617188
 21
63.34898978848237
 31
0.0
 12
19.2307617188
 22
63.765656455149042
 32
0.0
 13
19.2307617188
 23
63.765656455149042
 33
0.0
  0
SOLID
  5
636
  8
0
  6
CONTINUOUS
 62
     4
 10
26.7307617188
 20
64.182323121815713
 30
0.0
 11
26.7307617188
 21
63.34898978848237
 31
0.0
 12
29.2307617188
 22
63.765656455149042
 32
0.0
 13
29.2307617188
 23
63.765656455149042
 33
0.0
  0
INSERT
  5
637
  8
0
  6
CONTINUOUS
  2
*U160
 10
0.0
 20
0.0
 30
0.0
  0
POINT
  5
638
  8
DEFPOINTS
  6
CONTINUOUS
 62
     0
 10
19.2307617188
 20
97.490950520800013
 30
0.0
  0
POINT
  5
639
  8
DEFPOINTS
  6
CONTINUOUS
 62
     0
 10
29.2307617188
 20
83.490950520799998
 30
0.0
  0
POINT
  5
63A
  8
DEFPOINTS
  6
CONTINUOUS
 62
     0
 10
29.2307617188
 20
63.765656455149042
 30
0.0
  0
ENDBLK
  5
63C
  8
0
  0
BLOCK
  8
0
  2
*D54
 70
     1
 10
0.0
 20
0.0
 30
0.0
  3
*D54
  1

  0
LINE
  5
63F
  8
0
  6
CONTINUOUS
 62
     4
 10
29.2307617188
 20
80.990950520799998
 30
0.0
 11
29.2307617188
 21
61.765656455149042
 31
0.0
  0
LINE
  5
640
  8
0
  6
CONTINUOUS
 62
     4
 10
43.230761718700002
 20
89.990950520799984
 30
0.0
 11
43.230761718700002
 21
61.765656455149042
 31
0.0
  0
LINE
  5
641
  8
0
  6
CONTINUOUS
 62
     4
 10
31.7307617188
 20
63.765656455149042
 30
0.0
 11
40.730761718700002
 21
63.765656455149042
 31
0.0
  0
SOLID
  5
642
  8
0
  6
CONTINUOUS
 62
     4
 10
31.7307617188
 20
64.182323121815713
 30
0.0
 11
31.7307617188
 21
63.34898978848237
 31
0.0
 12
29.2307617188
 22
63.765656455149042
 32
0.0
 13
29.2307617188
 23
63.765656455149042
 33
0.0
  0
SOLID
  5
643
  8
0
  6
CONTINUOUS
 62
     4
 10
40.730761718700002
 20
64.182323121815713
 30
0.0
 11
40.730761718700002
 21
63.34898978848237
 31
0.0
 12
43.230761718700002
 22
63.765656455149042
 32
0.0
 13
43.230761718700002
 23
63.765656455149042
 33
0.0
  0
INSERT
  5
644
  8
0
  6
CONTINUOUS
  2
*U161
 10
0.0
 20
0.0
 30
0.0
  0
POINT
  5
645
  8
DEFPOINTS
  6
CONTINUOUS
 62
     0
 10
29.2307617188
 20
83.490950520799998
 30
0.0
  0
POINT
  5
646
  8
DEFPOINTS
  6
CONTINUOUS
 62
     0
 10
43.230761718700002
 20
92.490950520799984
 30
0.0
  0
POINT
  5
647
  8
DEFPOINTS
  6
CONTINUOUS
 62
     0
 10
43.230761718700002
 20
63.765656455149042
 30
0.0
  0
ENDBLK
  5
649
  8
0
  0
BLOCK
  8
0
  2
*D55
 70
     1
 10
0.0
 20
0.0
 30
0.0
  3
*D55
  1

  0
LINE
  5
64C
  8
0
  6
CONTINUOUS
 62
     4
 10
43.230761718700002
 20
87.490950520799984
 30
0.0
 11
43.230761718700002
 21
61.765656455149042
 31
0.0
  0
LINE
  5
64D
  8
0
  6
CONTINUOUS
 62
     4
 10
54.230761718799997
 20
79.990950520799998
 30
0.0
 11
54.230761718799997
 21
61.765656455149042
 31
0.0
  0
LINE
  5
64E
  8
0
  6
CONTINUOUS
 62
     4
 10
45.730761718700002
 20
63.765656455149042
 30
0.0
 11
51.730761718799997
 21
63.765656455149042
 31
0.0
  0
SOLID
  5
64F
  8
0
  6
CONTINUOUS
 62
     4
 10
45.730761718700002
 20
64.182323121815713
 30
0.0
 11
45.730761718700002
 21
63.34898978848237
 31
0.0
 12
43.230761718700002
 22
63.765656455149042
 32
0.0
 13
43.230761718700002
 23
63.765656455149042
 33
0.0
  0
SOLID
  5
650
  8
0
  6
CONTINUOUS
 62
     4
 10
51.730761718799997
 20
64.182323121815713
 30
0.0
 11
51.730761718799997
 21
63.34898978848237
 31
0.0
 12
54.230761718799997
 22
63.765656455149042
 32
0.0
 13
54.230761718799997
 23
63.765656455149042
 33
0.0
  0
INSERT
  5
651
  8
0
  6
CONTINUOUS
  2
*U162
 10
0.0
 20
0.0
 30
0.0
  0
POINT
  5
652
  8
DEFPOINTS
  6
CONTINUOUS
 62
     0
 10
43.230761718700002
 20
89.990950520799984
 30
0.0
  0
POINT
  5
653
  8
DEFPOINTS
  6
CONTINUOUS
 62
     0
 10
54.230761718799997
 20
82.490950520799984
 30
0.0
  0
POINT
  5
654
  8
DEFPOINTS
  6
CONTINUOUS
 62
     0
 10
54.230761718799997
 20
63.765656455149042
 30
0.0
  0
ENDBLK
  5
656
  8
0
  0
BLOCK
  8
0
  2
*D56
 70
     1
 10
0.0
 20
0.0
 30
0.0
  3
*D56
  1

  0
LINE
  5
6FD
  8
0
  6
CONTINUOUS
 62
     4
 10
-125.23583984379999
 20
13.1750651042
 30
0.0
 11
-125.23583984379999
 21
26.93250590715115
 31
0.0
  0
LINE
  5
6FE
  8
0
  6
CONTINUOUS
 62
     4
 10
-122.23583984379999
 20
13.1750651042
 30
0.0
 11
-122.23583984379999
 21
26.93250590715115
 31
0.0
  0
LINE
  5
6FF
  8
0
  6
CONTINUOUS
 62
     4
 10
-127.73583984379999
 20
24.93250590715116
 30
0.0
 11
-130.23583984379999
 21
24.93250590715116
 31
0.0
  0
LINE
  5
700
  8
0
  6
CONTINUOUS
 62
     4
 10
-119.73583984379999
 20
24.93250590715116
 30
0.0
 11
-112.3381125710727
 21
24.93250590715116
 31
0.0
  0
LINE
  5
701
  8
0
  6
CONTINUOUS
 62
     4
 10
-125.23583984379999
 20
24.93250590715116
 30
0.0
 11
-122.23583984379999
 21
24.93250590715116
 31
0.0
  0
SOLID
  5
702
  8
0
  6
CONTINUOUS
 62
     4
 10
-127.73583984379999
 20
25.349172573817821
 30
0.0
 11
-127.73583984379999
 21
24.515839240484489
 31
0.0
 12
-125.23583984379999
 22
24.93250590715116
 32
0.0
 13
-125.23583984379999
 23
24.93250590715116
 33
0.0
  0
SOLID
  5
703
  8
0
  6
CONTINUOUS
 62
     4
 10
-119.73583984379999
 20
25.349172573817821
 30
0.0
 11
-119.73583984379999
 21
24.515839240484489
 31
0.0
 12
-122.23583984379999
 22
24.93250590715116
 32
0.0
 13
-122.23583984379999
 23
24.93250590715116
 33
0.0
  0
INSERT
  5
704
  8
0
  6
CONTINUOUS
  2
*U165
 10
0.0
 20
0.0
 30
0.0
  0
POINT
  5
705
  8
DEFPOINTS
  6
CONTINUOUS
 62
     0
 10
-125.23583984379999
 20
10.6750651042
 30
0.0
  0
POINT
  5
706
  8
DEFPOINTS
  6
CONTINUOUS
 62
     0
 10
-122.23583984379999
 20
10.6750651042
 30
0.0
  0
POINT
  5
707
  8
DEFPOINTS
  6
CONTINUOUS
 62
     0
 10
-122.23583984379999
 20
24.93250590715116
 30
0.0
  0
ENDBLK
  5
665
  8
0
  0
BLOCK
  8
0
  2
*D57
 70
     1
 10
0.0
 20
0.0
 30
0.0
  3
*D57
  1

  0
LINE
  5
680
  8
0
  6
CONTINUOUS
 62
     4
 10
-127.73583984379999
 20
10.6750651042
 30
0.0
 11
-150.38087666566341
 21
10.6750651042
 31
0.0
  0
LINE
  5
681
  8
0
  6
CONTINUOUS
 62
     4
 10
-122.73583984379999
 20
-24.324934895799998
 30
0.0
 11
-150.38087666566341
 21
-24.324934895799991
 31
0.0
  0
LINE
  5
682
  8
0
  6
CONTINUOUS
 62
     4
 10
-148.38087666566341
 20
8.1750651042000069
 30
0.0
 11
-148.38087666566341
 21
-21.824934895799998
 31
0.0
  0
SOLID
  5
683
  8
0
  6
CONTINUOUS
 62
     4
 10
-148.79754333233009
 20
8.1750651042000069
 30
0.0
 11
-147.96420999899669
 21
8.1750651042000051
 31
0.0
 12
-148.38087666566341
 22
10.6750651042
 32
0.0
 13
-148.38087666566341
 23
10.6750651042
 33
0.0
  0
SOLID
  5
684
  8
0
  6
CONTINUOUS
 62
     4
 10
-148.79754333233009
 20
-21.824934895799998
 30
0.0
 11
-147.96420999899669
 21
-21.824934895799998
 31
0.0
 12
-148.38087666566341
 22
-24.324934895799998
 32
0.0
 13
-148.38087666566341
 23
-24.324934895799998
 33
0.0
  0
INSERT
  5
685
  8
0
  6
CONTINUOUS
  2
*U163
 10
0.0
 20
0.0
 30
0.0
  0
POINT
  5
686
  8
DEFPOINTS
  6
CONTINUOUS
 62
     0
 10
-125.23583984379999
 20
10.6750651042
 30
0.0
  0
POINT
  5
687
  8
DEFPOINTS
  6
CONTINUOUS
 62
     0
 10
-120.23583984379999
 20
-24.324934895799998
 30
0.0
  0
POINT
  5
688
  8
DEFPOINTS
  6
CONTINUOUS
 62
     0
 10
-148.38087666566341
 20
-24.324934895799998
 30
0.0
  0
ENDBLK
  5
672
  8
0
  0
BLOCK
  8
0
  2
*D58
 70
     1
 10
0.0
 20
0.0
 30
0.0
  3
*D58
  1

  0
LINE
  5
689
  8
0
  6
CONTINUOUS
 62
     4
 10
-125.23583984379999
 20
-21.824934895799998
 30
0.0
 11
-125.23583984379999
 21
-48.127873392480183
 31
0.0
  0
LINE
  5
68A
  8
0
  6
CONTINUOUS
 62
     4
 10
-90.235839843799994
 20
-26.824934895799998
 30
0.0
 11
-90.235839843799994
 21
-48.127873392480183
 31
0.0
  0
LINE
  5
68B
  8
0
  6
CONTINUOUS
 62
     4
 10
-122.73583984379999
 20
-46.127873392480183
 30
0.0
 11
-92.735839843799994
 21
-46.127873392480183
 31
0.0
  0
SOLID
  5
68C
  8
0
  6
CONTINUOUS
 62
     4
 10
-122.73583984379999
 20
-45.711206725813518
 30
0.0
 11
-122.73583984379999
 21
-46.544540059146847
 31
0.0
 12
-125.23583984379999
 22
-46.127873392480183
 32
0.0
 13
-125.23583984379999
 23
-46.127873392480183
 33
0.0
  0
SOLID
  5
68D
  8
0
  6
CONTINUOUS
 62
     4
 10
-92.735839843799994
 20
-45.711206725813518
 30
0.0
 11
-92.735839843799994
 21
-46.544540059146847
 31
0.0
 12
-90.235839843799994
 22
-46.127873392480183
 32
0.0
 13
-90.235839843799994
 23
-46.127873392480183
 33
0.0
  0
INSERT
  5
68E
  8
0
  6
CONTINUOUS
  2
*U164
 10
0.0
 20
0.0
 30
0.0
  0
POINT
  5
68F
  8
DEFPOINTS
  6
CONTINUOUS
 62
     0
 10
-125.23583984379999
 20
-19.324934895799998
 30
0.0
  0
POINT
  5
690
  8
DEFPOINTS
  6
CONTINUOUS
 62
     0
 10
-90.235839843799994
 20
-24.324934895799998
 30
0.0
  0
POINT
  5
691
  8
DEFPOINTS
  6
CONTINUOUS
 62
     0
 10
-90.235839843799994
 20
-46.127873392480183
 30
0.0
  0
ENDBLK
  5
67F
  8
0
  0
BLOCK
  8
0
  2
*D59
 70
     1
 10
0.0
 20
0.0
 30
0.0
  3
*D59
  1

  0
LINE
  5
8DA
  8
0
 62
     4
 10
-91.806453705503117
 20
-21.32493489580003
 30
0.0
 11
-98.827212054141043
 21
-21.32493489580003
 31
0.0
  0
LINE
  5
8DB
  8
0
 62
     4
 10
-122.23583984379989
 20
9.1044512424966921
 30
0.0
 11
-122.23583984379989
 21
2.0836928938589732
 31
0.0
  0
ARC
  5
8DC
  8
0
 62
     4
 10
-122.23583984379999
 20
-21.324934895799991
 30
0.0
 40
25.408627789658961
 50
5.6397099383106326
 51
84.360290061689042
  0
SOLID
  5
8DD
  8
0
 62
     4
 10
-96.534039627940004
 20
-18.807463736158571
 30
0.0
 11
-97.366363918969739
 21
-18.848460309263182
 31
0.0
 12
-96.827212054141057
 22
-21.32493489580003
 32
0.0
 13
-96.827212054141057
 23
-21.32493489580003
 33
0.0
  0
SOLID
  5
8DE
  8
0
 62
     4
 10
-119.759365257263
 20
3.5445410290302561
 30
0.0
 11
-119.71836868415841
 21
4.3768653200599772
 31
0.0
 12
-122.23583984379989
 22
4.0836928938589656
 32
0.0
 13
-122.23583984379989
 23
4.0836928938589656
 33
0.0
  0
TEXT
  8
0
  40
5
  5
B19
  62
4
  72
0
  71
0
 10
-111.794
 20
-9.73345
 30
0.000000
  1
90°
  7
ゴシック
  0
POINT
  5
8E0
  8
DEFPOINTS
 62
     0
 10
-122.23583984379999
 20
-21.324934895799991
 30
0.0
  0
POINT
  5
8E1
  8
DEFPOINTS
 62
     0
 10
-89.306453705503117
 20
-21.324934895800041
 30
0.0
  0
POINT
  5
8E2
  8
DEFPOINTS
 62
     0
 10
-122.23583984379979
 20
11.60445124249671
 30
0.0
  0
POINT
  5
8E3
  8
DEFPOINTS
 62
     0
 10
-100.23132270265199
 20
-8.6206210009705657
 30
0.0
  0
ENDBLK
  5
69F
  8
0
  0
BLOCK
  8
0
  2
*D60
 70
     1
 10
0.0
 20
0.0
 30
0.0
  3
*D60
  1

  0
LINE
  5
70A
  8
0
  6
CONTINUOUS
 62
     4
 10
-63.39215710993588
 20
124.23683191609911
 30
0.0
 11
-90.82548607719751
 21
111.9760797478271
 31
0.0
  0
INSERT
  5
70B
  8
0
  6
CONTINUOUS
  2
*U166
 10
0.0
 20
0.0
 30
0.0
  0
LINE
  5
70C
  8
0
  6
CONTINUOUS
 62
     4
 10
-123.23583984379999
 20
97.490950520800084
 30
0.0
 11
-93.107905356535724
 21
110.95600022479709
 31
0.0
  0
SOLID
  5
70D
  8
0
  6
CONTINUOUS
 62
     4
 10
-90.995499331035859
 20
112.3564829610502
 30
0.0
 11
-90.655472823359162
 21
111.5956765346041
 31
0.0
 12
-93.107905356535724
 22
110.95600022479709
 32
0.0
 13
-93.107905356535724
 23
110.95600022479709
 33
0.0
  0
POINT
  5
70E
  8
DEFPOINTS
  6
CONTINUOUS
 62
     0
 10
-93.107905356535724
 20
110.95600022479709
 30
0.0
  0
POINT
  5
70F
  8
DEFPOINTS
  6
CONTINUOUS
 62
     0
 10
-123.23583984379999
 20
97.490950520800084
 30
0.0
  0
ENDBLK
  5
711
  8
0
  0
BLOCK
  8
0
  2
*D61
 70
     1
 10
0.0
 20
0.0
 30
0.0
  3
*D61
  1

  0
LINE
  5
721
  8
0
  6
CONTINUOUS
 62
     4
 10
6.9354451941886941
 20
120.6056199422778
 30
0.0
 11
20.610075948322748
 21
113.6273141571569
 31
0.0
  0
INSERT
  5
722
  8
0
  6
CONTINUOUS
  2
*U167
 10
0.0
 20
0.0
 30
0.0
  0
LINE
  5
723
  8
0
  6
CONTINUOUS
 62
     4
 10
52.230761718800089
 20
97.490950520800084
 30
0.0
 11
22.836884805398618
 21
112.4909505207937
 31
0.0
  0
SOLID
  5
724
  8
0
  6
CONTINUOUS
 62
     4
 10
20.799469887716612
 20
113.9984489666695
 30
0.0
 11
20.420682008928889
 21
113.25617934764421
 31
0.0
 12
22.836884805398618
 22
112.4909505207937
 32
0.0
 13
22.836884805398618
 23
112.4909505207937
 33
0.0
  0
POINT
  5
725
  8
DEFPOINTS
  6
CONTINUOUS
 62
     0
 10
22.836884805398618
 20
112.4909505207937
 30
0.0
  0
POINT
  5
726
  8
DEFPOINTS
  6
CONTINUOUS
 62
     0
 10
52.230761718800089
 20
97.490950520800084
 30
0.0
  0
ENDBLK
  5
71A
  8
0
  0
BLOCK
  8
0
  2
*U62
 70
     1
 10
0.0
 20
0.0
 30
0.0
  3
*U62
  1

  0
TEXT
  5
735
  8
ﾚｲﾔ_10
  6
CONTINUOUS
 10
-113.6591767059289
 20
123.4760569621
 30
0.0
 40
4.4979165315999996
  1
ＨＬ
  0
ENDBLK
  5
737
  8
0
  0
BLOCK
  8
0
  2
*U63
 70
     1
 10
0.0
 20
0.0
 30
0.0
  3
*U63
  1

  0
TEXT
  5
739
  8
ﾚｲﾔ_10
  6
CONTINUOUS
 10
54.59488448403502
 20
-51.024742605421828
 30
0.0
 40
4.4979165315999996
  1
皿モミ部拡大図
  0
ENDBLK
  5
73B
  8
0
  0
BLOCK
  8
0
  2
*U64
 70
     1
 10
0.0
 20
0.0
 30
0.0
  3
*U64
  1

  0
TEXT
  5
73D
  8
図枠
  6
CONTINUOUS
 10
72.868991353051271
 20
-89.934551064999994
 30
0.0
 40
3.5062500000000001
  1
1：1.5
  0
ENDBLK
  5
73F
  8
0
  0
BLOCK
  8
0
  2
*U65
 70
     1
 10
0.0
 20
0.0
 30
0.0
  3
*U65
  1

  0
TEXT
  5
741
  8
図枠
  6
CONTINUOUS
 10
42.397338434269543
 20
-83.630743958401013
 30
0.0
 40
3.5062500000000001
  1
日 　付
  0
ENDBLK
  5
743
  8
0
  0
BLOCK
  8
0
  2
*U66
 70
     1
 10
0.0
 20
0.0
 30
0.0
  3
*U66
  1

  0
TEXT
  5
745
  8
図枠
  6
CONTINUOUS
 10
39.060171711183251
 20
-60.252005967181717
 30
0.0
 40
4.207499939199999
  1
材　　質
  0
ENDBLK
  5
747
  8
0
  0
BLOCK
  8
0
  2
*U67
 70
     1
 10
0.0
 20
0.0
 30
0.0
  3
*U67
  1

  0
TEXT
  5
749
  8
図枠
  6
CONTINUOUS
 10
39.017455975759901
 20
-68.544721702605074
 30
0.0
 40
4.207499939199999
  1
表面処理
  0
ENDBLK
  5
74B
  8
0
  0
BLOCK
  8
0
  2
*U68
 70
     1
 10
0.0
 20
0.0
 30
0.0
  3
*U68
  1

  0
TEXT
  5
74D
  8
図枠
  6
CONTINUOUS
 10
39.12424531431828
 20
-76.880153173451774
 30
0.0
 40
4.207499939199999
  1
一般公差
  0
ENDBLK
  5
74F
  8
0
  0
BLOCK
  8
0
  2
*U69
 70
     1
 10
0.0
 20
0.0
 30
0.0
  3
*U69
  1

  0
TEXT
  5
751
  8
図枠
  6
CONTINUOUS
 10
56.813946936807611
 20
-96.505331521852796
 30
0.0
 40
3.5062500000000001
  1
白須賀
  0
ENDBLK
  5
753
  8
0
  0
BLOCK
  8
0
  2
*U70
 70
     1
 10
0.0
 20
0.0
 30
0.0
  3
*U70
  1

  0
TEXT
  5
755
  8
図枠
  6
CONTINUOUS
 10
90.5954323759467
 20
-76.837437438028417
 30
0.0
 40
4.207499939199999
  1
指定無き公差はJIS 0408-Bによること
  0
ENDBLK
  5
757
  8
0
  0
BLOCK
  8
0
  2
*U71
 70
     1
 10
0.0
 20
0.0
 30
0.0
  3
*U71
  1

  0
TEXT
  5
759
  8
図枠
  6
CONTINUOUS
 10
34.7925002363
 20
-96.451936851802031
 30
0.0
 40
3.5062500000000001
  1
 設計
  0
ENDBLK
  5
75B
  8
0
  0
BLOCK
  8
0
  2
*U72
 70
     1
 10
0.0
 20
0.0
 30
0.0
  3
*U72
  1

  0
TEXT
  5
75D
  8
図枠
  6
CONTINUOUS
 10
125.1287629266553
 20
-83.429233187502533
 30
0.0
 40
3.5062500000000001
  1
製品名
  0
ENDBLK
  5
75F
  8
0
  0
BLOCK
  8
0
  2
*U73
 70
     1
 10
0.0
 20
0.0
 30
0.0
  3
*U73
  1

  0
TEXT
  5
761
  8
図枠
  6
CONTINUOUS
 10
79.7925002363
 20
-96.469735075152286
 30
0.0
 40
3.5062500000000001
  1
 照査
  0
ENDBLK
  5
763
  8
0
  0
BLOCK
  8
0
  2
*U74
 70
     1
 10
0.0
 20
0.0
 30
0.0
  3
*U74
  1

  0
TEXT
  5
765
  8
図枠
  6
CONTINUOUS
 10
36.894689322594417
 20
-102.8625332985025
 30
0.0
 40
3.5062500000000001
  1
製図
  0
ENDBLK
  5
767
  8
0
  0
BLOCK
  8
0
  2
*U75
 70
     1
 10
0.0
 20
0.0
 30
0.0
  3
*U75
  1

  0
TEXT
  5
769
  8
図枠
  6
CONTINUOUS
 10
102.88184033782279
 20
-102.7735421817512
 30
0.0
 40
3.5062500000000001
  1
園 原
  0
ENDBLK
  5
76B
  8
0
  0
BLOCK
  8
0
  2
*U76
 70
     1
 10
0.0
 20
0.0
 30
0.0
  3
*U76
  1

  0
TEXT
  5
76D
  8
図枠
  6
CONTINUOUS
 10
146.22172293716599
 20
-100.06174574004871
 30
0.0
 40
4.4979165315999996
  1
LS-104 35x35 承認図
  0
ENDBLK
  5
76F
  8
0
  0
BLOCK
  8
0
  2
*U77
 70
     1
 10
0.0
 20
0.0
 30
0.0
  3
*U77
  1

  0
TEXT
  5
771
  8
図枠
  6
CONTINUOUS
 10
57.864042114472582
 20
-102.89812974520299
 30
0.0
 40
3.5062500000000001
  1
岸 本
  0
ENDBLK
  5
773
  8
0
  0
BLOCK
  8
0
  2
*U78
 70
     1
 10
0.0
 20
0.0
 30
0.0
  3
*U78
  1

  0
TEXT
  5
775
  8
図枠
  6
CONTINUOUS
 10
125.22665315508171
 20
-96.143636740802023
 30
0.0
 40
3.5062500000000001
  1
図面名
  0
ENDBLK
  5
777
  8
0
  0
BLOCK
  8
0
  2
*U79
 70
     1
 10
0.0
 20
0.0
 30
0.0
  3
*U79
  1

  0
TEXT
  5
779
  8
図枠
  6
CONTINUOUS
 10
125.20885493173139
 20
-108.8580402941015
 30
0.0
 40
3.5062500000000001
  1
図　番
  0
ENDBLK
  5
77B
  8
0
  0
BLOCK
  8
0
  2
*U80
 70
     1
 10
0.0
 20
0.0
 30
0.0
  3
*U80
  1

  0
TEXT
  5
77D
  8
図枠
  6
CONTINUOUS
 10
79.402647627488804
 20
-60.017917485599988
 30
0.0
 40
4.4979165315999996
  1
SUS304-HL
  0
ENDBLK
  5
77F
  8
0
  0
BLOCK
  8
0
  2
*U81
 70
     1
 10
0.0
 20
0.0
 30
0.0
  3
*U81
  1

  0
TEXT
  5
781
  8
図枠
  6
CONTINUOUS
 10
44.070371429193401
 20
-89.934551064999994
 30
0.0
 40
3.5062500000000001
  1
H16.4
  0
ENDBLK
  5
783
  8
0
  0
BLOCK
  8
0
  2
*U82
 70
     1
 10
0.0
 20
0.0
 30
0.0
  3
*U82
  1

  0
TEXT
  5
785
  8
図枠
  6
CONTINUOUS
 10
171.79564752281371
 20
-60.365000893199998
 30
0.0
 40
4.8449999392
  1
3.0t
  0
ENDBLK
  5
787
  8
0
  0
BLOCK
  8
0
  2
*U83
 70
     1
 10
0.0
 20
0.0
 30
0.0
  3
*U83
  1

  0
TEXT
  5
789
  8
図枠
  6
CONTINUOUS
 10
150.77671962779641
 20
-112.7204174856
 30
0.0
 40
4.4979165315999996
  1
ＳＲＫ０００９６
  0
ENDBLK
  5
78B
  8
0
  0
BLOCK
  8
0
  2
*U84
 70
     1
 10
0.0
 20
0.0
 30
0.0
  3
*U84
  1

  0
TEXT
  5
78D
  8
図枠
  6
CONTINUOUS
 10
41.123330823400003
 20
-113.9236611311442
 30
0.0
 40
6.4769999026999994
  1
株式会社
  0
ENDBLK
  5
78F
  8
0
  0
BLOCK
  8
0
  2
*U85
 70
     1
 10
0.0
 20
0.0
 30
0.0
  3
*U85
  1

  0
TEXT
  5
791
  8
図枠
  6
CONTINUOUS
 10
148.15103231239539
 20
-87.677058757843653
 30
0.0
 40
4.4979165315999996
  1
Ｌ型アングルワイド
  0
ENDBLK
  5
793
  8
0
  0
BLOCK
  8
0
  2
*U86
 70
     1
 10
0.0
 20
0.0
 30
0.0
  3
*U86
  1

  0
TEXT
  5
795
  8
図枠
  6
CONTINUOUS
 10
102.88184033782279
 20
-96.398542181751267
 30
0.0
 40
3.5062500000000001
  1
園 原
  0
ENDBLK
  5
797
  8
0
  0
BLOCK
  8
0
  2
*U87
 70
     1
 10
0.0
 20
0.0
 30
0.0
  3
*U87
  1

  0
TEXT
  5
799
  8
図枠
  6
CONTINUOUS
 10
79.7925002363
 20
-102.8803315218528
 30
0.0
 40
3.5062500000000001
  1
 検図
  0
ENDBLK
  5
79B
  8
0
  0
BLOCK
  8
0
  2
*U88
 70
     1
 10
0.0
 20
0.0
 30
0.0
  3
*U88
  1

  0
TEXT
  5
79D
  8
図枠
  6
CONTINUOUS
 10
72.023575743914193
 20
-83.737533298502541
 30
0.0
 40
3.5062500000000001
  1
尺 　度
  0
ENDBLK
  5
79F
  8
0
  0
BLOCK
  8
0
  2
*U89
 70
     1
 10
0.0
 20
0.0
 30
0.0
  3
*U89
  1

  0
TEXT
  5
7A1
  8
図枠
  6
CONTINUOUS
 10
123.006777041904
 20
-60.337437438028417
 30
0.0
 40
4.207499939199999
  1
板　　厚
  0
ENDBLK
  5
7A3
  8
0
  0
BLOCK
  8
0
  2
*U90
 70
     1
 10
0.0
 20
0.0
 30
0.0
  3
*U90
  1

  0
TEXT
  5
7A5
  8
図枠
  6
CONTINUOUS
 10
178.79216722712229
 20
162.12888553120609
 30
0.0
 40
4.0481249392
  1
改訂者
  0
ENDBLK
  5
7A7
  8
0
  0
BLOCK
  8
0
  2
*U91
 70
     1
 10
0.0
 20
0.0
 30
0.0
  3
*U91
  1

  0
TEXT
  5
7A9
  8
図枠
  6
CONTINUOUS
 10
123.1889567264766
 20
162.12888553120609
 30
0.0
 40
4.0481249392
  1
改　訂　内　容
  0
ENDBLK
  5
7AB
  8
0
  0
BLOCK
  8
0
  2
*U92
 70
     1
 10
0.0
 20
0.0
 30
0.0
  3
*U92
  1

  0
TEXT
  5
7AD
  8
図枠
  6
CONTINUOUS
 10
68.727206847910153
 20
162.2110809614436
 30
0.0
 40
4.0481249392
  1
副番
  0
ENDBLK
  5
7AF
  8
0
  0
BLOCK
  8
0
  2
*U93
 70
     1
 10
0.0
 20
0.0
 30
0.0
  3
*U93
  1

  0
TEXT
  5
7B1
  8
図枠
  6
CONTINUOUS
 10
193.73052065444421
 20
162.1083366736467
 30
0.0
 40
4.0481249392
  1
検認者
  0
ENDBLK
  5
7B3
  8
0
  0
BLOCK
  8
0
  2
*U94
 70
     1
 10
0.0
 20
0.0
 30
0.0
  3
*U94
  1

  0
TEXT
  5
7B5
  8
図枠
  6
CONTINUOUS
 10
84.076404222748707
 20
162.1699832463249
 30
0.0
 40
4.0481249392
  1
改訂日
  0
ENDBLK
  5
7B7
  8
0
  0
BLOCK
  8
0
  2
*U95
 70
     1
 10
0.0
 20
0.0
 30
0.0
  3
*U95
  1

  0
TEXT
  5
7B9
  8
0
  6
CONTINUOUS
 62
     4
 10
69.016311943497413
 20
32.856222427386562
 30
0.0
 40
5.0
  1
90°
 50
358.18184992574533
  7
ゴシック
  0
ENDBLK
  5
7BB
  8
0
  0
BLOCK
  8
0
  2
*U96
 70
     1
 10
0.0
 20
0.0
 30
0.0
  3
*U96
  1

  0
TEXT
  5
7BD
  8
0
  6
CONTINUOUS
 62
     4
 10
67.263266140394364
 20
14.504795179161301
 30
0.0
 40
5.0
  1
φ7.5
  7
ゴシック
  0
ENDBLK
  5
7BF
  8
0
  0
BLOCK
  8
0
  2
*U97
 70
     1
 10
0.0
 20
0.0
 30
0.0
  3
*U97
  1

  0
TEXT
  5
7C1
  8
0
  6
CONTINUOUS
 62
     4
 10
66.422834884413817
 20
-39.681550647929861
 30
0.0
 40
5.0
  1
φ4.2
  7
ゴシック
  0
ENDBLK
  5
7C3
  8
0
  0
BLOCK
  8
0
  2
*U98
 70
     1
 10
0.0
 20
0.0
 30
0.0
  3
*U98
  1

  0
TEXT
  5
7CF
  8
0
  6
CONTINUOUS
 62
     4
 10
64.969092411552822
 20
-37.414628469146479
 30
0.0
 40
5.0
  1
φ4.2
  7
ゴシック
  0
ENDBLK
  5
7D1
  8
0
  0
BLOCK
  8
0
  2
*U99
 70
     1
 10
0.0
 20
0.0
 30
0.0
  3
*U99
  1

  0
TEXT
  5
7D3
  8
0
  6
CONTINUOUS
 62
     4
 10
65.809523667533355
 20
16.77171735794467
 30
0.0
 40
5.0
  1
φ7.5
  7
ゴシック
  0
ENDBLK
  5
7D5
  8
0
  0
BLOCK
  8
0
  2
*U100
 70
     1
 10
0.0
 20
0.0
 30
0.0
  3
*U100
  1

  0
TEXT
  5
7D7
  8
ﾚｲﾔ_10
  6
CONTINUOUS
 10
-113.6591767059289
 20
126.4760569621
 30
0.0
 40
4.4979165315999996
  1
ＨＬ
  0
ENDBLK
  5
7D9
  8
0
  0
BLOCK
  8
0
  2
*U101
 70
     1
 10
0.0
 20
0.0
 30
0.0
  3
*U101
  1

  0
TEXT
  5
7DB
  8
ﾚｲﾔ_10
  6
CONTINUOUS
 10
54.59488448403502
 20
-51.024742605421828
 30
0.0
 40
4.4979165315999996
  1
皿モミ部拡大図
  0
ENDBLK
  5
7DD
  8
0
  0
BLOCK
  8
0
  2
*U102
 70
     1
 10
0.0
 20
0.0
 30
0.0
  3
*U102
  1

  0
TEXT
  5
7DF
  8
図枠
  6
CONTINUOUS
 10
72.868991353051271
 20
-89.934551064999994
 30
0.0
 40
3.5062500000000001
  1
1：1.5
  0
ENDBLK
  5
7E1
  8
0
  0
BLOCK
  8
0
  2
*U103
 70
     1
 10
0.0
 20
0.0
 30
0.0
  3
*U103
  1

  0
TEXT
  5
7E3
  8
図枠
  6
CONTINUOUS
 10
42.397338434269543
 20
-83.630743958401013
 30
0.0
 40
3.5062500000000001
  1
日 　付
  0
ENDBLK
  5
7E5
  8
0
  0
BLOCK
  8
0
  2
*U104
 70
     1
 10
0.0
 20
0.0
 30
0.0
  3
*U104
  1

  0
TEXT
  5
7E7
  8
図枠
  6
CONTINUOUS
 10
39.060171711183251
 20
-60.252005967181717
 30
0.0
 40
4.207499939199999
  1
材　　質
  0
ENDBLK
  5
7E9
  8
0
  0
BLOCK
  8
0
  2
*U105
 70
     1
 10
0.0
 20
0.0
 30
0.0
  3
*U105
  1

  0
TEXT
  5
7EB
  8
図枠
  6
CONTINUOUS
 10
39.017455975759901
 20
-68.544721702605074
 30
0.0
 40
4.207499939199999
  1
表面処理
  0
ENDBLK
  5
7ED
  8
0
  0
BLOCK
  8
0
  2
*U106
 70
     1
 10
0.0
 20
0.0
 30
0.0
  3
*U106
  1

  0
TEXT
  5
7EF
  8
図枠
  6
CONTINUOUS
 10
39.12424531431828
 20
-76.880153173451774
 30
0.0
 40
4.207499939199999
  1
一般公差
  0
ENDBLK
  5
7F1
  8
0
  0
BLOCK
  8
0
  2
*U107
 70
     1
 10
0.0
 20
0.0
 30
0.0
  3
*U107
  1

  0
TEXT
  5
7F3
  8
図枠
  6
CONTINUOUS
 10
56.813946936807611
 20
-96.505331521852796
 30
0.0
 40
3.5062500000000001
  1
白須賀
  0
ENDBLK
  5
7F5
  8
0
  0
BLOCK
  8
0
  2
*U108
 70
     1
 10
0.0
 20
0.0
 30
0.0
  3
*U108
  1

  0
TEXT
  5
7F7
  8
図枠
  6
CONTINUOUS
 10
90.5954323759467
 20
-76.837437438028417
 30
0.0
 40
4.207499939199999
  1
指定無き公差はJIS 0408-Bによること
  0
ENDBLK
  5
7F9
  8
0
  0
BLOCK
  8
0
  2
*U109
 70
     1
 10
0.0
 20
0.0
 30
0.0
  3
*U109
  1

  0
TEXT
  5
7FB
  8
図枠
  6
CONTINUOUS
 10
34.7925002363
 20
-96.451936851802031
 30
0.0
 40
3.5062500000000001
  1
 設計
  0
ENDBLK
  5
7FD
  8
0
  0
BLOCK
  8
0
  2
*U110
 70
     1
 10
0.0
 20
0.0
 30
0.0
  3
*U110
  1

  0
TEXT
  5
7FF
  8
図枠
  6
CONTINUOUS
 10
125.1287629266553
 20
-83.429233187502533
 30
0.0
 40
3.5062500000000001
  1
製品名
  0
ENDBLK
  5
801
  8
0
  0
BLOCK
  8
0
  2
*U111
 70
     1
 10
0.0
 20
0.0
 30
0.0
  3
*U111
  1

  0
TEXT
  5
803
  8
図枠
  6
CONTINUOUS
 10
79.7925002363
 20
-96.469735075152286
 30
0.0
 40
3.5062500000000001
  1
 照査
  0
ENDBLK
  5
805
  8
0
  0
BLOCK
  8
0
  2
*U112
 70
     1
 10
0.0
 20
0.0
 30
0.0
  3
*U112
  1

  0
TEXT
  5
807
  8
図枠
  6
CONTINUOUS
 10
36.894689322594417
 20
-102.8625332985025
 30
0.0
 40
3.5062500000000001
  1
製図
  0
ENDBLK
  5
809
  8
0
  0
BLOCK
  8
0
  2
*U113
 70
     1
 10
0.0
 20
0.0
 30
0.0
  3
*U113
  1

  0
TEXT
  5
80B
  8
図枠
  6
CONTINUOUS
 10
102.88184033782279
 20
-102.7735421817512
 30
0.0
 40
3.5062500000000001
  1
園 原
  0
ENDBLK
  5
80D
  8
0
  0
BLOCK
  8
0
  2
*U114
 70
     1
 10
0.0
 20
0.0
 30
0.0
  3
*U114
  1

  0
TEXT
  5
80F
  8
図枠
  6
CONTINUOUS
 10
146.22172293716599
 20
-100.06174574004871
 30
0.0
 40
4.4979165315999996
  1
LS-104 35x35 承認図
  0
ENDBLK
  5
811
  8
0
  0
BLOCK
  8
0
  2
*U115
 70
     1
 10
0.0
 20
0.0
 30
0.0
  3
*U115
  1

  0
TEXT
  5
813
  8
図枠
  6
CONTINUOUS
 10
57.864042114472582
 20
-102.89812974520299
 30
0.0
 40
3.5062500000000001
  1
岸 本
  0
ENDBLK
  5
815
  8
0
  0
BLOCK
  8
0
  2
*U116
 70
     1
 10
0.0
 20
0.0
 30
0.0
  3
*U116
  1

  0
TEXT
  5
817
  8
図枠
  6
CONTINUOUS
 10
125.22665315508171
 20
-96.143636740802023
 30
0.0
 40
3.5062500000000001
  1
図面名
  0
ENDBLK
  5
819
  8
0
  0
BLOCK
  8
0
  2
*U117
 70
     1
 10
0.0
 20
0.0
 30
0.0
  3
*U117
  1

  0
TEXT
  5
81B
  8
図枠
  6
CONTINUOUS
 10
125.20885493173139
 20
-108.8580402941015
 30
0.0
 40
3.5062500000000001
  1
図　番
  0
ENDBLK
  5
81D
  8
0
  0
BLOCK
  8
0
  2
*U118
 70
     1
 10
0.0
 20
0.0
 30
0.0
  3
*U118
  1

  0
TEXT
  5
81F
  8
図枠
  6
CONTINUOUS
 10
79.402647627488804
 20
-60.017917485599988
 30
0.0
 40
4.4979165315999996
  1
SUS304-HL
  0
ENDBLK
  5
821
  8
0
  0
BLOCK
  8
0
  2
*U119
 70
     1
 10
0.0
 20
0.0
 30
0.0
  3
*U119
  1

  0
TEXT
  5
823
  8
図枠
  6
CONTINUOUS
 10
44.070371429193401
 20
-89.934551064999994
 30
0.0
 40
3.5062500000000001
  1
H16.4
  0
ENDBLK
  5
825
  8
0
  0
BLOCK
  8
0
  2
*U120
 70
     1
 10
0.0
 20
0.0
 30
0.0
  3
*U120
  1

  0
TEXT
  5
827
  8
図枠
  6
CONTINUOUS
 10
171.79564752281371
 20
-60.365000893199998
 30
0.0
 40
4.8449999392
  1
3.0t
  0
ENDBLK
  5
829
  8
0
  0
BLOCK
  8
0
  2
*U121
 70
     1
 10
0.0
 20
0.0
 30
0.0
  3
*U121
  1

  0
TEXT
  5
82B
  8
図枠
  6
CONTINUOUS
 10
150.77671962779641
 20
-112.7204174856
 30
0.0
 40
4.4979165315999996
  1
ＳＲＫ０００９６
  0
ENDBLK
  5
82D
  8
0
  0
BLOCK
  8
0
  2
*U122
 70
     1
 10
0.0
 20
0.0
 30
0.0
  3
*U122
  1

  0
TEXT
  5
82F
  8
図枠
  6
CONTINUOUS
 10
41.123330823400003
 20
-113.9236611311442
 30
0.0
 40
6.4769999026999994
  1
株式会社
  0
ENDBLK
  5
831
  8
0
  0
BLOCK
  8
0
  2
*U123
 70
     1
 10
0.0
 20
0.0
 30
0.0
  3
*U123
  1

  0
TEXT
  5
833
  8
図枠
  6
CONTINUOUS
 10
148.15103231239539
 20
-87.677058757843653
 30
0.0
 40
4.4979165315999996
  1
Ｌ型アングルワイド
  0
ENDBLK
  5
835
  8
0
  0
BLOCK
  8
0
  2
*U124
 70
     1
 10
0.0
 20
0.0
 30
0.0
  3
*U124
  1

  0
TEXT
  5
837
  8
図枠
  6
CONTINUOUS
 10
102.88184033782279
 20
-96.398542181751267
 30
0.0
 40
3.5062500000000001
  1
園 原
  0
ENDBLK
  5
839
  8
0
  0
BLOCK
  8
0
  2
*U125
 70
     1
 10
0.0
 20
0.0
 30
0.0
  3
*U125
  1

  0
TEXT
  5
83B
  8
図枠
  6
CONTINUOUS
 10
79.7925002363
 20
-102.8803315218528
 30
0.0
 40
3.5062500000000001
  1
 検図
  0
ENDBLK
  5
83D
  8
0
  0
BLOCK
  8
0
  2
*U126
 70
     1
 10
0.0
 20
0.0
 30
0.0
  3
*U126
  1

  0
TEXT
  5
83F
  8
図枠
  6
CONTINUOUS
 10
72.023575743914193
 20
-83.737533298502541
 30
0.0
 40
3.5062500000000001
  1
尺 　度
  0
ENDBLK
  5
841
  8
0
  0
BLOCK
  8
0
  2
*U127
 70
     1
 10
0.0
 20
0.0
 30
0.0
  3
*U127
  1

  0
TEXT
  5
843
  8
図枠
  6
CONTINUOUS
 10
123.006777041904
 20
-60.337437438028417
 30
0.0
 40
4.207499939199999
  1
板　　厚
  0
ENDBLK
  5
845
  8
0
  0
BLOCK
  8
0
  2
*U128
 70
     1
 10
0.0
 20
0.0
 30
0.0
  3
*U128
  1

  0
TEXT
  5
847
  8
図枠
  6
CONTINUOUS
 10
178.79216722712229
 20
162.12888553120609
 30
0.0
 40
4.0481249392
  1
改訂者
  0
ENDBLK
  5
849
  8
0
  0
BLOCK
  8
0
  2
*U129
 70
     1
 10
0.0
 20
0.0
 30
0.0
  3
*U129
  1

  0
TEXT
  5
84B
  8
図枠
  6
CONTINUOUS
 10
123.1889567264766
 20
162.12888553120609
 30
0.0
 40
4.0481249392
  1
改　訂　内　容
  0
ENDBLK
  5
84D
  8
0
  0
BLOCK
  8
0
  2
*U130
 70
     1
 10
0.0
 20
0.0
 30
0.0
  3
*U130
  1

  0
TEXT
  5
84F
  8
図枠
  6
CONTINUOUS
 10
68.727206847910153
 20
162.2110809614436
 30
0.0
 40
4.0481249392
  1
副番
  0
ENDBLK
  5
851
  8
0
  0
BLOCK
  8
0
  2
*U131
 70
     1
 10
0.0
 20
0.0
 30
0.0
  3
*U131
  1

  0
TEXT
  5
853
  8
図枠
  6
CONTINUOUS
 10
193.73052065444421
 20
162.1083366736467
 30
0.0
 40
4.0481249392
  1
検認者
  0
ENDBLK
  5
855
  8
0
  0
BLOCK
  8
0
  2
*U132
 70
     1
 10
0.0
 20
0.0
 30
0.0
  3
*U132
  1

  0
TEXT
  5
857
  8
図枠
  6
CONTINUOUS
 10
84.076404222748707
 20
162.1699832463249
 30
0.0
 40
4.0481249392
  1
改訂日
  0
ENDBLK
  5
859
  8
0
  0
BLOCK
  8
0
  2
*U133
 70
     1
 10
0.0
 20
0.0
 30
0.0
  3
*U133
  1

  0
TEXT
  5
85B
  8
寸法線
  6
CONTINUOUS
 62
     0
 10
-28.31141386707646
 20
116.7438685023636
 30
0.0
 40
4.4979165315999996
  1
R33
 50
344.99999999999909
  0
ENDBLK
  5
85D
  8
0
  0
BLOCK
  8
0
  2
*U134
 70
     1
 10
0.0
 20
0.0
 30
0.0
  3
*U134
  1

  0
TEXT
  5
85F
  8
寸法線
  6
CONTINUOUS
 62
     0
 10
-142.98688157800001
 20
-10.57319867213333
 30
0.0
 40
4.4979165315999996
  1
35
 50
90.0
  0
ENDBLK
  5
861
  8
0
  0
BLOCK
  8
0
  2
*U135
 70
     1
 10
0.0
 20
0.0
 30
0.0
  3
*U135
  1

  0
TEXT
  5
863
  8
寸法線
  6
CONTINUOUS
 62
     0
 10
-117.9919314983037
 20
-6.6498586051908672
 30
0.0
 40
4.4979165315999996
  1
90°
 50
317.34735435147923
  0
ENDBLK
  5
865
  8
0
  0
BLOCK
  8
0
  2
*U136
 70
     1
 10
0.0
 20
0.0
 30
0.0
  3
*U136
  1

  0
TEXT
  5
867
  8
寸法線
  6
CONTINUOUS
 62
     0
 10
-111.4841036201333
 20
-46.57389316159999
 30
0.0
 40
4.4979165315999996
  1
35
  0
ENDBLK
  5
869
  8
0
  0
BLOCK
  8
0
  2
*U137
 70
     1
 10
0.0
 20
0.0
 30
0.0
  3
*U137
  1

  0
TEXT
  5
86B
  8
寸法線
  6
CONTINUOUS
 62
     0
 10
-71.593004664600002
 20
70.402339499733316
 30
0.0
 40
4.4979165315999996
  1
6
 50
90.0
  0
ENDBLK
  5
86D
  8
0
  0
BLOCK
  8
0
  2
*U138
 70
     1
 10
0.0
 20
0.0
 30
0.0
  3
*U138
  1

  0
TEXT
  5
86F
  8
寸法線
  6
CONTINUOUS
 62
     0
 10
-41.995421569246119
 20
116.9309620669156
 30
0.0
 40
4.4979165315999996
  1
R33
 50
15.00000000000095
  0
ENDBLK
  5
871
  8
0
  0
BLOCK
  8
0
  2
*U139
 70
     1
 10
0.0
 20
0.0
 30
0.0
  3
*U139
  1

  0
TEXT
  5
873
  8
寸法線
  6
CONTINUOUS
 62
     0
 10
-110.2344508648666
 20
66.241992254999985
 30
0.0
 40
4.4979165315999996
  1
14
  0
ENDBLK
  5
875
  8
0
  0
BLOCK
  8
0
  2
*U140
 70
     1
 10
0.0
 20
0.0
 30
0.0
  3
*U140
  1

  0
TEXT
  5
877
  8
寸法線
  6
CONTINUOUS
 62
     0
 10
-141.7763291226
 20
101.9923394997333
 30
0.0
 40
4.4979165315999996
  1
15
 50
90.0
  0
ENDBLK
  5
879
  8
0
  0
BLOCK
  8
0
  2
*U141
 70
     1
 10
0.0
 20
0.0
 30
0.0
  3
*U141
  1

  0
TEXT
  5
87B
  8
寸法線
  6
CONTINUOUS
 62
     0
 10
-141.7763291226
 20
86.992339499733333
 30
0.0
 40
4.4979165315999996
  1
15
 50
90.0
  0
ENDBLK
  5
87D
  8
0
  0
BLOCK
  8
0
  2
*U142
 70
     1
 10
0.0
 20
0.0
 30
0.0
  3
*U142
  1

  0
TEXT
  5
87F
  8
寸法線
  6
CONTINUOUS
 62
     0
 10
-97.859624487233333
 20
66.241992254999985
 30
0.0
 40
4.4979165315999996
  1
10
  0
ENDBLK
  5
881
  8
0
  0
BLOCK
  8
0
  2
*U143
 70
     1
 10
0.0
 20
0.0
 30
0.0
  3
*U143
  1

  0
TEXT
  5
883
  8
寸法線
  6
CONTINUOUS
 62
     0
 10
-121.98479810960001
 20
66.241992254999985
 30
0.0
 40
4.4979165315999996
  1
11
  0
ENDBLK
  5
885
  8
0
  0
BLOCK
  8
0
  2
*U144
 70
     1
 10
0.0
 20
0.0
 30
0.0
  3
*U144
  1

  0
TEXT
  5
887
  8
寸法線
  6
CONTINUOUS
 62
     0
 10
-71.593004664600002
 20
94.492339499733333
 30
0.0
 40
4.4979165315999996
  1
18
 50
90.0
  0
ENDBLK
  5
889
  8
0
  0
BLOCK
  8
0
  2
*U145
 70
     1
 10
0.0
 20
0.0
 30
0.0
  3
*U145
  1

  0
TEXT
  5
88B
  8
寸法線
  6
CONTINUOUS
 62
     0
 10
-71.593004664600002
 20
121.5809505208
 30
0.0
 40
4.4979165315999996
  1
6
 50
90.0
  0
ENDBLK
  5
88D
  8
0
  0
BLOCK
  8
0
  2
*U146
 70
     1
 10
0.0
 20
0.0
 30
0.0
  3
*U146
  1

  0
TEXT
  5
88F
  8
寸法線
  6
CONTINUOUS
 62
     0
 10
-113.1458398438
 20
23.426106838399999
 30
0.0
 40
4.4979165315999996
  1
3t
  0
ENDBLK
  5
891
  8
0
  0
BLOCK
  8
0
  2
*U147
 70
     1
 10
0.0
 20
0.0
 30
0.0
  3
*U147
  1

  0
TEXT
  5
893
  8
寸法線
  6
CONTINUOUS
 62
     0
 10
-155.01897700789999
 20
94.117513122099979
 30
0.0
 40
4.4979165315999996
  1
30
 50
90.0
  0
ENDBLK
  5
895
  8
0
  0
BLOCK
  8
0
  2
*U148
 70
     1
 10
0.0
 20
0.0
 30
0.0
  3
*U148
  1

  0
TEXT
  5
897
  8
寸法線
  6
CONTINUOUS
 62
     0
 10
21.606977075366672
 20
65.241992255
 30
0.0
 40
4.4979165315999996
  1
10
  0
ENDBLK
  5
899
  8
0
  0
BLOCK
  8
0
  2
*U149
 70
     1
 10
0.0
 20
0.0
 30
0.0
  3
*U149
  1

  0
TEXT
  5
89B
  8
寸法線
  6
CONTINUOUS
 62
     0
 10
33.232150697733339
 20
65.241992255
 30
0.0
 40
4.4979165315999996
  1
14
  0
ENDBLK
  5
89D
  8
0
  0
BLOCK
  8
0
  2
*U150
 70
     1
 10
0.0
 20
0.0
 30
0.0
  3
*U150
  1

  0
TEXT
  5
89F
  8
寸法線
  6
CONTINUOUS
 62
     0
 10
46.481803453000012
 20
65.241992255
 30
0.0
 40
4.4979165315999996
  1
11
  0
ENDBLK
  5
8A1
  8
0
  0
BLOCK
  8
0
  2
*U151
 70
     1
 10
0.0
 20
0.0
 30
0.0
  3
*U151
  1

  0
TEXT
  5
8A3
  8
0
  6
CONTINUOUS
 62
     4
 10
-138.2867003993446
 20
101.1557232480727
 30
0.0
 40
5.0
  1
15
 50
90.0
  7
ゴシック
  0
ENDBLK
  5
8A5
  8
0
  0
BLOCK
  8
0
  2
*U152
 70
     1
 10
0.0
 20
0.0
 30
0.0
  3
*U152
  1

  0
TEXT
  5
8A7
  8
0
  6
CONTINUOUS
 62
     4
 10
-138.2867003993446
 20
86.155723248072718
 30
0.0
 40
5.0
  1
15
 50
90.0
  7
ゴシック
  0
ENDBLK
  5
8A9
  8
0
  0
BLOCK
  8
0
  2
*U153
 70
     1
 10
0.0
 20
0.0
 30
0.0
  3
*U153
  1

  0
TEXT
  5
8AB
  8
0
  6
CONTINUOUS
 62
     4
 10
-149.38087666566341
 20
93.797768702618157
 30
0.0
 40
5.0
  1
30
 50
90.0
  7
ゴシック
  0
ENDBLK
  5
8AD
  8
0
  0
BLOCK
  8
0
  2
*U154
 70
     1
 10
0.0
 20
0.0
 30
0.0
  3
*U154
  1

  0
TEXT
  5
8AF
  8
0
  6
CONTINUOUS
 62
     4
 10
-123.0739080256181
 20
63.546877484018182
 30
0.0
 40
5.0
  1
11
  7
ゴシック
  0
ENDBLK
  5
8B1
  8
0
  0
BLOCK
  8
0
  2
*U155
 70
     1
 10
0.0
 20
0.0
 30
0.0
  3
*U155
  1

  0
TEXT
  5
8B3
  8
0
  6
CONTINUOUS
 62
     4
 10
-111.14208984379999
 20
63.546877484018182
 30
0.0
 40
5.0
  1
14
  7
ゴシック
  0
ENDBLK
  5
8B5
  8
0
  0
BLOCK
  8
0
  2
*U156
 70
     1
 10
0.0
 20
0.0
 30
0.0
  3
*U156
  1

  0
TEXT
  5
8B7
  8
0
  6
CONTINUOUS
 62
     4
 10
-99.127885298345447
 20
63.546877484018182
 30
0.0
 40
5.0
  1
10
  7
ゴシック
  0
ENDBLK
  5
8B9
  8
0
  0
BLOCK
  8
0
  2
*U157
 70
     1
 10
0.0
 20
0.0
 30
0.0
  3
*U157
  1

  0
TEXT
  5
8BB
  8
0
  6
CONTINUOUS
 62
     4
 10
-71.845972994402601
 20
83.672768702618157
 30
0.0
 40
5.0
  1
6
 50
90.0
  7
ゴシック
  0
ENDBLK
  5
8BD
  8
0
  0
BLOCK
  8
0
  2
*U158
 70
     1
 10
0.0
 20
0.0
 30
0.0
  3
*U158
  1

  0
TEXT
  5
8BF
  8
0
  6
CONTINUOUS
 62
     4
 10
-71.845972994402601
 20
93.641518702618171
 30
0.0
 40
5.0
  1
18
 50
90.0
  7
ゴシック
  0
ENDBLK
  5
8C1
  8
0
  0
BLOCK
  8
0
  2
*U159
 70
     1
 10
0.0
 20
0.0
 30
0.0
  3
*U159
  1

  0
TEXT
  5
8C3
  8
0
  6
CONTINUOUS
 62
     4
 10
-71.845972994402601
 20
107.672768702615
 30
0.0
 40
5.0
  1
6
 50
90.0
  7
ゴシック
  0
ENDBLK
  5
8C5
  8
0
  0
BLOCK
  8
0
  2
*U160
 70
     1
 10
0.0
 20
0.0
 30
0.0
  3
*U160
  1

  0
TEXT
  5
8C7
  8
0
  6
CONTINUOUS
 62
     4
 10
20.33871626425455
 20
64.765656455149042
 30
0.0
 40
5.0
  1
10
  7
ゴシック
  0
ENDBLK
  5
8C9
  8
0
  0
BLOCK
  8
0
  2
*U161
 70
     1
 10
0.0
 20
0.0
 30
0.0
  3
*U161
  1

  0
TEXT
  5
8CB
  8
0
  6
CONTINUOUS
 62
     4
 10
32.32451171875001
 20
64.765656455149042
 30
0.0
 40
5.0
  1
14
  7
ゴシック
  0
ENDBLK
  5
8CD
  8
0
  0
BLOCK
  8
0
  2
*U162
 70
     1
 10
0.0
 20
0.0
 30
0.0
  3
*U162
  1

  0
TEXT
  5
8CF
  8
0
  6
CONTINUOUS
 62
     4
 10
45.392693536931823
 20
64.765656455149042
 30
0.0
 40
5.0
  1
11
  7
ゴシック
  0
ENDBLK
  5
8D1
  8
0
  0
BLOCK
  8
0
  2
*U163
 70
     1
 10
0.0
 20
0.0
 30
0.0
  3
*U163
  1

  0
TEXT
  5
8D3
  8
0
  6
CONTINUOUS
 62
     4
 10
-149.38087666566341
 20
-10.461298532163649
 30
0.0
 40
5.0
  1
35
 50
90.0
  7
ゴシック
  0
ENDBLK
  5
8D5
  8
0
  0
BLOCK
  8
0
  2
*U164
 70
     1
 10
0.0
 20
0.0
 30
0.0
  3
*U164
  1

  0
TEXT
  5
8D7
  8
0
  6
CONTINUOUS
 62
     4
 10
-111.37220348016361
 20
-45.127873392480183
 30
0.0
 40
5.0
  1
35
  7
ゴシック
  0
ENDBLK
  5
8D9
  8
0
  0
BLOCK
  8
0
  2
*U165
 70
     1
 10
0.0
 20
0.0
 30
0.0
  3
*U165
  1

  0
TEXT
  5
8E5
  8
0
  6
CONTINUOUS
 62
     4
 10
-116.60515802561819
 20
25.93250590715115
 30
0.0
 40
5.0
  1
3
  7
ゴシック
  0
ENDBLK
  5
8E7
  8
0
  0
BLOCK
  8
0
  2
*U166
 70
     1
 10
0.0
 20
0.0
 30
0.0
  3
*U166
  1

  0
TEXT
  5
8E9
  8
0
  6
CONTINUOUS
 62
     4
 10
-75.165599466943391
 20
120.070267275655
 30
0.0
 40
5.0
  1
R33
 50
24.081255960461689
  7
ゴシック
  0
ENDBLK
  5
8EB
  8
0
  0
BLOCK
  8
0
  2
*U167
 70
     1
 10
0.0
 20
0.0
 30
0.0
  3
*U167
  1

  0
TEXT
  5
8ED
  8
0
  6
CONTINUOUS
 62
     4
 10
7.7493166233984692
 20
121.31297571651319
 30
0.0
 40
5.0
  1
R33
 50
332.96430821060022
  7
ゴシック
  0
ENDBLK
  5
8EF
  8
0
  0
ENDSEC
  0
SECTION
  2
ENTITIES
  0
DIMENSION
  5
29E
  8
0
  2
*D23
 10
83.148220203857605
 20
-39.622014832782838
 30
0.0
 11
72.057160593371009
 21
-39.622014832782838
 31
0.0
 70
   128
  1
φ4.2
 13
63.148220203857697
 23
-19.470026741781759
 33
0.0
 14
83.148220203857605
 24
-19.470026741781759
 34
0.0
1001
ACAD
1000
DSTYLE
1002
{
1070
    40
1040
1.0
1002
}
  0
DIMENSION
  5
29F
  8
0
  2
*D24
 10
93.148220203857605
 20
14.56433099430831
 30
0.0
 11
72.897591849351556
 21
14.56433099430831
 31
0.0
 70
   128
  1
φ7.5
 13
53.148220203857591
 23
-4.3450267417817647
 33
0.0
 14
93.148220203857605
 24
-4.3450267417817647
 34
0.0
1001
ACAD
1000
DSTYLE
1002
{
1070
    40
1040
1.0
1002
}
  0
LINE
  5
2A0
  8
ﾚｲﾔ_1
  6
BORDER
 62
     3
 10
73.148220203857591
 20
-0.1575267417817656
 30
0.0
 11
73.148220203857591
 21
-23.907526741781769
 31
0.0
  0
LINE
  5
2A1
  8
ﾚｲﾔ_1
 62
     5
 10
93.148220203857605
 20
-4.4075267417817647
 30
0.0
 11
83.148220203857605
 21
-14.40752674178176
 31
0.0
  0
LINE
  5
2A2
  8
ﾚｲﾔ_1
 62
     5
 10
83.148220203857605
 20
-14.40752674178176
 30
0.0
 11
63.148220203857697
 21
-14.40752674178176
 31
0.0
  0
LINE
  5
2A3
  8
ﾚｲﾔ_1
 62
     5
 10
63.148220203857697
 20
-14.40752674178176
 30
0.0
 11
63.148220203857697
 21
-19.407526741781759
 31
0.0
  0
LINE
  5
2A4
  8
ﾚｲﾔ_1
 62
     5
 10
83.148220203857605
 20
-14.40752674178176
 30
0.0
 11
83.148220203857605
 21
-19.407526741781759
 31
0.0
  0
LINE
  5
2A5
  8
ﾚｲﾔ_1
 62
     5
 10
53.148220203857591
 20
-4.4075267417817647
 30
0.0
 11
63.148220203857697
 21
-14.40752674178176
 31
0.0
  0
LINE
  5
2A6
  8
ﾚｲﾔ_1
 62
     5
 10
42.663035018657631
 20
-4.4075267417817647
 30
0.0
 11
103.6334053890577
 21
-4.4075267417817647
 31
0.0
  0
LINE
  5
2A7
  8
ﾚｲﾔ_1
 62
     5
 10
42.663035018657631
 20
-19.407526741781759
 30
0.0
 11
103.6334053890577
 21
-19.407526741781759
 31
0.0
  0
DIMENSION
  5
2A8
  8
0
  2
*D25
 10
58.052991984670982
 20
31.928631924070778
 30
0.0
 11
74.998671501971089
 21
33.886594044166714
 31
0.0
 70
   133
 13
49.863627965157768
 23
-1.122934503081779
 33
0.0
 14
96.432812442557633
 24
-1.122934503081779
 34
0.0
 15
73.148220203857591
 25
-24.407526741781769
 35
0.0
1001
ACAD
1000
DSTYLE
1002
{
1070
   271
1070
     0
1070
    40
1040
1.0
1002
}
  0
LINE
  5
2EA
  8
ﾚｲﾔ_10
  6
STITCH
 10
-122.23583984379999
 20
-17.074934895799998
 30
0.0
 11
-123.8858398438
 21
-15.4249348958
 31
0.0
  0
ARC
  5
2EB
  8
ﾚｲﾔ_10
 62
     5
 10
-120.23583984379999
 20
-19.324934895799998
 30
0.0
 40
5.0
 50
180.0
 51
270.0
  0
ARC
  5
2EC
  8
ﾚｲﾔ_10
 62
     5
 10
-120.23583984379999
 20
-19.324934895799998
 30
0.0
 40
2.0
 50
180.0
 51
270.0
  0
LINE
  5
2ED
  8
ﾚｲﾔ_10
 10
-118.9653072774
 20
122.9239735414
 30
0.0
 11
-98.124281636299997
 21
122.9239735414
 31
0.0
  0
LINE
  5
2EE
  8
ﾚｲﾔ_10
 10
-118.9653072774
 20
123.9239735414
 30
0.0
 11
-98.124281636299997
 21
123.9239735414
 31
0.0
  0
LINE
  5
2EF
  8
ﾚｲﾔ_10
 10
-118.9653072774
 20
119.9239735414
 30
0.0
 11
-98.124281636299997
 21
119.9239735414
 31
0.0
  0
LINE
  5
2F1
  8
図枠
 62
     5
 10
-203.70749976370001
 20
167.75499904599999
 30
0.0
 11
208.79250023629999
 21
167.75499904599999
 31
0.0
  0
LINE
  5
2F2
  8
図枠
 62
     5
 10
-203.70749976370001
 20
-117.24500095400001
 30
0.0
 11
208.79250023629999
 21
-117.24500095400001
 31
0.0
  0
LINE
  5
2F3
  8
図枠
  6
DOT
 10
-212.70749976370001
 20
176.37999904599999
 30
0.0
 11
217.79250023629999
 21
176.37999904599999
 31
0.0
  0
LINE
  5
2F4
  8
図枠
  6
DOT
 10
-212.70749976370001
 20
-125.87000095400001
 30
0.0
 11
217.79250023629999
 21
-125.87000095400001
 31
0.0
  0
LINE
  5
2F5
  8
ﾚｲﾔ_10
  6
BORDER
 62
     3
 10
-118.80481119789999
 20
0.6750651042
 30
0.0
 11
-129.02528738839999
 21
0.6750651042
 31
0.0
  0
LINE
  5
2F6
  8
ﾚｲﾔ_10
  6
STITCH
 10
-123.8858398438
 20
-1.4249348958000001
 30
0.0
 11
-125.23583984379999
 21
-1.4249348958000001
 31
0.0
  0
LINE
  5
2F7
  8
ﾚｲﾔ_10
  6
STITCH
 10
-122.23583984379999
 20
-3.0749348957999989
 30
0.0
 11
-123.8858398438
 21
-1.4249348958000001
 31
0.0
  0
LINE
  5
2F8
  8
ﾚｲﾔ_10
 62
     5
 10
-122.23583984379999
 20
10.6750651042
 30
0.0
 11
-122.23583984379999
 21
-19.324934895799998
 31
0.0
  0
LINE
  5
2F9
  8
ﾚｲﾔ_10
 62
     5
 10
-125.23583984379999
 20
10.6750651042
 30
0.0
 11
-125.23583984379999
 21
-19.324934895799998
 31
0.0
  0
LINE
  5
2FA
  8
ﾚｲﾔ_10
  6
STITCH
 10
-123.8858398438
 20
2.7750651041999999
 30
0.0
 11
-123.8858398438
 21
-1.4249348958000001
 31
0.0
  0
LINE
  5
2FD
  8
図枠
 62
     5
 10
-203.70749976370001
 20
-117.24500095400001
 30
0.0
 11
-203.70749976370001
 21
167.75499904599999
 31
0.0
  0
LINE
  5
2FE
  8
図枠
  6
DOT
 10
-212.70299976370001
 20
-125.87000095400001
 30
0.0
 11
-212.70299976370001
 21
176.37999904599999
 31
0.0
  0
LINE
  5
2FF
  8
図枠
  6
DOT
 10
217.79250023629999
 20
-125.87000095400001
 30
0.0
 11
217.79250023629999
 21
176.37999904599999
 31
0.0
  0
LINE
  5
300
  8
図枠
 62
     5
 10
208.79250023629999
 20
-117.24500095400001
 30
0.0
 11
208.79250023629999
 21
167.75499904599999
 31
0.0
  0
LINE
  5
301
  8
ﾚｲﾔ_10
  6
STITCH
 10
-122.23583984379999
 20
-9.5749348958000002
 30
0.0
 11
-123.8858398438
 21
-11.224934895800001
 31
0.0
  0
LINE
  5
302
  8
ﾚｲﾔ_10
  6
STITCH
 10
-123.8858398438
 20
-11.224934895800001
 30
0.0
 11
-123.8858398438
 21
-15.4249348958
 31
0.0
  0
LINE
  5
303
  8
ﾚｲﾔ_10
  6
STITCH
 10
-123.8858398438
 20
-15.4249348958
 30
0.0
 11
-125.23583984379999
 21
-15.4249348958
 31
0.0
  0
LINE
  5
304
  8
ﾚｲﾔ_10
  6
STITCH
 10
-123.8858398438
 20
-11.224934895800001
 30
0.0
 11
-125.23583984379999
 21
-11.224934895800001
 31
0.0
  0
LINE
  5
305
  8
ﾚｲﾔ_10
  6
BORDER
 62
     3
 10
-118.80481119789999
 20
-13.3249348958
 30
0.0
 11
-129.02528738839999
 21
-13.3249348958
 31
0.0
  0
LINE
  5
306
  8
ﾚｲﾔ_10
  6
STITCH
 10
-123.8858398438
 20
95.390950520800004
 30
0.0
 11
-123.8858398438
 21
99.590950520800007
 31
0.0
  0
LINE
  5
307
  8
ﾚｲﾔ_10
  6
STITCH
 10
-122.23583984379999
 20
93.740950520799984
 30
0.0
 11
-123.8858398438
 21
95.390950520800004
 31
0.0
  0
LINE
  5
308
  8
ﾚｲﾔ_10
  6
STITCH
 10
-123.8858398438
 20
104.3909505208
 30
0.0
 11
-125.23583984379999
 21
104.3909505208
 31
0.0
  0
LINE
  5
309
  8
ﾚｲﾔ_10
  6
BORDER
 62
     3
 10
-114.23583984379999
 20
-17.893906250000001
 30
0.0
 11
-114.23583984379999
 21
-28.114382440499998
 31
0.0
  0
LINE
  5
30A
  8
ﾚｲﾔ_10
  6
STITCH
 10
-112.1358398438
 20
-22.974934895800001
 30
0.0
 11
-112.1358398438
 21
-24.324934895799998
 31
0.0
  0
LINE
  5
30B
  8
ﾚｲﾔ_10
  6
STITCH
 10
-116.3358398438
 20
-22.974934895800001
 30
0.0
 11
-116.3358398438
 21
-24.324934895799998
 31
0.0
  0
LINE
  5
30C
  8
ﾚｲﾔ_10
  6
STITCH
 10
-112.1358398438
 20
-22.974934895800001
 30
0.0
 11
-116.3358398438
 21
-22.974934895800001
 31
0.0
  0
LINE
  5
30D
  8
ﾚｲﾔ_10
  6
STITCH
 10
-110.48583984379999
 20
-21.324934895799998
 30
0.0
 11
-112.1358398438
 21
-22.974934895800001
 31
0.0
  0
LINE
  5
30E
  8
ﾚｲﾔ_10
  6
STITCH
 10
-117.98583984379999
 20
-21.324934895799998
 30
0.0
 11
-116.3358398438
 21
-22.974934895800001
 31
0.0
  0
LINE
  5
30F
  8
ﾚｲﾔ_10
 62
     5
 10
-90.235839843799994
 20
-24.324934895799998
 30
0.0
 11
-90.235839843799994
 21
-21.324934895799998
 31
0.0
  0
LINE
  5
310
  8
ﾚｲﾔ_10
 62
     5
 10
-93.845839843799979
 20
-24.324934895799998
 30
0.0
 11
-93.845839843799979
 21
-21.324934895799998
 31
0.0
  0
LINE
  5
311
  8
ﾚｲﾔ_10
  6
BORDER
 62
     3
 10
-100.23583984379999
 20
-17.893906250000001
 30
0.0
 11
-100.23583984379999
 21
-28.114382440499998
 31
0.0
  0
LINE
  5
312
  8
ﾚｲﾔ_10
  6
STITCH
 10
-98.135839843799985
 20
-22.974934895800001
 30
0.0
 11
-98.135839843799985
 21
-24.324934895799998
 31
0.0
  0
LINE
  5
313
  8
ﾚｲﾔ_10
  6
STITCH
 10
-102.3358398438
 20
-22.974934895800001
 30
0.0
 11
-102.3358398438
 21
-24.324934895799998
 31
0.0
  0
LINE
  5
314
  8
ﾚｲﾔ_10
  6
STITCH
 10
-98.135839843799985
 20
-22.974934895800001
 30
0.0
 11
-102.3358398438
 21
-22.974934895800001
 31
0.0
  0
LINE
  5
315
  8
ﾚｲﾔ_10
  6
STITCH
 10
-96.485839843799994
 20
-21.324934895799998
 30
0.0
 11
-98.135839843799985
 21
-22.974934895800001
 31
0.0
  0
LINE
  5
316
  8
ﾚｲﾔ_10
 62
     5
 10
-120.23583984379999
 20
-21.324934895799998
 30
0.0
 11
-90.235839843799994
 21
-21.324934895799998
 31
0.0
  0
LINE
  5
317
  8
ﾚｲﾔ_10
 62
     5
 10
-120.23583984379999
 20
-24.324934895799998
 30
0.0
 11
-90.235839843799994
 21
-24.324934895799998
 31
0.0
  0
LINE
  5
318
  8
ﾚｲﾔ_10
  6
STITCH
 10
-103.98583984379999
 20
-21.324934895799998
 30
0.0
 11
-102.3358398438
 21
-22.974934895800001
 31
0.0
  0
LINE
  5
31A
  8
ﾚｲﾔ_10
  6
STITCH
 10
-122.23583984379999
 20
4.4250651041999989
 30
0.0
 11
-123.8858398438
 21
2.7750651041999999
 31
0.0
  0
LINE
  5
31B
  8
ﾚｲﾔ_10
  6
STITCH
 10
-123.8858398438
 20
2.7750651041999999
 30
0.0
 11
-125.23583984379999
 21
2.7750651041999999
 31
0.0
  0
LINE
  5
31C
  8
ﾚｲﾔ_10
 10
-118.9653072774
 20
120.9239735414
 30
0.0
 11
-98.124281636299997
 21
120.9239735414
 31
0.0
  0
INSERT
  5
31D
  8
0
  6
CONTINUOUS
  2
*U100
 10
0.0
 20
0.0
 30
0.0
  0
LINE
  5
31E
  8
ﾚｲﾔ_10
 10
-118.9653072774
 20
121.9239735414
 30
0.0
 11
-98.124281636299997
 21
121.9239735414
 31
0.0
  0
INSERT
  5
321
  8
0
  6
CONTINUOUS
  2
*U101
 10
0.0
 20
0.0
 30
0.0
  0
ARC
  5
322
  8
ﾚｲﾔ_10
 62
     5
 10
-123.23583984379999
 20
97.490950520800013
 30
0.0
 40
33.0
 50
332.9643082106
 51
27.035691789400001
  0
LINE
  5
323
  8
ﾚｲﾔ_10
  6
BORDER
 62
     3
 10
-105.23583984379999
 20
106.4909505208
 30
0.0
 11
-95.235839843799994
 21
106.4909505208
 31
0.0
  0
LINE
  5
324
  8
ﾚｲﾔ_10
  6
BORDER
 62
     3
 10
-100.23583984379999
 20
111.4909505208
 30
0.0
 11
-100.23583984379999
 21
101.4909505208
 31
0.0
  0
CIRCLE
  5
325
  8
ﾚｲﾔ_10
 62
     5
 10
-100.23583984379999
 20
106.4909505208
 30
0.0
 40
3.75
  0
CIRCLE
  5
326
  8
ﾚｲﾔ_10
 62
     5
 10
-100.23583984379999
 20
106.4909505208
 30
0.0
 40
2.1000000000000001
  0
CIRCLE
  5
327
  8
ﾚｲﾔ_10
 62
     5
 10
-100.23583984379999
 20
88.490950520799998
 30
0.0
 40
2.1000000000000001
  0
CIRCLE
  5
328
  8
ﾚｲﾔ_10
 62
     5
 10
-100.23583984379999
 20
88.490950520799998
 30
0.0
 40
3.75
  0
LINE
  5
329
  8
ﾚｲﾔ_10
  6
BORDER
 62
     3
 10
-100.23583984379999
 20
93.490950520799998
 30
0.0
 11
-100.23583984379999
 21
83.490950520799998
 31
0.0
  0
LINE
  5
32A
  8
ﾚｲﾔ_10
  6
BORDER
 62
     3
 10
-105.23583984379999
 20
88.490950520799998
 30
0.0
 11
-95.235839843799994
 21
88.490950520799998
 31
0.0
  0
LINE
  5
32B
  8
ﾚｲﾔ_10
 62
     5
 10
-125.23583984379999
 20
82.490950520799984
 30
0.0
 11
-93.841962930400015
 21
82.490950520799984
 31
0.0
  0
LINE
  5
32C
  8
ﾚｲﾔ_10
 62
     5
 10
-93.841962930400015
 20
112.4909505208
 30
0.0
 11
-125.23583984379999
 21
112.4909505208
 31
0.0
  0
LINE
  5
32D
  8
ﾚｲﾔ_10
 62
     5
 10
-122.23583984379999
 20
7.0650651041999986
 30
0.0
 11
-125.23583984379999
 21
7.0650651041999986
 31
0.0
  0
LINE
  5
32E
  8
ﾚｲﾔ_10
 62
     5
 10
-122.23583984379999
 20
10.6750651042
 30
0.0
 11
-125.23583984379999
 21
10.6750651042
 31
0.0
  0
LINE
  5
32F
  8
ﾚｲﾔ_10
  6
BORDER
 62
     3
 10
-118.80481119789999
 20
97.490950520800013
 30
0.0
 11
-129.02528738839999
 21
97.490950520800013
 31
0.0
  0
LINE
  5
330
  8
ﾚｲﾔ_10
  6
BORDER
 62
     3
 10
-118.80481119789999
 20
106.4909505208
 30
0.0
 11
-129.02528738839999
 21
106.4909505208
 31
0.0
  0
LINE
  5
331
  8
ﾚｲﾔ_10
  6
BORDER
 62
     3
 10
-118.80481119789999
 20
88.490950520799998
 30
0.0
 11
-129.02528738839999
 21
88.490950520799998
 31
0.0
  0
LINE
  5
332
  8
ﾚｲﾔ_10
  6
STITCH
 10
-122.23583984379999
 20
110.2409505208
 30
0.0
 11
-123.8858398438
 21
108.59095052080001
 31
0.0
  0
LINE
  5
333
  8
ﾚｲﾔ_10
 62
     5
 10
-125.23583984379999
 20
112.4909505208
 30
0.0
 11
-125.23583984379999
 21
82.490950520799984
 31
0.0
  0
LINE
  5
334
  8
ﾚｲﾔ_10
 62
     5
 10
-122.23583984379999
 20
112.4909505208
 30
0.0
 11
-122.23583984379999
 21
82.490950520799984
 31
0.0
  0
LINE
  5
335
  8
ﾚｲﾔ_10
  6
STITCH
 10
-122.23583984379999
 20
102.7409505208
 30
0.0
 11
-123.8858398438
 21
104.3909505208
 31
0.0
  0
LINE
  5
336
  8
ﾚｲﾔ_10
  6
STITCH
 10
-123.8858398438
 20
104.3909505208
 30
0.0
 11
-123.8858398438
 21
108.59095052080001
 31
0.0
  0
LINE
  5
337
  8
ﾚｲﾔ_10
  6
STITCH
 10
-123.8858398438
 20
108.59095052080001
 30
0.0
 11
-125.23583984379999
 21
108.59095052080001
 31
0.0
  0
LINE
  5
338
  8
図枠
 10
37.7925002363
 20
-98.120000954000005
 30
0.0
 11
76.7925002363
 21
-98.120000954000005
 31
0.0
  0
INSERT
  5
339
  8
0
  6
CONTINUOUS
  2
*U102
 10
0.0
 20
0.0
 30
0.0
  0
LINE
  5
33A
  8
図枠
 10
34.7925002363
 20
-54.245000953999991
 30
0.0
 11
34.7925002363
 21
-78.995000953999991
 31
0.0
  0
LINE
  5
33B
  8
ﾚｲﾔ_10
  6
STITCH
 10
-123.8858398438
 20
90.590950520799993
 30
0.0
 11
-125.23583984379999
 21
90.590950520799993
 31
0.0
  0
LINE
  5
33C
  8
ﾚｲﾔ_10
  6
STITCH
 10
-123.8858398438
 20
86.390950520800004
 30
0.0
 11
-125.23583984379999
 21
86.390950520800004
 31
0.0
  0
LINE
  5
33D
  8
ﾚｲﾔ_10
  6
STITCH
 10
-123.8858398438
 20
90.590950520799993
 30
0.0
 11
-123.8858398438
 21
86.390950520800004
 31
0.0
  0
LINE
  5
33E
  8
ﾚｲﾔ_10
  6
STITCH
 10
-122.23583984379999
 20
92.240950520799998
 30
0.0
 11
-123.8858398438
 21
90.590950520799993
 31
0.0
  0
LINE
  5
33F
  8
ﾚｲﾔ_10
  6
STITCH
 10
-122.23583984379999
 20
84.740950520799998
 30
0.0
 11
-123.8858398438
 21
86.390950520800004
 31
0.0
  0
LINE
  5
340
  8
ﾚｲﾔ_10
  6
STITCH
 10
-123.8858398438
 20
95.390950520800004
 30
0.0
 11
-125.23583984379999
 21
95.390950520800004
 31
0.0
  0
LINE
  5
341
  8
ﾚｲﾔ_10
  6
STITCH
 10
-123.8858398438
 20
99.590950520800007
 30
0.0
 11
-125.23583984379999
 21
99.590950520800007
 31
0.0
  0
LINE
  5
342
  8
ﾚｲﾔ_10
 62
     5
 10
-125.23583984379999
 20
112.4909505208
 30
0.0
 11
-125.23583984379999
 21
82.490950520799984
 31
0.0
  0
CIRCLE
  5
343
  8
ﾚｲﾔ_10
 62
     5
 10
-114.23583984379999
 20
97.490950520800013
 30
0.0
 40
3.75
  0
LINE
  5
344
  8
ﾚｲﾔ_10
  6
BORDER
 62
     3
 10
-114.23583984379999
 20
102.4909505208
 30
0.0
 11
-114.23583984379999
 21
92.490950520799984
 31
0.0
  0
LINE
  5
345
  8
ﾚｲﾔ_10
  6
BORDER
 62
     3
 10
-119.23583984379999
 20
97.490950520800013
 30
0.0
 11
-109.23583984379999
 21
97.490950520800013
 31
0.0
  0
CIRCLE
  5
346
  8
ﾚｲﾔ_10
 62
     5
 10
-114.23583984379999
 20
97.490950520800013
 30
0.0
 40
2.1000000000000001
  0
LINE
  5
347
  8
ﾚｲﾔ_10
  6
STITCH
 10
-122.23583984379999
 20
101.2409505208
 30
0.0
 11
-123.8858398438
 21
99.590950520800007
 31
0.0
  0
LINE
  5
351
  8
図枠
 10
81.588302285300003
 20
-110.7527933937
 30
0.0
 11
81.588302285300003
 21
-112.5527933937
 31
0.0
  0
LINE
  5
352
  8
図枠
  6
BORDER
 10
103.8885002363
 20
-80.186000953999994
 30
0.0
 11
103.8885002363
 21
-90.554000954000017
 31
0.0
  0
LINE
  5
353
  8
図枠
  6
BORDER
 10
103.8885002363
 20
-80.186000953999994
 30
0.0
 11
103.8885002363
 21
-90.554000954000017
 31
0.0
  0
LINE
  5
354
  8
図枠
 10
118.7002214531
 20
-81.914000954000002
 30
0.0
 11
118.7002214531
 21
-88.826000953999994
 31
0.0
  0
LINE
  5
355
  8
図枠
 10
108.4420087359
 20
-108.59279339370001
 30
0.0
 11
108.4420087359
 21
-110.7527933937
 31
0.0
  0
LINE
  5
356
  8
図枠
 10
37.7925002363
 20
-85.370000953999991
 30
0.0
 11
61.7925002363
 21
-85.370000953999991
 31
0.0
  0
INSERT
  5
357
  8
0
  6
CONTINUOUS
  2
*U103
 10
0.0
 20
0.0
 30
0.0
  0
LINE
  5
358
  8
図枠
 10
99.781029557999986
 20
-109.3393257147
 30
0.0
 11
99.102207047999997
 21
-110.0181482246
 31
0.0
  0
LINE
  5
359
  8
図枠
 10
94.981029557999975
 20
-109.7258580356
 30
0.0
 11
94.981029557999975
 21
-109.3393257147
 31
0.0
  0
INSERT
  5
35A
  8
0
  6
CONTINUOUS
  2
*U104
 10
0.0
 20
0.0
 30
0.0
  0
LINE
  5
35B
  8
図枠
 10
124.7925002363
 20
-78.995000953999991
 30
0.0
 11
124.7925002363
 21
-117.24500095400001
 31
0.0
  0
INSERT
  5
35C
  8
0
  6
CONTINUOUS
  2
*U105
 10
0.0
 20
0.0
 30
0.0
  0
INSERT
  5
35D
  8
0
  6
CONTINUOUS
  2
*U106
 10
0.0
 20
0.0
 30
0.0
  0
INSERT
  5
35E
  8
0
  6
CONTINUOUS
  2
*U107
 10
0.0
 20
0.0
 30
0.0
  0
INSERT
  5
35F
  8
0
  6
CONTINUOUS
  2
*U108
 10
0.0
 20
0.0
 30
0.0
  0
LINE
  5
360
  8
図枠
 10
111.78822145309999
 20
-83.642000953999997
 30
0.0
 11
118.7002214531
 21
-81.914000954000002
 31
0.0
  0
CIRCLE
  5
361
  8
図枠
 10
103.8885002363
 20
-85.370000953999991
 30
0.0
 40
1.728
  0
LINE
  5
362
  8
図枠
 10
80.2069777114
 20
-110.7527933937
 30
0.0
 11
81.406977711400003
 21
-110.7527933937
 31
0.0
  0
CIRCLE
  5
363
  8
図枠
 10
103.8885002363
 20
-85.370000953999991
 30
0.0
 40
3.456
  0
LINE
  5
364
  8
図枠
 10
111.78822145309999
 20
-83.642000953999997
 30
0.0
 11
118.7002214531
 21
-81.914000954000002
 31
0.0
  0
CIRCLE
  5
365
  8
図枠
 10
103.8885002363
 20
-85.370000953999991
 30
0.0
 40
3.456
  0
INSERT
  5
366
  8
0
  6
CONTINUOUS
  2
*U109
 10
0.0
 20
0.0
 30
0.0
  0
LINE
  5
367
  8
図枠
 10
34.7925002363
 20
-104.49500095400001
 30
0.0
 11
208.79250023629999
 21
-104.49500095400001
 31
0.0
  0
INSERT
  5
368
  8
0
  6
CONTINUOUS
  2
*U110
 10
0.0
 20
0.0
 30
0.0
  0
LINE
  5
369
  8
図枠
 10
118.7002214531
 20
-81.914000954000002
 30
0.0
 11
118.7002214531
 21
-88.826000953999994
 31
0.0
  0
INSERT
  5
36A
  8
0
  6
CONTINUOUS
  2
*U111
 10
0.0
 20
0.0
 30
0.0
  0
INSERT
  5
36B
  8
0
  6
CONTINUOUS
  2
*U112
 10
0.0
 20
0.0
 30
0.0
  0
LINE
  5
36C
  8
図枠
 10
81.588302285300003
 20
-113.15279339369999
 30
0.0
 11
81.588302285300003
 21
-114.95279339370001
 31
0.0
  0
CIRCLE
  5
36D
  8
図枠
 10
103.8885002363
 20
-85.370000953999991
 30
0.0
 40
3.456
  0
LINE
  5
36E
  8
図枠
  6
BORDER
 10
98.704500236299992
 20
-85.370000953999991
 30
0.0
 11
120.88050023629999
 21
-85.370000953999991
 31
0.0
  0
LINE
  5
36F
  8
図枠
 10
94.981029557999975
 20
-106.5527933937
 30
0.0
 11
94.981029557999975
 21
-108.7127933937
 31
0.0
  0
ARC
  5
370
  8
図枠
 10
85.188302285299983
 20
-111.3527933937
 30
0.0
 40
1.8
 50
270.0
 51
0.0
  0
LINE
  5
371
  8
図枠
 10
94.981029557999975
 20
-109.3393257147
 30
0.0
 11
99.781029557999986
 21
-109.3393257147
 31
0.0
  0
LINE
  5
372
  8
図枠
 10
89.988302285300009
 20
-111.3527933937
 30
0.0
 11
89.988302285300009
 21
-110.7527933937
 31
0.0
  0
INSERT
  5
373
  8
0
  6
CONTINUOUS
  2
*U113
 10
0.0
 20
0.0
 30
0.0
  0
LINE
  5
374
  8
図枠
 10
64.7925002363
 20
-78.995000953999991
 30
0.0
 11
64.7925002363
 21
-91.745000953999991
 31
0.0
  0
INSERT
  5
375
  8
0
  6
CONTINUOUS
  2
*U114
 10
0.0
 20
0.0
 30
0.0
  0
ARC
  5
376
  8
図枠
 10
96.421029557999987
 20
-108.59279339370001
 30
0.0
 40
4.5599999999999987
 50
331.39928138329998
 51
358.49204224580001
  0
LINE
  5
377
  8
図枠
 10
91.788302285300006
 20
-108.95279339370001
 30
0.0
 11
89.988302285300009
 21
-108.95279339370001
 31
0.0
  0
LINE
  5
378
  8
図枠
 10
86.988302285300009
 20
-110.7527933937
 30
0.0
 11
86.988302285300009
 21
-111.3527933937
 31
0.0
  0
LINE
  5
379
  8
図枠
 10
111.78822145309999
 20
-87.098000954
 30
0.0
 11
118.7002214531
 21
-88.826000953999994
 31
0.0
  0
CIRCLE
  5
37A
  8
図枠
 10
103.8885002363
 20
-85.370000953999991
 30
0.0
 40
1.728
  0
LINE
  5
37B
  8
図枠
 10
113.4820087359
 20
-115.5527933937
 30
0.0
 11
112.98920873589999
 21
-113.87279339369999
 31
0.0
  0
LINE
  5
37C
  8
図枠
 10
85.188302285299983
 20
-113.15279339369999
 30
0.0
 11
81.588302285300003
 21
-113.15279339369999
 31
0.0
  0
LINE
  5
37D
  8
図枠
 10
34.7925002363
 20
-78.995000953999991
 30
0.0
 11
208.79250023629999
 21
-78.995000953999991
 31
0.0
  0
LINE
  5
37E
  8
図枠
 10
81.588302285300003
 20
-106.5527933937
 30
0.0
 11
81.588302285300003
 21
-108.95279339370001
 31
0.0
  0
LINE
  5
37F
  8
図枠
 10
111.78822145309999
 20
-83.642000953999997
 30
0.0
 11
111.78822145309999
 21
-87.098000954
 31
0.0
  0
LINE
  5
380
  8
図枠
 10
112.35560873590001
 20
-111.7127933937
 30
0.0
 11
112.07400873589999
 21
-110.7527933937
 31
0.0
  0
LINE
  5
381
  8
図枠
 10
104.581029558
 20
-108.3527933937
 30
0.0
 11
105.781029558
 21
-106.5527933937
 31
0.0
  0
LINE
  5
382
  8
図枠
 10
111.78822145309999
 20
-87.098000954
 30
0.0
 11
118.7002214531
 21
-88.826000953999994
 31
0.0
  0
LINE
  5
383
  8
図枠
 10
84.588302285300003
 20
-112.5527933937
 30
0.0
 11
84.588302285300003
 21
-110.7527933937
 31
0.0
  0
LINE
  5
384
  8
図枠
 10
116.35856392869999
 20
-113.87279339369999
 30
0.0
 11
119.2420087359
 21
-113.87279339369999
 31
0.0
  0
LINE
  5
385
  8
図枠
 10
86.3883022853
 20
-106.5527933937
 30
0.0
 11
81.588302285300003
 21
-106.5527933937
 31
0.0
  0
ARC
  5
386
  8
図枠
 10
97.981029557999989
 20
-108.3527933937
 30
0.0
 40
6.5999999999999988
 50
270.0
 51
302.54495885400001
  0
POLYLINE
  8
図枠
  5
B1A
  66
     1
 10
0.000000
 20
0.000000
 30
0.000000
  70
     8
  0
VERTEX
  8
図枠
  5
B1B
 10
101.532
 20
-113.916
 30
0.000000
  70
    32
  0
VERTEX
  8
図枠
  5
B1C
 10
101.564
 20
-113.927
 30
0.000000
  70
    32
  0
VERTEX
  8
図枠
  5
B1D
 10
101.596
 20
-113.937
 30
0.000000
  70
    32
  0
VERTEX
  8
図枠
  5
B1E
 10
101.629
 20
-113.947
 30
0.000000
  70
    32
  0
VERTEX
  8
図枠
  5
B1F
 10
101.661
 20
-113.957
 30
0.000000
  70
    32
  0
VERTEX
  8
図枠
  5
B20
 10
101.693
 20
-113.967
 30
0.000000
  70
    32
  0
VERTEX
  8
図枠
  5
B21
 10
101.726
 20
-113.977
 30
0.000000
  70
    32
  0
VERTEX
  8
図枠
  5
B22
 10
101.758
 20
-113.987
 30
0.000000
  70
    32
  0
VERTEX
  8
図枠
  5
B23
 10
101.791
 20
-113.997
 30
0.000000
  70
    32
  0
VERTEX
  8
図枠
  5
B24
 10
101.823
 20
-114.007
 30
0.000000
  70
    32
  0
VERTEX
  8
図枠
  5
B25
 10
101.856
 20
-114.017
 30
0.000000
  70
    32
  0
VERTEX
  8
図枠
  5
B26
 10
101.888
 20
-114.027
 30
0.000000
  70
    32
  0
VERTEX
  8
図枠
  5
B27
 10
101.921
 20
-114.037
 30
0.000000
  70
    32
  0
VERTEX
  8
図枠
  5
B28
 10
101.954
 20
-114.046
 30
0.000000
  70
    32
  0
VERTEX
  8
図枠
  5
B29
 10
101.986
 20
-114.056
 30
0.000000
  70
    32
  0
VERTEX
  8
図枠
  5
B2A
 10
102.019
 20
-114.066
 30
0.000000
  70
    32
  0
VERTEX
  8
図枠
  5
B2B
 10
102.052
 20
-114.075
 30
0.000000
  70
    32
  0
VERTEX
  8
図枠
  5
B2C
 10
102.084
 20
-114.085
 30
0.000000
  70
    32
  0
VERTEX
  8
図枠
  5
B2D
 10
102.117
 20
-114.094
 30
0.000000
  70
    32
  0
VERTEX
  8
図枠
  5
B2E
 10
102.150
 20
-114.104
 30
0.000000
  70
    32
  0
VERTEX
  8
図枠
  5
B2F
 10
102.183
 20
-114.113
 30
0.000000
  70
    32
  0
VERTEX
  8
図枠
  5
B30
 10
102.215
 20
-114.123
 30
0.000000
  70
    32
  0
VERTEX
  8
図枠
  5
B31
 10
102.248
 20
-114.132
 30
0.000000
  70
    32
  0
VERTEX
  8
図枠
  5
B32
 10
102.281
 20
-114.141
 30
0.000000
  70
    32
  0
VERTEX
  8
図枠
  5
B33
 10
102.314
 20
-114.150
 30
0.000000
  70
    32
  0
VERTEX
  8
図枠
  5
B34
 10
102.347
 20
-114.160
 30
0.000000
  70
    32
  0
VERTEX
  8
図枠
  5
B35
 10
102.380
 20
-114.169
 30
0.000000
  70
    32
  0
VERTEX
  8
図枠
  5
B36
 10
102.413
 20
-114.178
 30
0.000000
  70
    32
  0
VERTEX
  8
図枠
  5
B37
 10
102.446
 20
-114.187
 30
0.000000
  70
    32
  0
VERTEX
  8
図枠
  5
B38
 10
102.479
 20
-114.196
 30
0.000000
  70
    32
  0
VERTEX
  8
図枠
  5
B39
 10
102.512
 20
-114.205
 30
0.000000
  70
    32
  0
VERTEX
  8
図枠
  5
B3A
 10
102.545
 20
-114.214
 30
0.000000
  70
    32
  0
VERTEX
  8
図枠
  5
B3B
 10
102.578
 20
-114.223
 30
0.000000
  70
    32
  0
VERTEX
  8
図枠
  5
B3C
 10
102.611
 20
-114.232
 30
0.000000
  70
    32
  0
VERTEX
  8
図枠
  5
B3D
 10
102.644
 20
-114.241
 30
0.000000
  70
    32
  0
VERTEX
  8
図枠
  5
B3E
 10
102.677
 20
-114.249
 30
0.000000
  70
    32
  0
VERTEX
  8
図枠
  5
B3F
 10
102.710
 20
-114.258
 30
0.000000
  70
    32
  0
VERTEX
  8
図枠
  5
B40
 10
102.743
 20
-114.267
 30
0.000000
  70
    32
  0
VERTEX
  8
図枠
  5
B41
 10
102.777
 20
-114.276
 30
0.000000
  70
    32
  0
VERTEX
  8
図枠
  5
B42
 10
102.810
 20
-114.284
 30
0.000000
  70
    32
  0
VERTEX
  8
図枠
  5
B43
 10
102.843
 20
-114.293
 30
0.000000
  70
    32
  0
VERTEX
  8
図枠
  5
B44
 10
102.876
 20
-114.301
 30
0.000000
  70
    32
  0
VERTEX
  8
図枠
  5
B45
 10
102.909
 20
-114.310
 30
0.000000
  70
    32
  0
VERTEX
  8
図枠
  5
B46
 10
102.943
 20
-114.318
 30
0.000000
  70
    32
  0
VERTEX
  8
図枠
  5
B47
 10
102.976
 20
-114.327
 30
0.000000
  70
    32
  0
VERTEX
  8
図枠
  5
B48
 10
103.009
 20
-114.335
 30
0.000000
  70
    32
  0
VERTEX
  8
図枠
  5
B49
 10
103.043
 20
-114.344
 30
0.000000
  70
    32
  0
VERTEX
  8
図枠
  5
B4A
 10
103.076
 20
-114.352
 30
0.000000
  70
    32
  0
VERTEX
  8
図枠
  5
B4B
 10
103.109
 20
-114.361
 30
0.000000
  70
    32
  0
VERTEX
  8
図枠
  5
B4C
 10
103.143
 20
-114.369
 30
0.000000
  70
    32
  0
VERTEX
  8
図枠
  5
B4D
 10
103.176
 20
-114.377
 30
0.000000
  70
    32
  0
VERTEX
  8
図枠
  5
B4E
 10
103.209
 20
-114.385
 30
0.000000
  70
    32
  0
VERTEX
  8
図枠
  5
B4F
 10
103.243
 20
-114.394
 30
0.000000
  70
    32
  0
VERTEX
  8
図枠
  5
B50
 10
103.276
 20
-114.402
 30
0.000000
  70
    32
  0
VERTEX
  8
図枠
  5
B51
 10
103.310
 20
-114.410
 30
0.000000
  70
    32
  0
VERTEX
  8
図枠
  5
B52
 10
103.343
 20
-114.418
 30
0.000000
  70
    32
  0
VERTEX
  8
図枠
  5
B53
 10
103.377
 20
-114.426
 30
0.000000
  70
    32
  0
VERTEX
  8
図枠
  5
B54
 10
103.410
 20
-114.434
 30
0.000000
  70
    32
  0
VERTEX
  8
図枠
  5
B55
 10
103.444
 20
-114.442
 30
0.000000
  70
    32
  0
VERTEX
  8
図枠
  5
B56
 10
103.477
 20
-114.450
 30
0.000000
  70
    32
  0
VERTEX
  8
図枠
  5
B57
 10
103.511
 20
-114.458
 30
0.000000
  70
    32
  0
VERTEX
  8
図枠
  5
B58
 10
103.544
 20
-114.466
 30
0.000000
  70
    32
  0
VERTEX
  8
図枠
  5
B59
 10
103.578
 20
-114.474
 30
0.000000
  70
    32
  0
VERTEX
  8
図枠
  5
B5A
 10
103.612
 20
-114.482
 30
0.000000
  70
    32
  0
VERTEX
  8
図枠
  5
B5B
 10
103.645
 20
-114.490
 30
0.000000
  70
    32
  0
VERTEX
  8
図枠
  5
B5C
 10
103.679
 20
-114.498
 30
0.000000
  70
    32
  0
VERTEX
  8
図枠
  5
B5D
 10
103.712
 20
-114.506
 30
0.000000
  70
    32
  0
VERTEX
  8
図枠
  5
B5E
 10
103.746
 20
-114.514
 30
0.000000
  70
    32
  0
VERTEX
  8
図枠
  5
B5F
 10
103.780
 20
-114.521
 30
0.000000
  70
    32
  0
VERTEX
  8
図枠
  5
B60
 10
103.813
 20
-114.529
 30
0.000000
  70
    32
  0
VERTEX
  8
図枠
  5
B61
 10
103.847
 20
-114.537
 30
0.000000
  70
    32
  0
VERTEX
  8
図枠
  5
B62
 10
103.881
 20
-114.545
 30
0.000000
  70
    32
  0
VERTEX
  8
図枠
  5
B63
 10
103.915
 20
-114.552
 30
0.000000
  70
    32
  0
VERTEX
  8
図枠
  5
B64
 10
103.948
 20
-114.560
 30
0.000000
  70
    32
  0
VERTEX
  8
図枠
  5
B65
 10
103.982
 20
-114.568
 30
0.000000
  70
    32
  0
VERTEX
  8
図枠
  5
B66
 10
104.016
 20
-114.575
 30
0.000000
  70
    32
  0
VERTEX
  8
図枠
  5
B67
 10
104.050
 20
-114.583
 30
0.000000
  70
    32
  0
VERTEX
  8
図枠
  5
B68
 10
104.083
 20
-114.591
 30
0.000000
  70
    32
  0
VERTEX
  8
図枠
  5
B69
 10
104.117
 20
-114.598
 30
0.000000
  70
    32
  0
VERTEX
  8
図枠
  5
B6A
 10
104.151
 20
-114.606
 30
0.000000
  70
    32
  0
VERTEX
  8
図枠
  5
B6B
 10
104.185
 20
-114.613
 30
0.000000
  70
    32
  0
VERTEX
  8
図枠
  5
B6C
 10
104.218
 20
-114.621
 30
0.000000
  70
    32
  0
VERTEX
  8
図枠
  5
B6D
 10
104.252
 20
-114.628
 30
0.000000
  70
    32
  0
VERTEX
  8
図枠
  5
B6E
 10
104.286
 20
-114.636
 30
0.000000
  70
    32
  0
VERTEX
  8
図枠
  5
B6F
 10
104.320
 20
-114.643
 30
0.000000
  70
    32
  0
VERTEX
  8
図枠
  5
B70
 10
104.354
 20
-114.651
 30
0.000000
  70
    32
  0
VERTEX
  8
図枠
  5
B71
 10
104.388
 20
-114.658
 30
0.000000
  70
    32
  0
VERTEX
  8
図枠
  5
B72
 10
104.422
 20
-114.665
 30
0.000000
  70
    32
  0
VERTEX
  8
図枠
  5
B73
 10
104.455
 20
-114.673
 30
0.000000
  70
    32
  0
VERTEX
  8
図枠
  5
B74
 10
104.489
 20
-114.680
 30
0.000000
  70
    32
  0
VERTEX
  8
図枠
  5
B75
 10
104.523
 20
-114.688
 30
0.000000
  70
    32
  0
VERTEX
  8
図枠
  5
B76
 10
104.557
 20
-114.695
 30
0.000000
  70
    32
  0
VERTEX
  8
図枠
  5
B77
 10
104.591
 20
-114.702
 30
0.000000
  70
    32
  0
VERTEX
  8
図枠
  5
B78
 10
104.625
 20
-114.710
 30
0.000000
  70
    32
  0
VERTEX
  8
図枠
  5
B79
 10
104.659
 20
-114.717
 30
0.000000
  70
    32
  0
VERTEX
  8
図枠
  5
B7A
 10
104.693
 20
-114.724
 30
0.000000
  70
    32
  0
VERTEX
  8
図枠
  5
B7B
 10
104.727
 20
-114.731
 30
0.000000
  70
    32
  0
VERTEX
  8
図枠
  5
B7C
 10
104.761
 20
-114.739
 30
0.000000
  70
    32
  0
VERTEX
  8
図枠
  5
B7D
 10
104.795
 20
-114.746
 30
0.000000
  70
    32
  0
VERTEX
  8
図枠
  5
B7E
 10
104.829
 20
-114.753
 30
0.000000
  70
    32
  0
VERTEX
  8
図枠
  5
B7F
 10
104.863
 20
-114.760
 30
0.000000
  70
    32
  0
VERTEX
  8
図枠
  5
B80
 10
104.896
 20
-114.768
 30
0.000000
  70
    32
  0
VERTEX
  8
図枠
  5
B81
 10
104.930
 20
-114.775
 30
0.000000
  70
    32
  0
VERTEX
  8
図枠
  5
B82
 10
104.964
 20
-114.782
 30
0.000000
  70
    32
  0
VERTEX
  8
図枠
  5
B83
 10
104.998
 20
-114.789
 30
0.000000
  70
    32
  0
VERTEX
  8
図枠
  5
B84
 10
105.032
 20
-114.796
 30
0.000000
  70
    32
  0
VERTEX
  8
図枠
  5
B85
 10
105.066
 20
-114.804
 30
0.000000
  70
    32
  0
VERTEX
  8
図枠
  5
B86
 10
105.100
 20
-114.811
 30
0.000000
  70
    32
  0
VERTEX
  8
図枠
  5
B87
 10
105.134
 20
-114.818
 30
0.000000
  70
    32
  0
VERTEX
  8
図枠
  5
B88
 10
105.168
 20
-114.825
 30
0.000000
  70
    32
  0
VERTEX
  8
図枠
  5
B89
 10
105.202
 20
-114.832
 30
0.000000
  70
    32
  0
VERTEX
  8
図枠
  5
B8A
 10
105.236
 20
-114.839
 30
0.000000
  70
    32
  0
VERTEX
  8
図枠
  5
B8B
 10
105.270
 20
-114.846
 30
0.000000
  70
    32
  0
VERTEX
  8
図枠
  5
B8C
 10
105.304
 20
-114.854
 30
0.000000
  70
    32
  0
VERTEX
  8
図枠
  5
B8D
 10
105.339
 20
-114.861
 30
0.000000
  70
    32
  0
VERTEX
  8
図枠
  5
B8E
 10
105.373
 20
-114.868
 30
0.000000
  70
    32
  0
VERTEX
  8
図枠
  5
B8F
 10
105.407
 20
-114.875
 30
0.000000
  70
    32
  0
VERTEX
  8
図枠
  5
B90
 10
105.441
 20
-114.882
 30
0.000000
  70
    32
  0
VERTEX
  8
図枠
  5
B91
 10
105.475
 20
-114.889
 30
0.000000
  70
    32
  0
VERTEX
  8
図枠
  5
B92
 10
105.509
 20
-114.896
 30
0.000000
  70
    32
  0
VERTEX
  8
図枠
  5
B93
 10
105.543
 20
-114.903
 30
0.000000
  70
    32
  0
VERTEX
  8
図枠
  5
B94
 10
105.577
 20
-114.910
 30
0.000000
  70
    32
  0
VERTEX
  8
図枠
  5
B95
 10
105.611
 20
-114.917
 30
0.000000
  70
    32
  0
VERTEX
  8
図枠
  5
B96
 10
105.645
 20
-114.924
 30
0.000000
  70
    32
  0
VERTEX
  8
図枠
  5
B97
 10
105.679
 20
-114.932
 30
0.000000
  70
    32
  0
VERTEX
  8
図枠
  5
B98
 10
105.713
 20
-114.939
 30
0.000000
  70
    32
  0
VERTEX
  8
図枠
  5
B99
 10
105.747
 20
-114.946
 30
0.000000
  70
    32
  0
VERTEX
  8
図枠
  5
B9A
 10
105.781
 20
-114.953
 30
0.000000
  70
    32
  0
SEQEND
  8
図枠
  5
B9B
  0
POLYLINE
  8
図枠
  5
B9C
  66
     1
 10
0.000000
 20
0.000000
 30
0.000000
  70
     8
  0
VERTEX
  8
図枠
  5
B9D
 10
99.1022
 20
-110.018
 30
0.000000
  70
    32
  0
VERTEX
  8
図枠
  5
B9E
 10
99.1101
 20
-110.027
 30
0.000000
  70
    32
  0
VERTEX
  8
図枠
  5
B9F
 10
99.1180
 20
-110.036
 30
0.000000
  70
    32
  0
VERTEX
  8
図枠
  5
BA0
 10
99.1260
 20
-110.045
 30
0.000000
  70
    32
  0
VERTEX
  8
図枠
  5
BA1
 10
99.1339
 20
-110.053
 30
0.000000
  70
    32
  0
VERTEX
  8
図枠
  5
BA2
 10
99.1418
 20
-110.062
 30
0.000000
  70
    32
  0
VERTEX
  8
図枠
  5
BA3
 10
99.1497
 20
-110.071
 30
0.000000
  70
    32
  0
VERTEX
  8
図枠
  5
BA4
 10
99.1576
 20
-110.080
 30
0.000000
  70
    32
  0
VERTEX
  8
図枠
  5
BA5
 10
99.1656
 20
-110.089
 30
0.000000
  70
    32
  0
VERTEX
  8
図枠
  5
BA6
 10
99.1735
 20
-110.098
 30
0.000000
  70
    32
  0
VERTEX
  8
図枠
  5
BA7
 10
99.1814
 20
-110.106
 30
0.000000
  70
    32
  0
VERTEX
  8
図枠
  5
BA8
 10
99.1893
 20
-110.115
 30
0.000000
  70
    32
  0
VERTEX
  8
図枠
  5
BA9
 10
99.1973
 20
-110.124
 30
0.000000
  70
    32
  0
VERTEX
  8
図枠
  5
BAA
 10
99.2052
 20
-110.133
 30
0.000000
  70
    32
  0
VERTEX
  8
図枠
  5
BAB
 10
99.2131
 20
-110.142
 30
0.000000
  70
    32
  0
VERTEX
  8
図枠
  5
BAC
 10
99.2210
 20
-110.151
 30
0.000000
  70
    32
  0
VERTEX
  8
図枠
  5
BAD
 10
99.2290
 20
-110.159
 30
0.000000
  70
    32
  0
VERTEX
  8
図枠
  5
BAE
 10
99.2369
 20
-110.168
 30
0.000000
  70
    32
  0
VERTEX
  8
図枠
  5
BAF
 10
99.2448
 20
-110.177
 30
0.000000
  70
    32
  0
VERTEX
  8
図枠
  5
BB0
 10
99.2528
 20
-110.186
 30
0.000000
  70
    32
  0
VERTEX
  8
図枠
  5
BB1
 10
99.2607
 20
-110.195
 30
0.000000
  70
    32
  0
VERTEX
  8
図枠
  5
BB2
 10
99.2686
 20
-110.203
 30
0.000000
  70
    32
  0
VERTEX
  8
図枠
  5
BB3
 10
99.2766
 20
-110.212
 30
0.000000
  70
    32
  0
VERTEX
  8
図枠
  5
BB4
 10
99.2845
 20
-110.221
 30
0.000000
  70
    32
  0
VERTEX
  8
図枠
  5
BB5
 10
99.2925
 20
-110.230
 30
0.000000
  70
    32
  0
VERTEX
  8
図枠
  5
BB6
 10
99.3004
 20
-110.239
 30
0.000000
  70
    32
  0
VERTEX
  8
図枠
  5
BB7
 10
99.3083
 20
-110.247
 30
0.000000
  70
    32
  0
VERTEX
  8
図枠
  5
BB8
 10
99.3163
 20
-110.256
 30
0.000000
  70
    32
  0
VERTEX
  8
図枠
  5
BB9
 10
99.3242
 20
-110.265
 30
0.000000
  70
    32
  0
VERTEX
  8
図枠
  5
BBA
 10
99.3322
 20
-110.274
 30
0.000000
  70
    32
  0
VERTEX
  8
図枠
  5
BBB
 10
99.3402
 20
-110.282
 30
0.000000
  70
    32
  0
VERTEX
  8
図枠
  5
BBC
 10
99.3481
 20
-110.291
 30
0.000000
  70
    32
  0
VERTEX
  8
図枠
  5
BBD
 10
99.3561
 20
-110.300
 30
0.000000
  70
    32
  0
VERTEX
  8
図枠
  5
BBE
 10
99.3640
 20
-110.309
 30
0.000000
  70
    32
  0
VERTEX
  8
図枠
  5
BBF
 10
99.3720
 20
-110.318
 30
0.000000
  70
    32
  0
VERTEX
  8
図枠
  5
BC0
 10
99.3800
 20
-110.326
 30
0.000000
  70
    32
  0
VERTEX
  8
図枠
  5
BC1
 10
99.3879
 20
-110.335
 30
0.000000
  70
    32
  0
VERTEX
  8
図枠
  5
BC2
 10
99.3959
 20
-110.344
 30
0.000000
  70
    32
  0
VERTEX
  8
図枠
  5
BC3
 10
99.4039
 20
-110.352
 30
0.000000
  70
    32
  0
VERTEX
  8
図枠
  5
BC4
 10
99.4119
 20
-110.361
 30
0.000000
  70
    32
  0
VERTEX
  8
図枠
  5
BC5
 10
99.4198
 20
-110.370
 30
0.000000
  70
    32
  0
VERTEX
  8
図枠
  5
BC6
 10
99.4278
 20
-110.379
 30
0.000000
  70
    32
  0
VERTEX
  8
図枠
  5
BC7
 10
99.4358
 20
-110.387
 30
0.000000
  70
    32
  0
VERTEX
  8
図枠
  5
BC8
 10
99.4438
 20
-110.396
 30
0.000000
  70
    32
  0
VERTEX
  8
図枠
  5
BC9
 10
99.4518
 20
-110.405
 30
0.000000
  70
    32
  0
VERTEX
  8
図枠
  5
BCA
 10
99.4598
 20
-110.413
 30
0.000000
  70
    32
  0
VERTEX
  8
図枠
  5
BCB
 10
99.4678
 20
-110.422
 30
0.000000
  70
    32
  0
VERTEX
  8
図枠
  5
BCC
 10
99.4758
 20
-110.431
 30
0.000000
  70
    32
  0
VERTEX
  8
図枠
  5
BCD
 10
99.4838
 20
-110.440
 30
0.000000
  70
    32
  0
VERTEX
  8
図枠
  5
BCE
 10
99.4919
 20
-110.448
 30
0.000000
  70
    32
  0
VERTEX
  8
図枠
  5
BCF
 10
99.4999
 20
-110.457
 30
0.000000
  70
    32
  0
VERTEX
  8
図枠
  5
BD0
 10
99.5079
 20
-110.466
 30
0.000000
  70
    32
  0
VERTEX
  8
図枠
  5
BD1
 10
99.5159
 20
-110.474
 30
0.000000
  70
    32
  0
VERTEX
  8
図枠
  5
BD2
 10
99.5240
 20
-110.483
 30
0.000000
  70
    32
  0
VERTEX
  8
図枠
  5
BD3
 10
99.5320
 20
-110.492
 30
0.000000
  70
    32
  0
VERTEX
  8
図枠
  5
BD4
 10
99.5400
 20
-110.500
 30
0.000000
  70
    32
  0
VERTEX
  8
図枠
  5
BD5
 10
99.5481
 20
-110.509
 30
0.000000
  70
    32
  0
VERTEX
  8
図枠
  5
BD6
 10
99.5561
 20
-110.517
 30
0.000000
  70
    32
  0
VERTEX
  8
図枠
  5
BD7
 10
99.5642
 20
-110.526
 30
0.000000
  70
    32
  0
VERTEX
  8
図枠
  5
BD8
 10
99.5722
 20
-110.535
 30
0.000000
  70
    32
  0
VERTEX
  8
図枠
  5
BD9
 10
99.5803
 20
-110.543
 30
0.000000
  70
    32
  0
VERTEX
  8
図枠
  5
BDA
 10
99.5884
 20
-110.552
 30
0.000000
  70
    32
  0
VERTEX
  8
図枠
  5
BDB
 10
99.5964
 20
-110.560
 30
0.000000
  70
    32
  0
VERTEX
  8
図枠
  5
BDC
 10
99.6045
 20
-110.569
 30
0.000000
  70
    32
  0
VERTEX
  8
図枠
  5
BDD
 10
99.6126
 20
-110.578
 30
0.000000
  70
    32
  0
VERTEX
  8
図枠
  5
BDE
 10
99.6207
 20
-110.586
 30
0.000000
  70
    32
  0
VERTEX
  8
図枠
  5
BDF
 10
99.6288
 20
-110.595
 30
0.000000
  70
    32
  0
VERTEX
  8
図枠
  5
BE0
 10
99.6369
 20
-110.603
 30
0.000000
  70
    32
  0
VERTEX
  8
図枠
  5
BE1
 10
99.6450
 20
-110.612
 30
0.000000
  70
    32
  0
VERTEX
  8
図枠
  5
BE2
 10
99.6531
 20
-110.620
 30
0.000000
  70
    32
  0
VERTEX
  8
図枠
  5
BE3
 10
99.6612
 20
-110.629
 30
0.000000
  70
    32
  0
VERTEX
  8
図枠
  5
BE4
 10
99.6694
 20
-110.637
 30
0.000000
  70
    32
  0
VERTEX
  8
図枠
  5
BE5
 10
99.6775
 20
-110.646
 30
0.000000
  70
    32
  0
VERTEX
  8
図枠
  5
BE6
 10
99.6856
 20
-110.654
 30
0.000000
  70
    32
  0
VERTEX
  8
図枠
  5
BE7
 10
99.6938
 20
-110.663
 30
0.000000
  70
    32
  0
VERTEX
  8
図枠
  5
BE8
 10
99.7019
 20
-110.671
 30
0.000000
  70
    32
  0
VERTEX
  8
図枠
  5
BE9
 10
99.7101
 20
-110.680
 30
0.000000
  70
    32
  0
VERTEX
  8
図枠
  5
BEA
 10
99.7182
 20
-110.688
 30
0.000000
  70
    32
  0
VERTEX
  8
図枠
  5
BEB
 10
99.7264
 20
-110.696
 30
0.000000
  70
    32
  0
VERTEX
  8
図枠
  5
BEC
 10
99.7346
 20
-110.705
 30
0.000000
  70
    32
  0
VERTEX
  8
図枠
  5
BED
 10
99.7427
 20
-110.713
 30
0.000000
  70
    32
  0
VERTEX
  8
図枠
  5
BEE
 10
99.7509
 20
-110.722
 30
0.000000
  70
    32
  0
VERTEX
  8
図枠
  5
BEF
 10
99.7591
 20
-110.730
 30
0.000000
  70
    32
  0
VERTEX
  8
図枠
  5
BF0
 10
99.7673
 20
-110.738
 30
0.000000
  70
    32
  0
VERTEX
  8
図枠
  5
BF1
 10
99.7755
 20
-110.747
 30
0.000000
  70
    32
  0
VERTEX
  8
図枠
  5
BF2
 10
99.7837
 20
-110.755
 30
0.000000
  70
    32
  0
VERTEX
  8
図枠
  5
BF3
 10
99.7919
 20
-110.764
 30
0.000000
  70
    32
  0
VERTEX
  8
図枠
  5
BF4
 10
99.8002
 20
-110.772
 30
0.000000
  70
    32
  0
VERTEX
  8
図枠
  5
BF5
 10
99.8084
 20
-110.780
 30
0.000000
  70
    32
  0
VERTEX
  8
図枠
  5
BF6
 10
99.8166
 20
-110.789
 30
0.000000
  70
    32
  0
VERTEX
  8
図枠
  5
BF7
 10
99.8249
 20
-110.797
 30
0.000000
  70
    32
  0
VERTEX
  8
図枠
  5
BF8
 10
99.8331
 20
-110.805
 30
0.000000
  70
    32
  0
VERTEX
  8
図枠
  5
BF9
 10
99.8414
 20
-110.813
 30
0.000000
  70
    32
  0
VERTEX
  8
図枠
  5
BFA
 10
99.8497
 20
-110.822
 30
0.000000
  70
    32
  0
VERTEX
  8
図枠
  5
BFB
 10
99.8579
 20
-110.830
 30
0.000000
  70
    32
  0
VERTEX
  8
図枠
  5
BFC
 10
99.8662
 20
-110.838
 30
0.000000
  70
    32
  0
VERTEX
  8
図枠
  5
BFD
 10
99.8745
 20
-110.846
 30
0.000000
  70
    32
  0
VERTEX
  8
図枠
  5
BFE
 10
99.8828
 20
-110.855
 30
0.000000
  70
    32
  0
VERTEX
  8
図枠
  5
BFF
 10
99.8911
 20
-110.863
 30
0.000000
  70
    32
  0
VERTEX
  8
図枠
  5
C00
 10
99.8994
 20
-110.871
 30
0.000000
  70
    32
  0
VERTEX
  8
図枠
  5
C01
 10
99.9078
 20
-110.879
 30
0.000000
  70
    32
  0
VERTEX
  8
図枠
  5
C02
 10
99.9161
 20
-110.887
 30
0.000000
  70
    32
  0
VERTEX
  8
図枠
  5
C03
 10
99.9244
 20
-110.895
 30
0.000000
  70
    32
  0
VERTEX
  8
図枠
  5
C04
 10
99.9328
 20
-110.904
 30
0.000000
  70
    32
  0
VERTEX
  8
図枠
  5
C05
 10
99.9411
 20
-110.912
 30
0.000000
  70
    32
  0
VERTEX
  8
図枠
  5
C06
 10
99.9495
 20
-110.920
 30
0.000000
  70
    32
  0
VERTEX
  8
図枠
  5
C07
 10
99.9579
 20
-110.928
 30
0.000000
  70
    32
  0
VERTEX
  8
図枠
  5
C08
 10
99.9663
 20
-110.936
 30
0.000000
  70
    32
  0
VERTEX
  8
図枠
  5
C09
 10
99.9747
 20
-110.944
 30
0.000000
  70
    32
  0
VERTEX
  8
図枠
  5
C0A
 10
99.9831
 20
-110.952
 30
0.000000
  70
    32
  0
VERTEX
  8
図枠
  5
C0B
 10
99.9915
 20
-110.960
 30
0.000000
  70
    32
  0
VERTEX
  8
図枠
  5
C0C
 10
99.9999
 20
-110.968
 30
0.000000
  70
    32
  0
VERTEX
  8
図枠
  5
C0D
 10
100.008
 20
-110.976
 30
0.000000
  70
    32
  0
VERTEX
  8
図枠
  5
C0E
 10
100.017
 20
-110.984
 30
0.000000
  70
    32
  0
VERTEX
  8
図枠
  5
C0F
 10
100.025
 20
-110.992
 30
0.000000
  70
    32
  0
VERTEX
  8
図枠
  5
C10
 10
100.034
 20
-111.000
 30
0.000000
  70
    32
  0
VERTEX
  8
図枠
  5
C11
 10
100.042
 20
-111.008
 30
0.000000
  70
    32
  0
VERTEX
  8
図枠
  5
C12
 10
100.051
 20
-111.016
 30
0.000000
  70
    32
  0
VERTEX
  8
図枠
  5
C13
 10
100.059
 20
-111.024
 30
0.000000
  70
    32
  0
VERTEX
  8
図枠
  5
C14
 10
100.068
 20
-111.032
 30
0.000000
  70
    32
  0
VERTEX
  8
図枠
  5
C15
 10
100.076
 20
-111.040
 30
0.000000
  70
    32
  0
VERTEX
  8
図枠
  5
C16
 10
100.085
 20
-111.048
 30
0.000000
  70
    32
  0
VERTEX
  8
図枠
  5
C17
 10
100.093
 20
-111.056
 30
0.000000
  70
    32
  0
VERTEX
  8
図枠
  5
C18
 10
100.102
 20
-111.063
 30
0.000000
  70
    32
  0
VERTEX
  8
図枠
  5
C19
 10
100.110
 20
-111.071
 30
0.000000
  70
    32
  0
VERTEX
  8
図枠
  5
C1A
 10
100.119
 20
-111.079
 30
0.000000
  70
    32
  0
VERTEX
  8
図枠
  5
C1B
 10
100.127
 20
-111.087
 30
0.000000
  70
    32
  0
VERTEX
  8
図枠
  5
C1C
 10
100.136
 20
-111.095
 30
0.000000
  70
    32
  0
SEQEND
  8
図枠
  5
C1D
  0
LINE
  5
389
  8
図枠
 10
94.981029557999975
 20
-108.7127933937
 30
0.0
 11
100.981029558
 21
-108.7127933937
 31
0.0
  0
LINE
  5
38A
  8
図枠
 10
108.4420087359
 20
-111.7127933937
 30
0.0
 11
108.4420087359
 21
-113.87279339369999
 31
0.0
  0
LINE
  5
38B
  8
図枠
 10
111.78822145309999
 20
-83.642000953999997
 30
0.0
 11
111.78822145309999
 21
-87.098000954
 31
0.0
  0
LINE
  5
38C
  8
図枠
 10
111.78822145309999
 20
-83.642000953999997
 30
0.0
 11
118.7002214531
 21
-81.914000954000002
 31
0.0
  0
INSERT
  5
38D
  8
0
  6
CONTINUOUS
  2
*U115
 10
0.0
 20
0.0
 30
0.0
  0
LINE
  5
38E
  8
図枠
 10
89.988302285300009
 20
-110.7527933937
 30
0.0
 11
91.788302285300006
 21
-110.7527933937
 31
0.0
  0
LINE
  5
38F
  8
図枠
 10
80.2069777114
 20
-108.95279339370001
 30
0.0
 11
80.2069777114
 21
-110.7527933937
 31
0.0
  0
LINE
  5
390
  8
図枠
 10
94.981029557999975
 20
-113.15279339369999
 30
0.0
 11
94.981029557999975
 21
-114.95279339370001
 31
0.0
  0
POLYLINE
  8
図枠
  5
C1E
  66
     1
 10
0.000000
 20
0.000000
 30
0.000000
  70
     8
  0
VERTEX
  8
図枠
  5
C1F
 10
103.003
 20
-112.581
 30
0.000000
  70
    32
  0
VERTEX
  8
図枠
  5
C20
 10
103.024
 20
-112.587
 30
0.000000
  70
    32
  0
VERTEX
  8
図枠
  5
C21
 10
103.045
 20
-112.593
 30
0.000000
  70
    32
  0
VERTEX
  8
図枠
  5
C22
 10
103.066
 20
-112.599
 30
0.000000
  70
    32
  0
VERTEX
  8
図枠
  5
C23
 10
103.087
 20
-112.605
 30
0.000000
  70
    32
  0
VERTEX
  8
図枠
  5
C24
 10
103.108
 20
-112.610
 30
0.000000
  70
    32
  0
VERTEX
  8
図枠
  5
C25
 10
103.129
 20
-112.616
 30
0.000000
  70
    32
  0
VERTEX
  8
図枠
  5
C26
 10
103.150
 20
-112.622
 30
0.000000
  70
    32
  0
VERTEX
  8
図枠
  5
C27
 10
103.171
 20
-112.628
 30
0.000000
  70
    32
  0
VERTEX
  8
図枠
  5
C28
 10
103.192
 20
-112.633
 30
0.000000
  70
    32
  0
VERTEX
  8
図枠
  5
C29
 10
103.213
 20
-112.639
 30
0.000000
  70
    32
  0
VERTEX
  8
図枠
  5
C2A
 10
103.234
 20
-112.645
 30
0.000000
  70
    32
  0
VERTEX
  8
図枠
  5
C2B
 10
103.256
 20
-112.650
 30
0.000000
  70
    32
  0
VERTEX
  8
図枠
  5
C2C
 10
103.277
 20
-112.656
 30
0.000000
  70
    32
  0
VERTEX
  8
図枠
  5
C2D
 10
103.298
 20
-112.661
 30
0.000000
  70
    32
  0
VERTEX
  8
図枠
  5
C2E
 10
103.319
 20
-112.667
 30
0.000000
  70
    32
  0
VERTEX
  8
図枠
  5
C2F
 10
103.341
 20
-112.672
 30
0.000000
  70
    32
  0
VERTEX
  8
図枠
  5
C30
 10
103.362
 20
-112.678
 30
0.000000
  70
    32
  0
VERTEX
  8
図枠
  5
C31
 10
103.383
 20
-112.683
 30
0.000000
  70
    32
  0
VERTEX
  8
図枠
  5
C32
 10
103.405
 20
-112.688
 30
0.000000
  70
    32
  0
VERTEX
  8
図枠
  5
C33
 10
103.426
 20
-112.694
 30
0.000000
  70
    32
  0
VERTEX
  8
図枠
  5
C34
 10
103.447
 20
-112.699
 30
0.000000
  70
    32
  0
VERTEX
  8
図枠
  5
C35
 10
103.469
 20
-112.704
 30
0.000000
  70
    32
  0
VERTEX
  8
図枠
  5
C36
 10
103.490
 20
-112.710
 30
0.000000
  70
    32
  0
VERTEX
  8
図枠
  5
C37
 10
103.512
 20
-112.715
 30
0.000000
  70
    32
  0
VERTEX
  8
図枠
  5
C38
 10
103.533
 20
-112.720
 30
0.000000
  70
    32
  0
VERTEX
  8
図枠
  5
C39
 10
103.555
 20
-112.725
 30
0.000000
  70
    32
  0
VERTEX
  8
図枠
  5
C3A
 10
103.576
 20
-112.730
 30
0.000000
  70
    32
  0
VERTEX
  8
図枠
  5
C3B
 10
103.598
 20
-112.735
 30
0.000000
  70
    32
  0
VERTEX
  8
図枠
  5
C3C
 10
103.619
 20
-112.741
 30
0.000000
  70
    32
  0
VERTEX
  8
図枠
  5
C3D
 10
103.641
 20
-112.746
 30
0.000000
  70
    32
  0
VERTEX
  8
図枠
  5
C3E
 10
103.662
 20
-112.751
 30
0.000000
  70
    32
  0
VERTEX
  8
図枠
  5
C3F
 10
103.684
 20
-112.756
 30
0.000000
  70
    32
  0
VERTEX
  8
図枠
  5
C40
 10
103.705
 20
-112.761
 30
0.000000
  70
    32
  0
VERTEX
  8
図枠
  5
C41
 10
103.727
 20
-112.766
 30
0.000000
  70
    32
  0
VERTEX
  8
図枠
  5
C42
 10
103.748
 20
-112.771
 30
0.000000
  70
    32
  0
VERTEX
  8
図枠
  5
C43
 10
103.770
 20
-112.775
 30
0.000000
  70
    32
  0
VERTEX
  8
図枠
  5
C44
 10
103.792
 20
-112.780
 30
0.000000
  70
    32
  0
VERTEX
  8
図枠
  5
C45
 10
103.813
 20
-112.785
 30
0.000000
  70
    32
  0
VERTEX
  8
図枠
  5
C46
 10
103.835
 20
-112.790
 30
0.000000
  70
    32
  0
VERTEX
  8
図枠
  5
C47
 10
103.857
 20
-112.795
 30
0.000000
  70
    32
  0
VERTEX
  8
図枠
  5
C48
 10
103.878
 20
-112.800
 30
0.000000
  70
    32
  0
VERTEX
  8
図枠
  5
C49
 10
103.900
 20
-112.804
 30
0.000000
  70
    32
  0
VERTEX
  8
図枠
  5
C4A
 10
103.922
 20
-112.809
 30
0.000000
  70
    32
  0
VERTEX
  8
図枠
  5
C4B
 10
103.944
 20
-112.814
 30
0.000000
  70
    32
  0
VERTEX
  8
図枠
  5
C4C
 10
103.965
 20
-112.819
 30
0.000000
  70
    32
  0
VERTEX
  8
図枠
  5
C4D
 10
103.987
 20
-112.823
 30
0.000000
  70
    32
  0
VERTEX
  8
図枠
  5
C4E
 10
104.009
 20
-112.828
 30
0.000000
  70
    32
  0
VERTEX
  8
図枠
  5
C4F
 10
104.031
 20
-112.833
 30
0.000000
  70
    32
  0
VERTEX
  8
図枠
  5
C50
 10
104.053
 20
-112.837
 30
0.000000
  70
    32
  0
VERTEX
  8
図枠
  5
C51
 10
104.074
 20
-112.842
 30
0.000000
  70
    32
  0
VERTEX
  8
図枠
  5
C52
 10
104.096
 20
-112.846
 30
0.000000
  70
    32
  0
VERTEX
  8
図枠
  5
C53
 10
104.118
 20
-112.851
 30
0.000000
  70
    32
  0
VERTEX
  8
図枠
  5
C54
 10
104.140
 20
-112.855
 30
0.000000
  70
    32
  0
VERTEX
  8
図枠
  5
C55
 10
104.162
 20
-112.860
 30
0.000000
  70
    32
  0
VERTEX
  8
図枠
  5
C56
 10
104.184
 20
-112.864
 30
0.000000
  70
    32
  0
VERTEX
  8
図枠
  5
C57
 10
104.206
 20
-112.869
 30
0.000000
  70
    32
  0
VERTEX
  8
図枠
  5
C58
 10
104.227
 20
-112.873
 30
0.000000
  70
    32
  0
VERTEX
  8
図枠
  5
C59
 10
104.249
 20
-112.878
 30
0.000000
  70
    32
  0
VERTEX
  8
図枠
  5
C5A
 10
104.271
 20
-112.882
 30
0.000000
  70
    32
  0
VERTEX
  8
図枠
  5
C5B
 10
104.293
 20
-112.886
 30
0.000000
  70
    32
  0
VERTEX
  8
図枠
  5
C5C
 10
104.315
 20
-112.891
 30
0.000000
  70
    32
  0
VERTEX
  8
図枠
  5
C5D
 10
104.337
 20
-112.895
 30
0.000000
  70
    32
  0
VERTEX
  8
図枠
  5
C5E
 10
104.359
 20
-112.900
 30
0.000000
  70
    32
  0
VERTEX
  8
図枠
  5
C5F
 10
104.381
 20
-112.904
 30
0.000000
  70
    32
  0
VERTEX
  8
図枠
  5
C60
 10
104.403
 20
-112.908
 30
0.000000
  70
    32
  0
VERTEX
  8
図枠
  5
C61
 10
104.425
 20
-112.912
 30
0.000000
  70
    32
  0
VERTEX
  8
図枠
  5
C62
 10
104.447
 20
-112.917
 30
0.000000
  70
    32
  0
VERTEX
  8
図枠
  5
C63
 10
104.469
 20
-112.921
 30
0.000000
  70
    32
  0
VERTEX
  8
図枠
  5
C64
 10
104.491
 20
-112.925
 30
0.000000
  70
    32
  0
VERTEX
  8
図枠
  5
C65
 10
104.513
 20
-112.929
 30
0.000000
  70
    32
  0
VERTEX
  8
図枠
  5
C66
 10
104.535
 20
-112.934
 30
0.000000
  70
    32
  0
VERTEX
  8
図枠
  5
C67
 10
104.557
 20
-112.938
 30
0.000000
  70
    32
  0
VERTEX
  8
図枠
  5
C68
 10
104.580
 20
-112.942
 30
0.000000
  70
    32
  0
VERTEX
  8
図枠
  5
C69
 10
104.602
 20
-112.946
 30
0.000000
  70
    32
  0
VERTEX
  8
図枠
  5
C6A
 10
104.624
 20
-112.950
 30
0.000000
  70
    32
  0
VERTEX
  8
図枠
  5
C6B
 10
104.646
 20
-112.954
 30
0.000000
  70
    32
  0
VERTEX
  8
図枠
  5
C6C
 10
104.668
 20
-112.959
 30
0.000000
  70
    32
  0
VERTEX
  8
図枠
  5
C6D
 10
104.690
 20
-112.963
 30
0.000000
  70
    32
  0
VERTEX
  8
図枠
  5
C6E
 10
104.712
 20
-112.967
 30
0.000000
  70
    32
  0
VERTEX
  8
図枠
  5
C6F
 10
104.734
 20
-112.971
 30
0.000000
  70
    32
  0
VERTEX
  8
図枠
  5
C70
 10
104.757
 20
-112.975
 30
0.000000
  70
    32
  0
VERTEX
  8
図枠
  5
C71
 10
104.779
 20
-112.979
 30
0.000000
  70
    32
  0
VERTEX
  8
図枠
  5
C72
 10
104.801
 20
-112.983
 30
0.000000
  70
    32
  0
VERTEX
  8
図枠
  5
C73
 10
104.823
 20
-112.987
 30
0.000000
  70
    32
  0
VERTEX
  8
図枠
  5
C74
 10
104.845
 20
-112.991
 30
0.000000
  70
    32
  0
VERTEX
  8
図枠
  5
C75
 10
104.867
 20
-112.995
 30
0.000000
  70
    32
  0
VERTEX
  8
図枠
  5
C76
 10
104.890
 20
-112.999
 30
0.000000
  70
    32
  0
VERTEX
  8
図枠
  5
C77
 10
104.912
 20
-113.003
 30
0.000000
  70
    32
  0
VERTEX
  8
図枠
  5
C78
 10
104.934
 20
-113.007
 30
0.000000
  70
    32
  0
VERTEX
  8
図枠
  5
C79
 10
104.956
 20
-113.011
 30
0.000000
  70
    32
  0
VERTEX
  8
図枠
  5
C7A
 10
104.978
 20
-113.015
 30
0.000000
  70
    32
  0
VERTEX
  8
図枠
  5
C7B
 10
105.001
 20
-113.019
 30
0.000000
  70
    32
  0
VERTEX
  8
図枠
  5
C7C
 10
105.023
 20
-113.023
 30
0.000000
  70
    32
  0
VERTEX
  8
図枠
  5
C7D
 10
105.045
 20
-113.027
 30
0.000000
  70
    32
  0
VERTEX
  8
図枠
  5
C7E
 10
105.067
 20
-113.031
 30
0.000000
  70
    32
  0
VERTEX
  8
図枠
  5
C7F
 10
105.090
 20
-113.035
 30
0.000000
  70
    32
  0
VERTEX
  8
図枠
  5
C80
 10
105.112
 20
-113.038
 30
0.000000
  70
    32
  0
VERTEX
  8
図枠
  5
C81
 10
105.134
 20
-113.042
 30
0.000000
  70
    32
  0
VERTEX
  8
図枠
  5
C82
 10
105.156
 20
-113.046
 30
0.000000
  70
    32
  0
VERTEX
  8
図枠
  5
C83
 10
105.179
 20
-113.050
 30
0.000000
  70
    32
  0
VERTEX
  8
図枠
  5
C84
 10
105.201
 20
-113.054
 30
0.000000
  70
    32
  0
VERTEX
  8
図枠
  5
C85
 10
105.223
 20
-113.058
 30
0.000000
  70
    32
  0
VERTEX
  8
図枠
  5
C86
 10
105.245
 20
-113.062
 30
0.000000
  70
    32
  0
VERTEX
  8
図枠
  5
C87
 10
105.268
 20
-113.065
 30
0.000000
  70
    32
  0
VERTEX
  8
図枠
  5
C88
 10
105.290
 20
-113.069
 30
0.000000
  70
    32
  0
VERTEX
  8
図枠
  5
C89
 10
105.312
 20
-113.073
 30
0.000000
  70
    32
  0
VERTEX
  8
図枠
  5
C8A
 10
105.335
 20
-113.077
 30
0.000000
  70
    32
  0
VERTEX
  8
図枠
  5
C8B
 10
105.357
 20
-113.081
 30
0.000000
  70
    32
  0
VERTEX
  8
図枠
  5
C8C
 10
105.379
 20
-113.085
 30
0.000000
  70
    32
  0
VERTEX
  8
図枠
  5
C8D
 10
105.402
 20
-113.088
 30
0.000000
  70
    32
  0
VERTEX
  8
図枠
  5
C8E
 10
105.424
 20
-113.092
 30
0.000000
  70
    32
  0
VERTEX
  8
図枠
  5
C8F
 10
105.446
 20
-113.096
 30
0.000000
  70
    32
  0
VERTEX
  8
図枠
  5
C90
 10
105.468
 20
-113.100
 30
0.000000
  70
    32
  0
VERTEX
  8
図枠
  5
C91
 10
105.491
 20
-113.104
 30
0.000000
  70
    32
  0
VERTEX
  8
図枠
  5
C92
 10
105.513
 20
-113.107
 30
0.000000
  70
    32
  0
VERTEX
  8
図枠
  5
C93
 10
105.535
 20
-113.111
 30
0.000000
  70
    32
  0
VERTEX
  8
図枠
  5
C94
 10
105.558
 20
-113.115
 30
0.000000
  70
    32
  0
VERTEX
  8
図枠
  5
C95
 10
105.580
 20
-113.119
 30
0.000000
  70
    32
  0
VERTEX
  8
図枠
  5
C96
 10
105.602
 20
-113.123
 30
0.000000
  70
    32
  0
VERTEX
  8
図枠
  5
C97
 10
105.625
 20
-113.126
 30
0.000000
  70
    32
  0
VERTEX
  8
図枠
  5
C98
 10
105.647
 20
-113.130
 30
0.000000
  70
    32
  0
VERTEX
  8
図枠
  5
C99
 10
105.669
 20
-113.134
 30
0.000000
  70
    32
  0
VERTEX
  8
図枠
  5
C9A
 10
105.692
 20
-113.138
 30
0.000000
  70
    32
  0
VERTEX
  8
図枠
  5
C9B
 10
105.714
 20
-113.141
 30
0.000000
  70
    32
  0
VERTEX
  8
図枠
  5
C9C
 10
105.736
 20
-113.145
 30
0.000000
  70
    32
  0
VERTEX
  8
図枠
  5
C9D
 10
105.759
 20
-113.149
 30
0.000000
  70
    32
  0
VERTEX
  8
図枠
  5
C9E
 10
105.781
 20
-113.153
 30
0.000000
  70
    32
  0
SEQEND
  8
図枠
  5
C9F
  0
LINE
  5
392
  8
図枠
 10
111.78822145309999
 20
-87.098000954
 30
0.0
 11
118.7002214531
 21
-88.826000953999994
 31
0.0
  0
CIRCLE
  5
393
  8
図枠
 10
103.8885002363
 20
-85.370000953999991
 30
0.0
 40
1.728
  0
LINE
  5
394
  8
図枠
 10
111.78822145309999
 20
-87.098000954
 30
0.0
 11
118.7002214531
 21
-88.826000953999994
 31
0.0
  0
INSERT
  5
395
  8
0
  6
CONTINUOUS
  2
*U116
 10
0.0
 20
0.0
 30
0.0
  0
INSERT
  5
396
  8
0
  6
CONTINUOUS
  2
*U117
 10
0.0
 20
0.0
 30
0.0
  0
LINE
  5
397
  8
図枠
 10
81.588302285300003
 20
-110.7527933937
 30
0.0
 11
81.406977711400003
 21
-110.7527933937
 31
0.0
  0
LINE
  5
398
  8
図枠
 10
89.988302285300009
 20
-108.95279339370001
 30
0.0
 11
89.988302285300009
 21
-108.3527933937
 31
0.0
  0
LINE
  5
399
  8
図枠
 10
114.8391659632
 20
-108.59279339370001
 30
0.0
 11
114.6634928629
 21
-107.9823187251
 31
0.0
  0
LINE
  5
39A
  8
図枠
 10
94.792500236299986
 20
-78.995000953999991
 30
0.0
 11
94.792500236299986
 21
-91.745000953999991
 31
0.0
  0
INSERT
  5
39B
  8
0
  6
CONTINUOUS
  2
*U118
 10
0.0
 20
0.0
 30
0.0
  0
LINE
  5
39C
  8
図枠
 10
82.7925002363
 20
-98.120000954000005
 30
0.0
 11
121.7925002363
 21
-98.120000954000005
 31
0.0
  0
ARC
  5
39D
  8
図枠
 10
96.421029557999987
 20
-108.59279339370001
 30
0.0
 40
4.5599999999999987
 50
270.0
 51
298.08590481520002
  0
ARC
  5
39E
  8
図枠
 10
97.981029557999989
 20
-108.3527933937
 30
0.0
 40
6.5999999999999988
 50
322.48761197969998
 51
0.0
  0
LINE
  5
39F
  8
図枠
 10
103.2162927805
 20
-112.3717508445
 30
0.0
 11
103.0025703087
 21
-112.5810046175
 31
0.0
  0
LINE
  5
3A0
  8
図枠
 10
119.2420087359
 20
-111.7127933937
 30
0.0
 11
119.2420087359
 21
-113.87279339369999
 31
0.0
  0
INSERT
  5
3A1
  8
0
  6
CONTINUOUS
  2
*U119
 10
0.0
 20
0.0
 30
0.0
  0
LINE
  5
3A2
  8
図枠
 10
94.981029557999975
 20
-113.15279339369999
 30
0.0
 11
96.421029557999987
 21
-113.15279339369999
 31
0.0
  0
INSERT
  5
3A3
  8
0
  6
CONTINUOUS
  2
*U120
 10
0.0
 20
0.0
 30
0.0
  0
INSERT
  5
3A4
  8
0
  6
CONTINUOUS
  2
*U121
 10
0.0
 20
0.0
 30
0.0
  0
LINE
  5
3A5
  8
図枠
 10
81.588302285300003
 20
-114.95279339370001
 30
0.0
 11
86.3883022853
 21
-114.95279339370001
 31
0.0
  0
LINE
  5
3A6
  8
図枠
 10
94.981029557999975
 20
-114.95279339370001
 30
0.0
 11
97.981029557999989
 21
-114.95279339370001
 31
0.0
  0
LINE
  5
3A7
  8
図枠
 10
84.588302285300003
 20
-110.7527933937
 30
0.0
 11
86.988302285300009
 21
-110.7527933937
 31
0.0
  0
CIRCLE
  5
3A8
  8
図枠
 10
103.8885002363
 20
-85.370000953999991
 30
0.0
 40
3.456
  0
INSERT
  5
3A9
  8
0
  6
CONTINUOUS
  2
*U122
 10
0.0
 20
0.0
 30
0.0
  0
LINE
  5
3AA
  8
図枠
 10
34.7925002363
 20
-91.745000953999991
 30
0.0
 11
208.79250023629999
 21
-91.745000953999991
 31
0.0
  0
LINE
  5
3AB
  8
図枠
 10
34.7925002363
 20
-54.245000953999991
 30
0.0
 11
208.79250023629999
 21
-54.245000953999991
 31
0.0
  0
LINE
  5
3AC
  8
図枠
 10
118.7002214531
 20
-81.914000954000002
 30
0.0
 11
118.7002214531
 21
-88.826000953999994
 31
0.0
  0
LINE
  5
3AD
  8
図枠
 10
120.2925002363
 20
-62.495000953999998
 30
0.0
 11
120.2925002363
 21
-54.245000953999991
 31
0.0
  0
INSERT
  5
3AE
  8
0
  6
CONTINUOUS
  2
*U123
 10
0.0
 20
0.0
 30
0.0
  0
INSERT
  5
3AF
  8
0
  6
CONTINUOUS
  2
*U124
 10
0.0
 20
0.0
 30
0.0
  0
LINE
  5
3B0
  8
図枠
 10
111.78822145309999
 20
-83.642000953999997
 30
0.0
 11
118.7002214531
 21
-81.914000954000002
 31
0.0
  0
POLYLINE
  8
図枠
  5
CA0
  66
     1
 10
0.000000
 20
0.000000
 30
0.000000
  70
     8
  0
VERTEX
  8
図枠
  5
CA1
 10
94.9810
 20
-109.726
 30
0.000000
  70
    32
  0
VERTEX
  8
図枠
  5
CA2
 10
95.0026
 20
-109.746
 30
0.000000
  70
    32
  0
VERTEX
  8
図枠
  5
CA3
 10
95.0243
 20
-109.766
 30
0.000000
  70
    32
  0
VERTEX
  8
図枠
  5
CA4
 10
95.0459
 20
-109.786
 30
0.000000
  70
    32
  0
VERTEX
  8
図枠
  5
CA5
 10
95.0675
 20
-109.806
 30
0.000000
  70
    32
  0
VERTEX
  8
図枠
  5
CA6
 10
95.0891
 20
-109.825
 30
0.000000
  70
    32
  0
VERTEX
  8
図枠
  5
CA7
 10
95.1107
 20
-109.845
 30
0.000000
  70
    32
  0
VERTEX
  8
図枠
  5
CA8
 10
95.1323
 20
-109.865
 30
0.000000
  70
    32
  0
VERTEX
  8
図枠
  5
CA9
 10
95.1540
 20
-109.885
 30
0.000000
  70
    32
  0
VERTEX
  8
図枠
  5
CAA
 10
95.1756
 20
-109.905
 30
0.000000
  70
    32
  0
VERTEX
  8
図枠
  5
CAB
 10
95.1972
 20
-109.925
 30
0.000000
  70
    32
  0
VERTEX
  8
図枠
  5
CAC
 10
95.2188
 20
-109.945
 30
0.000000
  70
    32
  0
VERTEX
  8
図枠
  5
CAD
 10
95.2405
 20
-109.965
 30
0.000000
  70
    32
  0
VERTEX
  8
図枠
  5
CAE
 10
95.2621
 20
-109.985
 30
0.000000
  70
    32
  0
VERTEX
  8
図枠
  5
CAF
 10
95.2837
 20
-110.005
 30
0.000000
  70
    32
  0
VERTEX
  8
図枠
  5
CB0
 10
95.3054
 20
-110.024
 30
0.000000
  70
    32
  0
VERTEX
  8
図枠
  5
CB1
 10
95.3270
 20
-110.044
 30
0.000000
  70
    32
  0
VERTEX
  8
図枠
  5
CB2
 10
95.3486
 20
-110.064
 30
0.000000
  70
    32
  0
VERTEX
  8
図枠
  5
CB3
 10
95.3703
 20
-110.084
 30
0.000000
  70
    32
  0
VERTEX
  8
図枠
  5
CB4
 10
95.3919
 20
-110.104
 30
0.000000
  70
    32
  0
VERTEX
  8
図枠
  5
CB5
 10
95.4136
 20
-110.124
 30
0.000000
  70
    32
  0
VERTEX
  8
図枠
  5
CB6
 10
95.4353
 20
-110.144
 30
0.000000
  70
    32
  0
VERTEX
  8
図枠
  5
CB7
 10
95.4569
 20
-110.163
 30
0.000000
  70
    32
  0
VERTEX
  8
図枠
  5
CB8
 10
95.4786
 20
-110.183
 30
0.000000
  70
    32
  0
VERTEX
  8
図枠
  5
CB9
 10
95.5003
 20
-110.203
 30
0.000000
  70
    32
  0
VERTEX
  8
図枠
  5
CBA
 10
95.5220
 20
-110.223
 30
0.000000
  70
    32
  0
VERTEX
  8
図枠
  5
CBB
 10
95.5436
 20
-110.243
 30
0.000000
  70
    32
  0
VERTEX
  8
図枠
  5
CBC
 10
95.5653
 20
-110.262
 30
0.000000
  70
    32
  0
VERTEX
  8
図枠
  5
CBD
 10
95.5870
 20
-110.282
 30
0.000000
  70
    32
  0
VERTEX
  8
図枠
  5
CBE
 10
95.6087
 20
-110.302
 30
0.000000
  70
    32
  0
VERTEX
  8
図枠
  5
CBF
 10
95.6304
 20
-110.322
 30
0.000000
  70
    32
  0
VERTEX
  8
図枠
  5
CC0
 10
95.6522
 20
-110.341
 30
0.000000
  70
    32
  0
VERTEX
  8
図枠
  5
CC1
 10
95.6739
 20
-110.361
 30
0.000000
  70
    32
  0
VERTEX
  8
図枠
  5
CC2
 10
95.6956
 20
-110.381
 30
0.000000
  70
    32
  0
VERTEX
  8
図枠
  5
CC3
 10
95.7174
 20
-110.401
 30
0.000000
  70
    32
  0
VERTEX
  8
図枠
  5
CC4
 10
95.7391
 20
-110.420
 30
0.000000
  70
    32
  0
VERTEX
  8
図枠
  5
CC5
 10
95.7609
 20
-110.440
 30
0.000000
  70
    32
  0
VERTEX
  8
図枠
  5
CC6
 10
95.7826
 20
-110.460
 30
0.000000
  70
    32
  0
VERTEX
  8
図枠
  5
CC7
 10
95.8044
 20
-110.479
 30
0.000000
  70
    32
  0
VERTEX
  8
図枠
  5
CC8
 10
95.8262
 20
-110.499
 30
0.000000
  70
    32
  0
VERTEX
  8
図枠
  5
CC9
 10
95.8480
 20
-110.518
 30
0.000000
  70
    32
  0
VERTEX
  8
図枠
  5
CCA
 10
95.8698
 20
-110.538
 30
0.000000
  70
    32
  0
VERTEX
  8
図枠
  5
CCB
 10
95.8916
 20
-110.558
 30
0.000000
  70
    32
  0
VERTEX
  8
図枠
  5
CCC
 10
95.9134
 20
-110.577
 30
0.000000
  70
    32
  0
VERTEX
  8
図枠
  5
CCD
 10
95.9352
 20
-110.597
 30
0.000000
  70
    32
  0
VERTEX
  8
図枠
  5
CCE
 10
95.9571
 20
-110.616
 30
0.000000
  70
    32
  0
VERTEX
  8
図枠
  5
CCF
 10
95.9789
 20
-110.636
 30
0.000000
  70
    32
  0
VERTEX
  8
図枠
  5
CD0
 10
96.0008
 20
-110.655
 30
0.000000
  70
    32
  0
VERTEX
  8
図枠
  5
CD1
 10
96.0226
 20
-110.675
 30
0.000000
  70
    32
  0
VERTEX
  8
図枠
  5
CD2
 10
96.0445
 20
-110.694
 30
0.000000
  70
    32
  0
VERTEX
  8
図枠
  5
CD3
 10
96.0664
 20
-110.713
 30
0.000000
  70
    32
  0
VERTEX
  8
図枠
  5
CD4
 10
96.0883
 20
-110.733
 30
0.000000
  70
    32
  0
VERTEX
  8
図枠
  5
CD5
 10
96.1102
 20
-110.752
 30
0.000000
  70
    32
  0
VERTEX
  8
図枠
  5
CD6
 10
96.1321
 20
-110.771
 30
0.000000
  70
    32
  0
VERTEX
  8
図枠
  5
CD7
 10
96.1541
 20
-110.791
 30
0.000000
  70
    32
  0
VERTEX
  8
図枠
  5
CD8
 10
96.1760
 20
-110.810
 30
0.000000
  70
    32
  0
VERTEX
  8
図枠
  5
CD9
 10
96.1980
 20
-110.829
 30
0.000000
  70
    32
  0
VERTEX
  8
図枠
  5
CDA
 10
96.2199
 20
-110.849
 30
0.000000
  70
    32
  0
VERTEX
  8
図枠
  5
CDB
 10
96.2419
 20
-110.868
 30
0.000000
  70
    32
  0
VERTEX
  8
図枠
  5
CDC
 10
96.2639
 20
-110.887
 30
0.000000
  70
    32
  0
VERTEX
  8
図枠
  5
CDD
 10
96.2859
 20
-110.906
 30
0.000000
  70
    32
  0
VERTEX
  8
図枠
  5
CDE
 10
96.3079
 20
-110.925
 30
0.000000
  70
    32
  0
VERTEX
  8
図枠
  5
CDF
 10
96.3300
 20
-110.945
 30
0.000000
  70
    32
  0
VERTEX
  8
図枠
  5
CE0
 10
96.3520
 20
-110.964
 30
0.000000
  70
    32
  0
VERTEX
  8
図枠
  5
CE1
 10
96.3741
 20
-110.983
 30
0.000000
  70
    32
  0
VERTEX
  8
図枠
  5
CE2
 10
96.3962
 20
-111.002
 30
0.000000
  70
    32
  0
VERTEX
  8
図枠
  5
CE3
 10
96.4183
 20
-111.021
 30
0.000000
  70
    32
  0
VERTEX
  8
図枠
  5
CE4
 10
96.4404
 20
-111.040
 30
0.000000
  70
    32
  0
VERTEX
  8
図枠
  5
CE5
 10
96.4625
 20
-111.059
 30
0.000000
  70
    32
  0
VERTEX
  8
図枠
  5
CE6
 10
96.4847
 20
-111.078
 30
0.000000
  70
    32
  0
VERTEX
  8
図枠
  5
CE7
 10
96.5068
 20
-111.097
 30
0.000000
  70
    32
  0
VERTEX
  8
図枠
  5
CE8
 10
96.5290
 20
-111.116
 30
0.000000
  70
    32
  0
VERTEX
  8
図枠
  5
CE9
 10
96.5512
 20
-111.135
 30
0.000000
  70
    32
  0
VERTEX
  8
図枠
  5
CEA
 10
96.5734
 20
-111.153
 30
0.000000
  70
    32
  0
VERTEX
  8
図枠
  5
CEB
 10
96.5956
 20
-111.172
 30
0.000000
  70
    32
  0
VERTEX
  8
図枠
  5
CEC
 10
96.6178
 20
-111.191
 30
0.000000
  70
    32
  0
VERTEX
  8
図枠
  5
CED
 10
96.6401
 20
-111.210
 30
0.000000
  70
    32
  0
VERTEX
  8
図枠
  5
CEE
 10
96.6623
 20
-111.228
 30
0.000000
  70
    32
  0
VERTEX
  8
図枠
  5
CEF
 10
96.6846
 20
-111.247
 30
0.000000
  70
    32
  0
VERTEX
  8
図枠
  5
CF0
 10
96.7069
 20
-111.266
 30
0.000000
  70
    32
  0
VERTEX
  8
図枠
  5
CF1
 10
96.7293
 20
-111.284
 30
0.000000
  70
    32
  0
VERTEX
  8
図枠
  5
CF2
 10
96.7516
 20
-111.303
 30
0.000000
  70
    32
  0
VERTEX
  8
図枠
  5
CF3
 10
96.7740
 20
-111.321
 30
0.000000
  70
    32
  0
VERTEX
  8
図枠
  5
CF4
 10
96.7963
 20
-111.340
 30
0.000000
  70
    32
  0
VERTEX
  8
図枠
  5
CF5
 10
96.8187
 20
-111.358
 30
0.000000
  70
    32
  0
VERTEX
  8
図枠
  5
CF6
 10
96.8411
 20
-111.377
 30
0.000000
  70
    32
  0
VERTEX
  8
図枠
  5
CF7
 10
96.8636
 20
-111.395
 30
0.000000
  70
    32
  0
VERTEX
  8
図枠
  5
CF8
 10
96.8860
 20
-111.414
 30
0.000000
  70
    32
  0
VERTEX
  8
図枠
  5
CF9
 10
96.9085
 20
-111.432
 30
0.000000
  70
    32
  0
VERTEX
  8
図枠
  5
CFA
 10
96.9310
 20
-111.450
 30
0.000000
  70
    32
  0
VERTEX
  8
図枠
  5
CFB
 10
96.9535
 20
-111.469
 30
0.000000
  70
    32
  0
VERTEX
  8
図枠
  5
CFC
 10
96.9760
 20
-111.487
 30
0.000000
  70
    32
  0
VERTEX
  8
図枠
  5
CFD
 10
96.9986
 20
-111.505
 30
0.000000
  70
    32
  0
VERTEX
  8
図枠
  5
CFE
 10
97.0212
 20
-111.523
 30
0.000000
  70
    32
  0
VERTEX
  8
図枠
  5
CFF
 10
97.0438
 20
-111.541
 30
0.000000
  70
    32
  0
VERTEX
  8
図枠
  5
D00
 10
97.0664
 20
-111.559
 30
0.000000
  70
    32
  0
VERTEX
  8
図枠
  5
D01
 10
97.0890
 20
-111.577
 30
0.000000
  70
    32
  0
VERTEX
  8
図枠
  5
D02
 10
97.1117
 20
-111.595
 30
0.000000
  70
    32
  0
VERTEX
  8
図枠
  5
D03
 10
97.1344
 20
-111.613
 30
0.000000
  70
    32
  0
VERTEX
  8
図枠
  5
D04
 10
97.1571
 20
-111.631
 30
0.000000
  70
    32
  0
VERTEX
  8
図枠
  5
D05
 10
97.1798
 20
-111.649
 30
0.000000
  70
    32
  0
VERTEX
  8
図枠
  5
D06
 10
97.2025
 20
-111.667
 30
0.000000
  70
    32
  0
VERTEX
  8
図枠
  5
D07
 10
97.2253
 20
-111.685
 30
0.000000
  70
    32
  0
VERTEX
  8
図枠
  5
D08
 10
97.2481
 20
-111.702
 30
0.000000
  70
    32
  0
VERTEX
  8
図枠
  5
D09
 10
97.2709
 20
-111.720
 30
0.000000
  70
    32
  0
VERTEX
  8
図枠
  5
D0A
 10
97.2937
 20
-111.738
 30
0.000000
  70
    32
  0
VERTEX
  8
図枠
  5
D0B
 10
97.3166
 20
-111.755
 30
0.000000
  70
    32
  0
VERTEX
  8
図枠
  5
D0C
 10
97.3395
 20
-111.773
 30
0.000000
  70
    32
  0
VERTEX
  8
図枠
  5
D0D
 10
97.3624
 20
-111.790
 30
0.000000
  70
    32
  0
VERTEX
  8
図枠
  5
D0E
 10
97.3853
 20
-111.808
 30
0.000000
  70
    32
  0
VERTEX
  8
図枠
  5
D0F
 10
97.4083
 20
-111.825
 30
0.000000
  70
    32
  0
VERTEX
  8
図枠
  5
D10
 10
97.4313
 20
-111.843
 30
0.000000
  70
    32
  0
VERTEX
  8
図枠
  5
D11
 10
97.4543
 20
-111.860
 30
0.000000
  70
    32
  0
VERTEX
  8
図枠
  5
D12
 10
97.4773
 20
-111.877
 30
0.000000
  70
    32
  0
VERTEX
  8
図枠
  5
D13
 10
97.5004
 20
-111.895
 30
0.000000
  70
    32
  0
VERTEX
  8
図枠
  5
D14
 10
97.5235
 20
-111.912
 30
0.000000
  70
    32
  0
VERTEX
  8
図枠
  5
D15
 10
97.5466
 20
-111.929
 30
0.000000
  70
    32
  0
VERTEX
  8
図枠
  5
D16
 10
97.5697
 20
-111.946
 30
0.000000
  70
    32
  0
VERTEX
  8
図枠
  5
D17
 10
97.5929
 20
-111.963
 30
0.000000
  70
    32
  0
VERTEX
  8
図枠
  5
D18
 10
97.6160
 20
-111.980
 30
0.000000
  70
    32
  0
VERTEX
  8
図枠
  5
D19
 10
97.6393
 20
-111.997
 30
0.000000
  70
    32
  0
VERTEX
  8
図枠
  5
D1A
 10
97.6625
 20
-112.014
 30
0.000000
  70
    32
  0
VERTEX
  8
図枠
  5
D1B
 10
97.6858
 20
-112.031
 30
0.000000
  70
    32
  0
VERTEX
  8
図枠
  5
D1C
 10
97.7091
 20
-112.048
 30
0.000000
  70
    32
  0
VERTEX
  8
図枠
  5
D1D
 10
97.7324
 20
-112.065
 30
0.000000
  70
    32
  0
VERTEX
  8
図枠
  5
D1E
 10
97.7557
 20
-112.081
 30
0.000000
  70
    32
  0
VERTEX
  8
図枠
  5
D1F
 10
97.7791
 20
-112.098
 30
0.000000
  70
    32
  0
VERTEX
  8
図枠
  5
D20
 10
97.8025
 20
-112.115
 30
0.000000
  70
    32
  0
VERTEX
  8
図枠
  5
D21
 10
97.8260
 20
-112.131
 30
0.000000
  70
    32
  0
VERTEX
  8
図枠
  5
D22
 10
97.8494
 20
-112.148
 30
0.000000
  70
    32
  0
VERTEX
  8
図枠
  5
D23
 10
97.8729
 20
-112.164
 30
0.000000
  70
    32
  0
VERTEX
  8
図枠
  5
D24
 10
97.8965
 20
-112.180
 30
0.000000
  70
    32
  0
VERTEX
  8
図枠
  5
D25
 10
97.9200
 20
-112.197
 30
0.000000
  70
    32
  0
VERTEX
  8
図枠
  5
D26
 10
97.9436
 20
-112.213
 30
0.000000
  70
    32
  0
VERTEX
  8
図枠
  5
D27
 10
97.9672
 20
-112.229
 30
0.000000
  70
    32
  0
VERTEX
  8
図枠
  5
D28
 10
97.9908
 20
-112.245
 30
0.000000
  70
    32
  0
VERTEX
  8
図枠
  5
D29
 10
98.0145
 20
-112.262
 30
0.000000
  70
    32
  0
VERTEX
  8
図枠
  5
D2A
 10
98.0382
 20
-112.278
 30
0.000000
  70
    32
  0
VERTEX
  8
図枠
  5
D2B
 10
98.0620
 20
-112.294
 30
0.000000
  70
    32
  0
VERTEX
  8
図枠
  5
D2C
 10
98.0857
 20
-112.310
 30
0.000000
  70
    32
  0
VERTEX
  8
図枠
  5
D2D
 10
98.1095
 20
-112.325
 30
0.000000
  70
    32
  0
VERTEX
  8
図枠
  5
D2E
 10
98.1333
 20
-112.341
 30
0.000000
  70
    32
  0
VERTEX
  8
図枠
  5
D2F
 10
98.1572
 20
-112.357
 30
0.000000
  70
    32
  0
VERTEX
  8
図枠
  5
D30
 10
98.1811
 20
-112.373
 30
0.000000
  70
    32
  0
VERTEX
  8
図枠
  5
D31
 10
98.2050
 20
-112.388
 30
0.000000
  70
    32
  0
VERTEX
  8
図枠
  5
D32
 10
98.2290
 20
-112.404
 30
0.000000
  70
    32
  0
VERTEX
  8
図枠
  5
D33
 10
98.2530
 20
-112.420
 30
0.000000
  70
    32
  0
VERTEX
  8
図枠
  5
D34
 10
98.2770
 20
-112.435
 30
0.000000
  70
    32
  0
VERTEX
  8
図枠
  5
D35
 10
98.3010
 20
-112.450
 30
0.000000
  70
    32
  0
VERTEX
  8
図枠
  5
D36
 10
98.3251
 20
-112.466
 30
0.000000
  70
    32
  0
VERTEX
  8
図枠
  5
D37
 10
98.3492
 20
-112.481
 30
0.000000
  70
    32
  0
VERTEX
  8
図枠
  5
D38
 10
98.3734
 20
-112.496
 30
0.000000
  70
    32
  0
VERTEX
  8
図枠
  5
D39
 10
98.3976
 20
-112.511
 30
0.000000
  70
    32
  0
VERTEX
  8
図枠
  5
D3A
 10
98.4218
 20
-112.527
 30
0.000000
  70
    32
  0
VERTEX
  8
図枠
  5
D3B
 10
98.4461
 20
-112.542
 30
0.000000
  70
    32
  0
VERTEX
  8
図枠
  5
D3C
 10
98.4703
 20
-112.557
 30
0.000000
  70
    32
  0
VERTEX
  8
図枠
  5
D3D
 10
98.4947
 20
-112.571
 30
0.000000
  70
    32
  0
VERTEX
  8
図枠
  5
D3E
 10
98.5190
 20
-112.586
 30
0.000000
  70
    32
  0
VERTEX
  8
図枠
  5
D3F
 10
98.5434
 20
-112.601
 30
0.000000
  70
    32
  0
VERTEX
  8
図枠
  5
D40
 10
98.5679
 20
-112.616
 30
0.000000
  70
    32
  0
SEQEND
  8
図枠
  5
D41
  0
LINE
  5
3B2
  8
図枠
 10
115.73699203370001
 20
-111.7127933937
 30
0.0
 11
119.2420087359
 21
-111.7127933937
 31
0.0
  0
LINE
  5
3B3
  8
図枠
 10
108.4420087359
 20
-108.59279339370001
 30
0.0
 11
111.44040873589999
 21
-108.59279339370001
 31
0.0
  0
LINE
  5
3B4
  8
図枠
 10
119.2420087359
 20
-108.59279339370001
 30
0.0
 11
119.2420087359
 21
-110.7527933937
 31
0.0
  0
LINE
  5
3B5
  8
ﾚｲﾔ_10
  6
STITCH
 10
52.880761718800002
 20
95.390950520800004
 30
0.0
 11
52.880761718800002
 21
99.590950520800007
 31
0.0
  0
LINE
  5
3B6
  8
ﾚｲﾔ_10
  6
STITCH
 10
52.880761718800002
 20
99.590950520800007
 30
0.0
 11
54.230761718799997
 21
99.590950520800007
 31
0.0
  0
LINE
  5
3B7
  8
ﾚｲﾔ_10
  6
STITCH
 10
52.880761718800002
 20
95.390950520800004
 30
0.0
 11
54.230761718799997
 21
95.390950520800004
 31
0.0
  0
LINE
  5
3B8
  8
図枠
 10
115.73699203370001
 20
-111.7127933937
 30
0.0
 11
115.46073785820001
 21
-110.7527933937
 31
0.0
  0
LINE
  5
3B9
  8
図枠
 10
108.4420087359
 20
-113.87279339369999
 30
0.0
 11
112.98920873589999
 21
-113.87279339369999
 31
0.0
  0
LINE
  5
3BA
  8
図枠
 10
105.781029558
 20
-106.5527933937
 30
0.0
 11
94.981029557999975
 21
-106.5527933937
 31
0.0
  0
LINE
  5
3BB
  8
図枠
 10
81.588302285300003
 20
-112.5527933937
 30
0.0
 11
84.588302285300003
 21
-112.5527933937
 31
0.0
  0
LINE
  5
3BC
  8
図枠
 10
115.46073785820001
 20
-110.7527933937
 30
0.0
 11
119.2420087359
 21
-110.7527933937
 31
0.0
  0
LINE
  5
3BD
  8
図枠
 10
111.78822145309999
 20
-83.642000953999997
 30
0.0
 11
111.78822145309999
 21
-87.098000954
 31
0.0
  0
LINE
  5
3BE
  8
図枠
 10
111.44040873589999
 20
-108.59279339370001
 30
0.0
 11
110.8420087359
 21
-106.5527933937
 31
0.0
  0
LINE
  5
3BF
  8
図枠
 10
114.8391659632
 20
-108.59279339370001
 30
0.0
 11
119.2420087359
 21
-108.59279339370001
 31
0.0
  0
LINE
  5
3C0
  8
図枠
 10
118.7002214531
 20
-81.914000954000002
 30
0.0
 11
118.7002214531
 21
-88.826000953999994
 31
0.0
  0
LINE
  5
3C1
  8
図枠
 10
105.781029558
 20
-113.15279339369999
 30
0.0
 11
105.781029558
 21
-114.95279339370001
 31
0.0
  0
LINE
  5
3C2
  8
図枠
 10
84.588302285300003
 20
-108.3527933937
 30
0.0
 11
86.3883022853
 21
-106.5527933937
 31
0.0
  0
LINE
  5
3C3
  8
図枠
 10
81.588302285300003
 20
-108.95279339370001
 30
0.0
 11
80.2069777114
 21
-108.95279339370001
 31
0.0
  0
INSERT
  5
3C4
  8
0
  6
CONTINUOUS
  2
*U125
 10
0.0
 20
0.0
 30
0.0
  0
LINE
  5
3C5
  8
図枠
 10
113.4820087359
 20
-115.5527933937
 30
0.0
 11
116.8420087359
 21
-115.5527933937
 31
0.0
  0
LINE
  5
3C6
  8
図枠
 10
79.7925002363
 20
-91.745000953999991
 30
0.0
 11
79.7925002363
 21
-104.49500095400001
 31
0.0
  0
LINE
  5
3C7
  8
図枠
 10
100.424604548
 20
-110.77567847980001
 30
0.0
 11
100.1358895804
 21
-111.0945645125
 31
0.0
  0
ARC
  5
3C8
  8
図枠
 10
86.3883022853
 20
-111.3527933937
 30
0.0
 40
3.6000000000000001
 50
270.0
 51
0.0
  0
INSERT
  5
3C9
  8
0
  6
CONTINUOUS
  2
*U126
 10
0.0
 20
0.0
 30
0.0
  0
LINE
  5
3CA
  8
図枠
 10
67.7925002363
 20
-85.370000953999991
 30
0.0
 11
88.792500236299986
 21
-85.370000953999991
 31
0.0
  0
LINE
  5
3CB
  8
図枠
 10
110.8420087359
 20
-106.5527933937
 30
0.0
 11
115.64200873590001
 21
-106.5527933937
 31
0.0
  0
LINE
  5
3CC
  8
図枠
 10
104.581029558
 20
-108.3527933937
 30
0.0
 11
105.781029558
 21
-106.5527933937
 31
0.0
  0
LINE
  5
3CD
  8
図枠
 10
116.8420087359
 20
-115.5527933937
 30
0.0
 11
116.35856392869999
 21
-113.87279339369999
 31
0.0
  0
LINE
  5
3CE
  8
ﾚｲﾔ_10
  6
BORDER
 62
     3
 10
43.230761718700002
 20
102.4909505208
 30
0.0
 11
43.230761718700002
 21
92.490950520799984
 31
0.0
  0
LINE
  5
3CF
  8
ﾚｲﾔ_10
  6
BORDER
 62
     3
 10
38.230761718700002
 20
97.490950520800013
 30
0.0
 11
48.230761718799997
 21
97.490950520800013
 31
0.0
  0
CIRCLE
  5
3D0
  8
ﾚｲﾔ_10
 62
     5
 10
43.230761718700002
 20
97.490950520800013
 30
0.0
 40
2.1000000000000001
  0
CIRCLE
  5
3D1
  8
図枠
 10
103.8885002363
 20
-85.370000953999991
 30
0.0
 40
1.728
  0
LINE
  5
3D2
  8
図枠
 10
108.4420087359
 20
-110.7527933937
 30
0.0
 11
112.07400873589999
 21
-110.7527933937
 31
0.0
  0
LINE
  5
3D3
  8
図枠
 10
34.7925002363
 20
-70.745000953999991
 30
0.0
 11
208.79250023629999
 21
-70.745000953999991
 31
0.0
  0
LINE
  5
3D4
  8
図枠
 10
34.7925002363
 20
-62.495000953999998
 30
0.0
 11
208.79250023629999
 21
-62.495000953999998
 31
0.0
  0
LINE
  5
3D5
  8
図枠
  6
BORDER
 10
103.8885002363
 20
-80.186000953999994
 30
0.0
 11
103.8885002363
 21
-90.554000954000017
 31
0.0
  0
LINE
  5
3D6
  8
図枠
 10
64.7925002363
 20
-78.995000953999991
 30
0.0
 11
64.7925002363
 21
-54.245000953999991
 31
0.0
  0
LINE
  5
3D7
  8
図枠
 10
147.29250023629999
 20
-62.495000953999998
 30
0.0
 11
147.29250023629999
 21
-54.245000953999991
 31
0.0
  0
LINE
  5
3D8
  8
図枠
 10
108.4420087359
 20
-111.7127933937
 30
0.0
 11
112.35560873590001
 21
-111.7127933937
 31
0.0
  0
LINE
  5
3D9
  8
図枠
 10
114.6634928629
 20
-107.9823187251
 30
0.0
 11
115.64200873590001
 21
-106.5527933937
 31
0.0
  0
LINE
  5
3DA
  8
図枠
 10
86.988302285300009
 20
-108.95279339370001
 30
0.0
 11
84.588302285300003
 21
-108.95279339370001
 31
0.0
  0
LINE
  5
3DB
  8
図枠
 10
94.981029557999975
 20
-114.95279339370001
 30
0.0
 11
94.981029557999975
 21
-113.15279339369999
 31
0.0
  0
LINE
  5
3DC
  8
図枠
 10
86.988302285300009
 20
-106.5527933937
 30
0.0
 11
86.988302285300009
 21
-108.95279339370001
 31
0.0
  0
LINE
  5
3DD
  8
図枠
  6
BORDER
 10
103.8885002363
 20
-80.186000953999994
 30
0.0
 11
103.8885002363
 21
-90.554000954000017
 31
0.0
  0
LINE
  5
3DE
  8
図枠
 10
111.78822145309999
 20
-83.642000953999997
 30
0.0
 11
111.78822145309999
 21
-87.098000954
 31
0.0
  0
LINE
  5
3DF
  8
図枠
 10
89.988302285300009
 20
-108.3527933937
 30
0.0
 11
91.788302285300006
 21
-106.5527933937
 31
0.0
  0
LINE
  5
3E0
  8
図枠
 10
91.788302285300006
 20
-108.95279339370001
 30
0.0
 11
91.788302285300006
 21
-110.7527933937
 31
0.0
  0
LINE
  5
3E1
  8
図枠
 10
84.588302285300003
 20
-108.95279339370001
 30
0.0
 11
84.588302285300003
 21
-108.3527933937
 31
0.0
  0
INSERT
  5
3E2
  8
0
  6
CONTINUOUS
  2
*U127
 10
0.0
 20
0.0
 30
0.0
  0
LINE
  5
3E3
  8
図枠
 10
91.788302285300006
 20
-106.5527933937
 30
0.0
 11
86.988302285300009
 21
-106.5527933937
 31
0.0
  0
LINE
  5
3E4
  8
図枠
 10
34.7925002363
 20
-78.995000953999991
 30
0.0
 11
34.7925002363
 21
-117.24500095400001
 31
0.0
  0
LINE
  5
3E5
  8
図枠
 10
34.7925002363
 20
-54.245000953999991
 30
0.0
 11
34.7925002363
 21
-78.995000953999991
 31
0.0
  0
LINE
  5
3E6
  8
ﾚｲﾔ_10
  6
STITCH
 10
51.230761718800011
 20
84.740950520799998
 30
0.0
 11
52.880761718800002
 21
86.390950520800004
 31
0.0
  0
LINE
  5
3E7
  8
図枠
 62
     5
 10
69.653572157200003
 20
153.40118667260001
 30
0.0
 11
77.0785721572
 21
153.40118667260001
 31
0.0
  0
INSERT
  5
3E8
  8
0
  6
CONTINUOUS
  2
*U128
 10
0.0
 20
0.0
 30
0.0
  0
LINE
  5
3E9
  8
図枠
 62
     5
 10
103.7925002363
 20
145.25499904599999
 30
0.0
 11
103.7925002363
 21
167.75499904599999
 31
0.0
  0
LINE
  5
3EA
  8
ﾚｲﾔ_10
  6
BORDER
 62
     3
 10
47.79973307289999
 20
97.490950520800013
 30
0.0
 11
58.020209263399991
 21
97.490950520800013
 31
0.0
  0
LINE
  5
3EB
  8
ﾚｲﾔ_10
  6
STITCH
 10
51.230761718800011
 20
92.240950520799998
 30
0.0
 11
52.880761718800002
 21
90.590950520799993
 31
0.0
  0
LINE
  5
3EC
  8
ﾚｲﾔ_10
  6
STITCH
 10
52.880761718800002
 20
90.590950520799993
 30
0.0
 11
52.880761718800002
 21
86.390950520800004
 31
0.0
  0
LINE
  5
3ED
  8
ﾚｲﾔ_10
  6
STITCH
 10
51.230761718800011
 20
101.2409505208
 30
0.0
 11
52.880761718800002
 21
99.590950520800007
 31
0.0
  0
LINE
  5
3EE
  8
ﾚｲﾔ_10
  6
STITCH
 10
51.230761718800011
 20
93.740950520799984
 30
0.0
 11
52.880761718800002
 21
95.390950520800004
 31
0.0
  0
LINE
  5
3EF
  8
ﾚｲﾔ_10
  6
STITCH
 10
51.230761718800011
 20
102.7409505208
 30
0.0
 11
52.880761718800002
 21
104.3909505208
 31
0.0
  0
LINE
  5
3F0
  8
ﾚｲﾔ_10
  6
STITCH
 10
51.230761718800011
 20
110.2409505208
 30
0.0
 11
52.880761718800002
 21
108.59095052080001
 31
0.0
  0
LINE
  5
3F1
  8
ﾚｲﾔ_10
  6
BORDER
 62
     3
 10
47.79973307289999
 20
88.490950520799998
 30
0.0
 11
58.020209263399991
 21
88.490950520799998
 31
0.0
  0
LINE
  5
3F2
  8
ﾚｲﾔ_10
  6
BORDER
 62
     3
 10
47.79973307289999
 20
106.4909505208
 30
0.0
 11
58.020209263399991
 21
106.4909505208
 31
0.0
  0
LINE
  5
3F3
  8
ﾚｲﾔ_10
  6
BORDER
 62
     3
 10
29.2307617188
 20
111.4909505208
 30
0.0
 11
29.2307617188
 21
101.4909505208
 31
0.0
  0
CIRCLE
  5
3F4
  8
ﾚｲﾔ_10
 62
     5
 10
29.2307617188
 20
88.490950520799998
 30
0.0
 40
3.75
  0
LINE
  5
3F5
  8
ﾚｲﾔ_10
  6
BORDER
 62
     3
 10
29.2307617188
 20
93.490950520799998
 30
0.0
 11
29.2307617188
 21
83.490950520799998
 31
0.0
  0
LINE
  5
3F6
  8
ﾚｲﾔ_10
  6
BORDER
 62
     3
 10
34.230761718799997
 20
88.490950520799998
 30
0.0
 11
24.2307617188
 21
88.490950520799998
 31
0.0
  0
ARC
  5
3F7
  8
ﾚｲﾔ_10
 62
     5
 10
52.230761718799997
 20
97.490950520800013
 30
0.0
 40
33.0
 50
152.9643082106
 51
207.0356917894
  0
LINE
  5
3F8
  8
ﾚｲﾔ_10
 62
     5
 10
22.8368848054
 20
112.4909505208
 30
0.0
 11
54.230761718799997
 21
112.4909505208
 31
0.0
  0
LINE
  5
3F9
  8
ﾚｲﾔ_10
 62
     5
 10
54.230761718799997
 20
82.490950520799984
 30
0.0
 11
22.8368848054
 21
82.490950520799984
 31
0.0
  0
LINE
  5
3FA
  8
ﾚｲﾔ_10
  6
BORDER
 62
     3
 10
34.230761718799997
 20
106.4909505208
 30
0.0
 11
24.2307617188
 21
106.4909505208
 31
0.0
  0
LINE
  5
3FB
  8
ﾚｲﾔ_10
  6
STITCH
 10
52.880761718800002
 20
104.3909505208
 30
0.0
 11
54.230761718799997
 21
104.3909505208
 31
0.0
  0
LINE
  5
3FC
  8
ﾚｲﾔ_10
  6
STITCH
 10
52.880761718800002
 20
108.59095052080001
 30
0.0
 11
54.230761718799997
 21
108.59095052080001
 31
0.0
  0
CIRCLE
  5
3FD
  8
ﾚｲﾔ_10
 62
     5
 10
29.2307617188
 20
106.4909505208
 30
0.0
 40
3.75
  0
CIRCLE
  5
3FE
  8
ﾚｲﾔ_10
 62
     5
 10
29.2307617188
 20
106.4909505208
 30
0.0
 40
2.1000000000000001
  0
CIRCLE
  5
3FF
  8
ﾚｲﾔ_10
 62
     5
 10
29.2307617188
 20
88.490950520799998
 30
0.0
 40
2.1000000000000001
  0
LINE
  5
400
  8
図枠
 62
     5
 10
73.366072157199994
 20
152.40642529569999
 30
0.0
 11
77.0785721572
 21
145.97618667259999
 31
0.0
  0
LINE
  5
401
  8
図枠
 62
     5
 10
73.366072157199994
 20
152.40642529569999
 30
0.0
 11
69.653572157200003
 21
145.97618667259999
 31
0.0
  0
INSERT
  5
402
  8
0
  6
CONTINUOUS
  2
*U129
 10
0.0
 20
0.0
 30
0.0
  0
CIRCLE
  5
403
  8
ﾚｲﾔ_10
 62
     5
 10
43.230761718700002
 20
97.490950520800013
 30
0.0
 40
3.75
  0
LINE
  5
404
  8
ﾚｲﾔ_10
  6
STITCH
 10
52.880761718800002
 20
104.3909505208
 30
0.0
 11
52.880761718800002
 21
108.59095052080001
 31
0.0
  0
LINE
  5
405
  8
ﾚｲﾔ_10
  6
STITCH
 10
52.880761718800002
 20
86.390950520800004
 30
0.0
 11
54.230761718799997
 21
86.390950520800004
 31
0.0
  0
LINE
  5
406
  8
ﾚｲﾔ_10
  6
STITCH
 10
52.880761718800002
 20
90.590950520799993
 30
0.0
 11
54.230761718799997
 21
90.590950520799993
 31
0.0
  0
LINE
  5
407
  8
ﾚｲﾔ_10
 62
     5
 10
54.230761718799997
 20
112.4909505208
 30
0.0
 11
54.230761718799997
 21
82.490950520799984
 31
0.0
  0
LINE
  5
408
  8
ﾚｲﾔ_10
 62
     5
 10
51.230761718800011
 20
112.4909505208
 30
0.0
 11
51.230761718800011
 21
82.490950520799984
 31
0.0
  0
LINE
  5
40C
  8
図枠
 62
     5
 10
67.7925002363
 20
152.75499904599999
 30
0.0
 11
208.79250023629999
 21
152.75499904599999
 31
0.0
  0
LINE
  5
40D
  8
図枠
 62
     5
 10
67.7925002363
 20
160.25499904599999
 30
0.0
 11
208.79250023629999
 21
160.25499904599999
 31
0.0
  0
LINE
  5
40E
  8
図枠
 62
     5
 10
193.79250023629999
 20
145.25499904599999
 30
0.0
 11
193.79250023629999
 21
167.75499904599999
 31
0.0
  0
LINE
  5
40F
  8
図枠
 62
     5
 10
79.7925002363
 20
145.25499904599999
 30
0.0
 11
79.7925002363
 21
167.75499904599999
 31
0.0
  0
LINE
  5
410
  8
図枠
 62
     5
 10
178.79250023629999
 20
145.25499904599999
 30
0.0
 11
178.79250023629999
 21
167.75499904599999
 31
0.0
  0
INSERT
  5
411
  8
0
  6
CONTINUOUS
  2
*U130
 10
0.0
 20
0.0
 30
0.0
  0
INSERT
  5
412
  8
0
  6
CONTINUOUS
  2
*U131
 10
0.0
 20
0.0
 30
0.0
  0
INSERT
  5
413
  8
0
  6
CONTINUOUS
  2
*U132
 10
0.0
 20
0.0
 30
0.0
  0
LINE
  5
414
  8
図枠
 62
     5
 10
69.653572157200003
 20
145.97618667259999
 30
0.0
 11
77.0785721572
 21
145.97618667259999
 31
0.0
  0
LINE
  5
415
  8
図枠
 62
     5
 10
67.7925002363
 20
145.25499904599999
 30
0.0
 11
67.7925002363
 21
167.75499904599999
 31
0.0
  0
LINE
  5
416
  8
図枠
 62
     5
 10
67.7925002363
 20
145.25499904599999
 30
0.0
 11
208.79250023629999
 21
145.25499904599999
 31
0.0
  0
LINE
  5
417
  8
図枠
 62
     5
 10
73.366072157199994
 20
159.8314252957
 30
0.0
 11
69.653572157200003
 21
153.40118667260001
 31
0.0
  0
LINE
  5
418
  8
図枠
 62
     5
 10
73.366072157199994
 20
159.8314252957
 30
0.0
 11
77.0785721572
 21
153.40118667260001
 31
0.0
  0
DIMENSION
  5
5AD
  8
0
  2
*D44
 10
-137.28670039934451
 20
97.490950520800013
 30
0.0
 11
-140.7867003993446
 21
104.9909505208
 31
0.0
 70
     0
 13
-125.23583984379999
 23
112.4909505208
 33
0.0
 14
-129.02528738839999
 24
97.490950520800013
 34
0.0
 50
90.0
1001
ACAD
1000
DSTYLE
1002
{
1070
    40
1040
1.0
1002
}
  0
DIMENSION
  5
5C4
  8
0
  6
CONTINUOUS
  2
*D45
 10
-137.28670039934451
 20
82.490950520799984
 30
0.0
 11
-140.7867003993446
 21
89.990950520799984
 31
0.0
 70
     0
 13
-129.02528738839999
 23
97.490950520800013
 33
0.0
 14
-125.23583984379999
 24
82.490950520799984
 34
0.0
 50
90.0
1001
ACAD
1000
DSTYLE
1002
{
1070
    40
1040
1.0
1002
}
  0
DIMENSION
  5
5D1
  8
0
  6
CONTINUOUS
  2
*D46
 10
-148.38087666566341
 20
112.4909505208
 30
0.0
 11
-151.88087666566349
 21
97.490950520799984
 31
0.0
 70
     0
 13
-127.73583984379999
 23
82.490950520799984
 33
0.0
 14
-127.73583984379999
 24
112.4909505208
 34
0.0
 50
90.0
1001
ACAD
1000
DSTYLE
1002
{
1070
    40
1040
1.0
1002
}
  0
DIMENSION
  5
5DE
  8
0
  6
CONTINUOUS
  2
*D47
 10
-114.23583984379999
 20
62.546877484018182
 30
0.0
 11
-119.73583984379999
 21
66.046877484018182
 31
0.0
 70
     0
 13
-125.23583984379999
 23
82.490950520799984
 33
0.0
 14
-114.23583984379999
 24
92.490950520799984
 34
0.0
1001
ACAD
1000
DSTYLE
1002
{
1070
    40
1040
1.0
1002
}
  0
DIMENSION
  5
5EB
  8
0
  6
CONTINUOUS
  2
*D48
 10
-100.23583984379999
 20
62.546877484018182
 30
0.0
 11
-107.23583984379999
 21
66.046877484018182
 31
0.0
 70
     0
 13
-114.23583984379999
 23
89.990950520799984
 33
0.0
 14
-100.23583984379999
 24
83.490950520799998
 34
0.0
1001
ACAD
1000
DSTYLE
1002
{
1070
    40
1040
1.0
1002
}
  0
DIMENSION
  5
5F8
  8
0
  6
CONTINUOUS
  2
*D49
 10
-90.235839843799994
 20
62.546877484018182
 30
0.0
 11
-95.235839843799994
 21
66.046877484018182
 31
0.0
 70
     0
 13
-100.23583984379999
 23
83.490950520799998
 33
0.0
 14
-90.235839843799994
 24
97.490950520800013
 34
0.0
1001
ACAD
1000
DSTYLE
1002
{
1070
    40
1040
1.0
1002
}
  0
DIMENSION
  5
605
  8
0
  6
CONTINUOUS
  2
*D50
 10
-70.845972994402587
 20
88.490950520799998
 30
0.0
 11
-74.345972994402601
 21
85.490950520799984
 31
0.0
 70
     0
 13
-93.841962930400015
 23
82.490950520799984
 33
0.0
 14
-95.235839843799994
 24
88.490950520799998
 34
0.0
 50
90.0
1001
ACAD
1000
DSTYLE
1002
{
1070
    40
1040
1.0
1002
}
  0
DIMENSION
  5
614
  8
0
  6
CONTINUOUS
  2
*D51
 10
-70.845972994402572
 20
106.4909505208
 30
0.0
 11
-74.345972994402601
 21
97.490950520799984
 31
0.0
 70
     0
 13
-95.235839843799994
 23
88.490950520799998
 33
0.0
 14
-95.235839843799994
 24
106.4909505208
 34
0.0
 50
90.0
1001
ACAD
1000
DSTYLE
1002
{
1070
    40
1040
1.0
1002
}
  0
DIMENSION
  5
621
  8
0
  6
CONTINUOUS
  2
*D52
 10
-70.845972994402572
 20
112.4909505207937
 30
0.0
 11
-74.345972994402601
 21
109.4909505207968
 31
0.0
 70
     0
 13
-95.235839843799994
 23
106.4909505208
 33
0.0
 14
-93.841962930398637
 24
112.4909505207937
 34
0.0
 50
90.0
1001
ACAD
1000
DSTYLE
1002
{
1070
    40
1040
1.0
1002
}
  0
DIMENSION
  5
630
  8
0
  6
CONTINUOUS
  2
*D53
 10
29.2307617188
 20
63.765656455149042
 30
0.0
 11
24.2307617188
 21
67.265656455149042
 31
0.0
 70
     0
 13
19.2307617188
 23
97.490950520800013
 33
0.0
 14
29.2307617188
 24
83.490950520799998
 34
0.0
1001
ACAD
1000
DSTYLE
1002
{
1070
    40
1040
1.0
1002
}
  0
DIMENSION
  5
63D
  8
0
  6
CONTINUOUS
  2
*D54
 10
43.230761718700002
 20
63.765656455149042
 30
0.0
 11
36.23076171875001
 21
67.265656455149042
 31
0.0
 70
     0
 13
29.2307617188
 23
83.490950520799998
 33
0.0
 14
43.230761718700002
 24
92.490950520799984
 34
0.0
1001
ACAD
1000
DSTYLE
1002
{
1070
    40
1040
1.0
1002
}
  0
DIMENSION
  5
64A
  8
0
  6
CONTINUOUS
  2
*D55
 10
54.230761718799997
 20
63.765656455149042
 30
0.0
 11
48.730761718750003
 21
67.265656455149042
 31
0.0
 70
     0
 13
43.230761718700002
 23
89.990950520799984
 33
0.0
 14
54.230761718799997
 24
82.490950520799984
 34
0.0
1001
ACAD
1000
DSTYLE
1002
{
1070
    40
1040
1.0
1002
}
  0
DIMENSION
  5
657
  8
0
  6
CONTINUOUS
  2
*D56
 10
-122.23583984379999
 20
24.93250590715116
 30
0.0
 11
-114.7869762074363
 21
24.93250590715116
 31
0.0
 70
   128
 13
-125.23583984379999
 23
10.6750651042
 33
0.0
 14
-122.23583984379999
 24
10.6750651042
 34
0.0
1001
ACAD
1000
DSTYLE
1002
{
1070
    40
1040
1.0
1002
}
  0
DIMENSION
  5
666
  8
0
  6
CONTINUOUS
  2
*D57
 10
-148.38087666566341
 20
-24.324934895799998
 30
0.0
 11
-151.88087666566341
 21
-6.8249348958000171
 31
0.0
 70
     0
 13
-125.23583984379999
 23
10.6750651042
 33
0.0
 14
-120.23583984379999
 24
-24.324934895799998
 34
0.0
 50
90.0
1001
ACAD
1000
DSTYLE
1002
{
1070
    40
1040
1.0
1002
}
  0
DIMENSION
  5
673
  8
0
  6
CONTINUOUS
  2
*D58
 10
-90.235839843799994
 20
-46.127873392480183
 30
0.0
 11
-107.73583984379999
 21
-46.127873392480183
 31
0.0
 70
   128
 13
-125.23583984379999
 23
-19.324934895799998
 33
0.0
 14
-90.235839843799994
 24
-24.324934895799998
 34
0.0
1001
ACAD
1000
DSTYLE
1002
{
1070
    40
1040
1.0
1002
}
  0
DIMENSION
  5
692
  8
0
  2
*D59
 10
-100.23132270265199
 20
-8.6206210009705657
 30
0.0
 11
-101.7943530989342
 21
-0.8834481509343135
 31
0.0
 70
     5
 13
-122.23583984379979
 23
11.60445124249671
 33
0.0
 14
-89.306453705503117
 24
-21.324934895800041
 34
0.0
 15
-122.23583984379989
 25
-21.324934895799998
 35
0.0
1001
ACAD
1000
DSTYLE
1002
{
1070
   271
1070
     0
1070
    40
1040
1.0
1002
}
  0
DIMENSION
  5
708
  8
0
  6
CONTINUOUS
  2
*D60
 10
-123.23583984379999
 20
97.490950520800084
 30
0.0
 11
-69.259012121143854
 21
121.6147638694013
 31
0.0
 70
   132
 15
-93.107905356535724
 25
110.95600022479709
 35
0.0
 40
0.0
1001
ACAD
1000
DSTYLE
1002
{
1070
    40
1040
1.0
1070
   288
1070
     1
1002
}
  0
DIMENSION
  5
712
  8
0
  6
CONTINUOUS
  2
*D61
 10
52.230761718800089
 20
97.490950520800084
 30
0.0
 11
12.65935614271779
 21
117.6846488678989
 31
0.0
 70
     4
 15
22.836884805398618
 25
112.4909505207937
 35
0.0
 40
0.0
1001
ACAD
1000
DSTYLE
1002
{
1070
    40
1040
1.0
1070
   288
1070
     1
1002
}
  0
ENDSEC
  0
EOF
