  0
SECTION
  2
HEADER
  9
$ACADVER
  1
AC1009
  9
$INSBASE
 10
0.0
 20
0.0
 30
0.0
  9
$EXTMIN
 10
550.02309472394097
 20
-422.47470208271989
 30
-0.0015258207003583
  9
$EXTMAX
 10
1124.092972822069
 20
-18.81553823223658
 30
0.0000000349246037
  9
$LIMMIN
 10
0.0
 20
0.0
  9
$LIMMAX
 10
0.0
 20
0.0
  9
$ORTHOMODE
 70
     0
  9
$REGENMODE
 70
     1
  9
$FILLMODE
 70
     1
  9
$QTEXTMODE
 70
     0
  9
$MIRRTEXT
 70
     1
  9
$DRAGMODE
 70
     2
  9
$LTSCALE
 40
1.0
  9
$OSMODE
 70
    31
  9
$ATTMODE
 70
     1
  9
$TEXTSIZE
 40
0.0
  9
$TRACEWID
 40
0.05
  9
$TEXTSTYLE
  7
STANDARD
  9
$CLAYER
  8
0
  9
$CELTYPE
  6
CONTINUOUS
  9
$CECOLOR
 62
   256
  9
$DIMSCALE
 40
1.0
  9
$DIMASZ
 40
0.18
  9
$DIMEXO
 40
0.0625
  9
$DIMDLI
 40
0.38
  9
$DIMRND
 40
0.0
  9
$DIMDLE
 40
0.0
  9
$DIMEXE
 40
0.18
  9
$DIMTP
 40
0.0
  9
$DIMTM
 40
0.0
  9
$DIMTXT
 40
0.18
  9
$DIMCEN
 40
0.09
  9
$DIMTSZ
 40
0.0
  9
$DIMTOL
 70
     0
  9
$DIMLIM
 70
     0
  9
$DIMTIH
 70
     1
  9
$DIMTOH
 70
     1
  9
$DIMSE1
 70
     0
  9
$DIMSE2
 70
     0
  9
$DIMTAD
 70
     0
  9
$DIMZIN
 70
     0
  9
$DIMBLK
  1

  9
$DIMASO
 70
     1
  9
$DIMSHO
 70
     1
  9
$DIMPOST
  1

  9
$DIMAPOST
  1

  9
$DIMALT
 70
     0
  9
$DIMALTD
 70
     2
  9
$DIMALTF
 40
25.399999999999999
  9
$DIMLFAC
 40
1.0
  9
$DIMTOFL
 70
     0
  9
$DIMTVP
 40
0.0
  9
$DIMTIX
 70
     0
  9
$DIMSOXD
 70
     0
  9
$DIMSAH
 70
     0
  9
$DIMBLK1
  1

  9
$DIMBLK2
  1

  9
$DIMSTYLE
  2
STANDARD
  9
$DIMCLRD
 70
     0
  9
$DIMCLRE
 70
     0
  9
$DIMCLRT
 70
     0
  9
$DIMTFAC
 40
1.0
  9
$DIMGAP
 40
0.09
  9
$LUNITS
 70
     2
  9
$LUPREC
 70
     4
  9
$SKETCHINC
 40
0.1
  9
$FILLETRAD
 40
0.0
  9
$AUNITS
 70
     0
  9
$AUPREC
 70
     0
  9
$MENU
  1
acad
  9
$ELEVATION
 40
0.0
  9
$PELEVATION
 40
0.0
  9
$THICKNESS
 40
0.0
  9
$LIMCHECK
 70
     0
  9
$BLIPMODE
 70
     0
  9
$CHAMFERA
 40
0.0
  9
$CHAMFERB
 40
0.0
  9
$SKPOLY
 70
     0
  9
$TDCREATE
 40
2454863.438969363
  9
$TDUPDATE
 40
2454863.4392059031
  9
$TDINDWG
 40
0.0002479398
  9
$TDUSRTIMER
 40
0.0002473958
  9
$USRTIMER
 70
     1
  9
$ANGBASE
 50
0.0
  9
$ANGDIR
 70
     0
  9
$PDMODE
 70
     3
  9
$PDSIZE
 40
-1.0
  9
$PLINEWID
 40
0.0
  9
$COORDS
 70
     2
  9
$SPLFRAME
 70
     0
  9
$SPLINETYPE
 70
     6
  9
$SPLINESEGS
 70
     8
  9
$ATTDIA
 70
     0
  9
$ATTREQ
 70
     1
  9
$HANDLING
 70
     1
  9
$HANDSEED
  5
52C
  9
$SURFTAB1
 70
     6
  9
$SURFTAB2
 70
     6
  9
$SURFTYPE
 70
     6
  9
$SURFU
 70
     6
  9
$SURFV
 70
     6
  9
$UCSNAME
  2

  9
$UCSORG
 10
0.0
 20
0.0
 30
0.0
  9
$UCSXDIR
 10
1.0
 20
0.0
 30
0.0
  9
$UCSYDIR
 10
0.0
 20
1.0
 30
0.0
  9
$PUCSNAME
  2

  9
$PUCSORG
 10
0.0
 20
0.0
 30
0.0
  9
$PUCSXDIR
 10
1.0
 20
0.0
 30
0.0
  9
$PUCSYDIR
 10
0.0
 20
1.0
 30
0.0
  9
$USERI1
 70
     0
  9
$USERI2
 70
     0
  9
$USERI3
 70
     0
  9
$USERI4
 70
     0
  9
$USERI5
 70
     0
  9
$USERR1
 40
0.0
  9
$USERR2
 40
0.0
  9
$USERR3
 40
0.0
  9
$USERR4
 40
0.0
  9
$USERR5
 40
0.0
  9
$WORLDVIEW
 70
     1
  9
$SHADEDGE
 70
     3
  9
$SHADEDIF
 70
    70
  9
$TILEMODE
 70
     1
  9
$MAXACTVP
 70
    16
  9
$PLIMCHECK
 70
     0
  9
$PEXTMIN
 10
1.0000000000000000E+020
 20
1.0000000000000000E+020
 30
1.0000000000000000E+020
  9
$PEXTMAX
 10
-1.0000000000000000E+020
 20
-1.0000000000000000E+020
 30
-1.0000000000000000E+020
  9
$PLIMMIN
 10
0.0
 20
0.0
  9
$PLIMMAX
 10
12.0
 20
9.0
  9
$UNITMODE
 70
     0
  9
$VISRETAIN
 70
     0
  9
$PLINEGEN
 70
     1
  9
$PSLTSCALE
 70
     0
  0
ENDSEC
  0
SECTION
  2
TABLES
  0
TABLE
  2
VPORT
 70
     2
  0
VPORT
  2
*ACTIVE
 70
     0
 10
0.0
 20
0.0
 11
1.0
 21
1.0
 12
837.05803377300515
 22
-220.64512015747829
 13
0.0
 23
0.0
 14
1.0
 24
1.0
 15
0.0
 25
0.0
 16
0.0
 26
0.0
 36
1.0
 17
0.0
 27
0.0
 37
0.0
 40
415.40307591117971
 41
1.3903818953323901
 42
50.0
 43
0.0
 44
0.0
 50
0.0
 51
0.0
 71
     0
 72
   100
 73
     1
 74
     1
 75
     0
 76
     0
 77
     0
 78
     0
  0
ENDTAB
  0
TABLE
  2
LTYPE
 70
    11
  0
LTYPE
  2
CONTINUOUS
 70
     0
  3
Solid line
 72
    65
 73
     0
 40
0.0
  0
LTYPE
  2
DOT
 70
     0
  3
. . . . . . . . 
 72
    65
 73
     2
 40
1.0
 49
0.0
 49
-1.0
  0
LTYPE
  2
DASHED
 70
     0
  3
___  ___  ___  ___  
 72
    65
 73
     2
 40
4.0
 49
3.0
 49
-1.0
  0
LTYPE
  2
HIDDEN
 70
     0
  3
__ __ __ __ 
 72
    65
 73
     2
 40
3.0
 49
2.0
 49
-1.0
  0
LTYPE
  2
STITCH
 70
     0
  3
_ _ _ _ 
 72
    65
 73
     2
 40
2.0
 49
1.0
 49
-1.0
  0
LTYPE
  2
CENTER
 70
     0
  3
______  __  ______  __  
 72
    65
 73
     4
 40
43.0
 49
40.0
 49
-1.0
 49
1.0
 49
-1.0
  0
LTYPE
  2
DASHDOT
 70
     0
  3
____ . ____ . 
 72
    65
 73
     4
 40
32.0
 49
30.0
 49
-1.0
 49
0.0
 49
-1.0
  0
LTYPE
  2
BORDER
 70
     0
  3
__ . __ . 
 72
    65
 73
     4
 40
22.0
 49
20.0
 49
-1.0
 49
0.0
 49
-1.0
  0
LTYPE
  2
CUTTING
 70
     0
  3
________   ___   ___   
 72
    65
 73
     6
 40
45.0
 49
40.0
 49
-1.0
 49
1.0
 49
-1.0
 49
1.0
 49
-1.0
  0
LTYPE
  2
PHANTOM
 70
     0
  3
______  __  __  
 72
    65
 73
     6
 40
35.0
 49
30.0
 49
-1.0
 49
1.0
 49
-1.0
 49
1.0
 49
-1.0
  0
LTYPE
  2
DIVIDE
 70
     0
  3
____ . . ____ . . 
 72
    65
 73
     6
 40
23.0
 49
20.0
 49
-1.0
 49
0.0
 49
-1.0
 49
0.0
 49
-1.0
  0
ENDTAB
  0
TABLE
  2
LAYER
 70
     6
  0
LAYER
  2
0
 70
     0
 62
     7
  6
CONTINUOUS
  0
LAYER
  2
図枠
 70
     0
 62
     7
  6
CONTINUOUS
  0
LAYER
  2
寸法線
 70
     0
 62
     7
  6
CONTINUOUS
  0
LAYER
  2
改訂
 70
     0
 62
     7
  6
CONTINUOUS
  0
LAYER
  2
ﾚｲﾔ_1
 70
     0
 62
     7
  6
CONTINUOUS
  0
LAYER
  2
Defpoints
 70
     0
 62
     7
  6
CONTINUOUS
  0
ENDTAB
  0
TABLE
  2
STYLE
 70
     1
  0
STYLE
  2
STANDARD
 70
     0
 40
0.0
 41
1.0
 50
0.0
 71
     0
 42
0.0
  3
txt
  4
extfont
  0
ENDTAB
  0
TABLE
  2
VIEW
 70
     0
  0
ENDTAB
  0
TABLE
  2
UCS
 70
     0
  0
ENDTAB
  0
TABLE
  2
APPID
 70
     2
  0
APPID
  2
ACAD
 70
     0
  0
APPID
  2
DCO15
 70
     0
  0
ENDTAB
  0
TABLE
  2
DIMSTYLE
 70
     5
  0
DIMSTYLE
  2
STANDARD
 70
     0
  3

  4

  5

  6

  7

 40
1.0
 41
0.18
 42
0.0625
 43
0.38
 44
0.18
 45
0.0
 46
0.0
 47
0.0
 48
0.0
140
0.18
141
0.09
142
0.0
143
25.399999999999999
144
1.0
145
0.0
146
1.0
147
0.09
 71
     0
 72
     0
 73
     1
 74
     1
 75
     0
 76
     0
 77
     0
 78
     0
170
     0
171
     2
172
     0
173
     0
174
     0
175
     0
176
     0
177
     0
178
     0
  0
DIMSTYLE
  2
VELDIM0
 70
     0
  3

  4

  5

  6

  7

 40
1.0
 41
6.0
 42
0.0625
 43
0.38
 44
0.5
 45
0.0
 46
3.0
 47
0.0
 48
0.0
140
5.9972220420999998
141
0.09
142
0.0
143
25.399999999999999
144
1.0
145
0.0
146
1.0
147
0.09
 71
     0
 72
     0
 73
     0
 74
     0
 75
     0
 76
     0
 77
     0
 78
     8
170
     0
171
     2
172
     0
173
     0
174
     0
175
     0
176
     0
177
     0
178
     0
  0
DIMSTYLE
  2
VELDIM1
 70
     0
  3

  4

  5

  6

  7

 40
1.0
 41
6.0
 42
0.0625
 43
0.38
 44
1.0
 45
0.0
 46
6.0
 47
0.0
 48
0.0
140
5.9972220420999998
141
0.09
142
0.0
143
25.399999999999999
144
1.0
145
0.0
146
1.0
147
0.09
 71
     0
 72
     0
 73
     0
 74
     0
 75
     0
 76
     0
 77
     0
 78
     8
170
     0
171
     2
172
     0
173
     0
174
     0
175
     0
176
     0
177
     0
178
     0
  0
DIMSTYLE
  2
VELDIM2
 70
     0
  3

  4

  5

  6

  7

 40
1.0
 41
6.0
 42
0.0625
 43
0.38
 44
1.25
 45
0.0
 46
5.0
 47
0.0
 48
0.0
140
5.9972220420999998
141
0.09
142
0.0
143
25.399999999999999
144
1.0
145
0.0
146
1.0
147
0.09
 71
     0
 72
     0
 73
     0
 74
     0
 75
     0
 76
     0
 77
     0
 78
     8
170
     0
171
     2
172
     0
173
     0
174
     0
175
     0
176
     0
177
     0
178
     0
  0
DIMSTYLE
  2
VELDIM3
 70
     0
  3

  4

  5

  6

  7

 40
1.0
 41
6.0
 42
0.0625
 43
0.38
 44
1.25
 45
0.0
 46
5.0
 47
0.0
 48
0.0
140
5.9972220420999998
141
0.09
142
0.0
143
25.399999999999999
144
1.0
145
0.0
146
1.0
147
0.09
 71
     0
 72
     0
 73
     0
 74
     0
 75
     0
 76
     0
 77
     0
 78
     8
170
     0
171
     2
172
     0
173
     0
174
     0
175
     0
176
     0
177
     0
178
     0
  0
ENDTAB
  0
ENDSEC
  0
SECTION
  2
BLOCKS
  0
BLOCK
  8
0
  2
$MODEL_SPACE
 70
     0
 10
0.0
 20
0.0
 30
0.0
  3
$MODEL_SPACE
  1

  0
ENDBLK
  5
E
  8
0
  0
BLOCK
 67
     1
  8
0
  2
$PAPER_SPACE
 70
     0
 10
0.0
 20
0.0
 30
0.0
  3
$PAPER_SPACE
  1

  0
ENDBLK
  5
10
 67
     1
  8
0
  0
BLOCK
  8
0
  2
*D0
 70
     1
 10
0.0
 20
0.0
 30
0.0
  3
*D0
  1

  0
TEXT
  5
DB
  8
0
 62
     0
 10
837.7490885735001
 20
-107.80783320899999
 30
0.0
 40
5.9972220420999998
  1
8
 50
90.0
  0
LINE
  5
DC
  8
0
 62
     0
 10
858.80742187500005
 20
-102.043944373
 30
0.0
 11
839.30742187499993
 21
-102.043944373
 31
0.0
  0
LINE
  5
DD
  8
0
 62
     0
 10
859.80742187499993
 20
-110.043944373
 30
0.0
 11
839.30742187499993
 21
-110.043944373
 31
0.0
  0
LINE
  5
DE
  8
0
 62
     0
 10
839.80742187500005
 20
-102.043944373
 30
0.0
 11
839.80742187500005
 21
-102.043944373
 31
0.0
  0
LINE
  5
DF
  8
0
 62
     0
 10
839.80742187500005
 20
-102.043944373
 30
0.0
 11
839.80742187500005
 21
-110.043944373
 31
0.0
  0
LINE
  5
E0
  8
0
 62
     0
 10
839.80742187500005
 20
-110.043944373
 30
0.0
 11
839.80742187500005
 21
-102.043944373
 31
0.0
  0
LINE
  5
E1
  8
0
 62
     0
 10
839.80742187500005
 20
-110.043944373
 30
0.0
 11
839.80742187500005
 21
-110.043944373
 31
0.0
  0
LINE
  5
E2
  8
0
 62
     0
 10
839.80742187500005
 20
-110.043944373
 30
0.0
 11
839.80742187500005
 21
-113.043944373
 31
0.0
  0
SOLID
  5
E3
  8
0
 62
     0
 10
839.80742187500005
 20
-110.043944373
 30
0.0
 11
841.30742187500005
 21
-116.043944373
 31
0.0
 12
838.30742187500005
 22
-116.043944373
 32
0.0
 13
839.80742187500005
 23
-114.543944373
 33
0.0
  0
LINE
  5
E4
  8
0
 62
     0
 10
839.80742187500005
 20
-102.043944373
 30
0.0
 11
839.80742187500005
 21
-99.043944372999974
 31
0.0
  0
SOLID
  5
E5
  8
0
 62
     0
 10
839.80742187500005
 20
-102.043944373
 30
0.0
 11
838.30742187500005
 21
-96.043944372999988
 31
0.0
 12
841.30742187500005
 22
-96.043944372999988
 32
0.0
 13
839.80742187500005
 23
-97.543944373000002
 33
0.0
  0
ENDBLK
  5
E6
  8
0
  0
BLOCK
  8
0
  2
*D1
 70
     1
 10
0.0
 20
0.0
 30
0.0
  3
*D1
  1

  0
TEXT
  5
EB
  8
0
 62
     0
 10
837.7490885735001
 20
-126.0717220449
 30
0.0
 40
5.9972220420999998
  1
25
 50
90.0
  0
LINE
  5
EC
  8
0
 62
     0
 10
859.80742187499993
 20
-110.043944373
 30
0.0
 11
839.30742187499993
 21
-110.043944373
 31
0.0
  0
LINE
  5
ED
  8
0
 62
     0
 10
859.80742187499993
 20
-135.04394437299999
 30
0.0
 11
839.30742187499993
 21
-135.04394437299999
 31
0.0
  0
LINE
  5
EE
  8
0
 62
     0
 10
839.80742187500005
 20
-110.043944373
 30
0.0
 11
839.80742187500005
 21
-115.4883890294
 31
0.0
  0
LINE
  5
EF
  8
0
 62
     0
 10
839.80742187500005
 20
-110.043944373
 30
0.0
 11
839.80742187500005
 21
-129.5994997167
 31
0.0
  0
LINE
  5
F0
  8
0
 62
     0
 10
839.80742187500005
 20
-135.04394437299999
 30
0.0
 11
839.80742187500005
 21
-115.4883890294
 31
0.0
  0
LINE
  5
F1
  8
0
 62
     0
 10
839.80742187500005
 20
-135.04394437299999
 30
0.0
 11
839.80742187500005
 21
-129.5994997167
 31
0.0
  0
LINE
  5
F2
  8
0
 62
     0
 10
839.80742187500005
 20
-135.04394437299999
 30
0.0
 11
839.80742187500005
 21
-138.04394437299999
 31
0.0
  0
SOLID
  5
F3
  8
0
 62
     0
 10
839.80742187500005
 20
-135.04394437299999
 30
0.0
 11
841.30742187500005
 21
-141.04394437299999
 31
0.0
 12
838.30742187500005
 22
-141.04394437299999
 32
0.0
 13
839.80742187500005
 23
-139.54394437299999
 33
0.0
  0
LINE
  5
F4
  8
0
 62
     0
 10
839.80742187500005
 20
-110.043944373
 30
0.0
 11
839.80742187500005
 21
-107.043944373
 31
0.0
  0
SOLID
  5
F5
  8
0
 62
     0
 10
839.80742187500005
 20
-110.043944373
 30
0.0
 11
838.30742187500005
 21
-104.043944373
 31
0.0
 12
841.30742187500005
 22
-104.043944373
 32
0.0
 13
839.80742187500005
 23
-105.543944373
 33
0.0
  0
ENDBLK
  5
F6
  8
0
  0
BLOCK
  8
0
  2
*D2
 70
     1
 10
0.0
 20
0.0
 30
0.0
  3
*D2
  1

  0
TEXT
  5
FA
  8
0
 62
     0
 10
864.27964420319995
 20
-65.110221972399984
 30
0.0
 40
5.9972220420999998
  1
16
  0
LINE
  5
FB
  8
0
 62
     0
 10
875.80742187500005
 20
-101.043944373
 30
0.0
 11
875.80742187500005
 21
-66.668555273899997
 31
0.0
  0
LINE
  5
FC
  8
0
 62
     0
 10
859.80742187499993
 20
-101.043944373
 30
0.0
 11
859.80742187499993
 21
-66.668555273899997
 31
0.0
  0
LINE
  5
FD
  8
0
 62
     0
 10
875.80742187500005
 20
-67.168555273899983
 30
0.0
 11
874.86297721859989
 21
-67.168555273899983
 31
0.0
  0
LINE
  5
FE
  8
0
 62
     0
 10
875.80742187500005
 20
-67.168555273899983
 30
0.0
 11
860.75186653139997
 21
-67.168555273899983
 31
0.0
  0
LINE
  5
FF
  8
0
 62
     0
 10
859.80742187499993
 20
-67.168555273899983
 30
0.0
 11
874.86297721859989
 21
-67.168555273899983
 31
0.0
  0
LINE
  5
100
  8
0
 62
     0
 10
859.80742187499993
 20
-67.168555273899983
 30
0.0
 11
860.75186653139997
 21
-67.168555273899983
 31
0.0
  0
LINE
  5
101
  8
0
 62
     0
 10
859.80742187499993
 20
-67.168555273899983
 30
0.0
 11
856.80742187500005
 21
-67.168555273899983
 31
0.0
  0
SOLID
  5
102
  8
0
 62
     0
 10
859.80742187499993
 20
-67.168555273899983
 30
0.0
 11
853.80742187500005
 21
-68.668555273899997
 31
0.0
 12
853.80742187500005
 22
-65.668555273899997
 32
0.0
 13
855.30742187499993
 23
-67.168555273899983
 33
0.0
  0
LINE
  5
103
  8
0
 62
     0
 10
875.80742187500005
 20
-67.168555273899983
 30
0.0
 11
878.80742187500005
 21
-67.168555273899983
 31
0.0
  0
SOLID
  5
104
  8
0
 62
     0
 10
875.80742187500005
 20
-67.168555273899983
 30
0.0
 11
881.80742187500005
 21
-65.668555273899997
 31
0.0
 12
881.80742187500005
 22
-68.668555273899997
 32
0.0
 13
880.30742187499993
 23
-67.168555273899983
 33
0.0
  0
ENDBLK
  5
105
  8
0
  0
BLOCK
  8
0
  2
*D3
 70
     1
 10
0.0
 20
0.0
 30
0.0
  3
*D3
  1

  0
TEXT
  5
109
  8
0
 62
     0
 10
837.7490885735001
 20
-152.0717220448999
 30
0.0
 40
5.9972220420999998
  1
27
 50
90.0
  0
LINE
  5
10A
  8
0
 62
     0
 10
859.80742187499993
 20
-135.04394437299999
 30
0.0
 11
839.30742187499993
 21
-135.04394437299999
 31
0.0
  0
LINE
  5
10B
  8
0
 62
     0
 10
858.80742187500005
 20
-162.04394437299999
 30
0.0
 11
839.30742187499993
 21
-162.04394437299999
 31
0.0
  0
LINE
  5
10C
  8
0
 62
     0
 10
839.80742187500005
 20
-135.04394437299999
 30
0.0
 11
839.80742187500005
 21
-141.4883890294
 31
0.0
  0
LINE
  5
10D
  8
0
 62
     0
 10
839.80742187500005
 20
-135.04394437299999
 30
0.0
 11
839.80742187500005
 21
-155.5994997167
 31
0.0
  0
LINE
  5
10E
  8
0
 62
     0
 10
839.80742187500005
 20
-162.04394437299999
 30
0.0
 11
839.80742187500005
 21
-141.4883890294
 31
0.0
  0
LINE
  5
10F
  8
0
 62
     0
 10
839.80742187500005
 20
-162.04394437299999
 30
0.0
 11
839.80742187500005
 21
-155.5994997167
 31
0.0
  0
LINE
  5
110
  8
0
 62
     0
 10
839.80742187500005
 20
-162.04394437299999
 30
0.0
 11
839.80742187500005
 21
-159.04394437299999
 31
0.0
  0
SOLID
  5
111
  8
0
 62
     0
 10
839.80742187500005
 20
-162.04394437299999
 30
0.0
 11
838.30742187500005
 21
-156.04394437299999
 31
0.0
 12
841.30742187500005
 22
-156.04394437299999
 32
0.0
 13
839.80742187500005
 23
-157.54394437299999
 33
0.0
  0
LINE
  5
112
  8
0
 62
     0
 10
839.80742187500005
 20
-135.04394437299999
 30
0.0
 11
839.80742187500005
 21
-138.04394437299999
 31
0.0
  0
SOLID
  5
113
  8
0
 62
     0
 10
839.80742187500005
 20
-135.04394437299999
 30
0.0
 11
841.30742187500005
 21
-141.04394437299999
 31
0.0
 12
838.30742187500005
 22
-141.04394437299999
 32
0.0
 13
839.80742187500005
 23
-139.54394437299999
 33
0.0
  0
ENDBLK
  5
114
  8
0
  0
BLOCK
  8
0
  2
*D4
 70
     1
 10
0.0
 20
0.0
 30
0.0
  3
*D4
  1

  0
TEXT
  5
118
  8
0
 62
     0
 10
709.32031626979995
 20
-240.06141608199999
 30
0.0
 40
5.9972220420999998
  1
85
  0
LINE
  5
119
  8
0
 62
     0
 10
755.34809394169986
 20
-262.11974938349999
 30
0.0
 11
755.34809394169986
 21
-241.61974938349999
 31
0.0
  0
LINE
  5
11A
  8
0
 62
     0
 10
670.34809394169997
 20
-262.11974938349999
 30
0.0
 11
670.34809394169997
 21
-241.61974938349999
 31
0.0
  0
LINE
  5
11B
  8
0
 62
     0
 10
755.34809394169986
 20
-242.11974938349999
 30
0.0
 11
719.90364928529993
 21
-242.11974938349999
 31
0.0
  0
LINE
  5
11C
  8
0
 62
     0
 10
755.34809394169986
 20
-242.11974938349999
 30
0.0
 11
705.79253859799996
 21
-242.11974938349999
 31
0.0
  0
LINE
  5
11D
  8
0
 62
     0
 10
670.34809394169997
 20
-242.11974938349999
 30
0.0
 11
719.90364928529993
 21
-242.11974938349999
 31
0.0
  0
LINE
  5
11E
  8
0
 62
     0
 10
670.34809394169997
 20
-242.11974938349999
 30
0.0
 11
705.79253859799996
 21
-242.11974938349999
 31
0.0
  0
LINE
  5
11F
  8
0
 62
     0
 10
670.34809394169997
 20
-242.11974938349999
 30
0.0
 11
673.34809394169986
 21
-242.11974938349999
 31
0.0
  0
SOLID
  5
120
  8
0
 62
     0
 10
670.34809394169997
 20
-242.11974938349999
 30
0.0
 11
676.34809394169986
 21
-240.61974938349999
 31
0.0
 12
676.34809394169986
 22
-243.61974938349999
 32
0.0
 13
674.84809394169997
 23
-242.11974938349999
 33
0.0
  0
LINE
  5
121
  8
0
 62
     0
 10
755.34809394169986
 20
-242.11974938349999
 30
0.0
 11
752.34809394169986
 21
-242.11974938349999
 31
0.0
  0
SOLID
  5
122
  8
0
 62
     0
 10
755.34809394169986
 20
-242.11974938349999
 30
0.0
 11
749.34809394169997
 21
-243.61974938349999
 31
0.0
 12
749.34809394169997
 22
-240.61974938349999
 32
0.0
 13
750.84809394169986
 23
-242.11974938349999
 33
0.0
  0
ENDBLK
  5
123
  8
0
  0
BLOCK
  8
0
  2
*D5
 70
     1
 10
0.0
 20
0.0
 30
0.0
  3
*D5
  1

  0
TEXT
  5
127
  8
0
 62
     0
 10
653.32031626980006
 20
-240.06141608199999
 30
0.0
 40
5.9972220420999998
  1
27
  0
LINE
  5
128
  8
0
 62
     0
 10
670.34809394169997
 20
-262.11974938349999
 30
0.0
 11
670.34809394169997
 21
-241.61974938349999
 31
0.0
  0
LINE
  5
129
  8
0
 62
     0
 10
643.34809394169986
 20
-261.11974938349999
 30
0.0
 11
643.34809394169986
 21
-241.61974938349999
 31
0.0
  0
LINE
  5
12A
  8
0
 62
     0
 10
670.34809394169997
 20
-242.11974938349999
 30
0.0
 11
663.90364928529993
 21
-242.11974938349999
 31
0.0
  0
LINE
  5
12B
  8
0
 62
     0
 10
670.34809394169997
 20
-242.11974938349999
 30
0.0
 11
649.79253859800008
 21
-242.11974938349999
 31
0.0
  0
LINE
  5
12C
  8
0
 62
     0
 10
643.34809394169986
 20
-242.11974938349999
 30
0.0
 11
663.90364928529993
 21
-242.11974938349999
 31
0.0
  0
LINE
  5
12D
  8
0
 62
     0
 10
643.34809394169986
 20
-242.11974938349999
 30
0.0
 11
649.79253859800008
 21
-242.11974938349999
 31
0.0
  0
LINE
  5
12E
  8
0
 62
     0
 10
643.34809394169986
 20
-242.11974938349999
 30
0.0
 11
646.34809394169986
 21
-242.11974938349999
 31
0.0
  0
SOLID
  5
12F
  8
0
 62
     0
 10
643.34809394169986
 20
-242.11974938349999
 30
0.0
 11
649.34809394169997
 21
-240.61974938349999
 31
0.0
 12
649.34809394169997
 22
-243.61974938349999
 32
0.0
 13
647.84809394169986
 23
-242.11974938349999
 33
0.0
  0
LINE
  5
130
  8
0
 62
     0
 10
670.34809394169997
 20
-242.11974938349999
 30
0.0
 11
667.34809394169986
 21
-242.11974938349999
 31
0.0
  0
SOLID
  5
131
  8
0
 62
     0
 10
670.34809394169997
 20
-242.11974938349999
 30
0.0
 11
664.34809394169986
 21
-243.61974938349999
 31
0.0
 12
664.34809394169986
 22
-240.61974938349999
 32
0.0
 13
665.84809394169997
 23
-242.11974938349999
 33
0.0
  0
ENDBLK
  5
132
  8
0
  0
BLOCK
  8
0
  2
*D6
 70
     1
 10
0.0
 20
0.0
 30
0.0
  3
*D6
  1

  0
TEXT
  5
136
  8
0
 62
     0
 10
698.05642743390001
 20
-179.98561107149999
 30
0.0
 40
5.9972220420999998
  1
120
  0
LINE
  5
137
  8
0
 62
     0
 10
643.34809394169986
 20
-158.04394437299999
 30
0.0
 11
643.34809394169986
 21
-182.54394437299999
 31
0.0
  0
LINE
  5
138
  8
0
 62
     0
 10
763.34809394169986
 20
-163.04394437299999
 30
0.0
 11
763.34809394169986
 21
-182.54394437299999
 31
0.0
  0
LINE
  5
139
  8
0
 62
     0
 10
643.34809394169986
 20
-182.04394437299999
 30
0.0
 11
712.16753812119998
 21
-182.04394437299999
 31
0.0
  0
LINE
  5
13A
  8
0
 62
     0
 10
643.34809394169986
 20
-182.04394437299999
 30
0.0
 11
694.52864976210003
 21
-182.04394437299999
 31
0.0
  0
LINE
  5
13B
  8
0
 62
     0
 10
763.34809394169986
 20
-182.04394437299999
 30
0.0
 11
712.16753812119998
 21
-182.04394437299999
 31
0.0
  0
LINE
  5
13C
  8
0
 62
     0
 10
763.34809394169986
 20
-182.04394437299999
 30
0.0
 11
694.52864976210003
 21
-182.04394437299999
 31
0.0
  0
LINE
  5
13D
  8
0
 62
     0
 10
763.34809394169986
 20
-182.04394437299999
 30
0.0
 11
760.34809394169986
 21
-182.04394437299999
 31
0.0
  0
SOLID
  5
13E
  8
0
 62
     0
 10
763.34809394169986
 20
-182.04394437299999
 30
0.0
 11
757.34809394169997
 21
-183.54394437299999
 31
0.0
 12
757.34809394169997
 22
-180.54394437299999
 32
0.0
 13
758.84809394169986
 23
-182.04394437299999
 33
0.0
  0
LINE
  5
13F
  8
0
 62
     0
 10
643.34809394169986
 20
-182.04394437299999
 30
0.0
 11
646.34809394169986
 21
-182.04394437299999
 31
0.0
  0
SOLID
  5
140
  8
0
 62
     0
 10
643.34809394169986
 20
-182.04394437299999
 30
0.0
 11
649.34809394169997
 21
-180.54394437299999
 31
0.0
 12
649.34809394169997
 22
-183.54394437299999
 32
0.0
 13
647.84809394169986
 23
-182.04394437299999
 33
0.0
  0
ENDBLK
  5
141
  8
0
  0
BLOCK
  8
0
  2
*D7
 70
     1
 10
0.0
 20
0.0
 30
0.0
  3
*D7
  1

  0
TEXT
  5
145
  8
0
 62
     0
 10
621.28976064009998
 20
-135.57172204490001
 30
0.0
 40
5.9972220420999998
  1
60
 50
90.0
  0
LINE
  5
146
  8
0
 62
     0
 10
642.34809394169986
 20
-102.043944373
 30
0.0
 11
622.84809394169986
 21
-102.043944373
 31
0.0
  0
LINE
  5
147
  8
0
 62
     0
 10
647.34809394169986
 20
-162.04394437299999
 30
0.0
 11
622.84809394169986
 21
-162.04394437299999
 31
0.0
  0
LINE
  5
148
  8
0
 62
     0
 10
623.34809394169986
 20
-102.043944373
 30
0.0
 11
623.34809394169986
 21
-124.9883890294
 31
0.0
  0
LINE
  5
149
  8
0
 62
     0
 10
623.34809394169986
 20
-102.043944373
 30
0.0
 11
623.34809394169986
 21
-139.0994997167
 31
0.0
  0
LINE
  5
14A
  8
0
 62
     0
 10
623.34809394169986
 20
-162.04394437299999
 30
0.0
 11
623.34809394169986
 21
-124.9883890294
 31
0.0
  0
LINE
  5
14B
  8
0
 62
     0
 10
623.34809394169986
 20
-162.04394437299999
 30
0.0
 11
623.34809394169986
 21
-139.0994997167
 31
0.0
  0
LINE
  5
14C
  8
0
 62
     0
 10
623.34809394169986
 20
-162.04394437299999
 30
0.0
 11
623.34809394169986
 21
-159.04394437299999
 31
0.0
  0
SOLID
  5
14D
  8
0
 62
     0
 10
623.34809394169986
 20
-162.04394437299999
 30
0.0
 11
621.84809394169986
 21
-156.04394437299999
 31
0.0
 12
624.84809394169997
 22
-156.04394437299999
 32
0.0
 13
623.34809394169986
 23
-157.54394437299999
 33
0.0
  0
LINE
  5
14E
  8
0
 62
     0
 10
623.34809394169986
 20
-102.043944373
 30
0.0
 11
623.34809394169986
 21
-105.043944373
 31
0.0
  0
SOLID
  5
14F
  8
0
 62
     0
 10
623.34809394169986
 20
-102.043944373
 30
0.0
 11
624.84809394169997
 21
-108.043944373
 31
0.0
 12
621.84809394169986
 22
-108.043944373
 32
0.0
 13
623.34809394169986
 23
-106.543944373
 33
0.0
  0
ENDBLK
  5
150
  8
0
  0
BLOCK
  8
0
  2
*D8
 70
     1
 10
0.0
 20
0.0
 30
0.0
  3
*D8
  1

  0
TEXT
  5
155
  8
0
 62
     0
 10
780.28976064009998
 20
-287.67369907439991
 30
0.0
 40
5.9972220420999998
  1
8
 50
90.0
  0
LINE
  5
156
  8
0
 62
     0
 10
764.34809394169986
 20
-278.11974938349999
 30
0.0
 11
784.34809394169986
 21
-278.11974938349999
 31
0.0
  0
LINE
  5
157
  8
0
 62
     0
 10
763.34809394169986
 20
-270.11974938349999
 30
0.0
 11
784.34809394169986
 21
-270.11974938349999
 31
0.0
  0
LINE
  5
158
  8
0
 62
     0
 10
783.34809394169986
 20
-278.11974938349999
 30
0.0
 11
783.34809394169986
 21
-280.61814373070001
 31
0.0
  0
LINE
  5
159
  8
0
 62
     0
 10
783.34809394169986
 20
-278.11974938349999
 30
0.0
 11
783.34809394169986
 21
-291.2014767462
 31
0.0
  0
LINE
  5
15A
  8
0
 62
     0
 10
783.34809394169986
 20
-270.11974938349999
 30
0.0
 11
783.34809394169986
 21
-280.61814373070001
 31
0.0
  0
LINE
  5
15B
  8
0
 62
     0
 10
783.34809394169986
 20
-270.11974938349999
 30
0.0
 11
783.34809394169986
 21
-291.2014767462
 31
0.0
  0
LINE
  5
15C
  8
0
 62
     0
 10
783.34809394169986
 20
-270.11974938349999
 30
0.0
 11
783.34809394169986
 21
-264.11974938349999
 31
0.0
  0
SOLID
  5
15D
  8
0
 62
     0
 10
783.34809394169986
 20
-270.11974938349999
 30
0.0
 11
781.84809394169997
 21
-264.11974938349999
 31
0.0
 12
784.84809394169986
 22
-264.11974938349999
 32
0.0
 13
783.34809394169986
 23
-265.61974938349999
 33
0.0
  0
LINE
  5
15E
  8
0
 62
     0
 10
783.34809394169986
 20
-278.11974938349999
 30
0.0
 11
783.34809394169986
 21
-284.11974938349999
 31
0.0
  0
SOLID
  5
15F
  8
0
 62
     0
 10
783.34809394169986
 20
-278.11974938349999
 30
0.0
 11
784.84809394169986
 21
-284.11974938349999
 31
0.0
 12
781.84809394169997
 22
-284.11974938349999
 32
0.0
 13
783.34809394169986
 23
-282.61974938349999
 33
0.0
  0
ENDBLK
  5
160
  8
0
  0
BLOCK
  8
0
  2
*D9
 70
     1
 10
0.0
 20
0.0
 30
0.0
  3
*D9
  1

  0
TEXT
  5
164
  8
0
 62
     0
 10
780.28976064009998
 20
-256.25662160960002
 30
0.0
 40
5.9972220420999998
  1
8
 50
90.0
  0
LINE
  5
165
  8
0
 62
     0
 10
763.34809394169986
 20
-270.11974938349999
 30
0.0
 11
784.34809394169986
 21
-270.11974938349999
 31
0.0
  0
LINE
  5
166
  8
0
 62
     0
 10
764.34809394169986
 20
-262.11974938349999
 30
0.0
 11
784.34809394169986
 21
-262.11974938349999
 31
0.0
  0
LINE
  5
167
  8
0
 62
     0
 10
783.34809394169986
 20
-270.11974938349999
 30
0.0
 11
783.34809394169986
 21
-249.201066266
 31
0.0
  0
LINE
  5
168
  8
0
 62
     0
 10
783.34809394169986
 20
-270.11974938349999
 30
0.0
 11
783.34809394169986
 21
-259.7843992814
 31
0.0
  0
LINE
  5
169
  8
0
 62
     0
 10
783.34809394169986
 20
-262.11974938349999
 30
0.0
 11
783.34809394169986
 21
-249.201066266
 31
0.0
  0
LINE
  5
16A
  8
0
 62
     0
 10
783.34809394169986
 20
-262.11974938349999
 30
0.0
 11
783.34809394169986
 21
-259.7843992814
 31
0.0
  0
LINE
  5
16B
  8
0
 62
     0
 10
783.34809394169986
 20
-262.11974938349999
 30
0.0
 11
783.34809394169986
 21
-256.11974938349999
 31
0.0
  0
SOLID
  5
16C
  8
0
 62
     0
 10
783.34809394169986
 20
-262.11974938349999
 30
0.0
 11
781.84809394169997
 21
-256.11974938349999
 31
0.0
 12
784.84809394169986
 22
-256.11974938349999
 32
0.0
 13
783.34809394169986
 23
-257.61974938349999
 33
0.0
  0
LINE
  5
16D
  8
0
 62
     0
 10
783.34809394169986
 20
-270.11974938349999
 30
0.0
 11
783.34809394169986
 21
-276.11974938349999
 31
0.0
  0
SOLID
  5
16E
  8
0
 62
     0
 10
783.34809394169986
 20
-270.11974938349999
 30
0.0
 11
784.84809394169986
 21
-276.11974938349999
 31
0.0
 12
781.84809394169997
 22
-276.11974938349999
 32
0.0
 13
783.34809394169986
 23
-274.61974938349999
 33
0.0
  0
ENDBLK
  5
16F
  8
0
  0
BLOCK
  8
0
  2
*D10
 70
     1
 10
0.0
 20
0.0
 30
0.0
  3
*D10
  1

  0
TEXT
  5
173
  8
0
 62
     0
 10
620.28976064009987
 20
-273.64752705529997
 30
0.0
 40
5.9972220420999998
  1
16
 50
90.0
  0
LINE
  5
174
  8
0
 62
     0
 10
642.34809394169986
 20
-262.11974938349999
 30
0.0
 11
622.34809394169986
 21
-262.11974938349999
 31
0.0
  0
LINE
  5
175
  8
0
 62
     0
 10
642.34809394169986
 20
-278.11974938349999
 30
0.0
 11
622.34809394169986
 21
-278.11974938349999
 31
0.0
  0
LINE
  5
176
  8
0
 62
     0
 10
623.34809394169986
 20
-262.11974938349999
 30
0.0
 11
623.34809394169986
 21
-263.06419403989997
 31
0.0
  0
LINE
  5
177
  8
0
 62
     0
 10
623.34809394169986
 20
-262.11974938349999
 30
0.0
 11
623.34809394169986
 21
-277.1753047272
 31
0.0
  0
LINE
  5
178
  8
0
 62
     0
 10
623.34809394169986
 20
-278.11974938349999
 30
0.0
 11
623.34809394169986
 21
-263.06419403989997
 31
0.0
  0
LINE
  5
179
  8
0
 62
     0
 10
623.34809394169986
 20
-278.11974938349999
 30
0.0
 11
623.34809394169986
 21
-277.1753047272
 31
0.0
  0
LINE
  5
17A
  8
0
 62
     0
 10
623.34809394169986
 20
-278.11974938349999
 30
0.0
 11
623.34809394169986
 21
-284.11974938349999
 31
0.0
  0
SOLID
  5
17B
  8
0
 62
     0
 10
623.34809394169986
 20
-278.11974938349999
 30
0.0
 11
624.84809394169997
 21
-284.11974938349999
 31
0.0
 12
621.84809394169986
 22
-284.11974938349999
 32
0.0
 13
623.34809394169986
 23
-282.61974938349999
 33
0.0
  0
LINE
  5
17C
  8
0
 62
     0
 10
623.34809394169986
 20
-262.11974938349999
 30
0.0
 11
623.34809394169986
 21
-256.11974938349999
 31
0.0
  0
SOLID
  5
17D
  8
0
 62
     0
 10
623.34809394169986
 20
-262.11974938349999
 30
0.0
 11
621.84809394169986
 21
-256.11974938349999
 31
0.0
 12
624.84809394169997
 22
-256.11974938349999
 32
0.0
 13
623.34809394169986
 23
-257.61974938349999
 33
0.0
  0
ENDBLK
  5
17E
  8
0
  0
BLOCK
  8
0
  2
*D11
 70
     1
 10
0.0
 20
0.0
 30
0.0
  3
*D11
  1

  0
TEXT
  5
182
  8
0
 62
     0
 10
652.93689403669998
 20
-79.921111619000001
 30
0.0
 40
5.9972220420999998
  1
5t
  0
LINE
  5
183
  8
0
 62
     0
 10
648.34809394169986
 20
-101.043944373
 30
0.0
 11
648.34809394169986
 21
-81.479444920499986
 31
0.0
  0
LINE
  5
184
  8
0
 62
     0
 10
643.34809394169986
 20
-101.043944373
 30
0.0
 11
643.34809394169986
 21
-81.479444920499986
 31
0.0
  0
LINE
  5
185
  8
0
 62
     0
 10
648.34809394169986
 20
-81.979444920500001
 30
0.0
 11
663.52022705210004
 21
-81.979444920500001
 31
0.0
  0
LINE
  5
186
  8
0
 62
     0
 10
648.34809394169986
 20
-81.979444920500001
 30
0.0
 11
649.4091163649
 21
-81.979444920500001
 31
0.0
  0
LINE
  5
187
  8
0
 62
     0
 10
643.34809394169986
 20
-81.979444920500001
 30
0.0
 11
663.52022705210004
 21
-81.979444920500001
 31
0.0
  0
LINE
  5
188
  8
0
 62
     0
 10
643.34809394169986
 20
-81.979444920500001
 30
0.0
 11
649.4091163649
 21
-81.979444920500001
 31
0.0
  0
LINE
  5
189
  8
0
 62
     0
 10
643.34809394169986
 20
-81.979444920500001
 30
0.0
 11
640.34809394169997
 21
-81.979444920500001
 31
0.0
  0
SOLID
  5
18A
  8
0
 62
     0
 10
643.34809394169986
 20
-81.979444920500001
 30
0.0
 11
637.34809394169997
 21
-83.479444920500001
 31
0.0
 12
637.34809394169997
 22
-80.479444920500001
 32
0.0
 13
638.84809394169986
 23
-81.979444920500001
 33
0.0
  0
LINE
  5
18B
  8
0
 62
     0
 10
648.34809394169986
 20
-81.979444920500001
 30
0.0
 11
651.34809394169986
 21
-81.979444920500001
 31
0.0
  0
SOLID
  5
18C
  8
0
 62
     0
 10
648.34809394169986
 20
-81.979444920500001
 30
0.0
 11
654.34809394169986
 21
-80.479444920500001
 31
0.0
 12
654.34809394169986
 22
-83.479444920500001
 32
0.0
 13
652.84809394169997
 23
-81.979444920500001
 33
0.0
  0
ENDBLK
  5
18D
  8
0
  0
BLOCK
  8
0
  2
*D12
 70
     1
 10
0.0
 20
0.0
 30
0.0
  3
*D12
  1

  0
TEXT
  5
191
  8
0
 62
     0
 10
1005.9033855756001
 20
-280.6428006164
 30
0.0
 40
5.9972220420999998
  1
%%c5
  0
LINE
  5
192
  8
0
 62
     0
 10
998.69505208329997
 20
-259.6588541667
 30
0.0
 11
998.69505208329997
 21
-283.20113391799998
 31
0.0
  0
LINE
  5
193
  8
0
 62
     0
 10
1023.6950520833
 20
-259.6588541667
 30
0.0
 11
1023.6950520833
 21
-283.20113391799998
 31
0.0
  0
LINE
  5
194
  8
0
 62
     0
 10
998.69505208329997
 20
-282.70113391799998
 30
0.0
 11
1020.0144962629
 21
-282.70113391799998
 31
0.0
  0
LINE
  5
195
  8
0
 62
     0
 10
998.69505208329997
 20
-282.70113391799998
 30
0.0
 11
1002.3756079038
 21
-282.70113391799998
 31
0.0
  0
LINE
  5
196
  8
0
 62
     0
 10
1023.6950520833
 20
-282.70113391799998
 30
0.0
 11
1020.0144962629
 21
-282.70113391799998
 31
0.0
  0
LINE
  5
197
  8
0
 62
     0
 10
1023.6950520833
 20
-282.70113391799998
 30
0.0
 11
1002.3756079038
 21
-282.70113391799998
 31
0.0
  0
LINE
  5
198
  8
0
 62
     0
 10
1023.6950520833
 20
-282.70113391799998
 30
0.0
 11
1026.6950520833
 21
-282.70113391799998
 31
0.0
  0
SOLID
  5
199
  8
0
 62
     0
 10
1023.6950520833
 20
-282.70113391799998
 30
0.0
 11
1029.6950520833
 21
-281.20113391799998
 31
0.0
 12
1029.6950520833
 22
-284.20113391799998
 32
0.0
 13
1028.1950520833
 23
-282.70113391799998
 33
0.0
  0
LINE
  5
19A
  8
0
 62
     0
 10
998.69505208329997
 20
-282.70113391799998
 30
0.0
 11
995.69505208329997
 21
-282.70113391799998
 31
0.0
  0
SOLID
  5
19B
  8
0
 62
     0
 10
998.69505208329997
 20
-282.70113391799998
 30
0.0
 11
992.69505208329986
 21
-284.20113391799998
 31
0.0
 12
992.69505208329986
 22
-281.20113391799998
 32
0.0
 13
994.19505208329997
 23
-282.70113391799998
 33
0.0
  0
ENDBLK
  5
19C
  8
0
  0
BLOCK
  8
0
  2
*D13
 70
     1
 10
0.0
 20
0.0
 30
0.0
  3
*D13
  1

  0
TEXT
  5
1A0
  8
0
 62
     0
 10
1005.9033855756001
 20
-211.60052086510001
 30
0.0
 40
5.9972220420999998
  1
%%c9
  0
LINE
  5
1A1
  8
0
 62
     0
 10
1036.1950520833
 20
-232.6588541667
 30
0.0
 11
1036.1950520833
 21
-213.1588541667
 31
0.0
  0
LINE
  5
1A2
  8
0
 62
     0
 10
986.19505208329997
 20
-232.6588541667
 30
0.0
 11
986.19505208329997
 21
-213.1588541667
 31
0.0
  0
LINE
  5
1A3
  8
0
 62
     0
 10
1036.1950520833
 20
-213.6588541667
 30
0.0
 11
1020.0144962629
 21
-213.6588541667
 31
0.0
  0
LINE
  5
1A4
  8
0
 62
     0
 10
1036.1950520833
 20
-213.6588541667
 30
0.0
 11
1002.3756079038
 21
-213.6588541667
 31
0.0
  0
LINE
  5
1A5
  8
0
 62
     0
 10
986.19505208329997
 20
-213.6588541667
 30
0.0
 11
1020.0144962629
 21
-213.6588541667
 31
0.0
  0
LINE
  5
1A6
  8
0
 62
     0
 10
986.19505208329997
 20
-213.6588541667
 30
0.0
 11
1002.3756079038
 21
-213.6588541667
 31
0.0
  0
LINE
  5
1A7
  8
0
 62
     0
 10
986.19505208329997
 20
-213.6588541667
 30
0.0
 11
989.19505208329986
 21
-213.6588541667
 31
0.0
  0
SOLID
  5
1A8
  8
0
 62
     0
 10
986.19505208329997
 20
-213.6588541667
 30
0.0
 11
992.19505208329997
 21
-212.1588541667
 31
0.0
 12
992.19505208329997
 22
-215.1588541667
 32
0.0
 13
990.69505208329986
 23
-213.6588541667
 33
0.0
  0
LINE
  5
1A9
  8
0
 62
     0
 10
1036.1950520833
 20
-213.6588541667
 30
0.0
 11
1033.1950520833
 21
-213.6588541667
 31
0.0
  0
SOLID
  5
1AA
  8
0
 62
     0
 10
1036.1950520833
 20
-213.6588541667
 30
0.0
 11
1030.1950520833
 21
-215.1588541667
 31
0.0
 12
1030.1950520833
 22
-212.1588541667
 32
0.0
 13
1031.6950520833
 23
-213.6588541667
 33
0.0
  0
ENDBLK
  5
1AB
  8
0
  0
BLOCK
  8
0
  2
*D14
 70
     1
 10
0.0
 20
0.0
 30
0.0
  3
*D14
  1

  0
TEXT
  5
1B0
  8
0
 62
     0
 10
1005.9033855756001
 20
-191.62174488700001
 30
0.0
 40
5.9972220420999998
  1
90%%d
  0
ARC
  5
1B1
  8
0
 62
     0
 10
1011.1950520833
 20
-258.6588541667
 30
0.0
 40
63.862109375000003
 50
128.21110103410001
 51
135.0
  0
ARC
  5
1B2
  8
0
 62
     0
 10
1011.1950520833
 20
-258.6588541667
 30
0.0
 40
63.862109375000003
 50
45.0
 51
51.788898965900003
  0
SOLID
  5
1B3
  8
0
 62
     0
 10
1056.3523826833
 20
-213.5015235667
 30
0.0
 11
1061.6556835422
 21
-216.6835040821
 31
0.0
 12
1059.5343631986
 22
-218.8048244256
 32
0.0
 13
1059.5343631986
 23
-216.6835040821
 33
0.0
  0
SOLID
  5
1B4
  8
0
 62
     0
 10
966.03772148339988
 20
-213.5015235667
 30
0.0
 11
962.85574096810001
 21
-218.8048244256
 31
0.0
 12
960.73442062449999
 22
-216.6835040821
 32
0.0
 13
962.85574096810001
 23
-216.6835040821
 33
0.0
  0
ARC
  5
1B5
  8
0
 62
     0
 10
1011.1950520833
 20
-258.6588541667
 30
0.0
 40
63.862109375000003
 50
45.0
 51
81.961741266499985
  0
ARC
  5
1B6
  8
0
 62
     0
 10
1011.1950520833
 20
-258.6588541667
 30
0.0
 40
63.862109375000003
 50
98.038258733500001
 51
135.0
  0
LINE
  5
1B7
  8
0
 62
     0
 10
1039.0234792081001
 20
-230.83042704190001
 30
0.0
 11
1059.180809808
 21
-210.673096442
 31
0.0
  0
LINE
  5
1B8
  8
0
 62
     0
 10
983.36662495860003
 20
-230.83042704190001
 30
0.0
 11
963.2092943586
 21
-210.673096442
 31
0.0
  0
ENDBLK
  5
1B9
  8
0
  0
BLOCK
  8
0
  2
*D15
 70
     1
 10
0.0
 20
0.0
 30
0.0
  3
*D15
  1

  0
TEXT
  5
1BE
  8
0
 62
     0
 10
669.17678186409989
 20
-122.9340717245
 30
0.0
 40
5.9972220420999998
  1
90%%d
 50
320.98183619100001
  0
ARC
  5
1BF
  8
0
 62
     0
 10
648.34809394169986
 20
-157.04394437299999
 30
0.0
 40
36.439592334099999
 50
76.125940134899992
 51
90.0
  0
ARC
  5
1C0
  8
0
 62
     0
 10
648.34809394169986
 20
-157.04394437299999
 30
0.0
 40
36.439592334099999
 50
0.0
 51
13.8740598651
  0
SOLID
  5
1C1
  8
0
 62
     0
 10
684.78768627570003
 20
-157.04394437299999
 30
0.0
 11
686.28768627570003
 21
-163.04394437299999
 31
0.0
 12
683.28768627570003
 22
-163.04394437299999
 32
0.0
 13
684.78768627570003
 23
-161.54394437299999
 33
0.0
  0
SOLID
  5
1C2
  8
0
 62
     0
 10
648.34809394169986
 20
-120.6043520389
 30
0.0
 11
642.34809394169986
 21
-122.1043520389
 31
0.0
 12
642.34809394169986
 22
-119.1043520389
 32
0.0
 13
643.84809394169986
 23
-120.6043520389
 33
0.0
  0
ARC
  5
1C3
  8
0
 62
     0
 10
648.34809394169986
 20
-157.04394437299999
 30
0.0
 40
36.439592334099999
 50
0.0
 51
36.849686990000009
  0
ARC
  5
1C4
  8
0
 62
     0
 10
648.34809394169986
 20
-157.04394437299999
 30
0.0
 40
36.439592334099999
 50
65.113985392000004
 51
90.0
  0
LINE
  5
1C5
  8
0
 62
     0
 10
759.34809394169986
 20
-157.04394437299999
 30
0.0
 11
680.78768627570003
 21
-157.04394437299999
 31
0.0
  0
LINE
  5
1C6
  8
0
 62
     0
 10
648.34809394169986
 20
-106.043944373
 30
0.0
 11
648.34809394169986
 21
-124.6043520389
 31
0.0
  0
ENDBLK
  5
1C7
  8
0
  0
BLOCK
  8
0
  2
*D16
 70
     1
 10
0.0
 20
0.0
 30
0.0
  3
*D16
  1

  0
TEXT
  5
1CB
  8
0
 62
     0
 10
757.58420510570011
 20
-240.06141608199999
 30
0.0
 40
5.9972220420999998
  1
8
  0
LINE
  5
1CC
  8
0
 62
     0
 10
763.34809394169986
 20
-261.11974938349999
 30
0.0
 11
763.34809394169986
 21
-241.61974938349999
 31
0.0
  0
LINE
  5
1CD
  8
0
 62
     0
 10
755.34809394169986
 20
-262.11974938349999
 30
0.0
 11
755.34809394169986
 21
-241.61974938349999
 31
0.0
  0
LINE
  5
1CE
  8
0
 62
     0
 10
763.34809394169986
 20
-242.11974938349999
 30
0.0
 11
763.34809394169986
 21
-242.11974938349999
 31
0.0
  0
LINE
  5
1CF
  8
0
 62
     0
 10
763.34809394169986
 20
-242.11974938349999
 30
0.0
 11
755.34809394169986
 21
-242.11974938349999
 31
0.0
  0
LINE
  5
1D0
  8
0
 62
     0
 10
755.34809394169986
 20
-242.11974938349999
 30
0.0
 11
763.34809394169986
 21
-242.11974938349999
 31
0.0
  0
LINE
  5
1D1
  8
0
 62
     0
 10
755.34809394169986
 20
-242.11974938349999
 30
0.0
 11
755.34809394169986
 21
-242.11974938349999
 31
0.0
  0
LINE
  5
1D2
  8
0
 62
     0
 10
755.34809394169986
 20
-242.11974938349999
 30
0.0
 11
752.34809394169986
 21
-242.11974938349999
 31
0.0
  0
SOLID
  5
1D3
  8
0
 62
     0
 10
755.34809394169986
 20
-242.11974938349999
 30
0.0
 11
749.34809394169997
 21
-243.61974938349999
 31
0.0
 12
749.34809394169997
 22
-240.61974938349999
 32
0.0
 13
750.84809394169986
 23
-242.11974938349999
 33
0.0
  0
LINE
  5
1D4
  8
0
 62
     0
 10
763.34809394169986
 20
-242.11974938349999
 30
0.0
 11
766.34809394169997
 21
-242.11974938349999
 31
0.0
  0
SOLID
  5
1D5
  8
0
 62
     0
 10
763.34809394169986
 20
-242.11974938349999
 30
0.0
 11
769.34809394169997
 21
-240.61974938349999
 31
0.0
 12
769.34809394169997
 22
-243.61974938349999
 32
0.0
 13
767.84809394169986
 23
-242.11974938349999
 33
0.0
  0
ENDBLK
  5
1D6
  8
0
  0
BLOCK
  8
0
  2
*D17
 70
     1
 10
0.0
 20
0.0
 30
0.0
  3
*D17
  1

  0
TEXT
  5
1FB
  8
0
 62
     0
 10
847.73881291809994
 20
-78.985611071500003
 30
0.0
 40
5.9972220420999998
  1
8
  0
LINE
  5
1FC
  8
0
 62
     0
 10
867.80742187499993
 20
-102.043944373
 30
0.0
 11
867.80742187499993
 21
-81.043944372999988
 31
0.0
  0
LINE
  5
1FD
  8
0
 62
     0
 10
859.80742187499993
 20
-101.043944373
 30
0.0
 11
859.80742187499993
 21
-81.043944372999988
 31
0.0
  0
LINE
  5
1FE
  8
0
 62
     0
 10
867.80742187499993
 20
-82.043944373000016
 30
0.0
 11
854.79436826170013
 21
-82.043944373000016
 31
0.0
  0
LINE
  5
1FF
  8
0
 62
     0
 10
867.80742187499993
 20
-82.043944373000016
 30
0.0
 11
844.21103524629996
 21
-82.043944373000016
 31
0.0
  0
LINE
  5
200
  8
0
 62
     0
 10
859.80742187499993
 20
-82.043944373000016
 30
0.0
 11
854.79436826170013
 21
-82.043944373000016
 31
0.0
  0
LINE
  5
201
  8
0
 62
     0
 10
859.80742187499993
 20
-82.043944373000016
 30
0.0
 11
844.21103524629996
 21
-82.043944373000016
 31
0.0
  0
LINE
  5
202
  8
0
 62
     0
 10
859.80742187499993
 20
-82.043944373000016
 30
0.0
 11
853.80742187500005
 21
-82.043944373000016
 31
0.0
  0
SOLID
  5
203
  8
0
 62
     0
 10
859.80742187499993
 20
-82.043944373000016
 30
0.0
 11
853.80742187500005
 21
-83.543944372999988
 31
0.0
 12
853.80742187500005
 22
-80.543944373000002
 32
0.0
 13
855.30742187499993
 23
-82.043944373000016
 33
0.0
  0
LINE
  5
204
  8
0
 62
     0
 10
867.80742187499993
 20
-82.043944373000016
 30
0.0
 11
873.80742187500005
 21
-82.043944373000016
 31
0.0
  0
SOLID
  5
205
  8
0
 62
     0
 10
867.80742187499993
 20
-82.043944373000016
 30
0.0
 11
873.80742187500005
 21
-80.543944373000002
 31
0.0
 12
873.80742187500005
 22
-83.543944372999988
 32
0.0
 13
872.30742187499993
 23
-82.043944373000016
 33
0.0
  0
ENDBLK
  5
206
  8
0
  0
BLOCK
  8
0
  2
*D18
 70
     1
 10
0.0
 20
0.0
 30
0.0
  3
*D18
  1

  0
TEXT
  5
20A
  8
0
 62
     0
 10
885.96536330569995
 20
-78.985611071500003
 30
0.0
 40
5.9972220420999998
  1
8
  0
LINE
  5
20B
  8
0
 62
     0
 10
875.80742187500005
 20
-101.043944373
 30
0.0
 11
875.80742187500005
 21
-81.043944372999988
 31
0.0
  0
LINE
  5
20C
  8
0
 62
     0
 10
867.80742187499993
 20
-102.043944373
 30
0.0
 11
867.80742187499993
 21
-81.043944372999988
 31
0.0
  0
LINE
  5
20D
  8
0
 62
     0
 10
875.80742187500005
 20
-82.043944373000016
 30
0.0
 11
893.02091864930003
 21
-82.043944373000016
 31
0.0
  0
LINE
  5
20E
  8
0
 62
     0
 10
875.80742187500005
 20
-82.043944373000016
 30
0.0
 11
882.43758563389986
 21
-82.043944373000016
 31
0.0
  0
LINE
  5
20F
  8
0
 62
     0
 10
867.80742187499993
 20
-82.043944373000016
 30
0.0
 11
893.02091864930003
 21
-82.043944373000016
 31
0.0
  0
LINE
  5
210
  8
0
 62
     0
 10
867.80742187499993
 20
-82.043944373000016
 30
0.0
 11
882.43758563389986
 21
-82.043944373000016
 31
0.0
  0
LINE
  5
211
  8
0
 62
     0
 10
867.80742187499993
 20
-82.043944373000016
 30
0.0
 11
861.80742187500005
 21
-82.043944373000016
 31
0.0
  0
SOLID
  5
212
  8
0
 62
     0
 10
867.80742187499993
 20
-82.043944373000016
 30
0.0
 11
861.80742187500005
 21
-83.543944372999988
 31
0.0
 12
861.80742187500005
 22
-80.543944373000002
 32
0.0
 13
863.30742187500005
 23
-82.043944373000016
 33
0.0
  0
LINE
  5
213
  8
0
 62
     0
 10
875.80742187500005
 20
-82.043944373000016
 30
0.0
 11
881.80742187500005
 21
-82.043944373000016
 31
0.0
  0
SOLID
  5
214
  8
0
 62
     0
 10
875.80742187500005
 20
-82.043944373000016
 30
0.0
 11
881.80742187500005
 21
-80.543944373000002
 31
0.0
 12
881.80742187500005
 22
-83.543944372999988
 32
0.0
 13
880.30742187499993
 23
-82.043944373000016
 33
0.0
  0
ENDBLK
  5
215
  8
0
  0
BLOCK
  8
0
  2
*U19
 70
     1
 10
0.0
 20
0.0
 30
0.0
  3
*U19
  1

  0
TEXT
  5
262
  8
図枠
  6
CONTINUOUS
 10
1072.058222644524
 20
-38.119837479256852
 30
0.0
 40
5.3974999188999986
  1
改訂者
  0
ENDBLK
  5
264
  8
0
  0
BLOCK
  8
0
  2
*U20
 70
     1
 10
0.0
 20
0.0
 30
0.0
  3
*U20
  1

  0
TEXT
  5
266
  8
図枠
  6
CONTINUOUS
 10
997.67770239759068
 20
-334.7416014382361
 30
0.0
 40
5.6099999188999989
  1
板　　厚
  0
ENDBLK
  5
268
  8
0
  0
BLOCK
  8
0
  2
*U21
 70
     1
 10
0.0
 20
0.0
 30
0.0
  3
*U21
  1

  0
TEXT
  5
26A
  8
図枠
  6
CONTINUOUS
 10
997.92060864375117
 20
-38.119837479256852
 30
0.0
 40
5.3974999188999986
  1
改　訂　内　容
  0
ENDBLK
  5
26C
  8
0
  0
BLOCK
  8
0
  2
*U22
 70
     1
 10
0.0
 20
0.0
 30
0.0
  3
*U22
  1

  0
TEXT
  5
26E
  8
図枠
  6
CONTINUOUS
 10
940.05866665669987
 20
-391.46546021673709
 30
0.0
 40
4.6749999999999989
  1
 検図
  0
ENDBLK
  5
270
  8
0
  0
BLOCK
  8
0
  2
*U23
 70
     1
 10
0.0
 20
0.0
 30
0.0
  3
*U23
  1

  0
TEXT
  5
272
  8
図枠
  6
CONTINUOUS
 10
929.70010066685211
 20
-365.94172925227008
 30
0.0
 40
4.6749999999999989
  1
尺 　度
  0
ENDBLK
  5
274
  8
0
  0
BLOCK
  8
0
  2
*U24
 70
     1
 10
0.0
 20
0.0
 30
0.0
  3
*U24
  1

  0
TEXT
  5
276
  8
図枠
  6
CONTINUOUS
 10
1042.6498506492919
 20
-371.19442986465492
 30
0.0
 40
5.9972220420999998
  1
Ｌ型アングル
  0
ENDBLK
  5
278
  8
0
  0
BLOCK
  8
0
  2
*U25
 70
     1
 10
0.0
 20
0.0
 30
0.0
  3
*U25
  1

  0
TEXT
  5
27A
  8
図枠
  6
CONTINUOUS
 10
970.84445345873041
 20
-382.82307442993499
 30
0.0
 40
4.6749999999999989
  1
園 原
  0
ENDBLK
  5
27C
  8
0
  0
BLOCK
  8
0
  2
*U26
 70
     1
 10
0.0
 20
0.0
 30
0.0
  3
*U26
  1

  0
TEXT
  5
27E
  8
図枠
  6
CONTINUOUS
 10
1091.976027214288
 20
-38.147235956002532
 30
0.0
 40
5.3974999188999986
  1
検認者
  0
ENDBLK
  5
280
  8
0
  0
BLOCK
  8
0
  2
*U27
 70
     1
 10
0.0
 20
0.0
 30
0.0
  3
*U27
  1

  0
TEXT
  5
282
  8
図枠
  6
CONTINUOUS
 10
945.77053863869514
 20
-38.065040525765482
 30
0.0
 40
5.3974999188999986
  1
改訂日
  0
ENDBLK
  5
284
  8
0
  0
BLOCK
  8
0
  2
*U28
 70
     1
 10
0.0
 20
0.0
 30
0.0
  3
*U28
  1

  0
TEXT
  5
286
  8
図枠
  6
CONTINUOUS
 10
939.53886317838226
 20
-334.31557483500001
 30
0.0
 40
5.9972220420999998
  1
SUS304-HL
  0
ENDBLK
  5
288
  8
0
  0
BLOCK
  8
0
  2
*U29
 70
     1
 10
0.0
 20
0.0
 30
0.0
  3
*U29
  1

  0
TEXT
  5
28A
  8
図枠
  6
CONTINUOUS
 10
940.05866665669987
 20
-382.91799828780307
 30
0.0
 40
4.6749999999999989
  1
 照査
  0
ENDBLK
  5
28C
  8
0
  0
BLOCK
  8
0
  2
*U30
 70
     1
 10
0.0
 20
0.0
 30
0.0
  3
*U30
  1

  0
TEXT
  5
28E
  8
図枠
  6
CONTINUOUS
 10
882.86158543842578
 20
-391.44172925227008
 30
0.0
 40
4.6749999999999989
  1
製図
  0
ENDBLK
  5
290
  8
0
  0
BLOCK
  8
0
  2
*U31
 70
     1
 10
0.0
 20
0.0
 30
0.0
  3
*U31
  1

  0
TEXT
  5
292
  8
図枠
  6
CONTINUOUS
 10
892.42916158055789
 20
-374.20441960760002
 30
0.0
 40
4.6749999999999989
  1
H16.4
  0
ENDBLK
  5
294
  8
0
  0
BLOCK
  8
0
  2
*U32
 70
     1
 10
0.0
 20
0.0
 30
0.0
  3
*U32
  1

  0
TEXT
  5
296
  8
図枠
  6
CONTINUOUS
 10
1062.7295297054279
 20
-334.77835271179998
 30
0.0
 40
6.4599999188999986
  1
5.0t
  0
ENDBLK
  5
298
  8
0
  0
BLOCK
  8
0
  2
*U33
 70
     1
 10
0.0
 20
0.0
 30
0.0
  3
*U33
  1

  0
TEXT
  5
29A
  8
図枠
  6
CONTINUOUS
 10
1034.704292512296
 20
-404.58557483499999
 30
0.0
 40
5.9972220420999998
  1
ＳＲＫ０００８６
  0
ENDBLK
  5
29C
  8
0
  0
BLOCK
  8
0
  2
*U34
 70
     1
 10
0.0
 20
0.0
 30
0.0
  3
*U34
  1

  0
TEXT
  5
29E
  8
図枠
  6
CONTINUOUS
 10
888.49977410619988
 20
-406.18989969592741
 30
0.0
 40
8.6359998702999992
  1
株式会社
  0
ENDBLK
  5
2A0
  8
0
  0
BLOCK
  8
0
  2
*U35
 70
     1
 10
0.0
 20
0.0
 30
0.0
  3
*U35
  1

  0
TEXT
  5
2A2
  8
図枠
  6
CONTINUOUS
 10
925.30494213888846
 20
-38.010243572274113
 30
0.0
 40
5.3974999188999986
  1
副番
  0
ENDBLK
  5
2A4
  8
0
  0
BLOCK
  8
0
  2
*U36
 70
     1
 10
0.0
 20
0.0
 30
0.0
  3
*U36
  1

  0
TEXT
  5
2A6
  8
図枠
  6
CONTINUOUS
 10
910.82072249426346
 20
-391.48919118120409
 30
0.0
 40
4.6749999999999989
  1
岸 本
  0
ENDBLK
  5
2A8
  8
0
  0
BLOCK
  8
0
  2
*U37
 70
     1
 10
0.0
 20
0.0
 30
0.0
  3
*U37
  1

  0
TEXT
  5
2AA
  8
図枠
  6
CONTINUOUS
 10
1000.637537215075
 20
-382.483200508636
 30
0.0
 40
4.6749999999999989
  1
図面名
  0
ENDBLK
  5
2AC
  8
0
  0
BLOCK
  8
0
  2
*U38
 70
     1
 10
0.0
 20
0.0
 30
0.0
  3
*U38
  1

  0
TEXT
  5
2AE
  8
図枠
  6
CONTINUOUS
 10
1000.613806250608
 20
-399.43573857970199
 30
0.0
 40
4.6749999999999989
  1
図　番
  0
ENDBLK
  5
2B0
  8
0
  0
BLOCK
  8
0
  2
*U39
 70
     1
 10
0.0
 20
0.0
 30
0.0
  3
*U39
  1

  0
TEXT
  5
2B2
  8
図枠
  6
CONTINUOUS
 10
970.84445345873041
 20
-391.3230744299351
 30
0.0
 40
4.6749999999999989
  1
園 原
  0
ENDBLK
  5
2B4
  8
0
  0
BLOCK
  8
0
  2
*U40
 70
     1
 10
0.0
 20
0.0
 30
0.0
  3
*U40
  1

  0
TEXT
  5
2B6
  8
図枠
  6
CONTINUOUS
 10
1026.682627496594
 20
-387.707345840931
 30
0.0
 40
5.9972220420999998
  1
LS-103 60x120 承認図
  0
ENDBLK
  5
2B8
  8
0
  0
BLOCK
  8
0
  2
*U41
 70
     1
 10
0.0
 20
0.0
 30
0.0
  3
*U41
  1

  0
TEXT
  5
2BA
  8
図枠
  6
CONTINUOUS
 10
890.1984509206593
 20
-365.79934346546798
 30
0.0
 40
4.6749999999999989
  1
日 　付
  0
ENDBLK
  5
2BC
  8
0
  0
BLOCK
  8
0
  2
*U42
 70
     1
 10
0.0
 20
0.0
 30
0.0
  3
*U42
  1

  0
TEXT
  5
2BE
  8
図枠
  6
CONTINUOUS
 10
885.74889528996266
 20
-334.62769281044109
 30
0.0
 40
5.6099999188999989
  1
材　　質
  0
ENDBLK
  5
2C0
  8
0
  0
BLOCK
  8
0
  2
*U43
 70
     1
 10
0.0
 20
0.0
 30
0.0
  3
*U43
  1

  0
TEXT
  5
2C2
  8
図枠
  6
CONTINUOUS
 10
885.6919409760651
 20
-345.68464712433848
 30
0.0
 40
5.6099999188999989
  1
表面処理
  0
ENDBLK
  5
2C4
  8
0
  0
BLOCK
  8
0
  2
*U44
 70
     1
 10
0.0
 20
0.0
 30
0.0
  3
*U44
  1

  0
TEXT
  5
2C6
  8
図枠
  6
CONTINUOUS
 10
885.83432676080884
 20
-356.7985557521335
 30
0.0
 40
5.6099999188999989
  1
一般公差
  0
ENDBLK
  5
2C8
  8
0
  0
BLOCK
  8
0
  2
*U45
 70
     1
 10
0.0
 20
0.0
 30
0.0
  3
*U45
  1

  0
TEXT
  5
2CA
  8
図枠
  6
CONTINUOUS
 10
909.42059559071015
 20
-382.96546021673709
 30
0.0
 40
4.6749999999999989
  1
白須賀
  0
ENDBLK
  5
2CC
  8
0
  0
BLOCK
  8
0
  2
*U46
 70
     1
 10
0.0
 20
0.0
 30
0.0
  3
*U46
  1

  0
TEXT
  5
2CE
  8
図枠
  6
CONTINUOUS
 10
954.46257617659489
 20
-356.74160143823599
 30
0.0
 40
5.6099999188999989
  1
指定無き公差はJIS 0408-Bによること
  0
ENDBLK
  5
2D0
  8
0
  0
BLOCK
  8
0
  2
*U47
 70
     1
 10
0.0
 20
0.0
 30
0.0
  3
*U47
  1

  0
TEXT
  5
2D2
  8
図枠
  6
CONTINUOUS
 10
880.05866665669987
 20
-382.89426732333612
 30
0.0
 40
4.6749999999999989
  1
 設計
  0
ENDBLK
  5
2D4
  8
0
  0
BLOCK
  8
0
  2
*U48
 70
     1
 10
0.0
 20
0.0
 30
0.0
  3
*U48
  1

  0
TEXT
  5
2D6
  8
図枠
  6
CONTINUOUS
 10
1000.507016910507
 20
-365.53066243757007
 30
0.0
 40
4.6749999999999989
  1
製品名
  0
ENDBLK
  5
2D8
  8
0
  0
BLOCK
  8
0
  2
*U49
 70
     1
 10
0.0
 20
0.0
 30
0.0
  3
*U49
  1

  0
TEXT
  5
2DA
  8
図枠
  6
CONTINUOUS
 10
933.85301944857815
 20
-374.20441960760002
 30
0.0
 40
4.6749999999999989
  1
1：2
  0
ENDBLK
  5
2DC
  8
0
  0
BLOCK
  8
0
  2
*D50
 70
     1
 10
0.0
 20
0.0
 30
0.0
  3
*D50
  1

  0
LINE
  5
2DF
  8
寸法線
 62
     0
 10
1036.769576343024
 20
-233.0843299069758
 30
0.0
 11
1057.2362661597219
 21
-212.6176400902774
 31
0.0
  0
LINE
  5
2E0
  8
寸法線
 62
     0
 10
985.6205278235758
 20
-233.0843299069758
 30
0.0
 11
965.15383800687732
 21
-212.61764009027721
 31
0.0
  0
ARC
  5
2E1
  8
寸法線
 62
     0
 10
1011.1950520833
 20
-258.6588541667
 30
0.0
 40
63.862109375000017
 50
50.38505922308152
 51
81.730014131202225
  0
ARC
  5
2E2
  8
寸法線
 62
     0
 10
1011.1950520833
 20
-258.6588541667
 30
0.0
 40
63.862109375000017
 50
98.269985868797761
 51
129.6149407769183
  0
SOLID
  5
2E3
  8
寸法線
 62
     0
 10
1052.588231589943
 20
-208.7233265692692
 30
0.0
 11
1051.242013703908
 21
-210.2024132480405
 31
0.0
 12
1056.3523826832391
 22
-213.50152356676051
 32
0.0
 13
1056.3523826832391
 23
-213.50152356676051
 33
0.0
  0
SOLID
  5
2E4
  8
寸法線
 62
     0
 10
971.14809046269215
 20
-210.20241324804039
 30
0.0
 11
969.80187257665693
 21
-208.72332656926909
 31
0.0
 12
966.03772148336054
 22
-213.5015235667604
 32
0.0
 13
966.03772148336054
 23
-213.5015235667604
 33
0.0
  0
TEXT
  8
寸法線
  40
5.99722
  5
302
  62
0
  72
0
  71
0
 10
999.201
 20
-205.412
 30
0.000000
  1
90°
  0
POINT
  5
2E6
  8
Defpoints
 62
     0
 10
1011.1950520833
 20
-258.6588541667
 30
0.0
  0
POINT
  5
2E7
  8
Defpoints
 62
     0
 10
1036.7253821692
 20
-233.12852408079999
 30
0.0
  0
POINT
  5
2E8
  8
Defpoints
 62
     0
 10
985.66472199739997
 20
-233.12852408079999
 30
0.0
  0
POINT
  5
2E9
  8
Defpoints
 62
     0
 10
1027.7237822499701
 20
-196.97279340009021
 30
0.0
  0
ENDBLK
  5
2EB
  8
0
  0
BLOCK
  8
0
  2
*D51
 70
     1
 10
0.0
 20
0.0
 30
0.0
  3
*D51
  1

  0
LINE
  5
2ED
  8
寸法線
 62
     0
 10
763.28559394169974
 20
-157.0439443729999
 30
0.0
 11
683.53768627572015
 21
-157.04394437299999
 31
0.0
  0
LINE
  5
2EE
  8
寸法線
 62
     0
 10
648.34809394169986
 20
-102.106444373
 30
0.0
 11
648.34809394169986
 21
-121.8543520389798
 31
0.0
  0
ARC
  5
2EF
  8
寸法線
 62
     0
 10
648.34809394169986
 20
-157.04394437299999
 30
0.0
 40
36.439592334020148
 50
9.4447876519037148
 51
36.381052850069729
  0
ARC
  5
2F0
  8
寸法線
 62
     0
 10
648.34809394169986
 20
-157.04394437299999
 30
0.0
 40
36.439592334020148
 50
65.582619531845367
 51
80.555212348096376
  0
SOLID
  5
2F1
  8
寸法線
 62
     0
 10
685.29032335652118
 20
-150.98198462676251
 30
0.0
 11
683.29711278580635
 21
-151.14664069494791
 31
0.0
 12
684.78768627572015
 22
-157.04394437299999
 32
0.0
 13
684.78768627572015
 23
-157.04394437299999
 33
0.0
  0
SOLID
  5
2F2
  8
寸法線
 62
     0
 10
654.24539761975211
 20
-122.0949255288937
 30
0.0
 11
654.41005368793753
 21
-120.1017149581788
 31
0.0
 12
648.34809394169986
 22
-120.6043520389799
 32
0.0
 13
648.34809394169986
 23
-120.6043520389799
 33
0.0
  0
TEXT
  8
寸法線
  40
5.99722
  5
303
  62
0
  72
0
  71
0
 10
659.295
 20
-139.347
 30
0.000000
  1
90°
  0
POINT
  5
2F4
  8
Defpoints
 62
     0
 10
648.34809394169986
 20
-157.04394437299999
 30
0.0
  0
POINT
  5
2F5
  8
Defpoints
 62
     0
 10
763.34809394169986
 20
-157.0439443729999
 30
0.0
  0
POINT
  5
2F6
  8
Defpoints
 62
     0
 10
648.34809394169986
 20
-102.043944373
 30
0.0
  0
POINT
  5
2F7
  8
Defpoints
 62
     0
 10
679.90570660651019
 20
-138.8241482059899
 30
0.0
  0
ENDBLK
  5
2F9
  8
0
  0
BLOCK
  8
0
  2
*U52
 70
     1
 10
0.0
 20
0.0
 30
0.0
  3
*U52
  1

  0
TEXT
  5
2FB
  8
ﾚｲﾔ_1
  6
CONTINUOUS
 10
983.93522335132525
 20
-304.85095920692743
 30
0.0
 40
5.9972220420999998
  1
皿モミ部拡大図
  0
ENDBLK
  5
2FD
  8
0
  0
BLOCK
  8
0
  2
*U53
 70
     1
 10
0.0
 20
0.0
 30
0.0
  3
*U53
  1

  0
TEXT
  5
2FF
  8
ﾚｲﾔ_1
  6
CONTINUOUS
 10
703.44101384669989
 20
-305.5232214733
 30
0.0
 40
5.9972220420999998
  1
ＨＬ
  0
ENDBLK
  5
301
  8
0
  0
ENDSEC
  0
SECTION
  2
ENTITIES
  0
LINE
  5
2F
  8
図枠
 10
978.25801132289996
 20
-403.24207604589992
 30
0.0
 11
983.47614465619995
 21
-403.24207604589992
 31
0.0
  0
INSERT
  5
30
  8
0
  6
CONTINUOUS
  2
*U19
 10
0.0
 20
0.0
 30
0.0
  0
LINE
  5
31
  8
図枠
 10
986.55332349219987
 20
-398.26810982109998
 30
0.0
 11
987.85801132289998
 21
-396.36207604589998
 31
0.0
  0
LINE
  5
32
  8
図枠
 10
949.65306938859987
 20
-399.56207604590003
 30
0.0
 11
946.45306938860006
 21
-399.56207604590003
 31
0.0
  0
LINE
  5
33
  8
図枠
 62
     5
 10
972.05866665669987
 20
-60.618352792899998
 30
0.0
 11
972.05866665669987
 21
-30.618352792900001
 31
0.0
  0
LINE
  5
34
  8
図枠
 10
960.3100390855999
 20
-407.56207604589991
 30
0.0
 11
960.3100390855999
 21
-405.16207604589988
 31
0.0
  0
LINE
  5
35
  8
図枠
 10
949.65306938859987
 20
-396.36207604589998
 30
0.0
 11
949.65306938859987
 21
-399.56207604590003
 31
0.0
  0
LINE
  5
36
  8
図枠
  6
BORDER
 10
972.18666665670014
 20
-361.20635279290002
 30
0.0
 11
972.18666665670014
 21
-375.03035279289998
 31
0.0
  0
LINE
  5
37
  8
図枠
 10
982.71962827909999
 20
-365.81435279290002
 30
0.0
 11
982.71962827909999
 21
-370.42235279290003
 31
0.0
  0
LINE
  5
38
  8
図枠
 10
953.65306938859999
 20
-398.76207604590002
 30
0.0
 11
956.05306938859985
 21
-396.36207604589998
 31
0.0
  0
LINE
  5
39
  8
図枠
 62
     5
 10
931.49009588460012
 20
-51.0831177934
 30
0.0
 11
936.44009588460005
 21
-59.656769290900002
 31
0.0
  0
LINE
  5
3A
  8
図枠
 10
956.05306938859985
 20
-399.56207604590003
 30
0.0
 11
956.05306938859985
 21
-401.96207604589989
 31
0.0
  0
LINE
  5
3B
  8
図枠
 62
     5
 10
931.49009588460012
 20
-51.0831177934
 30
0.0
 11
926.54009588460008
 21
-59.656769290900002
 31
0.0
  0
LINE
  5
3C
  8
図枠
 10
946.45306938860006
 20
-399.56207604590003
 30
0.0
 11
946.45306938860006
 21
-398.76207604590002
 31
0.0
  0
INSERT
  5
3D
  8
0
  6
CONTINUOUS
  2
*U20
 10
0.0
 20
0.0
 30
0.0
  0
INSERT
  5
3E
  8
0
  6
CONTINUOUS
  2
*U21
 10
0.0
 20
0.0
 30
0.0
  0
LINE
  5
3F
  8
図枠
 10
956.05306938859985
 20
-396.36207604589998
 30
0.0
 11
949.65306938859987
 21
-396.36207604589998
 31
0.0
  0
LINE
  5
40
  8
図枠
 10
880.05866665669987
 20
-359.6183527929
 30
0.0
 11
880.05866665669987
 21
-410.61835279289988
 31
0.0
  0
LINE
  5
41
  8
図枠
 10
880.05866665669987
 20
-326.6183527929
 30
0.0
 11
880.05866665669987
 21
-359.6183527929
 31
0.0
  0
INSERT
  5
42
  8
0
  6
CONTINUOUS
  2
*U22
 10
0.0
 20
0.0
 30
0.0
  0
LINE
  5
43
  8
図枠
 10
984.97801132289999
 20
-408.36207604589993
 30
0.0
 11
989.45801132289978
 21
-408.36207604589993
 31
0.0
  0
LINE
  5
44
  8
図枠
 10
940.05866665669987
 20
-376.6183527929
 30
0.0
 11
940.05866665669987
 21
-393.6183527929
 31
0.0
  0
LINE
  5
45
  8
図枠
 10
967.56813907229991
 20
-401.99258949400001
 30
0.0
 11
967.18318578219987
 21
-402.41777087089991
 31
0.0
  0
ARC
  5
46
  8
図枠
 10
948.85306938860003
 20
-402.7620760458999
 30
0.0
 40
4.7999999999999989
 50
270.0
 51
0.0
  0
LINE
  5
47
  8
図枠
 62
     5
 10
924.05866665669987
 20
-60.618352792899998
 30
0.0
 11
924.05866665669987
 21
-30.618352792900001
 31
0.0
  0
INSERT
  5
48
  8
0
  6
CONTINUOUS
  2
*U23
 10
0.0
 20
0.0
 30
0.0
  0
LINE
  5
49
  8
図枠
 10
924.05866665669987
 20
-368.1183527929
 30
0.0
 11
952.05866665669998
 21
-368.1183527929
 31
0.0
  0
LINE
  5
4A
  8
図枠
 10
981.45801132289978
 20
-396.36207604589998
 30
0.0
 11
987.85801132289998
 21
-396.36207604589998
 31
0.0
  0
LINE
  5
4B
  8
図枠
 10
973.11003908559985
 20
-398.76207604590002
 30
0.0
 11
974.71003908559987
 21
-396.36207604589998
 31
0.0
  0
LINE
  5
4C
  8
図枠
 10
989.45801132289978
 20
-408.36207604589993
 30
0.0
 11
988.81341824660001
 21
-406.12207604589992
 31
0.0
  0
LINE
  5
4D
  8
図枠
 62
     5
 10
924.05866665669987
 20
-60.618352792899998
 30
0.0
 11
1112.0586666567001
 21
-60.618352792899998
 31
0.0
  0
LINE
  5
4E
  8
図枠
 10
944.05866665669998
 20
-385.1183527929
 30
0.0
 11
996.05866665669987
 21
-385.1183527929
 31
0.0
  0
LINE
  5
4F
  8
図枠
 62
     5
 10
931.49009588460012
 20
-41.183117793399987
 30
0.0
 11
926.54009588460008
 21
-49.756769290900003
 31
0.0
  0
ARC
  5
50
  8
図枠
 10
962.23003908559986
 20
-399.08207604590001
 30
0.0
 40
6.0800000000000001
 50
270.0
 51
298.08590481520002
  0
LINE
  5
51
  8
図枠
 62
     5
 10
931.49009588460012
 20
-41.183117793399987
 30
0.0
 11
936.44009588460005
 21
-49.756769290900003
 31
0.0
  0
ARC
  5
52
  8
図枠
 10
964.31003908560001
 20
-398.76207604590002
 30
0.0
 40
8.8000000000000007
 50
322.48761197969998
 51
0.0
  0
CIRCLE
  5
53
  8
図枠
 10
972.18666665670014
 20
-368.1183527929
 30
0.0
 40
2.3039999999999998
  0
LINE
  5
54
  8
図枠
 10
978.25801132289996
 20
-401.96207604589989
 30
0.0
 11
983.10067798950001
 21
-401.96207604589989
 31
0.0
  0
LINE
  5
55
  8
図枠
 10
880.05866665669987
 20
-348.6183527929
 30
0.0
 11
1112.0586666567001
 21
-348.6183527929
 31
0.0
  0
LINE
  5
56
  8
図枠
 10
880.05866665669987
 20
-337.6183527929
 30
0.0
 11
1112.0586666567001
 21
-337.6183527929
 31
0.0
  0
LINE
  5
57
  8
図枠
  6
BORDER
 10
972.18666665670014
 20
-361.20635279290002
 30
0.0
 11
972.18666665670014
 21
-375.03035279289998
 31
0.0
  0
LINE
  5
58
  8
図枠
 62
     5
 10
926.54009588460008
 20
-49.756769290900003
 30
0.0
 11
936.44009588460005
 21
-49.756769290900003
 31
0.0
  0
LINE
  5
59
  8
図枠
 10
920.05866665669998
 20
-359.6183527929
 30
0.0
 11
920.05866665669998
 21
-326.6183527929
 31
0.0
  0
LINE
  5
5A
  8
図枠
 10
1030.058666656699
 20
-337.6183527929
 30
0.0
 11
1030.058666656699
 21
-326.6183527929
 31
0.0
  0
INSERT
  5
5B
  8
0
  6
CONTINUOUS
  2
*U24
 10
0.0
 20
0.0
 30
0.0
  0
INSERT
  5
5C
  8
0
  6
CONTINUOUS
  2
*U25
 10
0.0
 20
0.0
 30
0.0
  0
LINE
  5
5D
  8
図枠
 10
982.71962827909999
 20
-365.81435279290002
 30
0.0
 11
991.9356282791
 21
-363.51035279289999
 31
0.0
  0
POLYLINE
  8
図枠
  5
304
  66
     1
 10
0.000000
 20
0.000000
 30
0.000000
  70
     8
  0
VERTEX
  8
図枠
  5
305
 10
960.310
 20
-400.593
 30
0.000000
  70
    32
  0
VERTEX
  8
図枠
  5
306
 10
960.339
 20
-400.619
 30
0.000000
  70
    32
  0
VERTEX
  8
図枠
  5
307
 10
960.368
 20
-400.646
 30
0.000000
  70
    32
  0
VERTEX
  8
図枠
  5
308
 10
960.396
 20
-400.673
 30
0.000000
  70
    32
  0
VERTEX
  8
図枠
  5
309
 10
960.425
 20
-400.699
 30
0.000000
  70
    32
  0
VERTEX
  8
図枠
  5
30A
 10
960.454
 20
-400.726
 30
0.000000
  70
    32
  0
VERTEX
  8
図枠
  5
30B
 10
960.483
 20
-400.752
 30
0.000000
  70
    32
  0
VERTEX
  8
図枠
  5
30C
 10
960.512
 20
-400.779
 30
0.000000
  70
    32
  0
VERTEX
  8
図枠
  5
30D
 10
960.541
 20
-400.805
 30
0.000000
  70
    32
  0
VERTEX
  8
図枠
  5
30E
 10
960.569
 20
-400.832
 30
0.000000
  70
    32
  0
VERTEX
  8
図枠
  5
30F
 10
960.598
 20
-400.858
 30
0.000000
  70
    32
  0
VERTEX
  8
図枠
  5
310
 10
960.627
 20
-400.885
 30
0.000000
  70
    32
  0
VERTEX
  8
図枠
  5
311
 10
960.656
 20
-400.911
 30
0.000000
  70
    32
  0
VERTEX
  8
図枠
  5
312
 10
960.685
 20
-400.938
 30
0.000000
  70
    32
  0
VERTEX
  8
図枠
  5
313
 10
960.714
 20
-400.964
 30
0.000000
  70
    32
  0
VERTEX
  8
図枠
  5
314
 10
960.742
 20
-400.991
 30
0.000000
  70
    32
  0
VERTEX
  8
図枠
  5
315
 10
960.771
 20
-401.017
 30
0.000000
  70
    32
  0
VERTEX
  8
図枠
  5
316
 10
960.800
 20
-401.044
 30
0.000000
  70
    32
  0
VERTEX
  8
図枠
  5
317
 10
960.829
 20
-401.070
 30
0.000000
  70
    32
  0
VERTEX
  8
図枠
  5
318
 10
960.858
 20
-401.097
 30
0.000000
  70
    32
  0
VERTEX
  8
図枠
  5
319
 10
960.887
 20
-401.123
 30
0.000000
  70
    32
  0
VERTEX
  8
図枠
  5
31A
 10
960.916
 20
-401.150
 30
0.000000
  70
    32
  0
VERTEX
  8
図枠
  5
31B
 10
960.945
 20
-401.176
 30
0.000000
  70
    32
  0
VERTEX
  8
図枠
  5
31C
 10
960.973
 20
-401.203
 30
0.000000
  70
    32
  0
VERTEX
  8
図枠
  5
31D
 10
961.002
 20
-401.229
 30
0.000000
  70
    32
  0
VERTEX
  8
図枠
  5
31E
 10
961.031
 20
-401.255
 30
0.000000
  70
    32
  0
VERTEX
  8
図枠
  5
31F
 10
961.060
 20
-401.282
 30
0.000000
  70
    32
  0
VERTEX
  8
図枠
  5
320
 10
961.089
 20
-401.308
 30
0.000000
  70
    32
  0
VERTEX
  8
図枠
  5
321
 10
961.118
 20
-401.335
 30
0.000000
  70
    32
  0
VERTEX
  8
図枠
  5
322
 10
961.147
 20
-401.361
 30
0.000000
  70
    32
  0
VERTEX
  8
図枠
  5
323
 10
961.176
 20
-401.387
 30
0.000000
  70
    32
  0
VERTEX
  8
図枠
  5
324
 10
961.205
 20
-401.414
 30
0.000000
  70
    32
  0
VERTEX
  8
図枠
  5
325
 10
961.234
 20
-401.440
 30
0.000000
  70
    32
  0
VERTEX
  8
図枠
  5
326
 10
961.263
 20
-401.466
 30
0.000000
  70
    32
  0
VERTEX
  8
図枠
  5
327
 10
961.292
 20
-401.492
 30
0.000000
  70
    32
  0
VERTEX
  8
図枠
  5
328
 10
961.321
 20
-401.519
 30
0.000000
  70
    32
  0
VERTEX
  8
図枠
  5
329
 10
961.350
 20
-401.545
 30
0.000000
  70
    32
  0
VERTEX
  8
図枠
  5
32A
 10
961.379
 20
-401.571
 30
0.000000
  70
    32
  0
VERTEX
  8
図枠
  5
32B
 10
961.408
 20
-401.597
 30
0.000000
  70
    32
  0
VERTEX
  8
図枠
  5
32C
 10
961.437
 20
-401.623
 30
0.000000
  70
    32
  0
VERTEX
  8
図枠
  5
32D
 10
961.466
 20
-401.649
 30
0.000000
  70
    32
  0
VERTEX
  8
図枠
  5
32E
 10
961.495
 20
-401.676
 30
0.000000
  70
    32
  0
VERTEX
  8
図枠
  5
32F
 10
961.524
 20
-401.702
 30
0.000000
  70
    32
  0
VERTEX
  8
図枠
  5
330
 10
961.553
 20
-401.728
 30
0.000000
  70
    32
  0
VERTEX
  8
図枠
  5
331
 10
961.582
 20
-401.754
 30
0.000000
  70
    32
  0
VERTEX
  8
図枠
  5
332
 10
961.611
 20
-401.780
 30
0.000000
  70
    32
  0
VERTEX
  8
図枠
  5
333
 10
961.641
 20
-401.806
 30
0.000000
  70
    32
  0
VERTEX
  8
図枠
  5
334
 10
961.670
 20
-401.832
 30
0.000000
  70
    32
  0
VERTEX
  8
図枠
  5
335
 10
961.699
 20
-401.858
 30
0.000000
  70
    32
  0
VERTEX
  8
図枠
  5
336
 10
961.728
 20
-401.884
 30
0.000000
  70
    32
  0
VERTEX
  8
図枠
  5
337
 10
961.757
 20
-401.910
 30
0.000000
  70
    32
  0
VERTEX
  8
図枠
  5
338
 10
961.786
 20
-401.935
 30
0.000000
  70
    32
  0
VERTEX
  8
図枠
  5
339
 10
961.816
 20
-401.961
 30
0.000000
  70
    32
  0
VERTEX
  8
図枠
  5
33A
 10
961.845
 20
-401.987
 30
0.000000
  70
    32
  0
VERTEX
  8
図枠
  5
33B
 10
961.874
 20
-402.013
 30
0.000000
  70
    32
  0
VERTEX
  8
図枠
  5
33C
 10
961.903
 20
-402.039
 30
0.000000
  70
    32
  0
VERTEX
  8
図枠
  5
33D
 10
961.933
 20
-402.064
 30
0.000000
  70
    32
  0
VERTEX
  8
図枠
  5
33E
 10
961.962
 20
-402.090
 30
0.000000
  70
    32
  0
VERTEX
  8
図枠
  5
33F
 10
961.991
 20
-402.116
 30
0.000000
  70
    32
  0
VERTEX
  8
図枠
  5
340
 10
962.021
 20
-402.141
 30
0.000000
  70
    32
  0
VERTEX
  8
図枠
  5
341
 10
962.050
 20
-402.167
 30
0.000000
  70
    32
  0
VERTEX
  8
図枠
  5
342
 10
962.079
 20
-402.192
 30
0.000000
  70
    32
  0
VERTEX
  8
図枠
  5
343
 10
962.109
 20
-402.218
 30
0.000000
  70
    32
  0
VERTEX
  8
図枠
  5
344
 10
962.138
 20
-402.243
 30
0.000000
  70
    32
  0
VERTEX
  8
図枠
  5
345
 10
962.167
 20
-402.269
 30
0.000000
  70
    32
  0
VERTEX
  8
図枠
  5
346
 10
962.197
 20
-402.294
 30
0.000000
  70
    32
  0
VERTEX
  8
図枠
  5
347
 10
962.226
 20
-402.320
 30
0.000000
  70
    32
  0
VERTEX
  8
図枠
  5
348
 10
962.256
 20
-402.345
 30
0.000000
  70
    32
  0
VERTEX
  8
図枠
  5
349
 10
962.285
 20
-402.370
 30
0.000000
  70
    32
  0
VERTEX
  8
図枠
  5
34A
 10
962.315
 20
-402.395
 30
0.000000
  70
    32
  0
VERTEX
  8
図枠
  5
34B
 10
962.344
 20
-402.421
 30
0.000000
  70
    32
  0
VERTEX
  8
図枠
  5
34C
 10
962.374
 20
-402.446
 30
0.000000
  70
    32
  0
VERTEX
  8
図枠
  5
34D
 10
962.404
 20
-402.471
 30
0.000000
  70
    32
  0
VERTEX
  8
図枠
  5
34E
 10
962.433
 20
-402.496
 30
0.000000
  70
    32
  0
VERTEX
  8
図枠
  5
34F
 10
962.463
 20
-402.521
 30
0.000000
  70
    32
  0
VERTEX
  8
図枠
  5
350
 10
962.492
 20
-402.546
 30
0.000000
  70
    32
  0
VERTEX
  8
図枠
  5
351
 10
962.522
 20
-402.571
 30
0.000000
  70
    32
  0
VERTEX
  8
図枠
  5
352
 10
962.552
 20
-402.596
 30
0.000000
  70
    32
  0
VERTEX
  8
図枠
  5
353
 10
962.582
 20
-402.621
 30
0.000000
  70
    32
  0
VERTEX
  8
図枠
  5
354
 10
962.611
 20
-402.646
 30
0.000000
  70
    32
  0
VERTEX
  8
図枠
  5
355
 10
962.641
 20
-402.671
 30
0.000000
  70
    32
  0
VERTEX
  8
図枠
  5
356
 10
962.671
 20
-402.696
 30
0.000000
  70
    32
  0
VERTEX
  8
図枠
  5
357
 10
962.701
 20
-402.720
 30
0.000000
  70
    32
  0
VERTEX
  8
図枠
  5
358
 10
962.730
 20
-402.745
 30
0.000000
  70
    32
  0
VERTEX
  8
図枠
  5
359
 10
962.760
 20
-402.770
 30
0.000000
  70
    32
  0
VERTEX
  8
図枠
  5
35A
 10
962.790
 20
-402.794
 30
0.000000
  70
    32
  0
VERTEX
  8
図枠
  5
35B
 10
962.820
 20
-402.819
 30
0.000000
  70
    32
  0
VERTEX
  8
図枠
  5
35C
 10
962.850
 20
-402.843
 30
0.000000
  70
    32
  0
VERTEX
  8
図枠
  5
35D
 10
962.880
 20
-402.868
 30
0.000000
  70
    32
  0
VERTEX
  8
図枠
  5
35E
 10
962.910
 20
-402.892
 30
0.000000
  70
    32
  0
VERTEX
  8
図枠
  5
35F
 10
962.940
 20
-402.916
 30
0.000000
  70
    32
  0
VERTEX
  8
図枠
  5
360
 10
962.970
 20
-402.941
 30
0.000000
  70
    32
  0
VERTEX
  8
図枠
  5
361
 10
963.000
 20
-402.965
 30
0.000000
  70
    32
  0
VERTEX
  8
図枠
  5
362
 10
963.030
 20
-402.989
 30
0.000000
  70
    32
  0
VERTEX
  8
図枠
  5
363
 10
963.060
 20
-403.013
 30
0.000000
  70
    32
  0
VERTEX
  8
図枠
  5
364
 10
963.091
 20
-403.037
 30
0.000000
  70
    32
  0
VERTEX
  8
図枠
  5
365
 10
963.121
 20
-403.061
 30
0.000000
  70
    32
  0
VERTEX
  8
図枠
  5
366
 10
963.151
 20
-403.085
 30
0.000000
  70
    32
  0
VERTEX
  8
図枠
  5
367
 10
963.181
 20
-403.109
 30
0.000000
  70
    32
  0
VERTEX
  8
図枠
  5
368
 10
963.211
 20
-403.133
 30
0.000000
  70
    32
  0
VERTEX
  8
図枠
  5
369
 10
963.242
 20
-403.157
 30
0.000000
  70
    32
  0
VERTEX
  8
図枠
  5
36A
 10
963.272
 20
-403.181
 30
0.000000
  70
    32
  0
VERTEX
  8
図枠
  5
36B
 10
963.302
 20
-403.205
 30
0.000000
  70
    32
  0
VERTEX
  8
図枠
  5
36C
 10
963.333
 20
-403.228
 30
0.000000
  70
    32
  0
VERTEX
  8
図枠
  5
36D
 10
963.363
 20
-403.252
 30
0.000000
  70
    32
  0
VERTEX
  8
図枠
  5
36E
 10
963.394
 20
-403.275
 30
0.000000
  70
    32
  0
VERTEX
  8
図枠
  5
36F
 10
963.424
 20
-403.299
 30
0.000000
  70
    32
  0
VERTEX
  8
図枠
  5
370
 10
963.455
 20
-403.322
 30
0.000000
  70
    32
  0
VERTEX
  8
図枠
  5
371
 10
963.485
 20
-403.346
 30
0.000000
  70
    32
  0
VERTEX
  8
図枠
  5
372
 10
963.516
 20
-403.369
 30
0.000000
  70
    32
  0
VERTEX
  8
図枠
  5
373
 10
963.546
 20
-403.392
 30
0.000000
  70
    32
  0
VERTEX
  8
図枠
  5
374
 10
963.577
 20
-403.415
 30
0.000000
  70
    32
  0
VERTEX
  8
図枠
  5
375
 10
963.608
 20
-403.439
 30
0.000000
  70
    32
  0
VERTEX
  8
図枠
  5
376
 10
963.638
 20
-403.462
 30
0.000000
  70
    32
  0
VERTEX
  8
図枠
  5
377
 10
963.669
 20
-403.485
 30
0.000000
  70
    32
  0
VERTEX
  8
図枠
  5
378
 10
963.700
 20
-403.508
 30
0.000000
  70
    32
  0
VERTEX
  8
図枠
  5
379
 10
963.731
 20
-403.530
 30
0.000000
  70
    32
  0
VERTEX
  8
図枠
  5
37A
 10
963.762
 20
-403.553
 30
0.000000
  70
    32
  0
VERTEX
  8
図枠
  5
37B
 10
963.792
 20
-403.576
 30
0.000000
  70
    32
  0
VERTEX
  8
図枠
  5
37C
 10
963.823
 20
-403.599
 30
0.000000
  70
    32
  0
VERTEX
  8
図枠
  5
37D
 10
963.854
 20
-403.621
 30
0.000000
  70
    32
  0
VERTEX
  8
図枠
  5
37E
 10
963.885
 20
-403.644
 30
0.000000
  70
    32
  0
VERTEX
  8
図枠
  5
37F
 10
963.916
 20
-403.666
 30
0.000000
  70
    32
  0
VERTEX
  8
図枠
  5
380
 10
963.947
 20
-403.689
 30
0.000000
  70
    32
  0
VERTEX
  8
図枠
  5
381
 10
963.979
 20
-403.711
 30
0.000000
  70
    32
  0
VERTEX
  8
図枠
  5
382
 10
964.010
 20
-403.733
 30
0.000000
  70
    32
  0
VERTEX
  8
図枠
  5
383
 10
964.041
 20
-403.756
 30
0.000000
  70
    32
  0
VERTEX
  8
図枠
  5
384
 10
964.072
 20
-403.778
 30
0.000000
  70
    32
  0
VERTEX
  8
図枠
  5
385
 10
964.103
 20
-403.800
 30
0.000000
  70
    32
  0
VERTEX
  8
図枠
  5
386
 10
964.135
 20
-403.822
 30
0.000000
  70
    32
  0
VERTEX
  8
図枠
  5
387
 10
964.166
 20
-403.844
 30
0.000000
  70
    32
  0
VERTEX
  8
図枠
  5
388
 10
964.197
 20
-403.866
 30
0.000000
  70
    32
  0
VERTEX
  8
図枠
  5
389
 10
964.229
 20
-403.887
 30
0.000000
  70
    32
  0
VERTEX
  8
図枠
  5
38A
 10
964.260
 20
-403.909
 30
0.000000
  70
    32
  0
VERTEX
  8
図枠
  5
38B
 10
964.292
 20
-403.931
 30
0.000000
  70
    32
  0
VERTEX
  8
図枠
  5
38C
 10
964.323
 20
-403.952
 30
0.000000
  70
    32
  0
VERTEX
  8
図枠
  5
38D
 10
964.355
 20
-403.974
 30
0.000000
  70
    32
  0
VERTEX
  8
図枠
  5
38E
 10
964.386
 20
-403.995
 30
0.000000
  70
    32
  0
VERTEX
  8
図枠
  5
38F
 10
964.418
 20
-404.017
 30
0.000000
  70
    32
  0
VERTEX
  8
図枠
  5
390
 10
964.450
 20
-404.038
 30
0.000000
  70
    32
  0
VERTEX
  8
図枠
  5
391
 10
964.481
 20
-404.059
 30
0.000000
  70
    32
  0
VERTEX
  8
図枠
  5
392
 10
964.513
 20
-404.080
 30
0.000000
  70
    32
  0
VERTEX
  8
図枠
  5
393
 10
964.545
 20
-404.101
 30
0.000000
  70
    32
  0
VERTEX
  8
図枠
  5
394
 10
964.577
 20
-404.122
 30
0.000000
  70
    32
  0
VERTEX
  8
図枠
  5
395
 10
964.609
 20
-404.143
 30
0.000000
  70
    32
  0
VERTEX
  8
図枠
  5
396
 10
964.641
 20
-404.164
 30
0.000000
  70
    32
  0
VERTEX
  8
図枠
  5
397
 10
964.673
 20
-404.184
 30
0.000000
  70
    32
  0
VERTEX
  8
図枠
  5
398
 10
964.705
 20
-404.205
 30
0.000000
  70
    32
  0
VERTEX
  8
図枠
  5
399
 10
964.737
 20
-404.226
 30
0.000000
  70
    32
  0
VERTEX
  8
図枠
  5
39A
 10
964.769
 20
-404.246
 30
0.000000
  70
    32
  0
VERTEX
  8
図枠
  5
39B
 10
964.801
 20
-404.266
 30
0.000000
  70
    32
  0
VERTEX
  8
図枠
  5
39C
 10
964.833
 20
-404.287
 30
0.000000
  70
    32
  0
VERTEX
  8
図枠
  5
39D
 10
964.865
 20
-404.307
 30
0.000000
  70
    32
  0
VERTEX
  8
図枠
  5
39E
 10
964.898
 20
-404.327
 30
0.000000
  70
    32
  0
VERTEX
  8
図枠
  5
39F
 10
964.930
 20
-404.347
 30
0.000000
  70
    32
  0
VERTEX
  8
図枠
  5
3A0
 10
964.962
 20
-404.367
 30
0.000000
  70
    32
  0
VERTEX
  8
図枠
  5
3A1
 10
964.995
 20
-404.387
 30
0.000000
  70
    32
  0
VERTEX
  8
図枠
  5
3A2
 10
965.027
 20
-404.407
 30
0.000000
  70
    32
  0
VERTEX
  8
図枠
  5
3A3
 10
965.060
 20
-404.426
 30
0.000000
  70
    32
  0
VERTEX
  8
図枠
  5
3A4
 10
965.092
 20
-404.446
 30
0.000000
  70
    32
  0
SEQEND
  8
図枠
  5
3A5
  0
INSERT
  5
5F
  8
0
  6
CONTINUOUS
  2
*U26
 10
0.0
 20
0.0
 30
0.0
  0
LINE
  5
60
  8
図枠
 10
987.98465571990005
 20
-403.24207604589992
 30
0.0
 11
992.65801132289994
 21
-403.24207604589992
 31
0.0
  0
LINE
  5
61
  8
図枠
 10
978.25801132289996
 20
-399.08207604590001
 30
0.0
 11
982.25587798949994
 21
-399.08207604590001
 31
0.0
  0
LINE
  5
62
  8
図枠
 10
992.65801132289994
 20
-399.08207604590001
 30
0.0
 11
992.65801132289994
 21
-401.96207604589989
 31
0.0
  0
LINE
  5
63
  8
図枠
 10
946.45306938860006
 20
-404.36207604589993
 30
0.0
 11
946.45306938860006
 21
-401.96207604589989
 31
0.0
  0
LINE
  5
64
  8
図枠
 10
988.81341824660001
 20
-406.12207604589992
 30
0.0
 11
992.65801132289994
 21
-406.12207604589992
 31
0.0
  0
LINE
  5
65
  8
図枠
 10
948.85306938860003
 20
-396.36207604589998
 30
0.0
 11
942.45306938860006
 21
-396.36207604589998
 31
0.0
  0
LINE
  5
66
  8
図枠
 10
987.98465571990005
 20
-403.24207604589992
 30
0.0
 11
987.61631681919994
 21
-401.96207604589989
 31
0.0
  0
LINE
  5
67
  8
図枠
 10
978.25801132289996
 20
-406.12207604589992
 30
0.0
 11
984.32094465619991
 21
-406.12207604589992
 31
0.0
  0
LINE
  5
68
  8
図枠
 10
974.71003908559987
 20
-396.36207604589998
 30
0.0
 11
960.3100390855999
 21
-396.36207604589998
 31
0.0
  0
LINE
  5
69
  8
図枠
 10
942.45306938860006
 20
-404.36207604589993
 30
0.0
 11
946.45306938860006
 21
-404.36207604589993
 31
0.0
  0
LINE
  5
6A
  8
図枠
 10
987.61631681919994
 20
-401.96207604589989
 30
0.0
 11
992.65801132289994
 21
-401.96207604589989
 31
0.0
  0
LINE
  5
6B
  8
図枠
 10
982.71962827909999
 20
-365.81435279290002
 30
0.0
 11
982.71962827909999
 21
-370.42235279290003
 31
0.0
  0
LINE
  5
6C
  8
図枠
 10
982.25587798949994
 20
-399.08207604590001
 30
0.0
 11
981.45801132289978
 21
-396.36207604589998
 31
0.0
  0
LINE
  5
6D
  8
図枠
 10
986.78755429249998
 20
-399.08207604590001
 30
0.0
 11
992.65801132289994
 21
-399.08207604590001
 31
0.0
  0
LINE
  5
6E
  8
図枠
 10
991.9356282791
 20
-363.51035279289999
 30
0.0
 11
991.9356282791
 21
-372.7263527929
 31
0.0
  0
LINE
  5
6F
  8
図枠
 10
974.71003908559987
 20
-405.16207604589988
 30
0.0
 11
974.71003908559987
 21
-407.56207604589991
 31
0.0
  0
INSERT
  5
70
  8
0
  6
CONTINUOUS
  2
*U27
 10
0.0
 20
0.0
 30
0.0
  0
LINE
  5
71
  8
図枠
 62
     5
 10
926.54009588460008
 20
-59.656769290900002
 30
0.0
 11
936.44009588460005
 21
-59.656769290900002
 31
0.0
  0
LINE
  5
72
  8
図枠
 10
946.45306938860006
 20
-398.76207604590002
 30
0.0
 11
948.85306938860003
 21
-396.36207604589998
 31
0.0
  0
LINE
  5
73
  8
図枠
 10
942.45306938860006
 20
-399.56207604590003
 30
0.0
 11
940.6113032902
 21
-399.56207604590003
 31
0.0
  0
INSERT
  5
74
  8
0
  6
CONTINUOUS
  2
*U28
 10
0.0
 20
0.0
 30
0.0
  0
INSERT
  5
75
  8
0
  6
CONTINUOUS
  2
*U29
 10
0.0
 20
0.0
 30
0.0
  0
INSERT
  5
76
  8
0
  6
CONTINUOUS
  2
*U30
 10
0.0
 20
0.0
 30
0.0
  0
LINE
  5
77
  8
図枠
 10
942.45306938860006
 20
-405.16207604589988
 30
0.0
 11
942.45306938860006
 21
-407.56207604589991
 31
0.0
  0
LINE
  5
78
  8
図枠
 10
971.29039004899994
 20
-404.12068598019999
 30
0.0
 11
971.00542675330007
 21
-404.39969101089991
 31
0.0
  0
LINE
  5
79
  8
図枠
 10
992.65801132289994
 20
-403.24207604589992
 30
0.0
 11
992.65801132289994
 21
-406.12207604589992
 31
0.0
  0
INSERT
  5
7A
  8
0
  6
CONTINUOUS
  2
*U31
 10
0.0
 20
0.0
 30
0.0
  0
LINE
  5
7B
  8
図枠
 10
960.3100390855999
 20
-405.16207604589988
 30
0.0
 11
962.23003908559986
 21
-405.16207604589988
 31
0.0
  0
INSERT
  5
7C
  8
0
  6
CONTINUOUS
  2
*U32
 10
0.0
 20
0.0
 30
0.0
  0
INSERT
  5
7D
  8
0
  6
CONTINUOUS
  2
*U33
 10
0.0
 20
0.0
 30
0.0
  0
LINE
  5
7E
  8
図枠
 10
942.45306938860006
 20
-407.56207604589991
 30
0.0
 11
948.85306938860003
 21
-407.56207604589991
 31
0.0
  0
LINE
  5
7F
  8
図枠
 10
960.3100390855999
 20
-407.56207604589991
 30
0.0
 11
964.31003908560001
 21
-407.56207604589991
 31
0.0
  0
LINE
  5
80
  8
図枠
 62
     5
 10
924.05866665669987
 20
-50.618352792899998
 30
0.0
 11
1112.0586666567001
 21
-50.618352792899998
 31
0.0
  0
LINE
  5
81
  8
図枠
 62
     5
 10
924.05866665669987
 20
-40.618352792899998
 30
0.0
 11
1112.0586666567001
 21
-40.618352792899998
 31
0.0
  0
LINE
  5
82
  8
図枠
 62
     5
 10
1092.0586666567001
 20
-60.618352792899998
 30
0.0
 11
1092.0586666567001
 21
-30.618352792900001
 31
0.0
  0
LINE
  5
83
  8
図枠
 10
946.45306938860006
 20
-401.96207604589989
 30
0.0
 11
949.65306938859987
 21
-401.96207604589989
 31
0.0
  0
CIRCLE
  5
84
  8
図枠
 10
972.18666665670014
 20
-368.1183527929
 30
0.0
 40
4.6079999999999997
  0
INSERT
  5
85
  8
0
  6
CONTINUOUS
  2
*U34
 10
0.0
 20
0.0
 30
0.0
  0
LINE
  5
86
  8
図枠
 10
880.05866665669987
 20
-376.6183527929
 30
0.0
 11
1112.0586666567001
 21
-376.6183527929
 31
0.0
  0
LINE
  5
87
  8
図枠
 10
880.05866665669987
 20
-326.6183527929
 30
0.0
 11
1112.0586666567001
 21
-326.6183527929
 31
0.0
  0
LINE
  5
88
  8
図枠
 10
991.9356282791
 20
-363.51035279289999
 30
0.0
 11
991.9356282791
 21
-372.7263527929
 31
0.0
  0
LINE
  5
89
  8
図枠
 62
     5
 10
940.05866665669987
 20
-60.618352792899998
 30
0.0
 11
940.05866665669987
 21
-30.618352792900001
 31
0.0
  0
LINE
  5
8A
  8
図枠
 62
     5
 10
1072.0586666567001
 20
-60.618352792899998
 30
0.0
 11
1072.0586666567001
 21
-30.618352792900001
 31
0.0
  0
INSERT
  5
8B
  8
0
  6
CONTINUOUS
  2
*U35
 10
0.0
 20
0.0
 30
0.0
  0
LINE
  5
8C
  8
図枠
 10
994.05866665669998
 20
-337.6183527929
 30
0.0
 11
994.05866665669998
 21
-326.6183527929
 31
0.0
  0
LINE
  5
8D
  8
図枠
 10
942.45306938860006
 20
-401.96207604589989
 30
0.0
 11
942.45306938860006
 21
-404.36207604589993
 31
0.0
  0
LINE
  5
8E
  8
図枠
  6
BORDER
 10
972.18666665670014
 20
-361.20635279290002
 30
0.0
 11
972.18666665670014
 21
-375.03035279289998
 31
0.0
  0
LINE
  5
8F
  8
図枠
  6
BORDER
 10
972.18666665670014
 20
-361.20635279290002
 30
0.0
 11
972.18666665670014
 21
-375.03035279289998
 31
0.0
  0
ARC
  5
90
  8
図枠
 10
964.31003908560001
 20
-398.76207604590002
 30
0.0
 40
8.8000000000000007
 50
270.0
 51
302.54495885400001
  0
POLYLINE
  8
図枠
  5
3A6
  66
     1
 10
0.000000
 20
0.000000
 30
0.000000
  70
     8
  0
VERTEX
  8
図枠
  5
3A7
 10
969.044
 20
-406.180
 30
0.000000
  70
    32
  0
VERTEX
  8
図枠
  5
3A8
 10
969.087
 20
-406.194
 30
0.000000
  70
    32
  0
VERTEX
  8
図枠
  5
3A9
 10
969.130
 20
-406.208
 30
0.000000
  70
    32
  0
VERTEX
  8
図枠
  5
3AA
 10
969.173
 20
-406.221
 30
0.000000
  70
    32
  0
VERTEX
  8
図枠
  5
3AB
 10
969.217
 20
-406.235
 30
0.000000
  70
    32
  0
VERTEX
  8
図枠
  5
3AC
 10
969.260
 20
-406.248
 30
0.000000
  70
    32
  0
VERTEX
  8
図枠
  5
3AD
 10
969.303
 20
-406.262
 30
0.000000
  70
    32
  0
VERTEX
  8
図枠
  5
3AE
 10
969.346
 20
-406.275
 30
0.000000
  70
    32
  0
VERTEX
  8
図枠
  5
3AF
 10
969.390
 20
-406.288
 30
0.000000
  70
    32
  0
VERTEX
  8
図枠
  5
3B0
 10
969.433
 20
-406.301
 30
0.000000
  70
    32
  0
VERTEX
  8
図枠
  5
3B1
 10
969.476
 20
-406.315
 30
0.000000
  70
    32
  0
VERTEX
  8
図枠
  5
3B2
 10
969.520
 20
-406.328
 30
0.000000
  70
    32
  0
VERTEX
  8
図枠
  5
3B3
 10
969.563
 20
-406.341
 30
0.000000
  70
    32
  0
VERTEX
  8
図枠
  5
3B4
 10
969.607
 20
-406.354
 30
0.000000
  70
    32
  0
VERTEX
  8
図枠
  5
3B5
 10
969.650
 20
-406.367
 30
0.000000
  70
    32
  0
VERTEX
  8
図枠
  5
3B6
 10
969.694
 20
-406.379
 30
0.000000
  70
    32
  0
VERTEX
  8
図枠
  5
3B7
 10
969.737
 20
-406.392
 30
0.000000
  70
    32
  0
VERTEX
  8
図枠
  5
3B8
 10
969.781
 20
-406.405
 30
0.000000
  70
    32
  0
VERTEX
  8
図枠
  5
3B9
 10
969.825
 20
-406.418
 30
0.000000
  70
    32
  0
VERTEX
  8
図枠
  5
3BA
 10
969.868
 20
-406.430
 30
0.000000
  70
    32
  0
VERTEX
  8
図枠
  5
3BB
 10
969.912
 20
-406.443
 30
0.000000
  70
    32
  0
VERTEX
  8
図枠
  5
3BC
 10
969.956
 20
-406.455
 30
0.000000
  70
    32
  0
VERTEX
  8
図枠
  5
3BD
 10
970.000
 20
-406.468
 30
0.000000
  70
    32
  0
VERTEX
  8
図枠
  5
3BE
 10
970.043
 20
-406.480
 30
0.000000
  70
    32
  0
VERTEX
  8
図枠
  5
3BF
 10
970.087
 20
-406.492
 30
0.000000
  70
    32
  0
VERTEX
  8
図枠
  5
3C0
 10
970.131
 20
-406.505
 30
0.000000
  70
    32
  0
VERTEX
  8
図枠
  5
3C1
 10
970.175
 20
-406.517
 30
0.000000
  70
    32
  0
VERTEX
  8
図枠
  5
3C2
 10
970.219
 20
-406.529
 30
0.000000
  70
    32
  0
VERTEX
  8
図枠
  5
3C3
 10
970.263
 20
-406.541
 30
0.000000
  70
    32
  0
VERTEX
  8
図枠
  5
3C4
 10
970.307
 20
-406.553
 30
0.000000
  70
    32
  0
VERTEX
  8
図枠
  5
3C5
 10
970.351
 20
-406.565
 30
0.000000
  70
    32
  0
VERTEX
  8
図枠
  5
3C6
 10
970.395
 20
-406.577
 30
0.000000
  70
    32
  0
VERTEX
  8
図枠
  5
3C7
 10
970.439
 20
-406.589
 30
0.000000
  70
    32
  0
VERTEX
  8
図枠
  5
3C8
 10
970.483
 20
-406.601
 30
0.000000
  70
    32
  0
VERTEX
  8
図枠
  5
3C9
 10
970.527
 20
-406.612
 30
0.000000
  70
    32
  0
VERTEX
  8
図枠
  5
3CA
 10
970.571
 20
-406.624
 30
0.000000
  70
    32
  0
VERTEX
  8
図枠
  5
3CB
 10
970.616
 20
-406.636
 30
0.000000
  70
    32
  0
VERTEX
  8
図枠
  5
3CC
 10
970.660
 20
-406.647
 30
0.000000
  70
    32
  0
VERTEX
  8
図枠
  5
3CD
 10
970.704
 20
-406.659
 30
0.000000
  70
    32
  0
VERTEX
  8
図枠
  5
3CE
 10
970.748
 20
-406.671
 30
0.000000
  70
    32
  0
VERTEX
  8
図枠
  5
3CF
 10
970.793
 20
-406.682
 30
0.000000
  70
    32
  0
VERTEX
  8
図枠
  5
3D0
 10
970.837
 20
-406.694
 30
0.000000
  70
    32
  0
VERTEX
  8
図枠
  5
3D1
 10
970.881
 20
-406.705
 30
0.000000
  70
    32
  0
VERTEX
  8
図枠
  5
3D2
 10
970.926
 20
-406.716
 30
0.000000
  70
    32
  0
VERTEX
  8
図枠
  5
3D3
 10
970.970
 20
-406.728
 30
0.000000
  70
    32
  0
VERTEX
  8
図枠
  5
3D4
 10
971.014
 20
-406.739
 30
0.000000
  70
    32
  0
VERTEX
  8
図枠
  5
3D5
 10
971.059
 20
-406.750
 30
0.000000
  70
    32
  0
VERTEX
  8
図枠
  5
3D6
 10
971.103
 20
-406.761
 30
0.000000
  70
    32
  0
VERTEX
  8
図枠
  5
3D7
 10
971.148
 20
-406.772
 30
0.000000
  70
    32
  0
VERTEX
  8
図枠
  5
3D8
 10
971.192
 20
-406.784
 30
0.000000
  70
    32
  0
VERTEX
  8
図枠
  5
3D9
 10
971.237
 20
-406.795
 30
0.000000
  70
    32
  0
VERTEX
  8
図枠
  5
3DA
 10
971.281
 20
-406.806
 30
0.000000
  70
    32
  0
VERTEX
  8
図枠
  5
3DB
 10
971.326
 20
-406.817
 30
0.000000
  70
    32
  0
VERTEX
  8
図枠
  5
3DC
 10
971.370
 20
-406.827
 30
0.000000
  70
    32
  0
VERTEX
  8
図枠
  5
3DD
 10
971.415
 20
-406.838
 30
0.000000
  70
    32
  0
VERTEX
  8
図枠
  5
3DE
 10
971.460
 20
-406.849
 30
0.000000
  70
    32
  0
VERTEX
  8
図枠
  5
3DF
 10
971.504
 20
-406.860
 30
0.000000
  70
    32
  0
VERTEX
  8
図枠
  5
3E0
 10
971.549
 20
-406.871
 30
0.000000
  70
    32
  0
VERTEX
  8
図枠
  5
3E1
 10
971.594
 20
-406.882
 30
0.000000
  70
    32
  0
VERTEX
  8
図枠
  5
3E2
 10
971.638
 20
-406.892
 30
0.000000
  70
    32
  0
VERTEX
  8
図枠
  5
3E3
 10
971.683
 20
-406.903
 30
0.000000
  70
    32
  0
VERTEX
  8
図枠
  5
3E4
 10
971.728
 20
-406.913
 30
0.000000
  70
    32
  0
VERTEX
  8
図枠
  5
3E5
 10
971.773
 20
-406.924
 30
0.000000
  70
    32
  0
VERTEX
  8
図枠
  5
3E6
 10
971.817
 20
-406.935
 30
0.000000
  70
    32
  0
VERTEX
  8
図枠
  5
3E7
 10
971.862
 20
-406.945
 30
0.000000
  70
    32
  0
VERTEX
  8
図枠
  5
3E8
 10
971.907
 20
-406.956
 30
0.000000
  70
    32
  0
VERTEX
  8
図枠
  5
3E9
 10
971.952
 20
-406.966
 30
0.000000
  70
    32
  0
VERTEX
  8
図枠
  5
3EA
 10
971.997
 20
-406.977
 30
0.000000
  70
    32
  0
VERTEX
  8
図枠
  5
3EB
 10
972.042
 20
-406.987
 30
0.000000
  70
    32
  0
VERTEX
  8
図枠
  5
3EC
 10
972.087
 20
-406.997
 30
0.000000
  70
    32
  0
VERTEX
  8
図枠
  5
3ED
 10
972.132
 20
-407.008
 30
0.000000
  70
    32
  0
VERTEX
  8
図枠
  5
3EE
 10
972.176
 20
-407.018
 30
0.000000
  70
    32
  0
VERTEX
  8
図枠
  5
3EF
 10
972.221
 20
-407.028
 30
0.000000
  70
    32
  0
VERTEX
  8
図枠
  5
3F0
 10
972.266
 20
-407.038
 30
0.000000
  70
    32
  0
VERTEX
  8
図枠
  5
3F1
 10
972.311
 20
-407.049
 30
0.000000
  70
    32
  0
VERTEX
  8
図枠
  5
3F2
 10
972.356
 20
-407.059
 30
0.000000
  70
    32
  0
VERTEX
  8
図枠
  5
3F3
 10
972.401
 20
-407.069
 30
0.000000
  70
    32
  0
VERTEX
  8
図枠
  5
3F4
 10
972.446
 20
-407.079
 30
0.000000
  70
    32
  0
VERTEX
  8
図枠
  5
3F5
 10
972.491
 20
-407.089
 30
0.000000
  70
    32
  0
VERTEX
  8
図枠
  5
3F6
 10
972.536
 20
-407.099
 30
0.000000
  70
    32
  0
VERTEX
  8
図枠
  5
3F7
 10
972.582
 20
-407.109
 30
0.000000
  70
    32
  0
VERTEX
  8
図枠
  5
3F8
 10
972.627
 20
-407.119
 30
0.000000
  70
    32
  0
VERTEX
  8
図枠
  5
3F9
 10
972.672
 20
-407.129
 30
0.000000
  70
    32
  0
VERTEX
  8
図枠
  5
3FA
 10
972.717
 20
-407.139
 30
0.000000
  70
    32
  0
VERTEX
  8
図枠
  5
3FB
 10
972.762
 20
-407.149
 30
0.000000
  70
    32
  0
VERTEX
  8
図枠
  5
3FC
 10
972.807
 20
-407.159
 30
0.000000
  70
    32
  0
VERTEX
  8
図枠
  5
3FD
 10
972.852
 20
-407.169
 30
0.000000
  70
    32
  0
VERTEX
  8
図枠
  5
3FE
 10
972.897
 20
-407.179
 30
0.000000
  70
    32
  0
VERTEX
  8
図枠
  5
3FF
 10
972.943
 20
-407.189
 30
0.000000
  70
    32
  0
VERTEX
  8
図枠
  5
400
 10
972.988
 20
-407.199
 30
0.000000
  70
    32
  0
VERTEX
  8
図枠
  5
401
 10
973.033
 20
-407.208
 30
0.000000
  70
    32
  0
VERTEX
  8
図枠
  5
402
 10
973.078
 20
-407.218
 30
0.000000
  70
    32
  0
VERTEX
  8
図枠
  5
403
 10
973.123
 20
-407.228
 30
0.000000
  70
    32
  0
VERTEX
  8
図枠
  5
404
 10
973.169
 20
-407.238
 30
0.000000
  70
    32
  0
VERTEX
  8
図枠
  5
405
 10
973.214
 20
-407.247
 30
0.000000
  70
    32
  0
VERTEX
  8
図枠
  5
406
 10
973.259
 20
-407.257
 30
0.000000
  70
    32
  0
VERTEX
  8
図枠
  5
407
 10
973.304
 20
-407.267
 30
0.000000
  70
    32
  0
VERTEX
  8
図枠
  5
408
 10
973.350
 20
-407.277
 30
0.000000
  70
    32
  0
VERTEX
  8
図枠
  5
409
 10
973.395
 20
-407.286
 30
0.000000
  70
    32
  0
VERTEX
  8
図枠
  5
40A
 10
973.440
 20
-407.296
 30
0.000000
  70
    32
  0
VERTEX
  8
図枠
  5
40B
 10
973.485
 20
-407.306
 30
0.000000
  70
    32
  0
VERTEX
  8
図枠
  5
40C
 10
973.531
 20
-407.315
 30
0.000000
  70
    32
  0
VERTEX
  8
図枠
  5
40D
 10
973.576
 20
-407.325
 30
0.000000
  70
    32
  0
VERTEX
  8
図枠
  5
40E
 10
973.621
 20
-407.334
 30
0.000000
  70
    32
  0
VERTEX
  8
図枠
  5
40F
 10
973.667
 20
-407.344
 30
0.000000
  70
    32
  0
VERTEX
  8
図枠
  5
410
 10
973.712
 20
-407.354
 30
0.000000
  70
    32
  0
VERTEX
  8
図枠
  5
411
 10
973.757
 20
-407.363
 30
0.000000
  70
    32
  0
VERTEX
  8
図枠
  5
412
 10
973.803
 20
-407.373
 30
0.000000
  70
    32
  0
VERTEX
  8
図枠
  5
413
 10
973.848
 20
-407.382
 30
0.000000
  70
    32
  0
VERTEX
  8
図枠
  5
414
 10
973.893
 20
-407.392
 30
0.000000
  70
    32
  0
VERTEX
  8
図枠
  5
415
 10
973.939
 20
-407.401
 30
0.000000
  70
    32
  0
VERTEX
  8
図枠
  5
416
 10
973.984
 20
-407.411
 30
0.000000
  70
    32
  0
VERTEX
  8
図枠
  5
417
 10
974.029
 20
-407.420
 30
0.000000
  70
    32
  0
VERTEX
  8
図枠
  5
418
 10
974.075
 20
-407.430
 30
0.000000
  70
    32
  0
VERTEX
  8
図枠
  5
419
 10
974.120
 20
-407.439
 30
0.000000
  70
    32
  0
VERTEX
  8
図枠
  5
41A
 10
974.165
 20
-407.449
 30
0.000000
  70
    32
  0
VERTEX
  8
図枠
  5
41B
 10
974.211
 20
-407.458
 30
0.000000
  70
    32
  0
VERTEX
  8
図枠
  5
41C
 10
974.256
 20
-407.468
 30
0.000000
  70
    32
  0
VERTEX
  8
図枠
  5
41D
 10
974.302
 20
-407.477
 30
0.000000
  70
    32
  0
VERTEX
  8
図枠
  5
41E
 10
974.347
 20
-407.487
 30
0.000000
  70
    32
  0
VERTEX
  8
図枠
  5
41F
 10
974.392
 20
-407.496
 30
0.000000
  70
    32
  0
VERTEX
  8
図枠
  5
420
 10
974.438
 20
-407.505
 30
0.000000
  70
    32
  0
VERTEX
  8
図枠
  5
421
 10
974.483
 20
-407.515
 30
0.000000
  70
    32
  0
VERTEX
  8
図枠
  5
422
 10
974.528
 20
-407.524
 30
0.000000
  70
    32
  0
VERTEX
  8
図枠
  5
423
 10
974.574
 20
-407.534
 30
0.000000
  70
    32
  0
VERTEX
  8
図枠
  5
424
 10
974.619
 20
-407.543
 30
0.000000
  70
    32
  0
VERTEX
  8
図枠
  5
425
 10
974.665
 20
-407.553
 30
0.000000
  70
    32
  0
VERTEX
  8
図枠
  5
426
 10
974.710
 20
-407.562
 30
0.000000
  70
    32
  0
SEQEND
  8
図枠
  5
427
  0
POLYLINE
  8
図枠
  5
428
  66
     1
 10
0.000000
 20
0.000000
 30
0.000000
  70
     8
  0
VERTEX
  8
図枠
  5
429
 10
965.805
 20
-400.983
 30
0.000000
  70
    32
  0
VERTEX
  8
図枠
  5
42A
 10
965.816
 20
-400.994
 30
0.000000
  70
    32
  0
VERTEX
  8
図枠
  5
42B
 10
965.826
 20
-401.006
 30
0.000000
  70
    32
  0
VERTEX
  8
図枠
  5
42C
 10
965.837
 20
-401.018
 30
0.000000
  70
    32
  0
VERTEX
  8
図枠
  5
42D
 10
965.847
 20
-401.030
 30
0.000000
  70
    32
  0
VERTEX
  8
図枠
  5
42E
 10
965.858
 20
-401.041
 30
0.000000
  70
    32
  0
VERTEX
  8
図枠
  5
42F
 10
965.868
 20
-401.053
 30
0.000000
  70
    32
  0
VERTEX
  8
図枠
  5
430
 10
965.879
 20
-401.065
 30
0.000000
  70
    32
  0
VERTEX
  8
図枠
  5
431
 10
965.889
 20
-401.077
 30
0.000000
  70
    32
  0
VERTEX
  8
図枠
  5
432
 10
965.900
 20
-401.088
 30
0.000000
  70
    32
  0
VERTEX
  8
図枠
  5
433
 10
965.911
 20
-401.100
 30
0.000000
  70
    32
  0
VERTEX
  8
図枠
  5
434
 10
965.921
 20
-401.112
 30
0.000000
  70
    32
  0
VERTEX
  8
図枠
  5
435
 10
965.932
 20
-401.124
 30
0.000000
  70
    32
  0
VERTEX
  8
図枠
  5
436
 10
965.942
 20
-401.136
 30
0.000000
  70
    32
  0
VERTEX
  8
図枠
  5
437
 10
965.953
 20
-401.147
 30
0.000000
  70
    32
  0
VERTEX
  8
図枠
  5
438
 10
965.963
 20
-401.159
 30
0.000000
  70
    32
  0
VERTEX
  8
図枠
  5
439
 10
965.974
 20
-401.171
 30
0.000000
  70
    32
  0
VERTEX
  8
図枠
  5
43A
 10
965.985
 20
-401.183
 30
0.000000
  70
    32
  0
VERTEX
  8
図枠
  5
43B
 10
965.995
 20
-401.194
 30
0.000000
  70
    32
  0
VERTEX
  8
図枠
  5
43C
 10
966.006
 20
-401.206
 30
0.000000
  70
    32
  0
VERTEX
  8
図枠
  5
43D
 10
966.016
 20
-401.218
 30
0.000000
  70
    32
  0
VERTEX
  8
図枠
  5
43E
 10
966.027
 20
-401.230
 30
0.000000
  70
    32
  0
VERTEX
  8
図枠
  5
43F
 10
966.037
 20
-401.241
 30
0.000000
  70
    32
  0
VERTEX
  8
図枠
  5
440
 10
966.048
 20
-401.253
 30
0.000000
  70
    32
  0
VERTEX
  8
図枠
  5
441
 10
966.059
 20
-401.265
 30
0.000000
  70
    32
  0
VERTEX
  8
図枠
  5
442
 10
966.069
 20
-401.276
 30
0.000000
  70
    32
  0
VERTEX
  8
図枠
  5
443
 10
966.080
 20
-401.288
 30
0.000000
  70
    32
  0
VERTEX
  8
図枠
  5
444
 10
966.090
 20
-401.300
 30
0.000000
  70
    32
  0
VERTEX
  8
図枠
  5
445
 10
966.101
 20
-401.312
 30
0.000000
  70
    32
  0
VERTEX
  8
図枠
  5
446
 10
966.112
 20
-401.323
 30
0.000000
  70
    32
  0
VERTEX
  8
図枠
  5
447
 10
966.122
 20
-401.335
 30
0.000000
  70
    32
  0
VERTEX
  8
図枠
  5
448
 10
966.133
 20
-401.347
 30
0.000000
  70
    32
  0
VERTEX
  8
図枠
  5
449
 10
966.143
 20
-401.358
 30
0.000000
  70
    32
  0
VERTEX
  8
図枠
  5
44A
 10
966.154
 20
-401.370
 30
0.000000
  70
    32
  0
VERTEX
  8
図枠
  5
44B
 10
966.165
 20
-401.382
 30
0.000000
  70
    32
  0
VERTEX
  8
図枠
  5
44C
 10
966.175
 20
-401.393
 30
0.000000
  70
    32
  0
VERTEX
  8
図枠
  5
44D
 10
966.186
 20
-401.405
 30
0.000000
  70
    32
  0
VERTEX
  8
図枠
  5
44E
 10
966.197
 20
-401.417
 30
0.000000
  70
    32
  0
VERTEX
  8
図枠
  5
44F
 10
966.207
 20
-401.428
 30
0.000000
  70
    32
  0
VERTEX
  8
図枠
  5
450
 10
966.218
 20
-401.440
 30
0.000000
  70
    32
  0
VERTEX
  8
図枠
  5
451
 10
966.228
 20
-401.452
 30
0.000000
  70
    32
  0
VERTEX
  8
図枠
  5
452
 10
966.239
 20
-401.463
 30
0.000000
  70
    32
  0
VERTEX
  8
図枠
  5
453
 10
966.250
 20
-401.475
 30
0.000000
  70
    32
  0
VERTEX
  8
図枠
  5
454
 10
966.260
 20
-401.486
 30
0.000000
  70
    32
  0
VERTEX
  8
図枠
  5
455
 10
966.271
 20
-401.498
 30
0.000000
  70
    32
  0
VERTEX
  8
図枠
  5
456
 10
966.282
 20
-401.510
 30
0.000000
  70
    32
  0
VERTEX
  8
図枠
  5
457
 10
966.292
 20
-401.521
 30
0.000000
  70
    32
  0
VERTEX
  8
図枠
  5
458
 10
966.303
 20
-401.533
 30
0.000000
  70
    32
  0
VERTEX
  8
図枠
  5
459
 10
966.314
 20
-401.544
 30
0.000000
  70
    32
  0
VERTEX
  8
図枠
  5
45A
 10
966.324
 20
-401.556
 30
0.000000
  70
    32
  0
VERTEX
  8
図枠
  5
45B
 10
966.335
 20
-401.568
 30
0.000000
  70
    32
  0
VERTEX
  8
図枠
  5
45C
 10
966.346
 20
-401.579
 30
0.000000
  70
    32
  0
VERTEX
  8
図枠
  5
45D
 10
966.357
 20
-401.591
 30
0.000000
  70
    32
  0
VERTEX
  8
図枠
  5
45E
 10
966.367
 20
-401.602
 30
0.000000
  70
    32
  0
VERTEX
  8
図枠
  5
45F
 10
966.378
 20
-401.614
 30
0.000000
  70
    32
  0
VERTEX
  8
図枠
  5
460
 10
966.389
 20
-401.625
 30
0.000000
  70
    32
  0
VERTEX
  8
図枠
  5
461
 10
966.399
 20
-401.637
 30
0.000000
  70
    32
  0
VERTEX
  8
図枠
  5
462
 10
966.410
 20
-401.648
 30
0.000000
  70
    32
  0
VERTEX
  8
図枠
  5
463
 10
966.421
 20
-401.660
 30
0.000000
  70
    32
  0
VERTEX
  8
図枠
  5
464
 10
966.432
 20
-401.671
 30
0.000000
  70
    32
  0
VERTEX
  8
図枠
  5
465
 10
966.442
 20
-401.683
 30
0.000000
  70
    32
  0
VERTEX
  8
図枠
  5
466
 10
966.453
 20
-401.694
 30
0.000000
  70
    32
  0
VERTEX
  8
図枠
  5
467
 10
966.464
 20
-401.706
 30
0.000000
  70
    32
  0
VERTEX
  8
図枠
  5
468
 10
966.475
 20
-401.717
 30
0.000000
  70
    32
  0
VERTEX
  8
図枠
  5
469
 10
966.485
 20
-401.728
 30
0.000000
  70
    32
  0
VERTEX
  8
図枠
  5
46A
 10
966.496
 20
-401.740
 30
0.000000
  70
    32
  0
VERTEX
  8
図枠
  5
46B
 10
966.507
 20
-401.751
 30
0.000000
  70
    32
  0
VERTEX
  8
図枠
  5
46C
 10
966.518
 20
-401.763
 30
0.000000
  70
    32
  0
VERTEX
  8
図枠
  5
46D
 10
966.529
 20
-401.774
 30
0.000000
  70
    32
  0
VERTEX
  8
図枠
  5
46E
 10
966.539
 20
-401.785
 30
0.000000
  70
    32
  0
VERTEX
  8
図枠
  5
46F
 10
966.550
 20
-401.797
 30
0.000000
  70
    32
  0
VERTEX
  8
図枠
  5
470
 10
966.561
 20
-401.808
 30
0.000000
  70
    32
  0
VERTEX
  8
図枠
  5
471
 10
966.572
 20
-401.819
 30
0.000000
  70
    32
  0
VERTEX
  8
図枠
  5
472
 10
966.583
 20
-401.831
 30
0.000000
  70
    32
  0
VERTEX
  8
図枠
  5
473
 10
966.594
 20
-401.842
 30
0.000000
  70
    32
  0
VERTEX
  8
図枠
  5
474
 10
966.605
 20
-401.853
 30
0.000000
  70
    32
  0
VERTEX
  8
図枠
  5
475
 10
966.615
 20
-401.864
 30
0.000000
  70
    32
  0
VERTEX
  8
図枠
  5
476
 10
966.626
 20
-401.876
 30
0.000000
  70
    32
  0
VERTEX
  8
図枠
  5
477
 10
966.637
 20
-401.887
 30
0.000000
  70
    32
  0
VERTEX
  8
図枠
  5
478
 10
966.648
 20
-401.898
 30
0.000000
  70
    32
  0
VERTEX
  8
図枠
  5
479
 10
966.659
 20
-401.909
 30
0.000000
  70
    32
  0
VERTEX
  8
図枠
  5
47A
 10
966.670
 20
-401.921
 30
0.000000
  70
    32
  0
VERTEX
  8
図枠
  5
47B
 10
966.681
 20
-401.932
 30
0.000000
  70
    32
  0
VERTEX
  8
図枠
  5
47C
 10
966.692
 20
-401.943
 30
0.000000
  70
    32
  0
VERTEX
  8
図枠
  5
47D
 10
966.703
 20
-401.954
 30
0.000000
  70
    32
  0
VERTEX
  8
図枠
  5
47E
 10
966.714
 20
-401.965
 30
0.000000
  70
    32
  0
VERTEX
  8
図枠
  5
47F
 10
966.725
 20
-401.976
 30
0.000000
  70
    32
  0
VERTEX
  8
図枠
  5
480
 10
966.736
 20
-401.988
 30
0.000000
  70
    32
  0
VERTEX
  8
図枠
  5
481
 10
966.747
 20
-401.999
 30
0.000000
  70
    32
  0
VERTEX
  8
図枠
  5
482
 10
966.758
 20
-402.010
 30
0.000000
  70
    32
  0
VERTEX
  8
図枠
  5
483
 10
966.769
 20
-402.021
 30
0.000000
  70
    32
  0
VERTEX
  8
図枠
  5
484
 10
966.780
 20
-402.032
 30
0.000000
  70
    32
  0
VERTEX
  8
図枠
  5
485
 10
966.791
 20
-402.043
 30
0.000000
  70
    32
  0
VERTEX
  8
図枠
  5
486
 10
966.802
 20
-402.054
 30
0.000000
  70
    32
  0
VERTEX
  8
図枠
  5
487
 10
966.813
 20
-402.065
 30
0.000000
  70
    32
  0
VERTEX
  8
図枠
  5
488
 10
966.824
 20
-402.076
 30
0.000000
  70
    32
  0
VERTEX
  8
図枠
  5
489
 10
966.835
 20
-402.087
 30
0.000000
  70
    32
  0
VERTEX
  8
図枠
  5
48A
 10
966.846
 20
-402.098
 30
0.000000
  70
    32
  0
VERTEX
  8
図枠
  5
48B
 10
966.857
 20
-402.109
 30
0.000000
  70
    32
  0
VERTEX
  8
図枠
  5
48C
 10
966.868
 20
-402.120
 30
0.000000
  70
    32
  0
VERTEX
  8
図枠
  5
48D
 10
966.879
 20
-402.131
 30
0.000000
  70
    32
  0
VERTEX
  8
図枠
  5
48E
 10
966.890
 20
-402.141
 30
0.000000
  70
    32
  0
VERTEX
  8
図枠
  5
48F
 10
966.901
 20
-402.152
 30
0.000000
  70
    32
  0
VERTEX
  8
図枠
  5
490
 10
966.912
 20
-402.163
 30
0.000000
  70
    32
  0
VERTEX
  8
図枠
  5
491
 10
966.924
 20
-402.174
 30
0.000000
  70
    32
  0
VERTEX
  8
図枠
  5
492
 10
966.935
 20
-402.185
 30
0.000000
  70
    32
  0
VERTEX
  8
図枠
  5
493
 10
966.946
 20
-402.196
 30
0.000000
  70
    32
  0
VERTEX
  8
図枠
  5
494
 10
966.957
 20
-402.206
 30
0.000000
  70
    32
  0
VERTEX
  8
図枠
  5
495
 10
966.968
 20
-402.217
 30
0.000000
  70
    32
  0
VERTEX
  8
図枠
  5
496
 10
966.979
 20
-402.228
 30
0.000000
  70
    32
  0
VERTEX
  8
図枠
  5
497
 10
966.991
 20
-402.239
 30
0.000000
  70
    32
  0
VERTEX
  8
図枠
  5
498
 10
967.002
 20
-402.249
 30
0.000000
  70
    32
  0
VERTEX
  8
図枠
  5
499
 10
967.013
 20
-402.260
 30
0.000000
  70
    32
  0
VERTEX
  8
図枠
  5
49A
 10
967.024
 20
-402.271
 30
0.000000
  70
    32
  0
VERTEX
  8
図枠
  5
49B
 10
967.036
 20
-402.281
 30
0.000000
  70
    32
  0
VERTEX
  8
図枠
  5
49C
 10
967.047
 20
-402.292
 30
0.000000
  70
    32
  0
VERTEX
  8
図枠
  5
49D
 10
967.058
 20
-402.303
 30
0.000000
  70
    32
  0
VERTEX
  8
図枠
  5
49E
 10
967.069
 20
-402.313
 30
0.000000
  70
    32
  0
VERTEX
  8
図枠
  5
49F
 10
967.081
 20
-402.324
 30
0.000000
  70
    32
  0
VERTEX
  8
図枠
  5
4A0
 10
967.092
 20
-402.334
 30
0.000000
  70
    32
  0
VERTEX
  8
図枠
  5
4A1
 10
967.103
 20
-402.345
 30
0.000000
  70
    32
  0
VERTEX
  8
図枠
  5
4A2
 10
967.115
 20
-402.355
 30
0.000000
  70
    32
  0
VERTEX
  8
図枠
  5
4A3
 10
967.126
 20
-402.366
 30
0.000000
  70
    32
  0
VERTEX
  8
図枠
  5
4A4
 10
967.138
 20
-402.376
 30
0.000000
  70
    32
  0
VERTEX
  8
図枠
  5
4A5
 10
967.149
 20
-402.387
 30
0.000000
  70
    32
  0
VERTEX
  8
図枠
  5
4A6
 10
967.160
 20
-402.397
 30
0.000000
  70
    32
  0
VERTEX
  8
図枠
  5
4A7
 10
967.172
 20
-402.407
 30
0.000000
  70
    32
  0
VERTEX
  8
図枠
  5
4A8
 10
967.183
 20
-402.418
 30
0.000000
  70
    32
  0
SEQEND
  8
図枠
  5
4A9
  0
LINE
  5
93
  8
図枠
 10
960.3100390855999
 20
-399.24207604589998
 30
0.0
 11
968.3100390855999
 21
-399.24207604589998
 31
0.0
  0
LINE
  5
94
  8
図枠
 10
978.25801132289996
 20
-403.24207604589992
 30
0.0
 11
978.25801132289996
 21
-406.12207604589992
 31
0.0
  0
LINE
  5
95
  8
図枠
 10
982.71962827909999
 20
-365.81435279290002
 30
0.0
 11
982.71962827909999
 21
-370.42235279290003
 31
0.0
  0
LINE
  5
96
  8
図枠
 10
982.71962827909999
 20
-365.81435279290002
 30
0.0
 11
991.9356282791
 21
-363.51035279289999
 31
0.0
  0
INSERT
  5
97
  8
0
  6
CONTINUOUS
  2
*U36
 10
0.0
 20
0.0
 30
0.0
  0
LINE
  5
98
  8
図枠
 10
953.65306938859999
 20
-401.96207604589989
 30
0.0
 11
956.05306938859985
 21
-401.96207604589989
 31
0.0
  0
LINE
  5
99
  8
図枠
 10
940.6113032902
 20
-399.56207604590003
 30
0.0
 11
940.6113032902
 21
-401.96207604589989
 31
0.0
  0
LINE
  5
9A
  8
図枠
 10
960.3100390855999
 20
-405.16207604589988
 30
0.0
 11
960.3100390855999
 21
-407.56207604589991
 31
0.0
  0
POLYLINE
  8
図枠
  5
4AA
  66
     1
 10
0.000000
 20
0.000000
 30
0.000000
  70
     8
  0
VERTEX
  8
図枠
  5
4AB
 10
971.005
 20
-404.400
 30
0.000000
  70
    32
  0
VERTEX
  8
図枠
  5
4AC
 10
971.033
 20
-404.408
 30
0.000000
  70
    32
  0
VERTEX
  8
図枠
  5
4AD
 10
971.061
 20
-404.416
 30
0.000000
  70
    32
  0
VERTEX
  8
図枠
  5
4AE
 10
971.089
 20
-404.423
 30
0.000000
  70
    32
  0
VERTEX
  8
図枠
  5
4AF
 10
971.117
 20
-404.431
 30
0.000000
  70
    32
  0
VERTEX
  8
図枠
  5
4B0
 10
971.146
 20
-404.439
 30
0.000000
  70
    32
  0
VERTEX
  8
図枠
  5
4B1
 10
971.174
 20
-404.447
 30
0.000000
  70
    32
  0
VERTEX
  8
図枠
  5
4B2
 10
971.202
 20
-404.454
 30
0.000000
  70
    32
  0
VERTEX
  8
図枠
  5
4B3
 10
971.230
 20
-404.462
 30
0.000000
  70
    32
  0
VERTEX
  8
図枠
  5
4B4
 10
971.258
 20
-404.469
 30
0.000000
  70
    32
  0
VERTEX
  8
図枠
  5
4B5
 10
971.286
 20
-404.477
 30
0.000000
  70
    32
  0
VERTEX
  8
図枠
  5
4B6
 10
971.315
 20
-404.484
 30
0.000000
  70
    32
  0
VERTEX
  8
図枠
  5
4B7
 10
971.343
 20
-404.492
 30
0.000000
  70
    32
  0
VERTEX
  8
図枠
  5
4B8
 10
971.371
 20
-404.499
 30
0.000000
  70
    32
  0
VERTEX
  8
図枠
  5
4B9
 10
971.400
 20
-404.507
 30
0.000000
  70
    32
  0
VERTEX
  8
図枠
  5
4BA
 10
971.428
 20
-404.514
 30
0.000000
  70
    32
  0
VERTEX
  8
図枠
  5
4BB
 10
971.456
 20
-404.521
 30
0.000000
  70
    32
  0
VERTEX
  8
図枠
  5
4BC
 10
971.485
 20
-404.529
 30
0.000000
  70
    32
  0
VERTEX
  8
図枠
  5
4BD
 10
971.513
 20
-404.536
 30
0.000000
  70
    32
  0
VERTEX
  8
図枠
  5
4BE
 10
971.542
 20
-404.543
 30
0.000000
  70
    32
  0
VERTEX
  8
図枠
  5
4BF
 10
971.570
 20
-404.550
 30
0.000000
  70
    32
  0
VERTEX
  8
図枠
  5
4C0
 10
971.599
 20
-404.557
 30
0.000000
  70
    32
  0
VERTEX
  8
図枠
  5
4C1
 10
971.627
 20
-404.564
 30
0.000000
  70
    32
  0
VERTEX
  8
図枠
  5
4C2
 10
971.656
 20
-404.571
 30
0.000000
  70
    32
  0
VERTEX
  8
図枠
  5
4C3
 10
971.684
 20
-404.578
 30
0.000000
  70
    32
  0
VERTEX
  8
図枠
  5
4C4
 10
971.713
 20
-404.585
 30
0.000000
  70
    32
  0
VERTEX
  8
図枠
  5
4C5
 10
971.741
 20
-404.592
 30
0.000000
  70
    32
  0
VERTEX
  8
図枠
  5
4C6
 10
971.770
 20
-404.599
 30
0.000000
  70
    32
  0
VERTEX
  8
図枠
  5
4C7
 10
971.799
 20
-404.606
 30
0.000000
  70
    32
  0
VERTEX
  8
図枠
  5
4C8
 10
971.827
 20
-404.612
 30
0.000000
  70
    32
  0
VERTEX
  8
図枠
  5
4C9
 10
971.856
 20
-404.619
 30
0.000000
  70
    32
  0
VERTEX
  8
図枠
  5
4CA
 10
971.885
 20
-404.626
 30
0.000000
  70
    32
  0
VERTEX
  8
図枠
  5
4CB
 10
971.914
 20
-404.633
 30
0.000000
  70
    32
  0
VERTEX
  8
図枠
  5
4CC
 10
971.942
 20
-404.639
 30
0.000000
  70
    32
  0
VERTEX
  8
図枠
  5
4CD
 10
971.971
 20
-404.646
 30
0.000000
  70
    32
  0
VERTEX
  8
図枠
  5
4CE
 10
972.000
 20
-404.652
 30
0.000000
  70
    32
  0
VERTEX
  8
図枠
  5
4CF
 10
972.029
 20
-404.659
 30
0.000000
  70
    32
  0
VERTEX
  8
図枠
  5
4D0
 10
972.058
 20
-404.665
 30
0.000000
  70
    32
  0
VERTEX
  8
図枠
  5
4D1
 10
972.086
 20
-404.672
 30
0.000000
  70
    32
  0
VERTEX
  8
図枠
  5
4D2
 10
972.115
 20
-404.678
 30
0.000000
  70
    32
  0
VERTEX
  8
図枠
  5
4D3
 10
972.144
 20
-404.685
 30
0.000000
  70
    32
  0
VERTEX
  8
図枠
  5
4D4
 10
972.173
 20
-404.691
 30
0.000000
  70
    32
  0
VERTEX
  8
図枠
  5
4D5
 10
972.202
 20
-404.698
 30
0.000000
  70
    32
  0
VERTEX
  8
図枠
  5
4D6
 10
972.231
 20
-404.704
 30
0.000000
  70
    32
  0
VERTEX
  8
図枠
  5
4D7
 10
972.260
 20
-404.710
 30
0.000000
  70
    32
  0
VERTEX
  8
図枠
  5
4D8
 10
972.289
 20
-404.716
 30
0.000000
  70
    32
  0
VERTEX
  8
図枠
  5
4D9
 10
972.318
 20
-404.723
 30
0.000000
  70
    32
  0
VERTEX
  8
図枠
  5
4DA
 10
972.347
 20
-404.729
 30
0.000000
  70
    32
  0
VERTEX
  8
図枠
  5
4DB
 10
972.376
 20
-404.735
 30
0.000000
  70
    32
  0
VERTEX
  8
図枠
  5
4DC
 10
972.405
 20
-404.741
 30
0.000000
  70
    32
  0
VERTEX
  8
図枠
  5
4DD
 10
972.434
 20
-404.747
 30
0.000000
  70
    32
  0
VERTEX
  8
図枠
  5
4DE
 10
972.464
 20
-404.753
 30
0.000000
  70
    32
  0
VERTEX
  8
図枠
  5
4DF
 10
972.493
 20
-404.759
 30
0.000000
  70
    32
  0
VERTEX
  8
図枠
  5
4E0
 10
972.522
 20
-404.765
 30
0.000000
  70
    32
  0
VERTEX
  8
図枠
  5
4E1
 10
972.551
 20
-404.771
 30
0.000000
  70
    32
  0
VERTEX
  8
図枠
  5
4E2
 10
972.580
 20
-404.777
 30
0.000000
  70
    32
  0
VERTEX
  8
図枠
  5
4E3
 10
972.609
 20
-404.783
 30
0.000000
  70
    32
  0
VERTEX
  8
図枠
  5
4E4
 10
972.639
 20
-404.789
 30
0.000000
  70
    32
  0
VERTEX
  8
図枠
  5
4E5
 10
972.668
 20
-404.795
 30
0.000000
  70
    32
  0
VERTEX
  8
図枠
  5
4E6
 10
972.697
 20
-404.801
 30
0.000000
  70
    32
  0
VERTEX
  8
図枠
  5
4E7
 10
972.726
 20
-404.807
 30
0.000000
  70
    32
  0
VERTEX
  8
図枠
  5
4E8
 10
972.756
 20
-404.813
 30
0.000000
  70
    32
  0
VERTEX
  8
図枠
  5
4E9
 10
972.785
 20
-404.819
 30
0.000000
  70
    32
  0
VERTEX
  8
図枠
  5
4EA
 10
972.814
 20
-404.824
 30
0.000000
  70
    32
  0
VERTEX
  8
図枠
  5
4EB
 10
972.844
 20
-404.830
 30
0.000000
  70
    32
  0
VERTEX
  8
図枠
  5
4EC
 10
972.873
 20
-404.836
 30
0.000000
  70
    32
  0
VERTEX
  8
図枠
  5
4ED
 10
972.902
 20
-404.842
 30
0.000000
  70
    32
  0
VERTEX
  8
図枠
  5
4EE
 10
972.932
 20
-404.847
 30
0.000000
  70
    32
  0
VERTEX
  8
図枠
  5
4EF
 10
972.961
 20
-404.853
 30
0.000000
  70
    32
  0
VERTEX
  8
図枠
  5
4F0
 10
972.990
 20
-404.859
 30
0.000000
  70
    32
  0
VERTEX
  8
図枠
  5
4F1
 10
973.020
 20
-404.864
 30
0.000000
  70
    32
  0
VERTEX
  8
図枠
  5
4F2
 10
973.049
 20
-404.870
 30
0.000000
  70
    32
  0
VERTEX
  8
図枠
  5
4F3
 10
973.079
 20
-404.875
 30
0.000000
  70
    32
  0
VERTEX
  8
図枠
  5
4F4
 10
973.108
 20
-404.881
 30
0.000000
  70
    32
  0
VERTEX
  8
図枠
  5
4F5
 10
973.138
 20
-404.887
 30
0.000000
  70
    32
  0
VERTEX
  8
図枠
  5
4F6
 10
973.167
 20
-404.892
 30
0.000000
  70
    32
  0
VERTEX
  8
図枠
  5
4F7
 10
973.196
 20
-404.898
 30
0.000000
  70
    32
  0
VERTEX
  8
図枠
  5
4F8
 10
973.226
 20
-404.903
 30
0.000000
  70
    32
  0
VERTEX
  8
図枠
  5
4F9
 10
973.255
 20
-404.909
 30
0.000000
  70
    32
  0
VERTEX
  8
図枠
  5
4FA
 10
973.285
 20
-404.914
 30
0.000000
  70
    32
  0
VERTEX
  8
図枠
  5
4FB
 10
973.314
 20
-404.919
 30
0.000000
  70
    32
  0
VERTEX
  8
図枠
  5
4FC
 10
973.344
 20
-404.925
 30
0.000000
  70
    32
  0
VERTEX
  8
図枠
  5
4FD
 10
973.374
 20
-404.930
 30
0.000000
  70
    32
  0
VERTEX
  8
図枠
  5
4FE
 10
973.403
 20
-404.936
 30
0.000000
  70
    32
  0
VERTEX
  8
図枠
  5
4FF
 10
973.433
 20
-404.941
 30
0.000000
  70
    32
  0
VERTEX
  8
図枠
  5
500
 10
973.462
 20
-404.946
 30
0.000000
  70
    32
  0
VERTEX
  8
図枠
  5
501
 10
973.492
 20
-404.952
 30
0.000000
  70
    32
  0
VERTEX
  8
図枠
  5
502
 10
973.521
 20
-404.957
 30
0.000000
  70
    32
  0
VERTEX
  8
図枠
  5
503
 10
973.551
 20
-404.962
 30
0.000000
  70
    32
  0
VERTEX
  8
図枠
  5
504
 10
973.581
 20
-404.968
 30
0.000000
  70
    32
  0
VERTEX
  8
図枠
  5
505
 10
973.610
 20
-404.973
 30
0.000000
  70
    32
  0
VERTEX
  8
図枠
  5
506
 10
973.640
 20
-404.978
 30
0.000000
  70
    32
  0
VERTEX
  8
図枠
  5
507
 10
973.670
 20
-404.983
 30
0.000000
  70
    32
  0
VERTEX
  8
図枠
  5
508
 10
973.699
 20
-404.989
 30
0.000000
  70
    32
  0
VERTEX
  8
図枠
  5
509
 10
973.729
 20
-404.994
 30
0.000000
  70
    32
  0
VERTEX
  8
図枠
  5
50A
 10
973.758
 20
-404.999
 30
0.000000
  70
    32
  0
VERTEX
  8
図枠
  5
50B
 10
973.788
 20
-405.004
 30
0.000000
  70
    32
  0
VERTEX
  8
図枠
  5
50C
 10
973.818
 20
-405.010
 30
0.000000
  70
    32
  0
VERTEX
  8
図枠
  5
50D
 10
973.847
 20
-405.015
 30
0.000000
  70
    32
  0
VERTEX
  8
図枠
  5
50E
 10
973.877
 20
-405.020
 30
0.000000
  70
    32
  0
VERTEX
  8
図枠
  5
50F
 10
973.907
 20
-405.025
 30
0.000000
  70
    32
  0
VERTEX
  8
図枠
  5
510
 10
973.937
 20
-405.030
 30
0.000000
  70
    32
  0
VERTEX
  8
図枠
  5
511
 10
973.966
 20
-405.035
 30
0.000000
  70
    32
  0
VERTEX
  8
図枠
  5
512
 10
973.996
 20
-405.041
 30
0.000000
  70
    32
  0
VERTEX
  8
図枠
  5
513
 10
974.026
 20
-405.046
 30
0.000000
  70
    32
  0
VERTEX
  8
図枠
  5
514
 10
974.055
 20
-405.051
 30
0.000000
  70
    32
  0
VERTEX
  8
図枠
  5
515
 10
974.085
 20
-405.056
 30
0.000000
  70
    32
  0
VERTEX
  8
図枠
  5
516
 10
974.115
 20
-405.061
 30
0.000000
  70
    32
  0
VERTEX
  8
図枠
  5
517
 10
974.145
 20
-405.066
 30
0.000000
  70
    32
  0
VERTEX
  8
図枠
  5
518
 10
974.174
 20
-405.071
 30
0.000000
  70
    32
  0
VERTEX
  8
図枠
  5
519
 10
974.204
 20
-405.076
 30
0.000000
  70
    32
  0
VERTEX
  8
図枠
  5
51A
 10
974.234
 20
-405.081
 30
0.000000
  70
    32
  0
VERTEX
  8
図枠
  5
51B
 10
974.264
 20
-405.086
 30
0.000000
  70
    32
  0
VERTEX
  8
図枠
  5
51C
 10
974.293
 20
-405.092
 30
0.000000
  70
    32
  0
VERTEX
  8
図枠
  5
51D
 10
974.323
 20
-405.097
 30
0.000000
  70
    32
  0
VERTEX
  8
図枠
  5
51E
 10
974.353
 20
-405.102
 30
0.000000
  70
    32
  0
VERTEX
  8
図枠
  5
51F
 10
974.383
 20
-405.107
 30
0.000000
  70
    32
  0
VERTEX
  8
図枠
  5
520
 10
974.412
 20
-405.112
 30
0.000000
  70
    32
  0
VERTEX
  8
図枠
  5
521
 10
974.442
 20
-405.117
 30
0.000000
  70
    32
  0
VERTEX
  8
図枠
  5
522
 10
974.472
 20
-405.122
 30
0.000000
  70
    32
  0
VERTEX
  8
図枠
  5
523
 10
974.502
 20
-405.127
 30
0.000000
  70
    32
  0
VERTEX
  8
図枠
  5
524
 10
974.531
 20
-405.132
 30
0.000000
  70
    32
  0
VERTEX
  8
図枠
  5
525
 10
974.561
 20
-405.137
 30
0.000000
  70
    32
  0
VERTEX
  8
図枠
  5
526
 10
974.591
 20
-405.142
 30
0.000000
  70
    32
  0
VERTEX
  8
図枠
  5
527
 10
974.621
 20
-405.147
 30
0.000000
  70
    32
  0
VERTEX
  8
図枠
  5
528
 10
974.650
 20
-405.152
 30
0.000000
  70
    32
  0
VERTEX
  8
図枠
  5
529
 10
974.680
 20
-405.157
 30
0.000000
  70
    32
  0
VERTEX
  8
図枠
  5
52A
 10
974.710
 20
-405.162
 30
0.000000
  70
    32
  0
SEQEND
  8
図枠
  5
52B
  0
LINE
  5
9C
  8
図枠
 10
982.71962827909999
 20
-370.42235279290003
 30
0.0
 11
991.9356282791
 21
-372.7263527929
 31
0.0
  0
LINE
  5
9D
  8
図枠
  6
DOT
 10
550.05866665669998
 20
-422.11835279289988
 30
0.0
 11
1124.0586666567001
 21
-422.11835279289988
 31
0.0
  0
CIRCLE
  5
9E
  8
図枠
 10
972.18666665670014
 20
-368.1183527929
 30
0.0
 40
2.3039999999999998
  0
LINE
  5
9F
  8
図枠
 10
982.71962827909999
 20
-370.42235279290003
 30
0.0
 11
991.9356282791
 21
-372.7263527929
 31
0.0
  0
INSERT
  5
A0
  8
0
  6
CONTINUOUS
  2
*U37
 10
0.0
 20
0.0
 30
0.0
  0
INSERT
  5
A1
  8
0
  6
CONTINUOUS
  2
*U38
 10
0.0
 20
0.0
 30
0.0
  0
LINE
  5
A2
  8
図枠
 10
942.45306938860006
 20
-401.96207604589989
 30
0.0
 11
942.21130329020002
 21
-401.96207604589989
 31
0.0
  0
LINE
  5
A3
  8
図枠
 10
953.65306938859999
 20
-399.56207604590003
 30
0.0
 11
953.65306938859999
 21
-398.76207604590002
 31
0.0
  0
LINE
  5
A4
  8
図枠
 10
986.78755429249998
 20
-399.08207604590001
 30
0.0
 11
986.55332349219987
 21
-398.26810982109998
 31
0.0
  0
LINE
  5
A5
  8
図枠
 10
960.05866665669998
 20
-359.6183527929
 30
0.0
 11
960.05866665669998
 21
-376.6183527929
 31
0.0
  0
LINE
  5
A6
  8
図枠
 10
880.05866665669987
 20
-326.6183527929
 30
0.0
 11
880.05866665669987
 21
-359.6183527929
 31
0.0
  0
CIRCLE
  5
A7
  8
図枠
 10
972.18666665670014
 20
-368.1183527929
 30
0.0
 40
4.6079999999999997
  0
LINE
  5
A8
  8
図枠
  6
BORDER
 10
965.27466665669988
 20
-368.1183527929
 30
0.0
 11
994.84266665669998
 21
-368.1183527929
 31
0.0
  0
LINE
  5
A9
  8
図枠
 10
960.3100390855999
 20
-396.36207604589998
 30
0.0
 11
960.3100390855999
 21
-399.24207604589998
 31
0.0
  0
ARC
  5
AA
  8
図枠
 10
947.25306938860001
 20
-402.7620760458999
 30
0.0
 40
2.399999999999999
 50
270.0
 51
0.0
  0
LINE
  5
AB
  8
図枠
 10
960.3100390855999
 20
-400.07745247379989
 30
0.0
 11
966.71003908559987
 21
-400.07745247379989
 31
0.0
  0
LINE
  5
AC
  8
図枠
 10
953.65306938859999
 20
-402.7620760458999
 30
0.0
 11
953.65306938859999
 21
-401.96207604589989
 31
0.0
  0
INSERT
  5
AD
  8
0
  6
CONTINUOUS
  2
*U39
 10
0.0
 20
0.0
 30
0.0
  0
LINE
  5
AE
  8
図枠
 10
920.05866665669998
 20
-359.6183527929
 30
0.0
 11
920.05866665669998
 21
-376.6183527929
 31
0.0
  0
INSERT
  5
AF
  8
0
  6
CONTINUOUS
  2
*U40
 10
0.0
 20
0.0
 30
0.0
  0
LINE
  5
B0
  8
図枠
  6
DOT
 10
550.05866665669998
 20
-19.118352792900001
 30
0.0
 11
1124.0586666567001
 21
-19.118352792900001
 31
0.0
  0
LINE
  5
B1
  8
図枠
  6
DOT
 10
550.06466665669996
 20
-422.11835279289988
 30
0.0
 11
550.06466665669996
 21
-19.118352792900001
 31
0.0
  0
ARC
  5
B2
  8
図枠
 10
962.23003908559986
 20
-399.08207604590001
 30
0.0
 40
6.0800000000000001
 50
331.39928138329998
 51
358.49204224580001
  0
LINE
  5
B3
  8
図枠
 10
956.05306938859985
 20
-399.56207604590003
 30
0.0
 11
953.65306938859999
 21
-399.56207604590003
 31
0.0
  0
LINE
  5
B4
  8
図枠
 10
949.65306938859987
 20
-401.96207604589989
 30
0.0
 11
949.65306938859987
 21
-402.7620760458999
 31
0.0
  0
LINE
  5
B5
  8
図枠
 10
982.71962827909999
 20
-370.42235279290003
 30
0.0
 11
991.9356282791
 21
-372.7263527929
 31
0.0
  0
CIRCLE
  5
B6
  8
図枠
 10
972.18666665670014
 20
-368.1183527929
 30
0.0
 40
2.3039999999999998
  0
LINE
  5
B7
  8
図枠
 62
     5
 10
562.05866665669998
 20
-30.618352792900001
 30
0.0
 11
1112.0586666567001
 21
-30.618352792900001
 31
0.0
  0
LINE
  5
B8
  8
図枠
 62
     5
 10
562.05866665669998
 20
-410.61835279289988
 30
0.0
 11
562.05866665669998
 21
-30.618352792900001
 31
0.0
  0
LINE
  5
B9
  8
図枠
 10
880.05866665669987
 20
-359.6183527929
 30
0.0
 11
1112.0586666567001
 21
-359.6183527929
 31
0.0
  0
LINE
  5
BA
  8
図枠
 10
942.45306938860006
 20
-396.36207604589998
 30
0.0
 11
942.45306938860006
 21
-399.56207604590003
 31
0.0
  0
LINE
  5
BB
  8
図枠
 10
982.71962827909999
 20
-365.81435279290002
 30
0.0
 11
982.71962827909999
 21
-370.42235279290003
 31
0.0
  0
LINE
  5
BC
  8
図枠
 10
983.47614465619995
 20
-403.24207604589992
 30
0.0
 11
983.10067798950001
 21
-401.96207604589989
 31
0.0
  0
LINE
  5
BD
  8
図枠
 10
973.11003908559985
 20
-398.76207604590002
 30
0.0
 11
974.71003908559987
 21
-396.36207604589998
 31
0.0
  0
LINE
  5
BE
  8
図枠
 10
982.71962827909999
 20
-370.42235279290003
 30
0.0
 11
991.9356282791
 21
-372.7263527929
 31
0.0
  0
LINE
  5
BF
  8
図枠
 10
991.9356282791
 20
-363.51035279289999
 30
0.0
 11
991.9356282791
 21
-372.7263527929
 31
0.0
  0
LINE
  5
C0
  8
図枠
 10
978.25801132289996
 20
-399.08207604590001
 30
0.0
 11
978.25801132289996
 21
-401.96207604589989
 31
0.0
  0
LINE
  5
C1
  8
図枠
 10
884.05866665669998
 20
-368.1183527929
 30
0.0
 11
916.05866665669987
 21
-368.1183527929
 31
0.0
  0
INSERT
  5
C2
  8
0
  6
CONTINUOUS
  2
*U41
 10
0.0
 20
0.0
 30
0.0
  0
LINE
  5
C3
  8
図枠
 10
966.71003908559987
 20
-400.07745247379989
 30
0.0
 11
965.8049424057001
 21
-400.98254915379988
 31
0.0
  0
LINE
  5
C4
  8
図枠
 10
960.3100390855999
 20
-400.59282890179992
 30
0.0
 11
960.3100390855999
 21
-400.07745247379989
 31
0.0
  0
INSERT
  5
C5
  8
0
  6
CONTINUOUS
  2
*U42
 10
0.0
 20
0.0
 30
0.0
  0
LINE
  5
C6
  8
図枠
 10
1000.0586666567
 20
-359.6183527929
 30
0.0
 11
1000.0586666567
 21
-410.61835279289988
 31
0.0
  0
INSERT
  5
C7
  8
0
  6
CONTINUOUS
  2
*U43
 10
0.0
 20
0.0
 30
0.0
  0
INSERT
  5
C8
  8
0
  6
CONTINUOUS
  2
*U44
 10
0.0
 20
0.0
 30
0.0
  0
INSERT
  5
C9
  8
0
  6
CONTINUOUS
  2
*U45
 10
0.0
 20
0.0
 30
0.0
  0
INSERT
  5
CA
  8
0
  6
CONTINUOUS
  2
*U46
 10
0.0
 20
0.0
 30
0.0
  0
LINE
  5
CB
  8
図枠
 10
982.71962827909999
 20
-365.81435279290002
 30
0.0
 11
991.9356282791
 21
-363.51035279289999
 31
0.0
  0
CIRCLE
  5
CC
  8
図枠
 10
972.18666665670014
 20
-368.1183527929
 30
0.0
 40
2.3039999999999998
  0
LINE
  5
CD
  8
図枠
 10
940.6113032902
 20
-401.96207604589989
 30
0.0
 11
942.21130329020002
 21
-401.96207604589989
 31
0.0
  0
CIRCLE
  5
CE
  8
図枠
 10
972.18666665670014
 20
-368.1183527929
 30
0.0
 40
4.6079999999999997
  0
LINE
  5
CF
  8
図枠
 10
982.71962827909999
 20
-365.81435279290002
 30
0.0
 11
991.9356282791
 21
-363.51035279289999
 31
0.0
  0
LINE
  5
D0
  8
図枠
  6
DOT
 10
1124.0586666567001
 20
-422.11835279289988
 30
0.0
 11
1124.0586666567001
 21
-19.118352792900001
 31
0.0
  0
CIRCLE
  5
D1
  8
図枠
 10
972.18666665670014
 20
-368.1183527929
 30
0.0
 40
4.6079999999999997
  0
INSERT
  5
D2
  8
0
  6
CONTINUOUS
  2
*U47
 10
0.0
 20
0.0
 30
0.0
  0
LINE
  5
D3
  8
図枠
 10
880.05866665669987
 20
-393.6183527929
 30
0.0
 11
1112.0586666567001
 21
-393.6183527929
 31
0.0
  0
INSERT
  5
D4
  8
0
  6
CONTINUOUS
  2
*U48
 10
0.0
 20
0.0
 30
0.0
  0
LINE
  5
D5
  8
図枠
 10
991.9356282791
 20
-363.51035279289999
 30
0.0
 11
991.9356282791
 21
-372.7263527929
 31
0.0
  0
LINE
  5
D6
  8
図枠
 10
884.05866665669998
 20
-385.1183527929
 30
0.0
 11
936.05866665669998
 21
-385.1183527929
 31
0.0
  0
INSERT
  5
D7
  8
0
  6
CONTINUOUS
  2
*U49
 10
0.0
 20
0.0
 30
0.0
  0
DIMENSION
  5
E8
  8
寸法線
  2
*D0
 10
839.80742187500005
 20
-102.043944373
 30
0.0
 11
839.80742187500005
 21
-106.043944373
 31
0.0
 70
   128
  1
<>
 13
859.80742187499993
 23
-102.043944373
 33
0.0
 14
860.80742187500005
 24
-110.043944373
 34
0.0
 50
90.0
  0
DIMENSION
  5
F7
  8
寸法線
  2
*D1
 10
839.80742187500005
 20
-110.043944373
 30
0.0
 11
839.80742187500005
 21
-122.543944373
 31
0.0
 70
   128
  1
<>
 13
860.80742187500005
 23
-110.043944373
 33
0.0
 14
860.80742187500005
 24
-135.04394437299999
 34
0.0
 50
90.0
  0
DIMENSION
  5
106
  8
寸法線
  2
*D2
 10
875.80742187500005
 20
-67.168555273899983
 30
0.0
 11
867.80742187499993
 21
-67.168555273899983
 31
0.0
 70
   128
  1
<>
 13
875.80742187500005
 23
-102.043944373
 33
0.0
 14
859.80742187499993
 24
-102.043944373
 34
0.0
  0
DIMENSION
  5
115
  8
寸法線
  2
*D3
 10
839.80742187500005
 20
-135.04394437299999
 30
0.0
 11
839.80742187500005
 21
-148.5439443729999
 31
0.0
 70
   128
  1
<>
 13
860.80742187500005
 23
-135.04394437299999
 33
0.0
 14
859.80742187499993
 24
-162.04394437299999
 34
0.0
 50
90.0
  0
DIMENSION
  5
124
  8
寸法線
  2
*D4
 10
755.34809394169986
 20
-242.11974938349999
 30
0.0
 11
712.84809394169986
 21
-242.11974938349999
 31
0.0
 70
   128
  1
<>
 13
755.34809394169986
 23
-263.11974938349999
 33
0.0
 14
670.34809394169997
 24
-263.11974938349999
 34
0.0
  0
DIMENSION
  5
133
  8
寸法線
  2
*D5
 10
670.34809394169997
 20
-242.11974938349999
 30
0.0
 11
656.84809394169997
 21
-242.11974938349999
 31
0.0
 70
   128
  1
<>
 13
670.34809394169997
 23
-263.11974938349999
 33
0.0
 14
643.34809394169986
 24
-262.11974938349999
 34
0.0
  0
DIMENSION
  5
142
  8
寸法線
  2
*D6
 10
643.34809394169986
 20
-182.04394437299999
 30
0.0
 11
703.34809394169997
 21
-182.04394437299999
 31
0.0
 70
   128
  1
<>
 13
643.34809394169986
 23
-157.04394437299999
 33
0.0
 14
763.34809394169986
 24
-162.04394437299999
 34
0.0
 50
180.0
  0
DIMENSION
  5
151
  8
寸法線
  2
*D7
 10
623.34809394169986
 20
-102.043944373
 30
0.0
 11
623.34809394169986
 21
-132.04394437299999
 31
0.0
 70
   128
  1
<>
 13
643.34809394169986
 23
-102.043944373
 33
0.0
 14
648.34809394169986
 24
-162.04394437299999
 34
0.0
 50
90.0
  0
DIMENSION
  5
161
  8
寸法線
  2
*D8
 10
783.34809394169986
 20
-278.11974938349999
 30
0.0
 11
783.34809394169986
 21
-285.90981023849997
 31
0.0
 70
   128
  1
<>
 13
763.34809394169986
 23
-278.11974938349999
 33
0.0
 14
762.34809394169997
 24
-270.11974938349999
 34
0.0
 50
90.0
  0
DIMENSION
  5
170
  8
寸法線
  2
*D9
 10
783.34809394169986
 20
-270.11974938349999
 30
0.0
 11
783.34809394169986
 21
-254.4927327737
 31
0.0
 70
   128
  1
<>
 13
762.34809394169997
 23
-270.11974938349999
 33
0.0
 14
763.34809394169986
 24
-262.11974938349999
 34
0.0
 50
90.0
  0
DIMENSION
  5
17F
  8
寸法線
  2
*D10
 10
623.34809394169986
 20
-262.11974938349999
 30
0.0
 11
623.34809394169986
 21
-270.11974938349999
 31
0.0
 70
   128
  1
<>
 13
643.34809394169986
 23
-262.11974938349999
 33
0.0
 14
643.34809394169986
 24
-278.11974938349999
 34
0.0
 50
90.0
  0
DIMENSION
  5
18E
  8
寸法線
  2
*D11
 10
648.34809394169986
 20
-81.979444920500001
 30
0.0
 11
656.46467170849996
 21
-81.979444920500001
 31
0.0
 70
   128
  1
<>t
 13
648.34809394169986
 23
-102.043944373
 33
0.0
 14
643.34809394169986
 24
-102.043944373
 34
0.0
  0
DIMENSION
  5
19D
  8
寸法線
  2
*D12
 10
998.69505208329997
 20
-282.70113391799998
 30
0.0
 11
1011.1950520833
 21
-282.70113391799998
 31
0.0
 70
   128
  1
%%c5
 13
998.69505208329997
 23
-258.6588541667
 33
0.0
 14
1023.6950520833
 24
-258.6588541667
 34
0.0
 50
180.0
  0
DIMENSION
  5
1AC
  8
寸法線
  2
*D13
 10
1036.1950520833
 20
-213.6588541667
 30
0.0
 11
1011.1950520833
 21
-213.6588541667
 31
0.0
 70
   128
  1
%%c9
 13
1036.1950520833
 23
-233.6588541667
 33
0.0
 14
986.19505208329997
 24
-233.6588541667
 34
0.0
  0
DIMENSION
  5
1BA
  8
寸法線
  2
*D50
 10
1027.7237822499701
 20
-196.97279340009021
 30
0.0
 11
1011.1950520833
 21
-194.79674479170001
 31
0.0
 70
   133
  1
<>
 13
985.66472199739997
 23
-233.12852408079999
 33
0.0
 14
1036.7253821692
 24
-233.12852408079999
 34
0.0
 15
1011.1950520833
 25
-258.6588541667
 35
0.0
1001
ACAD
1000
DSTYLE
1002
{
1070
   271
1070
     0
1002
}
  0
DIMENSION
  5
1C8
  8
寸法線
  2
*D51
 10
679.90570660651019
 20
-138.8241482059899
 30
0.0
 11
671.2892488896
 21
-128.73233369600001
 31
0.0
 70
   133
  1
<>
 13
648.34809394169986
 23
-102.043944373
 33
0.0
 14
763.34809394169986
 24
-157.04394437299999
 34
0.0
 15
648.34809394169986
 25
-157.04394437299999
 35
0.0
1001
ACAD
1000
DSTYLE
1002
{
1070
   271
1070
     0
1002
}
  0
DIMENSION
  5
1D7
  8
寸法線
  2
*D16
 10
763.34809394169986
 20
-242.11974938349999
 30
0.0
 11
759.34809394169986
 21
-242.11974938349999
 31
0.0
 70
   128
  1
<>
 13
763.34809394169986
 23
-262.11974938349999
 33
0.0
 14
755.34809394169986
 24
-263.11974938349999
 34
0.0
  0
LINE
  5
1DD
  8
図枠
 62
     5
 10
1112.0586666567001
 20
-410.61835279289988
 30
0.0
 11
1112.0586666567001
 21
-30.618352792900001
 31
0.0
  0
LINE
  5
1DE
  8
図枠
 62
     5
 10
562.05866665669998
 20
-410.61835279289988
 30
0.0
 11
1112.0586666567001
 21
-410.61835279289988
 31
0.0
  0
LINE
  5
1DF
  8
図枠
 10
984.97801132289999
 20
-408.36207604589993
 30
0.0
 11
984.32094465619991
 21
-406.12207604589992
 31
0.0
  0
LINE
  5
1E0
  8
図枠
 10
947.25306938860001
 20
-405.16207604589988
 30
0.0
 11
942.45306938860006
 21
-405.16207604589988
 31
0.0
  0
LINE
  5
1E2
  8
ﾚｲﾔ_1
 62
     5
 10
643.34809394169986
 20
-157.04394437299999
 30
0.0
 11
643.34809394169986
 21
-102.043944373
 31
0.0
  0
LINE
  5
1E3
  8
ﾚｲﾔ_1
 62
     5
 10
648.34809394169986
 20
-102.043944373
 30
0.0
 11
643.34809394169986
 21
-102.043944373
 31
0.0
  0
LINE
  5
1E4
  8
ﾚｲﾔ_1
  6
STITCH
 10
645.84809394169986
 20
-112.543944373
 30
0.0
 11
643.34809394169986
 21
-112.543944373
 31
0.0
  0
LINE
  5
1E5
  8
ﾚｲﾔ_1
  6
STITCH
 10
645.84809394169986
 20
-107.543944373
 30
0.0
 11
645.84809394169986
 21
-112.543944373
 31
0.0
  0
LINE
  5
1E6
  8
ﾚｲﾔ_1
  6
STITCH
 10
645.84809394169986
 20
-107.543944373
 30
0.0
 11
643.34809394169986
 21
-107.543944373
 31
0.0
  0
LINE
  5
1E7
  8
ﾚｲﾔ_1
  6
STITCH
 10
645.84809394169986
 20
-107.543944373
 30
0.0
 11
648.34809394169986
 21
-105.043944373
 31
0.0
  0
LINE
  5
1E8
  8
ﾚｲﾔ_1
  6
STITCH
 10
648.34809394169986
 20
-115.043944373
 30
0.0
 11
645.84809394169986
 21
-112.543944373
 31
0.0
  0
LINE
  5
1E9
  8
ﾚｲﾔ_1
  6
BORDER
 62
     3
 10
652.84809394169997
 20
-110.043944373
 30
0.0
 11
638.84809394169986
 21
-110.043944373
 31
0.0
  0
LINE
  5
1EA
  8
ﾚｲﾔ_1
  6
STITCH
 10
672.84809394169986
 20
-159.54394437299999
 30
0.0
 11
675.34809394169986
 21
-157.04394437299999
 31
0.0
  0
LINE
  5
1EB
  8
ﾚｲﾔ_1
  6
STITCH
 10
665.34809394169997
 20
-157.04394437299999
 30
0.0
 11
667.84809394169986
 21
-159.54394437299999
 31
0.0
  0
LINE
  5
1EC
  8
ﾚｲﾔ_1
  6
BORDER
 62
     3
 10
670.34809394169997
 20
-152.54394437299999
 30
0.0
 11
670.34809394169997
 21
-166.54394437299999
 31
0.0
  0
ARC
  5
1ED
  8
ﾚｲﾔ_1
 62
     5
 10
648.34809394169986
 20
-157.04394437299999
 30
0.0
 40
5.0
 50
180.0
 51
270.0
  0
LINE
  5
1EE
  8
ﾚｲﾔ_1
  6
STITCH
 10
648.34809394169986
 20
-140.04394437299999
 30
0.0
 11
645.84809394169986
 21
-137.54394437299999
 31
0.0
  0
LINE
  5
1EF
  8
ﾚｲﾔ_1
  6
STITCH
 10
645.84809394169986
 20
-132.54394437299999
 30
0.0
 11
648.34809394169986
 21
-130.04394437299999
 31
0.0
  0
LINE
  5
1F0
  8
ﾚｲﾔ_1
  6
STITCH
 10
645.84809394169986
 20
-132.54394437299999
 30
0.0
 11
643.34809394169986
 21
-132.54394437299999
 31
0.0
  0
LINE
  5
1F1
  8
ﾚｲﾔ_1
  6
STITCH
 10
645.84809394169986
 20
-132.54394437299999
 30
0.0
 11
645.84809394169986
 21
-137.54394437299999
 31
0.0
  0
LINE
  5
1F2
  8
ﾚｲﾔ_1
  6
STITCH
 10
645.84809394169986
 20
-137.54394437299999
 30
0.0
 11
643.34809394169986
 21
-137.54394437299999
 31
0.0
  0
LINE
  5
1F3
  8
ﾚｲﾔ_1
 62
     5
 10
648.34809394169986
 20
-157.04394437299999
 30
0.0
 11
763.34809394169986
 21
-157.04394437299999
 31
0.0
  0
LINE
  5
1F4
  8
ﾚｲﾔ_1
 62
     5
 10
763.34809394169986
 20
-162.04394437299999
 30
0.0
 11
763.34809394169986
 21
-157.04394437299999
 31
0.0
  0
LINE
  5
1F5
  8
ﾚｲﾔ_1
 62
     5
 10
648.34809394169986
 20
-162.04394437299999
 30
0.0
 11
763.34809394169986
 21
-162.04394437299999
 31
0.0
  0
LINE
  5
1F6
  8
ﾚｲﾔ_1
  6
BORDER
 62
     3
 10
652.84809394169997
 20
-135.04394437299999
 30
0.0
 11
638.84809394169986
 21
-135.04394437299999
 31
0.0
  0
LINE
  5
1F7
  8
ﾚｲﾔ_1
  6
STITCH
 10
667.84809394169986
 20
-159.54394437299999
 30
0.0
 11
667.84809394169986
 21
-162.04394437299999
 31
0.0
  0
LINE
  5
1F8
  8
ﾚｲﾔ_1
  6
STITCH
 10
672.84809394169986
 20
-159.54394437299999
 30
0.0
 11
667.84809394169986
 21
-159.54394437299999
 31
0.0
  0
DIMENSION
  5
207
  8
寸法線
  2
*D17
 10
867.80742187499993
 20
-82.043944373000016
 30
0.0
 11
849.50270175399999
 21
-82.043944373000016
 31
0.0
 70
   128
  1
<>
 13
867.80742187499993
 23
-103.043944373
 33
0.0
 14
859.80742187499993
 24
-102.043944373
 34
0.0
  0
DIMENSION
  5
216
  8
寸法線
  2
*D18
 10
875.80742187500005
 20
-82.043944373000016
 30
0.0
 11
887.7292521416
 21
-82.043944373000016
 31
0.0
 70
   128
  1
<>
 13
875.80742187500005
 23
-102.043944373
 33
0.0
 14
867.80742187499993
 24
-103.043944373
 34
0.0
  0
LINE
  5
217
  8
ﾚｲﾔ_1
 10
685.60043769169999
 20
-293.2009993835
 30
0.0
 11
732.16332831670002
 21
-293.2009993835
 31
0.0
  0
LINE
  5
218
  8
ﾚｲﾔ_1
 10
685.60043769169999
 20
-294.7009993835
 30
0.0
 11
732.16332831670002
 21
-294.7009993835
 31
0.0
  0
LINE
  5
219
  8
ﾚｲﾔ_1
 10
685.60043769169999
 20
-296.2009993835
 30
0.0
 11
732.16332831670002
 21
-296.2009993835
 31
0.0
  0
LINE
  5
21A
  8
ﾚｲﾔ_1
 10
685.60043769169999
 20
-297.7009993835
 30
0.0
 11
732.16332831670002
 21
-297.7009993835
 31
0.0
  0
CIRCLE
  5
21B
  8
ﾚｲﾔ_1
  6
STITCH
 10
755.34809394169986
 20
-270.11974938349999
 30
0.0
 40
5.0
  0
CIRCLE
  5
21C
  8
ﾚｲﾔ_1
  6
STITCH
 10
670.34809394169997
 20
-270.11974938349999
 30
0.0
 40
5.0
  0
LINE
  5
21D
  8
ﾚｲﾔ_1
  6
STITCH
 10
648.34809394169986
 20
-262.11974938349999
 30
0.0
 11
648.34809394169986
 21
-278.11974938349999
 31
0.0
  0
LINE
  5
21E
  8
ﾚｲﾔ_1
 62
     5
 10
643.34809394169986
 20
-262.11974938349999
 30
0.0
 11
643.34809394169986
 21
-278.11974938349999
 31
0.0
  0
LINE
  5
21F
  8
ﾚｲﾔ_1
  6
BORDER
 62
     3
 10
670.34809394169997
 20
-263.11974938349999
 30
0.0
 11
670.34809394169997
 21
-277.11974938349999
 31
0.0
  0
CIRCLE
  5
220
  8
ﾚｲﾔ_1
 62
     5
 10
670.34809394169997
 20
-270.11974938349999
 30
0.0
 40
2.5
  0
LINE
  5
221
  8
ﾚｲﾔ_1
  6
BORDER
 62
     3
 10
663.34809394169986
 20
-270.11974938349999
 30
0.0
 11
677.34809394169986
 21
-270.11974938349999
 31
0.0
  0
LINE
  5
222
  8
ﾚｲﾔ_1
 62
     5
 10
763.34809394169986
 20
-262.11974938349999
 30
0.0
 11
643.34809394169986
 21
-262.11974938349999
 31
0.0
  0
LINE
  5
223
  8
ﾚｲﾔ_1
  6
BORDER
 62
     3
 10
748.34809394169986
 20
-270.11974938349999
 30
0.0
 11
762.34809394169997
 21
-270.11974938349999
 31
0.0
  0
LINE
  5
224
  8
ﾚｲﾔ_1
 62
     5
 10
643.34809394169986
 20
-278.11974938349999
 30
0.0
 11
763.34809394169986
 21
-278.11974938349999
 31
0.0
  0
LINE
  5
225
  8
ﾚｲﾔ_1
 62
     5
 10
763.34809394169986
 20
-278.11974938349999
 30
0.0
 11
763.34809394169986
 21
-262.11974938349999
 31
0.0
  0
LINE
  5
226
  8
ﾚｲﾔ_1
  6
BORDER
 62
     3
 10
755.34809394169986
 20
-263.11974938349999
 30
0.0
 11
755.34809394169986
 21
-277.11974938349999
 31
0.0
  0
CIRCLE
  5
227
  8
ﾚｲﾔ_1
 62
     5
 10
755.34809394169986
 20
-270.11974938349999
 30
0.0
 40
2.5
  0
LINE
  5
228
  8
ﾚｲﾔ_1
  6
STITCH
 10
672.84809394169986
 20
-159.54394437299999
 30
0.0
 11
672.84809394169986
 21
-162.04394437299999
 31
0.0
  0
LINE
  5
229
  8
ﾚｲﾔ_1
  6
BORDER
 62
     3
 10
755.34809394169986
 20
-152.54394437299999
 30
0.0
 11
755.34809394169986
 21
-166.54394437299999
 31
0.0
  0
LINE
  5
22A
  8
ﾚｲﾔ_1
  6
STITCH
 10
752.84809394169997
 20
-159.54394437299999
 30
0.0
 11
752.84809394169997
 21
-162.04394437299999
 31
0.0
  0
LINE
  5
22B
  8
ﾚｲﾔ_1
  6
STITCH
 10
757.84809394169997
 20
-159.54394437299999
 30
0.0
 11
752.84809394169997
 21
-159.54394437299999
 31
0.0
  0
LINE
  5
22C
  8
ﾚｲﾔ_1
  6
STITCH
 10
757.84809394169997
 20
-159.54394437299999
 30
0.0
 11
757.84809394169997
 21
-162.04394437299999
 31
0.0
  0
LINE
  5
22D
  8
ﾚｲﾔ_1
  6
STITCH
 10
757.84809394169997
 20
-159.54394437299999
 30
0.0
 11
760.34809394169986
 21
-157.04394437299999
 31
0.0
  0
LINE
  5
22E
  8
ﾚｲﾔ_1
  6
STITCH
 10
750.34809394169986
 20
-157.04394437299999
 30
0.0
 11
752.84809394169997
 21
-159.54394437299999
 31
0.0
  0
LINE
  5
22F
  8
ﾚｲﾔ_1
 62
     5
 10
648.34809394169986
 20
-157.04394437299999
 30
0.0
 11
648.34809394169986
 21
-102.043944373
 31
0.0
  0
CIRCLE
  5
230
  8
ﾚｲﾔ_1
 62
     5
 10
867.80742187499993
 20
-135.04394437299999
 30
0.0
 40
2.5
  0
LINE
  5
231
  8
ﾚｲﾔ_1
 62
     5
 10
875.80742187500005
 20
-162.04394437299999
 30
0.0
 11
875.80742187500005
 21
-102.043944373
 31
0.0
  0
LINE
  5
232
  8
ﾚｲﾔ_1
 62
     5
 10
859.80742187499993
 20
-102.043944373
 30
0.0
 11
859.80742187499993
 21
-162.04394437299999
 31
0.0
  0
LINE
  5
233
  8
ﾚｲﾔ_1
 62
     5
 10
875.80742187500005
 20
-102.043944373
 30
0.0
 11
859.80742187499993
 21
-102.043944373
 31
0.0
  0
CIRCLE
  5
234
  8
ﾚｲﾔ_1
 62
     5
 10
867.80742187499993
 20
-110.043944373
 30
0.0
 40
5.0
  0
CIRCLE
  5
235
  8
ﾚｲﾔ_1
 62
     5
 10
867.80742187499993
 20
-110.043944373
 30
0.0
 40
2.5
  0
LINE
  5
236
  8
ﾚｲﾔ_1
  6
BORDER
 62
     3
 10
867.80742187499993
 20
-103.043944373
 30
0.0
 11
867.80742187499993
 21
-117.043944373
 31
0.0
  0
LINE
  5
237
  8
ﾚｲﾔ_1
  6
BORDER
 62
     3
 10
860.80742187500005
 20
-110.043944373
 30
0.0
 11
874.80742187500005
 21
-110.043944373
 31
0.0
  0
CIRCLE
  5
238
  8
ﾚｲﾔ_1
 62
     5
 10
867.80742187499993
 20
-135.04394437299999
 30
0.0
 40
5.0
  0
LINE
  5
239
  8
ﾚｲﾔ_1
  6
BORDER
 62
     3
 10
860.80742187500005
 20
-135.04394437299999
 30
0.0
 11
874.80742187500005
 21
-135.04394437299999
 31
0.0
  0
LINE
  5
23A
  8
ﾚｲﾔ_1
 62
     5
 10
859.80742187499993
 20
-157.04394437299999
 30
0.0
 11
875.80742187500005
 21
-157.04394437299999
 31
0.0
  0
LINE
  5
23B
  8
ﾚｲﾔ_1
 62
     5
 10
859.80742187499993
 20
-162.04394437299999
 30
0.0
 11
875.80742187500005
 21
-162.04394437299999
 31
0.0
  0
LINE
  5
23C
  8
ﾚｲﾔ_1
  6
BORDER
 62
     3
 10
867.80742187499993
 20
-128.04394437299999
 30
0.0
 11
867.80742187499993
 21
-142.04394437299999
 31
0.0
  0
LINE
  5
23D
  8
ﾚｲﾔ_1
 62
     5
 10
937.89798177080002
 20
-233.6588541667
 30
0.0
 11
1084.4921223957999
 21
-233.6588541667
 31
0.0
  0
LINE
  5
23E
  8
ﾚｲﾔ_1
 62
     5
 10
986.19505208329997
 20
-233.6588541667
 30
0.0
 11
998.69505208329997
 21
-246.1588541667
 31
0.0
  0
LINE
  5
23F
  8
ﾚｲﾔ_1
 62
     5
 10
1023.6950520833
 20
-246.1588541667
 30
0.0
 11
1036.1950520833
 21
-233.6588541667
 31
0.0
  0
LINE
  5
240
  8
ﾚｲﾔ_1
 62
     5
 10
1023.6950520833
 20
-246.1588541667
 30
0.0
 11
998.69505208329997
 21
-246.1588541667
 31
0.0
  0
LINE
  5
241
  8
ﾚｲﾔ_1
  6
BORDER
 62
     3
 10
1011.1950520833
 20
-223.8098958333
 30
0.0
 11
1011.1950520833
 21
-266.8098958333
 31
0.0
  0
LINE
  5
242
  8
ﾚｲﾔ_1
 62
     5
 10
998.69505208329997
 20
-246.1588541667
 30
0.0
 11
998.69505208329997
 21
-258.6588541667
 31
0.0
  0
LINE
  5
243
  8
ﾚｲﾔ_1
 62
     5
 10
1023.6950520833
 20
-246.1588541667
 30
0.0
 11
1023.6950520833
 21
-258.6588541667
 31
0.0
  0
LINE
  5
244
  8
ﾚｲﾔ_1
 62
     5
 10
937.89798177080002
 20
-258.6588541667
 30
0.0
 11
1084.4921223957999
 21
-258.6588541667
 31
0.0
  0
INSERT
  5
245
  8
0
  6
CONTINUOUS
  2
*U52
 10
0.0
 20
0.0
 30
0.0
  0
LINE
  5
246
  8
ﾚｲﾔ_1
 10
984.79813541670001
 20
-307.5647824038
 30
0.0
 11
1035.9010253905999
 21
-307.5647824038
 31
0.0
  0
INSERT
  5
247
  8
0
  6
CONTINUOUS
  2
*U53
 10
0.0
 20
0.0
 30
0.0
  0
LINE
  5
248
  8
ﾚｲﾔ_1
 10
685.60043769169999
 20
-291.7009993835
 30
0.0
 11
732.16332831670002
 21
-291.7009993835
 31
0.0
  0
ENDSEC
  0
EOF
