  0
SECTION
  2
HEADER
  9
$ACADVER
  1
AC1009
  9
$INSBASE
 10
0.0
 20
0.0
 30
0.0
  9
$EXTMIN
 10
693.48455785123224
 20
-321.45879231570513
 30
-0.0015258207003583
  9
$EXTMAX
 10
980.57443298406235
 20
-119.7038436026578
 30
0.0000000349246037
  9
$LIMMIN
 10
0.0
 20
0.0
  9
$LIMMAX
 10
0.0
 20
0.0
  9
$ORTHOMODE
 70
     0
  9
$REGENMODE
 70
     1
  9
$FILLMODE
 70
     1
  9
$QTEXTMODE
 70
     0
  9
$MIRRTEXT
 70
     1
  9
$DRAGMODE
 70
     2
  9
$LTSCALE
 40
1.0
  9
$OSMODE
 70
    31
  9
$ATTMODE
 70
     1
  9
$TEXTSIZE
 40
0.0
  9
$TRACEWID
 40
0.05
  9
$TEXTSTYLE
  7
STANDARD
  9
$CLAYER
  8
0
  9
$CELTYPE
  6
CONTINUOUS
  9
$CECOLOR
 62
   256
  9
$DIMSCALE
 40
1.0
  9
$DIMASZ
 40
0.18
  9
$DIMEXO
 40
0.0625
  9
$DIMDLI
 40
0.38
  9
$DIMRND
 40
0.0
  9
$DIMDLE
 40
0.0
  9
$DIMEXE
 40
0.18
  9
$DIMTP
 40
0.0
  9
$DIMTM
 40
0.0
  9
$DIMTXT
 40
0.18
  9
$DIMCEN
 40
0.09
  9
$DIMTSZ
 40
0.0
  9
$DIMTOL
 70
     0
  9
$DIMLIM
 70
     0
  9
$DIMTIH
 70
     1
  9
$DIMTOH
 70
     1
  9
$DIMSE1
 70
     0
  9
$DIMSE2
 70
     0
  9
$DIMTAD
 70
     0
  9
$DIMZIN
 70
     0
  9
$DIMBLK
  1

  9
$DIMASO
 70
     1
  9
$DIMSHO
 70
     1
  9
$DIMPOST
  1

  9
$DIMAPOST
  1

  9
$DIMALT
 70
     0
  9
$DIMALTD
 70
     2
  9
$DIMALTF
 40
25.399999999999999
  9
$DIMLFAC
 40
1.0
  9
$DIMTOFL
 70
     0
  9
$DIMTVP
 40
0.0
  9
$DIMTIX
 70
     0
  9
$DIMSOXD
 70
     0
  9
$DIMSAH
 70
     0
  9
$DIMBLK1
  1

  9
$DIMBLK2
  1

  9
$DIMSTYLE
  2
STANDARD
  9
$DIMCLRD
 70
     0
  9
$DIMCLRE
 70
     0
  9
$DIMCLRT
 70
     0
  9
$DIMTFAC
 40
1.0
  9
$DIMGAP
 40
0.09
  9
$LUNITS
 70
     2
  9
$LUPREC
 70
     4
  9
$SKETCHINC
 40
0.1
  9
$FILLETRAD
 40
0.0
  9
$AUNITS
 70
     0
  9
$AUPREC
 70
     0
  9
$MENU
  1
acad
  9
$ELEVATION
 40
0.0
  9
$PELEVATION
 40
0.0
  9
$THICKNESS
 40
0.0
  9
$LIMCHECK
 70
     0
  9
$BLIPMODE
 70
     0
  9
$CHAMFERA
 40
0.0
  9
$CHAMFERB
 40
0.0
  9
$SKPOLY
 70
     0
  9
$TDCREATE
 40
2454863.4258758221
  9
$TDUPDATE
 40
2454863.4261715049
  9
$TDINDWG
 40
0.0003063542
  9
$TDUSRTIMER
 40
0.0003059838
  9
$USRTIMER
 70
     1
  9
$ANGBASE
 50
0.0
  9
$ANGDIR
 70
     0
  9
$PDMODE
 70
     3
  9
$PDSIZE
 40
-1.0
  9
$PLINEWID
 40
0.0
  9
$COORDS
 70
     2
  9
$SPLFRAME
 70
     0
  9
$SPLINETYPE
 70
     6
  9
$SPLINESEGS
 70
     8
  9
$ATTDIA
 70
     0
  9
$ATTREQ
 70
     1
  9
$HANDLING
 70
     1
  9
$HANDSEED
  5
52A
  9
$SURFTAB1
 70
     6
  9
$SURFTAB2
 70
     6
  9
$SURFTYPE
 70
     6
  9
$SURFU
 70
     6
  9
$SURFV
 70
     6
  9
$UCSNAME
  2

  9
$UCSORG
 10
0.0
 20
0.0
 30
0.0
  9
$UCSXDIR
 10
1.0
 20
0.0
 30
0.0
  9
$UCSYDIR
 10
0.0
 20
1.0
 30
0.0
  9
$PUCSNAME
  2

  9
$PUCSORG
 10
0.0
 20
0.0
 30
0.0
  9
$PUCSXDIR
 10
1.0
 20
0.0
 30
0.0
  9
$PUCSYDIR
 10
0.0
 20
1.0
 30
0.0
  9
$USERI1
 70
     0
  9
$USERI2
 70
     0
  9
$USERI3
 70
     0
  9
$USERI4
 70
     0
  9
$USERI5
 70
     0
  9
$USERR1
 40
0.0
  9
$USERR2
 40
0.0
  9
$USERR3
 40
0.0
  9
$USERR4
 40
0.0
  9
$USERR5
 40
0.0
  9
$WORLDVIEW
 70
     1
  9
$SHADEDGE
 70
     3
  9
$SHADEDIF
 70
    70
  9
$TILEMODE
 70
     1
  9
$MAXACTVP
 70
    16
  9
$PLIMCHECK
 70
     0
  9
$PEXTMIN
 10
1.0000000000000000E+020
 20
1.0000000000000000E+020
 30
1.0000000000000000E+020
  9
$PEXTMAX
 10
-1.0000000000000000E+020
 20
-1.0000000000000000E+020
 30
-1.0000000000000000E+020
  9
$PLIMMIN
 10
0.0
 20
0.0
  9
$PLIMMAX
 10
12.0
 20
9.0
  9
$UNITMODE
 70
     0
  9
$VISRETAIN
 70
     0
  9
$PLINEGEN
 70
     1
  9
$PSLTSCALE
 70
     0
  0
ENDSEC
  0
SECTION
  2
TABLES
  0
TABLE
  2
VPORT
 70
     2
  0
VPORT
  2
*ACTIVE
 70
     0
 10
0.0
 20
0.0
 11
1.0
 21
1.0
 12
837.02949541764724
 22
-220.5813179591814
 13
0.0
 23
0.0
 14
1.0
 24
1.0
 15
0.0
 25
0.0
 16
0.0
 26
0.0
 36
1.0
 17
0.0
 27
0.0
 37
0.0
 40
207.74129029070721
 41
1.3903818953323901
 42
50.0
 43
0.0
 44
0.0
 50
0.0
 51
0.0
 71
     0
 72
   100
 73
     1
 74
     1
 75
     0
 76
     0
 77
     0
 78
     0
  0
ENDTAB
  0
TABLE
  2
LTYPE
 70
    11
  0
LTYPE
  2
CONTINUOUS
 70
     0
  3
Solid line
 72
    65
 73
     0
 40
0.0
  0
LTYPE
  2
DOT
 70
     0
  3
. . . . . . . . 
 72
    65
 73
     2
 40
1.0
 49
0.0
 49
-1.0
  0
LTYPE
  2
DASHED
 70
     0
  3
___  ___  ___  ___  
 72
    65
 73
     2
 40
4.0
 49
3.0
 49
-1.0
  0
LTYPE
  2
HIDDEN
 70
     0
  3
__ __ __ __ 
 72
    65
 73
     2
 40
3.0
 49
2.0
 49
-1.0
  0
LTYPE
  2
STITCH
 70
     0
  3
_ _ _ _ 
 72
    65
 73
     2
 40
2.0
 49
1.0
 49
-1.0
  0
LTYPE
  2
CENTER
 70
     0
  3
______  __  ______  __  
 72
    65
 73
     4
 40
43.0
 49
40.0
 49
-1.0
 49
1.0
 49
-1.0
  0
LTYPE
  2
DASHDOT
 70
     0
  3
____ . ____ . 
 72
    65
 73
     4
 40
32.0
 49
30.0
 49
-1.0
 49
0.0
 49
-1.0
  0
LTYPE
  2
BORDER
 70
     0
  3
__ . __ . 
 72
    65
 73
     4
 40
22.0
 49
20.0
 49
-1.0
 49
0.0
 49
-1.0
  0
LTYPE
  2
CUTTING
 70
     0
  3
________   ___   ___   
 72
    65
 73
     6
 40
45.0
 49
40.0
 49
-1.0
 49
1.0
 49
-1.0
 49
1.0
 49
-1.0
  0
LTYPE
  2
PHANTOM
 70
     0
  3
______  __  __  
 72
    65
 73
     6
 40
35.0
 49
30.0
 49
-1.0
 49
1.0
 49
-1.0
 49
1.0
 49
-1.0
  0
LTYPE
  2
DIVIDE
 70
     0
  3
____ . . ____ . . 
 72
    65
 73
     6
 40
23.0
 49
20.0
 49
-1.0
 49
0.0
 49
-1.0
 49
0.0
 49
-1.0
  0
ENDTAB
  0
TABLE
  2
LAYER
 70
     6
  0
LAYER
  2
0
 70
     0
 62
     7
  6
CONTINUOUS
  0
LAYER
  2
図枠
 70
     0
 62
     7
  6
CONTINUOUS
  0
LAYER
  2
寸法線
 70
     0
 62
     7
  6
CONTINUOUS
  0
LAYER
  2
改訂
 70
     0
 62
     7
  6
CONTINUOUS
  0
LAYER
  2
ﾚｲﾔ_1
 70
     0
 62
     7
  6
CONTINUOUS
  0
LAYER
  2
Defpoints
 70
     0
 62
     7
  6
CONTINUOUS
  0
ENDTAB
  0
TABLE
  2
STYLE
 70
     1
  0
STYLE
  2
STANDARD
 70
     0
 40
0.0
 41
1.0
 50
0.0
 71
     0
 42
0.0
  3
txt
  4
extfont
  0
ENDTAB
  0
TABLE
  2
VIEW
 70
     0
  0
ENDTAB
  0
TABLE
  2
UCS
 70
     0
  0
ENDTAB
  0
TABLE
  2
APPID
 70
     2
  0
APPID
  2
ACAD
 70
     0
  0
APPID
  2
DCO15
 70
     0
  0
ENDTAB
  0
TABLE
  2
DIMSTYLE
 70
     3
  0
DIMSTYLE
  2
STANDARD
 70
     0
  3

  4

  5

  6

  7

 40
1.0
 41
0.18
 42
0.0625
 43
0.38
 44
0.18
 45
0.0
 46
0.0
 47
0.0
 48
0.0
140
0.18
141
0.09
142
0.0
143
25.399999999999999
144
1.0
145
0.0
146
1.0
147
0.09
 71
     0
 72
     0
 73
     1
 74
     1
 75
     0
 76
     0
 77
     0
 78
     0
170
     0
171
     2
172
     0
173
     0
174
     0
175
     0
176
     0
177
     0
178
     0
  0
DIMSTYLE
  2
VELDIM0
 70
     0
  3

  4

  5

  6

  7

 40
1.0
 41
3.0
 42
0.0625
 43
0.38
 44
0.5
 45
0.0
 46
3.0
 47
0.0
 48
0.0
140
2.9986110209999999
141
0.09
142
0.0
143
25.399999999999999
144
1.0
145
0.0
146
1.0
147
0.09
 71
     0
 72
     0
 73
     0
 74
     0
 75
     0
 76
     0
 77
     0
 78
     8
170
     0
171
     2
172
     0
173
     0
174
     0
175
     0
176
     0
177
     0
178
     0
  0
DIMSTYLE
  2
VELDIM1
 70
     0
  3

  4

  5

  6

  7

 40
1.0
 41
3.0
 42
0.0625
 43
0.38
 44
1.25
 45
0.0
 46
5.0
 47
0.0
 48
0.0
140
2.9986110209999999
141
0.09
142
0.0
143
25.399999999999999
144
1.0
145
0.0
146
1.0
147
0.09
 71
     0
 72
     0
 73
     0
 74
     0
 75
     0
 76
     0
 77
     0
 78
     8
170
     0
171
     2
172
     0
173
     0
174
     0
175
     0
176
     0
177
     0
178
     0
  0
ENDTAB
  0
ENDSEC
  0
SECTION
  2
BLOCKS
  0
BLOCK
  8
0
  2
$MODEL_SPACE
 70
     0
 10
0.0
 20
0.0
 30
0.0
  3
$MODEL_SPACE
  1

  0
ENDBLK
  5
E
  8
0
  0
BLOCK
 67
     1
  8
0
  2
$PAPER_SPACE
 70
     0
 10
0.0
 20
0.0
 30
0.0
  3
$PAPER_SPACE
  1

  0
ENDBLK
  5
10
 67
     1
  8
0
  0
BLOCK
  8
0
  2
*D0
 70
     1
 10
0.0
 20
0.0
 30
0.0
  3
*D0
  1

  0
TEXT
  5
DB
  8
0
 62
     0
 10
850.07874290819996
 20
-151.10641259409999
 30
0.0
 40
2.9986110209999999
  1
8
  0
LINE
  5
DC
  8
0
 62
     0
 10
844.80074906369987
 20
-161.6355792448
 30
0.0
 11
844.80074906369987
 21
-152.1355792448
 31
0.0
  0
LINE
  5
DD
  8
0
 62
     0
 10
836.80074906369987
 20
-161.6355792448
 30
0.0
 11
836.80074906369987
 21
-152.1355792448
 31
0.0
  0
LINE
  5
DE
  8
0
 62
     0
 10
844.80074906369987
 20
-152.6355792448
 30
0.0
 11
853.60652057999994
 21
-152.6355792448
 31
0.0
  0
LINE
  5
DF
  8
0
 62
     0
 10
844.80074906369987
 20
-152.6355792448
 30
0.0
 11
848.3148540722998
 21
-152.6355792448
 31
0.0
  0
LINE
  5
E0
  8
0
 62
     0
 10
836.80074906369987
 20
-152.6355792448
 30
0.0
 11
853.60652057999994
 21
-152.6355792448
 31
0.0
  0
LINE
  5
E1
  8
0
 62
     0
 10
836.80074906369987
 20
-152.6355792448
 30
0.0
 11
848.3148540722998
 21
-152.6355792448
 31
0.0
  0
LINE
  5
E2
  8
0
 62
     0
 10
836.80074906369987
 20
-152.6355792448
 30
0.0
 11
839.80074906369987
 21
-152.6355792448
 31
0.0
  0
SOLID
  5
E3
  8
0
 62
     0
 10
836.80074906369987
 20
-152.6355792448
 30
0.0
 11
839.80074906369987
 21
-151.8855792448
 31
0.0
 12
839.80074906369987
 22
-153.3855792448
 32
0.0
 13
839.05074906369998
 23
-152.6355792448
 33
0.0
  0
LINE
  5
E4
  8
0
 62
     0
 10
844.80074906369987
 20
-152.6355792448
 30
0.0
 11
841.80074906369998
 21
-152.6355792448
 31
0.0
  0
SOLID
  5
E5
  8
0
 62
     0
 10
844.80074906369987
 20
-152.6355792448
 30
0.0
 11
841.80074906369998
 21
-153.3855792448
 31
0.0
 12
841.80074906369998
 22
-151.8855792448
 32
0.0
 13
842.55074906369987
 23
-152.6355792448
 33
0.0
  0
ENDBLK
  5
E6
  8
0
  0
BLOCK
  8
0
  2
*D1
 70
     1
 10
0.0
 20
0.0
 30
0.0
  3
*D1
  1

  0
TEXT
  5
EB
  8
0
 62
     0
 10
817.27158241289987
 20
-166.51752366279999
 30
0.0
 40
2.9986110209999999
  1
6
 50
90.0
  0
LINE
  5
EC
  8
0
 62
     0
 10
827.80074906369998
 20
-162.6355792448
 30
0.0
 11
818.30074906369987
 21
-162.6355792448
 31
0.0
  0
LINE
  5
ED
  8
0
 62
     0
 10
829.80074906369987
 20
-168.6355792448
 30
0.0
 11
818.30074906369987
 21
-168.6355792448
 31
0.0
  0
LINE
  5
EE
  8
0
 62
     0
 10
818.80074906369998
 20
-162.6355792448
 30
0.0
 11
818.80074906369998
 21
-162.98974599100001
 31
0.0
  0
LINE
  5
EF
  8
0
 62
     0
 10
818.80074906369998
 20
-162.6355792448
 30
0.0
 11
818.80074906369998
 21
-168.28141249870001
 31
0.0
  0
LINE
  5
F0
  8
0
 62
     0
 10
818.80074906369998
 20
-168.6355792448
 30
0.0
 11
818.80074906369998
 21
-162.98974599100001
 31
0.0
  0
LINE
  5
F1
  8
0
 62
     0
 10
818.80074906369998
 20
-168.6355792448
 30
0.0
 11
818.80074906369998
 21
-168.28141249870001
 31
0.0
  0
LINE
  5
F2
  8
0
 62
     0
 10
818.80074906369998
 20
-168.6355792448
 30
0.0
 11
818.80074906369998
 21
-171.6355792448
 31
0.0
  0
SOLID
  5
F3
  8
0
 62
     0
 10
818.80074906369998
 20
-168.6355792448
 30
0.0
 11
819.55074906369998
 21
-171.6355792448
 31
0.0
 12
818.05074906369987
 22
-171.6355792448
 32
0.0
 13
818.80074906369998
 23
-170.8855792448
 33
0.0
  0
LINE
  5
F4
  8
0
 62
     0
 10
818.80074906369998
 20
-162.6355792448
 30
0.0
 11
818.80074906369998
 21
-159.6355792448
 31
0.0
  0
SOLID
  5
F5
  8
0
 62
     0
 10
818.80074906369998
 20
-162.6355792448
 30
0.0
 11
818.05074906369987
 21
-159.6355792448
 31
0.0
 12
819.55074906369998
 22
-159.6355792448
 32
0.0
 13
818.80074906369998
 23
-160.3855792448
 33
0.0
  0
ENDBLK
  5
F6
  8
0
  0
BLOCK
  8
0
  2
*D2
 70
     1
 10
0.0
 20
0.0
 30
0.0
  3
*D2
  1

  0
TEXT
  5
FA
  8
0
 62
     0
 10
817.27158241289987
 20
-177.39946808069999
 30
0.0
 40
2.9986110209999999
  1
14
 50
90.0
  0
LINE
  5
FB
  8
0
 62
     0
 10
829.80074906369987
 20
-168.6355792448
 30
0.0
 11
818.30074906369987
 21
-168.6355792448
 31
0.0
  0
LINE
  5
FC
  8
0
 62
     0
 10
829.80074906369987
 20
-182.6355792448
 30
0.0
 11
818.30074906369987
 21
-182.6355792448
 31
0.0
  0
LINE
  5
FD
  8
0
 62
     0
 10
818.80074906369998
 20
-168.6355792448
 30
0.0
 11
818.80074906369998
 21
-172.10780157299999
 31
0.0
  0
LINE
  5
FE
  8
0
 62
     0
 10
818.80074906369998
 20
-168.6355792448
 30
0.0
 11
818.80074906369998
 21
-179.16335691660001
 31
0.0
  0
LINE
  5
FF
  8
0
 62
     0
 10
818.80074906369998
 20
-182.6355792448
 30
0.0
 11
818.80074906369998
 21
-172.10780157299999
 31
0.0
  0
LINE
  5
100
  8
0
 62
     0
 10
818.80074906369998
 20
-182.6355792448
 30
0.0
 11
818.80074906369998
 21
-179.16335691660001
 31
0.0
  0
LINE
  5
101
  8
0
 62
     0
 10
818.80074906369998
 20
-182.6355792448
 30
0.0
 11
818.80074906369998
 21
-179.6355792448
 31
0.0
  0
SOLID
  5
102
  8
0
 62
     0
 10
818.80074906369998
 20
-182.6355792448
 30
0.0
 11
818.05074906369987
 21
-179.6355792448
 31
0.0
 12
819.55074906369998
 22
-179.6355792448
 32
0.0
 13
818.80074906369998
 23
-180.3855792448
 33
0.0
  0
LINE
  5
103
  8
0
 62
     0
 10
818.80074906369998
 20
-168.6355792448
 30
0.0
 11
818.80074906369998
 21
-171.6355792448
 31
0.0
  0
SOLID
  5
104
  8
0
 62
     0
 10
818.80074906369998
 20
-168.6355792448
 30
0.0
 11
819.55074906369998
 21
-171.6355792448
 31
0.0
 12
818.05074906369987
 22
-171.6355792448
 32
0.0
 13
818.80074906369998
 23
-170.8855792448
 33
0.0
  0
ENDBLK
  5
105
  8
0
  0
BLOCK
  8
0
  2
*D3
 70
     1
 10
0.0
 20
0.0
 30
0.0
  3
*D3
  1

  0
TEXT
  5
109
  8
0
 62
     0
 10
817.27158241289987
 20
-191.89946808069999
 30
0.0
 40
2.9986110209999999
  1
15
 50
90.0
  0
LINE
  5
10A
  8
0
 62
     0
 10
829.80074906369987
 20
-182.6355792448
 30
0.0
 11
818.30074906369987
 21
-182.6355792448
 31
0.0
  0
LINE
  5
10B
  8
0
 62
     0
 10
827.80074906369998
 20
-197.6355792448
 30
0.0
 11
818.30074906369987
 21
-197.6355792448
 31
0.0
  0
LINE
  5
10C
  8
0
 62
     0
 10
818.80074906369998
 20
-182.6355792448
 30
0.0
 11
818.80074906369998
 21
-186.60780157299999
 31
0.0
  0
LINE
  5
10D
  8
0
 62
     0
 10
818.80074906369998
 20
-182.6355792448
 30
0.0
 11
818.80074906369998
 21
-193.66335691660001
 31
0.0
  0
LINE
  5
10E
  8
0
 62
     0
 10
818.80074906369998
 20
-197.6355792448
 30
0.0
 11
818.80074906369998
 21
-186.60780157299999
 31
0.0
  0
LINE
  5
10F
  8
0
 62
     0
 10
818.80074906369998
 20
-197.6355792448
 30
0.0
 11
818.80074906369998
 21
-193.66335691660001
 31
0.0
  0
LINE
  5
110
  8
0
 62
     0
 10
818.80074906369998
 20
-197.6355792448
 30
0.0
 11
818.80074906369998
 21
-194.6355792448
 31
0.0
  0
SOLID
  5
111
  8
0
 62
     0
 10
818.80074906369998
 20
-197.6355792448
 30
0.0
 11
818.05074906369987
 21
-194.6355792448
 31
0.0
 12
819.55074906369998
 22
-194.6355792448
 32
0.0
 13
818.80074906369998
 23
-195.3855792448
 33
0.0
  0
LINE
  5
112
  8
0
 62
     0
 10
818.80074906369998
 20
-182.6355792448
 30
0.0
 11
818.80074906369998
 21
-185.6355792448
 31
0.0
  0
SOLID
  5
113
  8
0
 62
     0
 10
818.80074906369998
 20
-182.6355792448
 30
0.0
 11
819.55074906369998
 21
-185.6355792448
 31
0.0
 12
818.05074906369987
 22
-185.6355792448
 32
0.0
 13
818.80074906369998
 23
-184.8855792448
 33
0.0
  0
ENDBLK
  5
114
  8
0
  0
BLOCK
  8
0
  2
*D4
 70
     1
 10
0.0
 20
0.0
 30
0.0
  3
*D4
  1

  0
TEXT
  5
118
  8
0
 62
     0
 10
791.62004578050005
 20
-238.1170812348
 30
0.0
 40
2.9986110209999999
  1
8
 50
90.0
  0
LINE
  5
119
  8
0
 62
     0
 10
784.1492124312
 20
-252.30020594480001
 30
0.0
 11
793.6492124312
 21
-252.30020594480001
 31
0.0
  0
LINE
  5
11A
  8
0
 62
     0
 10
783.1492124312
 20
-244.30020594480001
 30
0.0
 11
793.6492124312
 21
-244.30020594480001
 31
0.0
  0
LINE
  5
11B
  8
0
 62
     0
 10
793.1492124312
 20
-252.30020594480001
 30
0.0
 11
793.1492124312
 21
-234.58930356299999
 31
0.0
  0
LINE
  5
11C
  8
0
 62
     0
 10
793.1492124312
 20
-252.30020594480001
 30
0.0
 11
793.1492124312
 21
-239.8809700708
 31
0.0
  0
LINE
  5
11D
  8
0
 62
     0
 10
793.1492124312
 20
-244.30020594480001
 30
0.0
 11
793.1492124312
 21
-234.58930356299999
 31
0.0
  0
LINE
  5
11E
  8
0
 62
     0
 10
793.1492124312
 20
-244.30020594480001
 30
0.0
 11
793.1492124312
 21
-239.8809700708
 31
0.0
  0
LINE
  5
11F
  8
0
 62
     0
 10
793.1492124312
 20
-244.30020594480001
 30
0.0
 11
793.1492124312
 21
-247.30020594480001
 31
0.0
  0
SOLID
  5
120
  8
0
 62
     0
 10
793.1492124312
 20
-244.30020594480001
 30
0.0
 11
793.8992124312
 21
-247.30020594480001
 31
0.0
 12
792.39921243119989
 22
-247.30020594480001
 32
0.0
 13
793.1492124312
 23
-246.55020594480001
 33
0.0
  0
LINE
  5
121
  8
0
 62
     0
 10
793.1492124312
 20
-252.30020594480001
 30
0.0
 11
793.1492124312
 21
-249.30020594480001
 31
0.0
  0
SOLID
  5
122
  8
0
 62
     0
 10
793.1492124312
 20
-252.30020594480001
 30
0.0
 11
792.39921243119989
 21
-249.30020594480001
 31
0.0
 12
793.8992124312
 22
-249.30020594480001
 32
0.0
 13
793.1492124312
 23
-250.05020594480001
 33
0.0
  0
ENDBLK
  5
123
  8
0
  0
BLOCK
  8
0
  2
*D5
 70
     1
 10
0.0
 20
0.0
 30
0.0
  3
*D5
  1

  0
TEXT
  5
127
  8
0
 62
     0
 10
735.62004578050005
 20
-254.0640947807
 30
0.0
 40
2.9986110209999999
  1
16
 50
90.0
  0
LINE
  5
128
  8
0
 62
     0
 10
746.1492124312
 20
-244.30020594480001
 30
0.0
 11
736.64921243119989
 21
-244.30020594480001
 31
0.0
  0
LINE
  5
129
  8
0
 62
     0
 10
746.1492124312
 20
-260.30020594479998
 30
0.0
 11
736.64921243119989
 21
-260.30020594479998
 31
0.0
  0
LINE
  5
12A
  8
0
 62
     0
 10
737.14921243119989
 20
-244.30020594480001
 30
0.0
 11
737.14921243119989
 21
-248.772428273
 31
0.0
  0
LINE
  5
12B
  8
0
 62
     0
 10
737.14921243119989
 20
-244.30020594480001
 30
0.0
 11
737.14921243119989
 21
-255.82798361659999
 31
0.0
  0
LINE
  5
12C
  8
0
 62
     0
 10
737.14921243119989
 20
-260.30020594479998
 30
0.0
 11
737.14921243119989
 21
-248.772428273
 31
0.0
  0
LINE
  5
12D
  8
0
 62
     0
 10
737.14921243119989
 20
-260.30020594479998
 30
0.0
 11
737.14921243119989
 21
-255.82798361659999
 31
0.0
  0
LINE
  5
12E
  8
0
 62
     0
 10
737.14921243119989
 20
-260.30020594479998
 30
0.0
 11
737.14921243119989
 21
-257.30020594479998
 31
0.0
  0
SOLID
  5
12F
  8
0
 62
     0
 10
737.14921243119989
 20
-260.30020594479998
 30
0.0
 11
736.3992124312
 21
-257.30020594479998
 31
0.0
 12
737.8992124312
 22
-257.30020594479998
 32
0.0
 13
737.14921243119989
 23
-258.05020594479998
 33
0.0
  0
LINE
  5
130
  8
0
 62
     0
 10
737.14921243119989
 20
-244.30020594480001
 30
0.0
 11
737.14921243119989
 21
-247.30020594480001
 31
0.0
  0
SOLID
  5
131
  8
0
 62
     0
 10
737.14921243119989
 20
-244.30020594480001
 30
0.0
 11
737.8992124312
 21
-247.30020594480001
 31
0.0
 12
736.3992124312
 22
-247.30020594480001
 32
0.0
 13
737.14921243119989
 23
-246.55020594480001
 33
0.0
  0
ENDBLK
  5
132
  8
0
  0
BLOCK
  8
0
  2
*D6
 70
     1
 10
0.0
 20
0.0
 30
0.0
  3
*D6
  1

  0
TEXT
  5
136
  8
0
 62
     0
 10
791.62004578050005
 20
-265.6366549924
 30
0.0
 40
2.9986110209999999
  1
8
 50
90.0
  0
LINE
  5
137
  8
0
 62
     0
 10
783.1492124312
 20
-260.30020594479998
 30
0.0
 11
793.6492124312
 21
-260.30020594479998
 31
0.0
  0
LINE
  5
138
  8
0
 62
     0
 10
784.1492124312
 20
-252.30020594480001
 30
0.0
 11
793.6492124312
 21
-252.30020594480001
 31
0.0
  0
LINE
  5
139
  8
0
 62
     0
 10
793.1492124312
 20
-260.30020594479998
 30
0.0
 11
793.1492124312
 21
-262.10887732060002
 31
0.0
  0
LINE
  5
13A
  8
0
 62
     0
 10
793.1492124312
 20
-260.30020594479998
 30
0.0
 11
793.1492124312
 21
-267.40054382829999
 31
0.0
  0
LINE
  5
13B
  8
0
 62
     0
 10
793.1492124312
 20
-252.30020594480001
 30
0.0
 11
793.1492124312
 21
-262.10887732060002
 31
0.0
  0
LINE
  5
13C
  8
0
 62
     0
 10
793.1492124312
 20
-252.30020594480001
 30
0.0
 11
793.1492124312
 21
-267.40054382829999
 31
0.0
  0
LINE
  5
13D
  8
0
 62
     0
 10
793.1492124312
 20
-252.30020594480001
 30
0.0
 11
793.1492124312
 21
-255.30020594480001
 31
0.0
  0
SOLID
  5
13E
  8
0
 62
     0
 10
793.1492124312
 20
-252.30020594480001
 30
0.0
 11
793.8992124312
 21
-255.30020594480001
 31
0.0
 12
792.39921243119989
 22
-255.30020594480001
 32
0.0
 13
793.1492124312
 23
-254.55020594480001
 33
0.0
  0
LINE
  5
13F
  8
0
 62
     0
 10
793.1492124312
 20
-260.30020594479998
 30
0.0
 11
793.1492124312
 21
-257.30020594479998
 31
0.0
  0
SOLID
  5
140
  8
0
 62
     0
 10
793.1492124312
 20
-260.30020594479998
 30
0.0
 11
792.39921243119989
 21
-257.30020594479998
 31
0.0
 12
793.8992124312
 22
-257.30020594479998
 32
0.0
 13
793.1492124312
 23
-258.05020594479998
 33
0.0
  0
ENDBLK
  5
141
  8
0
  0
BLOCK
  8
0
  2
*D7
 70
     1
 10
0.0
 20
0.0
 30
0.0
  3
*D7
  1

  0
TEXT
  5
145
  8
0
 62
     0
 10
767.38532359529995
 20
-232.77103929410001
 30
0.0
 40
2.9986110209999999
  1
14
  0
LINE
  5
146
  8
0
 62
     0
 10
776.1492124312
 20
-245.30020594480001
 30
0.0
 11
776.1492124312
 21
-233.80020594480001
 31
0.0
  0
LINE
  5
147
  8
0
 62
     0
 10
762.14921243119989
 20
-245.30020594480001
 30
0.0
 11
762.14921243119989
 21
-233.80020594480001
 31
0.0
  0
LINE
  5
148
  8
0
 62
     0
 10
776.1492124312
 20
-234.30020594480001
 30
0.0
 11
772.67699010299987
 21
-234.30020594480001
 31
0.0
  0
LINE
  5
149
  8
0
 62
     0
 10
776.1492124312
 20
-234.30020594480001
 30
0.0
 11
765.62143475940002
 21
-234.30020594480001
 31
0.0
  0
LINE
  5
14A
  8
0
 62
     0
 10
762.14921243119989
 20
-234.30020594480001
 30
0.0
 11
772.67699010299987
 21
-234.30020594480001
 31
0.0
  0
LINE
  5
14B
  8
0
 62
     0
 10
762.14921243119989
 20
-234.30020594480001
 30
0.0
 11
765.62143475940002
 21
-234.30020594480001
 31
0.0
  0
LINE
  5
14C
  8
0
 62
     0
 10
762.14921243119989
 20
-234.30020594480001
 30
0.0
 11
765.14921243119989
 21
-234.30020594480001
 31
0.0
  0
SOLID
  5
14D
  8
0
 62
     0
 10
762.14921243119989
 20
-234.30020594480001
 30
0.0
 11
765.14921243119989
 21
-233.55020594480001
 31
0.0
 12
765.14921243119989
 22
-235.05020594480001
 32
0.0
 13
764.39921243119989
 23
-234.30020594480001
 33
0.0
  0
LINE
  5
14E
  8
0
 62
     0
 10
776.1492124312
 20
-234.30020594480001
 30
0.0
 11
773.1492124312
 21
-234.30020594480001
 31
0.0
  0
SOLID
  5
14F
  8
0
 62
     0
 10
776.1492124312
 20
-234.30020594480001
 30
0.0
 11
773.1492124312
 21
-235.05020594480001
 31
0.0
 12
773.1492124312
 22
-233.55020594480001
 32
0.0
 13
773.8992124312
 23
-234.30020594480001
 33
0.0
  0
ENDBLK
  5
150
  8
0
  0
BLOCK
  8
0
  2
*D8
 70
     1
 10
0.0
 20
0.0
 30
0.0
  3
*D8
  1

  0
TEXT
  5
154
  8
0
 62
     0
 10
752.88532359529995
 20
-232.77103929410001
 30
0.0
 40
2.9986110209999999
  1
15
  0
LINE
  5
155
  8
0
 62
     0
 10
762.14921243119989
 20
-245.30020594480001
 30
0.0
 11
762.14921243119989
 21
-233.80020594480001
 31
0.0
  0
LINE
  5
156
  8
0
 62
     0
 10
747.1492124312
 20
-243.30020594480001
 30
0.0
 11
747.1492124312
 21
-233.80020594480001
 31
0.0
  0
LINE
  5
157
  8
0
 62
     0
 10
762.14921243119989
 20
-234.30020594480001
 30
0.0
 11
758.17699010299998
 21
-234.30020594480001
 31
0.0
  0
LINE
  5
158
  8
0
 62
     0
 10
762.14921243119989
 20
-234.30020594480001
 30
0.0
 11
751.12143475940002
 21
-234.30020594480001
 31
0.0
  0
LINE
  5
159
  8
0
 62
     0
 10
747.1492124312
 20
-234.30020594480001
 30
0.0
 11
758.17699010299998
 21
-234.30020594480001
 31
0.0
  0
LINE
  5
15A
  8
0
 62
     0
 10
747.1492124312
 20
-234.30020594480001
 30
0.0
 11
751.12143475940002
 21
-234.30020594480001
 31
0.0
  0
LINE
  5
15B
  8
0
 62
     0
 10
747.1492124312
 20
-234.30020594480001
 30
0.0
 11
750.1492124312
 21
-234.30020594480001
 31
0.0
  0
SOLID
  5
15C
  8
0
 62
     0
 10
747.1492124312
 20
-234.30020594480001
 30
0.0
 11
750.1492124312
 21
-233.55020594480001
 31
0.0
 12
750.1492124312
 22
-235.05020594480001
 32
0.0
 13
749.3992124312
 23
-234.30020594480001
 33
0.0
  0
LINE
  5
15D
  8
0
 62
     0
 10
762.14921243119989
 20
-234.30020594480001
 30
0.0
 11
759.1492124312
 21
-234.30020594480001
 31
0.0
  0
SOLID
  5
15E
  8
0
 62
     0
 10
762.14921243119989
 20
-234.30020594480001
 30
0.0
 11
759.1492124312
 21
-235.05020594480001
 31
0.0
 12
759.1492124312
 22
-233.55020594480001
 32
0.0
 13
759.89921243119989
 23
-234.30020594480001
 33
0.0
  0
ENDBLK
  5
15F
  8
0
  0
BLOCK
  8
0
  2
*D9
 70
     1
 10
0.0
 20
0.0
 30
0.0
  3
*D9
  1

  0
TEXT
  5
163
  8
0
 62
     0
 10
778.26726801330005
 20
-232.77103929410001
 30
0.0
 40
2.9986110209999999
  1
6
  0
LINE
  5
164
  8
0
 62
     0
 10
782.14921243119989
 20
-243.30020594480001
 30
0.0
 11
782.14921243119989
 21
-233.80020594480001
 31
0.0
  0
LINE
  5
165
  8
0
 62
     0
 10
776.1492124312
 20
-245.30020594480001
 30
0.0
 11
776.1492124312
 21
-233.80020594480001
 31
0.0
  0
LINE
  5
166
  8
0
 62
     0
 10
782.14921243119989
 20
-234.30020594480001
 30
0.0
 11
781.79504568509992
 21
-234.30020594480001
 31
0.0
  0
LINE
  5
167
  8
0
 62
     0
 10
782.14921243119989
 20
-234.30020594480001
 30
0.0
 11
776.50337917739989
 21
-234.30020594480001
 31
0.0
  0
LINE
  5
168
  8
0
 62
     0
 10
776.1492124312
 20
-234.30020594480001
 30
0.0
 11
781.79504568509992
 21
-234.30020594480001
 31
0.0
  0
LINE
  5
169
  8
0
 62
     0
 10
776.1492124312
 20
-234.30020594480001
 30
0.0
 11
776.50337917739989
 21
-234.30020594480001
 31
0.0
  0
LINE
  5
16A
  8
0
 62
     0
 10
776.1492124312
 20
-234.30020594480001
 30
0.0
 11
773.1492124312
 21
-234.30020594480001
 31
0.0
  0
SOLID
  5
16B
  8
0
 62
     0
 10
776.1492124312
 20
-234.30020594480001
 30
0.0
 11
773.1492124312
 21
-235.05020594480001
 31
0.0
 12
773.1492124312
 22
-233.55020594480001
 32
0.0
 13
773.8992124312
 23
-234.30020594480001
 33
0.0
  0
LINE
  5
16C
  8
0
 62
     0
 10
782.14921243119989
 20
-234.30020594480001
 30
0.0
 11
785.1492124312
 21
-234.30020594480001
 31
0.0
  0
SOLID
  5
16D
  8
0
 62
     0
 10
782.14921243119989
 20
-234.30020594480001
 30
0.0
 11
785.1492124312
 21
-233.55020594480001
 31
0.0
 12
785.1492124312
 22
-235.05020594480001
 32
0.0
 13
784.39921243119989
 23
-234.30020594480001
 33
0.0
  0
ENDBLK
  5
16E
  8
0
  0
BLOCK
  8
0
  2
*D10
 70
     1
 10
0.0
 20
0.0
 30
0.0
  3
*D10
  1

  0
TEXT
  5
173
  8
0
 62
     0
 10
765.20061330749991
 20
-179.31519123059999
 30
0.0
 40
2.9986110209999999
  1
90%%d
 50
308.43094384540001
  0
ARC
  5
174
  8
0
 62
     0
 10
750.1492124312
 20
-194.6355792448
 30
0.0
 40
19.725841494800001
 50
77.619694772900004
 51
90.0
  0
ARC
  5
175
  8
0
 62
     0
 10
750.1492124312
 20
-194.6355792448
 30
0.0
 40
19.725841494800001
 50
0.0
 51
12.380305227099999
  0
SOLID
  5
176
  8
0
 62
     0
 10
769.87505392599996
 20
-194.6355792448
 30
0.0
 11
770.62505392599996
 21
-197.6355792448
 31
0.0
 12
769.12505392600008
 22
-197.6355792448
 32
0.0
 13
769.87505392599996
 23
-196.8855792448
 33
0.0
  0
SOLID
  5
177
  8
0
 62
     0
 10
750.1492124312
 20
-174.90973775009999
 30
0.0
 11
747.1492124312
 21
-175.65973775009999
 31
0.0
 12
747.1492124312
 22
-174.15973775009999
 32
0.0
 13
747.8992124312
 23
-174.90973775009999
 33
0.0
  0
ARC
  5
178
  8
0
 62
     0
 10
750.1492124312
 20
-194.6355792448
 30
0.0
 40
19.725841494800001
 50
0.0
 51
25.377923530499999
  0
ARC
  5
179
  8
0
 62
     0
 10
750.1492124312
 20
-194.6355792448
 30
0.0
 40
19.725841494800001
 50
51.483964160399999
 51
90.0
  0
LINE
  5
17A
  8
0
 62
     0
 10
780.1492124312
 20
-194.6355792448
 30
0.0
 11
767.87505392600008
 21
-194.6355792448
 31
0.0
  0
LINE
  5
17B
  8
0
 62
     0
 10
750.1492124312
 20
-164.6355792448
 30
0.0
 11
750.1492124312
 21
-176.90973775009999
 31
0.0
  0
ENDBLK
  5
17C
  8
0
  0
BLOCK
  8
0
  2
*D11
 70
     1
 10
0.0
 20
0.0
 30
0.0
  3
*D11
  1

  0
TEXT
  5
180
  8
0
 62
     0
 10
729.26448929239996
 20
-181.89946808069999
 30
0.0
 40
2.9986110209999999
  1
35
 50
90.0
  0
LINE
  5
181
  8
0
 62
     0
 10
746.1492124312
 20
-162.6355792448
 30
0.0
 11
730.29365594320006
 21
-162.6355792448
 31
0.0
  0
LINE
  5
182
  8
0
 62
     0
 10
746.1492124312
 20
-197.6355792448
 30
0.0
 11
730.29365594320006
 21
-197.6355792448
 31
0.0
  0
LINE
  5
183
  8
0
 62
     0
 10
730.79365594319995
 20
-162.6355792448
 30
0.0
 11
730.79365594319995
 21
-176.60780157299999
 31
0.0
  0
LINE
  5
184
  8
0
 62
     0
 10
730.79365594319995
 20
-162.6355792448
 30
0.0
 11
730.79365594319995
 21
-183.66335691660001
 31
0.0
  0
LINE
  5
185
  8
0
 62
     0
 10
730.79365594319995
 20
-197.6355792448
 30
0.0
 11
730.79365594319995
 21
-176.60780157299999
 31
0.0
  0
LINE
  5
186
  8
0
 62
     0
 10
730.79365594319995
 20
-197.6355792448
 30
0.0
 11
730.79365594319995
 21
-183.66335691660001
 31
0.0
  0
LINE
  5
187
  8
0
 62
     0
 10
730.79365594319995
 20
-197.6355792448
 30
0.0
 11
730.79365594319995
 21
-194.6355792448
 31
0.0
  0
SOLID
  5
188
  8
0
 62
     0
 10
730.79365594319995
 20
-197.6355792448
 30
0.0
 11
730.04365594319995
 21
-194.6355792448
 31
0.0
 12
731.54365594320006
 22
-194.6355792448
 32
0.0
 13
730.79365594319995
 23
-195.3855792448
 33
0.0
  0
LINE
  5
189
  8
0
 62
     0
 10
730.79365594319995
 20
-162.6355792448
 30
0.0
 11
730.79365594319995
 21
-165.6355792448
 31
0.0
  0
SOLID
  5
18A
  8
0
 62
     0
 10
730.79365594319995
 20
-162.6355792448
 30
0.0
 11
731.54365594320006
 21
-165.6355792448
 31
0.0
 12
730.04365594319995
 22
-165.6355792448
 32
0.0
 13
730.79365594319995
 23
-164.8855792448
 33
0.0
  0
ENDBLK
  5
18B
  8
0
  0
BLOCK
  8
0
  2
*D12
 70
     1
 10
0.0
 20
0.0
 30
0.0
  3
*D12
  1

  0
TEXT
  5
18F
  8
0
 62
     0
 10
762.88532359529995
 20
-206.10641259409999
 30
0.0
 40
2.9986110209999999
  1
35
  0
LINE
  5
190
  8
0
 62
     0
 10
747.1492124312
 20
-195.6355792448
 30
0.0
 11
747.1492124312
 21
-208.1355792448
 31
0.0
  0
LINE
  5
191
  8
0
 62
     0
 10
782.14921243119989
 20
-198.6355792448
 30
0.0
 11
782.14921243119989
 21
-208.1355792448
 31
0.0
  0
LINE
  5
192
  8
0
 62
     0
 10
747.1492124312
 20
-207.6355792448
 30
0.0
 11
768.17699010299998
 21
-207.6355792448
 31
0.0
  0
LINE
  5
193
  8
0
 62
     0
 10
747.1492124312
 20
-207.6355792448
 30
0.0
 11
761.12143475940002
 21
-207.6355792448
 31
0.0
  0
LINE
  5
194
  8
0
 62
     0
 10
782.14921243119989
 20
-207.6355792448
 30
0.0
 11
768.17699010299998
 21
-207.6355792448
 31
0.0
  0
LINE
  5
195
  8
0
 62
     0
 10
782.14921243119989
 20
-207.6355792448
 30
0.0
 11
761.12143475940002
 21
-207.6355792448
 31
0.0
  0
LINE
  5
196
  8
0
 62
     0
 10
782.14921243119989
 20
-207.6355792448
 30
0.0
 11
779.1492124312
 21
-207.6355792448
 31
0.0
  0
SOLID
  5
197
  8
0
 62
     0
 10
782.14921243119989
 20
-207.6355792448
 30
0.0
 11
779.1492124312
 21
-208.3855792448
 31
0.0
 12
779.1492124312
 22
-206.8855792448
 32
0.0
 13
779.89921243119989
 23
-207.6355792448
 33
0.0
  0
LINE
  5
198
  8
0
 62
     0
 10
747.1492124312
 20
-207.6355792448
 30
0.0
 11
750.1492124312
 21
-207.6355792448
 31
0.0
  0
SOLID
  5
199
  8
0
 62
     0
 10
747.1492124312
 20
-207.6355792448
 30
0.0
 11
750.1492124312
 21
-206.8855792448
 31
0.0
 12
750.1492124312
 22
-208.3855792448
 32
0.0
 13
749.3992124312
 23
-207.6355792448
 33
0.0
  0
ENDBLK
  5
19A
  8
0
  0
BLOCK
  8
0
  2
*D13
 70
     1
 10
0.0
 20
0.0
 30
0.0
  3
*D13
  1

  0
TEXT
  5
19E
  8
0
 62
     0
 10
752.50171702449995
 20
-145.54228296439999
 30
0.0
 40
2.9986110209999999
  1
3t
  0
LINE
  5
19F
  8
0
 62
     0
 10
750.1492124312
 20
-161.6355792448
 30
0.0
 11
750.1492124312
 21
-146.57144961520001
 31
0.0
  0
LINE
  5
1A0
  8
0
 62
     0
 10
747.1492124312
 20
-161.6355792448
 30
0.0
 11
747.1492124312
 21
-146.57144961520001
 31
0.0
  0
LINE
  5
1A1
  8
0
 62
     0
 10
750.1492124312
 20
-147.07144961520001
 30
0.0
 11
757.79338353219987
 21
-147.07144961520001
 31
0.0
  0
LINE
  5
1A2
  8
0
 62
     0
 10
750.1492124312
 20
-147.07144961520001
 30
0.0
 11
750.73782818859991
 21
-147.07144961520001
 31
0.0
  0
LINE
  5
1A3
  8
0
 62
     0
 10
747.1492124312
 20
-147.07144961520001
 30
0.0
 11
757.79338353219987
 21
-147.07144961520001
 31
0.0
  0
LINE
  5
1A4
  8
0
 62
     0
 10
747.1492124312
 20
-147.07144961520001
 30
0.0
 11
750.73782818859991
 21
-147.07144961520001
 31
0.0
  0
LINE
  5
1A5
  8
0
 62
     0
 10
747.1492124312
 20
-147.07144961520001
 30
0.0
 11
744.1492124312
 21
-147.07144961520001
 31
0.0
  0
SOLID
  5
1A6
  8
0
 62
     0
 10
747.1492124312
 20
-147.07144961520001
 30
0.0
 11
744.1492124312
 21
-147.82144961520001
 31
0.0
 12
744.1492124312
 22
-146.32144961520001
 32
0.0
 13
744.8992124312
 23
-147.07144961520001
 33
0.0
  0
LINE
  5
1A7
  8
0
 62
     0
 10
750.1492124312
 20
-147.07144961520001
 30
0.0
 11
753.14921243119989
 21
-147.07144961520001
 31
0.0
  0
SOLID
  5
1A8
  8
0
 62
     0
 10
750.1492124312
 20
-147.07144961520001
 30
0.0
 11
753.14921243119989
 21
-146.32144961520001
 31
0.0
 12
753.14921243119989
 22
-147.82144961520001
 32
0.0
 13
752.3992124312
 23
-147.07144961520001
 33
0.0
  0
ENDBLK
  5
1A9
  8
0
  0
BLOCK
  8
0
  2
*D14
 70
     1
 10
0.0
 20
0.0
 30
0.0
  3
*D14
  1

  0
TEXT
  5
1AD
  8
0
 62
     0
 10
919.59161992969996
 20
-194.55443299509989
 30
0.0
 40
2.9986110209999999
  1
%%c8
  0
LINE
  5
1AE
  8
0
 62
     0
 10
942.23745318349995
 20
-209.13810861420001
 30
0.0
 11
942.23745318349995
 21
-195.58359964589999
 31
0.0
  0
LINE
  5
1AF
  8
0
 62
     0
 10
902.23745318349995
 20
-209.13810861420001
 30
0.0
 11
902.23745318349995
 21
-195.58359964589999
 31
0.0
  0
LINE
  5
1B0
  8
0
 62
     0
 10
942.23745318349995
 20
-196.08359964589999
 30
0.0
 11
926.64717527330004
 21
-196.08359964589999
 31
0.0
  0
LINE
  5
1B1
  8
0
 62
     0
 10
942.23745318349995
 20
-196.08359964589999
 30
0.0
 11
917.82773109380003
 21
-196.08359964589999
 31
0.0
  0
LINE
  5
1B2
  8
0
 62
     0
 10
902.23745318349995
 20
-196.08359964589999
 30
0.0
 11
926.64717527330004
 21
-196.08359964589999
 31
0.0
  0
LINE
  5
1B3
  8
0
 62
     0
 10
902.23745318349995
 20
-196.08359964589999
 30
0.0
 11
917.82773109380003
 21
-196.08359964589999
 31
0.0
  0
LINE
  5
1B4
  8
0
 62
     0
 10
902.23745318349995
 20
-196.08359964589999
 30
0.0
 11
905.23745318350007
 21
-196.08359964589999
 31
0.0
  0
SOLID
  5
1B5
  8
0
 62
     0
 10
902.23745318349995
 20
-196.08359964589999
 30
0.0
 11
905.23745318350007
 21
-195.33359964589999
 31
0.0
 12
905.23745318350007
 22
-196.83359964589999
 32
0.0
 13
904.48745318350007
 23
-196.08359964589999
 33
0.0
  0
LINE
  5
1B6
  8
0
 62
     0
 10
942.23745318349995
 20
-196.08359964589999
 30
0.0
 11
939.23745318350007
 21
-196.08359964589999
 31
0.0
  0
SOLID
  5
1B7
  8
0
 62
     0
 10
942.23745318349995
 20
-196.08359964589999
 30
0.0
 11
939.23745318350007
 21
-196.83359964589999
 31
0.0
 12
939.23745318350007
 22
-195.33359964589999
 32
0.0
 13
939.98745318350007
 23
-196.08359964589999
 33
0.0
  0
ENDBLK
  5
1B8
  8
0
  0
BLOCK
  8
0
  2
*D15
 70
     1
 10
0.0
 20
0.0
 30
0.0
  3
*D15
  1

  0
TEXT
  5
1BC
  8
0
 62
     0
 10
919.59161992969996
 20
-236.82392113009999
 30
0.0
 40
2.9986110209999999
  1
%%c4
  0
LINE
  5
1BD
  8
0
 62
     0
 10
912.23745318350007
 20
-226.13810861420001
 30
0.0
 11
912.23745318350007
 21
-238.85308778090001
 31
0.0
  0
LINE
  5
1BE
  8
0
 62
     0
 10
932.23745318349995
 20
-226.13810861420001
 30
0.0
 11
932.23745318349995
 21
-238.85308778090001
 31
0.0
  0
LINE
  5
1BF
  8
0
 62
     0
 10
912.23745318350007
 20
-238.35308778090001
 30
0.0
 11
926.64717527330004
 21
-238.35308778090001
 31
0.0
  0
LINE
  5
1C0
  8
0
 62
     0
 10
912.23745318350007
 20
-238.35308778090001
 30
0.0
 11
917.82773109380003
 21
-238.35308778090001
 31
0.0
  0
LINE
  5
1C1
  8
0
 62
     0
 10
932.23745318349995
 20
-238.35308778090001
 30
0.0
 11
926.64717527330004
 21
-238.35308778090001
 31
0.0
  0
LINE
  5
1C2
  8
0
 62
     0
 10
932.23745318349995
 20
-238.35308778090001
 30
0.0
 11
917.82773109380003
 21
-238.35308778090001
 31
0.0
  0
LINE
  5
1C3
  8
0
 62
     0
 10
932.23745318349995
 20
-238.35308778090001
 30
0.0
 11
929.23745318350007
 21
-238.35308778090001
 31
0.0
  0
SOLID
  5
1C4
  8
0
 62
     0
 10
932.23745318349995
 20
-238.35308778090001
 30
0.0
 11
929.23745318350007
 21
-239.10308778090001
 31
0.0
 12
929.23745318350007
 22
-237.60308778090001
 32
0.0
 13
929.98745318349995
 23
-238.35308778090001
 33
0.0
  0
LINE
  5
1C5
  8
0
 62
     0
 10
912.23745318350007
 20
-238.35308778090001
 30
0.0
 11
915.23745318349995
 21
-238.35308778090001
 31
0.0
  0
SOLID
  5
1C6
  8
0
 62
     0
 10
912.23745318350007
 20
-238.35308778090001
 30
0.0
 11
915.23745318349995
 21
-237.60308778090001
 31
0.0
 12
915.23745318349995
 22
-239.10308778090001
 32
0.0
 13
914.48745318349995
 23
-238.35308778090001
 33
0.0
  0
ENDBLK
  5
1C7
  8
0
  0
BLOCK
  8
0
  2
*D16
 70
     1
 10
0.0
 20
0.0
 30
0.0
  3
*D16
  1

  0
TEXT
  5
1CB
  8
0
 62
     0
 10
919.59161992969996
 20
-185.378739975
 30
0.0
 40
2.9986110209999999
  1
90%%d
  0
ARC
  5
1CC
  8
0
 62
     0
 10
922.23745318350007
 20
-230.13810861420001
 30
0.0
 40
43.171868686899998
 50
130.1369976529999
 51
135.0
  0
ARC
  5
1CD
  8
0
 62
     0
 10
922.23745318350007
 20
-230.13810861420001
 30
0.0
 40
43.171868686899998
 50
45.0
 51
49.863002346999991
  0
SOLID
  5
1CE
  8
0
 62
     0
 10
952.76457428850006
 20
-199.6109875093
 30
0.0
 11
955.41622471799997
 21
-201.2019777669
 31
0.0
 12
954.35556454619984
 22
-202.26263793870001
 32
0.0
 13
954.35556454619984
 23
-201.2019777669
 33
0.0
  0
SOLID
  5
1CF
  8
0
 62
     0
 10
891.71033207850007
 20
-199.6109875093
 30
0.0
 11
890.11934182089999
 21
-202.26263793870001
 31
0.0
 12
889.05868164909998
 22
-201.2019777669
 32
0.0
 13
890.11934182089999
 23
-201.2019777669
 33
0.0
  0
ARC
  5
1D0
  8
0
 62
     0
 10
922.23745318350007
 20
-230.13810861420001
 30
0.0
 40
43.171868686899998
 50
45.0
 51
84.071626409200007
  0
ARC
  5
1D1
  8
0
 62
     0
 10
922.23745318350007
 20
-230.13810861420001
 30
0.0
 40
43.171868686899998
 50
95.928373590799978
 51
135.0
  0
LINE
  5
1D2
  8
0
 62
     0
 10
943.65166674590012
 20
-208.7238950519
 30
0.0
 11
954.17878785089999
 21
-198.19677394690001
 31
0.0
  0
LINE
  5
1D3
  8
0
 62
     0
 10
900.8232396210999
 20
-208.7238950519
 30
0.0
 11
890.29611851619984
 21
-198.19677394690001
 31
0.0
  0
ENDBLK
  5
1D4
  8
0
  0
BLOCK
  8
0
  2
*D17
 70
     1
 10
0.0
 20
0.0
 30
0.0
  3
*D17
  1

  0
TEXT
  5
1F9
  8
0
 62
     0
 10
835.03686022779993
 20
-142.9535147624
 30
0.0
 40
2.9986110209999999
  1
16
  0
LINE
  5
1FA
  8
0
 62
     0
 10
844.80074906369987
 20
-161.6355792448
 30
0.0
 11
844.80074906369987
 21
-143.9826814132
 31
0.0
  0
LINE
  5
1FB
  8
0
 62
     0
 10
828.80074906369987
 20
-161.6355792448
 30
0.0
 11
828.80074906369987
 21
-143.9826814132
 31
0.0
  0
LINE
  5
1FC
  8
0
 62
     0
 10
844.80074906369987
 20
-144.4826814132
 30
0.0
 11
840.32852673549996
 21
-144.4826814132
 31
0.0
  0
LINE
  5
1FD
  8
0
 62
     0
 10
844.80074906369987
 20
-144.4826814132
 30
0.0
 11
833.2729713919
 21
-144.4826814132
 31
0.0
  0
LINE
  5
1FE
  8
0
 62
     0
 10
828.80074906369987
 20
-144.4826814132
 30
0.0
 11
840.32852673549996
 21
-144.4826814132
 31
0.0
  0
LINE
  5
1FF
  8
0
 62
     0
 10
828.80074906369987
 20
-144.4826814132
 30
0.0
 11
833.2729713919
 21
-144.4826814132
 31
0.0
  0
LINE
  5
200
  8
0
 62
     0
 10
828.80074906369987
 20
-144.4826814132
 30
0.0
 11
831.80074906369987
 21
-144.4826814132
 31
0.0
  0
SOLID
  5
201
  8
0
 62
     0
 10
828.80074906369987
 20
-144.4826814132
 30
0.0
 11
831.80074906369987
 21
-143.7326814132
 31
0.0
 12
831.80074906369987
 22
-145.2326814132
 32
0.0
 13
831.05074906369998
 23
-144.4826814132
 33
0.0
  0
LINE
  5
202
  8
0
 62
     0
 10
844.80074906369987
 20
-144.4826814132
 30
0.0
 11
841.80074906369998
 21
-144.4826814132
 31
0.0
  0
SOLID
  5
203
  8
0
 62
     0
 10
844.80074906369987
 20
-144.4826814132
 30
0.0
 11
841.80074906369998
 21
-145.2326814132
 31
0.0
 12
841.80074906369998
 22
-143.7326814132
 32
0.0
 13
842.55074906369987
 23
-144.4826814132
 33
0.0
  0
ENDBLK
  5
204
  8
0
  0
BLOCK
  8
0
  2
*D18
 70
     1
 10
0.0
 20
0.0
 30
0.0
  3
*D18
  1

  0
TEXT
  5
208
  8
0
 62
     0
 10
820.93047901929981
 20
-151.10641259409999
 30
0.0
 40
2.9986110209999999
  1
8
  0
LINE
  5
209
  8
0
 62
     0
 10
836.80074906369987
 20
-161.6355792448
 30
0.0
 11
836.80074906369987
 21
-152.1355792448
 31
0.0
  0
LINE
  5
20A
  8
0
 62
     0
 10
828.80074906369987
 20
-161.6355792448
 30
0.0
 11
828.80074906369987
 21
-152.1355792448
 31
0.0
  0
LINE
  5
20B
  8
0
 62
     0
 10
836.80074906369987
 20
-152.6355792448
 30
0.0
 11
824.45825669110013
 21
-152.6355792448
 31
0.0
  0
LINE
  5
20C
  8
0
 62
     0
 10
836.80074906369987
 20
-152.6355792448
 30
0.0
 11
819.16659018339988
 21
-152.6355792448
 31
0.0
  0
LINE
  5
20D
  8
0
 62
     0
 10
828.80074906369987
 20
-152.6355792448
 30
0.0
 11
824.45825669110013
 21
-152.6355792448
 31
0.0
  0
LINE
  5
20E
  8
0
 62
     0
 10
828.80074906369987
 20
-152.6355792448
 30
0.0
 11
819.16659018339988
 21
-152.6355792448
 31
0.0
  0
LINE
  5
20F
  8
0
 62
     0
 10
828.80074906369987
 20
-152.6355792448
 30
0.0
 11
831.80074906369987
 21
-152.6355792448
 31
0.0
  0
SOLID
  5
210
  8
0
 62
     0
 10
828.80074906369987
 20
-152.6355792448
 30
0.0
 11
831.80074906369987
 21
-151.8855792448
 31
0.0
 12
831.80074906369987
 22
-153.3855792448
 32
0.0
 13
831.05074906369998
 23
-152.6355792448
 33
0.0
  0
LINE
  5
211
  8
0
 62
     0
 10
836.80074906369987
 20
-152.6355792448
 30
0.0
 11
833.80074906369998
 21
-152.6355792448
 31
0.0
  0
SOLID
  5
212
  8
0
 62
     0
 10
836.80074906369987
 20
-152.6355792448
 30
0.0
 11
833.80074906369998
 21
-153.3855792448
 31
0.0
 12
833.80074906369998
 22
-151.8855792448
 32
0.0
 13
834.55074906369998
 23
-152.6355792448
 33
0.0
  0
ENDBLK
  5
213
  8
0
  0
BLOCK
  8
0
  2
*U19
 70
     1
 10
0.0
 20
0.0
 30
0.0
  3
*U19
  1

  0
TEXT
  5
260
  8
図枠
  6
CONTINUOUS
 10
881.15251639473172
 20
-129.3170627856386
 30
0.0
 40
2.6987499594999989
  1
副番
  0
ENDBLK
  5
262
  8
0
  0
BLOCK
  8
0
  2
*U20
 70
     1
 10
0.0
 20
0.0
 30
0.0
  3
*U20
  1

  0
TEXT
  5
264
  8
図枠
  6
CONTINUOUS
 10
954.52915664751981
 20
-129.37185973913091
 30
0.0
 40
2.6987499594999989
  1
改訂者
  0
ENDBLK
  5
266
  8
0
  0
BLOCK
  8
0
  2
*U21
 70
     1
 10
0.0
 20
0.0
 30
0.0
  3
*U21
  1

  0
TEXT
  5
268
  8
図枠
  6
CONTINUOUS
 10
964.48805893240046
 20
-129.3855589775041
 30
0.0
 40
2.6987499594999989
  1
検認者
  0
ENDBLK
  5
26A
  8
0
  0
BLOCK
  8
0
  2
*U22
 70
     1
 10
0.0
 20
0.0
 30
0.0
  3
*U22
  1

  0
TEXT
  5
26C
  8
図枠
  6
CONTINUOUS
 10
864.71462611562879
 20
-297.4141508033
 30
0.0
 40
2.337499999999999
  1
H16.4
  0
ENDBLK
  5
26E
  8
0
  0
BLOCK
  8
0
  2
*U23
 70
     1
 10
0.0
 20
0.0
 30
0.0
  3
*U23
  1

  0
TEXT
  5
270
  8
図枠
  6
CONTINUOUS
 10
917.33889652401706
 20
-277.68274171862078
 30
0.0
 40
2.804999959499999
  1
板　　厚
  0
ENDBLK
  5
272
  8
0
  0
BLOCK
  8
0
  2
*U24
 70
     1
 10
0.0
 20
0.0
 30
0.0
  3
*U24
  1

  0
TEXT
  5
274
  8
図枠
  6
CONTINUOUS
 10
917.46034964700198
 20
-129.37185973913091
 30
0.0
 40
2.6987499594999989
  1
改　訂　内　容
  0
ENDBLK
  5
276
  8
0
  0
BLOCK
  8
0
  2
*U25
 70
     1
 10
0.0
 20
0.0
 30
0.0
  3
*U25
  1

  0
TEXT
  5
278
  8
図枠
  6
CONTINUOUS
 10
891.3853146446022
 20
-129.34446126238481
 30
0.0
 40
2.6987499594999989
  1
改訂日
  0
ENDBLK
  5
27A
  8
0
  0
BLOCK
  8
0
  2
*U26
 70
     1
 10
0.0
 20
0.0
 30
0.0
  3
*U26
  1

  0
TEXT
  5
27C
  8
図枠
  6
CONTINUOUS
 10
883.35009565877601
 20
-293.28280562563498
 30
0.0
 40
2.337499999999999
  1
尺 　度
  0
ENDBLK
  5
27E
  8
0
  0
BLOCK
  8
0
  2
*U27
 70
     1
 10
0.0
 20
0.0
 30
0.0
  3
*U27
  1

  0
TEXT
  5
280
  8
図枠
  6
CONTINUOUS
 10
888.52937865369995
 20
-306.04467110786862
 30
0.0
 40
2.337499999999999
  1
 検図
  0
ENDBLK
  5
282
  8
0
  0
BLOCK
  8
0
  2
*U28
 70
     1
 10
0.0
 20
0.0
 30
0.0
  3
*U28
  1

  0
TEXT
  5
284
  8
図枠
  6
CONTINUOUS
 10
861.37449297020362
 20
-277.62578740472242
 30
0.0
 40
2.804999959499999
  1
材　　質
  0
ENDBLK
  5
286
  8
0
  0
BLOCK
  8
0
  2
*U29
 70
     1
 10
0.0
 20
0.0
 30
0.0
  3
*U29
  1

  0
TEXT
  5
288
  8
図枠
  6
CONTINUOUS
 10
939.82497065013195
 20
-295.90915593172241
 30
0.0
 40
2.9986110209999999
  1
Ｌ型アングル
  0
ENDBLK
  5
28A
  8
0
  0
BLOCK
  8
0
  2
*U30
 70
     1
 10
0.0
 20
0.0
 30
0.0
  3
*U30
  1

  0
TEXT
  5
28C
  8
図枠
  6
CONTINUOUS
 10
903.92227205471534
 20
-301.72347821446749
 30
0.0
 40
2.337499999999999
  1
園 原
  0
ENDBLK
  5
28E
  8
0
  0
BLOCK
  8
0
  2
*U31
 70
     1
 10
0.0
 20
0.0
 30
0.0
  3
*U31
  1

  0
TEXT
  5
290
  8
図枠
  6
CONTINUOUS
 10
918.8069484506542
 20
-310.029810289301
 30
0.0
 40
2.337499999999999
  1
図　番
  0
ENDBLK
  5
292
  8
0
  0
BLOCK
  8
0
  2
*U32
 70
     1
 10
0.0
 20
0.0
 30
0.0
  3
*U32
  1

  0
TEXT
  5
294
  8
図枠
  6
CONTINUOUS
 10
918.7535537806034
 20
-293.07727221823501
 30
0.0
 40
2.337499999999999
  1
製品名
  0
ENDBLK
  5
296
  8
0
  0
BLOCK
  8
0
  2
*U33
 70
     1
 10
0.0
 20
0.0
 30
0.0
  3
*U33
  1

  0
TEXT
  5
298
  8
図枠
  6
CONTINUOUS
 10
895.73133341309847
 20
-288.68274171862089
 30
0.0
 40
2.804999959499999
  1
指定無き公差はJIS 0408-Bによること
  0
ENDBLK
  5
29A
  8
0
  0
BLOCK
  8
0
  2
*U34
 70
     1
 10
0.0
 20
0.0
 30
0.0
  3
*U34
  1

  0
TEXT
  5
29C
  8
図枠
  6
CONTINUOUS
 10
885.64013372984198
 20
-297.4141508033
 30
0.0
 40
2.337499999999999
  1
1：1
  0
ENDBLK
  5
29E
  8
0
  0
BLOCK
  8
0
  2
*U35
 70
     1
 10
0.0
 20
0.0
 30
0.0
  3
*U35
  1

  0
TEXT
  5
2A0
  8
図枠
  6
CONTINUOUS
 10
888.26947691468729
 20
-277.46972841690001
 30
0.0
 40
2.9986110209999999
  1
SUS304-HL
  0
ENDBLK
  5
2A2
  8
0
  0
BLOCK
  8
0
  2
*U36
 70
     1
 10
0.0
 20
0.0
 30
0.0
  3
*U36
  1

  0
TEXT
  5
2A4
  8
図枠
  6
CONTINUOUS
 10
888.52937865369995
 20
-301.77094014340162
 30
0.0
 40
2.337499999999999
  1
 照査
  0
ENDBLK
  5
2A6
  8
0
  0
BLOCK
  8
0
  2
*U37
 70
     1
 10
0.0
 20
0.0
 30
0.0
  3
*U37
  1

  0
TEXT
  5
2A8
  8
図枠
  6
CONTINUOUS
 10
859.93083804456285
 20
-306.03280562563498
 30
0.0
 40
2.337499999999999
  1
製図
  0
ENDBLK
  5
2AA
  8
0
  0
BLOCK
  8
0
  2
*U38
 70
     1
 10
0.0
 20
0.0
 30
0.0
  3
*U38
  1

  0
TEXT
  5
2AC
  8
図枠
  6
CONTINUOUS
 10
903.92227205471534
 20
-305.97347821446749
 30
0.0
 40
2.337499999999999
  1
園 原
  0
ENDBLK
  5
2AE
  8
0
  0
BLOCK
  8
0
  2
*U39
 70
     1
 10
0.0
 20
0.0
 30
0.0
  3
*U39
  1

  0
TEXT
  5
2B0
  8
図枠
  6
CONTINUOUS
 10
949.86481017799929
 20
-277.70111735540002
 30
0.0
 40
3.2299999594999989
  1
3.0t
  0
ENDBLK
  5
2B2
  8
0
  0
BLOCK
  8
0
  2
*U40
 70
     1
 10
0.0
 20
0.0
 30
0.0
  3
*U40
  1

  0
TEXT
  5
2B4
  8
図枠
  6
CONTINUOUS
 10
935.82174883021844
 20
-312.6047284169
 30
0.0
 40
2.9986110209999999
  1
ＳＲＫ０００７０
  0
ENDBLK
  5
2B6
  8
0
  0
BLOCK
  8
0
  2
*U41
 70
     1
 10
0.0
 20
0.0
 30
0.0
  3
*U41
  1

  0
TEXT
  5
2B8
  8
図枠
  6
CONTINUOUS
 10
862.74993237850003
 20
-313.40689084746651
 30
0.0
 40
4.3179999351999987
  1
株式会社
  0
ENDBLK
  5
2BA
  8
0
  0
BLOCK
  8
0
  2
*U42
 70
     1
 10
0.0
 20
0.0
 30
0.0
  3
*U42
  1

  0
TEXT
  5
2BC
  8
図枠
  6
CONTINUOUS
 10
863.59927078567966
 20
-293.21161273223402
 30
0.0
 40
2.337499999999999
  1
日 　付
  0
ENDBLK
  5
2BE
  8
0
  0
BLOCK
  8
0
  2
*U43
 70
     1
 10
0.0
 20
0.0
 30
0.0
  3
*U43
  1

  0
TEXT
  5
2C0
  8
図枠
  6
CONTINUOUS
 10
932.81552712134771
 20
-304.16561391986448
 30
0.0
 40
2.9986110209999999
  1
LS-101 35x35 承認図
  0
ENDBLK
  5
2C2
  8
0
  0
BLOCK
  8
0
  2
*U44
 70
     1
 10
0.0
 20
0.0
 30
0.0
  3
*U44
  1

  0
TEXT
  5
2C4
  8
図枠
  6
CONTINUOUS
 10
873.91040657248163
 20
-306.0565365901021
 30
0.0
 40
2.337499999999999
  1
岸 本
  0
ENDBLK
  5
2C6
  8
0
  0
BLOCK
  8
0
  2
*U45
 70
     1
 10
0.0
 20
0.0
 30
0.0
  3
*U45
  1

  0
TEXT
  5
2C8
  8
図枠
  6
CONTINUOUS
 10
858.52937865369995
 20
-301.75907466116797
 30
0.0
 40
2.337499999999999
  1
 設計
  0
ENDBLK
  5
2CA
  8
0
  0
BLOCK
  8
0
  2
*U46
 70
     1
 10
0.0
 20
0.0
 30
0.0
  3
*U46
  1

  0
TEXT
  5
2CC
  8
図枠
  6
CONTINUOUS
 10
918.81881393288768
 20
-301.553541253768
 30
0.0
 40
2.337499999999999
  1
図面名
  0
ENDBLK
  5
2CE
  8
0
  0
BLOCK
  8
0
  2
*U47
 70
     1
 10
0.0
 20
0.0
 30
0.0
  3
*U47
  1

  0
TEXT
  5
2D0
  8
図枠
  6
CONTINUOUS
 10
861.34601581325455
 20
-283.1542645616716
 30
0.0
 40
2.804999959499999
  1
表面処理
  0
ENDBLK
  5
2D2
  8
0
  0
BLOCK
  8
0
  2
*U48
 70
     1
 10
0.0
 20
0.0
 30
0.0
  3
*U48
  1

  0
TEXT
  5
2D4
  8
図枠
  6
CONTINUOUS
 10
861.41720870562756
 20
-288.71121887557001
 30
0.0
 40
2.804999959499999
  1
一般公差
  0
ENDBLK
  5
2D6
  8
0
  0
BLOCK
  8
0
  2
*U49
 70
     1
 10
0.0
 20
0.0
 30
0.0
  3
*U49
  1

  0
TEXT
  5
2D8
  8
図枠
  6
CONTINUOUS
 10
873.21034312070503
 20
-301.79467110786862
 30
0.0
 40
2.337499999999999
  1
白須賀
  0
ENDBLK
  5
2DA
  8
0
  0
BLOCK
  8
0
  2
*D50
 70
     1
 10
0.0
 20
0.0
 30
0.0
  3
*D50
  1

  0
LINE
  5
2DD
  8
寸法線
 62
     0
 10
782.08671243120011
 20
-194.63557924479991
 30
0.0
 11
768.62505392602634
 21
-194.6355792448
 31
0.0
  0
LINE
  5
2DE
  8
寸法線
 62
     0
 10
750.14921243120011
 20
-162.6980792448
 30
0.0
 11
750.14921243120011
 21
-176.1597377499738
 31
0.0
  0
ARC
  5
2DF
  8
寸法線
 62
     0
 10
750.14921243120011
 20
-194.6355792448
 30
0.0
 40
19.725841494826138
 50
8.7222350409835343
 51
24.832386250323079
  0
ARC
  5
2E0
  8
寸法線
 62
     0
 10
750.14921243120011
 20
-194.6355792448
 30
0.0
 40
19.725841494826138
 50
52.029501440377018
 51
81.277764959016466
  0
SOLID
  5
2E1
  8
寸法線
 62
     0
 10
770.14547906923565
 20
-191.60624429436609
 30
0.0
 11
769.14837448297556
 21
-191.68228667767289
 31
0.0
 12
769.87505392602623
 22
-194.63557924479991
 32
0.0
 13
769.87505392602623
 23
-194.63557924479991
 33
0.0
  0
SOLID
  5
2E2
  8
寸法線
 62
     0
 10
753.10250499832705
 20
-175.6364171930245
 30
0.0
 11
753.17854738163408
 21
-174.63931260676429
 31
0.0
 12
750.14921243120011
 22
-174.9097377499738
 32
0.0
 13
750.14921243120011
 23
-174.9097377499738
 33
0.0
  0
TEXT
  8
寸法線
  40
2.99861
  5
300
  62
0
  72
0
  71
0
 10
759.604
 20
-187.682
 30
0.000000
  1
90°
  0
POINT
  5
2E4
  8
Defpoints
 62
     0
 10
750.14921243120011
 20
-194.6355792448
 30
0.0
  0
POINT
  5
2E5
  8
Defpoints
 62
     0
 10
782.14921243120011
 20
-194.6355792448
 30
0.0
  0
POINT
  5
2E6
  8
Defpoints
 62
     0
 10
750.14921243120011
 20
-162.6355792448
 30
0.0
  0
POINT
  5
2E7
  8
Defpoints
 62
     0
 10
760.01213317861311
 20
-177.55249939925531
 30
0.0
  0
ENDBLK
  5
2E9
  8
0
  0
BLOCK
  8
0
  2
*D51
 70
     1
 10
0.0
 20
0.0
 30
0.0
  3
*D51
  1

  0
LINE
  5
2EB
  8
寸法線
 62
     0
 10
942.81197744322435
 20
-209.56358435447589
 30
0.0
 11
953.64845776491472
 21
-198.72710403278541
 31
0.0
  0
LINE
  5
2EC
  8
寸法線
 62
     0
 10
901.66292892377567
 20
-209.56358435447589
 30
0.0
 11
890.82644860208518
 21
-198.72710403278541
 31
0.0
  0
ARC
  5
2ED
  8
寸法線
 62
     0
 10
922.23745318350007
 20
-230.13810861420001
 30
0.0
 40
43.171868686799961
 50
48.982267769019977
 51
83.832893309866108
  0
ARC
  5
2EE
  8
寸法線
 62
     0
 10
922.23745318350007
 20
-230.13810861420001
 30
0.0
 40
43.171868686799961
 50
96.167106690133892
 51
131.01773223098019
  0
SOLID
  5
2EF
  8
寸法線
 62
     0
 10
950.91188557491546
 20
-197.1990288589574
 30
0.0
 11
950.22977405122106
 21
-197.93027701741181
 31
0.0
 12
952.7645742884315
 22
-199.6109875092686
 32
0.0
 13
952.7645742884315
 23
-199.6109875092686
 33
0.0
  0
SOLID
  5
2F0
  8
寸法線
 62
     0
 10
894.24513231577896
 20
-197.9302770174119
 30
0.0
 11
893.56302079208444
 21
-197.19902885895749
 31
0.0
 12
891.71033207856851
 22
-199.61098750926871
 32
0.0
 13
891.71033207856851
 23
-199.61098750926871
 33
0.0
  0
TEXT
  8
寸法線
  40
2.99861
  5
301
  62
0
  72
0
  71
0
 10
916.240
 20
-192.274
 30
0.000000
  1
90°
  0
POINT
  5
2F2
  8
Defpoints
 62
     0
 10
922.23745318350007
 20
-230.13810861420001
 30
0.0
  0
POINT
  5
2F3
  8
Defpoints
 62
     0
 10
942.76778326939996
 20
-209.6077785283
 30
0.0
  0
POINT
  5
2F4
  8
Defpoints
 62
     0
 10
901.70712309759983
 20
-209.6077785283
 30
0.0
  0
POINT
  5
2F5
  8
Defpoints
 62
     0
 10
933.411155012309
 20
-188.43728568045961
 30
0.0
  0
ENDBLK
  5
2F7
  8
0
  0
BLOCK
  8
0
  2
*U52
 70
     1
 10
0.0
 20
0.0
 30
0.0
  3
*U52
  1

  0
TEXT
  5
2F9
  8
ﾚｲﾔ_1
  6
CONTINUOUS
 10
909.37348847048077
 20
-249.56948887931119
 30
0.0
 40
2.9986110209999999
  1
皿モミ部拡大図
  0
ENDBLK
  5
2FB
  8
0
  0
BLOCK
  8
0
  2
*U53
 70
     1
 10
0.0
 20
0.0
 30
0.0
  3
*U53
  1

  0
TEXT
  5
2FD
  8
ﾚｲﾔ_1
  6
CONTINUOUS
 10
764.24126899789985
 20
-280.84099552980001
 30
0.0
 40
2.9986110209999999
  1
ＨＬ
  0
ENDBLK
  5
2FF
  8
0
  0
ENDSEC
  0
SECTION
  2
ENTITIES
  0
LINE
  5
2F
  8
図枠
 10
880.52937865369995
 20
-294.3711173959
 30
0.0
 11
894.52937865369995
 21
-294.3711173959
 31
0.0
  0
LINE
  5
30
  8
図枠
 10
890.52937865369995
 20
-302.8711173959
 30
0.0
 11
916.52937865369995
 21
-302.8711173959
 31
0.0
  0
LINE
  5
31
  8
図枠
 62
     5
 10
884.24509326759994
 20
-130.9034998962
 30
0.0
 11
881.7700932675998
 21
-135.19032564490001
 31
0.0
  0
ARC
  5
32
  8
図枠
 10
899.61506486819997
 20
-309.85297902240001
 30
0.0
 40
3.04
 50
270.0
 51
298.08590481520002
  0
LINE
  5
33
  8
図枠
 62
     5
 10
884.24509326759994
 20
-130.9034998962
 30
0.0
 11
886.72009326759985
 21
-135.19032564490001
 31
0.0
  0
LINE
  5
34
  8
図枠
 62
     5
 10
881.7700932675998
 20
-135.19032564490001
 30
0.0
 11
886.72009326759985
 21
-135.19032564490001
 31
0.0
  0
LINE
  5
35
  8
図枠
 62
     5
 10
888.52937865369995
 20
-140.6211173959
 30
0.0
 11
888.52937865369995
 21
-125.6211173959
 31
0.0
  0
LINE
  5
36
  8
図枠
 62
     5
 10
954.52937865369995
 20
-140.6211173959
 30
0.0
 11
954.52937865369995
 21
-125.6211173959
 31
0.0
  0
INSERT
  5
37
  8
0
  6
CONTINUOUS
  2
*U19
 10
0.0
 20
0.0
 30
0.0
  0
INSERT
  5
38
  8
0
  6
CONTINUOUS
  2
*U20
 10
0.0
 20
0.0
 30
0.0
  0
INSERT
  5
39
  8
0
  6
CONTINUOUS
  2
*U21
 10
0.0
 20
0.0
 30
0.0
  0
LINE
  5
3A
  8
図枠
 10
912.49237318530004
 20
-311.93297902239999
 30
0.0
 11
914.82905098679987
 21
-311.93297902239999
 31
0.0
  0
LINE
  5
3B
  8
図枠
 10
907.62905098680005
 20
-309.85297902240001
 30
0.0
 11
909.62798432009993
 21
-309.85297902240001
 31
0.0
  0
LINE
  5
3C
  8
図枠
 10
898.65506486819993
 20
-314.09297902240002
 30
0.0
 11
898.65506486819993
 21
-312.89297902240003
 31
0.0
  0
LINE
  5
3D
  8
図枠
 10
907.62905098680005
 20
-313.37297902239999
 30
0.0
 11
910.66051765339989
 21
-313.37297902239999
 31
0.0
  0
LINE
  5
3E
  8
図枠
 10
905.85506486819997
 20
-308.49297902239999
 30
0.0
 11
898.65506486819993
 21
-308.49297902239999
 31
0.0
  0
LINE
  5
3F
  8
図枠
 10
889.72658001970012
 20
-312.49297902239999
 30
0.0
 11
891.72658001970001
 21
-312.49297902239999
 31
0.0
  0
LINE
  5
40
  8
図枠
 10
912.30820373489996
 20
-311.2929790224
 30
0.0
 11
914.82905098679987
 21
-311.2929790224
 31
0.0
  0
LINE
  5
41
  8
図枠
 10
893.32658001970003
 20
-308.49297902239999
 30
0.0
 11
893.32658001970003
 21
-310.09297902240002
 31
0.0
  0
LINE
  5
42
  8
図枠
 10
911.89382247159995
 20
-309.85297902240001
 30
0.0
 11
911.77670707139998
 21
-309.44599591000002
 31
0.0
  0
LINE
  5
43
  8
図枠
 62
     5
 10
884.24509326759994
 20
-135.85349989619999
 30
0.0
 11
886.72009326759985
 21
-140.1403256449
 31
0.0
  0
LINE
  5
44
  8
図枠
 10
896.52658001969996
 20
-310.09297902240002
 30
0.0
 11
896.52658001969996
 21
-311.2929790224
 31
0.0
  0
LINE
  5
45
  8
図枠
 62
     5
 10
884.24509326759994
 20
-135.85349989619999
 30
0.0
 11
881.7700932675998
 21
-140.1403256449
 31
0.0
  0
LINE
  5
46
  8
図枠
 10
891.72658001970001
 20
-310.09297902240002
 30
0.0
 11
891.72658001970001
 21
-309.69297902239998
 31
0.0
  0
LINE
  5
47
  8
図枠
 10
902.28411486149992
 20
-311.30823574649997
 30
0.0
 11
902.09163821640016
 21
-311.52082643490002
 31
0.0
  0
LINE
  5
48
  8
図枠
 10
904.14524034979991
 20
-312.37228398960002
 30
0.0
 11
904.00275870199994
 21
-312.51178650489999
 31
0.0
  0
LINE
  5
49
  8
図枠
 10
914.82905098679987
 20
-311.93297902239999
 30
0.0
 11
914.82905098679987
 21
-313.37297902239999
 31
0.0
  0
INSERT
  5
4A
  8
0
  6
CONTINUOUS
  2
*U22
 10
0.0
 20
0.0
 30
0.0
  0
INSERT
  5
4B
  8
0
  6
CONTINUOUS
  2
*U23
 10
0.0
 20
0.0
 30
0.0
  0
INSERT
  5
4C
  8
0
  6
CONTINUOUS
  2
*U24
 10
0.0
 20
0.0
 30
0.0
  0
LINE
  5
4D
  8
図枠
 10
896.52658001969996
 20
-308.49297902239999
 30
0.0
 11
893.32658001970003
 21
-308.49297902239999
 31
0.0
  0
INSERT
  5
4E
  8
0
  6
CONTINUOUS
  2
*U25
 10
0.0
 20
0.0
 30
0.0
  0
LINE
  5
4F
  8
図枠
 62
     5
 10
880.52937865369995
 20
-140.6211173959
 30
0.0
 11
974.52937865369995
 21
-140.6211173959
 31
0.0
  0
LINE
  5
50
  8
図枠
 62
     5
 10
880.52937865369995
 20
-135.6211173959
 30
0.0
 11
974.52937865369995
 21
-135.6211173959
 31
0.0
  0
LINE
  5
51
  8
図枠
 62
     5
 10
880.52937865369995
 20
-130.6211173959
 30
0.0
 11
974.52937865369995
 21
-130.6211173959
 31
0.0
  0
LINE
  5
52
  8
図枠
 62
     5
 10
964.52937865369995
 20
-140.6211173959
 30
0.0
 11
964.52937865369995
 21
-125.6211173959
 31
0.0
  0
LINE
  5
53
  8
図枠
 10
891.72658001970001
 20
-311.2929790224
 30
0.0
 11
893.32658001970003
 21
-311.2929790224
 31
0.0
  0
ARC
  5
54
  8
図枠
 10
900.65506486820016
 20
-309.69297902239998
 30
0.0
 40
4.4000000000000004
 50
322.48761197969998
 51
0.0
  0
LINE
  5
55
  8
図枠
 62
     5
 10
881.7700932675998
 20
-140.1403256449
 30
0.0
 11
886.72009326759985
 21
-140.1403256449
 31
0.0
  0
LINE
  5
56
  8
図枠
 10
891.72658001970001
 20
-309.69297902239998
 30
0.0
 11
892.92658001970005
 21
-308.49297902239999
 31
0.0
  0
LINE
  5
57
  8
図枠
 10
889.72658001970012
 20
-310.09297902240002
 30
0.0
 11
888.80569697039994
 21
-310.09297902240002
 31
0.0
  0
ARC
  5
58
  8
図枠
 10
892.92658001970005
 20
-311.69297902239998
 30
0.0
 40
2.399999999999999
 50
270.0
 51
0.0
  0
LINE
  5
59
  8
図枠
 62
     5
 10
880.52937865369995
 20
-140.6211173959
 30
0.0
 11
880.52937865369995
 21
-125.6211173959
 31
0.0
  0
INSERT
  5
5A
  8
0
  6
CONTINUOUS
  2
*U26
 10
0.0
 20
0.0
 30
0.0
  0
LINE
  5
5B
  8
図枠
 10
905.05506486819991
 20
-309.69297902239998
 30
0.0
 11
905.85506486819997
 21
-308.49297902239999
 31
0.0
  0
LINE
  5
5C
  8
図枠
 10
915.52937865369995
 20
-279.1211173959
 30
0.0
 11
915.52937865369995
 21
-273.6211173959
 31
0.0
  0
LINE
  5
5D
  8
図枠
 10
878.52937865369995
 20
-290.1211173959
 30
0.0
 11
878.52937865369995
 21
-273.6211173959
 31
0.0
  0
LINE
  5
5E
  8
図枠
 10
933.52937865369995
 20
-279.1211173959
 30
0.0
 11
933.52937865369995
 21
-273.6211173959
 31
0.0
  0
LINE
  5
5F
  8
図枠
 10
907.62905098680005
 20
-311.93297902239999
 30
0.0
 11
910.23811765339985
 21
-311.93297902239999
 31
0.0
  0
POLYLINE
  8
図枠
  5
302
  66
     1
 10
0.000000
 20
0.000000
 30
0.000000
  70
     8
  0
VERTEX
  8
図枠
  5
303
 10
898.655
 20
-310.608
 30
0.000000
  70
    32
  0
VERTEX
  8
図枠
  5
304
 10
898.669
 20
-310.622
 30
0.000000
  70
    32
  0
VERTEX
  8
図枠
  5
305
 10
898.684
 20
-310.635
 30
0.000000
  70
    32
  0
VERTEX
  8
図枠
  5
306
 10
898.698
 20
-310.648
 30
0.000000
  70
    32
  0
VERTEX
  8
図枠
  5
307
 10
898.713
 20
-310.661
 30
0.000000
  70
    32
  0
VERTEX
  8
図枠
  5
308
 10
898.727
 20
-310.675
 30
0.000000
  70
    32
  0
VERTEX
  8
図枠
  5
309
 10
898.742
 20
-310.688
 30
0.000000
  70
    32
  0
VERTEX
  8
図枠
  5
30A
 10
898.756
 20
-310.701
 30
0.000000
  70
    32
  0
VERTEX
  8
図枠
  5
30B
 10
898.770
 20
-310.715
 30
0.000000
  70
    32
  0
VERTEX
  8
図枠
  5
30C
 10
898.785
 20
-310.728
 30
0.000000
  70
    32
  0
VERTEX
  8
図枠
  5
30D
 10
898.799
 20
-310.741
 30
0.000000
  70
    32
  0
VERTEX
  8
図枠
  5
30E
 10
898.814
 20
-310.754
 30
0.000000
  70
    32
  0
VERTEX
  8
図枠
  5
30F
 10
898.828
 20
-310.768
 30
0.000000
  70
    32
  0
VERTEX
  8
図枠
  5
310
 10
898.842
 20
-310.781
 30
0.000000
  70
    32
  0
VERTEX
  8
図枠
  5
311
 10
898.857
 20
-310.794
 30
0.000000
  70
    32
  0
VERTEX
  8
図枠
  5
312
 10
898.871
 20
-310.807
 30
0.000000
  70
    32
  0
VERTEX
  8
図枠
  5
313
 10
898.886
 20
-310.821
 30
0.000000
  70
    32
  0
VERTEX
  8
図枠
  5
314
 10
898.900
 20
-310.834
 30
0.000000
  70
    32
  0
VERTEX
  8
図枠
  5
315
 10
898.915
 20
-310.847
 30
0.000000
  70
    32
  0
VERTEX
  8
図枠
  5
316
 10
898.929
 20
-310.860
 30
0.000000
  70
    32
  0
VERTEX
  8
図枠
  5
317
 10
898.943
 20
-310.874
 30
0.000000
  70
    32
  0
VERTEX
  8
図枠
  5
318
 10
898.958
 20
-310.887
 30
0.000000
  70
    32
  0
VERTEX
  8
図枠
  5
319
 10
898.972
 20
-310.900
 30
0.000000
  70
    32
  0
VERTEX
  8
図枠
  5
31A
 10
898.987
 20
-310.913
 30
0.000000
  70
    32
  0
VERTEX
  8
図枠
  5
31B
 10
899.001
 20
-310.926
 30
0.000000
  70
    32
  0
VERTEX
  8
図枠
  5
31C
 10
899.016
 20
-310.940
 30
0.000000
  70
    32
  0
VERTEX
  8
図枠
  5
31D
 10
899.030
 20
-310.953
 30
0.000000
  70
    32
  0
VERTEX
  8
図枠
  5
31E
 10
899.045
 20
-310.966
 30
0.000000
  70
    32
  0
VERTEX
  8
図枠
  5
31F
 10
899.059
 20
-310.979
 30
0.000000
  70
    32
  0
VERTEX
  8
図枠
  5
320
 10
899.074
 20
-310.992
 30
0.000000
  70
    32
  0
VERTEX
  8
図枠
  5
321
 10
899.088
 20
-311.006
 30
0.000000
  70
    32
  0
VERTEX
  8
図枠
  5
322
 10
899.102
 20
-311.019
 30
0.000000
  70
    32
  0
VERTEX
  8
図枠
  5
323
 10
899.117
 20
-311.032
 30
0.000000
  70
    32
  0
VERTEX
  8
図枠
  5
324
 10
899.131
 20
-311.045
 30
0.000000
  70
    32
  0
VERTEX
  8
図枠
  5
325
 10
899.146
 20
-311.058
 30
0.000000
  70
    32
  0
VERTEX
  8
図枠
  5
326
 10
899.160
 20
-311.071
 30
0.000000
  70
    32
  0
VERTEX
  8
図枠
  5
327
 10
899.175
 20
-311.084
 30
0.000000
  70
    32
  0
VERTEX
  8
図枠
  5
328
 10
899.189
 20
-311.097
 30
0.000000
  70
    32
  0
VERTEX
  8
図枠
  5
329
 10
899.204
 20
-311.111
 30
0.000000
  70
    32
  0
VERTEX
  8
図枠
  5
32A
 10
899.218
 20
-311.124
 30
0.000000
  70
    32
  0
VERTEX
  8
図枠
  5
32B
 10
899.233
 20
-311.137
 30
0.000000
  70
    32
  0
VERTEX
  8
図枠
  5
32C
 10
899.248
 20
-311.150
 30
0.000000
  70
    32
  0
VERTEX
  8
図枠
  5
32D
 10
899.262
 20
-311.163
 30
0.000000
  70
    32
  0
VERTEX
  8
図枠
  5
32E
 10
899.277
 20
-311.176
 30
0.000000
  70
    32
  0
VERTEX
  8
図枠
  5
32F
 10
899.291
 20
-311.189
 30
0.000000
  70
    32
  0
VERTEX
  8
図枠
  5
330
 10
899.306
 20
-311.202
 30
0.000000
  70
    32
  0
VERTEX
  8
図枠
  5
331
 10
899.320
 20
-311.215
 30
0.000000
  70
    32
  0
VERTEX
  8
図枠
  5
332
 10
899.335
 20
-311.228
 30
0.000000
  70
    32
  0
VERTEX
  8
図枠
  5
333
 10
899.349
 20
-311.241
 30
0.000000
  70
    32
  0
VERTEX
  8
図枠
  5
334
 10
899.364
 20
-311.254
 30
0.000000
  70
    32
  0
VERTEX
  8
図枠
  5
335
 10
899.379
 20
-311.267
 30
0.000000
  70
    32
  0
VERTEX
  8
図枠
  5
336
 10
899.393
 20
-311.280
 30
0.000000
  70
    32
  0
VERTEX
  8
図枠
  5
337
 10
899.408
 20
-311.293
 30
0.000000
  70
    32
  0
VERTEX
  8
図枠
  5
338
 10
899.422
 20
-311.305
 30
0.000000
  70
    32
  0
VERTEX
  8
図枠
  5
339
 10
899.437
 20
-311.318
 30
0.000000
  70
    32
  0
VERTEX
  8
図枠
  5
33A
 10
899.452
 20
-311.331
 30
0.000000
  70
    32
  0
VERTEX
  8
図枠
  5
33B
 10
899.466
 20
-311.344
 30
0.000000
  70
    32
  0
VERTEX
  8
図枠
  5
33C
 10
899.481
 20
-311.357
 30
0.000000
  70
    32
  0
VERTEX
  8
図枠
  5
33D
 10
899.496
 20
-311.370
 30
0.000000
  70
    32
  0
VERTEX
  8
図枠
  5
33E
 10
899.510
 20
-311.383
 30
0.000000
  70
    32
  0
VERTEX
  8
図枠
  5
33F
 10
899.525
 20
-311.395
 30
0.000000
  70
    32
  0
VERTEX
  8
図枠
  5
340
 10
899.540
 20
-311.408
 30
0.000000
  70
    32
  0
VERTEX
  8
図枠
  5
341
 10
899.554
 20
-311.421
 30
0.000000
  70
    32
  0
VERTEX
  8
図枠
  5
342
 10
899.569
 20
-311.434
 30
0.000000
  70
    32
  0
VERTEX
  8
図枠
  5
343
 10
899.584
 20
-311.446
 30
0.000000
  70
    32
  0
VERTEX
  8
図枠
  5
344
 10
899.599
 20
-311.459
 30
0.000000
  70
    32
  0
VERTEX
  8
図枠
  5
345
 10
899.613
 20
-311.472
 30
0.000000
  70
    32
  0
VERTEX
  8
図枠
  5
346
 10
899.628
 20
-311.484
 30
0.000000
  70
    32
  0
VERTEX
  8
図枠
  5
347
 10
899.643
 20
-311.497
 30
0.000000
  70
    32
  0
VERTEX
  8
図枠
  5
348
 10
899.657
 20
-311.510
 30
0.000000
  70
    32
  0
VERTEX
  8
図枠
  5
349
 10
899.672
 20
-311.522
 30
0.000000
  70
    32
  0
VERTEX
  8
図枠
  5
34A
 10
899.687
 20
-311.535
 30
0.000000
  70
    32
  0
VERTEX
  8
図枠
  5
34B
 10
899.702
 20
-311.547
 30
0.000000
  70
    32
  0
VERTEX
  8
図枠
  5
34C
 10
899.717
 20
-311.560
 30
0.000000
  70
    32
  0
VERTEX
  8
図枠
  5
34D
 10
899.731
 20
-311.573
 30
0.000000
  70
    32
  0
VERTEX
  8
図枠
  5
34E
 10
899.746
 20
-311.585
 30
0.000000
  70
    32
  0
VERTEX
  8
図枠
  5
34F
 10
899.761
 20
-311.598
 30
0.000000
  70
    32
  0
VERTEX
  8
図枠
  5
350
 10
899.776
 20
-311.610
 30
0.000000
  70
    32
  0
VERTEX
  8
図枠
  5
351
 10
899.791
 20
-311.622
 30
0.000000
  70
    32
  0
VERTEX
  8
図枠
  5
352
 10
899.806
 20
-311.635
 30
0.000000
  70
    32
  0
VERTEX
  8
図枠
  5
353
 10
899.821
 20
-311.647
 30
0.000000
  70
    32
  0
VERTEX
  8
図枠
  5
354
 10
899.835
 20
-311.660
 30
0.000000
  70
    32
  0
VERTEX
  8
図枠
  5
355
 10
899.850
 20
-311.672
 30
0.000000
  70
    32
  0
VERTEX
  8
図枠
  5
356
 10
899.865
 20
-311.684
 30
0.000000
  70
    32
  0
VERTEX
  8
図枠
  5
357
 10
899.880
 20
-311.697
 30
0.000000
  70
    32
  0
VERTEX
  8
図枠
  5
358
 10
899.895
 20
-311.709
 30
0.000000
  70
    32
  0
VERTEX
  8
図枠
  5
359
 10
899.910
 20
-311.721
 30
0.000000
  70
    32
  0
VERTEX
  8
図枠
  5
35A
 10
899.925
 20
-311.734
 30
0.000000
  70
    32
  0
VERTEX
  8
図枠
  5
35B
 10
899.940
 20
-311.746
 30
0.000000
  70
    32
  0
VERTEX
  8
図枠
  5
35C
 10
899.955
 20
-311.758
 30
0.000000
  70
    32
  0
VERTEX
  8
図枠
  5
35D
 10
899.970
 20
-311.770
 30
0.000000
  70
    32
  0
VERTEX
  8
図枠
  5
35E
 10
899.985
 20
-311.782
 30
0.000000
  70
    32
  0
VERTEX
  8
図枠
  5
35F
 10
900.000
 20
-311.794
 30
0.000000
  70
    32
  0
VERTEX
  8
図枠
  5
360
 10
900.015
 20
-311.807
 30
0.000000
  70
    32
  0
VERTEX
  8
図枠
  5
361
 10
900.030
 20
-311.819
 30
0.000000
  70
    32
  0
VERTEX
  8
図枠
  5
362
 10
900.045
 20
-311.831
 30
0.000000
  70
    32
  0
VERTEX
  8
図枠
  5
363
 10
900.060
 20
-311.843
 30
0.000000
  70
    32
  0
VERTEX
  8
図枠
  5
364
 10
900.075
 20
-311.855
 30
0.000000
  70
    32
  0
VERTEX
  8
図枠
  5
365
 10
900.091
 20
-311.867
 30
0.000000
  70
    32
  0
VERTEX
  8
図枠
  5
366
 10
900.106
 20
-311.879
 30
0.000000
  70
    32
  0
VERTEX
  8
図枠
  5
367
 10
900.121
 20
-311.890
 30
0.000000
  70
    32
  0
VERTEX
  8
図枠
  5
368
 10
900.136
 20
-311.902
 30
0.000000
  70
    32
  0
VERTEX
  8
図枠
  5
369
 10
900.151
 20
-311.914
 30
0.000000
  70
    32
  0
VERTEX
  8
図枠
  5
36A
 10
900.166
 20
-311.926
 30
0.000000
  70
    32
  0
VERTEX
  8
図枠
  5
36B
 10
900.182
 20
-311.938
 30
0.000000
  70
    32
  0
VERTEX
  8
図枠
  5
36C
 10
900.197
 20
-311.950
 30
0.000000
  70
    32
  0
VERTEX
  8
図枠
  5
36D
 10
900.212
 20
-311.961
 30
0.000000
  70
    32
  0
VERTEX
  8
図枠
  5
36E
 10
900.227
 20
-311.973
 30
0.000000
  70
    32
  0
VERTEX
  8
図枠
  5
36F
 10
900.243
 20
-311.985
 30
0.000000
  70
    32
  0
VERTEX
  8
図枠
  5
370
 10
900.258
 20
-311.996
 30
0.000000
  70
    32
  0
VERTEX
  8
図枠
  5
371
 10
900.273
 20
-312.008
 30
0.000000
  70
    32
  0
VERTEX
  8
図枠
  5
372
 10
900.289
 20
-312.020
 30
0.000000
  70
    32
  0
VERTEX
  8
図枠
  5
373
 10
900.304
 20
-312.031
 30
0.000000
  70
    32
  0
VERTEX
  8
図枠
  5
374
 10
900.319
 20
-312.043
 30
0.000000
  70
    32
  0
VERTEX
  8
図枠
  5
375
 10
900.335
 20
-312.054
 30
0.000000
  70
    32
  0
VERTEX
  8
図枠
  5
376
 10
900.350
 20
-312.066
 30
0.000000
  70
    32
  0
VERTEX
  8
図枠
  5
377
 10
900.365
 20
-312.077
 30
0.000000
  70
    32
  0
VERTEX
  8
図枠
  5
378
 10
900.381
 20
-312.089
 30
0.000000
  70
    32
  0
VERTEX
  8
図枠
  5
379
 10
900.396
 20
-312.100
 30
0.000000
  70
    32
  0
VERTEX
  8
図枠
  5
37A
 10
900.412
 20
-312.111
 30
0.000000
  70
    32
  0
VERTEX
  8
図枠
  5
37B
 10
900.427
 20
-312.123
 30
0.000000
  70
    32
  0
VERTEX
  8
図枠
  5
37C
 10
900.443
 20
-312.134
 30
0.000000
  70
    32
  0
VERTEX
  8
図枠
  5
37D
 10
900.458
 20
-312.145
 30
0.000000
  70
    32
  0
VERTEX
  8
図枠
  5
37E
 10
900.474
 20
-312.156
 30
0.000000
  70
    32
  0
VERTEX
  8
図枠
  5
37F
 10
900.489
 20
-312.167
 30
0.000000
  70
    32
  0
VERTEX
  8
図枠
  5
380
 10
900.505
 20
-312.179
 30
0.000000
  70
    32
  0
VERTEX
  8
図枠
  5
381
 10
900.520
 20
-312.190
 30
0.000000
  70
    32
  0
VERTEX
  8
図枠
  5
382
 10
900.536
 20
-312.201
 30
0.000000
  70
    32
  0
VERTEX
  8
図枠
  5
383
 10
900.552
 20
-312.212
 30
0.000000
  70
    32
  0
VERTEX
  8
図枠
  5
384
 10
900.567
 20
-312.223
 30
0.000000
  70
    32
  0
VERTEX
  8
図枠
  5
385
 10
900.583
 20
-312.234
 30
0.000000
  70
    32
  0
VERTEX
  8
図枠
  5
386
 10
900.599
 20
-312.245
 30
0.000000
  70
    32
  0
VERTEX
  8
図枠
  5
387
 10
900.614
 20
-312.256
 30
0.000000
  70
    32
  0
VERTEX
  8
図枠
  5
388
 10
900.630
 20
-312.266
 30
0.000000
  70
    32
  0
VERTEX
  8
図枠
  5
389
 10
900.646
 20
-312.277
 30
0.000000
  70
    32
  0
VERTEX
  8
図枠
  5
38A
 10
900.662
 20
-312.288
 30
0.000000
  70
    32
  0
VERTEX
  8
図枠
  5
38B
 10
900.677
 20
-312.299
 30
0.000000
  70
    32
  0
VERTEX
  8
図枠
  5
38C
 10
900.693
 20
-312.310
 30
0.000000
  70
    32
  0
VERTEX
  8
図枠
  5
38D
 10
900.709
 20
-312.320
 30
0.000000
  70
    32
  0
VERTEX
  8
図枠
  5
38E
 10
900.725
 20
-312.331
 30
0.000000
  70
    32
  0
VERTEX
  8
図枠
  5
38F
 10
900.741
 20
-312.341
 30
0.000000
  70
    32
  0
VERTEX
  8
図枠
  5
390
 10
900.757
 20
-312.352
 30
0.000000
  70
    32
  0
VERTEX
  8
図枠
  5
391
 10
900.773
 20
-312.362
 30
0.000000
  70
    32
  0
VERTEX
  8
図枠
  5
392
 10
900.788
 20
-312.373
 30
0.000000
  70
    32
  0
VERTEX
  8
図枠
  5
393
 10
900.804
 20
-312.383
 30
0.000000
  70
    32
  0
VERTEX
  8
図枠
  5
394
 10
900.820
 20
-312.394
 30
0.000000
  70
    32
  0
VERTEX
  8
図枠
  5
395
 10
900.836
 20
-312.404
 30
0.000000
  70
    32
  0
VERTEX
  8
図枠
  5
396
 10
900.852
 20
-312.414
 30
0.000000
  70
    32
  0
VERTEX
  8
図枠
  5
397
 10
900.868
 20
-312.425
 30
0.000000
  70
    32
  0
VERTEX
  8
図枠
  5
398
 10
900.884
 20
-312.435
 30
0.000000
  70
    32
  0
VERTEX
  8
図枠
  5
399
 10
900.901
 20
-312.445
 30
0.000000
  70
    32
  0
VERTEX
  8
図枠
  5
39A
 10
900.917
 20
-312.455
 30
0.000000
  70
    32
  0
VERTEX
  8
図枠
  5
39B
 10
900.933
 20
-312.465
 30
0.000000
  70
    32
  0
VERTEX
  8
図枠
  5
39C
 10
900.949
 20
-312.475
 30
0.000000
  70
    32
  0
VERTEX
  8
図枠
  5
39D
 10
900.965
 20
-312.486
 30
0.000000
  70
    32
  0
VERTEX
  8
図枠
  5
39E
 10
900.981
 20
-312.495
 30
0.000000
  70
    32
  0
VERTEX
  8
図枠
  5
39F
 10
900.997
 20
-312.505
 30
0.000000
  70
    32
  0
VERTEX
  8
図枠
  5
3A0
 10
901.014
 20
-312.515
 30
0.000000
  70
    32
  0
VERTEX
  8
図枠
  5
3A1
 10
901.030
 20
-312.525
 30
0.000000
  70
    32
  0
VERTEX
  8
図枠
  5
3A2
 10
901.046
 20
-312.535
 30
0.000000
  70
    32
  0
SEQEND
  8
図枠
  5
3A3
  0
POLYLINE
  8
図枠
  5
3A4
  66
     1
 10
0.000000
 20
0.000000
 30
0.000000
  70
     8
  0
VERTEX
  8
図枠
  5
3A5
 10
903.022
 20
-313.402
 30
0.000000
  70
    32
  0
VERTEX
  8
図枠
  5
3A6
 10
903.044
 20
-313.409
 30
0.000000
  70
    32
  0
VERTEX
  8
図枠
  5
3A7
 10
903.065
 20
-313.416
 30
0.000000
  70
    32
  0
VERTEX
  8
図枠
  5
3A8
 10
903.087
 20
-313.423
 30
0.000000
  70
    32
  0
VERTEX
  8
図枠
  5
3A9
 10
903.108
 20
-313.429
 30
0.000000
  70
    32
  0
VERTEX
  8
図枠
  5
3AA
 10
903.130
 20
-313.436
 30
0.000000
  70
    32
  0
VERTEX
  8
図枠
  5
3AB
 10
903.152
 20
-313.443
 30
0.000000
  70
    32
  0
VERTEX
  8
図枠
  5
3AC
 10
903.173
 20
-313.449
 30
0.000000
  70
    32
  0
VERTEX
  8
図枠
  5
3AD
 10
903.195
 20
-313.456
 30
0.000000
  70
    32
  0
VERTEX
  8
図枠
  5
3AE
 10
903.217
 20
-313.463
 30
0.000000
  70
    32
  0
VERTEX
  8
図枠
  5
3AF
 10
903.238
 20
-313.469
 30
0.000000
  70
    32
  0
VERTEX
  8
図枠
  5
3B0
 10
903.260
 20
-313.476
 30
0.000000
  70
    32
  0
VERTEX
  8
図枠
  5
3B1
 10
903.282
 20
-313.482
 30
0.000000
  70
    32
  0
VERTEX
  8
図枠
  5
3B2
 10
903.303
 20
-313.489
 30
0.000000
  70
    32
  0
VERTEX
  8
図枠
  5
3B3
 10
903.325
 20
-313.495
 30
0.000000
  70
    32
  0
VERTEX
  8
図枠
  5
3B4
 10
903.347
 20
-313.502
 30
0.000000
  70
    32
  0
VERTEX
  8
図枠
  5
3B5
 10
903.369
 20
-313.508
 30
0.000000
  70
    32
  0
VERTEX
  8
図枠
  5
3B6
 10
903.391
 20
-313.514
 30
0.000000
  70
    32
  0
VERTEX
  8
図枠
  5
3B7
 10
903.412
 20
-313.521
 30
0.000000
  70
    32
  0
VERTEX
  8
図枠
  5
3B8
 10
903.434
 20
-313.527
 30
0.000000
  70
    32
  0
VERTEX
  8
図枠
  5
3B9
 10
903.456
 20
-313.533
 30
0.000000
  70
    32
  0
VERTEX
  8
図枠
  5
3BA
 10
903.478
 20
-313.540
 30
0.000000
  70
    32
  0
VERTEX
  8
図枠
  5
3BB
 10
903.500
 20
-313.546
 30
0.000000
  70
    32
  0
VERTEX
  8
図枠
  5
3BC
 10
903.522
 20
-313.552
 30
0.000000
  70
    32
  0
VERTEX
  8
図枠
  5
3BD
 10
903.544
 20
-313.558
 30
0.000000
  70
    32
  0
VERTEX
  8
図枠
  5
3BE
 10
903.566
 20
-313.564
 30
0.000000
  70
    32
  0
VERTEX
  8
図枠
  5
3BF
 10
903.588
 20
-313.570
 30
0.000000
  70
    32
  0
VERTEX
  8
図枠
  5
3C0
 10
903.610
 20
-313.576
 30
0.000000
  70
    32
  0
VERTEX
  8
図枠
  5
3C1
 10
903.632
 20
-313.582
 30
0.000000
  70
    32
  0
VERTEX
  8
図枠
  5
3C2
 10
903.654
 20
-313.588
 30
0.000000
  70
    32
  0
VERTEX
  8
図枠
  5
3C3
 10
903.676
 20
-313.594
 30
0.000000
  70
    32
  0
VERTEX
  8
図枠
  5
3C4
 10
903.698
 20
-313.600
 30
0.000000
  70
    32
  0
VERTEX
  8
図枠
  5
3C5
 10
903.720
 20
-313.606
 30
0.000000
  70
    32
  0
VERTEX
  8
図枠
  5
3C6
 10
903.742
 20
-313.612
 30
0.000000
  70
    32
  0
VERTEX
  8
図枠
  5
3C7
 10
903.764
 20
-313.618
 30
0.000000
  70
    32
  0
VERTEX
  8
図枠
  5
3C8
 10
903.786
 20
-313.624
 30
0.000000
  70
    32
  0
VERTEX
  8
図枠
  5
3C9
 10
903.808
 20
-313.630
 30
0.000000
  70
    32
  0
VERTEX
  8
図枠
  5
3CA
 10
903.830
 20
-313.636
 30
0.000000
  70
    32
  0
VERTEX
  8
図枠
  5
3CB
 10
903.852
 20
-313.641
 30
0.000000
  70
    32
  0
VERTEX
  8
図枠
  5
3CC
 10
903.874
 20
-313.647
 30
0.000000
  70
    32
  0
VERTEX
  8
図枠
  5
3CD
 10
903.896
 20
-313.653
 30
0.000000
  70
    32
  0
VERTEX
  8
図枠
  5
3CE
 10
903.918
 20
-313.659
 30
0.000000
  70
    32
  0
VERTEX
  8
図枠
  5
3CF
 10
903.941
 20
-313.664
 30
0.000000
  70
    32
  0
VERTEX
  8
図枠
  5
3D0
 10
903.963
 20
-313.670
 30
0.000000
  70
    32
  0
VERTEX
  8
図枠
  5
3D1
 10
903.985
 20
-313.676
 30
0.000000
  70
    32
  0
VERTEX
  8
図枠
  5
3D2
 10
904.007
 20
-313.681
 30
0.000000
  70
    32
  0
VERTEX
  8
図枠
  5
3D3
 10
904.029
 20
-313.687
 30
0.000000
  70
    32
  0
VERTEX
  8
図枠
  5
3D4
 10
904.052
 20
-313.693
 30
0.000000
  70
    32
  0
VERTEX
  8
図枠
  5
3D5
 10
904.074
 20
-313.698
 30
0.000000
  70
    32
  0
VERTEX
  8
図枠
  5
3D6
 10
904.096
 20
-313.704
 30
0.000000
  70
    32
  0
VERTEX
  8
図枠
  5
3D7
 10
904.118
 20
-313.709
 30
0.000000
  70
    32
  0
VERTEX
  8
図枠
  5
3D8
 10
904.141
 20
-313.715
 30
0.000000
  70
    32
  0
VERTEX
  8
図枠
  5
3D9
 10
904.163
 20
-313.720
 30
0.000000
  70
    32
  0
VERTEX
  8
図枠
  5
3DA
 10
904.185
 20
-313.726
 30
0.000000
  70
    32
  0
VERTEX
  8
図枠
  5
3DB
 10
904.208
 20
-313.731
 30
0.000000
  70
    32
  0
VERTEX
  8
図枠
  5
3DC
 10
904.230
 20
-313.737
 30
0.000000
  70
    32
  0
VERTEX
  8
図枠
  5
3DD
 10
904.252
 20
-313.742
 30
0.000000
  70
    32
  0
VERTEX
  8
図枠
  5
3DE
 10
904.275
 20
-313.747
 30
0.000000
  70
    32
  0
VERTEX
  8
図枠
  5
3DF
 10
904.297
 20
-313.753
 30
0.000000
  70
    32
  0
VERTEX
  8
図枠
  5
3E0
 10
904.319
 20
-313.758
 30
0.000000
  70
    32
  0
VERTEX
  8
図枠
  5
3E1
 10
904.342
 20
-313.763
 30
0.000000
  70
    32
  0
VERTEX
  8
図枠
  5
3E2
 10
904.364
 20
-313.769
 30
0.000000
  70
    32
  0
VERTEX
  8
図枠
  5
3E3
 10
904.386
 20
-313.774
 30
0.000000
  70
    32
  0
VERTEX
  8
図枠
  5
3E4
 10
904.409
 20
-313.779
 30
0.000000
  70
    32
  0
VERTEX
  8
図枠
  5
3E5
 10
904.431
 20
-313.785
 30
0.000000
  70
    32
  0
VERTEX
  8
図枠
  5
3E6
 10
904.454
 20
-313.790
 30
0.000000
  70
    32
  0
VERTEX
  8
図枠
  5
3E7
 10
904.476
 20
-313.795
 30
0.000000
  70
    32
  0
VERTEX
  8
図枠
  5
3E8
 10
904.498
 20
-313.800
 30
0.000000
  70
    32
  0
VERTEX
  8
図枠
  5
3E9
 10
904.521
 20
-313.805
 30
0.000000
  70
    32
  0
VERTEX
  8
図枠
  5
3EA
 10
904.543
 20
-313.811
 30
0.000000
  70
    32
  0
VERTEX
  8
図枠
  5
3EB
 10
904.566
 20
-313.816
 30
0.000000
  70
    32
  0
VERTEX
  8
図枠
  5
3EC
 10
904.588
 20
-313.821
 30
0.000000
  70
    32
  0
VERTEX
  8
図枠
  5
3ED
 10
904.611
 20
-313.826
 30
0.000000
  70
    32
  0
VERTEX
  8
図枠
  5
3EE
 10
904.633
 20
-313.831
 30
0.000000
  70
    32
  0
VERTEX
  8
図枠
  5
3EF
 10
904.656
 20
-313.836
 30
0.000000
  70
    32
  0
VERTEX
  8
図枠
  5
3F0
 10
904.678
 20
-313.841
 30
0.000000
  70
    32
  0
VERTEX
  8
図枠
  5
3F1
 10
904.701
 20
-313.846
 30
0.000000
  70
    32
  0
VERTEX
  8
図枠
  5
3F2
 10
904.723
 20
-313.851
 30
0.000000
  70
    32
  0
VERTEX
  8
図枠
  5
3F3
 10
904.746
 20
-313.857
 30
0.000000
  70
    32
  0
VERTEX
  8
図枠
  5
3F4
 10
904.768
 20
-313.862
 30
0.000000
  70
    32
  0
VERTEX
  8
図枠
  5
3F5
 10
904.791
 20
-313.867
 30
0.000000
  70
    32
  0
VERTEX
  8
図枠
  5
3F6
 10
904.813
 20
-313.872
 30
0.000000
  70
    32
  0
VERTEX
  8
図枠
  5
3F7
 10
904.836
 20
-313.877
 30
0.000000
  70
    32
  0
VERTEX
  8
図枠
  5
3F8
 10
904.858
 20
-313.882
 30
0.000000
  70
    32
  0
VERTEX
  8
図枠
  5
3F9
 10
904.881
 20
-313.887
 30
0.000000
  70
    32
  0
VERTEX
  8
図枠
  5
3FA
 10
904.904
 20
-313.891
 30
0.000000
  70
    32
  0
VERTEX
  8
図枠
  5
3FB
 10
904.926
 20
-313.896
 30
0.000000
  70
    32
  0
VERTEX
  8
図枠
  5
3FC
 10
904.949
 20
-313.901
 30
0.000000
  70
    32
  0
VERTEX
  8
図枠
  5
3FD
 10
904.971
 20
-313.906
 30
0.000000
  70
    32
  0
VERTEX
  8
図枠
  5
3FE
 10
904.994
 20
-313.911
 30
0.000000
  70
    32
  0
VERTEX
  8
図枠
  5
3FF
 10
905.016
 20
-313.916
 30
0.000000
  70
    32
  0
VERTEX
  8
図枠
  5
400
 10
905.039
 20
-313.921
 30
0.000000
  70
    32
  0
VERTEX
  8
図枠
  5
401
 10
905.062
 20
-313.926
 30
0.000000
  70
    32
  0
VERTEX
  8
図枠
  5
402
 10
905.084
 20
-313.931
 30
0.000000
  70
    32
  0
VERTEX
  8
図枠
  5
403
 10
905.107
 20
-313.936
 30
0.000000
  70
    32
  0
VERTEX
  8
図枠
  5
404
 10
905.130
 20
-313.941
 30
0.000000
  70
    32
  0
VERTEX
  8
図枠
  5
405
 10
905.152
 20
-313.945
 30
0.000000
  70
    32
  0
VERTEX
  8
図枠
  5
406
 10
905.175
 20
-313.950
 30
0.000000
  70
    32
  0
VERTEX
  8
図枠
  5
407
 10
905.197
 20
-313.955
 30
0.000000
  70
    32
  0
VERTEX
  8
図枠
  5
408
 10
905.220
 20
-313.960
 30
0.000000
  70
    32
  0
VERTEX
  8
図枠
  5
409
 10
905.243
 20
-313.965
 30
0.000000
  70
    32
  0
VERTEX
  8
図枠
  5
40A
 10
905.265
 20
-313.970
 30
0.000000
  70
    32
  0
VERTEX
  8
図枠
  5
40B
 10
905.288
 20
-313.974
 30
0.000000
  70
    32
  0
VERTEX
  8
図枠
  5
40C
 10
905.311
 20
-313.979
 30
0.000000
  70
    32
  0
VERTEX
  8
図枠
  5
40D
 10
905.333
 20
-313.984
 30
0.000000
  70
    32
  0
VERTEX
  8
図枠
  5
40E
 10
905.356
 20
-313.989
 30
0.000000
  70
    32
  0
VERTEX
  8
図枠
  5
40F
 10
905.379
 20
-313.993
 30
0.000000
  70
    32
  0
VERTEX
  8
図枠
  5
410
 10
905.401
 20
-313.998
 30
0.000000
  70
    32
  0
VERTEX
  8
図枠
  5
411
 10
905.424
 20
-314.003
 30
0.000000
  70
    32
  0
VERTEX
  8
図枠
  5
412
 10
905.447
 20
-314.008
 30
0.000000
  70
    32
  0
VERTEX
  8
図枠
  5
413
 10
905.469
 20
-314.013
 30
0.000000
  70
    32
  0
VERTEX
  8
図枠
  5
414
 10
905.492
 20
-314.017
 30
0.000000
  70
    32
  0
VERTEX
  8
図枠
  5
415
 10
905.515
 20
-314.022
 30
0.000000
  70
    32
  0
VERTEX
  8
図枠
  5
416
 10
905.537
 20
-314.027
 30
0.000000
  70
    32
  0
VERTEX
  8
図枠
  5
417
 10
905.560
 20
-314.032
 30
0.000000
  70
    32
  0
VERTEX
  8
図枠
  5
418
 10
905.583
 20
-314.036
 30
0.000000
  70
    32
  0
VERTEX
  8
図枠
  5
419
 10
905.605
 20
-314.041
 30
0.000000
  70
    32
  0
VERTEX
  8
図枠
  5
41A
 10
905.628
 20
-314.046
 30
0.000000
  70
    32
  0
VERTEX
  8
図枠
  5
41B
 10
905.651
 20
-314.050
 30
0.000000
  70
    32
  0
VERTEX
  8
図枠
  5
41C
 10
905.673
 20
-314.055
 30
0.000000
  70
    32
  0
VERTEX
  8
図枠
  5
41D
 10
905.696
 20
-314.060
 30
0.000000
  70
    32
  0
VERTEX
  8
図枠
  5
41E
 10
905.719
 20
-314.065
 30
0.000000
  70
    32
  0
VERTEX
  8
図枠
  5
41F
 10
905.742
 20
-314.069
 30
0.000000
  70
    32
  0
VERTEX
  8
図枠
  5
420
 10
905.764
 20
-314.074
 30
0.000000
  70
    32
  0
VERTEX
  8
図枠
  5
421
 10
905.787
 20
-314.079
 30
0.000000
  70
    32
  0
VERTEX
  8
図枠
  5
422
 10
905.810
 20
-314.084
 30
0.000000
  70
    32
  0
VERTEX
  8
図枠
  5
423
 10
905.832
 20
-314.088
 30
0.000000
  70
    32
  0
VERTEX
  8
図枠
  5
424
 10
905.855
 20
-314.093
 30
0.000000
  70
    32
  0
SEQEND
  8
図枠
  5
425
  0
POLYLINE
  8
図枠
  5
426
  66
     1
 10
0.000000
 20
0.000000
 30
0.000000
  70
     8
  0
VERTEX
  8
図枠
  5
427
 10
901.403
 20
-310.803
 30
0.000000
  70
    32
  0
VERTEX
  8
図枠
  5
428
 10
901.408
 20
-310.809
 30
0.000000
  70
    32
  0
VERTEX
  8
図枠
  5
429
 10
901.413
 20
-310.815
 30
0.000000
  70
    32
  0
VERTEX
  8
図枠
  5
42A
 10
901.418
 20
-310.821
 30
0.000000
  70
    32
  0
VERTEX
  8
図枠
  5
42B
 10
901.424
 20
-310.827
 30
0.000000
  70
    32
  0
VERTEX
  8
図枠
  5
42C
 10
901.429
 20
-310.833
 30
0.000000
  70
    32
  0
VERTEX
  8
図枠
  5
42D
 10
901.434
 20
-310.839
 30
0.000000
  70
    32
  0
VERTEX
  8
図枠
  5
42E
 10
901.439
 20
-310.844
 30
0.000000
  70
    32
  0
VERTEX
  8
図枠
  5
42F
 10
901.445
 20
-310.850
 30
0.000000
  70
    32
  0
VERTEX
  8
図枠
  5
430
 10
901.450
 20
-310.856
 30
0.000000
  70
    32
  0
VERTEX
  8
図枠
  5
431
 10
901.455
 20
-310.862
 30
0.000000
  70
    32
  0
VERTEX
  8
図枠
  5
432
 10
901.461
 20
-310.868
 30
0.000000
  70
    32
  0
VERTEX
  8
図枠
  5
433
 10
901.466
 20
-310.874
 30
0.000000
  70
    32
  0
VERTEX
  8
図枠
  5
434
 10
901.471
 20
-310.880
 30
0.000000
  70
    32
  0
VERTEX
  8
図枠
  5
435
 10
901.476
 20
-310.886
 30
0.000000
  70
    32
  0
VERTEX
  8
図枠
  5
436
 10
901.482
 20
-310.891
 30
0.000000
  70
    32
  0
VERTEX
  8
図枠
  5
437
 10
901.487
 20
-310.897
 30
0.000000
  70
    32
  0
VERTEX
  8
図枠
  5
438
 10
901.492
 20
-310.903
 30
0.000000
  70
    32
  0
VERTEX
  8
図枠
  5
439
 10
901.498
 20
-310.909
 30
0.000000
  70
    32
  0
VERTEX
  8
図枠
  5
43A
 10
901.503
 20
-310.915
 30
0.000000
  70
    32
  0
VERTEX
  8
図枠
  5
43B
 10
901.508
 20
-310.921
 30
0.000000
  70
    32
  0
VERTEX
  8
図枠
  5
43C
 10
901.513
 20
-310.927
 30
0.000000
  70
    32
  0
VERTEX
  8
図枠
  5
43D
 10
901.519
 20
-310.933
 30
0.000000
  70
    32
  0
VERTEX
  8
図枠
  5
43E
 10
901.524
 20
-310.938
 30
0.000000
  70
    32
  0
VERTEX
  8
図枠
  5
43F
 10
901.529
 20
-310.944
 30
0.000000
  70
    32
  0
VERTEX
  8
図枠
  5
440
 10
901.535
 20
-310.950
 30
0.000000
  70
    32
  0
VERTEX
  8
図枠
  5
441
 10
901.540
 20
-310.956
 30
0.000000
  70
    32
  0
VERTEX
  8
図枠
  5
442
 10
901.545
 20
-310.962
 30
0.000000
  70
    32
  0
VERTEX
  8
図枠
  5
443
 10
901.551
 20
-310.968
 30
0.000000
  70
    32
  0
VERTEX
  8
図枠
  5
444
 10
901.556
 20
-310.974
 30
0.000000
  70
    32
  0
VERTEX
  8
図枠
  5
445
 10
901.561
 20
-310.979
 30
0.000000
  70
    32
  0
VERTEX
  8
図枠
  5
446
 10
901.566
 20
-310.985
 30
0.000000
  70
    32
  0
VERTEX
  8
図枠
  5
447
 10
901.572
 20
-310.991
 30
0.000000
  70
    32
  0
VERTEX
  8
図枠
  5
448
 10
901.577
 20
-310.997
 30
0.000000
  70
    32
  0
VERTEX
  8
図枠
  5
449
 10
901.582
 20
-311.003
 30
0.000000
  70
    32
  0
VERTEX
  8
図枠
  5
44A
 10
901.588
 20
-311.009
 30
0.000000
  70
    32
  0
VERTEX
  8
図枠
  5
44B
 10
901.593
 20
-311.014
 30
0.000000
  70
    32
  0
VERTEX
  8
図枠
  5
44C
 10
901.598
 20
-311.020
 30
0.000000
  70
    32
  0
VERTEX
  8
図枠
  5
44D
 10
901.604
 20
-311.026
 30
0.000000
  70
    32
  0
VERTEX
  8
図枠
  5
44E
 10
901.609
 20
-311.032
 30
0.000000
  70
    32
  0
VERTEX
  8
図枠
  5
44F
 10
901.614
 20
-311.038
 30
0.000000
  70
    32
  0
VERTEX
  8
図枠
  5
450
 10
901.620
 20
-311.044
 30
0.000000
  70
    32
  0
VERTEX
  8
図枠
  5
451
 10
901.625
 20
-311.049
 30
0.000000
  70
    32
  0
VERTEX
  8
図枠
  5
452
 10
901.630
 20
-311.055
 30
0.000000
  70
    32
  0
VERTEX
  8
図枠
  5
453
 10
901.636
 20
-311.061
 30
0.000000
  70
    32
  0
VERTEX
  8
図枠
  5
454
 10
901.641
 20
-311.067
 30
0.000000
  70
    32
  0
VERTEX
  8
図枠
  5
455
 10
901.646
 20
-311.073
 30
0.000000
  70
    32
  0
VERTEX
  8
図枠
  5
456
 10
901.652
 20
-311.078
 30
0.000000
  70
    32
  0
VERTEX
  8
図枠
  5
457
 10
901.657
 20
-311.084
 30
0.000000
  70
    32
  0
VERTEX
  8
図枠
  5
458
 10
901.662
 20
-311.090
 30
0.000000
  70
    32
  0
VERTEX
  8
図枠
  5
459
 10
901.668
 20
-311.096
 30
0.000000
  70
    32
  0
VERTEX
  8
図枠
  5
45A
 10
901.673
 20
-311.101
 30
0.000000
  70
    32
  0
VERTEX
  8
図枠
  5
45B
 10
901.678
 20
-311.107
 30
0.000000
  70
    32
  0
VERTEX
  8
図枠
  5
45C
 10
901.684
 20
-311.113
 30
0.000000
  70
    32
  0
VERTEX
  8
図枠
  5
45D
 10
901.689
 20
-311.119
 30
0.000000
  70
    32
  0
VERTEX
  8
図枠
  5
45E
 10
901.694
 20
-311.125
 30
0.000000
  70
    32
  0
VERTEX
  8
図枠
  5
45F
 10
901.700
 20
-311.130
 30
0.000000
  70
    32
  0
VERTEX
  8
図枠
  5
460
 10
901.705
 20
-311.136
 30
0.000000
  70
    32
  0
VERTEX
  8
図枠
  5
461
 10
901.711
 20
-311.142
 30
0.000000
  70
    32
  0
VERTEX
  8
図枠
  5
462
 10
901.716
 20
-311.148
 30
0.000000
  70
    32
  0
VERTEX
  8
図枠
  5
463
 10
901.721
 20
-311.153
 30
0.000000
  70
    32
  0
VERTEX
  8
図枠
  5
464
 10
901.727
 20
-311.159
 30
0.000000
  70
    32
  0
VERTEX
  8
図枠
  5
465
 10
901.732
 20
-311.165
 30
0.000000
  70
    32
  0
VERTEX
  8
図枠
  5
466
 10
901.737
 20
-311.170
 30
0.000000
  70
    32
  0
VERTEX
  8
図枠
  5
467
 10
901.743
 20
-311.176
 30
0.000000
  70
    32
  0
VERTEX
  8
図枠
  5
468
 10
901.748
 20
-311.182
 30
0.000000
  70
    32
  0
VERTEX
  8
図枠
  5
469
 10
901.754
 20
-311.188
 30
0.000000
  70
    32
  0
VERTEX
  8
図枠
  5
46A
 10
901.759
 20
-311.193
 30
0.000000
  70
    32
  0
VERTEX
  8
図枠
  5
46B
 10
901.764
 20
-311.199
 30
0.000000
  70
    32
  0
VERTEX
  8
図枠
  5
46C
 10
901.770
 20
-311.205
 30
0.000000
  70
    32
  0
VERTEX
  8
図枠
  5
46D
 10
901.775
 20
-311.210
 30
0.000000
  70
    32
  0
VERTEX
  8
図枠
  5
46E
 10
901.781
 20
-311.216
 30
0.000000
  70
    32
  0
VERTEX
  8
図枠
  5
46F
 10
901.786
 20
-311.222
 30
0.000000
  70
    32
  0
VERTEX
  8
図枠
  5
470
 10
901.791
 20
-311.227
 30
0.000000
  70
    32
  0
VERTEX
  8
図枠
  5
471
 10
901.797
 20
-311.233
 30
0.000000
  70
    32
  0
VERTEX
  8
図枠
  5
472
 10
901.802
 20
-311.239
 30
0.000000
  70
    32
  0
VERTEX
  8
図枠
  5
473
 10
901.808
 20
-311.244
 30
0.000000
  70
    32
  0
VERTEX
  8
図枠
  5
474
 10
901.813
 20
-311.250
 30
0.000000
  70
    32
  0
VERTEX
  8
図枠
  5
475
 10
901.819
 20
-311.255
 30
0.000000
  70
    32
  0
VERTEX
  8
図枠
  5
476
 10
901.824
 20
-311.261
 30
0.000000
  70
    32
  0
VERTEX
  8
図枠
  5
477
 10
901.830
 20
-311.267
 30
0.000000
  70
    32
  0
VERTEX
  8
図枠
  5
478
 10
901.835
 20
-311.272
 30
0.000000
  70
    32
  0
VERTEX
  8
図枠
  5
479
 10
901.840
 20
-311.278
 30
0.000000
  70
    32
  0
VERTEX
  8
図枠
  5
47A
 10
901.846
 20
-311.283
 30
0.000000
  70
    32
  0
VERTEX
  8
図枠
  5
47B
 10
901.851
 20
-311.289
 30
0.000000
  70
    32
  0
VERTEX
  8
図枠
  5
47C
 10
901.857
 20
-311.295
 30
0.000000
  70
    32
  0
VERTEX
  8
図枠
  5
47D
 10
901.862
 20
-311.300
 30
0.000000
  70
    32
  0
VERTEX
  8
図枠
  5
47E
 10
901.868
 20
-311.306
 30
0.000000
  70
    32
  0
VERTEX
  8
図枠
  5
47F
 10
901.873
 20
-311.311
 30
0.000000
  70
    32
  0
VERTEX
  8
図枠
  5
480
 10
901.879
 20
-311.317
 30
0.000000
  70
    32
  0
VERTEX
  8
図枠
  5
481
 10
901.884
 20
-311.322
 30
0.000000
  70
    32
  0
VERTEX
  8
図枠
  5
482
 10
901.890
 20
-311.328
 30
0.000000
  70
    32
  0
VERTEX
  8
図枠
  5
483
 10
901.895
 20
-311.333
 30
0.000000
  70
    32
  0
VERTEX
  8
図枠
  5
484
 10
901.901
 20
-311.339
 30
0.000000
  70
    32
  0
VERTEX
  8
図枠
  5
485
 10
901.906
 20
-311.344
 30
0.000000
  70
    32
  0
VERTEX
  8
図枠
  5
486
 10
901.912
 20
-311.350
 30
0.000000
  70
    32
  0
VERTEX
  8
図枠
  5
487
 10
901.917
 20
-311.355
 30
0.000000
  70
    32
  0
VERTEX
  8
図枠
  5
488
 10
901.923
 20
-311.361
 30
0.000000
  70
    32
  0
VERTEX
  8
図枠
  5
489
 10
901.928
 20
-311.366
 30
0.000000
  70
    32
  0
VERTEX
  8
図枠
  5
48A
 10
901.934
 20
-311.372
 30
0.000000
  70
    32
  0
VERTEX
  8
図枠
  5
48B
 10
901.940
 20
-311.377
 30
0.000000
  70
    32
  0
VERTEX
  8
図枠
  5
48C
 10
901.945
 20
-311.383
 30
0.000000
  70
    32
  0
VERTEX
  8
図枠
  5
48D
 10
901.951
 20
-311.388
 30
0.000000
  70
    32
  0
VERTEX
  8
図枠
  5
48E
 10
901.956
 20
-311.394
 30
0.000000
  70
    32
  0
VERTEX
  8
図枠
  5
48F
 10
901.962
 20
-311.399
 30
0.000000
  70
    32
  0
VERTEX
  8
図枠
  5
490
 10
901.967
 20
-311.404
 30
0.000000
  70
    32
  0
VERTEX
  8
図枠
  5
491
 10
901.973
 20
-311.410
 30
0.000000
  70
    32
  0
VERTEX
  8
図枠
  5
492
 10
901.979
 20
-311.415
 30
0.000000
  70
    32
  0
VERTEX
  8
図枠
  5
493
 10
901.984
 20
-311.421
 30
0.000000
  70
    32
  0
VERTEX
  8
図枠
  5
494
 10
901.990
 20
-311.426
 30
0.000000
  70
    32
  0
VERTEX
  8
図枠
  5
495
 10
901.995
 20
-311.431
 30
0.000000
  70
    32
  0
VERTEX
  8
図枠
  5
496
 10
902.001
 20
-311.437
 30
0.000000
  70
    32
  0
VERTEX
  8
図枠
  5
497
 10
902.007
 20
-311.442
 30
0.000000
  70
    32
  0
VERTEX
  8
図枠
  5
498
 10
902.012
 20
-311.447
 30
0.000000
  70
    32
  0
VERTEX
  8
図枠
  5
499
 10
902.018
 20
-311.453
 30
0.000000
  70
    32
  0
VERTEX
  8
図枠
  5
49A
 10
902.023
 20
-311.458
 30
0.000000
  70
    32
  0
VERTEX
  8
図枠
  5
49B
 10
902.029
 20
-311.463
 30
0.000000
  70
    32
  0
VERTEX
  8
図枠
  5
49C
 10
902.035
 20
-311.469
 30
0.000000
  70
    32
  0
VERTEX
  8
図枠
  5
49D
 10
902.040
 20
-311.474
 30
0.000000
  70
    32
  0
VERTEX
  8
図枠
  5
49E
 10
902.046
 20
-311.479
 30
0.000000
  70
    32
  0
VERTEX
  8
図枠
  5
49F
 10
902.052
 20
-311.484
 30
0.000000
  70
    32
  0
VERTEX
  8
図枠
  5
4A0
 10
902.057
 20
-311.490
 30
0.000000
  70
    32
  0
VERTEX
  8
図枠
  5
4A1
 10
902.063
 20
-311.495
 30
0.000000
  70
    32
  0
VERTEX
  8
図枠
  5
4A2
 10
902.069
 20
-311.500
 30
0.000000
  70
    32
  0
VERTEX
  8
図枠
  5
4A3
 10
902.075
 20
-311.505
 30
0.000000
  70
    32
  0
VERTEX
  8
図枠
  5
4A4
 10
902.080
 20
-311.510
 30
0.000000
  70
    32
  0
VERTEX
  8
図枠
  5
4A5
 10
902.086
 20
-311.516
 30
0.000000
  70
    32
  0
VERTEX
  8
図枠
  5
4A6
 10
902.092
 20
-311.521
 30
0.000000
  70
    32
  0
SEQEND
  8
図枠
  5
4A7
  0
LINE
  5
63
  8
図枠
 10
898.65506486819993
 20
-309.93297902239999
 30
0.0
 11
902.65506486820004
 21
-309.93297902239999
 31
0.0
  0
LINE
  5
64
  8
図枠
 10
914.82905098679987
 20
-309.85297902240001
 30
0.0
 11
914.82905098679987
 21
-311.2929790224
 31
0.0
  0
LINE
  5
65
  8
図枠
 10
911.77670707139998
 20
-309.44599591000002
 30
0.0
 11
912.42905098679978
 21
-308.49297902239999
 31
0.0
  0
LINE
  5
66
  8
図枠
 10
893.32658001970003
 20
-310.09297902240002
 30
0.0
 11
891.72658001970001
 21
-310.09297902240002
 31
0.0
  0
LINE
  5
67
  8
図枠
 62
     5
 10
904.52937865369995
 20
-140.6211173959
 30
0.0
 11
904.52937865369995
 21
-125.6211173959
 31
0.0
  0
LINE
  5
68
  8
図枠
 10
912.49237318530004
 20
-311.93297902239999
 30
0.0
 11
912.30820373489996
 21
-311.2929790224
 31
0.0
  0
LINE
  5
69
  8
図枠
 10
888.80569697039994
 20
-310.09297902240002
 30
0.0
 11
888.80569697039994
 21
-311.2929790224
 31
0.0
  0
LINE
  5
6A
  8
図枠
 10
898.65506486819993
 20
-312.89297902240003
 30
0.0
 11
898.65506486819993
 21
-314.09297902240002
 31
0.0
  0
POLYLINE
  8
図枠
  5
4A8
  66
     1
 10
0.000000
 20
0.000000
 30
0.000000
  70
     8
  0
VERTEX
  8
図枠
  5
4A9
 10
904.003
 20
-312.512
 30
0.000000
  70
    32
  0
VERTEX
  8
図枠
  5
4AA
 10
904.017
 20
-312.516
 30
0.000000
  70
    32
  0
VERTEX
  8
図枠
  5
4AB
 10
904.031
 20
-312.520
 30
0.000000
  70
    32
  0
VERTEX
  8
図枠
  5
4AC
 10
904.045
 20
-312.524
 30
0.000000
  70
    32
  0
VERTEX
  8
図枠
  5
4AD
 10
904.059
 20
-312.528
 30
0.000000
  70
    32
  0
VERTEX
  8
図枠
  5
4AE
 10
904.073
 20
-312.531
 30
0.000000
  70
    32
  0
VERTEX
  8
図枠
  5
4AF
 10
904.087
 20
-312.535
 30
0.000000
  70
    32
  0
VERTEX
  8
図枠
  5
4B0
 10
904.101
 20
-312.539
 30
0.000000
  70
    32
  0
VERTEX
  8
図枠
  5
4B1
 10
904.115
 20
-312.543
 30
0.000000
  70
    32
  0
VERTEX
  8
図枠
  5
4B2
 10
904.129
 20
-312.547
 30
0.000000
  70
    32
  0
VERTEX
  8
図枠
  5
4B3
 10
904.143
 20
-312.550
 30
0.000000
  70
    32
  0
VERTEX
  8
図枠
  5
4B4
 10
904.157
 20
-312.554
 30
0.000000
  70
    32
  0
VERTEX
  8
図枠
  5
4B5
 10
904.172
 20
-312.558
 30
0.000000
  70
    32
  0
VERTEX
  8
図枠
  5
4B6
 10
904.186
 20
-312.562
 30
0.000000
  70
    32
  0
VERTEX
  8
図枠
  5
4B7
 10
904.200
 20
-312.565
 30
0.000000
  70
    32
  0
VERTEX
  8
図枠
  5
4B8
 10
904.214
 20
-312.569
 30
0.000000
  70
    32
  0
VERTEX
  8
図枠
  5
4B9
 10
904.228
 20
-312.573
 30
0.000000
  70
    32
  0
VERTEX
  8
図枠
  5
4BA
 10
904.242
 20
-312.576
 30
0.000000
  70
    32
  0
VERTEX
  8
図枠
  5
4BB
 10
904.257
 20
-312.580
 30
0.000000
  70
    32
  0
VERTEX
  8
図枠
  5
4BC
 10
904.271
 20
-312.583
 30
0.000000
  70
    32
  0
VERTEX
  8
図枠
  5
4BD
 10
904.285
 20
-312.587
 30
0.000000
  70
    32
  0
VERTEX
  8
図枠
  5
4BE
 10
904.299
 20
-312.590
 30
0.000000
  70
    32
  0
VERTEX
  8
図枠
  5
4BF
 10
904.314
 20
-312.594
 30
0.000000
  70
    32
  0
VERTEX
  8
図枠
  5
4C0
 10
904.328
 20
-312.598
 30
0.000000
  70
    32
  0
VERTEX
  8
図枠
  5
4C1
 10
904.342
 20
-312.601
 30
0.000000
  70
    32
  0
VERTEX
  8
図枠
  5
4C2
 10
904.356
 20
-312.604
 30
0.000000
  70
    32
  0
VERTEX
  8
図枠
  5
4C3
 10
904.371
 20
-312.608
 30
0.000000
  70
    32
  0
VERTEX
  8
図枠
  5
4C4
 10
904.385
 20
-312.611
 30
0.000000
  70
    32
  0
VERTEX
  8
図枠
  5
4C5
 10
904.399
 20
-312.615
 30
0.000000
  70
    32
  0
VERTEX
  8
図枠
  5
4C6
 10
904.414
 20
-312.618
 30
0.000000
  70
    32
  0
VERTEX
  8
図枠
  5
4C7
 10
904.428
 20
-312.622
 30
0.000000
  70
    32
  0
VERTEX
  8
図枠
  5
4C8
 10
904.442
 20
-312.625
 30
0.000000
  70
    32
  0
VERTEX
  8
図枠
  5
4C9
 10
904.457
 20
-312.628
 30
0.000000
  70
    32
  0
VERTEX
  8
図枠
  5
4CA
 10
904.471
 20
-312.632
 30
0.000000
  70
    32
  0
VERTEX
  8
図枠
  5
4CB
 10
904.486
 20
-312.635
 30
0.000000
  70
    32
  0
VERTEX
  8
図枠
  5
4CC
 10
904.500
 20
-312.638
 30
0.000000
  70
    32
  0
VERTEX
  8
図枠
  5
4CD
 10
904.514
 20
-312.641
 30
0.000000
  70
    32
  0
VERTEX
  8
図枠
  5
4CE
 10
904.529
 20
-312.645
 30
0.000000
  70
    32
  0
VERTEX
  8
図枠
  5
4CF
 10
904.543
 20
-312.648
 30
0.000000
  70
    32
  0
VERTEX
  8
図枠
  5
4D0
 10
904.558
 20
-312.651
 30
0.000000
  70
    32
  0
VERTEX
  8
図枠
  5
4D1
 10
904.572
 20
-312.654
 30
0.000000
  70
    32
  0
VERTEX
  8
図枠
  5
4D2
 10
904.587
 20
-312.658
 30
0.000000
  70
    32
  0
VERTEX
  8
図枠
  5
4D3
 10
904.601
 20
-312.661
 30
0.000000
  70
    32
  0
VERTEX
  8
図枠
  5
4D4
 10
904.616
 20
-312.664
 30
0.000000
  70
    32
  0
VERTEX
  8
図枠
  5
4D5
 10
904.630
 20
-312.667
 30
0.000000
  70
    32
  0
VERTEX
  8
図枠
  5
4D6
 10
904.645
 20
-312.670
 30
0.000000
  70
    32
  0
VERTEX
  8
図枠
  5
4D7
 10
904.659
 20
-312.673
 30
0.000000
  70
    32
  0
VERTEX
  8
図枠
  5
4D8
 10
904.674
 20
-312.676
 30
0.000000
  70
    32
  0
VERTEX
  8
図枠
  5
4D9
 10
904.688
 20
-312.679
 30
0.000000
  70
    32
  0
VERTEX
  8
図枠
  5
4DA
 10
904.703
 20
-312.683
 30
0.000000
  70
    32
  0
VERTEX
  8
図枠
  5
4DB
 10
904.717
 20
-312.686
 30
0.000000
  70
    32
  0
VERTEX
  8
図枠
  5
4DC
 10
904.732
 20
-312.689
 30
0.000000
  70
    32
  0
VERTEX
  8
図枠
  5
4DD
 10
904.746
 20
-312.692
 30
0.000000
  70
    32
  0
VERTEX
  8
図枠
  5
4DE
 10
904.761
 20
-312.695
 30
0.000000
  70
    32
  0
VERTEX
  8
図枠
  5
4DF
 10
904.776
 20
-312.698
 30
0.000000
  70
    32
  0
VERTEX
  8
図枠
  5
4E0
 10
904.790
 20
-312.701
 30
0.000000
  70
    32
  0
VERTEX
  8
図枠
  5
4E1
 10
904.805
 20
-312.704
 30
0.000000
  70
    32
  0
VERTEX
  8
図枠
  5
4E2
 10
904.819
 20
-312.707
 30
0.000000
  70
    32
  0
VERTEX
  8
図枠
  5
4E3
 10
904.834
 20
-312.710
 30
0.000000
  70
    32
  0
VERTEX
  8
図枠
  5
4E4
 10
904.849
 20
-312.713
 30
0.000000
  70
    32
  0
VERTEX
  8
図枠
  5
4E5
 10
904.863
 20
-312.715
 30
0.000000
  70
    32
  0
VERTEX
  8
図枠
  5
4E6
 10
904.878
 20
-312.718
 30
0.000000
  70
    32
  0
VERTEX
  8
図枠
  5
4E7
 10
904.893
 20
-312.721
 30
0.000000
  70
    32
  0
VERTEX
  8
図枠
  5
4E8
 10
904.907
 20
-312.724
 30
0.000000
  70
    32
  0
VERTEX
  8
図枠
  5
4E9
 10
904.922
 20
-312.727
 30
0.000000
  70
    32
  0
VERTEX
  8
図枠
  5
4EA
 10
904.936
 20
-312.730
 30
0.000000
  70
    32
  0
VERTEX
  8
図枠
  5
4EB
 10
904.951
 20
-312.733
 30
0.000000
  70
    32
  0
VERTEX
  8
図枠
  5
4EC
 10
904.966
 20
-312.736
 30
0.000000
  70
    32
  0
VERTEX
  8
図枠
  5
4ED
 10
904.981
 20
-312.738
 30
0.000000
  70
    32
  0
VERTEX
  8
図枠
  5
4EE
 10
904.995
 20
-312.741
 30
0.000000
  70
    32
  0
VERTEX
  8
図枠
  5
4EF
 10
905.010
 20
-312.744
 30
0.000000
  70
    32
  0
VERTEX
  8
図枠
  5
4F0
 10
905.025
 20
-312.747
 30
0.000000
  70
    32
  0
VERTEX
  8
図枠
  5
4F1
 10
905.039
 20
-312.750
 30
0.000000
  70
    32
  0
VERTEX
  8
図枠
  5
4F2
 10
905.054
 20
-312.752
 30
0.000000
  70
    32
  0
VERTEX
  8
図枠
  5
4F3
 10
905.069
 20
-312.755
 30
0.000000
  70
    32
  0
VERTEX
  8
図枠
  5
4F4
 10
905.084
 20
-312.758
 30
0.000000
  70
    32
  0
VERTEX
  8
図枠
  5
4F5
 10
905.098
 20
-312.761
 30
0.000000
  70
    32
  0
VERTEX
  8
図枠
  5
4F6
 10
905.113
 20
-312.763
 30
0.000000
  70
    32
  0
VERTEX
  8
図枠
  5
4F7
 10
905.128
 20
-312.766
 30
0.000000
  70
    32
  0
VERTEX
  8
図枠
  5
4F8
 10
905.143
 20
-312.769
 30
0.000000
  70
    32
  0
VERTEX
  8
図枠
  5
4F9
 10
905.157
 20
-312.772
 30
0.000000
  70
    32
  0
VERTEX
  8
図枠
  5
4FA
 10
905.172
 20
-312.774
 30
0.000000
  70
    32
  0
VERTEX
  8
図枠
  5
4FB
 10
905.187
 20
-312.777
 30
0.000000
  70
    32
  0
VERTEX
  8
図枠
  5
4FC
 10
905.202
 20
-312.780
 30
0.000000
  70
    32
  0
VERTEX
  8
図枠
  5
4FD
 10
905.216
 20
-312.782
 30
0.000000
  70
    32
  0
VERTEX
  8
図枠
  5
4FE
 10
905.231
 20
-312.785
 30
0.000000
  70
    32
  0
VERTEX
  8
図枠
  5
4FF
 10
905.246
 20
-312.788
 30
0.000000
  70
    32
  0
VERTEX
  8
図枠
  5
500
 10
905.261
 20
-312.790
 30
0.000000
  70
    32
  0
VERTEX
  8
図枠
  5
501
 10
905.276
 20
-312.793
 30
0.000000
  70
    32
  0
VERTEX
  8
図枠
  5
502
 10
905.290
 20
-312.796
 30
0.000000
  70
    32
  0
VERTEX
  8
図枠
  5
503
 10
905.305
 20
-312.798
 30
0.000000
  70
    32
  0
VERTEX
  8
図枠
  5
504
 10
905.320
 20
-312.801
 30
0.000000
  70
    32
  0
VERTEX
  8
図枠
  5
505
 10
905.335
 20
-312.804
 30
0.000000
  70
    32
  0
VERTEX
  8
図枠
  5
506
 10
905.350
 20
-312.806
 30
0.000000
  70
    32
  0
VERTEX
  8
図枠
  5
507
 10
905.364
 20
-312.809
 30
0.000000
  70
    32
  0
VERTEX
  8
図枠
  5
508
 10
905.379
 20
-312.812
 30
0.000000
  70
    32
  0
VERTEX
  8
図枠
  5
509
 10
905.394
 20
-312.814
 30
0.000000
  70
    32
  0
VERTEX
  8
図枠
  5
50A
 10
905.409
 20
-312.817
 30
0.000000
  70
    32
  0
VERTEX
  8
図枠
  5
50B
 10
905.424
 20
-312.819
 30
0.000000
  70
    32
  0
VERTEX
  8
図枠
  5
50C
 10
905.439
 20
-312.822
 30
0.000000
  70
    32
  0
VERTEX
  8
図枠
  5
50D
 10
905.453
 20
-312.824
 30
0.000000
  70
    32
  0
VERTEX
  8
図枠
  5
50E
 10
905.468
 20
-312.827
 30
0.000000
  70
    32
  0
VERTEX
  8
図枠
  5
50F
 10
905.483
 20
-312.830
 30
0.000000
  70
    32
  0
VERTEX
  8
図枠
  5
510
 10
905.498
 20
-312.832
 30
0.000000
  70
    32
  0
VERTEX
  8
図枠
  5
511
 10
905.513
 20
-312.835
 30
0.000000
  70
    32
  0
VERTEX
  8
図枠
  5
512
 10
905.528
 20
-312.837
 30
0.000000
  70
    32
  0
VERTEX
  8
図枠
  5
513
 10
905.543
 20
-312.840
 30
0.000000
  70
    32
  0
VERTEX
  8
図枠
  5
514
 10
905.557
 20
-312.842
 30
0.000000
  70
    32
  0
VERTEX
  8
図枠
  5
515
 10
905.572
 20
-312.845
 30
0.000000
  70
    32
  0
VERTEX
  8
図枠
  5
516
 10
905.587
 20
-312.848
 30
0.000000
  70
    32
  0
VERTEX
  8
図枠
  5
517
 10
905.602
 20
-312.850
 30
0.000000
  70
    32
  0
VERTEX
  8
図枠
  5
518
 10
905.617
 20
-312.853
 30
0.000000
  70
    32
  0
VERTEX
  8
図枠
  5
519
 10
905.632
 20
-312.855
 30
0.000000
  70
    32
  0
VERTEX
  8
図枠
  5
51A
 10
905.647
 20
-312.858
 30
0.000000
  70
    32
  0
VERTEX
  8
図枠
  5
51B
 10
905.662
 20
-312.860
 30
0.000000
  70
    32
  0
VERTEX
  8
図枠
  5
51C
 10
905.676
 20
-312.863
 30
0.000000
  70
    32
  0
VERTEX
  8
図枠
  5
51D
 10
905.691
 20
-312.865
 30
0.000000
  70
    32
  0
VERTEX
  8
図枠
  5
51E
 10
905.706
 20
-312.868
 30
0.000000
  70
    32
  0
VERTEX
  8
図枠
  5
51F
 10
905.721
 20
-312.870
 30
0.000000
  70
    32
  0
VERTEX
  8
図枠
  5
520
 10
905.736
 20
-312.873
 30
0.000000
  70
    32
  0
VERTEX
  8
図枠
  5
521
 10
905.751
 20
-312.875
 30
0.000000
  70
    32
  0
VERTEX
  8
図枠
  5
522
 10
905.766
 20
-312.878
 30
0.000000
  70
    32
  0
VERTEX
  8
図枠
  5
523
 10
905.781
 20
-312.880
 30
0.000000
  70
    32
  0
VERTEX
  8
図枠
  5
524
 10
905.796
 20
-312.883
 30
0.000000
  70
    32
  0
VERTEX
  8
図枠
  5
525
 10
905.810
 20
-312.885
 30
0.000000
  70
    32
  0
VERTEX
  8
図枠
  5
526
 10
905.825
 20
-312.888
 30
0.000000
  70
    32
  0
VERTEX
  8
図枠
  5
527
 10
905.840
 20
-312.890
 30
0.000000
  70
    32
  0
VERTEX
  8
図枠
  5
528
 10
905.855
 20
-312.893
 30
0.000000
  70
    32
  0
SEQEND
  8
図枠
  5
529
  0
LINE
  5
6C
  8
図枠
 10
909.85985946490007
 20
-295.52311739589999
 30
0.0
 11
914.46785946490013
 21
-296.67511739589997
 31
0.0
  0
LINE
  5
6D
  8
図枠
 10
909.85985946490007
 20
-293.21911739590001
 30
0.0
 11
909.85985946490007
 21
-295.52311739589999
 31
0.0
  0
LINE
  5
6E
  8
図枠
  6
BORDER
 10
904.5933786536998
 20
-290.91511739589998
 30
0.0
 11
904.5933786536998
 21
-297.82711739590002
 31
0.0
  0
LINE
  5
6F
  8
図枠
 10
909.85985946490007
 20
-293.21911739590001
 30
0.0
 11
909.85985946490007
 21
-295.52311739589999
 31
0.0
  0
LINE
  5
70
  8
図枠
 10
895.32658001970003
 20
-309.69297902239998
 30
0.0
 11
896.52658001969996
 21
-308.49297902239999
 31
0.0
  0
LINE
  5
71
  8
図枠
 10
905.85506486819997
 20
-312.89297902240003
 30
0.0
 11
905.85506486819997
 21
-314.09297902240002
 31
0.0
  0
LINE
  5
72
  8
図枠
 10
889.72658001970012
 20
-311.2929790224
 30
0.0
 11
889.60569697039978
 21
-311.2929790224
 31
0.0
  0
LINE
  5
73
  8
図枠
 10
895.32658001970003
 20
-310.09297902240002
 30
0.0
 11
895.32658001970003
 21
-309.69297902239998
 31
0.0
  0
LINE
  5
74
  8
図枠
 10
860.52937865369995
 20
-302.8711173959
 30
0.0
 11
886.52937865369995
 21
-302.8711173959
 31
0.0
  0
LINE
  5
75
  8
図枠
 10
898.52937865369995
 20
-290.1211173959
 30
0.0
 11
898.52937865369995
 21
-298.6211173959
 31
0.0
  0
INSERT
  5
76
  8
0
  6
CONTINUOUS
  2
*U27
 10
0.0
 20
0.0
 30
0.0
  0
LINE
  5
77
  8
図枠
 10
910.98905098679995
 20
-314.49297902239999
 30
0.0
 11
913.22905098679985
 21
-314.49297902239999
 31
0.0
  0
LINE
  5
78
  8
図枠
 10
888.52937865369995
 20
-298.6211173959
 30
0.0
 11
888.52937865369995
 21
-307.1211173959
 31
0.0
  0
LINE
  5
79
  8
図枠
 10
889.72658001970012
 20
-312.89297902240003
 30
0.0
 11
889.72658001970012
 21
-314.09297902240002
 31
0.0
  0
ARC
  5
7A
  8
図枠
 10
892.12658001969999
 20
-311.69297902239998
 30
0.0
 40
1.1999999999999991
 50
270.0
 51
0.0
  0
LINE
  5
7B
  8
図枠
 10
898.65506486819993
 20
-310.3506672364
 30
0.0
 11
901.85506486820009
 21
-310.3506672364
 31
0.0
  0
LINE
  5
7C
  8
図枠
 10
895.32658001970003
 20
-311.69297902239998
 30
0.0
 11
895.32658001970003
 21
-311.2929790224
 31
0.0
  0
LINE
  5
7D
  8
図枠
 10
898.65506486819993
 20
-312.89297902240003
 30
0.0
 11
899.61506486819997
 21
-312.89297902240003
 31
0.0
  0
LINE
  5
7E
  8
図枠
 10
909.22905098679996
 20
-308.49297902239999
 30
0.0
 11
912.42905098679978
 21
-308.49297902239999
 31
0.0
  0
LINE
  5
7F
  8
図枠
 10
905.05506486819991
 20
-309.69297902239998
 30
0.0
 11
905.85506486819997
 21
-308.49297902239999
 31
0.0
  0
LINE
  5
80
  8
図枠
 10
913.22905098679985
 20
-314.49297902239999
 30
0.0
 11
912.90675444860005
 21
-313.37297902239999
 31
0.0
  0
LINE
  5
81
  8
図枠
 10
898.65506486819993
 20
-314.09297902240002
 30
0.0
 11
900.65506486820016
 21
-314.09297902240002
 31
0.0
  0
ARC
  5
82
  8
図枠
 10
899.61506486819997
 20
-309.85297902240001
 30
0.0
 40
3.04
 50
331.39928138329998
 51
358.49204224580001
  0
LINE
  5
83
  8
図枠
 10
896.52658001969996
 20
-310.09297902240002
 30
0.0
 11
895.32658001970003
 21
-310.09297902240002
 31
0.0
  0
LINE
  5
84
  8
図枠
 10
893.32658001970003
 20
-311.2929790224
 30
0.0
 11
893.32658001970003
 21
-311.69297902239998
 31
0.0
  0
LINE
  5
85
  8
図枠
 10
909.85985946490007
 20
-295.52311739589999
 30
0.0
 11
914.46785946490013
 21
-296.67511739589997
 31
0.0
  0
CIRCLE
  5
86
  8
図枠
 10
904.5933786536998
 20
-294.3711173959
 30
0.0
 40
2.3039999999999998
  0
LINE
  5
87
  8
図枠
 10
858.52937865369995
 20
-284.6211173959
 30
0.0
 11
974.52937865369995
 21
-284.6211173959
 31
0.0
  0
LINE
  5
88
  8
図枠
 10
858.52937865369995
 20
-279.1211173959
 30
0.0
 11
974.52937865369995
 21
-279.1211173959
 31
0.0
  0
LINE
  5
89
  8
図枠
  6
BORDER
 10
904.5933786536998
 20
-290.91511739589998
 30
0.0
 11
904.5933786536998
 21
-297.82711739590002
 31
0.0
  0
LINE
  5
8A
  8
図枠
 10
914.46785946490013
 20
-292.06711739590003
 30
0.0
 11
914.46785946490013
 21
-296.67511739589997
 31
0.0
  0
LINE
  5
8B
  8
図枠
 10
909.85985946490007
 20
-293.21911739590001
 30
0.0
 11
909.85985946490007
 21
-295.52311739589999
 31
0.0
  0
LINE
  5
8C
  8
図枠
 10
910.23811765339985
 20
-311.93297902239999
 30
0.0
 11
910.05038432009997
 21
-311.2929790224
 31
0.0
  0
INSERT
  5
8D
  8
0
  6
CONTINUOUS
  2
*U28
 10
0.0
 20
0.0
 30
0.0
  0
LINE
  5
8E
  8
図枠
 10
909.85985946490007
 20
-295.52311739589999
 30
0.0
 11
914.46785946490013
 21
-296.67511739589997
 31
0.0
  0
INSERT
  5
8F
  8
0
  6
CONTINUOUS
  2
*U29
 10
0.0
 20
0.0
 30
0.0
  0
INSERT
  5
90
  8
0
  6
CONTINUOUS
  2
*U30
 10
0.0
 20
0.0
 30
0.0
  0
LINE
  5
91
  8
図枠
 10
909.85985946490007
 20
-293.21911739590001
 30
0.0
 11
914.46785946490013
 21
-292.06711739590003
 31
0.0
  0
ARC
  5
92
  8
図枠
 10
900.65506486820016
 20
-309.69297902239998
 30
0.0
 40
4.4000000000000004
 50
270.0
 51
302.54495885400001
  0
LINE
  5
93
  8
図枠
 10
888.80569697039994
 20
-311.2929790224
 30
0.0
 11
889.60569697039978
 21
-311.2929790224
 31
0.0
  0
CIRCLE
  5
94
  8
図枠
 10
904.5933786536998
 20
-294.3711173959
 30
0.0
 40
2.3039999999999998
  0
LINE
  5
95
  8
図枠
 10
909.85985946490007
 20
-293.21911739590001
 30
0.0
 11
914.46785946490013
 21
-292.06711739590003
 31
0.0
  0
LINE
  5
96
  8
図枠
 10
907.62905098680005
 20
-311.93297902239999
 30
0.0
 11
907.62905098680005
 21
-313.37297902239999
 31
0.0
  0
LINE
  5
97
  8
図枠
 10
891.72658001970001
 20
-312.49297902239999
 30
0.0
 11
891.72658001970001
 21
-311.2929790224
 31
0.0
  0
LINE
  5
98
  8
図枠
 10
912.90675444860005
 20
-313.37297902239999
 30
0.0
 11
914.82905098679987
 21
-313.37297902239999
 31
0.0
  0
LINE
  5
99
  8
図枠
 10
892.92658001970005
 20
-308.49297902239999
 30
0.0
 11
889.72658001970012
 21
-308.49297902239999
 31
0.0
  0
LINE
  5
9A
  8
図枠
 10
895.32658001970003
 20
-311.2929790224
 30
0.0
 11
896.52658001969996
 21
-311.2929790224
 31
0.0
  0
LINE
  5
9B
  8
図枠
 10
910.98905098679995
 20
-314.49297902239999
 30
0.0
 11
910.66051765339989
 21
-313.37297902239999
 31
0.0
  0
LINE
  5
9C
  8
図枠
 10
892.12658001969999
 20
-312.89297902240003
 30
0.0
 11
889.72658001970012
 21
-312.89297902240003
 31
0.0
  0
LINE
  5
9D
  8
図枠
 10
914.46785946490013
 20
-292.06711739590003
 30
0.0
 11
914.46785946490013
 21
-296.67511739589997
 31
0.0
  0
LINE
  5
9E
  8
図枠
 10
907.62905098680005
 20
-309.85297902240001
 30
0.0
 11
907.62905098680005
 21
-311.2929790224
 31
0.0
  0
LINE
  5
9F
  8
図枠
  6
DOT
 10
693.52937865369995
 20
-321.3711173959
 30
0.0
 11
980.52937865369995
 21
-321.3711173959
 31
0.0
  0
LINE
  5
A0
  8
図枠
 10
858.52937865369995
 20
-290.1211173959
 30
0.0
 11
858.52937865369995
 21
-315.6211173959
 31
0.0
  0
LINE
  5
A1
  8
図枠
 10
858.52937865369995
 20
-273.6211173959
 30
0.0
 11
858.52937865369995
 21
-290.1211173959
 31
0.0
  0
LINE
  5
A2
  8
図枠
 10
914.46785946490013
 20
-292.06711739590003
 30
0.0
 11
914.46785946490013
 21
-296.67511739589997
 31
0.0
  0
INSERT
  5
A3
  8
0
  6
CONTINUOUS
  2
*U31
 10
0.0
 20
0.0
 30
0.0
  0
INSERT
  5
A4
  8
0
  6
CONTINUOUS
  2
*U32
 10
0.0
 20
0.0
 30
0.0
  0
LINE
  5
A5
  8
図枠
 10
914.46785946490013
 20
-292.06711739590003
 30
0.0
 11
914.46785946490013
 21
-296.67511739589997
 31
0.0
  0
INSERT
  5
A6
  8
0
  6
CONTINUOUS
  2
*U33
 10
0.0
 20
0.0
 30
0.0
  0
INSERT
  5
A7
  8
0
  6
CONTINUOUS
  2
*U34
 10
0.0
 20
0.0
 30
0.0
  0
INSERT
  5
A8
  8
0
  6
CONTINUOUS
  2
*U35
 10
0.0
 20
0.0
 30
0.0
  0
INSERT
  5
A9
  8
0
  6
CONTINUOUS
  2
*U36
 10
0.0
 20
0.0
 30
0.0
  0
INSERT
  5
AA
  8
0
  6
CONTINUOUS
  2
*U37
 10
0.0
 20
0.0
 30
0.0
  0
LINE
  5
AB
  8
図枠
 62
     5
 10
699.52937865369995
 20
-125.6211173959
 30
0.0
 11
974.52937865369995
 21
-125.6211173959
 31
0.0
  0
LINE
  5
AC
  8
図枠
 62
     5
 10
699.52937865369995
 20
-315.6211173959
 30
0.0
 11
699.52937865369995
 21
-125.6211173959
 31
0.0
  0
LINE
  5
AD
  8
図枠
 62
     5
 10
699.52937865369995
 20
-315.6211173959
 30
0.0
 11
974.52937865369995
 21
-315.6211173959
 31
0.0
  0
LINE
  5
AE
  8
図枠
 62
     5
 10
974.52937865369995
 20
-315.6211173959
 30
0.0
 11
974.52937865369995
 21
-125.6211173959
 31
0.0
  0
INSERT
  5
AF
  8
0
  6
CONTINUOUS
  2
*U38
 10
0.0
 20
0.0
 30
0.0
  0
INSERT
  5
B0
  8
0
  6
CONTINUOUS
  2
*U39
 10
0.0
 20
0.0
 30
0.0
  0
INSERT
  5
B1
  8
0
  6
CONTINUOUS
  2
*U40
 10
0.0
 20
0.0
 30
0.0
  0
LINE
  5
B2
  8
図枠
 10
889.72658001970012
 20
-314.09297902240002
 30
0.0
 11
892.92658001970005
 21
-314.09297902240002
 31
0.0
  0
INSERT
  5
B3
  8
0
  6
CONTINUOUS
  2
*U41
 10
0.0
 20
0.0
 30
0.0
  0
LINE
  5
B4
  8
図枠
 10
858.52937865369995
 20
-298.6211173959
 30
0.0
 11
974.52937865369995
 21
-298.6211173959
 31
0.0
  0
LINE
  5
B5
  8
図枠
 10
858.52937865369995
 20
-290.1211173959
 30
0.0
 11
974.52937865369995
 21
-290.1211173959
 31
0.0
  0
LINE
  5
B6
  8
図枠
 10
860.52937865369995
 20
-294.3711173959
 30
0.0
 11
876.52937865369984
 21
-294.3711173959
 31
0.0
  0
INSERT
  5
B7
  8
0
  6
CONTINUOUS
  2
*U42
 10
0.0
 20
0.0
 30
0.0
  0
LINE
  5
B8
  8
図枠
 10
858.52937865369995
 20
-273.6211173959
 30
0.0
 11
858.52937865369995
 21
-290.1211173959
 31
0.0
  0
CIRCLE
  5
B9
  8
図枠
 10
904.5933786536998
 20
-294.3711173959
 30
0.0
 40
1.1519999999999999
  0
LINE
  5
BA
  8
図枠
 10
907.62905098680005
 20
-311.2929790224
 30
0.0
 11
910.05038432009997
 21
-311.2929790224
 31
0.0
  0
LINE
  5
BB
  8
図枠
 10
858.52937865369995
 20
-273.6211173959
 30
0.0
 11
974.52937865369995
 21
-273.6211173959
 31
0.0
  0
LINE
  5
BC
  8
図枠
 10
889.72658001970012
 20
-308.49297902239999
 30
0.0
 11
889.72658001970012
 21
-310.09297902240002
 31
0.0
  0
LINE
  5
BD
  8
図枠
 10
901.85506486820009
 20
-310.3506672364
 30
0.0
 11
901.40251652820007
 21
-310.80321557629998
 31
0.0
  0
LINE
  5
BE
  8
図枠
 10
898.65506486819993
 20
-310.60835545039998
 30
0.0
 11
898.65506486819993
 21
-310.3506672364
 31
0.0
  0
LINE
  5
BF
  8
図枠
 10
889.72658001970012
 20
-311.2929790224
 30
0.0
 11
889.72658001970012
 21
-312.49297902239999
 31
0.0
  0
LINE
  5
C0
  8
図枠
  6
BORDER
 10
904.5933786536998
 20
-290.91511739589998
 30
0.0
 11
904.5933786536998
 21
-297.82711739590002
 31
0.0
  0
LINE
  5
C1
  8
図枠
  6
BORDER
 10
904.5933786536998
 20
-290.91511739589998
 30
0.0
 11
904.5933786536998
 21
-297.82711739590002
 31
0.0
  0
LINE
  5
C2
  8
図枠
 10
909.85985946490007
 20
-293.21911739590001
 30
0.0
 11
914.46785946490013
 21
-292.06711739590003
 31
0.0
  0
CIRCLE
  5
C3
  8
図枠
 10
904.5933786536998
 20
-294.3711173959
 30
0.0
 40
1.1519999999999999
  0
LINE
  5
C4
  8
図枠
 10
878.52937865369995
 20
-290.1211173959
 30
0.0
 11
878.52937865369995
 21
-298.6211173959
 31
0.0
  0
INSERT
  5
C5
  8
0
  6
CONTINUOUS
  2
*U43
 10
0.0
 20
0.0
 30
0.0
  0
LINE
  5
C6
  8
図枠
  6
DOT
 10
693.52937865369995
 20
-119.8711173959
 30
0.0
 11
980.52937865369995
 21
-119.8711173959
 31
0.0
  0
LINE
  5
C7
  8
図枠
  6
DOT
 10
693.53237865369999
 20
-321.3711173959
 30
0.0
 11
693.53237865369999
 21
-119.8711173959
 31
0.0
  0
LINE
  5
C8
  8
図枠
  6
DOT
 10
980.52937865369995
 20
-321.3711173959
 30
0.0
 11
980.52937865369995
 21
-119.8711173959
 31
0.0
  0
LINE
  5
C9
  8
図枠
 10
909.85985946490007
 20
-293.21911739590001
 30
0.0
 11
909.85985946490007
 21
-295.52311739589999
 31
0.0
  0
LINE
  5
CA
  8
図枠
 10
909.85985946490007
 20
-293.21911739590001
 30
0.0
 11
914.46785946490013
 21
-292.06711739590003
 31
0.0
  0
INSERT
  5
CB
  8
0
  6
CONTINUOUS
  2
*U44
 10
0.0
 20
0.0
 30
0.0
  0
CIRCLE
  5
CC
  8
図枠
 10
904.5933786536998
 20
-294.3711173959
 30
0.0
 40
2.3039999999999998
  0
CIRCLE
  5
CD
  8
図枠
 10
904.5933786536998
 20
-294.3711173959
 30
0.0
 40
1.1519999999999999
  0
LINE
  5
CE
  8
図枠
 10
909.85985946490007
 20
-295.52311739589999
 30
0.0
 11
914.46785946490013
 21
-296.67511739589997
 31
0.0
  0
INSERT
  5
CF
  8
0
  6
CONTINUOUS
  2
*U45
 10
0.0
 20
0.0
 30
0.0
  0
LINE
  5
D0
  8
図枠
 10
858.52937865369995
 20
-307.1211173959
 30
0.0
 11
974.52937865369995
 21
-307.1211173959
 31
0.0
  0
CIRCLE
  5
D1
  8
図枠
 10
904.5933786536998
 20
-294.3711173959
 30
0.0
 40
1.1519999999999999
  0
LINE
  5
D2
  8
図枠
 10
909.62798432009993
 20
-309.85297902240001
 30
0.0
 11
909.22905098679996
 21
-308.49297902239999
 31
0.0
  0
LINE
  5
D3
  8
図枠
 10
911.89382247159995
 20
-309.85297902240001
 30
0.0
 11
914.82905098679987
 21
-309.85297902240001
 31
0.0
  0
INSERT
  5
D4
  8
0
  6
CONTINUOUS
  2
*U46
 10
0.0
 20
0.0
 30
0.0
  0
INSERT
  5
D5
  8
0
  6
CONTINUOUS
  2
*U47
 10
0.0
 20
0.0
 30
0.0
  0
INSERT
  5
D6
  8
0
  6
CONTINUOUS
  2
*U48
 10
0.0
 20
0.0
 30
0.0
  0
INSERT
  5
D7
  8
0
  6
CONTINUOUS
  2
*U49
 10
0.0
 20
0.0
 30
0.0
  0
DIMENSION
  5
E8
  8
寸法線
  2
*D0
 10
844.80074906369987
 20
-152.6355792448
 30
0.0
 11
850.96068732619995
 21
-152.6355792448
 31
0.0
 70
   128
  1
<>
 13
844.80074906369987
 23
-162.6355792448
 33
0.0
 14
836.80074906369987
 24
-162.6355792448
 34
0.0
  0
DIMENSION
  5
F7
  8
寸法線
  2
*D1
 10
818.80074906369998
 20
-162.6355792448
 30
0.0
 11
818.80074906369998
 21
-165.6355792448
 31
0.0
 70
   128
  1
<>
 13
828.80074906369987
 23
-162.6355792448
 33
0.0
 14
830.80074906369987
 24
-168.6355792448
 34
0.0
 50
90.0
  0
DIMENSION
  5
106
  8
寸法線
  2
*D2
 10
818.80074906369998
 20
-168.6355792448
 30
0.0
 11
818.80074906369998
 21
-175.6355792448
 31
0.0
 70
   128
  1
<>
 13
830.80074906369987
 23
-168.6355792448
 33
0.0
 14
830.80074906369987
 24
-182.6355792448
 34
0.0
 50
90.0
  0
DIMENSION
  5
115
  8
寸法線
  2
*D3
 10
818.80074906369998
 20
-182.6355792448
 30
0.0
 11
818.80074906369998
 21
-190.1355792448
 31
0.0
 70
   128
  1
<>
 13
830.80074906369987
 23
-182.6355792448
 33
0.0
 14
828.80074906369987
 24
-197.6355792448
 34
0.0
 50
90.0
  0
DIMENSION
  5
124
  8
寸法線
  2
*D4
 10
793.1492124312
 20
-252.30020594480001
 30
0.0
 11
793.1492124312
 21
-237.2351368169
 31
0.0
 70
   128
  1
<>
 13
783.1492124312
 23
-252.30020594480001
 33
0.0
 14
782.14921243119989
 24
-244.30020594480001
 34
0.0
 50
90.0
  0
DIMENSION
  5
133
  8
寸法線
  2
*D5
 10
737.14921243119989
 20
-244.30020594480001
 30
0.0
 11
737.14921243119989
 21
-252.30020594480001
 31
0.0
 70
   128
  1
<>
 13
747.1492124312
 23
-244.30020594480001
 33
0.0
 14
747.1492124312
 24
-260.30020594479998
 34
0.0
 50
90.0
  0
DIMENSION
  5
142
  8
寸法線
  2
*D6
 10
793.1492124312
 20
-260.30020594479998
 30
0.0
 11
793.1492124312
 21
-264.7547105745
 31
0.0
 70
   128
  1
<>
 13
782.14921243119989
 23
-260.30020594479998
 33
0.0
 14
783.1492124312
 24
-252.30020594480001
 34
0.0
 50
90.0
  0
DIMENSION
  5
151
  8
寸法線
  2
*D7
 10
776.1492124312
 20
-234.30020594480001
 30
0.0
 11
769.1492124312
 21
-234.30020594480001
 31
0.0
 70
   128
  1
<>
 13
776.1492124312
 23
-246.30020594480001
 33
0.0
 14
762.14921243119989
 24
-246.30020594480001
 34
0.0
  0
DIMENSION
  5
160
  8
寸法線
  2
*D8
 10
762.14921243119989
 20
-234.30020594480001
 30
0.0
 11
754.6492124312
 21
-234.30020594480001
 31
0.0
 70
   128
  1
<>
 13
762.14921243119989
 23
-246.30020594480001
 33
0.0
 14
747.1492124312
 24
-244.30020594480001
 34
0.0
  0
DIMENSION
  5
16F
  8
寸法線
  2
*D9
 10
782.14921243119989
 20
-234.30020594480001
 30
0.0
 11
779.1492124312
 21
-234.30020594480001
 31
0.0
 70
   128
  1
<>
 13
782.14921243119989
 23
-244.30020594480001
 33
0.0
 14
776.1492124312
 24
-246.30020594480001
 34
0.0
  0
DIMENSION
  5
17D
  8
寸法線
  2
*D50
 10
760.01213317861311
 20
-177.55249939925531
 30
0.0
 11
765.6016057769001
 21
-182.3745693937
 31
0.0
 70
   133
  1
<>
 13
750.1492124312
 23
-162.6355792448
 33
0.0
 14
782.14921243119989
 24
-194.6355792448
 34
0.0
 15
750.1492124312
 25
-194.6355792448
 35
0.0
1001
ACAD
1000
DSTYLE
1002
{
1070
   271
1070
     0
1002
}
  0
DIMENSION
  5
18C
  8
寸法線
  2
*D11
 10
730.79365594319995
 20
-162.6355792448
 30
0.0
 11
730.79365594319995
 21
-180.1355792448
 31
0.0
 70
   128
  1
<>
 13
747.1492124312
 23
-162.6355792448
 33
0.0
 14
747.1492124312
 24
-197.6355792448
 34
0.0
 50
90.0
  0
DIMENSION
  5
19B
  8
寸法線
  2
*D12
 10
747.1492124312
 20
-207.6355792448
 30
0.0
 11
764.6492124312
 21
-207.6355792448
 31
0.0
 70
   128
  1
<>
 13
747.1492124312
 23
-194.6355792448
 33
0.0
 14
782.14921243119989
 24
-197.6355792448
 34
0.0
 50
180.0
  0
DIMENSION
  5
1AA
  8
寸法線
  2
*D13
 10
750.1492124312
 20
-147.07144961520001
 30
0.0
 11
754.26560586039989
 21
-147.07144961520001
 31
0.0
 70
   128
  1
<>t
 13
750.1492124312
 23
-162.6355792448
 33
0.0
 14
747.1492124312
 24
-162.6355792448
 34
0.0
  0
DIMENSION
  5
1B9
  8
寸法線
  2
*D14
 10
942.23745318349995
 20
-196.08359964589999
 30
0.0
 11
922.23745318350007
 21
-196.08359964589999
 31
0.0
 70
   128
  1
%%c8
 13
942.23745318349995
 23
-210.13810861420001
 33
0.0
 14
902.23745318349995
 24
-210.13810861420001
 34
0.0
  0
DIMENSION
  5
1C8
  8
寸法線
  2
*D15
 10
912.23745318350007
 20
-238.35308778090001
 30
0.0
 11
922.23745318350007
 21
-238.35308778090001
 31
0.0
 70
   128
  1
%%c4
 13
912.23745318350007
 23
-225.13810861420001
 33
0.0
 14
932.23745318349995
 24
-225.13810861420001
 34
0.0
 50
180.0
  0
DIMENSION
  5
1D5
  8
寸法線
  2
*D51
 10
933.411155012309
 20
-188.43728568045961
 30
0.0
 11
922.23745318350007
 21
-186.96623992740001
 31
0.0
 70
   133
  1
<>
 13
901.70712309759983
 23
-209.6077785283
 33
0.0
 14
942.76778326939996
 24
-209.6077785283
 34
0.0
 15
922.23745318350007
 25
-230.13810861420001
 35
0.0
1001
ACAD
1000
DSTYLE
1002
{
1070
   271
1070
     0
1002
}
  0
CIRCLE
  5
1DB
  8
図枠
 10
904.5933786536998
 20
-294.3711173959
 30
0.0
 40
2.3039999999999998
  0
LINE
  5
1DC
  8
図枠
  6
BORDER
 10
901.1373786536999
 20
-294.3711173959
 30
0.0
 11
915.9213786537
 21
-294.3711173959
 31
0.0
  0
LINE
  5
1DD
  8
図枠
 10
898.65506486819993
 20
-308.49297902239999
 30
0.0
 11
898.65506486819993
 21
-309.93297902239999
 31
0.0
  0
LINE
  5
1DE
  8
図枠
 10
918.52937865369995
 20
-290.1211173959
 30
0.0
 11
918.52937865369995
 21
-315.6211173959
 31
0.0
  0
LINE
  5
1E0
  8
ﾚｲﾔ_1
  6
STITCH
 10
750.1492124312
 20
-186.6355792448
 30
0.0
 11
748.1492124312
 21
-184.6355792448
 31
0.0
  0
LINE
  5
1E1
  8
ﾚｲﾔ_1
  6
STITCH
 10
750.1492124312
 20
-178.6355792448
 30
0.0
 11
748.1492124312
 21
-180.6355792448
 31
0.0
  0
LINE
  5
1E2
  8
ﾚｲﾔ_1
  6
STITCH
 10
748.1492124312
 20
-170.6355792448
 30
0.0
 11
747.1492124312
 21
-170.6355792448
 31
0.0
  0
LINE
  5
1E3
  8
ﾚｲﾔ_1
  6
BORDER
 62
     3
 10
744.48203355020007
 20
-168.6355792448
 30
0.0
 11
752.40827468500004
 21
-168.6355792448
 31
0.0
  0
LINE
  5
1E4
  8
ﾚｲﾔ_1
  6
BORDER
 62
     3
 10
744.48203355020007
 20
-182.6355792448
 30
0.0
 11
752.40827468500004
 21
-182.6355792448
 31
0.0
  0
LINE
  5
1E5
  8
ﾚｲﾔ_1
  6
STITCH
 10
748.1492124312
 20
-184.6355792448
 30
0.0
 11
747.1492124312
 21
-184.6355792448
 31
0.0
  0
ARC
  5
1E6
  8
ﾚｲﾔ_1
 62
     5
 10
750.1492124312
 20
-194.6355792448
 30
0.0
 40
3.0
 50
180.0
 51
270.0
  0
LINE
  5
1E7
  8
ﾚｲﾔ_1
 62
     5
 10
747.1492124312
 20
-194.6355792448
 30
0.0
 11
747.1492124312
 21
-162.6355792448
 31
0.0
  0
LINE
  5
1E8
  8
ﾚｲﾔ_1
 62
     5
 10
750.1492124312
 20
-194.6355792448
 30
0.0
 11
750.1492124312
 21
-162.6355792448
 31
0.0
  0
LINE
  5
1E9
  8
ﾚｲﾔ_1
 62
     5
 10
750.1492124312
 20
-162.6355792448
 30
0.0
 11
747.1492124312
 21
-162.6355792448
 31
0.0
  0
LINE
  5
1EA
  8
ﾚｲﾔ_1
 62
     5
 10
750.1492124312
 20
-197.6355792448
 30
0.0
 11
782.14921243119989
 21
-197.6355792448
 31
0.0
  0
LINE
  5
1EB
  8
ﾚｲﾔ_1
 62
     5
 10
750.1492124312
 20
-194.6355792448
 30
0.0
 11
782.14921243119989
 21
-194.6355792448
 31
0.0
  0
LINE
  5
1EC
  8
ﾚｲﾔ_1
 62
     5
 10
782.14921243119989
 20
-197.6355792448
 30
0.0
 11
782.14921243119989
 21
-194.6355792448
 31
0.0
  0
LINE
  5
1ED
  8
ﾚｲﾔ_1
  6
STITCH
 10
764.1492124312
 20
-196.6355792448
 30
0.0
 11
764.1492124312
 21
-197.6355792448
 31
0.0
  0
LINE
  5
1EE
  8
ﾚｲﾔ_1
  6
STITCH
 10
766.14921243119989
 20
-194.6355792448
 30
0.0
 11
764.1492124312
 21
-196.6355792448
 31
0.0
  0
LINE
  5
1EF
  8
ﾚｲﾔ_1
  6
STITCH
 10
760.1492124312
 20
-196.6355792448
 30
0.0
 11
760.1492124312
 21
-197.6355792448
 31
0.0
  0
LINE
  5
1F0
  8
ﾚｲﾔ_1
  6
BORDER
 62
     3
 10
762.14921243119989
 20
-200.30275812580001
 30
0.0
 11
762.14921243119989
 21
-192.3765169911
 31
0.0
  0
LINE
  5
1F1
  8
ﾚｲﾔ_1
  6
BORDER
 62
     3
 10
776.1492124312
 20
-200.30275812580001
 30
0.0
 11
776.1492124312
 21
-192.3765169911
 31
0.0
  0
LINE
  5
1F2
  8
ﾚｲﾔ_1
  6
STITCH
 10
774.14921243119989
 20
-196.6355792448
 30
0.0
 11
774.14921243119989
 21
-197.6355792448
 31
0.0
  0
LINE
  5
1F3
  8
ﾚｲﾔ_1
  6
STITCH
 10
778.14921243119989
 20
-196.6355792448
 30
0.0
 11
778.14921243119989
 21
-197.6355792448
 31
0.0
  0
LINE
  5
1F4
  8
ﾚｲﾔ_1
  6
STITCH
 10
778.14921243119989
 20
-196.6355792448
 30
0.0
 11
774.14921243119989
 21
-196.6355792448
 31
0.0
  0
LINE
  5
1F5
  8
ﾚｲﾔ_1
  6
STITCH
 10
772.1492124312
 20
-194.6355792448
 30
0.0
 11
774.14921243119989
 21
-196.6355792448
 31
0.0
  0
LINE
  5
1F6
  8
ﾚｲﾔ_1
  6
STITCH
 10
780.1492124312
 20
-194.6355792448
 30
0.0
 11
778.14921243119989
 21
-196.6355792448
 31
0.0
  0
DIMENSION
  5
205
  8
寸法線
  2
*D17
 10
844.80074906369987
 20
-144.4826814132
 30
0.0
 11
836.80074906369987
 21
-144.4826814132
 31
0.0
 70
   128
  1
<>
 13
844.80074906369987
 23
-162.6355792448
 33
0.0
 14
828.80074906369987
 24
-162.6355792448
 34
0.0
  0
DIMENSION
  5
214
  8
寸法線
  2
*D18
 10
836.80074906369987
 20
-152.6355792448
 30
0.0
 11
821.8124234372998
 21
-152.6355792448
 31
0.0
 70
   128
  1
<>
 13
836.80074906369987
 23
-162.6355792448
 33
0.0
 14
828.80074906369987
 24
-162.6355792448
 34
0.0
  0
LINE
  5
215
  8
ﾚｲﾔ_1
 62
     5
 10
782.14921243119989
 20
-260.30020594479998
 30
0.0
 11
782.14921243119989
 21
-244.30020594480001
 31
0.0
  0
LINE
  5
216
  8
ﾚｲﾔ_1
 62
     5
 10
747.1492124312
 20
-244.30020594480001
 30
0.0
 11
747.1492124312
 21
-260.30020594479998
 31
0.0
  0
LINE
  5
217
  8
ﾚｲﾔ_1
  6
STITCH
 10
750.1492124312
 20
-244.30020594480001
 30
0.0
 11
750.1492124312
 21
-260.30020594479998
 31
0.0
  0
LINE
  5
218
  8
ﾚｲﾔ_1
 62
     5
 10
782.14921243119989
 20
-244.30020594480001
 30
0.0
 11
747.1492124312
 21
-244.30020594480001
 31
0.0
  0
CIRCLE
  5
219
  8
ﾚｲﾔ_1
 62
     5
 10
776.1492124312
 20
-252.30020594480001
 30
0.0
 40
2.0
  0
CIRCLE
  5
21A
  8
ﾚｲﾔ_1
 62
     5
 10
762.14921243119989
 20
-252.30020594480001
 30
0.0
 40
2.0
  0
LINE
  5
21B
  8
ﾚｲﾔ_1
  6
BORDER
 62
     3
 10
776.1492124312
 20
-246.30020594480001
 30
0.0
 11
776.1492124312
 21
-258.30020594479998
 31
0.0
  0
LINE
  5
21C
  8
ﾚｲﾔ_1
  6
BORDER
 62
     3
 10
922.23745318350007
 20
-205.13810861420001
 30
0.0
 11
922.23745318350007
 21
-230.13810861420001
 31
0.0
  0
LINE
  5
21D
  8
ﾚｲﾔ_1
 62
     5
 10
942.23745318349995
 20
-210.13810861420001
 30
0.0
 11
932.23745318349995
 21
-220.13810861420001
 31
0.0
  0
LINE
  5
21E
  8
ﾚｲﾔ_1
 62
     5
 10
932.23745318349995
 20
-220.13810861420001
 30
0.0
 11
912.23745318350007
 21
-220.13810861420001
 31
0.0
  0
LINE
  5
21F
  8
ﾚｲﾔ_1
 62
     5
 10
912.23745318350007
 20
-220.13810861420001
 30
0.0
 11
912.23745318350007
 21
-225.13810861420001
 31
0.0
  0
LINE
  5
220
  8
ﾚｲﾔ_1
 62
     5
 10
932.23745318349995
 20
-220.13810861420001
 30
0.0
 11
932.23745318349995
 21
-225.13810861420001
 31
0.0
  0
LINE
  5
221
  8
ﾚｲﾔ_1
 62
     5
 10
902.23745318349995
 20
-210.13810861420001
 30
0.0
 11
912.23745318350007
 21
-220.13810861420001
 31
0.0
  0
LINE
  5
222
  8
ﾚｲﾔ_1
 62
     5
 10
891.75226799829989
 20
-210.13810861420001
 30
0.0
 11
952.7226383686999
 21
-210.13810861420001
 31
0.0
  0
LINE
  5
223
  8
ﾚｲﾔ_1
 62
     5
 10
891.75226799829989
 20
-225.13810861420001
 30
0.0
 11
952.7226383686999
 21
-225.13810861420001
 31
0.0
  0
LINE
  5
224
  8
ﾚｲﾔ_1
 10
909.25689762800005
 20
-250.51310861420001
 30
0.0
 11
935.42689730240022
 21
-250.51310861420001
 31
0.0
  0
INSERT
  5
225
  8
0
  6
CONTINUOUS
  2
*U52
 10
0.0
 20
0.0
 30
0.0
  0
LINE
  5
226
  8
ﾚｲﾔ_1
  6
STITCH
 10
758.14921243119989
 20
-194.6355792448
 30
0.0
 11
760.1492124312
 21
-196.6355792448
 31
0.0
  0
LINE
  5
227
  8
ﾚｲﾔ_1
  6
STITCH
 10
764.1492124312
 20
-196.6355792448
 30
0.0
 11
760.1492124312
 21
-196.6355792448
 31
0.0
  0
LINE
  5
228
  8
ﾚｲﾔ_1
  6
STITCH
 10
750.1492124312
 20
-164.6355792448
 30
0.0
 11
748.1492124312
 21
-166.6355792448
 31
0.0
  0
LINE
  5
229
  8
ﾚｲﾔ_1
  6
STITCH
 10
750.1492124312
 20
-172.6355792448
 30
0.0
 11
748.1492124312
 21
-170.6355792448
 31
0.0
  0
LINE
  5
22A
  8
ﾚｲﾔ_1
  6
STITCH
 10
748.1492124312
 20
-166.6355792448
 30
0.0
 11
748.1492124312
 21
-170.6355792448
 31
0.0
  0
LINE
  5
22B
  8
ﾚｲﾔ_1
  6
STITCH
 10
748.1492124312
 20
-166.6355792448
 30
0.0
 11
747.1492124312
 21
-166.6355792448
 31
0.0
  0
LINE
  5
22C
  8
ﾚｲﾔ_1
  6
STITCH
 10
748.1492124312
 20
-180.6355792448
 30
0.0
 11
747.1492124312
 21
-180.6355792448
 31
0.0
  0
LINE
  5
22D
  8
ﾚｲﾔ_1
  6
STITCH
 10
748.1492124312
 20
-180.6355792448
 30
0.0
 11
748.1492124312
 21
-184.6355792448
 31
0.0
  0
LINE
  5
22E
  8
ﾚｲﾔ_1
 62
     5
 10
828.80074906369987
 20
-162.6355792448
 30
0.0
 11
828.80074906369987
 21
-197.6355792448
 31
0.0
  0
LINE
  5
22F
  8
ﾚｲﾔ_1
  6
BORDER
 62
     3
 10
836.80074906369987
 20
-162.6355792448
 30
0.0
 11
836.80074906369987
 21
-174.6355792448
 31
0.0
  0
LINE
  5
230
  8
ﾚｲﾔ_1
  6
BORDER
 62
     3
 10
836.80074906369987
 20
-176.6355792448
 30
0.0
 11
836.80074906369987
 21
-188.6355792448
 31
0.0
  0
CIRCLE
  5
231
  8
ﾚｲﾔ_1
 62
     5
 10
836.80074906369987
 20
-168.6355792448
 30
0.0
 40
4.0
  0
CIRCLE
  5
232
  8
ﾚｲﾔ_1
 62
     5
 10
836.80074906369987
 20
-182.6355792448
 30
0.0
 40
4.0
  0
LINE
  5
233
  8
ﾚｲﾔ_1
  6
BORDER
 62
     3
 10
830.80074906369987
 20
-182.6355792448
 30
0.0
 11
842.80074906369998
 21
-182.6355792448
 31
0.0
  0
LINE
  5
234
  8
ﾚｲﾔ_1
  6
BORDER
 62
     3
 10
830.80074906369987
 20
-168.6355792448
 30
0.0
 11
842.80074906369998
 21
-168.6355792448
 31
0.0
  0
LINE
  5
235
  8
ﾚｲﾔ_1
 62
     5
 10
844.80074906369987
 20
-197.6355792448
 30
0.0
 11
844.80074906369987
 21
-162.6355792448
 31
0.0
  0
LINE
  5
236
  8
ﾚｲﾔ_1
 62
     5
 10
844.80074906369987
 20
-162.6355792448
 30
0.0
 11
828.80074906369987
 21
-162.6355792448
 31
0.0
  0
LINE
  5
237
  8
ﾚｲﾔ_1
 62
     5
 10
828.80074906369987
 20
-194.6355792448
 30
0.0
 11
844.80074906369987
 21
-194.6355792448
 31
0.0
  0
LINE
  5
238
  8
ﾚｲﾔ_1
 62
     5
 10
828.80074906369987
 20
-197.6355792448
 30
0.0
 11
844.80074906369987
 21
-197.6355792448
 31
0.0
  0
CIRCLE
  5
239
  8
ﾚｲﾔ_1
 62
     5
 10
836.80074906369987
 20
-168.6355792448
 30
0.0
 40
2.0
  0
CIRCLE
  5
23A
  8
ﾚｲﾔ_1
 62
     5
 10
836.80074906369987
 20
-182.6355792448
 30
0.0
 40
2.0
  0
LINE
  5
23B
  8
ﾚｲﾔ_1
  6
BORDER
 62
     3
 10
762.14921243119989
 20
-246.30020594480001
 30
0.0
 11
762.14921243119989
 21
-258.30020594479998
 31
0.0
  0
LINE
  5
23C
  8
ﾚｲﾔ_1
  6
BORDER
 62
     3
 10
770.14921243119989
 20
-252.30020594480001
 30
0.0
 11
783.1492124312
 21
-252.30020594480001
 31
0.0
  0
LINE
  5
23D
  8
ﾚｲﾔ_1
  6
BORDER
 62
     3
 10
756.1492124312
 20
-252.30020594480001
 30
0.0
 11
768.1492124312
 21
-252.30020594480001
 31
0.0
  0
LINE
  5
23E
  8
ﾚｲﾔ_1
 10
757.40827468500004
 20
-276.3458564078
 30
0.0
 11
776.95106428309998
 21
-276.3458564078
 31
0.0
  0
LINE
  5
23F
  8
ﾚｲﾔ_1
 10
757.40827468500004
 20
-274.8458564078
 30
0.0
 11
776.95106428309998
 21
-274.8458564078
 31
0.0
  0
LINE
  5
240
  8
ﾚｲﾔ_1
 10
757.40827468500004
 20
-273.3458564078
 30
0.0
 11
776.95106428309998
 21
-273.3458564078
 31
0.0
  0
LINE
  5
241
  8
ﾚｲﾔ_1
 10
757.40827468500004
 20
-271.8458564078
 30
0.0
 11
776.95106428309998
 21
-271.8458564078
 31
0.0
  0
LINE
  5
242
  8
ﾚｲﾔ_1
 10
757.40827468500004
 20
-270.3458564078
 30
0.0
 11
776.95106428309998
 21
-270.3458564078
 31
0.0
  0
LINE
  5
243
  8
ﾚｲﾔ_1
 62
     5
 10
747.1492124312
 20
-260.30020594479998
 30
0.0
 11
782.14921243119989
 21
-260.30020594479998
 31
0.0
  0
INSERT
  5
244
  8
0
  6
CONTINUOUS
  2
*U53
 10
0.0
 20
0.0
 30
0.0
  0
CIRCLE
  5
245
  8
ﾚｲﾔ_1
  6
STITCH
 10
762.14921243119989
 20
-252.30020594480001
 30
0.0
 40
4.0
  0
CIRCLE
  5
246
  8
ﾚｲﾔ_1
  6
STITCH
 10
776.1492124312
 20
-252.30020594480001
 30
0.0
 40
4.0
  0
ENDSEC
  0
EOF
