  0
SECTION
  2
HEADER
  9
$ACADVER
  1
AC1009
  9
$INSBASE
 10
0.0
 20
0.0
 30
0.0
  9
$EXTMIN
 10
561.05974626720001
 20
-408.81726758629992
 30
0.0
  9
$EXTMAX
 10
1111.0597462671999
 20
-28.817267586300002
 30
0.0
  9
$LIMMIN
 10
0.0
 20
0.0
  9
$LIMMAX
 10
0.0
 20
0.0
  9
$ORTHOMODE
 70
     0
  9
$REGENMODE
 70
     1
  9
$FILLMODE
 70
     1
  9
$QTEXTMODE
 70
     0
  9
$MIRRTEXT
 70
     1
  9
$DRAGMODE
 70
     2
  9
$LTSCALE
 40
1.0
  9
$OSMODE
 70
    31
  9
$ATTMODE
 70
     1
  9
$TEXTSIZE
 40
0.0
  9
$TRACEWID
 40
0.05
  9
$TEXTSTYLE
  7
STANDARD
  9
$CLAYER
  8
0
  9
$CELTYPE
  6
CONTINUOUS
  9
$CECOLOR
 62
   256
  9
$DIMSCALE
 40
1.0
  9
$DIMASZ
 40
0.18
  9
$DIMEXO
 40
0.0625
  9
$DIMDLI
 40
0.38
  9
$DIMRND
 40
0.0
  9
$DIMDLE
 40
0.0
  9
$DIMEXE
 40
0.18
  9
$DIMTP
 40
0.0
  9
$DIMTM
 40
0.0
  9
$DIMTXT
 40
0.18
  9
$DIMCEN
 40
0.09
  9
$DIMTSZ
 40
0.0
  9
$DIMTOL
 70
     0
  9
$DIMLIM
 70
     0
  9
$DIMTIH
 70
     1
  9
$DIMTOH
 70
     1
  9
$DIMSE1
 70
     0
  9
$DIMSE2
 70
     0
  9
$DIMTAD
 70
     0
  9
$DIMZIN
 70
     0
  9
$DIMBLK
  1

  9
$DIMASO
 70
     1
  9
$DIMSHO
 70
     1
  9
$DIMPOST
  1

  9
$DIMAPOST
  1

  9
$DIMALT
 70
     0
  9
$DIMALTD
 70
     2
  9
$DIMALTF
 40
25.399999999999999
  9
$DIMLFAC
 40
1.0
  9
$DIMTOFL
 70
     0
  9
$DIMTVP
 40
0.0
  9
$DIMTIX
 70
     0
  9
$DIMSOXD
 70
     0
  9
$DIMSAH
 70
     0
  9
$DIMBLK1
  1

  9
$DIMBLK2
  1

  9
$DIMSTYLE
  2
STANDARD
  9
$DIMCLRD
 70
     0
  9
$DIMCLRE
 70
     0
  9
$DIMCLRT
 70
     0
  9
$DIMTFAC
 40
1.0
  9
$DIMGAP
 40
0.09
  9
$LUNITS
 70
     2
  9
$LUPREC
 70
     4
  9
$SKETCHINC
 40
0.1
  9
$FILLETRAD
 40
0.0
  9
$AUNITS
 70
     0
  9
$AUPREC
 70
     0
  9
$MENU
  1
acad
  9
$ELEVATION
 40
0.0
  9
$PELEVATION
 40
0.0
  9
$THICKNESS
 40
0.0
  9
$LIMCHECK
 70
     0
  9
$BLIPMODE
 70
     0
  9
$CHAMFERA
 40
0.0
  9
$CHAMFERB
 40
0.0
  9
$SKPOLY
 70
     0
  9
$TDCREATE
 40
2454862.772296539
  9
$TDUPDATE
 40
2454862.772651725
  9
$TDINDWG
 40
0.0003654861
  9
$TDUSRTIMER
 40
0.0003649421
  9
$USRTIMER
 70
     1
  9
$ANGBASE
 50
0.0
  9
$ANGDIR
 70
     0
  9
$PDMODE
 70
     3
  9
$PDSIZE
 40
-1.0
  9
$PLINEWID
 40
0.0
  9
$COORDS
 70
     2
  9
$SPLFRAME
 70
     0
  9
$SPLINETYPE
 70
     6
  9
$SPLINESEGS
 70
     8
  9
$ATTDIA
 70
     0
  9
$ATTREQ
 70
     1
  9
$HANDLING
 70
     1
  9
$HANDSEED
  5
4A7
  9
$SURFTAB1
 70
     6
  9
$SURFTAB2
 70
     6
  9
$SURFTYPE
 70
     6
  9
$SURFU
 70
     6
  9
$SURFV
 70
     6
  9
$UCSNAME
  2

  9
$UCSORG
 10
0.0
 20
0.0
 30
0.0
  9
$UCSXDIR
 10
1.0
 20
0.0
 30
0.0
  9
$UCSYDIR
 10
0.0
 20
1.0
 30
0.0
  9
$PUCSNAME
  2

  9
$PUCSORG
 10
0.0
 20
0.0
 30
0.0
  9
$PUCSXDIR
 10
1.0
 20
0.0
 30
0.0
  9
$PUCSYDIR
 10
0.0
 20
1.0
 30
0.0
  9
$USERI1
 70
     0
  9
$USERI2
 70
     0
  9
$USERI3
 70
     0
  9
$USERI4
 70
     0
  9
$USERI5
 70
     0
  9
$USERR1
 40
0.0
  9
$USERR2
 40
0.0
  9
$USERR3
 40
0.0
  9
$USERR4
 40
0.0
  9
$USERR5
 40
0.0
  9
$WORLDVIEW
 70
     1
  9
$SHADEDGE
 70
     3
  9
$SHADEDIF
 70
    70
  9
$TILEMODE
 70
     1
  9
$MAXACTVP
 70
    16
  9
$PLIMCHECK
 70
     0
  9
$PEXTMIN
 10
1.0000000000000000E+020
 20
1.0000000000000000E+020
 30
1.0000000000000000E+020
  9
$PEXTMAX
 10
-1.0000000000000000E+020
 20
-1.0000000000000000E+020
 30
-1.0000000000000000E+020
  9
$PLIMMIN
 10
0.0
 20
0.0
  9
$PLIMMAX
 10
12.0
 20
9.0
  9
$UNITMODE
 70
     0
  9
$VISRETAIN
 70
     0
  9
$PLINEGEN
 70
     1
  9
$PSLTSCALE
 70
     0
  0
ENDSEC
  0
SECTION
  2
TABLES
  0
TABLE
  2
VPORT
 70
     2
  0
VPORT
  2
*ACTIVE
 70
     0
 10
0.0
 20
0.0
 11
1.0
 21
1.0
 12
836.05974626720035
 22
-218.81726758630001
 13
0.0
 23
0.0
 14
1.0
 24
1.0
 15
0.0
 25
0.0
 16
0.0
 26
0.0
 36
1.0
 17
0.0
 27
0.0
 37
0.0
 40
397.98585584749202
 41
1.3903818953323901
 42
50.0
 43
0.0
 44
0.0
 50
0.0
 51
0.0
 71
     0
 72
   100
 73
     1
 74
     1
 75
     0
 76
     0
 77
     0
 78
     0
  0
ENDTAB
  0
TABLE
  2
LTYPE
 70
    11
  0
LTYPE
  2
CONTINUOUS
 70
     0
  3
Solid line
 72
    65
 73
     0
 40
0.0
  0
LTYPE
  2
DOT
 70
     0
  3
. . . . . . . . 
 72
    65
 73
     2
 40
1.0
 49
0.0
 49
-1.0
  0
LTYPE
  2
DASHED
 70
     0
  3
___  ___  ___  ___  
 72
    65
 73
     2
 40
4.0
 49
3.0
 49
-1.0
  0
LTYPE
  2
HIDDEN
 70
     0
  3
__ __ __ __ 
 72
    65
 73
     2
 40
3.0
 49
2.0
 49
-1.0
  0
LTYPE
  2
STITCH
 70
     0
  3
_ _ _ _ 
 72
    65
 73
     2
 40
2.0
 49
1.0
 49
-1.0
  0
LTYPE
  2
CENTER
 70
     0
  3
______  __  ______  __  
 72
    65
 73
     4
 40
43.0
 49
40.0
 49
-1.0
 49
1.0
 49
-1.0
  0
LTYPE
  2
DASHDOT
 70
     0
  3
____ . ____ . 
 72
    65
 73
     4
 40
32.0
 49
30.0
 49
-1.0
 49
0.0
 49
-1.0
  0
LTYPE
  2
BORDER
 70
     0
  3
__ . __ . 
 72
    65
 73
     4
 40
22.0
 49
20.0
 49
-1.0
 49
0.0
 49
-1.0
  0
LTYPE
  2
CUTTING
 70
     0
  3
________   ___   ___   
 72
    65
 73
     6
 40
45.0
 49
40.0
 49
-1.0
 49
1.0
 49
-1.0
 49
1.0
 49
-1.0
  0
LTYPE
  2
PHANTOM
 70
     0
  3
______  __  __  
 72
    65
 73
     6
 40
35.0
 49
30.0
 49
-1.0
 49
1.0
 49
-1.0
 49
1.0
 49
-1.0
  0
LTYPE
  2
DIVIDE
 70
     0
  3
____ . . ____ . . 
 72
    65
 73
     6
 40
23.0
 49
20.0
 49
-1.0
 49
0.0
 49
-1.0
 49
0.0
 49
-1.0
  0
ENDTAB
  0
TABLE
  2
LAYER
 70
     4
  0
LAYER
  2
0
 70
     0
 62
     7
  6
CONTINUOUS
  0
LAYER
  2
┌▓È_1
 70
     0
 62
     7
  6
CONTINUOUS
  0
LAYER
  2
Éíû@É³
 70
     0
 62
     7
  6
CONTINUOUS
  0
LAYER
  2
Defpoints
 70
     0
 62
     7
  6
CONTINUOUS
  0
ENDTAB
  0
TABLE
  2
STYLE
 70
     1
  0
STYLE
  2
STANDARD
 70
     0
 40
0.0
 41
1.0
 50
0.0
 71
     0
 42
0.0
  3
txt
  4
extfont
  0
ENDTAB
  0
TABLE
  2
VIEW
 70
     0
  0
ENDTAB
  0
TABLE
  2
UCS
 70
     0
  0
ENDTAB
  0
TABLE
  2
APPID
 70
     2
  0
APPID
  2
ACAD
 70
     0
  0
APPID
  2
DCO15
 70
     0
  0
ENDTAB
  0
TABLE
  2
DIMSTYLE
 70
     5
  0
DIMSTYLE
  2
STANDARD
 70
     0
  3

  4

  5

  6

  7

 40
1.0
 41
0.18
 42
0.0625
 43
0.38
 44
0.18
 45
0.0
 46
0.0
 47
0.0
 48
0.0
140
0.18
141
0.09
142
0.0
143
25.399999999999999
144
1.0
145
0.0
146
1.0
147
0.09
 71
     0
 72
     0
 73
     1
 74
     1
 75
     0
 76
     0
 77
     0
 78
     0
170
     0
171
     2
172
     0
173
     0
174
     0
175
     0
176
     0
177
     0
178
     0
  0
DIMSTYLE
  2
VELDIM0
 70
     0
  3

  4

  5

  6

  7

 40
1.0
 41
6.0
 42
0.0625
 43
0.38
 44
1.25
 45
0.0
 46
5.0
 47
0.0
 48
0.0
140
5.9972220420999998
141
0.09
142
0.0
143
25.399999999999999
144
1.0
145
0.0
146
1.0
147
0.09
 71
     0
 72
     0
 73
     0
 74
     0
 75
     0
 76
     0
 77
     0
 78
     8
170
     0
171
     2
172
     0
173
     0
174
     0
175
     0
176
     0
177
     0
178
     0
  0
DIMSTYLE
  2
VELDIM1
 70
     0
  3

  4

  5

  6

  7

 40
1.0
 41
6.0
 42
0.0625
 43
0.38
 44
1.0
 45
0.0
 46
6.0
 47
0.0
 48
0.0
140
5.9972220420999998
141
0.09
142
0.0
143
25.399999999999999
144
1.0
145
0.0
146
1.0
147
0.09
 71
     0
 72
     0
 73
     0
 74
     0
 75
     0
 76
     0
 77
     0
 78
     8
170
     0
171
     2
172
     0
173
     0
174
     0
175
     0
176
     0
177
     0
178
     0
  0
DIMSTYLE
  2
VELDIM2
 70
     0
  3

  4

  5

  6

  7

 40
1.0
 41
6.0
 42
0.0625
 43
0.38
 44
0.5
 45
0.0
 46
3.0
 47
0.0
 48
0.0
140
5.9972220420999998
141
0.09
142
0.0
143
25.399999999999999
144
1.0
145
0.0
146
1.0
147
0.09
 71
     0
 72
     0
 73
     0
 74
     0
 75
     0
 76
     0
 77
     0
 78
     8
170
     0
171
     2
172
     0
173
     0
174
     0
175
     0
176
     0
177
     0
178
     0
  0
DIMSTYLE
  2
VELDIM3
 70
     0
  3

  4

  5

  6

  7

 40
1.0
 41
6.0
 42
0.0625
 43
0.38
 44
1.25
 45
0.0
 46
5.0
 47
0.0
 48
0.0
140
5.9972220420999998
141
0.09
142
0.0
143
25.399999999999999
144
1.0
145
0.0
146
1.0
147
0.09
 71
     0
 72
     0
 73
     0
 74
     0
 75
     0
 76
     0
 77
     0
 78
     8
170
     0
171
     2
172
     0
173
     0
174
     0
175
     0
176
     0
177
     0
178
     0
  0
ENDTAB
  0
ENDSEC
  0
SECTION
  2
BLOCKS
  0
BLOCK
  8
0
  2
$MODEL_SPACE
 70
     0
 10
0.0
 20
0.0
 30
0.0
  3
$MODEL_SPACE
  1

  0
ENDBLK
  5
E
  8
0
  0
BLOCK
 67
     1
  8
0
  2
$PAPER_SPACE
 70
     0
 10
0.0
 20
0.0
 30
0.0
  3
$PAPER_SPACE
  1

  0
ENDBLK
  5
10
 67
     1
  8
0
  0
BLOCK
  8
0
  2
*D0
 70
     1
 10
0.0
 20
0.0
 30
0.0
  3
*D0
  1

  0
TEXT
  5
38
  8
0
 62
     0
 10
1004.769303473
 20
-145.0425982225
 30
0.0
 40
5.9972220420999998
  1
90%%d
 50
360.0
  0
ARC
  5
39
  8
0
 62
     0
 10
1010.0609699807
 20
-235.32419667280001
 30
0.0
 40
87.106598545699995
 50
130.18280841789999
 51
135.0
  0
ARC
  5
3A
  8
0
 62
     0
 10
1010.0609699807
 20
-235.32419667280001
 30
0.0
 40
87.106598545699995
 50
45.0
 51
49.817191582100001
  0
SOLID
  5
3B
  8
0
 62
     0
 10
1071.6546364984999
 20
-173.730530155
 30
0.0
 11
1076.9579373573999
 21
-176.9125106704
 31
0.0
 12
1074.8366170137999
 22
-179.0338310139
 32
0.0
 13
1074.8366170137999
 23
-176.9125106704
 33
0.0
  0
SOLID
  5
3C
  8
0
 62
     0
 10
948.46730346289985
 20
-173.730530155
 30
0.0
 11
945.28532294759998
 21
-179.0338310139
 31
0.0
 12
943.16400260399996
 22
-176.9125106704
 32
0.0
 13
945.28532294759998
 23
-176.9125106704
 33
0.0
  0
ARC
  5
3D
  8
0
 62
     0
 10
1010.0609699807
 20
-235.32419667280001
 30
0.0
 40
87.106598545699995
 50
45.0
 51
84.124029887399999
  0
ARC
  5
3E
  8
0
 62
     0
 10
1010.0609699807
 20
-235.32419667280001
 30
0.0
 40
87.106598545699995
 50
95.875970112599987
 51
135.0
  0
LINE
  5
3F
  8
0
 62
     0
 10
1034.3218845301001
 20
-211.0632821234
 30
0.0
 11
1074.6655510479
 21
-170.71961560560001
 31
0.0
  0
LINE
  5
40
  8
0
 62
     0
 10
985.80005543130005
 20
-211.0632821234
 30
0.0
 11
945.45638891349995
 21
-170.71961560560001
 31
0.0
  0
ENDBLK
  5
41
  8
0
  0
BLOCK
  8
0
  2
*D1
 70
     1
 10
0.0
 20
0.0
 30
0.0
  3
*D1
  1

  0
TEXT
  5
49
  8
0
 62
     0
 10
820.03565635509983
 20
-152.76506028209999
 30
0.0
 40
5.9972220420999998
  1
22
 50
90.0
  0
LINE
  5
4A
  8
0
 62
     0
 10
842.0939896566
 20
-138.23728261030001
 30
0.0
 11
822.09398965659989
 21
-138.23728261030001
 31
0.0
  0
LINE
  5
4B
  8
0
 62
     0
 10
841.0939896566
 20
-160.23728261030001
 30
0.0
 11
822.09398965659989
 21
-160.23728261030001
 31
0.0
  0
LINE
  5
4C
  8
0
 62
     0
 10
823.09398965659989
 20
-138.23728261030001
 30
0.0
 11
823.09398965659989
 21
-142.18172726669999
 31
0.0
  0
LINE
  5
4D
  8
0
 62
     0
 10
823.09398965659989
 20
-138.23728261030001
 30
0.0
 11
823.09398965659989
 21
-156.29283795399999
 31
0.0
  0
LINE
  5
4E
  8
0
 62
     0
 10
823.09398965659989
 20
-160.23728261030001
 30
0.0
 11
823.09398965659989
 21
-142.18172726669999
 31
0.0
  0
LINE
  5
4F
  8
0
 62
     0
 10
823.09398965659989
 20
-160.23728261030001
 30
0.0
 11
823.09398965659989
 21
-156.29283795399999
 31
0.0
  0
LINE
  5
50
  8
0
 62
     0
 10
823.09398965659989
 20
-160.23728261030001
 30
0.0
 11
823.09398965659989
 21
-166.23728261030001
 31
0.0
  0
SOLID
  5
51
  8
0
 62
     0
 10
823.09398965659989
 20
-160.23728261030001
 30
0.0
 11
824.5939896566
 21
-166.23728261030001
 31
0.0
 12
821.5939896566
 22
-166.23728261030001
 32
0.0
 13
823.09398965659989
 23
-164.73728261030001
 33
0.0
  0
LINE
  5
52
  8
0
 62
     0
 10
823.09398965659989
 20
-138.23728261030001
 30
0.0
 11
823.09398965659989
 21
-132.23728261030001
 31
0.0
  0
SOLID
  5
53
  8
0
 62
     0
 10
823.09398965659989
 20
-138.23728261030001
 30
0.0
 11
821.5939896566
 21
-132.23728261030001
 31
0.0
 12
824.5939896566
 22
-132.23728261030001
 32
0.0
 13
823.09398965659989
 23
-133.73728261030001
 33
0.0
  0
ENDBLK
  5
54
  8
0
  0
BLOCK
  8
0
  2
*D2
 70
     1
 10
0.0
 20
0.0
 30
0.0
  3
*D2
  1

  0
TEXT
  5
58
  8
0
 62
     0
 10
820.03565635509983
 20
-134.26506028209999
 30
0.0
 40
5.9972220420999998
  1
15
 50
90.0
  0
LINE
  5
59
  8
0
 62
     0
 10
842.0939896566
 20
-123.2372826103
 30
0.0
 11
822.09398965659989
 21
-123.2372826103
 31
0.0
  0
LINE
  5
5A
  8
0
 62
     0
 10
842.0939896566
 20
-138.23728261030001
 30
0.0
 11
822.09398965659989
 21
-138.23728261030001
 31
0.0
  0
LINE
  5
5B
  8
0
 62
     0
 10
823.09398965659989
 20
-123.2372826103
 30
0.0
 11
823.09398965659989
 21
-123.68172726669999
 31
0.0
  0
LINE
  5
5C
  8
0
 62
     0
 10
823.09398965659989
 20
-123.2372826103
 30
0.0
 11
823.09398965659989
 21
-137.79283795399999
 31
0.0
  0
LINE
  5
5D
  8
0
 62
     0
 10
823.09398965659989
 20
-138.23728261030001
 30
0.0
 11
823.09398965659989
 21
-123.68172726669999
 31
0.0
  0
LINE
  5
5E
  8
0
 62
     0
 10
823.09398965659989
 20
-138.23728261030001
 30
0.0
 11
823.09398965659989
 21
-137.79283795399999
 31
0.0
  0
LINE
  5
5F
  8
0
 62
     0
 10
823.09398965659989
 20
-138.23728261030001
 30
0.0
 11
823.09398965659989
 21
-144.23728261030001
 31
0.0
  0
SOLID
  5
60
  8
0
 62
     0
 10
823.09398965659989
 20
-138.23728261030001
 30
0.0
 11
824.5939896566
 21
-144.23728261030001
 31
0.0
 12
821.5939896566
 22
-144.23728261030001
 32
0.0
 13
823.09398965659989
 23
-142.73728261030001
 33
0.0
  0
LINE
  5
61
  8
0
 62
     0
 10
823.09398965659989
 20
-123.2372826103
 30
0.0
 11
823.09398965659989
 21
-117.2372826103
 31
0.0
  0
SOLID
  5
62
  8
0
 62
     0
 10
823.09398965659989
 20
-123.2372826103
 30
0.0
 11
821.5939896566
 21
-117.2372826103
 31
0.0
 12
824.5939896566
 22
-117.2372826103
 32
0.0
 13
823.09398965659989
 23
-118.7372826103
 33
0.0
  0
ENDBLK
  5
63
  8
0
  0
BLOCK
  8
0
  2
*D3
 70
     1
 10
0.0
 20
0.0
 30
0.0
  3
*D3
  1

  0
TEXT
  5
67
  8
0
 62
     0
 10
820.03565635509983
 20
-121.0011714462
 30
0.0
 40
5.9972220420999998
  1
8
 50
90.0
  0
LINE
  5
68
  8
0
 62
     0
 10
841.0939896566
 20
-115.2372826103
 30
0.0
 11
822.09398965659989
 21
-115.2372826103
 31
0.0
  0
LINE
  5
69
  8
0
 62
     0
 10
842.0939896566
 20
-123.2372826103
 30
0.0
 11
822.09398965659989
 21
-123.2372826103
 31
0.0
  0
LINE
  5
6A
  8
0
 62
     0
 10
823.09398965659989
 20
-115.2372826103
 30
0.0
 11
823.09398965659989
 21
-115.2372826103
 31
0.0
  0
LINE
  5
6B
  8
0
 62
     0
 10
823.09398965659989
 20
-115.2372826103
 30
0.0
 11
823.09398965659989
 21
-123.2372826103
 31
0.0
  0
LINE
  5
6C
  8
0
 62
     0
 10
823.09398965659989
 20
-123.2372826103
 30
0.0
 11
823.09398965659989
 21
-115.2372826103
 31
0.0
  0
LINE
  5
6D
  8
0
 62
     0
 10
823.09398965659989
 20
-123.2372826103
 30
0.0
 11
823.09398965659989
 21
-123.2372826103
 31
0.0
  0
LINE
  5
6E
  8
0
 62
     0
 10
823.09398965659989
 20
-123.2372826103
 30
0.0
 11
823.09398965659989
 21
-129.23728261030001
 31
0.0
  0
SOLID
  5
6F
  8
0
 62
     0
 10
823.09398965659989
 20
-123.2372826103
 30
0.0
 11
824.5939896566
 21
-129.23728261030001
 31
0.0
 12
821.5939896566
 22
-129.23728261030001
 32
0.0
 13
823.09398965659989
 23
-127.7372826103
 33
0.0
  0
LINE
  5
70
  8
0
 62
     0
 10
823.09398965659989
 20
-115.2372826103
 30
0.0
 11
823.09398965659989
 21
-109.2372826103
 31
0.0
  0
SOLID
  5
71
  8
0
 62
     0
 10
823.09398965659989
 20
-115.2372826103
 30
0.0
 11
821.5939896566
 21
-109.2372826103
 31
0.0
 12
824.5939896566
 22
-109.2372826103
 32
0.0
 13
823.09398965659989
 23
-110.7372826103
 33
0.0
  0
ENDBLK
  5
72
  8
0
  0
BLOCK
  8
0
  2
*D4
 70
     1
 10
0.0
 20
0.0
 30
0.0
  3
*D4
  1

  0
TEXT
  5
77
  8
0
 62
     0
 10
847.56621198479991
 20
-78.301156523100005
 30
0.0
 40
5.9972220420999998
  1
16
  0
LINE
  5
78
  8
0
 62
     0
 10
859.0939896566
 20
-114.2372826103
 30
0.0
 11
859.0939896566
 21
-79.859489824600004
 31
0.0
  0
LINE
  5
79
  8
0
 62
     0
 10
843.0939896566
 20
-114.2372826103
 30
0.0
 11
843.0939896566
 21
-79.859489824600004
 31
0.0
  0
LINE
  5
7A
  8
0
 62
     0
 10
859.0939896566
 20
-80.359489824600004
 30
0.0
 11
858.14954500019996
 21
-80.359489824600004
 31
0.0
  0
LINE
  5
7B
  8
0
 62
     0
 10
859.0939896566
 20
-80.359489824600004
 30
0.0
 11
844.03843431300004
 21
-80.359489824600004
 31
0.0
  0
LINE
  5
7C
  8
0
 62
     0
 10
843.0939896566
 20
-80.359489824600004
 30
0.0
 11
858.14954500019996
 21
-80.359489824600004
 31
0.0
  0
LINE
  5
7D
  8
0
 62
     0
 10
843.0939896566
 20
-80.359489824600004
 30
0.0
 11
844.03843431300004
 21
-80.359489824600004
 31
0.0
  0
LINE
  5
7E
  8
0
 62
     0
 10
843.0939896566
 20
-80.359489824600004
 30
0.0
 11
840.09398965659989
 21
-80.359489824600004
 31
0.0
  0
SOLID
  5
7F
  8
0
 62
     0
 10
843.0939896566
 20
-80.359489824600004
 30
0.0
 11
837.0939896566
 21
-81.859489824600004
 31
0.0
 12
837.0939896566
 22
-78.859489824600004
 32
0.0
 13
838.5939896566
 23
-80.359489824600004
 33
0.0
  0
LINE
  5
80
  8
0
 62
     0
 10
859.0939896566
 20
-80.359489824600004
 30
0.0
 11
862.0939896566
 21
-80.359489824600004
 31
0.0
  0
SOLID
  5
81
  8
0
 62
     0
 10
859.0939896566
 20
-80.359489824600004
 30
0.0
 11
865.09398965659989
 21
-78.859489824600004
 31
0.0
 12
865.09398965659989
 22
-81.859489824600004
 32
0.0
 13
863.5939896566
 23
-80.359489824600004
 33
0.0
  0
ENDBLK
  5
82
  8
0
  0
BLOCK
  8
0
  2
*D5
 70
     1
 10
0.0
 20
0.0
 30
0.0
  3
*D5
  1

  0
TEXT
  5
86
  8
0
 62
     0
 10
867.78514307190005
 20
-92.178949308799986
 30
0.0
 40
5.9972220420999998
  1
8
  0
LINE
  5
87
  8
0
 62
     0
 10
859.0939896566
 20
-113.2372826103
 30
0.0
 11
859.0939896566
 21
-94.237282610300014
 31
0.0
  0
LINE
  5
88
  8
0
 62
     0
 10
851.0939896566
 20
-114.2372826103
 30
0.0
 11
851.0939896566
 21
-94.237282610300014
 31
0.0
  0
LINE
  5
89
  8
0
 62
     0
 10
859.0939896566
 20
-95.237282610300014
 30
0.0
 11
874.84069841550001
 21
-95.237282610300014
 31
0.0
  0
LINE
  5
8A
  8
0
 62
     0
 10
859.0939896566
 20
-95.237282610300014
 30
0.0
 11
864.25736540009996
 21
-95.237282610300014
 31
0.0
  0
LINE
  5
8B
  8
0
 62
     0
 10
851.0939896566
 20
-95.237282610300014
 30
0.0
 11
874.84069841550001
 21
-95.237282610300014
 31
0.0
  0
LINE
  5
8C
  8
0
 62
     0
 10
851.0939896566
 20
-95.237282610300014
 30
0.0
 11
864.25736540009996
 21
-95.237282610300014
 31
0.0
  0
LINE
  5
8D
  8
0
 62
     0
 10
851.0939896566
 20
-95.237282610300014
 30
0.0
 11
845.0939896566
 21
-95.237282610300014
 31
0.0
  0
SOLID
  5
8E
  8
0
 62
     0
 10
851.0939896566
 20
-95.237282610300014
 30
0.0
 11
845.0939896566
 21
-96.737282610300014
 31
0.0
 12
845.0939896566
 22
-93.737282610300014
 32
0.0
 13
846.5939896566
 23
-95.237282610300014
 33
0.0
  0
LINE
  5
8F
  8
0
 62
     0
 10
859.0939896566
 20
-95.237282610300014
 30
0.0
 11
865.09398965659989
 21
-95.237282610300014
 31
0.0
  0
SOLID
  5
90
  8
0
 62
     0
 10
859.0939896566
 20
-95.237282610300014
 30
0.0
 11
865.09398965659989
 21
-93.737282610300014
 31
0.0
 12
865.09398965659989
 22
-96.737282610300014
 32
0.0
 13
863.5939896566
 23
-95.237282610300014
 33
0.0
  0
ENDBLK
  5
91
  8
0
  0
BLOCK
  8
0
  2
*D6
 70
     1
 10
0.0
 20
0.0
 30
0.0
  3
*D6
  1

  0
TEXT
  5
95
  8
0
 62
     0
 10
831.33878890519998
 20
-92.178949308799986
 30
0.0
 40
5.9972220420999998
  1
8
  0
LINE
  5
96
  8
0
 62
     0
 10
851.0939896566
 20
-114.2372826103
 30
0.0
 11
851.0939896566
 21
-94.237282610300014
 31
0.0
  0
LINE
  5
97
  8
0
 62
     0
 10
843.0939896566
 20
-113.2372826103
 30
0.0
 11
843.0939896566
 21
-94.237282610300014
 31
0.0
  0
LINE
  5
98
  8
0
 62
     0
 10
851.0939896566
 20
-95.237282610300014
 30
0.0
 11
838.39434424889998
 21
-95.237282610300014
 31
0.0
  0
LINE
  5
99
  8
0
 62
     0
 10
851.0939896566
 20
-95.237282610300014
 30
0.0
 11
827.81101123339988
 21
-95.237282610300014
 31
0.0
  0
LINE
  5
9A
  8
0
 62
     0
 10
843.0939896566
 20
-95.237282610300014
 30
0.0
 11
838.39434424889998
 21
-95.237282610300014
 31
0.0
  0
LINE
  5
9B
  8
0
 62
     0
 10
843.0939896566
 20
-95.237282610300014
 30
0.0
 11
827.81101123339988
 21
-95.237282610300014
 31
0.0
  0
LINE
  5
9C
  8
0
 62
     0
 10
843.0939896566
 20
-95.237282610300014
 30
0.0
 11
837.0939896566
 21
-95.237282610300014
 31
0.0
  0
SOLID
  5
9D
  8
0
 62
     0
 10
843.0939896566
 20
-95.237282610300014
 30
0.0
 11
837.0939896566
 21
-96.737282610300014
 31
0.0
 12
837.0939896566
 22
-93.737282610300014
 32
0.0
 13
838.5939896566
 23
-95.237282610300014
 33
0.0
  0
LINE
  5
9E
  8
0
 62
     0
 10
851.0939896566
 20
-95.237282610300014
 30
0.0
 11
857.09398965660012
 21
-95.237282610300014
 31
0.0
  0
SOLID
  5
9F
  8
0
 62
     0
 10
851.0939896566
 20
-95.237282610300014
 30
0.0
 11
857.09398965660012
 21
-93.737282610300014
 31
0.0
 12
857.09398965660012
 22
-96.737282610300014
 32
0.0
 13
855.5939896566
 23
-95.237282610300014
 33
0.0
  0
ENDBLK
  5
A0
  8
0
  0
BLOCK
  8
0
  2
*D7
 70
     1
 10
0.0
 20
0.0
 30
0.0
  3
*D7
  1

  0
TEXT
  5
A4
  8
0
 62
     0
 10
636.71679958419998
 20
-275.21848777809998
 30
0.0
 40
5.9972220420999998
  1
16
 50
90.0
  0
LINE
  5
A5
  8
0
 62
     0
 10
657.77513288579985
 20
-263.6907101063
 30
0.0
 11
638.77513288579996
 21
-263.6907101063
 31
0.0
  0
LINE
  5
A6
  8
0
 62
     0
 10
657.77513288579985
 20
-279.6907101063
 30
0.0
 11
638.77513288579996
 21
-279.6907101063
 31
0.0
  0
LINE
  5
A7
  8
0
 62
     0
 10
639.77513288579985
 20
-263.6907101063
 30
0.0
 11
639.77513288579985
 21
-264.6351547626
 31
0.0
  0
LINE
  5
A8
  8
0
 62
     0
 10
639.77513288579985
 20
-263.6907101063
 30
0.0
 11
639.77513288579985
 21
-278.74626544990002
 31
0.0
  0
LINE
  5
A9
  8
0
 62
     0
 10
639.77513288579985
 20
-279.6907101063
 30
0.0
 11
639.77513288579985
 21
-264.6351547626
 31
0.0
  0
LINE
  5
AA
  8
0
 62
     0
 10
639.77513288579985
 20
-279.6907101063
 30
0.0
 11
639.77513288579985
 21
-278.74626544990002
 31
0.0
  0
LINE
  5
AB
  8
0
 62
     0
 10
639.77513288579985
 20
-279.6907101063
 30
0.0
 11
639.77513288579985
 21
-285.6907101063
 31
0.0
  0
SOLID
  5
AC
  8
0
 62
     0
 10
639.77513288579985
 20
-279.6907101063
 30
0.0
 11
641.27513288579985
 21
-285.6907101063
 31
0.0
 12
638.27513288579985
 22
-285.6907101063
 32
0.0
 13
639.77513288579985
 23
-284.1907101063
 33
0.0
  0
LINE
  5
AD
  8
0
 62
     0
 10
639.77513288579985
 20
-263.6907101063
 30
0.0
 11
639.77513288579985
 21
-257.6907101063
 31
0.0
  0
SOLID
  5
AE
  8
0
 62
     0
 10
639.77513288579985
 20
-263.6907101063
 30
0.0
 11
638.27513288579985
 21
-257.6907101063
 31
0.0
 12
641.27513288579985
 22
-257.6907101063
 32
0.0
 13
639.77513288579985
 23
-259.1907101063
 33
0.0
  0
ENDBLK
  5
AF
  8
0
  0
BLOCK
  8
0
  2
*D8
 70
     1
 10
0.0
 20
0.0
 30
0.0
  3
*D8
  1

  0
TEXT
  5
B3
  8
0
 62
     0
 10
666.66444590059996
 20
-93.178949308799986
 30
0.0
 40
5.9972220420999998
  1
4.5t
  0
LINE
  5
B4
  8
0
 62
     0
 10
664.27513288579996
 20
-114.2372826103
 30
0.0
 11
664.27513288579996
 21
-94.737282610300014
 31
0.0
  0
LINE
  5
B5
  8
0
 62
     0
 10
659.77513288579996
 20
-114.2372826103
 30
0.0
 11
659.77513288579996
 21
-94.737282610300014
 31
0.0
  0
LINE
  5
B6
  8
0
 62
     0
 10
664.27513288579996
 20
-95.237282610300014
 30
0.0
 11
684.30333425970002
 21
-95.237282610300014
 31
0.0
  0
LINE
  5
B7
  8
0
 62
     0
 10
664.27513288579996
 20
-95.237282610300014
 30
0.0
 11
663.13666822879998
 21
-95.237282610300014
 31
0.0
  0
LINE
  5
B8
  8
0
 62
     0
 10
659.77513288579996
 20
-95.237282610300014
 30
0.0
 11
684.30333425970002
 21
-95.237282610300014
 31
0.0
  0
LINE
  5
B9
  8
0
 62
     0
 10
659.77513288579996
 20
-95.237282610300014
 30
0.0
 11
663.13666822879998
 21
-95.237282610300014
 31
0.0
  0
LINE
  5
BA
  8
0
 62
     0
 10
659.77513288579996
 20
-95.237282610300014
 30
0.0
 11
656.77513288579985
 21
-95.237282610300014
 31
0.0
  0
SOLID
  5
BB
  8
0
 62
     0
 10
659.77513288579996
 20
-95.237282610300014
 30
0.0
 11
653.77513288579985
 21
-96.737282610300014
 31
0.0
 12
653.77513288579985
 22
-93.737282610300014
 32
0.0
 13
655.27513288579996
 23
-95.237282610300014
 33
0.0
  0
LINE
  5
BC
  8
0
 62
     0
 10
664.27513288579996
 20
-95.237282610300014
 30
0.0
 11
667.27513288579985
 21
-95.237282610300014
 31
0.0
  0
SOLID
  5
BD
  8
0
 62
     0
 10
664.27513288579996
 20
-95.237282610300014
 30
0.0
 11
670.27513288579985
 21
-93.737282610300014
 31
0.0
 12
670.27513288579985
 22
-96.737282610300014
 32
0.0
 13
668.77513288579985
 23
-95.237282610300014
 33
0.0
  0
ENDBLK
  5
BE
  8
0
  0
BLOCK
  8
0
  2
*D9
 70
     1
 10
0.0
 20
0.0
 30
0.0
  3
*D9
  1

  0
TEXT
  5
C2
  8
0
 62
     0
 10
766.71679958419998
 20
-256.49962560860001
 30
0.0
 40
5.9972220420999998
  1
8
 50
90.0
  0
LINE
  5
C3
  8
0
 62
     0
 10
750.77513288579985
 20
-271.6907101063
 30
0.0
 11
770.77513288579985
 21
-271.6907101063
 31
0.0
  0
LINE
  5
C4
  8
0
 62
     0
 10
751.77513288579996
 20
-263.6907101063
 30
0.0
 11
770.77513288579985
 21
-263.6907101063
 31
0.0
  0
LINE
  5
C5
  8
0
 62
     0
 10
769.77513288579985
 20
-271.6907101063
 30
0.0
 11
769.77513288579985
 21
-249.44407026490001
 31
0.0
  0
LINE
  5
C6
  8
0
 62
     0
 10
769.77513288579985
 20
-271.6907101063
 30
0.0
 11
769.77513288579985
 21
-260.02740328039999
 31
0.0
  0
LINE
  5
C7
  8
0
 62
     0
 10
769.77513288579985
 20
-263.6907101063
 30
0.0
 11
769.77513288579985
 21
-249.44407026490001
 31
0.0
  0
LINE
  5
C8
  8
0
 62
     0
 10
769.77513288579985
 20
-263.6907101063
 30
0.0
 11
769.77513288579985
 21
-260.02740328039999
 31
0.0
  0
LINE
  5
C9
  8
0
 62
     0
 10
769.77513288579985
 20
-263.6907101063
 30
0.0
 11
769.77513288579985
 21
-257.6907101063
 31
0.0
  0
SOLID
  5
CA
  8
0
 62
     0
 10
769.77513288579985
 20
-263.6907101063
 30
0.0
 11
768.27513288579996
 21
-257.6907101063
 31
0.0
 12
771.27513288579985
 22
-257.6907101063
 32
0.0
 13
769.77513288579985
 23
-259.1907101063
 33
0.0
  0
LINE
  5
CB
  8
0
 62
     0
 10
769.77513288579985
 20
-271.6907101063
 30
0.0
 11
769.77513288579985
 21
-277.6907101063
 31
0.0
  0
SOLID
  5
CC
  8
0
 62
     0
 10
769.77513288579985
 20
-271.6907101063
 30
0.0
 11
771.27513288579985
 21
-277.6907101063
 31
0.0
 12
768.27513288579996
 22
-277.6907101063
 32
0.0
 13
769.77513288579985
 23
-276.1907101063
 33
0.0
  0
ENDBLK
  5
CD
  8
0
  0
BLOCK
  8
0
  2
*D10
 70
     1
 10
0.0
 20
0.0
 30
0.0
  3
*D10
  1

  0
TEXT
  5
D1
  8
0
 62
     0
 10
766.71679958419998
 20
-288.6788931991
 30
0.0
 40
5.9972220420999998
  1
8
 50
90.0
  0
LINE
  5
D2
  8
0
 62
     0
 10
751.77513288579996
 20
-279.6907101063
 30
0.0
 11
770.77513288579985
 21
-279.6907101063
 31
0.0
  0
LINE
  5
D3
  8
0
 62
     0
 10
750.77513288579985
 20
-271.6907101063
 30
0.0
 11
770.77513288579985
 21
-271.6907101063
 31
0.0
  0
LINE
  5
D4
  8
0
 62
     0
 10
769.77513288579985
 20
-279.6907101063
 30
0.0
 11
769.77513288579985
 21
-281.6233378554
 31
0.0
  0
LINE
  5
D5
  8
0
 62
     0
 10
769.77513288579985
 20
-279.6907101063
 30
0.0
 11
769.77513288579985
 21
-292.20667087089998
 31
0.0
  0
LINE
  5
D6
  8
0
 62
     0
 10
769.77513288579985
 20
-271.6907101063
 30
0.0
 11
769.77513288579985
 21
-281.6233378554
 31
0.0
  0
LINE
  5
D7
  8
0
 62
     0
 10
769.77513288579985
 20
-271.6907101063
 30
0.0
 11
769.77513288579985
 21
-292.20667087089998
 31
0.0
  0
LINE
  5
D8
  8
0
 62
     0
 10
769.77513288579985
 20
-271.6907101063
 30
0.0
 11
769.77513288579985
 21
-265.6907101063
 31
0.0
  0
SOLID
  5
D9
  8
0
 62
     0
 10
769.77513288579985
 20
-271.6907101063
 30
0.0
 11
768.27513288579996
 21
-265.6907101063
 31
0.0
 12
771.27513288579985
 22
-265.6907101063
 32
0.0
 13
769.77513288579985
 23
-267.1907101063
 33
0.0
  0
LINE
  5
DA
  8
0
 62
     0
 10
769.77513288579985
 20
-279.6907101063
 30
0.0
 11
769.77513288579985
 21
-285.6907101063
 31
0.0
  0
SOLID
  5
DB
  8
0
 62
     0
 10
769.77513288579985
 20
-279.6907101063
 30
0.0
 11
771.27513288579985
 21
-285.6907101063
 31
0.0
 12
768.27513288579996
 22
-285.6907101063
 32
0.0
 13
769.77513288579985
 23
-284.1907101063
 33
0.0
  0
ENDBLK
  5
DC
  8
0
  0
BLOCK
  8
0
  2
*D11
 70
     1
 10
0.0
 20
0.0
 30
0.0
  3
*D11
  1

  0
TEXT
  5
EB
  8
0
 62
     0
 10
684.51944013959996
 20
-135.19774039230001
 30
0.0
 40
5.9972220420999998
  1
90%%d
 50
304.8417605999
  0
ARC
  5
EC
  8
0
 62
     0
 10
664.27513288579996
 20
-155.73728261030001
 30
0.0
 40
25.174656817900001
 50
63.560138637299993
 51
90.0
  0
ARC
  5
ED
  8
0
 62
     0
 10
664.27513288579996
 20
-155.73728261030001
 30
0.0
 40
25.174656817900001
 50
0.0
 51
26.4398613627
  0
SOLID
  5
EE
  8
0
 62
     0
 10
689.4497897036
 20
-155.73728261030001
 30
0.0
 11
690.9497897036
 21
-161.73728261030001
 31
0.0
 12
687.94978970359989
 22
-161.73728261030001
 32
0.0
 13
689.4497897036
 23
-160.23728261030001
 33
0.0
  0
SOLID
  5
EF
  8
0
 62
     0
 10
664.27513288579996
 20
-130.5626257925
 30
0.0
 11
658.27513288579985
 21
-132.0626257925
 31
0.0
 12
658.27513288579985
 22
-129.0626257925
 32
0.0
 13
659.77513288579996
 23
-130.5626257925
 33
0.0
  0
ARC
  5
F0
  8
0
 62
     0
 10
664.27513288579996
 20
-155.73728261030001
 30
0.0
 40
25.174656817900001
 50
0.0
 51
14.4801914402
  0
ARC
  5
F1
  8
0
 62
     0
 10
664.27513288579996
 20
-155.73728261030001
 30
0.0
 40
25.174656817900001
 50
55.203329759699997
 51
90.0
  0
LINE
  5
F2
  8
0
 62
     0
 10
745.77513288579985
 20
-155.73728261030001
 30
0.0
 11
685.4497897036
 21
-155.73728261030001
 31
0.0
  0
LINE
  5
F3
  8
0
 62
     0
 10
664.27513288579996
 20
-119.2372826103
 30
0.0
 11
664.27513288579996
 21
-134.5626257925
 31
0.0
  0
ENDBLK
  5
F4
  8
0
  0
BLOCK
  8
0
  2
*D12
 70
     1
 10
0.0
 20
0.0
 30
0.0
  3
*D12
  1

  0
TEXT
  5
F8
  8
0
 62
     0
 10
701.24735521399998
 20
-178.17894930879999
 30
0.0
 40
5.9972220420999998
  1
90
  0
LINE
  5
F9
  8
0
 62
     0
 10
659.77513288579996
 20
-156.23728261030001
 30
0.0
 11
659.77513288579996
 21
-180.73728261030001
 31
0.0
  0
LINE
  5
FA
  8
0
 62
     0
 10
749.77513288579985
 20
-161.23728261030001
 30
0.0
 11
749.77513288579985
 21
-180.73728261030001
 31
0.0
  0
LINE
  5
FB
  8
0
 62
     0
 10
659.77513288579996
 20
-180.23728261030001
 30
0.0
 11
711.83068822940004
 21
-180.23728261030001
 31
0.0
  0
LINE
  5
FC
  8
0
 62
     0
 10
659.77513288579996
 20
-180.23728261030001
 30
0.0
 11
697.7195775422
 21
-180.23728261030001
 31
0.0
  0
LINE
  5
FD
  8
0
 62
     0
 10
749.77513288579985
 20
-180.23728261030001
 30
0.0
 11
711.83068822940004
 21
-180.23728261030001
 31
0.0
  0
LINE
  5
FE
  8
0
 62
     0
 10
749.77513288579985
 20
-180.23728261030001
 30
0.0
 11
697.7195775422
 21
-180.23728261030001
 31
0.0
  0
LINE
  5
FF
  8
0
 62
     0
 10
749.77513288579985
 20
-180.23728261030001
 30
0.0
 11
746.77513288579996
 21
-180.23728261030001
 31
0.0
  0
SOLID
  5
100
  8
0
 62
     0
 10
749.77513288579985
 20
-180.23728261030001
 30
0.0
 11
743.77513288579985
 21
-181.73728261030001
 31
0.0
 12
743.77513288579985
 22
-178.73728261030001
 32
0.0
 13
745.27513288579985
 23
-180.23728261030001
 33
0.0
  0
LINE
  5
101
  8
0
 62
     0
 10
659.77513288579996
 20
-180.23728261030001
 30
0.0
 11
662.77513288579985
 21
-180.23728261030001
 31
0.0
  0
SOLID
  5
102
  8
0
 62
     0
 10
659.77513288579996
 20
-180.23728261030001
 30
0.0
 11
665.77513288579985
 21
-178.73728261030001
 31
0.0
 12
665.77513288579985
 22
-181.73728261030001
 32
0.0
 13
664.27513288579996
 23
-180.23728261030001
 33
0.0
  0
ENDBLK
  5
103
  8
0
  0
BLOCK
  8
0
  2
*D13
 70
     1
 10
0.0
 20
0.0
 30
0.0
  3
*D13
  1

  0
TEXT
  5
107
  8
0
 62
     0
 10
637.71679958419998
 20
-141.26506028209999
 30
0.0
 40
5.9972220420999998
  1
45
 50
90.0
  0
LINE
  5
108
  8
0
 62
     0
 10
658.77513288579985
 20
-115.2372826103
 30
0.0
 11
639.27513288579996
 21
-115.2372826103
 31
0.0
  0
LINE
  5
109
  8
0
 62
     0
 10
663.77513288579996
 20
-160.23728261030001
 30
0.0
 11
639.27513288579996
 21
-160.23728261030001
 31
0.0
  0
LINE
  5
10A
  8
0
 62
     0
 10
639.77513288579985
 20
-115.2372826103
 30
0.0
 11
639.77513288579985
 21
-130.68172726669999
 31
0.0
  0
LINE
  5
10B
  8
0
 62
     0
 10
639.77513288579985
 20
-115.2372826103
 30
0.0
 11
639.77513288579985
 21
-144.79283795399999
 31
0.0
  0
LINE
  5
10C
  8
0
 62
     0
 10
639.77513288579985
 20
-160.23728261030001
 30
0.0
 11
639.77513288579985
 21
-130.68172726669999
 31
0.0
  0
LINE
  5
10D
  8
0
 62
     0
 10
639.77513288579985
 20
-160.23728261030001
 30
0.0
 11
639.77513288579985
 21
-144.79283795399999
 31
0.0
  0
LINE
  5
10E
  8
0
 62
     0
 10
639.77513288579985
 20
-160.23728261030001
 30
0.0
 11
639.77513288579985
 21
-157.23728261030001
 31
0.0
  0
SOLID
  5
10F
  8
0
 62
     0
 10
639.77513288579985
 20
-160.23728261030001
 30
0.0
 11
638.27513288579985
 21
-154.23728261030001
 31
0.0
 12
641.27513288579985
 22
-154.23728261030001
 32
0.0
 13
639.77513288579985
 23
-155.73728261030001
 33
0.0
  0
LINE
  5
110
  8
0
 62
     0
 10
639.77513288579985
 20
-115.2372826103
 30
0.0
 11
639.77513288579985
 21
-118.2372826103
 31
0.0
  0
SOLID
  5
111
  8
0
 62
     0
 10
639.77513288579985
 20
-115.2372826103
 30
0.0
 11
641.27513288579985
 21
-121.2372826103
 31
0.0
 12
638.27513288579985
 22
-121.2372826103
 32
0.0
 13
639.77513288579985
 23
-119.7372826103
 33
0.0
  0
ENDBLK
  5
112
  8
0
  0
BLOCK
  8
0
  2
*D14
 70
     1
 10
0.0
 20
0.0
 30
0.0
  3
*D14
  1

  0
TEXT
  5
116
  8
0
 62
     0
 10
1004.769303473
 20
-189.57401180880001
 30
0.0
 40
5.9972220420999998
  1
%%c5
  0
LINE
  5
117
  8
0
 62
     0
 10
1022.5609699807
 20
-221.82419667280001
 30
0.0
 11
1022.5609699807
 21
-191.13234511029989
 31
0.0
  0
LINE
  5
118
  8
0
 62
     0
 10
997.56096998069995
 20
-221.82419667280001
 30
0.0
 11
997.56096998069995
 21
-191.13234511029989
 31
0.0
  0
LINE
  5
119
  8
0
 62
     0
 10
1022.5609699807
 20
-191.63234511030001
 30
0.0
 11
1018.8804141602
 21
-191.63234511030001
 31
0.0
  0
LINE
  5
11A
  8
0
 62
     0
 10
1022.5609699807
 20
-191.63234511030001
 30
0.0
 11
1001.2415258012001
 21
-191.63234511030001
 31
0.0
  0
LINE
  5
11B
  8
0
 62
     0
 10
997.56096998069995
 20
-191.63234511030001
 30
0.0
 11
1018.8804141602
 21
-191.63234511030001
 31
0.0
  0
LINE
  5
11C
  8
0
 62
     0
 10
997.56096998069995
 20
-191.63234511030001
 30
0.0
 11
1001.2415258012001
 21
-191.63234511030001
 31
0.0
  0
LINE
  5
11D
  8
0
 62
     0
 10
997.56096998069995
 20
-191.63234511030001
 30
0.0
 11
994.56096998069995
 21
-191.63234511030001
 31
0.0
  0
SOLID
  5
11E
  8
0
 62
     0
 10
997.56096998069995
 20
-191.63234511030001
 30
0.0
 11
991.56096998070007
 21
-193.13234511030001
 31
0.0
 12
991.56096998070007
 22
-190.13234511030001
 32
0.0
 13
993.06096998069995
 23
-191.63234511030001
 33
0.0
  0
LINE
  5
11F
  8
0
 62
     0
 10
1022.5609699807
 20
-191.63234511030001
 30
0.0
 11
1025.5609699807001
 21
-191.63234511030001
 31
0.0
  0
SOLID
  5
120
  8
0
 62
     0
 10
1022.5609699807
 20
-191.63234511030001
 30
0.0
 11
1028.5609699807001
 21
-190.13234511030001
 31
0.0
 12
1028.5609699807001
 22
-193.13234511030001
 32
0.0
 13
1027.0609699807001
 23
-191.63234511030001
 33
0.0
  0
ENDBLK
  5
121
  8
0
  0
BLOCK
  8
0
  2
*D15
 70
     1
 10
0.0
 20
0.0
 30
0.0
  3
*D15
  1

  0
TEXT
  5
125
  8
0
 62
     0
 10
1001.2415258012001
 20
-169.192826913
 30
0.0
 40
5.9972220420999998
  1
%%c8.5
  0
LINE
  5
126
  8
0
 62
     0
 10
1031.3109699807001
 20
-213.07419667280001
 30
0.0
 11
1031.3109699807001
 21
-170.7511602145
 31
0.0
  0
LINE
  5
127
  8
0
 62
     0
 10
988.81096998070007
 20
-213.07419667280001
 30
0.0
 11
988.81096998070007
 21
-170.7511602145
 31
0.0
  0
LINE
  5
128
  8
0
 62
     0
 10
1031.3109699807001
 20
-171.2511602145
 30
0.0
 11
1022.4081918320001
 21
-171.2511602145
 31
0.0
  0
LINE
  5
129
  8
0
 62
     0
 10
1031.3109699807001
 20
-171.2511602145
 30
0.0
 11
997.71374812929992
 21
-171.2511602145
 31
0.0
  0
LINE
  5
12A
  8
0
 62
     0
 10
988.81096998070007
 20
-171.2511602145
 30
0.0
 11
1022.4081918320001
 21
-171.2511602145
 31
0.0
  0
LINE
  5
12B
  8
0
 62
     0
 10
988.81096998070007
 20
-171.2511602145
 30
0.0
 11
997.71374812929992
 21
-171.2511602145
 31
0.0
  0
LINE
  5
12C
  8
0
 62
     0
 10
988.81096998070007
 20
-171.2511602145
 30
0.0
 11
991.81096998070007
 21
-171.2511602145
 31
0.0
  0
SOLID
  5
12D
  8
0
 62
     0
 10
988.81096998070007
 20
-171.2511602145
 30
0.0
 11
994.81096998069995
 21
-169.7511602145
 31
0.0
 12
994.81096998069995
 22
-172.7511602145
 32
0.0
 13
993.31096998070007
 23
-171.2511602145
 33
0.0
  0
LINE
  5
12E
  8
0
 62
     0
 10
1031.3109699807001
 20
-171.2511602145
 30
0.0
 11
1028.3109699807001
 21
-171.2511602145
 31
0.0
  0
SOLID
  5
12F
  8
0
 62
     0
 10
1031.3109699807001
 20
-171.2511602145
 30
0.0
 11
1025.3109699807001
 21
-172.7511602145
 31
0.0
 12
1025.3109699807001
 22
-169.7511602145
 32
0.0
 13
1026.8109699807001
 23
-171.2511602145
 33
0.0
  0
ENDBLK
  5
130
  8
0
  0
BLOCK
  8
0
  2
*D16
 70
     1
 10
0.0
 20
0.0
 30
0.0
  3
*D16
  1

  0
TEXT
  5
134
  8
0
 62
     0
 10
744.01124404990003
 20
-241.63237680469999
 30
0.0
 40
5.9972220420999998
  1
8
  0
LINE
  5
135
  8
0
 62
     0
 10
749.77513288579985
 20
-262.6907101063
 30
0.0
 11
749.77513288579985
 21
-243.1907101063
 31
0.0
  0
LINE
  5
136
  8
0
 62
     0
 10
741.77513288579985
 20
-263.6907101063
 30
0.0
 11
741.77513288579985
 21
-243.1907101063
 31
0.0
  0
LINE
  5
137
  8
0
 62
     0
 10
749.77513288579985
 20
-243.6907101063
 30
0.0
 11
749.77513288579985
 21
-243.6907101063
 31
0.0
  0
LINE
  5
138
  8
0
 62
     0
 10
749.77513288579985
 20
-243.6907101063
 30
0.0
 11
741.77513288579985
 21
-243.6907101063
 31
0.0
  0
LINE
  5
139
  8
0
 62
     0
 10
741.77513288579985
 20
-243.6907101063
 30
0.0
 11
749.77513288579985
 21
-243.6907101063
 31
0.0
  0
LINE
  5
13A
  8
0
 62
     0
 10
741.77513288579985
 20
-243.6907101063
 30
0.0
 11
741.77513288579985
 21
-243.6907101063
 31
0.0
  0
LINE
  5
13B
  8
0
 62
     0
 10
741.77513288579985
 20
-243.6907101063
 30
0.0
 11
738.77513288579996
 21
-243.6907101063
 31
0.0
  0
SOLID
  5
13C
  8
0
 62
     0
 10
741.77513288579985
 20
-243.6907101063
 30
0.0
 11
735.77513288579985
 21
-245.1907101063
 31
0.0
 12
735.77513288579985
 22
-242.1907101063
 32
0.0
 13
737.27513288579985
 23
-243.6907101063
 33
0.0
  0
LINE
  5
13D
  8
0
 62
     0
 10
749.77513288579985
 20
-243.6907101063
 30
0.0
 11
752.77513288579985
 21
-243.6907101063
 31
0.0
  0
SOLID
  5
13E
  8
0
 62
     0
 10
749.77513288579985
 20
-243.6907101063
 30
0.0
 11
755.77513288579996
 21
-242.1907101063
 31
0.0
 12
755.77513288579996
 22
-245.1907101063
 32
0.0
 13
754.27513288579985
 23
-243.6907101063
 33
0.0
  0
ENDBLK
  5
13F
  8
0
  0
BLOCK
  8
0
  2
*D17
 70
     1
 10
0.0
 20
0.0
 30
0.0
  3
*D17
  1

  0
TEXT
  5
143
  8
0
 62
     0
 10
708.24735521399987
 20
-241.63237680469999
 30
0.0
 40
5.9972220420999998
  1
60
  0
LINE
  5
144
  8
0
 62
     0
 10
741.77513288579985
 20
-263.6907101063
 30
0.0
 11
741.77513288579985
 21
-243.1907101063
 31
0.0
  0
LINE
  5
145
  8
0
 62
     0
 10
681.77513288579985
 20
-263.6907101063
 30
0.0
 11
681.77513288579985
 21
-243.1907101063
 31
0.0
  0
LINE
  5
146
  8
0
 62
     0
 10
741.77513288579985
 20
-243.6907101063
 30
0.0
 11
718.83068822940004
 21
-243.6907101063
 31
0.0
  0
LINE
  5
147
  8
0
 62
     0
 10
741.77513288579985
 20
-243.6907101063
 30
0.0
 11
704.71957754219989
 21
-243.6907101063
 31
0.0
  0
LINE
  5
148
  8
0
 62
     0
 10
681.77513288579985
 20
-243.6907101063
 30
0.0
 11
718.83068822940004
 21
-243.6907101063
 31
0.0
  0
LINE
  5
149
  8
0
 62
     0
 10
681.77513288579985
 20
-243.6907101063
 30
0.0
 11
704.71957754219989
 21
-243.6907101063
 31
0.0
  0
LINE
  5
14A
  8
0
 62
     0
 10
681.77513288579985
 20
-243.6907101063
 30
0.0
 11
684.77513288579996
 21
-243.6907101063
 31
0.0
  0
SOLID
  5
14B
  8
0
 62
     0
 10
681.77513288579985
 20
-243.6907101063
 30
0.0
 11
687.77513288579985
 21
-242.1907101063
 31
0.0
 12
687.77513288579985
 22
-245.1907101063
 32
0.0
 13
686.27513288579985
 23
-243.6907101063
 33
0.0
  0
LINE
  5
14C
  8
0
 62
     0
 10
741.77513288579985
 20
-243.6907101063
 30
0.0
 11
738.77513288579996
 21
-243.6907101063
 31
0.0
  0
SOLID
  5
14D
  8
0
 62
     0
 10
741.77513288579985
 20
-243.6907101063
 30
0.0
 11
735.77513288579985
 21
-245.1907101063
 31
0.0
 12
735.77513288579985
 22
-242.1907101063
 32
0.0
 13
737.27513288579985
 23
-243.6907101063
 33
0.0
  0
ENDBLK
  5
14E
  8
0
  0
BLOCK
  8
0
  2
*D18
 70
     1
 10
0.0
 20
0.0
 30
0.0
  3
*D18
  1

  0
TEXT
  5
152
  8
0
 62
     0
 10
667.24735521399987
 20
-241.63237680469999
 30
0.0
 40
5.9972220420999998
  1
22
  0
LINE
  5
153
  8
0
 62
     0
 10
681.77513288579985
 20
-263.6907101063
 30
0.0
 11
681.77513288579985
 21
-243.1907101063
 31
0.0
  0
LINE
  5
154
  8
0
 62
     0
 10
659.77513288579996
 20
-262.6907101063
 30
0.0
 11
659.77513288579996
 21
-243.1907101063
 31
0.0
  0
LINE
  5
155
  8
0
 62
     0
 10
681.77513288579985
 20
-243.6907101063
 30
0.0
 11
677.83068822940004
 21
-243.6907101063
 31
0.0
  0
LINE
  5
156
  8
0
 62
     0
 10
681.77513288579985
 20
-243.6907101063
 30
0.0
 11
663.7195775422
 21
-243.6907101063
 31
0.0
  0
LINE
  5
157
  8
0
 62
     0
 10
659.77513288579996
 20
-243.6907101063
 30
0.0
 11
677.83068822940004
 21
-243.6907101063
 31
0.0
  0
LINE
  5
158
  8
0
 62
     0
 10
659.77513288579996
 20
-243.6907101063
 30
0.0
 11
663.7195775422
 21
-243.6907101063
 31
0.0
  0
LINE
  5
159
  8
0
 62
     0
 10
659.77513288579996
 20
-243.6907101063
 30
0.0
 11
656.77513288579985
 21
-243.6907101063
 31
0.0
  0
SOLID
  5
15A
  8
0
 62
     0
 10
659.77513288579996
 20
-243.6907101063
 30
0.0
 11
653.77513288579985
 21
-245.1907101063
 31
0.0
 12
653.77513288579985
 22
-242.1907101063
 32
0.0
 13
655.27513288579996
 23
-243.6907101063
 33
0.0
  0
LINE
  5
15B
  8
0
 62
     0
 10
681.77513288579985
 20
-243.6907101063
 30
0.0
 11
684.77513288579996
 21
-243.6907101063
 31
0.0
  0
SOLID
  5
15C
  8
0
 62
     0
 10
681.77513288579985
 20
-243.6907101063
 30
0.0
 11
687.77513288579985
 21
-242.1907101063
 31
0.0
 12
687.77513288579985
 22
-245.1907101063
 32
0.0
 13
686.27513288579985
 23
-243.6907101063
 33
0.0
  0
ENDBLK
  5
15D
  8
0
  0
BLOCK
  8
0
  2
*D19
 70
     1
 10
0.0
 20
0.0
 30
0.0
  3
*D19
  1

  0
LINE
  5
216
  8
Éíû@É³
 62
     0
 10
1031.8854942404239
 20
-213.49967241307581
 30
0.0
 11
1072.5385199749419
 21
-172.8466466785581
 31
0.0
  0
LINE
  5
217
  8
Éíû@É³
 62
     0
 10
988.23644572097578
 20
-213.49967241307581
 30
0.0
 11
947.58341998645801
 21
-172.84664667855819
 31
0.0
  0
ARC
  5
218
  8
Éíû@É³
 62
     0
 10
1010.0609699807
 20
-235.32419667280001
 30
0.0
 40
87.106598545699967
 50
48.947378047500052
 51
83.946644502387258
  0
ARC
  5
219
  8
Éíû@É³
 62
     0
 10
1010.0609699807
 20
-235.32419667280001
 30
0.0
 40
87.106598545699967
 50
96.053355497612728
 51
131.05262195250009
  0
SOLID
  5
21A
  8
Éíû@É³
 62
     0
 10
1067.9507279824959
 20
-168.9054849008096
 30
0.0
 11
1066.5860597117171
 21
-170.36756578459361
 31
0.0
 12
1071.6546364984581
 22
-173.73053015504129
 32
0.0
 13
1071.6546364984581
 23
-173.73053015504129
 33
0.0
  0
SOLID
  5
21B
  8
Éíû@É³
 62
     0
 10
953.53588024968315
 20
-170.36756578459381
 30
0.0
 11
952.17121197890322
 21
-168.90548490080971
 31
0.0
 12
948.46730346294135
 22
-173.73053015504141
 32
0.0
 13
948.46730346294135
 23
-173.73053015504141
 33
0.0
  0
TEXT
  8
Éíû@É³
  40
5.99722
  5
27D
  62
0
  72
0
  71
0
 10
998.067
 20
-158.833
 30
0.000000
  1
90üï
  0
POINT
  5
21D
  8
Defpoints
 62
     0
 10
1010.0609699807
 20
-235.32419667280001
 30
0.0
  0
POINT
  5
21E
  8
Defpoints
 62
     0
 10
1031.8413000666001
 20
-213.54386658690001
 30
0.0
  0
POINT
  5
21F
  8
Defpoints
 62
     0
 10
988.28063989479995
 20
-213.54386658690001
 30
0.0
  0
POINT
  5
220
  8
Defpoints
 62
     0
 10
1032.6058166384259
 20
-151.18568349731461
 30
0.0
  0
ENDBLK
  5
222
  8
0
  0
BLOCK
  8
0
  2
*U20
 70
     1
 10
0.0
 20
0.0
 30
0.0
  3
*U20
  1

  0
TEXT
  5
224
  8
┌▓È_1
  6
CONTINUOUS
 10
985.26536582192534
 20
-259.78669285032743
 30
0.0
 40
5.9972220420999998
  1
ÄMâéâ~òöègæÕÉ}
  0
ENDBLK
  5
226
  8
0
  0
BLOCK
  8
0
  2
*U21
 70
     1
 10
0.0
 20
0.0
 30
0.0
  3
*U21
  1

  0
TEXT
  5
228
  8
┌▓È_1
  6
CONTINUOUS
 10
1029.8700428029999
 20
-387.43525240752689
 30
0.0
 40
7.1966662884000003
  1
ékî^âAâôâOâï
  0
ENDBLK
  5
22A
  8
0
  0
BLOCK
  8
0
  2
*U22
 70
     1
 10
0.0
 20
0.0
 30
0.0
  3
*U22
  1

  0
TEXT
  5
22C
  8
┌▓È_1
  6
CONTINUOUS
 10
1028.7997035834669
 20
-368.6642304842
 30
0.0
 40
7.1966662884000003
  1
LY-205  45x90
  0
ENDBLK
  5
22E
  8
0
  0
BLOCK
  8
0
  2
*D23
 70
     1
 10
0.0
 20
0.0
 30
0.0
  3
*D23
  1

  0
LINE
  5
230
  8
Éíû@É³
 62
     0
 10
749.71263288579985
 20
-155.7372826103001
 30
0.0
 11
688.1997897036407
 21
-155.73728261030001
 31
0.0
  0
LINE
  5
231
  8
Éíû@É³
 62
     0
 10
664.27513288579985
 20
-115.2997826102999
 30
0.0
 11
664.27513288579985
 21
-131.81262579245899
 31
0.0
  0
ARC
  5
232
  8
Éíû@É³
 62
     0
 10
664.27513288579985
 20
-155.73728261030001
 30
0.0
 40
25.174656817840951
 50
332.62377205417931
 51
346.3118860270896
  0
ARC
  5
233
  8
Éíû@É³
 62
     0
 10
664.27513288579985
 20
-155.73728261030001
 30
0.0
 40
25.174656817840951
 50
103.6881139729102
 51
117.3762279458206
  0
SOLID
  5
234
  8
Éíû@É³
 62
     0
 10
687.74191075296039
 20
-161.57536016115711
 30
0.0
 11
689.72765909111286
 21
-161.81369508835849
 31
0.0
 12
689.44978970364082
 22
-155.73728261030001
 32
0.0
 13
689.44978970364082
 23
-155.73728261030001
 33
0.0
  0
SOLID
  5
235
  8
Éíû@É³
 62
     0
 10
658.19872040774135
 20
-130.28475640498689
 30
0.0
 11
658.43705533494256
 21
-132.2705047431395
 31
0.0
 12
664.27513288579985
 22
-130.56262579245899
 32
0.0
 13
664.27513288579985
 23
-130.56262579245899
 33
0.0
  0
TEXT
  8
Éíû@É³
  40
5.99722
  5
27E
  62
0
  72
0
  71
0
 10
672.942
 20
-151.970
 30
0.000000
  1
90üï
  0
POINT
  5
237
  8
Defpoints
 62
     0
 10
664.27513288579985
 20
-155.73728261030001
 30
0.0
  0
POINT
  5
238
  8
Defpoints
 62
     0
 10
749.77513288579985
 20
-155.73728261030001
 30
0.0
  0
POINT
  5
239
  8
Defpoints
 62
     0
 10
664.27513288579985
 20
-115.2372826102999
 30
0.0
  0
POINT
  5
23A
  8
Defpoints
 62
     0
 10
676.86246129472033
 20
-133.93539027449461
 30
0.0
  0
ENDBLK
  5
23C
  8
0
  0
BLOCK
  8
0
  2
*U24
 70
     1
 10
0.0
 20
0.0
 30
0.0
  3
*U24
  1

  0
TEXT
  5
23E
  8
┌▓È_1
  6
CONTINUOUS
 10
871.05974626720001
 20
-354.97487898075792
 30
0.0
 40
7.1966662884000003
  1
ò\û╩ÅêùØüFâåâjâNâìâüâbâLÄdÅÒé░
  0
ENDBLK
  5
240
  8
0
  0
BLOCK
  8
0
  2
*U25
 70
     1
 10
0.0
 20
0.0
 30
0.0
  3
*U25
  1

  0
TEXT
  5
242
  8
┌▓È_1
  6
CONTINUOUS
 10
885.50085371679995
 20
-404.3221473140274
 30
0.0
 40
8.6359998702999992
  1
èöÄ«ë´Äð
  0
ENDBLK
  5
244
  8
0
  0
BLOCK
  8
0
  2
*U26
 70
     1
 10
0.0
 20
0.0
 30
0.0
  3
*U26
  1

  0
TEXT
  5
246
  8
┌▓È_1
  6
CONTINUOUS
 10
1000.8407451746
 20
-381.05911585173612
 30
0.0
 40
4.6749999999999989
  1
òiû╝
  0
ENDBLK
  5
248
  8
0
  0
BLOCK
  8
0
  2
*U27
 70
     1
 10
0.0
 20
0.0
 30
0.0
  3
*U27
  1

  0
TEXT
  5
24A
  8
┌▓È_1
  6
CONTINUOUS
 10
1000.8407451746
 20
-398.01165392280211
 30
0.0
 40
4.6749999999999989
  1
É}öÈ
  0
ENDBLK
  5
24C
  8
0
  0
BLOCK
  8
0
  2
*U28
 70
     1
 10
0.0
 20
0.0
 30
0.0
  3
*U28
  1

  0
TEXT
  5
24E
  8
┌▓È_1
  6
CONTINUOUS
 62
     5
 10
879.4302411910578
 20
-372.403334401
 30
0.0
 40
4.6749999999999989
  1
H16.4
  0
ENDBLK
  5
250
  8
0
  0
BLOCK
  8
0
  2
*U29
 70
     1
 10
0.0
 20
0.0
 30
0.0
  3
*U29
  1

  0
TEXT
  5
252
  8
┌▓È_1
  6
CONTINUOUS
 62
     5
 10
916.25949246009338
 20
-372.68810597460413
 30
0.0
 40
4.6749999999999989
  1
ôS
  0
ENDBLK
  5
254
  8
0
  0
BLOCK
  8
0
  2
*U30
 70
     1
 10
0.0
 20
0.0
 30
0.0
  3
*U30
  1

  0
TEXT
  5
256
  8
┌▓È_1
  6
CONTINUOUS
 62
     5
 10
945.06767773928118
 20
-372.403334401
 30
0.0
 40
4.6749999999999989
  1
4.5t
  0
ENDBLK
  5
258
  8
0
  0
BLOCK
  8
0
  2
*U31
 70
     1
 10
0.0
 20
0.0
 30
0.0
  3
*U31
  1

  0
TEXT
  5
25A
  8
┌▓È_1
  6
CONTINUOUS
 62
     5
 10
944.85409905907818
 20
-389.403334401
 30
0.0
 40
4.6749999999999989
  1
1üF2
  0
ENDBLK
  5
25C
  8
0
  0
BLOCK
  8
0
  2
*U32
 70
     1
 10
0.0
 20
0.0
 30
0.0
  3
*U32
  1

  0
TEXT
  5
25E
  8
┌▓È_1
  6
CONTINUOUS
 10
903.99051788969984
 20
-364.06945115226898
 30
0.0
 40
4.6749999999999989
  1
ü@ìÌ ü@Ä┐
  0
ENDBLK
  5
260
  8
0
  0
BLOCK
  8
0
  2
*U33
 70
     1
 10
0.0
 20
0.0
 30
0.0
  3
*U33
  1

  0
TEXT
  5
262
  8
┌▓È_1
  6
CONTINUOUS
 10
935.99051788969984
 20
-364.16437501013701
 30
0.0
 40
4.6749999999999989
  1
ü@ö┬ ü@î·
  0
ENDBLK
  5
264
  8
0
  0
BLOCK
  8
0
  2
*U34
 70
     1
 10
0.0
 20
0.0
 30
0.0
  3
*U34
  1

  0
TEXT
  5
266
  8
┌▓È_1
  6
CONTINUOUS
 10
935.99051788969984
 20
-381.14064404567011
 30
0.0
 40
4.6749999999999989
  1
ü@Ä┌ ü@ôx
  0
ENDBLK
  5
268
  8
0
  0
BLOCK
  8
0
  2
*U35
 70
     1
 10
0.0
 20
0.0
 30
0.0
  3
*U35
  1

  0
TEXT
  5
26A
  8
┌▓È_1
  6
CONTINUOUS
 10
967.99051788969996
 20
-364.16437501013701
 30
0.0
 40
4.6749999999999989
  1
ü@îƒ ü@ê¾
  0
ENDBLK
  5
26C
  8
0
  0
BLOCK
  8
0
  2
*U36
 70
     1
 10
0.0
 20
0.0
 30
0.0
  3
*U36
  1

  0
TEXT
  5
26E
  8
┌▓È_1
  6
CONTINUOUS
 10
871.05974626720001
 20
-381.16437501013712
 30
0.0
 40
4.6749999999999989
  1
 É¦îvü@ü@öÆÉ{ëÛ
  0
ENDBLK
  5
270
  8
0
  0
BLOCK
  8
0
  2
*U37
 70
     1
 10
0.0
 20
0.0
 30
0.0
  3
*U37
  1

  0
TEXT
  5
272
  8
┌▓È_1
  6
CONTINUOUS
 10
871.05974626720001
 20
-389.68810597460413
 30
0.0
 40
4.6749999999999989
  1
 É╗É}ü@ü@ è¦û{
  0
ENDBLK
  5
274
  8
0
  0
BLOCK
  8
0
  2
*U38
 70
     1
 10
0.0
 20
0.0
 30
0.0
  3
*U38
  1

  0
TEXT
  5
276
  8
┌▓È_1
  6
CONTINUOUS
 10
871.99051788969984
 20
-363.99825825886802
 30
0.0
 40
4.6749999999999989
  1
ü@ô· ü@òt
  0
ENDBLK
  5
278
  8
0
  0
BLOCK
  8
0
  2
*U39
 70
     1
 10
0.0
 20
0.0
 30
0.0
  3
*U39
  1

  0
TEXT
  5
27A
  8
┌▓È_1
  6
CONTINUOUS
 10
1000.8407451746
 20
-364.01165392280211
 30
0.0
 40
4.6749999999999989
  1
î^öÈ
  0
ENDBLK
  5
27C
  8
0
  0
ENDSEC
  0
SECTION
  2
ENTITIES
  0
CIRCLE
  5
2F
  8
┌▓È_1
 62
     5
 10
681.77513288579985
 20
-271.6907101063
 30
0.0
 40
2.5
  0
LINE
  5
30
  8
┌▓È_1
  6
BORDER
 62
     3
 10
674.77513288579985
 20
-271.6907101063
 30
0.0
 11
688.77513288579996
 21
-271.6907101063
 31
0.0
  0
LINE
  5
31
  8
┌▓È_1
 62
     5
 10
749.77513288579985
 20
-263.6907101063
 30
0.0
 11
659.77513288579996
 21
-263.6907101063
 31
0.0
  0
LINE
  5
32
  8
┌▓È_1
  6
BORDER
 62
     3
 10
734.77513288579996
 20
-271.6907101063
 30
0.0
 11
748.77513288579985
 21
-271.6907101063
 31
0.0
  0
LINE
  5
33
  8
┌▓È_1
 62
     5
 10
659.77513288579996
 20
-279.6907101063
 30
0.0
 11
749.77513288579985
 21
-279.6907101063
 31
0.0
  0
LINE
  5
34
  8
┌▓È_1
 62
     5
 10
749.77513288579985
 20
-279.6907101063
 30
0.0
 11
749.77513288579985
 21
-263.6907101063
 31
0.0
  0
DIMENSION
  5
43
  8
Éíû@É³
  2
*D19
 10
1032.6058166384259
 20
-151.18568349731461
 30
0.0
 11
1010.0609699807
 21
-148.21759812709999
 31
0.0
 70
   133
  1
<>
 13
988.28063989479995
 23
-213.54386658690001
 33
0.0
 14
1031.8413000666001
 24
-213.54386658690001
 34
0.0
 15
1010.0609699807
 25
-235.32419667280001
 35
0.0
1001
ACAD
1000
DSTYLE
1002
{
1070
   271
1070
     0
1002
}
  0
INSERT
  5
44
  8
0
  6
CONTINUOUS
  2
*U20
 10
0.0
 20
0.0
 30
0.0
  0
LINE
  5
45
  8
┌▓È_1
 10
984.11082212190001
 20
-262.36140598269998
 30
0.0
 11
1038.7205565692
 21
-262.36140598269998
 31
0.0
  0
DIMENSION
  5
55
  8
Éíû@É³
  2
*D1
 10
823.09398965659989
 20
-138.23728261030001
 30
0.0
 11
823.09398965659989
 21
-149.23728261030001
 31
0.0
 70
   128
  1
<>
 13
844.0939896566
 23
-138.23728261030001
 33
0.0
 14
843.0939896566
 24
-160.23728261030001
 34
0.0
 50
90.0
  0
DIMENSION
  5
64
  8
Éíû@É³
  2
*D2
 10
823.09398965659989
 20
-123.2372826103
 30
0.0
 11
823.09398965659989
 21
-130.73728261030001
 31
0.0
 70
   128
  1
<>
 13
844.0939896566
 23
-123.2372826103
 33
0.0
 14
844.0939896566
 24
-138.23728261030001
 34
0.0
 50
90.0
  0
DIMENSION
  5
73
  8
Éíû@É³
  2
*D3
 10
823.09398965659989
 20
-115.2372826103
 30
0.0
 11
823.09398965659989
 21
-119.2372826103
 31
0.0
 70
   128
  1
<>
 13
843.0939896566
 23
-115.2372826103
 33
0.0
 14
844.0939896566
 24
-123.2372826103
 34
0.0
 50
90.0
  0
DIMENSION
  5
83
  8
Éíû@É³
  2
*D4
 10
859.0939896566
 20
-80.359489824600004
 30
0.0
 11
851.0939896566
 21
-80.359489824600004
 31
0.0
 70
   128
  1
<>
 13
859.0939896566
 23
-115.2372826103
 33
0.0
 14
843.0939896566
 24
-115.2372826103
 34
0.0
  0
DIMENSION
  5
92
  8
Éíû@É³
  2
*D5
 10
859.0939896566
 20
-95.237282610300014
 30
0.0
 11
869.54903190779999
 21
-95.237282610300014
 31
0.0
 70
   128
  1
<>
 13
859.0939896566
 23
-115.2372826103
 33
0.0
 14
851.0939896566
 24
-116.2372826103
 34
0.0
  0
DIMENSION
  5
A1
  8
Éíû@É³
  2
*D6
 10
851.0939896566
 20
-95.237282610300014
 30
0.0
 11
833.10267774110002
 21
-95.237282610300014
 31
0.0
 70
   128
  1
<>
 13
851.0939896566
 23
-116.2372826103
 33
0.0
 14
843.0939896566
 24
-115.2372826103
 34
0.0
  0
DIMENSION
  5
B0
  8
Éíû@É³
  2
*D7
 10
639.77513288579985
 20
-263.6907101063
 30
0.0
 11
639.77513288579985
 21
-271.6907101063
 31
0.0
 70
   128
  1
<>
 13
659.77513288579996
 23
-263.6907101063
 33
0.0
 14
659.77513288579996
 24
-279.6907101063
 34
0.0
 50
90.0
  0
DIMENSION
  5
BF
  8
Éíû@É³
  2
*D8
 10
664.27513288579996
 20
-95.237282610300014
 30
0.0
 11
673.72000124420003
 21
-95.237282610300014
 31
0.0
 70
   128
  1
<>t
 13
664.27513288579996
 23
-115.2372826103
 33
0.0
 14
659.77513288579996
 24
-115.2372826103
 34
0.0
  0
DIMENSION
  5
CE
  8
Éíû@É³
  2
*D9
 10
769.77513288579985
 20
-271.6907101063
 30
0.0
 11
769.77513288579985
 21
-254.73573677269999
 31
0.0
 70
   128
  1
<>
 13
748.77513288579985
 23
-271.6907101063
 33
0.0
 14
749.77513288579985
 24
-263.6907101063
 34
0.0
 50
90.0
  0
DIMENSION
  5
DD
  8
Éíû@É³
  2
*D10
 10
769.77513288579985
 20
-279.6907101063
 30
0.0
 11
769.77513288579985
 21
-286.91500436310002
 31
0.0
 70
   128
  1
<>
 13
749.77513288579985
 23
-279.6907101063
 33
0.0
 14
748.77513288579985
 24
-271.6907101063
 34
0.0
 50
90.0
  0
LINE
  5
DE
  8
┌▓È_1
 62
     5
 10
561.05974626720001
 20
-408.81726758629992
 30
0.0
 11
1111.0597462671999
 21
-408.81726758629992
 31
0.0
  0
LINE
  5
DF
  8
┌▓È_1
 62
     5
 10
1111.0597462671999
 20
-408.81726758629992
 30
0.0
 11
1111.0597462671999
 21
-28.817267586300002
 31
0.0
  0
INSERT
  5
E0
  8
0
  6
CONTINUOUS
  2
*U21
 10
0.0
 20
0.0
 30
0.0
  0
LINE
  5
E1
  8
┌▓È_1
 10
871.05974626720001
 20
-357.81726758629998
 30
0.0
 11
1111.0597462671999
 21
-357.81726758629998
 31
0.0
  0
LINE
  5
E2
  8
┌▓È_1
 10
871.05974626720001
 20
-391.81726758629998
 30
0.0
 11
1111.0597462671999
 21
-391.81726758629998
 31
0.0
  0
LINE
  5
E3
  8
┌▓È_1
 62
     5
 10
950.65414899919995
 20
-396.9609908393
 30
0.0
 11
953.05414899920004
 21
-394.56099083930002
 31
0.0
  0
LINE
  5
E4
  8
┌▓È_1
 62
     5
 10
939.45414899920013
 20
-402.56099083930002
 30
0.0
 11
943.45414899920002
 21
-402.56099083930002
 31
0.0
  0
LINE
  5
E5
  8
┌▓È_1
 62
     5
 10
971.71111869610002
 20
-394.56099083930002
 30
0.0
 11
957.31111869610004
 21
-394.56099083930002
 31
0.0
  0
LINE
  5
E6
  8
┌▓È_1
 62
     5
 10
983.78863390309994
 20
-397.28099083929999
 30
0.0
 11
983.55440310270001
 21
-396.46702461450002
 31
0.0
  0
INSERT
  5
E7
  8
0
  6
CONTINUOUS
  2
*U22
 10
0.0
 20
0.0
 30
0.0
  0
DIMENSION
  5
F5
  8
Éíû@É³
  2
*D23
 10
676.86246129472033
 20
-133.93539027449461
 30
0.0
 11
684.9368050231999
 21
-141.35470111799989
 31
0.0
 70
   133
  1
<>
 13
664.27513288579996
 23
-115.2372826103
 33
0.0
 14
749.77513288579985
 24
-155.73728261030001
 34
0.0
 15
664.27513288579996
 25
-155.73728261030001
 35
0.0
1001
ACAD
1000
DSTYLE
1002
{
1070
   271
1070
     0
1002
}
  0
DIMENSION
  5
104
  8
Éíû@É³
  2
*D12
 10
659.77513288579996
 20
-180.23728261030001
 30
0.0
 11
704.77513288579985
 21
-180.23728261030001
 31
0.0
 70
   128
  1
<>
 13
659.77513288579996
 23
-155.23728261030001
 33
0.0
 14
749.77513288579985
 24
-160.23728261030001
 34
0.0
 50
180.0
  0
DIMENSION
  5
113
  8
Éíû@É³
  2
*D13
 10
639.77513288579985
 20
-115.2372826103
 30
0.0
 11
639.77513288579985
 21
-137.73728261030001
 31
0.0
 70
   128
  1
<>
 13
659.77513288579996
 23
-115.2372826103
 33
0.0
 14
664.77513288579985
 24
-160.23728261030001
 34
0.0
 50
90.0
  0
DIMENSION
  5
122
  8
Éíû@É³
  2
*D14
 10
1022.5609699807
 20
-191.63234511030001
 30
0.0
 11
1010.0609699807
 21
-191.63234511030001
 31
0.0
 70
   128
  1
%%c5
 13
1022.5609699807
 23
-222.82419667280001
 33
0.0
 14
997.56096998069995
 24
-222.82419667280001
 34
0.0
  0
DIMENSION
  5
131
  8
Éíû@É³
  2
*D15
 10
1031.3109699807001
 20
-171.2511602145
 30
0.0
 11
1010.0609699807
 21
-171.2511602145
 31
0.0
 70
   128
  1
%%c8.5
 13
1031.3109699807001
 23
-214.07419667280001
 33
0.0
 14
988.81096998070007
 24
-214.07419667280001
 34
0.0
  0
DIMENSION
  5
140
  8
Éíû@É³
  2
*D16
 10
749.77513288579985
 20
-243.6907101063
 30
0.0
 11
745.77513288579985
 21
-243.6907101063
 31
0.0
 70
   128
  1
<>
 13
749.77513288579985
 23
-263.6907101063
 33
0.0
 14
741.77513288579985
 24
-264.6907101063
 34
0.0
  0
DIMENSION
  5
14F
  8
Éíû@É³
  2
*D17
 10
741.77513288579985
 20
-243.6907101063
 30
0.0
 11
711.77513288579985
 21
-243.6907101063
 31
0.0
 70
   128
  1
<>
 13
741.77513288579985
 23
-264.6907101063
 33
0.0
 14
681.77513288579985
 24
-264.6907101063
 34
0.0
  0
DIMENSION
  5
15E
  8
Éíû@É³
  2
*D18
 10
681.77513288579985
 20
-243.6907101063
 30
0.0
 11
670.77513288579985
 21
-243.6907101063
 31
0.0
 70
   128
  1
<>
 13
681.77513288579985
 23
-264.6907101063
 33
0.0
 14
659.77513288579996
 24
-263.6907101063
 34
0.0
  0
LINE
  5
15F
  8
┌▓È_1
  6
BORDER
 62
     3
 10
741.77513288579985
 20
-264.6907101063
 30
0.0
 11
741.77513288579985
 21
-278.6907101063
 31
0.0
  0
CIRCLE
  5
160
  8
┌▓È_1
 62
     5
 10
741.77513288579985
 20
-271.6907101063
 30
0.0
 40
2.5
  0
LINE
  5
161
  8
┌▓È_1
 62
     5
 10
659.77513288579996
 20
-263.6907101063
 30
0.0
 11
659.77513288579996
 21
-279.6907101063
 31
0.0
  0
LINE
  5
162
  8
┌▓È_1
  6
STITCH
 10
664.77513288579985
 20
-263.6907101063
 30
0.0
 11
664.77513288579985
 21
-279.6907101063
 31
0.0
  0
CIRCLE
  5
163
  8
┌▓È_1
  6
STITCH
 10
741.77513288579985
 20
-271.6907101063
 30
0.0
 40
5.0
  0
CIRCLE
  5
164
  8
┌▓È_1
  6
STITCH
 10
681.77513288579985
 20
-271.6907101063
 30
0.0
 40
5.0
  0
LINE
  5
165
  8
┌▓È_1
  6
BORDER
 62
     3
 10
681.77513288579985
 20
-264.6907101063
 30
0.0
 11
681.77513288579985
 21
-278.6907101063
 31
0.0
  0
LINE
  5
166
  8
┌▓È_1
 62
     5
 10
939.45414899920013
 20
-405.76099083930001
 30
0.0
 11
945.85414899919988
 21
-405.76099083930001
 31
0.0
  0
LINE
  5
167
  8
┌▓È_1
 62
     5
 10
970.11111869609999
 20
-396.9609908393
 30
0.0
 11
971.71111869610002
 21
-394.56099083930002
 31
0.0
  0
LINE
  5
168
  8
┌▓È_1
 62
     5
 10
978.45909093339992
 20
-394.56099083930002
 30
0.0
 11
984.8590909333999
 21
-394.56099083930002
 31
0.0
  0
LINE
  5
169
  8
┌▓È_1
 62
     5
 10
957.31111869610004
 20
-403.36099083929997
 30
0.0
 11
959.2311186961
 21
-403.36099083929997
 31
0.0
  0
LINE
  5
16A
  8
┌▓È_1
 62
     5
 10
957.31111869610004
 20
-403.36099083929997
 30
0.0
 11
957.31111869610004
 21
-405.76099083930001
 31
0.0
  0
INSERT
  5
16B
  8
0
  6
CONTINUOUS
  2
*U24
 10
0.0
 20
0.0
 30
0.0
  0
LINE
  5
16C
  8
┌▓È_1
 62
     5
 10
968.29146965949997
 20
-402.31960077359997
 30
0.0
 11
968.00650636379999
 21
-402.59860580430001
 31
0.0
  0
LINE
  5
16D
  8
┌▓È_1
 62
     5
 10
939.45414899920013
 20
-400.16099083929998
 30
0.0
 11
939.45414899920013
 21
-402.56099083930002
 31
0.0
  0
INSERT
  5
16E
  8
0
  6
CONTINUOUS
  2
*U25
 10
0.0
 20
0.0
 30
0.0
  0
LINE
  5
16F
  8
┌▓È_1
 62
     5
 10
983.78863390309994
 20
-397.28099083929999
 30
0.0
 11
989.65909093339985
 21
-397.28099083929999
 31
0.0
  0
LINE
  5
170
  8
┌▓È_1
 10
871.05974626720001
 20
-357.81726758629998
 30
0.0
 11
871.05974626720001
 21
-408.81726758629992
 31
0.0
  0
LINE
  5
171
  8
┌▓È_1
 10
999.0597462671999
 20
-357.81726758629998
 30
0.0
 11
999.0597462671999
 21
-408.81726758629992
 31
0.0
  0
LINE
  5
172
  8
┌▓È_1
 10
903.05974626720001
 20
-357.81726758629998
 30
0.0
 11
903.05974626720001
 21
-374.81726758629998
 31
0.0
  0
LINE
  5
173
  8
┌▓È_1
 10
967.05974626720013
 20
-357.81726758629998
 30
0.0
 11
967.05974626720013
 21
-391.81726758629998
 31
0.0
  0
LINE
  5
174
  8
┌▓È_1
 62
     5
 10
975.25909093339988
 20
-397.28099083929999
 30
0.0
 11
975.25909093339988
 21
-400.16099083929998
 31
0.0
  0
LINE
  5
175
  8
┌▓È_1
 62
     5
 10
950.65414899919995
 20
-400.9609908393
 30
0.0
 11
950.65414899919995
 21
-400.16099083929998
 31
0.0
  0
LINE
  5
176
  8
┌▓È_1
 62
     5
 10
957.31111869610004
 20
-398.27636726719999
 30
0.0
 11
963.71111869610002
 21
-398.27636726719999
 31
0.0
  0
LINE
  5
177
  8
┌▓È_1
 62
     5
 10
964.56921868279983
 20
-400.19150428739988
 30
0.0
 11
964.18426539270001
 21
-400.61668566430001
 31
0.0
  0
ARC
  5
178
  8
┌▓È_1
 62
     5
 10
944.25414899919986
 20
-400.9609908393
 30
0.0
 40
2.399999999999999
 50
270.0
 51
0.0
  0
LINE
  5
179
  8
┌▓È_1
 62
     5
 10
946.65414899919995
 20
-394.56099083930002
 30
0.0
 11
946.65414899919995
 21
-397.76099083930001
 31
0.0
  0
LINE
  5
17A
  8
┌▓È_1
 62
     5
 10
984.61739642969985
 20
-400.16099083929998
 30
0.0
 11
989.65909093339985
 21
-400.16099083929998
 31
0.0
  0
LINE
  5
17B
  8
┌▓È_1
 62
     5
 10
970.11111869609999
 20
-396.9609908393
 30
0.0
 11
971.71111869610002
 21
-394.56099083930002
 31
0.0
  0
LINE
  5
17C
  8
┌▓È_1
 62
     5
 10
561.05974626720001
 20
-408.81726758629992
 30
0.0
 11
561.05974626720001
 21
-28.817267586300002
 31
0.0
  0
LINE
  5
17D
  8
┌▓È_1
 10
999.0597462671999
 20
-374.81726758629998
 30
0.0
 11
1111.0597462671999
 21
-374.81726758629998
 31
0.0
  0
LINE
  5
17E
  8
┌▓È_1
 62
     5
 10
561.05974626720001
 20
-28.817267586300002
 30
0.0
 11
1111.0597462671999
 21
-28.817267586300002
 31
0.0
  0
LINE
  5
17F
  8
┌▓È_1
 62
     5
 10
944.25414899919986
 20
-403.36099083929997
 30
0.0
 11
939.45414899920013
 21
-403.36099083929997
 31
0.0
  0
LINE
  5
180
  8
┌▓È_1
 62
     5
 10
981.97909093340013
 20
-406.56099083930002
 30
0.0
 11
981.32202426669983
 21
-404.3209908392999
 31
0.0
  0
LINE
  5
181
  8
┌▓È_1
 62
     5
 10
984.98573533049989
 20
-401.44099083930001
 30
0.0
 11
984.61739642969985
 21
-400.16099083929998
 31
0.0
  0
LINE
  5
182
  8
┌▓È_1
 62
     5
 10
939.45414899920013
 20
-403.36099083929997
 30
0.0
 11
939.45414899920013
 21
-405.76099083930001
 31
0.0
  0
LINE
  5
183
  8
┌▓È_1
 62
     5
 10
939.45414899920013
 20
-400.16099083929998
 30
0.0
 11
939.21238290070005
 21
-400.16099083929998
 31
0.0
  0
LINE
  5
184
  8
┌▓È_1
 62
     5
 10
980.47722426669986
 20
-401.44099083930001
 30
0.0
 11
980.10175760009986
 21
-400.16099083929998
 31
0.0
  0
LINE
  5
185
  8
┌▓È_1
 62
     5
 10
989.65909093339985
 20
-401.44099083930001
 30
0.0
 11
989.65909093339985
 21
-404.3209908392999
 31
0.0
  0
LINE
  5
186
  8
┌▓È_1
 62
     5
 10
939.45414899920013
 20
-397.76099083930001
 30
0.0
 11
937.61238290069991
 21
-397.76099083930001
 31
0.0
  0
LINE
  5
187
  8
┌▓È_1
 62
     5
 10
957.31111869610004
 20
-405.76099083930001
 30
0.0
 11
957.31111869610004
 21
-403.36099083929997
 31
0.0
  0
LINE
  5
188
  8
┌▓È_1
 62
     5
 10
943.45414899920002
 20
-397.76099083930001
 30
0.0
 11
943.45414899920002
 21
-396.9609908393
 31
0.0
  0
LINE
  5
189
  8
┌▓È_1
 62
     5
 10
975.25909093339988
 20
-404.3209908392999
 30
0.0
 11
981.32202426669983
 21
-404.3209908392999
 31
0.0
  0
ARC
  5
18A
  8
┌▓È_1
 62
     5
 10
961.31111869610015
 20
-396.9609908393
 30
0.0
 40
8.8000000000000007
 50
322.48761197969998
 51
0.0
  0
LINE
  5
18B
  8
┌▓È_1
 62
     5
 10
984.98573533049989
 20
-401.44099083930001
 30
0.0
 11
989.65909093339985
 21
-401.44099083930001
 31
0.0
  0
LINE
  5
18C
  8
┌▓È_1
 62
     5
 10
986.45909093339992
 20
-406.56099083930002
 30
0.0
 11
985.81449785710015
 21
-404.3209908392999
 31
0.0
  0
LINE
  5
18D
  8
┌▓È_1
 62
     5
 10
943.45414899920002
 20
-400.16099083929998
 30
0.0
 11
946.65414899919995
 21
-400.16099083929998
 31
0.0
  0
LINE
  5
18E
  8
┌▓È_1
 62
     5
 10
946.65414899919995
 20
-400.16099083929998
 30
0.0
 11
946.65414899919995
 21
-400.9609908393
 31
0.0
  0
LINE
  5
18F
  8
┌▓È_1
 62
     5
 10
975.25909093339988
 20
-397.28099083929999
 30
0.0
 11
979.25695760009978
 21
-397.28099083929999
 31
0.0
  0
LINE
  5
190
  8
┌▓È_1
 62
     5
 10
950.65414899919995
 20
-397.76099083930001
 30
0.0
 11
950.65414899919995
 21
-396.9609908393
 31
0.0
  0
LINE
  5
191
  8
┌▓È_1
 62
     5
 10
953.05414899920004
 20
-397.76099083930001
 30
0.0
 11
950.65414899919995
 21
-397.76099083930001
 31
0.0
  0
LINE
  5
192
  8
┌▓È_1
 62
     5
 10
975.25909093339988
 20
-401.44099083930001
 30
0.0
 11
980.47722426669986
 21
-401.44099083930001
 31
0.0
  0
LINE
  5
193
  8
┌▓È_1
 62
     5
 10
937.61238290069991
 20
-400.16099083929998
 30
0.0
 11
939.21238290070005
 21
-400.16099083929998
 31
0.0
  0
ARC
  5
194
  8
┌▓È_1
 62
     5
 10
961.31111869610015
 20
-396.9609908393
 30
0.0
 40
8.8000000000000007
 50
270.0
 51
302.54495885400001
  0
LINE
  5
195
  8
┌▓È_1
 62
     5
 10
950.65414899919995
 20
-400.16099083929998
 30
0.0
 11
953.05414899920004
 21
-400.16099083929998
 31
0.0
  0
ARC
  5
196
  8
┌▓È_1
 62
     5
 10
959.2311186961
 20
-397.28099083929999
 30
0.0
 40
6.0800000000000001
 50
331.39928138329998
 51
358.49204224580001
  0
LINE
  5
197
  8
┌▓È_1
 62
     5
 10
957.31111869610004
 20
-405.76099083930001
 30
0.0
 11
961.31111869610015
 21
-405.76099083930001
 31
0.0
  0
INSERT
  5
198
  8
0
  6
CONTINUOUS
  2
*U26
 10
0.0
 20
0.0
 30
0.0
  0
INSERT
  5
199
  8
0
  6
CONTINUOUS
  2
*U27
 10
0.0
 20
0.0
 30
0.0
  0
INSERT
  5
19A
  8
0
  6
CONTINUOUS
  2
*U28
 10
0.0
 20
0.0
 30
0.0
  0
INSERT
  5
19B
  8
0
  6
CONTINUOUS
  2
*U29
 10
0.0
 20
0.0
 30
0.0
  0
INSERT
  5
19C
  8
0
  6
CONTINUOUS
  2
*U30
 10
0.0
 20
0.0
 30
0.0
  0
ARC
  5
19D
  8
┌▓È_1
 62
     5
 10
959.2311186961
 20
-397.28099083929999
 30
0.0
 40
6.0800000000000001
 50
270.0
 51
298.08590481520002
  0
INSERT
  5
19E
  8
0
  6
CONTINUOUS
  2
*U31
 10
0.0
 20
0.0
 30
0.0
  0
INSERT
  5
19F
  8
0
  6
CONTINUOUS
  2
*U32
 10
0.0
 20
0.0
 30
0.0
  0
INSERT
  5
1A0
  8
0
  6
CONTINUOUS
  2
*U33
 10
0.0
 20
0.0
 30
0.0
  0
INSERT
  5
1A1
  8
0
  6
CONTINUOUS
  2
*U34
 10
0.0
 20
0.0
 30
0.0
  0
LINE
  5
1A2
  8
┌▓È_1
 62
     5
 10
979.25695760009978
 20
-397.28099083929999
 30
0.0
 11
978.45909093339992
 21
-394.56099083930002
 31
0.0
  0
LINE
  5
1A3
  8
┌▓È_1
 62
     5
 10
939.45414899920013
 20
-394.56099083930002
 30
0.0
 11
939.45414899920013
 21
-397.76099083930001
 31
0.0
  0
LINE
  5
1A4
  8
┌▓È_1
 62
     5
 10
943.45414899920002
 20
-396.9609908393
 30
0.0
 11
945.85414899919988
 21
-394.56099083930002
 31
0.0
  0
LINE
  5
1A5
  8
┌▓È_1
 62
     5
 10
945.85414899919988
 20
-394.56099083930002
 30
0.0
 11
939.45414899920013
 21
-394.56099083930002
 31
0.0
  0
LINE
  5
1A6
  8
┌▓È_1
 62
     5
 10
946.65414899919995
 20
-397.76099083930001
 30
0.0
 11
943.45414899920002
 21
-397.76099083930001
 31
0.0
  0
LINE
  5
1A7
  8
┌▓È_1
 62
     5
 10
983.55440310270001
 20
-396.46702461450002
 30
0.0
 11
984.8590909333999
 21
-394.56099083930002
 31
0.0
  0
ARC
  5
1A8
  8
┌▓È_1
 62
     5
 10
945.85414899919988
 20
-400.9609908393
 30
0.0
 40
4.7999999999999989
 50
270.0
 51
0.0
  0
LINE
  5
1A9
  8
┌▓È_1
 62
     5
 10
957.31111869610004
 20
-394.56099083930002
 30
0.0
 11
957.31111869610004
 21
-397.44099083930001
 31
0.0
  0
LINE
  5
1AA
  8
┌▓È_1
 62
     5
 10
953.05414899920004
 20
-394.56099083930002
 30
0.0
 11
946.65414899919995
 21
-394.56099083930002
 31
0.0
  0
LINE
  5
1AB
  8
┌▓È_1
 62
     5
 10
985.81449785710015
 20
-404.3209908392999
 30
0.0
 11
989.65909093339985
 21
-404.3209908392999
 31
0.0
  0
LINE
  5
1AC
  8
┌▓È_1
 62
     5
 10
943.45414899920002
 20
-402.56099083930002
 30
0.0
 11
943.45414899920002
 21
-400.16099083929998
 31
0.0
  0
LINE
  5
1AD
  8
┌▓È_1
 62
     5
 10
975.25909093339988
 20
-401.44099083930001
 30
0.0
 11
975.25909093339988
 21
-404.3209908392999
 31
0.0
  0
LINE
  5
1AE
  8
┌▓È_1
 62
     5
 10
975.25909093339988
 20
-400.16099083929998
 30
0.0
 11
980.10175760009986
 21
-400.16099083929998
 31
0.0
  0
LINE
  5
1AF
  8
┌▓È_1
 62
     5
 10
989.65909093339985
 20
-397.28099083929999
 30
0.0
 11
989.65909093339985
 21
-400.16099083929998
 31
0.0
  0
LINE
  5
1B0
  8
┌▓È_1
 62
     5
 10
957.31111869610004
 20
-397.44099083930001
 30
0.0
 11
965.31111869610004
 21
-397.44099083930001
 31
0.0
  0
LINE
  5
1B1
  8
┌▓È_1
  6
STITCH
 10
744.27513288579985
 20
-158.23728261030001
 30
0.0
 11
744.27513288579985
 21
-160.73728261030001
 31
0.0
  0
LINE
  5
1B2
  8
┌▓È_1
  6
BORDER
 62
     3
 10
1010.0609699807
 20
-207.5574753187
 30
0.0
 11
1010.0609699807
 21
-241.0574753187
 31
0.0
  0
POLYLINE
  8
┌▓È_1
  5
27F
  62
5
  66
     1
 10
0.000000
 20
0.000000
 30
0.000000
  70
     8
  0
VERTEX
  8
┌▓È_1
  5
280
 10
962.806
 20
-399.181
 30
0.000000
  70
    32
  0
VERTEX
  8
┌▓È_1
  5
281
 10
962.817
 20
-399.193
 30
0.000000
  70
    32
  0
VERTEX
  8
┌▓È_1
  5
282
 10
962.827
 20
-399.205
 30
0.000000
  70
    32
  0
VERTEX
  8
┌▓È_1
  5
283
 10
962.838
 20
-399.217
 30
0.000000
  70
    32
  0
VERTEX
  8
┌▓È_1
  5
284
 10
962.848
 20
-399.229
 30
0.000000
  70
    32
  0
VERTEX
  8
┌▓È_1
  5
285
 10
962.859
 20
-399.240
 30
0.000000
  70
    32
  0
VERTEX
  8
┌▓È_1
  5
286
 10
962.869
 20
-399.252
 30
0.000000
  70
    32
  0
VERTEX
  8
┌▓È_1
  5
287
 10
962.880
 20
-399.264
 30
0.000000
  70
    32
  0
VERTEX
  8
┌▓È_1
  5
288
 10
962.891
 20
-399.276
 30
0.000000
  70
    32
  0
VERTEX
  8
┌▓È_1
  5
289
 10
962.901
 20
-399.287
 30
0.000000
  70
    32
  0
VERTEX
  8
┌▓È_1
  5
28A
 10
962.912
 20
-399.299
 30
0.000000
  70
    32
  0
VERTEX
  8
┌▓È_1
  5
28B
 10
962.922
 20
-399.311
 30
0.000000
  70
    32
  0
VERTEX
  8
┌▓È_1
  5
28C
 10
962.933
 20
-399.323
 30
0.000000
  70
    32
  0
VERTEX
  8
┌▓È_1
  5
28D
 10
962.943
 20
-399.334
 30
0.000000
  70
    32
  0
VERTEX
  8
┌▓È_1
  5
28E
 10
962.954
 20
-399.346
 30
0.000000
  70
    32
  0
VERTEX
  8
┌▓È_1
  5
28F
 10
962.964
 20
-399.358
 30
0.000000
  70
    32
  0
VERTEX
  8
┌▓È_1
  5
290
 10
962.975
 20
-399.370
 30
0.000000
  70
    32
  0
VERTEX
  8
┌▓È_1
  5
291
 10
962.986
 20
-399.381
 30
0.000000
  70
    32
  0
VERTEX
  8
┌▓È_1
  5
292
 10
962.996
 20
-399.393
 30
0.000000
  70
    32
  0
VERTEX
  8
┌▓È_1
  5
293
 10
963.007
 20
-399.405
 30
0.000000
  70
    32
  0
VERTEX
  8
┌▓È_1
  5
294
 10
963.017
 20
-399.417
 30
0.000000
  70
    32
  0
VERTEX
  8
┌▓È_1
  5
295
 10
963.028
 20
-399.428
 30
0.000000
  70
    32
  0
VERTEX
  8
┌▓È_1
  5
296
 10
963.039
 20
-399.440
 30
0.000000
  70
    32
  0
VERTEX
  8
┌▓È_1
  5
297
 10
963.049
 20
-399.452
 30
0.000000
  70
    32
  0
VERTEX
  8
┌▓È_1
  5
298
 10
963.060
 20
-399.464
 30
0.000000
  70
    32
  0
VERTEX
  8
┌▓È_1
  5
299
 10
963.070
 20
-399.475
 30
0.000000
  70
    32
  0
VERTEX
  8
┌▓È_1
  5
29A
 10
963.081
 20
-399.487
 30
0.000000
  70
    32
  0
VERTEX
  8
┌▓È_1
  5
29B
 10
963.091
 20
-399.499
 30
0.000000
  70
    32
  0
VERTEX
  8
┌▓È_1
  5
29C
 10
963.102
 20
-399.510
 30
0.000000
  70
    32
  0
VERTEX
  8
┌▓È_1
  5
29D
 10
963.113
 20
-399.522
 30
0.000000
  70
    32
  0
VERTEX
  8
┌▓È_1
  5
29E
 10
963.123
 20
-399.534
 30
0.000000
  70
    32
  0
VERTEX
  8
┌▓È_1
  5
29F
 10
963.134
 20
-399.546
 30
0.000000
  70
    32
  0
VERTEX
  8
┌▓È_1
  5
2A0
 10
963.145
 20
-399.557
 30
0.000000
  70
    32
  0
VERTEX
  8
┌▓È_1
  5
2A1
 10
963.155
 20
-399.569
 30
0.000000
  70
    32
  0
VERTEX
  8
┌▓È_1
  5
2A2
 10
963.166
 20
-399.581
 30
0.000000
  70
    32
  0
VERTEX
  8
┌▓È_1
  5
2A3
 10
963.176
 20
-399.592
 30
0.000000
  70
    32
  0
VERTEX
  8
┌▓È_1
  5
2A4
 10
963.187
 20
-399.604
 30
0.000000
  70
    32
  0
VERTEX
  8
┌▓È_1
  5
2A5
 10
963.198
 20
-399.616
 30
0.000000
  70
    32
  0
VERTEX
  8
┌▓È_1
  5
2A6
 10
963.208
 20
-399.627
 30
0.000000
  70
    32
  0
VERTEX
  8
┌▓È_1
  5
2A7
 10
963.219
 20
-399.639
 30
0.000000
  70
    32
  0
VERTEX
  8
┌▓È_1
  5
2A8
 10
963.230
 20
-399.651
 30
0.000000
  70
    32
  0
VERTEX
  8
┌▓È_1
  5
2A9
 10
963.240
 20
-399.662
 30
0.000000
  70
    32
  0
VERTEX
  8
┌▓È_1
  5
2AA
 10
963.251
 20
-399.674
 30
0.000000
  70
    32
  0
VERTEX
  8
┌▓È_1
  5
2AB
 10
963.262
 20
-399.685
 30
0.000000
  70
    32
  0
VERTEX
  8
┌▓È_1
  5
2AC
 10
963.272
 20
-399.697
 30
0.000000
  70
    32
  0
VERTEX
  8
┌▓È_1
  5
2AD
 10
963.283
 20
-399.709
 30
0.000000
  70
    32
  0
VERTEX
  8
┌▓È_1
  5
2AE
 10
963.294
 20
-399.720
 30
0.000000
  70
    32
  0
VERTEX
  8
┌▓È_1
  5
2AF
 10
963.304
 20
-399.732
 30
0.000000
  70
    32
  0
VERTEX
  8
┌▓È_1
  5
2B0
 10
963.315
 20
-399.743
 30
0.000000
  70
    32
  0
VERTEX
  8
┌▓È_1
  5
2B1
 10
963.326
 20
-399.755
 30
0.000000
  70
    32
  0
VERTEX
  8
┌▓È_1
  5
2B2
 10
963.336
 20
-399.766
 30
0.000000
  70
    32
  0
VERTEX
  8
┌▓È_1
  5
2B3
 10
963.347
 20
-399.778
 30
0.000000
  70
    32
  0
VERTEX
  8
┌▓È_1
  5
2B4
 10
963.358
 20
-399.790
 30
0.000000
  70
    32
  0
VERTEX
  8
┌▓È_1
  5
2B5
 10
963.368
 20
-399.801
 30
0.000000
  70
    32
  0
VERTEX
  8
┌▓È_1
  5
2B6
 10
963.379
 20
-399.813
 30
0.000000
  70
    32
  0
VERTEX
  8
┌▓È_1
  5
2B7
 10
963.390
 20
-399.824
 30
0.000000
  70
    32
  0
VERTEX
  8
┌▓È_1
  5
2B8
 10
963.401
 20
-399.836
 30
0.000000
  70
    32
  0
VERTEX
  8
┌▓È_1
  5
2B9
 10
963.411
 20
-399.847
 30
0.000000
  70
    32
  0
VERTEX
  8
┌▓È_1
  5
2BA
 10
963.422
 20
-399.859
 30
0.000000
  70
    32
  0
VERTEX
  8
┌▓È_1
  5
2BB
 10
963.433
 20
-399.870
 30
0.000000
  70
    32
  0
VERTEX
  8
┌▓È_1
  5
2BC
 10
963.443
 20
-399.882
 30
0.000000
  70
    32
  0
VERTEX
  8
┌▓È_1
  5
2BD
 10
963.454
 20
-399.893
 30
0.000000
  70
    32
  0
VERTEX
  8
┌▓È_1
  5
2BE
 10
963.465
 20
-399.904
 30
0.000000
  70
    32
  0
VERTEX
  8
┌▓È_1
  5
2BF
 10
963.476
 20
-399.916
 30
0.000000
  70
    32
  0
VERTEX
  8
┌▓È_1
  5
2C0
 10
963.487
 20
-399.927
 30
0.000000
  70
    32
  0
VERTEX
  8
┌▓È_1
  5
2C1
 10
963.497
 20
-399.939
 30
0.000000
  70
    32
  0
VERTEX
  8
┌▓È_1
  5
2C2
 10
963.508
 20
-399.950
 30
0.000000
  70
    32
  0
VERTEX
  8
┌▓È_1
  5
2C3
 10
963.519
 20
-399.961
 30
0.000000
  70
    32
  0
VERTEX
  8
┌▓È_1
  5
2C4
 10
963.530
 20
-399.973
 30
0.000000
  70
    32
  0
VERTEX
  8
┌▓È_1
  5
2C5
 10
963.541
 20
-399.984
 30
0.000000
  70
    32
  0
VERTEX
  8
┌▓È_1
  5
2C6
 10
963.551
 20
-399.996
 30
0.000000
  70
    32
  0
VERTEX
  8
┌▓È_1
  5
2C7
 10
963.562
 20
-400.007
 30
0.000000
  70
    32
  0
VERTEX
  8
┌▓È_1
  5
2C8
 10
963.573
 20
-400.018
 30
0.000000
  70
    32
  0
VERTEX
  8
┌▓È_1
  5
2C9
 10
963.584
 20
-400.030
 30
0.000000
  70
    32
  0
VERTEX
  8
┌▓È_1
  5
2CA
 10
963.595
 20
-400.041
 30
0.000000
  70
    32
  0
VERTEX
  8
┌▓È_1
  5
2CB
 10
963.606
 20
-400.052
 30
0.000000
  70
    32
  0
VERTEX
  8
┌▓È_1
  5
2CC
 10
963.616
 20
-400.063
 30
0.000000
  70
    32
  0
VERTEX
  8
┌▓È_1
  5
2CD
 10
963.627
 20
-400.075
 30
0.000000
  70
    32
  0
VERTEX
  8
┌▓È_1
  5
2CE
 10
963.638
 20
-400.086
 30
0.000000
  70
    32
  0
VERTEX
  8
┌▓È_1
  5
2CF
 10
963.649
 20
-400.097
 30
0.000000
  70
    32
  0
VERTEX
  8
┌▓È_1
  5
2D0
 10
963.660
 20
-400.108
 30
0.000000
  70
    32
  0
VERTEX
  8
┌▓È_1
  5
2D1
 10
963.671
 20
-400.120
 30
0.000000
  70
    32
  0
VERTEX
  8
┌▓È_1
  5
2D2
 10
963.682
 20
-400.131
 30
0.000000
  70
    32
  0
VERTEX
  8
┌▓È_1
  5
2D3
 10
963.693
 20
-400.142
 30
0.000000
  70
    32
  0
VERTEX
  8
┌▓È_1
  5
2D4
 10
963.704
 20
-400.153
 30
0.000000
  70
    32
  0
VERTEX
  8
┌▓È_1
  5
2D5
 10
963.715
 20
-400.164
 30
0.000000
  70
    32
  0
VERTEX
  8
┌▓È_1
  5
2D6
 10
963.726
 20
-400.175
 30
0.000000
  70
    32
  0
VERTEX
  8
┌▓È_1
  5
2D7
 10
963.737
 20
-400.186
 30
0.000000
  70
    32
  0
VERTEX
  8
┌▓È_1
  5
2D8
 10
963.748
 20
-400.198
 30
0.000000
  70
    32
  0
VERTEX
  8
┌▓È_1
  5
2D9
 10
963.759
 20
-400.209
 30
0.000000
  70
    32
  0
VERTEX
  8
┌▓È_1
  5
2DA
 10
963.770
 20
-400.220
 30
0.000000
  70
    32
  0
VERTEX
  8
┌▓È_1
  5
2DB
 10
963.781
 20
-400.231
 30
0.000000
  70
    32
  0
VERTEX
  8
┌▓È_1
  5
2DC
 10
963.792
 20
-400.242
 30
0.000000
  70
    32
  0
VERTEX
  8
┌▓È_1
  5
2DD
 10
963.803
 20
-400.253
 30
0.000000
  70
    32
  0
VERTEX
  8
┌▓È_1
  5
2DE
 10
963.814
 20
-400.264
 30
0.000000
  70
    32
  0
VERTEX
  8
┌▓È_1
  5
2DF
 10
963.825
 20
-400.275
 30
0.000000
  70
    32
  0
VERTEX
  8
┌▓È_1
  5
2E0
 10
963.836
 20
-400.286
 30
0.000000
  70
    32
  0
VERTEX
  8
┌▓È_1
  5
2E1
 10
963.847
 20
-400.297
 30
0.000000
  70
    32
  0
VERTEX
  8
┌▓È_1
  5
2E2
 10
963.858
 20
-400.308
 30
0.000000
  70
    32
  0
VERTEX
  8
┌▓È_1
  5
2E3
 10
963.869
 20
-400.319
 30
0.000000
  70
    32
  0
VERTEX
  8
┌▓È_1
  5
2E4
 10
963.880
 20
-400.330
 30
0.000000
  70
    32
  0
VERTEX
  8
┌▓È_1
  5
2E5
 10
963.891
 20
-400.340
 30
0.000000
  70
    32
  0
VERTEX
  8
┌▓È_1
  5
2E6
 10
963.902
 20
-400.351
 30
0.000000
  70
    32
  0
VERTEX
  8
┌▓È_1
  5
2E7
 10
963.913
 20
-400.362
 30
0.000000
  70
    32
  0
VERTEX
  8
┌▓È_1
  5
2E8
 10
963.925
 20
-400.373
 30
0.000000
  70
    32
  0
VERTEX
  8
┌▓È_1
  5
2E9
 10
963.936
 20
-400.384
 30
0.000000
  70
    32
  0
VERTEX
  8
┌▓È_1
  5
2EA
 10
963.947
 20
-400.395
 30
0.000000
  70
    32
  0
VERTEX
  8
┌▓È_1
  5
2EB
 10
963.958
 20
-400.405
 30
0.000000
  70
    32
  0
VERTEX
  8
┌▓È_1
  5
2EC
 10
963.969
 20
-400.416
 30
0.000000
  70
    32
  0
VERTEX
  8
┌▓È_1
  5
2ED
 10
963.981
 20
-400.427
 30
0.000000
  70
    32
  0
VERTEX
  8
┌▓È_1
  5
2EE
 10
963.992
 20
-400.438
 30
0.000000
  70
    32
  0
VERTEX
  8
┌▓È_1
  5
2EF
 10
964.003
 20
-400.448
 30
0.000000
  70
    32
  0
VERTEX
  8
┌▓È_1
  5
2F0
 10
964.014
 20
-400.459
 30
0.000000
  70
    32
  0
VERTEX
  8
┌▓È_1
  5
2F1
 10
964.025
 20
-400.470
 30
0.000000
  70
    32
  0
VERTEX
  8
┌▓È_1
  5
2F2
 10
964.037
 20
-400.480
 30
0.000000
  70
    32
  0
VERTEX
  8
┌▓È_1
  5
2F3
 10
964.048
 20
-400.491
 30
0.000000
  70
    32
  0
VERTEX
  8
┌▓È_1
  5
2F4
 10
964.059
 20
-400.501
 30
0.000000
  70
    32
  0
VERTEX
  8
┌▓È_1
  5
2F5
 10
964.071
 20
-400.512
 30
0.000000
  70
    32
  0
VERTEX
  8
┌▓È_1
  5
2F6
 10
964.082
 20
-400.523
 30
0.000000
  70
    32
  0
VERTEX
  8
┌▓È_1
  5
2F7
 10
964.093
 20
-400.533
 30
0.000000
  70
    32
  0
VERTEX
  8
┌▓È_1
  5
2F8
 10
964.105
 20
-400.544
 30
0.000000
  70
    32
  0
VERTEX
  8
┌▓È_1
  5
2F9
 10
964.116
 20
-400.554
 30
0.000000
  70
    32
  0
VERTEX
  8
┌▓È_1
  5
2FA
 10
964.127
 20
-400.565
 30
0.000000
  70
    32
  0
VERTEX
  8
┌▓È_1
  5
2FB
 10
964.139
 20
-400.575
 30
0.000000
  70
    32
  0
VERTEX
  8
┌▓È_1
  5
2FC
 10
964.150
 20
-400.586
 30
0.000000
  70
    32
  0
VERTEX
  8
┌▓È_1
  5
2FD
 10
964.161
 20
-400.596
 30
0.000000
  70
    32
  0
VERTEX
  8
┌▓È_1
  5
2FE
 10
964.173
 20
-400.606
 30
0.000000
  70
    32
  0
VERTEX
  8
┌▓È_1
  5
2FF
 10
964.184
 20
-400.617
 30
0.000000
  70
    32
  0
SEQEND
  8
┌▓È_1
  5
300
  0
POLYLINE
  8
┌▓È_1
  5
301
  62
5
  66
     1
 10
0.000000
 20
0.000000
 30
0.000000
  70
     8
  0
VERTEX
  8
┌▓È_1
  5
302
 10
966.045
 20
-404.379
 30
0.000000
  70
    32
  0
VERTEX
  8
┌▓È_1
  5
303
 10
966.088
 20
-404.393
 30
0.000000
  70
    32
  0
VERTEX
  8
┌▓È_1
  5
304
 10
966.131
 20
-404.407
 30
0.000000
  70
    32
  0
VERTEX
  8
┌▓È_1
  5
305
 10
966.174
 20
-404.420
 30
0.000000
  70
    32
  0
VERTEX
  8
┌▓È_1
  5
306
 10
966.218
 20
-404.434
 30
0.000000
  70
    32
  0
VERTEX
  8
┌▓È_1
  5
307
 10
966.261
 20
-404.447
 30
0.000000
  70
    32
  0
VERTEX
  8
┌▓È_1
  5
308
 10
966.304
 20
-404.461
 30
0.000000
  70
    32
  0
VERTEX
  8
┌▓È_1
  5
309
 10
966.347
 20
-404.474
 30
0.000000
  70
    32
  0
VERTEX
  8
┌▓È_1
  5
30A
 10
966.391
 20
-404.487
 30
0.000000
  70
    32
  0
VERTEX
  8
┌▓È_1
  5
30B
 10
966.434
 20
-404.500
 30
0.000000
  70
    32
  0
VERTEX
  8
┌▓È_1
  5
30C
 10
966.477
 20
-404.513
 30
0.000000
  70
    32
  0
VERTEX
  8
┌▓È_1
  5
30D
 10
966.521
 20
-404.527
 30
0.000000
  70
    32
  0
VERTEX
  8
┌▓È_1
  5
30E
 10
966.564
 20
-404.540
 30
0.000000
  70
    32
  0
VERTEX
  8
┌▓È_1
  5
30F
 10
966.608
 20
-404.553
 30
0.000000
  70
    32
  0
VERTEX
  8
┌▓È_1
  5
310
 10
966.651
 20
-404.565
 30
0.000000
  70
    32
  0
VERTEX
  8
┌▓È_1
  5
311
 10
966.695
 20
-404.578
 30
0.000000
  70
    32
  0
VERTEX
  8
┌▓È_1
  5
312
 10
966.739
 20
-404.591
 30
0.000000
  70
    32
  0
VERTEX
  8
┌▓È_1
  5
313
 10
966.782
 20
-404.604
 30
0.000000
  70
    32
  0
VERTEX
  8
┌▓È_1
  5
314
 10
966.826
 20
-404.616
 30
0.000000
  70
    32
  0
VERTEX
  8
┌▓È_1
  5
315
 10
966.869
 20
-404.629
 30
0.000000
  70
    32
  0
VERTEX
  8
┌▓È_1
  5
316
 10
966.913
 20
-404.642
 30
0.000000
  70
    32
  0
VERTEX
  8
┌▓È_1
  5
317
 10
966.957
 20
-404.654
 30
0.000000
  70
    32
  0
VERTEX
  8
┌▓È_1
  5
318
 10
967.001
 20
-404.666
 30
0.000000
  70
    32
  0
VERTEX
  8
┌▓È_1
  5
319
 10
967.045
 20
-404.679
 30
0.000000
  70
    32
  0
VERTEX
  8
┌▓È_1
  5
31A
 10
967.088
 20
-404.691
 30
0.000000
  70
    32
  0
VERTEX
  8
┌▓È_1
  5
31B
 10
967.132
 20
-404.703
 30
0.000000
  70
    32
  0
VERTEX
  8
┌▓È_1
  5
31C
 10
967.176
 20
-404.716
 30
0.000000
  70
    32
  0
VERTEX
  8
┌▓È_1
  5
31D
 10
967.220
 20
-404.728
 30
0.000000
  70
    32
  0
VERTEX
  8
┌▓È_1
  5
31E
 10
967.264
 20
-404.740
 30
0.000000
  70
    32
  0
VERTEX
  8
┌▓È_1
  5
31F
 10
967.308
 20
-404.752
 30
0.000000
  70
    32
  0
VERTEX
  8
┌▓È_1
  5
320
 10
967.352
 20
-404.764
 30
0.000000
  70
    32
  0
VERTEX
  8
┌▓È_1
  5
321
 10
967.396
 20
-404.776
 30
0.000000
  70
    32
  0
VERTEX
  8
┌▓È_1
  5
322
 10
967.440
 20
-404.788
 30
0.000000
  70
    32
  0
VERTEX
  8
┌▓È_1
  5
323
 10
967.484
 20
-404.800
 30
0.000000
  70
    32
  0
VERTEX
  8
┌▓È_1
  5
324
 10
967.528
 20
-404.811
 30
0.000000
  70
    32
  0
VERTEX
  8
┌▓È_1
  5
325
 10
967.573
 20
-404.823
 30
0.000000
  70
    32
  0
VERTEX
  8
┌▓È_1
  5
326
 10
967.617
 20
-404.835
 30
0.000000
  70
    32
  0
VERTEX
  8
┌▓È_1
  5
327
 10
967.661
 20
-404.846
 30
0.000000
  70
    32
  0
VERTEX
  8
┌▓È_1
  5
328
 10
967.705
 20
-404.858
 30
0.000000
  70
    32
  0
VERTEX
  8
┌▓È_1
  5
329
 10
967.749
 20
-404.870
 30
0.000000
  70
    32
  0
VERTEX
  8
┌▓È_1
  5
32A
 10
967.794
 20
-404.881
 30
0.000000
  70
    32
  0
VERTEX
  8
┌▓È_1
  5
32B
 10
967.838
 20
-404.892
 30
0.000000
  70
    32
  0
VERTEX
  8
┌▓È_1
  5
32C
 10
967.882
 20
-404.904
 30
0.000000
  70
    32
  0
VERTEX
  8
┌▓È_1
  5
32D
 10
967.927
 20
-404.915
 30
0.000000
  70
    32
  0
VERTEX
  8
┌▓È_1
  5
32E
 10
967.971
 20
-404.927
 30
0.000000
  70
    32
  0
VERTEX
  8
┌▓È_1
  5
32F
 10
968.015
 20
-404.938
 30
0.000000
  70
    32
  0
VERTEX
  8
┌▓È_1
  5
330
 10
968.060
 20
-404.949
 30
0.000000
  70
    32
  0
VERTEX
  8
┌▓È_1
  5
331
 10
968.104
 20
-404.960
 30
0.000000
  70
    32
  0
VERTEX
  8
┌▓È_1
  5
332
 10
968.149
 20
-404.971
 30
0.000000
  70
    32
  0
VERTEX
  8
┌▓È_1
  5
333
 10
968.193
 20
-404.982
 30
0.000000
  70
    32
  0
VERTEX
  8
┌▓È_1
  5
334
 10
968.238
 20
-404.993
 30
0.000000
  70
    32
  0
VERTEX
  8
┌▓È_1
  5
335
 10
968.282
 20
-405.004
 30
0.000000
  70
    32
  0
VERTEX
  8
┌▓È_1
  5
336
 10
968.327
 20
-405.015
 30
0.000000
  70
    32
  0
VERTEX
  8
┌▓È_1
  5
337
 10
968.372
 20
-405.026
 30
0.000000
  70
    32
  0
VERTEX
  8
┌▓È_1
  5
338
 10
968.416
 20
-405.037
 30
0.000000
  70
    32
  0
VERTEX
  8
┌▓È_1
  5
339
 10
968.461
 20
-405.048
 30
0.000000
  70
    32
  0
VERTEX
  8
┌▓È_1
  5
33A
 10
968.505
 20
-405.059
 30
0.000000
  70
    32
  0
VERTEX
  8
┌▓È_1
  5
33B
 10
968.550
 20
-405.070
 30
0.000000
  70
    32
  0
VERTEX
  8
┌▓È_1
  5
33C
 10
968.595
 20
-405.080
 30
0.000000
  70
    32
  0
VERTEX
  8
┌▓È_1
  5
33D
 10
968.640
 20
-405.091
 30
0.000000
  70
    32
  0
VERTEX
  8
┌▓È_1
  5
33E
 10
968.684
 20
-405.102
 30
0.000000
  70
    32
  0
VERTEX
  8
┌▓È_1
  5
33F
 10
968.729
 20
-405.112
 30
0.000000
  70
    32
  0
VERTEX
  8
┌▓È_1
  5
340
 10
968.774
 20
-405.123
 30
0.000000
  70
    32
  0
VERTEX
  8
┌▓È_1
  5
341
 10
968.819
 20
-405.134
 30
0.000000
  70
    32
  0
VERTEX
  8
┌▓È_1
  5
342
 10
968.863
 20
-405.144
 30
0.000000
  70
    32
  0
VERTEX
  8
┌▓È_1
  5
343
 10
968.908
 20
-405.155
 30
0.000000
  70
    32
  0
VERTEX
  8
┌▓È_1
  5
344
 10
968.953
 20
-405.165
 30
0.000000
  70
    32
  0
VERTEX
  8
┌▓È_1
  5
345
 10
968.998
 20
-405.175
 30
0.000000
  70
    32
  0
VERTEX
  8
┌▓È_1
  5
346
 10
969.043
 20
-405.186
 30
0.000000
  70
    32
  0
VERTEX
  8
┌▓È_1
  5
347
 10
969.088
 20
-405.196
 30
0.000000
  70
    32
  0
VERTEX
  8
┌▓È_1
  5
348
 10
969.133
 20
-405.206
 30
0.000000
  70
    32
  0
VERTEX
  8
┌▓È_1
  5
349
 10
969.178
 20
-405.217
 30
0.000000
  70
    32
  0
VERTEX
  8
┌▓È_1
  5
34A
 10
969.222
 20
-405.227
 30
0.000000
  70
    32
  0
VERTEX
  8
┌▓È_1
  5
34B
 10
969.267
 20
-405.237
 30
0.000000
  70
    32
  0
VERTEX
  8
┌▓È_1
  5
34C
 10
969.312
 20
-405.247
 30
0.000000
  70
    32
  0
VERTEX
  8
┌▓È_1
  5
34D
 10
969.357
 20
-405.258
 30
0.000000
  70
    32
  0
VERTEX
  8
┌▓È_1
  5
34E
 10
969.402
 20
-405.268
 30
0.000000
  70
    32
  0
VERTEX
  8
┌▓È_1
  5
34F
 10
969.447
 20
-405.278
 30
0.000000
  70
    32
  0
VERTEX
  8
┌▓È_1
  5
350
 10
969.492
 20
-405.288
 30
0.000000
  70
    32
  0
VERTEX
  8
┌▓È_1
  5
351
 10
969.538
 20
-405.298
 30
0.000000
  70
    32
  0
VERTEX
  8
┌▓È_1
  5
352
 10
969.583
 20
-405.308
 30
0.000000
  70
    32
  0
VERTEX
  8
┌▓È_1
  5
353
 10
969.628
 20
-405.318
 30
0.000000
  70
    32
  0
VERTEX
  8
┌▓È_1
  5
354
 10
969.673
 20
-405.328
 30
0.000000
  70
    32
  0
VERTEX
  8
┌▓È_1
  5
355
 10
969.718
 20
-405.338
 30
0.000000
  70
    32
  0
VERTEX
  8
┌▓È_1
  5
356
 10
969.763
 20
-405.348
 30
0.000000
  70
    32
  0
VERTEX
  8
┌▓È_1
  5
357
 10
969.808
 20
-405.358
 30
0.000000
  70
    32
  0
VERTEX
  8
┌▓È_1
  5
358
 10
969.853
 20
-405.368
 30
0.000000
  70
    32
  0
VERTEX
  8
┌▓È_1
  5
359
 10
969.898
 20
-405.378
 30
0.000000
  70
    32
  0
VERTEX
  8
┌▓È_1
  5
35A
 10
969.944
 20
-405.388
 30
0.000000
  70
    32
  0
VERTEX
  8
┌▓È_1
  5
35B
 10
969.989
 20
-405.397
 30
0.000000
  70
    32
  0
VERTEX
  8
┌▓È_1
  5
35C
 10
970.034
 20
-405.407
 30
0.000000
  70
    32
  0
VERTEX
  8
┌▓È_1
  5
35D
 10
970.079
 20
-405.417
 30
0.000000
  70
    32
  0
VERTEX
  8
┌▓È_1
  5
35E
 10
970.124
 20
-405.427
 30
0.000000
  70
    32
  0
VERTEX
  8
┌▓È_1
  5
35F
 10
970.170
 20
-405.437
 30
0.000000
  70
    32
  0
VERTEX
  8
┌▓È_1
  5
360
 10
970.215
 20
-405.446
 30
0.000000
  70
    32
  0
VERTEX
  8
┌▓È_1
  5
361
 10
970.260
 20
-405.456
 30
0.000000
  70
    32
  0
VERTEX
  8
┌▓È_1
  5
362
 10
970.305
 20
-405.466
 30
0.000000
  70
    32
  0
VERTEX
  8
┌▓È_1
  5
363
 10
970.351
 20
-405.475
 30
0.000000
  70
    32
  0
VERTEX
  8
┌▓È_1
  5
364
 10
970.396
 20
-405.485
 30
0.000000
  70
    32
  0
VERTEX
  8
┌▓È_1
  5
365
 10
970.441
 20
-405.495
 30
0.000000
  70
    32
  0
VERTEX
  8
┌▓È_1
  5
366
 10
970.486
 20
-405.504
 30
0.000000
  70
    32
  0
VERTEX
  8
┌▓È_1
  5
367
 10
970.532
 20
-405.514
 30
0.000000
  70
    32
  0
VERTEX
  8
┌▓È_1
  5
368
 10
970.577
 20
-405.524
 30
0.000000
  70
    32
  0
VERTEX
  8
┌▓È_1
  5
369
 10
970.622
 20
-405.533
 30
0.000000
  70
    32
  0
VERTEX
  8
┌▓È_1
  5
36A
 10
970.668
 20
-405.543
 30
0.000000
  70
    32
  0
VERTEX
  8
┌▓È_1
  5
36B
 10
970.713
 20
-405.552
 30
0.000000
  70
    32
  0
VERTEX
  8
┌▓È_1
  5
36C
 10
970.758
 20
-405.562
 30
0.000000
  70
    32
  0
VERTEX
  8
┌▓È_1
  5
36D
 10
970.804
 20
-405.572
 30
0.000000
  70
    32
  0
VERTEX
  8
┌▓È_1
  5
36E
 10
970.849
 20
-405.581
 30
0.000000
  70
    32
  0
VERTEX
  8
┌▓È_1
  5
36F
 10
970.894
 20
-405.591
 30
0.000000
  70
    32
  0
VERTEX
  8
┌▓È_1
  5
370
 10
970.940
 20
-405.600
 30
0.000000
  70
    32
  0
VERTEX
  8
┌▓È_1
  5
371
 10
970.985
 20
-405.610
 30
0.000000
  70
    32
  0
VERTEX
  8
┌▓È_1
  5
372
 10
971.030
 20
-405.619
 30
0.000000
  70
    32
  0
VERTEX
  8
┌▓È_1
  5
373
 10
971.076
 20
-405.629
 30
0.000000
  70
    32
  0
VERTEX
  8
┌▓È_1
  5
374
 10
971.121
 20
-405.638
 30
0.000000
  70
    32
  0
VERTEX
  8
┌▓È_1
  5
375
 10
971.166
 20
-405.648
 30
0.000000
  70
    32
  0
VERTEX
  8
┌▓È_1
  5
376
 10
971.212
 20
-405.657
 30
0.000000
  70
    32
  0
VERTEX
  8
┌▓È_1
  5
377
 10
971.257
 20
-405.667
 30
0.000000
  70
    32
  0
VERTEX
  8
┌▓È_1
  5
378
 10
971.303
 20
-405.676
 30
0.000000
  70
    32
  0
VERTEX
  8
┌▓È_1
  5
379
 10
971.348
 20
-405.685
 30
0.000000
  70
    32
  0
VERTEX
  8
┌▓È_1
  5
37A
 10
971.393
 20
-405.695
 30
0.000000
  70
    32
  0
VERTEX
  8
┌▓È_1
  5
37B
 10
971.439
 20
-405.704
 30
0.000000
  70
    32
  0
VERTEX
  8
┌▓È_1
  5
37C
 10
971.484
 20
-405.714
 30
0.000000
  70
    32
  0
VERTEX
  8
┌▓È_1
  5
37D
 10
971.530
 20
-405.723
 30
0.000000
  70
    32
  0
VERTEX
  8
┌▓È_1
  5
37E
 10
971.575
 20
-405.733
 30
0.000000
  70
    32
  0
VERTEX
  8
┌▓È_1
  5
37F
 10
971.620
 20
-405.742
 30
0.000000
  70
    32
  0
VERTEX
  8
┌▓È_1
  5
380
 10
971.666
 20
-405.752
 30
0.000000
  70
    32
  0
VERTEX
  8
┌▓È_1
  5
381
 10
971.711
 20
-405.761
 30
0.000000
  70
    32
  0
SEQEND
  8
┌▓È_1
  5
382
  0
POLYLINE
  8
┌▓È_1
  5
383
  62
5
  66
     1
 10
0.000000
 20
0.000000
 30
0.000000
  70
     8
  0
VERTEX
  8
┌▓È_1
  5
384
 10
957.311
 20
-398.792
 30
0.000000
  70
    32
  0
VERTEX
  8
┌▓È_1
  5
385
 10
957.340
 20
-398.818
 30
0.000000
  70
    32
  0
VERTEX
  8
┌▓È_1
  5
386
 10
957.369
 20
-398.845
 30
0.000000
  70
    32
  0
VERTEX
  8
┌▓È_1
  5
387
 10
957.398
 20
-398.871
 30
0.000000
  70
    32
  0
VERTEX
  8
┌▓È_1
  5
388
 10
957.426
 20
-398.898
 30
0.000000
  70
    32
  0
VERTEX
  8
┌▓È_1
  5
389
 10
957.455
 20
-398.925
 30
0.000000
  70
    32
  0
VERTEX
  8
┌▓È_1
  5
38A
 10
957.484
 20
-398.951
 30
0.000000
  70
    32
  0
VERTEX
  8
┌▓È_1
  5
38B
 10
957.513
 20
-398.978
 30
0.000000
  70
    32
  0
VERTEX
  8
┌▓È_1
  5
38C
 10
957.542
 20
-399.004
 30
0.000000
  70
    32
  0
VERTEX
  8
┌▓È_1
  5
38D
 10
957.571
 20
-399.031
 30
0.000000
  70
    32
  0
VERTEX
  8
┌▓È_1
  5
38E
 10
957.599
 20
-399.057
 30
0.000000
  70
    32
  0
VERTEX
  8
┌▓È_1
  5
38F
 10
957.628
 20
-399.084
 30
0.000000
  70
    32
  0
VERTEX
  8
┌▓È_1
  5
390
 10
957.657
 20
-399.110
 30
0.000000
  70
    32
  0
VERTEX
  8
┌▓È_1
  5
391
 10
957.686
 20
-399.137
 30
0.000000
  70
    32
  0
VERTEX
  8
┌▓È_1
  5
392
 10
957.715
 20
-399.163
 30
0.000000
  70
    32
  0
VERTEX
  8
┌▓È_1
  5
393
 10
957.744
 20
-399.190
 30
0.000000
  70
    32
  0
VERTEX
  8
┌▓È_1
  5
394
 10
957.772
 20
-399.216
 30
0.000000
  70
    32
  0
VERTEX
  8
┌▓È_1
  5
395
 10
957.801
 20
-399.243
 30
0.000000
  70
    32
  0
VERTEX
  8
┌▓È_1
  5
396
 10
957.830
 20
-399.269
 30
0.000000
  70
    32
  0
VERTEX
  8
┌▓È_1
  5
397
 10
957.859
 20
-399.296
 30
0.000000
  70
    32
  0
VERTEX
  8
┌▓È_1
  5
398
 10
957.888
 20
-399.322
 30
0.000000
  70
    32
  0
VERTEX
  8
┌▓È_1
  5
399
 10
957.917
 20
-399.349
 30
0.000000
  70
    32
  0
VERTEX
  8
┌▓È_1
  5
39A
 10
957.946
 20
-399.375
 30
0.000000
  70
    32
  0
VERTEX
  8
┌▓È_1
  5
39B
 10
957.975
 20
-399.402
 30
0.000000
  70
    32
  0
VERTEX
  8
┌▓È_1
  5
39C
 10
958.003
 20
-399.428
 30
0.000000
  70
    32
  0
VERTEX
  8
┌▓È_1
  5
39D
 10
958.032
 20
-399.454
 30
0.000000
  70
    32
  0
VERTEX
  8
┌▓È_1
  5
39E
 10
958.061
 20
-399.481
 30
0.000000
  70
    32
  0
VERTEX
  8
┌▓È_1
  5
39F
 10
958.090
 20
-399.507
 30
0.000000
  70
    32
  0
VERTEX
  8
┌▓È_1
  5
3A0
 10
958.119
 20
-399.534
 30
0.000000
  70
    32
  0
VERTEX
  8
┌▓È_1
  5
3A1
 10
958.148
 20
-399.560
 30
0.000000
  70
    32
  0
VERTEX
  8
┌▓È_1
  5
3A2
 10
958.177
 20
-399.586
 30
0.000000
  70
    32
  0
VERTEX
  8
┌▓È_1
  5
3A3
 10
958.206
 20
-399.612
 30
0.000000
  70
    32
  0
VERTEX
  8
┌▓È_1
  5
3A4
 10
958.235
 20
-399.639
 30
0.000000
  70
    32
  0
VERTEX
  8
┌▓È_1
  5
3A5
 10
958.264
 20
-399.665
 30
0.000000
  70
    32
  0
VERTEX
  8
┌▓È_1
  5
3A6
 10
958.293
 20
-399.691
 30
0.000000
  70
    32
  0
VERTEX
  8
┌▓È_1
  5
3A7
 10
958.322
 20
-399.718
 30
0.000000
  70
    32
  0
VERTEX
  8
┌▓È_1
  5
3A8
 10
958.351
 20
-399.744
 30
0.000000
  70
    32
  0
VERTEX
  8
┌▓È_1
  5
3A9
 10
958.380
 20
-399.770
 30
0.000000
  70
    32
  0
VERTEX
  8
┌▓È_1
  5
3AA
 10
958.409
 20
-399.796
 30
0.000000
  70
    32
  0
VERTEX
  8
┌▓È_1
  5
3AB
 10
958.438
 20
-399.822
 30
0.000000
  70
    32
  0
VERTEX
  8
┌▓È_1
  5
3AC
 10
958.467
 20
-399.848
 30
0.000000
  70
    32
  0
VERTEX
  8
┌▓È_1
  5
3AD
 10
958.496
 20
-399.875
 30
0.000000
  70
    32
  0
VERTEX
  8
┌▓È_1
  5
3AE
 10
958.525
 20
-399.901
 30
0.000000
  70
    32
  0
VERTEX
  8
┌▓È_1
  5
3AF
 10
958.554
 20
-399.927
 30
0.000000
  70
    32
  0
VERTEX
  8
┌▓È_1
  5
3B0
 10
958.583
 20
-399.953
 30
0.000000
  70
    32
  0
VERTEX
  8
┌▓È_1
  5
3B1
 10
958.612
 20
-399.979
 30
0.000000
  70
    32
  0
VERTEX
  8
┌▓È_1
  5
3B2
 10
958.642
 20
-400.005
 30
0.000000
  70
    32
  0
VERTEX
  8
┌▓È_1
  5
3B3
 10
958.671
 20
-400.031
 30
0.000000
  70
    32
  0
VERTEX
  8
┌▓È_1
  5
3B4
 10
958.700
 20
-400.057
 30
0.000000
  70
    32
  0
VERTEX
  8
┌▓È_1
  5
3B5
 10
958.729
 20
-400.083
 30
0.000000
  70
    32
  0
VERTEX
  8
┌▓È_1
  5
3B6
 10
958.758
 20
-400.108
 30
0.000000
  70
    32
  0
VERTEX
  8
┌▓È_1
  5
3B7
 10
958.787
 20
-400.134
 30
0.000000
  70
    32
  0
VERTEX
  8
┌▓È_1
  5
3B8
 10
958.817
 20
-400.160
 30
0.000000
  70
    32
  0
VERTEX
  8
┌▓È_1
  5
3B9
 10
958.846
 20
-400.186
 30
0.000000
  70
    32
  0
VERTEX
  8
┌▓È_1
  5
3BA
 10
958.875
 20
-400.212
 30
0.000000
  70
    32
  0
VERTEX
  8
┌▓È_1
  5
3BB
 10
958.904
 20
-400.237
 30
0.000000
  70
    32
  0
VERTEX
  8
┌▓È_1
  5
3BC
 10
958.934
 20
-400.263
 30
0.000000
  70
    32
  0
VERTEX
  8
┌▓È_1
  5
3BD
 10
958.963
 20
-400.289
 30
0.000000
  70
    32
  0
VERTEX
  8
┌▓È_1
  5
3BE
 10
958.992
 20
-400.314
 30
0.000000
  70
    32
  0
VERTEX
  8
┌▓È_1
  5
3BF
 10
959.022
 20
-400.340
 30
0.000000
  70
    32
  0
VERTEX
  8
┌▓È_1
  5
3C0
 10
959.051
 20
-400.366
 30
0.000000
  70
    32
  0
VERTEX
  8
┌▓È_1
  5
3C1
 10
959.080
 20
-400.391
 30
0.000000
  70
    32
  0
VERTEX
  8
┌▓È_1
  5
3C2
 10
959.110
 20
-400.417
 30
0.000000
  70
    32
  0
VERTEX
  8
┌▓È_1
  5
3C3
 10
959.139
 20
-400.442
 30
0.000000
  70
    32
  0
VERTEX
  8
┌▓È_1
  5
3C4
 10
959.169
 20
-400.468
 30
0.000000
  70
    32
  0
VERTEX
  8
┌▓È_1
  5
3C5
 10
959.198
 20
-400.493
 30
0.000000
  70
    32
  0
VERTEX
  8
┌▓È_1
  5
3C6
 10
959.227
 20
-400.518
 30
0.000000
  70
    32
  0
VERTEX
  8
┌▓È_1
  5
3C7
 10
959.257
 20
-400.544
 30
0.000000
  70
    32
  0
VERTEX
  8
┌▓È_1
  5
3C8
 10
959.286
 20
-400.569
 30
0.000000
  70
    32
  0
VERTEX
  8
┌▓È_1
  5
3C9
 10
959.316
 20
-400.594
 30
0.000000
  70
    32
  0
VERTEX
  8
┌▓È_1
  5
3CA
 10
959.345
 20
-400.620
 30
0.000000
  70
    32
  0
VERTEX
  8
┌▓È_1
  5
3CB
 10
959.375
 20
-400.645
 30
0.000000
  70
    32
  0
VERTEX
  8
┌▓È_1
  5
3CC
 10
959.405
 20
-400.670
 30
0.000000
  70
    32
  0
VERTEX
  8
┌▓È_1
  5
3CD
 10
959.434
 20
-400.695
 30
0.000000
  70
    32
  0
VERTEX
  8
┌▓È_1
  5
3CE
 10
959.464
 20
-400.720
 30
0.000000
  70
    32
  0
VERTEX
  8
┌▓È_1
  5
3CF
 10
959.494
 20
-400.745
 30
0.000000
  70
    32
  0
VERTEX
  8
┌▓È_1
  5
3D0
 10
959.523
 20
-400.770
 30
0.000000
  70
    32
  0
VERTEX
  8
┌▓È_1
  5
3D1
 10
959.553
 20
-400.795
 30
0.000000
  70
    32
  0
VERTEX
  8
┌▓È_1
  5
3D2
 10
959.583
 20
-400.820
 30
0.000000
  70
    32
  0
VERTEX
  8
┌▓È_1
  5
3D3
 10
959.612
 20
-400.845
 30
0.000000
  70
    32
  0
VERTEX
  8
┌▓È_1
  5
3D4
 10
959.642
 20
-400.870
 30
0.000000
  70
    32
  0
VERTEX
  8
┌▓È_1
  5
3D5
 10
959.672
 20
-400.894
 30
0.000000
  70
    32
  0
VERTEX
  8
┌▓È_1
  5
3D6
 10
959.702
 20
-400.919
 30
0.000000
  70
    32
  0
VERTEX
  8
┌▓È_1
  5
3D7
 10
959.732
 20
-400.944
 30
0.000000
  70
    32
  0
VERTEX
  8
┌▓È_1
  5
3D8
 10
959.761
 20
-400.969
 30
0.000000
  70
    32
  0
VERTEX
  8
┌▓È_1
  5
3D9
 10
959.791
 20
-400.993
 30
0.000000
  70
    32
  0
VERTEX
  8
┌▓È_1
  5
3DA
 10
959.821
 20
-401.018
 30
0.000000
  70
    32
  0
VERTEX
  8
┌▓È_1
  5
3DB
 10
959.851
 20
-401.042
 30
0.000000
  70
    32
  0
VERTEX
  8
┌▓È_1
  5
3DC
 10
959.881
 20
-401.067
 30
0.000000
  70
    32
  0
VERTEX
  8
┌▓È_1
  5
3DD
 10
959.911
 20
-401.091
 30
0.000000
  70
    32
  0
VERTEX
  8
┌▓È_1
  5
3DE
 10
959.941
 20
-401.115
 30
0.000000
  70
    32
  0
VERTEX
  8
┌▓È_1
  5
3DF
 10
959.971
 20
-401.140
 30
0.000000
  70
    32
  0
VERTEX
  8
┌▓È_1
  5
3E0
 10
960.001
 20
-401.164
 30
0.000000
  70
    32
  0
VERTEX
  8
┌▓È_1
  5
3E1
 10
960.031
 20
-401.188
 30
0.000000
  70
    32
  0
VERTEX
  8
┌▓È_1
  5
3E2
 10
960.061
 20
-401.212
 30
0.000000
  70
    32
  0
VERTEX
  8
┌▓È_1
  5
3E3
 10
960.092
 20
-401.236
 30
0.000000
  70
    32
  0
VERTEX
  8
┌▓È_1
  5
3E4
 10
960.122
 20
-401.260
 30
0.000000
  70
    32
  0
VERTEX
  8
┌▓È_1
  5
3E5
 10
960.152
 20
-401.284
 30
0.000000
  70
    32
  0
VERTEX
  8
┌▓È_1
  5
3E6
 10
960.182
 20
-401.308
 30
0.000000
  70
    32
  0
VERTEX
  8
┌▓È_1
  5
3E7
 10
960.212
 20
-401.332
 30
0.000000
  70
    32
  0
VERTEX
  8
┌▓È_1
  5
3E8
 10
960.243
 20
-401.356
 30
0.000000
  70
    32
  0
VERTEX
  8
┌▓È_1
  5
3E9
 10
960.273
 20
-401.380
 30
0.000000
  70
    32
  0
VERTEX
  8
┌▓È_1
  5
3EA
 10
960.303
 20
-401.403
 30
0.000000
  70
    32
  0
VERTEX
  8
┌▓È_1
  5
3EB
 10
960.334
 20
-401.427
 30
0.000000
  70
    32
  0
VERTEX
  8
┌▓È_1
  5
3EC
 10
960.364
 20
-401.451
 30
0.000000
  70
    32
  0
VERTEX
  8
┌▓È_1
  5
3ED
 10
960.395
 20
-401.474
 30
0.000000
  70
    32
  0
VERTEX
  8
┌▓È_1
  5
3EE
 10
960.425
 20
-401.498
 30
0.000000
  70
    32
  0
VERTEX
  8
┌▓È_1
  5
3EF
 10
960.456
 20
-401.521
 30
0.000000
  70
    32
  0
VERTEX
  8
┌▓È_1
  5
3F0
 10
960.486
 20
-401.545
 30
0.000000
  70
    32
  0
VERTEX
  8
┌▓È_1
  5
3F1
 10
960.517
 20
-401.568
 30
0.000000
  70
    32
  0
VERTEX
  8
┌▓È_1
  5
3F2
 10
960.547
 20
-401.591
 30
0.000000
  70
    32
  0
VERTEX
  8
┌▓È_1
  5
3F3
 10
960.578
 20
-401.614
 30
0.000000
  70
    32
  0
VERTEX
  8
┌▓È_1
  5
3F4
 10
960.609
 20
-401.637
 30
0.000000
  70
    32
  0
VERTEX
  8
┌▓È_1
  5
3F5
 10
960.639
 20
-401.661
 30
0.000000
  70
    32
  0
VERTEX
  8
┌▓È_1
  5
3F6
 10
960.670
 20
-401.684
 30
0.000000
  70
    32
  0
VERTEX
  8
┌▓È_1
  5
3F7
 10
960.701
 20
-401.706
 30
0.000000
  70
    32
  0
VERTEX
  8
┌▓È_1
  5
3F8
 10
960.732
 20
-401.729
 30
0.000000
  70
    32
  0
VERTEX
  8
┌▓È_1
  5
3F9
 10
960.763
 20
-401.752
 30
0.000000
  70
    32
  0
VERTEX
  8
┌▓È_1
  5
3FA
 10
960.794
 20
-401.775
 30
0.000000
  70
    32
  0
VERTEX
  8
┌▓È_1
  5
3FB
 10
960.824
 20
-401.798
 30
0.000000
  70
    32
  0
VERTEX
  8
┌▓È_1
  5
3FC
 10
960.855
 20
-401.820
 30
0.000000
  70
    32
  0
VERTEX
  8
┌▓È_1
  5
3FD
 10
960.886
 20
-401.843
 30
0.000000
  70
    32
  0
VERTEX
  8
┌▓È_1
  5
3FE
 10
960.917
 20
-401.865
 30
0.000000
  70
    32
  0
VERTEX
  8
┌▓È_1
  5
3FF
 10
960.949
 20
-401.888
 30
0.000000
  70
    32
  0
VERTEX
  8
┌▓È_1
  5
400
 10
960.980
 20
-401.910
 30
0.000000
  70
    32
  0
VERTEX
  8
┌▓È_1
  5
401
 10
961.011
 20
-401.932
 30
0.000000
  70
    32
  0
VERTEX
  8
┌▓È_1
  5
402
 10
961.042
 20
-401.954
 30
0.000000
  70
    32
  0
VERTEX
  8
┌▓È_1
  5
403
 10
961.073
 20
-401.977
 30
0.000000
  70
    32
  0
VERTEX
  8
┌▓È_1
  5
404
 10
961.104
 20
-401.999
 30
0.000000
  70
    32
  0
VERTEX
  8
┌▓È_1
  5
405
 10
961.136
 20
-402.021
 30
0.000000
  70
    32
  0
VERTEX
  8
┌▓È_1
  5
406
 10
961.167
 20
-402.043
 30
0.000000
  70
    32
  0
VERTEX
  8
┌▓È_1
  5
407
 10
961.198
 20
-402.064
 30
0.000000
  70
    32
  0
VERTEX
  8
┌▓È_1
  5
408
 10
961.230
 20
-402.086
 30
0.000000
  70
    32
  0
VERTEX
  8
┌▓È_1
  5
409
 10
961.261
 20
-402.108
 30
0.000000
  70
    32
  0
VERTEX
  8
┌▓È_1
  5
40A
 10
961.293
 20
-402.130
 30
0.000000
  70
    32
  0
VERTEX
  8
┌▓È_1
  5
40B
 10
961.324
 20
-402.151
 30
0.000000
  70
    32
  0
VERTEX
  8
┌▓È_1
  5
40C
 10
961.356
 20
-402.173
 30
0.000000
  70
    32
  0
VERTEX
  8
┌▓È_1
  5
40D
 10
961.387
 20
-402.194
 30
0.000000
  70
    32
  0
VERTEX
  8
┌▓È_1
  5
40E
 10
961.419
 20
-402.215
 30
0.000000
  70
    32
  0
VERTEX
  8
┌▓È_1
  5
40F
 10
961.451
 20
-402.237
 30
0.000000
  70
    32
  0
VERTEX
  8
┌▓È_1
  5
410
 10
961.482
 20
-402.258
 30
0.000000
  70
    32
  0
VERTEX
  8
┌▓È_1
  5
411
 10
961.514
 20
-402.279
 30
0.000000
  70
    32
  0
VERTEX
  8
┌▓È_1
  5
412
 10
961.546
 20
-402.300
 30
0.000000
  70
    32
  0
VERTEX
  8
┌▓È_1
  5
413
 10
961.578
 20
-402.321
 30
0.000000
  70
    32
  0
VERTEX
  8
┌▓È_1
  5
414
 10
961.610
 20
-402.342
 30
0.000000
  70
    32
  0
VERTEX
  8
┌▓È_1
  5
415
 10
961.642
 20
-402.363
 30
0.000000
  70
    32
  0
VERTEX
  8
┌▓È_1
  5
416
 10
961.674
 20
-402.383
 30
0.000000
  70
    32
  0
VERTEX
  8
┌▓È_1
  5
417
 10
961.706
 20
-402.404
 30
0.000000
  70
    32
  0
VERTEX
  8
┌▓È_1
  5
418
 10
961.738
 20
-402.425
 30
0.000000
  70
    32
  0
VERTEX
  8
┌▓È_1
  5
419
 10
961.770
 20
-402.445
 30
0.000000
  70
    32
  0
VERTEX
  8
┌▓È_1
  5
41A
 10
961.802
 20
-402.465
 30
0.000000
  70
    32
  0
VERTEX
  8
┌▓È_1
  5
41B
 10
961.834
 20
-402.486
 30
0.000000
  70
    32
  0
VERTEX
  8
┌▓È_1
  5
41C
 10
961.867
 20
-402.506
 30
0.000000
  70
    32
  0
VERTEX
  8
┌▓È_1
  5
41D
 10
961.899
 20
-402.526
 30
0.000000
  70
    32
  0
VERTEX
  8
┌▓È_1
  5
41E
 10
961.931
 20
-402.546
 30
0.000000
  70
    32
  0
VERTEX
  8
┌▓È_1
  5
41F
 10
961.964
 20
-402.566
 30
0.000000
  70
    32
  0
VERTEX
  8
┌▓È_1
  5
420
 10
961.996
 20
-402.586
 30
0.000000
  70
    32
  0
VERTEX
  8
┌▓È_1
  5
421
 10
962.028
 20
-402.606
 30
0.000000
  70
    32
  0
VERTEX
  8
┌▓È_1
  5
422
 10
962.061
 20
-402.625
 30
0.000000
  70
    32
  0
VERTEX
  8
┌▓È_1
  5
423
 10
962.094
 20
-402.645
 30
0.000000
  70
    32
  0
SEQEND
  8
┌▓È_1
  5
424
  0
POLYLINE
  8
┌▓È_1
  5
425
  62
5
  66
     1
 10
0.000000
 20
0.000000
 30
0.000000
  70
     8
  0
VERTEX
  8
┌▓È_1
  5
426
 10
968.007
 20
-402.599
 30
0.000000
  70
    32
  0
VERTEX
  8
┌▓È_1
  5
427
 10
968.034
 20
-402.607
 30
0.000000
  70
    32
  0
VERTEX
  8
┌▓È_1
  5
428
 10
968.062
 20
-402.614
 30
0.000000
  70
    32
  0
VERTEX
  8
┌▓È_1
  5
429
 10
968.091
 20
-402.622
 30
0.000000
  70
    32
  0
VERTEX
  8
┌▓È_1
  5
42A
 10
968.119
 20
-402.630
 30
0.000000
  70
    32
  0
VERTEX
  8
┌▓È_1
  5
42B
 10
968.147
 20
-402.638
 30
0.000000
  70
    32
  0
VERTEX
  8
┌▓È_1
  5
42C
 10
968.175
 20
-402.646
 30
0.000000
  70
    32
  0
VERTEX
  8
┌▓È_1
  5
42D
 10
968.203
 20
-402.653
 30
0.000000
  70
    32
  0
VERTEX
  8
┌▓È_1
  5
42E
 10
968.231
 20
-402.661
 30
0.000000
  70
    32
  0
VERTEX
  8
┌▓È_1
  5
42F
 10
968.259
 20
-402.668
 30
0.000000
  70
    32
  0
VERTEX
  8
┌▓È_1
  5
430
 10
968.287
 20
-402.676
 30
0.000000
  70
    32
  0
VERTEX
  8
┌▓È_1
  5
431
 10
968.316
 20
-402.683
 30
0.000000
  70
    32
  0
VERTEX
  8
┌▓È_1
  5
432
 10
968.344
 20
-402.691
 30
0.000000
  70
    32
  0
VERTEX
  8
┌▓È_1
  5
433
 10
968.372
 20
-402.698
 30
0.000000
  70
    32
  0
VERTEX
  8
┌▓È_1
  5
434
 10
968.401
 20
-402.706
 30
0.000000
  70
    32
  0
VERTEX
  8
┌▓È_1
  5
435
 10
968.429
 20
-402.713
 30
0.000000
  70
    32
  0
VERTEX
  8
┌▓È_1
  5
436
 10
968.457
 20
-402.720
 30
0.000000
  70
    32
  0
VERTEX
  8
┌▓È_1
  5
437
 10
968.486
 20
-402.727
 30
0.000000
  70
    32
  0
VERTEX
  8
┌▓È_1
  5
438
 10
968.514
 20
-402.735
 30
0.000000
  70
    32
  0
VERTEX
  8
┌▓È_1
  5
439
 10
968.543
 20
-402.742
 30
0.000000
  70
    32
  0
VERTEX
  8
┌▓È_1
  5
43A
 10
968.571
 20
-402.749
 30
0.000000
  70
    32
  0
VERTEX
  8
┌▓È_1
  5
43B
 10
968.600
 20
-402.756
 30
0.000000
  70
    32
  0
VERTEX
  8
┌▓È_1
  5
43C
 10
968.628
 20
-402.763
 30
0.000000
  70
    32
  0
VERTEX
  8
┌▓È_1
  5
43D
 10
968.657
 20
-402.770
 30
0.000000
  70
    32
  0
VERTEX
  8
┌▓È_1
  5
43E
 10
968.685
 20
-402.777
 30
0.000000
  70
    32
  0
VERTEX
  8
┌▓È_1
  5
43F
 10
968.714
 20
-402.784
 30
0.000000
  70
    32
  0
VERTEX
  8
┌▓È_1
  5
440
 10
968.742
 20
-402.791
 30
0.000000
  70
    32
  0
VERTEX
  8
┌▓È_1
  5
441
 10
968.771
 20
-402.798
 30
0.000000
  70
    32
  0
VERTEX
  8
┌▓È_1
  5
442
 10
968.800
 20
-402.805
 30
0.000000
  70
    32
  0
VERTEX
  8
┌▓È_1
  5
443
 10
968.828
 20
-402.811
 30
0.000000
  70
    32
  0
VERTEX
  8
┌▓È_1
  5
444
 10
968.857
 20
-402.818
 30
0.000000
  70
    32
  0
VERTEX
  8
┌▓È_1
  5
445
 10
968.886
 20
-402.825
 30
0.000000
  70
    32
  0
VERTEX
  8
┌▓È_1
  5
446
 10
968.915
 20
-402.831
 30
0.000000
  70
    32
  0
VERTEX
  8
┌▓È_1
  5
447
 10
968.943
 20
-402.838
 30
0.000000
  70
    32
  0
VERTEX
  8
┌▓È_1
  5
448
 10
968.972
 20
-402.845
 30
0.000000
  70
    32
  0
VERTEX
  8
┌▓È_1
  5
449
 10
969.001
 20
-402.851
 30
0.000000
  70
    32
  0
VERTEX
  8
┌▓È_1
  5
44A
 10
969.030
 20
-402.858
 30
0.000000
  70
    32
  0
VERTEX
  8
┌▓È_1
  5
44B
 10
969.059
 20
-402.864
 30
0.000000
  70
    32
  0
VERTEX
  8
┌▓È_1
  5
44C
 10
969.088
 20
-402.871
 30
0.000000
  70
    32
  0
VERTEX
  8
┌▓È_1
  5
44D
 10
969.116
 20
-402.877
 30
0.000000
  70
    32
  0
VERTEX
  8
┌▓È_1
  5
44E
 10
969.145
 20
-402.884
 30
0.000000
  70
    32
  0
VERTEX
  8
┌▓È_1
  5
44F
 10
969.174
 20
-402.890
 30
0.000000
  70
    32
  0
VERTEX
  8
┌▓È_1
  5
450
 10
969.203
 20
-402.896
 30
0.000000
  70
    32
  0
VERTEX
  8
┌▓È_1
  5
451
 10
969.232
 20
-402.903
 30
0.000000
  70
    32
  0
VERTEX
  8
┌▓È_1
  5
452
 10
969.261
 20
-402.909
 30
0.000000
  70
    32
  0
VERTEX
  8
┌▓È_1
  5
453
 10
969.290
 20
-402.915
 30
0.000000
  70
    32
  0
VERTEX
  8
┌▓È_1
  5
454
 10
969.319
 20
-402.922
 30
0.000000
  70
    32
  0
VERTEX
  8
┌▓È_1
  5
455
 10
969.348
 20
-402.928
 30
0.000000
  70
    32
  0
VERTEX
  8
┌▓È_1
  5
456
 10
969.377
 20
-402.934
 30
0.000000
  70
    32
  0
VERTEX
  8
┌▓È_1
  5
457
 10
969.406
 20
-402.940
 30
0.000000
  70
    32
  0
VERTEX
  8
┌▓È_1
  5
458
 10
969.436
 20
-402.946
 30
0.000000
  70
    32
  0
VERTEX
  8
┌▓È_1
  5
459
 10
969.465
 20
-402.952
 30
0.000000
  70
    32
  0
VERTEX
  8
┌▓È_1
  5
45A
 10
969.494
 20
-402.958
 30
0.000000
  70
    32
  0
VERTEX
  8
┌▓È_1
  5
45B
 10
969.523
 20
-402.964
 30
0.000000
  70
    32
  0
VERTEX
  8
┌▓È_1
  5
45C
 10
969.552
 20
-402.970
 30
0.000000
  70
    32
  0
VERTEX
  8
┌▓È_1
  5
45D
 10
969.581
 20
-402.976
 30
0.000000
  70
    32
  0
VERTEX
  8
┌▓È_1
  5
45E
 10
969.610
 20
-402.982
 30
0.000000
  70
    32
  0
VERTEX
  8
┌▓È_1
  5
45F
 10
969.640
 20
-402.988
 30
0.000000
  70
    32
  0
VERTEX
  8
┌▓È_1
  5
460
 10
969.669
 20
-402.994
 30
0.000000
  70
    32
  0
VERTEX
  8
┌▓È_1
  5
461
 10
969.698
 20
-403.000
 30
0.000000
  70
    32
  0
VERTEX
  8
┌▓È_1
  5
462
 10
969.727
 20
-403.006
 30
0.000000
  70
    32
  0
VERTEX
  8
┌▓È_1
  5
463
 10
969.757
 20
-403.012
 30
0.000000
  70
    32
  0
VERTEX
  8
┌▓È_1
  5
464
 10
969.786
 20
-403.018
 30
0.000000
  70
    32
  0
VERTEX
  8
┌▓È_1
  5
465
 10
969.815
 20
-403.023
 30
0.000000
  70
    32
  0
VERTEX
  8
┌▓È_1
  5
466
 10
969.845
 20
-403.029
 30
0.000000
  70
    32
  0
VERTEX
  8
┌▓È_1
  5
467
 10
969.874
 20
-403.035
 30
0.000000
  70
    32
  0
VERTEX
  8
┌▓È_1
  5
468
 10
969.903
 20
-403.041
 30
0.000000
  70
    32
  0
VERTEX
  8
┌▓È_1
  5
469
 10
969.933
 20
-403.046
 30
0.000000
  70
    32
  0
VERTEX
  8
┌▓È_1
  5
46A
 10
969.962
 20
-403.052
 30
0.000000
  70
    32
  0
VERTEX
  8
┌▓È_1
  5
46B
 10
969.991
 20
-403.058
 30
0.000000
  70
    32
  0
VERTEX
  8
┌▓È_1
  5
46C
 10
970.021
 20
-403.063
 30
0.000000
  70
    32
  0
VERTEX
  8
┌▓È_1
  5
46D
 10
970.050
 20
-403.069
 30
0.000000
  70
    32
  0
VERTEX
  8
┌▓È_1
  5
46E
 10
970.080
 20
-403.074
 30
0.000000
  70
    32
  0
VERTEX
  8
┌▓È_1
  5
46F
 10
970.109
 20
-403.080
 30
0.000000
  70
    32
  0
VERTEX
  8
┌▓È_1
  5
470
 10
970.139
 20
-403.085
 30
0.000000
  70
    32
  0
VERTEX
  8
┌▓È_1
  5
471
 10
970.168
 20
-403.091
 30
0.000000
  70
    32
  0
VERTEX
  8
┌▓È_1
  5
472
 10
970.198
 20
-403.097
 30
0.000000
  70
    32
  0
VERTEX
  8
┌▓È_1
  5
473
 10
970.227
 20
-403.102
 30
0.000000
  70
    32
  0
VERTEX
  8
┌▓È_1
  5
474
 10
970.257
 20
-403.107
 30
0.000000
  70
    32
  0
VERTEX
  8
┌▓È_1
  5
475
 10
970.286
 20
-403.113
 30
0.000000
  70
    32
  0
VERTEX
  8
┌▓È_1
  5
476
 10
970.316
 20
-403.118
 30
0.000000
  70
    32
  0
VERTEX
  8
┌▓È_1
  5
477
 10
970.345
 20
-403.124
 30
0.000000
  70
    32
  0
VERTEX
  8
┌▓È_1
  5
478
 10
970.375
 20
-403.129
 30
0.000000
  70
    32
  0
VERTEX
  8
┌▓È_1
  5
479
 10
970.404
 20
-403.135
 30
0.000000
  70
    32
  0
VERTEX
  8
┌▓È_1
  5
47A
 10
970.434
 20
-403.140
 30
0.000000
  70
    32
  0
VERTEX
  8
┌▓È_1
  5
47B
 10
970.463
 20
-403.145
 30
0.000000
  70
    32
  0
VERTEX
  8
┌▓È_1
  5
47C
 10
970.493
 20
-403.151
 30
0.000000
  70
    32
  0
VERTEX
  8
┌▓È_1
  5
47D
 10
970.523
 20
-403.156
 30
0.000000
  70
    32
  0
VERTEX
  8
┌▓È_1
  5
47E
 10
970.552
 20
-403.161
 30
0.000000
  70
    32
  0
VERTEX
  8
┌▓È_1
  5
47F
 10
970.582
 20
-403.167
 30
0.000000
  70
    32
  0
VERTEX
  8
┌▓È_1
  5
480
 10
970.611
 20
-403.172
 30
0.000000
  70
    32
  0
VERTEX
  8
┌▓È_1
  5
481
 10
970.641
 20
-403.177
 30
0.000000
  70
    32
  0
VERTEX
  8
┌▓È_1
  5
482
 10
970.671
 20
-403.182
 30
0.000000
  70
    32
  0
VERTEX
  8
┌▓È_1
  5
483
 10
970.700
 20
-403.188
 30
0.000000
  70
    32
  0
VERTEX
  8
┌▓È_1
  5
484
 10
970.730
 20
-403.193
 30
0.000000
  70
    32
  0
VERTEX
  8
┌▓È_1
  5
485
 10
970.760
 20
-403.198
 30
0.000000
  70
    32
  0
VERTEX
  8
┌▓È_1
  5
486
 10
970.789
 20
-403.203
 30
0.000000
  70
    32
  0
VERTEX
  8
┌▓È_1
  5
487
 10
970.819
 20
-403.208
 30
0.000000
  70
    32
  0
VERTEX
  8
┌▓È_1
  5
488
 10
970.849
 20
-403.214
 30
0.000000
  70
    32
  0
VERTEX
  8
┌▓È_1
  5
489
 10
970.878
 20
-403.219
 30
0.000000
  70
    32
  0
VERTEX
  8
┌▓È_1
  5
48A
 10
970.908
 20
-403.224
 30
0.000000
  70
    32
  0
VERTEX
  8
┌▓È_1
  5
48B
 10
970.938
 20
-403.229
 30
0.000000
  70
    32
  0
VERTEX
  8
┌▓È_1
  5
48C
 10
970.967
 20
-403.234
 30
0.000000
  70
    32
  0
VERTEX
  8
┌▓È_1
  5
48D
 10
970.997
 20
-403.239
 30
0.000000
  70
    32
  0
VERTEX
  8
┌▓È_1
  5
48E
 10
971.027
 20
-403.245
 30
0.000000
  70
    32
  0
VERTEX
  8
┌▓È_1
  5
48F
 10
971.056
 20
-403.250
 30
0.000000
  70
    32
  0
VERTEX
  8
┌▓È_1
  5
490
 10
971.086
 20
-403.255
 30
0.000000
  70
    32
  0
VERTEX
  8
┌▓È_1
  5
491
 10
971.116
 20
-403.260
 30
0.000000
  70
    32
  0
VERTEX
  8
┌▓È_1
  5
492
 10
971.146
 20
-403.265
 30
0.000000
  70
    32
  0
VERTEX
  8
┌▓È_1
  5
493
 10
971.175
 20
-403.270
 30
0.000000
  70
    32
  0
VERTEX
  8
┌▓È_1
  5
494
 10
971.205
 20
-403.275
 30
0.000000
  70
    32
  0
VERTEX
  8
┌▓È_1
  5
495
 10
971.235
 20
-403.280
 30
0.000000
  70
    32
  0
VERTEX
  8
┌▓È_1
  5
496
 10
971.265
 20
-403.285
 30
0.000000
  70
    32
  0
VERTEX
  8
┌▓È_1
  5
497
 10
971.294
 20
-403.290
 30
0.000000
  70
    32
  0
VERTEX
  8
┌▓È_1
  5
498
 10
971.324
 20
-403.295
 30
0.000000
  70
    32
  0
VERTEX
  8
┌▓È_1
  5
499
 10
971.354
 20
-403.301
 30
0.000000
  70
    32
  0
VERTEX
  8
┌▓È_1
  5
49A
 10
971.384
 20
-403.306
 30
0.000000
  70
    32
  0
VERTEX
  8
┌▓È_1
  5
49B
 10
971.413
 20
-403.311
 30
0.000000
  70
    32
  0
VERTEX
  8
┌▓È_1
  5
49C
 10
971.443
 20
-403.316
 30
0.000000
  70
    32
  0
VERTEX
  8
┌▓È_1
  5
49D
 10
971.473
 20
-403.321
 30
0.000000
  70
    32
  0
VERTEX
  8
┌▓È_1
  5
49E
 10
971.503
 20
-403.326
 30
0.000000
  70
    32
  0
VERTEX
  8
┌▓È_1
  5
49F
 10
971.532
 20
-403.331
 30
0.000000
  70
    32
  0
VERTEX
  8
┌▓È_1
  5
4A0
 10
971.562
 20
-403.336
 30
0.000000
  70
    32
  0
VERTEX
  8
┌▓È_1
  5
4A1
 10
971.592
 20
-403.341
 30
0.000000
  70
    32
  0
VERTEX
  8
┌▓È_1
  5
4A2
 10
971.622
 20
-403.346
 30
0.000000
  70
    32
  0
VERTEX
  8
┌▓È_1
  5
4A3
 10
971.652
 20
-403.351
 30
0.000000
  70
    32
  0
VERTEX
  8
┌▓È_1
  5
4A4
 10
971.681
 20
-403.356
 30
0.000000
  70
    32
  0
VERTEX
  8
┌▓È_1
  5
4A5
 10
971.711
 20
-403.361
 30
0.000000
  70
    32
  0
SEQEND
  8
┌▓È_1
  5
4A6
  0
INSERT
  5
1B7
  8
0
  6
CONTINUOUS
  2
*U35
 10
0.0
 20
0.0
 30
0.0
  0
LINE
  5
1B8
  8
┌▓È_1
 10
871.05974626720001
 20
-374.81726758629998
 30
0.0
 11
967.05974626720013
 21
-374.81726758629998
 31
0.0
  0
LINE
  5
1B9
  8
┌▓È_1
 10
967.05974626720013
 20
-366.31726758629998
 30
0.0
 11
999.0597462671999
 21
-366.31726758629998
 31
0.0
  0
LINE
  5
1BA
  8
┌▓È_1
 62
     5
 10
971.71111869610002
 20
-403.36099083929997
 30
0.0
 11
971.71111869610002
 21
-405.76099083930001
 31
0.0
  0
LINE
  5
1BB
  8
┌▓È_1
 62
     5
 10
981.97909093340013
 20
-406.56099083930002
 30
0.0
 11
986.45909093339992
 21
-406.56099083930002
 31
0.0
  0
LINE
  5
1BC
  8
┌▓È_1
 62
     5
 10
953.05414899920004
 20
-397.76099083930001
 30
0.0
 11
953.05414899920004
 21
-400.16099083929998
 31
0.0
  0
LINE
  5
1BD
  8
┌▓È_1
 62
     5
 10
937.61238290069991
 20
-397.76099083930001
 30
0.0
 11
937.61238290069991
 21
-400.16099083929998
 31
0.0
  0
LINE
  5
1BE
  8
┌▓È_1
 62
     5
 10
957.31111869610004
 20
-398.79174369520001
 30
0.0
 11
957.31111869610004
 21
-398.27636726719999
 31
0.0
  0
LINE
  5
1BF
  8
┌▓È_1
 62
     5
 10
963.71111869610002
 20
-398.27636726719999
 30
0.0
 11
962.80602201619979
 21
-399.18146394719997
 31
0.0
  0
LINE
  5
1C0
  8
┌▓È_1
 10
935.05974626720001
 20
-357.81726758629998
 30
0.0
 11
935.05974626720001
 21
-391.81726758629998
 31
0.0
  0
LINE
  5
1C1
  8
┌▓È_1
 10
875.05974626720013
 20
-366.31726758629998
 30
0.0
 11
899.0597462671999
 21
-366.31726758629998
 31
0.0
  0
LINE
  5
1C2
  8
┌▓È_1
 10
907.0597462671999
 20
-366.31726758629998
 30
0.0
 11
931.0597462671999
 21
-366.31726758629998
 31
0.0
  0
LINE
  5
1C3
  8
┌▓È_1
 10
875.05974626720013
 20
-383.31726758629998
 30
0.0
 11
931.0597462671999
 21
-383.31726758629998
 31
0.0
  0
LINE
  5
1C4
  8
┌▓È_1
 10
939.0597462671999
 20
-366.31726758629998
 30
0.0
 11
963.05974626720001
 21
-366.31726758629998
 31
0.0
  0
LINE
  5
1C5
  8
┌▓È_1
 10
939.0597462671999
 20
-383.31726758629998
 30
0.0
 11
963.05974626720001
 21
-383.31726758629998
 31
0.0
  0
INSERT
  5
1C6
  8
0
  6
CONTINUOUS
  2
*U36
 10
0.0
 20
0.0
 30
0.0
  0
INSERT
  5
1C7
  8
0
  6
CONTINUOUS
  2
*U37
 10
0.0
 20
0.0
 30
0.0
  0
INSERT
  5
1C8
  8
0
  6
CONTINUOUS
  2
*U38
 10
0.0
 20
0.0
 30
0.0
  0
INSERT
  5
1C9
  8
0
  6
CONTINUOUS
  2
*U39
 10
0.0
 20
0.0
 30
0.0
  0
LINE
  5
1CA
  8
┌▓È_1
  6
BORDER
 62
     3
 10
668.77513288579985
 20
-138.23728261030001
 30
0.0
 11
654.77513288579985
 21
-138.23728261030001
 31
0.0
  0
LINE
  5
1CB
  8
┌▓È_1
  6
STITCH
 10
661.77513288579985
 20
-140.73728261030001
 30
0.0
 11
659.27513288579996
 21
-140.73728261030001
 31
0.0
  0
LINE
  5
1CC
  8
┌▓È_1
  6
STITCH
 10
661.77513288579985
 20
-135.73728261030001
 30
0.0
 11
661.77513288579985
 21
-140.73728261030001
 31
0.0
  0
LINE
  5
1CD
  8
┌▓È_1
  6
STITCH
 10
661.77513288579985
 20
-135.73728261030001
 30
0.0
 11
659.27513288579996
 21
-135.73728261030001
 31
0.0
  0
LINE
  5
1CE
  8
┌▓È_1
  6
STITCH
 10
661.77513288579985
 20
-135.73728261030001
 30
0.0
 11
664.27513288579996
 21
-133.23728261030001
 31
0.0
  0
LINE
  5
1CF
  8
┌▓È_1
  6
STITCH
 10
664.27513288579996
 20
-143.23728261030001
 30
0.0
 11
661.77513288579985
 21
-140.73728261030001
 31
0.0
  0
LINE
  5
1D0
  8
┌▓È_1
  6
BORDER
 62
     3
 10
668.77513288579985
 20
-123.2372826103
 30
0.0
 11
654.77513288579985
 21
-123.2372826103
 31
0.0
  0
LINE
  5
1D1
  8
┌▓È_1
  6
STITCH
 10
664.27513288579996
 20
-128.23728261030001
 30
0.0
 11
661.77513288579985
 21
-125.7372826103
 31
0.0
  0
LINE
  5
1D2
  8
┌▓È_1
  6
STITCH
 10
661.77513288579985
 20
-120.7372826103
 30
0.0
 11
664.27513288579996
 21
-118.2372826103
 31
0.0
  0
LINE
  5
1D3
  8
┌▓È_1
  6
STITCH
 10
661.77513288579985
 20
-120.7372826103
 30
0.0
 11
659.27513288579996
 21
-120.7372826103
 31
0.0
  0
LINE
  5
1D4
  8
┌▓È_1
  6
STITCH
 10
661.77513288579985
 20
-120.7372826103
 30
0.0
 11
661.77513288579985
 21
-125.7372826103
 31
0.0
  0
LINE
  5
1D5
  8
┌▓È_1
  6
STITCH
 10
661.77513288579985
 20
-125.7372826103
 30
0.0
 11
659.27513288579996
 21
-125.7372826103
 31
0.0
  0
ARC
  5
1D6
  8
┌▓È_1
 62
     5
 10
664.27513288579996
 20
-155.73728261030001
 30
0.0
 40
4.5
 50
180.0
 51
270.0
  0
LINE
  5
1D7
  8
┌▓È_1
 62
     5
 10
664.27513288579996
 20
-160.23728261030001
 30
0.0
 11
749.77513288579985
 21
-160.23728261030001
 31
0.0
  0
LINE
  5
1D8
  8
┌▓È_1
 62
     5
 10
659.77513288579996
 20
-155.73728261030001
 30
0.0
 11
659.77513288579996
 21
-115.2372826103
 31
0.0
  0
LINE
  5
1D9
  8
┌▓È_1
 62
     5
 10
749.77513288579985
 20
-160.23728261030001
 30
0.0
 11
749.77513288579985
 21
-155.73728261030001
 31
0.0
  0
LINE
  5
1DA
  8
┌▓È_1
 62
     5
 10
664.27513288579996
 20
-155.73728261030001
 30
0.0
 11
749.77513288579985
 21
-155.73728261030001
 31
0.0
  0
LINE
  5
1DB
  8
┌▓È_1
  6
STITCH
 10
684.27513288579996
 20
-158.23728261030001
 30
0.0
 11
684.27513288579996
 21
-160.73728261030001
 31
0.0
  0
LINE
  5
1DC
  8
┌▓È_1
  6
STITCH
 10
684.27513288579996
 20
-158.23728261030001
 30
0.0
 11
679.27513288579985
 21
-158.23728261030001
 31
0.0
  0
LINE
  5
1DD
  8
┌▓È_1
  6
STITCH
 10
679.27513288579985
 20
-158.23728261030001
 30
0.0
 11
679.27513288579985
 21
-160.73728261030001
 31
0.0
  0
LINE
  5
1DE
  8
┌▓È_1
  6
STITCH
 10
676.77513288579996
 20
-155.73728261030001
 30
0.0
 11
679.27513288579985
 21
-158.23728261030001
 31
0.0
  0
LINE
  5
1DF
  8
┌▓È_1
  6
STITCH
 10
684.27513288579996
 20
-158.23728261030001
 30
0.0
 11
686.77513288579985
 21
-155.73728261030001
 31
0.0
  0
LINE
  5
1E0
  8
┌▓È_1
  6
BORDER
 62
     3
 10
681.77513288579985
 20
-151.23728261030001
 30
0.0
 11
681.77513288579985
 21
-165.23728261030001
 31
0.0
  0
LINE
  5
1E1
  8
┌▓È_1
  6
STITCH
 10
736.77513288579985
 20
-155.73728261030001
 30
0.0
 11
739.27513288579996
 21
-158.23728261030001
 31
0.0
  0
LINE
  5
1E2
  8
┌▓È_1
  6
STITCH
 10
744.27513288579985
 20
-158.23728261030001
 30
0.0
 11
746.77513288579996
 21
-155.73728261030001
 31
0.0
  0
LINE
  5
1E3
  8
┌▓È_1
 62
     5
 10
974.13084035110001
 20
-236.57419667280001
 30
0.0
 11
1047.1294514622
 21
-236.57419667280001
 31
0.0
  0
LINE
  5
1E4
  8
┌▓È_1
 62
     5
 10
974.13084035110001
 20
-214.07419667280001
 30
0.0
 11
1047.1294514622
 21
-214.07419667280001
 31
0.0
  0
LINE
  5
1E5
  8
┌▓È_1
 62
     5
 10
988.81096998070007
 20
-214.07419667280001
 30
0.0
 11
997.56096998069995
 21
-222.82419667280001
 31
0.0
  0
LINE
  5
1E6
  8
┌▓È_1
 62
     5
 10
997.56096998069995
 20
-222.82419667280001
 30
0.0
 11
1022.5609699807
 21
-222.82419667280001
 31
0.0
  0
LINE
  5
1E7
  8
┌▓È_1
 62
     5
 10
1022.5609699807
 20
-222.82419667280001
 30
0.0
 11
1031.3109699807001
 21
-214.07419667280001
 31
0.0
  0
LINE
  5
1E8
  8
┌▓È_1
 62
     5
 10
997.56096998069995
 20
-222.82419667280001
 30
0.0
 11
997.56096998069995
 21
-236.57419667280001
 31
0.0
  0
LINE
  5
1E9
  8
┌▓È_1
 62
     5
 10
1022.5609699807
 20
-222.82419667280001
 30
0.0
 11
1022.5609699807
 21
-236.57419667280001
 31
0.0
  0
CIRCLE
  5
1EA
  8
┌▓È_1
 62
     5
 10
851.0939896566
 20
-123.2372826103
 30
0.0
 40
5.0
  0
CIRCLE
  5
1EB
  8
┌▓È_1
 62
     5
 10
851.0939896566
 20
-123.2372826103
 30
0.0
 40
2.5
  0
LINE
  5
1EC
  8
┌▓È_1
  6
BORDER
 62
     3
 10
851.0939896566
 20
-116.2372826103
 30
0.0
 11
851.0939896566
 21
-130.23728261030001
 31
0.0
  0
LINE
  5
1ED
  8
┌▓È_1
  6
BORDER
 62
     3
 10
844.0939896566
 20
-123.2372826103
 30
0.0
 11
858.0939896566
 21
-123.2372826103
 31
0.0
  0
CIRCLE
  5
1EE
  8
┌▓È_1
 62
     5
 10
851.0939896566
 20
-138.23728261030001
 30
0.0
 40
5.0
  0
LINE
  5
1EF
  8
┌▓È_1
  6
BORDER
 62
     3
 10
844.0939896566
 20
-138.23728261030001
 30
0.0
 11
858.0939896566
 21
-138.23728261030001
 31
0.0
  0
LINE
  5
1F0
  8
┌▓È_1
  6
BORDER
 62
     3
 10
851.0939896566
 20
-131.23728261030001
 30
0.0
 11
851.0939896566
 21
-145.23728261030001
 31
0.0
  0
CIRCLE
  5
1F1
  8
┌▓È_1
 62
     5
 10
851.0939896566
 20
-138.23728261030001
 30
0.0
 40
2.5
  0
LINE
  5
1F2
  8
┌▓È_1
 62
     5
 10
843.0939896566
 20
-160.23728261030001
 30
0.0
 11
859.0939896566
 21
-160.23728261030001
 31
0.0
  0
LINE
  5
1F3
  8
┌▓È_1
 62
     5
 10
843.0939896566
 20
-155.23728261030001
 30
0.0
 11
859.0939896566
 21
-155.23728261030001
 31
0.0
  0
LINE
  5
1F4
  8
┌▓È_1
 62
     5
 10
859.0939896566
 20
-160.23728261030001
 30
0.0
 11
859.0939896566
 21
-115.2372826103
 31
0.0
  0
LINE
  5
1F5
  8
┌▓È_1
 62
     5
 10
843.0939896566
 20
-115.2372826103
 30
0.0
 11
843.0939896566
 21
-160.23728261030001
 31
0.0
  0
LINE
  5
1F6
  8
┌▓È_1
 62
     5
 10
859.0939896566
 20
-115.2372826103
 30
0.0
 11
843.0939896566
 21
-115.2372826103
 31
0.0
  0
LINE
  5
1F7
  8
┌▓È_1
  6
STITCH
 10
744.27513288579985
 20
-158.23728261030001
 30
0.0
 11
739.27513288579996
 21
-158.23728261030001
 31
0.0
  0
LINE
  5
1F8
  8
┌▓È_1
  6
STITCH
 10
739.27513288579996
 20
-158.23728261030001
 30
0.0
 11
739.27513288579996
 21
-160.73728261030001
 31
0.0
  0
LINE
  5
1F9
  8
┌▓È_1
  6
BORDER
 62
     3
 10
741.77513288579985
 20
-151.23728261030001
 30
0.0
 11
741.77513288579985
 21
-165.23728261030001
 31
0.0
  0
LINE
  5
1FA
  8
┌▓È_1
 62
     5
 10
664.27513288579996
 20
-115.2372826103
 30
0.0
 11
659.77513288579996
 21
-115.2372826103
 31
0.0
  0
LINE
  5
1FB
  8
┌▓È_1
 62
     5
 10
664.27513288579996
 20
-155.73728261030001
 30
0.0
 11
664.27513288579996
 21
-115.2372826103
 31
0.0
  0
ENDSEC
  0
EOF
