  0
SECTION
  2
HEADER
  9
$ACADVER
  1
AC1009
  9
$INSBASE
 10
0.0
 20
0.0
 30
0.0
  9
$EXTMIN
 10
562.48425972899986
 20
-410.98110363310002
 30
0.0
  9
$EXTMAX
 10
1112.4842597290001
 20
-30.981103633099998
 30
0.0
  9
$LIMMIN
 10
0.0
 20
0.0
  9
$LIMMAX
 10
0.0
 20
0.0
  9
$ORTHOMODE
 70
     0
  9
$REGENMODE
 70
     1
  9
$FILLMODE
 70
     1
  9
$QTEXTMODE
 70
     0
  9
$MIRRTEXT
 70
     1
  9
$DRAGMODE
 70
     2
  9
$LTSCALE
 40
1.0
  9
$OSMODE
 70
    31
  9
$ATTMODE
 70
     1
  9
$TEXTSIZE
 40
0.0
  9
$TRACEWID
 40
0.05
  9
$TEXTSTYLE
  7
STANDARD
  9
$CLAYER
  8
0
  9
$CELTYPE
  6
CONTINUOUS
  9
$CECOLOR
 62
   256
  9
$DIMSCALE
 40
1.0
  9
$DIMASZ
 40
0.18
  9
$DIMEXO
 40
0.0625
  9
$DIMDLI
 40
0.38
  9
$DIMRND
 40
0.0
  9
$DIMDLE
 40
0.0
  9
$DIMEXE
 40
0.18
  9
$DIMTP
 40
0.0
  9
$DIMTM
 40
0.0
  9
$DIMTXT
 40
0.18
  9
$DIMCEN
 40
0.09
  9
$DIMTSZ
 40
0.0
  9
$DIMTOL
 70
     0
  9
$DIMLIM
 70
     0
  9
$DIMTIH
 70
     1
  9
$DIMTOH
 70
     1
  9
$DIMSE1
 70
     0
  9
$DIMSE2
 70
     0
  9
$DIMTAD
 70
     0
  9
$DIMZIN
 70
     0
  9
$DIMBLK
  1

  9
$DIMASO
 70
     1
  9
$DIMSHO
 70
     1
  9
$DIMPOST
  1

  9
$DIMAPOST
  1

  9
$DIMALT
 70
     0
  9
$DIMALTD
 70
     2
  9
$DIMALTF
 40
25.399999999999999
  9
$DIMLFAC
 40
1.0
  9
$DIMTOFL
 70
     0
  9
$DIMTVP
 40
0.0
  9
$DIMTIX
 70
     0
  9
$DIMSOXD
 70
     0
  9
$DIMSAH
 70
     0
  9
$DIMBLK1
  1

  9
$DIMBLK2
  1

  9
$DIMSTYLE
  2
STANDARD
  9
$DIMCLRD
 70
     0
  9
$DIMCLRE
 70
     0
  9
$DIMCLRT
 70
     0
  9
$DIMTFAC
 40
1.0
  9
$DIMGAP
 40
0.09
  9
$LUNITS
 70
     2
  9
$LUPREC
 70
     4
  9
$SKETCHINC
 40
0.1
  9
$FILLETRAD
 40
0.0
  9
$AUNITS
 70
     0
  9
$AUPREC
 70
     0
  9
$MENU
  1
acad
  9
$ELEVATION
 40
0.0
  9
$PELEVATION
 40
0.0
  9
$THICKNESS
 40
0.0
  9
$LIMCHECK
 70
     0
  9
$BLIPMODE
 70
     0
  9
$CHAMFERA
 40
0.0
  9
$CHAMFERB
 40
0.0
  9
$SKPOLY
 70
     0
  9
$TDCREATE
 40
2454862.7657474312
  9
$TDUPDATE
 40
2454862.765880533
  9
$TDINDWG
 40
0.000140162
  9
$TDUSRTIMER
 40
0.0001397917
  9
$USRTIMER
 70
     1
  9
$ANGBASE
 50
0.0
  9
$ANGDIR
 70
     0
  9
$PDMODE
 70
     3
  9
$PDSIZE
 40
-1.0
  9
$PLINEWID
 40
0.0
  9
$COORDS
 70
     2
  9
$SPLFRAME
 70
     0
  9
$SPLINETYPE
 70
     6
  9
$SPLINESEGS
 70
     8
  9
$ATTDIA
 70
     0
  9
$ATTREQ
 70
     1
  9
$HANDLING
 70
     1
  9
$HANDSEED
  5
4A6
  9
$SURFTAB1
 70
     6
  9
$SURFTAB2
 70
     6
  9
$SURFTYPE
 70
     6
  9
$SURFU
 70
     6
  9
$SURFV
 70
     6
  9
$UCSNAME
  2

  9
$UCSORG
 10
0.0
 20
0.0
 30
0.0
  9
$UCSXDIR
 10
1.0
 20
0.0
 30
0.0
  9
$UCSYDIR
 10
0.0
 20
1.0
 30
0.0
  9
$PUCSNAME
  2

  9
$PUCSORG
 10
0.0
 20
0.0
 30
0.0
  9
$PUCSXDIR
 10
1.0
 20
0.0
 30
0.0
  9
$PUCSYDIR
 10
0.0
 20
1.0
 30
0.0
  9
$USERI1
 70
     0
  9
$USERI2
 70
     0
  9
$USERI3
 70
     0
  9
$USERI4
 70
     0
  9
$USERI5
 70
     0
  9
$USERR1
 40
0.0
  9
$USERR2
 40
0.0
  9
$USERR3
 40
0.0
  9
$USERR4
 40
0.0
  9
$USERR5
 40
0.0
  9
$WORLDVIEW
 70
     1
  9
$SHADEDGE
 70
     3
  9
$SHADEDIF
 70
    70
  9
$TILEMODE
 70
     1
  9
$MAXACTVP
 70
    16
  9
$PLIMCHECK
 70
     0
  9
$PEXTMIN
 10
1.0000000000000000E+020
 20
1.0000000000000000E+020
 30
1.0000000000000000E+020
  9
$PEXTMAX
 10
-1.0000000000000000E+020
 20
-1.0000000000000000E+020
 30
-1.0000000000000000E+020
  9
$PLIMMIN
 10
0.0
 20
0.0
  9
$PLIMMAX
 10
12.0
 20
9.0
  9
$UNITMODE
 70
     0
  9
$VISRETAIN
 70
     0
  9
$PLINEGEN
 70
     1
  9
$PSLTSCALE
 70
     0
  0
ENDSEC
  0
SECTION
  2
TABLES
  0
TABLE
  2
VPORT
 70
     2
  0
VPORT
  2
*ACTIVE
 70
     0
 10
0.0
 20
0.0
 11
1.0
 21
1.0
 12
837.48425972899975
 22
-220.98110363309999
 13
0.0
 23
0.0
 14
1.0
 24
1.0
 15
0.0
 25
0.0
 16
0.0
 26
0.0
 36
1.0
 17
0.0
 27
0.0
 37
0.0
 40
397.98585584749179
 41
1.3903818953323901
 42
50.0
 43
0.0
 44
0.0
 50
0.0
 51
0.0
 71
     0
 72
   100
 73
     1
 74
     1
 75
     0
 76
     0
 77
     0
 78
     0
  0
ENDTAB
  0
TABLE
  2
LTYPE
 70
    11
  0
LTYPE
  2
CONTINUOUS
 70
     0
  3
Solid line
 72
    65
 73
     0
 40
0.0
  0
LTYPE
  2
DOT
 70
     0
  3
. . . . . . . . 
 72
    65
 73
     2
 40
1.0
 49
0.0
 49
-1.0
  0
LTYPE
  2
DASHED
 70
     0
  3
___  ___  ___  ___  
 72
    65
 73
     2
 40
4.0
 49
3.0
 49
-1.0
  0
LTYPE
  2
HIDDEN
 70
     0
  3
__ __ __ __ 
 72
    65
 73
     2
 40
3.0
 49
2.0
 49
-1.0
  0
LTYPE
  2
STITCH
 70
     0
  3
_ _ _ _ 
 72
    65
 73
     2
 40
2.0
 49
1.0
 49
-1.0
  0
LTYPE
  2
CENTER
 70
     0
  3
______  __  ______  __  
 72
    65
 73
     4
 40
43.0
 49
40.0
 49
-1.0
 49
1.0
 49
-1.0
  0
LTYPE
  2
DASHDOT
 70
     0
  3
____ . ____ . 
 72
    65
 73
     4
 40
32.0
 49
30.0
 49
-1.0
 49
0.0
 49
-1.0
  0
LTYPE
  2
BORDER
 70
     0
  3
__ . __ . 
 72
    65
 73
     4
 40
22.0
 49
20.0
 49
-1.0
 49
0.0
 49
-1.0
  0
LTYPE
  2
CUTTING
 70
     0
  3
________   ___   ___   
 72
    65
 73
     6
 40
45.0
 49
40.0
 49
-1.0
 49
1.0
 49
-1.0
 49
1.0
 49
-1.0
  0
LTYPE
  2
PHANTOM
 70
     0
  3
______  __  __  
 72
    65
 73
     6
 40
35.0
 49
30.0
 49
-1.0
 49
1.0
 49
-1.0
 49
1.0
 49
-1.0
  0
LTYPE
  2
DIVIDE
 70
     0
  3
____ . . ____ . . 
 72
    65
 73
     6
 40
23.0
 49
20.0
 49
-1.0
 49
0.0
 49
-1.0
 49
0.0
 49
-1.0
  0
ENDTAB
  0
TABLE
  2
LAYER
 70
     4
  0
LAYER
  2
0
 70
     0
 62
     7
  6
CONTINUOUS
  0
LAYER
  2
Éíû@É³
 70
     0
 62
     7
  6
CONTINUOUS
  0
LAYER
  2
┌▓È_1
 70
     0
 62
     7
  6
CONTINUOUS
  0
LAYER
  2
Defpoints
 70
     0
 62
     7
  6
CONTINUOUS
  0
ENDTAB
  0
TABLE
  2
STYLE
 70
     1
  0
STYLE
  2
STANDARD
 70
     0
 40
0.0
 41
1.0
 50
0.0
 71
     0
 42
0.0
  3
txt
  4
extfont
  0
ENDTAB
  0
TABLE
  2
VIEW
 70
     0
  0
ENDTAB
  0
TABLE
  2
UCS
 70
     0
  0
ENDTAB
  0
TABLE
  2
APPID
 70
     2
  0
APPID
  2
ACAD
 70
     0
  0
APPID
  2
DCO15
 70
     0
  0
ENDTAB
  0
TABLE
  2
DIMSTYLE
 70
     4
  0
DIMSTYLE
  2
STANDARD
 70
     0
  3

  4

  5

  6

  7

 40
1.0
 41
0.18
 42
0.0625
 43
0.38
 44
0.18
 45
0.0
 46
0.0
 47
0.0
 48
0.0
140
0.18
141
0.09
142
0.0
143
25.399999999999999
144
1.0
145
0.0
146
1.0
147
0.09
 71
     0
 72
     0
 73
     1
 74
     1
 75
     0
 76
     0
 77
     0
 78
     0
170
     0
171
     2
172
     0
173
     0
174
     0
175
     0
176
     0
177
     0
178
     0
  0
DIMSTYLE
  2
VELDIM0
 70
     0
  3

  4

  5

  6

  7

 40
1.0
 41
6.0
 42
0.0625
 43
0.38
 44
0.5
 45
0.0
 46
3.0
 47
0.0
 48
0.0
140
5.9972220420999998
141
0.09
142
0.0
143
25.399999999999999
144
1.0
145
0.0
146
1.0
147
0.09
 71
     0
 72
     0
 73
     0
 74
     0
 75
     0
 76
     0
 77
     0
 78
     8
170
     0
171
     2
172
     0
173
     0
174
     0
175
     0
176
     0
177
     0
178
     0
  0
DIMSTYLE
  2
VELDIM1
 70
     0
  3

  4

  5

  6

  7

 40
1.0
 41
6.0
 42
0.0625
 43
0.38
 44
1.25
 45
0.0
 46
5.0
 47
0.0
 48
0.0
140
5.9972220420999998
141
0.09
142
0.0
143
25.399999999999999
144
1.0
145
0.0
146
1.0
147
0.09
 71
     0
 72
     0
 73
     0
 74
     0
 75
     0
 76
     0
 77
     0
 78
     8
170
     0
171
     2
172
     0
173
     0
174
     0
175
     0
176
     0
177
     0
178
     0
  0
DIMSTYLE
  2
VELDIM2
 70
     0
  3

  4

  5

  6

  7

 40
1.0
 41
6.0
 42
0.0625
 43
0.38
 44
1.0
 45
0.0
 46
6.0
 47
0.0
 48
0.0
140
5.9972220420999998
141
0.09
142
0.0
143
25.399999999999999
144
1.0
145
0.0
146
1.0
147
0.09
 71
     0
 72
     0
 73
     0
 74
     0
 75
     0
 76
     0
 77
     0
 78
     8
170
     0
171
     2
172
     0
173
     0
174
     0
175
     0
176
     0
177
     0
178
     0
  0
ENDTAB
  0
ENDSEC
  0
SECTION
  2
BLOCKS
  0
BLOCK
  8
0
  2
$MODEL_SPACE
 70
     0
 10
0.0
 20
0.0
 30
0.0
  3
$MODEL_SPACE
  1

  0
ENDBLK
  5
E
  8
0
  0
BLOCK
 67
     1
  8
0
  2
$PAPER_SPACE
 70
     0
 10
0.0
 20
0.0
 30
0.0
  3
$PAPER_SPACE
  1

  0
ENDBLK
  5
10
 67
     1
  8
0
  0
BLOCK
  8
0
  2
*D0
 70
     1
 10
0.0
 20
0.0
 30
0.0
  3
*D0
  1

  0
TEXT
  5
31
  8
0
 62
     0
 10
707.65628674469986
 20
-264.33696303980003
 30
0.0
 40
5.9972220420999998
  1
55
  0
LINE
  5
32
  8
0
 62
     0
 10
738.68406441649995
 20
-286.34581717470002
 30
0.0
 11
738.68406441649995
 21
-265.89529634140001
 31
0.0
  0
LINE
  5
33
  8
0
 62
     0
 10
683.68406441649995
 20
-286.34581717470002
 30
0.0
 11
683.68406441649995
 21
-265.89529634140001
 31
0.0
  0
LINE
  5
34
  8
0
 62
     0
 10
738.68406441649995
 20
-266.39529634140001
 30
0.0
 11
718.23961976009991
 21
-266.39529634140001
 31
0.0
  0
LINE
  5
35
  8
0
 62
     0
 10
738.68406441649995
 20
-266.39529634140001
 30
0.0
 11
704.12850907289987
 21
-266.39529634140001
 31
0.0
  0
LINE
  5
36
  8
0
 62
     0
 10
683.68406441649995
 20
-266.39529634140001
 30
0.0
 11
718.23961976009991
 21
-266.39529634140001
 31
0.0
  0
LINE
  5
37
  8
0
 62
     0
 10
683.68406441649995
 20
-266.39529634140001
 30
0.0
 11
704.12850907289987
 21
-266.39529634140001
 31
0.0
  0
LINE
  5
38
  8
0
 62
     0
 10
683.68406441649995
 20
-266.39529634140001
 30
0.0
 11
686.68406441650006
 21
-266.39529634140001
 31
0.0
  0
SOLID
  5
39
  8
0
 62
     0
 10
683.68406441649995
 20
-266.39529634140001
 30
0.0
 11
689.68406441649995
 21
-264.89529634140001
 31
0.0
 12
689.68406441649995
 22
-267.89529634140001
 32
0.0
 13
688.18406441649995
 23
-266.39529634140001
 33
0.0
  0
LINE
  5
3A
  8
0
 62
     0
 10
738.68406441649995
 20
-266.39529634140001
 30
0.0
 11
735.68406441649995
 21
-266.39529634140001
 31
0.0
  0
SOLID
  5
3B
  8
0
 62
     0
 10
738.68406441649995
 20
-266.39529634140001
 30
0.0
 11
732.68406441649995
 21
-267.89529634140001
 31
0.0
 12
732.68406441649995
 22
-264.89529634140001
 32
0.0
 13
734.18406441649995
 23
-266.39529634140001
 33
0.0
  0
ENDBLK
  5
3C
  8
0
  0
BLOCK
  8
0
  2
*D1
 70
     1
 10
0.0
 20
0.0
 30
0.0
  3
*D1
  1

  0
TEXT
  5
41
  8
0
 62
     0
 10
668.15628674469997
 20
-264.47062189400009
 30
0.0
 40
5.9972220420999998
  1
24
  0
LINE
  5
42
  8
0
 62
     0
 10
683.68406441649995
 20
-286.34581717470002
 30
0.0
 11
683.68406441649995
 21
-266.02895519560002
 31
0.0
  0
LINE
  5
43
  8
0
 62
     0
 10
659.68406441649995
 20
-285.34581717470002
 30
0.0
 11
659.68406441649995
 21
-266.02895519560002
 31
0.0
  0
LINE
  5
44
  8
0
 62
     0
 10
683.68406441649995
 20
-266.52895519560002
 30
0.0
 11
678.73961976010003
 21
-266.52895519560002
 31
0.0
  0
LINE
  5
45
  8
0
 62
     0
 10
683.68406441649995
 20
-266.52895519560002
 30
0.0
 11
664.62850907289999
 21
-266.52895519560002
 31
0.0
  0
LINE
  5
46
  8
0
 62
     0
 10
659.68406441649995
 20
-266.52895519560002
 30
0.0
 11
678.73961976010003
 21
-266.52895519560002
 31
0.0
  0
LINE
  5
47
  8
0
 62
     0
 10
659.68406441649995
 20
-266.52895519560002
 30
0.0
 11
664.62850907289999
 21
-266.52895519560002
 31
0.0
  0
LINE
  5
48
  8
0
 62
     0
 10
659.68406441649995
 20
-266.52895519560002
 30
0.0
 11
656.68406441649995
 21
-266.52895519560002
 31
0.0
  0
SOLID
  5
49
  8
0
 62
     0
 10
659.68406441649995
 20
-266.52895519560002
 30
0.0
 11
653.68406441650006
 21
-268.02895519560002
 31
0.0
 12
653.68406441650006
 22
-265.02895519560002
 32
0.0
 13
655.18406441649995
 23
-266.52895519560002
 33
0.0
  0
LINE
  5
4A
  8
0
 62
     0
 10
683.68406441649995
 20
-266.52895519560002
 30
0.0
 11
686.68406441650006
 21
-266.52895519560002
 31
0.0
  0
SOLID
  5
4B
  8
0
 62
     0
 10
683.68406441649995
 20
-266.52895519560002
 30
0.0
 11
689.68406441649995
 21
-265.02895519560002
 31
0.0
 12
689.68406441649995
 22
-268.02895519560002
 32
0.0
 13
688.18406441649995
 23
-266.52895519560002
 33
0.0
  0
ENDBLK
  5
4C
  8
0
  0
BLOCK
  8
0
  2
*D2
 70
     1
 10
0.0
 20
0.0
 30
0.0
  3
*D2
  1

  0
TEXT
  5
50
  8
0
 62
     0
 10
637.62573111489985
 20
-148.235508909
 30
0.0
 40
5.9972220420999998
  1
90
 50
90.0
  0
LINE
  5
51
  8
0
 62
     0
 10
658.68406441649995
 20
-99.707731237199994
 30
0.0
 11
639.18406441649995
 21
-99.707731237199994
 31
0.0
  0
LINE
  5
52
  8
0
 62
     0
 10
663.68406441649995
 20
-189.70773123719999
 30
0.0
 11
639.18406441649995
 21
-189.70773123719999
 31
0.0
  0
LINE
  5
53
  8
0
 62
     0
 10
639.68406441649995
 20
-99.707731237199994
 30
0.0
 11
639.68406441649995
 21
-137.6521758936
 31
0.0
  0
LINE
  5
54
  8
0
 62
     0
 10
639.68406441649995
 20
-99.707731237199994
 30
0.0
 11
639.68406441649995
 21
-151.76328658080001
 31
0.0
  0
LINE
  5
55
  8
0
 62
     0
 10
639.68406441649995
 20
-189.70773123719999
 30
0.0
 11
639.68406441649995
 21
-137.6521758936
 31
0.0
  0
LINE
  5
56
  8
0
 62
     0
 10
639.68406441649995
 20
-189.70773123719999
 30
0.0
 11
639.68406441649995
 21
-151.76328658080001
 31
0.0
  0
LINE
  5
57
  8
0
 62
     0
 10
639.68406441649995
 20
-189.70773123719999
 30
0.0
 11
639.68406441649995
 21
-186.70773123719999
 31
0.0
  0
SOLID
  5
58
  8
0
 62
     0
 10
639.68406441649995
 20
-189.70773123719999
 30
0.0
 11
638.18406441649995
 21
-183.70773123719999
 31
0.0
 12
641.18406441650006
 22
-183.70773123719999
 32
0.0
 13
639.68406441649995
 23
-185.20773123719999
 33
0.0
  0
LINE
  5
59
  8
0
 62
     0
 10
639.68406441649995
 20
-99.707731237199994
 30
0.0
 11
639.68406441649995
 21
-102.70773123719999
 31
0.0
  0
SOLID
  5
5A
  8
0
 62
     0
 10
639.68406441649995
 20
-99.707731237199994
 30
0.0
 11
641.18406441650006
 21
-105.70773123719999
 31
0.0
 12
638.18406441649995
 22
-105.70773123719999
 32
0.0
 13
639.68406441649995
 23
-104.20773123719999
 33
0.0
  0
ENDBLK
  5
5B
  8
0
  0
BLOCK
  8
0
  2
*D3
 70
     1
 10
0.0
 20
0.0
 30
0.0
  3
*D3
  1

  0
TEXT
  5
5F
  8
0
 62
     0
 10
701.15628674469997
 20
-207.64939793569999
 30
0.0
 40
5.9972220420999998
  1
90
  0
LINE
  5
60
  8
0
 62
     0
 10
659.68406441649995
 20
-185.70773123719999
 30
0.0
 11
659.68406441649995
 21
-210.20773123719999
 31
0.0
  0
LINE
  5
61
  8
0
 62
     0
 10
749.68406441649995
 20
-190.70773123719999
 30
0.0
 11
749.68406441649995
 21
-210.20773123719999
 31
0.0
  0
LINE
  5
62
  8
0
 62
     0
 10
659.68406441649995
 20
-209.70773123719999
 30
0.0
 11
711.7396197600998
 21
-209.70773123719999
 31
0.0
  0
LINE
  5
63
  8
0
 62
     0
 10
659.68406441649995
 20
-209.70773123719999
 30
0.0
 11
697.62850907289999
 21
-209.70773123719999
 31
0.0
  0
LINE
  5
64
  8
0
 62
     0
 10
749.68406441649995
 20
-209.70773123719999
 30
0.0
 11
711.7396197600998
 21
-209.70773123719999
 31
0.0
  0
LINE
  5
65
  8
0
 62
     0
 10
749.68406441649995
 20
-209.70773123719999
 30
0.0
 11
697.62850907289999
 21
-209.70773123719999
 31
0.0
  0
LINE
  5
66
  8
0
 62
     0
 10
749.68406441649995
 20
-209.70773123719999
 30
0.0
 11
746.68406441649995
 21
-209.70773123719999
 31
0.0
  0
SOLID
  5
67
  8
0
 62
     0
 10
749.68406441649995
 20
-209.70773123719999
 30
0.0
 11
743.68406441649995
 21
-211.20773123719999
 31
0.0
 12
743.68406441649995
 22
-208.20773123719999
 32
0.0
 13
745.18406441649995
 23
-209.70773123719999
 33
0.0
  0
LINE
  5
68
  8
0
 62
     0
 10
659.68406441649995
 20
-209.70773123719999
 30
0.0
 11
662.68406441649995
 21
-209.70773123719999
 31
0.0
  0
SOLID
  5
69
  8
0
 62
     0
 10
659.68406441649995
 20
-209.70773123719999
 30
0.0
 11
665.68406441650006
 21
-208.20773123719999
 31
0.0
 12
665.68406441650006
 22
-211.20773123719999
 32
0.0
 13
664.18406441649995
 23
-209.70773123719999
 33
0.0
  0
ENDBLK
  5
6A
  8
0
  0
BLOCK
  8
0
  2
*D4
 70
     1
 10
0.0
 20
0.0
 30
0.0
  3
*D4
  1

  0
TEXT
  5
6E
  8
0
 62
     0
 10
849.46175549470001
 20
-62.774008836599997
 30
0.0
 40
5.9972220420999998
  1
16
  0
LINE
  5
6F
  8
0
 62
     0
 10
860.98953316649988
 20
-98.707731237199994
 30
0.0
 11
860.98953316649988
 21
-64.332342138100003
 31
0.0
  0
LINE
  5
70
  8
0
 62
     0
 10
844.9895331665
 20
-98.707731237199994
 30
0.0
 11
844.9895331665
 21
-64.332342138100003
 31
0.0
  0
LINE
  5
71
  8
0
 62
     0
 10
860.98953316649988
 20
-64.832342138100003
 30
0.0
 11
860.04508851009984
 21
-64.832342138100003
 31
0.0
  0
LINE
  5
72
  8
0
 62
     0
 10
860.98953316649988
 20
-64.832342138100003
 30
0.0
 11
845.93397782289992
 21
-64.832342138100003
 31
0.0
  0
LINE
  5
73
  8
0
 62
     0
 10
844.9895331665
 20
-64.832342138100003
 30
0.0
 11
860.04508851009984
 21
-64.832342138100003
 31
0.0
  0
LINE
  5
74
  8
0
 62
     0
 10
844.9895331665
 20
-64.832342138100003
 30
0.0
 11
845.93397782289992
 21
-64.832342138100003
 31
0.0
  0
LINE
  5
75
  8
0
 62
     0
 10
844.9895331665
 20
-64.832342138100003
 30
0.0
 11
841.98953316649988
 21
-64.832342138100003
 31
0.0
  0
SOLID
  5
76
  8
0
 62
     0
 10
844.9895331665
 20
-64.832342138100003
 30
0.0
 11
838.9895331665
 21
-66.332342138100003
 31
0.0
 12
838.9895331665
 22
-63.332342138100003
 32
0.0
 13
840.48953316649988
 23
-64.832342138100003
 33
0.0
  0
LINE
  5
77
  8
0
 62
     0
 10
860.98953316649988
 20
-64.832342138100003
 30
0.0
 11
863.9895331665
 21
-64.832342138100003
 31
0.0
  0
SOLID
  5
78
  8
0
 62
     0
 10
860.98953316649988
 20
-64.832342138100003
 30
0.0
 11
866.98953316649988
 21
-63.332342138100003
 31
0.0
 12
866.98953316649988
 22
-66.332342138100003
 32
0.0
 13
865.48953316650011
 23
-64.832342138100003
 33
0.0
  0
ENDBLK
  5
79
  8
0
  0
BLOCK
  8
0
  2
*D5
 70
     1
 10
0.0
 20
0.0
 30
0.0
  3
*D5
  1

  0
TEXT
  5
7D
  8
0
 62
     0
 10
997.6838676328
 20
-159.15201251900001
 30
0.0
 40
5.9972220420999998
  1
%%c8.5
  0
LINE
  5
7E
  8
0
 62
     0
 10
1027.7533118122999
 20
-203.03338227890001
 30
0.0
 11
1027.7533118122999
 21
-160.7103458206
 31
0.0
  0
LINE
  5
7F
  8
0
 62
     0
 10
985.25331181230001
 20
-203.03338227890001
 30
0.0
 11
985.25331181230001
 21
-160.7103458206
 31
0.0
  0
LINE
  5
80
  8
0
 62
     0
 10
1027.7533118122999
 20
-161.2103458206
 30
0.0
 11
1018.8505336637
 21
-161.2103458206
 31
0.0
  0
LINE
  5
81
  8
0
 62
     0
 10
1027.7533118122999
 20
-161.2103458206
 30
0.0
 11
994.15608996099991
 21
-161.2103458206
 31
0.0
  0
LINE
  5
82
  8
0
 62
     0
 10
985.25331181230001
 20
-161.2103458206
 30
0.0
 11
1018.8505336637
 21
-161.2103458206
 31
0.0
  0
LINE
  5
83
  8
0
 62
     0
 10
985.25331181230001
 20
-161.2103458206
 30
0.0
 11
994.15608996099991
 21
-161.2103458206
 31
0.0
  0
LINE
  5
84
  8
0
 62
     0
 10
985.25331181230001
 20
-161.2103458206
 30
0.0
 11
988.2533118122999
 21
-161.2103458206
 31
0.0
  0
SOLID
  5
85
  8
0
 62
     0
 10
985.25331181230001
 20
-161.2103458206
 30
0.0
 11
991.25331181230001
 21
-159.7103458206
 31
0.0
 12
991.25331181230001
 22
-162.7103458206
 32
0.0
 13
989.75331181230001
 23
-161.2103458206
 33
0.0
  0
LINE
  5
86
  8
0
 62
     0
 10
1027.7533118122999
 20
-161.2103458206
 30
0.0
 11
1024.7533118122999
 21
-161.2103458206
 31
0.0
  0
SOLID
  5
87
  8
0
 62
     0
 10
1027.7533118122999
 20
-161.2103458206
 30
0.0
 11
1021.7533118123
 21
-162.7103458206
 31
0.0
 12
1021.7533118123
 22
-159.7103458206
 32
0.0
 13
1023.2533118123
 23
-161.2103458206
 33
0.0
  0
ENDBLK
  5
88
  8
0
  0
BLOCK
  8
0
  2
*D6
 70
     1
 10
0.0
 20
0.0
 30
0.0
  3
*D6
  1

  0
TEXT
  5
8C
  8
0
 62
     0
 10
1001.2116453046
 20
-179.53319741479999
 30
0.0
 40
5.9972220420999998
  1
%%c5
  0
LINE
  5
8D
  8
0
 62
     0
 10
1019.0033118123
 20
-211.78338227890001
 30
0.0
 11
1019.0033118123
 21
-181.0915307164
 31
0.0
  0
LINE
  5
8E
  8
0
 62
     0
 10
994.00331181230001
 20
-211.78338227890001
 30
0.0
 11
994.00331181230001
 21
-181.0915307164
 31
0.0
  0
LINE
  5
8F
  8
0
 62
     0
 10
1019.0033118123
 20
-181.5915307164
 30
0.0
 11
1015.3227559919
 21
-181.5915307164
 31
0.0
  0
LINE
  5
90
  8
0
 62
     0
 10
1019.0033118123
 20
-181.5915307164
 30
0.0
 11
997.6838676328
 21
-181.5915307164
 31
0.0
  0
LINE
  5
91
  8
0
 62
     0
 10
994.00331181230001
 20
-181.5915307164
 30
0.0
 11
1015.3227559919
 21
-181.5915307164
 31
0.0
  0
LINE
  5
92
  8
0
 62
     0
 10
994.00331181230001
 20
-181.5915307164
 30
0.0
 11
997.6838676328
 21
-181.5915307164
 31
0.0
  0
LINE
  5
93
  8
0
 62
     0
 10
994.00331181230001
 20
-181.5915307164
 30
0.0
 11
991.0033118122999
 21
-181.5915307164
 31
0.0
  0
SOLID
  5
94
  8
0
 62
     0
 10
994.00331181230001
 20
-181.5915307164
 30
0.0
 11
988.00331181230001
 21
-183.0915307164
 31
0.0
 12
988.00331181230001
 22
-180.0915307164
 32
0.0
 13
989.50331181230001
 23
-181.5915307164
 33
0.0
  0
LINE
  5
95
  8
0
 62
     0
 10
1019.0033118123
 20
-181.5915307164
 30
0.0
 11
1022.0033118123
 21
-181.5915307164
 31
0.0
  0
SOLID
  5
96
  8
0
 62
     0
 10
1019.0033118123
 20
-181.5915307164
 30
0.0
 11
1025.0033118122999
 21
-180.0915307164
 31
0.0
 12
1025.0033118122999
 22
-183.0915307164
 32
0.0
 13
1023.5033118123
 23
-181.5915307164
 33
0.0
  0
ENDBLK
  5
97
  8
0
  0
BLOCK
  8
0
  2
*D7
 70
     1
 10
0.0
 20
0.0
 30
0.0
  3
*D7
  1

  0
TEXT
  5
9B
  8
0
 62
     0
 10
822.93119986490001
 20
-108.735508909
 30
0.0
 40
5.9972220420999998
  1
11
 50
90.0
  0
LINE
  5
9C
  8
0
 62
     0
 10
843.98953316649988
 20
-99.707731237199994
 30
0.0
 11
824.4895331665
 21
-99.707731237199994
 31
0.0
  0
LINE
  5
9D
  8
0
 62
     0
 10
844.9895331665
 20
-110.70773123719999
 30
0.0
 11
824.4895331665
 21
-110.70773123719999
 31
0.0
  0
LINE
  5
9E
  8
0
 62
     0
 10
824.98953316649988
 20
-99.707731237199994
 30
0.0
 11
824.98953316649988
 21
-99.707731237199994
 31
0.0
  0
LINE
  5
9F
  8
0
 62
     0
 10
824.98953316649988
 20
-99.707731237199994
 30
0.0
 11
824.98953316649988
 21
-110.70773123719999
 31
0.0
  0
LINE
  5
A0
  8
0
 62
     0
 10
824.98953316649988
 20
-110.70773123719999
 30
0.0
 11
824.98953316649988
 21
-99.707731237199994
 31
0.0
  0
LINE
  5
A1
  8
0
 62
     0
 10
824.98953316649988
 20
-110.70773123719999
 30
0.0
 11
824.98953316649988
 21
-110.70773123719999
 31
0.0
  0
LINE
  5
A2
  8
0
 62
     0
 10
824.98953316649988
 20
-110.70773123719999
 30
0.0
 11
824.98953316649988
 21
-113.70773123719999
 31
0.0
  0
SOLID
  5
A3
  8
0
 62
     0
 10
824.98953316649988
 20
-110.70773123719999
 30
0.0
 11
826.4895331665
 21
-116.70773123719999
 31
0.0
 12
823.48953316649988
 22
-116.70773123719999
 32
0.0
 13
824.98953316649988
 23
-115.20773123719999
 33
0.0
  0
LINE
  5
A4
  8
0
 62
     0
 10
824.98953316649988
 20
-99.707731237199994
 30
0.0
 11
824.98953316649988
 21
-96.707731237199994
 31
0.0
  0
SOLID
  5
A5
  8
0
 62
     0
 10
824.98953316649988
 20
-99.707731237199994
 30
0.0
 11
823.48953316649988
 21
-93.707731237199994
 31
0.0
 12
826.4895331665
 22
-93.707731237199994
 32
0.0
 13
824.98953316649988
 23
-95.207731237199994
 33
0.0
  0
ENDBLK
  5
A6
  8
0
  0
BLOCK
  8
0
  2
*D8
 70
     1
 10
0.0
 20
0.0
 30
0.0
  3
*D8
  1

  0
TEXT
  5
AA
  8
0
 62
     0
 10
822.93119986490001
 20
-181.235508909
 30
0.0
 40
5.9972220420999998
  1
24
 50
90.0
  0
LINE
  5
AB
  8
0
 62
     0
 10
844.9895331665
 20
-165.70773123719999
 30
0.0
 11
824.4895331665
 21
-165.70773123719999
 31
0.0
  0
LINE
  5
AC
  8
0
 62
     0
 10
843.98953316649988
 20
-189.70773123719999
 30
0.0
 11
824.4895331665
 21
-189.70773123719999
 31
0.0
  0
LINE
  5
AD
  8
0
 62
     0
 10
824.98953316649988
 20
-165.70773123719999
 30
0.0
 11
824.98953316649988
 21
-170.6521758936
 31
0.0
  0
LINE
  5
AE
  8
0
 62
     0
 10
824.98953316649988
 20
-165.70773123719999
 30
0.0
 11
824.98953316649988
 21
-184.76328658080001
 31
0.0
  0
LINE
  5
AF
  8
0
 62
     0
 10
824.98953316649988
 20
-189.70773123719999
 30
0.0
 11
824.98953316649988
 21
-170.6521758936
 31
0.0
  0
LINE
  5
B0
  8
0
 62
     0
 10
824.98953316649988
 20
-189.70773123719999
 30
0.0
 11
824.98953316649988
 21
-184.76328658080001
 31
0.0
  0
LINE
  5
B1
  8
0
 62
     0
 10
824.98953316649988
 20
-189.70773123719999
 30
0.0
 11
824.98953316649988
 21
-192.70773123719999
 31
0.0
  0
SOLID
  5
B2
  8
0
 62
     0
 10
824.98953316649988
 20
-189.70773123719999
 30
0.0
 11
826.4895331665
 21
-195.70773123719999
 31
0.0
 12
823.48953316649988
 22
-195.70773123719999
 32
0.0
 13
824.98953316649988
 23
-194.20773123719999
 33
0.0
  0
LINE
  5
B3
  8
0
 62
     0
 10
824.98953316649988
 20
-165.70773123719999
 30
0.0
 11
824.98953316649988
 21
-162.70773123719999
 31
0.0
  0
SOLID
  5
B4
  8
0
 62
     0
 10
824.98953316649988
 20
-165.70773123719999
 30
0.0
 11
823.48953316649988
 21
-159.70773123719999
 31
0.0
 12
826.4895331665
 22
-159.70773123719999
 32
0.0
 13
824.98953316649988
 23
-161.20773123719999
 33
0.0
  0
ENDBLK
  5
B5
  8
0
  0
BLOCK
  8
0
  2
*D9
 70
     1
 10
0.0
 20
0.0
 30
0.0
  3
*D9
  1

  0
TEXT
  5
B9
  8
0
 62
     0
 10
823.04003059410002
 20
-141.735508909
 30
0.0
 40
5.9972220420999998
  1
55
 50
90.0
  0
LINE
  5
BA
  8
0
 62
     0
 10
846.9895331665
 20
-110.70773123719999
 30
0.0
 11
824.59836389570012
 21
-110.70773123719999
 31
0.0
  0
LINE
  5
BB
  8
0
 62
     0
 10
844.9895331665
 20
-165.70773123719999
 30
0.0
 11
824.59836389570012
 21
-165.70773123719999
 31
0.0
  0
LINE
  5
BC
  8
0
 62
     0
 10
825.0983638957
 20
-110.70773123719999
 30
0.0
 11
825.0983638957
 21
-131.1521758936
 31
0.0
  0
LINE
  5
BD
  8
0
 62
     0
 10
825.0983638957
 20
-110.70773123719999
 30
0.0
 11
825.0983638957
 21
-145.26328658080001
 31
0.0
  0
LINE
  5
BE
  8
0
 62
     0
 10
825.0983638957
 20
-165.70773123719999
 30
0.0
 11
825.0983638957
 21
-131.1521758936
 31
0.0
  0
LINE
  5
BF
  8
0
 62
     0
 10
825.0983638957
 20
-165.70773123719999
 30
0.0
 11
825.0983638957
 21
-145.26328658080001
 31
0.0
  0
LINE
  5
C0
  8
0
 62
     0
 10
825.0983638957
 20
-165.70773123719999
 30
0.0
 11
825.0983638957
 21
-162.70773123719999
 31
0.0
  0
SOLID
  5
C1
  8
0
 62
     0
 10
825.0983638957
 20
-165.70773123719999
 30
0.0
 11
823.59836389570023
 21
-159.70773123719999
 31
0.0
 12
826.59836389570012
 22
-159.70773123719999
 32
0.0
 13
825.0983638957
 23
-161.20773123719999
 33
0.0
  0
LINE
  5
C2
  8
0
 62
     0
 10
825.0983638957
 20
-110.70773123719999
 30
0.0
 11
825.0983638957
 21
-113.70773123719999
 31
0.0
  0
SOLID
  5
C3
  8
0
 62
     0
 10
825.0983638957
 20
-110.70773123719999
 30
0.0
 11
826.59836389570012
 21
-116.70773123719999
 31
0.0
 12
823.59836389570023
 22
-116.70773123719999
 32
0.0
 13
825.0983638957
 23
-115.20773123719999
 33
0.0
  0
ENDBLK
  5
C4
  8
0
  0
BLOCK
  8
0
  2
*D10
 70
     1
 10
0.0
 20
0.0
 30
0.0
  3
*D10
  1

  0
TEXT
  5
C9
  8
0
 62
     0
 10
1001.2116453046
 20
-133.15620138470001
 30
0.0
 40
5.9972220420999998
  1
90%%d
 50
360.0
  0
ARC
  5
CA
  8
0
 62
     0
 10
1006.5033118123
 20
-225.28338227890001
 30
0.0
 40
88.952180989599995
 50
130.29004261540001
 51
135.0
  0
ARC
  5
CB
  8
0
 62
     0
 10
1006.5033118123
 20
-225.28338227890001
 30
0.0
 40
88.952180989599995
 50
45.0
 51
49.709957384600003
  0
SOLID
  5
CC
  8
0
 62
     0
 10
1069.4020021914
 20
-162.3846918998
 30
0.0
 11
1074.7053030503
 21
-165.5666724152
 31
0.0
 12
1072.5839827067
 22
-167.68799275870001
 32
0.0
 13
1072.5839827067
 23
-165.5666724152
 33
0.0
  0
SOLID
  5
CD
  8
0
 62
     0
 10
943.60462143330005
 20
-162.3846918998
 30
0.0
 11
940.42264091789991
 21
-167.68799275870001
 31
0.0
 12
938.30132057440005
 22
-165.5666724152
 32
0.0
 13
940.42264091789991
 23
-165.5666724152
 33
0.0
  0
ARC
  5
CE
  8
0
 62
     0
 10
1006.5033118123
 20
-225.28338227890001
 30
0.0
 40
88.952180989599995
 50
45.0
 51
84.247070097199995
  0
ARC
  5
CF
  8
0
 62
     0
 10
1006.5033118123
 20
-225.28338227890001
 30
0.0
 40
88.952180989599995
 50
95.752929902800005
 51
135.0
  0
LINE
  5
D0
  8
0
 62
     0
 10
1030.7642263618
 20
-201.02246772949999
 30
0.0
 11
1072.4129167408
 21
-159.37377735039999
 31
0.0
  0
LINE
  5
D1
  8
0
 62
     0
 10
982.24239726289977
 20
-201.02246772949999
 30
0.0
 11
940.59370688379988
 21
-159.37377735039999
 31
0.0
  0
ENDBLK
  5
D2
  8
0
  0
BLOCK
  8
0
  2
*D11
 70
     1
 10
0.0
 20
0.0
 30
0.0
  3
*D11
  1

  0
TEXT
  5
D9
  8
0
 62
     0
 10
671.73094977309995
 20
-77.649397935699994
 30
0.0
 40
5.9972220420999998
  1
4.5t
  0
LINE
  5
DA
  8
0
 62
     0
 10
664.18406441649995
 20
-98.707731237199994
 30
0.0
 11
664.18406441649995
 21
-79.207731237199994
 31
0.0
  0
LINE
  5
DB
  8
0
 62
     0
 10
659.68406441649995
 20
-98.707731237199994
 30
0.0
 11
659.68406441649995
 21
-79.207731237199994
 31
0.0
  0
LINE
  5
DC
  8
0
 62
     0
 10
664.18406441649995
 20
-79.707731237199994
 30
0.0
 11
689.36983813220002
 21
-79.707731237199994
 31
0.0
  0
LINE
  5
DD
  8
0
 62
     0
 10
664.18406441649995
 20
-79.707731237199994
 30
0.0
 11
668.20317210129986
 21
-79.707731237199994
 31
0.0
  0
LINE
  5
DE
  8
0
 62
     0
 10
659.68406441649995
 20
-79.707731237199994
 30
0.0
 11
689.36983813220002
 21
-79.707731237199994
 31
0.0
  0
LINE
  5
DF
  8
0
 62
     0
 10
659.68406441649995
 20
-79.707731237199994
 30
0.0
 11
668.20317210129986
 21
-79.707731237199994
 31
0.0
  0
LINE
  5
E0
  8
0
 62
     0
 10
659.68406441649995
 20
-79.707731237199994
 30
0.0
 11
656.68406441649995
 21
-79.707731237199994
 31
0.0
  0
SOLID
  5
E1
  8
0
 62
     0
 10
659.68406441649995
 20
-79.707731237199994
 30
0.0
 11
653.68406441650006
 21
-81.207731237200008
 31
0.0
 12
653.68406441650006
 22
-78.207731237200008
 32
0.0
 13
655.18406441649995
 23
-79.707731237199994
 33
0.0
  0
LINE
  5
E2
  8
0
 62
     0
 10
664.18406441649995
 20
-79.707731237199994
 30
0.0
 11
667.18406441649995
 21
-79.707731237199994
 31
0.0
  0
SOLID
  5
E3
  8
0
 62
     0
 10
664.18406441649995
 20
-79.707731237199994
 30
0.0
 11
670.18406441650006
 21
-78.207731237200008
 31
0.0
 12
670.18406441650006
 22
-81.207731237200008
 32
0.0
 13
668.68406441649995
 23
-79.707731237199994
 33
0.0
  0
ENDBLK
  5
E4
  8
0
  0
BLOCK
  8
0
  2
*D12
 70
     1
 10
0.0
 20
0.0
 30
0.0
  3
*D12
  1

  0
TEXT
  5
E9
  8
0
 62
     0
 10
636.62573111489985
 20
-297.8735948465
 30
0.0
 40
5.9972220420999998
  1
16
 50
90.0
  0
LINE
  5
EA
  8
0
 62
     0
 10
657.68406441650006
 20
-286.34581717470002
 30
0.0
 11
638.68406441649995
 21
-286.34581717470002
 31
0.0
  0
LINE
  5
EB
  8
0
 62
     0
 10
657.68406441650006
 20
-302.34581717470002
 30
0.0
 11
638.68406441649995
 21
-302.34581717470002
 31
0.0
  0
LINE
  5
EC
  8
0
 62
     0
 10
639.68406441649995
 20
-286.34581717470002
 30
0.0
 11
639.68406441649995
 21
-287.2902618311
 31
0.0
  0
LINE
  5
ED
  8
0
 62
     0
 10
639.68406441649995
 20
-286.34581717470002
 30
0.0
 11
639.68406441649995
 21
-301.40137251830009
 31
0.0
  0
LINE
  5
EE
  8
0
 62
     0
 10
639.68406441649995
 20
-302.34581717470002
 30
0.0
 11
639.68406441649995
 21
-287.2902618311
 31
0.0
  0
LINE
  5
EF
  8
0
 62
     0
 10
639.68406441649995
 20
-302.34581717470002
 30
0.0
 11
639.68406441649995
 21
-301.40137251830009
 31
0.0
  0
LINE
  5
F0
  8
0
 62
     0
 10
639.68406441649995
 20
-302.34581717470002
 30
0.0
 11
639.68406441649995
 21
-308.34581717470002
 31
0.0
  0
SOLID
  5
F1
  8
0
 62
     0
 10
639.68406441649995
 20
-302.34581717470002
 30
0.0
 11
641.18406441650006
 21
-308.34581717470002
 31
0.0
 12
638.18406441649995
 22
-308.34581717470002
 32
0.0
 13
639.68406441649995
 23
-306.84581717470002
 33
0.0
  0
LINE
  5
F2
  8
0
 62
     0
 10
639.68406441649995
 20
-286.34581717470002
 30
0.0
 11
639.68406441649995
 21
-280.34581717470002
 31
0.0
  0
SOLID
  5
F3
  8
0
 62
     0
 10
639.68406441649995
 20
-286.34581717470002
 30
0.0
 11
638.18406441649995
 21
-280.34581717470002
 31
0.0
 12
641.18406441650006
 22
-280.34581717470002
 32
0.0
 13
639.68406441649995
 23
-281.84581717470002
 33
0.0
  0
ENDBLK
  5
F4
  8
0
  0
BLOCK
  8
0
  2
*D13
 70
     1
 10
0.0
 20
0.0
 30
0.0
  3
*D13
  1

  0
TEXT
  5
F8
  8
0
 62
     0
 10
766.62573111489996
 20
-312.98685525939999
 30
0.0
 40
5.9972220420999998
  1
8
 50
90.0
  0
LINE
  5
F9
  8
0
 62
     0
 10
751.68406441649995
 20
-302.34581717470002
 30
0.0
 11
770.68406441649995
 21
-302.34581717470002
 31
0.0
  0
LINE
  5
FA
  8
0
 62
     0
 10
747.68406441649995
 20
-294.34581717470002
 30
0.0
 11
770.68406441649995
 21
-294.34581717470002
 31
0.0
  0
LINE
  5
FB
  8
0
 62
     0
 10
769.68406441649995
 20
-302.34581717470002
 30
0.0
 11
769.68406441649995
 21
-305.93129991580003
 31
0.0
  0
LINE
  5
FC
  8
0
 62
     0
 10
769.68406441649995
 20
-302.34581717470002
 30
0.0
 11
769.68406441649995
 21
-316.51463293120003
 31
0.0
  0
LINE
  5
FD
  8
0
 62
     0
 10
769.68406441649995
 20
-294.34581717470002
 30
0.0
 11
769.68406441649995
 21
-305.93129991580003
 31
0.0
  0
LINE
  5
FE
  8
0
 62
     0
 10
769.68406441649995
 20
-294.34581717470002
 30
0.0
 11
769.68406441649995
 21
-316.51463293120003
 31
0.0
  0
LINE
  5
FF
  8
0
 62
     0
 10
769.68406441649995
 20
-294.34581717470002
 30
0.0
 11
769.68406441649995
 21
-288.34581717470002
 31
0.0
  0
SOLID
  5
100
  8
0
 62
     0
 10
769.68406441649995
 20
-294.34581717470002
 30
0.0
 11
768.18406441649995
 21
-288.34581717470002
 31
0.0
 12
771.18406441649995
 22
-288.34581717470002
 32
0.0
 13
769.68406441649995
 23
-289.84581717470002
 33
0.0
  0
LINE
  5
101
  8
0
 62
     0
 10
769.68406441649995
 20
-302.34581717470002
 30
0.0
 11
769.68406441649995
 21
-308.34581717470002
 31
0.0
  0
SOLID
  5
102
  8
0
 62
     0
 10
769.68406441649995
 20
-302.34581717470002
 30
0.0
 11
771.18406441649995
 21
-308.34581717470002
 31
0.0
 12
768.18406441649995
 22
-308.34581717470002
 32
0.0
 13
769.68406441649995
 23
-306.84581717470002
 33
0.0
  0
ENDBLK
  5
103
  8
0
  0
BLOCK
  8
0
  2
*D14
 70
     1
 10
0.0
 20
0.0
 30
0.0
  3
*D14
  1

  0
TEXT
  5
107
  8
0
 62
     0
 10
766.62573111489996
 20
-277.3490296622
 30
0.0
 40
5.9972220420999998
  1
8
 50
90.0
  0
LINE
  5
108
  8
0
 62
     0
 10
747.68406441649995
 20
-294.34581717470002
 30
0.0
 11
770.68406441649995
 21
-294.34581717470002
 31
0.0
  0
LINE
  5
109
  8
0
 62
     0
 10
751.68406441649995
 20
-286.34581717470002
 30
0.0
 11
770.68406441649995
 21
-286.34581717470002
 31
0.0
  0
LINE
  5
10A
  8
0
 62
     0
 10
769.68406441649995
 20
-294.34581717470002
 30
0.0
 11
769.68406441649995
 21
-270.29347431859998
 31
0.0
  0
LINE
  5
10B
  8
0
 62
     0
 10
769.68406441649995
 20
-294.34581717470002
 30
0.0
 11
769.68406441649995
 21
-280.87680733399998
 31
0.0
  0
LINE
  5
10C
  8
0
 62
     0
 10
769.68406441649995
 20
-286.34581717470002
 30
0.0
 11
769.68406441649995
 21
-270.29347431859998
 31
0.0
  0
LINE
  5
10D
  8
0
 62
     0
 10
769.68406441649995
 20
-286.34581717470002
 30
0.0
 11
769.68406441649995
 21
-280.87680733399998
 31
0.0
  0
LINE
  5
10E
  8
0
 62
     0
 10
769.68406441649995
 20
-286.34581717470002
 30
0.0
 11
769.68406441649995
 21
-280.34581717470002
 31
0.0
  0
SOLID
  5
10F
  8
0
 62
     0
 10
769.68406441649995
 20
-286.34581717470002
 30
0.0
 11
768.18406441649995
 21
-280.34581717470002
 31
0.0
 12
771.18406441649995
 22
-280.34581717470002
 32
0.0
 13
769.68406441649995
 23
-281.84581717470002
 33
0.0
  0
LINE
  5
110
  8
0
 62
     0
 10
769.68406441649995
 20
-294.34581717470002
 30
0.0
 11
769.68406441649995
 21
-300.34581717470002
 31
0.0
  0
SOLID
  5
111
  8
0
 62
     0
 10
769.68406441649995
 20
-294.34581717470002
 30
0.0
 11
771.18406441649995
 21
-300.34581717470002
 31
0.0
 12
768.18406441649995
 22
-300.34581717470002
 32
0.0
 13
769.68406441649995
 23
-298.84581717470002
 33
0.0
  0
ENDBLK
  5
112
  8
0
  0
BLOCK
  8
0
  2
*D15
 70
     1
 10
0.0
 20
0.0
 30
0.0
  3
*D15
  1

  0
TEXT
  5
116
  8
0
 62
     0
 10
871.53889820479992
 20
-76.649397935699994
 30
0.0
 40
5.9972220420999998
  1
8
  0
LINE
  5
117
  8
0
 62
     0
 10
860.98953316649988
 20
-97.707731237199994
 30
0.0
 11
860.98953316649988
 21
-78.707731237200008
 31
0.0
  0
LINE
  5
118
  8
0
 62
     0
 10
852.98953316649988
 20
-101.70773123719999
 30
0.0
 11
852.98953316649988
 21
-78.707731237200008
 31
0.0
  0
LINE
  5
119
  8
0
 62
     0
 10
860.98953316649988
 20
-79.707731237199994
 30
0.0
 11
878.5944535484
 21
-79.707731237199994
 31
0.0
  0
LINE
  5
11A
  8
0
 62
     0
 10
860.98953316649988
 20
-79.707731237199994
 30
0.0
 11
868.01112053300005
 21
-79.707731237199994
 31
0.0
  0
LINE
  5
11B
  8
0
 62
     0
 10
852.98953316649988
 20
-79.707731237199994
 30
0.0
 11
878.5944535484
 21
-79.707731237199994
 31
0.0
  0
LINE
  5
11C
  8
0
 62
     0
 10
852.98953316649988
 20
-79.707731237199994
 30
0.0
 11
868.01112053300005
 21
-79.707731237199994
 31
0.0
  0
LINE
  5
11D
  8
0
 62
     0
 10
852.98953316649988
 20
-79.707731237199994
 30
0.0
 11
846.9895331665
 21
-79.707731237199994
 31
0.0
  0
SOLID
  5
11E
  8
0
 62
     0
 10
852.98953316649988
 20
-79.707731237199994
 30
0.0
 11
846.9895331665
 21
-81.207731237200008
 31
0.0
 12
846.9895331665
 22
-78.207731237200008
 32
0.0
 13
848.48953316649988
 23
-79.707731237199994
 33
0.0
  0
LINE
  5
11F
  8
0
 62
     0
 10
860.98953316649988
 20
-79.707731237199994
 30
0.0
 11
866.98953316649988
 21
-79.707731237199994
 31
0.0
  0
SOLID
  5
120
  8
0
 62
     0
 10
860.98953316649988
 20
-79.707731237199994
 30
0.0
 11
866.98953316649988
 21
-78.207731237200008
 31
0.0
 12
866.98953316649988
 22
-81.207731237200008
 32
0.0
 13
865.48953316650011
 23
-79.707731237199994
 33
0.0
  0
ENDBLK
  5
121
  8
0
  0
BLOCK
  8
0
  2
*D16
 70
     1
 10
0.0
 20
0.0
 30
0.0
  3
*D16
  1

  0
TEXT
  5
125
  8
0
 62
     0
 10
831.25991463599996
 20
-76.649397935699994
 30
0.0
 40
5.9972220420999998
  1
8
  0
LINE
  5
126
  8
0
 62
     0
 10
852.98953316649988
 20
-101.70773123719999
 30
0.0
 11
852.98953316649988
 21
-78.707731237200008
 31
0.0
  0
LINE
  5
127
  8
0
 62
     0
 10
844.9895331665
 20
-97.707731237199994
 30
0.0
 11
844.9895331665
 21
-78.707731237200008
 31
0.0
  0
LINE
  5
128
  8
0
 62
     0
 10
852.98953316649988
 20
-79.707731237199994
 30
0.0
 11
838.31546997969997
 21
-79.707731237199994
 31
0.0
  0
LINE
  5
129
  8
0
 62
     0
 10
852.98953316649988
 20
-79.707731237199994
 30
0.0
 11
827.73213696419987
 21
-79.707731237199994
 31
0.0
  0
LINE
  5
12A
  8
0
 62
     0
 10
844.9895331665
 20
-79.707731237199994
 30
0.0
 11
838.31546997969997
 21
-79.707731237199994
 31
0.0
  0
LINE
  5
12B
  8
0
 62
     0
 10
844.9895331665
 20
-79.707731237199994
 30
0.0
 11
827.73213696419987
 21
-79.707731237199994
 31
0.0
  0
LINE
  5
12C
  8
0
 62
     0
 10
844.9895331665
 20
-79.707731237199994
 30
0.0
 11
838.9895331665
 21
-79.707731237199994
 31
0.0
  0
SOLID
  5
12D
  8
0
 62
     0
 10
844.9895331665
 20
-79.707731237199994
 30
0.0
 11
838.9895331665
 21
-81.207731237200008
 31
0.0
 12
838.9895331665
 22
-78.207731237200008
 32
0.0
 13
840.48953316649988
 23
-79.707731237199994
 33
0.0
  0
LINE
  5
12E
  8
0
 62
     0
 10
852.98953316649988
 20
-79.707731237199994
 30
0.0
 11
858.98953316649988
 21
-79.707731237199994
 31
0.0
  0
SOLID
  5
12F
  8
0
 62
     0
 10
852.98953316649988
 20
-79.707731237199994
 30
0.0
 11
858.98953316649988
 21
-78.207731237200008
 31
0.0
 12
858.98953316649988
 22
-81.207731237200008
 32
0.0
 13
857.4895331665
 23
-79.707731237199994
 33
0.0
  0
ENDBLK
  5
130
  8
0
  0
BLOCK
  8
0
  2
*D17
 70
     1
 10
0.0
 20
0.0
 30
0.0
  3
*D17
  1

  0
TEXT
  5
14B
  8
0
 62
     0
 10
700.43282382660004
 20
-148.04009779629999
 30
0.0
 40
5.9972220420999998
  1
90%%d
 50
309.86704508079998
  0
ARC
  5
14C
  8
0
 62
     0
 10
664.18406441649995
 20
-185.20773123719999
 30
0.0
 40
48.471914813799998
 50
80.566750139700005
 51
90.0
  0
ARC
  5
14D
  8
0
 62
     0
 10
664.18406441649995
 20
-185.20773123719999
 30
0.0
 40
48.471914813799998
 50
0.0
 51
9.4332498603000001
  0
SOLID
  5
14E
  8
0
 62
     0
 10
712.65597923029986
 20
-185.20773123719999
 30
0.0
 11
714.15597923029998
 21
-191.20773123719999
 31
0.0
 12
711.15597923029986
 22
-191.20773123719999
 32
0.0
 13
712.65597923029986
 23
-189.70773123719999
 33
0.0
  0
SOLID
  5
14F
  8
0
 62
     0
 10
664.18406441649995
 20
-136.7358164234
 30
0.0
 11
658.18406441650006
 21
-138.2358164234
 31
0.0
 12
658.18406441650006
 22
-135.2358164234
 32
0.0
 13
659.68406441649995
 23
-136.7358164234
 33
0.0
  0
ARC
  5
150
  8
0
 62
     0
 10
664.18406441649995
 20
-185.20773123719999
 30
0.0
 40
48.471914813799998
 50
0.0
 51
29.2526313694
  0
ARC
  5
151
  8
0
 62
     0
 10
664.18406441649995
 20
-185.20773123719999
 30
0.0
 40
48.471914813799998
 50
50.481458792299989
 51
90.0
  0
LINE
  5
152
  8
0
 62
     0
 10
745.68406441649995
 20
-185.20773123719999
 30
0.0
 11
708.65597923029986
 21
-185.20773123719999
 31
0.0
  0
LINE
  5
153
  8
0
 62
     0
 10
664.18406441649995
 20
-103.70773123719999
 30
0.0
 11
664.18406441649995
 21
-140.7358164234
 31
0.0
  0
ENDBLK
  5
154
  8
0
  0
BLOCK
  8
0
  2
*D18
 70
     1
 10
0.0
 20
0.0
 30
0.0
  3
*D18
  1

  0
TEXT
  5
158
  8
0
 62
     0
 10
740.65628674469986
 20
-264.28748387320002
 30
0.0
 40
5.9972220420999998
  1
11
  0
LINE
  5
159
  8
0
 62
     0
 10
749.68406441649995
 20
-285.34581717470002
 30
0.0
 11
749.68406441649995
 21
-265.84581717470002
 31
0.0
  0
LINE
  5
15A
  8
0
 62
     0
 10
738.68406441649995
 20
-286.34581717470002
 30
0.0
 11
738.68406441649995
 21
-265.84581717470002
 31
0.0
  0
LINE
  5
15B
  8
0
 62
     0
 10
749.68406441649995
 20
-266.34581717470002
 30
0.0
 11
749.68406441649995
 21
-266.34581717470002
 31
0.0
  0
LINE
  5
15C
  8
0
 62
     0
 10
749.68406441649995
 20
-266.34581717470002
 30
0.0
 11
738.68406441649995
 21
-266.34581717470002
 31
0.0
  0
LINE
  5
15D
  8
0
 62
     0
 10
738.68406441649995
 20
-266.34581717470002
 30
0.0
 11
749.68406441649995
 21
-266.34581717470002
 31
0.0
  0
LINE
  5
15E
  8
0
 62
     0
 10
738.68406441649995
 20
-266.34581717470002
 30
0.0
 11
738.68406441649995
 21
-266.34581717470002
 31
0.0
  0
LINE
  5
15F
  8
0
 62
     0
 10
738.68406441649995
 20
-266.34581717470002
 30
0.0
 11
735.68406441649995
 21
-266.34581717470002
 31
0.0
  0
SOLID
  5
160
  8
0
 62
     0
 10
738.68406441649995
 20
-266.34581717470002
 30
0.0
 11
732.68406441649995
 21
-267.84581717470002
 31
0.0
 12
732.68406441649995
 22
-264.84581717470002
 32
0.0
 13
734.18406441649995
 23
-266.34581717470002
 33
0.0
  0
LINE
  5
161
  8
0
 62
     0
 10
749.68406441649995
 20
-266.34581717470002
 30
0.0
 11
752.68406441649995
 21
-266.34581717470002
 31
0.0
  0
SOLID
  5
162
  8
0
 62
     0
 10
749.68406441649995
 20
-266.34581717470002
 30
0.0
 11
755.68406441649995
 21
-264.84581717470002
 31
0.0
 12
755.68406441649995
 22
-267.84581717470002
 32
0.0
 13
754.18406441649995
 23
-266.34581717470002
 33
0.0
  0
ENDBLK
  5
163
  8
0
  0
BLOCK
  8
0
  2
*D19
 70
     1
 10
0.0
 20
0.0
 30
0.0
  3
*D19
  1

  0
LINE
  5
215
  8
Éíû@É³
 62
     0
 10
1028.327836072024
 20
-203.45885801917581
 30
0.0
 11
1070.285885667862
 21
-161.5008084233377
 31
0.0
  0
LINE
  5
216
  8
Éíû@É³
 62
     0
 10
984.67878755257595
 20
-203.45885801917581
 30
0.0
 11
942.72073795673748
 21
-161.5008084233375
 31
0.0
  0
ARC
  5
217
  8
Éíû@É³
 62
     0
 10
1006.5033118123
 20
-225.28338227890001
 30
0.0
 40
88.952180989599995
 50
48.865446324828419
 51
84.072694495907044
  0
ARC
  5
218
  8
Éíû@É³
 62
     0
 10
1006.5033118123
 20
-225.28338227890001
 30
0.0
 40
88.952180989599995
 50
95.927305504092942
 51
131.13455367517139
  0
SOLID
  5
219
  8
Éíû@É³
 62
     0
 10
1065.701544476919
 20
-157.55699962467619
 30
0.0
 11
1064.3358311830591
 21
-159.01810441180629
 31
0.0
 12
1069.4020021913791
 22
-162.38469189982089
 32
0.0
 13
1069.4020021913791
 23
-162.38469189982089
 33
0.0
  0
SOLID
  5
21A
  8
Éíû@É³
 62
     0
 10
948.67079244154093
 20
-159.01810441180609
 30
0.0
 11
947.305079147681
 21
-157.556999624676
 31
0.0
 12
943.60462143322059
 22
-162.38469189982069
 32
0.0
 13
943.60462143322059
 23
-162.38469189982069
 33
0.0
  0
TEXT
  8
Éíû@É³
  40
5.99722
  5
27C
  62
0
  72
0
  71
0
 10
994.509
 20
-146.946
 30
0.000000
  1
90üï
  0
POINT
  5
21C
  8
Defpoints
 62
     0
 10
1006.5033118123
 20
-225.28338227890001
 30
0.0
  0
POINT
  5
21D
  8
Defpoints
 62
     0
 10
1028.2836418981999
 20
-203.503052193
 30
0.0
  0
POINT
  5
21E
  8
Defpoints
 62
     0
 10
984.72298172640001
 20
-203.503052193
 30
0.0
  0
POINT
  5
21F
  8
Defpoints
 62
     0
 10
1029.5258303558151
 20
-139.3621733563059
 30
0.0
  0
ENDBLK
  5
221
  8
0
  0
BLOCK
  8
0
  2
*U20
 70
     1
 10
0.0
 20
0.0
 30
0.0
  3
*U20
  1

  0
TEXT
  5
223
  8
┌▓È_1
  6
CONTINUOUS
 10
981.70770765352529
 20
-249.7458784563274
 30
0.0
 40
5.9972220420999998
  1
ÄMâéâ~òöègæÕÉ}
  0
ENDBLK
  5
225
  8
0
  0
BLOCK
  8
0
  2
*U21
 70
     1
 10
0.0
 20
0.0
 30
0.0
  3
*U21
  1

  0
TEXT
  5
227
  8
┌▓È_1
  6
CONTINUOUS
 10
1031.2945562647999
 20
-389.59908845432687
 30
0.0
 40
7.1966662884000003
  1
ékî^âAâôâOâï
  0
ENDBLK
  5
229
  8
0
  0
BLOCK
  8
0
  2
*U22
 70
     1
 10
0.0
 20
0.0
 30
0.0
  3
*U22
  1

  0
TEXT
  5
22B
  8
┌▓È_1
  6
CONTINUOUS
 10
1029.3095311023669
 20
-371.85088212310012
 30
0.0
 40
7.1966662884000003
  1
LY-204  90x90
  0
ENDBLK
  5
22D
  8
0
  0
BLOCK
  8
0
  2
*D23
 70
     1
 10
0.0
 20
0.0
 30
0.0
  3
*D23
  1

  0
LINE
  5
22F
  8
Éíû@É³
 62
     0
 10
749.62156441649995
 20
-185.20773123720011
 30
0.0
 11
711.40597923029054
 21
-185.20773123719999
 31
0.0
  0
LINE
  5
230
  8
Éíû@É³
 62
     0
 10
664.18406441649995
 20
-99.770231237200051
 30
0.0
 11
664.18406441650006
 21
-137.98581642340969
 31
0.0
  0
ARC
  5
231
  8
Éíû@É³
 62
     0
 10
664.18406441650006
 20
-185.20773123719999
 30
0.0
 40
48.471914813790342
 50
7.0967803200961814
 51
28.943006793439181
  0
ARC
  5
232
  8
Éíû@É³
 62
     0
 10
664.18406441650006
 20
-185.20773123719999
 30
0.0
 40
48.471914813790342
 50
50.791083368249481
 51
82.903219679903827
  0
SOLID
  5
233
  8
Éíû@É³
 62
     0
 10
713.28271305316832
 20
-179.15734243025031
 30
0.0
 11
711.28654728751565
 21
-179.28112545023319
 31
0.0
 12
712.65597923029043
 22
-185.20773123719999
 32
0.0
 13
712.65597923029043
 23
-185.20773123719999
 33
0.0
  0
SOLID
  5
234
  8
Éíû@É³
 62
     0
 10
670.11067020346695
 20
-138.10524836618441
 30
0.0
 11
670.23445322344969
 21
-136.10908260053171
 31
0.0
 12
664.18406441649995
 22
-136.73581642340969
 32
0.0
 13
664.18406441649995
 23
-136.73581642340969
 33
0.0
  0
TEXT
  8
Éíû@É³
  40
5.99722
  5
27D
  62
0
  72
0
  71
0
 10
689.393
 20
-164.752
 30
0.000000
  1
90üï
  0
POINT
  5
236
  8
Defpoints
 62
     0
 10
664.18406441650006
 20
-185.20773123719999
 30
0.0
  0
POINT
  5
237
  8
Defpoints
 62
     0
 10
749.68406441649984
 20
-185.20773123719999
 30
0.0
  0
POINT
  5
238
  8
Defpoints
 62
     0
 10
664.18406441649995
 20
-99.707731237199994
 30
0.0
  0
POINT
  5
239
  8
Defpoints
 62
     0
 10
688.42002182339525
 20
-143.2298216383823
 30
0.0
  0
ENDBLK
  5
23B
  8
0
  0
BLOCK
  8
0
  2
*U24
 70
     1
 10
0.0
 20
0.0
 30
0.0
  3
*U24
  1

  0
TEXT
  5
23D
  8
┌▓È_1
  6
CONTINUOUS
 10
872.48425972899986
 20
-357.13871502745792
 30
0.0
 40
7.1966662884000003
  1
ò\û╩ÅêùØüFâåâjâNâìâüâbâLÄdÅÒé░
  0
ENDBLK
  5
23F
  8
0
  0
BLOCK
  8
0
  2
*U25
 70
     1
 10
0.0
 20
0.0
 30
0.0
  3
*U25
  1

  0
TEXT
  5
241
  8
┌▓È_1
  6
CONTINUOUS
 10
886.92536717859991
 20
-406.4859833607274
 30
0.0
 40
8.6359998702999992
  1
èöÄ«ë´Äð
  0
ENDBLK
  5
243
  8
0
  0
BLOCK
  8
0
  2
*U26
 70
     1
 10
0.0
 20
0.0
 30
0.0
  3
*U26
  1

  0
TEXT
  5
245
  8
┌▓È_1
  6
CONTINUOUS
 10
872.48425972899986
 20
-383.32821105693711
 30
0.0
 40
4.6749999999999989
  1
 É¦îvü@ü@öÆÉ{ëÛ
  0
ENDBLK
  5
247
  8
0
  0
BLOCK
  8
0
  2
*U27
 70
     1
 10
0.0
 20
0.0
 30
0.0
  3
*U27
  1

  0
TEXT
  5
249
  8
┌▓È_1
  6
CONTINUOUS
 10
872.48425972899986
 20
-391.85194202140411
 30
0.0
 40
4.6749999999999989
  1
 É╗É}ü@ü@ è¦û{
  0
ENDBLK
  5
24B
  8
0
  0
BLOCK
  8
0
  2
*U28
 70
     1
 10
0.0
 20
0.0
 30
0.0
  3
*U28
  1

  0
TEXT
  5
24D
  8
┌▓È_1
  6
CONTINUOUS
 10
873.41503135150003
 20
-366.16209430566801
 30
0.0
 40
4.6749999999999989
  1
ü@ô· ü@òt
  0
ENDBLK
  5
24F
  8
0
  0
BLOCK
  8
0
  2
*U29
 70
     1
 10
0.0
 20
0.0
 30
0.0
  3
*U29
  1

  0
TEXT
  5
251
  8
┌▓È_1
  6
CONTINUOUS
 10
1002.2652586363999
 20
-366.175489969502
 30
0.0
 40
4.6749999999999989
  1
î^öÈ
  0
ENDBLK
  5
253
  8
0
  0
BLOCK
  8
0
  2
*U30
 70
     1
 10
0.0
 20
0.0
 30
0.0
  3
*U30
  1

  0
TEXT
  5
255
  8
┌▓È_1
  6
CONTINUOUS
 10
1002.2652586363999
 20
-383.22295189843601
 30
0.0
 40
4.6749999999999989
  1
òiû╝
  0
ENDBLK
  5
257
  8
0
  0
BLOCK
  8
0
  2
*U31
 70
     1
 10
0.0
 20
0.0
 30
0.0
  3
*U31
  1

  0
TEXT
  5
259
  8
┌▓È_1
  6
CONTINUOUS
 10
1002.2652586363999
 20
-400.17548996950188
 30
0.0
 40
4.6749999999999989
  1
É}öÈ
  0
ENDBLK
  5
25B
  8
0
  0
BLOCK
  8
0
  2
*U32
 70
     1
 10
0.0
 20
0.0
 30
0.0
  3
*U32
  1

  0
TEXT
  5
25D
  8
┌▓È_1
  6
CONTINUOUS
 62
     5
 10
880.85475465285788
 20
-374.56717044779998
 30
0.0
 40
4.6749999999999989
  1
H16.4
  0
ENDBLK
  5
25F
  8
0
  0
BLOCK
  8
0
  2
*U33
 70
     1
 10
0.0
 20
0.0
 30
0.0
  3
*U33
  1

  0
TEXT
  5
261
  8
┌▓È_1
  6
CONTINUOUS
 62
     5
 10
917.68400592189334
 20
-374.85194202140411
 30
0.0
 40
4.6749999999999989
  1
ôS
  0
ENDBLK
  5
263
  8
0
  0
BLOCK
  8
0
  2
*U34
 70
     1
 10
0.0
 20
0.0
 30
0.0
  3
*U34
  1

  0
TEXT
  5
265
  8
┌▓È_1
  6
CONTINUOUS
 62
     5
 10
946.49219120108125
 20
-374.56717044779998
 30
0.0
 40
4.6749999999999989
  1
4.5t
  0
ENDBLK
  5
267
  8
0
  0
BLOCK
  8
0
  2
*U35
 70
     1
 10
0.0
 20
0.0
 30
0.0
  3
*U35
  1

  0
TEXT
  5
269
  8
┌▓È_1
  6
CONTINUOUS
 62
     5
 10
946.27861252087814
 20
-391.56717044779998
 30
0.0
 40
4.6749999999999989
  1
1üF2
  0
ENDBLK
  5
26B
  8
0
  0
BLOCK
  8
0
  2
*U36
 70
     1
 10
0.0
 20
0.0
 30
0.0
  3
*U36
  1

  0
TEXT
  5
26D
  8
┌▓È_1
  6
CONTINUOUS
 10
905.41503135149981
 20
-366.23328719906903
 30
0.0
 40
4.6749999999999989
  1
ü@ìÌ ü@Ä┐
  0
ENDBLK
  5
26F
  8
0
  0
BLOCK
  8
0
  2
*U37
 70
     1
 10
0.0
 20
0.0
 30
0.0
  3
*U37
  1

  0
TEXT
  5
271
  8
┌▓È_1
  6
CONTINUOUS
 10
937.41503135149992
 20
-366.32821105693711
 30
0.0
 40
4.6749999999999989
  1
ü@ö┬ ü@î·
  0
ENDBLK
  5
273
  8
0
  0
BLOCK
  8
0
  2
*U38
 70
     1
 10
0.0
 20
0.0
 30
0.0
  3
*U38
  1

  0
TEXT
  5
275
  8
┌▓È_1
  6
CONTINUOUS
 10
937.41503135149992
 20
-383.30448009246999
 30
0.0
 40
4.6749999999999989
  1
ü@Ä┌ ü@ôx
  0
ENDBLK
  5
277
  8
0
  0
BLOCK
  8
0
  2
*U39
 70
     1
 10
0.0
 20
0.0
 30
0.0
  3
*U39
  1

  0
TEXT
  5
279
  8
┌▓È_1
  6
CONTINUOUS
 10
969.41503135149992
 20
-366.32821105693711
 30
0.0
 40
4.6749999999999989
  1
ü@îƒ ü@ê¾
  0
ENDBLK
  5
27B
  8
0
  0
ENDSEC
  0
SECTION
  2
ENTITIES
  0
DIMENSION
  5
3E
  8
Éíû@É³
  2
*D0
 10
738.68406441649995
 20
-266.39529634140001
 30
0.0
 11
711.18406441649995
 21
-266.39529634140001
 31
0.0
 70
   128
  1
<>
 13
738.68406441649995
 23
-287.34581717470002
 33
0.0
 14
683.68406441649995
 24
-287.34581717470002
 34
0.0
  0
DIMENSION
  5
4D
  8
Éíû@É³
  2
*D1
 10
683.68406441649995
 20
-266.52895519560002
 30
0.0
 11
671.68406441649995
 21
-266.52895519560002
 31
0.0
 70
   128
  1
<>
 13
683.68406441649995
 23
-287.34581717470002
 33
0.0
 14
659.68406441649995
 24
-286.34581717470002
 34
0.0
  0
DIMENSION
  5
5C
  8
Éíû@É³
  2
*D2
 10
639.68406441649995
 20
-99.707731237199994
 30
0.0
 11
639.68406441649995
 21
-144.70773123719999
 31
0.0
 70
   128
  1
<>
 13
659.68406441649995
 23
-99.707731237199994
 33
0.0
 14
664.68406441649995
 24
-189.70773123719999
 34
0.0
 50
90.0
  0
DIMENSION
  5
6B
  8
Éíû@É³
  2
*D3
 10
659.68406441649995
 20
-209.70773123719999
 30
0.0
 11
704.68406441649995
 21
-209.70773123719999
 31
0.0
 70
   128
  1
<>
 13
659.68406441649995
 23
-184.70773123719999
 33
0.0
 14
749.68406441649995
 24
-189.70773123719999
 34
0.0
 50
180.0
  0
DIMENSION
  5
7A
  8
Éíû@É³
  2
*D4
 10
860.98953316649988
 20
-64.832342138100003
 30
0.0
 11
852.98953316649988
 21
-64.832342138100003
 31
0.0
 70
   128
  1
<>
 13
860.98953316649988
 23
-99.707731237199994
 33
0.0
 14
844.9895331665
 24
-99.707731237199994
 34
0.0
  0
DIMENSION
  5
89
  8
Éíû@É³
  2
*D5
 10
1027.7533118122999
 20
-161.2103458206
 30
0.0
 11
1006.5033118123
 21
-161.2103458206
 31
0.0
 70
   128
  1
%%c8.5
 13
1027.7533118122999
 23
-204.03338227890001
 33
0.0
 14
985.25331181230001
 24
-204.03338227890001
 34
0.0
  0
DIMENSION
  5
98
  8
Éíû@É³
  2
*D6
 10
1019.0033118123
 20
-181.5915307164
 30
0.0
 11
1006.5033118123
 21
-181.5915307164
 31
0.0
 70
   128
  1
%%c5
 13
1019.0033118123
 23
-212.78338227890001
 33
0.0
 14
994.00331181230001
 24
-212.78338227890001
 34
0.0
  0
DIMENSION
  5
A7
  8
Éíû@É³
  2
*D7
 10
824.98953316649988
 20
-99.707731237199994
 30
0.0
 11
824.98953316649988
 21
-105.20773123719999
 31
0.0
 70
   128
  1
<>
 13
844.9895331665
 23
-99.707731237199994
 33
0.0
 14
845.9895331665
 24
-110.70773123719999
 34
0.0
 50
90.0
  0
DIMENSION
  5
B6
  8
Éíû@É³
  2
*D8
 10
824.98953316649988
 20
-165.70773123719999
 30
0.0
 11
824.98953316649988
 21
-177.70773123719999
 31
0.0
 70
   128
  1
<>
 13
845.9895331665
 23
-165.70773123719999
 33
0.0
 14
844.9895331665
 24
-189.70773123719999
 34
0.0
 50
90.0
  0
DIMENSION
  5
C5
  8
Éíû@É³
  2
*D9
 10
825.0983638957
 20
-110.70773123719999
 30
0.0
 11
825.0983638957
 21
-138.20773123719999
 31
0.0
 70
   128
  1
<>
 13
847.9895331665
 23
-110.70773123719999
 33
0.0
 14
845.9895331665
 24
-165.70773123719999
 34
0.0
 50
90.0
  0
DIMENSION
  5
D3
  8
Éíû@É³
  2
*D19
 10
1029.5258303558151
 20
-139.3621733563059
 30
0.0
 11
1006.5033118123
 21
-136.3312012893
 31
0.0
 70
   133
  1
<>
 13
984.72298172640001
 23
-203.503052193
 33
0.0
 14
1028.2836418981999
 24
-203.503052193
 34
0.0
 15
1006.5033118123
 25
-225.28338227890001
 35
0.0
1001
ACAD
1000
DSTYLE
1002
{
1070
   271
1070
     0
1002
}
  0
LINE
  5
D5
  8
┌▓È_1
 10
980.55316395350007
 20
-252.3205915888
 30
0.0
 11
1035.1628984009001
 21
-252.3205915888
 31
0.0
  0
INSERT
  5
D6
  8
0
  6
CONTINUOUS
  2
*U20
 10
0.0
 20
0.0
 30
0.0
  0
DIMENSION
  5
E5
  8
Éíû@É³
  2
*D11
 10
664.18406441649995
 20
-79.707731237199994
 30
0.0
 11
678.78650511670003
 21
-79.707731237199994
 31
0.0
 70
   128
  1
<>t
 13
664.18406441649995
 23
-99.707731237199994
 33
0.0
 14
659.68406441649995
 24
-99.707731237199994
 34
0.0
  0
DIMENSION
  5
F5
  8
Éíû@É³
  2
*D12
 10
639.68406441649995
 20
-286.34581717470002
 30
0.0
 11
639.68406441649995
 21
-294.34581717470002
 31
0.0
 70
   128
  1
<>
 13
659.68406441649995
 23
-286.34581717470002
 33
0.0
 14
659.68406441649995
 24
-302.34581717470002
 34
0.0
 50
90.0
  0
DIMENSION
  5
104
  8
Éíû@É³
  2
*D13
 10
769.68406441649995
 20
-302.34581717470002
 30
0.0
 11
769.68406441649995
 21
-311.2229664235
 31
0.0
 70
   128
  1
<>
 13
749.68406441649995
 23
-302.34581717470002
 33
0.0
 14
745.68406441649995
 24
-294.34581717470002
 34
0.0
 50
90.0
  0
DIMENSION
  5
113
  8
Éíû@É³
  2
*D14
 10
769.68406441649995
 20
-294.34581717470002
 30
0.0
 11
769.68406441649995
 21
-275.58514082630001
 31
0.0
 70
   128
  1
<>
 13
745.68406441649995
 23
-294.34581717470002
 33
0.0
 14
749.68406441649995
 24
-286.34581717470002
 34
0.0
 50
90.0
  0
DIMENSION
  5
122
  8
Éíû@É³
  2
*D15
 10
860.98953316649988
 20
-79.707731237199994
 30
0.0
 11
873.30278704070008
 21
-79.707731237199994
 31
0.0
 70
   128
  1
<>
 13
860.98953316649988
 23
-99.707731237199994
 33
0.0
 14
852.98953316649988
 24
-103.70773123719999
 34
0.0
  0
DIMENSION
  5
131
  8
Éíû@É³
  2
*D16
 10
852.98953316649988
 20
-79.707731237199994
 30
0.0
 11
833.02380347190001
 21
-79.707731237199994
 31
0.0
 70
   128
  1
<>
 13
852.98953316649988
 23
-103.70773123719999
 33
0.0
 14
844.9895331665
 24
-99.707731237199994
 34
0.0
  0
LINE
  5
132
  8
┌▓È_1
 10
904.48425972899986
 20
-359.98110363310002
 30
0.0
 11
904.48425972899986
 21
-376.98110363310002
 31
0.0
  0
LINE
  5
133
  8
┌▓È_1
 10
968.48425972899997
 20
-359.98110363310002
 30
0.0
 11
968.48425972899997
 21
-393.98110363310002
 31
0.0
  0
LINE
  5
134
  8
┌▓È_1
 62
     5
 10
976.68360439519995
 20
-399.44482688599999
 30
0.0
 11
976.68360439519995
 21
-402.32482688599993
 31
0.0
  0
LINE
  5
135
  8
┌▓È_1
 62
     5
 10
952.07866246100002
 20
-403.12482688599988
 30
0.0
 11
952.07866246100002
 21
-402.32482688599993
 31
0.0
  0
LINE
  5
136
  8
┌▓È_1
 62
     5
 10
958.73563215789989
 20
-400.44020331399997
 30
0.0
 11
965.13563215789986
 21
-400.44020331399997
 31
0.0
  0
LINE
  5
137
  8
┌▓È_1
 62
     5
 10
965.9937321445999
 20
-402.35534033419992
 30
0.0
 11
965.60877885449986
 21
-402.78052171109999
 31
0.0
  0
ARC
  5
138
  8
┌▓È_1
 62
     5
 10
945.67866246100004
 20
-403.12482688599988
 30
0.0
 40
2.399999999999999
 50
270.0
 51
0.0
  0
LINE
  5
139
  8
┌▓È_1
 62
     5
 10
948.07866246100014
 20
-396.72482688600002
 30
0.0
 11
948.07866246100014
 21
-399.92482688600001
 31
0.0
  0
LINE
  5
13A
  8
┌▓È_1
 62
     5
 10
986.04190989149993
 20
-402.32482688599993
 30
0.0
 11
991.08360439520004
 21
-402.32482688599993
 31
0.0
  0
LINE
  5
13B
  8
┌▓È_1
 62
     5
 10
971.53563215789995
 20
-399.12482688599999
 30
0.0
 11
973.13563215789986
 21
-396.72482688600002
 31
0.0
  0
LINE
  5
13C
  8
┌▓È_1
 62
     5
 10
562.48425972899986
 20
-410.98110363310002
 30
0.0
 11
562.48425972899986
 21
-30.981103633099998
 31
0.0
  0
LINE
  5
13D
  8
┌▓È_1
 10
1000.484259729
 20
-376.98110363310002
 30
0.0
 11
1112.4842597290001
 21
-376.98110363310002
 31
0.0
  0
LINE
  5
13E
  8
┌▓È_1
 62
     5
 10
562.48425972899986
 20
-30.981103633099998
 30
0.0
 11
1112.4842597290001
 21
-30.981103633099998
 31
0.0
  0
LINE
  5
13F
  8
┌▓È_1
 62
     5
 10
562.48425972899986
 20
-410.98110363310002
 30
0.0
 11
1112.4842597290001
 21
-410.98110363310002
 31
0.0
  0
LINE
  5
140
  8
┌▓È_1
 62
     5
 10
1112.4842597290001
 20
-410.98110363310002
 30
0.0
 11
1112.4842597290001
 21
-30.981103633099998
 31
0.0
  0
INSERT
  5
141
  8
0
  6
CONTINUOUS
  2
*U21
 10
0.0
 20
0.0
 30
0.0
  0
LINE
  5
142
  8
┌▓È_1
 10
872.48425972899986
 20
-359.98110363310002
 30
0.0
 11
1112.4842597290001
 21
-359.98110363310002
 31
0.0
  0
LINE
  5
143
  8
┌▓È_1
 10
872.48425972899986
 20
-393.98110363310002
 30
0.0
 11
1112.4842597290001
 21
-393.98110363310002
 31
0.0
  0
LINE
  5
144
  8
┌▓È_1
 62
     5
 10
952.07866246100002
 20
-399.12482688599999
 30
0.0
 11
954.47866246100011
 21
-396.72482688600002
 31
0.0
  0
LINE
  5
145
  8
┌▓È_1
 62
     5
 10
940.87866246099998
 20
-404.7248268859999
 30
0.0
 11
944.87866246100009
 21
-404.7248268859999
 31
0.0
  0
LINE
  5
146
  8
┌▓È_1
 62
     5
 10
973.13563215789986
 20
-396.72482688600002
 30
0.0
 11
958.73563215789989
 21
-396.72482688600002
 31
0.0
  0
LINE
  5
147
  8
┌▓È_1
 62
     5
 10
985.21314736490001
 20
-399.44482688599999
 30
0.0
 11
984.97891656449985
 21
-398.63086066130001
 31
0.0
  0
INSERT
  5
148
  8
0
  6
CONTINUOUS
  2
*U22
 10
0.0
 20
0.0
 30
0.0
  0
DIMENSION
  5
155
  8
Éíû@É³
  2
*D23
 10
688.42002182339525
 20
-143.2298216383823
 30
0.0
 11
701.38790556229969
 21
-154.1368327996999
 31
0.0
 70
   133
  1
<>
 13
664.18406441649995
 23
-99.707731237199994
 33
0.0
 14
749.68406441649995
 24
-185.20773123719999
 34
0.0
 15
664.18406441649995
 25
-185.20773123719999
 35
0.0
1001
ACAD
1000
DSTYLE
1002
{
1070
   271
1070
     0
1002
}
  0
DIMENSION
  5
164
  8
Éíû@É³
  2
*D18
 10
749.68406441649995
 20
-266.34581717470002
 30
0.0
 11
744.18406441649995
 21
-266.34581717470002
 31
0.0
 70
   128
  1
<>
 13
749.68406441649995
 23
-286.34581717470002
 33
0.0
 14
738.68406441649995
 24
-287.34581717470002
 34
0.0
  0
LINE
  5
165
  8
┌▓È_1
 62
     5
 10
986.41024879229997
 20
-403.60482688600001
 30
0.0
 11
991.08360439520004
 21
-403.60482688600001
 31
0.0
  0
LINE
  5
166
  8
┌▓È_1
 62
     5
 10
987.8836043952
 20
-408.7248268859999
 30
0.0
 11
987.2390113189
 21
-406.48482688600001
 31
0.0
  0
LINE
  5
167
  8
┌▓È_1
 62
     5
 10
944.87866246100009
 20
-402.32482688599993
 30
0.0
 11
948.07866246100014
 21
-402.32482688599993
 31
0.0
  0
LINE
  5
168
  8
┌▓È_1
 62
     5
 10
948.07866246100014
 20
-402.32482688599993
 30
0.0
 11
948.07866246100014
 21
-403.12482688599988
 31
0.0
  0
LINE
  5
169
  8
┌▓È_1
 62
     5
 10
976.68360439519995
 20
-399.44482688599999
 30
0.0
 11
980.68147106189986
 21
-399.44482688599999
 31
0.0
  0
LINE
  5
16A
  8
┌▓È_1
 62
     5
 10
952.07866246100002
 20
-399.92482688600001
 30
0.0
 11
952.07866246100002
 21
-399.12482688599999
 31
0.0
  0
LINE
  5
16B
  8
┌▓È_1
 62
     5
 10
954.47866246100011
 20
-399.92482688600001
 30
0.0
 11
952.07866246100002
 21
-399.92482688600001
 31
0.0
  0
LINE
  5
16C
  8
┌▓È_1
 62
     5
 10
976.68360439519995
 20
-403.60482688600001
 30
0.0
 11
981.90173772850005
 21
-403.60482688600001
 31
0.0
  0
LINE
  5
16D
  8
┌▓È_1
 62
     5
 10
939.03689636249999
 20
-402.32482688599993
 30
0.0
 11
940.63689636250001
 21
-402.32482688599993
 31
0.0
  0
ARC
  5
16E
  8
┌▓È_1
 62
     5
 10
962.73563215789977
 20
-399.12482688599999
 30
0.0
 40
8.8000000000000007
 50
270.0
 51
302.54495885400001
  0
LINE
  5
16F
  8
┌▓È_1
 62
     5
 10
952.07866246100002
 20
-402.32482688599993
 30
0.0
 11
954.47866246100011
 21
-402.32482688599993
 31
0.0
  0
ARC
  5
170
  8
┌▓È_1
 62
     5
 10
960.65563215789984
 20
-399.44482688599999
 30
0.0
 40
6.0800000000000001
 50
331.39928138329998
 51
358.49204224580001
  0
LINE
  5
171
  8
┌▓È_1
 62
     5
 10
958.73563215789989
 20
-407.92482688599989
 30
0.0
 11
962.73563215789977
 21
-407.92482688599989
 31
0.0
  0
LINE
  5
172
  8
┌▓È_1
 62
     5
 10
940.87866246099998
 20
-407.92482688599989
 30
0.0
 11
947.27866246099995
 21
-407.92482688599989
 31
0.0
  0
LINE
  5
173
  8
┌▓È_1
 62
     5
 10
971.53563215789995
 20
-399.12482688599999
 30
0.0
 11
973.13563215789986
 21
-396.72482688600002
 31
0.0
  0
LINE
  5
174
  8
┌▓È_1
 62
     5
 10
979.8836043952
 20
-396.72482688600002
 30
0.0
 11
986.28360439519997
 21
-396.72482688600002
 31
0.0
  0
LINE
  5
175
  8
┌▓È_1
 62
     5
 10
958.73563215789989
 20
-405.52482688599991
 30
0.0
 11
960.65563215789984
 21
-405.52482688599991
 31
0.0
  0
LINE
  5
176
  8
┌▓È_1
 62
     5
 10
958.73563215789989
 20
-405.52482688599991
 30
0.0
 11
958.73563215789989
 21
-407.92482688599989
 31
0.0
  0
INSERT
  5
177
  8
0
  6
CONTINUOUS
  2
*U24
 10
0.0
 20
0.0
 30
0.0
  0
LINE
  5
178
  8
┌▓È_1
 62
     5
 10
969.71598312129993
 20
-404.48343682040002
 30
0.0
 11
969.43101982559995
 21
-404.76244185109988
 31
0.0
  0
LINE
  5
179
  8
┌▓È_1
 62
     5
 10
940.87866246099998
 20
-402.32482688599993
 30
0.0
 11
940.87866246099998
 21
-404.7248268859999
 31
0.0
  0
INSERT
  5
17A
  8
0
  6
CONTINUOUS
  2
*U25
 10
0.0
 20
0.0
 30
0.0
  0
LINE
  5
17B
  8
┌▓È_1
 62
     5
 10
985.21314736490001
 20
-399.44482688599999
 30
0.0
 11
991.08360439520004
 21
-399.44482688599999
 31
0.0
  0
LINE
  5
17C
  8
┌▓È_1
 10
872.48425972899986
 20
-359.98110363310002
 30
0.0
 11
872.48425972899986
 21
-410.98110363310002
 31
0.0
  0
LINE
  5
17D
  8
┌▓È_1
 10
1000.484259729
 20
-359.98110363310002
 30
0.0
 11
1000.484259729
 21
-410.98110363310002
 31
0.0
  0
LINE
  5
17E
  8
┌▓È_1
 62
     5
 10
944.87866246100009
 20
-399.12482688599999
 30
0.0
 11
947.27866246099995
 21
-396.72482688600002
 31
0.0
  0
LINE
  5
17F
  8
┌▓È_1
 62
     5
 10
947.27866246099995
 20
-396.72482688600002
 30
0.0
 11
940.87866246099998
 21
-396.72482688600002
 31
0.0
  0
LINE
  5
180
  8
┌▓È_1
 62
     5
 10
948.07866246100014
 20
-399.92482688600001
 30
0.0
 11
944.87866246100009
 21
-399.92482688600001
 31
0.0
  0
LINE
  5
181
  8
┌▓È_1
 62
     5
 10
984.97891656449985
 20
-398.63086066130001
 30
0.0
 11
986.28360439519997
 21
-396.72482688600002
 31
0.0
  0
ARC
  5
182
  8
┌▓È_1
 62
     5
 10
947.27866246099995
 20
-403.12482688599988
 30
0.0
 40
4.7999999999999989
 50
270.0
 51
0.0
  0
LINE
  5
183
  8
┌▓È_1
 62
     5
 10
958.73563215789989
 20
-396.72482688600002
 30
0.0
 11
958.73563215789989
 21
-399.60482688600001
 31
0.0
  0
LINE
  5
184
  8
┌▓È_1
 62
     5
 10
954.47866246100011
 20
-396.72482688600002
 30
0.0
 11
948.07866246100014
 21
-396.72482688600002
 31
0.0
  0
LINE
  5
185
  8
┌▓È_1
 62
     5
 10
987.2390113189
 20
-406.48482688600001
 30
0.0
 11
991.08360439520004
 21
-406.48482688600001
 31
0.0
  0
LINE
  5
186
  8
┌▓È_1
 62
     5
 10
944.87866246100009
 20
-404.7248268859999
 30
0.0
 11
944.87866246100009
 21
-402.32482688599993
 31
0.0
  0
LINE
  5
187
  8
┌▓È_1
 62
     5
 10
976.68360439519995
 20
-403.60482688600001
 30
0.0
 11
976.68360439519995
 21
-406.48482688600001
 31
0.0
  0
LINE
  5
188
  8
┌▓È_1
 62
     5
 10
976.68360439519995
 20
-402.32482688599993
 30
0.0
 11
981.52627106190005
 21
-402.32482688599993
 31
0.0
  0
LINE
  5
189
  8
┌▓È_1
 62
     5
 10
991.08360439520004
 20
-399.44482688599999
 30
0.0
 11
991.08360439520004
 21
-402.32482688599993
 31
0.0
  0
LINE
  5
18A
  8
┌▓È_1
 62
     5
 10
958.73563215789989
 20
-399.60482688600001
 30
0.0
 11
966.73563215789989
 21
-399.60482688600001
 31
0.0
  0
LINE
  5
18B
  8
┌▓È_1
 62
     5
 10
945.67866246100004
 20
-405.52482688599991
 30
0.0
 11
940.87866246099998
 21
-405.52482688599991
 31
0.0
  0
LINE
  5
18C
  8
┌▓È_1
 62
     5
 10
983.40360439519998
 20
-408.7248268859999
 30
0.0
 11
982.7465377284999
 21
-406.48482688600001
 31
0.0
  0
LINE
  5
18D
  8
┌▓È_1
 62
     5
 10
986.41024879229997
 20
-403.60482688600001
 30
0.0
 11
986.04190989149993
 21
-402.32482688599993
 31
0.0
  0
LINE
  5
18E
  8
┌▓È_1
 62
     5
 10
940.87866246099998
 20
-405.52482688599991
 30
0.0
 11
940.87866246099998
 21
-407.92482688599989
 31
0.0
  0
LINE
  5
18F
  8
┌▓È_1
 62
     5
 10
940.87866246099998
 20
-402.32482688599993
 30
0.0
 11
940.63689636250001
 21
-402.32482688599993
 31
0.0
  0
LINE
  5
190
  8
┌▓È_1
 62
     5
 10
981.90173772850005
 20
-403.60482688600001
 30
0.0
 11
981.52627106190005
 21
-402.32482688599993
 31
0.0
  0
LINE
  5
191
  8
┌▓È_1
 62
     5
 10
991.08360439520004
 20
-403.60482688600001
 30
0.0
 11
991.08360439520004
 21
-406.48482688600001
 31
0.0
  0
LINE
  5
192
  8
┌▓È_1
 62
     5
 10
940.87866246099998
 20
-399.92482688600001
 30
0.0
 11
939.03689636249999
 21
-399.92482688600001
 31
0.0
  0
LINE
  5
193
  8
┌▓È_1
 62
     5
 10
958.73563215789989
 20
-407.92482688599989
 30
0.0
 11
958.73563215789989
 21
-405.52482688599991
 31
0.0
  0
LINE
  5
194
  8
┌▓È_1
 62
     5
 10
944.87866246100009
 20
-399.92482688600001
 30
0.0
 11
944.87866246100009
 21
-399.12482688599999
 31
0.0
  0
LINE
  5
195
  8
┌▓È_1
 62
     5
 10
976.68360439519995
 20
-406.48482688600001
 30
0.0
 11
982.7465377284999
 21
-406.48482688600001
 31
0.0
  0
ARC
  5
196
  8
┌▓È_1
 62
     5
 10
962.73563215789977
 20
-399.12482688599999
 30
0.0
 40
8.8000000000000007
 50
322.48761197969998
 51
0.0
  0
LINE
  5
197
  8
┌▓È_1
 62
     5
 10
939.03689636249999
 20
-399.92482688600001
 30
0.0
 11
939.03689636249999
 21
-402.32482688599993
 31
0.0
  0
LINE
  5
198
  8
┌▓È_1
 62
     5
 10
958.73563215789989
 20
-400.955579742
 30
0.0
 11
958.73563215789989
 21
-400.44020331399997
 31
0.0
  0
LINE
  5
199
  8
┌▓È_1
 62
     5
 10
965.13563215789986
 20
-400.44020331399997
 30
0.0
 11
964.23053547799987
 21
-401.34529999390003
 31
0.0
  0
LINE
  5
19A
  8
┌▓È_1
 10
936.48425972899997
 20
-359.98110363310002
 30
0.0
 11
936.48425972899997
 21
-393.98110363310002
 31
0.0
  0
LINE
  5
19B
  8
┌▓È_1
 10
876.48425972899997
 20
-368.48110363310002
 30
0.0
 11
900.48425972899997
 21
-368.48110363310002
 31
0.0
  0
LINE
  5
19C
  8
┌▓È_1
 10
908.48425972899997
 20
-368.48110363310002
 30
0.0
 11
932.48425972899986
 21
-368.48110363310002
 31
0.0
  0
LINE
  5
19D
  8
┌▓È_1
 10
876.48425972899997
 20
-385.48110363310002
 30
0.0
 11
932.48425972899986
 21
-385.48110363310002
 31
0.0
  0
LINE
  5
19E
  8
┌▓È_1
 10
940.48425972899986
 20
-368.48110363310002
 30
0.0
 11
964.48425972899986
 21
-368.48110363310002
 31
0.0
  0
LINE
  5
19F
  8
┌▓È_1
 10
940.48425972899986
 20
-385.48110363310002
 30
0.0
 11
964.48425972899986
 21
-385.48110363310002
 31
0.0
  0
INSERT
  5
1A0
  8
0
  6
CONTINUOUS
  2
*U26
 10
0.0
 20
0.0
 30
0.0
  0
INSERT
  5
1A1
  8
0
  6
CONTINUOUS
  2
*U27
 10
0.0
 20
0.0
 30
0.0
  0
INSERT
  5
1A2
  8
0
  6
CONTINUOUS
  2
*U28
 10
0.0
 20
0.0
 30
0.0
  0
INSERT
  5
1A3
  8
0
  6
CONTINUOUS
  2
*U29
 10
0.0
 20
0.0
 30
0.0
  0
INSERT
  5
1A4
  8
0
  6
CONTINUOUS
  2
*U30
 10
0.0
 20
0.0
 30
0.0
  0
INSERT
  5
1A5
  8
0
  6
CONTINUOUS
  2
*U31
 10
0.0
 20
0.0
 30
0.0
  0
INSERT
  5
1A6
  8
0
  6
CONTINUOUS
  2
*U32
 10
0.0
 20
0.0
 30
0.0
  0
INSERT
  5
1A7
  8
0
  6
CONTINUOUS
  2
*U33
 10
0.0
 20
0.0
 30
0.0
  0
INSERT
  5
1A8
  8
0
  6
CONTINUOUS
  2
*U34
 10
0.0
 20
0.0
 30
0.0
  0
ARC
  5
1A9
  8
┌▓È_1
 62
     5
 10
960.65563215789984
 20
-399.44482688599999
 30
0.0
 40
6.0800000000000001
 50
270.0
 51
298.08590481520002
  0
INSERT
  5
1AA
  8
0
  6
CONTINUOUS
  2
*U35
 10
0.0
 20
0.0
 30
0.0
  0
INSERT
  5
1AB
  8
0
  6
CONTINUOUS
  2
*U36
 10
0.0
 20
0.0
 30
0.0
  0
INSERT
  5
1AC
  8
0
  6
CONTINUOUS
  2
*U37
 10
0.0
 20
0.0
 30
0.0
  0
INSERT
  5
1AD
  8
0
  6
CONTINUOUS
  2
*U38
 10
0.0
 20
0.0
 30
0.0
  0
LINE
  5
1AE
  8
┌▓È_1
 62
     5
 10
980.68147106189986
 20
-399.44482688599999
 30
0.0
 11
979.8836043952
 21
-396.72482688600002
 31
0.0
  0
LINE
  5
1AF
  8
┌▓È_1
 62
     5
 10
940.87866246099998
 20
-396.72482688600002
 30
0.0
 11
940.87866246099998
 21
-399.92482688600001
 31
0.0
  0
LINE
  5
1B0
  8
┌▓È_1
  6
BORDER
 62
     3
 10
738.68406441649995
 20
-180.70773123719999
 30
0.0
 11
738.68406441649995
 21
-194.70773123719999
 31
0.0
  0
LINE
  5
1B1
  8
┌▓È_1
  6
BORDER
 62
     3
 10
683.68406441649995
 20
-180.70773123719999
 30
0.0
 11
683.68406441649995
 21
-194.70773123719999
 31
0.0
  0
LINE
  5
1B2
  8
┌▓È_1
  6
STITCH
 10
741.18406441649995
 20
-187.70773123719999
 30
0.0
 11
743.68406441649995
 21
-185.20773123719999
 31
0.0
  0
LINE
  5
1B3
  8
┌▓È_1
  6
STITCH
 10
733.68406441649995
 20
-185.20773123719999
 30
0.0
 11
736.18406441649995
 21
-187.70773123719999
 31
0.0
  0
LINE
  5
1B4
  8
┌▓È_1
  6
STITCH
 10
678.68406441650006
 20
-185.20773123719999
 30
0.0
 11
681.18406441649995
 21
-187.70773123719999
 31
0.0
  0
LINE
  5
1B5
  8
┌▓È_1
 62
     5
 10
659.68406441649995
 20
-286.34581717470002
 30
0.0
 11
659.68406441649995
 21
-302.34581717470002
 31
0.0
  0
CIRCLE
  5
1B6
  8
┌▓È_1
 62
     5
 10
683.68406441649995
 20
-294.34581717470002
 30
0.0
 40
2.5
  0
LINE
  5
1B7
  8
┌▓È_1
 62
     5
 10
659.68406441649995
 20
-302.34581717470002
 30
0.0
 11
749.68406441649995
 21
-302.34581717470002
 31
0.0
  0
CIRCLE
  5
1B8
  8
┌▓È_1
 62
     5
 10
738.68406441649995
 20
-294.34581717470002
 30
0.0
 40
2.5
  0
CIRCLE
  5
1B9
  8
┌▓È_1
  6
STITCH
 10
738.68406441649995
 20
-294.34581717470002
 30
0.0
 40
5.0
  0
CIRCLE
  5
1BA
  8
┌▓È_1
  6
STITCH
 10
683.68406441649995
 20
-294.34581717470002
 30
0.0
 40
5.0
  0
LINE
  5
1BB
  8
┌▓È_1
  6
BORDER
 62
     3
 10
731.68406441649995
 20
-294.34581717470002
 30
0.0
 11
745.68406441649995
 21
-294.34581717470002
 31
0.0
  0
LINE
  5
1BC
  8
┌▓È_1
  6
BORDER
 62
     3
 10
738.68406441649995
 20
-287.34581717470002
 30
0.0
 11
738.68406441649995
 21
-301.34581717470002
 31
0.0
  0
LINE
  5
1BD
  8
┌▓È_1
  6
BORDER
 62
     3
 10
683.68406441649995
 20
-287.34581717470002
 30
0.0
 11
683.68406441649995
 21
-301.34581717470002
 31
0.0
  0
LINE
  5
1BE
  8
┌▓È_1
  6
BORDER
 62
     3
 10
676.68406441649995
 20
-294.34581717470002
 30
0.0
 11
690.68406441649995
 21
-294.34581717470002
 31
0.0
  0
POLYLINE
  8
┌▓È_1
  5
27E
  62
5
  66
     1
 10
0.000000
 20
0.000000
 30
0.000000
  70
     8
  0
VERTEX
  8
┌▓È_1
  5
27F
 10
964.231
 20
-401.345
 30
0.000000
  70
    32
  0
VERTEX
  8
┌▓È_1
  5
280
 10
964.241
 20
-401.357
 30
0.000000
  70
    32
  0
VERTEX
  8
┌▓È_1
  5
281
 10
964.252
 20
-401.369
 30
0.000000
  70
    32
  0
VERTEX
  8
┌▓È_1
  5
282
 10
964.262
 20
-401.381
 30
0.000000
  70
    32
  0
VERTEX
  8
┌▓È_1
  5
283
 10
964.273
 20
-401.392
 30
0.000000
  70
    32
  0
VERTEX
  8
┌▓È_1
  5
284
 10
964.283
 20
-401.404
 30
0.000000
  70
    32
  0
VERTEX
  8
┌▓È_1
  5
285
 10
964.294
 20
-401.416
 30
0.000000
  70
    32
  0
VERTEX
  8
┌▓È_1
  5
286
 10
964.304
 20
-401.428
 30
0.000000
  70
    32
  0
VERTEX
  8
┌▓È_1
  5
287
 10
964.315
 20
-401.439
 30
0.000000
  70
    32
  0
VERTEX
  8
┌▓È_1
  5
288
 10
964.326
 20
-401.451
 30
0.000000
  70
    32
  0
VERTEX
  8
┌▓È_1
  5
289
 10
964.336
 20
-401.463
 30
0.000000
  70
    32
  0
VERTEX
  8
┌▓È_1
  5
28A
 10
964.347
 20
-401.475
 30
0.000000
  70
    32
  0
VERTEX
  8
┌▓È_1
  5
28B
 10
964.357
 20
-401.487
 30
0.000000
  70
    32
  0
VERTEX
  8
┌▓È_1
  5
28C
 10
964.368
 20
-401.498
 30
0.000000
  70
    32
  0
VERTEX
  8
┌▓È_1
  5
28D
 10
964.378
 20
-401.510
 30
0.000000
  70
    32
  0
VERTEX
  8
┌▓È_1
  5
28E
 10
964.389
 20
-401.522
 30
0.000000
  70
    32
  0
VERTEX
  8
┌▓È_1
  5
28F
 10
964.400
 20
-401.534
 30
0.000000
  70
    32
  0
VERTEX
  8
┌▓È_1
  5
290
 10
964.410
 20
-401.545
 30
0.000000
  70
    32
  0
VERTEX
  8
┌▓È_1
  5
291
 10
964.421
 20
-401.557
 30
0.000000
  70
    32
  0
VERTEX
  8
┌▓È_1
  5
292
 10
964.431
 20
-401.569
 30
0.000000
  70
    32
  0
VERTEX
  8
┌▓È_1
  5
293
 10
964.442
 20
-401.581
 30
0.000000
  70
    32
  0
VERTEX
  8
┌▓È_1
  5
294
 10
964.452
 20
-401.592
 30
0.000000
  70
    32
  0
VERTEX
  8
┌▓È_1
  5
295
 10
964.463
 20
-401.604
 30
0.000000
  70
    32
  0
VERTEX
  8
┌▓È_1
  5
296
 10
964.474
 20
-401.616
 30
0.000000
  70
    32
  0
VERTEX
  8
┌▓È_1
  5
297
 10
964.484
 20
-401.627
 30
0.000000
  70
    32
  0
VERTEX
  8
┌▓È_1
  5
298
 10
964.495
 20
-401.639
 30
0.000000
  70
    32
  0
VERTEX
  8
┌▓È_1
  5
299
 10
964.505
 20
-401.651
 30
0.000000
  70
    32
  0
VERTEX
  8
┌▓È_1
  5
29A
 10
964.516
 20
-401.663
 30
0.000000
  70
    32
  0
VERTEX
  8
┌▓È_1
  5
29B
 10
964.527
 20
-401.674
 30
0.000000
  70
    32
  0
VERTEX
  8
┌▓È_1
  5
29C
 10
964.537
 20
-401.686
 30
0.000000
  70
    32
  0
VERTEX
  8
┌▓È_1
  5
29D
 10
964.548
 20
-401.698
 30
0.000000
  70
    32
  0
VERTEX
  8
┌▓È_1
  5
29E
 10
964.558
 20
-401.709
 30
0.000000
  70
    32
  0
VERTEX
  8
┌▓È_1
  5
29F
 10
964.569
 20
-401.721
 30
0.000000
  70
    32
  0
VERTEX
  8
┌▓È_1
  5
2A0
 10
964.580
 20
-401.733
 30
0.000000
  70
    32
  0
VERTEX
  8
┌▓È_1
  5
2A1
 10
964.590
 20
-401.744
 30
0.000000
  70
    32
  0
VERTEX
  8
┌▓È_1
  5
2A2
 10
964.601
 20
-401.756
 30
0.000000
  70
    32
  0
VERTEX
  8
┌▓È_1
  5
2A3
 10
964.612
 20
-401.768
 30
0.000000
  70
    32
  0
VERTEX
  8
┌▓È_1
  5
2A4
 10
964.622
 20
-401.779
 30
0.000000
  70
    32
  0
VERTEX
  8
┌▓È_1
  5
2A5
 10
964.633
 20
-401.791
 30
0.000000
  70
    32
  0
VERTEX
  8
┌▓È_1
  5
2A6
 10
964.643
 20
-401.803
 30
0.000000
  70
    32
  0
VERTEX
  8
┌▓È_1
  5
2A7
 10
964.654
 20
-401.814
 30
0.000000
  70
    32
  0
VERTEX
  8
┌▓È_1
  5
2A8
 10
964.665
 20
-401.826
 30
0.000000
  70
    32
  0
VERTEX
  8
┌▓È_1
  5
2A9
 10
964.675
 20
-401.838
 30
0.000000
  70
    32
  0
VERTEX
  8
┌▓È_1
  5
2AA
 10
964.686
 20
-401.849
 30
0.000000
  70
    32
  0
VERTEX
  8
┌▓È_1
  5
2AB
 10
964.697
 20
-401.861
 30
0.000000
  70
    32
  0
VERTEX
  8
┌▓È_1
  5
2AC
 10
964.707
 20
-401.872
 30
0.000000
  70
    32
  0
VERTEX
  8
┌▓È_1
  5
2AD
 10
964.718
 20
-401.884
 30
0.000000
  70
    32
  0
VERTEX
  8
┌▓È_1
  5
2AE
 10
964.729
 20
-401.896
 30
0.000000
  70
    32
  0
VERTEX
  8
┌▓È_1
  5
2AF
 10
964.739
 20
-401.907
 30
0.000000
  70
    32
  0
VERTEX
  8
┌▓È_1
  5
2B0
 10
964.750
 20
-401.919
 30
0.000000
  70
    32
  0
VERTEX
  8
┌▓È_1
  5
2B1
 10
964.761
 20
-401.930
 30
0.000000
  70
    32
  0
VERTEX
  8
┌▓È_1
  5
2B2
 10
964.771
 20
-401.942
 30
0.000000
  70
    32
  0
VERTEX
  8
┌▓È_1
  5
2B3
 10
964.782
 20
-401.953
 30
0.000000
  70
    32
  0
VERTEX
  8
┌▓È_1
  5
2B4
 10
964.793
 20
-401.965
 30
0.000000
  70
    32
  0
VERTEX
  8
┌▓È_1
  5
2B5
 10
964.804
 20
-401.976
 30
0.000000
  70
    32
  0
VERTEX
  8
┌▓È_1
  5
2B6
 10
964.814
 20
-401.988
 30
0.000000
  70
    32
  0
VERTEX
  8
┌▓È_1
  5
2B7
 10
964.825
 20
-401.999
 30
0.000000
  70
    32
  0
VERTEX
  8
┌▓È_1
  5
2B8
 10
964.836
 20
-402.011
 30
0.000000
  70
    32
  0
VERTEX
  8
┌▓È_1
  5
2B9
 10
964.847
 20
-402.022
 30
0.000000
  70
    32
  0
VERTEX
  8
┌▓È_1
  5
2BA
 10
964.857
 20
-402.034
 30
0.000000
  70
    32
  0
VERTEX
  8
┌▓È_1
  5
2BB
 10
964.868
 20
-402.045
 30
0.000000
  70
    32
  0
VERTEX
  8
┌▓È_1
  5
2BC
 10
964.879
 20
-402.057
 30
0.000000
  70
    32
  0
VERTEX
  8
┌▓È_1
  5
2BD
 10
964.890
 20
-402.068
 30
0.000000
  70
    32
  0
VERTEX
  8
┌▓È_1
  5
2BE
 10
964.900
 20
-402.080
 30
0.000000
  70
    32
  0
VERTEX
  8
┌▓È_1
  5
2BF
 10
964.911
 20
-402.091
 30
0.000000
  70
    32
  0
VERTEX
  8
┌▓È_1
  5
2C0
 10
964.922
 20
-402.103
 30
0.000000
  70
    32
  0
VERTEX
  8
┌▓È_1
  5
2C1
 10
964.933
 20
-402.114
 30
0.000000
  70
    32
  0
VERTEX
  8
┌▓È_1
  5
2C2
 10
964.943
 20
-402.125
 30
0.000000
  70
    32
  0
VERTEX
  8
┌▓È_1
  5
2C3
 10
964.954
 20
-402.137
 30
0.000000
  70
    32
  0
VERTEX
  8
┌▓È_1
  5
2C4
 10
964.965
 20
-402.148
 30
0.000000
  70
    32
  0
VERTEX
  8
┌▓È_1
  5
2C5
 10
964.976
 20
-402.159
 30
0.000000
  70
    32
  0
VERTEX
  8
┌▓È_1
  5
2C6
 10
964.987
 20
-402.171
 30
0.000000
  70
    32
  0
VERTEX
  8
┌▓È_1
  5
2C7
 10
964.998
 20
-402.182
 30
0.000000
  70
    32
  0
VERTEX
  8
┌▓È_1
  5
2C8
 10
965.008
 20
-402.193
 30
0.000000
  70
    32
  0
VERTEX
  8
┌▓È_1
  5
2C9
 10
965.019
 20
-402.205
 30
0.000000
  70
    32
  0
VERTEX
  8
┌▓È_1
  5
2CA
 10
965.030
 20
-402.216
 30
0.000000
  70
    32
  0
VERTEX
  8
┌▓È_1
  5
2CB
 10
965.041
 20
-402.227
 30
0.000000
  70
    32
  0
VERTEX
  8
┌▓È_1
  5
2CC
 10
965.052
 20
-402.238
 30
0.000000
  70
    32
  0
VERTEX
  8
┌▓È_1
  5
2CD
 10
965.063
 20
-402.250
 30
0.000000
  70
    32
  0
VERTEX
  8
┌▓È_1
  5
2CE
 10
965.074
 20
-402.261
 30
0.000000
  70
    32
  0
VERTEX
  8
┌▓È_1
  5
2CF
 10
965.085
 20
-402.272
 30
0.000000
  70
    32
  0
VERTEX
  8
┌▓È_1
  5
2D0
 10
965.095
 20
-402.283
 30
0.000000
  70
    32
  0
VERTEX
  8
┌▓È_1
  5
2D1
 10
965.106
 20
-402.295
 30
0.000000
  70
    32
  0
VERTEX
  8
┌▓È_1
  5
2D2
 10
965.117
 20
-402.306
 30
0.000000
  70
    32
  0
VERTEX
  8
┌▓È_1
  5
2D3
 10
965.128
 20
-402.317
 30
0.000000
  70
    32
  0
VERTEX
  8
┌▓È_1
  5
2D4
 10
965.139
 20
-402.328
 30
0.000000
  70
    32
  0
VERTEX
  8
┌▓È_1
  5
2D5
 10
965.150
 20
-402.339
 30
0.000000
  70
    32
  0
VERTEX
  8
┌▓È_1
  5
2D6
 10
965.161
 20
-402.350
 30
0.000000
  70
    32
  0
VERTEX
  8
┌▓È_1
  5
2D7
 10
965.172
 20
-402.361
 30
0.000000
  70
    32
  0
VERTEX
  8
┌▓È_1
  5
2D8
 10
965.183
 20
-402.372
 30
0.000000
  70
    32
  0
VERTEX
  8
┌▓È_1
  5
2D9
 10
965.194
 20
-402.384
 30
0.000000
  70
    32
  0
VERTEX
  8
┌▓È_1
  5
2DA
 10
965.205
 20
-402.395
 30
0.000000
  70
    32
  0
VERTEX
  8
┌▓È_1
  5
2DB
 10
965.216
 20
-402.406
 30
0.000000
  70
    32
  0
VERTEX
  8
┌▓È_1
  5
2DC
 10
965.227
 20
-402.417
 30
0.000000
  70
    32
  0
VERTEX
  8
┌▓È_1
  5
2DD
 10
965.238
 20
-402.428
 30
0.000000
  70
    32
  0
VERTEX
  8
┌▓È_1
  5
2DE
 10
965.249
 20
-402.439
 30
0.000000
  70
    32
  0
VERTEX
  8
┌▓È_1
  5
2DF
 10
965.260
 20
-402.450
 30
0.000000
  70
    32
  0
VERTEX
  8
┌▓È_1
  5
2E0
 10
965.271
 20
-402.461
 30
0.000000
  70
    32
  0
VERTEX
  8
┌▓È_1
  5
2E1
 10
965.282
 20
-402.472
 30
0.000000
  70
    32
  0
VERTEX
  8
┌▓È_1
  5
2E2
 10
965.294
 20
-402.482
 30
0.000000
  70
    32
  0
VERTEX
  8
┌▓È_1
  5
2E3
 10
965.305
 20
-402.493
 30
0.000000
  70
    32
  0
VERTEX
  8
┌▓È_1
  5
2E4
 10
965.316
 20
-402.504
 30
0.000000
  70
    32
  0
VERTEX
  8
┌▓È_1
  5
2E5
 10
965.327
 20
-402.515
 30
0.000000
  70
    32
  0
VERTEX
  8
┌▓È_1
  5
2E6
 10
965.338
 20
-402.526
 30
0.000000
  70
    32
  0
VERTEX
  8
┌▓È_1
  5
2E7
 10
965.349
 20
-402.537
 30
0.000000
  70
    32
  0
VERTEX
  8
┌▓È_1
  5
2E8
 10
965.360
 20
-402.548
 30
0.000000
  70
    32
  0
VERTEX
  8
┌▓È_1
  5
2E9
 10
965.371
 20
-402.558
 30
0.000000
  70
    32
  0
VERTEX
  8
┌▓È_1
  5
2EA
 10
965.383
 20
-402.569
 30
0.000000
  70
    32
  0
VERTEX
  8
┌▓È_1
  5
2EB
 10
965.394
 20
-402.580
 30
0.000000
  70
    32
  0
VERTEX
  8
┌▓È_1
  5
2EC
 10
965.405
 20
-402.591
 30
0.000000
  70
    32
  0
VERTEX
  8
┌▓È_1
  5
2ED
 10
965.416
 20
-402.601
 30
0.000000
  70
    32
  0
VERTEX
  8
┌▓È_1
  5
2EE
 10
965.427
 20
-402.612
 30
0.000000
  70
    32
  0
VERTEX
  8
┌▓È_1
  5
2EF
 10
965.439
 20
-402.623
 30
0.000000
  70
    32
  0
VERTEX
  8
┌▓È_1
  5
2F0
 10
965.450
 20
-402.633
 30
0.000000
  70
    32
  0
VERTEX
  8
┌▓È_1
  5
2F1
 10
965.461
 20
-402.644
 30
0.000000
  70
    32
  0
VERTEX
  8
┌▓È_1
  5
2F2
 10
965.472
 20
-402.655
 30
0.000000
  70
    32
  0
VERTEX
  8
┌▓È_1
  5
2F3
 10
965.484
 20
-402.665
 30
0.000000
  70
    32
  0
VERTEX
  8
┌▓È_1
  5
2F4
 10
965.495
 20
-402.676
 30
0.000000
  70
    32
  0
VERTEX
  8
┌▓È_1
  5
2F5
 10
965.506
 20
-402.686
 30
0.000000
  70
    32
  0
VERTEX
  8
┌▓È_1
  5
2F6
 10
965.518
 20
-402.697
 30
0.000000
  70
    32
  0
VERTEX
  8
┌▓È_1
  5
2F7
 10
965.529
 20
-402.707
 30
0.000000
  70
    32
  0
VERTEX
  8
┌▓È_1
  5
2F8
 10
965.540
 20
-402.718
 30
0.000000
  70
    32
  0
VERTEX
  8
┌▓È_1
  5
2F9
 10
965.552
 20
-402.728
 30
0.000000
  70
    32
  0
VERTEX
  8
┌▓È_1
  5
2FA
 10
965.563
 20
-402.739
 30
0.000000
  70
    32
  0
VERTEX
  8
┌▓È_1
  5
2FB
 10
965.575
 20
-402.749
 30
0.000000
  70
    32
  0
VERTEX
  8
┌▓È_1
  5
2FC
 10
965.586
 20
-402.760
 30
0.000000
  70
    32
  0
VERTEX
  8
┌▓È_1
  5
2FD
 10
965.597
 20
-402.770
 30
0.000000
  70
    32
  0
VERTEX
  8
┌▓È_1
  5
2FE
 10
965.609
 20
-402.781
 30
0.000000
  70
    32
  0
SEQEND
  8
┌▓È_1
  5
2FF
  0
POLYLINE
  8
┌▓È_1
  5
300
  62
5
  66
     1
 10
0.000000
 20
0.000000
 30
0.000000
  70
     8
  0
VERTEX
  8
┌▓È_1
  5
301
 10
967.470
 20
-406.543
 30
0.000000
  70
    32
  0
VERTEX
  8
┌▓È_1
  5
302
 10
967.513
 20
-406.557
 30
0.000000
  70
    32
  0
VERTEX
  8
┌▓È_1
  5
303
 10
967.556
 20
-406.570
 30
0.000000
  70
    32
  0
VERTEX
  8
┌▓È_1
  5
304
 10
967.599
 20
-406.584
 30
0.000000
  70
    32
  0
VERTEX
  8
┌▓È_1
  5
305
 10
967.642
 20
-406.597
 30
0.000000
  70
    32
  0
VERTEX
  8
┌▓È_1
  5
306
 10
967.685
 20
-406.611
 30
0.000000
  70
    32
  0
VERTEX
  8
┌▓È_1
  5
307
 10
967.729
 20
-406.624
 30
0.000000
  70
    32
  0
VERTEX
  8
┌▓È_1
  5
308
 10
967.772
 20
-406.638
 30
0.000000
  70
    32
  0
VERTEX
  8
┌▓È_1
  5
309
 10
967.815
 20
-406.651
 30
0.000000
  70
    32
  0
VERTEX
  8
┌▓È_1
  5
30A
 10
967.859
 20
-406.664
 30
0.000000
  70
    32
  0
VERTEX
  8
┌▓È_1
  5
30B
 10
967.902
 20
-406.677
 30
0.000000
  70
    32
  0
VERTEX
  8
┌▓È_1
  5
30C
 10
967.945
 20
-406.690
 30
0.000000
  70
    32
  0
VERTEX
  8
┌▓È_1
  5
30D
 10
967.989
 20
-406.703
 30
0.000000
  70
    32
  0
VERTEX
  8
┌▓È_1
  5
30E
 10
968.032
 20
-406.716
 30
0.000000
  70
    32
  0
VERTEX
  8
┌▓È_1
  5
30F
 10
968.076
 20
-406.729
 30
0.000000
  70
    32
  0
VERTEX
  8
┌▓È_1
  5
310
 10
968.119
 20
-406.742
 30
0.000000
  70
    32
  0
VERTEX
  8
┌▓È_1
  5
311
 10
968.163
 20
-406.755
 30
0.000000
  70
    32
  0
VERTEX
  8
┌▓È_1
  5
312
 10
968.207
 20
-406.768
 30
0.000000
  70
    32
  0
VERTEX
  8
┌▓È_1
  5
313
 10
968.250
 20
-406.780
 30
0.000000
  70
    32
  0
VERTEX
  8
┌▓È_1
  5
314
 10
968.294
 20
-406.793
 30
0.000000
  70
    32
  0
VERTEX
  8
┌▓È_1
  5
315
 10
968.338
 20
-406.805
 30
0.000000
  70
    32
  0
VERTEX
  8
┌▓È_1
  5
316
 10
968.381
 20
-406.818
 30
0.000000
  70
    32
  0
VERTEX
  8
┌▓È_1
  5
317
 10
968.425
 20
-406.830
 30
0.000000
  70
    32
  0
VERTEX
  8
┌▓È_1
  5
318
 10
968.469
 20
-406.843
 30
0.000000
  70
    32
  0
VERTEX
  8
┌▓È_1
  5
319
 10
968.513
 20
-406.855
 30
0.000000
  70
    32
  0
VERTEX
  8
┌▓È_1
  5
31A
 10
968.557
 20
-406.867
 30
0.000000
  70
    32
  0
VERTEX
  8
┌▓È_1
  5
31B
 10
968.601
 20
-406.879
 30
0.000000
  70
    32
  0
VERTEX
  8
┌▓È_1
  5
31C
 10
968.645
 20
-406.892
 30
0.000000
  70
    32
  0
VERTEX
  8
┌▓È_1
  5
31D
 10
968.689
 20
-406.904
 30
0.000000
  70
    32
  0
VERTEX
  8
┌▓È_1
  5
31E
 10
968.733
 20
-406.916
 30
0.000000
  70
    32
  0
VERTEX
  8
┌▓È_1
  5
31F
 10
968.777
 20
-406.928
 30
0.000000
  70
    32
  0
VERTEX
  8
┌▓È_1
  5
320
 10
968.821
 20
-406.940
 30
0.000000
  70
    32
  0
VERTEX
  8
┌▓È_1
  5
321
 10
968.865
 20
-406.952
 30
0.000000
  70
    32
  0
VERTEX
  8
┌▓È_1
  5
322
 10
968.909
 20
-406.963
 30
0.000000
  70
    32
  0
VERTEX
  8
┌▓È_1
  5
323
 10
968.953
 20
-406.975
 30
0.000000
  70
    32
  0
VERTEX
  8
┌▓È_1
  5
324
 10
968.997
 20
-406.987
 30
0.000000
  70
    32
  0
VERTEX
  8
┌▓È_1
  5
325
 10
969.041
 20
-406.999
 30
0.000000
  70
    32
  0
VERTEX
  8
┌▓È_1
  5
326
 10
969.085
 20
-407.010
 30
0.000000
  70
    32
  0
VERTEX
  8
┌▓È_1
  5
327
 10
969.130
 20
-407.022
 30
0.000000
  70
    32
  0
VERTEX
  8
┌▓È_1
  5
328
 10
969.174
 20
-407.033
 30
0.000000
  70
    32
  0
VERTEX
  8
┌▓È_1
  5
329
 10
969.218
 20
-407.045
 30
0.000000
  70
    32
  0
VERTEX
  8
┌▓È_1
  5
32A
 10
969.262
 20
-407.056
 30
0.000000
  70
    32
  0
VERTEX
  8
┌▓È_1
  5
32B
 10
969.307
 20
-407.068
 30
0.000000
  70
    32
  0
VERTEX
  8
┌▓È_1
  5
32C
 10
969.351
 20
-407.079
 30
0.000000
  70
    32
  0
VERTEX
  8
┌▓È_1
  5
32D
 10
969.396
 20
-407.090
 30
0.000000
  70
    32
  0
VERTEX
  8
┌▓È_1
  5
32E
 10
969.440
 20
-407.102
 30
0.000000
  70
    32
  0
VERTEX
  8
┌▓È_1
  5
32F
 10
969.484
 20
-407.113
 30
0.000000
  70
    32
  0
VERTEX
  8
┌▓È_1
  5
330
 10
969.529
 20
-407.124
 30
0.000000
  70
    32
  0
VERTEX
  8
┌▓È_1
  5
331
 10
969.573
 20
-407.135
 30
0.000000
  70
    32
  0
VERTEX
  8
┌▓È_1
  5
332
 10
969.618
 20
-407.146
 30
0.000000
  70
    32
  0
VERTEX
  8
┌▓È_1
  5
333
 10
969.662
 20
-407.157
 30
0.000000
  70
    32
  0
VERTEX
  8
┌▓È_1
  5
334
 10
969.707
 20
-407.168
 30
0.000000
  70
    32
  0
VERTEX
  8
┌▓È_1
  5
335
 10
969.751
 20
-407.179
 30
0.000000
  70
    32
  0
VERTEX
  8
┌▓È_1
  5
336
 10
969.796
 20
-407.190
 30
0.000000
  70
    32
  0
VERTEX
  8
┌▓È_1
  5
337
 10
969.841
 20
-407.201
 30
0.000000
  70
    32
  0
VERTEX
  8
┌▓È_1
  5
338
 10
969.885
 20
-407.212
 30
0.000000
  70
    32
  0
VERTEX
  8
┌▓È_1
  5
339
 10
969.930
 20
-407.223
 30
0.000000
  70
    32
  0
VERTEX
  8
┌▓È_1
  5
33A
 10
969.975
 20
-407.234
 30
0.000000
  70
    32
  0
VERTEX
  8
┌▓È_1
  5
33B
 10
970.019
 20
-407.244
 30
0.000000
  70
    32
  0
VERTEX
  8
┌▓È_1
  5
33C
 10
970.064
 20
-407.255
 30
0.000000
  70
    32
  0
VERTEX
  8
┌▓È_1
  5
33D
 10
970.109
 20
-407.266
 30
0.000000
  70
    32
  0
VERTEX
  8
┌▓È_1
  5
33E
 10
970.154
 20
-407.276
 30
0.000000
  70
    32
  0
VERTEX
  8
┌▓È_1
  5
33F
 10
970.198
 20
-407.287
 30
0.000000
  70
    32
  0
VERTEX
  8
┌▓È_1
  5
340
 10
970.243
 20
-407.297
 30
0.000000
  70
    32
  0
VERTEX
  8
┌▓È_1
  5
341
 10
970.288
 20
-407.308
 30
0.000000
  70
    32
  0
VERTEX
  8
┌▓È_1
  5
342
 10
970.333
 20
-407.318
 30
0.000000
  70
    32
  0
VERTEX
  8
┌▓È_1
  5
343
 10
970.378
 20
-407.329
 30
0.000000
  70
    32
  0
VERTEX
  8
┌▓È_1
  5
344
 10
970.422
 20
-407.339
 30
0.000000
  70
    32
  0
VERTEX
  8
┌▓È_1
  5
345
 10
970.467
 20
-407.350
 30
0.000000
  70
    32
  0
VERTEX
  8
┌▓È_1
  5
346
 10
970.512
 20
-407.360
 30
0.000000
  70
    32
  0
VERTEX
  8
┌▓È_1
  5
347
 10
970.557
 20
-407.370
 30
0.000000
  70
    32
  0
VERTEX
  8
┌▓È_1
  5
348
 10
970.602
 20
-407.381
 30
0.000000
  70
    32
  0
VERTEX
  8
┌▓È_1
  5
349
 10
970.647
 20
-407.391
 30
0.000000
  70
    32
  0
VERTEX
  8
┌▓È_1
  5
34A
 10
970.692
 20
-407.401
 30
0.000000
  70
    32
  0
VERTEX
  8
┌▓È_1
  5
34B
 10
970.737
 20
-407.411
 30
0.000000
  70
    32
  0
VERTEX
  8
┌▓È_1
  5
34C
 10
970.782
 20
-407.422
 30
0.000000
  70
    32
  0
VERTEX
  8
┌▓È_1
  5
34D
 10
970.827
 20
-407.432
 30
0.000000
  70
    32
  0
VERTEX
  8
┌▓È_1
  5
34E
 10
970.872
 20
-407.442
 30
0.000000
  70
    32
  0
VERTEX
  8
┌▓È_1
  5
34F
 10
970.917
 20
-407.452
 30
0.000000
  70
    32
  0
VERTEX
  8
┌▓È_1
  5
350
 10
970.962
 20
-407.462
 30
0.000000
  70
    32
  0
VERTEX
  8
┌▓È_1
  5
351
 10
971.007
 20
-407.472
 30
0.000000
  70
    32
  0
VERTEX
  8
┌▓È_1
  5
352
 10
971.052
 20
-407.482
 30
0.000000
  70
    32
  0
VERTEX
  8
┌▓È_1
  5
353
 10
971.097
 20
-407.492
 30
0.000000
  70
    32
  0
VERTEX
  8
┌▓È_1
  5
354
 10
971.142
 20
-407.502
 30
0.000000
  70
    32
  0
VERTEX
  8
┌▓È_1
  5
355
 10
971.188
 20
-407.512
 30
0.000000
  70
    32
  0
VERTEX
  8
┌▓È_1
  5
356
 10
971.233
 20
-407.522
 30
0.000000
  70
    32
  0
VERTEX
  8
┌▓È_1
  5
357
 10
971.278
 20
-407.532
 30
0.000000
  70
    32
  0
VERTEX
  8
┌▓È_1
  5
358
 10
971.323
 20
-407.542
 30
0.000000
  70
    32
  0
VERTEX
  8
┌▓È_1
  5
359
 10
971.368
 20
-407.551
 30
0.000000
  70
    32
  0
VERTEX
  8
┌▓È_1
  5
35A
 10
971.413
 20
-407.561
 30
0.000000
  70
    32
  0
VERTEX
  8
┌▓È_1
  5
35B
 10
971.458
 20
-407.571
 30
0.000000
  70
    32
  0
VERTEX
  8
┌▓È_1
  5
35C
 10
971.504
 20
-407.581
 30
0.000000
  70
    32
  0
VERTEX
  8
┌▓È_1
  5
35D
 10
971.549
 20
-407.591
 30
0.000000
  70
    32
  0
VERTEX
  8
┌▓È_1
  5
35E
 10
971.594
 20
-407.600
 30
0.000000
  70
    32
  0
VERTEX
  8
┌▓È_1
  5
35F
 10
971.639
 20
-407.610
 30
0.000000
  70
    32
  0
VERTEX
  8
┌▓È_1
  5
360
 10
971.685
 20
-407.620
 30
0.000000
  70
    32
  0
VERTEX
  8
┌▓È_1
  5
361
 10
971.730
 20
-407.630
 30
0.000000
  70
    32
  0
VERTEX
  8
┌▓È_1
  5
362
 10
971.775
 20
-407.639
 30
0.000000
  70
    32
  0
VERTEX
  8
┌▓È_1
  5
363
 10
971.820
 20
-407.649
 30
0.000000
  70
    32
  0
VERTEX
  8
┌▓È_1
  5
364
 10
971.866
 20
-407.659
 30
0.000000
  70
    32
  0
VERTEX
  8
┌▓È_1
  5
365
 10
971.911
 20
-407.668
 30
0.000000
  70
    32
  0
VERTEX
  8
┌▓È_1
  5
366
 10
971.956
 20
-407.678
 30
0.000000
  70
    32
  0
VERTEX
  8
┌▓È_1
  5
367
 10
972.002
 20
-407.688
 30
0.000000
  70
    32
  0
VERTEX
  8
┌▓È_1
  5
368
 10
972.047
 20
-407.697
 30
0.000000
  70
    32
  0
VERTEX
  8
┌▓È_1
  5
369
 10
972.092
 20
-407.707
 30
0.000000
  70
    32
  0
VERTEX
  8
┌▓È_1
  5
36A
 10
972.137
 20
-407.716
 30
0.000000
  70
    32
  0
VERTEX
  8
┌▓È_1
  5
36B
 10
972.183
 20
-407.726
 30
0.000000
  70
    32
  0
VERTEX
  8
┌▓È_1
  5
36C
 10
972.228
 20
-407.735
 30
0.000000
  70
    32
  0
VERTEX
  8
┌▓È_1
  5
36D
 10
972.273
 20
-407.745
 30
0.000000
  70
    32
  0
VERTEX
  8
┌▓È_1
  5
36E
 10
972.319
 20
-407.754
 30
0.000000
  70
    32
  0
VERTEX
  8
┌▓È_1
  5
36F
 10
972.364
 20
-407.764
 30
0.000000
  70
    32
  0
VERTEX
  8
┌▓È_1
  5
370
 10
972.410
 20
-407.773
 30
0.000000
  70
    32
  0
VERTEX
  8
┌▓È_1
  5
371
 10
972.455
 20
-407.783
 30
0.000000
  70
    32
  0
VERTEX
  8
┌▓È_1
  5
372
 10
972.500
 20
-407.792
 30
0.000000
  70
    32
  0
VERTEX
  8
┌▓È_1
  5
373
 10
972.546
 20
-407.802
 30
0.000000
  70
    32
  0
VERTEX
  8
┌▓È_1
  5
374
 10
972.591
 20
-407.811
 30
0.000000
  70
    32
  0
VERTEX
  8
┌▓È_1
  5
375
 10
972.636
 20
-407.821
 30
0.000000
  70
    32
  0
VERTEX
  8
┌▓È_1
  5
376
 10
972.682
 20
-407.830
 30
0.000000
  70
    32
  0
VERTEX
  8
┌▓È_1
  5
377
 10
972.727
 20
-407.840
 30
0.000000
  70
    32
  0
VERTEX
  8
┌▓È_1
  5
378
 10
972.773
 20
-407.849
 30
0.000000
  70
    32
  0
VERTEX
  8
┌▓È_1
  5
379
 10
972.818
 20
-407.859
 30
0.000000
  70
    32
  0
VERTEX
  8
┌▓È_1
  5
37A
 10
972.863
 20
-407.868
 30
0.000000
  70
    32
  0
VERTEX
  8
┌▓È_1
  5
37B
 10
972.909
 20
-407.878
 30
0.000000
  70
    32
  0
VERTEX
  8
┌▓È_1
  5
37C
 10
972.954
 20
-407.887
 30
0.000000
  70
    32
  0
VERTEX
  8
┌▓È_1
  5
37D
 10
972.999
 20
-407.897
 30
0.000000
  70
    32
  0
VERTEX
  8
┌▓È_1
  5
37E
 10
973.045
 20
-407.906
 30
0.000000
  70
    32
  0
VERTEX
  8
┌▓È_1
  5
37F
 10
973.090
 20
-407.915
 30
0.000000
  70
    32
  0
VERTEX
  8
┌▓È_1
  5
380
 10
973.136
 20
-407.925
 30
0.000000
  70
    32
  0
SEQEND
  8
┌▓È_1
  5
381
  0
POLYLINE
  8
┌▓È_1
  5
382
  62
5
  66
     1
 10
0.000000
 20
0.000000
 30
0.000000
  70
     8
  0
VERTEX
  8
┌▓È_1
  5
383
 10
958.736
 20
-400.956
 30
0.000000
  70
    32
  0
VERTEX
  8
┌▓È_1
  5
384
 10
958.764
 20
-400.982
 30
0.000000
  70
    32
  0
VERTEX
  8
┌▓È_1
  5
385
 10
958.793
 20
-401.009
 30
0.000000
  70
    32
  0
VERTEX
  8
┌▓È_1
  5
386
 10
958.822
 20
-401.035
 30
0.000000
  70
    32
  0
VERTEX
  8
┌▓È_1
  5
387
 10
958.851
 20
-401.062
 30
0.000000
  70
    32
  0
VERTEX
  8
┌▓È_1
  5
388
 10
958.880
 20
-401.088
 30
0.000000
  70
    32
  0
VERTEX
  8
┌▓È_1
  5
389
 10
958.909
 20
-401.115
 30
0.000000
  70
    32
  0
VERTEX
  8
┌▓È_1
  5
38A
 10
958.937
 20
-401.141
 30
0.000000
  70
    32
  0
VERTEX
  8
┌▓È_1
  5
38B
 10
958.966
 20
-401.168
 30
0.000000
  70
    32
  0
VERTEX
  8
┌▓È_1
  5
38C
 10
958.995
 20
-401.195
 30
0.000000
  70
    32
  0
VERTEX
  8
┌▓È_1
  5
38D
 10
959.024
 20
-401.221
 30
0.000000
  70
    32
  0
VERTEX
  8
┌▓È_1
  5
38E
 10
959.053
 20
-401.248
 30
0.000000
  70
    32
  0
VERTEX
  8
┌▓È_1
  5
38F
 10
959.082
 20
-401.274
 30
0.000000
  70
    32
  0
VERTEX
  8
┌▓È_1
  5
390
 10
959.110
 20
-401.301
 30
0.000000
  70
    32
  0
VERTEX
  8
┌▓È_1
  5
391
 10
959.139
 20
-401.327
 30
0.000000
  70
    32
  0
VERTEX
  8
┌▓È_1
  5
392
 10
959.168
 20
-401.354
 30
0.000000
  70
    32
  0
VERTEX
  8
┌▓È_1
  5
393
 10
959.197
 20
-401.380
 30
0.000000
  70
    32
  0
VERTEX
  8
┌▓È_1
  5
394
 10
959.226
 20
-401.407
 30
0.000000
  70
    32
  0
VERTEX
  8
┌▓È_1
  5
395
 10
959.255
 20
-401.433
 30
0.000000
  70
    32
  0
VERTEX
  8
┌▓È_1
  5
396
 10
959.284
 20
-401.460
 30
0.000000
  70
    32
  0
VERTEX
  8
┌▓È_1
  5
397
 10
959.312
 20
-401.486
 30
0.000000
  70
    32
  0
VERTEX
  8
┌▓È_1
  5
398
 10
959.341
 20
-401.513
 30
0.000000
  70
    32
  0
VERTEX
  8
┌▓È_1
  5
399
 10
959.370
 20
-401.539
 30
0.000000
  70
    32
  0
VERTEX
  8
┌▓È_1
  5
39A
 10
959.399
 20
-401.565
 30
0.000000
  70
    32
  0
VERTEX
  8
┌▓È_1
  5
39B
 10
959.428
 20
-401.592
 30
0.000000
  70
    32
  0
VERTEX
  8
┌▓È_1
  5
39C
 10
959.457
 20
-401.618
 30
0.000000
  70
    32
  0
VERTEX
  8
┌▓È_1
  5
39D
 10
959.486
 20
-401.645
 30
0.000000
  70
    32
  0
VERTEX
  8
┌▓È_1
  5
39E
 10
959.515
 20
-401.671
 30
0.000000
  70
    32
  0
VERTEX
  8
┌▓È_1
  5
39F
 10
959.544
 20
-401.697
 30
0.000000
  70
    32
  0
VERTEX
  8
┌▓È_1
  5
3A0
 10
959.573
 20
-401.724
 30
0.000000
  70
    32
  0
VERTEX
  8
┌▓È_1
  5
3A1
 10
959.602
 20
-401.750
 30
0.000000
  70
    32
  0
VERTEX
  8
┌▓È_1
  5
3A2
 10
959.630
 20
-401.776
 30
0.000000
  70
    32
  0
VERTEX
  8
┌▓È_1
  5
3A3
 10
959.659
 20
-401.803
 30
0.000000
  70
    32
  0
VERTEX
  8
┌▓È_1
  5
3A4
 10
959.688
 20
-401.829
 30
0.000000
  70
    32
  0
VERTEX
  8
┌▓È_1
  5
3A5
 10
959.717
 20
-401.855
 30
0.000000
  70
    32
  0
VERTEX
  8
┌▓È_1
  5
3A6
 10
959.746
 20
-401.881
 30
0.000000
  70
    32
  0
VERTEX
  8
┌▓È_1
  5
3A7
 10
959.775
 20
-401.908
 30
0.000000
  70
    32
  0
VERTEX
  8
┌▓È_1
  5
3A8
 10
959.804
 20
-401.934
 30
0.000000
  70
    32
  0
VERTEX
  8
┌▓È_1
  5
3A9
 10
959.833
 20
-401.960
 30
0.000000
  70
    32
  0
VERTEX
  8
┌▓È_1
  5
3AA
 10
959.863
 20
-401.986
 30
0.000000
  70
    32
  0
VERTEX
  8
┌▓È_1
  5
3AB
 10
959.892
 20
-402.012
 30
0.000000
  70
    32
  0
VERTEX
  8
┌▓È_1
  5
3AC
 10
959.921
 20
-402.038
 30
0.000000
  70
    32
  0
VERTEX
  8
┌▓È_1
  5
3AD
 10
959.950
 20
-402.064
 30
0.000000
  70
    32
  0
VERTEX
  8
┌▓È_1
  5
3AE
 10
959.979
 20
-402.091
 30
0.000000
  70
    32
  0
VERTEX
  8
┌▓È_1
  5
3AF
 10
960.008
 20
-402.117
 30
0.000000
  70
    32
  0
VERTEX
  8
┌▓È_1
  5
3B0
 10
960.037
 20
-402.143
 30
0.000000
  70
    32
  0
VERTEX
  8
┌▓È_1
  5
3B1
 10
960.066
 20
-402.169
 30
0.000000
  70
    32
  0
VERTEX
  8
┌▓È_1
  5
3B2
 10
960.095
 20
-402.195
 30
0.000000
  70
    32
  0
VERTEX
  8
┌▓È_1
  5
3B3
 10
960.124
 20
-402.220
 30
0.000000
  70
    32
  0
VERTEX
  8
┌▓È_1
  5
3B4
 10
960.154
 20
-402.246
 30
0.000000
  70
    32
  0
VERTEX
  8
┌▓È_1
  5
3B5
 10
960.183
 20
-402.272
 30
0.000000
  70
    32
  0
VERTEX
  8
┌▓È_1
  5
3B6
 10
960.212
 20
-402.298
 30
0.000000
  70
    32
  0
VERTEX
  8
┌▓È_1
  5
3B7
 10
960.241
 20
-402.324
 30
0.000000
  70
    32
  0
VERTEX
  8
┌▓È_1
  5
3B8
 10
960.270
 20
-402.350
 30
0.000000
  70
    32
  0
VERTEX
  8
┌▓È_1
  5
3B9
 10
960.300
 20
-402.376
 30
0.000000
  70
    32
  0
VERTEX
  8
┌▓È_1
  5
3BA
 10
960.329
 20
-402.401
 30
0.000000
  70
    32
  0
VERTEX
  8
┌▓È_1
  5
3BB
 10
960.358
 20
-402.427
 30
0.000000
  70
    32
  0
VERTEX
  8
┌▓È_1
  5
3BC
 10
960.388
 20
-402.453
 30
0.000000
  70
    32
  0
VERTEX
  8
┌▓È_1
  5
3BD
 10
960.417
 20
-402.478
 30
0.000000
  70
    32
  0
VERTEX
  8
┌▓È_1
  5
3BE
 10
960.446
 20
-402.504
 30
0.000000
  70
    32
  0
VERTEX
  8
┌▓È_1
  5
3BF
 10
960.475
 20
-402.530
 30
0.000000
  70
    32
  0
VERTEX
  8
┌▓È_1
  5
3C0
 10
960.505
 20
-402.555
 30
0.000000
  70
    32
  0
VERTEX
  8
┌▓È_1
  5
3C1
 10
960.534
 20
-402.581
 30
0.000000
  70
    32
  0
VERTEX
  8
┌▓È_1
  5
3C2
 10
960.564
 20
-402.606
 30
0.000000
  70
    32
  0
VERTEX
  8
┌▓È_1
  5
3C3
 10
960.593
 20
-402.632
 30
0.000000
  70
    32
  0
VERTEX
  8
┌▓È_1
  5
3C4
 10
960.623
 20
-402.657
 30
0.000000
  70
    32
  0
VERTEX
  8
┌▓È_1
  5
3C5
 10
960.652
 20
-402.682
 30
0.000000
  70
    32
  0
VERTEX
  8
┌▓È_1
  5
3C6
 10
960.681
 20
-402.708
 30
0.000000
  70
    32
  0
VERTEX
  8
┌▓È_1
  5
3C7
 10
960.711
 20
-402.733
 30
0.000000
  70
    32
  0
VERTEX
  8
┌▓È_1
  5
3C8
 10
960.740
 20
-402.758
 30
0.000000
  70
    32
  0
VERTEX
  8
┌▓È_1
  5
3C9
 10
960.770
 20
-402.783
 30
0.000000
  70
    32
  0
VERTEX
  8
┌▓È_1
  5
3CA
 10
960.800
 20
-402.809
 30
0.000000
  70
    32
  0
VERTEX
  8
┌▓È_1
  5
3CB
 10
960.829
 20
-402.834
 30
0.000000
  70
    32
  0
VERTEX
  8
┌▓È_1
  5
3CC
 10
960.859
 20
-402.859
 30
0.000000
  70
    32
  0
VERTEX
  8
┌▓È_1
  5
3CD
 10
960.888
 20
-402.884
 30
0.000000
  70
    32
  0
VERTEX
  8
┌▓È_1
  5
3CE
 10
960.918
 20
-402.909
 30
0.000000
  70
    32
  0
VERTEX
  8
┌▓È_1
  5
3CF
 10
960.948
 20
-402.934
 30
0.000000
  70
    32
  0
VERTEX
  8
┌▓È_1
  5
3D0
 10
960.977
 20
-402.959
 30
0.000000
  70
    32
  0
VERTEX
  8
┌▓È_1
  5
3D1
 10
961.007
 20
-402.984
 30
0.000000
  70
    32
  0
VERTEX
  8
┌▓È_1
  5
3D2
 10
961.037
 20
-403.009
 30
0.000000
  70
    32
  0
VERTEX
  8
┌▓È_1
  5
3D3
 10
961.067
 20
-403.034
 30
0.000000
  70
    32
  0
VERTEX
  8
┌▓È_1
  5
3D4
 10
961.096
 20
-403.058
 30
0.000000
  70
    32
  0
VERTEX
  8
┌▓È_1
  5
3D5
 10
961.126
 20
-403.083
 30
0.000000
  70
    32
  0
VERTEX
  8
┌▓È_1
  5
3D6
 10
961.156
 20
-403.108
 30
0.000000
  70
    32
  0
VERTEX
  8
┌▓È_1
  5
3D7
 10
961.186
 20
-403.132
 30
0.000000
  70
    32
  0
VERTEX
  8
┌▓È_1
  5
3D8
 10
961.216
 20
-403.157
 30
0.000000
  70
    32
  0
VERTEX
  8
┌▓È_1
  5
3D9
 10
961.246
 20
-403.181
 30
0.000000
  70
    32
  0
VERTEX
  8
┌▓È_1
  5
3DA
 10
961.276
 20
-403.206
 30
0.000000
  70
    32
  0
VERTEX
  8
┌▓È_1
  5
3DB
 10
961.306
 20
-403.230
 30
0.000000
  70
    32
  0
VERTEX
  8
┌▓È_1
  5
3DC
 10
961.336
 20
-403.255
 30
0.000000
  70
    32
  0
VERTEX
  8
┌▓È_1
  5
3DD
 10
961.366
 20
-403.279
 30
0.000000
  70
    32
  0
VERTEX
  8
┌▓È_1
  5
3DE
 10
961.396
 20
-403.303
 30
0.000000
  70
    32
  0
VERTEX
  8
┌▓È_1
  5
3DF
 10
961.426
 20
-403.328
 30
0.000000
  70
    32
  0
VERTEX
  8
┌▓È_1
  5
3E0
 10
961.456
 20
-403.352
 30
0.000000
  70
    32
  0
VERTEX
  8
┌▓È_1
  5
3E1
 10
961.486
 20
-403.376
 30
0.000000
  70
    32
  0
VERTEX
  8
┌▓È_1
  5
3E2
 10
961.516
 20
-403.400
 30
0.000000
  70
    32
  0
VERTEX
  8
┌▓È_1
  5
3E3
 10
961.546
 20
-403.424
 30
0.000000
  70
    32
  0
VERTEX
  8
┌▓È_1
  5
3E4
 10
961.576
 20
-403.448
 30
0.000000
  70
    32
  0
VERTEX
  8
┌▓È_1
  5
3E5
 10
961.607
 20
-403.472
 30
0.000000
  70
    32
  0
VERTEX
  8
┌▓È_1
  5
3E6
 10
961.637
 20
-403.496
 30
0.000000
  70
    32
  0
VERTEX
  8
┌▓È_1
  5
3E7
 10
961.667
 20
-403.520
 30
0.000000
  70
    32
  0
VERTEX
  8
┌▓È_1
  5
3E8
 10
961.698
 20
-403.544
 30
0.000000
  70
    32
  0
VERTEX
  8
┌▓È_1
  5
3E9
 10
961.728
 20
-403.567
 30
0.000000
  70
    32
  0
VERTEX
  8
┌▓È_1
  5
3EA
 10
961.758
 20
-403.591
 30
0.000000
  70
    32
  0
VERTEX
  8
┌▓È_1
  5
3EB
 10
961.789
 20
-403.615
 30
0.000000
  70
    32
  0
VERTEX
  8
┌▓È_1
  5
3EC
 10
961.819
 20
-403.638
 30
0.000000
  70
    32
  0
VERTEX
  8
┌▓È_1
  5
3ED
 10
961.850
 20
-403.662
 30
0.000000
  70
    32
  0
VERTEX
  8
┌▓È_1
  5
3EE
 10
961.880
 20
-403.685
 30
0.000000
  70
    32
  0
VERTEX
  8
┌▓È_1
  5
3EF
 10
961.911
 20
-403.708
 30
0.000000
  70
    32
  0
VERTEX
  8
┌▓È_1
  5
3F0
 10
961.941
 20
-403.732
 30
0.000000
  70
    32
  0
VERTEX
  8
┌▓È_1
  5
3F1
 10
961.972
 20
-403.755
 30
0.000000
  70
    32
  0
VERTEX
  8
┌▓È_1
  5
3F2
 10
962.003
 20
-403.778
 30
0.000000
  70
    32
  0
VERTEX
  8
┌▓È_1
  5
3F3
 10
962.033
 20
-403.801
 30
0.000000
  70
    32
  0
VERTEX
  8
┌▓È_1
  5
3F4
 10
962.064
 20
-403.824
 30
0.000000
  70
    32
  0
VERTEX
  8
┌▓È_1
  5
3F5
 10
962.095
 20
-403.847
 30
0.000000
  70
    32
  0
VERTEX
  8
┌▓È_1
  5
3F6
 10
962.126
 20
-403.870
 30
0.000000
  70
    32
  0
VERTEX
  8
┌▓È_1
  5
3F7
 10
962.156
 20
-403.893
 30
0.000000
  70
    32
  0
VERTEX
  8
┌▓È_1
  5
3F8
 10
962.187
 20
-403.916
 30
0.000000
  70
    32
  0
VERTEX
  8
┌▓È_1
  5
3F9
 10
962.218
 20
-403.939
 30
0.000000
  70
    32
  0
VERTEX
  8
┌▓È_1
  5
3FA
 10
962.249
 20
-403.961
 30
0.000000
  70
    32
  0
VERTEX
  8
┌▓È_1
  5
3FB
 10
962.280
 20
-403.984
 30
0.000000
  70
    32
  0
VERTEX
  8
┌▓È_1
  5
3FC
 10
962.311
 20
-404.007
 30
0.000000
  70
    32
  0
VERTEX
  8
┌▓È_1
  5
3FD
 10
962.342
 20
-404.029
 30
0.000000
  70
    32
  0
VERTEX
  8
┌▓È_1
  5
3FE
 10
962.373
 20
-404.051
 30
0.000000
  70
    32
  0
VERTEX
  8
┌▓È_1
  5
3FF
 10
962.404
 20
-404.074
 30
0.000000
  70
    32
  0
VERTEX
  8
┌▓È_1
  5
400
 10
962.435
 20
-404.096
 30
0.000000
  70
    32
  0
VERTEX
  8
┌▓È_1
  5
401
 10
962.466
 20
-404.118
 30
0.000000
  70
    32
  0
VERTEX
  8
┌▓È_1
  5
402
 10
962.498
 20
-404.140
 30
0.000000
  70
    32
  0
VERTEX
  8
┌▓È_1
  5
403
 10
962.529
 20
-404.163
 30
0.000000
  70
    32
  0
VERTEX
  8
┌▓È_1
  5
404
 10
962.560
 20
-404.185
 30
0.000000
  70
    32
  0
VERTEX
  8
┌▓È_1
  5
405
 10
962.591
 20
-404.206
 30
0.000000
  70
    32
  0
VERTEX
  8
┌▓È_1
  5
406
 10
962.623
 20
-404.228
 30
0.000000
  70
    32
  0
VERTEX
  8
┌▓È_1
  5
407
 10
962.654
 20
-404.250
 30
0.000000
  70
    32
  0
VERTEX
  8
┌▓È_1
  5
408
 10
962.686
 20
-404.272
 30
0.000000
  70
    32
  0
VERTEX
  8
┌▓È_1
  5
409
 10
962.717
 20
-404.293
 30
0.000000
  70
    32
  0
VERTEX
  8
┌▓È_1
  5
40A
 10
962.749
 20
-404.315
 30
0.000000
  70
    32
  0
VERTEX
  8
┌▓È_1
  5
40B
 10
962.780
 20
-404.337
 30
0.000000
  70
    32
  0
VERTEX
  8
┌▓È_1
  5
40C
 10
962.812
 20
-404.358
 30
0.000000
  70
    32
  0
VERTEX
  8
┌▓È_1
  5
40D
 10
962.844
 20
-404.379
 30
0.000000
  70
    32
  0
VERTEX
  8
┌▓È_1
  5
40E
 10
962.875
 20
-404.401
 30
0.000000
  70
    32
  0
VERTEX
  8
┌▓È_1
  5
40F
 10
962.907
 20
-404.422
 30
0.000000
  70
    32
  0
VERTEX
  8
┌▓È_1
  5
410
 10
962.939
 20
-404.443
 30
0.000000
  70
    32
  0
VERTEX
  8
┌▓È_1
  5
411
 10
962.971
 20
-404.464
 30
0.000000
  70
    32
  0
VERTEX
  8
┌▓È_1
  5
412
 10
963.002
 20
-404.485
 30
0.000000
  70
    32
  0
VERTEX
  8
┌▓È_1
  5
413
 10
963.034
 20
-404.506
 30
0.000000
  70
    32
  0
VERTEX
  8
┌▓È_1
  5
414
 10
963.066
 20
-404.526
 30
0.000000
  70
    32
  0
VERTEX
  8
┌▓È_1
  5
415
 10
963.098
 20
-404.547
 30
0.000000
  70
    32
  0
VERTEX
  8
┌▓È_1
  5
416
 10
963.130
 20
-404.568
 30
0.000000
  70
    32
  0
VERTEX
  8
┌▓È_1
  5
417
 10
963.162
 20
-404.588
 30
0.000000
  70
    32
  0
VERTEX
  8
┌▓È_1
  5
418
 10
963.194
 20
-404.609
 30
0.000000
  70
    32
  0
VERTEX
  8
┌▓È_1
  5
419
 10
963.227
 20
-404.629
 30
0.000000
  70
    32
  0
VERTEX
  8
┌▓È_1
  5
41A
 10
963.259
 20
-404.649
 30
0.000000
  70
    32
  0
VERTEX
  8
┌▓È_1
  5
41B
 10
963.291
 20
-404.670
 30
0.000000
  70
    32
  0
VERTEX
  8
┌▓È_1
  5
41C
 10
963.323
 20
-404.690
 30
0.000000
  70
    32
  0
VERTEX
  8
┌▓È_1
  5
41D
 10
963.356
 20
-404.710
 30
0.000000
  70
    32
  0
VERTEX
  8
┌▓È_1
  5
41E
 10
963.388
 20
-404.730
 30
0.000000
  70
    32
  0
VERTEX
  8
┌▓È_1
  5
41F
 10
963.420
 20
-404.750
 30
0.000000
  70
    32
  0
VERTEX
  8
┌▓È_1
  5
420
 10
963.453
 20
-404.770
 30
0.000000
  70
    32
  0
VERTEX
  8
┌▓È_1
  5
421
 10
963.485
 20
-404.789
 30
0.000000
  70
    32
  0
VERTEX
  8
┌▓È_1
  5
422
 10
963.518
 20
-404.809
 30
0.000000
  70
    32
  0
SEQEND
  8
┌▓È_1
  5
423
  0
POLYLINE
  8
┌▓È_1
  5
424
  62
5
  66
     1
 10
0.000000
 20
0.000000
 30
0.000000
  70
     8
  0
VERTEX
  8
┌▓È_1
  5
425
 10
969.431
 20
-404.762
 30
0.000000
  70
    32
  0
VERTEX
  8
┌▓È_1
  5
426
 10
969.459
 20
-404.770
 30
0.000000
  70
    32
  0
VERTEX
  8
┌▓È_1
  5
427
 10
969.487
 20
-404.778
 30
0.000000
  70
    32
  0
VERTEX
  8
┌▓È_1
  5
428
 10
969.515
 20
-404.786
 30
0.000000
  70
    32
  0
VERTEX
  8
┌▓È_1
  5
429
 10
969.543
 20
-404.794
 30
0.000000
  70
    32
  0
VERTEX
  8
┌▓È_1
  5
42A
 10
969.571
 20
-404.802
 30
0.000000
  70
    32
  0
VERTEX
  8
┌▓È_1
  5
42B
 10
969.599
 20
-404.809
 30
0.000000
  70
    32
  0
VERTEX
  8
┌▓È_1
  5
42C
 10
969.627
 20
-404.817
 30
0.000000
  70
    32
  0
VERTEX
  8
┌▓È_1
  5
42D
 10
969.656
 20
-404.825
 30
0.000000
  70
    32
  0
VERTEX
  8
┌▓È_1
  5
42E
 10
969.684
 20
-404.832
 30
0.000000
  70
    32
  0
VERTEX
  8
┌▓È_1
  5
42F
 10
969.712
 20
-404.840
 30
0.000000
  70
    32
  0
VERTEX
  8
┌▓È_1
  5
430
 10
969.740
 20
-404.847
 30
0.000000
  70
    32
  0
VERTEX
  8
┌▓È_1
  5
431
 10
969.769
 20
-404.855
 30
0.000000
  70
    32
  0
VERTEX
  8
┌▓È_1
  5
432
 10
969.797
 20
-404.862
 30
0.000000
  70
    32
  0
VERTEX
  8
┌▓È_1
  5
433
 10
969.825
 20
-404.869
 30
0.000000
  70
    32
  0
VERTEX
  8
┌▓È_1
  5
434
 10
969.854
 20
-404.877
 30
0.000000
  70
    32
  0
VERTEX
  8
┌▓È_1
  5
435
 10
969.882
 20
-404.884
 30
0.000000
  70
    32
  0
VERTEX
  8
┌▓È_1
  5
436
 10
969.910
 20
-404.891
 30
0.000000
  70
    32
  0
VERTEX
  8
┌▓È_1
  5
437
 10
969.939
 20
-404.898
 30
0.000000
  70
    32
  0
VERTEX
  8
┌▓È_1
  5
438
 10
969.967
 20
-404.906
 30
0.000000
  70
    32
  0
VERTEX
  8
┌▓È_1
  5
439
 10
969.996
 20
-404.913
 30
0.000000
  70
    32
  0
VERTEX
  8
┌▓È_1
  5
43A
 10
970.024
 20
-404.920
 30
0.000000
  70
    32
  0
VERTEX
  8
┌▓È_1
  5
43B
 10
970.053
 20
-404.927
 30
0.000000
  70
    32
  0
VERTEX
  8
┌▓È_1
  5
43C
 10
970.081
 20
-404.934
 30
0.000000
  70
    32
  0
VERTEX
  8
┌▓È_1
  5
43D
 10
970.110
 20
-404.941
 30
0.000000
  70
    32
  0
VERTEX
  8
┌▓È_1
  5
43E
 10
970.138
 20
-404.948
 30
0.000000
  70
    32
  0
VERTEX
  8
┌▓È_1
  5
43F
 10
970.167
 20
-404.955
 30
0.000000
  70
    32
  0
VERTEX
  8
┌▓È_1
  5
440
 10
970.196
 20
-404.962
 30
0.000000
  70
    32
  0
VERTEX
  8
┌▓È_1
  5
441
 10
970.224
 20
-404.968
 30
0.000000
  70
    32
  0
VERTEX
  8
┌▓È_1
  5
442
 10
970.253
 20
-404.975
 30
0.000000
  70
    32
  0
VERTEX
  8
┌▓È_1
  5
443
 10
970.282
 20
-404.982
 30
0.000000
  70
    32
  0
VERTEX
  8
┌▓È_1
  5
444
 10
970.310
 20
-404.989
 30
0.000000
  70
    32
  0
VERTEX
  8
┌▓È_1
  5
445
 10
970.339
 20
-404.995
 30
0.000000
  70
    32
  0
VERTEX
  8
┌▓È_1
  5
446
 10
970.368
 20
-405.002
 30
0.000000
  70
    32
  0
VERTEX
  8
┌▓È_1
  5
447
 10
970.397
 20
-405.009
 30
0.000000
  70
    32
  0
VERTEX
  8
┌▓È_1
  5
448
 10
970.426
 20
-405.015
 30
0.000000
  70
    32
  0
VERTEX
  8
┌▓È_1
  5
449
 10
970.454
 20
-405.022
 30
0.000000
  70
    32
  0
VERTEX
  8
┌▓È_1
  5
44A
 10
970.483
 20
-405.028
 30
0.000000
  70
    32
  0
VERTEX
  8
┌▓È_1
  5
44B
 10
970.512
 20
-405.035
 30
0.000000
  70
    32
  0
VERTEX
  8
┌▓È_1
  5
44C
 10
970.541
 20
-405.041
 30
0.000000
  70
    32
  0
VERTEX
  8
┌▓È_1
  5
44D
 10
970.570
 20
-405.048
 30
0.000000
  70
    32
  0
VERTEX
  8
┌▓È_1
  5
44E
 10
970.599
 20
-405.054
 30
0.000000
  70
    32
  0
VERTEX
  8
┌▓È_1
  5
44F
 10
970.628
 20
-405.060
 30
0.000000
  70
    32
  0
VERTEX
  8
┌▓È_1
  5
450
 10
970.657
 20
-405.067
 30
0.000000
  70
    32
  0
VERTEX
  8
┌▓È_1
  5
451
 10
970.686
 20
-405.073
 30
0.000000
  70
    32
  0
VERTEX
  8
┌▓È_1
  5
452
 10
970.715
 20
-405.079
 30
0.000000
  70
    32
  0
VERTEX
  8
┌▓È_1
  5
453
 10
970.744
 20
-405.085
 30
0.000000
  70
    32
  0
VERTEX
  8
┌▓È_1
  5
454
 10
970.773
 20
-405.092
 30
0.000000
  70
    32
  0
VERTEX
  8
┌▓È_1
  5
455
 10
970.802
 20
-405.098
 30
0.000000
  70
    32
  0
VERTEX
  8
┌▓È_1
  5
456
 10
970.831
 20
-405.104
 30
0.000000
  70
    32
  0
VERTEX
  8
┌▓È_1
  5
457
 10
970.860
 20
-405.110
 30
0.000000
  70
    32
  0
VERTEX
  8
┌▓È_1
  5
458
 10
970.889
 20
-405.116
 30
0.000000
  70
    32
  0
VERTEX
  8
┌▓È_1
  5
459
 10
970.918
 20
-405.122
 30
0.000000
  70
    32
  0
VERTEX
  8
┌▓È_1
  5
45A
 10
970.947
 20
-405.128
 30
0.000000
  70
    32
  0
VERTEX
  8
┌▓È_1
  5
45B
 10
970.977
 20
-405.134
 30
0.000000
  70
    32
  0
VERTEX
  8
┌▓È_1
  5
45C
 10
971.006
 20
-405.140
 30
0.000000
  70
    32
  0
VERTEX
  8
┌▓È_1
  5
45D
 10
971.035
 20
-405.146
 30
0.000000
  70
    32
  0
VERTEX
  8
┌▓È_1
  5
45E
 10
971.064
 20
-405.152
 30
0.000000
  70
    32
  0
VERTEX
  8
┌▓È_1
  5
45F
 10
971.093
 20
-405.158
 30
0.000000
  70
    32
  0
VERTEX
  8
┌▓È_1
  5
460
 10
971.123
 20
-405.164
 30
0.000000
  70
    32
  0
VERTEX
  8
┌▓È_1
  5
461
 10
971.152
 20
-405.170
 30
0.000000
  70
    32
  0
VERTEX
  8
┌▓È_1
  5
462
 10
971.181
 20
-405.176
 30
0.000000
  70
    32
  0
VERTEX
  8
┌▓È_1
  5
463
 10
971.211
 20
-405.181
 30
0.000000
  70
    32
  0
VERTEX
  8
┌▓È_1
  5
464
 10
971.240
 20
-405.187
 30
0.000000
  70
    32
  0
VERTEX
  8
┌▓È_1
  5
465
 10
971.269
 20
-405.193
 30
0.000000
  70
    32
  0
VERTEX
  8
┌▓È_1
  5
466
 10
971.299
 20
-405.199
 30
0.000000
  70
    32
  0
VERTEX
  8
┌▓È_1
  5
467
 10
971.328
 20
-405.204
 30
0.000000
  70
    32
  0
VERTEX
  8
┌▓È_1
  5
468
 10
971.357
 20
-405.210
 30
0.000000
  70
    32
  0
VERTEX
  8
┌▓È_1
  5
469
 10
971.387
 20
-405.216
 30
0.000000
  70
    32
  0
VERTEX
  8
┌▓È_1
  5
46A
 10
971.416
 20
-405.221
 30
0.000000
  70
    32
  0
VERTEX
  8
┌▓È_1
  5
46B
 10
971.445
 20
-405.227
 30
0.000000
  70
    32
  0
VERTEX
  8
┌▓È_1
  5
46C
 10
971.475
 20
-405.233
 30
0.000000
  70
    32
  0
VERTEX
  8
┌▓È_1
  5
46D
 10
971.504
 20
-405.238
 30
0.000000
  70
    32
  0
VERTEX
  8
┌▓È_1
  5
46E
 10
971.534
 20
-405.244
 30
0.000000
  70
    32
  0
VERTEX
  8
┌▓È_1
  5
46F
 10
971.563
 20
-405.249
 30
0.000000
  70
    32
  0
VERTEX
  8
┌▓È_1
  5
470
 10
971.593
 20
-405.255
 30
0.000000
  70
    32
  0
VERTEX
  8
┌▓È_1
  5
471
 10
971.622
 20
-405.260
 30
0.000000
  70
    32
  0
VERTEX
  8
┌▓È_1
  5
472
 10
971.652
 20
-405.266
 30
0.000000
  70
    32
  0
VERTEX
  8
┌▓È_1
  5
473
 10
971.681
 20
-405.271
 30
0.000000
  70
    32
  0
VERTEX
  8
┌▓È_1
  5
474
 10
971.711
 20
-405.277
 30
0.000000
  70
    32
  0
VERTEX
  8
┌▓È_1
  5
475
 10
971.740
 20
-405.282
 30
0.000000
  70
    32
  0
VERTEX
  8
┌▓È_1
  5
476
 10
971.770
 20
-405.288
 30
0.000000
  70
    32
  0
VERTEX
  8
┌▓È_1
  5
477
 10
971.799
 20
-405.293
 30
0.000000
  70
    32
  0
VERTEX
  8
┌▓È_1
  5
478
 10
971.829
 20
-405.298
 30
0.000000
  70
    32
  0
VERTEX
  8
┌▓È_1
  5
479
 10
971.858
 20
-405.304
 30
0.000000
  70
    32
  0
VERTEX
  8
┌▓È_1
  5
47A
 10
971.888
 20
-405.309
 30
0.000000
  70
    32
  0
VERTEX
  8
┌▓È_1
  5
47B
 10
971.917
 20
-405.314
 30
0.000000
  70
    32
  0
VERTEX
  8
┌▓È_1
  5
47C
 10
971.947
 20
-405.320
 30
0.000000
  70
    32
  0
VERTEX
  8
┌▓È_1
  5
47D
 10
971.977
 20
-405.325
 30
0.000000
  70
    32
  0
VERTEX
  8
┌▓È_1
  5
47E
 10
972.006
 20
-405.330
 30
0.000000
  70
    32
  0
VERTEX
  8
┌▓È_1
  5
47F
 10
972.036
 20
-405.336
 30
0.000000
  70
    32
  0
VERTEX
  8
┌▓È_1
  5
480
 10
972.065
 20
-405.341
 30
0.000000
  70
    32
  0
VERTEX
  8
┌▓È_1
  5
481
 10
972.095
 20
-405.346
 30
0.000000
  70
    32
  0
VERTEX
  8
┌▓È_1
  5
482
 10
972.125
 20
-405.351
 30
0.000000
  70
    32
  0
VERTEX
  8
┌▓È_1
  5
483
 10
972.154
 20
-405.357
 30
0.000000
  70
    32
  0
VERTEX
  8
┌▓È_1
  5
484
 10
972.184
 20
-405.362
 30
0.000000
  70
    32
  0
VERTEX
  8
┌▓È_1
  5
485
 10
972.214
 20
-405.367
 30
0.000000
  70
    32
  0
VERTEX
  8
┌▓È_1
  5
486
 10
972.243
 20
-405.372
 30
0.000000
  70
    32
  0
VERTEX
  8
┌▓È_1
  5
487
 10
972.273
 20
-405.378
 30
0.000000
  70
    32
  0
VERTEX
  8
┌▓È_1
  5
488
 10
972.303
 20
-405.383
 30
0.000000
  70
    32
  0
VERTEX
  8
┌▓È_1
  5
489
 10
972.332
 20
-405.388
 30
0.000000
  70
    32
  0
VERTEX
  8
┌▓È_1
  5
48A
 10
972.362
 20
-405.393
 30
0.000000
  70
    32
  0
VERTEX
  8
┌▓È_1
  5
48B
 10
972.392
 20
-405.398
 30
0.000000
  70
    32
  0
VERTEX
  8
┌▓È_1
  5
48C
 10
972.422
 20
-405.403
 30
0.000000
  70
    32
  0
VERTEX
  8
┌▓È_1
  5
48D
 10
972.451
 20
-405.408
 30
0.000000
  70
    32
  0
VERTEX
  8
┌▓È_1
  5
48E
 10
972.481
 20
-405.414
 30
0.000000
  70
    32
  0
VERTEX
  8
┌▓È_1
  5
48F
 10
972.511
 20
-405.419
 30
0.000000
  70
    32
  0
VERTEX
  8
┌▓È_1
  5
490
 10
972.540
 20
-405.424
 30
0.000000
  70
    32
  0
VERTEX
  8
┌▓È_1
  5
491
 10
972.570
 20
-405.429
 30
0.000000
  70
    32
  0
VERTEX
  8
┌▓È_1
  5
492
 10
972.600
 20
-405.434
 30
0.000000
  70
    32
  0
VERTEX
  8
┌▓È_1
  5
493
 10
972.630
 20
-405.439
 30
0.000000
  70
    32
  0
VERTEX
  8
┌▓È_1
  5
494
 10
972.659
 20
-405.444
 30
0.000000
  70
    32
  0
VERTEX
  8
┌▓È_1
  5
495
 10
972.689
 20
-405.449
 30
0.000000
  70
    32
  0
VERTEX
  8
┌▓È_1
  5
496
 10
972.719
 20
-405.454
 30
0.000000
  70
    32
  0
VERTEX
  8
┌▓È_1
  5
497
 10
972.749
 20
-405.459
 30
0.000000
  70
    32
  0
VERTEX
  8
┌▓È_1
  5
498
 10
972.778
 20
-405.464
 30
0.000000
  70
    32
  0
VERTEX
  8
┌▓È_1
  5
499
 10
972.808
 20
-405.469
 30
0.000000
  70
    32
  0
VERTEX
  8
┌▓È_1
  5
49A
 10
972.838
 20
-405.474
 30
0.000000
  70
    32
  0
VERTEX
  8
┌▓È_1
  5
49B
 10
972.868
 20
-405.480
 30
0.000000
  70
    32
  0
VERTEX
  8
┌▓È_1
  5
49C
 10
972.897
 20
-405.485
 30
0.000000
  70
    32
  0
VERTEX
  8
┌▓È_1
  5
49D
 10
972.927
 20
-405.490
 30
0.000000
  70
    32
  0
VERTEX
  8
┌▓È_1
  5
49E
 10
972.957
 20
-405.495
 30
0.000000
  70
    32
  0
VERTEX
  8
┌▓È_1
  5
49F
 10
972.987
 20
-405.500
 30
0.000000
  70
    32
  0
VERTEX
  8
┌▓È_1
  5
4A0
 10
973.017
 20
-405.505
 30
0.000000
  70
    32
  0
VERTEX
  8
┌▓È_1
  5
4A1
 10
973.046
 20
-405.510
 30
0.000000
  70
    32
  0
VERTEX
  8
┌▓È_1
  5
4A2
 10
973.076
 20
-405.515
 30
0.000000
  70
    32
  0
VERTEX
  8
┌▓È_1
  5
4A3
 10
973.106
 20
-405.520
 30
0.000000
  70
    32
  0
VERTEX
  8
┌▓È_1
  5
4A4
 10
973.136
 20
-405.525
 30
0.000000
  70
    32
  0
SEQEND
  8
┌▓È_1
  5
4A5
  0
INSERT
  5
1C3
  8
0
  6
CONTINUOUS
  2
*U39
 10
0.0
 20
0.0
 30
0.0
  0
LINE
  5
1C4
  8
┌▓È_1
 10
872.48425972899986
 20
-376.98110363310002
 30
0.0
 11
968.48425972899997
 21
-376.98110363310002
 31
0.0
  0
LINE
  5
1C5
  8
┌▓È_1
 10
968.48425972899997
 20
-368.48110363310002
 30
0.0
 11
1000.484259729
 21
-368.48110363310002
 31
0.0
  0
LINE
  5
1C6
  8
┌▓È_1
 62
     5
 10
973.13563215789986
 20
-405.52482688599991
 30
0.0
 11
973.13563215789986
 21
-407.92482688599989
 31
0.0
  0
LINE
  5
1C7
  8
┌▓È_1
 62
     5
 10
983.40360439519998
 20
-408.7248268859999
 30
0.0
 11
987.8836043952
 21
-408.7248268859999
 31
0.0
  0
LINE
  5
1C8
  8
┌▓È_1
 62
     5
 10
954.47866246100011
 20
-399.92482688600001
 30
0.0
 11
954.47866246100011
 21
-402.32482688599993
 31
0.0
  0
LINE
  5
1C9
  8
┌▓È_1
 62
     5
 10
664.18406441649995
 20
-99.707731237199994
 30
0.0
 11
659.68406441649995
 21
-99.707731237199994
 31
0.0
  0
LINE
  5
1CA
  8
┌▓È_1
 62
     5
 10
664.18406441649995
 20
-184.70773123719999
 30
0.0
 11
664.18406441649995
 21
-99.707731237199994
 31
0.0
  0
LINE
  5
1CB
  8
┌▓È_1
  6
STITCH
 10
664.18406441649995
 20
-170.70773123719999
 30
0.0
 11
661.68406441650006
 21
-168.20773123719999
 31
0.0
  0
LINE
  5
1CC
  8
┌▓È_1
  6
STITCH
 10
661.68406441650006
 20
-163.20773123719999
 30
0.0
 11
664.18406441649995
 21
-160.70773123719999
 31
0.0
  0
LINE
  5
1CD
  8
┌▓È_1
  6
STITCH
 10
661.68406441650006
 20
-163.20773123719999
 30
0.0
 11
659.18406441649995
 21
-163.20773123719999
 31
0.0
  0
LINE
  5
1CE
  8
┌▓È_1
  6
STITCH
 10
661.68406441650006
 20
-163.20773123719999
 30
0.0
 11
661.68406441650006
 21
-168.20773123719999
 31
0.0
  0
LINE
  5
1CF
  8
┌▓È_1
  6
STITCH
 10
661.68406441650006
 20
-168.20773123719999
 30
0.0
 11
659.18406441649995
 21
-168.20773123719999
 31
0.0
  0
LINE
  5
1D0
  8
┌▓È_1
  6
STITCH
 10
661.68406441650006
 20
-113.20773123719999
 30
0.0
 11
659.18406441649995
 21
-113.20773123719999
 31
0.0
  0
LINE
  5
1D1
  8
┌▓È_1
  6
STITCH
 10
661.68406441650006
 20
-108.20773123719999
 30
0.0
 11
661.68406441650006
 21
-113.20773123719999
 31
0.0
  0
LINE
  5
1D2
  8
┌▓È_1
  6
STITCH
 10
664.68406441649995
 20
-286.34581717470002
 30
0.0
 11
664.68406441649995
 21
-302.34581717470002
 31
0.0
  0
LINE
  5
1D3
  8
┌▓È_1
 62
     5
 10
749.68406441649995
 20
-302.34581717470002
 30
0.0
 11
749.68406441649995
 21
-286.34581717470002
 31
0.0
  0
LINE
  5
1D4
  8
┌▓È_1
 62
     5
 10
749.68406441649995
 20
-286.34581717470002
 30
0.0
 11
659.68406441649995
 21
-286.34581717470002
 31
0.0
  0
LINE
  5
1D5
  8
┌▓È_1
  6
BORDER
 62
     3
 10
668.68406441649995
 20
-165.70773123719999
 30
0.0
 11
654.68406441649995
 21
-165.70773123719999
 31
0.0
  0
LINE
  5
1D6
  8
┌▓È_1
  6
BORDER
 62
     3
 10
668.68406441649995
 20
-110.70773123719999
 30
0.0
 11
654.68406441649995
 21
-110.70773123719999
 31
0.0
  0
LINE
  5
1D7
  8
┌▓È_1
  6
STITCH
 10
661.68406441650006
 20
-108.20773123719999
 30
0.0
 11
659.18406441649995
 21
-108.20773123719999
 31
0.0
  0
LINE
  5
1D8
  8
┌▓È_1
  6
STITCH
 10
661.68406441650006
 20
-108.20773123719999
 30
0.0
 11
664.18406441649995
 21
-105.70773123719999
 31
0.0
  0
LINE
  5
1D9
  8
┌▓È_1
  6
STITCH
 10
664.18406441649995
 20
-115.70773123719999
 30
0.0
 11
661.68406441650006
 21
-113.20773123719999
 31
0.0
  0
ARC
  5
1DA
  8
┌▓È_1
 62
     5
 10
664.68406441649995
 20
-184.70773123719999
 30
0.0
 40
5.0
 50
180.0
 51
270.0
  0
LINE
  5
1DB
  8
┌▓È_1
 62
     5
 10
664.68406441649995
 20
-189.70773123719999
 30
0.0
 11
749.68406441649995
 21
-189.70773123719999
 31
0.0
  0
LINE
  5
1DC
  8
┌▓È_1
 62
     5
 10
659.68406441649995
 20
-184.70773123719999
 30
0.0
 11
659.68406441649995
 21
-99.707731237199994
 31
0.0
  0
LINE
  5
1DD
  8
┌▓È_1
 62
     5
 10
749.68406441649995
 20
-189.70773123719999
 30
0.0
 11
749.68406441649995
 21
-185.20773123719999
 31
0.0
  0
LINE
  5
1DE
  8
┌▓È_1
 62
     5
 10
664.68406441649995
 20
-185.20773123719999
 30
0.0
 11
749.68406441649995
 21
-185.20773123719999
 31
0.0
  0
LINE
  5
1DF
  8
┌▓È_1
  6
STITCH
 10
736.18406441649995
 20
-187.70773123719999
 30
0.0
 11
736.18406441649995
 21
-190.20773123719999
 31
0.0
  0
LINE
  5
1E0
  8
┌▓È_1
  6
STITCH
 10
741.18406441649995
 20
-187.70773123719999
 30
0.0
 11
736.18406441649995
 21
-187.70773123719999
 31
0.0
  0
LINE
  5
1E1
  8
┌▓È_1
  6
STITCH
 10
741.18406441649995
 20
-187.70773123719999
 30
0.0
 11
741.18406441649995
 21
-190.20773123719999
 31
0.0
  0
CIRCLE
  5
1E2
  8
┌▓È_1
 62
     5
 10
852.98953316649988
 20
-165.70773123719999
 30
0.0
 40
5.0
  0
CIRCLE
  5
1E3
  8
┌▓È_1
 62
     5
 10
852.98953316649988
 20
-110.70773123719999
 30
0.0
 40
5.0
  0
CIRCLE
  5
1E4
  8
┌▓È_1
 62
     5
 10
852.98953316649988
 20
-110.70773123719999
 30
0.0
 40
2.5
  0
LINE
  5
1E5
  8
┌▓È_1
 62
     5
 10
844.9895331665
 20
-99.707731237199994
 30
0.0
 11
844.9895331665
 21
-189.70773123719999
 31
0.0
  0
LINE
  5
1E6
  8
┌▓È_1
 62
     5
 10
860.98953316649988
 20
-99.707731237199994
 30
0.0
 11
844.9895331665
 21
-99.707731237199994
 31
0.0
  0
LINE
  5
1E7
  8
┌▓È_1
 62
     5
 10
860.98953316649988
 20
-189.70773123719999
 30
0.0
 11
860.98953316649988
 21
-99.707731237199994
 31
0.0
  0
LINE
  5
1E8
  8
┌▓È_1
 62
     5
 10
844.9895331665
 20
-184.70773123719999
 30
0.0
 11
860.98953316649988
 21
-184.70773123719999
 31
0.0
  0
LINE
  5
1E9
  8
┌▓È_1
 62
     5
 10
844.9895331665
 20
-189.70773123719999
 30
0.0
 11
860.98953316649988
 21
-189.70773123719999
 31
0.0
  0
LINE
  5
1EA
  8
┌▓È_1
 62
     5
 10
970.57318218270007
 20
-226.53338227890001
 30
0.0
 11
1043.5717932938001
 21
-226.53338227890001
 31
0.0
  0
LINE
  5
1EB
  8
┌▓È_1
 62
     5
 10
970.57318218270007
 20
-204.03338227890001
 30
0.0
 11
1043.5717932938001
 21
-204.03338227890001
 31
0.0
  0
LINE
  5
1EC
  8
┌▓È_1
 62
     5
 10
985.25331181230001
 20
-204.03338227890001
 30
0.0
 11
994.00331181230001
 21
-212.78338227890001
 31
0.0
  0
LINE
  5
1ED
  8
┌▓È_1
 62
     5
 10
994.00331181230001
 20
-212.78338227890001
 30
0.0
 11
1019.0033118123
 21
-212.78338227890001
 31
0.0
  0
LINE
  5
1EE
  8
┌▓È_1
  6
BORDER
 62
     3
 10
1006.5033118123
 20
-197.51666092470001
 30
0.0
 11
1006.5033118123
 21
-231.01666092470001
 31
0.0
  0
LINE
  5
1EF
  8
┌▓È_1
 62
     5
 10
1019.0033118123
 20
-212.78338227890001
 30
0.0
 11
1027.7533118122999
 21
-204.03338227890001
 31
0.0
  0
LINE
  5
1F0
  8
┌▓È_1
 62
     5
 10
994.00331181230001
 20
-212.78338227890001
 30
0.0
 11
994.00331181230001
 21
-226.53338227890001
 31
0.0
  0
LINE
  5
1F1
  8
┌▓È_1
 62
     5
 10
1019.0033118123
 20
-212.78338227890001
 30
0.0
 11
1019.0033118123
 21
-226.53338227890001
 31
0.0
  0
LINE
  5
1F2
  8
┌▓È_1
  6
BORDER
 62
     3
 10
852.98953316649988
 20
-103.70773123719999
 30
0.0
 11
852.98953316649988
 21
-117.70773123719999
 31
0.0
  0
LINE
  5
1F3
  8
┌▓È_1
  6
BORDER
 62
     3
 10
845.9895331665
 20
-110.70773123719999
 30
0.0
 11
859.98953316649988
 21
-110.70773123719999
 31
0.0
  0
LINE
  5
1F4
  8
┌▓È_1
  6
BORDER
 62
     3
 10
845.9895331665
 20
-165.70773123719999
 30
0.0
 11
859.98953316649988
 21
-165.70773123719999
 31
0.0
  0
LINE
  5
1F5
  8
┌▓È_1
  6
BORDER
 62
     3
 10
852.98953316649988
 20
-158.70773123719999
 30
0.0
 11
852.98953316649988
 21
-172.70773123719999
 31
0.0
  0
CIRCLE
  5
1F6
  8
┌▓È_1
 62
     5
 10
852.98953316649988
 20
-165.70773123719999
 30
0.0
 40
2.5
  0
LINE
  5
1F7
  8
┌▓È_1
  6
STITCH
 10
686.18406441649995
 20
-187.70773123719999
 30
0.0
 11
688.68406441649995
 21
-185.20773123719999
 31
0.0
  0
LINE
  5
1F8
  8
┌▓È_1
  6
STITCH
 10
686.18406441649995
 20
-187.70773123719999
 30
0.0
 11
686.18406441649995
 21
-190.20773123719999
 31
0.0
  0
LINE
  5
1F9
  8
┌▓È_1
  6
STITCH
 10
686.18406441649995
 20
-187.70773123719999
 30
0.0
 11
681.18406441649995
 21
-187.70773123719999
 31
0.0
  0
LINE
  5
1FA
  8
┌▓È_1
  6
STITCH
 10
681.18406441649995
 20
-187.70773123719999
 30
0.0
 11
681.18406441649995
 21
-190.20773123719999
 31
0.0
  0
ENDSEC
  0
EOF
