  0
SECTION
  2
HEADER
  9
$ACADVER
  1
AC1009
  9
$INSBASE
 10
0.0
 20
0.0
 30
0.0
  9
$EXTMIN
 10
701.06910905929988
 20
-313.97491028209998
 30
0.0
  9
$EXTMAX
 10
976.06910905929988
 20
-123.9749102821
 30
0.0
  9
$LIMMIN
 10
0.0
 20
0.0
  9
$LIMMAX
 10
0.0
 20
0.0
  9
$ORTHOMODE
 70
     0
  9
$REGENMODE
 70
     1
  9
$FILLMODE
 70
     1
  9
$QTEXTMODE
 70
     0
  9
$MIRRTEXT
 70
     1
  9
$DRAGMODE
 70
     2
  9
$LTSCALE
 40
1.0
  9
$OSMODE
 70
    31
  9
$ATTMODE
 70
     1
  9
$TEXTSIZE
 40
0.0
  9
$TRACEWID
 40
0.05
  9
$TEXTSTYLE
  7
STANDARD
  9
$CLAYER
  8
0
  9
$CELTYPE
  6
CONTINUOUS
  9
$CECOLOR
 62
   256
  9
$DIMSCALE
 40
1.0
  9
$DIMASZ
 40
0.18
  9
$DIMEXO
 40
0.0625
  9
$DIMDLI
 40
0.38
  9
$DIMRND
 40
0.0
  9
$DIMDLE
 40
0.0
  9
$DIMEXE
 40
0.18
  9
$DIMTP
 40
0.0
  9
$DIMTM
 40
0.0
  9
$DIMTXT
 40
0.18
  9
$DIMCEN
 40
0.09
  9
$DIMTSZ
 40
0.0
  9
$DIMTOL
 70
     0
  9
$DIMLIM
 70
     0
  9
$DIMTIH
 70
     1
  9
$DIMTOH
 70
     1
  9
$DIMSE1
 70
     0
  9
$DIMSE2
 70
     0
  9
$DIMTAD
 70
     0
  9
$DIMZIN
 70
     0
  9
$DIMBLK
  1

  9
$DIMASO
 70
     1
  9
$DIMSHO
 70
     1
  9
$DIMPOST
  1

  9
$DIMAPOST
  1

  9
$DIMALT
 70
     0
  9
$DIMALTD
 70
     2
  9
$DIMALTF
 40
25.399999999999999
  9
$DIMLFAC
 40
1.0
  9
$DIMTOFL
 70
     0
  9
$DIMTVP
 40
0.0
  9
$DIMTIX
 70
     0
  9
$DIMSOXD
 70
     0
  9
$DIMSAH
 70
     0
  9
$DIMBLK1
  1

  9
$DIMBLK2
  1

  9
$DIMSTYLE
  2
STANDARD
  9
$DIMCLRD
 70
     0
  9
$DIMCLRE
 70
     0
  9
$DIMCLRT
 70
     0
  9
$DIMTFAC
 40
1.0
  9
$DIMGAP
 40
0.09
  9
$LUNITS
 70
     2
  9
$LUPREC
 70
     4
  9
$SKETCHINC
 40
0.1
  9
$FILLETRAD
 40
0.0
  9
$AUNITS
 70
     0
  9
$AUPREC
 70
     0
  9
$MENU
  1
acad
  9
$ELEVATION
 40
0.0
  9
$PELEVATION
 40
0.0
  9
$THICKNESS
 40
0.0
  9
$LIMCHECK
 70
     0
  9
$BLIPMODE
 70
     0
  9
$CHAMFERA
 40
0.0
  9
$CHAMFERB
 40
0.0
  9
$SKPOLY
 70
     0
  9
$TDCREATE
 40
2454862.7576289349
  9
$TDUPDATE
 40
2454862.7577774068
  9
$TDINDWG
 40
0.0001558912
  9
$TDUSRTIMER
 40
0.0001555324
  9
$USRTIMER
 70
     1
  9
$ANGBASE
 50
0.0
  9
$ANGDIR
 70
     0
  9
$PDMODE
 70
     3
  9
$PDSIZE
 40
-1.0
  9
$PLINEWID
 40
0.0
  9
$COORDS
 70
     2
  9
$SPLFRAME
 70
     0
  9
$SPLINETYPE
 70
     6
  9
$SPLINESEGS
 70
     8
  9
$ATTDIA
 70
     0
  9
$ATTREQ
 70
     1
  9
$HANDLING
 70
     1
  9
$HANDSEED
  5
4A5
  9
$SURFTAB1
 70
     6
  9
$SURFTAB2
 70
     6
  9
$SURFTYPE
 70
     6
  9
$SURFU
 70
     6
  9
$SURFV
 70
     6
  9
$UCSNAME
  2

  9
$UCSORG
 10
0.0
 20
0.0
 30
0.0
  9
$UCSXDIR
 10
1.0
 20
0.0
 30
0.0
  9
$UCSYDIR
 10
0.0
 20
1.0
 30
0.0
  9
$PUCSNAME
  2

  9
$PUCSORG
 10
0.0
 20
0.0
 30
0.0
  9
$PUCSXDIR
 10
1.0
 20
0.0
 30
0.0
  9
$PUCSYDIR
 10
0.0
 20
1.0
 30
0.0
  9
$USERI1
 70
     0
  9
$USERI2
 70
     0
  9
$USERI3
 70
     0
  9
$USERI4
 70
     0
  9
$USERI5
 70
     0
  9
$USERR1
 40
0.0
  9
$USERR2
 40
0.0
  9
$USERR3
 40
0.0
  9
$USERR4
 40
0.0
  9
$USERR5
 40
0.0
  9
$WORLDVIEW
 70
     1
  9
$SHADEDGE
 70
     3
  9
$SHADEDIF
 70
    70
  9
$TILEMODE
 70
     1
  9
$MAXACTVP
 70
    16
  9
$PLIMCHECK
 70
     0
  9
$PEXTMIN
 10
1.0000000000000000E+020
 20
1.0000000000000000E+020
 30
1.0000000000000000E+020
  9
$PEXTMAX
 10
-1.0000000000000000E+020
 20
-1.0000000000000000E+020
 30
-1.0000000000000000E+020
  9
$PLIMMIN
 10
0.0
 20
0.0
  9
$PLIMMAX
 10
12.0
 20
9.0
  9
$UNITMODE
 70
     0
  9
$VISRETAIN
 70
     0
  9
$PLINEGEN
 70
     1
  9
$PSLTSCALE
 70
     0
  0
ENDSEC
  0
SECTION
  2
TABLES
  0
TABLE
  2
VPORT
 70
     2
  0
VPORT
  2
*ACTIVE
 70
     0
 10
0.0
 20
0.0
 11
1.0
 21
1.0
 12
838.56910905929988
 22
-218.97491028210001
 13
0.0
 23
0.0
 14
1.0
 24
1.0
 15
0.0
 25
0.0
 16
0.0
 26
0.0
 36
1.0
 17
0.0
 27
0.0
 37
0.0
 40
198.9929279237459
 41
1.3903818953323901
 42
50.0
 43
0.0
 44
0.0
 50
0.0
 51
0.0
 71
     0
 72
   100
 73
     1
 74
     1
 75
     0
 76
     0
 77
     0
 78
     0
  0
ENDTAB
  0
TABLE
  2
LTYPE
 70
    11
  0
LTYPE
  2
CONTINUOUS
 70
     0
  3
Solid line
 72
    65
 73
     0
 40
0.0
  0
LTYPE
  2
DOT
 70
     0
  3
. . . . . . . . 
 72
    65
 73
     2
 40
1.0
 49
0.0
 49
-1.0
  0
LTYPE
  2
DASHED
 70
     0
  3
___  ___  ___  ___  
 72
    65
 73
     2
 40
4.0
 49
3.0
 49
-1.0
  0
LTYPE
  2
HIDDEN
 70
     0
  3
__ __ __ __ 
 72
    65
 73
     2
 40
3.0
 49
2.0
 49
-1.0
  0
LTYPE
  2
STITCH
 70
     0
  3
_ _ _ _ 
 72
    65
 73
     2
 40
2.0
 49
1.0
 49
-1.0
  0
LTYPE
  2
CENTER
 70
     0
  3
______  __  ______  __  
 72
    65
 73
     4
 40
43.0
 49
40.0
 49
-1.0
 49
1.0
 49
-1.0
  0
LTYPE
  2
DASHDOT
 70
     0
  3
____ . ____ . 
 72
    65
 73
     4
 40
32.0
 49
30.0
 49
-1.0
 49
0.0
 49
-1.0
  0
LTYPE
  2
BORDER
 70
     0
  3
__ . __ . 
 72
    65
 73
     4
 40
22.0
 49
20.0
 49
-1.0
 49
0.0
 49
-1.0
  0
LTYPE
  2
CUTTING
 70
     0
  3
________   ___   ___   
 72
    65
 73
     6
 40
45.0
 49
40.0
 49
-1.0
 49
1.0
 49
-1.0
 49
1.0
 49
-1.0
  0
LTYPE
  2
PHANTOM
 70
     0
  3
______  __  __  
 72
    65
 73
     6
 40
35.0
 49
30.0
 49
-1.0
 49
1.0
 49
-1.0
 49
1.0
 49
-1.0
  0
LTYPE
  2
DIVIDE
 70
     0
  3
____ . . ____ . . 
 72
    65
 73
     6
 40
23.0
 49
20.0
 49
-1.0
 49
0.0
 49
-1.0
 49
0.0
 49
-1.0
  0
ENDTAB
  0
TABLE
  2
LAYER
 70
     4
  0
LAYER
  2
0
 70
     0
 62
     7
  6
CONTINUOUS
  0
LAYER
  2
┌▓È_1
 70
     0
 62
     7
  6
CONTINUOUS
  0
LAYER
  2
Éíû@É³
 70
     0
 62
     7
  6
CONTINUOUS
  0
LAYER
  2
Defpoints
 70
     0
 62
     7
  6
CONTINUOUS
  0
ENDTAB
  0
TABLE
  2
STYLE
 70
     1
  0
STYLE
  2
STANDARD
 70
     0
 40
0.0
 41
1.0
 50
0.0
 71
     0
 42
0.0
  3
txt
  4
extfont
  0
ENDTAB
  0
TABLE
  2
VIEW
 70
     0
  0
ENDTAB
  0
TABLE
  2
UCS
 70
     0
  0
ENDTAB
  0
TABLE
  2
APPID
 70
     2
  0
APPID
  2
ACAD
 70
     0
  0
APPID
  2
DCO15
 70
     0
  0
ENDTAB
  0
TABLE
  2
DIMSTYLE
 70
     3
  0
DIMSTYLE
  2
STANDARD
 70
     0
  3

  4

  5

  6

  7

 40
1.0
 41
0.18
 42
0.0625
 43
0.38
 44
0.18
 45
0.0
 46
0.0
 47
0.0
 48
0.0
140
0.18
141
0.09
142
0.0
143
25.399999999999999
144
1.0
145
0.0
146
1.0
147
0.09
 71
     0
 72
     0
 73
     1
 74
     1
 75
     0
 76
     0
 77
     0
 78
     0
170
     0
171
     2
172
     0
173
     0
174
     0
175
     0
176
     0
177
     0
178
     0
  0
DIMSTYLE
  2
VELDIM0
 70
     0
  3

  4

  5

  6

  7

 40
1.0
 41
3.0
 42
0.0625
 43
0.38
 44
0.5
 45
0.0
 46
3.0
 47
0.0
 48
0.0
140
2.9986110209999999
141
0.09
142
0.0
143
25.399999999999999
144
1.0
145
0.0
146
1.0
147
0.09
 71
     0
 72
     0
 73
     0
 74
     0
 75
     0
 76
     0
 77
     0
 78
     8
170
     0
171
     2
172
     0
173
     0
174
     0
175
     0
176
     0
177
     0
178
     0
  0
DIMSTYLE
  2
VELDIM1
 70
     0
  3

  4

  5

  6

  7

 40
1.0
 41
3.0
 42
0.0625
 43
0.38
 44
1.25
 45
0.0
 46
5.0
 47
0.0
 48
0.0
140
2.9986110209999999
141
0.09
142
0.0
143
25.399999999999999
144
1.0
145
0.0
146
1.0
147
0.09
 71
     0
 72
     0
 73
     0
 74
     0
 75
     0
 76
     0
 77
     0
 78
     8
170
     0
171
     2
172
     0
173
     0
174
     0
175
     0
176
     0
177
     0
178
     0
  0
ENDTAB
  0
ENDSEC
  0
SECTION
  2
BLOCKS
  0
BLOCK
  8
0
  2
$MODEL_SPACE
 70
     0
 10
0.0
 20
0.0
 30
0.0
  3
$MODEL_SPACE
  1

  0
ENDBLK
  5
E
  8
0
  0
BLOCK
 67
     1
  8
0
  2
$PAPER_SPACE
 70
     0
 10
0.0
 20
0.0
 30
0.0
  3
$PAPER_SPACE
  1

  0
ENDBLK
  5
10
 67
     1
  8
0
  0
BLOCK
  8
0
  2
*D0
 70
     1
 10
0.0
 20
0.0
 30
0.0
  3
*D0
  1

  0
TEXT
  5
DD
  8
0
 62
     0
 10
850.56059042259994
 20
-159.6395868797
 30
0.0
 40
2.9986110209999999
  1
8
  0
LINE
  5
DE
  8
0
 62
     0
 10
845.33539595169987
 20
-171.96813205059999
 30
0.0
 11
845.33539595169987
 21
-160.6687535305
 31
0.0
  0
LINE
  5
DF
  8
0
 62
     0
 10
837.33539595169998
 20
-171.96813205059999
 30
0.0
 11
837.33539595169998
 21
-160.6687535305
 31
0.0
  0
LINE
  5
E0
  8
0
 62
     0
 10
845.33539595169987
 20
-161.1687535305
 30
0.0
 11
854.08836809449986
 21
-161.1687535305
 31
0.0
  0
LINE
  5
E1
  8
0
 62
     0
 10
845.33539595169987
 20
-161.1687535305
 30
0.0
 11
848.7967015866999
 21
-161.1687535305
 31
0.0
  0
LINE
  5
E2
  8
0
 62
     0
 10
837.33539595169998
 20
-161.1687535305
 30
0.0
 11
854.08836809449986
 21
-161.1687535305
 31
0.0
  0
LINE
  5
E3
  8
0
 62
     0
 10
837.33539595169998
 20
-161.1687535305
 30
0.0
 11
848.7967015866999
 21
-161.1687535305
 31
0.0
  0
LINE
  5
E4
  8
0
 62
     0
 10
837.33539595169998
 20
-161.1687535305
 30
0.0
 11
840.33539595169998
 21
-161.1687535305
 31
0.0
  0
SOLID
  5
E5
  8
0
 62
     0
 10
837.33539595169998
 20
-161.1687535305
 30
0.0
 11
840.33539595169998
 21
-160.4187535305
 31
0.0
 12
840.33539595169998
 22
-161.9187535305
 32
0.0
 13
839.58539595169987
 23
-161.1687535305
 33
0.0
  0
LINE
  5
E6
  8
0
 62
     0
 10
845.33539595169987
 20
-161.1687535305
 30
0.0
 11
842.33539595169987
 21
-161.1687535305
 31
0.0
  0
SOLID
  5
E7
  8
0
 62
     0
 10
845.33539595169987
 20
-161.1687535305
 30
0.0
 11
842.33539595169987
 21
-161.9187535305
 31
0.0
 12
842.33539595169987
 22
-160.4187535305
 32
0.0
 13
843.08539595169998
 23
-161.1687535305
 33
0.0
  0
ENDBLK
  5
E8
  8
0
  0
BLOCK
  8
0
  2
*D1
 70
     1
 10
0.0
 20
0.0
 30
0.0
  3
*D1
  1

  0
TEXT
  5
ED
  8
0
 62
     0
 10
822.21709510789981
 20
-159.6395868797
 30
0.0
 40
2.9986110209999999
  1
8
  0
LINE
  5
EE
  8
0
 62
     0
 10
837.33539595169998
 20
-171.96813205059999
 30
0.0
 11
837.33539595169998
 21
-160.6687535305
 31
0.0
  0
LINE
  5
EF
  8
0
 62
     0
 10
829.33539595169998
 20
-171.96813205059999
 30
0.0
 11
829.33539595169998
 21
-160.6687535305
 31
0.0
  0
LINE
  5
F0
  8
0
 62
     0
 10
837.33539595169998
 20
-161.1687535305
 30
0.0
 11
825.7448727796999
 21
-161.1687535305
 31
0.0
  0
LINE
  5
F1
  8
0
 62
     0
 10
837.33539595169998
 20
-161.1687535305
 30
0.0
 11
820.45320627189994
 21
-161.1687535305
 31
0.0
  0
LINE
  5
F2
  8
0
 62
     0
 10
829.33539595169998
 20
-161.1687535305
 30
0.0
 11
825.7448727796999
 21
-161.1687535305
 31
0.0
  0
LINE
  5
F3
  8
0
 62
     0
 10
829.33539595169998
 20
-161.1687535305
 30
0.0
 11
820.45320627189994
 21
-161.1687535305
 31
0.0
  0
LINE
  5
F4
  8
0
 62
     0
 10
829.33539595169998
 20
-161.1687535305
 30
0.0
 11
832.33539595169998
 21
-161.1687535305
 31
0.0
  0
SOLID
  5
F5
  8
0
 62
     0
 10
829.33539595169998
 20
-161.1687535305
 30
0.0
 11
832.33539595169998
 21
-160.4187535305
 31
0.0
 12
832.33539595169998
 22
-161.9187535305
 32
0.0
 13
831.58539595169987
 23
-161.1687535305
 33
0.0
  0
LINE
  5
F6
  8
0
 62
     0
 10
837.33539595169998
 20
-161.1687535305
 30
0.0
 11
834.33539595169987
 21
-161.1687535305
 31
0.0
  0
SOLID
  5
F7
  8
0
 62
     0
 10
837.33539595169998
 20
-161.1687535305
 30
0.0
 11
834.33539595169987
 21
-161.9187535305
 31
0.0
 12
834.33539595169987
 22
-160.4187535305
 32
0.0
 13
835.08539595169987
 23
-161.1687535305
 33
0.0
  0
ENDBLK
  5
F8
  8
0
  0
BLOCK
  8
0
  2
*D2
 70
     1
 10
0.0
 20
0.0
 30
0.0
  3
*D2
  1

  0
TEXT
  5
FC
  8
0
 62
     0
 10
744.3284515232001
 20
-259.82276162720001
 30
0.0
 40
2.9986110209999999
  1
16
 50
90.0
  0
LINE
  5
FD
  8
0
 62
     0
 10
754.85761817390005
 20
-250.05887279129999
 30
0.0
 11
745.35761817390005
 21
-250.05887279129999
 31
0.0
  0
LINE
  5
FE
  8
0
 62
     0
 10
754.85761817390005
 20
-266.05887279130002
 30
0.0
 11
745.35761817390005
 21
-266.05887279130002
 31
0.0
  0
LINE
  5
FF
  8
0
 62
     0
 10
745.85761817390005
 20
-250.05887279129999
 30
0.0
 11
745.85761817390005
 21
-254.53109511950001
 31
0.0
  0
LINE
  5
100
  8
0
 62
     0
 10
745.85761817390005
 20
-250.05887279129999
 30
0.0
 11
745.85761817390005
 21
-261.58665046319999
 31
0.0
  0
LINE
  5
101
  8
0
 62
     0
 10
745.85761817390005
 20
-266.05887279130002
 30
0.0
 11
745.85761817390005
 21
-254.53109511950001
 31
0.0
  0
LINE
  5
102
  8
0
 62
     0
 10
745.85761817390005
 20
-266.05887279130002
 30
0.0
 11
745.85761817390005
 21
-261.58665046319999
 31
0.0
  0
LINE
  5
103
  8
0
 62
     0
 10
745.85761817390005
 20
-266.05887279130002
 30
0.0
 11
745.85761817390005
 21
-263.05887279130002
 31
0.0
  0
SOLID
  5
104
  8
0
 62
     0
 10
745.85761817390005
 20
-266.05887279130002
 30
0.0
 11
745.10761817390005
 21
-263.05887279130002
 31
0.0
 12
746.60761817390005
 22
-263.05887279130002
 32
0.0
 13
745.85761817390005
 23
-263.80887279130002
 33
0.0
  0
LINE
  5
105
  8
0
 62
     0
 10
745.85761817390005
 20
-250.05887279129999
 30
0.0
 11
745.85761817390005
 21
-253.05887279129999
 31
0.0
  0
SOLID
  5
106
  8
0
 62
     0
 10
745.85761817390005
 20
-250.05887279129999
 30
0.0
 11
746.60761817390005
 21
-253.05887279129999
 31
0.0
 12
745.10761817390005
 22
-253.05887279129999
 32
0.0
 13
745.85761817390005
 23
-252.30887279129999
 33
0.0
  0
ENDBLK
  5
107
  8
0
  0
BLOCK
  8
0
  2
*D3
 70
     1
 10
0.0
 20
0.0
 30
0.0
  3
*D3
  1

  0
TEXT
  5
10B
  8
0
 62
     0
 10
800.3284515232001
 20
-245.1214859541
 30
0.0
 40
2.9986110209999999
  1
8
 50
90.0
  0
LINE
  5
10C
  8
0
 62
     0
 10
792.85761817390005
 20
-258.05887279130002
 30
0.0
 11
802.35761817390005
 21
-258.05887279130002
 31
0.0
  0
LINE
  5
10D
  8
0
 62
     0
 10
791.85761817390005
 20
-250.05887279129999
 30
0.0
 11
802.35761817390005
 21
-250.05887279129999
 31
0.0
  0
LINE
  5
10E
  8
0
 62
     0
 10
801.85761817390005
 20
-258.05887279130002
 30
0.0
 11
801.85761817390005
 21
-241.59370828230001
 31
0.0
  0
LINE
  5
10F
  8
0
 62
     0
 10
801.85761817390005
 20
-258.05887279130002
 30
0.0
 11
801.85761817390005
 21
-246.88537478999999
 31
0.0
  0
LINE
  5
110
  8
0
 62
     0
 10
801.85761817390005
 20
-250.05887279129999
 30
0.0
 11
801.85761817390005
 21
-241.59370828230001
 31
0.0
  0
LINE
  5
111
  8
0
 62
     0
 10
801.85761817390005
 20
-250.05887279129999
 30
0.0
 11
801.85761817390005
 21
-246.88537478999999
 31
0.0
  0
LINE
  5
112
  8
0
 62
     0
 10
801.85761817390005
 20
-250.05887279129999
 30
0.0
 11
801.85761817390005
 21
-253.05887279129999
 31
0.0
  0
SOLID
  5
113
  8
0
 62
     0
 10
801.85761817390005
 20
-250.05887279129999
 30
0.0
 11
802.60761817390005
 21
-253.05887279129999
 31
0.0
 12
801.10761817389994
 22
-253.05887279129999
 32
0.0
 13
801.85761817390005
 23
-252.30887279129999
 33
0.0
  0
LINE
  5
114
  8
0
 62
     0
 10
801.85761817390005
 20
-258.05887279130002
 30
0.0
 11
801.85761817390005
 21
-255.05887279129999
 31
0.0
  0
SOLID
  5
115
  8
0
 62
     0
 10
801.85761817390005
 20
-258.05887279130002
 30
0.0
 11
801.10761817389994
 21
-255.05887279129999
 31
0.0
 12
802.60761817390005
 22
-255.05887279129999
 32
0.0
 13
801.85761817390005
 23
-255.80887279129999
 33
0.0
  0
ENDBLK
  5
116
  8
0
  0
BLOCK
  8
0
  2
*D4
 70
     1
 10
0.0
 20
0.0
 30
0.0
  3
*D4
  1

  0
TEXT
  5
11A
  8
0
 62
     0
 10
914.27177927770003
 20
-181.9584426134
 30
0.0
 40
2.9986110209999999
  1
%%c8
  0
LINE
  5
11B
  8
0
 62
     0
 10
936.91761253159996
 20
-192.4876092641
 30
0.0
 11
936.91761253159996
 21
-182.9876092641
 31
0.0
  0
LINE
  5
11C
  8
0
 62
     0
 10
896.91761253159996
 20
-192.4876092641
 30
0.0
 11
896.91761253159996
 21
-182.9876092641
 31
0.0
  0
LINE
  5
11D
  8
0
 62
     0
 10
936.91761253159996
 20
-183.4876092641
 30
0.0
 11
921.3273346213
 21
-183.4876092641
 31
0.0
  0
LINE
  5
11E
  8
0
 62
     0
 10
936.91761253159996
 20
-183.4876092641
 30
0.0
 11
912.50789044179976
 21
-183.4876092641
 31
0.0
  0
LINE
  5
11F
  8
0
 62
     0
 10
896.91761253159996
 20
-183.4876092641
 30
0.0
 11
921.3273346213
 21
-183.4876092641
 31
0.0
  0
LINE
  5
120
  8
0
 62
     0
 10
896.91761253159996
 20
-183.4876092641
 30
0.0
 11
912.50789044179976
 21
-183.4876092641
 31
0.0
  0
LINE
  5
121
  8
0
 62
     0
 10
896.91761253159996
 20
-183.4876092641
 30
0.0
 11
899.91761253160007
 21
-183.4876092641
 31
0.0
  0
SOLID
  5
122
  8
0
 62
     0
 10
896.91761253159996
 20
-183.4876092641
 30
0.0
 11
899.91761253160007
 21
-182.7376092641
 31
0.0
 12
899.91761253160007
 22
-184.2376092641
 32
0.0
 13
899.16761253160007
 23
-183.4876092641
 33
0.0
  0
LINE
  5
123
  8
0
 62
     0
 10
936.91761253159996
 20
-183.4876092641
 30
0.0
 11
933.91761253160007
 21
-183.4876092641
 31
0.0
  0
SOLID
  5
124
  8
0
 62
     0
 10
936.91761253159996
 20
-183.4876092641
 30
0.0
 11
933.91761253160007
 21
-184.2376092641
 31
0.0
 12
933.91761253160007
 22
-182.7376092641
 32
0.0
 13
934.66761253160007
 23
-183.4876092641
 33
0.0
  0
ENDBLK
  5
125
  8
0
  0
BLOCK
  8
0
  2
*D5
 70
     1
 10
0.0
 20
0.0
 30
0.0
  3
*D5
  1

  0
TEXT
  5
129
  8
0
 62
     0
 10
914.27177927770003
 20
-220.17342178000001
 30
0.0
 40
2.9986110209999999
  1
%%c4
  0
LINE
  5
12A
  8
0
 62
     0
 10
906.91761253160007
 20
-209.4876092641
 30
0.0
 11
906.91761253160007
 21
-222.20258843080001
 31
0.0
  0
LINE
  5
12B
  8
0
 62
     0
 10
926.91761253159996
 20
-209.4876092641
 30
0.0
 11
926.91761253159996
 21
-222.20258843080001
 31
0.0
  0
LINE
  5
12C
  8
0
 62
     0
 10
906.91761253160007
 20
-221.70258843080001
 30
0.0
 11
921.3273346213
 21
-221.70258843080001
 31
0.0
  0
LINE
  5
12D
  8
0
 62
     0
 10
906.91761253160007
 20
-221.70258843080001
 30
0.0
 11
912.50789044179976
 21
-221.70258843080001
 31
0.0
  0
LINE
  5
12E
  8
0
 62
     0
 10
926.91761253159996
 20
-221.70258843080001
 30
0.0
 11
921.3273346213
 21
-221.70258843080001
 31
0.0
  0
LINE
  5
12F
  8
0
 62
     0
 10
926.91761253159996
 20
-221.70258843080001
 30
0.0
 11
912.50789044179976
 21
-221.70258843080001
 31
0.0
  0
LINE
  5
130
  8
0
 62
     0
 10
926.91761253159996
 20
-221.70258843080001
 30
0.0
 11
923.91761253160007
 21
-221.70258843080001
 31
0.0
  0
SOLID
  5
131
  8
0
 62
     0
 10
926.91761253159996
 20
-221.70258843080001
 30
0.0
 11
923.91761253160007
 21
-222.45258843080001
 31
0.0
 12
923.91761253160007
 22
-220.95258843080001
 32
0.0
 13
924.66761253159996
 23
-221.70258843080001
 33
0.0
  0
LINE
  5
132
  8
0
 62
     0
 10
906.91761253160007
 20
-221.70258843080001
 30
0.0
 11
909.91761253160007
 21
-221.70258843080001
 31
0.0
  0
SOLID
  5
133
  8
0
 62
     0
 10
906.91761253160007
 20
-221.70258843080001
 30
0.0
 11
909.91761253160007
 21
-220.95258843080001
 31
0.0
 12
909.91761253160007
 22
-222.45258843080001
 32
0.0
 13
909.16761253159996
 23
-221.70258843080001
 33
0.0
  0
ENDBLK
  5
134
  8
0
  0
BLOCK
  8
0
  2
*D6
 70
     1
 10
0.0
 20
0.0
 30
0.0
  3
*D6
  1

  0
TEXT
  5
138
  8
0
 62
     0
 10
817.80622930089999
 20
-176.85007646860001
 30
0.0
 40
2.9986110209999999
  1
6
 50
90.0
  0
LINE
  5
139
  8
0
 62
     0
 10
828.33539595169987
 20
-172.96813205059999
 30
0.0
 11
818.83539595169998
 21
-172.96813205059999
 31
0.0
  0
LINE
  5
13A
  8
0
 62
     0
 10
830.33539595169998
 20
-178.96813205059999
 30
0.0
 11
818.83539595169998
 21
-178.96813205059999
 31
0.0
  0
LINE
  5
13B
  8
0
 62
     0
 10
819.33539595169987
 20
-172.96813205059999
 30
0.0
 11
819.33539595169987
 21
-173.32229879670001
 31
0.0
  0
LINE
  5
13C
  8
0
 62
     0
 10
819.33539595169987
 20
-172.96813205059999
 30
0.0
 11
819.33539595169987
 21
-178.6139653045
 31
0.0
  0
LINE
  5
13D
  8
0
 62
     0
 10
819.33539595169987
 20
-178.96813205059999
 30
0.0
 11
819.33539595169987
 21
-173.32229879670001
 31
0.0
  0
LINE
  5
13E
  8
0
 62
     0
 10
819.33539595169987
 20
-178.96813205059999
 30
0.0
 11
819.33539595169987
 21
-178.6139653045
 31
0.0
  0
LINE
  5
13F
  8
0
 62
     0
 10
819.33539595169987
 20
-178.96813205059999
 30
0.0
 11
819.33539595169987
 21
-181.96813205059999
 31
0.0
  0
SOLID
  5
140
  8
0
 62
     0
 10
819.33539595169987
 20
-178.96813205059999
 30
0.0
 11
820.08539595169987
 21
-181.96813205059999
 31
0.0
 12
818.58539595169998
 22
-181.96813205059999
 32
0.0
 13
819.33539595169987
 23
-181.21813205059999
 33
0.0
  0
LINE
  5
141
  8
0
 62
     0
 10
819.33539595169987
 20
-172.96813205059999
 30
0.0
 11
819.33539595169987
 21
-169.96813205059999
 31
0.0
  0
SOLID
  5
142
  8
0
 62
     0
 10
819.33539595169987
 20
-172.96813205059999
 30
0.0
 11
818.58539595169998
 21
-169.96813205059999
 31
0.0
 12
820.08539595169987
 22
-169.96813205059999
 32
0.0
 13
819.33539595169987
 23
-170.71813205059999
 33
0.0
  0
ENDBLK
  5
143
  8
0
  0
BLOCK
  8
0
  2
*D7
 70
     1
 10
0.0
 20
0.0
 30
0.0
  3
*D7
  1

  0
TEXT
  5
147
  8
0
 62
     0
 10
817.80622930089999
 20
-187.73202088650001
 30
0.0
 40
2.9986110209999999
  1
14
 50
90.0
  0
LINE
  5
148
  8
0
 62
     0
 10
830.33539595169998
 20
-178.96813205059999
 30
0.0
 11
818.83539595169998
 21
-178.96813205059999
 31
0.0
  0
LINE
  5
149
  8
0
 62
     0
 10
830.33539595169998
 20
-192.96813205059999
 30
0.0
 11
818.83539595169998
 21
-192.96813205059999
 31
0.0
  0
LINE
  5
14A
  8
0
 62
     0
 10
819.33539595169987
 20
-178.96813205059999
 30
0.0
 11
819.33539595169987
 21
-182.44035437880001
 31
0.0
  0
LINE
  5
14B
  8
0
 62
     0
 10
819.33539595169987
 20
-178.96813205059999
 30
0.0
 11
819.33539595169987
 21
-189.4959097224
 31
0.0
  0
LINE
  5
14C
  8
0
 62
     0
 10
819.33539595169987
 20
-192.96813205059999
 30
0.0
 11
819.33539595169987
 21
-182.44035437880001
 31
0.0
  0
LINE
  5
14D
  8
0
 62
     0
 10
819.33539595169987
 20
-192.96813205059999
 30
0.0
 11
819.33539595169987
 21
-189.4959097224
 31
0.0
  0
LINE
  5
14E
  8
0
 62
     0
 10
819.33539595169987
 20
-192.96813205059999
 30
0.0
 11
819.33539595169987
 21
-189.96813205059999
 31
0.0
  0
SOLID
  5
14F
  8
0
 62
     0
 10
819.33539595169987
 20
-192.96813205059999
 30
0.0
 11
818.58539595169998
 21
-189.96813205059999
 31
0.0
 12
820.08539595169987
 22
-189.96813205059999
 32
0.0
 13
819.33539595169987
 23
-190.71813205059999
 33
0.0
  0
LINE
  5
150
  8
0
 62
     0
 10
819.33539595169987
 20
-178.96813205059999
 30
0.0
 11
819.33539595169987
 21
-181.96813205059999
 31
0.0
  0
SOLID
  5
151
  8
0
 62
     0
 10
819.33539595169987
 20
-178.96813205059999
 30
0.0
 11
820.08539595169987
 21
-181.96813205059999
 31
0.0
 12
818.58539595169998
 22
-181.96813205059999
 32
0.0
 13
819.33539595169987
 23
-181.21813205059999
 33
0.0
  0
ENDBLK
  5
152
  8
0
  0
BLOCK
  8
0
  2
*D8
 70
     1
 10
0.0
 20
0.0
 30
0.0
  3
*D8
  1

  0
TEXT
  5
156
  8
0
 62
     0
 10
817.80622930089999
 20
-202.23202088650001
 30
0.0
 40
2.9986110209999999
  1
15
 50
90.0
  0
LINE
  5
157
  8
0
 62
     0
 10
830.33539595169998
 20
-192.96813205059999
 30
0.0
 11
818.83539595169998
 21
-192.96813205059999
 31
0.0
  0
LINE
  5
158
  8
0
 62
     0
 10
828.33539595169987
 20
-207.96813205059999
 30
0.0
 11
818.83539595169998
 21
-207.96813205059999
 31
0.0
  0
LINE
  5
159
  8
0
 62
     0
 10
819.33539595169987
 20
-192.96813205059999
 30
0.0
 11
819.33539595169987
 21
-196.94035437880001
 31
0.0
  0
LINE
  5
15A
  8
0
 62
     0
 10
819.33539595169987
 20
-192.96813205059999
 30
0.0
 11
819.33539595169987
 21
-203.9959097224
 31
0.0
  0
LINE
  5
15B
  8
0
 62
     0
 10
819.33539595169987
 20
-207.96813205059999
 30
0.0
 11
819.33539595169987
 21
-196.94035437880001
 31
0.0
  0
LINE
  5
15C
  8
0
 62
     0
 10
819.33539595169987
 20
-207.96813205059999
 30
0.0
 11
819.33539595169987
 21
-203.9959097224
 31
0.0
  0
LINE
  5
15D
  8
0
 62
     0
 10
819.33539595169987
 20
-207.96813205059999
 30
0.0
 11
819.33539595169987
 21
-204.96813205059999
 31
0.0
  0
SOLID
  5
15E
  8
0
 62
     0
 10
819.33539595169987
 20
-207.96813205059999
 30
0.0
 11
818.58539595169998
 21
-204.96813205059999
 31
0.0
 12
820.08539595169987
 22
-204.96813205059999
 32
0.0
 13
819.33539595169987
 23
-205.71813205059999
 33
0.0
  0
LINE
  5
15F
  8
0
 62
     0
 10
819.33539595169987
 20
-192.96813205059999
 30
0.0
 11
819.33539595169987
 21
-195.96813205059999
 31
0.0
  0
SOLID
  5
160
  8
0
 62
     0
 10
819.33539595169987
 20
-192.96813205059999
 30
0.0
 11
820.08539595169987
 21
-195.96813205059999
 31
0.0
 12
818.58539595169998
 22
-195.96813205059999
 32
0.0
 13
819.33539595169987
 23
-195.21813205059999
 33
0.0
  0
ENDBLK
  5
161
  8
0
  0
BLOCK
  8
0
  2
*D9
 70
     1
 10
0.0
 20
0.0
 30
0.0
  3
*D9
  1

  0
TEXT
  5
165
  8
0
 62
     0
 10
737.97289503509978
 20
-192.23202088650001
 30
0.0
 40
2.9986110209999999
  1
35
 50
90.0
  0
LINE
  5
166
  8
0
 62
     0
 10
754.85761817390005
 20
-172.96813205059999
 30
0.0
 11
739.0020616859
 21
-172.96813205059999
 31
0.0
  0
LINE
  5
167
  8
0
 62
     0
 10
754.85761817390005
 20
-207.96813205059999
 30
0.0
 11
739.0020616859
 21
-207.96813205059999
 31
0.0
  0
LINE
  5
168
  8
0
 62
     0
 10
739.5020616859
 20
-172.96813205059999
 30
0.0
 11
739.5020616859
 21
-186.94035437880001
 31
0.0
  0
LINE
  5
169
  8
0
 62
     0
 10
739.5020616859
 20
-172.96813205059999
 30
0.0
 11
739.5020616859
 21
-193.9959097224
 31
0.0
  0
LINE
  5
16A
  8
0
 62
     0
 10
739.5020616859
 20
-207.96813205059999
 30
0.0
 11
739.5020616859
 21
-186.94035437880001
 31
0.0
  0
LINE
  5
16B
  8
0
 62
     0
 10
739.5020616859
 20
-207.96813205059999
 30
0.0
 11
739.5020616859
 21
-193.9959097224
 31
0.0
  0
LINE
  5
16C
  8
0
 62
     0
 10
739.5020616859
 20
-207.96813205059999
 30
0.0
 11
739.5020616859
 21
-204.96813205059999
 31
0.0
  0
SOLID
  5
16D
  8
0
 62
     0
 10
739.5020616859
 20
-207.96813205059999
 30
0.0
 11
738.75206168589989
 21
-204.96813205059999
 31
0.0
 12
740.2520616859
 22
-204.96813205059999
 32
0.0
 13
739.5020616859
 23
-205.71813205059999
 33
0.0
  0
LINE
  5
16E
  8
0
 62
     0
 10
739.5020616859
 20
-172.96813205059999
 30
0.0
 11
739.5020616859
 21
-175.96813205059999
 31
0.0
  0
SOLID
  5
16F
  8
0
 62
     0
 10
739.5020616859
 20
-172.96813205059999
 30
0.0
 11
740.2520616859
 21
-175.96813205059999
 31
0.0
 12
738.75206168589989
 22
-175.96813205059999
 32
0.0
 13
739.5020616859
 23
-175.21813205059999
 33
0.0
  0
ENDBLK
  5
170
  8
0
  0
BLOCK
  8
0
  2
*D10
 70
     1
 10
0.0
 20
0.0
 30
0.0
  3
*D10
  1

  0
TEXT
  5
174
  8
0
 62
     0
 10
771.593729338
 20
-216.4389653998
 30
0.0
 40
2.9986110209999999
  1
35
  0
LINE
  5
175
  8
0
 62
     0
 10
755.85761817390005
 20
-205.96813205059999
 30
0.0
 11
755.85761817390005
 21
-218.46813205059999
 31
0.0
  0
LINE
  5
176
  8
0
 62
     0
 10
790.85761817390005
 20
-208.96813205059999
 30
0.0
 11
790.85761817390005
 21
-218.46813205059999
 31
0.0
  0
LINE
  5
177
  8
0
 62
     0
 10
755.85761817390005
 20
-217.96813205059999
 30
0.0
 11
776.88539584570003
 21
-217.96813205059999
 31
0.0
  0
LINE
  5
178
  8
0
 62
     0
 10
755.85761817390005
 20
-217.96813205059999
 30
0.0
 11
769.82984050210007
 21
-217.96813205059999
 31
0.0
  0
LINE
  5
179
  8
0
 62
     0
 10
790.85761817390005
 20
-217.96813205059999
 30
0.0
 11
776.88539584570003
 21
-217.96813205059999
 31
0.0
  0
LINE
  5
17A
  8
0
 62
     0
 10
790.85761817390005
 20
-217.96813205059999
 30
0.0
 11
769.82984050210007
 21
-217.96813205059999
 31
0.0
  0
LINE
  5
17B
  8
0
 62
     0
 10
790.85761817390005
 20
-217.96813205059999
 30
0.0
 11
787.85761817390005
 21
-217.96813205059999
 31
0.0
  0
SOLID
  5
17C
  8
0
 62
     0
 10
790.85761817390005
 20
-217.96813205059999
 30
0.0
 11
787.85761817390005
 21
-218.71813205059999
 31
0.0
 12
787.85761817390005
 22
-217.21813205059999
 32
0.0
 13
788.60761817390005
 23
-217.96813205059999
 33
0.0
  0
LINE
  5
17D
  8
0
 62
     0
 10
755.85761817390005
 20
-217.96813205059999
 30
0.0
 11
758.85761817390005
 21
-217.96813205059999
 31
0.0
  0
SOLID
  5
17E
  8
0
 62
     0
 10
755.85761817390005
 20
-217.96813205059999
 30
0.0
 11
758.85761817390005
 21
-217.21813205059999
 31
0.0
 12
758.85761817390005
 22
-218.71813205059999
 32
0.0
 13
758.10761817390005
 23
-217.96813205059999
 33
0.0
  0
ENDBLK
  5
17F
  8
0
  0
BLOCK
  8
0
  2
*D11
 70
     1
 10
0.0
 20
0.0
 30
0.0
  3
*D11
  1

  0
TEXT
  5
183
  8
0
 62
     0
 10
800.3284515232001
 20
-271.39532183889997
 30
0.0
 40
2.9986110209999999
  1
8
 50
90.0
  0
LINE
  5
184
  8
0
 62
     0
 10
791.85761817390005
 20
-266.05887279130002
 30
0.0
 11
802.35761817390005
 21
-266.05887279130002
 31
0.0
  0
LINE
  5
185
  8
0
 62
     0
 10
792.85761817390005
 20
-258.05887279130002
 30
0.0
 11
802.35761817390005
 21
-258.05887279130002
 31
0.0
  0
LINE
  5
186
  8
0
 62
     0
 10
801.85761817390005
 20
-266.05887279130002
 30
0.0
 11
801.85761817390005
 21
-267.86754416709999
 31
0.0
  0
LINE
  5
187
  8
0
 62
     0
 10
801.85761817390005
 20
-266.05887279130002
 30
0.0
 11
801.85761817390005
 21
-273.15921067480002
 31
0.0
  0
LINE
  5
188
  8
0
 62
     0
 10
801.85761817390005
 20
-258.05887279130002
 30
0.0
 11
801.85761817390005
 21
-267.86754416709999
 31
0.0
  0
LINE
  5
189
  8
0
 62
     0
 10
801.85761817390005
 20
-258.05887279130002
 30
0.0
 11
801.85761817390005
 21
-273.15921067480002
 31
0.0
  0
LINE
  5
18A
  8
0
 62
     0
 10
801.85761817390005
 20
-258.05887279130002
 30
0.0
 11
801.85761817390005
 21
-261.05887279130002
 31
0.0
  0
SOLID
  5
18B
  8
0
 62
     0
 10
801.85761817390005
 20
-258.05887279130002
 30
0.0
 11
802.60761817390005
 21
-261.05887279130002
 31
0.0
 12
801.10761817389994
 22
-261.05887279130002
 32
0.0
 13
801.85761817390005
 23
-260.30887279130002
 33
0.0
  0
LINE
  5
18C
  8
0
 62
     0
 10
801.85761817390005
 20
-266.05887279130002
 30
0.0
 11
801.85761817390005
 21
-263.05887279130002
 31
0.0
  0
SOLID
  5
18D
  8
0
 62
     0
 10
801.85761817390005
 20
-266.05887279130002
 30
0.0
 11
801.10761817389994
 21
-263.05887279130002
 31
0.0
 12
802.60761817390005
 22
-263.05887279130002
 32
0.0
 13
801.85761817390005
 23
-263.80887279130002
 33
0.0
  0
ENDBLK
  5
18E
  8
0
  0
BLOCK
  8
0
  2
*D12
 70
     1
 10
0.0
 20
0.0
 30
0.0
  3
*D12
  1

  0
TEXT
  5
192
  8
0
 62
     0
 10
776.093729338
 20
-238.52970614060001
 30
0.0
 40
2.9986110209999999
  1
14
  0
LINE
  5
193
  8
0
 62
     0
 10
784.85761817390005
 20
-251.05887279129999
 30
0.0
 11
784.85761817390005
 21
-239.55887279129999
 31
0.0
  0
LINE
  5
194
  8
0
 62
     0
 10
770.85761817390005
 20
-251.05887279129999
 30
0.0
 11
770.85761817390005
 21
-239.55887279129999
 31
0.0
  0
LINE
  5
195
  8
0
 62
     0
 10
784.85761817390005
 20
-240.05887279129999
 30
0.0
 11
781.38539584570003
 21
-240.05887279129999
 31
0.0
  0
LINE
  5
196
  8
0
 62
     0
 10
784.85761817390005
 20
-240.05887279129999
 30
0.0
 11
774.32984050209996
 21
-240.05887279129999
 31
0.0
  0
LINE
  5
197
  8
0
 62
     0
 10
770.85761817390005
 20
-240.05887279129999
 30
0.0
 11
781.38539584570003
 21
-240.05887279129999
 31
0.0
  0
LINE
  5
198
  8
0
 62
     0
 10
770.85761817390005
 20
-240.05887279129999
 30
0.0
 11
774.32984050209996
 21
-240.05887279129999
 31
0.0
  0
LINE
  5
199
  8
0
 62
     0
 10
770.85761817390005
 20
-240.05887279129999
 30
0.0
 11
773.85761817390005
 21
-240.05887279129999
 31
0.0
  0
SOLID
  5
19A
  8
0
 62
     0
 10
770.85761817390005
 20
-240.05887279129999
 30
0.0
 11
773.85761817390005
 21
-239.30887279129999
 31
0.0
 12
773.85761817390005
 22
-240.80887279129999
 32
0.0
 13
773.10761817390005
 23
-240.05887279129999
 33
0.0
  0
LINE
  5
19B
  8
0
 62
     0
 10
784.85761817390005
 20
-240.05887279129999
 30
0.0
 11
781.85761817390005
 21
-240.05887279129999
 31
0.0
  0
SOLID
  5
19C
  8
0
 62
     0
 10
784.85761817390005
 20
-240.05887279129999
 30
0.0
 11
781.85761817390005
 21
-240.80887279129999
 31
0.0
 12
781.85761817390005
 22
-239.30887279129999
 32
0.0
 13
782.60761817390005
 23
-240.05887279129999
 33
0.0
  0
ENDBLK
  5
19D
  8
0
  0
BLOCK
  8
0
  2
*D13
 70
     1
 10
0.0
 20
0.0
 30
0.0
  3
*D13
  1

  0
TEXT
  5
1A1
  8
0
 62
     0
 10
761.593729338
 20
-238.52970614060001
 30
0.0
 40
2.9986110209999999
  1
15
  0
LINE
  5
1A2
  8
0
 62
     0
 10
770.85761817390005
 20
-251.05887279129999
 30
0.0
 11
770.85761817390005
 21
-239.55887279129999
 31
0.0
  0
LINE
  5
1A3
  8
0
 62
     0
 10
755.85761817390005
 20
-249.05887279129999
 30
0.0
 11
755.85761817390005
 21
-239.55887279129999
 31
0.0
  0
LINE
  5
1A4
  8
0
 62
     0
 10
770.85761817390005
 20
-240.05887279129999
 30
0.0
 11
766.88539584570003
 21
-240.05887279129999
 31
0.0
  0
LINE
  5
1A5
  8
0
 62
     0
 10
770.85761817390005
 20
-240.05887279129999
 30
0.0
 11
759.82984050209996
 21
-240.05887279129999
 31
0.0
  0
LINE
  5
1A6
  8
0
 62
     0
 10
755.85761817390005
 20
-240.05887279129999
 30
0.0
 11
766.88539584570003
 21
-240.05887279129999
 31
0.0
  0
LINE
  5
1A7
  8
0
 62
     0
 10
755.85761817390005
 20
-240.05887279129999
 30
0.0
 11
759.82984050209996
 21
-240.05887279129999
 31
0.0
  0
LINE
  5
1A8
  8
0
 62
     0
 10
755.85761817390005
 20
-240.05887279129999
 30
0.0
 11
758.85761817390005
 21
-240.05887279129999
 31
0.0
  0
SOLID
  5
1A9
  8
0
 62
     0
 10
755.85761817390005
 20
-240.05887279129999
 30
0.0
 11
758.85761817390005
 21
-239.30887279129999
 31
0.0
 12
758.85761817390005
 22
-240.80887279129999
 32
0.0
 13
758.10761817390005
 23
-240.05887279129999
 33
0.0
  0
LINE
  5
1AA
  8
0
 62
     0
 10
770.85761817390005
 20
-240.05887279129999
 30
0.0
 11
767.85761817390005
 21
-240.05887279129999
 31
0.0
  0
SOLID
  5
1AB
  8
0
 62
     0
 10
770.85761817390005
 20
-240.05887279129999
 30
0.0
 11
767.85761817390005
 21
-240.80887279129999
 31
0.0
 12
767.85761817390005
 22
-239.30887279129999
 32
0.0
 13
768.60761817390005
 23
-240.05887279129999
 33
0.0
  0
ENDBLK
  5
1AC
  8
0
  0
BLOCK
  8
0
  2
*D14
 70
     1
 10
0.0
 20
0.0
 30
0.0
  3
*D14
  1

  0
TEXT
  5
1B0
  8
0
 62
     0
 10
786.97567375600011
 20
-238.52970614060001
 30
0.0
 40
2.9986110209999999
  1
6
  0
LINE
  5
1B1
  8
0
 62
     0
 10
790.85761817390005
 20
-249.05887279129999
 30
0.0
 11
790.85761817390005
 21
-239.55887279129999
 31
0.0
  0
LINE
  5
1B2
  8
0
 62
     0
 10
784.85761817390005
 20
-251.05887279129999
 30
0.0
 11
784.85761817390005
 21
-239.55887279129999
 31
0.0
  0
LINE
  5
1B3
  8
0
 62
     0
 10
790.85761817390005
 20
-240.05887279129999
 30
0.0
 11
790.50345142779997
 21
-240.05887279129999
 31
0.0
  0
LINE
  5
1B4
  8
0
 62
     0
 10
790.85761817390005
 20
-240.05887279129999
 30
0.0
 11
785.21178492009994
 21
-240.05887279129999
 31
0.0
  0
LINE
  5
1B5
  8
0
 62
     0
 10
784.85761817390005
 20
-240.05887279129999
 30
0.0
 11
790.50345142779997
 21
-240.05887279129999
 31
0.0
  0
LINE
  5
1B6
  8
0
 62
     0
 10
784.85761817390005
 20
-240.05887279129999
 30
0.0
 11
785.21178492009994
 21
-240.05887279129999
 31
0.0
  0
LINE
  5
1B7
  8
0
 62
     0
 10
784.85761817390005
 20
-240.05887279129999
 30
0.0
 11
781.85761817390005
 21
-240.05887279129999
 31
0.0
  0
SOLID
  5
1B8
  8
0
 62
     0
 10
784.85761817390005
 20
-240.05887279129999
 30
0.0
 11
781.85761817390005
 21
-240.80887279129999
 31
0.0
 12
781.85761817390005
 22
-239.30887279129999
 32
0.0
 13
782.60761817390005
 23
-240.05887279129999
 33
0.0
  0
LINE
  5
1B9
  8
0
 62
     0
 10
790.85761817390005
 20
-240.05887279129999
 30
0.0
 11
793.85761817390005
 21
-240.05887279129999
 31
0.0
  0
SOLID
  5
1BA
  8
0
 62
     0
 10
790.85761817390005
 20
-240.05887279129999
 30
0.0
 11
793.85761817390005
 21
-239.30887279129999
 31
0.0
 12
793.85761817390005
 22
-240.80887279129999
 32
0.0
 13
793.10761817390005
 23
-240.05887279129999
 33
0.0
  0
ENDBLK
  5
1BB
  8
0
  0
BLOCK
  8
0
  2
*D15
 70
     1
 10
0.0
 20
0.0
 30
0.0
  3
*D15
  1

  0
TEXT
  5
1BF
  8
0
 62
     0
 10
835.57150711580005
 20
-151.3445211248999
 30
0.0
 40
2.9986110209999999
  1
16
  0
LINE
  5
1C0
  8
0
 62
     0
 10
845.33539595169987
 20
-171.96813205059999
 30
0.0
 11
845.33539595169987
 21
-152.37368777570001
 31
0.0
  0
LINE
  5
1C1
  8
0
 62
     0
 10
829.33539595169998
 20
-171.96813205059999
 30
0.0
 11
829.33539595169998
 21
-152.37368777570001
 31
0.0
  0
LINE
  5
1C2
  8
0
 62
     0
 10
845.33539595169987
 20
-152.87368777570001
 30
0.0
 11
840.86317362350007
 21
-152.87368777570001
 31
0.0
  0
LINE
  5
1C3
  8
0
 62
     0
 10
845.33539595169987
 20
-152.87368777570001
 30
0.0
 11
833.80761827990011
 21
-152.87368777570001
 31
0.0
  0
LINE
  5
1C4
  8
0
 62
     0
 10
829.33539595169998
 20
-152.87368777570001
 30
0.0
 11
840.86317362350007
 21
-152.87368777570001
 31
0.0
  0
LINE
  5
1C5
  8
0
 62
     0
 10
829.33539595169998
 20
-152.87368777570001
 30
0.0
 11
833.80761827990011
 21
-152.87368777570001
 31
0.0
  0
LINE
  5
1C6
  8
0
 62
     0
 10
829.33539595169998
 20
-152.87368777570001
 30
0.0
 11
832.33539595169998
 21
-152.87368777570001
 31
0.0
  0
SOLID
  5
1C7
  8
0
 62
     0
 10
829.33539595169998
 20
-152.87368777570001
 30
0.0
 11
832.33539595169998
 21
-152.12368777570001
 31
0.0
 12
832.33539595169998
 22
-153.62368777570001
 32
0.0
 13
831.58539595169987
 23
-152.87368777570001
 33
0.0
  0
LINE
  5
1C8
  8
0
 62
     0
 10
845.33539595169987
 20
-152.87368777570001
 30
0.0
 11
842.33539595169987
 21
-152.87368777570001
 31
0.0
  0
SOLID
  5
1C9
  8
0
 62
     0
 10
845.33539595169987
 20
-152.87368777570001
 30
0.0
 11
842.33539595169987
 21
-153.62368777570001
 31
0.0
 12
842.33539595169987
 22
-152.12368777570001
 32
0.0
 13
843.08539595169998
 23
-152.87368777570001
 33
0.0
  0
ENDBLK
  5
1CA
  8
0
  0
BLOCK
  8
0
  2
*D16
 70
     1
 10
0.0
 20
0.0
 30
0.0
  3
*D16
  1

  0
TEXT
  5
1CE
  8
0
 62
     0
 10
764.88540606799995
 20
-155.87483577020001
 30
0.0
 40
2.9986110209999999
  1
3t
  0
LINE
  5
1CF
  8
0
 62
     0
 10
758.85761817390005
 20
-171.96813205059999
 30
0.0
 11
758.85761817390005
 21
-156.904002421
 31
0.0
  0
LINE
  5
1D0
  8
0
 62
     0
 10
755.85761817390005
 20
-171.96813205059999
 30
0.0
 11
755.85761817390005
 21
-156.904002421
 31
0.0
  0
LINE
  5
1D1
  8
0
 62
     0
 10
758.85761817390005
 20
-157.404002421
 30
0.0
 11
770.17707257569998
 21
-157.404002421
 31
0.0
  0
LINE
  5
1D2
  8
0
 62
     0
 10
758.85761817390005
 20
-157.404002421
 30
0.0
 11
763.12151723210002
 21
-157.404002421
 31
0.0
  0
LINE
  5
1D3
  8
0
 62
     0
 10
755.85761817390005
 20
-157.404002421
 30
0.0
 11
770.17707257569998
 21
-157.404002421
 31
0.0
  0
LINE
  5
1D4
  8
0
 62
     0
 10
755.85761817390005
 20
-157.404002421
 30
0.0
 11
763.12151723210002
 21
-157.404002421
 31
0.0
  0
LINE
  5
1D5
  8
0
 62
     0
 10
755.85761817390005
 20
-157.404002421
 30
0.0
 11
752.85761817390005
 21
-157.404002421
 31
0.0
  0
SOLID
  5
1D6
  8
0
 62
     0
 10
755.85761817390005
 20
-157.404002421
 30
0.0
 11
752.85761817390005
 21
-158.154002421
 31
0.0
 12
752.85761817390005
 22
-156.654002421
 32
0.0
 13
753.60761817390005
 23
-157.404002421
 33
0.0
  0
LINE
  5
1D7
  8
0
 62
     0
 10
758.85761817390005
 20
-157.404002421
 30
0.0
 11
761.85761817390005
 21
-157.404002421
 31
0.0
  0
SOLID
  5
1D8
  8
0
 62
     0
 10
758.85761817390005
 20
-157.404002421
 30
0.0
 11
761.85761817390005
 21
-156.654002421
 31
0.0
 12
761.85761817390005
 22
-158.154002421
 32
0.0
 13
761.10761817390005
 23
-157.404002421
 33
0.0
  0
ENDBLK
  5
1D9
  8
0
  0
BLOCK
  8
0
  2
*D17
 70
     1
 10
0.0
 20
0.0
 30
0.0
  3
*D17
  1

  0
TEXT
  5
1DE
  8
0
 62
     0
 10
914.27177927770003
 20
-168.72824062500001
 30
0.0
 40
2.9986110209999999
  1
90%%d
  0
ARC
  5
1DF
  8
0
 62
     0
 10
916.91761253160007
 20
-213.4876092641
 30
0.0
 40
43.171868686899998
 50
130.1369976529999
 51
135.0
  0
ARC
  5
1E0
  8
0
 62
     0
 10
916.91761253160007
 20
-213.4876092641
 30
0.0
 40
43.171868686899998
 50
45.0
 51
49.863002346999991
  0
SOLID
  5
1E1
  8
0
 62
     0
 10
947.4447336364999
 20
-182.96048815919991
 30
0.0
 11
950.09638406600004
 21
-184.55147841679999
 31
0.0
 12
949.03572389419992
 22
-185.6121385886
 32
0.0
 13
949.03572389419992
 23
-184.55147841679999
 33
0.0
  0
SOLID
  5
1E2
  8
0
 62
     0
 10
886.39049142660008
 20
-182.96048815919991
 30
0.0
 11
884.79950116889995
 21
-185.6121385886
 31
0.0
 12
883.73884099710006
 22
-184.55147841679999
 32
0.0
 13
884.79950116889995
 23
-184.55147841679999
 33
0.0
  0
ARC
  5
1E3
  8
0
 62
     0
 10
916.91761253160007
 20
-213.4876092641
 30
0.0
 40
43.171868686899998
 50
45.0
 51
84.071626409200007
  0
ARC
  5
1E4
  8
0
 62
     0
 10
916.91761253160007
 20
-213.4876092641
 30
0.0
 40
43.171868686899998
 50
95.928373590799978
 51
135.0
  0
LINE
  5
1E5
  8
0
 62
     0
 10
938.33182609389985
 20
-192.0733957018
 30
0.0
 11
948.85894719889995
 21
-181.5462745968
 31
0.0
  0
LINE
  5
1E6
  8
0
 62
     0
 10
895.50339896919991
 20
-192.0733957018
 30
0.0
 11
884.97627786420003
 21
-181.5462745968
 31
0.0
  0
ENDBLK
  5
1E7
  8
0
  0
BLOCK
  8
0
  2
*D18
 70
     1
 10
0.0
 20
0.0
 30
0.0
  3
*D18
  1

  0
TEXT
  5
1EB
  8
0
 62
     0
 10
770.81915251750002
 20
-187.004631144
 30
0.0
 40
2.9986110209999999
  1
90%%d
 50
319.29916302650003
  0
ARC
  5
1EC
  8
0
 62
     0
 10
758.85761817390005
 20
-204.96813205059999
 30
0.0
 40
19.831305688200001
 50
77.711446684099997
 51
90.0
  0
ARC
  5
1ED
  8
0
 62
     0
 10
758.85761817390005
 20
-204.96813205059999
 30
0.0
 40
19.831305688200001
 50
0.0
 51
12.2885533159
  0
SOLID
  5
1EE
  8
0
 62
     0
 10
778.68892386209995
 20
-204.96813205059999
 30
0.0
 11
779.43892386209995
 21
-207.96813205059999
 31
0.0
 12
777.93892386210007
 22
-207.96813205059999
 32
0.0
 13
778.68892386209995
 23
-207.21813205059999
 33
0.0
  0
SOLID
  5
1EF
  8
0
 62
     0
 10
758.85761817390005
 20
-185.1368263624
 30
0.0
 11
755.85761817390005
 21
-185.8868263624
 31
0.0
 12
755.85761817390005
 22
-184.3868263624
 32
0.0
 13
756.60761817390005
 23
-185.1368263624
 33
0.0
  0
ARC
  5
1F0
  8
0
 62
     0
 10
758.85761817390005
 20
-204.96813205059999
 30
0.0
 40
19.831305688200001
 50
0.0
 51
36.315675114400001
  0
ARC
  5
1F1
  8
0
 62
     0
 10
758.85761817390005
 20
-204.96813205059999
 30
0.0
 40
19.831305688200001
 50
62.282650938700002
 51
90.0
  0
LINE
  5
1F2
  8
0
 62
     0
 10
788.85761817390005
 20
-204.96813205059999
 30
0.0
 11
776.68892386210007
 21
-204.96813205059999
 31
0.0
  0
LINE
  5
1F3
  8
0
 62
     0
 10
758.85761817390005
 20
-174.96813205059999
 30
0.0
 11
758.85761817390005
 21
-187.1368263624
 31
0.0
  0
ENDBLK
  5
1F4
  8
0
  0
BLOCK
  8
0
  2
*U19
 70
     1
 10
0.0
 20
0.0
 30
0.0
  3
*U19
  1

  0
TEXT
  5
213
  8
┌▓È_1
  6
CONTINUOUS
 10
856.06910905929976
 20
-287.05371597932901
 30
0.0
 40
3.5983331442000002
  1
ò\û╩ÅêùØüFâåâjâNâìâüâbâLÄdÅÒé░
  0
ENDBLK
  5
215
  8
0
  0
BLOCK
  8
0
  2
*U20
 70
     1
 10
0.0
 20
0.0
 30
0.0
  3
*U20
  1

  0
TEXT
  5
217
  8
┌▓È_1
  6
CONTINUOUS
 10
935.47425732720001
 20
-303.28390269276349
 30
0.0
 40
3.5983331442000002
  1
ékî^âAâôâOâï
  0
ENDBLK
  5
219
  8
0
  0
BLOCK
  8
0
  2
*U21
 70
     1
 10
0.0
 20
0.0
 30
0.0
  3
*U21
  1

  0
TEXT
  5
21B
  8
┌▓È_1
  6
CONTINUOUS
 10
863.28966278410007
 20
-311.7273501460665
 30
0.0
 40
4.3179999351999987
  1
èöÄ«ë´Äð
  0
ENDBLK
  5
21D
  8
0
  0
BLOCK
  8
0
  2
*U22
 70
     1
 10
0.0
 20
0.0
 30
0.0
  3
*U22
  1

  0
TEXT
  5
21F
  8
┌▓È_1
  6
CONTINUOUS
 10
856.06910905929976
 20
-300.14846399406849
 30
0.0
 40
2.337499999999999
  1
 É¦îvü@ü@öÆÉ{ëÛ
  0
ENDBLK
  5
221
  8
0
  0
BLOCK
  8
0
  2
*U23
 70
     1
 10
0.0
 20
0.0
 30
0.0
  3
*U23
  1

  0
TEXT
  5
223
  8
┌▓È_1
  6
CONTINUOUS
 10
856.06910905929976
 20
-304.41032947630202
 30
0.0
 40
2.337499999999999
  1
 É╗É}ü@ü@ è¦û{
  0
ENDBLK
  5
225
  8
0
  0
BLOCK
  8
0
  2
*U24
 70
     1
 10
0.0
 20
0.0
 30
0.0
  3
*U24
  1

  0
TEXT
  5
227
  8
┌▓È_1
  6
CONTINUOUS
 10
856.53449487059981
 20
-291.565405618434
 30
0.0
 40
2.337499999999999
  1
ü@ô· ü@òt
  0
ENDBLK
  5
229
  8
0
  0
BLOCK
  8
0
  2
*U25
 70
     1
 10
0.0
 20
0.0
 30
0.0
  3
*U25
  1

  0
TEXT
  5
22B
  8
┌▓È_1
  6
CONTINUOUS
 10
920.95960851309997
 20
-291.57210345040102
 30
0.0
 40
2.337499999999999
  1
î^öÈ
  0
ENDBLK
  5
22D
  8
0
  0
BLOCK
  8
0
  2
*U26
 70
     1
 10
0.0
 20
0.0
 30
0.0
  3
*U26
  1

  0
TEXT
  5
22F
  8
┌▓È_1
  6
CONTINUOUS
 10
920.95960851309997
 20
-300.09583441486802
 30
0.0
 40
2.337499999999999
  1
òiû╝
  0
ENDBLK
  5
231
  8
0
  0
BLOCK
  8
0
  2
*U27
 70
     1
 10
0.0
 20
0.0
 30
0.0
  3
*U27
  1

  0
TEXT
  5
233
  8
┌▓È_1
  6
CONTINUOUS
 10
920.95960851309997
 20
-308.57210345040102
 30
0.0
 40
2.337499999999999
  1
É}öÈ
  0
ENDBLK
  5
235
  8
0
  0
BLOCK
  8
0
  2
*U28
 70
     1
 10
0.0
 20
0.0
 30
0.0
  3
*U28
  1

  0
TEXT
  5
237
  8
┌▓È_1
  6
CONTINUOUS
 62
     5
 10
860.25435652122883
 20
-295.76794368949999
 30
0.0
 40
2.337499999999999
  1
H16.4
  0
ENDBLK
  5
239
  8
0
  0
BLOCK
  8
0
  2
*U29
 70
     1
 10
0.0
 20
0.0
 30
0.0
  3
*U29
  1

  0
TEXT
  5
23B
  8
┌▓È_1
  6
CONTINUOUS
 62
     5
 10
878.66898215574656
 20
-295.91032947630202
 30
0.0
 40
2.337499999999999
  1
ôS
  0
ENDBLK
  5
23D
  8
0
  0
BLOCK
  8
0
  2
*U30
 70
     1
 10
0.0
 20
0.0
 30
0.0
  3
*U30
  1

  0
TEXT
  5
23F
  8
┌▓È_1
  6
CONTINUOUS
 62
     5
 10
893.05527657199025
 20
-295.76794368949999
 30
0.0
 40
2.337499999999999
  1
3.0t
  0
ENDBLK
  5
241
  8
0
  0
BLOCK
  8
0
  2
*U31
 70
     1
 10
0.0
 20
0.0
 30
0.0
  3
*U31
  1

  0
TEXT
  5
243
  8
┌▓È_1
  6
CONTINUOUS
 62
     5
 10
893.17986413544202
 20
-304.26794368949999
 30
0.0
 40
2.337499999999999
  1
1üF1
  0
ENDBLK
  5
245
  8
0
  0
BLOCK
  8
0
  2
*U32
 70
     1
 10
0.0
 20
0.0
 30
0.0
  3
*U32
  1

  0
TEXT
  5
247
  8
┌▓È_1
  6
CONTINUOUS
 10
872.53449487059981
 20
-291.60100206513448
 30
0.0
 40
2.337499999999999
  1
ü@ìÌ ü@Ä┐
  0
ENDBLK
  5
249
  8
0
  0
BLOCK
  8
0
  2
*U33
 70
     1
 10
0.0
 20
0.0
 30
0.0
  3
*U33
  1

  0
TEXT
  5
24B
  8
┌▓È_1
  6
CONTINUOUS
 10
888.53449487059993
 20
-291.64846399406849
 30
0.0
 40
2.337499999999999
  1
ü@ö┬ ü@î·
  0
ENDBLK
  5
24D
  8
0
  0
BLOCK
  8
0
  2
*U34
 70
     1
 10
0.0
 20
0.0
 30
0.0
  3
*U34
  1

  0
TEXT
  5
24F
  8
┌▓È_1
  6
CONTINUOUS
 10
888.53449487059993
 20
-300.13659851183502
 30
0.0
 40
2.337499999999999
  1
ü@Ä┌ ü@ôx
  0
ENDBLK
  5
251
  8
0
  0
BLOCK
  8
0
  2
*U35
 70
     1
 10
0.0
 20
0.0
 30
0.0
  3
*U35
  1

  0
TEXT
  5
253
  8
┌▓È_1
  6
CONTINUOUS
 10
904.53449487059993
 20
-291.64846399406849
 30
0.0
 40
2.337499999999999
  1
ü@îƒ ü@ê¾
  0
ENDBLK
  5
255
  8
0
  0
BLOCK
  8
0
  2
*U36
 70
     1
 10
0.0
 20
0.0
 30
0.0
  3
*U36
  1

  0
TEXT
  5
257
  8
┌▓È_1
  6
CONTINUOUS
 10
903.78635956988069
 20
-232.02965021221121
 30
0.0
 40
2.9986110209999999
  1
ÄMâéâ~òöègæÕÉ}
  0
ENDBLK
  5
259
  8
0
  0
BLOCK
  8
0
  2
*D37
 70
     1
 10
0.0
 20
0.0
 30
0.0
  3
*D37
  1

  0
LINE
  5
25C
  8
Éíû@É³
 62
     0
 10
937.49213679132436
 20
-192.9130850044759
 30
0.0
 11
948.32861711309113
 21
-182.0766046827618
 31
0.0
  0
LINE
  5
25D
  8
Éíû@É³
 62
     0
 10
896.34308827187567
 20
-192.9130850044759
 30
0.0
 11
885.5066079501089
 21
-182.07660468276191
 31
0.0
  0
ARC
  5
25E
  8
Éíû@É³
 62
     0
 10
916.91761253160007
 20
-213.4876092641
 30
0.0
 40
43.171868686799989
 50
48.982267768880646
 51
83.832893309866108
  0
ARC
  5
25F
  8
Éíû@É³
 62
     0
 10
916.91761253160007
 20
-213.4876092641
 30
0.0
 40
43.171868686799989
 50
96.167106690133892
 51
131.01773223111951
  0
SOLID
  5
260
  8
Éíû@É³
 62
     0
 10
945.59204492309573
 20
-180.54852950892709
 30
0.0
 11
944.90993339939928
 21
-181.2797776673799
 31
0.0
 12
947.44473363660575
 22
-182.9604881592428
 32
0.0
 13
947.44473363660575
 23
-182.9604881592428
 33
0.0
  0
SOLID
  5
261
  8
Éíû@É³
 62
     0
 10
888.92529166380075
 20
-181.27977766737999
 30
0.0
 11
888.2431801401043
 21
-180.5485295089272
 31
0.0
 12
886.39049142659417
 22
-182.96048815924291
 32
0.0
 13
886.39049142659417
 23
-182.96048815924291
 33
0.0
  0
TEXT
  8
Éíû@É³
  40
2.99861
  5
27B
  62
0
  72
0
  71
0
 10
910.920
 20
-175.623
 30
0.000000
  1
90üï
  0
POINT
  5
263
  8
Defpoints
 62
     0
 10
916.91761253160007
 20
-213.4876092641
 30
0.0
  0
POINT
  5
264
  8
Defpoints
 62
     0
 10
937.44794261749996
 20
-192.95727917830001
 30
0.0
  0
POINT
  5
265
  8
Defpoints
 62
     0
 10
896.38728244569995
 20
-192.95727917830001
 30
0.0
  0
POINT
  5
266
  8
Defpoints
 62
     0
 10
928.09131436044288
 20
-171.78678633036861
 30
0.0
  0
ENDBLK
  5
268
  8
0
  0
BLOCK
  8
0
  2
*D38
 70
     1
 10
0.0
 20
0.0
 30
0.0
  3
*D38
  1

  0
LINE
  5
26A
  8
Éíû@É³
 62
     0
 10
790.79511817390016
 20
-204.96813205059999
 30
0.0
 11
777.43892386213145
 21
-204.96813205059999
 31
0.0
  0
LINE
  5
26B
  8
Éíû@É³
 62
     0
 10
758.85761817389994
 20
-173.03063205059999
 30
0.0
 11
758.85761817390005
 21
-186.38682636236851
 31
0.0
  0
ARC
  5
26C
  8
Éíû@É³
 62
     0
 10
758.85761817389994
 20
-204.96813205059999
 30
0.0
 40
19.831305688231499
 50
8.6757605484415521
 51
35.774301218020241
  0
ARC
  5
26D
  8
Éíû@É³
 62
     0
 10
758.85761817389994
 20
-204.96813205059999
 30
0.0
 40
19.831305688231499
 50
62.824024835010867
 51
81.324239451558441
  0
SOLID
  5
26E
  8
Éíû@É³
 62
     0
 10
778.96057757970846
 20
-201.93890702466911
 30
0.0
 11
777.96344223521305
 21
-202.0145450095593
 31
0.0
 12
778.68892386213145
 22
-204.96813205059999
 32
0.0
 13
778.68892386213145
 23
-204.96813205059999
 33
0.0
  0
SOLID
  5
26F
  8
Éíû@É³
 62
     0
 10
761.81120521494086
 20
-185.86230798928679
 30
0.0
 11
761.88684319983088
 21
-184.8651726447915
 31
0.0
 12
758.85761817389994
 22
-185.13682636236851
 32
0.0
 13
758.85761817389994
 23
-185.13682636236851
 33
0.0
  0
TEXT
  8
Éíû@É³
  40
2.99861
  5
27C
  62
0
  72
0
  71
0
 10
765.793
 20
-195.241
 30
0.000000
  1
90üï
  0
POINT
  5
271
  8
Defpoints
 62
     0
 10
758.85761817389994
 20
-204.96813205059999
 30
0.0
  0
POINT
  5
272
  8
Defpoints
 62
     0
 10
790.85761817390005
 20
-204.96813205059999
 30
0.0
  0
POINT
  5
273
  8
Defpoints
 62
     0
 10
758.85761817390005
 20
-172.96813205059999
 30
0.0
  0
POINT
  5
274
  8
Defpoints
 62
     0
 10
776.0320326901234
 20
-195.05247920648429
 30
0.0
  0
ENDBLK
  5
276
  8
0
  0
BLOCK
  8
0
  2
*U39
 70
     1
 10
0.0
 20
0.0
 30
0.0
  3
*U39
  1

  0
TEXT
  5
278
  8
┌▓È_1
  6
CONTINUOUS
 10
934.17779149978367
 20
-294.35210909829999
 30
0.0
 40
3.5983331442000002
  1
LY-203  35x35
  0
ENDBLK
  5
27A
  8
0
  0
ENDSEC
  0
SECTION
  2
ENTITIES
  0
LINE
  5
2F
  8
┌▓È_1
  6
STITCH
 10
766.85761817390005
 20
-204.96813205059999
 30
0.0
 11
768.85761817390005
 21
-206.96813205059999
 31
0.0
  0
LINE
  5
30
  8
┌▓È_1
  6
STITCH
 10
772.85761817390005
 20
-206.96813205059999
 30
0.0
 11
768.85761817390005
 21
-206.96813205059999
 31
0.0
  0
LINE
  5
31
  8
┌▓È_1
  6
STITCH
 10
758.85761817390005
 20
-174.96813205059999
 30
0.0
 11
756.85761817390005
 21
-176.96813205059999
 31
0.0
  0
LINE
  5
32
  8
┌▓È_1
  6
STITCH
 10
758.85761817390005
 20
-182.96813205059999
 30
0.0
 11
756.85761817390005
 21
-180.96813205059999
 31
0.0
  0
LINE
  5
33
  8
┌▓È_1
  6
STITCH
 10
756.85761817390005
 20
-176.96813205059999
 30
0.0
 11
756.85761817390005
 21
-180.96813205059999
 31
0.0
  0
LINE
  5
34
  8
┌▓È_1
  6
STITCH
 10
756.85761817390005
 20
-176.96813205059999
 30
0.0
 11
755.85761817390005
 21
-176.96813205059999
 31
0.0
  0
LINE
  5
35
  8
┌▓È_1
  6
STITCH
 10
756.85761817390005
 20
-190.96813205059999
 30
0.0
 11
755.85761817390005
 21
-190.96813205059999
 31
0.0
  0
LINE
  5
36
  8
┌▓È_1
  6
STITCH
 10
756.85761817390005
 20
-190.96813205059999
 30
0.0
 11
756.85761817390005
 21
-194.96813205059999
 31
0.0
  0
LINE
  5
37
  8
┌▓È_1
  6
STITCH
 10
758.85761817390005
 20
-196.96813205059999
 30
0.0
 11
756.85761817390005
 21
-194.96813205059999
 31
0.0
  0
LINE
  5
38
  8
┌▓È_1
  6
STITCH
 10
758.85761817390005
 20
-188.96813205059999
 30
0.0
 11
756.85761817390005
 21
-190.96813205059999
 31
0.0
  0
LINE
  5
39
  8
┌▓È_1
 62
     5
 10
906.91761253160007
 20
-203.4876092641
 30
0.0
 11
906.91761253160007
 21
-208.4876092641
 31
0.0
  0
LINE
  5
3A
  8
┌▓È_1
 62
     5
 10
926.91761253159996
 20
-203.4876092641
 30
0.0
 11
926.91761253159996
 21
-208.4876092641
 31
0.0
  0
LINE
  5
3B
  8
┌▓È_1
 62
     5
 10
896.91761253159996
 20
-193.4876092641
 30
0.0
 11
906.91761253160007
 21
-203.4876092641
 31
0.0
  0
LINE
  5
3C
  8
┌▓È_1
 62
     5
 10
886.43242734639989
 20
-193.4876092641
 30
0.0
 11
947.40279771679991
 21
-193.4876092641
 31
0.0
  0
LINE
  5
3D
  8
┌▓È_1
 62
     5
 10
886.43242734639989
 20
-208.4876092641
 30
0.0
 11
947.40279771679991
 21
-208.4876092641
 31
0.0
  0
LINE
  5
3E
  8
┌▓È_1
  6
BORDER
 62
     3
 10
916.91761253160007
 20
-188.4876092641
 30
0.0
 11
916.91761253160007
 21
-213.4876092641
 31
0.0
  0
LINE
  5
3F
  8
┌▓È_1
 62
     5
 10
845.33539595169987
 20
-207.96813205059999
 30
0.0
 11
845.33539595169987
 21
-172.96813205059999
 31
0.0
  0
LINE
  5
40
  8
┌▓È_1
 62
     5
 10
936.91761253159996
 20
-193.4876092641
 30
0.0
 11
926.91761253159996
 21
-203.4876092641
 31
0.0
  0
LINE
  5
41
  8
┌▓È_1
 62
     5
 10
926.91761253159996
 20
-203.4876092641
 30
0.0
 11
906.91761253160007
 21
-203.4876092641
 31
0.0
  0
CIRCLE
  5
42
  8
┌▓È_1
 62
     5
 10
770.85761817390005
 20
-258.05887279130002
 30
0.0
 40
2.0
  0
CIRCLE
  5
43
  8
┌▓È_1
 62
     5
 10
784.85761817390005
 20
-258.05887279130002
 30
0.0
 40
2.0
  0
LINE
  5
44
  8
┌▓È_1
  6
BORDER
 62
     3
 10
778.85761817390005
 20
-258.05887279130002
 30
0.0
 11
791.85761817390005
 21
-258.05887279130002
 31
0.0
  0
CIRCLE
  5
45
  8
┌▓È_1
  6
STITCH
 10
784.85761817390005
 20
-258.05887279130002
 30
0.0
 40
4.0
  0
LINE
  5
46
  8
┌▓È_1
  6
STITCH
 10
756.85761817390005
 20
-180.96813205059999
 30
0.0
 11
755.85761817390005
 21
-180.96813205059999
 31
0.0
  0
LINE
  5
47
  8
┌▓È_1
  6
BORDER
 62
     3
 10
753.1904392928999
 20
-178.96813205059999
 30
0.0
 11
761.11668042770009
 21
-178.96813205059999
 31
0.0
  0
LINE
  5
48
  8
┌▓È_1
  6
BORDER
 62
     3
 10
753.1904392928999
 20
-192.96813205059999
 30
0.0
 11
761.11668042770009
 21
-192.96813205059999
 31
0.0
  0
LINE
  5
49
  8
┌▓È_1
  6
STITCH
 10
756.85761817390005
 20
-194.96813205059999
 30
0.0
 11
755.85761817390005
 21
-194.96813205059999
 31
0.0
  0
ARC
  5
4A
  8
┌▓È_1
 62
     5
 10
758.85761817390005
 20
-204.96813205059999
 30
0.0
 40
3.0
 50
180.0
 51
270.0
  0
LINE
  5
4B
  8
┌▓È_1
 62
     5
 10
755.85761817390005
 20
-204.96813205059999
 30
0.0
 11
755.85761817390005
 21
-172.96813205059999
 31
0.0
  0
LINE
  5
4C
  8
┌▓È_1
 62
     5
 10
758.85761817390005
 20
-204.96813205059999
 30
0.0
 11
758.85761817390005
 21
-172.96813205059999
 31
0.0
  0
LINE
  5
4D
  8
┌▓È_1
 62
     5
 10
758.85761817390005
 20
-172.96813205059999
 30
0.0
 11
755.85761817390005
 21
-172.96813205059999
 31
0.0
  0
LINE
  5
4E
  8
┌▓È_1
 62
     5
 10
758.85761817390005
 20
-207.96813205059999
 30
0.0
 11
790.85761817390005
 21
-207.96813205059999
 31
0.0
  0
LINE
  5
4F
  8
┌▓È_1
 62
     5
 10
758.85761817390005
 20
-204.96813205059999
 30
0.0
 11
790.85761817390005
 21
-204.96813205059999
 31
0.0
  0
LINE
  5
50
  8
┌▓È_1
 62
     5
 10
790.85761817390005
 20
-207.96813205059999
 30
0.0
 11
790.85761817390005
 21
-204.96813205059999
 31
0.0
  0
LINE
  5
51
  8
┌▓È_1
  6
STITCH
 10
772.85761817390005
 20
-206.96813205059999
 30
0.0
 11
772.85761817390005
 21
-207.96813205059999
 31
0.0
  0
LINE
  5
52
  8
┌▓È_1
  6
STITCH
 10
768.85761817390005
 20
-206.96813205059999
 30
0.0
 11
768.85761817390005
 21
-207.96813205059999
 31
0.0
  0
LINE
  5
53
  8
┌▓È_1
  6
BORDER
 62
     3
 10
770.85761817390005
 20
-210.6353109316
 30
0.0
 11
770.85761817390005
 21
-202.7090697969
 31
0.0
  0
LINE
  5
54
  8
┌▓È_1
  6
BORDER
 62
     3
 10
784.85761817390005
 20
-210.6353109316
 30
0.0
 11
784.85761817390005
 21
-202.7090697969
 31
0.0
  0
LINE
  5
55
  8
┌▓È_1
  6
STITCH
 10
782.85761817390005
 20
-206.96813205059999
 30
0.0
 11
782.85761817390005
 21
-207.96813205059999
 31
0.0
  0
LINE
  5
56
  8
┌▓È_1
  6
STITCH
 10
786.85761817390005
 20
-206.96813205059999
 30
0.0
 11
786.85761817390005
 21
-207.96813205059999
 31
0.0
  0
LINE
  5
57
  8
┌▓È_1
  6
STITCH
 10
786.85761817390005
 20
-206.96813205059999
 30
0.0
 11
782.85761817390005
 21
-206.96813205059999
 31
0.0
  0
LINE
  5
58
  8
┌▓È_1
  6
STITCH
 10
780.85761817390005
 20
-204.96813205059999
 30
0.0
 11
782.85761817390005
 21
-206.96813205059999
 31
0.0
  0
LINE
  5
59
  8
┌▓È_1
  6
STITCH
 10
788.85761817390005
 20
-204.96813205059999
 30
0.0
 11
786.85761817390005
 21
-206.96813205059999
 31
0.0
  0
LINE
  5
5A
  8
┌▓È_1
  6
STITCH
 10
774.85761817390005
 20
-204.96813205059999
 30
0.0
 11
772.85761817390005
 21
-206.96813205059999
 31
0.0
  0
POLYLINE
  8
┌▓È_1
  5
27D
  62
5
  66
     1
 10
0.000000
 20
0.000000
 30
0.000000
  70
     8
  0
VERTEX
  8
┌▓È_1
  5
27E
 10
901.942
 20
-309.157
 30
0.000000
  70
    32
  0
VERTEX
  8
┌▓È_1
  5
27F
 10
901.948
 20
-309.163
 30
0.000000
  70
    32
  0
VERTEX
  8
┌▓È_1
  5
280
 10
901.953
 20
-309.169
 30
0.000000
  70
    32
  0
VERTEX
  8
┌▓È_1
  5
281
 10
901.958
 20
-309.175
 30
0.000000
  70
    32
  0
VERTEX
  8
┌▓È_1
  5
282
 10
901.963
 20
-309.181
 30
0.000000
  70
    32
  0
VERTEX
  8
┌▓È_1
  5
283
 10
901.969
 20
-309.186
 30
0.000000
  70
    32
  0
VERTEX
  8
┌▓È_1
  5
284
 10
901.974
 20
-309.192
 30
0.000000
  70
    32
  0
VERTEX
  8
┌▓È_1
  5
285
 10
901.979
 20
-309.198
 30
0.000000
  70
    32
  0
VERTEX
  8
┌▓È_1
  5
286
 10
901.984
 20
-309.204
 30
0.000000
  70
    32
  0
VERTEX
  8
┌▓È_1
  5
287
 10
901.990
 20
-309.210
 30
0.000000
  70
    32
  0
VERTEX
  8
┌▓È_1
  5
288
 10
901.995
 20
-309.216
 30
0.000000
  70
    32
  0
VERTEX
  8
┌▓È_1
  5
289
 10
902.000
 20
-309.222
 30
0.000000
  70
    32
  0
VERTEX
  8
┌▓È_1
  5
28A
 10
902.006
 20
-309.228
 30
0.000000
  70
    32
  0
VERTEX
  8
┌▓È_1
  5
28B
 10
902.011
 20
-309.234
 30
0.000000
  70
    32
  0
VERTEX
  8
┌▓È_1
  5
28C
 10
902.016
 20
-309.239
 30
0.000000
  70
    32
  0
VERTEX
  8
┌▓È_1
  5
28D
 10
902.021
 20
-309.245
 30
0.000000
  70
    32
  0
VERTEX
  8
┌▓È_1
  5
28E
 10
902.027
 20
-309.251
 30
0.000000
  70
    32
  0
VERTEX
  8
┌▓È_1
  5
28F
 10
902.032
 20
-309.257
 30
0.000000
  70
    32
  0
VERTEX
  8
┌▓È_1
  5
290
 10
902.037
 20
-309.263
 30
0.000000
  70
    32
  0
VERTEX
  8
┌▓È_1
  5
291
 10
902.043
 20
-309.269
 30
0.000000
  70
    32
  0
VERTEX
  8
┌▓È_1
  5
292
 10
902.048
 20
-309.275
 30
0.000000
  70
    32
  0
VERTEX
  8
┌▓È_1
  5
293
 10
902.053
 20
-309.280
 30
0.000000
  70
    32
  0
VERTEX
  8
┌▓È_1
  5
294
 10
902.058
 20
-309.286
 30
0.000000
  70
    32
  0
VERTEX
  8
┌▓È_1
  5
295
 10
902.064
 20
-309.292
 30
0.000000
  70
    32
  0
VERTEX
  8
┌▓È_1
  5
296
 10
902.069
 20
-309.298
 30
0.000000
  70
    32
  0
VERTEX
  8
┌▓È_1
  5
297
 10
902.074
 20
-309.304
 30
0.000000
  70
    32
  0
VERTEX
  8
┌▓È_1
  5
298
 10
902.080
 20
-309.310
 30
0.000000
  70
    32
  0
VERTEX
  8
┌▓È_1
  5
299
 10
902.085
 20
-309.316
 30
0.000000
  70
    32
  0
VERTEX
  8
┌▓È_1
  5
29A
 10
902.090
 20
-309.322
 30
0.000000
  70
    32
  0
VERTEX
  8
┌▓È_1
  5
29B
 10
902.096
 20
-309.327
 30
0.000000
  70
    32
  0
VERTEX
  8
┌▓È_1
  5
29C
 10
902.101
 20
-309.333
 30
0.000000
  70
    32
  0
VERTEX
  8
┌▓È_1
  5
29D
 10
902.106
 20
-309.339
 30
0.000000
  70
    32
  0
VERTEX
  8
┌▓È_1
  5
29E
 10
902.111
 20
-309.345
 30
0.000000
  70
    32
  0
VERTEX
  8
┌▓È_1
  5
29F
 10
902.117
 20
-309.351
 30
0.000000
  70
    32
  0
VERTEX
  8
┌▓È_1
  5
2A0
 10
902.122
 20
-309.357
 30
0.000000
  70
    32
  0
VERTEX
  8
┌▓È_1
  5
2A1
 10
902.127
 20
-309.362
 30
0.000000
  70
    32
  0
VERTEX
  8
┌▓È_1
  5
2A2
 10
902.133
 20
-309.368
 30
0.000000
  70
    32
  0
VERTEX
  8
┌▓È_1
  5
2A3
 10
902.138
 20
-309.374
 30
0.000000
  70
    32
  0
VERTEX
  8
┌▓È_1
  5
2A4
 10
902.143
 20
-309.380
 30
0.000000
  70
    32
  0
VERTEX
  8
┌▓È_1
  5
2A5
 10
902.149
 20
-309.386
 30
0.000000
  70
    32
  0
VERTEX
  8
┌▓È_1
  5
2A6
 10
902.154
 20
-309.392
 30
0.000000
  70
    32
  0
VERTEX
  8
┌▓È_1
  5
2A7
 10
902.159
 20
-309.397
 30
0.000000
  70
    32
  0
VERTEX
  8
┌▓È_1
  5
2A8
 10
902.165
 20
-309.403
 30
0.000000
  70
    32
  0
VERTEX
  8
┌▓È_1
  5
2A9
 10
902.170
 20
-309.409
 30
0.000000
  70
    32
  0
VERTEX
  8
┌▓È_1
  5
2AA
 10
902.175
 20
-309.415
 30
0.000000
  70
    32
  0
VERTEX
  8
┌▓È_1
  5
2AB
 10
902.181
 20
-309.421
 30
0.000000
  70
    32
  0
VERTEX
  8
┌▓È_1
  5
2AC
 10
902.186
 20
-309.426
 30
0.000000
  70
    32
  0
VERTEX
  8
┌▓È_1
  5
2AD
 10
902.191
 20
-309.432
 30
0.000000
  70
    32
  0
VERTEX
  8
┌▓È_1
  5
2AE
 10
902.197
 20
-309.438
 30
0.000000
  70
    32
  0
VERTEX
  8
┌▓È_1
  5
2AF
 10
902.202
 20
-309.444
 30
0.000000
  70
    32
  0
VERTEX
  8
┌▓È_1
  5
2B0
 10
902.207
 20
-309.450
 30
0.000000
  70
    32
  0
VERTEX
  8
┌▓È_1
  5
2B1
 10
902.213
 20
-309.455
 30
0.000000
  70
    32
  0
VERTEX
  8
┌▓È_1
  5
2B2
 10
902.218
 20
-309.461
 30
0.000000
  70
    32
  0
VERTEX
  8
┌▓È_1
  5
2B3
 10
902.223
 20
-309.467
 30
0.000000
  70
    32
  0
VERTEX
  8
┌▓È_1
  5
2B4
 10
902.229
 20
-309.473
 30
0.000000
  70
    32
  0
VERTEX
  8
┌▓È_1
  5
2B5
 10
902.234
 20
-309.478
 30
0.000000
  70
    32
  0
VERTEX
  8
┌▓È_1
  5
2B6
 10
902.239
 20
-309.484
 30
0.000000
  70
    32
  0
VERTEX
  8
┌▓È_1
  5
2B7
 10
902.245
 20
-309.490
 30
0.000000
  70
    32
  0
VERTEX
  8
┌▓È_1
  5
2B8
 10
902.250
 20
-309.496
 30
0.000000
  70
    32
  0
VERTEX
  8
┌▓È_1
  5
2B9
 10
902.256
 20
-309.501
 30
0.000000
  70
    32
  0
VERTEX
  8
┌▓È_1
  5
2BA
 10
902.261
 20
-309.507
 30
0.000000
  70
    32
  0
VERTEX
  8
┌▓È_1
  5
2BB
 10
902.266
 20
-309.513
 30
0.000000
  70
    32
  0
VERTEX
  8
┌▓È_1
  5
2BC
 10
902.272
 20
-309.518
 30
0.000000
  70
    32
  0
VERTEX
  8
┌▓È_1
  5
2BD
 10
902.277
 20
-309.524
 30
0.000000
  70
    32
  0
VERTEX
  8
┌▓È_1
  5
2BE
 10
902.283
 20
-309.530
 30
0.000000
  70
    32
  0
VERTEX
  8
┌▓È_1
  5
2BF
 10
902.288
 20
-309.536
 30
0.000000
  70
    32
  0
VERTEX
  8
┌▓È_1
  5
2C0
 10
902.293
 20
-309.541
 30
0.000000
  70
    32
  0
VERTEX
  8
┌▓È_1
  5
2C1
 10
902.299
 20
-309.547
 30
0.000000
  70
    32
  0
VERTEX
  8
┌▓È_1
  5
2C2
 10
902.304
 20
-309.553
 30
0.000000
  70
    32
  0
VERTEX
  8
┌▓È_1
  5
2C3
 10
902.310
 20
-309.558
 30
0.000000
  70
    32
  0
VERTEX
  8
┌▓È_1
  5
2C4
 10
902.315
 20
-309.564
 30
0.000000
  70
    32
  0
VERTEX
  8
┌▓È_1
  5
2C5
 10
902.320
 20
-309.570
 30
0.000000
  70
    32
  0
VERTEX
  8
┌▓È_1
  5
2C6
 10
902.326
 20
-309.575
 30
0.000000
  70
    32
  0
VERTEX
  8
┌▓È_1
  5
2C7
 10
902.331
 20
-309.581
 30
0.000000
  70
    32
  0
VERTEX
  8
┌▓È_1
  5
2C8
 10
902.337
 20
-309.587
 30
0.000000
  70
    32
  0
VERTEX
  8
┌▓È_1
  5
2C9
 10
902.342
 20
-309.592
 30
0.000000
  70
    32
  0
VERTEX
  8
┌▓È_1
  5
2CA
 10
902.347
 20
-309.598
 30
0.000000
  70
    32
  0
VERTEX
  8
┌▓È_1
  5
2CB
 10
902.353
 20
-309.604
 30
0.000000
  70
    32
  0
VERTEX
  8
┌▓È_1
  5
2CC
 10
902.358
 20
-309.609
 30
0.000000
  70
    32
  0
VERTEX
  8
┌▓È_1
  5
2CD
 10
902.364
 20
-309.615
 30
0.000000
  70
    32
  0
VERTEX
  8
┌▓È_1
  5
2CE
 10
902.369
 20
-309.620
 30
0.000000
  70
    32
  0
VERTEX
  8
┌▓È_1
  5
2CF
 10
902.375
 20
-309.626
 30
0.000000
  70
    32
  0
VERTEX
  8
┌▓È_1
  5
2D0
 10
902.380
 20
-309.632
 30
0.000000
  70
    32
  0
VERTEX
  8
┌▓È_1
  5
2D1
 10
902.386
 20
-309.637
 30
0.000000
  70
    32
  0
VERTEX
  8
┌▓È_1
  5
2D2
 10
902.391
 20
-309.643
 30
0.000000
  70
    32
  0
VERTEX
  8
┌▓È_1
  5
2D3
 10
902.397
 20
-309.648
 30
0.000000
  70
    32
  0
VERTEX
  8
┌▓È_1
  5
2D4
 10
902.402
 20
-309.654
 30
0.000000
  70
    32
  0
VERTEX
  8
┌▓È_1
  5
2D5
 10
902.408
 20
-309.660
 30
0.000000
  70
    32
  0
VERTEX
  8
┌▓È_1
  5
2D6
 10
902.413
 20
-309.665
 30
0.000000
  70
    32
  0
VERTEX
  8
┌▓È_1
  5
2D7
 10
902.419
 20
-309.671
 30
0.000000
  70
    32
  0
VERTEX
  8
┌▓È_1
  5
2D8
 10
902.424
 20
-309.676
 30
0.000000
  70
    32
  0
VERTEX
  8
┌▓È_1
  5
2D9
 10
902.430
 20
-309.682
 30
0.000000
  70
    32
  0
VERTEX
  8
┌▓È_1
  5
2DA
 10
902.435
 20
-309.687
 30
0.000000
  70
    32
  0
VERTEX
  8
┌▓È_1
  5
2DB
 10
902.441
 20
-309.693
 30
0.000000
  70
    32
  0
VERTEX
  8
┌▓È_1
  5
2DC
 10
902.446
 20
-309.698
 30
0.000000
  70
    32
  0
VERTEX
  8
┌▓È_1
  5
2DD
 10
902.452
 20
-309.704
 30
0.000000
  70
    32
  0
VERTEX
  8
┌▓È_1
  5
2DE
 10
902.457
 20
-309.709
 30
0.000000
  70
    32
  0
VERTEX
  8
┌▓È_1
  5
2DF
 10
902.463
 20
-309.715
 30
0.000000
  70
    32
  0
VERTEX
  8
┌▓È_1
  5
2E0
 10
902.468
 20
-309.720
 30
0.000000
  70
    32
  0
VERTEX
  8
┌▓È_1
  5
2E1
 10
902.474
 20
-309.726
 30
0.000000
  70
    32
  0
VERTEX
  8
┌▓È_1
  5
2E2
 10
902.479
 20
-309.731
 30
0.000000
  70
    32
  0
VERTEX
  8
┌▓È_1
  5
2E3
 10
902.485
 20
-309.736
 30
0.000000
  70
    32
  0
VERTEX
  8
┌▓È_1
  5
2E4
 10
902.490
 20
-309.742
 30
0.000000
  70
    32
  0
VERTEX
  8
┌▓È_1
  5
2E5
 10
902.496
 20
-309.747
 30
0.000000
  70
    32
  0
VERTEX
  8
┌▓È_1
  5
2E6
 10
902.502
 20
-309.753
 30
0.000000
  70
    32
  0
VERTEX
  8
┌▓È_1
  5
2E7
 10
902.507
 20
-309.758
 30
0.000000
  70
    32
  0
VERTEX
  8
┌▓È_1
  5
2E8
 10
902.513
 20
-309.764
 30
0.000000
  70
    32
  0
VERTEX
  8
┌▓È_1
  5
2E9
 10
902.518
 20
-309.769
 30
0.000000
  70
    32
  0
VERTEX
  8
┌▓È_1
  5
2EA
 10
902.524
 20
-309.774
 30
0.000000
  70
    32
  0
VERTEX
  8
┌▓È_1
  5
2EB
 10
902.529
 20
-309.780
 30
0.000000
  70
    32
  0
VERTEX
  8
┌▓È_1
  5
2EC
 10
902.535
 20
-309.785
 30
0.000000
  70
    32
  0
VERTEX
  8
┌▓È_1
  5
2ED
 10
902.541
 20
-309.790
 30
0.000000
  70
    32
  0
VERTEX
  8
┌▓È_1
  5
2EE
 10
902.546
 20
-309.796
 30
0.000000
  70
    32
  0
VERTEX
  8
┌▓È_1
  5
2EF
 10
902.552
 20
-309.801
 30
0.000000
  70
    32
  0
VERTEX
  8
┌▓È_1
  5
2F0
 10
902.558
 20
-309.806
 30
0.000000
  70
    32
  0
VERTEX
  8
┌▓È_1
  5
2F1
 10
902.563
 20
-309.812
 30
0.000000
  70
    32
  0
VERTEX
  8
┌▓È_1
  5
2F2
 10
902.569
 20
-309.817
 30
0.000000
  70
    32
  0
VERTEX
  8
┌▓È_1
  5
2F3
 10
902.575
 20
-309.822
 30
0.000000
  70
    32
  0
VERTEX
  8
┌▓È_1
  5
2F4
 10
902.580
 20
-309.828
 30
0.000000
  70
    32
  0
VERTEX
  8
┌▓È_1
  5
2F5
 10
902.586
 20
-309.833
 30
0.000000
  70
    32
  0
VERTEX
  8
┌▓È_1
  5
2F6
 10
902.591
 20
-309.838
 30
0.000000
  70
    32
  0
VERTEX
  8
┌▓È_1
  5
2F7
 10
902.597
 20
-309.843
 30
0.000000
  70
    32
  0
VERTEX
  8
┌▓È_1
  5
2F8
 10
902.603
 20
-309.849
 30
0.000000
  70
    32
  0
VERTEX
  8
┌▓È_1
  5
2F9
 10
902.609
 20
-309.854
 30
0.000000
  70
    32
  0
VERTEX
  8
┌▓È_1
  5
2FA
 10
902.614
 20
-309.859
 30
0.000000
  70
    32
  0
VERTEX
  8
┌▓È_1
  5
2FB
 10
902.620
 20
-309.864
 30
0.000000
  70
    32
  0
VERTEX
  8
┌▓È_1
  5
2FC
 10
902.626
 20
-309.869
 30
0.000000
  70
    32
  0
VERTEX
  8
┌▓È_1
  5
2FD
 10
902.631
 20
-309.875
 30
0.000000
  70
    32
  0
SEQEND
  8
┌▓È_1
  5
2FE
  0
POLYLINE
  8
┌▓È_1
  5
2FF
  62
5
  66
     1
 10
0.000000
 20
0.000000
 30
0.000000
  70
     8
  0
VERTEX
  8
┌▓È_1
  5
300
 10
903.562
 20
-311.756
 30
0.000000
  70
    32
  0
VERTEX
  8
┌▓È_1
  5
301
 10
903.583
 20
-311.763
 30
0.000000
  70
    32
  0
VERTEX
  8
┌▓È_1
  5
302
 10
903.605
 20
-311.770
 30
0.000000
  70
    32
  0
VERTEX
  8
┌▓È_1
  5
303
 10
903.626
 20
-311.776
 30
0.000000
  70
    32
  0
VERTEX
  8
┌▓È_1
  5
304
 10
903.648
 20
-311.783
 30
0.000000
  70
    32
  0
VERTEX
  8
┌▓È_1
  5
305
 10
903.670
 20
-311.790
 30
0.000000
  70
    32
  0
VERTEX
  8
┌▓È_1
  5
306
 10
903.691
 20
-311.797
 30
0.000000
  70
    32
  0
VERTEX
  8
┌▓È_1
  5
307
 10
903.713
 20
-311.803
 30
0.000000
  70
    32
  0
VERTEX
  8
┌▓È_1
  5
308
 10
903.735
 20
-311.810
 30
0.000000
  70
    32
  0
VERTEX
  8
┌▓È_1
  5
309
 10
903.756
 20
-311.816
 30
0.000000
  70
    32
  0
VERTEX
  8
┌▓È_1
  5
30A
 10
903.778
 20
-311.823
 30
0.000000
  70
    32
  0
VERTEX
  8
┌▓È_1
  5
30B
 10
903.800
 20
-311.830
 30
0.000000
  70
    32
  0
VERTEX
  8
┌▓È_1
  5
30C
 10
903.821
 20
-311.836
 30
0.000000
  70
    32
  0
VERTEX
  8
┌▓È_1
  5
30D
 10
903.843
 20
-311.843
 30
0.000000
  70
    32
  0
VERTEX
  8
┌▓È_1
  5
30E
 10
903.865
 20
-311.849
 30
0.000000
  70
    32
  0
VERTEX
  8
┌▓È_1
  5
30F
 10
903.887
 20
-311.855
 30
0.000000
  70
    32
  0
VERTEX
  8
┌▓È_1
  5
310
 10
903.909
 20
-311.862
 30
0.000000
  70
    32
  0
VERTEX
  8
┌▓È_1
  5
311
 10
903.930
 20
-311.868
 30
0.000000
  70
    32
  0
VERTEX
  8
┌▓È_1
  5
312
 10
903.952
 20
-311.874
 30
0.000000
  70
    32
  0
VERTEX
  8
┌▓È_1
  5
313
 10
903.974
 20
-311.881
 30
0.000000
  70
    32
  0
VERTEX
  8
┌▓È_1
  5
314
 10
903.996
 20
-311.887
 30
0.000000
  70
    32
  0
VERTEX
  8
┌▓È_1
  5
315
 10
904.018
 20
-311.893
 30
0.000000
  70
    32
  0
VERTEX
  8
┌▓È_1
  5
316
 10
904.040
 20
-311.900
 30
0.000000
  70
    32
  0
VERTEX
  8
┌▓È_1
  5
317
 10
904.062
 20
-311.906
 30
0.000000
  70
    32
  0
VERTEX
  8
┌▓È_1
  5
318
 10
904.083
 20
-311.912
 30
0.000000
  70
    32
  0
VERTEX
  8
┌▓È_1
  5
319
 10
904.105
 20
-311.918
 30
0.000000
  70
    32
  0
VERTEX
  8
┌▓È_1
  5
31A
 10
904.127
 20
-311.924
 30
0.000000
  70
    32
  0
VERTEX
  8
┌▓È_1
  5
31B
 10
904.149
 20
-311.930
 30
0.000000
  70
    32
  0
VERTEX
  8
┌▓È_1
  5
31C
 10
904.171
 20
-311.936
 30
0.000000
  70
    32
  0
VERTEX
  8
┌▓È_1
  5
31D
 10
904.193
 20
-311.942
 30
0.000000
  70
    32
  0
VERTEX
  8
┌▓È_1
  5
31E
 10
904.215
 20
-311.948
 30
0.000000
  70
    32
  0
VERTEX
  8
┌▓È_1
  5
31F
 10
904.237
 20
-311.954
 30
0.000000
  70
    32
  0
VERTEX
  8
┌▓È_1
  5
320
 10
904.259
 20
-311.960
 30
0.000000
  70
    32
  0
VERTEX
  8
┌▓È_1
  5
321
 10
904.281
 20
-311.966
 30
0.000000
  70
    32
  0
VERTEX
  8
┌▓È_1
  5
322
 10
904.303
 20
-311.972
 30
0.000000
  70
    32
  0
VERTEX
  8
┌▓È_1
  5
323
 10
904.325
 20
-311.978
 30
0.000000
  70
    32
  0
VERTEX
  8
┌▓È_1
  5
324
 10
904.348
 20
-311.984
 30
0.000000
  70
    32
  0
VERTEX
  8
┌▓È_1
  5
325
 10
904.370
 20
-311.989
 30
0.000000
  70
    32
  0
VERTEX
  8
┌▓È_1
  5
326
 10
904.392
 20
-311.995
 30
0.000000
  70
    32
  0
VERTEX
  8
┌▓È_1
  5
327
 10
904.414
 20
-312.001
 30
0.000000
  70
    32
  0
VERTEX
  8
┌▓È_1
  5
328
 10
904.436
 20
-312.007
 30
0.000000
  70
    32
  0
VERTEX
  8
┌▓È_1
  5
329
 10
904.458
 20
-312.013
 30
0.000000
  70
    32
  0
VERTEX
  8
┌▓È_1
  5
32A
 10
904.480
 20
-312.018
 30
0.000000
  70
    32
  0
VERTEX
  8
┌▓È_1
  5
32B
 10
904.503
 20
-312.024
 30
0.000000
  70
    32
  0
VERTEX
  8
┌▓È_1
  5
32C
 10
904.525
 20
-312.030
 30
0.000000
  70
    32
  0
VERTEX
  8
┌▓È_1
  5
32D
 10
904.547
 20
-312.035
 30
0.000000
  70
    32
  0
VERTEX
  8
┌▓È_1
  5
32E
 10
904.569
 20
-312.041
 30
0.000000
  70
    32
  0
VERTEX
  8
┌▓È_1
  5
32F
 10
904.591
 20
-312.046
 30
0.000000
  70
    32
  0
VERTEX
  8
┌▓È_1
  5
330
 10
904.614
 20
-312.052
 30
0.000000
  70
    32
  0
VERTEX
  8
┌▓È_1
  5
331
 10
904.636
 20
-312.057
 30
0.000000
  70
    32
  0
VERTEX
  8
┌▓È_1
  5
332
 10
904.658
 20
-312.063
 30
0.000000
  70
    32
  0
VERTEX
  8
┌▓È_1
  5
333
 10
904.680
 20
-312.069
 30
0.000000
  70
    32
  0
VERTEX
  8
┌▓È_1
  5
334
 10
904.703
 20
-312.074
 30
0.000000
  70
    32
  0
VERTEX
  8
┌▓È_1
  5
335
 10
904.725
 20
-312.079
 30
0.000000
  70
    32
  0
VERTEX
  8
┌▓È_1
  5
336
 10
904.747
 20
-312.085
 30
0.000000
  70
    32
  0
VERTEX
  8
┌▓È_1
  5
337
 10
904.770
 20
-312.090
 30
0.000000
  70
    32
  0
VERTEX
  8
┌▓È_1
  5
338
 10
904.792
 20
-312.096
 30
0.000000
  70
    32
  0
VERTEX
  8
┌▓È_1
  5
339
 10
904.814
 20
-312.101
 30
0.000000
  70
    32
  0
VERTEX
  8
┌▓È_1
  5
33A
 10
904.837
 20
-312.106
 30
0.000000
  70
    32
  0
VERTEX
  8
┌▓È_1
  5
33B
 10
904.859
 20
-312.112
 30
0.000000
  70
    32
  0
VERTEX
  8
┌▓È_1
  5
33C
 10
904.881
 20
-312.117
 30
0.000000
  70
    32
  0
VERTEX
  8
┌▓È_1
  5
33D
 10
904.904
 20
-312.122
 30
0.000000
  70
    32
  0
VERTEX
  8
┌▓È_1
  5
33E
 10
904.926
 20
-312.128
 30
0.000000
  70
    32
  0
VERTEX
  8
┌▓È_1
  5
33F
 10
904.949
 20
-312.133
 30
0.000000
  70
    32
  0
VERTEX
  8
┌▓È_1
  5
340
 10
904.971
 20
-312.138
 30
0.000000
  70
    32
  0
VERTEX
  8
┌▓È_1
  5
341
 10
904.993
 20
-312.144
 30
0.000000
  70
    32
  0
VERTEX
  8
┌▓È_1
  5
342
 10
905.016
 20
-312.149
 30
0.000000
  70
    32
  0
VERTEX
  8
┌▓È_1
  5
343
 10
905.038
 20
-312.154
 30
0.000000
  70
    32
  0
VERTEX
  8
┌▓È_1
  5
344
 10
905.061
 20
-312.159
 30
0.000000
  70
    32
  0
VERTEX
  8
┌▓È_1
  5
345
 10
905.083
 20
-312.164
 30
0.000000
  70
    32
  0
VERTEX
  8
┌▓È_1
  5
346
 10
905.106
 20
-312.170
 30
0.000000
  70
    32
  0
VERTEX
  8
┌▓È_1
  5
347
 10
905.128
 20
-312.175
 30
0.000000
  70
    32
  0
VERTEX
  8
┌▓È_1
  5
348
 10
905.150
 20
-312.180
 30
0.000000
  70
    32
  0
VERTEX
  8
┌▓È_1
  5
349
 10
905.173
 20
-312.185
 30
0.000000
  70
    32
  0
VERTEX
  8
┌▓È_1
  5
34A
 10
905.195
 20
-312.190
 30
0.000000
  70
    32
  0
VERTEX
  8
┌▓È_1
  5
34B
 10
905.218
 20
-312.195
 30
0.000000
  70
    32
  0
VERTEX
  8
┌▓È_1
  5
34C
 10
905.240
 20
-312.200
 30
0.000000
  70
    32
  0
VERTEX
  8
┌▓È_1
  5
34D
 10
905.263
 20
-312.205
 30
0.000000
  70
    32
  0
VERTEX
  8
┌▓È_1
  5
34E
 10
905.285
 20
-312.210
 30
0.000000
  70
    32
  0
VERTEX
  8
┌▓È_1
  5
34F
 10
905.308
 20
-312.215
 30
0.000000
  70
    32
  0
VERTEX
  8
┌▓È_1
  5
350
 10
905.331
 20
-312.220
 30
0.000000
  70
    32
  0
VERTEX
  8
┌▓È_1
  5
351
 10
905.353
 20
-312.225
 30
0.000000
  70
    32
  0
VERTEX
  8
┌▓È_1
  5
352
 10
905.376
 20
-312.230
 30
0.000000
  70
    32
  0
VERTEX
  8
┌▓È_1
  5
353
 10
905.398
 20
-312.235
 30
0.000000
  70
    32
  0
VERTEX
  8
┌▓È_1
  5
354
 10
905.421
 20
-312.240
 30
0.000000
  70
    32
  0
VERTEX
  8
┌▓È_1
  5
355
 10
905.443
 20
-312.245
 30
0.000000
  70
    32
  0
VERTEX
  8
┌▓È_1
  5
356
 10
905.466
 20
-312.250
 30
0.000000
  70
    32
  0
VERTEX
  8
┌▓È_1
  5
357
 10
905.488
 20
-312.255
 30
0.000000
  70
    32
  0
VERTEX
  8
┌▓È_1
  5
358
 10
905.511
 20
-312.260
 30
0.000000
  70
    32
  0
VERTEX
  8
┌▓È_1
  5
359
 10
905.534
 20
-312.265
 30
0.000000
  70
    32
  0
VERTEX
  8
┌▓È_1
  5
35A
 10
905.556
 20
-312.270
 30
0.000000
  70
    32
  0
VERTEX
  8
┌▓È_1
  5
35B
 10
905.579
 20
-312.275
 30
0.000000
  70
    32
  0
VERTEX
  8
┌▓È_1
  5
35C
 10
905.601
 20
-312.280
 30
0.000000
  70
    32
  0
VERTEX
  8
┌▓È_1
  5
35D
 10
905.624
 20
-312.285
 30
0.000000
  70
    32
  0
VERTEX
  8
┌▓È_1
  5
35E
 10
905.647
 20
-312.289
 30
0.000000
  70
    32
  0
VERTEX
  8
┌▓È_1
  5
35F
 10
905.669
 20
-312.294
 30
0.000000
  70
    32
  0
VERTEX
  8
┌▓È_1
  5
360
 10
905.692
 20
-312.299
 30
0.000000
  70
    32
  0
VERTEX
  8
┌▓È_1
  5
361
 10
905.715
 20
-312.304
 30
0.000000
  70
    32
  0
VERTEX
  8
┌▓È_1
  5
362
 10
905.737
 20
-312.309
 30
0.000000
  70
    32
  0
VERTEX
  8
┌▓È_1
  5
363
 10
905.760
 20
-312.314
 30
0.000000
  70
    32
  0
VERTEX
  8
┌▓È_1
  5
364
 10
905.782
 20
-312.318
 30
0.000000
  70
    32
  0
VERTEX
  8
┌▓È_1
  5
365
 10
905.805
 20
-312.323
 30
0.000000
  70
    32
  0
VERTEX
  8
┌▓È_1
  5
366
 10
905.828
 20
-312.328
 30
0.000000
  70
    32
  0
VERTEX
  8
┌▓È_1
  5
367
 10
905.850
 20
-312.333
 30
0.000000
  70
    32
  0
VERTEX
  8
┌▓È_1
  5
368
 10
905.873
 20
-312.338
 30
0.000000
  70
    32
  0
VERTEX
  8
┌▓È_1
  5
369
 10
905.896
 20
-312.342
 30
0.000000
  70
    32
  0
VERTEX
  8
┌▓È_1
  5
36A
 10
905.918
 20
-312.347
 30
0.000000
  70
    32
  0
VERTEX
  8
┌▓È_1
  5
36B
 10
905.941
 20
-312.352
 30
0.000000
  70
    32
  0
VERTEX
  8
┌▓È_1
  5
36C
 10
905.964
 20
-312.357
 30
0.000000
  70
    32
  0
VERTEX
  8
┌▓È_1
  5
36D
 10
905.986
 20
-312.362
 30
0.000000
  70
    32
  0
VERTEX
  8
┌▓È_1
  5
36E
 10
906.009
 20
-312.366
 30
0.000000
  70
    32
  0
VERTEX
  8
┌▓È_1
  5
36F
 10
906.032
 20
-312.371
 30
0.000000
  70
    32
  0
VERTEX
  8
┌▓È_1
  5
370
 10
906.054
 20
-312.376
 30
0.000000
  70
    32
  0
VERTEX
  8
┌▓È_1
  5
371
 10
906.077
 20
-312.381
 30
0.000000
  70
    32
  0
VERTEX
  8
┌▓È_1
  5
372
 10
906.100
 20
-312.385
 30
0.000000
  70
    32
  0
VERTEX
  8
┌▓È_1
  5
373
 10
906.122
 20
-312.390
 30
0.000000
  70
    32
  0
VERTEX
  8
┌▓È_1
  5
374
 10
906.145
 20
-312.395
 30
0.000000
  70
    32
  0
VERTEX
  8
┌▓È_1
  5
375
 10
906.168
 20
-312.400
 30
0.000000
  70
    32
  0
VERTEX
  8
┌▓È_1
  5
376
 10
906.191
 20
-312.404
 30
0.000000
  70
    32
  0
VERTEX
  8
┌▓È_1
  5
377
 10
906.213
 20
-312.409
 30
0.000000
  70
    32
  0
VERTEX
  8
┌▓È_1
  5
378
 10
906.236
 20
-312.414
 30
0.000000
  70
    32
  0
VERTEX
  8
┌▓È_1
  5
379
 10
906.259
 20
-312.418
 30
0.000000
  70
    32
  0
VERTEX
  8
┌▓È_1
  5
37A
 10
906.281
 20
-312.423
 30
0.000000
  70
    32
  0
VERTEX
  8
┌▓È_1
  5
37B
 10
906.304
 20
-312.428
 30
0.000000
  70
    32
  0
VERTEX
  8
┌▓È_1
  5
37C
 10
906.327
 20
-312.433
 30
0.000000
  70
    32
  0
VERTEX
  8
┌▓È_1
  5
37D
 10
906.349
 20
-312.437
 30
0.000000
  70
    32
  0
VERTEX
  8
┌▓È_1
  5
37E
 10
906.372
 20
-312.442
 30
0.000000
  70
    32
  0
VERTEX
  8
┌▓È_1
  5
37F
 10
906.395
 20
-312.447
 30
0.000000
  70
    32
  0
SEQEND
  8
┌▓È_1
  5
380
  0
POLYLINE
  8
┌▓È_1
  5
381
  62
5
  66
     1
 10
0.000000
 20
0.000000
 30
0.000000
  70
     8
  0
VERTEX
  8
┌▓È_1
  5
382
 10
899.195
 20
-308.962
 30
0.000000
  70
    32
  0
VERTEX
  8
┌▓È_1
  5
383
 10
899.209
 20
-308.975
 30
0.000000
  70
    32
  0
VERTEX
  8
┌▓È_1
  5
384
 10
899.224
 20
-308.989
 30
0.000000
  70
    32
  0
VERTEX
  8
┌▓È_1
  5
385
 10
899.238
 20
-309.002
 30
0.000000
  70
    32
  0
VERTEX
  8
┌▓È_1
  5
386
 10
899.252
 20
-309.015
 30
0.000000
  70
    32
  0
VERTEX
  8
┌▓È_1
  5
387
 10
899.267
 20
-309.029
 30
0.000000
  70
    32
  0
VERTEX
  8
┌▓È_1
  5
388
 10
899.281
 20
-309.042
 30
0.000000
  70
    32
  0
VERTEX
  8
┌▓È_1
  5
389
 10
899.296
 20
-309.055
 30
0.000000
  70
    32
  0
VERTEX
  8
┌▓È_1
  5
38A
 10
899.310
 20
-309.068
 30
0.000000
  70
    32
  0
VERTEX
  8
┌▓È_1
  5
38B
 10
899.324
 20
-309.082
 30
0.000000
  70
    32
  0
VERTEX
  8
┌▓È_1
  5
38C
 10
899.339
 20
-309.095
 30
0.000000
  70
    32
  0
VERTEX
  8
┌▓È_1
  5
38D
 10
899.353
 20
-309.108
 30
0.000000
  70
    32
  0
VERTEX
  8
┌▓È_1
  5
38E
 10
899.368
 20
-309.121
 30
0.000000
  70
    32
  0
VERTEX
  8
┌▓È_1
  5
38F
 10
899.382
 20
-309.135
 30
0.000000
  70
    32
  0
VERTEX
  8
┌▓È_1
  5
390
 10
899.397
 20
-309.148
 30
0.000000
  70
    32
  0
VERTEX
  8
┌▓È_1
  5
391
 10
899.411
 20
-309.161
 30
0.000000
  70
    32
  0
VERTEX
  8
┌▓È_1
  5
392
 10
899.425
 20
-309.174
 30
0.000000
  70
    32
  0
VERTEX
  8
┌▓È_1
  5
393
 10
899.440
 20
-309.188
 30
0.000000
  70
    32
  0
VERTEX
  8
┌▓È_1
  5
394
 10
899.454
 20
-309.201
 30
0.000000
  70
    32
  0
VERTEX
  8
┌▓È_1
  5
395
 10
899.469
 20
-309.214
 30
0.000000
  70
    32
  0
VERTEX
  8
┌▓È_1
  5
396
 10
899.483
 20
-309.227
 30
0.000000
  70
    32
  0
VERTEX
  8
┌▓È_1
  5
397
 10
899.498
 20
-309.241
 30
0.000000
  70
    32
  0
VERTEX
  8
┌▓È_1
  5
398
 10
899.512
 20
-309.254
 30
0.000000
  70
    32
  0
VERTEX
  8
┌▓È_1
  5
399
 10
899.527
 20
-309.267
 30
0.000000
  70
    32
  0
VERTEX
  8
┌▓È_1
  5
39A
 10
899.541
 20
-309.280
 30
0.000000
  70
    32
  0
VERTEX
  8
┌▓È_1
  5
39B
 10
899.555
 20
-309.293
 30
0.000000
  70
    32
  0
VERTEX
  8
┌▓È_1
  5
39C
 10
899.570
 20
-309.307
 30
0.000000
  70
    32
  0
VERTEX
  8
┌▓È_1
  5
39D
 10
899.584
 20
-309.320
 30
0.000000
  70
    32
  0
VERTEX
  8
┌▓È_1
  5
39E
 10
899.599
 20
-309.333
 30
0.000000
  70
    32
  0
VERTEX
  8
┌▓È_1
  5
39F
 10
899.613
 20
-309.346
 30
0.000000
  70
    32
  0
VERTEX
  8
┌▓È_1
  5
3A0
 10
899.628
 20
-309.359
 30
0.000000
  70
    32
  0
VERTEX
  8
┌▓È_1
  5
3A1
 10
899.642
 20
-309.373
 30
0.000000
  70
    32
  0
VERTEX
  8
┌▓È_1
  5
3A2
 10
899.657
 20
-309.386
 30
0.000000
  70
    32
  0
VERTEX
  8
┌▓È_1
  5
3A3
 10
899.671
 20
-309.399
 30
0.000000
  70
    32
  0
VERTEX
  8
┌▓È_1
  5
3A4
 10
899.686
 20
-309.412
 30
0.000000
  70
    32
  0
VERTEX
  8
┌▓È_1
  5
3A5
 10
899.700
 20
-309.425
 30
0.000000
  70
    32
  0
VERTEX
  8
┌▓È_1
  5
3A6
 10
899.715
 20
-309.438
 30
0.000000
  70
    32
  0
VERTEX
  8
┌▓È_1
  5
3A7
 10
899.729
 20
-309.451
 30
0.000000
  70
    32
  0
VERTEX
  8
┌▓È_1
  5
3A8
 10
899.744
 20
-309.464
 30
0.000000
  70
    32
  0
VERTEX
  8
┌▓È_1
  5
3A9
 10
899.758
 20
-309.477
 30
0.000000
  70
    32
  0
VERTEX
  8
┌▓È_1
  5
3AA
 10
899.773
 20
-309.490
 30
0.000000
  70
    32
  0
VERTEX
  8
┌▓È_1
  5
3AB
 10
899.787
 20
-309.504
 30
0.000000
  70
    32
  0
VERTEX
  8
┌▓È_1
  5
3AC
 10
899.802
 20
-309.517
 30
0.000000
  70
    32
  0
VERTEX
  8
┌▓È_1
  5
3AD
 10
899.816
 20
-309.530
 30
0.000000
  70
    32
  0
VERTEX
  8
┌▓È_1
  5
3AE
 10
899.831
 20
-309.543
 30
0.000000
  70
    32
  0
VERTEX
  8
┌▓È_1
  5
3AF
 10
899.845
 20
-309.556
 30
0.000000
  70
    32
  0
VERTEX
  8
┌▓È_1
  5
3B0
 10
899.860
 20
-309.569
 30
0.000000
  70
    32
  0
VERTEX
  8
┌▓È_1
  5
3B1
 10
899.875
 20
-309.582
 30
0.000000
  70
    32
  0
VERTEX
  8
┌▓È_1
  5
3B2
 10
899.889
 20
-309.595
 30
0.000000
  70
    32
  0
VERTEX
  8
┌▓È_1
  5
3B3
 10
899.904
 20
-309.608
 30
0.000000
  70
    32
  0
VERTEX
  8
┌▓È_1
  5
3B4
 10
899.918
 20
-309.620
 30
0.000000
  70
    32
  0
VERTEX
  8
┌▓È_1
  5
3B5
 10
899.933
 20
-309.633
 30
0.000000
  70
    32
  0
VERTEX
  8
┌▓È_1
  5
3B6
 10
899.948
 20
-309.646
 30
0.000000
  70
    32
  0
VERTEX
  8
┌▓È_1
  5
3B7
 10
899.962
 20
-309.659
 30
0.000000
  70
    32
  0
VERTEX
  8
┌▓È_1
  5
3B8
 10
899.977
 20
-309.672
 30
0.000000
  70
    32
  0
VERTEX
  8
┌▓È_1
  5
3B9
 10
899.991
 20
-309.685
 30
0.000000
  70
    32
  0
VERTEX
  8
┌▓È_1
  5
3BA
 10
900.006
 20
-309.698
 30
0.000000
  70
    32
  0
VERTEX
  8
┌▓È_1
  5
3BB
 10
900.021
 20
-309.711
 30
0.000000
  70
    32
  0
VERTEX
  8
┌▓È_1
  5
3BC
 10
900.035
 20
-309.724
 30
0.000000
  70
    32
  0
VERTEX
  8
┌▓È_1
  5
3BD
 10
900.050
 20
-309.736
 30
0.000000
  70
    32
  0
VERTEX
  8
┌▓È_1
  5
3BE
 10
900.065
 20
-309.749
 30
0.000000
  70
    32
  0
VERTEX
  8
┌▓È_1
  5
3BF
 10
900.079
 20
-309.762
 30
0.000000
  70
    32
  0
VERTEX
  8
┌▓È_1
  5
3C0
 10
900.094
 20
-309.775
 30
0.000000
  70
    32
  0
VERTEX
  8
┌▓È_1
  5
3C1
 10
900.109
 20
-309.787
 30
0.000000
  70
    32
  0
VERTEX
  8
┌▓È_1
  5
3C2
 10
900.124
 20
-309.800
 30
0.000000
  70
    32
  0
VERTEX
  8
┌▓È_1
  5
3C3
 10
900.138
 20
-309.813
 30
0.000000
  70
    32
  0
VERTEX
  8
┌▓È_1
  5
3C4
 10
900.153
 20
-309.826
 30
0.000000
  70
    32
  0
VERTEX
  8
┌▓È_1
  5
3C5
 10
900.168
 20
-309.838
 30
0.000000
  70
    32
  0
VERTEX
  8
┌▓È_1
  5
3C6
 10
900.182
 20
-309.851
 30
0.000000
  70
    32
  0
VERTEX
  8
┌▓È_1
  5
3C7
 10
900.197
 20
-309.863
 30
0.000000
  70
    32
  0
VERTEX
  8
┌▓È_1
  5
3C8
 10
900.212
 20
-309.876
 30
0.000000
  70
    32
  0
VERTEX
  8
┌▓È_1
  5
3C9
 10
900.227
 20
-309.889
 30
0.000000
  70
    32
  0
VERTEX
  8
┌▓È_1
  5
3CA
 10
900.242
 20
-309.901
 30
0.000000
  70
    32
  0
VERTEX
  8
┌▓È_1
  5
3CB
 10
900.256
 20
-309.914
 30
0.000000
  70
    32
  0
VERTEX
  8
┌▓È_1
  5
3CC
 10
900.271
 20
-309.926
 30
0.000000
  70
    32
  0
VERTEX
  8
┌▓È_1
  5
3CD
 10
900.286
 20
-309.939
 30
0.000000
  70
    32
  0
VERTEX
  8
┌▓È_1
  5
3CE
 10
900.301
 20
-309.951
 30
0.000000
  70
    32
  0
VERTEX
  8
┌▓È_1
  5
3CF
 10
900.316
 20
-309.964
 30
0.000000
  70
    32
  0
VERTEX
  8
┌▓È_1
  5
3D0
 10
900.331
 20
-309.976
 30
0.000000
  70
    32
  0
VERTEX
  8
┌▓È_1
  5
3D1
 10
900.345
 20
-309.989
 30
0.000000
  70
    32
  0
VERTEX
  8
┌▓È_1
  5
3D2
 10
900.360
 20
-310.001
 30
0.000000
  70
    32
  0
VERTEX
  8
┌▓È_1
  5
3D3
 10
900.375
 20
-310.014
 30
0.000000
  70
    32
  0
VERTEX
  8
┌▓È_1
  5
3D4
 10
900.390
 20
-310.026
 30
0.000000
  70
    32
  0
VERTEX
  8
┌▓È_1
  5
3D5
 10
900.405
 20
-310.038
 30
0.000000
  70
    32
  0
VERTEX
  8
┌▓È_1
  5
3D6
 10
900.420
 20
-310.051
 30
0.000000
  70
    32
  0
VERTEX
  8
┌▓È_1
  5
3D7
 10
900.435
 20
-310.063
 30
0.000000
  70
    32
  0
VERTEX
  8
┌▓È_1
  5
3D8
 10
900.450
 20
-310.075
 30
0.000000
  70
    32
  0
VERTEX
  8
┌▓È_1
  5
3D9
 10
900.465
 20
-310.087
 30
0.000000
  70
    32
  0
VERTEX
  8
┌▓È_1
  5
3DA
 10
900.480
 20
-310.100
 30
0.000000
  70
    32
  0
VERTEX
  8
┌▓È_1
  5
3DB
 10
900.495
 20
-310.112
 30
0.000000
  70
    32
  0
VERTEX
  8
┌▓È_1
  5
3DC
 10
900.510
 20
-310.124
 30
0.000000
  70
    32
  0
VERTEX
  8
┌▓È_1
  5
3DD
 10
900.525
 20
-310.136
 30
0.000000
  70
    32
  0
VERTEX
  8
┌▓È_1
  5
3DE
 10
900.540
 20
-310.148
 30
0.000000
  70
    32
  0
VERTEX
  8
┌▓È_1
  5
3DF
 10
900.555
 20
-310.160
 30
0.000000
  70
    32
  0
VERTEX
  8
┌▓È_1
  5
3E0
 10
900.570
 20
-310.172
 30
0.000000
  70
    32
  0
VERTEX
  8
┌▓È_1
  5
3E1
 10
900.585
 20
-310.184
 30
0.000000
  70
    32
  0
VERTEX
  8
┌▓È_1
  5
3E2
 10
900.600
 20
-310.196
 30
0.000000
  70
    32
  0
VERTEX
  8
┌▓È_1
  5
3E3
 10
900.615
 20
-310.208
 30
0.000000
  70
    32
  0
VERTEX
  8
┌▓È_1
  5
3E4
 10
900.630
 20
-310.220
 30
0.000000
  70
    32
  0
VERTEX
  8
┌▓È_1
  5
3E5
 10
900.645
 20
-310.232
 30
0.000000
  70
    32
  0
VERTEX
  8
┌▓È_1
  5
3E6
 10
900.661
 20
-310.244
 30
0.000000
  70
    32
  0
VERTEX
  8
┌▓È_1
  5
3E7
 10
900.676
 20
-310.256
 30
0.000000
  70
    32
  0
VERTEX
  8
┌▓È_1
  5
3E8
 10
900.691
 20
-310.268
 30
0.000000
  70
    32
  0
VERTEX
  8
┌▓È_1
  5
3E9
 10
900.706
 20
-310.280
 30
0.000000
  70
    32
  0
VERTEX
  8
┌▓È_1
  5
3EA
 10
900.721
 20
-310.292
 30
0.000000
  70
    32
  0
VERTEX
  8
┌▓È_1
  5
3EB
 10
900.737
 20
-310.303
 30
0.000000
  70
    32
  0
VERTEX
  8
┌▓È_1
  5
3EC
 10
900.752
 20
-310.315
 30
0.000000
  70
    32
  0
VERTEX
  8
┌▓È_1
  5
3ED
 10
900.767
 20
-310.327
 30
0.000000
  70
    32
  0
VERTEX
  8
┌▓È_1
  5
3EE
 10
900.782
 20
-310.339
 30
0.000000
  70
    32
  0
VERTEX
  8
┌▓È_1
  5
3EF
 10
900.798
 20
-310.350
 30
0.000000
  70
    32
  0
VERTEX
  8
┌▓È_1
  5
3F0
 10
900.813
 20
-310.362
 30
0.000000
  70
    32
  0
VERTEX
  8
┌▓È_1
  5
3F1
 10
900.828
 20
-310.373
 30
0.000000
  70
    32
  0
VERTEX
  8
┌▓È_1
  5
3F2
 10
900.844
 20
-310.385
 30
0.000000
  70
    32
  0
VERTEX
  8
┌▓È_1
  5
3F3
 10
900.859
 20
-310.397
 30
0.000000
  70
    32
  0
VERTEX
  8
┌▓È_1
  5
3F4
 10
900.874
 20
-310.408
 30
0.000000
  70
    32
  0
VERTEX
  8
┌▓È_1
  5
3F5
 10
900.890
 20
-310.420
 30
0.000000
  70
    32
  0
VERTEX
  8
┌▓È_1
  5
3F6
 10
900.905
 20
-310.431
 30
0.000000
  70
    32
  0
VERTEX
  8
┌▓È_1
  5
3F7
 10
900.921
 20
-310.442
 30
0.000000
  70
    32
  0
VERTEX
  8
┌▓È_1
  5
3F8
 10
900.936
 20
-310.454
 30
0.000000
  70
    32
  0
VERTEX
  8
┌▓È_1
  5
3F9
 10
900.951
 20
-310.465
 30
0.000000
  70
    32
  0
VERTEX
  8
┌▓È_1
  5
3FA
 10
900.967
 20
-310.476
 30
0.000000
  70
    32
  0
VERTEX
  8
┌▓È_1
  5
3FB
 10
900.982
 20
-310.488
 30
0.000000
  70
    32
  0
VERTEX
  8
┌▓È_1
  5
3FC
 10
900.998
 20
-310.499
 30
0.000000
  70
    32
  0
VERTEX
  8
┌▓È_1
  5
3FD
 10
901.013
 20
-310.510
 30
0.000000
  70
    32
  0
VERTEX
  8
┌▓È_1
  5
3FE
 10
901.029
 20
-310.521
 30
0.000000
  70
    32
  0
VERTEX
  8
┌▓È_1
  5
3FF
 10
901.045
 20
-310.532
 30
0.000000
  70
    32
  0
VERTEX
  8
┌▓È_1
  5
400
 10
901.060
 20
-310.544
 30
0.000000
  70
    32
  0
VERTEX
  8
┌▓È_1
  5
401
 10
901.076
 20
-310.555
 30
0.000000
  70
    32
  0
VERTEX
  8
┌▓È_1
  5
402
 10
901.091
 20
-310.566
 30
0.000000
  70
    32
  0
VERTEX
  8
┌▓È_1
  5
403
 10
901.107
 20
-310.577
 30
0.000000
  70
    32
  0
VERTEX
  8
┌▓È_1
  5
404
 10
901.123
 20
-310.588
 30
0.000000
  70
    32
  0
VERTEX
  8
┌▓È_1
  5
405
 10
901.138
 20
-310.599
 30
0.000000
  70
    32
  0
VERTEX
  8
┌▓È_1
  5
406
 10
901.154
 20
-310.609
 30
0.000000
  70
    32
  0
VERTEX
  8
┌▓È_1
  5
407
 10
901.170
 20
-310.620
 30
0.000000
  70
    32
  0
VERTEX
  8
┌▓È_1
  5
408
 10
901.186
 20
-310.631
 30
0.000000
  70
    32
  0
VERTEX
  8
┌▓È_1
  5
409
 10
901.201
 20
-310.642
 30
0.000000
  70
    32
  0
VERTEX
  8
┌▓È_1
  5
40A
 10
901.217
 20
-310.653
 30
0.000000
  70
    32
  0
VERTEX
  8
┌▓È_1
  5
40B
 10
901.233
 20
-310.663
 30
0.000000
  70
    32
  0
VERTEX
  8
┌▓È_1
  5
40C
 10
901.249
 20
-310.674
 30
0.000000
  70
    32
  0
VERTEX
  8
┌▓È_1
  5
40D
 10
901.265
 20
-310.685
 30
0.000000
  70
    32
  0
VERTEX
  8
┌▓È_1
  5
40E
 10
901.280
 20
-310.695
 30
0.000000
  70
    32
  0
VERTEX
  8
┌▓È_1
  5
40F
 10
901.296
 20
-310.706
 30
0.000000
  70
    32
  0
VERTEX
  8
┌▓È_1
  5
410
 10
901.312
 20
-310.716
 30
0.000000
  70
    32
  0
VERTEX
  8
┌▓È_1
  5
411
 10
901.328
 20
-310.727
 30
0.000000
  70
    32
  0
VERTEX
  8
┌▓È_1
  5
412
 10
901.344
 20
-310.737
 30
0.000000
  70
    32
  0
VERTEX
  8
┌▓È_1
  5
413
 10
901.360
 20
-310.748
 30
0.000000
  70
    32
  0
VERTEX
  8
┌▓È_1
  5
414
 10
901.376
 20
-310.758
 30
0.000000
  70
    32
  0
VERTEX
  8
┌▓È_1
  5
415
 10
901.392
 20
-310.768
 30
0.000000
  70
    32
  0
VERTEX
  8
┌▓È_1
  5
416
 10
901.408
 20
-310.779
 30
0.000000
  70
    32
  0
VERTEX
  8
┌▓È_1
  5
417
 10
901.424
 20
-310.789
 30
0.000000
  70
    32
  0
VERTEX
  8
┌▓È_1
  5
418
 10
901.440
 20
-310.799
 30
0.000000
  70
    32
  0
VERTEX
  8
┌▓È_1
  5
419
 10
901.456
 20
-310.809
 30
0.000000
  70
    32
  0
VERTEX
  8
┌▓È_1
  5
41A
 10
901.472
 20
-310.819
 30
0.000000
  70
    32
  0
VERTEX
  8
┌▓È_1
  5
41B
 10
901.489
 20
-310.829
 30
0.000000
  70
    32
  0
VERTEX
  8
┌▓È_1
  5
41C
 10
901.505
 20
-310.839
 30
0.000000
  70
    32
  0
VERTEX
  8
┌▓È_1
  5
41D
 10
901.521
 20
-310.849
 30
0.000000
  70
    32
  0
VERTEX
  8
┌▓È_1
  5
41E
 10
901.537
 20
-310.859
 30
0.000000
  70
    32
  0
VERTEX
  8
┌▓È_1
  5
41F
 10
901.553
 20
-310.869
 30
0.000000
  70
    32
  0
VERTEX
  8
┌▓È_1
  5
420
 10
901.570
 20
-310.879
 30
0.000000
  70
    32
  0
VERTEX
  8
┌▓È_1
  5
421
 10
901.586
 20
-310.889
 30
0.000000
  70
    32
  0
SEQEND
  8
┌▓È_1
  5
422
  0
POLYLINE
  8
┌▓È_1
  5
423
  62
5
  66
     1
 10
0.000000
 20
0.000000
 30
0.000000
  70
     8
  0
VERTEX
  8
┌▓È_1
  5
424
 10
904.542
 20
-310.866
 30
0.000000
  70
    32
  0
VERTEX
  8
┌▓È_1
  5
425
 10
904.556
 20
-310.870
 30
0.000000
  70
    32
  0
VERTEX
  8
┌▓È_1
  5
426
 10
904.570
 20
-310.873
 30
0.000000
  70
    32
  0
VERTEX
  8
┌▓È_1
  5
427
 10
904.584
 20
-310.877
 30
0.000000
  70
    32
  0
VERTEX
  8
┌▓È_1
  5
428
 10
904.599
 20
-310.881
 30
0.000000
  70
    32
  0
VERTEX
  8
┌▓È_1
  5
429
 10
904.613
 20
-310.885
 30
0.000000
  70
    32
  0
VERTEX
  8
┌▓È_1
  5
42A
 10
904.627
 20
-310.889
 30
0.000000
  70
    32
  0
VERTEX
  8
┌▓È_1
  5
42B
 10
904.641
 20
-310.893
 30
0.000000
  70
    32
  0
VERTEX
  8
┌▓È_1
  5
42C
 10
904.655
 20
-310.897
 30
0.000000
  70
    32
  0
VERTEX
  8
┌▓È_1
  5
42D
 10
904.669
 20
-310.900
 30
0.000000
  70
    32
  0
VERTEX
  8
┌▓È_1
  5
42E
 10
904.683
 20
-310.904
 30
0.000000
  70
    32
  0
VERTEX
  8
┌▓È_1
  5
42F
 10
904.697
 20
-310.908
 30
0.000000
  70
    32
  0
VERTEX
  8
┌▓È_1
  5
430
 10
904.711
 20
-310.912
 30
0.000000
  70
    32
  0
VERTEX
  8
┌▓È_1
  5
431
 10
904.725
 20
-310.915
 30
0.000000
  70
    32
  0
VERTEX
  8
┌▓È_1
  5
432
 10
904.740
 20
-310.919
 30
0.000000
  70
    32
  0
VERTEX
  8
┌▓È_1
  5
433
 10
904.754
 20
-310.923
 30
0.000000
  70
    32
  0
VERTEX
  8
┌▓È_1
  5
434
 10
904.768
 20
-310.926
 30
0.000000
  70
    32
  0
VERTEX
  8
┌▓È_1
  5
435
 10
904.782
 20
-310.930
 30
0.000000
  70
    32
  0
VERTEX
  8
┌▓È_1
  5
436
 10
904.796
 20
-310.934
 30
0.000000
  70
    32
  0
VERTEX
  8
┌▓È_1
  5
437
 10
904.811
 20
-310.937
 30
0.000000
  70
    32
  0
VERTEX
  8
┌▓È_1
  5
438
 10
904.825
 20
-310.941
 30
0.000000
  70
    32
  0
VERTEX
  8
┌▓È_1
  5
439
 10
904.839
 20
-310.944
 30
0.000000
  70
    32
  0
VERTEX
  8
┌▓È_1
  5
43A
 10
904.853
 20
-310.948
 30
0.000000
  70
    32
  0
VERTEX
  8
┌▓È_1
  5
43B
 10
904.868
 20
-310.951
 30
0.000000
  70
    32
  0
VERTEX
  8
┌▓È_1
  5
43C
 10
904.882
 20
-310.955
 30
0.000000
  70
    32
  0
VERTEX
  8
┌▓È_1
  5
43D
 10
904.896
 20
-310.958
 30
0.000000
  70
    32
  0
VERTEX
  8
┌▓È_1
  5
43E
 10
904.910
 20
-310.962
 30
0.000000
  70
    32
  0
VERTEX
  8
┌▓È_1
  5
43F
 10
904.925
 20
-310.965
 30
0.000000
  70
    32
  0
VERTEX
  8
┌▓È_1
  5
440
 10
904.939
 20
-310.969
 30
0.000000
  70
    32
  0
VERTEX
  8
┌▓È_1
  5
441
 10
904.953
 20
-310.972
 30
0.000000
  70
    32
  0
VERTEX
  8
┌▓È_1
  5
442
 10
904.968
 20
-310.975
 30
0.000000
  70
    32
  0
VERTEX
  8
┌▓È_1
  5
443
 10
904.982
 20
-310.979
 30
0.000000
  70
    32
  0
VERTEX
  8
┌▓È_1
  5
444
 10
904.997
 20
-310.982
 30
0.000000
  70
    32
  0
VERTEX
  8
┌▓È_1
  5
445
 10
905.011
 20
-310.985
 30
0.000000
  70
    32
  0
VERTEX
  8
┌▓È_1
  5
446
 10
905.025
 20
-310.989
 30
0.000000
  70
    32
  0
VERTEX
  8
┌▓È_1
  5
447
 10
905.040
 20
-310.992
 30
0.000000
  70
    32
  0
VERTEX
  8
┌▓È_1
  5
448
 10
905.054
 20
-310.995
 30
0.000000
  70
    32
  0
VERTEX
  8
┌▓È_1
  5
449
 10
905.069
 20
-310.998
 30
0.000000
  70
    32
  0
VERTEX
  8
┌▓È_1
  5
44A
 10
905.083
 20
-311.002
 30
0.000000
  70
    32
  0
VERTEX
  8
┌▓È_1
  5
44B
 10
905.097
 20
-311.005
 30
0.000000
  70
    32
  0
VERTEX
  8
┌▓È_1
  5
44C
 10
905.112
 20
-311.008
 30
0.000000
  70
    32
  0
VERTEX
  8
┌▓È_1
  5
44D
 10
905.126
 20
-311.011
 30
0.000000
  70
    32
  0
VERTEX
  8
┌▓È_1
  5
44E
 10
905.141
 20
-311.015
 30
0.000000
  70
    32
  0
VERTEX
  8
┌▓È_1
  5
44F
 10
905.155
 20
-311.018
 30
0.000000
  70
    32
  0
VERTEX
  8
┌▓È_1
  5
450
 10
905.170
 20
-311.021
 30
0.000000
  70
    32
  0
VERTEX
  8
┌▓È_1
  5
451
 10
905.184
 20
-311.024
 30
0.000000
  70
    32
  0
VERTEX
  8
┌▓È_1
  5
452
 10
905.199
 20
-311.027
 30
0.000000
  70
    32
  0
VERTEX
  8
┌▓È_1
  5
453
 10
905.213
 20
-311.030
 30
0.000000
  70
    32
  0
VERTEX
  8
┌▓È_1
  5
454
 10
905.228
 20
-311.033
 30
0.000000
  70
    32
  0
VERTEX
  8
┌▓È_1
  5
455
 10
905.242
 20
-311.036
 30
0.000000
  70
    32
  0
VERTEX
  8
┌▓È_1
  5
456
 10
905.257
 20
-311.039
 30
0.000000
  70
    32
  0
VERTEX
  8
┌▓È_1
  5
457
 10
905.272
 20
-311.042
 30
0.000000
  70
    32
  0
VERTEX
  8
┌▓È_1
  5
458
 10
905.286
 20
-311.045
 30
0.000000
  70
    32
  0
VERTEX
  8
┌▓È_1
  5
459
 10
905.301
 20
-311.048
 30
0.000000
  70
    32
  0
VERTEX
  8
┌▓È_1
  5
45A
 10
905.315
 20
-311.051
 30
0.000000
  70
    32
  0
VERTEX
  8
┌▓È_1
  5
45B
 10
905.330
 20
-311.054
 30
0.000000
  70
    32
  0
VERTEX
  8
┌▓È_1
  5
45C
 10
905.344
 20
-311.057
 30
0.000000
  70
    32
  0
VERTEX
  8
┌▓È_1
  5
45D
 10
905.359
 20
-311.060
 30
0.000000
  70
    32
  0
VERTEX
  8
┌▓È_1
  5
45E
 10
905.374
 20
-311.063
 30
0.000000
  70
    32
  0
VERTEX
  8
┌▓È_1
  5
45F
 10
905.388
 20
-311.066
 30
0.000000
  70
    32
  0
VERTEX
  8
┌▓È_1
  5
460
 10
905.403
 20
-311.069
 30
0.000000
  70
    32
  0
VERTEX
  8
┌▓È_1
  5
461
 10
905.418
 20
-311.072
 30
0.000000
  70
    32
  0
VERTEX
  8
┌▓È_1
  5
462
 10
905.432
 20
-311.075
 30
0.000000
  70
    32
  0
VERTEX
  8
┌▓È_1
  5
463
 10
905.447
 20
-311.078
 30
0.000000
  70
    32
  0
VERTEX
  8
┌▓È_1
  5
464
 10
905.462
 20
-311.081
 30
0.000000
  70
    32
  0
VERTEX
  8
┌▓È_1
  5
465
 10
905.476
 20
-311.084
 30
0.000000
  70
    32
  0
VERTEX
  8
┌▓È_1
  5
466
 10
905.491
 20
-311.087
 30
0.000000
  70
    32
  0
VERTEX
  8
┌▓È_1
  5
467
 10
905.506
 20
-311.089
 30
0.000000
  70
    32
  0
VERTEX
  8
┌▓È_1
  5
468
 10
905.520
 20
-311.092
 30
0.000000
  70
    32
  0
VERTEX
  8
┌▓È_1
  5
469
 10
905.535
 20
-311.095
 30
0.000000
  70
    32
  0
VERTEX
  8
┌▓È_1
  5
46A
 10
905.550
 20
-311.098
 30
0.000000
  70
    32
  0
VERTEX
  8
┌▓È_1
  5
46B
 10
905.564
 20
-311.101
 30
0.000000
  70
    32
  0
VERTEX
  8
┌▓È_1
  5
46C
 10
905.579
 20
-311.103
 30
0.000000
  70
    32
  0
VERTEX
  8
┌▓È_1
  5
46D
 10
905.594
 20
-311.106
 30
0.000000
  70
    32
  0
VERTEX
  8
┌▓È_1
  5
46E
 10
905.609
 20
-311.109
 30
0.000000
  70
    32
  0
VERTEX
  8
┌▓È_1
  5
46F
 10
905.623
 20
-311.112
 30
0.000000
  70
    32
  0
VERTEX
  8
┌▓È_1
  5
470
 10
905.638
 20
-311.115
 30
0.000000
  70
    32
  0
VERTEX
  8
┌▓È_1
  5
471
 10
905.653
 20
-311.117
 30
0.000000
  70
    32
  0
VERTEX
  8
┌▓È_1
  5
472
 10
905.668
 20
-311.120
 30
0.000000
  70
    32
  0
VERTEX
  8
┌▓È_1
  5
473
 10
905.682
 20
-311.123
 30
0.000000
  70
    32
  0
VERTEX
  8
┌▓È_1
  5
474
 10
905.697
 20
-311.125
 30
0.000000
  70
    32
  0
VERTEX
  8
┌▓È_1
  5
475
 10
905.712
 20
-311.128
 30
0.000000
  70
    32
  0
VERTEX
  8
┌▓È_1
  5
476
 10
905.727
 20
-311.131
 30
0.000000
  70
    32
  0
VERTEX
  8
┌▓È_1
  5
477
 10
905.741
 20
-311.134
 30
0.000000
  70
    32
  0
VERTEX
  8
┌▓È_1
  5
478
 10
905.756
 20
-311.136
 30
0.000000
  70
    32
  0
VERTEX
  8
┌▓È_1
  5
479
 10
905.771
 20
-311.139
 30
0.000000
  70
    32
  0
VERTEX
  8
┌▓È_1
  5
47A
 10
905.786
 20
-311.142
 30
0.000000
  70
    32
  0
VERTEX
  8
┌▓È_1
  5
47B
 10
905.800
 20
-311.144
 30
0.000000
  70
    32
  0
VERTEX
  8
┌▓È_1
  5
47C
 10
905.815
 20
-311.147
 30
0.000000
  70
    32
  0
VERTEX
  8
┌▓È_1
  5
47D
 10
905.830
 20
-311.150
 30
0.000000
  70
    32
  0
VERTEX
  8
┌▓È_1
  5
47E
 10
905.845
 20
-311.152
 30
0.000000
  70
    32
  0
VERTEX
  8
┌▓È_1
  5
47F
 10
905.860
 20
-311.155
 30
0.000000
  70
    32
  0
VERTEX
  8
┌▓È_1
  5
480
 10
905.875
 20
-311.157
 30
0.000000
  70
    32
  0
VERTEX
  8
┌▓È_1
  5
481
 10
905.889
 20
-311.160
 30
0.000000
  70
    32
  0
VERTEX
  8
┌▓È_1
  5
482
 10
905.904
 20
-311.163
 30
0.000000
  70
    32
  0
VERTEX
  8
┌▓È_1
  5
483
 10
905.919
 20
-311.165
 30
0.000000
  70
    32
  0
VERTEX
  8
┌▓È_1
  5
484
 10
905.934
 20
-311.168
 30
0.000000
  70
    32
  0
VERTEX
  8
┌▓È_1
  5
485
 10
905.949
 20
-311.171
 30
0.000000
  70
    32
  0
VERTEX
  8
┌▓È_1
  5
486
 10
905.964
 20
-311.173
 30
0.000000
  70
    32
  0
VERTEX
  8
┌▓È_1
  5
487
 10
905.978
 20
-311.176
 30
0.000000
  70
    32
  0
VERTEX
  8
┌▓È_1
  5
488
 10
905.993
 20
-311.178
 30
0.000000
  70
    32
  0
VERTEX
  8
┌▓È_1
  5
489
 10
906.008
 20
-311.181
 30
0.000000
  70
    32
  0
VERTEX
  8
┌▓È_1
  5
48A
 10
906.023
 20
-311.183
 30
0.000000
  70
    32
  0
VERTEX
  8
┌▓È_1
  5
48B
 10
906.038
 20
-311.186
 30
0.000000
  70
    32
  0
VERTEX
  8
┌▓È_1
  5
48C
 10
906.053
 20
-311.189
 30
0.000000
  70
    32
  0
VERTEX
  8
┌▓È_1
  5
48D
 10
906.067
 20
-311.191
 30
0.000000
  70
    32
  0
VERTEX
  8
┌▓È_1
  5
48E
 10
906.082
 20
-311.194
 30
0.000000
  70
    32
  0
VERTEX
  8
┌▓È_1
  5
48F
 10
906.097
 20
-311.196
 30
0.000000
  70
    32
  0
VERTEX
  8
┌▓È_1
  5
490
 10
906.112
 20
-311.199
 30
0.000000
  70
    32
  0
VERTEX
  8
┌▓È_1
  5
491
 10
906.127
 20
-311.201
 30
0.000000
  70
    32
  0
VERTEX
  8
┌▓È_1
  5
492
 10
906.142
 20
-311.204
 30
0.000000
  70
    32
  0
VERTEX
  8
┌▓È_1
  5
493
 10
906.157
 20
-311.206
 30
0.000000
  70
    32
  0
VERTEX
  8
┌▓È_1
  5
494
 10
906.172
 20
-311.209
 30
0.000000
  70
    32
  0
VERTEX
  8
┌▓È_1
  5
495
 10
906.186
 20
-311.211
 30
0.000000
  70
    32
  0
VERTEX
  8
┌▓È_1
  5
496
 10
906.201
 20
-311.214
 30
0.000000
  70
    32
  0
VERTEX
  8
┌▓È_1
  5
497
 10
906.216
 20
-311.217
 30
0.000000
  70
    32
  0
VERTEX
  8
┌▓È_1
  5
498
 10
906.231
 20
-311.219
 30
0.000000
  70
    32
  0
VERTEX
  8
┌▓È_1
  5
499
 10
906.246
 20
-311.222
 30
0.000000
  70
    32
  0
VERTEX
  8
┌▓È_1
  5
49A
 10
906.261
 20
-311.224
 30
0.000000
  70
    32
  0
VERTEX
  8
┌▓È_1
  5
49B
 10
906.276
 20
-311.227
 30
0.000000
  70
    32
  0
VERTEX
  8
┌▓È_1
  5
49C
 10
906.291
 20
-311.229
 30
0.000000
  70
    32
  0
VERTEX
  8
┌▓È_1
  5
49D
 10
906.305
 20
-311.232
 30
0.000000
  70
    32
  0
VERTEX
  8
┌▓È_1
  5
49E
 10
906.320
 20
-311.234
 30
0.000000
  70
    32
  0
VERTEX
  8
┌▓È_1
  5
49F
 10
906.335
 20
-311.237
 30
0.000000
  70
    32
  0
VERTEX
  8
┌▓È_1
  5
4A0
 10
906.350
 20
-311.239
 30
0.000000
  70
    32
  0
VERTEX
  8
┌▓È_1
  5
4A1
 10
906.365
 20
-311.242
 30
0.000000
  70
    32
  0
VERTEX
  8
┌▓È_1
  5
4A2
 10
906.380
 20
-311.244
 30
0.000000
  70
    32
  0
VERTEX
  8
┌▓È_1
  5
4A3
 10
906.395
 20
-311.247
 30
0.000000
  70
    32
  0
SEQEND
  8
┌▓È_1
  5
4A4
  0
LINE
  5
5F
  8
┌▓È_1
  6
BORDER
 62
     3
 10
837.33539595169998
 20
-186.96813205059999
 30
0.0
 11
837.33539595169998
 21
-198.96813205059999
 31
0.0
  0
LINE
  5
60
  8
┌▓È_1
  6
BORDER
 62
     3
 10
837.33539595169998
 20
-172.96813205059999
 30
0.0
 11
837.33539595169998
 21
-184.96813205059999
 31
0.0
  0
CIRCLE
  5
61
  8
┌▓È_1
 62
     5
 10
837.33539595169998
 20
-192.96813205059999
 30
0.0
 40
2.0
  0
CIRCLE
  5
62
  8
┌▓È_1
 62
     5
 10
837.33539595169998
 20
-192.96813205059999
 30
0.0
 40
4.0
  0
CIRCLE
  5
63
  8
┌▓È_1
 62
     5
 10
837.33539595169998
 20
-178.96813205059999
 30
0.0
 40
4.0
  0
CIRCLE
  5
64
  8
┌▓È_1
 62
     5
 10
837.33539595169998
 20
-178.96813205059999
 30
0.0
 40
2.0
  0
LINE
  5
65
  8
┌▓È_1
 62
     5
 10
829.33539595169998
 20
-207.96813205059999
 30
0.0
 11
845.33539595169987
 21
-207.96813205059999
 31
0.0
  0
LINE
  5
66
  8
┌▓È_1
 62
     5
 10
829.33539595169998
 20
-204.96813205059999
 30
0.0
 11
845.33539595169987
 21
-204.96813205059999
 31
0.0
  0
LINE
  5
67
  8
┌▓È_1
 62
     5
 10
845.33539595169987
 20
-172.96813205059999
 30
0.0
 11
829.33539595169998
 21
-172.96813205059999
 31
0.0
  0
LINE
  5
68
  8
┌▓È_1
  6
BORDER
 62
     3
 10
831.33539595169998
 20
-178.96813205059999
 30
0.0
 11
843.33539595169987
 21
-178.96813205059999
 31
0.0
  0
LINE
  5
69
  8
┌▓È_1
  6
BORDER
 62
     3
 10
831.33539595169998
 20
-192.96813205059999
 30
0.0
 11
843.33539595169987
 21
-192.96813205059999
 31
0.0
  0
LINE
  5
6A
  8
┌▓È_1
 62
     5
 10
829.33539595169998
 20
-172.96813205059999
 30
0.0
 11
829.33539595169998
 21
-207.96813205059999
 31
0.0
  0
LINE
  5
6B
  8
┌▓È_1
  6
BORDER
 62
     3
 10
770.85761817390005
 20
-252.05887279129999
 30
0.0
 11
770.85761817390005
 21
-264.05887279130002
 31
0.0
  0
LINE
  5
6C
  8
┌▓È_1
  6
BORDER
 62
     3
 10
784.85761817390005
 20
-252.05887279129999
 30
0.0
 11
784.85761817390005
 21
-264.05887279130002
 31
0.0
  0
LINE
  5
6D
  8
┌▓È_1
 62
     5
 10
790.85761817390005
 20
-250.05887279129999
 30
0.0
 11
755.85761817390005
 21
-250.05887279129999
 31
0.0
  0
LINE
  5
6E
  8
┌▓È_1
  6
STITCH
 10
758.85761817390005
 20
-250.05887279129999
 30
0.0
 11
758.85761817390005
 21
-266.05887279130002
 31
0.0
  0
LINE
  5
6F
  8
┌▓È_1
 62
     5
 10
755.85761817390005
 20
-250.05887279129999
 30
0.0
 11
755.85761817390005
 21
-266.05887279130002
 31
0.0
  0
LINE
  5
70
  8
┌▓È_1
 62
     5
 10
790.85761817390005
 20
-266.05887279130002
 30
0.0
 11
790.85761817390005
 21
-250.05887279129999
 31
0.0
  0
CIRCLE
  5
71
  8
┌▓È_1
  6
STITCH
 10
770.85761817390005
 20
-258.05887279130002
 30
0.0
 40
4.0
  0
LINE
  5
72
  8
┌▓È_1
 62
     5
 10
755.85761817390005
 20
-266.05887279130002
 30
0.0
 11
790.85761817390005
 21
-266.05887279130002
 31
0.0
  0
LINE
  5
73
  8
┌▓È_1
  6
BORDER
 62
     3
 10
764.85761817390005
 20
-258.05887279130002
 30
0.0
 11
776.85761817390005
 21
-258.05887279130002
 31
0.0
  0
LINE
  5
74
  8
┌▓È_1
 10
872.06910905929976
 20
-288.47491028209998
 30
0.0
 11
872.06910905929976
 21
-296.97491028209998
 31
0.0
  0
LINE
  5
75
  8
┌▓È_1
 10
904.06910905929976
 20
-288.47491028209998
 30
0.0
 11
904.06910905929976
 21
-305.47491028209998
 31
0.0
  0
LINE
  5
76
  8
┌▓È_1
 62
     5
 10
908.16878139250002
 20
-308.20677190859999
 30
0.0
 11
908.16878139250002
 21
-309.64677190859999
 31
0.0
  0
LINE
  5
77
  8
┌▓È_1
 62
     5
 10
895.86631042529996
 20
-310.04677190860002
 30
0.0
 11
895.86631042529996
 21
-309.64677190859999
 31
0.0
  0
LINE
  5
78
  8
┌▓È_1
 62
     5
 10
899.19479527379997
 20
-308.70446012259998
 30
0.0
 11
902.39479527380001
 21
-308.70446012259998
 31
0.0
  0
LINE
  5
79
  8
┌▓È_1
 62
     5
 10
902.82384526719989
 20
-309.66202863270001
 30
0.0
 11
902.63136862210001
 21
-309.87461932119999
 31
0.0
  0
ARC
  5
7A
  8
┌▓È_1
 62
     5
 10
892.66631042530003
 20
-310.04677190860002
 30
0.0
 40
1.1999999999999991
 50
270.0
 51
0.0
  0
LINE
  5
7B
  8
┌▓È_1
 62
     5
 10
893.86631042529984
 20
-306.84677190860009
 30
0.0
 11
893.86631042529984
 21
-308.4467719086
 31
0.0
  0
LINE
  5
7C
  8
┌▓È_1
 62
     5
 10
912.84793414059993
 20
-309.64677190859999
 30
0.0
 11
915.36878139249995
 21
-309.64677190859999
 31
0.0
  0
LINE
  5
7D
  8
┌▓È_1
 62
     5
 10
905.59479527379995
 20
-308.04677190860002
 30
0.0
 11
906.39479527380013
 21
-306.84677190860009
 31
0.0
  0
LINE
  5
7E
  8
┌▓È_1
 62
     5
 10
910.77784805910005
 20
-310.28677190859997
 30
0.0
 11
910.59011472580005
 21
-309.64677190859999
 31
0.0
  0
LINE
  5
7F
  8
┌▓È_1
 62
     5
 10
895.86631042529996
 20
-308.04677190860002
 30
0.0
 11
897.0663104253
 21
-306.84677190860009
 31
0.0
  0
LINE
  5
80
  8
┌▓È_1
 62
     5
 10
890.26631042529993
 20
-310.84677190860009
 30
0.0
 11
892.26631042529993
 21
-310.84677190860009
 31
0.0
  0
LINE
  5
81
  8
┌▓È_1
 62
     5
 10
906.39479527380013
 20
-306.84677190860009
 30
0.0
 11
899.19479527379997
 21
-306.84677190860009
 31
0.0
  0
LINE
  5
82
  8
┌▓È_1
 62
     5
 10
912.43355287729992
 20
-308.20677190859999
 30
0.0
 11
912.31643747709995
 21
-307.79978879629999
 31
0.0
  0
LINE
  5
83
  8
┌▓È_1
 62
     5
 10
908.16878139250002
 20
-311.72677190860003
 30
0.0
 11
911.20024805909998
 21
-311.72677190860003
 31
0.0
  0
ARC
  5
84
  8
┌▓È_1
 62
     5
 10
901.19479527380008
 20
-308.04677190860002
 30
0.0
 40
4.4000000000000004
 50
322.48761197969998
 51
0.0
  0
LINE
  5
85
  8
┌▓È_1
 62
     5
 10
913.03210359100001
 20
-310.28677190859997
 30
0.0
 11
915.36878139249995
 21
-310.28677190859997
 31
0.0
  0
LINE
  5
86
  8
┌▓È_1
 62
     5
 10
913.76878139249993
 20
-312.84677190859998
 30
0.0
 11
913.4464848542998
 21
-311.72677190860003
 31
0.0
  0
LINE
  5
87
  8
┌▓È_1
 62
     5
 10
892.26631042529993
 20
-309.64677190859999
 30
0.0
 11
893.86631042529984
 21
-309.64677190859999
 31
0.0
  0
LINE
  5
88
  8
┌▓È_1
 62
     5
 10
893.86631042529984
 20
-309.64677190859999
 30
0.0
 11
893.86631042529984
 21
-310.04677190860002
 31
0.0
  0
LINE
  5
89
  8
┌▓È_1
 62
     5
 10
908.16878139250002
 20
-308.20677190859999
 30
0.0
 11
910.16771472580001
 21
-308.20677190859999
 31
0.0
  0
INSERT
  5
8A
  8
0
  6
CONTINUOUS
  2
*U19
 10
0.0
 20
0.0
 30
0.0
  0
INSERT
  5
8B
  8
0
  6
CONTINUOUS
  2
*U20
 10
0.0
 20
0.0
 30
0.0
  0
LINE
  5
8C
  8
┌▓È_1
 10
856.06910905929976
 20
-288.47491028209998
 30
0.0
 11
856.06910905929976
 21
-313.97491028209998
 31
0.0
  0
LINE
  5
8D
  8
┌▓È_1
 62
     5
 10
889.34542737609991
 20
-309.64677190859999
 30
0.0
 11
890.14542737609997
 21
-309.64677190859999
 31
0.0
  0
ARC
  5
8E
  8
┌▓È_1
 62
     5
 10
901.19479527380008
 20
-308.04677190860002
 30
0.0
 40
4.4000000000000004
 50
270.0
 51
302.54495885400001
  0
LINE
  5
8F
  8
┌▓È_1
 62
     5
 10
895.86631042529996
 20
-309.64677190859999
 30
0.0
 11
897.0663104253
 21
-309.64677190859999
 31
0.0
  0
ARC
  5
90
  8
┌▓È_1
 62
     5
 10
900.1547952738
 20
-308.20677190859999
 30
0.0
 40
3.04
 50
331.39928138329998
 51
358.49204224580001
  0
LINE
  5
91
  8
┌▓È_1
 62
     5
 10
899.19479527379997
 20
-312.4467719086
 30
0.0
 11
901.19479527380008
 21
-312.4467719086
 31
0.0
  0
LINE
  5
92
  8
┌▓È_1
 62
     5
 10
890.26631042529993
 20
-312.4467719086
 30
0.0
 11
893.46631042529987
 21
-312.4467719086
 31
0.0
  0
LINE
  5
93
  8
┌▓È_1
 62
     5
 10
905.59479527379995
 20
-308.04677190860002
 30
0.0
 11
906.39479527380013
 21
-306.84677190860009
 31
0.0
  0
LINE
  5
94
  8
┌▓È_1
 62
     5
 10
909.76878139250005
 20
-306.84677190860009
 30
0.0
 11
912.96878139249998
 21
-306.84677190860009
 31
0.0
  0
LINE
  5
95
  8
┌▓È_1
 62
     5
 10
899.19479527379997
 20
-311.24677190860001
 30
0.0
 11
900.1547952738
 21
-311.24677190860001
 31
0.0
  0
LINE
  5
96
  8
┌▓È_1
 62
     5
 10
899.19479527379997
 20
-311.24677190860001
 30
0.0
 11
899.19479527379997
 21
-312.4467719086
 31
0.0
  0
ARC
  5
97
  8
┌▓È_1
 62
     5
 10
900.1547952738
 20
-308.20677190859999
 30
0.0
 40
3.04
 50
270.0
 51
298.08590481520002
  0
LINE
  5
98
  8
┌▓È_1
 62
     5
 10
904.68497075549988
 20
-310.7260768758
 30
0.0
 11
904.54248910770013
 21
-310.86557939120001
 31
0.0
  0
LINE
  5
99
  8
┌▓È_1
 62
     5
 10
890.26631042529993
 20
-309.64677190859999
 30
0.0
 11
890.26631042529993
 21
-310.84677190860009
 31
0.0
  0
INSERT
  5
9A
  8
0
  6
CONTINUOUS
  2
*U21
 10
0.0
 20
0.0
 30
0.0
  0
LINE
  5
9B
  8
┌▓È_1
 62
     5
 10
912.43355287729992
 20
-308.20677190859999
 30
0.0
 11
915.36878139249995
 21
-308.20677190859999
 31
0.0
  0
LINE
  5
9C
  8
┌▓È_1
 62
     5
 10
910.16771472580001
 20
-308.20677190859999
 30
0.0
 11
909.76878139250005
 21
-306.84677190860009
 31
0.0
  0
LINE
  5
9D
  8
┌▓È_1
 62
     5
 10
890.26631042529993
 20
-306.84677190860009
 30
0.0
 11
890.26631042529993
 21
-308.4467719086
 31
0.0
  0
LINE
  5
9E
  8
┌▓È_1
 62
     5
 10
892.26631042529993
 20
-308.04677190860002
 30
0.0
 11
893.46631042529987
 21
-306.84677190860009
 31
0.0
  0
LINE
  5
9F
  8
┌▓È_1
 62
     5
 10
893.46631042529987
 20
-306.84677190860009
 30
0.0
 11
890.26631042529993
 21
-306.84677190860009
 31
0.0
  0
LINE
  5
A0
  8
┌▓È_1
 62
     5
 10
893.86631042529984
 20
-308.4467719086
 30
0.0
 11
892.26631042529993
 21
-308.4467719086
 31
0.0
  0
LINE
  5
A1
  8
┌▓È_1
 62
     5
 10
912.31643747709995
 20
-307.79978879629999
 30
0.0
 11
912.96878139249998
 21
-306.84677190860009
 31
0.0
  0
ARC
  5
A2
  8
┌▓È_1
 62
     5
 10
893.46631042529987
 20
-310.04677190860002
 30
0.0
 40
2.399999999999999
 50
270.0
 51
0.0
  0
LINE
  5
A3
  8
┌▓È_1
 10
920.06910905929976
 20
-288.47491028209998
 30
0.0
 11
920.06910905929976
 21
-313.97491028209998
 31
0.0
  0
LINE
  5
A4
  8
┌▓È_1
 10
856.06910905929976
 20
-288.47491028209998
 30
0.0
 11
976.06910905929988
 21
-288.47491028209998
 31
0.0
  0
LINE
  5
A5
  8
┌▓È_1
 10
856.06910905929976
 20
-305.47491028209998
 30
0.0
 11
976.06910905929988
 21
-305.47491028209998
 31
0.0
  0
LINE
  5
A6
  8
┌▓È_1
 62
     5
 10
892.26631042529993
 20
-310.84677190860009
 30
0.0
 11
892.26631042529993
 21
-309.64677190859999
 31
0.0
  0
LINE
  5
A7
  8
┌▓È_1
 62
     5
 10
908.16878139250002
 20
-310.28677190859997
 30
0.0
 11
908.16878139250002
 21
-311.72677190860003
 31
0.0
  0
LINE
  5
A8
  8
┌▓È_1
 62
     5
 10
908.16878139250002
 20
-309.64677190859999
 30
0.0
 11
910.59011472580005
 21
-309.64677190859999
 31
0.0
  0
LINE
  5
A9
  8
┌▓È_1
 62
     5
 10
915.36878139249995
 20
-308.20677190859999
 30
0.0
 11
915.36878139249995
 21
-309.64677190859999
 31
0.0
  0
LINE
  5
AA
  8
┌▓È_1
 62
     5
 10
899.19479527379997
 20
-308.28677190859997
 30
0.0
 11
903.19479527380008
 21
-308.28677190859997
 31
0.0
  0
LINE
  5
AB
  8
┌▓È_1
 62
     5
 10
892.66631042530003
 20
-311.24677190860001
 30
0.0
 11
890.26631042529993
 21
-311.24677190860001
 31
0.0
  0
LINE
  5
AC
  8
┌▓È_1
 62
     5
 10
911.52878139250004
 20
-312.84677190859998
 30
0.0
 11
911.20024805909998
 21
-311.72677190860003
 31
0.0
  0
LINE
  5
AD
  8
┌▓È_1
 62
     5
 10
913.03210359100001
 20
-310.28677190859997
 30
0.0
 11
912.84793414059993
 21
-309.64677190859999
 31
0.0
  0
LINE
  5
AE
  8
┌▓È_1
 62
     5
 10
890.26631042529993
 20
-311.24677190860001
 30
0.0
 11
890.26631042529993
 21
-312.4467719086
 31
0.0
  0
LINE
  5
AF
  8
┌▓È_1
 62
     5
 10
890.26631042529993
 20
-309.64677190859999
 30
0.0
 11
890.14542737609997
 21
-309.64677190859999
 31
0.0
  0
LINE
  5
B0
  8
┌▓È_1
 62
     5
 10
906.39479527380013
 20
-311.24677190860001
 30
0.0
 11
906.39479527380013
 21
-312.4467719086
 31
0.0
  0
LINE
  5
B1
  8
┌▓È_1
 62
     5
 10
915.36878139249995
 20
-310.28677190859997
 30
0.0
 11
915.36878139249995
 21
-311.72677190860003
 31
0.0
  0
LINE
  5
B2
  8
┌▓È_1
 62
     5
 10
890.26631042529993
 20
-308.4467719086
 30
0.0
 11
889.34542737609991
 21
-308.4467719086
 31
0.0
  0
LINE
  5
B3
  8
┌▓È_1
 62
     5
 10
899.19479527379997
 20
-312.4467719086
 30
0.0
 11
899.19479527379997
 21
-311.24677190860001
 31
0.0
  0
LINE
  5
B4
  8
┌▓È_1
 62
     5
 10
892.26631042529993
 20
-308.4467719086
 30
0.0
 11
892.26631042529993
 21
-308.04677190860002
 31
0.0
  0
LINE
  5
B5
  8
┌▓È_1
 62
     5
 10
911.52878139250004
 20
-312.84677190859998
 30
0.0
 11
913.76878139249993
 21
-312.84677190859998
 31
0.0
  0
LINE
  5
B6
  8
┌▓È_1
 62
     5
 10
897.0663104253
 20
-308.4467719086
 30
0.0
 11
897.0663104253
 21
-309.64677190859999
 31
0.0
  0
LINE
  5
B7
  8
┌▓È_1
 62
     5
 10
889.34542737609991
 20
-308.4467719086
 30
0.0
 11
889.34542737609991
 21
-309.64677190859999
 31
0.0
  0
LINE
  5
B8
  8
┌▓È_1
 62
     5
 10
899.19479527379997
 20
-308.96214833660002
 30
0.0
 11
899.19479527379997
 21
-308.70446012259998
 31
0.0
  0
LINE
  5
B9
  8
┌▓È_1
 62
     5
 10
902.39479527380001
 20
-308.70446012259998
 30
0.0
 11
901.94224693390004
 21
-309.1570084626
 31
0.0
  0
LINE
  5
BA
  8
┌▓È_1
 10
888.06910905929976
 20
-288.47491028209998
 30
0.0
 11
888.06910905929976
 21
-305.47491028209998
 31
0.0
  0
LINE
  5
BB
  8
┌▓È_1
 10
858.06910905929988
 20
-292.72491028209998
 30
0.0
 11
870.06910905929976
 21
-292.72491028209998
 31
0.0
  0
LINE
  5
BC
  8
┌▓È_1
 62
     5
 10
895.86631042529996
 20
-308.4467719086
 30
0.0
 11
895.86631042529996
 21
-308.04677190860002
 31
0.0
  0
LINE
  5
BD
  8
┌▓È_1
 62
     5
 10
897.0663104253
 20
-308.4467719086
 30
0.0
 11
895.86631042529996
 21
-308.4467719086
 31
0.0
  0
LINE
  5
BE
  8
┌▓È_1
 62
     5
 10
908.16878139250002
 20
-310.28677190859997
 30
0.0
 11
910.77784805910005
 21
-310.28677190859997
 31
0.0
  0
LINE
  5
BF
  8
┌▓È_1
 62
     5
 10
976.06910905929988
 20
-313.97491028209998
 30
0.0
 11
976.06910905929988
 21
-123.9749102821
 31
0.0
  0
LINE
  5
C0
  8
┌▓È_1
 10
874.06910905929988
 20
-292.72491028209998
 30
0.0
 11
886.06910905929976
 21
-292.72491028209998
 31
0.0
  0
LINE
  5
C1
  8
┌▓È_1
 10
858.06910905929988
 20
-301.22491028209998
 30
0.0
 11
886.06910905929976
 21
-301.22491028209998
 31
0.0
  0
LINE
  5
C2
  8
┌▓È_1
 10
890.06910905929976
 20
-292.72491028209998
 30
0.0
 11
902.06910905929988
 21
-292.72491028209998
 31
0.0
  0
LINE
  5
C3
  8
┌▓È_1
 10
890.06910905929976
 20
-301.22491028209998
 30
0.0
 11
902.06910905929988
 21
-301.22491028209998
 31
0.0
  0
INSERT
  5
C4
  8
0
  6
CONTINUOUS
  2
*U22
 10
0.0
 20
0.0
 30
0.0
  0
INSERT
  5
C5
  8
0
  6
CONTINUOUS
  2
*U23
 10
0.0
 20
0.0
 30
0.0
  0
INSERT
  5
C6
  8
0
  6
CONTINUOUS
  2
*U24
 10
0.0
 20
0.0
 30
0.0
  0
INSERT
  5
C7
  8
0
  6
CONTINUOUS
  2
*U25
 10
0.0
 20
0.0
 30
0.0
  0
INSERT
  5
C8
  8
0
  6
CONTINUOUS
  2
*U26
 10
0.0
 20
0.0
 30
0.0
  0
INSERT
  5
C9
  8
0
  6
CONTINUOUS
  2
*U27
 10
0.0
 20
0.0
 30
0.0
  0
INSERT
  5
CA
  8
0
  6
CONTINUOUS
  2
*U28
 10
0.0
 20
0.0
 30
0.0
  0
INSERT
  5
CB
  8
0
  6
CONTINUOUS
  2
*U29
 10
0.0
 20
0.0
 30
0.0
  0
INSERT
  5
CC
  8
0
  6
CONTINUOUS
  2
*U30
 10
0.0
 20
0.0
 30
0.0
  0
INSERT
  5
CD
  8
0
  6
CONTINUOUS
  2
*U31
 10
0.0
 20
0.0
 30
0.0
  0
INSERT
  5
CE
  8
0
  6
CONTINUOUS
  2
*U32
 10
0.0
 20
0.0
 30
0.0
  0
INSERT
  5
CF
  8
0
  6
CONTINUOUS
  2
*U33
 10
0.0
 20
0.0
 30
0.0
  0
INSERT
  5
D0
  8
0
  6
CONTINUOUS
  2
*U34
 10
0.0
 20
0.0
 30
0.0
  0
INSERT
  5
D1
  8
0
  6
CONTINUOUS
  2
*U35
 10
0.0
 20
0.0
 30
0.0
  0
LINE
  5
D2
  8
┌▓È_1
 10
856.06910905929976
 20
-296.97491028209998
 30
0.0
 11
904.06910905929976
 21
-296.97491028209998
 31
0.0
  0
LINE
  5
D3
  8
┌▓È_1
 10
920.06910905929976
 20
-296.97491028209998
 30
0.0
 11
976.06910905929988
 21
-296.97491028209998
 31
0.0
  0
LINE
  5
D4
  8
┌▓È_1
 10
904.06910905929976
 20
-292.72491028209998
 30
0.0
 11
920.06910905929976
 21
-292.72491028209998
 31
0.0
  0
LINE
  5
D5
  8
┌▓È_1
 62
     5
 10
899.19479527379997
 20
-306.84677190860009
 30
0.0
 11
899.19479527379997
 21
-308.28677190859997
 31
0.0
  0
LINE
  5
D6
  8
┌▓È_1
 62
     5
 10
897.0663104253
 20
-306.84677190860009
 30
0.0
 11
893.86631042529984
 21
-306.84677190860009
 31
0.0
  0
LINE
  5
D7
  8
┌▓È_1
 62
     5
 10
913.4464848542998
 20
-311.72677190860003
 30
0.0
 11
915.36878139249995
 21
-311.72677190860003
 31
0.0
  0
LINE
  5
D8
  8
┌▓È_1
 10
903.68705697599989
 20
-233.1126092641
 30
0.0
 11
929.8218027442
 21
-233.1126092641
 31
0.0
  0
INSERT
  5
D9
  8
0
  6
CONTINUOUS
  2
*U36
 10
0.0
 20
0.0
 30
0.0
  0
DIMENSION
  5
EA
  8
Éíû@É³
  2
*D0
 10
845.33539595169987
 20
-161.1687535305
 30
0.0
 11
851.44253484060005
 21
-161.1687535305
 31
0.0
 70
   128
  1
<>
 13
845.33539595169987
 23
-172.96813205059999
 33
0.0
 14
837.33539595169998
 24
-172.96813205059999
 34
0.0
  0
DIMENSION
  5
F9
  8
Éíû@É³
  2
*D1
 10
837.33539595169998
 20
-161.1687535305
 30
0.0
 11
823.09903952579998
 21
-161.1687535305
 31
0.0
 70
   128
  1
<>
 13
837.33539595169998
 23
-172.96813205059999
 33
0.0
 14
829.33539595169998
 24
-172.96813205059999
 34
0.0
  0
DIMENSION
  5
108
  8
Éíû@É³
  2
*D2
 10
745.85761817390005
 20
-250.05887279129999
 30
0.0
 11
745.85761817390005
 21
-258.05887279130002
 31
0.0
 70
   128
  1
<>
 13
755.85761817390005
 23
-250.05887279129999
 33
0.0
 14
755.85761817390005
 24
-266.05887279130002
 34
0.0
 50
90.0
  0
DIMENSION
  5
117
  8
Éíû@É³
  2
*D3
 10
801.85761817390005
 20
-258.05887279130002
 30
0.0
 11
801.85761817390005
 21
-244.23954153619999
 31
0.0
 70
   128
  1
<>
 13
791.85761817390005
 23
-258.05887279130002
 33
0.0
 14
790.85761817390005
 24
-250.05887279129999
 34
0.0
 50
90.0
  0
DIMENSION
  5
126
  8
Éíû@É³
  2
*D4
 10
936.91761253159996
 20
-183.4876092641
 30
0.0
 11
916.91761253160007
 21
-183.4876092641
 31
0.0
 70
   128
  1
%%c8
 13
936.91761253159996
 23
-193.4876092641
 33
0.0
 14
896.91761253159996
 24
-193.4876092641
 34
0.0
  0
DIMENSION
  5
135
  8
Éíû@É³
  2
*D5
 10
906.91761253160007
 20
-221.70258843080001
 30
0.0
 11
916.91761253160007
 21
-221.70258843080001
 31
0.0
 70
   128
  1
%%c4
 13
906.91761253160007
 23
-208.4876092641
 33
0.0
 14
926.91761253159996
 24
-208.4876092641
 34
0.0
 50
180.0
  0
DIMENSION
  5
144
  8
Éíû@É³
  2
*D6
 10
819.33539595169987
 20
-172.96813205059999
 30
0.0
 11
819.33539595169987
 21
-175.96813205059999
 31
0.0
 70
   128
  1
<>
 13
829.33539595169998
 23
-172.96813205059999
 33
0.0
 14
831.33539595169998
 24
-178.96813205059999
 34
0.0
 50
90.0
  0
DIMENSION
  5
153
  8
Éíû@É³
  2
*D7
 10
819.33539595169987
 20
-178.96813205059999
 30
0.0
 11
819.33539595169987
 21
-185.96813205059999
 31
0.0
 70
   128
  1
<>
 13
831.33539595169998
 23
-178.96813205059999
 33
0.0
 14
831.33539595169998
 24
-192.96813205059999
 34
0.0
 50
90.0
  0
DIMENSION
  5
162
  8
Éíû@É³
  2
*D8
 10
819.33539595169987
 20
-192.96813205059999
 30
0.0
 11
819.33539595169987
 21
-200.46813205059999
 31
0.0
 70
   128
  1
<>
 13
831.33539595169998
 23
-192.96813205059999
 33
0.0
 14
829.33539595169998
 24
-207.96813205059999
 34
0.0
 50
90.0
  0
DIMENSION
  5
171
  8
Éíû@É³
  2
*D9
 10
739.5020616859
 20
-172.96813205059999
 30
0.0
 11
739.5020616859
 21
-190.46813205059999
 31
0.0
 70
   128
  1
<>
 13
755.85761817390005
 23
-172.96813205059999
 33
0.0
 14
755.85761817390005
 24
-207.96813205059999
 34
0.0
 50
90.0
  0
DIMENSION
  5
180
  8
Éíû@É³
  2
*D10
 10
755.85761817390005
 20
-217.96813205059999
 30
0.0
 11
773.35761817390005
 21
-217.96813205059999
 31
0.0
 70
   128
  1
<>
 13
755.85761817390005
 23
-204.96813205059999
 33
0.0
 14
790.85761817390005
 24
-207.96813205059999
 34
0.0
 50
180.0
  0
DIMENSION
  5
18F
  8
Éíû@É³
  2
*D11
 10
801.85761817390005
 20
-266.05887279130002
 30
0.0
 11
801.85761817390005
 21
-270.51337742099997
 31
0.0
 70
   128
  1
<>
 13
790.85761817390005
 23
-266.05887279130002
 33
0.0
 14
791.85761817390005
 24
-258.05887279130002
 34
0.0
 50
90.0
  0
DIMENSION
  5
19E
  8
Éíû@É³
  2
*D12
 10
784.85761817390005
 20
-240.05887279129999
 30
0.0
 11
777.85761817390005
 21
-240.05887279129999
 31
0.0
 70
   128
  1
<>
 13
784.85761817390005
 23
-252.05887279129999
 33
0.0
 14
770.85761817390005
 24
-252.05887279129999
 34
0.0
  0
DIMENSION
  5
1AD
  8
Éíû@É³
  2
*D13
 10
770.85761817390005
 20
-240.05887279129999
 30
0.0
 11
763.35761817390005
 21
-240.05887279129999
 31
0.0
 70
   128
  1
<>
 13
770.85761817390005
 23
-252.05887279129999
 33
0.0
 14
755.85761817390005
 24
-250.05887279129999
 34
0.0
  0
DIMENSION
  5
1BC
  8
Éíû@É³
  2
*D14
 10
790.85761817390005
 20
-240.05887279129999
 30
0.0
 11
787.85761817390005
 21
-240.05887279129999
 31
0.0
 70
   128
  1
<>
 13
790.85761817390005
 23
-250.05887279129999
 33
0.0
 14
784.85761817390005
 24
-252.05887279129999
 34
0.0
  0
DIMENSION
  5
1CB
  8
Éíû@É³
  2
*D15
 10
845.33539595169987
 20
-152.87368777570001
 30
0.0
 11
837.33539595169998
 21
-152.87368777570001
 31
0.0
 70
   128
  1
<>
 13
845.33539595169987
 23
-172.96813205059999
 33
0.0
 14
829.33539595169998
 24
-172.96813205059999
 34
0.0
  0
DIMENSION
  5
1DA
  8
Éíû@É³
  2
*D16
 10
758.85761817390005
 20
-157.404002421
 30
0.0
 11
766.6492949039
 21
-157.404002421
 31
0.0
 70
   128
  1
<>t
 13
758.85761817390005
 23
-172.96813205059999
 33
0.0
 14
755.85761817390005
 24
-172.96813205059999
 34
0.0
  0
DIMENSION
  5
1E8
  8
Éíû@É³
  2
*D37
 10
928.09131436044288
 20
-171.78678633036861
 30
0.0
 11
916.91761253160007
 21
-170.31574057730001
 31
0.0
 70
   133
  1
<>
 13
896.38728244569995
 23
-192.95727917830001
 33
0.0
 14
937.44794261749996
 24
-192.95727917830001
 34
0.0
 15
916.91761253160007
 25
-213.4876092641
 35
0.0
1001
ACAD
1000
DSTYLE
1002
{
1070
   271
1070
     0
1002
}
  0
DIMENSION
  5
1F5
  8
Éíû@É³
  2
*D38
 10
776.0320326901234
 20
-195.05247920648429
 30
0.0
 11
771.78980058509967
 21
-189.93352718770001
 31
0.0
 70
   133
  1
<>
 13
758.85761817390005
 23
-172.96813205059999
 33
0.0
 14
790.85761817390005
 24
-204.96813205059999
 34
0.0
 15
758.85761817390005
 25
-204.96813205059999
 35
0.0
1001
ACAD
1000
DSTYLE
1002
{
1070
   271
1070
     0
1002
}
  0
INSERT
  5
1F6
  8
0
  6
CONTINUOUS
  2
*U39
 10
0.0
 20
0.0
 30
0.0
  0
LINE
  5
1F7
  8
┌▓È_1
 62
     5
 10
701.06910905929988
 20
-123.9749102821
 30
0.0
 11
976.06910905929988
 21
-123.9749102821
 31
0.0
  0
LINE
  5
1F8
  8
┌▓È_1
 62
     5
 10
701.06910905929988
 20
-313.97491028209998
 30
0.0
 11
976.06910905929988
 21
-313.97491028209998
 31
0.0
  0
LINE
  5
1F9
  8
┌▓È_1
 62
     5
 10
701.06910905929988
 20
-313.97491028209998
 30
0.0
 11
701.06910905929988
 21
-123.9749102821
 31
0.0
  0
ENDSEC
  0
EOF
