  0
SECTION
  2
HEADER
  9
$ACADVER
  1
AC1009
  9
$INSBASE
 10
0.0
 20
0.0
 30
0.0
  9
$EXTMIN
 10
565.19851060539622
 20
-410.58043551616208
 30
-0.0015258207003583
  9
$EXTMAX
 10
1115.285576762069
 20
-30.5595426896266
 30
0.0000000349246037
  9
$LIMMIN
 10
0.0
 20
0.0
  9
$LIMMAX
 10
0.0
 20
0.0
  9
$ORTHOMODE
 70
     0
  9
$REGENMODE
 70
     1
  9
$FILLMODE
 70
     1
  9
$QTEXTMODE
 70
     0
  9
$MIRRTEXT
 70
     1
  9
$DRAGMODE
 70
     2
  9
$LTSCALE
 40
1.0
  9
$OSMODE
 70
    31
  9
$ATTMODE
 70
     1
  9
$TEXTSIZE
 40
0.0
  9
$TRACEWID
 40
0.05
  9
$TEXTSTYLE
  7
STANDARD
  9
$CLAYER
  8
0
  9
$CELTYPE
  6
CONTINUOUS
  9
$CECOLOR
 62
   256
  9
$DIMSCALE
 40
1.0
  9
$DIMASZ
 40
0.18
  9
$DIMEXO
 40
0.0625
  9
$DIMDLI
 40
0.38
  9
$DIMRND
 40
0.0
  9
$DIMDLE
 40
0.0
  9
$DIMEXE
 40
0.18
  9
$DIMTP
 40
0.0
  9
$DIMTM
 40
0.0
  9
$DIMTXT
 40
0.18
  9
$DIMCEN
 40
0.09
  9
$DIMTSZ
 40
0.0
  9
$DIMTOL
 70
     0
  9
$DIMLIM
 70
     0
  9
$DIMTIH
 70
     1
  9
$DIMTOH
 70
     1
  9
$DIMSE1
 70
     0
  9
$DIMSE2
 70
     0
  9
$DIMTAD
 70
     0
  9
$DIMZIN
 70
     0
  9
$DIMBLK
  1

  9
$DIMASO
 70
     1
  9
$DIMSHO
 70
     1
  9
$DIMPOST
  1

  9
$DIMAPOST
  1

  9
$DIMALT
 70
     0
  9
$DIMALTD
 70
     2
  9
$DIMALTF
 40
25.399999999999999
  9
$DIMLFAC
 40
1.0
  9
$DIMTOFL
 70
     0
  9
$DIMTVP
 40
0.0
  9
$DIMTIX
 70
     0
  9
$DIMSOXD
 70
     0
  9
$DIMSAH
 70
     0
  9
$DIMBLK1
  1

  9
$DIMBLK2
  1

  9
$DIMSTYLE
  2
STANDARD
  9
$DIMCLRD
 70
     0
  9
$DIMCLRE
 70
     0
  9
$DIMCLRT
 70
     0
  9
$DIMTFAC
 40
1.0
  9
$DIMGAP
 40
0.09
  9
$LUNITS
 70
     2
  9
$LUPREC
 70
     4
  9
$SKETCHINC
 40
0.1
  9
$FILLETRAD
 40
0.0
  9
$AUNITS
 70
     0
  9
$AUPREC
 70
     0
  9
$MENU
  1
acad
  9
$ELEVATION
 40
0.0
  9
$PELEVATION
 40
0.0
  9
$THICKNESS
 40
0.0
  9
$LIMCHECK
 70
     0
  9
$BLIPMODE
 70
     0
  9
$CHAMFERA
 40
0.0
  9
$CHAMFERB
 40
0.0
  9
$SKPOLY
 70
     0
  9
$TDCREATE
 40
2454862.5491225352
  9
$TDUPDATE
 40
2454862.7463075002
  9
$TDINDWG
 40
0.0005005787
  9
$TDUSRTIMER
 40
0.000498588
  9
$USRTIMER
 70
     1
  9
$ANGBASE
 50
0.0
  9
$ANGDIR
 70
     0
  9
$PDMODE
 70
     3
  9
$PDSIZE
 40
-1.0
  9
$PLINEWID
 40
0.0
  9
$COORDS
 70
     2
  9
$SPLFRAME
 70
     0
  9
$SPLINETYPE
 70
     6
  9
$SPLINESEGS
 70
     8
  9
$ATTDIA
 70
     0
  9
$ATTREQ
 70
     1
  9
$HANDLING
 70
     1
  9
$HANDSEED
  5
5E6
  9
$SURFTAB1
 70
     6
  9
$SURFTAB2
 70
     6
  9
$SURFTYPE
 70
     6
  9
$SURFU
 70
     6
  9
$SURFV
 70
     6
  9
$UCSNAME
  2

  9
$UCSORG
 10
0.0
 20
0.0
 30
0.0
  9
$UCSXDIR
 10
1.0
 20
0.0
 30
0.0
  9
$UCSYDIR
 10
0.0
 20
1.0
 30
0.0
  9
$PUCSNAME
  2

  9
$PUCSORG
 10
0.0
 20
0.0
 30
0.0
  9
$PUCSXDIR
 10
1.0
 20
0.0
 30
0.0
  9
$PUCSYDIR
 10
0.0
 20
1.0
 30
0.0
  9
$USERI1
 70
     0
  9
$USERI2
 70
     0
  9
$USERI3
 70
     0
  9
$USERI4
 70
     0
  9
$USERI5
 70
     0
  9
$USERR1
 40
0.0
  9
$USERR2
 40
0.0
  9
$USERR3
 40
0.0
  9
$USERR4
 40
0.0
  9
$USERR5
 40
0.0
  9
$WORLDVIEW
 70
     1
  9
$SHADEDGE
 70
     3
  9
$SHADEDIF
 70
    70
  9
$TILEMODE
 70
     1
  9
$MAXACTVP
 70
    16
  9
$PLIMCHECK
 70
     0
  9
$PEXTMIN
 10
1.0000000000000000E+020
 20
1.0000000000000000E+020
 30
1.0000000000000000E+020
  9
$PEXTMAX
 10
-1.0000000000000000E+020
 20
-1.0000000000000000E+020
 30
-1.0000000000000000E+020
  9
$PLIMMIN
 10
0.0
 20
0.0
  9
$PLIMMAX
 10
12.0
 20
9.0
  9
$UNITMODE
 70
     0
  9
$VISRETAIN
 70
     0
  9
$PLINEGEN
 70
     1
  9
$PSLTSCALE
 70
     0
  0
ENDSEC
  0
SECTION
  2
TABLES
  0
TABLE
  2
VPORT
 70
     2
  0
VPORT
  2
*ACTIVE
 70
     0
 10
0.0
 20
0.0
 11
1.0
 21
1.0
 12
840.24204368373262
 22
-220.5699891028944
 13
0.0
 23
0.0
 14
1.0
 24
1.0
 15
0.0
 25
0.0
 16
0.0
 26
0.0
 36
1.0
 17
0.0
 27
0.0
 37
0.0
 40
398.0488578454532
 41
1.3903818953323901
 42
50.0
 43
0.0
 44
0.0
 50
0.0
 51
0.0
 71
     0
 72
   100
 73
     1
 74
     1
 75
     0
 76
     0
 77
     0
 78
     0
  0
ENDTAB
  0
TABLE
  2
LTYPE
 70
    11
  0
LTYPE
  2
CONTINUOUS
 70
     0
  3
Solid line
 72
    65
 73
     0
 40
0.0
  0
LTYPE
  2
DOT
 70
     0
  3
. . . . . . . . 
 72
    65
 73
     2
 40
1.0
 49
0.0
 49
-1.0
  0
LTYPE
  2
DASHED
 70
     0
  3
___  ___  ___  ___  
 72
    65
 73
     2
 40
4.0
 49
3.0
 49
-1.0
  0
LTYPE
  2
HIDDEN
 70
     0
  3
__ __ __ __ 
 72
    65
 73
     2
 40
3.0
 49
2.0
 49
-1.0
  0
LTYPE
  2
STITCH
 70
     0
  3
_ _ _ _ 
 72
    65
 73
     2
 40
2.0
 49
1.0
 49
-1.0
  0
LTYPE
  2
CENTER
 70
     0
  3
______  __  ______  __  
 72
    65
 73
     4
 40
43.0
 49
40.0
 49
-1.0
 49
1.0
 49
-1.0
  0
LTYPE
  2
DASHDOT
 70
     0
  3
____ . ____ . 
 72
    65
 73
     4
 40
32.0
 49
30.0
 49
-1.0
 49
0.0
 49
-1.0
  0
LTYPE
  2
BORDER
 70
     0
  3
__ . __ . 
 72
    65
 73
     4
 40
22.0
 49
20.0
 49
-1.0
 49
0.0
 49
-1.0
  0
LTYPE
  2
CUTTING
 70
     0
  3
________   ___   ___   
 72
    65
 73
     6
 40
45.0
 49
40.0
 49
-1.0
 49
1.0
 49
-1.0
 49
1.0
 49
-1.0
  0
LTYPE
  2
PHANTOM
 70
     0
  3
______  __  __  
 72
    65
 73
     6
 40
35.0
 49
30.0
 49
-1.0
 49
1.0
 49
-1.0
 49
1.0
 49
-1.0
  0
LTYPE
  2
DIVIDE
 70
     0
  3
____ . . ____ . . 
 72
    65
 73
     6
 40
23.0
 49
20.0
 49
-1.0
 49
0.0
 49
-1.0
 49
0.0
 49
-1.0
  0
ENDTAB
  0
TABLE
  2
LAYER
 70
     4
  0
LAYER
  2
0
 70
     0
 62
     7
  6
CONTINUOUS
  0
LAYER
  2
Éíû@É³
 70
     0
 62
     7
  6
CONTINUOUS
  0
LAYER
  2
┌▓È_1
 70
     0
 62
     7
  6
CONTINUOUS
  0
LAYER
  2
DEFPOINTS
 70
     0
 62
     7
  6
CONTINUOUS
  0
ENDTAB
  0
TABLE
  2
STYLE
 70
     1
  0
STYLE
  2
STANDARD
 70
     0
 40
0.0
 41
1.0
 50
0.0
 71
     0
 42
0.0
  3
txt
  4
extfont
  0
ENDTAB
  0
TABLE
  2
VIEW
 70
     0
  0
ENDTAB
  0
TABLE
  2
UCS
 70
     0
  0
ENDTAB
  0
TABLE
  2
APPID
 70
     2
  0
APPID
  2
ACAD
 70
     0
  0
APPID
  2
DCO15
 70
     0
  0
ENDTAB
  0
TABLE
  2
DIMSTYLE
 70
     4
  0
DIMSTYLE
  2
STANDARD
 70
     0
  3

  4

  5

  6

  7

 40
1.0
 41
0.18
 42
0.0625
 43
0.38
 44
0.18
 45
0.0
 46
0.0
 47
0.0
 48
0.0
140
0.18
141
0.09
142
0.0
143
25.399999999999999
144
1.0
145
0.0
146
1.0
147
0.09
 71
     0
 72
     0
 73
     1
 74
     1
 75
     0
 76
     0
 77
     0
 78
     0
170
     0
171
     2
172
     0
173
     0
174
     0
175
     0
176
     0
177
     0
178
     0
  0
DIMSTYLE
  2
VELDIM0
 70
     0
  3

  4

  5

  6

  7

 40
1.0
 41
6.0
 42
0.0625
 43
0.38
 44
1.0
 45
0.0
 46
6.0
 47
0.0
 48
0.0
140
5.9972220420999989
141
0.09
142
0.0
143
25.399999999999999
144
1.0
145
0.0
146
1.0
147
0.09
 71
     0
 72
     0
 73
     0
 74
     0
 75
     0
 76
     0
 77
     0
 78
     8
170
     0
171
     2
172
     0
173
     0
174
     0
175
     0
176
     0
177
     0
178
     0
  0
DIMSTYLE
  2
VELDIM1
 70
     0
  3

  4

  5

  6

  7

 40
1.0
 41
6.0
 42
0.0625
 43
0.38
 44
1.25
 45
0.0
 46
5.0
 47
0.0
 48
0.0
140
5.9972220420999989
141
0.09
142
0.0
143
25.399999999999999
144
1.0
145
0.0
146
1.0
147
0.09
 71
     0
 72
     0
 73
     0
 74
     0
 75
     0
 76
     0
 77
     0
 78
     8
170
     0
171
     2
172
     0
173
     0
174
     0
175
     0
176
     0
177
     0
178
     0
  0
DIMSTYLE
  2
VELDIM2
 70
     0
  3

  4

  5

  6

  7

 40
1.0
 41
6.0
 42
0.0625
 43
0.38
 44
0.5
 45
0.0
 46
3.0
 47
0.0
 48
0.0
140
5.9972220420999989
141
0.09
142
0.0
143
25.399999999999999
144
1.0
145
0.0
146
1.0
147
0.09
 71
     0
 72
     0
 73
     0
 74
     0
 75
     0
 76
     0
 77
     0
 78
     8
170
     0
171
     2
172
     0
173
     0
174
     0
175
     0
176
     0
177
     0
178
     0
  0
ENDTAB
  0
ENDSEC
  0
SECTION
  2
BLOCKS
  0
BLOCK
  8
0
  2
$MODEL_SPACE
 70
     0
 10
0.0
 20
0.0
 30
0.0
  3
$MODEL_SPACE
  1

  0
ENDBLK
  5
52F
  8
0
  0
BLOCK
 67
     1
  8
0
  2
$PAPER_SPACE
 70
     0
 10
0.0
 20
0.0
 30
0.0
  3
$PAPER_SPACE
  1

  0
ENDBLK
  5
52B
 67
     1
  8
0
  0
BLOCK
  8
0
  2
*D2
 70
     1
 10
0.0
 20
0.0
 30
0.0
  3
*D2
  1

  0
TEXT
  5
31
  8
0
 62
     0
 10
751.84111462880003
 20
-282.88144863240001
 30
0.0
 40
5.9972220420999989
  1
12
  0
LINE
  5
32
  8
0
 62
     0
 10
761.36889230060001
 20
-303.93978193390001
 30
0.0
 11
761.36889230060001
 21
-284.93978193390001
 31
0.0
  0
LINE
  5
33
  8
0
 62
     0
 10
749.36889230060001
 20
-318.93978193390001
 30
0.0
 11
749.36889230060001
 21
-284.93978193390001
 31
0.0
  0
LINE
  5
34
  8
0
 62
     0
 10
761.36889230060001
 20
-285.93978193390001
 30
0.0
 11
761.36889230060001
 21
-285.93978193390001
 31
0.0
  0
LINE
  5
35
  8
0
 62
     0
 10
761.36889230060001
 20
-285.93978193390001
 30
0.0
 11
749.36889230060001
 21
-285.93978193390001
 31
0.0
  0
LINE
  5
36
  8
0
 62
     0
 10
749.36889230060001
 20
-285.93978193390001
 30
0.0
 11
761.36889230060001
 21
-285.93978193390001
 31
0.0
  0
LINE
  5
37
  8
0
 62
     0
 10
749.36889230060001
 20
-285.93978193390001
 30
0.0
 11
749.36889230060001
 21
-285.93978193390001
 31
0.0
  0
LINE
  5
38
  8
0
 62
     0
 10
749.36889230060001
 20
-285.93978193390001
 30
0.0
 11
755.36889230059978
 21
-285.93978193390001
 31
0.0
  0
SOLID
  5
39
  8
0
 62
     0
 10
749.36889230060001
 20
-285.93978193390001
 30
0.0
 11
755.36889230059978
 21
-284.43978193390001
 31
0.0
 12
755.36889230059978
 22
-287.43978193390001
 32
0.0
 13
753.86889230060001
 23
-285.93978193390001
 33
0.0
  0
LINE
  5
3A
  8
0
 62
     0
 10
761.36889230060001
 20
-285.93978193390001
 30
0.0
 11
755.36889230059978
 21
-285.93978193390001
 31
0.0
  0
SOLID
  5
3B
  8
0
 62
     0
 10
761.36889230060001
 20
-285.93978193390001
 30
0.0
 11
755.36889230059978
 21
-287.43978193390001
 31
0.0
 12
755.36889230059978
 22
-284.43978193390001
 32
0.0
 13
756.86889230060001
 23
-285.93978193390001
 33
0.0
  0
ENDBLK
  5
3C
  8
0
  0
BLOCK
  8
0
  2
*D3
 70
     1
 10
0.0
 20
0.0
 30
0.0
  3
*D3
  1

  0
TEXT
  5
44
  8
0
 62
     0
 10
961.27545361089994
 20
-214.19752942509999
 30
0.0
 40
5.9972220420999989
  1
90%%d
  0
ARC
  5
45
  8
0
 62
     0
 10
966.56712011859986
 20
-157.4985605798
 30
0.0
 40
59.873968750000003
 50
307.68728487830009
 51
315.0
  0
ARC
  5
46
  8
0
 62
     0
 10
966.56712011859986
 20
-157.4985605798
 30
0.0
 40
59.873968750000003
 50
225.0
 51
232.31271512169999
  0
SOLID
  5
47
  8
0
 62
     0
 10
924.22983079890014
 20
-199.83584989939999
 30
0.0
 11
918.92652994000002
 21
-196.65386938410001
 31
0.0
 12
921.04785028360004
 22
-194.53254904049999
 32
0.0
 13
921.04785028360004
 23
-196.65386938410001
 33
0.0
  0
SOLID
  5
48
  8
0
 62
     0
 10
1008.9044094383
 20
-199.83584989939999
 30
0.0
 11
1012.0863899536
 21
-194.53254904049999
 31
0.0
 12
1014.2077102972
 22
-196.65386938410001
 32
0.0
 13
1012.0863899536
 23
-196.65386938410001
 33
0.0
  0
ARC
  5
49
  8
0
 62
     0
 10
966.56712011859986
 20
-157.4985605798
 30
0.0
 40
59.873968750000003
 50
225.0
 51
259.41047257000002
  0
ARC
  5
4A
  8
0
 62
     0
 10
966.56712011859986
 20
-157.4985605798
 30
0.0
 40
59.873968750000003
 50
280.58952742999998
 51
315.0
  0
LINE
  5
4B
  8
0
 62
     0
 10
942.79738527890004
 20
-181.26829541949999
 30
0.0
 11
921.71009595919998
 21
-202.35558473910001
 31
0.0
  0
LINE
  5
4C
  8
0
 62
     0
 10
990.33685495829991
 20
-181.26829541949999
 30
0.0
 11
1011.424144278
 21
-202.35558473910001
 31
0.0
  0
ENDBLK
  5
4D
  8
0
  0
BLOCK
  8
0
  2
*D4
 70
     1
 10
0.0
 20
0.0
 30
0.0
  3
*D4
  1

  0
TEXT
  5
51
  8
0
 62
     0
 10
961.27545361089994
 20
-101.23441093549999
 30
0.0
 40
5.9972220420999989
  1
90%%d
  0
ARC
  5
52
  8
0
 62
     0
 10
966.56712011859986
 20
-177.4985605798
 30
0.0
 40
73.089149739600003
 50
129.16693317420001
 51
135.0
  0
ARC
  5
53
  8
0
 62
     0
 10
966.56712011859986
 20
-177.4985605798
 30
0.0
 40
73.089149739600003
 50
45.0
 51
50.833066825799989
  0
SOLID
  5
54
  8
0
 62
     0
 10
1018.2489535306
 20
-125.81672716769999
 30
0.0
 11
1023.5522543895
 21
-128.99870768310001
 31
0.0
 12
1021.4309340459999
 22
-131.12002802660001
 32
0.0
 13
1021.4309340459999
 23
-128.99870768310001
 33
0.0
  0
SOLID
  5
55
  8
0
 62
     0
 10
914.88528670660003
 20
-125.81672716769999
 30
0.0
 11
911.7033061912
 21
-131.12002802660001
 31
0.0
 12
909.58198584770003
 22
-128.99870768310001
 32
0.0
 13
911.7033061912
 23
-128.99870768310001
 33
0.0
  0
ARC
  5
56
  8
0
 62
     0
 10
966.56712011859986
 20
-177.4985605798
 30
0.0
 40
73.089149739600003
 50
45.0
 51
82.985441833699966
  0
ARC
  5
57
  8
0
 62
     0
 10
966.56712011859986
 20
-177.4985605798
 30
0.0
 40
73.089149739600003
 50
97.014558166300006
 51
135.0
  0
LINE
  5
58
  8
0
 62
     0
 10
990.33685495829991
 20
-153.72882573999999
 30
0.0
 11
1020.7686883703
 21
-123.296992328
 31
0.0
  0
LINE
  5
59
  8
0
 62
     0
 10
942.79738527890004
 20
-153.72882573999999
 30
0.0
 11
912.3655518669002
 21
-123.296992328
 31
0.0
  0
ENDBLK
  5
5A
  8
0
  0
BLOCK
  8
0
  2
*D5
 70
     1
 10
0.0
 20
0.0
 30
0.0
  3
*D5
  1

  0
TEXT
  5
5E
  8
0
 62
     0
 10
706.04084635419997
 20
-163.9364721812
 30
0.0
 40
5.9972220420999989
  1
90%%d
 50
315.12932546399998
  0
ARC
  5
5F
  8
0
 62
     0
 10
675.86889230059978
 20
-201.74543557979999
 30
0.0
 40
44.906834401600001
 50
79.600452036700005
 51
90.0
  0
ARC
  5
60
  8
0
 62
     0
 10
675.86889230059978
 20
-201.74543557979999
 30
0.0
 40
44.906834401600001
 50
0.0
 51
10.3995479633
  0
SOLID
  5
61
  8
0
 62
     0
 10
720.77572670220002
 20
-201.74543557979999
 30
0.0
 11
722.27572670220002
 21
-207.74543557979999
 31
0.0
 12
719.27572670220002
 22
-207.74543557979999
 32
0.0
 13
720.77572670220002
 23
-206.24543557979999
 33
0.0
  0
SOLID
  5
62
  8
0
 62
     0
 10
675.86889230059978
 20
-156.83860117820001
 30
0.0
 11
669.86889230060001
 21
-158.33860117820001
 31
0.0
 12
669.86889230060001
 22
-155.33860117820001
 32
0.0
 13
671.3688923005999
 23
-156.83860117820001
 33
0.0
  0
ARC
  5
63
  8
0
 62
     0
 10
675.86889230059978
 20
-201.74543557979999
 30
0.0
 40
44.906834401600001
 50
0.0
 51
33.667101845399998
  0
ARC
  5
64
  8
0
 62
     0
 10
675.86889230059978
 20
-201.74543557979999
 30
0.0
 40
44.906834401600001
 50
56.591549082599997
 51
90.0
  0
LINE
  5
65
  8
0
 62
     0
 10
757.80544911669983
 20
-201.74543557979999
 30
0.0
 11
717.21228351829996
 21
-201.74543557979999
 31
0.0
  0
LINE
  5
66
  8
0
 62
     0
 10
675.86889230059978
 20
-119.80887876369999
 30
0.0
 11
675.86889230059978
 21
-160.40204436210001
 31
0.0
  0
ENDBLK
  5
67
  8
0
  0
BLOCK
  8
0
  2
*D6
 70
     1
 10
0.0
 20
0.0
 30
0.0
  3
*D6
  1

  0
TEXT
  5
6C
  8
0
 62
     0
 10
651.49334212589997
 20
-164.7732132516
 30
0.0
 40
5.9972220420999989
  1
90
 50
90.0
  0
LINE
  5
6D
  8
0
 62
     0
 10
670.36889230060001
 20
-116.2454355798
 30
0.0
 11
653.05167542740003
 21
-116.2454355798
 31
0.0
  0
LINE
  5
6E
  8
0
 62
     0
 10
674.86889230060001
 20
-206.24543557979999
 30
0.0
 11
653.05167542740003
 21
-206.24543557979999
 31
0.0
  0
LINE
  5
6F
  8
0
 62
     0
 10
653.55167542740003
 20
-116.2454355798
 30
0.0
 11
653.55167542740003
 21
-154.18988023610001
 31
0.0
  0
LINE
  5
70
  8
0
 62
     0
 10
653.55167542740003
 20
-116.2454355798
 30
0.0
 11
653.55167542740003
 21
-168.30099092340001
 31
0.0
  0
LINE
  5
71
  8
0
 62
     0
 10
653.55167542740003
 20
-206.24543557979999
 30
0.0
 11
653.55167542740003
 21
-154.18988023610001
 31
0.0
  0
LINE
  5
72
  8
0
 62
     0
 10
653.55167542740003
 20
-206.24543557979999
 30
0.0
 11
653.55167542740003
 21
-168.30099092340001
 31
0.0
  0
LINE
  5
73
  8
0
 62
     0
 10
653.55167542740003
 20
-206.24543557979999
 30
0.0
 11
653.55167542740003
 21
-203.24543557979999
 31
0.0
  0
SOLID
  5
74
  8
0
 62
     0
 10
653.55167542740003
 20
-206.24543557979999
 30
0.0
 11
652.05167542740003
 21
-200.24543557979999
 31
0.0
 12
655.05167542740003
 22
-200.24543557979999
 32
0.0
 13
653.55167542740003
 23
-201.74543557979999
 33
0.0
  0
LINE
  5
75
  8
0
 62
     0
 10
653.55167542740003
 20
-116.2454355798
 30
0.0
 11
653.55167542740003
 21
-119.2454355798
 31
0.0
  0
SOLID
  5
76
  8
0
 62
     0
 10
653.55167542740003
 20
-116.2454355798
 30
0.0
 11
655.05167542740003
 21
-122.2454355798
 31
0.0
 12
652.05167542740003
 22
-122.2454355798
 32
0.0
 13
653.55167542740003
 23
-120.7454355798
 33
0.0
  0
ENDBLK
  5
77
  8
0
  0
BLOCK
  8
0
  2
*D7
 70
     1
 10
0.0
 20
0.0
 30
0.0
  3
*D7
  1

  0
TEXT
  5
7B
  8
0
 62
     0
 10
712.84111462880003
 20
-222.00431915140001
 30
0.0
 40
5.9972220420999989
  1
90
  0
LINE
  5
7C
  8
0
 62
     0
 10
671.3688923005999
 20
-202.74543557979999
 30
0.0
 11
671.3688923005999
 21
-224.56265245290001
 31
0.0
  0
LINE
  5
7D
  8
0
 62
     0
 10
761.36889230060001
 20
-207.24543557979999
 30
0.0
 11
761.36889230060001
 21
-224.56265245290001
 31
0.0
  0
LINE
  5
7E
  8
0
 62
     0
 10
671.3688923005999
 20
-224.06265245290001
 30
0.0
 11
723.42444764419986
 21
-224.06265245290001
 31
0.0
  0
LINE
  5
7F
  8
0
 62
     0
 10
671.3688923005999
 20
-224.06265245290001
 30
0.0
 11
709.31333695699982
 21
-224.06265245290001
 31
0.0
  0
LINE
  5
80
  8
0
 62
     0
 10
761.36889230060001
 20
-224.06265245290001
 30
0.0
 11
723.42444764419986
 21
-224.06265245290001
 31
0.0
  0
LINE
  5
81
  8
0
 62
     0
 10
761.36889230060001
 20
-224.06265245290001
 30
0.0
 11
709.31333695699982
 21
-224.06265245290001
 31
0.0
  0
LINE
  5
82
  8
0
 62
     0
 10
761.36889230060001
 20
-224.06265245290001
 30
0.0
 11
758.36889230060001
 21
-224.06265245290001
 31
0.0
  0
SOLID
  5
83
  8
0
 62
     0
 10
761.36889230060001
 20
-224.06265245290001
 30
0.0
 11
755.36889230059978
 21
-225.56265245290001
 31
0.0
 12
755.36889230059978
 22
-222.56265245290001
 32
0.0
 13
756.86889230060001
 23
-224.06265245290001
 33
0.0
  0
LINE
  5
84
  8
0
 62
     0
 10
671.3688923005999
 20
-224.06265245290001
 30
0.0
 11
674.36889230060001
 21
-224.06265245290001
 31
0.0
  0
SOLID
  5
85
  8
0
 62
     0
 10
671.3688923005999
 20
-224.06265245290001
 30
0.0
 11
677.36889230060001
 21
-222.56265245290001
 31
0.0
 12
677.36889230060001
 22
-225.56265245290001
 32
0.0
 13
675.86889230059978
 23
-224.06265245290001
 33
0.0
  0
ENDBLK
  5
86
  8
0
  0
BLOCK
  8
0
  2
*D8
 70
     1
 10
0.0
 20
0.0
 30
0.0
  3
*D8
  1

  0
TEXT
  5
8A
  8
0
 62
     0
 10
851.5836341134999
 20
-78.462535872000004
 30
0.0
 40
5.9972220420999989
  1
32
  0
LINE
  5
8B
  8
0
 62
     0
 10
871.11141178529999
 20
-115.2454355798
 30
0.0
 11
871.11141178529999
 21
-80.020869173500003
 31
0.0
  0
LINE
  5
8C
  8
0
 62
     0
 10
839.11141178529999
 20
-115.2454355798
 30
0.0
 11
839.11141178529999
 21
-80.020869173500003
 31
0.0
  0
LINE
  5
8D
  8
0
 62
     0
 10
871.11141178529999
 20
-80.520869173500003
 30
0.0
 11
862.16696712889984
 21
-80.520869173500003
 31
0.0
  0
LINE
  5
8E
  8
0
 62
     0
 10
871.11141178529999
 20
-80.520869173500003
 30
0.0
 11
848.05585644159999
 21
-80.520869173500003
 31
0.0
  0
LINE
  5
8F
  8
0
 62
     0
 10
839.11141178529999
 20
-80.520869173500003
 30
0.0
 11
862.16696712889984
 21
-80.520869173500003
 31
0.0
  0
LINE
  5
90
  8
0
 62
     0
 10
839.11141178529999
 20
-80.520869173500003
 30
0.0
 11
848.05585644159999
 21
-80.520869173500003
 31
0.0
  0
LINE
  5
91
  8
0
 62
     0
 10
839.11141178529999
 20
-80.520869173500003
 30
0.0
 11
842.11141178529988
 21
-80.520869173500003
 31
0.0
  0
SOLID
  5
92
  8
0
 62
     0
 10
839.11141178529999
 20
-80.520869173500003
 30
0.0
 11
845.11141178529999
 21
-79.020869173500003
 31
0.0
 12
845.11141178529999
 22
-82.020869173499989
 32
0.0
 13
843.61141178529999
 23
-80.520869173500003
 33
0.0
  0
LINE
  5
93
  8
0
 62
     0
 10
871.11141178529999
 20
-80.520869173500003
 30
0.0
 11
868.11141178529988
 21
-80.520869173500003
 31
0.0
  0
SOLID
  5
94
  8
0
 62
     0
 10
871.11141178529999
 20
-80.520869173500003
 30
0.0
 11
865.11141178529977
 21
-82.020869173499989
 31
0.0
 12
865.11141178529977
 22
-79.020869173500003
 32
0.0
 13
866.61141178529999
 23
-80.520869173500003
 33
0.0
  0
ENDBLK
  5
95
  8
0
  0
BLOCK
  8
0
  2
*D9
 70
     1
 10
0.0
 20
0.0
 30
0.0
  3
*D9
  1

  0
TEXT
  5
99
  8
0
 62
     0
 10
957.74767593909996
 20
-199.105911523
 30
0.0
 40
5.9972220420999989
  1
%%c8.5
  0
LINE
  5
9A
  8
0
 62
     0
 10
945.31712011859997
 20
-179.7485605798
 30
0.0
 11
945.31712011859997
 21
-201.6642448245
 31
0.0
  0
LINE
  5
9B
  8
0
 62
     0
 10
987.81712011859986
 20
-179.7485605798
 30
0.0
 11
987.81712011859986
 21
-201.6642448245
 31
0.0
  0
LINE
  5
9C
  8
0
 62
     0
 10
945.31712011859997
 20
-201.1642448245
 30
0.0
 11
978.91434196989997
 21
-201.1642448245
 31
0.0
  0
LINE
  5
9D
  8
0
 62
     0
 10
945.31712011859997
 20
-201.1642448245
 30
0.0
 11
954.21989826720005
 21
-201.1642448245
 31
0.0
  0
LINE
  5
9E
  8
0
 62
     0
 10
987.81712011859986
 20
-201.1642448245
 30
0.0
 11
978.91434196989997
 21
-201.1642448245
 31
0.0
  0
LINE
  5
9F
  8
0
 62
     0
 10
987.81712011859986
 20
-201.1642448245
 30
0.0
 11
954.21989826720005
 21
-201.1642448245
 31
0.0
  0
LINE
  5
A0
  8
0
 62
     0
 10
987.81712011859986
 20
-201.1642448245
 30
0.0
 11
984.81712011859997
 21
-201.1642448245
 31
0.0
  0
SOLID
  5
A1
  8
0
 62
     0
 10
987.81712011859986
 20
-201.1642448245
 30
0.0
 11
981.81712011859997
 21
-202.6642448245
 31
0.0
 12
981.81712011859997
 22
-199.6642448245
 32
0.0
 13
983.31712011859986
 23
-201.1642448245
 33
0.0
  0
LINE
  5
A2
  8
0
 62
     0
 10
945.31712011859997
 20
-201.1642448245
 30
0.0
 11
948.31712011859975
 21
-201.1642448245
 31
0.0
  0
SOLID
  5
A3
  8
0
 62
     0
 10
945.31712011859997
 20
-201.1642448245
 30
0.0
 11
951.31712011859986
 21
-199.6642448245
 31
0.0
 12
951.31712011859986
 22
-202.6642448245
 32
0.0
 13
949.81712011859997
 23
-201.1642448245
 33
0.0
  0
ENDBLK
  5
A4
  8
0
  0
BLOCK
  8
0
  2
*D10
 70
     1
 10
0.0
 20
0.0
 30
0.0
  3
*D10
  1

  0
TEXT
  5
A8
  8
0
 62
     0
 10
957.74767593909996
 20
-116.42627285109999
 30
0.0
 40
5.9972220420999989
  1
%%c8.5
  0
LINE
  5
A9
  8
0
 62
     0
 10
987.81712011859986
 20
-155.2485605798
 30
0.0
 11
987.81712011859986
 21
-117.9846061527
 31
0.0
  0
LINE
  5
AA
  8
0
 62
     0
 10
945.31712011859997
 20
-155.2485605798
 30
0.0
 11
945.31712011859997
 21
-117.9846061527
 31
0.0
  0
LINE
  5
AB
  8
0
 62
     0
 10
987.81712011859986
 20
-118.4846061527
 30
0.0
 11
978.91434196989997
 21
-118.4846061527
 31
0.0
  0
LINE
  5
AC
  8
0
 62
     0
 10
987.81712011859986
 20
-118.4846061527
 30
0.0
 11
954.21989826720005
 21
-118.4846061527
 31
0.0
  0
LINE
  5
AD
  8
0
 62
     0
 10
945.31712011859997
 20
-118.4846061527
 30
0.0
 11
978.91434196989997
 21
-118.4846061527
 31
0.0
  0
LINE
  5
AE
  8
0
 62
     0
 10
945.31712011859997
 20
-118.4846061527
 30
0.0
 11
954.21989826720005
 21
-118.4846061527
 31
0.0
  0
LINE
  5
AF
  8
0
 62
     0
 10
945.31712011859997
 20
-118.4846061527
 30
0.0
 11
948.31712011859975
 21
-118.4846061527
 31
0.0
  0
SOLID
  5
B0
  8
0
 62
     0
 10
945.31712011859997
 20
-118.4846061527
 30
0.0
 11
951.31712011859986
 21
-116.9846061527
 31
0.0
 12
951.31712011859986
 22
-119.9846061527
 32
0.0
 13
949.81712011859997
 23
-118.4846061527
 33
0.0
  0
LINE
  5
B1
  8
0
 62
     0
 10
987.81712011859986
 20
-118.4846061527
 30
0.0
 11
984.81712011859997
 21
-118.4846061527
 31
0.0
  0
SOLID
  5
B2
  8
0
 62
     0
 10
987.81712011859986
 20
-118.4846061527
 30
0.0
 11
981.81712011859997
 21
-119.9846061527
 31
0.0
 12
981.81712011859997
 22
-116.9846061527
 32
0.0
 13
983.31712011859986
 23
-118.4846061527
 33
0.0
  0
ENDBLK
  5
B3
  8
0
  0
BLOCK
  8
0
  2
*D11
 70
     1
 10
0.0
 20
0.0
 30
0.0
  3
*D11
  1

  0
TEXT
  5
B7
  8
0
 62
     0
 10
961.27545361089994
 20
-129.32853522089999
 30
0.0
 40
5.9972220420999989
  1
%%c5
  0
LINE
  5
B8
  8
0
 62
     0
 10
979.06712011859986
 20
-163.9985605798
 30
0.0
 11
979.06712011859986
 21
-130.88686852250001
 31
0.0
  0
LINE
  5
B9
  8
0
 62
     0
 10
954.06712011859986
 20
-163.9985605798
 30
0.0
 11
954.06712011859986
 21
-130.88686852250001
 31
0.0
  0
LINE
  5
BA
  8
0
 62
     0
 10
979.06712011859986
 20
-131.38686852250001
 30
0.0
 11
975.38656429809987
 21
-131.38686852250001
 31
0.0
  0
LINE
  5
BB
  8
0
 62
     0
 10
979.06712011859986
 20
-131.38686852250001
 30
0.0
 11
957.74767593909996
 21
-131.38686852250001
 31
0.0
  0
LINE
  5
BC
  8
0
 62
     0
 10
954.06712011859986
 20
-131.38686852250001
 30
0.0
 11
975.38656429809987
 21
-131.38686852250001
 31
0.0
  0
LINE
  5
BD
  8
0
 62
     0
 10
954.06712011859986
 20
-131.38686852250001
 30
0.0
 11
957.74767593909996
 21
-131.38686852250001
 31
0.0
  0
LINE
  5
BE
  8
0
 62
     0
 10
954.06712011859986
 20
-131.38686852250001
 30
0.0
 11
951.06712011859975
 21
-131.38686852250001
 31
0.0
  0
SOLID
  5
BF
  8
0
 62
     0
 10
954.06712011859986
 20
-131.38686852250001
 30
0.0
 11
948.06712011859997
 21
-132.88686852250001
 31
0.0
 12
948.06712011859997
 22
-129.88686852250001
 32
0.0
 13
949.56712011859986
 23
-131.38686852250001
 33
0.0
  0
LINE
  5
C0
  8
0
 62
     0
 10
979.06712011859986
 20
-131.38686852250001
 30
0.0
 11
982.06712011859997
 21
-131.38686852250001
 31
0.0
  0
SOLID
  5
C1
  8
0
 62
     0
 10
979.06712011859986
 20
-131.38686852250001
 30
0.0
 11
985.06712011859986
 21
-129.88686852250001
 31
0.0
 12
985.06712011859986
 22
-132.88686852250001
 32
0.0
 13
983.56712011859997
 23
-131.38686852250001
 33
0.0
  0
ENDBLK
  5
C2
  8
0
  0
BLOCK
  8
0
  2
*D12
 70
     1
 10
0.0
 20
0.0
 30
0.0
  3
*D12
  1

  0
TEXT
  5
C6
  8
0
 62
     0
 10
650.74288056709997
 20
-325.46755960569999
 30
0.0
 40
5.9972220420999989
  1
32
 50
90.0
  0
LINE
  5
C7
  8
0
 62
     0
 10
670.36889230060001
 20
-305.93978193390001
 30
0.0
 11
652.30121386860003
 21
-305.93978193390001
 31
0.0
  0
LINE
  5
C8
  8
0
 62
     0
 10
670.36889230060001
 20
-337.93978193390001
 30
0.0
 11
652.30121386860003
 21
-337.93978193390001
 31
0.0
  0
LINE
  5
C9
  8
0
 62
     0
 10
652.80121386860003
 20
-305.93978193390001
 30
0.0
 11
652.80121386860003
 21
-314.88422659029999
 31
0.0
  0
LINE
  5
CA
  8
0
 62
     0
 10
652.80121386860003
 20
-305.93978193390001
 30
0.0
 11
652.80121386860003
 21
-328.99533727750008
 31
0.0
  0
LINE
  5
CB
  8
0
 62
     0
 10
652.80121386860003
 20
-337.93978193390001
 30
0.0
 11
652.80121386860003
 21
-314.88422659029999
 31
0.0
  0
LINE
  5
CC
  8
0
 62
     0
 10
652.80121386860003
 20
-337.93978193390001
 30
0.0
 11
652.80121386860003
 21
-328.99533727750008
 31
0.0
  0
LINE
  5
CD
  8
0
 62
     0
 10
652.80121386860003
 20
-337.93978193390001
 30
0.0
 11
652.80121386860003
 21
-334.93978193390001
 31
0.0
  0
SOLID
  5
CE
  8
0
 62
     0
 10
652.80121386860003
 20
-337.93978193390001
 30
0.0
 11
651.30121386860003
 21
-331.93978193390001
 31
0.0
 12
654.30121386860003
 22
-331.93978193390001
 32
0.0
 13
652.80121386860003
 23
-333.43978193390001
 33
0.0
  0
LINE
  5
CF
  8
0
 62
     0
 10
652.80121386860003
 20
-305.93978193390001
 30
0.0
 11
652.80121386860003
 21
-308.93978193390001
 31
0.0
  0
SOLID
  5
D0
  8
0
 62
     0
 10
652.80121386860003
 20
-305.93978193390001
 30
0.0
 11
654.30121386860003
 21
-311.93978193390001
 31
0.0
 12
651.30121386860003
 22
-311.93978193390001
 32
0.0
 13
652.80121386860003
 23
-310.43978193390001
 33
0.0
  0
ENDBLK
  5
D1
  8
0
  0
BLOCK
  8
0
  2
*D13
 70
     1
 10
0.0
 20
0.0
 30
0.0
  3
*D13
  1

  0
TEXT
  5
D5
  8
0
 62
     0
 10
684.81605080449981
 20
-87.129109064100007
 30
0.0
 40
5.9972220420999989
  1
4.5t
  0
LINE
  5
D6
  8
0
 62
     0
 10
675.86889230059978
 20
-115.2454355798
 30
0.0
 11
675.86889230059978
 21
-88.687442365599964
 31
0.0
  0
LINE
  5
D7
  8
0
 62
     0
 10
671.3688923005999
 20
-115.2454355798
 30
0.0
 11
671.3688923005999
 21
-88.687442365599964
 31
0.0
  0
LINE
  5
D8
  8
0
 62
     0
 10
675.86889230059978
 20
-89.187442365600006
 30
0.0
 11
702.45493916359999
 21
-89.187442365600006
 31
0.0
  0
LINE
  5
D9
  8
0
 62
     0
 10
675.86889230059978
 20
-89.187442365600006
 30
0.0
 11
681.28827313269994
 21
-89.187442365600006
 31
0.0
  0
LINE
  5
DA
  8
0
 62
     0
 10
671.3688923005999
 20
-89.187442365600006
 30
0.0
 11
702.45493916359999
 21
-89.187442365600006
 31
0.0
  0
LINE
  5
DB
  8
0
 62
     0
 10
671.3688923005999
 20
-89.187442365600006
 30
0.0
 11
681.28827313269994
 21
-89.187442365600006
 31
0.0
  0
LINE
  5
DC
  8
0
 62
     0
 10
671.3688923005999
 20
-89.187442365600006
 30
0.0
 11
668.36889230060001
 21
-89.187442365600006
 31
0.0
  0
SOLID
  5
DD
  8
0
 62
     0
 10
671.3688923005999
 20
-89.187442365600006
 30
0.0
 11
665.36889230060001
 21
-90.687442365599964
 31
0.0
 12
665.36889230060001
 22
-87.687442365599978
 32
0.0
 13
666.86889230060001
 23
-89.187442365600006
 33
0.0
  0
LINE
  5
DE
  8
0
 62
     0
 10
675.86889230059978
 20
-89.187442365600006
 30
0.0
 11
678.86889230060001
 21
-89.187442365600006
 31
0.0
  0
SOLID
  5
DF
  8
0
 62
     0
 10
675.86889230059978
 20
-89.187442365600006
 30
0.0
 11
681.86889230060001
 21
-87.687442365599978
 31
0.0
 12
681.86889230060001
 22
-90.687442365599964
 32
0.0
 13
680.36889230059978
 23
-89.187442365600006
 33
0.0
  0
ENDBLK
  5
E0
  8
0
  0
BLOCK
  8
0
  2
*D14
 70
     1
 10
0.0
 20
0.0
 30
0.0
  3
*D14
  1

  0
TEXT
  5
E6
  8
0
 62
     0
 10
841.08363411350001
 20
-93.187102278200001
 30
0.0
 40
5.9972220420999989
  1
11
  0
LINE
  5
E7
  8
0
 62
     0
 10
850.11141178529988
 20
-120.2454355798
 30
0.0
 11
850.11141178529988
 21
-95.245435579800017
 31
0.0
  0
LINE
  5
E8
  8
0
 62
     0
 10
839.11141178529999
 20
-114.2454355798
 30
0.0
 11
839.11141178529999
 21
-95.245435579800017
 31
0.0
  0
LINE
  5
E9
  8
0
 62
     0
 10
850.11141178529988
 20
-96.245435579800002
 30
0.0
 11
850.11141178529988
 21
-96.245435579800002
 31
0.0
  0
LINE
  5
EA
  8
0
 62
     0
 10
850.11141178529988
 20
-96.245435579800002
 30
0.0
 11
839.11141178529999
 21
-96.245435579800002
 31
0.0
  0
LINE
  5
EB
  8
0
 62
     0
 10
839.11141178529999
 20
-96.245435579800002
 30
0.0
 11
850.11141178529988
 21
-96.245435579800002
 31
0.0
  0
LINE
  5
EC
  8
0
 62
     0
 10
839.11141178529999
 20
-96.245435579800002
 30
0.0
 11
839.11141178529999
 21
-96.245435579800002
 31
0.0
  0
LINE
  5
ED
  8
0
 62
     0
 10
839.11141178529999
 20
-96.245435579800002
 30
0.0
 11
833.11141178529988
 21
-96.245435579800002
 31
0.0
  0
SOLID
  5
EE
  8
0
 62
     0
 10
839.11141178529999
 20
-96.245435579800002
 30
0.0
 11
833.11141178529988
 21
-97.745435579800017
 31
0.0
 12
833.11141178529988
 22
-94.745435579800002
 32
0.0
 13
834.61141178529999
 23
-96.245435579800002
 33
0.0
  0
LINE
  5
EF
  8
0
 62
     0
 10
850.11141178529988
 20
-96.245435579800002
 30
0.0
 11
856.11141178529999
 21
-96.245435579800002
 31
0.0
  0
SOLID
  5
F0
  8
0
 62
     0
 10
850.11141178529988
 20
-96.245435579800002
 30
0.0
 11
856.11141178529999
 21
-94.745435579800002
 31
0.0
 12
856.11141178529999
 22
-97.745435579800017
 32
0.0
 13
854.61141178529988
 23
-96.245435579800002
 33
0.0
  0
ENDBLK
  5
F1
  8
0
  0
BLOCK
  8
0
  2
*D15
 70
     1
 10
0.0
 20
0.0
 30
0.0
  3
*D15
  1

  0
TEXT
  5
F5
  8
0
 62
     0
 10
851.5836341134999
 20
-93.187102278200001
 30
0.0
 40
5.9972220420999989
  1
10
  0
LINE
  5
F6
  8
0
 62
     0
 10
860.11141178529988
 20
-178.24543557979999
 30
0.0
 11
860.11141178529988
 21
-95.245435579800017
 31
0.0
  0
LINE
  5
F7
  8
0
 62
     0
 10
850.11141178529988
 20
-120.2454355798
 30
0.0
 11
850.11141178529988
 21
-95.245435579800017
 31
0.0
  0
LINE
  5
F8
  8
0
 62
     0
 10
860.11141178529988
 20
-96.245435579800002
 30
0.0
 11
860.11141178529988
 21
-96.245435579800002
 31
0.0
  0
LINE
  5
F9
  8
0
 62
     0
 10
860.11141178529988
 20
-96.245435579800002
 30
0.0
 11
850.11141178529988
 21
-96.245435579800002
 31
0.0
  0
LINE
  5
FA
  8
0
 62
     0
 10
850.11141178529988
 20
-96.245435579800002
 30
0.0
 11
860.11141178529988
 21
-96.245435579800002
 31
0.0
  0
LINE
  5
FB
  8
0
 62
     0
 10
850.11141178529988
 20
-96.245435579800002
 30
0.0
 11
850.11141178529988
 21
-96.245435579800002
 31
0.0
  0
LINE
  5
FC
  8
0
 62
     0
 10
850.11141178529988
 20
-96.245435579800002
 30
0.0
 11
844.11141178529999
 21
-96.245435579800002
 31
0.0
  0
SOLID
  5
FD
  8
0
 62
     0
 10
850.11141178529988
 20
-96.245435579800002
 30
0.0
 11
844.11141178529999
 21
-97.745435579800017
 31
0.0
 12
844.11141178529999
 22
-94.745435579800002
 32
0.0
 13
845.61141178529988
 23
-96.245435579800002
 33
0.0
  0
LINE
  5
FE
  8
0
 62
     0
 10
860.11141178529988
 20
-96.245435579800002
 30
0.0
 11
866.11141178529988
 21
-96.245435579800002
 31
0.0
  0
SOLID
  5
FF
  8
0
 62
     0
 10
860.11141178529988
 20
-96.245435579800002
 30
0.0
 11
866.11141178529988
 21
-94.745435579800002
 31
0.0
 12
866.11141178529988
 22
-97.745435579800017
 32
0.0
 13
864.61141178529999
 23
-96.245435579800002
 33
0.0
  0
ENDBLK
  5
100
  8
0
  0
BLOCK
  8
0
  2
*D16
 70
     1
 10
0.0
 20
0.0
 30
0.0
  3
*D16
  1

  0
TEXT
  5
104
  8
0
 62
     0
 10
862.0836341134999
 20
-93.187102278200001
 30
0.0
 40
5.9972220420999989
  1
11
  0
LINE
  5
105
  8
0
 62
     0
 10
871.11141178529999
 20
-114.2454355798
 30
0.0
 11
871.11141178529999
 21
-95.245435579800017
 31
0.0
  0
LINE
  5
106
  8
0
 62
     0
 10
860.11141178529988
 20
-178.24543557979999
 30
0.0
 11
860.11141178529988
 21
-95.245435579800017
 31
0.0
  0
LINE
  5
107
  8
0
 62
     0
 10
871.11141178529999
 20
-96.245435579800002
 30
0.0
 11
871.11141178529999
 21
-96.245435579800002
 31
0.0
  0
LINE
  5
108
  8
0
 62
     0
 10
871.11141178529999
 20
-96.245435579800002
 30
0.0
 11
860.11141178529988
 21
-96.245435579800002
 31
0.0
  0
LINE
  5
109
  8
0
 62
     0
 10
860.11141178529988
 20
-96.245435579800002
 30
0.0
 11
871.11141178529999
 21
-96.245435579800002
 31
0.0
  0
LINE
  5
10A
  8
0
 62
     0
 10
860.11141178529988
 20
-96.245435579800002
 30
0.0
 11
860.11141178529988
 21
-96.245435579800002
 31
0.0
  0
LINE
  5
10B
  8
0
 62
     0
 10
860.11141178529988
 20
-96.245435579800002
 30
0.0
 11
854.11141178529999
 21
-96.245435579800002
 31
0.0
  0
SOLID
  5
10C
  8
0
 62
     0
 10
860.11141178529988
 20
-96.245435579800002
 30
0.0
 11
854.11141178529999
 21
-97.745435579800017
 31
0.0
 12
854.11141178529999
 22
-94.745435579800002
 32
0.0
 13
855.61141178529988
 23
-96.245435579800002
 33
0.0
  0
LINE
  5
10D
  8
0
 62
     0
 10
871.11141178529999
 20
-96.245435579800002
 30
0.0
 11
877.11141178529999
 21
-96.245435579800002
 31
0.0
  0
SOLID
  5
10E
  8
0
 62
     0
 10
871.11141178529999
 20
-96.245435579800002
 30
0.0
 11
877.11141178529999
 21
-94.745435579800002
 31
0.0
 12
877.11141178529999
 22
-97.745435579800017
 32
0.0
 13
875.61141178529999
 23
-96.245435579800002
 33
0.0
  0
ENDBLK
  5
10F
  8
0
  0
BLOCK
  8
0
  2
*D17
 70
     1
 10
0.0
 20
0.0
 30
0.0
  3
*D17
  1

  0
TEXT
  5
113
  8
0
 62
     0
 10
816.05307848370001
 20
-199.7732132516
 30
0.0
 40
5.9972220420999989
  1
20
 50
90.0
  0
LINE
  5
114
  8
0
 62
     0
 10
852.11141178529988
 20
-186.24543557979999
 30
0.0
 11
818.11141178529988
 21
-186.24543557979999
 31
0.0
  0
LINE
  5
115
  8
0
 62
     0
 10
837.11141178529999
 20
-206.24543557979999
 30
0.0
 11
818.11141178529988
 21
-206.24543557979999
 31
0.0
  0
LINE
  5
116
  8
0
 62
     0
 10
819.11141178529999
 20
-186.24543557979999
 30
0.0
 11
819.11141178529999
 21
-189.18988023610001
 31
0.0
  0
LINE
  5
117
  8
0
 62
     0
 10
819.11141178529999
 20
-186.24543557979999
 30
0.0
 11
819.11141178529999
 21
-203.30099092340001
 31
0.0
  0
LINE
  5
118
  8
0
 62
     0
 10
819.11141178529999
 20
-206.24543557979999
 30
0.0
 11
819.11141178529999
 21
-189.18988023610001
 31
0.0
  0
LINE
  5
119
  8
0
 62
     0
 10
819.11141178529999
 20
-206.24543557979999
 30
0.0
 11
819.11141178529999
 21
-203.30099092340001
 31
0.0
  0
LINE
  5
11A
  8
0
 62
     0
 10
819.11141178529999
 20
-206.24543557979999
 30
0.0
 11
819.11141178529999
 21
-212.24543557979999
 31
0.0
  0
SOLID
  5
11B
  8
0
 62
     0
 10
819.11141178529999
 20
-206.24543557979999
 30
0.0
 11
820.61141178529988
 21
-212.24543557979999
 31
0.0
 12
817.61141178529999
 22
-212.24543557979999
 32
0.0
 13
819.11141178529999
 23
-210.74543557979999
 33
0.0
  0
LINE
  5
11C
  8
0
 62
     0
 10
819.11141178529999
 20
-186.24543557979999
 30
0.0
 11
819.11141178529999
 21
-180.24543557979999
 31
0.0
  0
SOLID
  5
11D
  8
0
 62
     0
 10
819.11141178529999
 20
-186.24543557979999
 30
0.0
 11
817.61141178529999
 21
-180.24543557979999
 31
0.0
 12
820.61141178529988
 22
-180.24543557979999
 32
0.0
 13
819.11141178529999
 23
-181.74543557979999
 33
0.0
  0
ENDBLK
  5
11E
  8
0
  0
BLOCK
  8
0
  2
*D18
 70
     1
 10
0.0
 20
0.0
 30
0.0
  3
*D18
  1

  0
TEXT
  5
122
  8
0
 62
     0
 10
816.05307848370001
 20
-160.7732132516
 30
0.0
 40
5.9972220420999989
  1
58
 50
90.0
  0
LINE
  5
123
  8
0
 62
     0
 10
842.11141178529988
 20
-128.24543557979999
 30
0.0
 11
818.11141178529988
 21
-128.24543557979999
 31
0.0
  0
LINE
  5
124
  8
0
 62
     0
 10
852.11141178529988
 20
-186.24543557979999
 30
0.0
 11
818.11141178529988
 21
-186.24543557979999
 31
0.0
  0
LINE
  5
125
  8
0
 62
     0
 10
819.11141178529999
 20
-128.24543557979999
 30
0.0
 11
819.11141178529999
 21
-150.18988023610001
 31
0.0
  0
LINE
  5
126
  8
0
 62
     0
 10
819.11141178529999
 20
-128.24543557979999
 30
0.0
 11
819.11141178529999
 21
-164.30099092340001
 31
0.0
  0
LINE
  5
127
  8
0
 62
     0
 10
819.11141178529999
 20
-186.24543557979999
 30
0.0
 11
819.11141178529999
 21
-150.18988023610001
 31
0.0
  0
LINE
  5
128
  8
0
 62
     0
 10
819.11141178529999
 20
-186.24543557979999
 30
0.0
 11
819.11141178529999
 21
-164.30099092340001
 31
0.0
  0
LINE
  5
129
  8
0
 62
     0
 10
819.11141178529999
 20
-186.24543557979999
 30
0.0
 11
819.11141178529999
 21
-180.24543557979999
 31
0.0
  0
SOLID
  5
12A
  8
0
 62
     0
 10
819.11141178529999
 20
-186.24543557979999
 30
0.0
 11
817.61141178529999
 21
-180.24543557979999
 31
0.0
 12
820.61141178529988
 22
-180.24543557979999
 32
0.0
 13
819.11141178529999
 23
-181.74543557979999
 33
0.0
  0
LINE
  5
12B
  8
0
 62
     0
 10
819.11141178529999
 20
-128.24543557979999
 30
0.0
 11
819.11141178529999
 21
-134.24543557979999
 31
0.0
  0
SOLID
  5
12C
  8
0
 62
     0
 10
819.11141178529999
 20
-128.24543557979999
 30
0.0
 11
820.61141178529988
 21
-134.24543557979999
 31
0.0
 12
817.61141178529999
 22
-134.24543557979999
 32
0.0
 13
819.11141178529999
 23
-132.74543557979999
 33
0.0
  0
ENDBLK
  5
12D
  8
0
  0
BLOCK
  8
0
  2
*D19
 70
     1
 10
0.0
 20
0.0
 30
0.0
  3
*D19
  1

  0
TEXT
  5
131
  8
0
 62
     0
 10
816.05307848370001
 20
-125.7732132516
 30
0.0
 40
5.9972220420999989
  1
12
 50
90.0
  0
LINE
  5
132
  8
0
 62
     0
 10
837.11141178529999
 20
-116.2454355798
 30
0.0
 11
818.11141178529988
 21
-116.2454355798
 31
0.0
  0
LINE
  5
133
  8
0
 62
     0
 10
842.11141178529988
 20
-128.24543557979999
 30
0.0
 11
818.11141178529988
 21
-128.24543557979999
 31
0.0
  0
LINE
  5
134
  8
0
 62
     0
 10
819.11141178529999
 20
-116.2454355798
 30
0.0
 11
819.11141178529999
 21
-116.2454355798
 31
0.0
  0
LINE
  5
135
  8
0
 62
     0
 10
819.11141178529999
 20
-116.2454355798
 30
0.0
 11
819.11141178529999
 21
-128.24543557979999
 31
0.0
  0
LINE
  5
136
  8
0
 62
     0
 10
819.11141178529999
 20
-128.24543557979999
 30
0.0
 11
819.11141178529999
 21
-116.2454355798
 31
0.0
  0
LINE
  5
137
  8
0
 62
     0
 10
819.11141178529999
 20
-128.24543557979999
 30
0.0
 11
819.11141178529999
 21
-128.24543557979999
 31
0.0
  0
LINE
  5
138
  8
0
 62
     0
 10
819.11141178529999
 20
-128.24543557979999
 30
0.0
 11
819.11141178529999
 21
-134.24543557979999
 31
0.0
  0
SOLID
  5
139
  8
0
 62
     0
 10
819.11141178529999
 20
-128.24543557979999
 30
0.0
 11
820.61141178529988
 21
-134.24543557979999
 31
0.0
 12
817.61141178529999
 22
-134.24543557979999
 32
0.0
 13
819.11141178529999
 23
-132.74543557979999
 33
0.0
  0
LINE
  5
13A
  8
0
 62
     0
 10
819.11141178529999
 20
-116.2454355798
 30
0.0
 11
819.11141178529999
 21
-110.2454355798
 31
0.0
  0
SOLID
  5
13B
  8
0
 62
     0
 10
819.11141178529999
 20
-116.2454355798
 30
0.0
 11
817.61141178529999
 21
-110.2454355798
 31
0.0
 12
820.61141178529988
 22
-110.2454355798
 32
0.0
 13
819.11141178529999
 23
-111.7454355798
 33
0.0
  0
ENDBLK
  5
13C
  8
0
  0
BLOCK
  8
0
  2
*D20
 70
     1
 10
0.0
 20
0.0
 30
0.0
  3
*D20
  1

  0
TEXT
  5
140
  8
0
 62
     0
 10
778.31055899909984
 20
-314.96755960569999
 30
0.0
 40
5.9972220420999989
  1
11
 50
90.0
  0
LINE
  5
141
  8
0
 62
     0
 10
699.36889230060001
 20
-316.93978193390001
 30
0.0
 11
782.36889230060001
 21
-316.93978193390001
 31
0.0
  0
LINE
  5
142
  8
0
 62
     0
 10
763.36889230059978
 20
-305.93978193390001
 30
0.0
 11
782.36889230060001
 21
-305.93978193390001
 31
0.0
  0
LINE
  5
143
  8
0
 62
     0
 10
781.36889230060001
 20
-316.93978193390001
 30
0.0
 11
781.36889230060001
 21
-316.93978193390001
 31
0.0
  0
LINE
  5
144
  8
0
 62
     0
 10
781.36889230060001
 20
-316.93978193390001
 30
0.0
 11
781.36889230060001
 21
-305.93978193390001
 31
0.0
  0
LINE
  5
145
  8
0
 62
     0
 10
781.36889230060001
 20
-305.93978193390001
 30
0.0
 11
781.36889230060001
 21
-316.93978193390001
 31
0.0
  0
LINE
  5
146
  8
0
 62
     0
 10
781.36889230060001
 20
-305.93978193390001
 30
0.0
 11
781.36889230060001
 21
-305.93978193390001
 31
0.0
  0
LINE
  5
147
  8
0
 62
     0
 10
781.36889230060001
 20
-305.93978193390001
 30
0.0
 11
781.36889230060001
 21
-299.93978193390001
 31
0.0
  0
SOLID
  5
148
  8
0
 62
     0
 10
781.36889230060001
 20
-305.93978193390001
 30
0.0
 11
779.86889230059978
 21
-299.93978193390001
 31
0.0
 12
782.86889230060001
 22
-299.93978193390001
 32
0.0
 13
781.36889230060001
 23
-301.43978193390001
 33
0.0
  0
LINE
  5
149
  8
0
 62
     0
 10
781.36889230060001
 20
-316.93978193390001
 30
0.0
 11
781.36889230060001
 21
-322.93978193390001
 31
0.0
  0
SOLID
  5
14A
  8
0
 62
     0
 10
781.36889230060001
 20
-316.93978193390001
 30
0.0
 11
782.86889230060001
 21
-322.93978193390001
 31
0.0
 12
779.86889230059978
 22
-322.93978193390001
 32
0.0
 13
781.36889230060001
 23
-321.43978193390001
 33
0.0
  0
ENDBLK
  5
14B
  8
0
  0
BLOCK
  8
0
  2
*D21
 70
     1
 10
0.0
 20
0.0
 30
0.0
  3
*D21
  1

  0
TEXT
  5
14F
  8
0
 62
     0
 10
778.31055899909984
 20
-325.46755960569999
 30
0.0
 40
5.9972220420999989
  1
10
 50
90.0
  0
LINE
  5
150
  8
0
 62
     0
 10
757.36889230060001
 20
-326.93978193390001
 30
0.0
 11
782.36889230060001
 21
-326.93978193390001
 31
0.0
  0
LINE
  5
151
  8
0
 62
     0
 10
699.36889230060001
 20
-316.93978193390001
 30
0.0
 11
782.36889230060001
 21
-316.93978193390001
 31
0.0
  0
LINE
  5
152
  8
0
 62
     0
 10
781.36889230060001
 20
-326.93978193390001
 30
0.0
 11
781.36889230060001
 21
-326.93978193390001
 31
0.0
  0
LINE
  5
153
  8
0
 62
     0
 10
781.36889230060001
 20
-326.93978193390001
 30
0.0
 11
781.36889230060001
 21
-316.93978193390001
 31
0.0
  0
LINE
  5
154
  8
0
 62
     0
 10
781.36889230060001
 20
-316.93978193390001
 30
0.0
 11
781.36889230060001
 21
-326.93978193390001
 31
0.0
  0
LINE
  5
155
  8
0
 62
     0
 10
781.36889230060001
 20
-316.93978193390001
 30
0.0
 11
781.36889230060001
 21
-316.93978193390001
 31
0.0
  0
LINE
  5
156
  8
0
 62
     0
 10
781.36889230060001
 20
-316.93978193390001
 30
0.0
 11
781.36889230060001
 21
-310.93978193390001
 31
0.0
  0
SOLID
  5
157
  8
0
 62
     0
 10
781.36889230060001
 20
-316.93978193390001
 30
0.0
 11
779.86889230059978
 21
-310.93978193390001
 31
0.0
 12
782.86889230060001
 22
-310.93978193390001
 32
0.0
 13
781.36889230060001
 23
-312.43978193390001
 33
0.0
  0
LINE
  5
158
  8
0
 62
     0
 10
781.36889230060001
 20
-326.93978193390001
 30
0.0
 11
781.36889230060001
 21
-332.93978193390001
 31
0.0
  0
SOLID
  5
159
  8
0
 62
     0
 10
781.36889230060001
 20
-326.93978193390001
 30
0.0
 11
782.86889230060001
 21
-332.93978193390001
 31
0.0
 12
779.86889230059978
 22
-332.93978193390001
 32
0.0
 13
781.36889230060001
 23
-331.43978193390001
 33
0.0
  0
ENDBLK
  5
15A
  8
0
  0
BLOCK
  8
0
  2
*D22
 70
     1
 10
0.0
 20
0.0
 30
0.0
  3
*D22
  1

  0
TEXT
  5
15E
  8
0
 62
     0
 10
778.31055899909984
 20
-335.96755960569999
 30
0.0
 40
5.9972220420999989
  1
11
 50
90.0
  0
LINE
  5
15F
  8
0
 62
     0
 10
763.36889230059978
 20
-337.93978193390001
 30
0.0
 11
782.36889230060001
 21
-337.93978193390001
 31
0.0
  0
LINE
  5
160
  8
0
 62
     0
 10
757.36889230060001
 20
-326.93978193390001
 30
0.0
 11
782.36889230060001
 21
-326.93978193390001
 31
0.0
  0
LINE
  5
161
  8
0
 62
     0
 10
781.36889230060001
 20
-337.93978193390001
 30
0.0
 11
781.36889230060001
 21
-337.93978193390001
 31
0.0
  0
LINE
  5
162
  8
0
 62
     0
 10
781.36889230060001
 20
-337.93978193390001
 30
0.0
 11
781.36889230060001
 21
-326.93978193390001
 31
0.0
  0
LINE
  5
163
  8
0
 62
     0
 10
781.36889230060001
 20
-326.93978193390001
 30
0.0
 11
781.36889230060001
 21
-337.93978193390001
 31
0.0
  0
LINE
  5
164
  8
0
 62
     0
 10
781.36889230060001
 20
-326.93978193390001
 30
0.0
 11
781.36889230060001
 21
-326.93978193390001
 31
0.0
  0
LINE
  5
165
  8
0
 62
     0
 10
781.36889230060001
 20
-326.93978193390001
 30
0.0
 11
781.36889230060001
 21
-320.93978193390001
 31
0.0
  0
SOLID
  5
166
  8
0
 62
     0
 10
781.36889230060001
 20
-326.93978193390001
 30
0.0
 11
779.86889230059978
 21
-320.93978193390001
 31
0.0
 12
782.86889230060001
 22
-320.93978193390001
 32
0.0
 13
781.36889230060001
 23
-322.43978193390001
 33
0.0
  0
LINE
  5
167
  8
0
 62
     0
 10
781.36889230060001
 20
-337.93978193390001
 30
0.0
 11
781.36889230060001
 21
-343.93978193390001
 31
0.0
  0
SOLID
  5
168
  8
0
 62
     0
 10
781.36889230060001
 20
-337.93978193390001
 30
0.0
 11
782.86889230060001
 21
-343.93978193390001
 31
0.0
 12
779.86889230059978
 22
-343.93978193390001
 32
0.0
 13
781.36889230060001
 23
-342.43978193390001
 33
0.0
  0
ENDBLK
  5
169
  8
0
  0
BLOCK
  8
0
  2
*D23
 70
     1
 10
0.0
 20
0.0
 30
0.0
  3
*D23
  1

  0
TEXT
  5
16D
  8
0
 62
     0
 10
677.84111462880003
 20
-282.88144863240001
 30
0.0
 40
5.9972220420999989
  1
20
  0
LINE
  5
16E
  8
0
 62
     0
 10
691.36889230060001
 20
-308.93978193390001
 30
0.0
 11
691.36889230060001
 21
-284.93978193390001
 31
0.0
  0
LINE
  5
16F
  8
0
 62
     0
 10
671.3688923005999
 20
-303.93978193390001
 30
0.0
 11
671.3688923005999
 21
-284.93978193390001
 31
0.0
  0
LINE
  5
170
  8
0
 62
     0
 10
691.36889230060001
 20
-285.93978193390001
 30
0.0
 11
688.42444764419974
 21
-285.93978193390001
 31
0.0
  0
LINE
  5
171
  8
0
 62
     0
 10
691.36889230060001
 20
-285.93978193390001
 30
0.0
 11
674.31333695699993
 21
-285.93978193390001
 31
0.0
  0
LINE
  5
172
  8
0
 62
     0
 10
671.3688923005999
 20
-285.93978193390001
 30
0.0
 11
688.42444764419974
 21
-285.93978193390001
 31
0.0
  0
LINE
  5
173
  8
0
 62
     0
 10
671.3688923005999
 20
-285.93978193390001
 30
0.0
 11
674.31333695699993
 21
-285.93978193390001
 31
0.0
  0
LINE
  5
174
  8
0
 62
     0
 10
671.3688923005999
 20
-285.93978193390001
 30
0.0
 11
665.36889230060001
 21
-285.93978193390001
 31
0.0
  0
SOLID
  5
175
  8
0
 62
     0
 10
671.3688923005999
 20
-285.93978193390001
 30
0.0
 11
665.36889230060001
 21
-287.43978193390001
 31
0.0
 12
665.36889230060001
 22
-284.43978193390001
 32
0.0
 13
666.86889230060001
 23
-285.93978193390001
 33
0.0
  0
LINE
  5
176
  8
0
 62
     0
 10
691.36889230060001
 20
-285.93978193390001
 30
0.0
 11
697.36889230060001
 21
-285.93978193390001
 31
0.0
  0
SOLID
  5
177
  8
0
 62
     0
 10
691.36889230060001
 20
-285.93978193390001
 30
0.0
 11
697.36889230060001
 21
-284.43978193390001
 31
0.0
 12
697.36889230060001
 22
-287.43978193390001
 32
0.0
 13
695.86889230060001
 23
-285.93978193390001
 33
0.0
  0
ENDBLK
  5
178
  8
0
  0
BLOCK
  8
0
  2
*D24
 70
     1
 10
0.0
 20
0.0
 30
0.0
  3
*D24
  1

  0
TEXT
  5
17C
  8
0
 62
     0
 10
716.84111462880003
 20
-282.88144863240001
 30
0.0
 40
5.9972220420999989
  1
58
  0
LINE
  5
17D
  8
0
 62
     0
 10
749.36889230060001
 20
-318.93978193390001
 30
0.0
 11
749.36889230060001
 21
-284.93978193390001
 31
0.0
  0
LINE
  5
17E
  8
0
 62
     0
 10
691.36889230060001
 20
-308.93978193390001
 30
0.0
 11
691.36889230060001
 21
-284.93978193390001
 31
0.0
  0
LINE
  5
17F
  8
0
 62
     0
 10
749.36889230060001
 20
-285.93978193390001
 30
0.0
 11
727.42444764419986
 21
-285.93978193390001
 31
0.0
  0
LINE
  5
180
  8
0
 62
     0
 10
749.36889230060001
 20
-285.93978193390001
 30
0.0
 11
713.31333695699982
 21
-285.93978193390001
 31
0.0
  0
LINE
  5
181
  8
0
 62
     0
 10
691.36889230060001
 20
-285.93978193390001
 30
0.0
 11
727.42444764419986
 21
-285.93978193390001
 31
0.0
  0
LINE
  5
182
  8
0
 62
     0
 10
691.36889230060001
 20
-285.93978193390001
 30
0.0
 11
713.31333695699982
 21
-285.93978193390001
 31
0.0
  0
LINE
  5
183
  8
0
 62
     0
 10
691.36889230060001
 20
-285.93978193390001
 30
0.0
 11
697.36889230060001
 21
-285.93978193390001
 31
0.0
  0
SOLID
  5
184
  8
0
 62
     0
 10
691.36889230060001
 20
-285.93978193390001
 30
0.0
 11
697.36889230060001
 21
-284.43978193390001
 31
0.0
 12
697.36889230060001
 22
-287.43978193390001
 32
0.0
 13
695.86889230060001
 23
-285.93978193390001
 33
0.0
  0
LINE
  5
185
  8
0
 62
     0
 10
749.36889230060001
 20
-285.93978193390001
 30
0.0
 11
743.36889230060001
 21
-285.93978193390001
 31
0.0
  0
SOLID
  5
186
  8
0
 62
     0
 10
749.36889230060001
 20
-285.93978193390001
 30
0.0
 11
743.36889230060001
 21
-287.43978193390001
 31
0.0
 12
743.36889230060001
 22
-284.43978193390001
 32
0.0
 13
744.86889230060001
 23
-285.93978193390001
 33
0.0
  0
ENDBLK
  5
187
  8
0
  0
BLOCK
  8
0
  2
CLUMP0
 70
     0
 10
0.0
 20
0.0
 30
0.0
  3
CLUMP0
  1

  0
CIRCLE
  5
1FA
  8
┌▓È_1
 62
     5
 10
749.36889230060001
 20
-326.93978193390001
 30
0.0
 40
4.25
  0
CIRCLE
  5
1FB
  8
┌▓È_1
 62
     5
 10
749.36889230060001
 20
-326.93978193390001
 30
0.0
 40
2.5
  0
LINE
  5
1FC
  8
┌▓È_1
  6
BORDER
 62
     3
 10
749.36889230060001
 20
-332.93978193390001
 30
0.0
 11
749.36889230060001
 21
-320.93978193390001
 31
0.0
  0
LINE
  5
1FD
  8
┌▓È_1
  6
BORDER
 62
     3
 10
743.36889230060001
 20
-326.93978193390001
 30
0.0
 11
755.36889230059978
 21
-326.93978193390001
 31
0.0
  0
ENDBLK
  5
1FE
  8
0
  0
BLOCK
  8
0
  2
CLUMP1
 70
     0
 10
0.0
 20
0.0
 30
0.0
  3
CLUMP1
  1

  0
CIRCLE
  5
202
  8
┌▓È_1
 62
     5
 10
860.11141178529988
 20
-186.24543557979999
 30
0.0
 40
4.25
  0
CIRCLE
  5
203
  8
┌▓È_1
 62
     5
 10
860.11141178529988
 20
-186.24543557979999
 30
0.0
 40
2.5
  0
LINE
  5
204
  8
┌▓È_1
  6
BORDER
 62
     3
 10
866.11141178529988
 20
-186.24543557979999
 30
0.0
 11
854.11141178529999
 21
-186.24543557979999
 31
0.0
  0
LINE
  5
205
  8
┌▓È_1
  6
BORDER
 62
     3
 10
860.11141178529988
 20
-180.24543557979999
 30
0.0
 11
860.11141178529988
 21
-192.24543557979999
 31
0.0
  0
ENDBLK
  5
206
  8
0
  0
BLOCK
  8
0
  2
CLUMP2
 70
     0
 10
0.0
 20
0.0
 30
0.0
  3
CLUMP2
  1

  0
CIRCLE
  5
20A
  8
┌▓È_1
 62
     5
 10
850.11141178529988
 20
-128.24543557979999
 30
0.0
 40
2.5
  0
CIRCLE
  5
20B
  8
┌▓È_1
 62
     5
 10
850.11141178529988
 20
-128.24543557979999
 30
0.0
 40
4.25
  0
LINE
  5
20C
  8
┌▓È_1
  6
BORDER
 62
     3
 10
856.11141178529999
 20
-128.24543557979999
 30
0.0
 11
844.11141178529999
 21
-128.24543557979999
 31
0.0
  0
LINE
  5
20D
  8
┌▓È_1
  6
BORDER
 62
     3
 10
850.11141178529988
 20
-122.2454355798
 30
0.0
 11
850.11141178529988
 21
-134.24543557979999
 31
0.0
  0
ENDBLK
  5
20E
  8
0
  0
BLOCK
  8
0
  2
CLUMP3
 70
     0
 10
0.0
 20
0.0
 30
0.0
  3
CLUMP3
  1

  0
CIRCLE
  5
23B
  8
┌▓È_1
 62
     5
 10
691.36889230060001
 20
-316.93978193390001
 30
0.0
 40
2.5
  0
CIRCLE
  5
23C
  8
┌▓È_1
 62
     5
 10
691.36889230060001
 20
-316.93978193390001
 30
0.0
 40
4.25
  0
LINE
  5
23D
  8
┌▓È_1
  6
BORDER
 62
     3
 10
691.36889230060001
 20
-322.93978193390001
 30
0.0
 11
691.36889230060001
 21
-310.93978193390001
 31
0.0
  0
LINE
  5
23E
  8
┌▓È_1
  6
BORDER
 62
     3
 10
685.36889230060001
 20
-316.93978193390001
 30
0.0
 11
697.36889230060001
 21
-316.93978193390001
 31
0.0
  0
ENDBLK
  5
23F
  8
0
  0
BLOCK
  8
0
  2
*D29
 70
     1
 10
0.0
 20
0.0
 30
0.0
  3
*D29
  1

  0
LINE
  5
26E
  8
Éíû@É³
 62
     0
 10
944.74259585887546
 20
-179.32308483942401
 30
0.0
 11
923.34594732234143
 21
-200.7197333758605
 31
0.0
  0
LINE
  5
26F
  8
Éíû@É³
 62
     0
 10
988.39164437832403
 20
-179.32308483942401
 30
0.0
 11
1009.7882929148579
 21
-200.71973337586039
 31
0.0
  0
ARC
  5
270
  8
Éíû@É³
 62
     0
 10
966.56712011859986
 20
-157.4985605798
 30
0.0
 40
59.873968749999989
 50
230.74404353184539
 51
261.17490215107262
  0
ARC
  5
271
  8
Éíû@É³
 62
     0
 10
966.56712011859986
 20
-157.4985605798
 30
0.0
 40
59.873968749999989
 50
278.8250978489275
 51
309.25595646815469
  0
SOLID
  5
272
  8
Éíû@É³
 62
     0
 10
928.00893219363775
 20
-204.60223140401541
 30
0.0
 11
929.35050990352966
 21
-203.11893465409631
 31
0.0
 12
924.22983079882636
 22
-199.8358498993793
 32
0.0
 13
924.22983079882636
 23
-199.8358498993793
 33
0.0
  0
SOLID
  5
273
  8
Éíû@É³
 62
     0
 10
1003.78373033367
 20
-203.11893465409619
 30
0.0
 11
1005.125308043562
 21
-204.6022314040153
 31
0.0
 12
1008.904409438373
 22
-199.8358498993793
 32
0.0
 13
1008.904409438373
 23
-199.8358498993793
 33
0.0
  0
TEXT
  5
2E3
  8
Éíû@É³
 62
     0
 10
954.57299999999998
 20
-227.988
 30
0.0
 40
5.9972199999999987
  1
90üï
  0
POINT
  5
275
  8
DEFPOINTS
 62
     0
 10
966.56712011859986
 20
-157.4985605798
 30
0.0
  0
POINT
  5
276
  8
DEFPOINTS
 62
     0
 10
944.78679003269997
 20
-179.27889066559999
 30
0.0
  0
POINT
  5
277
  8
DEFPOINTS
 62
     0
 10
988.34745020449998
 20
-179.27889066559999
 30
0.0
  0
POINT
  5
278
  8
DEFPOINTS
 62
     0
 10
951.07059670018236
 20
-215.33237331783761
 30
0.0
  0
ENDBLK
  5
27A
  8
0
  0
BLOCK
  8
0
  2
*D30
 70
     1
 10
0.0
 20
0.0
 30
0.0
  3
*D30
  1

  0
LINE
  5
27C
  8
Éíû@É³
 62
     0
 10
988.39164437832403
 20
-155.6740363200758
 30
0.0
 11
1019.132837007113
 21
-124.93284369128661
 31
0.0
  0
LINE
  5
27D
  8
Éíû@É³
 62
     0
 10
944.74259585887614
 20
-155.6740363200758
 30
0.0
 11
914.00140323008679
 21
-124.93284369128649
 31
0.0
  0
ARC
  5
27E
  8
Éíû@É³
 62
     0
 10
966.56712011859986
 20
-177.4985605798
 30
0.0
 40
73.089149739600003
 50
49.704819811102439
 51
82.780018886956114
  0
ARC
  5
27F
  8
Éíû@É³
 62
     0
 10
966.56712011859986
 20
-177.4985605798
 30
0.0
 40
73.089149739600003
 50
97.219981113043886
 51
130.2951801888974
  0
SOLID
  5
280
  8
Éíû@É³
 62
     0
 10
1014.513232966895
 20
-121.01626970314319
 30
0.0
 11
1013.158258684516
 21
-122.4873389381181
 31
0.0
 12
1018.24895353063
 22
-125.8167271677699
 32
0.0
 13
1018.24895353063
 23
-125.8167271677699
 33
0.0
  0
SOLID
  5
281
  8
Éíû@É³
 62
     0
 10
919.97598155268417
 20
-122.487338938118
 30
0.0
 11
918.62100727030474
 21
-121.0162697031431
 31
0.0
 12
914.88528670656967
 22
-125.8167271677697
 32
0.0
 13
914.88528670656967
 23
-125.8167271677697
 33
0.0
  0
TEXT
  5
2E4
  8
Éíû@É³
 62
     0
 10
954.57299999999998
 20
-115.024
 30
0.0
 40
5.9972199999999987
  1
90üï
  0
POINT
  5
283
  8
DEFPOINTS
 62
     0
 10
966.56712011859986
 20
-177.4985605798
 30
0.0
  0
POINT
  5
284
  8
DEFPOINTS
 62
     0
 10
988.34745020449998
 20
-155.71823049389999
 30
0.0
  0
POINT
  5
285
  8
DEFPOINTS
 62
     0
 10
944.78679003269997
 20
-155.71823049389999
 30
0.0
  0
POINT
  5
286
  8
DEFPOINTS
 62
     0
 10
985.48398406155843
 20
-106.8998632248114
 30
0.0
  0
ENDBLK
  5
288
  8
0
  0
BLOCK
  8
0
  2
*D31
 70
     1
 10
0.0
 20
0.0
 30
0.0
  3
*D31
  1

  0
LINE
  5
28A
  8
Éíû@É³
 62
     0
 10
761.30639230059978
 20
-201.74543557979999
 30
0.0
 11
719.52572670223299
 21
-201.74543557979999
 31
0.0
  0
LINE
  5
28B
  8
Éíû@É³
 62
     0
 10
675.86889230059978
 20
-116.3079355798
 30
0.0
 11
675.86889230059978
 21
-158.08860117816701
 31
0.0
  0
ARC
  5
28C
  8
Éíû@É³
 62
     0
 10
675.86889230059978
 20
-201.74543557979999
 30
0.0
 40
44.906834401632949
 50
7.6609919665405632
 51
33.326045467071282
  0
ARC
  5
28D
  8
Éíû@É³
 62
     0
 10
675.86889230059978
 20
-201.74543557979999
 30
0.0
 40
44.906834401632949
 50
56.932605460936749
 51
82.339008033459507
  0
SOLID
  5
28E
  8
Éíû@É³
 62
     0
 10
721.37266289781087
 20
-195.69203428974751
 30
0.0
 11
719.37713079316813
 21
-195.82564424199521
 31
0.0
 12
720.7757267022331
 22
-201.74543557979999
 32
0.0
 13
720.7757267022331
 23
-201.74543557979999
 33
0.0
  0
SOLID
  5
28F
  8
Éíû@É³
 62
     0
 10
681.78868363840468
 20
-158.23719708723169
 30
0.0
 11
681.92229359065243
 21
-156.24166498258879
 31
0.0
 12
675.86889230059978
 22
-156.8386011781671
 32
0.0
 13
675.86889230059978
 23
-156.8386011781671
 33
0.0
  0
TEXT
  5
2E5
  8
Éíû@É³
 62
     0
 10
695.55700000000002
 20
-180.535
 30
0.0
 40
5.9972199999999987
  1
90üï
  0
POINT
  5
291
  8
DEFPOINTS
 62
     0
 10
675.86889230059978
 20
-201.74543557979999
 30
0.0
  0
POINT
  5
292
  8
DEFPOINTS
 62
     0
 10
761.36889230060001
 20
-201.74543557979999
 30
0.0
  0
POINT
  5
293
  8
DEFPOINTS
 62
     0
 10
675.86889230059978
 20
-116.2454355798
 30
0.0
  0
POINT
  5
294
  8
DEFPOINTS
 62
     0
 10
714.75935169595516
 20
-179.2920183789835
 30
0.0
  0
ENDBLK
  5
296
  8
0
  0
BLOCK
  8
0
  2
*U32
 70
     1
 10
0.0
 20
0.0
 30
0.0
  3
*U32
  1

  0
TEXT
  5
298
  8
┌▓È_1
  6
CONTINUOUS
 10
947.83108255142008
 20
-236.12757238329289
 30
0.0
 40
5.9972220420999989
  1
ÄMëƒéÁòöÅ┌ìÎ
  0
ENDBLK
  5
29A
  8
0
  0
BLOCK
  8
0
  2
*U33
 70
     1
 10
0.0
 20
0.0
 30
0.0
  3
*U33
  1

  0
TEXT
  5
29C
  8
┌▓È_1
  6
CONTINUOUS
 10
1034.0618359252001
 20
-389.18589175522692
 30
0.0
 40
7.1966662884000003
  1
ékî^âAâôâOâï
  0
ENDBLK
  5
29E
  8
0
  0
BLOCK
  8
0
  2
*U34
 70
     1
 10
0.0
 20
0.0
 30
0.0
  3
*U34
  1

  0
TEXT
  5
2A0
  8
┌▓È_1
  6
CONTINUOUS
 10
1031.011747384367
 20
-371.66212870369998
 30
0.0
 40
7.1966662884000003
  1
LY-201  90x90
  0
ENDBLK
  5
2A2
  8
0
  0
BLOCK
  8
0
  2
*U35
 70
     1
 10
0.0
 20
0.0
 30
0.0
  3
*U35
  1

  0
TEXT
  5
2A4
  8
┌▓È_1
  6
CONTINUOUS
 10
889.69264683899985
 20
-406.07278666162722
 30
0.0
 40
8.6359998702999992
  1
èöÄ«ë´Äð
  0
ENDBLK
  5
2A6
  8
0
  0
BLOCK
  8
0
  2
*U36
 70
     1
 10
0.0
 20
0.0
 30
0.0
  3
*U36
  1

  0
TEXT
  5
2A8
  8
┌▓È_1
  6
CONTINUOUS
 10
875.25153938940002
 20
-356.72551832835779
 30
0.0
 40
7.1966662884000003
  1
ò\û╩ÅêùØüFâåâjâNâìâüâbâLÄdÅÒé░
  0
ENDBLK
  5
2AA
  8
0
  0
BLOCK
  8
0
  2
*U37
 70
     1
 10
0.0
 20
0.0
 30
0.0
  3
*U37
  1

  0
TEXT
  5
2AC
  8
┌▓È_1
  6
CONTINUOUS
 10
972.18231101200001
 20
-365.91501435773711
 30
0.0
 40
4.674999999999998
  1
ü@îƒ ü@ê¾
  0
ENDBLK
  5
2AE
  8
0
  0
BLOCK
  8
0
  2
*U38
 70
     1
 10
0.0
 20
0.0
 30
0.0
  3
*U38
  1

  0
TEXT
  5
2B0
  8
┌▓È_1
  6
CONTINUOUS
 10
940.18231101200001
 20
-382.8912833932701
 30
0.0
 40
4.674999999999998
  1
ü@Ä┌ ü@ôx
  0
ENDBLK
  5
2B2
  8
0
  0
BLOCK
  8
0
  2
*U39
 70
     1
 10
0.0
 20
0.0
 30
0.0
  3
*U39
  1

  0
TEXT
  5
2B4
  8
┌▓È_1
  6
CONTINUOUS
 10
940.18231101200001
 20
-365.91501435773711
 30
0.0
 40
4.674999999999998
  1
ü@ö┬ ü@î·
  0
ENDBLK
  5
2B6
  8
0
  0
BLOCK
  8
0
  2
*U40
 70
     1
 10
0.0
 20
0.0
 30
0.0
  3
*U40
  1

  0
TEXT
  5
2B8
  8
┌▓È_1
  6
CONTINUOUS
 10
908.18231101200001
 20
-365.82009049986908
 30
0.0
 40
4.674999999999998
  1
ü@ìÌ ü@Ä┐
  0
ENDBLK
  5
2BA
  8
0
  0
BLOCK
  8
0
  2
*U41
 70
     1
 10
0.0
 20
0.0
 30
0.0
  3
*U41
  1

  0
TEXT
  5
2BC
  8
┌▓È_1
  6
CONTINUOUS
 62
     5
 10
949.04589218127819
 20
-391.15397374859998
 30
0.0
 40
4.674999999999998
  1
1üF2
  0
ENDBLK
  5
2BE
  8
0
  0
BLOCK
  8
0
  2
*U42
 70
     1
 10
0.0
 20
0.0
 30
0.0
  3
*U42
  1

  0
TEXT
  5
2C0
  8
┌▓È_1
  6
CONTINUOUS
 62
     5
 10
949.25947086148085
 20
-374.15397374860009
 30
0.0
 40
4.674999999999998
  1
4.5t
  0
ENDBLK
  5
2C2
  8
0
  0
BLOCK
  8
0
  2
*U43
 70
     1
 10
0.0
 20
0.0
 30
0.0
  3
*U43
  1

  0
TEXT
  5
2C4
  8
┌▓È_1
  6
CONTINUOUS
 62
     5
 10
920.45128558229305
 20
-374.438745322204
 30
0.0
 40
4.674999999999998
  1
ôS
  0
ENDBLK
  5
2C6
  8
0
  0
BLOCK
  8
0
  2
*U44
 70
     1
 10
0.0
 20
0.0
 30
0.0
  3
*U44
  1

  0
TEXT
  5
2C8
  8
┌▓È_1
  6
CONTINUOUS
 62
     5
 10
883.62203431325793
 20
-374.15397374860009
 30
0.0
 40
4.674999999999998
  1
H16.4
  0
ENDBLK
  5
2CA
  8
0
  0
BLOCK
  8
0
  2
*U45
 70
     1
 10
0.0
 20
0.0
 30
0.0
  3
*U45
  1

  0
TEXT
  5
2CC
  8
┌▓È_1
  6
CONTINUOUS
 10
1005.0325382968
 20
-399.76229327040198
 30
0.0
 40
4.674999999999998
  1
É}öÈ
  0
ENDBLK
  5
2CE
  8
0
  0
BLOCK
  8
0
  2
*U46
 70
     1
 10
0.0
 20
0.0
 30
0.0
  3
*U46
  1

  0
TEXT
  5
2D0
  8
┌▓È_1
  6
CONTINUOUS
 10
1005.0325382968
 20
-382.809755199336
 30
0.0
 40
4.674999999999998
  1
òiû╝
  0
ENDBLK
  5
2D2
  8
0
  0
BLOCK
  8
0
  2
*U47
 70
     1
 10
0.0
 20
0.0
 30
0.0
  3
*U47
  1

  0
TEXT
  5
2D4
  8
┌▓È_1
  6
CONTINUOUS
 10
1005.0325382968
 20
-365.7622932704021
 30
0.0
 40
4.674999999999998
  1
î^öÈ
  0
ENDBLK
  5
2D6
  8
0
  0
BLOCK
  8
0
  2
*U48
 70
     1
 10
0.0
 20
0.0
 30
0.0
  3
*U48
  1

  0
TEXT
  5
2D8
  8
┌▓È_1
  6
CONTINUOUS
 10
876.18231101199979
 20
-365.74889760646801
 30
0.0
 40
4.674999999999998
  1
ü@ô· ü@òt
  0
ENDBLK
  5
2DA
  8
0
  0
BLOCK
  8
0
  2
*U49
 70
     1
 10
0.0
 20
0.0
 30
0.0
  3
*U49
  1

  0
TEXT
  5
2DC
  8
┌▓È_1
  6
CONTINUOUS
 10
875.25153938940002
 20
-391.43874532220411
 30
0.0
 40
4.674999999999998
  1
 É╗É}ü@ü@ è¦û{
  0
ENDBLK
  5
2DE
  8
0
  0
BLOCK
  8
0
  2
*U50
 70
     1
 10
0.0
 20
0.0
 30
0.0
  3
*U50
  1

  0
TEXT
  5
2E0
  8
┌▓È_1
  6
CONTINUOUS
 10
875.25153938940002
 20
-382.91501435773711
 30
0.0
 40
4.674999999999998
  1
 É¦îvü@ü@öÆÉ{ëÛ
  0
ENDBLK
  5
2E2
  8
0
  0
BLOCK
  8
0
  2
*D51
 70
     1
 10
0.0
 20
0.0
 30
0.0
  3
*D51
  1

  0
LINE
  5
5B2
  8
Éíû@É³
 62
     0
 10
944.74259585887569
 20
-179.32308483942401
 30
0.0
 11
924.10255157821257
 21
-199.96312911999269
 31
0.0
  0
LINE
  5
5B3
  8
Éíû@É³
 62
     0
 10
988.39164437832437
 20
-179.32308483942401
 30
0.0
 11
1009.031688658987
 21
-199.96312911999229
 31
0.0
  0
ARC
  5
5B4
  8
Éíû@É³
 62
     0
 10
966.56712011859986
 20
-157.4985605798
 30
0.0
 40
59.873968749999939
 50
225.1722492162049
 51
269.65262874980579
  0
ARC
  5
5B5
  8
Éíû@É³
 62
     0
 10
966.56712011859986
 20
-157.4985605798
 30
0.0
 40
59.873968749999939
 50
270.34737125019421
 51
314.82775078379558
  0
SOLID
  5
5B6
  8
Éíû@É³
 62
     0
 10
924.33611990366501
 20
-199.9841827217507
 30
0.0
 11
924.3784824890372
 21
-199.94169258924251
 31
0.0
 12
924.22983079882636
 22
-199.83584989937941
 32
0.0
 13
924.22983079882636
 23
-199.83584989937941
 33
0.0
  0
SOLID
  5
5B7
  8
Éíû@É³
 62
     0
 10
1008.755757748162
 20
-199.941692589242
 30
0.0
 11
1008.7981203335351
 21
-199.9841827217503
 31
0.0
 12
1008.904409438373
 22
-199.83584989937901
 32
0.0
 13
1008.904409438373
 23
-199.83584989937901
 33
0.0
  0
TEXT
  8
Éíû@É³
  40
0.18
  5
5E3
  62
0
  72
0
  71
0
 10
966.207
 20
-217.691
 30
0.000000
  1
90üï
  0
POINT
  5
5B9
  8
DEFPOINTS
 62
     0
 10
966.56712011859986
 20
-157.4985605798
 30
0.0
  0
POINT
  5
5BA
  8
DEFPOINTS
 62
     0
 10
944.78679003269997
 20
-179.27889066559999
 30
0.0
  0
POINT
  5
5BB
  8
DEFPOINTS
 62
     0
 10
988.34745020449998
 20
-179.27889066559999
 30
0.0
  0
POINT
  5
5BC
  8
DEFPOINTS
 62
     0
 10
951.0705967001827
 20
-215.33237331783781
 30
0.0
  0
ENDBLK
  5
5BE
  8
0
  0
BLOCK
  8
0
  2
*D52
 70
     1
 10
0.0
 20
0.0
 30
0.0
  3
*D52
  1

  0
LINE
  5
5C0
  8
Éíû@É³
 62
     0
 10
988.39164437832414
 20
-155.6740363200758
 30
0.0
 11
1018.3762327512439
 21
-125.68944794715649
 31
0.0
  0
LINE
  5
5C1
  8
Éíû@É³
 62
     0
 10
944.74259585887592
 20
-155.6740363200758
 30
0.0
 11
914.75800748595634
 21
-125.6894479471559
 31
0.0
  0
ARC
  5
5C2
  8
Éíû@É³
 62
     0
 10
966.56712011859986
 20
-177.4985605798
 30
0.0
 40
73.08914973960006
 50
45.141104978719419
 51
89.715437194958412
  0
ARC
  5
5C3
  8
Éíû@É³
 62
     0
 10
966.56712011859986
 20
-177.4985605798
 30
0.0
 40
73.08914973960006
 50
90.284562805041574
 51
134.85889502127989
  0
SOLID
  5
5C4
  8
Éíû@É³
 62
     0
 10
1018.142704744315
 20
-125.66836546312059
 30
0.0
 11
1018.100330612337
 21
-125.7108440805553
 31
0.0
 12
1018.24895353063
 22
-125.8167271677701
 32
0.0
 13
1018.24895353063
 23
-125.8167271677701
 33
0.0
  0
SOLID
  5
5C5
  8
Éíû@É³
 62
     0
 10
915.03390962486264
 20
-125.71084408055469
 30
0.0
 11
914.99153549288519
 21
-125.66836546312
 31
0.0
 12
914.8852867065699
 22
-125.8167271677695
 32
0.0
 13
914.8852867065699
 23
-125.8167271677695
 33
0.0
  0
TEXT
  8
Éíû@É³
  40
0.18
  5
5E4
  62
0
  72
0
  71
0
 10
966.207
 20
-104.728
 30
0.000000
  1
90üï
  0
POINT
  5
5C7
  8
DEFPOINTS
 62
     0
 10
966.56712011859986
 20
-177.4985605798
 30
0.0
  0
POINT
  5
5C8
  8
DEFPOINTS
 62
     0
 10
988.34745020449998
 20
-155.71823049389999
 30
0.0
  0
POINT
  5
5C9
  8
DEFPOINTS
 62
     0
 10
944.78679003269997
 20
-155.71823049389999
 30
0.0
  0
POINT
  5
5CA
  8
DEFPOINTS
 62
     0
 10
985.48398406155854
 20
-106.8998632248114
 30
0.0
  0
ENDBLK
  5
5CC
  8
0
  0
BLOCK
  8
0
  2
*D53
 70
     1
 10
0.0
 20
0.0
 30
0.0
  3
*D53
  1

  0
LINE
  5
5CE
  8
Éíû@É³
 62
     0
 10
761.3063923005999
 20
-201.74543557979999
 30
0.0
 11
720.59572670223292
 21
-201.74543557979999
 31
0.0
  0
LINE
  5
5CF
  8
Éíû@É³
 62
     0
 10
675.86889230059978
 20
-116.3079355798
 30
0.0
 11
675.86889230059978
 21
-157.0186011781669
 31
0.0
  0
ARC
  5
5D0
  8
Éíû@É³
 62
     0
 10
675.86889230059978
 20
-201.7454355798001
 30
0.0
 40
44.906834401633112
 50
0.2296587446842031
 51
44.804725493677971
  0
ARC
  5
5D1
  8
Éíû@É³
 62
     0
 10
675.86889230059978
 20
-201.7454355798001
 30
0.0
 40
44.906834401633112
 50
45.455783352026792
 51
89.770341255315842
  0
SOLID
  5
5D2
  8
Éíû@É³
 62
     0
 10
720.80536589511257
 20
-201.56537581681721
 30
0.0
 11
720.74536601561113
 21
-201.56549606577431
 31
0.0
 12
720.77572670223299
 22
-201.74543557979999
 32
0.0
 13
720.77572670223299
 23
-201.74543557979999
 33
0.0
  0
SOLID
  5
5D3
  8
Éíû@É³
 62
     0
 10
676.0488318146256
 20
-156.8689618647887
 30
0.0
 11
676.04895206358265
 21
-156.80896198528731
 31
0.0
 12
675.86889230059978
 22
-156.83860117816701
 32
0.0
 13
675.86889230059978
 23
-156.83860117816701
 33
0.0
  0
TEXT
  8
Éíû@É³
  40
0.18
  5
5E5
  62
0
  72
0
  71
0
 10
707.191
 20
-170.239
 30
0.000000
  1
90üï
  0
POINT
  5
5D5
  8
DEFPOINTS
 62
     0
 10
675.86889230059978
 20
-201.74543557979999
 30
0.0
  0
POINT
  5
5D6
  8
DEFPOINTS
 62
     0
 10
761.36889230060001
 20
-201.74543557979999
 30
0.0
  0
POINT
  5
5D7
  8
DEFPOINTS
 62
     0
 10
675.86889230059978
 20
-116.2454355797999
 30
0.0
  0
POINT
  5
5D8
  8
DEFPOINTS
 62
     0
 10
714.75935169595505
 20
-179.2920183789835
 30
0.0
  0
ENDBLK
  5
5DA
  8
0
  0
ENDSEC
  0
SECTION
  2
ENTITIES
  0
DIMENSION
  5
3E
  8
Éíû@É³
  2
*D2
 10
761.36889230060001
 20
-285.93978193390001
 30
0.0
 11
755.36889230059978
 21
-285.93978193390001
 31
0.0
 70
   128
  1
<>
 13
761.36889230060001
 23
-305.93978193390001
 33
0.0
 14
749.36889230060001
 24
-320.93978193390001
 34
0.0
  0
LINE
  5
40
  8
┌▓È_1
 10
875.25153938940002
 20
-359.56790693390002
 30
0.0
 11
875.25153938940002
 21
-410.56790693390002
 31
0.0
  0
DIMENSION
  5
4E
  8
Éíû@É³
  2
*D51
 10
951.0705967001827
 20
-215.33237331783781
 30
0.0
 11
966.56712011859986
 21
-217.37252932979999
 31
0.0
 70
   133
  1
<>
 13
988.34745020449998
 23
-179.27889066559999
 33
0.0
 14
944.78679003269997
 24
-179.27889066559999
 34
0.0
 15
966.56712011859986
 25
-157.4985605798
 35
0.0
1001
ACAD
1000
DSTYLE
1002
{
1070
   271
1070
     0
1070
   271
1070
     0
1002
}
  0
DIMENSION
  5
5B
  8
Éíû@É³
  2
*D52
 10
985.48398406155854
 20
-106.8998632248114
 30
0.0
 11
966.56712011859986
 21
-104.4094108402
 31
0.0
 70
   133
  1
<>
 13
944.78679003269997
 23
-155.71823049389999
 33
0.0
 14
988.34745020449998
 24
-155.71823049389999
 34
0.0
 15
966.56712011859986
 25
-177.4985605798
 35
0.0
1001
ACAD
1000
DSTYLE
1002
{
1070
   271
1070
     0
1070
   271
1070
     0
1002
}
  0
DIMENSION
  5
68
  8
Éíû@É³
  2
*D53
 10
714.75935169595505
 20
-179.2920183789835
 30
0.0
 11
707.55106505909976
 21
-169.91991586249989
 31
0.0
 70
   133
  1
<>
 13
675.86889230059978
 23
-116.2454355798
 33
0.0
 14
761.36889230060001
 24
-201.74543557979999
 34
0.0
 15
675.86889230059978
 25
-201.74543557979999
 35
0.0
1001
ACAD
1000
DSTYLE
1002
{
1070
   271
1070
     0
1070
   271
1070
     0
1002
}
  0
DIMENSION
  5
78
  8
Éíû@É³
  2
*D6
 10
653.55167542740003
 20
-116.2454355798
 30
0.0
 11
653.55167542740003
 21
-161.24543557979999
 31
0.0
 70
   128
  1
<>
 13
671.3688923005999
 23
-116.2454355798
 33
0.0
 14
675.86889230059978
 24
-206.24543557979999
 34
0.0
 50
90.0
  0
DIMENSION
  5
87
  8
Éíû@É³
  2
*D7
 10
671.3688923005999
 20
-224.06265245290001
 30
0.0
 11
716.36889230060001
 21
-224.06265245290001
 31
0.0
 70
   128
  1
<>
 13
671.3688923005999
 23
-201.74543557979999
 33
0.0
 14
761.36889230060001
 24
-206.24543557979999
 34
0.0
 50
180.0
  0
DIMENSION
  5
96
  8
Éíû@É³
  2
*D8
 10
871.11141178529999
 20
-80.520869173500003
 30
0.0
 11
855.11141178529999
 21
-80.520869173500003
 31
0.0
 70
   128
  1
<>
 13
871.11141178529999
 23
-116.2454355798
 33
0.0
 14
839.11141178529999
 24
-116.2454355798
 34
0.0
  0
DIMENSION
  5
A5
  8
Éíû@É³
  2
*D9
 10
945.31712011859997
 20
-201.1642448245
 30
0.0
 11
966.56712011859986
 21
-201.1642448245
 31
0.0
 70
   128
  1
%%c8.5
 13
945.31712011859997
 23
-178.7485605798
 33
0.0
 14
987.81712011859986
 24
-178.7485605798
 34
0.0
 50
180.0
  0
DIMENSION
  5
B4
  8
Éíû@É³
  2
*D10
 10
987.81712011859986
 20
-118.4846061527
 30
0.0
 11
966.56712011859986
 21
-118.4846061527
 31
0.0
 70
   128
  1
%%c8.5
 13
987.81712011859986
 23
-156.2485605798
 33
0.0
 14
945.31712011859997
 24
-156.2485605798
 34
0.0
  0
DIMENSION
  5
C3
  8
Éíû@É³
  2
*D11
 10
979.06712011859986
 20
-131.38686852250001
 30
0.0
 11
966.56712011859986
 21
-131.38686852250001
 31
0.0
 70
   128
  1
%%c5
 13
979.06712011859986
 23
-164.9985605798
 33
0.0
 14
954.06712011859986
 24
-164.9985605798
 34
0.0
  0
DIMENSION
  5
D2
  8
Éíû@É³
  2
*D12
 10
652.80121386860003
 20
-305.93978193390001
 30
0.0
 11
652.80121386860003
 21
-321.93978193390001
 31
0.0
 70
   128
  1
<>
 13
671.3688923005999
 23
-305.93978193390001
 33
0.0
 14
671.3688923005999
 24
-337.93978193390001
 34
0.0
 50
90.0
  0
DIMENSION
  5
E1
  8
Éíû@É³
  2
*D13
 10
675.86889230059978
 20
-89.187442365600006
 30
0.0
 11
691.87160614809966
 21
-89.187442365600006
 31
0.0
 70
   128
  1
<>t
 13
675.86889230059978
 23
-116.2454355798
 33
0.0
 14
671.3688923005999
 24
-116.2454355798
 34
0.0
  0
INSERT
  5
E2
  8
0
  6
CONTINUOUS
  2
*U32
 10
0.0
 20
0.0
 30
0.0
  0
LINE
  5
E3
  8
┌▓È_1
 10
948.67152636859987
 20
-239.31634443390001
 30
0.0
 11
991.5020499888999
 21
-239.31634443390001
 31
0.0
  0
DIMENSION
  5
F2
  8
Éíû@É³
  2
*D14
 10
850.11141178529988
 20
-96.245435579800002
 30
0.0
 11
844.61141178529977
 21
-96.245435579800002
 31
0.0
 70
   128
  1
<>
 13
850.11141178529988
 23
-122.2454355798
 33
0.0
 14
839.11141178529999
 24
-116.2454355798
 34
0.0
  0
DIMENSION
  5
101
  8
Éíû@É³
  2
*D15
 10
860.11141178529988
 20
-96.245435579800002
 30
0.0
 11
855.11141178529999
 21
-96.245435579800002
 31
0.0
 70
   128
  1
<>
 13
860.11141178529988
 23
-180.24543557979999
 33
0.0
 14
850.11141178529988
 24
-122.2454355798
 34
0.0
  0
DIMENSION
  5
110
  8
Éíû@É³
  2
*D16
 10
871.11141178529999
 20
-96.245435579800002
 30
0.0
 11
865.61141178529999
 21
-96.245435579800002
 31
0.0
 70
   128
  1
<>
 13
871.11141178529999
 23
-116.2454355798
 33
0.0
 14
860.11141178529988
 24
-180.24543557979999
 34
0.0
  0
DIMENSION
  5
11F
  8
Éíû@É³
  2
*D17
 10
819.11141178529999
 20
-186.24543557979999
 30
0.0
 11
819.11141178529999
 21
-196.24543557979999
 31
0.0
 70
   128
  1
<>
 13
854.11141178529999
 23
-186.24543557979999
 33
0.0
 14
839.11141178529999
 24
-206.24543557979999
 34
0.0
 50
90.0
  0
DIMENSION
  5
12E
  8
Éíû@É³
  2
*D18
 10
819.11141178529999
 20
-128.24543557979999
 30
0.0
 11
819.11141178529999
 21
-157.24543557979999
 31
0.0
 70
   128
  1
<>
 13
844.11141178529999
 23
-128.24543557979999
 33
0.0
 14
854.11141178529999
 24
-186.24543557979999
 34
0.0
 50
90.0
  0
DIMENSION
  5
13D
  8
Éíû@É³
  2
*D19
 10
819.11141178529999
 20
-116.2454355798
 30
0.0
 11
819.11141178529999
 21
-122.2454355798
 31
0.0
 70
   128
  1
<>
 13
839.11141178529999
 23
-116.2454355798
 33
0.0
 14
844.11141178529999
 24
-128.24543557979999
 34
0.0
 50
90.0
  0
DIMENSION
  5
14C
  8
Éíû@É³
  2
*D20
 10
781.36889230060001
 20
-316.93978193390001
 30
0.0
 11
781.36889230060001
 21
-311.43978193390001
 31
0.0
 70
   128
  1
<>
 13
697.36889230060001
 23
-316.93978193390001
 33
0.0
 14
761.36889230060001
 24
-305.93978193390001
 34
0.0
 50
90.0
  0
DIMENSION
  5
15B
  8
Éíû@É³
  2
*D21
 10
781.36889230060001
 20
-326.93978193390001
 30
0.0
 11
781.36889230060001
 21
-321.93978193390001
 31
0.0
 70
   128
  1
<>
 13
755.36889230059978
 23
-326.93978193390001
 33
0.0
 14
697.36889230060001
 24
-316.93978193390001
 34
0.0
 50
90.0
  0
DIMENSION
  5
16A
  8
Éíû@É³
  2
*D22
 10
781.36889230060001
 20
-337.93978193390001
 30
0.0
 11
781.36889230060001
 21
-332.43978193390001
 31
0.0
 70
   128
  1
<>
 13
761.36889230060001
 23
-337.93978193390001
 33
0.0
 14
755.36889230059978
 24
-326.93978193390001
 34
0.0
 50
90.0
  0
DIMENSION
  5
179
  8
Éíû@É³
  2
*D23
 10
691.36889230060001
 20
-285.93978193390001
 30
0.0
 11
681.36889230060001
 21
-285.93978193390001
 31
0.0
 70
   128
  1
<>
 13
691.36889230060001
 23
-310.93978193390001
 33
0.0
 14
671.3688923005999
 24
-305.93978193390001
 34
0.0
  0
DIMENSION
  5
188
  8
Éíû@É³
  2
*D24
 10
749.36889230060001
 20
-285.93978193390001
 30
0.0
 11
720.36889230060001
 21
-285.93978193390001
 31
0.0
 70
   128
  1
<>
 13
749.36889230060001
 23
-320.93978193390001
 33
0.0
 14
691.36889230060001
 24
-310.93978193390001
 34
0.0
  0
LINE
  5
189
  8
┌▓È_1
 62
     5
 10
979.4508840556
 20
-406.07163018689999
 30
0.0
 11
985.51381738899988
 21
-406.07163018689999
 31
0.0
  0
LINE
  5
18A
  8
┌▓È_1
 62
     5
 10
987.98042702529995
 20
-399.03163018689997
 30
0.0
 11
987.74619622499995
 21
-398.21766396219999
 31
0.0
  0
LINE
  5
18B
  8
┌▓È_1
 62
     5
 10
975.90291181839984
 20
-396.3116301869
 30
0.0
 11
961.50291181839987
 21
-396.3116301869
 31
0.0
  0
LINE
  5
18C
  8
┌▓È_1
 62
     5
 10
943.64594212139991
 20
-404.3116301869
 30
0.0
 11
947.64594212140003
 21
-404.3116301869
 31
0.0
  0
LINE
  5
18D
  8
┌▓È_1
 62
     5
 10
954.84594212139984
 20
-398.71163018689998
 30
0.0
 11
957.24594212140005
 21
-396.3116301869
 31
0.0
  0
LINE
  5
18E
  8
┌▓È_1
 10
875.25153938940002
 20
-393.56790693390002
 30
0.0
 11
1115.2515393894
 21
-393.56790693390002
 31
0.0
  0
LINE
  5
18F
  8
┌▓È_1
 10
875.25153938940002
 20
-359.56790693390002
 30
0.0
 11
1115.2515393894
 21
-359.56790693390002
 31
0.0
  0
INSERT
  5
190
  8
0
  6
CONTINUOUS
  2
*U33
 10
0.0
 20
0.0
 30
0.0
  0
INSERT
  5
191
  8
0
  6
CONTINUOUS
  2
*U34
 10
0.0
 20
0.0
 30
0.0
  0
LINE
  5
192
  8
┌▓È_1
 62
     5
 10
1115.2515393894
 20
-410.56790693390002
 30
0.0
 11
1115.2515393894
 21
-30.567906933900002
 31
0.0
  0
LINE
  5
193
  8
┌▓È_1
 62
     5
 10
565.25153938940002
 20
-410.56790693390002
 30
0.0
 11
1115.2515393894
 21
-410.56790693390002
 31
0.0
  0
LINE
  5
194
  8
┌▓È_1
 62
     5
 10
565.25153938940002
 20
-30.567906933900002
 30
0.0
 11
1115.2515393894
 21
-30.567906933900002
 31
0.0
  0
LINE
  5
195
  8
┌▓È_1
 10
1003.2515393894
 20
-376.56790693390002
 30
0.0
 11
1115.2515393894
 21
-376.56790693390002
 31
0.0
  0
LINE
  5
196
  8
┌▓È_1
 62
     5
 10
565.25153938940002
 20
-410.56790693390002
 30
0.0
 11
565.25153938940002
 21
-30.567906933900002
 31
0.0
  0
LINE
  5
197
  8
┌▓È_1
 62
     5
 10
974.30291181839993
 20
-398.71163018689998
 30
0.0
 11
975.90291181839984
 21
-396.3116301869
 31
0.0
  0
LINE
  5
198
  8
┌▓È_1
 62
     5
 10
988.80918955200002
 20
-401.91163018690003
 30
0.0
 11
993.85088405559998
 21
-401.91163018690003
 31
0.0
  0
LINE
  5
199
  8
┌▓È_1
 62
     5
 10
950.84594212139984
 20
-396.3116301869
 30
0.0
 11
950.84594212139984
 21
-399.51163018690011
 31
0.0
  0
ARC
  5
19A
  8
┌▓È_1
 62
     5
 10
948.44594212139975
 20
-402.71163018689998
 30
0.0
 40
2.399999999999999
 50
270.0
 51
0.0
  0
LINE
  5
19B
  8
┌▓È_1
 62
     5
 10
968.76101180509988
 20
-401.94214363510002
 30
0.0
 11
968.37605851499995
 21
-402.36732501199992
 31
0.0
  0
LINE
  5
19C
  8
┌▓È_1
 62
     5
 10
961.50291181839987
 20
-400.02700661489979
 30
0.0
 11
967.90291181839984
 21
-400.02700661489979
 31
0.0
  0
LINE
  5
19D
  8
┌▓È_1
 62
     5
 10
954.84594212139984
 20
-402.71163018689998
 30
0.0
 11
954.84594212139984
 21
-401.91163018690003
 31
0.0
  0
LINE
  5
19E
  8
┌▓È_1
 62
     5
 10
979.4508840556
 20
-399.03163018689997
 30
0.0
 11
979.4508840556
 21
-401.91163018690003
 31
0.0
  0
LINE
  5
19F
  8
┌▓È_1
 10
971.25153938939991
 20
-359.56790693390002
 30
0.0
 11
971.25153938939991
 21
-393.56790693390002
 31
0.0
  0
LINE
  5
1A0
  8
┌▓È_1
 10
907.25153938940014
 20
-359.56790693390002
 30
0.0
 11
907.25153938940014
 21
-376.56790693390002
 31
0.0
  0
LINE
  5
1A1
  8
┌▓È_1
 10
1003.2515393894
 20
-359.56790693390002
 30
0.0
 11
1003.2515393894
 21
-410.56790693390002
 31
0.0
  0
LINE
  5
1A2
  8
┌▓È_1
 62
     5
 10
983.44875072229968
 20
-399.03163018689997
 30
0.0
 11
982.65088405560005
 21
-396.3116301869
 31
0.0
  0
LINE
  5
1A3
  8
┌▓È_1
 62
     5
 10
987.98042702529995
 20
-399.03163018689997
 30
0.0
 11
993.85088405559998
 21
-399.03163018689997
 31
0.0
  0
INSERT
  5
1A4
  8
0
  6
CONTINUOUS
  2
*U35
 10
0.0
 20
0.0
 30
0.0
  0
LINE
  5
1A5
  8
┌▓È_1
 62
     5
 10
943.64594212139991
 20
-401.91163018690003
 30
0.0
 11
943.64594212139991
 21
-404.3116301869
 31
0.0
  0
LINE
  5
1A6
  8
┌▓È_1
 62
     5
 10
972.48326278169986
 20
-404.07024012129989
 30
0.0
 11
972.19829948610015
 21
-404.34924515199992
 31
0.0
  0
INSERT
  5
1A7
  8
0
  6
CONTINUOUS
  2
*U36
 10
0.0
 20
0.0
 30
0.0
  0
LINE
  5
1A8
  8
┌▓È_1
 62
     5
 10
961.50291181839987
 20
-405.11163018690002
 30
0.0
 11
961.50291181839987
 21
-407.51163018689999
 31
0.0
  0
LINE
  5
1A9
  8
┌▓È_1
 62
     5
 10
961.50291181839987
 20
-405.11163018690002
 30
0.0
 11
963.42291181839983
 21
-405.11163018690002
 31
0.0
  0
LINE
  5
1AA
  8
┌▓È_1
 62
     5
 10
982.65088405560005
 20
-396.3116301869
 30
0.0
 11
989.05088405560002
 21
-396.3116301869
 31
0.0
  0
LINE
  5
1AB
  8
┌▓È_1
 62
     5
 10
974.30291181839993
 20
-398.71163018689998
 30
0.0
 11
975.90291181839984
 21
-396.3116301869
 31
0.0
  0
LINE
  5
1AC
  8
┌▓È_1
 62
     5
 10
943.64594212139991
 20
-407.51163018689999
 30
0.0
 11
950.04594212139989
 21
-407.51163018689999
 31
0.0
  0
LINE
  5
1AD
  8
┌▓È_1
 62
     5
 10
961.50291181839987
 20
-407.51163018689999
 30
0.0
 11
965.50291181839998
 21
-407.51163018689999
 31
0.0
  0
ARC
  5
1AE
  8
┌▓È_1
 62
     5
 10
963.42291181839983
 20
-399.03163018689997
 30
0.0
 40
6.0800000000000001
 50
331.39928138329998
 51
358.49204224580001
  0
LINE
  5
1AF
  8
┌▓È_1
 62
     5
 10
954.84594212139984
 20
-401.91163018690003
 30
0.0
 11
957.24594212140005
 21
-401.91163018690003
 31
0.0
  0
ARC
  5
1B0
  8
┌▓È_1
 62
     5
 10
965.50291181839998
 20
-398.71163018689998
 30
0.0
 40
8.8000000000000007
 50
270.0
 51
302.54495885400001
  0
LINE
  5
1B1
  8
┌▓È_1
 62
     5
 10
941.80417602290004
 20
-401.91163018690003
 30
0.0
 11
943.40417602289995
 21
-401.91163018690003
 31
0.0
  0
LINE
  5
1B2
  8
┌▓È_1
 62
     5
 10
979.4508840556
 20
-403.19163018689989
 30
0.0
 11
984.66901738899992
 21
-403.19163018689989
 31
0.0
  0
LINE
  5
1B3
  8
┌▓È_1
 62
     5
 10
957.24594212140005
 20
-399.51163018690011
 30
0.0
 11
954.84594212139984
 21
-399.51163018690011
 31
0.0
  0
LINE
  5
1B4
  8
┌▓È_1
 62
     5
 10
954.84594212139984
 20
-399.51163018690011
 30
0.0
 11
954.84594212139984
 21
-398.71163018689998
 31
0.0
  0
LINE
  5
1B5
  8
┌▓È_1
 62
     5
 10
979.4508840556
 20
-399.03163018689997
 30
0.0
 11
983.44875072229968
 21
-399.03163018689997
 31
0.0
  0
LINE
  5
1B6
  8
┌▓È_1
 62
     5
 10
950.84594212139984
 20
-401.91163018690003
 30
0.0
 11
950.84594212139984
 21
-402.71163018689998
 31
0.0
  0
LINE
  5
1B7
  8
┌▓È_1
 62
     5
 10
947.64594212140003
 20
-401.91163018690003
 30
0.0
 11
950.84594212139984
 21
-401.91163018690003
 31
0.0
  0
LINE
  5
1B8
  8
┌▓È_1
 62
     5
 10
990.65088405559982
 20
-408.3116301869
 30
0.0
 11
990.00629097939998
 21
-406.07163018689999
 31
0.0
  0
LINE
  5
1B9
  8
┌▓È_1
 62
     5
 10
989.17752845270002
 20
-403.19163018689989
 30
0.0
 11
993.85088405559998
 21
-403.19163018689989
 31
0.0
  0
ARC
  5
1BA
  8
┌▓È_1
 62
     5
 10
965.50291181839998
 20
-398.71163018689998
 30
0.0
 40
8.8000000000000007
 50
322.48761197969998
 51
0.0
  0
LINE
  5
1BB
  8
┌▓È_1
 62
     5
 10
986.17088405560003
 20
-408.3116301869
 30
0.0
 11
990.65088405559982
 21
-408.3116301869
 31
0.0
  0
LINE
  5
1BC
  8
┌▓È_1
 62
     5
 10
947.64594212140003
 20
-399.51163018690011
 30
0.0
 11
947.64594212140003
 21
-398.71163018689998
 31
0.0
  0
LINE
  5
1BD
  8
┌▓È_1
 62
     5
 10
961.50291181839987
 20
-407.51163018689999
 30
0.0
 11
961.50291181839987
 21
-405.11163018690002
 31
0.0
  0
LINE
  5
1BE
  8
┌▓È_1
 62
     5
 10
943.64594212139991
 20
-399.51163018690011
 30
0.0
 11
941.80417602290004
 21
-399.51163018690011
 31
0.0
  0
LINE
  5
1BF
  8
┌▓È_1
 62
     5
 10
993.85088405559998
 20
-403.19163018689989
 30
0.0
 11
993.85088405559998
 21
-406.07163018689999
 31
0.0
  0
LINE
  5
1C0
  8
┌▓È_1
 62
     5
 10
984.66901738899992
 20
-403.19163018689989
 30
0.0
 11
984.29355072230021
 21
-401.91163018690003
 31
0.0
  0
LINE
  5
1C1
  8
┌▓È_1
 62
     5
 10
943.64594212139991
 20
-401.91163018690003
 30
0.0
 11
943.40417602289995
 21
-401.91163018690003
 31
0.0
  0
LINE
  5
1C2
  8
┌▓È_1
 62
     5
 10
943.64594212139991
 20
-405.11163018690002
 30
0.0
 11
943.64594212139991
 21
-407.51163018689999
 31
0.0
  0
LINE
  5
1C3
  8
┌▓È_1
 62
     5
 10
989.17752845270002
 20
-403.19163018689989
 30
0.0
 11
988.80918955200002
 21
-401.91163018690003
 31
0.0
  0
LINE
  5
1C4
  8
┌▓È_1
 62
     5
 10
986.17088405560003
 20
-408.3116301869
 30
0.0
 11
985.51381738899988
 21
-406.07163018689999
 31
0.0
  0
LINE
  5
1C5
  8
┌▓È_1
 62
     5
 10
948.44594212139975
 20
-405.11163018690002
 30
0.0
 11
943.64594212139991
 21
-405.11163018690002
 31
0.0
  0
LINE
  5
1C6
  8
┌▓È_1
 62
     5
 10
961.50291181839987
 20
-399.1916301869
 30
0.0
 11
969.50291181839987
 21
-399.1916301869
 31
0.0
  0
LINE
  5
1C7
  8
┌▓È_1
 62
     5
 10
993.85088405559998
 20
-399.03163018689997
 30
0.0
 11
993.85088405559998
 21
-401.91163018690003
 31
0.0
  0
LINE
  5
1C8
  8
┌▓È_1
 62
     5
 10
979.4508840556
 20
-401.91163018690003
 30
0.0
 11
984.29355072230021
 21
-401.91163018690003
 31
0.0
  0
LINE
  5
1C9
  8
┌▓È_1
 62
     5
 10
979.4508840556
 20
-403.19163018689989
 30
0.0
 11
979.4508840556
 21
-406.07163018689999
 31
0.0
  0
LINE
  5
1CA
  8
┌▓È_1
 62
     5
 10
947.64594212140003
 20
-404.3116301869
 30
0.0
 11
947.64594212140003
 21
-401.91163018690003
 31
0.0
  0
LINE
  5
1CB
  8
┌▓È_1
 62
     5
 10
990.00629097939998
 20
-406.07163018689999
 30
0.0
 11
993.85088405559998
 21
-406.07163018689999
 31
0.0
  0
LINE
  5
1CC
  8
┌▓È_1
 62
     5
 10
957.24594212140005
 20
-396.3116301869
 30
0.0
 11
950.84594212139984
 21
-396.3116301869
 31
0.0
  0
LINE
  5
1CD
  8
┌▓È_1
 62
     5
 10
961.50291181839987
 20
-396.3116301869
 30
0.0
 11
961.50291181839987
 21
-399.1916301869
 31
0.0
  0
ARC
  5
1CE
  8
┌▓È_1
 62
     5
 10
950.04594212139989
 20
-402.71163018689998
 30
0.0
 40
4.799999999999998
 50
270.0
 51
0.0
  0
LINE
  5
1CF
  8
┌▓È_1
 62
     5
 10
987.74619622499995
 20
-398.21766396219999
 30
0.0
 11
989.05088405560002
 21
-396.3116301869
 31
0.0
  0
LINE
  5
1D0
  8
┌▓È_1
 62
     5
 10
950.84594212139984
 20
-399.51163018690011
 30
0.0
 11
947.64594212140003
 21
-399.51163018690011
 31
0.0
  0
LINE
  5
1D1
  8
┌▓È_1
 62
     5
 10
950.04594212139989
 20
-396.3116301869
 30
0.0
 11
943.64594212139991
 21
-396.3116301869
 31
0.0
  0
LINE
  5
1D2
  8
┌▓È_1
 62
     5
 10
947.64594212140003
 20
-398.71163018689998
 30
0.0
 11
950.04594212139989
 21
-396.3116301869
 31
0.0
  0
LINE
  5
1D3
  8
┌▓È_1
 62
     5
 10
943.64594212139991
 20
-396.3116301869
 30
0.0
 11
943.64594212139991
 21
-399.51163018690011
 31
0.0
  0
INSERT
  5
1D4
  8
0
  6
CONTINUOUS
  2
*U37
 10
0.0
 20
0.0
 30
0.0
  0
INSERT
  5
1D5
  8
0
  6
CONTINUOUS
  2
*U38
 10
0.0
 20
0.0
 30
0.0
  0
INSERT
  5
1D6
  8
0
  6
CONTINUOUS
  2
*U39
 10
0.0
 20
0.0
 30
0.0
  0
INSERT
  5
1D7
  8
0
  6
CONTINUOUS
  2
*U40
 10
0.0
 20
0.0
 30
0.0
  0
INSERT
  5
1D8
  8
0
  6
CONTINUOUS
  2
*U41
 10
0.0
 20
0.0
 30
0.0
  0
ARC
  5
1D9
  8
┌▓È_1
 62
     5
 10
963.42291181839983
 20
-399.03163018689997
 30
0.0
 40
6.0800000000000001
 50
270.0
 51
298.08590481520002
  0
INSERT
  5
1DA
  8
0
  6
CONTINUOUS
  2
*U42
 10
0.0
 20
0.0
 30
0.0
  0
INSERT
  5
1DB
  8
0
  6
CONTINUOUS
  2
*U43
 10
0.0
 20
0.0
 30
0.0
  0
INSERT
  5
1DC
  8
0
  6
CONTINUOUS
  2
*U44
 10
0.0
 20
0.0
 30
0.0
  0
INSERT
  5
1DD
  8
0
  6
CONTINUOUS
  2
*U45
 10
0.0
 20
0.0
 30
0.0
  0
INSERT
  5
1DE
  8
0
  6
CONTINUOUS
  2
*U46
 10
0.0
 20
0.0
 30
0.0
  0
INSERT
  5
1DF
  8
0
  6
CONTINUOUS
  2
*U47
 10
0.0
 20
0.0
 30
0.0
  0
INSERT
  5
1E0
  8
0
  6
CONTINUOUS
  2
*U48
 10
0.0
 20
0.0
 30
0.0
  0
INSERT
  5
1E1
  8
0
  6
CONTINUOUS
  2
*U49
 10
0.0
 20
0.0
 30
0.0
  0
INSERT
  5
1E2
  8
0
  6
CONTINUOUS
  2
*U50
 10
0.0
 20
0.0
 30
0.0
  0
LINE
  5
1E3
  8
┌▓È_1
 10
943.25153938940002
 20
-385.06790693390002
 30
0.0
 11
967.25153938940002
 21
-385.06790693390002
 31
0.0
  0
LINE
  5
1E4
  8
┌▓È_1
 10
943.25153938940002
 20
-368.06790693390002
 30
0.0
 11
967.25153938940002
 21
-368.06790693390002
 31
0.0
  0
LINE
  5
1E5
  8
┌▓È_1
 10
879.25153938939991
 20
-385.06790693390002
 30
0.0
 11
935.25153938940002
 21
-385.06790693390002
 31
0.0
  0
LINE
  5
1E6
  8
┌▓È_1
 10
911.25153938940002
 20
-368.06790693390002
 30
0.0
 11
935.25153938940002
 21
-368.06790693390002
 31
0.0
  0
LINE
  5
1E7
  8
┌▓È_1
 10
879.25153938939991
 20
-368.06790693390002
 30
0.0
 11
903.25153938940002
 21
-368.06790693390002
 31
0.0
  0
LINE
  5
1E8
  8
┌▓È_1
 10
939.25153938939991
 20
-359.56790693390002
 30
0.0
 11
939.25153938939991
 21
-393.56790693390002
 31
0.0
  0
LINE
  5
1E9
  8
┌▓È_1
 62
     5
 10
967.90291181839984
 20
-400.02700661489979
 30
0.0
 11
966.99781513849996
 21
-400.93210329479979
 31
0.0
  0
LINE
  5
1EA
  8
┌▓È_1
 62
     5
 10
961.50291181839987
 20
-400.54238304279983
 30
0.0
 11
961.50291181839987
 21
-400.02700661489979
 31
0.0
  0
LINE
  5
1EB
  8
┌▓È_1
 62
     5
 10
941.80417602290004
 20
-399.51163018690011
 30
0.0
 11
941.80417602290004
 21
-401.91163018690003
 31
0.0
  0
LINE
  5
1EC
  8
┌▓È_1
 62
     5
 10
957.24594212140005
 20
-399.51163018690011
 30
0.0
 11
957.24594212140005
 21
-401.91163018690003
 31
0.0
  0
LINE
  5
1ED
  8
┌▓È_1
  6
STITCH
 10
673.11889230060001
 20
-130.74543557979999
 30
0.0
 11
671.3688923005999
 21
-132.49543557979999
 31
0.0
  0
LINE
  5
1EE
  8
┌▓È_1
  6
STITCH
 10
674.11889230059978
 20
-130.74543557979999
 30
0.0
 11
675.86889230059978
 21
-132.49543557979999
 31
0.0
  0
LINE
  5
1EF
  8
┌▓È_1
  6
STITCH
 10
751.86889230060001
 20
-204.49543557979999
 30
0.0
 11
753.61889230060001
 21
-206.24543557979999
 31
0.0
  0
LINE
  5
1F0
  8
┌▓È_1
  6
STITCH
 10
751.86889230060001
 20
-203.49543557979999
 30
0.0
 11
753.61889230060001
 21
-201.74543557979999
 31
0.0
  0
LINE
  5
1F1
  8
┌▓È_1
  6
STITCH
 10
746.86889230059978
 20
-204.49543557979999
 30
0.0
 11
745.11889230060001
 21
-206.24543557979999
 31
0.0
  0
LINE
  5
1F2
  8
┌▓È_1
  6
STITCH
 10
746.86889230059978
 20
-203.49543557979999
 30
0.0
 11
745.11889230060001
 21
-201.74543557979999
 31
0.0
  0
LINE
  5
1F3
  8
┌▓È_1
  6
STITCH
 10
746.86889230059978
 20
-203.49543557979999
 30
0.0
 11
746.86889230059978
 21
-204.49543557979999
 31
0.0
  0
LINE
  5
1F4
  8
┌▓È_1
  6
STITCH
 10
751.86889230060001
 20
-204.49543557979999
 30
0.0
 11
751.86889230060001
 21
-203.49543557979999
 31
0.0
  0
LINE
  5
1F5
  8
┌▓È_1
  6
STITCH
 10
751.86889230060001
 20
-203.49543557979999
 30
0.0
 11
746.86889230059978
 21
-203.49543557979999
 31
0.0
  0
LINE
  5
1F6
  8
┌▓È_1
  6
STITCH
 10
746.86889230059978
 20
-204.49543557979999
 30
0.0
 11
751.86889230060001
 21
-204.49543557979999
 31
0.0
  0
INSERT
  5
1F8
  8
┌▓È_1
  2
CLUMP0
 10
0.0
 20
0.0
 30
0.0
  0
INSERT
  5
200
  8
┌▓È_1
  2
CLUMP1
 10
0.0
 20
0.0
 30
0.0
  0
INSERT
  5
208
  8
┌▓È_1
  2
CLUMP2
 10
0.0
 20
0.0
 30
0.0
  0
LINE
  5
20F
  8
┌▓È_1
  6
BORDER
 62
     3
 10
966.56712011859986
 20
-150.7318392256
 30
0.0
 11
966.56712011859986
 21
-185.2318392256
 31
0.0
  0
LINE
  5
210
  8
┌▓È_1
 62
     5
 10
930.63699048899991
 20
-156.2485605798
 30
0.0
 11
1003.6356016001
 21
-156.2485605798
 31
0.0
  0
LINE
  5
211
  8
┌▓È_1
 62
     5
 10
930.63699048899991
 20
-178.7485605798
 30
0.0
 11
1003.6356016001
 21
-178.7485605798
 31
0.0
  0
LINE
  5
212
  8
┌▓È_1
 62
     5
 10
954.06712011859986
 20
-169.9985605798
 30
0.0
 11
979.06712011859986
 21
-169.9985605798
 31
0.0
  0
LINE
  5
213
  8
┌▓È_1
 62
     5
 10
675.86889230059978
 20
-201.74543557979999
 30
0.0
 11
761.36889230060001
 21
-201.74543557979999
 31
0.0
  0
POLYLINE
  5
2E6
  8
┌▓È_1
 62
     5
 66
     1
 10
0.0
 20
0.0
 30
0.0
 70
     8
  0
VERTEX
  5
2E7
  8
┌▓È_1
 62
     5
 10
972.19799999999998
 20
-404.34899999999999
 30
0.0
 70
    32
  0
VERTEX
  5
2E8
  8
┌▓È_1
 62
     5
 10
972.22600000000023
 20
-404.35699999999991
 30
0.0
 70
    32
  0
VERTEX
  5
2E9
  8
┌▓È_1
 62
     5
 10
972.25399999999979
 20
-404.36500000000001
 30
0.0
 70
    32
  0
VERTEX
  5
2EA
  8
┌▓È_1
 62
     5
 10
972.28199999999981
 20
-404.37299999999999
 30
0.0
 70
    32
  0
VERTEX
  5
2EB
  8
┌▓È_1
 62
     5
 10
972.30999999999995
 20
-404.38099999999991
 30
0.0
 70
    32
  0
VERTEX
  5
2EC
  8
┌▓È_1
 62
     5
 10
972.33799999999997
 20
-404.38799999999998
 30
0.0
 70
    32
  0
VERTEX
  5
2ED
  8
┌▓È_1
 62
     5
 10
972.36699999999996
 20
-404.3959999999999
 30
0.0
 70
    32
  0
VERTEX
  5
2EE
  8
┌▓È_1
 62
     5
 10
972.39499999999998
 20
-404.40399999999988
 30
0.0
 70
    32
  0
VERTEX
  5
2EF
  8
┌▓È_1
 62
     5
 10
972.423
 20
-404.41099999999989
 30
0.0
 70
    32
  0
VERTEX
  5
2F0
  8
┌▓È_1
 62
     5
 10
972.45100000000002
 20
-404.41899999999998
 30
0.0
 70
    32
  0
VERTEX
  5
2F1
  8
┌▓È_1
 62
     5
 10
972.47899999999981
 20
-404.42700000000002
 30
0.0
 70
    32
  0
VERTEX
  5
2F2
  8
┌▓È_1
 62
     5
 10
972.50800000000004
 20
-404.43400000000003
 30
0.0
 70
    32
  0
VERTEX
  5
2F3
  8
┌▓È_1
 62
     5
 10
972.53599999999994
 20
-404.44099999999997
 30
0.0
 70
    32
  0
VERTEX
  5
2F4
  8
┌▓È_1
 62
     5
 10
972.56399999999996
 20
-404.44900000000001
 30
0.0
 70
    32
  0
VERTEX
  5
2F5
  8
┌▓È_1
 62
     5
 10
972.59199999999998
 20
-404.4559999999999
 30
0.0
 70
    32
  0
VERTEX
  5
2F6
  8
┌▓È_1
 62
     5
 10
972.62100000000009
 20
-404.464
 30
0.0
 70
    32
  0
VERTEX
  5
2F7
  8
┌▓È_1
 62
     5
 10
972.64899999999977
 20
-404.471
 30
0.0
 70
    32
  0
VERTEX
  5
2F8
  8
┌▓È_1
 62
     5
 10
972.67799999999988
 20
-404.47800000000001
 30
0.0
 70
    32
  0
VERTEX
  5
2F9
  8
┌▓È_1
 62
     5
 10
972.7059999999999
 20
-404.48500000000001
 30
0.0
 70
    32
  0
VERTEX
  5
2FA
  8
┌▓È_1
 62
     5
 10
972.73399999999992
 20
-404.4919999999999
 30
0.0
 70
    32
  0
VERTEX
  5
2FB
  8
┌▓È_1
 62
     5
 10
972.76300000000015
 20
-404.49999999999989
 30
0.0
 70
    32
  0
VERTEX
  5
2FC
  8
┌▓È_1
 62
     5
 10
972.79100000000005
 20
-404.50699999999989
 30
0.0
 70
    32
  0
VERTEX
  5
2FD
  8
┌▓È_1
 62
     5
 10
972.82000000000005
 20
-404.5139999999999
 30
0.0
 70
    32
  0
VERTEX
  5
2FE
  8
┌▓È_1
 62
     5
 10
972.84800000000007
 20
-404.5209999999999
 30
0.0
 70
    32
  0
VERTEX
  5
2FF
  8
┌▓È_1
 62
     5
 10
972.87699999999995
 20
-404.52799999999991
 30
0.0
 70
    32
  0
VERTEX
  5
300
  8
┌▓È_1
 62
     5
 10
972.90599999999995
 20
-404.53500000000003
 30
0.0
 70
    32
  0
VERTEX
  5
301
  8
┌▓È_1
 62
     5
 10
972.93399999999997
 20
-404.541
 30
0.0
 70
    32
  0
VERTEX
  5
302
  8
┌▓È_1
 62
     5
 10
972.96299999999997
 20
-404.548
 30
0.0
 70
    32
  0
VERTEX
  5
303
  8
┌▓È_1
 62
     5
 10
972.99199999999985
 20
-404.55500000000001
 30
0.0
 70
    32
  0
VERTEX
  5
304
  8
┌▓È_1
 62
     5
 10
973.01999999999987
 20
-404.5619999999999
 30
0.0
 70
    32
  0
VERTEX
  5
305
  8
┌▓È_1
 62
     5
 10
973.04899999999986
 20
-404.56900000000002
 30
0.0
 70
    32
  0
VERTEX
  5
306
  8
┌▓È_1
 62
     5
 10
973.07799999999986
 20
-404.57499999999987
 30
0.0
 70
    32
  0
VERTEX
  5
307
  8
┌▓È_1
 62
     5
 10
973.10600000000011
 20
-404.58199999999988
 30
0.0
 70
    32
  0
VERTEX
  5
308
  8
┌▓È_1
 62
     5
 10
973.13499999999999
 20
-404.58899999999988
 30
0.0
 70
    32
  0
VERTEX
  5
309
  8
┌▓È_1
 62
     5
 10
973.16399999999999
 20
-404.59500000000003
 30
0.0
 70
    32
  0
VERTEX
  5
30A
  8
┌▓È_1
 62
     5
 10
973.19299999999998
 20
-404.60199999999992
 30
0.0
 70
    32
  0
VERTEX
  5
30B
  8
┌▓È_1
 62
     5
 10
973.22199999999987
 20
-404.60799999999989
 30
0.0
 70
    32
  0
VERTEX
  5
30C
  8
┌▓È_1
 62
     5
 10
973.24999999999989
 20
-404.6149999999999
 30
0.0
 70
    32
  0
VERTEX
  5
30D
  8
┌▓È_1
 62
     5
 10
973.27899999999988
 20
-404.62099999999998
 30
0.0
 70
    32
  0
VERTEX
  5
30E
  8
┌▓È_1
 62
     5
 10
973.30799999999988
 20
-404.62799999999999
 30
0.0
 70
    32
  0
VERTEX
  5
30F
  8
┌▓È_1
 62
     5
 10
973.33699999999999
 20
-404.6339999999999
 30
0.0
 70
    32
  0
VERTEX
  5
310
  8
┌▓È_1
 62
     5
 10
973.36599999999999
 20
-404.64099999999991
 30
0.0
 70
    32
  0
VERTEX
  5
311
  8
┌▓È_1
 62
     5
 10
973.39499999999998
 20
-404.64699999999999
 30
0.0
 70
    32
  0
VERTEX
  5
312
  8
┌▓È_1
 62
     5
 10
973.42399999999986
 20
-404.65300000000002
 30
0.0
 70
    32
  0
VERTEX
  5
313
  8
┌▓È_1
 62
     5
 10
973.45299999999986
 20
-404.66000000000003
 30
0.0
 70
    32
  0
VERTEX
  5
314
  8
┌▓È_1
 62
     5
 10
973.48199999999986
 20
-404.666
 30
0.0
 70
    32
  0
VERTEX
  5
315
  8
┌▓È_1
 62
     5
 10
973.51099999999997
 20
-404.67199999999991
 30
0.0
 70
    32
  0
VERTEX
  5
316
  8
┌▓È_1
 62
     5
 10
973.53999999999996
 20
-404.678
 30
0.0
 70
    32
  0
VERTEX
  5
317
  8
┌▓È_1
 62
     5
 10
973.56899999999985
 20
-404.685
 30
0.0
 70
    32
  0
VERTEX
  5
318
  8
┌▓È_1
 62
     5
 10
973.59800000000007
 20
-404.69099999999992
 30
0.0
 70
    32
  0
VERTEX
  5
319
  8
┌▓È_1
 62
     5
 10
973.62699999999995
 20
-404.69699999999989
 30
0.0
 70
    32
  0
VERTEX
  5
31A
  8
┌▓È_1
 62
     5
 10
973.65599999999995
 20
-404.70299999999997
 30
0.0
 70
    32
  0
VERTEX
  5
31B
  8
┌▓È_1
 62
     5
 10
973.68600000000004
 20
-404.70899999999989
 30
0.0
 70
    32
  0
VERTEX
  5
31C
  8
┌▓È_1
 62
     5
 10
973.71499999999992
 20
-404.71499999999997
 30
0.0
 70
    32
  0
VERTEX
  5
31D
  8
┌▓È_1
 62
     5
 10
973.74399999999991
 20
-404.72099999999989
 30
0.0
 70
    32
  0
VERTEX
  5
31E
  8
┌▓È_1
 62
     5
 10
973.77300000000002
 20
-404.72699999999998
 30
0.0
 70
    32
  0
VERTEX
  5
31F
  8
┌▓È_1
 62
     5
 10
973.80200000000002
 20
-404.733
 30
0.0
 70
    32
  0
VERTEX
  5
320
  8
┌▓È_1
 62
     5
 10
973.83199999999988
 20
-404.73899999999998
 30
0.0
 70
    32
  0
VERTEX
  5
321
  8
┌▓È_1
 62
     5
 10
973.8610000000001
 20
-404.745
 30
0.0
 70
    32
  0
VERTEX
  5
322
  8
┌▓È_1
 62
     5
 10
973.88999999999987
 20
-404.75099999999992
 30
0.0
 70
    32
  0
VERTEX
  5
323
  8
┌▓È_1
 62
     5
 10
973.91899999999998
 20
-404.75699999999989
 30
0.0
 70
    32
  0
VERTEX
  5
324
  8
┌▓È_1
 62
     5
 10
973.94899999999996
 20
-404.76199999999989
 30
0.0
 70
    32
  0
VERTEX
  5
325
  8
┌▓È_1
 62
     5
 10
973.97800000000007
 20
-404.76799999999997
 30
0.0
 70
    32
  0
VERTEX
  5
326
  8
┌▓È_1
 62
     5
 10
974.00699999999995
 20
-404.774
 30
0.0
 70
    32
  0
VERTEX
  5
327
  8
┌▓È_1
 62
     5
 10
974.03599999999994
 20
-404.77999999999992
 30
0.0
 70
    32
  0
VERTEX
  5
328
  8
┌▓È_1
 62
     5
 10
974.06600000000003
 20
-404.78500000000003
 30
0.0
 70
    32
  0
VERTEX
  5
329
  8
┌▓È_1
 62
     5
 10
974.09499999999991
 20
-404.79099999999988
 30
0.0
 70
    32
  0
VERTEX
  5
32A
  8
┌▓È_1
 62
     5
 10
974.12399999999991
 20
-404.79699999999991
 30
0.0
 70
    32
  0
VERTEX
  5
32B
  8
┌▓È_1
 62
     5
 10
974.154
 20
-404.803
 30
0.0
 70
    32
  0
VERTEX
  5
32C
  8
┌▓È_1
 62
     5
 10
974.18299999999999
 20
-404.80799999999999
 30
0.0
 70
    32
  0
VERTEX
  5
32D
  8
┌▓È_1
 62
     5
 10
974.21300000000008
 20
-404.81400000000002
 30
0.0
 70
    32
  0
VERTEX
  5
32E
  8
┌▓È_1
 62
     5
 10
974.24199999999985
 20
-404.8189999999999
 30
0.0
 70
    32
  0
VERTEX
  5
32F
  8
┌▓È_1
 62
     5
 10
974.27200000000005
 20
-404.82499999999999
 30
0.0
 70
    32
  0
VERTEX
  5
330
  8
┌▓È_1
 62
     5
 10
974.30099999999993
 20
-404.8309999999999
 30
0.0
 70
    32
  0
VERTEX
  5
331
  8
┌▓È_1
 62
     5
 10
974.33000000000015
 20
-404.83600000000001
 30
0.0
 70
    32
  0
VERTEX
  5
332
  8
┌▓È_1
 62
     5
 10
974.36000000000001
 20
-404.84199999999998
 30
0.0
 70
    32
  0
VERTEX
  5
333
  8
┌▓È_1
 62
     5
 10
974.38899999999978
 20
-404.84699999999998
 30
0.0
 70
    32
  0
VERTEX
  5
334
  8
┌▓È_1
 62
     5
 10
974.41899999999987
 20
-404.85300000000001
 30
0.0
 70
    32
  0
VERTEX
  5
335
  8
┌▓È_1
 62
     5
 10
974.44799999999987
 20
-404.858
 30
0.0
 70
    32
  0
VERTEX
  5
336
  8
┌▓È_1
 62
     5
 10
974.47799999999995
 20
-404.86399999999998
 30
0.0
 70
    32
  0
VERTEX
  5
337
  8
┌▓È_1
 62
     5
 10
974.50699999999995
 20
-404.86900000000003
 30
0.0
 70
    32
  0
VERTEX
  5
338
  8
┌▓È_1
 62
     5
 10
974.53699999999992
 20
-404.87400000000002
 30
0.0
 70
    32
  0
VERTEX
  5
339
  8
┌▓È_1
 62
     5
 10
974.56600000000003
 20
-404.87999999999988
 30
0.0
 70
    32
  0
VERTEX
  5
33A
  8
┌▓È_1
 62
     5
 10
974.596
 20
-404.88499999999988
 30
0.0
 70
    32
  0
VERTEX
  5
33B
  8
┌▓È_1
 62
     5
 10
974.62600000000009
 20
-404.89099999999991
 30
0.0
 70
    32
  0
VERTEX
  5
33C
  8
┌▓È_1
 62
     5
 10
974.65499999999986
 20
-404.8959999999999
 30
0.0
 70
    32
  0
VERTEX
  5
33D
  8
┌▓È_1
 62
     5
 10
974.68499999999995
 20
-404.9009999999999
 30
0.0
 70
    32
  0
VERTEX
  5
33E
  8
┌▓È_1
 62
     5
 10
974.71399999999994
 20
-404.90699999999993
 30
0.0
 70
    32
  0
VERTEX
  5
33F
  8
┌▓È_1
 62
     5
 10
974.74399999999991
 20
-404.91199999999998
 30
0.0
 70
    32
  0
VERTEX
  5
340
  8
┌▓È_1
 62
     5
 10
974.77399999999977
 20
-404.91699999999997
 30
0.0
 70
    32
  0
VERTEX
  5
341
  8
┌▓È_1
 62
     5
 10
974.80299999999988
 20
-404.92299999999989
 30
0.0
 70
    32
  0
VERTEX
  5
342
  8
┌▓È_1
 62
     5
 10
974.83300000000008
 20
-404.928
 30
0.0
 70
    32
  0
VERTEX
  5
343
  8
┌▓È_1
 62
     5
 10
974.86199999999997
 20
-404.93299999999999
 30
0.0
 70
    32
  0
VERTEX
  5
344
  8
┌▓È_1
 62
     5
 10
974.89200000000005
 20
-404.93799999999999
 30
0.0
 70
    32
  0
VERTEX
  5
345
  8
┌▓È_1
 62
     5
 10
974.92200000000014
 20
-404.94400000000002
 30
0.0
 70
    32
  0
VERTEX
  5
346
  8
┌▓È_1
 62
     5
 10
974.95100000000002
 20
-404.94900000000001
 30
0.0
 70
    32
  0
VERTEX
  5
347
  8
┌▓È_1
 62
     5
 10
974.98100000000011
 20
-404.95400000000001
 30
0.0
 70
    32
  0
VERTEX
  5
348
  8
┌▓È_1
 62
     5
 10
975.01100000000008
 20
-404.959
 30
0.0
 70
    32
  0
VERTEX
  5
349
  8
┌▓È_1
 62
     5
 10
975.03999999999985
 20
-404.964
 30
0.0
 70
    32
  0
VERTEX
  5
34A
  8
┌▓È_1
 62
     5
 10
975.07000000000005
 20
-404.97000000000003
 30
0.0
 70
    32
  0
VERTEX
  5
34B
  8
┌▓È_1
 62
     5
 10
975.10000000000014
 20
-404.97500000000002
 30
0.0
 70
    32
  0
VERTEX
  5
34C
  8
┌▓È_1
 62
     5
 10
975.12899999999991
 20
-404.98000000000002
 30
0.0
 70
    32
  0
VERTEX
  5
34D
  8
┌▓È_1
 62
     5
 10
975.15899999999999
 20
-404.98500000000001
 30
0.0
 70
    32
  0
VERTEX
  5
34E
  8
┌▓È_1
 62
     5
 10
975.18899999999985
 20
-404.99000000000001
 30
0.0
 70
    32
  0
VERTEX
  5
34F
  8
┌▓È_1
 62
     5
 10
975.21899999999982
 20
-404.99499999999989
 30
0.0
 70
    32
  0
VERTEX
  5
350
  8
┌▓È_1
 62
     5
 10
975.24800000000005
 20
-405.0
 30
0.0
 70
    32
  0
VERTEX
  5
351
  8
┌▓È_1
 62
     5
 10
975.27799999999991
 20
-405.00499999999988
 30
0.0
 70
    32
  0
VERTEX
  5
352
  8
┌▓È_1
 62
     5
 10
975.30799999999999
 20
-405.01100000000002
 30
0.0
 70
    32
  0
VERTEX
  5
353
  8
┌▓È_1
 62
     5
 10
975.33699999999999
 20
-405.01599999999991
 30
0.0
 70
    32
  0
VERTEX
  5
354
  8
┌▓È_1
 62
     5
 10
975.36699999999985
 20
-405.0209999999999
 30
0.0
 70
    32
  0
VERTEX
  5
355
  8
┌▓È_1
 62
     5
 10
975.39699999999982
 20
-405.0259999999999
 30
0.0
 70
    32
  0
VERTEX
  5
356
  8
┌▓È_1
 62
     5
 10
975.42699999999991
 20
-405.03100000000001
 30
0.0
 70
    32
  0
VERTEX
  5
357
  8
┌▓È_1
 62
     5
 10
975.4559999999999
 20
-405.036
 30
0.0
 70
    32
  0
VERTEX
  5
358
  8
┌▓È_1
 62
     5
 10
975.48599999999999
 20
-405.041
 30
0.0
 70
    32
  0
VERTEX
  5
359
  8
┌▓È_1
 62
     5
 10
975.51600000000008
 20
-405.04599999999999
 30
0.0
 70
    32
  0
VERTEX
  5
35A
  8
┌▓È_1
 62
     5
 10
975.54600000000005
 20
-405.05099999999999
 30
0.0
 70
    32
  0
VERTEX
  5
35B
  8
┌▓È_1
 62
     5
 10
975.57500000000005
 20
-405.05599999999993
 30
0.0
 70
    32
  0
VERTEX
  5
35C
  8
┌▓È_1
 62
     5
 10
975.60500000000002
 20
-405.06099999999992
 30
0.0
 70
    32
  0
VERTEX
  5
35D
  8
┌▓È_1
 62
     5
 10
975.63499999999988
 20
-405.06599999999992
 30
0.0
 70
    32
  0
VERTEX
  5
35E
  8
┌▓È_1
 62
     5
 10
975.66499999999996
 20
-405.07099999999991
 30
0.0
 70
    32
  0
VERTEX
  5
35F
  8
┌▓È_1
 62
     5
 10
975.69399999999996
 20
-405.07599999999991
 30
0.0
 70
    32
  0
VERTEX
  5
360
  8
┌▓È_1
 62
     5
 10
975.72399999999993
 20
-405.0809999999999
 30
0.0
 70
    32
  0
VERTEX
  5
361
  8
┌▓È_1
 62
     5
 10
975.75399999999979
 20
-405.08600000000001
 30
0.0
 70
    32
  0
VERTEX
  5
362
  8
┌▓È_1
 62
     5
 10
975.78399999999988
 20
-405.09199999999993
 30
0.0
 70
    32
  0
VERTEX
  5
363
  8
┌▓È_1
 62
     5
 10
975.81399999999985
 20
-405.09699999999992
 30
0.0
 70
    32
  0
VERTEX
  5
364
  8
┌▓È_1
 62
     5
 10
975.84299999999996
 20
-405.10199999999992
 30
0.0
 70
    32
  0
VERTEX
  5
365
  8
┌▓È_1
 62
     5
 10
975.87299999999993
 20
-405.10700000000003
 30
0.0
 70
    32
  0
VERTEX
  5
366
  8
┌▓È_1
 62
     5
 10
975.90300000000002
 20
-405.11200000000002
 30
0.0
 70
    32
  0
SEQEND
  5
367
  8
┌▓È_1
 62
     5
  0
POLYLINE
  5
368
  8
┌▓È_1
 62
     5
 66
     1
 10
0.0
 20
0.0
 30
0.0
 70
     8
  0
VERTEX
  5
369
  8
┌▓È_1
 62
     5
 10
961.50300000000004
 20
-400.54199999999992
 30
0.0
 70
    32
  0
VERTEX
  5
36A
  8
┌▓È_1
 62
     5
 10
961.53199999999981
 20
-400.56900000000002
 30
0.0
 70
    32
  0
VERTEX
  5
36B
  8
┌▓È_1
 62
     5
 10
961.56100000000004
 20
-400.59599999999989
 30
0.0
 70
    32
  0
VERTEX
  5
36C
  8
┌▓È_1
 62
     5
 10
961.58900000000006
 20
-400.6219999999999
 30
0.0
 70
    32
  0
VERTEX
  5
36D
  8
┌▓È_1
 62
     5
 10
961.61799999999994
 20
-400.649
 30
0.0
 70
    32
  0
VERTEX
  5
36E
  8
┌▓È_1
 62
     5
 10
961.64699999999993
 20
-400.67500000000001
 30
0.0
 70
    32
  0
VERTEX
  5
36F
  8
┌▓È_1
 62
     5
 10
961.67600000000004
 20
-400.70199999999988
 30
0.0
 70
    32
  0
VERTEX
  5
370
  8
┌▓È_1
 62
     5
 10
961.70500000000004
 20
-400.72799999999989
 30
0.0
 70
    32
  0
VERTEX
  5
371
  8
┌▓È_1
 62
     5
 10
961.73299999999995
 20
-400.755
 30
0.0
 70
    32
  0
VERTEX
  5
372
  8
┌▓È_1
 62
     5
 10
961.76199999999994
 20
-400.78100000000001
 30
0.0
 70
    32
  0
VERTEX
  5
373
  8
┌▓È_1
 62
     5
 10
961.79100000000005
 20
-400.80799999999999
 30
0.0
 70
    32
  0
VERTEX
  5
374
  8
┌▓È_1
 62
     5
 10
961.81999999999994
 20
-400.834
 30
0.0
 70
    32
  0
VERTEX
  5
375
  8
┌▓È_1
 62
     5
 10
961.84899999999993
 20
-400.86099999999999
 30
0.0
 70
    32
  0
VERTEX
  5
376
  8
┌▓È_1
 62
     5
 10
961.87800000000004
 20
-400.88799999999998
 30
0.0
 70
    32
  0
VERTEX
  5
377
  8
┌▓È_1
 62
     5
 10
961.90699999999981
 20
-400.91399999999999
 30
0.0
 70
    32
  0
VERTEX
  5
378
  8
┌▓È_1
 62
     5
 10
961.93499999999983
 20
-400.94099999999992
 30
0.0
 70
    32
  0
VERTEX
  5
379
  8
┌▓È_1
 62
     5
 10
961.96400000000006
 20
-400.96699999999993
 30
0.0
 70
    32
  0
VERTEX
  5
37A
  8
┌▓È_1
 62
     5
 10
961.99300000000005
 20
-400.99400000000003
 30
0.0
 70
    32
  0
VERTEX
  5
37B
  8
┌▓È_1
 62
     5
 10
962.02199999999993
 20
-401.01999999999998
 30
0.0
 70
    32
  0
VERTEX
  5
37C
  8
┌▓È_1
 62
     5
 10
962.05100000000004
 20
-401.04599999999999
 30
0.0
 70
    32
  0
VERTEX
  5
37D
  8
┌▓È_1
 62
     5
 10
962.08000000000004
 20
-401.07299999999998
 30
0.0
 70
    32
  0
VERTEX
  5
37E
  8
┌▓È_1
 62
     5
 10
962.10899999999981
 20
-401.09899999999988
 30
0.0
 70
    32
  0
VERTEX
  5
37F
  8
┌▓È_1
 62
     5
 10
962.13699999999983
 20
-401.12599999999998
 30
0.0
 70
    32
  0
VERTEX
  5
380
  8
┌▓È_1
 62
     5
 10
962.16600000000005
 20
-401.15199999999987
 30
0.0
 70
    32
  0
VERTEX
  5
381
  8
┌▓È_1
 62
     5
 10
962.19500000000005
 20
-401.17899999999997
 30
0.0
 70
    32
  0
VERTEX
  5
382
  8
┌▓È_1
 62
     5
 10
962.22399999999993
 20
-401.20499999999998
 30
0.0
 70
    32
  0
VERTEX
  5
383
  8
┌▓È_1
 62
     5
 10
962.25300000000016
 20
-401.23099999999999
 30
0.0
 70
    32
  0
VERTEX
  5
384
  8
┌▓È_1
 62
     5
 10
962.28199999999993
 20
-401.25799999999998
 30
0.0
 70
    32
  0
VERTEX
  5
385
  8
┌▓È_1
 62
     5
 10
962.31100000000004
 20
-401.28399999999988
 30
0.0
 70
    32
  0
VERTEX
  5
386
  8
┌▓È_1
 62
     5
 10
962.34000000000003
 20
-401.30999999999989
 30
0.0
 70
    32
  0
VERTEX
  5
387
  8
┌▓È_1
 62
     5
 10
962.36899999999991
 20
-401.33699999999999
 30
0.0
 70
    32
  0
VERTEX
  5
388
  8
┌▓È_1
 62
     5
 10
962.39800000000014
 20
-401.363
 30
0.0
 70
    32
  0
VERTEX
  5
389
  8
┌▓È_1
 62
     5
 10
962.42700000000002
 20
-401.3889999999999
 30
0.0
 70
    32
  0
VERTEX
  5
38A
  8
┌▓È_1
 62
     5
 10
962.45600000000002
 20
-401.416
 30
0.0
 70
    32
  0
VERTEX
  5
38B
  8
┌▓È_1
 62
     5
 10
962.48500000000001
 20
-401.44199999999989
 30
0.0
 70
    32
  0
VERTEX
  5
38C
  8
┌▓È_1
 62
     5
 10
962.51400000000001
 20
-401.46800000000002
 30
0.0
 70
    32
  0
VERTEX
  5
38D
  8
┌▓È_1
 62
     5
 10
962.54299999999989
 20
-401.49400000000003
 30
0.0
 70
    32
  0
VERTEX
  5
38E
  8
┌▓È_1
 62
     5
 10
962.57199999999989
 20
-401.5209999999999
 30
0.0
 70
    32
  0
VERTEX
  5
38F
  8
┌▓È_1
 62
     5
 10
962.601
 20
-401.54699999999991
 30
0.0
 70
    32
  0
VERTEX
  5
390
  8
┌▓È_1
 62
     5
 10
962.63
 20
-401.57299999999998
 30
0.0
 70
    32
  0
VERTEX
  5
391
  8
┌▓È_1
 62
     5
 10
962.65899999999999
 20
-401.59899999999999
 30
0.0
 70
    32
  0
VERTEX
  5
392
  8
┌▓È_1
 62
     5
 10
962.68799999999987
 20
-401.625
 30
0.0
 70
    32
  0
VERTEX
  5
393
  8
┌▓È_1
 62
     5
 10
962.71699999999987
 20
-401.65100000000001
 30
0.0
 70
    32
  0
VERTEX
  5
394
  8
┌▓È_1
 62
     5
 10
962.74600000000009
 20
-401.67699999999991
 30
0.0
 70
    32
  0
VERTEX
  5
395
  8
┌▓È_1
 62
     5
 10
962.77499999999998
 20
-401.70299999999997
 30
0.0
 70
    32
  0
VERTEX
  5
396
  8
┌▓È_1
 62
     5
 10
962.80399999999997
 20
-401.72899999999998
 30
0.0
 70
    32
  0
VERTEX
  5
397
  8
┌▓È_1
 62
     5
 10
962.83300000000008
 20
-401.75499999999988
 30
0.0
 70
    32
  0
VERTEX
  5
398
  8
┌▓È_1
 62
     5
 10
962.86300000000006
 20
-401.78099999999989
 30
0.0
 70
    32
  0
VERTEX
  5
399
  8
┌▓È_1
 62
     5
 10
962.89199999999994
 20
-401.8069999999999
 30
0.0
 70
    32
  0
VERTEX
  5
39A
  8
┌▓È_1
 62
     5
 10
962.92100000000005
 20
-401.83300000000003
 30
0.0
 70
    32
  0
VERTEX
  5
39B
  8
┌▓È_1
 62
     5
 10
962.95000000000005
 20
-401.85899999999998
 30
0.0
 70
    32
  0
VERTEX
  5
39C
  8
┌▓È_1
 62
     5
 10
962.97899999999993
 20
-401.88499999999988
 30
0.0
 70
    32
  0
VERTEX
  5
39D
  8
┌▓È_1
 62
     5
 10
963.00800000000015
 20
-401.911
 30
0.0
 70
    32
  0
VERTEX
  5
39E
  8
┌▓È_1
 62
     5
 10
963.03800000000001
 20
-401.9369999999999
 30
0.0
 70
    32
  0
VERTEX
  5
39F
  8
┌▓È_1
 62
     5
 10
963.06700000000001
 20
-401.96199999999988
 30
0.0
 70
    32
  0
VERTEX
  5
3A0
  8
┌▓È_1
 62
     5
 10
963.09599999999989
 20
-401.988
 30
0.0
 70
    32
  0
VERTEX
  5
3A1
  8
┌▓È_1
 62
     5
 10
963.12499999999989
 20
-402.01400000000001
 30
0.0
 70
    32
  0
VERTEX
  5
3A2
  8
┌▓È_1
 62
     5
 10
963.15499999999997
 20
-402.03899999999987
 30
0.0
 70
    32
  0
VERTEX
  5
3A3
  8
┌▓È_1
 62
     5
 10
963.18399999999997
 20
-402.06499999999988
 30
0.0
 70
    32
  0
VERTEX
  5
3A4
  8
┌▓È_1
 62
     5
 10
963.21300000000008
 20
-402.09099999999989
 30
0.0
 70
    32
  0
VERTEX
  5
3A5
  8
┌▓È_1
 62
     5
 10
963.24300000000005
 20
-402.11599999999999
 30
0.0
 70
    32
  0
VERTEX
  5
3A6
  8
┌▓È_1
 62
     5
 10
963.27199999999993
 20
-402.14199999999988
 30
0.0
 70
    32
  0
VERTEX
  5
3A7
  8
┌▓È_1
 62
     5
 10
963.30200000000002
 20
-402.16699999999992
 30
0.0
 70
    32
  0
VERTEX
  5
3A8
  8
┌▓È_1
 62
     5
 10
963.3309999999999
 20
-402.19299999999998
 30
0.0
 70
    32
  0
VERTEX
  5
3A9
  8
┌▓È_1
 62
     5
 10
963.3599999999999
 20
-402.21800000000002
 30
0.0
 70
    32
  0
VERTEX
  5
3AA
  8
┌▓È_1
 62
     5
 10
963.38999999999999
 20
-402.24400000000003
 30
0.0
 70
    32
  0
VERTEX
  5
3AB
  8
┌▓È_1
 62
     5
 10
963.41899999999998
 20
-402.26899999999989
 30
0.0
 70
    32
  0
VERTEX
  5
3AC
  8
┌▓È_1
 62
     5
 10
963.44899999999996
 20
-402.29399999999998
 30
0.0
 70
    32
  0
VERTEX
  5
3AD
  8
┌▓È_1
 62
     5
 10
963.47800000000007
 20
-402.31999999999999
 30
0.0
 70
    32
  0
VERTEX
  5
3AE
  8
┌▓È_1
 62
     5
 10
963.50800000000004
 20
-402.34500000000003
 30
0.0
 70
    32
  0
VERTEX
  5
3AF
  8
┌▓È_1
 62
     5
 10
963.53699999999992
 20
-402.36999999999989
 30
0.0
 70
    32
  0
VERTEX
  5
3B0
  8
┌▓È_1
 62
     5
 10
963.56700000000012
 20
-402.39499999999998
 30
0.0
 70
    32
  0
VERTEX
  5
3B1
  8
┌▓È_1
 62
     5
 10
963.596
 20
-402.42099999999999
 30
0.0
 70
    32
  0
VERTEX
  5
3B2
  8
┌▓È_1
 62
     5
 10
963.62600000000009
 20
-402.44599999999991
 30
0.0
 70
    32
  0
VERTEX
  5
3B3
  8
┌▓È_1
 62
     5
 10
963.65600000000006
 20
-402.47099999999989
 30
0.0
 70
    32
  0
VERTEX
  5
3B4
  8
┌▓È_1
 62
     5
 10
963.68499999999995
 20
-402.49599999999998
 30
0.0
 70
    32
  0
VERTEX
  5
3B5
  8
┌▓È_1
 62
     5
 10
963.71500000000003
 20
-402.5209999999999
 30
0.0
 70
    32
  0
VERTEX
  5
3B6
  8
┌▓È_1
 62
     5
 10
963.74499999999989
 20
-402.54599999999988
 30
0.0
 70
    32
  0
VERTEX
  5
3B7
  8
┌▓È_1
 62
     5
 10
963.77399999999989
 20
-402.57100000000003
 30
0.0
 70
    32
  0
VERTEX
  5
3B8
  8
┌▓È_1
 62
     5
 10
963.80399999999997
 20
-402.596
 30
0.0
 70
    32
  0
VERTEX
  5
3B9
  8
┌▓È_1
 62
     5
 10
963.83399999999995
 20
-402.62
 30
0.0
 70
    32
  0
VERTEX
  5
3BA
  8
┌▓È_1
 62
     5
 10
963.86399999999981
 20
-402.64499999999992
 30
0.0
 70
    32
  0
VERTEX
  5
3BB
  8
┌▓È_1
 62
     5
 10
963.89300000000003
 20
-402.6699999999999
 30
0.0
 70
    32
  0
VERTEX
  5
3BC
  8
┌▓È_1
 62
     5
 10
963.92299999999989
 20
-402.69499999999999
 30
0.0
 70
    32
  0
VERTEX
  5
3BD
  8
┌▓È_1
 62
     5
 10
963.95299999999997
 20
-402.71899999999999
 30
0.0
 70
    32
  0
VERTEX
  5
3BE
  8
┌▓È_1
 62
     5
 10
963.98300000000006
 20
-402.74400000000003
 30
0.0
 70
    32
  0
VERTEX
  5
3BF
  8
┌▓È_1
 62
     5
 10
964.01300000000003
 20
-402.76799999999997
 30
0.0
 70
    32
  0
VERTEX
  5
3C0
  8
┌▓È_1
 62
     5
 10
964.04300000000001
 20
-402.79300000000001
 30
0.0
 70
    32
  0
VERTEX
  5
3C1
  8
┌▓È_1
 62
     5
 10
964.07299999999987
 20
-402.81699999999989
 30
0.0
 70
    32
  0
VERTEX
  5
3C2
  8
┌▓È_1
 62
     5
 10
964.10299999999995
 20
-402.84199999999993
 30
0.0
 70
    32
  0
VERTEX
  5
3C3
  8
┌▓È_1
 62
     5
 10
964.13299999999992
 20
-402.86599999999999
 30
0.0
 70
    32
  0
VERTEX
  5
3C4
  8
┌▓È_1
 62
     5
 10
964.16300000000012
 20
-402.88999999999999
 30
0.0
 70
    32
  0
VERTEX
  5
3C5
  8
┌▓È_1
 62
     5
 10
964.19299999999998
 20
-402.91500000000002
 30
0.0
 70
    32
  0
VERTEX
  5
3C6
  8
┌▓È_1
 62
     5
 10
964.22300000000007
 20
-402.93900000000002
 30
0.0
 70
    32
  0
VERTEX
  5
3C7
  8
┌▓È_1
 62
     5
 10
964.25300000000004
 20
-402.96300000000002
 30
0.0
 70
    32
  0
VERTEX
  5
3C8
  8
┌▓È_1
 62
     5
 10
964.28300000000002
 20
-402.98699999999991
 30
0.0
 70
    32
  0
VERTEX
  5
3C9
  8
┌▓È_1
 62
     5
 10
964.31399999999996
 20
-403.01099999999991
 30
0.0
 70
    32
  0
VERTEX
  5
3CA
  8
┌▓È_1
 62
     5
 10
964.34400000000005
 20
-403.03500000000003
 30
0.0
 70
    32
  0
VERTEX
  5
3CB
  8
┌▓È_1
 62
     5
 10
964.37399999999991
 20
-403.05900000000003
 30
0.0
 70
    32
  0
VERTEX
  5
3CC
  8
┌▓È_1
 62
     5
 10
964.404
 20
-403.08299999999991
 30
0.0
 70
    32
  0
VERTEX
  5
3CD
  8
┌▓È_1
 62
     5
 10
964.43499999999995
 20
-403.10699999999991
 30
0.0
 70
    32
  0
VERTEX
  5
3CE
  8
┌▓È_1
 62
     5
 10
964.46500000000003
 20
-403.12999999999988
 30
0.0
 70
    32
  0
VERTEX
  5
3CF
  8
┌▓È_1
 62
     5
 10
964.49499999999989
 20
-403.15399999999988
 30
0.0
 70
    32
  0
VERTEX
  5
3D0
  8
┌▓È_1
 62
     5
 10
964.52599999999995
 20
-403.178
 30
0.0
 70
    32
  0
VERTEX
  5
3D1
  8
┌▓È_1
 62
     5
 10
964.55600000000015
 20
-403.20099999999991
 30
0.0
 70
    32
  0
VERTEX
  5
3D2
  8
┌▓È_1
 62
     5
 10
964.58699999999999
 20
-403.22500000000002
 30
0.0
 70
    32
  0
VERTEX
  5
3D3
  8
┌▓È_1
 62
     5
 10
964.61699999999985
 20
-403.24799999999999
 30
0.0
 70
    32
  0
VERTEX
  5
3D4
  8
┌▓È_1
 62
     5
 10
964.64800000000002
 20
-403.27199999999999
 30
0.0
 70
    32
  0
VERTEX
  5
3D5
  8
┌▓È_1
 62
     5
 10
964.67799999999988
 20
-403.29500000000002
 30
0.0
 70
    32
  0
VERTEX
  5
3D6
  8
┌▓È_1
 62
     5
 10
964.70899999999995
 20
-403.31900000000002
 30
0.0
 70
    32
  0
VERTEX
  5
3D7
  8
┌▓È_1
 62
     5
 10
964.73899999999992
 20
-403.34199999999993
 30
0.0
 70
    32
  0
VERTEX
  5
3D8
  8
┌▓È_1
 62
     5
 10
964.76999999999998
 20
-403.3649999999999
 30
0.0
 70
    32
  0
VERTEX
  5
3D9
  8
┌▓È_1
 62
     5
 10
964.80100000000004
 20
-403.38799999999998
 30
0.0
 70
    32
  0
VERTEX
  5
3DA
  8
┌▓È_1
 62
     5
 10
964.83100000000002
 20
-403.411
 30
0.0
 70
    32
  0
VERTEX
  5
3DB
  8
┌▓È_1
 62
     5
 10
964.86199999999985
 20
-403.43400000000003
 30
0.0
 70
    32
  0
VERTEX
  5
3DC
  8
┌▓È_1
 62
     5
 10
964.89300000000003
 20
-403.45699999999999
 30
0.0
 70
    32
  0
VERTEX
  5
3DD
  8
┌▓È_1
 62
     5
 10
964.92399999999998
 20
-403.48000000000002
 30
0.0
 70
    32
  0
VERTEX
  5
3DE
  8
┌▓È_1
 62
     5
 10
964.95399999999995
 20
-403.50299999999999
 30
0.0
 70
    32
  0
VERTEX
  5
3DF
  8
┌▓È_1
 62
     5
 10
964.98500000000001
 20
-403.52600000000001
 30
0.0
 70
    32
  0
VERTEX
  5
3E0
  8
┌▓È_1
 62
     5
 10
965.01600000000008
 20
-403.54799999999989
 30
0.0
 70
    32
  0
VERTEX
  5
3E1
  8
┌▓È_1
 62
     5
 10
965.04700000000003
 20
-403.57099999999991
 30
0.0
 70
    32
  0
VERTEX
  5
3E2
  8
┌▓È_1
 62
     5
 10
965.07799999999986
 20
-403.59300000000002
 30
0.0
 70
    32
  0
VERTEX
  5
3E3
  8
┌▓È_1
 62
     5
 10
965.10899999999992
 20
-403.61599999999987
 30
0.0
 70
    32
  0
VERTEX
  5
3E4
  8
┌▓È_1
 62
     5
 10
965.13999999999999
 20
-403.63799999999998
 30
0.0
 70
    32
  0
VERTEX
  5
3E5
  8
┌▓È_1
 62
     5
 10
965.17100000000005
 20
-403.661
 30
0.0
 70
    32
  0
VERTEX
  5
3E6
  8
┌▓È_1
 62
     5
 10
965.20299999999986
 20
-403.68299999999999
 30
0.0
 70
    32
  0
VERTEX
  5
3E7
  8
┌▓È_1
 62
     5
 10
965.23399999999981
 20
-403.70499999999993
 30
0.0
 70
    32
  0
VERTEX
  5
3E8
  8
┌▓È_1
 62
     5
 10
965.26499999999987
 20
-403.72699999999992
 30
0.0
 70
    32
  0
VERTEX
  5
3E9
  8
┌▓È_1
 62
     5
 10
965.29600000000005
 20
-403.74900000000002
 30
0.0
 70
    32
  0
VERTEX
  5
3EA
  8
┌▓È_1
 62
     5
 10
965.327
 20
-403.7709999999999
 30
0.0
 70
    32
  0
VERTEX
  5
3EB
  8
┌▓È_1
 62
     5
 10
965.35899999999992
 20
-403.79300000000001
 30
0.0
 70
    32
  0
VERTEX
  5
3EC
  8
┌▓È_1
 62
     5
 10
965.38999999999999
 20
-403.81499999999988
 30
0.0
 70
    32
  0
VERTEX
  5
3ED
  8
┌▓È_1
 62
     5
 10
965.42200000000003
 20
-403.83699999999988
 30
0.0
 70
    32
  0
VERTEX
  5
3EE
  8
┌▓È_1
 62
     5
 10
965.45299999999986
 20
-403.85899999999998
 30
0.0
 70
    32
  0
VERTEX
  5
3EF
  8
┌▓È_1
 62
     5
 10
965.48400000000004
 20
-403.88
 30
0.0
 70
    32
  0
VERTEX
  5
3F0
  8
┌▓È_1
 62
     5
 10
965.51599999999996
 20
-403.90199999999987
 30
0.0
 70
    32
  0
VERTEX
  5
3F1
  8
┌▓È_1
 62
     5
 10
965.548
 20
-403.92299999999989
 30
0.0
 70
    32
  0
VERTEX
  5
3F2
  8
┌▓È_1
 62
     5
 10
965.57899999999995
 20
-403.94499999999999
 30
0.0
 70
    32
  0
VERTEX
  5
3F3
  8
┌▓È_1
 62
     5
 10
965.6110000000001
 20
-403.96600000000001
 30
0.0
 70
    32
  0
VERTEX
  5
3F4
  8
┌▓È_1
 62
     5
 10
965.64199999999983
 20
-403.98699999999991
 30
0.0
 70
    32
  0
VERTEX
  5
3F5
  8
┌▓È_1
 62
     5
 10
965.67399999999986
 20
-404.00900000000001
 30
0.0
 70
    32
  0
VERTEX
  5
3F6
  8
┌▓È_1
 62
     5
 10
965.7059999999999
 20
-404.02999999999997
 30
0.0
 70
    32
  0
VERTEX
  5
3F7
  8
┌▓È_1
 62
     5
 10
965.73800000000006
 20
-404.05099999999999
 30
0.0
 70
    32
  0
VERTEX
  5
3F8
  8
┌▓È_1
 62
     5
 10
965.76999999999998
 20
-404.07199999999989
 30
0.0
 70
    32
  0
VERTEX
  5
3F9
  8
┌▓È_1
 62
     5
 10
965.80200000000002
 20
-404.09199999999993
 30
0.0
 70
    32
  0
VERTEX
  5
3FA
  8
┌▓È_1
 62
     5
 10
965.83300000000008
 20
-404.113
 30
0.0
 70
    32
  0
VERTEX
  5
3FB
  8
┌▓È_1
 62
     5
 10
965.8649999999999
 20
-404.1339999999999
 30
0.0
 70
    32
  0
VERTEX
  5
3FC
  8
┌▓È_1
 62
     5
 10
965.89799999999991
 20
-404.15499999999992
 30
0.0
 70
    32
  0
VERTEX
  5
3FD
  8
┌▓È_1
 62
     5
 10
965.92999999999995
 20
-404.17500000000001
 30
0.0
 70
    32
  0
VERTEX
  5
3FE
  8
┌▓È_1
 62
     5
 10
965.96199999999999
 20
-404.19599999999991
 30
0.0
 70
    32
  0
VERTEX
  5
3FF
  8
┌▓È_1
 62
     5
 10
965.9939999999998
 20
-404.21599999999989
 30
0.0
 70
    32
  0
VERTEX
  5
400
  8
┌▓È_1
 62
     5
 10
966.02599999999995
 20
-404.23599999999999
 30
0.0
 70
    32
  0
VERTEX
  5
401
  8
┌▓È_1
 62
     5
 10
966.05799999999988
 20
-404.25699999999989
 30
0.0
 70
    32
  0
VERTEX
  5
402
  8
┌▓È_1
 62
     5
 10
966.09099999999989
 20
-404.27699999999987
 30
0.0
 70
    32
  0
VERTEX
  5
403
  8
┌▓È_1
 62
     5
 10
966.12300000000005
 20
-404.29699999999991
 30
0.0
 70
    32
  0
VERTEX
  5
404
  8
┌▓È_1
 62
     5
 10
966.15499999999997
 20
-404.31699999999989
 30
0.0
 70
    32
  0
VERTEX
  5
405
  8
┌▓È_1
 62
     5
 10
966.18799999999999
 20
-404.33699999999999
 30
0.0
 70
    32
  0
VERTEX
  5
406
  8
┌▓È_1
 62
     5
 10
966.22000000000003
 20
-404.35599999999999
 30
0.0
 70
    32
  0
VERTEX
  5
407
  8
┌▓È_1
 62
     5
 10
966.25300000000004
 20
-404.37599999999992
 30
0.0
 70
    32
  0
VERTEX
  5
408
  8
┌▓È_1
 62
     5
 10
966.28499999999997
 20
-404.3959999999999
 30
0.0
 70
    32
  0
SEQEND
  5
409
  8
┌▓È_1
 62
     5
  0
POLYLINE
  5
40A
  8
┌▓È_1
 62
     5
 66
     1
 10
0.0
 20
0.0
 30
0.0
 70
     8
  0
VERTEX
  5
40B
  8
┌▓È_1
 62
     5
 10
970.23699999999997
 20
-406.13
 30
0.0
 70
    32
  0
VERTEX
  5
40C
  8
┌▓È_1
 62
     5
 10
970.27999999999986
 20
-406.14299999999997
 30
0.0
 70
    32
  0
VERTEX
  5
40D
  8
┌▓È_1
 62
     5
 10
970.32299999999987
 20
-406.15699999999993
 30
0.0
 70
    32
  0
VERTEX
  5
40E
  8
┌▓È_1
 62
     5
 10
970.3660000000001
 20
-406.17099999999988
 30
0.0
 70
    32
  0
VERTEX
  5
40F
  8
┌▓È_1
 62
     5
 10
970.40899999999999
 20
-406.18400000000003
 30
0.0
 70
    32
  0
VERTEX
  5
410
  8
┌▓È_1
 62
     5
 10
970.45299999999997
 20
-406.19799999999998
 30
0.0
 70
    32
  0
VERTEX
  5
411
  8
┌▓È_1
 62
     5
 10
970.49600000000009
 20
-406.21100000000001
 30
0.0
 70
    32
  0
VERTEX
  5
412
  8
┌▓È_1
 62
     5
 10
970.53899999999987
 20
-406.22500000000002
 30
0.0
 70
    32
  0
VERTEX
  5
413
  8
┌▓È_1
 62
     5
 10
970.58299999999997
 20
-406.238
 30
0.0
 70
    32
  0
VERTEX
  5
414
  8
┌▓È_1
 62
     5
 10
970.62599999999998
 20
-406.25099999999992
 30
0.0
 70
    32
  0
VERTEX
  5
415
  8
┌▓È_1
 62
     5
 10
970.66899999999998
 20
-406.26400000000001
 30
0.0
 70
    32
  0
VERTEX
  5
416
  8
┌▓È_1
 62
     5
 10
970.71300000000008
 20
-406.27699999999987
 30
0.0
 70
    32
  0
VERTEX
  5
417
  8
┌▓È_1
 62
     5
 10
970.75599999999997
 20
-406.28999999999991
 30
0.0
 70
    32
  0
VERTEX
  5
418
  8
┌▓È_1
 62
     5
 10
970.79999999999995
 20
-406.303
 30
0.0
 70
    32
  0
VERTEX
  5
419
  8
┌▓È_1
 62
     5
 10
970.84300000000007
 20
-406.31599999999992
 30
0.0
 70
    32
  0
VERTEX
  5
41A
  8
┌▓È_1
 62
     5
 10
970.88699999999994
 20
-406.32900000000001
 30
0.0
 70
    32
  0
VERTEX
  5
41B
  8
┌▓È_1
 62
     5
 10
970.92999999999984
 20
-406.34199999999993
 30
0.0
 70
    32
  0
VERTEX
  5
41C
  8
┌▓È_1
 62
     5
 10
970.97400000000005
 20
-406.35399999999998
 30
0.0
 70
    32
  0
VERTEX
  5
41D
  8
┌▓È_1
 62
     5
 10
971.01800000000014
 20
-406.36700000000002
 30
0.0
 70
    32
  0
VERTEX
  5
41E
  8
┌▓È_1
 62
     5
 10
971.06100000000004
 20
-406.37999999999988
 30
0.0
 70
    32
  0
VERTEX
  5
41F
  8
┌▓È_1
 62
     5
 10
971.10500000000002
 20
-406.392
 30
0.0
 70
    32
  0
VERTEX
  5
420
  8
┌▓È_1
 62
     5
 10
971.14899999999989
 20
-406.40499999999992
 30
0.0
 70
    32
  0
VERTEX
  5
421
  8
┌▓È_1
 62
     5
 10
971.19299999999998
 20
-406.41699999999992
 30
0.0
 70
    32
  0
VERTEX
  5
422
  8
┌▓È_1
 62
     5
 10
971.23600000000022
 20
-406.42899999999997
 30
0.0
 70
    32
  0
VERTEX
  5
423
  8
┌▓È_1
 62
     5
 10
971.27999999999986
 20
-406.44199999999989
 30
0.0
 70
    32
  0
VERTEX
  5
424
  8
┌▓È_1
 62
     5
 10
971.32399999999984
 20
-406.45400000000001
 30
0.0
 70
    32
  0
VERTEX
  5
425
  8
┌▓È_1
 62
     5
 10
971.36800000000005
 20
-406.46599999999989
 30
0.0
 70
    32
  0
VERTEX
  5
426
  8
┌▓È_1
 62
     5
 10
971.41199999999992
 20
-406.47799999999989
 30
0.0
 70
    32
  0
VERTEX
  5
427
  8
┌▓È_1
 62
     5
 10
971.45600000000002
 20
-406.49099999999999
 30
0.0
 70
    32
  0
VERTEX
  5
428
  8
┌▓È_1
 62
     5
 10
971.49999999999989
 20
-406.50299999999999
 30
0.0
 70
    32
  0
VERTEX
  5
429
  8
┌▓È_1
 62
     5
 10
971.54399999999987
 20
-406.51499999999999
 30
0.0
 70
    32
  0
VERTEX
  5
42A
  8
┌▓È_1
 62
     5
 10
971.58799999999997
 20
-406.52600000000001
 30
0.0
 70
    32
  0
VERTEX
  5
42B
  8
┌▓È_1
 62
     5
 10
971.63199999999995
 20
-406.53800000000001
 30
0.0
 70
    32
  0
VERTEX
  5
42C
  8
┌▓È_1
 62
     5
 10
971.67600000000004
 20
-406.55000000000001
 30
0.0
 70
    32
  0
VERTEX
  5
42D
  8
┌▓È_1
 62
     5
 10
971.72000000000003
 20
-406.56200000000001
 30
0.0
 70
    32
  0
VERTEX
  5
42E
  8
┌▓È_1
 62
     5
 10
971.7639999999999
 20
-406.5739999999999
 30
0.0
 70
    32
  0
VERTEX
  5
42F
  8
┌▓È_1
 62
     5
 10
971.80799999999999
 20
-406.58499999999998
 30
0.0
 70
    32
  0
VERTEX
  5
430
  8
┌▓È_1
 62
     5
 10
971.85300000000007
 20
-406.59699999999998
 30
0.0
 70
    32
  0
VERTEX
  5
431
  8
┌▓È_1
 62
     5
 10
971.89699999999982
 20
-406.60899999999998
 30
0.0
 70
    32
  0
VERTEX
  5
432
  8
┌▓È_1
 62
     5
 10
971.94099999999992
 20
-406.62
 30
0.0
 70
    32
  0
VERTEX
  5
433
  8
┌▓È_1
 62
     5
 10
971.98500000000001
 20
-406.63199999999989
 30
0.0
 70
    32
  0
VERTEX
  5
434
  8
┌▓È_1
 62
     5
 10
972.02999999999986
 20
-406.64299999999997
 30
0.0
 70
    32
  0
VERTEX
  5
435
  8
┌▓È_1
 62
     5
 10
972.07399999999996
 20
-406.65499999999992
 30
0.0
 70
    32
  0
VERTEX
  5
436
  8
┌▓È_1
 62
     5
 10
972.11800000000005
 20
-406.66599999999988
 30
0.0
 70
    32
  0
VERTEX
  5
437
  8
┌▓È_1
 62
     5
 10
972.16300000000012
 20
-406.67699999999991
 30
0.0
 70
    32
  0
VERTEX
  5
438
  8
┌▓È_1
 62
     5
 10
972.20699999999999
 20
-406.68799999999999
 30
0.0
 70
    32
  0
VERTEX
  5
439
  8
┌▓È_1
 62
     5
 10
972.25199999999995
 20
-406.69999999999999
 30
0.0
 70
    32
  0
VERTEX
  5
43A
  8
┌▓È_1
 62
     5
 10
972.29600000000005
 20
-406.71100000000001
 30
0.0
 70
    32
  0
VERTEX
  5
43B
  8
┌▓È_1
 62
     5
 10
972.34099999999989
 20
-406.72199999999992
 30
0.0
 70
    32
  0
VERTEX
  5
43C
  8
┌▓È_1
 62
     5
 10
972.38499999999999
 20
-406.733
 30
0.0
 70
    32
  0
VERTEX
  5
43D
  8
┌▓È_1
 62
     5
 10
972.42999999999995
 20
-406.74400000000003
 30
0.0
 70
    32
  0
VERTEX
  5
43E
  8
┌▓È_1
 62
     5
 10
972.47399999999982
 20
-406.75499999999988
 30
0.0
 70
    32
  0
VERTEX
  5
43F
  8
┌▓È_1
 62
     5
 10
972.51899999999989
 20
-406.76600000000002
 30
0.0
 70
    32
  0
VERTEX
  5
440
  8
┌▓È_1
 62
     5
 10
972.56299999999999
 20
-406.77699999999999
 30
0.0
 70
    32
  0
VERTEX
  5
441
  8
┌▓È_1
 62
     5
 10
972.60800000000006
 20
-406.78800000000001
 30
0.0
 70
    32
  0
VERTEX
  5
442
  8
┌▓È_1
 62
     5
 10
972.65300000000002
 20
-406.79899999999992
 30
0.0
 70
    32
  0
VERTEX
  5
443
  8
┌▓È_1
 62
     5
 10
972.69699999999989
 20
-406.81
 30
0.0
 70
    32
  0
VERTEX
  5
444
  8
┌▓È_1
 62
     5
 10
972.74199999999996
 20
-406.81999999999999
 30
0.0
 70
    32
  0
VERTEX
  5
445
  8
┌▓È_1
 62
     5
 10
972.78699999999992
 20
-406.8309999999999
 30
0.0
 70
    32
  0
VERTEX
  5
446
  8
┌▓È_1
 62
     5
 10
972.83100000000002
 20
-406.84199999999993
 30
0.0
 70
    32
  0
VERTEX
  5
447
  8
┌▓È_1
 62
     5
 10
972.87600000000009
 20
-406.85199999999992
 30
0.0
 70
    32
  0
VERTEX
  5
448
  8
┌▓È_1
 62
     5
 10
972.92100000000005
 20
-406.863
 30
0.0
 70
    32
  0
VERTEX
  5
449
  8
┌▓È_1
 62
     5
 10
972.96600000000001
 20
-406.87400000000002
 30
0.0
 70
    32
  0
VERTEX
  5
44A
  8
┌▓È_1
 62
     5
 10
973.00999999999999
 20
-406.8839999999999
 30
0.0
 70
    32
  0
VERTEX
  5
44B
  8
┌▓È_1
 62
     5
 10
973.05499999999995
 20
-406.89499999999998
 30
0.0
 70
    32
  0
VERTEX
  5
44C
  8
┌▓È_1
 62
     5
 10
973.09999999999991
 20
-406.90499999999992
 30
0.0
 70
    32
  0
VERTEX
  5
44D
  8
┌▓È_1
 62
     5
 10
973.14499999999998
 20
-406.916
 30
0.0
 70
    32
  0
VERTEX
  5
44E
  8
┌▓È_1
 62
     5
 10
973.19000000000005
 20
-406.92599999999987
 30
0.0
 70
    32
  0
VERTEX
  5
44F
  8
┌▓È_1
 62
     5
 10
973.23500000000001
 20
-406.93599999999992
 30
0.0
 70
    32
  0
VERTEX
  5
450
  8
┌▓È_1
 62
     5
 10
973.27899999999988
 20
-406.94699999999989
 30
0.0
 70
    32
  0
VERTEX
  5
451
  8
┌▓È_1
 62
     5
 10
973.32399999999996
 20
-406.95699999999988
 30
0.0
 70
    32
  0
VERTEX
  5
452
  8
┌▓È_1
 62
     5
 10
973.36899999999991
 20
-406.96699999999998
 30
0.0
 70
    32
  0
VERTEX
  5
453
  8
┌▓È_1
 62
     5
 10
973.41399999999999
 20
-406.97799999999989
 30
0.0
 70
    32
  0
VERTEX
  5
454
  8
┌▓È_1
 62
     5
 10
973.45899999999983
 20
-406.988
 30
0.0
 70
    32
  0
VERTEX
  5
455
  8
┌▓È_1
 62
     5
 10
973.50399999999991
 20
-406.99799999999999
 30
0.0
 70
    32
  0
VERTEX
  5
456
  8
┌▓È_1
 62
     5
 10
973.54899999999998
 20
-407.00799999999998
 30
0.0
 70
    32
  0
VERTEX
  5
457
  8
┌▓È_1
 62
     5
 10
973.59399999999994
 20
-407.01799999999997
 30
0.0
 70
    32
  0
VERTEX
  5
458
  8
┌▓È_1
 62
     5
 10
973.63899999999978
 20
-407.02899999999988
 30
0.0
 70
    32
  0
VERTEX
  5
459
  8
┌▓È_1
 62
     5
 10
973.68399999999986
 20
-407.03899999999987
 30
0.0
 70
    32
  0
VERTEX
  5
45A
  8
┌▓È_1
 62
     5
 10
973.72899999999993
 20
-407.04899999999998
 30
0.0
 70
    32
  0
VERTEX
  5
45B
  8
┌▓È_1
 62
     5
 10
973.77399999999977
 20
-407.05900000000003
 30
0.0
 70
    32
  0
VERTEX
  5
45C
  8
┌▓È_1
 62
     5
 10
973.81899999999985
 20
-407.0689999999999
 30
0.0
 70
    32
  0
VERTEX
  5
45D
  8
┌▓È_1
 62
     5
 10
973.8649999999999
 20
-407.07900000000001
 30
0.0
 70
    32
  0
VERTEX
  5
45E
  8
┌▓È_1
 62
     5
 10
973.90999999999997
 20
-407.089
 30
0.0
 70
    32
  0
VERTEX
  5
45F
  8
┌▓È_1
 62
     5
 10
973.95500000000015
 20
-407.09899999999999
 30
0.0
 70
    32
  0
VERTEX
  5
460
  8
┌▓È_1
 62
     5
 10
974.0
 20
-407.10899999999998
 30
0.0
 70
    32
  0
VERTEX
  5
461
  8
┌▓È_1
 62
     5
 10
974.04499999999985
 20
-407.11900000000003
 30
0.0
 70
    32
  0
VERTEX
  5
462
  8
┌▓È_1
 62
     5
 10
974.08999999999992
 20
-407.12799999999999
 30
0.0
 70
    32
  0
VERTEX
  5
463
  8
┌▓È_1
 62
     5
 10
974.13499999999999
 20
-407.13799999999998
 30
0.0
 70
    32
  0
VERTEX
  5
464
  8
┌▓È_1
 62
     5
 10
974.18100000000004
 20
-407.14800000000002
 30
0.0
 70
    32
  0
VERTEX
  5
465
  8
┌▓È_1
 62
     5
 10
974.22600000000011
 20
-407.1579999999999
 30
0.0
 70
    32
  0
VERTEX
  5
466
  8
┌▓È_1
 62
     5
 10
974.27099999999996
 20
-407.16799999999989
 30
0.0
 70
    32
  0
VERTEX
  5
467
  8
┌▓È_1
 62
     5
 10
974.31600000000014
 20
-407.17699999999991
 30
0.0
 70
    32
  0
VERTEX
  5
468
  8
┌▓È_1
 62
     5
 10
974.36100000000022
 20
-407.1869999999999
 30
0.0
 70
    32
  0
VERTEX
  5
469
  8
┌▓È_1
 62
     5
 10
974.40699999999981
 20
-407.19699999999989
 30
0.0
 70
    32
  0
VERTEX
  5
46A
  8
┌▓È_1
 62
     5
 10
974.45199999999988
 20
-407.20699999999999
 30
0.0
 70
    32
  0
VERTEX
  5
46B
  8
┌▓È_1
 62
     5
 10
974.49699999999996
 20
-407.21600000000001
 30
0.0
 70
    32
  0
VERTEX
  5
46C
  8
┌▓È_1
 62
     5
 10
974.54199999999992
 20
-407.22599999999989
 30
0.0
 70
    32
  0
VERTEX
  5
46D
  8
┌▓È_1
 62
     5
 10
974.58800000000008
 20
-407.23599999999988
 30
0.0
 70
    32
  0
VERTEX
  5
46E
  8
┌▓È_1
 62
     5
 10
974.63300000000004
 20
-407.24499999999989
 30
0.0
 70
    32
  0
VERTEX
  5
46F
  8
┌▓È_1
 62
     5
 10
974.67799999999988
 20
-407.25499999999988
 30
0.0
 70
    32
  0
VERTEX
  5
470
  8
┌▓È_1
 62
     5
 10
974.72399999999993
 20
-407.26499999999999
 30
0.0
 70
    32
  0
VERTEX
  5
471
  8
┌▓È_1
 62
     5
 10
974.76899999999978
 20
-407.274
 30
0.0
 70
    32
  0
VERTEX
  5
472
  8
┌▓È_1
 62
     5
 10
974.81399999999985
 20
-407.28399999999999
 30
0.0
 70
    32
  0
VERTEX
  5
473
  8
┌▓È_1
 62
     5
 10
974.85900000000004
 20
-407.29300000000001
 30
0.0
 70
    32
  0
VERTEX
  5
474
  8
┌▓È_1
 62
     5
 10
974.90499999999997
 20
-407.30300000000011
 30
0.0
 70
    32
  0
VERTEX
  5
475
  8
┌▓È_1
 62
     5
 10
974.95000000000005
 20
-407.31299999999999
 30
0.0
 70
    32
  0
VERTEX
  5
476
  8
┌▓È_1
 62
     5
 10
974.995
 20
-407.32199999999989
 30
0.0
 70
    32
  0
VERTEX
  5
477
  8
┌▓È_1
 62
     5
 10
975.04100000000005
 20
-407.33199999999988
 30
0.0
 70
    32
  0
VERTEX
  5
478
  8
┌▓È_1
 62
     5
 10
975.08600000000013
 20
-407.34099999999989
 30
0.0
 70
    32
  0
VERTEX
  5
479
  8
┌▓È_1
 62
     5
 10
975.13100000000009
 20
-407.35099999999989
 30
0.0
 70
    32
  0
VERTEX
  5
47A
  8
┌▓È_1
 62
     5
 10
975.17700000000002
 20
-407.3599999999999
 30
0.0
 70
    32
  0
VERTEX
  5
47B
  8
┌▓È_1
 62
     5
 10
975.22199999999987
 20
-407.37
 30
0.0
 70
    32
  0
VERTEX
  5
47C
  8
┌▓È_1
 62
     5
 10
975.26799999999992
 20
-407.37900000000002
 30
0.0
 70
    32
  0
VERTEX
  5
47D
  8
┌▓È_1
 62
     5
 10
975.31299999999999
 20
-407.38900000000001
 30
0.0
 70
    32
  0
VERTEX
  5
47E
  8
┌▓È_1
 62
     5
 10
975.35800000000006
 20
-407.39800000000002
 30
0.0
 70
    32
  0
VERTEX
  5
47F
  8
┌▓È_1
 62
     5
 10
975.40399999999988
 20
-407.40800000000002
 30
0.0
 70
    32
  0
VERTEX
  5
480
  8
┌▓È_1
 62
     5
 10
975.44899999999996
 20
-407.41699999999992
 30
0.0
 70
    32
  0
VERTEX
  5
481
  8
┌▓È_1
 62
     5
 10
975.49399999999991
 20
-407.42699999999991
 30
0.0
 70
    32
  0
VERTEX
  5
482
  8
┌▓È_1
 62
     5
 10
975.53999999999985
 20
-407.43599999999992
 30
0.0
 70
    32
  0
VERTEX
  5
483
  8
┌▓È_1
 62
     5
 10
975.58500000000004
 20
-407.44600000000003
 30
0.0
 70
    32
  0
VERTEX
  5
484
  8
┌▓È_1
 62
     5
 10
975.63099999999997
 20
-407.45499999999998
 30
0.0
 70
    32
  0
VERTEX
  5
485
  8
┌▓È_1
 62
     5
 10
975.67599999999993
 20
-407.464
 30
0.0
 70
    32
  0
VERTEX
  5
486
  8
┌▓È_1
 62
     5
 10
975.721
 20
-407.47399999999999
 30
0.0
 70
    32
  0
VERTEX
  5
487
  8
┌▓È_1
 62
     5
 10
975.76699999999994
 20
-407.483
 30
0.0
 70
    32
  0
VERTEX
  5
488
  8
┌▓È_1
 62
     5
 10
975.8119999999999
 20
-407.49299999999999
 30
0.0
 70
    32
  0
VERTEX
  5
489
  8
┌▓È_1
 62
     5
 10
975.85799999999995
 20
-407.5019999999999
 30
0.0
 70
    32
  0
VERTEX
  5
48A
  8
┌▓È_1
 62
     5
 10
975.90300000000002
 20
-407.51199999999989
 30
0.0
 70
    32
  0
SEQEND
  5
48B
  8
┌▓È_1
 62
     5
  0
POLYLINE
  5
48C
  8
┌▓È_1
 62
     5
 66
     1
 10
0.0
 20
0.0
 30
0.0
 70
     8
  0
VERTEX
  5
48D
  8
┌▓È_1
 62
     5
 10
966.99800000000005
 20
-400.9319999999999
 30
0.0
 70
    32
  0
VERTEX
  5
48E
  8
┌▓È_1
 62
     5
 10
967.00800000000004
 20
-400.94400000000002
 30
0.0
 70
    32
  0
VERTEX
  5
48F
  8
┌▓È_1
 62
     5
 10
967.01899999999989
 20
-400.9559999999999
 30
0.0
 70
    32
  0
VERTEX
  5
490
  8
┌▓È_1
 62
     5
 10
967.02899999999988
 20
-400.96699999999993
 30
0.0
 70
    32
  0
VERTEX
  5
491
  8
┌▓È_1
 62
     5
 10
967.03999999999985
 20
-400.97899999999998
 30
0.0
 70
    32
  0
VERTEX
  5
492
  8
┌▓È_1
 62
     5
 10
967.05100000000004
 20
-400.99099999999987
 30
0.0
 70
    32
  0
VERTEX
  5
493
  8
┌▓È_1
 62
     5
 10
967.06099999999992
 20
-401.00299999999999
 30
0.0
 70
    32
  0
VERTEX
  5
494
  8
┌▓È_1
 62
     5
 10
967.07200000000012
 20
-401.01499999999999
 30
0.0
 70
    32
  0
VERTEX
  5
495
  8
┌▓È_1
 62
     5
 10
967.08199999999999
 20
-401.02600000000001
 30
0.0
 70
    32
  0
VERTEX
  5
496
  8
┌▓È_1
 62
     5
 10
967.09299999999996
 20
-401.03800000000001
 30
0.0
 70
    32
  0
VERTEX
  5
497
  8
┌▓È_1
 62
     5
 10
967.10299999999995
 20
-401.05000000000001
 30
0.0
 70
    32
  0
VERTEX
  5
498
  8
┌▓È_1
 62
     5
 10
967.11399999999992
 20
-401.0619999999999
 30
0.0
 70
    32
  0
VERTEX
  5
499
  8
┌▓È_1
 62
     5
 10
967.125
 20
-401.07299999999998
 30
0.0
 70
    32
  0
VERTEX
  5
49A
  8
┌▓È_1
 62
     5
 10
967.13499999999999
 20
-401.08499999999992
 30
0.0
 70
    32
  0
VERTEX
  5
49B
  8
┌▓È_1
 62
     5
 10
967.14600000000007
 20
-401.09699999999992
 30
0.0
 70
    32
  0
VERTEX
  5
49C
  8
┌▓È_1
 62
     5
 10
967.15600000000006
 20
-401.10899999999998
 30
0.0
 70
    32
  0
VERTEX
  5
49D
  8
┌▓È_1
 62
     5
 10
967.1669999999998
 20
-401.12
 30
0.0
 70
    32
  0
VERTEX
  5
49E
  8
┌▓È_1
 62
     5
 10
967.17700000000002
 20
-401.13199999999989
 30
0.0
 70
    32
  0
VERTEX
  5
49F
  8
┌▓È_1
 62
     5
 10
967.18799999999987
 20
-401.14400000000001
 30
0.0
 70
    32
  0
VERTEX
  5
4A0
  8
┌▓È_1
 62
     5
 10
967.19899999999996
 20
-401.15600000000001
 30
0.0
 70
    32
  0
VERTEX
  5
4A1
  8
┌▓È_1
 62
     5
 10
967.20899999999983
 20
-401.16699999999992
 30
0.0
 70
    32
  0
VERTEX
  5
4A2
  8
┌▓È_1
 62
     5
 10
967.22000000000003
 20
-401.17899999999997
 30
0.0
 70
    32
  0
VERTEX
  5
4A3
  8
┌▓È_1
 62
     5
 10
967.2299999999999
 20
-401.19099999999992
 30
0.0
 70
    32
  0
VERTEX
  5
4A4
  8
┌▓È_1
 62
     5
 10
967.2410000000001
 20
-401.20299999999997
 30
0.0
 70
    32
  0
VERTEX
  5
4A5
  8
┌▓È_1
 62
     5
 10
967.25099999999998
 20
-401.214
 30
0.0
 70
    32
  0
VERTEX
  5
4A6
  8
┌▓È_1
 62
     5
 10
967.26199999999994
 20
-401.226
 30
0.0
 70
    32
  0
VERTEX
  5
4A7
  8
┌▓È_1
 62
     5
 10
967.27299999999991
 20
-401.238
 30
0.0
 70
    32
  0
VERTEX
  5
4A8
  8
┌▓È_1
 62
     5
 10
967.28300000000013
 20
-401.24900000000002
 30
0.0
 70
    32
  0
VERTEX
  5
4A9
  8
┌▓È_1
 62
     5
 10
967.29399999999998
 20
-401.26099999999991
 30
0.0
 70
    32
  0
VERTEX
  5
4AA
  8
┌▓È_1
 62
     5
 10
967.30399999999997
 20
-401.27300000000002
 30
0.0
 70
    32
  0
VERTEX
  5
4AB
  8
┌▓È_1
 62
     5
 10
967.31500000000005
 20
-401.28500000000003
 30
0.0
 70
    32
  0
VERTEX
  5
4AC
  8
┌▓È_1
 62
     5
 10
967.32600000000002
 20
-401.29599999999988
 30
0.0
 70
    32
  0
VERTEX
  5
4AD
  8
┌▓È_1
 62
     5
 10
967.33600000000001
 20
-401.30799999999999
 30
0.0
 70
    32
  0
VERTEX
  5
4AE
  8
┌▓È_1
 62
     5
 10
967.34699999999998
 20
-401.31999999999999
 30
0.0
 70
    32
  0
VERTEX
  5
4AF
  8
┌▓È_1
 62
     5
 10
967.35800000000006
 20
-401.3309999999999
 30
0.0
 70
    32
  0
VERTEX
  5
4B0
  8
┌▓È_1
 62
     5
 10
967.36800000000005
 20
-401.34300000000002
 30
0.0
 70
    32
  0
VERTEX
  5
4B1
  8
┌▓È_1
 62
     5
 10
967.37899999999979
 20
-401.35500000000002
 30
0.0
 70
    32
  0
VERTEX
  5
4B2
  8
┌▓È_1
 62
     5
 10
967.38899999999978
 20
-401.36599999999987
 30
0.0
 70
    32
  0
VERTEX
  5
4B3
  8
┌▓È_1
 62
     5
 10
967.39999999999986
 20
-401.37799999999999
 30
0.0
 70
    32
  0
VERTEX
  5
4B4
  8
┌▓È_1
 62
     5
 10
967.41099999999994
 20
-401.38999999999987
 30
0.0
 70
    32
  0
VERTEX
  5
4B5
  8
┌▓È_1
 62
     5
 10
967.42100000000005
 20
-401.4009999999999
 30
0.0
 70
    32
  0
VERTEX
  5
4B6
  8
┌▓È_1
 62
     5
 10
967.4319999999999
 20
-401.4129999999999
 30
0.0
 70
    32
  0
VERTEX
  5
4B7
  8
┌▓È_1
 62
     5
 10
967.44299999999987
 20
-401.42399999999998
 30
0.0
 70
    32
  0
VERTEX
  5
4B8
  8
┌▓È_1
 62
     5
 10
967.45299999999997
 20
-401.43599999999992
 30
0.0
 70
    32
  0
VERTEX
  5
4B9
  8
┌▓È_1
 62
     5
 10
967.46400000000006
 20
-401.44799999999998
 30
0.0
 70
    32
  0
VERTEX
  5
4BA
  8
┌▓È_1
 62
     5
 10
967.47500000000014
 20
-401.459
 30
0.0
 70
    32
  0
VERTEX
  5
4BB
  8
┌▓È_1
 62
     5
 10
967.48500000000013
 20
-401.471
 30
0.0
 70
    32
  0
VERTEX
  5
4BC
  8
┌▓È_1
 62
     5
 10
967.49599999999998
 20
-401.48199999999991
 30
0.0
 70
    32
  0
VERTEX
  5
4BD
  8
┌▓È_1
 62
     5
 10
967.50699999999995
 20
-401.49400000000003
 30
0.0
 70
    32
  0
VERTEX
  5
4BE
  8
┌▓È_1
 62
     5
 10
967.51699999999994
 20
-401.50599999999997
 30
0.0
 70
    32
  0
VERTEX
  5
4BF
  8
┌▓È_1
 62
     5
 10
967.52800000000002
 20
-401.517
 30
0.0
 70
    32
  0
VERTEX
  5
4C0
  8
┌▓È_1
 62
     5
 10
967.53899999999999
 20
-401.529
 30
0.0
 70
    32
  0
VERTEX
  5
4C1
  8
┌▓È_1
 62
     5
 10
967.54899999999986
 20
-401.54000000000002
 30
0.0
 70
    32
  0
VERTEX
  5
4C2
  8
┌▓È_1
 62
     5
 10
967.55999999999995
 20
-401.55199999999991
 30
0.0
 70
    32
  0
VERTEX
  5
4C3
  8
┌▓È_1
 62
     5
 10
967.57100000000003
 20
-401.56299999999999
 30
0.0
 70
    32
  0
VERTEX
  5
4C4
  8
┌▓È_1
 62
     5
 10
967.58199999999988
 20
-401.57499999999987
 30
0.0
 70
    32
  0
VERTEX
  5
4C5
  8
┌▓È_1
 62
     5
 10
967.59199999999987
 20
-401.5859999999999
 30
0.0
 70
    32
  0
VERTEX
  5
4C6
  8
┌▓È_1
 62
     5
 10
967.60299999999995
 20
-401.5979999999999
 30
0.0
 70
    32
  0
VERTEX
  5
4C7
  8
┌▓È_1
 62
     5
 10
967.61400000000003
 20
-401.60899999999998
 30
0.0
 70
    32
  0
VERTEX
  5
4C8
  8
┌▓È_1
 62
     5
 10
967.62499999999989
 20
-401.62099999999998
 30
0.0
 70
    32
  0
VERTEX
  5
4C9
  8
┌▓È_1
 62
     5
 10
967.63499999999988
 20
-401.63199999999989
 30
0.0
 70
    32
  0
VERTEX
  5
4CA
  8
┌▓È_1
 62
     5
 10
967.64599999999996
 20
-401.64400000000001
 30
0.0
 70
    32
  0
VERTEX
  5
4CB
  8
┌▓È_1
 62
     5
 10
967.65699999999993
 20
-401.65499999999992
 30
0.0
 70
    32
  0
VERTEX
  5
4CC
  8
┌▓È_1
 62
     5
 10
967.66800000000012
 20
-401.66599999999988
 30
0.0
 70
    32
  0
VERTEX
  5
4CD
  8
┌▓È_1
 62
     5
 10
967.678
 20
-401.678
 30
0.0
 70
    32
  0
VERTEX
  5
4CE
  8
┌▓È_1
 62
     5
 10
967.68899999999996
 20
-401.68900000000002
 30
0.0
 70
    32
  0
VERTEX
  5
4CF
  8
┌▓È_1
 62
     5
 10
967.70000000000005
 20
-401.70099999999991
 30
0.0
 70
    32
  0
VERTEX
  5
4D0
  8
┌▓È_1
 62
     5
 10
967.71100000000001
 20
-401.71199999999999
 30
0.0
 70
    32
  0
VERTEX
  5
4D1
  8
┌▓È_1
 62
     5
 10
967.72199999999998
 20
-401.72300000000001
 30
0.0
 70
    32
  0
VERTEX
  5
4D2
  8
┌▓È_1
 62
     5
 10
967.73199999999986
 20
-401.73500000000001
 30
0.0
 70
    32
  0
VERTEX
  5
4D3
  8
┌▓È_1
 62
     5
 10
967.74300000000005
 20
-401.74599999999992
 30
0.0
 70
    32
  0
VERTEX
  5
4D4
  8
┌▓È_1
 62
     5
 10
967.75399999999979
 20
-401.75799999999998
 30
0.0
 70
    32
  0
VERTEX
  5
4D5
  8
┌▓È_1
 62
     5
 10
967.76499999999987
 20
-401.76899999999989
 30
0.0
 70
    32
  0
VERTEX
  5
4D6
  8
┌▓È_1
 62
     5
 10
967.77600000000007
 20
-401.77999999999992
 30
0.0
 70
    32
  0
VERTEX
  5
4D7
  8
┌▓È_1
 62
     5
 10
967.78699999999981
 20
-401.79099999999988
 30
0.0
 70
    32
  0
VERTEX
  5
4D8
  8
┌▓È_1
 62
     5
 10
967.79700000000003
 20
-401.803
 30
0.0
 70
    32
  0
VERTEX
  5
4D9
  8
┌▓È_1
 62
     5
 10
967.80799999999988
 20
-401.81400000000002
 30
0.0
 70
    32
  0
VERTEX
  5
4DA
  8
┌▓È_1
 62
     5
 10
967.81899999999985
 20
-401.82499999999999
 30
0.0
 70
    32
  0
VERTEX
  5
4DB
  8
┌▓È_1
 62
     5
 10
967.83000000000004
 20
-401.83699999999988
 30
0.0
 70
    32
  0
VERTEX
  5
4DC
  8
┌▓È_1
 62
     5
 10
967.84099999999989
 20
-401.84800000000001
 30
0.0
 70
    32
  0
VERTEX
  5
4DD
  8
┌▓È_1
 62
     5
 10
967.85199999999998
 20
-401.85899999999998
 30
0.0
 70
    32
  0
VERTEX
  5
4DE
  8
┌▓È_1
 62
     5
 10
967.86300000000006
 20
-401.86999999999989
 30
0.0
 70
    32
  0
VERTEX
  5
4DF
  8
┌▓È_1
 62
     5
 10
967.87399999999991
 20
-401.88099999999997
 30
0.0
 70
    32
  0
VERTEX
  5
4E0
  8
┌▓È_1
 62
     5
 10
967.88499999999999
 20
-401.89299999999997
 30
0.0
 70
    32
  0
VERTEX
  5
4E1
  8
┌▓È_1
 62
     5
 10
967.89600000000007
 20
-401.904
 30
0.0
 70
    32
  0
VERTEX
  5
4E2
  8
┌▓È_1
 62
     5
 10
967.90600000000006
 20
-401.91500000000002
 30
0.0
 70
    32
  0
VERTEX
  5
4E3
  8
┌▓È_1
 62
     5
 10
967.91699999999992
 20
-401.92599999999999
 30
0.0
 70
    32
  0
VERTEX
  5
4E4
  8
┌▓È_1
 62
     5
 10
967.928
 20
-401.9369999999999
 30
0.0
 70
    32
  0
VERTEX
  5
4E5
  8
┌▓È_1
 62
     5
 10
967.93899999999985
 20
-401.94799999999998
 30
0.0
 70
    32
  0
VERTEX
  5
4E6
  8
┌▓È_1
 62
     5
 10
967.95000000000005
 20
-401.95899999999989
 30
0.0
 70
    32
  0
VERTEX
  5
4E7
  8
┌▓È_1
 62
     5
 10
967.96100000000001
 20
-401.97000000000003
 30
0.0
 70
    32
  0
VERTEX
  5
4E8
  8
┌▓È_1
 62
     5
 10
967.97199999999987
 20
-401.98099999999988
 30
0.0
 70
    32
  0
VERTEX
  5
4E9
  8
┌▓È_1
 62
     5
 10
967.98299999999995
 20
-401.9919999999999
 30
0.0
 70
    32
  0
VERTEX
  5
4EA
  8
┌▓È_1
 62
     5
 10
967.99400000000003
 20
-402.00299999999999
 30
0.0
 70
    32
  0
VERTEX
  5
4EB
  8
┌▓È_1
 62
     5
 10
968.00499999999988
 20
-402.01400000000001
 30
0.0
 70
    32
  0
VERTEX
  5
4EC
  8
┌▓È_1
 62
     5
 10
968.01700000000005
 20
-402.02499999999992
 30
0.0
 70
    32
  0
VERTEX
  5
4ED
  8
┌▓È_1
 62
     5
 10
968.02799999999991
 20
-402.036
 30
0.0
 70
    32
  0
VERTEX
  5
4EE
  8
┌▓È_1
 62
     5
 10
968.03899999999999
 20
-402.04699999999991
 30
0.0
 70
    32
  0
VERTEX
  5
4EF
  8
┌▓È_1
 62
     5
 10
968.04999999999995
 20
-402.05799999999999
 30
0.0
 70
    32
  0
VERTEX
  5
4F0
  8
┌▓È_1
 62
     5
 10
968.06099999999992
 20
-402.06900000000002
 30
0.0
 70
    32
  0
VERTEX
  5
4F1
  8
┌▓È_1
 62
     5
 10
968.072
 20
-402.07999999999993
 30
0.0
 70
    32
  0
VERTEX
  5
4F2
  8
┌▓È_1
 62
     5
 10
968.08299999999997
 20
-402.09099999999989
 30
0.0
 70
    32
  0
VERTEX
  5
4F3
  8
┌▓È_1
 62
     5
 10
968.09399999999994
 20
-402.10199999999998
 30
0.0
 70
    32
  0
VERTEX
  5
4F4
  8
┌▓È_1
 62
     5
 10
968.10500000000002
 20
-402.113
 30
0.0
 70
    32
  0
VERTEX
  5
4F5
  8
┌▓È_1
 62
     5
 10
968.1160000000001
 20
-402.12400000000002
 30
0.0
 70
    32
  0
VERTEX
  5
4F6
  8
┌▓È_1
 62
     5
 10
968.12800000000004
 20
-402.13400000000001
 30
0.0
 70
    32
  0
VERTEX
  5
4F7
  8
┌▓È_1
 62
     5
 10
968.13899999999978
 20
-402.14499999999992
 30
0.0
 70
    32
  0
VERTEX
  5
4F8
  8
┌▓È_1
 62
     5
 10
968.14999999999986
 20
-402.15600000000001
 30
0.0
 70
    32
  0
VERTEX
  5
4F9
  8
┌▓È_1
 62
     5
 10
968.16099999999994
 20
-402.16699999999992
 30
0.0
 70
    32
  0
VERTEX
  5
4FA
  8
┌▓È_1
 62
     5
 10
968.17200000000003
 20
-402.17700000000002
 30
0.0
 70
    32
  0
VERTEX
  5
4FB
  8
┌▓È_1
 62
     5
 10
968.18399999999986
 20
-402.18799999999999
 30
0.0
 70
    32
  0
VERTEX
  5
4FC
  8
┌▓È_1
 62
     5
 10
968.19500000000005
 20
-402.19900000000001
 30
0.0
 70
    32
  0
VERTEX
  5
4FD
  8
┌▓È_1
 62
     5
 10
968.2059999999999
 20
-402.20999999999998
 30
0.0
 70
    32
  0
VERTEX
  5
4FE
  8
┌▓È_1
 62
     5
 10
968.21699999999987
 20
-402.22000000000003
 30
0.0
 70
    32
  0
VERTEX
  5
4FF
  8
┌▓È_1
 62
     5
 10
968.22799999999995
 20
-402.23099999999999
 30
0.0
 70
    32
  0
VERTEX
  5
500
  8
┌▓È_1
 62
     5
 10
968.2399999999999
 20
-402.24099999999987
 30
0.0
 70
    32
  0
VERTEX
  5
501
  8
┌▓È_1
 62
     5
 10
968.25099999999998
 20
-402.2519999999999
 30
0.0
 70
    32
  0
VERTEX
  5
502
  8
┌▓È_1
 62
     5
 10
968.26199999999994
 20
-402.26299999999998
 30
0.0
 70
    32
  0
VERTEX
  5
503
  8
┌▓È_1
 62
     5
 10
968.27399999999989
 20
-402.27300000000002
 30
0.0
 70
    32
  0
VERTEX
  5
504
  8
┌▓È_1
 62
     5
 10
968.28499999999997
 20
-402.28399999999999
 30
0.0
 70
    32
  0
VERTEX
  5
505
  8
┌▓È_1
 62
     5
 10
968.29600000000005
 20
-402.29399999999998
 30
0.0
 70
    32
  0
VERTEX
  5
506
  8
┌▓È_1
 62
     5
 10
968.30799999999999
 20
-402.30500000000001
 30
0.0
 70
    32
  0
VERTEX
  5
507
  8
┌▓È_1
 62
     5
 10
968.31899999999985
 20
-402.315
 30
0.0
 70
    32
  0
VERTEX
  5
508
  8
┌▓È_1
 62
     5
 10
968.33000000000004
 20
-402.32599999999991
 30
0.0
 70
    32
  0
VERTEX
  5
509
  8
┌▓È_1
 62
     5
 10
968.34199999999987
 20
-402.33600000000001
 30
0.0
 70
    32
  0
VERTEX
  5
50A
  8
┌▓È_1
 62
     5
 10
968.35300000000007
 20
-402.34699999999992
 30
0.0
 70
    32
  0
VERTEX
  5
50B
  8
┌▓È_1
 62
     5
 10
968.36500000000001
 20
-402.35699999999991
 30
0.0
 70
    32
  0
VERTEX
  5
50C
  8
┌▓È_1
 62
     5
 10
968.37600000000009
 20
-402.36700000000002
 30
0.0
 70
    32
  0
SEQEND
  5
50D
  8
┌▓È_1
 62
     5
  0
LINE
  5
218
  8
┌▓È_1
 62
     5
 10
975.90291181839984
 20
-405.11163018690002
 30
0.0
 11
975.90291181839984
 21
-407.51163018689999
 31
0.0
  0
LINE
  5
219
  8
┌▓È_1
 10
971.25153938939991
 20
-368.06790693390002
 30
0.0
 11
1003.2515393894
 21
-368.06790693390002
 31
0.0
  0
LINE
  5
21A
  8
┌▓È_1
 10
875.25153938940002
 20
-376.56790693390002
 30
0.0
 11
971.25153938939991
 21
-376.56790693390002
 31
0.0
  0
LINE
  5
21B
  8
┌▓È_1
 62
     5
 10
954.06712011859986
 20
-164.9985605798
 30
0.0
 11
954.06712011859986
 21
-169.9985605798
 31
0.0
  0
LINE
  5
21C
  8
┌▓È_1
 62
     5
 10
979.06712011859986
 20
-164.9985605798
 30
0.0
 11
979.06712011859986
 21
-169.9985605798
 31
0.0
  0
LINE
  5
21D
  8
┌▓È_1
 62
     5
 10
979.06712011859986
 20
-164.9985605798
 30
0.0
 11
987.81712011859986
 21
-156.2485605798
 31
0.0
  0
LINE
  5
21E
  8
┌▓È_1
 62
     5
 10
945.31712011859997
 20
-156.2485605798
 30
0.0
 11
954.06712011859986
 21
-164.9985605798
 31
0.0
  0
LINE
  5
21F
  8
┌▓È_1
 62
     5
 10
839.11141178529999
 20
-201.74543557979999
 30
0.0
 11
871.11141178529999
 21
-201.74543557979999
 31
0.0
  0
LINE
  5
220
  8
┌▓È_1
 62
     5
 10
839.11141178529999
 20
-206.24543557979999
 30
0.0
 11
871.11141178529999
 21
-206.24543557979999
 31
0.0
  0
LINE
  5
221
  8
┌▓È_1
 62
     5
 10
871.11141178529999
 20
-116.2454355798
 30
0.0
 11
839.11141178529999
 21
-116.2454355798
 31
0.0
  0
LINE
  5
222
  8
┌▓È_1
 62
     5
 10
839.11141178529999
 20
-206.24543557979999
 30
0.0
 11
839.11141178529999
 21
-116.2454355798
 31
0.0
  0
LINE
  5
223
  8
┌▓È_1
 62
     5
 10
871.11141178529999
 20
-206.24543557979999
 30
0.0
 11
871.11141178529999
 21
-116.2454355798
 31
0.0
  0
LINE
  5
224
  8
┌▓È_1
 62
     5
 10
761.36889230060001
 20
-337.93978193390001
 30
0.0
 11
761.36889230060001
 21
-305.93978193390001
 31
0.0
  0
LINE
  5
225
  8
┌▓È_1
 62
     5
 10
671.3688923005999
 20
-305.93978193390001
 30
0.0
 11
761.36889230060001
 21
-305.93978193390001
 31
0.0
  0
LINE
  5
226
  8
┌▓È_1
 62
     5
 10
671.3688923005999
 20
-337.93978193390001
 30
0.0
 11
761.36889230060001
 21
-337.93978193390001
 31
0.0
  0
LINE
  5
227
  8
┌▓È_1
  6
BORDER
 62
     3
 10
749.36889230060001
 20
-195.91765780200001
 30
0.0
 11
749.36889230060001
 21
-213.2871022464
 31
0.0
  0
LINE
  5
228
  8
┌▓È_1
  6
BORDER
 62
     3
 10
681.69667007839985
 20
-128.24543557979999
 30
0.0
 11
664.32722563389984
 21
-128.24543557979999
 31
0.0
  0
LINE
  5
229
  8
┌▓È_1
 62
     5
 10
761.36889230060001
 20
-206.24543557979999
 30
0.0
 11
761.36889230060001
 21
-201.74543557979999
 31
0.0
  0
LINE
  5
22A
  8
┌▓È_1
 62
     5
 10
675.86889230059978
 20
-116.2454355798
 30
0.0
 11
671.3688923005999
 21
-116.2454355798
 31
0.0
  0
LINE
  5
22B
  8
┌▓È_1
 62
     5
 10
671.3688923005999
 20
-201.74543557979999
 30
0.0
 11
671.3688923005999
 21
-116.2454355798
 31
0.0
  0
LINE
  5
22C
  8
┌▓È_1
 62
     5
 10
675.86889230059978
 20
-201.74543557979999
 30
0.0
 11
675.86889230059978
 21
-116.2454355798
 31
0.0
  0
LINE
  5
22D
  8
┌▓È_1
 62
     5
 10
675.86889230059978
 20
-206.24543557979999
 30
0.0
 11
761.36889230060001
 21
-206.24543557979999
 31
0.0
  0
LINE
  5
22E
  8
┌▓È_1
  6
STITCH
 10
674.11889230059978
 20
-130.74543557979999
 30
0.0
 11
673.11889230060001
 21
-130.74543557979999
 31
0.0
  0
LINE
  5
22F
  8
┌▓È_1
  6
STITCH
 10
673.11889230060001
 20
-125.7454355798
 30
0.0
 11
674.11889230059978
 21
-125.7454355798
 31
0.0
  0
LINE
  5
230
  8
┌▓È_1
  6
STITCH
 10
674.11889230059978
 20
-125.7454355798
 30
0.0
 11
674.11889230059978
 21
-130.74543557979999
 31
0.0
  0
LINE
  5
231
  8
┌▓È_1
  6
STITCH
 10
673.11889230060001
 20
-130.74543557979999
 30
0.0
 11
673.11889230060001
 21
-125.7454355798
 31
0.0
  0
LINE
  5
232
  8
┌▓È_1
  6
STITCH
 10
674.11889230059978
 20
-125.7454355798
 30
0.0
 11
675.86889230059978
 21
-123.9954355798
 31
0.0
  0
LINE
  5
233
  8
┌▓È_1
  6
STITCH
 10
673.11889230060001
 20
-125.7454355798
 30
0.0
 11
671.3688923005999
 21
-123.9954355798
 31
0.0
  0
LINE
  5
234
  8
┌▓È_1
  6
STITCH
 10
688.86889230060001
 20
-203.49543557979999
 30
0.0
 11
687.11889230060001
 21
-201.74543557979999
 31
0.0
  0
LINE
  5
235
  8
┌▓È_1
  6
STITCH
 10
688.86889230060001
 20
-204.49543557979999
 30
0.0
 11
687.11889230060001
 21
-206.24543557979999
 31
0.0
  0
LINE
  5
236
  8
┌▓È_1
  6
STITCH
 10
693.86889230060001
 20
-203.49543557979999
 30
0.0
 11
688.86889230060001
 21
-203.49543557979999
 31
0.0
  0
LINE
  5
237
  8
┌▓È_1
  6
STITCH
 10
693.86889230060001
 20
-203.49543557979999
 30
0.0
 11
695.61889230060001
 21
-201.74543557979999
 31
0.0
  0
INSERT
  5
239
  8
┌▓È_1
  2
CLUMP3
 10
0.0
 20
0.0
 30
0.0
  0
LINE
  5
240
  8
┌▓È_1
  6
STITCH
 10
693.86889230060001
 20
-204.49543557979999
 30
0.0
 11
695.61889230060001
 21
-206.24543557979999
 31
0.0
  0
LINE
  5
241
  8
┌▓È_1
  6
STITCH
 10
675.86889230059978
 20
-305.93978193390001
 30
0.0
 11
675.86889230059978
 21
-337.93978193390001
 31
0.0
  0
LINE
  5
242
  8
┌▓È_1
 62
     5
 10
671.3688923005999
 20
-305.93978193390001
 30
0.0
 11
671.3688923005999
 21
-337.93978193390001
 31
0.0
  0
LINE
  5
243
  8
┌▓È_1
  6
BORDER
 62
     3
 10
691.36889230060001
 20
-195.91765780200001
 30
0.0
 11
691.36889230060001
 21
-213.2871022464
 31
0.0
  0
LINE
  5
244
  8
┌▓È_1
  6
BORDER
 62
     3
 10
681.69667007839985
 20
-186.24543557979999
 30
0.0
 11
664.32722563389984
 21
-186.24543557979999
 31
0.0
  0
ARC
  5
245
  8
┌▓È_1
 62
     5
 10
675.86889230059978
 20
-201.74543557979999
 30
0.0
 40
4.5
 50
180.0
 51
270.0
  0
LINE
  5
246
  8
┌▓È_1
  6
STITCH
 10
693.86889230060001
 20
-204.49543557979999
 30
0.0
 11
693.86889230060001
 21
-203.49543557979999
 31
0.0
  0
LINE
  5
247
  8
┌▓È_1
  6
STITCH
 10
688.86889230060001
 20
-204.49543557979999
 30
0.0
 11
693.86889230060001
 21
-204.49543557979999
 31
0.0
  0
LINE
  5
248
  8
┌▓È_1
  6
STITCH
 10
674.11889230059978
 20
-183.74543557979999
 30
0.0
 11
675.86889230059978
 21
-181.99543557979999
 31
0.0
  0
LINE
  5
249
  8
┌▓È_1
  6
STITCH
 10
673.11889230060001
 20
-183.74543557979999
 30
0.0
 11
671.3688923005999
 21
-181.99543557979999
 31
0.0
  0
LINE
  5
24A
  8
┌▓È_1
  6
STITCH
 10
673.11889230060001
 20
-188.74543557979999
 30
0.0
 11
671.3688923005999
 21
-190.49543557979999
 31
0.0
  0
LINE
  5
24B
  8
┌▓È_1
  6
STITCH
 10
674.11889230059978
 20
-188.74543557979999
 30
0.0
 11
675.86889230059978
 21
-190.49543557979999
 31
0.0
  0
LINE
  5
24C
  8
┌▓È_1
  6
STITCH
 10
674.11889230059978
 20
-188.74543557979999
 30
0.0
 11
673.11889230060001
 21
-188.74543557979999
 31
0.0
  0
LINE
  5
24D
  8
┌▓È_1
  6
STITCH
 10
673.11889230060001
 20
-183.74543557979999
 30
0.0
 11
674.11889230059978
 21
-183.74543557979999
 31
0.0
  0
LINE
  5
24E
  8
┌▓È_1
  6
STITCH
 10
674.11889230059978
 20
-183.74543557979999
 30
0.0
 11
674.11889230059978
 21
-188.74543557979999
 31
0.0
  0
LINE
  5
24F
  8
┌▓È_1
  6
STITCH
 10
673.11889230060001
 20
-188.74543557979999
 30
0.0
 11
673.11889230060001
 21
-183.74543557979999
 31
0.0
  0
LINE
  5
250
  8
┌▓È_1
  6
STITCH
 10
688.86889230060001
 20
-203.49543557979999
 30
0.0
 11
688.86889230060001
 21
-204.49543557979999
 31
0.0
  0
LINE
  5
251
  8
┌▓È_1
 62
     5
 10
954.06712011859986
 20
-164.9985605798
 30
0.0
 11
979.06712011859986
 21
-164.9985605798
 31
0.0
  0
LINE
  5
252
  8
┌▓È_1
 62
     5
 10
979.06712011859986
 20
-169.9985605798
 30
0.0
 11
987.81712011859986
 21
-178.7485605798
 31
0.0
  0
LINE
  5
253
  8
┌▓È_1
 62
     5
 10
954.06712011859986
 20
-169.9985605798
 30
0.0
 11
945.31712011859997
 21
-178.7485605798
 31
0.0
  0
ENDSEC
  0
EOF
