  0
SECTION
  2
HEADER
  9
$ACADVER
  1
AC1009
  9
$INSBASE
 10
0.0
 20
0.0
 30
0.0
  9
$EXTMIN
 10
562.66224141529995
 20
-412.738639229
 30
0.0
  9
$EXTMAX
 10
1112.6622414153001
 20
-32.738639229
 30
0.0
  9
$LIMMIN
 10
0.0
 20
0.0
  9
$LIMMAX
 10
0.0
 20
0.0
  9
$ORTHOMODE
 70
     0
  9
$REGENMODE
 70
     1
  9
$FILLMODE
 70
     1
  9
$QTEXTMODE
 70
     0
  9
$MIRRTEXT
 70
     1
  9
$DRAGMODE
 70
     2
  9
$LTSCALE
 40
1.0
  9
$OSMODE
 70
    31
  9
$ATTMODE
 70
     1
  9
$TEXTSIZE
 40
0.0
  9
$TRACEWID
 40
0.05
  9
$TEXTSTYLE
  7
STANDARD
  9
$CLAYER
  8
0
  9
$CELTYPE
  6
CONTINUOUS
  9
$CECOLOR
 62
   256
  9
$DIMSCALE
 40
1.0
  9
$DIMASZ
 40
0.18
  9
$DIMEXO
 40
0.0625
  9
$DIMDLI
 40
0.38
  9
$DIMRND
 40
0.0
  9
$DIMDLE
 40
0.0
  9
$DIMEXE
 40
0.18
  9
$DIMTP
 40
0.0
  9
$DIMTM
 40
0.0
  9
$DIMTXT
 40
0.18
  9
$DIMCEN
 40
0.09
  9
$DIMTSZ
 40
0.0
  9
$DIMTOL
 70
     0
  9
$DIMLIM
 70
     0
  9
$DIMTIH
 70
     1
  9
$DIMTOH
 70
     1
  9
$DIMSE1
 70
     0
  9
$DIMSE2
 70
     0
  9
$DIMTAD
 70
     0
  9
$DIMZIN
 70
     0
  9
$DIMBLK
  1

  9
$DIMASO
 70
     1
  9
$DIMSHO
 70
     1
  9
$DIMPOST
  1

  9
$DIMAPOST
  1

  9
$DIMALT
 70
     0
  9
$DIMALTD
 70
     2
  9
$DIMALTF
 40
25.399999999999999
  9
$DIMLFAC
 40
1.0
  9
$DIMTOFL
 70
     0
  9
$DIMTVP
 40
0.0
  9
$DIMTIX
 70
     0
  9
$DIMSOXD
 70
     0
  9
$DIMSAH
 70
     0
  9
$DIMBLK1
  1

  9
$DIMBLK2
  1

  9
$DIMSTYLE
  2
STANDARD
  9
$DIMCLRD
 70
     0
  9
$DIMCLRE
 70
     0
  9
$DIMCLRT
 70
     0
  9
$DIMTFAC
 40
1.0
  9
$DIMGAP
 40
0.09
  9
$LUNITS
 70
     2
  9
$LUPREC
 70
     4
  9
$SKETCHINC
 40
0.1
  9
$FILLETRAD
 40
0.0
  9
$AUNITS
 70
     0
  9
$AUPREC
 70
     0
  9
$MENU
  1
acad
  9
$ELEVATION
 40
0.0
  9
$PELEVATION
 40
0.0
  9
$THICKNESS
 40
0.0
  9
$LIMCHECK
 70
     0
  9
$BLIPMODE
 70
     0
  9
$CHAMFERA
 40
0.0
  9
$CHAMFERB
 40
0.0
  9
$SKPOLY
 70
     0
  9
$TDCREATE
 40
2454862.744913009
  9
$TDUPDATE
 40
2454862.745079746
  9
$TDINDWG
 40
0.0001750579
  9
$TDUSRTIMER
 40
0.0001745139
  9
$USRTIMER
 70
     1
  9
$ANGBASE
 50
0.0
  9
$ANGDIR
 70
     0
  9
$PDMODE
 70
     3
  9
$PDSIZE
 40
-1.0
  9
$PLINEWID
 40
0.0
  9
$COORDS
 70
     2
  9
$SPLFRAME
 70
     0
  9
$SPLINETYPE
 70
     6
  9
$SPLINESEGS
 70
     8
  9
$ATTDIA
 70
     0
  9
$ATTREQ
 70
     1
  9
$HANDLING
 70
     1
  9
$HANDSEED
  5
516
  9
$SURFTAB1
 70
     6
  9
$SURFTAB2
 70
     6
  9
$SURFTYPE
 70
     6
  9
$SURFU
 70
     6
  9
$SURFV
 70
     6
  9
$UCSNAME
  2

  9
$UCSORG
 10
0.0
 20
0.0
 30
0.0
  9
$UCSXDIR
 10
1.0
 20
0.0
 30
0.0
  9
$UCSYDIR
 10
0.0
 20
1.0
 30
0.0
  9
$PUCSNAME
  2

  9
$PUCSORG
 10
0.0
 20
0.0
 30
0.0
  9
$PUCSXDIR
 10
1.0
 20
0.0
 30
0.0
  9
$PUCSYDIR
 10
0.0
 20
1.0
 30
0.0
  9
$USERI1
 70
     0
  9
$USERI2
 70
     0
  9
$USERI3
 70
     0
  9
$USERI4
 70
     0
  9
$USERI5
 70
     0
  9
$USERR1
 40
0.0
  9
$USERR2
 40
0.0
  9
$USERR3
 40
0.0
  9
$USERR4
 40
0.0
  9
$USERR5
 40
0.0
  9
$WORLDVIEW
 70
     1
  9
$SHADEDGE
 70
     3
  9
$SHADEDIF
 70
    70
  9
$TILEMODE
 70
     1
  9
$MAXACTVP
 70
    16
  9
$PLIMCHECK
 70
     0
  9
$PEXTMIN
 10
1.0000000000000000E+020
 20
1.0000000000000000E+020
 30
1.0000000000000000E+020
  9
$PEXTMAX
 10
-1.0000000000000000E+020
 20
-1.0000000000000000E+020
 30
-1.0000000000000000E+020
  9
$PLIMMIN
 10
0.0
 20
0.0
  9
$PLIMMAX
 10
12.0
 20
9.0
  9
$UNITMODE
 70
     0
  9
$VISRETAIN
 70
     0
  9
$PLINEGEN
 70
     1
  9
$PSLTSCALE
 70
     0
  0
ENDSEC
  0
SECTION
  2
TABLES
  0
TABLE
  2
VPORT
 70
     2
  0
VPORT
  2
*ACTIVE
 70
     0
 10
0.0
 20
0.0
 11
1.0
 21
1.0
 12
837.66224141530017
 22
-222.738639229
 13
0.0
 23
0.0
 14
1.0
 24
1.0
 15
0.0
 25
0.0
 16
0.0
 26
0.0
 36
1.0
 17
0.0
 27
0.0
 37
0.0
 40
397.98585584749202
 41
1.3903818953323901
 42
50.0
 43
0.0
 44
0.0
 50
0.0
 51
0.0
 71
     0
 72
   100
 73
     1
 74
     1
 75
     0
 76
     0
 77
     0
 78
     0
  0
ENDTAB
  0
TABLE
  2
LTYPE
 70
    11
  0
LTYPE
  2
CONTINUOUS
 70
     0
  3
Solid line
 72
    65
 73
     0
 40
0.0
  0
LTYPE
  2
DOT
 70
     0
  3
. . . . . . . . 
 72
    65
 73
     2
 40
1.0
 49
0.0
 49
-1.0
  0
LTYPE
  2
DASHED
 70
     0
  3
___  ___  ___  ___  
 72
    65
 73
     2
 40
4.0
 49
3.0
 49
-1.0
  0
LTYPE
  2
HIDDEN
 70
     0
  3
__ __ __ __ 
 72
    65
 73
     2
 40
3.0
 49
2.0
 49
-1.0
  0
LTYPE
  2
STITCH
 70
     0
  3
_ _ _ _ 
 72
    65
 73
     2
 40
2.0
 49
1.0
 49
-1.0
  0
LTYPE
  2
CENTER
 70
     0
  3
______  __  ______  __  
 72
    65
 73
     4
 40
43.0
 49
40.0
 49
-1.0
 49
1.0
 49
-1.0
  0
LTYPE
  2
DASHDOT
 70
     0
  3
____ . ____ . 
 72
    65
 73
     4
 40
32.0
 49
30.0
 49
-1.0
 49
0.0
 49
-1.0
  0
LTYPE
  2
BORDER
 70
     0
  3
__ . __ . 
 72
    65
 73
     4
 40
22.0
 49
20.0
 49
-1.0
 49
0.0
 49
-1.0
  0
LTYPE
  2
CUTTING
 70
     0
  3
________   ___   ___   
 72
    65
 73
     6
 40
45.0
 49
40.0
 49
-1.0
 49
1.0
 49
-1.0
 49
1.0
 49
-1.0
  0
LTYPE
  2
PHANTOM
 70
     0
  3
______  __  __  
 72
    65
 73
     6
 40
35.0
 49
30.0
 49
-1.0
 49
1.0
 49
-1.0
 49
1.0
 49
-1.0
  0
LTYPE
  2
DIVIDE
 70
     0
  3
____ . . ____ . . 
 72
    65
 73
     6
 40
23.0
 49
20.0
 49
-1.0
 49
0.0
 49
-1.0
 49
0.0
 49
-1.0
  0
ENDTAB
  0
TABLE
  2
LAYER
 70
     4
  0
LAYER
  2
0
 70
     0
 62
     7
  6
CONTINUOUS
  0
LAYER
  2
Éíû@É³
 70
     0
 62
     7
  6
CONTINUOUS
  0
LAYER
  2
┌▓È_1
 70
     0
 62
     7
  6
CONTINUOUS
  0
LAYER
  2
Defpoints
 70
     0
 62
     7
  6
CONTINUOUS
  0
ENDTAB
  0
TABLE
  2
STYLE
 70
     1
  0
STYLE
  2
STANDARD
 70
     0
 40
0.0
 41
1.0
 50
0.0
 71
     0
 42
0.0
  3
txt
  4
extfont
  0
ENDTAB
  0
TABLE
  2
VIEW
 70
     0
  0
ENDTAB
  0
TABLE
  2
UCS
 70
     0
  0
ENDTAB
  0
TABLE
  2
APPID
 70
     2
  0
APPID
  2
ACAD
 70
     0
  0
APPID
  2
DCO15
 70
     0
  0
ENDTAB
  0
TABLE
  2
DIMSTYLE
 70
     4
  0
DIMSTYLE
  2
STANDARD
 70
     0
  3

  4

  5

  6

  7

 40
1.0
 41
0.18
 42
0.0625
 43
0.38
 44
0.18
 45
0.0
 46
0.0
 47
0.0
 48
0.0
140
0.18
141
0.09
142
0.0
143
25.399999999999999
144
1.0
145
0.0
146
1.0
147
0.09
 71
     0
 72
     0
 73
     1
 74
     1
 75
     0
 76
     0
 77
     0
 78
     0
170
     0
171
     2
172
     0
173
     0
174
     0
175
     0
176
     0
177
     0
178
     0
  0
DIMSTYLE
  2
VELDIM0
 70
     0
  3

  4

  5

  6

  7

 40
1.0
 41
6.0
 42
0.0625
 43
0.38
 44
1.0
 45
0.0
 46
6.0
 47
0.0
 48
0.0
140
5.9972220420999998
141
0.09
142
0.0
143
25.399999999999999
144
1.0
145
0.0
146
1.0
147
0.09
 71
     0
 72
     0
 73
     0
 74
     0
 75
     0
 76
     0
 77
     0
 78
     8
170
     0
171
     2
172
     0
173
     0
174
     0
175
     0
176
     0
177
     0
178
     0
  0
DIMSTYLE
  2
VELDIM1
 70
     0
  3

  4

  5

  6

  7

 40
1.0
 41
6.0
 42
0.0625
 43
0.38
 44
0.5
 45
0.0
 46
3.0
 47
0.0
 48
0.0
140
5.9972220420999998
141
0.09
142
0.0
143
25.399999999999999
144
1.0
145
0.0
146
1.0
147
0.09
 71
     0
 72
     0
 73
     0
 74
     0
 75
     0
 76
     0
 77
     0
 78
     8
170
     0
171
     2
172
     0
173
     0
174
     0
175
     0
176
     0
177
     0
178
     0
  0
DIMSTYLE
  2
VELDIM2
 70
     0
  3

  4

  5

  6

  7

 40
1.0
 41
6.0
 42
0.0625
 43
0.38
 44
1.25
 45
0.0
 46
5.0
 47
0.0
 48
0.0
140
5.9972220420999998
141
0.09
142
0.0
143
25.399999999999999
144
1.0
145
0.0
146
1.0
147
0.09
 71
     0
 72
     0
 73
     0
 74
     0
 75
     0
 76
     0
 77
     0
 78
     8
170
     0
171
     2
172
     0
173
     0
174
     0
175
     0
176
     0
177
     0
178
     0
  0
ENDTAB
  0
ENDSEC
  0
SECTION
  2
BLOCKS
  0
BLOCK
  8
0
  2
$MODEL_SPACE
 70
     0
 10
0.0
 20
0.0
 30
0.0
  3
$MODEL_SPACE
  1

  0
ENDBLK
  5
E
  8
0
  0
BLOCK
 67
     1
  8
0
  2
$PAPER_SPACE
 70
     0
 10
0.0
 20
0.0
 30
0.0
  3
$PAPER_SPACE
  1

  0
ENDBLK
  5
10
 67
     1
  8
0
  0
BLOCK
  8
0
  2
*D0
 70
     1
 10
0.0
 20
0.0
 30
0.0
  3
*D0
  1

  0
TEXT
  5
31
  8
0
 62
     0
 10
800.02680134289994
 20
-196.3959637758
 30
0.0
 40
5.9972220420999998
  1
20
 50
90.0
  0
LINE
  5
32
  8
0
 62
     0
 10
836.0851346444
 20
-182.86818610399999
 30
0.0
 11
802.0851346444
 21
-182.86818610399999
 31
0.0
  0
LINE
  5
33
  8
0
 62
     0
 10
821.0851346444
 20
-202.86818610399999
 30
0.0
 11
802.0851346444
 21
-202.86818610399999
 31
0.0
  0
LINE
  5
34
  8
0
 62
     0
 10
803.0851346444
 20
-182.86818610399999
 30
0.0
 11
803.0851346444
 21
-185.81263076030001
 31
0.0
  0
LINE
  5
35
  8
0
 62
     0
 10
803.0851346444
 20
-182.86818610399999
 30
0.0
 11
803.0851346444
 21
-199.92374144760001
 31
0.0
  0
LINE
  5
36
  8
0
 62
     0
 10
803.0851346444
 20
-202.86818610399999
 30
0.0
 11
803.0851346444
 21
-185.81263076030001
 31
0.0
  0
LINE
  5
37
  8
0
 62
     0
 10
803.0851346444
 20
-202.86818610399999
 30
0.0
 11
803.0851346444
 21
-199.92374144760001
 31
0.0
  0
LINE
  5
38
  8
0
 62
     0
 10
803.0851346444
 20
-202.86818610399999
 30
0.0
 11
803.0851346444
 21
-208.86818610399999
 31
0.0
  0
SOLID
  5
39
  8
0
 62
     0
 10
803.0851346444
 20
-202.86818610399999
 30
0.0
 11
804.58513464439989
 21
-208.86818610399999
 31
0.0
 12
801.5851346444
 22
-208.86818610399999
 32
0.0
 13
803.0851346444
 23
-207.36818610399999
 33
0.0
  0
LINE
  5
3A
  8
0
 62
     0
 10
803.0851346444
 20
-182.86818610399999
 30
0.0
 11
803.0851346444
 21
-176.86818610399999
 31
0.0
  0
SOLID
  5
3B
  8
0
 62
     0
 10
803.0851346444
 20
-182.86818610399999
 30
0.0
 11
801.5851346444
 21
-176.86818610399999
 31
0.0
 12
804.58513464439989
 22
-176.86818610399999
 32
0.0
 13
803.0851346444
 23
-178.36818610399999
 33
0.0
  0
ENDBLK
  5
3C
  8
0
  0
BLOCK
  8
0
  2
*D1
 70
     1
 10
0.0
 20
0.0
 30
0.0
  3
*D1
  1

  0
TEXT
  5
41
  8
0
 62
     0
 10
800.02680134289994
 20
-164.8959637758
 30
0.0
 40
5.9972220420999998
  1
43
 50
90.0
  0
LINE
  5
42
  8
0
 62
     0
 10
826.08513464439989
 20
-139.86818610399999
 30
0.0
 11
802.0851346444
 21
-139.86818610399999
 31
0.0
  0
LINE
  5
43
  8
0
 62
     0
 10
836.0851346444
 20
-182.86818610399999
 30
0.0
 11
802.0851346444
 21
-182.86818610399999
 31
0.0
  0
LINE
  5
44
  8
0
 62
     0
 10
803.0851346444
 20
-139.86818610399999
 30
0.0
 11
803.0851346444
 21
-154.31263076030001
 31
0.0
  0
LINE
  5
45
  8
0
 62
     0
 10
803.0851346444
 20
-139.86818610399999
 30
0.0
 11
803.0851346444
 21
-168.42374144760001
 31
0.0
  0
LINE
  5
46
  8
0
 62
     0
 10
803.0851346444
 20
-182.86818610399999
 30
0.0
 11
803.0851346444
 21
-154.31263076030001
 31
0.0
  0
LINE
  5
47
  8
0
 62
     0
 10
803.0851346444
 20
-182.86818610399999
 30
0.0
 11
803.0851346444
 21
-168.42374144760001
 31
0.0
  0
LINE
  5
48
  8
0
 62
     0
 10
803.0851346444
 20
-182.86818610399999
 30
0.0
 11
803.0851346444
 21
-176.86818610399999
 31
0.0
  0
SOLID
  5
49
  8
0
 62
     0
 10
803.0851346444
 20
-182.86818610399999
 30
0.0
 11
801.5851346444
 21
-176.86818610399999
 31
0.0
 12
804.58513464439989
 22
-176.86818610399999
 32
0.0
 13
803.0851346444
 23
-178.36818610399999
 33
0.0
  0
LINE
  5
4A
  8
0
 62
     0
 10
803.0851346444
 20
-139.86818610399999
 30
0.0
 11
803.0851346444
 21
-145.86818610399999
 31
0.0
  0
SOLID
  5
4B
  8
0
 62
     0
 10
803.0851346444
 20
-139.86818610399999
 30
0.0
 11
804.58513464439989
 21
-145.86818610399999
 31
0.0
 12
801.5851346444
 22
-145.86818610399999
 32
0.0
 13
803.0851346444
 23
-144.36818610399999
 33
0.0
  0
ENDBLK
  5
4C
  8
0
  0
BLOCK
  8
0
  2
*D2
 70
     1
 10
0.0
 20
0.0
 30
0.0
  3
*D2
  1

  0
TEXT
  5
50
  8
0
 62
     0
 10
800.02680134289994
 20
-137.3959637758
 30
0.0
 40
5.9972220420999998
  1
12
 50
90.0
  0
LINE
  5
51
  8
0
 62
     0
 10
821.0851346444
 20
-127.868186104
 30
0.0
 11
802.0851346444
 21
-127.868186104
 31
0.0
  0
LINE
  5
52
  8
0
 62
     0
 10
826.08513464439989
 20
-139.86818610399999
 30
0.0
 11
802.0851346444
 21
-139.86818610399999
 31
0.0
  0
LINE
  5
53
  8
0
 62
     0
 10
803.0851346444
 20
-127.868186104
 30
0.0
 11
803.0851346444
 21
-127.868186104
 31
0.0
  0
LINE
  5
54
  8
0
 62
     0
 10
803.0851346444
 20
-127.868186104
 30
0.0
 11
803.0851346444
 21
-139.86818610399999
 31
0.0
  0
LINE
  5
55
  8
0
 62
     0
 10
803.0851346444
 20
-139.86818610399999
 30
0.0
 11
803.0851346444
 21
-127.868186104
 31
0.0
  0
LINE
  5
56
  8
0
 62
     0
 10
803.0851346444
 20
-139.86818610399999
 30
0.0
 11
803.0851346444
 21
-139.86818610399999
 31
0.0
  0
LINE
  5
57
  8
0
 62
     0
 10
803.0851346444
 20
-139.86818610399999
 30
0.0
 11
803.0851346444
 21
-145.86818610399999
 31
0.0
  0
SOLID
  5
58
  8
0
 62
     0
 10
803.0851346444
 20
-139.86818610399999
 30
0.0
 11
804.58513464439989
 21
-145.86818610399999
 31
0.0
 12
801.5851346444
 22
-145.86818610399999
 32
0.0
 13
803.0851346444
 23
-144.36818610399999
 33
0.0
  0
LINE
  5
59
  8
0
 62
     0
 10
803.0851346444
 20
-127.868186104
 30
0.0
 11
803.0851346444
 21
-121.868186104
 31
0.0
  0
SOLID
  5
5A
  8
0
 62
     0
 10
803.0851346444
 20
-127.868186104
 30
0.0
 11
801.5851346444
 21
-121.868186104
 31
0.0
 12
804.58513464439989
 22
-121.868186104
 32
0.0
 13
803.0851346444
 23
-123.368186104
 33
0.0
  0
ENDBLK
  5
5B
  8
0
  0
BLOCK
  8
0
  2
*D3
 70
     1
 10
0.0
 20
0.0
 30
0.0
  3
*D3
  1

  0
TEXT
  5
5F
  8
0
 62
     0
 10
761.00238081659995
 20
-311.59031012999998
 30
0.0
 40
5.9972220420999998
  1
11
 50
90.0
  0
LINE
  5
60
  8
0
 62
     0
 10
697.06071411810001
 20
-313.56253245810001
 30
0.0
 11
765.06071411810001
 21
-313.56253245810001
 31
0.0
  0
LINE
  5
61
  8
0
 62
     0
 10
746.06071411810001
 20
-302.56253245810001
 30
0.0
 11
765.06071411810001
 21
-302.56253245810001
 31
0.0
  0
LINE
  5
62
  8
0
 62
     0
 10
764.06071411810001
 20
-313.56253245810001
 30
0.0
 11
764.06071411810001
 21
-313.56253245810001
 31
0.0
  0
LINE
  5
63
  8
0
 62
     0
 10
764.06071411810001
 20
-313.56253245810001
 30
0.0
 11
764.06071411810001
 21
-302.56253245810001
 31
0.0
  0
LINE
  5
64
  8
0
 62
     0
 10
764.06071411810001
 20
-302.56253245810001
 30
0.0
 11
764.06071411810001
 21
-313.56253245810001
 31
0.0
  0
LINE
  5
65
  8
0
 62
     0
 10
764.06071411810001
 20
-302.56253245810001
 30
0.0
 11
764.06071411810001
 21
-302.56253245810001
 31
0.0
  0
LINE
  5
66
  8
0
 62
     0
 10
764.06071411810001
 20
-302.56253245810001
 30
0.0
 11
764.06071411810001
 21
-296.56253245810001
 31
0.0
  0
SOLID
  5
67
  8
0
 62
     0
 10
764.06071411810001
 20
-302.56253245810001
 30
0.0
 11
762.5607141180999
 21
-296.56253245810001
 31
0.0
 12
765.56071411810001
 22
-296.56253245810001
 32
0.0
 13
764.06071411810001
 23
-298.06253245810001
 33
0.0
  0
LINE
  5
68
  8
0
 62
     0
 10
764.06071411810001
 20
-313.56253245810001
 30
0.0
 11
764.06071411810001
 21
-319.56253245810001
 31
0.0
  0
SOLID
  5
69
  8
0
 62
     0
 10
764.06071411810001
 20
-313.56253245810001
 30
0.0
 11
765.56071411810001
 21
-319.56253245810001
 31
0.0
 12
762.5607141180999
 22
-319.56253245810001
 32
0.0
 13
764.06071411810001
 23
-318.06253245810001
 33
0.0
  0
ENDBLK
  5
6A
  8
0
  0
BLOCK
  8
0
  2
*D4
 70
     1
 10
0.0
 20
0.0
 30
0.0
  3
*D4
  1

  0
TEXT
  5
6E
  8
0
 62
     0
 10
761.00238081659995
 20
-322.09031012999998
 30
0.0
 40
5.9972220420999998
  1
10
 50
90.0
  0
LINE
  5
6F
  8
0
 62
     0
 10
740.06071411810001
 20
-323.56253245810001
 30
0.0
 11
765.06071411810001
 21
-323.56253245810001
 31
0.0
  0
LINE
  5
70
  8
0
 62
     0
 10
697.06071411810001
 20
-313.56253245810001
 30
0.0
 11
765.06071411810001
 21
-313.56253245810001
 31
0.0
  0
LINE
  5
71
  8
0
 62
     0
 10
764.06071411810001
 20
-323.56253245810001
 30
0.0
 11
764.06071411810001
 21
-323.56253245810001
 31
0.0
  0
LINE
  5
72
  8
0
 62
     0
 10
764.06071411810001
 20
-323.56253245810001
 30
0.0
 11
764.06071411810001
 21
-313.56253245810001
 31
0.0
  0
LINE
  5
73
  8
0
 62
     0
 10
764.06071411810001
 20
-313.56253245810001
 30
0.0
 11
764.06071411810001
 21
-323.56253245810001
 31
0.0
  0
LINE
  5
74
  8
0
 62
     0
 10
764.06071411810001
 20
-313.56253245810001
 30
0.0
 11
764.06071411810001
 21
-313.56253245810001
 31
0.0
  0
LINE
  5
75
  8
0
 62
     0
 10
764.06071411810001
 20
-313.56253245810001
 30
0.0
 11
764.06071411810001
 21
-307.56253245810001
 31
0.0
  0
SOLID
  5
76
  8
0
 62
     0
 10
764.06071411810001
 20
-313.56253245810001
 30
0.0
 11
762.5607141180999
 21
-307.56253245810001
 31
0.0
 12
765.56071411810001
 22
-307.56253245810001
 32
0.0
 13
764.06071411810001
 23
-309.06253245810001
 33
0.0
  0
LINE
  5
77
  8
0
 62
     0
 10
764.06071411810001
 20
-323.56253245810001
 30
0.0
 11
764.06071411810001
 21
-329.56253245810001
 31
0.0
  0
SOLID
  5
78
  8
0
 62
     0
 10
764.06071411810001
 20
-323.56253245810001
 30
0.0
 11
765.56071411810001
 21
-329.56253245810001
 31
0.0
 12
762.5607141180999
 22
-329.56253245810001
 32
0.0
 13
764.06071411810001
 23
-328.06253245810001
 33
0.0
  0
ENDBLK
  5
79
  8
0
  0
BLOCK
  8
0
  2
*D5
 70
     1
 10
0.0
 20
0.0
 30
0.0
  3
*D5
  1

  0
TEXT
  5
7D
  8
0
 62
     0
 10
761.00238081659995
 20
-332.59031012999998
 30
0.0
 40
5.9972220420999998
  1
11
 50
90.0
  0
LINE
  5
7E
  8
0
 62
     0
 10
746.06071411810001
 20
-334.56253245810001
 30
0.0
 11
765.06071411810001
 21
-334.56253245810001
 31
0.0
  0
LINE
  5
7F
  8
0
 62
     0
 10
740.06071411810001
 20
-323.56253245810001
 30
0.0
 11
765.06071411810001
 21
-323.56253245810001
 31
0.0
  0
LINE
  5
80
  8
0
 62
     0
 10
764.06071411810001
 20
-334.56253245810001
 30
0.0
 11
764.06071411810001
 21
-334.56253245810001
 31
0.0
  0
LINE
  5
81
  8
0
 62
     0
 10
764.06071411810001
 20
-334.56253245810001
 30
0.0
 11
764.06071411810001
 21
-323.56253245810001
 31
0.0
  0
LINE
  5
82
  8
0
 62
     0
 10
764.06071411810001
 20
-323.56253245810001
 30
0.0
 11
764.06071411810001
 21
-334.56253245810001
 31
0.0
  0
LINE
  5
83
  8
0
 62
     0
 10
764.06071411810001
 20
-323.56253245810001
 30
0.0
 11
764.06071411810001
 21
-323.56253245810001
 31
0.0
  0
LINE
  5
84
  8
0
 62
     0
 10
764.06071411810001
 20
-323.56253245810001
 30
0.0
 11
764.06071411810001
 21
-317.56253245810001
 31
0.0
  0
SOLID
  5
85
  8
0
 62
     0
 10
764.06071411810001
 20
-323.56253245810001
 30
0.0
 11
762.5607141180999
 21
-317.56253245810001
 31
0.0
 12
765.56071411810001
 22
-317.56253245810001
 32
0.0
 13
764.06071411810001
 23
-319.06253245810001
 33
0.0
  0
LINE
  5
86
  8
0
 62
     0
 10
764.06071411810001
 20
-334.56253245810001
 30
0.0
 11
764.06071411810001
 21
-340.56253245810001
 31
0.0
  0
SOLID
  5
87
  8
0
 62
     0
 10
764.06071411810001
 20
-334.56253245810001
 30
0.0
 11
765.56071411810001
 21
-340.56253245810001
 31
0.0
 12
762.5607141180999
 22
-340.56253245810001
 32
0.0
 13
764.06071411810001
 23
-339.06253245810001
 33
0.0
  0
ENDBLK
  5
88
  8
0
  0
BLOCK
  8
0
  2
*D6
 70
     1
 10
0.0
 20
0.0
 30
0.0
  3
*D6
  1

  0
TEXT
  5
8C
  8
0
 62
     0
 10
675.53293644630003
 20
-279.50419915660001
 30
0.0
 40
5.9972220420999998
  1
20
  0
LINE
  5
8D
  8
0
 62
     0
 10
689.06071411810001
 20
-305.56253245810001
 30
0.0
 11
689.06071411810001
 21
-281.56253245810001
 31
0.0
  0
LINE
  5
8E
  8
0
 62
     0
 10
669.06071411810001
 20
-300.56253245810001
 30
0.0
 11
669.06071411810001
 21
-281.56253245810001
 31
0.0
  0
LINE
  5
8F
  8
0
 62
     0
 10
689.06071411810001
 20
-282.56253245810001
 30
0.0
 11
686.11626946169986
 21
-282.56253245810001
 31
0.0
  0
LINE
  5
90
  8
0
 62
     0
 10
689.06071411810001
 20
-282.56253245810001
 30
0.0
 11
672.00515877449993
 21
-282.56253245810001
 31
0.0
  0
LINE
  5
91
  8
0
 62
     0
 10
669.06071411810001
 20
-282.56253245810001
 30
0.0
 11
686.11626946169986
 21
-282.56253245810001
 31
0.0
  0
LINE
  5
92
  8
0
 62
     0
 10
669.06071411810001
 20
-282.56253245810001
 30
0.0
 11
672.00515877449993
 21
-282.56253245810001
 31
0.0
  0
LINE
  5
93
  8
0
 62
     0
 10
669.06071411810001
 20
-282.56253245810001
 30
0.0
 11
663.06071411810001
 21
-282.56253245810001
 31
0.0
  0
SOLID
  5
94
  8
0
 62
     0
 10
669.06071411810001
 20
-282.56253245810001
 30
0.0
 11
663.06071411810001
 21
-284.06253245810001
 31
0.0
 12
663.06071411810001
 22
-281.06253245810001
 32
0.0
 13
664.56071411810001
 23
-282.56253245810001
 33
0.0
  0
LINE
  5
95
  8
0
 62
     0
 10
689.06071411810001
 20
-282.56253245810001
 30
0.0
 11
695.0607141180999
 21
-282.56253245810001
 31
0.0
  0
SOLID
  5
96
  8
0
 62
     0
 10
689.06071411810001
 20
-282.56253245810001
 30
0.0
 11
695.0607141180999
 21
-281.06253245810001
 31
0.0
 12
695.0607141180999
 22
-284.06253245810001
 32
0.0
 13
693.56071411810001
 23
-282.56253245810001
 33
0.0
  0
ENDBLK
  5
97
  8
0
  0
BLOCK
  8
0
  2
*D7
 70
     1
 10
0.0
 20
0.0
 30
0.0
  3
*D7
  1

  0
TEXT
  5
9B
  8
0
 62
     0
 10
707.03293644630003
 20
-279.50419915660001
 30
0.0
 40
5.9972220420999998
  1
43
  0
LINE
  5
9C
  8
0
 62
     0
 10
732.06071411810001
 20
-315.56253245810001
 30
0.0
 11
732.06071411810001
 21
-281.56253245810001
 31
0.0
  0
LINE
  5
9D
  8
0
 62
     0
 10
689.06071411810001
 20
-305.56253245810001
 30
0.0
 11
689.06071411810001
 21
-281.56253245810001
 31
0.0
  0
LINE
  5
9E
  8
0
 62
     0
 10
732.06071411810001
 20
-282.56253245810001
 30
0.0
 11
717.61626946169997
 21
-282.56253245810001
 31
0.0
  0
LINE
  5
9F
  8
0
 62
     0
 10
732.06071411810001
 20
-282.56253245810001
 30
0.0
 11
703.50515877449993
 21
-282.56253245810001
 31
0.0
  0
LINE
  5
A0
  8
0
 62
     0
 10
689.06071411810001
 20
-282.56253245810001
 30
0.0
 11
717.61626946169997
 21
-282.56253245810001
 31
0.0
  0
LINE
  5
A1
  8
0
 62
     0
 10
689.06071411810001
 20
-282.56253245810001
 30
0.0
 11
703.50515877449993
 21
-282.56253245810001
 31
0.0
  0
LINE
  5
A2
  8
0
 62
     0
 10
689.06071411810001
 20
-282.56253245810001
 30
0.0
 11
695.0607141180999
 21
-282.56253245810001
 31
0.0
  0
SOLID
  5
A3
  8
0
 62
     0
 10
689.06071411810001
 20
-282.56253245810001
 30
0.0
 11
695.0607141180999
 21
-281.06253245810001
 31
0.0
 12
695.0607141180999
 22
-284.06253245810001
 32
0.0
 13
693.56071411810001
 23
-282.56253245810001
 33
0.0
  0
LINE
  5
A4
  8
0
 62
     0
 10
732.06071411810001
 20
-282.56253245810001
 30
0.0
 11
726.06071411810001
 21
-282.56253245810001
 31
0.0
  0
SOLID
  5
A5
  8
0
 62
     0
 10
732.06071411810001
 20
-282.56253245810001
 30
0.0
 11
726.06071411810001
 21
-284.06253245810001
 31
0.0
 12
726.06071411810001
 22
-281.06253245810001
 32
0.0
 13
727.56071411810001
 23
-282.56253245810001
 33
0.0
  0
ENDBLK
  5
A6
  8
0
  0
BLOCK
  8
0
  2
*D8
 70
     1
 10
0.0
 20
0.0
 30
0.0
  3
*D8
  1

  0
TEXT
  5
AA
  8
0
 62
     0
 10
734.53293644630003
 20
-279.50419915660001
 30
0.0
 40
5.9972220420999998
  1
12
  0
LINE
  5
AB
  8
0
 62
     0
 10
744.06071411810001
 20
-300.56253245810001
 30
0.0
 11
744.06071411810001
 21
-281.56253245810001
 31
0.0
  0
LINE
  5
AC
  8
0
 62
     0
 10
732.06071411810001
 20
-315.56253245810001
 30
0.0
 11
732.06071411810001
 21
-281.56253245810001
 31
0.0
  0
LINE
  5
AD
  8
0
 62
     0
 10
744.06071411810001
 20
-282.56253245810001
 30
0.0
 11
744.06071411810001
 21
-282.56253245810001
 31
0.0
  0
LINE
  5
AE
  8
0
 62
     0
 10
744.06071411810001
 20
-282.56253245810001
 30
0.0
 11
732.06071411810001
 21
-282.56253245810001
 31
0.0
  0
LINE
  5
AF
  8
0
 62
     0
 10
732.06071411810001
 20
-282.56253245810001
 30
0.0
 11
744.06071411810001
 21
-282.56253245810001
 31
0.0
  0
LINE
  5
B0
  8
0
 62
     0
 10
732.06071411810001
 20
-282.56253245810001
 30
0.0
 11
732.06071411810001
 21
-282.56253245810001
 31
0.0
  0
LINE
  5
B1
  8
0
 62
     0
 10
732.06071411810001
 20
-282.56253245810001
 30
0.0
 11
738.06071411810001
 21
-282.56253245810001
 31
0.0
  0
SOLID
  5
B2
  8
0
 62
     0
 10
732.06071411810001
 20
-282.56253245810001
 30
0.0
 11
738.06071411810001
 21
-281.06253245810001
 31
0.0
 12
738.06071411810001
 22
-284.06253245810001
 32
0.0
 13
736.56071411810001
 23
-282.56253245810001
 33
0.0
  0
LINE
  5
B3
  8
0
 62
     0
 10
744.06071411810001
 20
-282.56253245810001
 30
0.0
 11
738.06071411810001
 21
-282.56253245810001
 31
0.0
  0
SOLID
  5
B4
  8
0
 62
     0
 10
744.06071411810001
 20
-282.56253245810001
 30
0.0
 11
738.06071411810001
 21
-284.06253245810001
 31
0.0
 12
738.06071411810001
 22
-281.06253245810001
 32
0.0
 13
739.56071411810001
 23
-282.56253245810001
 33
0.0
  0
ENDBLK
  5
B5
  8
0
  0
BLOCK
  8
0
  2
*D9
 70
     1
 10
0.0
 20
0.0
 30
0.0
  3
*D9
  1

  0
TEXT
  5
C4
  8
0
 62
     0
 10
961.03396658589986
 20
-145.55673619359999
 30
0.0
 40
5.9972220420999998
  1
%%c5
  0
LINE
  5
C5
  8
0
 62
     0
 10
978.8256330936
 20
-173.0521157915
 30
0.0
 11
978.8256330936
 21
-147.1150694952
 31
0.0
  0
LINE
  5
C6
  8
0
 62
     0
 10
953.8256330936
 20
-173.0521157915
 30
0.0
 11
953.8256330936
 21
-147.1150694952
 31
0.0
  0
LINE
  5
C7
  8
0
 62
     0
 10
978.8256330936
 20
-147.6150694952
 30
0.0
 11
975.14507727320006
 21
-147.6150694952
 31
0.0
  0
LINE
  5
C8
  8
0
 62
     0
 10
978.8256330936
 20
-147.6150694952
 30
0.0
 11
957.50618891409999
 21
-147.6150694952
 31
0.0
  0
LINE
  5
C9
  8
0
 62
     0
 10
953.8256330936
 20
-147.6150694952
 30
0.0
 11
975.14507727320006
 21
-147.6150694952
 31
0.0
  0
LINE
  5
CA
  8
0
 62
     0
 10
953.8256330936
 20
-147.6150694952
 30
0.0
 11
957.50618891409999
 21
-147.6150694952
 31
0.0
  0
LINE
  5
CB
  8
0
 62
     0
 10
953.8256330936
 20
-147.6150694952
 30
0.0
 11
950.82563309359989
 21
-147.6150694952
 31
0.0
  0
SOLID
  5
CC
  8
0
 62
     0
 10
953.8256330936
 20
-147.6150694952
 30
0.0
 11
947.8256330936
 21
-149.1150694952
 31
0.0
 12
947.8256330936
 22
-146.1150694952
 32
0.0
 13
949.3256330936
 23
-147.6150694952
 33
0.0
  0
LINE
  5
CD
  8
0
 62
     0
 10
978.8256330936
 20
-147.6150694952
 30
0.0
 11
981.8256330936
 21
-147.6150694952
 31
0.0
  0
SOLID
  5
CE
  8
0
 62
     0
 10
978.8256330936
 20
-147.6150694952
 30
0.0
 11
984.82563309359989
 21
-146.1150694952
 31
0.0
 12
984.82563309359989
 22
-149.1150694952
 32
0.0
 13
983.3256330936
 23
-147.6150694952
 33
0.0
  0
ENDBLK
  5
CF
  8
0
  0
BLOCK
  8
0
  2
*D10
 70
     1
 10
0.0
 20
0.0
 30
0.0
  3
*D10
  1

  0
TEXT
  5
D3
  8
0
 62
     0
 10
835.55735697259991
 20
-89.467871031599998
 30
0.0
 40
5.9972220420999998
  1
32
  0
LINE
  5
D4
  8
0
 62
     0
 10
855.0851346444
 20
-126.868186104
 30
0.0
 11
855.0851346444
 21
-91.026204333099983
 31
0.0
  0
LINE
  5
D5
  8
0
 62
     0
 10
823.0851346444
 20
-126.868186104
 30
0.0
 11
823.0851346444
 21
-91.026204333099983
 31
0.0
  0
LINE
  5
D6
  8
0
 62
     0
 10
855.0851346444
 20
-91.526204333099997
 30
0.0
 11
846.14068998810001
 21
-91.526204333099997
 31
0.0
  0
LINE
  5
D7
  8
0
 62
     0
 10
855.0851346444
 20
-91.526204333099997
 30
0.0
 11
832.02957930080004
 21
-91.526204333099997
 31
0.0
  0
LINE
  5
D8
  8
0
 62
     0
 10
823.0851346444
 20
-91.526204333099997
 30
0.0
 11
846.14068998810001
 21
-91.526204333099997
 31
0.0
  0
LINE
  5
D9
  8
0
 62
     0
 10
823.0851346444
 20
-91.526204333099997
 30
0.0
 11
832.02957930080004
 21
-91.526204333099997
 31
0.0
  0
LINE
  5
DA
  8
0
 62
     0
 10
823.0851346444
 20
-91.526204333099997
 30
0.0
 11
826.08513464439989
 21
-91.526204333099997
 31
0.0
  0
SOLID
  5
DB
  8
0
 62
     0
 10
823.0851346444
 20
-91.526204333099997
 30
0.0
 11
829.0851346444
 21
-90.026204333099983
 31
0.0
 12
829.0851346444
 22
-93.026204333099997
 32
0.0
 13
827.5851346444
 23
-91.526204333099997
 33
0.0
  0
LINE
  5
DC
  8
0
 62
     0
 10
855.0851346444
 20
-91.526204333099997
 30
0.0
 11
852.0851346444
 21
-91.526204333099997
 31
0.0
  0
SOLID
  5
DD
  8
0
 62
     0
 10
855.0851346444
 20
-91.526204333099997
 30
0.0
 11
849.08513464439989
 21
-93.026204333099997
 31
0.0
 12
849.08513464439989
 22
-90.026204333099983
 32
0.0
 13
850.5851346444
 23
-91.526204333099997
 33
0.0
  0
ENDBLK
  5
DE
  8
0
  0
BLOCK
  8
0
  2
*D11
 70
     1
 10
0.0
 20
0.0
 30
0.0
  3
*D11
  1

  0
TEXT
  5
E3
  8
0
 62
     0
 10
961.03396658589986
 20
-116.73434042389999
 30
0.0
 40
5.9972220420999998
  1
90%%d
  0
ARC
  5
E4
  8
0
 62
     0
 10
966.3256330936
 20
-186.5521157915
 30
0.0
 40
66.642775463000007
 50
128.5321034497
 51
135.0
  0
ARC
  5
E5
  8
0
 62
     0
 10
966.3256330936
 20
-186.5521157915
 30
0.0
 40
66.642775463000007
 50
45.0
 51
51.467896550299997
  0
SOLID
  5
E6
  8
0
 62
     0
 10
1013.4491915406001
 20
-139.42855734450001
 30
0.0
 11
1018.7524923995001
 21
-142.61053785990001
 31
0.0
 12
1016.6311720559
 22
-144.73185820340001
 32
0.0
 13
1016.6311720559
 23
-142.61053785990001
 33
0.0
  0
SOLID
  5
E7
  8
0
 62
     0
 10
919.20207464669988
 20
-139.42855734450001
 30
0.0
 11
916.02009413129997
 21
-144.73185820340001
 31
0.0
 12
913.8987737878
 22
-142.61053785990001
 32
0.0
 13
916.02009413129997
 23
-142.61053785990001
 33
0.0
  0
ARC
  5
E8
  8
0
 62
     0
 10
966.3256330936
 20
-186.5521157915
 30
0.0
 40
66.642775463000007
 50
45.0
 51
82.3001922487
  0
ARC
  5
E9
  8
0
 62
     0
 10
966.3256330936
 20
-186.5521157915
 30
0.0
 40
66.642775463000007
 50
97.699807751299986
 51
135.0
  0
LINE
  5
EA
  8
0
 62
     0
 10
990.09536793329994
 20
-162.78238095180001
 30
0.0
 11
1015.9689263803
 21
-136.90882250480001
 31
0.0
  0
LINE
  5
EB
  8
0
 62
     0
 10
942.55589825389995
 20
-162.78238095180001
 30
0.0
 11
916.68233980699995
 21
-136.90882250480001
 31
0.0
  0
ENDBLK
  5
EC
  8
0
  0
BLOCK
  8
0
  2
*D12
 70
     1
 10
0.0
 20
0.0
 30
0.0
  3
*D12
  1

  0
TEXT
  5
F0
  8
0
 62
     0
 10
699.46210830610005
 20
-165.228654275
 30
0.0
 40
5.9972220420999998
  1
90%%d
 50
314.7617835593
  0
ARC
  5
F1
  8
0
 62
     0
 10
673.56071411810001
 20
-198.36818610399999
 30
0.0
 40
38.5515990018
 50
77.210896778800006
 51
90.0
  0
ARC
  5
F2
  8
0
 62
     0
 10
673.56071411810001
 20
-198.36818610399999
 30
0.0
 40
38.5515990018
 50
0.0
 51
12.7891032212
  0
SOLID
  5
F3
  8
0
 62
     0
 10
712.11231311989991
 20
-198.36818610399999
 30
0.0
 11
713.61231311990002
 21
-204.36818610399999
 31
0.0
 12
710.61231311990002
 22
-204.36818610399999
 32
0.0
 13
712.11231311989991
 23
-202.86818610399999
 33
0.0
  0
SOLID
  5
F4
  8
0
 62
     0
 10
673.56071411810001
 20
-159.8165871022
 30
0.0
 11
667.56071411810001
 21
-161.3165871022
 31
0.0
 12
667.56071411810001
 22
-158.3165871022
 32
0.0
 13
669.06071411810001
 23
-159.8165871022
 33
0.0
  0
ARC
  5
F5
  8
0
 62
     0
 10
673.56071411810001
 20
-198.36818610399999
 30
0.0
 40
38.5515990018
 50
0.0
 51
31.403641257
  0
ARC
  5
F6
  8
0
 62
     0
 10
673.56071411810001
 20
-198.36818610399999
 30
0.0
 40
38.5515990018
 50
58.119925861499993
 51
90.0
  0
LINE
  5
F7
  8
0
 62
     0
 10
725.49727093419995
 20
-198.36818610399999
 30
0.0
 11
708.54886993599996
 21
-198.36818610399999
 31
0.0
  0
LINE
  5
F8
  8
0
 62
     0
 10
673.56071411810001
 20
-146.43162928789999
 30
0.0
 11
673.56071411810001
 21
-163.38003028610001
 31
0.0
  0
ENDBLK
  5
F9
  8
0
  0
BLOCK
  8
0
  2
*D13
 70
     1
 10
0.0
 20
0.0
 30
0.0
  3
*D13
  1

  0
TEXT
  5
FD
  8
0
 62
     0
 10
961.03396658589986
 20
-221.7131289077
 30
0.0
 40
5.9972220420999998
  1
90%%d
  0
ARC
  5
FE
  8
0
 62
     0
 10
966.3256330936
 20
-166.5521157915
 30
0.0
 40
58.336013020799989
 50
307.46168715729999
 51
315.0
  0
ARC
  5
FF
  8
0
 62
     0
 10
966.3256330936
 20
-166.5521157915
 30
0.0
 40
58.336013020799989
 50
225.0
 51
232.53831284270001
  0
SOLID
  5
100
  8
0
 62
     0
 10
925.07584269920005
 20
-207.80190618590001
 30
0.0
 11
919.77254184029994
 21
-204.61992567050001
 31
0.0
 12
921.89386218389996
 22
-202.49860532700001
 32
0.0
 13
921.89386218389996
 23
-204.61992567050001
 33
0.0
  0
SOLID
  5
101
  8
0
 62
     0
 10
1007.5754234881
 20
-207.80190618590001
 30
0.0
 11
1010.7574040034
 21
-202.49860532700001
 31
0.0
 12
1012.878724347
 22
-204.61992567050001
 32
0.0
 13
1010.7574040034
 23
-204.61992567050001
 33
0.0
  0
ARC
  5
102
  8
0
 62
     0
 10
966.3256330936
 20
-166.5521157915
 30
0.0
 40
58.336013020799989
 50
225.0
 51
259.06207283819998
  0
ARC
  5
103
  8
0
 62
     0
 10
966.3256330936
 20
-166.5521157915
 30
0.0
 40
58.336013020799989
 50
280.93792716180002
 51
315.0
  0
LINE
  5
104
  8
0
 62
     0
 10
942.55589825389995
 20
-190.32185063119999
 30
0.0
 11
922.55610785949989
 21
-210.3216410256
 31
0.0
  0
LINE
  5
105
  8
0
 62
     0
 10
990.09536793329994
 20
-190.32185063119999
 30
0.0
 11
1010.0951583278
 21
-210.3216410256
 31
0.0
  0
ENDBLK
  5
106
  8
0
  0
BLOCK
  8
0
  2
*D14
 70
     1
 10
0.0
 20
0.0
 30
0.0
  3
*D14
  1

  0
TEXT
  5
10A
  8
0
 62
     0
 10
957.50618891409999
 20
-131.21454869359999
 30
0.0
 40
5.9972220420999998
  1
%%c8.5
  0
LINE
  5
10B
  8
0
 62
     0
 10
987.57563309359989
 20
-164.3021157915
 30
0.0
 11
987.57563309359989
 21
-132.77288199520001
 31
0.0
  0
LINE
  5
10C
  8
0
 62
     0
 10
945.0756330936
 20
-164.3021157915
 30
0.0
 11
945.0756330936
 21
-132.77288199520001
 31
0.0
  0
LINE
  5
10D
  8
0
 62
     0
 10
987.57563309359989
 20
-133.27288199520001
 30
0.0
 11
978.67285494500004
 21
-133.27288199520001
 31
0.0
  0
LINE
  5
10E
  8
0
 62
     0
 10
987.57563309359989
 20
-133.27288199520001
 30
0.0
 11
953.9784112422999
 21
-133.27288199520001
 31
0.0
  0
LINE
  5
10F
  8
0
 62
     0
 10
945.0756330936
 20
-133.27288199520001
 30
0.0
 11
978.67285494500004
 21
-133.27288199520001
 31
0.0
  0
LINE
  5
110
  8
0
 62
     0
 10
945.0756330936
 20
-133.27288199520001
 30
0.0
 11
953.9784112422999
 21
-133.27288199520001
 31
0.0
  0
LINE
  5
111
  8
0
 62
     0
 10
945.0756330936
 20
-133.27288199520001
 30
0.0
 11
948.07563309359989
 21
-133.27288199520001
 31
0.0
  0
SOLID
  5
112
  8
0
 62
     0
 10
945.0756330936
 20
-133.27288199520001
 30
0.0
 11
951.07563309360012
 21
-131.77288199520001
 31
0.0
 12
951.07563309360012
 22
-134.77288199520001
 32
0.0
 13
949.5756330936
 23
-133.27288199520001
 33
0.0
  0
LINE
  5
113
  8
0
 62
     0
 10
987.57563309359989
 20
-133.27288199520001
 30
0.0
 11
984.5756330936
 21
-133.27288199520001
 31
0.0
  0
SOLID
  5
114
  8
0
 62
     0
 10
987.57563309359989
 20
-133.27288199520001
 30
0.0
 11
981.5756330936
 21
-134.77288199520001
 31
0.0
 12
981.5756330936
 22
-131.77288199520001
 32
0.0
 13
983.07563309359989
 23
-133.27288199520001
 33
0.0
  0
ENDBLK
  5
115
  8
0
  0
BLOCK
  8
0
  2
*D15
 70
     1
 10
0.0
 20
0.0
 30
0.0
  3
*D15
  1

  0
TEXT
  5
119
  8
0
 62
     0
 10
703.03293644630003
 20
-223.4407121774
 30
0.0
 40
5.9972220420999998
  1
75
  0
LINE
  5
11A
  8
0
 62
     0
 10
669.06071411810001
 20
-199.36818610399999
 30
0.0
 11
669.06071411810001
 21
-225.99904547899999
 31
0.0
  0
LINE
  5
11B
  8
0
 62
     0
 10
744.06071411810001
 20
-203.86818610399999
 30
0.0
 11
744.06071411810001
 21
-225.99904547899999
 31
0.0
  0
LINE
  5
11C
  8
0
 62
     0
 10
669.06071411810001
 20
-225.49904547899999
 30
0.0
 11
713.61626946169997
 21
-225.49904547899999
 31
0.0
  0
LINE
  5
11D
  8
0
 62
     0
 10
669.06071411810001
 20
-225.49904547899999
 30
0.0
 11
699.50515877449993
 21
-225.49904547899999
 31
0.0
  0
LINE
  5
11E
  8
0
 62
     0
 10
744.06071411810001
 20
-225.49904547899999
 30
0.0
 11
713.61626946169997
 21
-225.49904547899999
 31
0.0
  0
LINE
  5
11F
  8
0
 62
     0
 10
744.06071411810001
 20
-225.49904547899999
 30
0.0
 11
699.50515877449993
 21
-225.49904547899999
 31
0.0
  0
LINE
  5
120
  8
0
 62
     0
 10
744.06071411810001
 20
-225.49904547899999
 30
0.0
 11
741.0607141180999
 21
-225.49904547899999
 31
0.0
  0
SOLID
  5
121
  8
0
 62
     0
 10
744.06071411810001
 20
-225.49904547899999
 30
0.0
 11
738.06071411810001
 21
-226.99904547899999
 31
0.0
 12
738.06071411810001
 22
-223.99904547899999
 32
0.0
 13
739.56071411810001
 23
-225.49904547899999
 33
0.0
  0
LINE
  5
122
  8
0
 62
     0
 10
669.06071411810001
 20
-225.49904547899999
 30
0.0
 11
672.06071411810001
 21
-225.49904547899999
 31
0.0
  0
SOLID
  5
123
  8
0
 62
     0
 10
669.06071411810001
 20
-225.49904547899999
 30
0.0
 11
675.0607141180999
 21
-223.99904547899999
 31
0.0
 12
675.0607141180999
 22
-226.99904547899999
 32
0.0
 13
673.56071411810001
 23
-225.49904547899999
 33
0.0
  0
ENDBLK
  5
124
  8
0
  0
BLOCK
  8
0
  2
*D16
 70
     1
 10
0.0
 20
0.0
 30
0.0
  3
*D16
  1

  0
TEXT
  5
128
  8
0
 62
     0
 10
641.0966489990999
 20
-322.09031012999998
 30
0.0
 40
5.9972220420999998
  1
32
 50
90.0
  0
LINE
  5
129
  8
0
 62
     0
 10
668.06071411810001
 20
-302.56253245810001
 30
0.0
 11
642.65498230069988
 21
-302.56253245810001
 31
0.0
  0
LINE
  5
12A
  8
0
 62
     0
 10
668.06071411810001
 20
-334.56253245810001
 30
0.0
 11
642.65498230069988
 21
-334.56253245810001
 31
0.0
  0
LINE
  5
12B
  8
0
 62
     0
 10
643.15498230069988
 20
-302.56253245810001
 30
0.0
 11
643.15498230069988
 21
-311.50697711449999
 31
0.0
  0
LINE
  5
12C
  8
0
 62
     0
 10
643.15498230069988
 20
-302.56253245810001
 30
0.0
 11
643.15498230069988
 21
-325.61808780180002
 31
0.0
  0
LINE
  5
12D
  8
0
 62
     0
 10
643.15498230069988
 20
-334.56253245810001
 30
0.0
 11
643.15498230069988
 21
-311.50697711449999
 31
0.0
  0
LINE
  5
12E
  8
0
 62
     0
 10
643.15498230069988
 20
-334.56253245810001
 30
0.0
 11
643.15498230069988
 21
-325.61808780180002
 31
0.0
  0
LINE
  5
12F
  8
0
 62
     0
 10
643.15498230069988
 20
-334.56253245810001
 30
0.0
 11
643.15498230069988
 21
-331.56253245810001
 31
0.0
  0
SOLID
  5
130
  8
0
 62
     0
 10
643.15498230069988
 20
-334.56253245810001
 30
0.0
 11
641.6549823007
 21
-328.56253245810001
 31
0.0
 12
644.6549823007
 22
-328.56253245810001
 32
0.0
 13
643.15498230069988
 23
-330.06253245810001
 33
0.0
  0
LINE
  5
131
  8
0
 62
     0
 10
643.15498230069988
 20
-302.56253245810001
 30
0.0
 11
643.15498230069988
 21
-305.56253245810001
 31
0.0
  0
SOLID
  5
132
  8
0
 62
     0
 10
643.15498230069988
 20
-302.56253245810001
 30
0.0
 11
644.6549823007
 21
-308.56253245810001
 31
0.0
 12
641.6549823007
 22
-308.56253245810001
 32
0.0
 13
643.15498230069988
 23
-307.06253245810001
 33
0.0
  0
ENDBLK
  5
133
  8
0
  0
BLOCK
  8
0
  2
*D17
 70
     1
 10
0.0
 20
0.0
 30
0.0
  3
*D17
  1

  0
TEXT
  5
137
  8
0
 62
     0
 10
639.35003706659995
 20
-169.00221377579999
 30
0.0
 40
5.9972220420999998
  1
75
 50
90.0
  0
LINE
  5
138
  8
0
 62
     0
 10
668.06071411810001
 20
-127.868186104
 30
0.0
 11
640.90837036810001
 21
-127.868186104
 31
0.0
  0
LINE
  5
139
  8
0
 62
     0
 10
672.56071411810001
 20
-202.86818610399999
 30
0.0
 11
640.90837036810001
 21
-202.86818610399999
 31
0.0
  0
LINE
  5
13A
  8
0
 62
     0
 10
641.40837036810001
 20
-127.868186104
 30
0.0
 11
641.40837036810001
 21
-158.4188807603
 31
0.0
  0
LINE
  5
13B
  8
0
 62
     0
 10
641.40837036810001
 20
-127.868186104
 30
0.0
 11
641.40837036810001
 21
-172.5299914476
 31
0.0
  0
LINE
  5
13C
  8
0
 62
     0
 10
641.40837036810001
 20
-202.86818610399999
 30
0.0
 11
641.40837036810001
 21
-158.4188807603
 31
0.0
  0
LINE
  5
13D
  8
0
 62
     0
 10
641.40837036810001
 20
-202.86818610399999
 30
0.0
 11
641.40837036810001
 21
-172.5299914476
 31
0.0
  0
LINE
  5
13E
  8
0
 62
     0
 10
641.40837036810001
 20
-202.86818610399999
 30
0.0
 11
641.40837036810001
 21
-199.86818610399999
 31
0.0
  0
SOLID
  5
13F
  8
0
 62
     0
 10
641.40837036810001
 20
-202.86818610399999
 30
0.0
 11
639.90837036810001
 21
-196.86818610399999
 31
0.0
 12
642.90837036810001
 22
-196.86818610399999
 32
0.0
 13
641.40837036810001
 23
-198.36818610399999
 33
0.0
  0
LINE
  5
140
  8
0
 62
     0
 10
641.40837036810001
 20
-127.868186104
 30
0.0
 11
641.40837036810001
 21
-130.86818610399999
 31
0.0
  0
SOLID
  5
141
  8
0
 62
     0
 10
641.40837036810001
 20
-127.868186104
 30
0.0
 11
642.90837036810001
 21
-133.86818610399999
 31
0.0
 12
639.90837036810001
 22
-133.86818610399999
 32
0.0
 13
641.40837036810001
 23
-132.36818610399999
 33
0.0
  0
ENDBLK
  5
142
  8
0
  0
BLOCK
  8
0
  2
*D18
 70
     1
 10
0.0
 20
0.0
 30
0.0
  3
*D18
  1

  0
TEXT
  5
146
  8
0
 62
     0
 10
957.50618891409999
 20
-204.15048619359999
 30
0.0
 40
5.9972220420999998
  1
%%c8.5
  0
LINE
  5
147
  8
0
 62
     0
 10
945.0756330936
 20
-188.8021157915
 30
0.0
 11
945.0756330936
 21
-206.7088194952
 31
0.0
  0
LINE
  5
148
  8
0
 62
     0
 10
987.57563309359989
 20
-188.8021157915
 30
0.0
 11
987.57563309359989
 21
-206.7088194952
 31
0.0
  0
LINE
  5
149
  8
0
 62
     0
 10
945.0756330936
 20
-206.2088194952
 30
0.0
 11
978.67285494500004
 21
-206.2088194952
 31
0.0
  0
LINE
  5
14A
  8
0
 62
     0
 10
945.0756330936
 20
-206.2088194952
 30
0.0
 11
953.9784112422999
 21
-206.2088194952
 31
0.0
  0
LINE
  5
14B
  8
0
 62
     0
 10
987.57563309359989
 20
-206.2088194952
 30
0.0
 11
978.67285494500004
 21
-206.2088194952
 31
0.0
  0
LINE
  5
14C
  8
0
 62
     0
 10
987.57563309359989
 20
-206.2088194952
 30
0.0
 11
953.9784112422999
 21
-206.2088194952
 31
0.0
  0
LINE
  5
14D
  8
0
 62
     0
 10
987.57563309359989
 20
-206.2088194952
 30
0.0
 11
984.5756330936
 21
-206.2088194952
 31
0.0
  0
SOLID
  5
14E
  8
0
 62
     0
 10
987.57563309359989
 20
-206.2088194952
 30
0.0
 11
981.5756330936
 21
-207.7088194952
 31
0.0
 12
981.5756330936
 22
-204.7088194952
 32
0.0
 13
983.07563309359989
 23
-206.2088194952
 33
0.0
  0
LINE
  5
14F
  8
0
 62
     0
 10
945.0756330936
 20
-206.2088194952
 30
0.0
 11
948.07563309359989
 21
-206.2088194952
 31
0.0
  0
SOLID
  5
150
  8
0
 62
     0
 10
945.0756330936
 20
-206.2088194952
 30
0.0
 11
951.07563309360012
 21
-204.7088194952
 31
0.0
 12
951.07563309360012
 22
-207.7088194952
 32
0.0
 13
949.5756330936
 23
-206.2088194952
 33
0.0
  0
ENDBLK
  5
151
  8
0
  0
BLOCK
  8
0
  2
*D19
 70
     1
 10
0.0
 20
0.0
 30
0.0
  3
*D19
  1

  0
TEXT
  5
157
  8
0
 62
     0
 10
683.75387931370005
 20
-101.3762590524
 30
0.0
 40
5.9972220420999998
  1
4.5t
  0
LINE
  5
158
  8
0
 62
     0
 10
673.56071411810001
 20
-126.868186104
 30
0.0
 11
673.56071411810001
 21
-102.934592354
 31
0.0
  0
LINE
  5
159
  8
0
 62
     0
 10
669.06071411810001
 20
-126.868186104
 30
0.0
 11
669.06071411810001
 21
-102.934592354
 31
0.0
  0
LINE
  5
15A
  8
0
 62
     0
 10
673.56071411810001
 20
-103.434592354
 30
0.0
 11
701.39276767280001
 21
-103.434592354
 31
0.0
  0
LINE
  5
15B
  8
0
 62
     0
 10
673.56071411810001
 20
-103.434592354
 30
0.0
 11
680.22610164189996
 21
-103.434592354
 31
0.0
  0
LINE
  5
15C
  8
0
 62
     0
 10
669.06071411810001
 20
-103.434592354
 30
0.0
 11
701.39276767280001
 21
-103.434592354
 31
0.0
  0
LINE
  5
15D
  8
0
 62
     0
 10
669.06071411810001
 20
-103.434592354
 30
0.0
 11
680.22610164189996
 21
-103.434592354
 31
0.0
  0
LINE
  5
15E
  8
0
 62
     0
 10
669.06071411810001
 20
-103.434592354
 30
0.0
 11
666.0607141180999
 21
-103.434592354
 31
0.0
  0
SOLID
  5
15F
  8
0
 62
     0
 10
669.06071411810001
 20
-103.434592354
 30
0.0
 11
663.06071411810001
 21
-104.934592354
 31
0.0
 12
663.06071411810001
 22
-101.934592354
 32
0.0
 13
664.56071411810001
 23
-103.434592354
 33
0.0
  0
LINE
  5
160
  8
0
 62
     0
 10
673.56071411810001
 20
-103.434592354
 30
0.0
 11
676.56071411810001
 21
-103.434592354
 31
0.0
  0
SOLID
  5
161
  8
0
 62
     0
 10
673.56071411810001
 20
-103.434592354
 30
0.0
 11
679.56071411810001
 21
-101.934592354
 31
0.0
 12
679.56071411810001
 22
-104.934592354
 32
0.0
 13
678.06071411810001
 23
-103.434592354
 33
0.0
  0
ENDBLK
  5
162
  8
0
  0
BLOCK
  8
0
  2
*D20
 70
     1
 10
0.0
 20
0.0
 30
0.0
  3
*D20
  1

  0
TEXT
  5
166
  8
0
 62
     0
 10
825.05735697259979
 20
-104.8098528024
 30
0.0
 40
5.9972220420999998
  1
11
  0
LINE
  5
167
  8
0
 62
     0
 10
834.08513464439989
 20
-131.86818610399999
 30
0.0
 11
834.08513464439989
 21
-106.868186104
 31
0.0
  0
LINE
  5
168
  8
0
 62
     0
 10
823.0851346444
 20
-125.868186104
 30
0.0
 11
823.0851346444
 21
-106.868186104
 31
0.0
  0
LINE
  5
169
  8
0
 62
     0
 10
834.08513464439989
 20
-107.868186104
 30
0.0
 11
834.08513464439989
 21
-107.868186104
 31
0.0
  0
LINE
  5
16A
  8
0
 62
     0
 10
834.08513464439989
 20
-107.868186104
 30
0.0
 11
823.0851346444
 21
-107.868186104
 31
0.0
  0
LINE
  5
16B
  8
0
 62
     0
 10
823.0851346444
 20
-107.868186104
 30
0.0
 11
834.08513464439989
 21
-107.868186104
 31
0.0
  0
LINE
  5
16C
  8
0
 62
     0
 10
823.0851346444
 20
-107.868186104
 30
0.0
 11
823.0851346444
 21
-107.868186104
 31
0.0
  0
LINE
  5
16D
  8
0
 62
     0
 10
823.0851346444
 20
-107.868186104
 30
0.0
 11
817.08513464439989
 21
-107.868186104
 31
0.0
  0
SOLID
  5
16E
  8
0
 62
     0
 10
823.0851346444
 20
-107.868186104
 30
0.0
 11
817.08513464439989
 21
-109.368186104
 31
0.0
 12
817.08513464439989
 22
-106.368186104
 32
0.0
 13
818.5851346444
 23
-107.868186104
 33
0.0
  0
LINE
  5
16F
  8
0
 62
     0
 10
834.08513464439989
 20
-107.868186104
 30
0.0
 11
840.0851346444
 21
-107.868186104
 31
0.0
  0
SOLID
  5
170
  8
0
 62
     0
 10
834.08513464439989
 20
-107.868186104
 30
0.0
 11
840.0851346444
 21
-106.368186104
 31
0.0
 12
840.0851346444
 22
-109.368186104
 32
0.0
 13
838.58513464439989
 23
-107.868186104
 33
0.0
  0
ENDBLK
  5
171
  8
0
  0
BLOCK
  8
0
  2
*D21
 70
     1
 10
0.0
 20
0.0
 30
0.0
  3
*D21
  1

  0
TEXT
  5
175
  8
0
 62
     0
 10
835.55735697259991
 20
-104.8098528024
 30
0.0
 40
5.9972220420999998
  1
10
  0
LINE
  5
176
  8
0
 62
     0
 10
844.0851346444
 20
-174.86818610399999
 30
0.0
 11
844.0851346444
 21
-106.868186104
 31
0.0
  0
LINE
  5
177
  8
0
 62
     0
 10
834.08513464439989
 20
-131.86818610399999
 30
0.0
 11
834.08513464439989
 21
-106.868186104
 31
0.0
  0
LINE
  5
178
  8
0
 62
     0
 10
844.0851346444
 20
-107.868186104
 30
0.0
 11
844.0851346444
 21
-107.868186104
 31
0.0
  0
LINE
  5
179
  8
0
 62
     0
 10
844.0851346444
 20
-107.868186104
 30
0.0
 11
834.08513464439989
 21
-107.868186104
 31
0.0
  0
LINE
  5
17A
  8
0
 62
     0
 10
834.08513464439989
 20
-107.868186104
 30
0.0
 11
844.0851346444
 21
-107.868186104
 31
0.0
  0
LINE
  5
17B
  8
0
 62
     0
 10
834.08513464439989
 20
-107.868186104
 30
0.0
 11
834.08513464439989
 21
-107.868186104
 31
0.0
  0
LINE
  5
17C
  8
0
 62
     0
 10
834.08513464439989
 20
-107.868186104
 30
0.0
 11
828.0851346444
 21
-107.868186104
 31
0.0
  0
SOLID
  5
17D
  8
0
 62
     0
 10
834.08513464439989
 20
-107.868186104
 30
0.0
 11
828.0851346444
 21
-109.368186104
 31
0.0
 12
828.0851346444
 22
-106.368186104
 32
0.0
 13
829.58513464439989
 23
-107.868186104
 33
0.0
  0
LINE
  5
17E
  8
0
 62
     0
 10
844.0851346444
 20
-107.868186104
 30
0.0
 11
850.08513464439989
 21
-107.868186104
 31
0.0
  0
SOLID
  5
17F
  8
0
 62
     0
 10
844.0851346444
 20
-107.868186104
 30
0.0
 11
850.08513464439989
 21
-106.368186104
 31
0.0
 12
850.08513464439989
 22
-109.368186104
 32
0.0
 13
848.5851346444
 23
-107.868186104
 33
0.0
  0
ENDBLK
  5
180
  8
0
  0
BLOCK
  8
0
  2
*D22
 70
     1
 10
0.0
 20
0.0
 30
0.0
  3
*D22
  1

  0
TEXT
  5
184
  8
0
 62
     0
 10
846.05735697259991
 20
-104.8098528024
 30
0.0
 40
5.9972220420999998
  1
11
  0
LINE
  5
185
  8
0
 62
     0
 10
855.0851346444
 20
-125.868186104
 30
0.0
 11
855.0851346444
 21
-106.868186104
 31
0.0
  0
LINE
  5
186
  8
0
 62
     0
 10
844.0851346444
 20
-174.86818610399999
 30
0.0
 11
844.0851346444
 21
-106.868186104
 31
0.0
  0
LINE
  5
187
  8
0
 62
     0
 10
855.0851346444
 20
-107.868186104
 30
0.0
 11
855.0851346444
 21
-107.868186104
 31
0.0
  0
LINE
  5
188
  8
0
 62
     0
 10
855.0851346444
 20
-107.868186104
 30
0.0
 11
844.0851346444
 21
-107.868186104
 31
0.0
  0
LINE
  5
189
  8
0
 62
     0
 10
844.0851346444
 20
-107.868186104
 30
0.0
 11
855.0851346444
 21
-107.868186104
 31
0.0
  0
LINE
  5
18A
  8
0
 62
     0
 10
844.0851346444
 20
-107.868186104
 30
0.0
 11
844.0851346444
 21
-107.868186104
 31
0.0
  0
LINE
  5
18B
  8
0
 62
     0
 10
844.0851346444
 20
-107.868186104
 30
0.0
 11
838.0851346444
 21
-107.868186104
 31
0.0
  0
SOLID
  5
18C
  8
0
 62
     0
 10
844.0851346444
 20
-107.868186104
 30
0.0
 11
838.0851346444
 21
-109.368186104
 31
0.0
 12
838.0851346444
 22
-106.368186104
 32
0.0
 13
839.5851346444
 23
-107.868186104
 33
0.0
  0
LINE
  5
18D
  8
0
 62
     0
 10
855.0851346444
 20
-107.868186104
 30
0.0
 11
861.0851346444
 21
-107.868186104
 31
0.0
  0
SOLID
  5
18E
  8
0
 62
     0
 10
855.0851346444
 20
-107.868186104
 30
0.0
 11
861.0851346444
 21
-106.368186104
 31
0.0
 12
861.0851346444
 22
-109.368186104
 32
0.0
 13
859.5851346444
 23
-107.868186104
 33
0.0
  0
ENDBLK
  5
18F
  8
0
  0
BLOCK
  8
0
  2
CLUMP0
 70
     0
 10
0.0
 20
0.0
 30
0.0
  3
CLUMP0
  1

  0
LINE
  5
1DF
  8
┌▓È_1
  6
BORDER
 62
     3
 10
840.0851346444
 20
-139.86818610399999
 30
0.0
 11
828.0851346444
 21
-139.86818610399999
 31
0.0
  0
LINE
  5
1E0
  8
┌▓È_1
  6
BORDER
 62
     3
 10
834.08513464439989
 20
-133.86818610399999
 30
0.0
 11
834.08513464439989
 21
-145.86818610399999
 31
0.0
  0
CIRCLE
  5
1E1
  8
┌▓È_1
 62
     5
 10
834.08513464439989
 20
-139.86818610399999
 30
0.0
 40
2.5
  0
CIRCLE
  5
1E2
  8
┌▓È_1
 62
     5
 10
834.08513464439989
 20
-139.86818610399999
 30
0.0
 40
4.25
  0
ENDBLK
  5
1E3
  8
0
  0
BLOCK
  8
0
  2
CLUMP1
 70
     0
 10
0.0
 20
0.0
 30
0.0
  3
CLUMP1
  1

  0
LINE
  5
217
  8
┌▓È_1
  6
BORDER
 62
     3
 10
732.06071411810001
 20
-329.56253245810001
 30
0.0
 11
732.06071411810001
 21
-317.56253245810001
 31
0.0
  0
LINE
  5
218
  8
┌▓È_1
  6
BORDER
 62
     3
 10
726.06071411810001
 20
-323.56253245810001
 30
0.0
 11
738.06071411810001
 21
-323.56253245810001
 31
0.0
  0
CIRCLE
  5
219
  8
┌▓È_1
 62
     5
 10
732.06071411810001
 20
-323.56253245810001
 30
0.0
 40
2.5
  0
CIRCLE
  5
21A
  8
┌▓È_1
 62
     5
 10
732.06071411810001
 20
-323.56253245810001
 30
0.0
 40
4.25
  0
ENDBLK
  5
21B
  8
0
  0
BLOCK
  8
0
  2
CLUMP2
 70
     0
 10
0.0
 20
0.0
 30
0.0
  3
CLUMP2
  1

  0
LINE
  5
229
  8
┌▓È_1
  6
BORDER
 62
     3
 10
844.0851346444
 20
-176.86818610399999
 30
0.0
 11
844.0851346444
 21
-188.86818610399999
 31
0.0
  0
LINE
  5
22A
  8
┌▓È_1
  6
BORDER
 62
     3
 10
850.08513464439989
 20
-182.86818610399999
 30
0.0
 11
838.0851346444
 21
-182.86818610399999
 31
0.0
  0
CIRCLE
  5
22B
  8
┌▓È_1
 62
     5
 10
844.0851346444
 20
-182.86818610399999
 30
0.0
 40
2.5
  0
CIRCLE
  5
22C
  8
┌▓È_1
 62
     5
 10
844.0851346444
 20
-182.86818610399999
 30
0.0
 40
4.25
  0
ENDBLK
  5
22D
  8
0
  0
BLOCK
  8
0
  2
CLUMP3
 70
     0
 10
0.0
 20
0.0
 30
0.0
  3
CLUMP3
  1

  0
LINE
  5
241
  8
┌▓È_1
  6
BORDER
 62
     3
 10
683.0607141180999
 20
-313.56253245810001
 30
0.0
 11
695.0607141180999
 21
-313.56253245810001
 31
0.0
  0
LINE
  5
242
  8
┌▓È_1
  6
BORDER
 62
     3
 10
689.06071411810001
 20
-319.56253245810001
 30
0.0
 11
689.06071411810001
 21
-307.56253245810001
 31
0.0
  0
CIRCLE
  5
243
  8
┌▓È_1
 62
     5
 10
689.06071411810001
 20
-313.56253245810001
 30
0.0
 40
2.5
  0
CIRCLE
  5
244
  8
┌▓È_1
 62
     5
 10
689.06071411810001
 20
-313.56253245810001
 30
0.0
 40
4.25
  0
ENDBLK
  5
245
  8
0
  0
BLOCK
  8
0
  2
*D27
 70
     1
 10
0.0
 20
0.0
 30
0.0
  3
*D27
  1

  0
LINE
  5
276
  8
Éíû@É³
 62
     0
 10
988.15015735332418
 20
-164.7275915317758
 30
0.0
 11
1014.333075017063
 21
-138.54467386803699
 31
0.0
  0
LINE
  5
277
  8
Éíû@É³
 62
     0
 10
944.50110883387572
 20
-164.7275915317758
 30
0.0
 11
918.31819117013708
 21
-138.54467386803699
 31
0.0
  0
ARC
  5
278
  8
Éíû@É³
 62
     0
 10
966.3256330936
 20
-186.5521157915
 30
0.0
 40
66.642775463000021
 50
50.16021260898156
 51
82.077344391288335
  0
ARC
  5
279
  8
Éíû@É³
 62
     0
 10
966.3256330936
 20
-186.5521157915
 30
0.0
 40
66.642775463000021
 50
97.922655608711679
 51
129.8397873910184
  0
SOLID
  5
27A
  8
Éíû@É³
 62
     0
 10
1009.6944232594039
 20
-134.64298369503189
 30
0.0
 11
1008.34530576666
 21
-136.1194260375477
 31
0.0
 12
1013.44919154058
 22
-139.42855734452019
 32
0.0
 13
1013.44919154058
 23
-139.42855734452019
 33
0.0
  0
SOLID
  5
27B
  8
Éíû@É³
 62
     0
 10
924.30596042053946
 20
-136.1194260375477
 30
0.0
 11
922.95684292779606
 21
-134.64298369503189
 31
0.0
 12
919.2020746466203
 22
-139.42855734452019
 32
0.0
 13
919.2020746466203
 23
-139.42855734452019
 33
0.0
  0
TEXT
  8
Éíû@É³
  40
5.99722
  5
2EB
  62
0
  72
0
  71
0
 10
954.331
 20
-130.524
 30
0.000000
  1
90üï
  0
POINT
  5
27D
  8
Defpoints
 62
     0
 10
966.3256330936
 20
-186.5521157915
 30
0.0
  0
POINT
  5
27E
  8
Defpoints
 62
     0
 10
988.10596317950001
 20
-164.7717857056
 30
0.0
  0
POINT
  5
27F
  8
Defpoints
 62
     0
 10
944.5453030077
 20
-164.7717857056
 30
0.0
  0
POINT
  5
280
  8
Defpoints
 62
     0
 10
983.57405260191535
 20
-122.18013783620491
 30
0.0
  0
ENDBLK
  5
282
  8
0
  0
BLOCK
  8
0
  2
*D28
 70
     1
 10
0.0
 20
0.0
 30
0.0
  3
*D28
  1

  0
LINE
  5
284
  8
Éíû@É³
 62
     0
 10
728.99821411810001
 20
-198.36818610399999
 30
0.0
 11
710.86231311993345
 21
-198.3681861039999
 31
0.0
  0
LINE
  5
285
  8
Éíû@É³
 62
     0
 10
673.56071411810001
 20
-142.93068610399999
 30
0.0
 11
673.5607141180999
 21
-161.06658710216661
 31
0.0
  0
ARC
  5
286
  8
Éíû@É³
 62
     0
 10
673.56071411810001
 20
-198.36818610399999
 30
0.0
 40
38.55159900183348
 50
8.9262856960094261
 51
30.977177878463159
  0
ARC
  5
287
  8
Éíû@É³
 62
     0
 10
673.56071411810001
 20
-198.36818610399999
 30
0.0
 40
38.55159900183348
 50
58.546389240232848
 51
81.073714303990727
  0
SOLID
  5
288
  8
Éíû@É³
 62
     0
 10
712.64237401507819
 20
-192.30856272895119
 30
0.0
 11
710.64843881802744
 21
-192.46419829674471
 31
0.0
 12
712.11231311993345
 22
-198.36818610399999
 32
0.0
 13
712.11231311993345
 23
-198.36818610399999
 33
0.0
  0
SOLID
  5
289
  8
Éíû@É³
 62
     0
 10
679.46470192535526
 20
-161.28046140407261
 30
0.0
 11
679.62033749314878
 21
-159.28652620702189
 31
0.0
 12
673.56071411810001
 22
-159.81658710216661
 32
0.0
 13
673.56071411810001
 23
-159.81658710216661
 33
0.0
  0
TEXT
  8
Éíû@É³
  40
5.99722
  5
2EC
  62
0
  72
0
  71
0
 10
688.939
 20
-181.837
 30
0.000000
  1
90üï
  0
POINT
  5
28B
  8
Defpoints
 62
     0
 10
673.56071411810001
 20
-198.36818610399999
 30
0.0
  0
POINT
  5
28C
  8
Defpoints
 62
     0
 10
729.06071411809978
 20
-198.3681861039999
 30
0.0
  0
POINT
  5
28D
  8
Defpoints
 62
     0
 10
673.5607141180999
 20
-142.86818610399999
 30
0.0
  0
POINT
  5
28E
  8
Defpoints
 62
     0
 10
692.83651361901673
 20
-164.9815220119014
 30
0.0
  0
ENDBLK
  5
290
  8
0
  0
BLOCK
  8
0
  2
*D29
 70
     1
 10
0.0
 20
0.0
 30
0.0
  3
*D29
  1

  0
LINE
  5
292
  8
Éíû@É³
 62
     0
 10
944.50110883387572
 20
-188.37664005122409
 30
0.0
 11
924.1919592227224
 21
-208.6857896623776
 31
0.0
  0
LINE
  5
293
  8
Éíû@É³
 62
     0
 10
988.15015735332418
 20
-188.37664005122409
 30
0.0
 11
1008.4593069644779
 21
-208.6857896623776
 31
0.0
  0
ARC
  5
294
  8
Éíû@É³
 62
     0
 10
966.3256330936
 20
-166.5521157915
 30
0.0
 40
58.336013020799982
 50
230.8956100606465
 51
260.94030675693938
  0
ARC
  5
295
  8
Éíû@É³
 62
     0
 10
966.3256330936
 20
-166.5521157915
 30
0.0
 40
58.336013020799982
 50
279.05969324306062
 51
309.10438993935338
  0
SOLID
  5
296
  8
Éíû@É³
 62
     0
 10
928.86124512433287
 20
-212.56328502818789
 30
0.0
 11
930.20085975290772
 21
-211.0782151150496
 31
0.0
 12
925.07584269920574
 22
-207.80190618589441
 32
0.0
 13
925.07584269920574
 23
-207.80190618589441
 33
0.0
  0
SOLID
  5
297
  8
Éíû@É³
 62
     0
 10
1002.4504064342919
 20
-211.0782151150496
 30
0.0
 11
1003.790021062867
 21
-212.56328502818789
 31
0.0
 12
1007.575423487994
 22
-207.80190618589441
 32
0.0
 13
1007.575423487994
 23
-207.80190618589441
 33
0.0
  0
TEXT
  8
Éíû@É³
  40
5.99722
  5
2ED
  62
0
  72
0
  71
0
 10
954.331
 20
-235.503
 30
0.000000
  1
90üï
  0
POINT
  5
299
  8
Defpoints
 62
     0
 10
966.3256330936
 20
-166.5521157915
 30
0.0
  0
POINT
  5
29A
  8
Defpoints
 62
     0
 10
944.5453030077
 20
-188.3324458774
 30
0.0
  0
POINT
  5
29B
  8
Defpoints
 62
     0
 10
988.10596317950001
 20
-188.3324458774
 30
0.0
  0
POINT
  5
29C
  8
Defpoints
 62
     0
 10
951.22716190846836
 20
-222.90037737102611
 30
0.0
  0
ENDBLK
  5
29E
  8
0
  0
BLOCK
  8
0
  2
*U30
 70
     1
 10
0.0
 20
0.0
 30
0.0
  3
*U30
  1

  0
TEXT
  5
2A0
  8
┌▓È_1
  6
CONTINUOUS
 10
941.86446414302532
 20
-239.2912989472274
 30
0.0
 40
5.9972220420999998
  1
ÄMâéâ~òöègæÕÉ}
  0
ENDBLK
  5
2A2
  8
0
  0
BLOCK
  8
0
  2
*U31
 70
     1
 10
0.0
 20
0.0
 30
0.0
  3
*U31
  1

  0
TEXT
  5
2A4
  8
┌▓È_1
  6
CONTINUOUS
 10
1031.4725379511001
 20
-391.35662405022691
 30
0.0
 40
7.1966662884000003
  1
ékî^âAâôâOâï
  0
ENDBLK
  5
2A6
  8
0
  0
BLOCK
  8
0
  2
*U32
 70
     1
 10
0.0
 20
0.0
 30
0.0
  3
*U32
  1

  0
TEXT
  5
2A8
  8
┌▓È_1
  6
CONTINUOUS
 10
1028.422449410167
 20
-373.83286099870008
 30
0.0
 40
7.1966662884000003
  1
LY-201  75x75
  0
ENDBLK
  5
2AA
  8
0
  0
BLOCK
  8
0
  2
*U33
 70
     1
 10
0.0
 20
0.0
 30
0.0
  3
*U33
  1

  0
TEXT
  5
2AC
  8
┌▓È_1
  6
CONTINUOUS
 10
887.10334886479995
 20
-408.24351895662738
 30
0.0
 40
8.6359998702999992
  1
èöÄ«ë´Äð
  0
ENDBLK
  5
2AE
  8
0
  0
BLOCK
  8
0
  2
*U34
 70
     1
 10
0.0
 20
0.0
 30
0.0
  3
*U34
  1

  0
TEXT
  5
2B0
  8
┌▓È_1
  6
CONTINUOUS
 10
872.66224141529983
 20
-358.8962506233579
 30
0.0
 40
7.1966662884000003
  1
ò\û╩ÅêùØüFâåâjâNâìâüâbâLÄdÅÒé░
  0
ENDBLK
  5
2B2
  8
0
  0
BLOCK
  8
0
  2
*U35
 70
     1
 10
0.0
 20
0.0
 30
0.0
  3
*U35
  1

  0
TEXT
  5
2B4
  8
┌▓È_1
  6
CONTINUOUS
 10
969.59301303780001
 20
-368.08574665283709
 30
0.0
 40
4.6749999999999989
  1
ü@îƒ ü@ê¾
  0
ENDBLK
  5
2B6
  8
0
  0
BLOCK
  8
0
  2
*U36
 70
     1
 10
0.0
 20
0.0
 30
0.0
  3
*U36
  1

  0
TEXT
  5
2B8
  8
┌▓È_1
  6
CONTINUOUS
 10
937.59301303780001
 20
-385.06201568837008
 30
0.0
 40
4.6749999999999989
  1
ü@Ä┌ ü@ôx
  0
ENDBLK
  5
2BA
  8
0
  0
BLOCK
  8
0
  2
*U37
 70
     1
 10
0.0
 20
0.0
 30
0.0
  3
*U37
  1

  0
TEXT
  5
2BC
  8
┌▓È_1
  6
CONTINUOUS
 10
937.59301303780001
 20
-368.08574665283709
 30
0.0
 40
4.6749999999999989
  1
ü@ö┬ ü@î·
  0
ENDBLK
  5
2BE
  8
0
  0
BLOCK
  8
0
  2
*U38
 70
     1
 10
0.0
 20
0.0
 30
0.0
  3
*U38
  1

  0
TEXT
  5
2C0
  8
┌▓È_1
  6
CONTINUOUS
 10
905.59301303779989
 20
-367.99082279496912
 30
0.0
 40
4.6749999999999989
  1
ü@ìÌ ü@Ä┐
  0
ENDBLK
  5
2C2
  8
0
  0
BLOCK
  8
0
  2
*U39
 70
     1
 10
0.0
 20
0.0
 30
0.0
  3
*U39
  1

  0
TEXT
  5
2C4
  8
┌▓È_1
  6
CONTINUOUS
 62
     5
 10
946.456594207178
 20
-393.32470604370002
 30
0.0
 40
4.6749999999999989
  1
1üF2
  0
ENDBLK
  5
2C6
  8
0
  0
BLOCK
  8
0
  2
*U40
 70
     1
 10
0.0
 20
0.0
 30
0.0
  3
*U40
  1

  0
TEXT
  5
2C8
  8
┌▓È_1
  6
CONTINUOUS
 62
     5
 10
946.67017288738111
 20
-376.32470604370002
 30
0.0
 40
4.6749999999999989
  1
4.5t
  0
ENDBLK
  5
2CA
  8
0
  0
BLOCK
  8
0
  2
*U41
 70
     1
 10
0.0
 20
0.0
 30
0.0
  3
*U41
  1

  0
TEXT
  5
2CC
  8
┌▓È_1
  6
CONTINUOUS
 62
     5
 10
917.86198760819332
 20
-376.60947761730409
 30
0.0
 40
4.6749999999999989
  1
ôS
  0
ENDBLK
  5
2CE
  8
0
  0
BLOCK
  8
0
  2
*U42
 70
     1
 10
0.0
 20
0.0
 30
0.0
  3
*U42
  1

  0
TEXT
  5
2D0
  8
┌▓È_1
  6
CONTINUOUS
 62
     5
 10
881.03273633915785
 20
-376.32470604370002
 30
0.0
 40
4.6749999999999989
  1
H16.4
  0
ENDBLK
  5
2D2
  8
0
  0
BLOCK
  8
0
  2
*U43
 70
     1
 10
0.0
 20
0.0
 30
0.0
  3
*U43
  1

  0
TEXT
  5
2D4
  8
┌▓È_1
  6
CONTINUOUS
 10
1002.4432403227
 20
-401.93302556550202
 30
0.0
 40
4.6749999999999989
  1
É}öÈ
  0
ENDBLK
  5
2D6
  8
0
  0
BLOCK
  8
0
  2
*U44
 70
     1
 10
0.0
 20
0.0
 30
0.0
  3
*U44
  1

  0
TEXT
  5
2D8
  8
┌▓È_1
  6
CONTINUOUS
 10
1002.4432403227
 20
-384.98048749443609
 30
0.0
 40
4.6749999999999989
  1
òiû╝
  0
ENDBLK
  5
2DA
  8
0
  0
BLOCK
  8
0
  2
*U45
 70
     1
 10
0.0
 20
0.0
 30
0.0
  3
*U45
  1

  0
TEXT
  5
2DC
  8
┌▓È_1
  6
CONTINUOUS
 10
1002.4432403227
 20
-367.93302556550208
 30
0.0
 40
4.6749999999999989
  1
î^öÈ
  0
ENDBLK
  5
2DE
  8
0
  0
BLOCK
  8
0
  2
*U46
 70
     1
 10
0.0
 20
0.0
 30
0.0
  3
*U46
  1

  0
TEXT
  5
2E0
  8
┌▓È_1
  6
CONTINUOUS
 10
873.59301303779989
 20
-367.91962990156799
 30
0.0
 40
4.6749999999999989
  1
ü@ô· ü@òt
  0
ENDBLK
  5
2E2
  8
0
  0
BLOCK
  8
0
  2
*U47
 70
     1
 10
0.0
 20
0.0
 30
0.0
  3
*U47
  1

  0
TEXT
  5
2E4
  8
┌▓È_1
  6
CONTINUOUS
 10
872.66224141529983
 20
-393.60947761730409
 30
0.0
 40
4.6749999999999989
  1
 É╗É}ü@ü@ è¦û{
  0
ENDBLK
  5
2E6
  8
0
  0
BLOCK
  8
0
  2
*U48
 70
     1
 10
0.0
 20
0.0
 30
0.0
  3
*U48
  1

  0
TEXT
  5
2E8
  8
┌▓È_1
  6
CONTINUOUS
 10
872.66224141529983
 20
-385.08574665283709
 30
0.0
 40
4.6749999999999989
  1
 É¦îvü@ü@öÆÉ{ëÛ
  0
ENDBLK
  5
2EA
  8
0
  0
ENDSEC
  0
SECTION
  2
ENTITIES
  0
DIMENSION
  5
3E
  8
Éíû@É³
  2
*D0
 10
803.0851346444
 20
-182.86818610399999
 30
0.0
 11
803.0851346444
 21
-192.86818610399999
 31
0.0
 70
   128
  1
<>
 13
838.0851346444
 23
-182.86818610399999
 33
0.0
 14
823.0851346444
 24
-202.86818610399999
 34
0.0
 50
90.0
  0
DIMENSION
  5
4D
  8
Éíû@É³
  2
*D1
 10
803.0851346444
 20
-139.86818610399999
 30
0.0
 11
803.0851346444
 21
-161.36818610399999
 31
0.0
 70
   128
  1
<>
 13
828.0851346444
 23
-139.86818610399999
 33
0.0
 14
838.0851346444
 24
-182.86818610399999
 34
0.0
 50
90.0
  0
DIMENSION
  5
5C
  8
Éíû@É³
  2
*D2
 10
803.0851346444
 20
-127.868186104
 30
0.0
 11
803.0851346444
 21
-133.86818610399999
 31
0.0
 70
   128
  1
<>
 13
823.0851346444
 23
-127.868186104
 33
0.0
 14
828.0851346444
 24
-139.86818610399999
 34
0.0
 50
90.0
  0
DIMENSION
  5
6B
  8
Éíû@É³
  2
*D3
 10
764.06071411810001
 20
-313.56253245810001
 30
0.0
 11
764.06071411810001
 21
-308.06253245810001
 31
0.0
 70
   128
  1
<>
 13
695.0607141180999
 23
-313.56253245810001
 33
0.0
 14
744.06071411810001
 24
-302.56253245810001
 34
0.0
 50
90.0
  0
DIMENSION
  5
7A
  8
Éíû@É³
  2
*D4
 10
764.06071411810001
 20
-323.56253245810001
 30
0.0
 11
764.06071411810001
 21
-318.56253245810001
 31
0.0
 70
   128
  1
<>
 13
738.06071411810001
 23
-323.56253245810001
 33
0.0
 14
695.0607141180999
 24
-313.56253245810001
 34
0.0
 50
90.0
  0
DIMENSION
  5
89
  8
Éíû@É³
  2
*D5
 10
764.06071411810001
 20
-334.56253245810001
 30
0.0
 11
764.06071411810001
 21
-329.06253245810001
 31
0.0
 70
   128
  1
<>
 13
744.06071411810001
 23
-334.56253245810001
 33
0.0
 14
738.06071411810001
 24
-323.56253245810001
 34
0.0
 50
90.0
  0
DIMENSION
  5
98
  8
Éíû@É³
  2
*D6
 10
689.06071411810001
 20
-282.56253245810001
 30
0.0
 11
679.0607141180999
 21
-282.56253245810001
 31
0.0
 70
   128
  1
<>
 13
689.06071411810001
 23
-307.56253245810001
 33
0.0
 14
669.06071411810001
 24
-302.56253245810001
 34
0.0
  0
DIMENSION
  5
A7
  8
Éíû@É³
  2
*D7
 10
732.06071411810001
 20
-282.56253245810001
 30
0.0
 11
710.56071411810001
 21
-282.56253245810001
 31
0.0
 70
   128
  1
<>
 13
732.06071411810001
 23
-317.56253245810001
 33
0.0
 14
689.06071411810001
 24
-307.56253245810001
 34
0.0
  0
DIMENSION
  5
B6
  8
Éíû@É³
  2
*D8
 10
744.06071411810001
 20
-282.56253245810001
 30
0.0
 11
738.06071411810001
 21
-282.56253245810001
 31
0.0
 70
   128
  1
<>
 13
744.06071411810001
 23
-302.56253245810001
 33
0.0
 14
732.06071411810001
 24
-317.56253245810001
 34
0.0
  0
ARC
  5
B8
  8
┌▓È_1
 62
     5
 10
945.8566441472999
 20
-404.88236248189997
 30
0.0
 40
2.399999999999999
 50
270.0
 51
0.0
  0
LINE
  5
B9
  8
┌▓È_1
 62
     5
 10
966.17171383089988
 20
-404.11287593010002
 30
0.0
 11
965.78676054079995
 21
-404.53805730699997
 31
0.0
  0
LINE
  5
BA
  8
┌▓È_1
 62
     5
 10
958.91361384419986
 20
-402.1977389098999
 30
0.0
 11
965.31361384419995
 21
-402.1977389098999
 31
0.0
  0
LINE
  5
BB
  8
┌▓È_1
 62
     5
 10
952.25664414729988
 20
-404.88236248189997
 30
0.0
 11
952.25664414729988
 21
-404.08236248190002
 31
0.0
  0
LINE
  5
BC
  8
┌▓È_1
 62
     5
 10
976.86158608150004
 20
-401.20236248190002
 30
0.0
 11
976.86158608150004
 21
-404.08236248190002
 31
0.0
  0
LINE
  5
BD
  8
┌▓È_1
 10
968.66224141529995
 20
-361.738639229
 30
0.0
 11
968.66224141529995
 21
-395.738639229
 31
0.0
  0
LINE
  5
BE
  8
┌▓È_1
 10
904.66224141529995
 20
-361.738639229
 30
0.0
 11
904.66224141529995
 21
-378.738639229
 31
0.0
  0
LINE
  5
BF
  8
┌▓È_1
 10
1000.6622414152999
 20
-361.738639229
 30
0.0
 11
1000.6622414152999
 21
-412.738639229
 31
0.0
  0
LINE
  5
C0
  8
┌▓È_1
 10
872.66224141529983
 20
-361.738639229
 30
0.0
 11
872.66224141529983
 21
-412.738639229
 31
0.0
  0
DIMENSION
  5
D0
  8
Éíû@É³
  2
*D9
 10
978.8256330936
 20
-147.6150694952
 30
0.0
 11
966.3256330936
 21
-147.6150694952
 31
0.0
 70
   128
  1
%%c5
 13
978.8256330936
 23
-174.0521157915
 33
0.0
 14
953.8256330936
 24
-174.0521157915
 34
0.0
  0
DIMENSION
  5
DF
  8
Éíû@É³
  2
*D10
 10
855.0851346444
 20
-91.526204333099997
 30
0.0
 11
839.0851346444
 21
-91.526204333099997
 31
0.0
 70
   128
  1
<>
 13
855.0851346444
 23
-127.868186104
 33
0.0
 14
823.0851346444
 24
-127.868186104
 34
0.0
  0
DIMENSION
  5
ED
  8
Éíû@É³
  2
*D27
 10
983.57405260191535
 20
-122.18013783620491
 30
0.0
 11
966.3256330936
 21
-119.90934032849999
 31
0.0
 70
   133
  1
<>
 13
944.5453030077
 23
-164.7717857056
 33
0.0
 14
988.10596317950001
 24
-164.7717857056
 34
0.0
 15
966.3256330936
 25
-186.5521157915
 35
0.0
1001
ACAD
1000
DSTYLE
1002
{
1070
   271
1070
     0
1002
}
  0
DIMENSION
  5
FA
  8
Éíû@É³
  2
*D28
 10
692.83651361901673
 20
-164.9815220119014
 30
0.0
 11
700.93391350920001
 21
-171.22166255689999
 31
0.0
 70
   133
  1
<>
 13
673.56071411810001
 23
-142.86818610399999
 33
0.0
 14
729.0607141180999
 24
-198.36818610399999
 34
0.0
 15
673.56071411810001
 25
-198.36818610399999
 35
0.0
1001
ACAD
1000
DSTYLE
1002
{
1070
   271
1070
     0
1002
}
  0
DIMENSION
  5
107
  8
Éíû@É³
  2
*D29
 10
951.22716190846836
 20
-222.90037737102611
 30
0.0
 11
966.3256330936
 21
-224.88812881230001
 31
0.0
 70
   133
  1
<>
 13
988.10596317950001
 23
-188.3324458774
 33
0.0
 14
944.5453030077
 24
-188.3324458774
 34
0.0
 15
966.3256330936
 25
-166.5521157915
 35
0.0
1001
ACAD
1000
DSTYLE
1002
{
1070
   271
1070
     0
1002
}
  0
DIMENSION
  5
116
  8
Éíû@É³
  2
*D14
 10
987.57563309359989
 20
-133.27288199520001
 30
0.0
 11
966.3256330936
 21
-133.27288199520001
 31
0.0
 70
   128
  1
%%c8.5
 13
987.57563309359989
 23
-165.3021157915
 33
0.0
 14
945.0756330936
 24
-165.3021157915
 34
0.0
  0
DIMENSION
  5
125
  8
Éíû@É³
  2
*D15
 10
669.06071411810001
 20
-225.49904547899999
 30
0.0
 11
706.56071411810001
 21
-225.49904547899999
 31
0.0
 70
   128
  1
<>
 13
669.06071411810001
 23
-198.36818610399999
 33
0.0
 14
744.06071411810001
 24
-202.86818610399999
 34
0.0
 50
180.0
  0
DIMENSION
  5
134
  8
Éíû@É³
  2
*D16
 10
643.15498230069988
 20
-302.56253245810001
 30
0.0
 11
643.15498230069988
 21
-318.56253245810001
 31
0.0
 70
   128
  1
<>
 13
669.06071411810001
 23
-302.56253245810001
 33
0.0
 14
669.06071411810001
 24
-334.56253245810001
 34
0.0
 50
90.0
  0
DIMENSION
  5
143
  8
Éíû@É³
  2
*D17
 10
641.40837036810001
 20
-127.868186104
 30
0.0
 11
641.40837036810001
 21
-165.47443610400001
 31
0.0
 70
   128
  1
<>
 13
669.06071411810001
 23
-127.868186104
 33
0.0
 14
673.56071411810001
 24
-202.86818610399999
 34
0.0
 50
90.0
  0
DIMENSION
  5
152
  8
Éíû@É³
  2
*D18
 10
945.0756330936
 20
-206.2088194952
 30
0.0
 11
966.3256330936
 21
-206.2088194952
 31
0.0
 70
   128
  1
%%c8.5
 13
945.0756330936
 23
-187.8021157915
 33
0.0
 14
987.57563309359989
 24
-187.8021157915
 34
0.0
 50
180.0
  0
LINE
  5
153
  8
┌▓È_1
 10
942.38256712140003
 20
-240.7632822823
 30
0.0
 11
993.28831885750014
 21
-240.7632822823
 31
0.0
  0
INSERT
  5
154
  8
0
  6
CONTINUOUS
  2
*U30
 10
0.0
 20
0.0
 30
0.0
  0
DIMENSION
  5
163
  8
Éíû@É³
  2
*D19
 10
673.56071411810001
 20
-103.434592354
 30
0.0
 11
690.80943465739995
 21
-103.434592354
 31
0.0
 70
   128
  1
<>t
 13
673.56071411810001
 23
-127.868186104
 33
0.0
 14
669.06071411810001
 24
-127.868186104
 34
0.0
  0
DIMENSION
  5
172
  8
Éíû@É³
  2
*D20
 10
834.08513464439989
 20
-107.868186104
 30
0.0
 11
828.58513464439989
 21
-107.868186104
 31
0.0
 70
   128
  1
<>
 13
834.08513464439989
 23
-133.86818610399999
 33
0.0
 14
823.0851346444
 24
-127.868186104
 34
0.0
  0
DIMENSION
  5
181
  8
Éíû@É³
  2
*D21
 10
844.0851346444
 20
-107.868186104
 30
0.0
 11
839.0851346444
 21
-107.868186104
 31
0.0
 70
   128
  1
<>
 13
844.0851346444
 23
-176.86818610399999
 33
0.0
 14
834.08513464439989
 24
-133.86818610399999
 34
0.0
  0
DIMENSION
  5
190
  8
Éíû@É³
  2
*D22
 10
855.0851346444
 20
-107.868186104
 30
0.0
 11
849.5851346444
 21
-107.868186104
 31
0.0
 70
   128
  1
<>
 13
855.0851346444
 23
-127.868186104
 33
0.0
 14
844.0851346444
 24
-176.86818610399999
 34
0.0
  0
LINE
  5
191
  8
┌▓È_1
 62
     5
 10
954.65664414729997
 20
-401.68236248189999
 30
0.0
 11
952.25664414729988
 21
-401.68236248189999
 31
0.0
  0
LINE
  5
192
  8
┌▓È_1
 62
     5
 10
952.25664414729988
 20
-401.68236248189999
 30
0.0
 11
952.25664414729988
 21
-400.88236248189997
 31
0.0
  0
LINE
  5
193
  8
┌▓È_1
 62
     5
 10
976.86158608150004
 20
-401.20236248190002
 30
0.0
 11
980.85945274810001
 21
-401.20236248190002
 31
0.0
  0
LINE
  5
194
  8
┌▓È_1
 62
     5
 10
948.25664414729999
 20
-404.08236248190002
 30
0.0
 11
948.25664414729999
 21
-404.88236248189997
 31
0.0
  0
LINE
  5
195
  8
┌▓È_1
 62
     5
 10
945.05664414729983
 20
-404.08236248190002
 30
0.0
 11
948.25664414729999
 21
-404.08236248190002
 31
0.0
  0
LINE
  5
196
  8
┌▓È_1
 62
     5
 10
988.06158608149997
 20
-410.48236248189988
 30
0.0
 11
987.41699300520008
 21
-408.24236248189999
 31
0.0
  0
LINE
  5
197
  8
┌▓È_1
 62
     5
 10
986.5882304784999
 20
-405.36236248189999
 30
0.0
 11
991.26158608149979
 21
-405.36236248189999
 31
0.0
  0
ARC
  5
198
  8
┌▓È_1
 62
     5
 10
962.91361384419997
 20
-400.88236248189997
 30
0.0
 40
8.8000000000000007
 50
322.48761197969998
 51
0.0
  0
LINE
  5
199
  8
┌▓È_1
 62
     5
 10
976.86158608150004
 20
-408.24236248189999
 30
0.0
 11
982.92451941479987
 21
-408.24236248189999
 31
0.0
  0
LINE
  5
19A
  8
┌▓È_1
 62
     5
 10
985.39112905119998
 20
-401.20236248190002
 30
0.0
 11
985.15689825080005
 21
-400.38839625719987
 31
0.0
  0
LINE
  5
19B
  8
┌▓È_1
 62
     5
 10
973.31361384419995
 20
-398.4823624819
 30
0.0
 11
958.91361384419986
 21
-398.4823624819
 31
0.0
  0
LINE
  5
19C
  8
┌▓È_1
 62
     5
 10
941.05664414729995
 20
-406.48236248189988
 30
0.0
 11
945.05664414729983
 21
-406.48236248189988
 31
0.0
  0
LINE
  5
19D
  8
┌▓È_1
 62
     5
 10
952.25664414729988
 20
-400.88236248189997
 30
0.0
 11
954.65664414729997
 21
-398.4823624819
 31
0.0
  0
LINE
  5
19E
  8
┌▓È_1
 10
872.66224141529983
 20
-395.738639229
 30
0.0
 11
1112.6622414153001
 21
-395.738639229
 31
0.0
  0
LINE
  5
19F
  8
┌▓È_1
 10
872.66224141529983
 20
-361.738639229
 30
0.0
 11
1112.6622414153001
 21
-361.738639229
 31
0.0
  0
INSERT
  5
1A0
  8
0
  6
CONTINUOUS
  2
*U31
 10
0.0
 20
0.0
 30
0.0
  0
INSERT
  5
1A1
  8
0
  6
CONTINUOUS
  2
*U32
 10
0.0
 20
0.0
 30
0.0
  0
LINE
  5
1A2
  8
┌▓È_1
 62
     5
 10
1112.6622414153001
 20
-412.738639229
 30
0.0
 11
1112.6622414153001
 21
-32.738639229
 31
0.0
  0
LINE
  5
1A3
  8
┌▓È_1
 62
     5
 10
562.66224141529995
 20
-412.738639229
 30
0.0
 11
1112.6622414153001
 21
-412.738639229
 31
0.0
  0
LINE
  5
1A4
  8
┌▓È_1
 62
     5
 10
562.66224141529995
 20
-32.738639229
 30
0.0
 11
1112.6622414153001
 21
-32.738639229
 31
0.0
  0
LINE
  5
1A5
  8
┌▓È_1
 10
1000.6622414152999
 20
-378.738639229
 30
0.0
 11
1112.6622414153001
 21
-378.738639229
 31
0.0
  0
LINE
  5
1A6
  8
┌▓È_1
 62
     5
 10
562.66224141529995
 20
-412.738639229
 30
0.0
 11
562.66224141529995
 21
-32.738639229
 31
0.0
  0
LINE
  5
1A7
  8
┌▓È_1
 62
     5
 10
971.71361384419993
 20
-400.88236248189997
 30
0.0
 11
973.31361384419995
 21
-398.4823624819
 31
0.0
  0
LINE
  5
1A8
  8
┌▓È_1
 62
     5
 10
986.21989157780001
 20
-404.08236248190002
 30
0.0
 11
991.26158608149979
 21
-404.08236248190002
 31
0.0
  0
LINE
  5
1A9
  8
┌▓È_1
 62
     5
 10
948.25664414729999
 20
-398.4823624819
 30
0.0
 11
948.25664414729999
 21
-401.68236248189999
 31
0.0
  0
LINE
  5
1AA
  8
┌▓È_1
 62
     5
 10
954.65664414729997
 20
-398.4823624819
 30
0.0
 11
948.25664414729999
 21
-398.4823624819
 31
0.0
  0
LINE
  5
1AB
  8
┌▓È_1
 62
     5
 10
958.91361384419986
 20
-398.4823624819
 30
0.0
 11
958.91361384419986
 21
-401.36236248189999
 31
0.0
  0
ARC
  5
1AC
  8
┌▓È_1
 62
     5
 10
947.45664414729993
 20
-404.88236248189997
 30
0.0
 40
4.7999999999999989
 50
270.0
 51
0.0
  0
LINE
  5
1AD
  8
┌▓È_1
 62
     5
 10
985.15689825080005
 20
-400.38839625719987
 30
0.0
 11
986.46158608149995
 21
-398.4823624819
 31
0.0
  0
LINE
  5
1AE
  8
┌▓È_1
 62
     5
 10
948.25664414729999
 20
-401.68236248189999
 30
0.0
 11
945.05664414729983
 21
-401.68236248189999
 31
0.0
  0
LINE
  5
1AF
  8
┌▓È_1
 62
     5
 10
947.45664414729993
 20
-398.4823624819
 30
0.0
 11
941.05664414729995
 21
-398.4823624819
 31
0.0
  0
LINE
  5
1B0
  8
┌▓È_1
 62
     5
 10
945.05664414729983
 20
-400.88236248189997
 30
0.0
 11
947.45664414729993
 21
-398.4823624819
 31
0.0
  0
LINE
  5
1B1
  8
┌▓È_1
 62
     5
 10
941.05664414729995
 20
-398.4823624819
 30
0.0
 11
941.05664414729995
 21
-401.68236248189999
 31
0.0
  0
LINE
  5
1B2
  8
┌▓È_1
 62
     5
 10
980.85945274810001
 20
-401.20236248190002
 30
0.0
 11
980.06158608149997
 21
-398.4823624819
 31
0.0
  0
LINE
  5
1B3
  8
┌▓È_1
 62
     5
 10
985.39112905119998
 20
-401.20236248190002
 30
0.0
 11
991.26158608149979
 21
-401.20236248190002
 31
0.0
  0
INSERT
  5
1B4
  8
0
  6
CONTINUOUS
  2
*U33
 10
0.0
 20
0.0
 30
0.0
  0
LINE
  5
1B5
  8
┌▓È_1
 62
     5
 10
941.05664414729995
 20
-404.08236248190002
 30
0.0
 11
941.05664414729995
 21
-406.48236248189988
 31
0.0
  0
LINE
  5
1B6
  8
┌▓È_1
 62
     5
 10
969.8939648075999
 20
-406.2409724163
 30
0.0
 11
969.60900151190015
 21
-406.51997744699992
 31
0.0
  0
INSERT
  5
1B7
  8
0
  6
CONTINUOUS
  2
*U34
 10
0.0
 20
0.0
 30
0.0
  0
LINE
  5
1B8
  8
┌▓È_1
 62
     5
 10
958.91361384419986
 20
-407.2823624818999
 30
0.0
 11
958.91361384419986
 21
-409.68236248189999
 31
0.0
  0
LINE
  5
1B9
  8
┌▓È_1
 62
     5
 10
958.91361384419986
 20
-407.2823624818999
 30
0.0
 11
960.83361384419982
 21
-407.2823624818999
 31
0.0
  0
LINE
  5
1BA
  8
┌▓È_1
 62
     5
 10
980.06158608149997
 20
-398.4823624819
 30
0.0
 11
986.46158608149995
 21
-398.4823624819
 31
0.0
  0
LINE
  5
1BB
  8
┌▓È_1
 62
     5
 10
971.71361384419993
 20
-400.88236248189997
 30
0.0
 11
973.31361384419995
 21
-398.4823624819
 31
0.0
  0
LINE
  5
1BC
  8
┌▓È_1
 62
     5
 10
941.05664414729995
 20
-409.68236248189999
 30
0.0
 11
947.45664414729993
 21
-409.68236248189999
 31
0.0
  0
LINE
  5
1BD
  8
┌▓È_1
 62
     5
 10
958.91361384419986
 20
-409.68236248189999
 30
0.0
 11
962.91361384419997
 21
-409.68236248189999
 31
0.0
  0
ARC
  5
1BE
  8
┌▓È_1
 62
     5
 10
960.83361384419982
 20
-401.20236248190002
 30
0.0
 40
6.0800000000000001
 50
331.39928138329998
 51
358.49204224580001
  0
LINE
  5
1BF
  8
┌▓È_1
 62
     5
 10
952.25664414729988
 20
-404.08236248190002
 30
0.0
 11
954.65664414729997
 21
-404.08236248190002
 31
0.0
  0
ARC
  5
1C0
  8
┌▓È_1
 62
     5
 10
962.91361384419997
 20
-400.88236248189997
 30
0.0
 40
8.8000000000000007
 50
270.0
 51
302.54495885400001
  0
LINE
  5
1C1
  8
┌▓È_1
 62
     5
 10
939.21487804879996
 20
-404.08236248190002
 30
0.0
 11
940.8148780488001
 21
-404.08236248190002
 31
0.0
  0
LINE
  5
1C2
  8
┌▓È_1
 62
     5
 10
976.86158608150004
 20
-405.36236248189999
 30
0.0
 11
982.07971941479991
 21
-405.36236248189999
 31
0.0
  0
LINE
  5
1C3
  8
┌▓È_1
 10
876.66224141529995
 20
-387.238639229
 30
0.0
 11
932.66224141529995
 21
-387.238639229
 31
0.0
  0
LINE
  5
1C4
  8
┌▓È_1
 10
908.66224141529995
 20
-370.238639229
 30
0.0
 11
932.66224141529995
 21
-370.238639229
 31
0.0
  0
LINE
  5
1C5
  8
┌▓È_1
 10
876.66224141529995
 20
-370.238639229
 30
0.0
 11
900.66224141529995
 21
-370.238639229
 31
0.0
  0
LINE
  5
1C6
  8
┌▓È_1
 10
936.66224141529995
 20
-361.738639229
 30
0.0
 11
936.66224141529995
 21
-395.738639229
 31
0.0
  0
LINE
  5
1C7
  8
┌▓È_1
 62
     5
 10
965.31361384419995
 20
-402.1977389098999
 30
0.0
 11
964.40851716429984
 21
-403.10283558980001
 31
0.0
  0
LINE
  5
1C8
  8
┌▓È_1
 62
     5
 10
958.91361384419986
 20
-402.71311533789998
 30
0.0
 11
958.91361384419986
 21
-402.1977389098999
 31
0.0
  0
LINE
  5
1C9
  8
┌▓È_1
 62
     5
 10
939.21487804879996
 20
-401.68236248189999
 30
0.0
 11
939.21487804879996
 21
-404.08236248190002
 31
0.0
  0
LINE
  5
1CA
  8
┌▓È_1
 62
     5
 10
954.65664414729997
 20
-401.68236248189999
 30
0.0
 11
954.65664414729997
 21
-404.08236248190002
 31
0.0
  0
LINE
  5
1CB
  8
┌▓È_1
 62
     5
 10
983.58158608149995
 20
-410.48236248189988
 30
0.0
 11
988.06158608149997
 21
-410.48236248189988
 31
0.0
  0
LINE
  5
1CC
  8
┌▓È_1
 62
     5
 10
945.05664414729983
 20
-401.68236248189999
 30
0.0
 11
945.05664414729983
 21
-400.88236248189997
 31
0.0
  0
LINE
  5
1CD
  8
┌▓È_1
 62
     5
 10
958.91361384419986
 20
-409.68236248189999
 30
0.0
 11
958.91361384419986
 21
-407.2823624818999
 31
0.0
  0
LINE
  5
1CE
  8
┌▓È_1
 62
     5
 10
941.05664414729995
 20
-401.68236248189999
 30
0.0
 11
939.21487804879996
 21
-401.68236248189999
 31
0.0
  0
LINE
  5
1CF
  8
┌▓È_1
 62
     5
 10
991.26158608149979
 20
-405.36236248189999
 30
0.0
 11
991.26158608149979
 21
-408.24236248189999
 31
0.0
  0
LINE
  5
1D0
  8
┌▓È_1
 62
     5
 10
982.07971941479991
 20
-405.36236248189999
 30
0.0
 11
981.70425274809998
 21
-404.08236248190002
 31
0.0
  0
LINE
  5
1D1
  8
┌▓È_1
 62
     5
 10
941.05664414729995
 20
-404.08236248190002
 30
0.0
 11
940.8148780488001
 21
-404.08236248190002
 31
0.0
  0
LINE
  5
1D2
  8
┌▓È_1
 62
     5
 10
941.05664414729995
 20
-407.2823624818999
 30
0.0
 11
941.05664414729995
 21
-409.68236248189999
 31
0.0
  0
LINE
  5
1D3
  8
┌▓È_1
 62
     5
 10
986.5882304784999
 20
-405.36236248189999
 30
0.0
 11
986.21989157780001
 21
-404.08236248190002
 31
0.0
  0
LINE
  5
1D4
  8
┌▓È_1
 62
     5
 10
983.58158608149995
 20
-410.48236248189988
 30
0.0
 11
982.92451941479987
 21
-408.24236248189999
 31
0.0
  0
LINE
  5
1D5
  8
┌▓È_1
 62
     5
 10
945.8566441472999
 20
-407.2823624818999
 30
0.0
 11
941.05664414729995
 21
-407.2823624818999
 31
0.0
  0
LINE
  5
1D6
  8
┌▓È_1
 62
     5
 10
958.91361384419986
 20
-401.36236248189999
 30
0.0
 11
966.91361384419986
 21
-401.36236248189999
 31
0.0
  0
LINE
  5
1D7
  8
┌▓È_1
 62
     5
 10
991.26158608149979
 20
-401.20236248190002
 30
0.0
 11
991.26158608149979
 21
-404.08236248190002
 31
0.0
  0
LINE
  5
1D8
  8
┌▓È_1
 62
     5
 10
976.86158608150004
 20
-404.08236248190002
 30
0.0
 11
981.70425274809998
 21
-404.08236248190002
 31
0.0
  0
LINE
  5
1D9
  8
┌▓È_1
 62
     5
 10
976.86158608150004
 20
-405.36236248189999
 30
0.0
 11
976.86158608150004
 21
-408.24236248189999
 31
0.0
  0
LINE
  5
1DA
  8
┌▓È_1
 62
     5
 10
945.05664414729983
 20
-406.48236248189988
 30
0.0
 11
945.05664414729983
 21
-404.08236248190002
 31
0.0
  0
LINE
  5
1DB
  8
┌▓È_1
 62
     5
 10
987.41699300520008
 20
-408.24236248189999
 30
0.0
 11
991.26158608149979
 21
-408.24236248189999
 31
0.0
  0
INSERT
  5
1DD
  8
┌▓È_1
  2
CLUMP0
 10
0.0
 20
0.0
 30
0.0
  0
POLYLINE
  8
┌▓È_1
  5
2EE
  62
5
  66
     1
 10
0.000000
 20
0.000000
 30
0.000000
  70
     8
  0
VERTEX
  8
┌▓È_1
  5
2EF
 10
969.609
 20
-406.520
 30
0.000000
  70
    32
  0
VERTEX
  8
┌▓È_1
  5
2F0
 10
969.637
 20
-406.528
 30
0.000000
  70
    32
  0
VERTEX
  8
┌▓È_1
  5
2F1
 10
969.665
 20
-406.536
 30
0.000000
  70
    32
  0
VERTEX
  8
┌▓È_1
  5
2F2
 10
969.693
 20
-406.544
 30
0.000000
  70
    32
  0
VERTEX
  8
┌▓È_1
  5
2F3
 10
969.721
 20
-406.551
 30
0.000000
  70
    32
  0
VERTEX
  8
┌▓È_1
  5
2F4
 10
969.749
 20
-406.559
 30
0.000000
  70
    32
  0
VERTEX
  8
┌▓È_1
  5
2F5
 10
969.777
 20
-406.567
 30
0.000000
  70
    32
  0
VERTEX
  8
┌▓È_1
  5
2F6
 10
969.805
 20
-406.575
 30
0.000000
  70
    32
  0
VERTEX
  8
┌▓È_1
  5
2F7
 10
969.834
 20
-406.582
 30
0.000000
  70
    32
  0
VERTEX
  8
┌▓È_1
  5
2F8
 10
969.862
 20
-406.590
 30
0.000000
  70
    32
  0
VERTEX
  8
┌▓È_1
  5
2F9
 10
969.890
 20
-406.597
 30
0.000000
  70
    32
  0
VERTEX
  8
┌▓È_1
  5
2FA
 10
969.918
 20
-406.605
 30
0.000000
  70
    32
  0
VERTEX
  8
┌▓È_1
  5
2FB
 10
969.947
 20
-406.612
 30
0.000000
  70
    32
  0
VERTEX
  8
┌▓È_1
  5
2FC
 10
969.975
 20
-406.620
 30
0.000000
  70
    32
  0
VERTEX
  8
┌▓È_1
  5
2FD
 10
970.003
 20
-406.627
 30
0.000000
  70
    32
  0
VERTEX
  8
┌▓È_1
  5
2FE
 10
970.031
 20
-406.634
 30
0.000000
  70
    32
  0
VERTEX
  8
┌▓È_1
  5
2FF
 10
970.060
 20
-406.642
 30
0.000000
  70
    32
  0
VERTEX
  8
┌▓È_1
  5
300
 10
970.088
 20
-406.649
 30
0.000000
  70
    32
  0
VERTEX
  8
┌▓È_1
  5
301
 10
970.117
 20
-406.656
 30
0.000000
  70
    32
  0
VERTEX
  8
┌▓È_1
  5
302
 10
970.145
 20
-406.663
 30
0.000000
  70
    32
  0
VERTEX
  8
┌▓È_1
  5
303
 10
970.174
 20
-406.670
 30
0.000000
  70
    32
  0
VERTEX
  8
┌▓È_1
  5
304
 10
970.202
 20
-406.677
 30
0.000000
  70
    32
  0
VERTEX
  8
┌▓È_1
  5
305
 10
970.231
 20
-406.684
 30
0.000000
  70
    32
  0
VERTEX
  8
┌▓È_1
  5
306
 10
970.259
 20
-406.691
 30
0.000000
  70
    32
  0
VERTEX
  8
┌▓È_1
  5
307
 10
970.288
 20
-406.698
 30
0.000000
  70
    32
  0
VERTEX
  8
┌▓È_1
  5
308
 10
970.316
 20
-406.705
 30
0.000000
  70
    32
  0
VERTEX
  8
┌▓È_1
  5
309
 10
970.345
 20
-406.712
 30
0.000000
  70
    32
  0
VERTEX
  8
┌▓È_1
  5
30A
 10
970.374
 20
-406.719
 30
0.000000
  70
    32
  0
VERTEX
  8
┌▓È_1
  5
30B
 10
970.402
 20
-406.726
 30
0.000000
  70
    32
  0
VERTEX
  8
┌▓È_1
  5
30C
 10
970.431
 20
-406.733
 30
0.000000
  70
    32
  0
VERTEX
  8
┌▓È_1
  5
30D
 10
970.460
 20
-406.739
 30
0.000000
  70
    32
  0
VERTEX
  8
┌▓È_1
  5
30E
 10
970.488
 20
-406.746
 30
0.000000
  70
    32
  0
VERTEX
  8
┌▓È_1
  5
30F
 10
970.517
 20
-406.753
 30
0.000000
  70
    32
  0
VERTEX
  8
┌▓È_1
  5
310
 10
970.546
 20
-406.759
 30
0.000000
  70
    32
  0
VERTEX
  8
┌▓È_1
  5
311
 10
970.575
 20
-406.766
 30
0.000000
  70
    32
  0
VERTEX
  8
┌▓È_1
  5
312
 10
970.603
 20
-406.773
 30
0.000000
  70
    32
  0
VERTEX
  8
┌▓È_1
  5
313
 10
970.632
 20
-406.779
 30
0.000000
  70
    32
  0
VERTEX
  8
┌▓È_1
  5
314
 10
970.661
 20
-406.786
 30
0.000000
  70
    32
  0
VERTEX
  8
┌▓È_1
  5
315
 10
970.690
 20
-406.792
 30
0.000000
  70
    32
  0
VERTEX
  8
┌▓È_1
  5
316
 10
970.719
 20
-406.799
 30
0.000000
  70
    32
  0
VERTEX
  8
┌▓È_1
  5
317
 10
970.748
 20
-406.805
 30
0.000000
  70
    32
  0
VERTEX
  8
┌▓È_1
  5
318
 10
970.777
 20
-406.811
 30
0.000000
  70
    32
  0
VERTEX
  8
┌▓È_1
  5
319
 10
970.806
 20
-406.818
 30
0.000000
  70
    32
  0
VERTEX
  8
┌▓È_1
  5
31A
 10
970.835
 20
-406.824
 30
0.000000
  70
    32
  0
VERTEX
  8
┌▓È_1
  5
31B
 10
970.864
 20
-406.830
 30
0.000000
  70
    32
  0
VERTEX
  8
┌▓È_1
  5
31C
 10
970.893
 20
-406.837
 30
0.000000
  70
    32
  0
VERTEX
  8
┌▓È_1
  5
31D
 10
970.922
 20
-406.843
 30
0.000000
  70
    32
  0
VERTEX
  8
┌▓È_1
  5
31E
 10
970.951
 20
-406.849
 30
0.000000
  70
    32
  0
VERTEX
  8
┌▓È_1
  5
31F
 10
970.980
 20
-406.855
 30
0.000000
  70
    32
  0
VERTEX
  8
┌▓È_1
  5
320
 10
971.009
 20
-406.861
 30
0.000000
  70
    32
  0
VERTEX
  8
┌▓È_1
  5
321
 10
971.038
 20
-406.868
 30
0.000000
  70
    32
  0
VERTEX
  8
┌▓È_1
  5
322
 10
971.067
 20
-406.874
 30
0.000000
  70
    32
  0
VERTEX
  8
┌▓È_1
  5
323
 10
971.096
 20
-406.880
 30
0.000000
  70
    32
  0
VERTEX
  8
┌▓È_1
  5
324
 10
971.125
 20
-406.886
 30
0.000000
  70
    32
  0
VERTEX
  8
┌▓È_1
  5
325
 10
971.155
 20
-406.892
 30
0.000000
  70
    32
  0
VERTEX
  8
┌▓È_1
  5
326
 10
971.184
 20
-406.898
 30
0.000000
  70
    32
  0
VERTEX
  8
┌▓È_1
  5
327
 10
971.213
 20
-406.904
 30
0.000000
  70
    32
  0
VERTEX
  8
┌▓È_1
  5
328
 10
971.242
 20
-406.910
 30
0.000000
  70
    32
  0
VERTEX
  8
┌▓È_1
  5
329
 10
971.271
 20
-406.916
 30
0.000000
  70
    32
  0
VERTEX
  8
┌▓È_1
  5
32A
 10
971.301
 20
-406.921
 30
0.000000
  70
    32
  0
VERTEX
  8
┌▓È_1
  5
32B
 10
971.330
 20
-406.927
 30
0.000000
  70
    32
  0
VERTEX
  8
┌▓È_1
  5
32C
 10
971.359
 20
-406.933
 30
0.000000
  70
    32
  0
VERTEX
  8
┌▓È_1
  5
32D
 10
971.389
 20
-406.939
 30
0.000000
  70
    32
  0
VERTEX
  8
┌▓È_1
  5
32E
 10
971.418
 20
-406.945
 30
0.000000
  70
    32
  0
VERTEX
  8
┌▓È_1
  5
32F
 10
971.447
 20
-406.950
 30
0.000000
  70
    32
  0
VERTEX
  8
┌▓È_1
  5
330
 10
971.476
 20
-406.956
 30
0.000000
  70
    32
  0
VERTEX
  8
┌▓È_1
  5
331
 10
971.506
 20
-406.962
 30
0.000000
  70
    32
  0
VERTEX
  8
┌▓È_1
  5
332
 10
971.535
 20
-406.968
 30
0.000000
  70
    32
  0
VERTEX
  8
┌▓È_1
  5
333
 10
971.565
 20
-406.973
 30
0.000000
  70
    32
  0
VERTEX
  8
┌▓È_1
  5
334
 10
971.594
 20
-406.979
 30
0.000000
  70
    32
  0
VERTEX
  8
┌▓È_1
  5
335
 10
971.623
 20
-406.985
 30
0.000000
  70
    32
  0
VERTEX
  8
┌▓È_1
  5
336
 10
971.653
 20
-406.990
 30
0.000000
  70
    32
  0
VERTEX
  8
┌▓È_1
  5
337
 10
971.682
 20
-406.996
 30
0.000000
  70
    32
  0
VERTEX
  8
┌▓È_1
  5
338
 10
971.712
 20
-407.001
 30
0.000000
  70
    32
  0
VERTEX
  8
┌▓È_1
  5
339
 10
971.741
 20
-407.007
 30
0.000000
  70
    32
  0
VERTEX
  8
┌▓È_1
  5
33A
 10
971.771
 20
-407.012
 30
0.000000
  70
    32
  0
VERTEX
  8
┌▓È_1
  5
33B
 10
971.800
 20
-407.018
 30
0.000000
  70
    32
  0
VERTEX
  8
┌▓È_1
  5
33C
 10
971.830
 20
-407.023
 30
0.000000
  70
    32
  0
VERTEX
  8
┌▓È_1
  5
33D
 10
971.859
 20
-407.029
 30
0.000000
  70
    32
  0
VERTEX
  8
┌▓È_1
  5
33E
 10
971.889
 20
-407.034
 30
0.000000
  70
    32
  0
VERTEX
  8
┌▓È_1
  5
33F
 10
971.918
 20
-407.040
 30
0.000000
  70
    32
  0
VERTEX
  8
┌▓È_1
  5
340
 10
971.948
 20
-407.045
 30
0.000000
  70
    32
  0
VERTEX
  8
┌▓È_1
  5
341
 10
971.977
 20
-407.051
 30
0.000000
  70
    32
  0
VERTEX
  8
┌▓È_1
  5
342
 10
972.007
 20
-407.056
 30
0.000000
  70
    32
  0
VERTEX
  8
┌▓È_1
  5
343
 10
972.036
 20
-407.061
 30
0.000000
  70
    32
  0
VERTEX
  8
┌▓È_1
  5
344
 10
972.066
 20
-407.067
 30
0.000000
  70
    32
  0
VERTEX
  8
┌▓È_1
  5
345
 10
972.095
 20
-407.072
 30
0.000000
  70
    32
  0
VERTEX
  8
┌▓È_1
  5
346
 10
972.125
 20
-407.077
 30
0.000000
  70
    32
  0
VERTEX
  8
┌▓È_1
  5
347
 10
972.155
 20
-407.083
 30
0.000000
  70
    32
  0
VERTEX
  8
┌▓È_1
  5
348
 10
972.184
 20
-407.088
 30
0.000000
  70
    32
  0
VERTEX
  8
┌▓È_1
  5
349
 10
972.214
 20
-407.093
 30
0.000000
  70
    32
  0
VERTEX
  8
┌▓È_1
  5
34A
 10
972.243
 20
-407.099
 30
0.000000
  70
    32
  0
VERTEX
  8
┌▓È_1
  5
34B
 10
972.273
 20
-407.104
 30
0.000000
  70
    32
  0
VERTEX
  8
┌▓È_1
  5
34C
 10
972.303
 20
-407.109
 30
0.000000
  70
    32
  0
VERTEX
  8
┌▓È_1
  5
34D
 10
972.332
 20
-407.114
 30
0.000000
  70
    32
  0
VERTEX
  8
┌▓È_1
  5
34E
 10
972.362
 20
-407.119
 30
0.000000
  70
    32
  0
VERTEX
  8
┌▓È_1
  5
34F
 10
972.392
 20
-407.125
 30
0.000000
  70
    32
  0
VERTEX
  8
┌▓È_1
  5
350
 10
972.421
 20
-407.130
 30
0.000000
  70
    32
  0
VERTEX
  8
┌▓È_1
  5
351
 10
972.451
 20
-407.135
 30
0.000000
  70
    32
  0
VERTEX
  8
┌▓È_1
  5
352
 10
972.481
 20
-407.140
 30
0.000000
  70
    32
  0
VERTEX
  8
┌▓È_1
  5
353
 10
972.510
 20
-407.145
 30
0.000000
  70
    32
  0
VERTEX
  8
┌▓È_1
  5
354
 10
972.540
 20
-407.151
 30
0.000000
  70
    32
  0
VERTEX
  8
┌▓È_1
  5
355
 10
972.570
 20
-407.156
 30
0.000000
  70
    32
  0
VERTEX
  8
┌▓È_1
  5
356
 10
972.600
 20
-407.161
 30
0.000000
  70
    32
  0
VERTEX
  8
┌▓È_1
  5
357
 10
972.629
 20
-407.166
 30
0.000000
  70
    32
  0
VERTEX
  8
┌▓È_1
  5
358
 10
972.659
 20
-407.171
 30
0.000000
  70
    32
  0
VERTEX
  8
┌▓È_1
  5
359
 10
972.689
 20
-407.176
 30
0.000000
  70
    32
  0
VERTEX
  8
┌▓È_1
  5
35A
 10
972.718
 20
-407.181
 30
0.000000
  70
    32
  0
VERTEX
  8
┌▓È_1
  5
35B
 10
972.748
 20
-407.186
 30
0.000000
  70
    32
  0
VERTEX
  8
┌▓È_1
  5
35C
 10
972.778
 20
-407.191
 30
0.000000
  70
    32
  0
VERTEX
  8
┌▓È_1
  5
35D
 10
972.808
 20
-407.197
 30
0.000000
  70
    32
  0
VERTEX
  8
┌▓È_1
  5
35E
 10
972.837
 20
-407.202
 30
0.000000
  70
    32
  0
VERTEX
  8
┌▓È_1
  5
35F
 10
972.867
 20
-407.207
 30
0.000000
  70
    32
  0
VERTEX
  8
┌▓È_1
  5
360
 10
972.897
 20
-407.212
 30
0.000000
  70
    32
  0
VERTEX
  8
┌▓È_1
  5
361
 10
972.927
 20
-407.217
 30
0.000000
  70
    32
  0
VERTEX
  8
┌▓È_1
  5
362
 10
972.956
 20
-407.222
 30
0.000000
  70
    32
  0
VERTEX
  8
┌▓È_1
  5
363
 10
972.986
 20
-407.227
 30
0.000000
  70
    32
  0
VERTEX
  8
┌▓È_1
  5
364
 10
973.016
 20
-407.232
 30
0.000000
  70
    32
  0
VERTEX
  8
┌▓È_1
  5
365
 10
973.046
 20
-407.237
 30
0.000000
  70
    32
  0
VERTEX
  8
┌▓È_1
  5
366
 10
973.075
 20
-407.242
 30
0.000000
  70
    32
  0
VERTEX
  8
┌▓È_1
  5
367
 10
973.105
 20
-407.247
 30
0.000000
  70
    32
  0
VERTEX
  8
┌▓È_1
  5
368
 10
973.135
 20
-407.252
 30
0.000000
  70
    32
  0
VERTEX
  8
┌▓È_1
  5
369
 10
973.165
 20
-407.257
 30
0.000000
  70
    32
  0
VERTEX
  8
┌▓È_1
  5
36A
 10
973.195
 20
-407.262
 30
0.000000
  70
    32
  0
VERTEX
  8
┌▓È_1
  5
36B
 10
973.224
 20
-407.267
 30
0.000000
  70
    32
  0
VERTEX
  8
┌▓È_1
  5
36C
 10
973.254
 20
-407.272
 30
0.000000
  70
    32
  0
VERTEX
  8
┌▓È_1
  5
36D
 10
973.284
 20
-407.277
 30
0.000000
  70
    32
  0
VERTEX
  8
┌▓È_1
  5
36E
 10
973.314
 20
-407.282
 30
0.000000
  70
    32
  0
SEQEND
  8
┌▓È_1
  5
36F
  0
POLYLINE
  8
┌▓È_1
  5
370
  62
5
  66
     1
 10
0.000000
 20
0.000000
 30
0.000000
  70
     8
  0
VERTEX
  8
┌▓È_1
  5
371
 10
958.914
 20
-402.713
 30
0.000000
  70
    32
  0
VERTEX
  8
┌▓È_1
  5
372
 10
958.942
 20
-402.740
 30
0.000000
  70
    32
  0
VERTEX
  8
┌▓È_1
  5
373
 10
958.971
 20
-402.766
 30
0.000000
  70
    32
  0
VERTEX
  8
┌▓È_1
  5
374
 10
959.000
 20
-402.793
 30
0.000000
  70
    32
  0
VERTEX
  8
┌▓È_1
  5
375
 10
959.029
 20
-402.819
 30
0.000000
  70
    32
  0
VERTEX
  8
┌▓È_1
  5
376
 10
959.058
 20
-402.846
 30
0.000000
  70
    32
  0
VERTEX
  8
┌▓È_1
  5
377
 10
959.087
 20
-402.872
 30
0.000000
  70
    32
  0
VERTEX
  8
┌▓È_1
  5
378
 10
959.115
 20
-402.899
 30
0.000000
  70
    32
  0
VERTEX
  8
┌▓È_1
  5
379
 10
959.144
 20
-402.926
 30
0.000000
  70
    32
  0
VERTEX
  8
┌▓È_1
  5
37A
 10
959.173
 20
-402.952
 30
0.000000
  70
    32
  0
VERTEX
  8
┌▓È_1
  5
37B
 10
959.202
 20
-402.979
 30
0.000000
  70
    32
  0
VERTEX
  8
┌▓È_1
  5
37C
 10
959.231
 20
-403.005
 30
0.000000
  70
    32
  0
VERTEX
  8
┌▓È_1
  5
37D
 10
959.260
 20
-403.032
 30
0.000000
  70
    32
  0
VERTEX
  8
┌▓È_1
  5
37E
 10
959.288
 20
-403.058
 30
0.000000
  70
    32
  0
VERTEX
  8
┌▓È_1
  5
37F
 10
959.317
 20
-403.085
 30
0.000000
  70
    32
  0
VERTEX
  8
┌▓È_1
  5
380
 10
959.346
 20
-403.111
 30
0.000000
  70
    32
  0
VERTEX
  8
┌▓È_1
  5
381
 10
959.375
 20
-403.138
 30
0.000000
  70
    32
  0
VERTEX
  8
┌▓È_1
  5
382
 10
959.404
 20
-403.164
 30
0.000000
  70
    32
  0
VERTEX
  8
┌▓È_1
  5
383
 10
959.433
 20
-403.191
 30
0.000000
  70
    32
  0
VERTEX
  8
┌▓È_1
  5
384
 10
959.462
 20
-403.217
 30
0.000000
  70
    32
  0
VERTEX
  8
┌▓È_1
  5
385
 10
959.490
 20
-403.244
 30
0.000000
  70
    32
  0
VERTEX
  8
┌▓È_1
  5
386
 10
959.519
 20
-403.270
 30
0.000000
  70
    32
  0
VERTEX
  8
┌▓È_1
  5
387
 10
959.548
 20
-403.297
 30
0.000000
  70
    32
  0
VERTEX
  8
┌▓È_1
  5
388
 10
959.577
 20
-403.323
 30
0.000000
  70
    32
  0
VERTEX
  8
┌▓È_1
  5
389
 10
959.606
 20
-403.349
 30
0.000000
  70
    32
  0
VERTEX
  8
┌▓È_1
  5
38A
 10
959.635
 20
-403.376
 30
0.000000
  70
    32
  0
VERTEX
  8
┌▓È_1
  5
38B
 10
959.664
 20
-403.402
 30
0.000000
  70
    32
  0
VERTEX
  8
┌▓È_1
  5
38C
 10
959.693
 20
-403.429
 30
0.000000
  70
    32
  0
VERTEX
  8
┌▓È_1
  5
38D
 10
959.722
 20
-403.455
 30
0.000000
  70
    32
  0
VERTEX
  8
┌▓È_1
  5
38E
 10
959.751
 20
-403.481
 30
0.000000
  70
    32
  0
VERTEX
  8
┌▓È_1
  5
38F
 10
959.780
 20
-403.508
 30
0.000000
  70
    32
  0
VERTEX
  8
┌▓È_1
  5
390
 10
959.808
 20
-403.534
 30
0.000000
  70
    32
  0
VERTEX
  8
┌▓È_1
  5
391
 10
959.837
 20
-403.560
 30
0.000000
  70
    32
  0
VERTEX
  8
┌▓È_1
  5
392
 10
959.866
 20
-403.586
 30
0.000000
  70
    32
  0
VERTEX
  8
┌▓È_1
  5
393
 10
959.895
 20
-403.613
 30
0.000000
  70
    32
  0
VERTEX
  8
┌▓È_1
  5
394
 10
959.924
 20
-403.639
 30
0.000000
  70
    32
  0
VERTEX
  8
┌▓È_1
  5
395
 10
959.953
 20
-403.665
 30
0.000000
  70
    32
  0
VERTEX
  8
┌▓È_1
  5
396
 10
959.982
 20
-403.691
 30
0.000000
  70
    32
  0
VERTEX
  8
┌▓È_1
  5
397
 10
960.011
 20
-403.717
 30
0.000000
  70
    32
  0
VERTEX
  8
┌▓È_1
  5
398
 10
960.040
 20
-403.744
 30
0.000000
  70
    32
  0
VERTEX
  8
┌▓È_1
  5
399
 10
960.070
 20
-403.770
 30
0.000000
  70
    32
  0
VERTEX
  8
┌▓È_1
  5
39A
 10
960.099
 20
-403.796
 30
0.000000
  70
    32
  0
VERTEX
  8
┌▓È_1
  5
39B
 10
960.128
 20
-403.822
 30
0.000000
  70
    32
  0
VERTEX
  8
┌▓È_1
  5
39C
 10
960.157
 20
-403.848
 30
0.000000
  70
    32
  0
VERTEX
  8
┌▓È_1
  5
39D
 10
960.186
 20
-403.874
 30
0.000000
  70
    32
  0
VERTEX
  8
┌▓È_1
  5
39E
 10
960.215
 20
-403.900
 30
0.000000
  70
    32
  0
VERTEX
  8
┌▓È_1
  5
39F
 10
960.244
 20
-403.926
 30
0.000000
  70
    32
  0
VERTEX
  8
┌▓È_1
  5
3A0
 10
960.273
 20
-403.952
 30
0.000000
  70
    32
  0
VERTEX
  8
┌▓È_1
  5
3A1
 10
960.302
 20
-403.978
 30
0.000000
  70
    32
  0
VERTEX
  8
┌▓È_1
  5
3A2
 10
960.332
 20
-404.004
 30
0.000000
  70
    32
  0
VERTEX
  8
┌▓È_1
  5
3A3
 10
960.361
 20
-404.030
 30
0.000000
  70
    32
  0
VERTEX
  8
┌▓È_1
  5
3A4
 10
960.390
 20
-404.056
 30
0.000000
  70
    32
  0
VERTEX
  8
┌▓È_1
  5
3A5
 10
960.419
 20
-404.081
 30
0.000000
  70
    32
  0
VERTEX
  8
┌▓È_1
  5
3A6
 10
960.448
 20
-404.107
 30
0.000000
  70
    32
  0
VERTEX
  8
┌▓È_1
  5
3A7
 10
960.478
 20
-404.133
 30
0.000000
  70
    32
  0
VERTEX
  8
┌▓È_1
  5
3A8
 10
960.507
 20
-404.159
 30
0.000000
  70
    32
  0
VERTEX
  8
┌▓È_1
  5
3A9
 10
960.536
 20
-404.185
 30
0.000000
  70
    32
  0
VERTEX
  8
┌▓È_1
  5
3AA
 10
960.565
 20
-404.210
 30
0.000000
  70
    32
  0
VERTEX
  8
┌▓È_1
  5
3AB
 10
960.595
 20
-404.236
 30
0.000000
  70
    32
  0
VERTEX
  8
┌▓È_1
  5
3AC
 10
960.624
 20
-404.261
 30
0.000000
  70
    32
  0
VERTEX
  8
┌▓È_1
  5
3AD
 10
960.653
 20
-404.287
 30
0.000000
  70
    32
  0
VERTEX
  8
┌▓È_1
  5
3AE
 10
960.683
 20
-404.313
 30
0.000000
  70
    32
  0
VERTEX
  8
┌▓È_1
  5
3AF
 10
960.712
 20
-404.338
 30
0.000000
  70
    32
  0
VERTEX
  8
┌▓È_1
  5
3B0
 10
960.742
 20
-404.364
 30
0.000000
  70
    32
  0
VERTEX
  8
┌▓È_1
  5
3B1
 10
960.771
 20
-404.389
 30
0.000000
  70
    32
  0
VERTEX
  8
┌▓È_1
  5
3B2
 10
960.800
 20
-404.414
 30
0.000000
  70
    32
  0
VERTEX
  8
┌▓È_1
  5
3B3
 10
960.830
 20
-404.440
 30
0.000000
  70
    32
  0
VERTEX
  8
┌▓È_1
  5
3B4
 10
960.859
 20
-404.465
 30
0.000000
  70
    32
  0
VERTEX
  8
┌▓È_1
  5
3B5
 10
960.889
 20
-404.491
 30
0.000000
  70
    32
  0
VERTEX
  8
┌▓È_1
  5
3B6
 10
960.918
 20
-404.516
 30
0.000000
  70
    32
  0
VERTEX
  8
┌▓È_1
  5
3B7
 10
960.948
 20
-404.541
 30
0.000000
  70
    32
  0
VERTEX
  8
┌▓È_1
  5
3B8
 10
960.978
 20
-404.566
 30
0.000000
  70
    32
  0
VERTEX
  8
┌▓È_1
  5
3B9
 10
961.007
 20
-404.591
 30
0.000000
  70
    32
  0
VERTEX
  8
┌▓È_1
  5
3BA
 10
961.037
 20
-404.616
 30
0.000000
  70
    32
  0
VERTEX
  8
┌▓È_1
  5
3BB
 10
961.066
 20
-404.642
 30
0.000000
  70
    32
  0
VERTEX
  8
┌▓È_1
  5
3BC
 10
961.096
 20
-404.667
 30
0.000000
  70
    32
  0
VERTEX
  8
┌▓È_1
  5
3BD
 10
961.126
 20
-404.692
 30
0.000000
  70
    32
  0
VERTEX
  8
┌▓È_1
  5
3BE
 10
961.155
 20
-404.716
 30
0.000000
  70
    32
  0
VERTEX
  8
┌▓È_1
  5
3BF
 10
961.185
 20
-404.741
 30
0.000000
  70
    32
  0
VERTEX
  8
┌▓È_1
  5
3C0
 10
961.215
 20
-404.766
 30
0.000000
  70
    32
  0
VERTEX
  8
┌▓È_1
  5
3C1
 10
961.245
 20
-404.791
 30
0.000000
  70
    32
  0
VERTEX
  8
┌▓È_1
  5
3C2
 10
961.274
 20
-404.816
 30
0.000000
  70
    32
  0
VERTEX
  8
┌▓È_1
  5
3C3
 10
961.304
 20
-404.841
 30
0.000000
  70
    32
  0
VERTEX
  8
┌▓È_1
  5
3C4
 10
961.334
 20
-404.865
 30
0.000000
  70
    32
  0
VERTEX
  8
┌▓È_1
  5
3C5
 10
961.364
 20
-404.890
 30
0.000000
  70
    32
  0
VERTEX
  8
┌▓È_1
  5
3C6
 10
961.394
 20
-404.914
 30
0.000000
  70
    32
  0
VERTEX
  8
┌▓È_1
  5
3C7
 10
961.424
 20
-404.939
 30
0.000000
  70
    32
  0
VERTEX
  8
┌▓È_1
  5
3C8
 10
961.454
 20
-404.964
 30
0.000000
  70
    32
  0
VERTEX
  8
┌▓È_1
  5
3C9
 10
961.484
 20
-404.988
 30
0.000000
  70
    32
  0
VERTEX
  8
┌▓È_1
  5
3CA
 10
961.514
 20
-405.012
 30
0.000000
  70
    32
  0
VERTEX
  8
┌▓È_1
  5
3CB
 10
961.544
 20
-405.037
 30
0.000000
  70
    32
  0
VERTEX
  8
┌▓È_1
  5
3CC
 10
961.574
 20
-405.061
 30
0.000000
  70
    32
  0
VERTEX
  8
┌▓È_1
  5
3CD
 10
961.604
 20
-405.085
 30
0.000000
  70
    32
  0
VERTEX
  8
┌▓È_1
  5
3CE
 10
961.634
 20
-405.109
 30
0.000000
  70
    32
  0
VERTEX
  8
┌▓È_1
  5
3CF
 10
961.664
 20
-405.134
 30
0.000000
  70
    32
  0
VERTEX
  8
┌▓È_1
  5
3D0
 10
961.694
 20
-405.158
 30
0.000000
  70
    32
  0
VERTEX
  8
┌▓È_1
  5
3D1
 10
961.724
 20
-405.182
 30
0.000000
  70
    32
  0
VERTEX
  8
┌▓È_1
  5
3D2
 10
961.754
 20
-405.206
 30
0.000000
  70
    32
  0
VERTEX
  8
┌▓È_1
  5
3D3
 10
961.785
 20
-405.230
 30
0.000000
  70
    32
  0
VERTEX
  8
┌▓È_1
  5
3D4
 10
961.815
 20
-405.254
 30
0.000000
  70
    32
  0
VERTEX
  8
┌▓È_1
  5
3D5
 10
961.845
 20
-405.277
 30
0.000000
  70
    32
  0
VERTEX
  8
┌▓È_1
  5
3D6
 10
961.876
 20
-405.301
 30
0.000000
  70
    32
  0
VERTEX
  8
┌▓È_1
  5
3D7
 10
961.906
 20
-405.325
 30
0.000000
  70
    32
  0
VERTEX
  8
┌▓È_1
  5
3D8
 10
961.936
 20
-405.349
 30
0.000000
  70
    32
  0
VERTEX
  8
┌▓È_1
  5
3D9
 10
961.967
 20
-405.372
 30
0.000000
  70
    32
  0
VERTEX
  8
┌▓È_1
  5
3DA
 10
961.997
 20
-405.396
 30
0.000000
  70
    32
  0
VERTEX
  8
┌▓È_1
  5
3DB
 10
962.028
 20
-405.419
 30
0.000000
  70
    32
  0
VERTEX
  8
┌▓È_1
  5
3DC
 10
962.058
 20
-405.443
 30
0.000000
  70
    32
  0
VERTEX
  8
┌▓È_1
  5
3DD
 10
962.089
 20
-405.466
 30
0.000000
  70
    32
  0
VERTEX
  8
┌▓È_1
  5
3DE
 10
962.119
 20
-405.489
 30
0.000000
  70
    32
  0
VERTEX
  8
┌▓È_1
  5
3DF
 10
962.150
 20
-405.513
 30
0.000000
  70
    32
  0
VERTEX
  8
┌▓È_1
  5
3E0
 10
962.181
 20
-405.536
 30
0.000000
  70
    32
  0
VERTEX
  8
┌▓È_1
  5
3E1
 10
962.211
 20
-405.559
 30
0.000000
  70
    32
  0
VERTEX
  8
┌▓È_1
  5
3E2
 10
962.242
 20
-405.582
 30
0.000000
  70
    32
  0
VERTEX
  8
┌▓È_1
  5
3E3
 10
962.273
 20
-405.605
 30
0.000000
  70
    32
  0
VERTEX
  8
┌▓È_1
  5
3E4
 10
962.304
 20
-405.628
 30
0.000000
  70
    32
  0
VERTEX
  8
┌▓È_1
  5
3E5
 10
962.334
 20
-405.651
 30
0.000000
  70
    32
  0
VERTEX
  8
┌▓È_1
  5
3E6
 10
962.365
 20
-405.674
 30
0.000000
  70
    32
  0
VERTEX
  8
┌▓È_1
  5
3E7
 10
962.396
 20
-405.696
 30
0.000000
  70
    32
  0
VERTEX
  8
┌▓È_1
  5
3E8
 10
962.427
 20
-405.719
 30
0.000000
  70
    32
  0
VERTEX
  8
┌▓È_1
  5
3E9
 10
962.458
 20
-405.742
 30
0.000000
  70
    32
  0
VERTEX
  8
┌▓È_1
  5
3EA
 10
962.489
 20
-405.764
 30
0.000000
  70
    32
  0
VERTEX
  8
┌▓È_1
  5
3EB
 10
962.520
 20
-405.787
 30
0.000000
  70
    32
  0
VERTEX
  8
┌▓È_1
  5
3EC
 10
962.551
 20
-405.809
 30
0.000000
  70
    32
  0
VERTEX
  8
┌▓È_1
  5
3ED
 10
962.582
 20
-405.831
 30
0.000000
  70
    32
  0
VERTEX
  8
┌▓È_1
  5
3EE
 10
962.613
 20
-405.854
 30
0.000000
  70
    32
  0
VERTEX
  8
┌▓È_1
  5
3EF
 10
962.644
 20
-405.876
 30
0.000000
  70
    32
  0
VERTEX
  8
┌▓È_1
  5
3F0
 10
962.676
 20
-405.898
 30
0.000000
  70
    32
  0
VERTEX
  8
┌▓È_1
  5
3F1
 10
962.707
 20
-405.920
 30
0.000000
  70
    32
  0
VERTEX
  8
┌▓È_1
  5
3F2
 10
962.738
 20
-405.942
 30
0.000000
  70
    32
  0
VERTEX
  8
┌▓È_1
  5
3F3
 10
962.769
 20
-405.964
 30
0.000000
  70
    32
  0
VERTEX
  8
┌▓È_1
  5
3F4
 10
962.801
 20
-405.986
 30
0.000000
  70
    32
  0
VERTEX
  8
┌▓È_1
  5
3F5
 10
962.832
 20
-406.008
 30
0.000000
  70
    32
  0
VERTEX
  8
┌▓È_1
  5
3F6
 10
962.864
 20
-406.029
 30
0.000000
  70
    32
  0
VERTEX
  8
┌▓È_1
  5
3F7
 10
962.895
 20
-406.051
 30
0.000000
  70
    32
  0
VERTEX
  8
┌▓È_1
  5
3F8
 10
962.927
 20
-406.073
 30
0.000000
  70
    32
  0
VERTEX
  8
┌▓È_1
  5
3F9
 10
962.958
 20
-406.094
 30
0.000000
  70
    32
  0
VERTEX
  8
┌▓È_1
  5
3FA
 10
962.990
 20
-406.115
 30
0.000000
  70
    32
  0
VERTEX
  8
┌▓È_1
  5
3FB
 10
963.022
 20
-406.137
 30
0.000000
  70
    32
  0
VERTEX
  8
┌▓È_1
  5
3FC
 10
963.053
 20
-406.158
 30
0.000000
  70
    32
  0
VERTEX
  8
┌▓È_1
  5
3FD
 10
963.085
 20
-406.179
 30
0.000000
  70
    32
  0
VERTEX
  8
┌▓È_1
  5
3FE
 10
963.117
 20
-406.200
 30
0.000000
  70
    32
  0
VERTEX
  8
┌▓È_1
  5
3FF
 10
963.149
 20
-406.221
 30
0.000000
  70
    32
  0
VERTEX
  8
┌▓È_1
  5
400
 10
963.180
 20
-406.242
 30
0.000000
  70
    32
  0
VERTEX
  8
┌▓È_1
  5
401
 10
963.212
 20
-406.263
 30
0.000000
  70
    32
  0
VERTEX
  8
┌▓È_1
  5
402
 10
963.244
 20
-406.284
 30
0.000000
  70
    32
  0
VERTEX
  8
┌▓È_1
  5
403
 10
963.276
 20
-406.305
 30
0.000000
  70
    32
  0
VERTEX
  8
┌▓È_1
  5
404
 10
963.308
 20
-406.325
 30
0.000000
  70
    32
  0
VERTEX
  8
┌▓È_1
  5
405
 10
963.340
 20
-406.346
 30
0.000000
  70
    32
  0
VERTEX
  8
┌▓È_1
  5
406
 10
963.372
 20
-406.366
 30
0.000000
  70
    32
  0
VERTEX
  8
┌▓È_1
  5
407
 10
963.405
 20
-406.387
 30
0.000000
  70
    32
  0
VERTEX
  8
┌▓È_1
  5
408
 10
963.437
 20
-406.407
 30
0.000000
  70
    32
  0
VERTEX
  8
┌▓È_1
  5
409
 10
963.469
 20
-406.427
 30
0.000000
  70
    32
  0
VERTEX
  8
┌▓È_1
  5
40A
 10
963.501
 20
-406.447
 30
0.000000
  70
    32
  0
VERTEX
  8
┌▓È_1
  5
40B
 10
963.534
 20
-406.467
 30
0.000000
  70
    32
  0
VERTEX
  8
┌▓È_1
  5
40C
 10
963.566
 20
-406.487
 30
0.000000
  70
    32
  0
VERTEX
  8
┌▓È_1
  5
40D
 10
963.598
 20
-406.507
 30
0.000000
  70
    32
  0
VERTEX
  8
┌▓È_1
  5
40E
 10
963.631
 20
-406.527
 30
0.000000
  70
    32
  0
VERTEX
  8
┌▓È_1
  5
40F
 10
963.663
 20
-406.547
 30
0.000000
  70
    32
  0
VERTEX
  8
┌▓È_1
  5
410
 10
963.696
 20
-406.566
 30
0.000000
  70
    32
  0
SEQEND
  8
┌▓È_1
  5
411
  0
POLYLINE
  8
┌▓È_1
  5
412
  62
5
  66
     1
 10
0.000000
 20
0.000000
 30
0.000000
  70
     8
  0
VERTEX
  8
┌▓È_1
  5
413
 10
967.648
 20
-408.300
 30
0.000000
  70
    32
  0
VERTEX
  8
┌▓È_1
  5
414
 10
967.691
 20
-408.314
 30
0.000000
  70
    32
  0
VERTEX
  8
┌▓È_1
  5
415
 10
967.734
 20
-408.328
 30
0.000000
  70
    32
  0
VERTEX
  8
┌▓È_1
  5
416
 10
967.777
 20
-408.341
 30
0.000000
  70
    32
  0
VERTEX
  8
┌▓È_1
  5
417
 10
967.820
 20
-408.355
 30
0.000000
  70
    32
  0
VERTEX
  8
┌▓È_1
  5
418
 10
967.863
 20
-408.368
 30
0.000000
  70
    32
  0
VERTEX
  8
┌▓È_1
  5
419
 10
967.907
 20
-408.382
 30
0.000000
  70
    32
  0
VERTEX
  8
┌▓È_1
  5
41A
 10
967.950
 20
-408.395
 30
0.000000
  70
    32
  0
VERTEX
  8
┌▓È_1
  5
41B
 10
967.993
 20
-408.409
 30
0.000000
  70
    32
  0
VERTEX
  8
┌▓È_1
  5
41C
 10
968.037
 20
-408.422
 30
0.000000
  70
    32
  0
VERTEX
  8
┌▓È_1
  5
41D
 10
968.080
 20
-408.435
 30
0.000000
  70
    32
  0
VERTEX
  8
┌▓È_1
  5
41E
 10
968.123
 20
-408.448
 30
0.000000
  70
    32
  0
VERTEX
  8
┌▓È_1
  5
41F
 10
968.167
 20
-408.461
 30
0.000000
  70
    32
  0
VERTEX
  8
┌▓È_1
  5
420
 10
968.210
 20
-408.474
 30
0.000000
  70
    32
  0
VERTEX
  8
┌▓È_1
  5
421
 10
968.254
 20
-408.487
 30
0.000000
  70
    32
  0
VERTEX
  8
┌▓È_1
  5
422
 10
968.297
 20
-408.500
 30
0.000000
  70
    32
  0
VERTEX
  8
┌▓È_1
  5
423
 10
968.341
 20
-408.512
 30
0.000000
  70
    32
  0
VERTEX
  8
┌▓È_1
  5
424
 10
968.385
 20
-408.525
 30
0.000000
  70
    32
  0
VERTEX
  8
┌▓È_1
  5
425
 10
968.428
 20
-408.538
 30
0.000000
  70
    32
  0
VERTEX
  8
┌▓È_1
  5
426
 10
968.472
 20
-408.550
 30
0.000000
  70
    32
  0
VERTEX
  8
┌▓È_1
  5
427
 10
968.516
 20
-408.563
 30
0.000000
  70
    32
  0
VERTEX
  8
┌▓È_1
  5
428
 10
968.559
 20
-408.575
 30
0.000000
  70
    32
  0
VERTEX
  8
┌▓È_1
  5
429
 10
968.603
 20
-408.588
 30
0.000000
  70
    32
  0
VERTEX
  8
┌▓È_1
  5
42A
 10
968.647
 20
-408.600
 30
0.000000
  70
    32
  0
VERTEX
  8
┌▓È_1
  5
42B
 10
968.691
 20
-408.613
 30
0.000000
  70
    32
  0
VERTEX
  8
┌▓È_1
  5
42C
 10
968.735
 20
-408.625
 30
0.000000
  70
    32
  0
VERTEX
  8
┌▓È_1
  5
42D
 10
968.779
 20
-408.637
 30
0.000000
  70
    32
  0
VERTEX
  8
┌▓È_1
  5
42E
 10
968.823
 20
-408.649
 30
0.000000
  70
    32
  0
VERTEX
  8
┌▓È_1
  5
42F
 10
968.867
 20
-408.661
 30
0.000000
  70
    32
  0
VERTEX
  8
┌▓È_1
  5
430
 10
968.911
 20
-408.673
 30
0.000000
  70
    32
  0
VERTEX
  8
┌▓È_1
  5
431
 10
968.955
 20
-408.685
 30
0.000000
  70
    32
  0
VERTEX
  8
┌▓È_1
  5
432
 10
968.999
 20
-408.697
 30
0.000000
  70
    32
  0
VERTEX
  8
┌▓È_1
  5
433
 10
969.043
 20
-408.709
 30
0.000000
  70
    32
  0
VERTEX
  8
┌▓È_1
  5
434
 10
969.087
 20
-408.721
 30
0.000000
  70
    32
  0
VERTEX
  8
┌▓È_1
  5
435
 10
969.131
 20
-408.733
 30
0.000000
  70
    32
  0
VERTEX
  8
┌▓È_1
  5
436
 10
969.175
 20
-408.744
 30
0.000000
  70
    32
  0
VERTEX
  8
┌▓È_1
  5
437
 10
969.219
 20
-408.756
 30
0.000000
  70
    32
  0
VERTEX
  8
┌▓È_1
  5
438
 10
969.263
 20
-408.768
 30
0.000000
  70
    32
  0
VERTEX
  8
┌▓È_1
  5
439
 10
969.308
 20
-408.779
 30
0.000000
  70
    32
  0
VERTEX
  8
┌▓È_1
  5
43A
 10
969.352
 20
-408.791
 30
0.000000
  70
    32
  0
VERTEX
  8
┌▓È_1
  5
43B
 10
969.396
 20
-408.802
 30
0.000000
  70
    32
  0
VERTEX
  8
┌▓È_1
  5
43C
 10
969.440
 20
-408.814
 30
0.000000
  70
    32
  0
VERTEX
  8
┌▓È_1
  5
43D
 10
969.485
 20
-408.825
 30
0.000000
  70
    32
  0
VERTEX
  8
┌▓È_1
  5
43E
 10
969.529
 20
-408.837
 30
0.000000
  70
    32
  0
VERTEX
  8
┌▓È_1
  5
43F
 10
969.574
 20
-408.848
 30
0.000000
  70
    32
  0
VERTEX
  8
┌▓È_1
  5
440
 10
969.618
 20
-408.859
 30
0.000000
  70
    32
  0
VERTEX
  8
┌▓È_1
  5
441
 10
969.662
 20
-408.870
 30
0.000000
  70
    32
  0
VERTEX
  8
┌▓È_1
  5
442
 10
969.707
 20
-408.882
 30
0.000000
  70
    32
  0
VERTEX
  8
┌▓È_1
  5
443
 10
969.751
 20
-408.893
 30
0.000000
  70
    32
  0
VERTEX
  8
┌▓È_1
  5
444
 10
969.796
 20
-408.904
 30
0.000000
  70
    32
  0
VERTEX
  8
┌▓È_1
  5
445
 10
969.840
 20
-408.915
 30
0.000000
  70
    32
  0
VERTEX
  8
┌▓È_1
  5
446
 10
969.885
 20
-408.926
 30
0.000000
  70
    32
  0
VERTEX
  8
┌▓È_1
  5
447
 10
969.929
 20
-408.937
 30
0.000000
  70
    32
  0
VERTEX
  8
┌▓È_1
  5
448
 10
969.974
 20
-408.948
 30
0.000000
  70
    32
  0
VERTEX
  8
┌▓È_1
  5
449
 10
970.019
 20
-408.959
 30
0.000000
  70
    32
  0
VERTEX
  8
┌▓È_1
  5
44A
 10
970.063
 20
-408.969
 30
0.000000
  70
    32
  0
VERTEX
  8
┌▓È_1
  5
44B
 10
970.108
 20
-408.980
 30
0.000000
  70
    32
  0
VERTEX
  8
┌▓È_1
  5
44C
 10
970.153
 20
-408.991
 30
0.000000
  70
    32
  0
VERTEX
  8
┌▓È_1
  5
44D
 10
970.197
 20
-409.002
 30
0.000000
  70
    32
  0
VERTEX
  8
┌▓È_1
  5
44E
 10
970.242
 20
-409.012
 30
0.000000
  70
    32
  0
VERTEX
  8
┌▓È_1
  5
44F
 10
970.287
 20
-409.023
 30
0.000000
  70
    32
  0
VERTEX
  8
┌▓È_1
  5
450
 10
970.331
 20
-409.034
 30
0.000000
  70
    32
  0
VERTEX
  8
┌▓È_1
  5
451
 10
970.376
 20
-409.044
 30
0.000000
  70
    32
  0
VERTEX
  8
┌▓È_1
  5
452
 10
970.421
 20
-409.055
 30
0.000000
  70
    32
  0
VERTEX
  8
┌▓È_1
  5
453
 10
970.466
 20
-409.065
 30
0.000000
  70
    32
  0
VERTEX
  8
┌▓È_1
  5
454
 10
970.511
 20
-409.076
 30
0.000000
  70
    32
  0
VERTEX
  8
┌▓È_1
  5
455
 10
970.556
 20
-409.086
 30
0.000000
  70
    32
  0
VERTEX
  8
┌▓È_1
  5
456
 10
970.600
 20
-409.097
 30
0.000000
  70
    32
  0
VERTEX
  8
┌▓È_1
  5
457
 10
970.645
 20
-409.107
 30
0.000000
  70
    32
  0
VERTEX
  8
┌▓È_1
  5
458
 10
970.690
 20
-409.118
 30
0.000000
  70
    32
  0
VERTEX
  8
┌▓È_1
  5
459
 10
970.735
 20
-409.128
 30
0.000000
  70
    32
  0
VERTEX
  8
┌▓È_1
  5
45A
 10
970.780
 20
-409.138
 30
0.000000
  70
    32
  0
VERTEX
  8
┌▓È_1
  5
45B
 10
970.825
 20
-409.148
 30
0.000000
  70
    32
  0
VERTEX
  8
┌▓È_1
  5
45C
 10
970.870
 20
-409.159
 30
0.000000
  70
    32
  0
VERTEX
  8
┌▓È_1
  5
45D
 10
970.915
 20
-409.169
 30
0.000000
  70
    32
  0
VERTEX
  8
┌▓È_1
  5
45E
 10
970.960
 20
-409.179
 30
0.000000
  70
    32
  0
VERTEX
  8
┌▓È_1
  5
45F
 10
971.005
 20
-409.189
 30
0.000000
  70
    32
  0
VERTEX
  8
┌▓È_1
  5
460
 10
971.050
 20
-409.199
 30
0.000000
  70
    32
  0
VERTEX
  8
┌▓È_1
  5
461
 10
971.095
 20
-409.209
 30
0.000000
  70
    32
  0
VERTEX
  8
┌▓È_1
  5
462
 10
971.140
 20
-409.219
 30
0.000000
  70
    32
  0
VERTEX
  8
┌▓È_1
  5
463
 10
971.185
 20
-409.230
 30
0.000000
  70
    32
  0
VERTEX
  8
┌▓È_1
  5
464
 10
971.230
 20
-409.240
 30
0.000000
  70
    32
  0
VERTEX
  8
┌▓È_1
  5
465
 10
971.275
 20
-409.250
 30
0.000000
  70
    32
  0
VERTEX
  8
┌▓È_1
  5
466
 10
971.320
 20
-409.260
 30
0.000000
  70
    32
  0
VERTEX
  8
┌▓È_1
  5
467
 10
971.365
 20
-409.269
 30
0.000000
  70
    32
  0
VERTEX
  8
┌▓È_1
  5
468
 10
971.411
 20
-409.279
 30
0.000000
  70
    32
  0
VERTEX
  8
┌▓È_1
  5
469
 10
971.456
 20
-409.289
 30
0.000000
  70
    32
  0
VERTEX
  8
┌▓È_1
  5
46A
 10
971.501
 20
-409.299
 30
0.000000
  70
    32
  0
VERTEX
  8
┌▓È_1
  5
46B
 10
971.546
 20
-409.309
 30
0.000000
  70
    32
  0
VERTEX
  8
┌▓È_1
  5
46C
 10
971.591
 20
-409.319
 30
0.000000
  70
    32
  0
VERTEX
  8
┌▓È_1
  5
46D
 10
971.636
 20
-409.329
 30
0.000000
  70
    32
  0
VERTEX
  8
┌▓È_1
  5
46E
 10
971.682
 20
-409.338
 30
0.000000
  70
    32
  0
VERTEX
  8
┌▓È_1
  5
46F
 10
971.727
 20
-409.348
 30
0.000000
  70
    32
  0
VERTEX
  8
┌▓È_1
  5
470
 10
971.772
 20
-409.358
 30
0.000000
  70
    32
  0
VERTEX
  8
┌▓È_1
  5
471
 10
971.817
 20
-409.368
 30
0.000000
  70
    32
  0
VERTEX
  8
┌▓È_1
  5
472
 10
971.863
 20
-409.377
 30
0.000000
  70
    32
  0
VERTEX
  8
┌▓È_1
  5
473
 10
971.908
 20
-409.387
 30
0.000000
  70
    32
  0
VERTEX
  8
┌▓È_1
  5
474
 10
971.953
 20
-409.397
 30
0.000000
  70
    32
  0
VERTEX
  8
┌▓È_1
  5
475
 10
971.998
 20
-409.407
 30
0.000000
  70
    32
  0
VERTEX
  8
┌▓È_1
  5
476
 10
972.044
 20
-409.416
 30
0.000000
  70
    32
  0
VERTEX
  8
┌▓È_1
  5
477
 10
972.089
 20
-409.426
 30
0.000000
  70
    32
  0
VERTEX
  8
┌▓È_1
  5
478
 10
972.134
 20
-409.435
 30
0.000000
  70
    32
  0
VERTEX
  8
┌▓È_1
  5
479
 10
972.180
 20
-409.445
 30
0.000000
  70
    32
  0
VERTEX
  8
┌▓È_1
  5
47A
 10
972.225
 20
-409.455
 30
0.000000
  70
    32
  0
VERTEX
  8
┌▓È_1
  5
47B
 10
972.270
 20
-409.464
 30
0.000000
  70
    32
  0
VERTEX
  8
┌▓È_1
  5
47C
 10
972.315
 20
-409.474
 30
0.000000
  70
    32
  0
VERTEX
  8
┌▓È_1
  5
47D
 10
972.361
 20
-409.483
 30
0.000000
  70
    32
  0
VERTEX
  8
┌▓È_1
  5
47E
 10
972.406
 20
-409.493
 30
0.000000
  70
    32
  0
VERTEX
  8
┌▓È_1
  5
47F
 10
972.451
 20
-409.502
 30
0.000000
  70
    32
  0
VERTEX
  8
┌▓È_1
  5
480
 10
972.497
 20
-409.512
 30
0.000000
  70
    32
  0
VERTEX
  8
┌▓È_1
  5
481
 10
972.542
 20
-409.521
 30
0.000000
  70
    32
  0
VERTEX
  8
┌▓È_1
  5
482
 10
972.587
 20
-409.531
 30
0.000000
  70
    32
  0
VERTEX
  8
┌▓È_1
  5
483
 10
972.633
 20
-409.541
 30
0.000000
  70
    32
  0
VERTEX
  8
┌▓È_1
  5
484
 10
972.678
 20
-409.550
 30
0.000000
  70
    32
  0
VERTEX
  8
┌▓È_1
  5
485
 10
972.724
 20
-409.559
 30
0.000000
  70
    32
  0
VERTEX
  8
┌▓È_1
  5
486
 10
972.769
 20
-409.569
 30
0.000000
  70
    32
  0
VERTEX
  8
┌▓È_1
  5
487
 10
972.814
 20
-409.578
 30
0.000000
  70
    32
  0
VERTEX
  8
┌▓È_1
  5
488
 10
972.860
 20
-409.588
 30
0.000000
  70
    32
  0
VERTEX
  8
┌▓È_1
  5
489
 10
972.905
 20
-409.597
 30
0.000000
  70
    32
  0
VERTEX
  8
┌▓È_1
  5
48A
 10
972.950
 20
-409.607
 30
0.000000
  70
    32
  0
VERTEX
  8
┌▓È_1
  5
48B
 10
972.996
 20
-409.616
 30
0.000000
  70
    32
  0
VERTEX
  8
┌▓È_1
  5
48C
 10
973.041
 20
-409.626
 30
0.000000
  70
    32
  0
VERTEX
  8
┌▓È_1
  5
48D
 10
973.087
 20
-409.635
 30
0.000000
  70
    32
  0
VERTEX
  8
┌▓È_1
  5
48E
 10
973.132
 20
-409.645
 30
0.000000
  70
    32
  0
VERTEX
  8
┌▓È_1
  5
48F
 10
973.177
 20
-409.654
 30
0.000000
  70
    32
  0
VERTEX
  8
┌▓È_1
  5
490
 10
973.223
 20
-409.663
 30
0.000000
  70
    32
  0
VERTEX
  8
┌▓È_1
  5
491
 10
973.268
 20
-409.673
 30
0.000000
  70
    32
  0
VERTEX
  8
┌▓È_1
  5
492
 10
973.314
 20
-409.682
 30
0.000000
  70
    32
  0
SEQEND
  8
┌▓È_1
  5
493
  0
POLYLINE
  8
┌▓È_1
  5
494
  62
5
  66
     1
 10
0.000000
 20
0.000000
 30
0.000000
  70
     8
  0
VERTEX
  8
┌▓È_1
  5
495
 10
964.409
 20
-403.103
 30
0.000000
  70
    32
  0
VERTEX
  8
┌▓È_1
  5
496
 10
964.419
 20
-403.115
 30
0.000000
  70
    32
  0
VERTEX
  8
┌▓È_1
  5
497
 10
964.430
 20
-403.126
 30
0.000000
  70
    32
  0
VERTEX
  8
┌▓È_1
  5
498
 10
964.440
 20
-403.138
 30
0.000000
  70
    32
  0
VERTEX
  8
┌▓È_1
  5
499
 10
964.451
 20
-403.150
 30
0.000000
  70
    32
  0
VERTEX
  8
┌▓È_1
  5
49A
 10
964.461
 20
-403.162
 30
0.000000
  70
    32
  0
VERTEX
  8
┌▓È_1
  5
49B
 10
964.472
 20
-403.173
 30
0.000000
  70
    32
  0
VERTEX
  8
┌▓È_1
  5
49C
 10
964.482
 20
-403.185
 30
0.000000
  70
    32
  0
VERTEX
  8
┌▓È_1
  5
49D
 10
964.493
 20
-403.197
 30
0.000000
  70
    32
  0
VERTEX
  8
┌▓È_1
  5
49E
 10
964.504
 20
-403.209
 30
0.000000
  70
    32
  0
VERTEX
  8
┌▓È_1
  5
49F
 10
964.514
 20
-403.221
 30
0.000000
  70
    32
  0
VERTEX
  8
┌▓È_1
  5
4A0
 10
964.525
 20
-403.232
 30
0.000000
  70
    32
  0
VERTEX
  8
┌▓È_1
  5
4A1
 10
964.535
 20
-403.244
 30
0.000000
  70
    32
  0
VERTEX
  8
┌▓È_1
  5
4A2
 10
964.546
 20
-403.256
 30
0.000000
  70
    32
  0
VERTEX
  8
┌▓È_1
  5
4A3
 10
964.556
 20
-403.268
 30
0.000000
  70
    32
  0
VERTEX
  8
┌▓È_1
  5
4A4
 10
964.567
 20
-403.279
 30
0.000000
  70
    32
  0
VERTEX
  8
┌▓È_1
  5
4A5
 10
964.578
 20
-403.291
 30
0.000000
  70
    32
  0
VERTEX
  8
┌▓È_1
  5
4A6
 10
964.588
 20
-403.303
 30
0.000000
  70
    32
  0
VERTEX
  8
┌▓È_1
  5
4A7
 10
964.599
 20
-403.315
 30
0.000000
  70
    32
  0
VERTEX
  8
┌▓È_1
  5
4A8
 10
964.609
 20
-403.326
 30
0.000000
  70
    32
  0
VERTEX
  8
┌▓È_1
  5
4A9
 10
964.620
 20
-403.338
 30
0.000000
  70
    32
  0
VERTEX
  8
┌▓È_1
  5
4AA
 10
964.630
 20
-403.350
 30
0.000000
  70
    32
  0
VERTEX
  8
┌▓È_1
  5
4AB
 10
964.641
 20
-403.362
 30
0.000000
  70
    32
  0
VERTEX
  8
┌▓È_1
  5
4AC
 10
964.652
 20
-403.373
 30
0.000000
  70
    32
  0
VERTEX
  8
┌▓È_1
  5
4AD
 10
964.662
 20
-403.385
 30
0.000000
  70
    32
  0
VERTEX
  8
┌▓È_1
  5
4AE
 10
964.673
 20
-403.397
 30
0.000000
  70
    32
  0
VERTEX
  8
┌▓È_1
  5
4AF
 10
964.683
 20
-403.408
 30
0.000000
  70
    32
  0
VERTEX
  8
┌▓È_1
  5
4B0
 10
964.694
 20
-403.420
 30
0.000000
  70
    32
  0
VERTEX
  8
┌▓È_1
  5
4B1
 10
964.705
 20
-403.432
 30
0.000000
  70
    32
  0
VERTEX
  8
┌▓È_1
  5
4B2
 10
964.715
 20
-403.444
 30
0.000000
  70
    32
  0
VERTEX
  8
┌▓È_1
  5
4B3
 10
964.726
 20
-403.455
 30
0.000000
  70
    32
  0
VERTEX
  8
┌▓È_1
  5
4B4
 10
964.736
 20
-403.467
 30
0.000000
  70
    32
  0
VERTEX
  8
┌▓È_1
  5
4B5
 10
964.747
 20
-403.479
 30
0.000000
  70
    32
  0
VERTEX
  8
┌▓È_1
  5
4B6
 10
964.758
 20
-403.490
 30
0.000000
  70
    32
  0
VERTEX
  8
┌▓È_1
  5
4B7
 10
964.768
 20
-403.502
 30
0.000000
  70
    32
  0
VERTEX
  8
┌▓È_1
  5
4B8
 10
964.779
 20
-403.514
 30
0.000000
  70
    32
  0
VERTEX
  8
┌▓È_1
  5
4B9
 10
964.789
 20
-403.525
 30
0.000000
  70
    32
  0
VERTEX
  8
┌▓È_1
  5
4BA
 10
964.800
 20
-403.537
 30
0.000000
  70
    32
  0
VERTEX
  8
┌▓È_1
  5
4BB
 10
964.811
 20
-403.549
 30
0.000000
  70
    32
  0
VERTEX
  8
┌▓È_1
  5
4BC
 10
964.821
 20
-403.560
 30
0.000000
  70
    32
  0
VERTEX
  8
┌▓È_1
  5
4BD
 10
964.832
 20
-403.572
 30
0.000000
  70
    32
  0
VERTEX
  8
┌▓È_1
  5
4BE
 10
964.843
 20
-403.584
 30
0.000000
  70
    32
  0
VERTEX
  8
┌▓È_1
  5
4BF
 10
964.853
 20
-403.595
 30
0.000000
  70
    32
  0
VERTEX
  8
┌▓È_1
  5
4C0
 10
964.864
 20
-403.607
 30
0.000000
  70
    32
  0
VERTEX
  8
┌▓È_1
  5
4C1
 10
964.875
 20
-403.618
 30
0.000000
  70
    32
  0
VERTEX
  8
┌▓È_1
  5
4C2
 10
964.885
 20
-403.630
 30
0.000000
  70
    32
  0
VERTEX
  8
┌▓È_1
  5
4C3
 10
964.896
 20
-403.642
 30
0.000000
  70
    32
  0
VERTEX
  8
┌▓È_1
  5
4C4
 10
964.907
 20
-403.653
 30
0.000000
  70
    32
  0
VERTEX
  8
┌▓È_1
  5
4C5
 10
964.917
 20
-403.665
 30
0.000000
  70
    32
  0
VERTEX
  8
┌▓È_1
  5
4C6
 10
964.928
 20
-403.676
 30
0.000000
  70
    32
  0
VERTEX
  8
┌▓È_1
  5
4C7
 10
964.939
 20
-403.688
 30
0.000000
  70
    32
  0
VERTEX
  8
┌▓È_1
  5
4C8
 10
964.949
 20
-403.699
 30
0.000000
  70
    32
  0
VERTEX
  8
┌▓È_1
  5
4C9
 10
964.960
 20
-403.711
 30
0.000000
  70
    32
  0
VERTEX
  8
┌▓È_1
  5
4CA
 10
964.971
 20
-403.722
 30
0.000000
  70
    32
  0
VERTEX
  8
┌▓È_1
  5
4CB
 10
964.982
 20
-403.734
 30
0.000000
  70
    32
  0
VERTEX
  8
┌▓È_1
  5
4CC
 10
964.992
 20
-403.745
 30
0.000000
  70
    32
  0
VERTEX
  8
┌▓È_1
  5
4CD
 10
965.003
 20
-403.757
 30
0.000000
  70
    32
  0
VERTEX
  8
┌▓È_1
  5
4CE
 10
965.014
 20
-403.768
 30
0.000000
  70
    32
  0
VERTEX
  8
┌▓È_1
  5
4CF
 10
965.024
 20
-403.780
 30
0.000000
  70
    32
  0
VERTEX
  8
┌▓È_1
  5
4D0
 10
965.035
 20
-403.791
 30
0.000000
  70
    32
  0
VERTEX
  8
┌▓È_1
  5
4D1
 10
965.046
 20
-403.803
 30
0.000000
  70
    32
  0
VERTEX
  8
┌▓È_1
  5
4D2
 10
965.057
 20
-403.814
 30
0.000000
  70
    32
  0
VERTEX
  8
┌▓È_1
  5
4D3
 10
965.068
 20
-403.826
 30
0.000000
  70
    32
  0
VERTEX
  8
┌▓È_1
  5
4D4
 10
965.078
 20
-403.837
 30
0.000000
  70
    32
  0
VERTEX
  8
┌▓È_1
  5
4D5
 10
965.089
 20
-403.849
 30
0.000000
  70
    32
  0
VERTEX
  8
┌▓È_1
  5
4D6
 10
965.100
 20
-403.860
 30
0.000000
  70
    32
  0
VERTEX
  8
┌▓È_1
  5
4D7
 10
965.111
 20
-403.871
 30
0.000000
  70
    32
  0
VERTEX
  8
┌▓È_1
  5
4D8
 10
965.121
 20
-403.883
 30
0.000000
  70
    32
  0
VERTEX
  8
┌▓È_1
  5
4D9
 10
965.132
 20
-403.894
 30
0.000000
  70
    32
  0
VERTEX
  8
┌▓È_1
  5
4DA
 10
965.143
 20
-403.906
 30
0.000000
  70
    32
  0
VERTEX
  8
┌▓È_1
  5
4DB
 10
965.154
 20
-403.917
 30
0.000000
  70
    32
  0
VERTEX
  8
┌▓È_1
  5
4DC
 10
965.165
 20
-403.928
 30
0.000000
  70
    32
  0
VERTEX
  8
┌▓È_1
  5
4DD
 10
965.176
 20
-403.940
 30
0.000000
  70
    32
  0
VERTEX
  8
┌▓È_1
  5
4DE
 10
965.186
 20
-403.951
 30
0.000000
  70
    32
  0
VERTEX
  8
┌▓È_1
  5
4DF
 10
965.197
 20
-403.962
 30
0.000000
  70
    32
  0
VERTEX
  8
┌▓È_1
  5
4E0
 10
965.208
 20
-403.973
 30
0.000000
  70
    32
  0
VERTEX
  8
┌▓È_1
  5
4E1
 10
965.219
 20
-403.985
 30
0.000000
  70
    32
  0
VERTEX
  8
┌▓È_1
  5
4E2
 10
965.230
 20
-403.996
 30
0.000000
  70
    32
  0
VERTEX
  8
┌▓È_1
  5
4E3
 10
965.241
 20
-404.007
 30
0.000000
  70
    32
  0
VERTEX
  8
┌▓È_1
  5
4E4
 10
965.252
 20
-404.018
 30
0.000000
  70
    32
  0
VERTEX
  8
┌▓È_1
  5
4E5
 10
965.263
 20
-404.030
 30
0.000000
  70
    32
  0
VERTEX
  8
┌▓È_1
  5
4E6
 10
965.273
 20
-404.041
 30
0.000000
  70
    32
  0
VERTEX
  8
┌▓È_1
  5
4E7
 10
965.284
 20
-404.052
 30
0.000000
  70
    32
  0
VERTEX
  8
┌▓È_1
  5
4E8
 10
965.295
 20
-404.063
 30
0.000000
  70
    32
  0
VERTEX
  8
┌▓È_1
  5
4E9
 10
965.306
 20
-404.074
 30
0.000000
  70
    32
  0
VERTEX
  8
┌▓È_1
  5
4EA
 10
965.317
 20
-404.086
 30
0.000000
  70
    32
  0
VERTEX
  8
┌▓È_1
  5
4EB
 10
965.328
 20
-404.097
 30
0.000000
  70
    32
  0
VERTEX
  8
┌▓È_1
  5
4EC
 10
965.339
 20
-404.108
 30
0.000000
  70
    32
  0
VERTEX
  8
┌▓È_1
  5
4ED
 10
965.350
 20
-404.119
 30
0.000000
  70
    32
  0
VERTEX
  8
┌▓È_1
  5
4EE
 10
965.361
 20
-404.130
 30
0.000000
  70
    32
  0
VERTEX
  8
┌▓È_1
  5
4EF
 10
965.372
 20
-404.141
 30
0.000000
  70
    32
  0
VERTEX
  8
┌▓È_1
  5
4F0
 10
965.383
 20
-404.152
 30
0.000000
  70
    32
  0
VERTEX
  8
┌▓È_1
  5
4F1
 10
965.394
 20
-404.163
 30
0.000000
  70
    32
  0
VERTEX
  8
┌▓È_1
  5
4F2
 10
965.405
 20
-404.174
 30
0.000000
  70
    32
  0
VERTEX
  8
┌▓È_1
  5
4F3
 10
965.416
 20
-404.185
 30
0.000000
  70
    32
  0
VERTEX
  8
┌▓È_1
  5
4F4
 10
965.427
 20
-404.196
 30
0.000000
  70
    32
  0
VERTEX
  8
┌▓È_1
  5
4F5
 10
965.438
 20
-404.207
 30
0.000000
  70
    32
  0
VERTEX
  8
┌▓È_1
  5
4F6
 10
965.449
 20
-404.218
 30
0.000000
  70
    32
  0
VERTEX
  8
┌▓È_1
  5
4F7
 10
965.460
 20
-404.229
 30
0.000000
  70
    32
  0
VERTEX
  8
┌▓È_1
  5
4F8
 10
965.472
 20
-404.240
 30
0.000000
  70
    32
  0
VERTEX
  8
┌▓È_1
  5
4F9
 10
965.483
 20
-404.251
 30
0.000000
  70
    32
  0
VERTEX
  8
┌▓È_1
  5
4FA
 10
965.494
 20
-404.262
 30
0.000000
  70
    32
  0
VERTEX
  8
┌▓È_1
  5
4FB
 10
965.505
 20
-404.273
 30
0.000000
  70
    32
  0
VERTEX
  8
┌▓È_1
  5
4FC
 10
965.516
 20
-404.283
 30
0.000000
  70
    32
  0
VERTEX
  8
┌▓È_1
  5
4FD
 10
965.527
 20
-404.294
 30
0.000000
  70
    32
  0
VERTEX
  8
┌▓È_1
  5
4FE
 10
965.538
 20
-404.305
 30
0.000000
  70
    32
  0
VERTEX
  8
┌▓È_1
  5
4FF
 10
965.549
 20
-404.316
 30
0.000000
  70
    32
  0
VERTEX
  8
┌▓È_1
  5
500
 10
965.561
 20
-404.327
 30
0.000000
  70
    32
  0
VERTEX
  8
┌▓È_1
  5
501
 10
965.572
 20
-404.337
 30
0.000000
  70
    32
  0
VERTEX
  8
┌▓È_1
  5
502
 10
965.583
 20
-404.348
 30
0.000000
  70
    32
  0
VERTEX
  8
┌▓È_1
  5
503
 10
965.594
 20
-404.359
 30
0.000000
  70
    32
  0
VERTEX
  8
┌▓È_1
  5
504
 10
965.605
 20
-404.370
 30
0.000000
  70
    32
  0
VERTEX
  8
┌▓È_1
  5
505
 10
965.617
 20
-404.380
 30
0.000000
  70
    32
  0
VERTEX
  8
┌▓È_1
  5
506
 10
965.628
 20
-404.391
 30
0.000000
  70
    32
  0
VERTEX
  8
┌▓È_1
  5
507
 10
965.639
 20
-404.402
 30
0.000000
  70
    32
  0
VERTEX
  8
┌▓È_1
  5
508
 10
965.650
 20
-404.412
 30
0.000000
  70
    32
  0
VERTEX
  8
┌▓È_1
  5
509
 10
965.662
 20
-404.423
 30
0.000000
  70
    32
  0
VERTEX
  8
┌▓È_1
  5
50A
 10
965.673
 20
-404.433
 30
0.000000
  70
    32
  0
VERTEX
  8
┌▓È_1
  5
50B
 10
965.684
 20
-404.444
 30
0.000000
  70
    32
  0
VERTEX
  8
┌▓È_1
  5
50C
 10
965.696
 20
-404.455
 30
0.000000
  70
    32
  0
VERTEX
  8
┌▓È_1
  5
50D
 10
965.707
 20
-404.465
 30
0.000000
  70
    32
  0
VERTEX
  8
┌▓È_1
  5
50E
 10
965.718
 20
-404.476
 30
0.000000
  70
    32
  0
VERTEX
  8
┌▓È_1
  5
50F
 10
965.730
 20
-404.486
 30
0.000000
  70
    32
  0
VERTEX
  8
┌▓È_1
  5
510
 10
965.741
 20
-404.496
 30
0.000000
  70
    32
  0
VERTEX
  8
┌▓È_1
  5
511
 10
965.753
 20
-404.507
 30
0.000000
  70
    32
  0
VERTEX
  8
┌▓È_1
  5
512
 10
965.764
 20
-404.517
 30
0.000000
  70
    32
  0
VERTEX
  8
┌▓È_1
  5
513
 10
965.775
 20
-404.528
 30
0.000000
  70
    32
  0
VERTEX
  8
┌▓È_1
  5
514
 10
965.787
 20
-404.538
 30
0.000000
  70
    32
  0
SEQEND
  8
┌▓È_1
  5
515
  0
LINE
  5
1E8
  8
┌▓È_1
 62
     5
 10
973.31361384419995
 20
-407.2823624818999
 30
0.0
 11
973.31361384419995
 21
-409.68236248189999
 31
0.0
  0
LINE
  5
1E9
  8
┌▓È_1
 10
968.66224141529995
 20
-370.238639229
 30
0.0
 11
1000.6622414152999
 21
-370.238639229
 31
0.0
  0
LINE
  5
1EA
  8
┌▓È_1
 10
872.66224141529983
 20
-378.738639229
 30
0.0
 11
968.66224141529995
 21
-378.738639229
 31
0.0
  0
INSERT
  5
1EB
  8
0
  6
CONTINUOUS
  2
*U35
 10
0.0
 20
0.0
 30
0.0
  0
INSERT
  5
1EC
  8
0
  6
CONTINUOUS
  2
*U36
 10
0.0
 20
0.0
 30
0.0
  0
INSERT
  5
1ED
  8
0
  6
CONTINUOUS
  2
*U37
 10
0.0
 20
0.0
 30
0.0
  0
INSERT
  5
1EE
  8
0
  6
CONTINUOUS
  2
*U38
 10
0.0
 20
0.0
 30
0.0
  0
INSERT
  5
1EF
  8
0
  6
CONTINUOUS
  2
*U39
 10
0.0
 20
0.0
 30
0.0
  0
ARC
  5
1F0
  8
┌▓È_1
 62
     5
 10
960.83361384419982
 20
-401.20236248190002
 30
0.0
 40
6.0800000000000001
 50
270.0
 51
298.08590481520002
  0
INSERT
  5
1F1
  8
0
  6
CONTINUOUS
  2
*U40
 10
0.0
 20
0.0
 30
0.0
  0
INSERT
  5
1F2
  8
0
  6
CONTINUOUS
  2
*U41
 10
0.0
 20
0.0
 30
0.0
  0
INSERT
  5
1F3
  8
0
  6
CONTINUOUS
  2
*U42
 10
0.0
 20
0.0
 30
0.0
  0
INSERT
  5
1F4
  8
0
  6
CONTINUOUS
  2
*U43
 10
0.0
 20
0.0
 30
0.0
  0
INSERT
  5
1F5
  8
0
  6
CONTINUOUS
  2
*U44
 10
0.0
 20
0.0
 30
0.0
  0
INSERT
  5
1F6
  8
0
  6
CONTINUOUS
  2
*U45
 10
0.0
 20
0.0
 30
0.0
  0
INSERT
  5
1F7
  8
0
  6
CONTINUOUS
  2
*U46
 10
0.0
 20
0.0
 30
0.0
  0
INSERT
  5
1F8
  8
0
  6
CONTINUOUS
  2
*U47
 10
0.0
 20
0.0
 30
0.0
  0
INSERT
  5
1F9
  8
0
  6
CONTINUOUS
  2
*U48
 10
0.0
 20
0.0
 30
0.0
  0
LINE
  5
1FA
  8
┌▓È_1
 10
940.66224141529995
 20
-387.238639229
 30
0.0
 11
964.66224141529983
 21
-387.238639229
 31
0.0
  0
LINE
  5
1FB
  8
┌▓È_1
 10
940.66224141529995
 20
-370.238639229
 30
0.0
 11
964.66224141529983
 21
-370.238639229
 31
0.0
  0
LINE
  5
1FC
  8
┌▓È_1
  6
STITCH
 10
729.56071411810001
 20
-201.11818610399999
 30
0.0
 11
727.81071411810001
 21
-202.86818610399999
 31
0.0
  0
LINE
  5
1FD
  8
┌▓È_1
  6
STITCH
 10
729.56071411810001
 20
-200.11818610399999
 30
0.0
 11
727.81071411810001
 21
-198.36818610399999
 31
0.0
  0
LINE
  5
1FE
  8
┌▓È_1
  6
STITCH
 10
729.56071411810001
 20
-200.11818610399999
 30
0.0
 11
729.56071411810001
 21
-201.11818610399999
 31
0.0
  0
LINE
  5
1FF
  8
┌▓È_1
  6
STITCH
 10
734.56071411810001
 20
-201.11818610399999
 30
0.0
 11
734.56071411810001
 21
-200.11818610399999
 31
0.0
  0
LINE
  5
200
  8
┌▓È_1
  6
STITCH
 10
734.56071411810001
 20
-200.11818610399999
 30
0.0
 11
729.56071411810001
 21
-200.11818610399999
 31
0.0
  0
LINE
  5
201
  8
┌▓È_1
  6
STITCH
 10
729.56071411810001
 20
-201.11818610399999
 30
0.0
 11
734.56071411810001
 21
-201.11818610399999
 31
0.0
  0
LINE
  5
202
  8
┌▓È_1
  6
STITCH
 10
671.81071411810001
 20
-142.36818610399999
 30
0.0
 11
673.56071411810001
 21
-144.11818610399999
 31
0.0
  0
LINE
  5
203
  8
┌▓È_1
  6
STITCH
 10
670.81071411810001
 20
-142.36818610399999
 30
0.0
 11
669.06071411810001
 21
-144.11818610399999
 31
0.0
  0
LINE
  5
204
  8
┌▓È_1
  6
STITCH
 10
670.81071411810001
 20
-137.36818610399999
 30
0.0
 11
669.06071411810001
 21
-135.61818610399999
 31
0.0
  0
LINE
  5
205
  8
┌▓È_1
 62
     5
 10
729.0607141180999
 20
-198.36818610399999
 30
0.0
 11
744.06071411810001
 21
-198.36818610399999
 31
0.0
  0
LINE
  5
206
  8
┌▓È_1
 62
     5
 10
673.56071411810001
 20
-142.86818610399999
 30
0.0
 11
673.56071411810001
 21
-127.868186104
 31
0.0
  0
LINE
  5
207
  8
┌▓È_1
 62
     5
 10
669.06071411810001
 20
-142.86818610399999
 30
0.0
 11
669.06071411810001
 21
-127.868186104
 31
0.0
  0
LINE
  5
208
  8
┌▓È_1
 62
     5
 10
673.56071411810001
 20
-198.36818610399999
 30
0.0
 11
673.56071411810001
 21
-142.86818610399999
 31
0.0
  0
LINE
  5
209
  8
┌▓È_1
 62
     5
 10
669.06071411810001
 20
-198.36818610399999
 30
0.0
 11
669.06071411810001
 21
-142.86818610399999
 31
0.0
  0
LINE
  5
20A
  8
┌▓È_1
 62
     5
 10
673.56071411810001
 20
-202.86818610399999
 30
0.0
 11
729.0607141180999
 21
-202.86818610399999
 31
0.0
  0
LINE
  5
20B
  8
┌▓È_1
 62
     5
 10
673.56071411810001
 20
-198.36818610399999
 30
0.0
 11
729.0607141180999
 21
-198.36818610399999
 31
0.0
  0
LINE
  5
20C
  8
┌▓È_1
 62
     5
 10
744.06071411810001
 20
-202.86818610399999
 30
0.0
 11
744.06071411810001
 21
-198.36818610399999
 31
0.0
  0
LINE
  5
20D
  8
┌▓È_1
  6
BORDER
 62
     3
 10
679.38849189589985
 20
-139.86818610399999
 30
0.0
 11
662.01904745139996
 21
-139.86818610399999
 31
0.0
  0
LINE
  5
20E
  8
┌▓È_1
  6
BORDER
 62
     3
 10
732.06071411810001
 20
-192.54040832620001
 30
0.0
 11
732.06071411810001
 21
-209.9098527706
 31
0.0
  0
LINE
  5
20F
  8
┌▓È_1
 62
     5
 10
669.06071411810001
 20
-334.56253245810001
 30
0.0
 11
729.0607141180999
 21
-334.56253245810001
 31
0.0
  0
LINE
  5
210
  8
┌▓È_1
 62
     5
 10
729.0607141180999
 20
-302.56253245810001
 30
0.0
 11
669.06071411810001
 21
-302.56253245810001
 31
0.0
  0
LINE
  5
211
  8
┌▓È_1
 62
     5
 10
729.0607141180999
 20
-334.56253245810001
 30
0.0
 11
744.06071411810001
 21
-334.56253245810001
 31
0.0
  0
LINE
  5
212
  8
┌▓È_1
 62
     5
 10
729.0607141180999
 20
-302.56253245810001
 30
0.0
 11
744.06071411810001
 21
-302.56253245810001
 31
0.0
  0
LINE
  5
213
  8
┌▓È_1
 62
     5
 10
744.06071411810001
 20
-334.56253245810001
 30
0.0
 11
744.06071411810001
 21
-302.56253245810001
 31
0.0
  0
INSERT
  5
215
  8
┌▓È_1
  2
CLUMP1
 10
0.0
 20
0.0
 30
0.0
  0
LINE
  5
21C
  8
┌▓È_1
  6
STITCH
 10
671.81071411810001
 20
-180.36818610399999
 30
0.0
 11
673.56071411810001
 21
-178.61818610399999
 31
0.0
  0
LINE
  5
21D
  8
┌▓È_1
  6
STITCH
 10
686.56071411810001
 20
-201.11818610399999
 30
0.0
 11
691.5607141180999
 21
-201.11818610399999
 31
0.0
  0
LINE
  5
21E
  8
┌▓È_1
  6
STITCH
 10
691.5607141180999
 20
-201.11818610399999
 30
0.0
 11
691.5607141180999
 21
-200.11818610399999
 31
0.0
  0
ARC
  5
21F
  8
┌▓È_1
 62
     5
 10
673.56071411810001
 20
-198.36818610399999
 30
0.0
 40
4.5
 50
180.0
 51
270.0
  0
LINE
  5
220
  8
┌▓È_1
  6
BORDER
 62
     3
 10
679.38849189589985
 20
-182.86818610399999
 30
0.0
 11
662.01904745139996
 21
-182.86818610399999
 31
0.0
  0
LINE
  5
221
  8
┌▓È_1
  6
BORDER
 62
     3
 10
689.06071411810001
 20
-192.54040832620001
 30
0.0
 11
689.06071411810001
 21
-209.9098527706
 31
0.0
  0
LINE
  5
222
  8
┌▓È_1
 62
     5
 10
978.8256330936
 20
-174.0521157915
 30
0.0
 11
987.57563309359989
 21
-165.3021157915
 31
0.0
  0
LINE
  5
223
  8
┌▓È_1
 62
     5
 10
978.8256330936
 20
-174.0521157915
 30
0.0
 11
978.8256330936
 21
-179.0521157915
 31
0.0
  0
LINE
  5
224
  8
┌▓È_1
 62
     5
 10
953.8256330936
 20
-174.0521157915
 30
0.0
 11
953.8256330936
 21
-179.0521157915
 31
0.0
  0
LINE
  5
225
  8
┌▓È_1
 62
     5
 10
953.8256330936
 20
-179.0521157915
 30
0.0
 11
945.0756330936
 21
-187.8021157915
 31
0.0
  0
INSERT
  5
227
  8
┌▓È_1
  2
CLUMP2
 10
0.0
 20
0.0
 30
0.0
  0
LINE
  5
22E
  8
┌▓È_1
 62
     5
 10
855.0851346444
 20
-142.86818610399999
 30
0.0
 11
855.0851346444
 21
-127.868186104
 31
0.0
  0
LINE
  5
22F
  8
┌▓È_1
 62
     5
 10
855.0851346444
 20
-202.86818610399999
 30
0.0
 11
855.0851346444
 21
-142.86818610399999
 31
0.0
  0
LINE
  5
230
  8
┌▓È_1
 62
     5
 10
823.0851346444
 20
-142.86818610399999
 30
0.0
 11
823.0851346444
 21
-127.868186104
 31
0.0
  0
LINE
  5
231
  8
┌▓È_1
 62
     5
 10
823.0851346444
 20
-198.36818610399999
 30
0.0
 11
855.0851346444
 21
-198.36818610399999
 31
0.0
  0
LINE
  5
232
  8
┌▓È_1
 62
     5
 10
823.0851346444
 20
-202.86818610399999
 30
0.0
 11
855.0851346444
 21
-202.86818610399999
 31
0.0
  0
LINE
  5
233
  8
┌▓È_1
 62
     5
 10
855.0851346444
 20
-127.868186104
 30
0.0
 11
823.0851346444
 21
-127.868186104
 31
0.0
  0
LINE
  5
234
  8
┌▓È_1
 62
     5
 10
823.0851346444
 20
-142.86818610399999
 30
0.0
 11
823.0851346444
 21
-202.86818610399999
 31
0.0
  0
LINE
  5
235
  8
┌▓È_1
 62
     5
 10
978.8256330936
 20
-179.0521157915
 30
0.0
 11
987.57563309359989
 21
-187.8021157915
 31
0.0
  0
LINE
  5
236
  8
┌▓È_1
 62
     5
 10
953.8256330936
 20
-174.0521157915
 30
0.0
 11
978.8256330936
 21
-174.0521157915
 31
0.0
  0
LINE
  5
237
  8
┌▓È_1
 62
     5
 10
953.8256330936
 20
-179.0521157915
 30
0.0
 11
978.8256330936
 21
-179.0521157915
 31
0.0
  0
LINE
  5
238
  8
┌▓È_1
 62
     5
 10
930.39550346399994
 20
-187.8021157915
 30
0.0
 11
1003.3941145751
 21
-187.8021157915
 31
0.0
  0
LINE
  5
239
  8
┌▓È_1
 62
     5
 10
930.39550346399994
 20
-165.3021157915
 30
0.0
 11
1003.3941145751
 21
-165.3021157915
 31
0.0
  0
LINE
  5
23A
  8
┌▓È_1
  6
STITCH
 10
734.56071411810001
 20
-201.11818610399999
 30
0.0
 11
736.31071411810001
 21
-202.86818610399999
 31
0.0
  0
LINE
  5
23B
  8
┌▓È_1
  6
STITCH
 10
734.56071411810001
 20
-200.11818610399999
 30
0.0
 11
736.31071411810001
 21
-198.36818610399999
 31
0.0
  0
LINE
  5
23C
  8
┌▓È_1
 62
     5
 10
669.06071411810001
 20
-302.56253245810001
 30
0.0
 11
669.06071411810001
 21
-334.56253245810001
 31
0.0
  0
LINE
  5
23D
  8
┌▓È_1
  6
STITCH
 10
673.56071411810001
 20
-302.56253245810001
 30
0.0
 11
673.56071411810001
 21
-334.56253245810001
 31
0.0
  0
INSERT
  5
23F
  8
┌▓È_1
  2
CLUMP3
 10
0.0
 20
0.0
 30
0.0
  0
LINE
  5
246
  8
┌▓È_1
  6
STITCH
 10
691.5607141180999
 20
-201.11818610399999
 30
0.0
 11
693.3107141180999
 21
-202.86818610399999
 31
0.0
  0
LINE
  5
247
  8
┌▓È_1
  6
STITCH
 10
691.5607141180999
 20
-200.11818610399999
 30
0.0
 11
693.3107141180999
 21
-198.36818610399999
 31
0.0
  0
LINE
  5
248
  8
┌▓È_1
  6
STITCH
 10
691.5607141180999
 20
-200.11818610399999
 30
0.0
 11
686.56071411810001
 21
-200.11818610399999
 31
0.0
  0
LINE
  5
249
  8
┌▓È_1
  6
STITCH
 10
686.56071411810001
 20
-201.11818610399999
 30
0.0
 11
684.8107141180999
 21
-202.86818610399999
 31
0.0
  0
LINE
  5
24A
  8
┌▓È_1
  6
STITCH
 10
686.56071411810001
 20
-200.11818610399999
 30
0.0
 11
684.8107141180999
 21
-198.36818610399999
 31
0.0
  0
LINE
  5
24B
  8
┌▓È_1
  6
STITCH
 10
686.56071411810001
 20
-200.11818610399999
 30
0.0
 11
686.56071411810001
 21
-201.11818610399999
 31
0.0
  0
LINE
  5
24C
  8
┌▓È_1
  6
STITCH
 10
670.81071411810001
 20
-185.36818610399999
 30
0.0
 11
670.81071411810001
 21
-180.36818610399999
 31
0.0
  0
LINE
  5
24D
  8
┌▓È_1
  6
STITCH
 10
671.81071411810001
 20
-180.36818610399999
 30
0.0
 11
671.81071411810001
 21
-185.36818610399999
 31
0.0
  0
LINE
  5
24E
  8
┌▓È_1
  6
STITCH
 10
670.81071411810001
 20
-180.36818610399999
 30
0.0
 11
671.81071411810001
 21
-180.36818610399999
 31
0.0
  0
LINE
  5
24F
  8
┌▓È_1
  6
STITCH
 10
671.81071411810001
 20
-137.36818610399999
 30
0.0
 11
673.56071411810001
 21
-135.61818610399999
 31
0.0
  0
LINE
  5
250
  8
┌▓È_1
  6
STITCH
 10
670.81071411810001
 20
-142.36818610399999
 30
0.0
 11
670.81071411810001
 21
-137.36818610399999
 31
0.0
  0
LINE
  5
251
  8
┌▓È_1
  6
STITCH
 10
671.81071411810001
 20
-137.36818610399999
 30
0.0
 11
671.81071411810001
 21
-142.36818610399999
 31
0.0
  0
LINE
  5
252
  8
┌▓È_1
  6
STITCH
 10
670.81071411810001
 20
-137.36818610399999
 30
0.0
 11
671.81071411810001
 21
-137.36818610399999
 31
0.0
  0
LINE
  5
253
  8
┌▓È_1
  6
STITCH
 10
671.81071411810001
 20
-142.36818610399999
 30
0.0
 11
670.81071411810001
 21
-142.36818610399999
 31
0.0
  0
LINE
  5
254
  8
┌▓È_1
 62
     5
 10
673.56071411810001
 20
-127.868186104
 30
0.0
 11
669.06071411810001
 21
-127.868186104
 31
0.0
  0
LINE
  5
255
  8
┌▓È_1
 62
     5
 10
729.0607141180999
 20
-202.86818610399999
 30
0.0
 11
744.06071411810001
 21
-202.86818610399999
 31
0.0
  0
LINE
  5
256
  8
┌▓È_1
  6
BORDER
 62
     3
 10
966.3256330936
 20
-159.7853944373
 30
0.0
 11
966.3256330936
 21
-193.2853944373
 31
0.0
  0
LINE
  5
257
  8
┌▓È_1
 62
     5
 10
945.0756330936
 20
-165.3021157915
 30
0.0
 11
953.8256330936
 21
-174.0521157915
 31
0.0
  0
LINE
  5
258
  8
┌▓È_1
  6
STITCH
 10
671.81071411810001
 20
-185.36818610399999
 30
0.0
 11
670.81071411810001
 21
-185.36818610399999
 31
0.0
  0
LINE
  5
259
  8
┌▓È_1
  6
STITCH
 10
671.81071411810001
 20
-185.36818610399999
 30
0.0
 11
673.56071411810001
 21
-187.11818610399999
 31
0.0
  0
LINE
  5
25A
  8
┌▓È_1
  6
STITCH
 10
670.81071411810001
 20
-185.36818610399999
 30
0.0
 11
669.06071411810001
 21
-187.11818610399999
 31
0.0
  0
LINE
  5
25B
  8
┌▓È_1
  6
STITCH
 10
670.81071411810001
 20
-180.36818610399999
 30
0.0
 11
669.06071411810001
 21
-178.61818610399999
 31
0.0
  0
ENDSEC
  0
EOF
