  0
SECTION
  2
HEADER
  9
$ACADVER
  1
AC1009
  9
$INSBASE
 10
0.0
 20
0.0
 30
0.0
  9
$EXTMIN
 10
699.59079374700002
 20
-316.169424988
 30
0.0
  9
$EXTMAX
 10
974.59079374700013
 20
-126.169424988
 30
0.0
  9
$LIMMIN
 10
0.0
 20
0.0
  9
$LIMMAX
 10
0.0
 20
0.0
  9
$ORTHOMODE
 70
     0
  9
$REGENMODE
 70
     1
  9
$FILLMODE
 70
     1
  9
$QTEXTMODE
 70
     0
  9
$MIRRTEXT
 70
     1
  9
$DRAGMODE
 70
     2
  9
$LTSCALE
 40
1.0
  9
$OSMODE
 70
    31
  9
$ATTMODE
 70
     1
  9
$TEXTSIZE
 40
0.0
  9
$TRACEWID
 40
0.05
  9
$TEXTSTYLE
  7
STANDARD
  9
$CLAYER
  8
0
  9
$CELTYPE
  6
CONTINUOUS
  9
$CECOLOR
 62
   256
  9
$DIMSCALE
 40
1.0
  9
$DIMASZ
 40
0.18
  9
$DIMEXO
 40
0.0625
  9
$DIMDLI
 40
0.38
  9
$DIMRND
 40
0.0
  9
$DIMDLE
 40
0.0
  9
$DIMEXE
 40
0.18
  9
$DIMTP
 40
0.0
  9
$DIMTM
 40
0.0
  9
$DIMTXT
 40
0.18
  9
$DIMCEN
 40
0.09
  9
$DIMTSZ
 40
0.0
  9
$DIMTOL
 70
     0
  9
$DIMLIM
 70
     0
  9
$DIMTIH
 70
     1
  9
$DIMTOH
 70
     1
  9
$DIMSE1
 70
     0
  9
$DIMSE2
 70
     0
  9
$DIMTAD
 70
     0
  9
$DIMZIN
 70
     0
  9
$DIMBLK
  1

  9
$DIMASO
 70
     1
  9
$DIMSHO
 70
     1
  9
$DIMPOST
  1

  9
$DIMAPOST
  1

  9
$DIMALT
 70
     0
  9
$DIMALTD
 70
     2
  9
$DIMALTF
 40
25.399999999999999
  9
$DIMLFAC
 40
1.0
  9
$DIMTOFL
 70
     0
  9
$DIMTVP
 40
0.0
  9
$DIMTIX
 70
     0
  9
$DIMSOXD
 70
     0
  9
$DIMSAH
 70
     0
  9
$DIMBLK1
  1

  9
$DIMBLK2
  1

  9
$DIMSTYLE
  2
STANDARD
  9
$DIMCLRD
 70
     0
  9
$DIMCLRE
 70
     0
  9
$DIMCLRT
 70
     0
  9
$DIMTFAC
 40
1.0
  9
$DIMGAP
 40
0.09
  9
$LUNITS
 70
     2
  9
$LUPREC
 70
     4
  9
$SKETCHINC
 40
0.1
  9
$FILLETRAD
 40
0.0
  9
$AUNITS
 70
     0
  9
$AUPREC
 70
     0
  9
$MENU
  1
acad
  9
$ELEVATION
 40
0.0
  9
$PELEVATION
 40
0.0
  9
$THICKNESS
 40
0.0
  9
$LIMCHECK
 70
     0
  9
$BLIPMODE
 70
     0
  9
$CHAMFERA
 40
0.0
  9
$CHAMFERB
 40
0.0
  9
$SKPOLY
 70
     0
  9
$TDCREATE
 40
2454862.548774051
  9
$TDUPDATE
 40
2454862.5489516319
  9
$TDINDWG
 40
0.0001864583
  9
$TDUSRTIMER
 40
0.0001859144
  9
$USRTIMER
 70
     1
  9
$ANGBASE
 50
0.0
  9
$ANGDIR
 70
     0
  9
$PDMODE
 70
     3
  9
$PDSIZE
 40
-1.0
  9
$PLINEWID
 40
0.0
  9
$COORDS
 70
     2
  9
$SPLFRAME
 70
     0
  9
$SPLINETYPE
 70
     6
  9
$SPLINESEGS
 70
     8
  9
$ATTDIA
 70
     0
  9
$ATTREQ
 70
     1
  9
$HANDLING
 70
     1
  9
$HANDSEED
  5
50D
  9
$SURFTAB1
 70
     6
  9
$SURFTAB2
 70
     6
  9
$SURFTYPE
 70
     6
  9
$SURFU
 70
     6
  9
$SURFV
 70
     6
  9
$UCSNAME
  2

  9
$UCSORG
 10
0.0
 20
0.0
 30
0.0
  9
$UCSXDIR
 10
1.0
 20
0.0
 30
0.0
  9
$UCSYDIR
 10
0.0
 20
1.0
 30
0.0
  9
$PUCSNAME
  2

  9
$PUCSORG
 10
0.0
 20
0.0
 30
0.0
  9
$PUCSXDIR
 10
1.0
 20
0.0
 30
0.0
  9
$PUCSYDIR
 10
0.0
 20
1.0
 30
0.0
  9
$USERI1
 70
     0
  9
$USERI2
 70
     0
  9
$USERI3
 70
     0
  9
$USERI4
 70
     0
  9
$USERI5
 70
     0
  9
$USERR1
 40
0.0
  9
$USERR2
 40
0.0
  9
$USERR3
 40
0.0
  9
$USERR4
 40
0.0
  9
$USERR5
 40
0.0
  9
$WORLDVIEW
 70
     1
  9
$SHADEDGE
 70
     3
  9
$SHADEDIF
 70
    70
  9
$TILEMODE
 70
     1
  9
$MAXACTVP
 70
    16
  9
$PLIMCHECK
 70
     0
  9
$PEXTMIN
 10
1.0000000000000000E+020
 20
1.0000000000000000E+020
 30
1.0000000000000000E+020
  9
$PEXTMAX
 10
-1.0000000000000000E+020
 20
-1.0000000000000000E+020
 30
-1.0000000000000000E+020
  9
$PLIMMIN
 10
0.0
 20
0.0
  9
$PLIMMAX
 10
12.0
 20
9.0
  9
$UNITMODE
 70
     0
  9
$VISRETAIN
 70
     0
  9
$PLINEGEN
 70
     1
  9
$PSLTSCALE
 70
     0
  0
ENDSEC
  0
SECTION
  2
TABLES
  0
TABLE
  2
VPORT
 70
     2
  0
VPORT
  2
*ACTIVE
 70
     0
 10
0.0
 20
0.0
 11
1.0
 21
1.0
 12
837.09079374700013
 22
-221.169424988
 13
0.0
 23
0.0
 14
1.0
 24
1.0
 15
0.0
 25
0.0
 16
0.0
 26
0.0
 36
1.0
 17
0.0
 27
0.0
 37
0.0
 40
198.9929279237459
 41
1.3903818953323901
 42
50.0
 43
0.0
 44
0.0
 50
0.0
 51
0.0
 71
     0
 72
   100
 73
     1
 74
     1
 75
     0
 76
     0
 77
     0
 78
     0
  0
ENDTAB
  0
TABLE
  2
LTYPE
 70
    11
  0
LTYPE
  2
CONTINUOUS
 70
     0
  3
Solid line
 72
    65
 73
     0
 40
0.0
  0
LTYPE
  2
DOT
 70
     0
  3
. . . . . . . . 
 72
    65
 73
     2
 40
1.0
 49
0.0
 49
-1.0
  0
LTYPE
  2
DASHED
 70
     0
  3
___  ___  ___  ___  
 72
    65
 73
     2
 40
4.0
 49
3.0
 49
-1.0
  0
LTYPE
  2
HIDDEN
 70
     0
  3
__ __ __ __ 
 72
    65
 73
     2
 40
3.0
 49
2.0
 49
-1.0
  0
LTYPE
  2
STITCH
 70
     0
  3
_ _ _ _ 
 72
    65
 73
     2
 40
2.0
 49
1.0
 49
-1.0
  0
LTYPE
  2
CENTER
 70
     0
  3
______  __  ______  __  
 72
    65
 73
     4
 40
43.0
 49
40.0
 49
-1.0
 49
1.0
 49
-1.0
  0
LTYPE
  2
DASHDOT
 70
     0
  3
____ . ____ . 
 72
    65
 73
     4
 40
32.0
 49
30.0
 49
-1.0
 49
0.0
 49
-1.0
  0
LTYPE
  2
BORDER
 70
     0
  3
__ . __ . 
 72
    65
 73
     4
 40
22.0
 49
20.0
 49
-1.0
 49
0.0
 49
-1.0
  0
LTYPE
  2
CUTTING
 70
     0
  3
________   ___   ___   
 72
    65
 73
     6
 40
45.0
 49
40.0
 49
-1.0
 49
1.0
 49
-1.0
 49
1.0
 49
-1.0
  0
LTYPE
  2
PHANTOM
 70
     0
  3
______  __  __  
 72
    65
 73
     6
 40
35.0
 49
30.0
 49
-1.0
 49
1.0
 49
-1.0
 49
1.0
 49
-1.0
  0
LTYPE
  2
DIVIDE
 70
     0
  3
____ . . ____ . . 
 72
    65
 73
     6
 40
23.0
 49
20.0
 49
-1.0
 49
0.0
 49
-1.0
 49
0.0
 49
-1.0
  0
ENDTAB
  0
TABLE
  2
LAYER
 70
     4
  0
LAYER
  2
0
 70
     0
 62
     7
  6
CONTINUOUS
  0
LAYER
  2
Éíû@É³
 70
     0
 62
     7
  6
CONTINUOUS
  0
LAYER
  2
┌▓È_1
 70
     0
 62
     7
  6
CONTINUOUS
  0
LAYER
  2
Defpoints
 70
     0
 62
     7
  6
CONTINUOUS
  0
ENDTAB
  0
TABLE
  2
STYLE
 70
     1
  0
STYLE
  2
STANDARD
 70
     0
 40
0.0
 41
1.0
 50
0.0
 71
     0
 42
0.0
  3
txt
  4
extfont
  0
ENDTAB
  0
TABLE
  2
VIEW
 70
     0
  0
ENDTAB
  0
TABLE
  2
UCS
 70
     0
  0
ENDTAB
  0
TABLE
  2
APPID
 70
     2
  0
APPID
  2
ACAD
 70
     0
  0
APPID
  2
DCO15
 70
     0
  0
ENDTAB
  0
TABLE
  2
DIMSTYLE
 70
     3
  0
DIMSTYLE
  2
STANDARD
 70
     0
  3

  4

  5

  6

  7

 40
1.0
 41
0.18
 42
0.0625
 43
0.38
 44
0.18
 45
0.0
 46
0.0
 47
0.0
 48
0.0
140
0.18
141
0.09
142
0.0
143
25.399999999999999
144
1.0
145
0.0
146
1.0
147
0.09
 71
     0
 72
     0
 73
     1
 74
     1
 75
     0
 76
     0
 77
     0
 78
     0
170
     0
171
     2
172
     0
173
     0
174
     0
175
     0
176
     0
177
     0
178
     0
  0
DIMSTYLE
  2
VELDIM0
 70
     0
  3

  4

  5

  6

  7

 40
1.0
 41
3.0
 42
0.0625
 43
0.38
 44
0.5
 45
0.0
 46
3.0
 47
0.0
 48
0.0
140
2.9986110209999999
141
0.09
142
0.0
143
25.399999999999999
144
1.0
145
0.0
146
1.0
147
0.09
 71
     0
 72
     0
 73
     0
 74
     0
 75
     0
 76
     0
 77
     0
 78
     8
170
     0
171
     2
172
     0
173
     0
174
     0
175
     0
176
     0
177
     0
178
     0
  0
DIMSTYLE
  2
VELDIM1
 70
     0
  3

  4

  5

  6

  7

 40
1.0
 41
3.0
 42
0.0625
 43
0.38
 44
1.25
 45
0.0
 46
5.0
 47
0.0
 48
0.0
140
2.9986110209999999
141
0.09
142
0.0
143
25.399999999999999
144
1.0
145
0.0
146
1.0
147
0.09
 71
     0
 72
     0
 73
     0
 74
     0
 75
     0
 76
     0
 77
     0
 78
     8
170
     0
171
     2
172
     0
173
     0
174
     0
175
     0
176
     0
177
     0
178
     0
  0
ENDTAB
  0
ENDSEC
  0
SECTION
  2
BLOCKS
  0
BLOCK
  8
0
  2
$MODEL_SPACE
 70
     0
 10
0.0
 20
0.0
 30
0.0
  3
$MODEL_SPACE
  1

  0
ENDBLK
  5
E
  8
0
  0
BLOCK
 67
     1
  8
0
  2
$PAPER_SPACE
 70
     0
 10
0.0
 20
0.0
 30
0.0
  3
$PAPER_SPACE
  1

  0
ENDBLK
  5
10
 67
     1
  8
0
  0
BLOCK
  8
0
  2
*D0
 70
     1
 10
0.0
 20
0.0
 30
0.0
  3
*D0
  1

  0
TEXT
  5
31
  8
0
 62
     0
 10
792.01878391059995
 20
-284.82114715080002
 30
0.0
 40
2.9986110209999999
  1
11
 50
90.0
  0
LINE
  5
32
  8
0
 62
     0
 10
784.54795056130001
 20
-288.55725831490003
 30
0.0
 11
794.04795056130001
 21
-288.55725831490003
 31
0.0
  0
LINE
  5
33
  8
0
 62
     0
 10
778.5479505612999
 20
-277.55725831490003
 30
0.0
 11
794.04795056130001
 21
-277.55725831490003
 31
0.0
  0
LINE
  5
34
  8
0
 62
     0
 10
793.54795056130001
 20
-288.55725831490003
 30
0.0
 11
793.54795056130001
 21
-279.52948064309999
 31
0.0
  0
LINE
  5
35
  8
0
 62
     0
 10
793.54795056130001
 20
-288.55725831490003
 30
0.0
 11
793.54795056130001
 21
-286.58503598670001
 31
0.0
  0
LINE
  5
36
  8
0
 62
     0
 10
793.54795056130001
 20
-277.55725831490003
 30
0.0
 11
793.54795056130001
 21
-279.52948064309999
 31
0.0
  0
LINE
  5
37
  8
0
 62
     0
 10
793.54795056130001
 20
-277.55725831490003
 30
0.0
 11
793.54795056130001
 21
-286.58503598670001
 31
0.0
  0
LINE
  5
38
  8
0
 62
     0
 10
793.54795056130001
 20
-277.55725831490003
 30
0.0
 11
793.54795056130001
 21
-274.55725831490003
 31
0.0
  0
SOLID
  5
39
  8
0
 62
     0
 10
793.54795056130001
 20
-277.55725831490003
 30
0.0
 11
792.79795056130001
 21
-274.55725831490003
 31
0.0
 12
794.29795056130001
 22
-274.55725831490003
 32
0.0
 13
793.54795056130001
 23
-275.30725831490003
 33
0.0
  0
LINE
  5
3A
  8
0
 62
     0
 10
793.54795056130001
 20
-288.55725831490003
 30
0.0
 11
793.54795056130001
 21
-291.55725831490003
 31
0.0
  0
SOLID
  5
3B
  8
0
 62
     0
 10
793.54795056130001
 20
-288.55725831490003
 30
0.0
 11
794.29795056130001
 21
-291.55725831490003
 31
0.0
 12
792.79795056130001
 22
-291.55725831490003
 32
0.0
 13
793.54795056130001
 23
-290.80725831490003
 33
0.0
  0
ENDBLK
  5
3C
  8
0
  0
BLOCK
  8
0
  2
*D1
 70
     1
 10
0.0
 20
0.0
 30
0.0
  3
*D1
  1

  0
TEXT
  5
46
  8
0
 62
     0
 10
912.92421742320005
 20
-154.13139934930001
 30
0.0
 40
2.9986110209999999
  1
90%%d
 50
360.0
  0
ARC
  5
47
  8
0
 62
     0
 10
915.57005067710008
 20
-208.9013647964
 30
0.0
 40
53.182465494799999
 50
131.10347163349999
 51
135.0
  0
ARC
  5
48
  8
0
 62
     0
 10
915.57005067710008
 20
-208.9013647964
 30
0.0
 40
53.182465494799999
 50
45.0
 51
48.896528366499993
  0
SOLID
  5
49
  8
0
 62
     0
 10
953.17573266869988
 20
-171.29568280480001
 30
0.0
 11
955.82738309809986
 21
-172.88667306249999
 31
0.0
 12
954.76672292629996
 22
-173.94733323419999
 32
0.0
 13
954.76672292629996
 23
-172.88667306249999
 33
0.0
  0
SOLID
  5
4A
  8
0
 62
     0
 10
877.96436868550006
 20
-171.29568280480001
 30
0.0
 11
876.37337842779993
 21
-173.94733323419999
 31
0.0
 12
875.31271825600004
 22
-172.88667306249999
 32
0.0
 13
876.37337842779993
 23
-172.88667306249999
 33
0.0
  0
ARC
  5
4B
  8
0
 62
     0
 10
915.57005067710008
 20
-208.9013647964
 30
0.0
 40
53.182465494799999
 50
45.0
 51
85.196625126499995
  0
ARC
  5
4C
  8
0
 62
     0
 10
915.57005067710008
 20
-208.9013647964
 30
0.0
 40
53.182465494799999
 50
94.803374873500005
 51
135.0
  0
LINE
  5
4D
  8
0
 62
     0
 10
938.23426423939998
 20
-186.23715123400001
 30
0.0
 11
954.58994623100023
 21
-169.88146924239999
 31
0.0
  0
LINE
  5
4E
  8
0
 62
     0
 10
892.90583711470003
 20
-186.23715123400001
 30
0.0
 11
876.55015512310001
 21
-169.88146924239999
 31
0.0
  0
ENDBLK
  5
4F
  8
0
  0
BLOCK
  8
0
  2
*D2
 70
     1
 10
0.0
 20
0.0
 30
0.0
  3
*D2
  1

  0
TEXT
  5
53
  8
0
 62
     0
 10
912.92421742320005
 20
-232.00571575550001
 30
0.0
 40
2.9986110209999999
  1
90%%d
  0
ARC
  5
54
  8
0
 62
     0
 10
915.57005067710008
 20
-188.9013647964
 30
0.0
 40
44.691850911499991
 50
310.31440976139999
 51
315.0
  0
ARC
  5
55
  8
0
 62
     0
 10
915.57005067710008
 20
-188.9013647964
 30
0.0
 40
44.691850911499991
 50
225.0
 51
229.68559023860001
  0
SOLID
  5
56
  8
0
 62
     0
 10
883.96813983379991
 20
-220.50327563970001
 30
0.0
 11
881.31648940440004
 21
-218.91228538199999
 31
0.0
 12
882.37714957610001
 22
-217.85162521020001
 32
0.0
 13
882.37714957610001
 23
-218.91228538199999
 33
0.0
  0
SOLID
  5
57
  8
0
 62
     0
 10
947.17196152029987
 20
-220.50327563970001
 30
0.0
 11
948.762951778
 21
-217.85162521020001
 31
0.0
 12
949.82361194980012
 22
-218.91228538199999
 32
0.0
 13
948.762951778
 23
-218.91228538199999
 33
0.0
  0
ARC
  5
58
  8
0
 62
     0
 10
915.57005067710008
 20
-188.9013647964
 30
0.0
 40
44.691850911499991
 50
225.0
 51
263.43920007819997
  0
ARC
  5
59
  8
0
 62
     0
 10
915.57005067710008
 20
-188.9013647964
 30
0.0
 40
44.691850911499991
 50
276.56079992180003
 51
315.0
  0
LINE
  5
5A
  8
0
 62
     0
 10
892.90583711470003
 20
-211.5655783588
 30
0.0
 11
882.55392627139997
 21
-221.91748920200001
 31
0.0
  0
LINE
  5
5B
  8
0
 62
     0
 10
938.23426423939998
 20
-211.5655783588
 30
0.0
 11
948.58617508270004
 21
-221.91748920200001
 31
0.0
  0
ENDBLK
  5
5C
  8
0
  0
BLOCK
  8
0
  2
*D3
 70
     1
 10
0.0
 20
0.0
 30
0.0
  3
*D3
  1

  0
TEXT
  5
60
  8
0
 62
     0
 10
747.59389625109986
 20
-188.20672409240001
 30
0.0
 40
2.9986110209999999
  1
90%%d
 50
315.2144681657
  0
ARC
  5
61
  8
0
 62
     0
 10
728.04795056130001
 20
-211.65540646310001
 30
0.0
 40
28.824409955099998
 50
82.356050880300003
 51
90.0
  0
ARC
  5
62
  8
0
 62
     0
 10
728.04795056130001
 20
-211.65540646310001
 30
0.0
 40
28.824409955099998
 50
0.0
 51
7.6439491197000002
  0
SOLID
  5
63
  8
0
 62
     0
 10
756.87236051649995
 20
-211.65540646310001
 30
0.0
 11
757.62236051649995
 21
-214.65540646310001
 31
0.0
 12
756.12236051649995
 22
-214.65540646310001
 32
0.0
 13
756.87236051649995
 23
-213.90540646310001
 33
0.0
  0
SOLID
  5
64
  8
0
 62
     0
 10
728.04795056130001
 20
-182.83099650790001
 30
0.0
 11
725.04795056130001
 21
-183.58099650790001
 31
0.0
 12
725.04795056130001
 22
-182.08099650790001
 32
0.0
 13
725.79795056130001
 23
-182.83099650790001
 33
0.0
  0
ARC
  5
65
  8
0
 62
     0
 10
728.04795056130001
 20
-211.65540646310001
 30
0.0
 40
28.824409955099998
 50
0.0
 51
36.3016862347
  0
ARC
  5
66
  8
0
 62
     0
 10
728.04795056130001
 20
-211.65540646310001
 30
0.0
 40
28.824409955099998
 50
54.127250096600001
 51
90.0
  0
LINE
  5
67
  8
0
 62
     0
 10
781.54795056130001
 20
-211.65540646310001
 30
0.0
 11
754.87236051649995
 21
-211.65540646310001
 31
0.0
  0
LINE
  5
68
  8
0
 62
     0
 10
728.04795056130001
 20
-158.15540646310001
 30
0.0
 11
728.04795056130001
 21
-184.83099650790001
 31
0.0
  0
ENDBLK
  5
69
  8
0
  0
BLOCK
  8
0
  2
*D4
 70
     1
 10
0.0
 20
0.0
 30
0.0
  3
*D4
  1

  0
TEXT
  5
6D
  8
0
 62
     0
 10
911.1603285873
 20
-163.60311155709999
 30
0.0
 40
2.9986110209999999
  1
%%c8.5
  0
LINE
  5
6E
  8
0
 62
     0
 10
936.82005067710008
 20
-186.6513647964
 30
0.0
 11
936.82005067710008
 21
-164.6322782078
 31
0.0
  0
LINE
  5
6F
  8
0
 62
     0
 10
894.32005067710008
 20
-186.6513647964
 30
0.0
 11
894.32005067710008
 21
-164.6322782078
 31
0.0
  0
LINE
  5
70
  8
0
 62
     0
 10
936.82005067710008
 20
-165.1322782078
 30
0.0
 11
921.74366160270006
 21
-165.1322782078
 31
0.0
  0
LINE
  5
71
  8
0
 62
     0
 10
936.82005067710008
 20
-165.1322782078
 30
0.0
 11
909.39643975139995
 21
-165.1322782078
 31
0.0
  0
LINE
  5
72
  8
0
 62
     0
 10
894.32005067710008
 20
-165.1322782078
 30
0.0
 11
921.74366160270006
 21
-165.1322782078
 31
0.0
  0
LINE
  5
73
  8
0
 62
     0
 10
894.32005067710008
 20
-165.1322782078
 30
0.0
 11
909.39643975139995
 21
-165.1322782078
 31
0.0
  0
LINE
  5
74
  8
0
 62
     0
 10
894.32005067710008
 20
-165.1322782078
 30
0.0
 11
897.32005067709997
 21
-165.1322782078
 31
0.0
  0
SOLID
  5
75
  8
0
 62
     0
 10
894.32005067710008
 20
-165.1322782078
 30
0.0
 11
897.32005067709997
 21
-164.3822782078
 31
0.0
 12
897.32005067709997
 22
-165.8822782078
 32
0.0
 13
896.57005067709997
 23
-165.1322782078
 33
0.0
  0
LINE
  5
76
  8
0
 62
     0
 10
936.82005067710008
 20
-165.1322782078
 30
0.0
 11
933.82005067709997
 21
-165.1322782078
 31
0.0
  0
SOLID
  5
77
  8
0
 62
     0
 10
936.82005067710008
 20
-165.1322782078
 30
0.0
 11
933.82005067709997
 21
-165.8822782078
 31
0.0
 12
933.82005067709997
 22
-164.3822782078
 32
0.0
 13
934.57005067710008
 23
-165.1322782078
 33
0.0
  0
ENDBLK
  5
78
  8
0
  0
BLOCK
  8
0
  2
*D5
 70
     1
 10
0.0
 20
0.0
 30
0.0
  3
*D5
  1

  0
TEXT
  5
7C
  8
0
 62
     0
 10
912.92421742320005
 20
-173.8722521821
 30
0.0
 40
2.9986110209999999
  1
%%c5
  0
LINE
  5
7D
  8
0
 62
     0
 10
928.07005067710008
 20
-195.4013647964
 30
0.0
 11
928.07005067710008
 21
-174.90141883279989
 31
0.0
  0
LINE
  5
7E
  8
0
 62
     0
 10
903.07005067710008
 20
-195.4013647964
 30
0.0
 11
903.07005067710008
 21
-174.90141883279989
 31
0.0
  0
LINE
  5
7F
  8
0
 62
     0
 10
928.07005067710008
 20
-175.4014188328
 30
0.0
 11
919.97977276679978
 21
-175.4014188328
 31
0.0
  0
LINE
  5
80
  8
0
 62
     0
 10
928.07005067710008
 20
-175.4014188328
 30
0.0
 11
911.1603285873
 21
-175.4014188328
 31
0.0
  0
LINE
  5
81
  8
0
 62
     0
 10
903.07005067710008
 20
-175.4014188328
 30
0.0
 11
919.97977276679978
 21
-175.4014188328
 31
0.0
  0
LINE
  5
82
  8
0
 62
     0
 10
903.07005067710008
 20
-175.4014188328
 30
0.0
 11
911.1603285873
 21
-175.4014188328
 31
0.0
  0
LINE
  5
83
  8
0
 62
     0
 10
903.07005067710008
 20
-175.4014188328
 30
0.0
 11
906.07005067709997
 21
-175.4014188328
 31
0.0
  0
SOLID
  5
84
  8
0
 62
     0
 10
903.07005067710008
 20
-175.4014188328
 30
0.0
 11
906.07005067709997
 21
-174.65141883279989
 31
0.0
 12
906.07005067709997
 22
-176.1514188328
 32
0.0
 13
905.32005067709997
 23
-175.4014188328
 33
0.0
  0
LINE
  5
85
  8
0
 62
     0
 10
928.07005067710008
 20
-175.4014188328
 30
0.0
 11
925.07005067709997
 21
-175.4014188328
 31
0.0
  0
SOLID
  5
86
  8
0
 62
     0
 10
928.07005067710008
 20
-175.4014188328
 30
0.0
 11
925.07005067709997
 21
-176.1514188328
 31
0.0
 12
925.07005067709997
 22
-174.65141883279989
 32
0.0
 13
925.82005067709997
 23
-175.4014188328
 33
0.0
  0
ENDBLK
  5
87
  8
0
  0
BLOCK
  8
0
  2
*D6
 70
     1
 10
0.0
 20
0.0
 30
0.0
  3
*D6
  1

  0
TEXT
  5
8B
  8
0
 62
     0
 10
911.1603285873
 20
-219.79813108830001
 30
0.0
 40
2.9986110209999999
  1
%%c8.5
  0
LINE
  5
8C
  8
0
 62
     0
 10
894.32005067710008
 20
-211.1513647964
 30
0.0
 11
894.32005067710008
 21
-221.8272977391
 31
0.0
  0
LINE
  5
8D
  8
0
 62
     0
 10
936.82005067710008
 20
-211.1513647964
 30
0.0
 11
936.82005067710008
 21
-221.8272977391
 31
0.0
  0
LINE
  5
8E
  8
0
 62
     0
 10
894.32005067710008
 20
-221.3272977391
 30
0.0
 11
921.74366160270006
 21
-221.3272977391
 31
0.0
  0
LINE
  5
8F
  8
0
 62
     0
 10
894.32005067710008
 20
-221.3272977391
 30
0.0
 11
909.39643975139995
 21
-221.3272977391
 31
0.0
  0
LINE
  5
90
  8
0
 62
     0
 10
936.82005067710008
 20
-221.3272977391
 30
0.0
 11
921.74366160270006
 21
-221.3272977391
 31
0.0
  0
LINE
  5
91
  8
0
 62
     0
 10
936.82005067710008
 20
-221.3272977391
 30
0.0
 11
909.39643975139995
 21
-221.3272977391
 31
0.0
  0
LINE
  5
92
  8
0
 62
     0
 10
936.82005067710008
 20
-221.3272977391
 30
0.0
 11
933.82005067709997
 21
-221.3272977391
 31
0.0
  0
SOLID
  5
93
  8
0
 62
     0
 10
936.82005067710008
 20
-221.3272977391
 30
0.0
 11
933.82005067709997
 21
-222.0772977391
 31
0.0
 12
933.82005067709997
 22
-220.5772977391
 32
0.0
 13
934.57005067710008
 23
-221.3272977391
 33
0.0
  0
LINE
  5
94
  8
0
 62
     0
 10
894.32005067710008
 20
-221.3272977391
 30
0.0
 11
897.32005067709997
 21
-221.3272977391
 31
0.0
  0
SOLID
  5
95
  8
0
 62
     0
 10
894.32005067710008
 20
-221.3272977391
 30
0.0
 11
897.32005067709997
 21
-220.5772977391
 31
0.0
 12
897.32005067709997
 22
-222.0772977391
 32
0.0
 13
896.57005067709997
 23
-221.3272977391
 33
0.0
  0
ENDBLK
  5
96
  8
0
  0
BLOCK
  8
0
  2
*D7
 70
     1
 10
0.0
 20
0.0
 30
0.0
  3
*D7
  1

  0
TEXT
  5
9A
  8
0
 62
     0
 10
751.78406172539985
 20
-224.62623981230001
 30
0.0
 40
2.9986110209999999
  1
60
  0
LINE
  5
9B
  8
0
 62
     0
 10
723.54795056130001
 20
-212.65540646310001
 30
0.0
 11
723.54795056130001
 21
-226.65540646310001
 31
0.0
  0
LINE
  5
9C
  8
0
 62
     0
 10
783.54795056130001
 20
-217.15540646310001
 30
0.0
 11
783.54795056130001
 21
-226.65540646310001
 31
0.0
  0
LINE
  5
9D
  8
0
 62
     0
 10
723.54795056130001
 20
-226.15540646310001
 30
0.0
 11
757.07572823309988
 21
-226.15540646310001
 31
0.0
  0
LINE
  5
9E
  8
0
 62
     0
 10
723.54795056130001
 20
-226.15540646310001
 30
0.0
 11
750.02017288949992
 21
-226.15540646310001
 31
0.0
  0
LINE
  5
9F
  8
0
 62
     0
 10
783.54795056130001
 20
-226.15540646310001
 30
0.0
 11
757.07572823309988
 21
-226.15540646310001
 31
0.0
  0
LINE
  5
A0
  8
0
 62
     0
 10
783.54795056130001
 20
-226.15540646310001
 30
0.0
 11
750.02017288949992
 21
-226.15540646310001
 31
0.0
  0
LINE
  5
A1
  8
0
 62
     0
 10
783.54795056130001
 20
-226.15540646310001
 30
0.0
 11
780.54795056130001
 21
-226.15540646310001
 31
0.0
  0
SOLID
  5
A2
  8
0
 62
     0
 10
783.54795056130001
 20
-226.15540646310001
 30
0.0
 11
780.54795056130001
 21
-226.90540646310001
 31
0.0
 12
780.54795056130001
 22
-225.40540646310001
 32
0.0
 13
781.29795056130001
 23
-226.15540646310001
 33
0.0
  0
LINE
  5
A3
  8
0
 62
     0
 10
723.54795056130001
 20
-226.15540646310001
 30
0.0
 11
726.54795056130001
 21
-226.15540646310001
 31
0.0
  0
SOLID
  5
A4
  8
0
 62
     0
 10
723.54795056130001
 20
-226.15540646310001
 30
0.0
 11
726.54795056130001
 21
-225.40540646310001
 31
0.0
 12
726.54795056130001
 22
-226.90540646310001
 32
0.0
 13
725.79795056130001
 23
-226.15540646310001
 33
0.0
  0
ENDBLK
  5
A5
  8
0
  0
BLOCK
  8
0
  2
*D8
 70
     1
 10
0.0
 20
0.0
 30
0.0
  3
*D8
  1

  0
TEXT
  5
A9
  8
0
 62
     0
 10
831.30528568379998
 20
-136.24342731230001
 30
0.0
 40
2.9986110209999999
  1
32
  0
LINE
  5
AA
  8
0
 62
     0
 10
849.06917451970003
 20
-155.15540646310001
 30
0.0
 11
849.06917451970003
 21
-137.27259396310001
 31
0.0
  0
LINE
  5
AB
  8
0
 62
     0
 10
817.06917451970003
 20
-155.15540646310001
 30
0.0
 11
817.06917451970003
 21
-137.27259396310001
 31
0.0
  0
LINE
  5
AC
  8
0
 62
     0
 10
849.06917451970003
 20
-137.77259396310001
 30
0.0
 11
836.59695219149989
 21
-137.77259396310001
 31
0.0
  0
LINE
  5
AD
  8
0
 62
     0
 10
849.06917451970003
 20
-137.77259396310001
 30
0.0
 11
829.54139684790005
 21
-137.77259396310001
 31
0.0
  0
LINE
  5
AE
  8
0
 62
     0
 10
817.06917451970003
 20
-137.77259396310001
 30
0.0
 11
836.59695219149989
 21
-137.77259396310001
 31
0.0
  0
LINE
  5
AF
  8
0
 62
     0
 10
817.06917451970003
 20
-137.77259396310001
 30
0.0
 11
829.54139684790005
 21
-137.77259396310001
 31
0.0
  0
LINE
  5
B0
  8
0
 62
     0
 10
817.06917451970003
 20
-137.77259396310001
 30
0.0
 11
820.06917451970003
 21
-137.77259396310001
 31
0.0
  0
SOLID
  5
B1
  8
0
 62
     0
 10
817.06917451970003
 20
-137.77259396310001
 30
0.0
 11
820.06917451970003
 21
-137.02259396310001
 31
0.0
 12
820.06917451970003
 22
-138.52259396310001
 32
0.0
 13
819.31917451969991
 23
-137.77259396310001
 33
0.0
  0
LINE
  5
B2
  8
0
 62
     0
 10
849.06917451970003
 20
-137.77259396310001
 30
0.0
 11
846.06917451969991
 21
-137.77259396310001
 31
0.0
  0
SOLID
  5
B3
  8
0
 62
     0
 10
849.06917451970003
 20
-137.77259396310001
 30
0.0
 11
846.06917451969991
 21
-138.52259396310001
 31
0.0
 12
846.06917451969991
 22
-137.02259396310001
 32
0.0
 13
846.81917451970003
 23
-137.77259396310001
 33
0.0
  0
ENDBLK
  5
B4
  8
0
  0
BLOCK
  8
0
  2
*D9
 70
     1
 10
0.0
 20
0.0
 30
0.0
  3
*D9
  1

  0
TEXT
  5
B8
  8
0
 62
     0
 10
712.01878391059995
 20
-187.919295299
 30
0.0
 40
2.9986110209999999
  1
60
 50
90.0
  0
LINE
  5
B9
  8
0
 62
     0
 10
722.54795056130001
 20
-156.15540646310001
 30
0.0
 11
713.04795056130001
 21
-156.15540646310001
 31
0.0
  0
LINE
  5
BA
  8
0
 62
     0
 10
727.04795056130001
 20
-216.15540646310001
 30
0.0
 11
713.04795056130001
 21
-216.15540646310001
 31
0.0
  0
LINE
  5
BB
  8
0
 62
     0
 10
713.54795056130001
 20
-156.15540646310001
 30
0.0
 11
713.54795056130001
 21
-182.62762879120001
 31
0.0
  0
LINE
  5
BC
  8
0
 62
     0
 10
713.54795056130001
 20
-156.15540646310001
 30
0.0
 11
713.54795056130001
 21
-189.68318413489999
 31
0.0
  0
LINE
  5
BD
  8
0
 62
     0
 10
713.54795056130001
 20
-216.15540646310001
 30
0.0
 11
713.54795056130001
 21
-182.62762879120001
 31
0.0
  0
LINE
  5
BE
  8
0
 62
     0
 10
713.54795056130001
 20
-216.15540646310001
 30
0.0
 11
713.54795056130001
 21
-189.68318413489999
 31
0.0
  0
LINE
  5
BF
  8
0
 62
     0
 10
713.54795056130001
 20
-216.15540646310001
 30
0.0
 11
713.54795056130001
 21
-213.15540646310001
 31
0.0
  0
SOLID
  5
C0
  8
0
 62
     0
 10
713.54795056130001
 20
-216.15540646310001
 30
0.0
 11
712.79795056130001
 21
-213.15540646310001
 31
0.0
 12
714.2979505612999
 22
-213.15540646310001
 32
0.0
 13
713.54795056130001
 23
-213.90540646310001
 33
0.0
  0
LINE
  5
C1
  8
0
 62
     0
 10
713.54795056130001
 20
-156.15540646310001
 30
0.0
 11
713.54795056130001
 21
-159.15540646310001
 31
0.0
  0
SOLID
  5
C2
  8
0
 62
     0
 10
713.54795056130001
 20
-156.15540646310001
 30
0.0
 11
714.2979505612999
 21
-159.15540646310001
 31
0.0
 12
712.79795056130001
 22
-159.15540646310001
 32
0.0
 13
713.54795056130001
 23
-158.40540646310001
 33
0.0
  0
ENDBLK
  5
C3
  8
0
  0
BLOCK
  8
0
  2
*D10
 70
     1
 10
0.0
 20
0.0
 30
0.0
  3
*D10
  1

  0
TEXT
  5
C7
  8
0
 62
     0
 10
712.01878391059995
 20
-274.32114715080002
 30
0.0
 40
2.9986110209999999
  1
32
 50
90.0
  0
LINE
  5
C8
  8
0
 62
     0
 10
722.54795056130001
 20
-256.55725831490003
 30
0.0
 11
713.04795056130001
 21
-256.55725831490003
 31
0.0
  0
LINE
  5
C9
  8
0
 62
     0
 10
722.54795056130001
 20
-288.55725831490003
 30
0.0
 11
713.04795056130001
 21
-288.55725831490003
 31
0.0
  0
LINE
  5
CA
  8
0
 62
     0
 10
713.54795056130001
 20
-256.55725831490003
 30
0.0
 11
713.54795056130001
 21
-269.02948064309999
 31
0.0
  0
LINE
  5
CB
  8
0
 62
     0
 10
713.54795056130001
 20
-256.55725831490003
 30
0.0
 11
713.54795056130001
 21
-276.08503598670001
 31
0.0
  0
LINE
  5
CC
  8
0
 62
     0
 10
713.54795056130001
 20
-288.55725831490003
 30
0.0
 11
713.54795056130001
 21
-269.02948064309999
 31
0.0
  0
LINE
  5
CD
  8
0
 62
     0
 10
713.54795056130001
 20
-288.55725831490003
 30
0.0
 11
713.54795056130001
 21
-276.08503598670001
 31
0.0
  0
LINE
  5
CE
  8
0
 62
     0
 10
713.54795056130001
 20
-288.55725831490003
 30
0.0
 11
713.54795056130001
 21
-285.55725831490003
 31
0.0
  0
SOLID
  5
CF
  8
0
 62
     0
 10
713.54795056130001
 20
-288.55725831490003
 30
0.0
 11
712.79795056130001
 21
-285.55725831490003
 31
0.0
 12
714.2979505612999
 22
-285.55725831490003
 32
0.0
 13
713.54795056130001
 23
-286.30725831490003
 33
0.0
  0
LINE
  5
D0
  8
0
 62
     0
 10
713.54795056130001
 20
-256.55725831490003
 30
0.0
 11
713.54795056130001
 21
-259.55725831490003
 31
0.0
  0
SOLID
  5
D1
  8
0
 62
     0
 10
713.54795056130001
 20
-256.55725831490003
 30
0.0
 11
714.2979505612999
 21
-259.55725831490003
 31
0.0
 12
712.79795056130001
 22
-259.55725831490003
 32
0.0
 13
713.54795056130001
 23
-258.80725831490003
 33
0.0
  0
ENDBLK
  5
D2
  8
0
  0
BLOCK
  8
0
  2
*D11
 70
     1
 10
0.0
 20
0.0
 30
0.0
  3
*D11
  1

  0
TEXT
  5
D6
  8
0
 62
     0
 10
820.80528568380009
 20
-144.62623981230001
 30
0.0
 40
2.9986110209999999
  1
11
  0
LINE
  5
D7
  8
0
 62
     0
 10
828.06917451970003
 20
-161.15540646310001
 30
0.0
 11
828.06917451970003
 21
-145.65540646310001
 31
0.0
  0
LINE
  5
D8
  8
0
 62
     0
 10
817.06917451970003
 20
-155.15540646310001
 30
0.0
 11
817.06917451970003
 21
-145.65540646310001
 31
0.0
  0
LINE
  5
D9
  8
0
 62
     0
 10
828.06917451970003
 20
-146.15540646310001
 30
0.0
 11
826.09695219149989
 21
-146.15540646310001
 31
0.0
  0
LINE
  5
DA
  8
0
 62
     0
 10
828.06917451970003
 20
-146.15540646310001
 30
0.0
 11
819.04139684789993
 21
-146.15540646310001
 31
0.0
  0
LINE
  5
DB
  8
0
 62
     0
 10
817.06917451970003
 20
-146.15540646310001
 30
0.0
 11
826.09695219149989
 21
-146.15540646310001
 31
0.0
  0
LINE
  5
DC
  8
0
 62
     0
 10
817.06917451970003
 20
-146.15540646310001
 30
0.0
 11
819.04139684789993
 21
-146.15540646310001
 31
0.0
  0
LINE
  5
DD
  8
0
 62
     0
 10
817.06917451970003
 20
-146.15540646310001
 30
0.0
 11
814.06917451969991
 21
-146.15540646310001
 31
0.0
  0
SOLID
  5
DE
  8
0
 62
     0
 10
817.06917451970003
 20
-146.15540646310001
 30
0.0
 11
814.06917451969991
 21
-146.90540646310001
 31
0.0
 12
814.06917451969991
 22
-145.40540646310001
 32
0.0
 13
814.81917451969991
 23
-146.15540646310001
 33
0.0
  0
LINE
  5
DF
  8
0
 62
     0
 10
828.06917451970003
 20
-146.15540646310001
 30
0.0
 11
831.06917451970014
 21
-146.15540646310001
 31
0.0
  0
SOLID
  5
E0
  8
0
 62
     0
 10
828.06917451970003
 20
-146.15540646310001
 30
0.0
 11
831.06917451970014
 21
-145.40540646310001
 31
0.0
 12
831.06917451970014
 22
-146.90540646310001
 32
0.0
 13
830.31917451970003
 23
-146.15540646310001
 33
0.0
  0
ENDBLK
  5
E1
  8
0
  0
BLOCK
  8
0
  2
*D12
 70
     1
 10
0.0
 20
0.0
 30
0.0
  3
*D12
  1

  0
TEXT
  5
E5
  8
0
 62
     0
 10
831.30528568379998
 20
-144.62623981230001
 30
0.0
 40
2.9986110209999999
  1
10
  0
LINE
  5
E6
  8
0
 62
     0
 10
838.06917451969991
 20
-189.15540646310001
 30
0.0
 11
838.06917451969991
 21
-145.65540646310001
 31
0.0
  0
LINE
  5
E7
  8
0
 62
     0
 10
828.06917451970003
 20
-161.15540646310001
 30
0.0
 11
828.06917451970003
 21
-145.65540646310001
 31
0.0
  0
LINE
  5
E8
  8
0
 62
     0
 10
838.06917451969991
 20
-146.15540646310001
 30
0.0
 11
836.59695219149989
 21
-146.15540646310001
 31
0.0
  0
LINE
  5
E9
  8
0
 62
     0
 10
838.06917451969991
 20
-146.15540646310001
 30
0.0
 11
829.54139684790005
 21
-146.15540646310001
 31
0.0
  0
LINE
  5
EA
  8
0
 62
     0
 10
828.06917451970003
 20
-146.15540646310001
 30
0.0
 11
836.59695219149989
 21
-146.15540646310001
 31
0.0
  0
LINE
  5
EB
  8
0
 62
     0
 10
828.06917451970003
 20
-146.15540646310001
 30
0.0
 11
829.54139684790005
 21
-146.15540646310001
 31
0.0
  0
LINE
  5
EC
  8
0
 62
     0
 10
828.06917451970003
 20
-146.15540646310001
 30
0.0
 11
825.06917451970003
 21
-146.15540646310001
 31
0.0
  0
SOLID
  5
ED
  8
0
 62
     0
 10
828.06917451970003
 20
-146.15540646310001
 30
0.0
 11
825.06917451970003
 21
-146.90540646310001
 31
0.0
 12
825.06917451970003
 22
-145.40540646310001
 32
0.0
 13
825.81917451970014
 23
-146.15540646310001
 33
0.0
  0
LINE
  5
EE
  8
0
 62
     0
 10
838.06917451969991
 20
-146.15540646310001
 30
0.0
 11
841.06917451970003
 21
-146.15540646310001
 31
0.0
  0
SOLID
  5
EF
  8
0
 62
     0
 10
838.06917451969991
 20
-146.15540646310001
 30
0.0
 11
841.06917451970003
 21
-145.40540646310001
 31
0.0
 12
841.06917451970003
 22
-146.90540646310001
 32
0.0
 13
840.31917451970003
 23
-146.15540646310001
 33
0.0
  0
ENDBLK
  5
F0
  8
0
  0
BLOCK
  8
0
  2
*D13
 70
     1
 10
0.0
 20
0.0
 30
0.0
  3
*D13
  1

  0
TEXT
  5
F4
  8
0
 62
     0
 10
841.80528568379998
 20
-144.62623981230001
 30
0.0
 40
2.9986110209999999
  1
11
  0
LINE
  5
F5
  8
0
 62
     0
 10
849.06917451970003
 20
-155.15540646310001
 30
0.0
 11
849.06917451970003
 21
-145.65540646310001
 31
0.0
  0
LINE
  5
F6
  8
0
 62
     0
 10
838.06917451969991
 20
-189.15540646310001
 30
0.0
 11
838.06917451969991
 21
-145.65540646310001
 31
0.0
  0
LINE
  5
F7
  8
0
 62
     0
 10
849.06917451970003
 20
-146.15540646310001
 30
0.0
 11
847.09695219149978
 21
-146.15540646310001
 31
0.0
  0
LINE
  5
F8
  8
0
 62
     0
 10
849.06917451970003
 20
-146.15540646310001
 30
0.0
 11
840.04139684789982
 21
-146.15540646310001
 31
0.0
  0
LINE
  5
F9
  8
0
 62
     0
 10
838.06917451969991
 20
-146.15540646310001
 30
0.0
 11
847.09695219149978
 21
-146.15540646310001
 31
0.0
  0
LINE
  5
FA
  8
0
 62
     0
 10
838.06917451969991
 20
-146.15540646310001
 30
0.0
 11
840.04139684789982
 21
-146.15540646310001
 31
0.0
  0
LINE
  5
FB
  8
0
 62
     0
 10
838.06917451969991
 20
-146.15540646310001
 30
0.0
 11
835.06917451970003
 21
-146.15540646310001
 31
0.0
  0
SOLID
  5
FC
  8
0
 62
     0
 10
838.06917451969991
 20
-146.15540646310001
 30
0.0
 11
835.06917451970003
 21
-146.90540646310001
 31
0.0
 12
835.06917451970003
 22
-145.40540646310001
 32
0.0
 13
835.81917451970003
 23
-146.15540646310001
 33
0.0
  0
LINE
  5
FD
  8
0
 62
     0
 10
849.06917451970003
 20
-146.15540646310001
 30
0.0
 11
852.06917451970003
 21
-146.15540646310001
 31
0.0
  0
SOLID
  5
FE
  8
0
 62
     0
 10
849.06917451970003
 20
-146.15540646310001
 30
0.0
 11
852.06917451970003
 21
-145.40540646310001
 31
0.0
 12
852.06917451970003
 22
-146.90540646310001
 32
0.0
 13
851.31917451970003
 23
-146.15540646310001
 33
0.0
  0
ENDBLK
  5
FF
  8
0
  0
BLOCK
  8
0
  2
*D14
 70
     1
 10
0.0
 20
0.0
 30
0.0
  3
*D14
  1

  0
TEXT
  5
103
  8
0
 62
     0
 10
805.54000786890003
 20
-207.919295299
 30
0.0
 40
2.9986110209999999
  1
20
 50
90.0
  0
LINE
  5
104
  8
0
 62
     0
 10
831.06917451970014
 20
-196.15540646310001
 30
0.0
 11
806.56917451970003
 21
-196.15540646310001
 31
0.0
  0
LINE
  5
105
  8
0
 62
     0
 10
816.06917451970003
 20
-216.15540646310001
 30
0.0
 11
806.56917451970003
 21
-216.15540646310001
 31
0.0
  0
LINE
  5
106
  8
0
 62
     0
 10
807.06917451970014
 20
-196.15540646310001
 30
0.0
 11
807.06917451970014
 21
-202.62762879120001
 31
0.0
  0
LINE
  5
107
  8
0
 62
     0
 10
807.06917451970014
 20
-196.15540646310001
 30
0.0
 11
807.06917451970014
 21
-209.68318413489999
 31
0.0
  0
LINE
  5
108
  8
0
 62
     0
 10
807.06917451970014
 20
-216.15540646310001
 30
0.0
 11
807.06917451970014
 21
-202.62762879120001
 31
0.0
  0
LINE
  5
109
  8
0
 62
     0
 10
807.06917451970014
 20
-216.15540646310001
 30
0.0
 11
807.06917451970014
 21
-209.68318413489999
 31
0.0
  0
LINE
  5
10A
  8
0
 62
     0
 10
807.06917451970014
 20
-216.15540646310001
 30
0.0
 11
807.06917451970014
 21
-213.15540646310001
 31
0.0
  0
SOLID
  5
10B
  8
0
 62
     0
 10
807.06917451970014
 20
-216.15540646310001
 30
0.0
 11
806.31917451970003
 21
-213.15540646310001
 31
0.0
 12
807.81917451969991
 22
-213.15540646310001
 32
0.0
 13
807.06917451970014
 23
-213.90540646310001
 33
0.0
  0
LINE
  5
10C
  8
0
 62
     0
 10
807.06917451970014
 20
-196.15540646310001
 30
0.0
 11
807.06917451970014
 21
-199.15540646310001
 31
0.0
  0
SOLID
  5
10D
  8
0
 62
     0
 10
807.06917451970014
 20
-196.15540646310001
 30
0.0
 11
807.81917451969991
 21
-199.15540646310001
 31
0.0
 12
806.31917451970003
 22
-199.15540646310001
 32
0.0
 13
807.06917451970014
 23
-198.40540646310001
 33
0.0
  0
ENDBLK
  5
10E
  8
0
  0
BLOCK
  8
0
  2
*D15
 70
     1
 10
0.0
 20
0.0
 30
0.0
  3
*D15
  1

  0
TEXT
  5
112
  8
0
 62
     0
 10
805.54000786890003
 20
-183.919295299
 30
0.0
 40
2.9986110209999999
  1
28
 50
90.0
  0
LINE
  5
113
  8
0
 62
     0
 10
821.06917451969991
 20
-168.15540646310001
 30
0.0
 11
806.56917451970003
 21
-168.15540646310001
 31
0.0
  0
LINE
  5
114
  8
0
 62
     0
 10
831.06917451970014
 20
-196.15540646310001
 30
0.0
 11
806.56917451970003
 21
-196.15540646310001
 31
0.0
  0
LINE
  5
115
  8
0
 62
     0
 10
807.06917451970014
 20
-168.15540646310001
 30
0.0
 11
807.06917451970014
 21
-178.6276287911999
 31
0.0
  0
LINE
  5
116
  8
0
 62
     0
 10
807.06917451970014
 20
-168.15540646310001
 30
0.0
 11
807.06917451970014
 21
-185.68318413489999
 31
0.0
  0
LINE
  5
117
  8
0
 62
     0
 10
807.06917451970014
 20
-196.15540646310001
 30
0.0
 11
807.06917451970014
 21
-178.6276287911999
 31
0.0
  0
LINE
  5
118
  8
0
 62
     0
 10
807.06917451970014
 20
-196.15540646310001
 30
0.0
 11
807.06917451970014
 21
-185.68318413489999
 31
0.0
  0
LINE
  5
119
  8
0
 62
     0
 10
807.06917451970014
 20
-196.15540646310001
 30
0.0
 11
807.06917451970014
 21
-193.15540646310001
 31
0.0
  0
SOLID
  5
11A
  8
0
 62
     0
 10
807.06917451970014
 20
-196.15540646310001
 30
0.0
 11
806.31917451970003
 21
-193.15540646310001
 31
0.0
 12
807.81917451969991
 22
-193.15540646310001
 32
0.0
 13
807.06917451970014
 23
-193.90540646310001
 33
0.0
  0
LINE
  5
11B
  8
0
 62
     0
 10
807.06917451970014
 20
-168.15540646310001
 30
0.0
 11
807.06917451970014
 21
-171.15540646310001
 31
0.0
  0
SOLID
  5
11C
  8
0
 62
     0
 10
807.06917451970014
 20
-168.15540646310001
 30
0.0
 11
807.81917451969991
 21
-171.15540646310001
 31
0.0
 12
806.31917451970003
 22
-171.15540646310001
 32
0.0
 13
807.06917451970014
 23
-170.40540646310001
 33
0.0
  0
ENDBLK
  5
11D
  8
0
  0
BLOCK
  8
0
  2
*D16
 70
     1
 10
0.0
 20
0.0
 30
0.0
  3
*D16
  1

  0
TEXT
  5
121
  8
0
 62
     0
 10
805.54000786890003
 20
-163.919295299
 30
0.0
 40
2.9986110209999999
  1
12
 50
90.0
  0
LINE
  5
122
  8
0
 62
     0
 10
816.06917451970003
 20
-156.15540646310001
 30
0.0
 11
806.56917451970003
 21
-156.15540646310001
 31
0.0
  0
LINE
  5
123
  8
0
 62
     0
 10
821.06917451969991
 20
-168.15540646310001
 30
0.0
 11
806.56917451970003
 21
-168.15540646310001
 31
0.0
  0
LINE
  5
124
  8
0
 62
     0
 10
807.06917451970014
 20
-156.15540646310001
 30
0.0
 11
807.06917451970014
 21
-158.62762879120001
 31
0.0
  0
LINE
  5
125
  8
0
 62
     0
 10
807.06917451970014
 20
-156.15540646310001
 30
0.0
 11
807.06917451970014
 21
-165.68318413489999
 31
0.0
  0
LINE
  5
126
  8
0
 62
     0
 10
807.06917451970014
 20
-168.15540646310001
 30
0.0
 11
807.06917451970014
 21
-158.62762879120001
 31
0.0
  0
LINE
  5
127
  8
0
 62
     0
 10
807.06917451970014
 20
-168.15540646310001
 30
0.0
 11
807.06917451970014
 21
-165.68318413489999
 31
0.0
  0
LINE
  5
128
  8
0
 62
     0
 10
807.06917451970014
 20
-168.15540646310001
 30
0.0
 11
807.06917451970014
 21
-171.15540646310001
 31
0.0
  0
SOLID
  5
129
  8
0
 62
     0
 10
807.06917451970014
 20
-168.15540646310001
 30
0.0
 11
807.81917451969991
 21
-171.15540646310001
 31
0.0
 12
806.31917451970003
 22
-171.15540646310001
 32
0.0
 13
807.06917451970014
 23
-170.40540646310001
 33
0.0
  0
LINE
  5
12A
  8
0
 62
     0
 10
807.06917451970014
 20
-156.15540646310001
 30
0.0
 11
807.06917451970014
 21
-153.15540646310001
 31
0.0
  0
SOLID
  5
12B
  8
0
 62
     0
 10
807.06917451970014
 20
-156.15540646310001
 30
0.0
 11
806.31917451970003
 21
-153.15540646310001
 31
0.0
 12
807.81917451969991
 22
-153.15540646310001
 32
0.0
 13
807.06917451970014
 23
-153.90540646310001
 33
0.0
  0
ENDBLK
  5
12C
  8
0
  0
BLOCK
  8
0
  2
*D17
 70
     1
 10
0.0
 20
0.0
 30
0.0
  3
*D17
  1

  0
TEXT
  5
130
  8
0
 62
     0
 10
732.71183291259979
 20
-137.89707314559999
 30
0.0
 40
2.9986110209999999
  1
4.5t
  0
LINE
  5
131
  8
0
 62
     0
 10
728.04795056130001
 20
-155.15540646310001
 30
0.0
 11
728.04795056130001
 21
-138.9262397963999
 31
0.0
  0
LINE
  5
132
  8
0
 62
     0
 10
723.54795056130001
 20
-155.15540646310001
 30
0.0
 11
723.54795056130001
 21
-138.9262397963999
 31
0.0
  0
LINE
  5
133
  8
0
 62
     0
 10
728.04795056130001
 20
-139.42623979640001
 30
0.0
 11
741.53127709210003
 21
-139.42623979640001
 31
0.0
  0
LINE
  5
134
  8
0
 62
     0
 10
728.04795056130001
 20
-139.42623979640001
 30
0.0
 11
730.94794407669986
 21
-139.42623979640001
 31
0.0
  0
LINE
  5
135
  8
0
 62
     0
 10
723.54795056130001
 20
-139.42623979640001
 30
0.0
 11
741.53127709210003
 21
-139.42623979640001
 31
0.0
  0
LINE
  5
136
  8
0
 62
     0
 10
723.54795056130001
 20
-139.42623979640001
 30
0.0
 11
730.94794407669986
 21
-139.42623979640001
 31
0.0
  0
LINE
  5
137
  8
0
 62
     0
 10
723.54795056130001
 20
-139.42623979640001
 30
0.0
 11
720.5479505612999
 21
-139.42623979640001
 31
0.0
  0
SOLID
  5
138
  8
0
 62
     0
 10
723.54795056130001
 20
-139.42623979640001
 30
0.0
 11
720.5479505612999
 21
-140.17623979640001
 31
0.0
 12
720.5479505612999
 22
-138.67623979640001
 32
0.0
 13
721.29795056130001
 23
-139.42623979640001
 33
0.0
  0
LINE
  5
139
  8
0
 62
     0
 10
728.04795056130001
 20
-139.42623979640001
 30
0.0
 11
731.04795056130001
 21
-139.42623979640001
 31
0.0
  0
SOLID
  5
13A
  8
0
 62
     0
 10
728.04795056130001
 20
-139.42623979640001
 30
0.0
 11
731.04795056130001
 21
-138.67623979640001
 31
0.0
 12
731.04795056130001
 22
-140.17623979640001
 32
0.0
 13
730.29795056130001
 23
-139.42623979640001
 33
0.0
  0
ENDBLK
  5
13B
  8
0
  0
BLOCK
  8
0
  2
*D18
 70
     1
 10
0.0
 20
0.0
 30
0.0
  3
*D18
  1

  0
TEXT
  5
13F
  8
0
 62
     0
 10
731.78406172539985
 20
-245.0280916641
 30
0.0
 40
2.9986110209999999
  1
20
  0
LINE
  5
140
  8
0
 62
     0
 10
743.54795056130001
 20
-260.55725831490003
 30
0.0
 11
743.54795056130001
 21
-246.0572583149
 31
0.0
  0
LINE
  5
141
  8
0
 62
     0
 10
723.54795056130001
 20
-255.5572583149
 30
0.0
 11
723.54795056130001
 21
-246.0572583149
 31
0.0
  0
LINE
  5
142
  8
0
 62
     0
 10
743.54795056130001
 20
-246.5572583149
 30
0.0
 11
737.07572823309988
 21
-246.5572583149
 31
0.0
  0
LINE
  5
143
  8
0
 62
     0
 10
743.54795056130001
 20
-246.5572583149
 30
0.0
 11
730.0201728894998
 21
-246.5572583149
 31
0.0
  0
LINE
  5
144
  8
0
 62
     0
 10
723.54795056130001
 20
-246.5572583149
 30
0.0
 11
737.07572823309988
 21
-246.5572583149
 31
0.0
  0
LINE
  5
145
  8
0
 62
     0
 10
723.54795056130001
 20
-246.5572583149
 30
0.0
 11
730.0201728894998
 21
-246.5572583149
 31
0.0
  0
LINE
  5
146
  8
0
 62
     0
 10
723.54795056130001
 20
-246.5572583149
 30
0.0
 11
726.54795056130001
 21
-246.5572583149
 31
0.0
  0
SOLID
  5
147
  8
0
 62
     0
 10
723.54795056130001
 20
-246.5572583149
 30
0.0
 11
726.54795056130001
 21
-245.8072583149
 31
0.0
 12
726.54795056130001
 22
-247.3072583149
 32
0.0
 13
725.79795056130001
 23
-246.5572583149
 33
0.0
  0
LINE
  5
148
  8
0
 62
     0
 10
743.54795056130001
 20
-246.5572583149
 30
0.0
 11
740.54795056130001
 21
-246.5572583149
 31
0.0
  0
SOLID
  5
149
  8
0
 62
     0
 10
743.54795056130001
 20
-246.5572583149
 30
0.0
 11
740.54795056130001
 21
-247.3072583149
 31
0.0
 12
740.54795056130001
 22
-245.8072583149
 32
0.0
 13
741.29795056130001
 23
-246.5572583149
 33
0.0
  0
ENDBLK
  5
14A
  8
0
  0
BLOCK
  8
0
  2
*D19
 70
     1
 10
0.0
 20
0.0
 30
0.0
  3
*D19
  1

  0
TEXT
  5
14E
  8
0
 62
     0
 10
755.78406172539985
 20
-245.0280916641
 30
0.0
 40
2.9986110209999999
  1
28
  0
LINE
  5
14F
  8
0
 62
     0
 10
771.54795056130001
 20
-270.55725831490003
 30
0.0
 11
771.54795056130001
 21
-246.0572583149
 31
0.0
  0
LINE
  5
150
  8
0
 62
     0
 10
743.54795056130001
 20
-260.55725831490003
 30
0.0
 11
743.54795056130001
 21
-246.0572583149
 31
0.0
  0
LINE
  5
151
  8
0
 62
     0
 10
771.54795056130001
 20
-246.5572583149
 30
0.0
 11
761.07572823309988
 21
-246.5572583149
 31
0.0
  0
LINE
  5
152
  8
0
 62
     0
 10
771.54795056130001
 20
-246.5572583149
 30
0.0
 11
754.02017288949992
 21
-246.5572583149
 31
0.0
  0
LINE
  5
153
  8
0
 62
     0
 10
743.54795056130001
 20
-246.5572583149
 30
0.0
 11
761.07572823309988
 21
-246.5572583149
 31
0.0
  0
LINE
  5
154
  8
0
 62
     0
 10
743.54795056130001
 20
-246.5572583149
 30
0.0
 11
754.02017288949992
 21
-246.5572583149
 31
0.0
  0
LINE
  5
155
  8
0
 62
     0
 10
743.54795056130001
 20
-246.5572583149
 30
0.0
 11
746.54795056130001
 21
-246.5572583149
 31
0.0
  0
SOLID
  5
156
  8
0
 62
     0
 10
743.54795056130001
 20
-246.5572583149
 30
0.0
 11
746.54795056130001
 21
-245.8072583149
 31
0.0
 12
746.54795056130001
 22
-247.3072583149
 32
0.0
 13
745.79795056130001
 23
-246.5572583149
 33
0.0
  0
LINE
  5
157
  8
0
 62
     0
 10
771.54795056130001
 20
-246.5572583149
 30
0.0
 11
768.54795056130001
 21
-246.5572583149
 31
0.0
  0
SOLID
  5
158
  8
0
 62
     0
 10
771.54795056130001
 20
-246.5572583149
 30
0.0
 11
768.54795056130001
 21
-247.3072583149
 31
0.0
 12
768.54795056130001
 22
-245.8072583149
 32
0.0
 13
769.29795056130001
 23
-246.5572583149
 33
0.0
  0
ENDBLK
  5
159
  8
0
  0
BLOCK
  8
0
  2
*D20
 70
     1
 10
0.0
 20
0.0
 30
0.0
  3
*D20
  1

  0
TEXT
  5
15D
  8
0
 62
     0
 10
775.78406172539985
 20
-245.0280916641
 30
0.0
 40
2.9986110209999999
  1
12
  0
LINE
  5
15E
  8
0
 62
     0
 10
783.54795056130001
 20
-255.5572583149
 30
0.0
 11
783.54795056130001
 21
-246.0572583149
 31
0.0
  0
LINE
  5
15F
  8
0
 62
     0
 10
771.54795056130001
 20
-270.55725831490003
 30
0.0
 11
771.54795056130001
 21
-246.0572583149
 31
0.0
  0
LINE
  5
160
  8
0
 62
     0
 10
783.54795056130001
 20
-246.5572583149
 30
0.0
 11
781.07572823309999
 21
-246.5572583149
 31
0.0
  0
LINE
  5
161
  8
0
 62
     0
 10
783.54795056130001
 20
-246.5572583149
 30
0.0
 11
774.02017288949992
 21
-246.5572583149
 31
0.0
  0
LINE
  5
162
  8
0
 62
     0
 10
771.54795056130001
 20
-246.5572583149
 30
0.0
 11
781.07572823309999
 21
-246.5572583149
 31
0.0
  0
LINE
  5
163
  8
0
 62
     0
 10
771.54795056130001
 20
-246.5572583149
 30
0.0
 11
774.02017288949992
 21
-246.5572583149
 31
0.0
  0
LINE
  5
164
  8
0
 62
     0
 10
771.54795056130001
 20
-246.5572583149
 30
0.0
 11
768.54795056130001
 21
-246.5572583149
 31
0.0
  0
SOLID
  5
165
  8
0
 62
     0
 10
771.54795056130001
 20
-246.5572583149
 30
0.0
 11
768.54795056130001
 21
-247.3072583149
 31
0.0
 12
768.54795056130001
 22
-245.8072583149
 32
0.0
 13
769.29795056130001
 23
-246.5572583149
 33
0.0
  0
LINE
  5
166
  8
0
 62
     0
 10
783.54795056130001
 20
-246.5572583149
 30
0.0
 11
786.54795056130001
 21
-246.5572583149
 31
0.0
  0
SOLID
  5
167
  8
0
 62
     0
 10
783.54795056130001
 20
-246.5572583149
 30
0.0
 11
786.54795056130001
 21
-245.8072583149
 31
0.0
 12
786.54795056130001
 22
-247.3072583149
 32
0.0
 13
785.79795056130001
 23
-246.5572583149
 33
0.0
  0
ENDBLK
  5
168
  8
0
  0
BLOCK
  8
0
  2
*D21
 70
     1
 10
0.0
 20
0.0
 30
0.0
  3
*D21
  1

  0
TEXT
  5
16C
  8
0
 62
     0
 10
792.01878391059995
 20
-263.82114715080002
 30
0.0
 40
2.9986110209999999
  1
11
 50
90.0
  0
LINE
  5
16D
  8
0
 62
     0
 10
750.54795056130001
 20
-267.55725831490003
 30
0.0
 11
794.04795056130001
 21
-267.55725831490003
 31
0.0
  0
LINE
  5
16E
  8
0
 62
     0
 10
784.54795056130001
 20
-256.55725831490003
 30
0.0
 11
794.04795056130001
 21
-256.55725831490003
 31
0.0
  0
LINE
  5
16F
  8
0
 62
     0
 10
793.54795056130001
 20
-267.55725831490003
 30
0.0
 11
793.54795056130001
 21
-258.52948064309999
 31
0.0
  0
LINE
  5
170
  8
0
 62
     0
 10
793.54795056130001
 20
-267.55725831490003
 30
0.0
 11
793.54795056130001
 21
-265.58503598670001
 31
0.0
  0
LINE
  5
171
  8
0
 62
     0
 10
793.54795056130001
 20
-256.55725831490003
 30
0.0
 11
793.54795056130001
 21
-258.52948064309999
 31
0.0
  0
LINE
  5
172
  8
0
 62
     0
 10
793.54795056130001
 20
-256.55725831490003
 30
0.0
 11
793.54795056130001
 21
-265.58503598670001
 31
0.0
  0
LINE
  5
173
  8
0
 62
     0
 10
793.54795056130001
 20
-256.55725831490003
 30
0.0
 11
793.54795056130001
 21
-253.5572583149
 31
0.0
  0
SOLID
  5
174
  8
0
 62
     0
 10
793.54795056130001
 20
-256.55725831490003
 30
0.0
 11
792.79795056130001
 21
-253.5572583149
 31
0.0
 12
794.29795056130001
 22
-253.5572583149
 32
0.0
 13
793.54795056130001
 23
-254.3072583149
 33
0.0
  0
LINE
  5
175
  8
0
 62
     0
 10
793.54795056130001
 20
-267.55725831490003
 30
0.0
 11
793.54795056130001
 21
-270.55725831490003
 31
0.0
  0
SOLID
  5
176
  8
0
 62
     0
 10
793.54795056130001
 20
-267.55725831490003
 30
0.0
 11
794.29795056130001
 21
-270.55725831490003
 31
0.0
 12
792.79795056130001
 22
-270.55725831490003
 32
0.0
 13
793.54795056130001
 23
-269.80725831490003
 33
0.0
  0
ENDBLK
  5
177
  8
0
  0
BLOCK
  8
0
  2
*D22
 70
     1
 10
0.0
 20
0.0
 30
0.0
  3
*D22
  1

  0
TEXT
  5
17B
  8
0
 62
     0
 10
792.01878391059995
 20
-274.32114715080002
 30
0.0
 40
2.9986110209999999
  1
10
 50
90.0
  0
LINE
  5
17C
  8
0
 62
     0
 10
778.5479505612999
 20
-277.55725831490003
 30
0.0
 11
794.04795056130001
 21
-277.55725831490003
 31
0.0
  0
LINE
  5
17D
  8
0
 62
     0
 10
750.54795056130001
 20
-267.55725831490003
 30
0.0
 11
794.04795056130001
 21
-267.55725831490003
 31
0.0
  0
LINE
  5
17E
  8
0
 62
     0
 10
793.54795056130001
 20
-277.55725831490003
 30
0.0
 11
793.54795056130001
 21
-269.02948064309999
 31
0.0
  0
LINE
  5
17F
  8
0
 62
     0
 10
793.54795056130001
 20
-277.55725831490003
 30
0.0
 11
793.54795056130001
 21
-276.08503598670001
 31
0.0
  0
LINE
  5
180
  8
0
 62
     0
 10
793.54795056130001
 20
-267.55725831490003
 30
0.0
 11
793.54795056130001
 21
-269.02948064309999
 31
0.0
  0
LINE
  5
181
  8
0
 62
     0
 10
793.54795056130001
 20
-267.55725831490003
 30
0.0
 11
793.54795056130001
 21
-276.08503598670001
 31
0.0
  0
LINE
  5
182
  8
0
 62
     0
 10
793.54795056130001
 20
-267.55725831490003
 30
0.0
 11
793.54795056130001
 21
-264.55725831490003
 31
0.0
  0
SOLID
  5
183
  8
0
 62
     0
 10
793.54795056130001
 20
-267.55725831490003
 30
0.0
 11
792.79795056130001
 21
-264.55725831490003
 31
0.0
 12
794.29795056130001
 22
-264.55725831490003
 32
0.0
 13
793.54795056130001
 23
-265.30725831490003
 33
0.0
  0
LINE
  5
184
  8
0
 62
     0
 10
793.54795056130001
 20
-277.55725831490003
 30
0.0
 11
793.54795056130001
 21
-280.55725831490003
 31
0.0
  0
SOLID
  5
185
  8
0
 62
     0
 10
793.54795056130001
 20
-277.55725831490003
 30
0.0
 11
794.29795056130001
 21
-280.55725831490003
 31
0.0
 12
792.79795056130001
 22
-280.55725831490003
 32
0.0
 13
793.54795056130001
 23
-279.80725831490003
 33
0.0
  0
ENDBLK
  5
186
  8
0
  0
BLOCK
  8
0
  2
CLUMP0
 70
     0
 10
0.0
 20
0.0
 30
0.0
  3
CLUMP0
  1

  0
CIRCLE
  5
1F8
  8
┌▓È_1
 62
     5
 10
828.06917451970003
 20
-168.15540646310001
 30
0.0
 40
2.5
  0
CIRCLE
  5
1F9
  8
┌▓È_1
 62
     5
 10
828.06917451970003
 20
-168.15540646310001
 30
0.0
 40
4.25
  0
LINE
  5
1FA
  8
┌▓È_1
  6
BORDER
 62
     3
 10
834.06917451970003
 20
-168.15540646310001
 30
0.0
 11
822.06917451969991
 21
-168.15540646310001
 31
0.0
  0
LINE
  5
1FB
  8
┌▓È_1
  6
BORDER
 62
     3
 10
828.06917451970003
 20
-162.15540646310001
 30
0.0
 11
828.06917451970003
 21
-174.15540646310001
 31
0.0
  0
ENDBLK
  5
1FC
  8
0
  0
BLOCK
  8
0
  2
CLUMP1
 70
     0
 10
0.0
 20
0.0
 30
0.0
  3
CLUMP1
  1

  0
CIRCLE
  5
200
  8
┌▓È_1
 62
     5
 10
838.06917451969991
 20
-196.15540646310001
 30
0.0
 40
4.25
  0
LINE
  5
201
  8
┌▓È_1
  6
BORDER
 62
     3
 10
844.06917451970003
 20
-196.15540646310001
 30
0.0
 11
832.06917451970014
 21
-196.15540646310001
 31
0.0
  0
CIRCLE
  5
202
  8
┌▓È_1
 62
     5
 10
838.06917451969991
 20
-196.15540646310001
 30
0.0
 40
2.5
  0
LINE
  5
203
  8
┌▓È_1
  6
BORDER
 62
     3
 10
838.06917451969991
 20
-190.15540646310001
 30
0.0
 11
838.06917451969991
 21
-202.15540646310001
 31
0.0
  0
ENDBLK
  5
204
  8
0
  0
BLOCK
  8
0
  2
CLUMP2
 70
     0
 10
0.0
 20
0.0
 30
0.0
  3
CLUMP2
  1

  0
CIRCLE
  5
20D
  8
┌▓È_1
 62
     5
 10
771.54795056130001
 20
-277.55725831490003
 30
0.0
 40
2.5
  0
CIRCLE
  5
20E
  8
┌▓È_1
 62
     5
 10
771.54795056130001
 20
-277.55725831490003
 30
0.0
 40
4.25
  0
LINE
  5
20F
  8
┌▓È_1
  6
BORDER
 62
     3
 10
765.54795056130001
 20
-277.55725831490003
 30
0.0
 11
777.54795056130001
 21
-277.55725831490003
 31
0.0
  0
LINE
  5
210
  8
┌▓È_1
  6
BORDER
 62
     3
 10
771.54795056130001
 20
-283.55725831490003
 30
0.0
 11
771.54795056130001
 21
-271.55725831490003
 31
0.0
  0
ENDBLK
  5
211
  8
0
  0
BLOCK
  8
0
  2
CLUMP3
 70
     0
 10
0.0
 20
0.0
 30
0.0
  3
CLUMP3
  1

  0
CIRCLE
  5
215
  8
┌▓È_1
 62
     5
 10
743.54795056130001
 20
-267.55725831490003
 30
0.0
 40
4.25
  0
CIRCLE
  5
216
  8
┌▓È_1
 62
     5
 10
743.54795056130001
 20
-267.55725831490003
 30
0.0
 40
2.5
  0
LINE
  5
217
  8
┌▓È_1
  6
BORDER
 62
     3
 10
743.54795056130001
 20
-273.55725831490003
 30
0.0
 11
743.54795056130001
 21
-261.55725831490003
 31
0.0
  0
LINE
  5
218
  8
┌▓È_1
  6
BORDER
 62
     3
 10
737.54795056130001
 20
-267.55725831490003
 30
0.0
 11
749.5479505612999
 21
-267.55725831490003
 31
0.0
  0
ENDBLK
  5
219
  8
0
  0
BLOCK
  8
0
  2
*U27
 70
     1
 10
0.0
 20
0.0
 30
0.0
  3
*U27
  1

  0
TEXT
  5
26C
  8
┌▓È_1
  6
CONTINUOUS
 10
854.59079374699991
 20
-289.24823068522898
 30
0.0
 40
3.5983331442000002
  1
ò\û╩ÅêùØüFâåâjâNâìâüâbâLÄdÅÒé░
  0
ENDBLK
  5
26E
  8
0
  0
BLOCK
  8
0
  2
*U28
 70
     1
 10
0.0
 20
0.0
 30
0.0
  3
*U28
  1

  0
TEXT
  5
270
  8
┌▓È_1
  6
CONTINUOUS
 10
905.31751536218076
 20
-243.42890384701121
 30
0.0
 40
2.9986110209999999
  1
ÄMâéâ~òöègæÕÉ}
  0
ENDBLK
  5
272
  8
0
  0
BLOCK
  8
0
  2
*D29
 70
     1
 10
0.0
 20
0.0
 30
0.0
  3
*D29
  1

  0
LINE
  5
275
  8
Éíû@É³
 62
     0
 10
937.39457493682414
 20
-187.0768405366758
 30
0.0
 11
954.05961614517571
 21
-170.41179932832401
 31
0.0
  0
LINE
  5
276
  8
Éíû@É³
 62
     0
 10
893.7455264173758
 20
-187.0768405366758
 30
0.0
 11
877.08048520902412
 21
-170.41179932832421
 31
0.0
  0
ARC
  5
277
  8
Éíû@É³
 62
     0
 10
915.57005067710008
 20
-208.9013647964
 30
0.0
 40
53.182465494799999
 50
48.232458946414191
 51
84.997041013620844
  0
ARC
  5
278
  8
Éíû@É³
 62
     0
 10
915.57005067710008
 20
-208.9013647964
 30
0.0
 40
53.182465494799999
 50
95.002958986379127
 51
131.76754105358609
  0
SOLID
  5
279
  8
Éíû@É³
 62
     0
 10
951.33886571232983
 20
-168.8716531464444
 30
0.0
 11
950.65198403698855
 21
-169.5984224111223
 31
0.0
 12
953.17573266869272
 22
-171.2956828048072
 32
0.0
 13
953.17573266869272
 23
-171.2956828048072
 33
0.0
  0
SOLID
  5
27A
  8
Éíû@É³
 62
     0
 10
880.48811731721139
 20
-169.59842241112241
 30
0.0
 11
879.80123564186999
 21
-168.8716531464446
 31
0.0
 12
877.96436868550745
 22
-171.2956828048074
 32
0.0
 13
877.96436868550745
 23
-171.2956828048074
 33
0.0
  0
TEXT
  8
Éíû@É³
  40
2.99861
  5
2E2
  62
0
  72
0
  71
0
 10
909.573
 20
-161.026
 30
0.000000
  1
90üï
  0
POINT
  5
27C
  8
Defpoints
 62
     0
 10
915.57005067710008
 20
-208.9013647964
 30
0.0
  0
POINT
  5
27D
  8
Defpoints
 62
     0
 10
937.35038076299986
 20
-187.1210347105
 30
0.0
  0
POINT
  5
27E
  8
Defpoints
 62
     0
 10
893.78972059119985
 20
-187.1210347105
 30
0.0
  0
POINT
  5
27F
  8
Defpoints
 62
     0
 10
929.33468561266181
 20
-157.53104786924541
 30
0.0
  0
ENDBLK
  5
281
  8
0
  0
BLOCK
  8
0
  2
*D30
 70
     1
 10
0.0
 20
0.0
 30
0.0
  3
*D30
  1

  0
LINE
  5
283
  8
Éíû@É³
 62
     0
 10
893.7455264173758
 20
-210.7258890561242
 30
0.0
 11
883.08425635738774
 21
-221.3871591161122
 31
0.0
  0
LINE
  5
284
  8
Éíû@É³
 62
     0
 10
937.39457493682414
 20
-210.7258890561242
 30
0.0
 11
948.05584499681231
 21
-221.3871591161124
 31
0.0
  0
ARC
  5
285
  8
Éíû@É³
 62
     0
 10
915.57005067710008
 20
-188.9013647964
 30
0.0
 40
44.691850911399989
 50
228.84677794391459
 51
264.04341077761438
  0
ARC
  5
286
  8
Éíû@É³
 62
     0
 10
915.57005067710008
 20
-188.9013647964
 30
0.0
 40
44.691850911399989
 50
275.95658922238562
 51
311.15322205608499
  0
SOLID
  5
287
  8
Éíû@É³
 62
     0
 10
885.81797542118727
 20
-222.917423170311
 30
0.0
 11
886.50095107506695
 21
-222.1869820322255
 31
0.0
 12
883.96813983387085
 22
-220.50327563962909
 32
0.0
 13
883.96813983387085
 23
-220.50327563962909
 33
0.0
  0
SOLID
  5
288
  8
Éíû@É³
 62
     0
 10
944.63915027913276
 20
-222.1869820322257
 30
0.0
 11
945.32212593301256
 21
-222.91742317031111
 31
0.0
 12
947.17196152032909
 22
-220.50327563962921
 32
0.0
 13
947.17196152032909
 23
-220.50327563962921
 33
0.0
  0
TEXT
  8
Éíû@É³
  40
2.99861
  5
2E3
  62
0
  72
0
  71
0
 10
909.573
 20
-238.901
 30
0.000000
  1
90üï
  0
POINT
  5
28A
  8
Defpoints
 62
     0
 10
915.57005067710008
 20
-188.9013647964
 30
0.0
  0
POINT
  5
28B
  8
Defpoints
 62
     0
 10
893.78972059119985
 20
-210.68169488230001
 30
0.0
  0
POINT
  5
28C
  8
Defpoints
 62
     0
 10
937.35038076299986
 20
-210.68169488230001
 30
0.0
  0
POINT
  5
28D
  8
Defpoints
 62
     0
 10
904.0029485003472
 20
-232.07037781638189
 30
0.0
  0
ENDBLK
  5
28F
  8
0
  0
BLOCK
  8
0
  2
*D31
 70
     1
 10
0.0
 20
0.0
 30
0.0
  3
*D31
  1

  0
LINE
  5
291
  8
Éíû@É³
 62
     0
 10
783.48545056130001
 20
-211.65540646310001
 30
0.0
 11
755.62236051652656
 21
-211.65540646310001
 31
0.0
  0
LINE
  5
292
  8
Éíû@É³
 62
     0
 10
728.04795056130001
 20
-156.21790646310001
 30
0.0
 11
728.04795056130001
 21
-184.08099650787341
 31
0.0
  0
ARC
  5
293
  8
Éíû@É³
 62
     0
 10
728.04795056130001
 20
-211.65540646310009
 30
0.0
 40
28.82440995522656
 50
5.965950883666669
 51
35.955236596826992
  0
ARC
  5
294
  8
Éíû@É³
 62
     0
 10
728.04795056130001
 20
-211.65540646310009
 30
0.0
 40
28.82440995522656
 50
54.473699734583143
 51
84.034049116333406
  0
SOLID
  5
295
  8
Éíû@É³
 62
     0
 10
757.21556535760556
 20
-208.6334517253417
 30
0.0
 11
756.21692031611224
 21
-208.68549095189761
 31
0.0
 12
756.87236051652656
 22
-211.65540646310001
 32
0.0
 13
756.87236051652656
 23
-211.65540646310001
 33
0.0
  0
SOLID
  5
296
  8
Éíû@É³
 62
     0
 10
731.01786607250233
 20
-183.4864367082879
 30
0.0
 11
731.06990529905829
 21
-182.48779166679441
 31
0.0
 12
728.04795056130001
 22
-182.83099650787341
 32
0.0
 13
728.04795056130001
 23
-182.83099650787341
 33
0.0
  0
TEXT
  8
Éíû@É³
  40
2.99861
  5
2E4
  62
0
  72
0
  71
0
 10
742.356
 20
-196.505
 30
0.000000
  1
90üï
  0
POINT
  5
298
  8
Defpoints
 62
     0
 10
728.04795056130001
 20
-211.65540646310009
 30
0.0
  0
POINT
  5
299
  8
Defpoints
 62
     0
 10
783.54795056130001
 20
-211.65540646309989
 30
0.0
  0
POINT
  5
29A
  8
Defpoints
 62
     0
 10
728.04795056130001
 20
-156.15540646310009
 30
0.0
  0
POINT
  5
29B
  8
Defpoints
 62
     0
 10
753.01062183162321
 20
-197.24320148548671
 30
0.0
  0
ENDBLK
  5
29D
  8
0
  0
BLOCK
  8
0
  2
*U32
 70
     1
 10
0.0
 20
0.0
 30
0.0
  3
*U32
  1

  0
TEXT
  5
29F
  8
┌▓È_1
  6
CONTINUOUS
 10
933.99594201490004
 20
-305.47841739866351
 30
0.0
 40
3.5983331442000002
  1
ékî^âAâôâOâï
  0
ENDBLK
  5
2A1
  8
0
  0
BLOCK
  8
0
  2
*U33
 70
     1
 10
0.0
 20
0.0
 30
0.0
  3
*U33
  1

  0
TEXT
  5
2A3
  8
┌▓È_1
  6
CONTINUOUS
 10
932.47089774448386
 20
-296.71653587290001
 30
0.0
 40
3.5983331442000002
  1
LY-201  60x60
  0
ENDBLK
  5
2A5
  8
0
  0
BLOCK
  8
0
  2
*U34
 70
     1
 10
0.0
 20
0.0
 30
0.0
  3
*U34
  1

  0
TEXT
  5
2A7
  8
┌▓È_1
  6
CONTINUOUS
 10
861.81134747179988
 20
-313.92186485196652
 30
0.0
 40
4.3179999351999987
  1
èöÄ«ë´Äð
  0
ENDBLK
  5
2A9
  8
0
  0
BLOCK
  8
0
  2
*U35
 70
     1
 10
0.0
 20
0.0
 30
0.0
  3
*U35
  1

  0
TEXT
  5
2AB
  8
┌▓È_1
  6
CONTINUOUS
 10
903.05617955829996
 20
-293.84297869996863
 30
0.0
 40
2.337499999999999
  1
ü@îƒ ü@ê¾
  0
ENDBLK
  5
2AD
  8
0
  0
BLOCK
  8
0
  2
*U36
 70
     1
 10
0.0
 20
0.0
 30
0.0
  3
*U36
  1

  0
TEXT
  5
2AF
  8
┌▓È_1
  6
CONTINUOUS
 10
887.05617955829996
 20
-302.33111321773498
 30
0.0
 40
2.337499999999999
  1
ü@Ä┌ ü@ôx
  0
ENDBLK
  5
2B1
  8
0
  0
BLOCK
  8
0
  2
*U37
 70
     1
 10
0.0
 20
0.0
 30
0.0
  3
*U37
  1

  0
TEXT
  5
2B3
  8
┌▓È_1
  6
CONTINUOUS
 10
887.05617955829996
 20
-293.84297869996863
 30
0.0
 40
2.337499999999999
  1
ü@ö┬ ü@î·
  0
ENDBLK
  5
2B5
  8
0
  0
BLOCK
  8
0
  2
*U38
 70
     1
 10
0.0
 20
0.0
 30
0.0
  3
*U38
  1

  0
TEXT
  5
2B7
  8
┌▓È_1
  6
CONTINUOUS
 10
871.05617955829996
 20
-293.79551677103461
 30
0.0
 40
2.337499999999999
  1
ü@ìÌ ü@Ä┐
  0
ENDBLK
  5
2B9
  8
0
  0
BLOCK
  8
0
  2
*U39
 70
     1
 10
0.0
 20
0.0
 30
0.0
  3
*U39
  1

  0
TEXT
  5
2BB
  8
┌▓È_1
  6
CONTINUOUS
 62
     5
 10
891.70154882314216
 20
-306.46245839540001
 30
0.0
 40
2.337499999999999
  1
1üF1
  0
ENDBLK
  5
2BD
  8
0
  0
BLOCK
  8
0
  2
*U40
 70
     1
 10
0.0
 20
0.0
 30
0.0
  3
*U40
  1

  0
TEXT
  5
2BF
  8
┌▓È_1
  6
CONTINUOUS
 62
     5
 10
891.59475948304055
 20
-297.96245839540001
 30
0.0
 40
2.337499999999999
  1
4.5t
  0
ENDBLK
  5
2C1
  8
0
  0
BLOCK
  8
0
  2
*U41
 70
     1
 10
0.0
 20
0.0
 30
0.0
  3
*U41
  1

  0
TEXT
  5
2C3
  8
┌▓È_1
  6
CONTINUOUS
 62
     5
 10
877.19066684344659
 20
-298.1048441822021
 30
0.0
 40
2.337499999999999
  1
ôS
  0
ENDBLK
  5
2C5
  8
0
  0
BLOCK
  8
0
  2
*U42
 70
     1
 10
0.0
 20
0.0
 30
0.0
  3
*U42
  1

  0
TEXT
  5
2C7
  8
┌▓È_1
  6
CONTINUOUS
 62
     5
 10
858.77604120892897
 20
-297.96245839540001
 30
0.0
 40
2.337499999999999
  1
H16.4
  0
ENDBLK
  5
2C9
  8
0
  0
BLOCK
  8
0
  2
*U43
 70
     1
 10
0.0
 20
0.0
 30
0.0
  3
*U43
  1

  0
TEXT
  5
2CB
  8
┌▓È_1
  6
CONTINUOUS
 10
919.48129320069995
 20
-310.76661815630098
 30
0.0
 40
2.337499999999999
  1
É}öÈ
  0
ENDBLK
  5
2CD
  8
0
  0
BLOCK
  8
0
  2
*U44
 70
     1
 10
0.0
 20
0.0
 30
0.0
  3
*U44
  1

  0
TEXT
  5
2CF
  8
┌▓È_1
  6
CONTINUOUS
 10
919.48129320069995
 20
-302.29034912076798
 30
0.0
 40
2.337499999999999
  1
òiû╝
  0
ENDBLK
  5
2D1
  8
0
  0
BLOCK
  8
0
  2
*U45
 70
     1
 10
0.0
 20
0.0
 30
0.0
  3
*U45
  1

  0
TEXT
  5
2D3
  8
┌▓È_1
  6
CONTINUOUS
 10
919.48129320069995
 20
-293.76661815630098
 30
0.0
 40
2.337499999999999
  1
î^öÈ
  0
ENDBLK
  5
2D5
  8
0
  0
BLOCK
  8
0
  2
*U46
 70
     1
 10
0.0
 20
0.0
 30
0.0
  3
*U46
  1

  0
TEXT
  5
2D7
  8
┌▓È_1
  6
CONTINUOUS
 10
855.05617955829996
 20
-293.75992032433402
 30
0.0
 40
2.337499999999999
  1
ü@ô· ü@òt
  0
ENDBLK
  5
2D9
  8
0
  0
BLOCK
  8
0
  2
*U47
 70
     1
 10
0.0
 20
0.0
 30
0.0
  3
*U47
  1

  0
TEXT
  5
2DB
  8
┌▓È_1
  6
CONTINUOUS
 10
854.59079374699991
 20
-306.6048441822021
 30
0.0
 40
2.337499999999999
  1
 É╗É}ü@ü@ è¦û{
  0
ENDBLK
  5
2DD
  8
0
  0
BLOCK
  8
0
  2
*U48
 70
     1
 10
0.0
 20
0.0
 30
0.0
  3
*U48
  1

  0
TEXT
  5
2DF
  8
┌▓È_1
  6
CONTINUOUS
 10
854.59079374699991
 20
-302.34297869996863
 30
0.0
 40
2.337499999999999
  1
 É¦îvü@ü@öÆÉ{ëÛ
  0
ENDBLK
  5
2E1
  8
0
  0
ENDSEC
  0
SECTION
  2
ENTITIES
  0
DIMENSION
  5
3E
  8
Éíû@É³
  2
*D0
 10
793.54795056130001
 20
-288.55725831490003
 30
0.0
 11
793.54795056130001
 21
-283.05725831490003
 31
0.0
 70
   128
  1
<>
 13
783.54795056130001
 23
-288.55725831490003
 33
0.0
 14
777.54795056130001
 24
-277.55725831490003
 34
0.0
 50
90.0
  0
INSERT
  5
40
  8
0
  6
CONTINUOUS
  2
*U27
 10
0.0
 20
0.0
 30
0.0
  0
LINE
  5
41
  8
┌▓È_1
 10
903.91862015770005
 20
-244.9072900061
 30
0.0
 11
933.1423063556
 21
-244.9072900061
 31
0.0
  0
INSERT
  5
42
  8
0
  6
CONTINUOUS
  2
*U28
 10
0.0
 20
0.0
 30
0.0
  0
DIMENSION
  5
50
  8
Éíû@É³
  2
*D29
 10
929.33468561266181
 20
-157.53104786924541
 30
0.0
 11
915.57005067710008
 21
-155.7188993016
 31
0.0
 70
   133
  1
<>
 13
893.78972059119985
 23
-187.1210347105
 33
0.0
 14
937.35038076299986
 24
-187.1210347105
 34
0.0
 15
915.57005067710008
 25
-208.9013647964
 35
0.0
1001
ACAD
1000
DSTYLE
1002
{
1070
   271
1070
     0
1002
}
  0
DIMENSION
  5
5D
  8
Éíû@É³
  2
*D30
 10
904.0029485003472
 20
-232.07037781638189
 30
0.0
 11
915.57005067710008
 21
-233.5932157078
 31
0.0
 70
   133
  1
<>
 13
937.35038076299986
 23
-210.68169488230001
 33
0.0
 14
893.78972059119985
 24
-210.68169488230001
 34
0.0
 15
915.57005067710008
 25
-188.9013647964
 35
0.0
1001
ACAD
1000
DSTYLE
1002
{
1070
   271
1070
     0
1002
}
  0
DIMENSION
  5
6A
  8
Éíû@É³
  2
*D31
 10
753.01062183162321
 20
-197.24320148548671
 30
0.0
 11
748.35345052809987
 21
-191.1973205222001
 31
0.0
 70
   133
  1
<>
 13
728.04795056130001
 23
-156.15540646310001
 33
0.0
 14
783.54795056130001
 24
-211.65540646310001
 34
0.0
 15
728.04795056130001
 25
-211.65540646310001
 35
0.0
1001
ACAD
1000
DSTYLE
1002
{
1070
   271
1070
     0
1002
}
  0
DIMENSION
  5
79
  8
Éíû@É³
  2
*D4
 10
936.82005067710008
 20
-165.1322782078
 30
0.0
 11
915.57005067710008
 21
-165.1322782078
 31
0.0
 70
   128
  1
%%c8.5
 13
936.82005067710008
 23
-187.6513647964
 33
0.0
 14
894.32005067710008
 24
-187.6513647964
 34
0.0
  0
DIMENSION
  5
88
  8
Éíû@É³
  2
*D5
 10
928.07005067710008
 20
-175.4014188328
 30
0.0
 11
915.57005067710008
 21
-175.4014188328
 31
0.0
 70
   128
  1
%%c5
 13
928.07005067710008
 23
-196.4013647964
 33
0.0
 14
903.07005067710008
 24
-196.4013647964
 34
0.0
  0
DIMENSION
  5
97
  8
Éíû@É³
  2
*D6
 10
894.32005067710008
 20
-221.3272977391
 30
0.0
 11
915.57005067710008
 21
-221.3272977391
 31
0.0
 70
   128
  1
%%c8.5
 13
894.32005067710008
 23
-210.1513647964
 33
0.0
 14
936.82005067710008
 24
-210.1513647964
 34
0.0
 50
180.0
  0
DIMENSION
  5
A6
  8
Éíû@É³
  2
*D7
 10
723.54795056130001
 20
-226.15540646310001
 30
0.0
 11
753.5479505612999
 21
-226.15540646310001
 31
0.0
 70
   128
  1
<>
 13
723.54795056130001
 23
-211.65540646310001
 33
0.0
 14
783.54795056130001
 24
-216.15540646310001
 34
0.0
 50
180.0
  0
DIMENSION
  5
B5
  8
Éíû@É³
  2
*D8
 10
849.06917451970003
 20
-137.77259396310001
 30
0.0
 11
833.06917451970003
 21
-137.77259396310001
 31
0.0
 70
   128
  1
<>
 13
849.06917451970003
 23
-156.15540646310001
 33
0.0
 14
817.06917451970003
 24
-156.15540646310001
 34
0.0
  0
DIMENSION
  5
C4
  8
Éíû@É³
  2
*D9
 10
713.54795056130001
 20
-156.15540646310001
 30
0.0
 11
713.54795056130001
 21
-186.15540646310001
 31
0.0
 70
   128
  1
<>
 13
723.54795056130001
 23
-156.15540646310001
 33
0.0
 14
728.04795056130001
 24
-216.15540646310001
 34
0.0
 50
90.0
  0
DIMENSION
  5
D3
  8
Éíû@É³
  2
*D10
 10
713.54795056130001
 20
-256.55725831490003
 30
0.0
 11
713.54795056130001
 21
-272.55725831490003
 31
0.0
 70
   128
  1
<>
 13
723.54795056130001
 23
-256.55725831490003
 33
0.0
 14
723.54795056130001
 24
-288.55725831490003
 34
0.0
 50
90.0
  0
DIMENSION
  5
E2
  8
Éíû@É³
  2
*D11
 10
828.06917451970003
 20
-146.15540646310001
 30
0.0
 11
822.56917451970003
 21
-146.15540646310001
 31
0.0
 70
   128
  1
<>
 13
828.06917451970003
 23
-162.15540646310001
 33
0.0
 14
817.06917451970003
 24
-156.15540646310001
 34
0.0
  0
DIMENSION
  5
F1
  8
Éíû@É³
  2
*D12
 10
838.06917451969991
 20
-146.15540646310001
 30
0.0
 11
833.06917451970003
 21
-146.15540646310001
 31
0.0
 70
   128
  1
<>
 13
838.06917451969991
 23
-190.15540646310001
 33
0.0
 14
828.06917451970003
 24
-162.15540646310001
 34
0.0
  0
DIMENSION
  5
100
  8
Éíû@É³
  2
*D13
 10
849.06917451970003
 20
-146.15540646310001
 30
0.0
 11
843.56917451970014
 21
-146.15540646310001
 31
0.0
 70
   128
  1
<>
 13
849.06917451970003
 23
-156.15540646310001
 33
0.0
 14
838.06917451969991
 24
-190.15540646310001
 34
0.0
  0
DIMENSION
  5
10F
  8
Éíû@É³
  2
*D14
 10
807.06917451970014
 20
-196.15540646310001
 30
0.0
 11
807.06917451970014
 21
-206.15540646310001
 31
0.0
 70
   128
  1
<>
 13
832.06917451970014
 23
-196.15540646310001
 33
0.0
 14
817.06917451970003
 24
-216.15540646310001
 34
0.0
 50
90.0
  0
DIMENSION
  5
11E
  8
Éíû@É³
  2
*D15
 10
807.06917451970014
 20
-168.15540646310001
 30
0.0
 11
807.06917451970014
 21
-182.15540646310001
 31
0.0
 70
   128
  1
<>
 13
822.06917451969991
 23
-168.15540646310001
 33
0.0
 14
832.06917451970014
 24
-196.15540646310001
 34
0.0
 50
90.0
  0
DIMENSION
  5
12D
  8
Éíû@É³
  2
*D16
 10
807.06917451970014
 20
-156.15540646310001
 30
0.0
 11
807.06917451970014
 21
-162.15540646310001
 31
0.0
 70
   128
  1
<>
 13
817.06917451970003
 23
-156.15540646310001
 33
0.0
 14
822.06917451969991
 24
-168.15540646310001
 34
0.0
 50
90.0
  0
DIMENSION
  5
13C
  8
Éíû@É³
  2
*D17
 10
728.04795056130001
 20
-139.42623979640001
 30
0.0
 11
736.23961058439988
 21
-139.42623979640001
 31
0.0
 70
   128
  1
<>t
 13
728.04795056130001
 23
-156.15540646310001
 33
0.0
 14
723.54795056130001
 24
-156.15540646310001
 34
0.0
  0
DIMENSION
  5
14B
  8
Éíû@É³
  2
*D18
 10
743.54795056130001
 20
-246.5572583149
 30
0.0
 11
733.54795056130001
 21
-246.5572583149
 31
0.0
 70
   128
  1
<>
 13
743.54795056130001
 23
-261.55725831490003
 33
0.0
 14
723.54795056130001
 24
-256.55725831490003
 34
0.0
  0
DIMENSION
  5
15A
  8
Éíû@É³
  2
*D19
 10
771.54795056130001
 20
-246.5572583149
 30
0.0
 11
757.5479505612999
 21
-246.5572583149
 31
0.0
 70
   128
  1
<>
 13
771.54795056130001
 23
-271.55725831490003
 33
0.0
 14
743.54795056130001
 24
-261.55725831490003
 34
0.0
  0
DIMENSION
  5
169
  8
Éíû@É³
  2
*D20
 10
783.54795056130001
 20
-246.5572583149
 30
0.0
 11
777.54795056130001
 21
-246.5572583149
 31
0.0
 70
   128
  1
<>
 13
783.54795056130001
 23
-256.55725831490003
 33
0.0
 14
771.54795056130001
 24
-271.55725831490003
 34
0.0
  0
DIMENSION
  5
178
  8
Éíû@É³
  2
*D21
 10
793.54795056130001
 20
-267.55725831490003
 30
0.0
 11
793.54795056130001
 21
-262.05725831490003
 31
0.0
 70
   128
  1
<>
 13
749.5479505612999
 23
-267.55725831490003
 33
0.0
 14
783.54795056130001
 24
-256.55725831490003
 34
0.0
 50
90.0
  0
DIMENSION
  5
187
  8
Éíû@É³
  2
*D22
 10
793.54795056130001
 20
-277.55725831490003
 30
0.0
 11
793.54795056130001
 21
-272.55725831490003
 31
0.0
 70
   128
  1
<>
 13
777.54795056130001
 23
-277.55725831490003
 33
0.0
 14
749.5479505612999
 24
-267.55725831490003
 34
0.0
 50
90.0
  0
LINE
  5
188
  8
┌▓È_1
 62
     5
 10
910.95523756490002
 20
-310.40128661450001
 30
0.0
 11
910.83812216479998
 21
-309.99430350209991
 31
0.0
  0
LINE
  5
189
  8
┌▓È_1
 62
     5
 10
904.91647996149993
 20
-309.0412866145
 30
0.0
 11
897.71647996149977
 21
-309.0412866145
 31
0.0
  0
LINE
  5
18A
  8
┌▓È_1
 62
     5
 10
888.78799511300008
 20
-313.0412866145
 30
0.0
 11
890.78799511299997
 21
-313.0412866145
 31
0.0
  0
LINE
  5
18B
  8
┌▓È_1
 62
     5
 10
894.38799511299999
 20
-310.24128661449998
 30
0.0
 11
895.58799511300003
 21
-309.0412866145
 31
0.0
  0
LINE
  5
18C
  8
┌▓È_1
 62
     5
 10
909.29953274679985
 20
-312.48128661449999
 30
0.0
 11
909.11179941339981
 21
-311.84128661450001
 31
0.0
  0
LINE
  5
18D
  8
┌▓È_1
 62
     5
 10
699.59079374700002
 20
-316.169424988
 30
0.0
 11
974.59079374700013
 21
-316.169424988
 31
0.0
  0
LINE
  5
18E
  8
┌▓È_1
 62
     5
 10
699.59079374700002
 20
-126.169424988
 30
0.0
 11
974.59079374700013
 21
-126.169424988
 31
0.0
  0
LINE
  5
18F
  8
┌▓È_1
 62
     5
 10
699.59079374700002
 20
-316.169424988
 30
0.0
 11
699.59079374700002
 21
-126.169424988
 31
0.0
  0
LINE
  5
190
  8
┌▓È_1
 62
     5
 10
974.59079374700013
 20
-316.169424988
 30
0.0
 11
974.59079374700013
 21
-126.169424988
 31
0.0
  0
LINE
  5
191
  8
┌▓È_1
 62
     5
 10
904.11647996149998
 20
-310.24128661449998
 30
0.0
 11
904.91647996149993
 21
-309.0412866145
 31
0.0
  0
LINE
  5
192
  8
┌▓È_1
 62
     5
 10
911.36961882829985
 20
-311.84128661450001
 30
0.0
 11
913.89046608009994
 21
-311.84128661450001
 31
0.0
  0
LINE
  5
193
  8
┌▓È_1
 62
     5
 10
892.38799511299999
 20
-309.0412866145
 30
0.0
 11
892.38799511299999
 21
-310.64128661450002
 31
0.0
  0
ARC
  5
194
  8
┌▓È_1
 62
     5
 10
891.18799511300006
 20
-312.24128661449998
 30
0.0
 40
1.1999999999999991
 50
270.0
 51
0.0
  0
LINE
  5
195
  8
┌▓È_1
 62
     5
 10
901.34552995479987
 20
-311.85654333859998
 30
0.0
 11
901.15305330980004
 21
-312.06913402700002
 31
0.0
  0
LINE
  5
196
  8
┌▓È_1
 62
     5
 10
897.71647996149977
 20
-310.8989748285
 30
0.0
 11
900.91647996150004
 21
-310.8989748285
 31
0.0
  0
LINE
  5
197
  8
┌▓È_1
 62
     5
 10
894.38799511299999
 20
-312.24128661449998
 30
0.0
 11
894.38799511299999
 21
-311.84128661450001
 31
0.0
  0
LINE
  5
198
  8
┌▓È_1
 62
     5
 10
906.69046608009978
 20
-310.40128661450001
 30
0.0
 11
906.69046608009978
 21
-311.84128661450001
 31
0.0
  0
LINE
  5
199
  8
┌▓È_1
 10
902.59079374700002
 20
-290.669424988
 30
0.0
 11
902.59079374700002
 21
-307.669424988
 31
0.0
  0
LINE
  5
19A
  8
┌▓È_1
 10
870.59079374700002
 20
-290.669424988
 30
0.0
 11
870.59079374700002
 21
-299.169424988
 31
0.0
  0
LINE
  5
19B
  8
┌▓È_1
 10
854.59079374699991
 20
-307.669424988
 30
0.0
 11
974.59079374700013
 21
-307.669424988
 31
0.0
  0
LINE
  5
19C
  8
┌▓È_1
 10
854.59079374699991
 20
-290.669424988
 30
0.0
 11
974.59079374700013
 21
-290.669424988
 31
0.0
  0
LINE
  5
19D
  8
┌▓È_1
 10
918.59079374700002
 20
-290.669424988
 30
0.0
 11
918.59079374700002
 21
-316.169424988
 31
0.0
  0
LINE
  5
19E
  8
┌▓È_1
 10
854.59079374699991
 20
-290.669424988
 30
0.0
 11
854.59079374699991
 21
-316.169424988
 31
0.0
  0
INSERT
  5
19F
  8
0
  6
CONTINUOUS
  2
*U32
 10
0.0
 20
0.0
 30
0.0
  0
INSERT
  5
1A0
  8
0
  6
CONTINUOUS
  2
*U33
 10
0.0
 20
0.0
 30
0.0
  0
LINE
  5
1A1
  8
┌▓È_1
 62
     5
 10
910.95523756490002
 20
-310.40128661450001
 30
0.0
 11
913.89046608009994
 21
-310.40128661450001
 31
0.0
  0
INSERT
  5
1A2
  8
0
  6
CONTINUOUS
  2
*U34
 10
0.0
 20
0.0
 30
0.0
  0
LINE
  5
1A3
  8
┌▓È_1
 62
     5
 10
888.78799511300008
 20
-311.84128661450001
 30
0.0
 11
888.78799511300008
 21
-313.0412866145
 31
0.0
  0
LINE
  5
1A4
  8
┌▓È_1
 62
     5
 10
903.20665544320013
 20
-312.92059158170002
 30
0.0
 11
903.06417379530012
 21
-313.06009409699999
 31
0.0
  0
ARC
  5
1A5
  8
┌▓È_1
 62
     5
 10
898.67647996149992
 20
-310.40128661450001
 30
0.0
 40
3.04
 50
270.0
 51
298.08590481520002
  0
LINE
  5
1A6
  8
┌▓È_1
 62
     5
 10
897.71647996149977
 20
-313.44128661449997
 30
0.0
 11
897.71647996149977
 21
-314.64128661450002
 31
0.0
  0
LINE
  5
1A7
  8
┌▓È_1
 62
     5
 10
897.71647996149977
 20
-313.44128661449997
 30
0.0
 11
898.67647996149992
 21
-313.44128661449997
 31
0.0
  0
LINE
  5
1A8
  8
┌▓È_1
 62
     5
 10
908.2904660800998
 20
-309.0412866145
 30
0.0
 11
911.49046608009996
 21
-309.0412866145
 31
0.0
  0
LINE
  5
1A9
  8
┌▓È_1
 62
     5
 10
904.11647996149998
 20
-310.24128661449998
 30
0.0
 11
904.91647996149993
 21
-309.0412866145
 31
0.0
  0
LINE
  5
1AA
  8
┌▓È_1
 62
     5
 10
888.78799511300008
 20
-314.64128661450002
 30
0.0
 11
891.9879951129999
 21
-314.64128661450002
 31
0.0
  0
LINE
  5
1AB
  8
┌▓È_1
 62
     5
 10
897.71647996149977
 20
-314.64128661450002
 30
0.0
 11
899.71647996149989
 21
-314.64128661450002
 31
0.0
  0
ARC
  5
1AC
  8
┌▓È_1
 62
     5
 10
898.67647996149992
 20
-310.40128661450001
 30
0.0
 40
3.04
 50
331.39928138329998
 51
358.49204224580001
  0
LINE
  5
1AD
  8
┌▓È_1
 62
     5
 10
894.38799511299999
 20
-311.84128661450001
 30
0.0
 11
895.58799511300003
 21
-311.84128661450001
 31
0.0
  0
ARC
  5
1AE
  8
┌▓È_1
 62
     5
 10
899.71647996149989
 20
-310.24128661449998
 30
0.0
 40
4.4000000000000004
 50
270.0
 51
302.54495885400001
  0
LINE
  5
1AF
  8
┌▓È_1
 62
     5
 10
887.86711206380005
 20
-311.84128661450001
 30
0.0
 11
888.6671120638
 21
-311.84128661450001
 31
0.0
  0
LINE
  5
1B0
  8
┌▓È_1
 62
     5
 10
906.69046608009978
 20
-312.48128661449999
 30
0.0
 11
909.29953274679985
 21
-312.48128661449999
 31
0.0
  0
LINE
  5
1B1
  8
┌▓È_1
 62
     5
 10
895.58799511300003
 20
-310.64128661450002
 30
0.0
 11
894.38799511299999
 21
-310.64128661450002
 31
0.0
  0
LINE
  5
1B2
  8
┌▓È_1
 62
     5
 10
894.38799511299999
 20
-310.64128661450002
 30
0.0
 11
894.38799511299999
 21
-310.24128661449998
 31
0.0
  0
LINE
  5
1B3
  8
┌▓È_1
 62
     5
 10
906.69046608009978
 20
-310.40128661450001
 30
0.0
 11
908.68939941339988
 21
-310.40128661450001
 31
0.0
  0
LINE
  5
1B4
  8
┌▓È_1
 62
     5
 10
892.38799511299999
 20
-311.84128661450001
 30
0.0
 11
892.38799511299999
 21
-312.24128661449998
 31
0.0
  0
LINE
  5
1B5
  8
┌▓È_1
 62
     5
 10
890.78799511299997
 20
-311.84128661450001
 30
0.0
 11
892.38799511299999
 21
-311.84128661450001
 31
0.0
  0
LINE
  5
1B6
  8
┌▓È_1
 62
     5
 10
912.29046608009992
 20
-315.0412866145
 30
0.0
 11
911.96816954199983
 21
-313.92128661449999
 31
0.0
  0
LINE
  5
1B7
  8
┌▓È_1
 62
     5
 10
911.5537882786
 20
-312.48128661449999
 30
0.0
 11
913.89046608009994
 21
-312.48128661449999
 31
0.0
  0
ARC
  5
1B8
  8
┌▓È_1
 62
     5
 10
899.71647996149989
 20
-310.24128661449998
 30
0.0
 40
4.4000000000000004
 50
322.48761197969998
 51
0.0
  0
LINE
  5
1B9
  8
┌▓È_1
 62
     5
 10
906.69046608009978
 20
-313.92128661449999
 30
0.0
 11
909.72193274679978
 21
-313.92128661449999
 31
0.0
  0
LINE
  5
1BA
  8
┌▓È_1
 62
     5
 10
890.78799511299997
 20
-310.64128661450002
 30
0.0
 11
890.78799511299997
 21
-310.24128661449998
 31
0.0
  0
LINE
  5
1BB
  8
┌▓È_1
 62
     5
 10
897.71647996149977
 20
-314.64128661450002
 30
0.0
 11
897.71647996149977
 21
-313.44128661449997
 31
0.0
  0
LINE
  5
1BC
  8
┌▓È_1
 62
     5
 10
888.78799511300008
 20
-310.64128661450002
 30
0.0
 11
887.86711206380005
 21
-310.64128661450002
 31
0.0
  0
LINE
  5
1BD
  8
┌▓È_1
 62
     5
 10
913.89046608009994
 20
-312.48128661449999
 30
0.0
 11
913.89046608009994
 21
-313.92128661449999
 31
0.0
  0
LINE
  5
1BE
  8
┌▓È_1
 62
     5
 10
904.91647996149993
 20
-313.44128661449997
 30
0.0
 11
904.91647996149993
 21
-314.64128661450002
 31
0.0
  0
LINE
  5
1BF
  8
┌▓È_1
 62
     5
 10
888.78799511300008
 20
-311.84128661450001
 30
0.0
 11
888.6671120638
 21
-311.84128661450001
 31
0.0
  0
LINE
  5
1C0
  8
┌▓È_1
 62
     5
 10
888.78799511300008
 20
-313.44128661449997
 30
0.0
 11
888.78799511300008
 21
-314.64128661450002
 31
0.0
  0
LINE
  5
1C1
  8
┌▓È_1
 62
     5
 10
911.5537882786
 20
-312.48128661449999
 30
0.0
 11
911.36961882829985
 21
-311.84128661450001
 31
0.0
  0
LINE
  5
1C2
  8
┌▓È_1
 62
     5
 10
910.0504660800998
 20
-315.0412866145
 30
0.0
 11
909.72193274679978
 21
-313.92128661449999
 31
0.0
  0
LINE
  5
1C3
  8
┌▓È_1
 62
     5
 10
891.18799511300006
 20
-313.44128661449997
 30
0.0
 11
888.78799511300008
 21
-313.44128661449997
 31
0.0
  0
LINE
  5
1C4
  8
┌▓È_1
 62
     5
 10
897.71647996149977
 20
-310.48128661449999
 30
0.0
 11
901.71647996149989
 21
-310.48128661449999
 31
0.0
  0
LINE
  5
1C5
  8
┌▓È_1
 62
     5
 10
913.89046608009994
 20
-310.40128661450001
 30
0.0
 11
913.89046608009994
 21
-311.84128661450001
 31
0.0
  0
LINE
  5
1C6
  8
┌▓È_1
 62
     5
 10
906.69046608009978
 20
-311.84128661450001
 30
0.0
 11
909.11179941339981
 21
-311.84128661450001
 31
0.0
  0
LINE
  5
1C7
  8
┌▓È_1
 62
     5
 10
906.69046608009978
 20
-312.48128661449999
 30
0.0
 11
906.69046608009978
 21
-313.92128661449999
 31
0.0
  0
LINE
  5
1C8
  8
┌▓È_1
 62
     5
 10
890.78799511299997
 20
-313.0412866145
 30
0.0
 11
890.78799511299997
 21
-311.84128661450001
 31
0.0
  0
LINE
  5
1C9
  8
┌▓È_1
 62
     5
 10
911.96816954199983
 20
-313.92128661449999
 30
0.0
 11
913.89046608009994
 21
-313.92128661449999
 31
0.0
  0
LINE
  5
1CA
  8
┌▓È_1
 62
     5
 10
895.58799511300003
 20
-309.0412866145
 30
0.0
 11
892.38799511299999
 21
-309.0412866145
 31
0.0
  0
LINE
  5
1CB
  8
┌▓È_1
 62
     5
 10
897.71647996149977
 20
-309.0412866145
 30
0.0
 11
897.71647996149977
 21
-310.48128661449999
 31
0.0
  0
ARC
  5
1CC
  8
┌▓È_1
 62
     5
 10
891.9879951129999
 20
-312.24128661449998
 30
0.0
 40
2.399999999999999
 50
270.0
 51
0.0
  0
LINE
  5
1CD
  8
┌▓È_1
 62
     5
 10
910.83812216479998
 20
-309.99430350209991
 30
0.0
 11
911.49046608009996
 21
-309.0412866145
 31
0.0
  0
LINE
  5
1CE
  8
┌▓È_1
 62
     5
 10
892.38799511299999
 20
-310.64128661450002
 30
0.0
 11
890.78799511299997
 21
-310.64128661450002
 31
0.0
  0
LINE
  5
1CF
  8
┌▓È_1
 62
     5
 10
891.9879951129999
 20
-309.0412866145
 30
0.0
 11
888.78799511300008
 21
-309.0412866145
 31
0.0
  0
LINE
  5
1D0
  8
┌▓È_1
 62
     5
 10
890.78799511299997
 20
-310.24128661449998
 30
0.0
 11
891.9879951129999
 21
-309.0412866145
 31
0.0
  0
LINE
  5
1D1
  8
┌▓È_1
 62
     5
 10
888.78799511300008
 20
-309.0412866145
 30
0.0
 11
888.78799511300008
 21
-310.64128661450002
 31
0.0
  0
LINE
  5
1D2
  8
┌▓È_1
 62
     5
 10
908.68939941339988
 20
-310.40128661450001
 30
0.0
 11
908.2904660800998
 21
-309.0412866145
 31
0.0
  0
INSERT
  5
1D3
  8
0
  6
CONTINUOUS
  2
*U35
 10
0.0
 20
0.0
 30
0.0
  0
INSERT
  5
1D4
  8
0
  6
CONTINUOUS
  2
*U36
 10
0.0
 20
0.0
 30
0.0
  0
INSERT
  5
1D5
  8
0
  6
CONTINUOUS
  2
*U37
 10
0.0
 20
0.0
 30
0.0
  0
INSERT
  5
1D6
  8
0
  6
CONTINUOUS
  2
*U38
 10
0.0
 20
0.0
 30
0.0
  0
INSERT
  5
1D7
  8
0
  6
CONTINUOUS
  2
*U39
 10
0.0
 20
0.0
 30
0.0
  0
INSERT
  5
1D8
  8
0
  6
CONTINUOUS
  2
*U40
 10
0.0
 20
0.0
 30
0.0
  0
INSERT
  5
1D9
  8
0
  6
CONTINUOUS
  2
*U41
 10
0.0
 20
0.0
 30
0.0
  0
INSERT
  5
1DA
  8
0
  6
CONTINUOUS
  2
*U42
 10
0.0
 20
0.0
 30
0.0
  0
INSERT
  5
1DB
  8
0
  6
CONTINUOUS
  2
*U43
 10
0.0
 20
0.0
 30
0.0
  0
INSERT
  5
1DC
  8
0
  6
CONTINUOUS
  2
*U44
 10
0.0
 20
0.0
 30
0.0
  0
INSERT
  5
1DD
  8
0
  6
CONTINUOUS
  2
*U45
 10
0.0
 20
0.0
 30
0.0
  0
INSERT
  5
1DE
  8
0
  6
CONTINUOUS
  2
*U46
 10
0.0
 20
0.0
 30
0.0
  0
INSERT
  5
1DF
  8
0
  6
CONTINUOUS
  2
*U47
 10
0.0
 20
0.0
 30
0.0
  0
INSERT
  5
1E0
  8
0
  6
CONTINUOUS
  2
*U48
 10
0.0
 20
0.0
 30
0.0
  0
LINE
  5
1E1
  8
┌▓È_1
 10
888.59079374699991
 20
-303.419424988
 30
0.0
 11
900.59079374700002
 21
-303.419424988
 31
0.0
  0
LINE
  5
1E2
  8
┌▓È_1
 10
888.59079374699991
 20
-294.919424988
 30
0.0
 11
900.59079374700002
 21
-294.919424988
 31
0.0
  0
LINE
  5
1E3
  8
┌▓È_1
 10
856.59079374699991
 20
-303.419424988
 30
0.0
 11
884.59079374700002
 21
-303.419424988
 31
0.0
  0
LINE
  5
1E4
  8
┌▓È_1
 10
872.59079374699991
 20
-294.919424988
 30
0.0
 11
884.59079374700002
 21
-294.919424988
 31
0.0
  0
LINE
  5
1E5
  8
┌▓È_1
 10
856.59079374699991
 20
-294.919424988
 30
0.0
 11
868.59079374700002
 21
-294.919424988
 31
0.0
  0
LINE
  5
1E6
  8
┌▓È_1
 10
886.59079374700002
 20
-290.669424988
 30
0.0
 11
886.59079374700002
 21
-307.669424988
 31
0.0
  0
LINE
  5
1E7
  8
┌▓È_1
 62
     5
 10
900.91647996150004
 20
-310.8989748285
 30
0.0
 11
900.46393162150002
 21
-311.35152316850002
 31
0.0
  0
LINE
  5
1E8
  8
┌▓È_1
 62
     5
 10
897.71647996149977
 20
-311.15666304249999
 30
0.0
 11
897.71647996149977
 21
-310.8989748285
 31
0.0
  0
LINE
  5
1E9
  8
┌▓È_1
 62
     5
 10
887.86711206380005
 20
-310.64128661450002
 30
0.0
 11
887.86711206380005
 21
-311.84128661450001
 31
0.0
  0
LINE
  5
1EA
  8
┌▓È_1
 62
     5
 10
895.58799511300003
 20
-310.64128661450002
 30
0.0
 11
895.58799511300003
 21
-311.84128661450001
 31
0.0
  0
LINE
  5
1EB
  8
┌▓È_1
 62
     5
 10
910.0504660800998
 20
-315.0412866145
 30
0.0
 11
912.29046608009992
 21
-315.0412866145
 31
0.0
  0
LINE
  5
1EC
  8
┌▓È_1
 62
     5
 10
783.54795056130001
 20
-216.15540646310001
 30
0.0
 11
783.54795056130001
 21
-211.65540646310001
 31
0.0
  0
LINE
  5
1ED
  8
┌▓È_1
 62
     5
 10
728.04795056130001
 20
-211.65540646310001
 30
0.0
 11
728.04795056130001
 21
-156.15540646310001
 31
0.0
  0
LINE
  5
1EE
  8
┌▓È_1
 62
     5
 10
728.04795056130001
 20
-156.15540646310001
 30
0.0
 11
723.54795056130001
 21
-156.15540646310001
 31
0.0
  0
LINE
  5
1EF
  8
┌▓È_1
  6
STITCH
 10
774.04795056130001
 20
-213.40540646310001
 30
0.0
 11
769.04795056130001
 21
-213.40540646310001
 31
0.0
  0
LINE
  5
1F0
  8
┌▓È_1
  6
STITCH
 10
774.04795056130001
 20
-214.40540646310001
 30
0.0
 11
774.04795056130001
 21
-213.40540646310001
 31
0.0
  0
LINE
  5
1F1
  8
┌▓È_1
  6
STITCH
 10
769.04795056130001
 20
-213.40540646310001
 30
0.0
 11
769.04795056130001
 21
-214.40540646310001
 31
0.0
  0
LINE
  5
1F2
  8
┌▓È_1
 62
     5
 10
849.06917451970003
 20
-156.15540646310001
 30
0.0
 11
817.06917451970003
 21
-156.15540646310001
 31
0.0
  0
LINE
  5
1F3
  8
┌▓È_1
 62
     5
 10
817.06917451970003
 20
-211.65540646310001
 30
0.0
 11
849.06917451970003
 21
-211.65540646310001
 31
0.0
  0
LINE
  5
1F4
  8
┌▓È_1
 62
     5
 10
817.06917451970003
 20
-216.15540646310001
 30
0.0
 11
849.06917451970003
 21
-216.15540646310001
 31
0.0
  0
INSERT
  5
1F6
  8
┌▓È_1
  2
CLUMP0
 10
0.0
 20
0.0
 30
0.0
  0
INSERT
  5
1FE
  8
┌▓È_1
  2
CLUMP1
 10
0.0
 20
0.0
 30
0.0
  0
LINE
  5
205
  8
┌▓È_1
  6
STITCH
 10
728.04795056130001
 20
-256.55725831490003
 30
0.0
 11
728.04795056130001
 21
-288.55725831490003
 31
0.0
  0
LINE
  5
206
  8
┌▓È_1
 62
     5
 10
783.54795056130001
 20
-256.55725831490003
 30
0.0
 11
723.54795056130001
 21
-256.55725831490003
 31
0.0
  0
LINE
  5
207
  8
┌▓È_1
 62
     5
 10
783.54795056130001
 20
-288.55725831490003
 30
0.0
 11
783.54795056130001
 21
-256.55725831490003
 31
0.0
  0
LINE
  5
208
  8
┌▓È_1
 62
     5
 10
723.54795056130001
 20
-256.55725831490003
 30
0.0
 11
723.54795056130001
 21
-288.55725831490003
 31
0.0
  0
LINE
  5
209
  8
┌▓È_1
 62
     5
 10
723.54795056130001
 20
-288.55725831490003
 30
0.0
 11
783.54795056130001
 21
-288.55725831490003
 31
0.0
  0
INSERT
  5
20B
  8
┌▓È_1
  2
CLUMP2
 10
0.0
 20
0.0
 30
0.0
  0
INSERT
  5
213
  8
┌▓È_1
  2
CLUMP3
 10
0.0
 20
0.0
 30
0.0
  0
POLYLINE
  8
┌▓È_1
  5
2E5
  62
5
  66
     1
 10
0.000000
 20
0.000000
 30
0.000000
  70
     8
  0
VERTEX
  8
┌▓È_1
  5
2E6
 10
903.064
 20
-313.060
 30
0.000000
  70
    32
  0
VERTEX
  8
┌▓È_1
  5
2E7
 10
903.078
 20
-313.064
 30
0.000000
  70
    32
  0
VERTEX
  8
┌▓È_1
  5
2E8
 10
903.092
 20
-313.068
 30
0.000000
  70
    32
  0
VERTEX
  8
┌▓È_1
  5
2E9
 10
903.106
 20
-313.072
 30
0.000000
  70
    32
  0
VERTEX
  8
┌▓È_1
  5
2EA
 10
903.120
 20
-313.076
 30
0.000000
  70
    32
  0
VERTEX
  8
┌▓È_1
  5
2EB
 10
903.134
 20
-313.080
 30
0.000000
  70
    32
  0
VERTEX
  8
┌▓È_1
  5
2EC
 10
903.148
 20
-313.084
 30
0.000000
  70
    32
  0
VERTEX
  8
┌▓È_1
  5
2ED
 10
903.162
 20
-313.087
 30
0.000000
  70
    32
  0
VERTEX
  8
┌▓È_1
  5
2EE
 10
903.176
 20
-313.091
 30
0.000000
  70
    32
  0
VERTEX
  8
┌▓È_1
  5
2EF
 10
903.191
 20
-313.095
 30
0.000000
  70
    32
  0
VERTEX
  8
┌▓È_1
  5
2F0
 10
903.205
 20
-313.099
 30
0.000000
  70
    32
  0
VERTEX
  8
┌▓È_1
  5
2F1
 10
903.219
 20
-313.102
 30
0.000000
  70
    32
  0
VERTEX
  8
┌▓È_1
  5
2F2
 10
903.233
 20
-313.106
 30
0.000000
  70
    32
  0
VERTEX
  8
┌▓È_1
  5
2F3
 10
903.247
 20
-313.110
 30
0.000000
  70
    32
  0
VERTEX
  8
┌▓È_1
  5
2F4
 10
903.261
 20
-313.114
 30
0.000000
  70
    32
  0
VERTEX
  8
┌▓È_1
  5
2F5
 10
903.275
 20
-313.117
 30
0.000000
  70
    32
  0
VERTEX
  8
┌▓È_1
  5
2F6
 10
903.290
 20
-313.121
 30
0.000000
  70
    32
  0
VERTEX
  8
┌▓È_1
  5
2F7
 10
903.304
 20
-313.125
 30
0.000000
  70
    32
  0
VERTEX
  8
┌▓È_1
  5
2F8
 10
903.318
 20
-313.128
 30
0.000000
  70
    32
  0
VERTEX
  8
┌▓È_1
  5
2F9
 10
903.332
 20
-313.132
 30
0.000000
  70
    32
  0
VERTEX
  8
┌▓È_1
  5
2FA
 10
903.346
 20
-313.135
 30
0.000000
  70
    32
  0
VERTEX
  8
┌▓È_1
  5
2FB
 10
903.361
 20
-313.139
 30
0.000000
  70
    32
  0
VERTEX
  8
┌▓È_1
  5
2FC
 10
903.375
 20
-313.142
 30
0.000000
  70
    32
  0
VERTEX
  8
┌▓È_1
  5
2FD
 10
903.389
 20
-313.146
 30
0.000000
  70
    32
  0
VERTEX
  8
┌▓È_1
  5
2FE
 10
903.404
 20
-313.149
 30
0.000000
  70
    32
  0
VERTEX
  8
┌▓È_1
  5
2FF
 10
903.418
 20
-313.153
 30
0.000000
  70
    32
  0
VERTEX
  8
┌▓È_1
  5
300
 10
903.432
 20
-313.156
 30
0.000000
  70
    32
  0
VERTEX
  8
┌▓È_1
  5
301
 10
903.446
 20
-313.160
 30
0.000000
  70
    32
  0
VERTEX
  8
┌▓È_1
  5
302
 10
903.461
 20
-313.163
 30
0.000000
  70
    32
  0
VERTEX
  8
┌▓È_1
  5
303
 10
903.475
 20
-313.166
 30
0.000000
  70
    32
  0
VERTEX
  8
┌▓È_1
  5
304
 10
903.489
 20
-313.170
 30
0.000000
  70
    32
  0
VERTEX
  8
┌▓È_1
  5
305
 10
903.504
 20
-313.173
 30
0.000000
  70
    32
  0
VERTEX
  8
┌▓È_1
  5
306
 10
903.518
 20
-313.177
 30
0.000000
  70
    32
  0
VERTEX
  8
┌▓È_1
  5
307
 10
903.533
 20
-313.180
 30
0.000000
  70
    32
  0
VERTEX
  8
┌▓È_1
  5
308
 10
903.547
 20
-313.183
 30
0.000000
  70
    32
  0
VERTEX
  8
┌▓È_1
  5
309
 10
903.561
 20
-313.186
 30
0.000000
  70
    32
  0
VERTEX
  8
┌▓È_1
  5
30A
 10
903.576
 20
-313.190
 30
0.000000
  70
    32
  0
VERTEX
  8
┌▓È_1
  5
30B
 10
903.590
 20
-313.193
 30
0.000000
  70
    32
  0
VERTEX
  8
┌▓È_1
  5
30C
 10
903.605
 20
-313.196
 30
0.000000
  70
    32
  0
VERTEX
  8
┌▓È_1
  5
30D
 10
903.619
 20
-313.199
 30
0.000000
  70
    32
  0
VERTEX
  8
┌▓È_1
  5
30E
 10
903.634
 20
-313.203
 30
0.000000
  70
    32
  0
VERTEX
  8
┌▓È_1
  5
30F
 10
903.648
 20
-313.206
 30
0.000000
  70
    32
  0
VERTEX
  8
┌▓È_1
  5
310
 10
903.663
 20
-313.209
 30
0.000000
  70
    32
  0
VERTEX
  8
┌▓È_1
  5
311
 10
903.677
 20
-313.212
 30
0.000000
  70
    32
  0
VERTEX
  8
┌▓È_1
  5
312
 10
903.692
 20
-313.215
 30
0.000000
  70
    32
  0
VERTEX
  8
┌▓È_1
  5
313
 10
903.706
 20
-313.218
 30
0.000000
  70
    32
  0
VERTEX
  8
┌▓È_1
  5
314
 10
903.721
 20
-313.222
 30
0.000000
  70
    32
  0
VERTEX
  8
┌▓È_1
  5
315
 10
903.735
 20
-313.225
 30
0.000000
  70
    32
  0
VERTEX
  8
┌▓È_1
  5
316
 10
903.750
 20
-313.228
 30
0.000000
  70
    32
  0
VERTEX
  8
┌▓È_1
  5
317
 10
903.764
 20
-313.231
 30
0.000000
  70
    32
  0
VERTEX
  8
┌▓È_1
  5
318
 10
903.779
 20
-313.234
 30
0.000000
  70
    32
  0
VERTEX
  8
┌▓È_1
  5
319
 10
903.793
 20
-313.237
 30
0.000000
  70
    32
  0
VERTEX
  8
┌▓È_1
  5
31A
 10
903.808
 20
-313.240
 30
0.000000
  70
    32
  0
VERTEX
  8
┌▓È_1
  5
31B
 10
903.822
 20
-313.243
 30
0.000000
  70
    32
  0
VERTEX
  8
┌▓È_1
  5
31C
 10
903.837
 20
-313.246
 30
0.000000
  70
    32
  0
VERTEX
  8
┌▓È_1
  5
31D
 10
903.852
 20
-313.249
 30
0.000000
  70
    32
  0
VERTEX
  8
┌▓È_1
  5
31E
 10
903.866
 20
-313.252
 30
0.000000
  70
    32
  0
VERTEX
  8
┌▓È_1
  5
31F
 10
903.881
 20
-313.255
 30
0.000000
  70
    32
  0
VERTEX
  8
┌▓È_1
  5
320
 10
903.895
 20
-313.258
 30
0.000000
  70
    32
  0
VERTEX
  8
┌▓È_1
  5
321
 10
903.910
 20
-313.261
 30
0.000000
  70
    32
  0
VERTEX
  8
┌▓È_1
  5
322
 10
903.925
 20
-313.264
 30
0.000000
  70
    32
  0
VERTEX
  8
┌▓È_1
  5
323
 10
903.939
 20
-313.267
 30
0.000000
  70
    32
  0
VERTEX
  8
┌▓È_1
  5
324
 10
903.954
 20
-313.270
 30
0.000000
  70
    32
  0
VERTEX
  8
┌▓È_1
  5
325
 10
903.969
 20
-313.272
 30
0.000000
  70
    32
  0
VERTEX
  8
┌▓È_1
  5
326
 10
903.983
 20
-313.275
 30
0.000000
  70
    32
  0
VERTEX
  8
┌▓È_1
  5
327
 10
903.998
 20
-313.278
 30
0.000000
  70
    32
  0
VERTEX
  8
┌▓È_1
  5
328
 10
904.013
 20
-313.281
 30
0.000000
  70
    32
  0
VERTEX
  8
┌▓È_1
  5
329
 10
904.027
 20
-313.284
 30
0.000000
  70
    32
  0
VERTEX
  8
┌▓È_1
  5
32A
 10
904.042
 20
-313.287
 30
0.000000
  70
    32
  0
VERTEX
  8
┌▓È_1
  5
32B
 10
904.057
 20
-313.290
 30
0.000000
  70
    32
  0
VERTEX
  8
┌▓È_1
  5
32C
 10
904.071
 20
-313.292
 30
0.000000
  70
    32
  0
VERTEX
  8
┌▓È_1
  5
32D
 10
904.086
 20
-313.295
 30
0.000000
  70
    32
  0
VERTEX
  8
┌▓È_1
  5
32E
 10
904.101
 20
-313.298
 30
0.000000
  70
    32
  0
VERTEX
  8
┌▓È_1
  5
32F
 10
904.115
 20
-313.301
 30
0.000000
  70
    32
  0
VERTEX
  8
┌▓È_1
  5
330
 10
904.130
 20
-313.304
 30
0.000000
  70
    32
  0
VERTEX
  8
┌▓È_1
  5
331
 10
904.145
 20
-313.306
 30
0.000000
  70
    32
  0
VERTEX
  8
┌▓È_1
  5
332
 10
904.160
 20
-313.309
 30
0.000000
  70
    32
  0
VERTEX
  8
┌▓È_1
  5
333
 10
904.174
 20
-313.312
 30
0.000000
  70
    32
  0
VERTEX
  8
┌▓È_1
  5
334
 10
904.189
 20
-313.315
 30
0.000000
  70
    32
  0
VERTEX
  8
┌▓È_1
  5
335
 10
904.204
 20
-313.317
 30
0.000000
  70
    32
  0
VERTEX
  8
┌▓È_1
  5
336
 10
904.219
 20
-313.320
 30
0.000000
  70
    32
  0
VERTEX
  8
┌▓È_1
  5
337
 10
904.233
 20
-313.323
 30
0.000000
  70
    32
  0
VERTEX
  8
┌▓È_1
  5
338
 10
904.248
 20
-313.325
 30
0.000000
  70
    32
  0
VERTEX
  8
┌▓È_1
  5
339
 10
904.263
 20
-313.328
 30
0.000000
  70
    32
  0
VERTEX
  8
┌▓È_1
  5
33A
 10
904.278
 20
-313.331
 30
0.000000
  70
    32
  0
VERTEX
  8
┌▓È_1
  5
33B
 10
904.293
 20
-313.333
 30
0.000000
  70
    32
  0
VERTEX
  8
┌▓È_1
  5
33C
 10
904.307
 20
-313.336
 30
0.000000
  70
    32
  0
VERTEX
  8
┌▓È_1
  5
33D
 10
904.322
 20
-313.339
 30
0.000000
  70
    32
  0
VERTEX
  8
┌▓È_1
  5
33E
 10
904.337
 20
-313.341
 30
0.000000
  70
    32
  0
VERTEX
  8
┌▓È_1
  5
33F
 10
904.352
 20
-313.344
 30
0.000000
  70
    32
  0
VERTEX
  8
┌▓È_1
  5
340
 10
904.367
 20
-313.347
 30
0.000000
  70
    32
  0
VERTEX
  8
┌▓È_1
  5
341
 10
904.381
 20
-313.349
 30
0.000000
  70
    32
  0
VERTEX
  8
┌▓È_1
  5
342
 10
904.396
 20
-313.352
 30
0.000000
  70
    32
  0
VERTEX
  8
┌▓È_1
  5
343
 10
904.411
 20
-313.355
 30
0.000000
  70
    32
  0
VERTEX
  8
┌▓È_1
  5
344
 10
904.426
 20
-313.357
 30
0.000000
  70
    32
  0
VERTEX
  8
┌▓È_1
  5
345
 10
904.441
 20
-313.360
 30
0.000000
  70
    32
  0
VERTEX
  8
┌▓È_1
  5
346
 10
904.456
 20
-313.362
 30
0.000000
  70
    32
  0
VERTEX
  8
┌▓È_1
  5
347
 10
904.470
 20
-313.365
 30
0.000000
  70
    32
  0
VERTEX
  8
┌▓È_1
  5
348
 10
904.485
 20
-313.368
 30
0.000000
  70
    32
  0
VERTEX
  8
┌▓È_1
  5
349
 10
904.500
 20
-313.370
 30
0.000000
  70
    32
  0
VERTEX
  8
┌▓È_1
  5
34A
 10
904.515
 20
-313.373
 30
0.000000
  70
    32
  0
VERTEX
  8
┌▓È_1
  5
34B
 10
904.530
 20
-313.375
 30
0.000000
  70
    32
  0
VERTEX
  8
┌▓È_1
  5
34C
 10
904.545
 20
-313.378
 30
0.000000
  70
    32
  0
VERTEX
  8
┌▓È_1
  5
34D
 10
904.559
 20
-313.381
 30
0.000000
  70
    32
  0
VERTEX
  8
┌▓È_1
  5
34E
 10
904.574
 20
-313.383
 30
0.000000
  70
    32
  0
VERTEX
  8
┌▓È_1
  5
34F
 10
904.589
 20
-313.386
 30
0.000000
  70
    32
  0
VERTEX
  8
┌▓È_1
  5
350
 10
904.604
 20
-313.388
 30
0.000000
  70
    32
  0
VERTEX
  8
┌▓È_1
  5
351
 10
904.619
 20
-313.391
 30
0.000000
  70
    32
  0
VERTEX
  8
┌▓È_1
  5
352
 10
904.634
 20
-313.393
 30
0.000000
  70
    32
  0
VERTEX
  8
┌▓È_1
  5
353
 10
904.649
 20
-313.396
 30
0.000000
  70
    32
  0
VERTEX
  8
┌▓È_1
  5
354
 10
904.663
 20
-313.398
 30
0.000000
  70
    32
  0
VERTEX
  8
┌▓È_1
  5
355
 10
904.678
 20
-313.401
 30
0.000000
  70
    32
  0
VERTEX
  8
┌▓È_1
  5
356
 10
904.693
 20
-313.403
 30
0.000000
  70
    32
  0
VERTEX
  8
┌▓È_1
  5
357
 10
904.708
 20
-313.406
 30
0.000000
  70
    32
  0
VERTEX
  8
┌▓È_1
  5
358
 10
904.723
 20
-313.409
 30
0.000000
  70
    32
  0
VERTEX
  8
┌▓È_1
  5
359
 10
904.738
 20
-313.411
 30
0.000000
  70
    32
  0
VERTEX
  8
┌▓È_1
  5
35A
 10
904.753
 20
-313.414
 30
0.000000
  70
    32
  0
VERTEX
  8
┌▓È_1
  5
35B
 10
904.768
 20
-313.416
 30
0.000000
  70
    32
  0
VERTEX
  8
┌▓È_1
  5
35C
 10
904.783
 20
-313.419
 30
0.000000
  70
    32
  0
VERTEX
  8
┌▓È_1
  5
35D
 10
904.797
 20
-313.421
 30
0.000000
  70
    32
  0
VERTEX
  8
┌▓È_1
  5
35E
 10
904.812
 20
-313.424
 30
0.000000
  70
    32
  0
VERTEX
  8
┌▓È_1
  5
35F
 10
904.827
 20
-313.426
 30
0.000000
  70
    32
  0
VERTEX
  8
┌▓È_1
  5
360
 10
904.842
 20
-313.429
 30
0.000000
  70
    32
  0
VERTEX
  8
┌▓È_1
  5
361
 10
904.857
 20
-313.431
 30
0.000000
  70
    32
  0
VERTEX
  8
┌▓È_1
  5
362
 10
904.872
 20
-313.434
 30
0.000000
  70
    32
  0
VERTEX
  8
┌▓È_1
  5
363
 10
904.887
 20
-313.436
 30
0.000000
  70
    32
  0
VERTEX
  8
┌▓È_1
  5
364
 10
904.902
 20
-313.439
 30
0.000000
  70
    32
  0
VERTEX
  8
┌▓È_1
  5
365
 10
904.916
 20
-313.441
 30
0.000000
  70
    32
  0
SEQEND
  8
┌▓È_1
  5
366
  0
POLYLINE
  8
┌▓È_1
  5
367
  62
5
  66
     1
 10
0.000000
 20
0.000000
 30
0.000000
  70
     8
  0
VERTEX
  8
┌▓È_1
  5
368
 10
897.716
 20
-311.157
 30
0.000000
  70
    32
  0
VERTEX
  8
┌▓È_1
  5
369
 10
897.731
 20
-311.170
 30
0.000000
  70
    32
  0
VERTEX
  8
┌▓È_1
  5
36A
 10
897.745
 20
-311.183
 30
0.000000
  70
    32
  0
VERTEX
  8
┌▓È_1
  5
36B
 10
897.760
 20
-311.197
 30
0.000000
  70
    32
  0
VERTEX
  8
┌▓È_1
  5
36C
 10
897.774
 20
-311.210
 30
0.000000
  70
    32
  0
VERTEX
  8
┌▓È_1
  5
36D
 10
897.789
 20
-311.223
 30
0.000000
  70
    32
  0
VERTEX
  8
┌▓È_1
  5
36E
 10
897.803
 20
-311.236
 30
0.000000
  70
    32
  0
VERTEX
  8
┌▓È_1
  5
36F
 10
897.817
 20
-311.250
 30
0.000000
  70
    32
  0
VERTEX
  8
┌▓È_1
  5
370
 10
897.832
 20
-311.263
 30
0.000000
  70
    32
  0
VERTEX
  8
┌▓È_1
  5
371
 10
897.846
 20
-311.276
 30
0.000000
  70
    32
  0
VERTEX
  8
┌▓È_1
  5
372
 10
897.861
 20
-311.289
 30
0.000000
  70
    32
  0
VERTEX
  8
┌▓È_1
  5
373
 10
897.875
 20
-311.303
 30
0.000000
  70
    32
  0
VERTEX
  8
┌▓È_1
  5
374
 10
897.889
 20
-311.316
 30
0.000000
  70
    32
  0
VERTEX
  8
┌▓È_1
  5
375
 10
897.904
 20
-311.329
 30
0.000000
  70
    32
  0
VERTEX
  8
┌▓È_1
  5
376
 10
897.918
 20
-311.342
 30
0.000000
  70
    32
  0
VERTEX
  8
┌▓È_1
  5
377
 10
897.933
 20
-311.356
 30
0.000000
  70
    32
  0
VERTEX
  8
┌▓È_1
  5
378
 10
897.947
 20
-311.369
 30
0.000000
  70
    32
  0
VERTEX
  8
┌▓È_1
  5
379
 10
897.962
 20
-311.382
 30
0.000000
  70
    32
  0
VERTEX
  8
┌▓È_1
  5
37A
 10
897.976
 20
-311.395
 30
0.000000
  70
    32
  0
VERTEX
  8
┌▓È_1
  5
37B
 10
897.990
 20
-311.409
 30
0.000000
  70
    32
  0
VERTEX
  8
┌▓È_1
  5
37C
 10
898.005
 20
-311.422
 30
0.000000
  70
    32
  0
VERTEX
  8
┌▓È_1
  5
37D
 10
898.019
 20
-311.435
 30
0.000000
  70
    32
  0
VERTEX
  8
┌▓È_1
  5
37E
 10
898.034
 20
-311.448
 30
0.000000
  70
    32
  0
VERTEX
  8
┌▓È_1
  5
37F
 10
898.048
 20
-311.462
 30
0.000000
  70
    32
  0
VERTEX
  8
┌▓È_1
  5
380
 10
898.063
 20
-311.475
 30
0.000000
  70
    32
  0
VERTEX
  8
┌▓È_1
  5
381
 10
898.077
 20
-311.488
 30
0.000000
  70
    32
  0
VERTEX
  8
┌▓È_1
  5
382
 10
898.092
 20
-311.501
 30
0.000000
  70
    32
  0
VERTEX
  8
┌▓È_1
  5
383
 10
898.106
 20
-311.514
 30
0.000000
  70
    32
  0
VERTEX
  8
┌▓È_1
  5
384
 10
898.120
 20
-311.528
 30
0.000000
  70
    32
  0
VERTEX
  8
┌▓È_1
  5
385
 10
898.135
 20
-311.541
 30
0.000000
  70
    32
  0
VERTEX
  8
┌▓È_1
  5
386
 10
898.149
 20
-311.554
 30
0.000000
  70
    32
  0
VERTEX
  8
┌▓È_1
  5
387
 10
898.164
 20
-311.567
 30
0.000000
  70
    32
  0
VERTEX
  8
┌▓È_1
  5
388
 10
898.178
 20
-311.580
 30
0.000000
  70
    32
  0
VERTEX
  8
┌▓È_1
  5
389
 10
898.193
 20
-311.593
 30
0.000000
  70
    32
  0
VERTEX
  8
┌▓È_1
  5
38A
 10
898.207
 20
-311.606
 30
0.000000
  70
    32
  0
VERTEX
  8
┌▓È_1
  5
38B
 10
898.222
 20
-311.620
 30
0.000000
  70
    32
  0
VERTEX
  8
┌▓È_1
  5
38C
 10
898.236
 20
-311.633
 30
0.000000
  70
    32
  0
VERTEX
  8
┌▓È_1
  5
38D
 10
898.251
 20
-311.646
 30
0.000000
  70
    32
  0
VERTEX
  8
┌▓È_1
  5
38E
 10
898.265
 20
-311.659
 30
0.000000
  70
    32
  0
VERTEX
  8
┌▓È_1
  5
38F
 10
898.280
 20
-311.672
 30
0.000000
  70
    32
  0
VERTEX
  8
┌▓È_1
  5
390
 10
898.294
 20
-311.685
 30
0.000000
  70
    32
  0
VERTEX
  8
┌▓È_1
  5
391
 10
898.309
 20
-311.698
 30
0.000000
  70
    32
  0
VERTEX
  8
┌▓È_1
  5
392
 10
898.324
 20
-311.711
 30
0.000000
  70
    32
  0
VERTEX
  8
┌▓È_1
  5
393
 10
898.338
 20
-311.724
 30
0.000000
  70
    32
  0
VERTEX
  8
┌▓È_1
  5
394
 10
898.353
 20
-311.737
 30
0.000000
  70
    32
  0
VERTEX
  8
┌▓È_1
  5
395
 10
898.367
 20
-311.750
 30
0.000000
  70
    32
  0
VERTEX
  8
┌▓È_1
  5
396
 10
898.382
 20
-311.763
 30
0.000000
  70
    32
  0
VERTEX
  8
┌▓È_1
  5
397
 10
898.396
 20
-311.776
 30
0.000000
  70
    32
  0
VERTEX
  8
┌▓È_1
  5
398
 10
898.411
 20
-311.789
 30
0.000000
  70
    32
  0
VERTEX
  8
┌▓È_1
  5
399
 10
898.425
 20
-311.802
 30
0.000000
  70
    32
  0
VERTEX
  8
┌▓È_1
  5
39A
 10
898.440
 20
-311.815
 30
0.000000
  70
    32
  0
VERTEX
  8
┌▓È_1
  5
39B
 10
898.455
 20
-311.828
 30
0.000000
  70
    32
  0
VERTEX
  8
┌▓È_1
  5
39C
 10
898.469
 20
-311.841
 30
0.000000
  70
    32
  0
VERTEX
  8
┌▓È_1
  5
39D
 10
898.484
 20
-311.854
 30
0.000000
  70
    32
  0
VERTEX
  8
┌▓È_1
  5
39E
 10
898.498
 20
-311.867
 30
0.000000
  70
    32
  0
VERTEX
  8
┌▓È_1
  5
39F
 10
898.513
 20
-311.880
 30
0.000000
  70
    32
  0
VERTEX
  8
┌▓È_1
  5
3A0
 10
898.528
 20
-311.892
 30
0.000000
  70
    32
  0
VERTEX
  8
┌▓È_1
  5
3A1
 10
898.542
 20
-311.905
 30
0.000000
  70
    32
  0
VERTEX
  8
┌▓È_1
  5
3A2
 10
898.557
 20
-311.918
 30
0.000000
  70
    32
  0
VERTEX
  8
┌▓È_1
  5
3A3
 10
898.572
 20
-311.931
 30
0.000000
  70
    32
  0
VERTEX
  8
┌▓È_1
  5
3A4
 10
898.586
 20
-311.944
 30
0.000000
  70
    32
  0
VERTEX
  8
┌▓È_1
  5
3A5
 10
898.601
 20
-311.956
 30
0.000000
  70
    32
  0
VERTEX
  8
┌▓È_1
  5
3A6
 10
898.616
 20
-311.969
 30
0.000000
  70
    32
  0
VERTEX
  8
┌▓È_1
  5
3A7
 10
898.630
 20
-311.982
 30
0.000000
  70
    32
  0
VERTEX
  8
┌▓È_1
  5
3A8
 10
898.645
 20
-311.995
 30
0.000000
  70
    32
  0
VERTEX
  8
┌▓È_1
  5
3A9
 10
898.660
 20
-312.007
 30
0.000000
  70
    32
  0
VERTEX
  8
┌▓È_1
  5
3AA
 10
898.675
 20
-312.020
 30
0.000000
  70
    32
  0
VERTEX
  8
┌▓È_1
  5
3AB
 10
898.689
 20
-312.033
 30
0.000000
  70
    32
  0
VERTEX
  8
┌▓È_1
  5
3AC
 10
898.704
 20
-312.045
 30
0.000000
  70
    32
  0
VERTEX
  8
┌▓È_1
  5
3AD
 10
898.719
 20
-312.058
 30
0.000000
  70
    32
  0
VERTEX
  8
┌▓È_1
  5
3AE
 10
898.734
 20
-312.071
 30
0.000000
  70
    32
  0
VERTEX
  8
┌▓È_1
  5
3AF
 10
898.748
 20
-312.083
 30
0.000000
  70
    32
  0
VERTEX
  8
┌▓È_1
  5
3B0
 10
898.763
 20
-312.096
 30
0.000000
  70
    32
  0
VERTEX
  8
┌▓È_1
  5
3B1
 10
898.778
 20
-312.108
 30
0.000000
  70
    32
  0
VERTEX
  8
┌▓È_1
  5
3B2
 10
898.793
 20
-312.121
 30
0.000000
  70
    32
  0
VERTEX
  8
┌▓È_1
  5
3B3
 10
898.808
 20
-312.133
 30
0.000000
  70
    32
  0
VERTEX
  8
┌▓È_1
  5
3B4
 10
898.823
 20
-312.146
 30
0.000000
  70
    32
  0
VERTEX
  8
┌▓È_1
  5
3B5
 10
898.837
 20
-312.158
 30
0.000000
  70
    32
  0
VERTEX
  8
┌▓È_1
  5
3B6
 10
898.852
 20
-312.171
 30
0.000000
  70
    32
  0
VERTEX
  8
┌▓È_1
  5
3B7
 10
898.867
 20
-312.183
 30
0.000000
  70
    32
  0
VERTEX
  8
┌▓È_1
  5
3B8
 10
898.882
 20
-312.196
 30
0.000000
  70
    32
  0
VERTEX
  8
┌▓È_1
  5
3B9
 10
898.897
 20
-312.208
 30
0.000000
  70
    32
  0
VERTEX
  8
┌▓È_1
  5
3BA
 10
898.912
 20
-312.220
 30
0.000000
  70
    32
  0
VERTEX
  8
┌▓È_1
  5
3BB
 10
898.927
 20
-312.233
 30
0.000000
  70
    32
  0
VERTEX
  8
┌▓È_1
  5
3BC
 10
898.942
 20
-312.245
 30
0.000000
  70
    32
  0
VERTEX
  8
┌▓È_1
  5
3BD
 10
898.957
 20
-312.257
 30
0.000000
  70
    32
  0
VERTEX
  8
┌▓È_1
  5
3BE
 10
898.972
 20
-312.270
 30
0.000000
  70
    32
  0
VERTEX
  8
┌▓È_1
  5
3BF
 10
898.986
 20
-312.282
 30
0.000000
  70
    32
  0
VERTEX
  8
┌▓È_1
  5
3C0
 10
899.001
 20
-312.294
 30
0.000000
  70
    32
  0
VERTEX
  8
┌▓È_1
  5
3C1
 10
899.016
 20
-312.306
 30
0.000000
  70
    32
  0
VERTEX
  8
┌▓È_1
  5
3C2
 10
899.031
 20
-312.318
 30
0.000000
  70
    32
  0
VERTEX
  8
┌▓È_1
  5
3C3
 10
899.046
 20
-312.331
 30
0.000000
  70
    32
  0
VERTEX
  8
┌▓È_1
  5
3C4
 10
899.062
 20
-312.343
 30
0.000000
  70
    32
  0
VERTEX
  8
┌▓È_1
  5
3C5
 10
899.077
 20
-312.355
 30
0.000000
  70
    32
  0
VERTEX
  8
┌▓È_1
  5
3C6
 10
899.092
 20
-312.367
 30
0.000000
  70
    32
  0
VERTEX
  8
┌▓È_1
  5
3C7
 10
899.107
 20
-312.379
 30
0.000000
  70
    32
  0
VERTEX
  8
┌▓È_1
  5
3C8
 10
899.122
 20
-312.391
 30
0.000000
  70
    32
  0
VERTEX
  8
┌▓È_1
  5
3C9
 10
899.137
 20
-312.403
 30
0.000000
  70
    32
  0
VERTEX
  8
┌▓È_1
  5
3CA
 10
899.152
 20
-312.415
 30
0.000000
  70
    32
  0
VERTEX
  8
┌▓È_1
  5
3CB
 10
899.167
 20
-312.427
 30
0.000000
  70
    32
  0
VERTEX
  8
┌▓È_1
  5
3CC
 10
899.182
 20
-312.439
 30
0.000000
  70
    32
  0
VERTEX
  8
┌▓È_1
  5
3CD
 10
899.197
 20
-312.451
 30
0.000000
  70
    32
  0
VERTEX
  8
┌▓È_1
  5
3CE
 10
899.213
 20
-312.463
 30
0.000000
  70
    32
  0
VERTEX
  8
┌▓È_1
  5
3CF
 10
899.228
 20
-312.474
 30
0.000000
  70
    32
  0
VERTEX
  8
┌▓È_1
  5
3D0
 10
899.243
 20
-312.486
 30
0.000000
  70
    32
  0
VERTEX
  8
┌▓È_1
  5
3D1
 10
899.258
 20
-312.498
 30
0.000000
  70
    32
  0
VERTEX
  8
┌▓È_1
  5
3D2
 10
899.274
 20
-312.510
 30
0.000000
  70
    32
  0
VERTEX
  8
┌▓È_1
  5
3D3
 10
899.289
 20
-312.521
 30
0.000000
  70
    32
  0
VERTEX
  8
┌▓È_1
  5
3D4
 10
899.304
 20
-312.533
 30
0.000000
  70
    32
  0
VERTEX
  8
┌▓È_1
  5
3D5
 10
899.319
 20
-312.545
 30
0.000000
  70
    32
  0
VERTEX
  8
┌▓È_1
  5
3D6
 10
899.335
 20
-312.556
 30
0.000000
  70
    32
  0
VERTEX
  8
┌▓È_1
  5
3D7
 10
899.350
 20
-312.568
 30
0.000000
  70
    32
  0
VERTEX
  8
┌▓È_1
  5
3D8
 10
899.365
 20
-312.580
 30
0.000000
  70
    32
  0
VERTEX
  8
┌▓È_1
  5
3D9
 10
899.381
 20
-312.591
 30
0.000000
  70
    32
  0
VERTEX
  8
┌▓È_1
  5
3DA
 10
899.396
 20
-312.603
 30
0.000000
  70
    32
  0
VERTEX
  8
┌▓È_1
  5
3DB
 10
899.411
 20
-312.614
 30
0.000000
  70
    32
  0
VERTEX
  8
┌▓È_1
  5
3DC
 10
899.427
 20
-312.625
 30
0.000000
  70
    32
  0
VERTEX
  8
┌▓È_1
  5
3DD
 10
899.442
 20
-312.637
 30
0.000000
  70
    32
  0
VERTEX
  8
┌▓È_1
  5
3DE
 10
899.458
 20
-312.648
 30
0.000000
  70
    32
  0
VERTEX
  8
┌▓È_1
  5
3DF
 10
899.473
 20
-312.660
 30
0.000000
  70
    32
  0
VERTEX
  8
┌▓È_1
  5
3E0
 10
899.489
 20
-312.671
 30
0.000000
  70
    32
  0
VERTEX
  8
┌▓È_1
  5
3E1
 10
899.504
 20
-312.682
 30
0.000000
  70
    32
  0
VERTEX
  8
┌▓È_1
  5
3E2
 10
899.520
 20
-312.693
 30
0.000000
  70
    32
  0
VERTEX
  8
┌▓È_1
  5
3E3
 10
899.535
 20
-312.705
 30
0.000000
  70
    32
  0
VERTEX
  8
┌▓È_1
  5
3E4
 10
899.551
 20
-312.716
 30
0.000000
  70
    32
  0
VERTEX
  8
┌▓È_1
  5
3E5
 10
899.566
 20
-312.727
 30
0.000000
  70
    32
  0
VERTEX
  8
┌▓È_1
  5
3E6
 10
899.582
 20
-312.738
 30
0.000000
  70
    32
  0
VERTEX
  8
┌▓È_1
  5
3E7
 10
899.597
 20
-312.749
 30
0.000000
  70
    32
  0
VERTEX
  8
┌▓È_1
  5
3E8
 10
899.613
 20
-312.760
 30
0.000000
  70
    32
  0
VERTEX
  8
┌▓È_1
  5
3E9
 10
899.629
 20
-312.771
 30
0.000000
  70
    32
  0
VERTEX
  8
┌▓È_1
  5
3EA
 10
899.644
 20
-312.782
 30
0.000000
  70
    32
  0
VERTEX
  8
┌▓È_1
  5
3EB
 10
899.660
 20
-312.793
 30
0.000000
  70
    32
  0
VERTEX
  8
┌▓È_1
  5
3EC
 10
899.676
 20
-312.804
 30
0.000000
  70
    32
  0
VERTEX
  8
┌▓È_1
  5
3ED
 10
899.692
 20
-312.815
 30
0.000000
  70
    32
  0
VERTEX
  8
┌▓È_1
  5
3EE
 10
899.707
 20
-312.826
 30
0.000000
  70
    32
  0
VERTEX
  8
┌▓È_1
  5
3EF
 10
899.723
 20
-312.836
 30
0.000000
  70
    32
  0
VERTEX
  8
┌▓È_1
  5
3F0
 10
899.739
 20
-312.847
 30
0.000000
  70
    32
  0
VERTEX
  8
┌▓È_1
  5
3F1
 10
899.755
 20
-312.858
 30
0.000000
  70
    32
  0
VERTEX
  8
┌▓È_1
  5
3F2
 10
899.770
 20
-312.869
 30
0.000000
  70
    32
  0
VERTEX
  8
┌▓È_1
  5
3F3
 10
899.786
 20
-312.879
 30
0.000000
  70
    32
  0
VERTEX
  8
┌▓È_1
  5
3F4
 10
899.802
 20
-312.890
 30
0.000000
  70
    32
  0
VERTEX
  8
┌▓È_1
  5
3F5
 10
899.818
 20
-312.900
 30
0.000000
  70
    32
  0
VERTEX
  8
┌▓È_1
  5
3F6
 10
899.834
 20
-312.911
 30
0.000000
  70
    32
  0
VERTEX
  8
┌▓È_1
  5
3F7
 10
899.850
 20
-312.921
 30
0.000000
  70
    32
  0
VERTEX
  8
┌▓È_1
  5
3F8
 10
899.866
 20
-312.932
 30
0.000000
  70
    32
  0
VERTEX
  8
┌▓È_1
  5
3F9
 10
899.882
 20
-312.942
 30
0.000000
  70
    32
  0
VERTEX
  8
┌▓È_1
  5
3FA
 10
899.898
 20
-312.952
 30
0.000000
  70
    32
  0
VERTEX
  8
┌▓È_1
  5
3FB
 10
899.914
 20
-312.963
 30
0.000000
  70
    32
  0
VERTEX
  8
┌▓È_1
  5
3FC
 10
899.930
 20
-312.973
 30
0.000000
  70
    32
  0
VERTEX
  8
┌▓È_1
  5
3FD
 10
899.946
 20
-312.983
 30
0.000000
  70
    32
  0
VERTEX
  8
┌▓È_1
  5
3FE
 10
899.962
 20
-312.993
 30
0.000000
  70
    32
  0
VERTEX
  8
┌▓È_1
  5
3FF
 10
899.978
 20
-313.004
 30
0.000000
  70
    32
  0
VERTEX
  8
┌▓È_1
  5
400
 10
899.994
 20
-313.014
 30
0.000000
  70
    32
  0
VERTEX
  8
┌▓È_1
  5
401
 10
900.010
 20
-313.024
 30
0.000000
  70
    32
  0
VERTEX
  8
┌▓È_1
  5
402
 10
900.026
 20
-313.034
 30
0.000000
  70
    32
  0
VERTEX
  8
┌▓È_1
  5
403
 10
900.043
 20
-313.044
 30
0.000000
  70
    32
  0
VERTEX
  8
┌▓È_1
  5
404
 10
900.059
 20
-313.054
 30
0.000000
  70
    32
  0
VERTEX
  8
┌▓È_1
  5
405
 10
900.075
 20
-313.064
 30
0.000000
  70
    32
  0
VERTEX
  8
┌▓È_1
  5
406
 10
900.091
 20
-313.073
 30
0.000000
  70
    32
  0
VERTEX
  8
┌▓È_1
  5
407
 10
900.108
 20
-313.083
 30
0.000000
  70
    32
  0
SEQEND
  8
┌▓È_1
  5
408
  0
POLYLINE
  8
┌▓È_1
  5
409
  62
5
  66
     1
 10
0.000000
 20
0.000000
 30
0.000000
  70
     8
  0
VERTEX
  8
┌▓È_1
  5
40A
 10
902.084
 20
-313.950
 30
0.000000
  70
    32
  0
VERTEX
  8
┌▓È_1
  5
40B
 10
902.105
 20
-313.957
 30
0.000000
  70
    32
  0
VERTEX
  8
┌▓È_1
  5
40C
 10
902.127
 20
-313.964
 30
0.000000
  70
    32
  0
VERTEX
  8
┌▓È_1
  5
40D
 10
902.148
 20
-313.971
 30
0.000000
  70
    32
  0
VERTEX
  8
┌▓È_1
  5
40E
 10
902.170
 20
-313.978
 30
0.000000
  70
    32
  0
VERTEX
  8
┌▓È_1
  5
40F
 10
902.191
 20
-313.984
 30
0.000000
  70
    32
  0
VERTEX
  8
┌▓È_1
  5
410
 10
902.213
 20
-313.991
 30
0.000000
  70
    32
  0
VERTEX
  8
┌▓È_1
  5
411
 10
902.235
 20
-313.998
 30
0.000000
  70
    32
  0
VERTEX
  8
┌▓È_1
  5
412
 10
902.256
 20
-314.004
 30
0.000000
  70
    32
  0
VERTEX
  8
┌▓È_1
  5
413
 10
902.278
 20
-314.011
 30
0.000000
  70
    32
  0
VERTEX
  8
┌▓È_1
  5
414
 10
902.300
 20
-314.018
 30
0.000000
  70
    32
  0
VERTEX
  8
┌▓È_1
  5
415
 10
902.321
 20
-314.024
 30
0.000000
  70
    32
  0
VERTEX
  8
┌▓È_1
  5
416
 10
902.343
 20
-314.031
 30
0.000000
  70
    32
  0
VERTEX
  8
┌▓È_1
  5
417
 10
902.365
 20
-314.037
 30
0.000000
  70
    32
  0
VERTEX
  8
┌▓È_1
  5
418
 10
902.387
 20
-314.044
 30
0.000000
  70
    32
  0
VERTEX
  8
┌▓È_1
  5
419
 10
902.408
 20
-314.050
 30
0.000000
  70
    32
  0
VERTEX
  8
┌▓È_1
  5
41A
 10
902.430
 20
-314.056
 30
0.000000
  70
    32
  0
VERTEX
  8
┌▓È_1
  5
41B
 10
902.452
 20
-314.063
 30
0.000000
  70
    32
  0
VERTEX
  8
┌▓È_1
  5
41C
 10
902.474
 20
-314.069
 30
0.000000
  70
    32
  0
VERTEX
  8
┌▓È_1
  5
41D
 10
902.496
 20
-314.075
 30
0.000000
  70
    32
  0
VERTEX
  8
┌▓È_1
  5
41E
 10
902.518
 20
-314.082
 30
0.000000
  70
    32
  0
VERTEX
  8
┌▓È_1
  5
41F
 10
902.539
 20
-314.088
 30
0.000000
  70
    32
  0
VERTEX
  8
┌▓È_1
  5
420
 10
902.561
 20
-314.094
 30
0.000000
  70
    32
  0
VERTEX
  8
┌▓È_1
  5
421
 10
902.583
 20
-314.100
 30
0.000000
  70
    32
  0
VERTEX
  8
┌▓È_1
  5
422
 10
902.605
 20
-314.106
 30
0.000000
  70
    32
  0
VERTEX
  8
┌▓È_1
  5
423
 10
902.627
 20
-314.112
 30
0.000000
  70
    32
  0
VERTEX
  8
┌▓È_1
  5
424
 10
902.649
 20
-314.119
 30
0.000000
  70
    32
  0
VERTEX
  8
┌▓È_1
  5
425
 10
902.671
 20
-314.125
 30
0.000000
  70
    32
  0
VERTEX
  8
┌▓È_1
  5
426
 10
902.693
 20
-314.131
 30
0.000000
  70
    32
  0
VERTEX
  8
┌▓È_1
  5
427
 10
902.715
 20
-314.137
 30
0.000000
  70
    32
  0
VERTEX
  8
┌▓È_1
  5
428
 10
902.737
 20
-314.143
 30
0.000000
  70
    32
  0
VERTEX
  8
┌▓È_1
  5
429
 10
902.759
 20
-314.149
 30
0.000000
  70
    32
  0
VERTEX
  8
┌▓È_1
  5
42A
 10
902.781
 20
-314.155
 30
0.000000
  70
    32
  0
VERTEX
  8
┌▓È_1
  5
42B
 10
902.803
 20
-314.161
 30
0.000000
  70
    32
  0
VERTEX
  8
┌▓È_1
  5
42C
 10
902.825
 20
-314.166
 30
0.000000
  70
    32
  0
VERTEX
  8
┌▓È_1
  5
42D
 10
902.847
 20
-314.172
 30
0.000000
  70
    32
  0
VERTEX
  8
┌▓È_1
  5
42E
 10
902.869
 20
-314.178
 30
0.000000
  70
    32
  0
VERTEX
  8
┌▓È_1
  5
42F
 10
902.891
 20
-314.184
 30
0.000000
  70
    32
  0
VERTEX
  8
┌▓È_1
  5
430
 10
902.913
 20
-314.190
 30
0.000000
  70
    32
  0
VERTEX
  8
┌▓È_1
  5
431
 10
902.936
 20
-314.196
 30
0.000000
  70
    32
  0
VERTEX
  8
┌▓È_1
  5
432
 10
902.958
 20
-314.201
 30
0.000000
  70
    32
  0
VERTEX
  8
┌▓È_1
  5
433
 10
902.980
 20
-314.207
 30
0.000000
  70
    32
  0
VERTEX
  8
┌▓È_1
  5
434
 10
903.002
 20
-314.213
 30
0.000000
  70
    32
  0
VERTEX
  8
┌▓È_1
  5
435
 10
903.024
 20
-314.218
 30
0.000000
  70
    32
  0
VERTEX
  8
┌▓È_1
  5
436
 10
903.046
 20
-314.224
 30
0.000000
  70
    32
  0
VERTEX
  8
┌▓È_1
  5
437
 10
903.069
 20
-314.230
 30
0.000000
  70
    32
  0
VERTEX
  8
┌▓È_1
  5
438
 10
903.091
 20
-314.235
 30
0.000000
  70
    32
  0
VERTEX
  8
┌▓È_1
  5
439
 10
903.113
 20
-314.241
 30
0.000000
  70
    32
  0
VERTEX
  8
┌▓È_1
  5
43A
 10
903.135
 20
-314.246
 30
0.000000
  70
    32
  0
VERTEX
  8
┌▓È_1
  5
43B
 10
903.158
 20
-314.252
 30
0.000000
  70
    32
  0
VERTEX
  8
┌▓È_1
  5
43C
 10
903.180
 20
-314.258
 30
0.000000
  70
    32
  0
VERTEX
  8
┌▓È_1
  5
43D
 10
903.202
 20
-314.263
 30
0.000000
  70
    32
  0
VERTEX
  8
┌▓È_1
  5
43E
 10
903.224
 20
-314.269
 30
0.000000
  70
    32
  0
VERTEX
  8
┌▓È_1
  5
43F
 10
903.247
 20
-314.274
 30
0.000000
  70
    32
  0
VERTEX
  8
┌▓È_1
  5
440
 10
903.269
 20
-314.279
 30
0.000000
  70
    32
  0
VERTEX
  8
┌▓È_1
  5
441
 10
903.291
 20
-314.285
 30
0.000000
  70
    32
  0
VERTEX
  8
┌▓È_1
  5
442
 10
903.314
 20
-314.290
 30
0.000000
  70
    32
  0
VERTEX
  8
┌▓È_1
  5
443
 10
903.336
 20
-314.296
 30
0.000000
  70
    32
  0
VERTEX
  8
┌▓È_1
  5
444
 10
903.358
 20
-314.301
 30
0.000000
  70
    32
  0
VERTEX
  8
┌▓È_1
  5
445
 10
903.381
 20
-314.306
 30
0.000000
  70
    32
  0
VERTEX
  8
┌▓È_1
  5
446
 10
903.403
 20
-314.312
 30
0.000000
  70
    32
  0
VERTEX
  8
┌▓È_1
  5
447
 10
903.425
 20
-314.317
 30
0.000000
  70
    32
  0
VERTEX
  8
┌▓È_1
  5
448
 10
903.448
 20
-314.322
 30
0.000000
  70
    32
  0
VERTEX
  8
┌▓È_1
  5
449
 10
903.470
 20
-314.328
 30
0.000000
  70
    32
  0
VERTEX
  8
┌▓È_1
  5
44A
 10
903.493
 20
-314.333
 30
0.000000
  70
    32
  0
VERTEX
  8
┌▓È_1
  5
44B
 10
903.515
 20
-314.338
 30
0.000000
  70
    32
  0
VERTEX
  8
┌▓È_1
  5
44C
 10
903.537
 20
-314.343
 30
0.000000
  70
    32
  0
VERTEX
  8
┌▓È_1
  5
44D
 10
903.560
 20
-314.349
 30
0.000000
  70
    32
  0
VERTEX
  8
┌▓È_1
  5
44E
 10
903.582
 20
-314.354
 30
0.000000
  70
    32
  0
VERTEX
  8
┌▓È_1
  5
44F
 10
903.605
 20
-314.359
 30
0.000000
  70
    32
  0
VERTEX
  8
┌▓È_1
  5
450
 10
903.627
 20
-314.364
 30
0.000000
  70
    32
  0
VERTEX
  8
┌▓È_1
  5
451
 10
903.650
 20
-314.369
 30
0.000000
  70
    32
  0
VERTEX
  8
┌▓È_1
  5
452
 10
903.672
 20
-314.374
 30
0.000000
  70
    32
  0
VERTEX
  8
┌▓È_1
  5
453
 10
903.695
 20
-314.379
 30
0.000000
  70
    32
  0
VERTEX
  8
┌▓È_1
  5
454
 10
903.717
 20
-314.385
 30
0.000000
  70
    32
  0
VERTEX
  8
┌▓È_1
  5
455
 10
903.740
 20
-314.390
 30
0.000000
  70
    32
  0
VERTEX
  8
┌▓È_1
  5
456
 10
903.762
 20
-314.395
 30
0.000000
  70
    32
  0
VERTEX
  8
┌▓È_1
  5
457
 10
903.785
 20
-314.400
 30
0.000000
  70
    32
  0
VERTEX
  8
┌▓È_1
  5
458
 10
903.807
 20
-314.405
 30
0.000000
  70
    32
  0
VERTEX
  8
┌▓È_1
  5
459
 10
903.830
 20
-314.410
 30
0.000000
  70
    32
  0
VERTEX
  8
┌▓È_1
  5
45A
 10
903.852
 20
-314.415
 30
0.000000
  70
    32
  0
VERTEX
  8
┌▓È_1
  5
45B
 10
903.875
 20
-314.420
 30
0.000000
  70
    32
  0
VERTEX
  8
┌▓È_1
  5
45C
 10
903.897
 20
-314.425
 30
0.000000
  70
    32
  0
VERTEX
  8
┌▓È_1
  5
45D
 10
903.920
 20
-314.430
 30
0.000000
  70
    32
  0
VERTEX
  8
┌▓È_1
  5
45E
 10
903.942
 20
-314.435
 30
0.000000
  70
    32
  0
VERTEX
  8
┌▓È_1
  5
45F
 10
903.965
 20
-314.440
 30
0.000000
  70
    32
  0
VERTEX
  8
┌▓È_1
  5
460
 10
903.988
 20
-314.445
 30
0.000000
  70
    32
  0
VERTEX
  8
┌▓È_1
  5
461
 10
904.010
 20
-314.450
 30
0.000000
  70
    32
  0
VERTEX
  8
┌▓È_1
  5
462
 10
904.033
 20
-314.455
 30
0.000000
  70
    32
  0
VERTEX
  8
┌▓È_1
  5
463
 10
904.055
 20
-314.460
 30
0.000000
  70
    32
  0
VERTEX
  8
┌▓È_1
  5
464
 10
904.078
 20
-314.464
 30
0.000000
  70
    32
  0
VERTEX
  8
┌▓È_1
  5
465
 10
904.101
 20
-314.469
 30
0.000000
  70
    32
  0
VERTEX
  8
┌▓È_1
  5
466
 10
904.123
 20
-314.474
 30
0.000000
  70
    32
  0
VERTEX
  8
┌▓È_1
  5
467
 10
904.146
 20
-314.479
 30
0.000000
  70
    32
  0
VERTEX
  8
┌▓È_1
  5
468
 10
904.168
 20
-314.484
 30
0.000000
  70
    32
  0
VERTEX
  8
┌▓È_1
  5
469
 10
904.191
 20
-314.489
 30
0.000000
  70
    32
  0
VERTEX
  8
┌▓È_1
  5
46A
 10
904.214
 20
-314.494
 30
0.000000
  70
    32
  0
VERTEX
  8
┌▓È_1
  5
46B
 10
904.236
 20
-314.499
 30
0.000000
  70
    32
  0
VERTEX
  8
┌▓È_1
  5
46C
 10
904.259
 20
-314.503
 30
0.000000
  70
    32
  0
VERTEX
  8
┌▓È_1
  5
46D
 10
904.281
 20
-314.508
 30
0.000000
  70
    32
  0
VERTEX
  8
┌▓È_1
  5
46E
 10
904.304
 20
-314.513
 30
0.000000
  70
    32
  0
VERTEX
  8
┌▓È_1
  5
46F
 10
904.327
 20
-314.518
 30
0.000000
  70
    32
  0
VERTEX
  8
┌▓È_1
  5
470
 10
904.349
 20
-314.523
 30
0.000000
  70
    32
  0
VERTEX
  8
┌▓È_1
  5
471
 10
904.372
 20
-314.527
 30
0.000000
  70
    32
  0
VERTEX
  8
┌▓È_1
  5
472
 10
904.395
 20
-314.532
 30
0.000000
  70
    32
  0
VERTEX
  8
┌▓È_1
  5
473
 10
904.417
 20
-314.537
 30
0.000000
  70
    32
  0
VERTEX
  8
┌▓È_1
  5
474
 10
904.440
 20
-314.542
 30
0.000000
  70
    32
  0
VERTEX
  8
┌▓È_1
  5
475
 10
904.463
 20
-314.547
 30
0.000000
  70
    32
  0
VERTEX
  8
┌▓È_1
  5
476
 10
904.485
 20
-314.551
 30
0.000000
  70
    32
  0
VERTEX
  8
┌▓È_1
  5
477
 10
904.508
 20
-314.556
 30
0.000000
  70
    32
  0
VERTEX
  8
┌▓È_1
  5
478
 10
904.531
 20
-314.561
 30
0.000000
  70
    32
  0
VERTEX
  8
┌▓È_1
  5
479
 10
904.553
 20
-314.566
 30
0.000000
  70
    32
  0
VERTEX
  8
┌▓È_1
  5
47A
 10
904.576
 20
-314.570
 30
0.000000
  70
    32
  0
VERTEX
  8
┌▓È_1
  5
47B
 10
904.599
 20
-314.575
 30
0.000000
  70
    32
  0
VERTEX
  8
┌▓È_1
  5
47C
 10
904.621
 20
-314.580
 30
0.000000
  70
    32
  0
VERTEX
  8
┌▓È_1
  5
47D
 10
904.644
 20
-314.585
 30
0.000000
  70
    32
  0
VERTEX
  8
┌▓È_1
  5
47E
 10
904.667
 20
-314.589
 30
0.000000
  70
    32
  0
VERTEX
  8
┌▓È_1
  5
47F
 10
904.690
 20
-314.594
 30
0.000000
  70
    32
  0
VERTEX
  8
┌▓È_1
  5
480
 10
904.712
 20
-314.599
 30
0.000000
  70
    32
  0
VERTEX
  8
┌▓È_1
  5
481
 10
904.735
 20
-314.604
 30
0.000000
  70
    32
  0
VERTEX
  8
┌▓È_1
  5
482
 10
904.758
 20
-314.608
 30
0.000000
  70
    32
  0
VERTEX
  8
┌▓È_1
  5
483
 10
904.780
 20
-314.613
 30
0.000000
  70
    32
  0
VERTEX
  8
┌▓È_1
  5
484
 10
904.803
 20
-314.618
 30
0.000000
  70
    32
  0
VERTEX
  8
┌▓È_1
  5
485
 10
904.826
 20
-314.622
 30
0.000000
  70
    32
  0
VERTEX
  8
┌▓È_1
  5
486
 10
904.848
 20
-314.627
 30
0.000000
  70
    32
  0
VERTEX
  8
┌▓È_1
  5
487
 10
904.871
 20
-314.632
 30
0.000000
  70
    32
  0
VERTEX
  8
┌▓È_1
  5
488
 10
904.894
 20
-314.637
 30
0.000000
  70
    32
  0
VERTEX
  8
┌▓È_1
  5
489
 10
904.916
 20
-314.641
 30
0.000000
  70
    32
  0
SEQEND
  8
┌▓È_1
  5
48A
  0
POLYLINE
  8
┌▓È_1
  5
48B
  62
5
  66
     1
 10
0.000000
 20
0.000000
 30
0.000000
  70
     8
  0
VERTEX
  8
┌▓È_1
  5
48C
 10
900.464
 20
-311.352
 30
0.000000
  70
    32
  0
VERTEX
  8
┌▓È_1
  5
48D
 10
900.469
 20
-311.357
 30
0.000000
  70
    32
  0
VERTEX
  8
┌▓È_1
  5
48E
 10
900.474
 20
-311.363
 30
0.000000
  70
    32
  0
VERTEX
  8
┌▓È_1
  5
48F
 10
900.480
 20
-311.369
 30
0.000000
  70
    32
  0
VERTEX
  8
┌▓È_1
  5
490
 10
900.485
 20
-311.375
 30
0.000000
  70
    32
  0
VERTEX
  8
┌▓È_1
  5
491
 10
900.490
 20
-311.381
 30
0.000000
  70
    32
  0
VERTEX
  8
┌▓È_1
  5
492
 10
900.496
 20
-311.387
 30
0.000000
  70
    32
  0
VERTEX
  8
┌▓È_1
  5
493
 10
900.501
 20
-311.393
 30
0.000000
  70
    32
  0
VERTEX
  8
┌▓È_1
  5
494
 10
900.506
 20
-311.399
 30
0.000000
  70
    32
  0
VERTEX
  8
┌▓È_1
  5
495
 10
900.511
 20
-311.404
 30
0.000000
  70
    32
  0
VERTEX
  8
┌▓È_1
  5
496
 10
900.517
 20
-311.410
 30
0.000000
  70
    32
  0
VERTEX
  8
┌▓È_1
  5
497
 10
900.522
 20
-311.416
 30
0.000000
  70
    32
  0
VERTEX
  8
┌▓È_1
  5
498
 10
900.527
 20
-311.422
 30
0.000000
  70
    32
  0
VERTEX
  8
┌▓È_1
  5
499
 10
900.533
 20
-311.428
 30
0.000000
  70
    32
  0
VERTEX
  8
┌▓È_1
  5
49A
 10
900.538
 20
-311.434
 30
0.000000
  70
    32
  0
VERTEX
  8
┌▓È_1
  5
49B
 10
900.543
 20
-311.440
 30
0.000000
  70
    32
  0
VERTEX
  8
┌▓È_1
  5
49C
 10
900.548
 20
-311.446
 30
0.000000
  70
    32
  0
VERTEX
  8
┌▓È_1
  5
49D
 10
900.554
 20
-311.452
 30
0.000000
  70
    32
  0
VERTEX
  8
┌▓È_1
  5
49E
 10
900.559
 20
-311.457
 30
0.000000
  70
    32
  0
VERTEX
  8
┌▓È_1
  5
49F
 10
900.564
 20
-311.463
 30
0.000000
  70
    32
  0
VERTEX
  8
┌▓È_1
  5
4A0
 10
900.570
 20
-311.469
 30
0.000000
  70
    32
  0
VERTEX
  8
┌▓È_1
  5
4A1
 10
900.575
 20
-311.475
 30
0.000000
  70
    32
  0
VERTEX
  8
┌▓È_1
  5
4A2
 10
900.580
 20
-311.481
 30
0.000000
  70
    32
  0
VERTEX
  8
┌▓È_1
  5
4A3
 10
900.585
 20
-311.487
 30
0.000000
  70
    32
  0
VERTEX
  8
┌▓È_1
  5
4A4
 10
900.591
 20
-311.493
 30
0.000000
  70
    32
  0
VERTEX
  8
┌▓È_1
  5
4A5
 10
900.596
 20
-311.498
 30
0.000000
  70
    32
  0
VERTEX
  8
┌▓È_1
  5
4A6
 10
900.601
 20
-311.504
 30
0.000000
  70
    32
  0
VERTEX
  8
┌▓È_1
  5
4A7
 10
900.607
 20
-311.510
 30
0.000000
  70
    32
  0
VERTEX
  8
┌▓È_1
  5
4A8
 10
900.612
 20
-311.516
 30
0.000000
  70
    32
  0
VERTEX
  8
┌▓È_1
  5
4A9
 10
900.617
 20
-311.522
 30
0.000000
  70
    32
  0
VERTEX
  8
┌▓È_1
  5
4AA
 10
900.623
 20
-311.528
 30
0.000000
  70
    32
  0
VERTEX
  8
┌▓È_1
  5
4AB
 10
900.628
 20
-311.534
 30
0.000000
  70
    32
  0
VERTEX
  8
┌▓È_1
  5
4AC
 10
900.633
 20
-311.539
 30
0.000000
  70
    32
  0
VERTEX
  8
┌▓È_1
  5
4AD
 10
900.638
 20
-311.545
 30
0.000000
  70
    32
  0
VERTEX
  8
┌▓È_1
  5
4AE
 10
900.644
 20
-311.551
 30
0.000000
  70
    32
  0
VERTEX
  8
┌▓È_1
  5
4AF
 10
900.649
 20
-311.557
 30
0.000000
  70
    32
  0
VERTEX
  8
┌▓È_1
  5
4B0
 10
900.654
 20
-311.563
 30
0.000000
  70
    32
  0
VERTEX
  8
┌▓È_1
  5
4B1
 10
900.660
 20
-311.569
 30
0.000000
  70
    32
  0
VERTEX
  8
┌▓È_1
  5
4B2
 10
900.665
 20
-311.574
 30
0.000000
  70
    32
  0
VERTEX
  8
┌▓È_1
  5
4B3
 10
900.670
 20
-311.580
 30
0.000000
  70
    32
  0
VERTEX
  8
┌▓È_1
  5
4B4
 10
900.676
 20
-311.586
 30
0.000000
  70
    32
  0
VERTEX
  8
┌▓È_1
  5
4B5
 10
900.681
 20
-311.592
 30
0.000000
  70
    32
  0
VERTEX
  8
┌▓È_1
  5
4B6
 10
900.686
 20
-311.598
 30
0.000000
  70
    32
  0
VERTEX
  8
┌▓È_1
  5
4B7
 10
900.692
 20
-311.603
 30
0.000000
  70
    32
  0
VERTEX
  8
┌▓È_1
  5
4B8
 10
900.697
 20
-311.609
 30
0.000000
  70
    32
  0
VERTEX
  8
┌▓È_1
  5
4B9
 10
900.702
 20
-311.615
 30
0.000000
  70
    32
  0
VERTEX
  8
┌▓È_1
  5
4BA
 10
900.708
 20
-311.621
 30
0.000000
  70
    32
  0
VERTEX
  8
┌▓È_1
  5
4BB
 10
900.713
 20
-311.627
 30
0.000000
  70
    32
  0
VERTEX
  8
┌▓È_1
  5
4BC
 10
900.718
 20
-311.632
 30
0.000000
  70
    32
  0
VERTEX
  8
┌▓È_1
  5
4BD
 10
900.724
 20
-311.638
 30
0.000000
  70
    32
  0
VERTEX
  8
┌▓È_1
  5
4BE
 10
900.729
 20
-311.644
 30
0.000000
  70
    32
  0
VERTEX
  8
┌▓È_1
  5
4BF
 10
900.734
 20
-311.650
 30
0.000000
  70
    32
  0
VERTEX
  8
┌▓È_1
  5
4C0
 10
900.740
 20
-311.656
 30
0.000000
  70
    32
  0
VERTEX
  8
┌▓È_1
  5
4C1
 10
900.745
 20
-311.661
 30
0.000000
  70
    32
  0
VERTEX
  8
┌▓È_1
  5
4C2
 10
900.750
 20
-311.667
 30
0.000000
  70
    32
  0
VERTEX
  8
┌▓È_1
  5
4C3
 10
900.756
 20
-311.673
 30
0.000000
  70
    32
  0
VERTEX
  8
┌▓È_1
  5
4C4
 10
900.761
 20
-311.679
 30
0.000000
  70
    32
  0
VERTEX
  8
┌▓È_1
  5
4C5
 10
900.767
 20
-311.684
 30
0.000000
  70
    32
  0
VERTEX
  8
┌▓È_1
  5
4C6
 10
900.772
 20
-311.690
 30
0.000000
  70
    32
  0
VERTEX
  8
┌▓È_1
  5
4C7
 10
900.777
 20
-311.696
 30
0.000000
  70
    32
  0
VERTEX
  8
┌▓È_1
  5
4C8
 10
900.783
 20
-311.702
 30
0.000000
  70
    32
  0
VERTEX
  8
┌▓È_1
  5
4C9
 10
900.788
 20
-311.707
 30
0.000000
  70
    32
  0
VERTEX
  8
┌▓È_1
  5
4CA
 10
900.793
 20
-311.713
 30
0.000000
  70
    32
  0
VERTEX
  8
┌▓È_1
  5
4CB
 10
900.799
 20
-311.719
 30
0.000000
  70
    32
  0
VERTEX
  8
┌▓È_1
  5
4CC
 10
900.804
 20
-311.724
 30
0.000000
  70
    32
  0
VERTEX
  8
┌▓È_1
  5
4CD
 10
900.810
 20
-311.730
 30
0.000000
  70
    32
  0
VERTEX
  8
┌▓È_1
  5
4CE
 10
900.815
 20
-311.736
 30
0.000000
  70
    32
  0
VERTEX
  8
┌▓È_1
  5
4CF
 10
900.820
 20
-311.742
 30
0.000000
  70
    32
  0
VERTEX
  8
┌▓È_1
  5
4D0
 10
900.826
 20
-311.747
 30
0.000000
  70
    32
  0
VERTEX
  8
┌▓È_1
  5
4D1
 10
900.831
 20
-311.753
 30
0.000000
  70
    32
  0
VERTEX
  8
┌▓È_1
  5
4D2
 10
900.837
 20
-311.759
 30
0.000000
  70
    32
  0
VERTEX
  8
┌▓È_1
  5
4D3
 10
900.842
 20
-311.764
 30
0.000000
  70
    32
  0
VERTEX
  8
┌▓È_1
  5
4D4
 10
900.847
 20
-311.770
 30
0.000000
  70
    32
  0
VERTEX
  8
┌▓È_1
  5
4D5
 10
900.853
 20
-311.776
 30
0.000000
  70
    32
  0
VERTEX
  8
┌▓È_1
  5
4D6
 10
900.858
 20
-311.781
 30
0.000000
  70
    32
  0
VERTEX
  8
┌▓È_1
  5
4D7
 10
900.864
 20
-311.787
 30
0.000000
  70
    32
  0
VERTEX
  8
┌▓È_1
  5
4D8
 10
900.869
 20
-311.792
 30
0.000000
  70
    32
  0
VERTEX
  8
┌▓È_1
  5
4D9
 10
900.875
 20
-311.798
 30
0.000000
  70
    32
  0
VERTEX
  8
┌▓È_1
  5
4DA
 10
900.880
 20
-311.804
 30
0.000000
  70
    32
  0
VERTEX
  8
┌▓È_1
  5
4DB
 10
900.885
 20
-311.809
 30
0.000000
  70
    32
  0
VERTEX
  8
┌▓È_1
  5
4DC
 10
900.891
 20
-311.815
 30
0.000000
  70
    32
  0
VERTEX
  8
┌▓È_1
  5
4DD
 10
900.896
 20
-311.821
 30
0.000000
  70
    32
  0
VERTEX
  8
┌▓È_1
  5
4DE
 10
900.902
 20
-311.826
 30
0.000000
  70
    32
  0
VERTEX
  8
┌▓È_1
  5
4DF
 10
900.907
 20
-311.832
 30
0.000000
  70
    32
  0
VERTEX
  8
┌▓È_1
  5
4E0
 10
900.913
 20
-311.837
 30
0.000000
  70
    32
  0
VERTEX
  8
┌▓È_1
  5
4E1
 10
900.918
 20
-311.843
 30
0.000000
  70
    32
  0
VERTEX
  8
┌▓È_1
  5
4E2
 10
900.924
 20
-311.848
 30
0.000000
  70
    32
  0
VERTEX
  8
┌▓È_1
  5
4E3
 10
900.929
 20
-311.854
 30
0.000000
  70
    32
  0
VERTEX
  8
┌▓È_1
  5
4E4
 10
900.935
 20
-311.860
 30
0.000000
  70
    32
  0
VERTEX
  8
┌▓È_1
  5
4E5
 10
900.940
 20
-311.865
 30
0.000000
  70
    32
  0
VERTEX
  8
┌▓È_1
  5
4E6
 10
900.946
 20
-311.871
 30
0.000000
  70
    32
  0
VERTEX
  8
┌▓È_1
  5
4E7
 10
900.951
 20
-311.876
 30
0.000000
  70
    32
  0
VERTEX
  8
┌▓È_1
  5
4E8
 10
900.957
 20
-311.882
 30
0.000000
  70
    32
  0
VERTEX
  8
┌▓È_1
  5
4E9
 10
900.962
 20
-311.887
 30
0.000000
  70
    32
  0
VERTEX
  8
┌▓È_1
  5
4EA
 10
900.968
 20
-311.893
 30
0.000000
  70
    32
  0
VERTEX
  8
┌▓È_1
  5
4EB
 10
900.973
 20
-311.898
 30
0.000000
  70
    32
  0
VERTEX
  8
┌▓È_1
  5
4EC
 10
900.979
 20
-311.904
 30
0.000000
  70
    32
  0
VERTEX
  8
┌▓È_1
  5
4ED
 10
900.984
 20
-311.909
 30
0.000000
  70
    32
  0
VERTEX
  8
┌▓È_1
  5
4EE
 10
900.990
 20
-311.915
 30
0.000000
  70
    32
  0
VERTEX
  8
┌▓È_1
  5
4EF
 10
900.995
 20
-311.920
 30
0.000000
  70
    32
  0
VERTEX
  8
┌▓È_1
  5
4F0
 10
901.001
 20
-311.926
 30
0.000000
  70
    32
  0
VERTEX
  8
┌▓È_1
  5
4F1
 10
901.007
 20
-311.931
 30
0.000000
  70
    32
  0
VERTEX
  8
┌▓È_1
  5
4F2
 10
901.012
 20
-311.936
 30
0.000000
  70
    32
  0
VERTEX
  8
┌▓È_1
  5
4F3
 10
901.018
 20
-311.942
 30
0.000000
  70
    32
  0
VERTEX
  8
┌▓È_1
  5
4F4
 10
901.023
 20
-311.947
 30
0.000000
  70
    32
  0
VERTEX
  8
┌▓È_1
  5
4F5
 10
901.029
 20
-311.953
 30
0.000000
  70
    32
  0
VERTEX
  8
┌▓È_1
  5
4F6
 10
901.034
 20
-311.958
 30
0.000000
  70
    32
  0
VERTEX
  8
┌▓È_1
  5
4F7
 10
901.040
 20
-311.963
 30
0.000000
  70
    32
  0
VERTEX
  8
┌▓È_1
  5
4F8
 10
901.046
 20
-311.969
 30
0.000000
  70
    32
  0
VERTEX
  8
┌▓È_1
  5
4F9
 10
901.051
 20
-311.974
 30
0.000000
  70
    32
  0
VERTEX
  8
┌▓È_1
  5
4FA
 10
901.057
 20
-311.980
 30
0.000000
  70
    32
  0
VERTEX
  8
┌▓È_1
  5
4FB
 10
901.062
 20
-311.985
 30
0.000000
  70
    32
  0
VERTEX
  8
┌▓È_1
  5
4FC
 10
901.068
 20
-311.990
 30
0.000000
  70
    32
  0
VERTEX
  8
┌▓È_1
  5
4FD
 10
901.074
 20
-311.996
 30
0.000000
  70
    32
  0
VERTEX
  8
┌▓È_1
  5
4FE
 10
901.079
 20
-312.001
 30
0.000000
  70
    32
  0
VERTEX
  8
┌▓È_1
  5
4FF
 10
901.085
 20
-312.006
 30
0.000000
  70
    32
  0
VERTEX
  8
┌▓È_1
  5
500
 10
901.091
 20
-312.012
 30
0.000000
  70
    32
  0
VERTEX
  8
┌▓È_1
  5
501
 10
901.096
 20
-312.017
 30
0.000000
  70
    32
  0
VERTEX
  8
┌▓È_1
  5
502
 10
901.102
 20
-312.022
 30
0.000000
  70
    32
  0
VERTEX
  8
┌▓È_1
  5
503
 10
901.108
 20
-312.027
 30
0.000000
  70
    32
  0
VERTEX
  8
┌▓È_1
  5
504
 10
901.113
 20
-312.033
 30
0.000000
  70
    32
  0
VERTEX
  8
┌▓È_1
  5
505
 10
901.119
 20
-312.038
 30
0.000000
  70
    32
  0
VERTEX
  8
┌▓È_1
  5
506
 10
901.125
 20
-312.043
 30
0.000000
  70
    32
  0
VERTEX
  8
┌▓È_1
  5
507
 10
901.130
 20
-312.048
 30
0.000000
  70
    32
  0
VERTEX
  8
┌▓È_1
  5
508
 10
901.136
 20
-312.054
 30
0.000000
  70
    32
  0
VERTEX
  8
┌▓È_1
  5
509
 10
901.142
 20
-312.059
 30
0.000000
  70
    32
  0
VERTEX
  8
┌▓È_1
  5
50A
 10
901.147
 20
-312.064
 30
0.000000
  70
    32
  0
VERTEX
  8
┌▓È_1
  5
50B
 10
901.153
 20
-312.069
 30
0.000000
  70
    32
  0
SEQEND
  8
┌▓È_1
  5
50C
  0
LINE
  5
21E
  8
┌▓È_1
 10
902.59079374700002
 20
-294.919424988
 30
0.0
 11
918.59079374700002
 21
-294.919424988
 31
0.0
  0
LINE
  5
21F
  8
┌▓È_1
 10
918.59079374700002
 20
-299.169424988
 30
0.0
 11
974.59079374700013
 21
-299.169424988
 31
0.0
  0
LINE
  5
220
  8
┌▓È_1
 10
854.59079374699991
 20
-299.169424988
 30
0.0
 11
902.59079374700002
 21
-299.169424988
 31
0.0
  0
LINE
  5
221
  8
┌▓È_1
  6
STITCH
 10
726.2979505612999
 20
-165.65540646310001
 30
0.0
 11
728.04795056130001
 21
-163.90540646310001
 31
0.0
  0
LINE
  5
222
  8
┌▓È_1
  6
STITCH
 10
725.29795056130001
 20
-170.65540646310001
 30
0.0
 11
725.29795056130001
 21
-165.65540646310001
 31
0.0
  0
LINE
  5
223
  8
┌▓È_1
  6
STITCH
 10
726.2979505612999
 20
-165.65540646310001
 30
0.0
 11
726.2979505612999
 21
-170.65540646310001
 31
0.0
  0
LINE
  5
224
  8
┌▓È_1
  6
STITCH
 10
725.29795056130001
 20
-165.65540646310001
 30
0.0
 11
726.2979505612999
 21
-165.65540646310001
 31
0.0
  0
LINE
  5
225
  8
┌▓È_1
  6
STITCH
 10
726.2979505612999
 20
-170.65540646310001
 30
0.0
 11
725.29795056130001
 21
-170.65540646310001
 31
0.0
  0
LINE
  5
226
  8
┌▓È_1
  6
STITCH
 10
726.2979505612999
 20
-193.65540646310001
 30
0.0
 11
728.04795056130001
 21
-191.90540646310001
 31
0.0
  0
LINE
  5
227
  8
┌▓È_1
  6
STITCH
 10
725.29795056130001
 20
-193.65540646310001
 30
0.0
 11
723.54795056130001
 21
-191.90540646310001
 31
0.0
  0
LINE
  5
228
  8
┌▓È_1
  6
STITCH
 10
725.29795056130001
 20
-198.65540646310001
 30
0.0
 11
723.54795056130001
 21
-200.40540646310001
 31
0.0
  0
LINE
  5
229
  8
┌▓È_1
  6
STITCH
 10
725.29795056130001
 20
-198.65540646310001
 30
0.0
 11
725.29795056130001
 21
-193.65540646310001
 31
0.0
  0
LINE
  5
22A
  8
┌▓È_1
  6
STITCH
 10
746.04795056130001
 20
-213.40540646310001
 30
0.0
 11
747.7979505612999
 21
-211.65540646310001
 31
0.0
  0
LINE
  5
22B
  8
┌▓È_1
  6
STITCH
 10
746.04795056130001
 20
-214.40540646310001
 30
0.0
 11
747.7979505612999
 21
-216.15540646310001
 31
0.0
  0
LINE
  5
22C
  8
┌▓È_1
  6
STITCH
 10
741.0479505612999
 20
-214.40540646310001
 30
0.0
 11
739.2979505612999
 21
-216.15540646310001
 31
0.0
  0
LINE
  5
22D
  8
┌▓È_1
  6
STITCH
 10
741.0479505612999
 20
-213.40540646310001
 30
0.0
 11
739.2979505612999
 21
-211.65540646310001
 31
0.0
  0
LINE
  5
22E
  8
┌▓È_1
  6
STITCH
 10
741.0479505612999
 20
-214.40540646310001
 30
0.0
 11
746.04795056130001
 21
-214.40540646310001
 31
0.0
  0
LINE
  5
22F
  8
┌▓È_1
  6
STITCH
 10
774.04795056130001
 20
-213.40540646310001
 30
0.0
 11
775.79795056130001
 21
-211.65540646310001
 31
0.0
  0
LINE
  5
230
  8
┌▓È_1
 62
     5
 10
723.54795056130001
 20
-211.65540646310001
 30
0.0
 11
723.54795056130001
 21
-156.15540646310001
 31
0.0
  0
LINE
  5
231
  8
┌▓È_1
  6
STITCH
 10
746.04795056130001
 20
-213.40540646310001
 30
0.0
 11
741.0479505612999
 21
-213.40540646310001
 31
0.0
  0
LINE
  5
232
  8
┌▓È_1
  6
STITCH
 10
769.04795056130001
 20
-214.40540646310001
 30
0.0
 11
774.04795056130001
 21
-214.40540646310001
 31
0.0
  0
LINE
  5
233
  8
┌▓È_1
  6
STITCH
 10
726.2979505612999
 20
-198.65540646310001
 30
0.0
 11
728.04795056130001
 21
-200.40540646310001
 31
0.0
  0
LINE
  5
234
  8
┌▓È_1
  6
STITCH
 10
726.2979505612999
 20
-198.65540646310001
 30
0.0
 11
725.29795056130001
 21
-198.65540646310001
 31
0.0
  0
LINE
  5
235
  8
┌▓È_1
  6
STITCH
 10
725.29795056130001
 20
-193.65540646310001
 30
0.0
 11
726.2979505612999
 21
-193.65540646310001
 31
0.0
  0
LINE
  5
236
  8
┌▓È_1
  6
STITCH
 10
726.2979505612999
 20
-193.65540646310001
 30
0.0
 11
726.2979505612999
 21
-198.65540646310001
 31
0.0
  0
ARC
  5
237
  8
┌▓È_1
 62
     5
 10
728.04795056130001
 20
-211.65540646310001
 30
0.0
 40
4.5
 50
180.0
 51
270.0
  0
LINE
  5
238
  8
┌▓È_1
 62
     5
 10
728.04795056130001
 20
-216.15540646310001
 30
0.0
 11
783.54795056130001
 21
-216.15540646310001
 31
0.0
  0
LINE
  5
239
  8
┌▓È_1
 62
     5
 10
728.04795056130001
 20
-211.65540646310001
 30
0.0
 11
783.54795056130001
 21
-211.65540646310001
 31
0.0
  0
LINE
  5
23A
  8
┌▓È_1
  6
BORDER
 62
     3
 10
915.57005067710008
 20
-181.1513647964
 30
0.0
 11
915.57005067710008
 21
-214.1513647964
 31
0.0
  0
LINE
  5
23B
  8
┌▓È_1
 62
     5
 10
894.32005067710008
 20
-187.6513647964
 30
0.0
 11
903.07005067710008
 21
-196.4013647964
 31
0.0
  0
LINE
  5
23C
  8
┌▓È_1
 62
     5
 10
928.07005067710008
 20
-196.4013647964
 30
0.0
 11
936.82005067710008
 21
-187.6513647964
 31
0.0
  0
LINE
  5
23D
  8
┌▓È_1
 62
     5
 10
928.07005067710008
 20
-196.4013647964
 30
0.0
 11
928.07005067710008
 21
-201.4013647964
 31
0.0
  0
LINE
  5
23E
  8
┌▓È_1
 62
     5
 10
903.07005067710008
 20
-196.4013647964
 30
0.0
 11
903.07005067710008
 21
-201.4013647964
 31
0.0
  0
LINE
  5
23F
  8
┌▓È_1
 62
     5
 10
903.07005067710008
 20
-201.4013647964
 30
0.0
 11
894.32005067710008
 21
-210.1513647964
 31
0.0
  0
LINE
  5
240
  8
┌▓È_1
 62
     5
 10
928.07005067710008
 20
-201.4013647964
 30
0.0
 11
936.82005067710008
 21
-210.1513647964
 31
0.0
  0
LINE
  5
241
  8
┌▓È_1
 62
     5
 10
903.07005067710008
 20
-196.4013647964
 30
0.0
 11
928.07005067710008
 21
-196.4013647964
 31
0.0
  0
LINE
  5
242
  8
┌▓È_1
 62
     5
 10
903.07005067710008
 20
-201.4013647964
 30
0.0
 11
928.07005067710008
 21
-201.4013647964
 31
0.0
  0
LINE
  5
243
  8
┌▓È_1
 62
     5
 10
879.63992104740009
 20
-210.1513647964
 30
0.0
 11
952.6385321585999
 21
-210.1513647964
 31
0.0
  0
LINE
  5
244
  8
┌▓È_1
 62
     5
 10
879.63992104740009
 20
-187.6513647964
 30
0.0
 11
952.6385321585999
 21
-187.6513647964
 31
0.0
  0
LINE
  5
245
  8
┌▓È_1
 62
     5
 10
849.06917451970003
 20
-216.15540646310001
 30
0.0
 11
849.06917451970003
 21
-156.15540646310001
 31
0.0
  0
LINE
  5
246
  8
┌▓È_1
  6
STITCH
 10
741.0479505612999
 20
-213.40540646310001
 30
0.0
 11
741.0479505612999
 21
-214.40540646310001
 31
0.0
  0
LINE
  5
247
  8
┌▓È_1
  6
STITCH
 10
746.04795056130001
 20
-214.40540646310001
 30
0.0
 11
746.04795056130001
 21
-213.40540646310001
 31
0.0
  0
LINE
  5
248
  8
┌▓È_1
  6
STITCH
 10
769.04795056130001
 20
-213.40540646310001
 30
0.0
 11
767.29795056130001
 21
-211.65540646310001
 31
0.0
  0
LINE
  5
249
  8
┌▓È_1
  6
STITCH
 10
769.04795056130001
 20
-214.40540646310001
 30
0.0
 11
767.29795056130001
 21
-216.15540646310001
 31
0.0
  0
LINE
  5
24A
  8
┌▓È_1
  6
STITCH
 10
774.04795056130001
 20
-214.40540646310001
 30
0.0
 11
775.79795056130001
 21
-216.15540646310001
 31
0.0
  0
LINE
  5
24B
  8
┌▓È_1
 62
     5
 10
817.06917451970003
 20
-156.15540646310001
 30
0.0
 11
817.06917451970003
 21
-216.15540646310001
 31
0.0
  0
LINE
  5
24C
  8
┌▓È_1
  6
BORDER
 62
     3
 10
743.54795056130001
 20
-205.8276286853
 30
0.0
 11
743.54795056130001
 21
-223.19707312969999
 31
0.0
  0
LINE
  5
24D
  8
┌▓È_1
  6
BORDER
 62
     3
 10
733.87572833909996
 20
-196.15540646310001
 30
0.0
 11
716.5062838947
 21
-196.15540646310001
 31
0.0
  0
LINE
  5
24E
  8
┌▓È_1
  6
BORDER
 62
     3
 10
733.87572833909996
 20
-168.15540646310001
 30
0.0
 11
716.5062838947
 21
-168.15540646310001
 31
0.0
  0
LINE
  5
24F
  8
┌▓È_1
  6
BORDER
 62
     3
 10
771.54795056130001
 20
-205.8276286853
 30
0.0
 11
771.54795056130001
 21
-223.19707312969999
 31
0.0
  0
LINE
  5
250
  8
┌▓È_1
  6
STITCH
 10
726.2979505612999
 20
-170.65540646310001
 30
0.0
 11
728.04795056130001
 21
-172.40540646310001
 31
0.0
  0
LINE
  5
251
  8
┌▓È_1
  6
STITCH
 10
725.29795056130001
 20
-170.65540646310001
 30
0.0
 11
723.54795056130001
 21
-172.40540646310001
 31
0.0
  0
LINE
  5
252
  8
┌▓È_1
  6
STITCH
 10
725.29795056130001
 20
-165.65540646310001
 30
0.0
 11
723.54795056130001
 21
-163.90540646310001
 31
0.0
  0
ENDSEC
  0
EOF
