  0
SECTION
  2
HEADER
  9
$ACADVER
  1
AC1009
  9
$INSBASE
 10
0.0
 20
0.0
 30
0.0
  9
$EXTMIN
 10
699.07337394267415
 20
-315.95499020016649
 30
-0.0015258207003583
  9
$EXTMAX
 10
974.12180141923454
 20
-125.9375048004645
 30
0.0000000349246037
  9
$LIMMIN
 10
0.0
 20
0.0
  9
$LIMMAX
 10
0.0
 20
0.0
  9
$ORTHOMODE
 70
     0
  9
$REGENMODE
 70
     1
  9
$FILLMODE
 70
     1
  9
$QTEXTMODE
 70
     0
  9
$MIRRTEXT
 70
     1
  9
$DRAGMODE
 70
     2
  9
$LTSCALE
 40
1.0
  9
$OSMODE
 70
    31
  9
$ATTMODE
 70
     1
  9
$TEXTSIZE
 40
0.0
  9
$TRACEWID
 40
0.05
  9
$TEXTSTYLE
  7
STANDARD
  9
$CLAYER
  8
0
  9
$CELTYPE
  6
CONTINUOUS
  9
$CECOLOR
 62
   256
  9
$DIMSCALE
 40
1.0
  9
$DIMASZ
 40
0.18
  9
$DIMEXO
 40
0.0625
  9
$DIMDLI
 40
0.38
  9
$DIMRND
 40
0.0
  9
$DIMDLE
 40
0.0
  9
$DIMEXE
 40
0.18
  9
$DIMTP
 40
0.0
  9
$DIMTM
 40
0.0
  9
$DIMTXT
 40
0.18
  9
$DIMCEN
 40
0.09
  9
$DIMTSZ
 40
0.0
  9
$DIMTOL
 70
     0
  9
$DIMLIM
 70
     0
  9
$DIMTIH
 70
     1
  9
$DIMTOH
 70
     1
  9
$DIMSE1
 70
     0
  9
$DIMSE2
 70
     0
  9
$DIMTAD
 70
     0
  9
$DIMZIN
 70
     0
  9
$DIMBLK
  1

  9
$DIMASO
 70
     1
  9
$DIMSHO
 70
     1
  9
$DIMPOST
  1

  9
$DIMAPOST
  1

  9
$DIMALT
 70
     0
  9
$DIMALTD
 70
     2
  9
$DIMALTF
 40
25.399999999999999
  9
$DIMLFAC
 40
1.0
  9
$DIMTOFL
 70
     0
  9
$DIMTVP
 40
0.0
  9
$DIMTIX
 70
     0
  9
$DIMSOXD
 70
     0
  9
$DIMSAH
 70
     0
  9
$DIMBLK1
  1

  9
$DIMBLK2
  1

  9
$DIMSTYLE
  2
STANDARD
  9
$DIMCLRD
 70
     0
  9
$DIMCLRE
 70
     0
  9
$DIMCLRT
 70
     0
  9
$DIMTFAC
 40
1.0
  9
$DIMGAP
 40
0.09
  9
$LUNITS
 70
     2
  9
$LUPREC
 70
     4
  9
$SKETCHINC
 40
0.1
  9
$FILLETRAD
 40
0.0
  9
$AUNITS
 70
     0
  9
$AUPREC
 70
     0
  9
$MENU
  1
acad
  9
$ELEVATION
 40
0.0
  9
$PELEVATION
 40
0.0
  9
$THICKNESS
 40
0.0
  9
$LIMCHECK
 70
     0
  9
$BLIPMODE
 70
     0
  9
$CHAMFERA
 40
0.0
  9
$CHAMFERB
 40
0.0
  9
$SKPOLY
 70
     0
  9
$TDCREATE
 40
2454862.5480407178
  9
$TDUPDATE
 40
2454862.5486781951
  9
$TDINDWG
 40
0.0006825
  9
$TDUSRTIMER
 40
0.0006716551
  9
$USRTIMER
 70
     1
  9
$ANGBASE
 50
0.0
  9
$ANGDIR
 70
     0
  9
$PDMODE
 70
     3
  9
$PDSIZE
 40
-1.0
  9
$PLINEWID
 40
0.0
  9
$COORDS
 70
     2
  9
$SPLFRAME
 70
     0
  9
$SPLINETYPE
 70
     6
  9
$SPLINESEGS
 70
     8
  9
$ATTDIA
 70
     0
  9
$ATTREQ
 70
     1
  9
$HANDLING
 70
     1
  9
$HANDSEED
  5
50D
  9
$SURFTAB1
 70
     6
  9
$SURFTAB2
 70
     6
  9
$SURFTYPE
 70
     6
  9
$SURFU
 70
     6
  9
$SURFV
 70
     6
  9
$UCSNAME
  2

  9
$UCSORG
 10
0.0
 20
0.0
 30
0.0
  9
$UCSXDIR
 10
1.0
 20
0.0
 30
0.0
  9
$UCSYDIR
 10
0.0
 20
1.0
 30
0.0
  9
$PUCSNAME
  2

  9
$PUCSORG
 10
0.0
 20
0.0
 30
0.0
  9
$PUCSXDIR
 10
1.0
 20
0.0
 30
0.0
  9
$PUCSYDIR
 10
0.0
 20
1.0
 30
0.0
  9
$USERI1
 70
     0
  9
$USERI2
 70
     0
  9
$USERI3
 70
     0
  9
$USERI4
 70
     0
  9
$USERI5
 70
     0
  9
$USERR1
 40
0.0
  9
$USERR2
 40
0.0
  9
$USERR3
 40
0.0
  9
$USERR4
 40
0.0
  9
$USERR5
 40
0.0
  9
$WORLDVIEW
 70
     1
  9
$SHADEDGE
 70
     3
  9
$SHADEDIF
 70
    70
  9
$TILEMODE
 70
     1
  9
$MAXACTVP
 70
    16
  9
$PLIMCHECK
 70
     0
  9
$PEXTMIN
 10
1.0000000000000000E+020
 20
1.0000000000000000E+020
 30
1.0000000000000000E+020
  9
$PEXTMAX
 10
-1.0000000000000000E+020
 20
-1.0000000000000000E+020
 30
-1.0000000000000000E+020
  9
$PLIMMIN
 10
0.0
 20
0.0
  9
$PLIMMAX
 10
12.0
 20
9.0
  9
$UNITMODE
 70
     0
  9
$VISRETAIN
 70
     0
  9
$PLINEGEN
 70
     1
  9
$PSLTSCALE
 70
     0
  0
ENDSEC
  0
SECTION
  2
TABLES
  0
TABLE
  2
VPORT
 70
     2
  0
VPORT
  2
*ACTIVE
 70
     0
 10
0.0
 20
0.0
 11
1.0
 21
1.0
 12
836.59758768095423
 22
-220.94624750031551
 13
0.0
 23
0.0
 14
1.0
 24
1.0
 15
0.0
 25
0.0
 16
0.0
 26
0.0
 36
1.0
 17
0.0
 27
0.0
 37
0.0
 40
199.0279705613921
 41
1.3903818953323901
 42
50.0
 43
0.0
 44
0.0
 50
0.0
 51
0.0
 71
     0
 72
   100
 73
     1
 74
     1
 75
     0
 76
     0
 77
     0
 78
     0
  0
ENDTAB
  0
TABLE
  2
LTYPE
 70
    11
  0
LTYPE
  2
CONTINUOUS
 70
     0
  3
Solid line
 72
    65
 73
     0
 40
0.0
  0
LTYPE
  2
DOT
 70
     0
  3
. . . . . . . . 
 72
    65
 73
     2
 40
1.0
 49
0.0
 49
-1.0
  0
LTYPE
  2
DASHED
 70
     0
  3
___  ___  ___  ___  
 72
    65
 73
     2
 40
4.0
 49
3.0
 49
-1.0
  0
LTYPE
  2
HIDDEN
 70
     0
  3
__ __ __ __ 
 72
    65
 73
     2
 40
3.0
 49
2.0
 49
-1.0
  0
LTYPE
  2
STITCH
 70
     0
  3
_ _ _ _ 
 72
    65
 73
     2
 40
2.0
 49
1.0
 49
-1.0
  0
LTYPE
  2
CENTER
 70
     0
  3
______  __  ______  __  
 72
    65
 73
     4
 40
43.0
 49
40.0
 49
-1.0
 49
1.0
 49
-1.0
  0
LTYPE
  2
DASHDOT
 70
     0
  3
____ . ____ . 
 72
    65
 73
     4
 40
32.0
 49
30.0
 49
-1.0
 49
0.0
 49
-1.0
  0
LTYPE
  2
BORDER
 70
     0
  3
__ . __ . 
 72
    65
 73
     4
 40
22.0
 49
20.0
 49
-1.0
 49
0.0
 49
-1.0
  0
LTYPE
  2
CUTTING
 70
     0
  3
________   ___   ___   
 72
    65
 73
     6
 40
45.0
 49
40.0
 49
-1.0
 49
1.0
 49
-1.0
 49
1.0
 49
-1.0
  0
LTYPE
  2
PHANTOM
 70
     0
  3
______  __  __  
 72
    65
 73
     6
 40
35.0
 49
30.0
 49
-1.0
 49
1.0
 49
-1.0
 49
1.0
 49
-1.0
  0
LTYPE
  2
DIVIDE
 70
     0
  3
____ . . ____ . . 
 72
    65
 73
     6
 40
23.0
 49
20.0
 49
-1.0
 49
0.0
 49
-1.0
 49
0.0
 49
-1.0
  0
ENDTAB
  0
TABLE
  2
LAYER
 70
     4
  0
LAYER
  2
0
 70
     0
 62
     7
  6
CONTINUOUS
  0
LAYER
  2
Éíû@É³
 70
     0
 62
     7
  6
CONTINUOUS
  0
LAYER
  2
┌▓È_1
 70
     0
 62
     7
  6
CONTINUOUS
  0
LAYER
  2
Defpoints
 70
     0
 62
     7
  6
CONTINUOUS
  0
ENDTAB
  0
TABLE
  2
STYLE
 70
     1
  0
STYLE
  2
STANDARD
 70
     0
 40
0.0
 41
1.0
 50
0.0
 71
     0
 42
0.0
  3
txt
  4
extfont
  0
ENDTAB
  0
TABLE
  2
VIEW
 70
     0
  0
ENDTAB
  0
TABLE
  2
UCS
 70
     0
  0
ENDTAB
  0
TABLE
  2
APPID
 70
     2
  0
APPID
  2
ACAD
 70
     0
  0
APPID
  2
DCO15
 70
     0
  0
ENDTAB
  0
TABLE
  2
DIMSTYLE
 70
     3
  0
DIMSTYLE
  2
STANDARD
 70
     0
  3

  4

  5

  6

  7

 40
1.0
 41
0.18
 42
0.0625
 43
0.38
 44
0.18
 45
0.0
 46
0.0
 47
0.0
 48
0.0
140
0.18
141
0.09
142
0.0
143
25.399999999999999
144
1.0
145
0.0
146
1.0
147
0.09
 71
     0
 72
     0
 73
     1
 74
     1
 75
     0
 76
     0
 77
     0
 78
     0
170
     0
171
     2
172
     0
173
     0
174
     0
175
     0
176
     0
177
     0
178
     0
  0
DIMSTYLE
  2
VELDIM0
 70
     0
  3

  4

  5

  6

  7

 40
1.0
 41
3.0
 42
0.0625
 43
0.38
 44
0.5
 45
0.0
 46
3.0
 47
0.0
 48
0.0
140
2.9986110209999999
141
0.09
142
0.0
143
25.399999999999999
144
1.0
145
0.0
146
1.0
147
0.09
 71
     0
 72
     0
 73
     0
 74
     0
 75
     0
 76
     0
 77
     0
 78
     8
170
     0
171
     2
172
     0
173
     0
174
     0
175
     0
176
     0
177
     0
178
     0
  0
DIMSTYLE
  2
VELDIM1
 70
     0
  3

  4

  5

  6

  7

 40
1.0
 41
3.0
 42
0.0625
 43
0.38
 44
1.25
 45
0.0
 46
5.0
 47
0.0
 48
0.0
140
2.9986110209999999
141
0.09
142
0.0
143
25.399999999999999
144
1.0
145
0.0
146
1.0
147
0.09
 71
     0
 72
     0
 73
     0
 74
     0
 75
     0
 76
     0
 77
     0
 78
     8
170
     0
171
     2
172
     0
173
     0
174
     0
175
     0
176
     0
177
     0
178
     0
  0
ENDTAB
  0
ENDSEC
  0
SECTION
  2
BLOCKS
  0
BLOCK
  8
0
  2
$MODEL_SPACE
 70
     0
 10
0.0
 20
0.0
 30
0.0
  3
$MODEL_SPACE
  1

  0
ENDBLK
  5
E
  8
0
  0
BLOCK
 67
     1
  8
0
  2
$PAPER_SPACE
 70
     0
 10
0.0
 20
0.0
 30
0.0
  3
$PAPER_SPACE
  1

  0
ENDBLK
  5
10
 67
     1
  8
0
  0
BLOCK
  8
0
  2
*D0
 70
     1
 10
0.0
 20
0.0
 30
0.0
  3
*D0
  1

  0
TEXT
  5
31
  8
0
 62
     0
 10
903.98679189960023
 20
-230.03800296950001
 30
0.0
 40
2.9986110209999999
  1
%%c8.5
  0
LINE
  5
32
  8
0
 62
     0
 10
887.14651398939986
 20
-214.1604659166
 30
0.0
 11
887.14651398939986
 21
-232.06716962030001
 31
0.0
  0
LINE
  5
33
  8
0
 62
     0
 10
929.64651398939986
 20
-214.1604659166
 30
0.0
 11
929.64651398939986
 21
-232.06716962030001
 31
0.0
  0
LINE
  5
34
  8
0
 62
     0
 10
887.14651398939986
 20
-231.56716962030001
 30
0.0
 11
914.57012491510011
 21
-231.56716962030001
 31
0.0
  0
LINE
  5
35
  8
0
 62
     0
 10
887.14651398939986
 20
-231.56716962030001
 30
0.0
 11
902.22290306369985
 21
-231.56716962030001
 31
0.0
  0
LINE
  5
36
  8
0
 62
     0
 10
929.64651398939986
 20
-231.56716962030001
 30
0.0
 11
914.57012491510011
 21
-231.56716962030001
 31
0.0
  0
LINE
  5
37
  8
0
 62
     0
 10
929.64651398939986
 20
-231.56716962030001
 30
0.0
 11
902.22290306369985
 21
-231.56716962030001
 31
0.0
  0
LINE
  5
38
  8
0
 62
     0
 10
929.64651398939986
 20
-231.56716962030001
 30
0.0
 11
926.64651398939998
 21
-231.56716962030001
 31
0.0
  0
SOLID
  5
39
  8
0
 62
     0
 10
929.64651398939986
 20
-231.56716962030001
 30
0.0
 11
926.64651398939998
 21
-232.31716962030001
 31
0.0
 12
926.64651398939998
 22
-230.81716962030001
 32
0.0
 13
927.39651398939998
 23
-231.56716962030001
 33
0.0
  0
LINE
  5
3A
  8
0
 62
     0
 10
887.14651398939986
 20
-231.56716962030001
 30
0.0
 11
890.14651398939998
 21
-231.56716962030001
 31
0.0
  0
SOLID
  5
3B
  8
0
 62
     0
 10
887.14651398939986
 20
-231.56716962030001
 30
0.0
 11
890.14651398939998
 21
-230.81716962030001
 31
0.0
 12
890.14651398939998
 22
-232.31716962030001
 32
0.0
 13
889.39651398939998
 23
-231.56716962030001
 33
0.0
  0
ENDBLK
  5
3C
  8
0
  0
BLOCK
  8
0
  2
*D1
 70
     1
 10
0.0
 20
0.0
 30
0.0
  3
*D1
  1

  0
TEXT
  5
45
  8
0
 62
     0
 10
905.75068073559999
 20
-171.44425296950001
 30
0.0
 40
2.9986110209999999
  1
%%c5
  0
LINE
  5
46
  8
0
 62
     0
 10
920.89651398939986
 20
-198.4104659166
 30
0.0
 11
920.89651398939986
 21
-172.47341962030001
 31
0.0
  0
LINE
  5
47
  8
0
 62
     0
 10
895.89651398939986
 20
-198.4104659166
 30
0.0
 11
895.89651398939986
 21
-172.47341962030001
 31
0.0
  0
LINE
  5
48
  8
0
 62
     0
 10
920.89651398939986
 20
-172.97341962029989
 30
0.0
 11
912.80623607919983
 21
-172.97341962029989
 31
0.0
  0
LINE
  5
49
  8
0
 62
     0
 10
920.89651398939986
 20
-172.97341962029989
 30
0.0
 11
903.98679189960023
 21
-172.97341962029989
 31
0.0
  0
LINE
  5
4A
  8
0
 62
     0
 10
895.89651398939986
 20
-172.97341962029989
 30
0.0
 11
912.80623607919983
 21
-172.97341962029989
 31
0.0
  0
LINE
  5
4B
  8
0
 62
     0
 10
895.89651398939986
 20
-172.97341962029989
 30
0.0
 11
903.98679189960023
 21
-172.97341962029989
 31
0.0
  0
LINE
  5
4C
  8
0
 62
     0
 10
895.89651398939986
 20
-172.97341962029989
 30
0.0
 11
898.89651398939998
 21
-172.97341962029989
 31
0.0
  0
SOLID
  5
4D
  8
0
 62
     0
 10
895.89651398939986
 20
-172.97341962029989
 30
0.0
 11
898.89651398939998
 21
-172.22341962030001
 31
0.0
 12
898.89651398939998
 22
-173.72341962030001
 32
0.0
 13
898.14651398939998
 23
-172.97341962029989
 33
0.0
  0
LINE
  5
4E
  8
0
 62
     0
 10
920.89651398939986
 20
-172.97341962029989
 30
0.0
 11
917.89651398939998
 21
-172.97341962029989
 31
0.0
  0
SOLID
  5
4F
  8
0
 62
     0
 10
920.89651398939986
 20
-172.97341962029989
 30
0.0
 11
917.89651398939998
 21
-173.72341962030001
 31
0.0
 12
917.89651398939998
 22
-172.22341962030001
 32
0.0
 13
918.64651398939998
 23
-172.97341962029989
 33
0.0
  0
ENDBLK
  5
50
  8
0
  0
BLOCK
  8
0
  2
*D2
 70
     1
 10
0.0
 20
0.0
 30
0.0
  3
*D2
  1

  0
TEXT
  5
54
  8
0
 62
     0
 10
903.98679189960023
 20
-161.60050296950001
 30
0.0
 40
2.9986110209999999
  1
%%c8.5
  0
LINE
  5
55
  8
0
 62
     0
 10
929.64651398939986
 20
-189.6604659166
 30
0.0
 11
929.64651398939986
 21
-162.62966962030001
 31
0.0
  0
LINE
  5
56
  8
0
 62
     0
 10
887.14651398939986
 20
-189.6604659166
 30
0.0
 11
887.14651398939986
 21
-162.62966962030001
 31
0.0
  0
LINE
  5
57
  8
0
 62
     0
 10
929.64651398939986
 20
-163.12966962030001
 30
0.0
 11
914.57012491510011
 21
-163.12966962030001
 31
0.0
  0
LINE
  5
58
  8
0
 62
     0
 10
929.64651398939986
 20
-163.12966962030001
 30
0.0
 11
902.22290306369985
 21
-163.12966962030001
 31
0.0
  0
LINE
  5
59
  8
0
 62
     0
 10
887.14651398939986
 20
-163.12966962030001
 30
0.0
 11
914.57012491510011
 21
-163.12966962030001
 31
0.0
  0
LINE
  5
5A
  8
0
 62
     0
 10
887.14651398939986
 20
-163.12966962030001
 30
0.0
 11
902.22290306369985
 21
-163.12966962030001
 31
0.0
  0
LINE
  5
5B
  8
0
 62
     0
 10
887.14651398939986
 20
-163.12966962030001
 30
0.0
 11
890.14651398939998
 21
-163.12966962030001
 31
0.0
  0
SOLID
  5
5C
  8
0
 62
     0
 10
887.14651398939986
 20
-163.12966962030001
 30
0.0
 11
890.14651398939998
 21
-162.37966962030001
 31
0.0
 12
890.14651398939998
 22
-163.87966962030001
 32
0.0
 13
889.39651398939998
 23
-163.12966962030001
 33
0.0
  0
LINE
  5
5D
  8
0
 62
     0
 10
929.64651398939986
 20
-163.12966962030001
 30
0.0
 11
926.64651398939998
 21
-163.12966962030001
 31
0.0
  0
SOLID
  5
5E
  8
0
 62
     0
 10
929.64651398939986
 20
-163.12966962030001
 30
0.0
 11
926.64651398939998
 21
-163.87966962030001
 31
0.0
 12
926.64651398939998
 22
-162.37966962030001
 32
0.0
 13
927.39651398939998
 23
-163.12966962030001
 33
0.0
  0
ENDBLK
  5
5F
  8
0
  0
BLOCK
  8
0
  2
*D3
 70
     1
 10
0.0
 20
0.0
 30
0.0
  3
*D3
  1

  0
TEXT
  5
64
  8
0
 62
     0
 10
749.85166707769997
 20
-187.35906016179999
 30
0.0
 40
2.9986110209999999
  1
90%%d
 50
310.5768662804
  0
ARC
  5
65
  8
0
 62
     0
 10
735.19416213759985
 20
-203.39529462030001
 30
0.0
 40
19.9764243907
 50
77.835321516000008
 51
90.0
  0
ARC
  5
66
  8
0
 62
     0
 10
735.19416213759985
 20
-203.39529462030001
 30
0.0
 40
19.9764243907
 50
0.0
 51
12.164678484
  0
SOLID
  5
67
  8
0
 62
     0
 10
755.17058652829996
 20
-203.39529462030001
 30
0.0
 11
755.92058652829985
 21
-206.39529462030001
 31
0.0
 12
754.42058652829985
 22
-206.39529462030001
 32
0.0
 13
755.17058652829996
 23
-205.64529462030001
 33
0.0
  0
SOLID
  5
68
  8
0
 62
     0
 10
735.19416213759985
 20
-183.4188702296
 30
0.0
 11
732.19416213759985
 21
-184.1688702296
 31
0.0
 12
732.19416213759985
 22
-182.6688702296
 32
0.0
 13
732.94416213759985
 23
-183.4188702296
 33
0.0
  0
ARC
  5
69
  8
0
 62
     0
 10
735.19416213759985
 20
-203.39529462030001
 30
0.0
 40
19.9764243907
 50
0.0
 51
27.687873144899999
  0
ARC
  5
6A
  8
0
 62
     0
 10
735.19416213759985
 20
-203.39529462030001
 30
0.0
 40
19.9764243907
 50
53.465859416000001
 51
90.0
  0
LINE
  5
6B
  8
0
 62
     0
 10
773.69416213759985
 20
-203.39529462030001
 30
0.0
 11
753.17058652829985
 21
-203.39529462030001
 31
0.0
  0
LINE
  5
6C
  8
0
 62
     0
 10
735.19416213759985
 20
-164.89529462030001
 30
0.0
 11
735.19416213759985
 21
-185.4188702296
 31
0.0
  0
ENDBLK
  5
6D
  8
0
  0
BLOCK
  8
0
  2
*D4
 70
     1
 10
0.0
 20
0.0
 30
0.0
  3
*D4
  1

  0
TEXT
  5
71
  8
0
 62
     0
 10
905.75068073559999
 20
-240.99529466800001
 30
0.0
 40
2.9986110209999999
  1
90%%d
  0
ARC
  5
72
  8
0
 62
     0
 10
908.39651398939986
 20
-191.9104659166
 30
0.0
 40
50.672328703699989
 50
310.90001299950001
 51
315.0
  0
ARC
  5
73
  8
0
 62
     0
 10
908.39651398939986
 20
-191.9104659166
 30
0.0
 40
50.672328703699989
 50
225.0
 51
229.09998700049999
  0
SOLID
  5
74
  8
0
 62
     0
 10
872.56576674450002
 20
-227.74121316150001
 30
0.0
 11
869.91411631509993
 21
-226.1502229038
 31
0.0
 12
870.97477648679978
 22
-225.08956273210001
 32
0.0
 13
870.97477648679978
 23
-226.1502229038
 33
0.0
  0
SOLID
  5
75
  8
0
 62
     0
 10
944.22726123430004
 20
-227.74121316150001
 30
0.0
 11
945.81825149199983
 21
-225.08956273210001
 31
0.0
 12
946.87891166380007
 22
-226.1502229038
 32
0.0
 13
945.81825149199983
 23
-226.1502229038
 33
0.0
  0
ARC
  5
76
  8
0
 62
     0
 10
908.39651398939986
 20
-191.9104659166
 30
0.0
 40
50.672328703699989
 50
225.0
 51
264.31822005710001
  0
ARC
  5
77
  8
0
 62
     0
 10
908.39651398939986
 20
-191.9104659166
 30
0.0
 40
50.672328703699989
 50
275.68177994289999
 51
315.0
  0
LINE
  5
78
  8
0
 62
     0
 10
885.73230042699981
 20
-214.574679479
 30
0.0
 11
871.15155318210009
 21
-229.15542672390001
 31
0.0
  0
LINE
  5
79
  8
0
 62
     0
 10
931.0607275517998
 20
-214.574679479
 30
0.0
 11
945.64147479669998
 21
-229.15542672390001
 31
0.0
  0
ENDBLK
  5
7A
  8
0
  0
BLOCK
  8
0
  2
*D5
 70
     1
 10
0.0
 20
0.0
 30
0.0
  3
*D5
  1

  0
TEXT
  5
7E
  8
0
 62
     0
 10
905.75068073559999
 20
-151.46404466800001
 30
0.0
 40
2.9986110209999999
  1
90%%d
  0
ARC
  5
7F
  8
0
 62
     0
 10
908.39651398939986
 20
-211.9104659166
 30
0.0
 40
58.858921296300011
 50
131.495418653
 51
135.0
  0
ARC
  5
80
  8
0
 62
     0
 10
908.39651398939986
 20
-211.9104659166
 30
0.0
 40
58.858921296300011
 50
45.0
 51
48.504581346999998
  0
SOLID
  5
81
  8
0
 62
     0
 10
950.01605637130001
 20
-170.2909235347
 30
0.0
 11
952.66770680080003
 21
-171.8819137923
 31
0.0
 12
951.60704662899991
 22
-172.94257396410001
 32
0.0
 13
951.60704662899991
 23
-171.8819137923
 33
0.0
  0
SOLID
  5
82
  8
0
 62
     0
 10
866.77697160749995
 20
-170.2909235347
 30
0.0
 11
865.18598134979993
 21
-172.94257396410001
 31
0.0
 12
864.12532117800004
 22
-171.8819137923
 32
0.0
 13
865.18598134979993
 23
-171.8819137923
 33
0.0
  0
ARC
  5
83
  8
0
 62
     0
 10
908.39651398939986
 20
-211.9104659166
 30
0.0
 40
58.858921296300011
 50
45.0
 51
85.663606780600006
  0
ARC
  5
84
  8
0
 62
     0
 10
908.39651398939986
 20
-211.9104659166
 30
0.0
 40
58.858921296300011
 50
94.336393219400009
 51
135.0
  0
LINE
  5
85
  8
0
 62
     0
 10
931.0607275517998
 20
-189.24625235420001
 30
0.0
 11
951.43026993369995
 21
-168.87670997230001
 31
0.0
  0
LINE
  5
86
  8
0
 62
     0
 10
885.73230042699981
 20
-189.24625235420001
 30
0.0
 11
865.36275804509989
 21
-168.87670997230001
 31
0.0
  0
ENDBLK
  5
87
  8
0
  0
BLOCK
  8
0
  2
*D6
 70
     1
 10
0.0
 20
0.0
 30
0.0
  3
*D6
  1

  0
TEXT
  5
8B
  8
0
 62
     0
 10
719.16499548679985
 20
-266.4440214192
 30
0.0
 40
2.9986110209999999
  1
32
 50
90.0
  0
LINE
  5
8C
  8
0
 62
     0
 10
729.69416213759985
 20
-248.68013258330001
 30
0.0
 11
720.19416213759996
 21
-248.68013258330001
 31
0.0
  0
LINE
  5
8D
  8
0
 62
     0
 10
729.69416213759985
 20
-280.68013258330001
 30
0.0
 11
720.19416213759996
 21
-280.68013258330001
 31
0.0
  0
LINE
  5
8E
  8
0
 62
     0
 10
720.69416213759996
 20
-248.68013258330001
 30
0.0
 11
720.69416213759996
 21
-261.15235491150003
 31
0.0
  0
LINE
  5
8F
  8
0
 62
     0
 10
720.69416213759996
 20
-248.68013258330001
 30
0.0
 11
720.69416213759996
 21
-268.20791025509999
 31
0.0
  0
LINE
  5
90
  8
0
 62
     0
 10
720.69416213759996
 20
-280.68013258330001
 30
0.0
 11
720.69416213759996
 21
-261.15235491150003
 31
0.0
  0
LINE
  5
91
  8
0
 62
     0
 10
720.69416213759996
 20
-280.68013258330001
 30
0.0
 11
720.69416213759996
 21
-268.20791025509999
 31
0.0
  0
LINE
  5
92
  8
0
 62
     0
 10
720.69416213759996
 20
-280.68013258330001
 30
0.0
 11
720.69416213759996
 21
-277.68013258330001
 31
0.0
  0
SOLID
  5
93
  8
0
 62
     0
 10
720.69416213759996
 20
-280.68013258330001
 30
0.0
 11
719.94416213759985
 21
-277.68013258330001
 31
0.0
 12
721.44416213759985
 22
-277.68013258330001
 32
0.0
 13
720.69416213759996
 23
-278.43013258330001
 33
0.0
  0
LINE
  5
94
  8
0
 62
     0
 10
720.69416213759996
 20
-248.68013258330001
 30
0.0
 11
720.69416213759996
 21
-251.68013258330001
 31
0.0
  0
SOLID
  5
95
  8
0
 62
     0
 10
720.69416213759996
 20
-248.68013258330001
 30
0.0
 11
721.44416213759985
 21
-251.68013258330001
 31
0.0
 12
719.94416213759985
 22
-251.68013258330001
 32
0.0
 13
720.69416213759996
 23
-250.93013258330001
 33
0.0
  0
ENDBLK
  5
96
  8
0
  0
BLOCK
  8
0
  2
*D7
 70
     1
 10
0.0
 20
0.0
 30
0.0
  3
*D7
  1

  0
TEXT
  5
9A
  8
0
 62
     0
 10
719.16499548679985
 20
-187.1591834562
 30
0.0
 40
2.9986110209999999
  1
45
 50
90.0
  0
LINE
  5
9B
  8
0
 62
     0
 10
729.69416213759985
 20
-162.89529462030001
 30
0.0
 11
720.19416213759996
 21
-162.89529462030001
 31
0.0
  0
LINE
  5
9C
  8
0
 62
     0
 10
734.19416213759985
 20
-207.89529462030001
 30
0.0
 11
720.19416213759996
 21
-207.89529462030001
 31
0.0
  0
LINE
  5
9D
  8
0
 62
     0
 10
720.69416213759996
 20
-162.89529462030001
 30
0.0
 11
720.69416213759996
 21
-181.8675169485
 31
0.0
  0
LINE
  5
9E
  8
0
 62
     0
 10
720.69416213759996
 20
-162.89529462030001
 30
0.0
 11
720.69416213759996
 21
-188.92307229209999
 31
0.0
  0
LINE
  5
9F
  8
0
 62
     0
 10
720.69416213759996
 20
-207.89529462030001
 30
0.0
 11
720.69416213759996
 21
-181.8675169485
 31
0.0
  0
LINE
  5
A0
  8
0
 62
     0
 10
720.69416213759996
 20
-207.89529462030001
 30
0.0
 11
720.69416213759996
 21
-188.92307229209999
 31
0.0
  0
LINE
  5
A1
  8
0
 62
     0
 10
720.69416213759996
 20
-207.89529462030001
 30
0.0
 11
720.69416213759996
 21
-204.89529462030001
 31
0.0
  0
SOLID
  5
A2
  8
0
 62
     0
 10
720.69416213759996
 20
-207.89529462030001
 30
0.0
 11
719.94416213759985
 21
-204.89529462030001
 31
0.0
 12
721.44416213759985
 22
-204.89529462030001
 32
0.0
 13
720.69416213759996
 23
-205.64529462030001
 33
0.0
  0
LINE
  5
A3
  8
0
 62
     0
 10
720.69416213759996
 20
-162.89529462030001
 30
0.0
 11
720.69416213759996
 21
-165.89529462030001
 31
0.0
  0
SOLID
  5
A4
  8
0
 62
     0
 10
720.69416213759996
 20
-162.89529462030001
 30
0.0
 11
721.44416213759985
 21
-165.89529462030001
 31
0.0
 12
719.94416213759985
 22
-165.89529462030001
 32
0.0
 13
720.69416213759996
 23
-165.14529462030001
 33
0.0
  0
ENDBLK
  5
A5
  8
0
  0
BLOCK
  8
0
  2
*D8
 70
     1
 10
0.0
 20
0.0
 30
0.0
  3
*D8
  1

  0
TEXT
  5
A9
  8
0
 62
     0
 10
751.43027330170003
 20
-216.36612796950001
 30
0.0
 40
2.9986110209999999
  1
45
  0
LINE
  5
AA
  8
0
 62
     0
 10
730.69416213759985
 20
-204.39529462030001
 30
0.0
 11
730.69416213759985
 21
-218.39529462030001
 31
0.0
  0
LINE
  5
AB
  8
0
 62
     0
 10
775.69416213759985
 20
-208.89529462030001
 30
0.0
 11
775.69416213759985
 21
-218.39529462030001
 31
0.0
  0
LINE
  5
AC
  8
0
 62
     0
 10
730.69416213759985
 20
-217.89529462030001
 30
0.0
 11
756.72193980940006
 21
-217.89529462030001
 31
0.0
  0
LINE
  5
AD
  8
0
 62
     0
 10
730.69416213759985
 20
-217.89529462030001
 30
0.0
 11
749.66638446570005
 21
-217.89529462030001
 31
0.0
  0
LINE
  5
AE
  8
0
 62
     0
 10
775.69416213759985
 20
-217.89529462030001
 30
0.0
 11
756.72193980940006
 21
-217.89529462030001
 31
0.0
  0
LINE
  5
AF
  8
0
 62
     0
 10
775.69416213759985
 20
-217.89529462030001
 30
0.0
 11
749.66638446570005
 21
-217.89529462030001
 31
0.0
  0
LINE
  5
B0
  8
0
 62
     0
 10
775.69416213759985
 20
-217.89529462030001
 30
0.0
 11
772.69416213759985
 21
-217.89529462030001
 31
0.0
  0
SOLID
  5
B1
  8
0
 62
     0
 10
775.69416213759985
 20
-217.89529462030001
 30
0.0
 11
772.69416213759985
 21
-218.64529462030001
 31
0.0
 12
772.69416213759985
 22
-217.14529462030001
 32
0.0
 13
773.44416213759985
 23
-217.89529462030001
 33
0.0
  0
LINE
  5
B2
  8
0
 62
     0
 10
730.69416213759985
 20
-217.89529462030001
 30
0.0
 11
733.69416213759985
 21
-217.89529462030001
 31
0.0
  0
SOLID
  5
B3
  8
0
 62
     0
 10
730.69416213759985
 20
-217.89529462030001
 30
0.0
 11
733.69416213759985
 21
-217.14529462030001
 31
0.0
 12
733.69416213759985
 22
-218.64529462030001
 32
0.0
 13
732.94416213759985
 23
-217.89529462030001
 33
0.0
  0
ENDBLK
  5
B4
  8
0
  0
BLOCK
  8
0
  2
*D9
 70
     1
 10
0.0
 20
0.0
 30
0.0
  3
*D9
  1

  0
TEXT
  5
B8
  8
0
 62
     0
 10
818.4608288572
 20
-151.36612796950001
 30
0.0
 40
2.9986110209999999
  1
11
  0
LINE
  5
B9
  8
0
 62
     0
 10
825.72471769309993
 20
-167.89529462030001
 30
0.0
 11
825.72471769309993
 21
-152.39529462030001
 31
0.0
  0
LINE
  5
BA
  8
0
 62
     0
 10
814.72471769309993
 20
-161.89529462030001
 30
0.0
 11
814.72471769309993
 21
-152.39529462030001
 31
0.0
  0
LINE
  5
BB
  8
0
 62
     0
 10
825.72471769309993
 20
-152.89529462030001
 30
0.0
 11
823.75249536490003
 21
-152.89529462030001
 31
0.0
  0
LINE
  5
BC
  8
0
 62
     0
 10
825.72471769309993
 20
-152.89529462030001
 30
0.0
 11
816.69694002129995
 21
-152.89529462030001
 31
0.0
  0
LINE
  5
BD
  8
0
 62
     0
 10
814.72471769309993
 20
-152.89529462030001
 30
0.0
 11
823.75249536490003
 21
-152.89529462030001
 31
0.0
  0
LINE
  5
BE
  8
0
 62
     0
 10
814.72471769309993
 20
-152.89529462030001
 30
0.0
 11
816.69694002129995
 21
-152.89529462030001
 31
0.0
  0
LINE
  5
BF
  8
0
 62
     0
 10
814.72471769309993
 20
-152.89529462030001
 30
0.0
 11
811.72471769309982
 21
-152.89529462030001
 31
0.0
  0
SOLID
  5
C0
  8
0
 62
     0
 10
814.72471769309993
 20
-152.89529462030001
 30
0.0
 11
811.72471769309982
 21
-153.64529462030001
 31
0.0
 12
811.72471769309982
 22
-152.14529462030001
 32
0.0
 13
812.47471769309982
 23
-152.89529462030001
 33
0.0
  0
LINE
  5
C1
  8
0
 62
     0
 10
825.72471769309993
 20
-152.89529462030001
 30
0.0
 11
828.72471769310005
 21
-152.89529462030001
 31
0.0
  0
SOLID
  5
C2
  8
0
 62
     0
 10
825.72471769309993
 20
-152.89529462030001
 30
0.0
 11
828.72471769310005
 21
-152.14529462030001
 31
0.0
 12
828.72471769310005
 22
-153.64529462030001
 32
0.0
 13
827.97471769310005
 23
-152.89529462030001
 33
0.0
  0
ENDBLK
  5
C3
  8
0
  0
BLOCK
  8
0
  2
*D10
 70
     1
 10
0.0
 20
0.0
 30
0.0
  3
*D10
  1

  0
TEXT
  5
C7
  8
0
 62
     0
 10
828.96082885719989
 20
-151.36612796950001
 30
0.0
 40
2.9986110209999999
  1
10
  0
LINE
  5
C8
  8
0
 62
     0
 10
835.72471769309982
 20
-185.89529462030001
 30
0.0
 11
835.72471769309982
 21
-152.39529462030001
 31
0.0
  0
LINE
  5
C9
  8
0
 62
     0
 10
825.72471769309993
 20
-167.89529462030001
 30
0.0
 11
825.72471769309993
 21
-152.39529462030001
 31
0.0
  0
LINE
  5
CA
  8
0
 62
     0
 10
835.72471769309982
 20
-152.89529462030001
 30
0.0
 11
834.25249536490003
 21
-152.89529462030001
 31
0.0
  0
LINE
  5
CB
  8
0
 62
     0
 10
835.72471769309982
 20
-152.89529462030001
 30
0.0
 11
827.19694002129995
 21
-152.89529462030001
 31
0.0
  0
LINE
  5
CC
  8
0
 62
     0
 10
825.72471769309993
 20
-152.89529462030001
 30
0.0
 11
834.25249536490003
 21
-152.89529462030001
 31
0.0
  0
LINE
  5
CD
  8
0
 62
     0
 10
825.72471769309993
 20
-152.89529462030001
 30
0.0
 11
827.19694002129995
 21
-152.89529462030001
 31
0.0
  0
LINE
  5
CE
  8
0
 62
     0
 10
825.72471769309993
 20
-152.89529462030001
 30
0.0
 11
822.72471769309993
 21
-152.89529462030001
 31
0.0
  0
SOLID
  5
CF
  8
0
 62
     0
 10
825.72471769309993
 20
-152.89529462030001
 30
0.0
 11
822.72471769309993
 21
-153.64529462030001
 31
0.0
 12
822.72471769309993
 22
-152.14529462030001
 32
0.0
 13
823.47471769310005
 23
-152.89529462030001
 33
0.0
  0
LINE
  5
D0
  8
0
 62
     0
 10
835.72471769309982
 20
-152.89529462030001
 30
0.0
 11
838.72471769309993
 21
-152.89529462030001
 31
0.0
  0
SOLID
  5
D1
  8
0
 62
     0
 10
835.72471769309982
 20
-152.89529462030001
 30
0.0
 11
838.72471769309993
 21
-152.14529462030001
 31
0.0
 12
838.72471769309993
 22
-153.64529462030001
 32
0.0
 13
837.97471769309993
 23
-152.89529462030001
 33
0.0
  0
ENDBLK
  5
D2
  8
0
  0
BLOCK
  8
0
  2
*D11
 70
     1
 10
0.0
 20
0.0
 30
0.0
  3
*D11
  1

  0
TEXT
  5
D6
  8
0
 62
     0
 10
839.46082885719989
 20
-151.36612796950001
 30
0.0
 40
2.9986110209999999
  1
11
  0
LINE
  5
D7
  8
0
 62
     0
 10
846.72471769310005
 20
-161.89529462030001
 30
0.0
 11
846.72471769310005
 21
-152.39529462030001
 31
0.0
  0
LINE
  5
D8
  8
0
 62
     0
 10
835.72471769309982
 20
-185.89529462030001
 30
0.0
 11
835.72471769309982
 21
-152.39529462030001
 31
0.0
  0
LINE
  5
D9
  8
0
 62
     0
 10
846.72471769310005
 20
-152.89529462030001
 30
0.0
 11
844.75249536490014
 21
-152.89529462030001
 31
0.0
  0
LINE
  5
DA
  8
0
 62
     0
 10
846.72471769310005
 20
-152.89529462030001
 30
0.0
 11
837.69694002130007
 21
-152.89529462030001
 31
0.0
  0
LINE
  5
DB
  8
0
 62
     0
 10
835.72471769309982
 20
-152.89529462030001
 30
0.0
 11
844.75249536490014
 21
-152.89529462030001
 31
0.0
  0
LINE
  5
DC
  8
0
 62
     0
 10
835.72471769309982
 20
-152.89529462030001
 30
0.0
 11
837.69694002130007
 21
-152.89529462030001
 31
0.0
  0
LINE
  5
DD
  8
0
 62
     0
 10
835.72471769309982
 20
-152.89529462030001
 30
0.0
 11
832.72471769309993
 21
-152.89529462030001
 31
0.0
  0
SOLID
  5
DE
  8
0
 62
     0
 10
835.72471769309982
 20
-152.89529462030001
 30
0.0
 11
832.72471769309993
 21
-153.64529462030001
 31
0.0
 12
832.72471769309993
 22
-152.14529462030001
 32
0.0
 13
833.47471769309993
 23
-152.89529462030001
 33
0.0
  0
LINE
  5
DF
  8
0
 62
     0
 10
846.72471769310005
 20
-152.89529462030001
 30
0.0
 11
849.72471769309993
 21
-152.89529462030001
 31
0.0
  0
SOLID
  5
E0
  8
0
 62
     0
 10
846.72471769310005
 20
-152.89529462030001
 30
0.0
 11
849.72471769309993
 21
-152.14529462030001
 31
0.0
 12
849.72471769309993
 22
-153.64529462030001
 32
0.0
 13
848.97471769309993
 23
-152.89529462030001
 33
0.0
  0
ENDBLK
  5
E1
  8
0
  0
BLOCK
  8
0
  2
*D12
 70
     1
 10
0.0
 20
0.0
 30
0.0
  3
*D12
  1

  0
TEXT
  5
E5
  8
0
 62
     0
 10
803.19555104229994
 20
-202.1591834562
 30
0.0
 40
2.9986110209999999
  1
15
 50
90.0
  0
LINE
  5
E6
  8
0
 62
     0
 10
828.72471769310005
 20
-192.89529462029989
 30
0.0
 11
804.22471769309993
 21
-192.89529462029989
 31
0.0
  0
LINE
  5
E7
  8
0
 62
     0
 10
813.72471769309993
 20
-207.89529462030001
 30
0.0
 11
804.22471769309993
 21
-207.89529462030001
 31
0.0
  0
LINE
  5
E8
  8
0
 62
     0
 10
804.72471769310005
 20
-192.89529462029989
 30
0.0
 11
804.72471769310005
 21
-196.8675169485
 31
0.0
  0
LINE
  5
E9
  8
0
 62
     0
 10
804.72471769310005
 20
-192.89529462029989
 30
0.0
 11
804.72471769310005
 21
-203.92307229209999
 31
0.0
  0
LINE
  5
EA
  8
0
 62
     0
 10
804.72471769310005
 20
-207.89529462030001
 30
0.0
 11
804.72471769310005
 21
-196.8675169485
 31
0.0
  0
LINE
  5
EB
  8
0
 62
     0
 10
804.72471769310005
 20
-207.89529462030001
 30
0.0
 11
804.72471769310005
 21
-203.92307229209999
 31
0.0
  0
LINE
  5
EC
  8
0
 62
     0
 10
804.72471769310005
 20
-207.89529462030001
 30
0.0
 11
804.72471769310005
 21
-204.89529462030001
 31
0.0
  0
SOLID
  5
ED
  8
0
 62
     0
 10
804.72471769310005
 20
-207.89529462030001
 30
0.0
 11
803.97471769309993
 21
-204.89529462030001
 31
0.0
 12
805.47471769309982
 22
-204.89529462030001
 32
0.0
 13
804.72471769310005
 23
-205.64529462030001
 33
0.0
  0
LINE
  5
EE
  8
0
 62
     0
 10
804.72471769310005
 20
-192.89529462029989
 30
0.0
 11
804.72471769310005
 21
-195.89529462030001
 31
0.0
  0
SOLID
  5
EF
  8
0
 62
     0
 10
804.72471769310005
 20
-192.89529462029989
 30
0.0
 11
805.47471769309982
 21
-195.89529462030001
 31
0.0
 12
803.97471769309993
 22
-195.89529462030001
 32
0.0
 13
804.72471769310005
 23
-195.14529462030001
 33
0.0
  0
ENDBLK
  5
F0
  8
0
  0
BLOCK
  8
0
  2
*D13
 70
     1
 10
0.0
 20
0.0
 30
0.0
  3
*D13
  1

  0
TEXT
  5
F4
  8
0
 62
     0
 10
803.19555104229994
 20
-185.6591834562
 30
0.0
 40
2.9986110209999999
  1
18
 50
90.0
  0
LINE
  5
F5
  8
0
 62
     0
 10
818.72471769309982
 20
-174.89529462030001
 30
0.0
 11
804.22471769309993
 21
-174.89529462030001
 31
0.0
  0
LINE
  5
F6
  8
0
 62
     0
 10
828.72471769310005
 20
-192.89529462029989
 30
0.0
 11
804.22471769309993
 21
-192.89529462029989
 31
0.0
  0
LINE
  5
F7
  8
0
 62
     0
 10
804.72471769310005
 20
-174.89529462030001
 30
0.0
 11
804.72471769310005
 21
-180.3675169485
 31
0.0
  0
LINE
  5
F8
  8
0
 62
     0
 10
804.72471769310005
 20
-174.89529462030001
 30
0.0
 11
804.72471769310005
 21
-187.42307229209999
 31
0.0
  0
LINE
  5
F9
  8
0
 62
     0
 10
804.72471769310005
 20
-192.89529462029989
 30
0.0
 11
804.72471769310005
 21
-180.3675169485
 31
0.0
  0
LINE
  5
FA
  8
0
 62
     0
 10
804.72471769310005
 20
-192.89529462029989
 30
0.0
 11
804.72471769310005
 21
-187.42307229209999
 31
0.0
  0
LINE
  5
FB
  8
0
 62
     0
 10
804.72471769310005
 20
-192.89529462029989
 30
0.0
 11
804.72471769310005
 21
-189.89529462030001
 31
0.0
  0
SOLID
  5
FC
  8
0
 62
     0
 10
804.72471769310005
 20
-192.89529462029989
 30
0.0
 11
803.97471769309993
 21
-189.89529462030001
 31
0.0
 12
805.47471769309982
 22
-189.89529462030001
 32
0.0
 13
804.72471769310005
 23
-190.64529462030001
 33
0.0
  0
LINE
  5
FD
  8
0
 62
     0
 10
804.72471769310005
 20
-174.89529462030001
 30
0.0
 11
804.72471769310005
 21
-177.89529462029989
 31
0.0
  0
SOLID
  5
FE
  8
0
 62
     0
 10
804.72471769310005
 20
-174.89529462030001
 30
0.0
 11
805.47471769309982
 21
-177.89529462029989
 31
0.0
 12
803.97471769309993
 22
-177.89529462029989
 32
0.0
 13
804.72471769310005
 23
-177.14529462029989
 33
0.0
  0
ENDBLK
  5
FF
  8
0
  0
BLOCK
  8
0
  2
*D14
 70
     1
 10
0.0
 20
0.0
 30
0.0
  3
*D14
  1

  0
TEXT
  5
103
  8
0
 62
     0
 10
803.19555104229994
 20
-170.6591834562
 30
0.0
 40
2.9986110209999999
  1
12
 50
90.0
  0
LINE
  5
104
  8
0
 62
     0
 10
813.72471769309993
 20
-162.89529462030001
 30
0.0
 11
804.22471769309993
 21
-162.89529462030001
 31
0.0
  0
LINE
  5
105
  8
0
 62
     0
 10
818.72471769309982
 20
-174.89529462030001
 30
0.0
 11
804.22471769309993
 21
-174.89529462030001
 31
0.0
  0
LINE
  5
106
  8
0
 62
     0
 10
804.72471769310005
 20
-162.89529462030001
 30
0.0
 11
804.72471769310005
 21
-165.3675169485
 31
0.0
  0
LINE
  5
107
  8
0
 62
     0
 10
804.72471769310005
 20
-162.89529462030001
 30
0.0
 11
804.72471769310005
 21
-172.42307229209999
 31
0.0
  0
LINE
  5
108
  8
0
 62
     0
 10
804.72471769310005
 20
-174.89529462030001
 30
0.0
 11
804.72471769310005
 21
-165.3675169485
 31
0.0
  0
LINE
  5
109
  8
0
 62
     0
 10
804.72471769310005
 20
-174.89529462030001
 30
0.0
 11
804.72471769310005
 21
-172.42307229209999
 31
0.0
  0
LINE
  5
10A
  8
0
 62
     0
 10
804.72471769310005
 20
-174.89529462030001
 30
0.0
 11
804.72471769310005
 21
-177.89529462029989
 31
0.0
  0
SOLID
  5
10B
  8
0
 62
     0
 10
804.72471769310005
 20
-174.89529462030001
 30
0.0
 11
805.47471769309982
 21
-177.89529462029989
 31
0.0
 12
803.97471769309993
 22
-177.89529462029989
 32
0.0
 13
804.72471769310005
 23
-177.14529462029989
 33
0.0
  0
LINE
  5
10C
  8
0
 62
     0
 10
804.72471769310005
 20
-162.89529462030001
 30
0.0
 11
804.72471769310005
 21
-159.89529462030001
 31
0.0
  0
SOLID
  5
10D
  8
0
 62
     0
 10
804.72471769310005
 20
-162.89529462030001
 30
0.0
 11
803.97471769309993
 21
-159.89529462030001
 31
0.0
 12
805.47471769309982
 22
-159.89529462030001
 32
0.0
 13
804.72471769310005
 23
-160.64529462030001
 33
0.0
  0
ENDBLK
  5
10E
  8
0
  0
BLOCK
  8
0
  2
*D15
 70
     1
 10
0.0
 20
0.0
 30
0.0
  3
*D15
  1

  0
TEXT
  5
112
  8
0
 62
     0
 10
784.16499548679997
 20
-255.9440214192
 30
0.0
 40
2.9986110209999999
  1
11
 50
90.0
  0
LINE
  5
113
  8
0
 62
     0
 10
752.69416213759985
 20
-259.68013258330001
 30
0.0
 11
786.19416213759985
 21
-259.68013258330001
 31
0.0
  0
LINE
  5
114
  8
0
 62
     0
 10
776.69416213759985
 20
-248.68013258330001
 30
0.0
 11
786.19416213759985
 21
-248.68013258330001
 31
0.0
  0
LINE
  5
115
  8
0
 62
     0
 10
785.69416213759985
 20
-259.68013258330001
 30
0.0
 11
785.69416213759985
 21
-250.6523549115
 31
0.0
  0
LINE
  5
116
  8
0
 62
     0
 10
785.69416213759985
 20
-259.68013258330001
 30
0.0
 11
785.69416213759985
 21
-257.70791025509999
 31
0.0
  0
LINE
  5
117
  8
0
 62
     0
 10
785.69416213759985
 20
-248.68013258330001
 30
0.0
 11
785.69416213759985
 21
-250.6523549115
 31
0.0
  0
LINE
  5
118
  8
0
 62
     0
 10
785.69416213759985
 20
-248.68013258330001
 30
0.0
 11
785.69416213759985
 21
-257.70791025509999
 31
0.0
  0
LINE
  5
119
  8
0
 62
     0
 10
785.69416213759985
 20
-248.68013258330001
 30
0.0
 11
785.69416213759985
 21
-245.68013258330001
 31
0.0
  0
SOLID
  5
11A
  8
0
 62
     0
 10
785.69416213759985
 20
-248.68013258330001
 30
0.0
 11
784.94416213759996
 21
-245.68013258330001
 31
0.0
 12
786.44416213759985
 22
-245.68013258330001
 32
0.0
 13
785.69416213759985
 23
-246.43013258330001
 33
0.0
  0
LINE
  5
11B
  8
0
 62
     0
 10
785.69416213759985
 20
-259.68013258330001
 30
0.0
 11
785.69416213759985
 21
-262.68013258330001
 31
0.0
  0
SOLID
  5
11C
  8
0
 62
     0
 10
785.69416213759985
 20
-259.68013258330001
 30
0.0
 11
786.44416213759985
 21
-262.68013258330001
 31
0.0
 12
784.94416213759996
 22
-262.68013258330001
 32
0.0
 13
785.69416213759985
 23
-261.93013258330001
 33
0.0
  0
ENDBLK
  5
11D
  8
0
  0
BLOCK
  8
0
  2
*D16
 70
     1
 10
0.0
 20
0.0
 30
0.0
  3
*D16
  1

  0
TEXT
  5
121
  8
0
 62
     0
 10
784.16499548679997
 20
-266.4440214192
 30
0.0
 40
2.9986110209999999
  1
10
 50
90.0
  0
LINE
  5
122
  8
0
 62
     0
 10
770.69416213759996
 20
-269.68013258330001
 30
0.0
 11
786.19416213759985
 21
-269.68013258330001
 31
0.0
  0
LINE
  5
123
  8
0
 62
     0
 10
752.69416213759985
 20
-259.68013258330001
 30
0.0
 11
786.19416213759985
 21
-259.68013258330001
 31
0.0
  0
LINE
  5
124
  8
0
 62
     0
 10
785.69416213759985
 20
-269.68013258330001
 30
0.0
 11
785.69416213759985
 21
-261.15235491150003
 31
0.0
  0
LINE
  5
125
  8
0
 62
     0
 10
785.69416213759985
 20
-269.68013258330001
 30
0.0
 11
785.69416213759985
 21
-268.20791025509999
 31
0.0
  0
LINE
  5
126
  8
0
 62
     0
 10
785.69416213759985
 20
-259.68013258330001
 30
0.0
 11
785.69416213759985
 21
-261.15235491150003
 31
0.0
  0
LINE
  5
127
  8
0
 62
     0
 10
785.69416213759985
 20
-259.68013258330001
 30
0.0
 11
785.69416213759985
 21
-268.20791025509999
 31
0.0
  0
LINE
  5
128
  8
0
 62
     0
 10
785.69416213759985
 20
-259.68013258330001
 30
0.0
 11
785.69416213759985
 21
-256.68013258330001
 31
0.0
  0
SOLID
  5
129
  8
0
 62
     0
 10
785.69416213759985
 20
-259.68013258330001
 30
0.0
 11
784.94416213759996
 21
-256.68013258330001
 31
0.0
 12
786.44416213759985
 22
-256.68013258330001
 32
0.0
 13
785.69416213759985
 23
-257.43013258330001
 33
0.0
  0
LINE
  5
12A
  8
0
 62
     0
 10
785.69416213759985
 20
-269.68013258330001
 30
0.0
 11
785.69416213759985
 21
-272.68013258330001
 31
0.0
  0
SOLID
  5
12B
  8
0
 62
     0
 10
785.69416213759985
 20
-269.68013258330001
 30
0.0
 11
786.44416213759985
 21
-272.68013258330001
 31
0.0
 12
784.94416213759996
 22
-272.68013258330001
 32
0.0
 13
785.69416213759985
 23
-271.93013258330001
 33
0.0
  0
ENDBLK
  5
12C
  8
0
  0
BLOCK
  8
0
  2
*D17
 70
     1
 10
0.0
 20
0.0
 30
0.0
  3
*D17
  1

  0
TEXT
  5
130
  8
0
 62
     0
 10
784.16499548679997
 20
-276.9440214192
 30
0.0
 40
2.9986110209999999
  1
11
 50
90.0
  0
LINE
  5
131
  8
0
 62
     0
 10
776.69416213759985
 20
-280.68013258330001
 30
0.0
 11
786.19416213759985
 21
-280.68013258330001
 31
0.0
  0
LINE
  5
132
  8
0
 62
     0
 10
770.69416213759996
 20
-269.68013258330001
 30
0.0
 11
786.19416213759985
 21
-269.68013258330001
 31
0.0
  0
LINE
  5
133
  8
0
 62
     0
 10
785.69416213759985
 20
-280.68013258330001
 30
0.0
 11
785.69416213759985
 21
-271.65235491150003
 31
0.0
  0
LINE
  5
134
  8
0
 62
     0
 10
785.69416213759985
 20
-280.68013258330001
 30
0.0
 11
785.69416213759985
 21
-278.70791025509999
 31
0.0
  0
LINE
  5
135
  8
0
 62
     0
 10
785.69416213759985
 20
-269.68013258330001
 30
0.0
 11
785.69416213759985
 21
-271.65235491150003
 31
0.0
  0
LINE
  5
136
  8
0
 62
     0
 10
785.69416213759985
 20
-269.68013258330001
 30
0.0
 11
785.69416213759985
 21
-278.70791025509999
 31
0.0
  0
LINE
  5
137
  8
0
 62
     0
 10
785.69416213759985
 20
-269.68013258330001
 30
0.0
 11
785.69416213759985
 21
-266.68013258330001
 31
0.0
  0
SOLID
  5
138
  8
0
 62
     0
 10
785.69416213759985
 20
-269.68013258330001
 30
0.0
 11
784.94416213759996
 21
-266.68013258330001
 31
0.0
 12
786.44416213759985
 22
-266.68013258330001
 32
0.0
 13
785.69416213759985
 23
-267.43013258330001
 33
0.0
  0
LINE
  5
139
  8
0
 62
     0
 10
785.69416213759985
 20
-280.68013258330001
 30
0.0
 11
785.69416213759985
 21
-283.68013258330001
 31
0.0
  0
SOLID
  5
13A
  8
0
 62
     0
 10
785.69416213759985
 20
-280.68013258330001
 30
0.0
 11
786.44416213759985
 21
-283.68013258330001
 31
0.0
 12
784.94416213759996
 22
-283.68013258330001
 32
0.0
 13
785.69416213759985
 23
-282.93013258330001
 33
0.0
  0
ENDBLK
  5
13B
  8
0
  0
BLOCK
  8
0
  2
*D18
 70
     1
 10
0.0
 20
0.0
 30
0.0
  3
*D18
  1

  0
TEXT
  5
13F
  8
0
 62
     0
 10
736.43027330170003
 20
-237.15096593249999
 30
0.0
 40
2.9986110209999999
  1
15
  0
LINE
  5
140
  8
0
 62
     0
 10
745.69416213759996
 20
-252.68013258330001
 30
0.0
 11
745.69416213759996
 21
-238.18013258330001
 31
0.0
  0
LINE
  5
141
  8
0
 62
     0
 10
730.69416213759985
 20
-247.68013258330001
 30
0.0
 11
730.69416213759985
 21
-238.18013258330001
 31
0.0
  0
LINE
  5
142
  8
0
 62
     0
 10
745.69416213759996
 20
-238.68013258330001
 30
0.0
 11
741.72193980940006
 21
-238.68013258330001
 31
0.0
  0
LINE
  5
143
  8
0
 62
     0
 10
745.69416213759996
 20
-238.68013258330001
 30
0.0
 11
734.66638446570005
 21
-238.68013258330001
 31
0.0
  0
LINE
  5
144
  8
0
 62
     0
 10
730.69416213759985
 20
-238.68013258330001
 30
0.0
 11
741.72193980940006
 21
-238.68013258330001
 31
0.0
  0
LINE
  5
145
  8
0
 62
     0
 10
730.69416213759985
 20
-238.68013258330001
 30
0.0
 11
734.66638446570005
 21
-238.68013258330001
 31
0.0
  0
LINE
  5
146
  8
0
 62
     0
 10
730.69416213759985
 20
-238.68013258330001
 30
0.0
 11
733.69416213759985
 21
-238.68013258330001
 31
0.0
  0
SOLID
  5
147
  8
0
 62
     0
 10
730.69416213759985
 20
-238.68013258330001
 30
0.0
 11
733.69416213759985
 21
-237.93013258330001
 31
0.0
 12
733.69416213759985
 22
-239.43013258330001
 32
0.0
 13
732.94416213759985
 23
-238.68013258330001
 33
0.0
  0
LINE
  5
148
  8
0
 62
     0
 10
745.69416213759996
 20
-238.68013258330001
 30
0.0
 11
742.69416213759985
 21
-238.68013258330001
 31
0.0
  0
SOLID
  5
149
  8
0
 62
     0
 10
745.69416213759996
 20
-238.68013258330001
 30
0.0
 11
742.69416213759985
 21
-239.43013258330001
 31
0.0
 12
742.69416213759985
 22
-237.93013258330001
 32
0.0
 13
743.44416213759996
 23
-238.68013258330001
 33
0.0
  0
ENDBLK
  5
14A
  8
0
  0
BLOCK
  8
0
  2
*D19
 70
     1
 10
0.0
 20
0.0
 30
0.0
  3
*D19
  1

  0
TEXT
  5
14E
  8
0
 62
     0
 10
752.93027330170003
 20
-237.15096593249999
 30
0.0
 40
2.9986110209999999
  1
18
  0
LINE
  5
14F
  8
0
 62
     0
 10
763.69416213759985
 20
-262.68013258330001
 30
0.0
 11
763.69416213759985
 21
-238.18013258330001
 31
0.0
  0
LINE
  5
150
  8
0
 62
     0
 10
745.69416213759996
 20
-252.68013258330001
 30
0.0
 11
745.69416213759996
 21
-238.18013258330001
 31
0.0
  0
LINE
  5
151
  8
0
 62
     0
 10
763.69416213759985
 20
-238.68013258330001
 30
0.0
 11
758.22193980940006
 21
-238.68013258330001
 31
0.0
  0
LINE
  5
152
  8
0
 62
     0
 10
763.69416213759985
 20
-238.68013258330001
 30
0.0
 11
751.16638446570005
 21
-238.68013258330001
 31
0.0
  0
LINE
  5
153
  8
0
 62
     0
 10
745.69416213759996
 20
-238.68013258330001
 30
0.0
 11
758.22193980940006
 21
-238.68013258330001
 31
0.0
  0
LINE
  5
154
  8
0
 62
     0
 10
745.69416213759996
 20
-238.68013258330001
 30
0.0
 11
751.16638446570005
 21
-238.68013258330001
 31
0.0
  0
LINE
  5
155
  8
0
 62
     0
 10
745.69416213759996
 20
-238.68013258330001
 30
0.0
 11
748.69416213759985
 21
-238.68013258330001
 31
0.0
  0
SOLID
  5
156
  8
0
 62
     0
 10
745.69416213759996
 20
-238.68013258330001
 30
0.0
 11
748.69416213759985
 21
-237.93013258330001
 31
0.0
 12
748.69416213759985
 22
-239.43013258330001
 32
0.0
 13
747.94416213759985
 23
-238.68013258330001
 33
0.0
  0
LINE
  5
157
  8
0
 62
     0
 10
763.69416213759985
 20
-238.68013258330001
 30
0.0
 11
760.69416213759985
 21
-238.68013258330001
 31
0.0
  0
SOLID
  5
158
  8
0
 62
     0
 10
763.69416213759985
 20
-238.68013258330001
 30
0.0
 11
760.69416213759985
 21
-239.43013258330001
 31
0.0
 12
760.69416213759985
 22
-237.93013258330001
 32
0.0
 13
761.44416213759985
 23
-238.68013258330001
 33
0.0
  0
ENDBLK
  5
159
  8
0
  0
BLOCK
  8
0
  2
*D20
 70
     1
 10
0.0
 20
0.0
 30
0.0
  3
*D20
  1

  0
TEXT
  5
15D
  8
0
 62
     0
 10
767.93027330170003
 20
-237.15096593249999
 30
0.0
 40
2.9986110209999999
  1
12
  0
LINE
  5
15E
  8
0
 62
     0
 10
775.69416213759985
 20
-247.68013258330001
 30
0.0
 11
775.69416213759985
 21
-238.18013258330001
 31
0.0
  0
LINE
  5
15F
  8
0
 62
     0
 10
763.69416213759985
 20
-262.68013258330001
 30
0.0
 11
763.69416213759985
 21
-238.18013258330001
 31
0.0
  0
LINE
  5
160
  8
0
 62
     0
 10
775.69416213759985
 20
-238.68013258330001
 30
0.0
 11
773.22193980940006
 21
-238.68013258330001
 31
0.0
  0
LINE
  5
161
  8
0
 62
     0
 10
775.69416213759985
 20
-238.68013258330001
 30
0.0
 11
766.16638446570005
 21
-238.68013258330001
 31
0.0
  0
LINE
  5
162
  8
0
 62
     0
 10
763.69416213759985
 20
-238.68013258330001
 30
0.0
 11
773.22193980940006
 21
-238.68013258330001
 31
0.0
  0
LINE
  5
163
  8
0
 62
     0
 10
763.69416213759985
 20
-238.68013258330001
 30
0.0
 11
766.16638446570005
 21
-238.68013258330001
 31
0.0
  0
LINE
  5
164
  8
0
 62
     0
 10
763.69416213759985
 20
-238.68013258330001
 30
0.0
 11
760.69416213759985
 21
-238.68013258330001
 31
0.0
  0
SOLID
  5
165
  8
0
 62
     0
 10
763.69416213759985
 20
-238.68013258330001
 30
0.0
 11
760.69416213759985
 21
-239.43013258330001
 31
0.0
 12
760.69416213759985
 22
-237.93013258330001
 32
0.0
 13
761.44416213759985
 23
-238.68013258330001
 33
0.0
  0
LINE
  5
166
  8
0
 62
     0
 10
775.69416213759985
 20
-238.68013258330001
 30
0.0
 11
778.69416213759996
 21
-238.68013258330001
 31
0.0
  0
SOLID
  5
167
  8
0
 62
     0
 10
775.69416213759985
 20
-238.68013258330001
 30
0.0
 11
778.69416213759996
 21
-237.93013258330001
 31
0.0
 12
778.69416213759996
 22
-239.43013258330001
 32
0.0
 13
777.94416213759985
 23
-238.68013258330001
 33
0.0
  0
ENDBLK
  5
168
  8
0
  0
BLOCK
  8
0
  2
*D21
 70
     1
 10
0.0
 20
0.0
 30
0.0
  3
*D21
  1

  0
TEXT
  5
16C
  8
0
 62
     0
 10
742.0971023589999
 20
-145.53638259920001
 30
0.0
 40
2.9986110209999999
  1
4.5t
  0
LINE
  5
16D
  8
0
 62
     0
 10
735.19416213759985
 20
-161.89529462030001
 30
0.0
 11
735.19416213759985
 21
-146.56554924989999
 31
0.0
  0
LINE
  5
16E
  8
0
 62
     0
 10
730.69416213759985
 20
-161.89529462030001
 30
0.0
 11
730.69416213759985
 21
-146.56554924989999
 31
0.0
  0
LINE
  5
16F
  8
0
 62
     0
 10
735.19416213759985
 20
-147.06554924989999
 30
0.0
 11
750.91654653850003
 21
-147.06554924989999
 31
0.0
  0
LINE
  5
170
  8
0
 62
     0
 10
735.19416213759985
 20
-147.06554924989999
 30
0.0
 11
740.33321352309986
 21
-147.06554924989999
 31
0.0
  0
LINE
  5
171
  8
0
 62
     0
 10
730.69416213759985
 20
-147.06554924989999
 30
0.0
 11
750.91654653850003
 21
-147.06554924989999
 31
0.0
  0
LINE
  5
172
  8
0
 62
     0
 10
730.69416213759985
 20
-147.06554924989999
 30
0.0
 11
740.33321352309986
 21
-147.06554924989999
 31
0.0
  0
LINE
  5
173
  8
0
 62
     0
 10
730.69416213759985
 20
-147.06554924989999
 30
0.0
 11
727.69416213759985
 21
-147.06554924989999
 31
0.0
  0
SOLID
  5
174
  8
0
 62
     0
 10
730.69416213759985
 20
-147.06554924989999
 30
0.0
 11
727.69416213759985
 21
-147.81554924989999
 31
0.0
 12
727.69416213759985
 22
-146.31554924989999
 32
0.0
 13
728.44416213759985
 23
-147.06554924989999
 33
0.0
  0
LINE
  5
175
  8
0
 62
     0
 10
735.19416213759985
 20
-147.06554924989999
 30
0.0
 11
738.19416213759985
 21
-147.06554924989999
 31
0.0
  0
SOLID
  5
176
  8
0
 62
     0
 10
735.19416213759985
 20
-147.06554924989999
 30
0.0
 11
738.19416213759985
 21
-146.31554924989999
 31
0.0
 12
738.19416213759985
 22
-147.81554924989999
 32
0.0
 13
737.44416213759985
 23
-147.06554924989999
 33
0.0
  0
ENDBLK
  5
177
  8
0
  0
BLOCK
  8
0
  2
*D22
 70
     1
 10
0.0
 20
0.0
 30
0.0
  3
*D22
  1

  0
TEXT
  5
17B
  8
0
 62
     0
 10
828.96082885719989
 20
-139.39226192070001
 30
0.0
 40
2.9986110209999999
  1
32
  0
LINE
  5
17C
  8
0
 62
     0
 10
846.72471769310005
 20
-161.89529462030001
 30
0.0
 11
846.72471769310005
 21
-140.42142857140001
 31
0.0
  0
LINE
  5
17D
  8
0
 62
     0
 10
814.72471769309993
 20
-161.89529462030001
 30
0.0
 11
814.72471769309993
 21
-140.42142857140001
 31
0.0
  0
LINE
  5
17E
  8
0
 62
     0
 10
846.72471769310005
 20
-140.92142857140001
 30
0.0
 11
834.25249536490003
 21
-140.92142857140001
 31
0.0
  0
LINE
  5
17F
  8
0
 62
     0
 10
846.72471769310005
 20
-140.92142857140001
 30
0.0
 11
827.19694002129995
 21
-140.92142857140001
 31
0.0
  0
LINE
  5
180
  8
0
 62
     0
 10
814.72471769309993
 20
-140.92142857140001
 30
0.0
 11
834.25249536490003
 21
-140.92142857140001
 31
0.0
  0
LINE
  5
181
  8
0
 62
     0
 10
814.72471769309993
 20
-140.92142857140001
 30
0.0
 11
827.19694002129995
 21
-140.92142857140001
 31
0.0
  0
LINE
  5
182
  8
0
 62
     0
 10
814.72471769309993
 20
-140.92142857140001
 30
0.0
 11
817.72471769309993
 21
-140.92142857140001
 31
0.0
  0
SOLID
  5
183
  8
0
 62
     0
 10
814.72471769309993
 20
-140.92142857140001
 30
0.0
 11
817.72471769309993
 21
-140.17142857140001
 31
0.0
 12
817.72471769309993
 22
-141.6714285713999
 32
0.0
 13
816.97471769309982
 23
-140.92142857140001
 33
0.0
  0
LINE
  5
184
  8
0
 62
     0
 10
846.72471769310005
 20
-140.92142857140001
 30
0.0
 11
843.72471769309982
 21
-140.92142857140001
 31
0.0
  0
SOLID
  5
185
  8
0
 62
     0
 10
846.72471769310005
 20
-140.92142857140001
 30
0.0
 11
843.72471769309982
 21
-141.6714285713999
 31
0.0
 12
843.72471769309982
 22
-140.17142857140001
 32
0.0
 13
844.47471769309993
 23
-140.92142857140001
 33
0.0
  0
ENDBLK
  5
186
  8
0
  0
BLOCK
  8
0
  2
CLUMP0
 70
     0
 10
0.0
 20
0.0
 30
0.0
  3
CLUMP0
  1

  0
CIRCLE
  5
1F6
  8
┌▓È_1
 62
     5
 10
745.69416213759996
 20
-259.68013258330001
 30
0.0
 40
4.25
  0
CIRCLE
  5
1F7
  8
┌▓È_1
 62
     5
 10
745.69416213759996
 20
-259.68013258330001
 30
0.0
 40
2.5
  0
LINE
  5
1F8
  8
┌▓È_1
  6
BORDER
 62
     3
 10
745.69416213759996
 20
-265.68013258330001
 30
0.0
 11
745.69416213759996
 21
-253.68013258330001
 31
0.0
  0
LINE
  5
1F9
  8
┌▓È_1
  6
BORDER
 62
     3
 10
739.69416213759985
 20
-259.68013258330001
 30
0.0
 11
751.69416213759985
 21
-259.68013258330001
 31
0.0
  0
ENDBLK
  5
1FA
  8
0
  0
BLOCK
  8
0
  2
CLUMP1
 70
     0
 10
0.0
 20
0.0
 30
0.0
  3
CLUMP1
  1

  0
CIRCLE
  5
1FF
  8
┌▓È_1
 62
     5
 10
835.72471769309982
 20
-192.89529462029989
 30
0.0
 40
2.5
  0
CIRCLE
  5
200
  8
┌▓È_1
 62
     5
 10
835.72471769309982
 20
-192.89529462029989
 30
0.0
 40
4.25
  0
LINE
  5
201
  8
┌▓È_1
  6
BORDER
 62
     3
 10
841.72471769309993
 20
-192.89529462029989
 30
0.0
 11
829.72471769310005
 21
-192.89529462029989
 31
0.0
  0
LINE
  5
202
  8
┌▓È_1
  6
BORDER
 62
     3
 10
835.72471769309982
 20
-186.89529462030001
 30
0.0
 11
835.72471769309982
 21
-198.89529462029989
 31
0.0
  0
ENDBLK
  5
203
  8
0
  0
BLOCK
  8
0
  2
CLUMP2
 70
     0
 10
0.0
 20
0.0
 30
0.0
  3
CLUMP2
  1

  0
CIRCLE
  5
20A
  8
┌▓È_1
 62
     5
 10
825.72471769309993
 20
-174.89529462030001
 30
0.0
 40
4.25
  0
CIRCLE
  5
20B
  8
┌▓È_1
 62
     5
 10
825.72471769309993
 20
-174.89529462030001
 30
0.0
 40
2.5
  0
LINE
  5
20C
  8
┌▓È_1
  6
BORDER
 62
     3
 10
831.72471769309993
 20
-174.89529462030001
 30
0.0
 11
819.72471769309982
 21
-174.89529462030001
 31
0.0
  0
LINE
  5
20D
  8
┌▓È_1
  6
BORDER
 62
     3
 10
825.72471769309993
 20
-168.89529462030001
 30
0.0
 11
825.72471769309993
 21
-180.89529462030001
 31
0.0
  0
ENDBLK
  5
20E
  8
0
  0
BLOCK
  8
0
  2
CLUMP3
 70
     0
 10
0.0
 20
0.0
 30
0.0
  3
CLUMP3
  1

  0
LINE
  5
234
  8
┌▓È_1
  6
BORDER
 62
     3
 10
757.69416213759996
 20
-269.68013258330001
 30
0.0
 11
769.69416213759985
 21
-269.68013258330001
 31
0.0
  0
CIRCLE
  5
235
  8
┌▓È_1
 62
     5
 10
763.69416213759985
 20
-269.68013258330001
 30
0.0
 40
2.5
  0
LINE
  5
236
  8
┌▓È_1
  6
BORDER
 62
     3
 10
763.69416213759985
 20
-275.68013258330001
 30
0.0
 11
763.69416213759985
 21
-263.68013258330001
 31
0.0
  0
CIRCLE
  5
237
  8
┌▓È_1
 62
     5
 10
763.69416213759985
 20
-269.68013258330001
 30
0.0
 40
4.25
  0
ENDBLK
  5
238
  8
0
  0
BLOCK
  8
0
  2
*D27
 70
     1
 10
0.0
 20
0.0
 30
0.0
  3
*D27
  1

  0
LINE
  5
26D
  8
Éíû@É³
 62
     0
 10
775.63166213759985
 20
-203.39529462029989
 30
0.0
 11
753.92058652831327
 21
-203.39529462030001
 31
0.0
  0
LINE
  5
26E
  8
Éíû@É³
 62
     0
 10
735.19416213759985
 20
-162.95779462029989
 30
0.0
 11
735.19416213759985
 21
-184.6688702295865
 31
0.0
  0
ARC
  5
26F
  8
Éíû@É³
 62
     0
 10
735.19416213759985
 20
-203.39529462030001
 30
0.0
 40
19.976424390713369
 50
8.6126161189288268
 51
27.15210133461354
  0
ARC
  5
270
  8
Éíû@É³
 62
     0
 10
735.19416213759985
 20
-203.39529462030001
 30
0.0
 40
19.976424390713369
 50
54.001631226563298
 51
81.387383881071216
  0
SOLID
  5
271
  8
Éíû@É³
 62
     0
 10
755.44390942599375
 20
-200.3662197460844
 30
0.0
 11
754.44673255340058
 21
-200.4413082589565
 31
0.0
 12
755.17058652831338
 22
-203.39529462030001
 32
0.0
 13
755.17058652831338
 23
-203.39529462030001
 33
0.0
  0
SOLID
  5
272
  8
Éíû@É³
 62
     0
 10
738.14814849894333
 20
-184.14272420449939
 30
0.0
 11
738.2232370118154
 21
-183.14554733190619
 31
0.0
 12
735.19416213759985
 22
-183.41887022958659
 32
0.0
 13
735.19416213759985
 23
-183.41887022958659
 33
0.0
  0
TEXT
  8
Éíû@É³
  40
2.99861
  5
2E2
  62
0
  72
0
  71
0
 10
744.370
 20
-195.709
 30
0.000000
  1
90üï
  0
POINT
  5
274
  8
Defpoints
 62
     0
 10
735.19416213759985
 20
-203.39529462030001
 30
0.0
  0
POINT
  5
275
  8
Defpoints
 62
     0
 10
775.69416213759985
 20
-203.39529462029989
 30
0.0
  0
POINT
  5
276
  8
Defpoints
 62
     0
 10
735.19416213759985
 20
-162.89529462030001
 30
0.0
  0
POINT
  5
277
  8
Defpoints
 62
     0
 10
745.18237433295656
 20
-186.09520362116311
 30
0.0
  0
ENDBLK
  5
279
  8
0
  0
BLOCK
  8
0
  2
*D28
 70
     1
 10
0.0
 20
0.0
 30
0.0
  3
*D28
  1

  0
LINE
  5
27B
  8
Éíû@É³
 62
     0
 10
886.57198972967592
 20
-213.7349901763242
 30
0.0
 11
871.68188326801703
 21
-228.62509663798321
 31
0.0
  0
LINE
  5
27C
  8
Éíû@É³
 62
     0
 10
930.22103824912404
 20
-213.7349901763242
 30
0.0
 11
945.11114471078315
 21
-228.62509663798321
 31
0.0
  0
ARC
  5
27D
  8
Éíû@É³
 62
     0
 10
908.39651398939986
 20
-191.9104659166
 30
0.0
 40
50.672328703699982
 50
228.3926297901078
 51
264.74853150686641
  0
ARC
  5
27E
  8
Éíû@É³
 62
     0
 10
908.39651398939986
 20
-191.9104659166
 30
0.0
 40
50.672328703699982
 50
275.25146849313347
 51
311.60737020989239
  0
SOLID
  5
27F
  8
Éíû@É³
 62
     0
 10
874.4060201032645
 20
-230.1626729640893
 30
0.0
 11
875.09188526309015
 21
-229.43494431786351
 31
0.0
 12
872.56576674450002
 22
-227.7412131615001
 32
0.0
 13
872.56576674450002
 23
-227.7412131615001
 33
0.0
  0
SOLID
  5
280
  8
Éíû@É³
 62
     0
 10
941.70114271570992
 20
-229.43494431786351
 30
0.0
 11
942.38700787553535
 21
-230.1626729640893
 31
0.0
 12
944.22726123430004
 22
-227.74121316150001
 32
0.0
 13
944.22726123430004
 23
-227.74121316150001
 33
0.0
  0
TEXT
  8
Éíû@É³
  40
2.99861
  5
2E3
  62
0
  72
0
  71
0
 10
902.399
 20
-247.890
 30
0.000000
  1
90üï
  0
POINT
  5
282
  8
Defpoints
 62
     0
 10
908.39651398939986
 20
-191.9104659166
 30
0.0
  0
POINT
  5
283
  8
Defpoints
 62
     0
 10
886.61618390350009
 20
-213.69079600250001
 30
0.0
  0
POINT
  5
284
  8
Defpoints
 62
     0
 10
930.17684407529987
 20
-213.69079600250001
 30
0.0
  0
POINT
  5
285
  8
Defpoints
 62
     0
 10
895.28155026118725
 20
-240.85617688971271
 30
0.0
  0
ENDBLK
  5
287
  8
0
  0
BLOCK
  8
0
  2
*D29
 70
     1
 10
0.0
 20
0.0
 30
0.0
  3
*D29
  1

  0
LINE
  5
289
  8
Éíû@É³
 62
     0
 10
930.22103824912404
 20
-190.0859416568758
 30
0.0
 11
950.89993984782222
 21
-169.40704005817781
 31
0.0
  0
LINE
  5
28A
  8
Éíû@É³
 62
     0
 10
886.57198972967592
 20
-190.0859416568758
 30
0.0
 11
865.89308813097784
 21
-169.4070400581777
 31
0.0
  0
ARC
  5
28B
  8
Éíû@É³
 62
     0
 10
908.39651398939986
 20
-211.9104659166
 30
0.0
 40
58.858921296299997
 50
47.920643907291357
 51
85.480592118274444
  0
ARC
  5
28C
  8
Éíû@É³
 62
     0
 10
908.39651398939986
 20
-211.9104659166
 30
0.0
 40
58.858921296299997
 50
94.519407881725556
 51
132.07935609270851
  0
SOLID
  5
28D
  8
Éíû@É³
 62
     0
 10
948.18579223326537
 20
-167.86190455884341
 30
0.0
 11
947.49693549181507
 21
-168.5868020617763
 31
0.0
 12
950.01605637133889
 22
-170.29092353466089
 32
0.0
 13
950.01605637133889
 23
-170.29092353466089
 33
0.0
  0
SOLID
  5
28E
  8
Éíû@É³
 62
     0
 10
869.29609248698489
 20
-168.58680206177621
 30
0.0
 11
868.60723574553458
 21
-167.86190455884329
 31
0.0
 12
866.77697160746095
 22
-170.29092353466081
 32
0.0
 13
866.77697160746095
 23
-170.29092353466081
 33
0.0
  0
TEXT
  8
Éíû@É³
  40
2.99861
  5
2E4
  62
0
  72
0
  71
0
 10
902.399
 20
-158.359
 30
0.000000
  1
90üï
  0
POINT
  5
290
  8
Defpoints
 62
     0
 10
908.39651398939986
 20
-211.9104659166
 30
0.0
  0
POINT
  5
291
  8
Defpoints
 62
     0
 10
930.17684407529987
 20
-190.1301358307
 30
0.0
  0
POINT
  5
292
  8
Defpoints
 62
     0
 10
886.61618390350009
 20
-190.1301358307
 30
0.0
  0
POINT
  5
293
  8
Defpoints
 62
     0
 10
923.63032379507285
 20
-155.05711372898821
 30
0.0
  0
ENDBLK
  5
295
  8
0
  0
BLOCK
  8
0
  2
*U30
 70
     1
 10
0.0
 20
0.0
 30
0.0
  3
*U30
  1

  0
TEXT
  5
297
  8
┌▓È_1
  6
CONTINUOUS
 10
886.55745803160005
 20
-293.61890276086848
 30
0.0
 40
2.337499999999999
  1
ü@ö┬ ü@î·
  0
ENDBLK
  5
299
  8
0
  0
BLOCK
  8
0
  2
*U31
 70
     1
 10
0.0
 20
0.0
 30
0.0
  3
*U31
  1

  0
TEXT
  5
29B
  8
┌▓È_1
  6
CONTINUOUS
 10
870.55745803160005
 20
-293.57144083193452
 30
0.0
 40
2.337499999999999
  1
ü@ìÌ ü@Ä┐
  0
ENDBLK
  5
29D
  8
0
  0
BLOCK
  8
0
  2
*U32
 70
     1
 10
0.0
 20
0.0
 30
0.0
  3
*U32
  1

  0
TEXT
  5
29F
  8
┌▓È_1
  6
CONTINUOUS
 62
     5
 10
891.20282729644225
 20
-306.23838245629997
 30
0.0
 40
2.337499999999999
  1
1üF1
  0
ENDBLK
  5
2A1
  8
0
  0
BLOCK
  8
0
  2
*U33
 70
     1
 10
0.0
 20
0.0
 30
0.0
  3
*U33
  1

  0
TEXT
  5
2A3
  8
┌▓È_1
  6
CONTINUOUS
 62
     5
 10
891.09603795634052
 20
-297.73838245629997
 30
0.0
 40
2.337499999999999
  1
4.5t
  0
ENDBLK
  5
2A5
  8
0
  0
BLOCK
  8
0
  2
*U34
 70
     1
 10
0.0
 20
0.0
 30
0.0
  3
*U34
  1

  0
TEXT
  5
2A7
  8
┌▓È_1
  6
CONTINUOUS
 62
     5
 10
876.69194531674668
 20
-297.88076824310201
 30
0.0
 40
2.337499999999999
  1
ôS
  0
ENDBLK
  5
2A9
  8
0
  0
BLOCK
  8
0
  2
*U35
 70
     1
 10
0.0
 20
0.0
 30
0.0
  3
*U35
  1

  0
TEXT
  5
2AB
  8
┌▓È_1
  6
CONTINUOUS
 62
     5
 10
858.27731968222895
 20
-297.73838245629997
 30
0.0
 40
2.337499999999999
  1
H16.4
  0
ENDBLK
  5
2AD
  8
0
  0
BLOCK
  8
0
  2
*U36
 70
     1
 10
0.0
 20
0.0
 30
0.0
  3
*U36
  1

  0
TEXT
  5
2AF
  8
┌▓È_1
  6
CONTINUOUS
 10
918.98257167399993
 20
-310.542542217201
 30
0.0
 40
2.337499999999999
  1
É}öÈ
  0
ENDBLK
  5
2B1
  8
0
  0
BLOCK
  8
0
  2
*U37
 70
     1
 10
0.0
 20
0.0
 30
0.0
  3
*U37
  1

  0
TEXT
  5
2B3
  8
┌▓È_1
  6
CONTINUOUS
 10
918.98257167399993
 20
-302.06627318166801
 30
0.0
 40
2.337499999999999
  1
òiû╝
  0
ENDBLK
  5
2B5
  8
0
  0
BLOCK
  8
0
  2
*U38
 70
     1
 10
0.0
 20
0.0
 30
0.0
  3
*U38
  1

  0
TEXT
  5
2B7
  8
┌▓È_1
  6
CONTINUOUS
 10
918.98257167399993
 20
-293.542542217201
 30
0.0
 40
2.337499999999999
  1
î^öÈ
  0
ENDBLK
  5
2B9
  8
0
  0
BLOCK
  8
0
  2
*U39
 70
     1
 10
0.0
 20
0.0
 30
0.0
  3
*U39
  1

  0
TEXT
  5
2BB
  8
┌▓È_1
  6
CONTINUOUS
 10
854.55745803159994
 20
-293.53584438523399
 30
0.0
 40
2.337499999999999
  1
ü@ô· ü@òt
  0
ENDBLK
  5
2BD
  8
0
  0
BLOCK
  8
0
  2
*U40
 70
     1
 10
0.0
 20
0.0
 30
0.0
  3
*U40
  1

  0
TEXT
  5
2BF
  8
┌▓È_1
  6
CONTINUOUS
 10
854.09207222029988
 20
-306.38076824310201
 30
0.0
 40
2.337499999999999
  1
 É╗É}ü@ü@ è¦û{
  0
ENDBLK
  5
2C1
  8
0
  0
BLOCK
  8
0
  2
*U41
 70
     1
 10
0.0
 20
0.0
 30
0.0
  3
*U41
  1

  0
TEXT
  5
2C3
  8
┌▓È_1
  6
CONTINUOUS
 10
854.09207222029988
 20
-302.11890276086848
 30
0.0
 40
2.337499999999999
  1
 É¦îvü@ü@öÆÉ{ëÛ
  0
ENDBLK
  5
2C5
  8
0
  0
BLOCK
  8
0
  2
*U42
 70
     1
 10
0.0
 20
0.0
 30
0.0
  3
*U42
  1

  0
TEXT
  5
2C7
  8
┌▓È_1
  6
CONTINUOUS
 10
902.55745803160005
 20
-293.61890276086848
 30
0.0
 40
2.337499999999999
  1
ü@îƒ ü@ê¾
  0
ENDBLK
  5
2C9
  8
0
  0
BLOCK
  8
0
  2
*U43
 70
     1
 10
0.0
 20
0.0
 30
0.0
  3
*U43
  1

  0
TEXT
  5
2CB
  8
┌▓È_1
  6
CONTINUOUS
 10
886.55745803160005
 20
-302.107037278635
 30
0.0
 40
2.337499999999999
  1
ü@Ä┌ ü@ôx
  0
ENDBLK
  5
2CD
  8
0
  0
BLOCK
  8
0
  2
*U44
 70
     1
 10
0.0
 20
0.0
 30
0.0
  3
*U44
  1

  0
TEXT
  5
2CF
  8
┌▓È_1
  6
CONTINUOUS
 10
933.49722048820013
 20
-305.25434145956348
 30
0.0
 40
3.5983331442000002
  1
ékî^âAâôâOâï
  0
ENDBLK
  5
2D1
  8
0
  0
BLOCK
  8
0
  2
*U45
 70
     1
 10
0.0
 20
0.0
 30
0.0
  3
*U45
  1

  0
TEXT
  5
2D3
  8
┌▓È_1
  6
CONTINUOUS
 10
931.97217621768357
 20
-296.49245993379998
 30
0.0
 40
3.5983331442000002
  1
LY-201  45x45
  0
ENDBLK
  5
2D5
  8
0
  0
BLOCK
  8
0
  2
*U46
 70
     1
 10
0.0
 20
0.0
 30
0.0
  3
*U46
  1

  0
TEXT
  5
2D7
  8
┌▓È_1
  6
CONTINUOUS
 10
854.09207222029988
 20
-289.024154746129
 30
0.0
 40
3.5983331442000002
  1
ò\û╩ÅêùØüFâåâjâNâìâüâbâLÄdÅÒé░
  0
ENDBLK
  5
2D9
  8
0
  0
BLOCK
  8
0
  2
*U47
 70
     1
 10
0.0
 20
0.0
 30
0.0
  3
*U47
  1

  0
TEXT
  5
2DB
  8
┌▓È_1
  6
CONTINUOUS
 10
861.31262594509997
 20
-313.69778891286649
 30
0.0
 40
4.3179999351999987
  1
èöÄ«ë´Äð
  0
ENDBLK
  5
2DD
  8
0
  0
BLOCK
  8
0
  2
*U48
 70
     1
 10
0.0
 20
0.0
 30
0.0
  3
*U48
  1

  0
TEXT
  5
2DF
  8
┌▓È_1
  6
CONTINUOUS
 10
894.75578198768062
 20
-253.7076656950112
 30
0.0
 40
2.9986110209999999
  1
ÄMâéâ~òöègæÕÉ}
  0
ENDBLK
  5
2E1
  8
0
  0
ENDSEC
  0
SECTION
  2
ENTITIES
  0
DIMENSION
  5
3E
  8
Éíû@É³
  2
*D0
 10
887.14651398939986
 20
-231.56716962030001
 30
0.0
 11
908.39651398939986
 21
-231.56716962030001
 31
0.0
 70
   128
  1
%%c8.5
 13
887.14651398939986
 23
-213.1604659166
 33
0.0
 14
929.64651398939986
 24
-213.1604659166
 34
0.0
 50
180.0
  0
LINE
  5
40
  8
┌▓È_1
 62
     5
 10
699.0920722203
 20
-125.9453490489
 30
0.0
 11
974.0920722203
 21
-125.9453490489
 31
0.0
  0
LINE
  5
41
  8
┌▓È_1
 62
     5
 10
974.0920722203
 20
-315.94534904890003
 30
0.0
 11
974.0920722203
 21
-125.9453490489
 31
0.0
  0
LINE
  5
42
  8
┌▓È_1
 62
     5
 10
699.0920722203
 20
-315.94534904890003
 30
0.0
 11
974.0920722203
 21
-315.94534904890003
 31
0.0
  0
DIMENSION
  5
51
  8
Éíû@É³
  2
*D1
 10
920.89651398939986
 20
-172.97341962029989
 30
0.0
 11
908.39651398939986
 21
-172.97341962029989
 31
0.0
 70
   128
  1
%%c5
 13
920.89651398939986
 23
-199.4104659166
 33
0.0
 14
895.89651398939986
 24
-199.4104659166
 34
0.0
  0
DIMENSION
  5
60
  8
Éíû@É³
  2
*D2
 10
929.64651398939986
 20
-163.12966962030001
 30
0.0
 11
908.39651398939986
 21
-163.12966962030001
 31
0.0
 70
   128
  1
%%c8.5
 13
929.64651398939986
 23
-190.6604659166
 33
0.0
 14
887.14651398939986
 24
-190.6604659166
 34
0.0
  0
DIMENSION
  5
6E
  8
Éíû@É³
  2
*D27
 10
745.18237433295656
 20
-186.09520362116311
 30
0.0
 11
750.36693569589977
 21
-190.40127776690011
 31
0.0
 70
   133
  1
<>
 13
735.19416213759985
 23
-162.89529462030001
 33
0.0
 14
775.69416213759985
 24
-203.39529462030001
 34
0.0
 15
735.19416213759985
 25
-203.39529462030001
 35
0.0
1001
ACAD
1000
DSTYLE
1002
{
1070
   271
1070
     0
1002
}
  0
DIMENSION
  5
7B
  8
Éíû@É³
  2
*D28
 10
895.28155026118725
 20
-240.85617688971271
 30
0.0
 11
908.39651398939986
 21
-242.58279462030001
 31
0.0
 70
   133
  1
<>
 13
930.17684407529987
 23
-213.69079600250001
 33
0.0
 14
886.61618390350009
 24
-213.69079600250001
 34
0.0
 15
908.39651398939986
 25
-191.9104659166
 35
0.0
1001
ACAD
1000
DSTYLE
1002
{
1070
   271
1070
     0
1002
}
  0
DIMENSION
  5
88
  8
Éíû@É³
  2
*D29
 10
923.63032379507285
 20
-155.05711372898821
 30
0.0
 11
908.39651398939986
 21
-153.05154462030001
 31
0.0
 70
   133
  1
<>
 13
886.61618390350009
 23
-190.1301358307
 33
0.0
 14
930.17684407529987
 24
-190.1301358307
 34
0.0
 15
908.39651398939986
 25
-211.9104659166
 35
0.0
1001
ACAD
1000
DSTYLE
1002
{
1070
   271
1070
     0
1002
}
  0
DIMENSION
  5
97
  8
Éíû@É³
  2
*D6
 10
720.69416213759996
 20
-248.68013258330001
 30
0.0
 11
720.69416213759996
 21
-264.68013258330001
 31
0.0
 70
   128
  1
<>
 13
730.69416213759985
 23
-248.68013258330001
 33
0.0
 14
730.69416213759985
 24
-280.68013258330001
 34
0.0
 50
90.0
  0
DIMENSION
  5
A6
  8
Éíû@É³
  2
*D7
 10
720.69416213759996
 20
-162.89529462030001
 30
0.0
 11
720.69416213759996
 21
-185.39529462029989
 31
0.0
 70
   128
  1
<>
 13
730.69416213759985
 23
-162.89529462030001
 33
0.0
 14
735.19416213759985
 24
-207.89529462030001
 34
0.0
 50
90.0
  0
DIMENSION
  5
B5
  8
Éíû@É³
  2
*D8
 10
730.69416213759985
 20
-217.89529462030001
 30
0.0
 11
753.19416213759985
 21
-217.89529462030001
 31
0.0
 70
   128
  1
<>
 13
730.69416213759985
 23
-203.39529462030001
 33
0.0
 14
775.69416213759985
 24
-207.89529462030001
 34
0.0
 50
180.0
  0
DIMENSION
  5
C4
  8
Éíû@É³
  2
*D9
 10
825.72471769309993
 20
-152.89529462030001
 30
0.0
 11
820.22471769309993
 21
-152.89529462030001
 31
0.0
 70
   128
  1
<>
 13
825.72471769309993
 23
-168.89529462030001
 33
0.0
 14
814.72471769309993
 24
-162.89529462030001
 34
0.0
  0
DIMENSION
  5
D3
  8
Éíû@É³
  2
*D10
 10
835.72471769309982
 20
-152.89529462030001
 30
0.0
 11
830.72471769309993
 21
-152.89529462030001
 31
0.0
 70
   128
  1
<>
 13
835.72471769309982
 23
-186.89529462030001
 33
0.0
 14
825.72471769309993
 24
-168.89529462030001
 34
0.0
  0
DIMENSION
  5
E2
  8
Éíû@É³
  2
*D11
 10
846.72471769310005
 20
-152.89529462030001
 30
0.0
 11
841.22471769310005
 21
-152.89529462030001
 31
0.0
 70
   128
  1
<>
 13
846.72471769310005
 23
-162.89529462030001
 33
0.0
 14
835.72471769309982
 24
-186.89529462030001
 34
0.0
  0
DIMENSION
  5
F1
  8
Éíû@É³
  2
*D12
 10
804.72471769310005
 20
-192.89529462029989
 30
0.0
 11
804.72471769310005
 21
-200.39529462030001
 31
0.0
 70
   128
  1
<>
 13
829.72471769310005
 23
-192.89529462029989
 33
0.0
 14
814.72471769309993
 24
-207.89529462030001
 34
0.0
 50
90.0
  0
DIMENSION
  5
100
  8
Éíû@É³
  2
*D13
 10
804.72471769310005
 20
-174.89529462030001
 30
0.0
 11
804.72471769310005
 21
-183.89529462030001
 31
0.0
 70
   128
  1
<>
 13
819.72471769309982
 23
-174.89529462030001
 33
0.0
 14
829.72471769310005
 24
-192.89529462029989
 34
0.0
 50
90.0
  0
DIMENSION
  5
10F
  8
Éíû@É³
  2
*D14
 10
804.72471769310005
 20
-162.89529462030001
 30
0.0
 11
804.72471769310005
 21
-168.89529462030001
 31
0.0
 70
   128
  1
<>
 13
814.72471769309993
 23
-162.89529462030001
 33
0.0
 14
819.72471769309982
 24
-174.89529462030001
 34
0.0
 50
90.0
  0
DIMENSION
  5
11E
  8
Éíû@É³
  2
*D15
 10
785.69416213759985
 20
-259.68013258330001
 30
0.0
 11
785.69416213759985
 21
-254.18013258330001
 31
0.0
 70
   128
  1
<>
 13
751.69416213759985
 23
-259.68013258330001
 33
0.0
 14
775.69416213759985
 24
-248.68013258330001
 34
0.0
 50
90.0
  0
DIMENSION
  5
12D
  8
Éíû@É³
  2
*D16
 10
785.69416213759985
 20
-269.68013258330001
 30
0.0
 11
785.69416213759985
 21
-264.68013258330001
 31
0.0
 70
   128
  1
<>
 13
769.69416213759985
 23
-269.68013258330001
 33
0.0
 14
751.69416213759985
 24
-259.68013258330001
 34
0.0
 50
90.0
  0
DIMENSION
  5
13C
  8
Éíû@É³
  2
*D17
 10
785.69416213759985
 20
-280.68013258330001
 30
0.0
 11
785.69416213759985
 21
-275.18013258330001
 31
0.0
 70
   128
  1
<>
 13
775.69416213759985
 23
-280.68013258330001
 33
0.0
 14
769.69416213759985
 24
-269.68013258330001
 34
0.0
 50
90.0
  0
DIMENSION
  5
14B
  8
Éíû@É³
  2
*D18
 10
745.69416213759996
 20
-238.68013258330001
 30
0.0
 11
738.19416213759985
 21
-238.68013258330001
 31
0.0
 70
   128
  1
<>
 13
745.69416213759996
 23
-253.68013258330001
 33
0.0
 14
730.69416213759985
 24
-248.68013258330001
 34
0.0
  0
DIMENSION
  5
15A
  8
Éíû@É³
  2
*D19
 10
763.69416213759985
 20
-238.68013258330001
 30
0.0
 11
754.69416213759985
 21
-238.68013258330001
 31
0.0
 70
   128
  1
<>
 13
763.69416213759985
 23
-263.68013258330001
 33
0.0
 14
745.69416213759996
 24
-253.68013258330001
 34
0.0
  0
DIMENSION
  5
169
  8
Éíû@É³
  2
*D20
 10
775.69416213759985
 20
-238.68013258330001
 30
0.0
 11
769.69416213759985
 21
-238.68013258330001
 31
0.0
 70
   128
  1
<>
 13
775.69416213759985
 23
-248.68013258330001
 33
0.0
 14
763.69416213759985
 24
-263.68013258330001
 34
0.0
  0
DIMENSION
  5
178
  8
Éíû@É³
  2
*D21
 10
735.19416213759985
 20
-147.06554924989999
 30
0.0
 11
745.62488003079989
 21
-147.06554924989999
 31
0.0
 70
   128
  1
<>t
 13
735.19416213759985
 23
-162.89529462030001
 33
0.0
 14
730.69416213759985
 24
-162.89529462030001
 34
0.0
  0
DIMENSION
  5
187
  8
Éíû@É³
  2
*D22
 10
846.72471769310005
 20
-140.92142857140001
 30
0.0
 11
830.72471769309993
 21
-140.92142857140001
 31
0.0
 70
   128
  1
<>
 13
846.72471769310005
 23
-162.89529462030001
 33
0.0
 14
814.72471769309993
 24
-162.89529462030001
 34
0.0
  0
INSERT
  5
188
  8
0
  6
CONTINUOUS
  2
*U30
 10
0.0
 20
0.0
 30
0.0
  0
INSERT
  5
189
  8
0
  6
CONTINUOUS
  2
*U31
 10
0.0
 20
0.0
 30
0.0
  0
INSERT
  5
18A
  8
0
  6
CONTINUOUS
  2
*U32
 10
0.0
 20
0.0
 30
0.0
  0
INSERT
  5
18B
  8
0
  6
CONTINUOUS
  2
*U33
 10
0.0
 20
0.0
 30
0.0
  0
INSERT
  5
18C
  8
0
  6
CONTINUOUS
  2
*U34
 10
0.0
 20
0.0
 30
0.0
  0
INSERT
  5
18D
  8
0
  6
CONTINUOUS
  2
*U35
 10
0.0
 20
0.0
 30
0.0
  0
INSERT
  5
18E
  8
0
  6
CONTINUOUS
  2
*U36
 10
0.0
 20
0.0
 30
0.0
  0
INSERT
  5
18F
  8
0
  6
CONTINUOUS
  2
*U37
 10
0.0
 20
0.0
 30
0.0
  0
INSERT
  5
190
  8
0
  6
CONTINUOUS
  2
*U38
 10
0.0
 20
0.0
 30
0.0
  0
INSERT
  5
191
  8
0
  6
CONTINUOUS
  2
*U39
 10
0.0
 20
0.0
 30
0.0
  0
INSERT
  5
192
  8
0
  6
CONTINUOUS
  2
*U40
 10
0.0
 20
0.0
 30
0.0
  0
INSERT
  5
193
  8
0
  6
CONTINUOUS
  2
*U41
 10
0.0
 20
0.0
 30
0.0
  0
LINE
  5
194
  8
┌▓È_1
 10
888.09207222029988
 20
-303.19534904890003
 30
0.0
 11
900.0920722203
 21
-303.19534904890003
 31
0.0
  0
LINE
  5
195
  8
┌▓È_1
 10
888.09207222029988
 20
-294.69534904890003
 30
0.0
 11
900.0920722203
 21
-294.69534904890003
 31
0.0
  0
LINE
  5
196
  8
┌▓È_1
 10
856.0920722203
 20
-303.19534904890003
 30
0.0
 11
884.0920722203
 21
-303.19534904890003
 31
0.0
  0
LINE
  5
197
  8
┌▓È_1
 10
872.0920722203
 20
-294.69534904890003
 30
0.0
 11
884.0920722203
 21
-294.69534904890003
 31
0.0
  0
LINE
  5
198
  8
┌▓È_1
 10
856.0920722203
 20
-294.69534904890003
 30
0.0
 11
868.0920722203
 21
-294.69534904890003
 31
0.0
  0
LINE
  5
199
  8
┌▓È_1
 10
886.09207222029988
 20
-290.44534904890003
 30
0.0
 11
886.09207222029988
 21
-307.44534904890003
 31
0.0
  0
LINE
  5
19A
  8
┌▓È_1
 62
     5
 10
900.41775843479991
 20
-310.67489888940003
 30
0.0
 11
899.96521009479989
 21
-311.12744722939999
 31
0.0
  0
LINE
  5
19B
  8
┌▓È_1
 62
     5
 10
897.21775843479986
 20
-310.93258710340001
 30
0.0
 11
897.21775843479986
 21
-310.67489888940003
 31
0.0
  0
POLYLINE
  8
┌▓È_1
  5
2E5
  62
5
  66
     1
 10
0.000000
 20
0.000000
 30
0.000000
  70
     8
  0
VERTEX
  8
┌▓È_1
  5
2E6
 10
902.565
 20
-312.836
 30
0.000000
  70
    32
  0
VERTEX
  8
┌▓È_1
  5
2E7
 10
902.579
 20
-312.840
 30
0.000000
  70
    32
  0
VERTEX
  8
┌▓È_1
  5
2E8
 10
902.593
 20
-312.844
 30
0.000000
  70
    32
  0
VERTEX
  8
┌▓È_1
  5
2E9
 10
902.607
 20
-312.848
 30
0.000000
  70
    32
  0
VERTEX
  8
┌▓È_1
  5
2EA
 10
902.621
 20
-312.852
 30
0.000000
  70
    32
  0
VERTEX
  8
┌▓È_1
  5
2EB
 10
902.636
 20
-312.856
 30
0.000000
  70
    32
  0
VERTEX
  8
┌▓È_1
  5
2EC
 10
902.650
 20
-312.859
 30
0.000000
  70
    32
  0
VERTEX
  8
┌▓È_1
  5
2ED
 10
902.664
 20
-312.863
 30
0.000000
  70
    32
  0
VERTEX
  8
┌▓È_1
  5
2EE
 10
902.678
 20
-312.867
 30
0.000000
  70
    32
  0
VERTEX
  8
┌▓È_1
  5
2EF
 10
902.692
 20
-312.871
 30
0.000000
  70
    32
  0
VERTEX
  8
┌▓È_1
  5
2F0
 10
902.706
 20
-312.875
 30
0.000000
  70
    32
  0
VERTEX
  8
┌▓È_1
  5
2F1
 10
902.720
 20
-312.878
 30
0.000000
  70
    32
  0
VERTEX
  8
┌▓È_1
  5
2F2
 10
902.734
 20
-312.882
 30
0.000000
  70
    32
  0
VERTEX
  8
┌▓È_1
  5
2F3
 10
902.748
 20
-312.886
 30
0.000000
  70
    32
  0
VERTEX
  8
┌▓È_1
  5
2F4
 10
902.763
 20
-312.890
 30
0.000000
  70
    32
  0
VERTEX
  8
┌▓È_1
  5
2F5
 10
902.777
 20
-312.893
 30
0.000000
  70
    32
  0
VERTEX
  8
┌▓È_1
  5
2F6
 10
902.791
 20
-312.897
 30
0.000000
  70
    32
  0
VERTEX
  8
┌▓È_1
  5
2F7
 10
902.805
 20
-312.900
 30
0.000000
  70
    32
  0
VERTEX
  8
┌▓È_1
  5
2F8
 10
902.819
 20
-312.904
 30
0.000000
  70
    32
  0
VERTEX
  8
┌▓È_1
  5
2F9
 10
902.834
 20
-312.908
 30
0.000000
  70
    32
  0
VERTEX
  8
┌▓È_1
  5
2FA
 10
902.848
 20
-312.911
 30
0.000000
  70
    32
  0
VERTEX
  8
┌▓È_1
  5
2FB
 10
902.862
 20
-312.915
 30
0.000000
  70
    32
  0
VERTEX
  8
┌▓È_1
  5
2FC
 10
902.876
 20
-312.918
 30
0.000000
  70
    32
  0
VERTEX
  8
┌▓È_1
  5
2FD
 10
902.891
 20
-312.922
 30
0.000000
  70
    32
  0
VERTEX
  8
┌▓È_1
  5
2FE
 10
902.905
 20
-312.925
 30
0.000000
  70
    32
  0
VERTEX
  8
┌▓È_1
  5
2FF
 10
902.919
 20
-312.929
 30
0.000000
  70
    32
  0
VERTEX
  8
┌▓È_1
  5
300
 10
902.933
 20
-312.932
 30
0.000000
  70
    32
  0
VERTEX
  8
┌▓È_1
  5
301
 10
902.948
 20
-312.936
 30
0.000000
  70
    32
  0
VERTEX
  8
┌▓È_1
  5
302
 10
902.962
 20
-312.939
 30
0.000000
  70
    32
  0
VERTEX
  8
┌▓È_1
  5
303
 10
902.976
 20
-312.942
 30
0.000000
  70
    32
  0
VERTEX
  8
┌▓È_1
  5
304
 10
902.991
 20
-312.946
 30
0.000000
  70
    32
  0
VERTEX
  8
┌▓È_1
  5
305
 10
903.005
 20
-312.949
 30
0.000000
  70
    32
  0
VERTEX
  8
┌▓È_1
  5
306
 10
903.020
 20
-312.952
 30
0.000000
  70
    32
  0
VERTEX
  8
┌▓È_1
  5
307
 10
903.034
 20
-312.956
 30
0.000000
  70
    32
  0
VERTEX
  8
┌▓È_1
  5
308
 10
903.048
 20
-312.959
 30
0.000000
  70
    32
  0
VERTEX
  8
┌▓È_1
  5
309
 10
903.063
 20
-312.962
 30
0.000000
  70
    32
  0
VERTEX
  8
┌▓È_1
  5
30A
 10
903.077
 20
-312.966
 30
0.000000
  70
    32
  0
VERTEX
  8
┌▓È_1
  5
30B
 10
903.092
 20
-312.969
 30
0.000000
  70
    32
  0
VERTEX
  8
┌▓È_1
  5
30C
 10
903.106
 20
-312.972
 30
0.000000
  70
    32
  0
VERTEX
  8
┌▓È_1
  5
30D
 10
903.120
 20
-312.975
 30
0.000000
  70
    32
  0
VERTEX
  8
┌▓È_1
  5
30E
 10
903.135
 20
-312.979
 30
0.000000
  70
    32
  0
VERTEX
  8
┌▓È_1
  5
30F
 10
903.149
 20
-312.982
 30
0.000000
  70
    32
  0
VERTEX
  8
┌▓È_1
  5
310
 10
903.164
 20
-312.985
 30
0.000000
  70
    32
  0
VERTEX
  8
┌▓È_1
  5
311
 10
903.178
 20
-312.988
 30
0.000000
  70
    32
  0
VERTEX
  8
┌▓È_1
  5
312
 10
903.193
 20
-312.991
 30
0.000000
  70
    32
  0
VERTEX
  8
┌▓È_1
  5
313
 10
903.207
 20
-312.994
 30
0.000000
  70
    32
  0
VERTEX
  8
┌▓È_1
  5
314
 10
903.222
 20
-312.997
 30
0.000000
  70
    32
  0
VERTEX
  8
┌▓È_1
  5
315
 10
903.236
 20
-313.001
 30
0.000000
  70
    32
  0
VERTEX
  8
┌▓È_1
  5
316
 10
903.251
 20
-313.004
 30
0.000000
  70
    32
  0
VERTEX
  8
┌▓È_1
  5
317
 10
903.265
 20
-313.007
 30
0.000000
  70
    32
  0
VERTEX
  8
┌▓È_1
  5
318
 10
903.280
 20
-313.010
 30
0.000000
  70
    32
  0
VERTEX
  8
┌▓È_1
  5
319
 10
903.295
 20
-313.013
 30
0.000000
  70
    32
  0
VERTEX
  8
┌▓È_1
  5
31A
 10
903.309
 20
-313.016
 30
0.000000
  70
    32
  0
VERTEX
  8
┌▓È_1
  5
31B
 10
903.324
 20
-313.019
 30
0.000000
  70
    32
  0
VERTEX
  8
┌▓È_1
  5
31C
 10
903.338
 20
-313.022
 30
0.000000
  70
    32
  0
VERTEX
  8
┌▓È_1
  5
31D
 10
903.353
 20
-313.025
 30
0.000000
  70
    32
  0
VERTEX
  8
┌▓È_1
  5
31E
 10
903.367
 20
-313.028
 30
0.000000
  70
    32
  0
VERTEX
  8
┌▓È_1
  5
31F
 10
903.382
 20
-313.031
 30
0.000000
  70
    32
  0
VERTEX
  8
┌▓È_1
  5
320
 10
903.397
 20
-313.034
 30
0.000000
  70
    32
  0
VERTEX
  8
┌▓È_1
  5
321
 10
903.411
 20
-313.037
 30
0.000000
  70
    32
  0
VERTEX
  8
┌▓È_1
  5
322
 10
903.426
 20
-313.040
 30
0.000000
  70
    32
  0
VERTEX
  8
┌▓È_1
  5
323
 10
903.441
 20
-313.043
 30
0.000000
  70
    32
  0
VERTEX
  8
┌▓È_1
  5
324
 10
903.455
 20
-313.045
 30
0.000000
  70
    32
  0
VERTEX
  8
┌▓È_1
  5
325
 10
903.470
 20
-313.048
 30
0.000000
  70
    32
  0
VERTEX
  8
┌▓È_1
  5
326
 10
903.485
 20
-313.051
 30
0.000000
  70
    32
  0
VERTEX
  8
┌▓È_1
  5
327
 10
903.499
 20
-313.054
 30
0.000000
  70
    32
  0
VERTEX
  8
┌▓È_1
  5
328
 10
903.514
 20
-313.057
 30
0.000000
  70
    32
  0
VERTEX
  8
┌▓È_1
  5
329
 10
903.529
 20
-313.060
 30
0.000000
  70
    32
  0
VERTEX
  8
┌▓È_1
  5
32A
 10
903.543
 20
-313.063
 30
0.000000
  70
    32
  0
VERTEX
  8
┌▓È_1
  5
32B
 10
903.558
 20
-313.065
 30
0.000000
  70
    32
  0
VERTEX
  8
┌▓È_1
  5
32C
 10
903.573
 20
-313.068
 30
0.000000
  70
    32
  0
VERTEX
  8
┌▓È_1
  5
32D
 10
903.587
 20
-313.071
 30
0.000000
  70
    32
  0
VERTEX
  8
┌▓È_1
  5
32E
 10
903.602
 20
-313.074
 30
0.000000
  70
    32
  0
VERTEX
  8
┌▓È_1
  5
32F
 10
903.617
 20
-313.077
 30
0.000000
  70
    32
  0
VERTEX
  8
┌▓È_1
  5
330
 10
903.632
 20
-313.079
 30
0.000000
  70
    32
  0
VERTEX
  8
┌▓È_1
  5
331
 10
903.646
 20
-313.082
 30
0.000000
  70
    32
  0
VERTEX
  8
┌▓È_1
  5
332
 10
903.661
 20
-313.085
 30
0.000000
  70
    32
  0
VERTEX
  8
┌▓È_1
  5
333
 10
903.676
 20
-313.088
 30
0.000000
  70
    32
  0
VERTEX
  8
┌▓È_1
  5
334
 10
903.690
 20
-313.090
 30
0.000000
  70
    32
  0
VERTEX
  8
┌▓È_1
  5
335
 10
903.705
 20
-313.093
 30
0.000000
  70
    32
  0
VERTEX
  8
┌▓È_1
  5
336
 10
903.720
 20
-313.096
 30
0.000000
  70
    32
  0
VERTEX
  8
┌▓È_1
  5
337
 10
903.735
 20
-313.099
 30
0.000000
  70
    32
  0
VERTEX
  8
┌▓È_1
  5
338
 10
903.750
 20
-313.101
 30
0.000000
  70
    32
  0
VERTEX
  8
┌▓È_1
  5
339
 10
903.764
 20
-313.104
 30
0.000000
  70
    32
  0
VERTEX
  8
┌▓È_1
  5
33A
 10
903.779
 20
-313.107
 30
0.000000
  70
    32
  0
VERTEX
  8
┌▓È_1
  5
33B
 10
903.794
 20
-313.109
 30
0.000000
  70
    32
  0
VERTEX
  8
┌▓È_1
  5
33C
 10
903.809
 20
-313.112
 30
0.000000
  70
    32
  0
VERTEX
  8
┌▓È_1
  5
33D
 10
903.823
 20
-313.115
 30
0.000000
  70
    32
  0
VERTEX
  8
┌▓È_1
  5
33E
 10
903.838
 20
-313.117
 30
0.000000
  70
    32
  0
VERTEX
  8
┌▓È_1
  5
33F
 10
903.853
 20
-313.120
 30
0.000000
  70
    32
  0
VERTEX
  8
┌▓È_1
  5
340
 10
903.868
 20
-313.123
 30
0.000000
  70
    32
  0
VERTEX
  8
┌▓È_1
  5
341
 10
903.883
 20
-313.125
 30
0.000000
  70
    32
  0
VERTEX
  8
┌▓È_1
  5
342
 10
903.897
 20
-313.128
 30
0.000000
  70
    32
  0
VERTEX
  8
┌▓È_1
  5
343
 10
903.912
 20
-313.131
 30
0.000000
  70
    32
  0
VERTEX
  8
┌▓È_1
  5
344
 10
903.927
 20
-313.133
 30
0.000000
  70
    32
  0
VERTEX
  8
┌▓È_1
  5
345
 10
903.942
 20
-313.136
 30
0.000000
  70
    32
  0
VERTEX
  8
┌▓È_1
  5
346
 10
903.957
 20
-313.138
 30
0.000000
  70
    32
  0
VERTEX
  8
┌▓È_1
  5
347
 10
903.972
 20
-313.141
 30
0.000000
  70
    32
  0
VERTEX
  8
┌▓È_1
  5
348
 10
903.986
 20
-313.144
 30
0.000000
  70
    32
  0
VERTEX
  8
┌▓È_1
  5
349
 10
904.001
 20
-313.146
 30
0.000000
  70
    32
  0
VERTEX
  8
┌▓È_1
  5
34A
 10
904.016
 20
-313.149
 30
0.000000
  70
    32
  0
VERTEX
  8
┌▓È_1
  5
34B
 10
904.031
 20
-313.151
 30
0.000000
  70
    32
  0
VERTEX
  8
┌▓È_1
  5
34C
 10
904.046
 20
-313.154
 30
0.000000
  70
    32
  0
VERTEX
  8
┌▓È_1
  5
34D
 10
904.061
 20
-313.156
 30
0.000000
  70
    32
  0
VERTEX
  8
┌▓È_1
  5
34E
 10
904.076
 20
-313.159
 30
0.000000
  70
    32
  0
VERTEX
  8
┌▓È_1
  5
34F
 10
904.090
 20
-313.162
 30
0.000000
  70
    32
  0
VERTEX
  8
┌▓È_1
  5
350
 10
904.105
 20
-313.164
 30
0.000000
  70
    32
  0
VERTEX
  8
┌▓È_1
  5
351
 10
904.120
 20
-313.167
 30
0.000000
  70
    32
  0
VERTEX
  8
┌▓È_1
  5
352
 10
904.135
 20
-313.169
 30
0.000000
  70
    32
  0
VERTEX
  8
┌▓È_1
  5
353
 10
904.150
 20
-313.172
 30
0.000000
  70
    32
  0
VERTEX
  8
┌▓È_1
  5
354
 10
904.165
 20
-313.174
 30
0.000000
  70
    32
  0
VERTEX
  8
┌▓È_1
  5
355
 10
904.180
 20
-313.177
 30
0.000000
  70
    32
  0
VERTEX
  8
┌▓È_1
  5
356
 10
904.195
 20
-313.179
 30
0.000000
  70
    32
  0
VERTEX
  8
┌▓È_1
  5
357
 10
904.209
 20
-313.182
 30
0.000000
  70
    32
  0
VERTEX
  8
┌▓È_1
  5
358
 10
904.224
 20
-313.184
 30
0.000000
  70
    32
  0
VERTEX
  8
┌▓È_1
  5
359
 10
904.239
 20
-313.187
 30
0.000000
  70
    32
  0
VERTEX
  8
┌▓È_1
  5
35A
 10
904.254
 20
-313.190
 30
0.000000
  70
    32
  0
VERTEX
  8
┌▓È_1
  5
35B
 10
904.269
 20
-313.192
 30
0.000000
  70
    32
  0
VERTEX
  8
┌▓È_1
  5
35C
 10
904.284
 20
-313.195
 30
0.000000
  70
    32
  0
VERTEX
  8
┌▓È_1
  5
35D
 10
904.299
 20
-313.197
 30
0.000000
  70
    32
  0
VERTEX
  8
┌▓È_1
  5
35E
 10
904.314
 20
-313.200
 30
0.000000
  70
    32
  0
VERTEX
  8
┌▓È_1
  5
35F
 10
904.328
 20
-313.202
 30
0.000000
  70
    32
  0
VERTEX
  8
┌▓È_1
  5
360
 10
904.343
 20
-313.205
 30
0.000000
  70
    32
  0
VERTEX
  8
┌▓È_1
  5
361
 10
904.358
 20
-313.207
 30
0.000000
  70
    32
  0
VERTEX
  8
┌▓È_1
  5
362
 10
904.373
 20
-313.210
 30
0.000000
  70
    32
  0
VERTEX
  8
┌▓È_1
  5
363
 10
904.388
 20
-313.212
 30
0.000000
  70
    32
  0
VERTEX
  8
┌▓È_1
  5
364
 10
904.403
 20
-313.215
 30
0.000000
  70
    32
  0
VERTEX
  8
┌▓È_1
  5
365
 10
904.418
 20
-313.217
 30
0.000000
  70
    32
  0
SEQEND
  8
┌▓È_1
  5
366
  0
POLYLINE
  8
┌▓È_1
  5
367
  62
5
  66
     1
 10
0.000000
 20
0.000000
 30
0.000000
  70
     8
  0
VERTEX
  8
┌▓È_1
  5
368
 10
897.218
 20
-310.933
 30
0.000000
  70
    32
  0
VERTEX
  8
┌▓È_1
  5
369
 10
897.232
 20
-310.946
 30
0.000000
  70
    32
  0
VERTEX
  8
┌▓È_1
  5
36A
 10
897.247
 20
-310.959
 30
0.000000
  70
    32
  0
VERTEX
  8
┌▓È_1
  5
36B
 10
897.261
 20
-310.972
 30
0.000000
  70
    32
  0
VERTEX
  8
┌▓È_1
  5
36C
 10
897.275
 20
-310.986
 30
0.000000
  70
    32
  0
VERTEX
  8
┌▓È_1
  5
36D
 10
897.290
 20
-310.999
 30
0.000000
  70
    32
  0
VERTEX
  8
┌▓È_1
  5
36E
 10
897.304
 20
-311.012
 30
0.000000
  70
    32
  0
VERTEX
  8
┌▓È_1
  5
36F
 10
897.319
 20
-311.026
 30
0.000000
  70
    32
  0
VERTEX
  8
┌▓È_1
  5
370
 10
897.333
 20
-311.039
 30
0.000000
  70
    32
  0
VERTEX
  8
┌▓È_1
  5
371
 10
897.347
 20
-311.052
 30
0.000000
  70
    32
  0
VERTEX
  8
┌▓È_1
  5
372
 10
897.362
 20
-311.065
 30
0.000000
  70
    32
  0
VERTEX
  8
┌▓È_1
  5
373
 10
897.376
 20
-311.079
 30
0.000000
  70
    32
  0
VERTEX
  8
┌▓È_1
  5
374
 10
897.391
 20
-311.092
 30
0.000000
  70
    32
  0
VERTEX
  8
┌▓È_1
  5
375
 10
897.405
 20
-311.105
 30
0.000000
  70
    32
  0
VERTEX
  8
┌▓È_1
  5
376
 10
897.420
 20
-311.118
 30
0.000000
  70
    32
  0
VERTEX
  8
┌▓È_1
  5
377
 10
897.434
 20
-311.132
 30
0.000000
  70
    32
  0
VERTEX
  8
┌▓È_1
  5
378
 10
897.448
 20
-311.145
 30
0.000000
  70
    32
  0
VERTEX
  8
┌▓È_1
  5
379
 10
897.463
 20
-311.158
 30
0.000000
  70
    32
  0
VERTEX
  8
┌▓È_1
  5
37A
 10
897.477
 20
-311.171
 30
0.000000
  70
    32
  0
VERTEX
  8
┌▓È_1
  5
37B
 10
897.492
 20
-311.185
 30
0.000000
  70
    32
  0
VERTEX
  8
┌▓È_1
  5
37C
 10
897.506
 20
-311.198
 30
0.000000
  70
    32
  0
VERTEX
  8
┌▓È_1
  5
37D
 10
897.521
 20
-311.211
 30
0.000000
  70
    32
  0
VERTEX
  8
┌▓È_1
  5
37E
 10
897.535
 20
-311.224
 30
0.000000
  70
    32
  0
VERTEX
  8
┌▓È_1
  5
37F
 10
897.549
 20
-311.238
 30
0.000000
  70
    32
  0
VERTEX
  8
┌▓È_1
  5
380
 10
897.564
 20
-311.251
 30
0.000000
  70
    32
  0
VERTEX
  8
┌▓È_1
  5
381
 10
897.578
 20
-311.264
 30
0.000000
  70
    32
  0
VERTEX
  8
┌▓È_1
  5
382
 10
897.593
 20
-311.277
 30
0.000000
  70
    32
  0
VERTEX
  8
┌▓È_1
  5
383
 10
897.607
 20
-311.290
 30
0.000000
  70
    32
  0
VERTEX
  8
┌▓È_1
  5
384
 10
897.622
 20
-311.303
 30
0.000000
  70
    32
  0
VERTEX
  8
┌▓È_1
  5
385
 10
897.636
 20
-311.317
 30
0.000000
  70
    32
  0
VERTEX
  8
┌▓È_1
  5
386
 10
897.651
 20
-311.330
 30
0.000000
  70
    32
  0
VERTEX
  8
┌▓È_1
  5
387
 10
897.665
 20
-311.343
 30
0.000000
  70
    32
  0
VERTEX
  8
┌▓È_1
  5
388
 10
897.680
 20
-311.356
 30
0.000000
  70
    32
  0
VERTEX
  8
┌▓È_1
  5
389
 10
897.694
 20
-311.369
 30
0.000000
  70
    32
  0
VERTEX
  8
┌▓È_1
  5
38A
 10
897.709
 20
-311.382
 30
0.000000
  70
    32
  0
VERTEX
  8
┌▓È_1
  5
38B
 10
897.723
 20
-311.395
 30
0.000000
  70
    32
  0
VERTEX
  8
┌▓È_1
  5
38C
 10
897.738
 20
-311.409
 30
0.000000
  70
    32
  0
VERTEX
  8
┌▓È_1
  5
38D
 10
897.752
 20
-311.422
 30
0.000000
  70
    32
  0
VERTEX
  8
┌▓È_1
  5
38E
 10
897.767
 20
-311.435
 30
0.000000
  70
    32
  0
VERTEX
  8
┌▓È_1
  5
38F
 10
897.781
 20
-311.448
 30
0.000000
  70
    32
  0
VERTEX
  8
┌▓È_1
  5
390
 10
897.796
 20
-311.461
 30
0.000000
  70
    32
  0
VERTEX
  8
┌▓È_1
  5
391
 10
897.810
 20
-311.474
 30
0.000000
  70
    32
  0
VERTEX
  8
┌▓È_1
  5
392
 10
897.825
 20
-311.487
 30
0.000000
  70
    32
  0
VERTEX
  8
┌▓È_1
  5
393
 10
897.839
 20
-311.500
 30
0.000000
  70
    32
  0
VERTEX
  8
┌▓È_1
  5
394
 10
897.854
 20
-311.513
 30
0.000000
  70
    32
  0
VERTEX
  8
┌▓È_1
  5
395
 10
897.868
 20
-311.526
 30
0.000000
  70
    32
  0
VERTEX
  8
┌▓È_1
  5
396
 10
897.883
 20
-311.539
 30
0.000000
  70
    32
  0
VERTEX
  8
┌▓È_1
  5
397
 10
897.898
 20
-311.552
 30
0.000000
  70
    32
  0
VERTEX
  8
┌▓È_1
  5
398
 10
897.912
 20
-311.565
 30
0.000000
  70
    32
  0
VERTEX
  8
┌▓È_1
  5
399
 10
897.927
 20
-311.578
 30
0.000000
  70
    32
  0
VERTEX
  8
┌▓È_1
  5
39A
 10
897.941
 20
-311.591
 30
0.000000
  70
    32
  0
VERTEX
  8
┌▓È_1
  5
39B
 10
897.956
 20
-311.604
 30
0.000000
  70
    32
  0
VERTEX
  8
┌▓È_1
  5
39C
 10
897.971
 20
-311.617
 30
0.000000
  70
    32
  0
VERTEX
  8
┌▓È_1
  5
39D
 10
897.985
 20
-311.630
 30
0.000000
  70
    32
  0
VERTEX
  8
┌▓È_1
  5
39E
 10
898.000
 20
-311.643
 30
0.000000
  70
    32
  0
VERTEX
  8
┌▓È_1
  5
39F
 10
898.014
 20
-311.655
 30
0.000000
  70
    32
  0
VERTEX
  8
┌▓È_1
  5
3A0
 10
898.029
 20
-311.668
 30
0.000000
  70
    32
  0
VERTEX
  8
┌▓È_1
  5
3A1
 10
898.044
 20
-311.681
 30
0.000000
  70
    32
  0
VERTEX
  8
┌▓È_1
  5
3A2
 10
898.058
 20
-311.694
 30
0.000000
  70
    32
  0
VERTEX
  8
┌▓È_1
  5
3A3
 10
898.073
 20
-311.707
 30
0.000000
  70
    32
  0
VERTEX
  8
┌▓È_1
  5
3A4
 10
898.088
 20
-311.720
 30
0.000000
  70
    32
  0
VERTEX
  8
┌▓È_1
  5
3A5
 10
898.102
 20
-311.732
 30
0.000000
  70
    32
  0
VERTEX
  8
┌▓È_1
  5
3A6
 10
898.117
 20
-311.745
 30
0.000000
  70
    32
  0
VERTEX
  8
┌▓È_1
  5
3A7
 10
898.132
 20
-311.758
 30
0.000000
  70
    32
  0
VERTEX
  8
┌▓È_1
  5
3A8
 10
898.146
 20
-311.771
 30
0.000000
  70
    32
  0
VERTEX
  8
┌▓È_1
  5
3A9
 10
898.161
 20
-311.783
 30
0.000000
  70
    32
  0
VERTEX
  8
┌▓È_1
  5
3AA
 10
898.176
 20
-311.796
 30
0.000000
  70
    32
  0
VERTEX
  8
┌▓È_1
  5
3AB
 10
898.191
 20
-311.809
 30
0.000000
  70
    32
  0
VERTEX
  8
┌▓È_1
  5
3AC
 10
898.205
 20
-311.821
 30
0.000000
  70
    32
  0
VERTEX
  8
┌▓È_1
  5
3AD
 10
898.220
 20
-311.834
 30
0.000000
  70
    32
  0
VERTEX
  8
┌▓È_1
  5
3AE
 10
898.235
 20
-311.847
 30
0.000000
  70
    32
  0
VERTEX
  8
┌▓È_1
  5
3AF
 10
898.250
 20
-311.859
 30
0.000000
  70
    32
  0
VERTEX
  8
┌▓È_1
  5
3B0
 10
898.265
 20
-311.872
 30
0.000000
  70
    32
  0
VERTEX
  8
┌▓È_1
  5
3B1
 10
898.279
 20
-311.884
 30
0.000000
  70
    32
  0
VERTEX
  8
┌▓È_1
  5
3B2
 10
898.294
 20
-311.897
 30
0.000000
  70
    32
  0
VERTEX
  8
┌▓È_1
  5
3B3
 10
898.309
 20
-311.909
 30
0.000000
  70
    32
  0
VERTEX
  8
┌▓È_1
  5
3B4
 10
898.324
 20
-311.922
 30
0.000000
  70
    32
  0
VERTEX
  8
┌▓È_1
  5
3B5
 10
898.339
 20
-311.934
 30
0.000000
  70
    32
  0
VERTEX
  8
┌▓È_1
  5
3B6
 10
898.353
 20
-311.947
 30
0.000000
  70
    32
  0
VERTEX
  8
┌▓È_1
  5
3B7
 10
898.368
 20
-311.959
 30
0.000000
  70
    32
  0
VERTEX
  8
┌▓È_1
  5
3B8
 10
898.383
 20
-311.972
 30
0.000000
  70
    32
  0
VERTEX
  8
┌▓È_1
  5
3B9
 10
898.398
 20
-311.984
 30
0.000000
  70
    32
  0
VERTEX
  8
┌▓È_1
  5
3BA
 10
898.413
 20
-311.996
 30
0.000000
  70
    32
  0
VERTEX
  8
┌▓È_1
  5
3BB
 10
898.428
 20
-312.009
 30
0.000000
  70
    32
  0
VERTEX
  8
┌▓È_1
  5
3BC
 10
898.443
 20
-312.021
 30
0.000000
  70
    32
  0
VERTEX
  8
┌▓È_1
  5
3BD
 10
898.458
 20
-312.033
 30
0.000000
  70
    32
  0
VERTEX
  8
┌▓È_1
  5
3BE
 10
898.473
 20
-312.046
 30
0.000000
  70
    32
  0
VERTEX
  8
┌▓È_1
  5
3BF
 10
898.488
 20
-312.058
 30
0.000000
  70
    32
  0
VERTEX
  8
┌▓È_1
  5
3C0
 10
898.503
 20
-312.070
 30
0.000000
  70
    32
  0
VERTEX
  8
┌▓È_1
  5
3C1
 10
898.518
 20
-312.082
 30
0.000000
  70
    32
  0
VERTEX
  8
┌▓È_1
  5
3C2
 10
898.533
 20
-312.094
 30
0.000000
  70
    32
  0
VERTEX
  8
┌▓È_1
  5
3C3
 10
898.548
 20
-312.107
 30
0.000000
  70
    32
  0
VERTEX
  8
┌▓È_1
  5
3C4
 10
898.563
 20
-312.119
 30
0.000000
  70
    32
  0
VERTEX
  8
┌▓È_1
  5
3C5
 10
898.578
 20
-312.131
 30
0.000000
  70
    32
  0
VERTEX
  8
┌▓È_1
  5
3C6
 10
898.593
 20
-312.143
 30
0.000000
  70
    32
  0
VERTEX
  8
┌▓È_1
  5
3C7
 10
898.608
 20
-312.155
 30
0.000000
  70
    32
  0
VERTEX
  8
┌▓È_1
  5
3C8
 10
898.623
 20
-312.167
 30
0.000000
  70
    32
  0
VERTEX
  8
┌▓È_1
  5
3C9
 10
898.638
 20
-312.179
 30
0.000000
  70
    32
  0
VERTEX
  8
┌▓È_1
  5
3CA
 10
898.653
 20
-312.191
 30
0.000000
  70
    32
  0
VERTEX
  8
┌▓È_1
  5
3CB
 10
898.668
 20
-312.203
 30
0.000000
  70
    32
  0
VERTEX
  8
┌▓È_1
  5
3CC
 10
898.684
 20
-312.215
 30
0.000000
  70
    32
  0
VERTEX
  8
┌▓È_1
  5
3CD
 10
898.699
 20
-312.227
 30
0.000000
  70
    32
  0
VERTEX
  8
┌▓È_1
  5
3CE
 10
898.714
 20
-312.238
 30
0.000000
  70
    32
  0
VERTEX
  8
┌▓È_1
  5
3CF
 10
898.729
 20
-312.250
 30
0.000000
  70
    32
  0
VERTEX
  8
┌▓È_1
  5
3D0
 10
898.744
 20
-312.262
 30
0.000000
  70
    32
  0
VERTEX
  8
┌▓È_1
  5
3D1
 10
898.760
 20
-312.274
 30
0.000000
  70
    32
  0
VERTEX
  8
┌▓È_1
  5
3D2
 10
898.775
 20
-312.286
 30
0.000000
  70
    32
  0
VERTEX
  8
┌▓È_1
  5
3D3
 10
898.790
 20
-312.297
 30
0.000000
  70
    32
  0
VERTEX
  8
┌▓È_1
  5
3D4
 10
898.805
 20
-312.309
 30
0.000000
  70
    32
  0
VERTEX
  8
┌▓È_1
  5
3D5
 10
898.821
 20
-312.321
 30
0.000000
  70
    32
  0
VERTEX
  8
┌▓È_1
  5
3D6
 10
898.836
 20
-312.332
 30
0.000000
  70
    32
  0
VERTEX
  8
┌▓È_1
  5
3D7
 10
898.851
 20
-312.344
 30
0.000000
  70
    32
  0
VERTEX
  8
┌▓È_1
  5
3D8
 10
898.867
 20
-312.355
 30
0.000000
  70
    32
  0
VERTEX
  8
┌▓È_1
  5
3D9
 10
898.882
 20
-312.367
 30
0.000000
  70
    32
  0
VERTEX
  8
┌▓È_1
  5
3DA
 10
898.897
 20
-312.378
 30
0.000000
  70
    32
  0
VERTEX
  8
┌▓È_1
  5
3DB
 10
898.913
 20
-312.390
 30
0.000000
  70
    32
  0
VERTEX
  8
┌▓È_1
  5
3DC
 10
898.928
 20
-312.401
 30
0.000000
  70
    32
  0
VERTEX
  8
┌▓È_1
  5
3DD
 10
898.944
 20
-312.413
 30
0.000000
  70
    32
  0
VERTEX
  8
┌▓È_1
  5
3DE
 10
898.959
 20
-312.424
 30
0.000000
  70
    32
  0
VERTEX
  8
┌▓È_1
  5
3DF
 10
898.974
 20
-312.436
 30
0.000000
  70
    32
  0
VERTEX
  8
┌▓È_1
  5
3E0
 10
898.990
 20
-312.447
 30
0.000000
  70
    32
  0
VERTEX
  8
┌▓È_1
  5
3E1
 10
899.005
 20
-312.458
 30
0.000000
  70
    32
  0
VERTEX
  8
┌▓È_1
  5
3E2
 10
899.021
 20
-312.469
 30
0.000000
  70
    32
  0
VERTEX
  8
┌▓È_1
  5
3E3
 10
899.036
 20
-312.481
 30
0.000000
  70
    32
  0
VERTEX
  8
┌▓È_1
  5
3E4
 10
899.052
 20
-312.492
 30
0.000000
  70
    32
  0
VERTEX
  8
┌▓È_1
  5
3E5
 10
899.068
 20
-312.503
 30
0.000000
  70
    32
  0
VERTEX
  8
┌▓È_1
  5
3E6
 10
899.083
 20
-312.514
 30
0.000000
  70
    32
  0
VERTEX
  8
┌▓È_1
  5
3E7
 10
899.099
 20
-312.525
 30
0.000000
  70
    32
  0
VERTEX
  8
┌▓È_1
  5
3E8
 10
899.114
 20
-312.536
 30
0.000000
  70
    32
  0
VERTEX
  8
┌▓È_1
  5
3E9
 10
899.130
 20
-312.547
 30
0.000000
  70
    32
  0
VERTEX
  8
┌▓È_1
  5
3EA
 10
899.146
 20
-312.558
 30
0.000000
  70
    32
  0
VERTEX
  8
┌▓È_1
  5
3EB
 10
899.161
 20
-312.569
 30
0.000000
  70
    32
  0
VERTEX
  8
┌▓È_1
  5
3EC
 10
899.177
 20
-312.580
 30
0.000000
  70
    32
  0
VERTEX
  8
┌▓È_1
  5
3ED
 10
899.193
 20
-312.591
 30
0.000000
  70
    32
  0
VERTEX
  8
┌▓È_1
  5
3EE
 10
899.209
 20
-312.602
 30
0.000000
  70
    32
  0
VERTEX
  8
┌▓È_1
  5
3EF
 10
899.224
 20
-312.612
 30
0.000000
  70
    32
  0
VERTEX
  8
┌▓È_1
  5
3F0
 10
899.240
 20
-312.623
 30
0.000000
  70
    32
  0
VERTEX
  8
┌▓È_1
  5
3F1
 10
899.256
 20
-312.634
 30
0.000000
  70
    32
  0
VERTEX
  8
┌▓È_1
  5
3F2
 10
899.272
 20
-312.644
 30
0.000000
  70
    32
  0
VERTEX
  8
┌▓È_1
  5
3F3
 10
899.288
 20
-312.655
 30
0.000000
  70
    32
  0
VERTEX
  8
┌▓È_1
  5
3F4
 10
899.303
 20
-312.666
 30
0.000000
  70
    32
  0
VERTEX
  8
┌▓È_1
  5
3F5
 10
899.319
 20
-312.676
 30
0.000000
  70
    32
  0
VERTEX
  8
┌▓È_1
  5
3F6
 10
899.335
 20
-312.687
 30
0.000000
  70
    32
  0
VERTEX
  8
┌▓È_1
  5
3F7
 10
899.351
 20
-312.697
 30
0.000000
  70
    32
  0
VERTEX
  8
┌▓È_1
  5
3F8
 10
899.367
 20
-312.708
 30
0.000000
  70
    32
  0
VERTEX
  8
┌▓È_1
  5
3F9
 10
899.383
 20
-312.718
 30
0.000000
  70
    32
  0
VERTEX
  8
┌▓È_1
  5
3FA
 10
899.399
 20
-312.728
 30
0.000000
  70
    32
  0
VERTEX
  8
┌▓È_1
  5
3FB
 10
899.415
 20
-312.739
 30
0.000000
  70
    32
  0
VERTEX
  8
┌▓È_1
  5
3FC
 10
899.431
 20
-312.749
 30
0.000000
  70
    32
  0
VERTEX
  8
┌▓È_1
  5
3FD
 10
899.447
 20
-312.759
 30
0.000000
  70
    32
  0
VERTEX
  8
┌▓È_1
  5
3FE
 10
899.463
 20
-312.769
 30
0.000000
  70
    32
  0
VERTEX
  8
┌▓È_1
  5
3FF
 10
899.479
 20
-312.780
 30
0.000000
  70
    32
  0
VERTEX
  8
┌▓È_1
  5
400
 10
899.495
 20
-312.790
 30
0.000000
  70
    32
  0
VERTEX
  8
┌▓È_1
  5
401
 10
899.512
 20
-312.800
 30
0.000000
  70
    32
  0
VERTEX
  8
┌▓È_1
  5
402
 10
899.528
 20
-312.810
 30
0.000000
  70
    32
  0
VERTEX
  8
┌▓È_1
  5
403
 10
899.544
 20
-312.820
 30
0.000000
  70
    32
  0
VERTEX
  8
┌▓È_1
  5
404
 10
899.560
 20
-312.830
 30
0.000000
  70
    32
  0
VERTEX
  8
┌▓È_1
  5
405
 10
899.576
 20
-312.840
 30
0.000000
  70
    32
  0
VERTEX
  8
┌▓È_1
  5
406
 10
899.593
 20
-312.849
 30
0.000000
  70
    32
  0
VERTEX
  8
┌▓È_1
  5
407
 10
899.609
 20
-312.859
 30
0.000000
  70
    32
  0
SEQEND
  8
┌▓È_1
  5
408
  0
POLYLINE
  8
┌▓È_1
  5
409
  62
5
  66
     1
 10
0.000000
 20
0.000000
 30
0.000000
  70
     8
  0
VERTEX
  8
┌▓È_1
  5
40A
 10
901.585
 20
-313.726
 30
0.000000
  70
    32
  0
VERTEX
  8
┌▓È_1
  5
40B
 10
901.606
 20
-313.733
 30
0.000000
  70
    32
  0
VERTEX
  8
┌▓È_1
  5
40C
 10
901.628
 20
-313.740
 30
0.000000
  70
    32
  0
VERTEX
  8
┌▓È_1
  5
40D
 10
901.649
 20
-313.747
 30
0.000000
  70
    32
  0
VERTEX
  8
┌▓È_1
  5
40E
 10
901.671
 20
-313.754
 30
0.000000
  70
    32
  0
VERTEX
  8
┌▓È_1
  5
40F
 10
901.693
 20
-313.760
 30
0.000000
  70
    32
  0
VERTEX
  8
┌▓È_1
  5
410
 10
901.714
 20
-313.767
 30
0.000000
  70
    32
  0
VERTEX
  8
┌▓È_1
  5
411
 10
901.736
 20
-313.774
 30
0.000000
  70
    32
  0
VERTEX
  8
┌▓È_1
  5
412
 10
901.758
 20
-313.780
 30
0.000000
  70
    32
  0
VERTEX
  8
┌▓È_1
  5
413
 10
901.779
 20
-313.787
 30
0.000000
  70
    32
  0
VERTEX
  8
┌▓È_1
  5
414
 10
901.801
 20
-313.793
 30
0.000000
  70
    32
  0
VERTEX
  8
┌▓È_1
  5
415
 10
901.823
 20
-313.800
 30
0.000000
  70
    32
  0
VERTEX
  8
┌▓È_1
  5
416
 10
901.844
 20
-313.807
 30
0.000000
  70
    32
  0
VERTEX
  8
┌▓È_1
  5
417
 10
901.866
 20
-313.813
 30
0.000000
  70
    32
  0
VERTEX
  8
┌▓È_1
  5
418
 10
901.888
 20
-313.819
 30
0.000000
  70
    32
  0
VERTEX
  8
┌▓È_1
  5
419
 10
901.910
 20
-313.826
 30
0.000000
  70
    32
  0
VERTEX
  8
┌▓È_1
  5
41A
 10
901.931
 20
-313.832
 30
0.000000
  70
    32
  0
VERTEX
  8
┌▓È_1
  5
41B
 10
901.953
 20
-313.839
 30
0.000000
  70
    32
  0
VERTEX
  8
┌▓È_1
  5
41C
 10
901.975
 20
-313.845
 30
0.000000
  70
    32
  0
VERTEX
  8
┌▓È_1
  5
41D
 10
901.997
 20
-313.851
 30
0.000000
  70
    32
  0
VERTEX
  8
┌▓È_1
  5
41E
 10
902.019
 20
-313.857
 30
0.000000
  70
    32
  0
VERTEX
  8
┌▓È_1
  5
41F
 10
902.041
 20
-313.864
 30
0.000000
  70
    32
  0
VERTEX
  8
┌▓È_1
  5
420
 10
902.063
 20
-313.870
 30
0.000000
  70
    32
  0
VERTEX
  8
┌▓È_1
  5
421
 10
902.084
 20
-313.876
 30
0.000000
  70
    32
  0
VERTEX
  8
┌▓È_1
  5
422
 10
902.106
 20
-313.882
 30
0.000000
  70
    32
  0
VERTEX
  8
┌▓È_1
  5
423
 10
902.128
 20
-313.888
 30
0.000000
  70
    32
  0
VERTEX
  8
┌▓È_1
  5
424
 10
902.150
 20
-313.895
 30
0.000000
  70
    32
  0
VERTEX
  8
┌▓È_1
  5
425
 10
902.172
 20
-313.901
 30
0.000000
  70
    32
  0
VERTEX
  8
┌▓È_1
  5
426
 10
902.194
 20
-313.907
 30
0.000000
  70
    32
  0
VERTEX
  8
┌▓È_1
  5
427
 10
902.216
 20
-313.913
 30
0.000000
  70
    32
  0
VERTEX
  8
┌▓È_1
  5
428
 10
902.238
 20
-313.919
 30
0.000000
  70
    32
  0
VERTEX
  8
┌▓È_1
  5
429
 10
902.260
 20
-313.925
 30
0.000000
  70
    32
  0
VERTEX
  8
┌▓È_1
  5
42A
 10
902.282
 20
-313.931
 30
0.000000
  70
    32
  0
VERTEX
  8
┌▓È_1
  5
42B
 10
902.304
 20
-313.936
 30
0.000000
  70
    32
  0
VERTEX
  8
┌▓È_1
  5
42C
 10
902.326
 20
-313.942
 30
0.000000
  70
    32
  0
VERTEX
  8
┌▓È_1
  5
42D
 10
902.348
 20
-313.948
 30
0.000000
  70
    32
  0
VERTEX
  8
┌▓È_1
  5
42E
 10
902.371
 20
-313.954
 30
0.000000
  70
    32
  0
VERTEX
  8
┌▓È_1
  5
42F
 10
902.393
 20
-313.960
 30
0.000000
  70
    32
  0
VERTEX
  8
┌▓È_1
  5
430
 10
902.415
 20
-313.966
 30
0.000000
  70
    32
  0
VERTEX
  8
┌▓È_1
  5
431
 10
902.437
 20
-313.971
 30
0.000000
  70
    32
  0
VERTEX
  8
┌▓È_1
  5
432
 10
902.459
 20
-313.977
 30
0.000000
  70
    32
  0
VERTEX
  8
┌▓È_1
  5
433
 10
902.481
 20
-313.983
 30
0.000000
  70
    32
  0
VERTEX
  8
┌▓È_1
  5
434
 10
902.503
 20
-313.989
 30
0.000000
  70
    32
  0
VERTEX
  8
┌▓È_1
  5
435
 10
902.526
 20
-313.994
 30
0.000000
  70
    32
  0
VERTEX
  8
┌▓È_1
  5
436
 10
902.548
 20
-314.000
 30
0.000000
  70
    32
  0
VERTEX
  8
┌▓È_1
  5
437
 10
902.570
 20
-314.006
 30
0.000000
  70
    32
  0
VERTEX
  8
┌▓È_1
  5
438
 10
902.592
 20
-314.011
 30
0.000000
  70
    32
  0
VERTEX
  8
┌▓È_1
  5
439
 10
902.614
 20
-314.017
 30
0.000000
  70
    32
  0
VERTEX
  8
┌▓È_1
  5
43A
 10
902.637
 20
-314.022
 30
0.000000
  70
    32
  0
VERTEX
  8
┌▓È_1
  5
43B
 10
902.659
 20
-314.028
 30
0.000000
  70
    32
  0
VERTEX
  8
┌▓È_1
  5
43C
 10
902.681
 20
-314.033
 30
0.000000
  70
    32
  0
VERTEX
  8
┌▓È_1
  5
43D
 10
902.703
 20
-314.039
 30
0.000000
  70
    32
  0
VERTEX
  8
┌▓È_1
  5
43E
 10
902.726
 20
-314.044
 30
0.000000
  70
    32
  0
VERTEX
  8
┌▓È_1
  5
43F
 10
902.748
 20
-314.050
 30
0.000000
  70
    32
  0
VERTEX
  8
┌▓È_1
  5
440
 10
902.770
 20
-314.055
 30
0.000000
  70
    32
  0
VERTEX
  8
┌▓È_1
  5
441
 10
902.793
 20
-314.061
 30
0.000000
  70
    32
  0
VERTEX
  8
┌▓È_1
  5
442
 10
902.815
 20
-314.066
 30
0.000000
  70
    32
  0
VERTEX
  8
┌▓È_1
  5
443
 10
902.837
 20
-314.072
 30
0.000000
  70
    32
  0
VERTEX
  8
┌▓È_1
  5
444
 10
902.860
 20
-314.077
 30
0.000000
  70
    32
  0
VERTEX
  8
┌▓È_1
  5
445
 10
902.882
 20
-314.082
 30
0.000000
  70
    32
  0
VERTEX
  8
┌▓È_1
  5
446
 10
902.904
 20
-314.088
 30
0.000000
  70
    32
  0
VERTEX
  8
┌▓È_1
  5
447
 10
902.927
 20
-314.093
 30
0.000000
  70
    32
  0
VERTEX
  8
┌▓È_1
  5
448
 10
902.949
 20
-314.098
 30
0.000000
  70
    32
  0
VERTEX
  8
┌▓È_1
  5
449
 10
902.971
 20
-314.103
 30
0.000000
  70
    32
  0
VERTEX
  8
┌▓È_1
  5
44A
 10
902.994
 20
-314.109
 30
0.000000
  70
    32
  0
VERTEX
  8
┌▓È_1
  5
44B
 10
903.016
 20
-314.114
 30
0.000000
  70
    32
  0
VERTEX
  8
┌▓È_1
  5
44C
 10
903.039
 20
-314.119
 30
0.000000
  70
    32
  0
VERTEX
  8
┌▓È_1
  5
44D
 10
903.061
 20
-314.124
 30
0.000000
  70
    32
  0
VERTEX
  8
┌▓È_1
  5
44E
 10
903.084
 20
-314.130
 30
0.000000
  70
    32
  0
VERTEX
  8
┌▓È_1
  5
44F
 10
903.106
 20
-314.135
 30
0.000000
  70
    32
  0
VERTEX
  8
┌▓È_1
  5
450
 10
903.128
 20
-314.140
 30
0.000000
  70
    32
  0
VERTEX
  8
┌▓È_1
  5
451
 10
903.151
 20
-314.145
 30
0.000000
  70
    32
  0
VERTEX
  8
┌▓È_1
  5
452
 10
903.173
 20
-314.150
 30
0.000000
  70
    32
  0
VERTEX
  8
┌▓È_1
  5
453
 10
903.196
 20
-314.155
 30
0.000000
  70
    32
  0
VERTEX
  8
┌▓È_1
  5
454
 10
903.218
 20
-314.160
 30
0.000000
  70
    32
  0
VERTEX
  8
┌▓È_1
  5
455
 10
903.241
 20
-314.166
 30
0.000000
  70
    32
  0
VERTEX
  8
┌▓È_1
  5
456
 10
903.263
 20
-314.171
 30
0.000000
  70
    32
  0
VERTEX
  8
┌▓È_1
  5
457
 10
903.286
 20
-314.176
 30
0.000000
  70
    32
  0
VERTEX
  8
┌▓È_1
  5
458
 10
903.308
 20
-314.181
 30
0.000000
  70
    32
  0
VERTEX
  8
┌▓È_1
  5
459
 10
903.331
 20
-314.186
 30
0.000000
  70
    32
  0
VERTEX
  8
┌▓È_1
  5
45A
 10
903.354
 20
-314.191
 30
0.000000
  70
    32
  0
VERTEX
  8
┌▓È_1
  5
45B
 10
903.376
 20
-314.196
 30
0.000000
  70
    32
  0
VERTEX
  8
┌▓È_1
  5
45C
 10
903.399
 20
-314.201
 30
0.000000
  70
    32
  0
VERTEX
  8
┌▓È_1
  5
45D
 10
903.421
 20
-314.206
 30
0.000000
  70
    32
  0
VERTEX
  8
┌▓È_1
  5
45E
 10
903.444
 20
-314.211
 30
0.000000
  70
    32
  0
VERTEX
  8
┌▓È_1
  5
45F
 10
903.466
 20
-314.216
 30
0.000000
  70
    32
  0
VERTEX
  8
┌▓È_1
  5
460
 10
903.489
 20
-314.221
 30
0.000000
  70
    32
  0
VERTEX
  8
┌▓È_1
  5
461
 10
903.511
 20
-314.226
 30
0.000000
  70
    32
  0
VERTEX
  8
┌▓È_1
  5
462
 10
903.534
 20
-314.231
 30
0.000000
  70
    32
  0
VERTEX
  8
┌▓È_1
  5
463
 10
903.557
 20
-314.235
 30
0.000000
  70
    32
  0
VERTEX
  8
┌▓È_1
  5
464
 10
903.579
 20
-314.240
 30
0.000000
  70
    32
  0
VERTEX
  8
┌▓È_1
  5
465
 10
903.602
 20
-314.245
 30
0.000000
  70
    32
  0
VERTEX
  8
┌▓È_1
  5
466
 10
903.624
 20
-314.250
 30
0.000000
  70
    32
  0
VERTEX
  8
┌▓È_1
  5
467
 10
903.647
 20
-314.255
 30
0.000000
  70
    32
  0
VERTEX
  8
┌▓È_1
  5
468
 10
903.670
 20
-314.260
 30
0.000000
  70
    32
  0
VERTEX
  8
┌▓È_1
  5
469
 10
903.692
 20
-314.265
 30
0.000000
  70
    32
  0
VERTEX
  8
┌▓È_1
  5
46A
 10
903.715
 20
-314.270
 30
0.000000
  70
    32
  0
VERTEX
  8
┌▓È_1
  5
46B
 10
903.737
 20
-314.274
 30
0.000000
  70
    32
  0
VERTEX
  8
┌▓È_1
  5
46C
 10
903.760
 20
-314.279
 30
0.000000
  70
    32
  0
VERTEX
  8
┌▓È_1
  5
46D
 10
903.783
 20
-314.284
 30
0.000000
  70
    32
  0
VERTEX
  8
┌▓È_1
  5
46E
 10
903.805
 20
-314.289
 30
0.000000
  70
    32
  0
VERTEX
  8
┌▓È_1
  5
46F
 10
903.828
 20
-314.294
 30
0.000000
  70
    32
  0
VERTEX
  8
┌▓È_1
  5
470
 10
903.851
 20
-314.299
 30
0.000000
  70
    32
  0
VERTEX
  8
┌▓È_1
  5
471
 10
903.873
 20
-314.303
 30
0.000000
  70
    32
  0
VERTEX
  8
┌▓È_1
  5
472
 10
903.896
 20
-314.308
 30
0.000000
  70
    32
  0
VERTEX
  8
┌▓È_1
  5
473
 10
903.919
 20
-314.313
 30
0.000000
  70
    32
  0
VERTEX
  8
┌▓È_1
  5
474
 10
903.941
 20
-314.318
 30
0.000000
  70
    32
  0
VERTEX
  8
┌▓È_1
  5
475
 10
903.964
 20
-314.322
 30
0.000000
  70
    32
  0
VERTEX
  8
┌▓È_1
  5
476
 10
903.987
 20
-314.327
 30
0.000000
  70
    32
  0
VERTEX
  8
┌▓È_1
  5
477
 10
904.009
 20
-314.332
 30
0.000000
  70
    32
  0
VERTEX
  8
┌▓È_1
  5
478
 10
904.032
 20
-314.337
 30
0.000000
  70
    32
  0
VERTEX
  8
┌▓È_1
  5
479
 10
904.055
 20
-314.342
 30
0.000000
  70
    32
  0
VERTEX
  8
┌▓È_1
  5
47A
 10
904.077
 20
-314.346
 30
0.000000
  70
    32
  0
VERTEX
  8
┌▓È_1
  5
47B
 10
904.100
 20
-314.351
 30
0.000000
  70
    32
  0
VERTEX
  8
┌▓È_1
  5
47C
 10
904.123
 20
-314.356
 30
0.000000
  70
    32
  0
VERTEX
  8
┌▓È_1
  5
47D
 10
904.145
 20
-314.361
 30
0.000000
  70
    32
  0
VERTEX
  8
┌▓È_1
  5
47E
 10
904.168
 20
-314.365
 30
0.000000
  70
    32
  0
VERTEX
  8
┌▓È_1
  5
47F
 10
904.191
 20
-314.370
 30
0.000000
  70
    32
  0
VERTEX
  8
┌▓È_1
  5
480
 10
904.214
 20
-314.375
 30
0.000000
  70
    32
  0
VERTEX
  8
┌▓È_1
  5
481
 10
904.236
 20
-314.379
 30
0.000000
  70
    32
  0
VERTEX
  8
┌▓È_1
  5
482
 10
904.259
 20
-314.384
 30
0.000000
  70
    32
  0
VERTEX
  8
┌▓È_1
  5
483
 10
904.282
 20
-314.389
 30
0.000000
  70
    32
  0
VERTEX
  8
┌▓È_1
  5
484
 10
904.304
 20
-314.394
 30
0.000000
  70
    32
  0
VERTEX
  8
┌▓È_1
  5
485
 10
904.327
 20
-314.398
 30
0.000000
  70
    32
  0
VERTEX
  8
┌▓È_1
  5
486
 10
904.350
 20
-314.403
 30
0.000000
  70
    32
  0
VERTEX
  8
┌▓È_1
  5
487
 10
904.372
 20
-314.408
 30
0.000000
  70
    32
  0
VERTEX
  8
┌▓È_1
  5
488
 10
904.395
 20
-314.412
 30
0.000000
  70
    32
  0
VERTEX
  8
┌▓È_1
  5
489
 10
904.418
 20
-314.417
 30
0.000000
  70
    32
  0
SEQEND
  8
┌▓È_1
  5
48A
  0
POLYLINE
  8
┌▓È_1
  5
48B
  62
5
  66
     1
 10
0.000000
 20
0.000000
 30
0.000000
  70
     8
  0
VERTEX
  8
┌▓È_1
  5
48C
 10
899.965
 20
-311.127
 30
0.000000
  70
    32
  0
VERTEX
  8
┌▓È_1
  5
48D
 10
899.970
 20
-311.133
 30
0.000000
  70
    32
  0
VERTEX
  8
┌▓È_1
  5
48E
 10
899.976
 20
-311.139
 30
0.000000
  70
    32
  0
VERTEX
  8
┌▓È_1
  5
48F
 10
899.981
 20
-311.145
 30
0.000000
  70
    32
  0
VERTEX
  8
┌▓È_1
  5
490
 10
899.986
 20
-311.151
 30
0.000000
  70
    32
  0
VERTEX
  8
┌▓È_1
  5
491
 10
899.992
 20
-311.157
 30
0.000000
  70
    32
  0
VERTEX
  8
┌▓È_1
  5
492
 10
899.997
 20
-311.163
 30
0.000000
  70
    32
  0
VERTEX
  8
┌▓È_1
  5
493
 10
900.002
 20
-311.169
 30
0.000000
  70
    32
  0
VERTEX
  8
┌▓È_1
  5
494
 10
900.007
 20
-311.175
 30
0.000000
  70
    32
  0
VERTEX
  8
┌▓È_1
  5
495
 10
900.013
 20
-311.180
 30
0.000000
  70
    32
  0
VERTEX
  8
┌▓È_1
  5
496
 10
900.018
 20
-311.186
 30
0.000000
  70
    32
  0
VERTEX
  8
┌▓È_1
  5
497
 10
900.023
 20
-311.192
 30
0.000000
  70
    32
  0
VERTEX
  8
┌▓È_1
  5
498
 10
900.029
 20
-311.198
 30
0.000000
  70
    32
  0
VERTEX
  8
┌▓È_1
  5
499
 10
900.034
 20
-311.204
 30
0.000000
  70
    32
  0
VERTEX
  8
┌▓È_1
  5
49A
 10
900.039
 20
-311.210
 30
0.000000
  70
    32
  0
VERTEX
  8
┌▓È_1
  5
49B
 10
900.044
 20
-311.216
 30
0.000000
  70
    32
  0
VERTEX
  8
┌▓È_1
  5
49C
 10
900.050
 20
-311.222
 30
0.000000
  70
    32
  0
VERTEX
  8
┌▓È_1
  5
49D
 10
900.055
 20
-311.227
 30
0.000000
  70
    32
  0
VERTEX
  8
┌▓È_1
  5
49E
 10
900.060
 20
-311.233
 30
0.000000
  70
    32
  0
VERTEX
  8
┌▓È_1
  5
49F
 10
900.066
 20
-311.239
 30
0.000000
  70
    32
  0
VERTEX
  8
┌▓È_1
  5
4A0
 10
900.071
 20
-311.245
 30
0.000000
  70
    32
  0
VERTEX
  8
┌▓È_1
  5
4A1
 10
900.076
 20
-311.251
 30
0.000000
  70
    32
  0
VERTEX
  8
┌▓È_1
  5
4A2
 10
900.081
 20
-311.257
 30
0.000000
  70
    32
  0
VERTEX
  8
┌▓È_1
  5
4A3
 10
900.087
 20
-311.263
 30
0.000000
  70
    32
  0
VERTEX
  8
┌▓È_1
  5
4A4
 10
900.092
 20
-311.269
 30
0.000000
  70
    32
  0
VERTEX
  8
┌▓È_1
  5
4A5
 10
900.097
 20
-311.274
 30
0.000000
  70
    32
  0
VERTEX
  8
┌▓È_1
  5
4A6
 10
900.103
 20
-311.280
 30
0.000000
  70
    32
  0
VERTEX
  8
┌▓È_1
  5
4A7
 10
900.108
 20
-311.286
 30
0.000000
  70
    32
  0
VERTEX
  8
┌▓È_1
  5
4A8
 10
900.113
 20
-311.292
 30
0.000000
  70
    32
  0
VERTEX
  8
┌▓È_1
  5
4A9
 10
900.119
 20
-311.298
 30
0.000000
  70
    32
  0
VERTEX
  8
┌▓È_1
  5
4AA
 10
900.124
 20
-311.304
 30
0.000000
  70
    32
  0
VERTEX
  8
┌▓È_1
  5
4AB
 10
900.129
 20
-311.309
 30
0.000000
  70
    32
  0
VERTEX
  8
┌▓È_1
  5
4AC
 10
900.134
 20
-311.315
 30
0.000000
  70
    32
  0
VERTEX
  8
┌▓È_1
  5
4AD
 10
900.140
 20
-311.321
 30
0.000000
  70
    32
  0
VERTEX
  8
┌▓È_1
  5
4AE
 10
900.145
 20
-311.327
 30
0.000000
  70
    32
  0
VERTEX
  8
┌▓È_1
  5
4AF
 10
900.150
 20
-311.333
 30
0.000000
  70
    32
  0
VERTEX
  8
┌▓È_1
  5
4B0
 10
900.156
 20
-311.339
 30
0.000000
  70
    32
  0
VERTEX
  8
┌▓È_1
  5
4B1
 10
900.161
 20
-311.345
 30
0.000000
  70
    32
  0
VERTEX
  8
┌▓È_1
  5
4B2
 10
900.166
 20
-311.350
 30
0.000000
  70
    32
  0
VERTEX
  8
┌▓È_1
  5
4B3
 10
900.172
 20
-311.356
 30
0.000000
  70
    32
  0
VERTEX
  8
┌▓È_1
  5
4B4
 10
900.177
 20
-311.362
 30
0.000000
  70
    32
  0
VERTEX
  8
┌▓È_1
  5
4B5
 10
900.182
 20
-311.368
 30
0.000000
  70
    32
  0
VERTEX
  8
┌▓È_1
  5
4B6
 10
900.188
 20
-311.374
 30
0.000000
  70
    32
  0
VERTEX
  8
┌▓È_1
  5
4B7
 10
900.193
 20
-311.379
 30
0.000000
  70
    32
  0
VERTEX
  8
┌▓È_1
  5
4B8
 10
900.198
 20
-311.385
 30
0.000000
  70
    32
  0
VERTEX
  8
┌▓È_1
  5
4B9
 10
900.204
 20
-311.391
 30
0.000000
  70
    32
  0
VERTEX
  8
┌▓È_1
  5
4BA
 10
900.209
 20
-311.397
 30
0.000000
  70
    32
  0
VERTEX
  8
┌▓È_1
  5
4BB
 10
900.214
 20
-311.403
 30
0.000000
  70
    32
  0
VERTEX
  8
┌▓È_1
  5
4BC
 10
900.220
 20
-311.408
 30
0.000000
  70
    32
  0
VERTEX
  8
┌▓È_1
  5
4BD
 10
900.225
 20
-311.414
 30
0.000000
  70
    32
  0
VERTEX
  8
┌▓È_1
  5
4BE
 10
900.230
 20
-311.420
 30
0.000000
  70
    32
  0
VERTEX
  8
┌▓È_1
  5
4BF
 10
900.236
 20
-311.426
 30
0.000000
  70
    32
  0
VERTEX
  8
┌▓È_1
  5
4C0
 10
900.241
 20
-311.431
 30
0.000000
  70
    32
  0
VERTEX
  8
┌▓È_1
  5
4C1
 10
900.246
 20
-311.437
 30
0.000000
  70
    32
  0
VERTEX
  8
┌▓È_1
  5
4C2
 10
900.252
 20
-311.443
 30
0.000000
  70
    32
  0
VERTEX
  8
┌▓È_1
  5
4C3
 10
900.257
 20
-311.449
 30
0.000000
  70
    32
  0
VERTEX
  8
┌▓È_1
  5
4C4
 10
900.262
 20
-311.455
 30
0.000000
  70
    32
  0
VERTEX
  8
┌▓È_1
  5
4C5
 10
900.268
 20
-311.460
 30
0.000000
  70
    32
  0
VERTEX
  8
┌▓È_1
  5
4C6
 10
900.273
 20
-311.466
 30
0.000000
  70
    32
  0
VERTEX
  8
┌▓È_1
  5
4C7
 10
900.279
 20
-311.472
 30
0.000000
  70
    32
  0
VERTEX
  8
┌▓È_1
  5
4C8
 10
900.284
 20
-311.477
 30
0.000000
  70
    32
  0
VERTEX
  8
┌▓È_1
  5
4C9
 10
900.289
 20
-311.483
 30
0.000000
  70
    32
  0
VERTEX
  8
┌▓È_1
  5
4CA
 10
900.295
 20
-311.489
 30
0.000000
  70
    32
  0
VERTEX
  8
┌▓È_1
  5
4CB
 10
900.300
 20
-311.495
 30
0.000000
  70
    32
  0
VERTEX
  8
┌▓È_1
  5
4CC
 10
900.305
 20
-311.500
 30
0.000000
  70
    32
  0
VERTEX
  8
┌▓È_1
  5
4CD
 10
900.311
 20
-311.506
 30
0.000000
  70
    32
  0
VERTEX
  8
┌▓È_1
  5
4CE
 10
900.316
 20
-311.512
 30
0.000000
  70
    32
  0
VERTEX
  8
┌▓È_1
  5
4CF
 10
900.322
 20
-311.517
 30
0.000000
  70
    32
  0
VERTEX
  8
┌▓È_1
  5
4D0
 10
900.327
 20
-311.523
 30
0.000000
  70
    32
  0
VERTEX
  8
┌▓È_1
  5
4D1
 10
900.332
 20
-311.529
 30
0.000000
  70
    32
  0
VERTEX
  8
┌▓È_1
  5
4D2
 10
900.338
 20
-311.534
 30
0.000000
  70
    32
  0
VERTEX
  8
┌▓È_1
  5
4D3
 10
900.343
 20
-311.540
 30
0.000000
  70
    32
  0
VERTEX
  8
┌▓È_1
  5
4D4
 10
900.349
 20
-311.546
 30
0.000000
  70
    32
  0
VERTEX
  8
┌▓È_1
  5
4D5
 10
900.354
 20
-311.551
 30
0.000000
  70
    32
  0
VERTEX
  8
┌▓È_1
  5
4D6
 10
900.360
 20
-311.557
 30
0.000000
  70
    32
  0
VERTEX
  8
┌▓È_1
  5
4D7
 10
900.365
 20
-311.563
 30
0.000000
  70
    32
  0
VERTEX
  8
┌▓È_1
  5
4D8
 10
900.370
 20
-311.568
 30
0.000000
  70
    32
  0
VERTEX
  8
┌▓È_1
  5
4D9
 10
900.376
 20
-311.574
 30
0.000000
  70
    32
  0
VERTEX
  8
┌▓È_1
  5
4DA
 10
900.381
 20
-311.580
 30
0.000000
  70
    32
  0
VERTEX
  8
┌▓È_1
  5
4DB
 10
900.387
 20
-311.585
 30
0.000000
  70
    32
  0
VERTEX
  8
┌▓È_1
  5
4DC
 10
900.392
 20
-311.591
 30
0.000000
  70
    32
  0
VERTEX
  8
┌▓È_1
  5
4DD
 10
900.398
 20
-311.596
 30
0.000000
  70
    32
  0
VERTEX
  8
┌▓È_1
  5
4DE
 10
900.403
 20
-311.602
 30
0.000000
  70
    32
  0
VERTEX
  8
┌▓È_1
  5
4DF
 10
900.409
 20
-311.608
 30
0.000000
  70
    32
  0
VERTEX
  8
┌▓È_1
  5
4E0
 10
900.414
 20
-311.613
 30
0.000000
  70
    32
  0
VERTEX
  8
┌▓È_1
  5
4E1
 10
900.420
 20
-311.619
 30
0.000000
  70
    32
  0
VERTEX
  8
┌▓È_1
  5
4E2
 10
900.425
 20
-311.624
 30
0.000000
  70
    32
  0
VERTEX
  8
┌▓È_1
  5
4E3
 10
900.431
 20
-311.630
 30
0.000000
  70
    32
  0
VERTEX
  8
┌▓È_1
  5
4E4
 10
900.436
 20
-311.635
 30
0.000000
  70
    32
  0
VERTEX
  8
┌▓È_1
  5
4E5
 10
900.441
 20
-311.641
 30
0.000000
  70
    32
  0
VERTEX
  8
┌▓È_1
  5
4E6
 10
900.447
 20
-311.647
 30
0.000000
  70
    32
  0
VERTEX
  8
┌▓È_1
  5
4E7
 10
900.452
 20
-311.652
 30
0.000000
  70
    32
  0
VERTEX
  8
┌▓È_1
  5
4E8
 10
900.458
 20
-311.658
 30
0.000000
  70
    32
  0
VERTEX
  8
┌▓È_1
  5
4E9
 10
900.464
 20
-311.663
 30
0.000000
  70
    32
  0
VERTEX
  8
┌▓È_1
  5
4EA
 10
900.469
 20
-311.669
 30
0.000000
  70
    32
  0
VERTEX
  8
┌▓È_1
  5
4EB
 10
900.475
 20
-311.674
 30
0.000000
  70
    32
  0
VERTEX
  8
┌▓È_1
  5
4EC
 10
900.480
 20
-311.680
 30
0.000000
  70
    32
  0
VERTEX
  8
┌▓È_1
  5
4ED
 10
900.486
 20
-311.685
 30
0.000000
  70
    32
  0
VERTEX
  8
┌▓È_1
  5
4EE
 10
900.491
 20
-311.691
 30
0.000000
  70
    32
  0
VERTEX
  8
┌▓È_1
  5
4EF
 10
900.497
 20
-311.696
 30
0.000000
  70
    32
  0
VERTEX
  8
┌▓È_1
  5
4F0
 10
900.502
 20
-311.701
 30
0.000000
  70
    32
  0
VERTEX
  8
┌▓È_1
  5
4F1
 10
900.508
 20
-311.707
 30
0.000000
  70
    32
  0
VERTEX
  8
┌▓È_1
  5
4F2
 10
900.513
 20
-311.712
 30
0.000000
  70
    32
  0
VERTEX
  8
┌▓È_1
  5
4F3
 10
900.519
 20
-311.718
 30
0.000000
  70
    32
  0
VERTEX
  8
┌▓È_1
  5
4F4
 10
900.525
 20
-311.723
 30
0.000000
  70
    32
  0
VERTEX
  8
┌▓È_1
  5
4F5
 10
900.530
 20
-311.729
 30
0.000000
  70
    32
  0
VERTEX
  8
┌▓È_1
  5
4F6
 10
900.536
 20
-311.734
 30
0.000000
  70
    32
  0
VERTEX
  8
┌▓È_1
  5
4F7
 10
900.541
 20
-311.739
 30
0.000000
  70
    32
  0
VERTEX
  8
┌▓È_1
  5
4F8
 10
900.547
 20
-311.745
 30
0.000000
  70
    32
  0
VERTEX
  8
┌▓È_1
  5
4F9
 10
900.552
 20
-311.750
 30
0.000000
  70
    32
  0
VERTEX
  8
┌▓È_1
  5
4FA
 10
900.558
 20
-311.755
 30
0.000000
  70
    32
  0
VERTEX
  8
┌▓È_1
  5
4FB
 10
900.564
 20
-311.761
 30
0.000000
  70
    32
  0
VERTEX
  8
┌▓È_1
  5
4FC
 10
900.569
 20
-311.766
 30
0.000000
  70
    32
  0
VERTEX
  8
┌▓È_1
  5
4FD
 10
900.575
 20
-311.772
 30
0.000000
  70
    32
  0
VERTEX
  8
┌▓È_1
  5
4FE
 10
900.581
 20
-311.777
 30
0.000000
  70
    32
  0
VERTEX
  8
┌▓È_1
  5
4FF
 10
900.586
 20
-311.782
 30
0.000000
  70
    32
  0
VERTEX
  8
┌▓È_1
  5
500
 10
900.592
 20
-311.787
 30
0.000000
  70
    32
  0
VERTEX
  8
┌▓È_1
  5
501
 10
900.597
 20
-311.793
 30
0.000000
  70
    32
  0
VERTEX
  8
┌▓È_1
  5
502
 10
900.603
 20
-311.798
 30
0.000000
  70
    32
  0
VERTEX
  8
┌▓È_1
  5
503
 10
900.609
 20
-311.803
 30
0.000000
  70
    32
  0
VERTEX
  8
┌▓È_1
  5
504
 10
900.614
 20
-311.809
 30
0.000000
  70
    32
  0
VERTEX
  8
┌▓È_1
  5
505
 10
900.620
 20
-311.814
 30
0.000000
  70
    32
  0
VERTEX
  8
┌▓È_1
  5
506
 10
900.626
 20
-311.819
 30
0.000000
  70
    32
  0
VERTEX
  8
┌▓È_1
  5
507
 10
900.632
 20
-311.824
 30
0.000000
  70
    32
  0
VERTEX
  8
┌▓È_1
  5
508
 10
900.637
 20
-311.829
 30
0.000000
  70
    32
  0
VERTEX
  8
┌▓È_1
  5
509
 10
900.643
 20
-311.835
 30
0.000000
  70
    32
  0
VERTEX
  8
┌▓È_1
  5
50A
 10
900.649
 20
-311.840
 30
0.000000
  70
    32
  0
VERTEX
  8
┌▓È_1
  5
50B
 10
900.654
 20
-311.845
 30
0.000000
  70
    32
  0
SEQEND
  8
┌▓È_1
  5
50C
  0
LINE
  5
1A0
  8
┌▓È_1
 62
     5
 10
699.0920722203
 20
-315.94534904890003
 30
0.0
 11
699.0920722203
 21
-125.9453490489
 31
0.0
  0
LINE
  5
1A1
  8
┌▓È_1
 62
     5
 10
888.28927358630006
 20
-310.41721067539999
 30
0.0
 11
887.36839053699987
 21
-310.41721067539999
 31
0.0
  0
LINE
  5
1A2
  8
┌▓È_1
 62
     5
 10
913.39174455339992
 20
-312.25721067540002
 30
0.0
 11
913.39174455339992
 21
-313.69721067540002
 31
0.0
  0
LINE
  5
1A3
  8
┌▓È_1
 62
     5
 10
904.41775843479979
 20
-313.2172106754
 30
0.0
 11
904.41775843479979
 21
-314.41721067539999
 31
0.0
  0
LINE
  5
1A4
  8
┌▓È_1
 62
     5
 10
888.28927358630006
 20
-311.61721067539997
 30
0.0
 11
888.16839053700005
 21
-311.61721067539997
 31
0.0
  0
LINE
  5
1A5
  8
┌▓È_1
 62
     5
 10
888.28927358630006
 20
-313.2172106754
 30
0.0
 11
888.28927358630006
 21
-314.41721067539999
 31
0.0
  0
LINE
  5
1A6
  8
┌▓È_1
 62
     5
 10
911.05506675189997
 20
-312.25721067540002
 30
0.0
 11
910.87089730149978
 21
-311.61721067539997
 31
0.0
  0
LINE
  5
1A7
  8
┌▓È_1
 62
     5
 10
909.55174455339989
 20
-314.81721067540002
 30
0.0
 11
909.22321122000005
 21
-313.69721067540002
 31
0.0
  0
LINE
  5
1A8
  8
┌▓È_1
 62
     5
 10
890.68927358629992
 20
-313.2172106754
 30
0.0
 11
888.28927358630006
 21
-313.2172106754
 31
0.0
  0
LINE
  5
1A9
  8
┌▓È_1
 62
     5
 10
897.21775843479986
 20
-310.25721067540002
 30
0.0
 11
901.21775843479998
 21
-310.25721067540002
 31
0.0
  0
LINE
  5
1AA
  8
┌▓È_1
 62
     5
 10
913.39174455339992
 20
-310.17721067539998
 30
0.0
 11
913.39174455339992
 21
-311.61721067539997
 31
0.0
  0
LINE
  5
1AB
  8
┌▓È_1
 62
     5
 10
906.19174455339999
 20
-311.61721067539997
 30
0.0
 11
908.61307788670001
 21
-311.61721067539997
 31
0.0
  0
LINE
  5
1AC
  8
┌▓È_1
 62
     5
 10
906.19174455339999
 20
-312.25721067540002
 30
0.0
 11
906.19174455339999
 21
-313.69721067540002
 31
0.0
  0
LINE
  5
1AD
  8
┌▓È_1
 62
     5
 10
890.28927358630006
 20
-312.81721067540002
 30
0.0
 11
890.28927358630006
 21
-311.61721067539997
 31
0.0
  0
LINE
  5
1AE
  8
┌▓È_1
 62
     5
 10
911.46944801519999
 20
-313.69721067540002
 30
0.0
 11
913.39174455339992
 21
-313.69721067540002
 31
0.0
  0
LINE
  5
1AF
  8
┌▓È_1
 62
     5
 10
895.08927358630001
 20
-308.81721067540002
 30
0.0
 11
891.88927358629996
 21
-308.81721067540002
 31
0.0
  0
LINE
  5
1B0
  8
┌▓È_1
 62
     5
 10
897.21775843479986
 20
-308.81721067540002
 30
0.0
 11
897.21775843479986
 21
-310.25721067540002
 31
0.0
  0
ARC
  5
1B1
  8
┌▓È_1
 62
     5
 10
891.48927358629999
 20
-312.01721067540001
 30
0.0
 40
2.399999999999999
 50
270.0
 51
0.0
  0
LINE
  5
1B2
  8
┌▓È_1
 62
     5
 10
910.33940063800003
 20
-309.77022756299999
 30
0.0
 11
910.99174455340005
 21
-308.81721067540002
 31
0.0
  0
LINE
  5
1B3
  8
┌▓È_1
 62
     5
 10
891.88927358629996
 20
-310.41721067539999
 30
0.0
 11
890.28927358630006
 21
-310.41721067539999
 31
0.0
  0
LINE
  5
1B4
  8
┌▓È_1
 62
     5
 10
891.48927358629999
 20
-308.81721067540002
 30
0.0
 11
888.28927358630006
 21
-308.81721067540002
 31
0.0
  0
LINE
  5
1B5
  8
┌▓È_1
 10
902.09207222029988
 20
-294.69534904890003
 30
0.0
 11
918.0920722203
 21
-294.69534904890003
 31
0.0
  0
LINE
  5
1B6
  8
┌▓È_1
 10
918.0920722203
 20
-298.94534904890003
 30
0.0
 11
974.0920722203
 21
-298.94534904890003
 31
0.0
  0
LINE
  5
1B7
  8
┌▓È_1
 10
854.09207222029988
 20
-298.94534904890003
 30
0.0
 11
902.09207222029988
 21
-298.94534904890003
 31
0.0
  0
INSERT
  5
1B8
  8
0
  6
CONTINUOUS
  2
*U42
 10
0.0
 20
0.0
 30
0.0
  0
INSERT
  5
1B9
  8
0
  6
CONTINUOUS
  2
*U43
 10
0.0
 20
0.0
 30
0.0
  0
LINE
  5
1BA
  8
┌▓È_1
 62
     5
 10
888.28927358630006
 20
-311.61721067539997
 30
0.0
 11
888.28927358630006
 21
-312.81721067540002
 31
0.0
  0
LINE
  5
1BB
  8
┌▓È_1
 62
     5
 10
902.70793391639995
 20
-312.69651564259999
 30
0.0
 11
902.56545226859998
 21
-312.836018158
 31
0.0
  0
ARC
  5
1BC
  8
┌▓È_1
 62
     5
 10
898.17775843480001
 20
-310.17721067539998
 30
0.0
 40
3.04
 50
270.0
 51
298.08590481520002
  0
LINE
  5
1BD
  8
┌▓È_1
 62
     5
 10
897.21775843479986
 20
-313.2172106754
 30
0.0
 11
897.21775843479986
 21
-314.41721067539999
 31
0.0
  0
LINE
  5
1BE
  8
┌▓È_1
 62
     5
 10
897.21775843479986
 20
-313.2172106754
 30
0.0
 11
898.17775843480001
 21
-313.2172106754
 31
0.0
  0
LINE
  5
1BF
  8
┌▓È_1
 62
     5
 10
907.79174455340001
 20
-308.81721067540002
 30
0.0
 11
910.99174455340005
 21
-308.81721067540002
 31
0.0
  0
LINE
  5
1C0
  8
┌▓È_1
 62
     5
 10
903.61775843479995
 20
-310.01721067540001
 30
0.0
 11
904.41775843479979
 21
-308.81721067540002
 31
0.0
  0
LINE
  5
1C1
  8
┌▓È_1
 62
     5
 10
888.28927358630006
 20
-314.41721067539999
 30
0.0
 11
891.48927358629999
 21
-314.41721067539999
 31
0.0
  0
LINE
  5
1C2
  8
┌▓È_1
 62
     5
 10
897.21775843479986
 20
-314.41721067539999
 30
0.0
 11
899.21775843479986
 21
-314.41721067539999
 31
0.0
  0
ARC
  5
1C3
  8
┌▓È_1
 62
     5
 10
898.17775843480001
 20
-310.17721067539998
 30
0.0
 40
3.04
 50
331.39928138329998
 51
358.49204224580001
  0
LINE
  5
1C4
  8
┌▓È_1
 62
     5
 10
893.88927358630008
 20
-311.61721067539997
 30
0.0
 11
895.08927358630001
 21
-311.61721067539997
 31
0.0
  0
ARC
  5
1C5
  8
┌▓È_1
 62
     5
 10
899.21775843479986
 20
-310.01721067540001
 30
0.0
 40
4.4000000000000004
 50
270.0
 51
302.54495885400001
  0
LINE
  5
1C6
  8
┌▓È_1
 62
     5
 10
887.36839053699987
 20
-311.61721067539997
 30
0.0
 11
888.16839053700005
 21
-311.61721067539997
 31
0.0
  0
LINE
  5
1C7
  8
┌▓È_1
 62
     5
 10
906.19174455339999
 20
-312.25721067540002
 30
0.0
 11
908.80081122000001
 21
-312.25721067540002
 31
0.0
  0
LINE
  5
1C8
  8
┌▓È_1
 62
     5
 10
895.08927358630001
 20
-310.41721067539999
 30
0.0
 11
893.88927358630008
 21
-310.41721067539999
 31
0.0
  0
LINE
  5
1C9
  8
┌▓È_1
 62
     5
 10
893.88927358630008
 20
-310.41721067539999
 30
0.0
 11
893.88927358630008
 21
-310.01721067540001
 31
0.0
  0
LINE
  5
1CA
  8
┌▓È_1
 62
     5
 10
906.19174455339999
 20
-310.17721067539998
 30
0.0
 11
908.19067788669986
 21
-310.17721067539998
 31
0.0
  0
LINE
  5
1CB
  8
┌▓È_1
 62
     5
 10
891.88927358629996
 20
-311.61721067539997
 30
0.0
 11
891.88927358629996
 21
-312.01721067540001
 31
0.0
  0
LINE
  5
1CC
  8
┌▓È_1
 62
     5
 10
890.28927358630006
 20
-311.61721067539997
 30
0.0
 11
891.88927358629996
 21
-311.61721067539997
 31
0.0
  0
LINE
  5
1CD
  8
┌▓È_1
 62
     5
 10
911.79174455340012
 20
-314.81721067540002
 30
0.0
 11
911.46944801519999
 21
-313.69721067540002
 31
0.0
  0
LINE
  5
1CE
  8
┌▓È_1
 62
     5
 10
887.36839053699987
 20
-310.41721067539999
 30
0.0
 11
887.36839053699987
 21
-311.61721067539997
 31
0.0
  0
LINE
  5
1CF
  8
┌▓È_1
 62
     5
 10
895.08927358630001
 20
-310.41721067539999
 30
0.0
 11
895.08927358630001
 21
-311.61721067539997
 31
0.0
  0
LINE
  5
1D0
  8
┌▓È_1
 62
     5
 10
909.55174455339989
 20
-314.81721067540002
 30
0.0
 11
911.79174455340012
 21
-314.81721067540002
 31
0.0
  0
LINE
  5
1D1
  8
┌▓È_1
 62
     5
 10
890.28927358630006
 20
-310.41721067539999
 30
0.0
 11
890.28927358630006
 21
-310.01721067540001
 31
0.0
  0
LINE
  5
1D2
  8
┌▓È_1
 62
     5
 10
897.21775843479986
 20
-314.41721067539999
 30
0.0
 11
897.21775843479986
 21
-313.2172106754
 31
0.0
  0
LINE
  5
1D3
  8
┌▓È_1
 62
     5
 10
888.28927358630006
 20
-312.81721067540002
 30
0.0
 11
890.28927358630006
 21
-312.81721067540002
 31
0.0
  0
LINE
  5
1D4
  8
┌▓È_1
 62
     5
 10
893.88927358630008
 20
-310.01721067540001
 30
0.0
 11
895.08927358630001
 21
-308.81721067540002
 31
0.0
  0
LINE
  5
1D5
  8
┌▓È_1
 62
     5
 10
908.80081122000001
 20
-312.25721067540002
 30
0.0
 11
908.61307788670001
 21
-311.61721067539997
 31
0.0
  0
LINE
  5
1D6
  8
┌▓È_1
 62
     5
 10
903.61775843479995
 20
-310.01721067540001
 30
0.0
 11
904.41775843479979
 21
-308.81721067540002
 31
0.0
  0
LINE
  5
1D7
  8
┌▓È_1
 62
     5
 10
910.87089730149978
 20
-311.61721067539997
 30
0.0
 11
913.39174455339992
 21
-311.61721067539997
 31
0.0
  0
LINE
  5
1D8
  8
┌▓È_1
 62
     5
 10
891.88927358629996
 20
-308.81721067540002
 30
0.0
 11
891.88927358629996
 21
-310.41721067539999
 31
0.0
  0
ARC
  5
1D9
  8
┌▓È_1
 62
     5
 10
890.68927358629992
 20
-312.01721067540001
 30
0.0
 40
1.1999999999999991
 50
270.0
 51
0.0
  0
LINE
  5
1DA
  8
┌▓È_1
 62
     5
 10
900.84680842809996
 20
-311.6324673995
 30
0.0
 11
900.65433178299986
 21
-311.84505808799997
 31
0.0
  0
LINE
  5
1DB
  8
┌▓È_1
 62
     5
 10
897.21775843479986
 20
-310.67489888940003
 30
0.0
 11
900.41775843479991
 21
-310.67489888940003
 31
0.0
  0
LINE
  5
1DC
  8
┌▓È_1
 62
     5
 10
893.88927358630008
 20
-312.01721067540001
 30
0.0
 11
893.88927358630008
 21
-311.61721067539997
 31
0.0
  0
LINE
  5
1DD
  8
┌▓È_1
 62
     5
 10
906.19174455339999
 20
-310.17721067539998
 30
0.0
 11
906.19174455339999
 21
-311.61721067539997
 31
0.0
  0
LINE
  5
1DE
  8
┌▓È_1
 10
902.09207222029988
 20
-290.44534904890003
 30
0.0
 11
902.09207222029988
 21
-307.44534904890003
 31
0.0
  0
LINE
  5
1DF
  8
┌▓È_1
 10
870.09207222029988
 20
-290.44534904890003
 30
0.0
 11
870.09207222029988
 21
-298.94534904890003
 31
0.0
  0
LINE
  5
1E0
  8
┌▓È_1
 10
854.09207222029988
 20
-307.44534904890003
 30
0.0
 11
974.0920722203
 21
-307.44534904890003
 31
0.0
  0
LINE
  5
1E1
  8
┌▓È_1
 10
854.09207222029988
 20
-290.44534904890003
 30
0.0
 11
974.0920722203
 21
-290.44534904890003
 31
0.0
  0
LINE
  5
1E2
  8
┌▓È_1
 10
918.0920722203
 20
-290.44534904890003
 30
0.0
 11
918.0920722203
 21
-315.94534904890003
 31
0.0
  0
LINE
  5
1E3
  8
┌▓È_1
 10
854.09207222029988
 20
-290.44534904890003
 30
0.0
 11
854.09207222029988
 21
-315.94534904890003
 31
0.0
  0
INSERT
  5
1E4
  8
0
  6
CONTINUOUS
  2
*U44
 10
0.0
 20
0.0
 30
0.0
  0
INSERT
  5
1E5
  8
0
  6
CONTINUOUS
  2
*U45
 10
0.0
 20
0.0
 30
0.0
  0
INSERT
  5
1E6
  8
0
  6
CONTINUOUS
  2
*U46
 10
0.0
 20
0.0
 30
0.0
  0
LINE
  5
1E7
  8
┌▓È_1
 62
     5
 10
890.28927358630006
 20
-310.01721067540001
 30
0.0
 11
891.48927358629999
 21
-308.81721067540002
 31
0.0
  0
LINE
  5
1E8
  8
┌▓È_1
 62
     5
 10
888.28927358630006
 20
-308.81721067540002
 30
0.0
 11
888.28927358630006
 21
-310.41721067539999
 31
0.0
  0
LINE
  5
1E9
  8
┌▓È_1
 62
     5
 10
908.19067788669986
 20
-310.17721067539998
 30
0.0
 11
907.79174455340001
 21
-308.81721067540002
 31
0.0
  0
LINE
  5
1EA
  8
┌▓È_1
 62
     5
 10
910.45651603820011
 20
-310.17721067539998
 30
0.0
 11
913.39174455339992
 21
-310.17721067539998
 31
0.0
  0
INSERT
  5
1EB
  8
0
  6
CONTINUOUS
  2
*U47
 10
0.0
 20
0.0
 30
0.0
  0
LINE
  5
1EC
  8
┌▓È_1
  6
STITCH
 10
733.44416213759985
 20
-195.39529462029989
 30
0.0
 11
732.44416213759985
 21
-195.39529462029989
 31
0.0
  0
LINE
  5
1ED
  8
┌▓È_1
  6
STITCH
 10
733.44416213759985
 20
-195.39529462029989
 30
0.0
 11
735.19416213759985
 21
-197.14529462030001
 31
0.0
  0
LINE
  5
1EE
  8
┌▓È_1
  6
STITCH
 10
732.44416213759985
 20
-195.39529462029989
 30
0.0
 11
730.69416213759985
 21
-197.14529462030001
 31
0.0
  0
LINE
  5
1EF
  8
┌▓È_1
  6
STITCH
 10
732.44416213759985
 20
-190.39529462029989
 30
0.0
 11
730.69416213759985
 21
-188.64529462029989
 31
0.0
  0
LINE
  5
1F0
  8
┌▓È_1
 62
     5
 10
730.69416213759985
 20
-248.68013258330001
 30
0.0
 11
730.69416213759985
 21
-280.68013258330001
 31
0.0
  0
LINE
  5
1F1
  8
┌▓È_1
 62
     5
 10
775.69416213759985
 20
-280.68013258330001
 30
0.0
 11
775.69416213759985
 21
-248.68013258330001
 31
0.0
  0
LINE
  5
1F2
  8
┌▓È_1
  6
STITCH
 10
735.19416213759985
 20
-248.68013258330001
 30
0.0
 11
735.19416213759985
 21
-280.68013258330001
 31
0.0
  0
INSERT
  5
1F4
  8
┌▓È_1
  2
CLUMP0
 10
0.0
 20
0.0
 30
0.0
  0
LINE
  5
1FB
  8
┌▓È_1
 62
     5
 10
775.69416213759985
 20
-248.68013258330001
 30
0.0
 11
730.69416213759985
 21
-248.68013258330001
 31
0.0
  0
INSERT
  5
1FD
  8
┌▓È_1
  2
CLUMP1
 10
0.0
 20
0.0
 30
0.0
  0
LINE
  5
204
  8
┌▓È_1
 62
     5
 10
814.72471769309993
 20
-203.39529462030001
 30
0.0
 11
846.72471769310005
 21
-203.39529462030001
 31
0.0
  0
LINE
  5
205
  8
┌▓È_1
 62
     5
 10
846.72471769310005
 20
-162.89529462030001
 30
0.0
 11
814.72471769309993
 21
-162.89529462030001
 31
0.0
  0
LINE
  5
206
  8
┌▓È_1
 62
     5
 10
814.72471769309993
 20
-207.89529462030001
 30
0.0
 11
846.72471769310005
 21
-207.89529462030001
 31
0.0
  0
INSERT
  5
208
  8
┌▓È_1
  2
CLUMP2
 10
0.0
 20
0.0
 30
0.0
  0
LINE
  5
20F
  8
┌▓È_1
  6
STITCH
 10
761.19416213759985
 20
-205.14529462030001
 30
0.0
 11
761.19416213759985
 21
-206.14529462030001
 31
0.0
  0
LINE
  5
210
  8
┌▓È_1
  6
STITCH
 10
766.19416213759996
 20
-206.14529462030001
 30
0.0
 11
766.19416213759996
 21
-205.14529462030001
 31
0.0
  0
LINE
  5
211
  8
┌▓È_1
  6
STITCH
 10
766.19416213759996
 20
-205.14529462030001
 30
0.0
 11
761.19416213759985
 21
-205.14529462030001
 31
0.0
  0
LINE
  5
212
  8
┌▓È_1
  6
STITCH
 10
761.19416213759985
 20
-206.14529462030001
 30
0.0
 11
766.19416213759996
 21
-206.14529462030001
 31
0.0
  0
LINE
  5
213
  8
┌▓È_1
 10
894.16595843389985
 20
-254.7854659166
 30
0.0
 11
922.08515244429998
 21
-254.7854659166
 31
0.0
  0
INSERT
  5
214
  8
0
  6
CONTINUOUS
  2
*U48
 10
0.0
 20
0.0
 30
0.0
  0
LINE
  5
215
  8
┌▓È_1
 62
     5
 10
911.05506675189997
 20
-312.25721067540002
 30
0.0
 11
913.39174455339992
 21
-312.25721067540002
 31
0.0
  0
ARC
  5
216
  8
┌▓È_1
 62
     5
 10
899.21775843479986
 20
-310.01721067540001
 30
0.0
 40
4.4000000000000004
 50
322.48761197969998
 51
0.0
  0
LINE
  5
217
  8
┌▓È_1
 62
     5
 10
906.19174455339999
 20
-313.69721067540002
 30
0.0
 11
909.22321122000005
 21
-313.69721067540002
 31
0.0
  0
LINE
  5
218
  8
┌▓È_1
 62
     5
 10
910.45651603820011
 20
-310.17721067539998
 30
0.0
 11
910.33940063800003
 21
-309.77022756299999
 31
0.0
  0
LINE
  5
219
  8
┌▓È_1
 62
     5
 10
904.41775843479979
 20
-308.81721067540002
 30
0.0
 11
897.21775843479986
 21
-308.81721067540002
 31
0.0
  0
LINE
  5
21A
  8
┌▓È_1
 62
     5
 10
735.19416213759985
 20
-162.89529462030001
 30
0.0
 11
730.69416213759985
 21
-162.89529462030001
 31
0.0
  0
LINE
  5
21B
  8
┌▓È_1
 62
     5
 10
735.19416213759985
 20
-207.89529462030001
 30
0.0
 11
775.69416213759985
 21
-207.89529462030001
 31
0.0
  0
ARC
  5
21C
  8
┌▓È_1
 62
     5
 10
735.19416213759985
 20
-203.39529462030001
 30
0.0
 40
4.5
 50
180.0
 51
270.0
  0
LINE
  5
21D
  8
┌▓È_1
 62
     5
 10
814.72471769309993
 20
-162.89529462030001
 30
0.0
 11
814.72471769309993
 21
-207.89529462030001
 31
0.0
  0
LINE
  5
21E
  8
┌▓È_1
  6
STITCH
 10
766.19416213759996
 20
-205.14529462030001
 30
0.0
 11
767.94416213759996
 21
-203.39529462030001
 31
0.0
  0
LINE
  5
21F
  8
┌▓È_1
  6
STITCH
 10
766.19416213759996
 20
-206.14529462030001
 30
0.0
 11
767.94416213759996
 21
-207.89529462030001
 31
0.0
  0
LINE
  5
220
  8
┌▓È_1
  6
STITCH
 10
761.19416213759985
 20
-206.14529462030001
 30
0.0
 11
759.44416213759985
 21
-207.89529462030001
 31
0.0
  0
LINE
  5
221
  8
┌▓È_1
  6
STITCH
 10
761.19416213759985
 20
-205.14529462030001
 30
0.0
 11
759.44416213759985
 21
-203.39529462030001
 31
0.0
  0
LINE
  5
222
  8
┌▓È_1
 62
     5
 10
730.69416213759985
 20
-203.39529462030001
 30
0.0
 11
730.69416213759985
 21
-162.89529462030001
 31
0.0
  0
LINE
  5
223
  8
┌▓È_1
  6
STITCH
 10
733.44416213759985
 20
-190.39529462029989
 30
0.0
 11
733.44416213759985
 21
-195.39529462029989
 31
0.0
  0
LINE
  5
224
  8
┌▓È_1
  6
STITCH
 10
732.44416213759985
 20
-190.39529462029989
 30
0.0
 11
733.44416213759985
 21
-190.39529462029989
 31
0.0
  0
LINE
  5
225
  8
┌▓È_1
  6
STITCH
 10
743.19416213759985
 20
-206.14529462030001
 30
0.0
 11
748.19416213759985
 21
-206.14529462030001
 31
0.0
  0
LINE
  5
226
  8
┌▓È_1
  6
STITCH
 10
743.19416213759985
 20
-205.14529462030001
 30
0.0
 11
741.44416213759985
 21
-203.39529462030001
 31
0.0
  0
LINE
  5
227
  8
┌▓È_1
  6
STITCH
 10
743.19416213759985
 20
-206.14529462030001
 30
0.0
 11
741.44416213759985
 21
-207.89529462030001
 31
0.0
  0
LINE
  5
228
  8
┌▓È_1
  6
STITCH
 10
748.19416213759985
 20
-206.14529462030001
 30
0.0
 11
749.94416213759985
 21
-207.89529462030001
 31
0.0
  0
LINE
  5
229
  8
┌▓È_1
  6
STITCH
 10
748.19416213759985
 20
-205.14529462030001
 30
0.0
 11
749.94416213759985
 21
-203.39529462030001
 31
0.0
  0
LINE
  5
22A
  8
┌▓È_1
  6
STITCH
 10
748.19416213759985
 20
-205.14529462030001
 30
0.0
 11
743.19416213759985
 21
-205.14529462030001
 31
0.0
  0
LINE
  5
22B
  8
┌▓È_1
  6
STITCH
 10
748.19416213759985
 20
-206.14529462030001
 30
0.0
 11
748.19416213759985
 21
-205.14529462030001
 31
0.0
  0
LINE
  5
22C
  8
┌▓È_1
  6
STITCH
 10
743.19416213759985
 20
-205.14529462030001
 30
0.0
 11
743.19416213759985
 21
-206.14529462030001
 31
0.0
  0
LINE
  5
22D
  8
┌▓È_1
  6
STITCH
 10
732.44416213759985
 20
-172.39529462030001
 30
0.0
 11
733.44416213759985
 21
-172.39529462030001
 31
0.0
  0
LINE
  5
22E
  8
┌▓È_1
  6
STITCH
 10
733.44416213759985
 20
-172.39529462030001
 30
0.0
 11
733.44416213759985
 21
-177.39529462030001
 31
0.0
  0
LINE
  5
22F
  8
┌▓È_1
  6
STITCH
 10
732.44416213759985
 20
-177.39529462030001
 30
0.0
 11
732.44416213759985
 21
-172.39529462030001
 31
0.0
  0
LINE
  5
230
  8
┌▓È_1
  6
STITCH
 10
732.44416213759985
 20
-195.39529462029989
 30
0.0
 11
732.44416213759985
 21
-190.39529462029989
 31
0.0
  0
INSERT
  5
232
  8
┌▓È_1
  2
CLUMP3
 10
0.0
 20
0.0
 30
0.0
  0
LINE
  5
239
  8
┌▓È_1
 62
     5
 10
730.69416213759985
 20
-280.68013258330001
 30
0.0
 11
775.69416213759985
 21
-280.68013258330001
 31
0.0
  0
LINE
  5
23A
  8
┌▓È_1
 62
     5
 10
895.89651398939986
 20
-199.4104659166
 30
0.0
 11
895.89651398939986
 21
-204.4104659166
 31
0.0
  0
LINE
  5
23B
  8
┌▓È_1
 62
     5
 10
895.89651398939986
 20
-204.4104659166
 30
0.0
 11
887.14651398939986
 21
-213.1604659166
 31
0.0
  0
LINE
  5
23C
  8
┌▓È_1
 62
     5
 10
920.89651398939986
 20
-204.4104659166
 30
0.0
 11
929.64651398939986
 21
-213.1604659166
 31
0.0
  0
LINE
  5
23D
  8
┌▓È_1
 62
     5
 10
895.89651398939986
 20
-199.4104659166
 30
0.0
 11
920.89651398939986
 21
-199.4104659166
 31
0.0
  0
LINE
  5
23E
  8
┌▓È_1
 62
     5
 10
895.89651398939986
 20
-204.4104659166
 30
0.0
 11
920.89651398939986
 21
-204.4104659166
 31
0.0
  0
LINE
  5
23F
  8
┌▓È_1
 62
     5
 10
872.46638435979992
 20
-213.1604659166
 30
0.0
 11
945.46499547089991
 21
-213.1604659166
 31
0.0
  0
LINE
  5
240
  8
┌▓È_1
 62
     5
 10
872.46638435979992
 20
-190.6604659166
 30
0.0
 11
945.46499547089991
 21
-190.6604659166
 31
0.0
  0
LINE
  5
241
  8
┌▓È_1
 62
     5
 10
846.72471769310005
 20
-207.89529462030001
 30
0.0
 11
846.72471769310005
 21
-162.89529462030001
 31
0.0
  0
LINE
  5
242
  8
┌▓È_1
  6
BORDER
 62
     3
 10
908.39651398939986
 20
-185.1604659166
 30
0.0
 11
908.39651398939986
 21
-219.1604659166
 31
0.0
  0
LINE
  5
243
  8
┌▓È_1
 62
     5
 10
887.14651398939986
 20
-190.6604659166
 30
0.0
 11
895.89651398939986
 21
-199.4104659166
 31
0.0
  0
LINE
  5
244
  8
┌▓È_1
 62
     5
 10
920.89651398939986
 20
-199.4104659166
 30
0.0
 11
929.64651398939986
 21
-190.6604659166
 31
0.0
  0
LINE
  5
245
  8
┌▓È_1
 62
     5
 10
920.89651398939986
 20
-199.4104659166
 30
0.0
 11
920.89651398939986
 21
-204.4104659166
 31
0.0
  0
LINE
  5
246
  8
┌▓È_1
  6
STITCH
 10
733.44416213759985
 20
-190.39529462029989
 30
0.0
 11
735.19416213759985
 21
-188.64529462029989
 31
0.0
  0
LINE
  5
247
  8
┌▓È_1
  6
STITCH
 10
733.44416213759985
 20
-172.39529462030001
 30
0.0
 11
735.19416213759985
 21
-170.64529462030001
 31
0.0
  0
LINE
  5
248
  8
┌▓È_1
  6
STITCH
 10
732.44416213759985
 20
-172.39529462030001
 30
0.0
 11
730.69416213759985
 21
-170.64529462030001
 31
0.0
  0
LINE
  5
249
  8
┌▓È_1
  6
STITCH
 10
732.44416213759985
 20
-177.39529462030001
 30
0.0
 11
730.69416213759985
 21
-179.14529462029989
 31
0.0
  0
LINE
  5
24A
  8
┌▓È_1
  6
STITCH
 10
733.44416213759985
 20
-177.39529462030001
 30
0.0
 11
735.19416213759985
 21
-179.14529462029989
 31
0.0
  0
LINE
  5
24B
  8
┌▓È_1
  6
STITCH
 10
733.44416213759985
 20
-177.39529462030001
 30
0.0
 11
732.44416213759985
 21
-177.39529462030001
 31
0.0
  0
LINE
  5
24C
  8
┌▓È_1
  6
BORDER
 62
     3
 10
745.69416213759996
 20
-197.5675168425
 30
0.0
 11
745.69416213759996
 21
-214.936961287
 31
0.0
  0
LINE
  5
24D
  8
┌▓È_1
  6
BORDER
 62
     3
 10
763.69416213759985
 20
-197.5675168425
 30
0.0
 11
763.69416213759985
 21
-214.936961287
 31
0.0
  0
LINE
  5
24E
  8
┌▓È_1
  6
BORDER
 62
     3
 10
741.02193991529998
 20
-174.89529462030001
 30
0.0
 11
723.65249547089991
 21
-174.89529462030001
 31
0.0
  0
LINE
  5
24F
  8
┌▓È_1
  6
BORDER
 62
     3
 10
741.02193991529998
 20
-192.89529462029989
 30
0.0
 11
723.65249547089991
 21
-192.89529462029989
 31
0.0
  0
LINE
  5
250
  8
┌▓È_1
 62
     5
 10
735.19416213759985
 20
-203.39529462030001
 30
0.0
 11
775.69416213759985
 21
-203.39529462030001
 31
0.0
  0
LINE
  5
251
  8
┌▓È_1
 62
     5
 10
775.69416213759985
 20
-207.89529462030001
 30
0.0
 11
775.69416213759985
 21
-203.39529462030001
 31
0.0
  0
LINE
  5
252
  8
┌▓È_1
 62
     5
 10
735.19416213759985
 20
-203.39529462030001
 30
0.0
 11
735.19416213759985
 21
-162.89529462030001
 31
0.0
  0
ENDSEC
  0
EOF
