  0
SECTION
  2
HEADER
  9
$ACADVER
  1
AC1009
  9
$INSBASE
 10
0.0
 20
0.0
 30
0.0
  9
$EXTMIN
 10
497.11796610070002
 20
-460.2050502983999
 30
0.0
  9
$EXTMAX
 10
1184.6179661007
 20
14.7949497016
 30
0.0
  9
$LIMMIN
 10
0.0
 20
0.0
  9
$LIMMAX
 10
0.0
 20
0.0
  9
$ORTHOMODE
 70
     0
  9
$REGENMODE
 70
     1
  9
$FILLMODE
 70
     1
  9
$QTEXTMODE
 70
     0
  9
$MIRRTEXT
 70
     1
  9
$DRAGMODE
 70
     2
  9
$LTSCALE
 40
1.0
  9
$OSMODE
 70
    31
  9
$ATTMODE
 70
     1
  9
$TEXTSIZE
 40
0.0
  9
$TRACEWID
 40
0.05
  9
$TEXTSTYLE
  7
STANDARD
  9
$CLAYER
  8
0
  9
$CELTYPE
  6
CONTINUOUS
  9
$CECOLOR
 62
   256
  9
$DIMSCALE
 40
1.0
  9
$DIMASZ
 40
0.18
  9
$DIMEXO
 40
0.0625
  9
$DIMDLI
 40
0.38
  9
$DIMRND
 40
0.0
  9
$DIMDLE
 40
0.0
  9
$DIMEXE
 40
0.18
  9
$DIMTP
 40
0.0
  9
$DIMTM
 40
0.0
  9
$DIMTXT
 40
0.18
  9
$DIMCEN
 40
0.09
  9
$DIMTSZ
 40
0.0
  9
$DIMTOL
 70
     0
  9
$DIMLIM
 70
     0
  9
$DIMTIH
 70
     1
  9
$DIMTOH
 70
     1
  9
$DIMSE1
 70
     0
  9
$DIMSE2
 70
     0
  9
$DIMTAD
 70
     0
  9
$DIMZIN
 70
     0
  9
$DIMBLK
  1

  9
$DIMASO
 70
     1
  9
$DIMSHO
 70
     1
  9
$DIMPOST
  1

  9
$DIMAPOST
  1

  9
$DIMALT
 70
     0
  9
$DIMALTD
 70
     2
  9
$DIMALTF
 40
25.399999999999999
  9
$DIMLFAC
 40
1.0
  9
$DIMTOFL
 70
     0
  9
$DIMTVP
 40
0.0
  9
$DIMTIX
 70
     0
  9
$DIMSOXD
 70
     0
  9
$DIMSAH
 70
     0
  9
$DIMBLK1
  1

  9
$DIMBLK2
  1

  9
$DIMSTYLE
  2
STANDARD
  9
$DIMCLRD
 70
     0
  9
$DIMCLRE
 70
     0
  9
$DIMCLRT
 70
     0
  9
$DIMTFAC
 40
1.0
  9
$DIMGAP
 40
0.09
  9
$LUNITS
 70
     2
  9
$LUPREC
 70
     4
  9
$SKETCHINC
 40
0.1
  9
$FILLETRAD
 40
0.0
  9
$AUNITS
 70
     0
  9
$AUPREC
 70
     0
  9
$MENU
  1
acad
  9
$ELEVATION
 40
0.0
  9
$PELEVATION
 40
0.0
  9
$THICKNESS
 40
0.0
  9
$LIMCHECK
 70
     0
  9
$BLIPMODE
 70
     0
  9
$CHAMFERA
 40
0.0
  9
$CHAMFERB
 40
0.0
  9
$SKPOLY
 70
     0
  9
$TDCREATE
 40
2454862.74298647
  9
$TDUPDATE
 40
2454862.7431257181
  9
$TDINDWG
 40
0.0001477431
  9
$TDUSRTIMER
 40
0.0001473843
  9
$USRTIMER
 70
     1
  9
$ANGBASE
 50
0.0
  9
$ANGDIR
 70
     0
  9
$PDMODE
 70
     3
  9
$PDSIZE
 40
-1.0
  9
$PLINEWID
 40
0.0
  9
$COORDS
 70
     2
  9
$SPLFRAME
 70
     0
  9
$SPLINETYPE
 70
     6
  9
$SPLINESEGS
 70
     8
  9
$ATTDIA
 70
     0
  9
$ATTREQ
 70
     1
  9
$HANDLING
 70
     1
  9
$HANDSEED
  5
5A2
  9
$SURFTAB1
 70
     6
  9
$SURFTAB2
 70
     6
  9
$SURFTYPE
 70
     6
  9
$SURFU
 70
     6
  9
$SURFV
 70
     6
  9
$UCSNAME
  2

  9
$UCSORG
 10
0.0
 20
0.0
 30
0.0
  9
$UCSXDIR
 10
1.0
 20
0.0
 30
0.0
  9
$UCSYDIR
 10
0.0
 20
1.0
 30
0.0
  9
$PUCSNAME
  2

  9
$PUCSORG
 10
0.0
 20
0.0
 30
0.0
  9
$PUCSXDIR
 10
1.0
 20
0.0
 30
0.0
  9
$PUCSYDIR
 10
0.0
 20
1.0
 30
0.0
  9
$USERI1
 70
     0
  9
$USERI2
 70
     0
  9
$USERI3
 70
     0
  9
$USERI4
 70
     0
  9
$USERI5
 70
     0
  9
$USERR1
 40
0.0
  9
$USERR2
 40
0.0
  9
$USERR3
 40
0.0
  9
$USERR4
 40
0.0
  9
$USERR5
 40
0.0
  9
$WORLDVIEW
 70
     1
  9
$SHADEDGE
 70
     3
  9
$SHADEDIF
 70
    70
  9
$TILEMODE
 70
     1
  9
$MAXACTVP
 70
    16
  9
$PLIMCHECK
 70
     0
  9
$PEXTMIN
 10
1.0000000000000000E+020
 20
1.0000000000000000E+020
 30
1.0000000000000000E+020
  9
$PEXTMAX
 10
-1.0000000000000000E+020
 20
-1.0000000000000000E+020
 30
-1.0000000000000000E+020
  9
$PLIMMIN
 10
0.0
 20
0.0
  9
$PLIMMAX
 10
12.0
 20
9.0
  9
$UNITMODE
 70
     0
  9
$VISRETAIN
 70
     0
  9
$PLINEGEN
 70
     1
  9
$PSLTSCALE
 70
     0
  0
ENDSEC
  0
SECTION
  2
TABLES
  0
TABLE
  2
VPORT
 70
     2
  0
VPORT
  2
*ACTIVE
 70
     0
 10
0.0
 20
0.0
 11
1.0
 21
1.0
 12
840.86796610070007
 22
-222.70505029840001
 13
0.0
 23
0.0
 14
1.0
 24
1.0
 15
0.0
 25
0.0
 16
0.0
 26
0.0
 36
1.0
 17
0.0
 27
0.0
 37
0.0
 40
497.48231980936492
 41
1.3903818953323901
 42
50.0
 43
0.0
 44
0.0
 50
0.0
 51
0.0
 71
     0
 72
   100
 73
     1
 74
     1
 75
     0
 76
     0
 77
     0
 78
     0
  0
ENDTAB
  0
TABLE
  2
LTYPE
 70
    11
  0
LTYPE
  2
CONTINUOUS
 70
     0
  3
Solid line
 72
    65
 73
     0
 40
0.0
  0
LTYPE
  2
DOT
 70
     0
  3
. . . . . . . . 
 72
    65
 73
     2
 40
1.0
 49
0.0
 49
-1.0
  0
LTYPE
  2
DASHED
 70
     0
  3
___  ___  ___  ___  
 72
    65
 73
     2
 40
4.0
 49
3.0
 49
-1.0
  0
LTYPE
  2
HIDDEN
 70
     0
  3
__ __ __ __ 
 72
    65
 73
     2
 40
3.0
 49
2.0
 49
-1.0
  0
LTYPE
  2
STITCH
 70
     0
  3
_ _ _ _ 
 72
    65
 73
     2
 40
2.0
 49
1.0
 49
-1.0
  0
LTYPE
  2
CENTER
 70
     0
  3
______  __  ______  __  
 72
    65
 73
     4
 40
43.0
 49
40.0
 49
-1.0
 49
1.0
 49
-1.0
  0
LTYPE
  2
DASHDOT
 70
     0
  3
____ . ____ . 
 72
    65
 73
     4
 40
32.0
 49
30.0
 49
-1.0
 49
0.0
 49
-1.0
  0
LTYPE
  2
BORDER
 70
     0
  3
__ . __ . 
 72
    65
 73
     4
 40
22.0
 49
20.0
 49
-1.0
 49
0.0
 49
-1.0
  0
LTYPE
  2
CUTTING
 70
     0
  3
________   ___   ___   
 72
    65
 73
     6
 40
45.0
 49
40.0
 49
-1.0
 49
1.0
 49
-1.0
 49
1.0
 49
-1.0
  0
LTYPE
  2
PHANTOM
 70
     0
  3
______  __  __  
 72
    65
 73
     6
 40
35.0
 49
30.0
 49
-1.0
 49
1.0
 49
-1.0
 49
1.0
 49
-1.0
  0
LTYPE
  2
DIVIDE
 70
     0
  3
____ . . ____ . . 
 72
    65
 73
     6
 40
23.0
 49
20.0
 49
-1.0
 49
0.0
 49
-1.0
 49
0.0
 49
-1.0
  0
ENDTAB
  0
TABLE
  2
LAYER
 70
     4
  0
LAYER
  2
0
 70
     0
 62
     7
  6
CONTINUOUS
  0
LAYER
  2
┌▓È_1
 70
     0
 62
     7
  6
CONTINUOUS
  0
LAYER
  2
Éíû@É³
 70
     0
 62
     7
  6
CONTINUOUS
  0
LAYER
  2
Defpoints
 70
     0
 62
     7
  6
CONTINUOUS
  0
ENDTAB
  0
TABLE
  2
STYLE
 70
     1
  0
STYLE
  2
STANDARD
 70
     0
 40
0.0
 41
1.0
 50
0.0
 71
     0
 42
0.0
  3
txt
  4
extfont
  0
ENDTAB
  0
TABLE
  2
VIEW
 70
     0
  0
ENDTAB
  0
TABLE
  2
UCS
 70
     0
  0
ENDTAB
  0
TABLE
  2
APPID
 70
     2
  0
APPID
  2
ACAD
 70
     0
  0
APPID
  2
DCO15
 70
     0
  0
ENDTAB
  0
TABLE
  2
DIMSTYLE
 70
     4
  0
DIMSTYLE
  2
STANDARD
 70
     0
  3

  4

  5

  6

  7

 40
1.0
 41
0.18
 42
0.0625
 43
0.38
 44
0.18
 45
0.0
 46
0.0
 47
0.0
 48
0.0
140
0.18
141
0.09
142
0.0
143
25.399999999999999
144
1.0
145
0.0
146
1.0
147
0.09
 71
     0
 72
     0
 73
     1
 74
     1
 75
     0
 76
     0
 77
     0
 78
     0
170
     0
171
     2
172
     0
173
     0
174
     0
175
     0
176
     0
177
     0
178
     0
  0
DIMSTYLE
  2
VELDIM0
 70
     0
  3

  4

  5

  6

  7

 40
1.0
 41
7.5
 42
0.0625
 43
0.38
 44
1.25
 45
0.0
 46
7.5
 47
0.0
 48
0.0
140
7.4965279578999988
141
0.09
142
0.0
143
25.399999999999999
144
1.0
145
0.0
146
1.0
147
0.09
 71
     0
 72
     0
 73
     0
 74
     0
 75
     0
 76
     0
 77
     0
 78
     8
170
     0
171
     2
172
     0
173
     0
174
     0
175
     0
176
     0
177
     0
178
     0
  0
DIMSTYLE
  2
VELDIM1
 70
     0
  3

  4

  5

  6

  7

 40
1.0
 41
7.5
 42
0.0625
 43
0.38
 44
0.5
 45
0.0
 46
3.0
 47
0.0
 48
0.0
140
7.4965279578999988
141
0.09
142
0.0
143
25.399999999999999
144
1.0
145
0.0
146
1.0
147
0.09
 71
     0
 72
     0
 73
     0
 74
     0
 75
     0
 76
     0
 77
     0
 78
     8
170
     0
171
     2
172
     0
173
     0
174
     0
175
     0
176
     0
177
     0
178
     0
  0
DIMSTYLE
  2
VELDIM2
 70
     0
  3

  4

  5

  6

  7

 40
1.0
 41
7.5
 42
0.0625
 43
0.38
 44
1.25
 45
0.0
 46
5.0
 47
0.0
 48
0.0
140
7.4965279578999988
141
0.09
142
0.0
143
25.399999999999999
144
1.0
145
0.0
146
1.0
147
0.09
 71
     0
 72
     0
 73
     0
 74
     0
 75
     0
 76
     0
 77
     0
 78
     8
170
     0
171
     2
172
     0
173
     0
174
     0
175
     0
176
     0
177
     0
178
     0
  0
ENDTAB
  0
ENDSEC
  0
SECTION
  2
BLOCKS
  0
BLOCK
  8
0
  2
$MODEL_SPACE
 70
     0
 10
0.0
 20
0.0
 30
0.0
  3
$MODEL_SPACE
  1

  0
ENDBLK
  5
E
  8
0
  0
BLOCK
 67
     1
  8
0
  2
$PAPER_SPACE
 70
     0
 10
0.0
 20
0.0
 30
0.0
  3
$PAPER_SPACE
  1

  0
ENDBLK
  5
10
 67
     1
  8
0
  0
BLOCK
  8
0
  2
CLUMP0
 70
     0
 10
0.0
 20
0.0
 30
0.0
  3
CLUMP0
  1

  0
CIRCLE
  5
33
  8
┌▓È_1
 62
     5
 10
803.61192350399995
 20
-381.91938065549999
 30
0.0
 40
4.25
  0
CIRCLE
  5
34
  8
┌▓È_1
 62
     5
 10
803.61192350399995
 20
-381.91938065549999
 30
0.0
 40
2.5
  0
LINE
  5
35
  8
┌▓È_1
  6
BORDER
 62
     3
 10
803.61192350399995
 20
-375.91938065549999
 30
0.0
 11
803.61192350399995
 21
-387.91938065549999
 31
0.0
  0
LINE
  5
36
  8
┌▓È_1
  6
BORDER
 62
     3
 10
797.61192350399995
 20
-381.91938065549999
 30
0.0
 11
809.61192350399995
 21
-381.91938065549999
 31
0.0
  0
ENDBLK
  5
37
  8
0
  0
BLOCK
  8
0
  2
CLUMP1
 70
     0
 10
0.0
 20
0.0
 30
0.0
  3
CLUMP1
  1

  0
INSERT
  5
3D
  8
┌▓È_1
  2
CLUMP2
 10
0.0
 20
0.0
 30
0.0
  0
ENDBLK
  5
44
  8
0
  0
BLOCK
  8
0
  2
CLUMP2
 70
     0
 10
0.0
 20
0.0
 30
0.0
  3
CLUMP2
  1

  0
CIRCLE
  5
3F
  8
┌▓È_1
 62
     5
 10
724.61192350399995
 20
-386.91938065550011
 30
0.0
 40
4.25
  0
CIRCLE
  5
40
  8
┌▓È_1
 62
     5
 10
724.61192350399995
 20
-386.91938065550011
 30
0.0
 40
2.5
  0
LINE
  5
41
  8
┌▓È_1
  6
BORDER
 62
     3
 10
724.61192350399995
 20
-392.91938065550011
 30
0.0
 11
724.61192350399995
 21
-380.91938065550011
 31
0.0
  0
LINE
  5
42
  8
┌▓È_1
  6
BORDER
 62
     3
 10
718.61192350399995
 20
-386.91938065550011
 30
0.0
 11
730.61192350399995
 21
-386.91938065550011
 31
0.0
  0
ENDBLK
  5
43
  8
0
  0
BLOCK
  8
0
  2
CLUMP3
 70
     0
 10
0.0
 20
0.0
 30
0.0
  3
CLUMP3
  1

  0
CIRCLE
  5
4B
  8
┌▓È_1
 62
     5
 10
645.61192350399995
 20
-376.91938065550011
 30
0.0
 40
4.25
  0
CIRCLE
  5
4C
  8
┌▓È_1
 62
     5
 10
645.61192350399995
 20
-376.91938065550011
 30
0.0
 40
2.5
  0
LINE
  5
4D
  8
┌▓È_1
  6
BORDER
 62
     3
 10
639.61192350399995
 20
-376.91938065550011
 30
0.0
 11
651.61192350399995
 21
-376.91938065550011
 31
0.0
  0
LINE
  5
4E
  8
┌▓È_1
  6
BORDER
 62
     3
 10
645.61192350399995
 20
-382.91938065549999
 30
0.0
 11
645.61192350399995
 21
-370.91938065549999
 31
0.0
  0
ENDBLK
  5
4F
  8
0
  0
BLOCK
  8
0
  2
*D4
 70
     1
 10
0.0
 20
0.0
 30
0.0
  3
*D4
  1

  0
TEXT
  5
54
  8
0
 62
     0
 10
906.6757982572999
 20
-14.1916153581
 30
0.0
 40
7.4965279578999988
  1
32
  0
LINE
  5
55
  8
0
 62
     0
 10
927.08552058549992
 20
-56.43391004539999
 30
0.0
 11
927.08552058549992
 21
-16.7645320566
 31
0.0
  0
LINE
  5
56
  8
0
 62
     0
 10
895.08552058550015
 20
-56.43391004539999
 30
0.0
 11
895.08552058550015
 21
-16.7645320566
 31
0.0
  0
LINE
  5
57
  8
0
 62
     0
 10
927.08552058549992
 20
-18.0145320566
 30
0.0
 11
919.90496524190007
 21
-18.0145320566
 31
0.0
  0
LINE
  5
58
  8
0
 62
     0
 10
927.08552058549992
 20
-18.0145320566
 30
0.0
 11
902.26607592909988
 21
-18.0145320566
 31
0.0
  0
LINE
  5
59
  8
0
 62
     0
 10
895.08552058550015
 20
-18.0145320566
 30
0.0
 11
919.90496524190007
 21
-18.0145320566
 31
0.0
  0
LINE
  5
5A
  8
0
 62
     0
 10
895.08552058550015
 20
-18.0145320566
 30
0.0
 11
902.26607592909988
 21
-18.0145320566
 31
0.0
  0
LINE
  5
5B
  8
0
 62
     0
 10
895.08552058550015
 20
-18.0145320566
 30
0.0
 11
887.58552058550003
 21
-18.0145320566
 31
0.0
  0
SOLID
  5
5C
  8
0
 62
     0
 10
895.08552058550015
 20
-18.0145320566
 30
0.0
 11
887.58552058550003
 21
-19.8895320566
 31
0.0
 12
887.58552058550003
 22
-16.1395320566
 32
0.0
 13
889.46052058550003
 23
-18.0145320566
 33
0.0
  0
LINE
  5
5D
  8
0
 62
     0
 10
927.08552058549992
 20
-18.0145320566
 30
0.0
 11
934.58552058550003
 21
-18.0145320566
 31
0.0
  0
SOLID
  5
5E
  8
0
 62
     0
 10
927.08552058549992
 20
-18.0145320566
 30
0.0
 11
934.58552058550003
 21
-16.1395320566
 31
0.0
 12
934.58552058550003
 22
-19.8895320566
 32
0.0
 13
932.71052058550003
 23
-18.0145320566
 33
0.0
  0
ENDBLK
  5
5F
  8
0
  0
BLOCK
  8
0
  2
*D5
 70
     1
 10
0.0
 20
0.0
 30
0.0
  3
*D5
  1

  0
TEXT
  5
65
  8
0
 62
     0
 10
930.06772534070001
 20
-33.982543748799998
 30
0.0
 40
7.4965279578999988
  1
16
  0
LINE
  5
66
  8
0
 62
     0
 10
927.08552058549992
 20
-57.933910045399998
 30
0.0
 11
927.08552058549992
 21
-35.8054604473
 31
0.0
  0
LINE
  5
67
  8
0
 62
     0
 10
911.08552058550015
 20
-63.93391004539999
 30
0.0
 11
911.08552058550015
 21
-35.8054604473
 31
0.0
  0
LINE
  5
68
  8
0
 62
     0
 10
927.08552058549992
 20
-36.3054604473
 30
0.0
 11
943.29689232519991
 21
-36.3054604473
 31
0.0
  0
LINE
  5
69
  8
0
 62
     0
 10
927.08552058549992
 20
-36.3054604473
 30
0.0
 11
925.65800301249999
 21
-36.3054604473
 31
0.0
  0
LINE
  5
6A
  8
0
 62
     0
 10
911.08552058550015
 20
-36.3054604473
 30
0.0
 11
943.29689232519991
 21
-36.3054604473
 31
0.0
  0
LINE
  5
6B
  8
0
 62
     0
 10
911.08552058550015
 20
-36.3054604473
 30
0.0
 11
925.65800301249999
 21
-36.3054604473
 31
0.0
  0
LINE
  5
6C
  8
0
 62
     0
 10
911.08552058550015
 20
-36.3054604473
 30
0.0
 11
914.08552058550003
 21
-36.3054604473
 31
0.0
  0
SOLID
  5
6D
  8
0
 62
     0
 10
911.08552058550015
 20
-36.3054604473
 30
0.0
 11
918.58552058550003
 21
-34.4304604473
 31
0.0
 12
918.58552058550003
 22
-38.1804604473
 32
0.0
 13
916.71052058549992
 23
-36.3054604473
 33
0.0
  0
LINE
  5
6E
  8
0
 62
     0
 10
927.08552058549992
 20
-36.3054604473
 30
0.0
 11
924.08552058550003
 21
-36.3054604473
 31
0.0
  0
SOLID
  5
6F
  8
0
 62
     0
 10
927.08552058549992
 20
-36.3054604473
 30
0.0
 11
919.58552058550003
 21
-38.1804604473
 31
0.0
 12
919.58552058550003
 22
-34.4304604473
 32
0.0
 13
921.46052058550015
 23
-36.3054604473
 33
0.0
  0
ENDBLK
  5
70
  8
0
  0
BLOCK
  8
0
  2
*D6
 70
     1
 10
0.0
 20
0.0
 30
0.0
  3
*D6
  1

  0
TEXT
  5
74
  8
0
 62
     0
 10
880.30356518439999
 20
-33.982543748799998
 30
0.0
 40
7.4965279578999988
  1
16
  0
LINE
  5
75
  8
0
 62
     0
 10
911.08552058550015
 20
-63.93391004539999
 30
0.0
 11
911.08552058550015
 21
-35.8054604473
 31
0.0
  0
LINE
  5
76
  8
0
 62
     0
 10
895.08552058550015
 20
-57.933910045399998
 30
0.0
 11
895.08552058550015
 21
-35.8054604473
 31
0.0
  0
LINE
  5
77
  8
0
 62
     0
 10
911.08552058550015
 20
-36.3054604473
 30
0.0
 11
893.53273216899993
 21
-36.3054604473
 31
0.0
  0
LINE
  5
78
  8
0
 62
     0
 10
911.08552058550015
 20
-36.3054604473
 30
0.0
 11
875.89384285619997
 21
-36.3054604473
 31
0.0
  0
LINE
  5
79
  8
0
 62
     0
 10
895.08552058550015
 20
-36.3054604473
 30
0.0
 11
893.53273216899993
 21
-36.3054604473
 31
0.0
  0
LINE
  5
7A
  8
0
 62
     0
 10
895.08552058550015
 20
-36.3054604473
 30
0.0
 11
875.89384285619997
 21
-36.3054604473
 31
0.0
  0
LINE
  5
7B
  8
0
 62
     0
 10
895.08552058550015
 20
-36.3054604473
 30
0.0
 11
898.08552058550003
 21
-36.3054604473
 31
0.0
  0
SOLID
  5
7C
  8
0
 62
     0
 10
895.08552058550015
 20
-36.3054604473
 30
0.0
 11
902.58552058550003
 21
-34.4304604473
 31
0.0
 12
902.58552058550003
 22
-38.1804604473
 32
0.0
 13
900.71052058549992
 23
-36.3054604473
 33
0.0
  0
LINE
  5
7D
  8
0
 62
     0
 10
911.08552058550015
 20
-36.3054604473
 30
0.0
 11
908.08552058550003
 21
-36.3054604473
 31
0.0
  0
SOLID
  5
7E
  8
0
 62
     0
 10
911.08552058550015
 20
-36.3054604473
 30
0.0
 11
903.58552058550003
 21
-38.1804604473
 31
0.0
 12
903.58552058550003
 22
-34.4304604473
 32
0.0
 13
905.46052058550015
 23
-36.3054604473
 33
0.0
  0
ENDBLK
  5
7F
  8
0
  0
BLOCK
  8
0
  2
CLUMP4
 70
     0
 10
0.0
 20
0.0
 30
0.0
  3
CLUMP4
  1

  0
CIRCLE
  5
E8
  8
┌▓È_1
 62
     5
 10
906.08552058550003
 20
-149.93391004540001
 30
0.0
 40
2.5
  0
CIRCLE
  5
E9
  8
┌▓È_1
 62
     5
 10
906.08552058550003
 20
-149.93391004540001
 30
0.0
 40
4.25
  0
LINE
  5
EA
  8
┌▓È_1
  6
BORDER
 62
     3
 10
906.08552058550003
 20
-143.93391004540001
 30
0.0
 11
906.08552058550003
 21
-155.93391004540001
 31
0.0
  0
LINE
  5
EB
  8
┌▓È_1
  6
BORDER
 62
     3
 10
900.08552058550003
 20
-149.93391004540001
 30
0.0
 11
912.08552058550015
 21
-149.93391004540001
 31
0.0
  0
ENDBLK
  5
EC
  8
0
  0
BLOCK
  8
0
  2
CLUMP5
 70
     0
 10
0.0
 20
0.0
 30
0.0
  3
CLUMP5
  1

  0
LINE
  5
F3
  8
┌▓È_1
  6
STITCH
 10
801.11192350399983
 20
-257.18391004540001
 30
0.0
 11
806.11192350399995
 21
-257.18391004540001
 31
0.0
  0
LINE
  5
F4
  8
┌▓È_1
  6
STITCH
 10
806.11192350399995
 20
-256.18391004540001
 30
0.0
 11
801.11192350399983
 21
-256.18391004540001
 31
0.0
  0
LINE
  5
F5
  8
┌▓È_1
  6
STITCH
 10
806.11192350399995
 20
-257.18391004540001
 30
0.0
 11
806.11192350399995
 21
-256.18391004540001
 31
0.0
  0
LINE
  5
F6
  8
┌▓È_1
  6
STITCH
 10
801.11192350399983
 20
-256.18391004540001
 30
0.0
 11
801.11192350399983
 21
-257.18391004540001
 31
0.0
  0
LINE
  5
F7
  8
┌▓È_1
  6
STITCH
 10
801.11192350399983
 20
-256.18391004540001
 30
0.0
 11
799.36192350399995
 21
-254.43391004540001
 31
0.0
  0
LINE
  5
F8
  8
┌▓È_1
  6
STITCH
 10
801.11192350399983
 20
-257.18391004540001
 30
0.0
 11
799.36192350399995
 21
-258.93391004540001
 31
0.0
  0
LINE
  5
F9
  8
┌▓È_1
  6
STITCH
 10
806.11192350399995
 20
-256.18391004540001
 30
0.0
 11
807.86192350399995
 21
-254.43391004540001
 31
0.0
  0
LINE
  5
FA
  8
┌▓È_1
  6
STITCH
 10
806.11192350399995
 20
-257.18391004540001
 30
0.0
 11
807.86192350399995
 21
-258.93391004540001
 31
0.0
  0
LINE
  5
FB
  8
┌▓È_1
  6
BORDER
 62
     3
 10
803.61192350399995
 20
-248.6061322676
 30
0.0
 11
803.61192350399995
 21
-265.97557671210001
 31
0.0
  0
ENDBLK
  5
FC
  8
0
  0
BLOCK
  8
0
  2
CLUMP6
 70
     0
 10
0.0
 20
0.0
 30
0.0
  3
CLUMP6
  1

  0
CIRCLE
  5
100
  8
┌▓È_1
 62
     5
 10
911.08552058550015
 20
-70.933910045399983
 30
0.0
 40
2.5
  0
CIRCLE
  5
101
  8
┌▓È_1
 62
     5
 10
911.08552058550015
 20
-70.933910045399983
 30
0.0
 40
4.25
  0
LINE
  5
102
  8
┌▓È_1
  6
BORDER
 62
     3
 10
911.08552058550015
 20
-64.933910045399998
 30
0.0
 11
911.08552058550015
 21
-76.933910045399998
 31
0.0
  0
LINE
  5
103
  8
┌▓È_1
  6
BORDER
 62
     3
 10
905.08552058550003
 20
-70.933910045399983
 30
0.0
 11
917.08552058550003
 21
-70.933910045399983
 31
0.0
  0
ENDBLK
  5
104
  8
0
  0
BLOCK
  8
0
  2
CLUMP7
 70
     0
 10
0.0
 20
0.0
 30
0.0
  3
CLUMP7
  1

  0
LINE
  5
109
  8
┌▓È_1
  6
STITCH
 10
618.36192350399995
 20
-152.43391004540001
 30
0.0
 11
620.11192350400006
 21
-154.18391004540001
 31
0.0
  0
LINE
  5
10A
  8
┌▓È_1
  6
STITCH
 10
617.36192350399995
 20
-152.43391004540001
 30
0.0
 11
615.61192350400006
 21
-154.18391004540001
 31
0.0
  0
LINE
  5
10B
  8
┌▓È_1
  6
STITCH
 10
617.36192350399995
 20
-147.43391004540001
 30
0.0
 11
615.61192350400006
 21
-145.68391004540001
 31
0.0
  0
LINE
  5
10C
  8
┌▓È_1
  6
STITCH
 10
618.36192350399995
 20
-147.43391004540001
 30
0.0
 11
620.11192350400006
 21
-145.68391004540001
 31
0.0
  0
LINE
  5
10D
  8
┌▓È_1
  6
STITCH
 10
617.36192350399995
 20
-152.43391004540001
 30
0.0
 11
617.36192350399995
 21
-147.43391004540001
 31
0.0
  0
LINE
  5
10E
  8
┌▓È_1
  6
STITCH
 10
618.36192350399995
 20
-147.43391004540001
 30
0.0
 11
618.36192350399995
 21
-152.43391004540001
 31
0.0
  0
LINE
  5
10F
  8
┌▓È_1
  6
STITCH
 10
617.36192350399995
 20
-147.43391004540001
 30
0.0
 11
618.36192350399995
 21
-147.43391004540001
 31
0.0
  0
LINE
  5
110
  8
┌▓È_1
  6
STITCH
 10
618.36192350399995
 20
-152.43391004540001
 30
0.0
 11
617.36192350399995
 21
-152.43391004540001
 31
0.0
  0
LINE
  5
111
  8
┌▓È_1
  6
BORDER
 62
     3
 10
625.9397012817999
 20
-149.93391004540001
 30
0.0
 11
608.57025683730001
 21
-149.93391004540001
 31
0.0
  0
ENDBLK
  5
112
  8
0
  0
BLOCK
  8
0
  2
CLUMP8
 70
     0
 10
0.0
 20
0.0
 30
0.0
  3
CLUMP8
  1

  0
LINE
  5
11F
  8
┌▓È_1
  6
BORDER
 62
     3
 10
625.9397012817999
 20
-228.93391004540001
 30
0.0
 11
608.57025683730001
 21
-228.93391004540001
 31
0.0
  0
LINE
  5
120
  8
┌▓È_1
  6
STITCH
 10
617.36192350399995
 20
-226.43391004540001
 30
0.0
 11
618.36192350399995
 21
-226.43391004540001
 31
0.0
  0
LINE
  5
121
  8
┌▓È_1
  6
STITCH
 10
618.36192350399995
 20
-226.43391004540001
 30
0.0
 11
618.36192350399995
 21
-231.43391004540001
 31
0.0
  0
LINE
  5
122
  8
┌▓È_1
  6
STITCH
 10
617.36192350399995
 20
-231.43391004540001
 30
0.0
 11
617.36192350399995
 21
-226.43391004540001
 31
0.0
  0
LINE
  5
123
  8
┌▓È_1
  6
STITCH
 10
618.36192350399995
 20
-226.43391004540001
 30
0.0
 11
620.11192350400006
 21
-224.68391004540001
 31
0.0
  0
LINE
  5
124
  8
┌▓È_1
  6
STITCH
 10
617.36192350399995
 20
-226.43391004540001
 30
0.0
 11
615.61192350400006
 21
-224.68391004540001
 31
0.0
  0
LINE
  5
125
  8
┌▓È_1
  6
STITCH
 10
617.36192350399995
 20
-231.43391004540001
 30
0.0
 11
615.61192350400006
 21
-233.18391004540001
 31
0.0
  0
LINE
  5
126
  8
┌▓È_1
  6
STITCH
 10
618.36192350399995
 20
-231.43391004540001
 30
0.0
 11
620.11192350400006
 21
-233.18391004540001
 31
0.0
  0
LINE
  5
127
  8
┌▓È_1
  6
STITCH
 10
618.36192350399995
 20
-231.43391004540001
 30
0.0
 11
617.36192350399995
 21
-231.43391004540001
 31
0.0
  0
ENDBLK
  5
128
  8
0
  0
BLOCK
  8
0
  2
*D12
 70
     1
 10
0.0
 20
0.0
 30
0.0
  3
*D12
  1

  0
TEXT
  5
132
  8
0
 62
     0
 10
875.34119936640002
 20
-117.0484935377
 30
0.0
 40
7.4965279578999988
  1
104
 50
90.0
  0
LINE
  5
133
  8
0
 62
     0
 10
904.08552058550015
 20
-70.933910045399983
 30
0.0
 11
877.16411606480006
 21
-70.933910045399983
 31
0.0
  0
LINE
  5
134
  8
0
 62
     0
 10
899.08552058550003
 20
-149.93391004540001
 30
0.0
 11
877.16411606480006
 21
-149.93391004540001
 31
0.0
  0
LINE
  5
135
  8
0
 62
     0
 10
877.66411606479994
 20
-70.933910045399983
 30
0.0
 11
877.66411606479994
 21
-99.409604224899994
 31
0.0
  0
LINE
  5
136
  8
0
 62
     0
 10
877.66411606479994
 20
-70.933910045399983
 30
0.0
 11
877.66411606479994
 21
-121.4582158659
 31
0.0
  0
LINE
  5
137
  8
0
 62
     0
 10
877.66411606479994
 20
-149.93391004540001
 30
0.0
 11
877.66411606479994
 21
-99.409604224899994
 31
0.0
  0
LINE
  5
138
  8
0
 62
     0
 10
877.66411606479994
 20
-149.93391004540001
 30
0.0
 11
877.66411606479994
 21
-121.4582158659
 31
0.0
  0
LINE
  5
139
  8
0
 62
     0
 10
877.66411606479994
 20
-149.93391004540001
 30
0.0
 11
877.66411606479994
 21
-146.93391004540001
 31
0.0
  0
SOLID
  5
13A
  8
0
 62
     0
 10
877.66411606479994
 20
-149.93391004540001
 30
0.0
 11
875.78911606479983
 21
-142.43391004540001
 31
0.0
 12
879.53911606480006
 22
-142.43391004540001
 32
0.0
 13
877.66411606479994
 23
-144.30891004540001
 33
0.0
  0
LINE
  5
13B
  8
0
 62
     0
 10
877.66411606479994
 20
-70.933910045399983
 30
0.0
 11
877.66411606479994
 21
-73.933910045399983
 31
0.0
  0
SOLID
  5
13C
  8
0
 62
     0
 10
877.66411606479994
 20
-70.933910045399983
 30
0.0
 11
879.53911606480006
 21
-78.433910045399983
 31
0.0
 12
875.78911606479983
 22
-78.433910045399983
 32
0.0
 13
877.66411606479994
 23
-76.558910045399983
 33
0.0
  0
ENDBLK
  5
13D
  8
0
  0
BLOCK
  8
0
  2
*D13
 70
     1
 10
0.0
 20
0.0
 30
0.0
  3
*D13
  1

  0
TEXT
  5
141
  8
0
 62
     0
 10
591.99862442029985
 20
-165.54849353770001
 30
0.0
 40
7.4965279578999988
  1
250
 50
90.0
  0
LINE
  5
142
  8
0
 62
     0
 10
614.61192350399995
 20
-58.93391004539999
 30
0.0
 11
593.82154111879993
 21
-58.93391004539999
 31
0.0
  0
LINE
  5
143
  8
0
 62
     0
 10
619.11192350399995
 20
-258.93391004540001
 30
0.0
 11
593.82154111879993
 21
-258.93391004540001
 31
0.0
  0
LINE
  5
144
  8
0
 62
     0
 10
594.32154111879993
 20
-58.93391004539999
 30
0.0
 11
594.32154111879993
 21
-147.90960422489999
 31
0.0
  0
LINE
  5
145
  8
0
 62
     0
 10
594.32154111879993
 20
-58.93391004539999
 30
0.0
 11
594.32154111879993
 21
-169.9582158659
 31
0.0
  0
LINE
  5
146
  8
0
 62
     0
 10
594.32154111879993
 20
-258.93391004540001
 30
0.0
 11
594.32154111879993
 21
-147.90960422489999
 31
0.0
  0
LINE
  5
147
  8
0
 62
     0
 10
594.32154111879993
 20
-258.93391004540001
 30
0.0
 11
594.32154111879993
 21
-169.9582158659
 31
0.0
  0
LINE
  5
148
  8
0
 62
     0
 10
594.32154111879993
 20
-258.93391004540001
 30
0.0
 11
594.32154111879993
 21
-255.93391004540001
 31
0.0
  0
SOLID
  5
149
  8
0
 62
     0
 10
594.32154111879993
 20
-258.93391004540001
 30
0.0
 11
592.44654111879993
 21
-251.43391004540001
 31
0.0
 12
596.19654111879993
 22
-251.43391004540001
 32
0.0
 13
594.32154111879993
 23
-253.30891004540001
 33
0.0
  0
LINE
  5
14A
  8
0
 62
     0
 10
594.32154111879993
 20
-58.93391004539999
 30
0.0
 11
594.32154111879993
 21
-61.933910045399998
 31
0.0
  0
SOLID
  5
14B
  8
0
 62
     0
 10
594.32154111879993
 20
-58.93391004539999
 30
0.0
 11
596.19654111879993
 21
-66.433910045399983
 31
0.0
 12
592.44654111879993
 22
-66.433910045399983
 32
0.0
 13
594.32154111879993
 23
-64.558910045399983
 33
0.0
  0
ENDBLK
  5
14C
  8
0
  0
BLOCK
  8
0
  2
*D14
 70
     1
 10
0.0
 20
0.0
 30
0.0
  3
*D14
  1

  0
TEXT
  5
150
  8
0
 62
     0
 10
757.49734001169986
 20
-345.62948651969998
 30
0.0
 40
7.4965279578999988
  1
104
  0
LINE
  5
151
  8
0
 62
     0
 10
803.61192350399995
 20
-374.91938065550011
 30
0.0
 11
803.61192350399995
 21
-347.4524032182
 31
0.0
  0
LINE
  5
152
  8
0
 62
     0
 10
724.61192350399995
 20
-379.91938065549999
 30
0.0
 11
724.61192350399995
 21
-347.4524032182
 31
0.0
  0
LINE
  5
153
  8
0
 62
     0
 10
803.61192350399995
 20
-347.9524032182
 30
0.0
 11
775.13622932449994
 21
-347.9524032182
 31
0.0
  0
LINE
  5
154
  8
0
 62
     0
 10
803.61192350399995
 20
-347.9524032182
 30
0.0
 11
753.08761768349996
 21
-347.9524032182
 31
0.0
  0
LINE
  5
155
  8
0
 62
     0
 10
724.61192350399995
 20
-347.9524032182
 30
0.0
 11
775.13622932449994
 21
-347.9524032182
 31
0.0
  0
LINE
  5
156
  8
0
 62
     0
 10
724.61192350399995
 20
-347.9524032182
 30
0.0
 11
753.08761768349996
 21
-347.9524032182
 31
0.0
  0
LINE
  5
157
  8
0
 62
     0
 10
724.61192350399995
 20
-347.9524032182
 30
0.0
 11
727.61192350399995
 21
-347.9524032182
 31
0.0
  0
SOLID
  5
158
  8
0
 62
     0
 10
724.61192350399995
 20
-347.9524032182
 30
0.0
 11
732.11192350399995
 21
-346.0774032182
 31
0.0
 12
732.11192350399995
 22
-349.8274032182
 32
0.0
 13
730.23692350399995
 23
-347.9524032182
 33
0.0
  0
LINE
  5
159
  8
0
 62
     0
 10
803.61192350399995
 20
-347.9524032182
 30
0.0
 11
800.61192350399995
 21
-347.9524032182
 31
0.0
  0
SOLID
  5
15A
  8
0
 62
     0
 10
803.61192350399995
 20
-347.9524032182
 30
0.0
 11
796.11192350399995
 21
-349.8274032182
 31
0.0
 12
796.11192350399995
 22
-346.0774032182
 32
0.0
 13
797.98692350399995
 23
-347.9524032182
 33
0.0
  0
ENDBLK
  5
15B
  8
0
  0
BLOCK
  8
0
  2
*D15
 70
     1
 10
0.0
 20
0.0
 30
0.0
  3
*D15
  1

  0
TEXT
  5
15F
  8
0
 62
     0
 10
678.49734001169986
 20
-345.573334176
 30
0.0
 40
7.4965279578999988
  1
104
  0
LINE
  5
160
  8
0
 62
     0
 10
724.61192350399995
 20
-379.91938065549999
 30
0.0
 11
724.61192350399995
 21
-347.39625087439998
 31
0.0
  0
LINE
  5
161
  8
0
 62
     0
 10
645.61192350399995
 20
-369.91938065550011
 30
0.0
 11
645.61192350399995
 21
-347.39625087439998
 31
0.0
  0
LINE
  5
162
  8
0
 62
     0
 10
724.61192350399995
 20
-347.89625087439998
 30
0.0
 11
696.13622932449994
 21
-347.89625087439998
 31
0.0
  0
LINE
  5
163
  8
0
 62
     0
 10
724.61192350399995
 20
-347.89625087439998
 30
0.0
 11
674.08761768349996
 21
-347.89625087439998
 31
0.0
  0
LINE
  5
164
  8
0
 62
     0
 10
645.61192350399995
 20
-347.89625087439998
 30
0.0
 11
696.13622932449994
 21
-347.89625087439998
 31
0.0
  0
LINE
  5
165
  8
0
 62
     0
 10
645.61192350399995
 20
-347.89625087439998
 30
0.0
 11
674.08761768349996
 21
-347.89625087439998
 31
0.0
  0
LINE
  5
166
  8
0
 62
     0
 10
645.61192350399995
 20
-347.89625087439998
 30
0.0
 11
648.61192350399995
 21
-347.89625087439998
 31
0.0
  0
SOLID
  5
167
  8
0
 62
     0
 10
645.61192350399995
 20
-347.89625087439998
 30
0.0
 11
653.11192350400006
 21
-346.02125087439998
 31
0.0
 12
653.11192350400006
 22
-349.7712508744001
 32
0.0
 13
651.23692350399995
 23
-347.89625087439998
 33
0.0
  0
LINE
  5
168
  8
0
 62
     0
 10
724.61192350399995
 20
-347.89625087439998
 30
0.0
 11
721.61192350399995
 21
-347.89625087439998
 31
0.0
  0
SOLID
  5
169
  8
0
 62
     0
 10
724.61192350399995
 20
-347.89625087439998
 30
0.0
 11
717.11192350399995
 21
-349.7712508744001
 31
0.0
 12
717.11192350399995
 22
-346.02125087439998
 32
0.0
 13
718.98692350399995
 23
-347.89625087439998
 33
0.0
  0
ENDBLK
  5
16A
  8
0
  0
BLOCK
  8
0
  2
*D16
 70
     1
 10
0.0
 20
0.0
 30
0.0
  3
*D16
  1

  0
TEXT
  5
16E
  8
0
 62
     0
 10
699.13682581600006
 20
-386.32910298370001
 30
0.0
 40
7.4965279578999988
  1
10
 50
90.0
  0
LINE
  5
16F
  8
0
 62
     0
 10
717.61192350399995
 20
-386.91938065550011
 30
0.0
 11
700.95974251439998
 21
-386.91938065550011
 31
0.0
  0
LINE
  5
170
  8
0
 62
     0
 10
652.61192350399995
 20
-376.91938065550011
 30
0.0
 11
701.95974251439998
 21
-376.91938065550011
 31
0.0
  0
LINE
  5
171
  8
0
 62
     0
 10
701.45974251439998
 20
-386.91938065550011
 30
0.0
 11
701.45974251439998
 21
-386.91938065550011
 31
0.0
  0
LINE
  5
172
  8
0
 62
     0
 10
701.45974251439998
 20
-386.91938065550011
 30
0.0
 11
701.45974251439998
 21
-376.91938065550011
 31
0.0
  0
LINE
  5
173
  8
0
 62
     0
 10
701.45974251439998
 20
-376.91938065550011
 30
0.0
 11
701.45974251439998
 21
-386.91938065550011
 31
0.0
  0
LINE
  5
174
  8
0
 62
     0
 10
701.45974251439998
 20
-376.91938065550011
 30
0.0
 11
701.45974251439998
 21
-376.91938065550011
 31
0.0
  0
LINE
  5
175
  8
0
 62
     0
 10
701.45974251439998
 20
-376.91938065550011
 30
0.0
 11
701.45974251439998
 21
-373.91938065550011
 31
0.0
  0
SOLID
  5
176
  8
0
 62
     0
 10
701.45974251439998
 20
-376.91938065550011
 30
0.0
 11
699.58474251439986
 21
-369.41938065549999
 31
0.0
 12
703.33474251439998
 22
-369.41938065549999
 32
0.0
 13
701.45974251439998
 23
-371.29438065550011
 33
0.0
  0
LINE
  5
177
  8
0
 62
     0
 10
701.45974251439998
 20
-386.91938065550011
 30
0.0
 11
701.45974251439998
 21
-389.91938065549999
 31
0.0
  0
SOLID
  5
178
  8
0
 62
     0
 10
701.45974251439998
 20
-386.91938065550011
 30
0.0
 11
703.33474251439998
 21
-394.41938065549999
 31
0.0
 12
699.58474251439986
 22
-394.41938065549999
 32
0.0
 13
701.45974251439998
 23
-392.54438065550011
 33
0.0
  0
ENDBLK
  5
179
  8
0
  0
BLOCK
  8
0
  2
*D17
 70
     1
 10
0.0
 20
0.0
 30
0.0
  3
*D17
  1

  0
TEXT
  5
17D
  8
0
 62
     0
 10
756.26998163869996
 20
-396.82910298370001
 30
0.0
 40
7.4965279578999988
  1
11
 50
90.0
  0
LINE
  5
17E
  8
0
 62
     0
 10
738.30251595189986
 20
-397.91938065549999
 30
0.0
 11
759.09289833720004
 21
-397.91938065549999
 31
0.0
  0
LINE
  5
17F
  8
0
 62
     0
 10
731.61192350399995
 20
-386.91938065550011
 30
0.0
 11
759.09289833720004
 21
-386.91938065550011
 31
0.0
  0
LINE
  5
180
  8
0
 62
     0
 10
758.59289833720004
 20
-397.91938065549999
 30
0.0
 11
758.59289833720004
 21
-397.91938065549999
 31
0.0
  0
LINE
  5
181
  8
0
 62
     0
 10
758.59289833720004
 20
-397.91938065549999
 30
0.0
 11
758.59289833720004
 21
-386.91938065550011
 31
0.0
  0
LINE
  5
182
  8
0
 62
     0
 10
758.59289833720004
 20
-386.91938065550011
 30
0.0
 11
758.59289833720004
 21
-397.91938065549999
 31
0.0
  0
LINE
  5
183
  8
0
 62
     0
 10
758.59289833720004
 20
-386.91938065550011
 30
0.0
 11
758.59289833720004
 21
-386.91938065550011
 31
0.0
  0
LINE
  5
184
  8
0
 62
     0
 10
758.59289833720004
 20
-386.91938065550011
 30
0.0
 11
758.59289833720004
 21
-383.91938065549999
 31
0.0
  0
SOLID
  5
185
  8
0
 62
     0
 10
758.59289833720004
 20
-386.91938065550011
 30
0.0
 11
756.71789833720004
 21
-379.41938065549999
 31
0.0
 12
760.46789833720004
 22
-379.41938065549999
 32
0.0
 13
758.59289833720004
 23
-381.29438065550011
 33
0.0
  0
LINE
  5
186
  8
0
 62
     0
 10
758.59289833720004
 20
-397.91938065549999
 30
0.0
 11
758.59289833720004
 21
-400.91938065549999
 31
0.0
  0
SOLID
  5
187
  8
0
 62
     0
 10
758.59289833720004
 20
-397.91938065549999
 30
0.0
 11
760.46789833720004
 21
-405.41938065549999
 31
0.0
 12
756.71789833720004
 22
-405.41938065549999
 32
0.0
 13
758.59289833720004
 23
-403.54438065549999
 33
0.0
  0
ENDBLK
  5
188
  8
0
  0
BLOCK
  8
0
  2
*D18
 70
     1
 10
0.0
 20
0.0
 30
0.0
  3
*D18
  1

  0
TEXT
  5
18C
  8
0
 62
     0
 10
675.79944127409988
 20
-375.82910298370001
 30
0.0
 40
7.4965279578999988
  1
11
 50
90.0
  0
LINE
  5
18D
  8
0
 62
     0
 10
652.61192350399995
 20
-376.91938065550011
 30
0.0
 11
678.62235797260007
 21
-376.91938065550011
 31
0.0
  0
LINE
  5
18E
  8
0
 62
     0
 10
657.83197558730001
 20
-365.91938065550011
 30
0.0
 11
678.62235797260007
 21
-365.91938065550011
 31
0.0
  0
LINE
  5
18F
  8
0
 62
     0
 10
678.12235797260007
 20
-376.91938065550011
 30
0.0
 11
678.12235797260007
 21
-376.91938065550011
 31
0.0
  0
LINE
  5
190
  8
0
 62
     0
 10
678.12235797260007
 20
-376.91938065550011
 30
0.0
 11
678.12235797260007
 21
-365.91938065550011
 31
0.0
  0
LINE
  5
191
  8
0
 62
     0
 10
678.12235797260007
 20
-365.91938065550011
 30
0.0
 11
678.12235797260007
 21
-376.91938065550011
 31
0.0
  0
LINE
  5
192
  8
0
 62
     0
 10
678.12235797260007
 20
-365.91938065550011
 30
0.0
 11
678.12235797260007
 21
-365.91938065550011
 31
0.0
  0
LINE
  5
193
  8
0
 62
     0
 10
678.12235797260007
 20
-365.91938065550011
 30
0.0
 11
678.12235797260007
 21
-362.91938065549999
 31
0.0
  0
SOLID
  5
194
  8
0
 62
     0
 10
678.12235797260007
 20
-365.91938065550011
 30
0.0
 11
676.24735797259996
 21
-358.41938065549999
 31
0.0
 12
679.99735797260007
 22
-358.41938065549999
 32
0.0
 13
678.12235797260007
 23
-360.29438065549999
 33
0.0
  0
LINE
  5
195
  8
0
 62
     0
 10
678.12235797260007
 20
-376.91938065550011
 30
0.0
 11
678.12235797260007
 21
-379.91938065549999
 31
0.0
  0
SOLID
  5
196
  8
0
 62
     0
 10
678.12235797260007
 20
-376.91938065550011
 30
0.0
 11
679.99735797260007
 21
-384.41938065550011
 31
0.0
 12
676.24735797259996
 22
-384.41938065550011
 32
0.0
 13
678.12235797260007
 23
-382.54438065549999
 33
0.0
  0
ENDBLK
  5
197
  8
0
  0
BLOCK
  8
0
  2
*D19
 70
     1
 10
0.0
 20
0.0
 30
0.0
  3
*D19
  1

  0
TEXT
  5
19B
  8
0
 62
     0
 10
591.95990524310002
 20
-386.32910298370001
 30
0.0
 40
7.4965279578999988
  1
32
 50
90.0
  0
LINE
  5
19C
  8
0
 62
     0
 10
614.61192350399995
 20
-365.91938065550011
 30
0.0
 11
593.78282194149995
 21
-365.91938065550011
 31
0.0
  0
LINE
  5
19D
  8
0
 62
     0
 10
614.61192350399995
 20
-397.91938065549999
 30
0.0
 11
593.78282194149995
 21
-397.91938065549999
 31
0.0
  0
LINE
  5
19E
  8
0
 62
     0
 10
594.28282194149995
 20
-365.91938065550011
 30
0.0
 11
594.28282194149995
 21
-373.09993599910001
 31
0.0
  0
LINE
  5
19F
  8
0
 62
     0
 10
594.28282194149995
 20
-365.91938065550011
 30
0.0
 11
594.28282194149995
 21
-390.73882531189997
 31
0.0
  0
LINE
  5
1A0
  8
0
 62
     0
 10
594.28282194149995
 20
-397.91938065549999
 30
0.0
 11
594.28282194149995
 21
-373.09993599910001
 31
0.0
  0
LINE
  5
1A1
  8
0
 62
     0
 10
594.28282194149995
 20
-397.91938065549999
 30
0.0
 11
594.28282194149995
 21
-390.73882531189997
 31
0.0
  0
LINE
  5
1A2
  8
0
 62
     0
 10
594.28282194149995
 20
-397.91938065549999
 30
0.0
 11
594.28282194149995
 21
-400.91938065549999
 31
0.0
  0
SOLID
  5
1A3
  8
0
 62
     0
 10
594.28282194149995
 20
-397.91938065549999
 30
0.0
 11
596.15782194150006
 21
-405.41938065549999
 31
0.0
 12
592.40782194149995
 22
-405.41938065549999
 32
0.0
 13
594.28282194149995
 23
-403.54438065549999
 33
0.0
  0
LINE
  5
1A4
  8
0
 62
     0
 10
594.28282194149995
 20
-365.91938065550011
 30
0.0
 11
594.28282194149995
 21
-362.91938065549999
 31
0.0
  0
SOLID
  5
1A5
  8
0
 62
     0
 10
594.28282194149995
 20
-365.91938065550011
 30
0.0
 11
592.40782194149995
 21
-358.41938065549999
 31
0.0
 12
596.15782194150006
 22
-358.41938065549999
 32
0.0
 13
594.28282194149995
 23
-360.29438065549999
 33
0.0
  0
ENDBLK
  5
1A6
  8
0
  0
BLOCK
  8
0
  2
*D20
 70
     1
 10
0.0
 20
0.0
 30
0.0
  3
*D20
  1

  0
TEXT
  5
1AA
  8
0
 62
     0
 10
626.20220117580004
 20
-345.77190188430001
 30
0.0
 40
7.4965279578999988
  1
30
  0
LINE
  5
1AB
  8
0
 62
     0
 10
645.61192350399995
 20
-369.91938065550011
 30
0.0
 11
645.61192350399995
 21
-347.59481858279997
 31
0.0
  0
LINE
  5
1AC
  8
0
 62
     0
 10
615.61192350400006
 20
-364.91938065549999
 30
0.0
 11
615.61192350400006
 21
-347.59481858279997
 31
0.0
  0
LINE
  5
1AD
  8
0
 62
     0
 10
645.61192350399995
 20
-348.09481858279997
 30
0.0
 11
639.43136816039998
 21
-348.09481858279997
 31
0.0
  0
LINE
  5
1AE
  8
0
 62
     0
 10
645.61192350399995
 20
-348.09481858279997
 30
0.0
 11
621.79247884760002
 21
-348.09481858279997
 31
0.0
  0
LINE
  5
1AF
  8
0
 62
     0
 10
615.61192350400006
 20
-348.09481858279997
 30
0.0
 11
639.43136816039998
 21
-348.09481858279997
 31
0.0
  0
LINE
  5
1B0
  8
0
 62
     0
 10
615.61192350400006
 20
-348.09481858279997
 30
0.0
 11
621.79247884760002
 21
-348.09481858279997
 31
0.0
  0
LINE
  5
1B1
  8
0
 62
     0
 10
615.61192350400006
 20
-348.09481858279997
 30
0.0
 11
612.61192350399995
 21
-348.09481858279997
 31
0.0
  0
SOLID
  5
1B2
  8
0
 62
     0
 10
615.61192350400006
 20
-348.09481858279997
 30
0.0
 11
608.11192350399995
 21
-349.96981858279997
 31
0.0
 12
608.11192350399995
 22
-346.21981858279997
 32
0.0
 13
609.98692350399995
 23
-348.09481858279997
 33
0.0
  0
LINE
  5
1B3
  8
0
 62
     0
 10
645.61192350399995
 20
-348.09481858279997
 30
0.0
 11
648.61192350399995
 21
-348.09481858279997
 31
0.0
  0
SOLID
  5
1B4
  8
0
 62
     0
 10
645.61192350399995
 20
-348.09481858279997
 30
0.0
 11
653.11192350400006
 21
-346.21981858279997
 31
0.0
 12
653.11192350400006
 22
-349.96981858279997
 32
0.0
 13
651.23692350399995
 23
-348.09481858279997
 33
0.0
  0
ENDBLK
  5
1B5
  8
0
  0
BLOCK
  8
0
  2
*D21
 70
     1
 10
0.0
 20
0.0
 30
0.0
  3
*D21
  1

  0
TEXT
  5
1B9
  8
0
 62
     0
 10
841.85217564909988
 20
-362.7472995983
 30
0.0
 40
7.4965279578999988
  1
16
 50
90.0
  0
LINE
  5
1BA
  8
0
 62
     0
 10
810.61192350399995
 20
-381.91938065549999
 30
0.0
 11
844.67509234759984
 21
-381.91938065549999
 31
0.0
  0
LINE
  5
1BB
  8
0
 62
     0
 10
816.61192350399995
 20
-365.91938065550011
 30
0.0
 11
844.67509234759984
 21
-365.91938065550011
 31
0.0
  0
LINE
  5
1BC
  8
0
 62
     0
 10
844.17509234759996
 20
-381.91938065549999
 30
0.0
 11
844.17509234759996
 21
-349.5181326137
 31
0.0
  0
LINE
  5
1BD
  8
0
 62
     0
 10
844.17509234759996
 20
-381.91938065549999
 30
0.0
 11
844.17509234759996
 21
-367.15702192650002
 31
0.0
  0
LINE
  5
1BE
  8
0
 62
     0
 10
844.17509234759996
 20
-365.91938065550011
 30
0.0
 11
844.17509234759996
 21
-349.5181326137
 31
0.0
  0
LINE
  5
1BF
  8
0
 62
     0
 10
844.17509234759996
 20
-365.91938065550011
 30
0.0
 11
844.17509234759996
 21
-367.15702192650002
 31
0.0
  0
LINE
  5
1C0
  8
0
 62
     0
 10
844.17509234759996
 20
-365.91938065550011
 30
0.0
 11
844.17509234759996
 21
-368.91938065549999
 31
0.0
  0
SOLID
  5
1C1
  8
0
 62
     0
 10
844.17509234759996
 20
-365.91938065550011
 30
0.0
 11
846.05009234759984
 21
-373.41938065549999
 31
0.0
 12
842.30009234759984
 22
-373.41938065549999
 32
0.0
 13
844.17509234759996
 23
-371.54438065550011
 33
0.0
  0
LINE
  5
1C2
  8
0
 62
     0
 10
844.17509234759996
 20
-381.91938065549999
 30
0.0
 11
844.17509234759996
 21
-378.91938065550011
 31
0.0
  0
SOLID
  5
1C3
  8
0
 62
     0
 10
844.17509234759996
 20
-381.91938065549999
 30
0.0
 11
842.30009234759984
 21
-374.41938065550011
 31
0.0
 12
846.05009234759984
 22
-374.41938065550011
 32
0.0
 13
844.17509234759996
 23
-376.29438065549999
 33
0.0
  0
ENDBLK
  5
1C4
  8
0
  0
BLOCK
  8
0
  2
*D22
 70
     1
 10
0.0
 20
0.0
 30
0.0
  3
*D22
  1

  0
TEXT
  5
1C8
  8
0
 62
     0
 10
841.85217564909988
 20
-410.25634907739999
 30
0.0
 40
7.4965279578999988
  1
16
 50
90.0
  0
LINE
  5
1C9
  8
0
 62
     0
 10
816.61192350399995
 20
-397.91938065549999
 30
0.0
 11
844.67509234759984
 21
-397.91938065549999
 31
0.0
  0
LINE
  5
1CA
  8
0
 62
     0
 10
810.61192350399995
 20
-381.91938065549999
 30
0.0
 11
844.67509234759984
 21
-381.91938065549999
 31
0.0
  0
LINE
  5
1CB
  8
0
 62
     0
 10
844.17509234759996
 20
-397.91938065549999
 30
0.0
 11
844.17509234759996
 21
-397.02718209289998
 31
0.0
  0
LINE
  5
1CC
  8
0
 62
     0
 10
844.17509234759996
 20
-397.91938065549999
 30
0.0
 11
844.17509234759996
 21
-414.66607140559989
 31
0.0
  0
LINE
  5
1CD
  8
0
 62
     0
 10
844.17509234759996
 20
-381.91938065549999
 30
0.0
 11
844.17509234759996
 21
-397.02718209289998
 31
0.0
  0
LINE
  5
1CE
  8
0
 62
     0
 10
844.17509234759996
 20
-381.91938065549999
 30
0.0
 11
844.17509234759996
 21
-414.66607140559989
 31
0.0
  0
LINE
  5
1CF
  8
0
 62
     0
 10
844.17509234759996
 20
-381.91938065549999
 30
0.0
 11
844.17509234759996
 21
-384.91938065550011
 31
0.0
  0
SOLID
  5
1D0
  8
0
 62
     0
 10
844.17509234759996
 20
-381.91938065549999
 30
0.0
 11
846.05009234759984
 21
-389.41938065550011
 31
0.0
 12
842.30009234759984
 22
-389.41938065550011
 32
0.0
 13
844.17509234759996
 23
-387.54438065550011
 33
0.0
  0
LINE
  5
1D1
  8
0
 62
     0
 10
844.17509234759996
 20
-397.91938065549999
 30
0.0
 11
844.17509234759996
 21
-394.91938065550011
 31
0.0
  0
SOLID
  5
1D2
  8
0
 62
     0
 10
844.17509234759996
 20
-397.91938065549999
 30
0.0
 11
842.30009234759984
 21
-390.41938065549999
 31
0.0
 12
846.05009234759984
 22
-390.41938065549999
 32
0.0
 13
844.17509234759996
 23
-392.29438065549999
 33
0.0
  0
ENDBLK
  5
1D3
  8
0
  0
BLOCK
  8
0
  2
*D23
 70
     1
 10
0.0
 20
0.0
 30
0.0
  3
*D23
  1

  0
TEXT
  5
1D7
  8
0
 62
     0
 10
805.20220117579993
 20
-345.77924708389997
 30
0.0
 40
7.4965279578999988
  1
12
  0
LINE
  5
1D8
  8
0
 62
     0
 10
815.61192350399995
 20
-364.91938065549999
 30
0.0
 11
815.61192350399995
 21
-347.60216378230001
 31
0.0
  0
LINE
  5
1D9
  8
0
 62
     0
 10
803.61192350399995
 20
-369.91938065550011
 30
0.0
 11
803.61192350399995
 21
-347.60216378230001
 31
0.0
  0
LINE
  5
1DA
  8
0
 62
     0
 10
815.61192350399995
 20
-348.10216378230001
 30
0.0
 11
815.61192350399995
 21
-348.10216378230001
 31
0.0
  0
LINE
  5
1DB
  8
0
 62
     0
 10
815.61192350399995
 20
-348.10216378230001
 30
0.0
 11
803.61192350399995
 21
-348.10216378230001
 31
0.0
  0
LINE
  5
1DC
  8
0
 62
     0
 10
803.61192350399995
 20
-348.10216378230001
 30
0.0
 11
815.61192350399995
 21
-348.10216378230001
 31
0.0
  0
LINE
  5
1DD
  8
0
 62
     0
 10
803.61192350399995
 20
-348.10216378230001
 30
0.0
 11
803.61192350399995
 21
-348.10216378230001
 31
0.0
  0
LINE
  5
1DE
  8
0
 62
     0
 10
803.61192350399995
 20
-348.10216378230001
 30
0.0
 11
800.61192350399995
 21
-348.10216378230001
 31
0.0
  0
SOLID
  5
1DF
  8
0
 62
     0
 10
803.61192350399995
 20
-348.10216378230001
 30
0.0
 11
796.11192350399995
 21
-349.97716378230001
 31
0.0
 12
796.11192350399995
 22
-346.22716378230001
 32
0.0
 13
797.98692350399995
 23
-348.10216378230001
 33
0.0
  0
LINE
  5
1E0
  8
0
 62
     0
 10
815.61192350399995
 20
-348.10216378230001
 30
0.0
 11
818.61192350399995
 21
-348.10216378230001
 31
0.0
  0
SOLID
  5
1E1
  8
0
 62
     0
 10
815.61192350399995
 20
-348.10216378230001
 30
0.0
 11
823.11192350399995
 21
-346.22716378230001
 31
0.0
 12
823.11192350399995
 22
-349.97716378230001
 32
0.0
 13
821.23692350399983
 23
-348.10216378230001
 33
0.0
  0
ENDBLK
  5
1E2
  8
0
  0
BLOCK
  8
0
  2
*D24
 70
     1
 10
0.0
 20
0.0
 30
0.0
  3
*D24
  1

  0
TEXT
  5
1E6
  8
0
 62
     0
 10
708.99734001169986
 20
-277.90137573219999
 30
0.0
 40
7.4965279578999988
  1
250
  0
LINE
  5
1E7
  8
0
 62
     0
 10
615.61192350400006
 20
-255.43391004540001
 30
0.0
 11
615.61192350400006
 21
-280.72429243059997
 31
0.0
  0
LINE
  5
1E8
  8
0
 62
     0
 10
815.61192350399995
 20
-259.93391004540001
 30
0.0
 11
815.61192350399995
 21
-280.72429243059997
 31
0.0
  0
LINE
  5
1E9
  8
0
 62
     0
 10
615.61192350400006
 20
-280.22429243059997
 30
0.0
 11
726.63622932449994
 21
-280.22429243059997
 31
0.0
  0
LINE
  5
1EA
  8
0
 62
     0
 10
615.61192350400006
 20
-280.22429243059997
 30
0.0
 11
704.58761768349996
 21
-280.22429243059997
 31
0.0
  0
LINE
  5
1EB
  8
0
 62
     0
 10
815.61192350399995
 20
-280.22429243059997
 30
0.0
 11
726.63622932449994
 21
-280.22429243059997
 31
0.0
  0
LINE
  5
1EC
  8
0
 62
     0
 10
815.61192350399995
 20
-280.22429243059997
 30
0.0
 11
704.58761768349996
 21
-280.22429243059997
 31
0.0
  0
LINE
  5
1ED
  8
0
 62
     0
 10
815.61192350399995
 20
-280.22429243059997
 30
0.0
 11
812.61192350399995
 21
-280.22429243059997
 31
0.0
  0
SOLID
  5
1EE
  8
0
 62
     0
 10
815.61192350399995
 20
-280.22429243059997
 30
0.0
 11
808.11192350399995
 21
-282.09929243060009
 31
0.0
 12
808.11192350399995
 22
-278.34929243059997
 32
0.0
 13
809.98692350399995
 23
-280.22429243059997
 33
0.0
  0
LINE
  5
1EF
  8
0
 62
     0
 10
615.61192350400006
 20
-280.22429243059997
 30
0.0
 11
618.61192350399995
 21
-280.22429243059997
 31
0.0
  0
SOLID
  5
1F0
  8
0
 62
     0
 10
615.61192350400006
 20
-280.22429243059997
 30
0.0
 11
623.11192350399995
 21
-278.34929243059997
 31
0.0
 12
623.11192350399995
 22
-282.09929243060009
 32
0.0
 13
621.23692350399995
 23
-280.22429243059997
 33
0.0
  0
ENDBLK
  5
1F1
  8
0
  0
BLOCK
  8
0
  2
*D25
 70
     1
 10
0.0
 20
0.0
 30
0.0
  3
*D25
  1

  0
TEXT
  5
1F6
  8
0
 62
     0
 10
663.73454160480003
 20
-197.5531565636
 30
0.0
 40
7.4965279578999988
  1
90%%d
 50
317.2203351399001
  0
ARC
  5
1F7
  8
0
 62
     0
 10
620.11192350400006
 20
-254.43391004540001
 30
0.0
 40
67.4077180986
 50
81.724352139099992
 51
90.0
  0
ARC
  5
1F8
  8
0
 62
     0
 10
620.11192350400006
 20
-254.43391004540001
 30
0.0
 40
67.4077180986
 50
0.0
 51
8.2756478608999995
  0
SOLID
  5
1F9
  8
0
 62
     0
 10
687.5196416025999
 20
-254.43391004540001
 30
0.0
 11
689.3946416025999
 21
-261.93391004540001
 31
0.0
 12
685.64464160260002
 22
-261.93391004540001
 32
0.0
 13
687.5196416025999
 23
-260.05891004540001
 33
0.0
  0
SOLID
  5
1FA
  8
0
 62
     0
 10
620.11192350400006
 20
-187.0261919468
 30
0.0
 11
612.61192350399995
 21
-188.9011919468
 31
0.0
 12
612.61192350399995
 22
-185.1511919468
 32
0.0
 13
614.48692350399995
 23
-187.0261919468
 33
0.0
  0
ARC
  5
1FB
  8
0
 62
     0
 10
620.11192350400006
 20
-254.43391004540001
 30
0.0
 40
67.4077180986
 50
0.0
 51
37.686973910100001
  0
ARC
  5
1FC
  8
0
 62
     0
 10
620.11192350400006
 20
-254.43391004540001
 30
0.0
 40
67.4077180986
 50
56.753696369700002
 51
90.0
  0
LINE
  5
1FD
  8
0
 62
     0
 10
810.61192350399995
 20
-254.43391004540001
 30
0.0
 11
682.51964160260002
 21
-254.43391004540001
 31
0.0
  0
LINE
  5
1FE
  8
0
 62
     0
 10
620.11192350400006
 20
-63.93391004539999
 30
0.0
 11
620.11192350400006
 21
-192.0261919468
 31
0.0
  0
ENDBLK
  5
1FF
  8
0
  0
BLOCK
  8
0
  2
CLUMP9
 70
     0
 10
0.0
 20
0.0
 30
0.0
  3
CLUMP9
  1

  0
LINE
  5
204
  8
┌▓È_1
  6
STITCH
 10
618.36192350399995
 20
-73.433910045399983
 30
0.0
 11
620.11192350400006
 21
-75.183910045399983
 31
0.0
  0
LINE
  5
205
  8
┌▓È_1
  6
STITCH
 10
617.36192350399995
 20
-73.433910045399983
 30
0.0
 11
615.61192350400006
 21
-75.183910045399983
 31
0.0
  0
LINE
  5
206
  8
┌▓È_1
  6
STITCH
 10
617.36192350399995
 20
-68.433910045399983
 30
0.0
 11
615.61192350400006
 21
-66.683910045399998
 31
0.0
  0
LINE
  5
207
  8
┌▓È_1
  6
STITCH
 10
618.36192350399995
 20
-68.433910045399983
 30
0.0
 11
620.11192350400006
 21
-66.683910045399998
 31
0.0
  0
LINE
  5
208
  8
┌▓È_1
  6
STITCH
 10
617.36192350399995
 20
-73.433910045399983
 30
0.0
 11
617.36192350399995
 21
-68.433910045399983
 31
0.0
  0
LINE
  5
209
  8
┌▓È_1
  6
STITCH
 10
618.36192350399995
 20
-68.433910045399983
 30
0.0
 11
618.36192350399995
 21
-73.433910045399983
 31
0.0
  0
LINE
  5
20A
  8
┌▓È_1
  6
STITCH
 10
617.36192350399995
 20
-68.433910045399983
 30
0.0
 11
618.36192350399995
 21
-68.433910045399983
 31
0.0
  0
LINE
  5
20B
  8
┌▓È_1
  6
STITCH
 10
618.36192350399995
 20
-73.433910045399983
 30
0.0
 11
617.36192350399995
 21
-73.433910045399983
 31
0.0
  0
LINE
  5
20C
  8
┌▓È_1
  6
BORDER
 62
     3
 10
625.9397012817999
 20
-70.933910045399983
 30
0.0
 11
608.57025683730001
 21
-70.933910045399983
 31
0.0
  0
ENDBLK
  5
20D
  8
0
  0
BLOCK
  8
0
  2
CLUMP10
 70
     0
 10
0.0
 20
0.0
 30
0.0
  3
CLUMP10
  1

  0
CIRCLE
  5
213
  8
┌▓È_1
 62
     5
 10
916.08552058550003
 20
-228.93391004540001
 30
0.0
 40
4.25
  0
CIRCLE
  5
214
  8
┌▓È_1
 62
     5
 10
916.08552058550003
 20
-228.93391004540001
 30
0.0
 40
2.5
  0
LINE
  5
215
  8
┌▓È_1
  6
BORDER
 62
     3
 10
922.08552058550003
 20
-228.93391004540001
 30
0.0
 11
910.08552058549992
 21
-228.93391004540001
 31
0.0
  0
LINE
  5
216
  8
┌▓È_1
  6
BORDER
 62
     3
 10
916.08552058550003
 20
-222.93391004540001
 30
0.0
 11
916.08552058550003
 21
-234.93391004540001
 31
0.0
  0
ENDBLK
  5
217
  8
0
  0
BLOCK
  8
0
  2
CLUMP11
 70
     0
 10
0.0
 20
0.0
 30
0.0
  3
CLUMP11
  1

  0
LINE
  5
221
  8
┌▓È_1
  6
STITCH
 10
722.11192350399995
 20
-257.18391004540001
 30
0.0
 11
727.11192350399995
 21
-257.18391004540001
 31
0.0
  0
LINE
  5
222
  8
┌▓È_1
  6
STITCH
 10
727.11192350399995
 20
-256.18391004540001
 30
0.0
 11
722.11192350399995
 21
-256.18391004540001
 31
0.0
  0
LINE
  5
223
  8
┌▓È_1
  6
STITCH
 10
727.11192350399995
 20
-257.18391004540001
 30
0.0
 11
727.11192350399995
 21
-256.18391004540001
 31
0.0
  0
LINE
  5
224
  8
┌▓È_1
  6
STITCH
 10
722.11192350399995
 20
-256.18391004540001
 30
0.0
 11
722.11192350399995
 21
-257.18391004540001
 31
0.0
  0
LINE
  5
225
  8
┌▓È_1
  6
STITCH
 10
722.11192350399995
 20
-256.18391004540001
 30
0.0
 11
720.36192350399995
 21
-254.43391004540001
 31
0.0
  0
LINE
  5
226
  8
┌▓È_1
  6
STITCH
 10
722.11192350399995
 20
-257.18391004540001
 30
0.0
 11
720.36192350399995
 21
-258.93391004540001
 31
0.0
  0
LINE
  5
227
  8
┌▓È_1
  6
STITCH
 10
727.11192350399995
 20
-256.18391004540001
 30
0.0
 11
728.86192350399995
 21
-254.43391004540001
 31
0.0
  0
LINE
  5
228
  8
┌▓È_1
  6
STITCH
 10
727.11192350399995
 20
-257.18391004540001
 30
0.0
 11
728.86192350399995
 21
-258.93391004540001
 31
0.0
  0
LINE
  5
229
  8
┌▓È_1
  6
BORDER
 62
     3
 10
724.61192350399995
 20
-248.6061322676
 30
0.0
 11
724.61192350399995
 21
-265.97557671210001
 31
0.0
  0
ENDBLK
  5
22A
  8
0
  0
BLOCK
  8
0
  2
*D29
 70
     1
 10
0.0
 20
0.0
 30
0.0
  3
*D29
  1

  0
TEXT
  5
22D
  8
0
 62
     0
 10
630.22665047550004
 20
-28.359399482299999
 30
0.0
 40
7.4965279578999988
  1
4.5t
  0
LINE
  5
22E
  8
0
 62
     0
 10
620.11192350400006
 20
-57.933910045399998
 30
0.0
 11
620.11192350400006
 21
-30.182316180800001
 31
0.0
  0
LINE
  5
22F
  8
0
 62
     0
 10
615.61192350400006
 20
-57.933910045399998
 30
0.0
 11
615.61192350400006
 21
-30.182316180800001
 31
0.0
  0
LINE
  5
230
  8
0
 62
     0
 10
620.11192350400006
 20
-30.682316180800001
 30
0.0
 11
652.27526211639986
 21
-30.682316180800001
 31
0.0
  0
LINE
  5
231
  8
0
 62
     0
 10
620.11192350400006
 20
-30.682316180800001
 30
0.0
 11
625.81692814730002
 21
-30.682316180800001
 31
0.0
  0
LINE
  5
232
  8
0
 62
     0
 10
615.61192350400006
 20
-30.682316180800001
 30
0.0
 11
652.27526211639986
 21
-30.682316180800001
 31
0.0
  0
LINE
  5
233
  8
0
 62
     0
 10
615.61192350400006
 20
-30.682316180800001
 30
0.0
 11
625.81692814730002
 21
-30.682316180800001
 31
0.0
  0
LINE
  5
234
  8
0
 62
     0
 10
615.61192350400006
 20
-30.682316180800001
 30
0.0
 11
612.61192350399995
 21
-30.682316180800001
 31
0.0
  0
SOLID
  5
235
  8
0
 62
     0
 10
615.61192350400006
 20
-30.682316180800001
 30
0.0
 11
608.11192350399995
 21
-32.557316180800001
 31
0.0
 12
608.11192350399995
 22
-28.807316180800001
 32
0.0
 13
609.98692350399995
 23
-30.682316180800001
 33
0.0
  0
LINE
  5
236
  8
0
 62
     0
 10
620.11192350400006
 20
-30.682316180800001
 30
0.0
 11
623.11192350399995
 21
-30.682316180800001
 31
0.0
  0
SOLID
  5
237
  8
0
 62
     0
 10
620.11192350400006
 20
-30.682316180800001
 30
0.0
 11
627.61192350399995
 21
-28.807316180800001
 31
0.0
 12
627.61192350399995
 22
-32.557316180800001
 32
0.0
 13
625.73692350399995
 23
-30.682316180800001
 33
0.0
  0
ENDBLK
  5
238
  8
0
  0
BLOCK
  8
0
  2
*D30
 70
     1
 10
0.0
 20
0.0
 30
0.0
  3
*D30
  1

  0
TEXT
  5
249
  8
0
 62
     0
 10
1044.4985110852001
 20
-177.3893650736
 30
0.0
 40
7.4965279578999988
  1
90%%d
  0
ARC
  5
24A
  8
0
 62
     0
 10
1051.1130945775001
 20
-118.37708149309999
 30
0.0
 40
62.981033675799999
 50
306.01032441109999
 51
315.0
  0
ARC
  5
24B
  8
0
 62
     0
 10
1051.1130945775001
 20
-118.37708149309999
 30
0.0
 40
62.981033675799999
 50
225.0
 51
233.98967558890001
  0
SOLID
  5
24C
  8
0
 62
     0
 10
1006.5787785792
 20
-162.91139749140001
 30
0.0
 11
999.94965250550001
 21
-158.93392184730001
 31
0.0
 12
1002.601302935
 22
-156.28227141779999
 32
0.0
 13
1002.601302935
 23
-158.93392184730001
 33
0.0
  0
SOLID
  5
24D
  8
0
 62
     0
 10
1095.6474105757
 20
-162.91139749140001
 30
0.0
 11
1099.6248862199
 21
-156.28227141779999
 31
0.0
 12
1102.2765366494
 22
-158.93392184730001
 32
0.0
 13
1099.6248862199
 23
-158.93392184730001
 33
0.0
  0
ARC
  5
24E
  8
0
 62
     0
 10
1051.1130945775001
 20
-118.37708149309999
 30
0.0
 40
62.981033675799999
 50
225.0
 51
256.8280352411
  0
ARC
  5
24F
  8
0
 62
     0
 10
1051.1130945775001
 20
-118.37708149309999
 30
0.0
 40
62.981033675799999
 50
283.1719647589
 51
315.0
  0
LINE
  5
250
  8
0
 62
     0
 10
1026.852180028
 20
-142.63799604260001
 30
0.0
 11
1003.5678640297
 21
-165.92231204090001
 31
0.0
  0
LINE
  5
251
  8
0
 62
     0
 10
1075.3740091269001
 20
-142.63799604260001
 30
0.0
 11
1098.6583251252
 21
-165.92231204090001
 31
0.0
  0
ENDBLK
  5
252
  8
0
  0
BLOCK
  8
0
  2
*D31
 70
     1
 10
0.0
 20
0.0
 30
0.0
  3
*D31
  1

  0
TEXT
  5
256
  8
0
 62
     0
 10
1040.088788757
 20
-159.3452759898999
 30
0.0
 40
7.4965279578999988
  1
%%c8.5
  0
LINE
  5
257
  8
0
 62
     0
 10
1029.8630945775001
 20
-140.62708149310001
 30
0.0
 11
1029.8630945775001
 21
-162.1681926883
 31
0.0
  0
LINE
  5
258
  8
0
 62
     0
 10
1072.3630945775001
 20
-140.62708149310001
 30
0.0
 11
1072.3630945775001
 21
-162.1681926883
 31
0.0
  0
LINE
  5
259
  8
0
 62
     0
 10
1029.8630945775001
 20
-161.6681926883
 30
0.0
 11
1066.5471227261
 21
-161.6681926883
 31
0.0
  0
LINE
  5
25A
  8
0
 62
     0
 10
1029.8630945775001
 20
-161.6681926883
 30
0.0
 11
1035.6790664288001
 21
-161.6681926883
 31
0.0
  0
LINE
  5
25B
  8
0
 62
     0
 10
1072.3630945775001
 20
-161.6681926883
 30
0.0
 11
1066.5471227261
 21
-161.6681926883
 31
0.0
  0
LINE
  5
25C
  8
0
 62
     0
 10
1072.3630945775001
 20
-161.6681926883
 30
0.0
 11
1035.6790664288001
 21
-161.6681926883
 31
0.0
  0
LINE
  5
25D
  8
0
 62
     0
 10
1072.3630945775001
 20
-161.6681926883
 30
0.0
 11
1075.3630945775001
 21
-161.6681926883
 31
0.0
  0
SOLID
  5
25E
  8
0
 62
     0
 10
1072.3630945775001
 20
-161.6681926883
 30
0.0
 11
1079.8630945775001
 21
-159.7931926883
 31
0.0
 12
1079.8630945775001
 22
-163.5431926883
 32
0.0
 13
1077.9880945775001
 23
-161.6681926883
 33
0.0
  0
LINE
  5
25F
  8
0
 62
     0
 10
1029.8630945775001
 20
-161.6681926883
 30
0.0
 11
1026.8630945775001
 21
-161.6681926883
 31
0.0
  0
SOLID
  5
260
  8
0
 62
     0
 10
1029.8630945775001
 20
-161.6681926883
 30
0.0
 11
1022.3630945775
 21
-163.5431926883
 31
0.0
 12
1022.3630945775
 22
-159.7931926883
 32
0.0
 13
1024.2380945775001
 23
-161.6681926883
 33
0.0
  0
ENDBLK
  5
261
  8
0
  0
BLOCK
  8
0
  2
*D32
 70
     1
 10
0.0
 20
0.0
 30
0.0
  3
*D32
  1

  0
TEXT
  5
265
  8
0
 62
     0
 10
1044.4985110852001
 20
-55.894821829900003
 30
0.0
 40
7.4965279578999988
  1
90%%d
 50
360.0
  0
ARC
  5
266
  8
0
 62
     0
 10
1051.1130945775001
 20
-138.37708149310001
 30
0.0
 40
78.513509567900002
 50
128.08082572000001
 51
135.0
  0
ARC
  5
267
  8
0
 62
     0
 10
1051.1130945775001
 20
-138.37708149310001
 30
0.0
 40
78.513509567900002
 50
45.0
 51
51.91917428
  0
SOLID
  5
268
  8
0
 62
     0
 10
1106.6305296076
 20
-82.859646463000004
 30
0.0
 11
1113.2596556813
 21
-86.837122107099987
 31
0.0
 12
1110.6080052518
 22
-89.488772536599996
 32
0.0
 13
1110.6080052518
 23
-86.837122107099987
 33
0.0
  0
SOLID
  5
269
  8
0
 62
     0
 10
995.59565954729987
 20
-82.859646463000004
 30
0.0
 11
991.61818390309986
 21
-89.488772536599996
 31
0.0
 12
988.96653347359995
 22
-86.837122107099987
 32
0.0
 13
991.61818390309986
 23
-86.837122107099987
 33
0.0
  0
ARC
  5
26A
  8
0
 62
     0
 10
1051.1130945775001
 20
-138.37708149310001
 30
0.0
 40
78.513509567900002
 50
45.0
 51
81.825952235599985
  0
ARC
  5
26B
  8
0
 62
     0
 10
1051.1130945775001
 20
-138.37708149310001
 30
0.0
 40
78.513509567900002
 50
98.174047764400001
 51
135.0
  0
LINE
  5
26C
  8
0
 62
     0
 10
1075.3740091269001
 20
-114.11616694369999
 30
0.0
 11
1109.6414441571001
 21
-79.848731913500004
 31
0.0
  0
LINE
  5
26D
  8
0
 62
     0
 10
1026.852180028
 20
-114.11616694369999
 30
0.0
 11
992.58474499780004
 21
-79.848731913500004
 31
0.0
  0
ENDBLK
  5
26E
  8
0
  0
BLOCK
  8
0
  2
*D33
 70
     1
 10
0.0
 20
0.0
 30
0.0
  3
*D33
  1

  0
TEXT
  5
272
  8
0
 62
     0
 10
1040.088788757
 20
-74.640001632099995
 30
0.0
 40
7.4965279578999988
  1
%%c8.5
  0
LINE
  5
273
  8
0
 62
     0
 10
1072.3630945775001
 20
-116.12708149309999
 30
0.0
 11
1072.3630945775001
 21
-76.462918330500003
 31
0.0
  0
LINE
  5
274
  8
0
 62
     0
 10
1029.8630945775001
 20
-116.12708149309999
 30
0.0
 11
1029.8630945775001
 21
-76.462918330500003
 31
0.0
  0
LINE
  5
275
  8
0
 62
     0
 10
1072.3630945775001
 20
-76.962918330500003
 30
0.0
 11
1066.5471227261
 21
-76.962918330500003
 31
0.0
  0
LINE
  5
276
  8
0
 62
     0
 10
1072.3630945775001
 20
-76.962918330500003
 30
0.0
 11
1035.6790664288001
 21
-76.962918330500003
 31
0.0
  0
LINE
  5
277
  8
0
 62
     0
 10
1029.8630945775001
 20
-76.962918330500003
 30
0.0
 11
1066.5471227261
 21
-76.962918330500003
 31
0.0
  0
LINE
  5
278
  8
0
 62
     0
 10
1029.8630945775001
 20
-76.962918330500003
 30
0.0
 11
1035.6790664288001
 21
-76.962918330500003
 31
0.0
  0
LINE
  5
279
  8
0
 62
     0
 10
1029.8630945775001
 20
-76.962918330500003
 30
0.0
 11
1026.8630945775001
 21
-76.962918330500003
 31
0.0
  0
SOLID
  5
27A
  8
0
 62
     0
 10
1029.8630945775001
 20
-76.962918330500003
 30
0.0
 11
1022.3630945775
 21
-78.837918330500003
 31
0.0
 12
1022.3630945775
 22
-75.087918330500003
 32
0.0
 13
1024.2380945775001
 23
-76.962918330500003
 33
0.0
  0
LINE
  5
27B
  8
0
 62
     0
 10
1072.3630945775001
 20
-76.962918330500003
 30
0.0
 11
1075.3630945775001
 21
-76.962918330500003
 31
0.0
  0
SOLID
  5
27C
  8
0
 62
     0
 10
1072.3630945775001
 20
-76.962918330500003
 30
0.0
 11
1079.8630945775001
 21
-75.087918330500003
 31
0.0
 12
1079.8630945775001
 22
-78.837918330500003
 32
0.0
 13
1077.9880945775001
 23
-76.962918330500003
 33
0.0
  0
ENDBLK
  5
27D
  8
0
  0
BLOCK
  8
0
  2
*D34
 70
     1
 10
0.0
 20
0.0
 30
0.0
  3
*D34
  1

  0
TEXT
  5
281
  8
0
 62
     0
 10
1044.4985110852001
 20
-92.362313232199995
 30
0.0
 40
7.4965279578999988
  1
%%c5
  0
LINE
  5
282
  8
0
 62
     0
 10
1063.6130945775001
 20
-124.87708149309999
 30
0.0
 11
1063.6130945775001
 21
-94.185229930599988
 31
0.0
  0
LINE
  5
283
  8
0
 62
     0
 10
1038.6130945775001
 20
-124.87708149309999
 30
0.0
 11
1038.6130945775001
 21
-94.185229930599988
 31
0.0
  0
LINE
  5
284
  8
0
 62
     0
 10
1063.6130945775001
 20
-94.685229930599974
 30
0.0
 11
1062.1374003978999
 21
-94.685229930599974
 31
0.0
  0
LINE
  5
285
  8
0
 62
     0
 10
1063.6130945775001
 20
-94.685229930599974
 30
0.0
 11
1040.088788757
 21
-94.685229930599974
 31
0.0
  0
LINE
  5
286
  8
0
 62
     0
 10
1038.6130945775001
 20
-94.685229930599974
 30
0.0
 11
1062.1374003978999
 21
-94.685229930599974
 31
0.0
  0
LINE
  5
287
  8
0
 62
     0
 10
1038.6130945775001
 20
-94.685229930599974
 30
0.0
 11
1040.088788757
 21
-94.685229930599974
 31
0.0
  0
LINE
  5
288
  8
0
 62
     0
 10
1038.6130945775001
 20
-94.685229930599974
 30
0.0
 11
1035.6130945775001
 21
-94.685229930599974
 31
0.0
  0
SOLID
  5
289
  8
0
 62
     0
 10
1038.6130945775001
 20
-94.685229930599974
 30
0.0
 11
1031.1130945775001
 21
-96.560229930599974
 31
0.0
 12
1031.1130945775001
 22
-92.810229930599974
 32
0.0
 13
1032.9880945775001
 23
-94.685229930599974
 33
0.0
  0
LINE
  5
28A
  8
0
 62
     0
 10
1063.6130945775001
 20
-94.685229930599974
 30
0.0
 11
1066.6130945775001
 21
-94.685229930599974
 31
0.0
  0
SOLID
  5
28B
  8
0
 62
     0
 10
1063.6130945775001
 20
-94.685229930599974
 30
0.0
 11
1071.1130945775001
 21
-92.810229930599974
 31
0.0
 12
1071.1130945775001
 22
-96.560229930599974
 32
0.0
 13
1069.2380945775001
 23
-94.685229930599974
 33
0.0
  0
ENDBLK
  5
28C
  8
0
  0
BLOCK
  8
0
  2
*D35
 70
     1
 10
0.0
 20
0.0
 30
0.0
  3
*D35
  1

  0
TEXT
  5
290
  8
0
 62
     0
 10
875.20049298619995
 20
-69.56693966520001
 30
0.0
 40
7.4965279578999988
  1
12
 50
90.0
  0
LINE
  5
291
  8
0
 62
     0
 10
894.08552058549992
 20
-58.93391004539999
 30
0.0
 11
877.0234096846001
 21
-58.93391004539999
 31
0.0
  0
LINE
  5
292
  8
0
 62
     0
 10
909.08552058550003
 20
-70.933910045399983
 30
0.0
 11
877.0234096846001
 21
-70.933910045399983
 31
0.0
  0
LINE
  5
293
  8
0
 62
     0
 10
877.52340968459998
 20
-58.93391004539999
 30
0.0
 11
877.52340968459998
 21
-58.93391004539999
 31
0.0
  0
LINE
  5
294
  8
0
 62
     0
 10
877.52340968459998
 20
-58.93391004539999
 30
0.0
 11
877.52340968459998
 21
-70.933910045399983
 31
0.0
  0
LINE
  5
295
  8
0
 62
     0
 10
877.52340968459998
 20
-70.933910045399983
 30
0.0
 11
877.52340968459998
 21
-58.93391004539999
 31
0.0
  0
LINE
  5
296
  8
0
 62
     0
 10
877.52340968459998
 20
-70.933910045399983
 30
0.0
 11
877.52340968459998
 21
-70.933910045399983
 31
0.0
  0
LINE
  5
297
  8
0
 62
     0
 10
877.52340968459998
 20
-70.933910045399983
 30
0.0
 11
877.52340968459998
 21
-73.933910045399983
 31
0.0
  0
SOLID
  5
298
  8
0
 62
     0
 10
877.52340968459998
 20
-70.933910045399983
 30
0.0
 11
879.3984096846001
 21
-78.433910045399983
 31
0.0
 12
875.6484096846001
 22
-78.433910045399983
 32
0.0
 13
877.52340968459998
 23
-76.558910045399983
 33
0.0
  0
LINE
  5
299
  8
0
 62
     0
 10
877.52340968459998
 20
-58.93391004539999
 30
0.0
 11
877.52340968459998
 21
-55.93391004539999
 31
0.0
  0
SOLID
  5
29A
  8
0
 62
     0
 10
877.52340968459998
 20
-58.93391004539999
 30
0.0
 11
875.6484096846001
 21
-51.43391004539999
 31
0.0
 12
879.3984096846001
 22
-51.43391004539999
 32
0.0
 13
877.52340968459998
 23
-53.30891004539999
 33
0.0
  0
ENDBLK
  5
29B
  8
0
  0
BLOCK
  8
0
  2
*D36
 70
     1
 10
0.0
 20
0.0
 30
0.0
  3
*D36
  1

  0
TEXT
  5
29F
  8
0
 62
     0
 10
896.1757982572999
 20
-117.10529673240001
 30
0.0
 40
7.4965279578999988
  1
11
  0
LINE
  5
2A0
  8
0
 62
     0
 10
906.08552058550003
 20
-142.93391004540001
 30
0.0
 11
906.08552058550003
 21
-118.9282134308
 31
0.0
  0
LINE
  5
2A1
  8
0
 62
     0
 10
895.08552058550015
 20
-139.71859581609999
 30
0.0
 11
895.08552058550015
 21
-118.9282134308
 31
0.0
  0
LINE
  5
2A2
  8
0
 62
     0
 10
906.08552058550003
 20
-119.4282134308
 30
0.0
 11
906.08552058550003
 21
-119.4282134308
 31
0.0
  0
LINE
  5
2A3
  8
0
 62
     0
 10
906.08552058550003
 20
-119.4282134308
 30
0.0
 11
895.08552058550015
 21
-119.4282134308
 31
0.0
  0
LINE
  5
2A4
  8
0
 62
     0
 10
895.08552058550015
 20
-119.4282134308
 30
0.0
 11
906.08552058550003
 21
-119.4282134308
 31
0.0
  0
LINE
  5
2A5
  8
0
 62
     0
 10
895.08552058550015
 20
-119.4282134308
 30
0.0
 11
895.08552058550015
 21
-119.4282134308
 31
0.0
  0
LINE
  5
2A6
  8
0
 62
     0
 10
895.08552058550015
 20
-119.4282134308
 30
0.0
 11
892.08552058550003
 21
-119.4282134308
 31
0.0
  0
SOLID
  5
2A7
  8
0
 62
     0
 10
895.08552058550015
 20
-119.4282134308
 30
0.0
 11
887.58552058550003
 21
-121.3032134308
 31
0.0
 12
887.58552058550003
 22
-117.5532134308
 32
0.0
 13
889.46052058550003
 23
-119.4282134308
 33
0.0
  0
LINE
  5
2A8
  8
0
 62
     0
 10
906.08552058550003
 20
-119.4282134308
 30
0.0
 11
909.08552058550003
 21
-119.4282134308
 31
0.0
  0
SOLID
  5
2A9
  8
0
 62
     0
 10
906.08552058550003
 20
-119.4282134308
 30
0.0
 11
913.58552058549992
 21
-117.5532134308
 31
0.0
 12
913.58552058549992
 22
-121.3032134308
 32
0.0
 13
911.71052058550015
 23
-119.4282134308
 33
0.0
  0
ENDBLK
  5
2AA
  8
0
  0
BLOCK
  8
0
  2
*D37
 70
     1
 10
0.0
 20
0.0
 30
0.0
  3
*D37
  1

  0
TEXT
  5
2AE
  8
0
 62
     0
 10
906.3965013822999
 20
-177.21778198219999
 30
0.0
 40
7.4965279578999988
  1
10
  0
LINE
  5
2AF
  8
0
 62
     0
 10
906.08552058550003
 20
-156.93391004540001
 30
0.0
 11
906.08552058550003
 21
-180.0406986806
 31
0.0
  0
LINE
  5
2B0
  8
0
 62
     0
 10
916.08552058550003
 20
-221.93391004540001
 30
0.0
 11
916.08552058550003
 21
-179.0406986806
 31
0.0
  0
LINE
  5
2B1
  8
0
 62
     0
 10
906.08552058550003
 20
-179.5406986806
 30
0.0
 11
906.08552058550003
 21
-179.5406986806
 31
0.0
  0
LINE
  5
2B2
  8
0
 62
     0
 10
906.08552058550003
 20
-179.5406986806
 30
0.0
 11
916.08552058550003
 21
-179.5406986806
 31
0.0
  0
LINE
  5
2B3
  8
0
 62
     0
 10
916.08552058550003
 20
-179.5406986806
 30
0.0
 11
906.08552058550003
 21
-179.5406986806
 31
0.0
  0
LINE
  5
2B4
  8
0
 62
     0
 10
916.08552058550003
 20
-179.5406986806
 30
0.0
 11
916.08552058550003
 21
-179.5406986806
 31
0.0
  0
LINE
  5
2B5
  8
0
 62
     0
 10
916.08552058550003
 20
-179.5406986806
 30
0.0
 11
919.08552058549992
 21
-179.5406986806
 31
0.0
  0
SOLID
  5
2B6
  8
0
 62
     0
 10
916.08552058550003
 20
-179.5406986806
 30
0.0
 11
923.58552058550015
 21
-177.6656986806
 31
0.0
 12
923.58552058550015
 22
-181.4156986806
 32
0.0
 13
921.71052058550003
 23
-179.5406986806
 33
0.0
  0
LINE
  5
2B7
  8
0
 62
     0
 10
906.08552058550003
 20
-179.5406986806
 30
0.0
 11
903.08552058550015
 21
-179.5406986806
 31
0.0
  0
SOLID
  5
2B8
  8
0
 62
     0
 10
906.08552058550003
 20
-179.5406986806
 30
0.0
 11
898.58552058550015
 21
-181.4156986806
 31
0.0
 12
898.58552058550015
 22
-177.6656986806
 32
0.0
 13
900.46052058550003
 23
-179.5406986806
 33
0.0
  0
ENDBLK
  5
2B9
  8
0
  0
BLOCK
  8
0
  2
*D38
 70
     1
 10
0.0
 20
0.0
 30
0.0
  3
*D38
  1

  0
TEXT
  5
2BD
  8
0
 62
     0
 10
917.17579825729979
 20
-199.32061096169991
 30
0.0
 40
7.4965279578999988
  1
11
  0
LINE
  5
2BE
  8
0
 62
     0
 10
927.08552058549992
 20
-221.93391004540001
 30
0.0
 11
927.08552058549992
 21
-201.14352766010001
 31
0.0
  0
LINE
  5
2BF
  8
0
 62
     0
 10
916.08552058550003
 20
-221.93391004540001
 30
0.0
 11
916.08552058550003
 21
-201.14352766010001
 31
0.0
  0
LINE
  5
2C0
  8
0
 62
     0
 10
927.08552058549992
 20
-201.64352766010001
 30
0.0
 11
927.08552058549992
 21
-201.64352766010001
 31
0.0
  0
LINE
  5
2C1
  8
0
 62
     0
 10
927.08552058549992
 20
-201.64352766010001
 30
0.0
 11
916.08552058550003
 21
-201.64352766010001
 31
0.0
  0
LINE
  5
2C2
  8
0
 62
     0
 10
916.08552058550003
 20
-201.64352766010001
 30
0.0
 11
927.08552058549992
 21
-201.64352766010001
 31
0.0
  0
LINE
  5
2C3
  8
0
 62
     0
 10
916.08552058550003
 20
-201.64352766010001
 30
0.0
 11
916.08552058550003
 21
-201.64352766010001
 31
0.0
  0
LINE
  5
2C4
  8
0
 62
     0
 10
916.08552058550003
 20
-201.64352766010001
 30
0.0
 11
913.08552058550003
 21
-201.64352766010001
 31
0.0
  0
SOLID
  5
2C5
  8
0
 62
     0
 10
916.08552058550003
 20
-201.64352766010001
 30
0.0
 11
908.58552058550015
 21
-203.51852766010001
 31
0.0
 12
908.58552058550015
 22
-199.76852766010001
 32
0.0
 13
910.46052058549992
 23
-201.64352766010001
 33
0.0
  0
LINE
  5
2C6
  8
0
 62
     0
 10
927.08552058549992
 20
-201.64352766010001
 30
0.0
 11
930.08552058550003
 21
-201.64352766010001
 31
0.0
  0
SOLID
  5
2C7
  8
0
 62
     0
 10
927.08552058549992
 20
-201.64352766010001
 30
0.0
 11
934.58552058550003
 21
-199.76852766010001
 31
0.0
 12
934.58552058550003
 22
-203.51852766010001
 32
0.0
 13
932.71052058550003
 23
-201.64352766010001
 33
0.0
  0
ENDBLK
  5
2C8
  8
0
  0
BLOCK
  8
0
  2
*D39
 70
     1
 10
0.0
 20
0.0
 30
0.0
  3
*D39
  1

  0
TEXT
  5
2CC
  8
0
 62
     0
 10
875.28341941849999
 20
-248.3436323736
 30
0.0
 40
7.4965279578999988
  1
30
 50
90.0
  0
LINE
  5
2CD
  8
0
 62
     0
 10
909.08552058550003
 20
-228.93391004540001
 30
0.0
 11
877.10633611690002
 21
-228.93391004540001
 31
0.0
  0
LINE
  5
2CE
  8
0
 62
     0
 10
894.08552058549992
 20
-258.93391004540001
 30
0.0
 11
877.10633611690002
 21
-258.93391004540001
 31
0.0
  0
LINE
  5
2CF
  8
0
 62
     0
 10
877.60633611690014
 20
-228.93391004540001
 30
0.0
 11
877.60633611690014
 21
-235.114465389
 31
0.0
  0
LINE
  5
2D0
  8
0
 62
     0
 10
877.60633611690014
 20
-228.93391004540001
 30
0.0
 11
877.60633611690014
 21
-252.75335470179999
 31
0.0
  0
LINE
  5
2D1
  8
0
 62
     0
 10
877.60633611690014
 20
-258.93391004540001
 30
0.0
 11
877.60633611690014
 21
-235.114465389
 31
0.0
  0
LINE
  5
2D2
  8
0
 62
     0
 10
877.60633611690014
 20
-258.93391004540001
 30
0.0
 11
877.60633611690014
 21
-252.75335470179999
 31
0.0
  0
LINE
  5
2D3
  8
0
 62
     0
 10
877.60633611690014
 20
-258.93391004540001
 30
0.0
 11
877.60633611690014
 21
-261.93391004540001
 31
0.0
  0
SOLID
  5
2D4
  8
0
 62
     0
 10
877.60633611690014
 20
-258.93391004540001
 30
0.0
 11
879.48133611690002
 21
-266.43391004540001
 31
0.0
 12
875.73133611690002
 22
-266.43391004540001
 32
0.0
 13
877.60633611690014
 23
-264.55891004540001
 33
0.0
  0
LINE
  5
2D5
  8
0
 62
     0
 10
877.60633611690014
 20
-228.93391004540001
 30
0.0
 11
877.60633611690014
 21
-225.93391004540001
 31
0.0
  0
SOLID
  5
2D6
  8
0
 62
     0
 10
877.60633611690014
 20
-228.93391004540001
 30
0.0
 11
875.73133611690002
 21
-221.43391004540001
 31
0.0
 12
879.48133611690002
 22
-221.43391004540001
 32
0.0
 13
877.60633611690014
 23
-223.30891004540001
 33
0.0
  0
ENDBLK
  5
2D7
  8
0
  0
BLOCK
  8
0
  2
*D40
 70
     1
 10
0.0
 20
0.0
 30
0.0
  3
*D40
  1

  0
TEXT
  5
2DB
  8
0
 62
     0
 10
875.28700014759988
 20
-196.04849353770001
 30
0.0
 40
7.4965279578999988
  1
104
 50
90.0
  0
LINE
  5
2DC
  8
0
 62
     0
 10
899.08552058550003
 20
-149.93391004540001
 30
0.0
 11
877.10991684609985
 21
-149.93391004540001
 31
0.0
  0
LINE
  5
2DD
  8
0
 62
     0
 10
909.08552058550003
 20
-228.93391004540001
 30
0.0
 11
877.10991684609985
 21
-228.93391004540001
 31
0.0
  0
LINE
  5
2DE
  8
0
 62
     0
 10
877.60991684609996
 20
-149.93391004540001
 30
0.0
 11
877.60991684609996
 21
-178.40960422489999
 31
0.0
  0
LINE
  5
2DF
  8
0
 62
     0
 10
877.60991684609996
 20
-149.93391004540001
 30
0.0
 11
877.60991684609996
 21
-200.4582158659
 31
0.0
  0
LINE
  5
2E0
  8
0
 62
     0
 10
877.60991684609996
 20
-228.93391004540001
 30
0.0
 11
877.60991684609996
 21
-178.40960422489999
 31
0.0
  0
LINE
  5
2E1
  8
0
 62
     0
 10
877.60991684609996
 20
-228.93391004540001
 30
0.0
 11
877.60991684609996
 21
-200.4582158659
 31
0.0
  0
LINE
  5
2E2
  8
0
 62
     0
 10
877.60991684609996
 20
-228.93391004540001
 30
0.0
 11
877.60991684609996
 21
-225.93391004540001
 31
0.0
  0
SOLID
  5
2E3
  8
0
 62
     0
 10
877.60991684609996
 20
-228.93391004540001
 30
0.0
 11
875.73491684609985
 21
-221.43391004540001
 31
0.0
 12
879.48491684609985
 22
-221.43391004540001
 32
0.0
 13
877.60991684609996
 23
-223.30891004540001
 33
0.0
  0
LINE
  5
2E4
  8
0
 62
     0
 10
877.60991684609996
 20
-149.93391004540001
 30
0.0
 11
877.60991684609996
 21
-152.93391004540001
 31
0.0
  0
SOLID
  5
2E5
  8
0
 62
     0
 10
877.60991684609996
 20
-149.93391004540001
 30
0.0
 11
879.48491684609985
 21
-157.43391004540001
 31
0.0
 12
875.73491684609985
 22
-157.43391004540001
 32
0.0
 13
877.60991684609996
 23
-155.55891004540001
 33
0.0
  0
ENDBLK
  5
2E6
  8
0
  0
BLOCK
  8
0
  2
*U41
 70
     1
 10
0.0
 20
0.0
 30
0.0
  3
*U41
  1

  0
TEXT
  5
301
  8
┌▓È_1
  6
CONTINUOUS
 62
     5
 10
895.0810847555224
 20
-414.68763381679997
 30
0.0
 40
5.84375
  1
H16.4
  0
ENDBLK
  5
303
  8
0
  0
BLOCK
  8
0
  2
*U42
 70
     1
 10
0.0
 20
0.0
 30
0.0
  3
*U42
  1

  0
TEXT
  5
305
  8
┌▓È_1
  6
CONTINUOUS
 10
1046.8442147349999
 20
-446.69803321900253
 30
0.0
 40
5.84375
  1
É}öÈ
  0
ENDBLK
  5
307
  8
0
  0
BLOCK
  8
0
  2
*U43
 70
     1
 10
0.0
 20
0.0
 30
0.0
  3
*U43
  1

  0
TEXT
  5
309
  8
┌▓È_1
  6
CONTINUOUS
 10
1046.8442147349999
 20
-425.50736063017001
 30
0.0
 40
5.84375
  1
òiû╝
  0
ENDBLK
  5
30B
  8
0
  0
BLOCK
  8
0
  2
*U44
 70
     1
 10
0.0
 20
0.0
 30
0.0
  3
*U44
  1

  0
TEXT
  5
30D
  8
┌▓È_1
  6
CONTINUOUS
 10
1046.8442147349999
 20
-404.19803321900253
 30
0.0
 40
5.84375
  1
î^öÈ
  0
ENDBLK
  5
30F
  8
0
  0
BLOCK
  8
0
  2
*U45
 70
     1
 10
0.0
 20
0.0
 30
0.0
  3
*U45
  1

  0
TEXT
  5
311
  8
┌▓È_1
  6
CONTINUOUS
 10
885.78143062890001
 20
-404.181288639135
 30
0.0
 40
5.84375
  1
ü@ô· ü@òt
  0
ENDBLK
  5
313
  8
0
  0
BLOCK
  8
0
  2
*U46
 70
     1
 10
0.0
 20
0.0
 30
0.0
  3
*U46
  1

  0
TEXT
  5
315
  8
┌▓È_1
  6
CONTINUOUS
 10
884.61796610070007
 20
-436.29359828380512
 30
0.0
 40
5.84375
  1
 É╗É}ü@ü@ è¦û{
  0
ENDBLK
  5
317
  8
0
  0
BLOCK
  8
0
  2
*U47
 70
     1
 10
0.0
 20
0.0
 30
0.0
  3
*U47
  1

  0
TEXT
  5
319
  8
┌▓È_1
  6
CONTINUOUS
 10
884.61796610070007
 20
-425.63893457822132
 30
0.0
 40
5.84375
  1
 É¦îvü@ü@öÆÉ{ëÛ
  0
ENDBLK
  5
31B
  8
0
  0
BLOCK
  8
0
  2
*U48
 70
     1
 10
0.0
 20
0.0
 30
0.0
  3
*U48
  1

  0
TEXT
  5
31D
  8
┌▓È_1
  6
CONTINUOUS
 10
1005.7814306289
 20
-404.38893457822132
 30
0.0
 40
5.84375
  1
ü@îƒ ü@ê¾
  0
ENDBLK
  5
31F
  8
0
  0
BLOCK
  8
0
  2
*U49
 70
     1
 10
0.0
 20
0.0
 30
0.0
  3
*U49
  1

  0
TEXT
  5
321
  8
┌▓È_1
  6
CONTINUOUS
 10
965.7814306288999
 20
-425.60927087263758
 30
0.0
 40
5.84375
  1
ü@Ä┌ ü@ôx
  0
ENDBLK
  5
323
  8
0
  0
BLOCK
  8
0
  2
*U50
 70
     1
 10
0.0
 20
0.0
 30
0.0
  3
*U50
  1

  0
TEXT
  5
325
  8
┌▓È_1
  6
CONTINUOUS
 10
965.7814306288999
 20
-404.38893457822132
 30
0.0
 40
5.84375
  1
ü@ö┬ ü@î·
  0
ENDBLK
  5
327
  8
0
  0
BLOCK
  8
0
  2
*U51
 70
     1
 10
0.0
 20
0.0
 30
0.0
  3
*U51
  1

  0
TEXT
  5
329
  8
┌▓È_1
  6
CONTINUOUS
 10
925.78143062890013
 20
-404.27027975588629
 30
0.0
 40
5.84375
  1
ü@ìÌ ü@Ä┐
  0
ENDBLK
  5
32B
  8
0
  0
BLOCK
  8
0
  2
*U52
 70
     1
 10
0.0
 20
0.0
 30
0.0
  3
*U52
  1

  0
TEXT
  5
32D
  8
┌▓È_1
  6
CONTINUOUS
 62
     5
 10
973.07878462861879
 20
-435.93763381679997
 30
0.0
 40
5.84375
  1
1üF2.5
  0
ENDBLK
  5
32F
  8
0
  0
BLOCK
  8
0
  2
*U53
 70
     1
 10
0.0
 20
0.0
 30
0.0
  3
*U53
  1

  0
TEXT
  5
331
  8
┌▓È_1
  6
CONTINUOUS
 62
     5
 10
977.12788044080162
 20
-414.68763381679997
 30
0.0
 40
5.84375
  1
4.5t
  0
ENDBLK
  5
333
  8
0
  0
BLOCK
  8
0
  2
*U54
 70
     1
 10
0.0
 20
0.0
 30
0.0
  3
*U54
  1

  0
TEXT
  5
335
  8
┌▓È_1
  6
CONTINUOUS
 62
     5
 10
941.11764884181684
 20
-415.04359828380512
 30
0.0
 40
5.84375
  1
ôS
  0
ENDBLK
  5
337
  8
0
  0
BLOCK
  8
0
  2
*U55
 70
     1
 10
0.0
 20
0.0
 30
0.0
  3
*U55
  1

  0
TEXT
  5
339
  8
┌▓È_1
  6
CONTINUOUS
 10
1083.1308367705001
 20
-433.47753132490863
 30
0.0
 40
8.9958328605000002
  1
ékî^âAâôâOâï
  0
ENDBLK
  5
33B
  8
0
  0
BLOCK
  8
0
  2
*U56
 70
     1
 10
0.0
 20
0.0
 30
0.0
  3
*U56
  1

  0
TEXT
  5
33D
  8
┌▓È_1
  6
CONTINUOUS
 10
902.66935041270006
 20
-454.58614995801059
 30
0.0
 40
10.794999837900001
  1
èöÄ«ë´Äð
  0
ENDBLK
  5
33F
  8
0
  0
BLOCK
  8
0
  2
*U57
 70
     1
 10
0.0
 20
0.0
 30
0.0
  3
*U57
  1

  0
TEXT
  5
341
  8
┌▓È_1
  6
CONTINUOUS
 10
884.61796610070007
 20
-392.90206454142231
 30
0.0
 40
8.9958328605000002
  1
ò\û╩ÅêùØüFâåâjâNâìâüâbâLÄdÅÒé░
  0
ENDBLK
  5
343
  8
0
  0
BLOCK
  8
0
  2
*U58
 70
     1
 10
0.0
 20
0.0
 30
0.0
  3
*U58
  1

  0
TEXT
  5
345
  8
┌▓È_1
  6
CONTINUOUS
 10
1075.103772056859
 20
-411.37920224269988
 30
0.0
 40
8.9958328605000002
  1
LY-201  250x250
  0
ENDBLK
  5
347
  8
0
  0
BLOCK
  8
0
  2
*D59
 70
     1
 10
0.0
 20
0.0
 30
0.0
  3
*D59
  1

  0
LINE
  5
34A
  8
Éíû@É³
 62
     0
 10
815.54942350399995
 20
-254.4339100454001
 30
0.0
 11
686.26964160256659
 21
-254.4339100454001
 31
0.0
  0
LINE
  5
34B
  8
Éíû@É³
 62
     0
 10
620.11192350400006
 20
-58.996410045400012
 30
0.0
 11
620.11192350399995
 21
-188.27619194683331
 31
0.0
  0
ARC
  5
34C
  8
Éíû@É³
 62
     0
 10
620.11192350399995
 20
-254.43391004540001
 30
0.0
 40
67.407718098566548
 50
6.3782059669768687
 51
37.432152095878251
  0
ARC
  5
34D
  8
Éíû@É³
 62
     0
 10
620.11192350399995
 20
-254.43391004540001
 30
0.0
 40
67.407718098566548
 50
57.008518183908372
 51
83.621794033023093
  0
SOLID
  5
34E
  8
Éíû@É³
 62
     0
 10
688.35046871812551
 20
-246.87598531012691
 30
0.0
 11
685.85434031124987
 21
-247.01506433941989
 31
0.0
 12
687.51964160256648
 22
-254.43391004540001
 32
0.0
 13
687.51964160256648
 23
-254.43391004540001
 33
0.0
  0
SOLID
  5
34F
  8
Éíû@É³
 62
     0
 10
627.53076920998012
 20
-188.69149323814989
 30
0.0
 11
627.66984823927305
 21
-186.19536483127439
 31
0.0
 12
620.11192350400006
 22
-187.02619194683339
 32
0.0
 13
620.11192350400006
 23
-187.02619194683339
 33
0.0
  0
TEXT
  8
Éíû@É³
  40
7.49653
  5
377
  62
0
  72
0
  71
0
 10
650.901
 20
-218.227
 30
0.000000
  1
90üï
  0
POINT
  5
351
  8
Defpoints
 62
     0
 10
620.11192350399995
 20
-254.43391004540001
 30
0.0
  0
POINT
  5
352
  8
Defpoints
 62
     0
 10
815.61192350399995
 20
-254.4339100454001
 30
0.0
  0
POINT
  5
353
  8
Defpoints
 62
     0
 10
620.11192350400006
 20
-58.933910045399962
 30
0.0
  0
POINT
  5
354
  8
Defpoints
 62
     0
 10
678.48871978849866
 20
-220.73005099611669
 30
0.0
  0
ENDBLK
  5
356
  8
0
  0
BLOCK
  8
0
  2
*U60
 70
     1
 10
0.0
 20
0.0
 30
0.0
  3
*U60
  1

  0
TEXT
  5
358
  8
┌▓È_1
  6
CONTINUOUS
 10
1019.350966865543
 20
-204.60309738930661
 30
0.0
 40
7.4965279578999988
  1
ÄMâéâ~òöègæÕÉ}
  0
ENDBLK
  5
35A
  8
0
  0
BLOCK
  8
0
  2
*D61
 70
     1
 10
0.0
 20
0.0
 30
0.0
  3
*D61
  1

  0
LINE
  5
35C
  8
Éíû@É³
 62
     0
 10
1029.288570317776
 20
-140.20160575282409
 30
0.0
 11
1005.69489510272
 21
-163.79528096787959
 31
0.0
  0
LINE
  5
35D
  8
Éíû@É³
 62
     0
 10
1072.9376188371241
 20
-140.20160575282421
 30
0.0
 11
1096.5312940521751
 21
-163.7952809679839
 31
0.0
  0
ARC
  5
35E
  8
Éíû@É³
 62
     0
 10
1051.1130945775001
 20
-118.37708149309999
 30
0.0
 40
62.981033675799992
 50
231.82701814704731
 51
259.5163276370306
  0
ARC
  5
35F
  8
Éíû@É³
 62
     0
 10
1051.1130945775001
 20
-118.37708149309999
 30
0.0
 40
62.981033675799992
 50
280.48367236296929
 51
308.17298185282112
  0
SOLID
  5
360
  8
Éíû@É³
 62
     0
 10
1011.35875079506
 20
-168.8244648523891
 30
0.0
 11
1013.018125495066
 21
-166.95457833043591
 31
0.0
 12
1006.578778579203
 22
-162.9113974913964
 32
0.0
 13
1006.578778579203
 23
-162.9113974913964
 33
0.0
  0
SOLID
  5
361
  8
Éíû@É³
 62
     0
 10
1089.208063659823
 20
-166.9545783305235
 30
0.0
 11
1090.8674383598241
 21
-168.8244648524805
 31
0.0
 12
1095.647410575694
 22
-162.91139749149869
 32
0.0
 13
1095.647410575694
 23
-162.91139749149869
 33
0.0
  0
TEXT
  8
Éíû@É³
  40
7.49653
  5
378
  62
0
  72
0
  71
0
 10
1036.12
 20
-194.627
 30
0.000000
  1
90üï
  0
POINT
  5
363
  8
Defpoints
 62
     0
 10
1051.1130945775001
 20
-118.37708149309999
 30
0.0
  0
POINT
  5
364
  8
Defpoints
 62
     0
 10
1029.3327644916001
 20
-140.15741157900001
 30
0.0
  0
POINT
  5
365
  8
Defpoints
 62
     0
 10
1072.8934246633
 20
-140.15741157900001
 30
0.0
  0
POINT
  5
366
  8
Defpoints
 62
     0
 10
1034.812403581913
 20
-179.21208848692419
 30
0.0
  0
ENDBLK
  5
368
  8
0
  0
BLOCK
  8
0
  2
*D62
 70
     1
 10
0.0
 20
0.0
 30
0.0
  3
*D62
  1

  0
LINE
  5
36A
  8
Éíû@É³
 62
     0
 10
1072.9376188371241
 20
-116.5525572334758
 30
0.0
 11
1107.514413084129
 21
-81.975762986470485
 31
0.0
  0
LINE
  5
36B
  8
Éíû@É³
 62
     0
 10
1029.288570317776
 20
-116.55255723347589
 30
0.0
 11
994.71177607074117
 21
-81.975762986600003
 31
0.0
  0
ARC
  5
36C
  8
Éíû@É³
 62
     0
 10
1051.1130945775001
 20
-138.37708149310001
 30
0.0
 40
78.513509567800014
 50
50.475260238524093
 51
81.607197524781199
  0
ARC
  5
36D
  8
Éíû@É³
 62
     0
 10
1051.1130945775001
 20
-138.37708149310001
 30
0.0
 40
78.513509567800014
 50
98.392802475218772
 51
129.52473976160749
  0
SOLID
  5
36E
  8
Éíû@É³
 62
     0
 10
1101.9206407379311
 20
-76.890605766582695
 30
0.0
 11
1100.239324234768
 21
-78.740788140348243
 31
0.0
 12
1106.6305296076459
 22
-82.859646462953677
 32
0.0
 13
1106.6305296076459
 23
-82.859646462953677
 33
0.0
  0
SOLID
  5
36F
  8
Éíû@É³
 62
     0
 10
1001.9868649200949
 20
-78.740788140461063
 30
0.0
 11
1000.305548416928
 21
-76.890605766699395
 31
0.0
 12
995.59565954722632
 22
-82.859646463081162
 32
0.0
 13
995.59565954722632
 23
-82.859646463081162
 33
0.0
  0
TEXT
  8
Éíû@É³
  40
7.49653
  5
379
  62
0
  72
0
  71
0
 10
1036.12
 20
-73.1324
 30
0.000000
  1
90üï
  0
POINT
  5
371
  8
Defpoints
 62
     0
 10
1051.1130945775001
 20
-138.37708149310001
 30
0.0
  0
POINT
  5
372
  8
Defpoints
 62
     0
 10
1072.8934246633
 20
-116.5967514073
 30
0.0
  0
POINT
  5
373
  8
Defpoints
 62
     0
 10
1029.3327644916001
 20
-116.5967514073
 30
0.0
  0
POINT
  5
374
  8
Defpoints
 62
     0
 10
1071.433886151427
 20
-62.538854888952542
 30
0.0
  0
ENDBLK
  5
376
  8
0
  0
ENDSEC
  0
SECTION
  2
ENTITIES
  0
POLYLINE
  8
┌▓È_1
  5
37A
  62
5
  66
     1
 10
0.000000
 20
0.000000
 30
0.000000
  70
     8
  0
VERTEX
  8
┌▓È_1
  5
37B
 10
999.301
 20
-448.160
 30
0.000000
  70
    32
  0
VERTEX
  8
┌▓È_1
  5
37C
 10
999.314
 20
-448.175
 30
0.000000
  70
    32
  0
VERTEX
  8
┌▓È_1
  5
37D
 10
999.327
 20
-448.190
 30
0.000000
  70
    32
  0
VERTEX
  8
┌▓È_1
  5
37E
 10
999.340
 20
-448.204
 30
0.000000
  70
    32
  0
VERTEX
  8
┌▓È_1
  5
37F
 10
999.354
 20
-448.219
 30
0.000000
  70
    32
  0
VERTEX
  8
┌▓È_1
  5
380
 10
999.367
 20
-448.234
 30
0.000000
  70
    32
  0
VERTEX
  8
┌▓È_1
  5
381
 10
999.380
 20
-448.249
 30
0.000000
  70
    32
  0
VERTEX
  8
┌▓È_1
  5
382
 10
999.393
 20
-448.263
 30
0.000000
  70
    32
  0
VERTEX
  8
┌▓È_1
  5
383
 10
999.406
 20
-448.278
 30
0.000000
  70
    32
  0
VERTEX
  8
┌▓È_1
  5
384
 10
999.420
 20
-448.293
 30
0.000000
  70
    32
  0
VERTEX
  8
┌▓È_1
  5
385
 10
999.433
 20
-448.307
 30
0.000000
  70
    32
  0
VERTEX
  8
┌▓È_1
  5
386
 10
999.446
 20
-448.322
 30
0.000000
  70
    32
  0
VERTEX
  8
┌▓È_1
  5
387
 10
999.459
 20
-448.337
 30
0.000000
  70
    32
  0
VERTEX
  8
┌▓È_1
  5
388
 10
999.472
 20
-448.352
 30
0.000000
  70
    32
  0
VERTEX
  8
┌▓È_1
  5
389
 10
999.486
 20
-448.366
 30
0.000000
  70
    32
  0
VERTEX
  8
┌▓È_1
  5
38A
 10
999.499
 20
-448.381
 30
0.000000
  70
    32
  0
VERTEX
  8
┌▓È_1
  5
38B
 10
999.512
 20
-448.396
 30
0.000000
  70
    32
  0
VERTEX
  8
┌▓È_1
  5
38C
 10
999.525
 20
-448.410
 30
0.000000
  70
    32
  0
VERTEX
  8
┌▓È_1
  5
38D
 10
999.539
 20
-448.425
 30
0.000000
  70
    32
  0
VERTEX
  8
┌▓È_1
  5
38E
 10
999.552
 20
-448.440
 30
0.000000
  70
    32
  0
VERTEX
  8
┌▓È_1
  5
38F
 10
999.565
 20
-448.454
 30
0.000000
  70
    32
  0
VERTEX
  8
┌▓È_1
  5
390
 10
999.578
 20
-448.469
 30
0.000000
  70
    32
  0
VERTEX
  8
┌▓È_1
  5
391
 10
999.591
 20
-448.484
 30
0.000000
  70
    32
  0
VERTEX
  8
┌▓È_1
  5
392
 10
999.605
 20
-448.498
 30
0.000000
  70
    32
  0
VERTEX
  8
┌▓È_1
  5
393
 10
999.618
 20
-448.513
 30
0.000000
  70
    32
  0
VERTEX
  8
┌▓È_1
  5
394
 10
999.631
 20
-448.528
 30
0.000000
  70
    32
  0
VERTEX
  8
┌▓È_1
  5
395
 10
999.644
 20
-448.542
 30
0.000000
  70
    32
  0
VERTEX
  8
┌▓È_1
  5
396
 10
999.658
 20
-448.557
 30
0.000000
  70
    32
  0
VERTEX
  8
┌▓È_1
  5
397
 10
999.671
 20
-448.572
 30
0.000000
  70
    32
  0
VERTEX
  8
┌▓È_1
  5
398
 10
999.684
 20
-448.586
 30
0.000000
  70
    32
  0
VERTEX
  8
┌▓È_1
  5
399
 10
999.697
 20
-448.601
 30
0.000000
  70
    32
  0
VERTEX
  8
┌▓È_1
  5
39A
 10
999.711
 20
-448.615
 30
0.000000
  70
    32
  0
VERTEX
  8
┌▓È_1
  5
39B
 10
999.724
 20
-448.630
 30
0.000000
  70
    32
  0
VERTEX
  8
┌▓È_1
  5
39C
 10
999.737
 20
-448.645
 30
0.000000
  70
    32
  0
VERTEX
  8
┌▓È_1
  5
39D
 10
999.750
 20
-448.659
 30
0.000000
  70
    32
  0
VERTEX
  8
┌▓È_1
  5
39E
 10
999.764
 20
-448.674
 30
0.000000
  70
    32
  0
VERTEX
  8
┌▓È_1
  5
39F
 10
999.777
 20
-448.688
 30
0.000000
  70
    32
  0
VERTEX
  8
┌▓È_1
  5
3A0
 10
999.790
 20
-448.703
 30
0.000000
  70
    32
  0
VERTEX
  8
┌▓È_1
  5
3A1
 10
999.804
 20
-448.718
 30
0.000000
  70
    32
  0
VERTEX
  8
┌▓È_1
  5
3A2
 10
999.817
 20
-448.732
 30
0.000000
  70
    32
  0
VERTEX
  8
┌▓È_1
  5
3A3
 10
999.830
 20
-448.747
 30
0.000000
  70
    32
  0
VERTEX
  8
┌▓È_1
  5
3A4
 10
999.844
 20
-448.761
 30
0.000000
  70
    32
  0
VERTEX
  8
┌▓È_1
  5
3A5
 10
999.857
 20
-448.776
 30
0.000000
  70
    32
  0
VERTEX
  8
┌▓È_1
  5
3A6
 10
999.870
 20
-448.790
 30
0.000000
  70
    32
  0
VERTEX
  8
┌▓È_1
  5
3A7
 10
999.883
 20
-448.805
 30
0.000000
  70
    32
  0
VERTEX
  8
┌▓È_1
  5
3A8
 10
999.897
 20
-448.819
 30
0.000000
  70
    32
  0
VERTEX
  8
┌▓È_1
  5
3A9
 10
999.910
 20
-448.834
 30
0.000000
  70
    32
  0
VERTEX
  8
┌▓È_1
  5
3AA
 10
999.924
 20
-448.848
 30
0.000000
  70
    32
  0
VERTEX
  8
┌▓È_1
  5
3AB
 10
999.937
 20
-448.863
 30
0.000000
  70
    32
  0
VERTEX
  8
┌▓È_1
  5
3AC
 10
999.950
 20
-448.877
 30
0.000000
  70
    32
  0
VERTEX
  8
┌▓È_1
  5
3AD
 10
999.964
 20
-448.892
 30
0.000000
  70
    32
  0
VERTEX
  8
┌▓È_1
  5
3AE
 10
999.977
 20
-448.906
 30
0.000000
  70
    32
  0
VERTEX
  8
┌▓È_1
  5
3AF
 10
999.990
 20
-448.920
 30
0.000000
  70
    32
  0
VERTEX
  8
┌▓È_1
  5
3B0
 10
1000.00
 20
-448.935
 30
0.000000
  70
    32
  0
VERTEX
  8
┌▓È_1
  5
3B1
 10
1000.02
 20
-448.949
 30
0.000000
  70
    32
  0
VERTEX
  8
┌▓È_1
  5
3B2
 10
1000.03
 20
-448.964
 30
0.000000
  70
    32
  0
VERTEX
  8
┌▓È_1
  5
3B3
 10
1000.04
 20
-448.978
 30
0.000000
  70
    32
  0
VERTEX
  8
┌▓È_1
  5
3B4
 10
1000.06
 20
-448.992
 30
0.000000
  70
    32
  0
VERTEX
  8
┌▓È_1
  5
3B5
 10
1000.07
 20
-449.007
 30
0.000000
  70
    32
  0
VERTEX
  8
┌▓È_1
  5
3B6
 10
1000.08
 20
-449.021
 30
0.000000
  70
    32
  0
VERTEX
  8
┌▓È_1
  5
3B7
 10
1000.10
 20
-449.035
 30
0.000000
  70
    32
  0
VERTEX
  8
┌▓È_1
  5
3B8
 10
1000.11
 20
-449.050
 30
0.000000
  70
    32
  0
VERTEX
  8
┌▓È_1
  5
3B9
 10
1000.12
 20
-449.064
 30
0.000000
  70
    32
  0
VERTEX
  8
┌▓È_1
  5
3BA
 10
1000.14
 20
-449.078
 30
0.000000
  70
    32
  0
VERTEX
  8
┌▓È_1
  5
3BB
 10
1000.15
 20
-449.093
 30
0.000000
  70
    32
  0
VERTEX
  8
┌▓È_1
  5
3BC
 10
1000.16
 20
-449.107
 30
0.000000
  70
    32
  0
VERTEX
  8
┌▓È_1
  5
3BD
 10
1000.18
 20
-449.121
 30
0.000000
  70
    32
  0
VERTEX
  8
┌▓È_1
  5
3BE
 10
1000.19
 20
-449.135
 30
0.000000
  70
    32
  0
VERTEX
  8
┌▓È_1
  5
3BF
 10
1000.21
 20
-449.150
 30
0.000000
  70
    32
  0
VERTEX
  8
┌▓È_1
  5
3C0
 10
1000.22
 20
-449.164
 30
0.000000
  70
    32
  0
VERTEX
  8
┌▓È_1
  5
3C1
 10
1000.23
 20
-449.178
 30
0.000000
  70
    32
  0
VERTEX
  8
┌▓È_1
  5
3C2
 10
1000.25
 20
-449.192
 30
0.000000
  70
    32
  0
VERTEX
  8
┌▓È_1
  5
3C3
 10
1000.26
 20
-449.206
 30
0.000000
  70
    32
  0
VERTEX
  8
┌▓È_1
  5
3C4
 10
1000.27
 20
-449.220
 30
0.000000
  70
    32
  0
VERTEX
  8
┌▓È_1
  5
3C5
 10
1000.29
 20
-449.234
 30
0.000000
  70
    32
  0
VERTEX
  8
┌▓È_1
  5
3C6
 10
1000.30
 20
-449.249
 30
0.000000
  70
    32
  0
VERTEX
  8
┌▓È_1
  5
3C7
 10
1000.31
 20
-449.263
 30
0.000000
  70
    32
  0
VERTEX
  8
┌▓È_1
  5
3C8
 10
1000.33
 20
-449.277
 30
0.000000
  70
    32
  0
VERTEX
  8
┌▓È_1
  5
3C9
 10
1000.34
 20
-449.291
 30
0.000000
  70
    32
  0
VERTEX
  8
┌▓È_1
  5
3CA
 10
1000.35
 20
-449.305
 30
0.000000
  70
    32
  0
VERTEX
  8
┌▓È_1
  5
3CB
 10
1000.37
 20
-449.319
 30
0.000000
  70
    32
  0
VERTEX
  8
┌▓È_1
  5
3CC
 10
1000.38
 20
-449.333
 30
0.000000
  70
    32
  0
VERTEX
  8
┌▓È_1
  5
3CD
 10
1000.40
 20
-449.347
 30
0.000000
  70
    32
  0
VERTEX
  8
┌▓È_1
  5
3CE
 10
1000.41
 20
-449.361
 30
0.000000
  70
    32
  0
VERTEX
  8
┌▓È_1
  5
3CF
 10
1000.42
 20
-449.375
 30
0.000000
  70
    32
  0
VERTEX
  8
┌▓È_1
  5
3D0
 10
1000.44
 20
-449.389
 30
0.000000
  70
    32
  0
VERTEX
  8
┌▓È_1
  5
3D1
 10
1000.45
 20
-449.403
 30
0.000000
  70
    32
  0
VERTEX
  8
┌▓È_1
  5
3D2
 10
1000.46
 20
-449.417
 30
0.000000
  70
    32
  0
VERTEX
  8
┌▓È_1
  5
3D3
 10
1000.48
 20
-449.430
 30
0.000000
  70
    32
  0
VERTEX
  8
┌▓È_1
  5
3D4
 10
1000.49
 20
-449.444
 30
0.000000
  70
    32
  0
VERTEX
  8
┌▓È_1
  5
3D5
 10
1000.51
 20
-449.458
 30
0.000000
  70
    32
  0
VERTEX
  8
┌▓È_1
  5
3D6
 10
1000.52
 20
-449.472
 30
0.000000
  70
    32
  0
VERTEX
  8
┌▓È_1
  5
3D7
 10
1000.53
 20
-449.486
 30
0.000000
  70
    32
  0
VERTEX
  8
┌▓È_1
  5
3D8
 10
1000.55
 20
-449.499
 30
0.000000
  70
    32
  0
VERTEX
  8
┌▓È_1
  5
3D9
 10
1000.56
 20
-449.513
 30
0.000000
  70
    32
  0
VERTEX
  8
┌▓È_1
  5
3DA
 10
1000.57
 20
-449.527
 30
0.000000
  70
    32
  0
VERTEX
  8
┌▓È_1
  5
3DB
 10
1000.59
 20
-449.541
 30
0.000000
  70
    32
  0
VERTEX
  8
┌▓È_1
  5
3DC
 10
1000.60
 20
-449.554
 30
0.000000
  70
    32
  0
VERTEX
  8
┌▓È_1
  5
3DD
 10
1000.62
 20
-449.568
 30
0.000000
  70
    32
  0
VERTEX
  8
┌▓È_1
  5
3DE
 10
1000.63
 20
-449.582
 30
0.000000
  70
    32
  0
VERTEX
  8
┌▓È_1
  5
3DF
 10
1000.64
 20
-449.595
 30
0.000000
  70
    32
  0
VERTEX
  8
┌▓È_1
  5
3E0
 10
1000.66
 20
-449.609
 30
0.000000
  70
    32
  0
VERTEX
  8
┌▓È_1
  5
3E1
 10
1000.67
 20
-449.623
 30
0.000000
  70
    32
  0
VERTEX
  8
┌▓È_1
  5
3E2
 10
1000.69
 20
-449.636
 30
0.000000
  70
    32
  0
VERTEX
  8
┌▓È_1
  5
3E3
 10
1000.70
 20
-449.650
 30
0.000000
  70
    32
  0
VERTEX
  8
┌▓È_1
  5
3E4
 10
1000.71
 20
-449.663
 30
0.000000
  70
    32
  0
VERTEX
  8
┌▓È_1
  5
3E5
 10
1000.73
 20
-449.677
 30
0.000000
  70
    32
  0
VERTEX
  8
┌▓È_1
  5
3E6
 10
1000.74
 20
-449.690
 30
0.000000
  70
    32
  0
VERTEX
  8
┌▓È_1
  5
3E7
 10
1000.75
 20
-449.704
 30
0.000000
  70
    32
  0
VERTEX
  8
┌▓È_1
  5
3E8
 10
1000.77
 20
-449.717
 30
0.000000
  70
    32
  0
VERTEX
  8
┌▓È_1
  5
3E9
 10
1000.78
 20
-449.730
 30
0.000000
  70
    32
  0
VERTEX
  8
┌▓È_1
  5
3EA
 10
1000.80
 20
-449.744
 30
0.000000
  70
    32
  0
VERTEX
  8
┌▓È_1
  5
3EB
 10
1000.81
 20
-449.757
 30
0.000000
  70
    32
  0
VERTEX
  8
┌▓È_1
  5
3EC
 10
1000.83
 20
-449.770
 30
0.000000
  70
    32
  0
VERTEX
  8
┌▓È_1
  5
3ED
 10
1000.84
 20
-449.784
 30
0.000000
  70
    32
  0
VERTEX
  8
┌▓È_1
  5
3EE
 10
1000.85
 20
-449.797
 30
0.000000
  70
    32
  0
VERTEX
  8
┌▓È_1
  5
3EF
 10
1000.87
 20
-449.810
 30
0.000000
  70
    32
  0
VERTEX
  8
┌▓È_1
  5
3F0
 10
1000.88
 20
-449.824
 30
0.000000
  70
    32
  0
VERTEX
  8
┌▓È_1
  5
3F1
 10
1000.90
 20
-449.837
 30
0.000000
  70
    32
  0
VERTEX
  8
┌▓È_1
  5
3F2
 10
1000.91
 20
-449.850
 30
0.000000
  70
    32
  0
VERTEX
  8
┌▓È_1
  5
3F3
 10
1000.92
 20
-449.863
 30
0.000000
  70
    32
  0
VERTEX
  8
┌▓È_1
  5
3F4
 10
1000.94
 20
-449.876
 30
0.000000
  70
    32
  0
VERTEX
  8
┌▓È_1
  5
3F5
 10
1000.95
 20
-449.889
 30
0.000000
  70
    32
  0
VERTEX
  8
┌▓È_1
  5
3F6
 10
1000.97
 20
-449.902
 30
0.000000
  70
    32
  0
VERTEX
  8
┌▓È_1
  5
3F7
 10
1000.98
 20
-449.915
 30
0.000000
  70
    32
  0
VERTEX
  8
┌▓È_1
  5
3F8
 10
1001.00
 20
-449.928
 30
0.000000
  70
    32
  0
VERTEX
  8
┌▓È_1
  5
3F9
 10
1001.01
 20
-449.941
 30
0.000000
  70
    32
  0
VERTEX
  8
┌▓È_1
  5
3FA
 10
1001.02
 20
-449.954
 30
0.000000
  70
    32
  0
SEQEND
  8
┌▓È_1
  5
3FB
  0
INSERT
  5
31
  8
┌▓È_1
  2
CLUMP0
 10
0.0
 20
0.0
 30
0.0
  0
LINE
  5
38
  8
┌▓È_1
 62
     5
 10
615.61192350400006
 20
-365.91938065550011
 30
0.0
 11
615.61192350400006
 21
-397.91938065549999
 31
0.0
  0
INSERT
  5
3A
  8
┌▓È_1
  2
CLUMP1
 10
0.0
 20
0.0
 30
0.0
  0
LINE
  5
45
  8
┌▓È_1
 62
     5
 10
615.61192350400006
 20
-397.91938065549999
 30
0.0
 11
815.61192350399995
 21
-397.91938065549999
 31
0.0
  0
LINE
  5
46
  8
┌▓È_1
 62
     5
 10
615.61192350400006
 20
-365.91938065550011
 30
0.0
 11
815.61192350399995
 21
-365.91938065550011
 31
0.0
  0
LINE
  5
47
  8
┌▓È_1
 62
     5
 10
815.61192350399995
 20
-397.91938065549999
 30
0.0
 11
815.61192350399995
 21
-365.91938065550011
 31
0.0
  0
INSERT
  5
49
  8
┌▓È_1
  2
CLUMP3
 10
0.0
 20
0.0
 30
0.0
  0
LINE
  5
50
  8
┌▓È_1
  6
STITCH
 10
620.11192350400006
 20
-365.91938065550011
 30
0.0
 11
620.11192350400006
 21
-397.91938065549999
 31
0.0
  0
DIMENSION
  5
61
  8
Éíû@É³
  2
*D4
 10
927.08552058549992
 20
-18.0145320566
 30
0.0
 11
911.08552058550015
 21
-18.0145320566
 31
0.0
 70
   128
  1
<>
 13
927.08552058549992
 23
-58.93391004539999
 33
0.0
 14
895.08552058550015
 24
-58.93391004539999
 34
0.0
  0
DIMENSION
  5
71
  8
Éíû@É³
  2
*D5
 10
927.08552058549992
 20
-36.3054604473
 30
0.0
 11
934.47744766890003
 21
-36.3054604473
 31
0.0
 70
   128
  1
<>
 13
927.08552058549992
 23
-58.93391004539999
 33
0.0
 14
911.08552058550015
 24
-64.933910045399998
 34
0.0
  0
DIMENSION
  5
80
  8
Éíû@É³
  2
*D6
 10
911.08552058550015
 20
-36.3054604473
 30
0.0
 11
884.71328751259978
 21
-36.3054604473
 31
0.0
 70
   128
  1
<>
 13
911.08552058550015
 23
-64.933910045399998
 33
0.0
 14
895.08552058550015
 24
-58.93391004539999
 34
0.0
  0
INSERT
  5
81
  8
0
  6
CONTINUOUS
  2
*U41
 10
0.0
 20
0.0
 30
0.0
  0
INSERT
  5
82
  8
0
  6
CONTINUOUS
  2
*U42
 10
0.0
 20
0.0
 30
0.0
  0
INSERT
  5
83
  8
0
  6
CONTINUOUS
  2
*U43
 10
0.0
 20
0.0
 30
0.0
  0
INSERT
  5
84
  8
0
  6
CONTINUOUS
  2
*U44
 10
0.0
 20
0.0
 30
0.0
  0
INSERT
  5
85
  8
0
  6
CONTINUOUS
  2
*U45
 10
0.0
 20
0.0
 30
0.0
  0
INSERT
  5
86
  8
0
  6
CONTINUOUS
  2
*U46
 10
0.0
 20
0.0
 30
0.0
  0
INSERT
  5
87
  8
0
  6
CONTINUOUS
  2
*U47
 10
0.0
 20
0.0
 30
0.0
  0
LINE
  5
88
  8
┌▓È_1
 10
969.61796610070007
 20
-428.3300502983999
 30
0.0
 11
999.61796610070007
 21
-428.3300502983999
 31
0.0
  0
LINE
  5
89
  8
┌▓È_1
 10
969.61796610070007
 20
-407.0800502983999
 30
0.0
 11
999.61796610070007
 21
-407.0800502983999
 31
0.0
  0
LINE
  5
8A
  8
┌▓È_1
 10
889.61796610069996
 20
-428.3300502983999
 30
0.0
 11
959.61796610070007
 21
-428.3300502983999
 31
0.0
  0
LINE
  5
8B
  8
┌▓È_1
 10
929.61796610069996
 20
-407.0800502983999
 30
0.0
 11
959.61796610070007
 21
-407.0800502983999
 31
0.0
  0
LINE
  5
8C
  8
┌▓È_1
 10
889.61796610069996
 20
-407.0800502983999
 30
0.0
 11
919.61796610070007
 21
-407.0800502983999
 31
0.0
  0
LINE
  5
8D
  8
┌▓È_1
 10
964.61796610069996
 20
-396.45505029840001
 30
0.0
 11
964.61796610069996
 21
-438.95505029840001
 31
0.0
  0
LINE
  5
8E
  8
┌▓È_1
 62
     5
 10
1000.4321816369001
 20
-447.02892489959987
 30
0.0
 11
999.30081078699982
 21
-448.16029574949999
 31
0.0
  0
LINE
  5
8F
  8
┌▓È_1
 62
     5
 10
992.43218163689994
 20
-447.67314543449987
 30
0.0
 11
992.43218163689994
 21
-447.02892489959987
 31
0.0
  0
LINE
  5
90
  8
┌▓È_1
 62
     5
 10
967.80876189259993
 20
-446.3847043646
 30
0.0
 11
967.80876189259993
 21
-449.3847043646
 31
0.0
  0
LINE
  5
91
  8
┌▓È_1
 62
     5
 10
987.11096951570005
 20
-446.3847043646
 30
0.0
 11
987.11096951570005
 21
-449.3847043646
 31
0.0
  0
LINE
  5
92
  8
┌▓È_1
 62
     5
 10
1023.2671469335
 20
-457.3847043646
 30
0.0
 11
1028.8671469335
 21
-457.3847043646
 31
0.0
  0
LINE
  5
93
  8
┌▓È_1
 62
     5
 10
1010.4321816369001
 20
-453.3847043646
 30
0.0
 11
1010.4321816369001
 21
-456.38470436459988
 31
0.0
  0
LINE
  5
94
  8
┌▓È_1
 10
1004.6179661007
 20
-407.0800502983999
 30
0.0
 11
1044.6179661007
 21
-407.0800502983999
 31
0.0
  0
LINE
  5
95
  8
┌▓È_1
 10
884.61796610070007
 20
-417.7050502983999
 30
0.0
 11
1004.6179661007
 21
-417.7050502983999
 31
0.0
  0
INSERT
  5
96
  8
0
  6
CONTINUOUS
  2
*U48
 10
0.0
 20
0.0
 30
0.0
  0
POLYLINE
  8
┌▓È_1
  5
3FC
  62
5
  66
     1
 10
0.000000
 20
0.000000
 30
0.000000
  70
     8
  0
VERTEX
  8
┌▓È_1
  5
3FD
 10
1005.80
 20
-452.432
 30
0.000000
  70
    32
  0
VERTEX
  8
┌▓È_1
  5
3FE
 10
1005.84
 20
-452.442
 30
0.000000
  70
    32
  0
VERTEX
  8
┌▓È_1
  5
3FF
 10
1005.87
 20
-452.451
 30
0.000000
  70
    32
  0
VERTEX
  8
┌▓È_1
  5
400
 10
1005.91
 20
-452.461
 30
0.000000
  70
    32
  0
VERTEX
  8
┌▓È_1
  5
401
 10
1005.94
 20
-452.471
 30
0.000000
  70
    32
  0
VERTEX
  8
┌▓È_1
  5
402
 10
1005.98
 20
-452.481
 30
0.000000
  70
    32
  0
VERTEX
  8
┌▓È_1
  5
403
 10
1006.01
 20
-452.490
 30
0.000000
  70
    32
  0
VERTEX
  8
┌▓È_1
  5
404
 10
1006.05
 20
-452.500
 30
0.000000
  70
    32
  0
VERTEX
  8
┌▓È_1
  5
405
 10
1006.08
 20
-452.509
 30
0.000000
  70
    32
  0
VERTEX
  8
┌▓È_1
  5
406
 10
1006.12
 20
-452.519
 30
0.000000
  70
    32
  0
VERTEX
  8
┌▓È_1
  5
407
 10
1006.15
 20
-452.528
 30
0.000000
  70
    32
  0
VERTEX
  8
┌▓È_1
  5
408
 10
1006.19
 20
-452.538
 30
0.000000
  70
    32
  0
VERTEX
  8
┌▓È_1
  5
409
 10
1006.22
 20
-452.547
 30
0.000000
  70
    32
  0
VERTEX
  8
┌▓È_1
  5
40A
 10
1006.26
 20
-452.556
 30
0.000000
  70
    32
  0
VERTEX
  8
┌▓È_1
  5
40B
 10
1006.29
 20
-452.565
 30
0.000000
  70
    32
  0
VERTEX
  8
┌▓È_1
  5
40C
 10
1006.33
 20
-452.575
 30
0.000000
  70
    32
  0
VERTEX
  8
┌▓È_1
  5
40D
 10
1006.36
 20
-452.584
 30
0.000000
  70
    32
  0
VERTEX
  8
┌▓È_1
  5
40E
 10
1006.40
 20
-452.593
 30
0.000000
  70
    32
  0
VERTEX
  8
┌▓È_1
  5
40F
 10
1006.44
 20
-452.602
 30
0.000000
  70
    32
  0
VERTEX
  8
┌▓È_1
  5
410
 10
1006.47
 20
-452.611
 30
0.000000
  70
    32
  0
VERTEX
  8
┌▓È_1
  5
411
 10
1006.51
 20
-452.620
 30
0.000000
  70
    32
  0
VERTEX
  8
┌▓È_1
  5
412
 10
1006.54
 20
-452.628
 30
0.000000
  70
    32
  0
VERTEX
  8
┌▓È_1
  5
413
 10
1006.58
 20
-452.637
 30
0.000000
  70
    32
  0
VERTEX
  8
┌▓È_1
  5
414
 10
1006.61
 20
-452.646
 30
0.000000
  70
    32
  0
VERTEX
  8
┌▓È_1
  5
415
 10
1006.65
 20
-452.655
 30
0.000000
  70
    32
  0
VERTEX
  8
┌▓È_1
  5
416
 10
1006.69
 20
-452.663
 30
0.000000
  70
    32
  0
VERTEX
  8
┌▓È_1
  5
417
 10
1006.72
 20
-452.672
 30
0.000000
  70
    32
  0
VERTEX
  8
┌▓È_1
  5
418
 10
1006.76
 20
-452.681
 30
0.000000
  70
    32
  0
VERTEX
  8
┌▓È_1
  5
419
 10
1006.79
 20
-452.689
 30
0.000000
  70
    32
  0
VERTEX
  8
┌▓È_1
  5
41A
 10
1006.83
 20
-452.698
 30
0.000000
  70
    32
  0
VERTEX
  8
┌▓È_1
  5
41B
 10
1006.86
 20
-452.706
 30
0.000000
  70
    32
  0
VERTEX
  8
┌▓È_1
  5
41C
 10
1006.90
 20
-452.714
 30
0.000000
  70
    32
  0
VERTEX
  8
┌▓È_1
  5
41D
 10
1006.94
 20
-452.723
 30
0.000000
  70
    32
  0
VERTEX
  8
┌▓È_1
  5
41E
 10
1006.97
 20
-452.731
 30
0.000000
  70
    32
  0
VERTEX
  8
┌▓È_1
  5
41F
 10
1007.01
 20
-452.739
 30
0.000000
  70
    32
  0
VERTEX
  8
┌▓È_1
  5
420
 10
1007.04
 20
-452.748
 30
0.000000
  70
    32
  0
VERTEX
  8
┌▓È_1
  5
421
 10
1007.08
 20
-452.756
 30
0.000000
  70
    32
  0
VERTEX
  8
┌▓È_1
  5
422
 10
1007.12
 20
-452.764
 30
0.000000
  70
    32
  0
VERTEX
  8
┌▓È_1
  5
423
 10
1007.15
 20
-452.772
 30
0.000000
  70
    32
  0
VERTEX
  8
┌▓È_1
  5
424
 10
1007.19
 20
-452.780
 30
0.000000
  70
    32
  0
VERTEX
  8
┌▓È_1
  5
425
 10
1007.22
 20
-452.788
 30
0.000000
  70
    32
  0
VERTEX
  8
┌▓È_1
  5
426
 10
1007.26
 20
-452.796
 30
0.000000
  70
    32
  0
VERTEX
  8
┌▓È_1
  5
427
 10
1007.30
 20
-452.804
 30
0.000000
  70
    32
  0
VERTEX
  8
┌▓È_1
  5
428
 10
1007.33
 20
-452.812
 30
0.000000
  70
    32
  0
VERTEX
  8
┌▓È_1
  5
429
 10
1007.37
 20
-452.820
 30
0.000000
  70
    32
  0
VERTEX
  8
┌▓È_1
  5
42A
 10
1007.41
 20
-452.828
 30
0.000000
  70
    32
  0
VERTEX
  8
┌▓È_1
  5
42B
 10
1007.44
 20
-452.835
 30
0.000000
  70
    32
  0
VERTEX
  8
┌▓È_1
  5
42C
 10
1007.48
 20
-452.843
 30
0.000000
  70
    32
  0
VERTEX
  8
┌▓È_1
  5
42D
 10
1007.51
 20
-452.851
 30
0.000000
  70
    32
  0
VERTEX
  8
┌▓È_1
  5
42E
 10
1007.55
 20
-452.859
 30
0.000000
  70
    32
  0
VERTEX
  8
┌▓È_1
  5
42F
 10
1007.59
 20
-452.866
 30
0.000000
  70
    32
  0
VERTEX
  8
┌▓È_1
  5
430
 10
1007.62
 20
-452.874
 30
0.000000
  70
    32
  0
VERTEX
  8
┌▓È_1
  5
431
 10
1007.66
 20
-452.881
 30
0.000000
  70
    32
  0
VERTEX
  8
┌▓È_1
  5
432
 10
1007.70
 20
-452.889
 30
0.000000
  70
    32
  0
VERTEX
  8
┌▓È_1
  5
433
 10
1007.73
 20
-452.896
 30
0.000000
  70
    32
  0
VERTEX
  8
┌▓È_1
  5
434
 10
1007.77
 20
-452.904
 30
0.000000
  70
    32
  0
VERTEX
  8
┌▓È_1
  5
435
 10
1007.81
 20
-452.911
 30
0.000000
  70
    32
  0
VERTEX
  8
┌▓È_1
  5
436
 10
1007.84
 20
-452.919
 30
0.000000
  70
    32
  0
VERTEX
  8
┌▓È_1
  5
437
 10
1007.88
 20
-452.926
 30
0.000000
  70
    32
  0
VERTEX
  8
┌▓È_1
  5
438
 10
1007.92
 20
-452.934
 30
0.000000
  70
    32
  0
VERTEX
  8
┌▓È_1
  5
439
 10
1007.95
 20
-452.941
 30
0.000000
  70
    32
  0
VERTEX
  8
┌▓È_1
  5
43A
 10
1007.99
 20
-452.948
 30
0.000000
  70
    32
  0
VERTEX
  8
┌▓È_1
  5
43B
 10
1008.03
 20
-452.955
 30
0.000000
  70
    32
  0
VERTEX
  8
┌▓È_1
  5
43C
 10
1008.06
 20
-452.963
 30
0.000000
  70
    32
  0
VERTEX
  8
┌▓È_1
  5
43D
 10
1008.10
 20
-452.970
 30
0.000000
  70
    32
  0
VERTEX
  8
┌▓È_1
  5
43E
 10
1008.14
 20
-452.977
 30
0.000000
  70
    32
  0
VERTEX
  8
┌▓È_1
  5
43F
 10
1008.17
 20
-452.984
 30
0.000000
  70
    32
  0
VERTEX
  8
┌▓È_1
  5
440
 10
1008.21
 20
-452.991
 30
0.000000
  70
    32
  0
VERTEX
  8
┌▓È_1
  5
441
 10
1008.25
 20
-452.998
 30
0.000000
  70
    32
  0
VERTEX
  8
┌▓È_1
  5
442
 10
1008.28
 20
-453.005
 30
0.000000
  70
    32
  0
VERTEX
  8
┌▓È_1
  5
443
 10
1008.32
 20
-453.012
 30
0.000000
  70
    32
  0
VERTEX
  8
┌▓È_1
  5
444
 10
1008.36
 20
-453.019
 30
0.000000
  70
    32
  0
VERTEX
  8
┌▓È_1
  5
445
 10
1008.39
 20
-453.026
 30
0.000000
  70
    32
  0
VERTEX
  8
┌▓È_1
  5
446
 10
1008.43
 20
-453.033
 30
0.000000
  70
    32
  0
VERTEX
  8
┌▓È_1
  5
447
 10
1008.47
 20
-453.040
 30
0.000000
  70
    32
  0
VERTEX
  8
┌▓È_1
  5
448
 10
1008.50
 20
-453.047
 30
0.000000
  70
    32
  0
VERTEX
  8
┌▓È_1
  5
449
 10
1008.54
 20
-453.054
 30
0.000000
  70
    32
  0
VERTEX
  8
┌▓È_1
  5
44A
 10
1008.58
 20
-453.061
 30
0.000000
  70
    32
  0
VERTEX
  8
┌▓È_1
  5
44B
 10
1008.61
 20
-453.068
 30
0.000000
  70
    32
  0
VERTEX
  8
┌▓È_1
  5
44C
 10
1008.65
 20
-453.075
 30
0.000000
  70
    32
  0
VERTEX
  8
┌▓È_1
  5
44D
 10
1008.69
 20
-453.081
 30
0.000000
  70
    32
  0
VERTEX
  8
┌▓È_1
  5
44E
 10
1008.72
 20
-453.088
 30
0.000000
  70
    32
  0
VERTEX
  8
┌▓È_1
  5
44F
 10
1008.76
 20
-453.095
 30
0.000000
  70
    32
  0
VERTEX
  8
┌▓È_1
  5
450
 10
1008.80
 20
-453.102
 30
0.000000
  70
    32
  0
VERTEX
  8
┌▓È_1
  5
451
 10
1008.84
 20
-453.108
 30
0.000000
  70
    32
  0
VERTEX
  8
┌▓È_1
  5
452
 10
1008.87
 20
-453.115
 30
0.000000
  70
    32
  0
VERTEX
  8
┌▓È_1
  5
453
 10
1008.91
 20
-453.122
 30
0.000000
  70
    32
  0
VERTEX
  8
┌▓È_1
  5
454
 10
1008.95
 20
-453.128
 30
0.000000
  70
    32
  0
VERTEX
  8
┌▓È_1
  5
455
 10
1008.98
 20
-453.135
 30
0.000000
  70
    32
  0
VERTEX
  8
┌▓È_1
  5
456
 10
1009.02
 20
-453.142
 30
0.000000
  70
    32
  0
VERTEX
  8
┌▓È_1
  5
457
 10
1009.06
 20
-453.148
 30
0.000000
  70
    32
  0
VERTEX
  8
┌▓È_1
  5
458
 10
1009.09
 20
-453.155
 30
0.000000
  70
    32
  0
VERTEX
  8
┌▓È_1
  5
459
 10
1009.13
 20
-453.161
 30
0.000000
  70
    32
  0
VERTEX
  8
┌▓È_1
  5
45A
 10
1009.17
 20
-453.168
 30
0.000000
  70
    32
  0
VERTEX
  8
┌▓È_1
  5
45B
 10
1009.21
 20
-453.175
 30
0.000000
  70
    32
  0
VERTEX
  8
┌▓È_1
  5
45C
 10
1009.24
 20
-453.181
 30
0.000000
  70
    32
  0
VERTEX
  8
┌▓È_1
  5
45D
 10
1009.28
 20
-453.188
 30
0.000000
  70
    32
  0
VERTEX
  8
┌▓È_1
  5
45E
 10
1009.32
 20
-453.194
 30
0.000000
  70
    32
  0
VERTEX
  8
┌▓È_1
  5
45F
 10
1009.35
 20
-453.201
 30
0.000000
  70
    32
  0
VERTEX
  8
┌▓È_1
  5
460
 10
1009.39
 20
-453.207
 30
0.000000
  70
    32
  0
VERTEX
  8
┌▓È_1
  5
461
 10
1009.43
 20
-453.213
 30
0.000000
  70
    32
  0
VERTEX
  8
┌▓È_1
  5
462
 10
1009.47
 20
-453.220
 30
0.000000
  70
    32
  0
VERTEX
  8
┌▓È_1
  5
463
 10
1009.50
 20
-453.226
 30
0.000000
  70
    32
  0
VERTEX
  8
┌▓È_1
  5
464
 10
1009.54
 20
-453.233
 30
0.000000
  70
    32
  0
VERTEX
  8
┌▓È_1
  5
465
 10
1009.58
 20
-453.239
 30
0.000000
  70
    32
  0
VERTEX
  8
┌▓È_1
  5
466
 10
1009.61
 20
-453.246
 30
0.000000
  70
    32
  0
VERTEX
  8
┌▓È_1
  5
467
 10
1009.65
 20
-453.252
 30
0.000000
  70
    32
  0
VERTEX
  8
┌▓È_1
  5
468
 10
1009.69
 20
-453.258
 30
0.000000
  70
    32
  0
VERTEX
  8
┌▓È_1
  5
469
 10
1009.73
 20
-453.265
 30
0.000000
  70
    32
  0
VERTEX
  8
┌▓È_1
  5
46A
 10
1009.76
 20
-453.271
 30
0.000000
  70
    32
  0
VERTEX
  8
┌▓È_1
  5
46B
 10
1009.80
 20
-453.277
 30
0.000000
  70
    32
  0
VERTEX
  8
┌▓È_1
  5
46C
 10
1009.84
 20
-453.284
 30
0.000000
  70
    32
  0
VERTEX
  8
┌▓È_1
  5
46D
 10
1009.87
 20
-453.290
 30
0.000000
  70
    32
  0
VERTEX
  8
┌▓È_1
  5
46E
 10
1009.91
 20
-453.296
 30
0.000000
  70
    32
  0
VERTEX
  8
┌▓È_1
  5
46F
 10
1009.95
 20
-453.303
 30
0.000000
  70
    32
  0
VERTEX
  8
┌▓È_1
  5
470
 10
1009.99
 20
-453.309
 30
0.000000
  70
    32
  0
VERTEX
  8
┌▓È_1
  5
471
 10
1010.02
 20
-453.315
 30
0.000000
  70
    32
  0
VERTEX
  8
┌▓È_1
  5
472
 10
1010.06
 20
-453.322
 30
0.000000
  70
    32
  0
VERTEX
  8
┌▓È_1
  5
473
 10
1010.10
 20
-453.328
 30
0.000000
  70
    32
  0
VERTEX
  8
┌▓È_1
  5
474
 10
1010.13
 20
-453.334
 30
0.000000
  70
    32
  0
VERTEX
  8
┌▓È_1
  5
475
 10
1010.17
 20
-453.341
 30
0.000000
  70
    32
  0
VERTEX
  8
┌▓È_1
  5
476
 10
1010.21
 20
-453.347
 30
0.000000
  70
    32
  0
VERTEX
  8
┌▓È_1
  5
477
 10
1010.25
 20
-453.353
 30
0.000000
  70
    32
  0
VERTEX
  8
┌▓È_1
  5
478
 10
1010.28
 20
-453.360
 30
0.000000
  70
    32
  0
VERTEX
  8
┌▓È_1
  5
479
 10
1010.32
 20
-453.366
 30
0.000000
  70
    32
  0
VERTEX
  8
┌▓È_1
  5
47A
 10
1010.36
 20
-453.372
 30
0.000000
  70
    32
  0
VERTEX
  8
┌▓È_1
  5
47B
 10
1010.39
 20
-453.378
 30
0.000000
  70
    32
  0
VERTEX
  8
┌▓È_1
  5
47C
 10
1010.43
 20
-453.385
 30
0.000000
  70
    32
  0
SEQEND
  8
┌▓È_1
  5
47D
  0
POLYLINE
  8
┌▓È_1
  5
47E
  62
5
  66
     1
 10
0.000000
 20
0.000000
 30
0.000000
  70
     8
  0
VERTEX
  8
┌▓È_1
  5
47F
 10
992.432
 20
-447.673
 30
0.000000
  70
    32
  0
VERTEX
  8
┌▓È_1
  5
480
 10
992.468
 20
-447.706
 30
0.000000
  70
    32
  0
VERTEX
  8
┌▓È_1
  5
481
 10
992.504
 20
-447.740
 30
0.000000
  70
    32
  0
VERTEX
  8
┌▓È_1
  5
482
 10
992.540
 20
-447.773
 30
0.000000
  70
    32
  0
VERTEX
  8
┌▓È_1
  5
483
 10
992.576
 20
-447.806
 30
0.000000
  70
    32
  0
VERTEX
  8
┌▓È_1
  5
484
 10
992.612
 20
-447.839
 30
0.000000
  70
    32
  0
VERTEX
  8
┌▓È_1
  5
485
 10
992.648
 20
-447.872
 30
0.000000
  70
    32
  0
VERTEX
  8
┌▓È_1
  5
486
 10
992.684
 20
-447.906
 30
0.000000
  70
    32
  0
VERTEX
  8
┌▓È_1
  5
487
 10
992.720
 20
-447.939
 30
0.000000
  70
    32
  0
VERTEX
  8
┌▓È_1
  5
488
 10
992.756
 20
-447.972
 30
0.000000
  70
    32
  0
VERTEX
  8
┌▓È_1
  5
489
 10
992.792
 20
-448.005
 30
0.000000
  70
    32
  0
VERTEX
  8
┌▓È_1
  5
48A
 10
992.829
 20
-448.038
 30
0.000000
  70
    32
  0
VERTEX
  8
┌▓È_1
  5
48B
 10
992.865
 20
-448.071
 30
0.000000
  70
    32
  0
VERTEX
  8
┌▓È_1
  5
48C
 10
992.901
 20
-448.105
 30
0.000000
  70
    32
  0
VERTEX
  8
┌▓È_1
  5
48D
 10
992.937
 20
-448.138
 30
0.000000
  70
    32
  0
VERTEX
  8
┌▓È_1
  5
48E
 10
992.973
 20
-448.171
 30
0.000000
  70
    32
  0
VERTEX
  8
┌▓È_1
  5
48F
 10
993.009
 20
-448.204
 30
0.000000
  70
    32
  0
VERTEX
  8
┌▓È_1
  5
490
 10
993.045
 20
-448.237
 30
0.000000
  70
    32
  0
VERTEX
  8
┌▓È_1
  5
491
 10
993.081
 20
-448.270
 30
0.000000
  70
    32
  0
VERTEX
  8
┌▓È_1
  5
492
 10
993.117
 20
-448.303
 30
0.000000
  70
    32
  0
VERTEX
  8
┌▓È_1
  5
493
 10
993.153
 20
-448.336
 30
0.000000
  70
    32
  0
VERTEX
  8
┌▓È_1
  5
494
 10
993.189
 20
-448.369
 30
0.000000
  70
    32
  0
VERTEX
  8
┌▓È_1
  5
495
 10
993.225
 20
-448.402
 30
0.000000
  70
    32
  0
VERTEX
  8
┌▓È_1
  5
496
 10
993.261
 20
-448.435
 30
0.000000
  70
    32
  0
VERTEX
  8
┌▓È_1
  5
497
 10
993.298
 20
-448.468
 30
0.000000
  70
    32
  0
VERTEX
  8
┌▓È_1
  5
498
 10
993.334
 20
-448.501
 30
0.000000
  70
    32
  0
VERTEX
  8
┌▓È_1
  5
499
 10
993.370
 20
-448.534
 30
0.000000
  70
    32
  0
VERTEX
  8
┌▓È_1
  5
49A
 10
993.406
 20
-448.567
 30
0.000000
  70
    32
  0
VERTEX
  8
┌▓È_1
  5
49B
 10
993.442
 20
-448.600
 30
0.000000
  70
    32
  0
VERTEX
  8
┌▓È_1
  5
49C
 10
993.478
 20
-448.633
 30
0.000000
  70
    32
  0
VERTEX
  8
┌▓È_1
  5
49D
 10
993.515
 20
-448.666
 30
0.000000
  70
    32
  0
VERTEX
  8
┌▓È_1
  5
49E
 10
993.551
 20
-448.699
 30
0.000000
  70
    32
  0
VERTEX
  8
┌▓È_1
  5
49F
 10
993.587
 20
-448.732
 30
0.000000
  70
    32
  0
VERTEX
  8
┌▓È_1
  5
4A0
 10
993.623
 20
-448.765
 30
0.000000
  70
    32
  0
VERTEX
  8
┌▓È_1
  5
4A1
 10
993.659
 20
-448.798
 30
0.000000
  70
    32
  0
VERTEX
  8
┌▓È_1
  5
4A2
 10
993.696
 20
-448.830
 30
0.000000
  70
    32
  0
VERTEX
  8
┌▓È_1
  5
4A3
 10
993.732
 20
-448.863
 30
0.000000
  70
    32
  0
VERTEX
  8
┌▓È_1
  5
4A4
 10
993.768
 20
-448.896
 30
0.000000
  70
    32
  0
VERTEX
  8
┌▓È_1
  5
4A5
 10
993.804
 20
-448.929
 30
0.000000
  70
    32
  0
VERTEX
  8
┌▓È_1
  5
4A6
 10
993.841
 20
-448.961
 30
0.000000
  70
    32
  0
VERTEX
  8
┌▓È_1
  5
4A7
 10
993.877
 20
-448.994
 30
0.000000
  70
    32
  0
VERTEX
  8
┌▓È_1
  5
4A8
 10
993.913
 20
-449.027
 30
0.000000
  70
    32
  0
VERTEX
  8
┌▓È_1
  5
4A9
 10
993.950
 20
-449.059
 30
0.000000
  70
    32
  0
VERTEX
  8
┌▓È_1
  5
4AA
 10
993.986
 20
-449.092
 30
0.000000
  70
    32
  0
VERTEX
  8
┌▓È_1
  5
4AB
 10
994.022
 20
-449.124
 30
0.000000
  70
    32
  0
VERTEX
  8
┌▓È_1
  5
4AC
 10
994.059
 20
-449.157
 30
0.000000
  70
    32
  0
VERTEX
  8
┌▓È_1
  5
4AD
 10
994.095
 20
-449.189
 30
0.000000
  70
    32
  0
VERTEX
  8
┌▓È_1
  5
4AE
 10
994.132
 20
-449.222
 30
0.000000
  70
    32
  0
VERTEX
  8
┌▓È_1
  5
4AF
 10
994.168
 20
-449.254
 30
0.000000
  70
    32
  0
VERTEX
  8
┌▓È_1
  5
4B0
 10
994.205
 20
-449.287
 30
0.000000
  70
    32
  0
VERTEX
  8
┌▓È_1
  5
4B1
 10
994.241
 20
-449.319
 30
0.000000
  70
    32
  0
VERTEX
  8
┌▓È_1
  5
4B2
 10
994.278
 20
-449.351
 30
0.000000
  70
    32
  0
VERTEX
  8
┌▓È_1
  5
4B3
 10
994.314
 20
-449.384
 30
0.000000
  70
    32
  0
VERTEX
  8
┌▓È_1
  5
4B4
 10
994.351
 20
-449.416
 30
0.000000
  70
    32
  0
VERTEX
  8
┌▓È_1
  5
4B5
 10
994.387
 20
-449.448
 30
0.000000
  70
    32
  0
VERTEX
  8
┌▓È_1
  5
4B6
 10
994.424
 20
-449.480
 30
0.000000
  70
    32
  0
VERTEX
  8
┌▓È_1
  5
4B7
 10
994.460
 20
-449.512
 30
0.000000
  70
    32
  0
VERTEX
  8
┌▓È_1
  5
4B8
 10
994.497
 20
-449.545
 30
0.000000
  70
    32
  0
VERTEX
  8
┌▓È_1
  5
4B9
 10
994.534
 20
-449.577
 30
0.000000
  70
    32
  0
VERTEX
  8
┌▓È_1
  5
4BA
 10
994.570
 20
-449.609
 30
0.000000
  70
    32
  0
VERTEX
  8
┌▓È_1
  5
4BB
 10
994.607
 20
-449.641
 30
0.000000
  70
    32
  0
VERTEX
  8
┌▓È_1
  5
4BC
 10
994.644
 20
-449.673
 30
0.000000
  70
    32
  0
VERTEX
  8
┌▓È_1
  5
4BD
 10
994.680
 20
-449.704
 30
0.000000
  70
    32
  0
VERTEX
  8
┌▓È_1
  5
4BE
 10
994.717
 20
-449.736
 30
0.000000
  70
    32
  0
VERTEX
  8
┌▓È_1
  5
4BF
 10
994.754
 20
-449.768
 30
0.000000
  70
    32
  0
VERTEX
  8
┌▓È_1
  5
4C0
 10
994.791
 20
-449.800
 30
0.000000
  70
    32
  0
VERTEX
  8
┌▓È_1
  5
4C1
 10
994.828
 20
-449.832
 30
0.000000
  70
    32
  0
VERTEX
  8
┌▓È_1
  5
4C2
 10
994.864
 20
-449.863
 30
0.000000
  70
    32
  0
VERTEX
  8
┌▓È_1
  5
4C3
 10
994.901
 20
-449.895
 30
0.000000
  70
    32
  0
VERTEX
  8
┌▓È_1
  5
4C4
 10
994.938
 20
-449.926
 30
0.000000
  70
    32
  0
VERTEX
  8
┌▓È_1
  5
4C5
 10
994.975
 20
-449.958
 30
0.000000
  70
    32
  0
VERTEX
  8
┌▓È_1
  5
4C6
 10
995.012
 20
-449.989
 30
0.000000
  70
    32
  0
VERTEX
  8
┌▓È_1
  5
4C7
 10
995.049
 20
-450.021
 30
0.000000
  70
    32
  0
VERTEX
  8
┌▓È_1
  5
4C8
 10
995.086
 20
-450.052
 30
0.000000
  70
    32
  0
VERTEX
  8
┌▓È_1
  5
4C9
 10
995.123
 20
-450.084
 30
0.000000
  70
    32
  0
VERTEX
  8
┌▓È_1
  5
4CA
 10
995.160
 20
-450.115
 30
0.000000
  70
    32
  0
VERTEX
  8
┌▓È_1
  5
4CB
 10
995.197
 20
-450.146
 30
0.000000
  70
    32
  0
VERTEX
  8
┌▓È_1
  5
4CC
 10
995.234
 20
-450.177
 30
0.000000
  70
    32
  0
VERTEX
  8
┌▓È_1
  5
4CD
 10
995.272
 20
-450.208
 30
0.000000
  70
    32
  0
VERTEX
  8
┌▓È_1
  5
4CE
 10
995.309
 20
-450.240
 30
0.000000
  70
    32
  0
VERTEX
  8
┌▓È_1
  5
4CF
 10
995.346
 20
-450.271
 30
0.000000
  70
    32
  0
VERTEX
  8
┌▓È_1
  5
4D0
 10
995.383
 20
-450.302
 30
0.000000
  70
    32
  0
VERTEX
  8
┌▓È_1
  5
4D1
 10
995.420
 20
-450.332
 30
0.000000
  70
    32
  0
VERTEX
  8
┌▓È_1
  5
4D2
 10
995.458
 20
-450.363
 30
0.000000
  70
    32
  0
VERTEX
  8
┌▓È_1
  5
4D3
 10
995.495
 20
-450.394
 30
0.000000
  70
    32
  0
VERTEX
  8
┌▓È_1
  5
4D4
 10
995.532
 20
-450.425
 30
0.000000
  70
    32
  0
VERTEX
  8
┌▓È_1
  5
4D5
 10
995.570
 20
-450.456
 30
0.000000
  70
    32
  0
VERTEX
  8
┌▓È_1
  5
4D6
 10
995.607
 20
-450.486
 30
0.000000
  70
    32
  0
VERTEX
  8
┌▓È_1
  5
4D7
 10
995.645
 20
-450.517
 30
0.000000
  70
    32
  0
VERTEX
  8
┌▓È_1
  5
4D8
 10
995.682
 20
-450.547
 30
0.000000
  70
    32
  0
VERTEX
  8
┌▓È_1
  5
4D9
 10
995.720
 20
-450.578
 30
0.000000
  70
    32
  0
VERTEX
  8
┌▓È_1
  5
4DA
 10
995.757
 20
-450.608
 30
0.000000
  70
    32
  0
VERTEX
  8
┌▓È_1
  5
4DB
 10
995.795
 20
-450.638
 30
0.000000
  70
    32
  0
VERTEX
  8
┌▓È_1
  5
4DC
 10
995.832
 20
-450.669
 30
0.000000
  70
    32
  0
VERTEX
  8
┌▓È_1
  5
4DD
 10
995.870
 20
-450.699
 30
0.000000
  70
    32
  0
VERTEX
  8
┌▓È_1
  5
4DE
 10
995.908
 20
-450.729
 30
0.000000
  70
    32
  0
VERTEX
  8
┌▓È_1
  5
4DF
 10
995.945
 20
-450.759
 30
0.000000
  70
    32
  0
VERTEX
  8
┌▓È_1
  5
4E0
 10
995.983
 20
-450.789
 30
0.000000
  70
    32
  0
VERTEX
  8
┌▓È_1
  5
4E1
 10
996.021
 20
-450.819
 30
0.000000
  70
    32
  0
VERTEX
  8
┌▓È_1
  5
4E2
 10
996.059
 20
-450.849
 30
0.000000
  70
    32
  0
VERTEX
  8
┌▓È_1
  5
4E3
 10
996.097
 20
-450.878
 30
0.000000
  70
    32
  0
VERTEX
  8
┌▓È_1
  5
4E4
 10
996.135
 20
-450.908
 30
0.000000
  70
    32
  0
VERTEX
  8
┌▓È_1
  5
4E5
 10
996.173
 20
-450.938
 30
0.000000
  70
    32
  0
VERTEX
  8
┌▓È_1
  5
4E6
 10
996.211
 20
-450.967
 30
0.000000
  70
    32
  0
VERTEX
  8
┌▓È_1
  5
4E7
 10
996.249
 20
-450.997
 30
0.000000
  70
    32
  0
VERTEX
  8
┌▓È_1
  5
4E8
 10
996.287
 20
-451.026
 30
0.000000
  70
    32
  0
VERTEX
  8
┌▓È_1
  5
4E9
 10
996.325
 20
-451.056
 30
0.000000
  70
    32
  0
VERTEX
  8
┌▓È_1
  5
4EA
 10
996.363
 20
-451.085
 30
0.000000
  70
    32
  0
VERTEX
  8
┌▓È_1
  5
4EB
 10
996.401
 20
-451.114
 30
0.000000
  70
    32
  0
VERTEX
  8
┌▓È_1
  5
4EC
 10
996.439
 20
-451.143
 30
0.000000
  70
    32
  0
VERTEX
  8
┌▓È_1
  5
4ED
 10
996.478
 20
-451.172
 30
0.000000
  70
    32
  0
VERTEX
  8
┌▓È_1
  5
4EE
 10
996.516
 20
-451.201
 30
0.000000
  70
    32
  0
VERTEX
  8
┌▓È_1
  5
4EF
 10
996.554
 20
-451.230
 30
0.000000
  70
    32
  0
VERTEX
  8
┌▓È_1
  5
4F0
 10
996.593
 20
-451.259
 30
0.000000
  70
    32
  0
VERTEX
  8
┌▓È_1
  5
4F1
 10
996.631
 20
-451.288
 30
0.000000
  70
    32
  0
VERTEX
  8
┌▓È_1
  5
4F2
 10
996.670
 20
-451.317
 30
0.000000
  70
    32
  0
VERTEX
  8
┌▓È_1
  5
4F3
 10
996.708
 20
-451.345
 30
0.000000
  70
    32
  0
VERTEX
  8
┌▓È_1
  5
4F4
 10
996.747
 20
-451.374
 30
0.000000
  70
    32
  0
VERTEX
  8
┌▓È_1
  5
4F5
 10
996.785
 20
-451.402
 30
0.000000
  70
    32
  0
VERTEX
  8
┌▓È_1
  5
4F6
 10
996.824
 20
-451.430
 30
0.000000
  70
    32
  0
VERTEX
  8
┌▓È_1
  5
4F7
 10
996.863
 20
-451.459
 30
0.000000
  70
    32
  0
VERTEX
  8
┌▓È_1
  5
4F8
 10
996.901
 20
-451.487
 30
0.000000
  70
    32
  0
VERTEX
  8
┌▓È_1
  5
4F9
 10
996.940
 20
-451.515
 30
0.000000
  70
    32
  0
VERTEX
  8
┌▓È_1
  5
4FA
 10
996.979
 20
-451.543
 30
0.000000
  70
    32
  0
VERTEX
  8
┌▓È_1
  5
4FB
 10
997.018
 20
-451.571
 30
0.000000
  70
    32
  0
VERTEX
  8
┌▓È_1
  5
4FC
 10
997.057
 20
-451.599
 30
0.000000
  70
    32
  0
VERTEX
  8
┌▓È_1
  5
4FD
 10
997.096
 20
-451.627
 30
0.000000
  70
    32
  0
VERTEX
  8
┌▓È_1
  5
4FE
 10
997.135
 20
-451.654
 30
0.000000
  70
    32
  0
VERTEX
  8
┌▓È_1
  5
4FF
 10
997.174
 20
-451.682
 30
0.000000
  70
    32
  0
VERTEX
  8
┌▓È_1
  5
500
 10
997.213
 20
-451.709
 30
0.000000
  70
    32
  0
VERTEX
  8
┌▓È_1
  5
501
 10
997.252
 20
-451.737
 30
0.000000
  70
    32
  0
VERTEX
  8
┌▓È_1
  5
502
 10
997.291
 20
-451.764
 30
0.000000
  70
    32
  0
VERTEX
  8
┌▓È_1
  5
503
 10
997.330
 20
-451.791
 30
0.000000
  70
    32
  0
VERTEX
  8
┌▓È_1
  5
504
 10
997.370
 20
-451.818
 30
0.000000
  70
    32
  0
VERTEX
  8
┌▓È_1
  5
505
 10
997.409
 20
-451.845
 30
0.000000
  70
    32
  0
VERTEX
  8
┌▓È_1
  5
506
 10
997.449
 20
-451.872
 30
0.000000
  70
    32
  0
VERTEX
  8
┌▓È_1
  5
507
 10
997.488
 20
-451.899
 30
0.000000
  70
    32
  0
VERTEX
  8
┌▓È_1
  5
508
 10
997.527
 20
-451.926
 30
0.000000
  70
    32
  0
VERTEX
  8
┌▓È_1
  5
509
 10
997.567
 20
-451.953
 30
0.000000
  70
    32
  0
VERTEX
  8
┌▓È_1
  5
50A
 10
997.607
 20
-451.979
 30
0.000000
  70
    32
  0
VERTEX
  8
┌▓È_1
  5
50B
 10
997.646
 20
-452.006
 30
0.000000
  70
    32
  0
VERTEX
  8
┌▓È_1
  5
50C
 10
997.686
 20
-452.032
 30
0.000000
  70
    32
  0
VERTEX
  8
┌▓È_1
  5
50D
 10
997.726
 20
-452.058
 30
0.000000
  70
    32
  0
VERTEX
  8
┌▓È_1
  5
50E
 10
997.766
 20
-452.085
 30
0.000000
  70
    32
  0
VERTEX
  8
┌▓È_1
  5
50F
 10
997.805
 20
-452.111
 30
0.000000
  70
    32
  0
VERTEX
  8
┌▓È_1
  5
510
 10
997.845
 20
-452.137
 30
0.000000
  70
    32
  0
VERTEX
  8
┌▓È_1
  5
511
 10
997.885
 20
-452.163
 30
0.000000
  70
    32
  0
VERTEX
  8
┌▓È_1
  5
512
 10
997.925
 20
-452.188
 30
0.000000
  70
    32
  0
VERTEX
  8
┌▓È_1
  5
513
 10
997.966
 20
-452.214
 30
0.000000
  70
    32
  0
VERTEX
  8
┌▓È_1
  5
514
 10
998.006
 20
-452.240
 30
0.000000
  70
    32
  0
VERTEX
  8
┌▓È_1
  5
515
 10
998.046
 20
-452.265
 30
0.000000
  70
    32
  0
VERTEX
  8
┌▓È_1
  5
516
 10
998.086
 20
-452.291
 30
0.000000
  70
    32
  0
VERTEX
  8
┌▓È_1
  5
517
 10
998.126
 20
-452.316
 30
0.000000
  70
    32
  0
VERTEX
  8
┌▓È_1
  5
518
 10
998.167
 20
-452.341
 30
0.000000
  70
    32
  0
VERTEX
  8
┌▓È_1
  5
519
 10
998.207
 20
-452.366
 30
0.000000
  70
    32
  0
VERTEX
  8
┌▓È_1
  5
51A
 10
998.248
 20
-452.391
 30
0.000000
  70
    32
  0
VERTEX
  8
┌▓È_1
  5
51B
 10
998.288
 20
-452.416
 30
0.000000
  70
    32
  0
VERTEX
  8
┌▓È_1
  5
51C
 10
998.329
 20
-452.441
 30
0.000000
  70
    32
  0
VERTEX
  8
┌▓È_1
  5
51D
 10
998.370
 20
-452.465
 30
0.000000
  70
    32
  0
VERTEX
  8
┌▓È_1
  5
51E
 10
998.410
 20
-452.490
 30
0.000000
  70
    32
  0
SEQEND
  8
┌▓È_1
  5
51F
  0
POLYLINE
  8
┌▓È_1
  5
520
  62
5
  66
     1
 10
0.000000
 20
0.000000
 30
0.000000
  70
     8
  0
VERTEX
  8
┌▓È_1
  5
521
 10
1003.35
 20
-454.657
 30
0.000000
  70
    32
  0
VERTEX
  8
┌▓È_1
  5
522
 10
1003.40
 20
-454.675
 30
0.000000
  70
    32
  0
VERTEX
  8
┌▓È_1
  5
523
 10
1003.46
 20
-454.692
 30
0.000000
  70
    32
  0
VERTEX
  8
┌▓È_1
  5
524
 10
1003.51
 20
-454.709
 30
0.000000
  70
    32
  0
VERTEX
  8
┌▓È_1
  5
525
 10
1003.57
 20
-454.726
 30
0.000000
  70
    32
  0
VERTEX
  8
┌▓È_1
  5
526
 10
1003.62
 20
-454.742
 30
0.000000
  70
    32
  0
VERTEX
  8
┌▓È_1
  5
527
 10
1003.67
 20
-454.759
 30
0.000000
  70
    32
  0
VERTEX
  8
┌▓È_1
  5
528
 10
1003.73
 20
-454.776
 30
0.000000
  70
    32
  0
VERTEX
  8
┌▓È_1
  5
529
 10
1003.78
 20
-454.792
 30
0.000000
  70
    32
  0
VERTEX
  8
┌▓È_1
  5
52A
 10
1003.84
 20
-454.809
 30
0.000000
  70
    32
  0
VERTEX
  8
┌▓È_1
  5
52B
 10
1003.89
 20
-454.825
 30
0.000000
  70
    32
  0
VERTEX
  8
┌▓È_1
  5
52C
 10
1003.94
 20
-454.842
 30
0.000000
  70
    32
  0
VERTEX
  8
┌▓È_1
  5
52D
 10
1004.00
 20
-454.858
 30
0.000000
  70
    32
  0
VERTEX
  8
┌▓È_1
  5
52E
 10
1004.05
 20
-454.874
 30
0.000000
  70
    32
  0
VERTEX
  8
┌▓È_1
  5
52F
 10
1004.11
 20
-454.890
 30
0.000000
  70
    32
  0
VERTEX
  8
┌▓È_1
  5
530
 10
1004.16
 20
-454.906
 30
0.000000
  70
    32
  0
VERTEX
  8
┌▓È_1
  5
531
 10
1004.22
 20
-454.922
 30
0.000000
  70
    32
  0
VERTEX
  8
┌▓È_1
  5
532
 10
1004.27
 20
-454.938
 30
0.000000
  70
    32
  0
VERTEX
  8
┌▓È_1
  5
533
 10
1004.33
 20
-454.954
 30
0.000000
  70
    32
  0
VERTEX
  8
┌▓È_1
  5
534
 10
1004.38
 20
-454.970
 30
0.000000
  70
    32
  0
VERTEX
  8
┌▓È_1
  5
535
 10
1004.43
 20
-454.985
 30
0.000000
  70
    32
  0
VERTEX
  8
┌▓È_1
  5
536
 10
1004.49
 20
-455.001
 30
0.000000
  70
    32
  0
VERTEX
  8
┌▓È_1
  5
537
 10
1004.54
 20
-455.017
 30
0.000000
  70
    32
  0
VERTEX
  8
┌▓È_1
  5
538
 10
1004.60
 20
-455.032
 30
0.000000
  70
    32
  0
VERTEX
  8
┌▓È_1
  5
539
 10
1004.65
 20
-455.047
 30
0.000000
  70
    32
  0
VERTEX
  8
┌▓È_1
  5
53A
 10
1004.71
 20
-455.063
 30
0.000000
  70
    32
  0
VERTEX
  8
┌▓È_1
  5
53B
 10
1004.76
 20
-455.078
 30
0.000000
  70
    32
  0
VERTEX
  8
┌▓È_1
  5
53C
 10
1004.82
 20
-455.093
 30
0.000000
  70
    32
  0
VERTEX
  8
┌▓È_1
  5
53D
 10
1004.87
 20
-455.108
 30
0.000000
  70
    32
  0
VERTEX
  8
┌▓È_1
  5
53E
 10
1004.93
 20
-455.123
 30
0.000000
  70
    32
  0
VERTEX
  8
┌▓È_1
  5
53F
 10
1004.98
 20
-455.138
 30
0.000000
  70
    32
  0
VERTEX
  8
┌▓È_1
  5
540
 10
1005.04
 20
-455.153
 30
0.000000
  70
    32
  0
VERTEX
  8
┌▓È_1
  5
541
 10
1005.09
 20
-455.168
 30
0.000000
  70
    32
  0
VERTEX
  8
┌▓È_1
  5
542
 10
1005.15
 20
-455.183
 30
0.000000
  70
    32
  0
VERTEX
  8
┌▓È_1
  5
543
 10
1005.20
 20
-455.198
 30
0.000000
  70
    32
  0
VERTEX
  8
┌▓È_1
  5
544
 10
1005.26
 20
-455.212
 30
0.000000
  70
    32
  0
VERTEX
  8
┌▓È_1
  5
545
 10
1005.31
 20
-455.227
 30
0.000000
  70
    32
  0
VERTEX
  8
┌▓È_1
  5
546
 10
1005.37
 20
-455.241
 30
0.000000
  70
    32
  0
VERTEX
  8
┌▓È_1
  5
547
 10
1005.42
 20
-455.256
 30
0.000000
  70
    32
  0
VERTEX
  8
┌▓È_1
  5
548
 10
1005.48
 20
-455.270
 30
0.000000
  70
    32
  0
VERTEX
  8
┌▓È_1
  5
549
 10
1005.54
 20
-455.285
 30
0.000000
  70
    32
  0
VERTEX
  8
┌▓È_1
  5
54A
 10
1005.59
 20
-455.299
 30
0.000000
  70
    32
  0
VERTEX
  8
┌▓È_1
  5
54B
 10
1005.65
 20
-455.313
 30
0.000000
  70
    32
  0
VERTEX
  8
┌▓È_1
  5
54C
 10
1005.70
 20
-455.327
 30
0.000000
  70
    32
  0
VERTEX
  8
┌▓È_1
  5
54D
 10
1005.76
 20
-455.342
 30
0.000000
  70
    32
  0
VERTEX
  8
┌▓È_1
  5
54E
 10
1005.81
 20
-455.356
 30
0.000000
  70
    32
  0
VERTEX
  8
┌▓È_1
  5
54F
 10
1005.87
 20
-455.370
 30
0.000000
  70
    32
  0
VERTEX
  8
┌▓È_1
  5
550
 10
1005.92
 20
-455.384
 30
0.000000
  70
    32
  0
VERTEX
  8
┌▓È_1
  5
551
 10
1005.98
 20
-455.398
 30
0.000000
  70
    32
  0
VERTEX
  8
┌▓È_1
  5
552
 10
1006.03
 20
-455.411
 30
0.000000
  70
    32
  0
VERTEX
  8
┌▓È_1
  5
553
 10
1006.09
 20
-455.425
 30
0.000000
  70
    32
  0
VERTEX
  8
┌▓È_1
  5
554
 10
1006.15
 20
-455.439
 30
0.000000
  70
    32
  0
VERTEX
  8
┌▓È_1
  5
555
 10
1006.20
 20
-455.453
 30
0.000000
  70
    32
  0
VERTEX
  8
┌▓È_1
  5
556
 10
1006.26
 20
-455.466
 30
0.000000
  70
    32
  0
VERTEX
  8
┌▓È_1
  5
557
 10
1006.31
 20
-455.480
 30
0.000000
  70
    32
  0
VERTEX
  8
┌▓È_1
  5
558
 10
1006.37
 20
-455.494
 30
0.000000
  70
    32
  0
VERTEX
  8
┌▓È_1
  5
559
 10
1006.43
 20
-455.507
 30
0.000000
  70
    32
  0
VERTEX
  8
┌▓È_1
  5
55A
 10
1006.48
 20
-455.521
 30
0.000000
  70
    32
  0
VERTEX
  8
┌▓È_1
  5
55B
 10
1006.54
 20
-455.534
 30
0.000000
  70
    32
  0
VERTEX
  8
┌▓È_1
  5
55C
 10
1006.59
 20
-455.547
 30
0.000000
  70
    32
  0
VERTEX
  8
┌▓È_1
  5
55D
 10
1006.65
 20
-455.561
 30
0.000000
  70
    32
  0
VERTEX
  8
┌▓È_1
  5
55E
 10
1006.70
 20
-455.574
 30
0.000000
  70
    32
  0
VERTEX
  8
┌▓È_1
  5
55F
 10
1006.76
 20
-455.587
 30
0.000000
  70
    32
  0
VERTEX
  8
┌▓È_1
  5
560
 10
1006.82
 20
-455.600
 30
0.000000
  70
    32
  0
VERTEX
  8
┌▓È_1
  5
561
 10
1006.87
 20
-455.614
 30
0.000000
  70
    32
  0
VERTEX
  8
┌▓È_1
  5
562
 10
1006.93
 20
-455.627
 30
0.000000
  70
    32
  0
VERTEX
  8
┌▓È_1
  5
563
 10
1006.98
 20
-455.640
 30
0.000000
  70
    32
  0
VERTEX
  8
┌▓È_1
  5
564
 10
1007.04
 20
-455.653
 30
0.000000
  70
    32
  0
VERTEX
  8
┌▓È_1
  5
565
 10
1007.10
 20
-455.666
 30
0.000000
  70
    32
  0
VERTEX
  8
┌▓È_1
  5
566
 10
1007.15
 20
-455.679
 30
0.000000
  70
    32
  0
VERTEX
  8
┌▓È_1
  5
567
 10
1007.21
 20
-455.692
 30
0.000000
  70
    32
  0
VERTEX
  8
┌▓È_1
  5
568
 10
1007.27
 20
-455.704
 30
0.000000
  70
    32
  0
VERTEX
  8
┌▓È_1
  5
569
 10
1007.32
 20
-455.717
 30
0.000000
  70
    32
  0
VERTEX
  8
┌▓È_1
  5
56A
 10
1007.38
 20
-455.730
 30
0.000000
  70
    32
  0
VERTEX
  8
┌▓È_1
  5
56B
 10
1007.43
 20
-455.743
 30
0.000000
  70
    32
  0
VERTEX
  8
┌▓È_1
  5
56C
 10
1007.49
 20
-455.756
 30
0.000000
  70
    32
  0
VERTEX
  8
┌▓È_1
  5
56D
 10
1007.55
 20
-455.768
 30
0.000000
  70
    32
  0
VERTEX
  8
┌▓È_1
  5
56E
 10
1007.60
 20
-455.781
 30
0.000000
  70
    32
  0
VERTEX
  8
┌▓È_1
  5
56F
 10
1007.66
 20
-455.794
 30
0.000000
  70
    32
  0
VERTEX
  8
┌▓È_1
  5
570
 10
1007.72
 20
-455.806
 30
0.000000
  70
    32
  0
VERTEX
  8
┌▓È_1
  5
571
 10
1007.77
 20
-455.819
 30
0.000000
  70
    32
  0
VERTEX
  8
┌▓È_1
  5
572
 10
1007.83
 20
-455.831
 30
0.000000
  70
    32
  0
VERTEX
  8
┌▓È_1
  5
573
 10
1007.88
 20
-455.844
 30
0.000000
  70
    32
  0
VERTEX
  8
┌▓È_1
  5
574
 10
1007.94
 20
-455.856
 30
0.000000
  70
    32
  0
VERTEX
  8
┌▓È_1
  5
575
 10
1008.00
 20
-455.869
 30
0.000000
  70
    32
  0
VERTEX
  8
┌▓È_1
  5
576
 10
1008.05
 20
-455.881
 30
0.000000
  70
    32
  0
VERTEX
  8
┌▓È_1
  5
577
 10
1008.11
 20
-455.893
 30
0.000000
  70
    32
  0
VERTEX
  8
┌▓È_1
  5
578
 10
1008.17
 20
-455.906
 30
0.000000
  70
    32
  0
VERTEX
  8
┌▓È_1
  5
579
 10
1008.22
 20
-455.918
 30
0.000000
  70
    32
  0
VERTEX
  8
┌▓È_1
  5
57A
 10
1008.28
 20
-455.930
 30
0.000000
  70
    32
  0
VERTEX
  8
┌▓È_1
  5
57B
 10
1008.34
 20
-455.943
 30
0.000000
  70
    32
  0
VERTEX
  8
┌▓È_1
  5
57C
 10
1008.39
 20
-455.955
 30
0.000000
  70
    32
  0
VERTEX
  8
┌▓È_1
  5
57D
 10
1008.45
 20
-455.967
 30
0.000000
  70
    32
  0
VERTEX
  8
┌▓È_1
  5
57E
 10
1008.51
 20
-455.979
 30
0.000000
  70
    32
  0
VERTEX
  8
┌▓È_1
  5
57F
 10
1008.56
 20
-455.991
 30
0.000000
  70
    32
  0
VERTEX
  8
┌▓È_1
  5
580
 10
1008.62
 20
-456.004
 30
0.000000
  70
    32
  0
VERTEX
  8
┌▓È_1
  5
581
 10
1008.67
 20
-456.016
 30
0.000000
  70
    32
  0
VERTEX
  8
┌▓È_1
  5
582
 10
1008.73
 20
-456.028
 30
0.000000
  70
    32
  0
VERTEX
  8
┌▓È_1
  5
583
 10
1008.79
 20
-456.040
 30
0.000000
  70
    32
  0
VERTEX
  8
┌▓È_1
  5
584
 10
1008.84
 20
-456.052
 30
0.000000
  70
    32
  0
VERTEX
  8
┌▓È_1
  5
585
 10
1008.90
 20
-456.064
 30
0.000000
  70
    32
  0
VERTEX
  8
┌▓È_1
  5
586
 10
1008.96
 20
-456.076
 30
0.000000
  70
    32
  0
VERTEX
  8
┌▓È_1
  5
587
 10
1009.01
 20
-456.088
 30
0.000000
  70
    32
  0
VERTEX
  8
┌▓È_1
  5
588
 10
1009.07
 20
-456.100
 30
0.000000
  70
    32
  0
VERTEX
  8
┌▓È_1
  5
589
 10
1009.13
 20
-456.112
 30
0.000000
  70
    32
  0
VERTEX
  8
┌▓È_1
  5
58A
 10
1009.18
 20
-456.124
 30
0.000000
  70
    32
  0
VERTEX
  8
┌▓È_1
  5
58B
 10
1009.24
 20
-456.136
 30
0.000000
  70
    32
  0
VERTEX
  8
┌▓È_1
  5
58C
 10
1009.30
 20
-456.148
 30
0.000000
  70
    32
  0
VERTEX
  8
┌▓È_1
  5
58D
 10
1009.35
 20
-456.160
 30
0.000000
  70
    32
  0
VERTEX
  8
┌▓È_1
  5
58E
 10
1009.41
 20
-456.172
 30
0.000000
  70
    32
  0
VERTEX
  8
┌▓È_1
  5
58F
 10
1009.47
 20
-456.184
 30
0.000000
  70
    32
  0
VERTEX
  8
┌▓È_1
  5
590
 10
1009.52
 20
-456.196
 30
0.000000
  70
    32
  0
VERTEX
  8
┌▓È_1
  5
591
 10
1009.58
 20
-456.207
 30
0.000000
  70
    32
  0
VERTEX
  8
┌▓È_1
  5
592
 10
1009.64
 20
-456.219
 30
0.000000
  70
    32
  0
VERTEX
  8
┌▓È_1
  5
593
 10
1009.69
 20
-456.231
 30
0.000000
  70
    32
  0
VERTEX
  8
┌▓È_1
  5
594
 10
1009.75
 20
-456.243
 30
0.000000
  70
    32
  0
VERTEX
  8
┌▓È_1
  5
595
 10
1009.81
 20
-456.255
 30
0.000000
  70
    32
  0
VERTEX
  8
┌▓È_1
  5
596
 10
1009.86
 20
-456.267
 30
0.000000
  70
    32
  0
VERTEX
  8
┌▓È_1
  5
597
 10
1009.92
 20
-456.278
 30
0.000000
  70
    32
  0
VERTEX
  8
┌▓È_1
  5
598
 10
1009.98
 20
-456.290
 30
0.000000
  70
    32
  0
VERTEX
  8
┌▓È_1
  5
599
 10
1010.04
 20
-456.302
 30
0.000000
  70
    32
  0
VERTEX
  8
┌▓È_1
  5
59A
 10
1010.09
 20
-456.314
 30
0.000000
  70
    32
  0
VERTEX
  8
┌▓È_1
  5
59B
 10
1010.15
 20
-456.326
 30
0.000000
  70
    32
  0
VERTEX
  8
┌▓È_1
  5
59C
 10
1010.21
 20
-456.338
 30
0.000000
  70
    32
  0
VERTEX
  8
┌▓È_1
  5
59D
 10
1010.26
 20
-456.349
 30
0.000000
  70
    32
  0
VERTEX
  8
┌▓È_1
  5
59E
 10
1010.32
 20
-456.361
 30
0.000000
  70
    32
  0
VERTEX
  8
┌▓È_1
  5
59F
 10
1010.38
 20
-456.373
 30
0.000000
  70
    32
  0
VERTEX
  8
┌▓È_1
  5
5A0
 10
1010.43
 20
-456.385
 30
0.000000
  70
    32
  0
SEQEND
  8
┌▓È_1
  5
5A1
  0
LINE
  5
9A
  8
┌▓È_1
 62
     5
 10
1027.0254524298
 20
-450.98470436459991
 30
0.0
 11
1026.5650288039001
 21
-449.3847043646
 31
0.0
  0
LINE
  5
9B
  8
┌▓È_1
 62
     5
 10
1023.2671469335
 20
-457.3847043646
 30
0.0
 11
1022.4458136002
 21
-454.58470436459987
 31
0.0
  0
LINE
  5
9C
  8
┌▓È_1
 62
     5
 10
976.11096951570005
 20
-453.3847043646
 30
0.0
 11
970.11096951570005
 21
-453.3847043646
 31
0.0
  0
LINE
  5
9D
  8
┌▓È_1
 62
     5
 10
992.43218163689994
 20
-445.98470436459991
 30
0.0
 11
1002.4321816369001
 21
-445.98470436459991
 31
0.0
  0
LINE
  5
9E
  8
┌▓È_1
 62
     5
 10
1032.8671469335
 20
-445.78470436459992
 30
0.0
 11
1032.8671469335
 21
-449.3847043646
 31
0.0
  0
LINE
  5
9F
  8
┌▓È_1
 62
     5
 10
1014.8671469335
 20
-449.3847043646
 30
0.0
 11
1020.9204802668
 21
-449.3847043646
 31
0.0
  0
LINE
  5
A0
  8
┌▓È_1
 62
     5
 10
1014.8671469335
 20
-450.98470436459991
 30
0.0
 11
1014.8671469335
 21
-454.58470436459987
 31
0.0
  0
LINE
  5
A1
  8
┌▓È_1
 62
     5
 10
975.11096951569994
 20
-452.38470436459988
 30
0.0
 11
975.11096951569994
 21
-449.3847043646
 31
0.0
  0
LINE
  5
A2
  8
┌▓È_1
 62
     5
 10
1028.0614055880999
 20
-454.58470436459987
 30
0.0
 11
1032.8671469335
 21
-454.58470436459987
 31
0.0
  0
LINE
  5
A3
  8
┌▓È_1
 62
     5
 10
987.11096951570005
 20
-442.3847043646
 30
0.0
 11
979.11096951570005
 21
-442.3847043646
 31
0.0
  0
LINE
  5
A4
  8
┌▓È_1
 62
     5
 10
992.43218163689994
 20
-442.3847043646
 30
0.0
 11
992.43218163689994
 21
-445.98470436459991
 31
0.0
  0
ARC
  5
A5
  8
┌▓È_1
 62
     5
 10
978.11096951570005
 20
-450.3847043646
 30
0.0
 40
6.0
 50
270.0
 51
0.0
  0
LINE
  5
A6
  8
┌▓È_1
 62
     5
 10
1025.2362871451001
 20
-444.76724658369989
 30
0.0
 11
1026.8671469335
 21
-442.3847043646
 31
0.0
  0
LINE
  5
A7
  8
┌▓È_1
 62
     5
 10
979.11096951570005
 20
-446.3847043646
 30
0.0
 11
975.11096951569994
 21
-446.3847043646
 31
0.0
  0
LINE
  5
A8
  8
┌▓È_1
 62
     5
 10
978.11096951570005
 20
-442.3847043646
 30
0.0
 11
970.11096951570005
 21
-442.3847043646
 31
0.0
  0
LINE
  5
A9
  8
┌▓È_1
 62
     5
 10
975.11096951569994
 20
-445.3847043646
 30
0.0
 11
978.11096951570005
 21
-442.3847043646
 31
0.0
  0
LINE
  5
AA
  8
┌▓È_1
 62
     5
 10
970.11096951570005
 20
-442.3847043646
 30
0.0
 11
970.11096951570005
 21
-446.3847043646
 31
0.0
  0
LINE
  5
AB
  8
┌▓È_1
 62
     5
 10
1019.8644802668
 20
-445.78470436459992
 30
0.0
 11
1018.8671469335
 21
-442.3847043646
 31
0.0
  0
INSERT
  5
AC
  8
0
  6
CONTINUOUS
  2
*U49
 10
0.0
 20
0.0
 30
0.0
  0
INSERT
  5
AD
  8
0
  6
CONTINUOUS
  2
*U50
 10
0.0
 20
0.0
 30
0.0
  0
INSERT
  5
AE
  8
0
  6
CONTINUOUS
  2
*U51
 10
0.0
 20
0.0
 30
0.0
  0
INSERT
  5
AF
  8
0
  6
CONTINUOUS
  2
*U52
 10
0.0
 20
0.0
 30
0.0
  0
ARC
  5
B0
  8
┌▓È_1
 62
     5
 10
994.83218163690003
 20
-445.78470436459992
 30
0.0
 40
7.5999999999999988
 50
270.0
 51
298.08590481520002
  0
INSERT
  5
B1
  8
0
  6
CONTINUOUS
  2
*U53
 10
0.0
 20
0.0
 30
0.0
  0
INSERT
  5
B2
  8
0
  6
CONTINUOUS
  2
*U54
 10
0.0
 20
0.0
 30
0.0
  0
LINE
  5
B3
  8
┌▓È_1
 62
     5
 10
1018.8671469335
 20
-442.3847043646
 30
0.0
 11
1026.8671469335
 21
-442.3847043646
 31
0.0
  0
LINE
  5
B4
  8
┌▓È_1
 62
     5
 10
1008.4321816369001
 20
-445.3847043646
 30
0.0
 11
1010.4321816369001
 21
-442.3847043646
 31
0.0
  0
LINE
  5
B5
  8
┌▓È_1
 62
     5
 10
970.11096951570005
 20
-456.38470436459988
 30
0.0
 11
978.11096951570005
 21
-456.38470436459988
 31
0.0
  0
LINE
  5
B6
  8
┌▓È_1
 62
     5
 10
992.43218163689994
 20
-456.38470436459988
 30
0.0
 11
997.43218163690005
 21
-456.38470436459988
 31
0.0
  0
ARC
  5
B7
  8
┌▓È_1
 62
     5
 10
994.83218163690003
 20
-445.78470436459992
 30
0.0
 40
7.5999999999999988
 50
331.39928138329998
 51
358.49204224580001
  0
LINE
  5
B8
  8
┌▓È_1
 62
     5
 10
984.11096951569994
 20
-449.3847043646
 30
0.0
 11
987.11096951570005
 21
-449.3847043646
 31
0.0
  0
ARC
  5
B9
  8
┌▓È_1
 62
     5
 10
997.43218163690005
 20
-445.3847043646
 30
0.0
 40
11.0
 50
270.0
 51
302.54495885400001
  0
LINE
  5
BA
  8
┌▓È_1
 62
     5
 10
967.80876189259993
 20
-449.3847043646
 30
0.0
 11
969.80876189259993
 21
-449.3847043646
 31
0.0
  0
LINE
  5
BB
  8
┌▓È_1
 62
     5
 10
1014.8671469335
 20
-450.98470436459991
 30
0.0
 11
1021.3898136002
 21
-450.98470436459991
 31
0.0
  0
LINE
  5
BC
  8
┌▓È_1
 62
     5
 10
987.11096951570005
 20
-446.3847043646
 30
0.0
 11
984.11096951569994
 21
-446.3847043646
 31
0.0
  0
LINE
  5
BD
  8
┌▓È_1
 62
     5
 10
984.11096951569994
 20
-446.3847043646
 30
0.0
 11
984.11096951569994
 21
-445.3847043646
 31
0.0
  0
LINE
  5
BE
  8
┌▓È_1
 62
     5
 10
1014.8671469335
 20
-445.78470436459992
 30
0.0
 11
1019.8644802668
 21
-445.78470436459992
 31
0.0
  0
LINE
  5
BF
  8
┌▓È_1
 62
     5
 10
979.11096951570005
 20
-449.3847043646
 30
0.0
 11
979.11096951570005
 21
-450.3847043646
 31
0.0
  0
LINE
  5
C0
  8
┌▓È_1
 62
     5
 10
975.11096951569994
 20
-449.3847043646
 30
0.0
 11
979.11096951570005
 21
-449.3847043646
 31
0.0
  0
LINE
  5
C1
  8
┌▓È_1
 62
     5
 10
1028.8671469335
 20
-457.3847043646
 30
0.0
 11
1028.0614055880999
 21
-454.58470436459987
 31
0.0
  0
LINE
  5
C2
  8
┌▓È_1
 62
     5
 10
1027.0254524298
 20
-450.98470436459991
 30
0.0
 11
1032.8671469335
 21
-450.98470436459991
 31
0.0
  0
ARC
  5
C3
  8
┌▓È_1
 62
     5
 10
997.43218163690005
 20
-445.3847043646
 30
0.0
 40
11.0
 50
322.48761197969998
 51
0.0
  0
LINE
  5
C4
  8
┌▓È_1
 62
     5
 10
1014.8671469335
 20
-454.58470436459987
 30
0.0
 11
1022.4458136002
 21
-454.58470436459987
 31
0.0
  0
LINE
  5
C5
  8
┌▓È_1
 62
     5
 10
975.11096951569994
 20
-446.3847043646
 30
0.0
 11
975.11096951569994
 21
-445.3847043646
 31
0.0
  0
LINE
  5
C6
  8
┌▓È_1
 62
     5
 10
992.43218163689994
 20
-456.38470436459988
 30
0.0
 11
992.43218163689994
 21
-453.3847043646
 31
0.0
  0
LINE
  5
C7
  8
┌▓È_1
 62
     5
 10
970.11096951570005
 20
-446.3847043646
 30
0.0
 11
967.80876189259993
 21
-446.3847043646
 31
0.0
  0
LINE
  5
C8
  8
┌▓È_1
 62
     5
 10
1032.8671469335
 20
-450.98470436459991
 30
0.0
 11
1032.8671469335
 21
-454.58470436459987
 31
0.0
  0
LINE
  5
C9
  8
┌▓È_1
 62
     5
 10
1021.3898136002
 20
-450.98470436459991
 30
0.0
 11
1020.9204802668
 21
-449.3847043646
 31
0.0
  0
LINE
  5
CA
  8
┌▓È_1
 62
     5
 10
970.11096951570005
 20
-449.3847043646
 30
0.0
 11
969.80876189259993
 21
-449.3847043646
 31
0.0
  0
LINE
  5
CB
  8
┌▓È_1
 62
     5
 10
970.11096951570005
 20
-453.3847043646
 30
0.0
 11
970.11096951570005
 21
-456.38470436459988
 31
0.0
  0
INSERT
  5
CC
  8
0
  6
CONTINUOUS
  2
*U55
 10
0.0
 20
0.0
 30
0.0
  0
LINE
  5
CD
  8
┌▓È_1
 62
     5
 10
1184.6179661007
 20
-460.2050502983999
 30
0.0
 11
1184.6179661007
 21
14.7949497016
 31
0.0
  0
LINE
  5
CE
  8
┌▓È_1
 62
     5
 10
497.11796610070002
 20
-460.2050502983999
 30
0.0
 11
1184.6179661007
 21
-460.2050502983999
 31
0.0
  0
LINE
  5
CF
  8
┌▓È_1
 62
     5
 10
497.11796610070002
 20
14.7949497016
 30
0.0
 11
1184.6179661007
 21
14.7949497016
 31
0.0
  0
LINE
  5
D0
  8
┌▓È_1
 10
1044.6179661007
 20
-417.7050502983999
 30
0.0
 11
1184.6179661007
 21
-417.7050502983999
 31
0.0
  0
LINE
  5
D1
  8
┌▓È_1
 62
     5
 10
497.11796610070002
 20
-460.2050502983999
 30
0.0
 11
497.11796610070002
 21
14.7949497016
 31
0.0
  0
LINE
  5
D2
  8
┌▓È_1
 62
     5
 10
1008.4321816369001
 20
-445.3847043646
 30
0.0
 11
1010.4321816369001
 21
-442.3847043646
 31
0.0
  0
LINE
  5
D3
  8
┌▓È_1
 62
     5
 10
1026.5650288039001
 20
-449.3847043646
 30
0.0
 11
1032.8671469335
 21
-449.3847043646
 31
0.0
  0
LINE
  5
D4
  8
┌▓È_1
 62
     5
 10
979.11096951570005
 20
-442.3847043646
 30
0.0
 11
979.11096951570005
 21
-446.3847043646
 31
0.0
  0
ARC
  5
D5
  8
┌▓È_1
 62
     5
 10
976.11096951570005
 20
-450.3847043646
 30
0.0
 40
3.0
 50
270.0
 51
0.0
  0
LINE
  5
D6
  8
┌▓È_1
 62
     5
 10
1001.5048066203
 20
-449.42284617479999
 30
0.0
 11
1001.0236150077
 21
-449.95432289589991
 31
0.0
  0
LINE
  5
D7
  8
┌▓È_1
 62
     5
 10
992.43218163689994
 20
-447.02892489959987
 30
0.0
 11
1000.4321816369001
 21
-447.02892489959987
 31
0.0
  0
LINE
  5
D8
  8
┌▓È_1
 62
     5
 10
984.11096951569994
 20
-450.3847043646
 30
0.0
 11
984.11096951569994
 21
-449.3847043646
 31
0.0
  0
LINE
  5
D9
  8
┌▓È_1
 62
     5
 10
1014.8671469335
 20
-445.78470436459992
 30
0.0
 11
1014.8671469335
 21
-449.3847043646
 31
0.0
  0
LINE
  5
DA
  8
┌▓È_1
 10
1004.6179661007
 20
-396.45505029840001
 30
0.0
 11
1004.6179661007
 21
-438.95505029840001
 31
0.0
  0
LINE
  5
DB
  8
┌▓È_1
 10
924.61796610070007
 20
-396.45505029840001
 30
0.0
 11
924.61796610070007
 21
-417.7050502983999
 31
0.0
  0
LINE
  5
DC
  8
┌▓È_1
 10
1044.6179661007
 20
-396.45505029840001
 30
0.0
 11
1044.6179661007
 21
-460.2050502983999
 31
0.0
  0
LINE
  5
DD
  8
┌▓È_1
 10
884.61796610070007
 20
-396.45505029840001
 30
0.0
 11
884.61796610070007
 21
-460.2050502983999
 31
0.0
  0
LINE
  5
DE
  8
┌▓È_1
 62
     5
 10
1025.5290756456
 20
-445.78470436459992
 30
0.0
 11
1032.8671469335
 21
-445.78470436459992
 31
0.0
  0
INSERT
  5
DF
  8
0
  6
CONTINUOUS
  2
*U56
 10
0.0
 20
0.0
 30
0.0
  0
LINE
  5
E0
  8
┌▓È_1
 62
     5
 10
970.11096951570005
 20
-449.3847043646
 30
0.0
 11
970.11096951570005
 21
-452.38470436459988
 31
0.0
  0
LINE
  5
E1
  8
┌▓È_1
 62
     5
 10
1006.1576203411
 20
-452.08296678250002
 30
0.0
 11
1005.8014162214999
 21
-452.43172307089998
 31
0.0
  0
INSERT
  5
E2
  8
0
  6
CONTINUOUS
  2
*U57
 10
0.0
 20
0.0
 30
0.0
  0
LINE
  5
E3
  8
┌▓È_1
 62
     5
 10
992.43218163689994
 20
-453.3847043646
 30
0.0
 11
992.43218163689994
 21
-456.38470436459988
 31
0.0
  0
LINE
  5
E4
  8
┌▓È_1
 62
     5
 10
992.43218163689994
 20
-453.3847043646
 30
0.0
 11
994.83218163690003
 21
-453.3847043646
 31
0.0
  0
INSERT
  5
E6
  8
┌▓È_1
  2
CLUMP4
 10
0.0
 20
0.0
 30
0.0
  0
LINE
  5
ED
  8
┌▓È_1
 62
     5
 10
620.11192350400006
 20
-258.93391004540001
 30
0.0
 11
815.61192350399995
 21
-258.93391004540001
 31
0.0
  0
LINE
  5
EE
  8
┌▓È_1
 62
     5
 10
620.11192350400006
 20
-58.93391004539999
 30
0.0
 11
615.61192350400006
 21
-58.93391004539999
 31
0.0
  0
LINE
  5
EF
  8
┌▓È_1
 62
     5
 10
815.61192350399995
 20
-258.93391004540001
 30
0.0
 11
815.61192350399995
 21
-254.43391004540001
 31
0.0
  0
INSERT
  5
F1
  8
┌▓È_1
  2
CLUMP5
 10
0.0
 20
0.0
 30
0.0
  0
INSERT
  5
FE
  8
┌▓È_1
  2
CLUMP6
 10
0.0
 20
0.0
 30
0.0
  0
ARC
  5
105
  8
┌▓È_1
 62
     5
 10
620.11192350400006
 20
-254.43391004540001
 30
0.0
 40
4.5
 50
180.0
 51
270.0
  0
INSERT
  5
107
  8
┌▓È_1
  2
CLUMP7
 10
0.0
 20
0.0
 30
0.0
  0
LINE
  5
113
  8
┌▓È_1
  6
STITCH
 10
643.11192350399995
 20
-257.18391004540001
 30
0.0
 11
648.11192350399995
 21
-257.18391004540001
 31
0.0
  0
LINE
  5
114
  8
┌▓È_1
  6
STITCH
 10
648.11192350399995
 20
-257.18391004540001
 30
0.0
 11
648.11192350399995
 21
-256.18391004540001
 31
0.0
  0
LINE
  5
115
  8
┌▓È_1
  6
STITCH
 10
648.11192350399995
 20
-256.18391004540001
 30
0.0
 11
643.11192350399995
 21
-256.18391004540001
 31
0.0
  0
LINE
  5
116
  8
┌▓È_1
  6
STITCH
 10
648.11192350399995
 20
-257.18391004540001
 30
0.0
 11
649.86192350399995
 21
-258.93391004540001
 31
0.0
  0
LINE
  5
117
  8
┌▓È_1
  6
STITCH
 10
648.11192350399995
 20
-256.18391004540001
 30
0.0
 11
649.86192350399995
 21
-254.43391004540001
 31
0.0
  0
LINE
  5
118
  8
┌▓È_1
  6
STITCH
 10
643.11192350399995
 20
-257.18391004540001
 30
0.0
 11
641.36192350399995
 21
-258.93391004540001
 31
0.0
  0
LINE
  5
119
  8
┌▓È_1
  6
STITCH
 10
643.11192350399995
 20
-256.18391004540001
 30
0.0
 11
641.36192350399995
 21
-254.43391004540001
 31
0.0
  0
LINE
  5
11A
  8
┌▓È_1
  6
STITCH
 10
643.11192350399995
 20
-256.18391004540001
 30
0.0
 11
643.11192350399995
 21
-257.18391004540001
 31
0.0
  0
LINE
  5
11B
  8
┌▓È_1
  6
BORDER
 62
     3
 10
645.61192350399995
 20
-248.6061322676
 30
0.0
 11
645.61192350399995
 21
-265.97557671210001
 31
0.0
  0
INSERT
  5
11D
  8
┌▓È_1
  6
STITCH
  2
CLUMP8
 10
0.0
 20
0.0
 30
0.0
  0
INSERT
  5
129
  8
0
  6
CONTINUOUS
  2
*U58
 10
0.0
 20
0.0
 30
0.0
  0
LINE
  5
12A
  8
┌▓È_1
 62
     5
 10
1025.5290756456
 20
-445.78470436459992
 30
0.0
 11
1025.2362871451001
 21
-444.76724658369989
 31
0.0
  0
LINE
  5
12B
  8
┌▓È_1
 62
     5
 10
1010.4321816369001
 20
-442.3847043646
 30
0.0
 11
992.43218163689994
 21
-442.3847043646
 31
0.0
  0
LINE
  5
12C
  8
┌▓È_1
 62
     5
 10
970.11096951570005
 20
-452.38470436459988
 30
0.0
 11
975.11096951569994
 21
-452.38470436459988
 31
0.0
  0
LINE
  5
12D
  8
┌▓È_1
 62
     5
 10
984.11096951569994
 20
-445.3847043646
 30
0.0
 11
987.11096951570005
 21
-442.3847043646
 31
0.0
  0
LINE
  5
12E
  8
┌▓È_1
 10
884.61796610070007
 20
-438.95505029840001
 30
0.0
 11
1184.6179661007
 21
-438.95505029840001
 31
0.0
  0
LINE
  5
12F
  8
┌▓È_1
 10
884.61796610070007
 20
-396.45505029840001
 30
0.0
 11
1184.6179661007
 21
-396.45505029840001
 31
0.0
  0
DIMENSION
  5
13E
  8
Éíû@É³
  2
*D12
 10
877.66411606479994
 20
-70.933910045399983
 30
0.0
 11
877.66411606479994
 21
-110.4339100454
 31
0.0
 70
   128
  1
104
 13
905.08552058550003
 23
-70.933910045399983
 33
0.0
 14
900.08552058550003
 24
-149.93391004540001
 34
0.0
 50
90.0
  0
DIMENSION
  5
14D
  8
Éíû@É³
  2
*D13
 10
594.32154111879993
 20
-58.93391004539999
 30
0.0
 11
594.32154111879993
 21
-158.93391004540001
 31
0.0
 70
   128
  1
250
 13
615.61192350400006
 23
-58.93391004539999
 33
0.0
 14
620.11192350400006
 24
-258.93391004540001
 34
0.0
 50
90.0
  0
DIMENSION
  5
15C
  8
Éíû@É³
  2
*D14
 10
803.61192350399995
 20
-347.9524032182
 30
0.0
 11
764.11192350399995
 21
-347.9524032182
 31
0.0
 70
   128
  1
104
 13
803.61192350399995
 23
-375.91938065549999
 33
0.0
 14
724.61192350399995
 24
-380.91938065550011
 34
0.0
  0
DIMENSION
  5
16B
  8
Éíû@É³
  2
*D15
 10
724.61192350399995
 20
-347.89625087439998
 30
0.0
 11
685.11192350399995
 21
-347.89625087439998
 31
0.0
 70
   128
  1
104
 13
724.61192350399995
 23
-380.91938065550011
 33
0.0
 14
645.61192350399995
 24
-370.91938065549999
 34
0.0
  0
DIMENSION
  5
17A
  8
Éíû@É³
  2
*D16
 10
701.45974251439998
 20
-386.91938065550011
 30
0.0
 11
701.45974251439998
 21
-381.91938065549999
 31
0.0
 70
   128
  1
<>
 13
718.61192350399995
 23
-386.91938065550011
 33
0.0
 14
651.61192350399995
 24
-376.91938065550011
 34
0.0
 50
90.0
  0
DIMENSION
  5
189
  8
Éíû@É³
  2
*D17
 10
758.59289833720004
 20
-397.91938065549999
 30
0.0
 11
758.59289833720004
 21
-392.41938065549999
 31
0.0
 70
   128
  1
<>
 13
737.30251595189986
 23
-397.91938065549999
 33
0.0
 14
730.61192350399995
 24
-386.91938065550011
 34
0.0
 50
90.0
  0
DIMENSION
  5
198
  8
Éíû@É³
  2
*D18
 10
678.12235797260007
 20
-376.91938065550011
 30
0.0
 11
678.12235797260007
 21
-371.41938065549999
 31
0.0
 70
   128
  1
<>
 13
651.61192350399995
 23
-376.91938065550011
 33
0.0
 14
656.83197558730001
 24
-365.91938065550011
 34
0.0
 50
90.0
  0
DIMENSION
  5
1A7
  8
Éíû@É³
  2
*D19
 10
594.28282194149995
 20
-365.91938065550011
 30
0.0
 11
594.28282194149995
 21
-381.91938065549999
 31
0.0
 70
   128
  1
<>
 13
615.61192350400006
 23
-365.91938065550011
 33
0.0
 14
615.61192350400006
 24
-397.91938065549999
 34
0.0
 50
90.0
  0
DIMENSION
  5
1B6
  8
Éíû@É³
  2
*D20
 10
645.61192350399995
 20
-348.09481858279997
 30
0.0
 11
630.61192350399995
 21
-348.09481858279997
 31
0.0
 70
   128
  1
<>
 13
645.61192350399995
 23
-370.91938065549999
 33
0.0
 14
615.61192350400006
 24
-365.91938065550011
 34
0.0
  0
DIMENSION
  5
1C5
  8
Éíû@É³
  2
*D21
 10
844.17509234759996
 20
-381.91938065549999
 30
0.0
 11
844.17509234759996
 21
-358.33757727009998
 31
0.0
 70
   128
  1
<>
 13
809.61192350399995
 23
-381.91938065549999
 33
0.0
 14
815.61192350399995
 24
-365.91938065550011
 34
0.0
 50
90.0
  0
DIMENSION
  5
1D4
  8
Éíû@É³
  2
*D22
 10
844.17509234759996
 20
-397.91938065549999
 30
0.0
 11
844.17509234759996
 21
-405.84662674930001
 31
0.0
 70
   128
  1
<>
 13
815.61192350399995
 23
-397.91938065549999
 33
0.0
 14
809.61192350399995
 24
-381.91938065549999
 34
0.0
 50
90.0
  0
DIMENSION
  5
1E3
  8
Éíû@É³
  2
*D23
 10
815.61192350399995
 20
-348.10216378230001
 30
0.0
 11
809.61192350399995
 21
-348.10216378230001
 31
0.0
 70
   128
  1
<>
 13
815.61192350399995
 23
-365.91938065550011
 33
0.0
 14
803.61192350399995
 24
-370.91938065549999
 34
0.0
  0
DIMENSION
  5
1F2
  8
Éíû@É³
  2
*D24
 10
615.61192350400006
 20
-280.22429243059997
 30
0.0
 11
715.61192350399995
 21
-280.22429243059997
 31
0.0
 70
   128
  1
250
 13
615.61192350400006
 23
-254.43391004540001
 33
0.0
 14
815.61192350399995
 24
-258.93391004540001
 34
0.0
 50
180.0
  0
DIMENSION
  5
200
  8
Éíû@É³
  2
*D59
 10
678.48871978849866
 20
-220.73005099611669
 30
0.0
 11
665.89395475400011
 21
-204.95860232650011
 31
0.0
 70
   133
  1
<>
 13
620.11192350400006
 23
-58.93391004539999
 33
0.0
 14
815.61192350399995
 24
-254.43391004540001
 34
0.0
 15
620.11192350400006
 25
-254.43391004540001
 35
0.0
1001
ACAD
1000
DSTYLE
1002
{
1070
   271
1070
     0
1002
}
  0
INSERT
  5
202
  8
┌▓È_1
  2
CLUMP9
 10
0.0
 20
0.0
 30
0.0
  0
LINE
  5
20E
  8
┌▓È_1
 62
     5
 10
927.08552058549992
 20
-58.93391004539999
 30
0.0
 11
927.08552058549992
 21
-258.93391004540001
 31
0.0
  0
LINE
  5
20F
  8
┌▓È_1
 62
     5
 10
615.61192350400006
 20
-254.43391004540001
 30
0.0
 11
615.61192350400006
 21
-58.93391004539999
 31
0.0
  0
INSERT
  5
211
  8
┌▓È_1
  2
CLUMP10
 10
0.0
 20
0.0
 30
0.0
  0
LINE
  5
218
  8
┌▓È_1
 62
     5
 10
895.08552058550015
 20
-254.43391004540001
 30
0.0
 11
927.08552058549992
 21
-254.43391004540001
 31
0.0
  0
LINE
  5
219
  8
┌▓È_1
 62
     5
 10
895.08552058550015
 20
-258.93391004540001
 30
0.0
 11
927.08552058549992
 21
-258.93391004540001
 31
0.0
  0
LINE
  5
21A
  8
┌▓È_1
 62
     5
 10
927.08552058549992
 20
-58.93391004539999
 30
0.0
 11
895.08552058550015
 21
-58.93391004539999
 31
0.0
  0
LINE
  5
21B
  8
┌▓È_1
 62
     5
 10
895.08552058550015
 20
-58.93391004539999
 30
0.0
 11
895.08552058550015
 21
-258.93391004540001
 31
0.0
  0
LINE
  5
21C
  8
┌▓È_1
 62
     5
 10
620.11192350400006
 20
-254.43391004540001
 30
0.0
 11
620.11192350400006
 21
-58.93391004539999
 31
0.0
  0
LINE
  5
21D
  8
┌▓È_1
 62
     5
 10
620.11192350400006
 20
-254.43391004540001
 30
0.0
 11
815.61192350399995
 21
-254.43391004540001
 31
0.0
  0
INSERT
  5
21F
  8
┌▓È_1
  2
CLUMP11
 10
0.0
 20
0.0
 30
0.0
  0
DIMENSION
  5
239
  8
Éíû@É³
  2
*D29
 10
620.11192350400006
 20
-30.682316180800001
 30
0.0
 11
639.04609513180003
 21
-30.682316180800001
 31
0.0
 70
   128
  1
<>t
 13
620.11192350400006
 23
-58.93391004539999
 33
0.0
 14
615.61192350400006
 24
-58.93391004539999
 34
0.0
  0
LINE
  5
23A
  8
┌▓È_1
 62
     5
 10
1038.6130945775001
 20
-125.87708149309999
 30
0.0
 11
1038.6130945775001
 21
-130.87708149310001
 31
0.0
  0
LINE
  5
23B
  8
┌▓È_1
 62
     5
 10
1063.6130945775001
 20
-125.87708149309999
 30
0.0
 11
1063.6130945775001
 21
-130.87708149310001
 31
0.0
  0
LINE
  5
23C
  8
┌▓È_1
 62
     5
 10
1063.6130945775001
 20
-125.87708149309999
 30
0.0
 11
1072.3630945775001
 21
-117.12708149309999
 31
0.0
  0
LINE
  5
23D
  8
┌▓È_1
 62
     5
 10
1029.8630945775001
 20
-117.12708149309999
 30
0.0
 11
1038.6130945775001
 21
-125.87708149309999
 31
0.0
  0
LINE
  5
23E
  8
┌▓È_1
 62
     5
 10
1015.1829649478
 20
-117.12708149309999
 30
0.0
 11
1088.1815760589
 21
-117.12708149309999
 31
0.0
  0
LINE
  5
23F
  8
┌▓È_1
 62
     5
 10
1015.1829649478
 20
-139.62708149310001
 30
0.0
 11
1088.1815760589
 21
-139.62708149310001
 31
0.0
  0
LINE
  5
240
  8
┌▓È_1
 62
     5
 10
1038.6130945775001
 20
-130.87708149310001
 30
0.0
 11
1063.6130945775001
 21
-130.87708149310001
 31
0.0
  0
LINE
  5
241
  8
┌▓È_1
 62
     5
 10
1038.6130945775001
 20
-125.87708149309999
 30
0.0
 11
1063.6130945775001
 21
-125.87708149309999
 31
0.0
  0
LINE
  5
242
  8
┌▓È_1
 62
     5
 10
1063.6130945775001
 20
-130.87708149310001
 30
0.0
 11
1072.3630945775001
 21
-139.62708149310001
 31
0.0
  0
LINE
  5
243
  8
┌▓È_1
 62
     5
 10
1038.6130945775001
 20
-130.87708149310001
 30
0.0
 11
1029.8630945775001
 21
-139.62708149310001
 31
0.0
  0
LINE
  5
244
  8
┌▓È_1
  6
BORDER
 62
     3
 10
1051.1130945775001
 20
-110.61036013899999
 30
0.0
 11
1051.1130945775001
 21
-144.11036013899999
 31
0.0
  0
INSERT
  5
245
  8
0
  6
CONTINUOUS
  2
*U60
 10
0.0
 20
0.0
 30
0.0
  0
LINE
  5
246
  8
┌▓È_1
 10
1014.7190866823
 20
-207.90239962870001
 30
0.0
 11
1089.3586593923001
 21
-207.90239962870001
 31
0.0
  0
DIMENSION
  5
253
  8
Éíû@É³
  2
*D61
 10
1034.812403581913
 20
-179.21208848692419
 30
0.0
 11
1051.1130945775001
 21
-181.35811516890001
 31
0.0
 70
   133
  1
<>
 13
1072.8934246633
 23
-140.15741157900001
 33
0.0
 14
1029.3327644916001
 24
-140.15741157900001
 34
0.0
 15
1051.1130945775001
 25
-118.37708149309999
 35
0.0
1001
ACAD
1000
DSTYLE
1002
{
1070
   271
1070
     0
1002
}
  0
DIMENSION
  5
262
  8
Éíû@É³
  2
*D31
 10
1029.8630945775001
 20
-161.6681926883
 30
0.0
 11
1051.1130945775001
 21
-161.6681926883
 31
0.0
 70
   128
  1
%%c8.5
 13
1029.8630945775001
 23
-139.62708149310001
 33
0.0
 14
1072.3630945775001
 24
-139.62708149310001
 34
0.0
 50
180.0
  0
DIMENSION
  5
26F
  8
Éíû@É³
  2
*D62
 10
1071.433886151427
 20
-62.538854888952542
 30
0.0
 11
1051.1130945775001
 21
-59.8635719253
 31
0.0
 70
   133
  1
<>
 13
1029.3327644916001
 23
-116.5967514073
 33
0.0
 14
1072.8934246633
 24
-116.5967514073
 34
0.0
 15
1051.1130945775001
 25
-138.37708149310001
 35
0.0
1001
ACAD
1000
DSTYLE
1002
{
1070
   271
1070
     0
1002
}
  0
DIMENSION
  5
27E
  8
Éíû@É³
  2
*D33
 10
1072.3630945775001
 20
-76.962918330500003
 30
0.0
 11
1051.1130945775001
 21
-76.962918330500003
 31
0.0
 70
   128
  1
%%c8.5
 13
1072.3630945775001
 23
-117.12708149309999
 33
0.0
 14
1029.8630945775001
 24
-117.12708149309999
 34
0.0
  0
DIMENSION
  5
28D
  8
Éíû@É³
  2
*D34
 10
1063.6130945775001
 20
-94.685229930599974
 30
0.0
 11
1051.1130945775001
 21
-94.685229930599974
 31
0.0
 70
   128
  1
%%c5
 13
1063.6130945775001
 23
-125.87708149309999
 33
0.0
 14
1038.6130945775001
 24
-125.87708149309999
 34
0.0
  0
DIMENSION
  5
29C
  8
Éíû@É³
  2
*D35
 10
877.52340968459998
 20
-58.93391004539999
 30
0.0
 11
877.52340968459998
 21
-65.157217337099993
 31
0.0
 70
   128
  1
<>
 13
895.08552058550015
 23
-58.93391004539999
 33
0.0
 14
910.08552058549992
 24
-70.933910045399983
 34
0.0
 50
90.0
  0
DIMENSION
  5
2AB
  8
Éíû@É³
  2
*D36
 10
906.08552058550003
 20
-119.4282134308
 30
0.0
 11
900.58552058550003
 21
-119.4282134308
 31
0.0
 70
   128
  1
<>
 13
906.08552058550003
 23
-143.93391004540001
 33
0.0
 14
895.08552058550015
 24
-140.71859581609999
 34
0.0
  0
DIMENSION
  5
2BA
  8
Éíû@É³
  2
*D37
 10
906.08552058550003
 20
-179.5406986806
 30
0.0
 11
910.80622371050003
 21
-179.5406986806
 31
0.0
 70
   128
  1
<>
 13
906.08552058550003
 23
-155.93391004540001
 33
0.0
 14
916.08552058550003
 24
-222.93391004540001
 34
0.0
 50
180.0
  0
DIMENSION
  5
2C9
  8
Éíû@É³
  2
*D38
 10
927.08552058549992
 20
-201.64352766010001
 30
0.0
 11
921.58552058550003
 21
-201.64352766010001
 31
0.0
 70
   128
  1
<>
 13
927.08552058549992
 23
-222.93391004540001
 33
0.0
 14
916.08552058550003
 24
-222.93391004540001
 34
0.0
  0
DIMENSION
  5
2D8
  8
Éíû@É³
  2
*D39
 10
877.60633611690014
 20
-228.93391004540001
 30
0.0
 11
877.60633611690014
 21
-243.93391004540001
 31
0.0
 70
   128
  1
<>
 13
910.08552058549992
 23
-228.93391004540001
 33
0.0
 14
895.08552058550015
 24
-258.93391004540001
 34
0.0
 50
90.0
  0
DIMENSION
  5
2E7
  8
Éíû@É³
  2
*D40
 10
877.60991684609996
 20
-149.93391004540001
 30
0.0
 11
877.60991684609996
 21
-189.43391004540001
 31
0.0
 70
   128
  1
104
 13
900.08552058550003
 23
-149.93391004540001
 33
0.0
 14
910.08552058549992
 24
-228.93391004540001
 34
0.0
 50
90.0
  0
ENDSEC
  0
EOF
