  0
SECTION
  2
HEADER
  9
$ACADVER
  1
AC1009
  9
$INSBASE
 10
0.0
 20
0.0
 30
0.0
  9
$EXTMIN
 10
701.32692747789986
 20
-317.15526815390001
 30
0.0
  9
$EXTMAX
 10
976.32692747789997
 20
-127.1552681539
 30
0.0
  9
$LIMMIN
 10
0.0
 20
0.0
  9
$LIMMAX
 10
0.0
 20
0.0
  9
$ORTHOMODE
 70
     0
  9
$REGENMODE
 70
     1
  9
$FILLMODE
 70
     1
  9
$QTEXTMODE
 70
     0
  9
$MIRRTEXT
 70
     1
  9
$DRAGMODE
 70
     2
  9
$LTSCALE
 40
1.0
  9
$OSMODE
 70
    31
  9
$ATTMODE
 70
     1
  9
$TEXTSIZE
 40
0.0
  9
$TRACEWID
 40
0.05
  9
$TEXTSTYLE
  7
STANDARD
  9
$CLAYER
  8
0
  9
$CELTYPE
  6
CONTINUOUS
  9
$CECOLOR
 62
   256
  9
$DIMSCALE
 40
1.0
  9
$DIMASZ
 40
0.18
  9
$DIMEXO
 40
0.0625
  9
$DIMDLI
 40
0.38
  9
$DIMRND
 40
0.0
  9
$DIMDLE
 40
0.0
  9
$DIMEXE
 40
0.18
  9
$DIMTP
 40
0.0
  9
$DIMTM
 40
0.0
  9
$DIMTXT
 40
0.18
  9
$DIMCEN
 40
0.09
  9
$DIMTSZ
 40
0.0
  9
$DIMTOL
 70
     0
  9
$DIMLIM
 70
     0
  9
$DIMTIH
 70
     1
  9
$DIMTOH
 70
     1
  9
$DIMSE1
 70
     0
  9
$DIMSE2
 70
     0
  9
$DIMTAD
 70
     0
  9
$DIMZIN
 70
     0
  9
$DIMBLK
  1

  9
$DIMASO
 70
     1
  9
$DIMSHO
 70
     1
  9
$DIMPOST
  1

  9
$DIMAPOST
  1

  9
$DIMALT
 70
     0
  9
$DIMALTD
 70
     2
  9
$DIMALTF
 40
25.399999999999999
  9
$DIMLFAC
 40
1.0
  9
$DIMTOFL
 70
     0
  9
$DIMTVP
 40
0.0
  9
$DIMTIX
 70
     0
  9
$DIMSOXD
 70
     0
  9
$DIMSAH
 70
     0
  9
$DIMBLK1
  1

  9
$DIMBLK2
  1

  9
$DIMSTYLE
  2
STANDARD
  9
$DIMCLRD
 70
     0
  9
$DIMCLRE
 70
     0
  9
$DIMCLRT
 70
     0
  9
$DIMTFAC
 40
1.0
  9
$DIMGAP
 40
0.09
  9
$LUNITS
 70
     2
  9
$LUPREC
 70
     4
  9
$SKETCHINC
 40
0.1
  9
$FILLETRAD
 40
0.0
  9
$AUNITS
 70
     0
  9
$AUPREC
 70
     0
  9
$MENU
  1
acad
  9
$ELEVATION
 40
0.0
  9
$PELEVATION
 40
0.0
  9
$THICKNESS
 40
0.0
  9
$LIMCHECK
 70
     0
  9
$BLIPMODE
 70
     0
  9
$CHAMFERA
 40
0.0
  9
$CHAMFERB
 40
0.0
  9
$SKPOLY
 70
     0
  9
$TDCREATE
 40
2454862.460854664
  9
$TDUPDATE
 40
2454862.4611349772
  9
$TDINDWG
 40
0.0002915278
  9
$TDUSRTIMER
 40
0.0002911574
  9
$USRTIMER
 70
     1
  9
$ANGBASE
 50
0.0
  9
$ANGDIR
 70
     0
  9
$PDMODE
 70
     3
  9
$PDSIZE
 40
-1.0
  9
$PLINEWID
 40
0.0
  9
$COORDS
 70
     2
  9
$SPLFRAME
 70
     0
  9
$SPLINETYPE
 70
     6
  9
$SPLINESEGS
 70
     8
  9
$ATTDIA
 70
     0
  9
$ATTREQ
 70
     1
  9
$HANDLING
 70
     1
  9
$HANDSEED
  5
58D
  9
$SURFTAB1
 70
     6
  9
$SURFTAB2
 70
     6
  9
$SURFTYPE
 70
     6
  9
$SURFU
 70
     6
  9
$SURFV
 70
     6
  9
$UCSNAME
  2

  9
$UCSORG
 10
0.0
 20
0.0
 30
0.0
  9
$UCSXDIR
 10
1.0
 20
0.0
 30
0.0
  9
$UCSYDIR
 10
0.0
 20
1.0
 30
0.0
  9
$PUCSNAME
  2

  9
$PUCSORG
 10
0.0
 20
0.0
 30
0.0
  9
$PUCSXDIR
 10
1.0
 20
0.0
 30
0.0
  9
$PUCSYDIR
 10
0.0
 20
1.0
 30
0.0
  9
$USERI1
 70
     0
  9
$USERI2
 70
     0
  9
$USERI3
 70
     0
  9
$USERI4
 70
     0
  9
$USERI5
 70
     0
  9
$USERR1
 40
0.0
  9
$USERR2
 40
0.0
  9
$USERR3
 40
0.0
  9
$USERR4
 40
0.0
  9
$USERR5
 40
0.0
  9
$WORLDVIEW
 70
     1
  9
$SHADEDGE
 70
     3
  9
$SHADEDIF
 70
    70
  9
$TILEMODE
 70
     1
  9
$MAXACTVP
 70
    16
  9
$PLIMCHECK
 70
     0
  9
$PEXTMIN
 10
1.0000000000000000E+020
 20
1.0000000000000000E+020
 30
1.0000000000000000E+020
  9
$PEXTMAX
 10
-1.0000000000000000E+020
 20
-1.0000000000000000E+020
 30
-1.0000000000000000E+020
  9
$PLIMMIN
 10
0.0
 20
0.0
  9
$PLIMMAX
 10
12.0
 20
9.0
  9
$UNITMODE
 70
     0
  9
$VISRETAIN
 70
     0
  9
$PLINEGEN
 70
     1
  9
$PSLTSCALE
 70
     0
  0
ENDSEC
  0
SECTION
  2
TABLES
  0
TABLE
  2
VPORT
 70
     2
  0
VPORT
  2
*ACTIVE
 70
     0
 10
0.0
 20
0.0
 11
1.0
 21
1.0
 12
838.82692747789997
 22
-222.15526815390001
 13
0.0
 23
0.0
 14
1.0
 24
1.0
 15
0.0
 25
0.0
 16
0.0
 26
0.0
 36
1.0
 17
0.0
 27
0.0
 37
0.0
 40
191.5767634854771
 41
1.6343490304709141
 42
50.0
 43
0.0
 44
0.0
 50
0.0
 51
0.0
 71
     0
 72
   100
 73
     1
 74
     1
 75
     0
 76
     0
 77
     0
 78
     0
  0
ENDTAB
  0
TABLE
  2
LTYPE
 70
    11
  0
LTYPE
  2
CONTINUOUS
 70
     0
  3
Solid line
 72
    65
 73
     0
 40
0.0
  0
LTYPE
  2
DOT
 70
     0
  3
. . . . . . . . 
 72
    65
 73
     2
 40
1.0
 49
0.0
 49
-1.0
  0
LTYPE
  2
DASHED
 70
     0
  3
___  ___  ___  ___  
 72
    65
 73
     2
 40
4.0
 49
3.0
 49
-1.0
  0
LTYPE
  2
HIDDEN
 70
     0
  3
__ __ __ __ 
 72
    65
 73
     2
 40
3.0
 49
2.0
 49
-1.0
  0
LTYPE
  2
STITCH
 70
     0
  3
_ _ _ _ 
 72
    65
 73
     2
 40
2.0
 49
1.0
 49
-1.0
  0
LTYPE
  2
CENTER
 70
     0
  3
______  __  ______  __  
 72
    65
 73
     4
 40
43.0
 49
40.0
 49
-1.0
 49
1.0
 49
-1.0
  0
LTYPE
  2
DASHDOT
 70
     0
  3
____ . ____ . 
 72
    65
 73
     4
 40
32.0
 49
30.0
 49
-1.0
 49
0.0
 49
-1.0
  0
LTYPE
  2
BORDER
 70
     0
  3
__ . __ . 
 72
    65
 73
     4
 40
22.0
 49
20.0
 49
-1.0
 49
0.0
 49
-1.0
  0
LTYPE
  2
CUTTING
 70
     0
  3
________   ___   ___   
 72
    65
 73
     6
 40
45.0
 49
40.0
 49
-1.0
 49
1.0
 49
-1.0
 49
1.0
 49
-1.0
  0
LTYPE
  2
PHANTOM
 70
     0
  3
______  __  __  
 72
    65
 73
     6
 40
35.0
 49
30.0
 49
-1.0
 49
1.0
 49
-1.0
 49
1.0
 49
-1.0
  0
LTYPE
  2
DIVIDE
 70
     0
  3
____ . . ____ . . 
 72
    65
 73
     6
 40
23.0
 49
20.0
 49
-1.0
 49
0.0
 49
-1.0
 49
0.0
 49
-1.0
  0
ENDTAB
  0
TABLE
  2
LAYER
 70
     3
  0
LAYER
  2
0
 70
     0
 62
     7
  6
CONTINUOUS
  0
LAYER
  2
Éíû@É³
 70
     0
 62
     7
  6
CONTINUOUS
  0
LAYER
  2
┌▓È_1
 70
     0
 62
     7
  6
CONTINUOUS
  0
ENDTAB
  0
TABLE
  2
STYLE
 70
     1
  0
STYLE
  2
STANDARD
 70
     0
 40
0.0
 41
1.0
 50
0.0
 71
     0
 42
0.0
  3
txt
  4
extfont
  0
ENDTAB
  0
TABLE
  2
VIEW
 70
     0
  0
ENDTAB
  0
TABLE
  2
UCS
 70
     0
  0
ENDTAB
  0
TABLE
  2
APPID
 70
     2
  0
APPID
  2
ACAD
 70
     0
  0
APPID
  2
DCO15
 70
     0
  0
ENDTAB
  0
TABLE
  2
DIMSTYLE
 70
     4
  0
DIMSTYLE
  2
STANDARD
 70
     0
  3

  4

  5

  6

  7

 40
1.0
 41
0.18
 42
0.0625
 43
0.38
 44
0.18
 45
0.0
 46
0.0
 47
0.0
 48
0.0
140
0.18
141
0.09
142
0.0
143
25.399999999999999
144
1.0
145
0.0
146
1.0
147
0.09
 71
     0
 72
     0
 73
     1
 74
     1
 75
     0
 76
     0
 77
     0
 78
     0
170
     0
171
     2
172
     0
173
     0
174
     0
175
     0
176
     0
177
     0
178
     0
  0
DIMSTYLE
  2
VELDIM0
 70
     0
  3

  4

  5

  6

  7

 40
1.0
 41
3.0
 42
0.0625
 43
0.38
 44
0.5
 45
0.0
 46
3.0
 47
0.0
 48
0.0
140
2.9986110209999999
141
0.09
142
0.0
143
25.399999999999999
144
1.0
145
0.0
146
1.0
147
0.09
 71
     0
 72
     0
 73
     0
 74
     0
 75
     0
 76
     0
 77
     0
 78
     8
170
     0
171
     2
172
     0
173
     0
174
     0
175
     0
176
     0
177
     0
178
     0
  0
DIMSTYLE
  2
VELDIM1
 70
     0
  3

  4

  5

  6

  7

 40
1.0
 41
3.0
 42
0.0625
 43
0.38
 44
1.25
 45
0.0
 46
5.0
 47
0.0
 48
0.0
140
2.9986110209999999
141
0.09
142
0.0
143
25.399999999999999
144
1.0
145
0.0
146
1.0
147
0.09
 71
     0
 72
     0
 73
     0
 74
     0
 75
     0
 76
     0
 77
     0
 78
     8
170
     0
171
     2
172
     0
173
     0
174
     0
175
     0
176
     0
177
     0
178
     0
  0
DIMSTYLE
  2
VELDIM2
 70
     0
  3

  4

  5

  6

  7

 40
1.0
 41
3.0
 42
0.0625
 43
0.38
 44
1.25
 45
0.0
 46
5.0
 47
0.0
 48
0.0
140
2.9986110209999999
141
0.09
142
0.0
143
25.399999999999999
144
1.0
145
0.0
146
1.0
147
0.09
 71
     0
 72
     0
 73
     0
 74
     0
 75
     0
 76
     0
 77
     0
 78
     8
170
     0
171
     2
172
     0
173
     0
174
     0
175
     0
176
     0
177
     0
178
     0
  0
ENDTAB
  0
ENDSEC
  0
SECTION
  2
BLOCKS
  0
BLOCK
  8
0
  2
$MODEL_SPACE
 70
     0
 10
0.0
 20
0.0
 30
0.0
  3
$MODEL_SPACE
  1

  0
ENDBLK
  5
E
  8
0
  0
BLOCK
 67
     1
  8
0
  2
$PAPER_SPACE
 70
     0
 10
0.0
 20
0.0
 30
0.0
  3
$PAPER_SPACE
  1

  0
ENDBLK
  5
10
 67
     1
  8
0
  0
BLOCK
  8
0
  2
*D0
 70
     1
 10
0.0
 20
0.0
 30
0.0
  3
*D0
  1

  0
TEXT
  5
31
  8
0
 62
     0
 10
900.0940085185
 20
-244.69200882920001
 30
0.0
 40
2.9986110209999999
  1
(4.5)
 50
90.0
  0
LINE
  5
32
  8
0
 62
     0
 10
891.36602261569999
 20
-252.49424654430001
 30
0.0
 11
902.12317516929988
 21
-252.49424654430001
 31
0.0
  0
LINE
  5
33
  8
0
 62
     0
 10
870.86602261569999
 20
-247.89424654429999
 30
0.0
 11
902.12317516929988
 21
-247.89424654429999
 31
0.0
  0
LINE
  5
34
  8
0
 62
     0
 10
901.62317516929977
 20
-252.49424654430001
 30
0.0
 11
901.62317516929977
 21
-234.10867581380001
 31
0.0
  0
LINE
  5
35
  8
0
 62
     0
 10
901.62317516929977
 20
-252.49424654430001
 30
0.0
 11
901.62317516929977
 21
-246.4558976651
 31
0.0
  0
LINE
  5
36
  8
0
 62
     0
 10
901.62317516929977
 20
-247.89424654429999
 30
0.0
 11
901.62317516929977
 21
-234.10867581380001
 31
0.0
  0
LINE
  5
37
  8
0
 62
     0
 10
901.62317516929977
 20
-247.89424654429999
 30
0.0
 11
901.62317516929977
 21
-246.4558976651
 31
0.0
  0
LINE
  5
38
  8
0
 62
     0
 10
901.62317516929977
 20
-247.89424654429999
 30
0.0
 11
901.62317516929977
 21
-244.89424654429999
 31
0.0
  0
SOLID
  5
39
  8
0
 62
     0
 10
901.62317516929977
 20
-247.89424654429999
 30
0.0
 11
900.87317516929977
 21
-244.89424654429999
 31
0.0
 12
902.37317516929988
 22
-244.89424654429999
 32
0.0
 13
901.62317516929977
 23
-245.64424654429999
 33
0.0
  0
LINE
  5
3A
  8
0
 62
     0
 10
901.62317516929977
 20
-252.49424654430001
 30
0.0
 11
901.62317516929977
 21
-255.49424654430001
 31
0.0
  0
SOLID
  5
3B
  8
0
 62
     0
 10
901.62317516929977
 20
-252.49424654430001
 30
0.0
 11
902.37317516929988
 21
-255.49424654430001
 31
0.0
 12
900.87317516929977
 22
-255.49424654430001
 32
0.0
 13
901.62317516929977
 23
-254.74424654430001
 33
0.0
  0
ENDBLK
  5
3C
  8
0
  0
BLOCK
  8
0
  2
*D1
 70
     1
 10
0.0
 20
0.0
 30
0.0
  3
*D1
  1

  0
TEXT
  5
41
  8
0
 62
     0
 10
791.10574485389998
 20
-244.69200882920001
 30
0.0
 40
2.9986110209999999
  1
(4.5)
 50
90.0
  0
LINE
  5
42
  8
0
 62
     0
 10
782.37775895109985
 20
-252.49424654430001
 30
0.0
 11
793.13491150460004
 21
-252.49424654430001
 31
0.0
  0
LINE
  5
43
  8
0
 62
     0
 10
761.87775895109985
 20
-247.89424654429999
 30
0.0
 11
793.13491150460004
 21
-247.89424654429999
 31
0.0
  0
LINE
  5
44
  8
0
 62
     0
 10
792.63491150460004
 20
-252.49424654430001
 30
0.0
 11
792.63491150460004
 21
-234.10867581380001
 31
0.0
  0
LINE
  5
45
  8
0
 62
     0
 10
792.63491150460004
 20
-252.49424654430001
 30
0.0
 11
792.63491150460004
 21
-246.4558976651
 31
0.0
  0
LINE
  5
46
  8
0
 62
     0
 10
792.63491150460004
 20
-247.89424654429999
 30
0.0
 11
792.63491150460004
 21
-234.10867581380001
 31
0.0
  0
LINE
  5
47
  8
0
 62
     0
 10
792.63491150460004
 20
-247.89424654429999
 30
0.0
 11
792.63491150460004
 21
-246.4558976651
 31
0.0
  0
LINE
  5
48
  8
0
 62
     0
 10
792.63491150460004
 20
-247.89424654429999
 30
0.0
 11
792.63491150460004
 21
-244.89424654429999
 31
0.0
  0
SOLID
  5
49
  8
0
 62
     0
 10
792.63491150460004
 20
-247.89424654429999
 30
0.0
 11
791.88491150460004
 21
-244.89424654429999
 31
0.0
 12
793.38491150460004
 22
-244.89424654429999
 32
0.0
 13
792.63491150460004
 23
-245.64424654429999
 33
0.0
  0
LINE
  5
4A
  8
0
 62
     0
 10
792.63491150460004
 20
-252.49424654430001
 30
0.0
 11
792.63491150460004
 21
-255.49424654430001
 31
0.0
  0
SOLID
  5
4B
  8
0
 62
     0
 10
792.63491150460004
 20
-252.49424654430001
 30
0.0
 11
793.38491150460004
 21
-255.49424654430001
 31
0.0
 12
791.88491150460004
 22
-255.49424654430001
 32
0.0
 13
792.63491150460004
 23
-254.74424654430001
 33
0.0
  0
ENDBLK
  5
4C
  8
0
  0
BLOCK
  8
0
  2
*D2
 70
     1
 10
0.0
 20
0.0
 30
0.0
  3
*D2
  1

  0
TEXT
  5
50
  8
0
 62
     0
 10
743.54859230030002
 20
-254.5400797982
 30
0.0
 40
2.9986110209999999
  1
9.6
 50
90.0
  0
LINE
  5
51
  8
0
 62
     0
 10
754.07775895110001
 20
-247.09424654430001
 30
0.0
 11
744.57775895110001
 21
-247.09424654430001
 31
0.0
  0
LINE
  5
52
  8
0
 62
     0
 10
754.07775895110001
 20
-256.69424654429997
 30
0.0
 11
744.57775895110001
 21
-256.69424654429997
 31
0.0
  0
LINE
  5
53
  8
0
 62
     0
 10
745.07775895110001
 20
-247.09424654430001
 30
0.0
 11
745.07775895110001
 21
-247.48452445460001
 31
0.0
  0
LINE
  5
54
  8
0
 62
     0
 10
745.07775895110001
 20
-247.09424654430001
 30
0.0
 11
745.07775895110001
 21
-256.30396863409999
 31
0.0
  0
LINE
  5
55
  8
0
 62
     0
 10
745.07775895110001
 20
-256.69424654429997
 30
0.0
 11
745.07775895110001
 21
-247.48452445460001
 31
0.0
  0
LINE
  5
56
  8
0
 62
     0
 10
745.07775895110001
 20
-256.69424654429997
 30
0.0
 11
745.07775895110001
 21
-256.30396863409999
 31
0.0
  0
LINE
  5
57
  8
0
 62
     0
 10
745.07775895110001
 20
-256.69424654429997
 30
0.0
 11
745.07775895110001
 21
-259.69424654429997
 31
0.0
  0
SOLID
  5
58
  8
0
 62
     0
 10
745.07775895110001
 20
-256.69424654429997
 30
0.0
 11
745.8277589510999
 21
-259.69424654429997
 31
0.0
 12
744.32775895110001
 22
-259.69424654429997
 32
0.0
 13
745.07775895110001
 23
-258.94424654429997
 33
0.0
  0
LINE
  5
59
  8
0
 62
     0
 10
745.07775895110001
 20
-247.09424654430001
 30
0.0
 11
745.07775895110001
 21
-244.09424654430001
 31
0.0
  0
SOLID
  5
5A
  8
0
 62
     0
 10
745.07775895110001
 20
-247.09424654430001
 30
0.0
 11
744.32775895110001
 21
-244.09424654430001
 31
0.0
 12
745.8277589510999
 22
-244.09424654430001
 32
0.0
 13
745.07775895110001
 23
-244.84424654430001
 33
0.0
  0
ENDBLK
  5
5B
  8
0
  0
BLOCK
  8
0
  2
*D3
 70
     1
 10
0.0
 20
0.0
 30
0.0
  3
*D3
  1

  0
TEXT
  5
5F
  8
0
 62
     0
 10
756.49581453320002
 20
-235.5650798936
 30
0.0
 40
2.9986110209999999
  1
7
  0
LINE
  5
60
  8
0
 62
     0
 10
760.87775895109985
 20
-246.09424654430001
 30
0.0
 11
760.87775895109985
 21
-236.59424654430001
 31
0.0
  0
LINE
  5
61
  8
0
 62
     0
 10
753.87775895109985
 20
-247.29424654429999
 30
0.0
 11
753.87775895109985
 21
-236.59424654430001
 31
0.0
  0
LINE
  5
62
  8
0
 62
     0
 10
760.87775895109985
 20
-237.09424654430001
 30
0.0
 11
760.023592205
 21
-237.09424654430001
 31
0.0
  0
LINE
  5
63
  8
0
 62
     0
 10
760.87775895109985
 20
-237.09424654430001
 30
0.0
 11
754.73192569729997
 21
-237.09424654430001
 31
0.0
  0
LINE
  5
64
  8
0
 62
     0
 10
753.87775895109985
 20
-237.09424654430001
 30
0.0
 11
760.023592205
 21
-237.09424654430001
 31
0.0
  0
LINE
  5
65
  8
0
 62
     0
 10
753.87775895109985
 20
-237.09424654430001
 30
0.0
 11
754.73192569729997
 21
-237.09424654430001
 31
0.0
  0
LINE
  5
66
  8
0
 62
     0
 10
753.87775895109985
 20
-237.09424654430001
 30
0.0
 11
750.87775895109985
 21
-237.09424654430001
 31
0.0
  0
SOLID
  5
67
  8
0
 62
     0
 10
753.87775895109985
 20
-237.09424654430001
 30
0.0
 11
750.87775895109985
 21
-237.84424654430001
 31
0.0
 12
750.87775895109985
 22
-236.34424654430001
 32
0.0
 13
751.62775895109985
 23
-237.09424654430001
 33
0.0
  0
LINE
  5
68
  8
0
 62
     0
 10
760.87775895109985
 20
-237.09424654430001
 30
0.0
 11
763.87775895109996
 21
-237.09424654430001
 31
0.0
  0
SOLID
  5
69
  8
0
 62
     0
 10
760.87775895109985
 20
-237.09424654430001
 30
0.0
 11
763.87775895109996
 21
-236.34424654430001
 31
0.0
 12
763.87775895109996
 22
-237.84424654430001
 32
0.0
 13
763.12775895109985
 23
-237.09424654430001
 33
0.0
  0
ENDBLK
  5
6A
  8
0
  0
BLOCK
  8
0
  2
*X4
 70
     1
 10
0.0
 20
0.0
 30
0.0
  3
*X4
  1

  0
LINE
  5
74
  8
┌▓È_1
 10
865.3660226157001
 20
-179.68172311160001
 30
0.0
 11
865.62133208440014
 21
-179.4264136429
 31
0.0
  0
LINE
  5
75
  8
┌▓È_1
 10
865.3660226157001
 20
-180.5656065881
 30
0.0
 11
866.50521556089996
 21
-179.4264136429
 31
0.0
  0
LINE
  5
76
  8
┌▓È_1
 10
865.3660226157001
 20
-184.98502397050001
 30
0.0
 11
869.86602261569999
 21
-180.48502397050001
 31
0.0
  0
LINE
  5
77
  8
┌▓È_1
 10
865.3660226157001
 20
-185.868907447
 30
0.0
 11
869.86602261569999
 21
-181.368907447
 31
0.0
  0
LINE
  5
78
  8
┌▓È_1
 10
865.3660226157001
 20
-186.75279092349999
 30
0.0
 11
869.86602261569999
 21
-182.25279092349999
 31
0.0
  0
LINE
  5
79
  8
┌▓È_1
 10
865.3660226157001
 20
-187.63667439989999
 30
0.0
 11
869.86602261569999
 21
-183.13667439989999
 31
0.0
  0
LINE
  5
7A
  8
┌▓È_1
 10
865.3660226157001
 20
-192.05609178239999
 30
0.0
 11
869.86602261569999
 21
-187.55609178239999
 31
0.0
  0
LINE
  5
7B
  8
┌▓È_1
 10
865.3660226157001
 20
-192.93997525879999
 30
0.0
 11
869.86602261569999
 21
-188.43997525879999
 31
0.0
  0
LINE
  5
7C
  8
┌▓È_1
 10
865.3660226157001
 20
-193.82385873530001
 30
0.0
 11
868.65512019160008
 21
-190.53476115949999
 31
0.0
  0
LINE
  5
7D
  8
┌▓È_1
 10
865.3660226157001
 20
-194.7077422118
 30
0.0
 11
868.37783565679979
 21
-191.69592917080001
 31
0.0
  0
LINE
  5
7E
  8
┌▓È_1
 10
865.3660226157001
 20
-199.1271595941999
 30
0.0
 11
869.76921062979989
 21
-194.72397158019999
 31
0.0
  0
LINE
  5
7F
  8
┌▓È_1
 10
865.3660226157001
 20
-200.0110430707
 30
0.0
 11
869.86602261569999
 21
-195.5110430707
 31
0.0
  0
LINE
  5
80
  8
┌▓È_1
 10
865.3660226157001
 20
-200.89492654719999
 30
0.0
 11
869.86602261569999
 21
-196.39492654719999
 31
0.0
  0
LINE
  5
81
  8
┌▓È_1
 10
865.3660226157001
 20
-201.7788100237
 30
0.0
 11
869.86602261569999
 21
-197.2788100237
 31
0.0
  0
LINE
  5
82
  8
┌▓È_1
 10
867.13783637890015
 20
-204.4264136429
 30
0.0
 11
869.86602261569999
 21
-201.69822740609999
 31
0.0
  0
LINE
  5
83
  8
┌▓È_1
 10
868.02171985539997
 20
-204.4264136429
 30
0.0
 11
869.86602261569999
 21
-202.58211088260001
 31
0.0
  0
LINE
  5
84
  8
┌▓È_1
 10
868.9056033318999
 20
-204.4264136429
 30
0.0
 11
869.86602261569999
 21
-203.46599435909999
 31
0.0
  0
ENDBLK
  5
85
  8
0
  0
BLOCK
  8
0
  2
*D5
 70
     1
 10
0.0
 20
0.0
 30
0.0
  3
*D5
  1

  0
TEXT
  5
8A
  8
0
 62
     0
 10
853.95986072639982
 20
-198.10002456859999
 30
0.0
 40
2.9986110209999999
  1
5(ÆÀîè)
 50
90.0
  0
LINE
  5
8B
  8
0
 62
     0
 10
869.3660226157001
 20
-189.4264136429
 30
0.0
 11
854.98902737720005
 21
-189.4264136429
 31
0.0
  0
LINE
  5
8C
  8
0
 62
     0
 10
869.3660226157001
 20
-194.4264136429
 30
0.0
 11
854.98902737720005
 21
-194.4264136429
 31
0.0
  0
LINE
  5
8D
  8
0
 62
     0
 10
855.48902737720005
 20
-189.4264136429
 30
0.0
 11
855.48902737720005
 21
-189.4264136429
 31
0.0
  0
LINE
  5
8E
  8
0
 62
     0
 10
855.48902737720005
 20
-189.4264136429
 30
0.0
 11
855.48902737720005
 21
-194.4264136429
 31
0.0
  0
LINE
  5
8F
  8
0
 62
     0
 10
855.48902737720005
 20
-194.4264136429
 30
0.0
 11
855.48902737720005
 21
-189.4264136429
 31
0.0
  0
LINE
  5
90
  8
0
 62
     0
 10
855.48902737720005
 20
-194.4264136429
 30
0.0
 11
855.48902737720005
 21
-194.4264136429
 31
0.0
  0
LINE
  5
91
  8
0
 62
     0
 10
855.48902737720005
 20
-194.4264136429
 30
0.0
 11
855.48902737720005
 21
-197.4264136429
 31
0.0
  0
SOLID
  5
92
  8
0
 62
     0
 10
855.48902737720005
 20
-194.4264136429
 30
0.0
 11
856.23902737720005
 21
-197.4264136429
 31
0.0
 12
854.73902737720005
 22
-197.4264136429
 32
0.0
 13
855.48902737720005
 23
-196.6764136429
 33
0.0
  0
LINE
  5
93
  8
0
 62
     0
 10
855.48902737720005
 20
-189.4264136429
 30
0.0
 11
855.48902737720005
 21
-186.4264136429
 31
0.0
  0
SOLID
  5
94
  8
0
 62
     0
 10
855.48902737720005
 20
-189.4264136429
 30
0.0
 11
854.73902737720005
 21
-186.4264136429
 31
0.0
 12
856.23902737720005
 22
-186.4264136429
 32
0.0
 13
855.48902737720005
 23
-187.1764136429
 33
0.0
  0
ENDBLK
  5
95
  8
0
  0
BLOCK
  8
0
  2
*D6
 70
     1
 10
0.0
 20
0.0
 30
0.0
  3
*D6
  1

  0
TEXT
  5
99
  8
0
 62
     0
 10
870.81046727210014
 20
-215.38960005999999
 30
0.0
 40
2.9986110209999999
  1
20(ÆÀîè)
  0
LINE
  5
9A
  8
0
 62
     0
 10
867.8660226157001
 20
-192.9264136429
 30
0.0
 11
867.8660226157001
 21
-217.4187667107
 31
0.0
  0
LINE
  5
9B
  8
0
 62
     0
 10
887.86602261569999
 20
-192.9264136429
 30
0.0
 11
887.86602261569999
 21
-217.4187667107
 31
0.0
  0
LINE
  5
9C
  8
0
 62
     0
 10
867.8660226157001
 20
-216.9187667107
 30
0.0
 11
886.68546679530004
 21
-216.9187667107
 31
0.0
  0
LINE
  5
9D
  8
0
 62
     0
 10
867.8660226157001
 20
-216.9187667107
 30
0.0
 11
869.04657843619998
 21
-216.9187667107
 31
0.0
  0
LINE
  5
9E
  8
0
 62
     0
 10
887.86602261569999
 20
-216.9187667107
 30
0.0
 11
886.68546679530004
 21
-216.9187667107
 31
0.0
  0
LINE
  5
9F
  8
0
 62
     0
 10
887.86602261569999
 20
-216.9187667107
 30
0.0
 11
869.04657843619998
 21
-216.9187667107
 31
0.0
  0
LINE
  5
A0
  8
0
 62
     0
 10
887.86602261569999
 20
-216.9187667107
 30
0.0
 11
890.8660226157001
 21
-216.9187667107
 31
0.0
  0
SOLID
  5
A1
  8
0
 62
     0
 10
887.86602261569999
 20
-216.9187667107
 30
0.0
 11
890.8660226157001
 21
-216.1687667107
 31
0.0
 12
890.8660226157001
 22
-217.6687667107
 32
0.0
 13
890.1160226157001
 23
-216.9187667107
 33
0.0
  0
LINE
  5
A2
  8
0
 62
     0
 10
867.8660226157001
 20
-216.9187667107
 30
0.0
 11
864.86602261570022
 21
-216.9187667107
 31
0.0
  0
SOLID
  5
A3
  8
0
 62
     0
 10
867.8660226157001
 20
-216.9187667107
 30
0.0
 11
864.86602261570022
 21
-217.6687667107
 31
0.0
 12
864.86602261570022
 22
-216.1687667107
 32
0.0
 13
865.61602261569999
 23
-216.9187667107
 33
0.0
  0
ENDBLK
  5
A4
  8
0
  0
BLOCK
  8
0
  2
*D7
 70
     1
 10
0.0
 20
0.0
 30
0.0
  3
*D7
  1

  0
TEXT
  5
A9
  8
0
 62
     0
 10
730.17947034300005
 20
-168.15821192600001
 30
0.0
 40
2.9986110209999999
  1
%%c 5(è█îè)
 50
330.0
  0
LINE
  5
AA
  8
0
 62
     0
 10
766.71269544170002
 20
-190.6764136429
 30
0.0
 11
729.56210925050004
 21
-169.22751270489999
 31
0.0
  0
SOLID
  5
AB
  8
0
 62
     0
 10
766.71269544170002
 20
-190.6764136429
 30
0.0
 11
763.73961923030004
 21
-189.82593269579999
 31
0.0
 12
764.48961923030004
 22
-188.52689459009989
 32
0.0
 13
764.7641382830999
 23
-189.5514136429
 33
0.0
  0
ENDBLK
  5
AC
  8
0
  0
BLOCK
  8
0
  2
*D8
 70
     1
 10
0.0
 20
0.0
 30
0.0
  3
*D8
  1

  0
TEXT
  5
B1
  8
0
 62
     0
 10
902.33958272559994
 20
-165.70669267310001
 30
0.0
 40
2.9986110209999999
  1
4-R 3
 50
45.0
  0
LINE
  5
B2
  8
0
 62
     0
 10
891.98734295929978
 20
-177.8050932994
 30
0.0
 11
910.6962096983998
 21
-159.09622656030001
 31
0.0
  0
SOLID
  5
B3
  8
0
 62
     0
 10
891.98734295929978
 20
-177.8050932994
 30
0.0
 11
893.57833321700002
 21
-175.1534428699
 31
0.0
 12
894.63899338879992
 22
-176.21410304170001
 32
0.0
 13
893.57833321700002
 23
-176.21410304170001
 33
0.0
  0
ENDBLK
  5
B4
  8
0
  0
BLOCK
  8
0
  2
*D9
 70
     1
 10
0.0
 20
0.0
 30
0.0
  3
*D9
  1

  0
TEXT
  5
B8
  8
0
 62
     0
 10
793.35131906100003
 20
-165.70669267310001
 30
0.0
 40
2.9986110209999999
  1
4-R 3
 50
45.0
  0
LINE
  5
B9
  8
0
 62
     0
 10
782.99907929469998
 20
-177.8050932994
 30
0.0
 11
801.70794603379989
 21
-159.09622656030001
 31
0.0
  0
SOLID
  5
BA
  8
0
 62
     0
 10
782.99907929469998
 20
-177.8050932994
 30
0.0
 11
784.59006955229995
 21
-175.1534428699
 31
0.0
 12
785.65072972410007
 22
-176.21410304170001
 32
0.0
 13
784.59006955229995
 23
-176.21410304170001
 33
0.0
  0
ENDBLK
  5
BB
  8
0
  0
BLOCK
  8
0
  2
*D10
 70
     1
 10
0.0
 20
0.0
 30
0.0
  3
*D10
  1

  0
TEXT
  5
C9
  8
0
 62
     0
 10
868.60213377979994
 20
-162.3972469922
 30
0.0
 40
2.9986110209999999
  1
15
  0
LINE
  5
CA
  8
0
 62
     0
 10
877.8660226157001
 20
-172.9264136429
 30
0.0
 11
877.8660226157001
 21
-163.4264136429
 31
0.0
  0
LINE
  5
CB
  8
0
 62
     0
 10
862.86602261569999
 20
-175.9264136429
 30
0.0
 11
862.86602261569999
 21
-163.4264136429
 31
0.0
  0
LINE
  5
CC
  8
0
 62
     0
 10
877.8660226157001
 20
-163.9264136429
 30
0.0
 11
873.8938002875999
 21
-163.9264136429
 31
0.0
  0
LINE
  5
CD
  8
0
 62
     0
 10
877.8660226157001
 20
-163.9264136429
 30
0.0
 11
866.83824494390001
 21
-163.9264136429
 31
0.0
  0
LINE
  5
CE
  8
0
 62
     0
 10
862.86602261569999
 20
-163.9264136429
 30
0.0
 11
873.8938002875999
 21
-163.9264136429
 31
0.0
  0
LINE
  5
CF
  8
0
 62
     0
 10
862.86602261569999
 20
-163.9264136429
 30
0.0
 11
866.83824494390001
 21
-163.9264136429
 31
0.0
  0
LINE
  5
D0
  8
0
 62
     0
 10
862.86602261569999
 20
-163.9264136429
 30
0.0
 11
865.8660226157001
 21
-163.9264136429
 31
0.0
  0
SOLID
  5
D1
  8
0
 62
     0
 10
862.86602261569999
 20
-163.9264136429
 30
0.0
 11
865.8660226157001
 21
-163.1764136429
 31
0.0
 12
865.8660226157001
 22
-164.6764136429
 32
0.0
 13
865.1160226157001
 23
-163.9264136429
 33
0.0
  0
LINE
  5
D2
  8
0
 62
     0
 10
877.8660226157001
 20
-163.9264136429
 30
0.0
 11
874.8660226157001
 21
-163.9264136429
 31
0.0
  0
SOLID
  5
D3
  8
0
 62
     0
 10
877.8660226157001
 20
-163.9264136429
 30
0.0
 11
874.8660226157001
 21
-164.6764136429
 31
0.0
 12
874.8660226157001
 22
-163.1764136429
 32
0.0
 13
875.6160226157001
 23
-163.9264136429
 33
0.0
  0
ENDBLK
  5
D4
  8
0
  0
BLOCK
  8
0
  2
*D11
 70
     1
 10
0.0
 20
0.0
 30
0.0
  3
*D11
  1

  0
TEXT
  5
D8
  8
0
 62
     0
 10
883.60213377979994
 20
-162.3972469922
 30
0.0
 40
2.9986110209999999
  1
15
  0
LINE
  5
D9
  8
0
 62
     0
 10
892.8660226157001
 20
-178.9264136429
 30
0.0
 11
892.8660226157001
 21
-163.4264136429
 31
0.0
  0
LINE
  5
DA
  8
0
 62
     0
 10
877.8660226157001
 20
-172.9264136429
 30
0.0
 11
877.8660226157001
 21
-163.4264136429
 31
0.0
  0
LINE
  5
DB
  8
0
 62
     0
 10
892.8660226157001
 20
-163.9264136429
 30
0.0
 11
888.8938002875999
 21
-163.9264136429
 31
0.0
  0
LINE
  5
DC
  8
0
 62
     0
 10
892.8660226157001
 20
-163.9264136429
 30
0.0
 11
881.83824494389989
 21
-163.9264136429
 31
0.0
  0
LINE
  5
DD
  8
0
 62
     0
 10
877.8660226157001
 20
-163.9264136429
 30
0.0
 11
888.8938002875999
 21
-163.9264136429
 31
0.0
  0
LINE
  5
DE
  8
0
 62
     0
 10
877.8660226157001
 20
-163.9264136429
 30
0.0
 11
881.83824494389989
 21
-163.9264136429
 31
0.0
  0
LINE
  5
DF
  8
0
 62
     0
 10
877.8660226157001
 20
-163.9264136429
 30
0.0
 11
880.86602261569999
 21
-163.9264136429
 31
0.0
  0
SOLID
  5
E0
  8
0
 62
     0
 10
877.8660226157001
 20
-163.9264136429
 30
0.0
 11
880.86602261569999
 21
-163.1764136429
 31
0.0
 12
880.86602261569999
 22
-164.6764136429
 32
0.0
 13
880.1160226157001
 23
-163.9264136429
 33
0.0
  0
LINE
  5
E1
  8
0
 62
     0
 10
892.8660226157001
 20
-163.9264136429
 30
0.0
 11
889.86602261570022
 21
-163.9264136429
 31
0.0
  0
SOLID
  5
E2
  8
0
 62
     0
 10
892.8660226157001
 20
-163.9264136429
 30
0.0
 11
889.86602261570022
 21
-164.6764136429
 31
0.0
 12
889.86602261570022
 22
-163.1764136429
 32
0.0
 13
890.61602261569999
 23
-163.9264136429
 33
0.0
  0
ENDBLK
  5
E3
  8
0
  0
BLOCK
  8
0
  2
*D12
 70
     1
 10
0.0
 20
0.0
 30
0.0
  3
*D12
  1

  0
TEXT
  5
E7
  8
0
 62
     0
 10
876.10213377979983
 20
-155.8109940617
 30
0.0
 40
2.9986110209999999
  1
30
  0
LINE
  5
E8
  8
0
 62
     0
 10
892.8660226157001
 20
-178.9264136429
 30
0.0
 11
892.8660226157001
 21
-156.84016071249999
 31
0.0
  0
LINE
  5
E9
  8
0
 62
     0
 10
862.86602261569999
 20
-175.9264136429
 30
0.0
 11
862.86602261569999
 21
-156.84016071249999
 31
0.0
  0
LINE
  5
EA
  8
0
 62
     0
 10
892.8660226157001
 20
-157.34016071249999
 30
0.0
 11
881.39380028759979
 21
-157.34016071249999
 31
0.0
  0
LINE
  5
EB
  8
0
 62
     0
 10
892.8660226157001
 20
-157.34016071249999
 30
0.0
 11
874.33824494390001
 21
-157.34016071249999
 31
0.0
  0
LINE
  5
EC
  8
0
 62
     0
 10
862.86602261569999
 20
-157.34016071249999
 30
0.0
 11
881.39380028759979
 21
-157.34016071249999
 31
0.0
  0
LINE
  5
ED
  8
0
 62
     0
 10
862.86602261569999
 20
-157.34016071249999
 30
0.0
 11
874.33824494390001
 21
-157.34016071249999
 31
0.0
  0
LINE
  5
EE
  8
0
 62
     0
 10
862.86602261569999
 20
-157.34016071249999
 30
0.0
 11
865.8660226157001
 21
-157.34016071249999
 31
0.0
  0
SOLID
  5
EF
  8
0
 62
     0
 10
862.86602261569999
 20
-157.34016071249999
 30
0.0
 11
865.8660226157001
 21
-156.59016071249999
 31
0.0
 12
865.8660226157001
 22
-158.09016071249999
 32
0.0
 13
865.1160226157001
 23
-157.34016071249999
 33
0.0
  0
LINE
  5
F0
  8
0
 62
     0
 10
892.8660226157001
 20
-157.34016071249999
 30
0.0
 11
889.86602261570022
 21
-157.34016071249999
 31
0.0
  0
SOLID
  5
F1
  8
0
 62
     0
 10
892.8660226157001
 20
-157.34016071249999
 30
0.0
 11
889.86602261570022
 21
-158.09016071249999
 31
0.0
 12
889.86602261570022
 22
-156.59016071249999
 32
0.0
 13
890.61602261569999
 23
-157.34016071249999
 33
0.0
  0
ENDBLK
  5
F2
  8
0
  0
BLOCK
  8
0
  2
*D13
 70
     1
 10
0.0
 20
0.0
 30
0.0
  3
*D13
  1

  0
TEXT
  5
F6
  8
0
 62
     0
 10
904.33685596500004
 20
-186.19030247879999
 30
0.0
 40
2.9986110209999999
  1
15
 50
90.0
  0
LINE
  5
F7
  8
0
 62
     0
 10
896.86602261569999
 20
-191.9264136429
 30
0.0
 11
906.3660226157001
 21
-191.9264136429
 31
0.0
  0
LINE
  5
F8
  8
0
 62
     0
 10
890.8660226157001
 20
-176.9264136429
 30
0.0
 11
906.3660226157001
 21
-176.9264136429
 31
0.0
  0
LINE
  5
F9
  8
0
 62
     0
 10
905.86602261569999
 20
-191.9264136429
 30
0.0
 11
905.86602261569999
 21
-180.89863597109991
 31
0.0
  0
LINE
  5
FA
  8
0
 62
     0
 10
905.86602261569999
 20
-191.9264136429
 30
0.0
 11
905.86602261569999
 21
-187.9541913148
 31
0.0
  0
LINE
  5
FB
  8
0
 62
     0
 10
905.86602261569999
 20
-176.9264136429
 30
0.0
 11
905.86602261569999
 21
-180.89863597109991
 31
0.0
  0
LINE
  5
FC
  8
0
 62
     0
 10
905.86602261569999
 20
-176.9264136429
 30
0.0
 11
905.86602261569999
 21
-187.9541913148
 31
0.0
  0
LINE
  5
FD
  8
0
 62
     0
 10
905.86602261569999
 20
-176.9264136429
 30
0.0
 11
905.86602261569999
 21
-179.9264136429
 31
0.0
  0
SOLID
  5
FE
  8
0
 62
     0
 10
905.86602261569999
 20
-176.9264136429
 30
0.0
 11
906.61602261569999
 21
-179.9264136429
 31
0.0
 12
905.1160226157001
 22
-179.9264136429
 32
0.0
 13
905.86602261569999
 23
-179.1764136429
 33
0.0
  0
LINE
  5
FF
  8
0
 62
     0
 10
905.86602261569999
 20
-191.9264136429
 30
0.0
 11
905.86602261569999
 21
-188.9264136429
 31
0.0
  0
SOLID
  5
100
  8
0
 62
     0
 10
905.86602261569999
 20
-191.9264136429
 30
0.0
 11
905.1160226157001
 21
-188.9264136429
 31
0.0
 12
906.61602261569999
 22
-188.9264136429
 32
0.0
 13
905.86602261569999
 23
-189.6764136429
 33
0.0
  0
ENDBLK
  5
101
  8
0
  0
BLOCK
  8
0
  2
*D14
 70
     1
 10
0.0
 20
0.0
 30
0.0
  3
*D14
  1

  0
TEXT
  5
105
  8
0
 62
     0
 10
904.33685596500004
 20
-201.19030247879999
 30
0.0
 40
2.9986110209999999
  1
15
 50
90.0
  0
LINE
  5
106
  8
0
 62
     0
 10
890.8660226157001
 20
-206.9264136429
 30
0.0
 11
906.3660226157001
 21
-206.9264136429
 31
0.0
  0
LINE
  5
107
  8
0
 62
     0
 10
896.86602261569999
 20
-191.9264136429
 30
0.0
 11
906.3660226157001
 21
-191.9264136429
 31
0.0
  0
LINE
  5
108
  8
0
 62
     0
 10
905.86602261569999
 20
-206.9264136429
 30
0.0
 11
905.86602261569999
 21
-195.89863597109999
 31
0.0
  0
LINE
  5
109
  8
0
 62
     0
 10
905.86602261569999
 20
-206.9264136429
 30
0.0
 11
905.86602261569999
 21
-202.9541913148
 31
0.0
  0
LINE
  5
10A
  8
0
 62
     0
 10
905.86602261569999
 20
-191.9264136429
 30
0.0
 11
905.86602261569999
 21
-195.89863597109999
 31
0.0
  0
LINE
  5
10B
  8
0
 62
     0
 10
905.86602261569999
 20
-191.9264136429
 30
0.0
 11
905.86602261569999
 21
-202.9541913148
 31
0.0
  0
LINE
  5
10C
  8
0
 62
     0
 10
905.86602261569999
 20
-191.9264136429
 30
0.0
 11
905.86602261569999
 21
-194.9264136429
 31
0.0
  0
SOLID
  5
10D
  8
0
 62
     0
 10
905.86602261569999
 20
-191.9264136429
 30
0.0
 11
906.61602261569999
 21
-194.9264136429
 31
0.0
 12
905.1160226157001
 22
-194.9264136429
 32
0.0
 13
905.86602261569999
 23
-194.1764136429
 33
0.0
  0
LINE
  5
10E
  8
0
 62
     0
 10
905.86602261569999
 20
-206.9264136429
 30
0.0
 11
905.86602261569999
 21
-203.9264136429
 31
0.0
  0
SOLID
  5
10F
  8
0
 62
     0
 10
905.86602261569999
 20
-206.9264136429
 30
0.0
 11
905.1160226157001
 21
-203.9264136429
 31
0.0
 12
906.61602261569999
 22
-203.9264136429
 32
0.0
 13
905.86602261569999
 23
-204.6764136429
 33
0.0
  0
ENDBLK
  5
110
  8
0
  0
BLOCK
  8
0
  2
*D15
 70
     1
 10
0.0
 20
0.0
 30
0.0
  3
*D15
  1

  0
TEXT
  5
114
  8
0
 62
     0
 10
911.49750352139995
 20
-193.69030247879999
 30
0.0
 40
2.9986110209999999
  1
30
 50
90.0
  0
LINE
  5
115
  8
0
 62
     0
 10
890.8660226157001
 20
-206.9264136429
 30
0.0
 11
913.52667017220006
 21
-206.9264136429
 31
0.0
  0
LINE
  5
116
  8
0
 62
     0
 10
890.8660226157001
 20
-176.9264136429
 30
0.0
 11
913.52667017220006
 21
-176.9264136429
 31
0.0
  0
LINE
  5
117
  8
0
 62
     0
 10
913.02667017220006
 20
-206.9264136429
 30
0.0
 11
913.02667017220006
 21
-188.39863597109999
 31
0.0
  0
LINE
  5
118
  8
0
 62
     0
 10
913.02667017220006
 20
-206.9264136429
 30
0.0
 11
913.02667017220006
 21
-195.4541913148
 31
0.0
  0
LINE
  5
119
  8
0
 62
     0
 10
913.02667017220006
 20
-176.9264136429
 30
0.0
 11
913.02667017220006
 21
-188.39863597109999
 31
0.0
  0
LINE
  5
11A
  8
0
 62
     0
 10
913.02667017220006
 20
-176.9264136429
 30
0.0
 11
913.02667017220006
 21
-195.4541913148
 31
0.0
  0
LINE
  5
11B
  8
0
 62
     0
 10
913.02667017220006
 20
-176.9264136429
 30
0.0
 11
913.02667017220006
 21
-179.9264136429
 31
0.0
  0
SOLID
  5
11C
  8
0
 62
     0
 10
913.02667017220006
 20
-176.9264136429
 30
0.0
 11
913.77667017220006
 21
-179.9264136429
 31
0.0
 12
912.27667017219994
 22
-179.9264136429
 32
0.0
 13
913.02667017220006
 23
-179.1764136429
 33
0.0
  0
LINE
  5
11D
  8
0
 62
     0
 10
913.02667017220006
 20
-206.9264136429
 30
0.0
 11
913.02667017220006
 21
-203.9264136429
 31
0.0
  0
SOLID
  5
11E
  8
0
 62
     0
 10
913.02667017220006
 20
-206.9264136429
 30
0.0
 11
912.27667017219994
 21
-203.9264136429
 31
0.0
 12
913.77667017220006
 22
-203.9264136429
 32
0.0
 13
913.02667017220006
 23
-204.6764136429
 33
0.0
  0
ENDBLK
  5
11F
  8
0
  0
BLOCK
  8
0
  2
*D16
 70
     1
 10
0.0
 20
0.0
 30
0.0
  3
*D16
  1

  0
TEXT
  5
123
  8
0
 62
     0
 10
865.48407819779982
 20
-235.5650798936
 30
0.0
 40
2.9986110209999999
  1
7
  0
LINE
  5
124
  8
0
 62
     0
 10
869.86602261569999
 20
-246.09424654430001
 30
0.0
 11
869.86602261569999
 21
-236.59424654430001
 31
0.0
  0
LINE
  5
125
  8
0
 62
     0
 10
862.86602261569999
 20
-247.29424654429999
 30
0.0
 11
862.86602261569999
 21
-236.59424654430001
 31
0.0
  0
LINE
  5
126
  8
0
 62
     0
 10
869.86602261569999
 20
-237.09424654430001
 30
0.0
 11
869.01185586959991
 21
-237.09424654430001
 31
0.0
  0
LINE
  5
127
  8
0
 62
     0
 10
869.86602261569999
 20
-237.09424654430001
 30
0.0
 11
863.7201893619
 21
-237.09424654430001
 31
0.0
  0
LINE
  5
128
  8
0
 62
     0
 10
862.86602261569999
 20
-237.09424654430001
 30
0.0
 11
869.01185586959991
 21
-237.09424654430001
 31
0.0
  0
LINE
  5
129
  8
0
 62
     0
 10
862.86602261569999
 20
-237.09424654430001
 30
0.0
 11
863.7201893619
 21
-237.09424654430001
 31
0.0
  0
LINE
  5
12A
  8
0
 62
     0
 10
862.86602261569999
 20
-237.09424654430001
 30
0.0
 11
859.8660226157001
 21
-237.09424654430001
 31
0.0
  0
SOLID
  5
12B
  8
0
 62
     0
 10
862.86602261569999
 20
-237.09424654430001
 30
0.0
 11
859.8660226157001
 21
-237.84424654430001
 31
0.0
 12
859.8660226157001
 22
-236.34424654430001
 32
0.0
 13
860.6160226157001
 23
-237.09424654430001
 33
0.0
  0
LINE
  5
12C
  8
0
 62
     0
 10
869.86602261569999
 20
-237.09424654430001
 30
0.0
 11
872.86602261570022
 21
-237.09424654430001
 31
0.0
  0
SOLID
  5
12D
  8
0
 62
     0
 10
869.86602261569999
 20
-237.09424654430001
 30
0.0
 11
872.86602261570022
 21
-236.34424654430001
 31
0.0
 12
872.86602261570022
 22
-237.84424654430001
 32
0.0
 13
872.1160226157001
 23
-237.09424654430001
 33
0.0
  0
ENDBLK
  5
12E
  8
0
  0
BLOCK
  8
0
  2
*D17
 70
     1
 10
0.0
 20
0.0
 30
0.0
  3
*D17
  1

  0
TEXT
  5
132
  8
0
 62
     0
 10
852.53685596499986
 20
-254.5400797982
 30
0.0
 40
2.9986110209999999
  1
9.6
 50
90.0
  0
LINE
  5
133
  8
0
 62
     0
 10
863.06602261570015
 20
-247.09424654430001
 30
0.0
 11
853.56602261570004
 21
-247.09424654430001
 31
0.0
  0
LINE
  5
134
  8
0
 62
     0
 10
863.06602261570015
 20
-256.69424654429997
 30
0.0
 11
853.56602261570004
 21
-256.69424654429997
 31
0.0
  0
LINE
  5
135
  8
0
 62
     0
 10
854.06602261569992
 20
-247.09424654430001
 30
0.0
 11
854.06602261569992
 21
-247.48452445460001
 31
0.0
  0
LINE
  5
136
  8
0
 62
     0
 10
854.06602261569992
 20
-247.09424654430001
 30
0.0
 11
854.06602261569992
 21
-256.30396863409999
 31
0.0
  0
LINE
  5
137
  8
0
 62
     0
 10
854.06602261569992
 20
-256.69424654429997
 30
0.0
 11
854.06602261569992
 21
-247.48452445460001
 31
0.0
  0
LINE
  5
138
  8
0
 62
     0
 10
854.06602261569992
 20
-256.69424654429997
 30
0.0
 11
854.06602261569992
 21
-256.30396863409999
 31
0.0
  0
LINE
  5
139
  8
0
 62
     0
 10
854.06602261569992
 20
-256.69424654429997
 30
0.0
 11
854.06602261569992
 21
-259.69424654429997
 31
0.0
  0
SOLID
  5
13A
  8
0
 62
     0
 10
854.06602261569992
 20
-256.69424654429997
 30
0.0
 11
854.81602261569992
 21
-259.69424654429997
 31
0.0
 12
853.31602261570015
 22
-259.69424654429997
 32
0.0
 13
854.06602261569992
 23
-258.94424654429997
 33
0.0
  0
LINE
  5
13B
  8
0
 62
     0
 10
854.06602261569992
 20
-247.09424654430001
 30
0.0
 11
854.06602261569992
 21
-244.09424654430001
 31
0.0
  0
SOLID
  5
13C
  8
0
 62
     0
 10
854.06602261569992
 20
-247.09424654430001
 30
0.0
 11
853.31602261570015
 21
-244.09424654430001
 31
0.0
 12
854.81602261569992
 22
-244.09424654430001
 32
0.0
 13
854.06602261569992
 23
-244.84424654430001
 33
0.0
  0
ENDBLK
  5
13D
  8
0
  0
BLOCK
  8
0
  2
CLUMP0
 70
     0
 10
0.0
 20
0.0
 30
0.0
  3
CLUMP0
  1

  0
LINE
  5
157
  8
┌▓È_1
 10
890.3660226157001
 20
-252.49424654430001
 30
0.0
 11
865.3660226157001
 21
-252.49424654430001
 31
0.0
  0
LINE
  5
158
  8
┌▓È_1
 10
865.3660226157001
 20
-252.49424654430001
 30
0.0
 11
865.3660226157001
 21
-255.89424654429999
 31
0.0
  0
LINE
  5
159
  8
┌▓È_1
 10
890.3660226157001
 20
-255.89424654429999
 30
0.0
 11
890.3660226157001
 21
-252.49424654430001
 31
0.0
  0
LINE
  5
15A
  8
┌▓È_1
 10
890.3660226157001
 20
-255.89424654429999
 30
0.0
 11
865.3660226157001
 21
-255.89424654429999
 31
0.0
  0
INSERT
  5
15C
  8
┌▓È_1
  2
*X19
 10
0.0
 20
0.0
 30
0.0
  0
LINE
  5
16F
  8
┌▓È_1
  6
STITCH
 10
887.3660226157001
 20
-255.89424654429999
 30
0.0
 11
887.3660226157001
 21
-252.49424654430001
 31
0.0
  0
LINE
  5
170
  8
┌▓È_1
  6
STITCH
 10
868.36602261569999
 20
-255.89424654429999
 30
0.0
 11
868.36602261569999
 21
-252.49424654430001
 31
0.0
  0
ENDBLK
  5
171
  8
0
  0
BLOCK
  8
0
  2
*X19
 70
     1
 10
0.0
 20
0.0
 30
0.0
  3
*X19
  1

  0
LINE
  5
15E
  8
┌▓È_1
 10
865.3660226157001
 20
-252.62189350290001
 30
0.0
 11
865.49366957439997
 21
-252.49424654430001
 31
0.0
  0
LINE
  5
15F
  8
┌▓È_1
 10
866.51308695679995
 20
-255.89424654429999
 30
0.0
 11
869.91308695680004
 21
-252.49424654430001
 31
0.0
  0
LINE
  5
160
  8
┌▓È_1
 10
867.3969704333
 20
-255.89424654429999
 30
0.0
 11
870.79697043329986
 21
-252.49424654430001
 31
0.0
  0
LINE
  5
161
  8
┌▓È_1
 10
868.28085390969989
 20
-255.89424654429999
 30
0.0
 11
871.68085390969998
 21
-252.49424654430001
 31
0.0
  0
LINE
  5
162
  8
┌▓È_1
 10
869.16473738619982
 20
-255.89424654429999
 30
0.0
 11
872.56473738619991
 21
-252.49424654430001
 31
0.0
  0
LINE
  5
163
  8
┌▓È_1
 10
873.5841547686
 20
-255.89424654429999
 30
0.0
 11
876.98415476859986
 21
-252.49424654430001
 31
0.0
  0
LINE
  5
164
  8
┌▓È_1
 10
874.46803824509993
 20
-255.89424654429999
 30
0.0
 11
877.8680382450998
 21
-252.49424654430001
 31
0.0
  0
LINE
  5
165
  8
┌▓È_1
 10
875.35192172159998
 20
-255.89424654429999
 30
0.0
 11
878.75192172160007
 21
-252.49424654430001
 31
0.0
  0
LINE
  5
166
  8
┌▓È_1
 10
876.23580519809991
 20
-255.89424654429999
 30
0.0
 11
879.6358051981
 21
-252.49424654430001
 31
0.0
  0
LINE
  5
167
  8
┌▓È_1
 10
880.65522258049987
 20
-255.89424654429999
 30
0.0
 11
884.05522258049996
 21
-252.49424654430001
 31
0.0
  0
LINE
  5
168
  8
┌▓È_1
 10
881.5391060569998
 20
-255.89424654429999
 30
0.0
 11
884.93910605699989
 21
-252.49424654430001
 31
0.0
  0
LINE
  5
169
  8
┌▓È_1
 10
882.42298953350007
 20
-255.89424654429999
 30
0.0
 11
885.82298953350005
 21
-252.49424654430001
 31
0.0
  0
LINE
  5
16A
  8
┌▓È_1
 10
883.30687301
 20
-255.89424654429999
 30
0.0
 11
886.70687300999987
 21
-252.49424654430001
 31
0.0
  0
LINE
  5
16B
  8
┌▓È_1
 10
887.72629039239996
 20
-255.89424654429999
 30
0.0
 11
890.3660226157001
 21
-253.25451432099999
 31
0.0
  0
LINE
  5
16C
  8
┌▓È_1
 10
888.61017386889989
 20
-255.89424654429999
 30
0.0
 11
890.3660226157001
 21
-254.13839779739999
 31
0.0
  0
LINE
  5
16D
  8
┌▓È_1
 10
889.49405734530001
 20
-255.89424654429999
 30
0.0
 11
890.3660226157001
 21
-255.02228127390001
 31
0.0
  0
ENDBLK
  5
16E
  8
0
  0
BLOCK
  8
0
  2
*D20
 70
     1
 10
0.0
 20
0.0
 30
0.0
  3
*D20
  1

  0
TEXT
  5
177
  8
0
 62
     0
 10
759.61387011520003
 20
-162.3972469922
 30
0.0
 40
2.9986110209999999
  1
15
  0
LINE
  5
178
  8
0
 62
     0
 10
768.87775895109985
 20
-172.9264136429
 30
0.0
 11
768.87775895109985
 21
-163.4264136429
 31
0.0
  0
LINE
  5
179
  8
0
 62
     0
 10
753.87775895109985
 20
-175.9264136429
 30
0.0
 11
753.87775895109985
 21
-163.4264136429
 31
0.0
  0
LINE
  5
17A
  8
0
 62
     0
 10
768.87775895109985
 20
-163.9264136429
 30
0.0
 11
764.90553662289994
 21
-163.9264136429
 31
0.0
  0
LINE
  5
17B
  8
0
 62
     0
 10
768.87775895109985
 20
-163.9264136429
 30
0.0
 11
757.84998127929987
 21
-163.9264136429
 31
0.0
  0
LINE
  5
17C
  8
0
 62
     0
 10
753.87775895109985
 20
-163.9264136429
 30
0.0
 11
764.90553662289994
 21
-163.9264136429
 31
0.0
  0
LINE
  5
17D
  8
0
 62
     0
 10
753.87775895109985
 20
-163.9264136429
 30
0.0
 11
757.84998127929987
 21
-163.9264136429
 31
0.0
  0
LINE
  5
17E
  8
0
 62
     0
 10
753.87775895109985
 20
-163.9264136429
 30
0.0
 11
756.87775895109985
 21
-163.9264136429
 31
0.0
  0
SOLID
  5
17F
  8
0
 62
     0
 10
753.87775895109985
 20
-163.9264136429
 30
0.0
 11
756.87775895109985
 21
-163.1764136429
 31
0.0
 12
756.87775895109985
 22
-164.6764136429
 32
0.0
 13
756.12775895109985
 23
-163.9264136429
 33
0.0
  0
LINE
  5
180
  8
0
 62
     0
 10
768.87775895109985
 20
-163.9264136429
 30
0.0
 11
765.87775895109985
 21
-163.9264136429
 31
0.0
  0
SOLID
  5
181
  8
0
 62
     0
 10
768.87775895109985
 20
-163.9264136429
 30
0.0
 11
765.87775895109985
 21
-164.6764136429
 31
0.0
 12
765.87775895109985
 22
-163.1764136429
 32
0.0
 13
766.62775895109996
 23
-163.9264136429
 33
0.0
  0
ENDBLK
  5
182
  8
0
  0
BLOCK
  8
0
  2
*X21
 70
     1
 10
0.0
 20
0.0
 30
0.0
  3
*X21
  1

  0
LINE
  5
190
  8
┌▓È_1
 10
869.86114405139995
 20
-179.86055059579999
 30
0.0
 11
870.29528100429991
 21
-179.4264136429
 31
0.0
  0
LINE
  5
191
  8
┌▓È_1
 10
869.86602261569999
 20
-180.73955550790001
 30
0.0
 11
871.17916448070002
 21
-179.4264136429
 31
0.0
  0
LINE
  5
192
  8
┌▓È_1
 10
869.86602261569999
 20
-181.6234389844
 30
0.0
 11
872.06304795719996
 21
-179.4264136429
 31
0.0
  0
LINE
  5
193
  8
┌▓È_1
 10
869.86602261569999
 20
-182.50732246090001
 30
0.0
 11
872.9469314337
 21
-179.4264136429
 31
0.0
  0
LINE
  5
194
  8
┌▓È_1
 10
869.86602261569999
 20
-186.9267398433
 30
0.0
 11
877.36634881609996
 21
-179.4264136429
 31
0.0
  0
LINE
  5
195
  8
┌▓È_1
 10
869.86602261569999
 20
-187.81062331979999
 30
0.0
 11
878.25023229259989
 21
-179.4264136429
 31
0.0
  0
LINE
  5
196
  8
┌▓È_1
 10
869.86602261569999
 20
-188.6945067963
 30
0.0
 11
879.13411576910005
 21
-179.4264136429
 31
0.0
  0
LINE
  5
197
  8
┌▓È_1
 10
870.8503576853999
 20
-188.5940552031
 30
0.0
 11
880.01799924559998
 21
-179.4264136429
 31
0.0
  0
LINE
  5
198
  8
┌▓È_1
 10
875.43741662799994
 20
-188.4264136429
 30
0.0
 11
884.43741662800005
 21
-179.4264136429
 31
0.0
  0
LINE
  5
199
  8
┌▓È_1
 10
876.32130010449998
 20
-188.4264136429
 30
0.0
 11
885.32130010449998
 21
-179.4264136429
 31
0.0
  0
LINE
  5
19A
  8
┌▓È_1
 10
869.86602261569999
 20
-194.88169113169999
 30
0.0
 11
869.91536187839995
 21
-194.83235186900001
 31
0.0
  0
LINE
  5
19B
  8
┌▓È_1
 10
877.20518358100003
 20
-188.4264136429
 30
0.0
 11
886.20518358100003
 21
-179.4264136429
 31
0.0
  0
LINE
  5
19C
  8
┌▓È_1
 10
869.86602261569999
 20
-195.7655746081
 30
0.0
 11
870.49077202570015
 21
-195.1408251981
 31
0.0
  0
LINE
  5
19D
  8
┌▓È_1
 10
878.08906705740014
 20
-188.4264136429
 30
0.0
 11
887.08906705740003
 21
-179.4264136429
 31
0.0
  0
LINE
  5
19E
  8
┌▓È_1
 10
869.86602261569999
 20
-196.64945808460001
 30
0.0
 11
871.16257658799987
 21
-195.35290411240001
 31
0.0
  0
LINE
  5
19F
  8
┌▓È_1
 10
882.50848443990003
 20
-188.4264136429
 30
0.0
 11
890.3660226157001
 21
-180.568875467
 31
0.0
  0
LINE
  5
1A0
  8
┌▓È_1
 10
869.86602261569999
 20
-201.068875467
 30
0.0
 11
875.50848443990003
 21
-195.4264136429
 31
0.0
  0
LINE
  5
1A1
  8
┌▓È_1
 10
883.39236791630003
 20
-188.4264136429
 30
0.0
 11
890.3660226157001
 21
-181.45275894349999
 31
0.0
  0
LINE
  5
1A2
  8
┌▓È_1
 10
869.86602261569999
 20
-201.95275894349999
 30
0.0
 11
876.39236791629992
 21
-195.4264136429
 31
0.0
  0
LINE
  5
1A3
  8
┌▓È_1
 10
884.23947003269996
 20
-188.4631950031
 30
0.0
 11
890.3660226157001
 21
-182.33664242
 31
0.0
  0
LINE
  5
1A4
  8
┌▓È_1
 10
869.86602261569999
 20
-202.83664242
 30
0.0
 11
877.27625139279985
 21
-195.4264136429
 31
0.0
  0
LINE
  5
1A5
  8
┌▓È_1
 10
884.96625999749995
 20
-188.6202885148
 30
0.0
 11
890.3660226157001
 21
-183.22052589649999
 31
0.0
  0
LINE
  5
1A6
  8
┌▓È_1
 10
877.8660226157001
 20
-195.72052589649999
 30
0.0
 11
878.16013486930001
 21
-195.4264136429
 31
0.0
  0
LINE
  5
1A7
  8
┌▓È_1
 10
869.86602261569999
 20
-203.72052589649999
 30
0.0
 11
877.8660226157001
 21
-195.72052589649999
 31
0.0
  0
LINE
  5
1A8
  8
┌▓È_1
 10
887.17392635110014
 20
-190.8320395435
 30
0.0
 11
890.3660226157001
 21
-187.63994327890001
 31
0.0
  0
LINE
  5
1A9
  8
┌▓È_1
 10
873.57955225169985
 20
-204.4264136429
 30
0.0
 11
882.57955225169985
 21
-195.4264136429
 31
0.0
  0
LINE
  5
1AA
  8
┌▓È_1
 10
887.32992643199987
 20
-191.55992293910001
 30
0.0
 11
890.3660226157001
 21
-188.52382675539999
 31
0.0
  0
LINE
  5
1AB
  8
┌▓È_1
 10
874.46343572820001
 20
-204.4264136429
 30
0.0
 11
883.46343572820001
 21
-195.4264136429
 31
0.0
  0
LINE
  5
1AC
  8
┌▓È_1
 10
887.31344011500005
 20
-192.46029273260001
 30
0.0
 11
890.3660226157001
 21
-189.40771023190001
 31
0.0
  0
LINE
  5
1AD
  8
┌▓È_1
 10
875.34731920470006
 20
-204.4264136429
 30
0.0
 11
884.39990170550016
 21
-195.3738311422
 31
0.0
  0
LINE
  5
1AE
  8
┌▓È_1
 10
886.72792627379999
 20
-193.9296900503
 30
0.0
 11
890.3660226157001
 21
-190.2915937084
 31
0.0
  0
LINE
  5
1AF
  8
┌▓È_1
 10
876.23120268119987
 20
-204.4264136429
 30
0.0
 11
885.86929902309998
 21
-194.78831730100001
 31
0.0
  0
LINE
  5
1B0
  8
┌▓È_1
 10
880.65062006359994
 20
-204.4264136429
 30
0.0
 11
890.3660226157001
 21
-194.71101109080001
 31
0.0
  0
LINE
  5
1B1
  8
┌▓È_1
 10
881.53450354009999
 20
-204.4264136429
 30
0.0
 11
890.3660226157001
 21
-195.5948945673
 31
0.0
  0
LINE
  5
1B2
  8
┌▓È_1
 10
882.41838701660015
 20
-204.4264136429
 30
0.0
 11
890.3660226157001
 21
-196.47877804369989
 31
0.0
  0
LINE
  5
1B3
  8
┌▓È_1
 10
883.30227049300004
 20
-204.4264136429
 30
0.0
 11
890.3660226157001
 21
-197.36266152019999
 31
0.0
  0
LINE
  5
1B4
  8
┌▓È_1
 10
887.72168787550004
 20
-204.4264136429
 30
0.0
 11
890.3660226157001
 21
-201.78207890260001
 31
0.0
  0
LINE
  5
1B5
  8
┌▓È_1
 10
888.60557135190015
 20
-204.4264136429
 30
0.0
 11
890.3660226157001
 21
-202.66596237909999
 31
0.0
  0
LINE
  5
1B6
  8
┌▓È_1
 10
889.48945482839997
 20
-204.4264136429
 30
0.0
 11
890.3660226157001
 21
-203.54984585560001
 31
0.0
  0
ENDBLK
  5
1B7
  8
0
  0
BLOCK
  8
0
  2
CLUMP1
 70
     0
 10
0.0
 20
0.0
 30
0.0
  3
CLUMP1
  1

  0
LINE
  5
1D9
  8
┌▓È_1
 10
781.37775895109985
 20
-252.49424654430001
 30
0.0
 11
756.37775895109985
 21
-252.49424654430001
 31
0.0
  0
LINE
  5
1DA
  8
┌▓È_1
 10
756.37775895109985
 20
-252.49424654430001
 30
0.0
 11
756.37775895109985
 21
-255.89424654429999
 31
0.0
  0
LINE
  5
1DB
  8
┌▓È_1
 10
781.37775895109985
 20
-255.89424654429999
 30
0.0
 11
781.37775895109985
 21
-252.49424654430001
 31
0.0
  0
LINE
  5
1DC
  8
┌▓È_1
 10
781.37775895109985
 20
-255.89424654429999
 30
0.0
 11
756.37775895109985
 21
-255.89424654429999
 31
0.0
  0
INSERT
  5
1DE
  8
┌▓È_1
  2
*X23
 10
0.0
 20
0.0
 30
0.0
  0
LINE
  5
1F1
  8
┌▓È_1
  6
STITCH
 10
778.37775895109985
 20
-255.89424654429999
 30
0.0
 11
778.37775895109985
 21
-252.49424654430001
 31
0.0
  0
LINE
  5
1F2
  8
┌▓È_1
  6
STITCH
 10
759.37775895109985
 20
-255.89424654429999
 30
0.0
 11
759.37775895109985
 21
-252.49424654430001
 31
0.0
  0
ENDBLK
  5
1F3
  8
0
  0
BLOCK
  8
0
  2
*X23
 70
     1
 10
0.0
 20
0.0
 30
0.0
  3
*X23
  1

  0
LINE
  5
1E0
  8
┌▓È_1
 10
756.37775895109985
 20
-252.6129245189
 30
0.0
 11
756.49643692569998
 21
-252.49424654430001
 31
0.0
  0
LINE
  5
1E1
  8
┌▓È_1
 10
757.51585430809985
 20
-255.89424654429999
 30
0.0
 11
760.91585430809994
 21
-252.49424654430001
 31
0.0
  0
LINE
  5
1E2
  8
┌▓È_1
 10
758.39973778460012
 20
-255.89424654429999
 30
0.0
 11
761.7997377846001
 21
-252.49424654430001
 31
0.0
  0
LINE
  5
1E3
  8
┌▓È_1
 10
759.28362126110005
 20
-255.89424654429999
 30
0.0
 11
762.68362126110003
 21
-252.49424654430001
 31
0.0
  0
LINE
  5
1E4
  8
┌▓È_1
 10
760.16750473759998
 20
-255.89424654429999
 30
0.0
 11
763.56750473759996
 21
-252.49424654430001
 31
0.0
  0
LINE
  5
1E5
  8
┌▓È_1
 10
764.58692212000005
 20
-255.89424654429999
 30
0.0
 11
767.98692212000003
 21
-252.49424654430001
 31
0.0
  0
LINE
  5
1E6
  8
┌▓È_1
 10
765.47080559649999
 20
-255.89424654429999
 30
0.0
 11
768.87080559649985
 21
-252.49424654430001
 31
0.0
  0
LINE
  5
1E7
  8
┌▓È_1
 10
766.35468907300003
 20
-255.89424654429999
 30
0.0
 11
769.75468907299989
 21
-252.49424654430001
 31
0.0
  0
LINE
  5
1E8
  8
┌▓È_1
 10
767.23857254940003
 20
-255.89424654429999
 30
0.0
 11
770.63857254940001
 21
-252.49424654430001
 31
0.0
  0
LINE
  5
1E9
  8
┌▓È_1
 10
771.65798993190003
 20
-255.89424654429999
 30
0.0
 11
775.05798993190001
 21
-252.49424654430001
 31
0.0
  0
LINE
  5
1EA
  8
┌▓È_1
 10
772.54187340830003
 20
-255.89424654429999
 30
0.0
 11
775.9418734082999
 21
-252.49424654430001
 31
0.0
  0
LINE
  5
1EB
  8
┌▓È_1
 10
773.42575688479997
 20
-255.89424654429999
 30
0.0
 11
776.82575688479994
 21
-252.49424654430001
 31
0.0
  0
LINE
  5
1EC
  8
┌▓È_1
 10
774.30964036130001
 20
-255.89424654429999
 30
0.0
 11
777.7096403613001
 21
-252.49424654430001
 31
0.0
  0
LINE
  5
1ED
  8
┌▓È_1
 10
778.72905774369997
 20
-255.89424654429999
 30
0.0
 11
781.37775895109985
 21
-253.24554533689999
 31
0.0
  0
LINE
  5
1EE
  8
┌▓È_1
 10
779.61294122020001
 20
-255.89424654429999
 30
0.0
 11
781.37775895109985
 21
-254.12942881340001
 31
0.0
  0
LINE
  5
1EF
  8
┌▓È_1
 10
780.49682469669995
 20
-255.89424654429999
 30
0.0
 11
781.37775895109985
 21
-255.0133122899
 31
0.0
  0
ENDBLK
  5
1F0
  8
0
  0
BLOCK
  8
0
  2
*D24
 70
     1
 10
0.0
 20
0.0
 30
0.0
  3
*D24
  1

  0
TEXT
  5
1F9
  8
0
 62
     0
 10
802.50923985679981
 20
-193.69030247879999
 30
0.0
 40
2.9986110209999999
  1
30
 50
90.0
  0
LINE
  5
1FA
  8
0
 62
     0
 10
781.87775895109985
 20
-206.9264136429
 30
0.0
 11
804.53840650760003
 21
-206.9264136429
 31
0.0
  0
LINE
  5
1FB
  8
0
 62
     0
 10
781.87775895109985
 20
-176.9264136429
 30
0.0
 11
804.53840650760003
 21
-176.9264136429
 31
0.0
  0
LINE
  5
1FC
  8
0
 62
     0
 10
804.03840650759992
 20
-206.9264136429
 30
0.0
 11
804.03840650759992
 21
-188.39863597109999
 31
0.0
  0
LINE
  5
1FD
  8
0
 62
     0
 10
804.03840650759992
 20
-206.9264136429
 30
0.0
 11
804.03840650759992
 21
-195.4541913148
 31
0.0
  0
LINE
  5
1FE
  8
0
 62
     0
 10
804.03840650759992
 20
-176.9264136429
 30
0.0
 11
804.03840650759992
 21
-188.39863597109999
 31
0.0
  0
LINE
  5
1FF
  8
0
 62
     0
 10
804.03840650759992
 20
-176.9264136429
 30
0.0
 11
804.03840650759992
 21
-195.4541913148
 31
0.0
  0
LINE
  5
200
  8
0
 62
     0
 10
804.03840650759992
 20
-176.9264136429
 30
0.0
 11
804.03840650759992
 21
-179.9264136429
 31
0.0
  0
SOLID
  5
201
  8
0
 62
     0
 10
804.03840650759992
 20
-176.9264136429
 30
0.0
 11
804.78840650759992
 21
-179.9264136429
 31
0.0
 12
803.2884065075998
 22
-179.9264136429
 32
0.0
 13
804.03840650759992
 23
-179.1764136429
 33
0.0
  0
LINE
  5
202
  8
0
 62
     0
 10
804.03840650759992
 20
-206.9264136429
 30
0.0
 11
804.03840650759992
 21
-203.9264136429
 31
0.0
  0
SOLID
  5
203
  8
0
 62
     0
 10
804.03840650759992
 20
-206.9264136429
 30
0.0
 11
803.2884065075998
 21
-203.9264136429
 31
0.0
 12
804.78840650759992
 22
-203.9264136429
 32
0.0
 13
804.03840650759992
 23
-204.6764136429
 33
0.0
  0
ENDBLK
  5
204
  8
0
  0
BLOCK
  8
0
  2
*D25
 70
     1
 10
0.0
 20
0.0
 30
0.0
  3
*D25
  1

  0
TEXT
  5
208
  8
0
 62
     0
 10
795.34859230029986
 20
-201.19030247879999
 30
0.0
 40
2.9986110209999999
  1
15
 50
90.0
  0
LINE
  5
209
  8
0
 62
     0
 10
781.87775895109985
 20
-206.9264136429
 30
0.0
 11
797.37775895109996
 21
-206.9264136429
 31
0.0
  0
LINE
  5
20A
  8
0
 62
     0
 10
787.87775895109985
 20
-191.9264136429
 30
0.0
 11
797.37775895109996
 21
-191.9264136429
 31
0.0
  0
LINE
  5
20B
  8
0
 62
     0
 10
796.87775895109996
 20
-206.9264136429
 30
0.0
 11
796.87775895109996
 21
-195.89863597109999
 31
0.0
  0
LINE
  5
20C
  8
0
 62
     0
 10
796.87775895109996
 20
-206.9264136429
 30
0.0
 11
796.87775895109996
 21
-202.9541913148
 31
0.0
  0
LINE
  5
20D
  8
0
 62
     0
 10
796.87775895109996
 20
-191.9264136429
 30
0.0
 11
796.87775895109996
 21
-195.89863597109999
 31
0.0
  0
LINE
  5
20E
  8
0
 62
     0
 10
796.87775895109996
 20
-191.9264136429
 30
0.0
 11
796.87775895109996
 21
-202.9541913148
 31
0.0
  0
LINE
  5
20F
  8
0
 62
     0
 10
796.87775895109996
 20
-191.9264136429
 30
0.0
 11
796.87775895109996
 21
-194.9264136429
 31
0.0
  0
SOLID
  5
210
  8
0
 62
     0
 10
796.87775895109996
 20
-191.9264136429
 30
0.0
 11
797.62775895109985
 21
-194.9264136429
 31
0.0
 12
796.12775895109985
 22
-194.9264136429
 32
0.0
 13
796.87775895109996
 23
-194.1764136429
 33
0.0
  0
LINE
  5
211
  8
0
 62
     0
 10
796.87775895109996
 20
-206.9264136429
 30
0.0
 11
796.87775895109996
 21
-203.9264136429
 31
0.0
  0
SOLID
  5
212
  8
0
 62
     0
 10
796.87775895109996
 20
-206.9264136429
 30
0.0
 11
796.12775895109985
 21
-203.9264136429
 31
0.0
 12
797.62775895109985
 22
-203.9264136429
 32
0.0
 13
796.87775895109996
 23
-204.6764136429
 33
0.0
  0
ENDBLK
  5
213
  8
0
  0
BLOCK
  8
0
  2
*D26
 70
     1
 10
0.0
 20
0.0
 30
0.0
  3
*D26
  1

  0
TEXT
  5
217
  8
0
 62
     0
 10
795.34859230029986
 20
-186.19030247879999
 30
0.0
 40
2.9986110209999999
  1
15
 50
90.0
  0
LINE
  5
218
  8
0
 62
     0
 10
787.87775895109985
 20
-191.9264136429
 30
0.0
 11
797.37775895109996
 21
-191.9264136429
 31
0.0
  0
LINE
  5
219
  8
0
 62
     0
 10
781.87775895109985
 20
-176.9264136429
 30
0.0
 11
797.37775895109996
 21
-176.9264136429
 31
0.0
  0
LINE
  5
21A
  8
0
 62
     0
 10
796.87775895109996
 20
-191.9264136429
 30
0.0
 11
796.87775895109996
 21
-180.89863597109991
 31
0.0
  0
LINE
  5
21B
  8
0
 62
     0
 10
796.87775895109996
 20
-191.9264136429
 30
0.0
 11
796.87775895109996
 21
-187.9541913148
 31
0.0
  0
LINE
  5
21C
  8
0
 62
     0
 10
796.87775895109996
 20
-176.9264136429
 30
0.0
 11
796.87775895109996
 21
-180.89863597109991
 31
0.0
  0
LINE
  5
21D
  8
0
 62
     0
 10
796.87775895109996
 20
-176.9264136429
 30
0.0
 11
796.87775895109996
 21
-187.9541913148
 31
0.0
  0
LINE
  5
21E
  8
0
 62
     0
 10
796.87775895109996
 20
-176.9264136429
 30
0.0
 11
796.87775895109996
 21
-179.9264136429
 31
0.0
  0
SOLID
  5
21F
  8
0
 62
     0
 10
796.87775895109996
 20
-176.9264136429
 30
0.0
 11
797.62775895109985
 21
-179.9264136429
 31
0.0
 12
796.12775895109985
 22
-179.9264136429
 32
0.0
 13
796.87775895109996
 23
-179.1764136429
 33
0.0
  0
LINE
  5
220
  8
0
 62
     0
 10
796.87775895109996
 20
-191.9264136429
 30
0.0
 11
796.87775895109996
 21
-188.9264136429
 31
0.0
  0
SOLID
  5
221
  8
0
 62
     0
 10
796.87775895109996
 20
-191.9264136429
 30
0.0
 11
796.12775895109985
 21
-188.9264136429
 31
0.0
 12
797.62775895109985
 22
-188.9264136429
 32
0.0
 13
796.87775895109996
 23
-189.6764136429
 33
0.0
  0
ENDBLK
  5
222
  8
0
  0
BLOCK
  8
0
  2
*D27
 70
     1
 10
0.0
 20
0.0
 30
0.0
  3
*D27
  1

  0
TEXT
  5
226
  8
0
 62
     0
 10
767.11387011520003
 20
-155.8109940617
 30
0.0
 40
2.9986110209999999
  1
30
  0
LINE
  5
227
  8
0
 62
     0
 10
783.87775895109985
 20
-178.9264136429
 30
0.0
 11
783.87775895109985
 21
-156.84016071249999
 31
0.0
  0
LINE
  5
228
  8
0
 62
     0
 10
753.87775895109985
 20
-175.9264136429
 30
0.0
 11
753.87775895109985
 21
-156.84016071249999
 31
0.0
  0
LINE
  5
229
  8
0
 62
     0
 10
783.87775895109985
 20
-157.34016071249999
 30
0.0
 11
772.40553662289994
 21
-157.34016071249999
 31
0.0
  0
LINE
  5
22A
  8
0
 62
     0
 10
783.87775895109985
 20
-157.34016071249999
 30
0.0
 11
765.34998127929998
 21
-157.34016071249999
 31
0.0
  0
LINE
  5
22B
  8
0
 62
     0
 10
753.87775895109985
 20
-157.34016071249999
 30
0.0
 11
772.40553662289994
 21
-157.34016071249999
 31
0.0
  0
LINE
  5
22C
  8
0
 62
     0
 10
753.87775895109985
 20
-157.34016071249999
 30
0.0
 11
765.34998127929998
 21
-157.34016071249999
 31
0.0
  0
LINE
  5
22D
  8
0
 62
     0
 10
753.87775895109985
 20
-157.34016071249999
 30
0.0
 11
756.87775895109985
 21
-157.34016071249999
 31
0.0
  0
SOLID
  5
22E
  8
0
 62
     0
 10
753.87775895109985
 20
-157.34016071249999
 30
0.0
 11
756.87775895109985
 21
-156.59016071249999
 31
0.0
 12
756.87775895109985
 22
-158.09016071249999
 32
0.0
 13
756.12775895109985
 23
-157.34016071249999
 33
0.0
  0
LINE
  5
22F
  8
0
 62
     0
 10
783.87775895109985
 20
-157.34016071249999
 30
0.0
 11
780.87775895109996
 21
-157.34016071249999
 31
0.0
  0
SOLID
  5
230
  8
0
 62
     0
 10
783.87775895109985
 20
-157.34016071249999
 30
0.0
 11
780.87775895109996
 21
-158.09016071249999
 31
0.0
 12
780.87775895109996
 22
-156.59016071249999
 32
0.0
 13
781.62775895109985
 23
-157.34016071249999
 33
0.0
  0
ENDBLK
  5
231
  8
0
  0
BLOCK
  8
0
  2
*D28
 70
     1
 10
0.0
 20
0.0
 30
0.0
  3
*D28
  1

  0
TEXT
  5
235
  8
0
 62
     0
 10
774.61387011520003
 20
-162.3972469922
 30
0.0
 40
2.9986110209999999
  1
15
  0
LINE
  5
236
  8
0
 62
     0
 10
783.87775895109985
 20
-178.9264136429
 30
0.0
 11
783.87775895109985
 21
-163.4264136429
 31
0.0
  0
LINE
  5
237
  8
0
 62
     0
 10
768.87775895109985
 20
-172.9264136429
 30
0.0
 11
768.87775895109985
 21
-163.4264136429
 31
0.0
  0
LINE
  5
238
  8
0
 62
     0
 10
783.87775895109985
 20
-163.9264136429
 30
0.0
 11
779.90553662289994
 21
-163.9264136429
 31
0.0
  0
LINE
  5
239
  8
0
 62
     0
 10
783.87775895109985
 20
-163.9264136429
 30
0.0
 11
772.84998127929998
 21
-163.9264136429
 31
0.0
  0
LINE
  5
23A
  8
0
 62
     0
 10
768.87775895109985
 20
-163.9264136429
 30
0.0
 11
779.90553662289994
 21
-163.9264136429
 31
0.0
  0
LINE
  5
23B
  8
0
 62
     0
 10
768.87775895109985
 20
-163.9264136429
 30
0.0
 11
772.84998127929998
 21
-163.9264136429
 31
0.0
  0
LINE
  5
23C
  8
0
 62
     0
 10
768.87775895109985
 20
-163.9264136429
 30
0.0
 11
771.87775895109996
 21
-163.9264136429
 31
0.0
  0
SOLID
  5
23D
  8
0
 62
     0
 10
768.87775895109985
 20
-163.9264136429
 30
0.0
 11
771.87775895109996
 21
-163.1764136429
 31
0.0
 12
771.87775895109996
 22
-164.6764136429
 32
0.0
 13
771.12775895109985
 23
-163.9264136429
 33
0.0
  0
LINE
  5
23E
  8
0
 62
     0
 10
783.87775895109985
 20
-163.9264136429
 30
0.0
 11
780.87775895109996
 21
-163.9264136429
 31
0.0
  0
SOLID
  5
23F
  8
0
 62
     0
 10
783.87775895109985
 20
-163.9264136429
 30
0.0
 11
780.87775895109996
 21
-164.6764136429
 31
0.0
 12
780.87775895109996
 22
-163.1764136429
 32
0.0
 13
781.62775895109985
 23
-163.9264136429
 33
0.0
  0
ENDBLK
  5
240
  8
0
  0
BLOCK
  8
0
  2
*X29
 70
     1
 10
0.0
 20
0.0
 30
0.0
  3
*X29
  1

  0
LINE
  5
252
  8
┌▓È_1
 10
760.87323714360002
 20
-179.8653669903
 30
0.0
 11
761.31219049089987
 21
-179.4264136429
 31
0.0
  0
LINE
  5
253
  8
┌▓È_1
 10
760.87775895109985
 20
-180.74472865919989
 30
0.0
 11
762.19607396740003
 21
-179.4264136429
 31
0.0
  0
LINE
  5
254
  8
┌▓È_1
 10
760.87775895109985
 20
-181.6286121357
 30
0.0
 11
763.07995744389996
 21
-179.4264136429
 31
0.0
  0
LINE
  5
255
  8
┌▓È_1
 10
760.87775895109985
 20
-182.51249561220001
 30
0.0
 11
763.96384092039989
 21
-179.4264136429
 31
0.0
  0
LINE
  5
256
  8
┌▓È_1
 10
760.87775895109985
 20
-186.9319129946
 30
0.0
 11
768.38325830279985
 21
-179.4264136429
 31
0.0
  0
LINE
  5
257
  8
┌▓È_1
 10
760.87775895109985
 20
-187.81579647109999
 30
0.0
 11
769.26714177929989
 21
-179.4264136429
 31
0.0
  0
LINE
  5
258
  8
┌▓È_1
 10
760.87775895109985
 20
-188.69967994759989
 30
0.0
 11
770.15102525570001
 21
-179.4264136429
 31
0.0
  0
LINE
  5
259
  8
┌▓È_1
 10
761.86975154499999
 20
-188.5915708302
 30
0.0
 11
771.03490873220005
 21
-179.4264136429
 31
0.0
  0
LINE
  5
25A
  8
┌▓È_1
 10
766.45432611460001
 20
-188.4264136429
 30
0.0
 11
775.45432611460012
 21
-179.4264136429
 31
0.0
  0
LINE
  5
25B
  8
┌▓È_1
 10
767.33820959110005
 20
-188.4264136429
 30
0.0
 11
776.33820959110005
 21
-179.4264136429
 31
0.0
  0
LINE
  5
25C
  8
┌▓È_1
 10
760.87775895109985
 20
-194.88686428290001
 30
0.0
 11
760.93017353020002
 21
-194.83444970389999
 31
0.0
  0
LINE
  5
25D
  8
┌▓È_1
 10
768.22209306759999
 20
-188.4264136429
 30
0.0
 11
777.22209306759999
 21
-179.4264136429
 31
0.0
  0
LINE
  5
25E
  8
┌▓È_1
 10
760.87775895109985
 20
-195.7707477594
 30
0.0
 11
761.50587956589993
 21
-195.1426271446
 31
0.0
  0
LINE
  5
25F
  8
┌▓È_1
 10
769.10597654410003
 20
-188.4264136429
 30
0.0
 11
778.10597654410003
 21
-179.4264136429
 31
0.0
  0
LINE
  5
260
  8
┌▓È_1
 10
760.87775895109985
 20
-196.65463123590001
 30
0.0
 11
762.17828205249987
 21
-195.3541081345
 31
0.0
  0
LINE
  5
261
  8
┌▓È_1
 10
773.52539392649999
 20
-188.4264136429
 30
0.0
 11
781.37775895109985
 21
-180.5740486183
 31
0.0
  0
LINE
  5
262
  8
┌▓È_1
 10
760.87775895109985
 20
-201.0740486183
 30
0.0
 11
766.52539392649987
 21
-195.4264136429
 31
0.0
  0
LINE
  5
263
  8
┌▓È_1
 10
774.40927740300003
 20
-188.4264136429
 30
0.0
 11
781.37775895109985
 21
-181.45793209479999
 31
0.0
  0
LINE
  5
264
  8
┌▓È_1
 10
760.87775895109985
 20
-201.95793209479999
 30
0.0
 11
767.40927740300003
 21
-195.4264136429
 31
0.0
  0
LINE
  5
265
  8
┌▓È_1
 10
775.25591569139988
 20
-188.463658831
 30
0.0
 11
781.37775895109985
 21
-182.3418155713
 31
0.0
  0
LINE
  5
266
  8
┌▓È_1
 10
760.87775895109985
 20
-202.8418155713
 30
0.0
 11
768.29316087949996
 21
-195.4264136429
 31
0.0
  0
LINE
  5
267
  8
┌▓È_1
 10
775.98196546190002
 20
-188.62149253690001
 30
0.0
 11
781.37775895109985
 21
-183.22569904779999
 31
0.0
  0
LINE
  5
268
  8
┌▓È_1
 10
768.87775895109985
 20
-195.72569904779999
 30
0.0
 11
769.17704435600001
 21
-195.4264136429
 31
0.0
  0
LINE
  5
269
  8
┌▓È_1
 10
760.87775895109985
 20
-203.72569904779999
 30
0.0
 11
768.87775895109985
 21
-195.72569904779999
 31
0.0
  0
LINE
  5
26A
  8
┌▓È_1
 10
778.18686670869999
 20
-190.83600867259989
 30
0.0
 11
781.37775895109985
 21
-187.64511643020001
 31
0.0
  0
LINE
  5
26B
  8
┌▓È_1
 10
764.59646173839997
 20
-204.4264136429
 30
0.0
 11
773.59646173839985
 21
-195.4264136429
 31
0.0
  0
LINE
  5
26C
  8
┌▓È_1
 10
778.34212659529987
 20
-191.5646322625
 30
0.0
 11
781.37775895109985
 21
-188.52899990669999
 31
0.0
  0
LINE
  5
26D
  8
┌▓È_1
 10
765.48034521490001
 20
-204.4264136429
 30
0.0
 11
774.48034521490001
 21
-195.4264136429
 31
0.0
  0
LINE
  5
26E
  8
┌▓È_1
 10
778.32461127449994
 20
-192.4660310598
 30
0.0
 11
781.37775895109985
 21
-189.4128833831
 31
0.0
  0
LINE
  5
26F
  8
┌▓È_1
 10
766.36422869130001
 20
-204.4264136429
 30
0.0
 11
775.41737636799996
 21
-195.37326596630001
 31
0.0
  0
LINE
  5
270
  8
┌▓È_1
 10
777.71598724169996
 20
-193.9585385691
 30
0.0
 11
781.37775895109985
 21
-190.29676685960001
 31
0.0
  0
LINE
  5
271
  8
┌▓È_1
 10
767.24811216779995
 20
-204.4264136429
 30
0.0
 11
776.90988387729999
 21
-194.7646419335
 31
0.0
  0
LINE
  5
272
  8
┌▓È_1
 10
771.66752955020002
 20
-204.4264136429
 30
0.0
 11
781.37775895109985
 21
-194.716184242
 31
0.0
  0
LINE
  5
273
  8
┌▓È_1
 10
772.55141302669995
 20
-204.4264136429
 30
0.0
 11
781.37775895109985
 21
-195.60006771849999
 31
0.0
  0
LINE
  5
274
  8
┌▓È_1
 10
773.43529650320011
 20
-204.4264136429
 30
0.0
 11
781.37775895109985
 21
-196.483951195
 31
0.0
  0
LINE
  5
275
  8
┌▓È_1
 10
774.31917997970004
 20
-204.4264136429
 30
0.0
 11
781.37775895109985
 21
-197.36783467149999
 31
0.0
  0
LINE
  5
276
  8
┌▓È_1
 10
778.73859736210011
 20
-204.4264136429
 30
0.0
 11
781.37775895109985
 21
-201.7872520539
 31
0.0
  0
LINE
  5
277
  8
┌▓È_1
 10
779.62248083860004
 20
-204.4264136429
 30
0.0
 11
781.37775895109985
 21
-202.67113553039999
 31
0.0
  0
LINE
  5
278
  8
┌▓È_1
 10
780.50636431509986
 20
-204.4264136429
 30
0.0
 11
781.37775895109985
 21
-203.55501900690001
 31
0.0
  0
ENDBLK
  5
279
  8
0
  0
BLOCK
  8
0
  2
*X30
 70
     1
 10
0.0
 20
0.0
 30
0.0
  3
*X30
  1

  0
LINE
  5
27D
  8
┌▓È_1
 10
756.37775895109985
 20
-179.68689626290001
 30
0.0
 11
756.63824157100009
 21
-179.4264136429
 31
0.0
  0
LINE
  5
27E
  8
┌▓È_1
 10
756.37775895109985
 20
-180.57077973930001
 30
0.0
 11
757.52212504750003
 21
-179.4264136429
 31
0.0
  0
LINE
  5
27F
  8
┌▓È_1
 10
756.37775895109985
 20
-184.99019712180001
 30
0.0
 11
760.87775895109985
 21
-180.49019712180001
 31
0.0
  0
LINE
  5
280
  8
┌▓È_1
 10
756.37775895109985
 20
-185.87408059820001
 30
0.0
 11
760.87775895109985
 21
-181.37408059820001
 31
0.0
  0
LINE
  5
281
  8
┌▓È_1
 10
756.37775895109985
 20
-186.7579640747
 30
0.0
 11
760.87775895109985
 21
-182.2579640747
 31
0.0
  0
LINE
  5
282
  8
┌▓È_1
 10
756.37775895109985
 20
-187.64184755119999
 30
0.0
 11
760.87775895109985
 21
-183.14184755119999
 31
0.0
  0
LINE
  5
283
  8
┌▓È_1
 10
756.37775895109985
 20
-192.0612649336
 30
0.0
 11
760.87775895109985
 21
-187.5612649336
 31
0.0
  0
LINE
  5
284
  8
┌▓È_1
 10
756.37775895109985
 20
-192.94514841009999
 30
0.0
 11
760.87775895109985
 21
-188.4451484100999
 31
0.0
  0
LINE
  5
285
  8
┌▓È_1
 10
756.37775895109985
 20
-193.82903188660001
 30
0.0
 11
759.66369109300001
 21
-190.54309974469999
 31
0.0
  0
LINE
  5
286
  8
┌▓È_1
 10
756.37775895109985
 20
-194.7129153631
 30
0.0
 11
759.3891922242999
 21
-191.7014820899
 31
0.0
  0
LINE
  5
287
  8
┌▓È_1
 10
756.37775895109985
 20
-199.13233274549989
 30
0.0
 11
760.78386661399998
 21
-194.7262250826
 31
0.0
  0
LINE
  5
288
  8
┌▓È_1
 10
756.37775895109985
 20
-200.016216222
 30
0.0
 11
760.87775895109985
 21
-195.516216222
 31
0.0
  0
LINE
  5
289
  8
┌▓È_1
 10
756.37775895109985
 20
-200.90009969849999
 30
0.0
 11
760.87775895109985
 21
-196.40009969849999
 31
0.0
  0
LINE
  5
28A
  8
┌▓È_1
 10
756.37775895109985
 20
-201.78398317489999
 30
0.0
 11
760.87775895109985
 21
-197.28398317489999
 31
0.0
  0
LINE
  5
28B
  8
┌▓È_1
 10
758.15474586549988
 20
-204.4264136429
 30
0.0
 11
760.87775895109985
 21
-201.70340055739999
 31
0.0
  0
LINE
  5
28C
  8
┌▓È_1
 10
759.03862934199992
 20
-204.4264136429
 30
0.0
 11
760.87775895109985
 21
-202.58728403379999
 31
0.0
  0
LINE
  5
28D
  8
┌▓È_1
 10
759.92251281849997
 20
-204.4264136429
 30
0.0
 11
760.87775895109985
 21
-203.47116751030001
 31
0.0
  0
ENDBLK
  5
28E
  8
0
  0
BLOCK
  8
0
  2
*U31
 70
     1
 10
0.0
 20
0.0
 30
0.0
  3
*U31
  1

  0
TEXT
  5
316
  8
┌▓È_1
  6
CONTINUOUS
 10
856.32692747789986
 20
-289.95803524708168
 30
0.0
 40
3.5983331442000002
  1
éPâZâbâgôÓùeüFè█îèéQâûüAÆÀîèéQâû
  0
ENDBLK
  5
318
  8
0
  0
BLOCK
  8
0
  2
*U32
 70
     1
 10
0.0
 20
0.0
 30
0.0
  3
*U32
  1

  0
TEXT
  5
31A
  8
┌▓È_1
  6
CONTINUOUS
 10
898.67656531729995
 20
-224.21682808499901
 30
0.0
 40
2.9986110209999999
  1
ébéqâXâ|âôâWô\éÞòté»
  0
ENDBLK
  5
31C
  8
0
  0
BLOCK
  8
0
  2
*U33
 70
     1
 10
0.0
 20
0.0
 30
0.0
  3
*U33
  1

  0
TEXT
  5
31E
  8
┌▓È_1
  6
CONTINUOUS
 10
789.68830165270003
 20
-224.21682808499901
 30
0.0
 40
2.9986110209999999
  1
ébéqâXâ|âôâWô\éÞòté»
  0
ENDBLK
  5
320
  8
0
  0
BLOCK
  8
0
  2
*U34
 70
     1
 10
0.0
 20
0.0
 30
0.0
  3
*U34
  1

  0
TEXT
  5
322
  8
┌▓È_1
  6
CONTINUOUS
 10
934.61885961899998
 20
-297.35521623919999
 30
0.0
 40
3.5983331442000002
  1
élü|éRéOéRéO
  0
ENDBLK
  5
324
  8
0
  0
BLOCK
  8
0
  2
*U35
 70
     1
 10
0.0
 20
0.0
 30
0.0
  3
*U35
  1

  0
TEXT
  5
326
  8
┌▓È_1
  6
CONTINUOUS
 10
932.24976840350007
 20
-306.05613839445988
 30
0.0
 40
3.5983331442000002
  1
â~âëü[ÄµòtïÓï´
  0
ENDBLK
  5
328
  8
0
  0
BLOCK
  8
0
  2
*U36
 70
     1
 10
0.0
 20
0.0
 30
0.0
  3
*U36
  1

  0
TEXT
  5
32A
  8
┌▓È_1
  6
CONTINUOUS
 10
863.54748120270006
 20
-314.90770801776648
 30
0.0
 40
4.3179999351999987
  1
èöÄ«ë´Äð
  0
ENDBLK
  5
32C
  8
0
  0
BLOCK
  8
0
  2
*U37
 70
     1
 10
0.0
 20
0.0
 30
0.0
  3
*U37
  1

  0
TEXT
  5
32E
  8
┌▓È_1
  6
CONTINUOUS
 10
921.2174269315999
 20
-294.752461322101
 30
0.0
 40
2.337499999999999
  1
î^öÈ
  0
ENDBLK
  5
330
  8
0
  0
BLOCK
  8
0
  2
*U38
 70
     1
 10
0.0
 20
0.0
 30
0.0
  3
*U38
  1

  0
TEXT
  5
332
  8
┌▓È_1
  6
CONTINUOUS
 10
856.79231328920002
 20
-294.74576349013398
 30
0.0
 40
2.337499999999999
  1
ü@ô· ü@òt
  0
ENDBLK
  5
334
  8
0
  0
BLOCK
  8
0
  2
*U39
 70
     1
 10
0.0
 20
0.0
 30
0.0
  3
*U39
  1

  0
TEXT
  5
336
  8
┌▓È_1
  6
CONTINUOUS
 10
856.32692747789986
 20
-307.566956383535
 30
0.0
 40
2.337499999999999
  1
 É╗É}ü@ü@ ëÇî┤
  0
ENDBLK
  5
338
  8
0
  0
BLOCK
  8
0
  2
*U40
 70
     1
 10
0.0
 20
0.0
 30
0.0
  3
*U40
  1

  0
TEXT
  5
33A
  8
┌▓È_1
  6
CONTINUOUS
 10
856.32692747789986
 20
-303.29322541906799
 30
0.0
 40
2.337499999999999
  1
 É¦îvü@ü@ ëÇî┤
  0
ENDBLK
  5
33C
  8
0
  0
BLOCK
  8
0
  2
*U41
 70
     1
 10
0.0
 20
0.0
 30
0.0
  3
*U41
  1

  0
TEXT
  5
33E
  8
┌▓È_1
  6
CONTINUOUS
 10
904.79231328920002
 20
-294.82882186576848
 30
0.0
 40
2.337499999999999
  1
ü@îƒ ü@ê¾
  0
ENDBLK
  5
340
  8
0
  0
BLOCK
  8
0
  2
*U42
 70
     1
 10
0.0
 20
0.0
 30
0.0
  3
*U42
  1

  0
TEXT
  5
342
  8
┌▓È_1
  6
CONTINUOUS
 10
888.79231328920002
 20
-303.316956383535
 30
0.0
 40
2.337499999999999
  1
ü@Ä┌ ü@ôx
  0
ENDBLK
  5
344
  8
0
  0
BLOCK
  8
0
  2
*U43
 70
     1
 10
0.0
 20
0.0
 30
0.0
  3
*U43
  1

  0
TEXT
  5
346
  8
┌▓È_1
  6
CONTINUOUS
 10
888.79231328920002
 20
-294.82882186576848
 30
0.0
 40
2.337499999999999
  1
ü@ö┬ ü@î·
  0
ENDBLK
  5
348
  8
0
  0
BLOCK
  8
0
  2
*U44
 70
     1
 10
0.0
 20
0.0
 30
0.0
  3
*U44
  1

  0
TEXT
  5
34A
  8
┌▓È_1
  6
CONTINUOUS
 10
872.79231328920002
 20
-294.78135993683452
 30
0.0
 40
2.337499999999999
  1
ü@ìÌ ü@Ä┐
  0
ENDBLK
  5
34C
  8
0
  0
BLOCK
  8
0
  2
*U45
 70
     1
 10
0.0
 20
0.0
 30
0.0
  3
*U45
  1

  0
TEXT
  5
34E
  8
┌▓È_1
  6
CONTINUOUS
 62
     5
 10
893.43768255404223
 20
-307.44830156119991
 30
0.0
 40
2.337499999999999
  1
1üF1
  0
ENDBLK
  5
350
  8
0
  0
BLOCK
  8
0
  2
*U46
 70
     1
 10
0.0
 20
0.0
 30
0.0
  3
*U46
  1

  0
TEXT
  5
352
  8
┌▓È_1
  6
CONTINUOUS
 62
     5
 10
893.3308932139405
 20
-298.94830156120003
 30
0.0
 40
2.337499999999999
  1
0.8t
  0
ENDBLK
  5
354
  8
0
  0
BLOCK
  8
0
  2
*U47
 70
     1
 10
0.0
 20
0.0
 30
0.0
  3
*U47
  1

  0
TEXT
  5
356
  8
┌▓È_1
  6
CONTINUOUS
 62
     5
 10
873.45681326470208
 20
-298.94830156120003
 30
0.0
 40
2.337499999999999
  1
SUS304 BA
  0
ENDBLK
  5
358
  8
0
  0
BLOCK
  8
0
  2
*U48
 70
     1
 10
0.0
 20
0.0
 30
0.0
  3
*U48
  1

  0
TEXT
  5
35A
  8
┌▓È_1
  6
CONTINUOUS
 62
     5
 10
859.78244778246847
 20
-298.94830156120003
 30
0.0
 40
2.337499999999999
  1
H12.12
  0
ENDBLK
  5
35C
  8
0
  0
BLOCK
  8
0
  2
*U49
 70
     1
 10
0.0
 20
0.0
 30
0.0
  3
*U49
  1

  0
TEXT
  5
35E
  8
┌▓È_1
  6
CONTINUOUS
 10
921.2174269315999
 20
-311.752461322101
 30
0.0
 40
2.337499999999999
  1
É}öÈ
  0
ENDBLK
  5
360
  8
0
  0
BLOCK
  8
0
  2
*U50
 70
     1
 10
0.0
 20
0.0
 30
0.0
  3
*U50
  1

  0
TEXT
  5
362
  8
┌▓È_1
  6
CONTINUOUS
 10
921.2174269315999
 20
-303.276192286568
 30
0.0
 40
2.337499999999999
  1
òiû╝
  0
ENDBLK
  5
364
  8
0
  0
ENDSEC
  0
SECTION
  2
ENTITIES
  0
DIMENSION
  5
3E
  8
Éíû@É³
  2
*D0
 10
901.62317516929977
 20
-252.49424654430001
 30
0.0
 11
901.62317516929977
 21
-240.28228673940001
 31
0.0
 70
   128
  1
(4.5)
 13
890.3660226157001
 23
-252.49424654430001
 33
0.0
 14
869.86602261569999
 24
-247.89424654429999
 34
0.0
 50
90.0
  0
DIMENSION
  5
4D
  8
Éíû@É³
  2
*D1
 10
792.63491150460004
 20
-252.49424654430001
 30
0.0
 11
792.63491150460004
 21
-240.28228673940001
 31
0.0
 70
   128
  1
(4.5)
 13
781.37775895109985
 23
-252.49424654430001
 33
0.0
 14
760.87775895109985
 24
-247.89424654429999
 34
0.0
 50
90.0
  0
DIMENSION
  5
5C
  8
Éíû@É³
  2
*D2
 10
745.07775895110001
 20
-247.09424654430001
 30
0.0
 11
745.07775895110001
 21
-251.89424654429999
 31
0.0
 70
   128
  1
<>
 13
755.07775895110001
 23
-247.09424654430001
 33
0.0
 14
755.07775895110001
 24
-256.69424654429997
 34
0.0
 50
90.0
  0
DIMENSION
  5
6B
  8
Éíû@É³
  2
*D3
 10
760.87775895109985
 20
-237.09424654430001
 30
0.0
 11
757.37775895109985
 21
-237.09424654430001
 31
0.0
 70
   128
  1
<>
 13
760.87775895109985
 23
-247.09424654430001
 33
0.0
 14
753.87775895109985
 24
-248.29424654429999
 34
0.0
  0
ARC
  5
6D
  8
┌▓È_1
  6
STITCH
 10
885.36602261570022
 20
-191.9264136429
 30
0.0
 40
2.5
 50
300.0
 51
60.0
  0
LINE
  5
6E
  8
┌▓È_1
 62
     5
 10
862.86602261569999
 20
-248.29424654429999
 30
0.0
 11
862.86602261569999
 21
-255.49424654430001
 31
0.0
  0
LINE
  5
6F
  8
┌▓È_1
 10
890.3660226157001
 20
-179.4264136429
 30
0.0
 11
869.82406250729991
 21
-179.4264136429
 31
0.0
  0
LINE
  5
70
  8
┌▓È_1
  6
STITCH
 10
869.82406250729991
 20
-179.4264136429
 30
0.0
 11
865.3660226157001
 21
-179.4264136429
 31
0.0
  0
INSERT
  5
72
  8
┌▓È_1
  2
*X4
 10
0.0
 20
0.0
 30
0.0
  0
ARC
  5
86
  8
┌▓È_1
 62
     5
 10
889.86602261570022
 20
-179.9264136429
 30
0.0
 40
3.0
 50
0.0
 51
90.0
  0
INSERT
  5
87
  8
0
  6
CONTINUOUS
  2
*U31
 10
0.0
 20
0.0
 30
0.0
  0
DIMENSION
  5
96
  8
Éíû@É³
  2
*D5
 10
855.48902737720005
 20
-189.4264136429
 30
0.0
 11
855.48902737720005
 21
-191.9264136429
 31
0.0
 70
   128
  1
<>(ÆÀîè)
 13
870.3660226157001
 23
-189.4264136429
 33
0.0
 14
870.3660226157001
 24
-194.4264136429
 34
0.0
 50
90.0
  0
DIMENSION
  5
A5
  8
Éíû@É³
  2
*D6
 10
867.8660226157001
 20
-216.9187667107
 30
0.0
 11
877.8660226157001
 21
-216.9187667107
 31
0.0
 70
   128
  1
<>(ÆÀîè)
 13
867.8660226157001
 23
-191.9264136429
 33
0.0
 14
887.86602261569999
 24
-191.9264136429
 34
0.0
 50
180.0
  0
DIMENSION
  5
AD
  8
Éíû@É³
  2
*D7
 10
771.04282246059995
 20
-193.1764136429
 30
0.0
 11
732.05634244479995
 21
-173.63723479469999
 31
0.0
 70
   131
  1
%%c <>(è█îè)
 15
766.71269544170002
 25
-190.6764136429
 35
0.0
 40
0.0
  0
DIMENSION
  5
B5
  8
Éíû@É³
  2
*D8
 10
889.86602261570022
 20
-179.9264136429
 30
0.0
 11
917.53776944250001
 21
-162.83799983169999
 31
0.0
 70
   132
  1
4-R <>
 15
891.98734295929978
 25
-177.8050932994
 35
0.0
 40
0.0
  0
DIMENSION
  5
BC
  8
Éíû@É³
  2
*D9
 10
780.87775895109996
 20
-179.9264136429
 30
0.0
 11
808.54950577779994
 21
-162.83799983169999
 31
0.0
 70
   132
  1
4-R <>
 15
782.99907929469998
 25
-177.8050932994
 35
0.0
 40
0.0
  0
LINE
  5
BD
  8
┌▓È_1
 10
895.73750409719992
 20
-225.5668214705
 30
0.0
 11
886.36417076390012
 21
-200.9264136429
 31
0.0
  0
SOLID
  5
BE
  8
┌▓È_1
 10
886.36417076390012
 20
-200.9264136429
 30
0.0
 11
888.50196625609988
 21
-203.88759111019999
 31
0.0
 12
887.28237915010004
 22
-203.3401791947
 32
0.0
 13
887.28237915010004
 23
-203.3401791947
 33
0.0
  0
SOLID
  5
BF
  8
┌▓È_1
 10
886.36417076390012
 20
-200.9264136429
 30
0.0
 11
886.73496723460005
 21
-204.55976630079999
 31
0.0
 12
887.28237915010004
 22
-203.3401791947
 32
0.0
 13
887.28237915010004
 23
-203.3401791947
 33
0.0
  0
LINE
  5
C0
  8
┌▓È_1
 10
895.73750409719992
 20
-225.5668214705
 30
0.0
 11
935.31904819869987
 21
-225.5668214705
 31
0.0
  0
INSERT
  5
C1
  8
0
  6
CONTINUOUS
  2
*U32
 10
0.0
 20
0.0
 30
0.0
  0
LINE
  5
C2
  8
┌▓È_1
 10
786.74924043259978
 20
-225.5668214705
 30
0.0
 11
777.37590709929998
 21
-200.9264136429
 31
0.0
  0
SOLID
  5
C3
  8
┌▓È_1
 10
777.37590709929998
 20
-200.9264136429
 30
0.0
 11
779.51370259149985
 21
-203.88759111019999
 31
0.0
 12
778.29411548539986
 22
-203.3401791947
 32
0.0
 13
778.29411548539986
 23
-203.3401791947
 33
0.0
  0
SOLID
  5
C4
  8
┌▓È_1
 10
777.37590709929998
 20
-200.9264136429
 30
0.0
 11
777.74670356999991
 21
-204.55976630079999
 31
0.0
 12
778.29411548539986
 22
-203.3401791947
 32
0.0
 13
778.29411548539986
 23
-203.3401791947
 33
0.0
  0
LINE
  5
C5
  8
┌▓È_1
 10
786.74924043259978
 20
-225.5668214705
 30
0.0
 11
826.33078453409996
 21
-225.5668214705
 31
0.0
  0
INSERT
  5
C6
  8
0
  6
CONTINUOUS
  2
*U33
 10
0.0
 20
0.0
 30
0.0
  0
DIMENSION
  5
D5
  8
Éíû@É³
  2
*D10
 10
877.8660226157001
 20
-163.9264136429
 30
0.0
 11
870.3660226157001
 21
-163.9264136429
 31
0.0
 70
   128
  1
<>
 13
877.8660226157001
 23
-173.9264136429
 33
0.0
 14
862.86602261569999
 24
-176.9264136429
 34
0.0
  0
DIMENSION
  5
E4
  8
Éíû@É³
  2
*D11
 10
892.8660226157001
 20
-163.9264136429
 30
0.0
 11
885.36602261570022
 21
-163.9264136429
 31
0.0
 70
   128
  1
<>
 13
892.8660226157001
 23
-179.9264136429
 33
0.0
 14
877.8660226157001
 24
-173.9264136429
 34
0.0
  0
DIMENSION
  5
F3
  8
Éíû@É³
  2
*D12
 10
892.8660226157001
 20
-157.34016071249999
 30
0.0
 11
877.8660226157001
 21
-157.34016071249999
 31
0.0
 70
   128
  1
<>
 13
892.8660226157001
 23
-179.9264136429
 33
0.0
 14
862.86602261569999
 24
-176.9264136429
 34
0.0
  0
DIMENSION
  5
102
  8
Éíû@É³
  2
*D13
 10
905.86602261569999
 20
-191.9264136429
 30
0.0
 11
905.86602261569999
 21
-184.4264136429
 31
0.0
 70
   128
  1
<>
 13
895.86602261569999
 23
-191.9264136429
 33
0.0
 14
889.86602261570022
 24
-176.9264136429
 34
0.0
 50
90.0
  0
DIMENSION
  5
111
  8
Éíû@É³
  2
*D14
 10
905.86602261569999
 20
-206.9264136429
 30
0.0
 11
905.86602261569999
 21
-199.4264136429
 31
0.0
 70
   128
  1
<>
 13
889.86602261570022
 23
-206.9264136429
 33
0.0
 14
895.86602261569999
 24
-191.9264136429
 34
0.0
 50
90.0
  0
DIMENSION
  5
120
  8
Éíû@É³
  2
*D15
 10
913.02667017220006
 20
-206.9264136429
 30
0.0
 11
913.02667017220006
 21
-191.9264136429
 31
0.0
 70
   128
  1
<>
 13
889.86602261570022
 23
-206.9264136429
 33
0.0
 14
889.86602261570022
 24
-176.9264136429
 34
0.0
 50
90.0
  0
DIMENSION
  5
12F
  8
Éíû@É³
  2
*D16
 10
869.86602261569999
 20
-237.09424654430001
 30
0.0
 11
866.36602261569999
 21
-237.09424654430001
 31
0.0
 70
   128
  1
<>
 13
869.86602261569999
 23
-247.09424654430001
 33
0.0
 14
862.86602261569999
 24
-248.29424654429999
 34
0.0
  0
DIMENSION
  5
13E
  8
Éíû@É³
  2
*D17
 10
854.06602261569992
 20
-247.09424654430001
 30
0.0
 11
854.06602261569992
 21
-251.89424654429999
 31
0.0
 70
   128
  1
<>
 13
864.06602261570015
 23
-247.09424654430001
 33
0.0
 14
864.06602261570015
 24
-256.69424654429997
 34
0.0
 50
90.0
  0
ARC
  5
13F
  8
┌▓È_1
 62
     5
 10
885.36602261570022
 20
-191.9264136429
 30
0.0
 40
2.5
 50
60.0
 51
90.0
  0
LINE
  5
140
  8
┌▓È_1
 62
     5
 10
892.8660226157001
 20
-203.9264136429
 30
0.0
 11
892.8660226157001
 21
-179.9264136429
 31
0.0
  0
LINE
  5
141
  8
┌▓È_1
 10
890.3660226157001
 20
-204.4264136429
 30
0.0
 11
890.3660226157001
 21
-179.4264136429
 31
0.0
  0
LINE
  5
142
  8
┌▓È_1
  6
STITCH
 10
865.3660226157001
 20
-179.4264136429
 30
0.0
 11
865.3660226157001
 21
-204.4264136429
 31
0.0
  0
ARC
  5
143
  8
┌▓È_1
 62
     5
 10
755.07775895110001
 20
-255.49424654430001
 30
0.0
 40
0.4
 50
180.0
 51
270.0
  0
ARC
  5
144
  8
┌▓È_1
 10
871.86602261569999
 20
-191.9264136429
 30
0.0
 40
3.5
 50
235.150095421
 51
270.0
  0
ARC
  5
145
  8
┌▓È_1
 62
     5
 10
885.36602261570022
 20
-191.9264136429
 30
0.0
 40
2.5
 50
270.0
 51
300.0
  0
ARC
  5
146
  8
┌▓È_1
 62
     5
 10
866.8660226157001
 20
-203.9264136429
 30
0.0
 40
3.0
 50
270.0
 51
0.0
  0
ARC
  5
147
  8
┌▓È_1
 10
871.86602261569999
 20
-191.9264136429
 30
0.0
 40
3.5
 50
90.0
 51
124.849904579
  0
LINE
  5
148
  8
┌▓È_1
 10
871.86602261569999
 20
-195.4264136429
 30
0.0
 11
883.8660226157001
 21
-195.4264136429
 31
0.0
  0
LINE
  5
149
  8
┌▓È_1
 62
     5
 10
869.86602261569999
 20
-247.89424654429999
 30
0.0
 11
869.86602261569999
 21
-247.09424654430001
 31
0.0
  0
LINE
  5
14A
  8
┌▓È_1
 62
     5
 10
869.86602261569999
 20
-247.89424654429999
 30
0.0
 11
864.06602261570015
 21
-247.89424654429999
 31
0.0
  0
LINE
  5
14B
  8
┌▓È_1
 62
     5
 10
869.86602261569999
 20
-247.09424654430001
 30
0.0
 11
864.06602261570015
 21
-247.09424654430001
 31
0.0
  0
ARC
  5
14C
  8
┌▓È_1
 62
     5
 10
864.06602261570015
 20
-248.29424654429999
 30
0.0
 40
0.4
 50
90.0
 51
180.0
  0
LINE
  5
14D
  8
┌▓È_1
 62
     5
 10
863.66602261570006
 20
-248.29424654429999
 30
0.0
 11
863.66602261570006
 21
-255.49424654430001
 31
0.0
  0
LINE
  5
14E
  8
┌▓È_1
  6
BORDER
 62
     3
 10
877.8660226157001
 20
-249.49424654430001
 30
0.0
 11
877.8660226157001
 21
-259.69424654429997
 31
0.0
  0
LINE
  5
14F
  8
┌▓È_1
  6
STITCH
 10
887.86602261569999
 20
-255.89424654429999
 30
0.0
 11
887.86602261569999
 21
-256.69424654429997
 31
0.0
  0
LINE
  5
150
  8
┌▓È_1
  6
STITCH
 10
867.8660226157001
 20
-255.89424654429999
 30
0.0
 11
867.8660226157001
 21
-256.69424654429997
 31
0.0
  0
LINE
  5
151
  8
┌▓È_1
 62
     5
 10
892.8660226157001
 20
-256.69424654429997
 30
0.0
 11
892.8660226157001
 21
-255.89424654429999
 31
0.0
  0
LINE
  5
152
  8
┌▓È_1
 62
     5
 10
864.06602261570015
 20
-255.89424654429999
 30
0.0
 11
892.8660226157001
 21
-255.89424654429999
 31
0.0
  0
LINE
  5
153
  8
┌▓È_1
 62
     5
 10
864.06602261570015
 20
-256.69424654429997
 30
0.0
 11
892.8660226157001
 21
-256.69424654429997
 31
0.0
  0
INSERT
  5
155
  8
┌▓È_1
  2
CLUMP0
 10
0.0
 20
0.0
 30
0.0
  0
ARC
  5
172
  8
┌▓È_1
 62
     5
 10
864.06602261570015
 20
-255.49424654430001
 30
0.0
 40
1.1999999999999991
 50
180.0
 51
270.0
  0
ARC
  5
173
  8
┌▓È_1
 62
     5
 10
864.06602261570015
 20
-255.49424654430001
 30
0.0
 40
0.4
 50
180.0
 51
270.0
  0
ARC
  5
174
  8
┌▓È_1
 62
     5
 10
864.06602261570015
 20
-248.29424654429999
 30
0.0
 40
1.1999999999999991
 50
90.0
 51
180.0
  0
DIMENSION
  5
183
  8
Éíû@É³
  2
*D20
 10
768.87775895109985
 20
-163.9264136429
 30
0.0
 11
761.37775895109985
 21
-163.9264136429
 31
0.0
 70
   128
  1
<>
 13
768.87775895109985
 23
-173.9264136429
 33
0.0
 14
753.87775895109985
 24
-176.9264136429
 34
0.0
  0
LINE
  5
184
  8
┌▓È_1
  6
BORDER
 62
     3
 10
750.87775895109985
 20
-191.9264136429
 30
0.0
 11
786.87775895109985
 21
-191.9264136429
 31
0.0
  0
LINE
  5
185
  8
┌▓È_1
  6
BORDER
 62
     3
 10
768.87775895109985
 20
-173.9264136429
 30
0.0
 11
768.87775895109985
 21
-209.9264136429
 31
0.0
  0
ARC
  5
186
  8
┌▓È_1
 62
     5
 10
757.87775895109985
 20
-179.9264136429
 30
0.0
 40
3.0
 50
0.0
 51
90.0
  0
ARC
  5
187
  8
┌▓È_1
 62
     5
 10
757.87775895109985
 20
-203.9264136429
 30
0.0
 40
3.0
 50
270.0
 51
0.0
  0
LINE
  5
188
  8
┌▓È_1
 62
     5
 10
862.86602261569999
 20
-176.9264136429
 30
0.0
 11
862.86602261569999
 21
-206.9264136429
 31
0.0
  0
LINE
  5
189
  8
┌▓È_1
  6
STITCH
 10
863.66602261570006
 20
-176.9264136429
 30
0.0
 11
863.66602261570006
 21
-206.9264136429
 31
0.0
  0
ARC
  5
18A
  8
┌▓È_1
 62
     5
 10
866.8660226157001
 20
-179.9264136429
 30
0.0
 40
3.0
 50
0.0
 51
90.0
  0
LINE
  5
18B
  8
┌▓È_1
  6
BORDER
 62
     3
 10
877.8660226157001
 20
-173.9264136429
 30
0.0
 11
877.8660226157001
 21
-209.9264136429
 31
0.0
  0
LINE
  5
18C
  8
┌▓È_1
 62
     5
 10
889.86602261570022
 20
-176.9264136429
 30
0.0
 11
862.86602261569999
 21
-176.9264136429
 31
0.0
  0
INSERT
  5
18E
  8
┌▓È_1
  2
*X21
 10
0.0
 20
0.0
 30
0.0
  0
LINE
  5
1B8
  8
┌▓È_1
 10
869.82406250729991
 20
-204.4264136429
 30
0.0
 11
890.3660226157001
 21
-204.4264136429
 31
0.0
  0
LINE
  5
1B9
  8
┌▓È_1
  6
STITCH
 10
865.3660226157001
 20
-204.4264136429
 30
0.0
 11
869.82406250729991
 21
-204.4264136429
 31
0.0
  0
LINE
  5
1BA
  8
┌▓È_1
 62
     5
 10
885.36602261570022
 20
-189.4264136429
 30
0.0
 11
870.3660226157001
 21
-189.4264136429
 31
0.0
  0
ARC
  5
1BB
  8
┌▓È_1
 62
     5
 10
870.3660226157001
 20
-191.9264136429
 30
0.0
 40
2.5
 50
90.0
 51
101.5369590328
  0
LINE
  5
1BC
  8
┌▓È_1
 62
     5
 10
869.86602261569999
 20
-179.9264136429
 30
0.0
 11
869.86602261569999
 21
-203.9264136429
 31
0.0
  0
ARC
  5
1BD
  8
┌▓È_1
  6
STITCH
 10
870.3660226157001
 20
-191.9264136429
 30
0.0
 40
2.5
 50
101.5369590328
 51
258.46304096720002
  0
LINE
  5
1BE
  8
┌▓È_1
 10
883.8660226157001
 20
-188.4264136429
 30
0.0
 11
871.86602261569999
 21
-188.4264136429
 31
0.0
  0
ARC
  5
1BF
  8
┌▓È_1
 10
883.8660226157001
 20
-191.9264136429
 30
0.0
 40
3.5
 50
270.0
 51
90.0
  0
ARC
  5
1C0
  8
┌▓È_1
  6
STITCH
 10
871.86602261569999
 20
-191.9264136429
 30
0.0
 40
3.5
 50
124.849904579
 51
235.150095421
  0
ARC
  5
1C1
  8
┌▓È_1
 62
     5
 10
870.3660226157001
 20
-191.9264136429
 30
0.0
 40
2.5
 50
258.46304096720002
 51
270.0
  0
LINE
  5
1C2
  8
┌▓È_1
  6
BORDER
 62
     3
 10
859.8660226157001
 20
-191.9264136429
 30
0.0
 11
895.86602261569999
 21
-191.9264136429
 31
0.0
  0
LINE
  5
1C3
  8
┌▓È_1
 62
     5
 10
862.86602261569999
 20
-206.9264136429
 30
0.0
 11
889.86602261570022
 21
-206.9264136429
 31
0.0
  0
ARC
  5
1C4
  8
┌▓È_1
 62
     5
 10
889.86602261570022
 20
-203.9264136429
 30
0.0
 40
3.0
 50
270.0
 51
0.0
  0
LINE
  5
1C5
  8
┌▓È_1
 62
     5
 10
870.3660226157001
 20
-194.4264136429
 30
0.0
 11
885.36602261570022
 21
-194.4264136429
 31
0.0
  0
LINE
  5
1C6
  8
┌▓È_1
 10
774.87775895109985
 20
-188.4264136429
 30
0.0
 11
762.87775895109985
 21
-188.4264136429
 31
0.0
  0
LINE
  5
1C7
  8
┌▓È_1
 62
     5
 10
753.87775895109985
 20
-176.9264136429
 30
0.0
 11
753.87775895109985
 21
-206.9264136429
 31
0.0
  0
LINE
  5
1C8
  8
┌▓È_1
  6
STITCH
 10
754.67775895110003
 20
-176.9264136429
 30
0.0
 11
754.67775895110003
 21
-206.9264136429
 31
0.0
  0
INSERT
  5
1C9
  8
0
  6
CONTINUOUS
  2
*U34
 10
0.0
 20
0.0
 30
0.0
  0
INSERT
  5
1CA
  8
0
  6
CONTINUOUS
  2
*U35
 10
0.0
 20
0.0
 30
0.0
  0
ARC
  5
1CB
  8
┌▓È_1
 62
     5
 10
755.07775895110001
 20
-248.29424654429999
 30
0.0
 40
1.1999999999999991
 50
90.0
 51
180.0
  0
LINE
  5
1CC
  8
┌▓È_1
 62
     5
 10
753.87775895109985
 20
-248.29424654429999
 30
0.0
 11
753.87775895109985
 21
-255.49424654430001
 31
0.0
  0
LINE
  5
1CD
  8
┌▓È_1
 62
     5
 10
760.87775895109985
 20
-247.89424654429999
 30
0.0
 11
760.87775895109985
 21
-247.09424654430001
 31
0.0
  0
LINE
  5
1CE
  8
┌▓È_1
 62
     5
 10
760.87775895109985
 20
-247.89424654429999
 30
0.0
 11
755.07775895110001
 21
-247.89424654429999
 31
0.0
  0
LINE
  5
1CF
  8
┌▓È_1
 62
     5
 10
760.87775895109985
 20
-247.09424654430001
 30
0.0
 11
755.07775895110001
 21
-247.09424654430001
 31
0.0
  0
ARC
  5
1D0
  8
┌▓È_1
 62
     5
 10
755.07775895110001
 20
-248.29424654429999
 30
0.0
 40
0.4
 50
90.0
 51
180.0
  0
LINE
  5
1D1
  8
┌▓È_1
 62
     5
 10
754.67775895110003
 20
-248.29424654429999
 30
0.0
 11
754.67775895110003
 21
-255.49424654430001
 31
0.0
  0
LINE
  5
1D2
  8
┌▓È_1
  6
BORDER
 62
     3
 10
768.87775895109985
 20
-249.49424654430001
 30
0.0
 11
768.87775895109985
 21
-259.69424654429997
 31
0.0
  0
LINE
  5
1D3
  8
┌▓È_1
 62
     5
 10
783.87775895109985
 20
-256.69424654429997
 30
0.0
 11
783.87775895109985
 21
-255.89424654429999
 31
0.0
  0
LINE
  5
1D4
  8
┌▓È_1
 62
     5
 10
755.07775895110001
 20
-255.89424654429999
 30
0.0
 11
783.87775895109985
 21
-255.89424654429999
 31
0.0
  0
LINE
  5
1D5
  8
┌▓È_1
 62
     5
 10
755.07775895110001
 20
-256.69424654429997
 30
0.0
 11
783.87775895109985
 21
-256.69424654429997
 31
0.0
  0
INSERT
  5
1D7
  8
┌▓È_1
  2
CLUMP1
 10
0.0
 20
0.0
 30
0.0
  0
LINE
  5
1F4
  8
┌▓È_1
  6
STITCH
 10
766.37775895109985
 20
-255.89424654429999
 30
0.0
 11
766.37775895109985
 21
-256.69424654429997
 31
0.0
  0
LINE
  5
1F5
  8
┌▓È_1
  6
STITCH
 10
771.37775895109985
 20
-255.89424654429999
 30
0.0
 11
771.37775895109985
 21
-256.69424654429997
 31
0.0
  0
ARC
  5
1F6
  8
┌▓È_1
 62
     5
 10
755.07775895110001
 20
-255.49424654430001
 30
0.0
 40
1.1999999999999991
 50
180.0
 51
270.0
  0
DIMENSION
  5
205
  8
Éíû@É³
  2
*D24
 10
804.03840650759992
 20
-206.9264136429
 30
0.0
 11
804.03840650759992
 21
-191.9264136429
 31
0.0
 70
   128
  1
<>
 13
780.87775895109996
 23
-206.9264136429
 33
0.0
 14
780.87775895109996
 24
-176.9264136429
 34
0.0
 50
90.0
  0
DIMENSION
  5
214
  8
Éíû@É³
  2
*D25
 10
796.87775895109996
 20
-206.9264136429
 30
0.0
 11
796.87775895109996
 21
-199.4264136429
 31
0.0
 70
   128
  1
<>
 13
780.87775895109996
 23
-206.9264136429
 33
0.0
 14
786.87775895109985
 24
-191.9264136429
 34
0.0
 50
90.0
  0
DIMENSION
  5
223
  8
Éíû@É³
  2
*D26
 10
796.87775895109996
 20
-191.9264136429
 30
0.0
 11
796.87775895109996
 21
-184.4264136429
 31
0.0
 70
   128
  1
<>
 13
786.87775895109985
 23
-191.9264136429
 33
0.0
 14
780.87775895109996
 24
-176.9264136429
 34
0.0
 50
90.0
  0
DIMENSION
  5
232
  8
Éíû@É³
  2
*D27
 10
783.87775895109985
 20
-157.34016071249999
 30
0.0
 11
768.87775895109985
 21
-157.34016071249999
 31
0.0
 70
   128
  1
<>
 13
783.87775895109985
 23
-179.9264136429
 33
0.0
 14
753.87775895109985
 24
-176.9264136429
 34
0.0
  0
DIMENSION
  5
241
  8
Éíû@É³
  2
*D28
 10
783.87775895109985
 20
-163.9264136429
 30
0.0
 11
776.37775895109996
 21
-163.9264136429
 31
0.0
 70
   128
  1
<>
 13
783.87775895109985
 23
-179.9264136429
 33
0.0
 14
768.87775895109985
 24
-173.9264136429
 34
0.0
  0
LINE
  5
242
  8
┌▓È_1
 62
     5
 10
912.69137129579997
 20
-311.38712978040002
 30
0.0
 11
912.57425589570005
 21
-310.98014666799997
 31
0.0
  0
LINE
  5
243
  8
┌▓È_1
 62
     5
 10
906.6526136924
 20
-310.0271297804
 30
0.0
 11
899.45261369240006
 21
-310.0271297804
 31
0.0
  0
LINE
  5
244
  8
┌▓È_1
 62
     5
 10
890.52412884390003
 20
-314.0271297804
 30
0.0
 11
892.52412884390003
 21
-314.0271297804
 31
0.0
  0
LINE
  5
245
  8
┌▓È_1
 62
     5
 10
896.12412884390005
 20
-311.22712978039999
 30
0.0
 11
897.32412884389998
 21
-310.0271297804
 31
0.0
  0
LINE
  5
246
  8
┌▓È_1
 62
     5
 10
911.03566647770003
 20
-313.4671297804
 30
0.0
 11
910.84793314429976
 21
-312.82712978040001
 31
0.0
  0
LINE
  5
247
  8
┌▓È_1
 62
     5
 10
780.87775895109996
 20
-176.9264136429
 30
0.0
 11
753.87775895109985
 21
-176.9264136429
 31
0.0
  0
LINE
  5
248
  8
┌▓È_1
 62
     5
 10
753.87775895109985
 20
-206.9264136429
 30
0.0
 11
780.87775895109996
 21
-206.9264136429
 31
0.0
  0
LINE
  5
249
  8
┌▓È_1
 62
     5
 10
760.87775895109985
 20
-179.9264136429
 30
0.0
 11
760.87775895109985
 21
-203.9264136429
 31
0.0
  0
ARC
  5
24A
  8
┌▓È_1
 62
     5
 10
780.87775895109996
 20
-179.9264136429
 30
0.0
 40
3.0
 50
0.0
 51
90.0
  0
CIRCLE
  5
24B
  8
┌▓È_1
 62
     5
 10
768.87775895109985
 20
-191.9264136429
 30
0.0
 40
2.5
  0
ARC
  5
24C
  8
┌▓È_1
 10
762.87775895109985
 20
-191.9264136429
 30
0.0
 40
3.5
 50
90.0
 51
124.849904579
  0
ARC
  5
24D
  8
┌▓È_1
 10
762.87775895109985
 20
-191.9264136429
 30
0.0
 40
3.5
 50
235.150095421
 51
270.0
  0
ARC
  5
24E
  8
┌▓È_1
  6
STITCH
 10
762.87775895109985
 20
-191.9264136429
 30
0.0
 40
3.5
 50
124.849904579
 51
235.150095421
  0
INSERT
  5
250
  8
┌▓È_1
  2
*X29
 10
0.0
 20
0.0
 30
0.0
  0
INSERT
  5
27B
  8
┌▓È_1
  2
*X30
 10
0.0
 20
0.0
 30
0.0
  0
LINE
  5
28F
  8
┌▓È_1
  6
STITCH
 10
756.37775895109985
 20
-179.4264136429
 30
0.0
 11
756.37775895109985
 21
-204.4264136429
 31
0.0
  0
LINE
  5
290
  8
┌▓È_1
  6
STITCH
 10
756.37775895109985
 20
-204.4264136429
 30
0.0
 11
760.8357988427
 21
-204.4264136429
 31
0.0
  0
LINE
  5
291
  8
┌▓È_1
 62
     5
 10
783.87775895109985
 20
-203.9264136429
 30
0.0
 11
783.87775895109985
 21
-179.9264136429
 31
0.0
  0
ARC
  5
292
  8
┌▓È_1
 62
     5
 10
780.87775895109996
 20
-203.9264136429
 30
0.0
 40
3.0
 50
270.0
 51
0.0
  0
LINE
  5
293
  8
┌▓È_1
 10
781.37775895109985
 20
-204.4264136429
 30
0.0
 11
781.37775895109985
 21
-179.4264136429
 31
0.0
  0
ARC
  5
294
  8
┌▓È_1
 10
774.87775895109985
 20
-191.9264136429
 30
0.0
 40
3.5
 50
270.0
 51
90.0
  0
LINE
  5
295
  8
┌▓È_1
 10
762.87775895109985
 20
-195.4264136429
 30
0.0
 11
774.87775895109985
 21
-195.4264136429
 31
0.0
  0
LINE
  5
296
  8
┌▓È_1
  6
STITCH
 10
760.8357988427
 20
-179.4264136429
 30
0.0
 11
756.37775895109985
 21
-179.4264136429
 31
0.0
  0
LINE
  5
297
  8
┌▓È_1
 10
781.37775895109985
 20
-179.4264136429
 30
0.0
 11
760.8357988427
 21
-179.4264136429
 31
0.0
  0
LINE
  5
298
  8
┌▓È_1
 10
760.8357988427
 20
-204.4264136429
 30
0.0
 11
781.37775895109985
 21
-204.4264136429
 31
0.0
  0
LINE
  5
299
  8
┌▓È_1
 62
     5
 10
912.69137129579997
 20
-311.38712978040002
 30
0.0
 11
915.62659981099989
 21
-311.38712978040002
 31
0.0
  0
INSERT
  5
29A
  8
0
  6
CONTINUOUS
  2
*U36
 10
0.0
 20
0.0
 30
0.0
  0
LINE
  5
29B
  8
┌▓È_1
 62
     5
 10
890.52412884390003
 20
-312.82712978040001
 30
0.0
 11
890.52412884390003
 21
-314.0271297804
 31
0.0
  0
LINE
  5
29C
  8
┌▓È_1
 62
     5
 10
904.94278917409997
 20
-313.90643474749999
 30
0.0
 11
904.80030752619996
 21
-314.0459372629
 31
0.0
  0
ARC
  5
29D
  8
┌▓È_1
 62
     5
 10
900.41261369239999
 20
-311.38712978040002
 30
0.0
 40
3.04
 50
270.0
 51
298.08590481520002
  0
LINE
  5
29E
  8
┌▓È_1
 62
     5
 10
908.42659981099996
 20
-311.38712978040002
 30
0.0
 11
908.42659981099996
 21
-312.82712978040001
 31
0.0
  0
LINE
  5
29F
  8
┌▓È_1
 10
904.32692747789986
 20
-291.65526815390001
 30
0.0
 11
904.32692747789986
 21
-308.65526815390001
 31
0.0
  0
LINE
  5
2A0
  8
┌▓È_1
 10
872.32692747789986
 20
-291.65526815390001
 30
0.0
 11
872.32692747789986
 21
-300.15526815390001
 31
0.0
  0
LINE
  5
2A1
  8
┌▓È_1
 10
856.32692747789986
 20
-308.65526815390001
 30
0.0
 11
976.32692747789997
 21
-308.65526815390001
 31
0.0
  0
LINE
  5
2A2
  8
┌▓È_1
 10
856.32692747789986
 20
-291.65526815390001
 30
0.0
 11
976.32692747789997
 21
-291.65526815390001
 31
0.0
  0
LINE
  5
2A3
  8
┌▓È_1
 10
920.32692747789997
 20
-291.65526815390001
 30
0.0
 11
920.32692747789997
 21
-317.15526815390001
 31
0.0
  0
LINE
  5
2A4
  8
┌▓È_1
 10
856.32692747789986
 20
-291.65526815390001
 30
0.0
 11
856.32692747789986
 21
-317.15526815390001
 31
0.0
  0
LINE
  5
2A5
  8
┌▓È_1
 62
     5
 10
896.12412884390005
 20
-312.82712978040001
 30
0.0
 11
897.32412884389998
 21
-312.82712978040001
 31
0.0
  0
ARC
  5
2A6
  8
┌▓È_1
 62
     5
 10
901.45261369240006
 20
-311.22712978039999
 30
0.0
 40
4.4000000000000004
 50
270.0
 51
302.54495885400001
  0
LINE
  5
2A7
  8
┌▓È_1
 62
     5
 10
889.60324579469989
 20
-312.82712978040001
 30
0.0
 11
890.40324579469996
 21
-312.82712978040001
 31
0.0
  0
LINE
  5
2A8
  8
┌▓È_1
 62
     5
 10
908.42659981099996
 20
-313.4671297804
 30
0.0
 11
911.03566647770003
 21
-313.4671297804
 31
0.0
  0
LINE
  5
2A9
  8
┌▓È_1
 62
     5
 10
897.32412884389998
 20
-311.62712978040003
 30
0.0
 11
896.12412884390005
 21
-311.62712978040003
 31
0.0
  0
LINE
  5
2AA
  8
┌▓È_1
 62
     5
 10
896.12412884390005
 20
-311.62712978040003
 30
0.0
 11
896.12412884390005
 21
-311.22712978039999
 31
0.0
  0
LINE
  5
2AB
  8
┌▓È_1
 62
     5
 10
908.42659981099996
 20
-311.38712978040002
 30
0.0
 11
910.42553314429995
 21
-311.38712978040002
 31
0.0
  0
LINE
  5
2AC
  8
┌▓È_1
 62
     5
 10
894.12412884390005
 20
-312.82712978040001
 30
0.0
 11
894.12412884390005
 21
-313.22712978039999
 31
0.0
  0
LINE
  5
2AD
  8
┌▓È_1
 62
     5
 10
892.52412884390003
 20
-312.82712978040001
 30
0.0
 11
894.12412884390005
 21
-312.82712978040001
 31
0.0
  0
LINE
  5
2AE
  8
┌▓È_1
 62
     5
 10
914.0265998110001
 20
-316.0271297804
 30
0.0
 11
913.70430327289978
 21
-314.9071297804
 31
0.0
  0
LINE
  5
2AF
  8
┌▓È_1
 62
     5
 10
913.28992200949995
 20
-313.4671297804
 30
0.0
 11
915.62659981099989
 21
-313.4671297804
 31
0.0
  0
ARC
  5
2B0
  8
┌▓È_1
 62
     5
 10
901.45261369240006
 20
-311.22712978039999
 30
0.0
 40
4.4000000000000004
 50
322.48761197969998
 51
0.0
  0
LINE
  5
2B1
  8
┌▓È_1
 62
     5
 10
908.42659981099996
 20
-314.9071297804
 30
0.0
 11
911.45806647770007
 21
-314.9071297804
 31
0.0
  0
LINE
  5
2B2
  8
┌▓È_1
 62
     5
 10
892.52412884390003
 20
-311.62712978040003
 30
0.0
 11
892.52412884390003
 21
-311.22712978039999
 31
0.0
  0
LINE
  5
2B3
  8
┌▓È_1
 62
     5
 10
899.45261369240006
 20
-315.62712978040003
 30
0.0
 11
899.45261369240006
 21
-314.42712978039998
 31
0.0
  0
LINE
  5
2B4
  8
┌▓È_1
 62
     5
 10
890.52412884390003
 20
-311.62712978040003
 30
0.0
 11
889.60324579469989
 21
-311.62712978040003
 31
0.0
  0
LINE
  5
2B5
  8
┌▓È_1
 62
     5
 10
915.62659981099989
 20
-313.4671297804
 30
0.0
 11
915.62659981099989
 21
-314.9071297804
 31
0.0
  0
LINE
  5
2B6
  8
┌▓È_1
 62
     5
 10
906.6526136924
 20
-314.42712978039998
 30
0.0
 11
906.6526136924
 21
-315.62712978040003
 31
0.0
  0
LINE
  5
2B7
  8
┌▓È_1
 62
     5
 10
905.85261369239993
 20
-311.22712978039999
 30
0.0
 11
906.6526136924
 21
-310.0271297804
 31
0.0
  0
LINE
  5
2B8
  8
┌▓È_1
 62
     5
 10
913.10575255920003
 20
-312.82712978040001
 30
0.0
 11
915.62659981099989
 21
-312.82712978040001
 31
0.0
  0
LINE
  5
2B9
  8
┌▓È_1
 62
     5
 10
894.12412884390005
 20
-310.0271297804
 30
0.0
 11
894.12412884390005
 21
-311.62712978040003
 31
0.0
  0
ARC
  5
2BA
  8
┌▓È_1
 62
     5
 10
892.92412884390001
 20
-313.22712978039999
 30
0.0
 40
1.1999999999999991
 50
270.0
 51
0.0
  0
LINE
  5
2BB
  8
┌▓È_1
 62
     5
 10
903.08166368570005
 20
-312.84238650449998
 30
0.0
 11
902.88918704070011
 21
-313.05497719290003
 31
0.0
  0
LINE
  5
2BC
  8
┌▓È_1
 62
     5
 10
899.45261369240006
 20
-311.88481799440001
 30
0.0
 11
902.65261369240011
 21
-311.88481799440001
 31
0.0
  0
LINE
  5
2BD
  8
┌▓È_1
 62
     5
 10
896.12412884390005
 20
-313.22712978039999
 30
0.0
 11
896.12412884390005
 21
-312.82712978040001
 31
0.0
  0
LINE
  5
2BE
  8
┌▓È_1
 62
     5
 10
908.42659981099996
 20
-312.82712978040001
 30
0.0
 11
910.84793314429976
 21
-312.82712978040001
 31
0.0
  0
LINE
  5
2BF
  8
┌▓È_1
 62
     5
 10
908.42659981099996
 20
-313.4671297804
 30
0.0
 11
908.42659981099996
 21
-314.9071297804
 31
0.0
  0
LINE
  5
2C0
  8
┌▓È_1
 62
     5
 10
892.52412884390003
 20
-314.0271297804
 30
0.0
 11
892.52412884390003
 21
-312.82712978040001
 31
0.0
  0
LINE
  5
2C1
  8
┌▓È_1
 62
     5
 10
913.70430327289978
 20
-314.9071297804
 30
0.0
 11
915.62659981099989
 21
-314.9071297804
 31
0.0
  0
LINE
  5
2C2
  8
┌▓È_1
 62
     5
 10
897.32412884389998
 20
-310.0271297804
 30
0.0
 11
894.12412884390005
 21
-310.0271297804
 31
0.0
  0
LINE
  5
2C3
  8
┌▓È_1
 62
     5
 10
899.45261369240006
 20
-310.0271297804
 30
0.0
 11
899.45261369240006
 21
-311.4671297804
 31
0.0
  0
ARC
  5
2C4
  8
┌▓È_1
 62
     5
 10
893.72412884389985
 20
-313.22712978039999
 30
0.0
 40
2.399999999999999
 50
270.0
 51
0.0
  0
LINE
  5
2C5
  8
┌▓È_1
 62
     5
 10
912.57425589570005
 20
-310.98014666799997
 30
0.0
 11
913.22659981100003
 21
-310.0271297804
 31
0.0
  0
LINE
  5
2C6
  8
┌▓È_1
 62
     5
 10
894.12412884390005
 20
-311.62712978040003
 30
0.0
 11
892.52412884390003
 21
-311.62712978040003
 31
0.0
  0
LINE
  5
2C7
  8
┌▓È_1
 62
     5
 10
893.72412884389985
 20
-310.0271297804
 30
0.0
 11
890.52412884390003
 21
-310.0271297804
 31
0.0
  0
LINE
  5
2C8
  8
┌▓È_1
 62
     5
 10
892.52412884390003
 20
-311.22712978039999
 30
0.0
 11
893.72412884389985
 21
-310.0271297804
 31
0.0
  0
LINE
  5
2C9
  8
┌▓È_1
 62
     5
 10
890.52412884390003
 20
-310.0271297804
 30
0.0
 11
890.52412884390003
 21
-311.62712978040003
 31
0.0
  0
LINE
  5
2CA
  8
┌▓È_1
 62
     5
 10
910.42553314429995
 20
-311.38712978040002
 30
0.0
 11
910.02659981100021
 21
-310.0271297804
 31
0.0
  0
INSERT
  5
2CB
  8
0
  6
CONTINUOUS
  2
*U37
 10
0.0
 20
0.0
 30
0.0
  0
INSERT
  5
2CC
  8
0
  6
CONTINUOUS
  2
*U38
 10
0.0
 20
0.0
 30
0.0
  0
LINE
  5
2CD
  8
┌▓È_1
 62
     5
 10
976.32692747789997
 20
-317.15526815390001
 30
0.0
 11
976.32692747789997
 21
-127.1552681539
 31
0.0
  0
LINE
  5
2CE
  8
┌▓È_1
 62
     5
 10
701.32692747789986
 20
-317.15526815390001
 30
0.0
 11
701.32692747789986
 21
-127.1552681539
 31
0.0
  0
LINE
  5
2CF
  8
┌▓È_1
 62
     5
 10
701.32692747789986
 20
-317.15526815390001
 30
0.0
 11
976.32692747789997
 21
-317.15526815390001
 31
0.0
  0
LINE
  5
2D0
  8
┌▓È_1
 62
     5
 10
899.45261369240006
 20
-314.42712978039998
 30
0.0
 11
899.45261369240006
 21
-315.62712978040003
 31
0.0
  0
LINE
  5
2D1
  8
┌▓È_1
 62
     5
 10
899.45261369240006
 20
-314.42712978039998
 30
0.0
 11
900.41261369239999
 21
-314.42712978039998
 31
0.0
  0
LINE
  5
2D2
  8
┌▓È_1
 62
     5
 10
910.02659981100021
 20
-310.0271297804
 30
0.0
 11
913.22659981100003
 21
-310.0271297804
 31
0.0
  0
LINE
  5
2D3
  8
┌▓È_1
 62
     5
 10
905.85261369239993
 20
-311.22712978039999
 30
0.0
 11
906.6526136924
 21
-310.0271297804
 31
0.0
  0
LINE
  5
2D4
  8
┌▓È_1
 62
     5
 10
890.52412884390003
 20
-315.62712978040003
 30
0.0
 11
893.72412884389985
 21
-315.62712978040003
 31
0.0
  0
LINE
  5
2D5
  8
┌▓È_1
 62
     5
 10
899.45261369240006
 20
-315.62712978040003
 30
0.0
 11
901.45261369240006
 21
-315.62712978040003
 31
0.0
  0
ARC
  5
2D6
  8
┌▓È_1
 62
     5
 10
900.41261369239999
 20
-311.38712978040002
 30
0.0
 40
3.04
 50
331.39928138329998
 51
358.49204224580001
  0
INSERT
  5
2D7
  8
0
  6
CONTINUOUS
  2
*U39
 10
0.0
 20
0.0
 30
0.0
  0
INSERT
  5
2D8
  8
0
  6
CONTINUOUS
  2
*U40
 10
0.0
 20
0.0
 30
0.0
  0
LINE
  5
2D9
  8
┌▓È_1
 10
890.32692747789986
 20
-304.40526815390001
 30
0.0
 11
902.32692747789997
 21
-304.40526815390001
 31
0.0
  0
LINE
  5
2DA
  8
┌▓È_1
 10
890.32692747789986
 20
-295.90526815390001
 30
0.0
 11
902.32692747789997
 21
-295.90526815390001
 31
0.0
  0
LINE
  5
2DB
  8
┌▓È_1
 10
858.32692747789986
 20
-304.40526815390001
 30
0.0
 11
886.32692747789997
 21
-304.40526815390001
 31
0.0
  0
LINE
  5
2DC
  8
┌▓È_1
 10
874.32692747789986
 20
-295.90526815390001
 30
0.0
 11
886.32692747789997
 21
-295.90526815390001
 31
0.0
  0
LINE
  5
2DD
  8
┌▓È_1
 10
858.32692747789986
 20
-295.90526815390001
 30
0.0
 11
870.32692747789997
 21
-295.90526815390001
 31
0.0
  0
LINE
  5
2DE
  8
┌▓È_1
 10
888.32692747789986
 20
-291.65526815390001
 30
0.0
 11
888.32692747789986
 21
-308.65526815390001
 31
0.0
  0
LINE
  5
2DF
  8
┌▓È_1
 62
     5
 10
902.65261369240011
 20
-311.88481799440001
 30
0.0
 11
902.20006535240009
 21
-312.33736633429999
 31
0.0
  0
LINE
  5
2E0
  8
┌▓È_1
 62
     5
 10
899.45261369240006
 20
-312.14250620830001
 30
0.0
 11
899.45261369240006
 21
-311.88481799440001
 31
0.0
  0
LINE
  5
2E1
  8
┌▓È_1
 62
     5
 10
889.60324579469989
 20
-311.62712978040003
 30
0.0
 11
889.60324579469989
 21
-312.82712978040001
 31
0.0
  0
LINE
  5
2E2
  8
┌▓È_1
 62
     5
 10
897.32412884389998
 20
-311.62712978040003
 30
0.0
 11
897.32412884389998
 21
-312.82712978040001
 31
0.0
  0
LINE
  5
2E3
  8
┌▓È_1
 62
     5
 10
911.78659981100009
 20
-316.0271297804
 30
0.0
 11
914.0265998110001
 21
-316.0271297804
 31
0.0
  0
POLYLINE
  8
┌▓È_1
  5
365
  62
5
  66
     1
 10
0.000000
 20
0.000000
 30
0.000000
  70
     8
  0
VERTEX
  8
┌▓È_1
  5
366
 10
904.800
 20
-314.046
 30
0.000000
  70
    32
  0
VERTEX
  8
┌▓È_1
  5
367
 10
904.814
 20
-314.050
 30
0.000000
  70
    32
  0
VERTEX
  8
┌▓È_1
  5
368
 10
904.828
 20
-314.054
 30
0.000000
  70
    32
  0
VERTEX
  8
┌▓È_1
  5
369
 10
904.842
 20
-314.058
 30
0.000000
  70
    32
  0
VERTEX
  8
┌▓È_1
  5
36A
 10
904.856
 20
-314.062
 30
0.000000
  70
    32
  0
VERTEX
  8
┌▓È_1
  5
36B
 10
904.870
 20
-314.066
 30
0.000000
  70
    32
  0
VERTEX
  8
┌▓È_1
  5
36C
 10
904.884
 20
-314.069
 30
0.000000
  70
    32
  0
VERTEX
  8
┌▓È_1
  5
36D
 10
904.899
 20
-314.073
 30
0.000000
  70
    32
  0
VERTEX
  8
┌▓È_1
  5
36E
 10
904.913
 20
-314.077
 30
0.000000
  70
    32
  0
VERTEX
  8
┌▓È_1
  5
36F
 10
904.927
 20
-314.081
 30
0.000000
  70
    32
  0
VERTEX
  8
┌▓È_1
  5
370
 10
904.941
 20
-314.085
 30
0.000000
  70
    32
  0
VERTEX
  8
┌▓È_1
  5
371
 10
904.955
 20
-314.088
 30
0.000000
  70
    32
  0
VERTEX
  8
┌▓È_1
  5
372
 10
904.969
 20
-314.092
 30
0.000000
  70
    32
  0
VERTEX
  8
┌▓È_1
  5
373
 10
904.983
 20
-314.096
 30
0.000000
  70
    32
  0
VERTEX
  8
┌▓È_1
  5
374
 10
904.997
 20
-314.099
 30
0.000000
  70
    32
  0
VERTEX
  8
┌▓È_1
  5
375
 10
905.012
 20
-314.103
 30
0.000000
  70
    32
  0
VERTEX
  8
┌▓È_1
  5
376
 10
905.026
 20
-314.107
 30
0.000000
  70
    32
  0
VERTEX
  8
┌▓È_1
  5
377
 10
905.040
 20
-314.110
 30
0.000000
  70
    32
  0
VERTEX
  8
┌▓È_1
  5
378
 10
905.054
 20
-314.114
 30
0.000000
  70
    32
  0
VERTEX
  8
┌▓È_1
  5
379
 10
905.068
 20
-314.118
 30
0.000000
  70
    32
  0
VERTEX
  8
┌▓È_1
  5
37A
 10
905.083
 20
-314.121
 30
0.000000
  70
    32
  0
VERTEX
  8
┌▓È_1
  5
37B
 10
905.097
 20
-314.125
 30
0.000000
  70
    32
  0
VERTEX
  8
┌▓È_1
  5
37C
 10
905.111
 20
-314.128
 30
0.000000
  70
    32
  0
VERTEX
  8
┌▓È_1
  5
37D
 10
905.125
 20
-314.132
 30
0.000000
  70
    32
  0
VERTEX
  8
┌▓È_1
  5
37E
 10
905.140
 20
-314.135
 30
0.000000
  70
    32
  0
VERTEX
  8
┌▓È_1
  5
37F
 10
905.154
 20
-314.139
 30
0.000000
  70
    32
  0
VERTEX
  8
┌▓È_1
  5
380
 10
905.168
 20
-314.142
 30
0.000000
  70
    32
  0
VERTEX
  8
┌▓È_1
  5
381
 10
905.183
 20
-314.145
 30
0.000000
  70
    32
  0
VERTEX
  8
┌▓È_1
  5
382
 10
905.197
 20
-314.149
 30
0.000000
  70
    32
  0
VERTEX
  8
┌▓È_1
  5
383
 10
905.211
 20
-314.152
 30
0.000000
  70
    32
  0
VERTEX
  8
┌▓È_1
  5
384
 10
905.226
 20
-314.156
 30
0.000000
  70
    32
  0
VERTEX
  8
┌▓È_1
  5
385
 10
905.240
 20
-314.159
 30
0.000000
  70
    32
  0
VERTEX
  8
┌▓È_1
  5
386
 10
905.254
 20
-314.162
 30
0.000000
  70
    32
  0
VERTEX
  8
┌▓È_1
  5
387
 10
905.269
 20
-314.166
 30
0.000000
  70
    32
  0
VERTEX
  8
┌▓È_1
  5
388
 10
905.283
 20
-314.169
 30
0.000000
  70
    32
  0
VERTEX
  8
┌▓È_1
  5
389
 10
905.298
 20
-314.172
 30
0.000000
  70
    32
  0
VERTEX
  8
┌▓È_1
  5
38A
 10
905.312
 20
-314.176
 30
0.000000
  70
    32
  0
VERTEX
  8
┌▓È_1
  5
38B
 10
905.326
 20
-314.179
 30
0.000000
  70
    32
  0
VERTEX
  8
┌▓È_1
  5
38C
 10
905.341
 20
-314.182
 30
0.000000
  70
    32
  0
VERTEX
  8
┌▓È_1
  5
38D
 10
905.355
 20
-314.185
 30
0.000000
  70
    32
  0
VERTEX
  8
┌▓È_1
  5
38E
 10
905.370
 20
-314.188
 30
0.000000
  70
    32
  0
VERTEX
  8
┌▓È_1
  5
38F
 10
905.384
 20
-314.192
 30
0.000000
  70
    32
  0
VERTEX
  8
┌▓È_1
  5
390
 10
905.399
 20
-314.195
 30
0.000000
  70
    32
  0
VERTEX
  8
┌▓È_1
  5
391
 10
905.413
 20
-314.198
 30
0.000000
  70
    32
  0
VERTEX
  8
┌▓È_1
  5
392
 10
905.428
 20
-314.201
 30
0.000000
  70
    32
  0
VERTEX
  8
┌▓È_1
  5
393
 10
905.442
 20
-314.204
 30
0.000000
  70
    32
  0
VERTEX
  8
┌▓È_1
  5
394
 10
905.457
 20
-314.207
 30
0.000000
  70
    32
  0
VERTEX
  8
┌▓È_1
  5
395
 10
905.471
 20
-314.211
 30
0.000000
  70
    32
  0
VERTEX
  8
┌▓È_1
  5
396
 10
905.486
 20
-314.214
 30
0.000000
  70
    32
  0
VERTEX
  8
┌▓È_1
  5
397
 10
905.500
 20
-314.217
 30
0.000000
  70
    32
  0
VERTEX
  8
┌▓È_1
  5
398
 10
905.515
 20
-314.220
 30
0.000000
  70
    32
  0
VERTEX
  8
┌▓È_1
  5
399
 10
905.529
 20
-314.223
 30
0.000000
  70
    32
  0
VERTEX
  8
┌▓È_1
  5
39A
 10
905.544
 20
-314.226
 30
0.000000
  70
    32
  0
VERTEX
  8
┌▓È_1
  5
39B
 10
905.559
 20
-314.229
 30
0.000000
  70
    32
  0
VERTEX
  8
┌▓È_1
  5
39C
 10
905.573
 20
-314.232
 30
0.000000
  70
    32
  0
VERTEX
  8
┌▓È_1
  5
39D
 10
905.588
 20
-314.235
 30
0.000000
  70
    32
  0
VERTEX
  8
┌▓È_1
  5
39E
 10
905.602
 20
-314.238
 30
0.000000
  70
    32
  0
VERTEX
  8
┌▓È_1
  5
39F
 10
905.617
 20
-314.241
 30
0.000000
  70
    32
  0
VERTEX
  8
┌▓È_1
  5
3A0
 10
905.632
 20
-314.244
 30
0.000000
  70
    32
  0
VERTEX
  8
┌▓È_1
  5
3A1
 10
905.646
 20
-314.247
 30
0.000000
  70
    32
  0
VERTEX
  8
┌▓È_1
  5
3A2
 10
905.661
 20
-314.250
 30
0.000000
  70
    32
  0
VERTEX
  8
┌▓È_1
  5
3A3
 10
905.675
 20
-314.252
 30
0.000000
  70
    32
  0
VERTEX
  8
┌▓È_1
  5
3A4
 10
905.690
 20
-314.255
 30
0.000000
  70
    32
  0
VERTEX
  8
┌▓È_1
  5
3A5
 10
905.705
 20
-314.258
 30
0.000000
  70
    32
  0
VERTEX
  8
┌▓È_1
  5
3A6
 10
905.719
 20
-314.261
 30
0.000000
  70
    32
  0
VERTEX
  8
┌▓È_1
  5
3A7
 10
905.734
 20
-314.264
 30
0.000000
  70
    32
  0
VERTEX
  8
┌▓È_1
  5
3A8
 10
905.749
 20
-314.267
 30
0.000000
  70
    32
  0
VERTEX
  8
┌▓È_1
  5
3A9
 10
905.763
 20
-314.270
 30
0.000000
  70
    32
  0
VERTEX
  8
┌▓È_1
  5
3AA
 10
905.778
 20
-314.273
 30
0.000000
  70
    32
  0
VERTEX
  8
┌▓È_1
  5
3AB
 10
905.793
 20
-314.275
 30
0.000000
  70
    32
  0
VERTEX
  8
┌▓È_1
  5
3AC
 10
905.807
 20
-314.278
 30
0.000000
  70
    32
  0
VERTEX
  8
┌▓È_1
  5
3AD
 10
905.822
 20
-314.281
 30
0.000000
  70
    32
  0
VERTEX
  8
┌▓È_1
  5
3AE
 10
905.837
 20
-314.284
 30
0.000000
  70
    32
  0
VERTEX
  8
┌▓È_1
  5
3AF
 10
905.852
 20
-314.287
 30
0.000000
  70
    32
  0
VERTEX
  8
┌▓È_1
  5
3B0
 10
905.866
 20
-314.289
 30
0.000000
  70
    32
  0
VERTEX
  8
┌▓È_1
  5
3B1
 10
905.881
 20
-314.292
 30
0.000000
  70
    32
  0
VERTEX
  8
┌▓È_1
  5
3B2
 10
905.896
 20
-314.295
 30
0.000000
  70
    32
  0
VERTEX
  8
┌▓È_1
  5
3B3
 10
905.911
 20
-314.298
 30
0.000000
  70
    32
  0
VERTEX
  8
┌▓È_1
  5
3B4
 10
905.925
 20
-314.300
 30
0.000000
  70
    32
  0
VERTEX
  8
┌▓È_1
  5
3B5
 10
905.940
 20
-314.303
 30
0.000000
  70
    32
  0
VERTEX
  8
┌▓È_1
  5
3B6
 10
905.955
 20
-314.306
 30
0.000000
  70
    32
  0
VERTEX
  8
┌▓È_1
  5
3B7
 10
905.970
 20
-314.309
 30
0.000000
  70
    32
  0
VERTEX
  8
┌▓È_1
  5
3B8
 10
905.984
 20
-314.311
 30
0.000000
  70
    32
  0
VERTEX
  8
┌▓È_1
  5
3B9
 10
905.999
 20
-314.314
 30
0.000000
  70
    32
  0
VERTEX
  8
┌▓È_1
  5
3BA
 10
906.014
 20
-314.317
 30
0.000000
  70
    32
  0
VERTEX
  8
┌▓È_1
  5
3BB
 10
906.029
 20
-314.319
 30
0.000000
  70
    32
  0
VERTEX
  8
┌▓È_1
  5
3BC
 10
906.044
 20
-314.322
 30
0.000000
  70
    32
  0
VERTEX
  8
┌▓È_1
  5
3BD
 10
906.058
 20
-314.325
 30
0.000000
  70
    32
  0
VERTEX
  8
┌▓È_1
  5
3BE
 10
906.073
 20
-314.327
 30
0.000000
  70
    32
  0
VERTEX
  8
┌▓È_1
  5
3BF
 10
906.088
 20
-314.330
 30
0.000000
  70
    32
  0
VERTEX
  8
┌▓È_1
  5
3C0
 10
906.103
 20
-314.333
 30
0.000000
  70
    32
  0
VERTEX
  8
┌▓È_1
  5
3C1
 10
906.118
 20
-314.335
 30
0.000000
  70
    32
  0
VERTEX
  8
┌▓È_1
  5
3C2
 10
906.132
 20
-314.338
 30
0.000000
  70
    32
  0
VERTEX
  8
┌▓È_1
  5
3C3
 10
906.147
 20
-314.340
 30
0.000000
  70
    32
  0
VERTEX
  8
┌▓È_1
  5
3C4
 10
906.162
 20
-314.343
 30
0.000000
  70
    32
  0
VERTEX
  8
┌▓È_1
  5
3C5
 10
906.177
 20
-314.346
 30
0.000000
  70
    32
  0
VERTEX
  8
┌▓È_1
  5
3C6
 10
906.192
 20
-314.348
 30
0.000000
  70
    32
  0
VERTEX
  8
┌▓È_1
  5
3C7
 10
906.206
 20
-314.351
 30
0.000000
  70
    32
  0
VERTEX
  8
┌▓È_1
  5
3C8
 10
906.221
 20
-314.353
 30
0.000000
  70
    32
  0
VERTEX
  8
┌▓È_1
  5
3C9
 10
906.236
 20
-314.356
 30
0.000000
  70
    32
  0
VERTEX
  8
┌▓È_1
  5
3CA
 10
906.251
 20
-314.359
 30
0.000000
  70
    32
  0
VERTEX
  8
┌▓È_1
  5
3CB
 10
906.266
 20
-314.361
 30
0.000000
  70
    32
  0
VERTEX
  8
┌▓È_1
  5
3CC
 10
906.281
 20
-314.364
 30
0.000000
  70
    32
  0
VERTEX
  8
┌▓È_1
  5
3CD
 10
906.296
 20
-314.366
 30
0.000000
  70
    32
  0
VERTEX
  8
┌▓È_1
  5
3CE
 10
906.310
 20
-314.369
 30
0.000000
  70
    32
  0
VERTEX
  8
┌▓È_1
  5
3CF
 10
906.325
 20
-314.371
 30
0.000000
  70
    32
  0
VERTEX
  8
┌▓È_1
  5
3D0
 10
906.340
 20
-314.374
 30
0.000000
  70
    32
  0
VERTEX
  8
┌▓È_1
  5
3D1
 10
906.355
 20
-314.377
 30
0.000000
  70
    32
  0
VERTEX
  8
┌▓È_1
  5
3D2
 10
906.370
 20
-314.379
 30
0.000000
  70
    32
  0
VERTEX
  8
┌▓È_1
  5
3D3
 10
906.385
 20
-314.382
 30
0.000000
  70
    32
  0
VERTEX
  8
┌▓È_1
  5
3D4
 10
906.400
 20
-314.384
 30
0.000000
  70
    32
  0
VERTEX
  8
┌▓È_1
  5
3D5
 10
906.414
 20
-314.387
 30
0.000000
  70
    32
  0
VERTEX
  8
┌▓È_1
  5
3D6
 10
906.429
 20
-314.389
 30
0.000000
  70
    32
  0
VERTEX
  8
┌▓È_1
  5
3D7
 10
906.444
 20
-314.392
 30
0.000000
  70
    32
  0
VERTEX
  8
┌▓È_1
  5
3D8
 10
906.459
 20
-314.394
 30
0.000000
  70
    32
  0
VERTEX
  8
┌▓È_1
  5
3D9
 10
906.474
 20
-314.397
 30
0.000000
  70
    32
  0
VERTEX
  8
┌▓È_1
  5
3DA
 10
906.489
 20
-314.399
 30
0.000000
  70
    32
  0
VERTEX
  8
┌▓È_1
  5
3DB
 10
906.504
 20
-314.402
 30
0.000000
  70
    32
  0
VERTEX
  8
┌▓È_1
  5
3DC
 10
906.519
 20
-314.404
 30
0.000000
  70
    32
  0
VERTEX
  8
┌▓È_1
  5
3DD
 10
906.534
 20
-314.407
 30
0.000000
  70
    32
  0
VERTEX
  8
┌▓È_1
  5
3DE
 10
906.548
 20
-314.410
 30
0.000000
  70
    32
  0
VERTEX
  8
┌▓È_1
  5
3DF
 10
906.563
 20
-314.412
 30
0.000000
  70
    32
  0
VERTEX
  8
┌▓È_1
  5
3E0
 10
906.578
 20
-314.415
 30
0.000000
  70
    32
  0
VERTEX
  8
┌▓È_1
  5
3E1
 10
906.593
 20
-314.417
 30
0.000000
  70
    32
  0
VERTEX
  8
┌▓È_1
  5
3E2
 10
906.608
 20
-314.420
 30
0.000000
  70
    32
  0
VERTEX
  8
┌▓È_1
  5
3E3
 10
906.623
 20
-314.422
 30
0.000000
  70
    32
  0
VERTEX
  8
┌▓È_1
  5
3E4
 10
906.638
 20
-314.425
 30
0.000000
  70
    32
  0
VERTEX
  8
┌▓È_1
  5
3E5
 10
906.653
 20
-314.427
 30
0.000000
  70
    32
  0
SEQEND
  8
┌▓È_1
  5
3E6
  0
POLYLINE
  8
┌▓È_1
  5
3E7
  62
5
  66
     1
 10
0.000000
 20
0.000000
 30
0.000000
  70
     8
  0
VERTEX
  8
┌▓È_1
  5
3E8
 10
899.453
 20
-312.143
 30
0.000000
  70
    32
  0
VERTEX
  8
┌▓È_1
  5
3E9
 10
899.467
 20
-312.156
 30
0.000000
  70
    32
  0
VERTEX
  8
┌▓È_1
  5
3EA
 10
899.481
 20
-312.169
 30
0.000000
  70
    32
  0
VERTEX
  8
┌▓È_1
  5
3EB
 10
899.496
 20
-312.182
 30
0.000000
  70
    32
  0
VERTEX
  8
┌▓È_1
  5
3EC
 10
899.510
 20
-312.196
 30
0.000000
  70
    32
  0
VERTEX
  8
┌▓È_1
  5
3ED
 10
899.525
 20
-312.209
 30
0.000000
  70
    32
  0
VERTEX
  8
┌▓È_1
  5
3EE
 10
899.539
 20
-312.222
 30
0.000000
  70
    32
  0
VERTEX
  8
┌▓È_1
  5
3EF
 10
899.553
 20
-312.235
 30
0.000000
  70
    32
  0
VERTEX
  8
┌▓È_1
  5
3F0
 10
899.568
 20
-312.249
 30
0.000000
  70
    32
  0
VERTEX
  8
┌▓È_1
  5
3F1
 10
899.582
 20
-312.262
 30
0.000000
  70
    32
  0
VERTEX
  8
┌▓È_1
  5
3F2
 10
899.597
 20
-312.275
 30
0.000000
  70
    32
  0
VERTEX
  8
┌▓È_1
  5
3F3
 10
899.611
 20
-312.289
 30
0.000000
  70
    32
  0
VERTEX
  8
┌▓È_1
  5
3F4
 10
899.626
 20
-312.302
 30
0.000000
  70
    32
  0
VERTEX
  8
┌▓È_1
  5
3F5
 10
899.640
 20
-312.315
 30
0.000000
  70
    32
  0
VERTEX
  8
┌▓È_1
  5
3F6
 10
899.654
 20
-312.328
 30
0.000000
  70
    32
  0
VERTEX
  8
┌▓È_1
  5
3F7
 10
899.669
 20
-312.342
 30
0.000000
  70
    32
  0
VERTEX
  8
┌▓È_1
  5
3F8
 10
899.683
 20
-312.355
 30
0.000000
  70
    32
  0
VERTEX
  8
┌▓È_1
  5
3F9
 10
899.698
 20
-312.368
 30
0.000000
  70
    32
  0
VERTEX
  8
┌▓È_1
  5
3FA
 10
899.712
 20
-312.381
 30
0.000000
  70
    32
  0
VERTEX
  8
┌▓È_1
  5
3FB
 10
899.727
 20
-312.395
 30
0.000000
  70
    32
  0
VERTEX
  8
┌▓È_1
  5
3FC
 10
899.741
 20
-312.408
 30
0.000000
  70
    32
  0
VERTEX
  8
┌▓È_1
  5
3FD
 10
899.755
 20
-312.421
 30
0.000000
  70
    32
  0
VERTEX
  8
┌▓È_1
  5
3FE
 10
899.770
 20
-312.434
 30
0.000000
  70
    32
  0
VERTEX
  8
┌▓È_1
  5
3FF
 10
899.784
 20
-312.447
 30
0.000000
  70
    32
  0
VERTEX
  8
┌▓È_1
  5
400
 10
899.799
 20
-312.461
 30
0.000000
  70
    32
  0
VERTEX
  8
┌▓È_1
  5
401
 10
899.813
 20
-312.474
 30
0.000000
  70
    32
  0
VERTEX
  8
┌▓È_1
  5
402
 10
899.828
 20
-312.487
 30
0.000000
  70
    32
  0
VERTEX
  8
┌▓È_1
  5
403
 10
899.842
 20
-312.500
 30
0.000000
  70
    32
  0
VERTEX
  8
┌▓È_1
  5
404
 10
899.857
 20
-312.513
 30
0.000000
  70
    32
  0
VERTEX
  8
┌▓È_1
  5
405
 10
899.871
 20
-312.527
 30
0.000000
  70
    32
  0
VERTEX
  8
┌▓È_1
  5
406
 10
899.886
 20
-312.540
 30
0.000000
  70
    32
  0
VERTEX
  8
┌▓È_1
  5
407
 10
899.900
 20
-312.553
 30
0.000000
  70
    32
  0
VERTEX
  8
┌▓È_1
  5
408
 10
899.915
 20
-312.566
 30
0.000000
  70
    32
  0
VERTEX
  8
┌▓È_1
  5
409
 10
899.929
 20
-312.579
 30
0.000000
  70
    32
  0
VERTEX
  8
┌▓È_1
  5
40A
 10
899.944
 20
-312.592
 30
0.000000
  70
    32
  0
VERTEX
  8
┌▓È_1
  5
40B
 10
899.958
 20
-312.605
 30
0.000000
  70
    32
  0
VERTEX
  8
┌▓È_1
  5
40C
 10
899.973
 20
-312.619
 30
0.000000
  70
    32
  0
VERTEX
  8
┌▓È_1
  5
40D
 10
899.987
 20
-312.632
 30
0.000000
  70
    32
  0
VERTEX
  8
┌▓È_1
  5
40E
 10
900.002
 20
-312.645
 30
0.000000
  70
    32
  0
VERTEX
  8
┌▓È_1
  5
40F
 10
900.016
 20
-312.658
 30
0.000000
  70
    32
  0
VERTEX
  8
┌▓È_1
  5
410
 10
900.031
 20
-312.671
 30
0.000000
  70
    32
  0
VERTEX
  8
┌▓È_1
  5
411
 10
900.045
 20
-312.684
 30
0.000000
  70
    32
  0
VERTEX
  8
┌▓È_1
  5
412
 10
900.060
 20
-312.697
 30
0.000000
  70
    32
  0
VERTEX
  8
┌▓È_1
  5
413
 10
900.074
 20
-312.710
 30
0.000000
  70
    32
  0
VERTEX
  8
┌▓È_1
  5
414
 10
900.089
 20
-312.723
 30
0.000000
  70
    32
  0
VERTEX
  8
┌▓È_1
  5
415
 10
900.103
 20
-312.736
 30
0.000000
  70
    32
  0
VERTEX
  8
┌▓È_1
  5
416
 10
900.118
 20
-312.749
 30
0.000000
  70
    32
  0
VERTEX
  8
┌▓È_1
  5
417
 10
900.132
 20
-312.762
 30
0.000000
  70
    32
  0
VERTEX
  8
┌▓È_1
  5
418
 10
900.147
 20
-312.775
 30
0.000000
  70
    32
  0
VERTEX
  8
┌▓È_1
  5
419
 10
900.162
 20
-312.788
 30
0.000000
  70
    32
  0
VERTEX
  8
┌▓È_1
  5
41A
 10
900.176
 20
-312.801
 30
0.000000
  70
    32
  0
VERTEX
  8
┌▓È_1
  5
41B
 10
900.191
 20
-312.814
 30
0.000000
  70
    32
  0
VERTEX
  8
┌▓È_1
  5
41C
 10
900.205
 20
-312.827
 30
0.000000
  70
    32
  0
VERTEX
  8
┌▓È_1
  5
41D
 10
900.220
 20
-312.840
 30
0.000000
  70
    32
  0
VERTEX
  8
┌▓È_1
  5
41E
 10
900.235
 20
-312.852
 30
0.000000
  70
    32
  0
VERTEX
  8
┌▓È_1
  5
41F
 10
900.249
 20
-312.865
 30
0.000000
  70
    32
  0
VERTEX
  8
┌▓È_1
  5
420
 10
900.264
 20
-312.878
 30
0.000000
  70
    32
  0
VERTEX
  8
┌▓È_1
  5
421
 10
900.279
 20
-312.891
 30
0.000000
  70
    32
  0
VERTEX
  8
┌▓È_1
  5
422
 10
900.293
 20
-312.904
 30
0.000000
  70
    32
  0
VERTEX
  8
┌▓È_1
  5
423
 10
900.308
 20
-312.917
 30
0.000000
  70
    32
  0
VERTEX
  8
┌▓È_1
  5
424
 10
900.323
 20
-312.929
 30
0.000000
  70
    32
  0
VERTEX
  8
┌▓È_1
  5
425
 10
900.337
 20
-312.942
 30
0.000000
  70
    32
  0
VERTEX
  8
┌▓È_1
  5
426
 10
900.352
 20
-312.955
 30
0.000000
  70
    32
  0
VERTEX
  8
┌▓È_1
  5
427
 10
900.367
 20
-312.968
 30
0.000000
  70
    32
  0
VERTEX
  8
┌▓È_1
  5
428
 10
900.381
 20
-312.980
 30
0.000000
  70
    32
  0
VERTEX
  8
┌▓È_1
  5
429
 10
900.396
 20
-312.993
 30
0.000000
  70
    32
  0
VERTEX
  8
┌▓È_1
  5
42A
 10
900.411
 20
-313.006
 30
0.000000
  70
    32
  0
VERTEX
  8
┌▓È_1
  5
42B
 10
900.426
 20
-313.019
 30
0.000000
  70
    32
  0
VERTEX
  8
┌▓È_1
  5
42C
 10
900.440
 20
-313.031
 30
0.000000
  70
    32
  0
VERTEX
  8
┌▓È_1
  5
42D
 10
900.455
 20
-313.044
 30
0.000000
  70
    32
  0
VERTEX
  8
┌▓È_1
  5
42E
 10
900.470
 20
-313.056
 30
0.000000
  70
    32
  0
VERTEX
  8
┌▓È_1
  5
42F
 10
900.485
 20
-313.069
 30
0.000000
  70
    32
  0
VERTEX
  8
┌▓È_1
  5
430
 10
900.499
 20
-313.082
 30
0.000000
  70
    32
  0
VERTEX
  8
┌▓È_1
  5
431
 10
900.514
 20
-313.094
 30
0.000000
  70
    32
  0
VERTEX
  8
┌▓È_1
  5
432
 10
900.529
 20
-313.107
 30
0.000000
  70
    32
  0
VERTEX
  8
┌▓È_1
  5
433
 10
900.544
 20
-313.119
 30
0.000000
  70
    32
  0
VERTEX
  8
┌▓È_1
  5
434
 10
900.559
 20
-313.132
 30
0.000000
  70
    32
  0
VERTEX
  8
┌▓È_1
  5
435
 10
900.573
 20
-313.144
 30
0.000000
  70
    32
  0
VERTEX
  8
┌▓È_1
  5
436
 10
900.588
 20
-313.157
 30
0.000000
  70
    32
  0
VERTEX
  8
┌▓È_1
  5
437
 10
900.603
 20
-313.169
 30
0.000000
  70
    32
  0
VERTEX
  8
┌▓È_1
  5
438
 10
900.618
 20
-313.181
 30
0.000000
  70
    32
  0
VERTEX
  8
┌▓È_1
  5
439
 10
900.633
 20
-313.194
 30
0.000000
  70
    32
  0
VERTEX
  8
┌▓È_1
  5
43A
 10
900.648
 20
-313.206
 30
0.000000
  70
    32
  0
VERTEX
  8
┌▓È_1
  5
43B
 10
900.663
 20
-313.219
 30
0.000000
  70
    32
  0
VERTEX
  8
┌▓È_1
  5
43C
 10
900.678
 20
-313.231
 30
0.000000
  70
    32
  0
VERTEX
  8
┌▓È_1
  5
43D
 10
900.693
 20
-313.243
 30
0.000000
  70
    32
  0
VERTEX
  8
┌▓È_1
  5
43E
 10
900.708
 20
-313.255
 30
0.000000
  70
    32
  0
VERTEX
  8
┌▓È_1
  5
43F
 10
900.723
 20
-313.268
 30
0.000000
  70
    32
  0
VERTEX
  8
┌▓È_1
  5
440
 10
900.738
 20
-313.280
 30
0.000000
  70
    32
  0
VERTEX
  8
┌▓È_1
  5
441
 10
900.753
 20
-313.292
 30
0.000000
  70
    32
  0
VERTEX
  8
┌▓È_1
  5
442
 10
900.768
 20
-313.304
 30
0.000000
  70
    32
  0
VERTEX
  8
┌▓È_1
  5
443
 10
900.783
 20
-313.316
 30
0.000000
  70
    32
  0
VERTEX
  8
┌▓È_1
  5
444
 10
900.798
 20
-313.329
 30
0.000000
  70
    32
  0
VERTEX
  8
┌▓È_1
  5
445
 10
900.813
 20
-313.341
 30
0.000000
  70
    32
  0
VERTEX
  8
┌▓È_1
  5
446
 10
900.828
 20
-313.353
 30
0.000000
  70
    32
  0
VERTEX
  8
┌▓È_1
  5
447
 10
900.843
 20
-313.365
 30
0.000000
  70
    32
  0
VERTEX
  8
┌▓È_1
  5
448
 10
900.858
 20
-313.377
 30
0.000000
  70
    32
  0
VERTEX
  8
┌▓È_1
  5
449
 10
900.873
 20
-313.389
 30
0.000000
  70
    32
  0
VERTEX
  8
┌▓È_1
  5
44A
 10
900.888
 20
-313.401
 30
0.000000
  70
    32
  0
VERTEX
  8
┌▓È_1
  5
44B
 10
900.903
 20
-313.413
 30
0.000000
  70
    32
  0
VERTEX
  8
┌▓È_1
  5
44C
 10
900.918
 20
-313.425
 30
0.000000
  70
    32
  0
VERTEX
  8
┌▓È_1
  5
44D
 10
900.934
 20
-313.437
 30
0.000000
  70
    32
  0
VERTEX
  8
┌▓È_1
  5
44E
 10
900.949
 20
-313.448
 30
0.000000
  70
    32
  0
VERTEX
  8
┌▓È_1
  5
44F
 10
900.964
 20
-313.460
 30
0.000000
  70
    32
  0
VERTEX
  8
┌▓È_1
  5
450
 10
900.979
 20
-313.472
 30
0.000000
  70
    32
  0
VERTEX
  8
┌▓È_1
  5
451
 10
900.994
 20
-313.484
 30
0.000000
  70
    32
  0
VERTEX
  8
┌▓È_1
  5
452
 10
901.010
 20
-313.496
 30
0.000000
  70
    32
  0
VERTEX
  8
┌▓È_1
  5
453
 10
901.025
 20
-313.507
 30
0.000000
  70
    32
  0
VERTEX
  8
┌▓È_1
  5
454
 10
901.040
 20
-313.519
 30
0.000000
  70
    32
  0
VERTEX
  8
┌▓È_1
  5
455
 10
901.055
 20
-313.531
 30
0.000000
  70
    32
  0
VERTEX
  8
┌▓È_1
  5
456
 10
901.071
 20
-313.542
 30
0.000000
  70
    32
  0
VERTEX
  8
┌▓È_1
  5
457
 10
901.086
 20
-313.554
 30
0.000000
  70
    32
  0
VERTEX
  8
┌▓È_1
  5
458
 10
901.101
 20
-313.565
 30
0.000000
  70
    32
  0
VERTEX
  8
┌▓È_1
  5
459
 10
901.117
 20
-313.577
 30
0.000000
  70
    32
  0
VERTEX
  8
┌▓È_1
  5
45A
 10
901.132
 20
-313.588
 30
0.000000
  70
    32
  0
VERTEX
  8
┌▓È_1
  5
45B
 10
901.148
 20
-313.600
 30
0.000000
  70
    32
  0
VERTEX
  8
┌▓È_1
  5
45C
 10
901.163
 20
-313.611
 30
0.000000
  70
    32
  0
VERTEX
  8
┌▓È_1
  5
45D
 10
901.178
 20
-313.623
 30
0.000000
  70
    32
  0
VERTEX
  8
┌▓È_1
  5
45E
 10
901.194
 20
-313.634
 30
0.000000
  70
    32
  0
VERTEX
  8
┌▓È_1
  5
45F
 10
901.209
 20
-313.645
 30
0.000000
  70
    32
  0
VERTEX
  8
┌▓È_1
  5
460
 10
901.225
 20
-313.657
 30
0.000000
  70
    32
  0
VERTEX
  8
┌▓È_1
  5
461
 10
901.240
 20
-313.668
 30
0.000000
  70
    32
  0
VERTEX
  8
┌▓È_1
  5
462
 10
901.256
 20
-313.679
 30
0.000000
  70
    32
  0
VERTEX
  8
┌▓È_1
  5
463
 10
901.271
 20
-313.690
 30
0.000000
  70
    32
  0
VERTEX
  8
┌▓È_1
  5
464
 10
901.287
 20
-313.702
 30
0.000000
  70
    32
  0
VERTEX
  8
┌▓È_1
  5
465
 10
901.302
 20
-313.713
 30
0.000000
  70
    32
  0
VERTEX
  8
┌▓È_1
  5
466
 10
901.318
 20
-313.724
 30
0.000000
  70
    32
  0
VERTEX
  8
┌▓È_1
  5
467
 10
901.334
 20
-313.735
 30
0.000000
  70
    32
  0
VERTEX
  8
┌▓È_1
  5
468
 10
901.349
 20
-313.746
 30
0.000000
  70
    32
  0
VERTEX
  8
┌▓È_1
  5
469
 10
901.365
 20
-313.757
 30
0.000000
  70
    32
  0
VERTEX
  8
┌▓È_1
  5
46A
 10
901.381
 20
-313.768
 30
0.000000
  70
    32
  0
VERTEX
  8
┌▓È_1
  5
46B
 10
901.396
 20
-313.779
 30
0.000000
  70
    32
  0
VERTEX
  8
┌▓È_1
  5
46C
 10
901.412
 20
-313.790
 30
0.000000
  70
    32
  0
VERTEX
  8
┌▓È_1
  5
46D
 10
901.428
 20
-313.801
 30
0.000000
  70
    32
  0
VERTEX
  8
┌▓È_1
  5
46E
 10
901.443
 20
-313.811
 30
0.000000
  70
    32
  0
VERTEX
  8
┌▓È_1
  5
46F
 10
901.459
 20
-313.822
 30
0.000000
  70
    32
  0
VERTEX
  8
┌▓È_1
  5
470
 10
901.475
 20
-313.833
 30
0.000000
  70
    32
  0
VERTEX
  8
┌▓È_1
  5
471
 10
901.491
 20
-313.844
 30
0.000000
  70
    32
  0
VERTEX
  8
┌▓È_1
  5
472
 10
901.507
 20
-313.854
 30
0.000000
  70
    32
  0
VERTEX
  8
┌▓È_1
  5
473
 10
901.522
 20
-313.865
 30
0.000000
  70
    32
  0
VERTEX
  8
┌▓È_1
  5
474
 10
901.538
 20
-313.876
 30
0.000000
  70
    32
  0
VERTEX
  8
┌▓È_1
  5
475
 10
901.554
 20
-313.886
 30
0.000000
  70
    32
  0
VERTEX
  8
┌▓È_1
  5
476
 10
901.570
 20
-313.897
 30
0.000000
  70
    32
  0
VERTEX
  8
┌▓È_1
  5
477
 10
901.586
 20
-313.907
 30
0.000000
  70
    32
  0
VERTEX
  8
┌▓È_1
  5
478
 10
901.602
 20
-313.918
 30
0.000000
  70
    32
  0
VERTEX
  8
┌▓È_1
  5
479
 10
901.618
 20
-313.928
 30
0.000000
  70
    32
  0
VERTEX
  8
┌▓È_1
  5
47A
 10
901.634
 20
-313.938
 30
0.000000
  70
    32
  0
VERTEX
  8
┌▓È_1
  5
47B
 10
901.650
 20
-313.949
 30
0.000000
  70
    32
  0
VERTEX
  8
┌▓È_1
  5
47C
 10
901.666
 20
-313.959
 30
0.000000
  70
    32
  0
VERTEX
  8
┌▓È_1
  5
47D
 10
901.682
 20
-313.969
 30
0.000000
  70
    32
  0
VERTEX
  8
┌▓È_1
  5
47E
 10
901.698
 20
-313.979
 30
0.000000
  70
    32
  0
VERTEX
  8
┌▓È_1
  5
47F
 10
901.714
 20
-313.989
 30
0.000000
  70
    32
  0
VERTEX
  8
┌▓È_1
  5
480
 10
901.730
 20
-314.000
 30
0.000000
  70
    32
  0
VERTEX
  8
┌▓È_1
  5
481
 10
901.746
 20
-314.010
 30
0.000000
  70
    32
  0
VERTEX
  8
┌▓È_1
  5
482
 10
901.763
 20
-314.020
 30
0.000000
  70
    32
  0
VERTEX
  8
┌▓È_1
  5
483
 10
901.779
 20
-314.030
 30
0.000000
  70
    32
  0
VERTEX
  8
┌▓È_1
  5
484
 10
901.795
 20
-314.040
 30
0.000000
  70
    32
  0
VERTEX
  8
┌▓È_1
  5
485
 10
901.811
 20
-314.049
 30
0.000000
  70
    32
  0
VERTEX
  8
┌▓È_1
  5
486
 10
901.828
 20
-314.059
 30
0.000000
  70
    32
  0
VERTEX
  8
┌▓È_1
  5
487
 10
901.844
 20
-314.069
 30
0.000000
  70
    32
  0
SEQEND
  8
┌▓È_1
  5
488
  0
POLYLINE
  8
┌▓È_1
  5
489
  62
5
  66
     1
 10
0.000000
 20
0.000000
 30
0.000000
  70
     8
  0
VERTEX
  8
┌▓È_1
  5
48A
 10
903.820
 20
-314.936
 30
0.000000
  70
    32
  0
VERTEX
  8
┌▓È_1
  5
48B
 10
903.841
 20
-314.943
 30
0.000000
  70
    32
  0
VERTEX
  8
┌▓È_1
  5
48C
 10
903.863
 20
-314.950
 30
0.000000
  70
    32
  0
VERTEX
  8
┌▓È_1
  5
48D
 10
903.884
 20
-314.957
 30
0.000000
  70
    32
  0
VERTEX
  8
┌▓È_1
  5
48E
 10
903.906
 20
-314.963
 30
0.000000
  70
    32
  0
VERTEX
  8
┌▓È_1
  5
48F
 10
903.928
 20
-314.970
 30
0.000000
  70
    32
  0
VERTEX
  8
┌▓È_1
  5
490
 10
903.949
 20
-314.977
 30
0.000000
  70
    32
  0
VERTEX
  8
┌▓È_1
  5
491
 10
903.971
 20
-314.984
 30
0.000000
  70
    32
  0
VERTEX
  8
┌▓È_1
  5
492
 10
903.992
 20
-314.990
 30
0.000000
  70
    32
  0
VERTEX
  8
┌▓È_1
  5
493
 10
904.014
 20
-314.997
 30
0.000000
  70
    32
  0
VERTEX
  8
┌▓È_1
  5
494
 10
904.036
 20
-315.003
 30
0.000000
  70
    32
  0
VERTEX
  8
┌▓È_1
  5
495
 10
904.058
 20
-315.010
 30
0.000000
  70
    32
  0
VERTEX
  8
┌▓È_1
  5
496
 10
904.079
 20
-315.016
 30
0.000000
  70
    32
  0
VERTEX
  8
┌▓È_1
  5
497
 10
904.101
 20
-315.023
 30
0.000000
  70
    32
  0
VERTEX
  8
┌▓È_1
  5
498
 10
904.123
 20
-315.029
 30
0.000000
  70
    32
  0
VERTEX
  8
┌▓È_1
  5
499
 10
904.145
 20
-315.036
 30
0.000000
  70
    32
  0
VERTEX
  8
┌▓È_1
  5
49A
 10
904.166
 20
-315.042
 30
0.000000
  70
    32
  0
VERTEX
  8
┌▓È_1
  5
49B
 10
904.188
 20
-315.049
 30
0.000000
  70
    32
  0
VERTEX
  8
┌▓È_1
  5
49C
 10
904.210
 20
-315.055
 30
0.000000
  70
    32
  0
VERTEX
  8
┌▓È_1
  5
49D
 10
904.232
 20
-315.061
 30
0.000000
  70
    32
  0
VERTEX
  8
┌▓È_1
  5
49E
 10
904.254
 20
-315.067
 30
0.000000
  70
    32
  0
VERTEX
  8
┌▓È_1
  5
49F
 10
904.276
 20
-315.074
 30
0.000000
  70
    32
  0
VERTEX
  8
┌▓È_1
  5
4A0
 10
904.297
 20
-315.080
 30
0.000000
  70
    32
  0
VERTEX
  8
┌▓È_1
  5
4A1
 10
904.319
 20
-315.086
 30
0.000000
  70
    32
  0
VERTEX
  8
┌▓È_1
  5
4A2
 10
904.341
 20
-315.092
 30
0.000000
  70
    32
  0
VERTEX
  8
┌▓È_1
  5
4A3
 10
904.363
 20
-315.098
 30
0.000000
  70
    32
  0
VERTEX
  8
┌▓È_1
  5
4A4
 10
904.385
 20
-315.104
 30
0.000000
  70
    32
  0
VERTEX
  8
┌▓È_1
  5
4A5
 10
904.407
 20
-315.111
 30
0.000000
  70
    32
  0
VERTEX
  8
┌▓È_1
  5
4A6
 10
904.429
 20
-315.117
 30
0.000000
  70
    32
  0
VERTEX
  8
┌▓È_1
  5
4A7
 10
904.451
 20
-315.123
 30
0.000000
  70
    32
  0
VERTEX
  8
┌▓È_1
  5
4A8
 10
904.473
 20
-315.129
 30
0.000000
  70
    32
  0
VERTEX
  8
┌▓È_1
  5
4A9
 10
904.495
 20
-315.135
 30
0.000000
  70
    32
  0
VERTEX
  8
┌▓È_1
  5
4AA
 10
904.517
 20
-315.140
 30
0.000000
  70
    32
  0
VERTEX
  8
┌▓È_1
  5
4AB
 10
904.539
 20
-315.146
 30
0.000000
  70
    32
  0
VERTEX
  8
┌▓È_1
  5
4AC
 10
904.561
 20
-315.152
 30
0.000000
  70
    32
  0
VERTEX
  8
┌▓È_1
  5
4AD
 10
904.583
 20
-315.158
 30
0.000000
  70
    32
  0
VERTEX
  8
┌▓È_1
  5
4AE
 10
904.605
 20
-315.164
 30
0.000000
  70
    32
  0
VERTEX
  8
┌▓È_1
  5
4AF
 10
904.628
 20
-315.170
 30
0.000000
  70
    32
  0
VERTEX
  8
┌▓È_1
  5
4B0
 10
904.650
 20
-315.176
 30
0.000000
  70
    32
  0
VERTEX
  8
┌▓È_1
  5
4B1
 10
904.672
 20
-315.181
 30
0.000000
  70
    32
  0
VERTEX
  8
┌▓È_1
  5
4B2
 10
904.694
 20
-315.187
 30
0.000000
  70
    32
  0
VERTEX
  8
┌▓È_1
  5
4B3
 10
904.716
 20
-315.193
 30
0.000000
  70
    32
  0
VERTEX
  8
┌▓È_1
  5
4B4
 10
904.738
 20
-315.199
 30
0.000000
  70
    32
  0
VERTEX
  8
┌▓È_1
  5
4B5
 10
904.760
 20
-315.204
 30
0.000000
  70
    32
  0
VERTEX
  8
┌▓È_1
  5
4B6
 10
904.783
 20
-315.210
 30
0.000000
  70
    32
  0
VERTEX
  8
┌▓È_1
  5
4B7
 10
904.805
 20
-315.216
 30
0.000000
  70
    32
  0
VERTEX
  8
┌▓È_1
  5
4B8
 10
904.827
 20
-315.221
 30
0.000000
  70
    32
  0
VERTEX
  8
┌▓È_1
  5
4B9
 10
904.849
 20
-315.227
 30
0.000000
  70
    32
  0
VERTEX
  8
┌▓È_1
  5
4BA
 10
904.871
 20
-315.232
 30
0.000000
  70
    32
  0
VERTEX
  8
┌▓È_1
  5
4BB
 10
904.894
 20
-315.238
 30
0.000000
  70
    32
  0
VERTEX
  8
┌▓È_1
  5
4BC
 10
904.916
 20
-315.243
 30
0.000000
  70
    32
  0
VERTEX
  8
┌▓È_1
  5
4BD
 10
904.938
 20
-315.249
 30
0.000000
  70
    32
  0
VERTEX
  8
┌▓È_1
  5
4BE
 10
904.961
 20
-315.254
 30
0.000000
  70
    32
  0
VERTEX
  8
┌▓È_1
  5
4BF
 10
904.983
 20
-315.260
 30
0.000000
  70
    32
  0
VERTEX
  8
┌▓È_1
  5
4C0
 10
905.005
 20
-315.265
 30
0.000000
  70
    32
  0
VERTEX
  8
┌▓È_1
  5
4C1
 10
905.027
 20
-315.271
 30
0.000000
  70
    32
  0
VERTEX
  8
┌▓È_1
  5
4C2
 10
905.050
 20
-315.276
 30
0.000000
  70
    32
  0
VERTEX
  8
┌▓È_1
  5
4C3
 10
905.072
 20
-315.281
 30
0.000000
  70
    32
  0
VERTEX
  8
┌▓È_1
  5
4C4
 10
905.094
 20
-315.287
 30
0.000000
  70
    32
  0
VERTEX
  8
┌▓È_1
  5
4C5
 10
905.117
 20
-315.292
 30
0.000000
  70
    32
  0
VERTEX
  8
┌▓È_1
  5
4C6
 10
905.139
 20
-315.298
 30
0.000000
  70
    32
  0
VERTEX
  8
┌▓È_1
  5
4C7
 10
905.162
 20
-315.303
 30
0.000000
  70
    32
  0
VERTEX
  8
┌▓È_1
  5
4C8
 10
905.184
 20
-315.308
 30
0.000000
  70
    32
  0
VERTEX
  8
┌▓È_1
  5
4C9
 10
905.206
 20
-315.313
 30
0.000000
  70
    32
  0
VERTEX
  8
┌▓È_1
  5
4CA
 10
905.229
 20
-315.319
 30
0.000000
  70
    32
  0
VERTEX
  8
┌▓È_1
  5
4CB
 10
905.251
 20
-315.324
 30
0.000000
  70
    32
  0
VERTEX
  8
┌▓È_1
  5
4CC
 10
905.274
 20
-315.329
 30
0.000000
  70
    32
  0
VERTEX
  8
┌▓È_1
  5
4CD
 10
905.296
 20
-315.334
 30
0.000000
  70
    32
  0
VERTEX
  8
┌▓È_1
  5
4CE
 10
905.318
 20
-315.340
 30
0.000000
  70
    32
  0
VERTEX
  8
┌▓È_1
  5
4CF
 10
905.341
 20
-315.345
 30
0.000000
  70
    32
  0
VERTEX
  8
┌▓È_1
  5
4D0
 10
905.363
 20
-315.350
 30
0.000000
  70
    32
  0
VERTEX
  8
┌▓È_1
  5
4D1
 10
905.386
 20
-315.355
 30
0.000000
  70
    32
  0
VERTEX
  8
┌▓È_1
  5
4D2
 10
905.408
 20
-315.360
 30
0.000000
  70
    32
  0
VERTEX
  8
┌▓È_1
  5
4D3
 10
905.431
 20
-315.365
 30
0.000000
  70
    32
  0
VERTEX
  8
┌▓È_1
  5
4D4
 10
905.453
 20
-315.370
 30
0.000000
  70
    32
  0
VERTEX
  8
┌▓È_1
  5
4D5
 10
905.476
 20
-315.375
 30
0.000000
  70
    32
  0
VERTEX
  8
┌▓È_1
  5
4D6
 10
905.498
 20
-315.381
 30
0.000000
  70
    32
  0
VERTEX
  8
┌▓È_1
  5
4D7
 10
905.521
 20
-315.386
 30
0.000000
  70
    32
  0
VERTEX
  8
┌▓È_1
  5
4D8
 10
905.543
 20
-315.391
 30
0.000000
  70
    32
  0
VERTEX
  8
┌▓È_1
  5
4D9
 10
905.566
 20
-315.396
 30
0.000000
  70
    32
  0
VERTEX
  8
┌▓È_1
  5
4DA
 10
905.588
 20
-315.401
 30
0.000000
  70
    32
  0
VERTEX
  8
┌▓È_1
  5
4DB
 10
905.611
 20
-315.406
 30
0.000000
  70
    32
  0
VERTEX
  8
┌▓È_1
  5
4DC
 10
905.633
 20
-315.411
 30
0.000000
  70
    32
  0
VERTEX
  8
┌▓È_1
  5
4DD
 10
905.656
 20
-315.416
 30
0.000000
  70
    32
  0
VERTEX
  8
┌▓È_1
  5
4DE
 10
905.679
 20
-315.421
 30
0.000000
  70
    32
  0
VERTEX
  8
┌▓È_1
  5
4DF
 10
905.701
 20
-315.426
 30
0.000000
  70
    32
  0
VERTEX
  8
┌▓È_1
  5
4E0
 10
905.724
 20
-315.431
 30
0.000000
  70
    32
  0
VERTEX
  8
┌▓È_1
  5
4E1
 10
905.746
 20
-315.436
 30
0.000000
  70
    32
  0
VERTEX
  8
┌▓È_1
  5
4E2
 10
905.769
 20
-315.440
 30
0.000000
  70
    32
  0
VERTEX
  8
┌▓È_1
  5
4E3
 10
905.791
 20
-315.445
 30
0.000000
  70
    32
  0
VERTEX
  8
┌▓È_1
  5
4E4
 10
905.814
 20
-315.450
 30
0.000000
  70
    32
  0
VERTEX
  8
┌▓È_1
  5
4E5
 10
905.837
 20
-315.455
 30
0.000000
  70
    32
  0
VERTEX
  8
┌▓È_1
  5
4E6
 10
905.859
 20
-315.460
 30
0.000000
  70
    32
  0
VERTEX
  8
┌▓È_1
  5
4E7
 10
905.882
 20
-315.465
 30
0.000000
  70
    32
  0
VERTEX
  8
┌▓È_1
  5
4E8
 10
905.904
 20
-315.470
 30
0.000000
  70
    32
  0
VERTEX
  8
┌▓È_1
  5
4E9
 10
905.927
 20
-315.475
 30
0.000000
  70
    32
  0
VERTEX
  8
┌▓È_1
  5
4EA
 10
905.950
 20
-315.480
 30
0.000000
  70
    32
  0
VERTEX
  8
┌▓È_1
  5
4EB
 10
905.972
 20
-315.484
 30
0.000000
  70
    32
  0
VERTEX
  8
┌▓È_1
  5
4EC
 10
905.995
 20
-315.489
 30
0.000000
  70
    32
  0
VERTEX
  8
┌▓È_1
  5
4ED
 10
906.018
 20
-315.494
 30
0.000000
  70
    32
  0
VERTEX
  8
┌▓È_1
  5
4EE
 10
906.040
 20
-315.499
 30
0.000000
  70
    32
  0
VERTEX
  8
┌▓È_1
  5
4EF
 10
906.063
 20
-315.504
 30
0.000000
  70
    32
  0
VERTEX
  8
┌▓È_1
  5
4F0
 10
906.086
 20
-315.508
 30
0.000000
  70
    32
  0
VERTEX
  8
┌▓È_1
  5
4F1
 10
906.108
 20
-315.513
 30
0.000000
  70
    32
  0
VERTEX
  8
┌▓È_1
  5
4F2
 10
906.131
 20
-315.518
 30
0.000000
  70
    32
  0
VERTEX
  8
┌▓È_1
  5
4F3
 10
906.154
 20
-315.523
 30
0.000000
  70
    32
  0
VERTEX
  8
┌▓È_1
  5
4F4
 10
906.176
 20
-315.528
 30
0.000000
  70
    32
  0
VERTEX
  8
┌▓È_1
  5
4F5
 10
906.199
 20
-315.532
 30
0.000000
  70
    32
  0
VERTEX
  8
┌▓È_1
  5
4F6
 10
906.222
 20
-315.537
 30
0.000000
  70
    32
  0
VERTEX
  8
┌▓È_1
  5
4F7
 10
906.244
 20
-315.542
 30
0.000000
  70
    32
  0
VERTEX
  8
┌▓È_1
  5
4F8
 10
906.267
 20
-315.547
 30
0.000000
  70
    32
  0
VERTEX
  8
┌▓È_1
  5
4F9
 10
906.290
 20
-315.551
 30
0.000000
  70
    32
  0
VERTEX
  8
┌▓È_1
  5
4FA
 10
906.312
 20
-315.556
 30
0.000000
  70
    32
  0
VERTEX
  8
┌▓È_1
  5
4FB
 10
906.335
 20
-315.561
 30
0.000000
  70
    32
  0
VERTEX
  8
┌▓È_1
  5
4FC
 10
906.358
 20
-315.566
 30
0.000000
  70
    32
  0
VERTEX
  8
┌▓È_1
  5
4FD
 10
906.380
 20
-315.570
 30
0.000000
  70
    32
  0
VERTEX
  8
┌▓È_1
  5
4FE
 10
906.403
 20
-315.575
 30
0.000000
  70
    32
  0
VERTEX
  8
┌▓È_1
  5
4FF
 10
906.426
 20
-315.580
 30
0.000000
  70
    32
  0
VERTEX
  8
┌▓È_1
  5
500
 10
906.448
 20
-315.585
 30
0.000000
  70
    32
  0
VERTEX
  8
┌▓È_1
  5
501
 10
906.471
 20
-315.589
 30
0.000000
  70
    32
  0
VERTEX
  8
┌▓È_1
  5
502
 10
906.494
 20
-315.594
 30
0.000000
  70
    32
  0
VERTEX
  8
┌▓È_1
  5
503
 10
906.516
 20
-315.599
 30
0.000000
  70
    32
  0
VERTEX
  8
┌▓È_1
  5
504
 10
906.539
 20
-315.604
 30
0.000000
  70
    32
  0
VERTEX
  8
┌▓È_1
  5
505
 10
906.562
 20
-315.608
 30
0.000000
  70
    32
  0
VERTEX
  8
┌▓È_1
  5
506
 10
906.585
 20
-315.613
 30
0.000000
  70
    32
  0
VERTEX
  8
┌▓È_1
  5
507
 10
906.607
 20
-315.618
 30
0.000000
  70
    32
  0
VERTEX
  8
┌▓È_1
  5
508
 10
906.630
 20
-315.622
 30
0.000000
  70
    32
  0
VERTEX
  8
┌▓È_1
  5
509
 10
906.653
 20
-315.627
 30
0.000000
  70
    32
  0
SEQEND
  8
┌▓È_1
  5
50A
  0
POLYLINE
  8
┌▓È_1
  5
50B
  62
5
  66
     1
 10
0.000000
 20
0.000000
 30
0.000000
  70
     8
  0
VERTEX
  8
┌▓È_1
  5
50C
 10
902.200
 20
-312.337
 30
0.000000
  70
    32
  0
VERTEX
  8
┌▓È_1
  5
50D
 10
902.205
 20
-312.343
 30
0.000000
  70
    32
  0
VERTEX
  8
┌▓È_1
  5
50E
 10
902.211
 20
-312.349
 30
0.000000
  70
    32
  0
VERTEX
  8
┌▓È_1
  5
50F
 10
902.216
 20
-312.355
 30
0.000000
  70
    32
  0
VERTEX
  8
┌▓È_1
  5
510
 10
902.221
 20
-312.361
 30
0.000000
  70
    32
  0
VERTEX
  8
┌▓È_1
  5
511
 10
902.226
 20
-312.367
 30
0.000000
  70
    32
  0
VERTEX
  8
┌▓È_1
  5
512
 10
902.232
 20
-312.373
 30
0.000000
  70
    32
  0
VERTEX
  8
┌▓È_1
  5
513
 10
902.237
 20
-312.379
 30
0.000000
  70
    32
  0
VERTEX
  8
┌▓È_1
  5
514
 10
902.242
 20
-312.384
 30
0.000000
  70
    32
  0
VERTEX
  8
┌▓È_1
  5
515
 10
902.248
 20
-312.390
 30
0.000000
  70
    32
  0
VERTEX
  8
┌▓È_1
  5
516
 10
902.253
 20
-312.396
 30
0.000000
  70
    32
  0
VERTEX
  8
┌▓È_1
  5
517
 10
902.258
 20
-312.402
 30
0.000000
  70
    32
  0
VERTEX
  8
┌▓È_1
  5
518
 10
902.263
 20
-312.408
 30
0.000000
  70
    32
  0
VERTEX
  8
┌▓È_1
  5
519
 10
902.269
 20
-312.414
 30
0.000000
  70
    32
  0
VERTEX
  8
┌▓È_1
  5
51A
 10
902.274
 20
-312.420
 30
0.000000
  70
    32
  0
VERTEX
  8
┌▓È_1
  5
51B
 10
902.279
 20
-312.426
 30
0.000000
  70
    32
  0
VERTEX
  8
┌▓È_1
  5
51C
 10
902.285
 20
-312.431
 30
0.000000
  70
    32
  0
VERTEX
  8
┌▓È_1
  5
51D
 10
902.290
 20
-312.437
 30
0.000000
  70
    32
  0
VERTEX
  8
┌▓È_1
  5
51E
 10
902.295
 20
-312.443
 30
0.000000
  70
    32
  0
VERTEX
  8
┌▓È_1
  5
51F
 10
902.300
 20
-312.449
 30
0.000000
  70
    32
  0
VERTEX
  8
┌▓È_1
  5
520
 10
902.306
 20
-312.455
 30
0.000000
  70
    32
  0
VERTEX
  8
┌▓È_1
  5
521
 10
902.311
 20
-312.461
 30
0.000000
  70
    32
  0
VERTEX
  8
┌▓È_1
  5
522
 10
902.316
 20
-312.467
 30
0.000000
  70
    32
  0
VERTEX
  8
┌▓È_1
  5
523
 10
902.322
 20
-312.473
 30
0.000000
  70
    32
  0
VERTEX
  8
┌▓È_1
  5
524
 10
902.327
 20
-312.478
 30
0.000000
  70
    32
  0
VERTEX
  8
┌▓È_1
  5
525
 10
902.332
 20
-312.484
 30
0.000000
  70
    32
  0
VERTEX
  8
┌▓È_1
  5
526
 10
902.337
 20
-312.490
 30
0.000000
  70
    32
  0
VERTEX
  8
┌▓È_1
  5
527
 10
902.343
 20
-312.496
 30
0.000000
  70
    32
  0
VERTEX
  8
┌▓È_1
  5
528
 10
902.348
 20
-312.502
 30
0.000000
  70
    32
  0
VERTEX
  8
┌▓È_1
  5
529
 10
902.353
 20
-312.508
 30
0.000000
  70
    32
  0
VERTEX
  8
┌▓È_1
  5
52A
 10
902.359
 20
-312.514
 30
0.000000
  70
    32
  0
VERTEX
  8
┌▓È_1
  5
52B
 10
902.364
 20
-312.519
 30
0.000000
  70
    32
  0
VERTEX
  8
┌▓È_1
  5
52C
 10
902.369
 20
-312.525
 30
0.000000
  70
    32
  0
VERTEX
  8
┌▓È_1
  5
52D
 10
902.375
 20
-312.531
 30
0.000000
  70
    32
  0
VERTEX
  8
┌▓È_1
  5
52E
 10
902.380
 20
-312.537
 30
0.000000
  70
    32
  0
VERTEX
  8
┌▓È_1
  5
52F
 10
902.385
 20
-312.543
 30
0.000000
  70
    32
  0
VERTEX
  8
┌▓È_1
  5
530
 10
902.391
 20
-312.549
 30
0.000000
  70
    32
  0
VERTEX
  8
┌▓È_1
  5
531
 10
902.396
 20
-312.554
 30
0.000000
  70
    32
  0
VERTEX
  8
┌▓È_1
  5
532
 10
902.401
 20
-312.560
 30
0.000000
  70
    32
  0
VERTEX
  8
┌▓È_1
  5
533
 10
902.407
 20
-312.566
 30
0.000000
  70
    32
  0
VERTEX
  8
┌▓È_1
  5
534
 10
902.412
 20
-312.572
 30
0.000000
  70
    32
  0
VERTEX
  8
┌▓È_1
  5
535
 10
902.417
 20
-312.578
 30
0.000000
  70
    32
  0
VERTEX
  8
┌▓È_1
  5
536
 10
902.422
 20
-312.584
 30
0.000000
  70
    32
  0
VERTEX
  8
┌▓È_1
  5
537
 10
902.428
 20
-312.589
 30
0.000000
  70
    32
  0
VERTEX
  8
┌▓È_1
  5
538
 10
902.433
 20
-312.595
 30
0.000000
  70
    32
  0
VERTEX
  8
┌▓È_1
  5
539
 10
902.438
 20
-312.601
 30
0.000000
  70
    32
  0
VERTEX
  8
┌▓È_1
  5
53A
 10
902.444
 20
-312.607
 30
0.000000
  70
    32
  0
VERTEX
  8
┌▓È_1
  5
53B
 10
902.449
 20
-312.613
 30
0.000000
  70
    32
  0
VERTEX
  8
┌▓È_1
  5
53C
 10
902.454
 20
-312.618
 30
0.000000
  70
    32
  0
VERTEX
  8
┌▓È_1
  5
53D
 10
902.460
 20
-312.624
 30
0.000000
  70
    32
  0
VERTEX
  8
┌▓È_1
  5
53E
 10
902.465
 20
-312.630
 30
0.000000
  70
    32
  0
VERTEX
  8
┌▓È_1
  5
53F
 10
902.471
 20
-312.636
 30
0.000000
  70
    32
  0
VERTEX
  8
┌▓È_1
  5
540
 10
902.476
 20
-312.641
 30
0.000000
  70
    32
  0
VERTEX
  8
┌▓È_1
  5
541
 10
902.481
 20
-312.647
 30
0.000000
  70
    32
  0
VERTEX
  8
┌▓È_1
  5
542
 10
902.487
 20
-312.653
 30
0.000000
  70
    32
  0
VERTEX
  8
┌▓È_1
  5
543
 10
902.492
 20
-312.659
 30
0.000000
  70
    32
  0
VERTEX
  8
┌▓È_1
  5
544
 10
902.497
 20
-312.664
 30
0.000000
  70
    32
  0
VERTEX
  8
┌▓È_1
  5
545
 10
902.503
 20
-312.670
 30
0.000000
  70
    32
  0
VERTEX
  8
┌▓È_1
  5
546
 10
902.508
 20
-312.676
 30
0.000000
  70
    32
  0
VERTEX
  8
┌▓È_1
  5
547
 10
902.513
 20
-312.682
 30
0.000000
  70
    32
  0
VERTEX
  8
┌▓È_1
  5
548
 10
902.519
 20
-312.687
 30
0.000000
  70
    32
  0
VERTEX
  8
┌▓È_1
  5
549
 10
902.524
 20
-312.693
 30
0.000000
  70
    32
  0
VERTEX
  8
┌▓È_1
  5
54A
 10
902.530
 20
-312.699
 30
0.000000
  70
    32
  0
VERTEX
  8
┌▓È_1
  5
54B
 10
902.535
 20
-312.705
 30
0.000000
  70
    32
  0
VERTEX
  8
┌▓È_1
  5
54C
 10
902.540
 20
-312.710
 30
0.000000
  70
    32
  0
VERTEX
  8
┌▓È_1
  5
54D
 10
902.546
 20
-312.716
 30
0.000000
  70
    32
  0
VERTEX
  8
┌▓È_1
  5
54E
 10
902.551
 20
-312.722
 30
0.000000
  70
    32
  0
VERTEX
  8
┌▓È_1
  5
54F
 10
902.557
 20
-312.727
 30
0.000000
  70
    32
  0
VERTEX
  8
┌▓È_1
  5
550
 10
902.562
 20
-312.733
 30
0.000000
  70
    32
  0
VERTEX
  8
┌▓È_1
  5
551
 10
902.567
 20
-312.739
 30
0.000000
  70
    32
  0
VERTEX
  8
┌▓È_1
  5
552
 10
902.573
 20
-312.744
 30
0.000000
  70
    32
  0
VERTEX
  8
┌▓È_1
  5
553
 10
902.578
 20
-312.750
 30
0.000000
  70
    32
  0
VERTEX
  8
┌▓È_1
  5
554
 10
902.584
 20
-312.756
 30
0.000000
  70
    32
  0
VERTEX
  8
┌▓È_1
  5
555
 10
902.589
 20
-312.761
 30
0.000000
  70
    32
  0
VERTEX
  8
┌▓È_1
  5
556
 10
902.594
 20
-312.767
 30
0.000000
  70
    32
  0
VERTEX
  8
┌▓È_1
  5
557
 10
902.600
 20
-312.773
 30
0.000000
  70
    32
  0
VERTEX
  8
┌▓È_1
  5
558
 10
902.605
 20
-312.778
 30
0.000000
  70
    32
  0
VERTEX
  8
┌▓È_1
  5
559
 10
902.611
 20
-312.784
 30
0.000000
  70
    32
  0
VERTEX
  8
┌▓È_1
  5
55A
 10
902.616
 20
-312.790
 30
0.000000
  70
    32
  0
VERTEX
  8
┌▓È_1
  5
55B
 10
902.622
 20
-312.795
 30
0.000000
  70
    32
  0
VERTEX
  8
┌▓È_1
  5
55C
 10
902.627
 20
-312.801
 30
0.000000
  70
    32
  0
VERTEX
  8
┌▓È_1
  5
55D
 10
902.633
 20
-312.806
 30
0.000000
  70
    32
  0
VERTEX
  8
┌▓È_1
  5
55E
 10
902.638
 20
-312.812
 30
0.000000
  70
    32
  0
VERTEX
  8
┌▓È_1
  5
55F
 10
902.643
 20
-312.818
 30
0.000000
  70
    32
  0
VERTEX
  8
┌▓È_1
  5
560
 10
902.649
 20
-312.823
 30
0.000000
  70
    32
  0
VERTEX
  8
┌▓È_1
  5
561
 10
902.654
 20
-312.829
 30
0.000000
  70
    32
  0
VERTEX
  8
┌▓È_1
  5
562
 10
902.660
 20
-312.834
 30
0.000000
  70
    32
  0
VERTEX
  8
┌▓È_1
  5
563
 10
902.665
 20
-312.840
 30
0.000000
  70
    32
  0
VERTEX
  8
┌▓È_1
  5
564
 10
902.671
 20
-312.845
 30
0.000000
  70
    32
  0
VERTEX
  8
┌▓È_1
  5
565
 10
902.676
 20
-312.851
 30
0.000000
  70
    32
  0
VERTEX
  8
┌▓È_1
  5
566
 10
902.682
 20
-312.856
 30
0.000000
  70
    32
  0
VERTEX
  8
┌▓È_1
  5
567
 10
902.687
 20
-312.862
 30
0.000000
  70
    32
  0
VERTEX
  8
┌▓È_1
  5
568
 10
902.693
 20
-312.868
 30
0.000000
  70
    32
  0
VERTEX
  8
┌▓È_1
  5
569
 10
902.698
 20
-312.873
 30
0.000000
  70
    32
  0
VERTEX
  8
┌▓È_1
  5
56A
 10
902.704
 20
-312.879
 30
0.000000
  70
    32
  0
VERTEX
  8
┌▓È_1
  5
56B
 10
902.709
 20
-312.884
 30
0.000000
  70
    32
  0
VERTEX
  8
┌▓È_1
  5
56C
 10
902.715
 20
-312.890
 30
0.000000
  70
    32
  0
VERTEX
  8
┌▓È_1
  5
56D
 10
902.720
 20
-312.895
 30
0.000000
  70
    32
  0
VERTEX
  8
┌▓È_1
  5
56E
 10
902.726
 20
-312.900
 30
0.000000
  70
    32
  0
VERTEX
  8
┌▓È_1
  5
56F
 10
902.732
 20
-312.906
 30
0.000000
  70
    32
  0
VERTEX
  8
┌▓È_1
  5
570
 10
902.737
 20
-312.911
 30
0.000000
  70
    32
  0
VERTEX
  8
┌▓È_1
  5
571
 10
902.743
 20
-312.917
 30
0.000000
  70
    32
  0
VERTEX
  8
┌▓È_1
  5
572
 10
902.748
 20
-312.922
 30
0.000000
  70
    32
  0
VERTEX
  8
┌▓È_1
  5
573
 10
902.754
 20
-312.928
 30
0.000000
  70
    32
  0
VERTEX
  8
┌▓È_1
  5
574
 10
902.759
 20
-312.933
 30
0.000000
  70
    32
  0
VERTEX
  8
┌▓È_1
  5
575
 10
902.765
 20
-312.939
 30
0.000000
  70
    32
  0
VERTEX
  8
┌▓È_1
  5
576
 10
902.771
 20
-312.944
 30
0.000000
  70
    32
  0
VERTEX
  8
┌▓È_1
  5
577
 10
902.776
 20
-312.949
 30
0.000000
  70
    32
  0
VERTEX
  8
┌▓È_1
  5
578
 10
902.782
 20
-312.955
 30
0.000000
  70
    32
  0
VERTEX
  8
┌▓È_1
  5
579
 10
902.787
 20
-312.960
 30
0.000000
  70
    32
  0
VERTEX
  8
┌▓È_1
  5
57A
 10
902.793
 20
-312.965
 30
0.000000
  70
    32
  0
VERTEX
  8
┌▓È_1
  5
57B
 10
902.799
 20
-312.971
 30
0.000000
  70
    32
  0
VERTEX
  8
┌▓È_1
  5
57C
 10
902.804
 20
-312.976
 30
0.000000
  70
    32
  0
VERTEX
  8
┌▓È_1
  5
57D
 10
902.810
 20
-312.981
 30
0.000000
  70
    32
  0
VERTEX
  8
┌▓È_1
  5
57E
 10
902.815
 20
-312.987
 30
0.000000
  70
    32
  0
VERTEX
  8
┌▓È_1
  5
57F
 10
902.821
 20
-312.992
 30
0.000000
  70
    32
  0
VERTEX
  8
┌▓È_1
  5
580
 10
902.827
 20
-312.997
 30
0.000000
  70
    32
  0
VERTEX
  8
┌▓È_1
  5
581
 10
902.832
 20
-313.003
 30
0.000000
  70
    32
  0
VERTEX
  8
┌▓È_1
  5
582
 10
902.838
 20
-313.008
 30
0.000000
  70
    32
  0
VERTEX
  8
┌▓È_1
  5
583
 10
902.844
 20
-313.013
 30
0.000000
  70
    32
  0
VERTEX
  8
┌▓È_1
  5
584
 10
902.849
 20
-313.018
 30
0.000000
  70
    32
  0
VERTEX
  8
┌▓È_1
  5
585
 10
902.855
 20
-313.024
 30
0.000000
  70
    32
  0
VERTEX
  8
┌▓È_1
  5
586
 10
902.861
 20
-313.029
 30
0.000000
  70
    32
  0
VERTEX
  8
┌▓È_1
  5
587
 10
902.866
 20
-313.034
 30
0.000000
  70
    32
  0
VERTEX
  8
┌▓È_1
  5
588
 10
902.872
 20
-313.039
 30
0.000000
  70
    32
  0
VERTEX
  8
┌▓È_1
  5
589
 10
902.878
 20
-313.045
 30
0.000000
  70
    32
  0
VERTEX
  8
┌▓È_1
  5
58A
 10
902.883
 20
-313.050
 30
0.000000
  70
    32
  0
VERTEX
  8
┌▓È_1
  5
58B
 10
902.889
 20
-313.055
 30
0.000000
  70
    32
  0
SEQEND
  8
┌▓È_1
  5
58C
  0
LINE
  5
2E8
  8
┌▓È_1
 62
     5
 10
701.32692747789986
 20
-127.1552681539
 30
0.0
 11
976.32692747789997
 21
-127.1552681539
 31
0.0
  0
LINE
  5
2E9
  8
┌▓È_1
 62
     5
 10
890.52412884390003
 20
-312.82712978040001
 30
0.0
 11
890.40324579469996
 21
-312.82712978040001
 31
0.0
  0
LINE
  5
2EA
  8
┌▓È_1
 62
     5
 10
890.52412884390003
 20
-314.42712978039998
 30
0.0
 11
890.52412884390003
 21
-315.62712978040003
 31
0.0
  0
LINE
  5
2EB
  8
┌▓È_1
 62
     5
 10
913.28992200949995
 20
-313.4671297804
 30
0.0
 11
913.10575255920003
 21
-312.82712978040001
 31
0.0
  0
LINE
  5
2EC
  8
┌▓È_1
 62
     5
 10
911.78659981100009
 20
-316.0271297804
 30
0.0
 11
911.45806647770007
 21
-314.9071297804
 31
0.0
  0
LINE
  5
2ED
  8
┌▓È_1
 62
     5
 10
892.92412884390001
 20
-314.42712978039998
 30
0.0
 11
890.52412884390003
 21
-314.42712978039998
 31
0.0
  0
LINE
  5
2EE
  8
┌▓È_1
 62
     5
 10
899.45261369240006
 20
-311.4671297804
 30
0.0
 11
903.45261369239995
 21
-311.4671297804
 31
0.0
  0
LINE
  5
2EF
  8
┌▓È_1
 62
     5
 10
915.62659981099989
 20
-311.38712978040002
 30
0.0
 11
915.62659981099989
 21
-312.82712978040001
 31
0.0
  0
LINE
  5
2F0
  8
┌▓È_1
 10
904.32692747789986
 20
-295.90526815390001
 30
0.0
 11
920.32692747789997
 21
-295.90526815390001
 31
0.0
  0
LINE
  5
2F1
  8
┌▓È_1
 10
920.32692747789997
 20
-300.15526815390001
 30
0.0
 11
976.32692747789997
 21
-300.15526815390001
 31
0.0
  0
LINE
  5
2F2
  8
┌▓È_1
 10
856.32692747789986
 20
-300.15526815390001
 30
0.0
 11
904.32692747789986
 21
-300.15526815390001
 31
0.0
  0
INSERT
  5
2F3
  8
0
  6
CONTINUOUS
  2
*U41
 10
0.0
 20
0.0
 30
0.0
  0
INSERT
  5
2F4
  8
0
  6
CONTINUOUS
  2
*U42
 10
0.0
 20
0.0
 30
0.0
  0
INSERT
  5
2F5
  8
0
  6
CONTINUOUS
  2
*U43
 10
0.0
 20
0.0
 30
0.0
  0
INSERT
  5
2F6
  8
0
  6
CONTINUOUS
  2
*U44
 10
0.0
 20
0.0
 30
0.0
  0
INSERT
  5
2F7
  8
0
  6
CONTINUOUS
  2
*U45
 10
0.0
 20
0.0
 30
0.0
  0
INSERT
  5
2F8
  8
0
  6
CONTINUOUS
  2
*U46
 10
0.0
 20
0.0
 30
0.0
  0
INSERT
  5
2F9
  8
0
  6
CONTINUOUS
  2
*U47
 10
0.0
 20
0.0
 30
0.0
  0
INSERT
  5
2FA
  8
0
  6
CONTINUOUS
  2
*U48
 10
0.0
 20
0.0
 30
0.0
  0
INSERT
  5
2FB
  8
0
  6
CONTINUOUS
  2
*U49
 10
0.0
 20
0.0
 30
0.0
  0
INSERT
  5
2FC
  8
0
  6
CONTINUOUS
  2
*U50
 10
0.0
 20
0.0
 30
0.0
  0
ENDSEC
  0
EOF
