  0
SECTION
  2
HEADER
  9
$ACADVER
  1
AC1009
  9
$INSBASE
 10
0.0
 20
0.0
 30
0.0
  9
$EXTMIN
 10
334.0859375
 20
-568.35364583329999
 30
0.0
  9
$EXTMAX
 10
1334.0859375
 20
131.64635416670001
 30
0.0
  9
$LIMMIN
 10
0.0
 20
0.0
  9
$LIMMAX
 10
0.0
 20
0.0
  9
$ORTHOMODE
 70
     0
  9
$REGENMODE
 70
     1
  9
$FILLMODE
 70
     1
  9
$QTEXTMODE
 70
     0
  9
$MIRRTEXT
 70
     1
  9
$DRAGMODE
 70
     2
  9
$LTSCALE
 40
1.0
  9
$OSMODE
 70
    31
  9
$ATTMODE
 70
     1
  9
$TEXTSIZE
 40
0.0
  9
$TRACEWID
 40
0.05
  9
$TEXTSTYLE
  7
STANDARD
  9
$CLAYER
  8
0
  9
$CELTYPE
  6
CONTINUOUS
  9
$CECOLOR
 62
   256
  9
$DIMSCALE
 40
1.0
  9
$DIMASZ
 40
0.18
  9
$DIMEXO
 40
0.0625
  9
$DIMDLI
 40
0.38
  9
$DIMRND
 40
0.0
  9
$DIMDLE
 40
0.0
  9
$DIMEXE
 40
0.18
  9
$DIMTP
 40
0.0
  9
$DIMTM
 40
0.0
  9
$DIMTXT
 40
0.18
  9
$DIMCEN
 40
0.09
  9
$DIMTSZ
 40
0.0
  9
$DIMTOL
 70
     0
  9
$DIMLIM
 70
     0
  9
$DIMTIH
 70
     1
  9
$DIMTOH
 70
     1
  9
$DIMSE1
 70
     0
  9
$DIMSE2
 70
     0
  9
$DIMTAD
 70
     0
  9
$DIMZIN
 70
     0
  9
$DIMBLK
  1

  9
$DIMASO
 70
     1
  9
$DIMSHO
 70
     1
  9
$DIMPOST
  1

  9
$DIMAPOST
  1

  9
$DIMALT
 70
     0
  9
$DIMALTD
 70
     2
  9
$DIMALTF
 40
25.399999999999999
  9
$DIMLFAC
 40
1.0
  9
$DIMTOFL
 70
     0
  9
$DIMTVP
 40
0.0
  9
$DIMTIX
 70
     0
  9
$DIMSOXD
 70
     0
  9
$DIMSAH
 70
     0
  9
$DIMBLK1
  1

  9
$DIMBLK2
  1

  9
$DIMSTYLE
  2
STANDARD
  9
$DIMCLRD
 70
     0
  9
$DIMCLRE
 70
     0
  9
$DIMCLRT
 70
     0
  9
$DIMTFAC
 40
1.0
  9
$DIMGAP
 40
0.09
  9
$LUNITS
 70
     2
  9
$LUPREC
 70
     4
  9
$SKETCHINC
 40
0.1
  9
$FILLETRAD
 40
0.0
  9
$AUNITS
 70
     0
  9
$AUPREC
 70
     0
  9
$MENU
  1
acad
  9
$ELEVATION
 40
0.0
  9
$PELEVATION
 40
0.0
  9
$THICKNESS
 40
0.0
  9
$LIMCHECK
 70
     0
  9
$BLIPMODE
 70
     0
  9
$CHAMFERA
 40
0.0
  9
$CHAMFERB
 40
0.0
  9
$SKPOLY
 70
     0
  9
$TDCREATE
 40
2454862.4549196991
  9
$TDUPDATE
 40
2454862.4550956599
  9
$TDINDWG
 40
0.0001846528
  9
$TDUSRTIMER
 40
0.0001842824
  9
$USRTIMER
 70
     1
  9
$ANGBASE
 50
0.0
  9
$ANGDIR
 70
     0
  9
$PDMODE
 70
     3
  9
$PDSIZE
 40
-1.0
  9
$PLINEWID
 40
0.0
  9
$COORDS
 70
     2
  9
$SPLFRAME
 70
     0
  9
$SPLINETYPE
 70
     6
  9
$SPLINESEGS
 70
     8
  9
$ATTDIA
 70
     0
  9
$ATTREQ
 70
     1
  9
$HANDLING
 70
     1
  9
$HANDSEED
  5
5D6
  9
$SURFTAB1
 70
     6
  9
$SURFTAB2
 70
     6
  9
$SURFTYPE
 70
     6
  9
$SURFU
 70
     6
  9
$SURFV
 70
     6
  9
$UCSNAME
  2

  9
$UCSORG
 10
0.0
 20
0.0
 30
0.0
  9
$UCSXDIR
 10
1.0
 20
0.0
 30
0.0
  9
$UCSYDIR
 10
0.0
 20
1.0
 30
0.0
  9
$PUCSNAME
  2

  9
$PUCSORG
 10
0.0
 20
0.0
 30
0.0
  9
$PUCSXDIR
 10
1.0
 20
0.0
 30
0.0
  9
$PUCSYDIR
 10
0.0
 20
1.0
 30
0.0
  9
$USERI1
 70
     0
  9
$USERI2
 70
     0
  9
$USERI3
 70
     0
  9
$USERI4
 70
     0
  9
$USERI5
 70
     0
  9
$USERR1
 40
0.0
  9
$USERR2
 40
0.0
  9
$USERR3
 40
0.0
  9
$USERR4
 40
0.0
  9
$USERR5
 40
0.0
  9
$WORLDVIEW
 70
     1
  9
$SHADEDGE
 70
     3
  9
$SHADEDIF
 70
    70
  9
$TILEMODE
 70
     1
  9
$MAXACTVP
 70
    16
  9
$PLIMCHECK
 70
     0
  9
$PEXTMIN
 10
1.0000000000000000E+020
 20
1.0000000000000000E+020
 30
1.0000000000000000E+020
  9
$PEXTMAX
 10
-1.0000000000000000E+020
 20
-1.0000000000000000E+020
 30
-1.0000000000000000E+020
  9
$PLIMMIN
 10
0.0
 20
0.0
  9
$PLIMMAX
 10
12.0
 20
9.0
  9
$UNITMODE
 70
     0
  9
$VISRETAIN
 70
     0
  9
$PLINEGEN
 70
     1
  9
$PSLTSCALE
 70
     0
  0
ENDSEC
  0
SECTION
  2
TABLES
  0
TABLE
  2
VPORT
 70
     2
  0
VPORT
  2
*ACTIVE
 70
     0
 10
0.0
 20
0.0
 11
1.0
 21
1.0
 12
834.0859375
 22
-218.35364583329999
 13
0.0
 23
0.0
 14
1.0
 24
1.0
 15
0.0
 25
0.0
 16
0.0
 26
0.0
 36
1.0
 17
0.0
 27
0.0
 37
0.0
 40
705.80912863070535
 41
1.6343490304709141
 42
50.0
 43
0.0
 44
0.0
 50
0.0
 51
0.0
 71
     0
 72
   100
 73
     1
 74
     1
 75
     0
 76
     0
 77
     0
 78
     0
  0
ENDTAB
  0
TABLE
  2
LTYPE
 70
    11
  0
LTYPE
  2
CONTINUOUS
 70
     0
  3
Solid line
 72
    65
 73
     0
 40
0.0
  0
LTYPE
  2
DOT
 70
     0
  3
. . . . . . . . 
 72
    65
 73
     2
 40
1.0
 49
0.0
 49
-1.0
  0
LTYPE
  2
DASHED
 70
     0
  3
___  ___  ___  ___  
 72
    65
 73
     2
 40
4.0
 49
3.0
 49
-1.0
  0
LTYPE
  2
HIDDEN
 70
     0
  3
__ __ __ __ 
 72
    65
 73
     2
 40
3.0
 49
2.0
 49
-1.0
  0
LTYPE
  2
STITCH
 70
     0
  3
_ _ _ _ 
 72
    65
 73
     2
 40
2.0
 49
1.0
 49
-1.0
  0
LTYPE
  2
CENTER
 70
     0
  3
______  __  ______  __  
 72
    65
 73
     4
 40
43.0
 49
40.0
 49
-1.0
 49
1.0
 49
-1.0
  0
LTYPE
  2
DASHDOT
 70
     0
  3
____ . ____ . 
 72
    65
 73
     4
 40
32.0
 49
30.0
 49
-1.0
 49
0.0
 49
-1.0
  0
LTYPE
  2
BORDER
 70
     0
  3
__ . __ . 
 72
    65
 73
     4
 40
22.0
 49
20.0
 49
-1.0
 49
0.0
 49
-1.0
  0
LTYPE
  2
CUTTING
 70
     0
  3
________   ___   ___   
 72
    65
 73
     6
 40
45.0
 49
40.0
 49
-1.0
 49
1.0
 49
-1.0
 49
1.0
 49
-1.0
  0
LTYPE
  2
PHANTOM
 70
     0
  3
______  __  __  
 72
    65
 73
     6
 40
35.0
 49
30.0
 49
-1.0
 49
1.0
 49
-1.0
 49
1.0
 49
-1.0
  0
LTYPE
  2
DIVIDE
 70
     0
  3
____ . . ____ . . 
 72
    65
 73
     6
 40
23.0
 49
20.0
 49
-1.0
 49
0.0
 49
-1.0
 49
0.0
 49
-1.0
  0
ENDTAB
  0
TABLE
  2
LAYER
 70
     3
  0
LAYER
  2
0
 70
     0
 62
     7
  6
CONTINUOUS
  0
LAYER
  2
┌▓È_1
 70
     0
 62
     7
  6
CONTINUOUS
  0
LAYER
  2
Éíû@É³
 70
     0
 62
     7
  6
CONTINUOUS
  0
ENDTAB
  0
TABLE
  2
STYLE
 70
     1
  0
STYLE
  2
STANDARD
 70
     0
 40
0.0
 41
1.0
 50
0.0
 71
     0
 42
0.0
  3
txt
  4
extfont
  0
ENDTAB
  0
TABLE
  2
VIEW
 70
     0
  0
ENDTAB
  0
TABLE
  2
UCS
 70
     0
  0
ENDTAB
  0
TABLE
  2
APPID
 70
     2
  0
APPID
  2
ACAD
 70
     0
  0
APPID
  2
DCO15
 70
     0
  0
ENDTAB
  0
TABLE
  2
DIMSTYLE
 70
     3
  0
DIMSTYLE
  2
STANDARD
 70
     0
  3

  4

  5

  6

  7

 40
1.0
 41
0.18
 42
0.0625
 43
0.38
 44
0.18
 45
0.0
 46
0.0
 47
0.0
 48
0.0
140
0.18
141
0.09
142
0.0
143
25.399999999999999
144
1.0
145
0.0
146
1.0
147
0.09
 71
     0
 72
     0
 73
     1
 74
     1
 75
     0
 76
     0
 77
     0
 78
     0
170
     0
171
     2
172
     0
173
     0
174
     0
175
     0
176
     0
177
     0
178
     0
  0
DIMSTYLE
  2
VELDIM0
 70
     0
  3

  4

  5

  6

  7

 40
1.0
 41
7.5
 42
0.0625
 43
0.38
 44
0.5
 45
0.0
 46
3.0
 47
0.0
 48
0.0
140
7.4965279578999988
141
0.09
142
0.0
143
25.399999999999999
144
1.0
145
0.0
146
1.0
147
0.09
 71
     0
 72
     0
 73
     0
 74
     0
 75
     0
 76
     0
 77
     0
 78
     8
170
     0
171
     2
172
     0
173
     0
174
     0
175
     0
176
     0
177
     0
178
     0
  0
DIMSTYLE
  2
VELDIM1
 70
     0
  3

  4

  5

  6

  7

 40
1.0
 41
7.5
 42
0.0625
 43
0.38
 44
1.25
 45
0.0
 46
5.0
 47
0.0
 48
0.0
140
7.4965279578999988
141
0.09
142
0.0
143
25.399999999999999
144
1.0
145
0.0
146
1.0
147
0.09
 71
     0
 72
     0
 73
     0
 74
     0
 75
     0
 76
     0
 77
     0
 78
     8
170
     0
171
     2
172
     0
173
     0
174
     0
175
     0
176
     0
177
     0
178
     0
  0
ENDTAB
  0
ENDSEC
  0
SECTION
  2
BLOCKS
  0
BLOCK
  8
0
  2
$MODEL_SPACE
 70
     0
 10
0.0
 20
0.0
 30
0.0
  3
$MODEL_SPACE
  1

  0
ENDBLK
  5
E
  8
0
  0
BLOCK
 67
     1
  8
0
  2
$PAPER_SPACE
 70
     0
 10
0.0
 20
0.0
 30
0.0
  3
$PAPER_SPACE
  1

  0
ENDBLK
  5
10
 67
     1
  8
0
  0
BLOCK
  8
0
  2
*D0
 70
     1
 10
0.0
 20
0.0
 30
0.0
  3
*D0
  1

  0
TEXT
  5
3C
  8
0
 62
     0
 10
428.16820166909997
 20
-194.6080027104
 30
0.0
 40
7.4965279578999988
  1
323
 50
90.0
  0
LINE
  5
3D
  8
0
 62
     0
 10
487.02610677080003
 20
-26.4934192182
 30
0.0
 11
429.99111836750001
 21
-26.4934192182
 31
0.0
  0
LINE
  5
3E
  8
0
 62
     0
 10
487.02610677080003
 20
-349.49341921820002
 30
0.0
 11
429.99111836750001
 21
-349.49341921820002
 31
0.0
  0
LINE
  5
3F
  8
0
 62
     0
 10
430.49111836750001
 20
-26.4934192182
 30
0.0
 11
430.49111836750001
 21
-176.9691133977
 31
0.0
  0
LINE
  5
40
  8
0
 62
     0
 10
430.49111836750001
 20
-26.4934192182
 30
0.0
 11
430.49111836750001
 21
-199.01772503859999
 31
0.0
  0
LINE
  5
41
  8
0
 62
     0
 10
430.49111836750001
 20
-349.49341921820002
 30
0.0
 11
430.49111836750001
 21
-176.9691133977
 31
0.0
  0
LINE
  5
42
  8
0
 62
     0
 10
430.49111836750001
 20
-349.49341921820002
 30
0.0
 11
430.49111836750001
 21
-199.01772503859999
 31
0.0
  0
LINE
  5
43
  8
0
 62
     0
 10
430.49111836750001
 20
-349.49341921820002
 30
0.0
 11
430.49111836750001
 21
-346.49341921820002
 31
0.0
  0
SOLID
  5
44
  8
0
 62
     0
 10
430.49111836750001
 20
-349.49341921820002
 30
0.0
 11
428.61611836750001
 21
-341.99341921820002
 31
0.0
 12
432.36611836750001
 22
-341.99341921820002
 32
0.0
 13
430.49111836750001
 23
-343.86841921820002
 33
0.0
  0
LINE
  5
45
  8
0
 62
     0
 10
430.49111836750001
 20
-26.4934192182
 30
0.0
 11
430.49111836750001
 21
-29.4934192182
 31
0.0
  0
SOLID
  5
46
  8
0
 62
     0
 10
430.49111836750001
 20
-26.4934192182
 30
0.0
 11
432.36611836750001
 21
-33.993419218200003
 31
0.0
 12
428.61611836750001
 22
-33.993419218200003
 32
0.0
 13
430.49111836750001
 23
-32.118419218200003
 33
0.0
  0
ENDBLK
  5
47
  8
0
  0
BLOCK
  8
0
  2
*D1
 70
     1
 10
0.0
 20
0.0
 30
0.0
  3
*D1
  1

  0
TEXT
  5
4C
  8
0
 62
     0
 10
460.70319007239999
 20
-259.1080027104
 30
0.0
 40
7.4965279578999988
  1
130
 50
90.0
  0
LINE
  5
4D
  8
0
 62
     0
 10
493.02610677080003
 20
-187.49341921819999
 30
0.0
 11
462.52610677080003
 21
-187.49341921819999
 31
0.0
  0
LINE
  5
4E
  8
0
 62
     0
 10
493.02610677080003
 20
-317.49341921820002
 30
0.0
 11
462.52610677080003
 21
-317.49341921820002
 31
0.0
  0
LINE
  5
4F
  8
0
 62
     0
 10
463.02610677080003
 20
-187.49341921819999
 30
0.0
 11
463.02610677080003
 21
-241.4691133977
 31
0.0
  0
LINE
  5
50
  8
0
 62
     0
 10
463.02610677080003
 20
-187.49341921819999
 30
0.0
 11
463.02610677080003
 21
-263.51772503860002
 31
0.0
  0
LINE
  5
51
  8
0
 62
     0
 10
463.02610677080003
 20
-317.49341921820002
 30
0.0
 11
463.02610677080003
 21
-241.4691133977
 31
0.0
  0
LINE
  5
52
  8
0
 62
     0
 10
463.02610677080003
 20
-317.49341921820002
 30
0.0
 11
463.02610677080003
 21
-263.51772503860002
 31
0.0
  0
LINE
  5
53
  8
0
 62
     0
 10
463.02610677080003
 20
-317.49341921820002
 30
0.0
 11
463.02610677080003
 21
-314.49341921820002
 31
0.0
  0
SOLID
  5
54
  8
0
 62
     0
 10
463.02610677080003
 20
-317.49341921820002
 30
0.0
 11
461.15110677080003
 21
-309.99341921820002
 31
0.0
 12
464.90110677080003
 22
-309.99341921820002
 32
0.0
 13
463.02610677080003
 23
-311.86841921820002
 33
0.0
  0
LINE
  5
55
  8
0
 62
     0
 10
463.02610677080003
 20
-187.49341921819999
 30
0.0
 11
463.02610677080003
 21
-190.49341921819999
 31
0.0
  0
SOLID
  5
56
  8
0
 62
     0
 10
463.02610677080003
 20
-187.49341921819999
 30
0.0
 11
464.90110677080003
 21
-194.99341921819999
 31
0.0
 12
461.15110677080003
 22
-194.99341921819999
 32
0.0
 13
463.02610677080003
 23
-193.11841921819999
 33
0.0
  0
ENDBLK
  5
57
  8
0
  0
BLOCK
  8
0
  2
*D2
 70
     1
 10
0.0
 20
0.0
 30
0.0
  3
*D2
  1

  0
TEXT
  5
6C
  8
0
 62
     0
 10
1180.3138671557001
 20
-194.10728842329999
 30
0.0
 40
7.4965279578999988
  1
326
 50
90.0
  0
LINE
  5
6D
  8
0
 62
     0
 10
1139.5890244801999
 20
-350.49270493099999
 30
0.0
 11
1183.1367838542001
 21
-350.49270493099999
 31
0.0
  0
LINE
  5
6E
  8
0
 62
     0
 10
1138.9890244802
 20
-24.492704930999999
 30
0.0
 11
1183.1367838542001
 21
-24.492704930999999
 31
0.0
  0
LINE
  5
6F
  8
0
 62
     0
 10
1182.6367838542001
 20
-350.49270493099999
 30
0.0
 11
1182.6367838542001
 21
-176.4683991105
 31
0.0
  0
LINE
  5
70
  8
0
 62
     0
 10
1182.6367838542001
 20
-350.49270493099999
 30
0.0
 11
1182.6367838542001
 21
-198.51701075150001
 31
0.0
  0
LINE
  5
71
  8
0
 62
     0
 10
1182.6367838542001
 20
-24.492704930999999
 30
0.0
 11
1182.6367838542001
 21
-176.4683991105
 31
0.0
  0
LINE
  5
72
  8
0
 62
     0
 10
1182.6367838542001
 20
-24.492704930999999
 30
0.0
 11
1182.6367838542001
 21
-198.51701075150001
 31
0.0
  0
LINE
  5
73
  8
0
 62
     0
 10
1182.6367838542001
 20
-24.492704930999999
 30
0.0
 11
1182.6367838542001
 21
-27.492704930999999
 31
0.0
  0
SOLID
  5
74
  8
0
 62
     0
 10
1182.6367838542001
 20
-24.492704930999999
 30
0.0
 11
1184.5117838542001
 21
-31.992704930999999
 31
0.0
 12
1180.7617838542001
 22
-31.992704930999999
 32
0.0
 13
1182.6367838542001
 23
-30.117704930999999
 33
0.0
  0
LINE
  5
75
  8
0
 62
     0
 10
1182.6367838542001
 20
-350.49270493099999
 30
0.0
 11
1182.6367838542001
 21
-347.49270493099999
 31
0.0
  0
SOLID
  5
76
  8
0
 62
     0
 10
1182.6367838542001
 20
-350.49270493099999
 30
0.0
 11
1180.7617838542001
 21
-342.99270493099999
 31
0.0
 12
1184.5117838542001
 22
-342.99270493099999
 32
0.0
 13
1182.6367838542001
 23
-344.86770493099999
 33
0.0
  0
ENDBLK
  5
77
  8
0
  0
BLOCK
  8
0
  2
*D3
 70
     1
 10
0.0
 20
0.0
 30
0.0
  3
*D3
  1

  0
TEXT
  5
7B
  8
0
 62
     0
 10
899.78938798899981
 20
-180.76772503859999
 30
0.0
 40
7.4965279578999988
  1
248.5
 50
90.0
  0
LINE
  5
7C
  8
0
 62
     0
 10
1136.4890244802
 20
-45.493419218199989
 30
0.0
 11
901.6123046875
 21
-45.493419218199989
 31
0.0
  0
LINE
  5
7D
  8
0
 62
     0
 10
961.98902448019999
 20
-293.99341921820002
 30
0.0
 11
901.6123046875
 21
-293.99341921820002
 31
0.0
  0
LINE
  5
7E
  8
0
 62
     0
 10
902.1123046875
 20
-45.493419218199989
 30
0.0
 11
902.1123046875
 21
-154.30939106950001
 31
0.0
  0
LINE
  5
7F
  8
0
 62
     0
 10
902.1123046875
 20
-45.493419218199989
 30
0.0
 11
902.1123046875
 21
-185.17744736680001
 31
0.0
  0
LINE
  5
80
  8
0
 62
     0
 10
902.1123046875
 20
-293.99341921820002
 30
0.0
 11
902.1123046875
 21
-154.30939106950001
 31
0.0
  0
LINE
  5
81
  8
0
 62
     0
 10
902.1123046875
 20
-293.99341921820002
 30
0.0
 11
902.1123046875
 21
-185.17744736680001
 31
0.0
  0
LINE
  5
82
  8
0
 62
     0
 10
902.1123046875
 20
-293.99341921820002
 30
0.0
 11
902.1123046875
 21
-290.99341921820002
 31
0.0
  0
SOLID
  5
83
  8
0
 62
     0
 10
902.1123046875
 20
-293.99341921820002
 30
0.0
 11
900.2373046875
 21
-286.49341921820002
 31
0.0
 12
903.98730468749989
 22
-286.49341921820002
 32
0.0
 13
902.1123046875
 23
-288.36841921820002
 33
0.0
  0
LINE
  5
84
  8
0
 62
     0
 10
902.1123046875
 20
-45.493419218199989
 30
0.0
 11
902.1123046875
 21
-48.493419218199989
 31
0.0
  0
SOLID
  5
85
  8
0
 62
     0
 10
902.1123046875
 20
-45.493419218199989
 30
0.0
 11
903.98730468749989
 21
-52.993419218199989
 31
0.0
 12
900.2373046875
 22
-52.993419218199989
 32
0.0
 13
902.1123046875
 23
-51.118419218199989
 33
0.0
  0
ENDBLK
  5
86
  8
0
  0
BLOCK
  8
0
  2
*D4
 70
     1
 10
0.0
 20
0.0
 30
0.0
  3
*D4
  1

  0
TEXT
  5
A4
  8
0
 62
     0
 10
1041.4495672538001
 20
-373.69671427319997
 30
0.0
 40
7.4965279578999988
  1
180
  0
LINE
  5
A5
  8
0
 62
     0
 10
958.03927701190014
 20
-299.94316668649998
 30
0.0
 11
958.03927701190014
 21
-376.51963097160001
 31
0.0
  0
LINE
  5
A6
  8
0
 62
     0
 10
1138.0890244801999
 20
-351.49270493099999
 30
0.0
 11
1138.0890244801999
 21
-376.51963097160001
 31
0.0
  0
LINE
  5
A7
  8
0
 62
     0
 10
958.03927701190014
 20
-376.01963097160001
 30
0.0
 11
1059.0884565665001
 21
-376.01963097160001
 31
0.0
  0
LINE
  5
A8
  8
0
 62
     0
 10
958.03927701190014
 20
-376.01963097160001
 30
0.0
 11
1037.0398449255999
 21
-376.01963097160001
 31
0.0
  0
LINE
  5
A9
  8
0
 62
     0
 10
1138.0890244801999
 20
-376.01963097160001
 30
0.0
 11
1059.0884565665001
 21
-376.01963097160001
 31
0.0
  0
LINE
  5
AA
  8
0
 62
     0
 10
1138.0890244801999
 20
-376.01963097160001
 30
0.0
 11
1037.0398449255999
 21
-376.01963097160001
 31
0.0
  0
LINE
  5
AB
  8
0
 62
     0
 10
1138.0890244801999
 20
-376.01963097160001
 30
0.0
 11
1135.0890244801999
 21
-376.01963097160001
 31
0.0
  0
SOLID
  5
AC
  8
0
 62
     0
 10
1138.0890244801999
 20
-376.01963097160001
 30
0.0
 11
1130.5890244801999
 21
-377.89463097160001
 31
0.0
 12
1130.5890244801999
 22
-374.14463097160001
 32
0.0
 13
1132.4640244801999
 23
-376.01963097160001
 33
0.0
  0
LINE
  5
AD
  8
0
 62
     0
 10
958.03927701190014
 20
-376.01963097160001
 30
0.0
 11
961.03927701190003
 21
-376.01963097160001
 31
0.0
  0
SOLID
  5
AE
  8
0
 62
     0
 10
958.03927701190014
 20
-376.01963097160001
 30
0.0
 11
965.53927701190003
 21
-374.14463097160001
 31
0.0
 12
965.53927701190003
 22
-377.89463097160001
 32
0.0
 13
963.66427701189991
 23
-376.01963097160001
 33
0.0
  0
ENDBLK
  5
AF
  8
0
  0
BLOCK
  8
0
  2
*D5
 70
     1
 10
0.0
 20
0.0
 30
0.0
  3
*D5
  1

  0
TEXT
  5
B7
  8
0
 62
     0
 10
651.41152327860004
 20
43.927199506699999
 30
0.0
 40
7.4965279578999988
  1
340
  0
LINE
  5
B8
  8
0
 62
     0
 10
828.02610677079997
 20
-25.4934192182
 30
0.0
 11
828.02610677079997
 21
42.104282808199997
 31
0.0
  0
LINE
  5
B9
  8
0
 62
     0
 10
488.02610677080003
 20
-25.4934192182
 30
0.0
 11
488.02610677080003
 21
42.104282808199997
 31
0.0
  0
LINE
  5
BA
  8
0
 62
     0
 10
828.02610677079997
 20
41.604282808199997
 30
0.0
 11
669.05041259129985
 21
41.604282808199997
 31
0.0
  0
LINE
  5
BB
  8
0
 62
     0
 10
828.02610677079997
 20
41.604282808199997
 30
0.0
 11
647.00180095040002
 21
41.604282808199997
 31
0.0
  0
LINE
  5
BC
  8
0
 62
     0
 10
488.02610677080003
 20
41.604282808199997
 30
0.0
 11
669.05041259129985
 21
41.604282808199997
 31
0.0
  0
LINE
  5
BD
  8
0
 62
     0
 10
488.02610677080003
 20
41.604282808199997
 30
0.0
 11
647.00180095040002
 21
41.604282808199997
 31
0.0
  0
LINE
  5
BE
  8
0
 62
     0
 10
488.02610677080003
 20
41.604282808199997
 30
0.0
 11
491.02610677080003
 21
41.604282808199997
 31
0.0
  0
SOLID
  5
BF
  8
0
 62
     0
 10
488.02610677080003
 20
41.604282808199997
 30
0.0
 11
495.52610677080003
 21
43.47928280819999
 31
0.0
 12
495.52610677080003
 22
39.729282808200011
 32
0.0
 13
493.65110677080003
 23
41.604282808199997
 33
0.0
  0
LINE
  5
C0
  8
0
 62
     0
 10
828.02610677079997
 20
41.604282808199997
 30
0.0
 11
825.02610677079986
 21
41.604282808199997
 31
0.0
  0
SOLID
  5
C1
  8
0
 62
     0
 10
828.02610677079997
 20
41.604282808199997
 30
0.0
 11
820.52610677079986
 21
39.729282808200011
 31
0.0
 12
820.52610677079986
 22
43.47928280819999
 32
0.0
 13
822.40110677079997
 23
41.604282808199997
 33
0.0
  0
ENDBLK
  5
C2
  8
0
  0
BLOCK
  8
0
  2
*D6
 70
     1
 10
0.0
 20
0.0
 30
0.0
  3
*D6
  1

  0
TEXT
  5
C6
  8
0
 62
     0
 10
586.41152327860004
 20
14.3285673884
 30
0.0
 40
7.4965279578999988
  1
130
  0
LINE
  5
C7
  8
0
 62
     0
 10
658.02610677079997
 20
-12.4934192182
 30
0.0
 11
658.02610677079997
 21
12.50565069
 31
0.0
  0
LINE
  5
C8
  8
0
 62
     0
 10
528.02610677079986
 20
-28.492704930999999
 30
0.0
 11
528.02610677079986
 21
12.50565069
 31
0.0
  0
LINE
  5
C9
  8
0
 62
     0
 10
658.02610677079997
 20
12.00565069
 30
0.0
 11
604.05041259129985
 21
12.00565069
 31
0.0
  0
LINE
  5
CA
  8
0
 62
     0
 10
658.02610677079997
 20
12.00565069
 30
0.0
 11
582.00180095040002
 21
12.00565069
 31
0.0
  0
LINE
  5
CB
  8
0
 62
     0
 10
528.02610677079986
 20
12.00565069
 30
0.0
 11
604.05041259129985
 21
12.00565069
 31
0.0
  0
LINE
  5
CC
  8
0
 62
     0
 10
528.02610677079986
 20
12.00565069
 30
0.0
 11
582.00180095040002
 21
12.00565069
 31
0.0
  0
LINE
  5
CD
  8
0
 62
     0
 10
528.02610677079986
 20
12.00565069
 30
0.0
 11
531.02610677079986
 21
12.00565069
 31
0.0
  0
SOLID
  5
CE
  8
0
 62
     0
 10
528.02610677079986
 20
12.00565069
 30
0.0
 11
535.52610677079986
 21
13.88065069
 31
0.0
 12
535.52610677079986
 22
10.13065069
 32
0.0
 13
533.65110677079986
 23
12.00565069
 33
0.0
  0
LINE
  5
CF
  8
0
 62
     0
 10
658.02610677079997
 20
12.00565069
 30
0.0
 11
655.02610677079986
 21
12.00565069
 31
0.0
  0
SOLID
  5
D0
  8
0
 62
     0
 10
658.02610677079997
 20
12.00565069
 30
0.0
 11
650.52610677079997
 21
10.13065069
 31
0.0
 12
650.52610677079997
 22
13.88065069
 32
0.0
 13
652.40110677079986
 23
12.00565069
 33
0.0
  0
ENDBLK
  5
D1
  8
0
  0
BLOCK
  8
0
  2
*D7
 70
     1
 10
0.0
 20
0.0
 30
0.0
  3
*D7
  1

  0
TEXT
  5
E1
  8
0
 62
     0
 10
489.11638444259989
 20
-372.6974285604
 30
0.0
 40
7.4965279578999988
  1
11
  0
LINE
  5
E2
  8
0
 62
     0
 10
488.02610677080003
 20
-350.49341921820002
 30
0.0
 11
488.02610677080003
 21
-375.52034525879998
 31
0.0
  0
LINE
  5
E3
  8
0
 62
     0
 10
499.02610677080003
 20
-324.12428262340001
 30
0.0
 11
499.02610677080003
 21
-375.52034525879998
 31
0.0
  0
LINE
  5
E4
  8
0
 62
     0
 10
488.02610677080003
 20
-375.02034525879998
 30
0.0
 11
488.02610677080003
 21
-375.02034525879998
 31
0.0
  0
LINE
  5
E5
  8
0
 62
     0
 10
488.02610677080003
 20
-375.02034525879998
 30
0.0
 11
499.02610677080003
 21
-375.02034525879998
 31
0.0
  0
LINE
  5
E6
  8
0
 62
     0
 10
499.02610677080003
 20
-375.02034525879998
 30
0.0
 11
488.02610677080003
 21
-375.02034525879998
 31
0.0
  0
LINE
  5
E7
  8
0
 62
     0
 10
499.02610677080003
 20
-375.02034525879998
 30
0.0
 11
499.02610677080003
 21
-375.02034525879998
 31
0.0
  0
LINE
  5
E8
  8
0
 62
     0
 10
499.02610677080003
 20
-375.02034525879998
 30
0.0
 11
502.02610677080003
 21
-375.02034525879998
 31
0.0
  0
SOLID
  5
E9
  8
0
 62
     0
 10
499.02610677080003
 20
-375.02034525879998
 30
0.0
 11
506.52610677080003
 21
-373.14534525879998
 31
0.0
 12
506.52610677080003
 22
-376.89534525879998
 32
0.0
 13
504.65110677080003
 23
-375.02034525879998
 33
0.0
  0
LINE
  5
EA
  8
0
 62
     0
 10
488.02610677080003
 20
-375.02034525879998
 30
0.0
 11
485.02610677080003
 21
-375.02034525879998
 31
0.0
  0
SOLID
  5
EB
  8
0
 62
     0
 10
488.02610677080003
 20
-375.02034525879998
 30
0.0
 11
480.52610677080003
 21
-376.89534525879998
 31
0.0
 12
480.52610677080003
 22
-373.14534525879998
 32
0.0
 13
482.40110677080003
 23
-375.02034525879998
 33
0.0
  0
ENDBLK
  5
EC
  8
0
  0
BLOCK
  8
0
  2
*D8
 70
     1
 10
0.0
 20
0.0
 30
0.0
  3
*D8
  1

  0
TEXT
  5
F0
  8
0
 62
     0
 10
460.70319007239999
 20
-337.90314154639998
 30
0.0
 40
7.4965279578999988
  1
32
 50
90.0
  0
LINE
  5
F1
  8
0
 62
     0
 10
493.02610677080003
 20
-317.49341921820002
 30
0.0
 11
462.52610677080003
 21
-317.49341921820002
 31
0.0
  0
LINE
  5
F2
  8
0
 62
     0
 10
487.02610677080003
 20
-349.49341921820002
 30
0.0
 11
462.52610677080003
 21
-349.49341921820002
 31
0.0
  0
LINE
  5
F3
  8
0
 62
     0
 10
463.02610677080003
 20
-317.49341921820002
 30
0.0
 11
463.02610677080003
 21
-324.67397456179998
 31
0.0
  0
LINE
  5
F4
  8
0
 62
     0
 10
463.02610677080003
 20
-317.49341921820002
 30
0.0
 11
463.02610677080003
 21
-342.31286387450001
 31
0.0
  0
LINE
  5
F5
  8
0
 62
     0
 10
463.02610677080003
 20
-349.49341921820002
 30
0.0
 11
463.02610677080003
 21
-324.67397456179998
 31
0.0
  0
LINE
  5
F6
  8
0
 62
     0
 10
463.02610677080003
 20
-349.49341921820002
 30
0.0
 11
463.02610677080003
 21
-342.31286387450001
 31
0.0
  0
LINE
  5
F7
  8
0
 62
     0
 10
463.02610677080003
 20
-349.49341921820002
 30
0.0
 11
463.02610677080003
 21
-352.49341921820002
 31
0.0
  0
SOLID
  5
F8
  8
0
 62
     0
 10
463.02610677080003
 20
-349.49341921820002
 30
0.0
 11
464.90110677080003
 21
-356.99341921820002
 31
0.0
 12
461.15110677080003
 22
-356.99341921820002
 32
0.0
 13
463.02610677080003
 23
-355.11841921820002
 33
0.0
  0
LINE
  5
F9
  8
0
 62
     0
 10
463.02610677080003
 20
-317.49341921820002
 30
0.0
 11
463.02610677080003
 21
-314.49341921820002
 31
0.0
  0
SOLID
  5
FA
  8
0
 62
     0
 10
463.02610677080003
 20
-317.49341921820002
 30
0.0
 11
461.15110677080003
 21
-309.99341921820002
 31
0.0
 12
464.90110677080003
 22
-309.99341921820002
 32
0.0
 13
463.02610677080003
 23
-311.86841921820002
 33
0.0
  0
ENDBLK
  5
FB
  8
0
  0
BLOCK
  8
0
  2
*D9
 70
     1
 10
0.0
 20
0.0
 30
0.0
  3
*D9
  1

  0
TEXT
  5
FF
  8
0
 62
     0
 10
899.78938131250015
 20
-39.402784402800002
 30
0.0
 40
7.4965279578999988
  1
22
 50
90.0
  0
LINE
  5
100
  8
0
 62
     0
 10
1136.9890244802
 20
-24.492704930999999
 30
0.0
 11
901.61229801099989
 21
-24.492704930999999
 31
0.0
  0
LINE
  5
101
  8
0
 62
     0
 10
1136.4890244802
 20
-45.493419218199989
 30
0.0
 11
901.61229801099989
 21
-45.493419218199989
 31
0.0
  0
LINE
  5
102
  8
0
 62
     0
 10
902.11229801100001
 20
-24.492704930999999
 30
0.0
 11
902.11229801100001
 21
-26.173617418199999
 31
0.0
  0
LINE
  5
103
  8
0
 62
     0
 10
902.11229801100001
 20
-24.492704930999999
 30
0.0
 11
902.11229801100001
 21
-43.812506731000013
 31
0.0
  0
LINE
  5
104
  8
0
 62
     0
 10
902.11229801100001
 20
-45.493419218199989
 30
0.0
 11
902.11229801100001
 21
-26.173617418199999
 31
0.0
  0
LINE
  5
105
  8
0
 62
     0
 10
902.11229801100001
 20
-45.493419218199989
 30
0.0
 11
902.11229801100001
 21
-43.812506731000013
 31
0.0
  0
LINE
  5
106
  8
0
 62
     0
 10
902.11229801100001
 20
-45.493419218199989
 30
0.0
 11
902.11229801100001
 21
-48.493419218199989
 31
0.0
  0
SOLID
  5
107
  8
0
 62
     0
 10
902.11229801100001
 20
-45.493419218199989
 30
0.0
 11
903.98729801100012
 21
-52.993419218199989
 31
0.0
 12
900.23729801099989
 22
-52.993419218199989
 32
0.0
 13
902.11229801100001
 23
-51.118419218199989
 33
0.0
  0
LINE
  5
108
  8
0
 62
     0
 10
902.11229801100001
 20
-24.492704930999999
 30
0.0
 11
902.11229801100001
 21
-21.492704930999999
 31
0.0
  0
SOLID
  5
109
  8
0
 62
     0
 10
902.11229801100001
 20
-24.492704930999999
 30
0.0
 11
900.23729801099989
 21
-16.992704930999999
 31
0.0
 12
903.98729801100012
 22
-16.992704930999999
 32
0.0
 13
902.11229801100001
 23
-18.867704930999999
 33
0.0
  0
ENDBLK
  5
10A
  8
0
  0
BLOCK
  8
0
  2
*D10
 70
     1
 10
0.0
 20
0.0
 30
0.0
  3
*D10
  1

  0
TEXT
  5
10E
  8
0
 62
     0
 10
1043.8744409879
 20
1.6071378081000001
 30
0.0
 40
7.4965279578999988
  1
175
  0
LINE
  5
10F
  8
0
 62
     0
 10
1137.9890244802
 20
-25.242704930999999
 30
0.0
 11
1137.9890244802
 21
-0.2157788903
 31
0.0
  0
LINE
  5
110
  8
0
 62
     0
 10
962.98902448019999
 20
-219.4927061647
 30
0.0
 11
962.98902448019999
 21
-0.2157788903
 31
0.0
  0
LINE
  5
111
  8
0
 62
     0
 10
1137.9890244802
 20
-0.7157788903000001
 30
0.0
 11
1061.5133303007001
 21
-0.7157788903000001
 31
0.0
  0
LINE
  5
112
  8
0
 62
     0
 10
1137.9890244802
 20
-0.7157788903000001
 30
0.0
 11
1039.4647186597001
 21
-0.7157788903000001
 31
0.0
  0
LINE
  5
113
  8
0
 62
     0
 10
962.98902448019999
 20
-0.7157788903000001
 30
0.0
 11
1061.5133303007001
 21
-0.7157788903000001
 31
0.0
  0
LINE
  5
114
  8
0
 62
     0
 10
962.98902448019999
 20
-0.7157788903000001
 30
0.0
 11
1039.4647186597001
 21
-0.7157788903000001
 31
0.0
  0
LINE
  5
115
  8
0
 62
     0
 10
962.98902448019999
 20
-0.7157788903000001
 30
0.0
 11
965.98902448019987
 21
-0.7157788903000001
 31
0.0
  0
SOLID
  5
116
  8
0
 62
     0
 10
962.98902448019999
 20
-0.7157788903000001
 30
0.0
 11
970.48902448019987
 21
1.1592211097
 31
0.0
 12
970.48902448019987
 22
-2.5907788903000002
 32
0.0
 13
968.61402448019999
 23
-0.7157788903000001
 33
0.0
  0
LINE
  5
117
  8
0
 62
     0
 10
1137.9890244802
 20
-0.7157788903000001
 30
0.0
 11
1134.9890244802
 21
-0.7157788903000001
 31
0.0
  0
SOLID
  5
118
  8
0
 62
     0
 10
1137.9890244802
 20
-0.7157788903000001
 30
0.0
 11
1130.4890244802
 21
-2.5907788903000002
 31
0.0
 12
1130.4890244802
 22
1.1592211097
 32
0.0
 13
1132.3640244802
 23
-0.7157788903000001
 33
0.0
  0
ENDBLK
  5
119
  8
0
  0
BLOCK
  8
0
  2
*D11
 70
     1
 10
0.0
 20
0.0
 30
0.0
  3
*D11
  1

  0
TEXT
  5
11E
  8
0
 62
     0
 10
975.57255030369981
 20
-53.710828368500003
 30
0.0
 40
7.4965279578999988
  1
R175
 50
315.0
  0
LINE
  5
11F
  8
0
 62
     0
 10
1014.2453377725
 20
-96.749018223299984
 30
0.0
 11
973.38984911069997
 21
-55.893529561499989
 31
0.0
  0
SOLID
  5
120
  8
0
 62
     0
 10
1014.2453377725
 20
-96.749018223299984
 30
0.0
 11
1007.6162116989
 21
-92.771542579200016
 31
0.0
 12
1010.2678621284
 22
-90.119892149699979
 32
0.0
 13
1010.2678621284
 23
-92.771542579200016
 33
0.0
  0
ENDBLK
  5
121
  8
0
  0
BLOCK
  8
0
  2
*D12
 70
     1
 10
0.0
 20
0.0
 30
0.0
  3
*D12
  1

  0
TEXT
  5
137
  8
0
 62
     0
 10
460.70319007239999
 20
-129.1080027104
 30
0.0
 40
7.4965279578999988
  1
130
 50
90.0
  0
LINE
  5
138
  8
0
 62
     0
 10
493.02610677080003
 20
-57.493419218200003
 30
0.0
 11
462.52610677080003
 21
-57.493419218200003
 31
0.0
  0
LINE
  5
139
  8
0
 62
     0
 10
493.02610677080003
 20
-187.49341921819999
 30
0.0
 11
462.52610677080003
 21
-187.49341921819999
 31
0.0
  0
LINE
  5
13A
  8
0
 62
     0
 10
463.02610677080003
 20
-57.493419218200003
 30
0.0
 11
463.02610677080003
 21
-111.4691133977
 31
0.0
  0
LINE
  5
13B
  8
0
 62
     0
 10
463.02610677080003
 20
-57.493419218200003
 30
0.0
 11
463.02610677080003
 21
-133.51772503859999
 31
0.0
  0
LINE
  5
13C
  8
0
 62
     0
 10
463.02610677080003
 20
-187.49341921819999
 30
0.0
 11
463.02610677080003
 21
-111.4691133977
 31
0.0
  0
LINE
  5
13D
  8
0
 62
     0
 10
463.02610677080003
 20
-187.49341921819999
 30
0.0
 11
463.02610677080003
 21
-133.51772503859999
 31
0.0
  0
LINE
  5
13E
  8
0
 62
     0
 10
463.02610677080003
 20
-187.49341921819999
 30
0.0
 11
463.02610677080003
 21
-184.49341921819999
 31
0.0
  0
SOLID
  5
13F
  8
0
 62
     0
 10
463.02610677080003
 20
-187.49341921819999
 30
0.0
 11
461.15110677080003
 21
-179.99341921819999
 31
0.0
 12
464.90110677080003
 22
-179.99341921819999
 32
0.0
 13
463.02610677080003
 23
-181.86841921819999
 33
0.0
  0
LINE
  5
140
  8
0
 62
     0
 10
463.02610677080003
 20
-57.493419218200003
 30
0.0
 11
463.02610677080003
 21
-60.493419218199989
 31
0.0
  0
SOLID
  5
141
  8
0
 62
     0
 10
463.02610677080003
 20
-57.493419218200003
 30
0.0
 11
464.90110677080003
 21
-64.993419218200003
 31
0.0
 12
461.15110677080003
 22
-64.993419218200003
 32
0.0
 13
463.02610677080003
 23
-63.118419218200003
 33
0.0
  0
ENDBLK
  5
142
  8
0
  0
BLOCK
  8
0
  2
*D13
 70
     1
 10
0.0
 20
0.0
 30
0.0
  3
*D13
  1

  0
TEXT
  5
146
  8
0
 62
     0
 10
460.70319007239999
 20
-8.0663098960999982
 30
0.0
 40
7.4965279578999988
  1
3
 50
90.0
  0
LINE
  5
147
  8
0
 62
     0
 10
503.02610677080003
 20
-23.4934192182
 30
0.0
 11
462.52610677080003
 21
-23.4934192182
 31
0.0
  0
LINE
  5
148
  8
0
 62
     0
 10
487.02610677080003
 20
-26.4934192182
 30
0.0
 11
462.52610677080003
 21
-26.4934192182
 31
0.0
  0
LINE
  5
149
  8
0
 62
     0
 10
463.02610677080003
 20
-23.4934192182
 30
0.0
 11
463.02610677080003
 21
0.7531347602
 31
0.0
  0
LINE
  5
14A
  8
0
 62
     0
 10
463.02610677080003
 20
-23.4934192182
 30
0.0
 11
463.02610677080003
 21
-12.476032224300001
 31
0.0
  0
LINE
  5
14B
  8
0
 62
     0
 10
463.02610677080003
 20
-26.4934192182
 30
0.0
 11
463.02610677080003
 21
0.7531347602
 31
0.0
  0
LINE
  5
14C
  8
0
 62
     0
 10
463.02610677080003
 20
-26.4934192182
 30
0.0
 11
463.02610677080003
 21
-12.476032224300001
 31
0.0
  0
LINE
  5
14D
  8
0
 62
     0
 10
463.02610677080003
 20
-26.4934192182
 30
0.0
 11
463.02610677080003
 21
-29.4934192182
 31
0.0
  0
SOLID
  5
14E
  8
0
 62
     0
 10
463.02610677080003
 20
-26.4934192182
 30
0.0
 11
464.90110677080003
 21
-33.993419218200003
 31
0.0
 12
461.15110677080003
 22
-33.993419218200003
 32
0.0
 13
463.02610677080003
 23
-32.118419218200003
 33
0.0
  0
LINE
  5
14F
  8
0
 62
     0
 10
463.02610677080003
 20
-23.4934192182
 30
0.0
 11
463.02610677080003
 21
-20.4934192182
 31
0.0
  0
SOLID
  5
150
  8
0
 62
     0
 10
463.02610677080003
 20
-23.4934192182
 30
0.0
 11
461.15110677080003
 21
-15.9934192182
 31
0.0
 12
464.90110677080003
 22
-15.9934192182
 32
0.0
 13
463.02610677080003
 23
-17.8684192182
 33
0.0
  0
ENDBLK
  5
151
  8
0
  0
BLOCK
  8
0
  2
*D14
 70
     1
 10
0.0
 20
0.0
 30
0.0
  3
*D14
  1

  0
TEXT
  5
155
  8
0
 62
     0
 10
503.61638444260001
 20
14.3285673884
 30
0.0
 40
7.4965279578999988
  1
40
  0
LINE
  5
156
  8
0
 62
     0
 10
528.02610677079986
 20
-28.492704930999999
 30
0.0
 11
528.02610677079986
 21
12.50565069
 31
0.0
  0
LINE
  5
157
  8
0
 62
     0
 10
488.02610677080003
 20
-25.4934192182
 30
0.0
 11
488.02610677080003
 21
12.50565069
 31
0.0
  0
LINE
  5
158
  8
0
 62
     0
 10
528.02610677079986
 20
12.00565069
 30
0.0
 11
516.84555142719989
 21
12.00565069
 31
0.0
  0
LINE
  5
159
  8
0
 62
     0
 10
528.02610677079986
 20
12.00565069
 30
0.0
 11
499.20666211449992
 21
12.00565069
 31
0.0
  0
LINE
  5
15A
  8
0
 62
     0
 10
488.02610677080003
 20
12.00565069
 30
0.0
 11
516.84555142719989
 21
12.00565069
 31
0.0
  0
LINE
  5
15B
  8
0
 62
     0
 10
488.02610677080003
 20
12.00565069
 30
0.0
 11
499.20666211449992
 21
12.00565069
 31
0.0
  0
LINE
  5
15C
  8
0
 62
     0
 10
488.02610677080003
 20
12.00565069
 30
0.0
 11
491.02610677080003
 21
12.00565069
 31
0.0
  0
SOLID
  5
15D
  8
0
 62
     0
 10
488.02610677080003
 20
12.00565069
 30
0.0
 11
495.52610677080003
 21
13.88065069
 31
0.0
 12
495.52610677080003
 22
10.13065069
 32
0.0
 13
493.65110677080003
 23
12.00565069
 33
0.0
  0
LINE
  5
15E
  8
0
 62
     0
 10
528.02610677079986
 20
12.00565069
 30
0.0
 11
525.02610677079997
 21
12.00565069
 31
0.0
  0
SOLID
  5
15F
  8
0
 62
     0
 10
528.02610677079986
 20
12.00565069
 30
0.0
 11
520.52610677079997
 21
10.13065069
 31
0.0
 12
520.52610677079997
 22
13.88065069
 32
0.0
 13
522.40110677079997
 23
12.00565069
 33
0.0
  0
ENDBLK
  5
160
  8
0
  0
BLOCK
  8
0
  2
*D15
 70
     1
 10
0.0
 20
0.0
 30
0.0
  3
*D15
  1

  0
TEXT
  5
164
  8
0
 62
     0
 10
460.70319007239999
 20
-46.403141546400001
 30
0.0
 40
7.4965279578999988
  1
31
 50
90.0
  0
LINE
  5
165
  8
0
 62
     0
 10
487.02610677080003
 20
-26.4934192182
 30
0.0
 11
462.52610677080003
 21
-26.4934192182
 31
0.0
  0
LINE
  5
166
  8
0
 62
     0
 10
493.02610677080003
 20
-57.493419218200003
 30
0.0
 11
462.52610677080003
 21
-57.493419218200003
 31
0.0
  0
LINE
  5
167
  8
0
 62
     0
 10
463.02610677080003
 20
-26.4934192182
 30
0.0
 11
463.02610677080003
 21
-33.173974561800001
 31
0.0
  0
LINE
  5
168
  8
0
 62
     0
 10
463.02610677080003
 20
-26.4934192182
 30
0.0
 11
463.02610677080003
 21
-50.812863874499989
 31
0.0
  0
LINE
  5
169
  8
0
 62
     0
 10
463.02610677080003
 20
-57.493419218200003
 30
0.0
 11
463.02610677080003
 21
-33.173974561800001
 31
0.0
  0
LINE
  5
16A
  8
0
 62
     0
 10
463.02610677080003
 20
-57.493419218200003
 30
0.0
 11
463.02610677080003
 21
-50.812863874499989
 31
0.0
  0
LINE
  5
16B
  8
0
 62
     0
 10
463.02610677080003
 20
-57.493419218200003
 30
0.0
 11
463.02610677080003
 21
-60.493419218199989
 31
0.0
  0
SOLID
  5
16C
  8
0
 62
     0
 10
463.02610677080003
 20
-57.493419218200003
 30
0.0
 11
464.90110677080003
 21
-64.993419218200003
 31
0.0
 12
461.15110677080003
 22
-64.993419218200003
 32
0.0
 13
463.02610677080003
 23
-63.118419218200003
 33
0.0
  0
LINE
  5
16D
  8
0
 62
     0
 10
463.02610677080003
 20
-26.4934192182
 30
0.0
 11
463.02610677080003
 21
-23.4934192182
 31
0.0
  0
SOLID
  5
16E
  8
0
 62
     0
 10
463.02610677080003
 20
-26.4934192182
 30
0.0
 11
461.15110677080003
 21
-18.9934192182
 31
0.0
 12
464.90110677080003
 22
-18.9934192182
 32
0.0
 13
463.02610677080003
 23
-20.8684192182
 33
0.0
  0
ENDBLK
  5
16F
  8
0
  0
BLOCK
  8
0
  2
*D16
 70
     1
 10
0.0
 20
0.0
 30
0.0
  3
*D16
  1

  0
TEXT
  5
186
  8
0
 62
     0
 10
716.41152327860004
 20
14.3285673884
 30
0.0
 40
7.4965279578999988
  1
130
  0
LINE
  5
187
  8
0
 62
     0
 10
788.02610677079997
 20
-28.492704930999999
 30
0.0
 11
788.02610677079997
 21
12.50565069
 31
0.0
  0
LINE
  5
188
  8
0
 62
     0
 10
658.02610677079997
 20
-12.4934192182
 30
0.0
 11
658.02610677079997
 21
12.50565069
 31
0.0
  0
LINE
  5
189
  8
0
 62
     0
 10
788.02610677079997
 20
12.00565069
 30
0.0
 11
734.05041259130007
 21
12.00565069
 31
0.0
  0
LINE
  5
18A
  8
0
 62
     0
 10
788.02610677079997
 20
12.00565069
 30
0.0
 11
712.00180095039991
 21
12.00565069
 31
0.0
  0
LINE
  5
18B
  8
0
 62
     0
 10
658.02610677079997
 20
12.00565069
 30
0.0
 11
734.05041259130007
 21
12.00565069
 31
0.0
  0
LINE
  5
18C
  8
0
 62
     0
 10
658.02610677079997
 20
12.00565069
 30
0.0
 11
712.00180095039991
 21
12.00565069
 31
0.0
  0
LINE
  5
18D
  8
0
 62
     0
 10
658.02610677079997
 20
12.00565069
 30
0.0
 11
661.02610677079986
 21
12.00565069
 31
0.0
  0
SOLID
  5
18E
  8
0
 62
     0
 10
658.02610677079997
 20
12.00565069
 30
0.0
 11
665.52610677079986
 21
13.88065069
 31
0.0
 12
665.52610677079986
 22
10.13065069
 32
0.0
 13
663.65110677079986
 23
12.00565069
 33
0.0
  0
LINE
  5
18F
  8
0
 62
     0
 10
788.02610677079997
 20
12.00565069
 30
0.0
 11
785.02610677079986
 21
12.00565069
 31
0.0
  0
SOLID
  5
190
  8
0
 62
     0
 10
788.02610677079997
 20
12.00565069
 30
0.0
 11
780.52610677079986
 21
10.13065069
 31
0.0
 12
780.52610677079986
 22
13.88065069
 32
0.0
 13
782.40110677079986
 23
12.00565069
 33
0.0
  0
ENDBLK
  5
191
  8
0
  0
BLOCK
  8
0
  2
*D17
 70
     1
 10
0.0
 20
0.0
 30
0.0
  3
*D17
  1

  0
TEXT
  5
195
  8
0
 62
     0
 10
688.18961216449998
 20
-60.290807938699999
 30
0.0
 40
7.4965279578999988
  1
9-%%c4
 50
315.0
  0
LINE
  5
196
  8
0
 62
     0
 10
659.44032033319991
 20
-35.906918493399999
 30
0.0
 11
704.7157783399
 21
-81.182376500100006
 31
0.0
  0
SOLID
  5
197
  8
0
 62
     0
 10
659.44032033319991
 20
-35.906918493399999
 30
0.0
 11
666.06944640680001
 21
-39.884394137500003
 31
0.0
 12
663.41779597740003
 22
-42.53604456699999
 32
0.0
 13
663.41779597740003
 23
-39.884394137500003
 33
0.0
  0
ENDBLK
  5
198
  8
0
  0
BLOCK
  8
0
  2
*D18
 70
     1
 10
0.0
 20
0.0
 30
0.0
  3
*D18
  1

  0
TEXT
  5
19C
  8
0
 62
     0
 10
589.30459391779993
 20
-17.995870757199999
 30
0.0
 40
7.4965279578999988
  1
11
 50
90.0
  0
LINE
  5
19D
  8
0
 62
     0
 10
600.92972415789995
 20
-23.4934192182
 30
0.0
 11
591.12751061619997
 21
-23.4934192182
 31
0.0
  0
LINE
  5
19E
  8
0
 62
     0
 10
600.92972415789995
 20
-34.492704930999999
 30
0.0
 11
591.12751061619997
 21
-34.492704930999999
 31
0.0
  0
LINE
  5
19F
  8
0
 62
     0
 10
591.62751061619997
 20
-23.4934192182
 30
0.0
 11
591.62751061619997
 21
-4.7667037725999988
 31
0.0
  0
LINE
  5
1A0
  8
0
 62
     0
 10
591.62751061619997
 20
-23.4934192182
 30
0.0
 11
591.62751061619997
 21
-22.405593085300001
 31
0.0
  0
LINE
  5
1A1
  8
0
 62
     0
 10
591.62751061619997
 20
-34.492704930999999
 30
0.0
 11
591.62751061619997
 21
-4.7667037725999988
 31
0.0
  0
LINE
  5
1A2
  8
0
 62
     0
 10
591.62751061619997
 20
-34.492704930999999
 30
0.0
 11
591.62751061619997
 21
-22.405593085300001
 31
0.0
  0
LINE
  5
1A3
  8
0
 62
     0
 10
591.62751061619997
 20
-34.492704930999999
 30
0.0
 11
591.62751061619997
 21
-37.492704930999999
 31
0.0
  0
SOLID
  5
1A4
  8
0
 62
     0
 10
591.62751061619997
 20
-34.492704930999999
 30
0.0
 11
593.50251061619997
 21
-41.992704930999999
 31
0.0
 12
589.75251061619997
 22
-41.992704930999999
 32
0.0
 13
591.62751061619997
 23
-40.117704930999999
 33
0.0
  0
LINE
  5
1A5
  8
0
 62
     0
 10
591.62751061619997
 20
-23.4934192182
 30
0.0
 11
591.62751061619997
 21
-20.4934192182
 31
0.0
  0
SOLID
  5
1A6
  8
0
 62
     0
 10
591.62751061619997
 20
-23.4934192182
 30
0.0
 11
589.75251061619997
 21
-15.9934192182
 31
0.0
 12
593.50251061619997
 22
-15.9934192182
 32
0.0
 13
591.62751061619997
 23
-17.8684192182
 33
0.0
  0
ENDBLK
  5
1A7
  8
0
  0
BLOCK
  8
0
  2
*D19
 70
     1
 10
0.0
 20
0.0
 30
0.0
  3
*D19
  1

  0
TEXT
  5
1AB
  8
0
 62
     0
 10
803.61638444259995
 20
14.3285673884
 30
0.0
 40
7.4965279578999988
  1
40
  0
LINE
  5
1AC
  8
0
 62
     0
 10
828.02610677079997
 20
-25.4934192182
 30
0.0
 11
828.02610677079997
 21
12.50565069
 31
0.0
  0
LINE
  5
1AD
  8
0
 62
     0
 10
788.02610677079997
 20
-28.492704930999999
 30
0.0
 11
788.02610677079997
 21
12.50565069
 31
0.0
  0
LINE
  5
1AE
  8
0
 62
     0
 10
828.02610677079997
 20
12.00565069
 30
0.0
 11
816.84555142720001
 21
12.00565069
 31
0.0
  0
LINE
  5
1AF
  8
0
 62
     0
 10
828.02610677079997
 20
12.00565069
 30
0.0
 11
799.20666211449986
 21
12.00565069
 31
0.0
  0
LINE
  5
1B0
  8
0
 62
     0
 10
788.02610677079997
 20
12.00565069
 30
0.0
 11
816.84555142720001
 21
12.00565069
 31
0.0
  0
LINE
  5
1B1
  8
0
 62
     0
 10
788.02610677079997
 20
12.00565069
 30
0.0
 11
799.20666211449986
 21
12.00565069
 31
0.0
  0
LINE
  5
1B2
  8
0
 62
     0
 10
788.02610677079997
 20
12.00565069
 30
0.0
 11
791.02610677079997
 21
12.00565069
 31
0.0
  0
SOLID
  5
1B3
  8
0
 62
     0
 10
788.02610677079997
 20
12.00565069
 30
0.0
 11
795.52610677079997
 21
13.88065069
 31
0.0
 12
795.52610677079997
 22
10.13065069
 32
0.0
 13
793.65110677079986
 23
12.00565069
 33
0.0
  0
LINE
  5
1B4
  8
0
 62
     0
 10
828.02610677079997
 20
12.00565069
 30
0.0
 11
825.02610677079986
 21
12.00565069
 31
0.0
  0
SOLID
  5
1B5
  8
0
 62
     0
 10
828.02610677079997
 20
12.00565069
 30
0.0
 11
820.52610677079986
 21
10.13065069
 31
0.0
 12
820.52610677079986
 22
13.88065069
 32
0.0
 13
822.40110677079997
 23
12.00565069
 33
0.0
  0
ENDBLK
  5
1B6
  8
0
  0
BLOCK
  8
0
  2
*D20
 70
     1
 10
0.0
 20
0.0
 30
0.0
  3
*D20
  1

  0
TEXT
  5
1CF
  8
0
 62
     0
 10
923.67209367750002
 20
-266.06250734780002
 30
0.0
 40
7.4965279578999988
  1
73.5
 50
90.0
  0
LINE
  5
1D0
  8
0
 62
     0
 10
961.98902448019999
 20
-220.4927061647
 30
0.0
 11
925.49501037599998
 21
-220.4927061647
 31
0.0
  0
LINE
  5
1D1
  8
0
 62
     0
 10
961.98902448019999
 20
-293.99341921820002
 30
0.0
 11
925.49501037599998
 21
-293.99341921820002
 31
0.0
  0
LINE
  5
1D2
  8
0
 62
     0
 10
925.9950103760001
 20
-220.4927061647
 30
0.0
 11
925.9950103760001
 21
-244.0138957069
 31
0.0
  0
LINE
  5
1D3
  8
0
 62
     0
 10
925.9950103760001
 20
-220.4927061647
 30
0.0
 11
925.9950103760001
 21
-270.47222967599998
 31
0.0
  0
LINE
  5
1D4
  8
0
 62
     0
 10
925.9950103760001
 20
-293.99341921820002
 30
0.0
 11
925.9950103760001
 21
-244.0138957069
 31
0.0
  0
LINE
  5
1D5
  8
0
 62
     0
 10
925.9950103760001
 20
-293.99341921820002
 30
0.0
 11
925.9950103760001
 21
-270.47222967599998
 31
0.0
  0
LINE
  5
1D6
  8
0
 62
     0
 10
925.9950103760001
 20
-293.99341921820002
 30
0.0
 11
925.9950103760001
 21
-290.99341921820002
 31
0.0
  0
SOLID
  5
1D7
  8
0
 62
     0
 10
925.9950103760001
 20
-293.99341921820002
 30
0.0
 11
924.12001037599998
 21
-286.49341921820002
 31
0.0
 12
927.87001037599998
 22
-286.49341921820002
 32
0.0
 13
925.9950103760001
 23
-288.36841921820002
 33
0.0
  0
LINE
  5
1D8
  8
0
 62
     0
 10
925.9950103760001
 20
-220.4927061647
 30
0.0
 11
925.9950103760001
 21
-223.4927061647
 31
0.0
  0
SOLID
  5
1D9
  8
0
 62
     0
 10
925.9950103760001
 20
-220.4927061647
 30
0.0
 11
927.87001037599998
 21
-227.9927061647
 31
0.0
 12
924.12001037599998
 22
-227.9927061647
 32
0.0
 13
925.9950103760001
 23
-226.1177061647
 33
0.0
  0
ENDBLK
  5
1DA
  8
0
  0
BLOCK
  8
0
  2
*U21
 70
     1
 10
0.0
 20
0.0
 30
0.0
  3
*U21
  1

  0
TEXT
  5
269
  8
┌▓È_1
  6
CONTINUOUS
 10
1061.7238915216001
 20
-496.29285319308622
 30
0.0
 40
7.496527552599999
  1
 ö┬ü@ü@î·
  0
ENDBLK
  5
26B
  8
0
  0
BLOCK
  8
0
  2
*U22
 70
     1
 10
0.0
 20
0.0
 30
0.0
  3
*U22
  1

  0
TEXT
  5
26D
  8
┌▓È_1
  6
CONTINUOUS
 62
     5
 10
1069.2831495915659
 20
-537.14218371940001
 30
0.0
 40
7.496527552599999
  1
1üF2.5
  0
ENDBLK
  5
26F
  8
0
  0
BLOCK
  8
0
  2
*U23
 70
     1
 10
0.0
 20
0.0
 30
0.0
  3
*U23
  1

  0
TEXT
  5
271
  8
┌▓È_1
  6
CONTINUOUS
 10
1061.7238915216001
 20
-523.7547997537331
 30
0.0
 40
7.496527552599999
  1
 Ä┌ü@ü@ôx
  0
ENDBLK
  5
273
  8
0
  0
BLOCK
  8
0
  2
*U24
 70
     1
 10
0.0
 20
0.0
 30
0.0
  3
*U24
  1

  0
TEXT
  5
275
  8
┌▓È_1
  6
CONTINUOUS
 10
958.83534559949987
 20
-467.56771326199993
 30
0.0
 40
8.9958330630999992
  1
éjérü|éUéTéQéTéTüFérétéréRéOéSü@éO.éSéöü@éQéa
  0
TEXT
  5
276
  8
┌▓È_1
  6
CONTINUOUS
 10
958.83534559949987
 20
-482.56076836716659
 30
0.0
 40
8.9958330630999992
  1
éjéeü|éUéTéQéTéUüFérétéréSéRéOü@éO.éSéöü@éaé`
  0
ENDBLK
  5
278
  8
0
  0
BLOCK
  8
0
  2
*U25
 70
     1
 10
0.0
 20
0.0
 30
0.0
  3
*U25
  1

  0
TEXT
  5
27A
  8
┌▓È_1
  6
CONTINUOUS
 10
961.72389152160008
 20
-496.02647911761318
 30
0.0
 40
7.496527552599999
  1
 ô·ü@ü@òt
  0
ENDBLK
  5
27C
  8
0
  0
BLOCK
  8
0
  2
*U26
 70
     1
 10
0.0
 20
0.0
 30
0.0
  3
*U26
  1

  0
TEXT
  5
27E
  8
┌▓È_1
  6
CONTINUOUS
 10
959.0859375
 20
-537.5047997537331
 30
0.0
 40
7.496527552599999
  1
 É╗É}ü@ü@ ëÇî┤
  0
ENDBLK
  5
280
  8
0
  0
BLOCK
  8
0
  2
*U27
 70
     1
 10
0.0
 20
0.0
 30
0.0
  3
*U27
  1

  0
TEXT
  5
282
  8
┌▓È_1
  6
CONTINUOUS
 10
959.0859375
 20
-523.67869287502629
 30
0.0
 40
7.496527552599999
  1
 É¦îvü@ü@ ëÇî┤
  0
ENDBLK
  5
284
  8
0
  0
BLOCK
  8
0
  2
*U28
 70
     1
 10
0.0
 20
0.0
 30
0.0
  3
*U28
  1

  0
TEXT
  5
286
  8
┌▓È_1
  6
CONTINUOUS
 10
972.68552984190001
 20
-560.39252040780923
 30
0.0
 40
13.4937497973
  1
èöÄ«ë´Äð
  0
ENDBLK
  5
288
  8
0
  0
BLOCK
  8
0
  2
*U29
 70
     1
 10
0.0
 20
0.0
 30
0.0
  3
*U29
  1

  0
TEXT
  5
28A
  8
┌▓È_1
  6
CONTINUOUS
 10
1216.2422392407
 20
-531.51551054618631
 30
0.0
 40
8.9958330630999992
  1
èÀïCÉ¯âJâoü[
  0
ENDBLK
  5
28C
  8
0
  0
BLOCK
  8
0
  2
*U30
 70
     1
 10
0.0
 20
0.0
 30
0.0
  3
*U30
  1

  0
TEXT
  5
28E
  8
┌▓È_1
  6
CONTINUOUS
 10
1205.4867266232
 20
-497.7187036782999
 30
0.0
 40
8.9958330630999992
  1
éjérü|éUéTéQéTéT
  0
TEXT
  5
28F
  8
┌▓È_1
  6
CONTINUOUS
 10
1205.4867266232
 20
-512.71175878346662
 30
0.0
 40
8.9958330630999992
  1
éjéeü|éUéTéQéTéU
  0
ENDBLK
  5
291
  8
0
  0
BLOCK
  8
0
  2
*U31
 70
     1
 10
0.0
 20
0.0
 30
0.0
  3
*U31
  1

  0
TEXT
  5
293
  8
┌▓È_1
  6
CONTINUOUS
 62
     5
 10
971.92786362662082
 20
-509.6421837193999
 30
0.0
 40
7.496527552599999
  1
H10.8
  0
ENDBLK
  5
295
  8
0
  0
BLOCK
  8
0
  2
*U32
 70
     1
 10
0.0
 20
0.0
 30
0.0
  3
*U32
  1

  0
TEXT
  5
297
  8
┌▓È_1
  6
CONTINUOUS
 10
1011.7238915216
 20
-496.14063943567311
 30
0.0
 40
7.496527552599999
  1
 ìÌü@ü@Ä┐
  0
ENDBLK
  5
299
  8
0
  0
BLOCK
  8
0
  2
*U33
 70
     1
 10
0.0
 20
0.0
 30
0.0
  3
*U33
  1

  0
TEXT
  5
29B
  8
┌▓È_1
  6
CONTINUOUS
 10
1161.877617092
 20
-551.10402618771968
 30
0.0
 40
7.496527552599999
  1
É}öÈ
  0
ENDBLK
  5
29D
  8
0
  0
BLOCK
  8
0
  2
*U34
 70
     1
 10
0.0
 20
0.0
 30
0.0
  3
*U34
  1

  0
TEXT
  5
29F
  8
┌▓È_1
  6
CONTINUOUS
 10
1161.877617092
 20
-523.68013306642627
 30
0.0
 40
7.496527552599999
  1
òiû╝
  0
ENDBLK
  5
2A1
  8
0
  0
BLOCK
  8
0
  2
*U35
 70
     1
 10
0.0
 20
0.0
 30
0.0
  3
*U35
  1

  0
TEXT
  5
2A3
  8
┌▓È_1
  6
CONTINUOUS
 10
1161.877617092
 20
-496.1040261877198
 30
0.0
 40
7.496527552599999
  1
î^öÈ
  0
ENDBLK
  5
2A5
  8
0
  0
BLOCK
  8
0
  2
*U36
 70
     1
 10
0.0
 20
0.0
 30
0.0
  3
*U36
  1

  0
TEXT
  5
2A7
  8
┌▓È_1
  6
CONTINUOUS
 10
1111.7238915216001
 20
-496.29285319308622
 30
0.0
 40
7.496527552599999
  1
 îƒü@ü@ê¾
  0
ENDBLK
  5
2A9
  8
0
  0
ENDSEC
  0
SECTION
  2
ENTITIES
  0
LINE
  5
2F
  8
┌▓È_1
 62
     5
 10
808.02610677079986
 20
-45.870458965600001
 30
0.0
 11
808.02610677079986
 21
-291.99341921820002
 31
0.0
  0
LINE
  5
30
  8
┌▓È_1
 62
     5
 10
514.02610677079986
 20
-45.493419218199989
 30
0.0
 11
514.02610677079986
 21
-293.94316668639999
 31
0.0
  0
LINE
  5
31
  8
┌▓È_1
  6
STITCH
 10
508.42610677079989
 20
-48.493419218199989
 30
0.0
 11
508.42610677079989
 21
-348.7042308037
 31
0.0
  0
LINE
  5
32
  8
┌▓È_1
  6
STITCH
 10
807.62610677079988
 20
-48.493419218199989
 30
0.0
 11
807.62610677079988
 21
-348.7042308037
 31
0.0
  0
LINE
  5
33
  8
┌▓È_1
  6
BORDER
 62
     3
 10
658.02610677079997
 20
-13.4934192182
 30
0.0
 11
658.02610677079997
 21
-309.44316668639999
 31
0.0
  0
LINE
  5
34
  8
┌▓È_1
  6
STITCH
 10
492.02610677080003
 20
-26.4934192182
 30
0.0
 11
492.02610677080003
 21
-349.49341921820002
 31
0.0
  0
LINE
  5
35
  8
┌▓È_1
  6
BORDER
 62
     3
 10
499.02610677080003
 20
-52.493419218200003
 30
0.0
 11
499.02610677080003
 21
-322.49341921820002
 31
0.0
  0
LINE
  5
36
  8
┌▓È_1
  6
BORDER
 62
     3
 10
817.02610677079986
 20
-52.493419218200003
 30
0.0
 11
817.02610677079986
 21
-322.49341921820002
 31
0.0
  0
LINE
  5
37
  8
┌▓È_1
 62
     5
 10
828.02610677079997
 20
-26.4934192182
 30
0.0
 11
828.02610677079997
 21
-349.49341921820002
 31
0.0
  0
LINE
  5
38
  8
┌▓È_1
 62
     5
 10
334.0859375
 20
-568.35364583329999
 30
0.0
 11
334.0859375
 21
131.64635416670001
 31
0.0
  0
DIMENSION
  5
49
  8
Éíû@É³
  2
*D0
 10
430.49111836750001
 20
-26.4934192182
 30
0.0
 11
430.49111836750001
 21
-187.99341921819999
 31
0.0
 70
   128
  1
<>
 13
488.02610677080003
 23
-26.4934192182
 33
0.0
 14
488.02610677080003
 24
-349.49341921820002
 34
0.0
 50
90.0
  0
DIMENSION
  5
58
  8
Éíû@É³
  2
*D1
 10
463.02610677080003
 20
-187.49341921819999
 30
0.0
 11
463.02610677080003
 21
-252.49341921819999
 31
0.0
 70
   128
  1
<>
 13
494.02610677080003
 23
-187.49341921819999
 33
0.0
 14
494.02610677080003
 24
-317.49341921820002
 34
0.0
 50
90.0
  0
LINE
  5
59
  8
┌▓È_1
 62
     5
 10
1334.0859375
 20
131.64635416670001
 30
0.0
 11
334.0859375
 21
131.64635416670001
 31
0.0
  0
LINE
  5
5A
  8
┌▓È_1
 62
     5
 10
959.0859375
 20
-568.35364583329999
 30
0.0
 11
334.0859375
 21
-568.35364583329999
 31
0.0
  0
LINE
  5
5B
  8
┌▓È_1
 62
     5
 10
514.02610677079986
 20
-293.94316668639999
 30
0.0
 11
802.02610677079997
 21
-293.94316668639999
 31
0.0
  0
LINE
  5
5C
  8
┌▓È_1
  6
STITCH
 10
509.02610677080003
 20
-296.89255702100002
 30
0.0
 11
807.02610677079986
 21
-296.89255702100002
 31
0.0
  0
LINE
  5
5D
  8
┌▓È_1
 62
     5
 10
509.02610677080003
 20
-299.44316668639999
 30
0.0
 11
807.02610677079986
 21
-299.44316668639999
 31
0.0
  0
LINE
  5
5E
  8
┌▓È_1
 62
     5
 10
1138.5890244801999
 20
-27.492704930999999
 30
0.0
 11
1138.5890244801999
 21
-350.49270493099999
 31
0.0
  0
LINE
  5
5F
  8
┌▓È_1
  6
STITCH
 10
1137.9890244802
 20
-27.492704930999999
 30
0.0
 11
1137.9890244802
 21
-350.49270493099999
 31
0.0
  0
LINE
  5
60
  8
┌▓È_1
 62
     5
 10
1137.5890244801999
 20
-27.492704930999999
 30
0.0
 11
1137.5890244801999
 21
-350.49270493099999
 31
0.0
  0
LINE
  5
61
  8
┌▓È_1
  6
STITCH
 10
964.58902448020001
 20
-291.99341921820002
 30
0.0
 11
964.58902448020001
 21
-220.49270493099999
 31
0.0
  0
LINE
  5
62
  8
┌▓È_1
 62
     5
 10
964.98902448019999
 20
-220.49270493099999
 30
0.0
 11
964.98902448019999
 21
-292.7040230101
 31
0.0
  0
LINE
  5
63
  8
┌▓È_1
  6
STITCH
 10
963.48902448019987
 20
-220.492709163
 30
0.0
 11
963.48902448019987
 21
-291.99341921820002
 31
0.0
  0
LINE
  5
64
  8
┌▓È_1
 62
     5
 10
962.98902448019999
 20
-293.99341921820002
 30
0.0
 11
962.98902448019999
 21
-220.49270493099999
 31
0.0
  0
ARC
  5
65
  8
┌▓È_1
 62
     5
 10
1137.9890244802
 20
-220.49270493099999
 30
0.0
 40
173.0
 50
90.520931294400015
 51
180.00000112679999
  0
ARC
  5
66
  8
┌▓È_1
 62
     5
 10
1137.9890244802
 20
-220.49270493099999
 30
0.0
 40
175.0
 50
90.163702449900001
 51
180.0000004039
  0
ARC
  5
67
  8
┌▓È_1
  6
STITCH
 10
1137.9890244802
 20
-220.49270493099999
 30
0.0
 40
174.5
 50
90.163702449900001
 51
180.0000013895
  0
ARC
  5
68
  8
┌▓È_1
  6
STITCH
 10
1137.9890244802
 20
-220.49270493099999
 30
0.0
 40
173.40000000000001
 50
90.432986922999973
 51
180.00000216359999
  0
LINE
  5
69
  8
┌▓È_1
 62
     5
 10
1334.0859375
 20
-485.85364583329988
 30
0.0
 11
1334.0859375
 21
131.64635416670001
 31
0.0
  0
DIMENSION
  5
78
  8
Éíû@É³
  2
*D2
 10
1182.6367838542001
 20
-350.49270493099999
 30
0.0
 11
1182.6367838542001
 21
-187.49270493099999
 31
0.0
 70
   128
  1
<>
 13
1138.5890244801999
 23
-350.49270493099999
 33
0.0
 14
1137.9890244802
 24
-24.492704930999999
 34
0.0
 50
90.0
  0
DIMENSION
  5
87
  8
Éíû@É³
  2
*D3
 10
902.1123046875
 20
-45.493419218199989
 30
0.0
 11
902.1123046875
 21
-169.74341921819999
 31
0.0
 70
   128
  1
<>
 13
1137.4890244802
 23
-45.493419218199989
 33
0.0
 14
962.98902448019999
 24
-293.99341921820002
 34
0.0
 50
90.0
  0
LINE
  5
88
  8
┌▓È_1
 62
     5
 10
802.02610677079997
 20
-45.493419218199989
 30
0.0
 11
802.02610677079997
 21
-293.94316668639999
 31
0.0
  0
LINE
  5
89
  8
┌▓È_1
 62
     5
 10
808.02610677079986
 20
-48.493419218199989
 30
0.0
 11
808.02610677079986
 21
-349.49341921820002
 31
0.0
  0
LINE
  5
8A
  8
┌▓È_1
  6
STITCH
 10
824.02610677079986
 20
-26.4934192182
 30
0.0
 11
824.02610677079986
 21
-349.49341921820002
 31
0.0
  0
LINE
  5
8B
  8
┌▓È_1
 62
     5
 10
488.02610677080003
 20
-26.4934192182
 30
0.0
 11
488.02610677080003
 21
-349.49341921820002
 31
0.0
  0
LINE
  5
8C
  8
┌▓È_1
 62
     5
 10
508.02610677080003
 20
-48.493419218199989
 30
0.0
 11
508.02610677080003
 21
-349.49341921820002
 31
0.0
  0
LINE
  5
8D
  8
┌▓È_1
  6
STITCH
 10
510.32610677079998
 20
-46.50645631039999
 30
0.0
 11
510.32610677079998
 21
-291.99341921820002
 31
0.0
  0
LINE
  5
8E
  8
┌▓È_1
 62
     5
 10
508.02610677080003
 20
-45.870458965600001
 30
0.0
 11
508.02610677080003
 21
-291.99341921820002
 31
0.0
  0
LINE
  5
8F
  8
┌▓È_1
  6
STITCH
 10
805.7261067707999
 20
-46.395914761899988
 30
0.0
 11
805.7261067707999
 21
-291.99341921820002
 31
0.0
  0
ARC
  5
90
  8
┌▓È_1
 62
     5
 10
1091.1390688721999
 20
-548.89071341609986
 30
0.0
 40
13.75
 50
270.0
 51
302.54495885400001
  0
LINE
  5
91
  8
┌▓È_1
 62
     5
 10
1084.8890688721999
 20
-558.89071341609986
 30
0.0
 11
1087.8890688721999
 21
-558.89071341609986
 31
0.0
  0
LINE
  5
92
  8
┌▓È_1
 62
     5
 10
1084.8890688721999
 20
-558.89071341609986
 30
0.0
 11
1084.8890688721999
 21
-562.64071341609997
 31
0.0
  0
ARC
  5
93
  8
┌▓È_1
 62
     5
 10
1087.8890688721999
 20
-549.39071341609986
 30
0.0
 40
9.5
 50
270.0
 51
298.08590481520002
  0
LINE
  5
94
  8
┌▓È_1
 62
     5
 10
1084.8890688721999
 20
-550.94598908480009
 30
0.0
 11
1094.8890688721999
 21
-550.94598908480009
 31
0.0
  0
LINE
  5
95
  8
┌▓È_1
 62
     5
 10
959.0859375
 20
-568.35364583329999
 30
0.0
 11
1334.0859375
 21
-568.35364583329999
 31
0.0
  0
LINE
  5
96
  8
┌▓È_1
 62
     5
 10
1084.8890688721999
 20
-562.64071341609997
 30
0.0
 11
1091.1390688721999
 21
-562.64071341609997
 31
0.0
  0
LINE
  5
97
  8
┌▓È_1
 10
1065.3359375
 20
-527.10364583329988
 30
0.0
 11
1102.8359375
 21
-527.10364583329988
 31
0.0
  0
LINE
  5
98
  8
┌▓È_1
 10
1065.3359375
 20
-499.60364583329999
 30
0.0
 11
1102.8359375
 21
-499.60364583329999
 31
0.0
  0
LINE
  5
99
  8
┌▓È_1
 62
     5
 10
1084.8890688721999
 20
-549.64071341609997
 30
0.0
 11
1097.3890688721999
 21
-549.64071341609997
 31
0.0
  0
LINE
  5
9A
  8
┌▓È_1
 62
     5
 10
1084.8890688721999
 20
-562.64071341609997
 30
0.0
 11
1084.8890688721999
 21
-558.89071341609986
 31
0.0
  0
LINE
  5
9B
  8
┌▓È_1
 62
     5
 10
1084.8890688721999
 20
-545.14071341609997
 30
0.0
 11
1084.8890688721999
 21
-549.64071341609997
 31
0.0
  0
LINE
  5
9C
  8
┌▓È_1
 62
     5
 10
1084.8890688721999
 20
-551.75126475349987
 30
0.0
 11
1084.8890688721999
 21
-550.94598908480009
 31
0.0
  0
LINE
  5
9D
  8
┌▓È_1
 62
     5
 10
1094.8890688721999
 20
-550.94598908480009
 30
0.0
 11
1093.4748553099
 21
-552.36020264720003
 31
0.0
  0
INSERT
  5
9E
  8
0
  6
CONTINUOUS
  2
*U21
 10
0.0
 20
0.0
 30
0.0
  0
INSERT
  5
9F
  8
0
  6
CONTINUOUS
  2
*U22
 10
0.0
 20
0.0
 30
0.0
  0
INSERT
  5
A0
  8
0
  6
CONTINUOUS
  2
*U23
 10
0.0
 20
0.0
 30
0.0
  0
INSERT
  5
A1
  8
0
  6
CONTINUOUS
  2
*U24
 10
0.0
 20
0.0
 30
0.0
  0
DIMENSION
  5
B0
  8
Éíû@É³
  2
*D4
 10
958.03927701190014
 20
-376.01963097160001
 30
0.0
 11
1048.064150746
 21
-376.01963097160001
 31
0.0
 70
   128
  1
<>
 13
958.03927701190014
 23
-298.94316668649998
 33
0.0
 14
1138.0890244801999
 24
-350.49270493099999
 34
0.0
 50
180.0
  0
LINE
  5
B1
  8
┌▓È_1
 62
     5
 10
802.02610677079997
 20
-45.493419218199989
 30
0.0
 11
514.02610677079986
 21
-45.493419218199989
 31
0.0
  0
LINE
  5
B2
  8
┌▓È_1
 62
     5
 10
812.02610677079997
 20
-23.4934192182
 30
0.0
 11
504.02610677080003
 21
-23.4934192182
 31
0.0
  0
LINE
  5
B3
  8
┌▓È_1
  6
STITCH
 10
812.02610677079997
 20
-27.49341921820001
 30
0.0
 11
504.02610677080003
 21
-27.49341921820001
 31
0.0
  0
LINE
  5
B4
  8
┌▓È_1
  6
BORDER
 62
     3
 10
523.02610677079986
 20
-34.492704930999999
 30
0.0
 11
793.02610677079986
 21
-34.492704930999999
 31
0.0
  0
DIMENSION
  5
C3
  8
Éíû@É³
  2
*D5
 10
828.02610677079997
 20
41.604282808199997
 30
0.0
 11
658.02610677079997
 21
41.604282808199997
 31
0.0
 70
   128
  1
<>
 13
828.02610677079997
 23
-26.4934192182
 33
0.0
 14
488.02610677080003
 24
-26.4934192182
 34
0.0
  0
DIMENSION
  5
D2
  8
Éíû@É³
  2
*D6
 10
658.02610677079997
 20
12.00565069
 30
0.0
 11
593.02610677079986
 21
12.00565069
 31
0.0
 70
   128
  1
<>
 13
658.02610677079997
 23
-13.4934192182
 33
0.0
 14
528.02610677079986
 24
-29.492704930999999
 34
0.0
  0
LINE
  5
D3
  8
┌▓È_1
 62
     5
 10
828.02610677079997
 20
-349.49341921820002
 30
0.0
 11
807.62610677079988
 21
-349.49341921820002
 31
0.0
  0
LINE
  5
D4
  8
┌▓È_1
 62
     5
 10
508.42610677079989
 20
-348.7042308037
 30
0.0
 11
508.42610677079989
 21
-349.49341921820002
 31
0.0
  0
POLYLINE
  5
D5
  8
┌▓È_1
 62
     5
 10
514.02610677079997
 20
-293.94316668640005
 30
0.0
 66
     1
 70
     8
  0
VERTEX
  8
┌▓È_1
  5
2AA
 10
514.026
 20
-293.943
 30
0.000000
  70
    32
  0
VERTEX
  8
┌▓È_1
  5
2AB
 10
514.026
 20
-293.967
 30
0.000000
  70
    32
  0
VERTEX
  8
┌▓È_1
  5
2AC
 10
514.025
 20
-293.991
 30
0.000000
  70
    32
  0
VERTEX
  8
┌▓È_1
  5
2AD
 10
514.023
 20
-294.015
 30
0.000000
  70
    32
  0
VERTEX
  8
┌▓È_1
  5
2AE
 10
514.020
 20
-294.039
 30
0.000000
  70
    32
  0
VERTEX
  8
┌▓È_1
  5
2AF
 10
514.017
 20
-294.063
 30
0.000000
  70
    32
  0
VERTEX
  8
┌▓È_1
  5
2B0
 10
514.013
 20
-294.087
 30
0.000000
  70
    32
  0
VERTEX
  8
┌▓È_1
  5
2B1
 10
514.008
 20
-294.110
 30
0.000000
  70
    32
  0
VERTEX
  8
┌▓È_1
  5
2B2
 10
514.002
 20
-294.134
 30
0.000000
  70
    32
  0
VERTEX
  8
┌▓È_1
  5
2B3
 10
513.996
 20
-294.158
 30
0.000000
  70
    32
  0
VERTEX
  8
┌▓È_1
  5
2B4
 10
513.989
 20
-294.182
 30
0.000000
  70
    32
  0
VERTEX
  8
┌▓È_1
  5
2B5
 10
513.981
 20
-294.206
 30
0.000000
  70
    32
  0
VERTEX
  8
┌▓È_1
  5
2B6
 10
513.972
 20
-294.229
 30
0.000000
  70
    32
  0
VERTEX
  8
┌▓È_1
  5
2B7
 10
513.963
 20
-294.253
 30
0.000000
  70
    32
  0
VERTEX
  8
┌▓È_1
  5
2B8
 10
513.952
 20
-294.276
 30
0.000000
  70
    32
  0
VERTEX
  8
┌▓È_1
  5
2B9
 10
513.942
 20
-294.300
 30
0.000000
  70
    32
  0
VERTEX
  8
┌▓È_1
  5
2BA
 10
513.930
 20
-294.324
 30
0.000000
  70
    32
  0
VERTEX
  8
┌▓È_1
  5
2BB
 10
513.918
 20
-294.347
 30
0.000000
  70
    32
  0
VERTEX
  8
┌▓È_1
  5
2BC
 10
513.905
 20
-294.370
 30
0.000000
  70
    32
  0
VERTEX
  8
┌▓È_1
  5
2BD
 10
513.891
 20
-294.394
 30
0.000000
  70
    32
  0
VERTEX
  8
┌▓È_1
  5
2BE
 10
513.876
 20
-294.417
 30
0.000000
  70
    32
  0
VERTEX
  8
┌▓È_1
  5
2BF
 10
513.861
 20
-294.440
 30
0.000000
  70
    32
  0
VERTEX
  8
┌▓È_1
  5
2C0
 10
513.845
 20
-294.463
 30
0.000000
  70
    32
  0
VERTEX
  8
┌▓È_1
  5
2C1
 10
513.828
 20
-294.486
 30
0.000000
  70
    32
  0
VERTEX
  8
┌▓È_1
  5
2C2
 10
513.811
 20
-294.509
 30
0.000000
  70
    32
  0
VERTEX
  8
┌▓È_1
  5
2C3
 10
513.793
 20
-294.532
 30
0.000000
  70
    32
  0
VERTEX
  8
┌▓È_1
  5
2C4
 10
513.774
 20
-294.555
 30
0.000000
  70
    32
  0
VERTEX
  8
┌▓È_1
  5
2C5
 10
513.754
 20
-294.577
 30
0.000000
  70
    32
  0
VERTEX
  8
┌▓È_1
  5
2C6
 10
513.734
 20
-294.600
 30
0.000000
  70
    32
  0
VERTEX
  8
┌▓È_1
  5
2C7
 10
513.713
 20
-294.622
 30
0.000000
  70
    32
  0
VERTEX
  8
┌▓È_1
  5
2C8
 10
513.691
 20
-294.645
 30
0.000000
  70
    32
  0
VERTEX
  8
┌▓È_1
  5
2C9
 10
513.669
 20
-294.667
 30
0.000000
  70
    32
  0
VERTEX
  8
┌▓È_1
  5
2CA
 10
513.646
 20
-294.689
 30
0.000000
  70
    32
  0
VERTEX
  8
┌▓È_1
  5
2CB
 10
513.622
 20
-294.711
 30
0.000000
  70
    32
  0
VERTEX
  8
┌▓È_1
  5
2CC
 10
513.597
 20
-294.733
 30
0.000000
  70
    32
  0
VERTEX
  8
┌▓È_1
  5
2CD
 10
513.572
 20
-294.755
 30
0.000000
  70
    32
  0
VERTEX
  8
┌▓È_1
  5
2CE
 10
513.546
 20
-294.777
 30
0.000000
  70
    32
  0
VERTEX
  8
┌▓È_1
  5
2CF
 10
513.519
 20
-294.798
 30
0.000000
  70
    32
  0
VERTEX
  8
┌▓È_1
  5
2D0
 10
513.492
 20
-294.820
 30
0.000000
  70
    32
  0
VERTEX
  8
┌▓È_1
  5
2D1
 10
513.464
 20
-294.841
 30
0.000000
  70
    32
  0
VERTEX
  8
┌▓È_1
  5
2D2
 10
513.436
 20
-294.862
 30
0.000000
  70
    32
  0
VERTEX
  8
┌▓È_1
  5
2D3
 10
513.406
 20
-294.883
 30
0.000000
  70
    32
  0
VERTEX
  8
┌▓È_1
  5
2D4
 10
513.377
 20
-294.904
 30
0.000000
  70
    32
  0
VERTEX
  8
┌▓È_1
  5
2D5
 10
513.346
 20
-294.925
 30
0.000000
  70
    32
  0
VERTEX
  8
┌▓È_1
  5
2D6
 10
513.315
 20
-294.946
 30
0.000000
  70
    32
  0
VERTEX
  8
┌▓È_1
  5
2D7
 10
513.283
 20
-294.966
 30
0.000000
  70
    32
  0
VERTEX
  8
┌▓È_1
  5
2D8
 10
513.250
 20
-294.986
 30
0.000000
  70
    32
  0
VERTEX
  8
┌▓È_1
  5
2D9
 10
513.217
 20
-295.006
 30
0.000000
  70
    32
  0
VERTEX
  8
┌▓È_1
  5
2DA
 10
513.183
 20
-295.026
 30
0.000000
  70
    32
  0
VERTEX
  8
┌▓È_1
  5
2DB
 10
513.149
 20
-295.046
 30
0.000000
  70
    32
  0
VERTEX
  8
┌▓È_1
  5
2DC
 10
513.114
 20
-295.066
 30
0.000000
  70
    32
  0
VERTEX
  8
┌▓È_1
  5
2DD
 10
513.078
 20
-295.085
 30
0.000000
  70
    32
  0
VERTEX
  8
┌▓È_1
  5
2DE
 10
513.042
 20
-295.105
 30
0.000000
  70
    32
  0
VERTEX
  8
┌▓È_1
  5
2DF
 10
513.005
 20
-295.124
 30
0.000000
  70
    32
  0
VERTEX
  8
┌▓È_1
  5
2E0
 10
512.968
 20
-295.143
 30
0.000000
  70
    32
  0
VERTEX
  8
┌▓È_1
  5
2E1
 10
512.930
 20
-295.161
 30
0.000000
  70
    32
  0
VERTEX
  8
┌▓È_1
  5
2E2
 10
512.891
 20
-295.180
 30
0.000000
  70
    32
  0
VERTEX
  8
┌▓È_1
  5
2E3
 10
512.852
 20
-295.198
 30
0.000000
  70
    32
  0
VERTEX
  8
┌▓È_1
  5
2E4
 10
512.812
 20
-295.217
 30
0.000000
  70
    32
  0
VERTEX
  8
┌▓È_1
  5
2E5
 10
512.772
 20
-295.235
 30
0.000000
  70
    32
  0
VERTEX
  8
┌▓È_1
  5
2E6
 10
512.731
 20
-295.253
 30
0.000000
  70
    32
  0
VERTEX
  8
┌▓È_1
  5
2E7
 10
512.689
 20
-295.270
 30
0.000000
  70
    32
  0
VERTEX
  8
┌▓È_1
  5
2E8
 10
512.647
 20
-295.288
 30
0.000000
  70
    32
  0
VERTEX
  8
┌▓È_1
  5
2E9
 10
512.605
 20
-295.305
 30
0.000000
  70
    32
  0
VERTEX
  8
┌▓È_1
  5
2EA
 10
512.562
 20
-295.322
 30
0.000000
  70
    32
  0
VERTEX
  8
┌▓È_1
  5
2EB
 10
512.518
 20
-295.339
 30
0.000000
  70
    32
  0
VERTEX
  8
┌▓È_1
  5
2EC
 10
512.474
 20
-295.355
 30
0.000000
  70
    32
  0
VERTEX
  8
┌▓È_1
  5
2ED
 10
512.429
 20
-295.372
 30
0.000000
  70
    32
  0
VERTEX
  8
┌▓È_1
  5
2EE
 10
512.384
 20
-295.388
 30
0.000000
  70
    32
  0
VERTEX
  8
┌▓È_1
  5
2EF
 10
512.338
 20
-295.404
 30
0.000000
  70
    32
  0
VERTEX
  8
┌▓È_1
  5
2F0
 10
512.292
 20
-295.420
 30
0.000000
  70
    32
  0
VERTEX
  8
┌▓È_1
  5
2F1
 10
512.245
 20
-295.435
 30
0.000000
  70
    32
  0
VERTEX
  8
┌▓È_1
  5
2F2
 10
512.198
 20
-295.450
 30
0.000000
  70
    32
  0
VERTEX
  8
┌▓È_1
  5
2F3
 10
512.150
 20
-295.465
 30
0.000000
  70
    32
  0
VERTEX
  8
┌▓È_1
  5
2F4
 10
512.102
 20
-295.480
 30
0.000000
  70
    32
  0
VERTEX
  8
┌▓È_1
  5
2F5
 10
512.054
 20
-295.495
 30
0.000000
  70
    32
  0
VERTEX
  8
┌▓È_1
  5
2F6
 10
512.005
 20
-295.509
 30
0.000000
  70
    32
  0
VERTEX
  8
┌▓È_1
  5
2F7
 10
511.955
 20
-295.523
 30
0.000000
  70
    32
  0
VERTEX
  8
┌▓È_1
  5
2F8
 10
511.905
 20
-295.537
 30
0.000000
  70
    32
  0
VERTEX
  8
┌▓È_1
  5
2F9
 10
511.855
 20
-295.551
 30
0.000000
  70
    32
  0
VERTEX
  8
┌▓È_1
  5
2FA
 10
511.804
 20
-295.564
 30
0.000000
  70
    32
  0
VERTEX
  8
┌▓È_1
  5
2FB
 10
511.753
 20
-295.577
 30
0.000000
  70
    32
  0
VERTEX
  8
┌▓È_1
  5
2FC
 10
511.701
 20
-295.590
 30
0.000000
  70
    32
  0
VERTEX
  8
┌▓È_1
  5
2FD
 10
511.649
 20
-295.603
 30
0.000000
  70
    32
  0
VERTEX
  8
┌▓È_1
  5
2FE
 10
511.597
 20
-295.616
 30
0.000000
  70
    32
  0
VERTEX
  8
┌▓È_1
  5
2FF
 10
511.544
 20
-295.628
 30
0.000000
  70
    32
  0
VERTEX
  8
┌▓È_1
  5
300
 10
511.491
 20
-295.640
 30
0.000000
  70
    32
  0
VERTEX
  8
┌▓È_1
  5
301
 10
511.437
 20
-295.651
 30
0.000000
  70
    32
  0
VERTEX
  8
┌▓È_1
  5
302
 10
511.383
 20
-295.663
 30
0.000000
  70
    32
  0
VERTEX
  8
┌▓È_1
  5
303
 10
511.329
 20
-295.674
 30
0.000000
  70
    32
  0
VERTEX
  8
┌▓È_1
  5
304
 10
511.274
 20
-295.685
 30
0.000000
  70
    32
  0
VERTEX
  8
┌▓È_1
  5
305
 10
511.219
 20
-295.695
 30
0.000000
  70
    32
  0
VERTEX
  8
┌▓È_1
  5
306
 10
511.164
 20
-295.706
 30
0.000000
  70
    32
  0
VERTEX
  8
┌▓È_1
  5
307
 10
511.108
 20
-295.716
 30
0.000000
  70
    32
  0
VERTEX
  8
┌▓È_1
  5
308
 10
511.052
 20
-295.726
 30
0.000000
  70
    32
  0
VERTEX
  8
┌▓È_1
  5
309
 10
510.996
 20
-295.735
 30
0.000000
  70
    32
  0
VERTEX
  8
┌▓È_1
  5
30A
 10
510.940
 20
-295.744
 30
0.000000
  70
    32
  0
VERTEX
  8
┌▓È_1
  5
30B
 10
510.883
 20
-295.754
 30
0.000000
  70
    32
  0
VERTEX
  8
┌▓È_1
  5
30C
 10
510.826
 20
-295.762
 30
0.000000
  70
    32
  0
VERTEX
  8
┌▓È_1
  5
30D
 10
510.768
 20
-295.771
 30
0.000000
  70
    32
  0
VERTEX
  8
┌▓È_1
  5
30E
 10
510.711
 20
-295.779
 30
0.000000
  70
    32
  0
VERTEX
  8
┌▓È_1
  5
30F
 10
510.653
 20
-295.787
 30
0.000000
  70
    32
  0
VERTEX
  8
┌▓È_1
  5
310
 10
510.595
 20
-295.795
 30
0.000000
  70
    32
  0
VERTEX
  8
┌▓È_1
  5
311
 10
510.536
 20
-295.802
 30
0.000000
  70
    32
  0
VERTEX
  8
┌▓È_1
  5
312
 10
510.478
 20
-295.809
 30
0.000000
  70
    32
  0
VERTEX
  8
┌▓È_1
  5
313
 10
510.419
 20
-295.816
 30
0.000000
  70
    32
  0
VERTEX
  8
┌▓È_1
  5
314
 10
510.360
 20
-295.822
 30
0.000000
  70
    32
  0
VERTEX
  8
┌▓È_1
  5
315
 10
510.300
 20
-295.829
 30
0.000000
  70
    32
  0
VERTEX
  8
┌▓È_1
  5
316
 10
510.241
 20
-295.834
 30
0.000000
  70
    32
  0
VERTEX
  8
┌▓È_1
  5
317
 10
510.181
 20
-295.840
 30
0.000000
  70
    32
  0
VERTEX
  8
┌▓È_1
  5
318
 10
510.122
 20
-295.846
 30
0.000000
  70
    32
  0
VERTEX
  8
┌▓È_1
  5
319
 10
510.062
 20
-295.851
 30
0.000000
  70
    32
  0
VERTEX
  8
┌▓È_1
  5
31A
 10
510.002
 20
-295.855
 30
0.000000
  70
    32
  0
VERTEX
  8
┌▓È_1
  5
31B
 10
509.941
 20
-295.860
 30
0.000000
  70
    32
  0
VERTEX
  8
┌▓È_1
  5
31C
 10
509.881
 20
-295.864
 30
0.000000
  70
    32
  0
VERTEX
  8
┌▓È_1
  5
31D
 10
509.820
 20
-295.868
 30
0.000000
  70
    32
  0
VERTEX
  8
┌▓È_1
  5
31E
 10
509.760
 20
-295.872
 30
0.000000
  70
    32
  0
VERTEX
  8
┌▓È_1
  5
31F
 10
509.699
 20
-295.875
 30
0.000000
  70
    32
  0
VERTEX
  8
┌▓È_1
  5
320
 10
509.638
 20
-295.878
 30
0.000000
  70
    32
  0
VERTEX
  8
┌▓È_1
  5
321
 10
509.577
 20
-295.881
 30
0.000000
  70
    32
  0
VERTEX
  8
┌▓È_1
  5
322
 10
509.516
 20
-295.884
 30
0.000000
  70
    32
  0
VERTEX
  8
┌▓È_1
  5
323
 10
509.455
 20
-295.886
 30
0.000000
  70
    32
  0
VERTEX
  8
┌▓È_1
  5
324
 10
509.394
 20
-295.888
 30
0.000000
  70
    32
  0
VERTEX
  8
┌▓È_1
  5
325
 10
509.333
 20
-295.889
 30
0.000000
  70
    32
  0
VERTEX
  8
┌▓È_1
  5
326
 10
509.271
 20
-295.891
 30
0.000000
  70
    32
  0
VERTEX
  8
┌▓È_1
  5
327
 10
509.210
 20
-295.892
 30
0.000000
  70
    32
  0
VERTEX
  8
┌▓È_1
  5
328
 10
509.149
 20
-295.892
 30
0.000000
  70
    32
  0
VERTEX
  8
┌▓È_1
  5
329
 10
509.087
 20
-295.893
 30
0.000000
  70
    32
  0
VERTEX
  8
┌▓È_1
  5
32A
 10
509.026
 20
-295.893
 30
0.000000
  70
    32
  0
SEQEND
  8
┌▓È_1
  5
32B
  0
LINE
  5
D6
  8
┌▓È_1
 62
     5
 10
488.02610677080003
 20
-349.49341921820002
 30
0.0
 11
508.42610677079989
 21
-349.49341921820002
 31
0.0
  0
LINE
  5
D7
  8
┌▓È_1
 62
     5
 10
508.82610677079998
 20
-348.7042308037
 30
0.0
 11
508.42610677079989
 21
-348.7042308037
 31
0.0
  0
LINE
  5
D8
  8
┌▓È_1
 62
     5
 10
508.42610677079989
 20
-289.88739399719998
 30
0.0
 11
508.82610677079998
 21
-289.88739399719998
 31
0.0
  0
LINE
  5
D9
  8
┌▓È_1
 62
     5
 10
508.82610677079998
 20
-289.88739399719998
 30
0.0
 11
508.82610677079998
 21
-348.7042308037
 31
0.0
  0
LINE
  5
DA
  8
┌▓È_1
 62
     5
 10
508.02610677080003
 20
-291.99341921820002
 30
0.0
 11
509.02610677080003
 21
-291.99341921820002
 31
0.0
  0
LINE
  5
DB
  8
┌▓È_1
 62
     5
 10
509.02610677080003
 20
-299.44316668639999
 30
0.0
 11
509.02610677080003
 21
-291.99341921820002
 31
0.0
  0
LINE
  5
DC
  8
┌▓È_1
  6
STITCH
 10
509.02610677080003
 20
-291.99341921820002
 30
0.0
 11
510.32610677079998
 21
-291.99341921820002
 31
0.0
  0
CIRCLE
  5
DD
  8
┌▓È_1
 62
     5
 10
499.02610677080003
 20
-317.49341921820002
 30
0.0
 40
2.0
  0
LINE
  5
DE
  8
┌▓È_1
  6
BORDER
 62
     3
 10
494.02610677080003
 20
-317.49341921820002
 30
0.0
 11
504.02610677080003
 21
-317.49341921820002
 31
0.0
  0
DIMENSION
  5
ED
  8
Éíû@É³
  2
*D7
 10
488.02610677080003
 20
-375.02034525879998
 30
0.0
 11
493.52610677080003
 21
-375.02034525879998
 31
0.0
 70
   128
  1
<>
 13
488.02610677080003
 23
-349.49341921820002
 33
0.0
 14
499.02610677080003
 24
-323.12428262340001
 34
0.0
 50
180.0
  0
DIMENSION
  5
FC
  8
Éíû@É³
  2
*D8
 10
463.02610677080003
 20
-317.49341921820002
 30
0.0
 11
463.02610677080003
 21
-333.49341921820002
 31
0.0
 70
   128
  1
<>
 13
494.02610677080003
 23
-317.49341921820002
 33
0.0
 14
488.02610677080003
 24
-349.49341921820002
 34
0.0
 50
90.0
  0
DIMENSION
  5
10B
  8
Éíû@É³
  2
*D9
 10
902.11229801100001
 20
-24.492704930999999
 30
0.0
 11
902.11229801100001
 21
-34.993062074599997
 31
0.0
 70
   128
  1
22
 13
1137.9890244802
 23
-24.492704930999999
 33
0.0
 14
1137.4890244802
 24
-45.493419218199989
 34
0.0
 50
90.0
  0
DIMENSION
  5
11A
  8
Éíû@É³
  2
*D10
 10
1137.9890244802
 20
-0.7157788903000001
 30
0.0
 11
1050.4890244802
 21
-0.7157788903000001
 31
0.0
 70
   128
  1
<>
 13
1137.9890244802
 23
-26.242704930999999
 33
0.0
 14
962.98902448019999
 24
-220.4927061647
 34
0.0
  0
DIMENSION
  5
122
  8
Éíû@É³
  2
*D11
 10
1137.9890244802
 20
-220.49270493099999
 30
0.0
 11
947.27622156159987
 21
-63.688890964999999
 31
0.0
 70
   132
  1
<>
 15
1014.2453377725
 25
-96.749018223299984
 35
0.0
 40
0.0
  0
LINE
  5
123
  8
┌▓È_1
 62
     5
 10
1132.3444546498999
 20
-349.70351651649997
 30
0.0
 11
966.19587713390001
 21
-294.11098013769998
 31
0.0
  0
LINE
  5
124
  8
┌▓È_1
  6
STITCH
 10
1132.3444546498999
 20
-346.1182426690001
 30
0.0
 11
967.27471296559997
 21
-290.88667971000001
 31
0.0
  0
POLYLINE
  8
┌▓È_1
  5
32C
  62
5
  66
     1
 10
0.000000
 20
0.000000
 30
0.000000
  70
     8
  0
VERTEX
  8
┌▓È_1
  5
32D
 10
1084.89
 20
-551.751
 30
0.000000
  70
    32
  0
VERTEX
  8
┌▓È_1
  5
32E
 10
1084.93
 20
-551.793
 30
0.000000
  70
    32
  0
VERTEX
  8
┌▓È_1
  5
32F
 10
1084.98
 20
-551.834
 30
0.000000
  70
    32
  0
VERTEX
  8
┌▓È_1
  5
330
 10
1085.02
 20
-551.876
 30
0.000000
  70
    32
  0
VERTEX
  8
┌▓È_1
  5
331
 10
1085.07
 20
-551.917
 30
0.000000
  70
    32
  0
VERTEX
  8
┌▓È_1
  5
332
 10
1085.11
 20
-551.959
 30
0.000000
  70
    32
  0
VERTEX
  8
┌▓È_1
  5
333
 10
1085.16
 20
-552.000
 30
0.000000
  70
    32
  0
VERTEX
  8
┌▓È_1
  5
334
 10
1085.20
 20
-552.042
 30
0.000000
  70
    32
  0
VERTEX
  8
┌▓È_1
  5
335
 10
1085.25
 20
-552.083
 30
0.000000
  70
    32
  0
VERTEX
  8
┌▓È_1
  5
336
 10
1085.29
 20
-552.125
 30
0.000000
  70
    32
  0
VERTEX
  8
┌▓È_1
  5
337
 10
1085.34
 20
-552.166
 30
0.000000
  70
    32
  0
VERTEX
  8
┌▓È_1
  5
338
 10
1085.38
 20
-552.208
 30
0.000000
  70
    32
  0
VERTEX
  8
┌▓È_1
  5
339
 10
1085.43
 20
-552.249
 30
0.000000
  70
    32
  0
VERTEX
  8
┌▓È_1
  5
33A
 10
1085.47
 20
-552.291
 30
0.000000
  70
    32
  0
VERTEX
  8
┌▓È_1
  5
33B
 10
1085.52
 20
-552.332
 30
0.000000
  70
    32
  0
VERTEX
  8
┌▓È_1
  5
33C
 10
1085.56
 20
-552.373
 30
0.000000
  70
    32
  0
VERTEX
  8
┌▓È_1
  5
33D
 10
1085.61
 20
-552.415
 30
0.000000
  70
    32
  0
VERTEX
  8
┌▓È_1
  5
33E
 10
1085.65
 20
-552.456
 30
0.000000
  70
    32
  0
VERTEX
  8
┌▓È_1
  5
33F
 10
1085.70
 20
-552.498
 30
0.000000
  70
    32
  0
VERTEX
  8
┌▓È_1
  5
340
 10
1085.75
 20
-552.539
 30
0.000000
  70
    32
  0
VERTEX
  8
┌▓È_1
  5
341
 10
1085.79
 20
-552.580
 30
0.000000
  70
    32
  0
VERTEX
  8
┌▓È_1
  5
342
 10
1085.84
 20
-552.622
 30
0.000000
  70
    32
  0
VERTEX
  8
┌▓È_1
  5
343
 10
1085.88
 20
-552.663
 30
0.000000
  70
    32
  0
VERTEX
  8
┌▓È_1
  5
344
 10
1085.93
 20
-552.704
 30
0.000000
  70
    32
  0
VERTEX
  8
┌▓È_1
  5
345
 10
1085.97
 20
-552.745
 30
0.000000
  70
    32
  0
VERTEX
  8
┌▓È_1
  5
346
 10
1086.02
 20
-552.787
 30
0.000000
  70
    32
  0
VERTEX
  8
┌▓È_1
  5
347
 10
1086.06
 20
-552.828
 30
0.000000
  70
    32
  0
VERTEX
  8
┌▓È_1
  5
348
 10
1086.11
 20
-552.869
 30
0.000000
  70
    32
  0
VERTEX
  8
┌▓È_1
  5
349
 10
1086.15
 20
-552.910
 30
0.000000
  70
    32
  0
VERTEX
  8
┌▓È_1
  5
34A
 10
1086.20
 20
-552.951
 30
0.000000
  70
    32
  0
VERTEX
  8
┌▓È_1
  5
34B
 10
1086.24
 20
-552.993
 30
0.000000
  70
    32
  0
VERTEX
  8
┌▓È_1
  5
34C
 10
1086.29
 20
-553.034
 30
0.000000
  70
    32
  0
VERTEX
  8
┌▓È_1
  5
34D
 10
1086.33
 20
-553.075
 30
0.000000
  70
    32
  0
VERTEX
  8
┌▓È_1
  5
34E
 10
1086.38
 20
-553.116
 30
0.000000
  70
    32
  0
VERTEX
  8
┌▓È_1
  5
34F
 10
1086.42
 20
-553.157
 30
0.000000
  70
    32
  0
VERTEX
  8
┌▓È_1
  5
350
 10
1086.47
 20
-553.198
 30
0.000000
  70
    32
  0
VERTEX
  8
┌▓È_1
  5
351
 10
1086.51
 20
-553.239
 30
0.000000
  70
    32
  0
VERTEX
  8
┌▓È_1
  5
352
 10
1086.56
 20
-553.280
 30
0.000000
  70
    32
  0
VERTEX
  8
┌▓È_1
  5
353
 10
1086.60
 20
-553.321
 30
0.000000
  70
    32
  0
VERTEX
  8
┌▓È_1
  5
354
 10
1086.65
 20
-553.361
 30
0.000000
  70
    32
  0
VERTEX
  8
┌▓È_1
  5
355
 10
1086.70
 20
-553.402
 30
0.000000
  70
    32
  0
VERTEX
  8
┌▓È_1
  5
356
 10
1086.74
 20
-553.443
 30
0.000000
  70
    32
  0
VERTEX
  8
┌▓È_1
  5
357
 10
1086.79
 20
-553.484
 30
0.000000
  70
    32
  0
VERTEX
  8
┌▓È_1
  5
358
 10
1086.83
 20
-553.525
 30
0.000000
  70
    32
  0
VERTEX
  8
┌▓È_1
  5
359
 10
1086.88
 20
-553.565
 30
0.000000
  70
    32
  0
VERTEX
  8
┌▓È_1
  5
35A
 10
1086.92
 20
-553.606
 30
0.000000
  70
    32
  0
VERTEX
  8
┌▓È_1
  5
35B
 10
1086.97
 20
-553.647
 30
0.000000
  70
    32
  0
VERTEX
  8
┌▓È_1
  5
35C
 10
1087.01
 20
-553.687
 30
0.000000
  70
    32
  0
VERTEX
  8
┌▓È_1
  5
35D
 10
1087.06
 20
-553.728
 30
0.000000
  70
    32
  0
VERTEX
  8
┌▓È_1
  5
35E
 10
1087.10
 20
-553.768
 30
0.000000
  70
    32
  0
VERTEX
  8
┌▓È_1
  5
35F
 10
1087.15
 20
-553.809
 30
0.000000
  70
    32
  0
VERTEX
  8
┌▓È_1
  5
360
 10
1087.20
 20
-553.849
 30
0.000000
  70
    32
  0
VERTEX
  8
┌▓È_1
  5
361
 10
1087.24
 20
-553.889
 30
0.000000
  70
    32
  0
VERTEX
  8
┌▓È_1
  5
362
 10
1087.29
 20
-553.930
 30
0.000000
  70
    32
  0
VERTEX
  8
┌▓È_1
  5
363
 10
1087.33
 20
-553.970
 30
0.000000
  70
    32
  0
VERTEX
  8
┌▓È_1
  5
364
 10
1087.38
 20
-554.010
 30
0.000000
  70
    32
  0
VERTEX
  8
┌▓È_1
  5
365
 10
1087.42
 20
-554.050
 30
0.000000
  70
    32
  0
VERTEX
  8
┌▓È_1
  5
366
 10
1087.47
 20
-554.090
 30
0.000000
  70
    32
  0
VERTEX
  8
┌▓È_1
  5
367
 10
1087.52
 20
-554.131
 30
0.000000
  70
    32
  0
VERTEX
  8
┌▓È_1
  5
368
 10
1087.56
 20
-554.171
 30
0.000000
  70
    32
  0
VERTEX
  8
┌▓È_1
  5
369
 10
1087.61
 20
-554.211
 30
0.000000
  70
    32
  0
VERTEX
  8
┌▓È_1
  5
36A
 10
1087.65
 20
-554.250
 30
0.000000
  70
    32
  0
VERTEX
  8
┌▓È_1
  5
36B
 10
1087.70
 20
-554.290
 30
0.000000
  70
    32
  0
VERTEX
  8
┌▓È_1
  5
36C
 10
1087.75
 20
-554.330
 30
0.000000
  70
    32
  0
VERTEX
  8
┌▓È_1
  5
36D
 10
1087.79
 20
-554.370
 30
0.000000
  70
    32
  0
VERTEX
  8
┌▓È_1
  5
36E
 10
1087.84
 20
-554.410
 30
0.000000
  70
    32
  0
VERTEX
  8
┌▓È_1
  5
36F
 10
1087.88
 20
-554.449
 30
0.000000
  70
    32
  0
VERTEX
  8
┌▓È_1
  5
370
 10
1087.93
 20
-554.489
 30
0.000000
  70
    32
  0
VERTEX
  8
┌▓È_1
  5
371
 10
1087.98
 20
-554.528
 30
0.000000
  70
    32
  0
VERTEX
  8
┌▓È_1
  5
372
 10
1088.02
 20
-554.568
 30
0.000000
  70
    32
  0
VERTEX
  8
┌▓È_1
  5
373
 10
1088.07
 20
-554.607
 30
0.000000
  70
    32
  0
VERTEX
  8
┌▓È_1
  5
374
 10
1088.11
 20
-554.647
 30
0.000000
  70
    32
  0
VERTEX
  8
┌▓È_1
  5
375
 10
1088.16
 20
-554.686
 30
0.000000
  70
    32
  0
VERTEX
  8
┌▓È_1
  5
376
 10
1088.21
 20
-554.725
 30
0.000000
  70
    32
  0
VERTEX
  8
┌▓È_1
  5
377
 10
1088.25
 20
-554.764
 30
0.000000
  70
    32
  0
VERTEX
  8
┌▓È_1
  5
378
 10
1088.30
 20
-554.804
 30
0.000000
  70
    32
  0
VERTEX
  8
┌▓È_1
  5
379
 10
1088.35
 20
-554.843
 30
0.000000
  70
    32
  0
VERTEX
  8
┌▓È_1
  5
37A
 10
1088.39
 20
-554.882
 30
0.000000
  70
    32
  0
VERTEX
  8
┌▓È_1
  5
37B
 10
1088.44
 20
-554.920
 30
0.000000
  70
    32
  0
VERTEX
  8
┌▓È_1
  5
37C
 10
1088.48
 20
-554.959
 30
0.000000
  70
    32
  0
VERTEX
  8
┌▓È_1
  5
37D
 10
1088.53
 20
-554.998
 30
0.000000
  70
    32
  0
VERTEX
  8
┌▓È_1
  5
37E
 10
1088.58
 20
-555.037
 30
0.000000
  70
    32
  0
VERTEX
  8
┌▓È_1
  5
37F
 10
1088.62
 20
-555.075
 30
0.000000
  70
    32
  0
VERTEX
  8
┌▓È_1
  5
380
 10
1088.67
 20
-555.114
 30
0.000000
  70
    32
  0
VERTEX
  8
┌▓È_1
  5
381
 10
1088.72
 20
-555.152
 30
0.000000
  70
    32
  0
VERTEX
  8
┌▓È_1
  5
382
 10
1088.76
 20
-555.191
 30
0.000000
  70
    32
  0
VERTEX
  8
┌▓È_1
  5
383
 10
1088.81
 20
-555.229
 30
0.000000
  70
    32
  0
VERTEX
  8
┌▓È_1
  5
384
 10
1088.86
 20
-555.268
 30
0.000000
  70
    32
  0
VERTEX
  8
┌▓È_1
  5
385
 10
1088.90
 20
-555.306
 30
0.000000
  70
    32
  0
VERTEX
  8
┌▓È_1
  5
386
 10
1088.95
 20
-555.344
 30
0.000000
  70
    32
  0
VERTEX
  8
┌▓È_1
  5
387
 10
1089.00
 20
-555.382
 30
0.000000
  70
    32
  0
VERTEX
  8
┌▓È_1
  5
388
 10
1089.05
 20
-555.420
 30
0.000000
  70
    32
  0
VERTEX
  8
┌▓È_1
  5
389
 10
1089.09
 20
-555.458
 30
0.000000
  70
    32
  0
VERTEX
  8
┌▓È_1
  5
38A
 10
1089.14
 20
-555.496
 30
0.000000
  70
    32
  0
VERTEX
  8
┌▓È_1
  5
38B
 10
1089.19
 20
-555.533
 30
0.000000
  70
    32
  0
VERTEX
  8
┌▓È_1
  5
38C
 10
1089.23
 20
-555.571
 30
0.000000
  70
    32
  0
VERTEX
  8
┌▓È_1
  5
38D
 10
1089.28
 20
-555.609
 30
0.000000
  70
    32
  0
VERTEX
  8
┌▓È_1
  5
38E
 10
1089.33
 20
-555.646
 30
0.000000
  70
    32
  0
VERTEX
  8
┌▓È_1
  5
38F
 10
1089.38
 20
-555.683
 30
0.000000
  70
    32
  0
VERTEX
  8
┌▓È_1
  5
390
 10
1089.42
 20
-555.721
 30
0.000000
  70
    32
  0
VERTEX
  8
┌▓È_1
  5
391
 10
1089.47
 20
-555.758
 30
0.000000
  70
    32
  0
VERTEX
  8
┌▓È_1
  5
392
 10
1089.52
 20
-555.795
 30
0.000000
  70
    32
  0
VERTEX
  8
┌▓È_1
  5
393
 10
1089.56
 20
-555.832
 30
0.000000
  70
    32
  0
VERTEX
  8
┌▓È_1
  5
394
 10
1089.61
 20
-555.869
 30
0.000000
  70
    32
  0
VERTEX
  8
┌▓È_1
  5
395
 10
1089.66
 20
-555.906
 30
0.000000
  70
    32
  0
VERTEX
  8
┌▓È_1
  5
396
 10
1089.71
 20
-555.943
 30
0.000000
  70
    32
  0
VERTEX
  8
┌▓È_1
  5
397
 10
1089.75
 20
-555.979
 30
0.000000
  70
    32
  0
VERTEX
  8
┌▓È_1
  5
398
 10
1089.80
 20
-556.016
 30
0.000000
  70
    32
  0
VERTEX
  8
┌▓È_1
  5
399
 10
1089.85
 20
-556.053
 30
0.000000
  70
    32
  0
VERTEX
  8
┌▓È_1
  5
39A
 10
1089.90
 20
-556.089
 30
0.000000
  70
    32
  0
VERTEX
  8
┌▓È_1
  5
39B
 10
1089.95
 20
-556.125
 30
0.000000
  70
    32
  0
VERTEX
  8
┌▓È_1
  5
39C
 10
1089.99
 20
-556.162
 30
0.000000
  70
    32
  0
VERTEX
  8
┌▓È_1
  5
39D
 10
1090.04
 20
-556.198
 30
0.000000
  70
    32
  0
VERTEX
  8
┌▓È_1
  5
39E
 10
1090.09
 20
-556.234
 30
0.000000
  70
    32
  0
VERTEX
  8
┌▓È_1
  5
39F
 10
1090.14
 20
-556.270
 30
0.000000
  70
    32
  0
VERTEX
  8
┌▓È_1
  5
3A0
 10
1090.19
 20
-556.306
 30
0.000000
  70
    32
  0
VERTEX
  8
┌▓È_1
  5
3A1
 10
1090.23
 20
-556.341
 30
0.000000
  70
    32
  0
VERTEX
  8
┌▓È_1
  5
3A2
 10
1090.28
 20
-556.377
 30
0.000000
  70
    32
  0
VERTEX
  8
┌▓È_1
  5
3A3
 10
1090.33
 20
-556.412
 30
0.000000
  70
    32
  0
VERTEX
  8
┌▓È_1
  5
3A4
 10
1090.38
 20
-556.448
 30
0.000000
  70
    32
  0
VERTEX
  8
┌▓È_1
  5
3A5
 10
1090.43
 20
-556.483
 30
0.000000
  70
    32
  0
VERTEX
  8
┌▓È_1
  5
3A6
 10
1090.48
 20
-556.518
 30
0.000000
  70
    32
  0
VERTEX
  8
┌▓È_1
  5
3A7
 10
1090.52
 20
-556.554
 30
0.000000
  70
    32
  0
VERTEX
  8
┌▓È_1
  5
3A8
 10
1090.57
 20
-556.589
 30
0.000000
  70
    32
  0
VERTEX
  8
┌▓È_1
  5
3A9
 10
1090.62
 20
-556.624
 30
0.000000
  70
    32
  0
VERTEX
  8
┌▓È_1
  5
3AA
 10
1090.67
 20
-556.658
 30
0.000000
  70
    32
  0
VERTEX
  8
┌▓È_1
  5
3AB
 10
1090.72
 20
-556.693
 30
0.000000
  70
    32
  0
VERTEX
  8
┌▓È_1
  5
3AC
 10
1090.77
 20
-556.728
 30
0.000000
  70
    32
  0
VERTEX
  8
┌▓È_1
  5
3AD
 10
1090.82
 20
-556.762
 30
0.000000
  70
    32
  0
VERTEX
  8
┌▓È_1
  5
3AE
 10
1090.86
 20
-556.797
 30
0.000000
  70
    32
  0
VERTEX
  8
┌▓È_1
  5
3AF
 10
1090.91
 20
-556.831
 30
0.000000
  70
    32
  0
VERTEX
  8
┌▓È_1
  5
3B0
 10
1090.96
 20
-556.865
 30
0.000000
  70
    32
  0
VERTEX
  8
┌▓È_1
  5
3B1
 10
1091.01
 20
-556.899
 30
0.000000
  70
    32
  0
VERTEX
  8
┌▓È_1
  5
3B2
 10
1091.06
 20
-556.933
 30
0.000000
  70
    32
  0
VERTEX
  8
┌▓È_1
  5
3B3
 10
1091.11
 20
-556.967
 30
0.000000
  70
    32
  0
VERTEX
  8
┌▓È_1
  5
3B4
 10
1091.16
 20
-557.000
 30
0.000000
  70
    32
  0
VERTEX
  8
┌▓È_1
  5
3B5
 10
1091.21
 20
-557.034
 30
0.000000
  70
    32
  0
VERTEX
  8
┌▓È_1
  5
3B6
 10
1091.26
 20
-557.067
 30
0.000000
  70
    32
  0
VERTEX
  8
┌▓È_1
  5
3B7
 10
1091.31
 20
-557.101
 30
0.000000
  70
    32
  0
VERTEX
  8
┌▓È_1
  5
3B8
 10
1091.36
 20
-557.134
 30
0.000000
  70
    32
  0
VERTEX
  8
┌▓È_1
  5
3B9
 10
1091.41
 20
-557.167
 30
0.000000
  70
    32
  0
VERTEX
  8
┌▓È_1
  5
3BA
 10
1091.46
 20
-557.200
 30
0.000000
  70
    32
  0
VERTEX
  8
┌▓È_1
  5
3BB
 10
1091.51
 20
-557.233
 30
0.000000
  70
    32
  0
VERTEX
  8
┌▓È_1
  5
3BC
 10
1091.56
 20
-557.266
 30
0.000000
  70
    32
  0
VERTEX
  8
┌▓È_1
  5
3BD
 10
1091.61
 20
-557.298
 30
0.000000
  70
    32
  0
VERTEX
  8
┌▓È_1
  5
3BE
 10
1091.66
 20
-557.331
 30
0.000000
  70
    32
  0
VERTEX
  8
┌▓È_1
  5
3BF
 10
1091.71
 20
-557.363
 30
0.000000
  70
    32
  0
VERTEX
  8
┌▓È_1
  5
3C0
 10
1091.76
 20
-557.395
 30
0.000000
  70
    32
  0
VERTEX
  8
┌▓È_1
  5
3C1
 10
1091.81
 20
-557.427
 30
0.000000
  70
    32
  0
VERTEX
  8
┌▓È_1
  5
3C2
 10
1091.86
 20
-557.459
 30
0.000000
  70
    32
  0
VERTEX
  8
┌▓È_1
  5
3C3
 10
1091.91
 20
-557.491
 30
0.000000
  70
    32
  0
VERTEX
  8
┌▓È_1
  5
3C4
 10
1091.96
 20
-557.523
 30
0.000000
  70
    32
  0
VERTEX
  8
┌▓È_1
  5
3C5
 10
1092.01
 20
-557.555
 30
0.000000
  70
    32
  0
VERTEX
  8
┌▓È_1
  5
3C6
 10
1092.06
 20
-557.586
 30
0.000000
  70
    32
  0
VERTEX
  8
┌▓È_1
  5
3C7
 10
1092.11
 20
-557.617
 30
0.000000
  70
    32
  0
VERTEX
  8
┌▓È_1
  5
3C8
 10
1092.16
 20
-557.649
 30
0.000000
  70
    32
  0
VERTEX
  8
┌▓È_1
  5
3C9
 10
1092.21
 20
-557.680
 30
0.000000
  70
    32
  0
VERTEX
  8
┌▓È_1
  5
3CA
 10
1092.26
 20
-557.711
 30
0.000000
  70
    32
  0
VERTEX
  8
┌▓È_1
  5
3CB
 10
1092.31
 20
-557.741
 30
0.000000
  70
    32
  0
VERTEX
  8
┌▓È_1
  5
3CC
 10
1092.36
 20
-557.772
 30
0.000000
  70
    32
  0
SEQEND
  8
┌▓È_1
  5
3CD
  0
POLYLINE
  8
┌▓È_1
  5
3CE
  62
5
  66
     1
 10
0.000000
 20
0.000000
 30
0.000000
  70
     8
  0
VERTEX
  8
┌▓È_1
  5
3CF
 10
1093.47
 20
-552.360
 30
0.000000
  70
    32
  0
VERTEX
  8
┌▓È_1
  5
3D0
 10
1093.49
 20
-552.379
 30
0.000000
  70
    32
  0
VERTEX
  8
┌▓È_1
  5
3D1
 10
1093.51
 20
-552.397
 30
0.000000
  70
    32
  0
VERTEX
  8
┌▓È_1
  5
3D2
 10
1093.52
 20
-552.415
 30
0.000000
  70
    32
  0
VERTEX
  8
┌▓È_1
  5
3D3
 10
1093.54
 20
-552.434
 30
0.000000
  70
    32
  0
VERTEX
  8
┌▓È_1
  5
3D4
 10
1093.56
 20
-552.452
 30
0.000000
  70
    32
  0
VERTEX
  8
┌▓È_1
  5
3D5
 10
1093.57
 20
-552.471
 30
0.000000
  70
    32
  0
VERTEX
  8
┌▓È_1
  5
3D6
 10
1093.59
 20
-552.489
 30
0.000000
  70
    32
  0
VERTEX
  8
┌▓È_1
  5
3D7
 10
1093.61
 20
-552.507
 30
0.000000
  70
    32
  0
VERTEX
  8
┌▓È_1
  5
3D8
 10
1093.62
 20
-552.526
 30
0.000000
  70
    32
  0
VERTEX
  8
┌▓È_1
  5
3D9
 10
1093.64
 20
-552.544
 30
0.000000
  70
    32
  0
VERTEX
  8
┌▓È_1
  5
3DA
 10
1093.66
 20
-552.562
 30
0.000000
  70
    32
  0
VERTEX
  8
┌▓È_1
  5
3DB
 10
1093.67
 20
-552.581
 30
0.000000
  70
    32
  0
VERTEX
  8
┌▓È_1
  5
3DC
 10
1093.69
 20
-552.599
 30
0.000000
  70
    32
  0
VERTEX
  8
┌▓È_1
  5
3DD
 10
1093.71
 20
-552.618
 30
0.000000
  70
    32
  0
VERTEX
  8
┌▓È_1
  5
3DE
 10
1093.72
 20
-552.636
 30
0.000000
  70
    32
  0
VERTEX
  8
┌▓È_1
  5
3DF
 10
1093.74
 20
-552.654
 30
0.000000
  70
    32
  0
VERTEX
  8
┌▓È_1
  5
3E0
 10
1093.76
 20
-552.673
 30
0.000000
  70
    32
  0
VERTEX
  8
┌▓È_1
  5
3E1
 10
1093.77
 20
-552.691
 30
0.000000
  70
    32
  0
VERTEX
  8
┌▓È_1
  5
3E2
 10
1093.79
 20
-552.709
 30
0.000000
  70
    32
  0
VERTEX
  8
┌▓È_1
  5
3E3
 10
1093.81
 20
-552.728
 30
0.000000
  70
    32
  0
VERTEX
  8
┌▓È_1
  5
3E4
 10
1093.82
 20
-552.746
 30
0.000000
  70
    32
  0
VERTEX
  8
┌▓È_1
  5
3E5
 10
1093.84
 20
-552.764
 30
0.000000
  70
    32
  0
VERTEX
  8
┌▓È_1
  5
3E6
 10
1093.85
 20
-552.783
 30
0.000000
  70
    32
  0
VERTEX
  8
┌▓È_1
  5
3E7
 10
1093.87
 20
-552.801
 30
0.000000
  70
    32
  0
VERTEX
  8
┌▓È_1
  5
3E8
 10
1093.89
 20
-552.819
 30
0.000000
  70
    32
  0
VERTEX
  8
┌▓È_1
  5
3E9
 10
1093.90
 20
-552.838
 30
0.000000
  70
    32
  0
VERTEX
  8
┌▓È_1
  5
3EA
 10
1093.92
 20
-552.856
 30
0.000000
  70
    32
  0
VERTEX
  8
┌▓È_1
  5
3EB
 10
1093.94
 20
-552.874
 30
0.000000
  70
    32
  0
VERTEX
  8
┌▓È_1
  5
3EC
 10
1093.95
 20
-552.893
 30
0.000000
  70
    32
  0
VERTEX
  8
┌▓È_1
  5
3ED
 10
1093.97
 20
-552.911
 30
0.000000
  70
    32
  0
VERTEX
  8
┌▓È_1
  5
3EE
 10
1093.99
 20
-552.929
 30
0.000000
  70
    32
  0
VERTEX
  8
┌▓È_1
  5
3EF
 10
1094.00
 20
-552.947
 30
0.000000
  70
    32
  0
VERTEX
  8
┌▓È_1
  5
3F0
 10
1094.02
 20
-552.966
 30
0.000000
  70
    32
  0
VERTEX
  8
┌▓È_1
  5
3F1
 10
1094.04
 20
-552.984
 30
0.000000
  70
    32
  0
VERTEX
  8
┌▓È_1
  5
3F2
 10
1094.05
 20
-553.002
 30
0.000000
  70
    32
  0
VERTEX
  8
┌▓È_1
  5
3F3
 10
1094.07
 20
-553.020
 30
0.000000
  70
    32
  0
VERTEX
  8
┌▓È_1
  5
3F4
 10
1094.09
 20
-553.039
 30
0.000000
  70
    32
  0
VERTEX
  8
┌▓È_1
  5
3F5
 10
1094.10
 20
-553.057
 30
0.000000
  70
    32
  0
VERTEX
  8
┌▓È_1
  5
3F6
 10
1094.12
 20
-553.075
 30
0.000000
  70
    32
  0
VERTEX
  8
┌▓È_1
  5
3F7
 10
1094.14
 20
-553.093
 30
0.000000
  70
    32
  0
VERTEX
  8
┌▓È_1
  5
3F8
 10
1094.15
 20
-553.111
 30
0.000000
  70
    32
  0
VERTEX
  8
┌▓È_1
  5
3F9
 10
1094.17
 20
-553.129
 30
0.000000
  70
    32
  0
VERTEX
  8
┌▓È_1
  5
3FA
 10
1094.19
 20
-553.148
 30
0.000000
  70
    32
  0
VERTEX
  8
┌▓È_1
  5
3FB
 10
1094.20
 20
-553.166
 30
0.000000
  70
    32
  0
VERTEX
  8
┌▓È_1
  5
3FC
 10
1094.22
 20
-553.184
 30
0.000000
  70
    32
  0
VERTEX
  8
┌▓È_1
  5
3FD
 10
1094.24
 20
-553.202
 30
0.000000
  70
    32
  0
VERTEX
  8
┌▓È_1
  5
3FE
 10
1094.25
 20
-553.220
 30
0.000000
  70
    32
  0
VERTEX
  8
┌▓È_1
  5
3FF
 10
1094.27
 20
-553.238
 30
0.000000
  70
    32
  0
VERTEX
  8
┌▓È_1
  5
400
 10
1094.29
 20
-553.256
 30
0.000000
  70
    32
  0
VERTEX
  8
┌▓È_1
  5
401
 10
1094.30
 20
-553.274
 30
0.000000
  70
    32
  0
VERTEX
  8
┌▓È_1
  5
402
 10
1094.32
 20
-553.292
 30
0.000000
  70
    32
  0
VERTEX
  8
┌▓È_1
  5
403
 10
1094.34
 20
-553.310
 30
0.000000
  70
    32
  0
VERTEX
  8
┌▓È_1
  5
404
 10
1094.35
 20
-553.328
 30
0.000000
  70
    32
  0
VERTEX
  8
┌▓È_1
  5
405
 10
1094.37
 20
-553.346
 30
0.000000
  70
    32
  0
VERTEX
  8
┌▓È_1
  5
406
 10
1094.39
 20
-553.364
 30
0.000000
  70
    32
  0
VERTEX
  8
┌▓È_1
  5
407
 10
1094.40
 20
-553.382
 30
0.000000
  70
    32
  0
VERTEX
  8
┌▓È_1
  5
408
 10
1094.42
 20
-553.400
 30
0.000000
  70
    32
  0
VERTEX
  8
┌▓È_1
  5
409
 10
1094.44
 20
-553.418
 30
0.000000
  70
    32
  0
VERTEX
  8
┌▓È_1
  5
40A
 10
1094.45
 20
-553.436
 30
0.000000
  70
    32
  0
VERTEX
  8
┌▓È_1
  5
40B
 10
1094.47
 20
-553.454
 30
0.000000
  70
    32
  0
VERTEX
  8
┌▓È_1
  5
40C
 10
1094.49
 20
-553.472
 30
0.000000
  70
    32
  0
VERTEX
  8
┌▓È_1
  5
40D
 10
1094.50
 20
-553.490
 30
0.000000
  70
    32
  0
VERTEX
  8
┌▓È_1
  5
40E
 10
1094.52
 20
-553.508
 30
0.000000
  70
    32
  0
VERTEX
  8
┌▓È_1
  5
40F
 10
1094.54
 20
-553.526
 30
0.000000
  70
    32
  0
VERTEX
  8
┌▓È_1
  5
410
 10
1094.56
 20
-553.543
 30
0.000000
  70
    32
  0
VERTEX
  8
┌▓È_1
  5
411
 10
1094.57
 20
-553.561
 30
0.000000
  70
    32
  0
VERTEX
  8
┌▓È_1
  5
412
 10
1094.59
 20
-553.579
 30
0.000000
  70
    32
  0
VERTEX
  8
┌▓È_1
  5
413
 10
1094.61
 20
-553.597
 30
0.000000
  70
    32
  0
VERTEX
  8
┌▓È_1
  5
414
 10
1094.62
 20
-553.614
 30
0.000000
  70
    32
  0
VERTEX
  8
┌▓È_1
  5
415
 10
1094.64
 20
-553.632
 30
0.000000
  70
    32
  0
VERTEX
  8
┌▓È_1
  5
416
 10
1094.66
 20
-553.650
 30
0.000000
  70
    32
  0
VERTEX
  8
┌▓È_1
  5
417
 10
1094.67
 20
-553.668
 30
0.000000
  70
    32
  0
VERTEX
  8
┌▓È_1
  5
418
 10
1094.69
 20
-553.685
 30
0.000000
  70
    32
  0
VERTEX
  8
┌▓È_1
  5
419
 10
1094.71
 20
-553.703
 30
0.000000
  70
    32
  0
VERTEX
  8
┌▓È_1
  5
41A
 10
1094.72
 20
-553.721
 30
0.000000
  70
    32
  0
VERTEX
  8
┌▓È_1
  5
41B
 10
1094.74
 20
-553.738
 30
0.000000
  70
    32
  0
VERTEX
  8
┌▓È_1
  5
41C
 10
1094.76
 20
-553.756
 30
0.000000
  70
    32
  0
VERTEX
  8
┌▓È_1
  5
41D
 10
1094.78
 20
-553.773
 30
0.000000
  70
    32
  0
VERTEX
  8
┌▓È_1
  5
41E
 10
1094.79
 20
-553.791
 30
0.000000
  70
    32
  0
VERTEX
  8
┌▓È_1
  5
41F
 10
1094.81
 20
-553.808
 30
0.000000
  70
    32
  0
VERTEX
  8
┌▓È_1
  5
420
 10
1094.83
 20
-553.826
 30
0.000000
  70
    32
  0
VERTEX
  8
┌▓È_1
  5
421
 10
1094.84
 20
-553.843
 30
0.000000
  70
    32
  0
VERTEX
  8
┌▓È_1
  5
422
 10
1094.86
 20
-553.861
 30
0.000000
  70
    32
  0
VERTEX
  8
┌▓È_1
  5
423
 10
1094.88
 20
-553.878
 30
0.000000
  70
    32
  0
VERTEX
  8
┌▓È_1
  5
424
 10
1094.89
 20
-553.896
 30
0.000000
  70
    32
  0
VERTEX
  8
┌▓È_1
  5
425
 10
1094.91
 20
-553.913
 30
0.000000
  70
    32
  0
VERTEX
  8
┌▓È_1
  5
426
 10
1094.93
 20
-553.930
 30
0.000000
  70
    32
  0
VERTEX
  8
┌▓È_1
  5
427
 10
1094.95
 20
-553.948
 30
0.000000
  70
    32
  0
VERTEX
  8
┌▓È_1
  5
428
 10
1094.96
 20
-553.965
 30
0.000000
  70
    32
  0
VERTEX
  8
┌▓È_1
  5
429
 10
1094.98
 20
-553.982
 30
0.000000
  70
    32
  0
VERTEX
  8
┌▓È_1
  5
42A
 10
1095.00
 20
-554.000
 30
0.000000
  70
    32
  0
VERTEX
  8
┌▓È_1
  5
42B
 10
1095.01
 20
-554.017
 30
0.000000
  70
    32
  0
VERTEX
  8
┌▓È_1
  5
42C
 10
1095.03
 20
-554.034
 30
0.000000
  70
    32
  0
VERTEX
  8
┌▓È_1
  5
42D
 10
1095.05
 20
-554.051
 30
0.000000
  70
    32
  0
VERTEX
  8
┌▓È_1
  5
42E
 10
1095.07
 20
-554.069
 30
0.000000
  70
    32
  0
VERTEX
  8
┌▓È_1
  5
42F
 10
1095.08
 20
-554.086
 30
0.000000
  70
    32
  0
VERTEX
  8
┌▓È_1
  5
430
 10
1095.10
 20
-554.103
 30
0.000000
  70
    32
  0
VERTEX
  8
┌▓È_1
  5
431
 10
1095.12
 20
-554.120
 30
0.000000
  70
    32
  0
VERTEX
  8
┌▓È_1
  5
432
 10
1095.14
 20
-554.137
 30
0.000000
  70
    32
  0
VERTEX
  8
┌▓È_1
  5
433
 10
1095.15
 20
-554.154
 30
0.000000
  70
    32
  0
VERTEX
  8
┌▓È_1
  5
434
 10
1095.17
 20
-554.171
 30
0.000000
  70
    32
  0
VERTEX
  8
┌▓È_1
  5
435
 10
1095.19
 20
-554.188
 30
0.000000
  70
    32
  0
VERTEX
  8
┌▓È_1
  5
436
 10
1095.21
 20
-554.205
 30
0.000000
  70
    32
  0
VERTEX
  8
┌▓È_1
  5
437
 10
1095.22
 20
-554.222
 30
0.000000
  70
    32
  0
VERTEX
  8
┌▓È_1
  5
438
 10
1095.24
 20
-554.239
 30
0.000000
  70
    32
  0
VERTEX
  8
┌▓È_1
  5
439
 10
1095.26
 20
-554.256
 30
0.000000
  70
    32
  0
VERTEX
  8
┌▓È_1
  5
43A
 10
1095.27
 20
-554.272
 30
0.000000
  70
    32
  0
VERTEX
  8
┌▓È_1
  5
43B
 10
1095.29
 20
-554.289
 30
0.000000
  70
    32
  0
VERTEX
  8
┌▓È_1
  5
43C
 10
1095.31
 20
-554.306
 30
0.000000
  70
    32
  0
VERTEX
  8
┌▓È_1
  5
43D
 10
1095.33
 20
-554.323
 30
0.000000
  70
    32
  0
VERTEX
  8
┌▓È_1
  5
43E
 10
1095.35
 20
-554.340
 30
0.000000
  70
    32
  0
VERTEX
  8
┌▓È_1
  5
43F
 10
1095.36
 20
-554.356
 30
0.000000
  70
    32
  0
VERTEX
  8
┌▓È_1
  5
440
 10
1095.38
 20
-554.373
 30
0.000000
  70
    32
  0
VERTEX
  8
┌▓È_1
  5
441
 10
1095.40
 20
-554.390
 30
0.000000
  70
    32
  0
VERTEX
  8
┌▓È_1
  5
442
 10
1095.42
 20
-554.406
 30
0.000000
  70
    32
  0
VERTEX
  8
┌▓È_1
  5
443
 10
1095.43
 20
-554.423
 30
0.000000
  70
    32
  0
VERTEX
  8
┌▓È_1
  5
444
 10
1095.45
 20
-554.439
 30
0.000000
  70
    32
  0
VERTEX
  8
┌▓È_1
  5
445
 10
1095.47
 20
-554.456
 30
0.000000
  70
    32
  0
VERTEX
  8
┌▓È_1
  5
446
 10
1095.49
 20
-554.472
 30
0.000000
  70
    32
  0
VERTEX
  8
┌▓È_1
  5
447
 10
1095.50
 20
-554.489
 30
0.000000
  70
    32
  0
VERTEX
  8
┌▓È_1
  5
448
 10
1095.52
 20
-554.505
 30
0.000000
  70
    32
  0
VERTEX
  8
┌▓È_1
  5
449
 10
1095.54
 20
-554.521
 30
0.000000
  70
    32
  0
VERTEX
  8
┌▓È_1
  5
44A
 10
1095.56
 20
-554.538
 30
0.000000
  70
    32
  0
VERTEX
  8
┌▓È_1
  5
44B
 10
1095.57
 20
-554.554
 30
0.000000
  70
    32
  0
VERTEX
  8
┌▓È_1
  5
44C
 10
1095.59
 20
-554.570
 30
0.000000
  70
    32
  0
VERTEX
  8
┌▓È_1
  5
44D
 10
1095.61
 20
-554.587
 30
0.000000
  70
    32
  0
VERTEX
  8
┌▓È_1
  5
44E
 10
1095.63
 20
-554.603
 30
0.000000
  70
    32
  0
SEQEND
  8
┌▓È_1
  5
44F
  0
LINE
  5
127
  8
┌▓È_1
 10
959.0859375
 20
-513.35364583329999
 30
0.0
 11
1109.0859375
 21
-513.35364583329999
 31
0.0
  0
LINE
  5
128
  8
┌▓È_1
 62
     5
 10
1107.3890688721999
 20
-545.14071341609997
 30
0.0
 11
1084.8890688721999
 21
-545.14071341609997
 31
0.0
  0
LINE
  5
129
  8
┌▓È_1
 10
959.0859375
 20
-540.85364583329988
 30
0.0
 11
1334.0859375
 21
-540.85364583329988
 31
0.0
  0
LINE
  5
12A
  8
┌▓È_1
 10
1334.0859375
 20
-485.85364583329988
 30
0.0
 11
959.0859375
 21
-485.85364583329988
 31
0.0
  0
CIRCLE
  5
12B
  8
┌▓È_1
 62
     5
 10
528.02610677079986
 20
-34.492704930999999
 30
0.0
 40
2.0
  0
LINE
  5
12C
  8
┌▓È_1
 62
     5
 10
488.02610677080003
 20
-26.4934192182
 30
0.0
 11
504.02610677080003
 21
-26.4934192182
 31
0.0
  0
LINE
  5
12D
  8
┌▓È_1
  6
STITCH
 10
504.02610677080003
 20
-26.4934192182
 30
0.0
 11
508.02610677080003
 21
-26.4934192182
 31
0.0
  0
CIRCLE
  5
12E
  8
┌▓È_1
 62
     5
 10
499.02610677080003
 20
-57.493419218200003
 30
0.0
 40
2.0
  0
CIRCLE
  5
12F
  8
┌▓È_1
 62
     5
 10
499.02610677080003
 20
-187.49341921819999
 30
0.0
 40
2.0
  0
LINE
  5
130
  8
┌▓È_1
  6
BORDER
 62
     3
 10
528.02610677079986
 20
-29.492704930999999
 30
0.0
 11
528.02610677079986
 21
-39.492704930999999
 31
0.0
  0
LINE
  5
131
  8
┌▓È_1
  6
BORDER
 62
     3
 10
494.02610677080003
 20
-187.49341921819999
 30
0.0
 11
504.02610677080003
 21
-187.49341921819999
 31
0.0
  0
LINE
  5
132
  8
┌▓È_1
  6
BORDER
 62
     3
 10
494.02610677080003
 20
-57.493419218200003
 30
0.0
 11
504.02610677080003
 21
-57.493419218200003
 31
0.0
  0
LINE
  5
133
  8
┌▓È_1
 62
     5
 10
508.02610677080003
 20
-47.524139972599997
 30
0.0
 11
508.02610677080003
 21
-48.493419218199989
 31
0.0
  0
LINE
  5
134
  8
┌▓È_1
 62
     5
 10
508.42610677079989
 20
-47.524139972599997
 30
0.0
 11
508.42610677079989
 21
-48.493419218199989
 31
0.0
  0
DIMENSION
  5
143
  8
Éíû@É³
  2
*D12
 10
463.02610677080003
 20
-57.493419218200003
 30
0.0
 11
463.02610677080003
 21
-122.4934192182
 31
0.0
 70
   128
  1
<>
 13
494.02610677080003
 23
-57.493419218200003
 33
0.0
 14
494.02610677080003
 24
-187.49341921819999
 34
0.0
 50
90.0
  0
DIMENSION
  5
152
  8
Éíû@É³
  2
*D13
 10
463.02610677080003
 20
-23.4934192182
 30
0.0
 11
463.02610677080003
 21
-5.8614487321000004
 31
0.0
 70
   128
  1
<>
 13
504.02610677080003
 23
-23.4934192182
 33
0.0
 14
488.02610677080003
 24
-26.4934192182
 34
0.0
 50
90.0
  0
DIMENSION
  5
161
  8
Éíû@É³
  2
*D14
 10
528.02610677079986
 20
12.00565069
 30
0.0
 11
508.02610677080003
 21
12.00565069
 31
0.0
 70
   128
  1
<>
 13
528.02610677079986
 23
-29.492704930999999
 33
0.0
 14
488.02610677080003
 24
-26.4934192182
 34
0.0
  0
DIMENSION
  5
170
  8
Éíû@É³
  2
*D15
 10
463.02610677080003
 20
-26.4934192182
 30
0.0
 11
463.02610677080003
 21
-41.993419218200003
 31
0.0
 70
   128
  1
<>
 13
488.02610677080003
 23
-26.4934192182
 33
0.0
 14
494.02610677080003
 24
-57.493419218200003
 34
0.0
 50
90.0
  0
LINE
  5
171
  8
┌▓È_1
  6
STITCH
 10
805.7261067707999
 20
-291.99341921820002
 30
0.0
 11
807.02610677079986
 21
-291.99341921820002
 31
0.0
  0
LINE
  5
172
  8
┌▓È_1
 62
     5
 10
807.02610677079986
 20
-299.44316668639999
 30
0.0
 11
807.02610677079986
 21
-291.99341921820002
 31
0.0
  0
LINE
  5
173
  8
┌▓È_1
 62
     5
 10
808.02610677079986
 20
-291.99341921820002
 30
0.0
 11
807.02610677079986
 21
-291.99341921820002
 31
0.0
  0
LINE
  5
174
  8
┌▓È_1
 62
     5
 10
807.62610677079988
 20
-289.88739399719998
 30
0.0
 11
807.22610677080002
 21
-289.88739399719998
 31
0.0
  0
LINE
  5
175
  8
┌▓È_1
 62
     5
 10
807.22610677080002
 20
-348.7042308037
 30
0.0
 11
807.62610677079988
 21
-348.7042308037
 31
0.0
  0
CIRCLE
  5
176
  8
┌▓È_1
 62
     5
 10
817.02610677079986
 20
-317.49341921820002
 30
0.0
 40
2.0
  0
LINE
  5
177
  8
┌▓È_1
 62
     5
 10
807.62610677079988
 20
-348.7042308037
 30
0.0
 11
807.62610677079988
 21
-349.49341921820002
 31
0.0
  0
LINE
  5
178
  8
┌▓È_1
  6
BORDER
 62
     3
 10
822.02610677079986
 20
-317.49341921820002
 30
0.0
 11
812.02610677079997
 21
-317.49341921820002
 31
0.0
  0
POLYLINE
  5
179
  8
┌▓È_1
 62
     5
 10
802.02610677079986
 20
-293.94316668640005
 30
0.0
 66
     1
 70
     8
  0
VERTEX
  8
┌▓È_1
  5
450
 10
802.026
 20
-293.943
 30
0.000000
  70
    32
  0
VERTEX
  8
┌▓È_1
  5
451
 10
802.026
 20
-293.967
 30
0.000000
  70
    32
  0
VERTEX
  8
┌▓È_1
  5
452
 10
802.028
 20
-293.991
 30
0.000000
  70
    32
  0
VERTEX
  8
┌▓È_1
  5
453
 10
802.029
 20
-294.015
 30
0.000000
  70
    32
  0
VERTEX
  8
┌▓È_1
  5
454
 10
802.032
 20
-294.039
 30
0.000000
  70
    32
  0
VERTEX
  8
┌▓È_1
  5
455
 10
802.036
 20
-294.063
 30
0.000000
  70
    32
  0
VERTEX
  8
┌▓È_1
  5
456
 10
802.040
 20
-294.087
 30
0.000000
  70
    32
  0
VERTEX
  8
┌▓È_1
  5
457
 10
802.045
 20
-294.110
 30
0.000000
  70
    32
  0
VERTEX
  8
┌▓È_1
  5
458
 10
802.050
 20
-294.134
 30
0.000000
  70
    32
  0
VERTEX
  8
┌▓È_1
  5
459
 10
802.057
 20
-294.158
 30
0.000000
  70
    32
  0
VERTEX
  8
┌▓È_1
  5
45A
 10
802.064
 20
-294.182
 30
0.000000
  70
    32
  0
VERTEX
  8
┌▓È_1
  5
45B
 10
802.072
 20
-294.206
 30
0.000000
  70
    32
  0
VERTEX
  8
┌▓È_1
  5
45C
 10
802.080
 20
-294.229
 30
0.000000
  70
    32
  0
VERTEX
  8
┌▓È_1
  5
45D
 10
802.090
 20
-294.253
 30
0.000000
  70
    32
  0
VERTEX
  8
┌▓È_1
  5
45E
 10
802.100
 20
-294.276
 30
0.000000
  70
    32
  0
VERTEX
  8
┌▓È_1
  5
45F
 10
802.111
 20
-294.300
 30
0.000000
  70
    32
  0
VERTEX
  8
┌▓È_1
  5
460
 10
802.122
 20
-294.324
 30
0.000000
  70
    32
  0
VERTEX
  8
┌▓È_1
  5
461
 10
802.135
 20
-294.347
 30
0.000000
  70
    32
  0
VERTEX
  8
┌▓È_1
  5
462
 10
802.148
 20
-294.370
 30
0.000000
  70
    32
  0
VERTEX
  8
┌▓È_1
  5
463
 10
802.161
 20
-294.394
 30
0.000000
  70
    32
  0
VERTEX
  8
┌▓È_1
  5
464
 10
802.176
 20
-294.417
 30
0.000000
  70
    32
  0
VERTEX
  8
┌▓È_1
  5
465
 10
802.191
 20
-294.440
 30
0.000000
  70
    32
  0
VERTEX
  8
┌▓È_1
  5
466
 10
802.207
 20
-294.463
 30
0.000000
  70
    32
  0
VERTEX
  8
┌▓È_1
  5
467
 10
802.224
 20
-294.486
 30
0.000000
  70
    32
  0
VERTEX
  8
┌▓È_1
  5
468
 10
802.241
 20
-294.509
 30
0.000000
  70
    32
  0
VERTEX
  8
┌▓È_1
  5
469
 10
802.260
 20
-294.532
 30
0.000000
  70
    32
  0
VERTEX
  8
┌▓È_1
  5
46A
 10
802.278
 20
-294.555
 30
0.000000
  70
    32
  0
VERTEX
  8
┌▓È_1
  5
46B
 10
802.298
 20
-294.577
 30
0.000000
  70
    32
  0
VERTEX
  8
┌▓È_1
  5
46C
 10
802.318
 20
-294.600
 30
0.000000
  70
    32
  0
VERTEX
  8
┌▓È_1
  5
46D
 10
802.339
 20
-294.622
 30
0.000000
  70
    32
  0
VERTEX
  8
┌▓È_1
  5
46E
 10
802.361
 20
-294.645
 30
0.000000
  70
    32
  0
VERTEX
  8
┌▓È_1
  5
46F
 10
802.384
 20
-294.667
 30
0.000000
  70
    32
  0
VERTEX
  8
┌▓È_1
  5
470
 10
802.407
 20
-294.689
 30
0.000000
  70
    32
  0
VERTEX
  8
┌▓È_1
  5
471
 10
802.431
 20
-294.711
 30
0.000000
  70
    32
  0
VERTEX
  8
┌▓È_1
  5
472
 10
802.455
 20
-294.733
 30
0.000000
  70
    32
  0
VERTEX
  8
┌▓È_1
  5
473
 10
802.480
 20
-294.755
 30
0.000000
  70
    32
  0
VERTEX
  8
┌▓È_1
  5
474
 10
802.506
 20
-294.777
 30
0.000000
  70
    32
  0
VERTEX
  8
┌▓È_1
  5
475
 10
802.533
 20
-294.798
 30
0.000000
  70
    32
  0
VERTEX
  8
┌▓È_1
  5
476
 10
802.560
 20
-294.820
 30
0.000000
  70
    32
  0
VERTEX
  8
┌▓È_1
  5
477
 10
802.588
 20
-294.841
 30
0.000000
  70
    32
  0
VERTEX
  8
┌▓È_1
  5
478
 10
802.617
 20
-294.862
 30
0.000000
  70
    32
  0
VERTEX
  8
┌▓È_1
  5
479
 10
802.646
 20
-294.883
 30
0.000000
  70
    32
  0
VERTEX
  8
┌▓È_1
  5
47A
 10
802.676
 20
-294.904
 30
0.000000
  70
    32
  0
VERTEX
  8
┌▓È_1
  5
47B
 10
802.706
 20
-294.925
 30
0.000000
  70
    32
  0
VERTEX
  8
┌▓È_1
  5
47C
 10
802.737
 20
-294.946
 30
0.000000
  70
    32
  0
VERTEX
  8
┌▓È_1
  5
47D
 10
802.769
 20
-294.966
 30
0.000000
  70
    32
  0
VERTEX
  8
┌▓È_1
  5
47E
 10
802.802
 20
-294.986
 30
0.000000
  70
    32
  0
VERTEX
  8
┌▓È_1
  5
47F
 10
802.835
 20
-295.006
 30
0.000000
  70
    32
  0
VERTEX
  8
┌▓È_1
  5
480
 10
802.869
 20
-295.026
 30
0.000000
  70
    32
  0
VERTEX
  8
┌▓È_1
  5
481
 10
802.903
 20
-295.046
 30
0.000000
  70
    32
  0
VERTEX
  8
┌▓È_1
  5
482
 10
802.938
 20
-295.066
 30
0.000000
  70
    32
  0
VERTEX
  8
┌▓È_1
  5
483
 10
802.974
 20
-295.085
 30
0.000000
  70
    32
  0
VERTEX
  8
┌▓È_1
  5
484
 10
803.010
 20
-295.105
 30
0.000000
  70
    32
  0
VERTEX
  8
┌▓È_1
  5
485
 10
803.047
 20
-295.124
 30
0.000000
  70
    32
  0
VERTEX
  8
┌▓È_1
  5
486
 10
803.084
 20
-295.143
 30
0.000000
  70
    32
  0
VERTEX
  8
┌▓È_1
  5
487
 10
803.122
 20
-295.161
 30
0.000000
  70
    32
  0
VERTEX
  8
┌▓È_1
  5
488
 10
803.161
 20
-295.180
 30
0.000000
  70
    32
  0
VERTEX
  8
┌▓È_1
  5
489
 10
803.200
 20
-295.198
 30
0.000000
  70
    32
  0
VERTEX
  8
┌▓È_1
  5
48A
 10
803.240
 20
-295.217
 30
0.000000
  70
    32
  0
VERTEX
  8
┌▓È_1
  5
48B
 10
803.280
 20
-295.235
 30
0.000000
  70
    32
  0
VERTEX
  8
┌▓È_1
  5
48C
 10
803.321
 20
-295.253
 30
0.000000
  70
    32
  0
VERTEX
  8
┌▓È_1
  5
48D
 10
803.363
 20
-295.270
 30
0.000000
  70
    32
  0
VERTEX
  8
┌▓È_1
  5
48E
 10
803.405
 20
-295.288
 30
0.000000
  70
    32
  0
VERTEX
  8
┌▓È_1
  5
48F
 10
803.447
 20
-295.305
 30
0.000000
  70
    32
  0
VERTEX
  8
┌▓È_1
  5
490
 10
803.491
 20
-295.322
 30
0.000000
  70
    32
  0
VERTEX
  8
┌▓È_1
  5
491
 10
803.534
 20
-295.339
 30
0.000000
  70
    32
  0
VERTEX
  8
┌▓È_1
  5
492
 10
803.578
 20
-295.355
 30
0.000000
  70
    32
  0
VERTEX
  8
┌▓È_1
  5
493
 10
803.623
 20
-295.372
 30
0.000000
  70
    32
  0
VERTEX
  8
┌▓È_1
  5
494
 10
803.668
 20
-295.388
 30
0.000000
  70
    32
  0
VERTEX
  8
┌▓È_1
  5
495
 10
803.714
 20
-295.404
 30
0.000000
  70
    32
  0
VERTEX
  8
┌▓È_1
  5
496
 10
803.760
 20
-295.420
 30
0.000000
  70
    32
  0
VERTEX
  8
┌▓È_1
  5
497
 10
803.807
 20
-295.435
 30
0.000000
  70
    32
  0
VERTEX
  8
┌▓È_1
  5
498
 10
803.854
 20
-295.450
 30
0.000000
  70
    32
  0
VERTEX
  8
┌▓È_1
  5
499
 10
803.902
 20
-295.465
 30
0.000000
  70
    32
  0
VERTEX
  8
┌▓È_1
  5
49A
 10
803.950
 20
-295.480
 30
0.000000
  70
    32
  0
VERTEX
  8
┌▓È_1
  5
49B
 10
803.999
 20
-295.495
 30
0.000000
  70
    32
  0
VERTEX
  8
┌▓È_1
  5
49C
 10
804.048
 20
-295.509
 30
0.000000
  70
    32
  0
VERTEX
  8
┌▓È_1
  5
49D
 10
804.097
 20
-295.523
 30
0.000000
  70
    32
  0
VERTEX
  8
┌▓È_1
  5
49E
 10
804.147
 20
-295.537
 30
0.000000
  70
    32
  0
VERTEX
  8
┌▓È_1
  5
49F
 10
804.197
 20
-295.551
 30
0.000000
  70
    32
  0
VERTEX
  8
┌▓È_1
  5
4A0
 10
804.248
 20
-295.564
 30
0.000000
  70
    32
  0
VERTEX
  8
┌▓È_1
  5
4A1
 10
804.299
 20
-295.577
 30
0.000000
  70
    32
  0
VERTEX
  8
┌▓È_1
  5
4A2
 10
804.351
 20
-295.590
 30
0.000000
  70
    32
  0
VERTEX
  8
┌▓È_1
  5
4A3
 10
804.403
 20
-295.603
 30
0.000000
  70
    32
  0
VERTEX
  8
┌▓È_1
  5
4A4
 10
804.456
 20
-295.616
 30
0.000000
  70
    32
  0
VERTEX
  8
┌▓È_1
  5
4A5
 10
804.508
 20
-295.628
 30
0.000000
  70
    32
  0
VERTEX
  8
┌▓È_1
  5
4A6
 10
804.562
 20
-295.640
 30
0.000000
  70
    32
  0
VERTEX
  8
┌▓È_1
  5
4A7
 10
804.615
 20
-295.651
 30
0.000000
  70
    32
  0
VERTEX
  8
┌▓È_1
  5
4A8
 10
804.669
 20
-295.663
 30
0.000000
  70
    32
  0
VERTEX
  8
┌▓È_1
  5
4A9
 10
804.723
 20
-295.674
 30
0.000000
  70
    32
  0
VERTEX
  8
┌▓È_1
  5
4AA
 10
804.778
 20
-295.685
 30
0.000000
  70
    32
  0
VERTEX
  8
┌▓È_1
  5
4AB
 10
804.833
 20
-295.695
 30
0.000000
  70
    32
  0
VERTEX
  8
┌▓È_1
  5
4AC
 10
804.888
 20
-295.706
 30
0.000000
  70
    32
  0
VERTEX
  8
┌▓È_1
  5
4AD
 10
804.944
 20
-295.716
 30
0.000000
  70
    32
  0
VERTEX
  8
┌▓È_1
  5
4AE
 10
805.000
 20
-295.726
 30
0.000000
  70
    32
  0
VERTEX
  8
┌▓È_1
  5
4AF
 10
805.056
 20
-295.735
 30
0.000000
  70
    32
  0
VERTEX
  8
┌▓È_1
  5
4B0
 10
805.113
 20
-295.744
 30
0.000000
  70
    32
  0
VERTEX
  8
┌▓È_1
  5
4B1
 10
805.170
 20
-295.754
 30
0.000000
  70
    32
  0
VERTEX
  8
┌▓È_1
  5
4B2
 10
805.227
 20
-295.762
 30
0.000000
  70
    32
  0
VERTEX
  8
┌▓È_1
  5
4B3
 10
805.284
 20
-295.771
 30
0.000000
  70
    32
  0
VERTEX
  8
┌▓È_1
  5
4B4
 10
805.342
 20
-295.779
 30
0.000000
  70
    32
  0
VERTEX
  8
┌▓È_1
  5
4B5
 10
805.400
 20
-295.787
 30
0.000000
  70
    32
  0
VERTEX
  8
┌▓È_1
  5
4B6
 10
805.458
 20
-295.795
 30
0.000000
  70
    32
  0
VERTEX
  8
┌▓È_1
  5
4B7
 10
805.516
 20
-295.802
 30
0.000000
  70
    32
  0
VERTEX
  8
┌▓È_1
  5
4B8
 10
805.575
 20
-295.809
 30
0.000000
  70
    32
  0
VERTEX
  8
┌▓È_1
  5
4B9
 10
805.634
 20
-295.816
 30
0.000000
  70
    32
  0
VERTEX
  8
┌▓È_1
  5
4BA
 10
805.693
 20
-295.822
 30
0.000000
  70
    32
  0
VERTEX
  8
┌▓È_1
  5
4BB
 10
805.752
 20
-295.829
 30
0.000000
  70
    32
  0
VERTEX
  8
┌▓È_1
  5
4BC
 10
805.811
 20
-295.834
 30
0.000000
  70
    32
  0
VERTEX
  8
┌▓È_1
  5
4BD
 10
805.871
 20
-295.840
 30
0.000000
  70
    32
  0
VERTEX
  8
┌▓È_1
  5
4BE
 10
805.931
 20
-295.846
 30
0.000000
  70
    32
  0
VERTEX
  8
┌▓È_1
  5
4BF
 10
805.991
 20
-295.851
 30
0.000000
  70
    32
  0
VERTEX
  8
┌▓È_1
  5
4C0
 10
806.051
 20
-295.855
 30
0.000000
  70
    32
  0
VERTEX
  8
┌▓È_1
  5
4C1
 10
806.111
 20
-295.860
 30
0.000000
  70
    32
  0
VERTEX
  8
┌▓È_1
  5
4C2
 10
806.171
 20
-295.864
 30
0.000000
  70
    32
  0
VERTEX
  8
┌▓È_1
  5
4C3
 10
806.232
 20
-295.868
 30
0.000000
  70
    32
  0
VERTEX
  8
┌▓È_1
  5
4C4
 10
806.292
 20
-295.872
 30
0.000000
  70
    32
  0
VERTEX
  8
┌▓È_1
  5
4C5
 10
806.353
 20
-295.875
 30
0.000000
  70
    32
  0
VERTEX
  8
┌▓È_1
  5
4C6
 10
806.414
 20
-295.878
 30
0.000000
  70
    32
  0
VERTEX
  8
┌▓È_1
  5
4C7
 10
806.475
 20
-295.881
 30
0.000000
  70
    32
  0
VERTEX
  8
┌▓È_1
  5
4C8
 10
806.536
 20
-295.884
 30
0.000000
  70
    32
  0
VERTEX
  8
┌▓È_1
  5
4C9
 10
806.597
 20
-295.886
 30
0.000000
  70
    32
  0
VERTEX
  8
┌▓È_1
  5
4CA
 10
806.658
 20
-295.888
 30
0.000000
  70
    32
  0
VERTEX
  8
┌▓È_1
  5
4CB
 10
806.720
 20
-295.889
 30
0.000000
  70
    32
  0
VERTEX
  8
┌▓È_1
  5
4CC
 10
806.781
 20
-295.891
 30
0.000000
  70
    32
  0
VERTEX
  8
┌▓È_1
  5
4CD
 10
806.842
 20
-295.892
 30
0.000000
  70
    32
  0
VERTEX
  8
┌▓È_1
  5
4CE
 10
806.903
 20
-295.892
 30
0.000000
  70
    32
  0
VERTEX
  8
┌▓È_1
  5
4CF
 10
806.965
 20
-295.893
 30
0.000000
  70
    32
  0
VERTEX
  8
┌▓È_1
  5
4D0
 10
807.026
 20
-295.893
 30
0.000000
  70
    32
  0
SEQEND
  8
┌▓È_1
  5
4D1
  0
LINE
  5
17A
  8
┌▓È_1
 62
     5
 10
807.22610677080002
 20
-289.88739399719998
 30
0.0
 11
807.22610677080002
 21
-348.7042308037
 31
0.0
  0
LINE
  5
17B
  8
┌▓È_1
 62
     5
 10
828.02610677079997
 20
-349.49341921820002
 30
0.0
 11
807.62610677079988
 21
-349.49341921820002
 31
0.0
  0
CIRCLE
  5
17C
  8
┌▓È_1
 62
     5
 10
817.02610677079986
 20
-57.493419218200003
 30
0.0
 40
2.0
  0
CIRCLE
  5
17D
  8
┌▓È_1
 62
     5
 10
817.02610677079986
 20
-187.49341921819999
 30
0.0
 40
2.0
  0
LINE
  5
17E
  8
┌▓È_1
  6
BORDER
 62
     3
 10
788.02610677079997
 20
-29.492704930999999
 30
0.0
 11
788.02610677079997
 21
-39.492704930999999
 31
0.0
  0
LINE
  5
17F
  8
┌▓È_1
  6
BORDER
 62
     3
 10
822.02610677079986
 20
-187.49341921819999
 30
0.0
 11
812.02610677079997
 21
-187.49341921819999
 31
0.0
  0
LINE
  5
180
  8
┌▓È_1
  6
BORDER
 62
     3
 10
822.02610677079986
 20
-57.493419218200003
 30
0.0
 11
812.02610677079997
 21
-57.493419218200003
 31
0.0
  0
ARC
  5
181
  8
┌▓È_1
 62
     5
 10
808.22610677080002
 20
-45.412201396100002
 30
0.0
 40
0.5
 50
180.0
 51
246.42182152180001
  0
LINE
  5
182
  8
┌▓È_1
  6
STITCH
 10
808.02610677079986
 20
-45.870458965600001
 30
0.0
 11
805.7261067707999
 21
-46.395914761899988
 31
0.0
  0
LINE
  5
183
  8
┌▓È_1
 62
     5
 10
828.02610677079997
 20
-26.4934192182
 30
0.0
 11
812.02610677079997
 21
-26.4934192182
 31
0.0
  0
DIMENSION
  5
192
  8
Éíû@É³
  2
*D16
 10
788.02610677079997
 20
12.00565069
 30
0.0
 11
723.02610677079986
 21
12.00565069
 31
0.0
 70
   128
  1
<>
 13
788.02610677079997
 23
-29.492704930999999
 33
0.0
 14
658.02610677079997
 24
-13.4934192182
 34
0.0
  0
DIMENSION
  5
199
  8
Éíû@É³
  2
*D17
 10
656.61189320849985
 20
-33.078491368599998
 30
0.0
 11
720.76134236689995
 21
-71.827942815900002
 31
0.0
 70
   131
  1
9-%%c<>
 15
659.44032033319991
 25
-35.906918493399999
 35
0.0
 40
0.0
  0
DIMENSION
  5
1A8
  8
Éíû@É³
  2
*D18
 10
591.62751061619997
 20
-23.4934192182
 30
0.0
 11
591.62751061619997
 21
-13.586148429
 31
0.0
 70
   128
  1
<>
 13
601.92972415789995
 23
-23.4934192182
 33
0.0
 14
601.92972415789995
 24
-34.492704930999999
 34
0.0
 50
90.0
  0
DIMENSION
  5
1B7
  8
Éíû@É³
  2
*D19
 10
828.02610677079997
 20
12.00565069
 30
0.0
 11
808.02610677079986
 21
12.00565069
 31
0.0
 70
   128
  1
<>
 13
828.02610677079997
 23
-26.4934192182
 33
0.0
 14
788.02610677079997
 24
-29.492704930999999
 34
0.0
  0
LINE
  5
1B8
  8
┌▓È_1
 62
     5
 10
508.02610677080003
 20
-48.493419218199989
 30
0.0
 11
508.42610677079989
 21
-48.493419218199989
 31
0.0
  0
LINE
  5
1B9
  8
┌▓È_1
 62
     5
 10
508.02610677080003
 20
-44.834447361499997
 30
0.0
 11
508.02610677080003
 21
-48.493419218199989
 31
0.0
  0
LINE
  5
1BA
  8
┌▓È_1
 62
     5
 10
514.02610677079986
 20
-45.493419218199989
 30
0.0
 11
512.65954362479999
 21
-44.810137645200001
 31
0.0
  0
LINE
  5
1BB
  8
┌▓È_1
 62
     5
 10
508.31946634089991
 20
-44.493419218199989
 30
0.0
 11
508.02610677080003
 21
-44.834447361499997
 31
0.0
  0
LINE
  5
1BC
  8
┌▓È_1
  6
STITCH
 10
508.02610677080003
 20
-45.870458965600001
 30
0.0
 11
510.32610677079998
 21
-46.50645631039999
 31
0.0
  0
ARC
  5
1BD
  8
┌▓È_1
 62
     5
 10
507.82610677079998
 20
-45.412201396100002
 30
0.0
 40
0.5
 50
293.57817847820002
 51
0.0
  0
ARC
  5
1BE
  8
┌▓È_1
 62
     5
 10
507.82610677079998
 20
-45.292704931000003
 30
0.0
 40
0.5
 50
0.0
 51
90.0
  0
LINE
  5
1BF
  8
┌▓È_1
 62
     5
 10
508.32610677079998
 20
-45.292704931000003
 30
0.0
 11
508.32610677079998
 21
-45.412201396100002
 31
0.0
  0
LINE
  5
1C0
  8
┌▓È_1
 62
     5
 10
504.02610677080003
 20
-44.792704931000003
 30
0.0
 11
507.82610677079998
 21
-44.792704931000003
 31
0.0
  0
ARC
  5
1C1
  8
┌▓È_1
 62
     5
 10
511.31790283829997
 20
-47.493419218200003
 30
0.0
 40
3.0
 50
63.43494882289999
 51
90.0
  0
LINE
  5
1C2
  8
┌▓È_1
 62
     5
 10
511.31790283829997
 20
-44.493419218199989
 30
0.0
 11
508.31946634089991
 21
-44.493419218199989
 31
0.0
  0
LINE
  5
1C3
  8
┌▓È_1
 62
     5
 10
504.02610677080003
 20
-23.4934192182
 30
0.0
 11
504.02610677080003
 21
-44.792704931000003
 31
0.0
  0
LINE
  5
1C4
  8
┌▓È_1
  6
STITCH
 10
508.02610677080003
 20
-26.4934192182
 30
0.0
 11
508.02610677080003
 21
-44.834447361499997
 31
0.0
  0
INSERT
  5
1C5
  8
0
  6
CONTINUOUS
  2
*U25
 10
0.0
 20
0.0
 30
0.0
  0
INSERT
  5
1C6
  8
0
  6
CONTINUOUS
  2
*U26
 10
0.0
 20
0.0
 30
0.0
  0
INSERT
  5
1C7
  8
0
  6
CONTINUOUS
  2
*U27
 10
0.0
 20
0.0
 30
0.0
  0
LINE
  5
1C8
  8
┌▓È_1
 62
     5
 10
1063.2375537206999
 20
-553.89071341609986
 30
0.0
 11
1068.2375537206999
 21
-553.89071341609986
 31
0.0
  0
ARC
  5
1C9
  8
┌▓È_1
 62
     5
 10
1066.9875537206999
 20
-555.14071341609986
 30
0.0
 40
7.5
 50
270.0
 51
0.0
  0
LINE
  5
1CA
  8
┌▓È_1
 62
     5
 10
1078.2375537206999
 20
-545.14071341609997
 30
0.0
 11
1068.2375537206999
 21
-545.14071341609997
 31
0.0
  0
LINE
  5
1CB
  8
┌▓È_1
 62
     5
 10
1078.2375537206999
 20
-550.14071341609997
 30
0.0
 11
1078.2375537206999
 21
-553.89071341609986
 31
0.0
  0
LINE
  5
1CC
  8
┌▓È_1
 62
     5
 10
1054.1097941917999
 20
-550.14071341609997
 30
0.0
 11
1054.1097941917999
 21
-553.89071341609986
 31
0.0
  0
DIMENSION
  5
1DB
  8
Éíû@É³
  2
*D20
 10
925.9950103760001
 20
-220.4927061647
 30
0.0
 11
925.9950103760001
 21
-257.24306269149997
 31
0.0
 70
   128
  1
<>
 13
962.98902448019999
 23
-220.4927061647
 33
0.0
 14
962.98902448019999
 24
-293.99341921820002
 34
0.0
 50
90.0
  0
LINE
  5
1DC
  8
┌▓È_1
 62
     5
 10
802.02610677079997
 20
-45.493419218199989
 30
0.0
 11
803.39266991679995
 21
-44.810137645200001
 31
0.0
  0
LINE
  5
1DD
  8
┌▓È_1
 62
     5
 10
804.73431070330003
 20
-44.493419218199989
 30
0.0
 11
807.73274720079985
 21
-44.493419218199989
 31
0.0
  0
ARC
  5
1DE
  8
┌▓È_1
 62
     5
 10
804.73431070330003
 20
-47.493419218200003
 30
0.0
 40
3.0
 50
90.0
 51
116.5650511771
  0
LINE
  5
1DF
  8
┌▓È_1
 62
     5
 10
812.02610677079997
 20
-44.792704931000003
 30
0.0
 11
808.22610677080002
 21
-44.792704931000003
 31
0.0
  0
ARC
  5
1E0
  8
┌▓È_1
 62
     5
 10
808.22610677080002
 20
-45.292704931000003
 30
0.0
 40
0.5
 50
90.0
 51
180.0
  0
LINE
  5
1E1
  8
┌▓È_1
 62
     5
 10
807.72610677080013
 20
-45.292704931000003
 30
0.0
 11
807.72610677080013
 21
-45.412201396100002
 31
0.0
  0
LINE
  5
1E2
  8
┌▓È_1
 62
     5
 10
808.02610677079986
 20
-48.493419218199989
 30
0.0
 11
807.62610677079988
 21
-48.493419218199989
 31
0.0
  0
LINE
  5
1E3
  8
┌▓È_1
 62
     5
 10
807.62610677079988
 20
-47.524139972599997
 30
0.0
 11
807.62610677079988
 21
-48.493419218199989
 31
0.0
  0
LINE
  5
1E4
  8
┌▓È_1
 62
     5
 10
808.02610677079986
 20
-47.524139972599997
 30
0.0
 11
808.02610677079986
 21
-48.493419218199989
 31
0.0
  0
LINE
  5
1E5
  8
┌▓È_1
 62
     5
 10
808.02610677079986
 20
-44.834447361499997
 30
0.0
 11
808.02610677079986
 21
-48.493419218199989
 31
0.0
  0
LINE
  5
1E6
  8
┌▓È_1
 62
     5
 10
807.73274720079985
 20
-44.493419218199989
 30
0.0
 11
808.02610677079986
 21
-44.834447361499997
 31
0.0
  0
LINE
  5
1E7
  8
┌▓È_1
 62
     5
 10
812.02610677079997
 20
-44.792704931000003
 30
0.0
 11
812.02610677079997
 21
-23.4934192182
 31
0.0
  0
LINE
  5
1E8
  8
┌▓È_1
  6
STITCH
 10
808.02610677079986
 20
-26.4934192182
 30
0.0
 11
808.02610677079986
 21
-44.834447361499997
 31
0.0
  0
CIRCLE
  5
1E9
  8
┌▓È_1
 62
     5
 10
788.02610677079997
 20
-34.492704930999999
 30
0.0
 40
2.0
  0
CIRCLE
  5
1EA
  8
┌▓È_1
 62
     5
 10
658.02610677079997
 20
-34.492704930999999
 30
0.0
 40
2.0
  0
LINE
  5
1EB
  8
┌▓È_1
  6
STITCH
 10
812.02610677079997
 20
-26.4934192182
 30
0.0
 11
808.02610677079986
 21
-26.4934192182
 31
0.0
  0
LINE
  5
1EC
  8
┌▓È_1
 62
     5
 10
1056.9875537206999
 20
-545.14071341609997
 30
0.0
 11
1056.9875537206999
 21
-550.14071341609997
 31
0.0
  0
LINE
  5
1ED
  8
┌▓È_1
 62
     5
 10
1063.2375537206999
 20
-548.89071341609986
 30
0.0
 11
1066.9875537206999
 21
-545.14071341609997
 31
0.0
  0
LINE
  5
1EE
  8
┌▓È_1
 62
     5
 10
1066.9875537206999
 20
-545.14071341609997
 30
0.0
 11
1056.9875537206999
 21
-545.14071341609997
 31
0.0
  0
LINE
  5
1EF
  8
┌▓È_1
 62
     5
 10
1068.2375537206999
 20
-550.14071341609997
 30
0.0
 11
1063.2375537206999
 21
-550.14071341609997
 31
0.0
  0
INSERT
  5
1F0
  8
0
  6
CONTINUOUS
  2
*U28
 10
0.0
 20
0.0
 30
0.0
  0
LINE
  5
1F1
  8
┌▓È_1
 10
1059.0859375
 20
-485.85364583329988
 30
0.0
 11
1059.0859375
 21
-513.35364583329999
 31
0.0
  0
LINE
  5
1F2
  8
┌▓È_1
 62
     5
 10
1074.4875537206999
 20
-555.14071341609986
 30
0.0
 11
1074.4875537206999
 21
-553.89071341609986
 31
0.0
  0
ARC
  5
1F3
  8
┌▓È_1
 62
     5
 10
1064.4875537206999
 20
-555.14071341609986
 30
0.0
 40
3.75
 50
270.0
 51
0.0
  0
LINE
  5
1F4
  8
┌▓È_1
 62
     5
 10
1056.9875537206999
 20
-562.64071341609997
 30
0.0
 11
1066.9875537206999
 21
-562.64071341609997
 31
0.0
  0
LINE
  5
1F5
  8
┌▓È_1
 62
     5
 10
1054.1097941917999
 20
-553.89071341609986
 30
0.0
 11
1056.6097941917999
 21
-553.89071341609986
 31
0.0
  0
LINE
  5
1F6
  8
┌▓È_1
 62
     5
 10
1074.4875537206999
 20
-553.89071341609986
 30
0.0
 11
1078.2375537206999
 21
-553.89071341609986
 31
0.0
  0
LINE
  5
1F7
  8
┌▓È_1
 62
     5
 10
1056.9875537206999
 20
-558.89071341609986
 30
0.0
 11
1056.9875537206999
 21
-562.64071341609997
 31
0.0
  0
LINE
  5
1F8
  8
┌▓È_1
 62
     5
 10
1056.9875537206999
 20
-553.89071341609986
 30
0.0
 11
1056.6097941917999
 21
-553.89071341609986
 31
0.0
  0
LINE
  5
1F9
  8
┌▓È_1
 62
     5
 10
1056.9875537206999
 20
-550.14071341609997
 30
0.0
 11
1054.1097941917999
 21
-550.14071341609997
 31
0.0
  0
LINE
  5
1FA
  8
┌▓È_1
 62
     5
 10
1068.2375537206999
 20
-545.14071341609997
 30
0.0
 11
1068.2375537206999
 21
-550.14071341609997
 31
0.0
  0
LINE
  5
1FB
  8
┌▓È_1
 62
     5
 10
1063.2375537206999
 20
-550.14071341609997
 30
0.0
 11
1063.2375537206999
 21
-548.89071341609986
 31
0.0
  0
LINE
  5
1FC
  8
┌▓È_1
 62
     5
 10
1074.4875537206999
 20
-548.89071341609986
 30
0.0
 11
1078.2375537206999
 21
-545.14071341609997
 31
0.0
  0
LINE
  5
1FD
  8
┌▓È_1
 10
965.3359375
 20
-527.10364583329988
 30
0.0
 11
1052.8359375
 21
-527.10364583329988
 31
0.0
  0
LINE
  5
1FE
  8
┌▓È_1
 10
1015.3359375
 20
-499.60364583329999
 30
0.0
 11
1052.8359375
 21
-499.60364583329999
 31
0.0
  0
LINE
  5
1FF
  8
┌▓È_1
 10
965.3359375
 20
-499.60364583329999
 30
0.0
 11
1002.8359375
 21
-499.60364583329999
 31
0.0
  0
LINE
  5
200
  8
┌▓È_1
 62
     5
 10
1056.9875537206999
 20
-553.89071341609986
 30
0.0
 11
1056.9875537206999
 21
-557.64071341609997
 31
0.0
  0
LINE
  5
201
  8
┌▓È_1
 62
     5
 10
1074.4875537206999
 20
-550.14071341609997
 30
0.0
 11
1074.4875537206999
 21
-548.89071341609986
 31
0.0
  0
LINE
  5
202
  8
┌▓È_1
 62
     5
 10
1078.2375537206999
 20
-550.14071341609997
 30
0.0
 11
1074.4875537206999
 21
-550.14071341609997
 31
0.0
  0
LINE
  5
203
  8
┌▓È_1
 62
     5
 10
1063.2375537206999
 20
-557.64071341609997
 30
0.0
 11
1063.2375537206999
 21
-553.89071341609986
 31
0.0
  0
LINE
  5
204
  8
┌▓È_1
 62
     5
 10
1064.4875537206999
 20
-558.89071341609986
 30
0.0
 11
1056.9875537206999
 21
-558.89071341609986
 31
0.0
  0
LINE
  5
205
  8
┌▓È_1
 62
     5
 10
1096.2298501014
 20
-553.93839067889985
 30
0.0
 11
1095.6283605857
 21
-554.60273658029985
 31
0.0
  0
LINE
  5
206
  8
┌▓È_1
 62
     5
 10
1127.5551278308999
 20
-553.89071341609986
 30
0.0
 11
1135.4327754929
 21
-553.89071341609986
 31
0.0
  0
LINE
  5
207
  8
┌▓È_1
 62
     5
 10
1104.8890688721999
 20
-548.89071341609986
 30
0.0
 11
1107.3890688721999
 21
-545.14071341609997
 31
0.0
  0
LINE
  5
208
  8
┌▓È_1
 62
     5
 10
1102.0458672525001
 20
-557.26354143849994
 30
0.0
 11
1101.600612103
 21
-557.69948679900006
 31
0.0
  0
INSERT
  5
209
  8
0
  6
CONTINUOUS
  2
*U29
 10
0.0
 20
0.0
 30
0.0
  0
INSERT
  5
20A
  8
0
  6
CONTINUOUS
  2
*U30
 10
0.0
 20
0.0
 30
0.0
  0
ARC
  5
20B
  8
┌▓È_1
 62
     5
 10
958.74638379309999
 20
-298.94316668649998
 30
0.0
 40
0.5
 50
135.0
 51
315.0
  0
LINE
  5
20C
  8
┌▓È_1
 62
     5
 10
961.57481091779994
 20
-296.82184634290002
 30
0.0
 11
961.22125752720001
 21
-296.46829295229998
 31
0.0
  0
LINE
  5
20D
  8
┌▓È_1
 62
     5
 10
962.98902448019999
 20
-293.99341921820002
 30
0.0
 11
958.39283040249995
 21
-298.58961329589999
 31
0.0
  0
LINE
  5
20E
  8
┌▓È_1
  6
STITCH
 10
958.39283040249995
 20
-299.29672007709991
 30
0.0
 11
958.03927701190014
 21
-298.94316668649998
 31
0.0
  0
LINE
  5
20F
  8
┌▓È_1
 62
     5
 10
959.09993718369981
 20
-299.29672007709991
 30
0.0
 11
961.57481091779994
 21
-296.82184634290002
 31
0.0
  0
LINE
  5
210
  8
┌▓È_1
 62
     5
 10
963.48902448019987
 20
-291.99341921820002
 30
0.0
 11
963.48902448019987
 21
-293.99341921820002
 31
0.0
  0
ARC
  5
211
  8
┌▓È_1
 62
     5
 10
962.98902448019999
 20
-293.99341921820002
 30
0.0
 40
0.5
 50
315.0
 51
0.0
  0
LINE
  5
212
  8
┌▓È_1
 62
     5
 10
958.74638379309999
 20
-298.94316668649998
 30
0.0
 11
963.34257787080003
 21
-294.3469726088
 31
0.0
  0
LINE
  5
213
  8
┌▓È_1
 62
     5
 10
966.19587713390001
 20
-294.11098013769998
 30
0.0
 11
966.49773246749999
 21
-293.20882964110001
 31
0.0
  0
LINE
  5
214
  8
┌▓È_1
  6
STITCH
 10
966.49773246749999
 20
-293.20882964110001
 30
0.0
 11
967.27471296559997
 21
-290.88667971000001
 31
0.0
  0
LINE
  5
215
  8
┌▓È_1
 62
     5
 10
966.49773246749999
 20
-293.20882964110001
 30
0.0
 11
964.98902448019999
 21
-292.7040230101
 31
0.0
  0
LINE
  5
216
  8
┌▓È_1
 62
     5
 10
964.98902448019999
 20
-291.99341921820002
 30
0.0
 11
962.98902448019999
 21
-291.99341921820002
 31
0.0
  0
LINE
  5
217
  8
┌▓È_1
 62
     5
 10
1068.2375537206999
 20
-553.89071341609986
 30
0.0
 11
1068.2375537206999
 21
-555.14071341609986
 31
0.0
  0
INSERT
  5
218
  8
0
  6
CONTINUOUS
  2
*U31
 10
0.0
 20
0.0
 30
0.0
  0
INSERT
  5
219
  8
0
  6
CONTINUOUS
  2
*U32
 10
0.0
 20
0.0
 30
0.0
  0
LINE
  5
21A
  8
┌▓È_1
 62
     5
 10
1056.9875537206999
 20
-557.64071341609997
 30
0.0
 11
1063.2375537206999
 21
-557.64071341609997
 31
0.0
  0
LINE
  5
21B
  8
┌▓È_1
 10
1009.0859375
 20
-485.85364583329988
 30
0.0
 11
1009.0859375
 21
-513.35364583329999
 31
0.0
  0
LINE
  5
21C
  8
┌▓È_1
 10
959.0859375
 20
-485.85364583329988
 30
0.0
 11
959.0859375
 21
-568.35364583329999
 31
0.0
  0
LINE
  5
21D
  8
┌▓È_1
 10
1059.0859375
 20
-513.35364583329999
 30
0.0
 11
1059.0859375
 21
-540.85364583329988
 31
0.0
  0
LINE
  5
21E
  8
┌▓È_1
 62
     5
 10
1125.8942007574999
 20
-548.11889118989995
 30
0.0
 11
1127.9327754929
 21
-545.14071341609997
 31
0.0
  0
LINE
  5
21F
  8
┌▓È_1
 62
     5
 10
1112.9327754929
 20
-549.39071341609986
 30
0.0
 11
1119.1794421596001
 21
-549.39071341609986
 31
0.0
  0
LINE
  5
220
  8
┌▓È_1
 62
     5
 10
1112.9327754929
 20
-555.89071341609997
 30
0.0
 11
1112.9327754929
 21
-560.39071341609997
 31
0.0
  0
LINE
  5
221
  8
┌▓È_1
 62
     5
 10
1112.9327754929
 20
-553.89071341609986
 30
0.0
 11
1120.4994421596
 21
-553.89071341609986
 31
0.0
  0
LINE
  5
222
  8
┌▓È_1
 62
     5
 10
1135.4327754929
 20
-549.39071341609986
 30
0.0
 11
1135.4327754929
 21
-553.89071341609986
 31
0.0
  0
LINE
  5
223
  8
┌▓È_1
 62
     5
 10
1123.4327754929
 20
-563.89071341609997
 30
0.0
 11
1122.4061088262999
 21
-560.39071341609997
 31
0.0
  0
LINE
  5
224
  8
┌▓È_1
 62
     5
 10
1128.1306573633001
 20
-555.89071341609997
 30
0.0
 11
1127.5551278308999
 21
-553.89071341609986
 31
0.0
  0
LINE
  5
225
  8
┌▓È_1
 62
     5
 10
1112.9327754929
 20
-555.89071341609997
 30
0.0
 11
1121.0861088263
 21
-555.89071341609997
 31
0.0
  0
INSERT
  5
226
  8
0
  6
CONTINUOUS
  2
*U33
 10
0.0
 20
0.0
 30
0.0
  0
INSERT
  5
227
  8
0
  6
CONTINUOUS
  2
*U34
 10
0.0
 20
0.0
 30
0.0
  0
INSERT
  5
228
  8
0
  6
CONTINUOUS
  2
*U35
 10
0.0
 20
0.0
 30
0.0
  0
LINE
  5
229
  8
┌▓È_1
 62
     5
 10
1128.1306573633001
 20
-555.89071341609997
 30
0.0
 11
1135.4327754929
 21
-555.89071341609997
 31
0.0
  0
LINE
  5
22A
  8
┌▓È_1
 62
     5
 10
1130.4327754929
 20
-563.89071341609997
 30
0.0
 11
1129.4255988112
 21
-560.39071341609997
 31
0.0
  0
LINE
  5
22B
  8
┌▓È_1
 62
     5
 10
1334.0859375
 20
-568.35364583329999
 30
0.0
 11
1334.0859375
 21
-485.85364583329988
 31
0.0
  0
LINE
  5
22C
  8
┌▓È_1
 62
     5
 10
1130.4327754929
 20
-563.89071341609997
 30
0.0
 11
1123.4327754929
 21
-563.89071341609997
 31
0.0
  0
LINE
  5
22D
  8
┌▓È_1
 10
1159.0859375
 20
-513.35364583329999
 30
0.0
 11
1334.0859375
 21
-513.35364583329999
 31
0.0
  0
LINE
  5
22E
  8
┌▓È_1
 10
1109.0859375
 20
-499.60364583329999
 30
0.0
 11
1159.0859375
 21
-499.60364583329999
 31
0.0
  0
INSERT
  5
22F
  8
0
  6
CONTINUOUS
  2
*U36
 10
0.0
 20
0.0
 30
0.0
  0
LINE
  5
230
  8
┌▓È_1
 62
     5
 10
1126.2601863831001
 20
-549.39071341609986
 30
0.0
 11
1125.8942007574999
 21
-548.11889118989995
 31
0.0
  0
LINE
  5
231
  8
┌▓È_1
 62
     5
 10
1126.2601863831001
 20
-549.39071341609986
 30
0.0
 11
1135.4327754929
 21
-549.39071341609986
 31
0.0
  0
LINE
  5
232
  8
┌▓È_1
 62
     5
 10
1119.1794421596001
 20
-549.39071341609986
 30
0.0
 11
1117.9327754929
 21
-545.14071341609997
 31
0.0
  0
LINE
  5
233
  8
┌▓È_1
 62
     5
 10
1129.4255988112
 20
-560.39071341609997
 30
0.0
 11
1135.4327754929
 21
-560.39071341609997
 31
0.0
  0
LINE
  5
234
  8
┌▓È_1
 62
     5
 10
1135.4327754929
 20
-555.89071341609997
 30
0.0
 11
1135.4327754929
 21
-560.39071341609997
 31
0.0
  0
LINE
  5
235
  8
┌▓È_1
 62
     5
 10
1117.9327754929
 20
-545.14071341609997
 30
0.0
 11
1127.9327754929
 21
-545.14071341609997
 31
0.0
  0
LINE
  5
236
  8
┌▓È_1
 62
     5
 10
1104.8890688721999
 20
-548.89071341609986
 30
0.0
 11
1107.3890688721999
 21
-545.14071341609997
 31
0.0
  0
LINE
  5
237
  8
┌▓È_1
 62
     5
 10
1137.4890244802
 20
-24.992704930999999
 30
0.0
 11
1137.4890244802
 21
-45.493419218199989
 31
0.0
  0
LINE
  5
238
  8
┌▓È_1
 62
     5
 10
1138.5890244801999
 20
-27.492704930999999
 30
0.0
 11
1137.5890244801999
 21
-27.492704930999999
 31
0.0
  0
LINE
  5
239
  8
┌▓È_1
 62
     5
 10
1138.4890244802
 20
-27.49341921820001
 30
0.0
 11
1137.9890244802
 21
-27.49341921820001
 31
0.0
  0
ARC
  5
23A
  8
┌▓È_1
 62
     5
 10
1137.9890244802
 20
-24.992704930999999
 30
0.0
 40
0.5
 50
0.0
 51
180.0
  0
LINE
  5
23B
  8
┌▓È_1
 62
     5
 10
1138.4890244802
 20
-24.992704930999999
 30
0.0
 11
1138.4890244802
 21
-27.49341921820001
 31
0.0
  0
LINE
  5
23C
  8
┌▓È_1
 62
     5
 10
1137.9890244802
 20
-24.992704930999999
 30
0.0
 11
1137.9890244802
 21
-27.492704930999999
 31
0.0
  0
ARC
  5
23D
  8
┌▓È_1
 62
     5
 10
1137.4890244802
 20
-45.493419218199989
 30
0.0
 40
0.5
 50
270.16370244989997
 51
0.0
  0
LINE
  5
23E
  8
┌▓È_1
 62
     5
 10
1137.4890244802
 20
-45.493419218199989
 30
0.0
 11
1136.4376571002001
 21
-47.574718638999997
 31
0.0
  0
LINE
  5
23F
  8
┌▓È_1
 62
     5
 10
1137.5890244801999
 20
-49.492704931000013
 30
0.0
 11
1136.9890244802
 21
-49.492704931000013
 31
0.0
  0
LINE
  5
240
  8
┌▓È_1
 62
     5
 10
1136.9890244802
 20
-49.492704931000013
 30
0.0
 11
1136.4161359868999
 21
-47.499855304799993
 31
0.0
  0
LINE
  5
241
  8
┌▓È_1
 62
     5
 10
1137.5890244801999
 20
-350.49270493099999
 30
0.0
 11
1136.9890244802
 21
-350.49270493099999
 31
0.0
  0
LINE
  5
242
  8
┌▓È_1
 62
     5
 10
1138.5890244801999
 20
-350.49270493099999
 30
0.0
 11
1137.5890244801999
 21
-350.49270493099999
 31
0.0
  0
LINE
  5
243
  8
┌▓È_1
 62
     5
 10
1133.1921344313
 20
-349.23428292030002
 30
0.0
 11
1132.3444546498999
 21
-349.70351651649997
 31
0.0
  0
LINE
  5
244
  8
┌▓È_1
  6
STITCH
 10
1132.3444546498999
 20
-349.70351651649997
 30
0.0
 11
1132.3444546498999
 21
-346.1182426690001
 31
0.0
  0
LINE
  5
245
  8
┌▓È_1
 62
     5
 10
1136.9890244802
 20
-350.49270493099999
 30
0.0
 11
1133.1921344313
 21
-349.23428292030002
 31
0.0
  0
POLYLINE
  8
┌▓È_1
  5
4D2
  62
5
  66
     1
 10
0.000000
 20
0.000000
 30
0.000000
  70
     8
  0
VERTEX
  8
┌▓È_1
  5
4D3
 10
1098.54
 20
-560.482
 30
0.000000
  70
    32
  0
VERTEX
  8
┌▓È_1
  5
4D4
 10
1098.60
 20
-560.503
 30
0.000000
  70
    32
  0
VERTEX
  8
┌▓È_1
  5
4D5
 10
1098.67
 20
-560.524
 30
0.000000
  70
    32
  0
VERTEX
  8
┌▓È_1
  5
4D6
 10
1098.74
 20
-560.546
 30
0.000000
  70
    32
  0
VERTEX
  8
┌▓È_1
  5
4D7
 10
1098.81
 20
-560.567
 30
0.000000
  70
    32
  0
VERTEX
  8
┌▓È_1
  5
4D8
 10
1098.87
 20
-560.588
 30
0.000000
  70
    32
  0
VERTEX
  8
┌▓È_1
  5
4D9
 10
1098.94
 20
-560.609
 30
0.000000
  70
    32
  0
VERTEX
  8
┌▓È_1
  5
4DA
 10
1099.01
 20
-560.630
 30
0.000000
  70
    32
  0
VERTEX
  8
┌▓È_1
  5
4DB
 10
1099.08
 20
-560.650
 30
0.000000
  70
    32
  0
VERTEX
  8
┌▓È_1
  5
4DC
 10
1099.14
 20
-560.671
 30
0.000000
  70
    32
  0
VERTEX
  8
┌▓È_1
  5
4DD
 10
1099.21
 20
-560.691
 30
0.000000
  70
    32
  0
VERTEX
  8
┌▓È_1
  5
4DE
 10
1099.28
 20
-560.712
 30
0.000000
  70
    32
  0
VERTEX
  8
┌▓È_1
  5
4DF
 10
1099.35
 20
-560.732
 30
0.000000
  70
    32
  0
VERTEX
  8
┌▓È_1
  5
4E0
 10
1099.42
 20
-560.753
 30
0.000000
  70
    32
  0
VERTEX
  8
┌▓È_1
  5
4E1
 10
1099.48
 20
-560.773
 30
0.000000
  70
    32
  0
VERTEX
  8
┌▓È_1
  5
4E2
 10
1099.55
 20
-560.793
 30
0.000000
  70
    32
  0
VERTEX
  8
┌▓È_1
  5
4E3
 10
1099.62
 20
-560.813
 30
0.000000
  70
    32
  0
VERTEX
  8
┌▓È_1
  5
4E4
 10
1099.69
 20
-560.833
 30
0.000000
  70
    32
  0
VERTEX
  8
┌▓È_1
  5
4E5
 10
1099.76
 20
-560.852
 30
0.000000
  70
    32
  0
VERTEX
  8
┌▓È_1
  5
4E6
 10
1099.82
 20
-560.872
 30
0.000000
  70
    32
  0
VERTEX
  8
┌▓È_1
  5
4E7
 10
1099.89
 20
-560.892
 30
0.000000
  70
    32
  0
VERTEX
  8
┌▓È_1
  5
4E8
 10
1099.96
 20
-560.911
 30
0.000000
  70
    32
  0
VERTEX
  8
┌▓È_1
  5
4E9
 10
1100.03
 20
-560.931
 30
0.000000
  70
    32
  0
VERTEX
  8
┌▓È_1
  5
4EA
 10
1100.10
 20
-560.950
 30
0.000000
  70
    32
  0
VERTEX
  8
┌▓È_1
  5
4EB
 10
1100.17
 20
-560.969
 30
0.000000
  70
    32
  0
VERTEX
  8
┌▓È_1
  5
4EC
 10
1100.23
 20
-560.988
 30
0.000000
  70
    32
  0
VERTEX
  8
┌▓È_1
  5
4ED
 10
1100.30
 20
-561.007
 30
0.000000
  70
    32
  0
VERTEX
  8
┌▓È_1
  5
4EE
 10
1100.37
 20
-561.026
 30
0.000000
  70
    32
  0
VERTEX
  8
┌▓È_1
  5
4EF
 10
1100.44
 20
-561.045
 30
0.000000
  70
    32
  0
VERTEX
  8
┌▓È_1
  5
4F0
 10
1100.51
 20
-561.064
 30
0.000000
  70
    32
  0
VERTEX
  8
┌▓È_1
  5
4F1
 10
1100.58
 20
-561.083
 30
0.000000
  70
    32
  0
VERTEX
  8
┌▓È_1
  5
4F2
 10
1100.65
 20
-561.101
 30
0.000000
  70
    32
  0
VERTEX
  8
┌▓È_1
  5
4F3
 10
1100.72
 20
-561.120
 30
0.000000
  70
    32
  0
VERTEX
  8
┌▓È_1
  5
4F4
 10
1100.78
 20
-561.138
 30
0.000000
  70
    32
  0
VERTEX
  8
┌▓È_1
  5
4F5
 10
1100.85
 20
-561.157
 30
0.000000
  70
    32
  0
VERTEX
  8
┌▓È_1
  5
4F6
 10
1100.92
 20
-561.175
 30
0.000000
  70
    32
  0
VERTEX
  8
┌▓È_1
  5
4F7
 10
1100.99
 20
-561.193
 30
0.000000
  70
    32
  0
VERTEX
  8
┌▓È_1
  5
4F8
 10
1101.06
 20
-561.212
 30
0.000000
  70
    32
  0
VERTEX
  8
┌▓È_1
  5
4F9
 10
1101.13
 20
-561.230
 30
0.000000
  70
    32
  0
VERTEX
  8
┌▓È_1
  5
4FA
 10
1101.20
 20
-561.248
 30
0.000000
  70
    32
  0
VERTEX
  8
┌▓È_1
  5
4FB
 10
1101.27
 20
-561.266
 30
0.000000
  70
    32
  0
VERTEX
  8
┌▓È_1
  5
4FC
 10
1101.34
 20
-561.284
 30
0.000000
  70
    32
  0
VERTEX
  8
┌▓È_1
  5
4FD
 10
1101.41
 20
-561.301
 30
0.000000
  70
    32
  0
VERTEX
  8
┌▓È_1
  5
4FE
 10
1101.48
 20
-561.319
 30
0.000000
  70
    32
  0
VERTEX
  8
┌▓È_1
  5
4FF
 10
1101.55
 20
-561.337
 30
0.000000
  70
    32
  0
VERTEX
  8
┌▓È_1
  5
500
 10
1101.61
 20
-561.354
 30
0.000000
  70
    32
  0
VERTEX
  8
┌▓È_1
  5
501
 10
1101.68
 20
-561.372
 30
0.000000
  70
    32
  0
VERTEX
  8
┌▓È_1
  5
502
 10
1101.75
 20
-561.389
 30
0.000000
  70
    32
  0
VERTEX
  8
┌▓È_1
  5
503
 10
1101.82
 20
-561.407
 30
0.000000
  70
    32
  0
VERTEX
  8
┌▓È_1
  5
504
 10
1101.89
 20
-561.424
 30
0.000000
  70
    32
  0
VERTEX
  8
┌▓È_1
  5
505
 10
1101.96
 20
-561.441
 30
0.000000
  70
    32
  0
VERTEX
  8
┌▓È_1
  5
506
 10
1102.03
 20
-561.459
 30
0.000000
  70
    32
  0
VERTEX
  8
┌▓È_1
  5
507
 10
1102.10
 20
-561.476
 30
0.000000
  70
    32
  0
VERTEX
  8
┌▓È_1
  5
508
 10
1102.17
 20
-561.493
 30
0.000000
  70
    32
  0
VERTEX
  8
┌▓È_1
  5
509
 10
1102.24
 20
-561.510
 30
0.000000
  70
    32
  0
VERTEX
  8
┌▓È_1
  5
50A
 10
1102.31
 20
-561.527
 30
0.000000
  70
    32
  0
VERTEX
  8
┌▓È_1
  5
50B
 10
1102.38
 20
-561.544
 30
0.000000
  70
    32
  0
VERTEX
  8
┌▓È_1
  5
50C
 10
1102.45
 20
-561.561
 30
0.000000
  70
    32
  0
VERTEX
  8
┌▓È_1
  5
50D
 10
1102.52
 20
-561.577
 30
0.000000
  70
    32
  0
VERTEX
  8
┌▓È_1
  5
50E
 10
1102.59
 20
-561.594
 30
0.000000
  70
    32
  0
VERTEX
  8
┌▓È_1
  5
50F
 10
1102.66
 20
-561.611
 30
0.000000
  70
    32
  0
VERTEX
  8
┌▓È_1
  5
510
 10
1102.73
 20
-561.627
 30
0.000000
  70
    32
  0
VERTEX
  8
┌▓È_1
  5
511
 10
1102.80
 20
-561.644
 30
0.000000
  70
    32
  0
VERTEX
  8
┌▓È_1
  5
512
 10
1102.87
 20
-561.660
 30
0.000000
  70
    32
  0
VERTEX
  8
┌▓È_1
  5
513
 10
1102.94
 20
-561.677
 30
0.000000
  70
    32
  0
VERTEX
  8
┌▓È_1
  5
514
 10
1103.01
 20
-561.693
 30
0.000000
  70
    32
  0
VERTEX
  8
┌▓È_1
  5
515
 10
1103.08
 20
-561.709
 30
0.000000
  70
    32
  0
VERTEX
  8
┌▓È_1
  5
516
 10
1103.15
 20
-561.726
 30
0.000000
  70
    32
  0
VERTEX
  8
┌▓È_1
  5
517
 10
1103.22
 20
-561.742
 30
0.000000
  70
    32
  0
VERTEX
  8
┌▓È_1
  5
518
 10
1103.29
 20
-561.758
 30
0.000000
  70
    32
  0
VERTEX
  8
┌▓È_1
  5
519
 10
1103.36
 20
-561.774
 30
0.000000
  70
    32
  0
VERTEX
  8
┌▓È_1
  5
51A
 10
1103.43
 20
-561.790
 30
0.000000
  70
    32
  0
VERTEX
  8
┌▓È_1
  5
51B
 10
1103.50
 20
-561.806
 30
0.000000
  70
    32
  0
VERTEX
  8
┌▓È_1
  5
51C
 10
1103.57
 20
-561.822
 30
0.000000
  70
    32
  0
VERTEX
  8
┌▓È_1
  5
51D
 10
1103.64
 20
-561.838
 30
0.000000
  70
    32
  0
VERTEX
  8
┌▓È_1
  5
51E
 10
1103.71
 20
-561.854
 30
0.000000
  70
    32
  0
VERTEX
  8
┌▓È_1
  5
51F
 10
1103.78
 20
-561.870
 30
0.000000
  70
    32
  0
VERTEX
  8
┌▓È_1
  5
520
 10
1103.85
 20
-561.886
 30
0.000000
  70
    32
  0
VERTEX
  8
┌▓È_1
  5
521
 10
1103.92
 20
-561.902
 30
0.000000
  70
    32
  0
VERTEX
  8
┌▓È_1
  5
522
 10
1103.99
 20
-561.917
 30
0.000000
  70
    32
  0
VERTEX
  8
┌▓È_1
  5
523
 10
1104.06
 20
-561.933
 30
0.000000
  70
    32
  0
VERTEX
  8
┌▓È_1
  5
524
 10
1104.13
 20
-561.949
 30
0.000000
  70
    32
  0
VERTEX
  8
┌▓È_1
  5
525
 10
1104.20
 20
-561.964
 30
0.000000
  70
    32
  0
VERTEX
  8
┌▓È_1
  5
526
 10
1104.27
 20
-561.980
 30
0.000000
  70
    32
  0
VERTEX
  8
┌▓È_1
  5
527
 10
1104.35
 20
-561.996
 30
0.000000
  70
    32
  0
VERTEX
  8
┌▓È_1
  5
528
 10
1104.42
 20
-562.011
 30
0.000000
  70
    32
  0
VERTEX
  8
┌▓È_1
  5
529
 10
1104.49
 20
-562.027
 30
0.000000
  70
    32
  0
VERTEX
  8
┌▓È_1
  5
52A
 10
1104.56
 20
-562.042
 30
0.000000
  70
    32
  0
VERTEX
  8
┌▓È_1
  5
52B
 10
1104.63
 20
-562.057
 30
0.000000
  70
    32
  0
VERTEX
  8
┌▓È_1
  5
52C
 10
1104.70
 20
-562.073
 30
0.000000
  70
    32
  0
VERTEX
  8
┌▓È_1
  5
52D
 10
1104.77
 20
-562.088
 30
0.000000
  70
    32
  0
VERTEX
  8
┌▓È_1
  5
52E
 10
1104.84
 20
-562.103
 30
0.000000
  70
    32
  0
VERTEX
  8
┌▓È_1
  5
52F
 10
1104.91
 20
-562.119
 30
0.000000
  70
    32
  0
VERTEX
  8
┌▓È_1
  5
530
 10
1104.98
 20
-562.134
 30
0.000000
  70
    32
  0
VERTEX
  8
┌▓È_1
  5
531
 10
1105.05
 20
-562.149
 30
0.000000
  70
    32
  0
VERTEX
  8
┌▓È_1
  5
532
 10
1105.12
 20
-562.164
 30
0.000000
  70
    32
  0
VERTEX
  8
┌▓È_1
  5
533
 10
1105.19
 20
-562.179
 30
0.000000
  70
    32
  0
VERTEX
  8
┌▓È_1
  5
534
 10
1105.26
 20
-562.195
 30
0.000000
  70
    32
  0
VERTEX
  8
┌▓È_1
  5
535
 10
1105.33
 20
-562.210
 30
0.000000
  70
    32
  0
VERTEX
  8
┌▓È_1
  5
536
 10
1105.40
 20
-562.225
 30
0.000000
  70
    32
  0
VERTEX
  8
┌▓È_1
  5
537
 10
1105.48
 20
-562.240
 30
0.000000
  70
    32
  0
VERTEX
  8
┌▓È_1
  5
538
 10
1105.55
 20
-562.255
 30
0.000000
  70
    32
  0
VERTEX
  8
┌▓È_1
  5
539
 10
1105.62
 20
-562.270
 30
0.000000
  70
    32
  0
VERTEX
  8
┌▓È_1
  5
53A
 10
1105.69
 20
-562.285
 30
0.000000
  70
    32
  0
VERTEX
  8
┌▓È_1
  5
53B
 10
1105.76
 20
-562.300
 30
0.000000
  70
    32
  0
VERTEX
  8
┌▓È_1
  5
53C
 10
1105.83
 20
-562.315
 30
0.000000
  70
    32
  0
VERTEX
  8
┌▓È_1
  5
53D
 10
1105.90
 20
-562.330
 30
0.000000
  70
    32
  0
VERTEX
  8
┌▓È_1
  5
53E
 10
1105.97
 20
-562.345
 30
0.000000
  70
    32
  0
VERTEX
  8
┌▓È_1
  5
53F
 10
1106.04
 20
-562.360
 30
0.000000
  70
    32
  0
VERTEX
  8
┌▓È_1
  5
540
 10
1106.11
 20
-562.374
 30
0.000000
  70
    32
  0
VERTEX
  8
┌▓È_1
  5
541
 10
1106.18
 20
-562.389
 30
0.000000
  70
    32
  0
VERTEX
  8
┌▓È_1
  5
542
 10
1106.25
 20
-562.404
 30
0.000000
  70
    32
  0
VERTEX
  8
┌▓È_1
  5
543
 10
1106.33
 20
-562.419
 30
0.000000
  70
    32
  0
VERTEX
  8
┌▓È_1
  5
544
 10
1106.40
 20
-562.434
 30
0.000000
  70
    32
  0
VERTEX
  8
┌▓È_1
  5
545
 10
1106.47
 20
-562.449
 30
0.000000
  70
    32
  0
VERTEX
  8
┌▓È_1
  5
546
 10
1106.54
 20
-562.464
 30
0.000000
  70
    32
  0
VERTEX
  8
┌▓È_1
  5
547
 10
1106.61
 20
-562.478
 30
0.000000
  70
    32
  0
VERTEX
  8
┌▓È_1
  5
548
 10
1106.68
 20
-562.493
 30
0.000000
  70
    32
  0
VERTEX
  8
┌▓È_1
  5
549
 10
1106.75
 20
-562.508
 30
0.000000
  70
    32
  0
VERTEX
  8
┌▓È_1
  5
54A
 10
1106.82
 20
-562.523
 30
0.000000
  70
    32
  0
VERTEX
  8
┌▓È_1
  5
54B
 10
1106.89
 20
-562.537
 30
0.000000
  70
    32
  0
VERTEX
  8
┌▓È_1
  5
54C
 10
1106.96
 20
-562.552
 30
0.000000
  70
    32
  0
VERTEX
  8
┌▓È_1
  5
54D
 10
1107.03
 20
-562.567
 30
0.000000
  70
    32
  0
VERTEX
  8
┌▓È_1
  5
54E
 10
1107.11
 20
-562.582
 30
0.000000
  70
    32
  0
VERTEX
  8
┌▓È_1
  5
54F
 10
1107.18
 20
-562.596
 30
0.000000
  70
    32
  0
VERTEX
  8
┌▓È_1
  5
550
 10
1107.25
 20
-562.611
 30
0.000000
  70
    32
  0
VERTEX
  8
┌▓È_1
  5
551
 10
1107.32
 20
-562.626
 30
0.000000
  70
    32
  0
VERTEX
  8
┌▓È_1
  5
552
 10
1107.39
 20
-562.641
 30
0.000000
  70
    32
  0
SEQEND
  8
┌▓È_1
  5
553
  0
POLYLINE
  8
┌▓È_1
  5
554
  62
5
  66
     1
 10
0.000000
 20
0.000000
 30
0.000000
  70
     8
  0
VERTEX
  8
┌▓È_1
  5
555
 10
1101.60
 20
-557.699
 30
0.000000
  70
    32
  0
VERTEX
  8
┌▓È_1
  5
556
 10
1101.64
 20
-557.712
 30
0.000000
  70
    32
  0
VERTEX
  8
┌▓È_1
  5
557
 10
1101.69
 20
-557.724
 30
0.000000
  70
    32
  0
VERTEX
  8
┌▓È_1
  5
558
 10
1101.73
 20
-557.736
 30
0.000000
  70
    32
  0
VERTEX
  8
┌▓È_1
  5
559
 10
1101.78
 20
-557.749
 30
0.000000
  70
    32
  0
VERTEX
  8
┌▓È_1
  5
55A
 10
1101.82
 20
-557.761
 30
0.000000
  70
    32
  0
VERTEX
  8
┌▓È_1
  5
55B
 10
1101.86
 20
-557.773
 30
0.000000
  70
    32
  0
VERTEX
  8
┌▓È_1
  5
55C
 10
1101.91
 20
-557.785
 30
0.000000
  70
    32
  0
VERTEX
  8
┌▓È_1
  5
55D
 10
1101.95
 20
-557.797
 30
0.000000
  70
    32
  0
VERTEX
  8
┌▓È_1
  5
55E
 10
1102.00
 20
-557.808
 30
0.000000
  70
    32
  0
VERTEX
  8
┌▓È_1
  5
55F
 10
1102.04
 20
-557.820
 30
0.000000
  70
    32
  0
VERTEX
  8
┌▓È_1
  5
560
 10
1102.08
 20
-557.832
 30
0.000000
  70
    32
  0
VERTEX
  8
┌▓È_1
  5
561
 10
1102.13
 20
-557.844
 30
0.000000
  70
    32
  0
VERTEX
  8
┌▓È_1
  5
562
 10
1102.17
 20
-557.855
 30
0.000000
  70
    32
  0
VERTEX
  8
┌▓È_1
  5
563
 10
1102.22
 20
-557.867
 30
0.000000
  70
    32
  0
VERTEX
  8
┌▓È_1
  5
564
 10
1102.26
 20
-557.878
 30
0.000000
  70
    32
  0
VERTEX
  8
┌▓È_1
  5
565
 10
1102.31
 20
-557.889
 30
0.000000
  70
    32
  0
VERTEX
  8
┌▓È_1
  5
566
 10
1102.35
 20
-557.901
 30
0.000000
  70
    32
  0
VERTEX
  8
┌▓È_1
  5
567
 10
1102.39
 20
-557.912
 30
0.000000
  70
    32
  0
VERTEX
  8
┌▓È_1
  5
568
 10
1102.44
 20
-557.923
 30
0.000000
  70
    32
  0
VERTEX
  8
┌▓È_1
  5
569
 10
1102.48
 20
-557.934
 30
0.000000
  70
    32
  0
VERTEX
  8
┌▓È_1
  5
56A
 10
1102.53
 20
-557.945
 30
0.000000
  70
    32
  0
VERTEX
  8
┌▓È_1
  5
56B
 10
1102.57
 20
-557.956
 30
0.000000
  70
    32
  0
VERTEX
  8
┌▓È_1
  5
56C
 10
1102.62
 20
-557.967
 30
0.000000
  70
    32
  0
VERTEX
  8
┌▓È_1
  5
56D
 10
1102.66
 20
-557.978
 30
0.000000
  70
    32
  0
VERTEX
  8
┌▓È_1
  5
56E
 10
1102.71
 20
-557.989
 30
0.000000
  70
    32
  0
VERTEX
  8
┌▓È_1
  5
56F
 10
1102.75
 20
-558.000
 30
0.000000
  70
    32
  0
VERTEX
  8
┌▓È_1
  5
570
 10
1102.80
 20
-558.011
 30
0.000000
  70
    32
  0
VERTEX
  8
┌▓È_1
  5
571
 10
1102.84
 20
-558.021
 30
0.000000
  70
    32
  0
VERTEX
  8
┌▓È_1
  5
572
 10
1102.88
 20
-558.032
 30
0.000000
  70
    32
  0
VERTEX
  8
┌▓È_1
  5
573
 10
1102.93
 20
-558.042
 30
0.000000
  70
    32
  0
VERTEX
  8
┌▓È_1
  5
574
 10
1102.97
 20
-558.053
 30
0.000000
  70
    32
  0
VERTEX
  8
┌▓È_1
  5
575
 10
1103.02
 20
-558.063
 30
0.000000
  70
    32
  0
VERTEX
  8
┌▓È_1
  5
576
 10
1103.06
 20
-558.074
 30
0.000000
  70
    32
  0
VERTEX
  8
┌▓È_1
  5
577
 10
1103.11
 20
-558.084
 30
0.000000
  70
    32
  0
VERTEX
  8
┌▓È_1
  5
578
 10
1103.15
 20
-558.094
 30
0.000000
  70
    32
  0
VERTEX
  8
┌▓È_1
  5
579
 10
1103.20
 20
-558.105
 30
0.000000
  70
    32
  0
VERTEX
  8
┌▓È_1
  5
57A
 10
1103.24
 20
-558.115
 30
0.000000
  70
    32
  0
VERTEX
  8
┌▓È_1
  5
57B
 10
1103.29
 20
-558.125
 30
0.000000
  70
    32
  0
VERTEX
  8
┌▓È_1
  5
57C
 10
1103.33
 20
-558.135
 30
0.000000
  70
    32
  0
VERTEX
  8
┌▓È_1
  5
57D
 10
1103.38
 20
-558.145
 30
0.000000
  70
    32
  0
VERTEX
  8
┌▓È_1
  5
57E
 10
1103.43
 20
-558.155
 30
0.000000
  70
    32
  0
VERTEX
  8
┌▓È_1
  5
57F
 10
1103.47
 20
-558.165
 30
0.000000
  70
    32
  0
VERTEX
  8
┌▓È_1
  5
580
 10
1103.52
 20
-558.175
 30
0.000000
  70
    32
  0
VERTEX
  8
┌▓È_1
  5
581
 10
1103.56
 20
-558.185
 30
0.000000
  70
    32
  0
VERTEX
  8
┌▓È_1
  5
582
 10
1103.61
 20
-558.194
 30
0.000000
  70
    32
  0
VERTEX
  8
┌▓È_1
  5
583
 10
1103.65
 20
-558.204
 30
0.000000
  70
    32
  0
VERTEX
  8
┌▓È_1
  5
584
 10
1103.70
 20
-558.214
 30
0.000000
  70
    32
  0
VERTEX
  8
┌▓È_1
  5
585
 10
1103.74
 20
-558.223
 30
0.000000
  70
    32
  0
VERTEX
  8
┌▓È_1
  5
586
 10
1103.79
 20
-558.233
 30
0.000000
  70
    32
  0
VERTEX
  8
┌▓È_1
  5
587
 10
1103.83
 20
-558.243
 30
0.000000
  70
    32
  0
VERTEX
  8
┌▓È_1
  5
588
 10
1103.88
 20
-558.252
 30
0.000000
  70
    32
  0
VERTEX
  8
┌▓È_1
  5
589
 10
1103.92
 20
-558.262
 30
0.000000
  70
    32
  0
VERTEX
  8
┌▓È_1
  5
58A
 10
1103.97
 20
-558.271
 30
0.000000
  70
    32
  0
VERTEX
  8
┌▓È_1
  5
58B
 10
1104.02
 20
-558.280
 30
0.000000
  70
    32
  0
VERTEX
  8
┌▓È_1
  5
58C
 10
1104.06
 20
-558.290
 30
0.000000
  70
    32
  0
VERTEX
  8
┌▓È_1
  5
58D
 10
1104.11
 20
-558.299
 30
0.000000
  70
    32
  0
VERTEX
  8
┌▓È_1
  5
58E
 10
1104.15
 20
-558.308
 30
0.000000
  70
    32
  0
VERTEX
  8
┌▓È_1
  5
58F
 10
1104.20
 20
-558.318
 30
0.000000
  70
    32
  0
VERTEX
  8
┌▓È_1
  5
590
 10
1104.24
 20
-558.327
 30
0.000000
  70
    32
  0
VERTEX
  8
┌▓È_1
  5
591
 10
1104.29
 20
-558.336
 30
0.000000
  70
    32
  0
VERTEX
  8
┌▓È_1
  5
592
 10
1104.34
 20
-558.345
 30
0.000000
  70
    32
  0
VERTEX
  8
┌▓È_1
  5
593
 10
1104.38
 20
-558.354
 30
0.000000
  70
    32
  0
VERTEX
  8
┌▓È_1
  5
594
 10
1104.43
 20
-558.363
 30
0.000000
  70
    32
  0
VERTEX
  8
┌▓È_1
  5
595
 10
1104.47
 20
-558.372
 30
0.000000
  70
    32
  0
VERTEX
  8
┌▓È_1
  5
596
 10
1104.52
 20
-558.381
 30
0.000000
  70
    32
  0
VERTEX
  8
┌▓È_1
  5
597
 10
1104.56
 20
-558.390
 30
0.000000
  70
    32
  0
VERTEX
  8
┌▓È_1
  5
598
 10
1104.61
 20
-558.399
 30
0.000000
  70
    32
  0
VERTEX
  8
┌▓È_1
  5
599
 10
1104.66
 20
-558.408
 30
0.000000
  70
    32
  0
VERTEX
  8
┌▓È_1
  5
59A
 10
1104.70
 20
-558.417
 30
0.000000
  70
    32
  0
VERTEX
  8
┌▓È_1
  5
59B
 10
1104.75
 20
-558.425
 30
0.000000
  70
    32
  0
VERTEX
  8
┌▓È_1
  5
59C
 10
1104.79
 20
-558.434
 30
0.000000
  70
    32
  0
VERTEX
  8
┌▓È_1
  5
59D
 10
1104.84
 20
-558.443
 30
0.000000
  70
    32
  0
VERTEX
  8
┌▓È_1
  5
59E
 10
1104.89
 20
-558.452
 30
0.000000
  70
    32
  0
VERTEX
  8
┌▓È_1
  5
59F
 10
1104.93
 20
-558.460
 30
0.000000
  70
    32
  0
VERTEX
  8
┌▓È_1
  5
5A0
 10
1104.98
 20
-558.469
 30
0.000000
  70
    32
  0
VERTEX
  8
┌▓È_1
  5
5A1
 10
1105.02
 20
-558.477
 30
0.000000
  70
    32
  0
VERTEX
  8
┌▓È_1
  5
5A2
 10
1105.07
 20
-558.486
 30
0.000000
  70
    32
  0
VERTEX
  8
┌▓È_1
  5
5A3
 10
1105.12
 20
-558.495
 30
0.000000
  70
    32
  0
VERTEX
  8
┌▓È_1
  5
5A4
 10
1105.16
 20
-558.503
 30
0.000000
  70
    32
  0
VERTEX
  8
┌▓È_1
  5
5A5
 10
1105.21
 20
-558.512
 30
0.000000
  70
    32
  0
VERTEX
  8
┌▓È_1
  5
5A6
 10
1105.25
 20
-558.520
 30
0.000000
  70
    32
  0
VERTEX
  8
┌▓È_1
  5
5A7
 10
1105.30
 20
-558.529
 30
0.000000
  70
    32
  0
VERTEX
  8
┌▓È_1
  5
5A8
 10
1105.35
 20
-558.537
 30
0.000000
  70
    32
  0
VERTEX
  8
┌▓È_1
  5
5A9
 10
1105.39
 20
-558.545
 30
0.000000
  70
    32
  0
VERTEX
  8
┌▓È_1
  5
5AA
 10
1105.44
 20
-558.554
 30
0.000000
  70
    32
  0
VERTEX
  8
┌▓È_1
  5
5AB
 10
1105.49
 20
-558.562
 30
0.000000
  70
    32
  0
VERTEX
  8
┌▓È_1
  5
5AC
 10
1105.53
 20
-558.570
 30
0.000000
  70
    32
  0
VERTEX
  8
┌▓È_1
  5
5AD
 10
1105.58
 20
-558.579
 30
0.000000
  70
    32
  0
VERTEX
  8
┌▓È_1
  5
5AE
 10
1105.62
 20
-558.587
 30
0.000000
  70
    32
  0
VERTEX
  8
┌▓È_1
  5
5AF
 10
1105.67
 20
-558.595
 30
0.000000
  70
    32
  0
VERTEX
  8
┌▓È_1
  5
5B0
 10
1105.72
 20
-558.603
 30
0.000000
  70
    32
  0
VERTEX
  8
┌▓È_1
  5
5B1
 10
1105.76
 20
-558.612
 30
0.000000
  70
    32
  0
VERTEX
  8
┌▓È_1
  5
5B2
 10
1105.81
 20
-558.620
 30
0.000000
  70
    32
  0
VERTEX
  8
┌▓È_1
  5
5B3
 10
1105.86
 20
-558.628
 30
0.000000
  70
    32
  0
VERTEX
  8
┌▓È_1
  5
5B4
 10
1105.90
 20
-558.636
 30
0.000000
  70
    32
  0
VERTEX
  8
┌▓È_1
  5
5B5
 10
1105.95
 20
-558.644
 30
0.000000
  70
    32
  0
VERTEX
  8
┌▓È_1
  5
5B6
 10
1105.99
 20
-558.652
 30
0.000000
  70
    32
  0
VERTEX
  8
┌▓È_1
  5
5B7
 10
1106.04
 20
-558.661
 30
0.000000
  70
    32
  0
VERTEX
  8
┌▓È_1
  5
5B8
 10
1106.09
 20
-558.669
 30
0.000000
  70
    32
  0
VERTEX
  8
┌▓È_1
  5
5B9
 10
1106.13
 20
-558.677
 30
0.000000
  70
    32
  0
VERTEX
  8
┌▓È_1
  5
5BA
 10
1106.18
 20
-558.685
 30
0.000000
  70
    32
  0
VERTEX
  8
┌▓È_1
  5
5BB
 10
1106.23
 20
-558.693
 30
0.000000
  70
    32
  0
VERTEX
  8
┌▓È_1
  5
5BC
 10
1106.27
 20
-558.701
 30
0.000000
  70
    32
  0
VERTEX
  8
┌▓È_1
  5
5BD
 10
1106.32
 20
-558.709
 30
0.000000
  70
    32
  0
VERTEX
  8
┌▓È_1
  5
5BE
 10
1106.37
 20
-558.717
 30
0.000000
  70
    32
  0
VERTEX
  8
┌▓È_1
  5
5BF
 10
1106.41
 20
-558.725
 30
0.000000
  70
    32
  0
VERTEX
  8
┌▓È_1
  5
5C0
 10
1106.46
 20
-558.733
 30
0.000000
  70
    32
  0
VERTEX
  8
┌▓È_1
  5
5C1
 10
1106.51
 20
-558.741
 30
0.000000
  70
    32
  0
VERTEX
  8
┌▓È_1
  5
5C2
 10
1106.55
 20
-558.749
 30
0.000000
  70
    32
  0
VERTEX
  8
┌▓È_1
  5
5C3
 10
1106.60
 20
-558.757
 30
0.000000
  70
    32
  0
VERTEX
  8
┌▓È_1
  5
5C4
 10
1106.64
 20
-558.765
 30
0.000000
  70
    32
  0
VERTEX
  8
┌▓È_1
  5
5C5
 10
1106.69
 20
-558.773
 30
0.000000
  70
    32
  0
VERTEX
  8
┌▓È_1
  5
5C6
 10
1106.74
 20
-558.780
 30
0.000000
  70
    32
  0
VERTEX
  8
┌▓È_1
  5
5C7
 10
1106.78
 20
-558.788
 30
0.000000
  70
    32
  0
VERTEX
  8
┌▓È_1
  5
5C8
 10
1106.83
 20
-558.796
 30
0.000000
  70
    32
  0
VERTEX
  8
┌▓È_1
  5
5C9
 10
1106.88
 20
-558.804
 30
0.000000
  70
    32
  0
VERTEX
  8
┌▓È_1
  5
5CA
 10
1106.92
 20
-558.812
 30
0.000000
  70
    32
  0
VERTEX
  8
┌▓È_1
  5
5CB
 10
1106.97
 20
-558.820
 30
0.000000
  70
    32
  0
VERTEX
  8
┌▓È_1
  5
5CC
 10
1107.02
 20
-558.828
 30
0.000000
  70
    32
  0
VERTEX
  8
┌▓È_1
  5
5CD
 10
1107.06
 20
-558.836
 30
0.000000
  70
    32
  0
VERTEX
  8
┌▓È_1
  5
5CE
 10
1107.11
 20
-558.844
 30
0.000000
  70
    32
  0
VERTEX
  8
┌▓È_1
  5
5CF
 10
1107.16
 20
-558.851
 30
0.000000
  70
    32
  0
VERTEX
  8
┌▓È_1
  5
5D0
 10
1107.20
 20
-558.859
 30
0.000000
  70
    32
  0
VERTEX
  8
┌▓È_1
  5
5D1
 10
1107.25
 20
-558.867
 30
0.000000
  70
    32
  0
VERTEX
  8
┌▓È_1
  5
5D2
 10
1107.30
 20
-558.875
 30
0.000000
  70
    32
  0
VERTEX
  8
┌▓È_1
  5
5D3
 10
1107.34
 20
-558.883
 30
0.000000
  70
    32
  0
VERTEX
  8
┌▓È_1
  5
5D4
 10
1107.39
 20
-558.891
 30
0.000000
  70
    32
  0
SEQEND
  8
┌▓È_1
  5
5D5
  0
LINE
  5
248
  8
┌▓È_1
 62
     5
 10
1112.9327754929
 20
-549.39071341609986
 30
0.0
 11
1112.9327754929
 21
-553.89071341609986
 31
0.0
  0
LINE
  5
249
  8
┌▓È_1
 10
1109.0859375
 20
-485.85364583329988
 30
0.0
 11
1109.0859375
 21
-540.85364583329988
 31
0.0
  0
LINE
  5
24A
  8
┌▓È_1
 10
1159.0859375
 20
-485.85364583329988
 30
0.0
 11
1159.0859375
 21
-568.35364583329999
 31
0.0
  0
LINE
  5
24B
  8
┌▓È_1
 62
     5
 10
1112.9327754929
 20
-560.39071341609997
 30
0.0
 11
1122.4061088262999
 21
-560.39071341609997
 31
0.0
  0
ARC
  5
24C
  8
┌▓È_1
 62
     5
 10
1091.1390688721999
 20
-548.89071341609986
 30
0.0
 40
13.75
 50
322.48761197969998
 51
0.0
  0
ARC
  5
24D
  8
┌▓È_1
 62
     5
 10
1087.8890688721999
 20
-549.39071341609986
 30
0.0
 40
9.5
 50
331.39928138329998
 51
358.49204224580001
  0
LINE
  5
24E
  8
┌▓È_1
 62
     5
 10
1107.3890688721999
 20
-558.89071341609986
 30
0.0
 11
1107.3890688721999
 21
-562.64071341609997
 31
0.0
  0
LINE
  5
24F
  8
┌▓È_1
 62
     5
 10
1121.0861088263
 20
-555.89071341609997
 30
0.0
 11
1120.4994421596
 21
-553.89071341609986
 31
0.0
  0
ENDSEC
  0
EOF
