  0
SECTION
  2
HEADER
  9
$ACADVER
  1
AC1009
  9
$INSBASE
 10
0.0
 20
0.0
 30
0.0
  9
$EXTMIN
 10
562.07539461231545
 20
-409.9586045919001
 30
-0.0015258207003583
  9
$EXTMAX
 10
1112.136493834686
 20
-29.940699280286928
 30
0.0000000349246037
  9
$LIMMIN
 10
0.0
 20
0.0
  9
$LIMMAX
 10
0.0
 20
0.0
  9
$ORTHOMODE
 70
     0
  9
$REGENMODE
 70
     1
  9
$FILLMODE
 70
     1
  9
$QTEXTMODE
 70
     0
  9
$MIRRTEXT
 70
     1
  9
$DRAGMODE
 70
     2
  9
$LTSCALE
 40
1.0
  9
$OSMODE
 70
    31
  9
$ATTMODE
 70
     1
  9
$TEXTSIZE
 40
0.0
  9
$TRACEWID
 40
0.05
  9
$TEXTSTYLE
  7
STANDARD
  9
$CLAYER
  8
0
  9
$CELTYPE
  6
CONTINUOUS
  9
$CECOLOR
 62
   256
  9
$DIMSCALE
 40
1.0
  9
$DIMASZ
 40
0.18
  9
$DIMEXO
 40
0.0625
  9
$DIMDLI
 40
0.38
  9
$DIMRND
 40
0.0
  9
$DIMDLE
 40
0.0
  9
$DIMEXE
 40
0.18
  9
$DIMTP
 40
0.0
  9
$DIMTM
 40
0.0
  9
$DIMTXT
 40
0.18
  9
$DIMCEN
 40
0.09
  9
$DIMTSZ
 40
0.0
  9
$DIMTOL
 70
     0
  9
$DIMLIM
 70
     0
  9
$DIMTIH
 70
     1
  9
$DIMTOH
 70
     1
  9
$DIMSE1
 70
     0
  9
$DIMSE2
 70
     0
  9
$DIMTAD
 70
     0
  9
$DIMZIN
 70
     0
  9
$DIMBLK
  1

  9
$DIMASO
 70
     1
  9
$DIMSHO
 70
     1
  9
$DIMPOST
  1

  9
$DIMAPOST
  1

  9
$DIMALT
 70
     0
  9
$DIMALTD
 70
     2
  9
$DIMALTF
 40
25.399999999999999
  9
$DIMLFAC
 40
1.0
  9
$DIMTOFL
 70
     0
  9
$DIMTVP
 40
0.0
  9
$DIMTIX
 70
     0
  9
$DIMSOXD
 70
     0
  9
$DIMSAH
 70
     0
  9
$DIMBLK1
  1

  9
$DIMBLK2
  1

  9
$DIMSTYLE
  2
STANDARD
  9
$DIMCLRD
 70
     0
  9
$DIMCLRE
 70
     0
  9
$DIMCLRT
 70
     0
  9
$DIMTFAC
 40
1.0
  9
$DIMGAP
 40
0.09
  9
$LUNITS
 70
     2
  9
$LUPREC
 70
     4
  9
$SKETCHINC
 40
0.1
  9
$FILLETRAD
 40
0.0
  9
$AUNITS
 70
     0
  9
$AUPREC
 70
     0
  9
$MENU
  1
acad
  9
$ELEVATION
 40
0.0
  9
$PELEVATION
 40
0.0
  9
$THICKNESS
 40
0.0
  9
$LIMCHECK
 70
     0
  9
$BLIPMODE
 70
     0
  9
$CHAMFERA
 40
0.0
  9
$CHAMFERB
 40
0.0
  9
$SKPOLY
 70
     0
  9
$TDCREATE
 40
2454862.4404557291
  9
$TDUPDATE
 40
2454862.4426676389
  9
$TDINDWG
 40
0.0022240394
  9
$TDUSRTIMER
 40
0.002223669
  9
$USRTIMER
 70
     1
  9
$ANGBASE
 50
0.0
  9
$ANGDIR
 70
     0
  9
$PDMODE
 70
     3
  9
$PDSIZE
 40
-1.0
  9
$PLINEWID
 40
0.0
  9
$COORDS
 70
     2
  9
$SPLFRAME
 70
     0
  9
$SPLINETYPE
 70
     6
  9
$SPLINESEGS
 70
     8
  9
$ATTDIA
 70
     0
  9
$ATTREQ
 70
     1
  9
$HANDLING
 70
     1
  9
$HANDSEED
  5
5B4
  9
$SURFTAB1
 70
     6
  9
$SURFTAB2
 70
     6
  9
$SURFTYPE
 70
     6
  9
$SURFU
 70
     6
  9
$SURFV
 70
     6
  9
$UCSNAME
  2

  9
$UCSORG
 10
0.0
 20
0.0
 30
0.0
  9
$UCSXDIR
 10
1.0
 20
0.0
 30
0.0
  9
$UCSYDIR
 10
0.0
 20
1.0
 30
0.0
  9
$PUCSNAME
  2

  9
$PUCSORG
 10
0.0
 20
0.0
 30
0.0
  9
$PUCSXDIR
 10
1.0
 20
0.0
 30
0.0
  9
$PUCSYDIR
 10
0.0
 20
1.0
 30
0.0
  9
$USERI1
 70
     0
  9
$USERI2
 70
     0
  9
$USERI3
 70
     0
  9
$USERI4
 70
     0
  9
$USERI5
 70
     0
  9
$USERR1
 40
0.0
  9
$USERR2
 40
0.0
  9
$USERR3
 40
0.0
  9
$USERR4
 40
0.0
  9
$USERR5
 40
0.0
  9
$WORLDVIEW
 70
     1
  9
$SHADEDGE
 70
     3
  9
$SHADEDIF
 70
    70
  9
$TILEMODE
 70
     1
  9
$MAXACTVP
 70
    16
  9
$PLIMCHECK
 70
     0
  9
$PEXTMIN
 10
1.0000000000000000E+020
 20
1.0000000000000000E+020
 30
1.0000000000000000E+020
  9
$PEXTMAX
 10
-1.0000000000000000E+020
 20
-1.0000000000000000E+020
 30
-1.0000000000000000E+020
  9
$PLIMMIN
 10
0.0
 20
0.0
  9
$PLIMMAX
 10
12.0
 20
9.0
  9
$UNITMODE
 70
     0
  9
$VISRETAIN
 70
     0
  9
$PLINEGEN
 70
     1
  9
$PSLTSCALE
 70
     0
  0
ENDSEC
  0
SECTION
  2
TABLES
  0
TABLE
  2
VPORT
 70
     2
  0
VPORT
  2
*ACTIVE
 70
     0
 10
0.0
 20
0.0
 11
1.0
 21
1.0
 12
837.10594422350061
 22
-219.94965193609349
 13
0.0
 23
0.0
 14
1.0
 24
1.0
 15
0.0
 25
0.0
 16
0.0
 26
0.0
 36
1.0
 17
0.0
 27
0.0
 37
0.0
 40
383.17158087436519
 41
1.6343490304709141
 42
50.0
 43
0.0
 44
0.0
 50
0.0
 51
0.0
 71
     0
 72
   100
 73
     1
 74
     1
 75
     0
 76
     0
 77
     0
 78
     0
  0
ENDTAB
  0
TABLE
  2
LTYPE
 70
    11
  0
LTYPE
  2
CONTINUOUS
 70
     0
  3
Solid line
 72
    65
 73
     0
 40
0.0
  0
LTYPE
  2
DOT
 70
     0
  3
. . . . . . . . 
 72
    65
 73
     2
 40
1.0
 49
0.0
 49
-1.0
  0
LTYPE
  2
DASHED
 70
     0
  3
___  ___  ___  ___  
 72
    65
 73
     2
 40
4.0
 49
3.0
 49
-1.0
  0
LTYPE
  2
HIDDEN
 70
     0
  3
__ __ __ __ 
 72
    65
 73
     2
 40
3.0
 49
2.0
 49
-1.0
  0
LTYPE
  2
STITCH
 70
     0
  3
_ _ _ _ 
 72
    65
 73
     2
 40
2.0
 49
1.0
 49
-1.0
  0
LTYPE
  2
CENTER
 70
     0
  3
______  __  ______  __  
 72
    65
 73
     4
 40
43.0
 49
40.0
 49
-1.0
 49
1.0
 49
-1.0
  0
LTYPE
  2
DASHDOT
 70
     0
  3
____ . ____ . 
 72
    65
 73
     4
 40
32.0
 49
30.0
 49
-1.0
 49
0.0
 49
-1.0
  0
LTYPE
  2
BORDER
 70
     0
  3
__ . __ . 
 72
    65
 73
     4
 40
22.0
 49
20.0
 49
-1.0
 49
0.0
 49
-1.0
  0
LTYPE
  2
CUTTING
 70
     0
  3
________   ___   ___   
 72
    65
 73
     6
 40
45.0
 49
40.0
 49
-1.0
 49
1.0
 49
-1.0
 49
1.0
 49
-1.0
  0
LTYPE
  2
PHANTOM
 70
     0
  3
______  __  __  
 72
    65
 73
     6
 40
35.0
 49
30.0
 49
-1.0
 49
1.0
 49
-1.0
 49
1.0
 49
-1.0
  0
LTYPE
  2
DIVIDE
 70
     0
  3
____ . . ____ . . 
 72
    65
 73
     6
 40
23.0
 49
20.0
 49
-1.0
 49
0.0
 49
-1.0
 49
0.0
 49
-1.0
  0
ENDTAB
  0
TABLE
  2
LAYER
 70
     3
  0
LAYER
  2
0
 70
     0
 62
     7
  6
CONTINUOUS
  0
LAYER
  2
Éíû@É³
 70
     0
 62
     7
  6
CONTINUOUS
  0
LAYER
  2
┌▓È_1
 70
     0
 62
     7
  6
CONTINUOUS
  0
ENDTAB
  0
TABLE
  2
STYLE
 70
     1
  0
STYLE
  2
STANDARD
 70
     0
 40
0.0
 41
1.0
 50
0.0
 71
     0
 42
0.0
  3
txt
  4
extfont
  0
ENDTAB
  0
TABLE
  2
VIEW
 70
     0
  0
ENDTAB
  0
TABLE
  2
UCS
 70
     0
  0
ENDTAB
  0
TABLE
  2
APPID
 70
     2
  0
APPID
  2
ACAD
 70
     0
  0
APPID
  2
DCO15
 70
     0
  0
ENDTAB
  0
TABLE
  2
DIMSTYLE
 70
     3
  0
DIMSTYLE
  2
STANDARD
 70
     0
  3

  4

  5

  6

  7

 40
1.0
 41
0.18
 42
0.0625
 43
0.38
 44
0.18
 45
0.0
 46
0.0
 47
0.0
 48
0.0
140
0.18
141
0.09
142
0.0
143
25.399999999999999
144
1.0
145
0.0
146
1.0
147
0.09
 71
     0
 72
     0
 73
     1
 74
     1
 75
     0
 76
     0
 77
     0
 78
     0
170
     0
171
     2
172
     0
173
     0
174
     0
175
     0
176
     0
177
     0
178
     0
  0
DIMSTYLE
  2
VELDIM0
 70
     0
  3

  4

  5

  6

  7

 40
1.0
 41
6.0
 42
0.0625
 43
0.38
 44
1.0
 45
0.0
 46
6.0
 47
0.0
 48
0.0
140
5.9972220420999998
141
0.09
142
0.0
143
25.399999999999999
144
1.0
145
0.0
146
1.0
147
0.09
 71
     0
 72
     0
 73
     0
 74
     0
 75
     0
 76
     0
 77
     0
 78
     8
170
     0
171
     2
172
     0
173
     0
174
     0
175
     0
176
     0
177
     0
178
     0
  0
DIMSTYLE
  2
VELDIM1
 70
     0
  3

  4

  5

  6

  7

 40
1.0
 41
6.0
 42
0.0625
 43
0.38
 44
1.25
 45
0.0
 46
5.0
 47
0.0
 48
0.0
140
5.9972220420999998
141
0.09
142
0.0
143
25.399999999999999
144
1.0
145
0.0
146
1.0
147
0.09
 71
     0
 72
     0
 73
     0
 74
     0
 75
     0
 76
     0
 77
     0
 78
     8
170
     0
171
     2
172
     0
173
     0
174
     0
175
     0
176
     0
177
     0
178
     0
  0
ENDTAB
  0
ENDSEC
  0
SECTION
  2
BLOCKS
  0
BLOCK
  8
0
  2
$MODEL_SPACE
 70
     0
 10
0.0
 20
0.0
 30
0.0
  3
$MODEL_SPACE
  1

  0
ENDBLK
  5
E
  8
0
  0
BLOCK
 67
     1
  8
0
  2
$PAPER_SPACE
 70
     0
 10
0.0
 20
0.0
 30
0.0
  3
$PAPER_SPACE
  1

  0
ENDBLK
  5
10
 67
     1
  8
0
  0
BLOCK
  8
0
  2
*D0
 70
     1
 10
0.0
 20
0.0
 30
0.0
  3
*D0
  1

  0
TEXT
  5
31
  8
0
 62
     0
 10
694.54727675000004
 20
-307.59820084889998
 30
0.0
 40
5.9972220420999998
  1
37
 50
90.0
  0
LINE
  5
32
  8
0
 62
     0
 10
679.60561005160002
 20
-322.5704231771
 30
0.0
 11
698.60561005160002
 21
-322.5704231771
 31
0.0
  0
LINE
  5
33
  8
0
 62
     0
 10
674.10561005160002
 20
-285.5704231771
 30
0.0
 11
698.60561005160002
 21
-285.5704231771
 31
0.0
  0
LINE
  5
34
  8
0
 62
     0
 10
697.60561005160002
 20
-322.5704231771
 30
0.0
 11
697.60561005160002
 21
-297.01486783349998
 31
0.0
  0
LINE
  5
35
  8
0
 62
     0
 10
697.60561005160002
 20
-322.5704231771
 30
0.0
 11
697.60561005160002
 21
-311.12597852070002
 31
0.0
  0
LINE
  5
36
  8
0
 62
     0
 10
697.60561005160002
 20
-285.5704231771
 30
0.0
 11
697.60561005160002
 21
-297.01486783349998
 31
0.0
  0
LINE
  5
37
  8
0
 62
     0
 10
697.60561005160002
 20
-285.5704231771
 30
0.0
 11
697.60561005160002
 21
-311.12597852070002
 31
0.0
  0
LINE
  5
38
  8
0
 62
     0
 10
697.60561005160002
 20
-285.5704231771
 30
0.0
 11
697.60561005160002
 21
-291.5704231771
 31
0.0
  0
SOLID
  5
39
  8
0
 62
     0
 10
697.60561005160002
 20
-285.5704231771
 30
0.0
 11
699.10561005160002
 21
-291.5704231771
 31
0.0
 12
696.10561005160002
 22
-291.5704231771
 32
0.0
 13
697.60561005160002
 23
-290.0704231771
 33
0.0
  0
LINE
  5
3A
  8
0
 62
     0
 10
697.60561005160002
 20
-322.5704231771
 30
0.0
 11
697.60561005160002
 21
-316.5704231771
 31
0.0
  0
SOLID
  5
3B
  8
0
 62
     0
 10
697.60561005160002
 20
-322.5704231771
 30
0.0
 11
696.10561005160002
 21
-316.5704231771
 31
0.0
 12
699.10561005160002
 22
-316.5704231771
 32
0.0
 13
697.60561005160002
 23
-318.0704231771
 33
0.0
  0
ENDBLK
  5
3C
  8
0
  0
BLOCK
  8
0
  2
*D1
 70
     1
 10
0.0
 20
0.0
 30
0.0
  3
*D1
  1

  0
TEXT
  5
48
  8
0
 62
     0
 10
869.02098627919997
 20
-131.68315543610001
 30
0.0
 40
5.9972220420999998
  1
37
  0
LINE
  5
49
  8
0
 62
     0
 10
854.04876395100007
 20
-111.2414887377
 30
0.0
 11
854.04876395100007
 21
-135.7414887377
 31
0.0
  0
LINE
  5
4A
  8
0
 62
     0
 10
891.04876395099996
 20
-116.7414887377
 30
0.0
 11
891.04876395099996
 21
-135.7414887377
 31
0.0
  0
LINE
  5
4B
  8
0
 62
     0
 10
854.04876395100007
 20
-134.7414887377
 30
0.0
 11
879.60431929459992
 21
-134.7414887377
 31
0.0
  0
LINE
  5
4C
  8
0
 62
     0
 10
854.04876395100007
 20
-134.7414887377
 30
0.0
 11
865.49320860729995
 21
-134.7414887377
 31
0.0
  0
LINE
  5
4D
  8
0
 62
     0
 10
891.04876395099996
 20
-134.7414887377
 30
0.0
 11
879.60431929459992
 21
-134.7414887377
 31
0.0
  0
LINE
  5
4E
  8
0
 62
     0
 10
891.04876395099996
 20
-134.7414887377
 30
0.0
 11
865.49320860729995
 21
-134.7414887377
 31
0.0
  0
LINE
  5
4F
  8
0
 62
     0
 10
891.04876395099996
 20
-134.7414887377
 30
0.0
 11
885.04876395100007
 21
-134.7414887377
 31
0.0
  0
SOLID
  5
50
  8
0
 62
     0
 10
891.04876395099996
 20
-134.7414887377
 30
0.0
 11
885.04876395100007
 21
-136.2414887377
 31
0.0
 12
885.04876395100007
 22
-133.2414887377
 32
0.0
 13
886.54876395099996
 23
-134.7414887377
 33
0.0
  0
LINE
  5
51
  8
0
 62
     0
 10
854.04876395100007
 20
-134.7414887377
 30
0.0
 11
860.04876395100007
 21
-134.7414887377
 31
0.0
  0
SOLID
  5
52
  8
0
 62
     0
 10
854.04876395100007
 20
-134.7414887377
 30
0.0
 11
860.04876395100007
 21
-133.2414887377
 31
0.0
 12
860.04876395100007
 22
-136.2414887377
 32
0.0
 13
858.54876395100007
 23
-134.7414887377
 33
0.0
  0
ENDBLK
  5
53
  8
0
  0
BLOCK
  8
0
  2
*D2
 70
     1
 10
0.0
 20
0.0
 30
0.0
  3
*D2
  1

  0
TEXT
  5
57
  8
0
 62
     0
 10
814.52098627919986
 20
-131.68315543610001
 30
0.0
 40
5.9972220420999998
  1
72
  0
LINE
  5
58
  8
0
 62
     0
 10
782.04876395099996
 20
-111.2414887377
 30
0.0
 11
782.04876395099996
 21
-135.7414887377
 31
0.0
  0
LINE
  5
59
  8
0
 62
     0
 10
854.04876395100007
 20
-111.2414887377
 30
0.0
 11
854.04876395100007
 21
-135.7414887377
 31
0.0
  0
LINE
  5
5A
  8
0
 62
     0
 10
782.04876395099996
 20
-134.7414887377
 30
0.0
 11
825.10431929459992
 21
-134.7414887377
 31
0.0
  0
LINE
  5
5B
  8
0
 62
     0
 10
782.04876395099996
 20
-134.7414887377
 30
0.0
 11
810.99320860729995
 21
-134.7414887377
 31
0.0
  0
LINE
  5
5C
  8
0
 62
     0
 10
854.04876395100007
 20
-134.7414887377
 30
0.0
 11
825.10431929459992
 21
-134.7414887377
 31
0.0
  0
LINE
  5
5D
  8
0
 62
     0
 10
854.04876395100007
 20
-134.7414887377
 30
0.0
 11
810.99320860729995
 21
-134.7414887377
 31
0.0
  0
LINE
  5
5E
  8
0
 62
     0
 10
854.04876395100007
 20
-134.7414887377
 30
0.0
 11
848.04876395099996
 21
-134.7414887377
 31
0.0
  0
SOLID
  5
5F
  8
0
 62
     0
 10
854.04876395100007
 20
-134.7414887377
 30
0.0
 11
848.04876395099996
 21
-136.2414887377
 31
0.0
 12
848.04876395099996
 22
-133.2414887377
 32
0.0
 13
849.54876395100007
 23
-134.7414887377
 33
0.0
  0
LINE
  5
60
  8
0
 62
     0
 10
782.04876395099996
 20
-134.7414887377
 30
0.0
 11
788.04876395099996
 21
-134.7414887377
 31
0.0
  0
SOLID
  5
61
  8
0
 62
     0
 10
782.04876395099996
 20
-134.7414887377
 30
0.0
 11
788.04876395099996
 21
-133.2414887377
 31
0.0
 12
788.04876395099996
 22
-136.2414887377
 32
0.0
 13
786.54876395100007
 23
-134.7414887377
 33
0.0
  0
ENDBLK
  5
62
  8
0
  0
BLOCK
  8
0
  2
*D3
 70
     1
 10
0.0
 20
0.0
 30
0.0
  3
*D3
  1

  0
TEXT
  5
66
  8
0
 62
     0
 10
766.24320860729995
 20
-131.68315543610001
 30
0.0
 40
5.9972220420999998
  1
17.5
  0
LINE
  5
67
  8
0
 62
     0
 10
764.54876395099996
 20
-116.7414887377
 30
0.0
 11
764.54876395099996
 21
-135.7414887377
 31
0.0
  0
LINE
  5
68
  8
0
 62
     0
 10
782.04876395099996
 20
-111.2414887377
 30
0.0
 11
782.04876395099996
 21
-135.7414887377
 31
0.0
  0
LINE
  5
69
  8
0
 62
     0
 10
764.54876395099996
 20
-134.7414887377
 30
0.0
 11
764.54876395099996
 21
-134.7414887377
 31
0.0
  0
LINE
  5
6A
  8
0
 62
     0
 10
764.54876395099996
 20
-134.7414887377
 30
0.0
 11
782.04876395099996
 21
-134.7414887377
 31
0.0
  0
LINE
  5
6B
  8
0
 62
     0
 10
782.04876395099996
 20
-134.7414887377
 30
0.0
 11
764.54876395099996
 21
-134.7414887377
 31
0.0
  0
LINE
  5
6C
  8
0
 62
     0
 10
782.04876395099996
 20
-134.7414887377
 30
0.0
 11
782.04876395099996
 21
-134.7414887377
 31
0.0
  0
LINE
  5
6D
  8
0
 62
     0
 10
782.04876395099996
 20
-134.7414887377
 30
0.0
 11
776.04876395099996
 21
-134.7414887377
 31
0.0
  0
SOLID
  5
6E
  8
0
 62
     0
 10
782.04876395099996
 20
-134.7414887377
 30
0.0
 11
776.04876395099996
 21
-136.2414887377
 31
0.0
 12
776.04876395099996
 22
-133.2414887377
 32
0.0
 13
777.54876395099996
 23
-134.7414887377
 33
0.0
  0
LINE
  5
6F
  8
0
 62
     0
 10
764.54876395099996
 20
-134.7414887377
 30
0.0
 11
770.54876395100007
 21
-134.7414887377
 31
0.0
  0
SOLID
  5
70
  8
0
 62
     0
 10
764.54876395099996
 20
-134.7414887377
 30
0.0
 11
770.54876395100007
 21
-133.2414887377
 31
0.0
 12
770.54876395100007
 22
-136.2414887377
 32
0.0
 13
769.04876395099996
 23
-134.7414887377
 33
0.0
  0
ENDBLK
  5
71
  8
0
  0
BLOCK
  8
0
  2
*D4
 70
     1
 10
0.0
 20
0.0
 30
0.0
  3
*D4
  1

  0
TEXT
  5
75
  8
0
 62
     0
 10
907.99043064939985
 20
-131.8878472637
 30
0.0
 40
5.9972220420999998
  1
9.5
 50
90.0
  0
LINE
  5
76
  8
0
 62
     0
 10
893.04876395100007
 20
-114.7414887377
 30
0.0
 11
912.04876395100007
 21
-114.7414887377
 31
0.0
  0
LINE
  5
77
  8
0
 62
     0
 10
860.04876395100007
 20
-105.2414887377
 30
0.0
 11
912.04876395100007
 21
-105.2414887377
 31
0.0
  0
LINE
  5
78
  8
0
 62
     0
 10
911.04876395100007
 20
-114.7414887377
 30
0.0
 11
911.04876395100007
 21
-117.7767365765
 31
0.0
  0
LINE
  5
79
  8
0
 62
     0
 10
911.04876395100007
 20
-114.7414887377
 30
0.0
 11
911.04876395100007
 21
-135.41562493550001
 31
0.0
  0
LINE
  5
7A
  8
0
 62
     0
 10
911.04876395100007
 20
-105.2414887377
 30
0.0
 11
911.04876395100007
 21
-117.7767365765
 31
0.0
  0
LINE
  5
7B
  8
0
 62
     0
 10
911.04876395100007
 20
-105.2414887377
 30
0.0
 11
911.04876395100007
 21
-135.41562493550001
 31
0.0
  0
LINE
  5
7C
  8
0
 62
     0
 10
911.04876395100007
 20
-105.2414887377
 30
0.0
 11
911.04876395100007
 21
-99.241488737699996
 31
0.0
  0
SOLID
  5
7D
  8
0
 62
     0
 10
911.04876395100007
 20
-105.2414887377
 30
0.0
 11
909.54876395099996
 21
-99.241488737699996
 31
0.0
 12
912.54876395099996
 22
-99.241488737699996
 32
0.0
 13
911.04876395100007
 23
-100.7414887377
 33
0.0
  0
LINE
  5
7E
  8
0
 62
     0
 10
911.04876395100007
 20
-114.7414887377
 30
0.0
 11
911.04876395100007
 21
-120.7414887377
 31
0.0
  0
SOLID
  5
7F
  8
0
 62
     0
 10
911.04876395100007
 20
-114.7414887377
 30
0.0
 11
912.54876395099996
 21
-120.7414887377
 31
0.0
 12
909.54876395099996
 22
-120.7414887377
 32
0.0
 13
911.04876395100007
 23
-119.2414887377
 33
0.0
  0
ENDBLK
  5
80
  8
0
  0
BLOCK
  8
0
  2
*D5
 70
     1
 10
0.0
 20
0.0
 30
0.0
  3
*D5
  1

  0
TEXT
  5
84
  8
0
 62
     0
 10
948.24017931869992
 20
-227.38394592700001
 30
0.0
 40
5.9972220420999998
  1
64
 50
90.0
  0
LINE
  5
85
  8
0
 62
     0
 10
986.65821661409996
 20
-193.50578599799999
 30
0.0
 11
950.29851262019997
 21
-193.50578599799999
 31
0.0
  0
LINE
  5
86
  8
0
 62
     0
 10
1044.1582166141
 20
-257.44430620579999
 30
0.0
 11
950.29851262019997
 21
-257.44430620579999
 31
0.0
  0
LINE
  5
87
  8
0
 62
     0
 10
951.29851262019997
 20
-193.50578599799999
 30
0.0
 11
951.29851262019997
 21
-216.8006129115
 31
0.0
  0
LINE
  5
88
  8
0
 62
     0
 10
951.29851262019997
 20
-193.50578599799999
 30
0.0
 11
951.29851262019997
 21
-230.91172359879999
 31
0.0
  0
LINE
  5
89
  8
0
 62
     0
 10
951.29851262019997
 20
-257.44430620579999
 30
0.0
 11
951.29851262019997
 21
-216.8006129115
 31
0.0
  0
LINE
  5
8A
  8
0
 62
     0
 10
951.29851262019997
 20
-257.44430620579999
 30
0.0
 11
951.29851262019997
 21
-230.91172359879999
 31
0.0
  0
LINE
  5
8B
  8
0
 62
     0
 10
951.29851262019997
 20
-257.44430620579999
 30
0.0
 11
951.29851262019997
 21
-251.44430620579999
 31
0.0
  0
SOLID
  5
8C
  8
0
 62
     0
 10
951.29851262019997
 20
-257.44430620579999
 30
0.0
 11
949.79851262020009
 21
-251.44430620579999
 31
0.0
 12
952.79851262019997
 22
-251.44430620579999
 32
0.0
 13
951.29851262019997
 23
-252.94430620579999
 33
0.0
  0
LINE
  5
8D
  8
0
 62
     0
 10
951.29851262019997
 20
-193.50578599799999
 30
0.0
 11
951.29851262019997
 21
-199.50578599799999
 31
0.0
  0
SOLID
  5
8E
  8
0
 62
     0
 10
951.29851262019997
 20
-193.50578599799999
 30
0.0
 11
952.79851262019997
 21
-199.50578599799999
 31
0.0
 12
949.79851262020009
 22
-199.50578599799999
 32
0.0
 13
951.29851262019997
 23
-198.00578599799999
 33
0.0
  0
ENDBLK
  5
8F
  8
0
  0
BLOCK
  8
0
  2
BALLON0
 70
     0
 10
0.0
 20
0.0
 30
0.0
  3
BALLON0
  1

  0
INSERT
  5
94
  8
0
  6
CONTINUOUS
  2
*U24
 10
0.0
 20
0.0
 30
0.0
  0
CIRCLE
  5
95
  8
┌▓È_1
 10
1020.2069818231
 20
-177.0
 30
0.0
 40
8.0
  0
LINE
  5
96
  8
Éíû@É³
 10
1006.8736484898
 20
-177.0
 30
0.0
 11
1012.2069818231
 21
-177.0
 31
0.0
  0
LINE
  5
97
  8
Éíû@É³
 10
989.15821661410007
 20
-197.5516047088
 30
0.0
 11
1006.8736484898
 21
-177.0
 31
0.0
  0
SOLID
  5
98
  8
Éíû@É³
 10
989.15821661410007
 20
-197.5516047088
 30
0.0
 11
993.16958639130007
 21
-190.44745715179999
 31
0.0
 12
993.33683145149996
 22
-192.7040096307
 32
0.0
 13
993.33683145149996
 23
-192.7040096307
 33
0.0
  0
SOLID
  5
99
  8
Éíû@É³
 10
993.33683145149996
 20
-192.7040096307
 30
0.0
 11
995.59338393029998
 21
-192.5367645705
 31
0.0
 12
989.15821661410007
 22
-197.5516047088
 32
0.0
 13
989.15821661410007
 23
-197.5516047088
 33
0.0
  0
ENDBLK
  5
9A
  8
0
  0
BLOCK
  8
0
  2
*D7
 70
     1
 10
0.0
 20
0.0
 30
0.0
  3
*D7
  1

  0
TEXT
  5
9D
  8
0
 62
     0
 10
1010.5026612705
 20
-235.77181576300001
 30
0.0
 40
5.9972220420999998
  1
56.8
  0
LINE
  5
9E
  8
0
 62
     0
 10
989.15821661410007
 20
-216.805785998
 30
0.0
 11
989.15821661410007
 21
-239.83014906459999
 31
0.0
  0
LINE
  5
9F
  8
0
 62
     0
 10
1045.9582166140999
 20
-220.83014906459999
 30
0.0
 11
1045.9582166140999
 21
-239.83014906459999
 31
0.0
  0
LINE
  5
A0
  8
0
 62
     0
 10
989.15821661410007
 20
-238.83014906459999
 30
0.0
 11
1028.1415496295999
 21
-238.83014906459999
 31
0.0
  0
LINE
  5
A1
  8
0
 62
     0
 10
989.15821661410007
 20
-238.83014906459999
 30
0.0
 11
1006.9748835987
 21
-238.83014906459999
 31
0.0
  0
LINE
  5
A2
  8
0
 62
     0
 10
1045.9582166140999
 20
-238.83014906459999
 30
0.0
 11
1028.1415496295999
 21
-238.83014906459999
 31
0.0
  0
LINE
  5
A3
  8
0
 62
     0
 10
1045.9582166140999
 20
-238.83014906459999
 30
0.0
 11
1006.9748835987
 21
-238.83014906459999
 31
0.0
  0
LINE
  5
A4
  8
0
 62
     0
 10
1045.9582166140999
 20
-238.83014906459999
 30
0.0
 11
1039.9582166140999
 21
-238.83014906459999
 31
0.0
  0
SOLID
  5
A5
  8
0
 62
     0
 10
1045.9582166140999
 20
-238.83014906459999
 30
0.0
 11
1039.9582166140999
 21
-240.33014906459999
 31
0.0
 12
1039.9582166140999
 22
-237.33014906459999
 32
0.0
 13
1041.4582166140999
 23
-238.83014906459999
 33
0.0
  0
LINE
  5
A6
  8
0
 62
     0
 10
989.15821661410007
 20
-238.83014906459999
 30
0.0
 11
995.15821661410007
 21
-238.83014906459999
 31
0.0
  0
SOLID
  5
A7
  8
0
 62
     0
 10
989.15821661410007
 20
-238.83014906459999
 30
0.0
 11
995.15821661410007
 21
-237.33014906459999
 31
0.0
 12
995.15821661410007
 22
-240.33014906459999
 32
0.0
 13
993.65821661409996
 23
-238.83014906459999
 33
0.0
  0
ENDBLK
  5
A8
  8
0
  0
BLOCK
  8
0
  2
BALLON1
 70
     0
 10
0.0
 20
0.0
 30
0.0
  3
BALLON1
  1

  0
INSERT
  5
AD
  8
0
  6
CONTINUOUS
  2
*U25
 10
0.0
 20
0.0
 30
0.0
  0
CIRCLE
  5
AE
  8
┌▓È_1
 10
981.93094192299998
 20
-270.6803218215
 30
0.0
 40
8.0
  0
LINE
  5
AF
  8
Éíû@É³
 10
995.26427525630015
 20
-270.6803218215
 30
0.0
 11
989.93094192299998
 21
-270.6803218215
 31
0.0
  0
LINE
  5
B0
  8
Éíû@É³
 10
1006.8864216486
 20
-214.805785998
 30
0.0
 11
995.26427525630015
 21
-270.6803218215
 31
0.0
  0
SOLID
  5
B1
  8
Éíû@É³
 10
1006.8864216486
 20
-214.805785998
 30
0.0
 11
1006.8237287341
 21
-222.96397633640001
 31
0.0
 12
1005.5830901238
 22
-221.07167196379999
 32
0.0
 13
1005.5830901238
 23
-221.07167196379999
 33
0.0
  0
SOLID
  5
B2
  8
Éíû@É³
 10
1005.5830901238
 20
-221.07167196379999
 30
0.0
 11
1003.6907857511
 21
-222.31231057400001
 31
0.0
 12
1006.8864216486
 22
-214.805785998
 32
0.0
 13
1006.8864216486
 23
-214.805785998
 33
0.0
  0
ENDBLK
  5
B3
  8
0
  0
BLOCK
  8
0
  2
*D9
 70
     1
 10
0.0
 20
0.0
 30
0.0
  3
*D9
  1

  0
TEXT
  5
B6
  8
0
 62
     0
 10
962.45640467119995
 20
-207.0335636698
 30
0.0
 40
5.9972220420999998
  1
20
 50
90.0
  0
LINE
  5
B7
  8
0
 62
     0
 10
986.65821661409996
 20
-193.50578599799999
 30
0.0
 11
964.51473797269989
 21
-193.50578599799999
 31
0.0
  0
LINE
  5
B8
  8
0
 62
     0
 10
987.15821661410007
 20
-213.50578599799999
 30
0.0
 11
964.51473797269989
 21
-213.50578599799999
 31
0.0
  0
LINE
  5
B9
  8
0
 62
     0
 10
965.51473797269989
 20
-193.50578599799999
 30
0.0
 11
965.51473797269989
 21
-196.45023065429999
 31
0.0
  0
LINE
  5
BA
  8
0
 62
     0
 10
965.51473797269989
 20
-193.50578599799999
 30
0.0
 11
965.51473797269989
 21
-210.56134134160001
 31
0.0
  0
LINE
  5
BB
  8
0
 62
     0
 10
965.51473797269989
 20
-213.50578599799999
 30
0.0
 11
965.51473797269989
 21
-196.45023065429999
 31
0.0
  0
LINE
  5
BC
  8
0
 62
     0
 10
965.51473797269989
 20
-213.50578599799999
 30
0.0
 11
965.51473797269989
 21
-210.56134134160001
 31
0.0
  0
LINE
  5
BD
  8
0
 62
     0
 10
965.51473797269989
 20
-213.50578599799999
 30
0.0
 11
965.51473797269989
 21
-219.50578599799999
 31
0.0
  0
SOLID
  5
BE
  8
0
 62
     0
 10
965.51473797269989
 20
-213.50578599799999
 30
0.0
 11
967.0147379727
 21
-219.50578599799999
 31
0.0
 12
964.0147379727
 22
-219.50578599799999
 32
0.0
 13
965.51473797269989
 23
-218.00578599799999
 33
0.0
  0
LINE
  5
BF
  8
0
 62
     0
 10
965.51473797269989
 20
-193.50578599799999
 30
0.0
 11
965.51473797269989
 21
-187.50578599799999
 31
0.0
  0
SOLID
  5
C0
  8
0
 62
     0
 10
965.51473797269989
 20
-193.50578599799999
 30
0.0
 11
964.0147379727
 21
-187.50578599799999
 31
0.0
 12
967.0147379727
 22
-187.50578599799999
 32
0.0
 13
965.51473797269989
 23
-189.00578599799999
 33
0.0
  0
ENDBLK
  5
C1
  8
0
  0
BLOCK
  8
0
  2
*D10
 70
     1
 10
0.0
 20
0.0
 30
0.0
  3
*D10
  1

  0
TEXT
  5
C5
  8
0
 62
     0
 10
977.41172275899999
 20
-252.4474698887
 30
0.0
 40
5.9972220420999998
  1
(0.8)îäèÈ
 50
90.0
  0
LINE
  5
C6
  8
0
 62
     0
 10
987.15821661410007
 20
-213.50578599799999
 30
0.0
 11
979.47005606050016
 21
-213.50578599799999
 31
0.0
  0
LINE
  5
C7
  8
0
 62
     0
 10
987.15821661410007
 20
-214.305785998
 30
0.0
 11
979.47005606050016
 21
-214.305785998
 31
0.0
  0
LINE
  5
C8
  8
0
 62
     0
 10
980.47005606050016
 20
-213.50578599799999
 30
0.0
 11
980.47005606050016
 21
-217.1696931706
 31
0.0
  0
LINE
  5
C9
  8
0
 62
     0
 10
980.47005606050016
 20
-213.50578599799999
 30
0.0
 11
980.47005606050016
 21
-255.9752475606
 31
0.0
  0
LINE
  5
CA
  8
0
 62
     0
 10
980.47005606050016
 20
-214.305785998
 30
0.0
 11
980.47005606050016
 21
-217.1696931706
 31
0.0
  0
LINE
  5
CB
  8
0
 62
     0
 10
980.47005606050016
 20
-214.305785998
 30
0.0
 11
980.47005606050016
 21
-255.9752475606
 31
0.0
  0
LINE
  5
CC
  8
0
 62
     0
 10
980.47005606050016
 20
-214.305785998
 30
0.0
 11
980.47005606050016
 21
-220.305785998
 31
0.0
  0
SOLID
  5
CD
  8
0
 62
     0
 10
980.47005606050016
 20
-214.305785998
 30
0.0
 11
981.97005606049993
 21
-220.305785998
 31
0.0
 12
978.97005606050004
 22
-220.305785998
 32
0.0
 13
980.47005606050016
 23
-218.805785998
 33
0.0
  0
LINE
  5
CE
  8
0
 62
     0
 10
980.47005606050016
 20
-213.50578599799999
 30
0.0
 11
980.47005606050016
 21
-207.50578599799999
 31
0.0
  0
SOLID
  5
CF
  8
0
 62
     0
 10
980.47005606050016
 20
-213.50578599799999
 30
0.0
 11
978.97005606050004
 21
-207.50578599799999
 31
0.0
 12
981.97005606049993
 22
-207.50578599799999
 32
0.0
 13
980.47005606050016
 23
-209.00578599799999
 33
0.0
  0
ENDBLK
  5
D0
  8
0
  0
BLOCK
  8
0
  2
*D11
 70
     1
 10
0.0
 20
0.0
 30
0.0
  3
*D11
  1

  0
TEXT
  5
D5
  8
0
 62
     0
 10
695.40684580439995
 20
-182.77686570430001
 30
0.0
 40
5.9972220420999998
  1
4-%%c 3
 50
45.0
  0
LINE
  5
D6
  8
0
 62
     0
 10
669.16627022329988
 20
-212.50976300529999
 30
0.0
 11
714.61461526419998
 21
-167.06141796439999
 31
0.0
  0
SOLID
  5
D7
  8
0
 62
     0
 10
669.16627022329988
 20
-212.50976300529999
 30
0.0
 11
672.34825073870002
 21
-207.20646214640001
 31
0.0
 12
674.46957108219999
 22
-209.32778249
 32
0.0
 13
672.34825073870002
 23
-209.32778249
 33
0.0
  0
ENDBLK
  5
D8
  8
0
  0
BLOCK
  8
0
  2
*D12
 70
     1
 10
0.0
 20
0.0
 30
0.0
  3
*D12
  1

  0
TEXT
  5
F2
  8
0
 62
     0
 10
667.56394354379995
 20
-173.01208987550001
 30
0.0
 40
5.9972220420999998
  1
9.5
  0
LINE
  5
F3
  8
0
 62
     0
 10
677.60561005160002
 20
-194.0704231771
 30
0.0
 11
677.60561005160002
 21
-175.0704231771
 31
0.0
  0
LINE
  5
F4
  8
0
 62
     0
 10
668.10561005160002
 20
-207.5704231771
 30
0.0
 11
668.10561005160002
 21
-175.0704231771
 31
0.0
  0
LINE
  5
F5
  8
0
 62
     0
 10
677.60561005160002
 20
-176.0704231771
 30
0.0
 11
677.60561005160002
 21
-176.0704231771
 31
0.0
  0
LINE
  5
F6
  8
0
 62
     0
 10
677.60561005160002
 20
-176.0704231771
 30
0.0
 11
668.10561005160002
 21
-176.0704231771
 31
0.0
  0
LINE
  5
F7
  8
0
 62
     0
 10
668.10561005160002
 20
-176.0704231771
 30
0.0
 11
677.60561005160002
 21
-176.0704231771
 31
0.0
  0
LINE
  5
F8
  8
0
 62
     0
 10
668.10561005160002
 20
-176.0704231771
 30
0.0
 11
668.10561005160002
 21
-176.0704231771
 31
0.0
  0
LINE
  5
F9
  8
0
 62
     0
 10
668.10561005160002
 20
-176.0704231771
 30
0.0
 11
662.10561005160002
 21
-176.0704231771
 31
0.0
  0
SOLID
  5
FA
  8
0
 62
     0
 10
668.10561005160002
 20
-176.0704231771
 30
0.0
 11
662.10561005160002
 21
-177.5704231771
 31
0.0
 12
662.10561005160002
 22
-174.5704231771
 32
0.0
 13
663.60561005160002
 23
-176.0704231771
 33
0.0
  0
LINE
  5
FB
  8
0
 62
     0
 10
677.60561005160002
 20
-176.0704231771
 30
0.0
 11
683.60561005160002
 21
-176.0704231771
 31
0.0
  0
SOLID
  5
FC
  8
0
 62
     0
 10
677.60561005160002
 20
-176.0704231771
 30
0.0
 11
683.60561005160002
 21
-174.5704231771
 31
0.0
 12
683.60561005160002
 22
-177.5704231771
 32
0.0
 13
682.10561005160002
 23
-176.0704231771
 33
0.0
  0
ENDBLK
  5
FD
  8
0
  0
BLOCK
  8
0
  2
*D13
 70
     1
 10
0.0
 20
0.0
 30
0.0
  3
*D13
  1

  0
TEXT
  5
101
  8
0
 62
     0
 10
694.54727675000004
 20
-211.87597852069999
 30
0.0
 40
5.9972220420999998
  1
17.5
 50
90.0
  0
LINE
  5
102
  8
0
 62
     0
 10
674.10561005160002
 20
-213.5704231771
 30
0.0
 11
698.60561005160002
 21
-213.5704231771
 31
0.0
  0
LINE
  5
103
  8
0
 62
     0
 10
679.60561005160002
 20
-196.0704231771
 30
0.0
 11
698.60561005160002
 21
-196.0704231771
 31
0.0
  0
LINE
  5
104
  8
0
 62
     0
 10
697.60561005160002
 20
-213.5704231771
 30
0.0
 11
697.60561005160002
 21
-213.5704231771
 31
0.0
  0
LINE
  5
105
  8
0
 62
     0
 10
697.60561005160002
 20
-213.5704231771
 30
0.0
 11
697.60561005160002
 21
-196.0704231771
 31
0.0
  0
LINE
  5
106
  8
0
 62
     0
 10
697.60561005160002
 20
-196.0704231771
 30
0.0
 11
697.60561005160002
 21
-213.5704231771
 31
0.0
  0
LINE
  5
107
  8
0
 62
     0
 10
697.60561005160002
 20
-196.0704231771
 30
0.0
 11
697.60561005160002
 21
-196.0704231771
 31
0.0
  0
LINE
  5
108
  8
0
 62
     0
 10
697.60561005160002
 20
-196.0704231771
 30
0.0
 11
697.60561005160002
 21
-202.0704231771
 31
0.0
  0
SOLID
  5
109
  8
0
 62
     0
 10
697.60561005160002
 20
-196.0704231771
 30
0.0
 11
699.10561005160002
 21
-202.0704231771
 31
0.0
 12
696.10561005160002
 22
-202.0704231771
 32
0.0
 13
697.60561005160002
 23
-200.5704231771
 33
0.0
  0
LINE
  5
10A
  8
0
 62
     0
 10
697.60561005160002
 20
-213.5704231771
 30
0.0
 11
697.60561005160002
 21
-207.5704231771
 31
0.0
  0
SOLID
  5
10B
  8
0
 62
     0
 10
697.60561005160002
 20
-213.5704231771
 30
0.0
 11
696.10561005160002
 21
-207.5704231771
 31
0.0
 12
699.10561005160002
 22
-207.5704231771
 32
0.0
 13
697.60561005160002
 23
-209.0704231771
 33
0.0
  0
ENDBLK
  5
10C
  8
0
  0
BLOCK
  8
0
  2
*D14
 70
     1
 10
0.0
 20
0.0
 30
0.0
  3
*D14
  1

  0
TEXT
  5
110
  8
0
 62
     0
 10
694.04727675000004
 20
-253.09820084890001
 30
0.0
 40
5.9972220420999998
  1
72
 50
90.0
  0
LINE
  5
111
  8
0
 62
     0
 10
674.10561005160002
 20
-285.5704231771
 30
0.0
 11
698.10561005160002
 21
-285.5704231771
 31
0.0
  0
LINE
  5
112
  8
0
 62
     0
 10
674.10561005160002
 20
-213.5704231771
 30
0.0
 11
698.10561005160002
 21
-213.5704231771
 31
0.0
  0
LINE
  5
113
  8
0
 62
     0
 10
697.10561005160002
 20
-285.5704231771
 30
0.0
 11
697.10561005160002
 21
-242.51486783350001
 31
0.0
  0
LINE
  5
114
  8
0
 62
     0
 10
697.10561005160002
 20
-285.5704231771
 30
0.0
 11
697.10561005160002
 21
-256.62597852070002
 31
0.0
  0
LINE
  5
115
  8
0
 62
     0
 10
697.10561005160002
 20
-213.5704231771
 30
0.0
 11
697.10561005160002
 21
-242.51486783350001
 31
0.0
  0
LINE
  5
116
  8
0
 62
     0
 10
697.10561005160002
 20
-213.5704231771
 30
0.0
 11
697.10561005160002
 21
-256.62597852070002
 31
0.0
  0
LINE
  5
117
  8
0
 62
     0
 10
697.10561005160002
 20
-213.5704231771
 30
0.0
 11
697.10561005160002
 21
-219.5704231771
 31
0.0
  0
SOLID
  5
118
  8
0
 62
     0
 10
697.10561005160002
 20
-213.5704231771
 30
0.0
 11
698.60561005160002
 21
-219.5704231771
 31
0.0
 12
695.60561005160002
 22
-219.5704231771
 32
0.0
 13
697.10561005160002
 23
-218.0704231771
 33
0.0
  0
LINE
  5
119
  8
0
 62
     0
 10
697.10561005160002
 20
-285.5704231771
 30
0.0
 11
697.10561005160002
 21
-279.5704231771
 31
0.0
  0
SOLID
  5
11A
  8
0
 62
     0
 10
697.10561005160002
 20
-285.5704231771
 30
0.0
 11
695.60561005160002
 21
-279.5704231771
 31
0.0
 12
698.60561005160002
 22
-279.5704231771
 32
0.0
 13
697.10561005160002
 23
-281.0704231771
 33
0.0
  0
ENDBLK
  5
11B
  8
0
  0
BLOCK
  8
0
  2
*D15
 70
     1
 10
0.0
 20
0.0
 30
0.0
  3
*D15
  1

  0
TEXT
  5
19F
  8
0
 62
     0
 10
854.77098627919997
 20
-339.51208987550001
 30
0.0
 40
5.9972220420999998
  1
65
  0
LINE
  5
1A0
  8
0
 62
     0
 10
825.54876395099996
 20
-324.5704231771
 30
0.0
 11
825.54876395099996
 21
-343.5704231771
 31
0.0
  0
LINE
  5
1A1
  8
0
 62
     0
 10
891.04876395099996
 20
-259.0704231771
 30
0.0
 11
891.04876395099996
 21
-343.5704231771
 31
0.0
  0
LINE
  5
1A2
  8
0
 62
     0
 10
825.54876395099996
 20
-342.5704231771
 30
0.0
 11
865.35431929460015
 21
-342.5704231771
 31
0.0
  0
LINE
  5
1A3
  8
0
 62
     0
 10
825.54876395099996
 20
-342.5704231771
 30
0.0
 11
851.24320860729995
 21
-342.5704231771
 31
0.0
  0
LINE
  5
1A4
  8
0
 62
     0
 10
891.04876395099996
 20
-342.5704231771
 30
0.0
 11
865.35431929460015
 21
-342.5704231771
 31
0.0
  0
LINE
  5
1A5
  8
0
 62
     0
 10
891.04876395099996
 20
-342.5704231771
 30
0.0
 11
851.24320860729995
 21
-342.5704231771
 31
0.0
  0
LINE
  5
1A6
  8
0
 62
     0
 10
891.04876395099996
 20
-342.5704231771
 30
0.0
 11
885.04876395100007
 21
-342.5704231771
 31
0.0
  0
SOLID
  5
1A7
  8
0
 62
     0
 10
891.04876395099996
 20
-342.5704231771
 30
0.0
 11
885.04876395100007
 21
-344.0704231771
 31
0.0
 12
885.04876395100007
 22
-341.0704231771
 32
0.0
 13
886.54876395099996
 23
-342.5704231771
 33
0.0
  0
LINE
  5
1A8
  8
0
 62
     0
 10
825.54876395099996
 20
-342.5704231771
 30
0.0
 11
831.54876395100007
 21
-342.5704231771
 31
0.0
  0
SOLID
  5
1A9
  8
0
 62
     0
 10
825.54876395099996
 20
-342.5704231771
 30
0.0
 11
831.54876395100007
 21
-341.0704231771
 31
0.0
 12
831.54876395100007
 22
-344.0704231771
 32
0.0
 13
830.04876395099996
 23
-342.5704231771
 33
0.0
  0
ENDBLK
  5
1AA
  8
0
  0
BLOCK
  8
0
  2
*D16
 70
     1
 10
0.0
 20
0.0
 30
0.0
  3
*D16
  1

  0
TEXT
  5
1CB
  8
0
 62
     0
 10
1012.1026612705
 20
-155.03962695749999
 30
0.0
 40
5.9972220420999998
  1
61.5
  0
LINE
  5
1CC
  8
0
 62
     0
 10
1049.6582166141
 20
-216.44430620579999
 30
0.0
 11
1049.6582166141
 21
-157.09796025910001
 31
0.0
  0
LINE
  5
1CD
  8
0
 62
     0
 10
988.65821661409996
 20
-191.50578599799999
 30
0.0
 11
988.65821661409996
 21
-157.09796025910001
 31
0.0
  0
LINE
  5
1CE
  8
0
 62
     0
 10
1049.6582166141
 20
-158.09796025910001
 30
0.0
 11
1029.7415496296001
 21
-158.09796025910001
 31
0.0
  0
LINE
  5
1CF
  8
0
 62
     0
 10
1049.6582166141
 20
-158.09796025910001
 30
0.0
 11
1008.5748835987
 21
-158.09796025910001
 31
0.0
  0
LINE
  5
1D0
  8
0
 62
     0
 10
988.65821661409996
 20
-158.09796025910001
 30
0.0
 11
1029.7415496296001
 21
-158.09796025910001
 31
0.0
  0
LINE
  5
1D1
  8
0
 62
     0
 10
988.65821661409996
 20
-158.09796025910001
 30
0.0
 11
1008.5748835987
 21
-158.09796025910001
 31
0.0
  0
LINE
  5
1D2
  8
0
 62
     0
 10
988.65821661409996
 20
-158.09796025910001
 30
0.0
 11
994.65821661409996
 21
-158.09796025910001
 31
0.0
  0
SOLID
  5
1D3
  8
0
 62
     0
 10
988.65821661409996
 20
-158.09796025910001
 30
0.0
 11
994.65821661409996
 21
-156.59796025910001
 31
0.0
 12
994.65821661409996
 22
-159.59796025910001
 32
0.0
 13
993.15821661409996
 23
-158.09796025910001
 33
0.0
  0
LINE
  5
1D4
  8
0
 62
     0
 10
1049.6582166141
 20
-158.09796025910001
 30
0.0
 11
1043.6582166141
 21
-158.09796025910001
 31
0.0
  0
SOLID
  5
1D5
  8
0
 62
     0
 10
1049.6582166141
 20
-158.09796025910001
 30
0.0
 11
1043.6582166141
 21
-159.59796025910001
 31
0.0
 12
1043.6582166141
 22
-156.59796025910001
 32
0.0
 13
1045.1582166141
 23
-158.09796025910001
 33
0.0
  0
ENDBLK
  5
1D6
  8
0
  0
BLOCK
  8
0
  2
*D17
 70
     1
 10
0.0
 20
0.0
 30
0.0
  3
*D17
  1

  0
TEXT
  5
1DD
  8
0
 62
     0
 10
1066.5998833126
 20
-207.16788785790001
 30
0.0
 40
5.9972220420999998
  1
(5)
 50
90.0
  0
LINE
  5
1DE
  8
0
 62
     0
 10
1051.6582166141
 20
-218.00578599799999
 30
0.0
 11
1070.6582166141
 21
-218.00578599799999
 31
0.0
  0
LINE
  5
1DF
  8
0
 62
     0
 10
1013.6906902911001
 20
-213.01005885020001
 30
0.0
 11
1070.6582166141
 21
-213.01005885020001
 31
0.0
  0
LINE
  5
1E0
  8
0
 62
     0
 10
1069.6582166141
 20
-218.00578599799999
 30
0.0
 11
1069.6582166141
 21
-193.0567771707
 31
0.0
  0
LINE
  5
1E1
  8
0
 62
     0
 10
1069.6582166141
 20
-218.00578599799999
 30
0.0
 11
1069.6582166141
 21
-210.69566552980001
 31
0.0
  0
LINE
  5
1E2
  8
0
 62
     0
 10
1069.6582166141
 20
-213.01005885020001
 30
0.0
 11
1069.6582166141
 21
-193.0567771707
 31
0.0
  0
LINE
  5
1E3
  8
0
 62
     0
 10
1069.6582166141
 20
-213.01005885020001
 30
0.0
 11
1069.6582166141
 21
-210.69566552980001
 31
0.0
  0
LINE
  5
1E4
  8
0
 62
     0
 10
1069.6582166141
 20
-213.01005885020001
 30
0.0
 11
1069.6582166141
 21
-207.01005885020001
 31
0.0
  0
SOLID
  5
1E5
  8
0
 62
     0
 10
1069.6582166141
 20
-213.01005885020001
 30
0.0
 11
1068.1582166141
 21
-207.01005885020001
 31
0.0
 12
1071.1582166141
 22
-207.01005885020001
 32
0.0
 13
1069.6582166141
 23
-208.51005885020001
 33
0.0
  0
LINE
  5
1E6
  8
0
 62
     0
 10
1069.6582166141
 20
-218.00578599799999
 30
0.0
 11
1069.6582166141
 21
-224.00578599799999
 31
0.0
  0
SOLID
  5
1E7
  8
0
 62
     0
 10
1069.6582166141
 20
-218.00578599799999
 30
0.0
 11
1071.1582166141
 21
-224.00578599799999
 31
0.0
 12
1068.1582166141
 22
-224.00578599799999
 32
0.0
 13
1069.6582166141
 23
-222.50578599799999
 33
0.0
  0
ENDBLK
  5
1E8
  8
0
  0
BLOCK
  8
0
  2
*D18
 70
     1
 10
0.0
 20
0.0
 30
0.0
  3
*D18
  1

  0
TEXT
  5
1EC
  8
0
 62
     0
 10
1034.3483183066
 20
-274.3859729042
 30
0.0
 40
5.9972220420999998
  1
3
  0
LINE
  5
1ED
  8
0
 62
     0
 10
1046.1582166141
 20
-259.4443062058001
 30
0.0
 11
1046.1582166141
 21
-278.44430620579999
 31
0.0
  0
LINE
  5
1EE
  8
0
 62
     0
 10
1049.1582166141
 20
-258.9443062058001
 30
0.0
 11
1049.1582166141
 21
-278.44430620579999
 31
0.0
  0
LINE
  5
1EF
  8
0
 62
     0
 10
1046.1582166141
 20
-277.4443062058001
 30
0.0
 11
1041.4038736503001
 21
-277.4443062058001
 31
0.0
  0
LINE
  5
1F0
  8
0
 62
     0
 10
1046.1582166141
 20
-277.4443062058001
 30
0.0
 11
1030.8205406348
 21
-277.4443062058001
 31
0.0
  0
LINE
  5
1F1
  8
0
 62
     0
 10
1049.1582166141
 20
-277.4443062058001
 30
0.0
 11
1041.4038736503001
 21
-277.4443062058001
 31
0.0
  0
LINE
  5
1F2
  8
0
 62
     0
 10
1049.1582166141
 20
-277.4443062058001
 30
0.0
 11
1030.8205406348
 21
-277.4443062058001
 31
0.0
  0
LINE
  5
1F3
  8
0
 62
     0
 10
1049.1582166141
 20
-277.4443062058001
 30
0.0
 11
1055.1582166141
 21
-277.4443062058001
 31
0.0
  0
SOLID
  5
1F4
  8
0
 62
     0
 10
1049.1582166141
 20
-277.4443062058001
 30
0.0
 11
1055.1582166141
 21
-275.9443062058001
 31
0.0
 12
1055.1582166141
 22
-278.94430620579999
 32
0.0
 13
1053.6582166141
 23
-277.4443062058001
 33
0.0
  0
LINE
  5
1F5
  8
0
 62
     0
 10
1046.1582166141
 20
-277.4443062058001
 30
0.0
 11
1040.1582166141
 21
-277.4443062058001
 31
0.0
  0
SOLID
  5
1F6
  8
0
 62
     0
 10
1046.1582166141
 20
-277.4443062058001
 30
0.0
 11
1040.1582166141
 21
-278.94430620579999
 31
0.0
 12
1040.1582166141
 22
-275.9443062058001
 32
0.0
 13
1041.6582166141
 23
-277.4443062058001
 33
0.0
  0
ENDBLK
  5
1F7
  8
0
  0
BLOCK
  8
0
  2
CLUMP0
 70
     0
 10
0.0
 20
0.0
 30
0.0
  3
CLUMP0
  1

  0
ARC
  5
1FD
  8
┌▓È_1
 62
     5
 10
633.15969822309989
 20
14.102255741700001
 30
0.0
 40
8.5
 50
0.0
 51
85.5
  0
ARC
  5
1FE
  8
┌▓È_1
 62
     5
 10
633.15969822309989
 20
14.1400604959
 30
0.0
 40
9.0
 50
0.0
 51
85.5
  0
LINE
  5
1FF
  8
┌▓È_1
 62
     5
 10
592.65969822310001
 20
26.3553094086
 30
0.0
 11
633.86583008460002
 21
23.1123164995
 31
0.0
  0
LINE
  5
200
  8
┌▓È_1
 62
     5
 10
592.62046867519985
 20
25.819045987599999
 30
0.0
 11
633.82660053669997
 21
22.576053078400001
 31
0.0
  0
LINE
  5
201
  8
┌▓È_1
 62
     5
 10
641.16304453290002
 20
-2.482674650099999
 30
0.0
 11
640.65969822310001
 21
-6.8404250791999992
 31
0.0
  0
LINE
  5
202
  8
┌▓È_1
 62
     5
 10
641.65969822309989
 20
14.102255741700001
 30
0.0
 11
641.65969822309989
 21
-6.8404250791999992
 31
0.0
  0
ARC
  5
203
  8
┌▓È_1
 62
     5
 10
641.40969822310001
 20
-6.8404250791999992
 30
0.0
 40
0.25
 50
180.0
 51
0.0
  0
ARC
  5
204
  8
┌▓È_1
 62
     5
 10
641.40969822310001
 20
-6.8404250791999992
 30
0.0
 40
0.75
 50
180.0
 51
0.0
  0
LINE
  5
205
  8
┌▓È_1
 62
     5
 10
641.16304453290002
 20
-2.482674650099999
 30
0.0
 11
641.65969822309989
 21
-2.5404250791999989
 31
0.0
  0
LINE
  5
206
  8
┌▓È_1
 62
     5
 10
592.65969822310001
 20
46.355309408599993
 30
0.0
 11
592.15969822310001
 21
46.355309408599993
 31
0.0
  0
LINE
  5
207
  8
┌▓È_1
 62
     5
 10
592.65969822310001
 20
46.355309408599993
 30
0.0
 11
592.65969822310001
 21
26.3553094086
 31
0.0
  0
LINE
  5
208
  8
┌▓È_1
 62
     5
 10
592.15969822310001
 20
46.355309408599993
 30
0.0
 11
592.15969822310001
 21
26.3175046544
 31
0.0
  0
ARC
  5
209
  8
┌▓È_1
 62
     5
 10
592.65969822310001
 20
26.3175046544
 30
0.0
 40
0.5
 50
180.0
 51
265.5
  0
LINE
  5
20A
  8
┌▓È_1
 62
     5
 10
641.15969822309989
 20
-6.8404250791999992
 30
0.0
 11
641.65969822309989
 21
-2.5404250791999989
 31
0.0
  0
LINE
  5
20B
  8
┌▓È_1
 62
     5
 10
642.15969822310001
 20
14.1400604959
 30
0.0
 11
642.15969822310001
 21
-6.8404250791999992
 31
0.0
  0
ENDBLK
  5
20C
  8
0
  0
BLOCK
  8
0
  2
*D20
 70
     1
 10
0.0
 20
0.0
 30
0.0
  3
*D20
  1

  0
TEXT
  5
210
  8
0
 62
     0
 10
907.99043064939985
 20
-293.34820084889998
 30
0.0
 40
5.9972220420999998
  1
65
 50
90.0
  0
LINE
  5
211
  8
0
 62
     0
 10
827.54876395099996
 20
-322.5704231771
 30
0.0
 11
912.04876395100007
 21
-322.5704231771
 31
0.0
  0
LINE
  5
212
  8
0
 62
     0
 10
893.04876395100007
 20
-257.0704231771
 30
0.0
 11
912.04876395100007
 21
-257.0704231771
 31
0.0
  0
LINE
  5
213
  8
0
 62
     0
 10
911.04876395100007
 20
-322.5704231771
 30
0.0
 11
911.04876395100007
 21
-282.76486783349998
 31
0.0
  0
LINE
  5
214
  8
0
 62
     0
 10
911.04876395100007
 20
-322.5704231771
 30
0.0
 11
911.04876395100007
 21
-296.87597852070002
 31
0.0
  0
LINE
  5
215
  8
0
 62
     0
 10
911.04876395100007
 20
-257.0704231771
 30
0.0
 11
911.04876395100007
 21
-282.76486783349998
 31
0.0
  0
LINE
  5
216
  8
0
 62
     0
 10
911.04876395100007
 20
-257.0704231771
 30
0.0
 11
911.04876395100007
 21
-296.87597852070002
 31
0.0
  0
LINE
  5
217
  8
0
 62
     0
 10
911.04876395100007
 20
-257.0704231771
 30
0.0
 11
911.04876395100007
 21
-263.0704231771
 31
0.0
  0
SOLID
  5
218
  8
0
 62
     0
 10
911.04876395100007
 20
-257.0704231771
 30
0.0
 11
912.54876395099996
 21
-263.0704231771
 31
0.0
 12
909.54876395099996
 22
-263.0704231771
 32
0.0
 13
911.04876395100007
 23
-261.5704231771
 33
0.0
  0
LINE
  5
219
  8
0
 62
     0
 10
911.04876395100007
 20
-322.5704231771
 30
0.0
 11
911.04876395100007
 21
-316.5704231771
 31
0.0
  0
SOLID
  5
21A
  8
0
 62
     0
 10
911.04876395100007
 20
-322.5704231771
 30
0.0
 11
909.54876395099996
 21
-316.5704231771
 31
0.0
 12
912.54876395099996
 22
-316.5704231771
 32
0.0
 13
911.04876395100007
 23
-318.0704231771
 33
0.0
  0
ENDBLK
  5
21B
  8
0
  0
BLOCK
  8
0
  2
*D21
 70
     1
 10
0.0
 20
0.0
 30
0.0
  3
*D21
  1

  0
TEXT
  5
21F
  8
0
 62
     0
 10
728.7861970836999
 20
-268.13986735660001
 30
0.0
 40
5.9972220420999998
  1
126.5
 50
90.0
  0
LINE
  5
220
  8
0
 62
     0
 10
763.04876395099996
 20
-196.0704231771
 30
0.0
 11
730.8445303853
 21
-196.0704231771
 31
0.0
  0
LINE
  5
221
  8
0
 62
     0
 10
762.54876395100007
 20
-322.5704231771
 30
0.0
 11
730.8445303853
 21
-322.5704231771
 31
0.0
  0
LINE
  5
222
  8
0
 62
     0
 10
731.8445303853
 20
-196.0704231771
 30
0.0
 11
731.8445303853
 21
-246.97320132569999
 31
0.0
  0
LINE
  5
223
  8
0
 62
     0
 10
731.8445303853
 20
-196.0704231771
 30
0.0
 11
731.8445303853
 21
-271.66764502839999
 31
0.0
  0
LINE
  5
224
  8
0
 62
     0
 10
731.8445303853
 20
-322.5704231771
 30
0.0
 11
731.8445303853
 21
-246.97320132569999
 31
0.0
  0
LINE
  5
225
  8
0
 62
     0
 10
731.8445303853
 20
-322.5704231771
 30
0.0
 11
731.8445303853
 21
-271.66764502839999
 31
0.0
  0
LINE
  5
226
  8
0
 62
     0
 10
731.8445303853
 20
-322.5704231771
 30
0.0
 11
731.8445303853
 21
-316.5704231771
 31
0.0
  0
SOLID
  5
227
  8
0
 62
     0
 10
731.8445303853
 20
-322.5704231771
 30
0.0
 11
730.3445303853
 21
-316.5704231771
 31
0.0
 12
733.34453038529989
 22
-316.5704231771
 32
0.0
 13
731.8445303853
 23
-318.0704231771
 33
0.0
  0
LINE
  5
228
  8
0
 62
     0
 10
731.8445303853
 20
-196.0704231771
 30
0.0
 11
731.8445303853
 21
-202.0704231771
 31
0.0
  0
SOLID
  5
229
  8
0
 62
     0
 10
731.8445303853
 20
-196.0704231771
 30
0.0
 11
733.34453038529989
 21
-202.0704231771
 31
0.0
 12
730.3445303853
 22
-202.0704231771
 32
0.0
 13
731.8445303853
 23
-200.5704231771
 33
0.0
  0
ENDBLK
  5
22A
  8
0
  0
BLOCK
  8
0
  2
*D22
 70
     1
 10
0.0
 20
0.0
 30
0.0
  3
*D22
  1

  0
TEXT
  5
22E
  8
0
 62
     0
 10
818.9793197713999
 20
-155.12569237330001
 30
0.0
 40
5.9972220420999998
  1
126.5
  0
LINE
  5
22F
  8
0
 62
     0
 10
891.04876395099996
 20
-194.0704231771
 30
0.0
 11
891.04876395099996
 21
-157.1840256749
 31
0.0
  0
LINE
  5
230
  8
0
 62
     0
 10
764.54876395099996
 20
-194.5704231771
 30
0.0
 11
764.54876395099996
 21
-157.1840256749
 31
0.0
  0
LINE
  5
231
  8
0
 62
     0
 10
891.04876395099996
 20
-158.1840256749
 30
0.0
 11
840.14598580229995
 21
-158.1840256749
 31
0.0
  0
LINE
  5
232
  8
0
 62
     0
 10
891.04876395099996
 20
-158.1840256749
 30
0.0
 11
815.45154209960003
 21
-158.1840256749
 31
0.0
  0
LINE
  5
233
  8
0
 62
     0
 10
764.54876395099996
 20
-158.1840256749
 30
0.0
 11
840.14598580229995
 21
-158.1840256749
 31
0.0
  0
LINE
  5
234
  8
0
 62
     0
 10
764.54876395099996
 20
-158.1840256749
 30
0.0
 11
815.45154209960003
 21
-158.1840256749
 31
0.0
  0
LINE
  5
235
  8
0
 62
     0
 10
764.54876395099996
 20
-158.1840256749
 30
0.0
 11
770.54876395100007
 21
-158.1840256749
 31
0.0
  0
SOLID
  5
236
  8
0
 62
     0
 10
764.54876395099996
 20
-158.1840256749
 30
0.0
 11
770.54876395100007
 21
-156.6840256749
 31
0.0
 12
770.54876395100007
 22
-159.6840256749
 32
0.0
 13
769.04876395099996
 23
-158.1840256749
 33
0.0
  0
LINE
  5
237
  8
0
 62
     0
 10
891.04876395099996
 20
-158.1840256749
 30
0.0
 11
885.04876395100007
 21
-158.1840256749
 31
0.0
  0
SOLID
  5
238
  8
0
 62
     0
 10
891.04876395099996
 20
-158.1840256749
 30
0.0
 11
885.04876395100007
 21
-159.6840256749
 31
0.0
 12
885.04876395100007
 22
-156.6840256749
 32
0.0
 13
886.54876395099996
 23
-158.1840256749
 33
0.0
  0
ENDBLK
  5
239
  8
0
  0
BLOCK
  8
0
  2
BALLON2
 70
     0
 10
0.0
 20
0.0
 30
0.0
  3
BALLON2
  1

  0
INSERT
  5
250
  8
0
  6
CONTINUOUS
  2
*U31
 10
0.0
 20
0.0
 30
0.0
  0
CIRCLE
  5
251
  8
┌▓È_1
 10
1079.8709559979
 20
-255.0737122562
 30
0.0
 40
8.0
  0
LINE
  5
252
  8
Éíû@É³
 10
1066.5376226645999
 20
-255.0737122562
 30
0.0
 11
1071.8709559979
 21
-255.0737122562
 31
0.0
  0
LINE
  5
253
  8
Éíû@É³
 10
1049.1582166141
 20
-237.69430620579999
 30
0.0
 11
1066.5376226645999
 21
-255.0737122562
 31
0.0
  0
SOLID
  5
254
  8
Éíû@É³
 10
1049.1582166141
 20
-237.69430620579999
 30
0.0
 11
1055.9464417135
 21
-242.2197896054
 31
0.0
 12
1053.6837000137
 22
-242.2197896054
 32
0.0
 13
1053.6837000137
 23
-242.2197896054
 33
0.0
  0
SOLID
  5
255
  8
Éíû@É³
 10
1053.6837000137
 20
-242.2197896054
 30
0.0
 11
1053.6837000137
 21
-244.48253130520001
 31
0.0
 12
1049.1582166141
 22
-237.69430620579999
 32
0.0
 13
1049.1582166141
 23
-237.69430620579999
 33
0.0
  0
ENDBLK
  5
256
  8
0
  0
BLOCK
  8
0
  2
*U24
 70
     1
 10
0.0
 20
0.0
 30
0.0
  3
*U24
  1

  0
TEXT
  5
300
  8
┌▓È_1
  6
CONTINUOUS
 10
1017.682024200131
 20
-179.46944437030001
 30
0.0
 40
5.9972220420999998
  1
1
  0
ENDBLK
  5
302
  8
0
  0
BLOCK
  8
0
  2
*U25
 70
     1
 10
0.0
 20
0.0
 30
0.0
  3
*U25
  1

  0
TEXT
  5
304
  8
┌▓È_1
  6
CONTINUOUS
 10
979.83218282078985
 20
-273.1497661917
 30
0.0
 40
5.9972220420999998
  1
3
  0
ENDBLK
  5
306
  8
0
  0
BLOCK
  8
0
  2
*U26
 70
     1
 10
0.0
 20
0.0
 30
0.0
  3
*U26
  1

  0
TEXT
  5
308
  8
┌▓È_1
  6
CONTINUOUS
 10
842.9258504267998
 20
-311.08159636180011
 30
0.0
 40
5.9972220420999998
  1
é`üf
  0
ENDBLK
  5
30A
  8
0
  0
BLOCK
  8
0
  2
*U27
 70
     1
 10
0.0
 20
0.0
 30
0.0
  3
*U27
  1

  0
TEXT
  5
30C
  8
┌▓È_1
  6
CONTINUOUS
 10
738.40383150019989
 20
-311.08159636180011
 30
0.0
 40
5.9972220420999998
  1
é`
  0
ENDBLK
  5
30E
  8
0
  0
BLOCK
  8
0
  2
*U28
 70
     1
 10
0.0
 20
0.0
 30
0.0
  3
*U28
  1

  0
TEXT
  5
310
  8
┌▓È_1
  6
CONTINUOUS
 10
879.60523742240002
 20
-176.7404503047
 30
0.0
 40
5.9972220420999998
  1
é`üf
 50
90.0
  0
ENDBLK
  5
312
  8
0
  0
BLOCK
  8
0
  2
*U29
 70
     1
 10
0.0
 20
0.0
 30
0.0
  3
*U29
  1

  0
TEXT
  5
314
  8
┌▓È_1
  6
CONTINUOUS
 10
879.60523742240002
 20
-281.26246923129997
 30
0.0
 40
5.9972220420999998
  1
é`
 50
90.0
  0
ENDBLK
  5
316
  8
0
  0
BLOCK
  8
0
  2
*U30
 70
     1
 10
0.0
 20
0.0
 30
0.0
  3
*U30
  1

  0
TEXT
  5
318
  8
┌▓È_1
  6
CONTINUOUS
 10
991.6610843310001
 20
-296.75022367244833
 30
0.0
 40
5.9972220420999998
  1
é`-é`üfÆfû╩É}
  0
ENDBLK
  5
31A
  8
0
  0
BLOCK
  8
0
  2
*U31
 70
     1
 10
0.0
 20
0.0
 30
0.0
  3
*U31
  1

  0
TEXT
  5
31C
  8
┌▓È_1
  6
CONTINUOUS
 10
1077.7417541442071
 20
-257.54315662649998
 30
0.0
 40
5.9972220420999998
  1
2
  0
ENDBLK
  5
31E
  8
0
  0
BLOCK
  8
0
  2
*U32
 70
     1
 10
0.0
 20
0.0
 30
0.0
  3
*U32
  1

  0
TEXT
  5
320
  8
┌▓È_1
  6
CONTINUOUS
 10
978.44019803410004
 20
-346.22150266360001
 30
0.0
 40
5.3974999188999986
  1
érétéréRéOéSü@éO.éTéö
  0
ENDBLK
  5
322
  8
0
  0
BLOCK
  8
0
  2
*U33
 70
     1
 10
0.0
 20
0.0
 30
0.0
  3
*U33
  1

  0
TEXT
  5
324
  8
┌▓È_1
  6
CONTINUOUS
 10
978.44019803410004
 20
-336.22150266360001
 30
0.0
 40
5.3974999188999986
  1
érétéréRéOéSü@éO.éTéö
  0
ENDBLK
  5
326
  8
0
  0
BLOCK
  8
0
  2
*U34
 70
     1
 10
0.0
 20
0.0
 30
0.0
  3
*U34
  1

  0
TEXT
  5
328
  8
┌▓È_1
  6
CONTINUOUS
 10
978.44019803410004
 20
-326.22150266360001
 30
0.0
 40
5.3974999188999986
  1
érétéréSéRéOü@éO.éTéö
  0
ENDBLK
  5
32A
  8
0
  0
BLOCK
  8
0
  2
*U35
 70
     1
 10
0.0
 20
0.0
 30
0.0
  3
*U35
  1

  0
TEXT
  5
32C
  8
┌▓È_1
  6
CONTINUOUS
 10
1058.6271381767999
 20
-346.31122790500001
 30
0.0
 40
5.3974999188999986
  1
éP
  0
ENDBLK
  5
32E
  8
0
  0
BLOCK
  8
0
  2
*U36
 70
     1
 10
0.0
 20
0.0
 30
0.0
  3
*U36
  1

  0
TEXT
  5
330
  8
┌▓È_1
  6
CONTINUOUS
 10
1058.6271381767999
 20
-336.31122790500001
 30
0.0
 40
5.3974999188999986
  1
éP
  0
ENDBLK
  5
332
  8
0
  0
BLOCK
  8
0
  2
*U37
 70
     1
 10
0.0
 20
0.0
 30
0.0
  3
*U37
  1

  0
TEXT
  5
334
  8
┌▓È_1
  6
CONTINUOUS
 10
1058.6271381767999
 20
-326.31122790500001
 30
0.0
 40
5.3974999188999986
  1
éQ
  0
ENDBLK
  5
336
  8
0
  0
BLOCK
  8
0
  2
*U38
 70
     1
 10
0.0
 20
0.0
 30
0.0
  3
*U38
  1

  0
TEXT
  5
338
  8
┌▓È_1
  6
CONTINUOUS
 10
960.14594272919987
 20
-326.31122790500001
 30
0.0
 40
5.3974999188999986
  1
éR
  0
ENDBLK
  5
33A
  8
0
  0
BLOCK
  8
0
  2
*U39
 70
     1
 10
0.0
 20
0.0
 30
0.0
  3
*U39
  1

  0
TEXT
  5
33C
  8
┌▓È_1
  6
CONTINUOUS
 10
960.14594272919987
 20
-336.31122790500001
 30
0.0
 40
5.3974999188999986
  1
éQ
  0
ENDBLK
  5
33E
  8
0
  0
BLOCK
  8
0
  2
*U40
 70
     1
 10
0.0
 20
0.0
 30
0.0
  3
*U40
  1

  0
TEXT
  5
340
  8
┌▓È_1
  6
CONTINUOUS
 10
955.10255256879998
 20
-356.06980389280199
 30
0.0
 40
4.6749999999999989
  1
 É}öÈ
  0
ENDBLK
  5
342
  8
0
  0
BLOCK
  8
0
  2
*U41
 70
     1
 10
0.0
 20
0.0
 30
0.0
  3
*U41
  1

  0
TEXT
  5
344
  8
┌▓È_1
  6
CONTINUOUS
 10
960.14594272919987
 20
-346.31122790500001
 30
0.0
 40
5.3974999188999986
  1
éP
  0
ENDBLK
  5
346
  8
0
  0
BLOCK
  8
0
  2
*U42
 70
     1
 10
0.0
 20
0.0
 30
0.0
  3
*U42
  1

  0
TEXT
  5
348
  8
┌▓È_1
  6
CONTINUOUS
 10
873.03332419139986
 20
-365.12567115626803
 30
0.0
 40
4.6749999999999989
  1
ü@ô· ü@òt
  0
ENDBLK
  5
34A
  8
0
  0
BLOCK
  8
0
  2
*U43
 70
     1
 10
0.0
 20
0.0
 30
0.0
  3
*U43
  1

  0
TEXT
  5
34C
  8
┌▓È_1
  6
CONTINUOUS
 10
1001.8835514762
 20
-365.139066820202
 30
0.0
 40
4.6749999999999989
  1
î^öÈ
  0
ENDBLK
  5
34E
  8
0
  0
BLOCK
  8
0
  2
*U44
 70
     1
 10
0.0
 20
0.0
 30
0.0
  3
*U44
  1

  0
TEXT
  5
350
  8
┌▓È_1
  6
CONTINUOUS
 10
1001.8835514762
 20
-382.18652874913602
 30
0.0
 40
4.6749999999999989
  1
òiû╝
  0
ENDBLK
  5
352
  8
0
  0
BLOCK
  8
0
  2
*U45
 70
     1
 10
0.0
 20
0.0
 30
0.0
  3
*U45
  1

  0
TEXT
  5
354
  8
┌▓È_1
  6
CONTINUOUS
 10
1001.8835514762
 20
-399.139066820202
 30
0.0
 40
4.6749999999999989
  1
É}öÈ
  0
ENDBLK
  5
356
  8
0
  0
BLOCK
  8
0
  2
*U46
 70
     1
 10
0.0
 20
0.0
 30
0.0
  3
*U46
  1

  0
TEXT
  5
358
  8
┌▓È_1
  6
CONTINUOUS
 62
     5
 10
880.473047492658
 20
-373.5307472984
 30
0.0
 40
4.6749999999999989
  1
H16.4
  0
ENDBLK
  5
35A
  8
0
  0
BLOCK
  8
0
  2
*U47
 70
     1
 10
0.0
 20
0.0
 30
0.0
  3
*U47
  1

  0
TEXT
  5
35C
  8
┌▓È_1
  6
CONTINUOUS
 62
     5
 10
945.89690536067815
 20
-390.5307472984
 30
0.0
 40
4.6749999999999989
  1
1üF2
  0
ENDBLK
  5
35E
  8
0
  0
BLOCK
  8
0
  2
*U48
 70
     1
 10
0.0
 20
0.0
 30
0.0
  3
*U48
  1

  0
TEXT
  5
360
  8
┌▓È_1
  6
CONTINUOUS
 10
905.03332419139997
 20
-365.19686404966899
 30
0.0
 40
4.6749999999999989
  1
ü@ìÌ ü@Ä┐
  0
ENDBLK
  5
362
  8
0
  0
BLOCK
  8
0
  2
*U49
 70
     1
 10
0.0
 20
0.0
 30
0.0
  3
*U49
  1

  0
TEXT
  5
364
  8
┌▓È_1
  6
CONTINUOUS
 10
937.03332419139997
 20
-365.29178790753713
 30
0.0
 40
4.6749999999999989
  1
ü@ö┬ ü@î·
  0
ENDBLK
  5
366
  8
0
  0
BLOCK
  8
0
  2
*U50
 70
     1
 10
0.0
 20
0.0
 30
0.0
  3
*U50
  1

  0
TEXT
  5
368
  8
┌▓È_1
  6
CONTINUOUS
 10
1033.8573505851
 20
-370.2166968423
 30
0.0
 40
7.1966662884000003
  1
éjéi-éOéOéO
  0
ENDBLK
  5
36A
  8
0
  0
BLOCK
  8
0
  2
*U51
 70
     1
 10
0.0
 20
0.0
 30
0.0
  3
*U51
  1

  0
TEXT
  5
36C
  8
┌▓È_1
  6
CONTINUOUS
 10
1027.1639955936
 20
-383.37190570836202
 30
0.0
 40
5.9972220420999998
  1
éjéiî^ÉàÉÏéÞâJâoü[
  0
TEXT
  5
36D
  8
┌▓È_1
  6
CONTINUOUS
 10
1027.1639955936
 20
-393.79347429928703
 30
0.0
 40
5.9972220420999998
  1
âRü[âiü[âWâçâCâôâg
  0
ENDBLK
  5
36F
  8
0
  0
BLOCK
  8
0
  2
*U52
 70
     1
 10
0.0
 20
0.0
 30
0.0
  3
*U52
  1

  0
TEXT
  5
371
  8
┌▓È_1
  6
CONTINUOUS
 10
886.54366001839992
 20
-405.44956021142741
 30
0.0
 40
8.6359998702999992
  1
èöÄ«ë´Äð
  0
ENDBLK
  5
373
  8
0
  0
BLOCK
  8
0
  2
*U53
 70
     1
 10
0.0
 20
0.0
 30
0.0
  3
*U53
  1

  0
TEXT
  5
375
  8
┌▓È_1
  6
CONTINUOUS
 10
1056.6201961060001
 20
-356.16472775067012
 30
0.0
 40
4.6749999999999989
  1
Éöù╩
  0
ENDBLK
  5
377
  8
0
  0
BLOCK
  8
0
  2
*U54
 70
     1
 10
0.0
 20
0.0
 30
0.0
  3
*U54
  1

  0
TEXT
  5
379
  8
┌▓È_1
  6
CONTINUOUS
 10
999.03092306839994
 20
-356.09353485726899
 30
0.0
 40
4.6749999999999989
  1
ìÌü@ü@ü@Ä┐
  0
ENDBLK
  5
37B
  8
0
  0
BLOCK
  8
0
  2
*U55
 70
     1
 10
0.0
 20
0.0
 30
0.0
  3
*U55
  1

  0
TEXT
  5
37D
  8
┌▓È_1
  6
CONTINUOUS
 10
872.10255256879998
 20
-390.81551887200408
 30
0.0
 40
4.6749999999999989
  1
 É╗É}ü@ü@ è¦û{
  0
ENDBLK
  5
37F
  8
0
  0
BLOCK
  8
0
  2
*U56
 70
     1
 10
0.0
 20
0.0
 30
0.0
  3
*U56
  1

  0
TEXT
  5
381
  8
┌▓È_1
  6
CONTINUOUS
 10
937.03332419139997
 20
-382.26805694307012
 30
0.0
 40
4.6749999999999989
  1
ü@Ä┌ ü@ôx
  0
ENDBLK
  5
383
  8
0
  0
BLOCK
  8
0
  2
*U57
 70
     1
 10
0.0
 20
0.0
 30
0.0
  3
*U57
  1

  0
TEXT
  5
385
  8
┌▓È_1
  6
CONTINUOUS
 10
969.03332419139997
 20
-365.29178790753713
 30
0.0
 40
4.6749999999999989
  1
ü@îƒ ü@ê¾
  0
ENDBLK
  5
387
  8
0
  0
BLOCK
  8
0
  2
*U58
 70
     1
 10
0.0
 20
0.0
 30
0.0
  3
*U58
  1

  0
TEXT
  5
389
  8
┌▓È_1
  6
CONTINUOUS
 10
872.10255256879998
 20
-382.29178790753713
 30
0.0
 40
4.6749999999999989
  1
 É¦îvü@ü@öÆÉ{ëÛ
  0
ENDBLK
  5
38B
  8
0
  0
ENDSEC
  0
SECTION
  2
ENTITIES
  0
DIMENSION
  5
3E
  8
Éíû@É³
  2
*D0
 10
697.60561005160002
 20
-322.5704231771
 30
0.0
 11
697.60561005160002
 21
-304.0704231771
 31
0.0
 70
   128
  1
<>
 13
677.60561005160002
 23
-322.5704231771
 33
0.0
 14
672.10561005160002
 24
-285.5704231771
 34
0.0
 50
90.0
  0
CIRCLE
  5
40
  8
┌▓È_1
 62
     5
 10
782.04876395099996
 20
-105.2414887377
 30
0.0
 40
1.5
  0
LINE
  5
41
  8
┌▓È_1
  6
BORDER
 62
     3
 10
778.04876395099996
 20
-105.2414887377
 30
0.0
 11
786.04876395099996
 21
-105.2414887377
 31
0.0
  0
LINE
  5
42
  8
┌▓È_1
  6
BORDER
 62
     3
 10
782.04876395099996
 20
-109.2414887377
 30
0.0
 11
782.04876395099996
 21
-101.2414887377
 31
0.0
  0
CIRCLE
  5
43
  8
┌▓È_1
 62
     5
 10
854.04876395100007
 20
-105.2414887377
 30
0.0
 40
1.5
  0
LINE
  5
44
  8
┌▓È_1
  6
BORDER
 62
     3
 10
850.04876395099996
 20
-105.2414887377
 30
0.0
 11
858.04876395099996
 21
-105.2414887377
 31
0.0
  0
LINE
  5
45
  8
┌▓È_1
  6
BORDER
 62
     3
 10
854.04876395100007
 20
-109.2414887377
 30
0.0
 11
854.04876395100007
 21
-101.2414887377
 31
0.0
  0
DIMENSION
  5
54
  8
Éíû@É³
  2
*D1
 10
854.04876395100007
 20
-134.7414887377
 30
0.0
 11
872.54876395100007
 21
-134.7414887377
 31
0.0
 70
   128
  1
<>
 13
854.04876395100007
 23
-109.2414887377
 33
0.0
 14
891.04876395099996
 24
-114.7414887377
 34
0.0
 50
180.0
  0
DIMENSION
  5
63
  8
Éíû@É³
  2
*D2
 10
782.04876395099996
 20
-134.7414887377
 30
0.0
 11
818.04876395100007
 21
-134.7414887377
 31
0.0
 70
   128
  1
<>
 13
782.04876395099996
 23
-109.2414887377
 33
0.0
 14
854.04876395100007
 24
-109.2414887377
 34
0.0
 50
180.0
  0
DIMENSION
  5
72
  8
Éíû@É³
  2
*D3
 10
764.54876395099996
 20
-134.7414887377
 30
0.0
 11
773.29876395100007
 21
-134.7414887377
 31
0.0
 70
   128
  1
<>
 13
764.54876395099996
 23
-114.7414887377
 33
0.0
 14
782.04876395099996
 24
-109.2414887377
 34
0.0
 50
180.0
  0
DIMENSION
  5
81
  8
Éíû@É³
  2
*D4
 10
911.04876395100007
 20
-114.7414887377
 30
0.0
 11
911.04876395100007
 21
-126.596180756
 31
0.0
 70
   128
  1
<>
 13
891.04876395099996
 23
-114.7414887377
 33
0.0
 14
858.04876395099996
 24
-105.2414887377
 34
0.0
 50
90.0
  0
DIMENSION
  5
90
  8
Éíû@É³
  2
*D5
 10
951.29851262019997
 20
-193.50578599799999
 30
0.0
 11
951.29851262019997
 21
-223.8561682552
 31
0.0
 70
   128
  1
64
 13
988.65821661409996
 23
-193.50578599799999
 33
0.0
 14
1046.1582166141
 24
-257.44430620579999
 34
0.0
 50
90.0
  0
INSERT
  5
92
  8
Éíû@É³
  2
BALLON0
 10
0.0
 20
0.0
 30
0.0
  0
DIMENSION
  5
A9
  8
Éíû@É³
  2
*D7
 10
989.15821661410007
 20
-238.83014906459999
 30
0.0
 11
1017.5582166141
 21
-238.83014906459999
 31
0.0
 70
   128
  1
<>
 13
989.15821661410007
 23
-214.805785998
 33
0.0
 14
1045.9582166140999
 24
-218.83014906459999
 34
0.0
 50
180.0
  0
INSERT
  5
AB
  8
Éíû@É³
  2
BALLON1
 10
0.0
 20
0.0
 30
0.0
  0
DIMENSION
  5
C2
  8
Éíû@É³
  2
*D9
 10
965.51473797269989
 20
-193.50578599799999
 30
0.0
 11
965.51473797269989
 21
-203.50578599799999
 31
0.0
 70
   128
  1
<>
 13
988.65821661409996
 23
-193.50578599799999
 33
0.0
 14
989.15821661410007
 24
-213.50578599799999
 34
0.0
 50
90.0
  0
DIMENSION
  5
D1
  8
Éíû@É³
  2
*D10
 10
980.47005606050016
 20
-213.50578599799999
 30
0.0
 11
980.47005606050016
 21
-236.5724703656
 31
0.0
 70
   128
  1
(<>)îäèÈ
 13
989.15821661410007
 23
-213.50578599799999
 33
0.0
 14
989.15821661410007
 24
-214.305785998
 34
0.0
 50
90.0
  0
DIMENSION
  5
D9
  8
Éíû@É³
  2
*D11
 10
667.0449498797999
 20
-214.63108334890001
 30
0.0
 11
728.16939827509998
 21
-175.79222226429999
 31
0.0
 70
   131
  1
4-%%c <>
 15
669.16627022329988
 25
-212.50976300529999
 35
0.0
 40
0.0
  0
LINE
  5
DA
  8
┌▓È_1
 62
     5
 10
765.04876395099996
 20
-93.941488737699984
 30
0.0
 11
787.46360464470001
 21
-93.941488737699984
 31
0.0
  0
ARC
  5
DB
  8
┌▓È_1
  6
STITCH
 10
787.51601037160003
 20
-94.74148873770001
 30
0.0
 40
0.5
 50
270.0
 51
277.49585763970009
  0
LINE
  5
DC
  8
┌▓È_1
  6
STITCH
 10
823.04876395099996
 20
-51.30296852979999
 30
0.0
 11
823.04876395099996
 21
-50.802968529799998
 31
0.0
  0
LINE
  5
DD
  8
┌▓È_1
 62
     5
 10
825.04876395099996
 20
-89.802968529799998
 30
0.0
 11
824.54876395100007
 21
-89.802968529799998
 31
0.0
  0
LINE
  5
DE
  8
┌▓È_1
 62
     5
 10
824.54876395100007
 20
-50.802968529799998
 30
0.0
 11
816.04876395099996
 21
-50.802968529799998
 31
0.0
  0
LINE
  5
DF
  8
┌▓È_1
 62
     5
 10
874.74876395100011
 20
-89.241488737699996
 30
0.0
 11
874.74876395100011
 21
-93.941488737699984
 31
0.0
  0
LINE
  5
E0
  8
┌▓È_1
 62
     5
 10
850.74876395100011
 20
-89.241488737699996
 30
0.0
 11
850.74876395100011
 21
-94.241488737699996
 31
0.0
  0
LINE
  5
E1
  8
┌▓È_1
 62
     5
 10
850.74876395100011
 20
-89.241488737699996
 30
0.0
 11
874.74876395100011
 21
-89.241488737699996
 31
0.0
  0
LINE
  5
E2
  8
┌▓È_1
 62
     5
 10
874.74876395100011
 20
-89.241488737699996
 30
0.0
 11
874.74876395100011
 21
-88.941488737699984
 31
0.0
  0
ARC
  5
E3
  8
┌▓È_1
 62
     5
 10
875.248763951
 20
-88.941488737699984
 30
0.0
 40
0.5
 50
90.0
 51
180.0
  0
LINE
  5
E4
  8
┌▓È_1
 62
     5
 10
884.248763951
 20
-51.30296852979999
 30
0.0
 11
884.248763951
 21
-50.802968529799998
 31
0.0
  0
LINE
  5
E5
  8
┌▓È_1
 62
     5
 10
886.04876395100007
 20
-51.30296852979999
 30
0.0
 11
886.04876395100007
 21
-50.802968529799998
 31
0.0
  0
LINE
  5
E6
  8
┌▓È_1
 62
     5
 10
824.54876395100007
 20
-51.30296852979999
 30
0.0
 11
891.04876395099996
 21
-51.30296852979999
 31
0.0
  0
LINE
  5
E7
  8
┌▓È_1
 62
     5
 10
824.54876395100007
 20
-51.30296852979999
 30
0.0
 11
824.54876395100007
 21
-51.30296852979999
 31
0.0
  0
ARC
  5
E8
  8
┌▓È_1
 62
     5
 10
875.248763951
 20
-93.941488737699984
 30
0.0
 40
0.5
 50
90.0
 51
180.0
  0
LINE
  5
E9
  8
┌▓È_1
 62
     5
 10
874.74876395100011
 20
-94.241488737699996
 30
0.0
 11
874.74876395100011
 21
-93.941488737699984
 31
0.0
  0
LINE
  5
EA
  8
┌▓È_1
  6
BORDER
 62
     3
 10
668.10561005160002
 20
-209.5704231771
 30
0.0
 11
668.10561005160002
 21
-217.5704231771
 31
0.0
  0
LINE
  5
EB
  8
┌▓È_1
  6
BORDER
 62
     3
 10
672.10561005160002
 20
-213.5704231771
 30
0.0
 11
664.10561005160002
 21
-213.5704231771
 31
0.0
  0
CIRCLE
  5
EC
  8
┌▓È_1
 62
     5
 10
668.10561005160002
 20
-213.5704231771
 30
0.0
 40
1.5
  0
LINE
  5
ED
  8
┌▓È_1
  6
BORDER
 62
     3
 10
672.10561005160002
 20
-285.5704231771
 30
0.0
 11
664.10561005160002
 21
-285.5704231771
 31
0.0
  0
LINE
  5
EE
  8
┌▓È_1
  6
BORDER
 62
     3
 10
668.10561005160002
 20
-281.5704231771
 30
0.0
 11
668.10561005160002
 21
-289.5704231771
 31
0.0
  0
CIRCLE
  5
EF
  8
┌▓È_1
 62
     5
 10
668.10561005160002
 20
-285.5704231771
 30
0.0
 40
1.5
  0
DIMENSION
  5
FE
  8
Éíû@É³
  2
*D12
 10
677.60561005160002
 20
-176.0704231771
 30
0.0
 11
672.85561005160002
 21
-176.0704231771
 31
0.0
 70
   128
  1
<>
 13
677.60561005160002
 23
-196.0704231771
 33
0.0
 14
668.10561005160002
 24
-209.5704231771
 34
0.0
  0
DIMENSION
  5
10D
  8
Éíû@É³
  2
*D13
 10
697.60561005160002
 20
-213.5704231771
 30
0.0
 11
697.60561005160002
 21
-204.8204231771
 31
0.0
 70
   128
  1
<>
 13
672.10561005160002
 23
-213.5704231771
 33
0.0
 14
677.60561005160002
 24
-196.0704231771
 34
0.0
 50
90.0
  0
DIMENSION
  5
11C
  8
Éíû@É³
  2
*D14
 10
697.10561005160002
 20
-285.5704231771
 30
0.0
 11
697.10561005160002
 21
-249.5704231771
 31
0.0
 70
   128
  1
<>
 13
672.10561005160002
 23
-285.5704231771
 33
0.0
 14
672.10561005160002
 24
-213.5704231771
 34
0.0
 50
90.0
  0
LINE
  5
11D
  8
┌▓È_1
 62
     5
 10
850.74876395100011
 20
-94.241488737699996
 30
0.0
 11
874.74876395100011
 21
-94.241488737699996
 31
0.0
  0
LINE
  5
11E
  8
┌▓È_1
 62
     5
 10
850.74876395100011
 20
-94.74148873770001
 30
0.0
 11
850.74876395100011
 21
-94.241488737699996
 31
0.0
  0
LINE
  5
11F
  8
┌▓È_1
 62
     5
 10
765.04876395099996
 20
-94.74148873770001
 30
0.0
 11
891.04876395099996
 21
-94.74148873770001
 31
0.0
  0
LINE
  5
120
  8
┌▓È_1
 62
     5
 10
765.04876395099996
 20
-114.7414887377
 30
0.0
 11
891.04876395099996
 21
-114.7414887377
 31
0.0
  0
LINE
  5
121
  8
┌▓È_1
 62
     5
 10
787.48325679229993
 20
-94.241488737699996
 30
0.0
 11
821.78353669469993
 21
-89.728294013600006
 31
0.0
  0
LINE
  5
122
  8
┌▓È_1
 62
     5
 10
787.46360464470001
 20
-93.941488737699984
 30
0.0
 11
821.74440034089992
 21
-89.430857724999996
 31
0.0
  0
LINE
  5
123
  8
┌▓È_1
  6
STITCH
 10
787.58123762789978
 20
-95.237215885400005
 30
0.0
 11
791.34876395100002
 21
-94.74148873770001
 31
0.0
  0
LINE
  5
124
  8
┌▓È_1
  6
STITCH
 10
765.04876395099996
 20
-95.241488737699996
 30
0.0
 11
891.04876395099996
 21
-95.241488737699996
 31
0.0
  0
LINE
  5
125
  8
┌▓È_1
 62
     5
 10
787.51601037160003
 20
-94.74148873770001
 30
0.0
 11
825.04876395099996
 21
-89.802968529799998
 31
0.0
  0
LINE
  5
126
  8
┌▓È_1
  6
STITCH
 10
791.34876395100002
 20
-94.74148873770001
 30
0.0
 11
825.11399120729982
 21
-90.298695677599994
 31
0.0
  0
LINE
  5
127
  8
┌▓È_1
  6
STITCH
 10
825.54876395099996
 20
-89.802968529799998
 30
0.0
 11
825.54876395099996
 21
-83.24148873770001
 31
0.0
  0
LINE
  5
128
  8
┌▓È_1
  6
STITCH
 10
825.04876395099996
 20
-83.24148873770001
 30
0.0
 11
825.54876395099996
 21
-83.24148873770001
 31
0.0
  0
LINE
  5
129
  8
┌▓È_1
  6
STITCH
 10
825.04876395099996
 20
-89.802968529799998
 30
0.0
 11
825.04876395099996
 21
-51.30296852979999
 31
0.0
  0
ARC
  5
12A
  8
┌▓È_1
  6
STITCH
 10
824.54876395100007
 20
-51.30296852979999
 30
0.0
 40
0.5
 50
0.0
 51
90.0
  0
LINE
  5
12B
  8
┌▓È_1
 62
     5
 10
895.24876395100011
 20
-93.441488737699999
 30
0.0
 11
895.24876395100011
 21
-88.441488737699999
 31
0.0
  0
LINE
  5
12C
  8
┌▓È_1
 62
     5
 10
875.248763951
 20
-88.441488737699999
 30
0.0
 11
895.24876395100011
 21
-88.441488737699999
 31
0.0
  0
LINE
  5
12D
  8
┌▓È_1
 62
     5
 10
875.248763951
 20
-93.441488737699999
 30
0.0
 11
895.24876395100011
 21
-93.441488737699999
 31
0.0
  0
LINE
  5
12E
  8
┌▓È_1
 62
     5
 10
895.24876395100011
 20
-93.941488737699984
 30
0.0
 11
895.24876395100011
 21
-93.441488737699999
 31
0.0
  0
LINE
  5
12F
  8
┌▓È_1
 62
     5
 10
875.248763951
 20
-93.941488737699984
 30
0.0
 11
895.24876395100011
 21
-93.941488737699984
 31
0.0
  0
ARC
  5
130
  8
┌▓È_1
 62
     5
 10
765.04876395099996
 20
-95.241488737699996
 30
0.0
 40
0.5
 50
90.0
 51
180.0
  0
LINE
  5
131
  8
┌▓È_1
 62
     5
 10
764.54876395099996
 20
-114.7414887377
 30
0.0
 11
764.54876395099996
 21
-95.241488737699996
 31
0.0
  0
LINE
  5
132
  8
┌▓È_1
 62
     5
 10
765.04876395099996
 20
-114.7414887377
 30
0.0
 11
765.04876395099996
 21
-95.241488737699996
 31
0.0
  0
LINE
  5
133
  8
┌▓È_1
 62
     5
 10
764.54876395099996
 20
-114.7414887377
 30
0.0
 11
765.04876395099996
 21
-114.7414887377
 31
0.0
  0
LINE
  5
134
  8
┌▓È_1
 62
     5
 10
765.04876395099996
 20
-93.941488737699984
 30
0.0
 11
765.04876395099996
 21
-94.74148873770001
 31
0.0
  0
LINE
  5
135
  8
┌▓È_1
 62
     5
 10
765.04876395099996
 20
-94.241488737699996
 30
0.0
 11
787.48325679229993
 21
-94.241488737699996
 31
0.0
  0
LINE
  5
136
  8
┌▓È_1
 62
     5
 10
652.10561005160002
 20
-306.27042317709999
 30
0.0
 11
656.80561005160007
 21
-306.27042317709999
 31
0.0
  0
LINE
  5
137
  8
┌▓È_1
 62
     5
 10
652.29497903890001
 20
-253.26605956700001
 30
0.0
 11
653.08814247529995
 21
-253.37042317710001
 31
0.0
  0
LINE
  5
138
  8
┌▓È_1
 62
     5
 10
652.66708984379989
 20
-256.5704231771
 30
0.0
 11
652.66708984379989
 21
-282.27042317709999
 31
0.0
  0
LINE
  5
139
  8
┌▓È_1
 62
     5
 10
613.6670898438
 20
-322.5704231771
 30
0.0
 11
613.6670898438
 21
-256.0704231771
 31
0.0
  0
LINE
  5
13A
  8
┌▓È_1
 62
     5
 10
651.30561005159996
 20
-322.5704231771
 30
0.0
 11
613.6670898438
 21
-322.5704231771
 31
0.0
  0
LINE
  5
13B
  8
┌▓È_1
 62
     5
 10
657.60561005160002
 20
-322.5704231771
 30
0.0
 11
656.80561005160007
 21
-322.5704231771
 31
0.0
  0
LINE
  5
13C
  8
┌▓È_1
 62
     5
 10
614.16708984379989
 20
-253.5704231771
 30
0.0
 11
613.6670898438
 21
-253.5704231771
 31
0.0
  0
LINE
  5
13D
  8
┌▓È_1
 62
     5
 10
652.66708984379989
 20
-256.0704231771
 30
0.0
 11
614.16708984379989
 21
-256.0704231771
 31
0.0
  0
ARC
  5
13E
  8
┌▓È_1
 62
     5
 10
656.80561005160007
 20
-306.77042317709999
 30
0.0
 40
0.5
 50
90.0
 51
180.0
  0
LINE
  5
13F
  8
┌▓È_1
 62
     5
 10
657.10561005160002
 20
-306.27042317709999
 30
0.0
 11
656.80561005160007
 21
-306.27042317709999
 31
0.0
  0
LINE
  5
140
  8
┌▓È_1
 62
     5
 10
657.10561005160002
 20
-306.77042317709999
 30
0.0
 11
656.80561005160007
 21
-306.77042317709999
 31
0.0
  0
LINE
  5
141
  8
┌▓È_1
 62
     5
 10
677.60561005160002
 20
-322.5704231771
 30
0.0
 11
657.60561005160002
 21
-322.5704231771
 31
0.0
  0
LINE
  5
142
  8
┌▓È_1
 62
     5
 10
821.74440034089992
 20
-89.430857724999996
 30
0.0
 11
821.84876395100002
 21
-90.224021161399975
 31
0.0
  0
LINE
  5
143
  8
┌▓È_1
 62
     5
 10
825.04876395099996
 20
-89.802968529799998
 30
0.0
 11
850.74876395100011
 21
-89.802968529799998
 31
0.0
  0
LINE
  5
144
  8
┌▓È_1
 62
     5
 10
891.04876395099996
 20
-50.802968529799998
 30
0.0
 11
824.54876395100007
 21
-50.802968529799998
 31
0.0
  0
LINE
  5
145
  8
┌▓È_1
 62
     5
 10
891.04876395099996
 20
-88.441488737699999
 30
0.0
 11
891.04876395099996
 21
-50.802968529799998
 31
0.0
  0
LINE
  5
146
  8
┌▓È_1
 62
     5
 10
891.04876395099996
 20
-94.74148873770001
 30
0.0
 11
891.04876395099996
 21
-93.941488737699984
 31
0.0
  0
LINE
  5
147
  8
┌▓È_1
 62
     5
 10
822.04876395099996
 20
-51.30296852979999
 30
0.0
 11
822.04876395099996
 21
-50.802968529799998
 31
0.0
  0
ARC
  5
148
  8
┌▓È_1
  6
STITCH
 10
825.04876395099996
 20
-89.802968529799998
 30
0.0
 40
0.5
 50
277.49585763970009
 51
0.0
  0
LINE
  5
149
  8
┌▓È_1
 62
     5
 10
824.54876395100007
 20
-89.802968529799998
 30
0.0
 11
824.54876395100007
 21
-51.30296852979999
 31
0.0
  0
LINE
  5
14A
  8
┌▓È_1
 62
     5
 10
816.04876395099996
 20
-51.30296852979999
 30
0.0
 11
816.04876395099996
 21
-50.802968529799998
 31
0.0
  0
LINE
  5
14B
  8
┌▓È_1
 62
     5
 10
824.54876395100007
 20
-51.30296852979999
 30
0.0
 11
816.04876395099996
 21
-51.30296852979999
 31
0.0
  0
LINE
  5
14C
  8
┌▓È_1
 62
     5
 10
875.248763951
 20
-94.241488737699996
 30
0.0
 11
875.248763951
 21
-93.941488737699984
 31
0.0
  0
LINE
  5
14D
  8
┌▓È_1
 62
     5
 10
891.04876395099996
 20
-114.7414887377
 30
0.0
 11
891.04876395099996
 21
-94.74148873770001
 31
0.0
  0
ARC
  5
14E
  8
┌▓È_1
 62
     5
 10
874.74876395100011
 20
-94.241488737699996
 30
0.0
 40
0.5
 50
270.0
 51
0.0
  0
LINE
  5
14F
  8
┌▓È_1
  6
STITCH
 10
652.66708984379989
 20
-256.5704231771
 30
0.0
 11
614.16708984379989
 21
-256.5704231771
 31
0.0
  0
ARC
  5
150
  8
┌▓È_1
  6
STITCH
 10
614.16708984379989
 20
-256.0704231771
 30
0.0
 40
0.5
 50
180.0
 51
270.0
  0
LINE
  5
151
  8
┌▓È_1
 62
     5
 10
656.30561005159996
 20
-326.77042317709999
 30
0.0
 11
651.30561005159996
 21
-326.77042317709999
 31
0.0
  0
LINE
  5
152
  8
┌▓È_1
 62
     5
 10
651.30561005159996
 20
-306.77042317709999
 30
0.0
 11
651.30561005159996
 21
-326.77042317709999
 31
0.0
  0
LINE
  5
153
  8
┌▓È_1
 62
     5
 10
656.30561005159996
 20
-306.77042317709999
 30
0.0
 11
656.30561005159996
 21
-326.77042317709999
 31
0.0
  0
LINE
  5
154
  8
┌▓È_1
 62
     5
 10
656.80561005160007
 20
-326.77042317709999
 30
0.0
 11
656.30561005159996
 21
-326.77042317709999
 31
0.0
  0
ARC
  5
155
  8
┌▓È_1
 62
     5
 10
658.10561005160002
 20
-196.5704231771
 30
0.0
 40
0.5
 50
90.0
 51
180.0
  0
LINE
  5
156
  8
┌▓È_1
 62
     5
 10
677.60561005160002
 20
-196.0704231771
 30
0.0
 11
658.10561005160002
 21
-196.0704231771
 31
0.0
  0
LINE
  5
157
  8
┌▓È_1
 62
     5
 10
677.60561005160002
 20
-196.5704231771
 30
0.0
 11
658.10561005160002
 21
-196.5704231771
 31
0.0
  0
LINE
  5
158
  8
┌▓È_1
 62
     5
 10
677.60561005160002
 20
-196.0704231771
 30
0.0
 11
677.60561005160002
 21
-196.5704231771
 31
0.0
  0
LINE
  5
159
  8
┌▓È_1
 62
     5
 10
657.10561005160002
 20
-196.5704231771
 30
0.0
 11
657.10561005160002
 21
-219.0049160184
 31
0.0
  0
LINE
  5
15A
  8
┌▓È_1
 62
     5
 10
656.80561005160007
 20
-196.5704231771
 30
0.0
 11
657.60561005160002
 21
-196.5704231771
 31
0.0
  0
LINE
  5
15B
  8
┌▓È_1
 62
     5
 10
656.80561005160007
 20
-196.5704231771
 30
0.0
 11
656.80561005160007
 21
-218.9852638708
 31
0.0
  0
LINE
  5
15C
  8
┌▓È_1
  6
STITCH
 10
658.10133719930002
 20
-219.10289685399999
 30
0.0
 11
657.60561005160002
 21
-222.87042317710001
 31
0.0
  0
ARC
  5
15D
  8
┌▓È_1
  6
STITCH
 10
657.60561005160002
 20
-219.03766959769999
 30
0.0
 40
0.5
 50
352.50414236030002
 51
0.0
  0
LINE
  5
15E
  8
┌▓È_1
 62
     5
 10
677.60561005160002
 20
-196.5704231771
 30
0.0
 11
677.60561005160002
 21
-322.5704231771
 31
0.0
  0
LINE
  5
15F
  8
┌▓È_1
 62
     5
 10
657.10561005160002
 20
-219.0049160184
 30
0.0
 11
652.59241532759995
 21
-253.3051959208
 31
0.0
  0
LINE
  5
160
  8
┌▓È_1
 62
     5
 10
656.80561005160007
 20
-218.9852638708
 30
0.0
 11
652.29497903890001
 21
-253.26605956700001
 31
0.0
  0
LINE
  5
161
  8
┌▓È_1
  6
STITCH
 10
658.10561005160002
 20
-196.5704231771
 30
0.0
 11
658.10561005160002
 21
-322.5704231771
 31
0.0
  0
LINE
  5
162
  8
┌▓È_1
 62
     5
 10
657.60561005160002
 20
-219.03766959769999
 30
0.0
 11
652.66708984379989
 21
-256.5704231771
 31
0.0
  0
LINE
  5
163
  8
┌▓È_1
 62
     5
 10
656.80561005160007
 20
-306.77042317709999
 30
0.0
 11
656.80561005160007
 21
-326.77042317709999
 31
0.0
  0
LINE
  5
164
  8
┌▓È_1
 62
     5
 10
652.66708984379989
 20
-256.5704231771
 30
0.0
 11
652.66708984379989
 21
-256.0704231771
 31
0.0
  0
LINE
  5
165
  8
┌▓È_1
 62
     5
 10
614.16708984379989
 20
-247.5704231771
 30
0.0
 11
613.6670898438
 21
-247.5704231771
 31
0.0
  0
LINE
  5
166
  8
┌▓È_1
 62
     5
 10
614.16708984379989
 20
-256.0704231771
 30
0.0
 11
614.16708984379989
 21
-247.5704231771
 31
0.0
  0
LINE
  5
167
  8
┌▓È_1
 62
     5
 10
613.6670898438
 20
-256.0704231771
 30
0.0
 11
613.6670898438
 21
-247.5704231771
 31
0.0
  0
LINE
  5
168
  8
┌▓È_1
  6
STITCH
 10
764.54876395099996
 20
-215.0704231771
 30
0.0
 11
765.04876395099996
 21
-215.0704231771
 31
0.0
  0
LINE
  5
169
  8
┌▓È_1
  6
BORDER
 62
     3
 10
761.54876395099996
 20
-213.5704231771
 30
0.0
 11
768.04876395099996
 21
-213.5704231771
 31
0.0
  0
LINE
  5
16A
  8
┌▓È_1
 62
     5
 10
891.04876395099996
 20
-196.0704231771
 30
0.0
 11
891.04876395099996
 21
-257.0704231771
 31
0.0
  0
LINE
  5
16B
  8
┌▓È_1
 62
     5
 10
764.54876395099996
 20
-322.5704231771
 30
0.0
 11
825.54876395099996
 21
-322.5704231771
 31
0.0
  0
LINE
  5
16C
  8
┌▓È_1
 62
     5
 10
860.54876395099996
 20
-257.0704231771
 30
0.0
 11
891.04876395099996
 21
-257.0704231771
 31
0.0
  0
LINE
  5
16D
  8
┌▓È_1
 62
     5
 10
825.54876395099996
 20
-292.0704231771
 30
0.0
 11
825.54876395099996
 21
-322.5704231771
 31
0.0
  0
ARC
  5
16E
  8
┌▓È_1
 62
     5
 10
860.54876395099996
 20
-292.0704231771
 30
0.0
 40
35.0
 50
90.0
 51
180.0
  0
LINE
  5
16F
  8
┌▓È_1
 62
     5
 10
765.04876395099996
 20
-196.0704231771
 30
0.0
 11
891.04876395099996
 21
-196.0704231771
 31
0.0
  0
LINE
  5
170
  8
┌▓È_1
  6
STITCH
 10
614.16708984379989
 20
-254.5704231771
 30
0.0
 11
613.6670898438
 21
-254.5704231771
 31
0.0
  0
LINE
  5
171
  8
┌▓È_1
 62
     5
 10
652.10561005160002
 20
-282.27042317709999
 30
0.0
 11
657.10561005160002
 21
-282.27042317709999
 31
0.0
  0
LINE
  5
172
  8
┌▓È_1
 62
     5
 10
652.10561005160002
 20
-282.27042317709999
 30
0.0
 11
652.10561005160002
 21
-306.27042317709999
 31
0.0
  0
LINE
  5
173
  8
┌▓È_1
 62
     5
 10
652.10561005160002
 20
-306.27042317709999
 30
0.0
 11
651.80561005159996
 21
-306.27042317709999
 31
0.0
  0
ARC
  5
174
  8
┌▓È_1
 62
     5
 10
651.80561005159996
 20
-306.77042317709999
 30
0.0
 40
0.5
 50
90.0
 51
180.0
  0
LINE
  5
175
  8
┌▓È_1
 62
     5
 10
614.16708984379989
 20
-315.77042317709999
 30
0.0
 11
613.6670898438
 21
-315.77042317709999
 31
0.0
  0
LINE
  5
176
  8
┌▓È_1
 62
     5
 10
614.16708984379989
 20
-317.5704231771
 30
0.0
 11
613.6670898438
 21
-317.5704231771
 31
0.0
  0
LINE
  5
177
  8
┌▓È_1
 62
     5
 10
614.16708984379989
 20
-256.0704231771
 30
0.0
 11
614.16708984379989
 21
-322.5704231771
 31
0.0
  0
LINE
  5
178
  8
┌▓È_1
 62
     5
 10
614.16708984379989
 20
-256.0704231771
 30
0.0
 11
614.16708984379989
 21
-256.0704231771
 31
0.0
  0
ARC
  5
179
  8
┌▓È_1
  6
STITCH
 10
652.66708984379989
 20
-256.5704231771
 30
0.0
 40
0.5
 50
270.0
 51
352.50414236030002
  0
ARC
  5
17A
  8
┌▓È_1
 62
     5
 10
657.10561005160002
 20
-306.27042317709999
 30
0.0
 40
0.5
 50
270.0
 51
0.0
  0
LINE
  5
17B
  8
┌▓È_1
 62
     5
 10
657.10561005160002
 20
-282.27042317709999
 30
0.0
 11
657.10561005160002
 21
-306.27042317709999
 31
0.0
  0
LINE
  5
17C
  8
┌▓È_1
 62
     5
 10
657.60561005160002
 20
-282.27042317709999
 30
0.0
 11
657.10561005160002
 21
-282.27042317709999
 31
0.0
  0
LINE
  5
17D
  8
┌▓È_1
 62
     5
 10
657.60561005160002
 20
-196.5704231771
 30
0.0
 11
657.60561005160002
 21
-322.5704231771
 31
0.0
  0
LINE
  5
17E
  8
┌▓È_1
  6
STITCH
 10
657.60561005160002
 20
-222.87042317710001
 30
0.0
 11
653.16281699149988
 21
-256.63565043339997
 31
0.0
  0
LINE
  5
17F
  8
┌▓È_1
  6
STITCH
 10
652.66708984379989
 20
-257.0704231771
 30
0.0
 11
646.10561005160002
 21
-257.0704231771
 31
0.0
  0
LINE
  5
180
  8
┌▓È_1
  6
STITCH
 10
646.10561005160002
 20
-256.5704231771
 30
0.0
 11
646.10561005160002
 21
-257.0704231771
 31
0.0
  0
LINE
  5
181
  8
┌▓È_1
  6
STITCH
 10
886.04876395100007
 20
-247.5704231771
 30
0.0
 11
886.04876395100007
 21
-254.5704231771
 31
0.0
  0
LINE
  5
182
  8
┌▓È_1
  6
STITCH
 10
891.04876395099996
 20
-247.5704231771
 30
0.0
 11
891.04876395099996
 21
-256.5704231771
 31
0.0
  0
LINE
  5
183
  8
┌▓È_1
  6
STITCH
 10
886.04876395100007
 20
-247.5704231771
 30
0.0
 11
891.04876395099996
 21
-247.5704231771
 31
0.0
  0
LINE
  5
184
  8
┌▓È_1
  6
STITCH
 10
816.04876395099996
 20
-317.5704231771
 30
0.0
 11
823.04876395099996
 21
-317.5704231771
 31
0.0
  0
LINE
  5
185
  8
┌▓È_1
  6
STITCH
 10
823.04876395099996
 20
-315.77042317709999
 30
0.0
 11
823.04876395099996
 21
-317.5704231771
 31
0.0
  0
LINE
  5
186
  8
┌▓È_1
  6
STITCH
 10
816.04876395099996
 20
-317.5704231771
 30
0.0
 11
816.04876395099996
 21
-322.5704231771
 31
0.0
  0
LINE
  5
187
  8
┌▓È_1
  6
STITCH
 10
816.04876395099996
 20
-322.5704231771
 30
0.0
 11
825.04876395099996
 21
-322.5704231771
 31
0.0
  0
LINE
  5
188
  8
┌▓È_1
  6
STITCH
 10
825.04876395099996
 20
-292.0704231771
 30
0.0
 11
825.04876395099996
 21
-322.5704231771
 31
0.0
  0
INSERT
  5
189
  8
0
  6
CONTINUOUS
  2
*U26
 10
0.0
 20
0.0
 30
0.0
  0
INSERT
  5
18A
  8
0
  6
CONTINUOUS
  2
*U27
 10
0.0
 20
0.0
 30
0.0
  0
LINE
  5
18B
  8
┌▓È_1
 10
749.54876395100007
 20
-311.5704231771
 30
0.0
 11
749.54876395100007
 21
-301.5704231771
 31
0.0
  0
SOLID
  5
18C
  8
┌▓È_1
 10
749.54876395100007
 20
-301.5704231771
 30
0.0
 11
751.25024116960003
 21
-307.92042260490001
 31
0.0
 12
749.54876395100007
 22
-306.21894538629999
 32
0.0
 13
749.54876395100007
 23
-306.21894538629999
 33
0.0
  0
SOLID
  5
18D
  8
┌▓È_1
 10
749.54876395100007
 20
-301.5704231771
 30
0.0
 11
747.84728673229995
 21
-307.92042260490001
 31
0.0
 12
749.54876395100007
 22
-306.21894538629999
 32
0.0
 13
749.54876395100007
 23
-306.21894538629999
 33
0.0
  0
LINE
  5
18E
  8
┌▓È_1
 10
838.54876395099996
 20
-311.5704231771
 30
0.0
 11
838.54876395099996
 21
-301.5704231771
 31
0.0
  0
SOLID
  5
18F
  8
┌▓È_1
 10
838.54876395099996
 20
-301.5704231771
 30
0.0
 11
840.25024116960003
 21
-307.92042260490001
 31
0.0
 12
838.54876395099996
 22
-306.21894538629999
 32
0.0
 13
838.54876395099996
 23
-306.21894538629999
 33
0.0
  0
SOLID
  5
190
  8
┌▓È_1
 10
838.54876395099996
 20
-301.5704231771
 30
0.0
 11
836.84728673229995
 21
-307.92042260490001
 31
0.0
 12
838.54876395099996
 22
-306.21894538629999
 32
0.0
 13
838.54876395099996
 23
-306.21894538629999
 33
0.0
  0
LINE
  5
191
  8
┌▓È_1
 10
828.54876395099996
 20
-311.5704231771
 30
0.0
 11
838.54876395099996
 21
-311.5704231771
 31
0.0
  0
LINE
  5
192
  8
┌▓È_1
 10
759.54876395099996
 20
-311.5704231771
 30
0.0
 11
749.54876395100007
 21
-311.5704231771
 31
0.0
  0
INSERT
  5
193
  8
0
  6
CONTINUOUS
  2
*U28
 10
0.0
 20
0.0
 30
0.0
  0
INSERT
  5
194
  8
0
  6
CONTINUOUS
  2
*U29
 10
0.0
 20
0.0
 30
0.0
  0
LINE
  5
195
  8
┌▓È_1
 10
880.04876395099996
 20
-181.0704231771
 30
0.0
 11
870.04876395100007
 21
-181.0704231771
 31
0.0
  0
SOLID
  5
196
  8
┌▓È_1
 10
870.04876395100007
 20
-181.0704231771
 30
0.0
 11
876.39876337880003
 21
-179.36894595850001
 31
0.0
 12
874.69728616009991
 22
-181.0704231771
 32
0.0
 13
874.69728616009991
 23
-181.0704231771
 33
0.0
  0
SOLID
  5
197
  8
┌▓È_1
 10
870.04876395100007
 20
-181.0704231771
 30
0.0
 11
876.39876337880003
 21
-182.77190039569999
 31
0.0
 12
874.69728616009991
 22
-181.0704231771
 32
0.0
 13
874.69728616009991
 23
-181.0704231771
 33
0.0
  0
LINE
  5
198
  8
┌▓È_1
 10
880.04876395099996
 20
-270.0704231771
 30
0.0
 11
870.04876395100007
 21
-270.0704231771
 31
0.0
  0
SOLID
  5
199
  8
┌▓È_1
 10
870.04876395100007
 20
-270.0704231771
 30
0.0
 11
876.39876337880003
 21
-268.36894595849998
 31
0.0
 12
874.69728616009991
 22
-270.0704231771
 32
0.0
 13
874.69728616009991
 23
-270.0704231771
 33
0.0
  0
SOLID
  5
19A
  8
┌▓È_1
 10
870.04876395100007
 20
-270.0704231771
 30
0.0
 11
876.39876337880003
 21
-271.77190039570002
 31
0.0
 12
874.69728616009991
 22
-270.0704231771
 32
0.0
 13
874.69728616009991
 23
-270.0704231771
 33
0.0
  0
LINE
  5
19B
  8
┌▓È_1
 10
880.04876395099996
 20
-191.0704231771
 30
0.0
 11
880.04876395099996
 21
-181.0704231771
 31
0.0
  0
LINE
  5
19C
  8
┌▓È_1
 10
880.04876395099996
 20
-260.0704231771
 30
0.0
 11
880.04876395099996
 21
-270.0704231771
 31
0.0
  0
DIMENSION
  5
1AB
  8
Éíû@É³
  2
*D15
 10
825.54876395099996
 20
-342.5704231771
 30
0.0
 11
858.29876395100007
 21
-342.5704231771
 31
0.0
 70
   128
  1
65
 13
825.54876395099996
 23
-322.5704231771
 33
0.0
 14
891.04876395099996
 24
-257.0704231771
 34
0.0
 50
180.0
  0
LINE
  5
1AC
  8
┌▓È_1
  6
STITCH
 10
764.54876395099996
 20
-287.0704231771
 30
0.0
 11
765.04876395099996
 21
-287.0704231771
 31
0.0
  0
LINE
  5
1AD
  8
┌▓È_1
  6
STITCH
 10
764.54876395099996
 20
-284.0704231771
 30
0.0
 11
765.04876395099996
 21
-284.0704231771
 31
0.0
  0
LINE
  5
1AE
  8
┌▓È_1
  6
BORDER
 62
     3
 10
761.54876395099996
 20
-285.5704231771
 30
0.0
 11
768.04876395099996
 21
-285.5704231771
 31
0.0
  0
LINE
  5
1AF
  8
┌▓È_1
  6
STITCH
 10
764.54876395099996
 20
-212.0704231771
 30
0.0
 11
765.04876395099996
 21
-212.0704231771
 31
0.0
  0
LINE
  5
1B0
  8
┌▓È_1
  6
STITCH
 10
852.54876395099996
 20
-196.0704231771
 30
0.0
 11
852.54876395099996
 21
-196.5704231771
 31
0.0
  0
LINE
  5
1B1
  8
┌▓È_1
  6
STITCH
 10
855.54876395100007
 20
-196.0704231771
 30
0.0
 11
855.54876395100007
 21
-196.5704231771
 31
0.0
  0
LINE
  5
1B2
  8
┌▓È_1
  6
STITCH
 10
783.54876395100007
 20
-196.0704231771
 30
0.0
 11
783.54876395100007
 21
-196.5704231771
 31
0.0
  0
LINE
  5
1B3
  8
┌▓È_1
  6
STITCH
 10
780.54876395099996
 20
-196.0704231771
 30
0.0
 11
780.54876395099996
 21
-196.5704231771
 31
0.0
  0
LINE
  5
1B4
  8
┌▓È_1
  6
STITCH
 10
850.74876395100011
 20
-253.37042317710001
 30
0.0
 11
891.04876395099996
 21
-253.37042317710001
 31
0.0
  0
LINE
  5
1B5
  8
┌▓È_1
  6
STITCH
 10
875.248763951
 20
-196.5704231771
 30
0.0
 11
875.248763951
 21
-253.37042317710001
 31
0.0
  0
LINE
  5
1B6
  8
┌▓È_1
  6
STITCH
 10
860.54876395099996
 20
-256.5704231771
 30
0.0
 11
891.04876395099996
 21
-256.5704231771
 31
0.0
  0
LINE
  5
1B7
  8
┌▓È_1
 62
     5
 10
891.04876395099996
 20
-196.5704231771
 30
0.0
 11
895.24876395100011
 21
-196.5704231771
 31
0.0
  0
LINE
  5
1B8
  8
┌▓È_1
 62
     5
 10
764.54876395099996
 20
-196.5704231771
 30
0.0
 11
891.04876395099996
 21
-196.5704231771
 31
0.0
  0
LINE
  5
1B9
  8
┌▓È_1
 62
     5
 10
764.54876395099996
 20
-196.5704231771
 30
0.0
 11
764.54876395099996
 21
-322.5704231771
 31
0.0
  0
ARC
  5
1BA
  8
┌▓È_1
  6
STITCH
 10
860.54876395099996
 20
-292.0704231771
 30
0.0
 40
35.5
 50
90.0
 51
180.0
  0
LINE
  5
1BB
  8
┌▓È_1
  6
STITCH
 10
825.04876395099996
 20
-292.0704231771
 30
0.0
 11
825.04876395099996
 21
-322.5704231771
 31
0.0
  0
LINE
  5
1BC
  8
┌▓È_1
 62
     5
 10
895.24876395100011
 20
-196.5704231771
 30
0.0
 11
895.24876395100011
 21
-253.37042317710001
 31
0.0
  0
LINE
  5
1BD
  8
┌▓È_1
 62
     5
 10
891.04876395099996
 20
-253.37042317710001
 30
0.0
 11
895.24876395100011
 21
-253.37042317710001
 31
0.0
  0
LINE
  5
1BE
  8
┌▓È_1
  6
STITCH
 10
850.74876395100011
 20
-196.5704231771
 30
0.0
 11
850.74876395100011
 21
-253.37042317710001
 31
0.0
  0
LINE
  5
1BF
  8
┌▓È_1
 62
     5
 10
821.84876395100002
 20
-322.5704231771
 30
0.0
 11
821.84876395100002
 21
-326.77042317709999
 31
0.0
  0
LINE
  5
1C0
  8
┌▓È_1
  6
STITCH
 10
821.84876395100002
 20
-282.27042317709999
 30
0.0
 11
821.84876395100002
 21
-322.5704231771
 31
0.0
  0
LINE
  5
1C1
  8
┌▓È_1
  6
STITCH
 10
765.04876395099996
 20
-306.77042317709999
 30
0.0
 11
821.84876395100002
 21
-306.77042317709999
 31
0.0
  0
LINE
  5
1C2
  8
┌▓È_1
  6
STITCH
 10
765.04876395099996
 20
-282.27042317709999
 30
0.0
 11
821.84876395100002
 21
-282.27042317709999
 31
0.0
  0
LINE
  5
1C3
  8
┌▓È_1
 62
     5
 10
765.04876395099996
 20
-196.0704231771
 30
0.0
 11
765.04876395099996
 21
-326.77042317709999
 31
0.0
  0
LINE
  5
1C4
  8
┌▓È_1
 62
     5
 10
765.04876395099996
 20
-326.77042317709999
 30
0.0
 11
821.84876395100002
 21
-326.77042317709999
 31
0.0
  0
LINE
  5
1C5
  8
┌▓È_1
  6
STITCH
 10
860.54876395099996
 20
-256.0704231771
 30
0.0
 11
891.04876395099996
 21
-256.0704231771
 31
0.0
  0
LINE
  5
1C6
  8
┌▓È_1
  6
STITCH
 10
824.54876395100007
 20
-292.0704231771
 30
0.0
 11
824.54876395100007
 21
-322.5704231771
 31
0.0
  0
ARC
  5
1C7
  8
┌▓È_1
  6
STITCH
 10
860.54876395099996
 20
-292.0704231771
 30
0.0
 40
36.0
 50
90.0
 51
180.0
  0
LINE
  5
1C8
  8
┌▓È_1
  6
STITCH
 10
884.248763951
 20
-254.5704231771
 30
0.0
 11
886.04876395100007
 21
-254.5704231771
 31
0.0
  0
DIMENSION
  5
1D7
  8
Éíû@É³
  2
*D16
 10
1049.6582166141
 20
-158.09796025910001
 30
0.0
 11
1019.1582166141
 21
-158.09796025910001
 31
0.0
 70
   128
  1
61.5
 13
1049.6582166141
 23
-218.44430620579999
 33
0.0
 14
988.65821661409996
 24
-193.50578599799999
 34
0.0
  0
LINE
  5
1D8
  8
┌▓È_1
 62
     5
 10
1011.6906902911001
 20
-213.01005885020001
 30
0.0
 11
1049.2234439327999
 21
-217.94857906620001
 31
0.0
  0
ARC
  5
1D9
  8
┌▓È_1
 62
     5
 10
1049.1582166141
 20
-218.44430620579999
 30
0.0
 40
0.5
 50
359.9999719362001
 51
82.504135153299998
  0
LINE
  5
1DA
  8
┌▓È_1
 62
     5
 10
1049.6582166141
 20
-218.4443064507
 30
0.0
 11
1049.6582166141
 21
-225.00578599799999
 31
0.0
  0
DIMENSION
  5
1E9
  8
Éíû@É³
  2
*D17
 10
1069.6582166141
 20
-218.00578599799999
 30
0.0
 11
1069.6582166141
 21
-201.87622135020001
 31
0.0
 70
   128
  1
(5)
 13
1049.6582166141
 23
-218.00578599799999
 33
0.0
 14
1011.6906902911001
 24
-213.01005885020001
 34
0.0
 50
90.0
  0
DIMENSION
  5
1F8
  8
Éíû@É³
  2
*D18
 10
1046.1582166141
 20
-277.4443062058001
 30
0.0
 11
1036.1122071425
 21
-277.4443062058001
 31
0.0
 70
   128
  1
<>
 13
1046.1582166141
 23
-257.44430620579999
 33
0.0
 14
1049.1582166141
 24
-256.9443062058001
 34
0.0
 50
180.0
  0
INSERT
  5
1F9
  8
0
  6
CONTINUOUS
  2
*U30
 10
0.0
 20
0.0
 30
0.0
  0
LINE
  5
20D
  8
┌▓È_1
 62
     5
 10
787.54876395100007
 20
-234.0704231771
 30
0.0
 11
787.54876395100007
 21
-326.77042317709999
 31
0.0
  0
DIMENSION
  5
21C
  8
Éíû@É³
  2
*D20
 10
911.04876395100007
 20
-322.5704231771
 30
0.0
 11
911.04876395100007
 21
-289.8204231771
 31
0.0
 70
   128
  1
65
 13
825.54876395099996
 23
-322.5704231771
 33
0.0
 14
891.04876395099996
 24
-257.0704231771
 34
0.0
 50
90.0
  0
DIMENSION
  5
22B
  8
Éíû@É³
  2
*D21
 10
731.8445303853
 20
-196.0704231771
 30
0.0
 11
731.8445303853
 21
-259.3204231771
 31
0.0
 70
   128
  1
<>
 13
765.04876395099996
 23
-196.0704231771
 33
0.0
 14
764.54876395099996
 24
-322.5704231771
 34
0.0
 50
90.0
  0
DIMENSION
  5
23A
  8
Éíû@É³
  2
*D22
 10
891.04876395099996
 20
-158.1840256749
 30
0.0
 11
827.79876395099996
 21
-158.1840256749
 31
0.0
 70
   128
  1
<>
 13
891.04876395099996
 23
-196.0704231771
 33
0.0
 14
764.54876395099996
 24
-196.5704231771
 34
0.0
  0
ARC
  5
23B
  8
┌▓È_1
 62
     5
 10
802.54876395099996
 20
-234.0704231771
 30
0.0
 40
15.0
 50
90.0
 51
180.0
  0
LINE
  5
23C
  8
┌▓È_1
 62
     5
 10
802.54876395099996
 20
-219.0704231771
 30
0.0
 11
895.24876395100011
 21
-219.0704231771
 31
0.0
  0
ARC
  5
23D
  8
┌▓È_1
  6
STITCH
 10
860.54876395099996
 20
-292.0704231771
 30
0.0
 40
35.5
 50
90.0
 51
180.0
  0
LINE
  5
23E
  8
┌▓È_1
  6
STITCH
 10
860.54876395099996
 20
-256.0704231771
 30
0.0
 11
891.04876395099996
 21
-256.0704231771
 31
0.0
  0
LINE
  5
23F
  8
┌▓È_1
  6
STITCH
 10
824.54876395100007
 20
-292.0704231771
 30
0.0
 11
824.54876395100007
 21
-322.5704231771
 31
0.0
  0
ARC
  5
240
  8
┌▓È_1
  6
STITCH
 10
860.54876395099996
 20
-292.0704231771
 30
0.0
 40
36.0
 50
90.0
 51
180.0
  0
LINE
  5
241
  8
┌▓È_1
  6
STITCH
 10
860.54876395099996
 20
-253.5704231771
 30
0.0
 11
884.248763951
 21
-253.5704231771
 31
0.0
  0
LINE
  5
242
  8
┌▓È_1
  6
STITCH
 10
884.248763951
 20
-253.5704231771
 30
0.0
 11
884.248763951
 21
-254.5704231771
 31
0.0
  0
LINE
  5
243
  8
┌▓È_1
  6
STITCH
 10
822.04876395099996
 20
-315.77042317709999
 30
0.0
 11
823.04876395099996
 21
-315.77042317709999
 31
0.0
  0
ARC
  5
244
  8
┌▓È_1
  6
STITCH
 10
860.54876395099996
 20
-292.0704231771
 30
0.0
 40
38.5
 50
90.0
 51
180.00000091169991
  0
LINE
  5
245
  8
┌▓È_1
  6
STITCH
 10
822.04876395099996
 20
-292.07042378969999
 30
0.0
 11
822.04876395099996
 21
-315.77042317709999
 31
0.0
  0
LINE
  5
246
  8
┌▓È_1
  6
BORDER
 62
     3
 10
782.04876395099996
 20
-193.0704231771
 30
0.0
 11
782.04876395099996
 21
-199.5704231771
 31
0.0
  0
LINE
  5
247
  8
┌▓È_1
  6
BORDER
 62
     3
 10
854.04876395100007
 20
-193.0704231771
 30
0.0
 11
854.04876395100007
 21
-199.5704231771
 31
0.0
  0
LINE
  5
248
  8
┌▓È_1
 62
     5
 10
1011.6055310153999
 20
-214.31005885420001
 30
0.0
 11
1045.9582166140999
 21
-218.83014906459999
 31
0.0
  0
LINE
  5
249
  8
┌▓È_1
 62
     5
 10
988.65821661409996
 20
-193.50578599799999
 30
0.0
 11
989.15821661410007
 21
-193.50578599799999
 31
0.0
  0
LINE
  5
24A
  8
┌▓È_1
 62
     5
 10
989.15821661410007
 20
-193.50578599799999
 30
0.0
 11
989.15821661410007
 21
-213.00578599799999
 31
0.0
  0
LINE
  5
24B
  8
┌▓È_1
 62
     5
 10
988.65821661409996
 20
-193.50578599799999
 30
0.0
 11
988.65821661409996
 21
-213.00578599799999
 31
0.0
  0
ARC
  5
24C
  8
┌▓È_1
 62
     5
 10
989.15821661410007
 20
-213.00578599799999
 30
0.0
 40
0.5
 50
180.0
 51
270.0
  0
INSERT
  5
24E
  8
Éíû@É³
  2
BALLON2
 10
0.0
 20
0.0
 30
0.0
  0
INSERT
  5
257
  8
0
  6
CONTINUOUS
  2
*U32
 10
0.0
 20
0.0
 30
0.0
  0
INSERT
  5
258
  8
0
  6
CONTINUOUS
  2
*U33
 10
0.0
 20
0.0
 30
0.0
  0
INSERT
  5
259
  8
0
  6
CONTINUOUS
  2
*U34
 10
0.0
 20
0.0
 30
0.0
  0
INSERT
  5
25A
  8
0
  6
CONTINUOUS
  2
*U35
 10
0.0
 20
0.0
 30
0.0
  0
INSERT
  5
25B
  8
0
  6
CONTINUOUS
  2
*U36
 10
0.0
 20
0.0
 30
0.0
  0
INSERT
  5
25C
  8
0
  6
CONTINUOUS
  2
*U37
 10
0.0
 20
0.0
 30
0.0
  0
INSERT
  5
25D
  8
0
  6
CONTINUOUS
  2
*U38
 10
0.0
 20
0.0
 30
0.0
  0
INSERT
  5
25E
  8
0
  6
CONTINUOUS
  2
*U39
 10
0.0
 20
0.0
 30
0.0
  0
INSERT
  5
25F
  8
0
  6
CONTINUOUS
  2
*U40
 10
0.0
 20
0.0
 30
0.0
  0
INSERT
  5
260
  8
0
  6
CONTINUOUS
  2
*U41
 10
0.0
 20
0.0
 30
0.0
  0
LINE
  5
261
  8
┌▓È_1
 10
955.10255256879998
 20
-318.94468048369998
 30
0.0
 11
1112.1025525688001
 21
-318.94468048369998
 31
0.0
  0
LINE
  5
262
  8
┌▓È_1
 10
955.10255256879998
 20
-328.94468048369998
 30
0.0
 11
1112.1025525688001
 21
-328.94468048369998
 31
0.0
  0
LINE
  5
263
  8
┌▓È_1
 10
955.10255256879998
 20
-338.94468048369998
 30
0.0
 11
1112.1025525688001
 21
-338.94468048369998
 31
0.0
  0
LINE
  5
264
  8
┌▓È_1
 10
955.10255256879998
 20
-348.9446804837001
 30
0.0
 11
1112.1025525688001
 21
-348.9446804837001
 31
0.0
  0
LINE
  5
265
  8
┌▓È_1
 10
972.10255256879998
 20
-358.94468048369998
 30
0.0
 11
972.10255256879998
 21
-318.94468048369998
 31
0.0
  0
LINE
  5
266
  8
┌▓È_1
 10
955.10255256879998
 20
-318.94468048369998
 30
0.0
 11
955.10255256879998
 21
-358.94468048369998
 31
0.0
  0
LINE
  5
267
  8
┌▓È_1
 62
     5
 10
1048.6582166141
 20
-257.44430620579999
 30
0.0
 11
1046.1582166141
 21
-257.44430620579999
 31
0.0
  0
LINE
  5
268
  8
┌▓È_1
 62
     5
 10
1048.6582166141
 20
-256.9443062058001
 30
0.0
 11
1046.1582166141
 21
-256.9443062058001
 31
0.0
  0
LINE
  5
269
  8
┌▓È_1
 62
     5
 10
1046.1582166141
 20
-256.9443062058001
 30
0.0
 11
1046.1582166141
 21
-257.44430620579999
 31
0.0
  0
LINE
  5
26A
  8
┌▓È_1
 62
     5
 10
944.49695530079998
 20
-398.88840373670001
 30
0.0
 11
944.49695530079998
 21
-398.0884037367
 31
0.0
  0
LINE
  5
26B
  8
┌▓È_1
 62
     5
 10
983.02189723499987
 20
-407.68840373669991
 30
0.0
 11
987.501897235
 21
-407.68840373669991
 31
0.0
  0
LINE
  5
26C
  8
┌▓È_1
 62
     5
 10
954.0969553008
 20
-398.88840373670001
 30
0.0
 11
954.0969553008
 21
-401.28840373669988
 31
0.0
  0
LINE
  5
26D
  8
┌▓È_1
 62
     5
 10
938.65518920229999
 20
-398.88840373670001
 30
0.0
 11
938.65518920229999
 21
-401.28840373669988
 31
0.0
  0
LINE
  5
26E
  8
┌▓È_1
 62
     5
 10
958.35392499779994
 20
-399.91915659270001
 30
0.0
 11
958.35392499779994
 21
-399.40378016469998
 31
0.0
  0
LINE
  5
26F
  8
┌▓È_1
 62
     5
 10
964.75392499780014
 20
-399.40378016469998
 30
0.0
 11
963.84882831789992
 21
-400.30887684459998
 31
0.0
  0
LINE
  5
270
  8
┌▓È_1
 10
936.10255256880009
 20
-358.94468048369998
 30
0.0
 11
936.10255256880009
 21
-392.9446804837001
 31
0.0
  0
LINE
  5
271
  8
┌▓È_1
 10
1052.1025525688001
 20
-358.94468048369998
 30
0.0
 11
1052.1025525688001
 21
-318.94468048369998
 31
0.0
  0
LINE
  5
272
  8
┌▓È_1
 10
1072.1025525688001
 20
-358.94468048369998
 30
0.0
 11
1072.1025525688001
 21
-318.94468048369998
 31
0.0
  0
LINE
  5
273
  8
┌▓È_1
 62
     5
 10
989.15821661410007
 20
-213.50578599799999
 30
0.0
 11
1011.6254630348
 21
-213.50578599799999
 31
0.0
  0
LINE
  5
274
  8
┌▓È_1
 62
     5
 10
989.15821661410007
 20
-213.00578599799999
 30
0.0
 11
1011.6254630348
 21
-213.00578599799999
 31
0.0
  0
ARC
  5
275
  8
┌▓È_1
 62
     5
 10
1011.6254630348
 20
-213.50578599799999
 30
0.0
 40
0.5
 50
82.504142360300008
 51
90.0
  0
LINE
  5
276
  8
┌▓È_1
 62
     5
 10
1049.1582166141
 20
-225.00578599799999
 30
0.0
 11
1049.6582166141
 21
-225.00578599799999
 31
0.0
  0
LINE
  5
277
  8
┌▓È_1
 62
     5
 10
1011.6254630348
 20
-213.50578599799999
 30
0.0
 11
1049.1582166141
 21
-218.44430620579999
 31
0.0
  0
LINE
  5
278
  8
┌▓È_1
 62
     5
 10
1049.1582166141
 20
-218.44430620579999
 30
0.0
 11
1049.1582166141
 21
-225.00578599799999
 31
0.0
  0
LINE
  5
279
  8
┌▓È_1
 62
     5
 10
1049.1582166141
 20
-218.44430620579999
 30
0.0
 11
1048.6582166141
 21
-218.44430620579999
 31
0.0
  0
LINE
  5
27A
  8
┌▓È_1
 62
     5
 10
1048.6582166141
 20
-218.44430620579999
 30
0.0
 11
1048.6582166141
 21
-256.9443062058001
 31
0.0
  0
LINE
  5
27B
  8
┌▓È_1
 62
     5
 10
1049.1582166141
 20
-218.44430620579999
 30
0.0
 11
1049.1582166141
 21
-256.9443062058001
 31
0.0
  0
ARC
  5
27C
  8
┌▓È_1
 62
     5
 10
1048.6582166141
 20
-256.9443062058001
 30
0.0
 40
0.5
 50
270.0
 51
0.0
  0
LINE
  5
27D
  8
┌▓È_1
 62
     5
 10
989.15821661410007
 20
-214.305785998
 30
0.0
 11
989.15821661410007
 21
-214.805785998
 31
0.0
  0
LINE
  5
27E
  8
┌▓È_1
 62
     5
 10
989.15821661410007
 20
-214.805785998
 30
0.0
 11
1011.5403037285
 21
-214.805785998
 31
0.0
  0
LINE
  5
27F
  8
┌▓È_1
 62
     5
 10
1045.9582166140999
 20
-218.83014906459999
 30
0.0
 11
1045.9254630348
 21
-219.33014906459999
 31
0.0
  0
LINE
  5
280
  8
┌▓È_1
 62
     5
 10
1011.5403037285
 20
-214.805785998
 30
0.0
 11
1045.9254630348
 21
-219.33014906459999
 31
0.0
  0
LINE
  5
281
  8
┌▓È_1
 62
     5
 10
989.15821661410007
 20
-214.305785998
 30
0.0
 11
1011.5403039167001
 21
-214.305785998
 31
0.0
  0
ARC
  5
282
  8
┌▓È_1
 62
     5
 10
1011.5403037285
 20
-214.805785998
 30
0.0
 40
0.5
 50
82.504138818400008
 51
89.999978437600021
  0
INSERT
  5
283
  8
0
  6
CONTINUOUS
  2
*U42
 10
0.0
 20
0.0
 30
0.0
  0
INSERT
  5
284
  8
0
  6
CONTINUOUS
  2
*U43
 10
0.0
 20
0.0
 30
0.0
  0
INSERT
  5
285
  8
0
  6
CONTINUOUS
  2
*U44
 10
0.0
 20
0.0
 30
0.0
  0
INSERT
  5
286
  8
0
  6
CONTINUOUS
  2
*U45
 10
0.0
 20
0.0
 30
0.0
  0
INSERT
  5
287
  8
0
  6
CONTINUOUS
  2
*U46
 10
0.0
 20
0.0
 30
0.0
  0
INSERT
  5
288
  8
0
  6
CONTINUOUS
  2
*U47
 10
0.0
 20
0.0
 30
0.0
  0
INSERT
  5
289
  8
0
  6
CONTINUOUS
  2
*U48
 10
0.0
 20
0.0
 30
0.0
  0
INSERT
  5
28A
  8
0
  6
CONTINUOUS
  2
*U49
 10
0.0
 20
0.0
 30
0.0
  0
INSERT
  5
28B
  8
0
  6
CONTINUOUS
  2
*U50
 10
0.0
 20
0.0
 30
0.0
  0
INSERT
  5
28C
  8
0
  6
CONTINUOUS
  2
*U51
 10
0.0
 20
0.0
 30
0.0
  0
INSERT
  5
28D
  8
0
  6
CONTINUOUS
  2
*U52
 10
0.0
 20
0.0
 30
0.0
  0
LINE
  5
28E
  8
┌▓È_1
 62
     5
 10
984.83144020470002
 20
-398.4084037367
 30
0.0
 11
990.70189723500005
 21
-398.4084037367
 31
0.0
  0
LINE
  5
28F
  8
┌▓È_1
 62
     5
 10
980.29976390169998
 20
-398.4084037367
 30
0.0
 11
979.501897235
 21
-395.68840373670002
 31
0.0
  0
LINE
  5
290
  8
┌▓È_1
 62
     5
 10
940.49695530079987
 20
-395.68840373670002
 30
0.0
 11
940.49695530079987
 21
-398.88840373670001
 31
0.0
  0
LINE
  5
291
  8
┌▓È_1
 62
     5
 10
944.49695530079998
 20
-398.0884037367
 30
0.0
 11
946.89695530080007
 21
-395.68840373670002
 31
0.0
  0
LINE
  5
292
  8
┌▓È_1
 62
     5
 10
946.89695530080007
 20
-395.68840373670002
 30
0.0
 11
940.49695530079987
 21
-395.68840373670002
 31
0.0
  0
LINE
  5
293
  8
┌▓È_1
 62
     5
 10
947.69695530080003
 20
-398.88840373670001
 30
0.0
 11
944.49695530079998
 21
-398.88840373670001
 31
0.0
  0
LINE
  5
294
  8
┌▓È_1
 62
     5
 10
984.59720940429997
 20
-397.59443751200001
 30
0.0
 11
985.90189723499998
 21
-395.68840373670002
 31
0.0
  0
LINE
  5
295
  8
┌▓È_1
 62
     5
 10
562.10255256879998
 20
-409.94468048369998
 30
0.0
 11
562.10255256879998
 21
-29.944680483700001
 31
0.0
  0
LINE
  5
296
  8
┌▓È_1
 62
     5
 10
562.10255256879998
 20
-409.94468048369998
 30
0.0
 11
1112.1025525688001
 21
-409.94468048369998
 31
0.0
  0
LINE
  5
297
  8
┌▓È_1
 62
     5
 10
562.10255256879998
 20
-29.944680483700001
 30
0.0
 11
1112.1025525688001
 21
-29.944680483700001
 31
0.0
  0
LINE
  5
298
  8
┌▓È_1
 62
     5
 10
1112.1025525688001
 20
-409.94468048369998
 30
0.0
 11
1112.1025525688001
 21
-29.944680483700001
 31
0.0
  0
INSERT
  5
299
  8
0
  6
CONTINUOUS
  2
*U53
 10
0.0
 20
0.0
 30
0.0
  0
INSERT
  5
29A
  8
0
  6
CONTINUOUS
  2
*U54
 10
0.0
 20
0.0
 30
0.0
  0
LINE
  5
29B
  8
┌▓È_1
 62
     5
 10
958.35392499779994
 20
-406.8884037366999
 30
0.0
 11
958.35392499779994
 21
-404.48840373669992
 31
0.0
  0
LINE
  5
29C
  8
┌▓È_1
 10
968.10255256880009
 20
-367.44468048369998
 30
0.0
 11
1000.1025525688
 21
-367.44468048369998
 31
0.0
  0
LINE
  5
29D
  8
┌▓È_1
 62
     5
 10
990.70189723500005
 20
-398.4084037367
 30
0.0
 11
990.70189723500005
 21
-401.28840373669988
 31
0.0
  0
LINE
  5
29E
  8
┌▓È_1
 62
     5
 10
958.35392499779994
 20
-398.56840373670002
 30
0.0
 11
966.35392499779994
 21
-398.56840373670002
 31
0.0
  0
LINE
  5
29F
  8
┌▓È_1
 62
     5
 10
945.29695530080005
 20
-404.48840373669992
 30
0.0
 11
940.49695530079987
 21
-404.48840373669992
 31
0.0
  0
LINE
  5
2A0
  8
┌▓È_1
 62
     5
 10
983.02189723499987
 20
-407.68840373669991
 30
0.0
 11
982.36483056839995
 21
-405.4484037366999
 31
0.0
  0
LINE
  5
2A1
  8
┌▓È_1
 62
     5
 10
986.02854163210009
 20
-402.56840373669991
 30
0.0
 11
985.66020273139998
 21
-401.28840373669988
 31
0.0
  0
LINE
  5
2A2
  8
┌▓È_1
 62
     5
 10
940.49695530079987
 20
-404.48840373669992
 30
0.0
 11
940.49695530079987
 21
-406.8884037366999
 31
0.0
  0
LINE
  5
2A3
  8
┌▓È_1
 62
     5
 10
940.49695530079987
 20
-401.28840373669988
 30
0.0
 11
940.25518920229979
 21
-401.28840373669988
 31
0.0
  0
LINE
  5
2A4
  8
┌▓È_1
 62
     5
 10
972.75392499780014
 20
-404.48840373669992
 30
0.0
 11
972.75392499780014
 21
-406.8884037366999
 31
0.0
  0
LINE
  5
2A5
  8
┌▓È_1
 62
     5
 10
990.70189723500005
 20
-402.56840373669991
 30
0.0
 11
990.70189723500005
 21
-405.4484037366999
 31
0.0
  0
LINE
  5
2A6
  8
┌▓È_1
 62
     5
 10
940.49695530079987
 20
-398.88840373670001
 30
0.0
 11
938.65518920229999
 21
-398.88840373670001
 31
0.0
  0
LINE
  5
2A7
  8
┌▓È_1
 62
     5
 10
972.75392499780014
 20
-395.68840373670002
 30
0.0
 11
958.35392499779994
 21
-395.68840373670002
 31
0.0
  0
LINE
  5
2A8
  8
┌▓È_1
 62
     5
 10
984.83144020470002
 20
-398.4084037367
 30
0.0
 11
984.59720940429997
 21
-397.59443751200001
 31
0.0
  0
LINE
  5
2A9
  8
┌▓È_1
 62
     5
 10
976.30189723499996
 20
-405.4484037366999
 30
0.0
 11
982.36483056839995
 21
-405.4484037366999
 31
0.0
  0
ARC
  5
2AA
  8
┌▓È_1
 62
     5
 10
962.35392499780005
 20
-398.0884037367
 30
0.0
 40
8.8000000000000007
 50
322.48761197969998
 51
0.0
  0
LINE
  5
2AB
  8
┌▓È_1
 62
     5
 10
986.02854163210009
 20
-402.56840373669991
 30
0.0
 11
990.70189723500005
 21
-402.56840373669991
 31
0.0
  0
LINE
  5
2AC
  8
┌▓È_1
 62
     5
 10
987.501897235
 20
-407.68840373669991
 30
0.0
 11
986.8573041587
 21
-405.4484037366999
 31
0.0
  0
LINE
  5
2AD
  8
┌▓È_1
 62
     5
 10
944.49695530079998
 20
-401.28840373669988
 30
0.0
 11
947.69695530080003
 21
-401.28840373669988
 31
0.0
  0
LINE
  5
2AE
  8
┌▓È_1
 62
     5
 10
947.69695530080003
 20
-401.28840373669988
 30
0.0
 11
947.69695530080003
 21
-402.08840373669989
 31
0.0
  0
LINE
  5
2AF
  8
┌▓È_1
 10
876.10255256880009
 20
-367.44468048369998
 30
0.0
 11
900.10255256880009
 21
-367.44468048369998
 31
0.0
  0
LINE
  5
2B0
  8
┌▓È_1
 10
908.10255256880009
 20
-367.44468048369998
 30
0.0
 11
932.10255256879998
 21
-367.44468048369998
 31
0.0
  0
LINE
  5
2B1
  8
┌▓È_1
 10
876.10255256880009
 20
-384.4446804837001
 30
0.0
 11
932.10255256879998
 21
-384.4446804837001
 31
0.0
  0
LINE
  5
2B2
  8
┌▓È_1
 10
1000.1025525688
 20
-375.9446804837001
 30
0.0
 11
1112.1025525688001
 21
-375.9446804837001
 31
0.0
  0
LINE
  5
2B3
  8
┌▓È_1
 10
872.10255256879998
 20
-358.94468048369998
 30
0.0
 11
1112.1025525688001
 21
-358.94468048369998
 31
0.0
  0
LINE
  5
2B4
  8
┌▓È_1
 10
872.10255256879998
 20
-392.9446804837001
 30
0.0
 11
1112.1025525688001
 21
-392.9446804837001
 31
0.0
  0
INSERT
  5
2B5
  8
0
  6
CONTINUOUS
  2
*U55
 10
0.0
 20
0.0
 30
0.0
  0
ARC
  5
2B6
  8
┌▓È_1
 62
     5
 10
960.27392499780001
 20
-398.4084037367
 30
0.0
 40
6.0800000000000001
 50
331.39928138329998
 51
358.49204224580001
  0
LINE
  5
2B7
  8
┌▓È_1
 62
     5
 10
958.35392499779994
 20
-406.8884037366999
 30
0.0
 11
962.35392499780005
 21
-406.8884037366999
 31
0.0
  0
LINE
  5
2B8
  8
┌▓È_1
 62
     5
 10
940.49695530079987
 20
-406.8884037366999
 30
0.0
 11
946.89695530080007
 21
-406.8884037366999
 31
0.0
  0
LINE
  5
2B9
  8
┌▓È_1
 62
     5
 10
971.15392499780012
 20
-398.0884037367
 30
0.0
 11
972.75392499780014
 21
-395.68840373670002
 31
0.0
  0
LINE
  5
2BA
  8
┌▓È_1
 62
     5
 10
979.501897235
 20
-395.68840373670002
 30
0.0
 11
985.90189723499998
 21
-395.68840373670002
 31
0.0
  0
LINE
  5
2BB
  8
┌▓È_1
 62
     5
 10
958.35392499779994
 20
-404.48840373669992
 30
0.0
 11
960.27392499780001
 21
-404.48840373669992
 31
0.0
  0
LINE
  5
2BC
  8
┌▓È_1
 62
     5
 10
958.35392499779994
 20
-404.48840373669992
 30
0.0
 11
958.35392499779994
 21
-406.8884037366999
 31
0.0
  0
ARC
  5
2BD
  8
┌▓È_1
 62
     5
 10
960.27392499780001
 20
-398.4084037367
 30
0.0
 40
6.0800000000000001
 50
270.0
 51
298.08590481520002
  0
LINE
  5
2BE
  8
┌▓È_1
 62
     5
 10
969.33427596110005
 20
-403.44701367110002
 30
0.0
 11
969.04931266539995
 21
-403.7260187018
 31
0.0
  0
LINE
  5
2BF
  8
┌▓È_1
 62
     5
 10
940.49695530079987
 20
-401.28840373669988
 30
0.0
 11
940.49695530079987
 21
-403.68840373669991
 31
0.0
  0
LINE
  5
2C0
  8
┌▓È_1
 62
     5
 10
976.30189723499996
 20
-402.56840373669991
 30
0.0
 11
981.52003056839987
 21
-402.56840373669991
 31
0.0
  0
LINE
  5
2C1
  8
┌▓È_1
 62
     5
 10
938.65518920229999
 20
-401.28840373669988
 30
0.0
 11
940.25518920229979
 21
-401.28840373669988
 31
0.0
  0
ARC
  5
2C2
  8
┌▓È_1
 62
     5
 10
962.35392499780005
 20
-398.0884037367
 30
0.0
 40
8.8000000000000007
 50
270.0
 51
302.54495885400001
  0
LINE
  5
2C3
  8
┌▓È_1
 62
     5
 10
951.69695530079991
 20
-401.28840373669988
 30
0.0
 11
954.0969553008
 21
-401.28840373669988
 31
0.0
  0
LINE
  5
2C4
  8
┌▓È_1
 10
872.10255256879998
 20
-358.94468048369998
 30
0.0
 11
872.10255256879998
 21
-409.94468048369998
 31
0.0
  0
LINE
  5
2C5
  8
┌▓È_1
 10
1000.1025525688
 20
-358.94468048369998
 30
0.0
 11
1000.1025525688
 21
-409.94468048369998
 31
0.0
  0
LINE
  5
2C6
  8
┌▓È_1
 10
904.10255256879998
 20
-358.94468048369998
 30
0.0
 11
904.10255256879998
 21
-375.9446804837001
 31
0.0
  0
LINE
  5
2C7
  8
┌▓È_1
 10
968.10255256880009
 20
-358.94468048369998
 30
0.0
 11
968.10255256880009
 21
-392.9446804837001
 31
0.0
  0
ARC
  5
2C8
  8
┌▓È_1
 62
     5
 10
946.89695530080007
 20
-402.08840373669989
 30
0.0
 40
4.7999999999999989
 50
270.0
 51
0.0
  0
LINE
  5
2C9
  8
┌▓È_1
 62
     5
 10
958.35392499779994
 20
-395.68840373670002
 30
0.0
 11
958.35392499779994
 21
-398.56840373670002
 31
0.0
  0
LINE
  5
2CA
  8
┌▓È_1
 62
     5
 10
954.0969553008
 20
-395.68840373670002
 30
0.0
 11
947.69695530080003
 21
-395.68840373670002
 31
0.0
  0
INSERT
  5
2CB
  8
0
  6
CONTINUOUS
  2
*U56
 10
0.0
 20
0.0
 30
0.0
  0
INSERT
  5
2CC
  8
0
  6
CONTINUOUS
  2
*U57
 10
0.0
 20
0.0
 30
0.0
  0
LINE
  5
2CD
  8
┌▓È_1
 10
872.10255256879998
 20
-375.9446804837001
 30
0.0
 11
968.10255256880009
 21
-375.9446804837001
 31
0.0
  0
POLYLINE
  8
┌▓È_1
  5
38C
  62
5
  66
     1
 10
0.000000
 20
0.000000
 30
0.000000
  70
     8
  0
VERTEX
  8
┌▓È_1
  5
38D
 10
958.354
 20
-399.919
 30
0.000000
  70
    32
  0
VERTEX
  8
┌▓È_1
  5
38E
 10
958.383
 20
-399.946
 30
0.000000
  70
    32
  0
VERTEX
  8
┌▓È_1
  5
38F
 10
958.412
 20
-399.972
 30
0.000000
  70
    32
  0
VERTEX
  8
┌▓È_1
  5
390
 10
958.440
 20
-399.999
 30
0.000000
  70
    32
  0
VERTEX
  8
┌▓È_1
  5
391
 10
958.469
 20
-400.025
 30
0.000000
  70
    32
  0
VERTEX
  8
┌▓È_1
  5
392
 10
958.498
 20
-400.052
 30
0.000000
  70
    32
  0
VERTEX
  8
┌▓È_1
  5
393
 10
958.527
 20
-400.079
 30
0.000000
  70
    32
  0
VERTEX
  8
┌▓È_1
  5
394
 10
958.556
 20
-400.105
 30
0.000000
  70
    32
  0
VERTEX
  8
┌▓È_1
  5
395
 10
958.584
 20
-400.132
 30
0.000000
  70
    32
  0
VERTEX
  8
┌▓È_1
  5
396
 10
958.613
 20
-400.158
 30
0.000000
  70
    32
  0
VERTEX
  8
┌▓È_1
  5
397
 10
958.642
 20
-400.185
 30
0.000000
  70
    32
  0
VERTEX
  8
┌▓È_1
  5
398
 10
958.671
 20
-400.211
 30
0.000000
  70
    32
  0
VERTEX
  8
┌▓È_1
  5
399
 10
958.700
 20
-400.238
 30
0.000000
  70
    32
  0
VERTEX
  8
┌▓È_1
  5
39A
 10
958.729
 20
-400.264
 30
0.000000
  70
    32
  0
VERTEX
  8
┌▓È_1
  5
39B
 10
958.758
 20
-400.291
 30
0.000000
  70
    32
  0
VERTEX
  8
┌▓È_1
  5
39C
 10
958.786
 20
-400.317
 30
0.000000
  70
    32
  0
VERTEX
  8
┌▓È_1
  5
39D
 10
958.815
 20
-400.344
 30
0.000000
  70
    32
  0
VERTEX
  8
┌▓È_1
  5
39E
 10
958.844
 20
-400.370
 30
0.000000
  70
    32
  0
VERTEX
  8
┌▓È_1
  5
39F
 10
958.873
 20
-400.397
 30
0.000000
  70
    32
  0
VERTEX
  8
┌▓È_1
  5
3A0
 10
958.902
 20
-400.423
 30
0.000000
  70
    32
  0
VERTEX
  8
┌▓È_1
  5
3A1
 10
958.931
 20
-400.450
 30
0.000000
  70
    32
  0
VERTEX
  8
┌▓È_1
  5
3A2
 10
958.960
 20
-400.476
 30
0.000000
  70
    32
  0
VERTEX
  8
┌▓È_1
  5
3A3
 10
958.988
 20
-400.503
 30
0.000000
  70
    32
  0
VERTEX
  8
┌▓È_1
  5
3A4
 10
959.017
 20
-400.529
 30
0.000000
  70
    32
  0
VERTEX
  8
┌▓È_1
  5
3A5
 10
959.046
 20
-400.555
 30
0.000000
  70
    32
  0
VERTEX
  8
┌▓È_1
  5
3A6
 10
959.075
 20
-400.582
 30
0.000000
  70
    32
  0
VERTEX
  8
┌▓È_1
  5
3A7
 10
959.104
 20
-400.608
 30
0.000000
  70
    32
  0
VERTEX
  8
┌▓È_1
  5
3A8
 10
959.133
 20
-400.635
 30
0.000000
  70
    32
  0
VERTEX
  8
┌▓È_1
  5
3A9
 10
959.162
 20
-400.661
 30
0.000000
  70
    32
  0
VERTEX
  8
┌▓È_1
  5
3AA
 10
959.191
 20
-400.687
 30
0.000000
  70
    32
  0
VERTEX
  8
┌▓È_1
  5
3AB
 10
959.220
 20
-400.714
 30
0.000000
  70
    32
  0
VERTEX
  8
┌▓È_1
  5
3AC
 10
959.249
 20
-400.740
 30
0.000000
  70
    32
  0
VERTEX
  8
┌▓È_1
  5
3AD
 10
959.278
 20
-400.766
 30
0.000000
  70
    32
  0
VERTEX
  8
┌▓È_1
  5
3AE
 10
959.307
 20
-400.792
 30
0.000000
  70
    32
  0
VERTEX
  8
┌▓È_1
  5
3AF
 10
959.336
 20
-400.819
 30
0.000000
  70
    32
  0
VERTEX
  8
┌▓È_1
  5
3B0
 10
959.365
 20
-400.845
 30
0.000000
  70
    32
  0
VERTEX
  8
┌▓È_1
  5
3B1
 10
959.394
 20
-400.871
 30
0.000000
  70
    32
  0
VERTEX
  8
┌▓È_1
  5
3B2
 10
959.423
 20
-400.897
 30
0.000000
  70
    32
  0
VERTEX
  8
┌▓È_1
  5
3B3
 10
959.452
 20
-400.924
 30
0.000000
  70
    32
  0
VERTEX
  8
┌▓È_1
  5
3B4
 10
959.481
 20
-400.950
 30
0.000000
  70
    32
  0
VERTEX
  8
┌▓È_1
  5
3B5
 10
959.510
 20
-400.976
 30
0.000000
  70
    32
  0
VERTEX
  8
┌▓È_1
  5
3B6
 10
959.539
 20
-401.002
 30
0.000000
  70
    32
  0
VERTEX
  8
┌▓È_1
  5
3B7
 10
959.568
 20
-401.028
 30
0.000000
  70
    32
  0
VERTEX
  8
┌▓È_1
  5
3B8
 10
959.597
 20
-401.054
 30
0.000000
  70
    32
  0
VERTEX
  8
┌▓È_1
  5
3B9
 10
959.626
 20
-401.080
 30
0.000000
  70
    32
  0
VERTEX
  8
┌▓È_1
  5
3BA
 10
959.655
 20
-401.106
 30
0.000000
  70
    32
  0
VERTEX
  8
┌▓È_1
  5
3BB
 10
959.684
 20
-401.132
 30
0.000000
  70
    32
  0
VERTEX
  8
┌▓È_1
  5
3BC
 10
959.714
 20
-401.158
 30
0.000000
  70
    32
  0
VERTEX
  8
┌▓È_1
  5
3BD
 10
959.743
 20
-401.184
 30
0.000000
  70
    32
  0
VERTEX
  8
┌▓È_1
  5
3BE
 10
959.772
 20
-401.210
 30
0.000000
  70
    32
  0
VERTEX
  8
┌▓È_1
  5
3BF
 10
959.801
 20
-401.236
 30
0.000000
  70
    32
  0
VERTEX
  8
┌▓È_1
  5
3C0
 10
959.830
 20
-401.262
 30
0.000000
  70
    32
  0
VERTEX
  8
┌▓È_1
  5
3C1
 10
959.859
 20
-401.288
 30
0.000000
  70
    32
  0
VERTEX
  8
┌▓È_1
  5
3C2
 10
959.889
 20
-401.313
 30
0.000000
  70
    32
  0
VERTEX
  8
┌▓È_1
  5
3C3
 10
959.918
 20
-401.339
 30
0.000000
  70
    32
  0
VERTEX
  8
┌▓È_1
  5
3C4
 10
959.947
 20
-401.365
 30
0.000000
  70
    32
  0
VERTEX
  8
┌▓È_1
  5
3C5
 10
959.976
 20
-401.391
 30
0.000000
  70
    32
  0
VERTEX
  8
┌▓È_1
  5
3C6
 10
960.006
 20
-401.416
 30
0.000000
  70
    32
  0
VERTEX
  8
┌▓È_1
  5
3C7
 10
960.035
 20
-401.442
 30
0.000000
  70
    32
  0
VERTEX
  8
┌▓È_1
  5
3C8
 10
960.064
 20
-401.468
 30
0.000000
  70
    32
  0
VERTEX
  8
┌▓È_1
  5
3C9
 10
960.094
 20
-401.493
 30
0.000000
  70
    32
  0
VERTEX
  8
┌▓È_1
  5
3CA
 10
960.123
 20
-401.519
 30
0.000000
  70
    32
  0
VERTEX
  8
┌▓È_1
  5
3CB
 10
960.153
 20
-401.544
 30
0.000000
  70
    32
  0
VERTEX
  8
┌▓È_1
  5
3CC
 10
960.182
 20
-401.570
 30
0.000000
  70
    32
  0
VERTEX
  8
┌▓È_1
  5
3CD
 10
960.211
 20
-401.595
 30
0.000000
  70
    32
  0
VERTEX
  8
┌▓È_1
  5
3CE
 10
960.241
 20
-401.621
 30
0.000000
  70
    32
  0
VERTEX
  8
┌▓È_1
  5
3CF
 10
960.270
 20
-401.646
 30
0.000000
  70
    32
  0
VERTEX
  8
┌▓È_1
  5
3D0
 10
960.300
 20
-401.671
 30
0.000000
  70
    32
  0
VERTEX
  8
┌▓È_1
  5
3D1
 10
960.329
 20
-401.697
 30
0.000000
  70
    32
  0
VERTEX
  8
┌▓È_1
  5
3D2
 10
960.359
 20
-401.722
 30
0.000000
  70
    32
  0
VERTEX
  8
┌▓È_1
  5
3D3
 10
960.388
 20
-401.747
 30
0.000000
  70
    32
  0
VERTEX
  8
┌▓È_1
  5
3D4
 10
960.418
 20
-401.772
 30
0.000000
  70
    32
  0
VERTEX
  8
┌▓È_1
  5
3D5
 10
960.447
 20
-401.797
 30
0.000000
  70
    32
  0
VERTEX
  8
┌▓È_1
  5
3D6
 10
960.477
 20
-401.822
 30
0.000000
  70
    32
  0
VERTEX
  8
┌▓È_1
  5
3D7
 10
960.507
 20
-401.848
 30
0.000000
  70
    32
  0
VERTEX
  8
┌▓È_1
  5
3D8
 10
960.536
 20
-401.873
 30
0.000000
  70
    32
  0
VERTEX
  8
┌▓È_1
  5
3D9
 10
960.566
 20
-401.898
 30
0.000000
  70
    32
  0
VERTEX
  8
┌▓È_1
  5
3DA
 10
960.596
 20
-401.923
 30
0.000000
  70
    32
  0
VERTEX
  8
┌▓È_1
  5
3DB
 10
960.625
 20
-401.947
 30
0.000000
  70
    32
  0
VERTEX
  8
┌▓È_1
  5
3DC
 10
960.655
 20
-401.972
 30
0.000000
  70
    32
  0
VERTEX
  8
┌▓È_1
  5
3DD
 10
960.685
 20
-401.997
 30
0.000000
  70
    32
  0
VERTEX
  8
┌▓È_1
  5
3DE
 10
960.715
 20
-402.022
 30
0.000000
  70
    32
  0
VERTEX
  8
┌▓È_1
  5
3DF
 10
960.745
 20
-402.047
 30
0.000000
  70
    32
  0
VERTEX
  8
┌▓È_1
  5
3E0
 10
960.774
 20
-402.071
 30
0.000000
  70
    32
  0
VERTEX
  8
┌▓È_1
  5
3E1
 10
960.804
 20
-402.096
 30
0.000000
  70
    32
  0
VERTEX
  8
┌▓È_1
  5
3E2
 10
960.834
 20
-402.121
 30
0.000000
  70
    32
  0
VERTEX
  8
┌▓È_1
  5
3E3
 10
960.864
 20
-402.145
 30
0.000000
  70
    32
  0
VERTEX
  8
┌▓È_1
  5
3E4
 10
960.894
 20
-402.170
 30
0.000000
  70
    32
  0
VERTEX
  8
┌▓È_1
  5
3E5
 10
960.924
 20
-402.194
 30
0.000000
  70
    32
  0
VERTEX
  8
┌▓È_1
  5
3E6
 10
960.954
 20
-402.218
 30
0.000000
  70
    32
  0
VERTEX
  8
┌▓È_1
  5
3E7
 10
960.984
 20
-402.243
 30
0.000000
  70
    32
  0
VERTEX
  8
┌▓È_1
  5
3E8
 10
961.014
 20
-402.267
 30
0.000000
  70
    32
  0
VERTEX
  8
┌▓È_1
  5
3E9
 10
961.044
 20
-402.291
 30
0.000000
  70
    32
  0
VERTEX
  8
┌▓È_1
  5
3EA
 10
961.074
 20
-402.316
 30
0.000000
  70
    32
  0
VERTEX
  8
┌▓È_1
  5
3EB
 10
961.104
 20
-402.340
 30
0.000000
  70
    32
  0
VERTEX
  8
┌▓È_1
  5
3EC
 10
961.134
 20
-402.364
 30
0.000000
  70
    32
  0
VERTEX
  8
┌▓È_1
  5
3ED
 10
961.165
 20
-402.388
 30
0.000000
  70
    32
  0
VERTEX
  8
┌▓È_1
  5
3EE
 10
961.195
 20
-402.412
 30
0.000000
  70
    32
  0
VERTEX
  8
┌▓È_1
  5
3EF
 10
961.225
 20
-402.436
 30
0.000000
  70
    32
  0
VERTEX
  8
┌▓È_1
  5
3F0
 10
961.255
 20
-402.460
 30
0.000000
  70
    32
  0
VERTEX
  8
┌▓È_1
  5
3F1
 10
961.286
 20
-402.483
 30
0.000000
  70
    32
  0
VERTEX
  8
┌▓È_1
  5
3F2
 10
961.316
 20
-402.507
 30
0.000000
  70
    32
  0
VERTEX
  8
┌▓È_1
  5
3F3
 10
961.346
 20
-402.531
 30
0.000000
  70
    32
  0
VERTEX
  8
┌▓È_1
  5
3F4
 10
961.377
 20
-402.555
 30
0.000000
  70
    32
  0
VERTEX
  8
┌▓È_1
  5
3F5
 10
961.407
 20
-402.578
 30
0.000000
  70
    32
  0
VERTEX
  8
┌▓È_1
  5
3F6
 10
961.438
 20
-402.602
 30
0.000000
  70
    32
  0
VERTEX
  8
┌▓È_1
  5
3F7
 10
961.468
 20
-402.625
 30
0.000000
  70
    32
  0
VERTEX
  8
┌▓È_1
  5
3F8
 10
961.499
 20
-402.649
 30
0.000000
  70
    32
  0
VERTEX
  8
┌▓È_1
  5
3F9
 10
961.529
 20
-402.672
 30
0.000000
  70
    32
  0
VERTEX
  8
┌▓È_1
  5
3FA
 10
961.560
 20
-402.695
 30
0.000000
  70
    32
  0
VERTEX
  8
┌▓È_1
  5
3FB
 10
961.590
 20
-402.719
 30
0.000000
  70
    32
  0
VERTEX
  8
┌▓È_1
  5
3FC
 10
961.621
 20
-402.742
 30
0.000000
  70
    32
  0
VERTEX
  8
┌▓È_1
  5
3FD
 10
961.652
 20
-402.765
 30
0.000000
  70
    32
  0
VERTEX
  8
┌▓È_1
  5
3FE
 10
961.682
 20
-402.788
 30
0.000000
  70
    32
  0
VERTEX
  8
┌▓È_1
  5
3FF
 10
961.713
 20
-402.811
 30
0.000000
  70
    32
  0
VERTEX
  8
┌▓È_1
  5
400
 10
961.744
 20
-402.834
 30
0.000000
  70
    32
  0
VERTEX
  8
┌▓È_1
  5
401
 10
961.775
 20
-402.857
 30
0.000000
  70
    32
  0
VERTEX
  8
┌▓È_1
  5
402
 10
961.805
 20
-402.880
 30
0.000000
  70
    32
  0
VERTEX
  8
┌▓È_1
  5
403
 10
961.836
 20
-402.902
 30
0.000000
  70
    32
  0
VERTEX
  8
┌▓È_1
  5
404
 10
961.867
 20
-402.925
 30
0.000000
  70
    32
  0
VERTEX
  8
┌▓È_1
  5
405
 10
961.898
 20
-402.948
 30
0.000000
  70
    32
  0
VERTEX
  8
┌▓È_1
  5
406
 10
961.929
 20
-402.970
 30
0.000000
  70
    32
  0
VERTEX
  8
┌▓È_1
  5
407
 10
961.960
 20
-402.993
 30
0.000000
  70
    32
  0
VERTEX
  8
┌▓È_1
  5
408
 10
961.991
 20
-403.015
 30
0.000000
  70
    32
  0
VERTEX
  8
┌▓È_1
  5
409
 10
962.022
 20
-403.037
 30
0.000000
  70
    32
  0
VERTEX
  8
┌▓È_1
  5
40A
 10
962.054
 20
-403.060
 30
0.000000
  70
    32
  0
VERTEX
  8
┌▓È_1
  5
40B
 10
962.085
 20
-403.082
 30
0.000000
  70
    32
  0
VERTEX
  8
┌▓È_1
  5
40C
 10
962.116
 20
-403.104
 30
0.000000
  70
    32
  0
VERTEX
  8
┌▓È_1
  5
40D
 10
962.147
 20
-403.126
 30
0.000000
  70
    32
  0
VERTEX
  8
┌▓È_1
  5
40E
 10
962.178
 20
-403.148
 30
0.000000
  70
    32
  0
VERTEX
  8
┌▓È_1
  5
40F
 10
962.210
 20
-403.170
 30
0.000000
  70
    32
  0
VERTEX
  8
┌▓È_1
  5
410
 10
962.241
 20
-403.192
 30
0.000000
  70
    32
  0
VERTEX
  8
┌▓È_1
  5
411
 10
962.273
 20
-403.214
 30
0.000000
  70
    32
  0
VERTEX
  8
┌▓È_1
  5
412
 10
962.304
 20
-403.235
 30
0.000000
  70
    32
  0
VERTEX
  8
┌▓È_1
  5
413
 10
962.335
 20
-403.257
 30
0.000000
  70
    32
  0
VERTEX
  8
┌▓È_1
  5
414
 10
962.367
 20
-403.279
 30
0.000000
  70
    32
  0
VERTEX
  8
┌▓È_1
  5
415
 10
962.399
 20
-403.300
 30
0.000000
  70
    32
  0
VERTEX
  8
┌▓È_1
  5
416
 10
962.430
 20
-403.321
 30
0.000000
  70
    32
  0
VERTEX
  8
┌▓È_1
  5
417
 10
962.462
 20
-403.343
 30
0.000000
  70
    32
  0
VERTEX
  8
┌▓È_1
  5
418
 10
962.494
 20
-403.364
 30
0.000000
  70
    32
  0
VERTEX
  8
┌▓È_1
  5
419
 10
962.525
 20
-403.385
 30
0.000000
  70
    32
  0
VERTEX
  8
┌▓È_1
  5
41A
 10
962.557
 20
-403.406
 30
0.000000
  70
    32
  0
VERTEX
  8
┌▓È_1
  5
41B
 10
962.589
 20
-403.427
 30
0.000000
  70
    32
  0
VERTEX
  8
┌▓È_1
  5
41C
 10
962.621
 20
-403.448
 30
0.000000
  70
    32
  0
VERTEX
  8
┌▓È_1
  5
41D
 10
962.653
 20
-403.469
 30
0.000000
  70
    32
  0
VERTEX
  8
┌▓È_1
  5
41E
 10
962.685
 20
-403.490
 30
0.000000
  70
    32
  0
VERTEX
  8
┌▓È_1
  5
41F
 10
962.716
 20
-403.511
 30
0.000000
  70
    32
  0
VERTEX
  8
┌▓È_1
  5
420
 10
962.749
 20
-403.531
 30
0.000000
  70
    32
  0
VERTEX
  8
┌▓È_1
  5
421
 10
962.781
 20
-403.552
 30
0.000000
  70
    32
  0
VERTEX
  8
┌▓È_1
  5
422
 10
962.813
 20
-403.572
 30
0.000000
  70
    32
  0
VERTEX
  8
┌▓È_1
  5
423
 10
962.845
 20
-403.593
 30
0.000000
  70
    32
  0
VERTEX
  8
┌▓È_1
  5
424
 10
962.877
 20
-403.613
 30
0.000000
  70
    32
  0
VERTEX
  8
┌▓È_1
  5
425
 10
962.909
 20
-403.633
 30
0.000000
  70
    32
  0
VERTEX
  8
┌▓È_1
  5
426
 10
962.942
 20
-403.653
 30
0.000000
  70
    32
  0
VERTEX
  8
┌▓È_1
  5
427
 10
962.974
 20
-403.673
 30
0.000000
  70
    32
  0
VERTEX
  8
┌▓È_1
  5
428
 10
963.006
 20
-403.693
 30
0.000000
  70
    32
  0
VERTEX
  8
┌▓È_1
  5
429
 10
963.039
 20
-403.713
 30
0.000000
  70
    32
  0
VERTEX
  8
┌▓È_1
  5
42A
 10
963.071
 20
-403.733
 30
0.000000
  70
    32
  0
VERTEX
  8
┌▓È_1
  5
42B
 10
963.104
 20
-403.753
 30
0.000000
  70
    32
  0
VERTEX
  8
┌▓È_1
  5
42C
 10
963.136
 20
-403.772
 30
0.000000
  70
    32
  0
SEQEND
  8
┌▓È_1
  5
42D
  0
POLYLINE
  8
┌▓È_1
  5
42E
  62
5
  66
     1
 10
0.000000
 20
0.000000
 30
0.000000
  70
     8
  0
VERTEX
  8
┌▓È_1
  5
42F
 10
969.049
 20
-403.726
 30
0.000000
  70
    32
  0
VERTEX
  8
┌▓È_1
  5
430
 10
969.077
 20
-403.734
 30
0.000000
  70
    32
  0
VERTEX
  8
┌▓È_1
  5
431
 10
969.105
 20
-403.742
 30
0.000000
  70
    32
  0
VERTEX
  8
┌▓È_1
  5
432
 10
969.133
 20
-403.750
 30
0.000000
  70
    32
  0
VERTEX
  8
┌▓È_1
  5
433
 10
969.161
 20
-403.757
 30
0.000000
  70
    32
  0
VERTEX
  8
┌▓È_1
  5
434
 10
969.189
 20
-403.765
 30
0.000000
  70
    32
  0
VERTEX
  8
┌▓È_1
  5
435
 10
969.218
 20
-403.773
 30
0.000000
  70
    32
  0
VERTEX
  8
┌▓È_1
  5
436
 10
969.246
 20
-403.781
 30
0.000000
  70
    32
  0
VERTEX
  8
┌▓È_1
  5
437
 10
969.274
 20
-403.788
 30
0.000000
  70
    32
  0
VERTEX
  8
┌▓È_1
  5
438
 10
969.302
 20
-403.796
 30
0.000000
  70
    32
  0
VERTEX
  8
┌▓È_1
  5
439
 10
969.330
 20
-403.803
 30
0.000000
  70
    32
  0
VERTEX
  8
┌▓È_1
  5
43A
 10
969.359
 20
-403.811
 30
0.000000
  70
    32
  0
VERTEX
  8
┌▓È_1
  5
43B
 10
969.387
 20
-403.818
 30
0.000000
  70
    32
  0
VERTEX
  8
┌▓È_1
  5
43C
 10
969.415
 20
-403.826
 30
0.000000
  70
    32
  0
VERTEX
  8
┌▓È_1
  5
43D
 10
969.443
 20
-403.833
 30
0.000000
  70
    32
  0
VERTEX
  8
┌▓È_1
  5
43E
 10
969.472
 20
-403.840
 30
0.000000
  70
    32
  0
VERTEX
  8
┌▓È_1
  5
43F
 10
969.500
 20
-403.848
 30
0.000000
  70
    32
  0
VERTEX
  8
┌▓È_1
  5
440
 10
969.529
 20
-403.855
 30
0.000000
  70
    32
  0
VERTEX
  8
┌▓È_1
  5
441
 10
969.557
 20
-403.862
 30
0.000000
  70
    32
  0
VERTEX
  8
┌▓È_1
  5
442
 10
969.585
 20
-403.869
 30
0.000000
  70
    32
  0
VERTEX
  8
┌▓È_1
  5
443
 10
969.614
 20
-403.876
 30
0.000000
  70
    32
  0
VERTEX
  8
┌▓È_1
  5
444
 10
969.642
 20
-403.883
 30
0.000000
  70
    32
  0
VERTEX
  8
┌▓È_1
  5
445
 10
969.671
 20
-403.890
 30
0.000000
  70
    32
  0
VERTEX
  8
┌▓È_1
  5
446
 10
969.699
 20
-403.897
 30
0.000000
  70
    32
  0
VERTEX
  8
┌▓È_1
  5
447
 10
969.728
 20
-403.904
 30
0.000000
  70
    32
  0
VERTEX
  8
┌▓È_1
  5
448
 10
969.757
 20
-403.911
 30
0.000000
  70
    32
  0
VERTEX
  8
┌▓È_1
  5
449
 10
969.785
 20
-403.918
 30
0.000000
  70
    32
  0
VERTEX
  8
┌▓È_1
  5
44A
 10
969.814
 20
-403.925
 30
0.000000
  70
    32
  0
VERTEX
  8
┌▓È_1
  5
44B
 10
969.843
 20
-403.932
 30
0.000000
  70
    32
  0
VERTEX
  8
┌▓È_1
  5
44C
 10
969.871
 20
-403.939
 30
0.000000
  70
    32
  0
VERTEX
  8
┌▓È_1
  5
44D
 10
969.900
 20
-403.945
 30
0.000000
  70
    32
  0
VERTEX
  8
┌▓È_1
  5
44E
 10
969.929
 20
-403.952
 30
0.000000
  70
    32
  0
VERTEX
  8
┌▓È_1
  5
44F
 10
969.957
 20
-403.959
 30
0.000000
  70
    32
  0
VERTEX
  8
┌▓È_1
  5
450
 10
969.986
 20
-403.966
 30
0.000000
  70
    32
  0
VERTEX
  8
┌▓È_1
  5
451
 10
970.015
 20
-403.972
 30
0.000000
  70
    32
  0
VERTEX
  8
┌▓È_1
  5
452
 10
970.044
 20
-403.979
 30
0.000000
  70
    32
  0
VERTEX
  8
┌▓È_1
  5
453
 10
970.073
 20
-403.985
 30
0.000000
  70
    32
  0
VERTEX
  8
┌▓È_1
  5
454
 10
970.101
 20
-403.992
 30
0.000000
  70
    32
  0
VERTEX
  8
┌▓È_1
  5
455
 10
970.130
 20
-403.998
 30
0.000000
  70
    32
  0
VERTEX
  8
┌▓È_1
  5
456
 10
970.159
 20
-404.005
 30
0.000000
  70
    32
  0
VERTEX
  8
┌▓È_1
  5
457
 10
970.188
 20
-404.011
 30
0.000000
  70
    32
  0
VERTEX
  8
┌▓È_1
  5
458
 10
970.217
 20
-404.018
 30
0.000000
  70
    32
  0
VERTEX
  8
┌▓È_1
  5
459
 10
970.246
 20
-404.024
 30
0.000000
  70
    32
  0
VERTEX
  8
┌▓È_1
  5
45A
 10
970.275
 20
-404.030
 30
0.000000
  70
    32
  0
VERTEX
  8
┌▓È_1
  5
45B
 10
970.304
 20
-404.036
 30
0.000000
  70
    32
  0
VERTEX
  8
┌▓È_1
  5
45C
 10
970.333
 20
-404.043
 30
0.000000
  70
    32
  0
VERTEX
  8
┌▓È_1
  5
45D
 10
970.362
 20
-404.049
 30
0.000000
  70
    32
  0
VERTEX
  8
┌▓È_1
  5
45E
 10
970.391
 20
-404.055
 30
0.000000
  70
    32
  0
VERTEX
  8
┌▓È_1
  5
45F
 10
970.420
 20
-404.061
 30
0.000000
  70
    32
  0
VERTEX
  8
┌▓È_1
  5
460
 10
970.449
 20
-404.067
 30
0.000000
  70
    32
  0
VERTEX
  8
┌▓È_1
  5
461
 10
970.478
 20
-404.074
 30
0.000000
  70
    32
  0
VERTEX
  8
┌▓È_1
  5
462
 10
970.507
 20
-404.080
 30
0.000000
  70
    32
  0
VERTEX
  8
┌▓È_1
  5
463
 10
970.537
 20
-404.086
 30
0.000000
  70
    32
  0
VERTEX
  8
┌▓È_1
  5
464
 10
970.566
 20
-404.092
 30
0.000000
  70
    32
  0
VERTEX
  8
┌▓È_1
  5
465
 10
970.595
 20
-404.098
 30
0.000000
  70
    32
  0
VERTEX
  8
┌▓È_1
  5
466
 10
970.624
 20
-404.104
 30
0.000000
  70
    32
  0
VERTEX
  8
┌▓È_1
  5
467
 10
970.653
 20
-404.110
 30
0.000000
  70
    32
  0
VERTEX
  8
┌▓È_1
  5
468
 10
970.683
 20
-404.116
 30
0.000000
  70
    32
  0
VERTEX
  8
┌▓È_1
  5
469
 10
970.712
 20
-404.122
 30
0.000000
  70
    32
  0
VERTEX
  8
┌▓È_1
  5
46A
 10
970.741
 20
-404.127
 30
0.000000
  70
    32
  0
VERTEX
  8
┌▓È_1
  5
46B
 10
970.770
 20
-404.133
 30
0.000000
  70
    32
  0
VERTEX
  8
┌▓È_1
  5
46C
 10
970.800
 20
-404.139
 30
0.000000
  70
    32
  0
VERTEX
  8
┌▓È_1
  5
46D
 10
970.829
 20
-404.145
 30
0.000000
  70
    32
  0
VERTEX
  8
┌▓È_1
  5
46E
 10
970.858
 20
-404.151
 30
0.000000
  70
    32
  0
VERTEX
  8
┌▓È_1
  5
46F
 10
970.887
 20
-404.156
 30
0.000000
  70
    32
  0
VERTEX
  8
┌▓È_1
  5
470
 10
970.917
 20
-404.162
 30
0.000000
  70
    32
  0
VERTEX
  8
┌▓È_1
  5
471
 10
970.946
 20
-404.168
 30
0.000000
  70
    32
  0
VERTEX
  8
┌▓È_1
  5
472
 10
970.976
 20
-404.174
 30
0.000000
  70
    32
  0
VERTEX
  8
┌▓È_1
  5
473
 10
971.005
 20
-404.179
 30
0.000000
  70
    32
  0
VERTEX
  8
┌▓È_1
  5
474
 10
971.034
 20
-404.185
 30
0.000000
  70
    32
  0
VERTEX
  8
┌▓È_1
  5
475
 10
971.064
 20
-404.191
 30
0.000000
  70
    32
  0
VERTEX
  8
┌▓È_1
  5
476
 10
971.093
 20
-404.196
 30
0.000000
  70
    32
  0
VERTEX
  8
┌▓È_1
  5
477
 10
971.123
 20
-404.202
 30
0.000000
  70
    32
  0
VERTEX
  8
┌▓È_1
  5
478
 10
971.152
 20
-404.207
 30
0.000000
  70
    32
  0
VERTEX
  8
┌▓È_1
  5
479
 10
971.181
 20
-404.213
 30
0.000000
  70
    32
  0
VERTEX
  8
┌▓È_1
  5
47A
 10
971.211
 20
-404.218
 30
0.000000
  70
    32
  0
VERTEX
  8
┌▓È_1
  5
47B
 10
971.240
 20
-404.224
 30
0.000000
  70
    32
  0
VERTEX
  8
┌▓È_1
  5
47C
 10
971.270
 20
-404.229
 30
0.000000
  70
    32
  0
VERTEX
  8
┌▓È_1
  5
47D
 10
971.299
 20
-404.235
 30
0.000000
  70
    32
  0
VERTEX
  8
┌▓È_1
  5
47E
 10
971.329
 20
-404.240
 30
0.000000
  70
    32
  0
VERTEX
  8
┌▓È_1
  5
47F
 10
971.358
 20
-404.246
 30
0.000000
  70
    32
  0
VERTEX
  8
┌▓È_1
  5
480
 10
971.388
 20
-404.251
 30
0.000000
  70
    32
  0
VERTEX
  8
┌▓È_1
  5
481
 10
971.417
 20
-404.257
 30
0.000000
  70
    32
  0
VERTEX
  8
┌▓È_1
  5
482
 10
971.447
 20
-404.262
 30
0.000000
  70
    32
  0
VERTEX
  8
┌▓È_1
  5
483
 10
971.477
 20
-404.267
 30
0.000000
  70
    32
  0
VERTEX
  8
┌▓È_1
  5
484
 10
971.506
 20
-404.273
 30
0.000000
  70
    32
  0
VERTEX
  8
┌▓È_1
  5
485
 10
971.536
 20
-404.278
 30
0.000000
  70
    32
  0
VERTEX
  8
┌▓È_1
  5
486
 10
971.565
 20
-404.283
 30
0.000000
  70
    32
  0
VERTEX
  8
┌▓È_1
  5
487
 10
971.595
 20
-404.289
 30
0.000000
  70
    32
  0
VERTEX
  8
┌▓È_1
  5
488
 10
971.625
 20
-404.294
 30
0.000000
  70
    32
  0
VERTEX
  8
┌▓È_1
  5
489
 10
971.654
 20
-404.299
 30
0.000000
  70
    32
  0
VERTEX
  8
┌▓È_1
  5
48A
 10
971.684
 20
-404.305
 30
0.000000
  70
    32
  0
VERTEX
  8
┌▓È_1
  5
48B
 10
971.713
 20
-404.310
 30
0.000000
  70
    32
  0
VERTEX
  8
┌▓È_1
  5
48C
 10
971.743
 20
-404.315
 30
0.000000
  70
    32
  0
VERTEX
  8
┌▓È_1
  5
48D
 10
971.773
 20
-404.320
 30
0.000000
  70
    32
  0
VERTEX
  8
┌▓È_1
  5
48E
 10
971.802
 20
-404.326
 30
0.000000
  70
    32
  0
VERTEX
  8
┌▓È_1
  5
48F
 10
971.832
 20
-404.331
 30
0.000000
  70
    32
  0
VERTEX
  8
┌▓È_1
  5
490
 10
971.862
 20
-404.336
 30
0.000000
  70
    32
  0
VERTEX
  8
┌▓È_1
  5
491
 10
971.891
 20
-404.341
 30
0.000000
  70
    32
  0
VERTEX
  8
┌▓È_1
  5
492
 10
971.921
 20
-404.346
 30
0.000000
  70
    32
  0
VERTEX
  8
┌▓È_1
  5
493
 10
971.951
 20
-404.351
 30
0.000000
  70
    32
  0
VERTEX
  8
┌▓È_1
  5
494
 10
971.980
 20
-404.357
 30
0.000000
  70
    32
  0
VERTEX
  8
┌▓È_1
  5
495
 10
972.010
 20
-404.362
 30
0.000000
  70
    32
  0
VERTEX
  8
┌▓È_1
  5
496
 10
972.040
 20
-404.367
 30
0.000000
  70
    32
  0
VERTEX
  8
┌▓È_1
  5
497
 10
972.070
 20
-404.372
 30
0.000000
  70
    32
  0
VERTEX
  8
┌▓È_1
  5
498
 10
972.099
 20
-404.377
 30
0.000000
  70
    32
  0
VERTEX
  8
┌▓È_1
  5
499
 10
972.129
 20
-404.382
 30
0.000000
  70
    32
  0
VERTEX
  8
┌▓È_1
  5
49A
 10
972.159
 20
-404.387
 30
0.000000
  70
    32
  0
VERTEX
  8
┌▓È_1
  5
49B
 10
972.188
 20
-404.392
 30
0.000000
  70
    32
  0
VERTEX
  8
┌▓È_1
  5
49C
 10
972.218
 20
-404.398
 30
0.000000
  70
    32
  0
VERTEX
  8
┌▓È_1
  5
49D
 10
972.248
 20
-404.403
 30
0.000000
  70
    32
  0
VERTEX
  8
┌▓È_1
  5
49E
 10
972.278
 20
-404.408
 30
0.000000
  70
    32
  0
VERTEX
  8
┌▓È_1
  5
49F
 10
972.307
 20
-404.413
 30
0.000000
  70
    32
  0
VERTEX
  8
┌▓È_1
  5
4A0
 10
972.337
 20
-404.418
 30
0.000000
  70
    32
  0
VERTEX
  8
┌▓È_1
  5
4A1
 10
972.367
 20
-404.423
 30
0.000000
  70
    32
  0
VERTEX
  8
┌▓È_1
  5
4A2
 10
972.397
 20
-404.428
 30
0.000000
  70
    32
  0
VERTEX
  8
┌▓È_1
  5
4A3
 10
972.426
 20
-404.433
 30
0.000000
  70
    32
  0
VERTEX
  8
┌▓È_1
  5
4A4
 10
972.456
 20
-404.438
 30
0.000000
  70
    32
  0
VERTEX
  8
┌▓È_1
  5
4A5
 10
972.486
 20
-404.443
 30
0.000000
  70
    32
  0
VERTEX
  8
┌▓È_1
  5
4A6
 10
972.516
 20
-404.448
 30
0.000000
  70
    32
  0
VERTEX
  8
┌▓È_1
  5
4A7
 10
972.546
 20
-404.453
 30
0.000000
  70
    32
  0
VERTEX
  8
┌▓È_1
  5
4A8
 10
972.575
 20
-404.458
 30
0.000000
  70
    32
  0
VERTEX
  8
┌▓È_1
  5
4A9
 10
972.605
 20
-404.463
 30
0.000000
  70
    32
  0
VERTEX
  8
┌▓È_1
  5
4AA
 10
972.635
 20
-404.468
 30
0.000000
  70
    32
  0
VERTEX
  8
┌▓È_1
  5
4AB
 10
972.665
 20
-404.473
 30
0.000000
  70
    32
  0
VERTEX
  8
┌▓È_1
  5
4AC
 10
972.694
 20
-404.478
 30
0.000000
  70
    32
  0
VERTEX
  8
┌▓È_1
  5
4AD
 10
972.724
 20
-404.483
 30
0.000000
  70
    32
  0
VERTEX
  8
┌▓È_1
  5
4AE
 10
972.754
 20
-404.488
 30
0.000000
  70
    32
  0
SEQEND
  8
┌▓È_1
  5
4AF
  0
POLYLINE
  8
┌▓È_1
  5
4B0
  62
5
  66
     1
 10
0.000000
 20
0.000000
 30
0.000000
  70
     8
  0
VERTEX
  8
┌▓È_1
  5
4B1
 10
963.849
 20
-400.309
 30
0.000000
  70
    32
  0
VERTEX
  8
┌▓È_1
  5
4B2
 10
963.859
 20
-400.321
 30
0.000000
  70
    32
  0
VERTEX
  8
┌▓È_1
  5
4B3
 10
963.870
 20
-400.332
 30
0.000000
  70
    32
  0
VERTEX
  8
┌▓È_1
  5
4B4
 10
963.881
 20
-400.344
 30
0.000000
  70
    32
  0
VERTEX
  8
┌▓È_1
  5
4B5
 10
963.891
 20
-400.356
 30
0.000000
  70
    32
  0
VERTEX
  8
┌▓È_1
  5
4B6
 10
963.902
 20
-400.368
 30
0.000000
  70
    32
  0
VERTEX
  8
┌▓È_1
  5
4B7
 10
963.912
 20
-400.380
 30
0.000000
  70
    32
  0
VERTEX
  8
┌▓È_1
  5
4B8
 10
963.923
 20
-400.391
 30
0.000000
  70
    32
  0
VERTEX
  8
┌▓È_1
  5
4B9
 10
963.933
 20
-400.403
 30
0.000000
  70
    32
  0
VERTEX
  8
┌▓È_1
  5
4BA
 10
963.944
 20
-400.415
 30
0.000000
  70
    32
  0
VERTEX
  8
┌▓È_1
  5
4BB
 10
963.954
 20
-400.427
 30
0.000000
  70
    32
  0
VERTEX
  8
┌▓È_1
  5
4BC
 10
963.965
 20
-400.438
 30
0.000000
  70
    32
  0
VERTEX
  8
┌▓È_1
  5
4BD
 10
963.976
 20
-400.450
 30
0.000000
  70
    32
  0
VERTEX
  8
┌▓È_1
  5
4BE
 10
963.986
 20
-400.462
 30
0.000000
  70
    32
  0
VERTEX
  8
┌▓È_1
  5
4BF
 10
963.997
 20
-400.474
 30
0.000000
  70
    32
  0
VERTEX
  8
┌▓È_1
  5
4C0
 10
964.007
 20
-400.485
 30
0.000000
  70
    32
  0
VERTEX
  8
┌▓È_1
  5
4C1
 10
964.018
 20
-400.497
 30
0.000000
  70
    32
  0
VERTEX
  8
┌▓È_1
  5
4C2
 10
964.028
 20
-400.509
 30
0.000000
  70
    32
  0
VERTEX
  8
┌▓È_1
  5
4C3
 10
964.039
 20
-400.521
 30
0.000000
  70
    32
  0
VERTEX
  8
┌▓È_1
  5
4C4
 10
964.050
 20
-400.532
 30
0.000000
  70
    32
  0
VERTEX
  8
┌▓È_1
  5
4C5
 10
964.060
 20
-400.544
 30
0.000000
  70
    32
  0
VERTEX
  8
┌▓È_1
  5
4C6
 10
964.071
 20
-400.556
 30
0.000000
  70
    32
  0
VERTEX
  8
┌▓È_1
  5
4C7
 10
964.081
 20
-400.568
 30
0.000000
  70
    32
  0
VERTEX
  8
┌▓È_1
  5
4C8
 10
964.092
 20
-400.579
 30
0.000000
  70
    32
  0
VERTEX
  8
┌▓È_1
  5
4C9
 10
964.102
 20
-400.591
 30
0.000000
  70
    32
  0
VERTEX
  8
┌▓È_1
  5
4CA
 10
964.113
 20
-400.603
 30
0.000000
  70
    32
  0
VERTEX
  8
┌▓È_1
  5
4CB
 10
964.124
 20
-400.614
 30
0.000000
  70
    32
  0
VERTEX
  8
┌▓È_1
  5
4CC
 10
964.134
 20
-400.626
 30
0.000000
  70
    32
  0
VERTEX
  8
┌▓È_1
  5
4CD
 10
964.145
 20
-400.638
 30
0.000000
  70
    32
  0
VERTEX
  8
┌▓È_1
  5
4CE
 10
964.155
 20
-400.650
 30
0.000000
  70
    32
  0
VERTEX
  8
┌▓È_1
  5
4CF
 10
964.166
 20
-400.661
 30
0.000000
  70
    32
  0
VERTEX
  8
┌▓È_1
  5
4D0
 10
964.177
 20
-400.673
 30
0.000000
  70
    32
  0
VERTEX
  8
┌▓È_1
  5
4D1
 10
964.187
 20
-400.685
 30
0.000000
  70
    32
  0
VERTEX
  8
┌▓È_1
  5
4D2
 10
964.198
 20
-400.696
 30
0.000000
  70
    32
  0
VERTEX
  8
┌▓È_1
  5
4D3
 10
964.209
 20
-400.708
 30
0.000000
  70
    32
  0
VERTEX
  8
┌▓È_1
  5
4D4
 10
964.219
 20
-400.720
 30
0.000000
  70
    32
  0
VERTEX
  8
┌▓È_1
  5
4D5
 10
964.230
 20
-400.731
 30
0.000000
  70
    32
  0
VERTEX
  8
┌▓È_1
  5
4D6
 10
964.240
 20
-400.743
 30
0.000000
  70
    32
  0
VERTEX
  8
┌▓È_1
  5
4D7
 10
964.251
 20
-400.755
 30
0.000000
  70
    32
  0
VERTEX
  8
┌▓È_1
  5
4D8
 10
964.262
 20
-400.766
 30
0.000000
  70
    32
  0
VERTEX
  8
┌▓È_1
  5
4D9
 10
964.272
 20
-400.778
 30
0.000000
  70
    32
  0
VERTEX
  8
┌▓È_1
  5
4DA
 10
964.283
 20
-400.790
 30
0.000000
  70
    32
  0
VERTEX
  8
┌▓È_1
  5
4DB
 10
964.294
 20
-400.801
 30
0.000000
  70
    32
  0
VERTEX
  8
┌▓È_1
  5
4DC
 10
964.304
 20
-400.813
 30
0.000000
  70
    32
  0
VERTEX
  8
┌▓È_1
  5
4DD
 10
964.315
 20
-400.824
 30
0.000000
  70
    32
  0
VERTEX
  8
┌▓È_1
  5
4DE
 10
964.326
 20
-400.836
 30
0.000000
  70
    32
  0
VERTEX
  8
┌▓È_1
  5
4DF
 10
964.336
 20
-400.848
 30
0.000000
  70
    32
  0
VERTEX
  8
┌▓È_1
  5
4E0
 10
964.347
 20
-400.859
 30
0.000000
  70
    32
  0
VERTEX
  8
┌▓È_1
  5
4E1
 10
964.358
 20
-400.871
 30
0.000000
  70
    32
  0
VERTEX
  8
┌▓È_1
  5
4E2
 10
964.368
 20
-400.882
 30
0.000000
  70
    32
  0
VERTEX
  8
┌▓È_1
  5
4E3
 10
964.379
 20
-400.894
 30
0.000000
  70
    32
  0
VERTEX
  8
┌▓È_1
  5
4E4
 10
964.390
 20
-400.905
 30
0.000000
  70
    32
  0
VERTEX
  8
┌▓È_1
  5
4E5
 10
964.400
 20
-400.917
 30
0.000000
  70
    32
  0
VERTEX
  8
┌▓È_1
  5
4E6
 10
964.411
 20
-400.928
 30
0.000000
  70
    32
  0
VERTEX
  8
┌▓È_1
  5
4E7
 10
964.422
 20
-400.940
 30
0.000000
  70
    32
  0
VERTEX
  8
┌▓È_1
  5
4E8
 10
964.433
 20
-400.952
 30
0.000000
  70
    32
  0
VERTEX
  8
┌▓È_1
  5
4E9
 10
964.443
 20
-400.963
 30
0.000000
  70
    32
  0
VERTEX
  8
┌▓È_1
  5
4EA
 10
964.454
 20
-400.975
 30
0.000000
  70
    32
  0
VERTEX
  8
┌▓È_1
  5
4EB
 10
964.465
 20
-400.986
 30
0.000000
  70
    32
  0
VERTEX
  8
┌▓È_1
  5
4EC
 10
964.476
 20
-400.997
 30
0.000000
  70
    32
  0
VERTEX
  8
┌▓È_1
  5
4ED
 10
964.486
 20
-401.009
 30
0.000000
  70
    32
  0
VERTEX
  8
┌▓È_1
  5
4EE
 10
964.497
 20
-401.020
 30
0.000000
  70
    32
  0
VERTEX
  8
┌▓È_1
  5
4EF
 10
964.508
 20
-401.032
 30
0.000000
  70
    32
  0
VERTEX
  8
┌▓È_1
  5
4F0
 10
964.519
 20
-401.043
 30
0.000000
  70
    32
  0
VERTEX
  8
┌▓È_1
  5
4F1
 10
964.529
 20
-401.055
 30
0.000000
  70
    32
  0
VERTEX
  8
┌▓È_1
  5
4F2
 10
964.540
 20
-401.066
 30
0.000000
  70
    32
  0
VERTEX
  8
┌▓È_1
  5
4F3
 10
964.551
 20
-401.077
 30
0.000000
  70
    32
  0
VERTEX
  8
┌▓È_1
  5
4F4
 10
964.562
 20
-401.089
 30
0.000000
  70
    32
  0
VERTEX
  8
┌▓È_1
  5
4F5
 10
964.573
 20
-401.100
 30
0.000000
  70
    32
  0
VERTEX
  8
┌▓È_1
  5
4F6
 10
964.583
 20
-401.112
 30
0.000000
  70
    32
  0
VERTEX
  8
┌▓È_1
  5
4F7
 10
964.594
 20
-401.123
 30
0.000000
  70
    32
  0
VERTEX
  8
┌▓È_1
  5
4F8
 10
964.605
 20
-401.134
 30
0.000000
  70
    32
  0
VERTEX
  8
┌▓È_1
  5
4F9
 10
964.616
 20
-401.146
 30
0.000000
  70
    32
  0
VERTEX
  8
┌▓È_1
  5
4FA
 10
964.627
 20
-401.157
 30
0.000000
  70
    32
  0
VERTEX
  8
┌▓È_1
  5
4FB
 10
964.638
 20
-401.168
 30
0.000000
  70
    32
  0
VERTEX
  8
┌▓È_1
  5
4FC
 10
964.648
 20
-401.180
 30
0.000000
  70
    32
  0
VERTEX
  8
┌▓È_1
  5
4FD
 10
964.659
 20
-401.191
 30
0.000000
  70
    32
  0
VERTEX
  8
┌▓È_1
  5
4FE
 10
964.670
 20
-401.202
 30
0.000000
  70
    32
  0
VERTEX
  8
┌▓È_1
  5
4FF
 10
964.681
 20
-401.213
 30
0.000000
  70
    32
  0
VERTEX
  8
┌▓È_1
  5
500
 10
964.692
 20
-401.225
 30
0.000000
  70
    32
  0
VERTEX
  8
┌▓È_1
  5
501
 10
964.703
 20
-401.236
 30
0.000000
  70
    32
  0
VERTEX
  8
┌▓È_1
  5
502
 10
964.714
 20
-401.247
 30
0.000000
  70
    32
  0
VERTEX
  8
┌▓È_1
  5
503
 10
964.725
 20
-401.258
 30
0.000000
  70
    32
  0
VERTEX
  8
┌▓È_1
  5
504
 10
964.736
 20
-401.269
 30
0.000000
  70
    32
  0
VERTEX
  8
┌▓È_1
  5
505
 10
964.747
 20
-401.280
 30
0.000000
  70
    32
  0
VERTEX
  8
┌▓È_1
  5
506
 10
964.758
 20
-401.292
 30
0.000000
  70
    32
  0
VERTEX
  8
┌▓È_1
  5
507
 10
964.768
 20
-401.303
 30
0.000000
  70
    32
  0
VERTEX
  8
┌▓È_1
  5
508
 10
964.779
 20
-401.314
 30
0.000000
  70
    32
  0
VERTEX
  8
┌▓È_1
  5
509
 10
964.790
 20
-401.325
 30
0.000000
  70
    32
  0
VERTEX
  8
┌▓È_1
  5
50A
 10
964.801
 20
-401.336
 30
0.000000
  70
    32
  0
VERTEX
  8
┌▓È_1
  5
50B
 10
964.812
 20
-401.347
 30
0.000000
  70
    32
  0
VERTEX
  8
┌▓È_1
  5
50C
 10
964.823
 20
-401.358
 30
0.000000
  70
    32
  0
VERTEX
  8
┌▓È_1
  5
50D
 10
964.834
 20
-401.369
 30
0.000000
  70
    32
  0
VERTEX
  8
┌▓È_1
  5
50E
 10
964.845
 20
-401.380
 30
0.000000
  70
    32
  0
VERTEX
  8
┌▓È_1
  5
50F
 10
964.856
 20
-401.391
 30
0.000000
  70
    32
  0
VERTEX
  8
┌▓È_1
  5
510
 10
964.868
 20
-401.402
 30
0.000000
  70
    32
  0
VERTEX
  8
┌▓È_1
  5
511
 10
964.879
 20
-401.413
 30
0.000000
  70
    32
  0
VERTEX
  8
┌▓È_1
  5
512
 10
964.890
 20
-401.424
 30
0.000000
  70
    32
  0
VERTEX
  8
┌▓È_1
  5
513
 10
964.901
 20
-401.435
 30
0.000000
  70
    32
  0
VERTEX
  8
┌▓È_1
  5
514
 10
964.912
 20
-401.446
 30
0.000000
  70
    32
  0
VERTEX
  8
┌▓È_1
  5
515
 10
964.923
 20
-401.457
 30
0.000000
  70
    32
  0
VERTEX
  8
┌▓È_1
  5
516
 10
964.934
 20
-401.468
 30
0.000000
  70
    32
  0
VERTEX
  8
┌▓È_1
  5
517
 10
964.945
 20
-401.479
 30
0.000000
  70
    32
  0
VERTEX
  8
┌▓È_1
  5
518
 10
964.956
 20
-401.490
 30
0.000000
  70
    32
  0
VERTEX
  8
┌▓È_1
  5
519
 10
964.967
 20
-401.500
 30
0.000000
  70
    32
  0
VERTEX
  8
┌▓È_1
  5
51A
 10
964.979
 20
-401.511
 30
0.000000
  70
    32
  0
VERTEX
  8
┌▓È_1
  5
51B
 10
964.990
 20
-401.522
 30
0.000000
  70
    32
  0
VERTEX
  8
┌▓È_1
  5
51C
 10
965.001
 20
-401.533
 30
0.000000
  70
    32
  0
VERTEX
  8
┌▓È_1
  5
51D
 10
965.012
 20
-401.544
 30
0.000000
  70
    32
  0
VERTEX
  8
┌▓È_1
  5
51E
 10
965.023
 20
-401.554
 30
0.000000
  70
    32
  0
VERTEX
  8
┌▓È_1
  5
51F
 10
965.035
 20
-401.565
 30
0.000000
  70
    32
  0
VERTEX
  8
┌▓È_1
  5
520
 10
965.046
 20
-401.576
 30
0.000000
  70
    32
  0
VERTEX
  8
┌▓È_1
  5
521
 10
965.057
 20
-401.586
 30
0.000000
  70
    32
  0
VERTEX
  8
┌▓È_1
  5
522
 10
965.068
 20
-401.597
 30
0.000000
  70
    32
  0
VERTEX
  8
┌▓È_1
  5
523
 10
965.079
 20
-401.608
 30
0.000000
  70
    32
  0
VERTEX
  8
┌▓È_1
  5
524
 10
965.091
 20
-401.618
 30
0.000000
  70
    32
  0
VERTEX
  8
┌▓È_1
  5
525
 10
965.102
 20
-401.629
 30
0.000000
  70
    32
  0
VERTEX
  8
┌▓È_1
  5
526
 10
965.113
 20
-401.639
 30
0.000000
  70
    32
  0
VERTEX
  8
┌▓È_1
  5
527
 10
965.125
 20
-401.650
 30
0.000000
  70
    32
  0
VERTEX
  8
┌▓È_1
  5
528
 10
965.136
 20
-401.661
 30
0.000000
  70
    32
  0
VERTEX
  8
┌▓È_1
  5
529
 10
965.147
 20
-401.671
 30
0.000000
  70
    32
  0
VERTEX
  8
┌▓È_1
  5
52A
 10
965.159
 20
-401.682
 30
0.000000
  70
    32
  0
VERTEX
  8
┌▓È_1
  5
52B
 10
965.170
 20
-401.692
 30
0.000000
  70
    32
  0
VERTEX
  8
┌▓È_1
  5
52C
 10
965.181
 20
-401.702
 30
0.000000
  70
    32
  0
VERTEX
  8
┌▓È_1
  5
52D
 10
965.193
 20
-401.713
 30
0.000000
  70
    32
  0
VERTEX
  8
┌▓È_1
  5
52E
 10
965.204
 20
-401.723
 30
0.000000
  70
    32
  0
VERTEX
  8
┌▓È_1
  5
52F
 10
965.216
 20
-401.734
 30
0.000000
  70
    32
  0
VERTEX
  8
┌▓È_1
  5
530
 10
965.227
 20
-401.744
 30
0.000000
  70
    32
  0
SEQEND
  8
┌▓È_1
  5
531
  0
POLYLINE
  8
┌▓È_1
  5
532
  62
5
  66
     1
 10
0.000000
 20
0.000000
 30
0.000000
  70
     8
  0
VERTEX
  8
┌▓È_1
  5
533
 10
967.088
 20
-405.507
 30
0.000000
  70
    32
  0
VERTEX
  8
┌▓È_1
  5
534
 10
967.131
 20
-405.520
 30
0.000000
  70
    32
  0
VERTEX
  8
┌▓È_1
  5
535
 10
967.174
 20
-405.534
 30
0.000000
  70
    32
  0
VERTEX
  8
┌▓È_1
  5
536
 10
967.217
 20
-405.548
 30
0.000000
  70
    32
  0
VERTEX
  8
┌▓È_1
  5
537
 10
967.260
 20
-405.561
 30
0.000000
  70
    32
  0
VERTEX
  8
┌▓È_1
  5
538
 10
967.304
 20
-405.575
 30
0.000000
  70
    32
  0
VERTEX
  8
┌▓È_1
  5
539
 10
967.347
 20
-405.588
 30
0.000000
  70
    32
  0
VERTEX
  8
┌▓È_1
  5
53A
 10
967.390
 20
-405.601
 30
0.000000
  70
    32
  0
VERTEX
  8
┌▓È_1
  5
53B
 10
967.434
 20
-405.615
 30
0.000000
  70
    32
  0
VERTEX
  8
┌▓È_1
  5
53C
 10
967.477
 20
-405.628
 30
0.000000
  70
    32
  0
VERTEX
  8
┌▓È_1
  5
53D
 10
967.520
 20
-405.641
 30
0.000000
  70
    32
  0
VERTEX
  8
┌▓È_1
  5
53E
 10
967.564
 20
-405.654
 30
0.000000
  70
    32
  0
VERTEX
  8
┌▓È_1
  5
53F
 10
967.607
 20
-405.667
 30
0.000000
  70
    32
  0
VERTEX
  8
┌▓È_1
  5
540
 10
967.651
 20
-405.680
 30
0.000000
  70
    32
  0
VERTEX
  8
┌▓È_1
  5
541
 10
967.694
 20
-405.693
 30
0.000000
  70
    32
  0
VERTEX
  8
┌▓È_1
  5
542
 10
967.738
 20
-405.706
 30
0.000000
  70
    32
  0
VERTEX
  8
┌▓È_1
  5
543
 10
967.781
 20
-405.718
 30
0.000000
  70
    32
  0
VERTEX
  8
┌▓È_1
  5
544
 10
967.825
 20
-405.731
 30
0.000000
  70
    32
  0
VERTEX
  8
┌▓È_1
  5
545
 10
967.869
 20
-405.744
 30
0.000000
  70
    32
  0
VERTEX
  8
┌▓È_1
  5
546
 10
967.912
 20
-405.756
 30
0.000000
  70
    32
  0
VERTEX
  8
┌▓È_1
  5
547
 10
967.956
 20
-405.769
 30
0.000000
  70
    32
  0
VERTEX
  8
┌▓È_1
  5
548
 10
968.000
 20
-405.781
 30
0.000000
  70
    32
  0
VERTEX
  8
┌▓È_1
  5
549
 10
968.044
 20
-405.794
 30
0.000000
  70
    32
  0
VERTEX
  8
┌▓È_1
  5
54A
 10
968.087
 20
-405.806
 30
0.000000
  70
    32
  0
VERTEX
  8
┌▓È_1
  5
54B
 10
968.131
 20
-405.819
 30
0.000000
  70
    32
  0
VERTEX
  8
┌▓È_1
  5
54C
 10
968.175
 20
-405.831
 30
0.000000
  70
    32
  0
VERTEX
  8
┌▓È_1
  5
54D
 10
968.219
 20
-405.843
 30
0.000000
  70
    32
  0
VERTEX
  8
┌▓È_1
  5
54E
 10
968.263
 20
-405.855
 30
0.000000
  70
    32
  0
VERTEX
  8
┌▓È_1
  5
54F
 10
968.307
 20
-405.867
 30
0.000000
  70
    32
  0
VERTEX
  8
┌▓È_1
  5
550
 10
968.351
 20
-405.879
 30
0.000000
  70
    32
  0
VERTEX
  8
┌▓È_1
  5
551
 10
968.395
 20
-405.891
 30
0.000000
  70
    32
  0
VERTEX
  8
┌▓È_1
  5
552
 10
968.439
 20
-405.903
 30
0.000000
  70
    32
  0
VERTEX
  8
┌▓È_1
  5
553
 10
968.483
 20
-405.915
 30
0.000000
  70
    32
  0
VERTEX
  8
┌▓È_1
  5
554
 10
968.527
 20
-405.927
 30
0.000000
  70
    32
  0
VERTEX
  8
┌▓È_1
  5
555
 10
968.571
 20
-405.939
 30
0.000000
  70
    32
  0
VERTEX
  8
┌▓È_1
  5
556
 10
968.615
 20
-405.950
 30
0.000000
  70
    32
  0
VERTEX
  8
┌▓È_1
  5
557
 10
968.660
 20
-405.962
 30
0.000000
  70
    32
  0
VERTEX
  8
┌▓È_1
  5
558
 10
968.704
 20
-405.974
 30
0.000000
  70
    32
  0
VERTEX
  8
┌▓È_1
  5
559
 10
968.748
 20
-405.985
 30
0.000000
  70
    32
  0
VERTEX
  8
┌▓È_1
  5
55A
 10
968.792
 20
-405.997
 30
0.000000
  70
    32
  0
VERTEX
  8
┌▓È_1
  5
55B
 10
968.836
 20
-406.008
 30
0.000000
  70
    32
  0
VERTEX
  8
┌▓È_1
  5
55C
 10
968.881
 20
-406.020
 30
0.000000
  70
    32
  0
VERTEX
  8
┌▓È_1
  5
55D
 10
968.925
 20
-406.031
 30
0.000000
  70
    32
  0
VERTEX
  8
┌▓È_1
  5
55E
 10
968.969
 20
-406.043
 30
0.000000
  70
    32
  0
VERTEX
  8
┌▓È_1
  5
55F
 10
969.014
 20
-406.054
 30
0.000000
  70
    32
  0
VERTEX
  8
┌▓È_1
  5
560
 10
969.058
 20
-406.065
 30
0.000000
  70
    32
  0
VERTEX
  8
┌▓È_1
  5
561
 10
969.103
 20
-406.076
 30
0.000000
  70
    32
  0
VERTEX
  8
┌▓È_1
  5
562
 10
969.147
 20
-406.088
 30
0.000000
  70
    32
  0
VERTEX
  8
┌▓È_1
  5
563
 10
969.192
 20
-406.099
 30
0.000000
  70
    32
  0
VERTEX
  8
┌▓È_1
  5
564
 10
969.236
 20
-406.110
 30
0.000000
  70
    32
  0
VERTEX
  8
┌▓È_1
  5
565
 10
969.281
 20
-406.121
 30
0.000000
  70
    32
  0
VERTEX
  8
┌▓È_1
  5
566
 10
969.325
 20
-406.132
 30
0.000000
  70
    32
  0
VERTEX
  8
┌▓È_1
  5
567
 10
969.370
 20
-406.143
 30
0.000000
  70
    32
  0
VERTEX
  8
┌▓È_1
  5
568
 10
969.414
 20
-406.154
 30
0.000000
  70
    32
  0
VERTEX
  8
┌▓È_1
  5
569
 10
969.459
 20
-406.165
 30
0.000000
  70
    32
  0
VERTEX
  8
┌▓È_1
  5
56A
 10
969.504
 20
-406.176
 30
0.000000
  70
    32
  0
VERTEX
  8
┌▓È_1
  5
56B
 10
969.548
 20
-406.186
 30
0.000000
  70
    32
  0
VERTEX
  8
┌▓È_1
  5
56C
 10
969.593
 20
-406.197
 30
0.000000
  70
    32
  0
VERTEX
  8
┌▓È_1
  5
56D
 10
969.638
 20
-406.208
 30
0.000000
  70
    32
  0
VERTEX
  8
┌▓È_1
  5
56E
 10
969.682
 20
-406.219
 30
0.000000
  70
    32
  0
VERTEX
  8
┌▓È_1
  5
56F
 10
969.727
 20
-406.229
 30
0.000000
  70
    32
  0
VERTEX
  8
┌▓È_1
  5
570
 10
969.772
 20
-406.240
 30
0.000000
  70
    32
  0
VERTEX
  8
┌▓È_1
  5
571
 10
969.817
 20
-406.250
 30
0.000000
  70
    32
  0
VERTEX
  8
┌▓È_1
  5
572
 10
969.861
 20
-406.261
 30
0.000000
  70
    32
  0
VERTEX
  8
┌▓È_1
  5
573
 10
969.906
 20
-406.271
 30
0.000000
  70
    32
  0
VERTEX
  8
┌▓È_1
  5
574
 10
969.951
 20
-406.282
 30
0.000000
  70
    32
  0
VERTEX
  8
┌▓È_1
  5
575
 10
969.996
 20
-406.292
 30
0.000000
  70
    32
  0
VERTEX
  8
┌▓È_1
  5
576
 10
970.041
 20
-406.303
 30
0.000000
  70
    32
  0
VERTEX
  8
┌▓È_1
  5
577
 10
970.086
 20
-406.313
 30
0.000000
  70
    32
  0
VERTEX
  8
┌▓È_1
  5
578
 10
970.130
 20
-406.324
 30
0.000000
  70
    32
  0
VERTEX
  8
┌▓È_1
  5
579
 10
970.175
 20
-406.334
 30
0.000000
  70
    32
  0
VERTEX
  8
┌▓È_1
  5
57A
 10
970.220
 20
-406.344
 30
0.000000
  70
    32
  0
VERTEX
  8
┌▓È_1
  5
57B
 10
970.265
 20
-406.354
 30
0.000000
  70
    32
  0
VERTEX
  8
┌▓È_1
  5
57C
 10
970.310
 20
-406.365
 30
0.000000
  70
    32
  0
VERTEX
  8
┌▓È_1
  5
57D
 10
970.355
 20
-406.375
 30
0.000000
  70
    32
  0
VERTEX
  8
┌▓È_1
  5
57E
 10
970.400
 20
-406.385
 30
0.000000
  70
    32
  0
VERTEX
  8
┌▓È_1
  5
57F
 10
970.445
 20
-406.395
 30
0.000000
  70
    32
  0
VERTEX
  8
┌▓È_1
  5
580
 10
970.490
 20
-406.405
 30
0.000000
  70
    32
  0
VERTEX
  8
┌▓È_1
  5
581
 10
970.535
 20
-406.415
 30
0.000000
  70
    32
  0
VERTEX
  8
┌▓È_1
  5
582
 10
970.580
 20
-406.426
 30
0.000000
  70
    32
  0
VERTEX
  8
┌▓È_1
  5
583
 10
970.625
 20
-406.436
 30
0.000000
  70
    32
  0
VERTEX
  8
┌▓È_1
  5
584
 10
970.670
 20
-406.446
 30
0.000000
  70
    32
  0
VERTEX
  8
┌▓È_1
  5
585
 10
970.716
 20
-406.456
 30
0.000000
  70
    32
  0
VERTEX
  8
┌▓È_1
  5
586
 10
970.761
 20
-406.466
 30
0.000000
  70
    32
  0
VERTEX
  8
┌▓È_1
  5
587
 10
970.806
 20
-406.475
 30
0.000000
  70
    32
  0
VERTEX
  8
┌▓È_1
  5
588
 10
970.851
 20
-406.485
 30
0.000000
  70
    32
  0
VERTEX
  8
┌▓È_1
  5
589
 10
970.896
 20
-406.495
 30
0.000000
  70
    32
  0
VERTEX
  8
┌▓È_1
  5
58A
 10
970.941
 20
-406.505
 30
0.000000
  70
    32
  0
VERTEX
  8
┌▓È_1
  5
58B
 10
970.986
 20
-406.515
 30
0.000000
  70
    32
  0
VERTEX
  8
┌▓È_1
  5
58C
 10
971.032
 20
-406.525
 30
0.000000
  70
    32
  0
VERTEX
  8
┌▓È_1
  5
58D
 10
971.077
 20
-406.535
 30
0.000000
  70
    32
  0
VERTEX
  8
┌▓È_1
  5
58E
 10
971.122
 20
-406.544
 30
0.000000
  70
    32
  0
VERTEX
  8
┌▓È_1
  5
58F
 10
971.167
 20
-406.554
 30
0.000000
  70
    32
  0
VERTEX
  8
┌▓È_1
  5
590
 10
971.212
 20
-406.564
 30
0.000000
  70
    32
  0
VERTEX
  8
┌▓È_1
  5
591
 10
971.258
 20
-406.574
 30
0.000000
  70
    32
  0
VERTEX
  8
┌▓È_1
  5
592
 10
971.303
 20
-406.583
 30
0.000000
  70
    32
  0
VERTEX
  8
┌▓È_1
  5
593
 10
971.348
 20
-406.593
 30
0.000000
  70
    32
  0
VERTEX
  8
┌▓È_1
  5
594
 10
971.393
 20
-406.603
 30
0.000000
  70
    32
  0
VERTEX
  8
┌▓È_1
  5
595
 10
971.439
 20
-406.613
 30
0.000000
  70
    32
  0
VERTEX
  8
┌▓È_1
  5
596
 10
971.484
 20
-406.622
 30
0.000000
  70
    32
  0
VERTEX
  8
┌▓È_1
  5
597
 10
971.529
 20
-406.632
 30
0.000000
  70
    32
  0
VERTEX
  8
┌▓È_1
  5
598
 10
971.575
 20
-406.641
 30
0.000000
  70
    32
  0
VERTEX
  8
┌▓È_1
  5
599
 10
971.620
 20
-406.651
 30
0.000000
  70
    32
  0
VERTEX
  8
┌▓È_1
  5
59A
 10
971.665
 20
-406.661
 30
0.000000
  70
    32
  0
VERTEX
  8
┌▓È_1
  5
59B
 10
971.710
 20
-406.670
 30
0.000000
  70
    32
  0
VERTEX
  8
┌▓È_1
  5
59C
 10
971.756
 20
-406.680
 30
0.000000
  70
    32
  0
VERTEX
  8
┌▓È_1
  5
59D
 10
971.801
 20
-406.689
 30
0.000000
  70
    32
  0
VERTEX
  8
┌▓È_1
  5
59E
 10
971.846
 20
-406.699
 30
0.000000
  70
    32
  0
VERTEX
  8
┌▓È_1
  5
59F
 10
971.892
 20
-406.708
 30
0.000000
  70
    32
  0
VERTEX
  8
┌▓È_1
  5
5A0
 10
971.937
 20
-406.718
 30
0.000000
  70
    32
  0
VERTEX
  8
┌▓È_1
  5
5A1
 10
971.982
 20
-406.728
 30
0.000000
  70
    32
  0
VERTEX
  8
┌▓È_1
  5
5A2
 10
972.028
 20
-406.737
 30
0.000000
  70
    32
  0
VERTEX
  8
┌▓È_1
  5
5A3
 10
972.073
 20
-406.747
 30
0.000000
  70
    32
  0
VERTEX
  8
┌▓È_1
  5
5A4
 10
972.119
 20
-406.756
 30
0.000000
  70
    32
  0
VERTEX
  8
┌▓È_1
  5
5A5
 10
972.164
 20
-406.766
 30
0.000000
  70
    32
  0
VERTEX
  8
┌▓È_1
  5
5A6
 10
972.209
 20
-406.775
 30
0.000000
  70
    32
  0
VERTEX
  8
┌▓È_1
  5
5A7
 10
972.255
 20
-406.784
 30
0.000000
  70
    32
  0
VERTEX
  8
┌▓È_1
  5
5A8
 10
972.300
 20
-406.794
 30
0.000000
  70
    32
  0
VERTEX
  8
┌▓È_1
  5
5A9
 10
972.345
 20
-406.803
 30
0.000000
  70
    32
  0
VERTEX
  8
┌▓È_1
  5
5AA
 10
972.391
 20
-406.813
 30
0.000000
  70
    32
  0
VERTEX
  8
┌▓È_1
  5
5AB
 10
972.436
 20
-406.822
 30
0.000000
  70
    32
  0
VERTEX
  8
┌▓È_1
  5
5AC
 10
972.482
 20
-406.832
 30
0.000000
  70
    32
  0
VERTEX
  8
┌▓È_1
  5
5AD
 10
972.527
 20
-406.841
 30
0.000000
  70
    32
  0
VERTEX
  8
┌▓È_1
  5
5AE
 10
972.572
 20
-406.851
 30
0.000000
  70
    32
  0
VERTEX
  8
┌▓È_1
  5
5AF
 10
972.618
 20
-406.860
 30
0.000000
  70
    32
  0
VERTEX
  8
┌▓È_1
  5
5B0
 10
972.663
 20
-406.870
 30
0.000000
  70
    32
  0
VERTEX
  8
┌▓È_1
  5
5B1
 10
972.709
 20
-406.879
 30
0.000000
  70
    32
  0
VERTEX
  8
┌▓È_1
  5
5B2
 10
972.754
 20
-406.888
 30
0.000000
  70
    32
  0
SEQEND
  8
┌▓È_1
  5
5B3
  0
LINE
  5
2D2
  8
┌▓È_1
 62
     5
 10
976.30189723499996
 20
-398.4084037367
 30
0.0
 11
976.30189723499996
 21
-401.28840373669988
 31
0.0
  0
LINE
  5
2D3
  8
┌▓È_1
 62
     5
 10
986.8573041587
 20
-405.4484037366999
 30
0.0
 11
990.70189723500005
 21
-405.4484037366999
 31
0.0
  0
LINE
  5
2D4
  8
┌▓È_1
 62
     5
 10
944.49695530079998
 20
-403.68840373669991
 30
0.0
 11
944.49695530079998
 21
-401.28840373669988
 31
0.0
  0
LINE
  5
2D5
  8
┌▓È_1
 62
     5
 10
976.30189723499996
 20
-402.56840373669991
 30
0.0
 11
976.30189723499996
 21
-405.4484037366999
 31
0.0
  0
LINE
  5
2D6
  8
┌▓È_1
 62
     5
 10
976.30189723499996
 20
-401.28840373669988
 30
0.0
 11
981.14456390170005
 21
-401.28840373669988
 31
0.0
  0
LINE
  5
2D7
  8
┌▓È_1
 62
     5
 10
951.69695530079991
 20
-402.08840373669989
 30
0.0
 11
951.69695530079991
 21
-401.28840373669988
 31
0.0
  0
LINE
  5
2D8
  8
┌▓È_1
 62
     5
 10
958.35392499779994
 20
-399.40378016469998
 30
0.0
 11
964.75392499780014
 21
-399.40378016469998
 31
0.0
  0
LINE
  5
2D9
  8
┌▓È_1
 62
     5
 10
965.61202498449995
 20
-401.31891718489987
 30
0.0
 11
965.22707169440002
 21
-401.7440985618
 31
0.0
  0
ARC
  5
2DA
  8
┌▓È_1
 62
     5
 10
945.29695530080005
 20
-402.08840373669989
 30
0.0
 40
2.399999999999999
 50
270.0
 51
0.0
  0
LINE
  5
2DB
  8
┌▓È_1
 62
     5
 10
947.69695530080003
 20
-395.68840373670002
 30
0.0
 11
947.69695530080003
 21
-398.88840373670001
 31
0.0
  0
LINE
  5
2DC
  8
┌▓È_1
 62
     5
 10
985.66020273139998
 20
-401.28840373669988
 30
0.0
 11
990.70189723500005
 21
-401.28840373669988
 31
0.0
  0
LINE
  5
2DD
  8
┌▓È_1
 62
     5
 10
971.15392499780012
 20
-398.0884037367
 30
0.0
 11
972.75392499780014
 21
-395.68840373670002
 31
0.0
  0
LINE
  5
2DE
  8
┌▓È_1
 62
     5
 10
981.52003056839987
 20
-402.56840373669991
 30
0.0
 11
981.14456390170005
 21
-401.28840373669988
 31
0.0
  0
LINE
  5
2DF
  8
┌▓È_1
 62
     5
 10
951.69695530079991
 20
-398.0884037367
 30
0.0
 11
954.0969553008
 21
-395.68840373670002
 31
0.0
  0
LINE
  5
2E0
  8
┌▓È_1
 62
     5
 10
940.49695530079987
 20
-403.68840373669991
 30
0.0
 11
944.49695530079998
 21
-403.68840373669991
 31
0.0
  0
LINE
  5
2E1
  8
┌▓È_1
 62
     5
 10
976.30189723499996
 20
-398.4084037367
 30
0.0
 11
980.29976390169998
 21
-398.4084037367
 31
0.0
  0
LINE
  5
2E2
  8
┌▓È_1
 62
     5
 10
951.69695530079991
 20
-398.88840373670001
 30
0.0
 11
951.69695530079991
 21
-398.0884037367
 31
0.0
  0
LINE
  5
2E3
  8
┌▓È_1
 62
     5
 10
954.0969553008
 20
-398.88840373670001
 30
0.0
 11
951.69695530079991
 21
-398.88840373670001
 31
0.0
  0
LINE
  5
2E4
  8
┌▓È_1
 10
940.10255256879998
 20
-367.44468048369998
 30
0.0
 11
964.10255256879998
 21
-367.44468048369998
 31
0.0
  0
LINE
  5
2E5
  8
┌▓È_1
 10
940.10255256879998
 20
-384.4446804837001
 30
0.0
 11
964.10255256879998
 21
-384.4446804837001
 31
0.0
  0
INSERT
  5
2E6
  8
0
  6
CONTINUOUS
  2
*U58
 10
0.0
 20
0.0
 30
0.0
  0
ENDSEC
  0
EOF
