  0
SECTION
  2
HEADER
  9
$ACADVER
  1
AC1009
  9
$INSBASE
 10
0.0
 20
0.0
 30
0.0
  9
$EXTMIN
 10
562.99221754810003
 20
-410.26510416669998
 30
0.0
  9
$EXTMAX
 10
1112.9922175480999
 20
-30.265104166699999
 30
0.0
  9
$LIMMIN
 10
0.0
 20
0.0
  9
$LIMMAX
 10
0.0
 20
0.0
  9
$ORTHOMODE
 70
     0
  9
$REGENMODE
 70
     1
  9
$FILLMODE
 70
     1
  9
$QTEXTMODE
 70
     0
  9
$MIRRTEXT
 70
     1
  9
$DRAGMODE
 70
     2
  9
$LTSCALE
 40
1.0
  9
$OSMODE
 70
    31
  9
$ATTMODE
 70
     1
  9
$TEXTSIZE
 40
0.0
  9
$TRACEWID
 40
0.05
  9
$TEXTSTYLE
  7
STANDARD
  9
$CLAYER
  8
0
  9
$CELTYPE
  6
CONTINUOUS
  9
$CECOLOR
 62
   256
  9
$DIMSCALE
 40
1.0
  9
$DIMASZ
 40
0.18
  9
$DIMEXO
 40
0.0625
  9
$DIMDLI
 40
0.38
  9
$DIMRND
 40
0.0
  9
$DIMDLE
 40
0.0
  9
$DIMEXE
 40
0.18
  9
$DIMTP
 40
0.0
  9
$DIMTM
 40
0.0
  9
$DIMTXT
 40
0.18
  9
$DIMCEN
 40
0.09
  9
$DIMTSZ
 40
0.0
  9
$DIMTOL
 70
     0
  9
$DIMLIM
 70
     0
  9
$DIMTIH
 70
     1
  9
$DIMTOH
 70
     1
  9
$DIMSE1
 70
     0
  9
$DIMSE2
 70
     0
  9
$DIMTAD
 70
     0
  9
$DIMZIN
 70
     0
  9
$DIMBLK
  1

  9
$DIMASO
 70
     1
  9
$DIMSHO
 70
     1
  9
$DIMPOST
  1

  9
$DIMAPOST
  1

  9
$DIMALT
 70
     0
  9
$DIMALTD
 70
     2
  9
$DIMALTF
 40
25.399999999999999
  9
$DIMLFAC
 40
1.0
  9
$DIMTOFL
 70
     0
  9
$DIMTVP
 40
0.0
  9
$DIMTIX
 70
     0
  9
$DIMSOXD
 70
     0
  9
$DIMSAH
 70
     0
  9
$DIMBLK1
  1

  9
$DIMBLK2
  1

  9
$DIMSTYLE
  2
STANDARD
  9
$DIMCLRD
 70
     0
  9
$DIMCLRE
 70
     0
  9
$DIMCLRT
 70
     0
  9
$DIMTFAC
 40
1.0
  9
$DIMGAP
 40
0.09
  9
$LUNITS
 70
     2
  9
$LUPREC
 70
     4
  9
$SKETCHINC
 40
0.1
  9
$FILLETRAD
 40
0.0
  9
$AUNITS
 70
     0
  9
$AUPREC
 70
     0
  9
$MENU
  1
acad
  9
$ELEVATION
 40
0.0
  9
$PELEVATION
 40
0.0
  9
$THICKNESS
 40
0.0
  9
$LIMCHECK
 70
     0
  9
$BLIPMODE
 70
     0
  9
$CHAMFERA
 40
0.0
  9
$CHAMFERB
 40
0.0
  9
$SKPOLY
 70
     0
  9
$TDCREATE
 40
2454862.44286132
  9
$TDUPDATE
 40
2454862.443077072
  9
$TDINDWG
 40
0.0002242477
  9
$TDUSRTIMER
 40
0.0002238889
  9
$USRTIMER
 70
     1
  9
$ANGBASE
 50
0.0
  9
$ANGDIR
 70
     0
  9
$PDMODE
 70
     3
  9
$PDSIZE
 40
-1.0
  9
$PLINEWID
 40
0.0
  9
$COORDS
 70
     2
  9
$SPLFRAME
 70
     0
  9
$SPLINETYPE
 70
     6
  9
$SPLINESEGS
 70
     8
  9
$ATTDIA
 70
     0
  9
$ATTREQ
 70
     1
  9
$HANDLING
 70
     1
  9
$HANDSEED
  5
45F
  9
$SURFTAB1
 70
     6
  9
$SURFTAB2
 70
     6
  9
$SURFTYPE
 70
     6
  9
$SURFU
 70
     6
  9
$SURFV
 70
     6
  9
$UCSNAME
  2

  9
$UCSORG
 10
0.0
 20
0.0
 30
0.0
  9
$UCSXDIR
 10
1.0
 20
0.0
 30
0.0
  9
$UCSYDIR
 10
0.0
 20
1.0
 30
0.0
  9
$PUCSNAME
  2

  9
$PUCSORG
 10
0.0
 20
0.0
 30
0.0
  9
$PUCSXDIR
 10
1.0
 20
0.0
 30
0.0
  9
$PUCSYDIR
 10
0.0
 20
1.0
 30
0.0
  9
$USERI1
 70
     0
  9
$USERI2
 70
     0
  9
$USERI3
 70
     0
  9
$USERI4
 70
     0
  9
$USERI5
 70
     0
  9
$USERR1
 40
0.0
  9
$USERR2
 40
0.0
  9
$USERR3
 40
0.0
  9
$USERR4
 40
0.0
  9
$USERR5
 40
0.0
  9
$WORLDVIEW
 70
     1
  9
$SHADEDGE
 70
     3
  9
$SHADEDIF
 70
    70
  9
$TILEMODE
 70
     1
  9
$MAXACTVP
 70
    16
  9
$PLIMCHECK
 70
     0
  9
$PEXTMIN
 10
1.0000000000000000E+020
 20
1.0000000000000000E+020
 30
1.0000000000000000E+020
  9
$PEXTMAX
 10
-1.0000000000000000E+020
 20
-1.0000000000000000E+020
 30
-1.0000000000000000E+020
  9
$PLIMMIN
 10
0.0
 20
0.0
  9
$PLIMMAX
 10
12.0
 20
9.0
  9
$UNITMODE
 70
     0
  9
$VISRETAIN
 70
     0
  9
$PLINEGEN
 70
     1
  9
$PSLTSCALE
 70
     0
  0
ENDSEC
  0
SECTION
  2
TABLES
  0
TABLE
  2
VPORT
 70
     2
  0
VPORT
  2
*ACTIVE
 70
     0
 10
0.0
 20
0.0
 11
1.0
 21
1.0
 12
837.99221754809992
 22
-220.26510416670001
 13
0.0
 23
0.0
 14
1.0
 24
1.0
 15
0.0
 25
0.0
 16
0.0
 26
0.0
 36
1.0
 17
0.0
 27
0.0
 37
0.0
 40
383.15352697095432
 41
1.6343490304709141
 42
50.0
 43
0.0
 44
0.0
 50
0.0
 51
0.0
 71
     0
 72
   100
 73
     1
 74
     1
 75
     0
 76
     0
 77
     0
 78
     0
  0
ENDTAB
  0
TABLE
  2
LTYPE
 70
    11
  0
LTYPE
  2
CONTINUOUS
 70
     0
  3
Solid line
 72
    65
 73
     0
 40
0.0
  0
LTYPE
  2
DOT
 70
     0
  3
. . . . . . . . 
 72
    65
 73
     2
 40
1.0
 49
0.0
 49
-1.0
  0
LTYPE
  2
DASHED
 70
     0
  3
___  ___  ___  ___  
 72
    65
 73
     2
 40
4.0
 49
3.0
 49
-1.0
  0
LTYPE
  2
HIDDEN
 70
     0
  3
__ __ __ __ 
 72
    65
 73
     2
 40
3.0
 49
2.0
 49
-1.0
  0
LTYPE
  2
STITCH
 70
     0
  3
_ _ _ _ 
 72
    65
 73
     2
 40
2.0
 49
1.0
 49
-1.0
  0
LTYPE
  2
CENTER
 70
     0
  3
______  __  ______  __  
 72
    65
 73
     4
 40
43.0
 49
40.0
 49
-1.0
 49
1.0
 49
-1.0
  0
LTYPE
  2
DASHDOT
 70
     0
  3
____ . ____ . 
 72
    65
 73
     4
 40
32.0
 49
30.0
 49
-1.0
 49
0.0
 49
-1.0
  0
LTYPE
  2
BORDER
 70
     0
  3
__ . __ . 
 72
    65
 73
     4
 40
22.0
 49
20.0
 49
-1.0
 49
0.0
 49
-1.0
  0
LTYPE
  2
CUTTING
 70
     0
  3
________   ___   ___   
 72
    65
 73
     6
 40
45.0
 49
40.0
 49
-1.0
 49
1.0
 49
-1.0
 49
1.0
 49
-1.0
  0
LTYPE
  2
PHANTOM
 70
     0
  3
______  __  __  
 72
    65
 73
     6
 40
35.0
 49
30.0
 49
-1.0
 49
1.0
 49
-1.0
 49
1.0
 49
-1.0
  0
LTYPE
  2
DIVIDE
 70
     0
  3
____ . . ____ . . 
 72
    65
 73
     6
 40
23.0
 49
20.0
 49
-1.0
 49
0.0
 49
-1.0
 49
0.0
 49
-1.0
  0
ENDTAB
  0
TABLE
  2
LAYER
 70
     4
  0
LAYER
  2
0
 70
     0
 62
     7
  6
CONTINUOUS
  0
LAYER
  2
Éíû@É³
 70
     0
 62
     7
  6
CONTINUOUS
  0
LAYER
  2
┌▓È_1
 70
     0
 62
     7
  6
CONTINUOUS
  0
LAYER
  2
Defpoints
 70
     0
 62
     7
  6
CONTINUOUS
  0
ENDTAB
  0
TABLE
  2
STYLE
 70
     1
  0
STYLE
  2
STANDARD
 70
     0
 40
0.0
 41
1.0
 50
0.0
 71
     0
 42
0.0
  3
txt
  4
extfont
  0
ENDTAB
  0
TABLE
  2
VIEW
 70
     0
  0
ENDTAB
  0
TABLE
  2
UCS
 70
     0
  0
ENDTAB
  0
TABLE
  2
APPID
 70
     2
  0
APPID
  2
ACAD
 70
     0
  0
APPID
  2
DCO15
 70
     0
  0
ENDTAB
  0
TABLE
  2
DIMSTYLE
 70
     3
  0
DIMSTYLE
  2
STANDARD
 70
     0
  3

  4

  5

  6

  7

 40
1.0
 41
0.18
 42
0.0625
 43
0.38
 44
0.18
 45
0.0
 46
0.0
 47
0.0
 48
0.0
140
0.18
141
0.09
142
0.0
143
25.399999999999999
144
1.0
145
0.0
146
1.0
147
0.09
 71
     0
 72
     0
 73
     1
 74
     1
 75
     0
 76
     0
 77
     0
 78
     0
170
     0
171
     2
172
     0
173
     0
174
     0
175
     0
176
     0
177
     0
178
     0
  0
DIMSTYLE
  2
VELDIM0
 70
     0
  3

  4

  5

  6

  7

 40
1.0
 41
6.0
 42
0.0625
 43
0.38
 44
0.5
 45
0.0
 46
3.0
 47
0.0
 48
0.0
140
5.9972220420999998
141
0.09
142
0.0
143
25.399999999999999
144
1.0
145
0.0
146
1.0
147
0.09
 71
     0
 72
     0
 73
     0
 74
     0
 75
     0
 76
     0
 77
     0
 78
     8
170
     0
171
     2
172
     0
173
     0
174
     0
175
     0
176
     0
177
     0
178
     0
  0
DIMSTYLE
  2
VELDIM1
 70
     0
  3

  4

  5

  6

  7

 40
1.0
 41
6.0
 42
0.0625
 43
0.38
 44
1.25
 45
0.0
 46
5.0
 47
0.0
 48
0.0
140
5.9972220420999998
141
0.09
142
0.0
143
25.399999999999999
144
1.0
145
0.0
146
1.0
147
0.09
 71
     0
 72
     0
 73
     0
 74
     0
 75
     0
 76
     0
 77
     0
 78
     8
170
     0
171
     2
172
     0
173
     0
174
     0
175
     0
176
     0
177
     0
178
     0
  0
ENDTAB
  0
ENDSEC
  0
SECTION
  2
BLOCKS
  0
BLOCK
  8
0
  2
$MODEL_SPACE
 70
     0
 10
0.0
 20
0.0
 30
0.0
  3
$MODEL_SPACE
  1

  0
ENDBLK
  5
E
  8
0
  0
BLOCK
 67
     1
  8
0
  2
$PAPER_SPACE
 70
     0
 10
0.0
 20
0.0
 30
0.0
  3
$PAPER_SPACE
  1

  0
ENDBLK
  5
10
 67
     1
  8
0
  0
BLOCK
  8
0
  2
*D0
 70
     1
 10
0.0
 20
0.0
 30
0.0
  3
*D0
  1

  0
TEXT
  5
31
  8
0
 62
     0
 10
920.17007223420001
 20
-199.8004519749
 30
0.0
 40
5.9972220420999998
  1
30
 50
45.0
  0
LINE
  5
32
  8
0
 62
     0
 10
941.63365240049995
 20
-194.8621883020999
 30
0.0
 11
934.47290219859985
 21
-187.7014381002999
 31
0.0
  0
LINE
  5
33
  8
0
 62
     0
 10
920.42044896490006
 20
-216.07539173769999
 30
0.0
 11
913.25969876299996
 21
-208.91464153589999
 31
0.0
  0
LINE
  5
34
  8
0
 62
     0
 10
934.8264555891999
 20
-188.05499149080001
 30
0.0
 11
929.10908021240004
 21
-193.77236686759991
 31
0.0
  0
LINE
  5
35
  8
0
 62
     0
 10
934.8264555891999
 20
-188.05499149080001
 30
0.0
 11
919.13101815539994
 21
-203.7504289247
 31
0.0
  0
LINE
  5
36
  8
0
 62
     0
 10
913.6132521536
 20
-209.26819492640001
 30
0.0
 11
929.10908021240004
 21
-193.77236686759991
 31
0.0
  0
LINE
  5
37
  8
0
 62
     0
 10
913.6132521536
 20
-209.26819492640001
 30
0.0
 11
919.13101815539994
 21
-203.7504289247
 31
0.0
  0
LINE
  5
38
  8
0
 62
     0
 10
913.6132521536
 20
-209.26819492640001
 30
0.0
 11
915.73457249720002
 21
-207.14687458290001
 31
0.0
  0
SOLID
  5
39
  8
0
 62
     0
 10
913.6132521536
 20
-209.26819492640001
 30
0.0
 11
916.79523266889998
 21
-203.96489406750001
 31
0.0
 12
918.9165530125
 22
-206.0862144111
 32
0.0
 13
916.79523266889998
 23
-206.0862144111
 33
0.0
  0
LINE
  5
3A
  8
0
 62
     0
 10
934.8264555891999
 20
-188.05499149080001
 30
0.0
 11
932.70513524559988
 21
-190.1763118344
 31
0.0
  0
SOLID
  5
3B
  8
0
 62
     0
 10
934.8264555891999
 20
-188.05499149080001
 30
0.0
 11
931.64447507390003
 21
-193.35829234970001
 31
0.0
 12
929.52315473030001
 22
-191.23697200620001
 32
0.0
 13
931.64447507390003
 23
-191.23697200620001
 33
0.0
  0
ENDBLK
  5
3C
  8
0
  0
BLOCK
  8
0
  2
*D1
 70
     1
 10
0.0
 20
0.0
 30
0.0
  3
*D1
  1

  0
TEXT
  5
41
  8
0
 62
     0
 10
899.71007725789991
 20
-220.73836840729999
 30
0.0
 40
5.9972220420999998
  1
(118.5)
 50
315.0
  0
LINE
  5
42
  8
0
 62
     0
 10
878.50572692349999
 20
-175.5748832587
 30
0.0
 11
864.71714469029996
 21
-189.36346549180001
 31
0.0
  0
LINE
  5
43
  8
0
 62
     0
 10
962.3351710062999
 20
-259.40432734159998
 30
0.0
 11
948.54658877320014
 21
-273.19290957470002
 31
0.0
  0
LINE
  5
44
  8
0
 62
     0
 10
865.07069808089989
 20
-189.0099121012
 30
0.0
 11
918.21073993649986
 21
-242.1499539568
 31
0.0
  0
LINE
  5
45
  8
0
 62
     0
 10
865.07069808089989
 20
-189.0099121012
 30
0.0
 11
895.76010030819998
 21
-219.69931432850001
 31
0.0
  0
LINE
  5
46
  8
0
 62
     0
 10
948.90014216379996
 20
-272.83935618409998
 30
0.0
 11
918.21073993649986
 21
-242.1499539568
 31
0.0
  0
LINE
  5
47
  8
0
 62
     0
 10
948.90014216379996
 20
-272.83935618409998
 30
0.0
 11
895.76010030819998
 21
-219.69931432850001
 31
0.0
  0
LINE
  5
48
  8
0
 62
     0
 10
948.90014216379996
 20
-272.83935618409998
 30
0.0
 11
946.77882182020005
 21
-270.71803584050002
 31
0.0
  0
SOLID
  5
49
  8
0
 62
     0
 10
948.90014216379996
 20
-272.83935618409998
 30
0.0
 11
943.59684130489995
 21
-269.6573756688
 31
0.0
 12
945.71816164849997
 22
-267.53605532519998
 32
0.0
 13
945.71816164849997
 23
-269.6573756688
 33
0.0
  0
LINE
  5
4A
  8
0
 62
     0
 10
865.07069808089989
 20
-189.0099121012
 30
0.0
 11
867.19201842449991
 21
-191.13123244479999
 31
0.0
  0
SOLID
  5
4B
  8
0
 62
     0
 10
865.07069808089989
 20
-189.0099121012
 30
0.0
 11
870.3739989398
 21
-192.1918926166
 31
0.0
 12
868.25267859619998
 22
-194.3132129601
 32
0.0
 13
868.25267859619998
 23
-192.1918926166
 33
0.0
  0
ENDBLK
  5
4C
  8
0
  0
BLOCK
  8
0
  2
*D2
 70
     1
 10
0.0
 20
0.0
 30
0.0
  3
*D2
  1

  0
TEXT
  5
50
  8
0
 62
     0
 10
988.20328042350002
 20
-88.972561609500005
 30
0.0
 40
5.9972220420999998
  1
50
 50
90.0
  0
LINE
  5
51
  8
0
 62
     0
 10
967.24227778750003
 20
-110.5399011252
 30
0.0
 11
990.76161372499996
 21
-110.5399011252
 31
0.0
  0
LINE
  5
52
  8
0
 62
     0
 10
967.24227778750003
 20
-60.539901125200011
 30
0.0
 11
990.76161372499996
 21
-60.539901125200011
 31
0.0
  0
LINE
  5
53
  8
0
 62
     0
 10
990.26161372499985
 20
-110.5399011252
 30
0.0
 11
990.26161372499985
 21
-78.389228594100004
 31
0.0
  0
LINE
  5
54
  8
0
 62
     0
 10
990.26161372499985
 20
-110.5399011252
 30
0.0
 11
990.26161372499985
 21
-92.500339281299986
 31
0.0
  0
LINE
  5
55
  8
0
 62
     0
 10
990.26161372499985
 20
-60.539901125200011
 30
0.0
 11
990.26161372499985
 21
-78.389228594100004
 31
0.0
  0
LINE
  5
56
  8
0
 62
     0
 10
990.26161372499985
 20
-60.539901125200011
 30
0.0
 11
990.26161372499985
 21
-92.500339281299986
 31
0.0
  0
LINE
  5
57
  8
0
 62
     0
 10
990.26161372499985
 20
-60.539901125200011
 30
0.0
 11
990.26161372499985
 21
-63.539901125199997
 31
0.0
  0
SOLID
  5
58
  8
0
 62
     0
 10
990.26161372499985
 20
-60.539901125200011
 30
0.0
 11
991.76161372499996
 21
-66.539901125200004
 31
0.0
 12
988.76161372499985
 22
-66.539901125200004
 32
0.0
 13
990.26161372499985
 23
-65.039901125200004
 33
0.0
  0
LINE
  5
59
  8
0
 62
     0
 10
990.26161372499985
 20
-110.5399011252
 30
0.0
 11
990.26161372499985
 21
-107.5399011252
 31
0.0
  0
SOLID
  5
5A
  8
0
 62
     0
 10
990.26161372499985
 20
-110.5399011252
 30
0.0
 11
988.76161372499985
 21
-104.5399011252
 31
0.0
 12
991.76161372499996
 22
-104.5399011252
 32
0.0
 13
990.26161372499985
 23
-106.0399011252
 33
0.0
  0
ENDBLK
  5
5B
  8
0
  0
BLOCK
  8
0
  2
*D3
 70
     1
 10
0.0
 20
0.0
 30
0.0
  3
*D3
  1

  0
TEXT
  5
5F
  8
0
 62
     0
 10
799.18394448599997
 20
-76.567678796999999
 30
0.0
 40
5.9972220420999998
  1
25
 50
90.0
  0
LINE
  5
60
  8
0
 62
     0
 10
825.24227778750014
 20
-60.539901125200011
 30
0.0
 11
800.74227778750003
 21
-60.539901125200011
 31
0.0
  0
LINE
  5
61
  8
0
 62
     0
 10
820.24227778750003
 20
-85.539901125200004
 30
0.0
 11
800.74227778750003
 21
-85.539901125200004
 31
0.0
  0
LINE
  5
62
  8
0
 62
     0
 10
801.24227778750003
 20
-60.539901125200011
 30
0.0
 11
801.24227778750003
 21
-65.984345781599998
 31
0.0
  0
LINE
  5
63
  8
0
 62
     0
 10
801.24227778750003
 20
-60.539901125200011
 30
0.0
 11
801.24227778750003
 21
-80.095456468799995
 31
0.0
  0
LINE
  5
64
  8
0
 62
     0
 10
801.24227778750003
 20
-85.539901125200004
 30
0.0
 11
801.24227778750003
 21
-65.984345781599998
 31
0.0
  0
LINE
  5
65
  8
0
 62
     0
 10
801.24227778750003
 20
-85.539901125200004
 30
0.0
 11
801.24227778750003
 21
-80.095456468799995
 31
0.0
  0
LINE
  5
66
  8
0
 62
     0
 10
801.24227778750003
 20
-85.539901125200004
 30
0.0
 11
801.24227778750003
 21
-88.539901125200004
 31
0.0
  0
SOLID
  5
67
  8
0
 62
     0
 10
801.24227778750003
 20
-85.539901125200004
 30
0.0
 11
802.74227778749992
 21
-91.539901125200004
 31
0.0
 12
799.74227778750003
 22
-91.539901125200004
 32
0.0
 13
801.24227778750003
 23
-90.039901125200004
 33
0.0
  0
LINE
  5
68
  8
0
 62
     0
 10
801.24227778750003
 20
-60.539901125200011
 30
0.0
 11
801.24227778750003
 21
-57.539901125199997
 31
0.0
  0
SOLID
  5
69
  8
0
 62
     0
 10
801.24227778750003
 20
-60.539901125200011
 30
0.0
 11
799.74227778750003
 21
-54.539901125199997
 31
0.0
 12
802.74227778749992
 22
-54.539901125199997
 32
0.0
 13
801.24227778750003
 23
-56.039901125199997
 33
0.0
  0
ENDBLK
  5
6A
  8
0
  0
BLOCK
  8
0
  2
*D4
 70
     1
 10
0.0
 20
0.0
 30
0.0
  3
*D4
  1

  0
TEXT
  5
6E
  8
0
 62
     0
 10
799.18394448599997
 20
-101.567678797
 30
0.0
 40
5.9972220420999998
  1
25
 50
90.0
  0
LINE
  5
6F
  8
0
 62
     0
 10
820.24227778750003
 20
-85.539901125200004
 30
0.0
 11
800.74227778750003
 21
-85.539901125200004
 31
0.0
  0
LINE
  5
70
  8
0
 62
     0
 10
825.24227778750014
 20
-110.5399011252
 30
0.0
 11
800.74227778750003
 21
-110.5399011252
 31
0.0
  0
LINE
  5
71
  8
0
 62
     0
 10
801.24227778750003
 20
-85.539901125200004
 30
0.0
 11
801.24227778750003
 21
-90.984345781599998
 31
0.0
  0
LINE
  5
72
  8
0
 62
     0
 10
801.24227778750003
 20
-85.539901125200004
 30
0.0
 11
801.24227778750003
 21
-105.09545646879999
 31
0.0
  0
LINE
  5
73
  8
0
 62
     0
 10
801.24227778750003
 20
-110.5399011252
 30
0.0
 11
801.24227778750003
 21
-90.984345781599998
 31
0.0
  0
LINE
  5
74
  8
0
 62
     0
 10
801.24227778750003
 20
-110.5399011252
 30
0.0
 11
801.24227778750003
 21
-105.09545646879999
 31
0.0
  0
LINE
  5
75
  8
0
 62
     0
 10
801.24227778750003
 20
-110.5399011252
 30
0.0
 11
801.24227778750003
 21
-113.5399011252
 31
0.0
  0
SOLID
  5
76
  8
0
 62
     0
 10
801.24227778750003
 20
-110.5399011252
 30
0.0
 11
802.74227778749992
 21
-116.5399011252
 31
0.0
 12
799.74227778750003
 22
-116.5399011252
 32
0.0
 13
801.24227778750003
 23
-115.0399011252
 33
0.0
  0
LINE
  5
77
  8
0
 62
     0
 10
801.24227778750003
 20
-85.539901125200004
 30
0.0
 11
801.24227778750003
 21
-82.539901125200004
 31
0.0
  0
SOLID
  5
78
  8
0
 62
     0
 10
801.24227778750003
 20
-85.539901125200004
 30
0.0
 11
799.74227778750003
 21
-79.539901125200004
 31
0.0
 12
802.74227778749992
 22
-79.539901125200004
 32
0.0
 13
801.24227778750003
 23
-81.039901125200004
 33
0.0
  0
ENDBLK
  5
79
  8
0
  0
BLOCK
  8
0
  2
*D5
 70
     1
 10
0.0
 20
0.0
 30
0.0
  3
*D5
  1

  0
TEXT
  5
7D
  8
0
 62
     0
 10
722.23442199069996
 20
-143.43888725880001
 30
0.0
 40
5.9972220420999998
  1
25
  0
LINE
  5
7E
  8
0
 62
     0
 10
738.26219966250005
 20
-169.4972205604
 30
0.0
 11
738.26219966250005
 21
-144.9972205604
 31
0.0
  0
LINE
  5
7F
  8
0
 62
     0
 10
713.26219966250005
 20
-164.4972205604
 30
0.0
 11
713.26219966250005
 21
-144.9972205604
 31
0.0
  0
LINE
  5
80
  8
0
 62
     0
 10
738.26219966250005
 20
-145.4972205604
 30
0.0
 11
732.81775500619995
 21
-145.4972205604
 31
0.0
  0
LINE
  5
81
  8
0
 62
     0
 10
738.26219966250005
 20
-145.4972205604
 30
0.0
 11
718.70664431889986
 21
-145.4972205604
 31
0.0
  0
LINE
  5
82
  8
0
 62
     0
 10
713.26219966250005
 20
-145.4972205604
 30
0.0
 11
732.81775500619995
 21
-145.4972205604
 31
0.0
  0
LINE
  5
83
  8
0
 62
     0
 10
713.26219966250005
 20
-145.4972205604
 30
0.0
 11
718.70664431889986
 21
-145.4972205604
 31
0.0
  0
LINE
  5
84
  8
0
 62
     0
 10
713.26219966250005
 20
-145.4972205604
 30
0.0
 11
710.26219966250005
 21
-145.4972205604
 31
0.0
  0
SOLID
  5
85
  8
0
 62
     0
 10
713.26219966250005
 20
-145.4972205604
 30
0.0
 11
707.26219966250005
 21
-146.9972205604
 31
0.0
 12
707.26219966250005
 22
-143.9972205604
 32
0.0
 13
708.76219966250005
 23
-145.4972205604
 33
0.0
  0
LINE
  5
86
  8
0
 62
     0
 10
738.26219966250005
 20
-145.4972205604
 30
0.0
 11
741.26219966250005
 21
-145.4972205604
 31
0.0
  0
SOLID
  5
87
  8
0
 62
     0
 10
738.26219966250005
 20
-145.4972205604
 30
0.0
 11
744.26219966250005
 21
-143.9972205604
 31
0.0
 12
744.26219966250005
 22
-146.9972205604
 32
0.0
 13
742.76219966250005
 23
-145.4972205604
 33
0.0
  0
ENDBLK
  5
88
  8
0
  0
BLOCK
  8
0
  2
*D6
 70
     1
 10
0.0
 20
0.0
 30
0.0
  3
*D6
  1

  0
TEXT
  5
8C
  8
0
 62
     0
 10
697.23442199069996
 20
-143.43888725880001
 30
0.0
 40
5.9972220420999998
  1
25
  0
LINE
  5
8D
  8
0
 62
     0
 10
713.26219966250005
 20
-164.4972205604
 30
0.0
 11
713.26219966250005
 21
-144.9972205604
 31
0.0
  0
LINE
  5
8E
  8
0
 62
     0
 10
688.26219966250005
 20
-169.4972205604
 30
0.0
 11
688.26219966250005
 21
-144.9972205604
 31
0.0
  0
LINE
  5
8F
  8
0
 62
     0
 10
713.26219966250005
 20
-145.4972205604
 30
0.0
 11
707.81775500619995
 21
-145.4972205604
 31
0.0
  0
LINE
  5
90
  8
0
 62
     0
 10
713.26219966250005
 20
-145.4972205604
 30
0.0
 11
693.70664431889986
 21
-145.4972205604
 31
0.0
  0
LINE
  5
91
  8
0
 62
     0
 10
688.26219966250005
 20
-145.4972205604
 30
0.0
 11
707.81775500619995
 21
-145.4972205604
 31
0.0
  0
LINE
  5
92
  8
0
 62
     0
 10
688.26219966250005
 20
-145.4972205604
 30
0.0
 11
693.70664431889986
 21
-145.4972205604
 31
0.0
  0
LINE
  5
93
  8
0
 62
     0
 10
688.26219966250005
 20
-145.4972205604
 30
0.0
 11
685.26219966250005
 21
-145.4972205604
 31
0.0
  0
SOLID
  5
94
  8
0
 62
     0
 10
688.26219966250005
 20
-145.4972205604
 30
0.0
 11
682.26219966250005
 21
-146.9972205604
 31
0.0
 12
682.26219966250005
 22
-143.9972205604
 32
0.0
 13
683.76219966250005
 23
-145.4972205604
 33
0.0
  0
LINE
  5
95
  8
0
 62
     0
 10
713.26219966250005
 20
-145.4972205604
 30
0.0
 11
716.26219966250005
 21
-145.4972205604
 31
0.0
  0
SOLID
  5
96
  8
0
 62
     0
 10
713.26219966250005
 20
-145.4972205604
 30
0.0
 11
719.26219966250005
 21
-143.9972205604
 31
0.0
 12
719.26219966250005
 22
-146.9972205604
 32
0.0
 13
717.76219966250005
 23
-145.4972205604
 33
0.0
  0
ENDBLK
  5
97
  8
0
  0
BLOCK
  8
0
  2
*D7
 70
     1
 10
0.0
 20
0.0
 30
0.0
  3
*D7
  1

  0
TEXT
  5
9C
  8
0
 62
     0
 10
802.41711038479991
 20
-162.19558611350001
 30
0.0
 40
5.9972220420999998
  1
(1)
 50
79.875779408699998
  0
ARC
  5
9D
  8
0
 62
     0
 10
913.02481100969987
 20
-171.19532957729999
 30
0.0
 40
107.2924246251
 50
180.0
 51
183.8611768602
  0
ARC
  5
9E
  8
0
 62
     0
 10
913.02481100969987
 20
-171.19532957729999
 30
0.0
 40
107.2924246251
 50
176.93882313980001
 51
180.80000000000001
  0
SOLID
  5
9F
  8
0
 62
     0
 10
805.74284481999985
 20
-172.69336575899999
 30
0.0
 11
804.15921795190002
 21
-166.71489388539999
 31
0.0
 12
807.15892552389994
 22
-166.67300734439999
 32
0.0
 13
805.68001500839989
 23
-168.19380440090001
 33
0.0
  0
SOLID
  5
A0
  8
0
 62
     0
 10
805.73238638460009
 20
-171.19532957729999
 30
0.0
 11
807.23238638460009
 21
-177.19532957729999
 31
0.0
 12
804.23238638459998
 22
-177.19532957729999
 32
0.0
 13
805.73238638460009
 23
-175.69532957729999
 33
0.0
  0
ARC
  5
A1
  8
0
 62
     0
 10
913.02481100969987
 20
-171.19532957729999
 30
0.0
 40
107.2924246251
 50
177.4670211747999
 51
180.80000000000001
  0
ARC
  5
A2
  8
0
 62
     0
 10
913.02481100969987
 20
-171.19532957729999
 30
0.0
 40
107.2924246251
 50
177.4670211747999
 51
180.0
  0
LINE
  5
A3
  8
0
 62
     0
 10
816.69400128919983
 20
-172.54044883169999
 30
0.0
 11
801.74323472389995
 21
-172.7492144803
 31
0.0
  0
LINE
  5
A4
  8
0
 62
     0
 10
887.76991275880005
 20
-171.19532957729999
 30
0.0
 11
801.73238638459998
 21
-171.19532957729999
 31
0.0
  0
ENDBLK
  5
A5
  8
0
  0
BLOCK
  8
0
  2
*D8
 70
     1
 10
0.0
 20
0.0
 30
0.0
  3
*D8
  1

  0
TEXT
  5
A9
  8
0
 62
     0
 10
666.20386636099988
 20
-195.3305535758
 30
0.0
 40
5.9972220420999998
  1
(28.5)
 50
90.0
  0
LINE
  5
AA
  8
0
 62
     0
 10
687.26219966250005
 20
-170.4972205604
 30
0.0
 11
667.76219966250005
 21
-170.4972205604
 31
0.0
  0
LINE
  5
AB
  8
0
 62
     0
 10
699.76219966250005
 20
-198.9972205604
 30
0.0
 11
667.76219966250005
 21
-198.9972205604
 31
0.0
  0
LINE
  5
AC
  8
0
 62
     0
 10
668.26219966250005
 20
-170.4972205604
 30
0.0
 11
668.26219966250005
 21
-170.6361098731
 31
0.0
  0
LINE
  5
AD
  8
0
 62
     0
 10
668.26219966250005
 20
-170.4972205604
 30
0.0
 11
668.26219966250005
 21
-198.85833124759989
 31
0.0
  0
LINE
  5
AE
  8
0
 62
     0
 10
668.26219966250005
 20
-198.9972205604
 30
0.0
 11
668.26219966250005
 21
-170.6361098731
 31
0.0
  0
LINE
  5
AF
  8
0
 62
     0
 10
668.26219966250005
 20
-198.9972205604
 30
0.0
 11
668.26219966250005
 21
-198.85833124759989
 31
0.0
  0
LINE
  5
B0
  8
0
 62
     0
 10
668.26219966250005
 20
-198.9972205604
 30
0.0
 11
668.26219966250005
 21
-201.9972205604
 31
0.0
  0
SOLID
  5
B1
  8
0
 62
     0
 10
668.26219966250005
 20
-198.9972205604
 30
0.0
 11
669.76219966250005
 21
-204.9972205604
 31
0.0
 12
666.76219966250005
 22
-204.9972205604
 32
0.0
 13
668.26219966250005
 23
-203.4972205604
 33
0.0
  0
LINE
  5
B2
  8
0
 62
     0
 10
668.26219966250005
 20
-170.4972205604
 30
0.0
 11
668.26219966250005
 21
-167.4972205604
 31
0.0
  0
SOLID
  5
B3
  8
0
 62
     0
 10
668.26219966250005
 20
-170.4972205604
 30
0.0
 11
666.76219966250005
 21
-164.4972205604
 31
0.0
 12
669.76219966250005
 22
-164.4972205604
 32
0.0
 13
668.26219966250005
 23
-165.9972205604
 33
0.0
  0
ENDBLK
  5
B4
  8
0
  0
BLOCK
  8
0
  2
*D9
 70
     1
 10
0.0
 20
0.0
 30
0.0
  3
*D9
  1

  0
TEXT
  5
B8
  8
0
 62
     0
 10
890.21450011570005
 20
-128.48156782359999
 30
0.0
 40
5.9972220420999998
  1
95
  0
LINE
  5
B9
  8
0
 62
     0
 10
846.24227778750003
 20
-96.539901125200004
 30
0.0
 11
846.24227778750003
 21
-131.0399011252
 31
0.0
  0
LINE
  5
BA
  8
0
 62
     0
 10
941.24227778750014
 20
-96.539901125200004
 30
0.0
 11
941.24227778750014
 21
-131.0399011252
 31
0.0
  0
LINE
  5
BB
  8
0
 62
     0
 10
846.24227778750003
 20
-130.5399011252
 30
0.0
 11
900.79783313119992
 21
-130.5399011252
 31
0.0
  0
LINE
  5
BC
  8
0
 62
     0
 10
846.24227778750003
 20
-130.5399011252
 30
0.0
 11
886.68672244389995
 21
-130.5399011252
 31
0.0
  0
LINE
  5
BD
  8
0
 62
     0
 10
941.24227778750014
 20
-130.5399011252
 30
0.0
 11
900.79783313119992
 21
-130.5399011252
 31
0.0
  0
LINE
  5
BE
  8
0
 62
     0
 10
941.24227778750014
 20
-130.5399011252
 30
0.0
 11
886.68672244389995
 21
-130.5399011252
 31
0.0
  0
LINE
  5
BF
  8
0
 62
     0
 10
941.24227778750014
 20
-130.5399011252
 30
0.0
 11
938.24227778750003
 21
-130.5399011252
 31
0.0
  0
SOLID
  5
C0
  8
0
 62
     0
 10
941.24227778750014
 20
-130.5399011252
 30
0.0
 11
935.24227778750003
 21
-132.0399011252
 31
0.0
 12
935.24227778750003
 22
-129.0399011252
 32
0.0
 13
936.74227778750014
 23
-130.5399011252
 33
0.0
  0
LINE
  5
C1
  8
0
 62
     0
 10
846.24227778750003
 20
-130.5399011252
 30
0.0
 11
849.24227778750014
 21
-130.5399011252
 31
0.0
  0
SOLID
  5
C2
  8
0
 62
     0
 10
846.24227778750003
 20
-130.5399011252
 30
0.0
 11
852.24227778750003
 21
-129.0399011252
 31
0.0
 12
852.24227778750003
 22
-132.0399011252
 32
0.0
 13
850.74227778750003
 23
-130.5399011252
 33
0.0
  0
ENDBLK
  5
C3
  8
0
  0
BLOCK
  8
0
  2
*D10
 70
     1
 10
0.0
 20
0.0
 30
0.0
  3
*D10
  1

  0
TEXT
  5
C7
  8
0
 62
     0
 10
829.18672244389984
 20
-128.48156782359999
 30
0.0
 40
5.9972220420999998
  1
(20)
  0
LINE
  5
C8
  8
0
 62
     0
 10
826.24227778750003
 20
-111.5399011252
 30
0.0
 11
826.24227778750003
 21
-131.0399011252
 31
0.0
  0
LINE
  5
C9
  8
0
 62
     0
 10
846.24227778750003
 20
-96.539901125200004
 30
0.0
 11
846.24227778750003
 21
-131.0399011252
 31
0.0
  0
LINE
  5
CA
  8
0
 62
     0
 10
826.24227778750003
 20
-130.5399011252
 30
0.0
 11
826.24227778750003
 21
-130.5399011252
 31
0.0
  0
LINE
  5
CB
  8
0
 62
     0
 10
826.24227778750003
 20
-130.5399011252
 30
0.0
 11
846.24227778750003
 21
-130.5399011252
 31
0.0
  0
LINE
  5
CC
  8
0
 62
     0
 10
846.24227778750003
 20
-130.5399011252
 30
0.0
 11
826.24227778750003
 21
-130.5399011252
 31
0.0
  0
LINE
  5
CD
  8
0
 62
     0
 10
846.24227778750003
 20
-130.5399011252
 30
0.0
 11
846.24227778750003
 21
-130.5399011252
 31
0.0
  0
LINE
  5
CE
  8
0
 62
     0
 10
846.24227778750003
 20
-130.5399011252
 30
0.0
 11
843.24227778750003
 21
-130.5399011252
 31
0.0
  0
SOLID
  5
CF
  8
0
 62
     0
 10
846.24227778750003
 20
-130.5399011252
 30
0.0
 11
840.24227778749992
 21
-132.0399011252
 31
0.0
 12
840.24227778749992
 22
-129.0399011252
 32
0.0
 13
841.74227778750003
 23
-130.5399011252
 33
0.0
  0
LINE
  5
D0
  8
0
 62
     0
 10
826.24227778750003
 20
-130.5399011252
 30
0.0
 11
829.24227778750003
 21
-130.5399011252
 31
0.0
  0
SOLID
  5
D1
  8
0
 62
     0
 10
826.24227778750003
 20
-130.5399011252
 30
0.0
 11
832.24227778750014
 21
-129.0399011252
 31
0.0
 12
832.24227778750014
 22
-132.0399011252
 32
0.0
 13
830.74227778750003
 23
-130.5399011252
 33
0.0
  0
ENDBLK
  5
D2
  8
0
  0
BLOCK
  8
0
  2
*D11
 70
     1
 10
0.0
 20
0.0
 30
0.0
  3
*D11
  1

  0
TEXT
  5
EB
  8
0
 62
     0
 10
988.93882729849997
 20
-257.09444241170002
 30
0.0
 40
5.9972220420999998
  1
(148.5)
 50
90.0
  0
LINE
  5
EC
  8
0
 62
     0
 10
967.24227778750003
 20
-318.99722056040002
 30
0.0
 11
991.49716059999992
 21
-318.99722056040002
 31
0.0
  0
LINE
  5
ED
  8
0
 62
     0
 10
964.04227778749998
 20
-170.4972205604
 30
0.0
 11
991.49716059999992
 21
-170.4972205604
 31
0.0
  0
LINE
  5
EE
  8
0
 62
     0
 10
990.99716060000003
 20
-318.99722056040002
 30
0.0
 11
990.99716060000003
 21
-228.87222103720001
 31
0.0
  0
LINE
  5
EF
  8
0
 62
     0
 10
990.99716060000003
 20
-318.99722056040002
 30
0.0
 11
990.99716060000003
 21
-260.6222200835
 31
0.0
  0
LINE
  5
F0
  8
0
 62
     0
 10
990.99716060000003
 20
-170.4972205604
 30
0.0
 11
990.99716060000003
 21
-228.87222103720001
 31
0.0
  0
LINE
  5
F1
  8
0
 62
     0
 10
990.99716060000003
 20
-170.4972205604
 30
0.0
 11
990.99716060000003
 21
-260.6222200835
 31
0.0
  0
LINE
  5
F2
  8
0
 62
     0
 10
990.99716060000003
 20
-170.4972205604
 30
0.0
 11
990.99716060000003
 21
-173.4972205604
 31
0.0
  0
SOLID
  5
F3
  8
0
 62
     0
 10
990.99716060000003
 20
-170.4972205604
 30
0.0
 11
992.49716059999992
 21
-176.4972205604
 31
0.0
 12
989.49716060000003
 22
-176.4972205604
 32
0.0
 13
990.99716060000003
 23
-174.9972205604
 33
0.0
  0
LINE
  5
F4
  8
0
 62
     0
 10
990.99716060000003
 20
-318.99722056040002
 30
0.0
 11
990.99716060000003
 21
-315.99722056040002
 31
0.0
  0
SOLID
  5
F5
  8
0
 62
     0
 10
990.99716060000003
 20
-318.99722056040002
 30
0.0
 11
989.49716060000003
 21
-312.99722056040002
 31
0.0
 12
992.49716059999992
 22
-312.99722056040002
 32
0.0
 13
990.99716060000003
 23
-314.49722056040002
 33
0.0
  0
ENDBLK
  5
F6
  8
0
  0
BLOCK
  8
0
  2
*D12
 70
     1
 10
0.0
 20
0.0
 30
0.0
  3
*D12
  1

  0
TEXT
  5
FA
  8
0
 62
     0
 10
890.64965605889995
 20
-152.64759426539999
 30
0.0
 40
5.9972220420999998
  1
140
 50
0.8
  0
LINE
  5
FB
  8
0
 62
     0
 10
966.22800368399999
 20
-172.65263905929999
 30
0.0
 11
965.95574116740011
 21
-153.15453984109999
 31
0.0
  0
LINE
  5
FC
  8
0
 62
     0
 10
826.24165032269991
 20
-174.6073443068
 30
0.0
 11
825.96938780610003
 21
-155.10924508860001
 31
0.0
  0
LINE
  5
FD
  8
0
 62
     0
 10
965.96272225759981
 20
-153.65449110310001
 30
0.0
 11
904.78813007240001
 21
-154.50870505669999
 31
0.0
  0
LINE
  5
FE
  8
0
 62
     0
 10
965.96272225759981
 20
-153.65449110310001
 30
0.0
 11
887.15096108139994
 21
-154.75498239699999
 31
0.0
  0
LINE
  5
FF
  8
0
 62
     0
 10
825.97636889630007
 20
-155.6091963506
 30
0.0
 11
904.78813007240001
 21
-154.50870505669999
 31
0.0
  0
LINE
  5
100
  8
0
 62
     0
 10
825.97636889630007
 20
-155.6091963506
 30
0.0
 11
887.15096108139994
 21
-154.75498239699999
 31
0.0
  0
LINE
  5
101
  8
0
 62
     0
 10
825.97636889630007
 20
-155.6091963506
 30
0.0
 11
828.97607646829999
 21
-155.5673098096
 31
0.0
  0
SOLID
  5
102
  8
0
 62
     0
 10
825.97636889630007
 20
-155.6091963506
 30
0.0
 11
831.95484076979994
 21
-154.0255694825
 31
0.0
 12
831.9967273108
 22
-157.0252770546
 32
0.0
 13
830.4759302542999
 23
-155.54636653910001
 33
0.0
  0
LINE
  5
103
  8
0
 62
     0
 10
965.96272225759981
 20
-153.65449110310001
 30
0.0
 11
962.96301468550007
 21
-153.69637764410001
 31
0.0
  0
SOLID
  5
104
  8
0
 62
     0
 10
965.96272225759981
 20
-153.65449110310001
 30
0.0
 11
959.98425038399989
 21
-155.2381179711
 31
0.0
 12
959.94236384299995
 22
-152.23841039909999
 32
0.0
 13
961.46316089949994
 23
-153.71732091460001
 33
0.0
  0
ENDBLK
  5
105
  8
0
  0
BLOCK
  8
0
  2
*D13
 70
     1
 10
0.0
 20
0.0
 30
0.0
  3
*D13
  1

  0
TEXT
  5
109
  8
0
 62
     0
 10
933.88444565659995
 20
-330.79670454239999
 30
0.0
 40
5.9972220420999998
  1
3.2t
  0
LINE
  5
10A
  8
0
 62
     0
 10
963.04227778749987
 20
-319.99722056040002
 30
0.0
 11
963.04227778749987
 21
-333.35503784389999
 31
0.0
  0
LINE
  5
10B
  8
0
 62
     0
 10
966.24227778750014
 20
-319.99722056040002
 30
0.0
 11
966.24227778750014
 21
-333.35503784389999
 31
0.0
  0
LINE
  5
10C
  8
0
 62
     0
 10
963.04227778749987
 20
-332.85503784389999
 30
0.0
 11
951.52333401559986
 21
-332.85503784389999
 31
0.0
  0
LINE
  5
10D
  8
0
 62
     0
 10
963.04227778749987
 20
-332.85503784389999
 30
0.0
 11
930.35666798470004
 21
-332.85503784389999
 31
0.0
  0
LINE
  5
10E
  8
0
 62
     0
 10
966.24227778750014
 20
-332.85503784389999
 30
0.0
 11
951.52333401559986
 21
-332.85503784389999
 31
0.0
  0
LINE
  5
10F
  8
0
 62
     0
 10
966.24227778750014
 20
-332.85503784389999
 30
0.0
 11
930.35666798470004
 21
-332.85503784389999
 31
0.0
  0
LINE
  5
110
  8
0
 62
     0
 10
966.24227778750014
 20
-332.85503784389999
 30
0.0
 11
969.24227778750003
 21
-332.85503784389999
 31
0.0
  0
SOLID
  5
111
  8
0
 62
     0
 10
966.24227778750014
 20
-332.85503784389999
 30
0.0
 11
972.24227778749992
 21
-331.35503784389999
 31
0.0
 12
972.24227778749992
 22
-334.35503784389999
 32
0.0
 13
970.74227778750014
 23
-332.85503784389999
 33
0.0
  0
LINE
  5
112
  8
0
 62
     0
 10
963.04227778749987
 20
-332.85503784389999
 30
0.0
 11
960.04227778749987
 21
-332.85503784389999
 31
0.0
  0
SOLID
  5
113
  8
0
 62
     0
 10
963.04227778749987
 20
-332.85503784389999
 30
0.0
 11
957.04227778749998
 21
-334.35503784389999
 31
0.0
 12
957.04227778749998
 22
-331.35503784389999
 32
0.0
 13
958.54227778749987
 23
-332.85503784389999
 33
0.0
  0
ENDBLK
  5
114
  8
0
  0
BLOCK
  8
0
  2
*D14
 70
     1
 10
0.0
 20
0.0
 30
0.0
  3
*D14
  1

  0
TEXT
  5
118
  8
0
 62
     0
 10
666.20386636099988
 20
-254.2888870681
 30
0.0
 40
5.9972220420999998
  1
100
 50
90.0
  0
LINE
  5
119
  8
0
 62
     0
 10
699.76219966250005
 20
-198.9972205604
 30
0.0
 11
667.76219966250005
 21
-198.9972205604
 31
0.0
  0
LINE
  5
11A
  8
0
 62
     0
 10
699.76219966250005
 20
-298.99722056040002
 30
0.0
 11
667.76219966250005
 21
-298.99722056040002
 31
0.0
  0
LINE
  5
11B
  8
0
 62
     0
 10
668.26219966250005
 20
-198.9972205604
 30
0.0
 11
668.26219966250005
 21
-240.1777763808
 31
0.0
  0
LINE
  5
11C
  8
0
 62
     0
 10
668.26219966250005
 20
-198.9972205604
 30
0.0
 11
668.26219966250005
 21
-257.81666473990009
 31
0.0
  0
LINE
  5
11D
  8
0
 62
     0
 10
668.26219966250005
 20
-298.99722056040002
 30
0.0
 11
668.26219966250005
 21
-240.1777763808
 31
0.0
  0
LINE
  5
11E
  8
0
 62
     0
 10
668.26219966250005
 20
-298.99722056040002
 30
0.0
 11
668.26219966250005
 21
-257.81666473990009
 31
0.0
  0
LINE
  5
11F
  8
0
 62
     0
 10
668.26219966250005
 20
-298.99722056040002
 30
0.0
 11
668.26219966250005
 21
-295.99722056040002
 31
0.0
  0
SOLID
  5
120
  8
0
 62
     0
 10
668.26219966250005
 20
-298.99722056040002
 30
0.0
 11
666.76219966250005
 21
-292.99722056040002
 31
0.0
 12
669.76219966250005
 22
-292.99722056040002
 32
0.0
 13
668.26219966250005
 23
-294.49722056040002
 33
0.0
  0
LINE
  5
121
  8
0
 62
     0
 10
668.26219966250005
 20
-198.9972205604
 30
0.0
 11
668.26219966250005
 21
-201.9972205604
 31
0.0
  0
SOLID
  5
122
  8
0
 62
     0
 10
668.26219966250005
 20
-198.9972205604
 30
0.0
 11
669.76219966250005
 21
-204.9972205604
 31
0.0
 12
666.76219966250005
 22
-204.9972205604
 32
0.0
 13
668.26219966250005
 23
-203.4972205604
 33
0.0
  0
ENDBLK
  5
123
  8
0
  0
BLOCK
  8
0
  2
*D15
 70
     1
 10
0.0
 20
0.0
 30
0.0
  3
*D15
  1

  0
TEXT
  5
127
  8
0
 62
     0
 10
666.20386636099988
 20
-312.52499823220001
 30
0.0
 40
5.9972220420999998
  1
20
 50
90.0
  0
LINE
  5
128
  8
0
 62
     0
 10
699.76219966250005
 20
-298.99722056040002
 30
0.0
 11
667.76219966250005
 21
-298.99722056040002
 31
0.0
  0
LINE
  5
129
  8
0
 62
     0
 10
687.26219966250005
 20
-318.99722056040002
 30
0.0
 11
667.76219966250005
 21
-318.99722056040002
 31
0.0
  0
LINE
  5
12A
  8
0
 62
     0
 10
668.26219966250005
 20
-298.99722056040002
 30
0.0
 11
668.26219966250005
 21
-301.94166521670002
 31
0.0
  0
LINE
  5
12B
  8
0
 62
     0
 10
668.26219966250005
 20
-298.99722056040002
 30
0.0
 11
668.26219966250005
 21
-316.0527759040001
 31
0.0
  0
LINE
  5
12C
  8
0
 62
     0
 10
668.26219966250005
 20
-318.99722056040002
 30
0.0
 11
668.26219966250005
 21
-301.94166521670002
 31
0.0
  0
LINE
  5
12D
  8
0
 62
     0
 10
668.26219966250005
 20
-318.99722056040002
 30
0.0
 11
668.26219966250005
 21
-316.0527759040001
 31
0.0
  0
LINE
  5
12E
  8
0
 62
     0
 10
668.26219966250005
 20
-318.99722056040002
 30
0.0
 11
668.26219966250005
 21
-321.99722056040002
 31
0.0
  0
SOLID
  5
12F
  8
0
 62
     0
 10
668.26219966250005
 20
-318.99722056040002
 30
0.0
 11
669.76219966250005
 21
-324.99722056040002
 31
0.0
 12
666.76219966250005
 22
-324.99722056040002
 32
0.0
 13
668.26219966250005
 23
-323.49722056040002
 33
0.0
  0
LINE
  5
130
  8
0
 62
     0
 10
668.26219966250005
 20
-298.99722056040002
 30
0.0
 11
668.26219966250005
 21
-295.99722056040002
 31
0.0
  0
SOLID
  5
131
  8
0
 62
     0
 10
668.26219966250005
 20
-298.99722056040002
 30
0.0
 11
666.76219966250005
 21
-292.99722056040002
 31
0.0
 12
669.76219966250005
 22
-292.99722056040002
 32
0.0
 13
668.26219966250005
 23
-294.49722056040002
 33
0.0
  0
ENDBLK
  5
132
  8
0
  0
BLOCK
  8
0
  2
*D16
 70
     1
 10
0.0
 20
0.0
 30
0.0
  3
*D16
  1

  0
TEXT
  5
136
  8
0
 62
     0
 10
950.21450011570005
 20
-128.48156782359999
 30
0.0
 40
5.9972220420999998
  1
25
  0
LINE
  5
137
  8
0
 62
     0
 10
941.24227778750014
 20
-96.539901125200004
 30
0.0
 11
941.24227778750014
 21
-131.0399011252
 31
0.0
  0
LINE
  5
138
  8
0
 62
     0
 10
966.24227778750014
 20
-111.5399011252
 30
0.0
 11
966.24227778750014
 21
-131.0399011252
 31
0.0
  0
LINE
  5
139
  8
0
 62
     0
 10
941.24227778750014
 20
-130.5399011252
 30
0.0
 11
960.79783313119992
 21
-130.5399011252
 31
0.0
  0
LINE
  5
13A
  8
0
 62
     0
 10
941.24227778750014
 20
-130.5399011252
 30
0.0
 11
946.68672244389995
 21
-130.5399011252
 31
0.0
  0
LINE
  5
13B
  8
0
 62
     0
 10
966.24227778750014
 20
-130.5399011252
 30
0.0
 11
960.79783313119992
 21
-130.5399011252
 31
0.0
  0
LINE
  5
13C
  8
0
 62
     0
 10
966.24227778750014
 20
-130.5399011252
 30
0.0
 11
946.68672244389995
 21
-130.5399011252
 31
0.0
  0
LINE
  5
13D
  8
0
 62
     0
 10
966.24227778750014
 20
-130.5399011252
 30
0.0
 11
969.24227778750003
 21
-130.5399011252
 31
0.0
  0
SOLID
  5
13E
  8
0
 62
     0
 10
966.24227778750014
 20
-130.5399011252
 30
0.0
 11
972.24227778749992
 21
-129.0399011252
 31
0.0
 12
972.24227778749992
 22
-132.0399011252
 32
0.0
 13
970.74227778750014
 23
-130.5399011252
 33
0.0
  0
LINE
  5
13F
  8
0
 62
     0
 10
941.24227778750014
 20
-130.5399011252
 30
0.0
 11
938.24227778750003
 21
-130.5399011252
 31
0.0
  0
SOLID
  5
140
  8
0
 62
     0
 10
941.24227778750014
 20
-130.5399011252
 30
0.0
 11
935.24227778750003
 21
-132.0399011252
 31
0.0
 12
935.24227778750003
 22
-129.0399011252
 32
0.0
 13
936.74227778750014
 23
-130.5399011252
 33
0.0
  0
ENDBLK
  5
141
  8
0
  0
BLOCK
  8
0
  2
*D17
 70
     1
 10
0.0
 20
0.0
 30
0.0
  3
*D17
  1

  0
LINE
  5
1DC
  8
Éíû@É³
 62
     0
 10
891.70741275880027
 20
-171.19532957729999
 30
0.0
 11
804.48238638459497
 21
-171.19532957729999
 31
0.0
  0
LINE
  5
1DD
  8
Éíû@É³
 62
     0
 10
819.88119058444954
 20
-172.49594438187131
 30
0.0
 11
804.49296666496843
 21
-172.71081848440619
 31
0.0
  0
ARC
  5
1DE
  8
Éíû@É³
 62
     0
 10
913.0248110097001
 20
-171.19532957729999
 30
0.0
 40
107.2924246251052
 50
173.5909829834311
 51
176.7954914917155
  0
ARC
  5
1DF
  8
Éíû@É³
 62
     0
 10
913.0248110097001
 20
-171.19532957729999
 30
0.0
 40
107.2924246251052
 50
184.0045085083068
 51
187.2090170165913
  0
SOLID
  5
1E0
  8
Éíû@É³
 62
     0
 10
806.8997612054236
 20
-165.22563645053921
 30
0.0
 11
804.90054317399688
 21
-165.16971451550069
 31
0.0
 12
805.73238638459486
 22
-171.19532957729999
 32
0.0
 13
805.73238638459486
 23
-171.19532957729999
 33
0.0
  0
SOLID
  5
1E1
  8
Éíû@É³
 62
     0
 10
804.99521341827256
 20
-178.73000781290381
 30
0.0
 11
806.99345578179884
 21
-178.6461778862186
 31
0.0
 12
805.74284481997995
 22
-172.69336575898171
 32
0.0
 13
805.74284481997995
 23
-172.69336575898171
 33
0.0
  0
TEXT
  8
Éíû@É³
  40
5.99722
  5
236
  62
0
  72
0
  71
0
 10
795.409
 20
-162.950
 30
0.000000
  1
(1üï)
  0
POINT
  5
1E3
  8
Defpoints
 62
     0
 10
913.0248110097001
 20
-171.19532957729999
 30
0.0
  0
POINT
  5
1E4
  8
Defpoints
 62
     0
 10
891.76991275880027
 20
-171.19532957729999
 30
0.0
  0
POINT
  5
1E5
  8
Defpoints
 62
     0
 10
819.94368449220008
 20
-172.4950717456
 30
0.0
  0
POINT
  5
1E6
  8
Defpoints
 62
     0
 10
805.73703462005278
 20
-172.19403839318929
 30
0.0
  0
ENDBLK
  5
1E8
  8
0
  0
BLOCK
  8
0
  2
*U18
 70
     1
 10
0.0
 20
0.0
 30
0.0
  3
*U18
  1

  0
TEXT
  5
1EA
  8
┌▓È_1
  6
CONTINUOUS
 10
779.12682207691012
 20
-258.54741280274459
 30
0.0
 40
5.9972220420999998
  1
4-â│4.5îè
  0
ENDBLK
  5
1EC
  8
0
  0
BLOCK
  8
0
  2
*U19
 70
     1
 10
0.0
 20
0.0
 30
0.0
  3
*U19
  1

  0
TEXT
  5
1EE
  8
┌▓È_1
  6
CONTINUOUS
 10
1027.8917836976
 20
-383.9672716671929
 30
0.0
 40
5.9972220420999998
  1
òØìLÉàÉÏéÞâJâoü[
  0
TEXT
  5
1EF
  8
┌▓È_1
  6
CONTINUOUS
 10
1027.8917836976
 20
-394.57149676701442
 30
0.0
 40
5.9972220420999998
  1
 ÉÛùpâuâëâPâbâg
  0
ENDBLK
  5
1F1
  8
0
  0
BLOCK
  8
0
  2
*U20
 70
     1
 10
0.0
 20
0.0
 30
0.0
  3
*U20
  1

  0
TEXT
  5
1F3
  8
┌▓È_1
  6
CONTINUOUS
 10
873.92298917059986
 20
-355.37601223250709
 30
0.0
 40
7.1966662884000003
  1
ò\û╩ÅêùØüFâåâjâNâìâüâbâL
  0
ENDBLK
  5
1F5
  8
0
  0
BLOCK
  8
0
  2
*U21
 70
     1
 10
0.0
 20
0.0
 30
0.0
  3
*U21
  1

  0
TEXT
  5
1F7
  8
┌▓È_1
  6
CONTINUOUS
 10
872.99221754810003
 20
-391.13594255500408
 30
0.0
 40
4.6749999999999989
  1
 É╗É}ü@ü@ è¦û{
  0
ENDBLK
  5
1F9
  8
0
  0
BLOCK
  8
0
  2
*U22
 70
     1
 10
0.0
 20
0.0
 30
0.0
  3
*U22
  1

  0
TEXT
  5
1FB
  8
┌▓È_1
  6
CONTINUOUS
 10
872.99221754810003
 20
-382.61221159053707
 30
0.0
 40
4.6749999999999989
  1
 É¦îvü@ü@öÆÉ{ëÛ
  0
ENDBLK
  5
1FD
  8
0
  0
BLOCK
  8
0
  2
*U23
 70
     1
 10
0.0
 20
0.0
 30
0.0
  3
*U23
  1

  0
TEXT
  5
1FF
  8
┌▓È_1
  6
CONTINUOUS
 10
1032.8159222411
 20
-370.69666628840002
 30
0.0
 40
7.1966662884000003
  1
éaéj-éPéSéO
  0
ENDBLK
  5
201
  8
0
  0
BLOCK
  8
0
  2
*U24
 70
     1
 10
0.0
 20
0.0
 30
0.0
  3
*U24
  1

  0
TEXT
  5
203
  8
┌▓È_1
  6
CONTINUOUS
 10
969.92298917059998
 20
-365.61221159053707
 30
0.0
 40
4.6749999999999989
  1
ü@îƒ ü@ê¾
  0
ENDBLK
  5
205
  8
0
  0
BLOCK
  8
0
  2
*U25
 70
     1
 10
0.0
 20
0.0
 30
0.0
  3
*U25
  1

  0
TEXT
  5
207
  8
┌▓È_1
  6
CONTINUOUS
 10
937.92298917059998
 20
-382.58848062607012
 30
0.0
 40
4.6749999999999989
  1
ü@Ä┌ ü@ôx
  0
ENDBLK
  5
209
  8
0
  0
BLOCK
  8
0
  2
*U26
 70
     1
 10
0.0
 20
0.0
 30
0.0
  3
*U26
  1

  0
TEXT
  5
20B
  8
┌▓È_1
  6
CONTINUOUS
 10
937.92298917059998
 20
-365.61221159053707
 30
0.0
 40
4.6749999999999989
  1
ü@ö┬ ü@î·
  0
ENDBLK
  5
20D
  8
0
  0
BLOCK
  8
0
  2
*U27
 70
     1
 10
0.0
 20
0.0
 30
0.0
  3
*U27
  1

  0
TEXT
  5
20F
  8
┌▓È_1
  6
CONTINUOUS
 10
905.92298917059986
 20
-365.5172877326691
 30
0.0
 40
4.6749999999999989
  1
ü@ìÌ ü@Ä┐
  0
ENDBLK
  5
211
  8
0
  0
BLOCK
  8
0
  2
*U28
 70
     1
 10
0.0
 20
0.0
 30
0.0
  3
*U28
  1

  0
TEXT
  5
213
  8
┌▓È_1
  6
CONTINUOUS
 62
     5
 10
946.7865703399782
 20
-390.8511709814
 30
0.0
 40
4.6749999999999989
  1
1üF2
  0
ENDBLK
  5
215
  8
0
  0
BLOCK
  8
0
  2
*U29
 70
     1
 10
0.0
 20
0.0
 30
0.0
  3
*U29
  1

  0
TEXT
  5
217
  8
┌▓È_1
  6
CONTINUOUS
 62
     5
 10
946.96455257348077
 20
-373.8511709814
 30
0.0
 40
4.6749999999999989
  1
3.2t
  0
ENDBLK
  5
219
  8
0
  0
BLOCK
  8
0
  2
*U30
 70
     1
 10
0.0
 20
0.0
 30
0.0
  3
*U30
  1

  0
TEXT
  5
21B
  8
┌▓È_1
  6
CONTINUOUS
 62
     5
 10
914.89335968007958
 20
-373.8511709814
 30
0.0
 40
4.6749999999999989
  1
SPHC
  0
ENDBLK
  5
21D
  8
0
  0
BLOCK
  8
0
  2
*U31
 70
     1
 10
0.0
 20
0.0
 30
0.0
  3
*U31
  1

  0
TEXT
  5
21F
  8
┌▓È_1
  6
CONTINUOUS
 62
     5
 10
881.36271247195782
 20
-373.8511709814
 30
0.0
 40
4.6749999999999989
  1
H16.4
  0
ENDBLK
  5
221
  8
0
  0
BLOCK
  8
0
  2
*U32
 70
     1
 10
0.0
 20
0.0
 30
0.0
  3
*U32
  1

  0
TEXT
  5
223
  8
┌▓È_1
  6
CONTINUOUS
 10
1002.7732164555
 20
-399.45949050320212
 30
0.0
 40
4.6749999999999989
  1
É}öÈ
  0
ENDBLK
  5
225
  8
0
  0
BLOCK
  8
0
  2
*U33
 70
     1
 10
0.0
 20
0.0
 30
0.0
  3
*U33
  1

  0
TEXT
  5
227
  8
┌▓È_1
  6
CONTINUOUS
 10
1002.7732164555
 20
-382.50695243213602
 30
0.0
 40
4.6749999999999989
  1
òiû╝
  0
ENDBLK
  5
229
  8
0
  0
BLOCK
  8
0
  2
*U34
 70
     1
 10
0.0
 20
0.0
 30
0.0
  3
*U34
  1

  0
TEXT
  5
22B
  8
┌▓È_1
  6
CONTINUOUS
 10
1002.7732164555
 20
-365.45949050320212
 30
0.0
 40
4.6749999999999989
  1
î^öÈ
  0
ENDBLK
  5
22D
  8
0
  0
BLOCK
  8
0
  2
*U35
 70
     1
 10
0.0
 20
0.0
 30
0.0
  3
*U35
  1

  0
TEXT
  5
22F
  8
┌▓È_1
  6
CONTINUOUS
 10
873.92298917059986
 20
-365.44609483926803
 30
0.0
 40
4.6749999999999989
  1
ü@ô· ü@òt
  0
ENDBLK
  5
231
  8
0
  0
BLOCK
  8
0
  2
*U36
 70
     1
 10
0.0
 20
0.0
 30
0.0
  3
*U36
  1

  0
TEXT
  5
233
  8
┌▓È_1
  6
CONTINUOUS
 10
887.43332499759993
 20
-405.76998389432742
 30
0.0
 40
8.6359998702999992
  1
èöÄ«ë´Äð
  0
ENDBLK
  5
235
  8
0
  0
ENDSEC
  0
SECTION
  2
ENTITIES
  0
DIMENSION
  5
3E
  8
Éíû@É³
  2
*D0
 10
934.8264555891999
 20
-188.05499149080001
 30
0.0
 11
924.12004918390005
 21
-198.76139789609999
 31
0.0
 70
   129
  1
<>
 13
942.34075918169992
 23
-195.56929508330001
 33
0.0
 14
921.12755574610003
 24
-216.78249851890001
 34
0.0
  0
DIMENSION
  5
4D
  8
Éíû@É³
  2
*D1
 10
865.07069808089989
 20
-189.0099121012
 30
0.0
 11
906.98542012229996
 21
-230.9246341427
 31
0.0
 70
   129
  1
(118.5)
 13
879.21283370459992
 23
-174.8677764775
 33
0.0
 14
963.04227778749987
 24
-258.69722056040001
 34
0.0
  0
DIMENSION
  5
5C
  8
Éíû@É³
  2
*D2
 10
990.26161372499985
 20
-110.5399011252
 30
0.0
 11
990.26161372499985
 21
-85.444783937700009
 31
0.0
 70
   128
  1
<>
 13
966.24227778750014
 23
-110.5399011252
 33
0.0
 14
966.24227778750014
 24
-60.539901125200011
 34
0.0
 50
90.0
  0
DIMENSION
  5
6B
  8
Éíû@É³
  2
*D3
 10
801.24227778750003
 20
-60.539901125200011
 30
0.0
 11
801.24227778750003
 21
-73.039901125200004
 31
0.0
 70
   128
  1
<>
 13
826.24227778750003
 23
-60.539901125200011
 33
0.0
 14
821.24227778750003
 24
-85.539901125200004
 34
0.0
 50
90.0
  0
DIMENSION
  5
7A
  8
Éíû@É³
  2
*D4
 10
801.24227778750003
 20
-85.539901125200004
 30
0.0
 11
801.24227778750003
 21
-98.039901125200004
 31
0.0
 70
   128
  1
<>
 13
821.24227778750003
 23
-85.539901125200004
 33
0.0
 14
826.24227778750003
 24
-110.5399011252
 34
0.0
 50
90.0
  0
DIMENSION
  5
89
  8
Éíû@É³
  2
*D5
 10
738.26219966250005
 20
-145.4972205604
 30
0.0
 11
725.76219966250005
 21
-145.4972205604
 31
0.0
 70
   128
  1
<>
 13
738.26219966250005
 23
-170.4972205604
 33
0.0
 14
713.26219966250005
 24
-165.4972205604
 34
0.0
  0
DIMENSION
  5
98
  8
Éíû@É³
  2
*D6
 10
713.26219966250005
 20
-145.4972205604
 30
0.0
 11
700.76219966250005
 21
-145.4972205604
 31
0.0
 70
   128
  1
<>
 13
713.26219966250005
 23
-165.4972205604
 33
0.0
 14
688.26219966250005
 24
-170.4972205604
 34
0.0
  0
DIMENSION
  5
A6
  8
Éíû@É³
  2
*D17
 10
805.73703462005278
 20
-172.19403839318929
 30
0.0
 11
807.40304108460032
 21
-152.3351572604
 31
0.0
 70
   133
  1
(<>)
 13
891.76991275880005
 23
-171.19532957729999
 33
0.0
 14
819.94368449219985
 24
-172.4950717456
 34
0.0
 15
913.02481100969987
 25
-171.19532957729999
 35
0.0
1001
ACAD
1000
DSTYLE
1002
{
1070
   271
1070
     0
1002
}
  0
DIMENSION
  5
B5
  8
Éíû@É³
  2
*D8
 10
668.26219966250005
 20
-170.4972205604
 30
0.0
 11
668.26219966250005
 21
-184.7472205604
 31
0.0
 70
   128
  1
(28.5)
 13
688.26219966250005
 23
-170.4972205604
 33
0.0
 14
700.76219966250005
 24
-198.9972205604
 34
0.0
 50
90.0
  0
DIMENSION
  5
C4
  8
Éíû@É³
  2
*D9
 10
846.24227778750003
 20
-130.5399011252
 30
0.0
 11
893.74227778749992
 21
-130.5399011252
 31
0.0
 70
   128
  1
<>
 13
846.24227778750003
 23
-95.539901125200004
 33
0.0
 14
941.24227778750014
 24
-95.539901125200004
 34
0.0
 50
180.0
  0
DIMENSION
  5
D3
  8
Éíû@É³
  2
*D10
 10
826.24227778750003
 20
-130.5399011252
 30
0.0
 11
836.24227778750003
 21
-130.5399011252
 31
0.0
 70
   128
  1
(20)
 13
826.24227778750003
 23
-110.5399011252
 33
0.0
 14
846.24227778750003
 24
-95.539901125200004
 34
0.0
 50
180.0
  0
INSERT
  5
D5
  8
0
  6
CONTINUOUS
  2
*U18
 10
0.0
 20
0.0
 30
0.0
  0
LINE
  5
D6
  8
┌▓È_1
 62
     5
 10
1112.9922175480999
 20
-410.26510416669998
 30
0.0
 11
1112.9922175480999
 21
-30.265104166699999
 31
0.0
  0
LINE
  5
D7
  8
┌▓È_1
 10
1000.9922175481
 20
-376.26510416669998
 30
0.0
 11
1112.9922175480999
 21
-376.26510416669998
 31
0.0
  0
INSERT
  5
D8
  8
0
  6
CONTINUOUS
  2
*U19
 10
0.0
 20
0.0
 30
0.0
  0
INSERT
  5
D9
  8
0
  6
CONTINUOUS
  2
*U20
 10
0.0
 20
0.0
 30
0.0
  0
ARC
  5
DA
  8
┌▓È_1
 62
     5
 10
961.16358997700002
 20
-398.72882741960001
 30
0.0
 40
6.0800000000000001
 50
331.39928138329998
 51
358.49204224580001
  0
INSERT
  5
DB
  8
0
  6
CONTINUOUS
  2
*U21
 10
0.0
 20
0.0
 30
0.0
  0
INSERT
  5
DC
  8
0
  6
CONTINUOUS
  2
*U22
 10
0.0
 20
0.0
 30
0.0
  0
LINE
  5
DD
  8
┌▓È_1
 10
940.99221754810003
 20
-384.76510416669998
 30
0.0
 11
964.99221754810003
 21
-384.76510416669998
 31
0.0
  0
LINE
  5
DE
  8
┌▓È_1
 10
940.99221754810003
 20
-367.76510416669998
 30
0.0
 11
964.99221754810003
 21
-367.76510416669998
 31
0.0
  0
LINE
  5
DF
  8
┌▓È_1
 10
876.99221754809992
 20
-384.76510416669998
 30
0.0
 11
932.99221754810003
 21
-384.76510416669998
 31
0.0
  0
LINE
  5
E0
  8
┌▓È_1
 10
908.99221754810003
 20
-367.76510416669998
 30
0.0
 11
932.99221754810003
 21
-367.76510416669998
 31
0.0
  0
INSERT
  5
E1
  8
0
  6
CONTINUOUS
  2
*U23
 10
0.0
 20
0.0
 30
0.0
  0
LINE
  5
E2
  8
┌▓È_1
 62
     5
 10
991.59156221429976
 20
-398.72882741960001
 30
0.0
 11
991.59156221429976
 21
-401.6088274196
 31
0.0
  0
LINE
  5
E3
  8
┌▓È_1
 10
968.99221754809992
 20
-367.76510416669998
 30
0.0
 11
1000.9922175481
 21
-367.76510416669998
 31
0.0
  0
LINE
  5
E4
  8
┌▓È_1
 10
872.99221754810003
 20
-376.26510416669998
 30
0.0
 11
968.99221754809992
 21
-376.26510416669998
 31
0.0
  0
INSERT
  5
E5
  8
0
  6
CONTINUOUS
  2
*U24
 10
0.0
 20
0.0
 30
0.0
  0
INSERT
  5
E6
  8
0
  6
CONTINUOUS
  2
*U25
 10
0.0
 20
0.0
 30
0.0
  0
INSERT
  5
E7
  8
0
  6
CONTINUOUS
  2
*U26
 10
0.0
 20
0.0
 30
0.0
  0
LINE
  5
E8
  8
┌▓È_1
 62
     5
 10
941.38662028009992
 20
-401.6088274196
 30
0.0
 11
941.14485418159995
 21
-401.6088274196
 31
0.0
  0
DIMENSION
  5
F7
  8
Éíû@É³
  2
*D11
 10
990.99716060000003
 20
-318.99722056040002
 30
0.0
 11
990.99716060000003
 21
-244.7472205604
 31
0.0
 70
   128
  1
(<>)
 13
966.24227778750014
 23
-318.99722056040002
 33
0.0
 14
963.04227778749987
 24
-170.4972205604
 34
0.0
 50
90.0
  0
DIMENSION
  5
106
  8
Éíû@É³
  2
*D12
 10
965.96272225759981
 20
-153.65449110310001
 30
0.0
 11
895.96954557690015
 21
-154.63184372680001
 31
0.0
 70
   129
  1
140
 13
966.24196586440007
 23
-173.65254158330001
 33
0.0
 14
826.2556125031
 24
-175.60724683079999
 34
0.0
  0
DIMENSION
  5
115
  8
Éíû@É³
  2
*D13
 10
963.04227778749987
 20
-332.85503784389999
 30
0.0
 11
940.94000100020003
 21
-332.85503784389999
 31
0.0
 70
   128
  1
<>t
 13
963.04227778749987
 23
-318.99722056040002
 33
0.0
 14
966.24227778750014
 24
-318.99722056040002
 34
0.0
 50
180.0
  0
DIMENSION
  5
124
  8
Éíû@É³
  2
*D14
 10
668.26219966250005
 20
-198.9972205604
 30
0.0
 11
668.26219966250005
 21
-248.9972205604
 31
0.0
 70
   128
  1
<>
 13
700.76219966250005
 23
-198.9972205604
 33
0.0
 14
700.76219966250005
 24
-298.99722056040002
 34
0.0
 50
90.0
  0
DIMENSION
  5
133
  8
Éíû@É³
  2
*D15
 10
668.26219966250005
 20
-298.99722056040002
 30
0.0
 11
668.26219966250005
 21
-308.99722056040002
 31
0.0
 70
   128
  1
<>
 13
700.76219966250005
 23
-298.99722056040002
 33
0.0
 14
688.26219966250005
 24
-318.99722056040002
 34
0.0
 50
90.0
  0
DIMENSION
  5
142
  8
Éíû@É³
  2
*D16
 10
941.24227778750014
 20
-130.5399011252
 30
0.0
 11
953.74227778750014
 21
-130.5399011252
 31
0.0
 70
   128
  1
<>
 13
941.24227778750014
 23
-95.539901125200004
 33
0.0
 14
966.24227778750014
 24
-110.5399011252
 34
0.0
 50
180.0
  0
LINE
  5
143
  8
┌▓È_1
 62
     5
 10
983.91156221429992
 20
-408.00882741959998
 30
0.0
 11
983.25449554759984
 21
-405.76882741959992
 31
0.0
  0
LINE
  5
144
  8
┌▓È_1
 62
     5
 10
946.18662028009987
 20
-404.80882741959999
 30
0.0
 11
941.38662028009992
 21
-404.80882741959999
 31
0.0
  0
LINE
  5
145
  8
┌▓È_1
 62
     5
 10
959.24358997699983
 20
-398.88882741959998
 30
0.0
 11
967.24358997699994
 21
-398.88882741959998
 31
0.0
  0
LINE
  5
146
  8
┌▓È_1
 62
     5
 10
952.58662028009985
 20
-402.40882741960002
 30
0.0
 11
952.58662028009985
 21
-401.6088274196
 31
0.0
  0
LINE
  5
147
  8
┌▓È_1
 62
     5
 10
977.19156221429978
 20
-401.6088274196
 30
0.0
 11
982.0342288810001
 21
-401.6088274196
 31
0.0
  0
LINE
  5
148
  8
┌▓È_1
 62
     5
 10
977.19156221429978
 20
-402.88882741959992
 30
0.0
 11
977.19156221429978
 21
-405.76882741959992
 31
0.0
  0
LINE
  5
149
  8
┌▓È_1
 62
     5
 10
945.38662028009981
 20
-404.00882741959998
 30
0.0
 11
945.38662028009981
 21
-401.6088274196
 31
0.0
  0
LINE
  5
14A
  8
┌▓È_1
 62
     5
 10
987.74696913799994
 20
-405.76882741959992
 30
0.0
 11
991.59156221429976
 21
-405.76882741959992
 31
0.0
  0
LINE
  5
14B
  8
┌▓È_1
 62
     5
 10
954.98662028009983
 20
-396.00882741959998
 30
0.0
 11
948.58662028009996
 21
-396.00882741959998
 31
0.0
  0
LINE
  5
14C
  8
┌▓È_1
 62
     5
 10
959.24358997699983
 20
-396.00882741959998
 30
0.0
 11
959.24358997699983
 21
-398.88882741959998
 31
0.0
  0
INSERT
  5
14D
  8
0
  6
CONTINUOUS
  2
*U27
 10
0.0
 20
0.0
 30
0.0
  0
INSERT
  5
14E
  8
0
  6
CONTINUOUS
  2
*U28
 10
0.0
 20
0.0
 30
0.0
  0
INSERT
  5
14F
  8
0
  6
CONTINUOUS
  2
*U29
 10
0.0
 20
0.0
 30
0.0
  0
INSERT
  5
150
  8
0
  6
CONTINUOUS
  2
*U30
 10
0.0
 20
0.0
 30
0.0
  0
INSERT
  5
151
  8
0
  6
CONTINUOUS
  2
*U31
 10
0.0
 20
0.0
 30
0.0
  0
INSERT
  5
152
  8
0
  6
CONTINUOUS
  2
*U32
 10
0.0
 20
0.0
 30
0.0
  0
INSERT
  5
153
  8
0
  6
CONTINUOUS
  2
*U33
 10
0.0
 20
0.0
 30
0.0
  0
INSERT
  5
154
  8
0
  6
CONTINUOUS
  2
*U34
 10
0.0
 20
0.0
 30
0.0
  0
INSERT
  5
155
  8
0
  6
CONTINUOUS
  2
*U35
 10
0.0
 20
0.0
 30
0.0
  0
LINE
  5
156
  8
┌▓È_1
 62
     5
 10
562.99221754810003
 20
-410.26510416669998
 30
0.0
 11
562.99221754810003
 21
-30.265104166699999
 31
0.0
  0
LINE
  5
157
  8
┌▓È_1
 10
872.99221754810003
 20
-393.26510416669998
 30
0.0
 11
1112.9922175480999
 21
-393.26510416669998
 31
0.0
  0
LINE
  5
158
  8
┌▓È_1
 10
872.99221754810003
 20
-359.26510416669998
 30
0.0
 11
1112.9922175480999
 21
-359.26510416669998
 31
0.0
  0
LINE
  5
159
  8
┌▓È_1
 62
     5
 10
959.24358997699983
 20
-404.80882741959999
 30
0.0
 11
959.24358997699983
 21
-407.20882741960003
 31
0.0
  0
LINE
  5
15A
  8
┌▓È_1
 62
     5
 10
562.99221754810003
 20
-410.26510416669998
 30
0.0
 11
1112.9922175480999
 21
-410.26510416669998
 31
0.0
  0
LINE
  5
15B
  8
┌▓È_1
 62
     5
 10
562.99221754810003
 20
-30.265104166699999
 30
0.0
 11
1112.9922175480999
 21
-30.265104166699999
 31
0.0
  0
LINE
  5
15C
  8
┌▓È_1
 62
     5
 10
972.04358997700001
 20
-398.40882741960002
 30
0.0
 11
973.64358997699992
 21
-396.00882741959998
 31
0.0
  0
LINE
  5
15D
  8
┌▓È_1
 62
     5
 10
941.38662028009992
 20
-407.20882741960003
 30
0.0
 11
947.7866202800999
 21
-407.20882741960003
 31
0.0
  0
LINE
  5
15E
  8
┌▓È_1
 62
     5
 10
959.24358997699983
 20
-407.20882741960003
 30
0.0
 11
963.24358997699994
 21
-407.20882741960003
 31
0.0
  0
LINE
  5
15F
  8
┌▓È_1
 10
872.99221754810003
 20
-359.26510416669998
 30
0.0
 11
872.99221754810003
 21
-410.26510416669998
 31
0.0
  0
LINE
  5
160
  8
┌▓È_1
 62
     5
 10
952.58662028009985
 20
-401.6088274196
 30
0.0
 11
954.98662028009983
 21
-401.6088274196
 31
0.0
  0
ARC
  5
161
  8
┌▓È_1
 62
     5
 10
963.24358997699994
 20
-398.40882741960002
 30
0.0
 40
8.8000000000000007
 50
270.0
 51
302.54495885400001
  0
LINE
  5
162
  8
┌▓È_1
 62
     5
 10
939.54485418160004
 20
-401.6088274196
 30
0.0
 11
941.14485418159995
 21
-401.6088274196
 31
0.0
  0
LINE
  5
163
  8
┌▓È_1
 62
     5
 10
977.19156221429978
 20
-402.88882741959992
 30
0.0
 11
982.40969554759988
 21
-402.88882741959992
 31
0.0
  0
LINE
  5
164
  8
┌▓È_1
 62
     5
 10
954.98662028009983
 20
-399.20882741960003
 30
0.0
 11
952.58662028009985
 21
-399.20882741960003
 31
0.0
  0
LINE
  5
165
  8
┌▓È_1
 62
     5
 10
952.58662028009985
 20
-399.20882741960003
 30
0.0
 11
952.58662028009985
 21
-398.40882741960002
 31
0.0
  0
LINE
  5
166
  8
┌▓È_1
 10
876.99221754809992
 20
-367.76510416669998
 30
0.0
 11
900.99221754809992
 21
-367.76510416669998
 31
0.0
  0
LINE
  5
167
  8
┌▓È_1
 10
936.99221754810014
 20
-359.26510416669998
 30
0.0
 11
936.99221754810014
 21
-393.26510416669998
 31
0.0
  0
LINE
  5
168
  8
┌▓È_1
 62
     5
 10
965.64358997699992
 20
-399.72420384759999
 30
0.0
 11
964.73849329710004
 21
-400.62930052749999
 31
0.0
  0
LINE
  5
169
  8
┌▓È_1
 62
     5
 10
959.24358997699983
 20
-400.23958027559991
 30
0.0
 11
959.24358997699983
 21
-399.72420384759999
 31
0.0
  0
LINE
  5
16A
  8
┌▓È_1
 62
     5
 10
939.54485418160004
 20
-399.20882741960003
 30
0.0
 11
939.54485418160004
 21
-401.6088274196
 31
0.0
  0
LINE
  5
16B
  8
┌▓È_1
 62
     5
 10
954.98662028009983
 20
-399.20882741960003
 30
0.0
 11
954.98662028009983
 21
-401.6088274196
 31
0.0
  0
LINE
  5
16C
  8
┌▓È_1
 62
     5
 10
983.91156221429992
 20
-408.00882741959998
 30
0.0
 11
988.39156221430005
 21
-408.00882741959998
 31
0.0
  0
LINE
  5
16D
  8
┌▓È_1
 62
     5
 10
945.38662028009981
 20
-399.20882741960003
 30
0.0
 11
945.38662028009981
 21
-398.40882741960002
 31
0.0
  0
LINE
  5
16E
  8
┌▓È_1
 62
     5
 10
959.24358997699983
 20
-407.20882741960003
 30
0.0
 11
959.24358997699983
 21
-404.80882741959999
 31
0.0
  0
LINE
  5
16F
  8
┌▓È_1
 62
     5
 10
941.38662028009992
 20
-399.20882741960003
 30
0.0
 11
939.54485418160004
 21
-399.20882741960003
 31
0.0
  0
LINE
  5
170
  8
┌▓È_1
 62
     5
 10
991.59156221429976
 20
-402.88882741959992
 30
0.0
 11
991.59156221429976
 21
-405.76882741959992
 31
0.0
  0
LINE
  5
171
  8
┌▓È_1
 62
     5
 10
973.64358997699992
 20
-404.80882741959999
 30
0.0
 11
973.64358997699992
 21
-407.20882741960003
 31
0.0
  0
LINE
  5
172
  8
┌▓È_1
 62
     5
 10
972.04358997700001
 20
-398.40882741960002
 30
0.0
 11
973.64358997699992
 21
-396.00882741959998
 31
0.0
  0
LINE
  5
173
  8
┌▓È_1
 62
     5
 10
941.38662028009992
 20
-404.80882741959999
 30
0.0
 11
941.38662028009992
 21
-407.20882741960003
 31
0.0
  0
LINE
  5
174
  8
┌▓È_1
 62
     5
 10
986.91820661130009
 20
-402.88882741959992
 30
0.0
 11
986.54986771059998
 21
-401.6088274196
 31
0.0
  0
ARC
  5
175
  8
┌▓È_1
 62
     5
 10
946.18662028009987
 20
-402.40882741960002
 30
0.0
 40
2.399999999999999
 50
270.0
 51
0.0
  0
LINE
  5
176
  8
┌▓È_1
 62
     5
 10
966.50168996369985
 20
-401.63934086779989
 30
0.0
 11
966.11673667360003
 21
-402.06452224470002
 31
0.0
  0
LINE
  5
177
  8
┌▓È_1
 62
     5
 10
959.24358997699983
 20
-399.72420384759999
 30
0.0
 11
965.64358997699992
 21
-399.72420384759999
 31
0.0
  0
LINE
  5
178
  8
┌▓È_1
 62
     5
 10
977.19156221429978
 20
-398.72882741960001
 30
0.0
 11
977.19156221429978
 21
-401.6088274196
 31
0.0
  0
LINE
  5
179
  8
┌▓È_1
 10
968.99221754809992
 20
-359.26510416669998
 30
0.0
 11
968.99221754809992
 21
-393.26510416669998
 31
0.0
  0
LINE
  5
17A
  8
┌▓È_1
 10
904.99221754810003
 20
-359.26510416669998
 30
0.0
 11
904.99221754810003
 21
-376.26510416669998
 31
0.0
  0
LINE
  5
17B
  8
┌▓È_1
 10
1000.9922175481
 20
-359.26510416669998
 30
0.0
 11
1000.9922175481
 21
-410.26510416669998
 31
0.0
  0
ARC
  5
17C
  8
┌▓È_1
 62
     5
 10
947.7866202800999
 20
-402.40882741960002
 30
0.0
 40
4.7999999999999989
 50
270.0
 51
0.0
  0
LINE
  5
17D
  8
┌▓È_1
 62
     5
 10
985.48687438360002
 20
-397.91486119490003
 30
0.0
 11
986.79156221430003
 21
-396.00882741959998
 31
0.0
  0
LINE
  5
17E
  8
┌▓È_1
 62
     5
 10
948.58662028009996
 20
-399.20882741960003
 30
0.0
 11
945.38662028009981
 21
-399.20882741960003
 31
0.0
  0
LINE
  5
17F
  8
┌▓È_1
 62
     5
 10
947.7866202800999
 20
-396.00882741959998
 30
0.0
 11
941.38662028009992
 21
-396.00882741959998
 31
0.0
  0
LINE
  5
180
  8
┌▓È_1
 62
     5
 10
945.38662028009981
 20
-398.40882741960002
 30
0.0
 11
947.7866202800999
 21
-396.00882741959998
 31
0.0
  0
LINE
  5
181
  8
┌▓È_1
 62
     5
 10
941.38662028009992
 20
-396.00882741959998
 30
0.0
 11
941.38662028009992
 21
-399.20882741960003
 31
0.0
  0
LINE
  5
182
  8
┌▓È_1
 62
     5
 10
981.18942888100003
 20
-398.72882741960001
 30
0.0
 11
980.39156221430005
 21
-396.00882741959998
 31
0.0
  0
LINE
  5
183
  8
┌▓È_1
 62
     5
 10
985.72110518399995
 20
-398.72882741960001
 30
0.0
 11
991.59156221429976
 21
-398.72882741960001
 31
0.0
  0
INSERT
  5
184
  8
0
  6
CONTINUOUS
  2
*U36
 10
0.0
 20
0.0
 30
0.0
  0
LINE
  5
185
  8
┌▓È_1
 62
     5
 10
941.38662028009992
 20
-401.6088274196
 30
0.0
 11
941.38662028009992
 21
-404.00882741959998
 31
0.0
  0
LINE
  5
186
  8
┌▓È_1
 62
     5
 10
970.22394094039987
 20
-403.76743735399998
 30
0.0
 11
969.9389776447
 21
-404.04644238470001
 31
0.0
  0
ARC
  5
187
  8
┌▓È_1
 62
     5
 10
961.16358997700002
 20
-398.72882741960001
 30
0.0
 40
6.0800000000000001
 50
270.0
 51
298.08590481520002
  0
LINE
  5
188
  8
┌▓È_1
 62
     5
 10
977.19156221429978
 20
-398.72882741960001
 30
0.0
 11
981.18942888100003
 21
-398.72882741960001
 31
0.0
  0
LINE
  5
189
  8
┌▓È_1
 62
     5
 10
948.58662028009996
 20
-401.6088274196
 30
0.0
 11
948.58662028009996
 21
-402.40882741960002
 31
0.0
  0
LINE
  5
18A
  8
┌▓È_1
 62
     5
 10
945.38662028009981
 20
-401.6088274196
 30
0.0
 11
948.58662028009996
 21
-401.6088274196
 31
0.0
  0
LINE
  5
18B
  8
┌▓È_1
 62
     5
 10
988.39156221430005
 20
-408.00882741959998
 30
0.0
 11
987.74696913799994
 21
-405.76882741959992
 31
0.0
  0
LINE
  5
18C
  8
┌▓È_1
 62
     5
 10
959.24358997699983
 20
-404.80882741959999
 30
0.0
 11
961.16358997700002
 21
-404.80882741959999
 31
0.0
  0
LINE
  5
18D
  8
┌▓È_1
 62
     5
 10
980.39156221430005
 20
-396.00882741959998
 30
0.0
 11
986.79156221430003
 21
-396.00882741959998
 31
0.0
  0
LINE
  5
18E
  8
┌▓È_1
 62
     5
 10
826.21093352600008
 20
-172.40755875389999
 30
0.0
 11
962.99759881039995
 21
-170.49753248350001
 31
0.0
  0
LINE
  5
18F
  8
┌▓È_1
 62
     5
 10
966.24227778750014
 20
-173.69722056040001
 30
0.0
 11
966.24227778750014
 21
-318.99722056040002
 31
0.0
  0
ARC
  5
190
  8
┌▓È_1
 62
     5
 10
963.04227778749987
 20
-173.69722056040001
 30
0.0
 40
3.2000000000000002
 50
0.0
 51
90.799999999999997
  0
LINE
  5
191
  8
┌▓È_1
 62
     5
 10
963.04227778749987
 20
-258.69722056040001
 30
0.0
 11
879.21283370459992
 21
-174.8677764775
 31
0.0
  0
LINE
  5
192
  8
┌▓È_1
 62
     5
 10
963.04227778749987
 20
-216.2708136892
 30
0.0
 11
921.05497608639985
 21
-174.28351198799999
 31
0.0
  0
LINE
  5
193
  8
┌▓È_1
  6
STITCH
 10
963.04227778749987
 20
-60.539901125200011
 30
0.0
 11
963.04227778749987
 21
-110.5399011252
 31
0.0
  0
LINE
  5
194
  8
┌▓È_1
  6
STITCH
 10
879.21283370459992
 20
-107.3399011252
 30
0.0
 11
963.04227778749987
 21
-107.3399011252
 31
0.0
  0
LINE
  5
195
  8
┌▓È_1
 62
     5
 10
826.24227778750003
 20
-110.5399011252
 30
0.0
 11
966.24227778750014
 21
-110.5399011252
 31
0.0
  0
LINE
  5
196
  8
┌▓È_1
 62
     5
 10
826.24227778750003
 20
-60.539901125200011
 30
0.0
 11
966.24227778750014
 21
-60.539901125200011
 31
0.0
  0
LINE
  5
197
  8
┌▓È_1
 62
     5
 10
966.24227778750014
 20
-60.539901125200011
 30
0.0
 11
966.24227778750014
 21
-110.5399011252
 31
0.0
  0
CIRCLE
  5
198
  8
┌▓È_1
 62
     5
 10
941.24227778750014
 20
-85.539901125200004
 30
0.0
 40
2.25
  0
POLYLINE
  8
┌▓È_1
  5
237
  62
5
  66
     1
 10
0.000000
 20
0.000000
 30
0.000000
  70
     8
  0
VERTEX
  8
┌▓È_1
  5
238
 10
969.939
 20
-404.046
 30
0.000000
  70
    32
  0
VERTEX
  8
┌▓È_1
  5
239
 10
969.967
 20
-404.054
 30
0.000000
  70
    32
  0
VERTEX
  8
┌▓È_1
  5
23A
 10
969.995
 20
-404.062
 30
0.000000
  70
    32
  0
VERTEX
  8
┌▓È_1
  5
23B
 10
970.023
 20
-404.070
 30
0.000000
  70
    32
  0
VERTEX
  8
┌▓È_1
  5
23C
 10
970.051
 20
-404.078
 30
0.000000
  70
    32
  0
VERTEX
  8
┌▓È_1
  5
23D
 10
970.079
 20
-404.086
 30
0.000000
  70
    32
  0
VERTEX
  8
┌▓È_1
  5
23E
 10
970.107
 20
-404.093
 30
0.000000
  70
    32
  0
VERTEX
  8
┌▓È_1
  5
23F
 10
970.135
 20
-404.101
 30
0.000000
  70
    32
  0
VERTEX
  8
┌▓È_1
  5
240
 10
970.164
 20
-404.109
 30
0.000000
  70
    32
  0
VERTEX
  8
┌▓È_1
  5
241
 10
970.192
 20
-404.116
 30
0.000000
  70
    32
  0
VERTEX
  8
┌▓È_1
  5
242
 10
970.220
 20
-404.124
 30
0.000000
  70
    32
  0
VERTEX
  8
┌▓È_1
  5
243
 10
970.248
 20
-404.131
 30
0.000000
  70
    32
  0
VERTEX
  8
┌▓È_1
  5
244
 10
970.276
 20
-404.139
 30
0.000000
  70
    32
  0
VERTEX
  8
┌▓È_1
  5
245
 10
970.305
 20
-404.146
 30
0.000000
  70
    32
  0
VERTEX
  8
┌▓È_1
  5
246
 10
970.333
 20
-404.153
 30
0.000000
  70
    32
  0
VERTEX
  8
┌▓È_1
  5
247
 10
970.361
 20
-404.161
 30
0.000000
  70
    32
  0
VERTEX
  8
┌▓È_1
  5
248
 10
970.390
 20
-404.168
 30
0.000000
  70
    32
  0
VERTEX
  8
┌▓È_1
  5
249
 10
970.418
 20
-404.175
 30
0.000000
  70
    32
  0
VERTEX
  8
┌▓È_1
  5
24A
 10
970.447
 20
-404.182
 30
0.000000
  70
    32
  0
VERTEX
  8
┌▓È_1
  5
24B
 10
970.475
 20
-404.190
 30
0.000000
  70
    32
  0
VERTEX
  8
┌▓È_1
  5
24C
 10
970.504
 20
-404.197
 30
0.000000
  70
    32
  0
VERTEX
  8
┌▓È_1
  5
24D
 10
970.532
 20
-404.204
 30
0.000000
  70
    32
  0
VERTEX
  8
┌▓È_1
  5
24E
 10
970.561
 20
-404.211
 30
0.000000
  70
    32
  0
VERTEX
  8
┌▓È_1
  5
24F
 10
970.589
 20
-404.218
 30
0.000000
  70
    32
  0
VERTEX
  8
┌▓È_1
  5
250
 10
970.618
 20
-404.225
 30
0.000000
  70
    32
  0
VERTEX
  8
┌▓È_1
  5
251
 10
970.646
 20
-404.232
 30
0.000000
  70
    32
  0
VERTEX
  8
┌▓È_1
  5
252
 10
970.675
 20
-404.239
 30
0.000000
  70
    32
  0
VERTEX
  8
┌▓È_1
  5
253
 10
970.704
 20
-404.246
 30
0.000000
  70
    32
  0
VERTEX
  8
┌▓È_1
  5
254
 10
970.732
 20
-404.252
 30
0.000000
  70
    32
  0
VERTEX
  8
┌▓È_1
  5
255
 10
970.761
 20
-404.259
 30
0.000000
  70
    32
  0
VERTEX
  8
┌▓È_1
  5
256
 10
970.790
 20
-404.266
 30
0.000000
  70
    32
  0
VERTEX
  8
┌▓È_1
  5
257
 10
970.818
 20
-404.273
 30
0.000000
  70
    32
  0
VERTEX
  8
┌▓È_1
  5
258
 10
970.847
 20
-404.279
 30
0.000000
  70
    32
  0
VERTEX
  8
┌▓È_1
  5
259
 10
970.876
 20
-404.286
 30
0.000000
  70
    32
  0
VERTEX
  8
┌▓È_1
  5
25A
 10
970.905
 20
-404.293
 30
0.000000
  70
    32
  0
VERTEX
  8
┌▓È_1
  5
25B
 10
970.933
 20
-404.299
 30
0.000000
  70
    32
  0
VERTEX
  8
┌▓È_1
  5
25C
 10
970.962
 20
-404.306
 30
0.000000
  70
    32
  0
VERTEX
  8
┌▓È_1
  5
25D
 10
970.991
 20
-404.312
 30
0.000000
  70
    32
  0
VERTEX
  8
┌▓È_1
  5
25E
 10
971.020
 20
-404.319
 30
0.000000
  70
    32
  0
VERTEX
  8
┌▓È_1
  5
25F
 10
971.049
 20
-404.325
 30
0.000000
  70
    32
  0
VERTEX
  8
┌▓È_1
  5
260
 10
971.078
 20
-404.332
 30
0.000000
  70
    32
  0
VERTEX
  8
┌▓È_1
  5
261
 10
971.107
 20
-404.338
 30
0.000000
  70
    32
  0
VERTEX
  8
┌▓È_1
  5
262
 10
971.136
 20
-404.344
 30
0.000000
  70
    32
  0
VERTEX
  8
┌▓È_1
  5
263
 10
971.165
 20
-404.351
 30
0.000000
  70
    32
  0
VERTEX
  8
┌▓È_1
  5
264
 10
971.194
 20
-404.357
 30
0.000000
  70
    32
  0
VERTEX
  8
┌▓È_1
  5
265
 10
971.223
 20
-404.363
 30
0.000000
  70
    32
  0
VERTEX
  8
┌▓È_1
  5
266
 10
971.252
 20
-404.369
 30
0.000000
  70
    32
  0
VERTEX
  8
┌▓È_1
  5
267
 10
971.281
 20
-404.376
 30
0.000000
  70
    32
  0
VERTEX
  8
┌▓È_1
  5
268
 10
971.310
 20
-404.382
 30
0.000000
  70
    32
  0
VERTEX
  8
┌▓È_1
  5
269
 10
971.339
 20
-404.388
 30
0.000000
  70
    32
  0
VERTEX
  8
┌▓È_1
  5
26A
 10
971.368
 20
-404.394
 30
0.000000
  70
    32
  0
VERTEX
  8
┌▓È_1
  5
26B
 10
971.397
 20
-404.400
 30
0.000000
  70
    32
  0
VERTEX
  8
┌▓È_1
  5
26C
 10
971.426
 20
-404.406
 30
0.000000
  70
    32
  0
VERTEX
  8
┌▓È_1
  5
26D
 10
971.455
 20
-404.412
 30
0.000000
  70
    32
  0
VERTEX
  8
┌▓È_1
  5
26E
 10
971.485
 20
-404.418
 30
0.000000
  70
    32
  0
VERTEX
  8
┌▓È_1
  5
26F
 10
971.514
 20
-404.424
 30
0.000000
  70
    32
  0
VERTEX
  8
┌▓È_1
  5
270
 10
971.543
 20
-404.430
 30
0.000000
  70
    32
  0
VERTEX
  8
┌▓È_1
  5
271
 10
971.572
 20
-404.436
 30
0.000000
  70
    32
  0
VERTEX
  8
┌▓È_1
  5
272
 10
971.601
 20
-404.442
 30
0.000000
  70
    32
  0
VERTEX
  8
┌▓È_1
  5
273
 10
971.631
 20
-404.448
 30
0.000000
  70
    32
  0
VERTEX
  8
┌▓È_1
  5
274
 10
971.660
 20
-404.454
 30
0.000000
  70
    32
  0
VERTEX
  8
┌▓È_1
  5
275
 10
971.689
 20
-404.460
 30
0.000000
  70
    32
  0
VERTEX
  8
┌▓È_1
  5
276
 10
971.718
 20
-404.465
 30
0.000000
  70
    32
  0
VERTEX
  8
┌▓È_1
  5
277
 10
971.748
 20
-404.471
 30
0.000000
  70
    32
  0
VERTEX
  8
┌▓È_1
  5
278
 10
971.777
 20
-404.477
 30
0.000000
  70
    32
  0
VERTEX
  8
┌▓È_1
  5
279
 10
971.806
 20
-404.483
 30
0.000000
  70
    32
  0
VERTEX
  8
┌▓È_1
  5
27A
 10
971.836
 20
-404.488
 30
0.000000
  70
    32
  0
VERTEX
  8
┌▓È_1
  5
27B
 10
971.865
 20
-404.494
 30
0.000000
  70
    32
  0
VERTEX
  8
┌▓È_1
  5
27C
 10
971.895
 20
-404.500
 30
0.000000
  70
    32
  0
VERTEX
  8
┌▓È_1
  5
27D
 10
971.924
 20
-404.505
 30
0.000000
  70
    32
  0
VERTEX
  8
┌▓È_1
  5
27E
 10
971.953
 20
-404.511
 30
0.000000
  70
    32
  0
VERTEX
  8
┌▓È_1
  5
27F
 10
971.983
 20
-404.517
 30
0.000000
  70
    32
  0
VERTEX
  8
┌▓È_1
  5
280
 10
972.012
 20
-404.522
 30
0.000000
  70
    32
  0
VERTEX
  8
┌▓È_1
  5
281
 10
972.042
 20
-404.528
 30
0.000000
  70
    32
  0
VERTEX
  8
┌▓È_1
  5
282
 10
972.071
 20
-404.533
 30
0.000000
  70
    32
  0
VERTEX
  8
┌▓È_1
  5
283
 10
972.101
 20
-404.539
 30
0.000000
  70
    32
  0
VERTEX
  8
┌▓È_1
  5
284
 10
972.130
 20
-404.544
 30
0.000000
  70
    32
  0
VERTEX
  8
┌▓È_1
  5
285
 10
972.160
 20
-404.550
 30
0.000000
  70
    32
  0
VERTEX
  8
┌▓È_1
  5
286
 10
972.189
 20
-404.555
 30
0.000000
  70
    32
  0
VERTEX
  8
┌▓È_1
  5
287
 10
972.219
 20
-404.561
 30
0.000000
  70
    32
  0
VERTEX
  8
┌▓È_1
  5
288
 10
972.248
 20
-404.566
 30
0.000000
  70
    32
  0
VERTEX
  8
┌▓È_1
  5
289
 10
972.278
 20
-404.572
 30
0.000000
  70
    32
  0
VERTEX
  8
┌▓È_1
  5
28A
 10
972.307
 20
-404.577
 30
0.000000
  70
    32
  0
VERTEX
  8
┌▓È_1
  5
28B
 10
972.337
 20
-404.582
 30
0.000000
  70
    32
  0
VERTEX
  8
┌▓È_1
  5
28C
 10
972.366
 20
-404.588
 30
0.000000
  70
    32
  0
VERTEX
  8
┌▓È_1
  5
28D
 10
972.396
 20
-404.593
 30
0.000000
  70
    32
  0
VERTEX
  8
┌▓È_1
  5
28E
 10
972.425
 20
-404.598
 30
0.000000
  70
    32
  0
VERTEX
  8
┌▓È_1
  5
28F
 10
972.455
 20
-404.604
 30
0.000000
  70
    32
  0
VERTEX
  8
┌▓È_1
  5
290
 10
972.485
 20
-404.609
 30
0.000000
  70
    32
  0
VERTEX
  8
┌▓È_1
  5
291
 10
972.514
 20
-404.614
 30
0.000000
  70
    32
  0
VERTEX
  8
┌▓È_1
  5
292
 10
972.544
 20
-404.620
 30
0.000000
  70
    32
  0
VERTEX
  8
┌▓È_1
  5
293
 10
972.573
 20
-404.625
 30
0.000000
  70
    32
  0
VERTEX
  8
┌▓È_1
  5
294
 10
972.603
 20
-404.630
 30
0.000000
  70
    32
  0
VERTEX
  8
┌▓È_1
  5
295
 10
972.633
 20
-404.635
 30
0.000000
  70
    32
  0
VERTEX
  8
┌▓È_1
  5
296
 10
972.662
 20
-404.641
 30
0.000000
  70
    32
  0
VERTEX
  8
┌▓È_1
  5
297
 10
972.692
 20
-404.646
 30
0.000000
  70
    32
  0
VERTEX
  8
┌▓È_1
  5
298
 10
972.722
 20
-404.651
 30
0.000000
  70
    32
  0
VERTEX
  8
┌▓È_1
  5
299
 10
972.751
 20
-404.656
 30
0.000000
  70
    32
  0
VERTEX
  8
┌▓È_1
  5
29A
 10
972.781
 20
-404.662
 30
0.000000
  70
    32
  0
VERTEX
  8
┌▓È_1
  5
29B
 10
972.811
 20
-404.667
 30
0.000000
  70
    32
  0
VERTEX
  8
┌▓È_1
  5
29C
 10
972.840
 20
-404.672
 30
0.000000
  70
    32
  0
VERTEX
  8
┌▓È_1
  5
29D
 10
972.870
 20
-404.677
 30
0.000000
  70
    32
  0
VERTEX
  8
┌▓È_1
  5
29E
 10
972.900
 20
-404.682
 30
0.000000
  70
    32
  0
VERTEX
  8
┌▓È_1
  5
29F
 10
972.929
 20
-404.687
 30
0.000000
  70
    32
  0
VERTEX
  8
┌▓È_1
  5
2A0
 10
972.959
 20
-404.692
 30
0.000000
  70
    32
  0
VERTEX
  8
┌▓È_1
  5
2A1
 10
972.989
 20
-404.698
 30
0.000000
  70
    32
  0
VERTEX
  8
┌▓È_1
  5
2A2
 10
973.019
 20
-404.703
 30
0.000000
  70
    32
  0
VERTEX
  8
┌▓È_1
  5
2A3
 10
973.048
 20
-404.708
 30
0.000000
  70
    32
  0
VERTEX
  8
┌▓È_1
  5
2A4
 10
973.078
 20
-404.713
 30
0.000000
  70
    32
  0
VERTEX
  8
┌▓È_1
  5
2A5
 10
973.108
 20
-404.718
 30
0.000000
  70
    32
  0
VERTEX
  8
┌▓È_1
  5
2A6
 10
973.138
 20
-404.723
 30
0.000000
  70
    32
  0
VERTEX
  8
┌▓È_1
  5
2A7
 10
973.167
 20
-404.728
 30
0.000000
  70
    32
  0
VERTEX
  8
┌▓È_1
  5
2A8
 10
973.197
 20
-404.733
 30
0.000000
  70
    32
  0
VERTEX
  8
┌▓È_1
  5
2A9
 10
973.227
 20
-404.738
 30
0.000000
  70
    32
  0
VERTEX
  8
┌▓È_1
  5
2AA
 10
973.257
 20
-404.743
 30
0.000000
  70
    32
  0
VERTEX
  8
┌▓È_1
  5
2AB
 10
973.286
 20
-404.748
 30
0.000000
  70
    32
  0
VERTEX
  8
┌▓È_1
  5
2AC
 10
973.316
 20
-404.753
 30
0.000000
  70
    32
  0
VERTEX
  8
┌▓È_1
  5
2AD
 10
973.346
 20
-404.758
 30
0.000000
  70
    32
  0
VERTEX
  8
┌▓È_1
  5
2AE
 10
973.376
 20
-404.764
 30
0.000000
  70
    32
  0
VERTEX
  8
┌▓È_1
  5
2AF
 10
973.405
 20
-404.769
 30
0.000000
  70
    32
  0
VERTEX
  8
┌▓È_1
  5
2B0
 10
973.435
 20
-404.774
 30
0.000000
  70
    32
  0
VERTEX
  8
┌▓È_1
  5
2B1
 10
973.465
 20
-404.779
 30
0.000000
  70
    32
  0
VERTEX
  8
┌▓È_1
  5
2B2
 10
973.495
 20
-404.784
 30
0.000000
  70
    32
  0
VERTEX
  8
┌▓È_1
  5
2B3
 10
973.524
 20
-404.789
 30
0.000000
  70
    32
  0
VERTEX
  8
┌▓È_1
  5
2B4
 10
973.554
 20
-404.794
 30
0.000000
  70
    32
  0
VERTEX
  8
┌▓È_1
  5
2B5
 10
973.584
 20
-404.799
 30
0.000000
  70
    32
  0
VERTEX
  8
┌▓È_1
  5
2B6
 10
973.614
 20
-404.804
 30
0.000000
  70
    32
  0
VERTEX
  8
┌▓È_1
  5
2B7
 10
973.644
 20
-404.809
 30
0.000000
  70
    32
  0
SEQEND
  8
┌▓È_1
  5
2B8
  0
POLYLINE
  8
┌▓È_1
  5
2B9
  62
5
  66
     1
 10
0.000000
 20
0.000000
 30
0.000000
  70
     8
  0
VERTEX
  8
┌▓È_1
  5
2BA
 10
959.244
 20
-400.240
 30
0.000000
  70
    32
  0
VERTEX
  8
┌▓È_1
  5
2BB
 10
959.272
 20
-400.266
 30
0.000000
  70
    32
  0
VERTEX
  8
┌▓È_1
  5
2BC
 10
959.301
 20
-400.293
 30
0.000000
  70
    32
  0
VERTEX
  8
┌▓È_1
  5
2BD
 10
959.330
 20
-400.319
 30
0.000000
  70
    32
  0
VERTEX
  8
┌▓È_1
  5
2BE
 10
959.359
 20
-400.346
 30
0.000000
  70
    32
  0
VERTEX
  8
┌▓È_1
  5
2BF
 10
959.388
 20
-400.372
 30
0.000000
  70
    32
  0
VERTEX
  8
┌▓È_1
  5
2C0
 10
959.417
 20
-400.399
 30
0.000000
  70
    32
  0
VERTEX
  8
┌▓È_1
  5
2C1
 10
959.445
 20
-400.425
 30
0.000000
  70
    32
  0
VERTEX
  8
┌▓È_1
  5
2C2
 10
959.474
 20
-400.452
 30
0.000000
  70
    32
  0
VERTEX
  8
┌▓È_1
  5
2C3
 10
959.503
 20
-400.479
 30
0.000000
  70
    32
  0
VERTEX
  8
┌▓È_1
  5
2C4
 10
959.532
 20
-400.505
 30
0.000000
  70
    32
  0
VERTEX
  8
┌▓È_1
  5
2C5
 10
959.561
 20
-400.532
 30
0.000000
  70
    32
  0
VERTEX
  8
┌▓È_1
  5
2C6
 10
959.589
 20
-400.558
 30
0.000000
  70
    32
  0
VERTEX
  8
┌▓È_1
  5
2C7
 10
959.618
 20
-400.585
 30
0.000000
  70
    32
  0
VERTEX
  8
┌▓È_1
  5
2C8
 10
959.647
 20
-400.611
 30
0.000000
  70
    32
  0
VERTEX
  8
┌▓È_1
  5
2C9
 10
959.676
 20
-400.638
 30
0.000000
  70
    32
  0
VERTEX
  8
┌▓È_1
  5
2CA
 10
959.705
 20
-400.664
 30
0.000000
  70
    32
  0
VERTEX
  8
┌▓È_1
  5
2CB
 10
959.734
 20
-400.691
 30
0.000000
  70
    32
  0
VERTEX
  8
┌▓È_1
  5
2CC
 10
959.763
 20
-400.717
 30
0.000000
  70
    32
  0
VERTEX
  8
┌▓È_1
  5
2CD
 10
959.791
 20
-400.744
 30
0.000000
  70
    32
  0
VERTEX
  8
┌▓È_1
  5
2CE
 10
959.820
 20
-400.770
 30
0.000000
  70
    32
  0
VERTEX
  8
┌▓È_1
  5
2CF
 10
959.849
 20
-400.797
 30
0.000000
  70
    32
  0
VERTEX
  8
┌▓È_1
  5
2D0
 10
959.878
 20
-400.823
 30
0.000000
  70
    32
  0
VERTEX
  8
┌▓È_1
  5
2D1
 10
959.907
 20
-400.849
 30
0.000000
  70
    32
  0
VERTEX
  8
┌▓È_1
  5
2D2
 10
959.936
 20
-400.876
 30
0.000000
  70
    32
  0
VERTEX
  8
┌▓È_1
  5
2D3
 10
959.965
 20
-400.902
 30
0.000000
  70
    32
  0
VERTEX
  8
┌▓È_1
  5
2D4
 10
959.994
 20
-400.929
 30
0.000000
  70
    32
  0
VERTEX
  8
┌▓È_1
  5
2D5
 10
960.023
 20
-400.955
 30
0.000000
  70
    32
  0
VERTEX
  8
┌▓È_1
  5
2D6
 10
960.052
 20
-400.981
 30
0.000000
  70
    32
  0
VERTEX
  8
┌▓È_1
  5
2D7
 10
960.081
 20
-401.008
 30
0.000000
  70
    32
  0
VERTEX
  8
┌▓È_1
  5
2D8
 10
960.109
 20
-401.034
 30
0.000000
  70
    32
  0
VERTEX
  8
┌▓È_1
  5
2D9
 10
960.138
 20
-401.060
 30
0.000000
  70
    32
  0
VERTEX
  8
┌▓È_1
  5
2DA
 10
960.167
 20
-401.087
 30
0.000000
  70
    32
  0
VERTEX
  8
┌▓È_1
  5
2DB
 10
960.196
 20
-401.113
 30
0.000000
  70
    32
  0
VERTEX
  8
┌▓È_1
  5
2DC
 10
960.225
 20
-401.139
 30
0.000000
  70
    32
  0
VERTEX
  8
┌▓È_1
  5
2DD
 10
960.254
 20
-401.165
 30
0.000000
  70
    32
  0
VERTEX
  8
┌▓È_1
  5
2DE
 10
960.283
 20
-401.192
 30
0.000000
  70
    32
  0
VERTEX
  8
┌▓È_1
  5
2DF
 10
960.312
 20
-401.218
 30
0.000000
  70
    32
  0
VERTEX
  8
┌▓È_1
  5
2E0
 10
960.341
 20
-401.244
 30
0.000000
  70
    32
  0
VERTEX
  8
┌▓È_1
  5
2E1
 10
960.370
 20
-401.270
 30
0.000000
  70
    32
  0
VERTEX
  8
┌▓È_1
  5
2E2
 10
960.400
 20
-401.296
 30
0.000000
  70
    32
  0
VERTEX
  8
┌▓È_1
  5
2E3
 10
960.429
 20
-401.322
 30
0.000000
  70
    32
  0
VERTEX
  8
┌▓È_1
  5
2E4
 10
960.458
 20
-401.348
 30
0.000000
  70
    32
  0
VERTEX
  8
┌▓È_1
  5
2E5
 10
960.487
 20
-401.375
 30
0.000000
  70
    32
  0
VERTEX
  8
┌▓È_1
  5
2E6
 10
960.516
 20
-401.401
 30
0.000000
  70
    32
  0
VERTEX
  8
┌▓È_1
  5
2E7
 10
960.545
 20
-401.427
 30
0.000000
  70
    32
  0
VERTEX
  8
┌▓È_1
  5
2E8
 10
960.574
 20
-401.453
 30
0.000000
  70
    32
  0
VERTEX
  8
┌▓È_1
  5
2E9
 10
960.603
 20
-401.479
 30
0.000000
  70
    32
  0
VERTEX
  8
┌▓È_1
  5
2EA
 10
960.632
 20
-401.504
 30
0.000000
  70
    32
  0
VERTEX
  8
┌▓È_1
  5
2EB
 10
960.662
 20
-401.530
 30
0.000000
  70
    32
  0
VERTEX
  8
┌▓È_1
  5
2EC
 10
960.691
 20
-401.556
 30
0.000000
  70
    32
  0
VERTEX
  8
┌▓È_1
  5
2ED
 10
960.720
 20
-401.582
 30
0.000000
  70
    32
  0
VERTEX
  8
┌▓È_1
  5
2EE
 10
960.749
 20
-401.608
 30
0.000000
  70
    32
  0
VERTEX
  8
┌▓È_1
  5
2EF
 10
960.778
 20
-401.634
 30
0.000000
  70
    32
  0
VERTEX
  8
┌▓È_1
  5
2F0
 10
960.808
 20
-401.660
 30
0.000000
  70
    32
  0
VERTEX
  8
┌▓È_1
  5
2F1
 10
960.837
 20
-401.685
 30
0.000000
  70
    32
  0
VERTEX
  8
┌▓È_1
  5
2F2
 10
960.866
 20
-401.711
 30
0.000000
  70
    32
  0
VERTEX
  8
┌▓È_1
  5
2F3
 10
960.895
 20
-401.737
 30
0.000000
  70
    32
  0
VERTEX
  8
┌▓È_1
  5
2F4
 10
960.925
 20
-401.762
 30
0.000000
  70
    32
  0
VERTEX
  8
┌▓È_1
  5
2F5
 10
960.954
 20
-401.788
 30
0.000000
  70
    32
  0
VERTEX
  8
┌▓È_1
  5
2F6
 10
960.983
 20
-401.814
 30
0.000000
  70
    32
  0
VERTEX
  8
┌▓È_1
  5
2F7
 10
961.013
 20
-401.839
 30
0.000000
  70
    32
  0
VERTEX
  8
┌▓È_1
  5
2F8
 10
961.042
 20
-401.865
 30
0.000000
  70
    32
  0
VERTEX
  8
┌▓È_1
  5
2F9
 10
961.072
 20
-401.890
 30
0.000000
  70
    32
  0
VERTEX
  8
┌▓È_1
  5
2FA
 10
961.101
 20
-401.916
 30
0.000000
  70
    32
  0
VERTEX
  8
┌▓È_1
  5
2FB
 10
961.130
 20
-401.941
 30
0.000000
  70
    32
  0
VERTEX
  8
┌▓È_1
  5
2FC
 10
961.160
 20
-401.966
 30
0.000000
  70
    32
  0
VERTEX
  8
┌▓È_1
  5
2FD
 10
961.189
 20
-401.992
 30
0.000000
  70
    32
  0
VERTEX
  8
┌▓È_1
  5
2FE
 10
961.219
 20
-402.017
 30
0.000000
  70
    32
  0
VERTEX
  8
┌▓È_1
  5
2FF
 10
961.248
 20
-402.042
 30
0.000000
  70
    32
  0
VERTEX
  8
┌▓È_1
  5
300
 10
961.278
 20
-402.067
 30
0.000000
  70
    32
  0
VERTEX
  8
┌▓È_1
  5
301
 10
961.308
 20
-402.093
 30
0.000000
  70
    32
  0
VERTEX
  8
┌▓È_1
  5
302
 10
961.337
 20
-402.118
 30
0.000000
  70
    32
  0
VERTEX
  8
┌▓È_1
  5
303
 10
961.367
 20
-402.143
 30
0.000000
  70
    32
  0
VERTEX
  8
┌▓È_1
  5
304
 10
961.396
 20
-402.168
 30
0.000000
  70
    32
  0
VERTEX
  8
┌▓È_1
  5
305
 10
961.426
 20
-402.193
 30
0.000000
  70
    32
  0
VERTEX
  8
┌▓È_1
  5
306
 10
961.456
 20
-402.218
 30
0.000000
  70
    32
  0
VERTEX
  8
┌▓È_1
  5
307
 10
961.485
 20
-402.243
 30
0.000000
  70
    32
  0
VERTEX
  8
┌▓È_1
  5
308
 10
961.515
 20
-402.268
 30
0.000000
  70
    32
  0
VERTEX
  8
┌▓È_1
  5
309
 10
961.545
 20
-402.293
 30
0.000000
  70
    32
  0
VERTEX
  8
┌▓È_1
  5
30A
 10
961.575
 20
-402.318
 30
0.000000
  70
    32
  0
VERTEX
  8
┌▓È_1
  5
30B
 10
961.604
 20
-402.342
 30
0.000000
  70
    32
  0
VERTEX
  8
┌▓È_1
  5
30C
 10
961.634
 20
-402.367
 30
0.000000
  70
    32
  0
VERTEX
  8
┌▓È_1
  5
30D
 10
961.664
 20
-402.392
 30
0.000000
  70
    32
  0
VERTEX
  8
┌▓È_1
  5
30E
 10
961.694
 20
-402.416
 30
0.000000
  70
    32
  0
VERTEX
  8
┌▓È_1
  5
30F
 10
961.724
 20
-402.441
 30
0.000000
  70
    32
  0
VERTEX
  8
┌▓È_1
  5
310
 10
961.754
 20
-402.465
 30
0.000000
  70
    32
  0
VERTEX
  8
┌▓È_1
  5
311
 10
961.784
 20
-402.490
 30
0.000000
  70
    32
  0
VERTEX
  8
┌▓È_1
  5
312
 10
961.814
 20
-402.514
 30
0.000000
  70
    32
  0
VERTEX
  8
┌▓È_1
  5
313
 10
961.844
 20
-402.539
 30
0.000000
  70
    32
  0
VERTEX
  8
┌▓È_1
  5
314
 10
961.874
 20
-402.563
 30
0.000000
  70
    32
  0
VERTEX
  8
┌▓È_1
  5
315
 10
961.904
 20
-402.587
 30
0.000000
  70
    32
  0
VERTEX
  8
┌▓È_1
  5
316
 10
961.934
 20
-402.612
 30
0.000000
  70
    32
  0
VERTEX
  8
┌▓È_1
  5
317
 10
961.964
 20
-402.636
 30
0.000000
  70
    32
  0
VERTEX
  8
┌▓È_1
  5
318
 10
961.994
 20
-402.660
 30
0.000000
  70
    32
  0
VERTEX
  8
┌▓È_1
  5
319
 10
962.024
 20
-402.684
 30
0.000000
  70
    32
  0
VERTEX
  8
┌▓È_1
  5
31A
 10
962.054
 20
-402.708
 30
0.000000
  70
    32
  0
VERTEX
  8
┌▓È_1
  5
31B
 10
962.084
 20
-402.732
 30
0.000000
  70
    32
  0
VERTEX
  8
┌▓È_1
  5
31C
 10
962.115
 20
-402.756
 30
0.000000
  70
    32
  0
VERTEX
  8
┌▓È_1
  5
31D
 10
962.145
 20
-402.780
 30
0.000000
  70
    32
  0
VERTEX
  8
┌▓È_1
  5
31E
 10
962.175
 20
-402.804
 30
0.000000
  70
    32
  0
VERTEX
  8
┌▓È_1
  5
31F
 10
962.206
 20
-402.828
 30
0.000000
  70
    32
  0
VERTEX
  8
┌▓È_1
  5
320
 10
962.236
 20
-402.851
 30
0.000000
  70
    32
  0
VERTEX
  8
┌▓È_1
  5
321
 10
962.266
 20
-402.875
 30
0.000000
  70
    32
  0
VERTEX
  8
┌▓È_1
  5
322
 10
962.297
 20
-402.899
 30
0.000000
  70
    32
  0
VERTEX
  8
┌▓È_1
  5
323
 10
962.327
 20
-402.922
 30
0.000000
  70
    32
  0
VERTEX
  8
┌▓È_1
  5
324
 10
962.358
 20
-402.946
 30
0.000000
  70
    32
  0
VERTEX
  8
┌▓È_1
  5
325
 10
962.388
 20
-402.969
 30
0.000000
  70
    32
  0
VERTEX
  8
┌▓È_1
  5
326
 10
962.419
 20
-402.992
 30
0.000000
  70
    32
  0
VERTEX
  8
┌▓È_1
  5
327
 10
962.449
 20
-403.016
 30
0.000000
  70
    32
  0
VERTEX
  8
┌▓È_1
  5
328
 10
962.480
 20
-403.039
 30
0.000000
  70
    32
  0
VERTEX
  8
┌▓È_1
  5
329
 10
962.511
 20
-403.062
 30
0.000000
  70
    32
  0
VERTEX
  8
┌▓È_1
  5
32A
 10
962.541
 20
-403.085
 30
0.000000
  70
    32
  0
VERTEX
  8
┌▓È_1
  5
32B
 10
962.572
 20
-403.108
 30
0.000000
  70
    32
  0
VERTEX
  8
┌▓È_1
  5
32C
 10
962.603
 20
-403.131
 30
0.000000
  70
    32
  0
VERTEX
  8
┌▓È_1
  5
32D
 10
962.633
 20
-403.154
 30
0.000000
  70
    32
  0
VERTEX
  8
┌▓È_1
  5
32E
 10
962.664
 20
-403.177
 30
0.000000
  70
    32
  0
VERTEX
  8
┌▓È_1
  5
32F
 10
962.695
 20
-403.200
 30
0.000000
  70
    32
  0
VERTEX
  8
┌▓È_1
  5
330
 10
962.726
 20
-403.223
 30
0.000000
  70
    32
  0
VERTEX
  8
┌▓È_1
  5
331
 10
962.757
 20
-403.245
 30
0.000000
  70
    32
  0
VERTEX
  8
┌▓È_1
  5
332
 10
962.788
 20
-403.268
 30
0.000000
  70
    32
  0
VERTEX
  8
┌▓È_1
  5
333
 10
962.819
 20
-403.291
 30
0.000000
  70
    32
  0
VERTEX
  8
┌▓È_1
  5
334
 10
962.850
 20
-403.313
 30
0.000000
  70
    32
  0
VERTEX
  8
┌▓È_1
  5
335
 10
962.881
 20
-403.335
 30
0.000000
  70
    32
  0
VERTEX
  8
┌▓È_1
  5
336
 10
962.912
 20
-403.358
 30
0.000000
  70
    32
  0
VERTEX
  8
┌▓È_1
  5
337
 10
962.943
 20
-403.380
 30
0.000000
  70
    32
  0
VERTEX
  8
┌▓È_1
  5
338
 10
962.974
 20
-403.402
 30
0.000000
  70
    32
  0
VERTEX
  8
┌▓È_1
  5
339
 10
963.006
 20
-403.424
 30
0.000000
  70
    32
  0
VERTEX
  8
┌▓È_1
  5
33A
 10
963.037
 20
-403.447
 30
0.000000
  70
    32
  0
VERTEX
  8
┌▓È_1
  5
33B
 10
963.068
 20
-403.469
 30
0.000000
  70
    32
  0
VERTEX
  8
┌▓È_1
  5
33C
 10
963.099
 20
-403.490
 30
0.000000
  70
    32
  0
VERTEX
  8
┌▓È_1
  5
33D
 10
963.131
 20
-403.512
 30
0.000000
  70
    32
  0
VERTEX
  8
┌▓È_1
  5
33E
 10
963.162
 20
-403.534
 30
0.000000
  70
    32
  0
VERTEX
  8
┌▓È_1
  5
33F
 10
963.194
 20
-403.556
 30
0.000000
  70
    32
  0
VERTEX
  8
┌▓È_1
  5
340
 10
963.225
 20
-403.577
 30
0.000000
  70
    32
  0
VERTEX
  8
┌▓È_1
  5
341
 10
963.257
 20
-403.599
 30
0.000000
  70
    32
  0
VERTEX
  8
┌▓È_1
  5
342
 10
963.288
 20
-403.621
 30
0.000000
  70
    32
  0
VERTEX
  8
┌▓È_1
  5
343
 10
963.320
 20
-403.642
 30
0.000000
  70
    32
  0
VERTEX
  8
┌▓È_1
  5
344
 10
963.351
 20
-403.663
 30
0.000000
  70
    32
  0
VERTEX
  8
┌▓È_1
  5
345
 10
963.383
 20
-403.685
 30
0.000000
  70
    32
  0
VERTEX
  8
┌▓È_1
  5
346
 10
963.415
 20
-403.706
 30
0.000000
  70
    32
  0
VERTEX
  8
┌▓È_1
  5
347
 10
963.447
 20
-403.727
 30
0.000000
  70
    32
  0
VERTEX
  8
┌▓È_1
  5
348
 10
963.478
 20
-403.748
 30
0.000000
  70
    32
  0
VERTEX
  8
┌▓È_1
  5
349
 10
963.510
 20
-403.769
 30
0.000000
  70
    32
  0
VERTEX
  8
┌▓È_1
  5
34A
 10
963.542
 20
-403.790
 30
0.000000
  70
    32
  0
VERTEX
  8
┌▓È_1
  5
34B
 10
963.574
 20
-403.810
 30
0.000000
  70
    32
  0
VERTEX
  8
┌▓È_1
  5
34C
 10
963.606
 20
-403.831
 30
0.000000
  70
    32
  0
VERTEX
  8
┌▓È_1
  5
34D
 10
963.638
 20
-403.852
 30
0.000000
  70
    32
  0
VERTEX
  8
┌▓È_1
  5
34E
 10
963.670
 20
-403.872
 30
0.000000
  70
    32
  0
VERTEX
  8
┌▓È_1
  5
34F
 10
963.702
 20
-403.893
 30
0.000000
  70
    32
  0
VERTEX
  8
┌▓È_1
  5
350
 10
963.735
 20
-403.913
 30
0.000000
  70
    32
  0
VERTEX
  8
┌▓È_1
  5
351
 10
963.767
 20
-403.933
 30
0.000000
  70
    32
  0
VERTEX
  8
┌▓È_1
  5
352
 10
963.799
 20
-403.954
 30
0.000000
  70
    32
  0
VERTEX
  8
┌▓È_1
  5
353
 10
963.831
 20
-403.974
 30
0.000000
  70
    32
  0
VERTEX
  8
┌▓È_1
  5
354
 10
963.864
 20
-403.994
 30
0.000000
  70
    32
  0
VERTEX
  8
┌▓È_1
  5
355
 10
963.896
 20
-404.014
 30
0.000000
  70
    32
  0
VERTEX
  8
┌▓È_1
  5
356
 10
963.928
 20
-404.034
 30
0.000000
  70
    32
  0
VERTEX
  8
┌▓È_1
  5
357
 10
963.961
 20
-404.054
 30
0.000000
  70
    32
  0
VERTEX
  8
┌▓È_1
  5
358
 10
963.993
 20
-404.073
 30
0.000000
  70
    32
  0
VERTEX
  8
┌▓È_1
  5
359
 10
964.026
 20
-404.093
 30
0.000000
  70
    32
  0
SEQEND
  8
┌▓È_1
  5
35A
  0
POLYLINE
  8
┌▓È_1
  5
35B
  62
5
  66
     1
 10
0.000000
 20
0.000000
 30
0.000000
  70
     8
  0
VERTEX
  8
┌▓È_1
  5
35C
 10
967.978
 20
-405.827
 30
0.000000
  70
    32
  0
VERTEX
  8
┌▓È_1
  5
35D
 10
968.021
 20
-405.841
 30
0.000000
  70
    32
  0
VERTEX
  8
┌▓È_1
  5
35E
 10
968.064
 20
-405.854
 30
0.000000
  70
    32
  0
VERTEX
  8
┌▓È_1
  5
35F
 10
968.107
 20
-405.868
 30
0.000000
  70
    32
  0
VERTEX
  8
┌▓È_1
  5
360
 10
968.150
 20
-405.881
 30
0.000000
  70
    32
  0
VERTEX
  8
┌▓È_1
  5
361
 10
968.193
 20
-405.895
 30
0.000000
  70
    32
  0
VERTEX
  8
┌▓È_1
  5
362
 10
968.237
 20
-405.908
 30
0.000000
  70
    32
  0
VERTEX
  8
┌▓È_1
  5
363
 10
968.280
 20
-405.922
 30
0.000000
  70
    32
  0
VERTEX
  8
┌▓È_1
  5
364
 10
968.323
 20
-405.935
 30
0.000000
  70
    32
  0
VERTEX
  8
┌▓È_1
  5
365
 10
968.367
 20
-405.948
 30
0.000000
  70
    32
  0
VERTEX
  8
┌▓È_1
  5
366
 10
968.410
 20
-405.961
 30
0.000000
  70
    32
  0
VERTEX
  8
┌▓È_1
  5
367
 10
968.453
 20
-405.974
 30
0.000000
  70
    32
  0
VERTEX
  8
┌▓È_1
  5
368
 10
968.497
 20
-405.987
 30
0.000000
  70
    32
  0
VERTEX
  8
┌▓È_1
  5
369
 10
968.540
 20
-406.000
 30
0.000000
  70
    32
  0
VERTEX
  8
┌▓È_1
  5
36A
 10
968.584
 20
-406.013
 30
0.000000
  70
    32
  0
VERTEX
  8
┌▓È_1
  5
36B
 10
968.627
 20
-406.026
 30
0.000000
  70
    32
  0
VERTEX
  8
┌▓È_1
  5
36C
 10
968.671
 20
-406.039
 30
0.000000
  70
    32
  0
VERTEX
  8
┌▓È_1
  5
36D
 10
968.715
 20
-406.052
 30
0.000000
  70
    32
  0
VERTEX
  8
┌▓È_1
  5
36E
 10
968.758
 20
-406.064
 30
0.000000
  70
    32
  0
VERTEX
  8
┌▓È_1
  5
36F
 10
968.802
 20
-406.077
 30
0.000000
  70
    32
  0
VERTEX
  8
┌▓È_1
  5
370
 10
968.846
 20
-406.089
 30
0.000000
  70
    32
  0
VERTEX
  8
┌▓È_1
  5
371
 10
968.889
 20
-406.102
 30
0.000000
  70
    32
  0
VERTEX
  8
┌▓È_1
  5
372
 10
968.933
 20
-406.114
 30
0.000000
  70
    32
  0
VERTEX
  8
┌▓È_1
  5
373
 10
968.977
 20
-406.127
 30
0.000000
  70
    32
  0
VERTEX
  8
┌▓È_1
  5
374
 10
969.021
 20
-406.139
 30
0.000000
  70
    32
  0
VERTEX
  8
┌▓È_1
  5
375
 10
969.065
 20
-406.151
 30
0.000000
  70
    32
  0
VERTEX
  8
┌▓È_1
  5
376
 10
969.109
 20
-406.163
 30
0.000000
  70
    32
  0
VERTEX
  8
┌▓È_1
  5
377
 10
969.153
 20
-406.176
 30
0.000000
  70
    32
  0
VERTEX
  8
┌▓È_1
  5
378
 10
969.197
 20
-406.188
 30
0.000000
  70
    32
  0
VERTEX
  8
┌▓È_1
  5
379
 10
969.240
 20
-406.200
 30
0.000000
  70
    32
  0
VERTEX
  8
┌▓È_1
  5
37A
 10
969.285
 20
-406.212
 30
0.000000
  70
    32
  0
VERTEX
  8
┌▓È_1
  5
37B
 10
969.329
 20
-406.224
 30
0.000000
  70
    32
  0
VERTEX
  8
┌▓È_1
  5
37C
 10
969.373
 20
-406.236
 30
0.000000
  70
    32
  0
VERTEX
  8
┌▓È_1
  5
37D
 10
969.417
 20
-406.247
 30
0.000000
  70
    32
  0
VERTEX
  8
┌▓È_1
  5
37E
 10
969.461
 20
-406.259
 30
0.000000
  70
    32
  0
VERTEX
  8
┌▓È_1
  5
37F
 10
969.505
 20
-406.271
 30
0.000000
  70
    32
  0
VERTEX
  8
┌▓È_1
  5
380
 10
969.549
 20
-406.283
 30
0.000000
  70
    32
  0
VERTEX
  8
┌▓È_1
  5
381
 10
969.593
 20
-406.294
 30
0.000000
  70
    32
  0
VERTEX
  8
┌▓È_1
  5
382
 10
969.638
 20
-406.306
 30
0.000000
  70
    32
  0
VERTEX
  8
┌▓È_1
  5
383
 10
969.682
 20
-406.317
 30
0.000000
  70
    32
  0
VERTEX
  8
┌▓È_1
  5
384
 10
969.726
 20
-406.329
 30
0.000000
  70
    32
  0
VERTEX
  8
┌▓È_1
  5
385
 10
969.770
 20
-406.340
 30
0.000000
  70
    32
  0
VERTEX
  8
┌▓È_1
  5
386
 10
969.815
 20
-406.352
 30
0.000000
  70
    32
  0
VERTEX
  8
┌▓È_1
  5
387
 10
969.859
 20
-406.363
 30
0.000000
  70
    32
  0
VERTEX
  8
┌▓È_1
  5
388
 10
969.904
 20
-406.374
 30
0.000000
  70
    32
  0
VERTEX
  8
┌▓È_1
  5
389
 10
969.948
 20
-406.386
 30
0.000000
  70
    32
  0
VERTEX
  8
┌▓È_1
  5
38A
 10
969.992
 20
-406.397
 30
0.000000
  70
    32
  0
VERTEX
  8
┌▓È_1
  5
38B
 10
970.037
 20
-406.408
 30
0.000000
  70
    32
  0
VERTEX
  8
┌▓È_1
  5
38C
 10
970.081
 20
-406.419
 30
0.000000
  70
    32
  0
VERTEX
  8
┌▓È_1
  5
38D
 10
970.126
 20
-406.430
 30
0.000000
  70
    32
  0
VERTEX
  8
┌▓È_1
  5
38E
 10
970.170
 20
-406.441
 30
0.000000
  70
    32
  0
VERTEX
  8
┌▓È_1
  5
38F
 10
970.215
 20
-406.452
 30
0.000000
  70
    32
  0
VERTEX
  8
┌▓È_1
  5
390
 10
970.259
 20
-406.463
 30
0.000000
  70
    32
  0
VERTEX
  8
┌▓È_1
  5
391
 10
970.304
 20
-406.474
 30
0.000000
  70
    32
  0
VERTEX
  8
┌▓È_1
  5
392
 10
970.349
 20
-406.485
 30
0.000000
  70
    32
  0
VERTEX
  8
┌▓È_1
  5
393
 10
970.393
 20
-406.496
 30
0.000000
  70
    32
  0
VERTEX
  8
┌▓È_1
  5
394
 10
970.438
 20
-406.507
 30
0.000000
  70
    32
  0
VERTEX
  8
┌▓È_1
  5
395
 10
970.483
 20
-406.518
 30
0.000000
  70
    32
  0
VERTEX
  8
┌▓È_1
  5
396
 10
970.527
 20
-406.528
 30
0.000000
  70
    32
  0
VERTEX
  8
┌▓È_1
  5
397
 10
970.572
 20
-406.539
 30
0.000000
  70
    32
  0
VERTEX
  8
┌▓È_1
  5
398
 10
970.617
 20
-406.550
 30
0.000000
  70
    32
  0
VERTEX
  8
┌▓È_1
  5
399
 10
970.661
 20
-406.560
 30
0.000000
  70
    32
  0
VERTEX
  8
┌▓È_1
  5
39A
 10
970.706
 20
-406.571
 30
0.000000
  70
    32
  0
VERTEX
  8
┌▓È_1
  5
39B
 10
970.751
 20
-406.581
 30
0.000000
  70
    32
  0
VERTEX
  8
┌▓È_1
  5
39C
 10
970.796
 20
-406.592
 30
0.000000
  70
    32
  0
VERTEX
  8
┌▓È_1
  5
39D
 10
970.841
 20
-406.602
 30
0.000000
  70
    32
  0
VERTEX
  8
┌▓È_1
  5
39E
 10
970.886
 20
-406.613
 30
0.000000
  70
    32
  0
VERTEX
  8
┌▓È_1
  5
39F
 10
970.930
 20
-406.623
 30
0.000000
  70
    32
  0
VERTEX
  8
┌▓È_1
  5
3A0
 10
970.975
 20
-406.634
 30
0.000000
  70
    32
  0
VERTEX
  8
┌▓È_1
  5
3A1
 10
971.020
 20
-406.644
 30
0.000000
  70
    32
  0
VERTEX
  8
┌▓È_1
  5
3A2
 10
971.065
 20
-406.654
 30
0.000000
  70
    32
  0
VERTEX
  8
┌▓È_1
  5
3A3
 10
971.110
 20
-406.665
 30
0.000000
  70
    32
  0
VERTEX
  8
┌▓È_1
  5
3A4
 10
971.155
 20
-406.675
 30
0.000000
  70
    32
  0
VERTEX
  8
┌▓È_1
  5
3A5
 10
971.200
 20
-406.685
 30
0.000000
  70
    32
  0
VERTEX
  8
┌▓È_1
  5
3A6
 10
971.245
 20
-406.695
 30
0.000000
  70
    32
  0
VERTEX
  8
┌▓È_1
  5
3A7
 10
971.290
 20
-406.706
 30
0.000000
  70
    32
  0
VERTEX
  8
┌▓È_1
  5
3A8
 10
971.335
 20
-406.716
 30
0.000000
  70
    32
  0
VERTEX
  8
┌▓È_1
  5
3A9
 10
971.380
 20
-406.726
 30
0.000000
  70
    32
  0
VERTEX
  8
┌▓È_1
  5
3AA
 10
971.425
 20
-406.736
 30
0.000000
  70
    32
  0
VERTEX
  8
┌▓È_1
  5
3AB
 10
971.470
 20
-406.746
 30
0.000000
  70
    32
  0
VERTEX
  8
┌▓È_1
  5
3AC
 10
971.515
 20
-406.756
 30
0.000000
  70
    32
  0
VERTEX
  8
┌▓È_1
  5
3AD
 10
971.560
 20
-406.766
 30
0.000000
  70
    32
  0
VERTEX
  8
┌▓È_1
  5
3AE
 10
971.605
 20
-406.776
 30
0.000000
  70
    32
  0
VERTEX
  8
┌▓È_1
  5
3AF
 10
971.650
 20
-406.786
 30
0.000000
  70
    32
  0
VERTEX
  8
┌▓È_1
  5
3B0
 10
971.695
 20
-406.796
 30
0.000000
  70
    32
  0
VERTEX
  8
┌▓È_1
  5
3B1
 10
971.741
 20
-406.806
 30
0.000000
  70
    32
  0
VERTEX
  8
┌▓È_1
  5
3B2
 10
971.786
 20
-406.816
 30
0.000000
  70
    32
  0
VERTEX
  8
┌▓È_1
  5
3B3
 10
971.831
 20
-406.826
 30
0.000000
  70
    32
  0
VERTEX
  8
┌▓È_1
  5
3B4
 10
971.876
 20
-406.835
 30
0.000000
  70
    32
  0
VERTEX
  8
┌▓È_1
  5
3B5
 10
971.921
 20
-406.845
 30
0.000000
  70
    32
  0
VERTEX
  8
┌▓È_1
  5
3B6
 10
971.966
 20
-406.855
 30
0.000000
  70
    32
  0
VERTEX
  8
┌▓È_1
  5
3B7
 10
972.012
 20
-406.865
 30
0.000000
  70
    32
  0
VERTEX
  8
┌▓È_1
  5
3B8
 10
972.057
 20
-406.875
 30
0.000000
  70
    32
  0
VERTEX
  8
┌▓È_1
  5
3B9
 10
972.102
 20
-406.884
 30
0.000000
  70
    32
  0
VERTEX
  8
┌▓È_1
  5
3BA
 10
972.147
 20
-406.894
 30
0.000000
  70
    32
  0
VERTEX
  8
┌▓È_1
  5
3BB
 10
972.193
 20
-406.904
 30
0.000000
  70
    32
  0
VERTEX
  8
┌▓È_1
  5
3BC
 10
972.238
 20
-406.914
 30
0.000000
  70
    32
  0
VERTEX
  8
┌▓È_1
  5
3BD
 10
972.283
 20
-406.923
 30
0.000000
  70
    32
  0
VERTEX
  8
┌▓È_1
  5
3BE
 10
972.328
 20
-406.933
 30
0.000000
  70
    32
  0
VERTEX
  8
┌▓È_1
  5
3BF
 10
972.374
 20
-406.943
 30
0.000000
  70
    32
  0
VERTEX
  8
┌▓È_1
  5
3C0
 10
972.419
 20
-406.952
 30
0.000000
  70
    32
  0
VERTEX
  8
┌▓È_1
  5
3C1
 10
972.464
 20
-406.962
 30
0.000000
  70
    32
  0
VERTEX
  8
┌▓È_1
  5
3C2
 10
972.509
 20
-406.972
 30
0.000000
  70
    32
  0
VERTEX
  8
┌▓È_1
  5
3C3
 10
972.555
 20
-406.981
 30
0.000000
  70
    32
  0
VERTEX
  8
┌▓È_1
  5
3C4
 10
972.600
 20
-406.991
 30
0.000000
  70
    32
  0
VERTEX
  8
┌▓È_1
  5
3C5
 10
972.645
 20
-407.000
 30
0.000000
  70
    32
  0
VERTEX
  8
┌▓È_1
  5
3C6
 10
972.691
 20
-407.010
 30
0.000000
  70
    32
  0
VERTEX
  8
┌▓È_1
  5
3C7
 10
972.736
 20
-407.019
 30
0.000000
  70
    32
  0
VERTEX
  8
┌▓È_1
  5
3C8
 10
972.781
 20
-407.029
 30
0.000000
  70
    32
  0
VERTEX
  8
┌▓È_1
  5
3C9
 10
972.827
 20
-407.038
 30
0.000000
  70
    32
  0
VERTEX
  8
┌▓È_1
  5
3CA
 10
972.872
 20
-407.048
 30
0.000000
  70
    32
  0
VERTEX
  8
┌▓È_1
  5
3CB
 10
972.917
 20
-407.057
 30
0.000000
  70
    32
  0
VERTEX
  8
┌▓È_1
  5
3CC
 10
972.963
 20
-407.067
 30
0.000000
  70
    32
  0
VERTEX
  8
┌▓È_1
  5
3CD
 10
973.008
 20
-407.076
 30
0.000000
  70
    32
  0
VERTEX
  8
┌▓È_1
  5
3CE
 10
973.054
 20
-407.086
 30
0.000000
  70
    32
  0
VERTEX
  8
┌▓È_1
  5
3CF
 10
973.099
 20
-407.095
 30
0.000000
  70
    32
  0
VERTEX
  8
┌▓È_1
  5
3D0
 10
973.144
 20
-407.105
 30
0.000000
  70
    32
  0
VERTEX
  8
┌▓È_1
  5
3D1
 10
973.190
 20
-407.114
 30
0.000000
  70
    32
  0
VERTEX
  8
┌▓È_1
  5
3D2
 10
973.235
 20
-407.124
 30
0.000000
  70
    32
  0
VERTEX
  8
┌▓È_1
  5
3D3
 10
973.280
 20
-407.133
 30
0.000000
  70
    32
  0
VERTEX
  8
┌▓È_1
  5
3D4
 10
973.326
 20
-407.143
 30
0.000000
  70
    32
  0
VERTEX
  8
┌▓È_1
  5
3D5
 10
973.371
 20
-407.152
 30
0.000000
  70
    32
  0
VERTEX
  8
┌▓È_1
  5
3D6
 10
973.417
 20
-407.162
 30
0.000000
  70
    32
  0
VERTEX
  8
┌▓È_1
  5
3D7
 10
973.462
 20
-407.171
 30
0.000000
  70
    32
  0
VERTEX
  8
┌▓È_1
  5
3D8
 10
973.507
 20
-407.181
 30
0.000000
  70
    32
  0
VERTEX
  8
┌▓È_1
  5
3D9
 10
973.553
 20
-407.190
 30
0.000000
  70
    32
  0
VERTEX
  8
┌▓È_1
  5
3DA
 10
973.598
 20
-407.199
 30
0.000000
  70
    32
  0
VERTEX
  8
┌▓È_1
  5
3DB
 10
973.644
 20
-407.209
 30
0.000000
  70
    32
  0
SEQEND
  8
┌▓È_1
  5
3DC
  0
POLYLINE
  8
┌▓È_1
  5
3DD
  62
5
  66
     1
 10
0.000000
 20
0.000000
 30
0.000000
  70
     8
  0
VERTEX
  8
┌▓È_1
  5
3DE
 10
964.738
 20
-400.629
 30
0.000000
  70
    32
  0
VERTEX
  8
┌▓È_1
  5
3DF
 10
964.749
 20
-400.641
 30
0.000000
  70
    32
  0
VERTEX
  8
┌▓È_1
  5
3E0
 10
964.760
 20
-400.653
 30
0.000000
  70
    32
  0
VERTEX
  8
┌▓È_1
  5
3E1
 10
964.770
 20
-400.665
 30
0.000000
  70
    32
  0
VERTEX
  8
┌▓È_1
  5
3E2
 10
964.781
 20
-400.676
 30
0.000000
  70
    32
  0
VERTEX
  8
┌▓È_1
  5
3E3
 10
964.791
 20
-400.688
 30
0.000000
  70
    32
  0
VERTEX
  8
┌▓È_1
  5
3E4
 10
964.802
 20
-400.700
 30
0.000000
  70
    32
  0
VERTEX
  8
┌▓È_1
  5
3E5
 10
964.812
 20
-400.712
 30
0.000000
  70
    32
  0
VERTEX
  8
┌▓È_1
  5
3E6
 10
964.823
 20
-400.723
 30
0.000000
  70
    32
  0
VERTEX
  8
┌▓È_1
  5
3E7
 10
964.834
 20
-400.735
 30
0.000000
  70
    32
  0
VERTEX
  8
┌▓È_1
  5
3E8
 10
964.844
 20
-400.747
 30
0.000000
  70
    32
  0
VERTEX
  8
┌▓È_1
  5
3E9
 10
964.855
 20
-400.759
 30
0.000000
  70
    32
  0
VERTEX
  8
┌▓È_1
  5
3EA
 10
964.865
 20
-400.771
 30
0.000000
  70
    32
  0
VERTEX
  8
┌▓È_1
  5
3EB
 10
964.876
 20
-400.782
 30
0.000000
  70
    32
  0
VERTEX
  8
┌▓È_1
  5
3EC
 10
964.886
 20
-400.794
 30
0.000000
  70
    32
  0
VERTEX
  8
┌▓È_1
  5
3ED
 10
964.897
 20
-400.806
 30
0.000000
  70
    32
  0
VERTEX
  8
┌▓È_1
  5
3EE
 10
964.908
 20
-400.818
 30
0.000000
  70
    32
  0
VERTEX
  8
┌▓È_1
  5
3EF
 10
964.918
 20
-400.829
 30
0.000000
  70
    32
  0
VERTEX
  8
┌▓È_1
  5
3F0
 10
964.929
 20
-400.841
 30
0.000000
  70
    32
  0
VERTEX
  8
┌▓È_1
  5
3F1
 10
964.939
 20
-400.853
 30
0.000000
  70
    32
  0
VERTEX
  8
┌▓È_1
  5
3F2
 10
964.950
 20
-400.865
 30
0.000000
  70
    32
  0
VERTEX
  8
┌▓È_1
  5
3F3
 10
964.960
 20
-400.876
 30
0.000000
  70
    32
  0
VERTEX
  8
┌▓È_1
  5
3F4
 10
964.971
 20
-400.888
 30
0.000000
  70
    32
  0
VERTEX
  8
┌▓È_1
  5
3F5
 10
964.982
 20
-400.900
 30
0.000000
  70
    32
  0
VERTEX
  8
┌▓È_1
  5
3F6
 10
964.992
 20
-400.911
 30
0.000000
  70
    32
  0
VERTEX
  8
┌▓È_1
  5
3F7
 10
965.003
 20
-400.923
 30
0.000000
  70
    32
  0
VERTEX
  8
┌▓È_1
  5
3F8
 10
965.013
 20
-400.935
 30
0.000000
  70
    32
  0
VERTEX
  8
┌▓È_1
  5
3F9
 10
965.024
 20
-400.947
 30
0.000000
  70
    32
  0
VERTEX
  8
┌▓È_1
  5
3FA
 10
965.035
 20
-400.958
 30
0.000000
  70
    32
  0
VERTEX
  8
┌▓È_1
  5
3FB
 10
965.045
 20
-400.970
 30
0.000000
  70
    32
  0
VERTEX
  8
┌▓È_1
  5
3FC
 10
965.056
 20
-400.982
 30
0.000000
  70
    32
  0
VERTEX
  8
┌▓È_1
  5
3FD
 10
965.066
 20
-400.993
 30
0.000000
  70
    32
  0
VERTEX
  8
┌▓È_1
  5
3FE
 10
965.077
 20
-401.005
 30
0.000000
  70
    32
  0
VERTEX
  8
┌▓È_1
  5
3FF
 10
965.088
 20
-401.017
 30
0.000000
  70
    32
  0
VERTEX
  8
┌▓È_1
  5
400
 10
965.098
 20
-401.028
 30
0.000000
  70
    32
  0
VERTEX
  8
┌▓È_1
  5
401
 10
965.109
 20
-401.040
 30
0.000000
  70
    32
  0
VERTEX
  8
┌▓È_1
  5
402
 10
965.119
 20
-401.052
 30
0.000000
  70
    32
  0
VERTEX
  8
┌▓È_1
  5
403
 10
965.130
 20
-401.063
 30
0.000000
  70
    32
  0
VERTEX
  8
┌▓È_1
  5
404
 10
965.141
 20
-401.075
 30
0.000000
  70
    32
  0
VERTEX
  8
┌▓È_1
  5
405
 10
965.151
 20
-401.087
 30
0.000000
  70
    32
  0
VERTEX
  8
┌▓È_1
  5
406
 10
965.162
 20
-401.098
 30
0.000000
  70
    32
  0
VERTEX
  8
┌▓È_1
  5
407
 10
965.173
 20
-401.110
 30
0.000000
  70
    32
  0
VERTEX
  8
┌▓È_1
  5
408
 10
965.183
 20
-401.122
 30
0.000000
  70
    32
  0
VERTEX
  8
┌▓È_1
  5
409
 10
965.194
 20
-401.133
 30
0.000000
  70
    32
  0
VERTEX
  8
┌▓È_1
  5
40A
 10
965.205
 20
-401.145
 30
0.000000
  70
    32
  0
VERTEX
  8
┌▓È_1
  5
40B
 10
965.215
 20
-401.156
 30
0.000000
  70
    32
  0
VERTEX
  8
┌▓È_1
  5
40C
 10
965.226
 20
-401.168
 30
0.000000
  70
    32
  0
VERTEX
  8
┌▓È_1
  5
40D
 10
965.237
 20
-401.180
 30
0.000000
  70
    32
  0
VERTEX
  8
┌▓È_1
  5
40E
 10
965.247
 20
-401.191
 30
0.000000
  70
    32
  0
VERTEX
  8
┌▓È_1
  5
40F
 10
965.258
 20
-401.203
 30
0.000000
  70
    32
  0
VERTEX
  8
┌▓È_1
  5
410
 10
965.269
 20
-401.214
 30
0.000000
  70
    32
  0
VERTEX
  8
┌▓È_1
  5
411
 10
965.279
 20
-401.226
 30
0.000000
  70
    32
  0
VERTEX
  8
┌▓È_1
  5
412
 10
965.290
 20
-401.237
 30
0.000000
  70
    32
  0
VERTEX
  8
┌▓È_1
  5
413
 10
965.301
 20
-401.249
 30
0.000000
  70
    32
  0
VERTEX
  8
┌▓È_1
  5
414
 10
965.312
 20
-401.260
 30
0.000000
  70
    32
  0
VERTEX
  8
┌▓È_1
  5
415
 10
965.322
 20
-401.272
 30
0.000000
  70
    32
  0
VERTEX
  8
┌▓È_1
  5
416
 10
965.333
 20
-401.283
 30
0.000000
  70
    32
  0
VERTEX
  8
┌▓È_1
  5
417
 10
965.344
 20
-401.295
 30
0.000000
  70
    32
  0
VERTEX
  8
┌▓È_1
  5
418
 10
965.354
 20
-401.306
 30
0.000000
  70
    32
  0
VERTEX
  8
┌▓È_1
  5
419
 10
965.365
 20
-401.318
 30
0.000000
  70
    32
  0
VERTEX
  8
┌▓È_1
  5
41A
 10
965.376
 20
-401.329
 30
0.000000
  70
    32
  0
VERTEX
  8
┌▓È_1
  5
41B
 10
965.387
 20
-401.341
 30
0.000000
  70
    32
  0
VERTEX
  8
┌▓È_1
  5
41C
 10
965.397
 20
-401.352
 30
0.000000
  70
    32
  0
VERTEX
  8
┌▓È_1
  5
41D
 10
965.408
 20
-401.364
 30
0.000000
  70
    32
  0
VERTEX
  8
┌▓È_1
  5
41E
 10
965.419
 20
-401.375
 30
0.000000
  70
    32
  0
VERTEX
  8
┌▓È_1
  5
41F
 10
965.430
 20
-401.387
 30
0.000000
  70
    32
  0
VERTEX
  8
┌▓È_1
  5
420
 10
965.441
 20
-401.398
 30
0.000000
  70
    32
  0
VERTEX
  8
┌▓È_1
  5
421
 10
965.451
 20
-401.409
 30
0.000000
  70
    32
  0
VERTEX
  8
┌▓È_1
  5
422
 10
965.462
 20
-401.421
 30
0.000000
  70
    32
  0
VERTEX
  8
┌▓È_1
  5
423
 10
965.473
 20
-401.432
 30
0.000000
  70
    32
  0
VERTEX
  8
┌▓È_1
  5
424
 10
965.484
 20
-401.443
 30
0.000000
  70
    32
  0
VERTEX
  8
┌▓È_1
  5
425
 10
965.495
 20
-401.455
 30
0.000000
  70
    32
  0
VERTEX
  8
┌▓È_1
  5
426
 10
965.506
 20
-401.466
 30
0.000000
  70
    32
  0
VERTEX
  8
┌▓È_1
  5
427
 10
965.516
 20
-401.477
 30
0.000000
  70
    32
  0
VERTEX
  8
┌▓È_1
  5
428
 10
965.527
 20
-401.489
 30
0.000000
  70
    32
  0
VERTEX
  8
┌▓È_1
  5
429
 10
965.538
 20
-401.500
 30
0.000000
  70
    32
  0
VERTEX
  8
┌▓È_1
  5
42A
 10
965.549
 20
-401.511
 30
0.000000
  70
    32
  0
VERTEX
  8
┌▓È_1
  5
42B
 10
965.560
 20
-401.522
 30
0.000000
  70
    32
  0
VERTEX
  8
┌▓È_1
  5
42C
 10
965.571
 20
-401.534
 30
0.000000
  70
    32
  0
VERTEX
  8
┌▓È_1
  5
42D
 10
965.582
 20
-401.545
 30
0.000000
  70
    32
  0
VERTEX
  8
┌▓È_1
  5
42E
 10
965.593
 20
-401.556
 30
0.000000
  70
    32
  0
VERTEX
  8
┌▓È_1
  5
42F
 10
965.603
 20
-401.567
 30
0.000000
  70
    32
  0
VERTEX
  8
┌▓È_1
  5
430
 10
965.614
 20
-401.579
 30
0.000000
  70
    32
  0
VERTEX
  8
┌▓È_1
  5
431
 10
965.625
 20
-401.590
 30
0.000000
  70
    32
  0
VERTEX
  8
┌▓È_1
  5
432
 10
965.636
 20
-401.601
 30
0.000000
  70
    32
  0
VERTEX
  8
┌▓È_1
  5
433
 10
965.647
 20
-401.612
 30
0.000000
  70
    32
  0
VERTEX
  8
┌▓È_1
  5
434
 10
965.658
 20
-401.623
 30
0.000000
  70
    32
  0
VERTEX
  8
┌▓È_1
  5
435
 10
965.669
 20
-401.634
 30
0.000000
  70
    32
  0
VERTEX
  8
┌▓È_1
  5
436
 10
965.680
 20
-401.645
 30
0.000000
  70
    32
  0
VERTEX
  8
┌▓È_1
  5
437
 10
965.691
 20
-401.656
 30
0.000000
  70
    32
  0
VERTEX
  8
┌▓È_1
  5
438
 10
965.702
 20
-401.668
 30
0.000000
  70
    32
  0
VERTEX
  8
┌▓È_1
  5
439
 10
965.713
 20
-401.679
 30
0.000000
  70
    32
  0
VERTEX
  8
┌▓È_1
  5
43A
 10
965.724
 20
-401.690
 30
0.000000
  70
    32
  0
VERTEX
  8
┌▓È_1
  5
43B
 10
965.735
 20
-401.701
 30
0.000000
  70
    32
  0
VERTEX
  8
┌▓È_1
  5
43C
 10
965.746
 20
-401.712
 30
0.000000
  70
    32
  0
VERTEX
  8
┌▓È_1
  5
43D
 10
965.757
 20
-401.723
 30
0.000000
  70
    32
  0
VERTEX
  8
┌▓È_1
  5
43E
 10
965.768
 20
-401.734
 30
0.000000
  70
    32
  0
VERTEX
  8
┌▓È_1
  5
43F
 10
965.779
 20
-401.745
 30
0.000000
  70
    32
  0
VERTEX
  8
┌▓È_1
  5
440
 10
965.790
 20
-401.756
 30
0.000000
  70
    32
  0
VERTEX
  8
┌▓È_1
  5
441
 10
965.801
 20
-401.766
 30
0.000000
  70
    32
  0
VERTEX
  8
┌▓È_1
  5
442
 10
965.813
 20
-401.777
 30
0.000000
  70
    32
  0
VERTEX
  8
┌▓È_1
  5
443
 10
965.824
 20
-401.788
 30
0.000000
  70
    32
  0
VERTEX
  8
┌▓È_1
  5
444
 10
965.835
 20
-401.799
 30
0.000000
  70
    32
  0
VERTEX
  8
┌▓È_1
  5
445
 10
965.846
 20
-401.810
 30
0.000000
  70
    32
  0
VERTEX
  8
┌▓È_1
  5
446
 10
965.857
 20
-401.821
 30
0.000000
  70
    32
  0
VERTEX
  8
┌▓È_1
  5
447
 10
965.868
 20
-401.832
 30
0.000000
  70
    32
  0
VERTEX
  8
┌▓È_1
  5
448
 10
965.879
 20
-401.842
 30
0.000000
  70
    32
  0
VERTEX
  8
┌▓È_1
  5
449
 10
965.891
 20
-401.853
 30
0.000000
  70
    32
  0
VERTEX
  8
┌▓È_1
  5
44A
 10
965.902
 20
-401.864
 30
0.000000
  70
    32
  0
VERTEX
  8
┌▓È_1
  5
44B
 10
965.913
 20
-401.875
 30
0.000000
  70
    32
  0
VERTEX
  8
┌▓È_1
  5
44C
 10
965.924
 20
-401.885
 30
0.000000
  70
    32
  0
VERTEX
  8
┌▓È_1
  5
44D
 10
965.935
 20
-401.896
 30
0.000000
  70
    32
  0
VERTEX
  8
┌▓È_1
  5
44E
 10
965.947
 20
-401.907
 30
0.000000
  70
    32
  0
VERTEX
  8
┌▓È_1
  5
44F
 10
965.958
 20
-401.917
 30
0.000000
  70
    32
  0
VERTEX
  8
┌▓È_1
  5
450
 10
965.969
 20
-401.928
 30
0.000000
  70
    32
  0
VERTEX
  8
┌▓È_1
  5
451
 10
965.980
 20
-401.939
 30
0.000000
  70
    32
  0
VERTEX
  8
┌▓È_1
  5
452
 10
965.992
 20
-401.949
 30
0.000000
  70
    32
  0
VERTEX
  8
┌▓È_1
  5
453
 10
966.003
 20
-401.960
 30
0.000000
  70
    32
  0
VERTEX
  8
┌▓È_1
  5
454
 10
966.014
 20
-401.970
 30
0.000000
  70
    32
  0
VERTEX
  8
┌▓È_1
  5
455
 10
966.026
 20
-401.981
 30
0.000000
  70
    32
  0
VERTEX
  8
┌▓È_1
  5
456
 10
966.037
 20
-401.991
 30
0.000000
  70
    32
  0
VERTEX
  8
┌▓È_1
  5
457
 10
966.048
 20
-402.002
 30
0.000000
  70
    32
  0
VERTEX
  8
┌▓È_1
  5
458
 10
966.060
 20
-402.012
 30
0.000000
  70
    32
  0
VERTEX
  8
┌▓È_1
  5
459
 10
966.071
 20
-402.023
 30
0.000000
  70
    32
  0
VERTEX
  8
┌▓È_1
  5
45A
 10
966.082
 20
-402.033
 30
0.000000
  70
    32
  0
VERTEX
  8
┌▓È_1
  5
45B
 10
966.094
 20
-402.044
 30
0.000000
  70
    32
  0
VERTEX
  8
┌▓È_1
  5
45C
 10
966.105
 20
-402.054
 30
0.000000
  70
    32
  0
VERTEX
  8
┌▓È_1
  5
45D
 10
966.117
 20
-402.065
 30
0.000000
  70
    32
  0
SEQEND
  8
┌▓È_1
  5
45E
  0
LINE
  5
19D
  8
┌▓È_1
 62
     5
 10
986.91820661130009
 20
-402.88882741959992
 30
0.0
 11
991.59156221429976
 21
-402.88882741959992
 31
0.0
  0
ARC
  5
19E
  8
┌▓È_1
 62
     5
 10
963.24358997699994
 20
-398.40882741960002
 30
0.0
 40
8.8000000000000007
 50
322.48761197969998
 51
0.0
  0
LINE
  5
19F
  8
┌▓È_1
 62
     5
 10
977.19156221429978
 20
-405.76882741959992
 30
0.0
 11
983.25449554759984
 21
-405.76882741959992
 31
0.0
  0
LINE
  5
1A0
  8
┌▓È_1
 62
     5
 10
985.72110518399995
 20
-398.72882741960001
 30
0.0
 11
985.48687438360002
 21
-397.91486119490003
 31
0.0
  0
LINE
  5
1A1
  8
┌▓È_1
 62
     5
 10
973.64358997699992
 20
-396.00882741959998
 30
0.0
 11
959.24358997699983
 21
-396.00882741959998
 31
0.0
  0
LINE
  5
1A2
  8
┌▓È_1
 62
     5
 10
941.38662028009992
 20
-404.00882741959998
 30
0.0
 11
945.38662028009981
 21
-404.00882741959998
 31
0.0
  0
LINE
  5
1A3
  8
┌▓È_1
 62
     5
 10
952.58662028009985
 20
-398.40882741960002
 30
0.0
 11
954.98662028009983
 21
-396.00882741959998
 31
0.0
  0
LINE
  5
1A4
  8
┌▓È_1
 62
     5
 10
982.40969554759988
 20
-402.88882741959992
 30
0.0
 11
982.0342288810001
 21
-401.6088274196
 31
0.0
  0
LINE
  5
1A5
  8
┌▓È_1
 62
     5
 10
986.54986771059998
 20
-401.6088274196
 30
0.0
 11
991.59156221429976
 21
-401.6088274196
 31
0.0
  0
LINE
  5
1A6
  8
┌▓È_1
 62
     5
 10
948.58662028009996
 20
-396.00882741959998
 30
0.0
 11
948.58662028009996
 21
-399.20882741960003
 31
0.0
  0
LINE
  5
1A7
  8
┌▓È_1
  6
BORDER
 62
     3
 10
703.26219966250005
 20
-198.9972205604
 30
0.0
 11
723.26219966250005
 21
-198.9972205604
 31
0.0
  0
LINE
  5
1A8
  8
┌▓È_1
  6
BORDER
 62
     3
 10
846.24227778750003
 20
-75.539901125200004
 30
0.0
 11
846.24227778750003
 21
-95.539901125200004
 31
0.0
  0
LINE
  5
1A9
  8
┌▓È_1
  6
BORDER
 62
     3
 10
703.26219966250005
 20
-298.99722056040002
 30
0.0
 11
723.26219966250005
 21
-298.99722056040002
 31
0.0
  0
LINE
  5
1AA
  8
┌▓È_1
  6
BORDER
 62
     3
 10
713.26219966250005
 20
-165.4972205604
 30
0.0
 11
713.26219966250005
 21
-323.99722056040002
 31
0.0
  0
LINE
  5
1AB
  8
┌▓È_1
  6
BORDER
 62
     3
 10
941.24227778750014
 20
-75.539901125200004
 30
0.0
 11
941.24227778750014
 21
-95.539901125200004
 31
0.0
  0
LINE
  5
1AC
  8
┌▓È_1
  6
BORDER
 62
     3
 10
821.24227778750003
 20
-85.539901125200004
 30
0.0
 11
971.24227778750003
 21
-85.539901125200004
 31
0.0
  0
LINE
  5
1AD
  8
┌▓È_1
 10
775.55900856189987
 20
-261.17660317939999
 30
0.0
 11
818.17766090559985
 21
-261.17660317939999
 31
0.0
  0
LINE
  5
1AE
  8
┌▓È_1
 62
     5
 10
688.26219966250005
 20
-170.4972205604
 30
0.0
 11
738.26219966250005
 21
-170.4972205604
 31
0.0
  0
LINE
  5
1AF
  8
┌▓È_1
 62
     5
 10
735.06219966250001
 20
-175.60724683079999
 30
0.0
 11
735.06219966250001
 21
-258.69722056040001
 31
0.0
  0
LINE
  5
1B0
  8
┌▓È_1
 62
     5
 10
738.26219966250005
 20
-258.69722056040001
 30
0.0
 11
735.06219966250001
 21
-258.69722056040001
 31
0.0
  0
LINE
  5
1B1
  8
┌▓È_1
 62
     5
 10
738.26219966250005
 20
-175.60724683079999
 30
0.0
 11
688.26219966250005
 21
-175.60724683079999
 31
0.0
  0
LINE
  5
1B2
  8
┌▓È_1
 62
     5
 10
738.26219966250005
 20
-172.40755875389999
 30
0.0
 11
688.26219966250005
 21
-172.40755875389999
 31
0.0
  0
CIRCLE
  5
1B3
  8
┌▓È_1
 62
     5
 10
713.26219966250005
 20
-198.9972205604
 30
0.0
 40
2.25
  0
LINE
  5
1B4
  8
┌▓È_1
 62
     5
 10
826.21093352600008
 20
-172.40755875389999
 30
0.0
 11
826.2556125031
 21
-175.60724683079999
 31
0.0
  0
LINE
  5
1B5
  8
┌▓È_1
  6
STITCH
 10
879.21283370459992
 20
-110.5399011252
 30
0.0
 11
879.21283370459992
 21
-107.3399011252
 31
0.0
  0
LINE
  5
1B6
  8
┌▓È_1
 62
     5
 10
826.24227778750003
 20
-60.539901125200011
 30
0.0
 11
826.24227778750003
 21
-110.5399011252
 31
0.0
  0
CIRCLE
  5
1B7
  8
┌▓È_1
 62
     5
 10
846.24227778750003
 20
-85.539901125200004
 30
0.0
 40
2.25
  0
LINE
  5
1B8
  8
┌▓È_1
 10
775.55900856189987
 20
-261.17660317939999
 30
0.0
 11
715.18550505960002
 21
-297.8295749166
 31
0.0
  0
SOLID
  5
1B9
  8
┌▓È_1
 10
715.18550505960002
 20
-297.8295749166
 30
0.0
 11
718.76425103710005
 21
-294.08958875720009
 31
0.0
 12
718.31429899110003
 22
-295.93007283560001
 32
0.0
 13
718.31429899110003
 23
-295.93007283560001
 33
0.0
  0
SOLID
  5
1BA
  8
┌▓È_1
 10
715.18550505960002
 20
-297.8295749166
 30
0.0
 11
720.15478306950001
 21
-296.38002488149999
 31
0.0
 12
718.31429899110003
 22
-295.93007283560001
 32
0.0
 13
718.31429899110003
 23
-295.93007283560001
 33
0.0
  0
LINE
  5
1BB
  8
┌▓È_1
 62
     5
 10
688.26219966250005
 20
-318.99722056040002
 30
0.0
 11
738.26219966250005
 21
-318.99722056040002
 31
0.0
  0
LINE
  5
1BC
  8
┌▓È_1
 62
     5
 10
738.26219966250005
 20
-170.4972205604
 30
0.0
 11
738.26219966250005
 21
-318.99722056040002
 31
0.0
  0
LINE
  5
1BD
  8
┌▓È_1
 62
     5
 10
688.26219966250005
 20
-170.4972205604
 30
0.0
 11
688.26219966250005
 21
-318.99722056040002
 31
0.0
  0
CIRCLE
  5
1BE
  8
┌▓È_1
 62
     5
 10
713.26219966250005
 20
-298.99722056040002
 30
0.0
 40
2.25
  0
LINE
  5
1BF
  8
┌▓È_1
 62
     5
 10
963.04227778749987
 20
-318.99722056040002
 30
0.0
 11
966.24227778750014
 21
-318.99722056040002
 31
0.0
  0
LINE
  5
1C0
  8
┌▓È_1
 62
     5
 10
963.04227778749987
 20
-173.69722056040001
 30
0.0
 11
963.04227778749987
 21
-318.99722056040002
 31
0.0
  0
LINE
  5
1C1
  8
┌▓È_1
 62
     5
 10
826.2556125031
 20
-175.60724683079999
 30
0.0
 11
963.04227778749987
 21
-173.69722056040001
 31
0.0
  0
ENDSEC
  0
EOF
