  0
SECTION
  2
HEADER
  9
$ACADVER
  1
AC1009
  9
$INSBASE
 10
0.0
 20
0.0
 30
0.0
  9
$EXTMIN
 10
-1450.8139322917
 20
-1261.2322916666999
 30
0.0
  9
$EXTMAX
 10
1107.0289062500001
 20
603.81562499999995
 30
0.0
  9
$LIMMIN
 10
0.0
 20
0.0
  9
$LIMMAX
 10
0.0
 20
0.0
  9
$ORTHOMODE
 70
     0
  9
$REGENMODE
 70
     1
  9
$FILLMODE
 70
     1
  9
$QTEXTMODE
 70
     0
  9
$MIRRTEXT
 70
     1
  9
$DRAGMODE
 70
     2
  9
$LTSCALE
 40
1.0
  9
$OSMODE
 70
    31
  9
$ATTMODE
 70
     1
  9
$TEXTSIZE
 40
0.0
  9
$TRACEWID
 40
0.05
  9
$TEXTSTYLE
  7
STANDARD
  9
$CLAYER
  8
0
  9
$CELTYPE
  6
CONTINUOUS
  9
$CECOLOR
 62
   256
  9
$DIMSCALE
 40
1.0
  9
$DIMASZ
 40
0.18
  9
$DIMEXO
 40
0.0625
  9
$DIMDLI
 40
0.38
  9
$DIMRND
 40
0.0
  9
$DIMDLE
 40
0.0
  9
$DIMEXE
 40
0.18
  9
$DIMTP
 40
0.0
  9
$DIMTM
 40
0.0
  9
$DIMTXT
 40
0.18
  9
$DIMCEN
 40
0.09
  9
$DIMTSZ
 40
0.0
  9
$DIMTOL
 70
     0
  9
$DIMLIM
 70
     0
  9
$DIMTIH
 70
     1
  9
$DIMTOH
 70
     1
  9
$DIMSE1
 70
     0
  9
$DIMSE2
 70
     0
  9
$DIMTAD
 70
     0
  9
$DIMZIN
 70
     0
  9
$DIMBLK
  1

  9
$DIMASO
 70
     1
  9
$DIMSHO
 70
     1
  9
$DIMPOST
  1

  9
$DIMAPOST
  1

  9
$DIMALT
 70
     0
  9
$DIMALTD
 70
     2
  9
$DIMALTF
 40
25.399999999999999
  9
$DIMLFAC
 40
1.0
  9
$DIMTOFL
 70
     0
  9
$DIMTVP
 40
0.0
  9
$DIMTIX
 70
     0
  9
$DIMSOXD
 70
     0
  9
$DIMSAH
 70
     0
  9
$DIMBLK1
  1

  9
$DIMBLK2
  1

  9
$DIMSTYLE
  2
STANDARD
  9
$DIMCLRD
 70
     0
  9
$DIMCLRE
 70
     0
  9
$DIMCLRT
 70
     0
  9
$DIMTFAC
 40
1.0
  9
$DIMGAP
 40
0.09
  9
$LUNITS
 70
     2
  9
$LUPREC
 70
     4
  9
$SKETCHINC
 40
0.1
  9
$FILLETRAD
 40
0.0
  9
$AUNITS
 70
     0
  9
$AUPREC
 70
     0
  9
$MENU
  1
acad
  9
$ELEVATION
 40
0.0
  9
$PELEVATION
 40
0.0
  9
$THICKNESS
 40
0.0
  9
$LIMCHECK
 70
     0
  9
$BLIPMODE
 70
     0
  9
$CHAMFERA
 40
0.0
  9
$CHAMFERB
 40
0.0
  9
$SKPOLY
 70
     0
  9
$TDCREATE
 40
2454861.6220088201
  9
$TDUPDATE
 40
2454861.62231897
  9
$TDINDWG
 40
0.0003200926
  9
$TDUSRTIMER
 40
0.0003197338
  9
$USRTIMER
 70
     1
  9
$ANGBASE
 50
0.0
  9
$ANGDIR
 70
     0
  9
$PDMODE
 70
     3
  9
$PDSIZE
 40
-1.0
  9
$PLINEWID
 40
0.0
  9
$COORDS
 70
     2
  9
$SPLFRAME
 70
     0
  9
$SPLINETYPE
 70
     6
  9
$SPLINESEGS
 70
     8
  9
$ATTDIA
 70
     0
  9
$ATTREQ
 70
     1
  9
$HANDLING
 70
     1
  9
$HANDSEED
  5
68A
  9
$SURFTAB1
 70
     6
  9
$SURFTAB2
 70
     6
  9
$SURFTYPE
 70
     6
  9
$SURFU
 70
     6
  9
$SURFV
 70
     6
  9
$UCSNAME
  2

  9
$UCSORG
 10
0.0
 20
0.0
 30
0.0
  9
$UCSXDIR
 10
1.0
 20
0.0
 30
0.0
  9
$UCSYDIR
 10
0.0
 20
1.0
 30
0.0
  9
$PUCSNAME
  2

  9
$PUCSORG
 10
0.0
 20
0.0
 30
0.0
  9
$PUCSXDIR
 10
1.0
 20
0.0
 30
0.0
  9
$PUCSYDIR
 10
0.0
 20
1.0
 30
0.0
  9
$USERI1
 70
     0
  9
$USERI2
 70
     0
  9
$USERI3
 70
     0
  9
$USERI4
 70
     0
  9
$USERI5
 70
     0
  9
$USERR1
 40
0.0
  9
$USERR2
 40
0.0
  9
$USERR3
 40
0.0
  9
$USERR4
 40
0.0
  9
$USERR5
 40
0.0
  9
$WORLDVIEW
 70
     1
  9
$SHADEDGE
 70
     3
  9
$SHADEDIF
 70
    70
  9
$TILEMODE
 70
     1
  9
$MAXACTVP
 70
    16
  9
$PLIMCHECK
 70
     0
  9
$PEXTMIN
 10
1.0000000000000000E+020
 20
1.0000000000000000E+020
 30
1.0000000000000000E+020
  9
$PEXTMAX
 10
-1.0000000000000000E+020
 20
-1.0000000000000000E+020
 30
-1.0000000000000000E+020
  9
$PLIMMIN
 10
0.0
 20
0.0
  9
$PLIMMAX
 10
12.0
 20
9.0
  9
$UNITMODE
 70
     0
  9
$VISRETAIN
 70
     0
  9
$PLINEGEN
 70
     1
  9
$PSLTSCALE
 70
     0
  0
ENDSEC
  0
SECTION
  2
TABLES
  0
TABLE
  2
VPORT
 70
     2
  0
VPORT
  2
*ACTIVE
 70
     0
 10
0.0
 20
0.0
 11
1.0
 21
1.0
 12
-171.8925130208502
 22
-328.70833333334991
 13
0.0
 23
0.0
 14
1.0
 24
1.0
 15
0.0
 25
0.0
 16
0.0
 26
0.0
 36
1.0
 17
0.0
 27
0.0
 37
0.0
 40
1880.525492738622
 41
1.6343490304709141
 42
50.0
 43
0.0
 44
0.0
 50
0.0
 51
0.0
 71
     0
 72
   100
 73
     1
 74
     1
 75
     0
 76
     0
 77
     0
 78
     0
  0
ENDTAB
  0
TABLE
  2
LTYPE
 70
    11
  0
LTYPE
  2
CONTINUOUS
 70
     0
  3
Solid line
 72
    65
 73
     0
 40
0.0
  0
LTYPE
  2
DOT
 70
     0
  3
. . . . . . . . 
 72
    65
 73
     2
 40
1.0
 49
0.0
 49
-1.0
  0
LTYPE
  2
DASHED
 70
     0
  3
___  ___  ___  ___  
 72
    65
 73
     2
 40
4.0
 49
3.0
 49
-1.0
  0
LTYPE
  2
HIDDEN
 70
     0
  3
__ __ __ __ 
 72
    65
 73
     2
 40
3.0
 49
2.0
 49
-1.0
  0
LTYPE
  2
STITCH
 70
     0
  3
_ _ _ _ 
 72
    65
 73
     2
 40
2.0
 49
1.0
 49
-1.0
  0
LTYPE
  2
CENTER
 70
     0
  3
______  __  ______  __  
 72
    65
 73
     4
 40
43.0
 49
40.0
 49
-1.0
 49
1.0
 49
-1.0
  0
LTYPE
  2
DASHDOT
 70
     0
  3
____ . ____ . 
 72
    65
 73
     4
 40
32.0
 49
30.0
 49
-1.0
 49
0.0
 49
-1.0
  0
LTYPE
  2
BORDER
 70
     0
  3
__ . __ . 
 72
    65
 73
     4
 40
22.0
 49
20.0
 49
-1.0
 49
0.0
 49
-1.0
  0
LTYPE
  2
CUTTING
 70
     0
  3
________   ___   ___   
 72
    65
 73
     6
 40
45.0
 49
40.0
 49
-1.0
 49
1.0
 49
-1.0
 49
1.0
 49
-1.0
  0
LTYPE
  2
PHANTOM
 70
     0
  3
______  __  __  
 72
    65
 73
     6
 40
35.0
 49
30.0
 49
-1.0
 49
1.0
 49
-1.0
 49
1.0
 49
-1.0
  0
LTYPE
  2
DIVIDE
 70
     0
  3
____ . . ____ . . 
 72
    65
 73
     6
 40
23.0
 49
20.0
 49
-1.0
 49
0.0
 49
-1.0
 49
0.0
 49
-1.0
  0
ENDTAB
  0
TABLE
  2
LAYER
 70
     3
  0
LAYER
  2
0
 70
     0
 62
     7
  6
CONTINUOUS
  0
LAYER
  2
┌▓È_1
 70
     0
 62
     7
  6
CONTINUOUS
  0
LAYER
  2
Éíû@É³
 70
     0
 62
     7
  6
CONTINUOUS
  0
ENDTAB
  0
TABLE
  2
STYLE
 70
     1
  0
STYLE
  2
STANDARD
 70
     0
 40
0.0
 41
1.0
 50
0.0
 71
     0
 42
0.0
  3
txt
  4
extfont
  0
ENDTAB
  0
TABLE
  2
VIEW
 70
     0
  0
ENDTAB
  0
TABLE
  2
UCS
 70
     0
  0
ENDTAB
  0
TABLE
  2
APPID
 70
     2
  0
APPID
  2
ACAD
 70
     0
  0
APPID
  2
DCO15
 70
     0
  0
ENDTAB
  0
TABLE
  2
DIMSTYLE
 70
     3
  0
DIMSTYLE
  2
STANDARD
 70
     0
  3

  4

  5

  6

  7

 40
1.0
 41
0.18
 42
0.0625
 43
0.38
 44
0.18
 45
0.0
 46
0.0
 47
0.0
 48
0.0
140
0.18
141
0.09
142
0.0
143
25.399999999999999
144
1.0
145
0.0
146
1.0
147
0.09
 71
     0
 72
     0
 73
     1
 74
     1
 75
     0
 76
     0
 77
     0
 78
     0
170
     0
171
     2
172
     0
173
     0
174
     0
175
     0
176
     0
177
     0
178
     0
  0
DIMSTYLE
  2
VELDIM0
 70
     0
  3

  4

  5

  6

  7

 40
1.0
 41
13.5229616165
 42
0.0625
 43
0.38
 44
6.536407947499999
 45
0.0
 46
32.682041168200001
 47
0.0
 48
0.0
140
20.990277957899998
141
0.09
142
0.0
143
25.399999999999999
144
1.0
145
0.0
146
1.0
147
0.09
 71
     0
 72
     0
 73
     0
 74
     0
 75
     0
 76
     0
 77
     0
 78
     8
170
     0
171
     2
172
     0
173
     0
174
     0
175
     0
176
     0
177
     0
178
     0
  0
DIMSTYLE
  2
VELDIM1
 70
     0
  3

  4

  5

  6

  7

 40
1.0
 41
13.5229616165
 42
0.0625
 43
0.38
 44
7.0
 45
0.0
 46
35.0
 47
0.0
 48
0.0
140
20.990277957899998
141
0.09
142
0.0
143
25.399999999999999
144
1.0
145
0.0
146
1.0
147
0.09
 71
     0
 72
     0
 73
     0
 74
     0
 75
     0
 76
     0
 77
     0
 78
     8
170
     0
171
     2
172
     0
173
     0
174
     0
175
     0
176
     0
177
     0
178
     0
  0
ENDTAB
  0
ENDSEC
  0
SECTION
  2
BLOCKS
  0
BLOCK
  8
0
  2
$MODEL_SPACE
 70
     0
 10
0.0
 20
0.0
 30
0.0
  3
$MODEL_SPACE
  1

  0
ENDBLK
  5
E
  8
0
  0
BLOCK
 67
     1
  8
0
  2
$PAPER_SPACE
 70
     0
 10
0.0
 20
0.0
 30
0.0
  3
$PAPER_SPACE
  1

  0
ENDBLK
  5
10
 67
     1
  8
0
  0
BLOCK
  8
0
  2
*D0
 70
     1
 10
0.0
 20
0.0
 30
0.0
  3
*D0
  1

  0
TEXT
  5
6D
  8
0
 62
     0
 10
10.0947915077
 20
91.536694335899995
 30
0.0
 40
20.990277957899998
  1
235
  0
LINE
  5
6E
  8
0
 62
     0
 10
146.11562499999999
 20
-3.6771841048999998
 30
0.0
 11
146.11562499999999
 21
87.832527637499993
 31
0.0
  0
LINE
  5
6F
  8
0
 62
     0
 10
-88.884375000000006
 20
-3.6771841048999998
 30
0.0
 11
-88.884375000000006
 21
87.832527637499993
 31
0.0
  0
LINE
  5
70
  8
0
 62
     0
 10
146.11562499999999
 20
81.296119689899996
 30
0.0
 11
59.483680820499998
 21
81.296119689899996
 31
0.0
  0
LINE
  5
71
  8
0
 62
     0
 10
146.11562499999999
 20
81.296119689899996
 30
0.0
 11
-2.2524308204999999
 21
81.296119689899996
 31
0.0
  0
LINE
  5
72
  8
0
 62
     0
 10
-88.884375000000006
 20
81.296119689899996
 30
0.0
 11
59.483680820499998
 21
81.296119689899996
 31
0.0
  0
LINE
  5
73
  8
0
 62
     0
 10
-88.884375000000006
 20
81.296119689899996
 30
0.0
 11
-2.2524308204999999
 21
81.296119689899996
 31
0.0
  0
LINE
  5
74
  8
0
 62
     0
 10
-88.884375000000006
 20
81.296119689899996
 30
0.0
 11
-56.202333831799997
 21
81.296119689899996
 31
0.0
  0
SOLID
  5
75
  8
0
 62
     0
 10
-88.884375000000006
 20
81.296119689899996
 30
0.0
 11
-75.361413383500008
 21
84.919586420100003
 31
0.0
 12
-75.361413383500008
 22
77.67265295979999
 32
0.0
 13
-78.742153787600003
 23
81.296119689899996
 33
0.0
  0
LINE
  5
76
  8
0
 62
     0
 10
146.11562499999999
 20
81.296119689899996
 30
0.0
 11
113.43358383179999
 21
81.296119689899996
 31
0.0
  0
SOLID
  5
77
  8
0
 62
     0
 10
146.11562499999999
 20
81.296119689899996
 30
0.0
 11
132.5926633835
 21
77.67265295979999
 31
0.0
 12
132.5926633835
 22
84.919586420100003
 32
0.0
 13
135.97340378760001
 23
81.296119689899996
 33
0.0
  0
ENDBLK
  5
78
  8
0
  0
BLOCK
  8
0
  2
BALLON0
 70
     0
 10
0.0
 20
0.0
 30
0.0
  3
BALLON0
  1

  0
INSERT
  5
129
  8
0
  6
CONTINUOUS
  2
*U26
 10
0.0
 20
0.0
 30
0.0
  0
CIRCLE
  5
12A
  8
┌▓È_1
 62
     5
 10
-639.14374999999995
 20
-74.5
 30
0.0
 40
28.0
  0
LINE
  5
12B
  8
Éíû@É³
 62
     5
 10
-685.81041666670001
 20
-74.5
 30
0.0
 11
-667.14374999999995
 21
-74.5
 31
0.0
  0
LINE
  5
12C
  8
Éíû@É³
 62
     5
 10
-791.64374999999995
 20
-287.65041138589999
 30
0.0
 11
-685.81041666670001
 21
-74.5
 31
0.0
  0
SOLID
  5
12D
  8
Éíû@É³
 62
     5
 10
-791.64374999999995
 20
-287.65041138589999
 30
0.0
 11
-784.20740333169999
 21
-260.08121211880001
 31
0.0
 12
-781.68206806020009
 22
-267.58738836020001
 32
0.0
 13
-781.68206806020009
 23
-267.58738836020001
 33
0.0
  0
SOLID
  5
12E
  8
Éíû@É³
 62
     5
 10
-781.68206806020009
 20
-267.58738836020001
 30
0.0
 11
-774.17589181890003
 21
-265.0620530887
 31
0.0
 12
-791.64374999999995
 22
-287.65041138589999
 32
0.0
 13
-791.64374999999995
 23
-287.65041138589999
 33
0.0
  0
ENDBLK
  5
12F
  8
0
  0
BLOCK
  8
0
  2
*D2
 70
     1
 10
0.0
 20
0.0
 30
0.0
  3
*D2
  1

  0
TEXT
  5
133
  8
0
 62
     0
 10
29.594791507699998
 20
-627.04583330150001
 30
0.0
 40
20.990277957899998
  1
196
  0
LINE
  5
134
  8
0
 62
     0
 10
-49.884374999999991
 20
-546.75
 30
0.0
 11
-49.884374999999991
 21
-644.74999999999989
 31
0.0
  0
LINE
  5
135
  8
0
 62
     0
 10
146.11562499999999
 20
-546.75
 30
0.0
 11
146.11562499999999
 21
-644.74999999999989
 31
0.0
  0
LINE
  5
136
  8
0
 62
     0
 10
-49.884374999999991
 20
-637.75
 30
0.0
 11
78.983680820499998
 21
-637.75
 31
0.0
  0
LINE
  5
137
  8
0
 62
     0
 10
-49.884374999999991
 20
-637.75
 30
0.0
 11
17.247569179500001
 21
-637.75
 31
0.0
  0
LINE
  5
138
  8
0
 62
     0
 10
146.11562499999999
 20
-637.75
 30
0.0
 11
78.983680820499998
 21
-637.75
 31
0.0
  0
LINE
  5
139
  8
0
 62
     0
 10
146.11562499999999
 20
-637.75
 30
0.0
 11
17.247569179500001
 21
-637.75
 31
0.0
  0
LINE
  5
13A
  8
0
 62
     0
 10
146.11562499999999
 20
-637.75
 30
0.0
 11
111.11562499999999
 21
-637.75
 31
0.0
  0
SOLID
  5
13B
  8
0
 62
     0
 10
146.11562499999999
 20
-637.75
 30
0.0
 11
132.5926633835
 21
-641.37346673009995
 31
0.0
 12
132.5926633835
 22
-634.12653326989994
 32
0.0
 13
135.97340378760001
 23
-637.75
 33
0.0
  0
LINE
  5
13C
  8
0
 62
     0
 10
-49.884374999999991
 20
-637.75
 30
0.0
 11
-14.884375
 21
-637.75
 31
0.0
  0
SOLID
  5
13D
  8
0
 62
     0
 10
-49.884374999999991
 20
-637.75
 30
0.0
 11
-36.3614133835
 21
-634.12653326989994
 31
0.0
 12
-36.3614133835
 22
-641.37346673009995
 32
0.0
 13
-39.742153787600003
 23
-637.75
 33
0.0
  0
ENDBLK
  5
13E
  8
0
  0
BLOCK
  8
0
  2
*D3
 70
     1
 10
0.0
 20
0.0
 30
0.0
  3
*D3
  1

  0
TEXT
  5
192
  8
0
 62
     0
 10
-308.78159732820001
 20
93.536694335899995
 30
0.0
 40
20.990277957899998
  1
20
  0
LINE
  5
193
  8
0
 62
     0
 10
-342.79296875
 20
-1.6771841049
 30
0.0
 11
-342.79296875
 21
89.832527637499993
 31
0.0
  0
LINE
  5
194
  8
0
 62
     0
 10
-342.79296875
 20
83.296119689899996
 30
0.0
 11
-271.73993034360001
 21
83.296119689899996
 31
0.0
  0
LINE
  5
195
  8
0
 62
     0
 10
-342.79296875
 20
83.296119689899996
 30
0.0
 11
-321.12881965640003
 21
83.296119689899996
 31
0.0
  0
LINE
  5
196
  8
0
 62
     0
 10
-362.79296875
 20
83.296119689899996
 30
0.0
 11
-271.73993034360001
 21
83.296119689899996
 31
0.0
  0
LINE
  5
197
  8
0
 62
     0
 10
-362.79296875
 20
83.296119689899996
 30
0.0
 11
-321.12881965640003
 21
83.296119689899996
 31
0.0
  0
LINE
  5
198
  8
0
 62
     0
 10
-362.79296875
 20
83.296119689899996
 30
0.0
 11
-395.47500991819999
 21
83.296119689899996
 31
0.0
  0
SOLID
  5
199
  8
0
 62
     0
 10
-362.79296875
 20
83.296119689899996
 30
0.0
 11
-376.31593036650003
 21
79.672652959799976
 31
0.0
 12
-376.31593036650003
 22
86.919586420100003
 32
0.0
 13
-372.93518996239999
 23
83.296119689899996
 33
0.0
  0
LINE
  5
19A
  8
0
 62
     0
 10
-342.79296875
 20
83.296119689899996
 30
0.0
 11
-310.11092758180001
 21
83.296119689899996
 31
0.0
  0
SOLID
  5
19B
  8
0
 62
     0
 10
-342.79296875
 20
83.296119689899996
 30
0.0
 11
-329.27000713349997
 21
86.919586420100003
 31
0.0
 12
-329.27000713349997
 22
79.672652959799976
 32
0.0
 13
-332.65074753760001
 23
83.296119689899996
 33
0.0
  0
ENDBLK
  5
19C
  8
0
  0
BLOCK
  8
0
  2
*D4
 70
     1
 10
0.0
 20
0.0
 30
0.0
  3
*D4
  1

  0
TEXT
  5
1A0
  8
0
 62
     0
 10
-720.91979322429995
 20
457.59957108750001
 30
0.0
 40
20.990277957899998
  1
P=40
 50
90.0
  0
LINE
  5
1A1
  8
0
 62
     0
 10
-782.12812499999995
 20
390.2721422697
 30
0.0
 11
-703.21562652590001
 21
390.2721422697
 31
0.0
  0
LINE
  5
1A2
  8
0
 62
     0
 10
-782.12812499999995
 20
430.2721422697
 30
0.0
 11
-703.21562652590001
 21
430.2721422697
 31
0.0
  0
LINE
  5
1A3
  8
0
 62
     0
 10
-710.21562652590001
 20
390.2721422697
 30
0.0
 11
-710.21562652590001
 21
519.3356827284
 31
0.0
  0
LINE
  5
1A4
  8
0
 62
     0
 10
-710.21562652590001
 20
390.2721422697
 30
0.0
 11
-710.21562652590001
 21
445.25234875929988
 31
0.0
  0
LINE
  5
1A5
  8
0
 62
     0
 10
-710.21562652590001
 20
430.2721422697
 30
0.0
 11
-710.21562652590001
 21
519.3356827284
 31
0.0
  0
LINE
  5
1A6
  8
0
 62
     0
 10
-710.21562652590001
 20
430.2721422697
 30
0.0
 11
-710.21562652590001
 21
445.25234875929988
 31
0.0
  0
LINE
  5
1A7
  8
0
 62
     0
 10
-710.21562652590001
 20
430.2721422697
 30
0.0
 11
-710.21562652590001
 21
395.2721422697
 31
0.0
  0
SOLID
  5
1A8
  8
0
 62
     0
 10
-710.21562652590001
 20
430.2721422697
 30
0.0
 11
-706.59215979579994
 21
416.74918065319991
 31
0.0
 12
-713.83909325600007
 22
416.74918065319991
 32
0.0
 13
-710.21562652590001
 23
420.12992105739988
 33
0.0
  0
LINE
  5
1A9
  8
0
 62
     0
 10
-710.21562652590001
 20
390.2721422697
 30
0.0
 11
-710.21562652590001
 21
425.2721422697
 31
0.0
  0
SOLID
  5
1AA
  8
0
 62
     0
 10
-710.21562652590001
 20
390.2721422697
 30
0.0
 11
-713.83909325600007
 21
403.7951038862999
 31
0.0
 12
-706.59215979579994
 22
403.7951038862999
 32
0.0
 13
-710.21562652590001
 23
400.41436348209999
 33
0.0
  0
ENDBLK
  5
1AB
  8
0
  0
BLOCK
  8
0
  2
*D5
 70
     1
 10
0.0
 20
0.0
 30
0.0
  3
*D5
  1

  0
TEXT
  5
1D6
  8
0
 62
     0
 10
-1071.0796630858999
 20
310.24733450820003
 30
0.0
 40
20.990277957899998
  1
152
 50
90.0
  0
LINE
  5
1D7
  8
0
 62
     0
 10
-973.60704506169986
 20
404.7681680005
 30
0.0
 11
-1067.3754963875001
 21
404.7681680005
 31
0.0
  0
LINE
  5
1D8
  8
0
 62
     0
 10
-1060.8390884399
 20
404.7681680005
 30
0.0
 11
-1060.8390884399
 21
359.6362238209
 31
0.0
  0
LINE
  5
1D9
  8
0
 62
     0
 10
-1060.8390884399
 20
404.7681680005
 30
0.0
 11
-1060.8390884399
 21
297.90011218000001
 31
0.0
  0
LINE
  5
1DA
  8
0
 62
     0
 10
-1060.8390884399
 20
252.7681680005
 30
0.0
 11
-1060.8390884399
 21
359.6362238209
 31
0.0
  0
LINE
  5
1DB
  8
0
 62
     0
 10
-1060.8390884399
 20
252.7681680005
 30
0.0
 11
-1060.8390884399
 21
297.90011218000001
 31
0.0
  0
LINE
  5
1DC
  8
0
 62
     0
 10
-1060.8390884399
 20
252.7681680005
 30
0.0
 11
-1060.8390884399
 21
285.45020916869998
 31
0.0
  0
SOLID
  5
1DD
  8
0
 62
     0
 10
-1060.8390884399
 20
252.7681680005
 30
0.0
 11
-1064.4625551700999
 21
266.29112961700002
 31
0.0
 12
-1057.2156217098
 22
266.29112961700002
 32
0.0
 13
-1060.8390884399
 23
262.9103892128
 33
0.0
  0
LINE
  5
1DE
  8
0
 62
     0
 10
-1060.8390884399
 20
404.7681680005
 30
0.0
 11
-1060.8390884399
 21
372.08612683220002
 31
0.0
  0
SOLID
  5
1DF
  8
0
 62
     0
 10
-1060.8390884399
 20
404.7681680005
 30
0.0
 11
-1057.2156217098
 21
391.24520638389998
 31
0.0
 12
-1064.4625551700999
 22
391.24520638389998
 32
0.0
 13
-1060.8390884399
 23
394.62594678810001
 33
0.0
  0
ENDBLK
  5
1E0
  8
0
  0
BLOCK
  8
0
  2
*D6
 70
     1
 10
0.0
 20
0.0
 30
0.0
  3
*D6
  1

  0
TEXT
  5
1E4
  8
0
 62
     0
 10
-1022.5612848282
 20
93.536694335899995
 30
0.0
 40
20.990277957899998
  1
20
  0
LINE
  5
1E5
  8
0
 62
     0
 10
-942.79296875
 20
-1.6771841049
 30
0.0
 11
-942.79296875
 21
89.832527637499993
 31
0.0
  0
LINE
  5
1E6
  8
0
 62
     0
 10
-942.79296875
 20
83.296119689899996
 30
0.0
 11
-985.51961784360014
 21
83.296119689899996
 31
0.0
  0
LINE
  5
1E7
  8
0
 62
     0
 10
-942.79296875
 20
83.296119689899996
 30
0.0
 11
-1034.9085071564
 21
83.296119689899996
 31
0.0
  0
LINE
  5
1E8
  8
0
 62
     0
 10
-962.79296875
 20
83.296119689899996
 30
0.0
 11
-985.51961784360014
 21
83.296119689899996
 31
0.0
  0
LINE
  5
1E9
  8
0
 62
     0
 10
-962.79296875
 20
83.296119689899996
 30
0.0
 11
-1034.9085071564
 21
83.296119689899996
 31
0.0
  0
LINE
  5
1EA
  8
0
 62
     0
 10
-962.79296875
 20
83.296119689899996
 30
0.0
 11
-995.47500991820004
 21
83.296119689899996
 31
0.0
  0
SOLID
  5
1EB
  8
0
 62
     0
 10
-962.79296875
 20
83.296119689899996
 30
0.0
 11
-976.31593036649997
 21
79.672652959799976
 31
0.0
 12
-976.31593036649997
 22
86.919586420100003
 32
0.0
 13
-972.93518996240005
 23
83.296119689899996
 33
0.0
  0
LINE
  5
1EC
  8
0
 62
     0
 10
-942.79296875
 20
83.296119689899996
 30
0.0
 11
-910.11092758179996
 21
83.296119689899996
 31
0.0
  0
SOLID
  5
1ED
  8
0
 62
     0
 10
-942.79296875
 20
83.296119689899996
 30
0.0
 11
-929.27000713350003
 21
86.919586420100003
 31
0.0
 12
-929.27000713350003
 22
79.672652959799976
 32
0.0
 13
-932.65074753759995
 23
83.296119689899996
 33
0.0
  0
ENDBLK
  5
1EE
  8
0
  0
BLOCK
  8
0
  2
*D7
 70
     1
 10
0.0
 20
0.0
 30
0.0
  3
*D7
  1

  0
TEXT
  5
1F2
  8
0
 62
     0
 10
-1071.0796630858999
 20
414.92094567229998
 30
0.0
 40
20.990277957899998
  1
43
 50
90.0
  0
LINE
  5
1F3
  8
0
 62
     0
 10
-975.86578464509989
 20
449.7681680005
 30
0.0
 11
-1067.3754963875001
 21
449.7681680005
 31
0.0
  0
LINE
  5
1F4
  8
0
 62
     0
 10
-1060.8390884399
 20
449.7681680005
 30
0.0
 11
-1060.8390884399
 21
449.7681680005
 31
0.0
  0
LINE
  5
1F5
  8
0
 62
     0
 10
-1060.8390884399
 20
449.7681680005
 30
0.0
 11
-1060.8390884399
 21
404.7681680005
 31
0.0
  0
LINE
  5
1F6
  8
0
 62
     0
 10
-1060.8390884399
 20
404.7681680005
 30
0.0
 11
-1060.8390884399
 21
449.7681680005
 31
0.0
  0
LINE
  5
1F7
  8
0
 62
     0
 10
-1060.8390884399
 20
404.7681680005
 30
0.0
 11
-1060.8390884399
 21
404.7681680005
 31
0.0
  0
LINE
  5
1F8
  8
0
 62
     0
 10
-1060.8390884399
 20
404.7681680005
 30
0.0
 11
-1060.8390884399
 21
437.45020916869998
 31
0.0
  0
SOLID
  5
1F9
  8
0
 62
     0
 10
-1060.8390884399
 20
404.7681680005
 30
0.0
 11
-1064.4625551700999
 21
418.29112961699991
 31
0.0
 12
-1057.2156217098
 22
418.29112961699991
 32
0.0
 13
-1060.8390884399
 23
414.9103892128
 33
0.0
  0
LINE
  5
1FA
  8
0
 62
     0
 10
-1060.8390884399
 20
449.7681680005
 30
0.0
 11
-1060.8390884399
 21
417.08612683220002
 31
0.0
  0
SOLID
  5
1FB
  8
0
 62
     0
 10
-1060.8390884399
 20
449.7681680005
 30
0.0
 11
-1057.2156217098
 21
436.24520638389998
 31
0.0
 12
-1064.4625551700999
 22
436.24520638389998
 32
0.0
 13
-1060.8390884399
 23
439.6259467880999
 33
0.0
  0
ENDBLK
  5
1FC
  8
0
  0
BLOCK
  8
0
  2
*D8
 70
     1
 10
0.0
 20
0.0
 30
0.0
  3
*D8
  1

  0
TEXT
  5
200
  8
0
 62
     0
 10
-1071.0796630858999
 20
221.42293280690001
 30
0.0
 40
20.990277957899998
  1
40
 50
90.0
  0
LINE
  5
201
  8
0
 62
     0
 10
-974.05925574659989
 20
252.7681680005
 30
0.0
 11
-1067.3754963875001
 21
252.7681680005
 31
0.0
  0
LINE
  5
202
  8
0
 62
     0
 10
-1060.8390884399
 20
252.7681680005
 30
0.0
 11
-1060.8390884399
 21
252.7681680005
 31
0.0
  0
LINE
  5
203
  8
0
 62
     0
 10
-1060.8390884399
 20
252.7681680005
 30
0.0
 11
-1060.8390884399
 21
214.7721422697
 31
0.0
  0
LINE
  5
204
  8
0
 62
     0
 10
-1060.8390884399
 20
214.7721422697
 30
0.0
 11
-1060.8390884399
 21
252.7681680005
 31
0.0
  0
LINE
  5
205
  8
0
 62
     0
 10
-1060.8390884399
 20
214.7721422697
 30
0.0
 11
-1060.8390884399
 21
214.7721422697
 31
0.0
  0
LINE
  5
206
  8
0
 62
     0
 10
-1060.8390884399
 20
214.7721422697
 30
0.0
 11
-1060.8390884399
 21
247.45418343790001
 31
0.0
  0
SOLID
  5
207
  8
0
 62
     0
 10
-1060.8390884399
 20
214.7721422697
 30
0.0
 11
-1064.4625551700999
 21
228.29510388630001
 31
0.0
 12
-1057.2156217098
 22
228.29510388630001
 32
0.0
 13
-1060.8390884399
 23
224.91436348209999
 33
0.0
  0
LINE
  5
208
  8
0
 62
     0
 10
-1060.8390884399
 20
252.7681680005
 30
0.0
 11
-1060.8390884399
 21
220.08612683219999
 31
0.0
  0
SOLID
  5
209
  8
0
 62
     0
 10
-1060.8390884399
 20
252.7681680005
 30
0.0
 11
-1057.2156217098
 21
239.24520638390001
 31
0.0
 12
-1064.4625551700999
 22
239.24520638390001
 32
0.0
 13
-1060.8390884399
 23
242.62594678810001
 33
0.0
  0
ENDBLK
  5
20A
  8
0
  0
BLOCK
  8
0
  2
*D9
 70
     1
 10
0.0
 20
0.0
 30
0.0
  3
*D9
  1

  0
TEXT
  5
27B
  8
0
 62
     0
 10
-1071.0796630858999
 20
-990.44192724229981
 30
0.0
 40
20.990277957899998
  1
216
 50
90.0
  0
LINE
  5
27C
  8
0
 62
     0
 10
-971.00088748840005
 20
-863.92109374999995
 30
0.0
 11
-1067.3754963875001
 21
-863.92109374999995
 31
0.0
  0
LINE
  5
27D
  8
0
 62
     0
 10
-1060.8390884399
 20
-863.92109374999995
 30
0.0
 11
-1060.8390884399
 21
-941.05303792949996
 31
0.0
  0
LINE
  5
27E
  8
0
 62
     0
 10
-1060.8390884399
 20
-863.92109374999995
 30
0.0
 11
-1060.8390884399
 21
-1002.7891495704999
 31
0.0
  0
LINE
  5
27F
  8
0
 62
     0
 10
-1060.8390884399
 20
-1079.92109375
 30
0.0
 11
-1060.8390884399
 21
-941.05303792949996
 31
0.0
  0
LINE
  5
280
  8
0
 62
     0
 10
-1060.8390884399
 20
-1079.92109375
 30
0.0
 11
-1060.8390884399
 21
-1002.7891495704999
 31
0.0
  0
LINE
  5
281
  8
0
 62
     0
 10
-1060.8390884399
 20
-1079.92109375
 30
0.0
 11
-1060.8390884399
 21
-1047.2390525818
 31
0.0
  0
SOLID
  5
282
  8
0
 62
     0
 10
-1060.8390884399
 20
-1079.92109375
 30
0.0
 11
-1064.4625551700999
 21
-1066.3981321335
 31
0.0
 12
-1057.2156217098
 22
-1066.3981321335
 32
0.0
 13
-1060.8390884399
 23
-1069.7788725375999
 33
0.0
  0
LINE
  5
283
  8
0
 62
     0
 10
-1060.8390884399
 20
-863.92109374999995
 30
0.0
 11
-1060.8390884399
 21
-896.60313491820011
 31
0.0
  0
SOLID
  5
284
  8
0
 62
     0
 10
-1060.8390884399
 20
-863.92109374999995
 30
0.0
 11
-1057.2156217098
 21
-877.44405536650004
 31
0.0
 12
-1064.4625551700999
 22
-877.44405536650004
 32
0.0
 13
-1060.8390884399
 23
-874.06331496240011
 33
0.0
  0
ENDBLK
  5
285
  8
0
  0
BLOCK
  8
0
  2
*D10
 70
     1
 10
0.0
 20
0.0
 30
0.0
  3
*D10
  1

  0
TEXT
  5
289
  8
0
 62
     0
 10
-1071.0796630858999
 20
-778.44192724229993
 30
0.0
 40
20.990277957899998
  1
208
 50
90.0
  0
LINE
  5
28A
  8
0
 62
     0
 10
-971.29796351179994
 20
-655.92109374999995
 30
0.0
 11
-1067.3754963875001
 21
-655.92109374999995
 31
0.0
  0
LINE
  5
28B
  8
0
 62
     0
 10
-1060.8390884399
 20
-655.92109374999995
 30
0.0
 11
-1060.8390884399
 21
-729.05303792949985
 31
0.0
  0
LINE
  5
28C
  8
0
 62
     0
 10
-1060.8390884399
 20
-655.92109374999995
 30
0.0
 11
-1060.8390884399
 21
-790.78914957049994
 31
0.0
  0
LINE
  5
28D
  8
0
 62
     0
 10
-1060.8390884399
 20
-863.92109374999995
 30
0.0
 11
-1060.8390884399
 21
-729.05303792949985
 31
0.0
  0
LINE
  5
28E
  8
0
 62
     0
 10
-1060.8390884399
 20
-863.92109374999995
 30
0.0
 11
-1060.8390884399
 21
-790.78914957049994
 31
0.0
  0
LINE
  5
28F
  8
0
 62
     0
 10
-1060.8390884399
 20
-863.92109374999995
 30
0.0
 11
-1060.8390884399
 21
-831.23905258179991
 31
0.0
  0
SOLID
  5
290
  8
0
 62
     0
 10
-1060.8390884399
 20
-863.92109374999995
 30
0.0
 11
-1064.4625551700999
 21
-850.39813213349998
 31
0.0
 12
-1057.2156217098
 22
-850.39813213349998
 32
0.0
 13
-1060.8390884399
 23
-853.77887253760002
 33
0.0
  0
LINE
  5
291
  8
0
 62
     0
 10
-1060.8390884399
 20
-655.92109374999995
 30
0.0
 11
-1060.8390884399
 21
-688.60313491820011
 31
0.0
  0
SOLID
  5
292
  8
0
 62
     0
 10
-1060.8390884399
 20
-655.92109374999995
 30
0.0
 11
-1057.2156217098
 21
-669.44405536650004
 31
0.0
 12
-1064.4625551700999
 22
-669.44405536650004
 32
0.0
 13
-1060.8390884399
 23
-666.0633149624
 33
0.0
  0
ENDBLK
  5
293
  8
0
  0
BLOCK
  8
0
  2
*D11
 70
     1
 10
0.0
 20
0.0
 30
0.0
  3
*D11
  1

  0
TEXT
  5
297
  8
0
 62
     0
 10
-1071.0796630858999
 20
-648.26831607819986
 30
0.0
 40
20.990277957899998
  1
41
 50
90.0
  0
LINE
  5
298
  8
0
 62
     0
 10
-975.86578464509989
 20
-615.92109374999995
 30
0.0
 11
-1067.3754963875001
 21
-615.92109374999995
 31
0.0
  0
LINE
  5
299
  8
0
 62
     0
 10
-1060.8390884399
 20
-615.92109374999995
 30
0.0
 11
-1060.8390884399
 21
-615.92109374999995
 31
0.0
  0
LINE
  5
29A
  8
0
 62
     0
 10
-1060.8390884399
 20
-615.92109374999995
 30
0.0
 11
-1060.8390884399
 21
-655.92109374999995
 31
0.0
  0
LINE
  5
29B
  8
0
 62
     0
 10
-1060.8390884399
 20
-655.92109374999995
 30
0.0
 11
-1060.8390884399
 21
-615.92109374999995
 31
0.0
  0
LINE
  5
29C
  8
0
 62
     0
 10
-1060.8390884399
 20
-655.92109374999995
 30
0.0
 11
-1060.8390884399
 21
-655.92109374999995
 31
0.0
  0
LINE
  5
29D
  8
0
 62
     0
 10
-1060.8390884399
 20
-655.92109374999995
 30
0.0
 11
-1060.8390884399
 21
-623.23905258180002
 31
0.0
  0
SOLID
  5
29E
  8
0
 62
     0
 10
-1060.8390884399
 20
-655.92109374999995
 30
0.0
 11
-1064.4625551700999
 21
-642.39813213349987
 31
0.0
 12
-1057.2156217098
 22
-642.39813213349987
 32
0.0
 13
-1060.8390884399
 23
-645.77887253760002
 33
0.0
  0
LINE
  5
29F
  8
0
 62
     0
 10
-1060.8390884399
 20
-615.92109374999995
 30
0.0
 11
-1060.8390884399
 21
-648.6031349182
 31
0.0
  0
SOLID
  5
2A0
  8
0
 62
     0
 10
-1060.8390884399
 20
-615.92109374999995
 30
0.0
 11
-1057.2156217098
 21
-629.44405536650004
 31
0.0
 12
-1064.4625551700999
 22
-629.44405536650004
 32
0.0
 13
-1060.8390884399
 23
-626.06331496239989
 33
0.0
  0
ENDBLK
  5
2A1
  8
0
  0
BLOCK
  8
0
  2
*D12
 70
     1
 10
0.0
 20
0.0
 30
0.0
  3
*D12
  1

  0
TEXT
  5
2A5
  8
0
 62
     0
 10
-1071.0796630858999
 20
-1120.2683160782001
 30
0.0
 40
20.990277957899998
  1
55
 50
90.0
  0
LINE
  5
2A6
  8
0
 62
     0
 10
-971.59503953520004
 20
-1079.92109375
 30
0.0
 11
-1067.3754963875001
 21
-1079.92109375
 31
0.0
  0
LINE
  5
2A7
  8
0
 62
     0
 10
-1060.8390884399
 20
-1079.92109375
 30
0.0
 11
-1060.8390884399
 21
-1083.2266490935999
 31
0.0
  0
LINE
  5
2A8
  8
0
 62
     0
 10
-1060.8390884399
 20
-1079.92109375
 30
0.0
 11
-1060.8390884399
 21
-1132.6155384064
 31
0.0
  0
LINE
  5
2A9
  8
0
 62
     0
 10
-1060.8390884399
 20
-1135.92109375
 30
0.0
 11
-1060.8390884399
 21
-1083.2266490935999
 31
0.0
  0
LINE
  5
2AA
  8
0
 62
     0
 10
-1060.8390884399
 20
-1135.92109375
 30
0.0
 11
-1060.8390884399
 21
-1132.6155384064
 31
0.0
  0
LINE
  5
2AB
  8
0
 62
     0
 10
-1060.8390884399
 20
-1135.92109375
 30
0.0
 11
-1060.8390884399
 21
-1168.6031349182001
 31
0.0
  0
SOLID
  5
2AC
  8
0
 62
     0
 10
-1060.8390884399
 20
-1135.92109375
 30
0.0
 11
-1057.2156217098
 21
-1149.4440553664999
 31
0.0
 12
-1064.4625551700999
 22
-1149.4440553664999
 32
0.0
 13
-1060.8390884399
 23
-1146.0633149624
 33
0.0
  0
LINE
  5
2AD
  8
0
 62
     0
 10
-1060.8390884399
 20
-1079.92109375
 30
0.0
 11
-1060.8390884399
 21
-1047.2390525818
 31
0.0
  0
SOLID
  5
2AE
  8
0
 62
     0
 10
-1060.8390884399
 20
-1079.92109375
 30
0.0
 11
-1064.4625551700999
 21
-1066.3981321335
 31
0.0
 12
-1057.2156217098
 22
-1066.3981321335
 32
0.0
 13
-1060.8390884399
 23
-1069.7788725375999
 33
0.0
  0
ENDBLK
  5
2AF
  8
0
  0
BLOCK
  8
0
  2
*D13
 70
     1
 10
0.0
 20
0.0
 30
0.0
  3
*D13
  1

  0
TEXT
  5
2B9
  8
0
 62
     0
 10
-671.31380224230008
 20
561.08336460049998
 30
0.0
 40
20.990277957899998
  1
580
  0
LINE
  5
2BA
  8
0
 62
     0
 10
-352.79296875
 20
465.8694861596
 30
0.0
 11
-352.79296875
 21
557.37919790199999
 31
0.0
  0
LINE
  5
2BB
  8
0
 62
     0
 10
-952.79296875
 20
465.8694861596
 30
0.0
 11
-952.79296875
 21
557.37919790199999
 31
0.0
  0
LINE
  5
2BC
  8
0
 62
     0
 10
-352.79296875
 20
550.84278995449995
 30
0.0
 11
-621.92491292950001
 21
550.84278995449995
 31
0.0
  0
LINE
  5
2BD
  8
0
 62
     0
 10
-352.79296875
 20
550.84278995449995
 30
0.0
 11
-683.66102457049988
 21
550.84278995449995
 31
0.0
  0
LINE
  5
2BE
  8
0
 62
     0
 10
-952.79296875
 20
550.84278995449995
 30
0.0
 11
-621.92491292950001
 21
550.84278995449995
 31
0.0
  0
LINE
  5
2BF
  8
0
 62
     0
 10
-952.79296875
 20
550.84278995449995
 30
0.0
 11
-683.66102457049988
 21
550.84278995449995
 31
0.0
  0
LINE
  5
2C0
  8
0
 62
     0
 10
-952.79296875
 20
550.84278995449995
 30
0.0
 11
-920.11092758179996
 21
550.84278995449995
 31
0.0
  0
SOLID
  5
2C1
  8
0
 62
     0
 10
-952.79296875
 20
550.84278995449995
 30
0.0
 11
-939.27000713349992
 21
554.46625668460001
 31
0.0
 12
-939.27000713349992
 22
547.21932322439989
 32
0.0
 13
-942.65074753759984
 23
550.84278995449995
 33
0.0
  0
LINE
  5
2C2
  8
0
 62
     0
 10
-352.79296875
 20
550.84278995449995
 30
0.0
 11
-385.47500991819999
 21
550.84278995449995
 31
0.0
  0
SOLID
  5
2C3
  8
0
 62
     0
 10
-352.79296875
 20
550.84278995449995
 30
0.0
 11
-366.31593036650003
 21
547.21932322439989
 31
0.0
 12
-366.31593036650003
 22
554.46625668460001
 32
0.0
 13
-362.93518996239999
 23
550.84278995449995
 33
0.0
  0
ENDBLK
  5
2C4
  8
0
  0
BLOCK
  8
0
  2
*D14
 70
     1
 10
0.0
 20
0.0
 30
0.0
  3
*D14
  1

  0
TEXT
  5
2C8
  8
0
 62
     0
 10
-671.31380224230008
 20
93.536694335899995
 30
0.0
 40
20.990277957899998
  1
560
  0
LINE
  5
2C9
  8
0
 62
     0
 10
-362.79296875
 20
-1.6771841049
 30
0.0
 11
-362.79296875
 21
89.832527637499993
 31
0.0
  0
LINE
  5
2CA
  8
0
 62
     0
 10
-362.79296875
 20
83.296119689899996
 30
0.0
 11
-621.92491292950001
 21
83.296119689899996
 31
0.0
  0
LINE
  5
2CB
  8
0
 62
     0
 10
-362.79296875
 20
83.296119689899996
 30
0.0
 11
-683.66102457049988
 21
83.296119689899996
 31
0.0
  0
LINE
  5
2CC
  8
0
 62
     0
 10
-942.79296875
 20
83.296119689899996
 30
0.0
 11
-621.92491292950001
 21
83.296119689899996
 31
0.0
  0
LINE
  5
2CD
  8
0
 62
     0
 10
-942.79296875
 20
83.296119689899996
 30
0.0
 11
-683.66102457049988
 21
83.296119689899996
 31
0.0
  0
LINE
  5
2CE
  8
0
 62
     0
 10
-942.79296875
 20
83.296119689899996
 30
0.0
 11
-910.11092758179996
 21
83.296119689899996
 31
0.0
  0
SOLID
  5
2CF
  8
0
 62
     0
 10
-942.79296875
 20
83.296119689899996
 30
0.0
 11
-929.27000713350003
 21
86.919586420100003
 31
0.0
 12
-929.27000713350003
 22
79.672652959799976
 32
0.0
 13
-932.65074753759995
 23
83.296119689899996
 33
0.0
  0
LINE
  5
2D0
  8
0
 62
     0
 10
-362.79296875
 20
83.296119689899996
 30
0.0
 11
-395.47500991819999
 21
83.296119689899996
 31
0.0
  0
SOLID
  5
2D1
  8
0
 62
     0
 10
-362.79296875
 20
83.296119689899996
 30
0.0
 11
-376.31593036650003
 21
79.672652959799976
 31
0.0
 12
-376.31593036650003
 22
86.919586420100003
 32
0.0
 13
-372.93518996239999
 23
83.296119689899996
 33
0.0
  0
ENDBLK
  5
2D2
  8
0
  0
BLOCK
  8
0
  2
*D15
 70
     1
 10
0.0
 20
0.0
 30
0.0
  3
*D15
  1

  0
TEXT
  5
2D6
  8
0
 62
     0
 10
-671.31380224230008
 20
144.115574646
 30
0.0
 40
20.990277957899998
  1
600
  0
LINE
  5
2D7
  8
0
 62
     0
 10
-962.79296875
 20
-1.6771841049
 30
0.0
 11
-962.79296875
 21
140.41140794750001
 31
0.0
  0
LINE
  5
2D8
  8
0
 62
     0
 10
-962.79296875
 20
133.875
 30
0.0
 11
-621.92491292950001
 21
133.875
 31
0.0
  0
LINE
  5
2D9
  8
0
 62
     0
 10
-962.79296875
 20
133.875
 30
0.0
 11
-683.66102457049988
 21
133.875
 31
0.0
  0
LINE
  5
2DA
  8
0
 62
     0
 10
-342.79296875
 20
133.875
 30
0.0
 11
-621.92491292950001
 21
133.875
 31
0.0
  0
LINE
  5
2DB
  8
0
 62
     0
 10
-342.79296875
 20
133.875
 30
0.0
 11
-683.66102457049988
 21
133.875
 31
0.0
  0
LINE
  5
2DC
  8
0
 62
     0
 10
-342.79296875
 20
133.875
 30
0.0
 11
-375.47500991819999
 21
133.875
 31
0.0
  0
SOLID
  5
2DD
  8
0
 62
     0
 10
-342.79296875
 20
133.875
 30
0.0
 11
-356.31593036650003
 21
130.25153326989999
 31
0.0
 12
-356.31593036650003
 22
137.49846673010001
 32
0.0
 13
-352.93518996239999
 23
133.875
 33
0.0
  0
LINE
  5
2DE
  8
0
 62
     0
 10
-962.79296875
 20
133.875
 30
0.0
 11
-930.11092758179996
 21
133.875
 31
0.0
  0
SOLID
  5
2DF
  8
0
 62
     0
 10
-962.79296875
 20
133.875
 30
0.0
 11
-949.27000713350014
 21
137.49846673010001
 31
0.0
 12
-949.27000713350014
 22
130.25153326989999
 32
0.0
 13
-952.65074753759995
 23
133.875
 33
0.0
  0
ENDBLK
  5
2E0
  8
0
  0
BLOCK
  8
0
  2
BALLON1
 70
     0
 10
0.0
 20
0.0
 30
0.0
  3
BALLON1
  1

  0
INSERT
  5
2F3
  8
0
  6
CONTINUOUS
  2
*U34
 10
0.0
 20
0.0
 30
0.0
  0
CIRCLE
  5
2F4
  8
┌▓È_1
 62
     5
 10
-844.58333333329995
 20
-74.5
 30
0.0
 40
28.0
  0
LINE
  5
2F5
  8
Éíû@É³
 62
     5
 10
-891.24999999999989
 20
-74.5
 30
0.0
 11
-872.58333333329995
 21
-74.5
 31
0.0
  0
LINE
  5
2F6
  8
Éíû@É³
 62
     5
 10
-972.04296874999989
 20
-220.17330729170001
 30
0.0
 11
-891.24999999999989
 21
-74.5
 31
0.0
  0
SOLID
  5
2F7
  8
Éíû@É³
 62
     5
 10
-972.04296874999989
 20
-220.17330729170001
 30
0.0
 11
-963.35975149110004
 21
-192.97106955219999
 31
0.0
 12
-961.17861120630005
 22
-200.5843886088
 32
0.0
 13
-961.17861120630005
 23
-200.5843886088
 33
0.0
  0
SOLID
  5
2F8
  8
Éíû@É³
 62
     5
 10
-961.17861120630005
 20
-200.5843886088
 30
0.0
 11
-953.56529214969999
 21
-198.403248324
 31
0.0
 12
-972.04296874999989
 22
-220.17330729170001
 32
0.0
 13
-972.04296874999989
 23
-220.17330729170001
 33
0.0
  0
ENDBLK
  5
2F9
  8
0
  0
BLOCK
  8
0
  2
*D17
 70
     1
 10
0.0
 20
0.0
 30
0.0
  3
*D17
  1

  0
TEXT
  5
302
  8
0
 62
     0
 10
-188.12779134109999
 20
-192.31805582050001
 30
0.0
 40
20.990277957899998
  1
(293)
 50
90.0
  0
LINE
  5
303
  8
0
 62
     0
 10
-99.957190895099998
 20
-14.75
 30
0.0
 11
-184.42362464269999
 21
-14.75
 31
0.0
  0
LINE
  5
304
  8
0
 62
     0
 10
-177.88721669509999
 20
-14.75
 30
0.0
 11
-177.88721669509999
 21
-118.23472185129999
 31
0.0
  0
LINE
  5
305
  8
0
 62
     0
 10
-177.88721669509999
 20
-14.75
 30
0.0
 11
-177.88721669509999
 21
-204.6652781487
 31
0.0
  0
LINE
  5
306
  8
0
 62
     0
 10
-177.88721669509999
 20
-308.14999999999998
 30
0.0
 11
-177.88721669509999
 21
-118.23472185129999
 31
0.0
  0
LINE
  5
307
  8
0
 62
     0
 10
-177.88721669509999
 20
-308.14999999999998
 30
0.0
 11
-177.88721669509999
 21
-204.6652781487
 31
0.0
  0
LINE
  5
308
  8
0
 62
     0
 10
-177.88721669509999
 20
-308.14999999999998
 30
0.0
 11
-177.88721669509999
 21
-275.46795883179999
 31
0.0
  0
SOLID
  5
309
  8
0
 62
     0
 10
-177.88721669509999
 20
-308.14999999999998
 30
0.0
 11
-181.51068342529999
 21
-294.62703838350001
 31
0.0
 12
-174.2637499649999
 22
-294.62703838350001
 32
0.0
 13
-177.88721669509999
 23
-298.00777878759999
 33
0.0
  0
LINE
  5
30A
  8
0
 62
     0
 10
-177.88721669509999
 20
-14.75
 30
0.0
 11
-177.88721669509999
 21
-47.432041168199987
 31
0.0
  0
SOLID
  5
30B
  8
0
 62
     0
 10
-177.88721669509999
 20
-14.75
 30
0.0
 11
-174.2637499649999
 21
-28.272961616500002
 31
0.0
 12
-181.51068342529999
 22
-28.272961616500002
 32
0.0
 13
-177.88721669509999
 23
-24.892221212399999
 33
0.0
  0
ENDBLK
  5
30C
  8
0
  0
BLOCK
  8
0
  2
*D18
 70
     1
 10
0.0
 20
0.0
 30
0.0
  3
*D18
  1

  0
TEXT
  5
310
  8
0
 62
     0
 10
-188.12779134109999
 20
-448.51805582050002
 30
0.0
 40
20.990277957899998
  1
(219)
 50
90.0
  0
LINE
  5
311
  8
0
 62
     0
 10
-92.913912900300005
 20
-308.14999999999998
 30
0.0
 11
-184.42362464269999
 21
-308.14999999999998
 31
0.0
  0
LINE
  5
312
  8
0
 62
     0
 10
-55.786332389000002
 20
-527.14999999999986
 30
0.0
 11
-184.42362464269999
 21
-527.14999999999986
 31
0.0
  0
LINE
  5
313
  8
0
 62
     0
 10
-177.88721669509999
 20
-308.14999999999998
 30
0.0
 11
-177.88721669509999
 21
-374.43472185130003
 31
0.0
  0
LINE
  5
314
  8
0
 62
     0
 10
-177.88721669509999
 20
-308.14999999999998
 30
0.0
 11
-177.88721669509999
 21
-460.86527814869999
 31
0.0
  0
LINE
  5
315
  8
0
 62
     0
 10
-177.88721669509999
 20
-527.14999999999986
 30
0.0
 11
-177.88721669509999
 21
-374.43472185130003
 31
0.0
  0
LINE
  5
316
  8
0
 62
     0
 10
-177.88721669509999
 20
-527.14999999999986
 30
0.0
 11
-177.88721669509999
 21
-460.86527814869999
 31
0.0
  0
LINE
  5
317
  8
0
 62
     0
 10
-177.88721669509999
 20
-527.14999999999986
 30
0.0
 11
-177.88721669509999
 21
-494.46795883179999
 31
0.0
  0
SOLID
  5
318
  8
0
 62
     0
 10
-177.88721669509999
 20
-527.14999999999986
 30
0.0
 11
-181.51068342529999
 21
-513.62703838349989
 31
0.0
 12
-174.2637499649999
 22
-513.62703838349989
 32
0.0
 13
-177.88721669509999
 23
-517.00777878760005
 33
0.0
  0
LINE
  5
319
  8
0
 62
     0
 10
-177.88721669509999
 20
-308.14999999999998
 30
0.0
 11
-177.88721669509999
 21
-340.83204116820002
 31
0.0
  0
SOLID
  5
31A
  8
0
 62
     0
 10
-177.88721669509999
 20
-308.14999999999998
 30
0.0
 11
-174.2637499649999
 21
-321.6729616165
 31
0.0
 12
-181.51068342529999
 22
-321.6729616165
 32
0.0
 13
-177.88721669509999
 23
-318.29222121240002
 33
0.0
  0
ENDBLK
  5
31B
  8
0
  0
BLOCK
  8
0
  2
*D19
 70
     1
 10
0.0
 20
0.0
 30
0.0
  3
*D19
  1

  0
TEXT
  5
323
  8
0
 62
     0
 10
-1071.0796630858999
 20
-293.27083349230003
 30
0.0
 40
20.990277957899998
  1
520
 50
90.0
  0
LINE
  5
324
  8
0
 62
     0
 10
-975.86578464509989
 20
-14.75
 30
0.0
 11
-1067.3754963875001
 21
-14.75
 31
0.0
  0
LINE
  5
325
  8
0
 62
     0
 10
-975.86578464509989
 20
-534.75
 30
0.0
 11
-1067.3754963875001
 21
-534.75
 31
0.0
  0
LINE
  5
326
  8
0
 62
     0
 10
-1060.8390884399
 20
-14.75
 30
0.0
 11
-1060.8390884399
 21
-243.88194417950001
 31
0.0
  0
LINE
  5
327
  8
0
 62
     0
 10
-1060.8390884399
 20
-14.75
 30
0.0
 11
-1060.8390884399
 21
-305.61805582049999
 31
0.0
  0
LINE
  5
328
  8
0
 62
     0
 10
-1060.8390884399
 20
-534.75
 30
0.0
 11
-1060.8390884399
 21
-243.88194417950001
 31
0.0
  0
LINE
  5
329
  8
0
 62
     0
 10
-1060.8390884399
 20
-534.75
 30
0.0
 11
-1060.8390884399
 21
-305.61805582049999
 31
0.0
  0
LINE
  5
32A
  8
0
 62
     0
 10
-1060.8390884399
 20
-534.75
 30
0.0
 11
-1060.8390884399
 21
-502.0679588317999
 31
0.0
  0
SOLID
  5
32B
  8
0
 62
     0
 10
-1060.8390884399
 20
-534.75
 30
0.0
 11
-1064.4625551700999
 21
-521.22703838350003
 31
0.0
 12
-1057.2156217098
 22
-521.22703838350003
 32
0.0
 13
-1060.8390884399
 23
-524.60777878759995
 33
0.0
  0
LINE
  5
32C
  8
0
 62
     0
 10
-1060.8390884399
 20
-14.75
 30
0.0
 11
-1060.8390884399
 21
-47.432041168199987
 31
0.0
  0
SOLID
  5
32D
  8
0
 62
     0
 10
-1060.8390884399
 20
-14.75
 30
0.0
 11
-1057.2156217098
 21
-28.272961616500002
 31
0.0
 12
-1064.4625551700999
 22
-28.272961616500002
 32
0.0
 13
-1060.8390884399
 23
-24.892221212399999
 33
0.0
  0
ENDBLK
  5
32E
  8
0
  0
BLOCK
  8
0
  2
*D20
 70
     1
 10
0.0
 20
0.0
 30
0.0
  3
*D20
  1

  0
TEXT
  5
33C
  8
0
 62
     0
 10
-671.31380224230008
 20
-1233.4892690023
 30
0.0
 40
20.990277957899998
  1
580
  0
LINE
  5
33D
  8
0
 62
     0
 10
-952.79296875
 20
-1158.7565398534
 30
0.0
 11
-952.79296875
 21
-1250.2662515958
 31
0.0
  0
LINE
  5
33E
  8
0
 62
     0
 10
-352.79296875
 20
-1158.7565398534
 30
0.0
 11
-352.79296875
 21
-1250.2662515958
 31
0.0
  0
LINE
  5
33F
  8
0
 62
     0
 10
-952.79296875
 20
-1243.7298436482999
 30
0.0
 11
-621.92491292950001
 21
-1243.7298436482999
 31
0.0
  0
LINE
  5
340
  8
0
 62
     0
 10
-952.79296875
 20
-1243.7298436482999
 30
0.0
 11
-683.66102457049988
 21
-1243.7298436482999
 31
0.0
  0
LINE
  5
341
  8
0
 62
     0
 10
-352.79296875
 20
-1243.7298436482999
 30
0.0
 11
-621.92491292950001
 21
-1243.7298436482999
 31
0.0
  0
LINE
  5
342
  8
0
 62
     0
 10
-352.79296875
 20
-1243.7298436482999
 30
0.0
 11
-683.66102457049988
 21
-1243.7298436482999
 31
0.0
  0
LINE
  5
343
  8
0
 62
     0
 10
-352.79296875
 20
-1243.7298436482999
 30
0.0
 11
-385.47500991819999
 21
-1243.7298436482999
 31
0.0
  0
SOLID
  5
344
  8
0
 62
     0
 10
-352.79296875
 20
-1243.7298436482999
 30
0.0
 11
-366.31593036650003
 21
-1247.3533103784
 31
0.0
 12
-366.31593036650003
 22
-1240.1063769182001
 32
0.0
 13
-362.93518996239999
 23
-1243.7298436482999
 33
0.0
  0
LINE
  5
345
  8
0
 62
     0
 10
-952.79296875
 20
-1243.7298436482999
 30
0.0
 11
-920.11092758179996
 21
-1243.7298436482999
 31
0.0
  0
SOLID
  5
346
  8
0
 62
     0
 10
-952.79296875
 20
-1243.7298436482999
 30
0.0
 11
-939.27000713349992
 21
-1240.1063769182001
 31
0.0
 12
-939.27000713349992
 22
-1247.3533103784
 32
0.0
 13
-942.65074753759984
 23
-1243.7298436482999
 33
0.0
  0
ENDBLK
  5
347
  8
0
  0
BLOCK
  8
0
  2
*U21
 70
     1
 10
0.0
 20
0.0
 30
0.0
  3
*U21
  1

  0
TEXT
  5
369
  8
┌▓È_1
  6
CONTINUOUS
 62
     5
 10
746.6333333332999
 20
-1077.7152779579001
 30
0.0
 40
20.990277957899998
  1
éQüEéréoü|éU
  0
ENDBLK
  5
36B
  8
0
  0
BLOCK
  8
0
  2
*U22
 70
     1
 10
0.0
 20
0.0
 30
0.0
  3
*U22
  1

  0
TEXT
  5
36D
  8
┌▓È_1
  6
CONTINUOUS
 62
     5
 10
695.93255208330004
 20
-1160.279191113885
 30
0.0
 40
20.990277957899998
  1
âpâCâvÆI  éQÆi   üiéUéOéOüj
  0
ENDBLK
  5
36F
  8
0
  0
BLOCK
  8
0
  2
*U23
 70
     1
 10
0.0
 20
0.0
 30
0.0
  3
*U23
  1

  0
TEXT
  5
371
  8
┌▓È_1
  6
CONTINUOUS
 62
     5
 10
624.6078970417999
 20
-1134.2777337355139
 30
0.0
 40
20.990277147299999
  1
òiû╝
  0
ENDBLK
  5
373
  8
0
  0
BLOCK
  8
0
  2
*U24
 70
     1
 10
0.0
 20
0.0
 30
0.0
  3
*U24
  1

  0
TEXT
  5
375
  8
┌▓È_1
  6
CONTINUOUS
 62
     5
 10
627.30180226129994
 20
-1057.926452854836
 30
0.0
 40
20.990277147299999
  1
òiöÈ
  0
ENDBLK
  5
377
  8
0
  0
BLOCK
  8
0
  2
*U25
 70
     1
 10
0.0
 20
0.0
 30
0.0
  3
*U25
  1

  0
TEXT
  5
379
  8
┌▓È_1
  6
CONTINUOUS
 62
     5
 10
624.6078970417999
 20
-1211.0905058202361
 30
0.0
 40
20.990277147299999
  1
É}öÈ
  0
ENDBLK
  5
37B
  8
0
  0
BLOCK
  8
0
  2
*U26
 70
     1
 10
0.0
 20
0.0
 30
0.0
  3
*U26
  1

  0
TEXT
  5
37D
  8
┌▓È_1
  6
CONTINUOUS
 62
     5
 10
-645.27478445650002
 20
-84.871666622199996
 30
0.0
 40
25.188333225299999
  1
2
 41
0.8
  0
ENDBLK
  5
37F
  8
0
  0
BLOCK
  8
0
  2
*U27
 70
     1
 10
0.0
 20
0.0
 30
0.0
  3
*U27
  1

  0
TEXT
  5
381
  8
┌▓È_1
  6
CONTINUOUS
 62
     5
 10
79.906996194351279
 20
-1094.3777761240001
 30
0.0
 40
20.990277957899998
  1
H8.5.28
  0
ENDBLK
  5
383
  8
0
  0
BLOCK
  8
0
  2
*U28
 70
     1
 10
0.0
 20
0.0
 30
0.0
  3
*U28
  1

  0
TEXT
  5
385
  8
┌▓È_1
  6
CONTINUOUS
 62
     5
 10
218.85326059459999
 20
-1059.4574196286931
 30
0.0
 40
20.990277147299999
  1
ê§   Éö
  0
ENDBLK
  5
387
  8
0
  0
BLOCK
  8
0
  2
*U29
 70
     1
 10
0.0
 20
0.0
 30
0.0
  3
*U29
  1

  0
TEXT
  5
389
  8
┌▓È_1
  6
CONTINUOUS
 62
     5
 10
78.094927261300001
 20
-1057.934949830257
 30
0.0
 40
20.990277147299999
  1
ô·   òt
  0
ENDBLK
  5
38B
  8
0
  0
BLOCK
  8
0
  2
*U30
 70
     1
 10
0.0
 20
0.0
 30
0.0
  3
*U30
  1

  0
TEXT
  5
38D
  8
┌▓È_1
  6
CONTINUOUS
 62
     5
 10
71.845572916699993
 20
-1136.2299835239139
 30
0.0
 40
20.990277147299999
  1
É¦îv
  0
ENDBLK
  5
38F
  8
0
  0
BLOCK
  8
0
  2
*U31
 70
     1
 10
0.0
 20
0.0
 30
0.0
  3
*U31
  1

  0
TEXT
  5
391
  8
┌▓È_1
  6
CONTINUOUS
 62
     5
 10
71.845572916699993
 20
-1174.7504240278929
 30
0.0
 40
20.990277147299999
  1
É╗É}
  0
ENDBLK
  5
393
  8
0
  0
BLOCK
  8
0
  2
*U32
 70
     1
 10
0.0
 20
0.0
 30
0.0
  3
*U32
  1

  0
TEXT
  5
395
  8
┌▓È_1
  6
CONTINUOUS
 62
     5
 10
-680.02599792066121
 20
-1064.5986395048569
 30
0.0
 40
20.990277957899998
  1
îÒû╩É}
  0
ENDBLK
  5
397
  8
0
  0
BLOCK
  8
0
  2
*U33
 70
     1
 10
0.0
 20
0.0
 30
0.0
  3
*U33
  1

  0
TEXT
  5
399
  8
┌▓È_1
  6
CONTINUOUS
 62
     5
 10
59.145572916699997
 20
-959.98276220384037
 30
0.0
 40
20.990277957899998
  1
  1               ÿg                    SUS 430   2X10              2   
  0
ENDBLK
  5
39B
  8
0
  0
BLOCK
  8
0
  2
*U34
 70
     1
 10
0.0
 20
0.0
 30
0.0
  3
*U34
  1

  0
TEXT
  5
39D
  8
┌▓È_1
  6
CONTINUOUS
 62
     5
 10
-848.67068963759993
 20
-84.871666622199996
 30
0.0
 40
25.188333225299999
  1
1
 41
0.8
  0
ENDBLK
  5
39F
  8
0
  0
BLOCK
  8
0
  2
*U35
 70
     1
 10
0.0
 20
0.0
 30
0.0
  3
*U35
  1

  0
TEXT
  5
3A1
  8
┌▓È_1
  6
CONTINUOUS
 62
     5
 10
71.845572916699993
 20
-1018.537599449893
 30
0.0
 40
20.990277147299999
  1
É}öÈ          òi     û╝                    ìÌ     Ä┐             Éöù╩
  0
ENDBLK
  5
3A3
  8
0
  0
BLOCK
  8
0
  2
*U36
 70
     1
 10
0.0
 20
0.0
 30
0.0
  3
*U36
  1

  0
TEXT
  5
3A5
  8
┌▓È_1
  6
CONTINUOUS
 62
     5
 10
59.145572916699997
 20
-924.11361869368523
 30
0.0
 40
20.990277957899998
  1
  2             âpâCâv                  SUS 304   âË10             11
  0
ENDBLK
  5
3A7
  8
0
  0
BLOCK
  8
0
  2
*U37
 70
     1
 10
0.0
 20
0.0
 30
0.0
  3
*U37
  1

  0
TEXT
  5
3A9
  8
┌▓È_1
  6
CONTINUOUS
 62
     5
 10
363.68617726129997
 20
-1058.033002485025
 30
0.0
 40
20.990277147299999
  1
ìÌ   Ä┐
  0
ENDBLK
  5
3AB
  8
0
  0
BLOCK
  8
0
  2
*U38
 70
     1
 10
0.0
 20
0.0
 30
0.0
  3
*U38
  1

  0
TEXT
  5
3AD
  8
┌▓È_1
  6
CONTINUOUS
 62
     5
 10
95.107764807400002
 20
-1238.9411404753339
 30
0.0
 40
37.782499432599998
  1
èöÄ«ë´Äð
  0
ENDBLK
  5
3AF
  8
0
  0
BLOCK
  8
0
  2
*U39
 70
     1
 10
0.0
 20
0.0
 30
0.0
  3
*U39
  1

  0
TEXT
  5
3B1
  8
┌▓È_1
  6
CONTINUOUS
 62
     5
 10
491.84557291670001
 20
-1139.0546903541931
 30
0.0
 40
20.990277147299999
  1
Ä┌   ôx
  0
ENDBLK
  5
3B3
  8
0
  0
BLOCK
  8
0
  2
*U40
 70
     1
 10
0.0
 20
0.0
 30
0.0
  3
*U40
  1

  0
TEXT
  5
3B5
  8
┌▓È_1
  6
CONTINUOUS
 62
     5
 10
497.03617726129988
 20
-1060.586574929883
 30
0.0
 40
20.990277147299999
  1
ö┬   î·
  0
ENDBLK
  5
3B7
  8
0
  0
BLOCK
  8
0
  2
*U41
 70
     1
 10
0.0
 20
0.0
 30
0.0
  3
*U41
  1

  0
TEXT
  5
3B9
  8
┌▓È_1
  6
CONTINUOUS
 62
     5
 10
-254.61893600744619
 20
330.96071754703547
 30
0.0
 40
23.520172882099999
  1
4-5X6.5║╩Ì¦îè
  0
ENDBLK
  5
3BB
  8
0
  0
BLOCK
  8
0
  2
*U42
 70
     1
 10
0.0
 20
0.0
 30
0.0
  3
*U42
  1

  0
TEXT
  5
3BD
  8
┌▓È_1
  6
CONTINUOUS
 62
     5
 10
-852.60638020055592
 20
-727.92704972266438
 30
0.0
 40
23.520172882099999
  1
6-5X6.5║╩Ì¦îè
  0
ENDBLK
  5
3BF
  8
0
  0
ENDSEC
  0
SECTION
  2
ENTITIES
  0
LINE
  5
2F
  8
┌▓È_1
 62
     5
 10
146.6624904876
 20
-314.75
 30
0.0
 11
146.11562499999999
 21
-314.75
 31
0.0
  0
LINE
  5
30
  8
┌▓È_1
 62
     5
 10
146.6624904876
 20
-308.75
 30
0.0
 11
146.11562499999999
 21
-308.75
 31
0.0
  0
ARC
  5
31
  8
┌▓È_1
 62
     5
 10
140.11562499999999
 20
-310.94999999999999
 30
0.0
 40
4.0
 50
270.0
 51
0.0
  0
LINE
  5
32
  8
┌▓È_1
 62
     5
 10
18.615625000000001
 20
-299.35000000000002
 30
0.0
 11
38.615625000000001
 21
-299.35000000000002
 31
0.0
  0
LINE
  5
33
  8
┌▓È_1
 62
     5
 10
18.615625000000001
 20
-299.64999999999998
 30
0.0
 11
18.615625000000001
 21
-299.35000000000002
 31
0.0
  0
LINE
  5
34
  8
┌▓È_1
 62
     5
 10
18.615625000000001
 20
-299.94999999999999
 30
0.0
 11
18.615625000000001
 21
-315.94999999999999
 31
0.0
  0
LINE
  5
35
  8
┌▓È_1
 62
     5
 10
38.615625000000001
 20
-299.94999999999999
 30
0.0
 11
38.615625000000001
 21
-315.94999999999999
 31
0.0
  0
LINE
  5
36
  8
┌▓È_1
 62
     5
 10
144.11562499999999
 20
-299.94999999999999
 30
0.0
 11
144.11562499999999
 21
-305.75
 31
0.0
  0
POLYLINE
  8
┌▓È_1
  5
3C0
  62
5
  66
     1
 10
0.000000
 20
0.000000
 30
0.000000
  70
     8
  0
VERTEX
  8
┌▓È_1
  5
3C1
 10
-88.8844
 20
-308.500
 30
0.000000
  70
    32
  0
VERTEX
  8
┌▓È_1
  5
3C2
 10
-88.9146
 20
-308.541
 30
0.000000
  70
    32
  0
VERTEX
  8
┌▓È_1
  5
3C3
 10
-88.9447
 20
-308.582
 30
0.000000
  70
    32
  0
VERTEX
  8
┌▓È_1
  5
3C4
 10
-88.9749
 20
-308.623
 30
0.000000
  70
    32
  0
VERTEX
  8
┌▓È_1
  5
3C5
 10
-89.0050
 20
-308.664
 30
0.000000
  70
    32
  0
VERTEX
  8
┌▓È_1
  5
3C6
 10
-89.0351
 20
-308.704
 30
0.000000
  70
    32
  0
VERTEX
  8
┌▓È_1
  5
3C7
 10
-89.0652
 20
-308.745
 30
0.000000
  70
    32
  0
VERTEX
  8
┌▓È_1
  5
3C8
 10
-89.0951
 20
-308.786
 30
0.000000
  70
    32
  0
VERTEX
  8
┌▓È_1
  5
3C9
 10
-89.1251
 20
-308.827
 30
0.000000
  70
    32
  0
VERTEX
  8
┌▓È_1
  5
3CA
 10
-89.1549
 20
-308.868
 30
0.000000
  70
    32
  0
VERTEX
  8
┌▓È_1
  5
3CB
 10
-89.1847
 20
-308.909
 30
0.000000
  70
    32
  0
VERTEX
  8
┌▓È_1
  5
3CC
 10
-89.2143
 20
-308.950
 30
0.000000
  70
    32
  0
VERTEX
  8
┌▓È_1
  5
3CD
 10
-89.2439
 20
-308.991
 30
0.000000
  70
    32
  0
VERTEX
  8
┌▓È_1
  5
3CE
 10
-89.2733
 20
-309.031
 30
0.000000
  70
    32
  0
VERTEX
  8
┌▓È_1
  5
3CF
 10
-89.3026
 20
-309.072
 30
0.000000
  70
    32
  0
VERTEX
  8
┌▓È_1
  5
3D0
 10
-89.3318
 20
-309.113
 30
0.000000
  70
    32
  0
VERTEX
  8
┌▓È_1
  5
3D1
 10
-89.3609
 20
-309.154
 30
0.000000
  70
    32
  0
VERTEX
  8
┌▓È_1
  5
3D2
 10
-89.3898
 20
-309.195
 30
0.000000
  70
    32
  0
VERTEX
  8
┌▓È_1
  5
3D3
 10
-89.4185
 20
-309.236
 30
0.000000
  70
    32
  0
VERTEX
  8
┌▓È_1
  5
3D4
 10
-89.4470
 20
-309.277
 30
0.000000
  70
    32
  0
VERTEX
  8
┌▓È_1
  5
3D5
 10
-89.4754
 20
-309.318
 30
0.000000
  70
    32
  0
VERTEX
  8
┌▓È_1
  5
3D6
 10
-89.5036
 20
-309.358
 30
0.000000
  70
    32
  0
VERTEX
  8
┌▓È_1
  5
3D7
 10
-89.5316
 20
-309.399
 30
0.000000
  70
    32
  0
VERTEX
  8
┌▓È_1
  5
3D8
 10
-89.5593
 20
-309.440
 30
0.000000
  70
    32
  0
VERTEX
  8
┌▓È_1
  5
3D9
 10
-89.5869
 20
-309.481
 30
0.000000
  70
    32
  0
VERTEX
  8
┌▓È_1
  5
3DA
 10
-89.6142
 20
-309.522
 30
0.000000
  70
    32
  0
VERTEX
  8
┌▓È_1
  5
3DB
 10
-89.6413
 20
-309.563
 30
0.000000
  70
    32
  0
VERTEX
  8
┌▓È_1
  5
3DC
 10
-89.6681
 20
-309.604
 30
0.000000
  70
    32
  0
VERTEX
  8
┌▓È_1
  5
3DD
 10
-89.6947
 20
-309.645
 30
0.000000
  70
    32
  0
VERTEX
  8
┌▓È_1
  5
3DE
 10
-89.7210
 20
-309.686
 30
0.000000
  70
    32
  0
VERTEX
  8
┌▓È_1
  5
3DF
 10
-89.7470
 20
-309.726
 30
0.000000
  70
    32
  0
VERTEX
  8
┌▓È_1
  5
3E0
 10
-89.7728
 20
-309.767
 30
0.000000
  70
    32
  0
VERTEX
  8
┌▓È_1
  5
3E1
 10
-89.7982
 20
-309.808
 30
0.000000
  70
    32
  0
VERTEX
  8
┌▓È_1
  5
3E2
 10
-89.8234
 20
-309.849
 30
0.000000
  70
    32
  0
VERTEX
  8
┌▓È_1
  5
3E3
 10
-89.8482
 20
-309.890
 30
0.000000
  70
    32
  0
VERTEX
  8
┌▓È_1
  5
3E4
 10
-89.8727
 20
-309.931
 30
0.000000
  70
    32
  0
VERTEX
  8
┌▓È_1
  5
3E5
 10
-89.8969
 20
-309.972
 30
0.000000
  70
    32
  0
VERTEX
  8
┌▓È_1
  5
3E6
 10
-89.9207
 20
-310.013
 30
0.000000
  70
    32
  0
VERTEX
  8
┌▓È_1
  5
3E7
 10
-89.9442
 20
-310.053
 30
0.000000
  70
    32
  0
VERTEX
  8
┌▓È_1
  5
3E8
 10
-89.9673
 20
-310.094
 30
0.000000
  70
    32
  0
VERTEX
  8
┌▓È_1
  5
3E9
 10
-89.9900
 20
-310.135
 30
0.000000
  70
    32
  0
VERTEX
  8
┌▓È_1
  5
3EA
 10
-90.0124
 20
-310.176
 30
0.000000
  70
    32
  0
VERTEX
  8
┌▓È_1
  5
3EB
 10
-90.0343
 20
-310.217
 30
0.000000
  70
    32
  0
VERTEX
  8
┌▓È_1
  5
3EC
 10
-90.0559
 20
-310.258
 30
0.000000
  70
    32
  0
VERTEX
  8
┌▓È_1
  5
3ED
 10
-90.0770
 20
-310.299
 30
0.000000
  70
    32
  0
VERTEX
  8
┌▓È_1
  5
3EE
 10
-90.0978
 20
-310.340
 30
0.000000
  70
    32
  0
VERTEX
  8
┌▓È_1
  5
3EF
 10
-90.1181
 20
-310.381
 30
0.000000
  70
    32
  0
VERTEX
  8
┌▓È_1
  5
3F0
 10
-90.1379
 20
-310.421
 30
0.000000
  70
    32
  0
VERTEX
  8
┌▓È_1
  5
3F1
 10
-90.1574
 20
-310.462
 30
0.000000
  70
    32
  0
VERTEX
  8
┌▓È_1
  5
3F2
 10
-90.1763
 20
-310.503
 30
0.000000
  70
    32
  0
VERTEX
  8
┌▓È_1
  5
3F3
 10
-90.1948
 20
-310.544
 30
0.000000
  70
    32
  0
VERTEX
  8
┌▓È_1
  5
3F4
 10
-90.2128
 20
-310.585
 30
0.000000
  70
    32
  0
VERTEX
  8
┌▓È_1
  5
3F5
 10
-90.2303
 20
-310.626
 30
0.000000
  70
    32
  0
VERTEX
  8
┌▓È_1
  5
3F6
 10
-90.2473
 20
-310.667
 30
0.000000
  70
    32
  0
VERTEX
  8
┌▓È_1
  5
3F7
 10
-90.2639
 20
-310.708
 30
0.000000
  70
    32
  0
VERTEX
  8
┌▓È_1
  5
3F8
 10
-90.2799
 20
-310.748
 30
0.000000
  70
    32
  0
VERTEX
  8
┌▓È_1
  5
3F9
 10
-90.2953
 20
-310.789
 30
0.000000
  70
    32
  0
VERTEX
  8
┌▓È_1
  5
3FA
 10
-90.3103
 20
-310.830
 30
0.000000
  70
    32
  0
VERTEX
  8
┌▓È_1
  5
3FB
 10
-90.3247
 20
-310.871
 30
0.000000
  70
    32
  0
VERTEX
  8
┌▓È_1
  5
3FC
 10
-90.3385
 20
-310.912
 30
0.000000
  70
    32
  0
VERTEX
  8
┌▓È_1
  5
3FD
 10
-90.3518
 20
-310.953
 30
0.000000
  70
    32
  0
VERTEX
  8
┌▓È_1
  5
3FE
 10
-90.3645
 20
-310.994
 30
0.000000
  70
    32
  0
VERTEX
  8
┌▓È_1
  5
3FF
 10
-90.3766
 20
-311.035
 30
0.000000
  70
    32
  0
VERTEX
  8
┌▓È_1
  5
400
 10
-90.3881
 20
-311.075
 30
0.000000
  70
    32
  0
VERTEX
  8
┌▓È_1
  5
401
 10
-90.3991
 20
-311.116
 30
0.000000
  70
    32
  0
VERTEX
  8
┌▓È_1
  5
402
 10
-90.4094
 20
-311.157
 30
0.000000
  70
    32
  0
VERTEX
  8
┌▓È_1
  5
403
 10
-90.4191
 20
-311.198
 30
0.000000
  70
    32
  0
VERTEX
  8
┌▓È_1
  5
404
 10
-90.4282
 20
-311.239
 30
0.000000
  70
    32
  0
VERTEX
  8
┌▓È_1
  5
405
 10
-90.4366
 20
-311.280
 30
0.000000
  70
    32
  0
VERTEX
  8
┌▓È_1
  5
406
 10
-90.4444
 20
-311.321
 30
0.000000
  70
    32
  0
VERTEX
  8
┌▓È_1
  5
407
 10
-90.4515
 20
-311.362
 30
0.000000
  70
    32
  0
VERTEX
  8
┌▓È_1
  5
408
 10
-90.4579
 20
-311.403
 30
0.000000
  70
    32
  0
VERTEX
  8
┌▓È_1
  5
409
 10
-90.4637
 20
-311.443
 30
0.000000
  70
    32
  0
VERTEX
  8
┌▓È_1
  5
40A
 10
-90.4688
 20
-311.484
 30
0.000000
  70
    32
  0
VERTEX
  8
┌▓È_1
  5
40B
 10
-90.4732
 20
-311.525
 30
0.000000
  70
    32
  0
VERTEX
  8
┌▓È_1
  5
40C
 10
-90.4768
 20
-311.566
 30
0.000000
  70
    32
  0
VERTEX
  8
┌▓È_1
  5
40D
 10
-90.4798
 20
-311.607
 30
0.000000
  70
    32
  0
VERTEX
  8
┌▓È_1
  5
40E
 10
-90.4820
 20
-311.648
 30
0.000000
  70
    32
  0
VERTEX
  8
┌▓È_1
  5
40F
 10
-90.4835
 20
-311.689
 30
0.000000
  70
    32
  0
VERTEX
  8
┌▓È_1
  5
410
 10
-90.4843
 20
-311.730
 30
0.000000
  70
    32
  0
VERTEX
  8
┌▓È_1
  5
411
 10
-90.4843
 20
-311.770
 30
0.000000
  70
    32
  0
VERTEX
  8
┌▓È_1
  5
412
 10
-90.4835
 20
-311.811
 30
0.000000
  70
    32
  0
VERTEX
  8
┌▓È_1
  5
413
 10
-90.4820
 20
-311.852
 30
0.000000
  70
    32
  0
VERTEX
  8
┌▓È_1
  5
414
 10
-90.4798
 20
-311.893
 30
0.000000
  70
    32
  0
VERTEX
  8
┌▓È_1
  5
415
 10
-90.4768
 20
-311.934
 30
0.000000
  70
    32
  0
VERTEX
  8
┌▓È_1
  5
416
 10
-90.4732
 20
-311.975
 30
0.000000
  70
    32
  0
VERTEX
  8
┌▓È_1
  5
417
 10
-90.4688
 20
-312.016
 30
0.000000
  70
    32
  0
VERTEX
  8
┌▓È_1
  5
418
 10
-90.4637
 20
-312.057
 30
0.000000
  70
    32
  0
VERTEX
  8
┌▓È_1
  5
419
 10
-90.4579
 20
-312.097
 30
0.000000
  70
    32
  0
VERTEX
  8
┌▓È_1
  5
41A
 10
-90.4515
 20
-312.138
 30
0.000000
  70
    32
  0
VERTEX
  8
┌▓È_1
  5
41B
 10
-90.4444
 20
-312.179
 30
0.000000
  70
    32
  0
VERTEX
  8
┌▓È_1
  5
41C
 10
-90.4366
 20
-312.220
 30
0.000000
  70
    32
  0
VERTEX
  8
┌▓È_1
  5
41D
 10
-90.4282
 20
-312.261
 30
0.000000
  70
    32
  0
VERTEX
  8
┌▓È_1
  5
41E
 10
-90.4191
 20
-312.302
 30
0.000000
  70
    32
  0
VERTEX
  8
┌▓È_1
  5
41F
 10
-90.4094
 20
-312.343
 30
0.000000
  70
    32
  0
VERTEX
  8
┌▓È_1
  5
420
 10
-90.3991
 20
-312.384
 30
0.000000
  70
    32
  0
VERTEX
  8
┌▓È_1
  5
421
 10
-90.3881
 20
-312.425
 30
0.000000
  70
    32
  0
VERTEX
  8
┌▓È_1
  5
422
 10
-90.3766
 20
-312.465
 30
0.000000
  70
    32
  0
VERTEX
  8
┌▓È_1
  5
423
 10
-90.3645
 20
-312.506
 30
0.000000
  70
    32
  0
VERTEX
  8
┌▓È_1
  5
424
 10
-90.3518
 20
-312.547
 30
0.000000
  70
    32
  0
VERTEX
  8
┌▓È_1
  5
425
 10
-90.3385
 20
-312.588
 30
0.000000
  70
    32
  0
VERTEX
  8
┌▓È_1
  5
426
 10
-90.3247
 20
-312.629
 30
0.000000
  70
    32
  0
VERTEX
  8
┌▓È_1
  5
427
 10
-90.3103
 20
-312.670
 30
0.000000
  70
    32
  0
VERTEX
  8
┌▓È_1
  5
428
 10
-90.2953
 20
-312.711
 30
0.000000
  70
    32
  0
VERTEX
  8
┌▓È_1
  5
429
 10
-90.2799
 20
-312.752
 30
0.000000
  70
    32
  0
VERTEX
  8
┌▓È_1
  5
42A
 10
-90.2639
 20
-312.792
 30
0.000000
  70
    32
  0
VERTEX
  8
┌▓È_1
  5
42B
 10
-90.2473
 20
-312.833
 30
0.000000
  70
    32
  0
VERTEX
  8
┌▓È_1
  5
42C
 10
-90.2303
 20
-312.874
 30
0.000000
  70
    32
  0
VERTEX
  8
┌▓È_1
  5
42D
 10
-90.2128
 20
-312.915
 30
0.000000
  70
    32
  0
VERTEX
  8
┌▓È_1
  5
42E
 10
-90.1948
 20
-312.956
 30
0.000000
  70
    32
  0
VERTEX
  8
┌▓È_1
  5
42F
 10
-90.1763
 20
-312.997
 30
0.000000
  70
    32
  0
VERTEX
  8
┌▓È_1
  5
430
 10
-90.1574
 20
-313.038
 30
0.000000
  70
    32
  0
VERTEX
  8
┌▓È_1
  5
431
 10
-90.1379
 20
-313.079
 30
0.000000
  70
    32
  0
VERTEX
  8
┌▓È_1
  5
432
 10
-90.1181
 20
-313.119
 30
0.000000
  70
    32
  0
VERTEX
  8
┌▓È_1
  5
433
 10
-90.0978
 20
-313.160
 30
0.000000
  70
    32
  0
VERTEX
  8
┌▓È_1
  5
434
 10
-90.0770
 20
-313.201
 30
0.000000
  70
    32
  0
VERTEX
  8
┌▓È_1
  5
435
 10
-90.0559
 20
-313.242
 30
0.000000
  70
    32
  0
VERTEX
  8
┌▓È_1
  5
436
 10
-90.0343
 20
-313.283
 30
0.000000
  70
    32
  0
VERTEX
  8
┌▓È_1
  5
437
 10
-90.0124
 20
-313.324
 30
0.000000
  70
    32
  0
VERTEX
  8
┌▓È_1
  5
438
 10
-89.9900
 20
-313.365
 30
0.000000
  70
    32
  0
VERTEX
  8
┌▓È_1
  5
439
 10
-89.9673
 20
-313.406
 30
0.000000
  70
    32
  0
VERTEX
  8
┌▓È_1
  5
43A
 10
-89.9442
 20
-313.447
 30
0.000000
  70
    32
  0
VERTEX
  8
┌▓È_1
  5
43B
 10
-89.9207
 20
-313.487
 30
0.000000
  70
    32
  0
VERTEX
  8
┌▓È_1
  5
43C
 10
-89.8969
 20
-313.528
 30
0.000000
  70
    32
  0
VERTEX
  8
┌▓È_1
  5
43D
 10
-89.8727
 20
-313.569
 30
0.000000
  70
    32
  0
VERTEX
  8
┌▓È_1
  5
43E
 10
-89.8482
 20
-313.610
 30
0.000000
  70
    32
  0
VERTEX
  8
┌▓È_1
  5
43F
 10
-89.8234
 20
-313.651
 30
0.000000
  70
    32
  0
VERTEX
  8
┌▓È_1
  5
440
 10
-89.7982
 20
-313.692
 30
0.000000
  70
    32
  0
VERTEX
  8
┌▓È_1
  5
441
 10
-89.7728
 20
-313.733
 30
0.000000
  70
    32
  0
VERTEX
  8
┌▓È_1
  5
442
 10
-89.7470
 20
-313.774
 30
0.000000
  70
    32
  0
VERTEX
  8
┌▓È_1
  5
443
 10
-89.7210
 20
-313.814
 30
0.000000
  70
    32
  0
VERTEX
  8
┌▓È_1
  5
444
 10
-89.6947
 20
-313.855
 30
0.000000
  70
    32
  0
VERTEX
  8
┌▓È_1
  5
445
 10
-89.6681
 20
-313.896
 30
0.000000
  70
    32
  0
VERTEX
  8
┌▓È_1
  5
446
 10
-89.6413
 20
-313.937
 30
0.000000
  70
    32
  0
VERTEX
  8
┌▓È_1
  5
447
 10
-89.6142
 20
-313.978
 30
0.000000
  70
    32
  0
VERTEX
  8
┌▓È_1
  5
448
 10
-89.5869
 20
-314.019
 30
0.000000
  70
    32
  0
VERTEX
  8
┌▓È_1
  5
449
 10
-89.5593
 20
-314.060
 30
0.000000
  70
    32
  0
VERTEX
  8
┌▓È_1
  5
44A
 10
-89.5316
 20
-314.101
 30
0.000000
  70
    32
  0
VERTEX
  8
┌▓È_1
  5
44B
 10
-89.5036
 20
-314.142
 30
0.000000
  70
    32
  0
VERTEX
  8
┌▓È_1
  5
44C
 10
-89.4754
 20
-314.182
 30
0.000000
  70
    32
  0
VERTEX
  8
┌▓È_1
  5
44D
 10
-89.4470
 20
-314.223
 30
0.000000
  70
    32
  0
VERTEX
  8
┌▓È_1
  5
44E
 10
-89.4185
 20
-314.264
 30
0.000000
  70
    32
  0
VERTEX
  8
┌▓È_1
  5
44F
 10
-89.3898
 20
-314.305
 30
0.000000
  70
    32
  0
VERTEX
  8
┌▓È_1
  5
450
 10
-89.3609
 20
-314.346
 30
0.000000
  70
    32
  0
VERTEX
  8
┌▓È_1
  5
451
 10
-89.3318
 20
-314.387
 30
0.000000
  70
    32
  0
VERTEX
  8
┌▓È_1
  5
452
 10
-89.3026
 20
-314.428
 30
0.000000
  70
    32
  0
VERTEX
  8
┌▓È_1
  5
453
 10
-89.2733
 20
-314.469
 30
0.000000
  70
    32
  0
VERTEX
  8
┌▓È_1
  5
454
 10
-89.2439
 20
-314.509
 30
0.000000
  70
    32
  0
VERTEX
  8
┌▓È_1
  5
455
 10
-89.2143
 20
-314.550
 30
0.000000
  70
    32
  0
VERTEX
  8
┌▓È_1
  5
456
 10
-89.1847
 20
-314.591
 30
0.000000
  70
    32
  0
VERTEX
  8
┌▓È_1
  5
457
 10
-89.1549
 20
-314.632
 30
0.000000
  70
    32
  0
VERTEX
  8
┌▓È_1
  5
458
 10
-89.1251
 20
-314.673
 30
0.000000
  70
    32
  0
VERTEX
  8
┌▓È_1
  5
459
 10
-89.0951
 20
-314.714
 30
0.000000
  70
    32
  0
VERTEX
  8
┌▓È_1
  5
45A
 10
-89.0652
 20
-314.755
 30
0.000000
  70
    32
  0
VERTEX
  8
┌▓È_1
  5
45B
 10
-89.0351
 20
-314.796
 30
0.000000
  70
    32
  0
VERTEX
  8
┌▓È_1
  5
45C
 10
-89.0050
 20
-314.836
 30
0.000000
  70
    32
  0
VERTEX
  8
┌▓È_1
  5
45D
 10
-88.9749
 20
-314.877
 30
0.000000
  70
    32
  0
VERTEX
  8
┌▓È_1
  5
45E
 10
-88.9447
 20
-314.918
 30
0.000000
  70
    32
  0
VERTEX
  8
┌▓È_1
  5
45F
 10
-88.9146
 20
-314.959
 30
0.000000
  70
    32
  0
VERTEX
  8
┌▓È_1
  5
460
 10
-88.8844
 20
-315.000
 30
0.000000
  70
    32
  0
SEQEND
  8
┌▓È_1
  5
461
  0
LINE
  5
38
  8
┌▓È_1
 62
     5
 10
142.11562499999999
 20
-315.75
 30
0.0
 11
142.11562499999999
 21
-314.41410161509998
 31
0.0
  0
LINE
  5
39
  8
┌▓È_1
 62
     5
 10
144.11562499999999
 20
-287.75
 30
0.0
 11
144.11562499999999
 21
-299.94999999999999
 31
0.0
  0
LINE
  5
3A
  8
┌▓È_1
 62
     5
 10
38.615625000000001
 20
-299.64999999999998
 30
0.0
 11
38.615625000000001
 21
-299.94999999999999
 31
0.0
  0
LINE
  5
3B
  8
┌▓È_1
 62
     5
 10
146.6624904876
 20
-311.75
 30
0.0
 11
146.6624904876
 21
-314.75
 31
0.0
  0
ARC
  5
3C
  8
┌▓È_1
 62
     5
 10
142.11562499999999
 20
-315.75
 30
0.0
 40
2.0
 50
270.0
 51
0.0
  0
LINE
  5
3D
  8
┌▓È_1
  6
BORDER
 62
     5
 10
88.615624999999994
 20
-296.37604166670002
 30
0.0
 11
88.615624999999994
 21
-319.92395833329999
 31
0.0
  0
LINE
  5
3E
  8
┌▓È_1
 62
     5
 10
140.11562499999999
 20
-314.94999999999999
 30
0.0
 11
96.123355182900013
 21
-314.94999999999999
 31
0.0
  0
LINE
  5
3F
  8
┌▓È_1
 62
     5
 10
96.123355182800012
 20
-314.94999999999999
 30
0.0
 11
142.11562499999999
 21
-315.75
 31
0.0
  0
LINE
  5
40
  8
┌▓È_1
 62
     5
 10
144.11562499999999
 20
-315.75
 30
0.0
 11
144.11562499999999
 21
-305.75
 31
0.0
  0
LINE
  5
41
  8
┌▓È_1
 62
     5
 10
-91.676347458999999
 20
-296.75
 30
0.0
 11
-83.209680792299991
 21
-296.75
 31
0.0
  0
LINE
  5
42
  8
┌▓È_1
 62
     5
 10
139.1044606218
 20
-296.75
 30
0.0
 11
149.62365254100001
 21
-296.75
 31
0.0
  0
LINE
  5
43
  8
┌▓È_1
 62
     5
 10
150.7659877232
 20
-296.75
 30
0.0
 11
149.62365254100001
 21
-296.75
 31
0.0
  0
LINE
  5
44
  8
┌▓È_1
 62
     5
 10
-86.884375000000006
 20
-287.75
 30
0.0
 11
-86.884375000000006
 21
-299.94999999999999
 31
0.0
  0
LINE
  5
45
  8
┌▓È_1
 62
     5
 10
38.615625000000001
 20
-299.35000000000002
 30
0.0
 11
38.615625000000001
 21
-299.94999999999999
 31
0.0
  0
LINE
  5
46
  8
┌▓È_1
 62
     5
 10
18.615625000000001
 20
-299.94999999999999
 30
0.0
 11
18.615625000000001
 21
-299.35000000000002
 31
0.0
  0
LINE
  5
47
  8
┌▓È_1
 62
     5
 10
-86.884375000000006
 20
-305.75
 30
0.0
 11
-86.884375000000006
 21
-315.75
 31
0.0
  0
LINE
  5
48
  8
┌▓È_1
  6
BORDER
 62
     5
 10
-71.384375000000006
 20
-296.37604166670002
 30
0.0
 11
-71.384375000000006
 21
-319.92395833329999
 31
0.0
  0
LINE
  5
49
  8
┌▓È_1
 62
     5
 10
-85.584374999999994
 20
-288.75
 30
0.0
 11
-85.584374999999994
 21
-299.94999999999999
 31
0.0
  0
LINE
  5
4A
  8
┌▓È_1
 62
     5
 10
-91.782869203599986
 20
-311.75
 30
0.0
 11
-81.131256300399997
 21
-311.75
 31
0.0
  0
ARC
  5
4B
  8
┌▓È_1
 62
     5
 10
-84.884375000000006
 20
-315.75
 30
0.0
 40
2.0
 50
180.0
 51
270.0
  0
LINE
  5
4C
  8
┌▓È_1
 62
     5
 10
-86.884375000000006
 20
-317.34751528710001
 30
0.0
 11
-86.884375000000006
 21
-315.75
 31
0.0
  0
LINE
  5
4D
  8
┌▓È_1
 62
     5
 10
-84.884375000000006
 20
-315.75
 30
0.0
 11
-84.884375000000006
 21
-314.41410161509998
 31
0.0
  0
LINE
  5
4E
  8
┌▓È_1
 62
     5
 10
142.81562500000001
 20
-299.94999999999999
 30
0.0
 11
144.11562499999999
 21
-299.94999999999999
 31
0.0
  0
LINE
  5
4F
  8
┌▓È_1
 62
     5
 10
142.81562500000001
 20
-288.75
 30
0.0
 11
142.81562500000001
 21
-299.94999999999999
 31
0.0
  0
LINE
  5
50
  8
┌▓È_1
  6
BORDER
 62
     5
 10
-31.384374999999999
 20
-296.37604166670002
 30
0.0
 11
-31.384374999999999
 21
-319.92395833329999
 31
0.0
  0
LINE
  5
51
  8
┌▓È_1
 62
     5
 10
18.615625000000001
 20
-316.55000000000001
 30
0.0
 11
18.615625000000001
 21
-315.94999999999999
 31
0.0
  0
LINE
  5
52
  8
┌▓È_1
 62
     5
 10
38.615625000000001
 20
-316.55000000000001
 30
0.0
 11
18.615625000000001
 21
-316.55000000000001
 31
0.0
  0
LINE
  5
53
  8
┌▓È_1
 62
     5
 10
38.615625000000001
 20
-315.94999999999999
 30
0.0
 11
38.615625000000001
 21
-316.55000000000001
 31
0.0
  0
LINE
  5
54
  8
┌▓È_1
 62
     5
 10
149.01411920359999
 20
-311.75
 30
0.0
 11
138.36250630040001
 21
-311.75
 31
0.0
  0
LINE
  5
55
  8
┌▓È_1
 62
     5
 10
146.6624904876
 20
-311.75
 30
0.0
 11
146.6624904876
 21
-308.75
 31
0.0
  0
LINE
  5
56
  8
┌▓È_1
  6
BORDER
 62
     5
 10
48.615625000000001
 20
-296.37604166670002
 30
0.0
 11
48.615625000000001
 21
-319.92395833329999
 31
0.0
  0
LINE
  5
57
  8
┌▓È_1
  6
BORDER
 62
     5
 10
8.6156249999999996
 20
-296.37604166670002
 30
0.0
 11
8.6156249999999996
 21
-319.92395833329999
 31
0.0
  0
LINE
  5
58
  8
┌▓È_1
 62
     5
 10
38.615625000000001
 20
-299.94999999999999
 30
0.0
 11
142.81562500000001
 21
-299.94999999999999
 31
0.0
  0
LINE
  5
59
  8
┌▓È_1
 62
     5
 10
38.615625000000001
 20
-315.94999999999999
 30
0.0
 11
142.11562499999999
 21
-317.75
 31
0.0
  0
LINE
  5
5A
  8
┌▓È_1
 62
     5
 10
96.123355182900013
 20
-314.94999999999999
 30
0.0
 11
38.615625000000001
 21
-314.94999999999999
 31
0.0
  0
LINE
  5
5B
  8
┌▓È_1
  6
BORDER
 62
     5
 10
128.61562499999999
 20
-296.37604166670002
 30
0.0
 11
128.61562499999999
 21
-319.92395833329999
 31
0.0
  0
LINE
  5
5C
  8
┌▓È_1
 62
     5
 10
-38.8922042895
 20
-314.94999999999999
 30
0.0
 11
-84.884375000000006
 21
-315.75
 31
0.0
  0
LINE
  5
5D
  8
┌▓È_1
 62
     5
 10
-38.8922042895
 20
-314.94999999999999
 30
0.0
 11
-82.884375000000006
 21
-314.94999999999999
 31
0.0
  0
LINE
  5
5E
  8
┌▓È_1
 62
     5
 10
136.11562499999999
 20
-19.75
 30
0.0
 11
138.61562499999999
 21
-19.75
 31
0.0
  0
LINE
  5
5F
  8
┌▓È_1
 62
     5
 10
133.61562499999999
 20
-19.75
 30
0.0
 11
133.61562499999999
 21
-18.75
 31
0.0
  0
LINE
  5
60
  8
┌▓È_1
 62
     5
 10
139.11562499999999
 20
-14.2031345124
 30
0.0
 11
139.11562499999999
 21
-14.75
 31
0.0
  0
LINE
  5
61
  8
┌▓È_1
 62
     5
 10
118.11562499999999
 20
-19.75
 30
0.0
 11
115.61562499999999
 21
-19.75
 31
0.0
  0
LINE
  5
62
  8
┌▓È_1
 62
     5
 10
120.61562499999999
 20
-19.75
 30
0.0
 11
120.61562499999999
 21
-18.75
 31
0.0
  0
LINE
  5
63
  8
┌▓È_1
 62
     5
 10
121.11562499999999
 20
-14.2031345124
 30
0.0
 11
121.11562499999999
 21
-14.75
 31
0.0
  0
ARC
  5
64
  8
┌▓È_1
 62
     5
 10
110.11562499999999
 20
-16.75
 30
0.0
 40
2.0
 50
180.0
 51
270.0
  0
LINE
  5
65
  8
┌▓È_1
 62
     5
 10
-50.884374999999999
 20
-9.2060546875
 30
0.0
 11
-50.884374999999999
 21
-23.493554687500001
 31
0.0
  0
LINE
  5
66
  8
┌▓È_1
 62
     5
 10
-86.884375000000006
 20
-16.75
 30
0.0
 11
-86.884375000000006
 21
-287.75
 31
0.0
  0
ARC
  5
67
  8
┌▓È_1
 62
     5
 10
-86.584374999999994
 20
-288.75
 30
0.0
 40
1.0
 50
0.0
 51
90.0
  0
LINE
  5
68
  8
┌▓È_1
 62
     5
 10
-86.884375000000006
 20
-287.75
 30
0.0
 11
-86.584374999999994
 21
-287.75
 31
0.0
  0
ARC
  5
69
  8
┌▓È_1
 62
     5
 10
-86.884375000000006
 20
-16.75
 30
0.0
 40
2.0
 50
90.0
 51
180.0
  0
DIMENSION
  5
7A
  8
Éíû@É³
 62
     5
  2
*D0
 10
146.11562499999999
 20
81.296119689899996
 30
0.0
 11
28.615625000000001
 21
81.296119689899996
 31
0.0
 70
   128
  1
<>
 13
146.11562499999999
 23
-16.75
 33
0.0
 14
-88.884375000000006
 24
-16.75
 34
0.0
  0
LINE
  5
7B
  8
┌▓È_1
 62
     5
 10
-85.584374999999994
 20
-299.94999999999999
 30
0.0
 11
18.615625000000001
 21
-299.94999999999999
 31
0.0
  0
LINE
  5
7C
  8
┌▓È_1
 62
     5
 10
18.615625000000001
 20
-314.94999999999999
 30
0.0
 11
-38.8922042895
 21
-314.94999999999999
 31
0.0
  0
LINE
  5
7D
  8
┌▓È_1
 62
     5
 10
18.615625000000001
 20
-315.94999999999999
 30
0.0
 11
-84.884375000000006
 21
-317.75
 31
0.0
  0
LINE
  5
7E
  8
┌▓È_1
 62
     5
 10
-86.884375000000006
 20
-16.75
 30
0.0
 11
108.11562499999999
 21
-16.75
 31
0.0
  0
LINE
  5
7F
  8
┌▓È_1
 62
     5
 10
-86.884375000000006
 20
-14.75
 30
0.0
 11
108.115625084
 21
-14.75
 31
0.0
  0
LINE
  5
80
  8
┌▓È_1
  6
BORDER
 62
     5
 10
-79.841097005199998
 20
-308.14999999999998
 30
0.0
 11
139.7630696615
 21
-308.14999999999998
 31
0.0
  0
LINE
  5
81
  8
┌▓È_1
 62
     5
 10
146.11562499999999
 20
-304.75
 30
0.0
 11
146.11562499999999
 21
-16.75
 31
0.0
  0
LINE
  5
82
  8
┌▓È_1
 62
     5
 10
-88.884375000000006
 20
-16.75
 30
0.0
 11
-88.884375000000006
 21
-317.75
 31
0.0
  0
ARC
  5
83
  8
┌▓È_1
 62
     5
 10
-82.884375000000006
 20
-310.94999999999999
 30
0.0
 40
4.0
 50
180.0
 51
270.0
  0
LINE
  5
84
  8
┌▓È_1
 62
     5
 10
-86.884375000000006
 20
-305.75
 30
0.0
 11
-86.884375000000006
 21
-299.94999999999999
 31
0.0
  0
LINE
  5
85
  8
┌▓È_1
 62
     5
 10
-86.884375000000006
 20
-299.94999999999999
 30
0.0
 11
-85.584374999999994
 21
-299.94999999999999
 31
0.0
  0
LINE
  5
86
  8
┌▓È_1
 62
     5
 10
38.615625000000001
 20
-313.94969746369998
 30
0.0
 11
38.650402349799997
 21
-313.95030238890001
 31
0.0
  0
ARC
  5
87
  8
┌▓È_1
 62
     5
 10
144.11562499999999
 20
-16.75
 30
0.0
 40
2.0
 50
0.0
 51
90.0
  0
LINE
  5
88
  8
┌▓È_1
 62
     5
 10
101.11562499999999
 20
-8.3130859375000004
 30
0.0
 11
101.11562499999999
 21
-22.6005859375
 31
0.0
  0
LINE
  5
89
  8
┌▓È_1
 62
     5
 10
144.11562499999999
 20
-287.75
 30
0.0
 11
144.11562499999999
 21
-16.75
 31
0.0
  0
LINE
  5
8A
  8
┌▓È_1
 62
     5
 10
115.61562499999999
 20
-19.75
 30
0.0
 11
115.61562499999999
 21
-18.75
 31
0.0
  0
LINE
  5
8B
  8
┌▓È_1
  6
BORDER
 62
     5
 10
150.3076539855
 20
-54.75
 30
0.0
 11
141.22746074880001
 21
-54.75
 31
0.0
  0
LINE
  5
8C
  8
┌▓È_1
 62
     5
 10
110.11562499999999
 20
-16.75
 30
0.0
 11
144.11562499999999
 21
-16.75
 31
0.0
  0
ARC
  5
8D
  8
┌▓È_1
 62
     5
 10
144.11562499999999
 20
-16.75
 30
0.0
 40
2.0
 50
0.0
 51
90.0
  0
LINE
  5
8E
  8
┌▓È_1
 62
     5
 10
136.11562499999999
 20
-19.75
 30
0.0
 11
133.61562499999999
 21
-19.75
 31
0.0
  0
LINE
  5
8F
  8
┌▓È_1
 62
     5
 10
118.11562499999999
 20
-14.2031345124
 30
0.0
 11
115.11562499999999
 21
-14.2031345124
 31
0.0
  0
LINE
  5
90
  8
┌▓È_1
 62
     5
 10
118.11562499999999
 20
-14.2031345124
 30
0.0
 11
121.11562499999999
 21
-14.2031345124
 31
0.0
  0
LINE
  5
91
  8
┌▓È_1
 62
     5
 10
133.11562499999999
 20
-14.2031345124
 30
0.0
 11
133.11562499999999
 21
-14.75
 31
0.0
  0
LINE
  5
92
  8
┌▓È_1
 62
     5
 10
136.11562499999999
 20
-14.2031345124
 30
0.0
 11
139.11562499999999
 21
-14.2031345124
 31
0.0
  0
ARC
  5
93
  8
┌▓È_1
 62
     5
 10
108.11562499999999
 20
-16.75
 30
0.0
 40
2.0
 50
0.0
 51
90.0
  0
LINE
  5
94
  8
┌▓È_1
 62
     5
 10
111.11562499999999
 20
-14.75
 30
0.0
 11
111.11562499999999
 21
-16.75
 31
0.0
  0
LINE
  5
95
  8
┌▓È_1
 62
     5
 10
118.11562499999999
 20
-11.8515057964
 30
0.0
 11
118.11562499999999
 21
-22.503118699600002
 31
0.0
  0
LINE
  5
96
  8
┌▓È_1
 62
     5
 10
118.11562499999999
 20
-19.75
 30
0.0
 11
120.61562499999999
 21
-19.75
 31
0.0
  0
LINE
  5
97
  8
┌▓È_1
 62
     5
 10
111.11562499999999
 20
-14.75
 30
0.0
 11
144.11562499999999
 21
-14.75
 31
0.0
  0
LINE
  5
98
  8
┌▓È_1
 62
     5
 10
115.11562499999999
 20
-14.2031345124
 30
0.0
 11
115.11562499999999
 21
-14.75
 31
0.0
  0
LINE
  5
99
  8
┌▓È_1
 62
     5
 10
140.11562499999999
 20
-18.75
 30
0.0
 11
140.11562499999999
 21
-16.75
 31
0.0
  0
LINE
  5
9A
  8
┌▓È_1
 62
     5
 10
111.11562499999999
 20
-14.75
 30
0.0
 11
144.11562508399999
 21
-14.75
 31
0.0
  0
LINE
  5
9B
  8
┌▓È_1
 62
     5
 10
144.11562499999999
 20
-287.75
 30
0.0
 11
143.81562500000001
 21
-287.75
 31
0.0
  0
ARC
  5
9C
  8
┌▓È_1
 62
     5
 10
143.81562500000001
 20
-288.75
 30
0.0
 40
1.0
 50
90.0
 51
180.0
  0
LINE
  5
9D
  8
┌▓È_1
  6
BORDER
 62
     5
 10
150.92118055559999
 20
-262.75
 30
0.0
 11
141.47287137679999
 21
-262.75
 31
0.0
  0
LINE
  5
9E
  8
┌▓È_1
 62
     5
 10
110.11562499999999
 20
-16.75
 30
0.0
 11
144.11562499999999
 21
-16.75
 31
0.0
  0
LINE
  5
9F
  8
┌▓È_1
 62
     5
 10
110.11562499999999
 20
-18.75
 30
0.0
 11
140.11562499999999
 21
-18.75
 31
0.0
  0
INSERT
  5
A0
  8
0
  6
CONTINUOUS
  2
*U21
 10
0.0
 20
0.0
 30
0.0
  0
INSERT
  5
A1
  8
0
  6
CONTINUOUS
  2
*U22
 10
0.0
 20
0.0
 30
0.0
  0
INSERT
  5
A2
  8
0
  6
CONTINUOUS
  2
*U23
 10
0.0
 20
0.0
 30
0.0
  0
INSERT
  5
A3
  8
0
  6
CONTINUOUS
  2
*U24
 10
0.0
 20
0.0
 30
0.0
  0
INSERT
  5
A4
  8
0
  6
CONTINUOUS
  2
*U25
 10
0.0
 20
0.0
 30
0.0
  0
LINE
  5
A5
  8
┌▓È_1
 10
528.74263917669998
 20
-1220.7360808984999
 30
0.0
 11
550.80005263019984
 21
-1220.7360808984999
 31
0.0
  0
LINE
  5
A6
  8
┌▓È_1
 10
536.80005263019984
 20
-1248.7360808984999
 30
0.0
 11
533.97995792150004
 21
-1238.9360808985
 31
0.0
  0
LINE
  5
A7
  8
┌▓È_1
 10
530.35412186739995
 20
-1226.3360808985001
 30
0.0
 11
528.74263917669998
 21
-1220.7360808984999
 31
0.0
  0
LINE
  5
A8
  8
┌▓È_1
 62
     5
 10
935.22583835889986
 20
-1030.2322916666999
 30
0.0
 11
935.22583835889986
 21
-889.82733626729998
 31
0.0
  0
LINE
  5
A9
  8
┌▓È_1
 10
1107.0289062500001
 20
-1261.2322916666999
 30
0.0
 11
1107.0289062500001
 21
-1030.2322916666999
 31
0.0
  0
LINE
  5
AA
  8
┌▓È_1
 10
550.80005263019984
 20
-1226.3360808985001
 30
0.0
 11
550.80005263019984
 21
-1238.9360808985
 31
0.0
  0
LINE
  5
AB
  8
┌▓È_1
 62
     5
 10
850.48513559460002
 20
-1030.2322916666999
 30
0.0
 11
850.48513559460002
 21
-889.82733626729998
 31
0.0
  0
LINE
  5
AC
  8
┌▓È_1
 10
550.80005263019984
 20
-1208.1360808985
 30
0.0
 11
550.80005263019984
 21
-1220.7360808984999
 31
0.0
  0
LINE
  5
AD
  8
┌▓È_1
 10
617.02890624999998
 20
-1030.2322916666999
 30
0.0
 11
617.02890624999998
 21
-1261.2322916666999
 31
0.0
  0
LINE
  5
AE
  8
┌▓È_1
 10
525.11680312249985
 20
-1208.1360808985
 30
0.0
 11
524.09204337099993
 21
-1204.5749786652
 31
0.0
  0
LINE
  5
AF
  8
┌▓È_1
 10
517.20005263019993
 20
-1248.7360808984999
 30
0.0
 11
514.32538596359996
 21
-1238.9360808985
 31
0.0
  0
LINE
  5
B0
  8
┌▓È_1
 10
524.09204337099993
 20
-1204.5749786652
 30
0.0
 11
529.80005263019984
 21
-1196.2360808984999
 31
0.0
  0
LINE
  5
B1
  8
┌▓È_1
 10
510.62938596359987
 20
-1226.3360808985001
 30
0.0
 11
508.98671929689999
 21
-1220.7360808984999
 31
0.0
  0
LINE
  5
B2
  8
┌▓È_1
 10
533.97995792150004
 20
-1238.9360808985
 30
0.0
 11
550.80005263019984
 21
-1238.9360808985
 31
0.0
  0
LINE
  5
B3
  8
┌▓È_1
 10
530.35412186739995
 20
-1226.3360808985001
 30
0.0
 11
550.80005263019984
 21
-1226.3360808985001
 31
0.0
  0
LINE
  5
B4
  8
┌▓È_1
 10
525.11680312249985
 20
-1208.1360808985
 30
0.0
 11
550.80005263019984
 21
-1208.1360808985
 31
0.0
  0
LINE
  5
B5
  8
┌▓È_1
 10
536.80005263019984
 20
-1248.7360808984999
 30
0.0
 11
517.20005263019993
 21
-1248.7360808984999
 31
0.0
  0
LINE
  5
B6
  8
┌▓È_1
 62
     5
 10
136.11562499999999
 20
-14.2031345124
 30
0.0
 11
133.11562499999999
 21
-14.2031345124
 31
0.0
  0
LINE
  5
B7
  8
┌▓È_1
 62
     5
 10
136.11562499999999
 20
-11.8515057964
 30
0.0
 11
136.11562499999999
 21
-22.503118699600002
 31
0.0
  0
LINE
  5
B8
  8
┌▓È_1
 62
     5
 10
138.61562499999999
 20
-19.75
 30
0.0
 11
138.61562499999999
 21
-18.75
 31
0.0
  0
LINE
  5
B9
  8
┌▓È_1
 10
409.2776740921999
 20
-1234.7360808984999
 30
0.0
 11
417.67767409219988
 21
-1234.7360808984999
 31
0.0
  0
LINE
  5
BA
  8
┌▓È_1
 10
409.2776740921999
 20
-1245.2360808984999
 30
0.0
 11
409.2776740921999
 21
-1234.7360808984999
 31
0.0
  0
LINE
  5
BB
  8
┌▓È_1
 10
409.2776740921999
 20
-1196.2360808984999
 30
0.0
 11
409.2776740921999
 21
-1208.8360808985001
 31
0.0
  0
LINE
  5
BC
  8
┌▓È_1
 10
359.15343166800011
 20
-1196.2360808984999
 30
0.0
 11
331.153431668
 21
-1196.2360808984999
 31
0.0
  0
LINE
  5
BD
  8
┌▓È_1
 10
409.2776740921999
 20
-1234.7360808984999
 30
0.0
 11
409.2776740921999
 21
-1245.2360808984999
 31
0.0
  0
LINE
  5
BE
  8
┌▓È_1
 10
409.2776740921999
 20
-1208.8360808985001
 30
0.0
 11
444.27767409220002
 21
-1208.8360808985001
 31
0.0
  0
LINE
  5
BF
  8
┌▓È_1
 10
409.2776740921999
 20
-1212.4908527708001
 30
0.0
 11
437.27767409220002
 21
-1212.4908527708001
 31
0.0
  0
LINE
  5
C0
  8
┌▓È_1
 62
     5
 10
57.028906249999999
 20
-1030.2322916666999
 30
0.0
 11
57.028906249999999
 21
-889.82733626729998
 31
0.0
  0
LINE
  5
C1
  8
┌▓È_1
 10
57.028906249999999
 20
-1030.2322916666999
 30
0.0
 11
57.028906249999999
 21
-1261.2322916666999
 31
0.0
  0
ARC
  5
C2
  8
┌▓È_1
 10
352.153431668
 20
-1224.2360808984999
 30
0.0
 40
10.5
 50
270.0
 51
0.0
  0
LINE
  5
C3
  8
┌▓È_1
 10
457.31670955689998
 20
-1230.1799993612999
 30
0.0
 11
456.06999513829999
 21
-1231.4006463706
 31
0.0
  0
LINE
  5
C4
  8
┌▓È_1
 10
441.03186153410002
 20
-1220.8695772342001
 30
0.0
 11
439.34769088980011
 21
-1222.7297457581001
 31
0.0
  0
ARC
  5
C5
  8
┌▓È_1
 10
426.77767409220002
 20
-1206.7360808984999
 30
0.0
 40
38.5
 50
322.48761197969998
 51
0.0
  0
ARC
  5
C6
  8
┌▓È_1
 10
417.67767409219988
 20
-1208.1360808985
 30
0.0
 40
26.600000000000001
 50
331.39928138329998
 51
358.49204224580001
  0
LINE
  5
C7
  8
┌▓È_1
 62
     5
 10
79.068925139399994
 20
-1071.2708314993999
 30
0.0
 11
175.77118570069999
 21
-1071.2708314993999
 31
0.0
  0
LINE
  5
C8
  8
┌▓È_1
 62
     5
 10
79.068925139399994
 20
-1145.7322916666999
 30
0.0
 11
455.64155607110001
 21
-1145.7322916666999
 31
0.0
  0
LINE
  5
C9
  8
┌▓È_1
 10
390.65343166800011
 20
-1210.2360808984999
 30
0.0
 11
380.15343166800011
 21
-1210.2360808984999
 31
0.0
  0
LINE
  5
CA
  8
┌▓È_1
 10
348.65343166800011
 20
-1220.7360808984999
 30
0.0
 11
362.65343166800011
 21
-1220.7360808984999
 31
0.0
  0
LINE
  5
CB
  8
┌▓È_1
 10
348.65343166800011
 20
-1231.2360808984999
 30
0.0
 11
348.65343166800011
 21
-1220.7360808984999
 31
0.0
  0
ARC
  5
CC
  8
┌▓È_1
 10
417.67767409219988
 20
-1208.1360808985
 30
0.0
 40
26.600000000000001
 50
270.0
 51
298.08590481520002
  0
POLYLINE
  8
┌▓È_1
  5
462
  66
     1
 10
0.000000
 20
0.000000
 30
0.000000
  70
     8
  0
VERTEX
  8
┌▓È_1
  5
463
 10
456.070
 20
-1231.40
 30
0.000000
  70
    32
  0
VERTEX
  8
┌▓È_1
  5
464
 10
456.192
 20
-1231.44
 30
0.000000
  70
    32
  0
VERTEX
  8
┌▓È_1
  5
465
 10
456.315
 20
-1231.47
 30
0.000000
  70
    32
  0
VERTEX
  8
┌▓È_1
  5
466
 10
456.438
 20
-1231.50
 30
0.000000
  70
    32
  0
VERTEX
  8
┌▓È_1
  5
467
 10
456.560
 20
-1231.54
 30
0.000000
  70
    32
  0
VERTEX
  8
┌▓È_1
  5
468
 10
456.683
 20
-1231.57
 30
0.000000
  70
    32
  0
VERTEX
  8
┌▓È_1
  5
469
 10
456.806
 20
-1231.61
 30
0.000000
  70
    32
  0
VERTEX
  8
┌▓È_1
  5
46A
 10
456.929
 20
-1231.64
 30
0.000000
  70
    32
  0
VERTEX
  8
┌▓È_1
  5
46B
 10
457.053
 20
-1231.67
 30
0.000000
  70
    32
  0
VERTEX
  8
┌▓È_1
  5
46C
 10
457.176
 20
-1231.71
 30
0.000000
  70
    32
  0
VERTEX
  8
┌▓È_1
  5
46D
 10
457.299
 20
-1231.74
 30
0.000000
  70
    32
  0
VERTEX
  8
┌▓È_1
  5
46E
 10
457.423
 20
-1231.77
 30
0.000000
  70
    32
  0
VERTEX
  8
┌▓È_1
  5
46F
 10
457.547
 20
-1231.80
 30
0.000000
  70
    32
  0
VERTEX
  8
┌▓È_1
  5
470
 10
457.670
 20
-1231.84
 30
0.000000
  70
    32
  0
VERTEX
  8
┌▓È_1
  5
471
 10
457.794
 20
-1231.87
 30
0.000000
  70
    32
  0
VERTEX
  8
┌▓È_1
  5
472
 10
457.918
 20
-1231.90
 30
0.000000
  70
    32
  0
VERTEX
  8
┌▓È_1
  5
473
 10
458.043
 20
-1231.93
 30
0.000000
  70
    32
  0
VERTEX
  8
┌▓È_1
  5
474
 10
458.167
 20
-1231.96
 30
0.000000
  70
    32
  0
VERTEX
  8
┌▓È_1
  5
475
 10
458.291
 20
-1232.00
 30
0.000000
  70
    32
  0
VERTEX
  8
┌▓È_1
  5
476
 10
458.416
 20
-1232.03
 30
0.000000
  70
    32
  0
VERTEX
  8
┌▓È_1
  5
477
 10
458.540
 20
-1232.06
 30
0.000000
  70
    32
  0
VERTEX
  8
┌▓È_1
  5
478
 10
458.665
 20
-1232.09
 30
0.000000
  70
    32
  0
VERTEX
  8
┌▓È_1
  5
479
 10
458.790
 20
-1232.12
 30
0.000000
  70
    32
  0
VERTEX
  8
┌▓È_1
  5
47A
 10
458.915
 20
-1232.15
 30
0.000000
  70
    32
  0
VERTEX
  8
┌▓È_1
  5
47B
 10
459.040
 20
-1232.18
 30
0.000000
  70
    32
  0
VERTEX
  8
┌▓È_1
  5
47C
 10
459.165
 20
-1232.21
 30
0.000000
  70
    32
  0
VERTEX
  8
┌▓È_1
  5
47D
 10
459.290
 20
-1232.24
 30
0.000000
  70
    32
  0
VERTEX
  8
┌▓È_1
  5
47E
 10
459.415
 20
-1232.27
 30
0.000000
  70
    32
  0
VERTEX
  8
┌▓È_1
  5
47F
 10
459.541
 20
-1232.30
 30
0.000000
  70
    32
  0
VERTEX
  8
┌▓È_1
  5
480
 10
459.666
 20
-1232.33
 30
0.000000
  70
    32
  0
VERTEX
  8
┌▓È_1
  5
481
 10
459.792
 20
-1232.36
 30
0.000000
  70
    32
  0
VERTEX
  8
┌▓È_1
  5
482
 10
459.917
 20
-1232.39
 30
0.000000
  70
    32
  0
VERTEX
  8
┌▓È_1
  5
483
 10
460.043
 20
-1232.42
 30
0.000000
  70
    32
  0
VERTEX
  8
┌▓È_1
  5
484
 10
460.169
 20
-1232.45
 30
0.000000
  70
    32
  0
VERTEX
  8
┌▓È_1
  5
485
 10
460.295
 20
-1232.48
 30
0.000000
  70
    32
  0
VERTEX
  8
┌▓È_1
  5
486
 10
460.421
 20
-1232.51
 30
0.000000
  70
    32
  0
VERTEX
  8
┌▓È_1
  5
487
 10
460.547
 20
-1232.53
 30
0.000000
  70
    32
  0
VERTEX
  8
┌▓È_1
  5
488
 10
460.673
 20
-1232.56
 30
0.000000
  70
    32
  0
VERTEX
  8
┌▓È_1
  5
489
 10
460.800
 20
-1232.59
 30
0.000000
  70
    32
  0
VERTEX
  8
┌▓È_1
  5
48A
 10
460.926
 20
-1232.62
 30
0.000000
  70
    32
  0
VERTEX
  8
┌▓È_1
  5
48B
 10
461.053
 20
-1232.65
 30
0.000000
  70
    32
  0
VERTEX
  8
┌▓È_1
  5
48C
 10
461.179
 20
-1232.68
 30
0.000000
  70
    32
  0
VERTEX
  8
┌▓È_1
  5
48D
 10
461.306
 20
-1232.70
 30
0.000000
  70
    32
  0
VERTEX
  8
┌▓È_1
  5
48E
 10
461.433
 20
-1232.73
 30
0.000000
  70
    32
  0
VERTEX
  8
┌▓È_1
  5
48F
 10
461.559
 20
-1232.76
 30
0.000000
  70
    32
  0
VERTEX
  8
┌▓È_1
  5
490
 10
461.686
 20
-1232.79
 30
0.000000
  70
    32
  0
VERTEX
  8
┌▓È_1
  5
491
 10
461.813
 20
-1232.81
 30
0.000000
  70
    32
  0
VERTEX
  8
┌▓È_1
  5
492
 10
461.940
 20
-1232.84
 30
0.000000
  70
    32
  0
VERTEX
  8
┌▓È_1
  5
493
 10
462.067
 20
-1232.87
 30
0.000000
  70
    32
  0
VERTEX
  8
┌▓È_1
  5
494
 10
462.195
 20
-1232.89
 30
0.000000
  70
    32
  0
VERTEX
  8
┌▓È_1
  5
495
 10
462.322
 20
-1232.92
 30
0.000000
  70
    32
  0
VERTEX
  8
┌▓È_1
  5
496
 10
462.449
 20
-1232.95
 30
0.000000
  70
    32
  0
VERTEX
  8
┌▓È_1
  5
497
 10
462.577
 20
-1232.97
 30
0.000000
  70
    32
  0
VERTEX
  8
┌▓È_1
  5
498
 10
462.704
 20
-1233.00
 30
0.000000
  70
    32
  0
VERTEX
  8
┌▓È_1
  5
499
 10
462.832
 20
-1233.03
 30
0.000000
  70
    32
  0
VERTEX
  8
┌▓È_1
  5
49A
 10
462.960
 20
-1233.05
 30
0.000000
  70
    32
  0
VERTEX
  8
┌▓È_1
  5
49B
 10
463.087
 20
-1233.08
 30
0.000000
  70
    32
  0
VERTEX
  8
┌▓È_1
  5
49C
 10
463.215
 20
-1233.11
 30
0.000000
  70
    32
  0
VERTEX
  8
┌▓È_1
  5
49D
 10
463.343
 20
-1233.13
 30
0.000000
  70
    32
  0
VERTEX
  8
┌▓È_1
  5
49E
 10
463.471
 20
-1233.16
 30
0.000000
  70
    32
  0
VERTEX
  8
┌▓È_1
  5
49F
 10
463.599
 20
-1233.18
 30
0.000000
  70
    32
  0
VERTEX
  8
┌▓È_1
  5
4A0
 10
463.727
 20
-1233.21
 30
0.000000
  70
    32
  0
VERTEX
  8
┌▓È_1
  5
4A1
 10
463.855
 20
-1233.23
 30
0.000000
  70
    32
  0
VERTEX
  8
┌▓È_1
  5
4A2
 10
463.984
 20
-1233.26
 30
0.000000
  70
    32
  0
VERTEX
  8
┌▓È_1
  5
4A3
 10
464.112
 20
-1233.28
 30
0.000000
  70
    32
  0
VERTEX
  8
┌▓È_1
  5
4A4
 10
464.240
 20
-1233.31
 30
0.000000
  70
    32
  0
VERTEX
  8
┌▓È_1
  5
4A5
 10
464.369
 20
-1233.33
 30
0.000000
  70
    32
  0
VERTEX
  8
┌▓È_1
  5
4A6
 10
464.497
 20
-1233.36
 30
0.000000
  70
    32
  0
VERTEX
  8
┌▓È_1
  5
4A7
 10
464.626
 20
-1233.38
 30
0.000000
  70
    32
  0
VERTEX
  8
┌▓È_1
  5
4A8
 10
464.754
 20
-1233.41
 30
0.000000
  70
    32
  0
VERTEX
  8
┌▓È_1
  5
4A9
 10
464.883
 20
-1233.43
 30
0.000000
  70
    32
  0
VERTEX
  8
┌▓È_1
  5
4AA
 10
465.012
 20
-1233.46
 30
0.000000
  70
    32
  0
VERTEX
  8
┌▓È_1
  5
4AB
 10
465.140
 20
-1233.48
 30
0.000000
  70
    32
  0
VERTEX
  8
┌▓È_1
  5
4AC
 10
465.269
 20
-1233.51
 30
0.000000
  70
    32
  0
VERTEX
  8
┌▓È_1
  5
4AD
 10
465.398
 20
-1233.53
 30
0.000000
  70
    32
  0
VERTEX
  8
┌▓È_1
  5
4AE
 10
465.527
 20
-1233.55
 30
0.000000
  70
    32
  0
VERTEX
  8
┌▓È_1
  5
4AF
 10
465.656
 20
-1233.58
 30
0.000000
  70
    32
  0
VERTEX
  8
┌▓È_1
  5
4B0
 10
465.785
 20
-1233.60
 30
0.000000
  70
    32
  0
VERTEX
  8
┌▓È_1
  5
4B1
 10
465.914
 20
-1233.63
 30
0.000000
  70
    32
  0
VERTEX
  8
┌▓È_1
  5
4B2
 10
466.043
 20
-1233.65
 30
0.000000
  70
    32
  0
VERTEX
  8
┌▓È_1
  5
4B3
 10
466.172
 20
-1233.67
 30
0.000000
  70
    32
  0
VERTEX
  8
┌▓È_1
  5
4B4
 10
466.301
 20
-1233.70
 30
0.000000
  70
    32
  0
VERTEX
  8
┌▓È_1
  5
4B5
 10
466.431
 20
-1233.72
 30
0.000000
  70
    32
  0
VERTEX
  8
┌▓È_1
  5
4B6
 10
466.560
 20
-1233.75
 30
0.000000
  70
    32
  0
VERTEX
  8
┌▓È_1
  5
4B7
 10
466.689
 20
-1233.77
 30
0.000000
  70
    32
  0
VERTEX
  8
┌▓È_1
  5
4B8
 10
466.819
 20
-1233.79
 30
0.000000
  70
    32
  0
VERTEX
  8
┌▓È_1
  5
4B9
 10
466.948
 20
-1233.82
 30
0.000000
  70
    32
  0
VERTEX
  8
┌▓È_1
  5
4BA
 10
467.077
 20
-1233.84
 30
0.000000
  70
    32
  0
VERTEX
  8
┌▓È_1
  5
4BB
 10
467.207
 20
-1233.86
 30
0.000000
  70
    32
  0
VERTEX
  8
┌▓È_1
  5
4BC
 10
467.337
 20
-1233.89
 30
0.000000
  70
    32
  0
VERTEX
  8
┌▓È_1
  5
4BD
 10
467.466
 20
-1233.91
 30
0.000000
  70
    32
  0
VERTEX
  8
┌▓È_1
  5
4BE
 10
467.596
 20
-1233.93
 30
0.000000
  70
    32
  0
VERTEX
  8
┌▓È_1
  5
4BF
 10
467.725
 20
-1233.95
 30
0.000000
  70
    32
  0
VERTEX
  8
┌▓È_1
  5
4C0
 10
467.855
 20
-1233.98
 30
0.000000
  70
    32
  0
VERTEX
  8
┌▓È_1
  5
4C1
 10
467.985
 20
-1234.00
 30
0.000000
  70
    32
  0
VERTEX
  8
┌▓È_1
  5
4C2
 10
468.115
 20
-1234.02
 30
0.000000
  70
    32
  0
VERTEX
  8
┌▓È_1
  5
4C3
 10
468.244
 20
-1234.05
 30
0.000000
  70
    32
  0
VERTEX
  8
┌▓È_1
  5
4C4
 10
468.374
 20
-1234.07
 30
0.000000
  70
    32
  0
VERTEX
  8
┌▓È_1
  5
4C5
 10
468.504
 20
-1234.09
 30
0.000000
  70
    32
  0
VERTEX
  8
┌▓È_1
  5
4C6
 10
468.634
 20
-1234.11
 30
0.000000
  70
    32
  0
VERTEX
  8
┌▓È_1
  5
4C7
 10
468.764
 20
-1234.14
 30
0.000000
  70
    32
  0
VERTEX
  8
┌▓È_1
  5
4C8
 10
468.894
 20
-1234.16
 30
0.000000
  70
    32
  0
VERTEX
  8
┌▓È_1
  5
4C9
 10
469.024
 20
-1234.18
 30
0.000000
  70
    32
  0
VERTEX
  8
┌▓È_1
  5
4CA
 10
469.154
 20
-1234.20
 30
0.000000
  70
    32
  0
VERTEX
  8
┌▓È_1
  5
4CB
 10
469.284
 20
-1234.23
 30
0.000000
  70
    32
  0
VERTEX
  8
┌▓È_1
  5
4CC
 10
469.414
 20
-1234.25
 30
0.000000
  70
    32
  0
VERTEX
  8
┌▓È_1
  5
4CD
 10
469.544
 20
-1234.27
 30
0.000000
  70
    32
  0
VERTEX
  8
┌▓È_1
  5
4CE
 10
469.674
 20
-1234.29
 30
0.000000
  70
    32
  0
VERTEX
  8
┌▓È_1
  5
4CF
 10
469.804
 20
-1234.32
 30
0.000000
  70
    32
  0
VERTEX
  8
┌▓È_1
  5
4D0
 10
469.934
 20
-1234.34
 30
0.000000
  70
    32
  0
VERTEX
  8
┌▓È_1
  5
4D1
 10
470.064
 20
-1234.36
 30
0.000000
  70
    32
  0
VERTEX
  8
┌▓È_1
  5
4D2
 10
470.194
 20
-1234.38
 30
0.000000
  70
    32
  0
VERTEX
  8
┌▓È_1
  5
4D3
 10
470.324
 20
-1234.41
 30
0.000000
  70
    32
  0
VERTEX
  8
┌▓È_1
  5
4D4
 10
470.454
 20
-1234.43
 30
0.000000
  70
    32
  0
VERTEX
  8
┌▓È_1
  5
4D5
 10
470.585
 20
-1234.45
 30
0.000000
  70
    32
  0
VERTEX
  8
┌▓È_1
  5
4D6
 10
470.715
 20
-1234.47
 30
0.000000
  70
    32
  0
VERTEX
  8
┌▓È_1
  5
4D7
 10
470.845
 20
-1234.49
 30
0.000000
  70
    32
  0
VERTEX
  8
┌▓È_1
  5
4D8
 10
470.975
 20
-1234.52
 30
0.000000
  70
    32
  0
VERTEX
  8
┌▓È_1
  5
4D9
 10
471.105
 20
-1234.54
 30
0.000000
  70
    32
  0
VERTEX
  8
┌▓È_1
  5
4DA
 10
471.236
 20
-1234.56
 30
0.000000
  70
    32
  0
VERTEX
  8
┌▓È_1
  5
4DB
 10
471.366
 20
-1234.58
 30
0.000000
  70
    32
  0
VERTEX
  8
┌▓È_1
  5
4DC
 10
471.496
 20
-1234.60
 30
0.000000
  70
    32
  0
VERTEX
  8
┌▓È_1
  5
4DD
 10
471.626
 20
-1234.63
 30
0.000000
  70
    32
  0
VERTEX
  8
┌▓È_1
  5
4DE
 10
471.757
 20
-1234.65
 30
0.000000
  70
    32
  0
VERTEX
  8
┌▓È_1
  5
4DF
 10
471.887
 20
-1234.67
 30
0.000000
  70
    32
  0
VERTEX
  8
┌▓È_1
  5
4E0
 10
472.017
 20
-1234.69
 30
0.000000
  70
    32
  0
VERTEX
  8
┌▓È_1
  5
4E1
 10
472.147
 20
-1234.71
 30
0.000000
  70
    32
  0
VERTEX
  8
┌▓È_1
  5
4E2
 10
472.278
 20
-1234.74
 30
0.000000
  70
    32
  0
SEQEND
  8
┌▓È_1
  5
4E3
  0
POLYLINE
  8
┌▓È_1
  5
4E4
  66
     1
 10
0.000000
 20
0.000000
 30
0.000000
  70
     8
  0
VERTEX
  8
┌▓È_1
  5
4E5
 10
447.489
 20
-1239.19
 30
0.000000
  70
    32
  0
VERTEX
  8
┌▓È_1
  5
4E6
 10
447.678
 20
-1239.25
 30
0.000000
  70
    32
  0
VERTEX
  8
┌▓È_1
  5
4E7
 10
447.866
 20
-1239.31
 30
0.000000
  70
    32
  0
VERTEX
  8
┌▓È_1
  5
4E8
 10
448.055
 20
-1239.37
 30
0.000000
  70
    32
  0
VERTEX
  8
┌▓È_1
  5
4E9
 10
448.244
 20
-1239.43
 30
0.000000
  70
    32
  0
VERTEX
  8
┌▓È_1
  5
4EA
 10
448.433
 20
-1239.49
 30
0.000000
  70
    32
  0
VERTEX
  8
┌▓È_1
  5
4EB
 10
448.622
 20
-1239.55
 30
0.000000
  70
    32
  0
VERTEX
  8
┌▓È_1
  5
4EC
 10
448.812
 20
-1239.60
 30
0.000000
  70
    32
  0
VERTEX
  8
┌▓È_1
  5
4ED
 10
449.001
 20
-1239.66
 30
0.000000
  70
    32
  0
VERTEX
  8
┌▓È_1
  5
4EE
 10
449.191
 20
-1239.72
 30
0.000000
  70
    32
  0
VERTEX
  8
┌▓È_1
  5
4EF
 10
449.381
 20
-1239.78
 30
0.000000
  70
    32
  0
VERTEX
  8
┌▓È_1
  5
4F0
 10
449.571
 20
-1239.84
 30
0.000000
  70
    32
  0
VERTEX
  8
┌▓È_1
  5
4F1
 10
449.761
 20
-1239.89
 30
0.000000
  70
    32
  0
VERTEX
  8
┌▓È_1
  5
4F2
 10
449.951
 20
-1239.95
 30
0.000000
  70
    32
  0
VERTEX
  8
┌▓È_1
  5
4F3
 10
450.141
 20
-1240.01
 30
0.000000
  70
    32
  0
VERTEX
  8
┌▓È_1
  5
4F4
 10
450.332
 20
-1240.06
 30
0.000000
  70
    32
  0
VERTEX
  8
┌▓È_1
  5
4F5
 10
450.523
 20
-1240.12
 30
0.000000
  70
    32
  0
VERTEX
  8
┌▓È_1
  5
4F6
 10
450.713
 20
-1240.17
 30
0.000000
  70
    32
  0
VERTEX
  8
┌▓È_1
  5
4F7
 10
450.904
 20
-1240.23
 30
0.000000
  70
    32
  0
VERTEX
  8
┌▓È_1
  5
4F8
 10
451.096
 20
-1240.28
 30
0.000000
  70
    32
  0
VERTEX
  8
┌▓È_1
  5
4F9
 10
451.287
 20
-1240.34
 30
0.000000
  70
    32
  0
VERTEX
  8
┌▓È_1
  5
4FA
 10
451.478
 20
-1240.39
 30
0.000000
  70
    32
  0
VERTEX
  8
┌▓È_1
  5
4FB
 10
451.670
 20
-1240.45
 30
0.000000
  70
    32
  0
VERTEX
  8
┌▓È_1
  5
4FC
 10
451.861
 20
-1240.50
 30
0.000000
  70
    32
  0
VERTEX
  8
┌▓È_1
  5
4FD
 10
452.053
 20
-1240.56
 30
0.000000
  70
    32
  0
VERTEX
  8
┌▓È_1
  5
4FE
 10
452.245
 20
-1240.61
 30
0.000000
  70
    32
  0
VERTEX
  8
┌▓È_1
  5
4FF
 10
452.437
 20
-1240.66
 30
0.000000
  70
    32
  0
VERTEX
  8
┌▓È_1
  5
500
 10
452.629
 20
-1240.72
 30
0.000000
  70
    32
  0
VERTEX
  8
┌▓È_1
  5
501
 10
452.822
 20
-1240.77
 30
0.000000
  70
    32
  0
VERTEX
  8
┌▓È_1
  5
502
 10
453.014
 20
-1240.82
 30
0.000000
  70
    32
  0
VERTEX
  8
┌▓È_1
  5
503
 10
453.207
 20
-1240.87
 30
0.000000
  70
    32
  0
VERTEX
  8
┌▓È_1
  5
504
 10
453.399
 20
-1240.93
 30
0.000000
  70
    32
  0
VERTEX
  8
┌▓È_1
  5
505
 10
453.592
 20
-1240.98
 30
0.000000
  70
    32
  0
VERTEX
  8
┌▓È_1
  5
506
 10
453.785
 20
-1241.03
 30
0.000000
  70
    32
  0
VERTEX
  8
┌▓È_1
  5
507
 10
453.978
 20
-1241.08
 30
0.000000
  70
    32
  0
VERTEX
  8
┌▓È_1
  5
508
 10
454.171
 20
-1241.13
 30
0.000000
  70
    32
  0
VERTEX
  8
┌▓È_1
  5
509
 10
454.365
 20
-1241.18
 30
0.000000
  70
    32
  0
VERTEX
  8
┌▓È_1
  5
50A
 10
454.558
 20
-1241.23
 30
0.000000
  70
    32
  0
VERTEX
  8
┌▓È_1
  5
50B
 10
454.751
 20
-1241.29
 30
0.000000
  70
    32
  0
VERTEX
  8
┌▓È_1
  5
50C
 10
454.945
 20
-1241.34
 30
0.000000
  70
    32
  0
VERTEX
  8
┌▓È_1
  5
50D
 10
455.139
 20
-1241.39
 30
0.000000
  70
    32
  0
VERTEX
  8
┌▓È_1
  5
50E
 10
455.333
 20
-1241.44
 30
0.000000
  70
    32
  0
VERTEX
  8
┌▓È_1
  5
50F
 10
455.527
 20
-1241.49
 30
0.000000
  70
    32
  0
VERTEX
  8
┌▓È_1
  5
510
 10
455.721
 20
-1241.54
 30
0.000000
  70
    32
  0
VERTEX
  8
┌▓È_1
  5
511
 10
455.915
 20
-1241.59
 30
0.000000
  70
    32
  0
VERTEX
  8
┌▓È_1
  5
512
 10
456.109
 20
-1241.63
 30
0.000000
  70
    32
  0
VERTEX
  8
┌▓È_1
  5
513
 10
456.304
 20
-1241.68
 30
0.000000
  70
    32
  0
VERTEX
  8
┌▓È_1
  5
514
 10
456.498
 20
-1241.73
 30
0.000000
  70
    32
  0
VERTEX
  8
┌▓È_1
  5
515
 10
456.693
 20
-1241.78
 30
0.000000
  70
    32
  0
VERTEX
  8
┌▓È_1
  5
516
 10
456.887
 20
-1241.83
 30
0.000000
  70
    32
  0
VERTEX
  8
┌▓È_1
  5
517
 10
457.082
 20
-1241.88
 30
0.000000
  70
    32
  0
VERTEX
  8
┌▓È_1
  5
518
 10
457.277
 20
-1241.93
 30
0.000000
  70
    32
  0
VERTEX
  8
┌▓È_1
  5
519
 10
457.472
 20
-1241.97
 30
0.000000
  70
    32
  0
VERTEX
  8
┌▓È_1
  5
51A
 10
457.667
 20
-1242.02
 30
0.000000
  70
    32
  0
VERTEX
  8
┌▓È_1
  5
51B
 10
457.862
 20
-1242.07
 30
0.000000
  70
    32
  0
VERTEX
  8
┌▓È_1
  5
51C
 10
458.057
 20
-1242.12
 30
0.000000
  70
    32
  0
VERTEX
  8
┌▓È_1
  5
51D
 10
458.253
 20
-1242.16
 30
0.000000
  70
    32
  0
VERTEX
  8
┌▓È_1
  5
51E
 10
458.448
 20
-1242.21
 30
0.000000
  70
    32
  0
VERTEX
  8
┌▓È_1
  5
51F
 10
458.644
 20
-1242.26
 30
0.000000
  70
    32
  0
VERTEX
  8
┌▓È_1
  5
520
 10
458.839
 20
-1242.31
 30
0.000000
  70
    32
  0
VERTEX
  8
┌▓È_1
  5
521
 10
459.035
 20
-1242.35
 30
0.000000
  70
    32
  0
VERTEX
  8
┌▓È_1
  5
522
 10
459.231
 20
-1242.40
 30
0.000000
  70
    32
  0
VERTEX
  8
┌▓È_1
  5
523
 10
459.427
 20
-1242.44
 30
0.000000
  70
    32
  0
VERTEX
  8
┌▓È_1
  5
524
 10
459.623
 20
-1242.49
 30
0.000000
  70
    32
  0
VERTEX
  8
┌▓È_1
  5
525
 10
459.819
 20
-1242.54
 30
0.000000
  70
    32
  0
VERTEX
  8
┌▓È_1
  5
526
 10
460.015
 20
-1242.58
 30
0.000000
  70
    32
  0
VERTEX
  8
┌▓È_1
  5
527
 10
460.211
 20
-1242.63
 30
0.000000
  70
    32
  0
VERTEX
  8
┌▓È_1
  5
528
 10
460.407
 20
-1242.67
 30
0.000000
  70
    32
  0
VERTEX
  8
┌▓È_1
  5
529
 10
460.604
 20
-1242.72
 30
0.000000
  70
    32
  0
VERTEX
  8
┌▓È_1
  5
52A
 10
460.800
 20
-1242.77
 30
0.000000
  70
    32
  0
VERTEX
  8
┌▓È_1
  5
52B
 10
460.997
 20
-1242.81
 30
0.000000
  70
    32
  0
VERTEX
  8
┌▓È_1
  5
52C
 10
461.193
 20
-1242.86
 30
0.000000
  70
    32
  0
VERTEX
  8
┌▓È_1
  5
52D
 10
461.390
 20
-1242.90
 30
0.000000
  70
    32
  0
VERTEX
  8
┌▓È_1
  5
52E
 10
461.587
 20
-1242.94
 30
0.000000
  70
    32
  0
VERTEX
  8
┌▓È_1
  5
52F
 10
461.783
 20
-1242.99
 30
0.000000
  70
    32
  0
VERTEX
  8
┌▓È_1
  5
530
 10
461.980
 20
-1243.03
 30
0.000000
  70
    32
  0
VERTEX
  8
┌▓È_1
  5
531
 10
462.177
 20
-1243.08
 30
0.000000
  70
    32
  0
VERTEX
  8
┌▓È_1
  5
532
 10
462.374
 20
-1243.12
 30
0.000000
  70
    32
  0
VERTEX
  8
┌▓È_1
  5
533
 10
462.571
 20
-1243.17
 30
0.000000
  70
    32
  0
VERTEX
  8
┌▓È_1
  5
534
 10
462.768
 20
-1243.21
 30
0.000000
  70
    32
  0
VERTEX
  8
┌▓È_1
  5
535
 10
462.965
 20
-1243.25
 30
0.000000
  70
    32
  0
VERTEX
  8
┌▓È_1
  5
536
 10
463.163
 20
-1243.30
 30
0.000000
  70
    32
  0
VERTEX
  8
┌▓È_1
  5
537
 10
463.360
 20
-1243.34
 30
0.000000
  70
    32
  0
VERTEX
  8
┌▓È_1
  5
538
 10
463.557
 20
-1243.39
 30
0.000000
  70
    32
  0
VERTEX
  8
┌▓È_1
  5
539
 10
463.755
 20
-1243.43
 30
0.000000
  70
    32
  0
VERTEX
  8
┌▓È_1
  5
53A
 10
463.952
 20
-1243.47
 30
0.000000
  70
    32
  0
VERTEX
  8
┌▓È_1
  5
53B
 10
464.150
 20
-1243.52
 30
0.000000
  70
    32
  0
VERTEX
  8
┌▓È_1
  5
53C
 10
464.347
 20
-1243.56
 30
0.000000
  70
    32
  0
VERTEX
  8
┌▓È_1
  5
53D
 10
464.545
 20
-1243.60
 30
0.000000
  70
    32
  0
VERTEX
  8
┌▓È_1
  5
53E
 10
464.742
 20
-1243.65
 30
0.000000
  70
    32
  0
VERTEX
  8
┌▓È_1
  5
53F
 10
464.940
 20
-1243.69
 30
0.000000
  70
    32
  0
VERTEX
  8
┌▓È_1
  5
540
 10
465.138
 20
-1243.73
 30
0.000000
  70
    32
  0
VERTEX
  8
┌▓È_1
  5
541
 10
465.336
 20
-1243.77
 30
0.000000
  70
    32
  0
VERTEX
  8
┌▓È_1
  5
542
 10
465.534
 20
-1243.82
 30
0.000000
  70
    32
  0
VERTEX
  8
┌▓È_1
  5
543
 10
465.731
 20
-1243.86
 30
0.000000
  70
    32
  0
VERTEX
  8
┌▓È_1
  5
544
 10
465.929
 20
-1243.90
 30
0.000000
  70
    32
  0
VERTEX
  8
┌▓È_1
  5
545
 10
466.127
 20
-1243.94
 30
0.000000
  70
    32
  0
VERTEX
  8
┌▓È_1
  5
546
 10
466.325
 20
-1243.99
 30
0.000000
  70
    32
  0
VERTEX
  8
┌▓È_1
  5
547
 10
466.523
 20
-1244.03
 30
0.000000
  70
    32
  0
VERTEX
  8
┌▓È_1
  5
548
 10
466.721
 20
-1244.07
 30
0.000000
  70
    32
  0
VERTEX
  8
┌▓È_1
  5
549
 10
466.920
 20
-1244.11
 30
0.000000
  70
    32
  0
VERTEX
  8
┌▓È_1
  5
54A
 10
467.118
 20
-1244.16
 30
0.000000
  70
    32
  0
VERTEX
  8
┌▓È_1
  5
54B
 10
467.316
 20
-1244.20
 30
0.000000
  70
    32
  0
VERTEX
  8
┌▓È_1
  5
54C
 10
467.514
 20
-1244.24
 30
0.000000
  70
    32
  0
VERTEX
  8
┌▓È_1
  5
54D
 10
467.712
 20
-1244.28
 30
0.000000
  70
    32
  0
VERTEX
  8
┌▓È_1
  5
54E
 10
467.911
 20
-1244.32
 30
0.000000
  70
    32
  0
VERTEX
  8
┌▓È_1
  5
54F
 10
468.109
 20
-1244.37
 30
0.000000
  70
    32
  0
VERTEX
  8
┌▓È_1
  5
550
 10
468.307
 20
-1244.41
 30
0.000000
  70
    32
  0
VERTEX
  8
┌▓È_1
  5
551
 10
468.506
 20
-1244.45
 30
0.000000
  70
    32
  0
VERTEX
  8
┌▓È_1
  5
552
 10
468.704
 20
-1244.49
 30
0.000000
  70
    32
  0
VERTEX
  8
┌▓È_1
  5
553
 10
468.902
 20
-1244.53
 30
0.000000
  70
    32
  0
VERTEX
  8
┌▓È_1
  5
554
 10
469.101
 20
-1244.57
 30
0.000000
  70
    32
  0
VERTEX
  8
┌▓È_1
  5
555
 10
469.299
 20
-1244.62
 30
0.000000
  70
    32
  0
VERTEX
  8
┌▓È_1
  5
556
 10
469.498
 20
-1244.66
 30
0.000000
  70
    32
  0
VERTEX
  8
┌▓È_1
  5
557
 10
469.696
 20
-1244.70
 30
0.000000
  70
    32
  0
VERTEX
  8
┌▓È_1
  5
558
 10
469.895
 20
-1244.74
 30
0.000000
  70
    32
  0
VERTEX
  8
┌▓È_1
  5
559
 10
470.093
 20
-1244.78
 30
0.000000
  70
    32
  0
VERTEX
  8
┌▓È_1
  5
55A
 10
470.292
 20
-1244.82
 30
0.000000
  70
    32
  0
VERTEX
  8
┌▓È_1
  5
55B
 10
470.490
 20
-1244.86
 30
0.000000
  70
    32
  0
VERTEX
  8
┌▓È_1
  5
55C
 10
470.689
 20
-1244.91
 30
0.000000
  70
    32
  0
VERTEX
  8
┌▓È_1
  5
55D
 10
470.888
 20
-1244.95
 30
0.000000
  70
    32
  0
VERTEX
  8
┌▓È_1
  5
55E
 10
471.086
 20
-1244.99
 30
0.000000
  70
    32
  0
VERTEX
  8
┌▓È_1
  5
55F
 10
471.285
 20
-1245.03
 30
0.000000
  70
    32
  0
VERTEX
  8
┌▓È_1
  5
560
 10
471.483
 20
-1245.07
 30
0.000000
  70
    32
  0
VERTEX
  8
┌▓È_1
  5
561
 10
471.682
 20
-1245.11
 30
0.000000
  70
    32
  0
VERTEX
  8
┌▓È_1
  5
562
 10
471.880
 20
-1245.15
 30
0.000000
  70
    32
  0
VERTEX
  8
┌▓È_1
  5
563
 10
472.079
 20
-1245.19
 30
0.000000
  70
    32
  0
VERTEX
  8
┌▓È_1
  5
564
 10
472.278
 20
-1245.24
 30
0.000000
  70
    32
  0
SEQEND
  8
┌▓È_1
  5
565
  0
LINE
  5
CF
  8
┌▓È_1
 10
465.27767409220002
 20
-1206.7360808984999
 30
0.0
 11
472.2776740921999
 21
-1196.2360808984999
 31
0.0
  0
LINE
  5
D0
  8
┌▓È_1
 10
472.2776740921999
 20
-1196.2360808984999
 30
0.0
 11
409.2776740921999
 21
-1196.2360808984999
 31
0.0
  0
LINE
  5
D1
  8
┌▓È_1
 10
465.27767409220002
 20
-1206.7360808984999
 30
0.0
 11
472.2776740921999
 21
-1196.2360808984999
 31
0.0
  0
LINE
  5
D2
  8
┌▓È_1
 10
331.153431668
 20
-1231.2360808984999
 30
0.0
 11
348.65343166800011
 21
-1231.2360808984999
 31
0.0
  0
LINE
  5
D3
  8
┌▓È_1
 10
331.153431668
 20
-1220.7360808984999
 30
0.0
 11
331.153431668
 21
-1231.2360808984999
 31
0.0
  0
LINE
  5
D4
  8
┌▓È_1
 10
323.09570498710002
 20
-1220.7360808984999
 30
0.0
 11
330.09570498710002
 21
-1220.7360808984999
 31
0.0
  0
ARC
  5
D5
  8
┌▓È_1
 10
426.77767409220002
 20
-1206.7360808984999
 30
0.0
 40
38.5
 50
270.0
 51
302.54495885400001
  0
LINE
  5
D6
  8
┌▓È_1
 62
     5
 10
363.44896347849999
 20
-1071.2708314993999
 30
0.0
 11
455.64155607110001
 21
-1071.2708314993999
 31
0.0
  0
LINE
  5
D7
  8
┌▓È_1
 62
     5
 10
218.57488940440001
 20
-1071.2708314993999
 30
0.0
 11
317.35266718219998
 21
-1071.2708314993999
 31
0.0
  0
LINE
  5
D8
  8
┌▓È_1
 10
197.02890625000001
 20
-1030.2322916666999
 30
0.0
 11
197.02890625000001
 21
-1107.2322916666999
 31
0.0
  0
LINE
  5
D9
  8
┌▓È_1
 10
337.02890624999998
 20
-1030.2322916666999
 30
0.0
 11
337.02890624999998
 21
-1107.2322916666999
 31
0.0
  0
LINE
  5
DA
  8
┌▓È_1
 10
409.2776740921999
 20
-1214.7456246432
 30
0.0
 11
409.2776740921999
 21
-1212.4908527708001
 31
0.0
  0
LINE
  5
DB
  8
┌▓È_1
 10
437.27767409220002
 20
-1212.4908527708001
 30
0.0
 11
433.31787611759989
 21
-1216.4506507455001
 31
0.0
  0
ARC
  5
DC
  8
┌▓È_1
 10
359.15343166800011
 20
-1224.2360808984999
 30
0.0
 40
21.0
 50
270.0
 51
0.0
  0
LINE
  5
DD
  8
┌▓È_1
 10
362.65343166800011
 20
-1196.2360808984999
 30
0.0
 11
362.65343166800011
 21
-1210.2360808984999
 31
0.0
  0
LINE
  5
DE
  8
┌▓È_1
 10
390.65343166800011
 20
-1210.2360808984999
 30
0.0
 11
390.65343166800011
 21
-1220.7360808984999
 31
0.0
  0
LINE
  5
DF
  8
┌▓È_1
 10
331.153431668
 20
-1234.7360808984999
 30
0.0
 11
331.153431668
 21
-1245.2360808984999
 31
0.0
  0
LINE
  5
E0
  8
┌▓È_1
 10
323.09570498710002
 20
-1210.2360808984999
 30
0.0
 11
323.09570498710002
 21
-1220.7360808984999
 31
0.0
  0
LINE
  5
E1
  8
┌▓È_1
 10
362.65343166800011
 20
-1220.7360808984999
 30
0.0
 11
362.65343166800011
 21
-1224.2360808984999
 31
0.0
  0
LINE
  5
E2
  8
┌▓È_1
 10
380.15343166800011
 20
-1206.7360808984999
 30
0.0
 11
390.65343166800011
 21
-1196.2360808984999
 31
0.0
  0
LINE
  5
E3
  8
┌▓È_1
 10
380.15343166800011
 20
-1210.2360808984999
 30
0.0
 11
380.15343166800011
 21
-1206.7360808984999
 31
0.0
  0
LINE
  5
E4
  8
┌▓È_1
 10
331.153431668
 20
-1210.2360808984999
 30
0.0
 11
323.09570498710002
 21
-1210.2360808984999
 31
0.0
  0
LINE
  5
E5
  8
┌▓È_1
 10
331.153431668
 20
-1196.2360808984999
 30
0.0
 11
331.153431668
 21
-1210.2360808984999
 31
0.0
  0
LINE
  5
E6
  8
┌▓È_1
 10
348.65343166800011
 20
-1206.7360808984999
 30
0.0
 11
359.15343166800011
 21
-1196.2360808984999
 31
0.0
  0
LINE
  5
E7
  8
┌▓È_1
 10
348.65343166800011
 20
-1210.2360808984999
 30
0.0
 11
348.65343166800011
 21
-1206.7360808984999
 31
0.0
  0
LINE
  5
E8
  8
┌▓È_1
 10
362.65343166800011
 20
-1210.2360808984999
 30
0.0
 11
348.65343166800011
 21
-1210.2360808984999
 31
0.0
  0
LINE
  5
E9
  8
┌▓È_1
 10
331.153431668
 20
-1220.7360808984999
 30
0.0
 11
330.09570498710002
 21
-1220.7360808984999
 31
0.0
  0
LINE
  5
EA
  8
┌▓È_1
 10
409.2776740921999
 20
-1245.2360808984999
 30
0.0
 11
426.77767409220002
 21
-1245.2360808984999
 31
0.0
  0
ARC
  5
EB
  8
┌▓È_1
 62
     5
 10
143.81562500000001
 20
-510.74999999999989
 30
0.0
 40
1.0
 50
90.0
 51
180.0
  0
LINE
  5
EC
  8
┌▓È_1
 62
     5
 10
58.305990314200002
 20
-518.95000000000005
 30
0.0
 11
69.840701852600006
 21
-518.95000000000005
 31
0.0
  0
LINE
  5
ED
  8
┌▓È_1
 62
     5
 10
144.11562499999999
 20
-534.75
 30
0.0
 11
58.305990314200002
 21
-534.75
 31
0.0
  0
LINE
  5
EE
  8
┌▓È_1
  6
BORDER
 62
     5
 10
8.3059903141999971
 20
-515.24901164330004
 30
0.0
 11
8.3059903141999971
 21
-538.79692830989995
 31
0.0
  0
LINE
  5
EF
  8
┌▓È_1
 62
     5
 10
38.305990314200002
 20
-518.35000000000002
 30
0.0
 11
58.305990314200002
 21
-518.35000000000002
 31
0.0
  0
LINE
  5
F0
  8
┌▓È_1
 62
     5
 10
38.305990314200002
 20
-535.35000000000002
 30
0.0
 11
58.305990314200002
 21
-535.35000000000002
 31
0.0
  0
LINE
  5
F1
  8
┌▓È_1
 62
     5
 10
106.7712787758
 20
-518.95000000000005
 30
0.0
 11
143.80599031419999
 21
-518.95000000000005
 31
0.0
  0
LINE
  5
F2
  8
┌▓È_1
 62
     5
 10
58.305990314200002
 20
-518.35000000000002
 30
0.0
 11
58.305990314200002
 21
-534.75
 31
0.0
  0
LINE
  5
F3
  8
┌▓È_1
 62
     5
 10
58.305990314200002
 20
-534.75
 30
0.0
 11
58.305990314200002
 21
-535.35000000000002
 31
0.0
  0
LINE
  5
F4
  8
┌▓È_1
  6
BORDER
 62
     5
 10
88.305990314200002
 20
-515.24901164330004
 30
0.0
 11
88.305990314200002
 21
-538.79692830989995
 31
0.0
  0
LINE
  5
F5
  8
┌▓È_1
  6
BORDER
 62
     5
 10
128.30599031419999
 20
-515.24901164330004
 30
0.0
 11
128.30599031419999
 21
-538.79692830989995
 31
0.0
  0
LINE
  5
F6
  8
┌▓È_1
 62
     5
 10
143.80599031419999
 20
-518.95000000000005
 30
0.0
 11
143.80599031419999
 21
-529.95000000000005
 31
0.0
  0
ARC
  5
F7
  8
┌▓È_1
 62
     5
 10
139.80599031419999
 20
-529.95000000000005
 30
0.0
 40
4.0
 50
270.0
 51
0.0
  0
LINE
  5
F8
  8
┌▓È_1
 62
     5
 10
128.30599031419999
 20
-532.74999999999989
 30
0.0
 11
128.30598901600001
 21
-532.74999999999989
 31
0.0
  0
LINE
  5
F9
  8
┌▓È_1
 62
     5
 10
144.11562499999999
 20
-532.74999999999989
 30
0.0
 11
142.6625616856
 21
-532.74999999999989
 31
0.0
  0
LINE
  5
FA
  8
┌▓È_1
 62
     5
 10
133.5661892361
 20
-1030.2322916666999
 30
0.0
 11
133.5661892361
 21
-889.82733626729998
 31
0.0
  0
LINE
  5
FB
  8
┌▓È_1
  6
BORDER
 62
     5
 10
151.28929649759999
 20
-478.75
 30
0.0
 11
140.61393417869999
 21
-478.75
 31
0.0
  0
LINE
  5
FC
  8
┌▓È_1
 10
380.15343166800011
 20
-1224.2360808984999
 30
0.0
 11
380.15343166800011
 21
-1220.7360808984999
 31
0.0
  0
LINE
  5
FD
  8
┌▓È_1
 62
     5
 10
494.36501964550001
 20
-1030.2322916666999
 30
0.0
 11
494.36501964550001
 21
-889.82733626729998
 31
0.0
  0
LINE
  5
FE
  8
┌▓È_1
 10
352.153431668
 20
-1234.7360808984999
 30
0.0
 11
331.153431668
 21
-1234.7360808984999
 31
0.0
  0
LINE
  5
FF
  8
┌▓È_1
 10
487.8000526301999
 20
-1208.1360808985
 30
0.0
 11
487.8000526301999
 21
-1220.7360808984999
 31
0.0
  0
LINE
  5
100
  8
┌▓È_1
 10
472.2776740921999
 20
-1234.7360808984999
 30
0.0
 11
472.2776740921999
 21
-1245.2360808984999
 31
0.0
  0
LINE
  5
101
  8
┌▓È_1
 10
487.8000526301999
 20
-1226.3360808985001
 30
0.0
 11
487.8000526301999
 21
-1238.9360808985
 31
0.0
  0
POLYLINE
  8
┌▓È_1
  5
566
  66
     1
 10
0.000000
 20
0.000000
 30
0.000000
  70
     8
  0
VERTEX
  8
┌▓È_1
  5
567
 10
409.278
 20
-1214.75
 30
0.000000
  70
    32
  0
VERTEX
  8
┌▓È_1
  5
568
 10
409.404
 20
-1214.86
 30
0.000000
  70
    32
  0
VERTEX
  8
┌▓È_1
  5
569
 10
409.530
 20
-1214.98
 30
0.000000
  70
    32
  0
VERTEX
  8
┌▓È_1
  5
56A
 10
409.656
 20
-1215.09
 30
0.000000
  70
    32
  0
VERTEX
  8
┌▓È_1
  5
56B
 10
409.782
 20
-1215.21
 30
0.000000
  70
    32
  0
VERTEX
  8
┌▓È_1
  5
56C
 10
409.908
 20
-1215.33
 30
0.000000
  70
    32
  0
VERTEX
  8
┌▓È_1
  5
56D
 10
410.034
 20
-1215.44
 30
0.000000
  70
    32
  0
VERTEX
  8
┌▓È_1
  5
56E
 10
410.160
 20
-1215.56
 30
0.000000
  70
    32
  0
VERTEX
  8
┌▓È_1
  5
56F
 10
410.286
 20
-1215.68
 30
0.000000
  70
    32
  0
VERTEX
  8
┌▓È_1
  5
570
 10
410.413
 20
-1215.79
 30
0.000000
  70
    32
  0
VERTEX
  8
┌▓È_1
  5
571
 10
410.539
 20
-1215.91
 30
0.000000
  70
    32
  0
VERTEX
  8
┌▓È_1
  5
572
 10
410.665
 20
-1216.02
 30
0.000000
  70
    32
  0
VERTEX
  8
┌▓È_1
  5
573
 10
410.791
 20
-1216.14
 30
0.000000
  70
    32
  0
VERTEX
  8
┌▓È_1
  5
574
 10
410.917
 20
-1216.26
 30
0.000000
  70
    32
  0
VERTEX
  8
┌▓È_1
  5
575
 10
411.043
 20
-1216.37
 30
0.000000
  70
    32
  0
VERTEX
  8
┌▓È_1
  5
576
 10
411.170
 20
-1216.49
 30
0.000000
  70
    32
  0
VERTEX
  8
┌▓È_1
  5
577
 10
411.296
 20
-1216.60
 30
0.000000
  70
    32
  0
VERTEX
  8
┌▓È_1
  5
578
 10
411.422
 20
-1216.72
 30
0.000000
  70
    32
  0
VERTEX
  8
┌▓È_1
  5
579
 10
411.548
 20
-1216.84
 30
0.000000
  70
    32
  0
VERTEX
  8
┌▓È_1
  5
57A
 10
411.675
 20
-1216.95
 30
0.000000
  70
    32
  0
VERTEX
  8
┌▓È_1
  5
57B
 10
411.801
 20
-1217.07
 30
0.000000
  70
    32
  0
VERTEX
  8
┌▓È_1
  5
57C
 10
411.927
 20
-1217.18
 30
0.000000
  70
    32
  0
VERTEX
  8
┌▓È_1
  5
57D
 10
412.054
 20
-1217.30
 30
0.000000
  70
    32
  0
VERTEX
  8
┌▓È_1
  5
57E
 10
412.180
 20
-1217.41
 30
0.000000
  70
    32
  0
VERTEX
  8
┌▓È_1
  5
57F
 10
412.307
 20
-1217.53
 30
0.000000
  70
    32
  0
VERTEX
  8
┌▓È_1
  5
580
 10
412.433
 20
-1217.64
 30
0.000000
  70
    32
  0
VERTEX
  8
┌▓È_1
  5
581
 10
412.560
 20
-1217.76
 30
0.000000
  70
    32
  0
VERTEX
  8
┌▓È_1
  5
582
 10
412.686
 20
-1217.88
 30
0.000000
  70
    32
  0
VERTEX
  8
┌▓È_1
  5
583
 10
412.813
 20
-1217.99
 30
0.000000
  70
    32
  0
VERTEX
  8
┌▓È_1
  5
584
 10
412.939
 20
-1218.11
 30
0.000000
  70
    32
  0
VERTEX
  8
┌▓È_1
  5
585
 10
413.066
 20
-1218.22
 30
0.000000
  70
    32
  0
VERTEX
  8
┌▓È_1
  5
586
 10
413.193
 20
-1218.34
 30
0.000000
  70
    32
  0
VERTEX
  8
┌▓È_1
  5
587
 10
413.319
 20
-1218.45
 30
0.000000
  70
    32
  0
VERTEX
  8
┌▓È_1
  5
588
 10
413.446
 20
-1218.57
 30
0.000000
  70
    32
  0
VERTEX
  8
┌▓È_1
  5
589
 10
413.573
 20
-1218.68
 30
0.000000
  70
    32
  0
VERTEX
  8
┌▓È_1
  5
58A
 10
413.700
 20
-1218.80
 30
0.000000
  70
    32
  0
VERTEX
  8
┌▓È_1
  5
58B
 10
413.827
 20
-1218.91
 30
0.000000
  70
    32
  0
VERTEX
  8
┌▓È_1
  5
58C
 10
413.954
 20
-1219.03
 30
0.000000
  70
    32
  0
VERTEX
  8
┌▓È_1
  5
58D
 10
414.081
 20
-1219.14
 30
0.000000
  70
    32
  0
VERTEX
  8
┌▓È_1
  5
58E
 10
414.208
 20
-1219.25
 30
0.000000
  70
    32
  0
VERTEX
  8
┌▓È_1
  5
58F
 10
414.335
 20
-1219.37
 30
0.000000
  70
    32
  0
VERTEX
  8
┌▓È_1
  5
590
 10
414.462
 20
-1219.48
 30
0.000000
  70
    32
  0
VERTEX
  8
┌▓È_1
  5
591
 10
414.589
 20
-1219.60
 30
0.000000
  70
    32
  0
VERTEX
  8
┌▓È_1
  5
592
 10
414.716
 20
-1219.71
 30
0.000000
  70
    32
  0
VERTEX
  8
┌▓È_1
  5
593
 10
414.844
 20
-1219.82
 30
0.000000
  70
    32
  0
VERTEX
  8
┌▓È_1
  5
594
 10
414.971
 20
-1219.94
 30
0.000000
  70
    32
  0
VERTEX
  8
┌▓È_1
  5
595
 10
415.099
 20
-1220.05
 30
0.000000
  70
    32
  0
VERTEX
  8
┌▓È_1
  5
596
 10
415.226
 20
-1220.17
 30
0.000000
  70
    32
  0
VERTEX
  8
┌▓È_1
  5
597
 10
415.354
 20
-1220.28
 30
0.000000
  70
    32
  0
VERTEX
  8
┌▓È_1
  5
598
 10
415.481
 20
-1220.39
 30
0.000000
  70
    32
  0
VERTEX
  8
┌▓È_1
  5
599
 10
415.609
 20
-1220.51
 30
0.000000
  70
    32
  0
VERTEX
  8
┌▓È_1
  5
59A
 10
415.737
 20
-1220.62
 30
0.000000
  70
    32
  0
VERTEX
  8
┌▓È_1
  5
59B
 10
415.864
 20
-1220.73
 30
0.000000
  70
    32
  0
VERTEX
  8
┌▓È_1
  5
59C
 10
415.992
 20
-1220.85
 30
0.000000
  70
    32
  0
VERTEX
  8
┌▓È_1
  5
59D
 10
416.120
 20
-1220.96
 30
0.000000
  70
    32
  0
VERTEX
  8
┌▓È_1
  5
59E
 10
416.248
 20
-1221.07
 30
0.000000
  70
    32
  0
VERTEX
  8
┌▓È_1
  5
59F
 10
416.376
 20
-1221.18
 30
0.000000
  70
    32
  0
VERTEX
  8
┌▓È_1
  5
5A0
 10
416.505
 20
-1221.30
 30
0.000000
  70
    32
  0
VERTEX
  8
┌▓È_1
  5
5A1
 10
416.633
 20
-1221.41
 30
0.000000
  70
    32
  0
VERTEX
  8
┌▓È_1
  5
5A2
 10
416.761
 20
-1221.52
 30
0.000000
  70
    32
  0
VERTEX
  8
┌▓È_1
  5
5A3
 10
416.890
 20
-1221.63
 30
0.000000
  70
    32
  0
VERTEX
  8
┌▓È_1
  5
5A4
 10
417.018
 20
-1221.74
 30
0.000000
  70
    32
  0
VERTEX
  8
┌▓È_1
  5
5A5
 10
417.147
 20
-1221.86
 30
0.000000
  70
    32
  0
VERTEX
  8
┌▓È_1
  5
5A6
 10
417.275
 20
-1221.97
 30
0.000000
  70
    32
  0
VERTEX
  8
┌▓È_1
  5
5A7
 10
417.404
 20
-1222.08
 30
0.000000
  70
    32
  0
VERTEX
  8
┌▓È_1
  5
5A8
 10
417.533
 20
-1222.19
 30
0.000000
  70
    32
  0
VERTEX
  8
┌▓È_1
  5
5A9
 10
417.662
 20
-1222.30
 30
0.000000
  70
    32
  0
VERTEX
  8
┌▓È_1
  5
5AA
 10
417.791
 20
-1222.41
 30
0.000000
  70
    32
  0
VERTEX
  8
┌▓È_1
  5
5AB
 10
417.920
 20
-1222.52
 30
0.000000
  70
    32
  0
VERTEX
  8
┌▓È_1
  5
5AC
 10
418.049
 20
-1222.63
 30
0.000000
  70
    32
  0
VERTEX
  8
┌▓È_1
  5
5AD
 10
418.178
 20
-1222.74
 30
0.000000
  70
    32
  0
VERTEX
  8
┌▓È_1
  5
5AE
 10
418.307
 20
-1222.85
 30
0.000000
  70
    32
  0
VERTEX
  8
┌▓È_1
  5
5AF
 10
418.437
 20
-1222.96
 30
0.000000
  70
    32
  0
VERTEX
  8
┌▓È_1
  5
5B0
 10
418.566
 20
-1223.07
 30
0.000000
  70
    32
  0
VERTEX
  8
┌▓È_1
  5
5B1
 10
418.696
 20
-1223.18
 30
0.000000
  70
    32
  0
VERTEX
  8
┌▓È_1
  5
5B2
 10
418.826
 20
-1223.29
 30
0.000000
  70
    32
  0
VERTEX
  8
┌▓È_1
  5
5B3
 10
418.955
 20
-1223.40
 30
0.000000
  70
    32
  0
VERTEX
  8
┌▓È_1
  5
5B4
 10
419.085
 20
-1223.51
 30
0.000000
  70
    32
  0
VERTEX
  8
┌▓È_1
  5
5B5
 10
419.215
 20
-1223.62
 30
0.000000
  70
    32
  0
VERTEX
  8
┌▓È_1
  5
5B6
 10
419.345
 20
-1223.73
 30
0.000000
  70
    32
  0
VERTEX
  8
┌▓È_1
  5
5B7
 10
419.476
 20
-1223.84
 30
0.000000
  70
    32
  0
VERTEX
  8
┌▓È_1
  5
5B8
 10
419.606
 20
-1223.95
 30
0.000000
  70
    32
  0
VERTEX
  8
┌▓È_1
  5
5B9
 10
419.736
 20
-1224.05
 30
0.000000
  70
    32
  0
VERTEX
  8
┌▓È_1
  5
5BA
 10
419.867
 20
-1224.16
 30
0.000000
  70
    32
  0
VERTEX
  8
┌▓È_1
  5
5BB
 10
419.998
 20
-1224.27
 30
0.000000
  70
    32
  0
VERTEX
  8
┌▓È_1
  5
5BC
 10
420.128
 20
-1224.38
 30
0.000000
  70
    32
  0
VERTEX
  8
┌▓È_1
  5
5BD
 10
420.259
 20
-1224.48
 30
0.000000
  70
    32
  0
VERTEX
  8
┌▓È_1
  5
5BE
 10
420.390
 20
-1224.59
 30
0.000000
  70
    32
  0
VERTEX
  8
┌▓È_1
  5
5BF
 10
420.521
 20
-1224.70
 30
0.000000
  70
    32
  0
VERTEX
  8
┌▓È_1
  5
5C0
 10
420.652
 20
-1224.80
 30
0.000000
  70
    32
  0
VERTEX
  8
┌▓È_1
  5
5C1
 10
420.784
 20
-1224.91
 30
0.000000
  70
    32
  0
VERTEX
  8
┌▓È_1
  5
5C2
 10
420.915
 20
-1225.02
 30
0.000000
  70
    32
  0
VERTEX
  8
┌▓È_1
  5
5C3
 10
421.047
 20
-1225.12
 30
0.000000
  70
    32
  0
VERTEX
  8
┌▓È_1
  5
5C4
 10
421.178
 20
-1225.23
 30
0.000000
  70
    32
  0
VERTEX
  8
┌▓È_1
  5
5C5
 10
421.310
 20
-1225.34
 30
0.000000
  70
    32
  0
VERTEX
  8
┌▓È_1
  5
5C6
 10
421.442
 20
-1225.44
 30
0.000000
  70
    32
  0
VERTEX
  8
┌▓È_1
  5
5C7
 10
421.574
 20
-1225.55
 30
0.000000
  70
    32
  0
VERTEX
  8
┌▓È_1
  5
5C8
 10
421.706
 20
-1225.65
 30
0.000000
  70
    32
  0
VERTEX
  8
┌▓È_1
  5
5C9
 10
421.839
 20
-1225.76
 30
0.000000
  70
    32
  0
VERTEX
  8
┌▓È_1
  5
5CA
 10
421.971
 20
-1225.86
 30
0.000000
  70
    32
  0
VERTEX
  8
┌▓È_1
  5
5CB
 10
422.104
 20
-1225.96
 30
0.000000
  70
    32
  0
VERTEX
  8
┌▓È_1
  5
5CC
 10
422.236
 20
-1226.07
 30
0.000000
  70
    32
  0
VERTEX
  8
┌▓È_1
  5
5CD
 10
422.369
 20
-1226.17
 30
0.000000
  70
    32
  0
VERTEX
  8
┌▓È_1
  5
5CE
 10
422.502
 20
-1226.28
 30
0.000000
  70
    32
  0
VERTEX
  8
┌▓È_1
  5
5CF
 10
422.635
 20
-1226.38
 30
0.000000
  70
    32
  0
VERTEX
  8
┌▓È_1
  5
5D0
 10
422.768
 20
-1226.48
 30
0.000000
  70
    32
  0
VERTEX
  8
┌▓È_1
  5
5D1
 10
422.902
 20
-1226.58
 30
0.000000
  70
    32
  0
VERTEX
  8
┌▓È_1
  5
5D2
 10
423.035
 20
-1226.69
 30
0.000000
  70
    32
  0
VERTEX
  8
┌▓È_1
  5
5D3
 10
423.169
 20
-1226.79
 30
0.000000
  70
    32
  0
VERTEX
  8
┌▓È_1
  5
5D4
 10
423.303
 20
-1226.89
 30
0.000000
  70
    32
  0
VERTEX
  8
┌▓È_1
  5
5D5
 10
423.437
 20
-1226.99
 30
0.000000
  70
    32
  0
VERTEX
  8
┌▓È_1
  5
5D6
 10
423.571
 20
-1227.09
 30
0.000000
  70
    32
  0
VERTEX
  8
┌▓È_1
  5
5D7
 10
423.705
 20
-1227.20
 30
0.000000
  70
    32
  0
VERTEX
  8
┌▓È_1
  5
5D8
 10
423.839
 20
-1227.30
 30
0.000000
  70
    32
  0
VERTEX
  8
┌▓È_1
  5
5D9
 10
423.974
 20
-1227.40
 30
0.000000
  70
    32
  0
VERTEX
  8
┌▓È_1
  5
5DA
 10
424.108
 20
-1227.50
 30
0.000000
  70
    32
  0
VERTEX
  8
┌▓È_1
  5
5DB
 10
424.243
 20
-1227.60
 30
0.000000
  70
    32
  0
VERTEX
  8
┌▓È_1
  5
5DC
 10
424.378
 20
-1227.70
 30
0.000000
  70
    32
  0
VERTEX
  8
┌▓È_1
  5
5DD
 10
424.513
 20
-1227.80
 30
0.000000
  70
    32
  0
VERTEX
  8
┌▓È_1
  5
5DE
 10
424.649
 20
-1227.90
 30
0.000000
  70
    32
  0
VERTEX
  8
┌▓È_1
  5
5DF
 10
424.784
 20
-1228.00
 30
0.000000
  70
    32
  0
VERTEX
  8
┌▓È_1
  5
5E0
 10
424.920
 20
-1228.09
 30
0.000000
  70
    32
  0
VERTEX
  8
┌▓È_1
  5
5E1
 10
425.055
 20
-1228.19
 30
0.000000
  70
    32
  0
VERTEX
  8
┌▓È_1
  5
5E2
 10
425.191
 20
-1228.29
 30
0.000000
  70
    32
  0
VERTEX
  8
┌▓È_1
  5
5E3
 10
425.327
 20
-1228.39
 30
0.000000
  70
    32
  0
VERTEX
  8
┌▓È_1
  5
5E4
 10
425.464
 20
-1228.49
 30
0.000000
  70
    32
  0
VERTEX
  8
┌▓È_1
  5
5E5
 10
425.600
 20
-1228.58
 30
0.000000
  70
    32
  0
VERTEX
  8
┌▓È_1
  5
5E6
 10
425.736
 20
-1228.68
 30
0.000000
  70
    32
  0
VERTEX
  8
┌▓È_1
  5
5E7
 10
425.873
 20
-1228.78
 30
0.000000
  70
    32
  0
VERTEX
  8
┌▓È_1
  5
5E8
 10
426.010
 20
-1228.87
 30
0.000000
  70
    32
  0
VERTEX
  8
┌▓È_1
  5
5E9
 10
426.147
 20
-1228.97
 30
0.000000
  70
    32
  0
VERTEX
  8
┌▓È_1
  5
5EA
 10
426.284
 20
-1229.06
 30
0.000000
  70
    32
  0
VERTEX
  8
┌▓È_1
  5
5EB
 10
426.422
 20
-1229.16
 30
0.000000
  70
    32
  0
VERTEX
  8
┌▓È_1
  5
5EC
 10
426.559
 20
-1229.25
 30
0.000000
  70
    32
  0
VERTEX
  8
┌▓È_1
  5
5ED
 10
426.697
 20
-1229.35
 30
0.000000
  70
    32
  0
VERTEX
  8
┌▓È_1
  5
5EE
 10
426.835
 20
-1229.44
 30
0.000000
  70
    32
  0
VERTEX
  8
┌▓È_1
  5
5EF
 10
426.973
 20
-1229.54
 30
0.000000
  70
    32
  0
VERTEX
  8
┌▓È_1
  5
5F0
 10
427.111
 20
-1229.63
 30
0.000000
  70
    32
  0
VERTEX
  8
┌▓È_1
  5
5F1
 10
427.250
 20
-1229.72
 30
0.000000
  70
    32
  0
VERTEX
  8
┌▓È_1
  5
5F2
 10
427.388
 20
-1229.82
 30
0.000000
  70
    32
  0
VERTEX
  8
┌▓È_1
  5
5F3
 10
427.527
 20
-1229.91
 30
0.000000
  70
    32
  0
VERTEX
  8
┌▓È_1
  5
5F4
 10
427.666
 20
-1230.00
 30
0.000000
  70
    32
  0
VERTEX
  8
┌▓È_1
  5
5F5
 10
427.805
 20
-1230.09
 30
0.000000
  70
    32
  0
VERTEX
  8
┌▓È_1
  5
5F6
 10
427.945
 20
-1230.19
 30
0.000000
  70
    32
  0
VERTEX
  8
┌▓È_1
  5
5F7
 10
428.084
 20
-1230.28
 30
0.000000
  70
    32
  0
VERTEX
  8
┌▓È_1
  5
5F8
 10
428.224
 20
-1230.37
 30
0.000000
  70
    32
  0
VERTEX
  8
┌▓È_1
  5
5F9
 10
428.364
 20
-1230.46
 30
0.000000
  70
    32
  0
VERTEX
  8
┌▓È_1
  5
5FA
 10
428.504
 20
-1230.55
 30
0.000000
  70
    32
  0
VERTEX
  8
┌▓È_1
  5
5FB
 10
428.644
 20
-1230.64
 30
0.000000
  70
    32
  0
VERTEX
  8
┌▓È_1
  5
5FC
 10
428.785
 20
-1230.73
 30
0.000000
  70
    32
  0
VERTEX
  8
┌▓È_1
  5
5FD
 10
428.926
 20
-1230.82
 30
0.000000
  70
    32
  0
VERTEX
  8
┌▓È_1
  5
5FE
 10
429.066
 20
-1230.91
 30
0.000000
  70
    32
  0
VERTEX
  8
┌▓È_1
  5
5FF
 10
429.208
 20
-1230.99
 30
0.000000
  70
    32
  0
VERTEX
  8
┌▓È_1
  5
600
 10
429.349
 20
-1231.08
 30
0.000000
  70
    32
  0
VERTEX
  8
┌▓È_1
  5
601
 10
429.490
 20
-1231.17
 30
0.000000
  70
    32
  0
VERTEX
  8
┌▓È_1
  5
602
 10
429.632
 20
-1231.26
 30
0.000000
  70
    32
  0
VERTEX
  8
┌▓È_1
  5
603
 10
429.774
 20
-1231.35
 30
0.000000
  70
    32
  0
VERTEX
  8
┌▓È_1
  5
604
 10
429.916
 20
-1231.43
 30
0.000000
  70
    32
  0
VERTEX
  8
┌▓È_1
  5
605
 10
430.058
 20
-1231.52
 30
0.000000
  70
    32
  0
VERTEX
  8
┌▓È_1
  5
606
 10
430.201
 20
-1231.60
 30
0.000000
  70
    32
  0
SEQEND
  8
┌▓È_1
  5
607
  0
POLYLINE
  8
┌▓È_1
  5
608
  66
     1
 10
0.000000
 20
0.000000
 30
0.000000
  70
     8
  0
VERTEX
  8
┌▓È_1
  5
609
 10
433.318
 20
-1216.45
 30
0.000000
  70
    32
  0
VERTEX
  8
┌▓È_1
  5
60A
 10
433.364
 20
-1216.50
 30
0.000000
  70
    32
  0
VERTEX
  8
┌▓È_1
  5
60B
 10
433.410
 20
-1216.55
 30
0.000000
  70
    32
  0
VERTEX
  8
┌▓È_1
  5
60C
 10
433.456
 20
-1216.61
 30
0.000000
  70
    32
  0
VERTEX
  8
┌▓È_1
  5
60D
 10
433.503
 20
-1216.66
 30
0.000000
  70
    32
  0
VERTEX
  8
┌▓È_1
  5
60E
 10
433.549
 20
-1216.71
 30
0.000000
  70
    32
  0
VERTEX
  8
┌▓È_1
  5
60F
 10
433.595
 20
-1216.76
 30
0.000000
  70
    32
  0
VERTEX
  8
┌▓È_1
  5
610
 10
433.641
 20
-1216.81
 30
0.000000
  70
    32
  0
VERTEX
  8
┌▓È_1
  5
611
 10
433.687
 20
-1216.86
 30
0.000000
  70
    32
  0
VERTEX
  8
┌▓È_1
  5
612
 10
433.734
 20
-1216.91
 30
0.000000
  70
    32
  0
VERTEX
  8
┌▓È_1
  5
613
 10
433.780
 20
-1216.97
 30
0.000000
  70
    32
  0
VERTEX
  8
┌▓È_1
  5
614
 10
433.826
 20
-1217.02
 30
0.000000
  70
    32
  0
VERTEX
  8
┌▓È_1
  5
615
 10
433.872
 20
-1217.07
 30
0.000000
  70
    32
  0
VERTEX
  8
┌▓È_1
  5
616
 10
433.919
 20
-1217.12
 30
0.000000
  70
    32
  0
VERTEX
  8
┌▓È_1
  5
617
 10
433.965
 20
-1217.17
 30
0.000000
  70
    32
  0
VERTEX
  8
┌▓È_1
  5
618
 10
434.011
 20
-1217.22
 30
0.000000
  70
    32
  0
VERTEX
  8
┌▓È_1
  5
619
 10
434.057
 20
-1217.27
 30
0.000000
  70
    32
  0
VERTEX
  8
┌▓È_1
  5
61A
 10
434.104
 20
-1217.33
 30
0.000000
  70
    32
  0
VERTEX
  8
┌▓È_1
  5
61B
 10
434.150
 20
-1217.38
 30
0.000000
  70
    32
  0
VERTEX
  8
┌▓È_1
  5
61C
 10
434.196
 20
-1217.43
 30
0.000000
  70
    32
  0
VERTEX
  8
┌▓È_1
  5
61D
 10
434.242
 20
-1217.48
 30
0.000000
  70
    32
  0
VERTEX
  8
┌▓È_1
  5
61E
 10
434.289
 20
-1217.53
 30
0.000000
  70
    32
  0
VERTEX
  8
┌▓È_1
  5
61F
 10
434.335
 20
-1217.58
 30
0.000000
  70
    32
  0
VERTEX
  8
┌▓È_1
  5
620
 10
434.381
 20
-1217.63
 30
0.000000
  70
    32
  0
VERTEX
  8
┌▓È_1
  5
621
 10
434.428
 20
-1217.69
 30
0.000000
  70
    32
  0
VERTEX
  8
┌▓È_1
  5
622
 10
434.474
 20
-1217.74
 30
0.000000
  70
    32
  0
VERTEX
  8
┌▓È_1
  5
623
 10
434.520
 20
-1217.79
 30
0.000000
  70
    32
  0
VERTEX
  8
┌▓È_1
  5
624
 10
434.567
 20
-1217.84
 30
0.000000
  70
    32
  0
VERTEX
  8
┌▓È_1
  5
625
 10
434.613
 20
-1217.89
 30
0.000000
  70
    32
  0
VERTEX
  8
┌▓È_1
  5
626
 10
434.659
 20
-1217.94
 30
0.000000
  70
    32
  0
VERTEX
  8
┌▓È_1
  5
627
 10
434.706
 20
-1217.99
 30
0.000000
  70
    32
  0
VERTEX
  8
┌▓È_1
  5
628
 10
434.752
 20
-1218.04
 30
0.000000
  70
    32
  0
VERTEX
  8
┌▓È_1
  5
629
 10
434.799
 20
-1218.09
 30
0.000000
  70
    32
  0
VERTEX
  8
┌▓È_1
  5
62A
 10
434.845
 20
-1218.15
 30
0.000000
  70
    32
  0
VERTEX
  8
┌▓È_1
  5
62B
 10
434.892
 20
-1218.20
 30
0.000000
  70
    32
  0
VERTEX
  8
┌▓È_1
  5
62C
 10
434.938
 20
-1218.25
 30
0.000000
  70
    32
  0
VERTEX
  8
┌▓È_1
  5
62D
 10
434.985
 20
-1218.30
 30
0.000000
  70
    32
  0
VERTEX
  8
┌▓È_1
  5
62E
 10
435.031
 20
-1218.35
 30
0.000000
  70
    32
  0
VERTEX
  8
┌▓È_1
  5
62F
 10
435.078
 20
-1218.40
 30
0.000000
  70
    32
  0
VERTEX
  8
┌▓È_1
  5
630
 10
435.124
 20
-1218.45
 30
0.000000
  70
    32
  0
VERTEX
  8
┌▓È_1
  5
631
 10
435.171
 20
-1218.50
 30
0.000000
  70
    32
  0
VERTEX
  8
┌▓È_1
  5
632
 10
435.217
 20
-1218.55
 30
0.000000
  70
    32
  0
VERTEX
  8
┌▓È_1
  5
633
 10
435.264
 20
-1218.60
 30
0.000000
  70
    32
  0
VERTEX
  8
┌▓È_1
  5
634
 10
435.311
 20
-1218.66
 30
0.000000
  70
    32
  0
VERTEX
  8
┌▓È_1
  5
635
 10
435.357
 20
-1218.71
 30
0.000000
  70
    32
  0
VERTEX
  8
┌▓È_1
  5
636
 10
435.404
 20
-1218.76
 30
0.000000
  70
    32
  0
VERTEX
  8
┌▓È_1
  5
637
 10
435.451
 20
-1218.81
 30
0.000000
  70
    32
  0
VERTEX
  8
┌▓È_1
  5
638
 10
435.497
 20
-1218.86
 30
0.000000
  70
    32
  0
VERTEX
  8
┌▓È_1
  5
639
 10
435.544
 20
-1218.91
 30
0.000000
  70
    32
  0
VERTEX
  8
┌▓È_1
  5
63A
 10
435.591
 20
-1218.96
 30
0.000000
  70
    32
  0
VERTEX
  8
┌▓È_1
  5
63B
 10
435.638
 20
-1219.01
 30
0.000000
  70
    32
  0
VERTEX
  8
┌▓È_1
  5
63C
 10
435.684
 20
-1219.06
 30
0.000000
  70
    32
  0
VERTEX
  8
┌▓È_1
  5
63D
 10
435.731
 20
-1219.11
 30
0.000000
  70
    32
  0
VERTEX
  8
┌▓È_1
  5
63E
 10
435.778
 20
-1219.16
 30
0.000000
  70
    32
  0
VERTEX
  8
┌▓È_1
  5
63F
 10
435.825
 20
-1219.21
 30
0.000000
  70
    32
  0
VERTEX
  8
┌▓È_1
  5
640
 10
435.872
 20
-1219.26
 30
0.000000
  70
    32
  0
VERTEX
  8
┌▓È_1
  5
641
 10
435.919
 20
-1219.31
 30
0.000000
  70
    32
  0
VERTEX
  8
┌▓È_1
  5
642
 10
435.966
 20
-1219.36
 30
0.000000
  70
    32
  0
VERTEX
  8
┌▓È_1
  5
643
 10
436.013
 20
-1219.41
 30
0.000000
  70
    32
  0
VERTEX
  8
┌▓È_1
  5
644
 10
436.060
 20
-1219.46
 30
0.000000
  70
    32
  0
VERTEX
  8
┌▓È_1
  5
645
 10
436.107
 20
-1219.51
 30
0.000000
  70
    32
  0
VERTEX
  8
┌▓È_1
  5
646
 10
436.154
 20
-1219.56
 30
0.000000
  70
    32
  0
VERTEX
  8
┌▓È_1
  5
647
 10
436.201
 20
-1219.61
 30
0.000000
  70
    32
  0
VERTEX
  8
┌▓È_1
  5
648
 10
436.248
 20
-1219.66
 30
0.000000
  70
    32
  0
VERTEX
  8
┌▓È_1
  5
649
 10
436.295
 20
-1219.71
 30
0.000000
  70
    32
  0
VERTEX
  8
┌▓È_1
  5
64A
 10
436.342
 20
-1219.76
 30
0.000000
  70
    32
  0
VERTEX
  8
┌▓È_1
  5
64B
 10
436.390
 20
-1219.81
 30
0.000000
  70
    32
  0
VERTEX
  8
┌▓È_1
  5
64C
 10
436.437
 20
-1219.86
 30
0.000000
  70
    32
  0
VERTEX
  8
┌▓È_1
  5
64D
 10
436.484
 20
-1219.91
 30
0.000000
  70
    32
  0
VERTEX
  8
┌▓È_1
  5
64E
 10
436.532
 20
-1219.96
 30
0.000000
  70
    32
  0
VERTEX
  8
┌▓È_1
  5
64F
 10
436.579
 20
-1220.01
 30
0.000000
  70
    32
  0
VERTEX
  8
┌▓È_1
  5
650
 10
436.626
 20
-1220.06
 30
0.000000
  70
    32
  0
VERTEX
  8
┌▓È_1
  5
651
 10
436.674
 20
-1220.11
 30
0.000000
  70
    32
  0
VERTEX
  8
┌▓È_1
  5
652
 10
436.721
 20
-1220.16
 30
0.000000
  70
    32
  0
VERTEX
  8
┌▓È_1
  5
653
 10
436.769
 20
-1220.21
 30
0.000000
  70
    32
  0
VERTEX
  8
┌▓È_1
  5
654
 10
436.816
 20
-1220.26
 30
0.000000
  70
    32
  0
VERTEX
  8
┌▓È_1
  5
655
 10
436.864
 20
-1220.31
 30
0.000000
  70
    32
  0
VERTEX
  8
┌▓È_1
  5
656
 10
436.911
 20
-1220.36
 30
0.000000
  70
    32
  0
VERTEX
  8
┌▓È_1
  5
657
 10
436.959
 20
-1220.41
 30
0.000000
  70
    32
  0
VERTEX
  8
┌▓È_1
  5
658
 10
437.007
 20
-1220.46
 30
0.000000
  70
    32
  0
VERTEX
  8
┌▓È_1
  5
659
 10
437.054
 20
-1220.51
 30
0.000000
  70
    32
  0
VERTEX
  8
┌▓È_1
  5
65A
 10
437.102
 20
-1220.55
 30
0.000000
  70
    32
  0
VERTEX
  8
┌▓È_1
  5
65B
 10
437.150
 20
-1220.60
 30
0.000000
  70
    32
  0
VERTEX
  8
┌▓È_1
  5
65C
 10
437.198
 20
-1220.65
 30
0.000000
  70
    32
  0
VERTEX
  8
┌▓È_1
  5
65D
 10
437.245
 20
-1220.70
 30
0.000000
  70
    32
  0
VERTEX
  8
┌▓È_1
  5
65E
 10
437.293
 20
-1220.75
 30
0.000000
  70
    32
  0
VERTEX
  8
┌▓È_1
  5
65F
 10
437.341
 20
-1220.80
 30
0.000000
  70
    32
  0
VERTEX
  8
┌▓È_1
  5
660
 10
437.389
 20
-1220.85
 30
0.000000
  70
    32
  0
VERTEX
  8
┌▓È_1
  5
661
 10
437.437
 20
-1220.90
 30
0.000000
  70
    32
  0
VERTEX
  8
┌▓È_1
  5
662
 10
437.485
 20
-1220.94
 30
0.000000
  70
    32
  0
VERTEX
  8
┌▓È_1
  5
663
 10
437.533
 20
-1220.99
 30
0.000000
  70
    32
  0
VERTEX
  8
┌▓È_1
  5
664
 10
437.582
 20
-1221.04
 30
0.000000
  70
    32
  0
VERTEX
  8
┌▓È_1
  5
665
 10
437.630
 20
-1221.09
 30
0.000000
  70
    32
  0
VERTEX
  8
┌▓È_1
  5
666
 10
437.678
 20
-1221.14
 30
0.000000
  70
    32
  0
VERTEX
  8
┌▓È_1
  5
667
 10
437.726
 20
-1221.19
 30
0.000000
  70
    32
  0
VERTEX
  8
┌▓È_1
  5
668
 10
437.775
 20
-1221.23
 30
0.000000
  70
    32
  0
VERTEX
  8
┌▓È_1
  5
669
 10
437.823
 20
-1221.28
 30
0.000000
  70
    32
  0
VERTEX
  8
┌▓È_1
  5
66A
 10
437.871
 20
-1221.33
 30
0.000000
  70
    32
  0
VERTEX
  8
┌▓È_1
  5
66B
 10
437.920
 20
-1221.38
 30
0.000000
  70
    32
  0
VERTEX
  8
┌▓È_1
  5
66C
 10
437.968
 20
-1221.43
 30
0.000000
  70
    32
  0
VERTEX
  8
┌▓È_1
  5
66D
 10
438.017
 20
-1221.47
 30
0.000000
  70
    32
  0
VERTEX
  8
┌▓È_1
  5
66E
 10
438.066
 20
-1221.52
 30
0.000000
  70
    32
  0
VERTEX
  8
┌▓È_1
  5
66F
 10
438.114
 20
-1221.57
 30
0.000000
  70
    32
  0
VERTEX
  8
┌▓È_1
  5
670
 10
438.163
 20
-1221.62
 30
0.000000
  70
    32
  0
VERTEX
  8
┌▓È_1
  5
671
 10
438.212
 20
-1221.66
 30
0.000000
  70
    32
  0
VERTEX
  8
┌▓È_1
  5
672
 10
438.261
 20
-1221.71
 30
0.000000
  70
    32
  0
VERTEX
  8
┌▓È_1
  5
673
 10
438.309
 20
-1221.76
 30
0.000000
  70
    32
  0
VERTEX
  8
┌▓È_1
  5
674
 10
438.358
 20
-1221.81
 30
0.000000
  70
    32
  0
VERTEX
  8
┌▓È_1
  5
675
 10
438.407
 20
-1221.85
 30
0.000000
  70
    32
  0
VERTEX
  8
┌▓È_1
  5
676
 10
438.456
 20
-1221.90
 30
0.000000
  70
    32
  0
VERTEX
  8
┌▓È_1
  5
677
 10
438.505
 20
-1221.95
 30
0.000000
  70
    32
  0
VERTEX
  8
┌▓È_1
  5
678
 10
438.554
 20
-1221.99
 30
0.000000
  70
    32
  0
VERTEX
  8
┌▓È_1
  5
679
 10
438.604
 20
-1222.04
 30
0.000000
  70
    32
  0
VERTEX
  8
┌▓È_1
  5
67A
 10
438.653
 20
-1222.09
 30
0.000000
  70
    32
  0
VERTEX
  8
┌▓È_1
  5
67B
 10
438.702
 20
-1222.13
 30
0.000000
  70
    32
  0
VERTEX
  8
┌▓È_1
  5
67C
 10
438.751
 20
-1222.18
 30
0.000000
  70
    32
  0
VERTEX
  8
┌▓È_1
  5
67D
 10
438.801
 20
-1222.23
 30
0.000000
  70
    32
  0
VERTEX
  8
┌▓È_1
  5
67E
 10
438.850
 20
-1222.27
 30
0.000000
  70
    32
  0
VERTEX
  8
┌▓È_1
  5
67F
 10
438.900
 20
-1222.32
 30
0.000000
  70
    32
  0
VERTEX
  8
┌▓È_1
  5
680
 10
438.949
 20
-1222.36
 30
0.000000
  70
    32
  0
VERTEX
  8
┌▓È_1
  5
681
 10
438.999
 20
-1222.41
 30
0.000000
  70
    32
  0
VERTEX
  8
┌▓È_1
  5
682
 10
439.048
 20
-1222.46
 30
0.000000
  70
    32
  0
VERTEX
  8
┌▓È_1
  5
683
 10
439.098
 20
-1222.50
 30
0.000000
  70
    32
  0
VERTEX
  8
┌▓È_1
  5
684
 10
439.148
 20
-1222.55
 30
0.000000
  70
    32
  0
VERTEX
  8
┌▓È_1
  5
685
 10
439.198
 20
-1222.59
 30
0.000000
  70
    32
  0
VERTEX
  8
┌▓È_1
  5
686
 10
439.248
 20
-1222.64
 30
0.000000
  70
    32
  0
VERTEX
  8
┌▓È_1
  5
687
 10
439.298
 20
-1222.68
 30
0.000000
  70
    32
  0
VERTEX
  8
┌▓È_1
  5
688
 10
439.348
 20
-1222.73
 30
0.000000
  70
    32
  0
SEQEND
  8
┌▓È_1
  5
689
  0
LINE
  5
104
  8
┌▓È_1
 62
     5
 10
-47.587003989499998
 20
-527.7202845981999
 30
0.0
 11
-47.887003989499988
 21
-527.7202845981999
 31
0.0
  0
LINE
  5
105
  8
┌▓È_1
 62
     5
 10
-47.884374999999991
 20
-511.34493795039992
 30
0.0
 11
-47.884374999999991
 21
-532.74999999999989
 31
0.0
  0
LINE
  5
106
  8
┌▓È_1
 62
     5
 10
-47.887003989499988
 20
-509.72028459820001
 30
0.0
 11
-47.587003989499998
 21
-509.72028459820001
 31
0.0
  0
ARC
  5
107
  8
┌▓È_1
 62
     5
 10
-47.587003989499998
 20
-510.72028459820001
 30
0.0
 40
1.0
 50
0.0
 51
90.0
  0
LINE
  5
108
  8
┌▓È_1
 62
     5
 10
-10.159298147399999
 20
-518.95000000000005
 30
0.0
 11
29.840701852599999
 21
-518.95000000000005
 31
0.0
  0
LINE
  5
109
  8
┌▓È_1
  6
BORDER
 62
     5
 10
-42.713516493999997
 20
-527.14999999999986
 30
0.0
 11
137.1724738442
 21
-527.14999999999986
 31
0.0
  0
LINE
  5
10A
  8
┌▓È_1
 62
     5
 10
38.305990314200002
 20
-533.95000000000005
 30
0.0
 11
-43.194009685799998
 21
-533.95000000000005
 31
0.0
  0
LINE
  5
10B
  8
┌▓È_1
 62
     5
 10
38.305990314200002
 20
-534.75
 30
0.0
 11
-47.884374999999991
 21
-534.75
 31
0.0
  0
LINE
  5
10C
  8
┌▓È_1
 62
     5
 10
29.840701852599999
 20
-518.95000000000005
 30
0.0
 11
38.305990314200002
 21
-518.95000000000005
 31
0.0
  0
LINE
  5
10D
  8
┌▓È_1
 62
     5
 10
38.305990314200002
 20
-534.75
 30
0.0
 11
38.305990314200002
 21
-535.35000000000002
 31
0.0
  0
LINE
  5
10E
  8
┌▓È_1
  6
BORDER
 62
     5
 10
48.305990314200002
 20
-515.24901164330004
 30
0.0
 11
48.305990314200002
 21
-538.79692830989995
 31
0.0
  0
ARC
  5
10F
  8
┌▓È_1
 62
     5
 10
143.81562500000001
 20
-526.75
 30
0.0
 40
1.0
 50
269.44796462620002
 51
270.0
  0
LINE
  5
110
  8
┌▓È_1
 62
     5
 10
142.81562500000001
 20
-510.74999999999989
 30
0.0
 11
142.81562500000001
 21
-518.95000000000005
 31
0.0
  0
LINE
  5
111
  8
┌▓È_1
 62
     5
 10
143.81562500000001
 20
-527.74999999999989
 30
0.0
 11
144.11562499999999
 21
-527.74999999999989
 31
0.0
  0
LINE
  5
112
  8
┌▓È_1
 62
     5
 10
144.11562499999999
 20
-509.75
 30
0.0
 11
143.81562500000001
 21
-509.75
 31
0.0
  0
LINE
  5
113
  8
┌▓È_1
 10
331.153431668
 20
-1245.2360808984999
 30
0.0
 11
359.15343166800011
 21
-1245.2360808984999
 31
0.0
  0
LINE
  5
114
  8
┌▓È_1
 62
     5
 10
-46.050581057199999
 20
-532.74999999999989
 30
0.0
 11
-47.884374999999991
 21
-532.74999999999989
 31
0.0
  0
LINE
  5
115
  8
┌▓È_1
 10
390.65343166800011
 20
-1196.2360808984999
 30
0.0
 11
362.65343166800011
 21
-1196.2360808984999
 31
0.0
  0
ARC
  5
116
  8
┌▓È_1
 62
     5
 10
-47.587003989499998
 20
-526.72028459820001
 30
0.0
 40
1.0
 50
270.0
 51
293.14094249599998
  0
LINE
  5
117
  8
┌▓È_1
 10
380.15343166800011
 20
-1220.7360808984999
 30
0.0
 11
390.65343166800011
 21
-1220.7360808984999
 31
0.0
  0
LINE
  5
118
  8
┌▓È_1
  6
BORDER
 62
     5
 10
-31.694009685800001
 20
-515.24901164330004
 30
0.0
 11
-31.694009685800001
 21
-538.79692830989995
 31
0.0
  0
LINE
  5
119
  8
┌▓È_1
 62
     5
 10
-47.19400968579999
 20
-518.95000000000005
 30
0.0
 11
-10.159298147399999
 21
-518.95000000000005
 31
0.0
  0
LINE
  5
11A
  8
┌▓È_1
 62
     5
 10
69.840701852600006
 20
-518.95000000000005
 30
0.0
 11
106.7712787758
 21
-518.95000000000005
 31
0.0
  0
LINE
  5
11B
  8
┌▓È_1
 62
     5
 10
139.80599031419999
 20
-533.95000000000005
 30
0.0
 11
58.305990314200002
 21
-533.95000000000005
 31
0.0
  0
LINE
  5
11C
  8
┌▓È_1
 62
     5
 10
38.305990314200002
 20
-518.35000000000002
 30
0.0
 11
38.305990314200002
 21
-534.75
 31
0.0
  0
LINE
  5
11D
  8
┌▓È_1
 62
     5
 10
-497.79296875
 20
315.2721422697
 30
0.0
 11
-648.07444997870004
 21
315.2721422697
 31
0.0
  0
LINE
  5
11E
  8
┌▓È_1
 62
     5
 10
-497.79296875
 20
385.2721422697
 30
0.0
 11
-648.07444997870004
 21
385.2721422697
 31
0.0
  0
LINE
  5
11F
  8
┌▓È_1
 62
     5
 10
-497.79296875
 20
395.2721422697
 30
0.0
 11
-648.07444997870004
 21
395.2721422697
 31
0.0
  0
LINE
  5
120
  8
┌▓È_1
 62
     5
 10
-497.79296875
 20
425.2721422697
 30
0.0
 11
-648.07444997870004
 21
425.2721422697
 31
0.0
  0
LINE
  5
121
  8
┌▓È_1
 62
     5
 10
-497.79296875
 20
235.2721422697
 30
0.0
 11
-648.07444997870004
 21
235.2721422697
 31
0.0
  0
LINE
  5
122
  8
┌▓È_1
 62
     5
 10
-497.79296875
 20
265.2721422697
 30
0.0
 11
-648.07444997870004
 21
265.2721422697
 31
0.0
  0
LINE
  5
123
  8
┌▓È_1
 62
     5
 10
-497.79296875
 20
345.2721422697
 30
0.0
 11
-648.07444997870004
 21
345.2721422697
 31
0.0
  0
LINE
  5
124
  8
┌▓È_1
 62
     5
 10
-497.79296875
 20
355.2721422697
 30
0.0
 11
-648.07444997870004
 21
355.2721422697
 31
0.0
  0
LINE
  5
125
  8
┌▓È_1
 62
     5
 10
-497.79296875
 20
435.27214226969988
 30
0.0
 11
-648.30572128929987
 21
435.27214226969988
 31
0.0
  0
INSERT
  5
127
  8
Éíû@É³
 62
     5
  2
BALLON0
 10
0.0
 20
0.0
 30
0.0
  0
DIMENSION
  5
13F
  8
Éíû@É³
 62
     5
  2
*D2
 10
-49.884374999999991
 20
-637.75
 30
0.0
 11
48.115625000000001
 21
-637.75
 31
0.0
 70
   128
  1
<>
 13
-49.884374999999991
 23
-532.74999999999989
 33
0.0
 14
146.11562499999999
 24
-532.74999999999989
 34
0.0
 50
180.0
  0
INSERT
  5
140
  8
0
  6
CONTINUOUS
  2
*U27
 10
0.0
 20
0.0
 30
0.0
  0
INSERT
  5
141
  8
0
  6
CONTINUOUS
  2
*U28
 10
0.0
 20
0.0
 30
0.0
  0
INSERT
  5
142
  8
0
  6
CONTINUOUS
  2
*U29
 10
0.0
 20
0.0
 30
0.0
  0
INSERT
  5
143
  8
0
  6
CONTINUOUS
  2
*U30
 10
0.0
 20
0.0
 30
0.0
  0
INSERT
  5
144
  8
0
  6
CONTINUOUS
  2
*U31
 10
0.0
 20
0.0
 30
0.0
  0
LINE
  5
145
  8
┌▓È_1
 62
     5
 10
148.4691070865
 20
-518.75
 30
0.0
 11
140.3872889047
 21
-518.75
 31
0.0
  0
LINE
  5
146
  8
┌▓È_1
 62
     5
 10
-46.587003989499991
 20
-510.72028459820001
 30
0.0
 11
-46.587003989499991
 21
-518.95000000000005
 31
0.0
  0
ARC
  5
147
  8
┌▓È_1
 62
     5
 10
144.11562499999999
 20
-532.74999999999989
 30
0.0
 40
2.0
 50
270.0
 51
0.0
  0
LINE
  5
148
  8
┌▓È_1
 10
477.02890624999992
 20
-1030.2322916666999
 30
0.0
 11
477.02890624999992
 21
-1184.2322916666999
 31
0.0
  0
ARC
  5
149
  8
┌▓È_1
 62
     5
 10
-47.884374999999991
 20
-532.74999999999989
 30
0.0
 40
2.0
 50
180.0
 51
270.0
  0
ARC
  5
14A
  8
┌▓È_1
 62
     5
 10
-43.194009685799998
 20
-529.95000000000005
 30
0.0
 40
4.0
 50
180.0
 51
270.0
  0
LINE
  5
14B
  8
┌▓È_1
 62
     5
 10
-47.19400968579999
 20
-529.95000000000005
 30
0.0
 11
-47.19400968579999
 21
-518.95000000000005
 31
0.0
  0
LINE
  5
14C
  8
┌▓È_1
 62
     5
 10
-43.826852509499993
 20
-518.75
 30
0.0
 11
-53.191498974099993
 21
-518.75
 31
0.0
  0
LINE
  5
14D
  8
┌▓È_1
 62
     5
 10
-49.884374999999991
 20
-532.74999999999989
 30
0.0
 11
-49.884374999999991
 21
-502.69056919640002
 31
0.0
  0
LINE
  5
14E
  8
┌▓È_1
 62
     5
 10
-362.79296875
 20
449.7681680005
 30
0.0
 11
-342.79296875
 21
449.7681680005
 31
0.0
  0
LINE
  5
14F
  8
┌▓È_1
 62
     5
 10
-341.04296875
 20
445.7721422697
 30
0.0
 11
-341.04296875
 21
336.90280341710002
 31
0.0
  0
CIRCLE
  5
150
  8
┌▓È_1
 62
     5
 10
-352.79296875
 20
439.7681680005
 30
0.0
 40
3.0
  0
LINE
  5
151
  8
┌▓È_1
 62
     5
 10
-342.79296875
 20
445.7721422697
 30
0.0
 11
-341.04296875
 21
445.7721422697
 31
0.0
  0
LINE
  5
152
  8
┌▓È_1
 62
     5
 10
-353.54296875
 20
255.2681680005
 30
0.0
 11
-352.04296875
 21
255.2681680005
 31
0.0
  0
ARC
  5
153
  8
┌▓È_1
 62
     5
 10
-353.54296875
 20
252.7681680005
 30
0.0
 40
2.5
 50
90.0
 51
270.0
  0
LINE
  5
154
  8
┌▓È_1
 62
     5
 10
-344.59949764850001
 20
252.7681680005
 30
0.0
 11
-360.34034271889999
 21
252.7681680005
 31
0.0
  0
LINE
  5
155
  8
┌▓È_1
 62
     5
 10
-352.04296875
 20
250.2681680005
 30
0.0
 11
-353.54296875
 21
250.2681680005
 31
0.0
  0
LINE
  5
156
  8
┌▓È_1
 62
     5
 10
-340.44296874999998
 20
316.90280341710002
 30
0.0
 11
-342.79296875
 21
316.90280341710002
 31
0.0
  0
LINE
  5
157
  8
┌▓È_1
 62
     5
 10
-364.54296875
 20
214.7721422697
 30
0.0
 11
-364.54296875
 21
445.7721422697
 31
0.0
  0
LINE
  5
158
  8
┌▓È_1
 62
     5
 10
-353.54296875
 20
407.2681680005
 30
0.0
 11
-352.04296875
 21
407.2681680005
 31
0.0
  0
LINE
  5
159
  8
┌▓È_1
 62
     5
 10
-345.0517083333001
 20
404.7681680005
 30
0.0
 11
-360.4610416667
 21
404.7681680005
 31
0.0
  0
LINE
  5
15A
  8
┌▓È_1
 62
     5
 10
-342.79296875
 20
414.7681680005
 30
0.0
 11
-362.79296875
 21
414.7681680005
 31
0.0
  0
LINE
  5
15B
  8
┌▓È_1
 62
     5
 10
-364.54296875
 20
235.2721422697
 30
0.0
 11
-497.79296875
 21
235.2721422697
 31
0.0
  0
LINE
  5
15C
  8
Éíû@É³
 62
     5
 10
-352.04296875
 20
255.2681680005
 30
0.0
 11
-255.78046875000001
 21
315.2721422697
 31
0.0
  0
LINE
  5
15D
  8
Éíû@É³
 62
     5
 10
-352.04296875
 20
255.2681680005
 30
0.0
 11
-349.79858909559999
 21
257.66965523840003
 31
0.0
  0
LINE
  5
15E
  8
Éíû@É³
 62
     5
 10
-352.04296875
 20
255.2681680005
 30
0.0
 11
-348.89853533460001
 21
256.22572712819999
 31
0.0
  0
ARC
  5
15F
  8
┌▓È_1
 62
     5
 10
-352.79296875
 20
-304.0
 30
0.0
 40
0.75
 50
180.0
 51
360.0
  0
LINE
  5
160
  8
┌▓È_1
 62
     5
 10
-353.54296875
 20
-289.5
 30
0.0
 11
-353.54296875
 21
-304.0
 31
0.0
  0
LINE
  5
161
  8
┌▓È_1
 62
     5
 10
-352.04296875
 20
-304.0
 30
0.0
 11
-352.04296875
 21
-289.5
 31
0.0
  0
LINE
  5
162
  8
┌▓È_1
  6
STITCH
 62
     5
 10
-362.79296875
 20
-317.75
 30
0.0
 11
-342.79296875
 21
-317.75
 31
0.0
  0
LINE
  5
163
  8
┌▓È_1
  6
STITCH
 62
     5
 10
-362.79296875
 20
-302.75
 30
0.0
 11
-353.54296875
 21
-302.75
 31
0.0
  0
LINE
  5
164
  8
┌▓È_1
  6
STITCH
 62
     5
 10
-352.04296875
 20
-302.75
 30
0.0
 11
-342.79296875
 21
-302.75
 31
0.0
  0
CIRCLE
  5
165
  8
┌▓È_1
 62
     5
 10
-352.79296875
 20
-311.75
 30
0.0
 40
3.0
  0
ARC
  5
166
  8
┌▓È_1
 62
     5
 10
-352.79296875
 20
-289.5
 30
0.0
 40
0.75
 50
0.0
 51
180.0
  0
LINE
  5
167
  8
┌▓È_1
 62
     5
 10
-342.79296875
 20
84.265625000000014
 30
0.0
 11
-342.79296875
 21
138.24062499999999
 31
0.0
  0
LINE
  5
168
  8
┌▓È_1
 62
     5
 10
-497.79296875
 20
275.2721422697
 30
0.0
 11
-648.07444997870004
 21
275.2721422697
 31
0.0
  0
ARC
  5
169
  8
┌▓È_1
 62
     5
 10
-352.04296875
 20
404.7681680005
 30
0.0
 40
2.5
 50
270.0
 51
90.0
  0
LINE
  5
16A
  8
┌▓È_1
 62
     5
 10
-352.04296875
 20
402.2681680005
 30
0.0
 11
-353.54296875
 21
402.2681680005
 31
0.0
  0
LINE
  5
16B
  8
┌▓È_1
 62
     5
 10
-342.79296875
 20
-14.75
 30
0.0
 11
-362.79296875
 21
-14.75
 31
0.0
  0
LINE
  5
16C
  8
┌▓È_1
 62
     5
 10
-364.54296875
 20
425.2721422697
 30
0.0
 11
-497.79296875
 21
425.2721422697
 31
0.0
  0
LINE
  5
16D
  8
┌▓È_1
 62
     5
 10
-497.79296875
 20
225.2721422697
 30
0.0
 11
-648.27424006069998
 21
225.2721422697
 31
0.0
  0
LINE
  5
16E
  8
┌▓È_1
 62
     5
 10
-341.04296875
 20
214.7721422697
 30
0.0
 11
-342.79296875
 21
214.7721422697
 31
0.0
  0
LINE
  5
16F
  8
┌▓È_1
 62
     5
 10
-497.79296875
 20
305.2721422697
 30
0.0
 11
-648.07444997870004
 21
305.2721422697
 31
0.0
  0
LINE
  5
170
  8
┌▓È_1
 62
     5
 10
-364.54296875
 20
395.2721422697
 30
0.0
 11
-497.79296875
 21
395.2721422697
 31
0.0
  0
LINE
  5
171
  8
┌▓È_1
 62
     5
 10
-364.54296875
 20
385.2721422697
 30
0.0
 11
-497.79296875
 21
385.2721422697
 31
0.0
  0
LINE
  5
172
  8
┌▓È_1
 62
     5
 10
-364.54296875
 20
355.2721422697
 30
0.0
 11
-497.79296875
 21
355.2721422697
 31
0.0
  0
LINE
  5
173
  8
┌▓È_1
 62
     5
 10
-364.54296875
 20
345.2721422697
 30
0.0
 11
-497.79296875
 21
345.2721422697
 31
0.0
  0
LINE
  5
174
  8
┌▓È_1
 62
     5
 10
-364.54296875
 20
315.2721422697
 30
0.0
 11
-497.79296875
 21
315.2721422697
 31
0.0
  0
LINE
  5
175
  8
┌▓È_1
 62
     5
 10
-364.54296875
 20
305.2721422697
 30
0.0
 11
-497.79296875
 21
305.2721422697
 31
0.0
  0
LINE
  5
176
  8
┌▓È_1
 62
     5
 10
-364.54296875
 20
275.2721422697
 30
0.0
 11
-497.79296875
 21
275.2721422697
 31
0.0
  0
LINE
  5
177
  8
┌▓È_1
 62
     5
 10
-364.54296875
 20
265.2721422697
 30
0.0
 11
-497.79296875
 21
265.2721422697
 31
0.0
  0
LINE
  5
178
  8
┌▓È_1
 62
     5
 10
-342.79296875
 20
212.7681680005
 30
0.0
 11
-362.79296875
 21
212.7681680005
 31
0.0
  0
LINE
  5
179
  8
┌▓È_1
 62
     5
 10
-342.79296875
 20
212.7681680005
 30
0.0
 11
-362.79296875
 21
212.7681680005
 31
0.0
  0
LINE
  5
17A
  8
┌▓È_1
 62
     5
 10
-352.79296875
 20
209.90917026450001
 30
0.0
 11
-352.79296875
 21
452.79667026449999
 31
0.0
  0
LINE
  5
17B
  8
┌▓È_1
 62
     5
 10
-342.79296875
 20
449.7681680005
 30
0.0
 11
-342.79296875
 21
212.7681680005
 31
0.0
  0
LINE
  5
17C
  8
┌▓È_1
 62
     5
 10
-362.79296875
 20
212.7681680005
 30
0.0
 11
-362.79296875
 21
449.7681680005
 31
0.0
  0
LINE
  5
17D
  8
┌▓È_1
 62
     5
 10
-364.54296875
 20
225.2721422697
 30
0.0
 11
-497.79296875
 21
225.2721422697
 31
0.0
  0
LINE
  5
17E
  8
┌▓È_1
 62
     5
 10
-364.54296875
 20
435.27214226969988
 30
0.0
 11
-497.79296875
 21
435.27214226969988
 31
0.0
  0
LINE
  5
17F
  8
┌▓È_1
 62
     5
 10
-342.79296875
 20
413.1823815628
 30
0.0
 11
-362.79296875
 21
413.1823815628
 31
0.0
  0
LINE
  5
180
  8
┌▓È_1
 62
     5
 10
-340.44296874999998
 20
336.90280341710002
 30
0.0
 11
-340.44296874999998
 21
316.90280341710002
 31
0.0
  0
LINE
  5
181
  8
┌▓È_1
 62
     5
 10
-362.79296875
 20
449.7681680005
 30
0.0
 11
-342.79296875
 21
449.7681680005
 31
0.0
  0
LINE
  5
182
  8
┌▓È_1
  6
STITCH
 62
     5
 10
-962.79296875
 20
-317.75
 30
0.0
 11
-942.79296875
 21
-317.75
 31
0.0
  0
LINE
  5
183
  8
┌▓È_1
 62
     5
 10
-952.04296875
 20
-304.0
 30
0.0
 11
-952.04296875
 21
-289.5
 31
0.0
  0
LINE
  5
184
  8
┌▓È_1
 62
     5
 10
-953.54296875
 20
-289.5
 30
0.0
 11
-953.54296875
 21
-304.0
 31
0.0
  0
ARC
  5
185
  8
┌▓È_1
 62
     5
 10
-952.79296875
 20
-304.0
 30
0.0
 40
0.75
 50
180.0
 51
0.0
  0
LINE
  5
186
  8
┌▓È_1
 62
     5
 10
-941.04296875
 20
395.2721422697
 30
0.0
 11
-807.79296874999989
 21
395.2721422697
 31
0.0
  0
LINE
  5
187
  8
┌▓È_1
 62
     5
 10
-941.04296875
 20
425.2721422697
 30
0.0
 11
-807.79296874999989
 21
425.2721422697
 31
0.0
  0
LINE
  5
188
  8
┌▓È_1
 62
     5
 10
-941.04296875
 20
435.27214226969988
 30
0.0
 11
-807.79296874999989
 21
435.27214226969988
 31
0.0
  0
LINE
  5
189
  8
┌▓È_1
 62
     5
 10
-941.04296875
 20
305.2721422697
 30
0.0
 11
-807.79296874999989
 21
305.2721422697
 31
0.0
  0
LINE
  5
18A
  8
┌▓È_1
 62
     5
 10
-941.04296875
 20
355.2721422697
 30
0.0
 11
-807.79296874999989
 21
355.2721422697
 31
0.0
  0
LINE
  5
18B
  8
┌▓È_1
 62
     5
 10
-941.04296875
 20
385.2721422697
 30
0.0
 11
-807.79296874999989
 21
385.2721422697
 31
0.0
  0
LINE
  5
18C
  8
┌▓È_1
 62
     5
 10
-941.04296875
 20
315.2721422697
 30
0.0
 11
-807.79296874999989
 21
315.2721422697
 31
0.0
  0
LINE
  5
18D
  8
┌▓È_1
 62
     5
 10
-941.04296875
 20
235.2721422697
 30
0.0
 11
-807.79296874999989
 21
235.2721422697
 31
0.0
  0
LINE
  5
18E
  8
┌▓È_1
 62
     5
 10
-941.04296875
 20
225.2721422697
 30
0.0
 11
-807.79296874999989
 21
225.2721422697
 31
0.0
  0
LINE
  5
18F
  8
┌▓È_1
 62
     5
 10
-941.04296875
 20
265.2721422697
 30
0.0
 11
-807.79296874999989
 21
265.2721422697
 31
0.0
  0
DIMENSION
  5
19D
  8
Éíû@É³
 62
     5
  2
*D3
 10
-342.79296875
 20
83.296119689899996
 30
0.0
 11
-296.43437499999999
 21
83.296119689899996
 31
0.0
 70
   128
  1
20
 13
-342.79296875
 23
-14.75
 33
0.0
 14
-362.79296875
 24
-14.75
 34
0.0
  0
DIMENSION
  5
1AC
  8
Éíû@É³
 62
     5
  2
*D4
 10
-710.21562652590001
 20
390.2721422697
 30
0.0
 11
-710.21562652590001
 21
482.29401574389988
 31
0.0
 70
   128
  1
P=40
 13
-796.12812499999995
 23
390.2721422697
 33
0.0
 14
-796.12812499999995
 24
430.2721422697
 34
0.0
 50
90.0
  0
LINE
  5
1AD
  8
┌▓È_1
 62
     5
 10
-342.79296875
 20
336.90280341710002
 30
0.0
 11
-340.44296874999998
 21
336.90280341710002
 31
0.0
  0
LINE
  5
1AE
  8
┌▓È_1
 62
     5
 10
-341.04296875
 20
316.90280341710002
 30
0.0
 11
-341.04296875
 21
214.7721422697
 31
0.0
  0
LINE
  5
1AF
  8
┌▓È_1
 62
     5
 10
-362.79296875
 20
214.7721422697
 30
0.0
 11
-364.54296875
 21
214.7721422697
 31
0.0
  0
CIRCLE
  5
1B0
  8
┌▓È_1
 62
     5
 10
-352.79296875
 20
421.7681680005
 30
0.0
 40
3.0
  0
LINE
  5
1B1
  8
┌▓È_1
 62
     5
 10
-364.54296875
 20
445.7721422697
 30
0.0
 11
-362.79296875
 21
445.7721422697
 31
0.0
  0
ARC
  5
1B2
  8
┌▓È_1
 62
     5
 10
-352.04296875
 20
252.7681680005
 30
0.0
 40
2.5
 50
270.0
 51
90.0
  0
LINE
  5
1B3
  8
┌▓È_1
 62
     5
 10
-342.79296875
 20
449.7681680005
 30
0.0
 11
-342.79296875
 21
212.7681680005
 31
0.0
  0
LINE
  5
1B4
  8
┌▓È_1
 62
     5
 10
-362.79296875
 20
212.7681680005
 30
0.0
 11
-362.79296875
 21
449.7681680005
 31
0.0
  0
ARC
  5
1B5
  8
┌▓È_1
 62
     5
 10
-353.54296875
 20
404.7681680005
 30
0.0
 40
2.5
 50
90.0
 51
270.0
  0
LINE
  5
1B6
  8
┌▓È_1
 62
     5
 10
-962.79296875
 20
212.7681680005
 30
0.0
 11
-942.79296875
 21
212.7681680005
 31
0.0
  0
LINE
  5
1B7
  8
┌▓È_1
 62
     5
 10
-941.04296875
 20
345.2721422697
 30
0.0
 11
-807.79296874999989
 21
345.2721422697
 31
0.0
  0
LINE
  5
1B8
  8
┌▓È_1
 62
     5
 10
-941.04296875
 20
275.2721422697
 30
0.0
 11
-807.79296874999989
 21
275.2721422697
 31
0.0
  0
LINE
  5
1B9
  8
┌▓È_1
 62
     5
 10
-962.79296875
 20
449.7681680005
 30
0.0
 11
-962.79296875
 21
212.7681680005
 31
0.0
  0
LINE
  5
1BA
  8
┌▓È_1
 62
     5
 10
-942.79296875
 20
212.7681680005
 30
0.0
 11
-942.79296875
 21
449.7681680005
 31
0.0
  0
LINE
  5
1BB
  8
┌▓È_1
 62
     5
 10
-941.04296875
 20
214.7721422697
 30
0.0
 11
-941.04296875
 21
445.7721422697
 31
0.0
  0
LINE
  5
1BC
  8
┌▓È_1
 62
     5
 10
-962.79296875
 20
445.7721422697
 30
0.0
 11
-964.54296875
 21
445.7721422697
 31
0.0
  0
LINE
  5
1BD
  8
┌▓È_1
 62
     5
 10
-964.54296875
 20
445.7721422697
 30
0.0
 11
-964.54296875
 21
336.90280341710002
 31
0.0
  0
LINE
  5
1BE
  8
┌▓È_1
 62
     5
 10
-965.14296875000002
 20
336.90280341710002
 30
0.0
 11
-965.14296875000002
 21
316.90280341710002
 31
0.0
  0
LINE
  5
1BF
  8
┌▓È_1
 62
     5
 10
-952.04296875
 20
255.2681680005
 30
0.0
 11
-953.54296875
 21
255.2681680005
 31
0.0
  0
ARC
  5
1C0
  8
┌▓È_1
 62
     5
 10
-953.54296875
 20
252.7681680005
 30
0.0
 40
2.5
 50
90.0
 51
270.0
  0
LINE
  5
1C1
  8
┌▓È_1
 62
     5
 10
-964.54296875
 20
316.90280341710002
 30
0.0
 11
-964.54296875
 21
214.7721422697
 31
0.0
  0
LINE
  5
1C2
  8
┌▓È_1
 62
     5
 10
-942.79296875
 20
214.7721422697
 30
0.0
 11
-941.04296875
 21
214.7721422697
 31
0.0
  0
LINE
  5
1C3
  8
┌▓È_1
 62
     5
 10
-964.54296875
 20
214.7721422697
 30
0.0
 11
-962.79296875
 21
214.7721422697
 31
0.0
  0
ARC
  5
1C4
  8
┌▓È_1
 62
     5
 10
-953.54296875
 20
404.7681680005
 30
0.0
 40
2.5
 50
90.0
 51
270.0
  0
LINE
  5
1C5
  8
┌▓È_1
 62
     5
 10
-962.79296875
 20
336.90280341710002
 30
0.0
 11
-965.14296875000002
 21
336.90280341710002
 31
0.0
  0
CIRCLE
  5
1C6
  8
┌▓È_1
 62
     5
 10
-952.79296875
 20
421.7681680005
 30
0.0
 40
3.0
  0
LINE
  5
1C7
  8
┌▓È_1
 62
     5
 10
-962.79296875
 20
413.1823815628
 30
0.0
 11
-942.79296875
 21
413.1823815628
 31
0.0
  0
LINE
  5
1C8
  8
┌▓È_1
 62
     5
 10
-953.54296875
 20
250.2681680005
 30
0.0
 11
-952.04296875
 21
250.2681680005
 31
0.0
  0
LINE
  5
1C9
  8
┌▓È_1
 62
     5
 10
-962.79296875
 20
414.7681680005
 30
0.0
 11
-942.79296875
 21
414.7681680005
 31
0.0
  0
CIRCLE
  5
1CA
  8
┌▓È_1
 62
     5
 10
-952.79296875
 20
439.7681680005
 30
0.0
 40
3.0
  0
LINE
  5
1CB
  8
┌▓È_1
 62
     5
 10
-965.14296875000002
 20
316.90280341710002
 30
0.0
 11
-962.79296875
 21
316.90280341710002
 31
0.0
  0
ARC
  5
1CC
  8
┌▓È_1
 62
     5
 10
-952.04296875
 20
252.7681680005
 30
0.0
 40
2.5
 50
270.0
 51
90.0
  0
LINE
  5
1CD
  8
┌▓È_1
 62
     5
 10
-942.79296875
 20
-14.75
 30
0.0
 11
-962.79296875
 21
-14.75
 31
0.0
  0
LINE
  5
1CE
  8
┌▓È_1
  6
STITCH
 62
     5
 10
-962.79296875
 20
-302.75
 30
0.0
 11
-953.54296875
 21
-302.75
 31
0.0
  0
LINE
  5
1CF
  8
┌▓È_1
  6
BORDER
 62
     5
 10
-352.79296875
 20
-636.31946614579999
 30
0.0
 11
-352.79296875
 21
-1145.6837239583001
 31
0.0
  0
LINE
  5
1D0
  8
┌▓È_1
 62
     5
 10
-710.0
 20
-1040.0
 30
0.0
 11
-576.0
 21
-1040.0
 31
0.0
  0
LINE
  5
1D1
  8
┌▓È_1
 62
     5
 10
-576.0
 20
-1040.0
 30
0.0
 11
-576.0
 21
-1078.2946357727001
 31
0.0
  0
LINE
  5
1D2
  8
┌▓È_1
 62
     5
 10
-576.0
 20
-1078.2946357727001
 30
0.0
 11
-710.0
 21
-1078.2946357727001
 31
0.0
  0
LINE
  5
1D3
  8
┌▓È_1
 62
     5
 10
-710.0
 20
-1078.2946357727001
 30
0.0
 11
-710.0
 21
-1040.0
 31
0.0
  0
DIMENSION
  5
1E1
  8
Éíû@É³
 62
     5
  2
*D5
 10
-1060.8390884399
 20
404.7681680005
 30
0.0
 11
-1060.8390884399
 21
328.7681680005
 31
0.0
 70
   128
  1
<>
 13
-960.53422916670002
 23
404.7681680005
 33
0.0
 14
-960.98643985149999
 24
252.7681680005
 34
0.0
 50
90.0
  0
DIMENSION
  5
1EF
  8
Éíû@É³
 62
     5
  2
*D6
 10
-942.79296875
 20
83.296119689899996
 30
0.0
 11
-1010.2140625
 21
83.296119689899996
 31
0.0
 70
   128
  1
<>
 13
-942.79296875
 23
-14.75
 33
0.0
 14
-962.79296875
 24
-14.75
 34
0.0
  0
DIMENSION
  5
1FD
  8
Éíû@É³
 62
     5
  2
*D7
 10
-1060.8390884399
 20
449.7681680005
 30
0.0
 11
-1060.8390884399
 21
427.2681680005
 31
0.0
 70
   128
  1
43
 13
-962.79296875
 23
449.7681680005
 33
0.0
 14
-960.53422916670002
 24
404.7681680005
 34
0.0
 50
90.0
  0
DIMENSION
  5
20B
  8
Éíû@É³
 62
     5
  2
*D8
 10
-1060.8390884399
 20
252.7681680005
 30
0.0
 11
-1060.8390884399
 21
233.77015513509991
 31
0.0
 70
   128
  1
40
 13
-960.98643985149999
 23
252.7681680005
 33
0.0
 14
-962.79296875
 24
214.7721422697
 34
0.0
 50
90.0
  0
LINE
  5
20C
  8
┌▓È_1
 62
     5
 10
-942.79296875
 20
212.7681680005
 30
0.0
 11
-942.79296875
 21
449.7681680005
 31
0.0
  0
LINE
  5
20D
  8
┌▓È_1
 62
     5
 10
-962.79296875
 20
449.7681680005
 30
0.0
 11
-962.79296875
 21
212.7681680005
 31
0.0
  0
LINE
  5
20E
  8
┌▓È_1
 62
     5
 10
-952.79296875
 20
209.90917026450001
 30
0.0
 11
-952.79296875
 21
452.79667026449999
 31
0.0
  0
LINE
  5
20F
  8
┌▓È_1
 62
     5
 10
-942.79296875
 20
449.7681680005
 30
0.0
 11
-962.79296875
 21
449.7681680005
 31
0.0
  0
LINE
  5
210
  8
┌▓È_1
 62
     5
 10
-960.98643985149999
 20
252.7681680005
 30
0.0
 11
-945.24559478109995
 21
252.7681680005
 31
0.0
  0
LINE
  5
211
  8
┌▓È_1
 62
     5
 10
-969.03414713539985
 20
212.7681680005
 30
0.0
 11
-1064.4247070312999
 21
212.7681680005
 31
0.0
  0
ARC
  5
212
  8
┌▓È_1
 62
     5
 10
-952.79296875
 20
-289.5
 30
0.0
 40
0.75
 50
0.0
 51
180.0
  0
CIRCLE
  5
213
  8
┌▓È_1
 62
     5
 10
-952.79296875
 20
-311.75
 30
0.0
 40
3.0
  0
LINE
  5
214
  8
┌▓È_1
  6
STITCH
 62
     5
 10
-952.04296875
 20
-302.75
 30
0.0
 11
-942.79296875
 21
-302.75
 31
0.0
  0
LINE
  5
215
  8
┌▓È_1
 62
     5
 10
-960.53422916670002
 20
404.7681680005
 30
0.0
 11
-945.1248958333
 21
404.7681680005
 31
0.0
  0
ARC
  5
216
  8
┌▓È_1
 62
     5
 10
-952.04296875
 20
404.7681680005
 30
0.0
 40
2.5
 50
270.0
 51
90.0
  0
LINE
  5
217
  8
┌▓È_1
 62
     5
 10
-952.04296875
 20
407.2681680005
 30
0.0
 11
-953.54296875
 21
407.2681680005
 31
0.0
  0
LINE
  5
218
  8
┌▓È_1
 62
     5
 10
-953.54296875
 20
402.2681680005
 30
0.0
 11
-952.04296875
 21
402.2681680005
 31
0.0
  0
LINE
  5
219
  8
┌▓È_1
 62
     5
 10
-941.04296875
 20
445.7721422697
 30
0.0
 11
-942.79296875
 21
445.7721422697
 31
0.0
  0
LINE
  5
21A
  8
┌▓È_1
 62
     5
 10
-942.79296875
 20
449.7681680005
 30
0.0
 11
-962.79296875
 21
449.7681680005
 31
0.0
  0
LINE
  5
21B
  8
┌▓È_1
 62
     5
 10
-962.79296875
 20
212.7681680005
 30
0.0
 11
-942.79296875
 21
212.7681680005
 31
0.0
  0
LINE
  5
21C
  8
┌▓È_1
 62
     5
 10
-362.79296875
 20
-534.75
 30
0.0
 11
-342.79296875
 21
-534.75
 31
0.0
  0
LINE
  5
21D
  8
┌▓È_1
 62
     5
 10
-353.54296875
 20
-653.42109374999995
 30
0.0
 11
-352.04296875
 21
-653.42109374999995
 31
0.0
  0
ARC
  5
21E
  8
┌▓È_1
 62
     5
 10
-353.54296875
 20
-655.92109374999995
 30
0.0
 40
2.5
 50
90.0
 51
270.0
  0
LINE
  5
21F
  8
┌▓È_1
  6
BORDER
 62
     5
 10
-358.22514761669999
 20
-655.92109374999995
 30
0.0
 11
-347.08479673950001
 21
-655.92109374999995
 31
0.0
  0
ARC
  5
220
  8
┌▓È_1
 62
     5
 10
-352.04296875
 20
-655.92109374999995
 30
0.0
 40
2.5
 50
270.0
 51
90.0
  0
LINE
  5
221
  8
┌▓È_1
 62
     5
 10
-352.04296875
 20
-658.42109374999995
 30
0.0
 11
-353.54296875
 21
-658.42109374999995
 31
0.0
  0
LINE
  5
222
  8
┌▓È_1
 62
     5
 10
-342.79296875
 20
-615.92109374999995
 30
0.0
 11
-362.79296875
 21
-615.92109374999995
 31
0.0
  0
LINE
  5
223
  8
┌▓È_1
 62
     5
 10
-362.79296875
 20
-1135.92109375
 30
0.0
 11
-342.79296875
 21
-1135.92109375
 31
0.0
  0
LINE
  5
224
  8
┌▓È_1
 62
     5
 10
-353.54296875
 20
-1112.67109375
 30
0.0
 11
-353.54296875
 21
-1127.17109375
 31
0.0
  0
ARC
  5
225
  8
┌▓È_1
 62
     5
 10
-352.79296875
 20
-1127.17109375
 30
0.0
 40
0.75
 50
180.0
 51
0.0
  0
LINE
  5
226
  8
┌▓È_1
 62
     5
 10
-355.19222745399998
 20
-1119.92109375
 30
0.0
 11
-350.03860426559999
 21
-1119.92109375
 31
0.0
  0
ARC
  5
227
  8
┌▓È_1
 62
     5
 10
-353.54296875
 20
-1079.92109375
 30
0.0
 40
2.5
 50
90.0
 51
270.0
  0
LINE
  5
228
  8
┌▓È_1
 62
     5
 10
-353.54296875
 20
-1077.42109375
 30
0.0
 11
-352.04296875
 21
-1077.42109375
 31
0.0
  0
LINE
  5
229
  8
┌▓È_1
 62
     5
 10
-352.04296875
 20
-1082.42109375
 30
0.0
 11
-353.54296875
 21
-1082.42109375
 31
0.0
  0
ARC
  5
22A
  8
┌▓È_1
 62
     5
 10
-352.79296875
 20
-1112.67109375
 30
0.0
 40
0.75
 50
0.0
 51
180.0
  0
ARC
  5
22B
  8
┌▓È_1
 62
     5
 10
-352.79296875
 20
-905.17109374999995
 30
0.0
 40
0.75
 50
180.0
 51
0.0
  0
LINE
  5
22C
  8
┌▓È_1
 62
     5
 10
-355.43763808199998
 20
-897.92109374999995
 30
0.0
 11
-350.03860426559999
 21
-897.92109374999995
 31
0.0
  0
ARC
  5
22D
  8
┌▓È_1
 62
     5
 10
-352.79296875
 20
-890.67109374999995
 30
0.0
 40
0.75
 50
0.0
 51
180.0
  0
LINE
  5
22E
  8
┌▓È_1
  6
BORDER
 62
     5
 10
-357.9280715933001
 20
-863.92109374999995
 30
0.0
 11
-347.5304107746
 21
-863.92109374999995
 31
0.0
  0
LINE
  5
22F
  8
┌▓È_1
 62
     5
 10
-352.04296875
 20
-866.42109374999995
 30
0.0
 11
-353.54296875
 21
-866.42109374999995
 31
0.0
  0
LINE
  5
230
  8
┌▓È_1
 62
     5
 10
-353.54296875
 20
-861.42109374999995
 30
0.0
 11
-352.04296875
 21
-861.42109374999995
 31
0.0
  0
ARC
  5
231
  8
┌▓È_1
 62
     5
 10
-352.04296875
 20
-863.92109374999995
 30
0.0
 40
2.5
 50
270.0
 51
90.0
  0
ARC
  5
232
  8
┌▓È_1
 62
     5
 10
-353.54296875
 20
-863.92109374999995
 30
0.0
 40
2.5
 50
90.0
 51
270.0
  0
LINE
  5
233
  8
┌▓È_1
 62
     5
 10
-362.79296875
 20
-615.92109374999995
 30
0.0
 11
-362.79296875
 21
-1135.92109375
 31
0.0
  0
LINE
  5
234
  8
┌▓È_1
 62
     5
 10
-342.79296875
 20
-1135.92109375
 30
0.0
 11
-342.79296875
 21
-615.92109374999995
 31
0.0
  0
LINE
  5
235
  8
┌▓È_1
 62
     5
 10
-953.54296875
 20
-1077.42109375
 30
0.0
 11
-952.04296875
 21
-1077.42109375
 31
0.0
  0
ARC
  5
236
  8
┌▓È_1
 62
     5
 10
-952.79296875
 20
-890.67109374999995
 30
0.0
 40
0.75
 50
0.0
 51
180.0
  0
LINE
  5
237
  8
┌▓È_1
 62
     5
 10
-955.43763808199992
 20
-897.92109374999995
 30
0.0
 11
-950.03860426560004
 21
-897.92109374999995
 31
0.0
  0
CIRCLE
  5
238
  8
┌▓È_1
 62
     5
 10
-952.79296875
 20
-912.92109374999995
 30
0.0
 40
3.0
  0
LINE
  5
239
  8
┌▓È_1
  6
STITCH
 62
     5
 10
-962.79296875
 20
-918.92109374999995
 30
0.0
 11
-942.79296875
 21
-918.92109374999995
 31
0.0
  0
LINE
  5
23A
  8
┌▓È_1
 62
     5
 10
-953.54296875
 20
-890.67109374999995
 30
0.0
 11
-953.54296875
 21
-905.17109374999995
 31
0.0
  0
LINE
  5
23B
  8
┌▓È_1
 62
     5
 10
-969.10442708330004
 20
-1135.92109375
 30
0.0
 11
-1062.8661458332999
 21
-1135.92109375
 31
0.0
  0
LINE
  5
23C
  8
┌▓È_1
  6
BORDER
 62
     5
 10
-952.79296875
 20
-636.31946614579999
 30
0.0
 11
-952.79296875
 21
-1145.6837239583001
 31
0.0
  0
LINE
  5
23D
  8
┌▓È_1
 62
     5
 10
-942.79296875
 20
-1135.92109375
 30
0.0
 11
-942.79296875
 21
-615.92109374999995
 31
0.0
  0
LINE
  5
23E
  8
┌▓È_1
 62
     5
 10
-962.79296875
 20
-615.92109374999995
 30
0.0
 11
-962.79296875
 21
-1135.92109375
 31
0.0
  0
LINE
  5
23F
  8
Éíû@É³
 62
     5
 10
-952.04296875
 20
-861.42109374999995
 30
0.0
 11
-853.05156250000005
 21
-743.61562500000002
 31
0.0
  0
LINE
  5
240
  8
Éíû@É³
 62
     5
 10
-952.04296875
 20
-861.42109374999995
 30
0.0
 11
-950.65173272929997
 21
-858.44303342119986
 31
0.0
  0
LINE
  5
241
  8
Éíû@É³
 62
     5
 10
-952.04296875
 20
-861.42109374999995
 30
0.0
 11
-949.34909284899993
 21
-859.53763586160005
 31
0.0
  0
INSERT
  5
242
  8
0
  6
CONTINUOUS
  2
*U32
 10
0.0
 20
0.0
 30
0.0
  0
ARC
  5
243
  8
┌▓È_1
 62
     5
 10
-352.79296875
 20
-526.0
 30
0.0
 40
0.75
 50
180.0
 51
360.0
  0
ARC
  5
244
  8
┌▓È_1
 62
     5
 10
-352.79296875
 20
-511.5
 30
0.0
 40
0.75
 50
0.0
 51
180.0
  0
LINE
  5
245
  8
┌▓È_1
 62
     5
 10
-352.04296875
 20
-526.0
 30
0.0
 11
-352.04296875
 21
-511.5
 31
0.0
  0
ARC
  5
246
  8
┌▓È_1
 62
     5
 10
-352.04296875
 20
-1079.92109375
 30
0.0
 40
2.5
 50
270.0
 51
90.0
  0
LINE
  5
247
  8
┌▓È_1
  6
BORDER
 62
     5
 10
-358.52222364009998
 20
-1079.92109375
 30
0.0
 11
-347.2333347512
 21
-1079.92109375
 31
0.0
  0
LINE
  5
248
  8
┌▓È_1
 62
     5
 10
-352.04296875
 20
-1127.17109375
 30
0.0
 11
-352.04296875
 21
-1112.67109375
 31
0.0
  0
LINE
  5
249
  8
┌▓È_1
 62
     5
 10
-353.54296875
 20
-890.67109374999995
 30
0.0
 11
-353.54296875
 21
-905.17109374999995
 31
0.0
  0
LINE
  5
24A
  8
┌▓È_1
 62
     5
 10
-352.04296875
 20
-905.17109374999995
 30
0.0
 11
-352.04296875
 21
-890.67109374999995
 31
0.0
  0
LINE
  5
24B
  8
┌▓È_1
  6
STITCH
 62
     5
 10
-362.79296875
 20
-918.92109374999995
 30
0.0
 11
-342.79296875
 21
-918.92109374999995
 31
0.0
  0
LINE
  5
24C
  8
┌▓È_1
  6
STITCH
 62
     5
 10
-362.79296875
 20
-903.92109374999995
 30
0.0
 11
-353.54296875
 21
-903.92109374999995
 31
0.0
  0
LINE
  5
24D
  8
┌▓È_1
  6
STITCH
 62
     5
 10
-352.04296875
 20
-903.92109374999995
 30
0.0
 11
-342.79296875
 21
-903.92109374999995
 31
0.0
  0
CIRCLE
  5
24E
  8
┌▓È_1
 62
     5
 10
-352.79296875
 20
-912.92109374999995
 30
0.0
 40
3.0
  0
LINE
  5
24F
  8
┌▓È_1
 62
     5
 10
-353.54296875
 20
-511.5
 30
0.0
 11
-353.54296875
 21
-526.0
 31
0.0
  0
LINE
  5
250
  8
┌▓È_1
 62
     5
 10
-953.54296875
 20
-653.42109374999995
 30
0.0
 11
-952.04296875
 21
-653.42109374999995
 31
0.0
  0
LINE
  5
251
  8
┌▓È_1
 62
     5
 10
-942.79296875
 20
-615.92109374999995
 30
0.0
 11
-962.79296875
 21
-615.92109374999995
 31
0.0
  0
LINE
  5
252
  8
┌▓È_1
 62
     5
 10
-952.04296875
 20
-658.42109374999995
 30
0.0
 11
-953.54296875
 21
-658.42109374999995
 31
0.0
  0
ARC
  5
253
  8
┌▓È_1
 62
     5
 10
-952.04296875
 20
-655.92109374999995
 30
0.0
 40
2.5
 50
270.0
 51
90.0
  0
LINE
  5
254
  8
┌▓È_1
  6
STITCH
 62
     5
 10
-952.04296875
 20
-903.92109374999995
 30
0.0
 11
-942.79296875
 21
-903.92109374999995
 31
0.0
  0
LINE
  5
255
  8
┌▓È_1
  6
STITCH
 62
     5
 10
-962.79296875
 20
-903.92109374999995
 30
0.0
 11
-953.54296875
 21
-903.92109374999995
 31
0.0
  0
LINE
  5
256
  8
┌▓È_1
 62
     5
 10
-952.04296875
 20
-905.17109374999995
 30
0.0
 11
-952.04296875
 21
-890.67109374999995
 31
0.0
  0
ARC
  5
257
  8
┌▓È_1
 62
     5
 10
-952.79296875
 20
-905.17109374999995
 30
0.0
 40
0.75
 50
180.0
 51
0.0
  0
LINE
  5
258
  8
┌▓È_1
 62
     5
 10
-953.54296875
 20
-861.42109374999995
 30
0.0
 11
-952.04296875
 21
-861.42109374999995
 31
0.0
  0
LINE
  5
259
  8
┌▓È_1
 62
     5
 10
-952.04296875
 20
-866.42109374999995
 30
0.0
 11
-953.54296875
 21
-866.42109374999995
 31
0.0
  0
LINE
  5
25A
  8
┌▓È_1
  6
BORDER
 62
     5
 10
-957.92807159330005
 20
-863.92109374999995
 30
0.0
 11
-947.53041077460011
 21
-863.92109374999995
 31
0.0
  0
ARC
  5
25B
  8
┌▓È_1
 62
     5
 10
-953.54296875
 20
-1079.92109375
 30
0.0
 40
2.5
 50
90.0
 51
270.0
  0
LINE
  5
25C
  8
┌▓È_1
 62
     5
 10
-955.19222745399998
 20
-1119.92109375
 30
0.0
 11
-950.03860426560004
 21
-1119.92109375
 31
0.0
  0
LINE
  5
25D
  8
┌▓È_1
 62
     5
 10
-962.79296875
 20
-534.75
 30
0.0
 11
-942.79296875
 21
-534.75
 31
0.0
  0
ARC
  5
25E
  8
┌▓È_1
 62
     5
 10
-952.79296875
 20
-511.5
 30
0.0
 40
0.75
 50
0.0
 51
180.0
  0
ARC
  5
25F
  8
┌▓È_1
 62
     5
 10
-952.79296875
 20
-1127.17109375
 30
0.0
 40
0.75
 50
180.0
 51
0.0
  0
LINE
  5
260
  8
┌▓È_1
 62
     5
 10
-953.54296875
 20
-1112.67109375
 30
0.0
 11
-953.54296875
 21
-1127.17109375
 31
0.0
  0
LINE
  5
261
  8
┌▓È_1
 62
     5
 10
-962.79296875
 20
-1135.92109375
 30
0.0
 11
-942.79296875
 21
-1135.92109375
 31
0.0
  0
LINE
  5
262
  8
┌▓È_1
 62
     5
 10
-952.04296875
 20
-1127.17109375
 30
0.0
 11
-952.04296875
 21
-1112.67109375
 31
0.0
  0
ARC
  5
263
  8
┌▓È_1
 62
     5
 10
-952.79296875
 20
-1112.67109375
 30
0.0
 40
0.75
 50
0.0
 51
180.0
  0
ARC
  5
264
  8
┌▓È_1
 62
     5
 10
-952.04296875
 20
-863.92109374999995
 30
0.0
 40
2.5
 50
270.0
 51
90.0
  0
LINE
  5
265
  8
┌▓È_1
  6
BORDER
 62
     5
 10
-958.52222364010004
 20
-1079.92109375
 30
0.0
 11
-947.2333347512
 21
-1079.92109375
 31
0.0
  0
ARC
  5
266
  8
┌▓È_1
 62
     5
 10
-952.04296875
 20
-1079.92109375
 30
0.0
 40
2.5
 50
270.0
 51
90.0
  0
ARC
  5
267
  8
┌▓È_1
 62
     5
 10
-953.54296875
 20
-863.92109374999995
 30
0.0
 40
2.5
 50
90.0
 51
270.0
  0
LINE
  5
268
  8
┌▓È_1
 62
     5
 10
-952.04296875
 20
-1082.42109375
 30
0.0
 11
-953.54296875
 21
-1082.42109375
 31
0.0
  0
LINE
  5
269
  8
┌▓È_1
 10
487.8000526301999
 20
-1238.9360808985
 30
0.0
 11
514.32538596359996
 21
-1238.9360808985
 31
0.0
  0
LINE
  5
26A
  8
┌▓È_1
 10
487.8000526301999
 20
-1226.3360808985001
 30
0.0
 11
510.62938596359987
 21
-1226.3360808985001
 31
0.0
  0
LINE
  5
26B
  8
┌▓È_1
 10
487.8000526301999
 20
-1208.1360808985
 30
0.0
 11
505.29071929690002
 21
-1208.1360808985
 31
0.0
  0
LINE
  5
26C
  8
┌▓È_1
 62
     5
 10
492.06892513940011
 20
-1151.7708314993999
 30
0.0
 11
588.44279063900001
 21
-1151.7708314993999
 31
0.0
  0
LINE
  5
26D
  8
┌▓È_1
 10
57.028906249999999
 20
-1261.2322916666999
 30
0.0
 11
1107.0289062500001
 21
-1261.2322916666999
 31
0.0
  0
LINE
  5
26E
  8
┌▓È_1
 10
1107.0289062500001
 20
-1030.2322916666999
 30
0.0
 11
57.028906249999999
 21
-1030.2322916666999
 31
0.0
  0
INSERT
  5
26F
  8
0
  6
CONTINUOUS
  2
*U33
 10
0.0
 20
0.0
 30
0.0
  0
LINE
  5
270
  8
┌▓È_1
 10
505.29071929690002
 20
-1208.1360808985
 30
0.0
 11
501.8000526301999
 21
-1196.2360808984999
 31
0.0
  0
LINE
  5
271
  8
┌▓È_1
 10
501.8000526301999
 20
-1196.2360808984999
 30
0.0
 11
529.80005263019984
 21
-1196.2360808984999
 31
0.0
  0
LINE
  5
272
  8
┌▓È_1
 10
487.8000526301999
 20
-1220.7360808984999
 30
0.0
 11
508.98671929689999
 21
-1220.7360808984999
 31
0.0
  0
LINE
  5
273
  8
┌▓È_1
 62
     5
 10
496.25019804639999
 20
-1071.2708314993999
 30
0.0
 11
596.12550668839992
 21
-1071.2708314993999
 31
0.0
  0
LINE
  5
274
  8
┌▓È_1
 10
57.028906249999999
 20
-1184.2322916666999
 30
0.0
 11
1107.0289062500001
 21
-1184.2322916666999
 31
0.0
  0
LINE
  5
275
  8
┌▓È_1
 10
57.028906249999999
 20
-1107.2322916666999
 30
0.0
 11
1107.0289062500001
 21
-1107.2322916666999
 31
0.0
  0
LINE
  5
276
  8
┌▓È_1
 62
     5
 10
57.028906249999999
 20
-978.37313076659996
 30
0.0
 11
1107.0289062500001
 21
-978.37313076659996
 31
0.0
  0
LINE
  5
277
  8
┌▓È_1
 62
     5
 10
57.028906249999999
 20
-935.81032123619991
 30
0.0
 11
1107.0289062500001
 21
-935.81032123619991
 31
0.0
  0
LINE
  5
278
  8
┌▓È_1
 62
     5
 10
57.028906249999999
 20
-893.21032123619989
 30
0.0
 11
1107.0289062500001
 21
-893.21032123619989
 31
0.0
  0
DIMENSION
  5
286
  8
Éíû@É³
 62
     5
  2
*D9
 10
-1060.8390884399
 20
-863.92109374999995
 30
0.0
 11
-1060.8390884399
 21
-971.92109374999995
 31
0.0
 70
   128
  1
<>
 13
-957.92807159330005
 23
-863.92109374999995
 33
0.0
 14
-958.52222364010004
 24
-1079.92109375
 34
0.0
 50
90.0
  0
DIMENSION
  5
294
  8
Éíû@É³
 62
     5
  2
*D10
 10
-1060.8390884399
 20
-655.92109374999995
 30
0.0
 11
-1060.8390884399
 21
-759.92109374999995
 31
0.0
 70
   128
  1
<>
 13
-958.22514761670004
 23
-655.92109374999995
 33
0.0
 14
-957.92807159330005
 24
-863.92109374999995
 34
0.0
 50
90.0
  0
DIMENSION
  5
2A2
  8
Éíû@É³
 62
     5
  2
*D11
 10
-1060.8390884399
 20
-615.92109374999995
 30
0.0
 11
-1060.8390884399
 21
-635.92109374999995
 31
0.0
 70
   128
  1
41
 13
-962.79296875
 23
-615.92109374999995
 33
0.0
 14
-958.22514761670004
 24
-655.92109374999995
 34
0.0
 50
90.0
  0
DIMENSION
  5
2B0
  8
Éíû@É³
 62
     5
  2
*D12
 10
-1060.8390884399
 20
-1079.92109375
 30
0.0
 11
-1060.8390884399
 21
-1107.92109375
 31
0.0
 70
   128
  1
55
 13
-958.52222364010004
 23
-1079.92109375
 33
0.0
 14
-962.79296875
 24
-1135.92109375
 34
0.0
 50
90.0
  0
ARC
  5
2B1
  8
┌▓È_1
 62
     5
 10
-952.79296875
 20
-526.0
 30
0.0
 40
0.75
 50
180.0
 51
360.0
  0
LINE
  5
2B2
  8
┌▓È_1
 62
     5
 10
-953.54296875
 20
-511.5
 30
0.0
 11
-953.54296875
 21
-526.0
 31
0.0
  0
LINE
  5
2B3
  8
┌▓È_1
 62
     5
 10
-952.04296875
 20
-526.0
 30
0.0
 11
-952.04296875
 21
-511.5
 31
0.0
  0
LINE
  5
2B4
  8
┌▓È_1
  6
BORDER
 62
     5
 10
-958.22514761670004
 20
-655.92109374999995
 30
0.0
 11
-947.08479673950001
 21
-655.92109374999995
 31
0.0
  0
ARC
  5
2B5
  8
┌▓È_1
 62
     5
 10
-953.54296875
 20
-655.92109374999995
 30
0.0
 40
2.5
 50
90.0
 51
270.0
  0
LINE
  5
2B6
  8
┌▓È_1
 62
     5
 10
-362.79296875
 20
-1133.32109375
 30
0.0
 11
-942.19707198179981
 21
-1133.32109375
 31
0.0
  0
DIMENSION
  5
2C5
  8
Éíû@É³
 62
     5
  2
*D13
 10
-352.79296875
 20
550.84278995449995
 30
0.0
 11
-652.79296875
 21
550.84278995449995
 31
0.0
 70
   128
  1
580
 13
-352.79296875
 23
452.79667026449999
 33
0.0
 14
-952.79296875
 24
452.79667026449999
 34
0.0
  0
DIMENSION
  5
2D3
  8
Éíû@É³
 62
     5
  2
*D14
 10
-362.79296875
 20
83.296119689899996
 30
0.0
 11
-652.79296875
 21
83.296119689899996
 31
0.0
 70
   128
  1
560
 13
-362.79296875
 23
-14.75
 33
0.0
 14
-942.79296875
 24
-14.75
 34
0.0
  0
DIMENSION
  5
2E1
  8
Éíû@É³
 62
     5
  2
*D15
 10
-962.79296875
 20
133.875
 30
0.0
 11
-652.79296875
 21
133.875
 31
0.0
 70
   128
  1
600
 13
-962.79296875
 23
-14.75
 33
0.0
 14
-342.79296875
 24
-14.75
 34
0.0
 50
180.0
  0
LINE
  5
2E2
  8
┌▓È_1
 62
     5
 10
-807.79296874999989
 20
235.2721422697
 30
0.0
 11
-648.47403014259999
 21
235.2721422697
 31
0.0
  0
LINE
  5
2E3
  8
┌▓È_1
 62
     5
 10
-807.79296874999989
 20
425.2721422697
 30
0.0
 11
-648.47403014259999
 21
425.2721422697
 31
0.0
  0
LINE
  5
2E4
  8
┌▓È_1
 62
     5
 10
-807.79296874999989
 20
315.2721422697
 30
0.0
 11
-648.47403014259999
 21
315.2721422697
 31
0.0
  0
LINE
  5
2E5
  8
┌▓È_1
 62
     5
 10
-807.79296874999989
 20
385.2721422697
 30
0.0
 11
-648.47403014259999
 21
385.2721422697
 31
0.0
  0
LINE
  5
2E6
  8
┌▓È_1
 62
     5
 10
-807.79296874999989
 20
395.2721422697
 30
0.0
 11
-648.47403014259999
 21
395.2721422697
 31
0.0
  0
LINE
  5
2E7
  8
┌▓È_1
 62
     5
 10
-807.79296874999989
 20
275.2721422697
 30
0.0
 11
-648.47403014259999
 21
275.2721422697
 31
0.0
  0
LINE
  5
2E8
  8
┌▓È_1
 62
     5
 10
-807.79296874999989
 20
265.2721422697
 30
0.0
 11
-648.47403014259999
 21
265.2721422697
 31
0.0
  0
LINE
  5
2E9
  8
┌▓È_1
 62
     5
 10
-807.79296874999989
 20
345.2721422697
 30
0.0
 11
-648.47403014259999
 21
345.2721422697
 31
0.0
  0
LINE
  5
2EA
  8
┌▓È_1
 62
     5
 10
-807.79296874999989
 20
225.2721422697
 30
0.0
 11
-648.27424006069998
 21
225.2721422697
 31
0.0
  0
LINE
  5
2EB
  8
┌▓È_1
 62
     5
 10
-942.19707198179981
 20
-313.14999999999998
 30
0.0
 11
-362.79296875
 21
-313.14999999999998
 31
0.0
  0
LINE
  5
2EC
  8
┌▓È_1
 62
     5
 10
-942.79296875
 20
-303.15041138589999
 30
0.0
 11
-362.79296875
 21
-303.15041138589999
 31
0.0
  0
LINE
  5
2ED
  8
┌▓È_1
 62
     5
 10
-807.79296874999989
 20
305.2721422697
 30
0.0
 11
-648.47403014259999
 21
305.2721422697
 31
0.0
  0
LINE
  5
2EE
  8
┌▓È_1
 62
     5
 10
-807.79296874999989
 20
435.27214226969988
 30
0.0
 11
-648.24275883199994
 21
435.27214226969988
 31
0.0
  0
LINE
  5
2EF
  8
┌▓È_1
 62
     5
 10
-807.79296874999989
 20
355.2721422697
 30
0.0
 11
-648.47403014259999
 21
355.2721422697
 31
0.0
  0
INSERT
  5
2F1
  8
Éíû@É³
 62
     5
  2
BALLON1
 10
0.0
 20
0.0
 30
0.0
  0
INSERT
  5
2FA
  8
0
  6
CONTINUOUS
  2
*U35
 10
0.0
 20
0.0
 30
0.0
  0
INSERT
  5
2FB
  8
0
  6
CONTINUOUS
  2
*U36
 10
0.0
 20
0.0
 30
0.0
  0
INSERT
  5
2FC
  8
0
  6
CONTINUOUS
  2
*U37
 10
0.0
 20
0.0
 30
0.0
  0
INSERT
  5
2FD
  8
0
  6
CONTINUOUS
  2
*U38
 10
0.0
 20
0.0
 30
0.0
  0
INSERT
  5
2FE
  8
0
  6
CONTINUOUS
  2
*U39
 10
0.0
 20
0.0
 30
0.0
  0
INSERT
  5
2FF
  8
0
  6
CONTINUOUS
  2
*U40
 10
0.0
 20
0.0
 30
0.0
  0
DIMENSION
  5
30D
  8
Éíû@É³
 62
     5
  2
*D17
 10
-177.88721669509999
 20
-14.75
 30
0.0
 11
-177.88721669509999
 21
-161.44999999999999
 31
0.0
 70
   128
  1
(293)
 13
-86.884375000000006
 23
-14.75
 33
0.0
 14
-79.841097005199998
 24
-308.14999999999998
 34
0.0
 50
90.0
  0
DIMENSION
  5
31C
  8
Éíû@É³
 62
     5
  2
*D18
 10
-177.88721669509999
 20
-308.14999999999998
 30
0.0
 11
-177.88721669509999
 21
-417.64999999999992
 31
0.0
 70
   128
  1
(219)
 13
-79.841097005199998
 23
-308.14999999999998
 33
0.0
 14
-42.713516493999997
 24
-527.14999999999986
 34
0.0
 50
90.0
  0
INSERT
  5
31D
  8
0
  6
CONTINUOUS
  2
*U41
 10
0.0
 20
0.0
 30
0.0
  0
LINE
  5
31E
  8
Éíû@É³
 62
     5
 10
-255.78046875000001
 20
315.2721422697
 30
0.0
 11
-46.419661458299991
 21
315.2721422697
 31
0.0
  0
LINE
  5
31F
  8
┌▓È_1
 10
57.028906249999999
 20
-1261.2322916666999
 30
0.0
 11
-1450.8139322917
 21
-1261.2322916666999
 31
0.0
  0
LINE
  5
320
  8
┌▓È_1
 10
1107.0289062500001
 20
603.81562499999995
 30
0.0
 11
-1450.8139322917
 21
603.81562499999995
 31
0.0
  0
DIMENSION
  5
32F
  8
Éíû@É³
 62
     5
  2
*D19
 10
-1060.8390884399
 20
-14.75
 30
0.0
 11
-1060.8390884399
 21
-274.75
 31
0.0
 70
   128
  1
<>
 13
-962.79296875
 23
-14.75
 33
0.0
 14
-962.79296875
 24
-534.75
 34
0.0
 50
90.0
  0
LINE
  5
330
  8
┌▓È_1
 62
     5
 10
-362.79296875
 20
-14.75
 30
0.0
 11
-362.79296875
 21
-534.75
 31
0.0
  0
LINE
  5
331
  8
┌▓È_1
 62
     5
 10
-342.79296875
 20
-534.75
 30
0.0
 11
-342.79296875
 21
-14.75
 31
0.0
  0
LINE
  5
332
  8
┌▓È_1
 62
     5
 10
-942.79296875
 20
-534.75
 30
0.0
 11
-942.79296875
 21
-14.75
 31
0.0
  0
LINE
  5
333
  8
┌▓È_1
 62
     5
 10
-962.79296875
 20
-14.75
 30
0.0
 11
-962.79296875
 21
-534.75
 31
0.0
  0
LINE
  5
334
  8
┌▓È_1
 10
-1450.8139322917
 20
-1261.2322916666999
 30
0.0
 11
-1450.8139322917
 21
603.81562499999995
 31
0.0
  0
ARC
  5
335
  8
┌▓È_1
 62
     5
 10
-549.88437499999986
 20
-511.34493795039992
 30
0.0
 40
502.0
 50
0.0000004711
 51
22.733728505599998
  0
LINE
  5
336
  8
┌▓È_1
 62
     5
 10
144.11562499999999
 20
-315.75
 30
0.0
 11
144.11562499999999
 21
-532.74999999999989
 31
0.0
  0
LINE
  5
337
  8
┌▓È_1
 62
     5
 10
146.11562499999999
 20
-304.75
 30
0.0
 11
146.11562499999999
 21
-532.74999999999989
 31
0.0
  0
LINE
  5
338
  8
┌▓È_1
 10
1107.0289062500001
 20
-1030.2322916666999
 30
0.0
 11
1107.0289062500001
 21
603.81562499999995
 31
0.0
  0
ARC
  5
339
  8
┌▓È_1
 62
     5
 10
-549.88437499999986
 20
-511.34493795039992
 30
0.0
 40
500.0
 50
0.0000004995
 51
22.779757890700001
  0
DIMENSION
  5
348
  8
Éíû@É³
 62
     5
  2
*D20
 10
-952.79296875
 20
-1243.7298436482999
 30
0.0
 11
-652.79296875
 21
-1243.7298436482999
 31
0.0
 70
   128
  1
580
 13
-952.79296875
 23
-1145.6837239583001
 33
0.0
 14
-352.79296875
 24
-1145.6837239583001
 34
0.0
 50
180.0
  0
INSERT
  5
349
  8
0
  6
CONTINUOUS
  2
*U42
 10
0.0
 20
0.0
 30
0.0
  0
LINE
  5
34A
  8
┌▓È_1
 62
     5
 10
-942.19707198179981
 20
-904.32109375000005
 30
0.0
 11
-362.79296875
 21
-904.32109375000005
 31
0.0
  0
LINE
  5
34B
  8
┌▓È_1
 62
     5
 10
-362.79296875
 20
-914.32109375000005
 30
0.0
 11
-942.19707198179981
 21
-914.32109375000005
 31
0.0
  0
LINE
  5
34C
  8
┌▓È_1
 62
     5
 10
-942.19707198179981
 20
-1123.32109375
 30
0.0
 11
-362.79296875
 21
-1123.32109375
 31
0.0
  0
LINE
  5
34D
  8
Éíû@É³
 62
     5
 10
-853.05156250000005
 20
-743.61562500000002
 30
0.0
 11
-642.75742187499998
 21
-743.61562500000002
 31
0.0
  0
LINE
  5
34E
  8
┌▓È_1
 62
     5
 10
-942.19707198179981
 20
-522.14999999999986
 30
0.0
 11
-362.79296875
 21
-522.14999999999986
 31
0.0
  0
LINE
  5
34F
  8
┌▓È_1
 62
     5
 10
-362.79296875
 20
-532.14999999999986
 30
0.0
 11
-942.19707198179981
 21
-532.14999999999986
 31
0.0
  0
ENDSEC
  0
EOF
