  0
SECTION
  2
HEADER
  9
$ACADVER
  1
AC1009
  9
$INSBASE
 10
0.0
 20
0.0
 30
0.0
  9
$EXTMIN
 10
-1011.9305059524
 20
-724.42826083240004
 30
0.0
  9
$EXTMAX
 10
565.60455809519999
 20
425.82946428569988
 30
0.0
  9
$LIMMIN
 10
0.0
 20
0.0
  9
$LIMMAX
 10
0.0
 20
0.0
  9
$ORTHOMODE
 70
     0
  9
$REGENMODE
 70
     1
  9
$FILLMODE
 70
     1
  9
$QTEXTMODE
 70
     0
  9
$MIRRTEXT
 70
     1
  9
$DRAGMODE
 70
     2
  9
$LTSCALE
 40
1.0
  9
$OSMODE
 70
    31
  9
$ATTMODE
 70
     1
  9
$TEXTSIZE
 40
0.0
  9
$TRACEWID
 40
0.05
  9
$TEXTSTYLE
  7
STANDARD
  9
$CLAYER
  8
0
  9
$CELTYPE
  6
CONTINUOUS
  9
$CECOLOR
 62
   256
  9
$DIMSCALE
 40
1.0
  9
$DIMASZ
 40
0.18
  9
$DIMEXO
 40
0.0625
  9
$DIMDLI
 40
0.38
  9
$DIMRND
 40
0.0
  9
$DIMDLE
 40
0.0
  9
$DIMEXE
 40
0.18
  9
$DIMTP
 40
0.0
  9
$DIMTM
 40
0.0
  9
$DIMTXT
 40
0.18
  9
$DIMCEN
 40
0.09
  9
$DIMTSZ
 40
0.0
  9
$DIMTOL
 70
     0
  9
$DIMLIM
 70
     0
  9
$DIMTIH
 70
     1
  9
$DIMTOH
 70
     1
  9
$DIMSE1
 70
     0
  9
$DIMSE2
 70
     0
  9
$DIMTAD
 70
     0
  9
$DIMZIN
 70
     0
  9
$DIMBLK
  1

  9
$DIMASO
 70
     1
  9
$DIMSHO
 70
     1
  9
$DIMPOST
  1

  9
$DIMAPOST
  1

  9
$DIMALT
 70
     0
  9
$DIMALTD
 70
     2
  9
$DIMALTF
 40
25.399999999999999
  9
$DIMLFAC
 40
1.0
  9
$DIMTOFL
 70
     0
  9
$DIMTVP
 40
0.0
  9
$DIMTIX
 70
     0
  9
$DIMSOXD
 70
     0
  9
$DIMSAH
 70
     0
  9
$DIMBLK1
  1

  9
$DIMBLK2
  1

  9
$DIMSTYLE
  2
STANDARD
  9
$DIMCLRD
 70
     0
  9
$DIMCLRE
 70
     0
  9
$DIMCLRT
 70
     0
  9
$DIMTFAC
 40
1.0
  9
$DIMGAP
 40
0.09
  9
$LUNITS
 70
     2
  9
$LUPREC
 70
     4
  9
$SKETCHINC
 40
0.1
  9
$FILLETRAD
 40
0.0
  9
$AUNITS
 70
     0
  9
$AUPREC
 70
     0
  9
$MENU
  1
acad
  9
$ELEVATION
 40
0.0
  9
$PELEVATION
 40
0.0
  9
$THICKNESS
 40
0.0
  9
$LIMCHECK
 70
     0
  9
$BLIPMODE
 70
     0
  9
$CHAMFERA
 40
0.0
  9
$CHAMFERB
 40
0.0
  9
$SKPOLY
 70
     0
  9
$TDCREATE
 40
2454861.615410151
  9
$TDUPDATE
 40
2454861.6158646191
  9
$TDINDWG
 40
0.0004633218
  9
$TDUSRTIMER
 40
0.000462963
  9
$USRTIMER
 70
     1
  9
$ANGBASE
 50
0.0
  9
$ANGDIR
 70
     0
  9
$PDMODE
 70
     3
  9
$PDSIZE
 40
-1.0
  9
$PLINEWID
 40
0.0
  9
$COORDS
 70
     2
  9
$SPLFRAME
 70
     0
  9
$SPLINETYPE
 70
     6
  9
$SPLINESEGS
 70
     8
  9
$ATTDIA
 70
     0
  9
$ATTREQ
 70
     1
  9
$HANDLING
 70
     1
  9
$HANDSEED
  5
566
  9
$SURFTAB1
 70
     6
  9
$SURFTAB2
 70
     6
  9
$SURFTYPE
 70
     6
  9
$SURFU
 70
     6
  9
$SURFV
 70
     6
  9
$UCSNAME
  2

  9
$UCSORG
 10
0.0
 20
0.0
 30
0.0
  9
$UCSXDIR
 10
1.0
 20
0.0
 30
0.0
  9
$UCSYDIR
 10
0.0
 20
1.0
 30
0.0
  9
$PUCSNAME
  2

  9
$PUCSORG
 10
0.0
 20
0.0
 30
0.0
  9
$PUCSXDIR
 10
1.0
 20
0.0
 30
0.0
  9
$PUCSYDIR
 10
0.0
 20
1.0
 30
0.0
  9
$USERI1
 70
     0
  9
$USERI2
 70
     0
  9
$USERI3
 70
     0
  9
$USERI4
 70
     0
  9
$USERI5
 70
     0
  9
$USERR1
 40
0.0
  9
$USERR2
 40
0.0
  9
$USERR3
 40
0.0
  9
$USERR4
 40
0.0
  9
$USERR5
 40
0.0
  9
$WORLDVIEW
 70
     1
  9
$SHADEDGE
 70
     3
  9
$SHADEDIF
 70
    70
  9
$TILEMODE
 70
     1
  9
$MAXACTVP
 70
    16
  9
$PLIMCHECK
 70
     0
  9
$PEXTMIN
 10
1.0000000000000000E+020
 20
1.0000000000000000E+020
 30
1.0000000000000000E+020
  9
$PEXTMAX
 10
-1.0000000000000000E+020
 20
-1.0000000000000000E+020
 30
-1.0000000000000000E+020
  9
$PLIMMIN
 10
0.0
 20
0.0
  9
$PLIMMAX
 10
12.0
 20
9.0
  9
$UNITMODE
 70
     0
  9
$VISRETAIN
 70
     0
  9
$PLINEGEN
 70
     1
  9
$PSLTSCALE
 70
     0
  0
ENDSEC
  0
SECTION
  2
TABLES
  0
TABLE
  2
VPORT
 70
     2
  0
VPORT
  2
*ACTIVE
 70
     0
 10
0.0
 20
0.0
 11
1.0
 21
1.0
 12
-135.06445136619161
 22
-99.405700442155648
 13
0.0
 23
0.0
 14
1.0
 24
1.0
 15
0.0
 25
0.0
 16
0.0
 26
0.0
 36
1.0
 17
0.0
 27
0.0
 37
0.0
 40
1285.082221103512
 41
1.6343490304709141
 42
50.0
 43
0.0
 44
0.0
 50
0.0
 51
0.0
 71
     0
 72
   100
 73
     1
 74
     1
 75
     0
 76
     0
 77
     0
 78
     0
  0
ENDTAB
  0
TABLE
  2
LTYPE
 70
    11
  0
LTYPE
  2
CONTINUOUS
 70
     0
  3
Solid line
 72
    65
 73
     0
 40
0.0
  0
LTYPE
  2
DOT
 70
     0
  3
. . . . . . . . 
 72
    65
 73
     2
 40
1.0
 49
0.0
 49
-1.0
  0
LTYPE
  2
DASHED
 70
     0
  3
___  ___  ___  ___  
 72
    65
 73
     2
 40
4.0
 49
3.0
 49
-1.0
  0
LTYPE
  2
HIDDEN
 70
     0
  3
__ __ __ __ 
 72
    65
 73
     2
 40
3.0
 49
2.0
 49
-1.0
  0
LTYPE
  2
STITCH
 70
     0
  3
_ _ _ _ 
 72
    65
 73
     2
 40
2.0
 49
1.0
 49
-1.0
  0
LTYPE
  2
CENTER
 70
     0
  3
______  __  ______  __  
 72
    65
 73
     4
 40
43.0
 49
40.0
 49
-1.0
 49
1.0
 49
-1.0
  0
LTYPE
  2
DASHDOT
 70
     0
  3
____ . ____ . 
 72
    65
 73
     4
 40
32.0
 49
30.0
 49
-1.0
 49
0.0
 49
-1.0
  0
LTYPE
  2
BORDER
 70
     0
  3
__ . __ . 
 72
    65
 73
     4
 40
22.0
 49
20.0
 49
-1.0
 49
0.0
 49
-1.0
  0
LTYPE
  2
CUTTING
 70
     0
  3
________   ___   ___   
 72
    65
 73
     6
 40
45.0
 49
40.0
 49
-1.0
 49
1.0
 49
-1.0
 49
1.0
 49
-1.0
  0
LTYPE
  2
PHANTOM
 70
     0
  3
______  __  __  
 72
    65
 73
     6
 40
35.0
 49
30.0
 49
-1.0
 49
1.0
 49
-1.0
 49
1.0
 49
-1.0
  0
LTYPE
  2
DIVIDE
 70
     0
  3
____ . . ____ . . 
 72
    65
 73
     6
 40
23.0
 49
20.0
 49
-1.0
 49
0.0
 49
-1.0
 49
0.0
 49
-1.0
  0
ENDTAB
  0
TABLE
  2
LAYER
 70
     3
  0
LAYER
  2
0
 70
     0
 62
     7
  6
CONTINUOUS
  0
LAYER
  2
┌▓È_1
 70
     0
 62
     7
  6
CONTINUOUS
  0
LAYER
  2
Éíû@É³
 70
     0
 62
     7
  6
CONTINUOUS
  0
ENDTAB
  0
TABLE
  2
STYLE
 70
     1
  0
STYLE
  2
STANDARD
 70
     0
 40
0.0
 41
1.0
 50
0.0
 71
     0
 42
0.0
  3
txt
  4
extfont
  0
ENDTAB
  0
TABLE
  2
VIEW
 70
     0
  0
ENDTAB
  0
TABLE
  2
UCS
 70
     0
  0
ENDTAB
  0
TABLE
  2
APPID
 70
     2
  0
APPID
  2
ACAD
 70
     0
  0
APPID
  2
DCO15
 70
     0
  0
ENDTAB
  0
TABLE
  2
DIMSTYLE
 70
     3
  0
DIMSTYLE
  2
STANDARD
 70
     0
  3

  4

  5

  6

  7

 40
1.0
 41
0.18
 42
0.0625
 43
0.38
 44
0.18
 45
0.0
 46
0.0
 47
0.0
 48
0.0
140
0.18
141
0.09
142
0.0
143
25.399999999999999
144
1.0
145
0.0
146
1.0
147
0.09
 71
     0
 72
     0
 73
     1
 74
     1
 75
     0
 76
     0
 77
     0
 78
     0
170
     0
171
     2
172
     0
173
     0
174
     0
175
     0
176
     0
177
     0
178
     0
  0
DIMSTYLE
  2
VELDIM0
 70
     0
  3

  4

  5

  6

  7

 40
1.0
 41
8.3402099609000011
 42
0.0625
 43
0.38
 44
4.3172101973999988
 45
0.0
 46
21.586051940899999
 47
0.0
 48
0.0
140
15.534761333500001
141
0.09
142
0.0
143
25.399999999999999
144
1.0
145
0.0
146
1.0
147
0.09
 71
     0
 72
     0
 73
     0
 74
     0
 75
     0
 76
     0
 77
     0
 78
     8
170
     0
171
     2
172
     0
173
     0
174
     0
175
     0
176
     0
177
     0
178
     0
  0
DIMSTYLE
  2
VELDIM1
 70
     0
  3

  4

  5

  6

  7

 40
1.0
 41
8.3402099609000011
 42
0.0625
 43
0.38
 44
4.0824146270999986
 45
0.0
 46
20.4120731354
 47
0.0
 48
0.0
140
15.534761333500001
141
0.09
142
0.0
143
25.399999999999999
144
1.0
145
0.0
146
1.0
147
0.09
 71
     0
 72
     0
 73
     0
 74
     0
 75
     0
 76
     0
 77
     0
 78
     8
170
     0
171
     2
172
     0
173
     0
174
     0
175
     0
176
     0
177
     0
178
     0
  0
ENDTAB
  0
ENDSEC
  0
SECTION
  2
BLOCKS
  0
BLOCK
  8
0
  2
$MODEL_SPACE
 70
     0
 10
0.0
 20
0.0
 30
0.0
  3
$MODEL_SPACE
  1

  0
ENDBLK
  5
E
  8
0
  0
BLOCK
 67
     1
  8
0
  2
$PAPER_SPACE
 70
     0
 10
0.0
 20
0.0
 30
0.0
  3
$PAPER_SPACE
  1

  0
ENDBLK
  5
10
 67
     1
  8
0
  0
BLOCK
  8
0
  2
*D0
 70
     1
 10
0.0
 20
0.0
 30
0.0
  3
*D0
  1

  0
TEXT
  5
60
  8
0
 62
     0
 10
-422.09765546440002
 20
330.87369740809999
 30
0.0
 40
15.534761333500001
  1
P=40
 50
90.0
  0
LINE
  5
61
  8
0
 62
     0
 10
-463.83436680749992
 20
274.3997570038
 30
0.0
 11
-410.7218065987999
 21
274.3997570038
 31
0.0
  0
LINE
  5
62
  8
0
 62
     0
 10
-463.83436680749992
 20
314.3997570038
 30
0.0
 11
-410.7218065987999
 21
314.3997570038
 31
0.0
  0
LINE
  5
63
  8
0
 62
     0
 10
-415.0390167962999
 20
274.3997570038
 30
0.0
 11
-415.0390167962999
 21
376.56417191830002
 31
0.0
  0
LINE
  5
64
  8
0
 62
     0
 10
-415.0390167962999
 20
274.3997570038
 30
0.0
 11
-415.0390167962999
 21
321.73560250599991
 31
0.0
  0
LINE
  5
65
  8
0
 62
     0
 10
-415.0390167962999
 20
314.3997570038
 30
0.0
 11
-415.0390167962999
 21
376.56417191830002
 31
0.0
  0
LINE
  5
66
  8
0
 62
     0
 10
-415.0390167962999
 20
314.3997570038
 30
0.0
 11
-415.0390167962999
 21
321.73560250599991
 31
0.0
  0
LINE
  5
67
  8
0
 62
     0
 10
-415.0390167962999
 20
314.3997570038
 30
0.0
 11
-415.0390167962999
 21
292.8137050629
 31
0.0
  0
SOLID
  5
68
  8
0
 62
     0
 10
-415.0390167962999
 20
314.3997570038
 30
0.0
 11
-412.80426437969999
 21
306.05954704290002
 31
0.0
 12
-417.27376921289999
 22
306.05954704290002
 32
0.0
 13
-415.0390167962999
 23
308.14459953310001
 33
0.0
  0
LINE
  5
69
  8
0
 62
     0
 10
-415.0390167962999
 20
274.3997570038
 30
0.0
 11
-415.0390167962999
 21
295.98580894470001
 31
0.0
  0
SOLID
  5
6A
  8
0
 62
     0
 10
-415.0390167962999
 20
274.3997570038
 30
0.0
 11
-417.27376921289999
 21
282.73996696479998
 31
0.0
 12
-412.80426437969999
 22
282.73996696479998
 32
0.0
 13
-415.0390167962999
 23
280.6549144745
 33
0.0
  0
ENDBLK
  5
6B
  8
0
  0
BLOCK
  8
0
  2
*D1
 70
     1
 10
0.0
 20
0.0
 30
0.0
  3
*D1
  1

  0
TEXT
  5
71
  8
0
 62
     0
 10
-486.17592955539999
 20
30.653548018199999
 30
0.0
 40
15.534761333500001
  1
560
  0
LINE
  5
72
  8
0
 62
     0
 10
-182.46878720239999
 20
-3.4499970753999998
 30
0.0
 11
-182.46878720239999
 21
27.9121195476
 31
0.0
  0
LINE
  5
73
  8
0
 62
     0
 10
-182.46878720239999
 20
23.829704920499999
 30
0.0
 11
-449.62354994729998
 21
23.829704920499999
 31
0.0
  0
LINE
  5
74
  8
0
 62
     0
 10
-182.46878720239999
 20
23.829704920499999
 30
0.0
 11
-495.31402445750001
 21
23.829704920499999
 31
0.0
  0
LINE
  5
75
  8
0
 62
     0
 10
-762.46878720240011
 20
23.829704920499999
 30
0.0
 11
-449.62354994729998
 21
23.829704920499999
 31
0.0
  0
LINE
  5
76
  8
0
 62
     0
 10
-762.46878720240011
 20
23.829704920499999
 30
0.0
 11
-495.31402445750001
 21
23.829704920499999
 31
0.0
  0
LINE
  5
77
  8
0
 62
     0
 10
-762.46878720240011
 20
23.829704920499999
 30
0.0
 11
-742.05671406699992
 21
23.829704920499999
 31
0.0
  0
SOLID
  5
78
  8
0
 62
     0
 10
-762.46878720240011
 20
23.829704920499999
 30
0.0
 11
-754.12857724139985
 21
26.064457337099999
 31
0.0
 12
-754.12857724139985
 22
21.5949525039
 32
0.0
 13
-756.21362973169994
 23
23.829704920499999
 33
0.0
  0
LINE
  5
79
  8
0
 62
     0
 10
-182.46878720239999
 20
23.829704920499999
 30
0.0
 11
-202.88086033779999
 21
23.829704920499999
 31
0.0
  0
SOLID
  5
7A
  8
0
 62
     0
 10
-182.46878720239999
 20
23.829704920499999
 30
0.0
 11
-190.80899716330001
 21
21.5949525039
 31
0.0
 12
-190.80899716330001
 22
26.064457337099999
 32
0.0
 13
-188.72394467309999
 23
23.829704920499999
 33
0.0
  0
ENDBLK
  5
7B
  8
0
  0
BLOCK
  8
0
  2
*D2
 70
     1
 10
0.0
 20
0.0
 30
0.0
  3
*D2
  1

  0
TEXT
  5
7F
  8
0
 62
     0
 10
-824.33188210440005
 20
30.653548018199999
 30
0.0
 40
15.534761333500001
  1
20
  0
LINE
  5
80
  8
0
 62
     0
 10
-762.46878720240011
 20
-3.4499970753999998
 30
0.0
 11
-762.46878720240011
 21
27.9121195476
 31
0.0
  0
LINE
  5
81
  8
0
 62
     0
 10
-762.46878720240011
 20
23.829704920499999
 30
0.0
 11
-796.9175973982999
 21
23.829704920499999
 31
0.0
  0
LINE
  5
82
  8
0
 62
     0
 10
-762.46878720240011
 20
23.829704920499999
 30
0.0
 11
-833.46997700649979
 21
23.829704920499999
 31
0.0
  0
LINE
  5
83
  8
0
 62
     0
 10
-782.46878720240011
 20
23.829704920499999
 30
0.0
 11
-796.9175973982999
 21
23.829704920499999
 31
0.0
  0
LINE
  5
84
  8
0
 62
     0
 10
-782.46878720240011
 20
23.829704920499999
 30
0.0
 11
-833.46997700649979
 21
23.829704920499999
 31
0.0
  0
LINE
  5
85
  8
0
 62
     0
 10
-782.46878720240011
 20
23.829704920499999
 30
0.0
 11
-762.05671406699992
 21
23.829704920499999
 31
0.0
  0
SOLID
  5
86
  8
0
 62
     0
 10
-782.46878720240011
 20
23.829704920499999
 30
0.0
 11
-774.12857724139985
 21
26.064457337099999
 31
0.0
 12
-774.12857724139985
 22
21.5949525039
 32
0.0
 13
-776.21362973169994
 23
23.829704920499999
 33
0.0
  0
LINE
  5
87
  8
0
 62
     0
 10
-762.46878720240011
 20
23.829704920499999
 30
0.0
 11
-782.88086033779985
 21
23.829704920499999
 31
0.0
  0
SOLID
  5
88
  8
0
 62
     0
 10
-762.46878720240011
 20
23.829704920499999
 30
0.0
 11
-770.80899716329998
 21
21.5949525039
 31
0.0
 12
-770.80899716329998
 22
26.064457337099999
 32
0.0
 13
-768.72394467309994
 23
23.829704920499999
 33
0.0
  0
ENDBLK
  5
89
  8
0
  0
BLOCK
  8
0
  2
*D3
 70
     1
 10
0.0
 20
0.0
 30
0.0
  3
*D3
  1

  0
TEXT
  5
8D
  8
0
 62
     0
 10
-850.52885161349991
 20
199.18864038149999
 30
0.0
 40
15.534761333500001
  1
152
 50
90.0
  0
LINE
  5
8E
  8
0
 62
     0
 10
-788.37487687320004
 20
288.89578273450002
 30
0.0
 11
-847.7874231428998
 21
288.89578273450002
 31
0.0
  0
LINE
  5
8F
  8
0
 62
     0
 10
-843.70500851589986
 20
288.89578273450002
 30
0.0
 11
-843.70500851589986
 21
235.74101998960001
 31
0.0
  0
LINE
  5
90
  8
0
 62
     0
 10
-843.70500851589986
 20
288.89578273450002
 30
0.0
 11
-843.70500851589986
 21
190.0505454794
 31
0.0
  0
LINE
  5
91
  8
0
 62
     0
 10
-843.70500851589986
 20
136.89578273449999
 30
0.0
 11
-843.70500851589986
 21
235.74101998960001
 31
0.0
  0
LINE
  5
92
  8
0
 62
     0
 10
-843.70500851589986
 20
136.89578273449999
 30
0.0
 11
-843.70500851589986
 21
190.0505454794
 31
0.0
  0
LINE
  5
93
  8
0
 62
     0
 10
-843.70500851589986
 20
136.89578273449999
 30
0.0
 11
-843.70500851589986
 21
157.30785586990001
 31
0.0
  0
SOLID
  5
94
  8
0
 62
     0
 10
-843.70500851589986
 20
136.89578273449999
 30
0.0
 11
-845.93976093250001
 21
145.23599269549999
 31
0.0
 12
-841.4702560991999
 22
145.23599269549999
 32
0.0
 13
-843.70500851589986
 23
143.15094020519999
 33
0.0
  0
LINE
  5
95
  8
0
 62
     0
 10
-843.70500851589986
 20
288.89578273450002
 30
0.0
 11
-843.70500851589986
 21
268.48370959919998
 31
0.0
  0
SOLID
  5
96
  8
0
 62
     0
 10
-843.70500851589986
 20
288.89578273450002
 30
0.0
 11
-841.4702560991999
 21
280.55557277359998
 31
0.0
 12
-845.93976093250001
 22
280.55557277359998
 32
0.0
 13
-843.70500851589986
 23
282.64062526380002
 33
0.0
  0
ENDBLK
  5
97
  8
0
  0
BLOCK
  8
0
  2
*D4
 70
     1
 10
0.0
 20
0.0
 30
0.0
  3
*D4
  1

  0
TEXT
  5
9B
  8
0
 62
     0
 10
-850.52885161349991
 20
107.7576878325
 30
0.0
 40
15.534761333500001
  1
40
 50
90.0
  0
LINE
  5
9C
  8
0
 62
     0
 10
-788.8270875579999
 20
136.89578273449999
 30
0.0
 11
-847.7874231428998
 21
136.89578273449999
 31
0.0
  0
LINE
  5
9D
  8
0
 62
     0
 10
-843.70500851589986
 20
136.89578273449999
 30
0.0
 11
-843.70500851589986
 21
135.17197253859999
 31
0.0
  0
LINE
  5
9E
  8
0
 62
     0
 10
-843.70500851589986
 20
136.89578273449999
 30
0.0
 11
-843.70500851589986
 21
98.619592930499991
 31
0.0
  0
LINE
  5
9F
  8
0
 62
     0
 10
-843.70500851589986
 20
96.895782734500017
 30
0.0
 11
-843.70500851589986
 21
135.17197253859999
 31
0.0
  0
LINE
  5
A0
  8
0
 62
     0
 10
-843.70500851589986
 20
96.895782734500017
 30
0.0
 11
-843.70500851589986
 21
98.619592930499991
 31
0.0
  0
LINE
  5
A1
  8
0
 62
     0
 10
-843.70500851589986
 20
96.895782734500017
 30
0.0
 11
-843.70500851589986
 21
76.483709599199997
 31
0.0
  0
SOLID
  5
A2
  8
0
 62
     0
 10
-843.70500851589986
 20
96.895782734500017
 30
0.0
 11
-841.4702560991999
 21
88.555572773600005
 31
0.0
 12
-845.93976093250001
 22
88.555572773600005
 32
0.0
 13
-843.70500851589986
 23
90.640625263799976
 33
0.0
  0
LINE
  5
A3
  8
0
 62
     0
 10
-843.70500851589986
 20
136.89578273449999
 30
0.0
 11
-843.70500851589986
 21
157.30785586990001
 31
0.0
  0
SOLID
  5
A4
  8
0
 62
     0
 10
-843.70500851589986
 20
136.89578273449999
 30
0.0
 11
-845.93976093250001
 21
145.23599269549999
 31
0.0
 12
-841.4702560991999
 22
145.23599269549999
 32
0.0
 13
-843.70500851589986
 23
143.15094020519999
 33
0.0
  0
ENDBLK
  5
A5
  8
0
  0
BLOCK
  8
0
  2
*D5
 70
     1
 10
0.0
 20
0.0
 30
0.0
  3
*D5
  1

  0
TEXT
  5
A9
  8
0
 62
     0
 10
-486.17592955539999
 20
404.9843494097999
 30
0.0
 40
15.534761333500001
  1
580
  0
LINE
  5
AA
  8
0
 62
     0
 10
-172.46878720239999
 20
345.08911425280002
 30
0.0
 11
-172.46878720239999
 21
402.24292093919991
 31
0.0
  0
LINE
  5
AB
  8
0
 62
     0
 10
-772.46878720239999
 20
345.08911425280002
 30
0.0
 11
-772.46878720239999
 21
402.24292093919991
 31
0.0
  0
LINE
  5
AC
  8
0
 62
     0
 10
-172.46878720239999
 20
398.16050631209998
 30
0.0
 11
-449.62354994729998
 21
398.16050631209998
 31
0.0
  0
LINE
  5
AD
  8
0
 62
     0
 10
-172.46878720239999
 20
398.16050631209998
 30
0.0
 11
-495.31402445750001
 21
398.16050631209998
 31
0.0
  0
LINE
  5
AE
  8
0
 62
     0
 10
-772.46878720239999
 20
398.16050631209998
 30
0.0
 11
-449.62354994729998
 21
398.16050631209998
 31
0.0
  0
LINE
  5
AF
  8
0
 62
     0
 10
-772.46878720239999
 20
398.16050631209998
 30
0.0
 11
-495.31402445750001
 21
398.16050631209998
 31
0.0
  0
LINE
  5
B0
  8
0
 62
     0
 10
-772.46878720239999
 20
398.16050631209998
 30
0.0
 11
-752.0567140669998
 21
398.16050631209998
 31
0.0
  0
SOLID
  5
B1
  8
0
 62
     0
 10
-772.46878720239999
 20
398.16050631209998
 30
0.0
 11
-764.12857724139997
 21
400.39525872870001
 31
0.0
 12
-764.12857724139997
 22
395.92575389550001
 32
0.0
 13
-766.21362973169994
 23
398.16050631209998
 33
0.0
  0
LINE
  5
B2
  8
0
 62
     0
 10
-172.46878720239999
 20
398.16050631209998
 30
0.0
 11
-192.88086033779999
 21
398.16050631209998
 31
0.0
  0
SOLID
  5
B3
  8
0
 62
     0
 10
-172.46878720239999
 20
398.16050631209998
 30
0.0
 11
-180.80899716330001
 21
395.92575389550001
 31
0.0
 12
-180.80899716330001
 22
400.39525872870001
 32
0.0
 13
-178.72394467309999
 23
398.16050631209998
 33
0.0
  0
ENDBLK
  5
B4
  8
0
  0
BLOCK
  8
0
  2
*D6
 70
     1
 10
0.0
 20
0.0
 30
0.0
  3
*D6
  1

  0
TEXT
  5
BB
  8
0
 62
     0
 10
-130.49516335440001
 20
30.653548018199999
 30
0.0
 40
15.534761333500001
  1
20
  0
LINE
  5
BC
  8
0
 62
     0
 10
-162.46878720239999
 20
-3.4499970753999998
 30
0.0
 11
-162.46878720239999
 21
27.9121195476
 31
0.0
  0
LINE
  5
BD
  8
0
 62
     0
 10
-162.46878720239999
 20
23.829704920499999
 30
0.0
 11
-103.0808786483
 21
23.829704920499999
 31
0.0
  0
LINE
  5
BE
  8
0
 62
     0
 10
-162.46878720239999
 20
23.829704920499999
 30
0.0
 11
-139.6332582565
 21
23.829704920499999
 31
0.0
  0
LINE
  5
BF
  8
0
 62
     0
 10
-182.46878720239999
 20
23.829704920499999
 30
0.0
 11
-103.0808786483
 21
23.829704920499999
 31
0.0
  0
LINE
  5
C0
  8
0
 62
     0
 10
-182.46878720239999
 20
23.829704920499999
 30
0.0
 11
-139.6332582565
 21
23.829704920499999
 31
0.0
  0
LINE
  5
C1
  8
0
 62
     0
 10
-182.46878720239999
 20
23.829704920499999
 30
0.0
 11
-162.056714067
 21
23.829704920499999
 31
0.0
  0
SOLID
  5
C2
  8
0
 62
     0
 10
-182.46878720239999
 20
23.829704920499999
 30
0.0
 11
-174.1285772414
 21
26.064457337099999
 31
0.0
 12
-174.1285772414
 22
21.5949525039
 32
0.0
 13
-176.2136297317
 23
23.829704920499999
 33
0.0
  0
LINE
  5
C3
  8
0
 62
     0
 10
-162.46878720239999
 20
23.829704920499999
 30
0.0
 11
-182.88086033779999
 21
23.829704920499999
 31
0.0
  0
SOLID
  5
C4
  8
0
 62
     0
 10
-162.46878720239999
 20
23.829704920499999
 30
0.0
 11
-170.80899716330001
 21
21.5949525039
 31
0.0
 12
-170.80899716330001
 22
26.064457337099999
 32
0.0
 13
-168.72394467309999
 23
23.829704920499999
 33
0.0
  0
ENDBLK
  5
C5
  8
0
  0
BLOCK
  8
0
  2
*D7
 70
     1
 10
0.0
 20
0.0
 30
0.0
  3
*D7
  1

  0
TEXT
  5
C9
  8
0
 62
     0
 10
145.3675600279
 20
58.201968161300002
 30
0.0
 40
15.534761333500001
  1
235
  0
LINE
  5
CA
  8
0
 62
     0
 10
277.57470238100001
 20
-4.9804059345999994
 30
0.0
 11
277.57470238100001
 21
55.460539690699989
 31
0.0
  0
LINE
  5
CB
  8
0
 62
     0
 10
40.574702381000002
 20
-4.9804059345999994
 30
0.0
 11
40.574702381000002
 21
55.460539690699989
 31
0.0
  0
LINE
  5
CC
  8
0
 62
     0
 10
277.57470238100001
 20
51.1433294932
 30
0.0
 11
181.91993963600001
 21
51.1433294932
 31
0.0
  0
LINE
  5
CD
  8
0
 62
     0
 10
277.57470238100001
 20
51.1433294932
 30
0.0
 11
136.22946512589999
 21
51.1433294932
 31
0.0
  0
LINE
  5
CE
  8
0
 62
     0
 10
40.574702381000002
 20
51.1433294932
 30
0.0
 11
181.91993963600001
 21
51.1433294932
 31
0.0
  0
LINE
  5
CF
  8
0
 62
     0
 10
40.574702381000002
 20
51.1433294932
 30
0.0
 11
136.22946512589999
 21
51.1433294932
 31
0.0
  0
LINE
  5
D0
  8
0
 62
     0
 10
40.574702381000002
 20
51.1433294932
 30
0.0
 11
62.160754321899987
 21
51.1433294932
 31
0.0
  0
SOLID
  5
D1
  8
0
 62
     0
 10
40.574702381000002
 20
51.1433294932
 30
0.0
 11
48.914912341899999
 21
53.37808190989999
 31
0.0
 12
48.914912341899999
 22
48.908577076599997
 32
0.0
 13
46.8298598517
 23
51.1433294932
 33
0.0
  0
LINE
  5
D2
  8
0
 62
     0
 10
277.57470238100001
 20
51.1433294932
 30
0.0
 11
255.98865043999999
 21
51.1433294932
 31
0.0
  0
SOLID
  5
D3
  8
0
 62
     0
 10
277.57470238100001
 20
51.1433294932
 30
0.0
 11
269.23449241999998
 21
48.908577076599997
 31
0.0
 12
269.23449241999998
 22
53.37808190989999
 32
0.0
 13
271.31954491020002
 23
51.1433294932
 33
0.0
  0
ENDBLK
  5
D4
  8
0
  0
BLOCK
  8
0
  2
*D8
 70
     1
 10
0.0
 20
0.0
 30
0.0
  3
*D8
  1

  0
TEXT
  5
F8
  8
0
 62
     0
 10
-865.72348967509993
 20
-175.27466529200001
 30
0.0
 40
15.534761333500001
  1
300
 50
90.0
  0
LINE
  5
F9
  8
0
 62
     0
 10
-790.63361645649991
 20
-11.6148263295
 30
0.0
 11
-862.98206120450004
 21
-11.6148263295
 31
0.0
  0
LINE
  5
FA
  8
0
 62
     0
 10
-790.63361645649991
 20
-311.52021954830002
 30
0.0
 11
-862.98206120450004
 21
-311.52021954830002
 31
0.0
  0
LINE
  5
FB
  8
0
 62
     0
 10
-858.89964657739995
 20
-11.6148263295
 30
0.0
 11
-858.89964657739995
 21
-138.72228568380001
 31
0.0
  0
LINE
  5
FC
  8
0
 62
     0
 10
-858.89964657739995
 20
-11.6148263295
 30
0.0
 11
-858.89964657739995
 21
-184.41276019399999
 31
0.0
  0
LINE
  5
FD
  8
0
 62
     0
 10
-858.89964657739995
 20
-311.52021954830002
 30
0.0
 11
-858.89964657739995
 21
-138.72228568380001
 31
0.0
  0
LINE
  5
FE
  8
0
 62
     0
 10
-858.89964657739995
 20
-311.52021954830002
 30
0.0
 11
-858.89964657739995
 21
-184.41276019399999
 31
0.0
  0
LINE
  5
FF
  8
0
 62
     0
 10
-858.89964657739995
 20
-311.52021954830002
 30
0.0
 11
-858.89964657739995
 21
-291.1081464129
 31
0.0
  0
SOLID
  5
100
  8
0
 62
     0
 10
-858.89964657739995
 20
-311.52021954830002
 30
0.0
 11
-861.13439899399987
 21
-303.18000958739998
 31
0.0
 12
-856.66489416080015
 22
-303.18000958739998
 32
0.0
 13
-858.89964657739995
 23
-305.26506207760002
 33
0.0
  0
LINE
  5
101
  8
0
 62
     0
 10
-858.89964657739995
 20
-11.6148263295
 30
0.0
 11
-858.89964657739995
 21
-32.026899464899998
 31
0.0
  0
SOLID
  5
102
  8
0
 62
     0
 10
-858.89964657739995
 20
-11.6148263295
 30
0.0
 11
-856.66489416080015
 21
-19.955036290399999
 31
0.0
 12
-861.13439899399987
 22
-19.955036290399999
 32
0.0
 13
-858.89964657739995
 23
-17.8699838002
 33
0.0
  0
ENDBLK
  5
103
  8
0
  0
BLOCK
  8
0
  2
*D9
 70
     1
 10
0.0
 20
0.0
 30
0.0
  3
*D9
  1

  0
TEXT
  5
107
  8
0
 62
     0
 10
-486.17592955539999
 20
56.445238081699991
 30
0.0
 40
15.534761333500001
  1
600
  0
LINE
  5
108
  8
0
 62
     0
 10
-162.46878720239999
 20
-3.4499970753999998
 30
0.0
 11
-162.46878720239999
 21
53.703809610999997
 31
0.0
  0
LINE
  5
109
  8
0
 62
     0
 10
-782.46878720240011
 20
-3.4499970753999998
 30
0.0
 11
-782.46878720240011
 21
53.703809610999997
 31
0.0
  0
LINE
  5
10A
  8
0
 62
     0
 10
-162.46878720239999
 20
49.621394983999998
 30
0.0
 11
-449.62354994729998
 21
49.621394983999998
 31
0.0
  0
LINE
  5
10B
  8
0
 62
     0
 10
-162.46878720239999
 20
49.621394983999998
 30
0.0
 11
-495.31402445750001
 21
49.621394983999998
 31
0.0
  0
LINE
  5
10C
  8
0
 62
     0
 10
-782.46878720240011
 20
49.621394983999998
 30
0.0
 11
-449.62354994729998
 21
49.621394983999998
 31
0.0
  0
LINE
  5
10D
  8
0
 62
     0
 10
-782.46878720240011
 20
49.621394983999998
 30
0.0
 11
-495.31402445750001
 21
49.621394983999998
 31
0.0
  0
LINE
  5
10E
  8
0
 62
     0
 10
-782.46878720240011
 20
49.621394983999998
 30
0.0
 11
-762.05671406699992
 21
49.621394983999998
 31
0.0
  0
SOLID
  5
10F
  8
0
 62
     0
 10
-782.46878720240011
 20
49.621394983999998
 30
0.0
 11
-774.12857724139985
 21
51.856147400600001
 31
0.0
 12
-774.12857724139985
 22
47.386642567399988
 32
0.0
 13
-776.21362973169994
 23
49.621394983999998
 33
0.0
  0
LINE
  5
110
  8
0
 62
     0
 10
-162.46878720239999
 20
49.621394983999998
 30
0.0
 11
-182.88086033779999
 21
49.621394983999998
 31
0.0
  0
SOLID
  5
111
  8
0
 62
     0
 10
-162.46878720239999
 20
49.621394983999998
 30
0.0
 11
-170.80899716330001
 21
47.386642567399988
 31
0.0
 12
-170.80899716330001
 22
51.856147400600001
 32
0.0
 13
-168.72394467309999
 23
49.621394983999998
 33
0.0
  0
ENDBLK
  5
112
  8
0
  0
BLOCK
  8
0
  2
*D10
 70
     1
 10
0.0
 20
0.0
 30
0.0
  3
*D10
  1

  0
TEXT
  5
116
  8
0
 62
     0
 10
-850.52885161349991
 20
-525.59306243260005
 30
0.0
 40
15.534761333500001
  1
208
 50
90.0
  0
LINE
  5
117
  8
0
 62
     0
 10
-788.04996326360003
 20
-407.8859200794999
 30
0.0
 11
-847.7874231428998
 21
-407.8859200794999
 31
0.0
  0
LINE
  5
118
  8
0
 62
     0
 10
-843.70500851589986
 20
-407.8859200794999
 30
0.0
 11
-843.70500851589986
 21
-489.04068282439999
 31
0.0
  0
LINE
  5
119
  8
0
 62
     0
 10
-843.70500851589986
 20
-407.8859200794999
 30
0.0
 11
-843.70500851589986
 21
-534.73115733459986
 31
0.0
  0
LINE
  5
11A
  8
0
 62
     0
 10
-843.70500851589986
 20
-615.8859200794999
 30
0.0
 11
-843.70500851589986
 21
-489.04068282439999
 31
0.0
  0
LINE
  5
11B
  8
0
 62
     0
 10
-843.70500851589986
 20
-615.8859200794999
 30
0.0
 11
-843.70500851589986
 21
-534.73115733459986
 31
0.0
  0
LINE
  5
11C
  8
0
 62
     0
 10
-843.70500851589986
 20
-615.8859200794999
 30
0.0
 11
-843.70500851589986
 21
-595.47384694410005
 31
0.0
  0
SOLID
  5
11D
  8
0
 62
     0
 10
-843.70500851589986
 20
-615.8859200794999
 30
0.0
 11
-845.93976093250001
 21
-607.54571011860003
 31
0.0
 12
-841.4702560991999
 22
-607.54571011860003
 32
0.0
 13
-843.70500851589986
 23
-609.63076260879996
 33
0.0
  0
LINE
  5
11E
  8
0
 62
     0
 10
-843.70500851589986
 20
-407.8859200794999
 30
0.0
 11
-843.70500851589986
 21
-428.29799321489992
 31
0.0
  0
SOLID
  5
11F
  8
0
 62
     0
 10
-843.70500851589986
 20
-407.8859200794999
 30
0.0
 11
-841.4702560991999
 21
-416.22613004039999
 31
0.0
 12
-845.93976093250001
 22
-416.22613004039999
 32
0.0
 13
-843.70500851589986
 23
-414.1410775501999
 33
0.0
  0
ENDBLK
  5
120
  8
0
  0
BLOCK
  8
0
  2
*D11
 70
     1
 10
0.0
 20
0.0
 30
0.0
  3
*D11
  1

  0
TEXT
  5
124
  8
0
 62
     0
 10
-486.17592955539999
 20
-706.9386394817999
 30
0.0
 40
15.534761333500001
  1
580
  0
LINE
  5
125
  8
0
 62
     0
 10
-772.46878720239999
 20
-638.48526161849998
 30
0.0
 11
-772.46878720239999
 21
-717.84489720659997
 31
0.0
  0
LINE
  5
126
  8
0
 62
     0
 10
-172.46878720239999
 20
-638.48526161849998
 30
0.0
 11
-172.46878720239999
 21
-717.84489720659997
 31
0.0
  0
LINE
  5
127
  8
0
 62
     0
 10
-772.46878720239999
 20
-713.76248257949999
 30
0.0
 11
-449.62354994729998
 21
-713.76248257949999
 31
0.0
  0
LINE
  5
128
  8
0
 62
     0
 10
-772.46878720239999
 20
-713.76248257949999
 30
0.0
 11
-495.31402445750001
 21
-713.76248257949999
 31
0.0
  0
LINE
  5
129
  8
0
 62
     0
 10
-172.46878720239999
 20
-713.76248257949999
 30
0.0
 11
-449.62354994729998
 21
-713.76248257949999
 31
0.0
  0
LINE
  5
12A
  8
0
 62
     0
 10
-172.46878720239999
 20
-713.76248257949999
 30
0.0
 11
-495.31402445750001
 21
-713.76248257949999
 31
0.0
  0
LINE
  5
12B
  8
0
 62
     0
 10
-172.46878720239999
 20
-713.76248257949999
 30
0.0
 11
-192.88086033779999
 21
-713.76248257949999
 31
0.0
  0
SOLID
  5
12C
  8
0
 62
     0
 10
-172.46878720239999
 20
-713.76248257949999
 30
0.0
 11
-180.80899716330001
 21
-715.99723499610002
 31
0.0
 12
-180.80899716330001
 22
-711.52773016289996
 32
0.0
 13
-178.72394467309999
 23
-713.76248257949999
 33
0.0
  0
LINE
  5
12D
  8
0
 62
     0
 10
-772.46878720239999
 20
-713.76248257949999
 30
0.0
 11
-752.0567140669998
 21
-713.76248257949999
 31
0.0
  0
SOLID
  5
12E
  8
0
 62
     0
 10
-772.46878720239999
 20
-713.76248257949999
 30
0.0
 11
-764.12857724139997
 21
-711.52773016289996
 31
0.0
 12
-764.12857724139997
 22
-715.99723499610002
 32
0.0
 13
-766.21362973169994
 23
-713.76248257949999
 33
0.0
  0
ENDBLK
  5
12F
  8
0
  0
BLOCK
  8
0
  2
*D12
 70
     1
 10
0.0
 20
0.0
 30
0.0
  3
*D12
  1

  0
TEXT
  5
133
  8
0
 62
     0
 10
-850.52885161349991
 20
302.25768783249998
 30
0.0
 40
15.534761333500001
  1
43
 50
90.0
  0
LINE
  5
134
  8
0
 62
     0
 10
-790.63361645649991
 20
333.89578273450002
 30
0.0
 11
-847.7874231428998
 21
333.89578273450002
 31
0.0
  0
LINE
  5
135
  8
0
 62
     0
 10
-843.70500851589986
 20
333.89578273450002
 30
0.0
 11
-843.70500851589986
 21
329.67197253860002
 31
0.0
  0
LINE
  5
136
  8
0
 62
     0
 10
-843.70500851589986
 20
333.89578273450002
 30
0.0
 11
-843.70500851589986
 21
293.1195929305
 31
0.0
  0
LINE
  5
137
  8
0
 62
     0
 10
-843.70500851589986
 20
288.89578273450002
 30
0.0
 11
-843.70500851589986
 21
329.67197253860002
 31
0.0
  0
LINE
  5
138
  8
0
 62
     0
 10
-843.70500851589986
 20
288.89578273450002
 30
0.0
 11
-843.70500851589986
 21
293.1195929305
 31
0.0
  0
LINE
  5
139
  8
0
 62
     0
 10
-843.70500851589986
 20
288.89578273450002
 30
0.0
 11
-843.70500851589986
 21
268.48370959919998
 31
0.0
  0
SOLID
  5
13A
  8
0
 62
     0
 10
-843.70500851589986
 20
288.89578273450002
 30
0.0
 11
-841.4702560991999
 21
280.55557277359998
 31
0.0
 12
-845.93976093250001
 22
280.55557277359998
 32
0.0
 13
-843.70500851589986
 23
282.64062526380002
 33
0.0
  0
LINE
  5
13B
  8
0
 62
     0
 10
-843.70500851589986
 20
333.89578273450002
 30
0.0
 11
-843.70500851589986
 21
354.30785586989998
 31
0.0
  0
SOLID
  5
13C
  8
0
 62
     0
 10
-843.70500851589986
 20
333.89578273450002
 30
0.0
 11
-845.93976093250001
 21
342.23599269549999
 31
0.0
 12
-841.4702560991999
 22
342.23599269549999
 32
0.0
 13
-843.70500851589986
 23
340.15094020520002
 33
0.0
  0
ENDBLK
  5
13D
  8
0
  0
BLOCK
  8
0
  2
*D13
 70
     1
 10
0.0
 20
0.0
 30
0.0
  3
*D13
  1

  0
TEXT
  5
141
  8
0
 62
     0
 10
-850.52885161349991
 20
-397.02401498149999
 30
0.0
 40
15.534761333500001
  1
41
 50
90.0
  0
LINE
  5
142
  8
0
 62
     0
 10
-790.63361645649991
 20
-367.8859200794999
 30
0.0
 11
-847.7874231428998
 21
-367.8859200794999
 31
0.0
  0
LINE
  5
143
  8
0
 62
     0
 10
-843.70500851589986
 20
-367.8859200794999
 30
0.0
 11
-843.70500851589986
 21
-369.60973027540001
 31
0.0
  0
LINE
  5
144
  8
0
 62
     0
 10
-843.70500851589986
 20
-367.8859200794999
 30
0.0
 11
-843.70500851589986
 21
-406.16210988360001
 31
0.0
  0
LINE
  5
145
  8
0
 62
     0
 10
-843.70500851589986
 20
-407.8859200794999
 30
0.0
 11
-843.70500851589986
 21
-369.60973027540001
 31
0.0
  0
LINE
  5
146
  8
0
 62
     0
 10
-843.70500851589986
 20
-407.8859200794999
 30
0.0
 11
-843.70500851589986
 21
-406.16210988360001
 31
0.0
  0
LINE
  5
147
  8
0
 62
     0
 10
-843.70500851589986
 20
-407.8859200794999
 30
0.0
 11
-843.70500851589986
 21
-428.29799321489992
 31
0.0
  0
SOLID
  5
148
  8
0
 62
     0
 10
-843.70500851589986
 20
-407.8859200794999
 30
0.0
 11
-841.4702560991999
 21
-416.22613004039999
 31
0.0
 12
-845.93976093250001
 22
-416.22613004039999
 32
0.0
 13
-843.70500851589986
 23
-414.1410775501999
 33
0.0
  0
LINE
  5
149
  8
0
 62
     0
 10
-843.70500851589986
 20
-367.8859200794999
 30
0.0
 11
-843.70500851589986
 21
-347.4738469441001
 31
0.0
  0
SOLID
  5
14A
  8
0
 62
     0
 10
-843.70500851589986
 20
-367.8859200794999
 30
0.0
 11
-845.93976093250001
 21
-359.54571011860003
 31
0.0
 12
-841.4702560991999
 22
-359.54571011860003
 32
0.0
 13
-843.70500851589986
 23
-361.63076260880001
 33
0.0
  0
ENDBLK
  5
14B
  8
0
  0
BLOCK
  8
0
  2
*D14
 70
     1
 10
0.0
 20
0.0
 30
0.0
  3
*D14
  1

  0
TEXT
  5
14F
  8
0
 62
     0
 10
-850.52885161349991
 20
-651.01480200510002
 30
0.0
 40
15.534761333500001
  1
51
 50
90.0
  0
LINE
  5
150
  8
0
 62
     0
 10
-787.8659052925999
 20
-615.8859200794999
 30
0.0
 11
-847.7874231428998
 21
-615.8859200794999
 31
0.0
  0
LINE
  5
151
  8
0
 62
     0
 10
-843.70500851589986
 20
-615.8859200794999
 30
0.0
 11
-843.70500851589986
 21
-623.60051729889994
 31
0.0
  0
LINE
  5
152
  8
0
 62
     0
 10
-843.70500851589986
 20
-615.8859200794999
 30
0.0
 11
-843.70500851589986
 21
-660.15289690709994
 31
0.0
  0
LINE
  5
153
  8
0
 62
     0
 10
-843.70500851589986
 20
-667.86749412649999
 30
0.0
 11
-843.70500851589986
 21
-623.60051729889994
 31
0.0
  0
LINE
  5
154
  8
0
 62
     0
 10
-843.70500851589986
 20
-667.86749412649999
 30
0.0
 11
-843.70500851589986
 21
-660.15289690709994
 31
0.0
  0
LINE
  5
155
  8
0
 62
     0
 10
-843.70500851589986
 20
-667.86749412649999
 30
0.0
 11
-843.70500851589986
 21
-688.27956726190007
 31
0.0
  0
SOLID
  5
156
  8
0
 62
     0
 10
-843.70500851589986
 20
-667.86749412649999
 30
0.0
 11
-841.4702560991999
 21
-676.20770408749991
 31
0.0
 12
-845.93976093250001
 22
-676.20770408749991
 32
0.0
 13
-843.70500851589986
 23
-674.12265159720005
 33
0.0
  0
LINE
  5
157
  8
0
 62
     0
 10
-843.70500851589986
 20
-615.8859200794999
 30
0.0
 11
-843.70500851589986
 21
-595.47384694410005
 31
0.0
  0
SOLID
  5
158
  8
0
 62
     0
 10
-843.70500851589986
 20
-615.8859200794999
 30
0.0
 11
-845.93976093250001
 21
-607.54571011860003
 31
0.0
 12
-841.4702560991999
 22
-607.54571011860003
 32
0.0
 13
-843.70500851589986
 23
-609.63076260879996
 33
0.0
  0
ENDBLK
  5
159
  8
0
  0
BLOCK
  8
0
  2
BALLON0
 70
     0
 10
0.0
 20
0.0
 30
0.0
  3
BALLON0
  1

  0
INSERT
  5
28E
  8
0
  6
CONTINUOUS
  2
*U43
 10
0.0
 20
0.0
 30
0.0
  0
CIRCLE
  5
28F
  8
┌▓È_1
 62
     5
 10
-541.54672300000004
 20
-98.210918898799989
 30
0.0
 40
17.268841200000001
  0
LINE
  5
290
  8
Éíû@É³
 62
     5
 10
-570.32812499999989
 20
-98.210918898799989
 30
0.0
 11
-558.81556420000004
 21
-98.210918898799989
 31
0.0
  0
LINE
  5
291
  8
Éíû@É³
 62
     5
 10
-645.89378720239995
 20
-283.51482632950001
 30
0.0
 11
-570.32812499999989
 21
-98.210918898799989
 31
0.0
  0
SOLID
  5
292
  8
Éíû@É³
 62
     5
 10
-645.89378720239995
 20
-283.51482632950001
 30
0.0
 11
-642.57109472260004
 21
-266.22028655150001
 31
0.0
 12
-640.67717148290001
 22
-270.72251765099998
 32
0.0
 13
-640.67717148290001
 23
-270.72251765099998
 33
0.0
  0
SOLID
  5
293
  8
Éíû@É³
 62
     5
 10
-640.67717148290001
 20
-270.72251765099998
 30
0.0
 11
-636.17494038339987
 21
-268.8285944113
 31
0.0
 12
-645.89378720239995
 22
-283.51482632950001
 32
0.0
 13
-645.89378720239995
 23
-283.51482632950001
 33
0.0
  0
ENDBLK
  5
294
  8
0
  0
BLOCK
  8
0
  2
BALLON1
 70
     0
 10
0.0
 20
0.0
 30
0.0
  3
BALLON1
  1

  0
INSERT
  5
298
  8
0
  6
CONTINUOUS
  2
*U44
 10
0.0
 20
0.0
 30
0.0
  0
CIRCLE
  5
299
  8
┌▓È_1
 62
     5
 10
-676.05455410119998
 20
-98.210918898799989
 30
0.0
 40
17.268841200000001
  0
LINE
  5
29A
  8
Éíû@É³
 62
     5
 10
-704.83595610119994
 20
-98.210918898799989
 30
0.0
 11
-693.32339530119987
 21
-98.210918898799989
 31
0.0
  0
LINE
  5
29B
  8
Éíû@É³
 62
     5
 10
-791.71878720240011
 20
-185.09375
 30
0.0
 11
-704.83595610119994
 21
-98.210918898799989
 31
0.0
  0
SOLID
  5
29C
  8
Éíû@É³
 62
     5
 10
-791.71878720240011
 20
-185.09375
 30
0.0
 11
-781.95005542979993
 21
-170.44065234109999
 31
0.0
 12
-781.95005542979993
 22
-175.32501822739999
 32
0.0
 13
-781.95005542979993
 23
-175.32501822739999
 33
0.0
  0
SOLID
  5
29D
  8
Éíû@É³
 62
     5
 10
-781.95005542979993
 20
-175.32501822739999
 30
0.0
 11
-777.06568954349996
 21
-175.32501822739999
 31
0.0
 12
-791.71878720240011
 22
-185.09375
 32
0.0
 13
-791.71878720240011
 23
-185.09375
 33
0.0
  0
ENDBLK
  5
29E
  8
0
  0
BLOCK
  8
0
  2
*U17
 70
     1
 10
0.0
 20
0.0
 30
0.0
  3
*U17
  1

  0
TEXT
  5
2CF
  8
┌▓È_1
  6
CONTINUOUS
 62
     5
 10
-72.8388917698
 20
-572.69453568950462
 30
0.0
 40
12.9456343857
  1
É}öÈ          òi     û╝                  ìÌ     Ä┐               Éöù╩
  0
ENDBLK
  5
2D1
  8
0
  0
BLOCK
  8
0
  2
*U18
 70
     1
 10
0.0
 20
0.0
 30
0.0
  3
*U18
  1

  0
TEXT
  5
2D3
  8
┌▓È_1
  6
CONTINUOUS
 62
     5
 10
189.86424737799999
 20
-543.2900621765001
 30
0.0
 40
12.9456341743
  1
      SUS430    2.0t
  0
ENDBLK
  5
2D5
  8
0
  0
BLOCK
  8
0
  2
*U19
 70
     1
 10
0.0
 20
0.0
 30
0.0
  3
*U19
  1

  0
TEXT
  5
2D7
  8
┌▓È_1
  6
CONTINUOUS
 62
     5
 10
189.86424737799999
 20
-513.56952204250001
 30
0.0
 40
12.9456341743
  1
      SUS304    âË10
  0
ENDBLK
  5
2D9
  8
0
  0
BLOCK
  8
0
  2
*U20
 70
     1
 10
0.0
 20
0.0
 30
0.0
  3
*U20
  1

  0
TEXT
  5
2DB
  8
┌▓È_1
  6
CONTINUOUS
 62
     5
 10
268.07413668240002
 20
-693.50359878708275
 30
0.0
 40
12.9456343857
  1
É}öÈ
  0
ENDBLK
  5
2DD
  8
0
  0
BLOCK
  8
0
  2
*U21
 70
     1
 10
0.0
 20
0.0
 30
0.0
  3
*U21
  1

  0
TEXT
  5
2DF
  8
┌▓È_1
  6
CONTINUOUS
 62
     5
 10
17.827265862000001
 20
-599.98475285470454
 30
0.0
 40
12.9456343857
  1
ê§   Éö
  0
ENDBLK
  5
2E1
  8
0
  0
BLOCK
  8
0
  2
*U22
 70
     1
 10
0.0
 20
0.0
 30
0.0
  3
*U22
  1

  0
TEXT
  5
2E3
  8
┌▓È_1
  6
CONTINUOUS
 62
     5
 10
-72.8388917698
 20
-671.09105944190446
 30
0.0
 40
12.9456343857
  1
É╗É}
  0
ENDBLK
  5
2E5
  8
0
  0
BLOCK
  8
0
  2
*U23
 70
     1
 10
0.0
 20
0.0
 30
0.0
  3
*U23
  1

  0
TEXT
  5
2E7
  8
┌▓È_1
  6
CONTINUOUS
 62
     5
 10
-72.8388917698
 20
-647.3337962269436
 30
0.0
 40
12.9456343857
  1
É¦îv
  0
ENDBLK
  5
2E9
  8
0
  0
BLOCK
  8
0
  2
*U24
 70
     1
 10
0.0
 20
0.0
 30
0.0
  3
*U24
  1

  0
TEXT
  5
2EB
  8
┌▓È_1
  6
CONTINUOUS
 62
     5
 10
-68.984637920500006
 20
-599.04577824112175
 30
0.0
 40
12.9456343857
  1
ô·   òt
  0
ENDBLK
  5
2ED
  8
0
  0
BLOCK
  8
0
  2
*U25
 70
     1
 10
0.0
 20
0.0
 30
0.0
  3
*U25
  1

  0
TEXT
  5
2EF
  8
┌▓È_1
  6
CONTINUOUS
 62
     5
 10
269.73558744820002
 20
-599.04053777968272
 30
0.0
 40
12.9456343857
  1
òiöÈ
  0
ENDBLK
  5
2F1
  8
0
  0
BLOCK
  8
0
  2
*U26
 70
     1
 10
0.0
 20
0.0
 30
0.0
  3
*U26
  1

  0
TEXT
  5
2F3
  8
┌▓È_1
  6
CONTINUOUS
 62
     5
 10
268.07413668240002
 20
-646.12975724204375
 30
0.0
 40
12.9456343857
  1
òiû╝
  0
ENDBLK
  5
2F5
  8
0
  0
BLOCK
  8
0
  2
*U27
 70
     1
 10
0.0
 20
0.0
 30
0.0
  3
*U27
  1

  0
TEXT
  5
2F7
  8
┌▓È_1
  6
CONTINUOUS
 62
     5
 10
-640.41708837112185
 20
-517.84346759523703
 30
0.0
 40
15.534761333500001
  1
4-5X6.5║╩Ì¦îè
  0
ENDBLK
  5
2F9
  8
0
  0
BLOCK
  8
0
  2
*U28
 70
     1
 10
0.0
 20
0.0
 30
0.0
  3
*U28
  1

  0
TEXT
  5
2FB
  8
┌▓È_1
  6
CONTINUOUS
 62
     5
 10
-79.860320238100002
 20
-513.56952204250001
 30
0.0
 40
12.9456341743
  1
  éQ
  0
ENDBLK
  5
2FD
  8
0
  0
BLOCK
  8
0
  2
*U29
 70
     1
 10
0.0
 20
0.0
 30
0.0
  3
*U29
  1

  0
TEXT
  5
2FF
  8
┌▓È_1
  6
CONTINUOUS
 62
     5
 10
-32.656385032099998
 20
-540.45546919627361
 30
0.0
 40
12.9456341743
  1
            ÿg
  0
ENDBLK
  5
301
  8
0
  0
BLOCK
  8
0
  2
*U30
 70
     1
 10
0.0
 20
0.0
 30
0.0
  3
*U30
  1

  0
TEXT
  5
303
  8
┌▓È_1
  6
CONTINUOUS
 62
     5
 10
409.49930917990002
 20
-539.79833040569997
 30
0.0
 40
12.9456341743
  1
  éQ
  0
ENDBLK
  5
305
  8
0
  0
BLOCK
  8
0
  2
*U31
 70
     1
 10
0.0
 20
0.0
 30
0.0
  3
*U31
  1

  0
TEXT
  5
307
  8
┌▓È_1
  6
CONTINUOUS
 62
     5
 10
-67.055830135188316
 20
-622.33290846809984
 30
0.0
 40
12.9456341743
  1
H8.5.22
  0
ENDBLK
  5
309
  8
0
  0
BLOCK
  8
0
  2
*U32
 70
     1
 10
0.0
 20
0.0
 30
0.0
  3
*U32
  1

  0
TEXT
  5
30B
  8
┌▓È_1
  6
CONTINUOUS
 62
     5
 10
-58.492066850999997
 20
-710.68031975782833
 30
0.0
 40
23.302142244300001
  1
èöÄ«ë´Äð
  0
ENDBLK
  5
30D
  8
0
  0
BLOCK
  8
0
  2
*U33
 70
     1
 10
0.0
 20
0.0
 30
0.0
  3
*U33
  1

  0
TEXT
  5
30F
  8
┌▓È_1
  6
CONTINUOUS
 62
     5
 10
409.49930917990002
 20
-513.56952204250001
 30
0.0
 40
12.9456341743
  1
  éU
  0
ENDBLK
  5
311
  8
0
  0
BLOCK
  8
0
  2
*U34
 70
     1
 10
0.0
 20
0.0
 30
0.0
  3
*U34
  1

  0
TEXT
  5
313
  8
┌▓È_1
  6
CONTINUOUS
 62
     5
 10
-32.656385032099998
 20
-514.94951350270446
 30
0.0
 40
12.9456341743
  1
          âpâCâv
  0
ENDBLK
  5
315
  8
0
  0
BLOCK
  8
0
  2
*U35
 70
     1
 10
0.0
 20
0.0
 30
0.0
  3
*U35
  1

  0
TEXT
  5
317
  8
┌▓È_1
  6
CONTINUOUS
 62
     5
 10
-79.860320238100002
 20
-541.71815576660003
 30
0.0
 40
12.9456341743
  1
  éP
  0
ENDBLK
  5
319
  8
0
  0
BLOCK
  8
0
  2
*U36
 70
     1
 10
0.0
 20
0.0
 30
0.0
  3
*U36
  1

  0
TEXT
  5
31B
  8
┌▓È_1
  6
CONTINUOUS
 62
     5
 10
302.73580729169998
 20
-666.74502667620447
 30
0.0
 40
12.9456341743
  1
âpâCâvÆI  éPÆi   üiéUéOéOüj
  0
ENDBLK
  5
31D
  8
0
  0
BLOCK
  8
0
  2
*U37
 70
     1
 10
0.0
 20
0.0
 30
0.0
  3
*U37
  1

  0
TEXT
  5
31F
  8
┌▓È_1
  6
CONTINUOUS
 62
     5
 10
309.278507190266
 20
-617.74003521600002
 30
0.0
 40
12.9456341743
  1
1üEéréoü|éU
  0
ENDBLK
  5
321
  8
0
  0
BLOCK
  8
0
  2
*U38
 70
     1
 10
0.0
 20
0.0
 30
0.0
  3
*U38
  1

  0
TEXT
  5
323
  8
┌▓È_1
  6
CONTINUOUS
 62
     5
 10
-495.3043601748326
 20
-595.98229514780303
 30
0.0
 40
12.9456341743
  1
îÒû╩É}
  0
ENDBLK
  5
325
  8
0
  0
BLOCK
  8
0
  2
*U39
 70
     1
 10
0.0
 20
0.0
 30
0.0
  3
*U39
  1

  0
TEXT
  5
327
  8
┌▓È_1
  6
CONTINUOUS
 62
     5
 10
189.39500202159999
 20
-600.68115298283499
 30
0.0
 40
12.9456343857
  1
ö┬   î·
  0
ENDBLK
  5
329
  8
0
  0
BLOCK
  8
0
  2
*U40
 70
     1
 10
0.0
 20
0.0
 30
0.0
  3
*U40
  1

  0
TEXT
  5
32B
  8
┌▓È_1
  6
CONTINUOUS
 62
     5
 10
107.1521458066
 20
-599.10625165981321
 30
0.0
 40
12.9456343857
  1
ìÌ   Ä┐
  0
ENDBLK
  5
32D
  8
0
  0
BLOCK
  8
0
  2
*U41
 70
     1
 10
0.0
 20
0.0
 30
0.0
  3
*U41
  1

  0
TEXT
  5
32F
  8
┌▓È_1
  6
CONTINUOUS
 62
     5
 10
186.19372623020001
 20
-649.07591814440457
 30
0.0
 40
12.9456343857
  1
Ä┌   ôx
  0
ENDBLK
  5
331
  8
0
  0
BLOCK
  8
0
  2
*U42
 70
     1
 10
0.0
 20
0.0
 30
0.0
  3
*U42
  1

  0
TEXT
  5
333
  8
┌▓È_1
  6
CONTINUOUS
 62
     5
 10
-684.53635920452177
 20
340.98049073806288
 30
0.0
 40
15.534761333500001
  1
4-5X6.5║╩Ì¦îè
  0
ENDBLK
  5
335
  8
0
  0
BLOCK
  8
0
  2
*U43
 70
     1
 10
0.0
 20
0.0
 30
0.0
  3
*U43
  1

  0
TEXT
  5
337
  8
┌▓È_1
  6
CONTINUOUS
 62
     5
 10
-545.32800364909997
 20
-104.6075853303
 30
0.0
 40
15.534761333500001
  1
2
 41
0.8
  0
ENDBLK
  5
339
  8
0
  0
BLOCK
  8
0
  2
*U44
 70
     1
 10
0.0
 20
0.0
 30
0.0
  3
*U44
  1

  0
TEXT
  5
33B
  8
┌▓È_1
  6
CONTINUOUS
 62
     5
 10
-678.57540786729999
 20
-104.6075853303
 30
0.0
 40
15.534761333500001
  1
1
 41
0.8
  0
ENDBLK
  5
33D
  8
0
  0
ENDSEC
  0
SECTION
  2
ENTITIES
  0
LINE
  5
2F
  8
┌▓È_1
 62
     5
 10
284.21559647819998
 20
-259.61482632949998
 30
0.0
 11
268.91937251979999
 21
-259.61482632949998
 31
0.0
  0
ARC
  5
30
  8
┌▓È_1
 62
     5
 10
42.874702380999999
 20
-283.61482632950009
 30
0.0
 40
1.0
 50
0.0
 51
90.0
  0
LINE
  5
31
  8
┌▓È_1
 62
     5
 10
270.57470238100001
 20
-11.0679608419
 30
0.0
 11
270.57470238100001
 21
-11.6148263295
 31
0.0
  0
LINE
  5
32
  8
┌▓È_1
 62
     5
 10
249.57470238100001
 20
-11.0679608419
 30
0.0
 11
246.57470238100001
 21
-11.0679608419
 31
0.0
  0
LINE
  5
33
  8
┌▓È_1
 62
     5
 10
274.274702381
 20
-291.61482632949998
 30
0.0
 11
274.274702381
 21
-283.61482632950009
 31
0.0
  0
LINE
  5
34
  8
┌▓È_1
 62
     5
 10
43.874702380999999
 20
-291.61482632949998
 30
0.0
 11
43.874702380999999
 21
-283.61482632950009
 31
0.0
  0
LINE
  5
35
  8
┌▓È_1
 62
     5
 10
252.07470238100001
 20
-16.614826329500001
 30
0.0
 11
252.07470238100001
 21
-15.6148263295
 31
0.0
  0
LINE
  5
36
  8
┌▓È_1
 62
     5
 10
247.07470238100001
 20
-16.614826329500001
 30
0.0
 11
247.07470238100001
 21
-15.6148263295
 31
0.0
  0
LINE
  5
37
  8
┌▓È_1
 62
     5
 10
241.57470238100001
 20
-15.6148263295
 30
0.0
 11
271.57470238100001
 21
-15.6148263295
 31
0.0
  0
LINE
  5
38
  8
┌▓È_1
 62
     5
 10
270.07470238100001
 20
-16.614826329500001
 30
0.0
 11
270.07470238100001
 21
-15.6148263295
 31
0.0
  0
LINE
  5
39
  8
┌▓È_1
 62
     5
 10
42.574702381000002
 20
-11.6148263295
 30
0.0
 11
239.57470238100001
 21
-11.6148263295
 31
0.0
  0
LINE
  5
3A
  8
┌▓È_1
 62
     5
 10
42.574702381000002
 20
-13.6148263295
 30
0.0
 11
239.57470238100001
 21
-13.6148263295
 31
0.0
  0
LINE
  5
3B
  8
┌▓È_1
 62
     5
 10
242.57470238100001
 20
-11.6148263295
 30
0.0
 11
242.57470238100001
 21
-13.6148263295
 31
0.0
  0
ARC
  5
3C
  8
┌▓È_1
 62
     5
 10
239.57470238100001
 20
-13.6148263295
 30
0.0
 40
2.0
 50
0.0
 51
90.0
  0
LINE
  5
3D
  8
┌▓È_1
 62
     5
 10
241.57470238100001
 20
-13.6148263295
 30
0.0
 11
275.57470238100001
 21
-13.6148263295
 31
0.0
  0
ARC
  5
3E
  8
┌▓È_1
 62
     5
 10
241.57470238100001
 20
-13.6148263295
 30
0.0
 40
2.0
 50
180.0
 51
270.0
  0
LINE
  5
3F
  8
┌▓È_1
 62
     5
 10
267.57470238100001
 20
-11.0679608419
 30
0.0
 11
270.57470238100001
 21
-11.0679608419
 31
0.0
  0
LINE
  5
40
  8
┌▓È_1
 62
     5
 10
264.57470238100001
 20
-11.0679608419
 30
0.0
 11
264.57470238100001
 21
-11.6148263295
 31
0.0
  0
LINE
  5
41
  8
┌▓È_1
 62
     5
 10
234.57470238100001
 20
-5.0980294544999989
 30
0.0
 11
234.57470238100001
 21
-20.700177891999999
 31
0.0
  0
ARC
  5
42
  8
┌▓È_1
 62
     5
 10
42.574702381000002
 20
-13.6148263295
 30
0.0
 40
2.0
 50
90.0
 51
180.0
  0
LINE
  5
43
  8
┌▓È_1
 62
     5
 10
82.574702381000009
 20
-5.4039539337000004
 30
0.0
 11
82.574702381000009
 21
-19.170555496199999
 31
0.0
  0
LINE
  5
44
  8
┌▓È_1
 62
     5
 10
-164.72752678570001
 20
288.89578273450002
 30
0.0
 11
-180.136860119
 21
288.89578273450002
 31
0.0
  0
ARC
  5
45
  8
┌▓È_1
 62
     5
 10
-171.71878720239999
 20
288.89578273450002
 30
0.0
 40
2.5
 50
270.0
 51
90.0
  0
LINE
  5
46
  8
┌▓È_1
 62
     5
 10
-171.71878720239999
 20
286.39578273450002
 30
0.0
 11
-173.21878720239999
 21
286.39578273450002
 31
0.0
  0
LINE
  5
47
  8
┌▓È_1
 62
     5
 10
-173.21878720239999
 20
291.39578273450002
 30
0.0
 11
-171.71878720239999
 21
291.39578273450002
 31
0.0
  0
ARC
  5
48
  8
┌▓È_1
 62
     5
 10
-173.21878720239999
 20
288.89578273450002
 30
0.0
 40
2.5
 50
90.0
 51
270.0
  0
LINE
  5
49
  8
┌▓È_1
 62
     5
 10
42.874702380999999
 20
-282.61482632949998
 30
0.0
 11
42.574702381000002
 21
-282.61482632949998
 31
0.0
  0
LINE
  5
4A
  8
┌▓È_1
 62
     5
 10
275.274702381
 20
-282.61482632949998
 30
0.0
 11
275.57470238100001
 21
-282.61482632949998
 31
0.0
  0
LINE
  5
4B
  8
┌▓È_1
 62
     5
 10
249.57470238100001
 20
-16.614826329500001
 30
0.0
 11
252.07470238100001
 21
-16.614826329500001
 31
0.0
  0
LINE
  5
4C
  8
┌▓È_1
 62
     5
 10
249.57470238100001
 20
-16.614826329500001
 30
0.0
 11
247.07470238100001
 21
-16.614826329500001
 31
0.0
  0
LINE
  5
4D
  8
┌▓È_1
 62
     5
 10
265.07470238100001
 20
-16.614826329500001
 30
0.0
 11
265.07470238100001
 21
-15.6148263295
 31
0.0
  0
LINE
  5
4E
  8
┌▓È_1
 62
     5
 10
249.57470238100001
 20
-11.0679608419
 30
0.0
 11
252.57470238100001
 21
-11.0679608419
 31
0.0
  0
LINE
  5
4F
  8
┌▓È_1
 62
     5
 10
246.57470238100001
 20
-11.0679608419
 30
0.0
 11
246.57470238100001
 21
-11.6148263295
 31
0.0
  0
LINE
  5
50
  8
┌▓È_1
 62
     5
 10
252.57470238100001
 20
-11.0679608419
 30
0.0
 11
252.57470238100001
 21
-11.6148263295
 31
0.0
  0
LINE
  5
51
  8
┌▓È_1
 62
     5
 10
271.57470238100001
 20
-15.6148263295
 30
0.0
 11
271.57470238100001
 21
-13.6148263295
 31
0.0
  0
LINE
  5
52
  8
┌▓È_1
 62
     5
 10
242.57470238100001
 20
-11.6148263295
 30
0.0
 11
275.57470238100001
 21
-11.6148263295
 31
0.0
  0
ARC
  5
53
  8
┌▓È_1
 62
     5
 10
275.57470238100001
 20
-13.6148263295
 30
0.0
 40
2.0
 50
0.0
 51
90.0
  0
LINE
  5
54
  8
┌▓È_1
 62
     5
 10
267.57470238100001
 20
-11.0679608419
 30
0.0
 11
264.57470238100001
 21
-11.0679608419
 31
0.0
  0
LINE
  5
55
  8
┌▓È_1
 62
     5
 10
43.049813976199992
 20
-295.81482632950008
 30
0.0
 11
148.5498139762
 21
-295.81482632950008
 31
0.0
  0
LINE
  5
56
  8
┌▓È_1
 62
     5
 10
168.5498139762
 20
-295.11482632949998
 30
0.0
 11
148.5498139762
 21
-295.11482632949998
 31
0.0
  0
LINE
  5
57
  8
┌▓È_1
 62
     5
 10
168.5498139762
 20
-295.81482632950008
 30
0.0
 11
274.04981397620003
 21
-295.81482632950008
 31
0.0
  0
LINE
  5
58
  8
┌▓È_1
 62
     5
 10
43.874702380999999
 20
-291.61482632949998
 30
0.0
 11
43.874702380999999
 21
-295.81482632950008
 31
0.0
  0
LINE
  5
59
  8
┌▓È_1
 62
     5
 10
267.57470238100001
 20
-16.614826329500001
 30
0.0
 11
270.07470238100001
 21
-16.614826329500001
 31
0.0
  0
LINE
  5
5A
  8
┌▓È_1
 62
     5
 10
267.57470238100001
 20
-16.614826329500001
 30
0.0
 11
265.07470238100001
 21
-16.614826329500001
 31
0.0
  0
ARC
  5
5B
  8
┌▓È_1
 62
     5
 10
275.274702381
 20
-283.61482632950009
 30
0.0
 40
1.0
 50
90.0
 51
180.0
  0
LINE
  5
5C
  8
┌▓È_1
 62
     5
 10
284.52152095730003
 20
-51.614826329499998
 30
0.0
 11
269.22529699900002
 21
-51.614826329499998
 31
0.0
  0
DIMENSION
  5
6D
  8
Éíû@É³
 62
     5
  2
*D0
 10
-415.0390167962999
 20
274.3997570038
 30
0.0
 11
-415.0390167962999
 21
349.14988721219999
 31
0.0
 70
   128
  1
P=40
 13
-472.46878720239988
 23
274.3997570038
 33
0.0
 14
-472.46878720239988
 24
314.3997570038
 34
0.0
 50
90.0
  0
DIMENSION
  5
7C
  8
Éíû@É³
 62
     5
  2
*D1
 10
-182.46878720239999
 20
23.829704920499999
 30
0.0
 11
-472.46878720239988
 21
23.829704920499999
 31
0.0
 70
   128
  1
560
 13
-182.46878720239999
 23
-11.6148263295
 33
0.0
 14
-762.46878720240011
 24
-11.6148263295
 34
0.0
  0
DIMENSION
  5
8A
  8
Éíû@É³
 62
     5
  2
*D2
 10
-762.46878720240011
 20
23.829704920499999
 30
0.0
 11
-815.1937872023999
 21
23.829704920499999
 31
0.0
 70
   128
  1
<>
 13
-762.46878720240011
 23
-11.6148263295
 33
0.0
 14
-782.46878720240011
 24
-11.6148263295
 34
0.0
  0
DIMENSION
  5
98
  8
Éíû@É³
 62
     5
  2
*D3
 10
-843.70500851589986
 20
288.89578273450002
 30
0.0
 11
-843.70500851589986
 21
212.89578273449999
 31
0.0
 70
   128
  1
<>
 13
-780.21004761899985
 23
288.89578273450002
 33
0.0
 14
-780.66225830389999
 24
136.89578273449999
 34
0.0
 50
90.0
  0
DIMENSION
  5
A6
  8
Éíû@É³
 62
     5
  2
*D4
 10
-843.70500851589986
 20
136.89578273449999
 30
0.0
 11
-843.70500851589986
 21
116.8957827345
 31
0.0
 70
   128
  1
<>
 13
-780.66225830389999
 23
136.89578273449999
 33
0.0
 14
-782.46878720240011
 24
96.895782734500017
 34
0.0
 50
90.0
  0
DIMENSION
  5
B5
  8
Éíû@É³
 62
     5
  2
*D5
 10
-172.46878720239999
 20
398.16050631209998
 30
0.0
 11
-472.46878720239988
 21
398.16050631209998
 31
0.0
 70
   128
  1
580
 13
-172.46878720239999
 23
336.9242849986
 33
0.0
 14
-772.46878720239999
 24
336.9242849986
 34
0.0
  0
INSERT
  5
B6
  8
0
  6
CONTINUOUS
  2
*U17
 10
0.0
 20
0.0
 30
0.0
  0
INSERT
  5
B7
  8
0
  6
CONTINUOUS
  2
*U18
 10
0.0
 20
0.0
 30
0.0
  0
INSERT
  5
B8
  8
0
  6
CONTINUOUS
  2
*U19
 10
0.0
 20
0.0
 30
0.0
  0
DIMENSION
  5
C6
  8
Éíû@É³
 62
     5
  2
*D6
 10
-162.46878720239999
 20
23.829704920499999
 30
0.0
 11
-121.3570684524
 21
23.829704920499999
 31
0.0
 70
   128
  1
<>
 13
-162.46878720239999
 23
-11.6148263295
 33
0.0
 14
-182.46878720239999
 24
-11.6148263295
 34
0.0
  0
DIMENSION
  5
D5
  8
Éíû@É³
 62
     5
  2
*D7
 10
277.57470238100001
 20
51.1433294932
 30
0.0
 11
159.07470238100001
 21
51.1433294932
 31
0.0
 70
   128
  1
235
 13
277.57470238100001
 23
-13.6148263295
 33
0.0
 14
40.574702381000002
 24
-13.6148263295
 34
0.0
  0
LINE
  5
D6
  8
┌▓È_1
 62
     5
 10
-182.46878720239999
 20
-11.6148263295
 30
0.0
 11
-162.46878720239999
 21
-11.6148263295
 31
0.0
  0
LINE
  5
D7
  8
┌▓È_1
 62
     5
 10
-182.46878720239999
 20
98.899757003799991
 30
0.0
 11
-184.21878720239999
 21
98.899757003799991
 31
0.0
  0
LINE
  5
D8
  8
┌▓È_1
 62
     5
 10
-160.71878720239999
 20
98.899757003799991
 30
0.0
 11
-162.46878720239999
 21
98.899757003799991
 31
0.0
  0
ARC
  5
D9
  8
┌▓È_1
 62
     5
 10
-171.71878720239999
 20
136.89578273449999
 30
0.0
 40
2.5
 50
270.0
 51
90.0
  0
LINE
  5
DA
  8
┌▓È_1
 62
     5
 10
-173.21878720239999
 20
139.39578273449999
 30
0.0
 11
-171.71878720239999
 21
139.39578273449999
 31
0.0
  0
LINE
  5
DB
  8
┌▓È_1
 62
     5
 10
-162.46878720239999
 20
96.895782734500017
 30
0.0
 11
-182.46878720239999
 21
96.895782734500017
 31
0.0
  0
LINE
  5
DC
  8
┌▓È_1
 62
     5
 10
-162.46878720239999
 20
96.895782734500017
 30
0.0
 11
-182.46878720239999
 21
96.895782734500017
 31
0.0
  0
LINE
  5
DD
  8
┌▓È_1
 62
     5
 10
-160.1187872024
 20
201.0304181512
 30
0.0
 11
-162.46878720239999
 21
201.0304181512
 31
0.0
  0
LINE
  5
DE
  8
┌▓È_1
 62
     5
 10
-162.46878720239999
 20
221.0304181512
 30
0.0
 11
-160.1187872024
 21
221.0304181512
 31
0.0
  0
LINE
  5
DF
  8
┌▓È_1
 62
     5
 10
-160.1187872024
 20
221.0304181512
 30
0.0
 11
-160.1187872024
 21
201.0304181512
 31
0.0
  0
ARC
  5
E0
  8
┌▓È_1
 62
     5
 10
-173.21878720239999
 20
136.89578273449999
 30
0.0
 40
2.5
 50
90.0
 51
270.0
  0
LINE
  5
E1
  8
┌▓È_1
 62
     5
 10
-160.71878720239999
 20
201.0304181512
 30
0.0
 11
-160.71878720239999
 21
98.899757003799991
 31
0.0
  0
LINE
  5
E2
  8
┌▓È_1
 62
     5
 10
-164.2753161009
 20
136.89578273449999
 30
0.0
 11
-180.01616117130001
 21
136.89578273449999
 31
0.0
  0
LINE
  5
E3
  8
┌▓È_1
 62
     5
 10
-171.71878720239999
 20
134.39578273449999
 30
0.0
 11
-173.21878720239999
 21
134.39578273449999
 31
0.0
  0
INSERT
  5
E4
  8
0
  6
CONTINUOUS
  2
*U20
 10
0.0
 20
0.0
 30
0.0
  0
INSERT
  5
E5
  8
0
  6
CONTINUOUS
  2
*U21
 10
0.0
 20
0.0
 30
0.0
  0
INSERT
  5
E6
  8
0
  6
CONTINUOUS
  2
*U22
 10
0.0
 20
0.0
 30
0.0
  0
INSERT
  5
E7
  8
0
  6
CONTINUOUS
  2
*U23
 10
0.0
 20
0.0
 30
0.0
  0
INSERT
  5
E8
  8
0
  6
CONTINUOUS
  2
*U24
 10
0.0
 20
0.0
 30
0.0
  0
INSERT
  5
E9
  8
0
  6
CONTINUOUS
  2
*U25
 10
0.0
 20
0.0
 30
0.0
  0
INSERT
  5
EA
  8
0
  6
CONTINUOUS
  2
*U26
 10
0.0
 20
0.0
 30
0.0
  0
INSERT
  5
EB
  8
0
  6
CONTINUOUS
  2
*U27
 10
0.0
 20
0.0
 30
0.0
  0
INSERT
  5
EC
  8
0
  6
CONTINUOUS
  2
*U28
 10
0.0
 20
0.0
 30
0.0
  0
INSERT
  5
ED
  8
0
  6
CONTINUOUS
  2
*U29
 10
0.0
 20
0.0
 30
0.0
  0
INSERT
  5
EE
  8
0
  6
CONTINUOUS
  2
*U30
 10
0.0
 20
0.0
 30
0.0
  0
INSERT
  5
EF
  8
0
  6
CONTINUOUS
  2
*U31
 10
0.0
 20
0.0
 30
0.0
  0
INSERT
  5
F0
  8
0
  6
CONTINUOUS
  2
*U32
 10
0.0
 20
0.0
 30
0.0
  0
INSERT
  5
F1
  8
0
  6
CONTINUOUS
  2
*U33
 10
0.0
 20
0.0
 30
0.0
  0
INSERT
  5
F2
  8
0
  6
CONTINUOUS
  2
*U34
 10
0.0
 20
0.0
 30
0.0
  0
INSERT
  5
F3
  8
0
  6
CONTINUOUS
  2
*U35
 10
0.0
 20
0.0
 30
0.0
  0
INSERT
  5
F4
  8
0
  6
CONTINUOUS
  2
*U36
 10
0.0
 20
0.0
 30
0.0
  0
INSERT
  5
F5
  8
0
  6
CONTINUOUS
  2
*U37
 10
0.0
 20
0.0
 30
0.0
  0
DIMENSION
  5
104
  8
Éíû@É³
 62
     5
  2
*D8
 10
-858.89964657739995
 20
-11.6148263295
 30
0.0
 11
-858.89964657739995
 21
-161.5675229389
 31
0.0
 70
   128
  1
300
 13
-782.46878720240011
 23
-11.6148263295
 33
0.0
 14
-782.46878720240011
 24
-311.52021954830002
 34
0.0
 50
90.0
  0
DIMENSION
  5
113
  8
Éíû@É³
 62
     5
  2
*D9
 10
-162.46878720239999
 20
49.621394983999998
 30
0.0
 11
-472.46878720239988
 21
49.621394983999998
 31
0.0
 70
   128
  1
600
 13
-162.46878720239999
 23
-11.6148263295
 33
0.0
 14
-782.46878720240011
 24
-11.6148263295
 34
0.0
  0
DIMENSION
  5
121
  8
Éíû@É³
 62
     5
  2
*D10
 10
-843.70500851589986
 20
-407.8859200794999
 30
0.0
 11
-843.70500851589986
 21
-511.8859200794999
 31
0.0
 70
   128
  1
<>
 13
-779.88513400939996
 23
-407.8859200794999
 33
0.0
 14
-779.70107603839995
 24
-615.8859200794999
 34
0.0
 50
90.0
  0
DIMENSION
  5
130
  8
Éíû@É³
 62
     5
  2
*D11
 10
-772.46878720239999
 20
-713.76248257949999
 30
0.0
 11
-472.46878720239988
 21
-713.76248257949999
 31
0.0
 70
   128
  1
580
 13
-772.46878720239999
 23
-630.32043236439995
 33
0.0
 14
-172.46878720239999
 24
-630.32043236439995
 34
0.0
 50
180.0
  0
DIMENSION
  5
13E
  8
Éíû@É³
 62
     5
  2
*D12
 10
-843.70500851589986
 20
333.89578273450002
 30
0.0
 11
-843.70500851589986
 21
311.39578273450002
 31
0.0
 70
   128
  1
43
 13
-782.46878720240011
 23
333.89578273450002
 33
0.0
 14
-780.21004761899985
 24
288.89578273450002
 34
0.0
 50
90.0
  0
DIMENSION
  5
14C
  8
Éíû@É³
 62
     5
  2
*D13
 10
-843.70500851589986
 20
-367.8859200794999
 30
0.0
 11
-843.70500851589986
 21
-387.88592007950001
 31
0.0
 70
   128
  1
41
 13
-782.46878720240011
 23
-367.8859200794999
 33
0.0
 14
-779.88513400939996
 24
-407.8859200794999
 34
0.0
 50
90.0
  0
DIMENSION
  5
15A
  8
Éíû@É³
 62
     5
  2
*D14
 10
-843.70500851589986
 20
-615.8859200794999
 30
0.0
 11
-843.70500851589986
 21
-641.87670710299994
 31
0.0
 70
   128
  1
51
 13
-779.70107603839995
 23
-615.8859200794999
 33
0.0
 14
-782.46878720240011
 24
-667.86749412649999
 34
0.0
 50
90.0
  0
LINE
  5
15B
  8
┌▓È_1
 10
106.5152058191
 20
-699.45245251250003
 30
0.0
 11
106.5152058191
 21
-701.6110576625
 31
0.0
  0
LINE
  5
15C
  8
┌▓È_1
 10
117.3082315691
 20
-692.97663706249989
 30
0.0
 11
117.3082315691
 21
-690.81803191250003
 31
0.0
  0
LINE
  5
15D
  8
┌▓È_1
 10
117.3082315691
 20
-690.81803191250003
 30
0.0
 11
123.7840470191
 21
-684.34221646250001
 31
0.0
  0
LINE
  5
15E
  8
┌▓È_1
 62
     5
 10
-81.976986904800015
 20
-495.3663609864999
 30
0.0
 11
565.60455809519999
 21
-495.3663609864999
 31
0.0
  0
ARC
  5
15F
  8
┌▓È_1
 10
104.3566006691
 20
-701.6110576625
 30
0.0
 40
12.9516309
 50
270.0
 51
0.0
  0
ARC
  5
160
  8
┌▓È_1
 10
140.45109526819999
 20
-691.68147397250004
 30
0.0
 40
16.40539914
 50
331.39928138329998
 51
358.49204224580001
  0
LINE
  5
161
  8
┌▓È_1
 10
209.9436553971
 20
-702.90622075249985
 30
0.0
 11
208.94978258699999
 21
-699.45245251250003
 31
0.0
  0
LINE
  5
162
  8
┌▓È_1
 10
201.83095779749999
 20
-716.72129371250003
 30
0.0
 11
200.0580234343
 21
-710.67719929249995
 31
0.0
  0
LINE
  5
163
  8
┌▓È_1
 10
197.77853639590001
 20
-702.90622075249985
 30
0.0
 11
196.76543104550001
 21
-699.45245251250003
 31
0.0
  0
ARC
  5
164
  8
┌▓È_1
 10
146.06346865820001
 20
-690.81803191250003
 30
0.0
 40
23.74465665
 50
322.48761197969998
 51
0.0
  0
LINE
  5
165
  8
┌▓È_1
 62
     5
 10
-432.80954241069992
 20
-580.0
 30
0.0
 11
-432.80954241069992
 21
-605.24044894350004
 31
0.0
  0
LINE
  5
166
  8
┌▓È_1
 62
     5
 10
-512.12803199400003
 20
-580.0
 30
0.0
 11
-432.80954241069992
 21
-580.0
 31
0.0
  0
LINE
  5
167
  8
┌▓È_1
 10
192.33309513750001
 20
-684.34221646250001
 30
0.0
 11
209.60193633750001
 21
-684.34221646250001
 31
0.0
  0
LINE
  5
168
  8
┌▓È_1
 10
222.5535672375
 20
-691.68147397250004
 30
0.0
 11
222.5535672375
 21
-699.45245251250003
 31
0.0
  0
LINE
  5
169
  8
┌▓È_1
 10
183.69867453750001
 20
-702.90622075249985
 30
0.0
 11
183.69867453750001
 21
-710.67719929249995
 31
0.0
  0
LINE
  5
16A
  8
┌▓È_1
 10
97.880785219100005
 20
-705.92826796249994
 30
0.0
 11
97.880785219100005
 21
-699.45245251250003
 31
0.0
  0
LINE
  5
16B
  8
┌▓È_1
 10
97.880785219100005
 20
-699.45245251250003
 30
0.0
 11
106.5152058191
 21
-699.45245251250003
 31
0.0
  0
LINE
  5
16C
  8
┌▓È_1
 10
123.7840470191
 20
-692.97663706249989
 30
0.0
 11
117.3082315691
 21
-692.97663706249989
 31
0.0
  0
LINE
  5
16D
  8
┌▓È_1
 62
     5
 10
-512.12803199400003
 20
-605.24044894350004
 30
0.0
 11
-512.12803199400003
 21
-580.0
 31
0.0
  0
LINE
  5
16E
  8
┌▓È_1
 62
     5
 10
-432.80954241069992
 20
-605.24044894350004
 30
0.0
 11
-512.12803199400003
 21
-605.24044894350004
 31
0.0
  0
INSERT
  5
16F
  8
0
  6
CONTINUOUS
  2
*U38
 10
0.0
 20
0.0
 30
0.0
  0
INSERT
  5
170
  8
0
  6
CONTINUOUS
  2
*U39
 10
0.0
 20
0.0
 30
0.0
  0
INSERT
  5
171
  8
0
  6
CONTINUOUS
  2
*U40
 10
0.0
 20
0.0
 30
0.0
  0
INSERT
  5
172
  8
0
  6
CONTINUOUS
  2
*U41
 10
0.0
 20
0.0
 30
0.0
  0
INSERT
  5
173
  8
0
  6
CONTINUOUS
  2
*U42
 10
0.0
 20
0.0
 30
0.0
  0
LINE
  5
174
  8
┌▓È_1
 62
     5
 10
17.6555820092
 20
-607.27060762709993
 30
0.0
 11
78.576216242599997
 21
-607.27060762709993
 31
0.0
  0
LINE
  5
175
  8
┌▓È_1
 62
     5
 10
-68.383930253100004
 20
-653.19429088239986
 30
0.0
 11
163.86510416920001
 21
-653.19429088239986
 31
0.0
  0
LINE
  5
176
  8
┌▓È_1
 62
     5
 10
-68.383930253100004
 20
-607.27060762709993
 30
0.0
 11
-8.7433594918999997
 21
-607.27060762709993
 31
0.0
  0
LINE
  5
177
  8
┌▓È_1
 62
     5
 10
186.33147744690001
 20
-656.91852607709995
 30
0.0
 11
245.76951241629999
 21
-656.91852607709995
 31
0.0
  0
LINE
  5
178
  8
┌▓È_1
 62
     5
 10
188.91025379850001
 20
-607.27060762709993
 30
0.0
 11
250.50778396769999
 21
-607.27060762709993
 31
0.0
  0
LINE
  5
179
  8
┌▓È_1
 62
     5
 10
107.0058455514
 20
-607.27060762709993
 30
0.0
 11
163.86510416920001
 21
-607.27060762709993
 31
0.0
  0
LINE
  5
17A
  8
┌▓È_1
 10
154.8546579213
 20
-699.53478562049986
 30
0.0
 11
153.81595522820001
 21
-700.68203400770005
 31
0.0
  0
LINE
  5
17B
  8
┌▓È_1
 10
164.89824558110001
 20
-705.27693566389985
 30
0.0
 11
164.12934153410001
 21
-706.02976278409994
 31
0.0
  0
LINE
  5
17C
  8
┌▓È_1
 10
100.0393903691
 20
-708.08687311250003
 30
0.0
 11
87.087759469100007
 21
-708.08687311250003
 31
0.0
  0
ARC
  5
17D
  8
┌▓È_1
 10
100.0393903691
 20
-701.6110576625
 30
0.0
 40
6.4758154499999989
 50
270.0
 51
0.0
  0
LINE
  5
17E
  8
┌▓È_1
 10
117.3082315691
 20
-701.6110576625
 30
0.0
 11
117.3082315691
 21
-699.45245251250003
 31
0.0
  0
LINE
  5
17F
  8
┌▓È_1
 10
152.53928410820001
 20
-694.36725482700001
 30
0.0
 11
150.09710116510001
 21
-696.80943777009998
 31
0.0
  0
LINE
  5
180
  8
┌▓È_1
 10
135.27044290820001
 20
-695.7578725914999
 30
0.0
 11
135.27044290820001
 21
-694.36725482700001
 31
0.0
  0
LINE
  5
181
  8
┌▓È_1
 10
104.3566006691
 20
-684.34221646250001
 30
0.0
 11
87.087759469100007
 21
-684.34221646250001
 31
0.0
  0
LINE
  5
182
  8
┌▓È_1
 10
174.1253356082
 20
-684.34221646250001
 30
0.0
 11
135.27044290820001
 21
-684.34221646250001
 31
0.0
  0
LINE
  5
183
  8
┌▓È_1
 10
135.27044290820001
 20
-684.34221646250001
 30
0.0
 11
135.27044290820001
 21
-692.11319500249988
 31
0.0
  0
LINE
  5
184
  8
┌▓È_1
 10
135.27044290820001
 20
-714.56268856250006
 30
0.0
 11
135.27044290820001
 21
-708.08687311250003
 31
0.0
  0
LINE
  5
185
  8
┌▓È_1
 10
135.27044290820001
 20
-708.08687311250003
 30
0.0
 11
140.45109526819999
 21
-708.08687311250003
 31
0.0
  0
LINE
  5
186
  8
┌▓È_1
 10
135.27044290820001
 20
-714.56268856250006
 30
0.0
 11
146.06346865820001
 21
-714.56268856250006
 31
0.0
  0
ARC
  5
187
  8
┌▓È_1
 10
140.45109526819999
 20
-691.68147397250004
 30
0.0
 40
16.40539914
 50
270.0
 51
298.08590481520002
  0
LINE
  5
188
  8
┌▓È_1
 10
106.5152058191
 20
-692.97663706249989
 30
0.0
 11
97.880785219100005
 21
-692.97663706249989
 31
0.0
  0
LINE
  5
189
  8
┌▓È_1
 10
97.880785219100005
 20
-692.97663706249989
 30
0.0
 11
97.880785219100005
 21
-690.81803191250003
 31
0.0
  0
LINE
  5
18A
  8
┌▓È_1
 10
97.880785219100005
 20
-690.81803191250003
 30
0.0
 11
104.3566006691
 21
-684.34221646250001
 31
0.0
  0
LINE
  5
18B
  8
┌▓È_1
 10
87.087759469100007
 20
-684.34221646250001
 30
0.0
 11
87.087759469100007
 21
-692.97663706249989
 31
0.0
  0
LINE
  5
18C
  8
┌▓È_1
 10
87.087759469100007
 20
-692.97663706249989
 30
0.0
 11
82.118202237500014
 21
-692.97663706249989
 31
0.0
  0
LINE
  5
18D
  8
┌▓È_1
 10
87.087759469100007
 20
-705.92826796249994
 30
0.0
 11
97.880785219100005
 21
-705.92826796249994
 31
0.0
  0
LINE
  5
18E
  8
┌▓È_1
 10
174.1253356082
 20
-708.08687311250003
 30
0.0
 11
174.1253356082
 21
-714.56268856250006
 31
0.0
  0
LINE
  5
18F
  8
┌▓È_1
 10
169.8081253082
 20
-690.81803191250003
 30
0.0
 11
174.1253356082
 21
-684.34221646250001
 31
0.0
  0
LINE
  5
190
  8
┌▓È_1
 10
213.91914663750001
 20
-716.72129371250003
 30
0.0
 11
201.83095779749999
 21
-716.72129371250003
 31
0.0
  0
LINE
  5
191
  8
┌▓È_1
 10
206.0815539994
 20
-689.48518436660004
 30
0.0
 11
209.60193633750001
 21
-684.34221646250001
 31
0.0
  0
LINE
  5
192
  8
┌▓È_1
 10
183.69867453750001
 20
-691.68147397250004
 30
0.0
 11
183.69867453750001
 21
-699.45245251250003
 31
0.0
  0
ARC
  5
193
  8
┌▓È_1
 62
     5
 10
-782.06617996809985
 20
-654.08592007949994
 30
0.0
 40
2.0
 50
101.6132013671
 51
180.0
  0
ARC
  5
194
  8
┌▓È_1
 62
     5
 10
-782.16617996809998
 20
-653.9905360926
 30
0.0
 40
2.5
 50
96.952294746600003
 51
180.0
  0
ARC
  5
195
  8
┌▓È_1
 62
     5
 10
-162.87139443660001
 20
-654.08592007949994
 30
0.0
 40
0.8
 50
0.0
 51
59.784148208400012
  0
ARC
  5
196
  8
┌▓È_1
 62
     5
 10
-162.87139443660001
 20
-654.08592007949994
 30
0.0
 40
2.0
 50
0.0
 51
78.386798632899996
  0
ARC
  5
197
  8
┌▓È_1
 62
     5
 10
-182.1713944366
 20
-654.08592007949994
 30
0.0
 40
2.0
 50
98.551387599500003
 51
180.0
  0
LINE
  5
198
  8
┌▓È_1
 10
82.118202237500014
 20
-692.97663706249989
 30
0.0
 11
82.118202237500014
 21
-699.45245251250003
 31
0.0
  0
LINE
  5
199
  8
┌▓È_1
 10
222.5535672375
 20
-702.90622075249985
 30
0.0
 11
222.5535672375
 21
-710.67719929249995
 31
0.0
  0
LINE
  5
19A
  8
┌▓È_1
 10
183.69867453750001
 20
-691.68147397250004
 30
0.0
 11
194.48594400709999
 21
-691.68147397250004
 31
0.0
  0
LINE
  5
19B
  8
┌▓È_1
 10
206.71356876429999
 20
-691.68147397250004
 30
0.0
 11
222.5535672375
 21
-691.68147397250004
 31
0.0
  0
LINE
  5
19C
  8
┌▓È_1
 10
87.087759469100007
 20
-708.08687311250003
 30
0.0
 11
87.087759469100007
 21
-714.56268856250006
 31
0.0
  0
LINE
  5
19D
  8
┌▓È_1
 10
117.3082315691
 20
-699.45245251250003
 30
0.0
 11
123.7840470191
 21
-699.45245251250003
 31
0.0
  0
LINE
  5
19E
  8
┌▓È_1
 10
123.7840470191
 20
-692.97663706249989
 30
0.0
 11
123.7840470191
 21
-699.45245251250003
 31
0.0
  0
LINE
  5
19F
  8
┌▓È_1
 10
183.69867453750001
 20
-702.90622075249985
 30
0.0
 11
197.77853639590001
 21
-702.90622075249985
 31
0.0
  0
LINE
  5
1A0
  8
┌▓È_1
 10
209.9436553971
 20
-702.90622075249985
 30
0.0
 11
222.5535672375
 21
-702.90622075249985
 31
0.0
  0
LINE
  5
1A1
  8
┌▓È_1
 10
183.69867453750001
 20
-710.67719929249995
 30
0.0
 11
200.0580234343
 21
-710.67719929249995
 31
0.0
  0
LINE
  5
1A2
  8
┌▓È_1
 10
212.1798692198
 20
-710.67719929249995
 30
0.0
 11
222.5535672375
 21
-710.67719929249995
 31
0.0
  0
LINE
  5
1A3
  8
┌▓È_1
 10
206.71356876429999
 20
-691.68147397250004
 30
0.0
 11
206.0815539994
 21
-689.48518436660004
 31
0.0
  0
LINE
  5
1A4
  8
┌▓È_1
 10
213.91914663750001
 20
-716.72129371250003
 30
0.0
 11
212.1798692198
 21
-710.67719929249995
 31
0.0
  0
LINE
  5
1A5
  8
┌▓È_1
 10
87.087759469100007
 20
-714.56268856250006
 30
0.0
 11
104.3566006691
 21
-714.56268856250006
 31
0.0
  0
LINE
  5
1A6
  8
┌▓È_1
 10
565.60455809519999
 20
-581.9603209323999
 30
0.0
 11
565.60455809519999
 21
425.82946428569988
 31
0.0
  0
LINE
  5
1A7
  8
┌▓È_1
 10
123.7840470191
 20
-684.34221646250001
 30
0.0
 11
106.5152058191
 21
-684.34221646250001
 31
0.0
  0
LINE
  5
1A8
  8
┌▓È_1
 10
106.5152058191
 20
-684.34221646250001
 30
0.0
 11
106.5152058191
 21
-692.97663706249989
 31
0.0
  0
LINE
  5
1A9
  8
┌▓È_1
 10
183.69867453750001
 20
-699.45245251250003
 30
0.0
 11
196.76543104550001
 21
-699.45245251250003
 31
0.0
  0
LINE
  5
1AA
  8
┌▓È_1
 10
208.94978258699999
 20
-699.45245251250003
 30
0.0
 11
222.5535672375
 21
-699.45245251250003
 31
0.0
  0
LINE
  5
1AB
  8
┌▓È_1
 10
565.60455809519999
 20
-724.42826083240004
 30
0.0
 11
565.60455809519999
 21
-581.9603209323999
 31
0.0
  0
LINE
  5
1AC
  8
┌▓È_1
 10
-81.976986904800015
 20
-629.44963423239994
 30
0.0
 11
565.60455809519999
 21
-629.44963423239994
 31
0.0
  0
LINE
  5
1AD
  8
┌▓È_1
 10
-81.976986904800015
 20
-676.93894753239999
 30
0.0
 11
565.60455809519999
 21
-676.93894753239999
 31
0.0
  0
LINE
  5
1AE
  8
┌▓È_1
 10
565.60455809519999
 20
-581.9603209323999
 30
0.0
 11
-81.976986904800015
 21
-581.9603209323999
 31
0.0
  0
LINE
  5
1AF
  8
┌▓È_1
 10
194.48594400709999
 20
-691.68147397250004
 30
0.0
 11
192.33309513750001
 21
-684.34221646250001
 31
0.0
  0
LINE
  5
1B0
  8
┌▓È_1
 10
-81.976986904800015
 20
-724.42826083240004
 30
0.0
 11
565.60455809519999
 21
-724.42826083240004
 31
0.0
  0
LINE
  5
1B1
  8
┌▓È_1
 10
-81.976986904800015
 20
-581.9603209323999
 30
0.0
 11
-81.976986904800015
 21
-724.42826083240004
 31
0.0
  0
LINE
  5
1B2
  8
┌▓È_1
 10
4.3672190951999994
 20
-581.9603209323999
 30
0.0
 11
4.3672190951999994
 21
-629.44963423239994
 31
0.0
  0
LINE
  5
1B3
  8
┌▓È_1
 62
     5
 10
-472.46878720239988
 20
-665.28592007949987
 30
0.0
 11
-760.76617996809989
 21
-665.28592007949987
 31
0.0
  0
LINE
  5
1B4
  8
┌▓È_1
 62
     5
 10
-782.46878720240011
 20
-667.86749412649999
 30
0.0
 11
-783.66617996809987
 21
-667.86749412649999
 31
0.0
  0
LINE
  5
1B5
  8
┌▓È_1
 62
     5
 10
-847.25797991069999
 20
-667.08592007949994
 30
0.0
 11
-791.91872209819996
 21
-667.08592007949994
 31
0.0
  0
ARC
  5
1B6
  8
┌▓È_1
 62
     5
 10
-783.66617996809987
 20
-667.46749412650001
 30
0.0
 40
0.4
 50
180.0
 51
270.0
  0
LINE
  5
1B7
  8
┌▓È_1
 62
     5
 10
-764.16617996809987
 20
-668.46749412650001
 30
0.0
 11
-764.16617996809987
 21
-667.86749412649999
 31
0.0
  0
LINE
  5
1B8
  8
┌▓È_1
 62
     5
 10
-782.86617996810003
 20
-667.08592007949994
 30
0.0
 11
-782.86617996810003
 21
-654.08592007949994
 31
0.0
  0
LINE
  5
1B9
  8
┌▓È_1
 10
135.27044290820001
 20
-694.36725482700001
 30
0.0
 11
152.53928410820001
 21
-694.36725482700001
 31
0.0
  0
LINE
  5
1BA
  8
┌▓È_1
 10
135.27044290820001
 20
-692.11319500249988
 30
0.0
 11
156.85649440820001
 21
-692.11319500249988
 31
0.0
  0
LINE
  5
1BB
  8
┌▓È_1
 10
169.8081253082
 20
-690.81803191250003
 30
0.0
 11
174.1253356082
 21
-684.34221646250001
 31
0.0
  0
LINE
  5
1BC
  8
┌▓È_1
 10
135.27044290820001
 20
-708.08687311250003
 30
0.0
 11
135.27044290820001
 21
-714.56268856250006
 31
0.0
  0
LINE
  5
1BD
  8
┌▓È_1
 10
82.118202237500014
 20
-699.45245251250003
 30
0.0
 11
86.435412537499985
 21
-699.45245251250003
 31
0.0
  0
LINE
  5
1BE
  8
┌▓È_1
 10
87.087759469100007
 20
-699.45245251250003
 30
0.0
 11
87.087759469100007
 21
-705.92826796249994
 31
0.0
  0
LINE
  5
1BF
  8
┌▓È_1
 62
     5
 10
-765.34455429929994
 20
-407.8859200794999
 30
0.0
 11
-779.88513400939996
 21
-407.8859200794999
 31
0.0
  0
LINE
  5
1C0
  8
┌▓È_1
 62
     5
 10
-771.71878720240011
 20
-613.38592007950001
 30
0.0
 11
-773.21878720240011
 21
-613.38592007950001
 31
0.0
  0
ARC
  5
1C1
  8
┌▓È_1
 62
     5
 10
-771.71878720240011
 20
-615.8859200794999
 30
0.0
 40
2.5
 50
270.0
 51
90.0
  0
LINE
  5
1C2
  8
┌▓È_1
 62
     5
 10
-762.46878720240011
 20
-367.8859200794999
 30
0.0
 11
-782.46878720240011
 21
-367.8859200794999
 31
0.0
  0
LINE
  5
1C3
  8
┌▓È_1
 10
-1011.9305059524
 20
-724.42826083240004
 30
0.0
 11
-1011.9305059524
 21
425.82946428569988
 31
0.0
  0
ARC
  5
1C4
  8
┌▓È_1
 10
146.06346865820001
 20
-690.81803191250003
 30
0.0
 40
23.74465665
 50
270.0
 51
302.54495885400001
  0
LINE
  5
1C5
  8
┌▓È_1
 62
     5
 10
187.74758071139999
 20
-581.9603209323999
 30
0.0
 11
187.74758071139999
 21
-495.3663609864999
 31
0.0
  0
LINE
  5
1C6
  8
Éíû@É³
 62
     5
 10
-769.21878720240011
 20
291.39578273450002
 30
0.0
 11
-686.02217261899989
 21
329.8997570038
 31
0.0
  0
LINE
  5
1C7
  8
Éíû@É³
 62
     5
 10
-769.21878720240011
 20
291.39578273450002
 30
0.0
 11
-766.69472468710012
 21
293.50136802280002
 31
0.0
  0
LINE
  5
1C8
  8
Éíû@É³
 62
     5
 10
-769.21878720240011
 20
291.39578273450002
 30
0.0
 11
-765.98009229929994
 21
291.95724182629999
 31
0.0
  0
LINE
  5
1C9
  8
Éíû@É³
 62
     5
 10
-686.02217261899989
 20
329.8997570038
 30
0.0
 11
-536.40029761899996
 21
329.8997570038
 31
0.0
  0
LINE
  5
1CA
  8
┌▓È_1
 62
     5
 10
-173.21878720239999
 20
-613.38592007950001
 30
0.0
 11
-171.71878720239999
 21
-613.38592007950001
 31
0.0
  0
LINE
  5
1CB
  8
┌▓È_1
 10
87.087759469100007
 20
-699.45245251250003
 30
0.0
 11
86.435412537499985
 21
-699.45245251250003
 31
0.0
  0
LINE
  5
1CC
  8
Éíû@É³
 62
     5
 10
-769.21878720240011
 20
-613.38592007950001
 30
0.0
 11
-641.90290178570001
 21
-528.92420132949985
 31
0.0
  0
LINE
  5
1CD
  8
Éíû@É³
 62
     5
 10
-769.21878720240011
 20
-613.38592007950001
 30
0.0
 11
-767.04335065089992
 21
-610.92180628389997
 31
0.0
  0
LINE
  5
1CE
  8
Éíû@É³
 62
     5
 10
-769.21878720240011
 20
-613.38592007950001
 30
0.0
 11
-766.10274698670003
 21
-612.3396532104
 31
0.0
  0
LINE
  5
1CF
  8
Éíû@É³
 62
     5
 10
-641.90290178570001
 20
-528.92420132949985
 30
0.0
 11
-492.28102678570002
 21
-528.92420132949985
 31
0.0
  0
LINE
  5
1D0
  8
┌▓È_1
 62
     5
 10
-762.46878720240011
 20
-667.88592007950001
 30
0.0
 11
-762.46878720240011
 21
-367.8859200794999
 31
0.0
  0
LINE
  5
1D1
  8
┌▓È_1
 62
     5
 10
-782.46878720240011
 20
-367.8859200794999
 30
0.0
 11
-782.46878720240011
 21
-667.88592007950001
 31
0.0
  0
ARC
  5
1D2
  8
┌▓È_1
 62
     5
 10
-762.7661799681
 20
-654.08592007949994
 30
0.0
 40
0.8
 50
0.0
 51
68.17697324529999
  0
ARC
  5
1D3
  8
┌▓È_1
 62
     5
 10
-762.7661799681
 20
-654.08592007949994
 30
0.0
 40
2.0
 50
0.0
 51
81.448612400499997
  0
ARC
  5
1D4
  8
┌▓È_1
 62
     5
 10
-782.06617996809985
 20
-654.08592007949994
 30
0.0
 40
0.8
 50
120.2158517916
 51
180.0
  0
LINE
  5
1D5
  8
┌▓È_1
 62
     5
 10
-160.27139443659999
 20
-653.9905360926
 30
0.0
 11
-160.27139443659999
 21
-667.46749412650001
 31
0.0
  0
ARC
  5
1D6
  8
┌▓È_1
 62
     5
 10
-182.1713944366
 20
-654.08592007949994
 30
0.0
 40
0.8
 50
111.8230267547
 51
180.0
  0
LINE
  5
1D7
  8
┌▓È_1
 62
     5
 10
-772.46878720239999
 20
-387.73202656730001
 30
0.0
 11
-772.46878720239999
 21
-630.32043236439995
 31
0.0
  0
LINE
  5
1D8
  8
┌▓È_1
 62
     5
 10
-472.46878720239988
 20
-655.08592007949994
 30
0.0
 11
-760.76617996809989
 21
-655.08592007949994
 31
0.0
  0
LINE
  5
1D9
  8
┌▓È_1
 62
     5
 10
-34.77305169880001
 20
-581.9603209323999
 30
0.0
 11
-34.77305169880001
 21
-495.3663609864999
 31
0.0
  0
LINE
  5
1DA
  8
┌▓È_1
 62
     5
 10
-81.976986904800015
 20
-581.9603209323999
 30
0.0
 11
-81.976986904800015
 21
-495.3663609864999
 31
0.0
  0
LINE
  5
1DB
  8
┌▓È_1
 10
565.60455809519999
 20
425.82946428569988
 30
0.0
 11
-1011.9305059524
 21
425.82946428569988
 31
0.0
  0
LINE
  5
1DC
  8
┌▓È_1
 62
     5
 10
-472.46878720239988
 20
-665.28592007949987
 30
0.0
 11
-184.1713944366
 21
-665.28592007949987
 31
0.0
  0
LINE
  5
1DD
  8
┌▓È_1
 62
     5
 10
-472.46878720239988
 20
-655.08592007949994
 30
0.0
 11
-184.1713944366
 21
-655.08592007949994
 31
0.0
  0
LINE
  5
1DE
  8
┌▓È_1
 62
     5
 10
-162.46878720239999
 20
-367.8859200794999
 30
0.0
 11
-162.46878720239999
 21
-667.88592007950001
 31
0.0
  0
LINE
  5
1DF
  8
┌▓È_1
 62
     5
 10
-162.46878720239999
 20
-667.88592007950001
 30
0.0
 11
-182.46878720239999
 21
-667.88592007950001
 31
0.0
  0
LINE
  5
1E0
  8
┌▓È_1
 62
     5
 10
-182.46878720239999
 20
-667.88592007950001
 30
0.0
 11
-182.46878720239999
 21
-367.8859200794999
 31
0.0
  0
LINE
  5
1E1
  8
┌▓È_1
 10
-81.976986904800015
 20
-724.42826083240004
 30
0.0
 11
-1011.9305059524
 21
-724.42826083240004
 31
0.0
  0
LINE
  5
1E2
  8
┌▓È_1
 10
263.39983709519998
 20
-581.9603209323999
 30
0.0
 11
263.39983709519998
 21
-724.42826083240004
 31
0.0
  0
LINE
  5
1E3
  8
┌▓È_1
 10
177.0556310952
 20
-581.9603209323999
 30
0.0
 11
177.0556310952
 21
-676.93894753239999
 31
0.0
  0
LINE
  5
1E4
  8
┌▓È_1
 10
90.711425095199985
 20
-581.9603209323999
 30
0.0
 11
90.711425095199985
 21
-629.44963423239994
 31
0.0
  0
LINE
  5
1E5
  8
┌▓È_1
 62
     5
 10
-173.21878720239999
 20
-405.3859200794999
 30
0.0
 11
-171.71878720239999
 21
-405.3859200794999
 31
0.0
  0
LINE
  5
1E6
  8
┌▓È_1
 62
     5
 10
-171.71878720239999
 20
-410.3859200794999
 30
0.0
 11
-173.21878720239999
 21
-410.3859200794999
 31
0.0
  0
LINE
  5
1E7
  8
┌▓È_1
 62
     5
 10
-760.76617996809989
 20
-667.08592007949994
 30
0.0
 11
-761.96617996809994
 21
-667.08592007949994
 31
0.0
  0
LINE
  5
1E8
  8
┌▓È_1
 62
     5
 10
-160.87139443660001
 20
-654.08592007949994
 30
0.0
 11
-160.87139443660001
 21
-667.08592007949994
 31
0.0
  0
LINE
  5
1E9
  8
┌▓È_1
 62
     5
 10
-761.96617996809994
 20
-667.08592007949994
 30
0.0
 11
-761.96617996809994
 21
-654.08592007949994
 31
0.0
  0
LINE
  5
1EA
  8
┌▓È_1
 62
     5
 10
-760.76617996809989
 20
-654.08592007949994
 30
0.0
 11
-760.76617996809989
 21
-667.08592007949994
 31
0.0
  0
LINE
  5
1EB
  8
┌▓È_1
 62
     5
 10
-782.46878720240011
 20
-667.88592007950001
 30
0.0
 11
-762.46878720240011
 21
-667.88592007950001
 31
0.0
  0
ARC
  5
1EC
  8
┌▓È_1
 62
     5
 10
-771.71878720240011
 20
-407.8859200794999
 30
0.0
 40
2.5
 50
270.0
 51
90.0
  0
LINE
  5
1ED
  8
┌▓È_1
 62
     5
 10
-184.1713944366
 20
-654.08592007949994
 30
0.0
 11
-184.1713944366
 21
-667.08592007949994
 31
0.0
  0
LINE
  5
1EE
  8
┌▓È_1
 62
     5
 10
-784.06617996809985
 20
-667.46749412650001
 30
0.0
 11
-784.06617996809985
 21
-667.08592007949994
 31
0.0
  0
LINE
  5
1EF
  8
┌▓È_1
 62
     5
 10
-784.66617996809987
 20
-653.9905360926
 30
0.0
 11
-784.66617996809987
 21
-667.46749412650001
 31
0.0
  0
LINE
  5
1F0
  8
┌▓È_1
 62
     5
 10
-172.46878720239999
 20
-387.73202656730001
 30
0.0
 11
-172.46878720239999
 21
-630.32043236439995
 31
0.0
  0
ARC
  5
1F1
  8
┌▓È_1
 62
     5
 10
-173.21878720239999
 20
-407.8859200794999
 30
0.0
 40
2.5
 50
90.0
 51
270.0
  0
ARC
  5
1F2
  8
┌▓È_1
 62
     5
 10
-783.66617996809987
 20
-667.46749412650001
 30
0.0
 40
1.0
 50
180.0
 51
270.0
  0
LINE
  5
1F3
  8
┌▓È_1
 62
     5
 10
-784.06617996809985
 20
-667.08592007949994
 30
0.0
 11
-782.86617996810003
 21
-667.08592007949994
 31
0.0
  0
LINE
  5
1F4
  8
┌▓È_1
 62
     5
 10
-764.79238038630001
 20
-615.8859200794999
 30
0.0
 11
-779.70107603839995
 21
-615.8859200794999
 31
0.0
  0
LINE
  5
1F5
  8
┌▓È_1
 62
     5
 10
-773.21878720240011
 20
-410.3859200794999
 30
0.0
 11
-771.71878720240011
 21
-410.3859200794999
 31
0.0
  0
LINE
  5
1F6
  8
┌▓È_1
 62
     5
 10
-771.71878720240011
 20
-405.3859200794999
 30
0.0
 11
-773.21878720240011
 21
-405.3859200794999
 31
0.0
  0
ARC
  5
1F7
  8
┌▓È_1
 62
     5
 10
-171.71878720239999
 20
-407.8859200794999
 30
0.0
 40
2.5
 50
270.0
 51
90.0
  0
LINE
  5
1F8
  8
┌▓È_1
 62
     5
 10
-182.46878720239999
 20
-367.8859200794999
 30
0.0
 11
-162.46878720239999
 21
-367.8859200794999
 31
0.0
  0
ARC
  5
1F9
  8
┌▓È_1
 62
     5
 10
-173.21878720239999
 20
-615.8859200794999
 30
0.0
 40
2.5
 50
90.0
 51
270.0
  0
LINE
  5
1FA
  8
┌▓È_1
 62
     5
 10
-81.976986904800015
 20
-523.72610617689986
 30
0.0
 11
565.60455809519999
 21
-523.72610617689986
 31
0.0
  0
LINE
  5
1FB
  8
┌▓È_1
 62
     5
 10
-81.976986904800015
 20
-549.97647756280003
 30
0.0
 11
565.60455809519999
 21
-549.97647756280003
 31
0.0
  0
LINE
  5
1FC
  8
┌▓È_1
 62
     5
 10
459.64599034219998
 20
-581.9603209323999
 30
0.0
 11
459.64599034219998
 21
-495.3663609864999
 31
0.0
  0
LINE
  5
1FD
  8
┌▓È_1
 62
     5
 10
407.38264251319998
 20
-581.9603209323999
 30
0.0
 11
407.38264251319998
 21
-495.3663609864999
 31
0.0
  0
LINE
  5
1FE
  8
┌▓È_1
 62
     5
 10
275.57470238100001
 20
-309.61482632949998
 30
0.0
 11
272.90638534760001
 21
-309.61482632949998
 31
0.0
  0
ARC
  5
1FF
  8
┌▓È_1
 62
     5
 10
42.874702380999999
 20
-299.61482632949998
 30
0.0
 40
1.0
 50
270.0
 51
280.08515232320002
  0
ARC
  5
200
  8
┌▓È_1
 62
     5
 10
47.049813976199999
 20
-306.81482632950002
 30
0.0
 40
4.0
 50
180.0
 51
270.0
  0
LINE
  5
201
  8
┌▓È_1
 62
     5
 10
43.049813976199992
 20
-306.81482632950002
 30
0.0
 11
43.049813976199992
 21
-295.81482632950008
 31
0.0
  0
LINE
  5
202
  8
┌▓È_1
 62
     5
 10
-171.71878720239999
 20
-618.38592007950001
 30
0.0
 11
-173.21878720239999
 21
-618.38592007950001
 31
0.0
  0
ARC
  5
203
  8
┌▓È_1
 62
     5
 10
-171.71878720239999
 20
-615.8859200794999
 30
0.0
 40
2.5
 50
270.0
 51
90.0
  0
ARC
  5
204
  8
┌▓È_1
 62
     5
 10
-161.27139443659999
 20
-667.46749412650001
 30
0.0
 40
1.0
 50
270.0
 51
0.0
  0
LINE
  5
205
  8
┌▓È_1
 62
     5
 10
-161.27139443659999
 20
-668.46749412650001
 30
0.0
 11
-180.77139443659999
 21
-668.46749412650001
 31
0.0
  0
LINE
  5
206
  8
┌▓È_1
 62
     5
 10
270.04981397620003
 20
-310.81482632950002
 30
0.0
 11
168.5498139762
 21
-310.81482632950002
 31
0.0
  0
LINE
  5
207
  8
┌▓È_1
 62
     5
 10
148.5498139762
 20
-311.91482632949999
 30
0.0
 11
168.5498139762
 21
-311.91482632949999
 31
0.0
  0
LINE
  5
208
  8
┌▓È_1
 62
     5
 10
168.5498139762
 20
-311.91482632949999
 30
0.0
 11
168.5498139762
 21
-295.11482632949998
 31
0.0
  0
LINE
  5
209
  8
┌▓È_1
 62
     5
 10
148.5498139762
 20
-295.11482632949998
 30
0.0
 11
148.5498139762
 21
-311.91482632949999
 31
0.0
  0
LINE
  5
20A
  8
┌▓È_1
 62
     5
 10
42.574702381000002
 20
-309.61482632949998
 30
0.0
 11
44.193242604799991
 21
-309.61482632949998
 31
0.0
  0
ARC
  5
20B
  8
┌▓È_1
 62
     5
 10
42.574702381000002
 20
-309.61482632949998
 30
0.0
 40
2.0
 50
180.0
 51
270.0
  0
LINE
  5
20C
  8
┌▓È_1
 62
     5
 10
-160.87139443660001
 20
-667.46749412650001
 30
0.0
 11
-160.87139443660001
 21
-667.08592007949994
 31
0.0
  0
LINE
  5
20D
  8
┌▓È_1
 62
     5
 10
-162.46878720239999
 20
-667.86749412649999
 30
0.0
 11
-161.27139443659999
 21
-667.86749412649999
 31
0.0
  0
LINE
  5
20E
  8
┌▓È_1
 62
     5
 10
-773.21878720240011
 20
-618.38592007950001
 30
0.0
 11
-771.71878720240011
 21
-618.38592007950001
 31
0.0
  0
LINE
  5
20F
  8
┌▓È_1
 62
     5
 10
-182.97139443660001
 20
-667.08592007949994
 30
0.0
 11
-182.97139443660001
 21
-654.08592007949994
 31
0.0
  0
LINE
  5
210
  8
┌▓È_1
 62
     5
 10
-184.1713944366
 20
-667.08592007949994
 30
0.0
 11
-182.97139443660001
 21
-667.08592007949994
 31
0.0
  0
LINE
  5
211
  8
┌▓È_1
 62
     5
 10
-179.59302010549999
 20
-407.8859200794999
 30
0.0
 11
-165.05244039530001
 21
-407.8859200794999
 31
0.0
  0
LINE
  5
212
  8
┌▓È_1
 62
     5
 10
-180.14519401850001
 20
-615.8859200794999
 30
0.0
 11
-165.2364983663
 21
-615.8859200794999
 31
0.0
  0
ARC
  5
213
  8
┌▓È_1
 62
     5
 10
-773.21878720240011
 20
-615.8859200794999
 30
0.0
 40
2.5
 50
90.0
 51
270.0
  0
LINE
  5
214
  8
┌▓È_1
 62
     5
 10
-783.66617996809987
 20
-668.46749412650001
 30
0.0
 11
-764.16617996809987
 21
-668.46749412650001
 31
0.0
  0
ARC
  5
215
  8
┌▓È_1
 62
     5
 10
-162.77139443659999
 20
-653.9905360926
 30
0.0
 40
2.5
 50
0.0
 51
83.047705253399997
  0
LINE
  5
216
  8
┌▓È_1
 62
     5
 10
-784.06617996809985
 20
-654.08592007949994
 30
0.0
 11
-784.06617996809985
 21
-667.08592007949994
 31
0.0
  0
ARC
  5
217
  8
┌▓È_1
 62
     5
 10
-771.71878720240011
 20
288.89578273450002
 30
0.0
 40
2.5
 50
270.0
 51
90.0
  0
LINE
  5
218
  8
┌▓È_1
 62
     5
 10
-771.71878720240011
 20
291.39578273450002
 30
0.0
 11
-773.21878720240011
 21
291.39578273450002
 31
0.0
  0
ARC
  5
219
  8
┌▓È_1
 62
     5
 10
-771.71878720240011
 20
136.89578273449999
 30
0.0
 40
2.5
 50
270.0
 51
90.0
  0
LINE
  5
21A
  8
┌▓È_1
 62
     5
 10
-782.46878720240011
 20
96.895782734500017
 30
0.0
 11
-762.46878720240011
 21
96.895782734500017
 31
0.0
  0
LINE
  5
21B
  8
┌▓È_1
 62
     5
 10
-160.87139443660001
 20
-667.08592007949994
 30
0.0
 11
-162.0713944366
 21
-667.08592007949994
 31
0.0
  0
LINE
  5
21C
  8
┌▓È_1
 62
     5
 10
-162.0713944366
 20
-667.08592007949994
 30
0.0
 11
-162.0713944366
 21
-654.08592007949994
 31
0.0
  0
LINE
  5
21D
  8
┌▓È_1
 62
     5
 10
-180.77139443659999
 20
-668.46749412650001
 30
0.0
 11
-180.77139443659999
 21
-667.86749412649999
 31
0.0
  0
ARC
  5
21E
  8
┌▓È_1
 62
     5
 10
-161.27139443659999
 20
-667.46749412650001
 30
0.0
 40
0.4
 50
270.0
 51
0.0
  0
LINE
  5
21F
  8
┌▓È_1
 62
     5
 10
-773.21878720240011
 20
286.39578273450002
 30
0.0
 11
-771.71878720240011
 21
286.39578273450002
 31
0.0
  0
ARC
  5
220
  8
┌▓È_1
 62
     5
 10
-773.21878720240011
 20
288.89578273450002
 30
0.0
 40
2.5
 50
90.0
 51
270.0
  0
LINE
  5
221
  8
┌▓È_1
 62
     5
 10
-772.46878720239999
 20
94.036784998600012
 30
0.0
 11
-772.46878720239999
 21
336.9242849986
 31
0.0
  0
LINE
  5
222
  8
┌▓È_1
 62
     5
 10
-760.71878720240011
 20
98.899757003799991
 30
0.0
 11
-760.71878720240011
 21
329.8997570038
 31
0.0
  0
LINE
  5
223
  8
┌▓È_1
 62
     5
 10
-782.46878720240011
 20
329.8997570038
 30
0.0
 11
-784.21878720240011
 21
329.8997570038
 31
0.0
  0
LINE
  5
224
  8
┌▓È_1
 62
     5
 10
-760.71878720240011
 20
159.3997570038
 30
0.0
 11
-472.46878720239988
 21
159.3997570038
 31
0.0
  0
LINE
  5
225
  8
┌▓È_1
 62
     5
 10
-786.94695036690007
 20
96.895782734500017
 30
0.0
 11
-847.38143312550005
 21
96.895782734500017
 31
0.0
  0
ARC
  5
226
  8
┌▓È_1
 62
     5
 10
-773.21878720240011
 20
-407.8859200794999
 30
0.0
 40
2.5
 50
90.0
 51
270.0
  0
LINE
  5
227
  8
┌▓È_1
 62
     5
 10
42.574702381000002
 20
-309.61482632949998
 30
0.0
 11
42.574702381000002
 21
-13.6148263295
 31
0.0
  0
LINE
  5
228
  8
┌▓È_1
 62
     5
 10
42.874702380999999
 20
-300.61482632949998
 30
0.0
 11
42.574702381000002
 21
-300.61482632949998
 31
0.0
  0
LINE
  5
229
  8
┌▓È_1
 62
     5
 10
275.57470238100001
 20
-13.6148263295
 30
0.0
 11
275.57470238100001
 21
-309.61482632949998
 31
0.0
  0
LINE
  5
22A
  8
┌▓È_1
 62
     5
 10
277.57470238100001
 20
-13.6148263295
 30
0.0
 11
277.57470238100001
 21
-309.61482632949998
 31
0.0
  0
ARC
  5
22B
  8
┌▓È_1
 62
     5
 10
275.57470238100001
 20
-309.61482632949998
 30
0.0
 40
2.0
 50
270.0
 51
0.0
  0
ARC
  5
22C
  8
┌▓È_1
 62
     5
 10
275.274702381
 20
-299.61482632949998
 30
0.0
 40
1.0
 50
180.0
 51
270.0
  0
LINE
  5
22D
  8
┌▓È_1
 62
     5
 10
275.274702381
 20
-300.61482632949998
 30
0.0
 11
275.57470238100001
 21
-300.61482632949998
 31
0.0
  0
LINE
  5
22E
  8
┌▓È_1
 62
     5
 10
274.274702381
 20
-291.61482632949998
 30
0.0
 11
274.274702381
 21
-299.61482632949998
 31
0.0
  0
LINE
  5
22F
  8
┌▓È_1
 62
     5
 10
148.5498139762
 20
-311.61482632949998
 30
0.0
 11
42.574702381000002
 21
-311.61482632949998
 31
0.0
  0
LINE
  5
230
  8
┌▓È_1
 62
     5
 10
-784.21878720240011
 20
329.8997570038
 30
0.0
 11
-784.21878720240011
 21
221.0304181512
 31
0.0
  0
LINE
  5
231
  8
┌▓È_1
 62
     5
 10
-760.71878720240011
 20
309.3997570038
 30
0.0
 11
-472.46878720239988
 21
309.3997570038
 31
0.0
  0
LINE
  5
232
  8
┌▓È_1
 62
     5
 10
-760.71878720240011
 20
269.3997570038
 30
0.0
 11
-472.46878720239988
 21
269.3997570038
 31
0.0
  0
LINE
  5
233
  8
┌▓È_1
 62
     5
 10
-760.71878720240011
 20
279.3997570038
 30
0.0
 11
-472.46878720239988
 21
279.3997570038
 31
0.0
  0
ARC
  5
234
  8
┌▓È_1
 62
     5
 10
270.04981397620003
 20
-306.81482632950002
 30
0.0
 40
4.0
 50
270.0
 51
0.0
  0
LINE
  5
235
  8
┌▓È_1
 62
     5
 10
274.04981397620003
 20
-295.81482632950008
 30
0.0
 11
274.04981397620003
 21
-306.81482632950002
 31
0.0
  0
LINE
  5
236
  8
┌▓È_1
 62
     5
 10
275.57470238100001
 20
-311.61482632949998
 30
0.0
 11
168.5498139762
 21
-311.61482632949998
 31
0.0
  0
LINE
  5
237
  8
┌▓È_1
 62
     5
 10
148.5498139762
 20
-310.81482632950002
 30
0.0
 11
47.049813976199999
 21
-310.81482632950002
 31
0.0
  0
LINE
  5
238
  8
┌▓È_1
 62
     5
 10
-760.71878720240011
 20
119.3997570038
 30
0.0
 11
-472.46878720239988
 21
119.3997570038
 31
0.0
  0
LINE
  5
239
  8
┌▓È_1
 62
     5
 10
-760.71878720240011
 20
109.3997570038
 30
0.0
 11
-472.46878720239988
 21
109.3997570038
 31
0.0
  0
LINE
  5
23A
  8
┌▓È_1
 62
     5
 10
-184.21878720239999
 20
109.3997570038
 30
0.0
 11
-472.46878720239988
 21
109.3997570038
 31
0.0
  0
LINE
  5
23B
  8
┌▓È_1
 62
     5
 10
-184.21878720239999
 20
119.3997570038
 30
0.0
 11
-472.46878720239988
 21
119.3997570038
 31
0.0
  0
LINE
  5
23C
  8
┌▓È_1
 62
     5
 10
-184.21878720239999
 20
149.3997570038
 30
0.0
 11
-472.46878720239988
 21
149.3997570038
 31
0.0
  0
LINE
  5
23D
  8
┌▓È_1
 62
     5
 10
-184.21878720239999
 20
159.3997570038
 30
0.0
 11
-472.46878720239988
 21
159.3997570038
 31
0.0
  0
LINE
  5
23E
  8
┌▓È_1
 62
     5
 10
40.574702381000002
 20
-309.61482632949998
 30
0.0
 11
40.574702381000002
 21
-13.6148263295
 31
0.0
  0
LINE
  5
23F
  8
┌▓È_1
 62
     5
 10
-762.46878720240011
 20
333.89578273450002
 30
0.0
 11
-782.46878720240011
 21
333.89578273450002
 31
0.0
  0
LINE
  5
240
  8
┌▓È_1
 62
     5
 10
-762.46878720240011
 20
333.89578273450002
 30
0.0
 11
-782.46878720240011
 21
333.89578273450002
 31
0.0
  0
LINE
  5
241
  8
┌▓È_1
 62
     5
 10
-780.66225830389999
 20
136.89578273449999
 30
0.0
 11
-764.92141323349995
 21
136.89578273449999
 31
0.0
  0
CIRCLE
  5
242
  8
┌▓È_1
 62
     5
 10
-772.46878720239999
 20
323.89578273450002
 30
0.0
 40
3.0
  0
CIRCLE
  5
243
  8
┌▓È_1
 62
     5
 10
-772.46878720239999
 20
305.89578273450002
 30
0.0
 40
3.0
  0
LINE
  5
244
  8
┌▓È_1
 62
     5
 10
-782.46878720240011
 20
297.30999629690001
 30
0.0
 11
-762.46878720240011
 21
297.30999629690001
 31
0.0
  0
LINE
  5
245
  8
┌▓È_1
 62
     5
 10
-782.46878720240011
 20
298.89578273450002
 30
0.0
 11
-762.46878720240011
 21
298.89578273450002
 31
0.0
  0
LINE
  5
246
  8
┌▓È_1
 62
     5
 10
-782.46878720240011
 20
333.89578273450002
 30
0.0
 11
-782.46878720240011
 21
96.895782734500017
 31
0.0
  0
LINE
  5
247
  8
┌▓È_1
 62
     5
 10
-762.46878720240011
 20
96.895782734500017
 30
0.0
 11
-762.46878720240011
 21
333.89578273450002
 31
0.0
  0
LINE
  5
248
  8
┌▓È_1
 62
     5
 10
-780.21004761899985
 20
288.89578273450002
 30
0.0
 11
-764.80071428570011
 21
288.89578273450002
 31
0.0
  0
LINE
  5
249
  8
┌▓È_1
 62
     5
 10
-184.21878720239999
 20
189.3997570038
 30
0.0
 11
-472.46878720239988
 21
189.3997570038
 31
0.0
  0
LINE
  5
24A
  8
┌▓È_1
 62
     5
 10
-184.21878720239999
 20
239.3997570038
 30
0.0
 11
-472.46878720239988
 21
239.3997570038
 31
0.0
  0
LINE
  5
24B
  8
┌▓È_1
 62
     5
 10
-184.21878720239999
 20
229.3997570038
 30
0.0
 11
-472.46878720239988
 21
229.3997570038
 31
0.0
  0
LINE
  5
24C
  8
┌▓È_1
 62
     5
 10
-184.21878720239999
 20
279.3997570038
 30
0.0
 11
-472.46878720239988
 21
279.3997570038
 31
0.0
  0
LINE
  5
24D
  8
┌▓È_1
 62
     5
 10
-782.46878720240011
 20
333.89578273450002
 30
0.0
 11
-782.46878720240011
 21
96.895782734500017
 31
0.0
  0
LINE
  5
24E
  8
┌▓È_1
 62
     5
 10
-762.46878720240011
 20
96.895782734500017
 30
0.0
 11
-762.46878720240011
 21
333.89578273450002
 31
0.0
  0
LINE
  5
24F
  8
┌▓È_1
 62
     5
 10
-771.71878720240011
 20
139.39578273449999
 30
0.0
 11
-773.21878720240011
 21
139.39578273449999
 31
0.0
  0
ARC
  5
250
  8
┌▓È_1
 62
     5
 10
-773.21878720240011
 20
136.89578273449999
 30
0.0
 40
2.5
 50
90.0
 51
270.0
  0
CIRCLE
  5
251
  8
┌▓È_1
 62
     5
 10
-172.46878720239999
 20
305.89578273450002
 30
0.0
 40
3.0
  0
CIRCLE
  5
252
  8
┌▓È_1
 62
     5
 10
-172.46878720239999
 20
323.89578273450002
 30
0.0
 40
3.0
  0
ARC
  5
253
  8
┌▓È_1
 62
     5
 10
-782.11878720239997
 20
-297.81482632950002
 30
0.0
 40
0.8
 50
115.9444797724
 51
180.0
  0
ARC
  5
254
  8
┌▓È_1
 62
     5
 10
-762.81878720240002
 20
-297.81482632950002
 30
0.0
 40
0.8
 50
0.0
 51
64.055520227599999
  0
LINE
  5
255
  8
┌▓È_1
 62
     5
 10
-782.46878720240011
 20
-311.52021954830002
 30
0.0
 11
-783.71878720240011
 21
-311.52021954830002
 31
0.0
  0
LINE
  5
256
  8
┌▓È_1
 62
     5
 10
-784.7170085027999
 20
-297.72593098099998
 30
0.0
 11
-784.71878720240011
 21
-311.12021954829999
 31
0.0
  0
LINE
  5
257
  8
┌▓È_1
 62
     5
 10
-760.71878720240011
 20
149.3997570038
 30
0.0
 11
-472.46878720239988
 21
149.3997570038
 31
0.0
  0
LINE
  5
258
  8
┌▓È_1
 62
     5
 10
-184.21878720239999
 20
309.3997570038
 30
0.0
 11
-472.46878720239988
 21
309.3997570038
 31
0.0
  0
LINE
  5
259
  8
┌▓È_1
 62
     5
 10
-184.21878720239999
 20
319.3997570038
 30
0.0
 11
-472.46878720239988
 21
319.3997570038
 31
0.0
  0
LINE
  5
25A
  8
┌▓È_1
 62
     5
 10
-782.46878720240011
 20
96.895782734500017
 30
0.0
 11
-762.46878720240011
 21
96.895782734500017
 31
0.0
  0
LINE
  5
25B
  8
┌▓È_1
 62
     5
 10
-773.21878720240011
 20
134.39578273449999
 30
0.0
 11
-771.71878720240011
 21
134.39578273449999
 31
0.0
  0
LINE
  5
25C
  8
┌▓È_1
 62
     5
 10
-760.71878720240011
 20
329.8997570038
 30
0.0
 11
-762.46878720240011
 21
329.8997570038
 31
0.0
  0
LINE
  5
25D
  8
┌▓È_1
 62
     5
 10
-784.21878720240011
 20
98.899757003799991
 30
0.0
 11
-782.46878720240011
 21
98.899757003799991
 31
0.0
  0
LINE
  5
25E
  8
┌▓È_1
 62
     5
 10
-762.46878720240011
 20
98.899757003799991
 30
0.0
 11
-760.71878720240011
 21
98.899757003799991
 31
0.0
  0
LINE
  5
25F
  8
┌▓È_1
 62
     5
 10
-784.8187872023999
 20
221.0304181512
 30
0.0
 11
-784.8187872023999
 21
201.0304181512
 31
0.0
  0
LINE
  5
260
  8
┌▓È_1
 62
     5
 10
-782.46878720240011
 20
221.0304181512
 30
0.0
 11
-784.8187872023999
 21
221.0304181512
 31
0.0
  0
LINE
  5
261
  8
┌▓È_1
 62
     5
 10
-784.8187872023999
 20
201.0304181512
 30
0.0
 11
-782.46878720240011
 21
201.0304181512
 31
0.0
  0
LINE
  5
262
  8
┌▓È_1
 62
     5
 10
-782.46878720240011
 20
-311.61482632949998
 30
0.0
 11
-762.46878720240011
 21
-311.61482632949998
 31
0.0
  0
LINE
  5
263
  8
┌▓È_1
 62
     5
 10
-182.91878720240001
 20
-310.81482632950002
 30
0.0
 11
-182.91878720240001
 21
-297.81482632950002
 31
0.0
  0
LINE
  5
264
  8
┌▓È_1
 62
     5
 10
-184.1187872024
 20
-297.81482632950002
 30
0.0
 11
-184.1187872024
 21
-310.81482632950002
 31
0.0
  0
LINE
  5
265
  8
┌▓È_1
 62
     5
 10
-184.1187872024
 20
-310.81482632950002
 30
0.0
 11
-182.91878720240001
 21
-310.81482632950002
 31
0.0
  0
LINE
  5
266
  8
┌▓È_1
 62
     5
 10
-760.71878720240011
 20
229.3997570038
 30
0.0
 11
-472.46878720239988
 21
229.3997570038
 31
0.0
  0
LINE
  5
267
  8
┌▓È_1
 62
     5
 10
-760.71878720240011
 20
239.3997570038
 30
0.0
 11
-472.46878720239988
 21
239.3997570038
 31
0.0
  0
LINE
  5
268
  8
┌▓È_1
 62
     5
 10
-760.71878720240011
 20
189.3997570038
 30
0.0
 11
-472.46878720239988
 21
189.3997570038
 31
0.0
  0
LINE
  5
269
  8
┌▓È_1
 62
     5
 10
-760.71878720240011
 20
199.3997570038
 30
0.0
 11
-472.46878720239988
 21
199.3997570038
 31
0.0
  0
LINE
  5
26A
  8
┌▓È_1
 62
     5
 10
-161.21878720239999
 20
-312.1202195483001
 30
0.0
 11
-180.71878720239999
 21
-312.1202195483001
 31
0.0
  0
LINE
  5
26B
  8
┌▓È_1
 62
     5
 10
-160.22056590189999
 20
-297.72593098099998
 30
0.0
 11
-160.21878720239999
 21
-311.12021954829999
 31
0.0
  0
LINE
  5
26C
  8
┌▓È_1
 62
     5
 10
-162.46878720239999
 20
-311.52021954830002
 30
0.0
 11
-161.21878720239999
 21
-311.52021954830002
 31
0.0
  0
LINE
  5
26D
  8
┌▓È_1
 62
     5
 10
-184.1187872024
 20
-299.01482632950001
 30
0.0
 11
-472.46878720239988
 21
-299.01482632950001
 31
0.0
  0
LINE
  5
26E
  8
┌▓È_1
 62
     5
 10
-184.1187872024
 20
-309.01482632950001
 30
0.0
 11
-472.46878720239988
 21
-309.01482632950001
 31
0.0
  0
LINE
  5
26F
  8
┌▓È_1
 62
     5
 10
-760.81878720240002
 20
-309.01482632950001
 30
0.0
 11
-472.46878720239988
 21
-309.01482632950001
 31
0.0
  0
LINE
  5
270
  8
┌▓È_1
 62
     5
 10
-184.21878720239999
 20
199.3997570038
 30
0.0
 11
-472.46878720239988
 21
199.3997570038
 31
0.0
  0
LINE
  5
271
  8
┌▓È_1
 62
     5
 10
-184.21878720239999
 20
329.8997570038
 30
0.0
 11
-182.46878720239999
 21
329.8997570038
 31
0.0
  0
LINE
  5
272
  8
┌▓È_1
 62
     5
 10
-162.46878720239999
 20
329.8997570038
 30
0.0
 11
-160.71878720239999
 21
329.8997570038
 31
0.0
  0
LINE
  5
273
  8
┌▓È_1
 62
     5
 10
-182.46878720239999
 20
96.895782734500017
 30
0.0
 11
-182.46878720239999
 21
333.89578273450002
 31
0.0
  0
LINE
  5
274
  8
┌▓È_1
 62
     5
 10
-162.46878720239999
 20
333.89578273450002
 30
0.0
 11
-162.46878720239999
 21
96.895782734500017
 31
0.0
  0
LINE
  5
275
  8
┌▓È_1
 62
     5
 10
-182.46878720239999
 20
96.895782734500017
 30
0.0
 11
-182.46878720239999
 21
333.89578273450002
 31
0.0
  0
LINE
  5
276
  8
┌▓È_1
 62
     5
 10
-182.46878720239999
 20
333.89578273450002
 30
0.0
 11
-162.46878720239999
 21
333.89578273450002
 31
0.0
  0
LINE
  5
277
  8
┌▓È_1
 62
     5
 10
-184.21878720239999
 20
98.899757003799991
 30
0.0
 11
-184.21878720239999
 21
329.8997570038
 31
0.0
  0
LINE
  5
278
  8
┌▓È_1
 62
     5
 10
-172.46878720239999
 20
94.036784998600012
 30
0.0
 11
-172.46878720239999
 21
336.9242849986
 31
0.0
  0
LINE
  5
279
  8
┌▓È_1
 62
     5
 10
-784.21878720240011
 20
201.0304181512
 30
0.0
 11
-784.21878720240011
 21
98.899757003799991
 31
0.0
  0
LINE
  5
27A
  8
┌▓È_1
 62
     5
 10
-760.71878720240011
 20
319.3997570038
 30
0.0
 11
-472.46878720239988
 21
319.3997570038
 31
0.0
  0
ARC
  5
27B
  8
┌▓È_1
 62
     5
 10
-182.1187872024
 20
-297.81482632950002
 30
0.0
 40
2.0
 50
100.0786581078
 51
180.0
  0
ARC
  5
27C
  8
┌▓È_1
 62
     5
 10
-162.81878720239999
 20
-297.81482632950002
 30
0.0
 40
2.0
 50
0.0
 51
79.921341892200005
  0
ARC
  5
27D
  8
┌▓È_1
 62
     5
 10
-162.72056590189999
 20
-297.72593098099998
 30
0.0
 40
2.5
 50
0.0
 51
84.2198578908
  0
POLYLINE
  8
┌▓È_1
  5
33E
  66
     1
 10
0.000000
 20
0.000000
 30
0.000000
  70
     8
  0
VERTEX
  8
┌▓È_1
  5
33F
 10
158.837
 20
-710.834
 30
0.000000
  70
    32
  0
VERTEX
  8
┌▓È_1
  5
340
 10
158.953
 20
-710.871
 30
0.000000
  70
    32
  0
VERTEX
  8
┌▓È_1
  5
341
 10
159.070
 20
-710.908
 30
0.000000
  70
    32
  0
VERTEX
  8
┌▓È_1
  5
342
 10
159.186
 20
-710.945
 30
0.000000
  70
    32
  0
VERTEX
  8
┌▓È_1
  5
343
 10
159.303
 20
-710.981
 30
0.000000
  70
    32
  0
VERTEX
  8
┌▓È_1
  5
344
 10
159.419
 20
-711.018
 30
0.000000
  70
    32
  0
VERTEX
  8
┌▓È_1
  5
345
 10
159.536
 20
-711.054
 30
0.000000
  70
    32
  0
VERTEX
  8
┌▓È_1
  5
346
 10
159.653
 20
-711.090
 30
0.000000
  70
    32
  0
VERTEX
  8
┌▓È_1
  5
347
 10
159.770
 20
-711.125
 30
0.000000
  70
    32
  0
VERTEX
  8
┌▓È_1
  5
348
 10
159.887
 20
-711.161
 30
0.000000
  70
    32
  0
VERTEX
  8
┌▓È_1
  5
349
 10
160.004
 20
-711.197
 30
0.000000
  70
    32
  0
VERTEX
  8
┌▓È_1
  5
34A
 10
160.121
 20
-711.232
 30
0.000000
  70
    32
  0
VERTEX
  8
┌▓È_1
  5
34B
 10
160.238
 20
-711.267
 30
0.000000
  70
    32
  0
VERTEX
  8
┌▓È_1
  5
34C
 10
160.355
 20
-711.302
 30
0.000000
  70
    32
  0
VERTEX
  8
┌▓È_1
  5
34D
 10
160.473
 20
-711.337
 30
0.000000
  70
    32
  0
VERTEX
  8
┌▓È_1
  5
34E
 10
160.590
 20
-711.371
 30
0.000000
  70
    32
  0
VERTEX
  8
┌▓È_1
  5
34F
 10
160.708
 20
-711.406
 30
0.000000
  70
    32
  0
VERTEX
  8
┌▓È_1
  5
350
 10
160.826
 20
-711.440
 30
0.000000
  70
    32
  0
VERTEX
  8
┌▓È_1
  5
351
 10
160.944
 20
-711.474
 30
0.000000
  70
    32
  0
VERTEX
  8
┌▓È_1
  5
352
 10
161.061
 20
-711.508
 30
0.000000
  70
    32
  0
VERTEX
  8
┌▓È_1
  5
353
 10
161.179
 20
-711.542
 30
0.000000
  70
    32
  0
VERTEX
  8
┌▓È_1
  5
354
 10
161.297
 20
-711.576
 30
0.000000
  70
    32
  0
VERTEX
  8
┌▓È_1
  5
355
 10
161.416
 20
-711.609
 30
0.000000
  70
    32
  0
VERTEX
  8
┌▓È_1
  5
356
 10
161.534
 20
-711.643
 30
0.000000
  70
    32
  0
VERTEX
  8
┌▓È_1
  5
357
 10
161.652
 20
-711.676
 30
0.000000
  70
    32
  0
VERTEX
  8
┌▓È_1
  5
358
 10
161.770
 20
-711.709
 30
0.000000
  70
    32
  0
VERTEX
  8
┌▓È_1
  5
359
 10
161.889
 20
-711.742
 30
0.000000
  70
    32
  0
VERTEX
  8
┌▓È_1
  5
35A
 10
162.007
 20
-711.775
 30
0.000000
  70
    32
  0
VERTEX
  8
┌▓È_1
  5
35B
 10
162.126
 20
-711.807
 30
0.000000
  70
    32
  0
VERTEX
  8
┌▓È_1
  5
35C
 10
162.245
 20
-711.840
 30
0.000000
  70
    32
  0
VERTEX
  8
┌▓È_1
  5
35D
 10
162.363
 20
-711.872
 30
0.000000
  70
    32
  0
VERTEX
  8
┌▓È_1
  5
35E
 10
162.482
 20
-711.904
 30
0.000000
  70
    32
  0
VERTEX
  8
┌▓È_1
  5
35F
 10
162.601
 20
-711.937
 30
0.000000
  70
    32
  0
VERTEX
  8
┌▓È_1
  5
360
 10
162.720
 20
-711.968
 30
0.000000
  70
    32
  0
VERTEX
  8
┌▓È_1
  5
361
 10
162.839
 20
-712.000
 30
0.000000
  70
    32
  0
VERTEX
  8
┌▓È_1
  5
362
 10
162.958
 20
-712.032
 30
0.000000
  70
    32
  0
VERTEX
  8
┌▓È_1
  5
363
 10
163.078
 20
-712.063
 30
0.000000
  70
    32
  0
VERTEX
  8
┌▓È_1
  5
364
 10
163.197
 20
-712.095
 30
0.000000
  70
    32
  0
VERTEX
  8
┌▓È_1
  5
365
 10
163.316
 20
-712.126
 30
0.000000
  70
    32
  0
VERTEX
  8
┌▓È_1
  5
366
 10
163.436
 20
-712.157
 30
0.000000
  70
    32
  0
VERTEX
  8
┌▓È_1
  5
367
 10
163.555
 20
-712.188
 30
0.000000
  70
    32
  0
VERTEX
  8
┌▓È_1
  5
368
 10
163.675
 20
-712.219
 30
0.000000
  70
    32
  0
VERTEX
  8
┌▓È_1
  5
369
 10
163.794
 20
-712.250
 30
0.000000
  70
    32
  0
VERTEX
  8
┌▓È_1
  5
36A
 10
163.914
 20
-712.281
 30
0.000000
  70
    32
  0
VERTEX
  8
┌▓È_1
  5
36B
 10
164.034
 20
-712.311
 30
0.000000
  70
    32
  0
VERTEX
  8
┌▓È_1
  5
36C
 10
164.154
 20
-712.341
 30
0.000000
  70
    32
  0
VERTEX
  8
┌▓È_1
  5
36D
 10
164.273
 20
-712.372
 30
0.000000
  70
    32
  0
VERTEX
  8
┌▓È_1
  5
36E
 10
164.393
 20
-712.402
 30
0.000000
  70
    32
  0
VERTEX
  8
┌▓È_1
  5
36F
 10
164.513
 20
-712.432
 30
0.000000
  70
    32
  0
VERTEX
  8
┌▓È_1
  5
370
 10
164.633
 20
-712.462
 30
0.000000
  70
    32
  0
VERTEX
  8
┌▓È_1
  5
371
 10
164.754
 20
-712.492
 30
0.000000
  70
    32
  0
VERTEX
  8
┌▓È_1
  5
372
 10
164.874
 20
-712.521
 30
0.000000
  70
    32
  0
VERTEX
  8
┌▓È_1
  5
373
 10
164.994
 20
-712.551
 30
0.000000
  70
    32
  0
VERTEX
  8
┌▓È_1
  5
374
 10
165.114
 20
-712.581
 30
0.000000
  70
    32
  0
VERTEX
  8
┌▓È_1
  5
375
 10
165.235
 20
-712.610
 30
0.000000
  70
    32
  0
VERTEX
  8
┌▓È_1
  5
376
 10
165.355
 20
-712.639
 30
0.000000
  70
    32
  0
VERTEX
  8
┌▓È_1
  5
377
 10
165.476
 20
-712.668
 30
0.000000
  70
    32
  0
VERTEX
  8
┌▓È_1
  5
378
 10
165.596
 20
-712.697
 30
0.000000
  70
    32
  0
VERTEX
  8
┌▓È_1
  5
379
 10
165.717
 20
-712.726
 30
0.000000
  70
    32
  0
VERTEX
  8
┌▓È_1
  5
37A
 10
165.837
 20
-712.755
 30
0.000000
  70
    32
  0
VERTEX
  8
┌▓È_1
  5
37B
 10
165.958
 20
-712.784
 30
0.000000
  70
    32
  0
VERTEX
  8
┌▓È_1
  5
37C
 10
166.079
 20
-712.813
 30
0.000000
  70
    32
  0
VERTEX
  8
┌▓È_1
  5
37D
 10
166.200
 20
-712.841
 30
0.000000
  70
    32
  0
VERTEX
  8
┌▓È_1
  5
37E
 10
166.320
 20
-712.870
 30
0.000000
  70
    32
  0
VERTEX
  8
┌▓È_1
  5
37F
 10
166.441
 20
-712.898
 30
0.000000
  70
    32
  0
VERTEX
  8
┌▓È_1
  5
380
 10
166.562
 20
-712.926
 30
0.000000
  70
    32
  0
VERTEX
  8
┌▓È_1
  5
381
 10
166.683
 20
-712.955
 30
0.000000
  70
    32
  0
VERTEX
  8
┌▓È_1
  5
382
 10
166.804
 20
-712.983
 30
0.000000
  70
    32
  0
VERTEX
  8
┌▓È_1
  5
383
 10
166.925
 20
-713.011
 30
0.000000
  70
    32
  0
VERTEX
  8
┌▓È_1
  5
384
 10
167.047
 20
-713.039
 30
0.000000
  70
    32
  0
VERTEX
  8
┌▓È_1
  5
385
 10
167.168
 20
-713.067
 30
0.000000
  70
    32
  0
VERTEX
  8
┌▓È_1
  5
386
 10
167.289
 20
-713.094
 30
0.000000
  70
    32
  0
VERTEX
  8
┌▓È_1
  5
387
 10
167.410
 20
-713.122
 30
0.000000
  70
    32
  0
VERTEX
  8
┌▓È_1
  5
388
 10
167.532
 20
-713.150
 30
0.000000
  70
    32
  0
VERTEX
  8
┌▓È_1
  5
389
 10
167.653
 20
-713.177
 30
0.000000
  70
    32
  0
VERTEX
  8
┌▓È_1
  5
38A
 10
167.774
 20
-713.205
 30
0.000000
  70
    32
  0
VERTEX
  8
┌▓È_1
  5
38B
 10
167.896
 20
-713.232
 30
0.000000
  70
    32
  0
VERTEX
  8
┌▓È_1
  5
38C
 10
168.017
 20
-713.259
 30
0.000000
  70
    32
  0
VERTEX
  8
┌▓È_1
  5
38D
 10
168.139
 20
-713.287
 30
0.000000
  70
    32
  0
VERTEX
  8
┌▓È_1
  5
38E
 10
168.260
 20
-713.314
 30
0.000000
  70
    32
  0
VERTEX
  8
┌▓È_1
  5
38F
 10
168.382
 20
-713.341
 30
0.000000
  70
    32
  0
VERTEX
  8
┌▓È_1
  5
390
 10
168.504
 20
-713.368
 30
0.000000
  70
    32
  0
VERTEX
  8
┌▓È_1
  5
391
 10
168.625
 20
-713.395
 30
0.000000
  70
    32
  0
VERTEX
  8
┌▓È_1
  5
392
 10
168.747
 20
-713.422
 30
0.000000
  70
    32
  0
VERTEX
  8
┌▓È_1
  5
393
 10
168.869
 20
-713.449
 30
0.000000
  70
    32
  0
VERTEX
  8
┌▓È_1
  5
394
 10
168.991
 20
-713.475
 30
0.000000
  70
    32
  0
VERTEX
  8
┌▓È_1
  5
395
 10
169.112
 20
-713.502
 30
0.000000
  70
    32
  0
VERTEX
  8
┌▓È_1
  5
396
 10
169.234
 20
-713.529
 30
0.000000
  70
    32
  0
VERTEX
  8
┌▓È_1
  5
397
 10
169.356
 20
-713.555
 30
0.000000
  70
    32
  0
VERTEX
  8
┌▓È_1
  5
398
 10
169.478
 20
-713.582
 30
0.000000
  70
    32
  0
VERTEX
  8
┌▓È_1
  5
399
 10
169.600
 20
-713.608
 30
0.000000
  70
    32
  0
VERTEX
  8
┌▓È_1
  5
39A
 10
169.722
 20
-713.635
 30
0.000000
  70
    32
  0
VERTEX
  8
┌▓È_1
  5
39B
 10
169.844
 20
-713.661
 30
0.000000
  70
    32
  0
VERTEX
  8
┌▓È_1
  5
39C
 10
169.966
 20
-713.687
 30
0.000000
  70
    32
  0
VERTEX
  8
┌▓È_1
  5
39D
 10
170.088
 20
-713.714
 30
0.000000
  70
    32
  0
VERTEX
  8
┌▓È_1
  5
39E
 10
170.210
 20
-713.740
 30
0.000000
  70
    32
  0
VERTEX
  8
┌▓È_1
  5
39F
 10
170.332
 20
-713.766
 30
0.000000
  70
    32
  0
VERTEX
  8
┌▓È_1
  5
3A0
 10
170.454
 20
-713.792
 30
0.000000
  70
    32
  0
VERTEX
  8
┌▓È_1
  5
3A1
 10
170.576
 20
-713.818
 30
0.000000
  70
    32
  0
VERTEX
  8
┌▓È_1
  5
3A2
 10
170.699
 20
-713.844
 30
0.000000
  70
    32
  0
VERTEX
  8
┌▓È_1
  5
3A3
 10
170.821
 20
-713.870
 30
0.000000
  70
    32
  0
VERTEX
  8
┌▓È_1
  5
3A4
 10
170.943
 20
-713.896
 30
0.000000
  70
    32
  0
VERTEX
  8
┌▓È_1
  5
3A5
 10
171.065
 20
-713.922
 30
0.000000
  70
    32
  0
VERTEX
  8
┌▓È_1
  5
3A6
 10
171.187
 20
-713.948
 30
0.000000
  70
    32
  0
VERTEX
  8
┌▓È_1
  5
3A7
 10
171.310
 20
-713.974
 30
0.000000
  70
    32
  0
VERTEX
  8
┌▓È_1
  5
3A8
 10
171.432
 20
-714.000
 30
0.000000
  70
    32
  0
VERTEX
  8
┌▓È_1
  5
3A9
 10
171.554
 20
-714.026
 30
0.000000
  70
    32
  0
VERTEX
  8
┌▓È_1
  5
3AA
 10
171.677
 20
-714.051
 30
0.000000
  70
    32
  0
VERTEX
  8
┌▓È_1
  5
3AB
 10
171.799
 20
-714.077
 30
0.000000
  70
    32
  0
VERTEX
  8
┌▓È_1
  5
3AC
 10
171.921
 20
-714.103
 30
0.000000
  70
    32
  0
VERTEX
  8
┌▓È_1
  5
3AD
 10
172.044
 20
-714.129
 30
0.000000
  70
    32
  0
VERTEX
  8
┌▓È_1
  5
3AE
 10
172.166
 20
-714.154
 30
0.000000
  70
    32
  0
VERTEX
  8
┌▓È_1
  5
3AF
 10
172.288
 20
-714.180
 30
0.000000
  70
    32
  0
VERTEX
  8
┌▓È_1
  5
3B0
 10
172.411
 20
-714.206
 30
0.000000
  70
    32
  0
VERTEX
  8
┌▓È_1
  5
3B1
 10
172.533
 20
-714.231
 30
0.000000
  70
    32
  0
VERTEX
  8
┌▓È_1
  5
3B2
 10
172.656
 20
-714.257
 30
0.000000
  70
    32
  0
VERTEX
  8
┌▓È_1
  5
3B3
 10
172.778
 20
-714.282
 30
0.000000
  70
    32
  0
VERTEX
  8
┌▓È_1
  5
3B4
 10
172.901
 20
-714.308
 30
0.000000
  70
    32
  0
VERTEX
  8
┌▓È_1
  5
3B5
 10
173.023
 20
-714.333
 30
0.000000
  70
    32
  0
VERTEX
  8
┌▓È_1
  5
3B6
 10
173.146
 20
-714.359
 30
0.000000
  70
    32
  0
VERTEX
  8
┌▓È_1
  5
3B7
 10
173.268
 20
-714.384
 30
0.000000
  70
    32
  0
VERTEX
  8
┌▓È_1
  5
3B8
 10
173.390
 20
-714.410
 30
0.000000
  70
    32
  0
VERTEX
  8
┌▓È_1
  5
3B9
 10
173.513
 20
-714.435
 30
0.000000
  70
    32
  0
VERTEX
  8
┌▓È_1
  5
3BA
 10
173.635
 20
-714.461
 30
0.000000
  70
    32
  0
VERTEX
  8
┌▓È_1
  5
3BB
 10
173.758
 20
-714.486
 30
0.000000
  70
    32
  0
VERTEX
  8
┌▓È_1
  5
3BC
 10
173.880
 20
-714.512
 30
0.000000
  70
    32
  0
VERTEX
  8
┌▓È_1
  5
3BD
 10
174.003
 20
-714.537
 30
0.000000
  70
    32
  0
VERTEX
  8
┌▓È_1
  5
3BE
 10
174.125
 20
-714.563
 30
0.000000
  70
    32
  0
SEQEND
  8
┌▓È_1
  5
3BF
  0
LINE
  5
27F
  8
┌▓È_1
 62
     5
 10
-184.21878720239999
 20
269.3997570038
 30
0.0
 11
-472.46878720239988
 21
269.3997570038
 31
0.0
  0
LINE
  5
280
  8
┌▓È_1
 62
     5
 10
-182.46878720239999
 20
333.89578273450002
 30
0.0
 11
-162.46878720239999
 21
333.89578273450002
 31
0.0
  0
LINE
  5
281
  8
┌▓È_1
 62
     5
 10
-160.71878720239999
 20
329.8997570038
 30
0.0
 11
-160.71878720239999
 21
221.0304181512
 31
0.0
  0
LINE
  5
282
  8
┌▓È_1
 62
     5
 10
-162.46878720239999
 20
333.89578273450002
 30
0.0
 11
-162.46878720239999
 21
96.895782734500017
 31
0.0
  0
LINE
  5
283
  8
┌▓È_1
 62
     5
 10
-762.46878720240011
 20
-311.61482632949998
 30
0.0
 11
-762.46878720240011
 21
-11.6148263295
 31
0.0
  0
LINE
  5
284
  8
┌▓È_1
 62
     5
 10
-762.46878720240011
 20
-11.6148263295
 30
0.0
 11
-782.46878720240011
 21
-11.6148263295
 31
0.0
  0
LINE
  5
285
  8
┌▓È_1
 62
     5
 10
-162.46878720239999
 20
298.89578273450002
 30
0.0
 11
-182.46878720239999
 21
298.89578273450002
 31
0.0
  0
LINE
  5
286
  8
┌▓È_1
 62
     5
 10
-180.71878720239999
 20
-312.1202195483001
 30
0.0
 11
-180.71878720239999
 21
-311.61482632949998
 31
0.0
  0
LINE
  5
287
  8
┌▓È_1
 62
     5
 10
-182.46878720239999
 20
-311.61482632949998
 30
0.0
 11
-182.46878720239999
 21
-11.6148263295
 31
0.0
  0
LINE
  5
288
  8
┌▓È_1
 62
     5
 10
-162.46878720239999
 20
-311.61482632949998
 30
0.0
 11
-182.46878720239999
 21
-311.61482632949998
 31
0.0
  0
LINE
  5
289
  8
┌▓È_1
 62
     5
 10
-783.71878720240011
 20
-312.1202195483001
 30
0.0
 11
-764.21878720240011
 21
-312.1202195483001
 31
0.0
  0
ARC
  5
28A
  8
┌▓È_1
 62
     5
 10
-783.71878720240011
 20
-311.12021954829999
 30
0.0
 40
0.4
 50
180.0
 51
270.0
  0
INSERT
  5
28C
  8
Éíû@É³
 62
     5
  2
BALLON0
 10
0.0
 20
0.0
 30
0.0
  0
INSERT
  5
296
  8
Éíû@É³
 62
     5
  2
BALLON1
 10
0.0
 20
0.0
 30
0.0
  0
LINE
  5
29F
  8
┌▓È_1
 62
     5
 10
-162.46878720239999
 20
297.30999629690001
 30
0.0
 11
-182.46878720239999
 21
297.30999629690001
 31
0.0
  0
ARC
  5
2A0
  8
┌▓È_1
 62
     5
 10
-182.1187872024
 20
-297.81482632950002
 30
0.0
 40
0.8
 50
115.9444797724
 51
180.0
  0
ARC
  5
2A1
  8
┌▓È_1
 62
     5
 10
-162.81878720239999
 20
-297.81482632950002
 30
0.0
 40
0.8
 50
0.0
 51
64.055520227599999
  0
LINE
  5
2A2
  8
┌▓È_1
 62
     5
 10
-760.81878720240002
 20
-310.81482632950002
 30
0.0
 11
-762.01878720240006
 21
-310.81482632950002
 31
0.0
  0
LINE
  5
2A3
  8
┌▓È_1
 62
     5
 10
-760.81878720240002
 20
-297.81482632950002
 30
0.0
 11
-760.81878720240002
 21
-310.81482632950002
 31
0.0
  0
LINE
  5
2A4
  8
┌▓È_1
 62
     5
 10
-762.01878720240006
 20
-310.81482632950002
 30
0.0
 11
-762.01878720240006
 21
-297.81482632950002
 31
0.0
  0
LINE
  5
2A5
  8
┌▓È_1
 62
     5
 10
-782.46878720240011
 20
-11.6148263295
 30
0.0
 11
-782.46878720240011
 21
-311.61482632949998
 31
0.0
  0
POLYLINE
  8
┌▓È_1
  5
3C0
  66
     1
 10
0.000000
 20
0.000000
 30
0.000000
  70
     8
  0
VERTEX
  8
┌▓È_1
  5
3C1
 10
135.270
 20
-695.758
 30
0.000000
  70
    32
  0
VERTEX
  8
┌▓È_1
  5
3C2
 10
135.348
 20
-695.830
 30
0.000000
  70
    32
  0
VERTEX
  8
┌▓È_1
  5
3C3
 10
135.426
 20
-695.901
 30
0.000000
  70
    32
  0
VERTEX
  8
┌▓È_1
  5
3C4
 10
135.504
 20
-695.973
 30
0.000000
  70
    32
  0
VERTEX
  8
┌▓È_1
  5
3C5
 10
135.581
 20
-696.045
 30
0.000000
  70
    32
  0
VERTEX
  8
┌▓È_1
  5
3C6
 10
135.659
 20
-696.116
 30
0.000000
  70
    32
  0
VERTEX
  8
┌▓È_1
  5
3C7
 10
135.737
 20
-696.188
 30
0.000000
  70
    32
  0
VERTEX
  8
┌▓È_1
  5
3C8
 10
135.815
 20
-696.260
 30
0.000000
  70
    32
  0
VERTEX
  8
┌▓È_1
  5
3C9
 10
135.893
 20
-696.331
 30
0.000000
  70
    32
  0
VERTEX
  8
┌▓È_1
  5
3CA
 10
135.970
 20
-696.403
 30
0.000000
  70
    32
  0
VERTEX
  8
┌▓È_1
  5
3CB
 10
136.048
 20
-696.474
 30
0.000000
  70
    32
  0
VERTEX
  8
┌▓È_1
  5
3CC
 10
136.126
 20
-696.546
 30
0.000000
  70
    32
  0
VERTEX
  8
┌▓È_1
  5
3CD
 10
136.204
 20
-696.618
 30
0.000000
  70
    32
  0
VERTEX
  8
┌▓È_1
  5
3CE
 10
136.282
 20
-696.689
 30
0.000000
  70
    32
  0
VERTEX
  8
┌▓È_1
  5
3CF
 10
136.359
 20
-696.761
 30
0.000000
  70
    32
  0
VERTEX
  8
┌▓È_1
  5
3D0
 10
136.437
 20
-696.832
 30
0.000000
  70
    32
  0
VERTEX
  8
┌▓È_1
  5
3D1
 10
136.515
 20
-696.904
 30
0.000000
  70
    32
  0
VERTEX
  8
┌▓È_1
  5
3D2
 10
136.593
 20
-696.975
 30
0.000000
  70
    32
  0
VERTEX
  8
┌▓È_1
  5
3D3
 10
136.671
 20
-697.047
 30
0.000000
  70
    32
  0
VERTEX
  8
┌▓È_1
  5
3D4
 10
136.749
 20
-697.118
 30
0.000000
  70
    32
  0
VERTEX
  8
┌▓È_1
  5
3D5
 10
136.827
 20
-697.189
 30
0.000000
  70
    32
  0
VERTEX
  8
┌▓È_1
  5
3D6
 10
136.905
 20
-697.261
 30
0.000000
  70
    32
  0
VERTEX
  8
┌▓È_1
  5
3D7
 10
136.983
 20
-697.332
 30
0.000000
  70
    32
  0
VERTEX
  8
┌▓È_1
  5
3D8
 10
137.061
 20
-697.403
 30
0.000000
  70
    32
  0
VERTEX
  8
┌▓È_1
  5
3D9
 10
137.139
 20
-697.475
 30
0.000000
  70
    32
  0
VERTEX
  8
┌▓È_1
  5
3DA
 10
137.217
 20
-697.546
 30
0.000000
  70
    32
  0
VERTEX
  8
┌▓È_1
  5
3DB
 10
137.295
 20
-697.617
 30
0.000000
  70
    32
  0
VERTEX
  8
┌▓È_1
  5
3DC
 10
137.373
 20
-697.688
 30
0.000000
  70
    32
  0
VERTEX
  8
┌▓È_1
  5
3DD
 10
137.451
 20
-697.759
 30
0.000000
  70
    32
  0
VERTEX
  8
┌▓È_1
  5
3DE
 10
137.529
 20
-697.830
 30
0.000000
  70
    32
  0
VERTEX
  8
┌▓È_1
  5
3DF
 10
137.607
 20
-697.901
 30
0.000000
  70
    32
  0
VERTEX
  8
┌▓È_1
  5
3E0
 10
137.685
 20
-697.972
 30
0.000000
  70
    32
  0
VERTEX
  8
┌▓È_1
  5
3E1
 10
137.763
 20
-698.043
 30
0.000000
  70
    32
  0
VERTEX
  8
┌▓È_1
  5
3E2
 10
137.841
 20
-698.114
 30
0.000000
  70
    32
  0
VERTEX
  8
┌▓È_1
  5
3E3
 10
137.920
 20
-698.185
 30
0.000000
  70
    32
  0
VERTEX
  8
┌▓È_1
  5
3E4
 10
137.998
 20
-698.256
 30
0.000000
  70
    32
  0
VERTEX
  8
┌▓È_1
  5
3E5
 10
138.076
 20
-698.327
 30
0.000000
  70
    32
  0
VERTEX
  8
┌▓È_1
  5
3E6
 10
138.154
 20
-698.397
 30
0.000000
  70
    32
  0
VERTEX
  8
┌▓È_1
  5
3E7
 10
138.233
 20
-698.468
 30
0.000000
  70
    32
  0
VERTEX
  8
┌▓È_1
  5
3E8
 10
138.311
 20
-698.539
 30
0.000000
  70
    32
  0
VERTEX
  8
┌▓È_1
  5
3E9
 10
138.389
 20
-698.609
 30
0.000000
  70
    32
  0
VERTEX
  8
┌▓È_1
  5
3EA
 10
138.468
 20
-698.679
 30
0.000000
  70
    32
  0
VERTEX
  8
┌▓È_1
  5
3EB
 10
138.546
 20
-698.750
 30
0.000000
  70
    32
  0
VERTEX
  8
┌▓È_1
  5
3EC
 10
138.625
 20
-698.820
 30
0.000000
  70
    32
  0
VERTEX
  8
┌▓È_1
  5
3ED
 10
138.703
 20
-698.890
 30
0.000000
  70
    32
  0
VERTEX
  8
┌▓È_1
  5
3EE
 10
138.782
 20
-698.961
 30
0.000000
  70
    32
  0
VERTEX
  8
┌▓È_1
  5
3EF
 10
138.860
 20
-699.031
 30
0.000000
  70
    32
  0
VERTEX
  8
┌▓È_1
  5
3F0
 10
138.939
 20
-699.101
 30
0.000000
  70
    32
  0
VERTEX
  8
┌▓È_1
  5
3F1
 10
139.018
 20
-699.171
 30
0.000000
  70
    32
  0
VERTEX
  8
┌▓È_1
  5
3F2
 10
139.096
 20
-699.241
 30
0.000000
  70
    32
  0
VERTEX
  8
┌▓È_1
  5
3F3
 10
139.175
 20
-699.311
 30
0.000000
  70
    32
  0
VERTEX
  8
┌▓È_1
  5
3F4
 10
139.254
 20
-699.380
 30
0.000000
  70
    32
  0
VERTEX
  8
┌▓È_1
  5
3F5
 10
139.333
 20
-699.450
 30
0.000000
  70
    32
  0
VERTEX
  8
┌▓È_1
  5
3F6
 10
139.412
 20
-699.520
 30
0.000000
  70
    32
  0
VERTEX
  8
┌▓È_1
  5
3F7
 10
139.491
 20
-699.589
 30
0.000000
  70
    32
  0
VERTEX
  8
┌▓È_1
  5
3F8
 10
139.570
 20
-699.659
 30
0.000000
  70
    32
  0
VERTEX
  8
┌▓È_1
  5
3F9
 10
139.649
 20
-699.728
 30
0.000000
  70
    32
  0
VERTEX
  8
┌▓È_1
  5
3FA
 10
139.728
 20
-699.797
 30
0.000000
  70
    32
  0
VERTEX
  8
┌▓È_1
  5
3FB
 10
139.807
 20
-699.867
 30
0.000000
  70
    32
  0
VERTEX
  8
┌▓È_1
  5
3FC
 10
139.886
 20
-699.936
 30
0.000000
  70
    32
  0
VERTEX
  8
┌▓È_1
  5
3FD
 10
139.965
 20
-700.005
 30
0.000000
  70
    32
  0
VERTEX
  8
┌▓È_1
  5
3FE
 10
140.044
 20
-700.074
 30
0.000000
  70
    32
  0
VERTEX
  8
┌▓È_1
  5
3FF
 10
140.124
 20
-700.143
 30
0.000000
  70
    32
  0
VERTEX
  8
┌▓È_1
  5
400
 10
140.203
 20
-700.211
 30
0.000000
  70
    32
  0
VERTEX
  8
┌▓È_1
  5
401
 10
140.282
 20
-700.280
 30
0.000000
  70
    32
  0
VERTEX
  8
┌▓È_1
  5
402
 10
140.362
 20
-700.349
 30
0.000000
  70
    32
  0
VERTEX
  8
┌▓È_1
  5
403
 10
140.441
 20
-700.417
 30
0.000000
  70
    32
  0
VERTEX
  8
┌▓È_1
  5
404
 10
140.521
 20
-700.485
 30
0.000000
  70
    32
  0
VERTEX
  8
┌▓È_1
  5
405
 10
140.600
 20
-700.554
 30
0.000000
  70
    32
  0
VERTEX
  8
┌▓È_1
  5
406
 10
140.680
 20
-700.622
 30
0.000000
  70
    32
  0
VERTEX
  8
┌▓È_1
  5
407
 10
140.760
 20
-700.690
 30
0.000000
  70
    32
  0
VERTEX
  8
┌▓È_1
  5
408
 10
140.839
 20
-700.758
 30
0.000000
  70
    32
  0
VERTEX
  8
┌▓È_1
  5
409
 10
140.919
 20
-700.826
 30
0.000000
  70
    32
  0
VERTEX
  8
┌▓È_1
  5
40A
 10
140.999
 20
-700.894
 30
0.000000
  70
    32
  0
VERTEX
  8
┌▓È_1
  5
40B
 10
141.079
 20
-700.961
 30
0.000000
  70
    32
  0
VERTEX
  8
┌▓È_1
  5
40C
 10
141.159
 20
-701.029
 30
0.000000
  70
    32
  0
VERTEX
  8
┌▓È_1
  5
40D
 10
141.239
 20
-701.096
 30
0.000000
  70
    32
  0
VERTEX
  8
┌▓È_1
  5
40E
 10
141.319
 20
-701.163
 30
0.000000
  70
    32
  0
VERTEX
  8
┌▓È_1
  5
40F
 10
141.399
 20
-701.231
 30
0.000000
  70
    32
  0
VERTEX
  8
┌▓È_1
  5
410
 10
141.480
 20
-701.298
 30
0.000000
  70
    32
  0
VERTEX
  8
┌▓È_1
  5
411
 10
141.560
 20
-701.365
 30
0.000000
  70
    32
  0
VERTEX
  8
┌▓È_1
  5
412
 10
141.640
 20
-701.432
 30
0.000000
  70
    32
  0
VERTEX
  8
┌▓È_1
  5
413
 10
141.721
 20
-701.498
 30
0.000000
  70
    32
  0
VERTEX
  8
┌▓È_1
  5
414
 10
141.801
 20
-701.565
 30
0.000000
  70
    32
  0
VERTEX
  8
┌▓È_1
  5
415
 10
141.882
 20
-701.631
 30
0.000000
  70
    32
  0
VERTEX
  8
┌▓È_1
  5
416
 10
141.963
 20
-701.698
 30
0.000000
  70
    32
  0
VERTEX
  8
┌▓È_1
  5
417
 10
142.043
 20
-701.764
 30
0.000000
  70
    32
  0
VERTEX
  8
┌▓È_1
  5
418
 10
142.124
 20
-701.830
 30
0.000000
  70
    32
  0
VERTEX
  8
┌▓È_1
  5
419
 10
142.205
 20
-701.896
 30
0.000000
  70
    32
  0
VERTEX
  8
┌▓È_1
  5
41A
 10
142.286
 20
-701.962
 30
0.000000
  70
    32
  0
VERTEX
  8
┌▓È_1
  5
41B
 10
142.367
 20
-702.028
 30
0.000000
  70
    32
  0
VERTEX
  8
┌▓È_1
  5
41C
 10
142.448
 20
-702.093
 30
0.000000
  70
    32
  0
VERTEX
  8
┌▓È_1
  5
41D
 10
142.529
 20
-702.159
 30
0.000000
  70
    32
  0
VERTEX
  8
┌▓È_1
  5
41E
 10
142.610
 20
-702.224
 30
0.000000
  70
    32
  0
VERTEX
  8
┌▓È_1
  5
41F
 10
142.691
 20
-702.289
 30
0.000000
  70
    32
  0
VERTEX
  8
┌▓È_1
  5
420
 10
142.773
 20
-702.354
 30
0.000000
  70
    32
  0
VERTEX
  8
┌▓È_1
  5
421
 10
142.854
 20
-702.419
 30
0.000000
  70
    32
  0
VERTEX
  8
┌▓È_1
  5
422
 10
142.936
 20
-702.484
 30
0.000000
  70
    32
  0
VERTEX
  8
┌▓È_1
  5
423
 10
143.017
 20
-702.548
 30
0.000000
  70
    32
  0
VERTEX
  8
┌▓È_1
  5
424
 10
143.099
 20
-702.613
 30
0.000000
  70
    32
  0
VERTEX
  8
┌▓È_1
  5
425
 10
143.181
 20
-702.677
 30
0.000000
  70
    32
  0
VERTEX
  8
┌▓È_1
  5
426
 10
143.263
 20
-702.741
 30
0.000000
  70
    32
  0
VERTEX
  8
┌▓È_1
  5
427
 10
143.345
 20
-702.805
 30
0.000000
  70
    32
  0
VERTEX
  8
┌▓È_1
  5
428
 10
143.427
 20
-702.869
 30
0.000000
  70
    32
  0
VERTEX
  8
┌▓È_1
  5
429
 10
143.509
 20
-702.933
 30
0.000000
  70
    32
  0
VERTEX
  8
┌▓È_1
  5
42A
 10
143.591
 20
-702.996
 30
0.000000
  70
    32
  0
VERTEX
  8
┌▓È_1
  5
42B
 10
143.673
 20
-703.059
 30
0.000000
  70
    32
  0
VERTEX
  8
┌▓È_1
  5
42C
 10
143.755
 20
-703.123
 30
0.000000
  70
    32
  0
VERTEX
  8
┌▓È_1
  5
42D
 10
143.838
 20
-703.186
 30
0.000000
  70
    32
  0
VERTEX
  8
┌▓È_1
  5
42E
 10
143.920
 20
-703.249
 30
0.000000
  70
    32
  0
VERTEX
  8
┌▓È_1
  5
42F
 10
144.003
 20
-703.311
 30
0.000000
  70
    32
  0
VERTEX
  8
┌▓È_1
  5
430
 10
144.086
 20
-703.374
 30
0.000000
  70
    32
  0
VERTEX
  8
┌▓È_1
  5
431
 10
144.168
 20
-703.436
 30
0.000000
  70
    32
  0
VERTEX
  8
┌▓È_1
  5
432
 10
144.251
 20
-703.499
 30
0.000000
  70
    32
  0
VERTEX
  8
┌▓È_1
  5
433
 10
144.334
 20
-703.561
 30
0.000000
  70
    32
  0
VERTEX
  8
┌▓È_1
  5
434
 10
144.417
 20
-703.623
 30
0.000000
  70
    32
  0
VERTEX
  8
┌▓È_1
  5
435
 10
144.500
 20
-703.684
 30
0.000000
  70
    32
  0
VERTEX
  8
┌▓È_1
  5
436
 10
144.584
 20
-703.746
 30
0.000000
  70
    32
  0
VERTEX
  8
┌▓È_1
  5
437
 10
144.667
 20
-703.807
 30
0.000000
  70
    32
  0
VERTEX
  8
┌▓È_1
  5
438
 10
144.750
 20
-703.868
 30
0.000000
  70
    32
  0
VERTEX
  8
┌▓È_1
  5
439
 10
144.834
 20
-703.929
 30
0.000000
  70
    32
  0
VERTEX
  8
┌▓È_1
  5
43A
 10
144.918
 20
-703.990
 30
0.000000
  70
    32
  0
VERTEX
  8
┌▓È_1
  5
43B
 10
145.001
 20
-704.051
 30
0.000000
  70
    32
  0
VERTEX
  8
┌▓È_1
  5
43C
 10
145.085
 20
-704.111
 30
0.000000
  70
    32
  0
VERTEX
  8
┌▓È_1
  5
43D
 10
145.169
 20
-704.172
 30
0.000000
  70
    32
  0
VERTEX
  8
┌▓È_1
  5
43E
 10
145.253
 20
-704.232
 30
0.000000
  70
    32
  0
VERTEX
  8
┌▓È_1
  5
43F
 10
145.337
 20
-704.292
 30
0.000000
  70
    32
  0
VERTEX
  8
┌▓È_1
  5
440
 10
145.421
 20
-704.352
 30
0.000000
  70
    32
  0
VERTEX
  8
┌▓È_1
  5
441
 10
145.506
 20
-704.411
 30
0.000000
  70
    32
  0
VERTEX
  8
┌▓È_1
  5
442
 10
145.590
 20
-704.470
 30
0.000000
  70
    32
  0
VERTEX
  8
┌▓È_1
  5
443
 10
145.675
 20
-704.530
 30
0.000000
  70
    32
  0
VERTEX
  8
┌▓È_1
  5
444
 10
145.759
 20
-704.589
 30
0.000000
  70
    32
  0
VERTEX
  8
┌▓È_1
  5
445
 10
145.844
 20
-704.647
 30
0.000000
  70
    32
  0
VERTEX
  8
┌▓È_1
  5
446
 10
145.929
 20
-704.706
 30
0.000000
  70
    32
  0
VERTEX
  8
┌▓È_1
  5
447
 10
146.014
 20
-704.764
 30
0.000000
  70
    32
  0
VERTEX
  8
┌▓È_1
  5
448
 10
146.099
 20
-704.822
 30
0.000000
  70
    32
  0
VERTEX
  8
┌▓È_1
  5
449
 10
146.184
 20
-704.880
 30
0.000000
  70
    32
  0
VERTEX
  8
┌▓È_1
  5
44A
 10
146.269
 20
-704.938
 30
0.000000
  70
    32
  0
VERTEX
  8
┌▓È_1
  5
44B
 10
146.355
 20
-704.996
 30
0.000000
  70
    32
  0
VERTEX
  8
┌▓È_1
  5
44C
 10
146.440
 20
-705.053
 30
0.000000
  70
    32
  0
VERTEX
  8
┌▓È_1
  5
44D
 10
146.526
 20
-705.110
 30
0.000000
  70
    32
  0
VERTEX
  8
┌▓È_1
  5
44E
 10
146.611
 20
-705.167
 30
0.000000
  70
    32
  0
VERTEX
  8
┌▓È_1
  5
44F
 10
146.697
 20
-705.224
 30
0.000000
  70
    32
  0
VERTEX
  8
┌▓È_1
  5
450
 10
146.783
 20
-705.281
 30
0.000000
  70
    32
  0
VERTEX
  8
┌▓È_1
  5
451
 10
146.869
 20
-705.337
 30
0.000000
  70
    32
  0
VERTEX
  8
┌▓È_1
  5
452
 10
146.955
 20
-705.393
 30
0.000000
  70
    32
  0
VERTEX
  8
┌▓È_1
  5
453
 10
147.042
 20
-705.449
 30
0.000000
  70
    32
  0
VERTEX
  8
┌▓È_1
  5
454
 10
147.128
 20
-705.505
 30
0.000000
  70
    32
  0
VERTEX
  8
┌▓È_1
  5
455
 10
147.215
 20
-705.560
 30
0.000000
  70
    32
  0
VERTEX
  8
┌▓È_1
  5
456
 10
147.301
 20
-705.615
 30
0.000000
  70
    32
  0
VERTEX
  8
┌▓È_1
  5
457
 10
147.388
 20
-705.670
 30
0.000000
  70
    32
  0
VERTEX
  8
┌▓È_1
  5
458
 10
147.475
 20
-705.725
 30
0.000000
  70
    32
  0
VERTEX
  8
┌▓È_1
  5
459
 10
147.562
 20
-705.780
 30
0.000000
  70
    32
  0
VERTEX
  8
┌▓È_1
  5
45A
 10
147.649
 20
-705.834
 30
0.000000
  70
    32
  0
VERTEX
  8
┌▓È_1
  5
45B
 10
147.736
 20
-705.888
 30
0.000000
  70
    32
  0
VERTEX
  8
┌▓È_1
  5
45C
 10
147.824
 20
-705.942
 30
0.000000
  70
    32
  0
VERTEX
  8
┌▓È_1
  5
45D
 10
147.911
 20
-705.996
 30
0.000000
  70
    32
  0
VERTEX
  8
┌▓È_1
  5
45E
 10
147.999
 20
-706.049
 30
0.000000
  70
    32
  0
VERTEX
  8
┌▓È_1
  5
45F
 10
148.087
 20
-706.102
 30
0.000000
  70
    32
  0
VERTEX
  8
┌▓È_1
  5
460
 10
148.175
 20
-706.155
 30
0.000000
  70
    32
  0
SEQEND
  8
┌▓È_1
  5
461
  0
POLYLINE
  8
┌▓È_1
  5
462
  66
     1
 10
0.000000
 20
0.000000
 30
0.000000
  70
     8
  0
VERTEX
  8
┌▓È_1
  5
463
 10
164.129
 20
-706.030
 30
0.000000
  70
    32
  0
VERTEX
  8
┌▓È_1
  5
464
 10
164.205
 20
-706.051
 30
0.000000
  70
    32
  0
VERTEX
  8
┌▓È_1
  5
465
 10
164.280
 20
-706.072
 30
0.000000
  70
    32
  0
VERTEX
  8
┌▓È_1
  5
466
 10
164.356
 20
-706.094
 30
0.000000
  70
    32
  0
VERTEX
  8
┌▓È_1
  5
467
 10
164.432
 20
-706.115
 30
0.000000
  70
    32
  0
VERTEX
  8
┌▓È_1
  5
468
 10
164.508
 20
-706.136
 30
0.000000
  70
    32
  0
VERTEX
  8
┌▓È_1
  5
469
 10
164.583
 20
-706.156
 30
0.000000
  70
    32
  0
VERTEX
  8
┌▓È_1
  5
46A
 10
164.659
 20
-706.177
 30
0.000000
  70
    32
  0
VERTEX
  8
┌▓È_1
  5
46B
 10
164.735
 20
-706.198
 30
0.000000
  70
    32
  0
VERTEX
  8
┌▓È_1
  5
46C
 10
164.811
 20
-706.218
 30
0.000000
  70
    32
  0
VERTEX
  8
┌▓È_1
  5
46D
 10
164.888
 20
-706.238
 30
0.000000
  70
    32
  0
VERTEX
  8
┌▓È_1
  5
46E
 10
164.964
 20
-706.258
 30
0.000000
  70
    32
  0
VERTEX
  8
┌▓È_1
  5
46F
 10
165.040
 20
-706.279
 30
0.000000
  70
    32
  0
VERTEX
  8
┌▓È_1
  5
470
 10
165.116
 20
-706.299
 30
0.000000
  70
    32
  0
VERTEX
  8
┌▓È_1
  5
471
 10
165.193
 20
-706.318
 30
0.000000
  70
    32
  0
VERTEX
  8
┌▓È_1
  5
472
 10
165.269
 20
-706.338
 30
0.000000
  70
    32
  0
VERTEX
  8
┌▓È_1
  5
473
 10
165.346
 20
-706.358
 30
0.000000
  70
    32
  0
VERTEX
  8
┌▓È_1
  5
474
 10
165.423
 20
-706.377
 30
0.000000
  70
    32
  0
VERTEX
  8
┌▓È_1
  5
475
 10
165.499
 20
-706.397
 30
0.000000
  70
    32
  0
VERTEX
  8
┌▓È_1
  5
476
 10
165.576
 20
-706.416
 30
0.000000
  70
    32
  0
VERTEX
  8
┌▓È_1
  5
477
 10
165.653
 20
-706.435
 30
0.000000
  70
    32
  0
VERTEX
  8
┌▓È_1
  5
478
 10
165.730
 20
-706.454
 30
0.000000
  70
    32
  0
VERTEX
  8
┌▓È_1
  5
479
 10
165.807
 20
-706.473
 30
0.000000
  70
    32
  0
VERTEX
  8
┌▓È_1
  5
47A
 10
165.884
 20
-706.492
 30
0.000000
  70
    32
  0
VERTEX
  8
┌▓È_1
  5
47B
 10
165.961
 20
-706.511
 30
0.000000
  70
    32
  0
VERTEX
  8
┌▓È_1
  5
47C
 10
166.038
 20
-706.530
 30
0.000000
  70
    32
  0
VERTEX
  8
┌▓È_1
  5
47D
 10
166.115
 20
-706.548
 30
0.000000
  70
    32
  0
VERTEX
  8
┌▓È_1
  5
47E
 10
166.192
 20
-706.567
 30
0.000000
  70
    32
  0
VERTEX
  8
┌▓È_1
  5
47F
 10
166.270
 20
-706.585
 30
0.000000
  70
    32
  0
VERTEX
  8
┌▓È_1
  5
480
 10
166.347
 20
-706.604
 30
0.000000
  70
    32
  0
VERTEX
  8
┌▓È_1
  5
481
 10
166.425
 20
-706.622
 30
0.000000
  70
    32
  0
VERTEX
  8
┌▓È_1
  5
482
 10
166.502
 20
-706.640
 30
0.000000
  70
    32
  0
VERTEX
  8
┌▓È_1
  5
483
 10
166.580
 20
-706.658
 30
0.000000
  70
    32
  0
VERTEX
  8
┌▓È_1
  5
484
 10
166.657
 20
-706.676
 30
0.000000
  70
    32
  0
VERTEX
  8
┌▓È_1
  5
485
 10
166.735
 20
-706.694
 30
0.000000
  70
    32
  0
VERTEX
  8
┌▓È_1
  5
486
 10
166.813
 20
-706.712
 30
0.000000
  70
    32
  0
VERTEX
  8
┌▓È_1
  5
487
 10
166.891
 20
-706.729
 30
0.000000
  70
    32
  0
VERTEX
  8
┌▓È_1
  5
488
 10
166.968
 20
-706.747
 30
0.000000
  70
    32
  0
VERTEX
  8
┌▓È_1
  5
489
 10
167.046
 20
-706.764
 30
0.000000
  70
    32
  0
VERTEX
  8
┌▓È_1
  5
48A
 10
167.124
 20
-706.782
 30
0.000000
  70
    32
  0
VERTEX
  8
┌▓È_1
  5
48B
 10
167.202
 20
-706.799
 30
0.000000
  70
    32
  0
VERTEX
  8
┌▓È_1
  5
48C
 10
167.280
 20
-706.816
 30
0.000000
  70
    32
  0
VERTEX
  8
┌▓È_1
  5
48D
 10
167.358
 20
-706.833
 30
0.000000
  70
    32
  0
VERTEX
  8
┌▓È_1
  5
48E
 10
167.437
 20
-706.850
 30
0.000000
  70
    32
  0
VERTEX
  8
┌▓È_1
  5
48F
 10
167.515
 20
-706.867
 30
0.000000
  70
    32
  0
VERTEX
  8
┌▓È_1
  5
490
 10
167.593
 20
-706.884
 30
0.000000
  70
    32
  0
VERTEX
  8
┌▓È_1
  5
491
 10
167.671
 20
-706.901
 30
0.000000
  70
    32
  0
VERTEX
  8
┌▓È_1
  5
492
 10
167.750
 20
-706.918
 30
0.000000
  70
    32
  0
VERTEX
  8
┌▓È_1
  5
493
 10
167.828
 20
-706.935
 30
0.000000
  70
    32
  0
VERTEX
  8
┌▓È_1
  5
494
 10
167.907
 20
-706.951
 30
0.000000
  70
    32
  0
VERTEX
  8
┌▓È_1
  5
495
 10
167.985
 20
-706.968
 30
0.000000
  70
    32
  0
VERTEX
  8
┌▓È_1
  5
496
 10
168.064
 20
-706.984
 30
0.000000
  70
    32
  0
VERTEX
  8
┌▓È_1
  5
497
 10
168.142
 20
-707.000
 30
0.000000
  70
    32
  0
VERTEX
  8
┌▓È_1
  5
498
 10
168.221
 20
-707.017
 30
0.000000
  70
    32
  0
VERTEX
  8
┌▓È_1
  5
499
 10
168.300
 20
-707.033
 30
0.000000
  70
    32
  0
VERTEX
  8
┌▓È_1
  5
49A
 10
168.379
 20
-707.049
 30
0.000000
  70
    32
  0
VERTEX
  8
┌▓È_1
  5
49B
 10
168.457
 20
-707.065
 30
0.000000
  70
    32
  0
VERTEX
  8
┌▓È_1
  5
49C
 10
168.536
 20
-707.081
 30
0.000000
  70
    32
  0
VERTEX
  8
┌▓È_1
  5
49D
 10
168.615
 20
-707.097
 30
0.000000
  70
    32
  0
VERTEX
  8
┌▓È_1
  5
49E
 10
168.694
 20
-707.113
 30
0.000000
  70
    32
  0
VERTEX
  8
┌▓È_1
  5
49F
 10
168.773
 20
-707.129
 30
0.000000
  70
    32
  0
VERTEX
  8
┌▓È_1
  5
4A0
 10
168.852
 20
-707.144
 30
0.000000
  70
    32
  0
VERTEX
  8
┌▓È_1
  5
4A1
 10
168.931
 20
-707.160
 30
0.000000
  70
    32
  0
VERTEX
  8
┌▓È_1
  5
4A2
 10
169.010
 20
-707.176
 30
0.000000
  70
    32
  0
VERTEX
  8
┌▓È_1
  5
4A3
 10
169.089
 20
-707.191
 30
0.000000
  70
    32
  0
VERTEX
  8
┌▓È_1
  5
4A4
 10
169.168
 20
-707.207
 30
0.000000
  70
    32
  0
VERTEX
  8
┌▓È_1
  5
4A5
 10
169.247
 20
-707.222
 30
0.000000
  70
    32
  0
VERTEX
  8
┌▓È_1
  5
4A6
 10
169.327
 20
-707.238
 30
0.000000
  70
    32
  0
VERTEX
  8
┌▓È_1
  5
4A7
 10
169.406
 20
-707.253
 30
0.000000
  70
    32
  0
VERTEX
  8
┌▓È_1
  5
4A8
 10
169.485
 20
-707.268
 30
0.000000
  70
    32
  0
VERTEX
  8
┌▓È_1
  5
4A9
 10
169.565
 20
-707.283
 30
0.000000
  70
    32
  0
VERTEX
  8
┌▓È_1
  5
4AA
 10
169.644
 20
-707.298
 30
0.000000
  70
    32
  0
VERTEX
  8
┌▓È_1
  5
4AB
 10
169.723
 20
-707.313
 30
0.000000
  70
    32
  0
VERTEX
  8
┌▓È_1
  5
4AC
 10
169.803
 20
-707.328
 30
0.000000
  70
    32
  0
VERTEX
  8
┌▓È_1
  5
4AD
 10
169.882
 20
-707.343
 30
0.000000
  70
    32
  0
VERTEX
  8
┌▓È_1
  5
4AE
 10
169.962
 20
-707.358
 30
0.000000
  70
    32
  0
VERTEX
  8
┌▓È_1
  5
4AF
 10
170.041
 20
-707.373
 30
0.000000
  70
    32
  0
VERTEX
  8
┌▓È_1
  5
4B0
 10
170.121
 20
-707.388
 30
0.000000
  70
    32
  0
VERTEX
  8
┌▓È_1
  5
4B1
 10
170.201
 20
-707.403
 30
0.000000
  70
    32
  0
VERTEX
  8
┌▓È_1
  5
4B2
 10
170.280
 20
-707.418
 30
0.000000
  70
    32
  0
VERTEX
  8
┌▓È_1
  5
4B3
 10
170.360
 20
-707.432
 30
0.000000
  70
    32
  0
VERTEX
  8
┌▓È_1
  5
4B4
 10
170.439
 20
-707.447
 30
0.000000
  70
    32
  0
VERTEX
  8
┌▓È_1
  5
4B5
 10
170.519
 20
-707.461
 30
0.000000
  70
    32
  0
VERTEX
  8
┌▓È_1
  5
4B6
 10
170.599
 20
-707.476
 30
0.000000
  70
    32
  0
VERTEX
  8
┌▓È_1
  5
4B7
 10
170.679
 20
-707.490
 30
0.000000
  70
    32
  0
VERTEX
  8
┌▓È_1
  5
4B8
 10
170.758
 20
-707.505
 30
0.000000
  70
    32
  0
VERTEX
  8
┌▓È_1
  5
4B9
 10
170.838
 20
-707.519
 30
0.000000
  70
    32
  0
VERTEX
  8
┌▓È_1
  5
4BA
 10
170.918
 20
-707.534
 30
0.000000
  70
    32
  0
VERTEX
  8
┌▓È_1
  5
4BB
 10
170.998
 20
-707.548
 30
0.000000
  70
    32
  0
VERTEX
  8
┌▓È_1
  5
4BC
 10
171.078
 20
-707.562
 30
0.000000
  70
    32
  0
VERTEX
  8
┌▓È_1
  5
4BD
 10
171.158
 20
-707.577
 30
0.000000
  70
    32
  0
VERTEX
  8
┌▓È_1
  5
4BE
 10
171.238
 20
-707.591
 30
0.000000
  70
    32
  0
VERTEX
  8
┌▓È_1
  5
4BF
 10
171.318
 20
-707.605
 30
0.000000
  70
    32
  0
VERTEX
  8
┌▓È_1
  5
4C0
 10
171.398
 20
-707.619
 30
0.000000
  70
    32
  0
VERTEX
  8
┌▓È_1
  5
4C1
 10
171.478
 20
-707.633
 30
0.000000
  70
    32
  0
VERTEX
  8
┌▓È_1
  5
4C2
 10
171.558
 20
-707.647
 30
0.000000
  70
    32
  0
VERTEX
  8
┌▓È_1
  5
4C3
 10
171.638
 20
-707.661
 30
0.000000
  70
    32
  0
VERTEX
  8
┌▓È_1
  5
4C4
 10
171.718
 20
-707.675
 30
0.000000
  70
    32
  0
VERTEX
  8
┌▓È_1
  5
4C5
 10
171.798
 20
-707.689
 30
0.000000
  70
    32
  0
VERTEX
  8
┌▓È_1
  5
4C6
 10
171.878
 20
-707.703
 30
0.000000
  70
    32
  0
VERTEX
  8
┌▓È_1
  5
4C7
 10
171.958
 20
-707.717
 30
0.000000
  70
    32
  0
VERTEX
  8
┌▓È_1
  5
4C8
 10
172.038
 20
-707.731
 30
0.000000
  70
    32
  0
VERTEX
  8
┌▓È_1
  5
4C9
 10
172.118
 20
-707.745
 30
0.000000
  70
    32
  0
VERTEX
  8
┌▓È_1
  5
4CA
 10
172.199
 20
-707.759
 30
0.000000
  70
    32
  0
VERTEX
  8
┌▓È_1
  5
4CB
 10
172.279
 20
-707.773
 30
0.000000
  70
    32
  0
VERTEX
  8
┌▓È_1
  5
4CC
 10
172.359
 20
-707.787
 30
0.000000
  70
    32
  0
VERTEX
  8
┌▓È_1
  5
4CD
 10
172.439
 20
-707.800
 30
0.000000
  70
    32
  0
VERTEX
  8
┌▓È_1
  5
4CE
 10
172.519
 20
-707.814
 30
0.000000
  70
    32
  0
VERTEX
  8
┌▓È_1
  5
4CF
 10
172.600
 20
-707.828
 30
0.000000
  70
    32
  0
VERTEX
  8
┌▓È_1
  5
4D0
 10
172.680
 20
-707.842
 30
0.000000
  70
    32
  0
VERTEX
  8
┌▓È_1
  5
4D1
 10
172.760
 20
-707.855
 30
0.000000
  70
    32
  0
VERTEX
  8
┌▓È_1
  5
4D2
 10
172.840
 20
-707.869
 30
0.000000
  70
    32
  0
VERTEX
  8
┌▓È_1
  5
4D3
 10
172.921
 20
-707.883
 30
0.000000
  70
    32
  0
VERTEX
  8
┌▓È_1
  5
4D4
 10
173.001
 20
-707.896
 30
0.000000
  70
    32
  0
VERTEX
  8
┌▓È_1
  5
4D5
 10
173.081
 20
-707.910
 30
0.000000
  70
    32
  0
VERTEX
  8
┌▓È_1
  5
4D6
 10
173.161
 20
-707.924
 30
0.000000
  70
    32
  0
VERTEX
  8
┌▓È_1
  5
4D7
 10
173.242
 20
-707.937
 30
0.000000
  70
    32
  0
VERTEX
  8
┌▓È_1
  5
4D8
 10
173.322
 20
-707.951
 30
0.000000
  70
    32
  0
VERTEX
  8
┌▓È_1
  5
4D9
 10
173.402
 20
-707.965
 30
0.000000
  70
    32
  0
VERTEX
  8
┌▓È_1
  5
4DA
 10
173.483
 20
-707.978
 30
0.000000
  70
    32
  0
VERTEX
  8
┌▓È_1
  5
4DB
 10
173.563
 20
-707.992
 30
0.000000
  70
    32
  0
VERTEX
  8
┌▓È_1
  5
4DC
 10
173.643
 20
-708.005
 30
0.000000
  70
    32
  0
VERTEX
  8
┌▓È_1
  5
4DD
 10
173.724
 20
-708.019
 30
0.000000
  70
    32
  0
VERTEX
  8
┌▓È_1
  5
4DE
 10
173.804
 20
-708.033
 30
0.000000
  70
    32
  0
VERTEX
  8
┌▓È_1
  5
4DF
 10
173.884
 20
-708.046
 30
0.000000
  70
    32
  0
VERTEX
  8
┌▓È_1
  5
4E0
 10
173.965
 20
-708.060
 30
0.000000
  70
    32
  0
VERTEX
  8
┌▓È_1
  5
4E1
 10
174.045
 20
-708.073
 30
0.000000
  70
    32
  0
VERTEX
  8
┌▓È_1
  5
4E2
 10
174.125
 20
-708.087
 30
0.000000
  70
    32
  0
SEQEND
  8
┌▓È_1
  5
4E3
  0
POLYLINE
  8
┌▓È_1
  5
4E4
  66
     1
 10
0.000000
 20
0.000000
 30
0.000000
  70
     8
  0
VERTEX
  8
┌▓È_1
  5
4E5
 10
150.097
 20
-696.809
 30
0.000000
  70
    32
  0
VERTEX
  8
┌▓È_1
  5
4E6
 10
150.126
 20
-696.841
 30
0.000000
  70
    32
  0
VERTEX
  8
┌▓È_1
  5
4E7
 10
150.154
 20
-696.873
 30
0.000000
  70
    32
  0
VERTEX
  8
┌▓È_1
  5
4E8
 10
150.183
 20
-696.905
 30
0.000000
  70
    32
  0
VERTEX
  8
┌▓È_1
  5
4E9
 10
150.211
 20
-696.937
 30
0.000000
  70
    32
  0
VERTEX
  8
┌▓È_1
  5
4EA
 10
150.240
 20
-696.968
 30
0.000000
  70
    32
  0
VERTEX
  8
┌▓È_1
  5
4EB
 10
150.268
 20
-697.000
 30
0.000000
  70
    32
  0
VERTEX
  8
┌▓È_1
  5
4EC
 10
150.297
 20
-697.032
 30
0.000000
  70
    32
  0
VERTEX
  8
┌▓È_1
  5
4ED
 10
150.325
 20
-697.064
 30
0.000000
  70
    32
  0
VERTEX
  8
┌▓È_1
  5
4EE
 10
150.354
 20
-697.095
 30
0.000000
  70
    32
  0
VERTEX
  8
┌▓È_1
  5
4EF
 10
150.382
 20
-697.127
 30
0.000000
  70
    32
  0
VERTEX
  8
┌▓È_1
  5
4F0
 10
150.411
 20
-697.159
 30
0.000000
  70
    32
  0
VERTEX
  8
┌▓È_1
  5
4F1
 10
150.439
 20
-697.191
 30
0.000000
  70
    32
  0
VERTEX
  8
┌▓È_1
  5
4F2
 10
150.468
 20
-697.222
 30
0.000000
  70
    32
  0
VERTEX
  8
┌▓È_1
  5
4F3
 10
150.496
 20
-697.254
 30
0.000000
  70
    32
  0
VERTEX
  8
┌▓È_1
  5
4F4
 10
150.525
 20
-697.286
 30
0.000000
  70
    32
  0
VERTEX
  8
┌▓È_1
  5
4F5
 10
150.553
 20
-697.317
 30
0.000000
  70
    32
  0
VERTEX
  8
┌▓È_1
  5
4F6
 10
150.582
 20
-697.349
 30
0.000000
  70
    32
  0
VERTEX
  8
┌▓È_1
  5
4F7
 10
150.610
 20
-697.381
 30
0.000000
  70
    32
  0
VERTEX
  8
┌▓È_1
  5
4F8
 10
150.639
 20
-697.412
 30
0.000000
  70
    32
  0
VERTEX
  8
┌▓È_1
  5
4F9
 10
150.667
 20
-697.444
 30
0.000000
  70
    32
  0
VERTEX
  8
┌▓È_1
  5
4FA
 10
150.696
 20
-697.476
 30
0.000000
  70
    32
  0
VERTEX
  8
┌▓È_1
  5
4FB
 10
150.724
 20
-697.507
 30
0.000000
  70
    32
  0
VERTEX
  8
┌▓È_1
  5
4FC
 10
150.753
 20
-697.539
 30
0.000000
  70
    32
  0
VERTEX
  8
┌▓È_1
  5
4FD
 10
150.782
 20
-697.571
 30
0.000000
  70
    32
  0
VERTEX
  8
┌▓È_1
  5
4FE
 10
150.810
 20
-697.602
 30
0.000000
  70
    32
  0
VERTEX
  8
┌▓È_1
  5
4FF
 10
150.839
 20
-697.634
 30
0.000000
  70
    32
  0
VERTEX
  8
┌▓È_1
  5
500
 10
150.867
 20
-697.666
 30
0.000000
  70
    32
  0
VERTEX
  8
┌▓È_1
  5
501
 10
150.896
 20
-697.697
 30
0.000000
  70
    32
  0
VERTEX
  8
┌▓È_1
  5
502
 10
150.925
 20
-697.729
 30
0.000000
  70
    32
  0
VERTEX
  8
┌▓È_1
  5
503
 10
150.953
 20
-697.760
 30
0.000000
  70
    32
  0
VERTEX
  8
┌▓È_1
  5
504
 10
150.982
 20
-697.792
 30
0.000000
  70
    32
  0
VERTEX
  8
┌▓È_1
  5
505
 10
151.010
 20
-697.823
 30
0.000000
  70
    32
  0
VERTEX
  8
┌▓È_1
  5
506
 10
151.039
 20
-697.855
 30
0.000000
  70
    32
  0
VERTEX
  8
┌▓È_1
  5
507
 10
151.068
 20
-697.886
 30
0.000000
  70
    32
  0
VERTEX
  8
┌▓È_1
  5
508
 10
151.096
 20
-697.918
 30
0.000000
  70
    32
  0
VERTEX
  8
┌▓È_1
  5
509
 10
151.125
 20
-697.949
 30
0.000000
  70
    32
  0
VERTEX
  8
┌▓È_1
  5
50A
 10
151.154
 20
-697.981
 30
0.000000
  70
    32
  0
VERTEX
  8
┌▓È_1
  5
50B
 10
151.182
 20
-698.012
 30
0.000000
  70
    32
  0
VERTEX
  8
┌▓È_1
  5
50C
 10
151.211
 20
-698.044
 30
0.000000
  70
    32
  0
VERTEX
  8
┌▓È_1
  5
50D
 10
151.240
 20
-698.075
 30
0.000000
  70
    32
  0
VERTEX
  8
┌▓È_1
  5
50E
 10
151.269
 20
-698.106
 30
0.000000
  70
    32
  0
VERTEX
  8
┌▓È_1
  5
50F
 10
151.297
 20
-698.138
 30
0.000000
  70
    32
  0
VERTEX
  8
┌▓È_1
  5
510
 10
151.326
 20
-698.169
 30
0.000000
  70
    32
  0
VERTEX
  8
┌▓È_1
  5
511
 10
151.355
 20
-698.200
 30
0.000000
  70
    32
  0
VERTEX
  8
┌▓È_1
  5
512
 10
151.384
 20
-698.232
 30
0.000000
  70
    32
  0
VERTEX
  8
┌▓È_1
  5
513
 10
151.412
 20
-698.263
 30
0.000000
  70
    32
  0
VERTEX
  8
┌▓È_1
  5
514
 10
151.441
 20
-698.294
 30
0.000000
  70
    32
  0
VERTEX
  8
┌▓È_1
  5
515
 10
151.470
 20
-698.326
 30
0.000000
  70
    32
  0
VERTEX
  8
┌▓È_1
  5
516
 10
151.499
 20
-698.357
 30
0.000000
  70
    32
  0
VERTEX
  8
┌▓È_1
  5
517
 10
151.528
 20
-698.388
 30
0.000000
  70
    32
  0
VERTEX
  8
┌▓È_1
  5
518
 10
151.557
 20
-698.419
 30
0.000000
  70
    32
  0
VERTEX
  8
┌▓È_1
  5
519
 10
151.586
 20
-698.450
 30
0.000000
  70
    32
  0
VERTEX
  8
┌▓È_1
  5
51A
 10
151.614
 20
-698.481
 30
0.000000
  70
    32
  0
VERTEX
  8
┌▓È_1
  5
51B
 10
151.643
 20
-698.512
 30
0.000000
  70
    32
  0
VERTEX
  8
┌▓È_1
  5
51C
 10
151.672
 20
-698.543
 30
0.000000
  70
    32
  0
VERTEX
  8
┌▓È_1
  5
51D
 10
151.701
 20
-698.575
 30
0.000000
  70
    32
  0
VERTEX
  8
┌▓È_1
  5
51E
 10
151.730
 20
-698.606
 30
0.000000
  70
    32
  0
VERTEX
  8
┌▓È_1
  5
51F
 10
151.759
 20
-698.637
 30
0.000000
  70
    32
  0
VERTEX
  8
┌▓È_1
  5
520
 10
151.788
 20
-698.667
 30
0.000000
  70
    32
  0
VERTEX
  8
┌▓È_1
  5
521
 10
151.817
 20
-698.698
 30
0.000000
  70
    32
  0
VERTEX
  8
┌▓È_1
  5
522
 10
151.846
 20
-698.729
 30
0.000000
  70
    32
  0
VERTEX
  8
┌▓È_1
  5
523
 10
151.875
 20
-698.760
 30
0.000000
  70
    32
  0
VERTEX
  8
┌▓È_1
  5
524
 10
151.904
 20
-698.791
 30
0.000000
  70
    32
  0
VERTEX
  8
┌▓È_1
  5
525
 10
151.933
 20
-698.822
 30
0.000000
  70
    32
  0
VERTEX
  8
┌▓È_1
  5
526
 10
151.962
 20
-698.853
 30
0.000000
  70
    32
  0
VERTEX
  8
┌▓È_1
  5
527
 10
151.992
 20
-698.883
 30
0.000000
  70
    32
  0
VERTEX
  8
┌▓È_1
  5
528
 10
152.021
 20
-698.914
 30
0.000000
  70
    32
  0
VERTEX
  8
┌▓È_1
  5
529
 10
152.050
 20
-698.945
 30
0.000000
  70
    32
  0
VERTEX
  8
┌▓È_1
  5
52A
 10
152.079
 20
-698.975
 30
0.000000
  70
    32
  0
VERTEX
  8
┌▓È_1
  5
52B
 10
152.108
 20
-699.006
 30
0.000000
  70
    32
  0
VERTEX
  8
┌▓È_1
  5
52C
 10
152.138
 20
-699.037
 30
0.000000
  70
    32
  0
VERTEX
  8
┌▓È_1
  5
52D
 10
152.167
 20
-699.067
 30
0.000000
  70
    32
  0
VERTEX
  8
┌▓È_1
  5
52E
 10
152.196
 20
-699.098
 30
0.000000
  70
    32
  0
VERTEX
  8
┌▓È_1
  5
52F
 10
152.225
 20
-699.128
 30
0.000000
  70
    32
  0
VERTEX
  8
┌▓È_1
  5
530
 10
152.255
 20
-699.159
 30
0.000000
  70
    32
  0
VERTEX
  8
┌▓È_1
  5
531
 10
152.284
 20
-699.189
 30
0.000000
  70
    32
  0
VERTEX
  8
┌▓È_1
  5
532
 10
152.313
 20
-699.219
 30
0.000000
  70
    32
  0
VERTEX
  8
┌▓È_1
  5
533
 10
152.343
 20
-699.250
 30
0.000000
  70
    32
  0
VERTEX
  8
┌▓È_1
  5
534
 10
152.372
 20
-699.280
 30
0.000000
  70
    32
  0
VERTEX
  8
┌▓È_1
  5
535
 10
152.401
 20
-699.310
 30
0.000000
  70
    32
  0
VERTEX
  8
┌▓È_1
  5
536
 10
152.431
 20
-699.341
 30
0.000000
  70
    32
  0
VERTEX
  8
┌▓È_1
  5
537
 10
152.460
 20
-699.371
 30
0.000000
  70
    32
  0
VERTEX
  8
┌▓È_1
  5
538
 10
152.490
 20
-699.401
 30
0.000000
  70
    32
  0
VERTEX
  8
┌▓È_1
  5
539
 10
152.519
 20
-699.431
 30
0.000000
  70
    32
  0
VERTEX
  8
┌▓È_1
  5
53A
 10
152.549
 20
-699.461
 30
0.000000
  70
    32
  0
VERTEX
  8
┌▓È_1
  5
53B
 10
152.579
 20
-699.491
 30
0.000000
  70
    32
  0
VERTEX
  8
┌▓È_1
  5
53C
 10
152.608
 20
-699.521
 30
0.000000
  70
    32
  0
VERTEX
  8
┌▓È_1
  5
53D
 10
152.638
 20
-699.551
 30
0.000000
  70
    32
  0
VERTEX
  8
┌▓È_1
  5
53E
 10
152.667
 20
-699.581
 30
0.000000
  70
    32
  0
VERTEX
  8
┌▓È_1
  5
53F
 10
152.697
 20
-699.611
 30
0.000000
  70
    32
  0
VERTEX
  8
┌▓È_1
  5
540
 10
152.727
 20
-699.641
 30
0.000000
  70
    32
  0
VERTEX
  8
┌▓È_1
  5
541
 10
152.756
 20
-699.670
 30
0.000000
  70
    32
  0
VERTEX
  8
┌▓È_1
  5
542
 10
152.786
 20
-699.700
 30
0.000000
  70
    32
  0
VERTEX
  8
┌▓È_1
  5
543
 10
152.816
 20
-699.730
 30
0.000000
  70
    32
  0
VERTEX
  8
┌▓È_1
  5
544
 10
152.846
 20
-699.760
 30
0.000000
  70
    32
  0
VERTEX
  8
┌▓È_1
  5
545
 10
152.876
 20
-699.789
 30
0.000000
  70
    32
  0
VERTEX
  8
┌▓È_1
  5
546
 10
152.905
 20
-699.819
 30
0.000000
  70
    32
  0
VERTEX
  8
┌▓È_1
  5
547
 10
152.935
 20
-699.848
 30
0.000000
  70
    32
  0
VERTEX
  8
┌▓È_1
  5
548
 10
152.965
 20
-699.878
 30
0.000000
  70
    32
  0
VERTEX
  8
┌▓È_1
  5
549
 10
152.995
 20
-699.907
 30
0.000000
  70
    32
  0
VERTEX
  8
┌▓È_1
  5
54A
 10
153.025
 20
-699.937
 30
0.000000
  70
    32
  0
VERTEX
  8
┌▓È_1
  5
54B
 10
153.055
 20
-699.966
 30
0.000000
  70
    32
  0
VERTEX
  8
┌▓È_1
  5
54C
 10
153.085
 20
-699.995
 30
0.000000
  70
    32
  0
VERTEX
  8
┌▓È_1
  5
54D
 10
153.115
 20
-700.024
 30
0.000000
  70
    32
  0
VERTEX
  8
┌▓È_1
  5
54E
 10
153.145
 20
-700.054
 30
0.000000
  70
    32
  0
VERTEX
  8
┌▓È_1
  5
54F
 10
153.176
 20
-700.083
 30
0.000000
  70
    32
  0
VERTEX
  8
┌▓È_1
  5
550
 10
153.206
 20
-700.112
 30
0.000000
  70
    32
  0
VERTEX
  8
┌▓È_1
  5
551
 10
153.236
 20
-700.141
 30
0.000000
  70
    32
  0
VERTEX
  8
┌▓È_1
  5
552
 10
153.266
 20
-700.170
 30
0.000000
  70
    32
  0
VERTEX
  8
┌▓È_1
  5
553
 10
153.296
 20
-700.199
 30
0.000000
  70
    32
  0
VERTEX
  8
┌▓È_1
  5
554
 10
153.327
 20
-700.228
 30
0.000000
  70
    32
  0
VERTEX
  8
┌▓È_1
  5
555
 10
153.357
 20
-700.256
 30
0.000000
  70
    32
  0
VERTEX
  8
┌▓È_1
  5
556
 10
153.387
 20
-700.285
 30
0.000000
  70
    32
  0
VERTEX
  8
┌▓È_1
  5
557
 10
153.418
 20
-700.314
 30
0.000000
  70
    32
  0
VERTEX
  8
┌▓È_1
  5
558
 10
153.448
 20
-700.343
 30
0.000000
  70
    32
  0
VERTEX
  8
┌▓È_1
  5
559
 10
153.479
 20
-700.371
 30
0.000000
  70
    32
  0
VERTEX
  8
┌▓È_1
  5
55A
 10
153.509
 20
-700.400
 30
0.000000
  70
    32
  0
VERTEX
  8
┌▓È_1
  5
55B
 10
153.540
 20
-700.428
 30
0.000000
  70
    32
  0
VERTEX
  8
┌▓È_1
  5
55C
 10
153.570
 20
-700.457
 30
0.000000
  70
    32
  0
VERTEX
  8
┌▓È_1
  5
55D
 10
153.601
 20
-700.485
 30
0.000000
  70
    32
  0
VERTEX
  8
┌▓È_1
  5
55E
 10
153.631
 20
-700.513
 30
0.000000
  70
    32
  0
VERTEX
  8
┌▓È_1
  5
55F
 10
153.662
 20
-700.542
 30
0.000000
  70
    32
  0
VERTEX
  8
┌▓È_1
  5
560
 10
153.693
 20
-700.570
 30
0.000000
  70
    32
  0
VERTEX
  8
┌▓È_1
  5
561
 10
153.724
 20
-700.598
 30
0.000000
  70
    32
  0
VERTEX
  8
┌▓È_1
  5
562
 10
153.754
 20
-700.626
 30
0.000000
  70
    32
  0
VERTEX
  8
┌▓È_1
  5
563
 10
153.785
 20
-700.654
 30
0.000000
  70
    32
  0
VERTEX
  8
┌▓È_1
  5
564
 10
153.816
 20
-700.682
 30
0.000000
  70
    32
  0
SEQEND
  8
┌▓È_1
  5
565
  0
LINE
  5
2A9
  8
┌▓È_1
 62
     5
 10
-764.21878720240011
 20
-312.1202195483001
 30
0.0
 11
-764.21878720240011
 21
-311.61482632949998
 31
0.0
  0
LINE
  5
2AA
  8
┌▓È_1
 62
     5
 10
-162.01878720240001
 20
-310.81482632950002
 30
0.0
 11
-162.01878720240001
 21
-297.81482632950002
 31
0.0
  0
ARC
  5
2AB
  8
┌▓È_1
 62
     5
 10
-161.21878720239999
 20
-311.12021954829999
 30
0.0
 40
1.0
 50
270.0
 51
0.0
  0
LINE
  5
2AC
  8
┌▓È_1
 62
     5
 10
-160.81878720239999
 20
-311.12021954829999
 30
0.0
 11
-160.81878720239999
 21
-297.82021954829997
 31
0.0
  0
ARC
  5
2AD
  8
┌▓È_1
 62
     5
 10
-161.21878720239999
 20
-311.12021954829999
 30
0.0
 40
0.4
 50
270.0
 51
0.0
  0
LINE
  5
2AE
  8
┌▓È_1
 62
     5
 10
-162.46878720239999
 20
-11.6148263295
 30
0.0
 11
-162.46878720239999
 21
-311.61482632949998
 31
0.0
  0
LINE
  5
2AF
  8
┌▓È_1
 62
     5
 10
-784.11878720240009
 20
-311.12021954829999
 30
0.0
 11
-784.11878720240009
 21
-297.82021954829997
 31
0.0
  0
ARC
  5
2B0
  8
┌▓È_1
 62
     5
 10
-783.71878720240011
 20
-311.12021954829999
 30
0.0
 40
1.0
 50
180.0
 51
270.0
  0
ARC
  5
2B1
  8
┌▓È_1
 62
     5
 10
-782.11878720239997
 20
-297.81482632950002
 30
0.0
 40
2.0
 50
100.0786581078
 51
180.0
  0
ARC
  5
2B2
  8
┌▓È_1
 62
     5
 10
-762.81878720240002
 20
-297.81482632950002
 30
0.0
 40
2.0
 50
0.0
 51
79.921341892200005
  0
LINE
  5
2B3
  8
┌▓È_1
 62
     5
 10
-782.91878720240004
 20
-310.81482632950002
 30
0.0
 11
-782.91878720240004
 21
-297.81482632950002
 31
0.0
  0
LINE
  5
2B4
  8
┌▓È_1
 62
     5
 10
-760.81878720240002
 20
-299.01482632950001
 30
0.0
 11
-472.46878720239988
 21
-299.01482632950001
 31
0.0
  0
ARC
  5
2B5
  8
┌▓È_1
 62
     5
 10
-782.21700850280001
 20
-297.72593098099998
 30
0.0
 40
2.5
 50
95.780142109200014
 51
180.0
  0
ENDSEC
  0
EOF
