  0
SECTION
  2
HEADER
  9
$ACADVER
  1
AC1009
  9
$INSBASE
 10
0.0
 20
0.0
 30
0.0
  9
$EXTMIN
 10
480.82392473926569
 20
-735.28394797749559
 30
-0.0015258207003583
  9
$EXTMAX
 10
1193.0578970279701
 20
294.04063943559959
 30
0.0000000349246037
  9
$LIMMIN
 10
0.0
 20
0.0
  9
$LIMMAX
 10
0.0
 20
0.0
  9
$ORTHOMODE
 70
     0
  9
$REGENMODE
 70
     1
  9
$FILLMODE
 70
     1
  9
$QTEXTMODE
 70
     0
  9
$MIRRTEXT
 70
     1
  9
$DRAGMODE
 70
     2
  9
$LTSCALE
 40
1.0
  9
$OSMODE
 70
    31
  9
$ATTMODE
 70
     1
  9
$TEXTSIZE
 40
0.0
  9
$TRACEWID
 40
0.05
  9
$TEXTSTYLE
  7
STANDARD
  9
$CLAYER
  8
0
  9
$CELTYPE
  6
CONTINUOUS
  9
$CECOLOR
 62
   256
  9
$DIMSCALE
 40
1.0
  9
$DIMASZ
 40
0.18
  9
$DIMEXO
 40
0.0625
  9
$DIMDLI
 40
0.38
  9
$DIMRND
 40
0.0
  9
$DIMDLE
 40
0.0
  9
$DIMEXE
 40
0.18
  9
$DIMTP
 40
0.0
  9
$DIMTM
 40
0.0
  9
$DIMTXT
 40
0.18
  9
$DIMCEN
 40
0.09
  9
$DIMTSZ
 40
0.0
  9
$DIMTOL
 70
     0
  9
$DIMLIM
 70
     0
  9
$DIMTIH
 70
     1
  9
$DIMTOH
 70
     1
  9
$DIMSE1
 70
     0
  9
$DIMSE2
 70
     0
  9
$DIMTAD
 70
     0
  9
$DIMZIN
 70
     0
  9
$DIMBLK
  1

  9
$DIMASO
 70
     1
  9
$DIMSHO
 70
     1
  9
$DIMPOST
  1

  9
$DIMAPOST
  1

  9
$DIMALT
 70
     0
  9
$DIMALTD
 70
     2
  9
$DIMALTF
 40
25.399999999999999
  9
$DIMLFAC
 40
1.0
  9
$DIMTOFL
 70
     0
  9
$DIMTVP
 40
0.0
  9
$DIMTIX
 70
     0
  9
$DIMSOXD
 70
     0
  9
$DIMSAH
 70
     0
  9
$DIMBLK1
  1

  9
$DIMBLK2
  1

  9
$DIMSTYLE
  2
STANDARD
  9
$DIMCLRD
 70
     0
  9
$DIMCLRE
 70
     0
  9
$DIMCLRT
 70
     0
  9
$DIMTFAC
 40
1.0
  9
$DIMGAP
 40
0.09
  9
$LUNITS
 70
     2
  9
$LUPREC
 70
     4
  9
$SKETCHINC
 40
0.1
  9
$FILLETRAD
 40
0.0
  9
$AUNITS
 70
     0
  9
$AUPREC
 70
     0
  9
$MENU
  1
acad
  9
$ELEVATION
 40
0.0
  9
$PELEVATION
 40
0.0
  9
$THICKNESS
 40
0.0
  9
$LIMCHECK
 70
     0
  9
$BLIPMODE
 70
     0
  9
$CHAMFERA
 40
0.0
  9
$CHAMFERB
 40
0.0
  9
$SKPOLY
 70
     0
  9
$TDCREATE
 40
2454860.7164603132
  9
$TDUPDATE
 40
2454860.7167456951
  9
$TDINDWG
 40
0.0003048958
  9
$TDUSRTIMER
 40
0.000304537
  9
$USRTIMER
 70
     1
  9
$ANGBASE
 50
0.0
  9
$ANGDIR
 70
     0
  9
$PDMODE
 70
     3
  9
$PDSIZE
 40
-1.0
  9
$PLINEWID
 40
0.0
  9
$COORDS
 70
     2
  9
$SPLFRAME
 70
     0
  9
$SPLINETYPE
 70
     6
  9
$SPLINESEGS
 70
     8
  9
$ATTDIA
 70
     0
  9
$ATTREQ
 70
     1
  9
$HANDLING
 70
     1
  9
$HANDSEED
  5
6EE
  9
$SURFTAB1
 70
     6
  9
$SURFTAB2
 70
     6
  9
$SURFTYPE
 70
     6
  9
$SURFU
 70
     6
  9
$SURFV
 70
     6
  9
$UCSNAME
  2

  9
$UCSORG
 10
0.0
 20
0.0
 30
0.0
  9
$UCSXDIR
 10
1.0
 20
0.0
 30
0.0
  9
$UCSYDIR
 10
0.0
 20
1.0
 30
0.0
  9
$PUCSNAME
  2

  9
$PUCSORG
 10
0.0
 20
0.0
 30
0.0
  9
$PUCSXDIR
 10
1.0
 20
0.0
 30
0.0
  9
$PUCSYDIR
 10
0.0
 20
1.0
 30
0.0
  9
$USERI1
 70
     0
  9
$USERI2
 70
     0
  9
$USERI3
 70
     0
  9
$USERI4
 70
     0
  9
$USERI5
 70
     0
  9
$USERR1
 40
0.0
  9
$USERR2
 40
0.0
  9
$USERR3
 40
0.0
  9
$USERR4
 40
0.0
  9
$USERR5
 40
0.0
  9
$WORLDVIEW
 70
     1
  9
$SHADEDGE
 70
     3
  9
$SHADEDIF
 70
    70
  9
$TILEMODE
 70
     1
  9
$MAXACTVP
 70
    16
  9
$PLIMCHECK
 70
     0
  9
$PEXTMIN
 10
1.0000000000000000E+020
 20
1.0000000000000000E+020
 30
1.0000000000000000E+020
  9
$PEXTMAX
 10
-1.0000000000000000E+020
 20
-1.0000000000000000E+020
 30
-1.0000000000000000E+020
  9
$PLIMMIN
 10
0.0
 20
0.0
  9
$PLIMMAX
 10
12.0
 20
9.0
  9
$UNITMODE
 70
     0
  9
$VISRETAIN
 70
     0
  9
$PLINEGEN
 70
     1
  9
$PSLTSCALE
 70
     0
  0
ENDSEC
  0
SECTION
  2
TABLES
  0
TABLE
  2
VPORT
 70
     2
  0
VPORT
  2
*ACTIVE
 70
     0
 10
0.0
 20
0.0
 11
1.0
 21
1.0
 12
836.94091088361779
 22
-220.621654270948
 13
0.0
 23
0.0
 14
1.0
 24
1.0
 15
0.0
 25
0.0
 16
0.0
 26
0.0
 36
1.0
 17
0.0
 27
0.0
 37
0.0
 40
1037.8667001717099
 41
1.6343490304709141
 42
50.0
 43
0.0
 44
0.0
 50
0.0
 51
0.0
 71
     0
 72
   100
 73
     1
 74
     1
 75
     0
 76
     0
 77
     0
 78
     0
  0
ENDTAB
  0
TABLE
  2
LTYPE
 70
    11
  0
LTYPE
  2
CONTINUOUS
 70
     0
  3
Solid line
 72
    65
 73
     0
 40
0.0
  0
LTYPE
  2
DOT
 70
     0
  3
. . . . . . . . 
 72
    65
 73
     2
 40
1.0
 49
0.0
 49
-1.0
  0
LTYPE
  2
DASHED
 70
     0
  3
___  ___  ___  ___  
 72
    65
 73
     2
 40
4.0
 49
3.0
 49
-1.0
  0
LTYPE
  2
HIDDEN
 70
     0
  3
__ __ __ __ 
 72
    65
 73
     2
 40
3.0
 49
2.0
 49
-1.0
  0
LTYPE
  2
STITCH
 70
     0
  3
_ _ _ _ 
 72
    65
 73
     2
 40
2.0
 49
1.0
 49
-1.0
  0
LTYPE
  2
CENTER
 70
     0
  3
______  __  ______  __  
 72
    65
 73
     4
 40
43.0
 49
40.0
 49
-1.0
 49
1.0
 49
-1.0
  0
LTYPE
  2
DASHDOT
 70
     0
  3
____ . ____ . 
 72
    65
 73
     4
 40
32.0
 49
30.0
 49
-1.0
 49
0.0
 49
-1.0
  0
LTYPE
  2
BORDER
 70
     0
  3
__ . __ . 
 72
    65
 73
     4
 40
22.0
 49
20.0
 49
-1.0
 49
0.0
 49
-1.0
  0
LTYPE
  2
CUTTING
 70
     0
  3
________   ___   ___   
 72
    65
 73
     6
 40
45.0
 49
40.0
 49
-1.0
 49
1.0
 49
-1.0
 49
1.0
 49
-1.0
  0
LTYPE
  2
PHANTOM
 70
     0
  3
______  __  __  
 72
    65
 73
     6
 40
35.0
 49
30.0
 49
-1.0
 49
1.0
 49
-1.0
 49
1.0
 49
-1.0
  0
LTYPE
  2
DIVIDE
 70
     0
  3
____ . . ____ . . 
 72
    65
 73
     6
 40
23.0
 49
20.0
 49
-1.0
 49
0.0
 49
-1.0
 49
0.0
 49
-1.0
  0
ENDTAB
  0
TABLE
  2
LAYER
 70
     6
  0
LAYER
  2
0
 70
     0
 62
     7
  6
CONTINUOUS
  0
LAYER
  2
ﾚｲﾔ_1
 70
     0
 62
     7
  6
CONTINUOUS
  0
LAYER
  2
図枠
 70
     0
 62
     7
  6
CONTINUOUS
  0
LAYER
  2
寸法線
 70
     0
 62
     7
  6
CONTINUOUS
  0
LAYER
  2
CONSTRUCTION
 70
     0
 62
     7
  6
CONTINUOUS
  0
LAYER
  2
改訂
 70
     0
 62
     7
  6
CONTINUOUS
  0
ENDTAB
  0
TABLE
  2
STYLE
 70
     1
  0
STYLE
  2
STANDARD
 70
     0
 40
0.0
 41
1.0
 50
0.0
 71
     0
 42
0.0
  3
txt
  4
extfont
  0
ENDTAB
  0
TABLE
  2
VIEW
 70
     0
  0
ENDTAB
  0
TABLE
  2
UCS
 70
     0
  0
ENDTAB
  0
TABLE
  2
APPID
 70
     2
  0
APPID
  2
ACAD
 70
     0
  0
APPID
  2
DCO15
 70
     0
  0
ENDTAB
  0
TABLE
  2
DIMSTYLE
 70
     2
  0
DIMSTYLE
  2
STANDARD
 70
     0
  3

  4

  5

  6

  7

 40
1.0
 41
0.18
 42
0.0625
 43
0.38
 44
0.18
 45
0.0
 46
0.0
 47
0.0
 48
0.0
140
0.18
141
0.09
142
0.0
143
25.399999999999999
144
1.0
145
0.0
146
1.0
147
0.09
 71
     0
 72
     0
 73
     1
 74
     1
 75
     0
 76
     0
 77
     0
 78
     0
170
     0
171
     2
172
     0
173
     0
174
     0
175
     0
176
     0
177
     0
178
     0
  0
DIMSTYLE
  2
VELDIM0
 70
     0
  3

  4

  5

  6

  7

 40
1.0
 41
7.5
 42
0.0625
 43
0.38
 44
0.5
 45
0.0
 46
3.0
 47
0.0
 48
0.0
140
7.4965279578999988
141
0.09
142
0.0
143
25.399999999999999
144
1.0
145
0.0
146
1.0
147
0.09
 71
     0
 72
     0
 73
     0
 74
     0
 75
     0
 76
     0
 77
     0
 78
     8
170
     0
171
     2
172
     0
173
     0
174
     0
175
     0
176
     0
177
     0
178
     0
  0
ENDTAB
  0
ENDSEC
  0
SECTION
  2
BLOCKS
  0
BLOCK
  8
0
  2
$MODEL_SPACE
 70
     0
 10
0.0
 20
0.0
 30
0.0
  3
$MODEL_SPACE
  1

  0
ENDBLK
  5
E
  8
0
  0
BLOCK
 67
     1
  8
0
  2
$PAPER_SPACE
 70
     0
 10
0.0
 20
0.0
 30
0.0
  3
$PAPER_SPACE
  1

  0
ENDBLK
  5
10
 67
     1
  8
0
  0
BLOCK
  8
0
  2
BALLON0
 70
     0
 10
0.0
 20
0.0
 30
0.0
  3
BALLON0
  1

  0
INSERT
  5
8B
  8
0
  6
CONTINUOUS
  2
*U37
 10
0.0
 20
0.0
 30
0.0
  0
CIRCLE
  5
8C
  8
ﾚｲﾔ_1
 10
981.90982671719996
 20
-27.6599380651
 30
0.0
 40
8.75
  0
LINE
  5
8D
  8
寸法線
 10
996.49316005050002
 20
-27.6599380651
 30
0.0
 11
990.65982671719985
 21
-27.6599380651
 31
0.0
  0
LINE
  5
8E
  8
寸法線
 10
1044.2661730487
 20
9.9279913889000007
 30
0.0
 11
996.49316005050002
 21
-27.6599380651
 31
0.0
  0
SOLID
  5
8F
  8
寸法線
 10
1044.2661730487
 20
9.9279913889000007
 30
0.0
 11
1038.4716376888
 21
3.1420971985000001
 31
0.0
 12
1038.7648544348999
 22
5.5995397592999989
 32
0.0
 13
1038.7648544348999
 23
5.5995397592999989
 33
0.0
  0
SOLID
  5
90
  8
寸法線
 10
1038.7648544348999
 20
5.5995397592999989
 30
0.0
 11
1036.3074118740999
 21
5.8927565053999986
 31
0.0
 12
1044.2661730487
 22
9.9279913889000007
 32
0.0
 13
1044.2661730487
 23
9.9279913889000007
 33
0.0
  0
ENDBLK
  5
91
  8
0
  0
BLOCK
  8
0
  2
BALLON1
 70
     0
 10
0.0
 20
0.0
 30
0.0
  3
BALLON1
  1

  0
INSERT
  5
95
  8
0
  6
CONTINUOUS
  2
*U38
 10
0.0
 20
0.0
 30
0.0
  0
CIRCLE
  5
96
  8
ﾚｲﾔ_1
 10
981.90982671719996
 20
-105.92721882239999
 30
0.0
 40
8.75
  0
LINE
  5
97
  8
寸法線
 10
996.49316005050002
 20
-105.92721882239999
 30
0.0
 11
990.65982671719985
 21
-105.92721882239999
 31
0.0
  0
LINE
  5
98
  8
寸法線
 10
1056.8817980486999
 20
-60.027024352200002
 30
0.0
 11
996.49316005050002
 21
-105.92721882239999
 31
0.0
  0
SOLID
  5
99
  8
寸法線
 10
1056.8817980486999
 20
-60.027024352200002
 30
0.0
 11
1050.9746135936
 21
-66.715086239900003
 31
0.0
 12
1051.3088774082
 22
-64.262889734200002
 32
0.0
 13
1051.3088774082
 23
-64.262889734200002
 33
0.0
  0
SOLID
  5
9A
  8
寸法線
 10
1051.3088774082
 20
-64.262889734200002
 30
0.0
 11
1048.8566809025999
 21
-63.928625919600002
 31
0.0
 12
1056.8817980486999
 22
-60.027024352200002
 32
0.0
 13
1056.8817980486999
 23
-60.027024352200002
 33
0.0
  0
ENDBLK
  5
9B
  8
0
  0
BLOCK
  8
0
  2
BALLON2
 70
     0
 10
0.0
 20
0.0
 30
0.0
  3
BALLON2
  1

  0
INSERT
  5
9F
  8
0
  6
CONTINUOUS
  2
*U39
 10
0.0
 20
0.0
 30
0.0
  0
CIRCLE
  5
A0
  8
ﾚｲﾔ_1
 10
981.90982671719996
 20
-192.69327948520001
 30
0.0
 40
8.75
  0
LINE
  5
A1
  8
寸法線
 10
996.49316005050002
 20
-192.69327948520001
 30
0.0
 11
990.65982671719985
 21
-192.69327948520001
 31
0.0
  0
LINE
  5
A2
  8
寸法線
 10
1065.2661730487
 20
-149.5633524772
 30
0.0
 11
996.49316005050002
 21
-192.69327948520001
 31
0.0
  0
SOLID
  5
A3
  8
寸法線
 10
1065.2661730487
 20
-149.5633524772
 30
0.0
 11
1058.7830805179999
 21
-155.69478878839999
 31
0.0
 12
1059.3358809003
 22
-153.28244309639999
 32
0.0
 13
1059.3358809003
 23
-153.28244309639999
 33
0.0
  0
SOLID
  5
A4
  8
寸法線
 10
1059.3358809003
 20
-153.28244309639999
 30
0.0
 11
1056.9235352083999
 21
-152.72964271410001
 31
0.0
 12
1065.2661730487
 22
-149.5633524772
 32
0.0
 13
1065.2661730487
 23
-149.5633524772
 33
0.0
  0
ENDBLK
  5
A5
  8
0
  0
BLOCK
  8
0
  2
*X3
 70
     1
 10
0.0
 20
0.0
 30
0.0
  3
*X3
  1

  0
LINE
  5
AD
  8
ﾚｲﾔ_1
 10
1060.0
 20
-113.74538372719999
 30
0.0
 11
1060.0
 21
-11.9469462272
 31
0.0
  0
LINE
  5
AE
  8
ﾚｲﾔ_1
 10
1050.0
 20
-113.74538372719999
 30
0.0
 11
1050.0
 21
-11.9469462272
 31
0.0
  0
LINE
  5
AF
  8
ﾚｲﾔ_1
 10
1046.9661730487001
 20
-13.0536269327
 30
0.0
 11
1048.0728537542
 21
-11.9469462272
 31
0.0
  0
LINE
  5
B0
  8
ﾚｲﾔ_1
 10
1046.9661730487001
 20
-33.054000517199988
 30
0.0
 11
1065.2661730487
 21
-14.7540005172
 31
0.0
  0
LINE
  5
B1
  8
ﾚｲﾔ_1
 10
1046.9661730487001
 20
-53.054374101800001
 30
0.0
 11
1065.2661730487
 21
-34.754374101800003
 31
0.0
  0
LINE
  5
B2
  8
ﾚｲﾔ_1
 10
1046.9661730487001
 20
-73.054747686300004
 30
0.0
 11
1065.2661730487
 21
-54.7547476863
 31
0.0
  0
LINE
  5
B3
  8
ﾚｲﾔ_1
 10
1046.9661730487001
 20
-93.055121270900003
 30
0.0
 11
1065.2661730487
 21
-74.755121270900005
 31
0.0
  0
LINE
  5
B4
  8
ﾚｲﾔ_1
 10
1046.9661730487001
 20
-113.0554948555
 30
0.0
 11
1065.2661730487
 21
-94.75549485549999
 31
0.0
  0
LINE
  5
B5
  8
ﾚｲﾔ_1
 10
1053.7629422012999
 20
-113.74538372719999
 30
0.0
 11
1046.9661730487001
 21
-106.9486145746
 31
0.0
  0
LINE
  5
B6
  8
ﾚｲﾔ_1
 10
1065.2661730487
 20
-105.2482409901
 30
0.0
 11
1046.9661730487001
 21
-86.948240990100004
 31
0.0
  0
LINE
  5
B7
  8
ﾚｲﾔ_1
 10
1065.2661730487
 20
-85.247867405500003
 30
0.0
 11
1046.9661730487001
 21
-66.947867405500006
 31
0.0
  0
LINE
  5
B8
  8
ﾚｲﾔ_1
 10
1065.2661730487
 20
-65.247493821000006
 30
0.0
 11
1046.9661730487001
 21
-46.947493821000002
 31
0.0
  0
LINE
  5
B9
  8
ﾚｲﾔ_1
 10
1065.2661730487
 20
-45.247120236400001
 30
0.0
 11
1046.9661730487001
 21
-26.9471202364
 31
0.0
  0
LINE
  5
BA
  8
ﾚｲﾔ_1
 10
1065.2661730487
 20
-25.246746651900001
 30
0.0
 11
1051.9663726240001
 21
-11.9469462272
 31
0.0
  0
ENDBLK
  5
BB
  8
0
  0
BLOCK
  8
0
  2
*D4
 70
     1
 10
0.0
 20
0.0
 30
0.0
  3
*D4
  1

  0
TEXT
  5
D8
  8
0
 62
     0
 10
550.03765891779994
 20
71.440968893600001
 30
0.0
 40
7.4965279578999988
  1
4
 50
90.0
  0
LINE
  5
D9
  8
0
 62
     0
 10
652.3418240904
 20
59.827991388900003
 30
0.0
 11
551.86057561630003
 21
59.827991388900003
 31
0.0
  0
LINE
  5
DA
  8
0
 62
     0
 10
625.24182409039986
 20
55.927991388900011
 30
0.0
 11
551.86057561630003
 21
55.927991388900011
 31
0.0
  0
LINE
  5
DB
  8
0
 62
     0
 10
552.36057561630003
 20
59.827991388900003
 30
0.0
 11
552.36057561630003
 21
80.260413549999996
 31
0.0
  0
LINE
  5
DC
  8
0
 62
     0
 10
552.36057561630003
 20
59.827991388900003
 30
0.0
 11
552.36057561630003
 21
67.031246565399996
 31
0.0
  0
LINE
  5
DD
  8
0
 62
     0
 10
552.36057561630003
 20
55.927991388900011
 30
0.0
 11
552.36057561630003
 21
80.260413549999996
 31
0.0
  0
LINE
  5
DE
  8
0
 62
     0
 10
552.36057561630003
 20
55.927991388900011
 30
0.0
 11
552.36057561630003
 21
67.031246565399996
 31
0.0
  0
LINE
  5
DF
  8
0
 62
     0
 10
552.36057561630003
 20
55.927991388900011
 30
0.0
 11
552.36057561630003
 21
52.927991388899997
 31
0.0
  0
SOLID
  5
E0
  8
0
 62
     0
 10
552.36057561630003
 20
55.927991388900011
 30
0.0
 11
554.23557561630003
 21
48.427991388900011
 31
0.0
 12
550.48557561630003
 22
48.427991388900011
 32
0.0
 13
552.36057561630003
 23
50.302991388900011
 33
0.0
  0
LINE
  5
E1
  8
0
 62
     0
 10
552.36057561630003
 20
59.827991388900003
 30
0.0
 11
552.36057561630003
 21
62.827991388900003
 31
0.0
  0
SOLID
  5
E2
  8
0
 62
     0
 10
552.36057561630003
 20
59.827991388900003
 30
0.0
 11
550.48557561630003
 21
67.327991388900003
 31
0.0
 12
554.23557561630003
 22
67.327991388900003
 32
0.0
 13
552.36057561630003
 23
65.452991388900003
 33
0.0
  0
ENDBLK
  5
E3
  8
0
  0
BLOCK
  8
0
  2
*X5
 70
     1
 10
0.0
 20
0.0
 30
0.0
  3
*X5
  1

  0
LINE
  5
EA
  8
ﾚｲﾔ_1
 10
1100.0
 20
-111.8602274772
 30
0.0
 11
1100.0
 21
21.256308981099998
 31
0.0
  0
LINE
  5
EB
  8
ﾚｲﾔ_1
 10
1110.0
 20
-111.8602274772
 30
0.0
 11
1110.0
 21
21.256308981099998
 31
0.0
  0
LINE
  5
EC
  8
ﾚｲﾔ_1
 10
1090.7736345919
 20
10.753461026
 30
0.0
 11
1101.2764825470999
 21
21.256308981099998
 31
0.0
  0
LINE
  5
ED
  8
ﾚｲﾔ_1
 10
1090.7736345919
 20
-9.2469125586000001
 30
0.0
 11
1111.6840972857001
 21
11.6635501352
 31
0.0
  0
LINE
  5
EE
  8
ﾚｲﾔ_1
 10
1090.7736345919
 20
-29.247286143099998
 30
0.0
 11
1111.6840972857001
 21
-8.3368234494000006
 31
0.0
  0
LINE
  5
EF
  8
ﾚｲﾔ_1
 10
1090.7736345919
 20
-49.247659727699997
 30
0.0
 11
1111.6840972857001
 21
-28.337197033900001
 31
0.0
  0
LINE
  5
F0
  8
ﾚｲﾔ_1
 10
1090.7736345919
 20
-69.248033312200008
 30
0.0
 11
1111.6840972857001
 21
-48.337570618500003
 31
0.0
  0
LINE
  5
F1
  8
ﾚｲﾔ_1
 10
1090.7736345919
 20
-89.248406896800006
 30
0.0
 11
1111.6840972857001
 21
-68.337944203000006
 31
0.0
  0
LINE
  5
F2
  8
ﾚｲﾔ_1
 10
1090.7736345919
 20
-109.2487804813
 30
0.0
 11
1111.6840972857001
 21
-88.338317787600005
 31
0.0
  0
LINE
  5
F3
  8
ﾚｲﾔ_1
 10
1108.1625611806001
 20
-111.8602274772
 30
0.0
 11
1111.6840972857001
 21
-108.3386913721
 31
0.0
  0
LINE
  5
F4
  8
ﾚｲﾔ_1
 10
1091.8785331204001
 20
-111.8602274772
 30
0.0
 11
1090.7736345919
 21
-110.7553289488
 31
0.0
  0
LINE
  5
F5
  8
ﾚｲﾔ_1
 10
1111.6840972857001
 20
-111.665418058
 30
0.0
 11
1090.7736345919
 21
-90.754955364200001
 31
0.0
  0
LINE
  5
F6
  8
ﾚｲﾔ_1
 10
1111.6840972857001
 20
-91.665044473400016
 30
0.0
 11
1090.7736345919
 21
-70.754581779700004
 31
0.0
  0
LINE
  5
F7
  8
ﾚｲﾔ_1
 10
1111.6840972857001
 20
-71.664670888800003
 30
0.0
 11
1090.7736345919
 21
-50.754208195099999
 31
0.0
  0
LINE
  5
F8
  8
ﾚｲﾔ_1
 10
1111.6840972857001
 20
-51.664297304299993
 30
0.0
 11
1090.7736345919
 21
-30.7538346105
 31
0.0
  0
LINE
  5
F9
  8
ﾚｲﾔ_1
 10
1111.6840972857001
 20
-31.663923719700001
 30
0.0
 11
1090.7736345919
 21
-10.753461026
 31
0.0
  0
LINE
  5
FA
  8
ﾚｲﾔ_1
 10
1111.6840972857001
 20
-11.6635501352
 30
0.0
 11
1090.7736345919
 21
9.2469125586000001
 31
0.0
  0
LINE
  5
FB
  8
ﾚｲﾔ_1
 10
1111.6840972857001
 20
8.3368234494000006
 30
0.0
 11
1098.7646117539
 21
21.256308981099998
 31
0.0
  0
ENDBLK
  5
FC
  8
0
  0
BLOCK
  8
0
  2
*X6
 70
     1
 10
0.0
 20
0.0
 30
0.0
  3
*X6
  1

  0
LINE
  5
15A
  8
ﾚｲﾔ_1
 10
1060.0
 20
-434.02702435219999
 30
0.0
 11
1060.0
 21
-370.52702435219999
 31
0.0
  0
LINE
  5
15B
  8
ﾚｲﾔ_1
 10
1080.0
 20
-434.02702435219999
 30
0.0
 11
1080.0
 21
-370.52702435219999
 31
0.0
  0
LINE
  5
15C
  8
ﾚｲﾔ_1
 10
1100.0
 20
-434.02702435219999
 30
0.0
 11
1100.0
 21
-370.52702435219999
 31
0.0
  0
LINE
  5
15D
  8
ﾚｲﾔ_1
 10
1050.0
 20
-434.02702435219999
 30
0.0
 11
1050.0
 21
-370.52702435219999
 31
0.0
  0
LINE
  5
15E
  8
ﾚｲﾔ_1
 10
1070.0
 20
-434.02702435219999
 30
0.0
 11
1070.0
 21
-370.52702435219999
 31
0.0
  0
LINE
  5
15F
  8
ﾚｲﾔ_1
 10
1090.0
 20
-434.02702435219999
 30
0.0
 11
1090.0
 21
-370.52702435219999
 31
0.0
  0
LINE
  5
160
  8
ﾚｲﾔ_1
 10
1049.9279774940001
 20
-390.0989205939
 30
0.0
 11
1069.4998737357
 21
-370.52702435219999
 31
0.0
  0
LINE
  5
161
  8
ﾚｲﾔ_1
 10
1049.9279774940001
 20
-410.09929417849992
 30
0.0
 11
1089.5002473203001
 21
-370.52702435219999
 31
0.0
  0
LINE
  5
162
  8
ﾚｲﾔ_1
 10
1049.9279774940001
 20
-430.09966776300001
 30
0.0
 11
1107.9279774940001
 21
-372.09966776300001
 31
0.0
  0
LINE
  5
163
  8
ﾚｲﾔ_1
 10
1066.0009944894
 20
-434.02702435219999
 30
0.0
 11
1107.9279774940001
 21
-392.10004134759998
 31
0.0
  0
LINE
  5
164
  8
ﾚｲﾔ_1
 10
1086.0013680740001
 20
-434.02702435219999
 30
0.0
 11
1107.9279774940001
 21
-412.10041493210002
 31
0.0
  0
LINE
  5
165
  8
ﾚｲﾔ_1
 10
1106.0017416584999
 20
-434.02702435219999
 30
0.0
 11
1107.9279774940001
 21
-432.10078851669988
 31
0.0
  0
LINE
  5
166
  8
ﾚｲﾔ_1
 10
1054.0386054733999
 20
-434.02702435219999
 30
0.0
 11
1049.9279774940001
 21
-429.91639637279991
 31
0.0
  0
LINE
  5
167
  8
ﾚｲﾔ_1
 10
1074.0389790579
 20
-434.02702435219999
 30
0.0
 11
1049.9279774940001
 21
-409.91602278829998
 31
0.0
  0
LINE
  5
168
  8
ﾚｲﾔ_1
 10
1094.0393526425
 20
-434.02702435219999
 30
0.0
 11
1049.9279774940001
 21
-389.91564920370001
 31
0.0
  0
LINE
  5
169
  8
ﾚｲﾔ_1
 10
1107.9279774940001
 20
-427.91527561919992
 30
0.0
 11
1050.5397262270999
 21
-370.52702435219999
 31
0.0
  0
LINE
  5
16A
  8
ﾚｲﾔ_1
 10
1107.9279774940001
 20
-407.91490203459989
 30
0.0
 11
1070.5400998115999
 21
-370.52702435219999
 31
0.0
  0
LINE
  5
16B
  8
ﾚｲﾔ_1
 10
1107.9279774940001
 20
-387.91452845010002
 30
0.0
 11
1090.5404733962
 21
-370.52702435219999
 31
0.0
  0
ENDBLK
  5
16C
  8
0
  0
BLOCK
  8
0
  2
BALLON3
 70
     0
 10
0.0
 20
0.0
 30
0.0
  3
BALLON3
  1

  0
INSERT
  5
172
  8
0
  6
CONTINUOUS
  2
*U48
 10
0.0
 20
0.0
 30
0.0
  0
CIRCLE
  5
173
  8
ﾚｲﾔ_1
 10
981.90982671719996
 20
-279.03551207049998
 30
0.0
 40
8.75
  0
LINE
  5
174
  8
寸法線
 10
996.49316005050002
 20
-279.03551207049998
 30
0.0
 11
990.65982671719985
 21
-279.03551207049998
 31
0.0
  0
LINE
  5
175
  8
寸法線
 10
1044.4661730487001
 20
-238.63698528969999
 30
0.0
 11
996.49316005050002
 21
-279.03551207049998
 31
0.0
  0
SOLID
  5
176
  8
寸法線
 10
1044.4661730487001
 20
-238.63698528969999
 30
0.0
 11
1038.9004546373001
 21
-245.61178124119999
 31
0.0
 12
1039.1118056628
 22
-243.1459485737
 32
0.0
 13
1039.1118056628
 23
-243.1459485737
 33
0.0
  0
SOLID
  5
177
  8
寸法線
 10
1039.1118056628
 20
-243.1459485737
 30
0.0
 11
1036.6459729953001
 21
-242.93459754829999
 31
0.0
 12
1044.4661730487001
 22
-238.63698528969999
 32
0.0
 13
1044.4661730487001
 23
-238.63698528969999
 33
0.0
  0
ENDBLK
  5
178
  8
0
  0
BLOCK
  8
0
  2
BALLON4
 70
     0
 10
0.0
 20
0.0
 30
0.0
  3
BALLON4
  1

  0
INSERT
  5
186
  8
0
  6
CONTINUOUS
  2
*U49
 10
0.0
 20
0.0
 30
0.0
  0
CIRCLE
  5
187
  8
ﾚｲﾔ_1
 10
981.90982671719996
 20
-456.44470299109997
 30
0.0
 40
8.75
  0
LINE
  5
188
  8
寸法線
 10
996.49316005050002
 20
-456.44470299109997
 30
0.0
 11
990.65982671719985
 21
-456.44470299109997
 31
0.0
  0
LINE
  5
189
  8
寸法線
 10
1043.6661730487001
 20
-430.67200861110001
 30
0.0
 11
996.49316005050002
 21
-456.44470299109997
 31
0.0
  0
SOLID
  5
18A
  8
寸法線
 10
1043.6661730487001
 20
-430.67200861110001
 30
0.0
 11
1036.8265036969999
 21
-436.40297041159999
 31
0.0
 12
1037.5232025011001
 22
-434.02818394199988
 32
0.0
 13
1037.5232025011001
 23
-434.02818394199988
 33
0.0
  0
SOLID
  5
18B
  8
寸法線
 10
1037.5232025011001
 20
-434.02818394199988
 30
0.0
 11
1035.1484160314999
 21
-433.33148513779992
 31
0.0
 12
1043.6661730487001
 22
-430.67200861110001
 32
0.0
 13
1043.6661730487001
 23
-430.67200861110001
 33
0.0
  0
ENDBLK
  5
18C
  8
0
  0
BLOCK
  8
0
  2
BALLON5
 70
     0
 10
0.0
 20
0.0
 30
0.0
  3
BALLON5
  1

  0
INSERT
  5
190
  8
0
  6
CONTINUOUS
  2
*U50
 10
0.0
 20
0.0
 30
0.0
  0
CIRCLE
  5
191
  8
ﾚｲﾔ_1
 10
981.90982671719996
 20
-365.14241277970001
 30
0.0
 40
8.75
  0
LINE
  5
192
  8
寸法線
 10
996.49316005050002
 20
-365.14241277970001
 30
0.0
 11
990.65982671719985
 21
-365.14241277970001
 31
0.0
  0
LINE
  5
193
  8
寸法線
 10
1044.2661730487
 20
-340.07200861109999
 30
0.0
 11
996.49316005050002
 21
-365.14241277970001
 31
0.0
  0
SOLID
  5
194
  8
寸法線
 10
1044.2661730487
 20
-340.07200861109999
 30
0.0
 11
1037.3314396440001
 21
-345.68756491530002
 31
0.0
 12
1038.0678309983
 22
-343.3247852444
 32
0.0
 13
1038.0678309983
 23
-343.3247852444
 33
0.0
  0
SOLID
  5
195
  8
寸法線
 10
1038.0678309983
 20
-343.3247852444
 30
0.0
 11
1035.7050513274
 21
-342.58839389000002
 31
0.0
 12
1044.2661730487
 22
-340.07200861109999
 32
0.0
 13
1044.2661730487
 23
-340.07200861109999
 33
0.0
  0
ENDBLK
  5
196
  8
0
  0
BLOCK
  8
0
  2
*D10
 70
     1
 10
0.0
 20
0.0
 30
0.0
  3
*D10
  1

  0
TEXT
  5
226
  8
0
 62
     0
 10
581.85540414679986
 20
-396.6865921033999
 30
0.0
 40
7.4965279578999988
  1
200
 50
90.0
  0
LINE
  5
227
  8
0
 62
     0
 10
638.60119909039986
 20
-340.07200861109999
 30
0.0
 11
583.67832084529994
 21
-340.07200861109999
 31
0.0
  0
LINE
  5
228
  8
0
 62
     0
 10
627.04182409040004
 20
-440.07200861109987
 30
0.0
 11
583.67832084529994
 21
-440.07200861109987
 31
0.0
  0
LINE
  5
229
  8
0
 62
     0
 10
584.17832084529994
 20
-340.07200861109999
 30
0.0
 11
584.17832084529994
 21
-379.04770279069999
 31
0.0
  0
LINE
  5
22A
  8
0
 62
     0
 10
584.17832084529994
 20
-340.07200861109999
 30
0.0
 11
584.17832084529994
 21
-401.09631443159998
 31
0.0
  0
LINE
  5
22B
  8
0
 62
     0
 10
584.17832084529994
 20
-440.07200861109987
 30
0.0
 11
584.17832084529994
 21
-379.04770279069999
 31
0.0
  0
LINE
  5
22C
  8
0
 62
     0
 10
584.17832084529994
 20
-440.07200861109987
 30
0.0
 11
584.17832084529994
 21
-401.09631443159998
 31
0.0
  0
LINE
  5
22D
  8
0
 62
     0
 10
584.17832084529994
 20
-440.07200861109987
 30
0.0
 11
584.17832084529994
 21
-437.07200861109987
 31
0.0
  0
SOLID
  5
22E
  8
0
 62
     0
 10
584.17832084529994
 20
-440.07200861109987
 30
0.0
 11
582.30332084529994
 21
-432.57200861109987
 31
0.0
 12
586.05332084529994
 22
-432.57200861109987
 32
0.0
 13
584.17832084529994
 23
-434.44700861109999
 33
0.0
  0
LINE
  5
22F
  8
0
 62
     0
 10
584.17832084529994
 20
-340.07200861109999
 30
0.0
 11
584.17832084529994
 21
-343.07200861109999
 31
0.0
  0
SOLID
  5
230
  8
0
 62
     0
 10
584.17832084529994
 20
-340.07200861109999
 30
0.0
 11
586.05332084529994
 21
-347.57200861109999
 31
0.0
 12
582.30332084529994
 22
-347.57200861109999
 32
0.0
 13
584.17832084529994
 23
-345.69700861109999
 33
0.0
  0
ENDBLK
  5
231
  8
0
  0
BLOCK
  8
0
  2
CLUMP0
 70
     0
 10
0.0
 20
0.0
 30
0.0
  3
CLUMP0
  1

  0
INSERT
  5
259
  8
0
  6
CONTINUOUS
  2
*U82
 10
0.0
 20
0.0
 30
0.0
  0
LINE
  5
25A
  8
ﾚｲﾔ_1
 10
863.34295043060001
 20
15.145962624199999
 30
0.0
 11
863.34295043060001
 21
-59.854037375799997
 31
0.0
  0
LINE
  5
25B
  8
ﾚｲﾔ_1
 10
861.3429504305999
 20
13.145962624199999
 30
0.0
 11
861.3429504305999
 21
-61.85403737579999
 31
0.0
  0
LINE
  5
25C
  8
ﾚｲﾔ_1
 10
859.34295043060001
 20
11.145962624199999
 30
0.0
 11
859.34295043060001
 21
-63.85403737579999
 31
0.0
  0
LINE
  5
25D
  8
ﾚｲﾔ_1
 10
857.34295043060001
 20
9.1459626241999992
 30
0.0
 11
857.34295043060001
 21
-65.854037375800004
 31
0.0
  0
LINE
  5
25E
  8
ﾚｲﾔ_1
 10
855.34295043060001
 20
7.1459626241999992
 30
0.0
 11
855.34295043060001
 21
-67.854037375800004
 31
0.0
  0
LINE
  5
25F
  8
ﾚｲﾔ_1
 10
851.3429504305999
 20
3.1459626242000001
 30
0.0
 11
851.3429504305999
 21
-71.854037375800004
 31
0.0
  0
LINE
  5
260
  8
ﾚｲﾔ_1
 10
849.34295043060001
 20
1.1459626242000001
 30
0.0
 11
849.34295043060001
 21
-73.854037375800004
 31
0.0
  0
LINE
  5
261
  8
ﾚｲﾔ_1
 10
847.34295043060001
 20
-0.8540373757999999
 30
0.0
 11
847.34295043060001
 21
-75.854037375800004
 31
0.0
  0
LINE
  5
262
  8
ﾚｲﾔ_1
 10
845.3429504305999
 20
-2.8540373757999991
 30
0.0
 11
845.3429504305999
 21
-77.854037375800004
 31
0.0
  0
LINE
  5
263
  8
ﾚｲﾔ_1
 10
853.3429504305999
 20
5.1459626242000001
 30
0.0
 11
853.3429504305999
 21
-69.854037375800004
 31
0.0
  0
ENDBLK
  5
264
  8
0
  0
BLOCK
  8
0
  2
*D12
 70
     1
 10
0.0
 20
0.0
 30
0.0
  3
*D12
  1

  0
TEXT
  5
26C
  8
0
 62
     0
 10
851.36441690459992
 20
106.3130798463
 30
0.0
 40
7.4965279578999988
  1
□75
  0
LINE
  5
26D
  8
0
 62
     0
 10
897.78386156099998
 20
54.427991388899997
 30
0.0
 11
897.78386156099998
 21
104.4901631478
 31
0.0
  0
LINE
  5
26E
  8
0
 62
     0
 10
822.58386156099994
 20
54.427991388899997
 30
0.0
 11
822.58386156099994
 21
104.4901631478
 31
0.0
  0
LINE
  5
26F
  8
0
 62
     0
 10
897.78386156099998
 20
103.9901631478
 30
0.0
 11
873.41302854560001
 21
103.9901631478
 31
0.0
  0
LINE
  5
270
  8
0
 62
     0
 10
897.78386156099998
 20
103.9901631478
 30
0.0
 11
846.9546945763999
 21
103.9901631478
 31
0.0
  0
LINE
  5
271
  8
0
 62
     0
 10
822.58386156099994
 20
103.9901631478
 30
0.0
 11
873.41302854560001
 21
103.9901631478
 31
0.0
  0
LINE
  5
272
  8
0
 62
     0
 10
822.58386156099994
 20
103.9901631478
 30
0.0
 11
846.9546945763999
 21
103.9901631478
 31
0.0
  0
LINE
  5
273
  8
0
 62
     0
 10
822.58386156099994
 20
103.9901631478
 30
0.0
 11
825.58386156100005
 21
103.9901631478
 31
0.0
  0
SOLID
  5
274
  8
0
 62
     0
 10
822.58386156099994
 20
103.9901631478
 30
0.0
 11
830.08386156100005
 21
105.8651631478
 31
0.0
 12
830.08386156100005
 22
102.1151631478
 32
0.0
 13
828.20886156100005
 23
103.9901631478
 33
0.0
  0
LINE
  5
275
  8
0
 62
     0
 10
897.78386156099998
 20
103.9901631478
 30
0.0
 11
894.78386156100009
 21
103.9901631478
 31
0.0
  0
SOLID
  5
276
  8
0
 62
     0
 10
897.78386156099998
 20
103.9901631478
 30
0.0
 11
890.28386156100009
 21
102.1151631478
 31
0.0
 12
890.28386156100009
 22
105.8651631478
 32
0.0
 13
892.15886156100009
 23
103.9901631478
 33
0.0
  0
ENDBLK
  5
277
  8
0
  0
BLOCK
  8
0
  2
*D13
 70
     1
 10
0.0
 20
0.0
 30
0.0
  3
*D13
  1

  0
TEXT
  5
27D
  8
0
 62
     0
 10
582.28587440239994
 20
22.108546732499999
 30
0.0
 40
7.4965279578999988
  1
(50)
 50
90.0
  0
LINE
  5
27E
  8
0
 62
     0
 10
625.24182409039986
 20
55.927991388900011
 30
0.0
 11
584.10879110089979
 21
55.927991388900011
 31
0.0
  0
LINE
  5
27F
  8
0
 62
     0
 10
638.60119909039986
 20
5.9279913888999989
 30
0.0
 11
584.10879110089979
 21
5.9279913888999989
 31
0.0
  0
LINE
  5
280
  8
0
 62
     0
 10
584.60879110089991
 20
55.927991388900011
 30
0.0
 11
584.60879110089991
 21
44.157158373400001
 31
0.0
  0
LINE
  5
281
  8
0
 62
     0
 10
584.60879110089991
 20
55.927991388900011
 30
0.0
 11
584.60879110089991
 21
17.698824404300002
 31
0.0
  0
LINE
  5
282
  8
0
 62
     0
 10
584.60879110089991
 20
5.9279913888999989
 30
0.0
 11
584.60879110089991
 21
44.157158373400001
 31
0.0
  0
LINE
  5
283
  8
0
 62
     0
 10
584.60879110089991
 20
5.9279913888999989
 30
0.0
 11
584.60879110089991
 21
17.698824404300002
 31
0.0
  0
LINE
  5
284
  8
0
 62
     0
 10
584.60879110089991
 20
5.9279913888999989
 30
0.0
 11
584.60879110089991
 21
8.9279913889000007
 31
0.0
  0
SOLID
  5
285
  8
0
 62
     0
 10
584.60879110089991
 20
5.9279913888999989
 30
0.0
 11
582.73379110089979
 21
13.427991388900001
 31
0.0
 12
586.48379110089991
 22
13.427991388900001
 32
0.0
 13
584.60879110089991
 23
11.552991388900001
 33
0.0
  0
LINE
  5
286
  8
0
 62
     0
 10
584.60879110089991
 20
55.927991388900011
 30
0.0
 11
584.60879110089991
 21
52.927991388899997
 31
0.0
  0
SOLID
  5
287
  8
0
 62
     0
 10
584.60879110089991
 20
55.927991388900011
 30
0.0
 11
586.48379110089991
 21
48.427991388900011
 31
0.0
 12
582.73379110089979
 22
48.427991388900011
 32
0.0
 13
584.60879110089991
 23
50.302991388900011
 33
0.0
  0
ENDBLK
  5
288
  8
0
  0
BLOCK
  8
0
  2
*D14
 70
     1
 10
0.0
 20
0.0
 30
0.0
  3
*D14
  1

  0
TEXT
  5
292
  8
0
 62
     0
 10
652.52237943399984
 20
103.88945026259999
 30
0.0
 40
7.4965279578999988
  1
□70
  0
LINE
  5
293
  8
0
 62
     0
 10
696.34182409039977
 20
38.927991388899997
 30
0.0
 11
696.34182409039977
 21
102.0665335642
 31
0.0
  0
LINE
  5
294
  8
0
 62
     0
 10
626.3418240904
 20
38.927991388899997
 30
0.0
 11
626.3418240904
 21
102.0665335642
 31
0.0
  0
LINE
  5
295
  8
0
 62
     0
 10
696.34182409039977
 20
101.5665335642
 30
0.0
 11
674.57099107490001
 21
101.5665335642
 31
0.0
  0
LINE
  5
296
  8
0
 62
     0
 10
696.34182409039977
 20
101.5665335642
 30
0.0
 11
648.11265710580005
 21
101.5665335642
 31
0.0
  0
LINE
  5
297
  8
0
 62
     0
 10
626.3418240904
 20
101.5665335642
 30
0.0
 11
674.57099107490001
 21
101.5665335642
 31
0.0
  0
LINE
  5
298
  8
0
 62
     0
 10
626.3418240904
 20
101.5665335642
 30
0.0
 11
648.11265710580005
 21
101.5665335642
 31
0.0
  0
LINE
  5
299
  8
0
 62
     0
 10
626.3418240904
 20
101.5665335642
 30
0.0
 11
629.34182409039988
 21
101.5665335642
 31
0.0
  0
SOLID
  5
29A
  8
0
 62
     0
 10
626.3418240904
 20
101.5665335642
 30
0.0
 11
633.84182409039988
 21
103.4415335642
 31
0.0
 12
633.84182409039988
 22
99.691533564200014
 32
0.0
 13
631.96682409039988
 23
101.5665335642
 33
0.0
  0
LINE
  5
29B
  8
0
 62
     0
 10
696.34182409039977
 20
101.5665335642
 30
0.0
 11
693.34182409039977
 21
101.5665335642
 31
0.0
  0
SOLID
  5
29C
  8
0
 62
     0
 10
696.34182409039977
 20
101.5665335642
 30
0.0
 11
688.84182409039977
 21
99.691533564200014
 31
0.0
 12
688.84182409039977
 22
103.4415335642
 32
0.0
 13
690.71682409039988
 23
101.5665335642
 33
0.0
  0
ENDBLK
  5
29D
  8
0
  0
BLOCK
  8
0
  2
*X15
 70
     1
 10
0.0
 20
0.0
 30
0.0
  3
*X15
  1

  0
LINE
  5
2A4
  8
ﾚｲﾔ_1
 10
1060.0
 20
26.506308981099998
 30
0.0
 11
1060.0
 21
51.006308981099998
 31
0.0
  0
LINE
  5
2A5
  8
ﾚｲﾔ_1
 10
1080.0
 20
26.506308981099998
 30
0.0
 11
1080.0
 21
51.006308981099998
 31
0.0
  0
LINE
  5
2A6
  8
ﾚｲﾔ_1
 10
1100.0
 20
26.506308981099998
 30
0.0
 11
1100.0
 21
51.006308981099998
 31
0.0
  0
LINE
  5
2A7
  8
ﾚｲﾔ_1
 10
1050.0
 20
26.506308981099998
 30
0.0
 11
1050.0
 21
51.006308981099998
 31
0.0
  0
LINE
  5
2A8
  8
ﾚｲﾔ_1
 10
1070.0
 20
26.506308981099998
 30
0.0
 11
1070.0
 21
51.006308981099998
 31
0.0
  0
LINE
  5
2A9
  8
ﾚｲﾔ_1
 10
1090.0
 20
26.506308981099998
 30
0.0
 11
1090.0
 21
51.006308981099998
 31
0.0
  0
LINE
  5
2AA
  8
ﾚｲﾔ_1
 10
1110.0
 20
26.506308981099998
 30
0.0
 11
1110.0
 21
51.006308981099998
 31
0.0
  0
LINE
  5
2AB
  8
ﾚｲﾔ_1
 10
1048.4279774940001
 20
48.409298266299999
 30
0.0
 11
1051.0249882088999
 21
51.006308981099998
 31
0.0
  0
LINE
  5
2AC
  8
ﾚｲﾔ_1
 10
1048.4279774940001
 20
28.4089246817
 30
0.0
 11
1071.0253617934
 21
51.006308981099998
 31
0.0
  0
LINE
  5
2AD
  8
ﾚｲﾔ_1
 10
1066.525735378
 20
26.506308981099998
 30
0.0
 11
1091.025735378
 21
51.006308981099998
 31
0.0
  0
LINE
  5
2AE
  8
ﾚｲﾔ_1
 10
1086.5261089625001
 20
26.506308981099998
 30
0.0
 11
1111.0261089625001
 21
51.006308981099998
 31
0.0
  0
LINE
  5
2AF
  8
ﾚｲﾔ_1
 10
1106.5264825470999
 20
26.506308981099998
 30
0.0
 11
1111.4279774940001
 21
31.407803928100002
 31
0.0
  0
LINE
  5
2B0
  8
ﾚｲﾔ_1
 10
1053.5138645848001
 20
26.506308981099998
 30
0.0
 11
1048.4279774940001
 21
31.592196071899998
 31
0.0
  0
LINE
  5
2B1
  8
ﾚｲﾔ_1
 10
1073.5142381694
 20
26.506308981099998
 30
0.0
 11
1049.0142381694
 21
51.006308981099998
 31
0.0
  0
LINE
  5
2B2
  8
ﾚｲﾔ_1
 10
1093.5146117539
 20
26.506308981099998
 30
0.0
 11
1069.0146117539
 21
51.006308981099998
 31
0.0
  0
LINE
  5
2B3
  8
ﾚｲﾔ_1
 10
1111.4279774940001
 20
28.593316825599999
 30
0.0
 11
1089.0149853385001
 21
51.006308981099998
 31
0.0
  0
LINE
  5
2B4
  8
ﾚｲﾔ_1
 10
1111.4279774940001
 20
48.593690410100002
 30
0.0
 11
1109.0153589229999
 21
51.006308981099998
 31
0.0
  0
ENDBLK
  5
2B5
  8
0
  0
BLOCK
  8
0
  2
BALLON6
 70
     0
 10
0.0
 20
0.0
 30
0.0
  3
BALLON6
  1

  0
INSERT
  5
2B9
  8
0
  6
CONTINUOUS
  2
*U83
 10
0.0
 20
0.0
 30
0.0
  0
CIRCLE
  5
2BA
  8
ﾚｲﾔ_1
 10
981.90982671719996
 20
22.607684659699999
 30
0.0
 40
8.75
  0
LINE
  5
2BB
  8
寸法線
 10
996.49316005050002
 20
22.607684659699999
 30
0.0
 11
990.65982671719985
 21
22.607684659699999
 31
0.0
  0
LINE
  5
2BC
  8
寸法線
 10
1041.8661730486999
 20
46.927991388899997
 30
0.0
 11
996.49316005050002
 21
22.607684659699999
 31
0.0
  0
SOLID
  5
2BD
  8
寸法線
 10
1041.8661730486999
 20
46.927991388899997
 30
0.0
 11
1034.9809066862999
 21
41.251891749199999
 31
0.0
 12
1035.6965682099999
 22
43.621032644899991
 32
0.0
 13
1035.6965682099999
 23
43.621032644899991
 33
0.0
  0
SOLID
  5
2BE
  8
寸法線
 10
1035.6965682099999
 20
43.621032644899991
 30
0.0
 11
1033.3274273144
 21
44.33669416859999
 31
0.0
 12
1041.8661730486999
 22
46.927991388899997
 32
0.0
 13
1041.8661730486999
 23
46.927991388899997
 33
0.0
  0
ENDBLK
  5
2BF
  8
0
  0
BLOCK
  8
0
  2
CLUMP1
 70
     0
 10
0.0
 20
0.0
 30
0.0
  3
CLUMP1
  1

  0
LINE
  5
2C8
  8
図枠
 10
963.8214861237999
 20
-625.62512839589999
 30
0.0
 11
963.8214861237999
 21
-613.12512839589999
 31
0.0
  0
LINE
  5
2C9
  8
図枠
 10
816.3214861237999
 20
-625.62512839589999
 30
0.0
 11
816.3214861237999
 21
-613.12512839589999
 31
0.0
  0
LINE
  5
2CA
  8
図枠
 10
838.8214861237999
 20
-625.62512839589999
 30
0.0
 11
838.8214861237999
 21
-613.12512839589999
 31
0.0
  0
LINE
  5
2CB
  8
図枠
 10
1101.3214861238
 20
-625.62512839589999
 30
0.0
 11
1101.3214861238
 21
-613.12512839589999
 31
0.0
  0
LINE
  5
2CC
  8
図枠
 10
1078.8214861238
 20
-625.62512839589999
 30
0.0
 11
1078.8214861238
 21
-613.12512839589999
 31
0.0
  0
LINE
  5
2CD
  8
図枠
 10
1178.8214861238
 20
-613.12512839589999
 30
0.0
 11
816.3214861237999
 21
-613.12512839589999
 31
0.0
  0
ENDBLK
  5
2CE
  8
0
  0
BLOCK
  8
0
  2
CLUMP2
 70
     0
 10
0.0
 20
0.0
 30
0.0
  3
CLUMP2
  1

  0
LINE
  5
2D2
  8
図枠
 10
963.8214861237999
 20
-613.12512839589999
 30
0.0
 11
963.8214861237999
 21
-600.62512839589999
 31
0.0
  0
LINE
  5
2D3
  8
図枠
 10
816.3214861237999
 20
-613.12512839589999
 30
0.0
 11
816.3214861237999
 21
-600.62512839589999
 31
0.0
  0
LINE
  5
2D4
  8
図枠
 10
838.8214861237999
 20
-613.12512839589999
 30
0.0
 11
838.8214861237999
 21
-600.62512839589999
 31
0.0
  0
LINE
  5
2D5
  8
図枠
 10
1101.3214861238
 20
-613.12512839589999
 30
0.0
 11
1101.3214861238
 21
-600.62512839589999
 31
0.0
  0
LINE
  5
2D6
  8
図枠
 10
1078.8214861238
 20
-613.12512839589999
 30
0.0
 11
1078.8214861238
 21
-600.62512839589999
 31
0.0
  0
LINE
  5
2D7
  8
図枠
 10
1178.8214861238
 20
-600.62512839589999
 30
0.0
 11
816.3214861237999
 21
-600.62512839589999
 31
0.0
  0
ENDBLK
  5
2D8
  8
0
  0
BLOCK
  8
0
  2
CLUMP3
 70
     0
 10
0.0
 20
0.0
 30
0.0
  3
CLUMP3
  1

  0
LINE
  5
2DC
  8
図枠
 10
963.8214861237999
 20
-563.12512839589999
 30
0.0
 11
963.8214861237999
 21
-550.62512839589999
 31
0.0
  0
LINE
  5
2DD
  8
図枠
 10
816.3214861237999
 20
-563.12512839589999
 30
0.0
 11
816.3214861237999
 21
-550.62512839589999
 31
0.0
  0
LINE
  5
2DE
  8
図枠
 10
838.8214861237999
 20
-563.12512839589999
 30
0.0
 11
838.8214861237999
 21
-550.62512839589999
 31
0.0
  0
LINE
  5
2DF
  8
図枠
 10
1101.3214861238
 20
-563.12512839589999
 30
0.0
 11
1101.3214861238
 21
-550.62512839589999
 31
0.0
  0
LINE
  5
2E0
  8
図枠
 10
1078.8214861238
 20
-563.12512839589999
 30
0.0
 11
1078.8214861238
 21
-550.62512839589999
 31
0.0
  0
LINE
  5
2E1
  8
図枠
 10
1178.8214861238
 20
-550.62512839589999
 30
0.0
 11
816.3214861237999
 21
-550.62512839589999
 31
0.0
  0
ENDBLK
  5
2E2
  8
0
  0
BLOCK
  8
0
  2
CLUMP4
 70
     0
 10
0.0
 20
0.0
 30
0.0
  3
CLUMP4
  1

  0
LINE
  5
2E6
  8
図枠
 10
963.8214861237999
 20
-588.12512839589999
 30
0.0
 11
963.8214861237999
 21
-575.62512839589999
 31
0.0
  0
LINE
  5
2E7
  8
図枠
 10
816.3214861237999
 20
-588.12512839589999
 30
0.0
 11
816.3214861237999
 21
-575.62512839589999
 31
0.0
  0
LINE
  5
2E8
  8
図枠
 10
838.8214861237999
 20
-588.12512839589999
 30
0.0
 11
838.8214861237999
 21
-575.62512839589999
 31
0.0
  0
LINE
  5
2E9
  8
図枠
 10
1101.3214861238
 20
-588.12512839589999
 30
0.0
 11
1101.3214861238
 21
-575.62512839589999
 31
0.0
  0
LINE
  5
2EA
  8
図枠
 10
1078.8214861238
 20
-588.12512839589999
 30
0.0
 11
1078.8214861238
 21
-575.62512839589999
 31
0.0
  0
LINE
  5
2EB
  8
図枠
 10
1178.8214861238
 20
-575.62512839589999
 30
0.0
 11
816.3214861237999
 21
-575.62512839589999
 31
0.0
  0
ENDBLK
  5
2EC
  8
0
  0
BLOCK
  8
0
  2
CLUMP5
 70
     0
 10
0.0
 20
0.0
 30
0.0
  3
CLUMP5
  1

  0
LINE
  5
2F0
  8
図枠
 10
963.8214861237999
 20
-575.62512839589999
 30
0.0
 11
963.8214861237999
 21
-563.12512839589999
 31
0.0
  0
LINE
  5
2F1
  8
図枠
 10
816.3214861237999
 20
-575.62512839589999
 30
0.0
 11
816.3214861237999
 21
-563.12512839589999
 31
0.0
  0
LINE
  5
2F2
  8
図枠
 10
838.8214861237999
 20
-575.62512839589999
 30
0.0
 11
838.8214861237999
 21
-563.12512839589999
 31
0.0
  0
LINE
  5
2F3
  8
図枠
 10
1101.3214861238
 20
-575.62512839589999
 30
0.0
 11
1101.3214861238
 21
-563.12512839589999
 31
0.0
  0
LINE
  5
2F4
  8
図枠
 10
1078.8214861238
 20
-575.62512839589999
 30
0.0
 11
1078.8214861238
 21
-563.12512839589999
 31
0.0
  0
LINE
  5
2F5
  8
図枠
 10
1178.8214861238
 20
-563.12512839589999
 30
0.0
 11
816.3214861237999
 21
-563.12512839589999
 31
0.0
  0
ENDBLK
  5
2F6
  8
0
  0
BLOCK
  8
0
  2
CLUMP6
 70
     0
 10
0.0
 20
0.0
 30
0.0
  3
CLUMP6
  1

  0
LINE
  5
2FA
  8
図枠
 10
963.8214861237999
 20
-600.62512839589999
 30
0.0
 11
963.8214861237999
 21
-588.12512839589999
 31
0.0
  0
LINE
  5
2FB
  8
図枠
 10
816.3214861237999
 20
-600.62512839589999
 30
0.0
 11
816.3214861237999
 21
-588.12512839589999
 31
0.0
  0
LINE
  5
2FC
  8
図枠
 10
838.8214861237999
 20
-600.62512839589999
 30
0.0
 11
838.8214861237999
 21
-588.12512839589999
 31
0.0
  0
LINE
  5
2FD
  8
図枠
 10
1101.3214861238
 20
-600.62512839589999
 30
0.0
 11
1101.3214861238
 21
-588.12512839589999
 31
0.0
  0
LINE
  5
2FE
  8
図枠
 10
1078.8214861238
 20
-600.62512839589999
 30
0.0
 11
1078.8214861238
 21
-588.12512839589999
 31
0.0
  0
LINE
  5
2FF
  8
図枠
 10
1178.8214861238
 20
-588.12512839589999
 30
0.0
 11
816.3214861237999
 21
-588.12512839589999
 31
0.0
  0
ENDBLK
  5
300
  8
0
  0
BLOCK
  8
0
  2
*X23
 70
     1
 10
0.0
 20
0.0
 30
0.0
  3
*X23
  1

  0
LINE
  5
317
  8
ﾚｲﾔ_1
 10
1060.0
 20
-320.16999310220001
 30
0.0
 11
1060.0
 21
-130.08340456049999
 31
0.0
  0
LINE
  5
318
  8
ﾚｲﾔ_1
 10
1050.0
 20
-320.16999310220001
 30
0.0
 11
1050.0
 21
-130.08340456049999
 31
0.0
  0
LINE
  5
319
  8
ﾚｲﾔ_1
 10
1045.4661730487001
 20
-134.55586844000001
 30
0.0
 11
1049.9386369281999
 21
-130.08340456049999
 31
0.0
  0
LINE
  5
31A
  8
ﾚｲﾔ_1
 10
1045.4661730487001
 20
-154.55624202460001
 30
0.0
 11
1062.2661730487
 21
-137.7562420246
 31
0.0
  0
LINE
  5
31B
  8
ﾚｲﾔ_1
 10
1045.4661730487001
 20
-174.55661560909999
 30
0.0
 11
1062.2661730487
 21
-157.75661560910001
 31
0.0
  0
LINE
  5
31C
  8
ﾚｲﾔ_1
 10
1045.4661730487001
 20
-194.55698919369999
 30
0.0
 11
1062.2661730487
 21
-177.75698919369989
 31
0.0
  0
LINE
  5
31D
  8
ﾚｲﾔ_1
 10
1045.4661730487001
 20
-214.5573627782
 30
0.0
 11
1062.2661730487
 21
-197.75736277819999
 31
0.0
  0
LINE
  5
31E
  8
ﾚｲﾔ_1
 10
1045.4661730487001
 20
-234.5577363628
 30
0.0
 11
1062.2661730487
 21
-217.75773636279999
 31
0.0
  0
LINE
  5
31F
  8
ﾚｲﾔ_1
 10
1045.4661730487001
 20
-254.55810994730001
 30
0.0
 11
1062.2661730487
 21
-237.7581099473
 31
0.0
  0
LINE
  5
320
  8
ﾚｲﾔ_1
 10
1045.4661730487001
 20
-274.55848353189998
 30
0.0
 11
1062.2661730487
 21
-257.75848353190003
 31
0.0
  0
LINE
  5
321
  8
ﾚｲﾔ_1
 10
1045.4661730487001
 20
-294.55885711640002
 30
0.0
 11
1062.2661730487
 21
-277.75885711640001
 31
0.0
  0
LINE
  5
322
  8
ﾚｲﾔ_1
 10
1045.4661730487001
 20
-314.55923070099999
 30
0.0
 11
1062.2661730487
 21
-297.75923070099998
 31
0.0
  0
LINE
  5
323
  8
ﾚｲﾔ_1
 10
1059.8557842320999
 20
-320.16999310220001
 30
0.0
 11
1062.2661730487
 21
-317.75960428560001
 31
0.0
  0
LINE
  5
324
  8
ﾚｲﾔ_1
 10
1060.1838157307
 20
-320.16999310220001
 30
0.0
 11
1045.4661730487001
 21
-305.45235042019999
 31
0.0
  0
LINE
  5
325
  8
ﾚｲﾔ_1
 10
1062.2661730487
 20
-302.25197683560009
 30
0.0
 11
1045.4661730487001
 21
-285.45197683560002
 31
0.0
  0
LINE
  5
326
  8
ﾚｲﾔ_1
 10
1062.2661730487
 20
-282.25160325109999
 30
0.0
 11
1045.4661730487001
 21
-265.45160325109998
 31
0.0
  0
LINE
  5
327
  8
ﾚｲﾔ_1
 10
1062.2661730487
 20
-262.25122966650002
 30
0.0
 11
1045.4661730487001
 21
-245.45122966650001
 31
0.0
  0
LINE
  5
328
  8
ﾚｲﾔ_1
 10
1062.2661730487
 20
-242.25085608200001
 30
0.0
 11
1045.4661730487001
 21
-225.450856082
 31
0.0
  0
LINE
  5
329
  8
ﾚｲﾔ_1
 10
1062.2661730487
 20
-222.25048249739999
 30
0.0
 11
1045.4661730487001
 21
-205.4504824974
 31
0.0
  0
LINE
  5
32A
  8
ﾚｲﾔ_1
 10
1062.2661730487
 20
-202.2501089129
 30
0.0
 11
1045.4661730487001
 21
-185.45010891289999
 31
0.0
  0
LINE
  5
32B
  8
ﾚｲﾔ_1
 10
1062.2661730487
 20
-182.24973532830001
 30
0.0
 11
1045.4661730487001
 21
-165.44973532829999
 31
0.0
  0
LINE
  5
32C
  8
ﾚｲﾔ_1
 10
1062.2661730487
 20
-162.24936174379999
 30
0.0
 11
1045.4661730487001
 21
-145.44936174380001
 31
0.0
  0
LINE
  5
32D
  8
ﾚｲﾔ_1
 10
1062.2661730487
 20
-142.2489881592
 30
0.0
 11
1050.1005894499999
 21
-130.08340456049999
 31
0.0
  0
ENDBLK
  5
32E
  8
0
  0
BLOCK
  8
0
  2
*D24
 70
     1
 10
0.0
 20
0.0
 30
0.0
  3
*D24
  1

  0
TEXT
  5
33D
  8
0
 62
     0
 10
549.84928611509986
 20
-211.57781677080001
 30
0.0
 40
7.4965279578999988
  1
900
 50
90.0
  0
LINE
  5
33E
  8
0
 62
     0
 10
627.04182409040004
 20
55.927991388900011
 30
0.0
 11
551.67220281349989
 21
55.927991388900011
 31
0.0
  0
LINE
  5
33F
  8
0
 62
     0
 10
627.04182409040004
 20
-440.07200861109987
 30
0.0
 11
551.67220281349989
 21
-440.07200861109987
 31
0.0
  0
LINE
  5
340
  8
0
 62
     0
 10
552.17220281350001
 20
55.927991388900011
 30
0.0
 11
552.17220281350001
 21
-193.93892745799999
 31
0.0
  0
LINE
  5
341
  8
0
 62
     0
 10
552.17220281350001
 20
55.927991388900011
 30
0.0
 11
552.17220281350001
 21
-215.987539099
 31
0.0
  0
LINE
  5
342
  8
0
 62
     0
 10
552.17220281350001
 20
-440.07200861109987
 30
0.0
 11
552.17220281350001
 21
-193.93892745799999
 31
0.0
  0
LINE
  5
343
  8
0
 62
     0
 10
552.17220281350001
 20
-440.07200861109987
 30
0.0
 11
552.17220281350001
 21
-215.987539099
 31
0.0
  0
LINE
  5
344
  8
0
 62
     0
 10
552.17220281350001
 20
-440.07200861109987
 30
0.0
 11
552.17220281350001
 21
-437.07200861109987
 31
0.0
  0
SOLID
  5
345
  8
0
 62
     0
 10
552.17220281350001
 20
-440.07200861109987
 30
0.0
 11
550.29720281349989
 21
-432.57200861109987
 31
0.0
 12
554.04720281350001
 22
-432.57200861109987
 32
0.0
 13
552.17220281350001
 23
-434.44700861109999
 33
0.0
  0
LINE
  5
346
  8
0
 62
     0
 10
552.17220281350001
 20
55.927991388900011
 30
0.0
 11
552.17220281350001
 21
52.927991388899997
 31
0.0
  0
SOLID
  5
347
  8
0
 62
     0
 10
552.17220281350001
 20
55.927991388900011
 30
0.0
 11
554.04720281350001
 21
48.427991388900011
 31
0.0
 12
550.29720281349989
 22
48.427991388900011
 32
0.0
 13
552.17220281350001
 23
50.302991388900011
 33
0.0
  0
ENDBLK
  5
348
  8
0
  0
BLOCK
  8
0
  2
*D25
 70
     1
 10
0.0
 20
0.0
 30
0.0
  3
*D25
  1

  0
TEXT
  5
34C
  8
0
 62
     0
 10
582.03244804129986
 20
-178.7462794198
 30
0.0
 40
7.4965279578999988
  1
650
 50
90.0
  0
LINE
  5
34D
  8
0
 62
     0
 10
638.60119909039986
 20
5.9279913888999989
 30
0.0
 11
583.85536473980005
 21
5.9279913888999989
 31
0.0
  0
LINE
  5
34E
  8
0
 62
     0
 10
638.60119909039986
 20
-340.07200861109999
 30
0.0
 11
583.85536473980005
 21
-340.07200861109999
 31
0.0
  0
LINE
  5
34F
  8
0
 62
     0
 10
584.35536473980005
 20
5.9279913888999989
 30
0.0
 11
584.35536473980005
 21
-161.1073901071
 31
0.0
  0
LINE
  5
350
  8
0
 62
     0
 10
584.35536473980005
 20
5.9279913888999989
 30
0.0
 11
584.35536473980005
 21
-183.15600174799999
 31
0.0
  0
LINE
  5
351
  8
0
 62
     0
 10
584.35536473980005
 20
-340.07200861109999
 30
0.0
 11
584.35536473980005
 21
-161.1073901071
 31
0.0
  0
LINE
  5
352
  8
0
 62
     0
 10
584.35536473980005
 20
-340.07200861109999
 30
0.0
 11
584.35536473980005
 21
-183.15600174799999
 31
0.0
  0
LINE
  5
353
  8
0
 62
     0
 10
584.35536473980005
 20
-340.07200861109999
 30
0.0
 11
584.35536473980005
 21
-337.07200861109999
 31
0.0
  0
SOLID
  5
354
  8
0
 62
     0
 10
584.35536473980005
 20
-340.07200861109999
 30
0.0
 11
582.48036473980005
 21
-332.57200861109999
 31
0.0
 12
586.23036473980005
 22
-332.57200861109999
 32
0.0
 13
584.35536473980005
 23
-334.44700861109999
 33
0.0
  0
LINE
  5
355
  8
0
 62
     0
 10
584.35536473980005
 20
5.9279913888999989
 30
0.0
 11
584.35536473980005
 21
2.9279913888999989
 31
0.0
  0
SOLID
  5
356
  8
0
 62
     0
 10
584.35536473980005
 20
5.9279913888999989
 30
0.0
 11
586.23036473980005
 21
-1.5720086111
 31
0.0
 12
582.48036473980005
 22
-1.5720086111
 32
0.0
 13
584.35536473980005
 23
0.3029913889
 33
0.0
  0
ENDBLK
  5
357
  8
0
  0
BLOCK
  8
0
  2
*X26
 70
     1
 10
0.0
 20
0.0
 30
0.0
  3
*X26
  1

  0
LINE
  5
37D
  8
ﾚｲﾔ_1
 10
1100.0
 20
-373.74369101889999
 30
0.0
 11
1100.0
 21
-137.30983685219999
 31
0.0
  0
LINE
  5
37E
  8
ﾚｲﾔ_1
 10
1090.0
 20
-373.74369101889999
 30
0.0
 11
1090.0
 21
-137.30983685219999
 31
0.0
  0
LINE
  5
37F
  8
ﾚｲﾔ_1
 10
1088.4362932643
 20
-151.5868689781
 30
0.0
 11
1102.7133253902
 21
-137.30983685219999
 31
0.0
  0
LINE
  5
380
  8
ﾚｲﾔ_1
 10
1088.4362932643
 20
-171.58724256260001
 30
0.0
 11
1108.9279774939989
 21
-151.0955583329
 31
0.0
  0
LINE
  5
381
  8
ﾚｲﾔ_1
 10
1088.4362932643
 20
-191.58761614720001
 30
0.0
 11
1108.9279774939989
 21
-171.0959319175
 31
0.0
  0
LINE
  5
382
  8
ﾚｲﾔ_1
 10
1088.4362932643
 20
-211.58798973169999
 30
0.0
 11
1108.9279774939989
 21
-191.09630550200001
 31
0.0
  0
LINE
  5
383
  8
ﾚｲﾔ_1
 10
1088.4362932643
 20
-231.58836331629999
 30
0.0
 11
1108.9279774939989
 21
-211.09667908660001
 31
0.0
  0
LINE
  5
384
  8
ﾚｲﾔ_1
 10
1088.4362932643
 20
-251.5887369008
 30
0.0
 11
1108.9279774939989
 21
-231.09705267109999
 31
0.0
  0
LINE
  5
385
  8
ﾚｲﾔ_1
 10
1088.4362932643
 20
-271.5891104854
 30
0.0
 11
1108.9279774939989
 21
-251.09742625569999
 31
0.0
  0
LINE
  5
386
  8
ﾚｲﾔ_1
 10
1088.4362932643
 20
-291.58948407000003
 30
0.0
 11
1108.9279774939989
 21
-271.09779984020003
 31
0.0
  0
LINE
  5
387
  8
ﾚｲﾔ_1
 10
1088.4362932643
 20
-311.58985765450001
 30
0.0
 11
1108.9279774939989
 21
-291.0981734248
 31
0.0
  0
LINE
  5
388
  8
ﾚｲﾔ_1
 10
1088.4362932643
 20
-331.59023123909998
 30
0.0
 11
1108.9279774939989
 21
-311.09854700940002
 31
0.0
  0
LINE
  5
389
  8
ﾚｲﾔ_1
 10
1088.4362932643
 20
-351.59060482360002
 30
0.0
 11
1108.9279774939989
 21
-331.0989205939
 31
0.0
  0
LINE
  5
38A
  8
ﾚｲﾔ_1
 10
1088.4362932643
 20
-371.59097840819999
 30
0.0
 11
1108.9279774939989
 21
-351.09929417849997
 31
0.0
  0
LINE
  5
38B
  8
ﾚｲﾔ_1
 10
1106.2839542382001
 20
-373.74369101889999
 30
0.0
 11
1108.9279774939989
 21
-371.09966776300001
 31
0.0
  0
LINE
  5
38C
  8
ﾚｲﾔ_1
 10
1093.7571400628001
 20
-373.74369101889999
 30
0.0
 11
1088.4362932643
 21
-368.42284422030002
 31
0.0
  0
LINE
  5
38D
  8
ﾚｲﾔ_1
 10
1108.9279774939989
 20
-368.91415486550011
 30
0.0
 11
1088.4362932643
 21
-348.42247063579998
 31
0.0
  0
LINE
  5
38E
  8
ﾚｲﾔ_1
 10
1108.9279774939989
 20
-348.91378128090003
 30
0.0
 11
1088.4362932643
 21
-328.42209705120001
 31
0.0
  0
LINE
  5
38F
  8
ﾚｲﾔ_1
 10
1108.9279774939989
 20
-328.91340769639999
 30
0.0
 11
1088.4362932643
 21
-308.42172346669997
 31
0.0
  0
LINE
  5
390
  8
ﾚｲﾔ_1
 10
1108.9279774939989
 20
-308.91303411180002
 30
0.0
 11
1088.4362932643
 21
-288.4213498821
 31
0.0
  0
LINE
  5
391
  8
ﾚｲﾔ_1
 10
1108.9279774939989
 20
-288.91266052729998
 30
0.0
 11
1088.4362932643
 21
-268.42097629760002
 31
0.0
  0
LINE
  5
392
  8
ﾚｲﾔ_1
 10
1108.9279774939989
 20
-268.91228694270001
 30
0.0
 11
1088.4362932643
 21
-248.42060271299999
 31
0.0
  0
LINE
  5
393
  8
ﾚｲﾔ_1
 10
1108.9279774939989
 20
-248.9119133582
 30
0.0
 11
1088.4362932643
 21
-228.42022912850001
 31
0.0
  0
LINE
  5
394
  8
ﾚｲﾔ_1
 10
1108.9279774939989
 20
-228.9115397736
 30
0.0
 11
1088.4362932643
 21
-208.41985554390001
 31
0.0
  0
LINE
  5
395
  8
ﾚｲﾔ_1
 10
1108.9279774939989
 20
-208.91116618909999
 30
0.0
 11
1088.4362932643
 21
-188.41948195939989
 31
0.0
  0
LINE
  5
396
  8
ﾚｲﾔ_1
 10
1108.9279774939989
 20
-188.91079260449999
 30
0.0
 11
1088.4362932643
 21
-168.4191083748
 31
0.0
  0
LINE
  5
397
  8
ﾚｲﾔ_1
 10
1108.9279774939989
 20
-168.91041902000001
 30
0.0
 11
1088.4362932643
 21
-148.41873479020001
 31
0.0
  0
LINE
  5
398
  8
ﾚｲﾔ_1
 10
1108.9279774939989
 20
-148.91004543540001
 30
0.0
 11
1097.3277689107999
 21
-137.30983685219999
 31
0.0
  0
ENDBLK
  5
399
  8
0
  0
BLOCK
  8
0
  2
*U27
 70
     1
 10
0.0
 20
0.0
 30
0.0
  3
*U27
  1

  0
TEXT
  5
3B3
  8
図枠
  6
CONTINUOUS
 10
945.37933047644185
 20
270.1350081298051
 30
0.0
 40
6.7468748986999989
  1
副番
  0
ENDBLK
  5
3B5
  8
0
  0
BLOCK
  8
0
  2
*U28
 70
     1
 10
0.0
 20
0.0
 30
0.0
  3
*U28
  1

  0
TEXT
  5
3B7
  8
図枠
  6
CONTINUOUS
 10
1158.1019431000029
 20
257.66925622573763
 30
0.0
 40
6.7468748986999989
  1
園原
  0
ENDBLK
  5
3B9
  8
0
  0
BLOCK
  8
0
  2
*U29
 70
     1
 10
0.0
 20
0.0
 30
0.0
  3
*U29
  1

  0
TEXT
  5
3BB
  8
図枠
  6
CONTINUOUS
 10
1137.485699379361
 20
257.3952714582777
 30
0.0
 40
6.7468748986999989
  1
湊
  0
ENDBLK
  5
3BD
  8
0
  0
BLOCK
  8
0
  2
*U30
 70
     1
 10
0.0
 20
0.0
 30
0.0
  3
*U30
  1

  0
TEXT
  5
3BF
  8
図枠
  6
CONTINUOUS
 10
1153.718186820644
 20
269.96376765014259
 30
0.0
 40
6.7468748986999989
  1
検認者
  0
ENDBLK
  5
3C1
  8
0
  0
BLOCK
  8
0
  2
*U31
 70
     1
 10
0.0
 20
0.0
 30
0.0
  3
*U31
  1

  0
TEXT
  5
3C3
  8
図枠
  6
CONTINUOUS
 10
1128.820931108442
 20
269.99801574607511
 30
0.0
 40
6.7468748986999989
  1
改訂者
  0
ENDBLK
  5
3C5
  8
0
  0
BLOCK
  8
0
  2
*U32
 70
     1
 10
0.0
 20
0.0
 30
0.0
  3
*U32
  1

  0
TEXT
  5
3C7
  8
図枠
  6
CONTINUOUS
 10
1011.730021207415
 20
257.46376765014259
 30
0.0
 40
6.7468748986999989
  1
本体板厚変更 1.0ｔ⇒0.8ｔ
  0
ENDBLK
  5
3C9
  8
0
  0
BLOCK
  8
0
  2
*U33
 70
     1
 10
0.0
 20
0.0
 30
0.0
  3
*U33
  1

  0
TEXT
  5
3CB
  8
図枠
  6
CONTINUOUS
 10
1036.1489136072789
 20
269.99801574607511
 30
0.0
 40
6.7468748986999989
  1
改　訂　内　容
  0
ENDBLK
  5
3CD
  8
0
  0
BLOCK
  8
0
  2
*U34
 70
     1
 10
0.0
 20
0.0
 30
0.0
  3
*U34
  1

  0
TEXT
  5
3CF
  8
図枠
  6
CONTINUOUS
 10
951.36382810887676
 20
257.05744919519998
 30
0.0
 40
6.7468748986999989
  1
1
  0
ENDBLK
  5
3D1
  8
0
  0
BLOCK
  8
0
  2
*U35
 70
     1
 10
0.0
 20
0.0
 30
0.0
  3
*U35
  1

  0
TEXT
  5
3D3
  8
図枠
  6
CONTINUOUS
 10
966.33783315026517
 20
257.84049670540003
 30
0.0
 40
6.7468748986999989
  1
H19.3.13
  0
ENDBLK
  5
3D5
  8
0
  0
BLOCK
  8
0
  2
*U36
 70
     1
 10
0.0
 20
0.0
 30
0.0
  3
*U36
  1

  0
TEXT
  5
3D7
  8
図枠
  6
CONTINUOUS
 10
970.96132610115103
 20
270.06651193794011
 30
0.0
 40
6.7468748986999989
  1
改訂日
  0
ENDBLK
  5
3D9
  8
0
  0
BLOCK
  8
0
  2
*U37
 70
     1
 10
0.0
 20
0.0
 30
0.0
  3
*U37
  1

  0
TEXT
  5
3DB
  8
ﾚｲﾔ_1
  6
CONTINUOUS
 10
979.40053802181478
 20
-30.746743694799999
 30
0.0
 40
7.4965279578999988
  1
4
  0
ENDBLK
  5
3DD
  8
0
  0
BLOCK
  8
0
  2
*U38
 70
     1
 10
0.0
 20
0.0
 30
0.0
  3
*U38
  1

  0
TEXT
  5
3DF
  8
ﾚｲﾔ_1
  6
CONTINUOUS
 10
979.17221737335069
 20
-109.0140244521
 30
0.0
 40
7.4965279578999988
  1
6
  0
ENDBLK
  5
3E1
  8
0
  0
BLOCK
  8
0
  2
*U39
 70
     1
 10
0.0
 20
0.0
 30
0.0
  3
*U39
  1

  0
TEXT
  5
3E3
  8
ﾚｲﾔ_1
  6
CONTINUOUS
 10
979.28637769758279
 20
-195.7800851149
 30
0.0
 40
7.4965279578999988
  1
5
  0
ENDBLK
  5
3E5
  8
0
  0
BLOCK
  8
0
  2
*U40
 70
     1
 10
0.0
 20
0.0
 30
0.0
  3
*U40
  1

  0
TEXT
  5
3E7
  8
ﾚｲﾔ_1
  6
CONTINUOUS
 10
719.06923447517215
 20
-53.724240107449234
 30
0.0
 40
7.4965279578999988
  1
2-ＲＰ1/2ネジ
  0
ENDBLK
  5
3E9
  8
0
  0
BLOCK
  8
0
  2
*U41
 70
     1
 10
0.0
 20
0.0
 30
0.0
  3
*U41
  1

  0
TEXT
  5
3EB
  8
ﾚｲﾔ_1
  6
CONTINUOUS
 10
734.93946135459998
 20
-68.583728647800001
 30
0.0
 40
7.4965279578999988
  1
１３Ａ
  0
ENDBLK
  5
3ED
  8
0
  0
BLOCK
  8
0
  2
*U42
 70
     1
 10
0.0
 20
0.0
 30
0.0
  3
*U42
  1

  0
TEXT
  5
3EF
  8
図枠
  6
CONTINUOUS
 10
1080.691313323211
 20
-635.34219034203295
 30
0.0
 40
7.496527552599999
  1
数量
  0
ENDBLK
  5
3F1
  8
0
  0
BLOCK
  8
0
  2
*U43
 70
     1
 10
0.0
 20
0.0
 30
0.0
  3
*U43
  1

  0
TEXT
  5
3F3
  8
図枠
  6
CONTINUOUS
 10
1088.3077091832761
 20
-596.71200329459975
 30
0.0
 40
6.7468748986999989
  1
1
  0
ENDBLK
  5
3F5
  8
0
  0
BLOCK
  8
0
  2
*U44
 70
     1
 10
0.0
 20
0.0
 30
0.0
  3
*U44
  1

  0
TEXT
  5
3F7
  8
図枠
  6
CONTINUOUS
 10
1087.9138560800529
 20
-584.21200329459975
 30
0.0
 40
6.7468748986999989
  1
2
  0
ENDBLK
  5
3F9
  8
0
  0
BLOCK
  8
0
  2
*U45
 70
     1
 10
0.0
 20
0.0
 30
0.0
  3
*U45
  1

  0
TEXT
  5
3FB
  8
図枠
  6
CONTINUOUS
 10
967.0040059748751
 20
-559.58873234985731
 30
0.0
 40
6.7468748986999989
  1
硬質膿R砲ウレタンフォ－ム
  0
ENDBLK
  5
3FD
  8
0
  0
BLOCK
  8
0
  2
*U46
 70
     1
 10
0.0
 20
0.0
 30
0.0
  3
*U46
  1

  0
TEXT
  5
3FF
  8
図枠
  6
CONTINUOUS
 10
1088.3077091832761
 20
-559.21200329459975
 30
0.0
 40
6.7468748986999989
  1
1
  0
ENDBLK
  5
401
  8
0
  0
BLOCK
  8
0
  2
*U47
 70
     1
 10
0.0
 20
0.0
 30
0.0
  3
*U47
  1

  0
TEXT
  5
403
  8
図枠
  6
CONTINUOUS
 10
1116.973048436347
 20
-635.45635066009277
 30
0.0
 40
7.496527552599999
  1
備　　　考
  0
ENDBLK
  5
405
  8
0
  0
BLOCK
  8
0
  2
*U48
 70
     1
 10
0.0
 20
0.0
 30
0.0
  3
*U48
  1

  0
TEXT
  5
407
  8
ﾚｲﾔ_1
  6
CONTINUOUS
 10
978.75362951783336
 20
-282.12231770020003
 30
0.0
 40
7.4965279578999988
  1
1
  0
ENDBLK
  5
409
  8
0
  0
BLOCK
  8
0
  2
*U49
 70
     1
 10
0.0
 20
0.0
 30
0.0
  3
*U49
  1

  0
TEXT
  5
40B
  8
ﾚｲﾔ_1
  6
CONTINUOUS
 10
979.28637769758279
 20
-459.53150862080003
 30
0.0
 40
7.4965279578999988
  1
3
  0
ENDBLK
  5
40D
  8
0
  0
BLOCK
  8
0
  2
*U50
 70
     1
 10
0.0
 20
0.0
 30
0.0
  3
*U50
  1

  0
TEXT
  5
40F
  8
ﾚｲﾔ_1
  6
CONTINUOUS
 10
979.40053802181478
 20
-368.2292184094
 30
0.0
 40
7.4965279578999988
  1
4
  0
ENDBLK
  5
411
  8
0
  0
BLOCK
  8
0
  2
*U51
 70
     1
 10
0.0
 20
0.0
 30
0.0
  3
*U51
  1

  0
TEXT
  5
413
  8
図枠
  6
CONTINUOUS
 10
1004.627553245019
 20
-647.50219034203303
 30
0.0
 40
7.496527552599999
  1
製品名
  0
ENDBLK
  5
415
  8
0
  0
BLOCK
  8
0
  2
*U52
 70
     1
 10
0.0
 20
0.0
 30
0.0
  3
*U52
  1

  0
TEXT
  5
417
  8
図枠
  6
CONTINUOUS
 10
1004.8368471614619
 20
-674.92608346332634
 30
0.0
 40
7.496527552599999
  1
図面名
  0
ENDBLK
  5
419
  8
0
  0
BLOCK
  8
0
  2
*U53
 70
     1
 10
0.0
 20
0.0
 30
0.0
  3
*U53
  1

  0
TEXT
  5
41B
  8
図枠
  6
CONTINUOUS
 10
1007.23421384072
 20
-702.34997658461975
 30
0.0
 40
7.496527552599999
  1
図 番
  0
ENDBLK
  5
41D
  8
0
  0
BLOCK
  8
0
  2
*U54
 70
     1
 10
0.0
 20
0.0
 30
0.0
  3
*U54
  1

  0
TEXT
  5
41F
  8
図枠
  6
CONTINUOUS
 10
1088.3077091832761
 20
-621.71200329459987
 30
0.0
 40
6.7468748986999989
  1
1
  0
ENDBLK
  5
421
  8
0
  0
BLOCK
  8
0
  2
*U55
 70
     1
 10
0.0
 20
0.0
 30
0.0
  3
*U55
  1

  0
TEXT
  5
423
  8
図枠
  6
CONTINUOUS
 10
1088.3077091832761
 20
-609.21200329459987
 30
0.0
 40
6.7468748986999989
  1
1
  0
ENDBLK
  5
425
  8
0
  0
BLOCK
  8
0
  2
*U56
 70
     1
 10
0.0
 20
0.0
 30
0.0
  3
*U56
  1

  0
TEXT
  5
427
  8
図枠
  6
CONTINUOUS
 10
1088.3077091832761
 20
-571.71200329459975
 30
0.0
 40
6.7468748986999989
  1
1
  0
ENDBLK
  5
429
  8
0
  0
BLOCK
  8
0
  2
*U57
 70
     1
 10
0.0
 20
0.0
 30
0.0
  3
*U57
  1

  0
TEXT
  5
42B
  8
図枠
  6
CONTINUOUS
 10
891.02573972747348
 20
-648.52628231633298
 30
0.0
 40
7.496527552599999
  1
尺　　度
  0
ENDBLK
  5
42D
  8
0
  0
BLOCK
  8
0
  2
*U58
 70
     1
 10
0.0
 20
0.0
 30
0.0
  3
*U58
  1

  0
TEXT
  5
42F
  8
図枠
  6
CONTINUOUS
 10
910.0714861237999
 20
-689.81433575568622
 30
0.0
 40
7.496527552599999
  1
 検図
  0
ENDBLK
  5
431
  8
0
  0
BLOCK
  8
0
  2
*U59
 70
     1
 10
0.0
 20
0.0
 30
0.0
  3
*U59
  1

  0
TEXT
  5
433
  8
図枠
  6
CONTINUOUS
 10
910.0714861237999
 20
-675.98822887697963
 30
0.0
 40
7.496527552599999
  1
 照査
  0
ENDBLK
  5
435
  8
0
  0
BLOCK
  8
0
  2
*U60
 70
     1
 10
0.0
 20
0.0
 30
0.0
  3
*U60
  1

  0
TEXT
  5
437
  8
図枠
  6
CONTINUOUS
 10
987.38162305470507
 20
-572.43121330918211
 30
0.0
 40
6.7468748986999989
  1
ＨＩ  ＶＰパイプ
  0
ENDBLK
  5
439
  8
0
  0
BLOCK
  8
0
  2
*U61
 70
     1
 10
0.0
 20
0.0
 30
0.0
  3
*U61
  1

  0
TEXT
  5
43B
  8
図枠
  6
CONTINUOUS
 10
960.42837155583754
 20
-584.79422092545224
 30
0.0
 40
6.7468748986999989
  1
金属インサ－ト    ＨＩエルボ
  0
ENDBLK
  5
43D
  8
0
  0
BLOCK
  8
0
  2
*U62
 70
     1
 10
0.0
 20
0.0
 30
0.0
  3
*U62
  1

  0
TEXT
  5
43F
  8
図枠
  6
CONTINUOUS
 10
986.33705612876406
 20
-596.71200329459975
 30
0.0
 40
6.7468748986999989
  1
SUS304  HL  0.8t
  0
ENDBLK
  5
441
  8
0
  0
BLOCK
  8
0
  2
*U63
 70
     1
 10
0.0
 20
0.0
 30
0.0
  3
*U63
  1

  0
TEXT
  5
443
  8
図枠
  6
CONTINUOUS
 10
986.33705612876406
 20
-609.21200329459987
 30
0.0
 40
6.7468748986999989
  1
SUS304  HL  0.8t
  0
ENDBLK
  5
445
  8
0
  0
BLOCK
  8
0
  2
*U64
 70
     1
 10
0.0
 20
0.0
 30
0.0
  3
*U64
  1

  0
TEXT
  5
447
  8
図枠
  6
CONTINUOUS
 10
997.3287926115446
 20
-635.22803002397302
 30
0.0
 40
7.496527552599999
  1
材　　　質
  0
ENDBLK
  5
449
  8
0
  0
BLOCK
  8
0
  2
*U65
 70
     1
 10
0.0
 20
0.0
 30
0.0
  3
*U65
  1

  0
TEXT
  5
44B
  8
図枠
  6
CONTINUOUS
 10
986.33705612876406
 20
-621.71200329459987
 30
0.0
 40
6.7468748986999989
  1
SUS304  HL  0.8t
  0
ENDBLK
  5
44D
  8
0
  0
BLOCK
  8
0
  2
*U66
 70
     1
 10
0.0
 20
0.0
 30
0.0
  3
*U66
  1

  0
TEXT
  5
44F
  8
図枠
  6
CONTINUOUS
 10
957.87824056039699
 20
-675.83601511956635
 30
0.0
 40
7.496527552599999
  1
園 原
  0
ENDBLK
  5
451
  8
0
  0
BLOCK
  8
0
  2
*U67
 70
     1
 10
0.0
 20
0.0
 30
0.0
  3
*U67
  1

  0
TEXT
  5
453
  8
図枠
  6
CONTINUOUS
 10
957.87824056039699
 20
-689.58601511956635
 30
0.0
 40
7.496527552599999
  1
園 原
  0
ENDBLK
  5
455
  8
0
  0
BLOCK
  8
0
  2
*U68
 70
     1
 10
0.0
 20
0.0
 30
0.0
  3
*U68
  1

  0
TEXT
  5
457
  8
図枠
  6
CONTINUOUS
 10
898.37005352266056
 20
-662.33225411488615
 30
0.0
 40
7.496527552599999
  1
略 尺
  0
ENDBLK
  5
459
  8
0
  0
BLOCK
  8
0
  2
*U69
 70
     1
 10
0.0
 20
0.0
 30
0.0
  3
*U69
  1

  0
TEXT
  5
45B
  8
図枠
  6
CONTINUOUS
 10
825.39673203208713
 20
-584.21200329459975
 30
0.0
 40
6.7468748986999989
  1
4
  0
ENDBLK
  5
45D
  8
0
  0
BLOCK
  8
0
  2
*U70
 70
     1
 10
0.0
 20
0.0
 30
0.0
  3
*U70
  1

  0
TEXT
  5
45F
  8
図枠
  6
CONTINUOUS
 10
825.37960798412075
 20
-559.21200329459975
 30
0.0
 40
6.7468748986999989
  1
6
  0
ENDBLK
  5
461
  8
0
  0
BLOCK
  8
0
  2
*U71
 70
     1
 10
0.0
 20
0.0
 30
0.0
  3
*U71
  1

  0
TEXT
  5
463
  8
図枠
  6
CONTINUOUS
 10
1049.332656631901
 20
-683.26236776118174
 30
0.0
 40
8.9958328605000002
  1
ＷＰ７-９０Ｈ 承認図
  0
ENDBLK
  5
465
  8
0
  0
BLOCK
  8
0
  2
*U72
 70
     1
 10
0.0
 20
0.0
 30
0.0
  3
*U72
  1

  0
TEXT
  5
467
  8
図枠
  6
CONTINUOUS
 10
1089.0604464219271
 20
-656.08201664454975
 30
0.0
 40
8.9958328605000002
  1
水栓柱
  0
ENDBLK
  5
469
  8
0
  0
BLOCK
  8
0
  2
*U73
 70
     1
 10
0.0
 20
0.0
 30
0.0
  3
*U73
  1

  0
TEXT
  5
46B
  8
図枠
  6
CONTINUOUS
 10
1060.9541767486389
 20
-710.57971125639995
 30
0.0
 40
8.9958328605000002
  1
ＳＢＰ０００２５
  0
ENDBLK
  5
46D
  8
0
  0
BLOCK
  8
0
  2
*U74
 70
     1
 10
0.0
 20
0.0
 30
0.0
  3
*U74
  1

  0
TEXT
  5
46F
  8
図枠
  6
CONTINUOUS
 10
872.85623859007808
 20
-623.87183596469993
 30
0.0
 40
7.1578947901999994
  1
1
  0
ENDBLK
  5
471
  8
0
  0
BLOCK
  8
0
  2
*U75
 70
     1
 10
0.0
 20
0.0
 30
0.0
  3
*U75
  1

  0
TEXT
  5
473
  8
図枠
  6
CONTINUOUS
 10
818.43866067900808
 20
-635.18997658461956
 30
0.0
 40
7.496527552599999
  1
品番
  0
ENDBLK
  5
475
  8
0
  0
BLOCK
  8
0
  2
*U76
 70
     1
 10
0.0
 20
0.0
 30
0.0
  3
*U76
  1

  0
TEXT
  5
477
  8
図枠
  6
CONTINUOUS
 10
825.80770918327687
 20
-621.71200329459987
 30
0.0
 40
6.7468748986999989
  1
1
  0
ENDBLK
  5
479
  8
0
  0
BLOCK
  8
0
  2
*U77
 70
     1
 10
0.0
 20
0.0
 30
0.0
  3
*U77
  1

  0
TEXT
  5
47B
  8
図枠
  6
CONTINUOUS
 10
825.44810417598569
 20
-596.71200329459975
 30
0.0
 40
6.7468748986999989
  1
3
  0
ENDBLK
  5
47D
  8
0
  0
BLOCK
  8
0
  2
*U78
 70
     1
 10
0.0
 20
0.0
 30
0.0
  3
*U78
  1

  0
TEXT
  5
47F
  8
図枠
  6
CONTINUOUS
 10
825.44810417598569
 20
-571.71200329459975
 30
0.0
 40
6.7468748986999989
  1
5
  0
ENDBLK
  5
481
  8
0
  0
BLOCK
  8
0
  2
*U79
 70
     1
 10
0.0
 20
0.0
 30
0.0
  3
*U79
  1

  0
TEXT
  5
483
  8
図枠
  6
CONTINUOUS
 10
825.41385608005316
 20
-609.21200329459987
 30
0.0
 40
6.7468748986999989
  1
2
  0
ENDBLK
  5
485
  8
0
  0
BLOCK
  8
0
  2
*U80
 70
     1
 10
0.0
 20
0.0
 30
0.0
  3
*U80
  1

  0
TEXT
  5
487
  8
図枠
  6
CONTINUOUS
 10
816.3214861237999
 20
-689.77628231633287
 30
0.0
 40
7.496527552599999
  1
 製図
  0
ENDBLK
  5
489
  8
0
  0
BLOCK
  8
0
  2
*U81
 70
     1
 10
0.0
 20
0.0
 30
0.0
  3
*U81
  1

  0
TEXT
  5
48B
  8
図枠
  6
CONTINUOUS
 10
816.3214861237999
 20
-675.95017543762617
 30
0.0
 40
7.496527552599999
  1
 設計
  0
ENDBLK
  5
48D
  8
0
  0
BLOCK
  8
0
  2
*U82
 70
     1
 10
0.0
 20
0.0
 30
0.0
  3
*U82
  1

  0
TEXT
  5
48F
  8
ﾚｲﾔ_1
  6
CONTINUOUS
 10
873.15649341360006
 20
-34.081750595300001
 30
0.0
 40
7.4965279578999988
  1
ＨＬ
 50
90.0
  0
ENDBLK
  5
491
  8
0
  0
BLOCK
  8
0
  2
*U83
 70
     1
 10
0.0
 20
0.0
 30
0.0
  3
*U83
  1

  0
TEXT
  5
493
  8
ﾚｲﾔ_1
  6
CONTINUOUS
 10
979.24832425617205
 20
19.52087903
 30
0.0
 40
7.4965279578999988
  1
2
  0
ENDBLK
  5
495
  8
0
  0
BLOCK
  8
0
  2
*U84
 70
     1
 10
0.0
 20
0.0
 30
0.0
  3
*U84
  1

  0
TEXT
  5
497
  8
図枠
  6
CONTINUOUS
 10
888.35858181335357
 20
-584.58873234985731
 30
0.0
 40
6.7468748986999989
  1
給水口
  0
ENDBLK
  5
499
  8
0
  0
BLOCK
  8
0
  2
*U85
 70
     1
 10
0.0
 20
0.0
 30
0.0
  3
*U85
  1

  0
TEXT
  5
49B
  8
図枠
  6
CONTINUOUS
 10
879.93355021396155
 20
-597.43121330918211
 30
0.0
 40
6.7468748986999989
  1
下キャップ
  0
ENDBLK
  5
49D
  8
0
  0
BLOCK
  8
0
  2
*U86
 70
     1
 10
0.0
 20
0.0
 30
0.0
  3
*U86
  1

  0
TEXT
  5
49F
  8
図枠
  6
CONTINUOUS
 10
879.89930211802925
 20
-609.93121330918211
 30
0.0
 40
6.7468748986999989
  1
上キャップ
  0
ENDBLK
  5
4A1
  8
0
  0
BLOCK
  8
0
  2
*U87
 70
     1
 10
0.0
 20
0.0
 30
0.0
  3
*U87
  1

  0
TEXT
  5
4A3
  8
図枠
  6
CONTINUOUS
 10
892.99919881220558
 20
-622.08873234985731
 30
0.0
 40
6.7468748986999989
  1
本体
  0
ENDBLK
  5
4A5
  8
0
  0
BLOCK
  8
0
  2
*U88
 70
     1
 10
0.0
 20
0.0
 30
0.0
  3
*U88
  1

  0
TEXT
  5
4A7
  8
図枠
  6
CONTINUOUS
 10
879.79655783023168
 20
-572.43121330918211
 30
0.0
 40
6.7468748986999989
  1
給水パイプ
  0
ENDBLK
  5
4A9
  8
0
  0
BLOCK
  8
0
  2
*U89
 70
     1
 10
0.0
 20
0.0
 30
0.0
  3
*U89
  1

  0
TEXT
  5
4AB
  8
図枠
  6
CONTINUOUS
 10
864.09018712104364
 20
-689.85238919503956
 30
0.0
 40
7.496527552599999
  1
岸 本
  0
ENDBLK
  5
4AD
  8
0
  0
BLOCK
  8
0
  2
*U90
 70
     1
 10
0.0
 20
0.0
 30
0.0
  3
*U90
  1

  0
TEXT
  5
4AF
  8
図枠
  6
CONTINUOUS
 10
861.84503419919895
 20
-676.06433575568622
 30
0.0
 40
7.496527552599999
  1
白須賀
  0
ENDBLK
  5
4B1
  8
0
  0
BLOCK
  8
0
  2
*U91
 70
     1
 10
0.0
 20
0.0
 30
0.0
  3
*U91
  1

  0
TEXT
  5
4B3
  8
図枠
  6
CONTINUOUS
 10
877.61419340669431
 20
-635.26608346332625
 30
0.0
 40
7.496527552599999
  1
品　　　名
  0
ENDBLK
  5
4B5
  8
0
  0
BLOCK
  8
0
  2
*U92
 70
     1
 10
0.0
 20
0.0
 30
0.0
  3
*U92
  1

  0
TEXT
  5
4B7
  8
図枠
  6
CONTINUOUS
 10
829.32486195389276
 20
-648.29796168021312
 30
0.0
 40
7.496527552599999
  1
日　　付
  0
ENDBLK
  5
4B9
  8
0
  0
BLOCK
  8
0
  2
*U93
 70
     1
 10
0.0
 20
0.0
 30
0.0
  3
*U93
  1

  0
TEXT
  5
4BB
  8
図枠
  6
CONTINUOUS
 10
835.33730537171425
 20
-661.91366628199989
 30
0.0
 40
7.496527552599999
  1
H16.4
  0
ENDBLK
  5
4BD
  8
0
  0
BLOCK
  8
0
  2
*U94
 70
     1
 10
0.0
 20
0.0
 30
0.0
  3
*U94
  1

  0
TEXT
  5
4BF
  8
図枠
  6
CONTINUOUS
 10
829.92107846580006
 20
-713.18525297040912
 30
0.0
 40
13.4937497973
  1
株式会社
  0
ENDBLK
  5
4C1
  8
0
  0
BLOCK
  8
0
  2
*U95
 70
     1
 10
0.0
 20
0.0
 30
0.0
  3
*U95
  1

  0
TEXT
  5
4C3
  8
図枠
  6
CONTINUOUS
 10
889.66000945878795
 20
-559.52023615799214
 30
0.0
 40
6.7468748986999989
  1
断熱材
  0
ENDBLK
  5
4C5
  8
0
  0
ENDSEC
  0
SECTION
  2
ENTITIES
  0
LINE
  5
2F
  8
ﾚｲﾔ_1
 62
     5
 10
1103.4661730487001
 20
55.927991388900011
 30
0.0
 11
1114.5661730487
 21
55.927991388900011
 31
0.0
  0
LINE
  5
30
  8
ﾚｲﾔ_1
 62
     5
 10
1114.4661730487001
 20
42.92799138889999
 30
0.0
 11
1114.5661730487
 21
42.92799138889999
 31
0.0
  0
ARC
  5
31
  8
ﾚｲﾔ_1
 62
     5
 10
1114.5661730487
 20
53.427991388900011
 30
0.0
 40
1.5
 50
0.0
 51
90.0
  0
LINE
  5
33
  8
図枠
 62
     5
 10
963.8214861237999
 20
241.87487160410001
 30
0.0
 11
963.8214861237999
 21
279.37487160410001
 31
0.0
  0
LINE
  5
34
  8
図枠
 62
     5
 10
946.92327265869994
 20
255.45185098159999
 30
0.0
 11
959.29827265869994
 21
255.45185098159999
 31
0.0
  0
LINE
  5
35
  8
図枠
 62
     5
 10
953.11077265869994
 20
266.1689153534
 30
0.0
 11
959.29827265869994
 21
255.45185098159999
 31
0.0
  0
LINE
  5
36
  8
図枠
 62
     5
 10
953.11077265869994
 20
266.1689153534
 30
0.0
 11
946.92327265869994
 21
255.45185098159999
 31
0.0
  0
LINE
  5
37
  8
図枠
 62
     5
 10
953.11077265869994
 20
253.7939153534
 30
0.0
 11
946.92327265869994
 21
243.07685098159999
 31
0.0
  0
LINE
  5
38
  8
図枠
 62
     5
 10
953.11077265869994
 20
253.7939153534
 30
0.0
 11
959.29827265869994
 21
243.07685098159999
 31
0.0
  0
INSERT
  5
39
  8
0
  6
CONTINUOUS
  2
*U27
 10
0.0
 20
0.0
 30
0.0
  0
LINE
  5
3A
  8
図枠
 62
     5
 10
946.92327265869994
 20
243.07685098159999
 30
0.0
 11
959.29827265869994
 21
243.07685098159999
 31
0.0
  0
LINE
  5
3B
  8
ﾚｲﾔ_1
 62
     5
 10
1055.5862896368999
 20
54.927991388899997
 30
0.0
 11
1071.5862896368999
 21
58.827991388900003
 31
0.0
  0
LINE
  5
3C
  8
ﾚｲﾔ_1
 62
     5
 10
1055.4661730487001
 20
55.927991388900011
 30
0.0
 11
1071.4661730487001
 21
59.827991388900003
 31
0.0
  0
LINE
  5
3D
  8
ﾚｲﾔ_1
 62
     5
 10
884.18386156100007
 20
55.927991388900011
 30
0.0
 11
868.18386156100007
 21
59.827991388900003
 31
0.0
  0
ARC
  5
3E
  8
ﾚｲﾔ_1
 62
     5
 10
895.28386156100009
 20
53.427991388900011
 30
0.0
 40
2.5
 50
0.0
 51
90.0
  0
ARC
  5
3F
  8
ﾚｲﾔ_1
 62
     5
 10
1044.3661730486999
 20
53.427991388900011
 30
0.0
 40
2.5
 50
90.0
 51
180.0
  0
LINE
  5
40
  8
ﾚｲﾔ_1
 62
     5
 10
1044.4661730487001
 20
42.92799138889999
 30
0.0
 11
1044.3661730486999
 21
42.92799138889999
 31
0.0
  0
ARC
  5
41
  8
ﾚｲﾔ_1
 62
     5
 10
1044.3661730486999
 20
53.427991388900011
 30
0.0
 40
1.5
 50
90.0
 51
180.0
  0
LINE
  5
42
  8
ﾚｲﾔ_1
 62
     5
 10
1044.3661730486999
 20
55.927991388900011
 30
0.0
 11
1055.4661730487001
 21
55.927991388900011
 31
0.0
  0
LINE
  5
43
  8
ﾚｲﾔ_1
 62
     5
 10
1071.4661730487001
 20
59.827991388900003
 30
0.0
 11
1087.4661730487001
 21
59.827991388900003
 31
0.0
  0
LINE
  5
44
  8
ﾚｲﾔ_1
 62
     5
 10
1071.5862896368999
 20
58.827991388900003
 30
0.0
 11
1087.3460564606
 21
58.827991388900003
 31
0.0
  0
INSERT
  5
45
  8
0
  6
CONTINUOUS
  2
*U28
 10
0.0
 20
0.0
 30
0.0
  0
INSERT
  5
46
  8
0
  6
CONTINUOUS
  2
*U29
 10
0.0
 20
0.0
 30
0.0
  0
LINE
  5
47
  8
図枠
 62
     5
 10
1128.8214861238
 20
241.87487160410001
 30
0.0
 11
1128.8214861238
 21
279.37487160410001
 31
0.0
  0
INSERT
  5
48
  8
0
  6
CONTINUOUS
  2
*U30
 10
0.0
 20
0.0
 30
0.0
  0
INSERT
  5
49
  8
0
  6
CONTINUOUS
  2
*U31
 10
0.0
 20
0.0
 30
0.0
  0
LINE
  5
4A
  8
図枠
 62
     5
 10
1153.8214861238
 20
241.87487160410001
 30
0.0
 11
1153.8214861238
 21
279.37487160410001
 31
0.0
  0
ARC
  5
4B
  8
ﾚｲﾔ_1
 62
     5
 10
1114.5661730487
 20
53.427991388900011
 30
0.0
 40
2.5
 50
0.0
 51
90.0
  0
LINE
  5
4C
  8
ﾚｲﾔ_1
 62
     5
 10
1045.4661730487001
 20
26.927991388900001
 30
0.0
 11
1048.4661730487001
 21
26.927991388900001
 31
0.0
  0
ARC
  5
4D
  8
ﾚｲﾔ_1
 62
     5
 10
1064.2661730487
 20
22.927991388900001
 30
0.0
 40
2.0
 50
0.0
 51
90.0
  0
LINE
  5
4E
  8
ﾚｲﾔ_1
 62
     5
 10
1046.2661730487
 20
19.927991388900001
 30
0.0
 11
1047.2661730487
 21
18.927991388900001
 31
0.0
  0
LINE
  5
4F
  8
ﾚｲﾔ_1
 62
     5
 10
1059.7661730487
 20
19.927991388900001
 30
0.0
 11
1060.7661730487
 21
18.927991388900001
 31
0.0
  0
LINE
  5
50
  8
ﾚｲﾔ_1
 62
     5
 10
1044.2661730487
 20
21.427991388900001
 30
0.0
 11
1046.2661730487
 21
21.427991388900001
 31
0.0
  0
LINE
  5
51
  8
ﾚｲﾔ_1
 62
     5
 10
1066.2661730487
 20
22.274884005299999
 30
0.0
 11
1066.2661730487
 21
22.927991388900001
 31
0.0
  0
LINE
  5
52
  8
ﾚｲﾔ_1
 62
     5
 10
1047.2661730487
 20
18.927991388900001
 30
0.0
 11
1066.2661730487
 21
18.927991388900001
 31
0.0
  0
LINE
  5
53
  8
ﾚｲﾔ_1
 62
     5
 10
1046.2661730487
 20
19.927991388900001
 30
0.0
 11
1059.7661730487
 21
19.927991388900001
 31
0.0
  0
INSERT
  5
54
  8
0
  6
CONTINUOUS
  2
*U32
 10
0.0
 20
0.0
 30
0.0
  0
LINE
  5
55
  8
図枠
 62
     5
 10
943.82148612380001
 20
266.87487160410001
 30
0.0
 11
1178.8214861238
 21
266.87487160410001
 31
0.0
  0
LINE
  5
56
  8
図枠
 62
     5
 10
943.82148612380001
 20
254.37487160410001
 30
0.0
 11
1178.8214861238
 21
254.37487160410001
 31
0.0
  0
INSERT
  5
57
  8
0
  6
CONTINUOUS
  2
*U33
 10
0.0
 20
0.0
 30
0.0
  0
LINE
  5
58
  8
図枠
 62
     5
 10
943.82148612380001
 20
241.87487160410001
 30
0.0
 11
1178.8214861238
 21
241.87487160410001
 31
0.0
  0
LINE
  5
59
  8
ﾚｲﾔ_1
 62
     5
 10
1042.8661730486999
 20
53.927991388899997
 30
0.0
 11
1116.0661730487
 21
53.927991388899997
 31
0.0
  0
LINE
  5
5A
  8
ﾚｲﾔ_1
 62
     5
 10
1044.3661730486999
 20
54.927991388899997
 30
0.0
 11
1114.5661730487
 21
54.927991388899997
 31
0.0
  0
LINE
  5
5B
  8
ﾚｲﾔ_1
 62
     5
 10
1103.3460564606
 20
54.927991388899997
 30
0.0
 11
1087.3460564606
 21
58.827991388900003
 31
0.0
  0
LINE
  5
5C
  8
ﾚｲﾔ_1
 62
     5
 10
1103.4661730487001
 20
55.927991388900011
 30
0.0
 11
1087.4661730487001
 21
59.827991388900003
 31
0.0
  0
INSERT
  5
5D
  8
0
  6
CONTINUOUS
  2
*U34
 10
0.0
 20
0.0
 30
0.0
  0
INSERT
  5
5E
  8
0
  6
CONTINUOUS
  2
*U35
 10
0.0
 20
0.0
 30
0.0
  0
LINE
  5
5F
  8
図枠
 62
     5
 10
953.11077265869994
 20
253.7939153534
 30
0.0
 11
959.29827265869994
 21
243.07685098159999
 31
0.0
  0
LINE
  5
60
  8
図枠
 62
     5
 10
953.11077265869994
 20
253.7939153534
 30
0.0
 11
946.92327265869994
 21
243.07685098159999
 31
0.0
  0
LINE
  5
61
  8
図枠
 62
     5
 10
946.92327265869994
 20
243.07685098159999
 30
0.0
 11
959.29827265869994
 21
243.07685098159999
 31
0.0
  0
LINE
  5
62
  8
図枠
 62
     5
 10
943.82148612380001
 20
241.87487160410001
 30
0.0
 11
943.82148612380001
 21
279.37487160410001
 31
0.0
  0
INSERT
  5
63
  8
0
  6
CONTINUOUS
  2
*U36
 10
0.0
 20
0.0
 30
0.0
  0
LINE
  5
64
  8
図枠
 62
     5
 10
1003.8214861238
 20
241.87487160410001
 30
0.0
 11
1003.8214861238
 21
279.37487160410001
 31
0.0
  0
LINE
  5
65
  8
ﾚｲﾔ_1
 62
     5
 10
1046.2661730487
 20
-0.0720086111
 30
0.0
 11
1059.7661730487
 21
-0.0720086111
 31
0.0
  0
LINE
  5
66
  8
ﾚｲﾔ_1
 62
     5
 10
1048.4661730487001
 20
-7.0720086111000002
 30
0.0
 11
1048.4661730487001
 21
-5.0720086111000002
 31
0.0
  0
LINE
  5
67
  8
ﾚｲﾔ_1
 62
     5
 10
1062.2661730487
 20
-28.572008611099999
 30
0.0
 11
1062.2661730487
 21
-5.0720086111000002
 31
0.0
  0
LINE
  5
68
  8
ﾚｲﾔ_1
 62
     5
 10
1048.4661730487001
 20
-5.0720086111000002
 30
0.0
 11
1062.2661730487
 21
-5.0720086111000002
 31
0.0
  0
LINE
  5
69
  8
ﾚｲﾔ_1
 62
     5
 10
1065.2661730487
 20
-28.572008611099999
 30
0.0
 11
1065.2661730487
 21
-1.5720086111
 31
0.0
  0
LINE
  5
6A
  8
ﾚｲﾔ_1
 62
     5
 10
1047.2661730487
 20
0.9279913888999999
 30
0.0
 11
1064.7661730487
 21
0.9279913888999999
 31
0.0
  0
LINE
  5
6B
  8
ﾚｲﾔ_1
 62
     5
 10
1066.7661730487
 20
-1.5720086111
 30
0.0
 11
1066.7661730487
 21
-1.0720086111
 31
0.0
  0
ARC
  5
6C
  8
ﾚｲﾔ_1
 62
     5
 10
1064.7661730487
 20
-1.0720086111
 30
0.0
 40
2.0
 50
0.0
 51
90.0
  0
LINE
  5
6D
  8
ﾚｲﾔ_1
 62
     5
 10
1044.2661730487
 20
-1.5720086111
 30
0.0
 11
1046.2661730487
 21
-1.5720086111
 31
0.0
  0
LINE
  5
6E
  8
ﾚｲﾔ_1
 62
     5
 10
1044.2661730487
 20
-5.0720086111000002
 30
0.0
 11
1045.4661730487001
 21
-5.0720086111000002
 31
0.0
  0
LINE
  5
6F
  8
ﾚｲﾔ_1
  6
BORDER
 62
     3
 10
1088.4362932643
 20
-129.82995652779999
 30
0.0
 11
1088.4362932643
 21
-125.6047612153
 31
0.0
  0
LINE
  5
70
  8
ﾚｲﾔ_1
  6
BORDER
 62
     3
 10
1088.4362932643
 20
-121.3795659028
 30
0.0
 11
1088.4362932643
 21
-117.1543705903
 31
0.0
  0
LINE
  5
71
  8
ﾚｲﾔ_1
  6
BORDER
 62
     3
 10
1070.9837471561
 20
-112.9291752778
 30
0.0
 11
1088.4362932643
 21
-121.3795659028
 31
0.0
  0
LINE
  5
72
  8
ﾚｲﾔ_1
  6
BORDER
 62
     3
 10
1070.9837471561
 20
-121.3795659028
 30
0.0
 11
1070.9837471561
 21
-125.6047612153
 31
0.0
  0
LINE
  5
73
  8
ﾚｲﾔ_1
  6
BORDER
 62
     3
 10
1070.9837471561
 20
-112.9291752778
 30
0.0
 11
1070.9837471561
 21
-117.1543705903
 31
0.0
  0
LINE
  5
74
  8
ﾚｲﾔ_1
  6
BORDER
 62
     3
 10
1070.9837471561
 20
-121.3795659028
 30
0.0
 11
1088.4362932643
 21
-129.82995652779999
 31
0.0
  0
LINE
  5
75
  8
ﾚｲﾔ_1
 62
     5
 10
1086.2661730487
 20
-28.572008611099999
 30
0.0
 11
1086.2661730487
 21
2.2748840053000001
 31
0.0
  0
LINE
  5
76
  8
ﾚｲﾔ_1
 62
     5
 10
1083.2661730487
 20
-28.572008611099999
 30
0.0
 11
1086.2661730487
 21
-28.572008611099999
 31
0.0
  0
LINE
  5
77
  8
ﾚｲﾔ_1
 62
     5
 10
1081.7661730487
 20
-1.5720086111
 30
0.0
 11
1081.7661730487
 21
3.4279913888999989
 31
0.0
  0
LINE
  5
78
  8
ﾚｲﾔ_1
 62
     5
 10
1083.2661730487
 20
-118.99430180580001
 30
0.0
 11
1083.2661730487
 21
-28.572008611099999
 31
0.0
  0
LINE
  5
79
  8
ﾚｲﾔ_1
 62
     5
 10
1081.2661730487
 20
-1.5720086111
 30
0.0
 11
1081.2661730487
 21
-118.02591695549999
 31
0.0
  0
LINE
  5
7A
  8
ﾚｲﾔ_1
 62
     5
 10
1083.2661730487
 20
-28.572008611099999
 30
0.0
 11
1083.2661730487
 21
-1.5720086111
 31
0.0
  0
LINE
  5
7B
  8
ﾚｲﾔ_1
 62
     5
 10
1048.4661730487001
 20
26.927991388900001
 30
0.0
 11
1048.4661730487001
 21
24.927991388900001
 31
0.0
  0
LINE
  5
7C
  8
ﾚｲﾔ_1
 62
     5
 10
1064.2661730487
 20
24.927991388900001
 30
0.0
 11
1048.4661730487001
 21
24.927991388900001
 31
0.0
  0
LINE
  5
7D
  8
ﾚｲﾔ_1
 62
     5
 10
1045.4661730487001
 20
24.927991388900001
 30
0.0
 11
1044.2661730487
 21
24.927991388900001
 31
0.0
  0
LINE
  5
7E
  8
ﾚｲﾔ_1
 62
     5
 10
1044.2661730487
 20
24.927991388900001
 30
0.0
 11
1044.2661730487
 21
-5.0720086111000002
 31
0.0
  0
LINE
  5
7F
  8
ﾚｲﾔ_1
  6
BORDER
 62
     3
 10
1039.2661730487
 20
9.9279913889000007
 30
0.0
 11
1065.5161730487
 21
9.9279913889000007
 31
0.0
  0
LINE
  5
80
  8
ﾚｲﾔ_1
 62
     5
 10
1047.2661730487
 20
18.927991388900001
 30
0.0
 11
1047.2661730487
 21
0.9279913888999999
 31
0.0
  0
LINE
  5
81
  8
ﾚｲﾔ_1
 62
     5
 10
1059.7661730487
 20
-0.0720086111
 30
0.0
 11
1059.7661730487
 21
19.927991388900001
 31
0.0
  0
LINE
  5
82
  8
ﾚｲﾔ_1
 62
     5
 10
1060.7661730487
 20
18.927991388900001
 30
0.0
 11
1060.7661730487
 21
0.9279913888999999
 31
0.0
  0
LINE
  5
83
  8
ﾚｲﾔ_1
 62
     5
 10
1046.2661730487
 20
-1.5720086111
 30
0.0
 11
1046.2661730487
 21
21.427991388900001
 31
0.0
  0
LINE
  5
84
  8
ﾚｲﾔ_1
  6
BORDER
 62
     3
 10
1034.5624621111999
 20
-125.6047612153
 30
0.0
 11
1070.9837471561
 21
-125.6047612153
 31
0.0
  0
LINE
  5
85
  8
ﾚｲﾔ_1
  6
BORDER
 62
     3
 10
1034.5624621111999
 20
-117.1543705903
 30
0.0
 11
1070.9837471561
 21
-117.1543705903
 31
0.0
  0
LINE
  5
86
  8
ﾚｲﾔ_1
 62
     5
 10
1065.2661730487
 20
-1.5720086111
 30
0.0
 11
1083.2661730487
 21
-1.5720086111
 31
0.0
  0
INSERT
  5
89
  8
寸法線
  2
BALLON0
 10
0.0
 20
0.0
 30
0.0
  0
INSERT
  5
93
  8
寸法線
  2
BALLON1
 10
0.0
 20
0.0
 30
0.0
  0
INSERT
  5
9D
  8
寸法線
  2
BALLON2
 10
0.0
 20
0.0
 30
0.0
  0
LINE
  5
A6
  8
ﾚｲﾔ_1
  6
BORDER
 62
     3
 10
868.91013461509999
 20
-125.6047612153
 30
0.0
 11
906.71442846199989
 21
-125.6047612153
 31
0.0
  0
LINE
  5
A7
  8
ﾚｲﾔ_1
  6
BORDER
 62
     3
 10
868.91013461509999
 20
-121.3795659028
 30
0.0
 11
868.91013461509999
 21
-117.1543705903
 31
0.0
  0
LINE
  5
A8
  8
ﾚｲﾔ_1
  6
BORDER
 62
     3
 10
868.91013461509999
 20
-129.82995652779999
 30
0.0
 11
868.91013461509999
 21
-125.6047612153
 31
0.0
  0
LINE
  5
A9
  8
ﾚｲﾔ_1
  6
BORDER
 62
     3
 10
868.91013461509999
 20
-117.1543705903
 30
0.0
 11
906.71442846199989
 21
-117.1543705903
 31
0.0
  0
INSERT
  5
AB
  8
ﾚｲﾔ_1
  2
*X3
 10
0.0
 20
0.0
 30
0.0
  0
LINE
  5
BC
  8
ﾚｲﾔ_1
 62
     5
 10
1046.2661730487
 20
-0.0720086111
 30
0.0
 11
1047.2661730487
 21
0.9279913888999999
 31
0.0
  0
LINE
  5
BD
  8
ﾚｲﾔ_1
 62
     5
 10
1067.2661730487
 20
-1.5720086111
 30
0.0
 11
1067.2661730487
 21
-117.1543705903
 31
0.0
  0
LINE
  5
BE
  8
ﾚｲﾔ_1
 62
     5
 10
1045.4661730487001
 20
-7.0720086111000002
 30
0.0
 11
1048.4661730487001
 21
-7.0720086111000002
 31
0.0
  0
LINE
  5
BF
  8
ﾚｲﾔ_1
 62
     5
 10
1059.7661730487
 20
-0.0720086111
 30
0.0
 11
1060.7661730487
 21
0.9279913888999999
 31
0.0
  0
LINE
  5
C0
  8
ﾚｲﾔ_1
 62
     5
 10
1045.4661730487001
 20
-5.0720086111000002
 30
0.0
 11
1045.4661730487001
 21
-117.1543705903
 31
0.0
  0
LINE
  5
C1
  8
ﾚｲﾔ_1
 62
     5
 10
1062.2661730487
 20
-28.572008611099999
 30
0.0
 11
1065.2661730487
 21
-28.572008611099999
 31
0.0
  0
LINE
  5
C2
  8
ﾚｲﾔ_1
 62
     5
 10
1065.2661730487
 20
-117.1543705903
 30
0.0
 11
1065.2661730487
 21
-28.572008611099999
 31
0.0
  0
LINE
  5
C3
  8
ﾚｲﾔ_1
 62
     5
 10
1044.4661730487001
 20
-5.0720086111000002
 30
0.0
 11
1044.4661730487001
 21
-117.1543705903
 31
0.0
  0
LINE
  5
C5
  8
CONSTRUCTION
 62
     5
 10
653.3418240904
 20
183.5047464811
 30
0.0
 11
637.34182409039988
 21
167.5047464811
 31
0.0
  0
LINE
  5
C6
  8
ﾚｲﾔ_1
 62
     5
 10
637.34182409039988
 20
55.927991388900011
 30
0.0
 11
653.3418240904
 21
59.827991388900003
 31
0.0
  0
LINE
  5
C7
  8
CONSTRUCTION
 62
     5
 10
653.3418240904
 20
183.5047464811
 30
0.0
 11
653.3418240904
 21
199.5047464811
 31
0.0
  0
ARC
  5
C8
  8
CONSTRUCTION
 62
     5
 10
626.24182409039997
 20
226.60474648109999
 30
0.0
 40
2.5
 50
90.0
 51
180.0
  0
ARC
  5
C9
  8
CONSTRUCTION
 62
     5
 10
626.24182409039997
 20
156.40474648110001
 30
0.0
 40
2.5
 50
180.0
 51
270.0
  0
LINE
  5
CA
  8
CONSTRUCTION
 62
     5
 10
623.74182409039986
 20
156.40474648110001
 30
0.0
 11
623.74182409039986
 21
226.60474648109999
 31
0.0
  0
LINE
  5
CB
  8
CONSTRUCTION
 62
     5
 10
637.34182409039988
 20
167.5047464811
 30
0.0
 11
637.34182409039988
 21
215.5047464811
 31
0.0
  0
LINE
  5
CC
  8
CONSTRUCTION
 62
     5
 10
669.3418240904
 20
183.5047464811
 30
0.0
 11
685.3418240904
 21
167.5047464811
 31
0.0
  0
LINE
  5
CD
  8
CONSTRUCTION
 62
     5
 10
669.3418240904
 20
199.5047464811
 30
0.0
 11
685.3418240904
 21
215.5047464811
 31
0.0
  0
ARC
  5
CE
  8
ﾚｲﾔ_1
 62
     5
 10
696.4418240903999
 20
53.427991388900011
 30
0.0
 40
2.5
 50
0.0
 51
90.0
  0
LINE
  5
CF
  8
ﾚｲﾔ_1
 62
     5
 10
685.3418240904
 20
55.927991388900011
 30
0.0
 11
669.3418240904
 21
59.827991388900003
 31
0.0
  0
LINE
  5
D0
  8
CONSTRUCTION
 62
     5
 10
698.9418240903999
 20
226.60474648109999
 30
0.0
 11
698.9418240903999
 21
156.40474648110001
 31
0.0
  0
ARC
  5
D1
  8
CONSTRUCTION
 62
     5
 10
696.4418240903999
 20
156.40474648110001
 30
0.0
 40
2.5
 50
270.0
 51
0.0
  0
LINE
  5
D2
  8
CONSTRUCTION
 62
     5
 10
669.3418240904
 20
199.5047464811
 30
0.0
 11
669.3418240904
 21
183.5047464811
 31
0.0
  0
ARC
  5
D3
  8
CONSTRUCTION
 62
     5
 10
696.4418240903999
 20
226.60474648109999
 30
0.0
 40
2.5
 50
0.0
 51
90.0
  0
LINE
  5
D4
  8
CONSTRUCTION
 62
     5
 10
685.3418240904
 20
215.5047464811
 30
0.0
 11
685.3418240904
 21
167.5047464811
 31
0.0
  0
DIMENSION
  5
E4
  8
寸法線
  2
*D4
 10
552.36057561630003
 20
59.827991388900003
 30
0.0
 11
552.36057561630003
 21
73.64583005770001
 31
0.0
 70
   128
  1
4
 13
653.3418240904
 23
59.827991388900003
 33
0.0
 14
626.24182409039997
 24
55.927991388900011
 34
0.0
 50
90.0
  0
LINE
  5
E5
  8
ﾚｲﾔ_1
 62
     5
 10
836.18386156099996
 20
55.927991388900011
 30
0.0
 11
852.18386156099996
 21
59.827991388900003
 31
0.0
  0
ARC
  5
E6
  8
ﾚｲﾔ_1
 62
     5
 10
825.08386156100005
 20
53.427991388900011
 30
0.0
 40
2.5
 50
90.0
 51
180.0
  0
INSERT
  5
E8
  8
ﾚｲﾔ_1
  2
*X5
 10
0.0
 20
0.0
 30
0.0
  0
LINE
  5
FD
  8
ﾚｲﾔ_1
  6
BORDER
 62
     3
 10
1088.4362932643
 20
-125.6047612153
 30
0.0
 11
1126.2405871112001
 21
-125.6047612153
 31
0.0
  0
LINE
  5
FE
  8
ﾚｲﾔ_1
  6
BORDER
 62
     3
 10
1088.4362932643
 20
-117.1543705903
 30
0.0
 11
1126.2405871112001
 21
-117.1543705903
 31
0.0
  0
ARC
  5
FF
  8
ﾚｲﾔ_1
  6
BORDER
 62
     3
 10
1065.5161730487
 20
1.1779913888999991
 30
0.0
 40
8.75
 50
0.0000106003
 51
90.0
  0
ARC
  5
100
  8
ﾚｲﾔ_1
 62
     5
 10
1066.2661730487
 20
3.4279913888999989
 30
0.0
 40
15.5
 50
0.0
 51
90.0
  0
ARC
  5
101
  8
ﾚｲﾔ_1
 62
     5
 10
1066.2661730487
 20
2.2748840053000001
 30
0.0
 40
20.0
 50
0.0
 51
90.0
  0
LINE
  5
102
  8
ﾚｲﾔ_1
  6
BORDER
 62
     3
 10
616.19426599140002
 20
-117.1543705903
 30
0.0
 11
652.61555103629996
 21
-117.1543705903
 31
0.0
  0
LINE
  5
103
  8
ﾚｲﾔ_1
  6
BORDER
 62
     3
 10
652.61555103629996
 20
-121.3795659028
 30
0.0
 11
652.61555103629996
 21
-125.6047612153
 31
0.0
  0
LINE
  5
104
  8
ﾚｲﾔ_1
  6
BORDER
 62
     3
 10
652.61555103629996
 20
-112.9291752778
 30
0.0
 11
652.61555103629996
 21
-117.1543705903
 31
0.0
  0
LINE
  5
105
  8
ﾚｲﾔ_1
 10
710.56174081789993
 20
-57.674159570699992
 30
0.0
 11
670.58753955960003
 21
-6.1324227417999992
 31
0.0
  0
SOLID
  5
106
  8
ﾚｲﾔ_1
 10
670.58753955960003
 20
-6.1324227417999992
 30
0.0
 11
678.83339427800001
 21
-12.392259555700001
 31
0.0
 12
675.07393342149987
 22
-11.917066948900001
 32
0.0
 13
675.07393342149987
 23
-11.917066948900001
 33
0.0
  0
SOLID
  5
107
  8
ﾚｲﾔ_1
 10
670.58753955960003
 20
-6.1324227417999992
 30
0.0
 11
674.59874081470002
 21
-15.676527805399999
 31
0.0
 12
675.07393342149987
 22
-11.917066948900001
 32
0.0
 13
675.07393342149987
 23
-11.917066948900001
 33
0.0
  0
LINE
  5
108
  8
ﾚｲﾔ_1
 10
710.56174081789993
 20
-57.674159570699992
 30
0.0
 11
782.17610748729987
 21
-57.674159570699992
 31
0.0
  0
INSERT
  5
109
  8
0
  6
CONTINUOUS
  2
*U40
 10
0.0
 20
0.0
 30
0.0
  0
INSERT
  5
10A
  8
0
  6
CONTINUOUS
  2
*U41
 10
0.0
 20
0.0
 30
0.0
  0
LINE
  5
10B
  8
ﾚｲﾔ_1
  6
BORDER
 62
     3
 10
670.06809714449992
 20
-129.82995652779999
 30
0.0
 11
670.06809714449992
 21
-125.6047612153
 31
0.0
  0
LINE
  5
10C
  8
ﾚｲﾔ_1
  6
BORDER
 62
     3
 10
670.06809714449992
 20
-121.3795659028
 30
0.0
 11
670.06809714449992
 21
-117.1543705903
 31
0.0
  0
LINE
  5
10D
  8
ﾚｲﾔ_1
  6
BORDER
 62
     3
 10
670.06809714449992
 20
-117.1543705903
 30
0.0
 11
707.87239099140004
 21
-117.1543705903
 31
0.0
  0
LINE
  5
10E
  8
ﾚｲﾔ_1
  6
BORDER
 62
     3
 10
670.06809714449992
 20
-125.6047612153
 30
0.0
 11
707.87239099140004
 21
-125.6047612153
 31
0.0
  0
LINE
  5
10F
  8
ﾚｲﾔ_1
  6
BORDER
 62
     3
 10
815.03630346199986
 20
-117.1543705903
 30
0.0
 11
851.45758850690004
 21
-117.1543705903
 31
0.0
  0
LINE
  5
110
  8
ﾚｲﾔ_1
  6
BORDER
 62
     3
 10
815.03630346199986
 20
-125.6047612153
 30
0.0
 11
851.45758850690004
 21
-125.6047612153
 31
0.0
  0
LINE
  5
111
  8
ﾚｲﾔ_1
  6
BORDER
 62
     3
 10
851.45758850690004
 20
-112.9291752778
 30
0.0
 11
851.45758850690004
 21
-117.1543705903
 31
0.0
  0
LINE
  5
112
  8
ﾚｲﾔ_1
  6
BORDER
 62
     3
 10
851.45758850690004
 20
-121.3795659028
 30
0.0
 11
851.45758850690004
 21
-125.6047612153
 31
0.0
  0
LINE
  5
113
  8
ﾚｲﾔ_1
 62
     5
 10
626.24182409039997
 20
55.927991388900011
 30
0.0
 11
696.4418240903999
 21
55.927991388900011
 31
0.0
  0
LINE
  5
114
  8
ﾚｲﾔ_1
 62
     5
 10
653.3418240904
 20
59.827991388900003
 30
0.0
 11
669.3418240904
 21
59.827991388900003
 31
0.0
  0
LINE
  5
115
  8
CONSTRUCTION
 62
     5
 10
696.4418240903999
 20
153.90474648110001
 30
0.0
 11
626.24182409039997
 21
153.90474648110001
 31
0.0
  0
LINE
  5
116
  8
CONSTRUCTION
 62
     5
 10
669.3418240904
 20
183.5047464811
 30
0.0
 11
653.3418240904
 21
183.5047464811
 31
0.0
  0
LINE
  5
117
  8
CONSTRUCTION
 62
     5
 10
626.24182409039997
 20
229.10474648109999
 30
0.0
 11
696.4418240903999
 21
229.10474648109999
 31
0.0
  0
LINE
  5
118
  8
CONSTRUCTION
 62
     5
 10
637.34182409039988
 20
215.5047464811
 30
0.0
 11
685.3418240904
 21
215.5047464811
 31
0.0
  0
LINE
  5
119
  8
CONSTRUCTION
 62
     5
 10
685.3418240904
 20
167.5047464811
 30
0.0
 11
637.34182409039988
 21
167.5047464811
 31
0.0
  0
LINE
  5
11A
  8
CONSTRUCTION
 62
     5
 10
653.3418240904
 20
199.5047464811
 30
0.0
 11
669.3418240904
 21
199.5047464811
 31
0.0
  0
ARC
  5
11B
  8
ﾚｲﾔ_1
 62
     5
 10
626.24182409039997
 20
53.427991388900011
 30
0.0
 40
2.5
 50
90.0
 51
180.0
  0
LINE
  5
11C
  8
CONSTRUCTION
 62
     5
 10
637.34182409039988
 20
215.5047464811
 30
0.0
 11
653.3418240904
 21
199.5047464811
 31
0.0
  0
LINE
  5
11D
  8
ﾚｲﾔ_1
 62
     5
 10
1046.2661730487
 20
-330.07200861109999
 30
0.0
 11
1047.2661730487
 21
-331.07200861109999
 31
0.0
  0
ARC
  5
11E
  8
ﾚｲﾔ_1
 62
     5
 10
1046.1661730487001
 20
-437.57200861109999
 30
0.0
 40
2.5
 50
180.0
 51
270.0
  0
ARC
  5
11F
  8
ﾚｲﾔ_1
 62
     5
 10
1045.9661730487001
 20
-437.57200861109999
 30
0.0
 40
1.5
 50
180.0
 51
270.0
  0
LINE
  5
120
  8
ﾚｲﾔ_1
 62
     5
 10
1047.2661730487
 20
-349.07200861109999
 30
0.0
 11
1047.2661730487
 21
-331.07200861109999
 31
0.0
  0
LINE
  5
121
  8
ﾚｲﾔ_1
 62
     5
 10
1059.7661730487
 20
-330.07200861109999
 30
0.0
 11
1059.7661730487
 21
-350.07200861109999
 31
0.0
  0
LINE
  5
122
  8
ﾚｲﾔ_1
 62
     5
 10
1060.7661730487
 20
-349.07200861109999
 30
0.0
 11
1060.7661730487
 21
-331.07200861109999
 31
0.0
  0
LINE
  5
123
  8
ﾚｲﾔ_1
 62
     5
 10
1044.2661730487
 20
-351.57200861109999
 30
0.0
 11
1046.2661730487
 21
-351.57200861109999
 31
0.0
  0
LINE
  5
124
  8
ﾚｲﾔ_1
 62
     5
 10
1044.2661730487
 20
-328.57200861109999
 30
0.0
 11
1046.2661730487
 21
-328.57200861109999
 31
0.0
  0
LINE
  5
125
  8
ﾚｲﾔ_1
 62
     5
 10
1046.2661730487
 20
-328.57200861109999
 30
0.0
 11
1046.2661730487
 21
-351.57200861109999
 31
0.0
  0
LINE
  5
126
  8
ﾚｲﾔ_1
 62
     5
 10
1047.2661730487
 20
-331.07200861109999
 30
0.0
 11
1064.7661730487
 21
-331.07200861109999
 31
0.0
  0
LINE
  5
127
  8
ﾚｲﾔ_1
 62
     5
 10
1066.7661730487
 20
-328.57200861109999
 30
0.0
 11
1066.7661730487
 21
-329.07200861109999
 31
0.0
  0
LINE
  5
128
  8
ﾚｲﾔ_1
 62
     5
 10
1081.7661730487
 20
-328.57200861109999
 30
0.0
 11
1081.7661730487
 21
-333.57200861109999
 31
0.0
  0
LINE
  5
129
  8
ﾚｲﾔ_1
 62
     5
 10
1115.2661730487
 20
-423.77200861109998
 30
0.0
 11
1115.2661730487
 21
-437.57200861109999
 31
0.0
  0
LINE
  5
12A
  8
ﾚｲﾔ_1
 62
     5
 10
1113.4661730487001
 20
-437.57200861109999
 30
0.0
 11
1114.4661730487001
 21
-437.57200861109999
 31
0.0
  0
ARC
  5
12B
  8
ﾚｲﾔ_1
 62
     5
 10
1112.7661730487
 20
-437.57200861109999
 30
0.0
 40
2.5
 50
270.0
 51
0.0
  0
ARC
  5
12C
  8
ﾚｲﾔ_1
 62
     5
 10
1112.9661730487001
 20
-437.57200861109999
 30
0.0
 40
1.5
 50
270.0
 51
0.0
  0
LINE
  5
12D
  8
ﾚｲﾔ_1
 62
     5
 10
1114.4661730487001
 20
-423.77200861109998
 30
0.0
 11
1115.2661730487
 21
-423.77200861109998
 31
0.0
  0
CIRCLE
  5
12E
  8
ﾚｲﾔ_1
 62
     5
 10
661.3418240904
 20
5.9279913888999989
 30
0.0
 40
11.5
  0
CIRCLE
  5
12F
  8
ﾚｲﾔ_1
 10
661.3418240904
 20
5.9279913888999989
 30
0.0
 40
10.5
  0
CIRCLE
  5
130
  8
ﾚｲﾔ_1
 62
     5
 10
661.3418240904
 20
5.9279913888999989
 30
0.0
 40
9.5
  0
CIRCLE
  5
131
  8
ﾚｲﾔ_1
 62
     5
 10
661.3418240904
 20
5.9279913888999989
 30
0.0
 40
15.25
  0
LINE
  5
132
  8
ﾚｲﾔ_1
  6
BORDER
 62
     3
 10
652.61555103629996
 20
-121.3795659028
 30
0.0
 11
670.06809714449992
 21
-129.82995652779999
 31
0.0
  0
LINE
  5
133
  8
ﾚｲﾔ_1
  6
BORDER
 62
     3
 10
652.61555103629996
 20
-112.9291752778
 30
0.0
 11
670.06809714449992
 21
-121.3795659028
 31
0.0
  0
LINE
  5
134
  8
ﾚｲﾔ_1
  6
BORDER
 62
     3
 10
639.60119909039997
 20
5.9279913888999989
 30
0.0
 11
683.25744909039997
 21
5.9279913888999989
 31
0.0
  0
LINE
  5
135
  8
ﾚｲﾔ_1
  6
BORDER
 62
     3
 10
616.19426599140002
 20
-125.6047612153
 30
0.0
 11
652.61555103629996
 21
-125.6047612153
 31
0.0
  0
LINE
  5
136
  8
ﾚｲﾔ_1
 62
     5
 10
895.98386156099991
 20
-423.77200861109998
 30
0.0
 11
895.98386156099991
 21
-437.57200861109999
 31
0.0
  0
LINE
  5
137
  8
ﾚｲﾔ_1
  6
BORDER
 62
     3
 10
1039.2661730487
 20
-340.07200861109999
 30
0.0
 11
1065.5161730487
 21
-340.07200861109999
 31
0.0
  0
LINE
  5
138
  8
ﾚｲﾔ_1
 62
     5
 10
1044.2661730487
 20
-325.07200861109999
 30
0.0
 11
1045.4661730487001
 21
-325.07200861109999
 31
0.0
  0
LINE
  5
139
  8
ﾚｲﾔ_1
 62
     5
 10
1045.4661730487001
 20
-357.07200861109999
 30
0.0
 11
1048.4661730487001
 21
-357.07200861109999
 31
0.0
  0
LINE
  5
13A
  8
ﾚｲﾔ_1
 62
     5
 10
1045.4661730487001
 20
-323.07200861109999
 30
0.0
 11
1048.4661730487001
 21
-323.07200861109999
 31
0.0
  0
LINE
  5
13B
  8
ﾚｲﾔ_1
 62
     5
 10
1048.4661730487001
 20
-357.07200861109999
 30
0.0
 11
1048.4661730487001
 21
-355.07200861109999
 31
0.0
  0
ARC
  5
13C
  8
ﾚｲﾔ_1
 62
     5
 10
1064.7661730487
 20
-329.07200861109999
 30
0.0
 40
2.0
 50
270.0
 51
0.0
  0
LINE
  5
13D
  8
ﾚｲﾔ_1
 62
     5
 10
1048.4661730487001
 20
-325.07200861109999
 30
0.0
 11
1062.2661730487
 21
-325.07200861109999
 31
0.0
  0
LINE
  5
13E
  8
ﾚｲﾔ_1
 62
     5
 10
1066.2661730487
 20
-352.41890122749999
 30
0.0
 11
1066.2661730487
 21
-353.07200861109999
 31
0.0
  0
LINE
  5
13F
  8
ﾚｲﾔ_1
 62
     5
 10
1044.4661730487001
 20
-355.07200861109999
 30
0.0
 11
1044.4661730487001
 21
-437.57200861109999
 31
0.0
  0
LINE
  5
140
  8
ﾚｲﾔ_1
 62
     5
 10
1044.2661730487
 20
-355.07200861109999
 30
0.0
 11
1044.2661730487
 21
-325.07200861109999
 31
0.0
  0
LINE
  5
141
  8
ﾚｲﾔ_1
 62
     5
 10
1046.2661730487
 20
-350.07200861109999
 30
0.0
 11
1059.7661730487
 21
-350.07200861109999
 31
0.0
  0
LINE
  5
142
  8
ﾚｲﾔ_1
 62
     5
 10
1046.2661730487
 20
-330.07200861109999
 30
0.0
 11
1059.7661730487
 21
-330.07200861109999
 31
0.0
  0
LINE
  5
143
  8
ﾚｲﾔ_1
 62
     5
 10
1046.2661730487
 20
-350.07200861109999
 30
0.0
 11
1047.2661730487
 21
-349.07200861109999
 31
0.0
  0
LINE
  5
144
  8
ﾚｲﾔ_1
 62
     5
 10
1048.4661730487001
 20
-323.07200861109999
 30
0.0
 11
1048.4661730487001
 21
-325.07200861109999
 31
0.0
  0
LINE
  5
145
  8
ﾚｲﾔ_1
 62
     5
 10
1059.7661730487
 20
-330.07200861109999
 30
0.0
 11
1060.7661730487
 21
-331.07200861109999
 31
0.0
  0
LINE
  5
146
  8
ﾚｲﾔ_1
 62
     5
 10
1045.4661730487001
 20
-355.07200861109999
 30
0.0
 11
1045.4661730487001
 21
-437.57200861109999
 31
0.0
  0
LINE
  5
147
  8
ﾚｲﾔ_1
 62
     5
 10
1059.7661730487
 20
-350.07200861109999
 30
0.0
 11
1060.7661730487
 21
-349.07200861109999
 31
0.0
  0
LINE
  5
148
  8
ﾚｲﾔ_1
 62
     5
 10
1047.2661730487
 20
-349.07200861109999
 30
0.0
 11
1066.2661730487
 21
-349.07200861109999
 31
0.0
  0
LINE
  5
149
  8
ﾚｲﾔ_1
 62
     5
 10
1064.2661730487
 20
-355.07200861109999
 30
0.0
 11
1048.4661730487001
 21
-355.07200861109999
 31
0.0
  0
LINE
  5
14A
  8
ﾚｲﾔ_1
 62
     5
 10
1044.4661730487001
 20
-437.57200861109999
 30
0.0
 11
1045.4661730487001
 21
-437.57200861109999
 31
0.0
  0
LINE
  5
14B
  8
ﾚｲﾔ_1
 62
     5
 10
1045.4661730487001
 20
-355.07200861109999
 30
0.0
 11
1044.2661730487
 21
-355.07200861109999
 31
0.0
  0
ARC
  5
14C
  8
ﾚｲﾔ_1
 62
     5
 10
1064.2661730487
 20
-353.07200861109999
 30
0.0
 40
2.0
 50
270.0
 51
0.0
  0
LINE
  5
14D
  8
ﾚｲﾔ_1
 62
     5
 10
1043.6661730487001
 20
-423.77200861109998
 30
0.0
 11
1043.6661730487001
 21
-437.57200861109999
 31
0.0
  0
LINE
  5
14E
  8
ﾚｲﾔ_1
 62
     5
 10
1043.6661730487001
 20
-423.77200861109998
 30
0.0
 11
1044.4661730487001
 21
-423.77200861109998
 31
0.0
  0
INSERT
  5
14F
  8
0
  6
CONTINUOUS
  2
*U42
 10
0.0
 20
0.0
 30
0.0
  0
INSERT
  5
150
  8
0
  6
CONTINUOUS
  2
*U43
 10
0.0
 20
0.0
 30
0.0
  0
INSERT
  5
151
  8
0
  6
CONTINUOUS
  2
*U44
 10
0.0
 20
0.0
 30
0.0
  0
LINE
  5
152
  8
図枠
 10
1078.8214861238
 20
-638.12512839589999
 30
0.0
 11
1078.8214861238
 21
-625.62512839589999
 31
0.0
  0
INSERT
  5
153
  8
0
  6
CONTINUOUS
  2
*U45
 10
0.0
 20
0.0
 30
0.0
  0
INSERT
  5
154
  8
0
  6
CONTINUOUS
  2
*U46
 10
0.0
 20
0.0
 30
0.0
  0
INSERT
  5
155
  8
0
  6
CONTINUOUS
  2
*U47
 10
0.0
 20
0.0
 30
0.0
  0
LINE
  5
156
  8
図枠
 10
1101.3214861238
 20
-638.12512839589999
 30
0.0
 11
1101.3214861238
 21
-625.62512839589999
 31
0.0
  0
INSERT
  5
158
  8
ﾚｲﾔ_1
  2
*X6
 10
0.0
 20
0.0
 30
0.0
  0
LINE
  5
16D
  8
ﾚｲﾔ_1
 62
     5
 10
1045.9661730487001
 20
-439.07200861109999
 30
0.0
 11
1112.9661730487001
 21
-439.07200861109999
 31
0.0
  0
LINE
  5
16E
  8
ﾚｲﾔ_1
 62
     5
 10
1046.1661730487001
 20
-440.07200861109987
 30
0.0
 11
1112.7661730487
 21
-440.07200861109987
 31
0.0
  0
INSERT
  5
170
  8
寸法線
  2
BALLON3
 10
0.0
 20
0.0
 30
0.0
  0
ARC
  5
179
  8
ﾚｲﾔ_1
  6
BORDER
 62
     3
 10
1065.5161730487
 20
-331.32200861109999
 30
0.0
 40
8.75
 50
270.0
 51
0.0
  0
ARC
  5
17A
  8
ﾚｲﾔ_1
 62
     5
 10
1066.2661730487
 20
-332.41890122749999
 30
0.0
 40
20.0
 50
270.0
 51
0.0
  0
LINE
  5
17B
  8
ﾚｲﾔ_1
 62
     5
 10
1065.2661730487
 20
-328.57200861109999
 30
0.0
 11
1083.2661730487
 21
-328.57200861109999
 31
0.0
  0
ARC
  5
17C
  8
ﾚｲﾔ_1
 62
     5
 10
1066.2661730487
 20
-333.57200861109999
 30
0.0
 40
15.5
 50
270.0
 51
0.0
  0
LINE
  5
17D
  8
ﾚｲﾔ_1
 62
     5
 10
1065.2661730487
 20
-301.57200861109999
 30
0.0
 11
1065.2661730487
 21
-328.57200861109999
 31
0.0
  0
LINE
  5
17E
  8
ﾚｲﾔ_1
 62
     5
 10
1062.2661730487
 20
-301.57200861109999
 30
0.0
 11
1062.2661730487
 21
-325.07200861109999
 31
0.0
  0
LINE
  5
17F
  8
ﾚｲﾔ_1
 62
     5
 10
1062.2661730487
 20
-301.57200861109999
 30
0.0
 11
1065.2661730487
 21
-301.57200861109999
 31
0.0
  0
LINE
  5
180
  8
ﾚｲﾔ_1
 62
     5
 10
1086.2661730487
 20
-301.57200861109999
 30
0.0
 11
1086.2661730487
 21
-332.41890122749999
 31
0.0
  0
LINE
  5
181
  8
ﾚｲﾔ_1
 62
     5
 10
1083.2661730487
 20
-301.57200861109999
 30
0.0
 11
1083.2661730487
 21
-328.57200861109999
 31
0.0
  0
LINE
  5
182
  8
ﾚｲﾔ_1
 62
     5
 10
1083.2661730487
 20
-301.57200861109999
 30
0.0
 11
1086.2661730487
 21
-301.57200861109999
 31
0.0
  0
INSERT
  5
184
  8
寸法線
  2
BALLON4
 10
0.0
 20
0.0
 30
0.0
  0
INSERT
  5
18E
  8
寸法線
  2
BALLON5
 10
0.0
 20
0.0
 30
0.0
  0
ARC
  5
197
  8
ﾚｲﾔ_1
 62
     5
 10
893.48386156100014
 20
-437.57200861109999
 30
0.0
 40
2.5
 50
270.0
 51
0.0
  0
LINE
  5
198
  8
図枠
 10
914.22310234449992
 20
-706.68344597869987
 30
0.0
 11
913.84534281570006
 21
-706.68344597869987
 31
0.0
  0
LINE
  5
199
  8
図枠
 10
914.22310234449992
 20
-711.68344597869998
 30
0.0
 11
914.22310234449992
 21
-715.43344597869998
 31
0.0
  0
LINE
  5
19A
  8
図枠
 10
984.79067645479995
 20
-706.68344597869987
 30
0.0
 11
992.66832411679991
 21
-706.68344597869987
 31
0.0
  0
LINE
  5
19B
  8
図枠
 10
964.62461749609997
 20
-711.68344597869998
 30
0.0
 11
964.62461749609997
 21
-715.43344597869998
 31
0.0
  0
LINE
  5
19C
  8
図枠
 10
920.47310234449992
 20
-710.43344597869998
 30
0.0
 11
920.47310234449992
 21
-706.68344597869987
 31
0.0
  0
LINE
  5
19D
  8
図枠
 10
970.16832411679979
 20
-702.18344597869987
 30
0.0
 11
970.16832411679979
 21
-706.68344597869987
 31
0.0
  0
LINE
  5
19E
  8
図枠
 10
925.47310234450003
 20
-702.93344597869998
 30
0.0
 11
920.47310234449992
 21
-702.93344597869998
 31
0.0
  0
POLYLINE
  8
図枠
  5
4C6
  66
     1
 10
0.000000
 20
0.000000
 30
0.000000
  70
     8
  0
VERTEX
  8
図枠
  5
4C7
 10
958.836
 20
-710.492
 30
0.000000
  70
    32
  0
VERTEX
  8
図枠
  5
4C8
 10
958.880
 20
-710.505
 30
0.000000
  70
    32
  0
VERTEX
  8
図枠
  5
4C9
 10
958.924
 20
-710.517
 30
0.000000
  70
    32
  0
VERTEX
  8
図枠
  5
4CA
 10
958.967
 20
-710.529
 30
0.000000
  70
    32
  0
VERTEX
  8
図枠
  5
4CB
 10
959.011
 20
-710.541
 30
0.000000
  70
    32
  0
VERTEX
  8
図枠
  5
4CC
 10
959.055
 20
-710.553
 30
0.000000
  70
    32
  0
VERTEX
  8
図枠
  5
4CD
 10
959.099
 20
-710.565
 30
0.000000
  70
    32
  0
VERTEX
  8
図枠
  5
4CE
 10
959.143
 20
-710.577
 30
0.000000
  70
    32
  0
VERTEX
  8
図枠
  5
4CF
 10
959.187
 20
-710.589
 30
0.000000
  70
    32
  0
VERTEX
  8
図枠
  5
4D0
 10
959.231
 20
-710.601
 30
0.000000
  70
    32
  0
VERTEX
  8
図枠
  5
4D1
 10
959.275
 20
-710.613
 30
0.000000
  70
    32
  0
VERTEX
  8
図枠
  5
4D2
 10
959.319
 20
-710.625
 30
0.000000
  70
    32
  0
VERTEX
  8
図枠
  5
4D3
 10
959.364
 20
-710.636
 30
0.000000
  70
    32
  0
VERTEX
  8
図枠
  5
4D4
 10
959.408
 20
-710.648
 30
0.000000
  70
    32
  0
VERTEX
  8
図枠
  5
4D5
 10
959.452
 20
-710.659
 30
0.000000
  70
    32
  0
VERTEX
  8
図枠
  5
4D6
 10
959.496
 20
-710.671
 30
0.000000
  70
    32
  0
VERTEX
  8
図枠
  5
4D7
 10
959.541
 20
-710.682
 30
0.000000
  70
    32
  0
VERTEX
  8
図枠
  5
4D8
 10
959.585
 20
-710.694
 30
0.000000
  70
    32
  0
VERTEX
  8
図枠
  5
4D9
 10
959.629
 20
-710.705
 30
0.000000
  70
    32
  0
VERTEX
  8
図枠
  5
4DA
 10
959.674
 20
-710.716
 30
0.000000
  70
    32
  0
VERTEX
  8
図枠
  5
4DB
 10
959.718
 20
-710.727
 30
0.000000
  70
    32
  0
VERTEX
  8
図枠
  5
4DC
 10
959.763
 20
-710.738
 30
0.000000
  70
    32
  0
VERTEX
  8
図枠
  5
4DD
 10
959.807
 20
-710.749
 30
0.000000
  70
    32
  0
VERTEX
  8
図枠
  5
4DE
 10
959.852
 20
-710.760
 30
0.000000
  70
    32
  0
VERTEX
  8
図枠
  5
4DF
 10
959.897
 20
-710.771
 30
0.000000
  70
    32
  0
VERTEX
  8
図枠
  5
4E0
 10
959.941
 20
-710.782
 30
0.000000
  70
    32
  0
VERTEX
  8
図枠
  5
4E1
 10
959.986
 20
-710.793
 30
0.000000
  70
    32
  0
VERTEX
  8
図枠
  5
4E2
 10
960.031
 20
-710.803
 30
0.000000
  70
    32
  0
VERTEX
  8
図枠
  5
4E3
 10
960.076
 20
-710.814
 30
0.000000
  70
    32
  0
VERTEX
  8
図枠
  5
4E4
 10
960.120
 20
-710.825
 30
0.000000
  70
    32
  0
VERTEX
  8
図枠
  5
4E5
 10
960.165
 20
-710.835
 30
0.000000
  70
    32
  0
VERTEX
  8
図枠
  5
4E6
 10
960.210
 20
-710.846
 30
0.000000
  70
    32
  0
VERTEX
  8
図枠
  5
4E7
 10
960.255
 20
-710.856
 30
0.000000
  70
    32
  0
VERTEX
  8
図枠
  5
4E8
 10
960.300
 20
-710.866
 30
0.000000
  70
    32
  0
VERTEX
  8
図枠
  5
4E9
 10
960.345
 20
-710.877
 30
0.000000
  70
    32
  0
VERTEX
  8
図枠
  5
4EA
 10
960.390
 20
-710.887
 30
0.000000
  70
    32
  0
VERTEX
  8
図枠
  5
4EB
 10
960.435
 20
-710.897
 30
0.000000
  70
    32
  0
VERTEX
  8
図枠
  5
4EC
 10
960.480
 20
-710.907
 30
0.000000
  70
    32
  0
VERTEX
  8
図枠
  5
4ED
 10
960.525
 20
-710.918
 30
0.000000
  70
    32
  0
VERTEX
  8
図枠
  5
4EE
 10
960.570
 20
-710.928
 30
0.000000
  70
    32
  0
VERTEX
  8
図枠
  5
4EF
 10
960.616
 20
-710.938
 30
0.000000
  70
    32
  0
VERTEX
  8
図枠
  5
4F0
 10
960.661
 20
-710.948
 30
0.000000
  70
    32
  0
VERTEX
  8
図枠
  5
4F1
 10
960.706
 20
-710.958
 30
0.000000
  70
    32
  0
VERTEX
  8
図枠
  5
4F2
 10
960.751
 20
-710.967
 30
0.000000
  70
    32
  0
VERTEX
  8
図枠
  5
4F3
 10
960.797
 20
-710.977
 30
0.000000
  70
    32
  0
VERTEX
  8
図枠
  5
4F4
 10
960.842
 20
-710.987
 30
0.000000
  70
    32
  0
VERTEX
  8
図枠
  5
4F5
 10
960.887
 20
-710.997
 30
0.000000
  70
    32
  0
VERTEX
  8
図枠
  5
4F6
 10
960.933
 20
-711.007
 30
0.000000
  70
    32
  0
VERTEX
  8
図枠
  5
4F7
 10
960.978
 20
-711.016
 30
0.000000
  70
    32
  0
VERTEX
  8
図枠
  5
4F8
 10
961.024
 20
-711.026
 30
0.000000
  70
    32
  0
VERTEX
  8
図枠
  5
4F9
 10
961.069
 20
-711.035
 30
0.000000
  70
    32
  0
VERTEX
  8
図枠
  5
4FA
 10
961.115
 20
-711.045
 30
0.000000
  70
    32
  0
VERTEX
  8
図枠
  5
4FB
 10
961.160
 20
-711.054
 30
0.000000
  70
    32
  0
VERTEX
  8
図枠
  5
4FC
 10
961.206
 20
-711.064
 30
0.000000
  70
    32
  0
VERTEX
  8
図枠
  5
4FD
 10
961.251
 20
-711.073
 30
0.000000
  70
    32
  0
VERTEX
  8
図枠
  5
4FE
 10
961.297
 20
-711.082
 30
0.000000
  70
    32
  0
VERTEX
  8
図枠
  5
4FF
 10
961.342
 20
-711.092
 30
0.000000
  70
    32
  0
VERTEX
  8
図枠
  5
500
 10
961.388
 20
-711.101
 30
0.000000
  70
    32
  0
VERTEX
  8
図枠
  5
501
 10
961.434
 20
-711.110
 30
0.000000
  70
    32
  0
VERTEX
  8
図枠
  5
502
 10
961.479
 20
-711.119
 30
0.000000
  70
    32
  0
VERTEX
  8
図枠
  5
503
 10
961.525
 20
-711.129
 30
0.000000
  70
    32
  0
VERTEX
  8
図枠
  5
504
 10
961.571
 20
-711.138
 30
0.000000
  70
    32
  0
VERTEX
  8
図枠
  5
505
 10
961.617
 20
-711.147
 30
0.000000
  70
    32
  0
VERTEX
  8
図枠
  5
506
 10
961.662
 20
-711.156
 30
0.000000
  70
    32
  0
VERTEX
  8
図枠
  5
507
 10
961.708
 20
-711.165
 30
0.000000
  70
    32
  0
VERTEX
  8
図枠
  5
508
 10
961.754
 20
-711.174
 30
0.000000
  70
    32
  0
VERTEX
  8
図枠
  5
509
 10
961.800
 20
-711.183
 30
0.000000
  70
    32
  0
VERTEX
  8
図枠
  5
50A
 10
961.846
 20
-711.192
 30
0.000000
  70
    32
  0
VERTEX
  8
図枠
  5
50B
 10
961.892
 20
-711.200
 30
0.000000
  70
    32
  0
VERTEX
  8
図枠
  5
50C
 10
961.938
 20
-711.209
 30
0.000000
  70
    32
  0
VERTEX
  8
図枠
  5
50D
 10
961.984
 20
-711.218
 30
0.000000
  70
    32
  0
VERTEX
  8
図枠
  5
50E
 10
962.030
 20
-711.227
 30
0.000000
  70
    32
  0
VERTEX
  8
図枠
  5
50F
 10
962.076
 20
-711.236
 30
0.000000
  70
    32
  0
VERTEX
  8
図枠
  5
510
 10
962.122
 20
-711.244
 30
0.000000
  70
    32
  0
VERTEX
  8
図枠
  5
511
 10
962.168
 20
-711.253
 30
0.000000
  70
    32
  0
VERTEX
  8
図枠
  5
512
 10
962.214
 20
-711.262
 30
0.000000
  70
    32
  0
VERTEX
  8
図枠
  5
513
 10
962.260
 20
-711.270
 30
0.000000
  70
    32
  0
VERTEX
  8
図枠
  5
514
 10
962.306
 20
-711.279
 30
0.000000
  70
    32
  0
VERTEX
  8
図枠
  5
515
 10
962.352
 20
-711.287
 30
0.000000
  70
    32
  0
VERTEX
  8
図枠
  5
516
 10
962.398
 20
-711.296
 30
0.000000
  70
    32
  0
VERTEX
  8
図枠
  5
517
 10
962.444
 20
-711.304
 30
0.000000
  70
    32
  0
VERTEX
  8
図枠
  5
518
 10
962.490
 20
-711.313
 30
0.000000
  70
    32
  0
VERTEX
  8
図枠
  5
519
 10
962.536
 20
-711.321
 30
0.000000
  70
    32
  0
VERTEX
  8
図枠
  5
51A
 10
962.583
 20
-711.330
 30
0.000000
  70
    32
  0
VERTEX
  8
図枠
  5
51B
 10
962.629
 20
-711.338
 30
0.000000
  70
    32
  0
VERTEX
  8
図枠
  5
51C
 10
962.675
 20
-711.346
 30
0.000000
  70
    32
  0
VERTEX
  8
図枠
  5
51D
 10
962.721
 20
-711.355
 30
0.000000
  70
    32
  0
VERTEX
  8
図枠
  5
51E
 10
962.767
 20
-711.363
 30
0.000000
  70
    32
  0
VERTEX
  8
図枠
  5
51F
 10
962.814
 20
-711.371
 30
0.000000
  70
    32
  0
VERTEX
  8
図枠
  5
520
 10
962.860
 20
-711.380
 30
0.000000
  70
    32
  0
VERTEX
  8
図枠
  5
521
 10
962.906
 20
-711.388
 30
0.000000
  70
    32
  0
VERTEX
  8
図枠
  5
522
 10
962.952
 20
-711.396
 30
0.000000
  70
    32
  0
VERTEX
  8
図枠
  5
523
 10
962.999
 20
-711.404
 30
0.000000
  70
    32
  0
VERTEX
  8
図枠
  5
524
 10
963.045
 20
-711.413
 30
0.000000
  70
    32
  0
VERTEX
  8
図枠
  5
525
 10
963.091
 20
-711.421
 30
0.000000
  70
    32
  0
VERTEX
  8
図枠
  5
526
 10
963.138
 20
-711.429
 30
0.000000
  70
    32
  0
VERTEX
  8
図枠
  5
527
 10
963.184
 20
-711.437
 30
0.000000
  70
    32
  0
VERTEX
  8
図枠
  5
528
 10
963.230
 20
-711.445
 30
0.000000
  70
    32
  0
VERTEX
  8
図枠
  5
529
 10
963.277
 20
-711.453
 30
0.000000
  70
    32
  0
VERTEX
  8
図枠
  5
52A
 10
963.323
 20
-711.461
 30
0.000000
  70
    32
  0
VERTEX
  8
図枠
  5
52B
 10
963.370
 20
-711.469
 30
0.000000
  70
    32
  0
VERTEX
  8
図枠
  5
52C
 10
963.416
 20
-711.477
 30
0.000000
  70
    32
  0
VERTEX
  8
図枠
  5
52D
 10
963.462
 20
-711.486
 30
0.000000
  70
    32
  0
VERTEX
  8
図枠
  5
52E
 10
963.509
 20
-711.494
 30
0.000000
  70
    32
  0
VERTEX
  8
図枠
  5
52F
 10
963.555
 20
-711.502
 30
0.000000
  70
    32
  0
VERTEX
  8
図枠
  5
530
 10
963.602
 20
-711.510
 30
0.000000
  70
    32
  0
VERTEX
  8
図枠
  5
531
 10
963.648
 20
-711.518
 30
0.000000
  70
    32
  0
VERTEX
  8
図枠
  5
532
 10
963.695
 20
-711.526
 30
0.000000
  70
    32
  0
VERTEX
  8
図枠
  5
533
 10
963.741
 20
-711.534
 30
0.000000
  70
    32
  0
VERTEX
  8
図枠
  5
534
 10
963.788
 20
-711.541
 30
0.000000
  70
    32
  0
VERTEX
  8
図枠
  5
535
 10
963.834
 20
-711.549
 30
0.000000
  70
    32
  0
VERTEX
  8
図枠
  5
536
 10
963.880
 20
-711.557
 30
0.000000
  70
    32
  0
VERTEX
  8
図枠
  5
537
 10
963.927
 20
-711.565
 30
0.000000
  70
    32
  0
VERTEX
  8
図枠
  5
538
 10
963.973
 20
-711.573
 30
0.000000
  70
    32
  0
VERTEX
  8
図枠
  5
539
 10
964.020
 20
-711.581
 30
0.000000
  70
    32
  0
VERTEX
  8
図枠
  5
53A
 10
964.066
 20
-711.589
 30
0.000000
  70
    32
  0
VERTEX
  8
図枠
  5
53B
 10
964.113
 20
-711.597
 30
0.000000
  70
    32
  0
VERTEX
  8
図枠
  5
53C
 10
964.159
 20
-711.605
 30
0.000000
  70
    32
  0
VERTEX
  8
図枠
  5
53D
 10
964.206
 20
-711.613
 30
0.000000
  70
    32
  0
VERTEX
  8
図枠
  5
53E
 10
964.252
 20
-711.621
 30
0.000000
  70
    32
  0
VERTEX
  8
図枠
  5
53F
 10
964.299
 20
-711.628
 30
0.000000
  70
    32
  0
VERTEX
  8
図枠
  5
540
 10
964.345
 20
-711.636
 30
0.000000
  70
    32
  0
VERTEX
  8
図枠
  5
541
 10
964.392
 20
-711.644
 30
0.000000
  70
    32
  0
VERTEX
  8
図枠
  5
542
 10
964.439
 20
-711.652
 30
0.000000
  70
    32
  0
VERTEX
  8
図枠
  5
543
 10
964.485
 20
-711.660
 30
0.000000
  70
    32
  0
VERTEX
  8
図枠
  5
544
 10
964.532
 20
-711.668
 30
0.000000
  70
    32
  0
VERTEX
  8
図枠
  5
545
 10
964.578
 20
-711.676
 30
0.000000
  70
    32
  0
VERTEX
  8
図枠
  5
546
 10
964.625
 20
-711.683
 30
0.000000
  70
    32
  0
SEQEND
  8
図枠
  5
547
  0
POLYLINE
  8
図枠
  5
548
  66
     1
 10
0.000000
 20
0.000000
 30
0.000000
  70
     8
  0
VERTEX
  8
図枠
  5
549
 10
950.710
 20
-705.153
 30
0.000000
  70
    32
  0
VERTEX
  8
図枠
  5
54A
 10
950.727
 20
-705.171
 30
0.000000
  70
    32
  0
VERTEX
  8
図枠
  5
54B
 10
950.743
 20
-705.190
 30
0.000000
  70
    32
  0
VERTEX
  8
図枠
  5
54C
 10
950.760
 20
-705.208
 30
0.000000
  70
    32
  0
VERTEX
  8
図枠
  5
54D
 10
950.776
 20
-705.227
 30
0.000000
  70
    32
  0
VERTEX
  8
図枠
  5
54E
 10
950.793
 20
-705.245
 30
0.000000
  70
    32
  0
VERTEX
  8
図枠
  5
54F
 10
950.809
 20
-705.263
 30
0.000000
  70
    32
  0
VERTEX
  8
図枠
  5
550
 10
950.826
 20
-705.282
 30
0.000000
  70
    32
  0
VERTEX
  8
図枠
  5
551
 10
950.842
 20
-705.300
 30
0.000000
  70
    32
  0
VERTEX
  8
図枠
  5
552
 10
950.859
 20
-705.318
 30
0.000000
  70
    32
  0
VERTEX
  8
図枠
  5
553
 10
950.875
 20
-705.337
 30
0.000000
  70
    32
  0
VERTEX
  8
図枠
  5
554
 10
950.892
 20
-705.355
 30
0.000000
  70
    32
  0
VERTEX
  8
図枠
  5
555
 10
950.908
 20
-705.374
 30
0.000000
  70
    32
  0
VERTEX
  8
図枠
  5
556
 10
950.925
 20
-705.392
 30
0.000000
  70
    32
  0
VERTEX
  8
図枠
  5
557
 10
950.941
 20
-705.410
 30
0.000000
  70
    32
  0
VERTEX
  8
図枠
  5
558
 10
950.958
 20
-705.429
 30
0.000000
  70
    32
  0
VERTEX
  8
図枠
  5
559
 10
950.974
 20
-705.447
 30
0.000000
  70
    32
  0
VERTEX
  8
図枠
  5
55A
 10
950.991
 20
-705.465
 30
0.000000
  70
    32
  0
VERTEX
  8
図枠
  5
55B
 10
951.008
 20
-705.484
 30
0.000000
  70
    32
  0
VERTEX
  8
図枠
  5
55C
 10
951.024
 20
-705.502
 30
0.000000
  70
    32
  0
VERTEX
  8
図枠
  5
55D
 10
951.041
 20
-705.520
 30
0.000000
  70
    32
  0
VERTEX
  8
図枠
  5
55E
 10
951.057
 20
-705.539
 30
0.000000
  70
    32
  0
VERTEX
  8
図枠
  5
55F
 10
951.074
 20
-705.557
 30
0.000000
  70
    32
  0
VERTEX
  8
図枠
  5
560
 10
951.090
 20
-705.575
 30
0.000000
  70
    32
  0
VERTEX
  8
図枠
  5
561
 10
951.107
 20
-705.594
 30
0.000000
  70
    32
  0
VERTEX
  8
図枠
  5
562
 10
951.123
 20
-705.612
 30
0.000000
  70
    32
  0
VERTEX
  8
図枠
  5
563
 10
951.140
 20
-705.630
 30
0.000000
  70
    32
  0
VERTEX
  8
図枠
  5
564
 10
951.156
 20
-705.649
 30
0.000000
  70
    32
  0
VERTEX
  8
図枠
  5
565
 10
951.173
 20
-705.667
 30
0.000000
  70
    32
  0
VERTEX
  8
図枠
  5
566
 10
951.190
 20
-705.685
 30
0.000000
  70
    32
  0
VERTEX
  8
図枠
  5
567
 10
951.206
 20
-705.704
 30
0.000000
  70
    32
  0
VERTEX
  8
図枠
  5
568
 10
951.223
 20
-705.722
 30
0.000000
  70
    32
  0
VERTEX
  8
図枠
  5
569
 10
951.239
 20
-705.740
 30
0.000000
  70
    32
  0
VERTEX
  8
図枠
  5
56A
 10
951.256
 20
-705.758
 30
0.000000
  70
    32
  0
VERTEX
  8
図枠
  5
56B
 10
951.272
 20
-705.777
 30
0.000000
  70
    32
  0
VERTEX
  8
図枠
  5
56C
 10
951.289
 20
-705.795
 30
0.000000
  70
    32
  0
VERTEX
  8
図枠
  5
56D
 10
951.306
 20
-705.813
 30
0.000000
  70
    32
  0
VERTEX
  8
図枠
  5
56E
 10
951.322
 20
-705.831
 30
0.000000
  70
    32
  0
VERTEX
  8
図枠
  5
56F
 10
951.339
 20
-705.849
 30
0.000000
  70
    32
  0
VERTEX
  8
図枠
  5
570
 10
951.356
 20
-705.868
 30
0.000000
  70
    32
  0
VERTEX
  8
図枠
  5
571
 10
951.372
 20
-705.886
 30
0.000000
  70
    32
  0
VERTEX
  8
図枠
  5
572
 10
951.389
 20
-705.904
 30
0.000000
  70
    32
  0
VERTEX
  8
図枠
  5
573
 10
951.405
 20
-705.922
 30
0.000000
  70
    32
  0
VERTEX
  8
図枠
  5
574
 10
951.422
 20
-705.940
 30
0.000000
  70
    32
  0
VERTEX
  8
図枠
  5
575
 10
951.439
 20
-705.958
 30
0.000000
  70
    32
  0
VERTEX
  8
図枠
  5
576
 10
951.455
 20
-705.977
 30
0.000000
  70
    32
  0
VERTEX
  8
図枠
  5
577
 10
951.472
 20
-705.995
 30
0.000000
  70
    32
  0
VERTEX
  8
図枠
  5
578
 10
951.489
 20
-706.013
 30
0.000000
  70
    32
  0
VERTEX
  8
図枠
  5
579
 10
951.505
 20
-706.031
 30
0.000000
  70
    32
  0
VERTEX
  8
図枠
  5
57A
 10
951.522
 20
-706.049
 30
0.000000
  70
    32
  0
VERTEX
  8
図枠
  5
57B
 10
951.539
 20
-706.067
 30
0.000000
  70
    32
  0
VERTEX
  8
図枠
  5
57C
 10
951.556
 20
-706.085
 30
0.000000
  70
    32
  0
VERTEX
  8
図枠
  5
57D
 10
951.572
 20
-706.103
 30
0.000000
  70
    32
  0
VERTEX
  8
図枠
  5
57E
 10
951.589
 20
-706.121
 30
0.000000
  70
    32
  0
VERTEX
  8
図枠
  5
57F
 10
951.606
 20
-706.139
 30
0.000000
  70
    32
  0
VERTEX
  8
図枠
  5
580
 10
951.623
 20
-706.157
 30
0.000000
  70
    32
  0
VERTEX
  8
図枠
  5
581
 10
951.639
 20
-706.175
 30
0.000000
  70
    32
  0
VERTEX
  8
図枠
  5
582
 10
951.656
 20
-706.193
 30
0.000000
  70
    32
  0
VERTEX
  8
図枠
  5
583
 10
951.673
 20
-706.211
 30
0.000000
  70
    32
  0
VERTEX
  8
図枠
  5
584
 10
951.690
 20
-706.229
 30
0.000000
  70
    32
  0
VERTEX
  8
図枠
  5
585
 10
951.706
 20
-706.247
 30
0.000000
  70
    32
  0
VERTEX
  8
図枠
  5
586
 10
951.723
 20
-706.265
 30
0.000000
  70
    32
  0
VERTEX
  8
図枠
  5
587
 10
951.740
 20
-706.283
 30
0.000000
  70
    32
  0
VERTEX
  8
図枠
  5
588
 10
951.757
 20
-706.300
 30
0.000000
  70
    32
  0
VERTEX
  8
図枠
  5
589
 10
951.774
 20
-706.318
 30
0.000000
  70
    32
  0
VERTEX
  8
図枠
  5
58A
 10
951.791
 20
-706.336
 30
0.000000
  70
    32
  0
VERTEX
  8
図枠
  5
58B
 10
951.807
 20
-706.354
 30
0.000000
  70
    32
  0
VERTEX
  8
図枠
  5
58C
 10
951.824
 20
-706.372
 30
0.000000
  70
    32
  0
VERTEX
  8
図枠
  5
58D
 10
951.841
 20
-706.389
 30
0.000000
  70
    32
  0
VERTEX
  8
図枠
  5
58E
 10
951.858
 20
-706.407
 30
0.000000
  70
    32
  0
VERTEX
  8
図枠
  5
58F
 10
951.875
 20
-706.425
 30
0.000000
  70
    32
  0
VERTEX
  8
図枠
  5
590
 10
951.892
 20
-706.443
 30
0.000000
  70
    32
  0
VERTEX
  8
図枠
  5
591
 10
951.909
 20
-706.460
 30
0.000000
  70
    32
  0
VERTEX
  8
図枠
  5
592
 10
951.926
 20
-706.478
 30
0.000000
  70
    32
  0
VERTEX
  8
図枠
  5
593
 10
951.943
 20
-706.496
 30
0.000000
  70
    32
  0
VERTEX
  8
図枠
  5
594
 10
951.960
 20
-706.513
 30
0.000000
  70
    32
  0
VERTEX
  8
図枠
  5
595
 10
951.977
 20
-706.531
 30
0.000000
  70
    32
  0
VERTEX
  8
図枠
  5
596
 10
951.994
 20
-706.549
 30
0.000000
  70
    32
  0
VERTEX
  8
図枠
  5
597
 10
952.011
 20
-706.566
 30
0.000000
  70
    32
  0
VERTEX
  8
図枠
  5
598
 10
952.028
 20
-706.584
 30
0.000000
  70
    32
  0
VERTEX
  8
図枠
  5
599
 10
952.045
 20
-706.601
 30
0.000000
  70
    32
  0
VERTEX
  8
図枠
  5
59A
 10
952.062
 20
-706.619
 30
0.000000
  70
    32
  0
VERTEX
  8
図枠
  5
59B
 10
952.079
 20
-706.636
 30
0.000000
  70
    32
  0
VERTEX
  8
図枠
  5
59C
 10
952.096
 20
-706.654
 30
0.000000
  70
    32
  0
VERTEX
  8
図枠
  5
59D
 10
952.113
 20
-706.671
 30
0.000000
  70
    32
  0
VERTEX
  8
図枠
  5
59E
 10
952.130
 20
-706.688
 30
0.000000
  70
    32
  0
VERTEX
  8
図枠
  5
59F
 10
952.147
 20
-706.706
 30
0.000000
  70
    32
  0
VERTEX
  8
図枠
  5
5A0
 10
952.164
 20
-706.723
 30
0.000000
  70
    32
  0
VERTEX
  8
図枠
  5
5A1
 10
952.182
 20
-706.741
 30
0.000000
  70
    32
  0
VERTEX
  8
図枠
  5
5A2
 10
952.199
 20
-706.758
 30
0.000000
  70
    32
  0
VERTEX
  8
図枠
  5
5A3
 10
952.216
 20
-706.775
 30
0.000000
  70
    32
  0
VERTEX
  8
図枠
  5
5A4
 10
952.233
 20
-706.792
 30
0.000000
  70
    32
  0
VERTEX
  8
図枠
  5
5A5
 10
952.250
 20
-706.810
 30
0.000000
  70
    32
  0
VERTEX
  8
図枠
  5
5A6
 10
952.268
 20
-706.827
 30
0.000000
  70
    32
  0
VERTEX
  8
図枠
  5
5A7
 10
952.285
 20
-706.844
 30
0.000000
  70
    32
  0
VERTEX
  8
図枠
  5
5A8
 10
952.302
 20
-706.861
 30
0.000000
  70
    32
  0
VERTEX
  8
図枠
  5
5A9
 10
952.319
 20
-706.878
 30
0.000000
  70
    32
  0
VERTEX
  8
図枠
  5
5AA
 10
952.337
 20
-706.896
 30
0.000000
  70
    32
  0
VERTEX
  8
図枠
  5
5AB
 10
952.354
 20
-706.913
 30
0.000000
  70
    32
  0
VERTEX
  8
図枠
  5
5AC
 10
952.371
 20
-706.930
 30
0.000000
  70
    32
  0
VERTEX
  8
図枠
  5
5AD
 10
952.389
 20
-706.947
 30
0.000000
  70
    32
  0
VERTEX
  8
図枠
  5
5AE
 10
952.406
 20
-706.964
 30
0.000000
  70
    32
  0
VERTEX
  8
図枠
  5
5AF
 10
952.423
 20
-706.981
 30
0.000000
  70
    32
  0
VERTEX
  8
図枠
  5
5B0
 10
952.441
 20
-706.998
 30
0.000000
  70
    32
  0
VERTEX
  8
図枠
  5
5B1
 10
952.458
 20
-707.015
 30
0.000000
  70
    32
  0
VERTEX
  8
図枠
  5
5B2
 10
952.476
 20
-707.032
 30
0.000000
  70
    32
  0
VERTEX
  8
図枠
  5
5B3
 10
952.493
 20
-707.048
 30
0.000000
  70
    32
  0
VERTEX
  8
図枠
  5
5B4
 10
952.511
 20
-707.065
 30
0.000000
  70
    32
  0
VERTEX
  8
図枠
  5
5B5
 10
952.528
 20
-707.082
 30
0.000000
  70
    32
  0
VERTEX
  8
図枠
  5
5B6
 10
952.546
 20
-707.099
 30
0.000000
  70
    32
  0
VERTEX
  8
図枠
  5
5B7
 10
952.563
 20
-707.116
 30
0.000000
  70
    32
  0
VERTEX
  8
図枠
  5
5B8
 10
952.581
 20
-707.132
 30
0.000000
  70
    32
  0
VERTEX
  8
図枠
  5
5B9
 10
952.598
 20
-707.149
 30
0.000000
  70
    32
  0
VERTEX
  8
図枠
  5
5BA
 10
952.616
 20
-707.166
 30
0.000000
  70
    32
  0
VERTEX
  8
図枠
  5
5BB
 10
952.633
 20
-707.182
 30
0.000000
  70
    32
  0
VERTEX
  8
図枠
  5
5BC
 10
952.651
 20
-707.199
 30
0.000000
  70
    32
  0
VERTEX
  8
図枠
  5
5BD
 10
952.669
 20
-707.215
 30
0.000000
  70
    32
  0
VERTEX
  8
図枠
  5
5BE
 10
952.686
 20
-707.232
 30
0.000000
  70
    32
  0
VERTEX
  8
図枠
  5
5BF
 10
952.704
 20
-707.248
 30
0.000000
  70
    32
  0
VERTEX
  8
図枠
  5
5C0
 10
952.722
 20
-707.265
 30
0.000000
  70
    32
  0
VERTEX
  8
図枠
  5
5C1
 10
952.739
 20
-707.281
 30
0.000000
  70
    32
  0
VERTEX
  8
図枠
  5
5C2
 10
952.757
 20
-707.298
 30
0.000000
  70
    32
  0
VERTEX
  8
図枠
  5
5C3
 10
952.775
 20
-707.314
 30
0.000000
  70
    32
  0
VERTEX
  8
図枠
  5
5C4
 10
952.793
 20
-707.330
 30
0.000000
  70
    32
  0
VERTEX
  8
図枠
  5
5C5
 10
952.810
 20
-707.347
 30
0.000000
  70
    32
  0
VERTEX
  8
図枠
  5
5C6
 10
952.828
 20
-707.363
 30
0.000000
  70
    32
  0
VERTEX
  8
図枠
  5
5C7
 10
952.846
 20
-707.379
 30
0.000000
  70
    32
  0
VERTEX
  8
図枠
  5
5C8
 10
952.864
 20
-707.395
 30
0.000000
  70
    32
  0
SEQEND
  8
図枠
  5
5C9
  0
POLYLINE
  8
図枠
  5
5CA
  66
     1
 10
0.000000
 20
0.000000
 30
0.000000
  70
     8
  0
VERTEX
  8
図枠
  5
5CB
 10
942.125
 20
-704.544
 30
0.000000
  70
    32
  0
VERTEX
  8
図枠
  5
5CC
 10
942.170
 20
-704.586
 30
0.000000
  70
    32
  0
VERTEX
  8
図枠
  5
5CD
 10
942.215
 20
-704.627
 30
0.000000
  70
    32
  0
VERTEX
  8
図枠
  5
5CE
 10
942.260
 20
-704.669
 30
0.000000
  70
    32
  0
VERTEX
  8
図枠
  5
5CF
 10
942.305
 20
-704.710
 30
0.000000
  70
    32
  0
VERTEX
  8
図枠
  5
5D0
 10
942.350
 20
-704.752
 30
0.000000
  70
    32
  0
VERTEX
  8
図枠
  5
5D1
 10
942.395
 20
-704.793
 30
0.000000
  70
    32
  0
VERTEX
  8
図枠
  5
5D2
 10
942.440
 20
-704.834
 30
0.000000
  70
    32
  0
VERTEX
  8
図枠
  5
5D3
 10
942.485
 20
-704.876
 30
0.000000
  70
    32
  0
VERTEX
  8
図枠
  5
5D4
 10
942.530
 20
-704.917
 30
0.000000
  70
    32
  0
VERTEX
  8
図枠
  5
5D5
 10
942.575
 20
-704.959
 30
0.000000
  70
    32
  0
VERTEX
  8
図枠
  5
5D6
 10
942.620
 20
-705.000
 30
0.000000
  70
    32
  0
VERTEX
  8
図枠
  5
5D7
 10
942.665
 20
-705.042
 30
0.000000
  70
    32
  0
VERTEX
  8
図枠
  5
5D8
 10
942.710
 20
-705.083
 30
0.000000
  70
    32
  0
VERTEX
  8
図枠
  5
5D9
 10
942.755
 20
-705.125
 30
0.000000
  70
    32
  0
VERTEX
  8
図枠
  5
5DA
 10
942.800
 20
-705.166
 30
0.000000
  70
    32
  0
VERTEX
  8
図枠
  5
5DB
 10
942.845
 20
-705.208
 30
0.000000
  70
    32
  0
VERTEX
  8
図枠
  5
5DC
 10
942.890
 20
-705.249
 30
0.000000
  70
    32
  0
VERTEX
  8
図枠
  5
5DD
 10
942.936
 20
-705.290
 30
0.000000
  70
    32
  0
VERTEX
  8
図枠
  5
5DE
 10
942.981
 20
-705.332
 30
0.000000
  70
    32
  0
VERTEX
  8
図枠
  5
5DF
 10
943.026
 20
-705.373
 30
0.000000
  70
    32
  0
VERTEX
  8
図枠
  5
5E0
 10
943.071
 20
-705.414
 30
0.000000
  70
    32
  0
VERTEX
  8
図枠
  5
5E1
 10
943.116
 20
-705.456
 30
0.000000
  70
    32
  0
VERTEX
  8
図枠
  5
5E2
 10
943.161
 20
-705.497
 30
0.000000
  70
    32
  0
VERTEX
  8
図枠
  5
5E3
 10
943.206
 20
-705.538
 30
0.000000
  70
    32
  0
VERTEX
  8
図枠
  5
5E4
 10
943.252
 20
-705.579
 30
0.000000
  70
    32
  0
VERTEX
  8
図枠
  5
5E5
 10
943.297
 20
-705.621
 30
0.000000
  70
    32
  0
VERTEX
  8
図枠
  5
5E6
 10
943.342
 20
-705.662
 30
0.000000
  70
    32
  0
VERTEX
  8
図枠
  5
5E7
 10
943.387
 20
-705.703
 30
0.000000
  70
    32
  0
VERTEX
  8
図枠
  5
5E8
 10
943.432
 20
-705.744
 30
0.000000
  70
    32
  0
VERTEX
  8
図枠
  5
5E9
 10
943.478
 20
-705.785
 30
0.000000
  70
    32
  0
VERTEX
  8
図枠
  5
5EA
 10
943.523
 20
-705.826
 30
0.000000
  70
    32
  0
VERTEX
  8
図枠
  5
5EB
 10
943.568
 20
-705.867
 30
0.000000
  70
    32
  0
VERTEX
  8
図枠
  5
5EC
 10
943.613
 20
-705.909
 30
0.000000
  70
    32
  0
VERTEX
  8
図枠
  5
5ED
 10
943.659
 20
-705.950
 30
0.000000
  70
    32
  0
VERTEX
  8
図枠
  5
5EE
 10
943.704
 20
-705.991
 30
0.000000
  70
    32
  0
VERTEX
  8
図枠
  5
5EF
 10
943.749
 20
-706.032
 30
0.000000
  70
    32
  0
VERTEX
  8
図枠
  5
5F0
 10
943.795
 20
-706.072
 30
0.000000
  70
    32
  0
VERTEX
  8
図枠
  5
5F1
 10
943.840
 20
-706.113
 30
0.000000
  70
    32
  0
VERTEX
  8
図枠
  5
5F2
 10
943.885
 20
-706.154
 30
0.000000
  70
    32
  0
VERTEX
  8
図枠
  5
5F3
 10
943.931
 20
-706.195
 30
0.000000
  70
    32
  0
VERTEX
  8
図枠
  5
5F4
 10
943.976
 20
-706.236
 30
0.000000
  70
    32
  0
VERTEX
  8
図枠
  5
5F5
 10
944.022
 20
-706.277
 30
0.000000
  70
    32
  0
VERTEX
  8
図枠
  5
5F6
 10
944.067
 20
-706.317
 30
0.000000
  70
    32
  0
VERTEX
  8
図枠
  5
5F7
 10
944.113
 20
-706.358
 30
0.000000
  70
    32
  0
VERTEX
  8
図枠
  5
5F8
 10
944.158
 20
-706.399
 30
0.000000
  70
    32
  0
VERTEX
  8
図枠
  5
5F9
 10
944.204
 20
-706.439
 30
0.000000
  70
    32
  0
VERTEX
  8
図枠
  5
5FA
 10
944.249
 20
-706.480
 30
0.000000
  70
    32
  0
VERTEX
  8
図枠
  5
5FB
 10
944.295
 20
-706.520
 30
0.000000
  70
    32
  0
VERTEX
  8
図枠
  5
5FC
 10
944.340
 20
-706.561
 30
0.000000
  70
    32
  0
VERTEX
  8
図枠
  5
5FD
 10
944.386
 20
-706.601
 30
0.000000
  70
    32
  0
VERTEX
  8
図枠
  5
5FE
 10
944.431
 20
-706.642
 30
0.000000
  70
    32
  0
VERTEX
  8
図枠
  5
5FF
 10
944.477
 20
-706.682
 30
0.000000
  70
    32
  0
VERTEX
  8
図枠
  5
600
 10
944.523
 20
-706.722
 30
0.000000
  70
    32
  0
VERTEX
  8
図枠
  5
601
 10
944.568
 20
-706.763
 30
0.000000
  70
    32
  0
VERTEX
  8
図枠
  5
602
 10
944.614
 20
-706.803
 30
0.000000
  70
    32
  0
VERTEX
  8
図枠
  5
603
 10
944.660
 20
-706.843
 30
0.000000
  70
    32
  0
VERTEX
  8
図枠
  5
604
 10
944.706
 20
-706.883
 30
0.000000
  70
    32
  0
VERTEX
  8
図枠
  5
605
 10
944.751
 20
-706.923
 30
0.000000
  70
    32
  0
VERTEX
  8
図枠
  5
606
 10
944.797
 20
-706.963
 30
0.000000
  70
    32
  0
VERTEX
  8
図枠
  5
607
 10
944.843
 20
-707.003
 30
0.000000
  70
    32
  0
VERTEX
  8
図枠
  5
608
 10
944.889
 20
-707.043
 30
0.000000
  70
    32
  0
VERTEX
  8
図枠
  5
609
 10
944.935
 20
-707.083
 30
0.000000
  70
    32
  0
VERTEX
  8
図枠
  5
60A
 10
944.981
 20
-707.123
 30
0.000000
  70
    32
  0
VERTEX
  8
図枠
  5
60B
 10
945.027
 20
-707.163
 30
0.000000
  70
    32
  0
VERTEX
  8
図枠
  5
60C
 10
945.073
 20
-707.202
 30
0.000000
  70
    32
  0
VERTEX
  8
図枠
  5
60D
 10
945.119
 20
-707.242
 30
0.000000
  70
    32
  0
VERTEX
  8
図枠
  5
60E
 10
945.165
 20
-707.282
 30
0.000000
  70
    32
  0
VERTEX
  8
図枠
  5
60F
 10
945.211
 20
-707.321
 30
0.000000
  70
    32
  0
VERTEX
  8
図枠
  5
610
 10
945.257
 20
-707.361
 30
0.000000
  70
    32
  0
VERTEX
  8
図枠
  5
611
 10
945.303
 20
-707.400
 30
0.000000
  70
    32
  0
VERTEX
  8
図枠
  5
612
 10
945.350
 20
-707.439
 30
0.000000
  70
    32
  0
VERTEX
  8
図枠
  5
613
 10
945.396
 20
-707.479
 30
0.000000
  70
    32
  0
VERTEX
  8
図枠
  5
614
 10
945.442
 20
-707.518
 30
0.000000
  70
    32
  0
VERTEX
  8
図枠
  5
615
 10
945.488
 20
-707.557
 30
0.000000
  70
    32
  0
VERTEX
  8
図枠
  5
616
 10
945.535
 20
-707.596
 30
0.000000
  70
    32
  0
VERTEX
  8
図枠
  5
617
 10
945.581
 20
-707.635
 30
0.000000
  70
    32
  0
VERTEX
  8
図枠
  5
618
 10
945.627
 20
-707.674
 30
0.000000
  70
    32
  0
VERTEX
  8
図枠
  5
619
 10
945.674
 20
-707.713
 30
0.000000
  70
    32
  0
VERTEX
  8
図枠
  5
61A
 10
945.720
 20
-707.752
 30
0.000000
  70
    32
  0
VERTEX
  8
図枠
  5
61B
 10
945.767
 20
-707.791
 30
0.000000
  70
    32
  0
VERTEX
  8
図枠
  5
61C
 10
945.813
 20
-707.830
 30
0.000000
  70
    32
  0
VERTEX
  8
図枠
  5
61D
 10
945.860
 20
-707.868
 30
0.000000
  70
    32
  0
VERTEX
  8
図枠
  5
61E
 10
945.907
 20
-707.907
 30
0.000000
  70
    32
  0
VERTEX
  8
図枠
  5
61F
 10
945.953
 20
-707.945
 30
0.000000
  70
    32
  0
VERTEX
  8
図枠
  5
620
 10
946.000
 20
-707.984
 30
0.000000
  70
    32
  0
VERTEX
  8
図枠
  5
621
 10
946.047
 20
-708.022
 30
0.000000
  70
    32
  0
VERTEX
  8
図枠
  5
622
 10
946.093
 20
-708.060
 30
0.000000
  70
    32
  0
VERTEX
  8
図枠
  5
623
 10
946.140
 20
-708.098
 30
0.000000
  70
    32
  0
VERTEX
  8
図枠
  5
624
 10
946.187
 20
-708.137
 30
0.000000
  70
    32
  0
VERTEX
  8
図枠
  5
625
 10
946.234
 20
-708.175
 30
0.000000
  70
    32
  0
VERTEX
  8
図枠
  5
626
 10
946.281
 20
-708.213
 30
0.000000
  70
    32
  0
VERTEX
  8
図枠
  5
627
 10
946.328
 20
-708.250
 30
0.000000
  70
    32
  0
VERTEX
  8
図枠
  5
628
 10
946.375
 20
-708.288
 30
0.000000
  70
    32
  0
VERTEX
  8
図枠
  5
629
 10
946.422
 20
-708.326
 30
0.000000
  70
    32
  0
VERTEX
  8
図枠
  5
62A
 10
946.469
 20
-708.364
 30
0.000000
  70
    32
  0
VERTEX
  8
図枠
  5
62B
 10
946.516
 20
-708.401
 30
0.000000
  70
    32
  0
VERTEX
  8
図枠
  5
62C
 10
946.563
 20
-708.439
 30
0.000000
  70
    32
  0
VERTEX
  8
図枠
  5
62D
 10
946.611
 20
-708.476
 30
0.000000
  70
    32
  0
VERTEX
  8
図枠
  5
62E
 10
946.658
 20
-708.513
 30
0.000000
  70
    32
  0
VERTEX
  8
図枠
  5
62F
 10
946.705
 20
-708.551
 30
0.000000
  70
    32
  0
VERTEX
  8
図枠
  5
630
 10
946.753
 20
-708.588
 30
0.000000
  70
    32
  0
VERTEX
  8
図枠
  5
631
 10
946.800
 20
-708.625
 30
0.000000
  70
    32
  0
VERTEX
  8
図枠
  5
632
 10
946.848
 20
-708.662
 30
0.000000
  70
    32
  0
VERTEX
  8
図枠
  5
633
 10
946.895
 20
-708.699
 30
0.000000
  70
    32
  0
VERTEX
  8
図枠
  5
634
 10
946.943
 20
-708.735
 30
0.000000
  70
    32
  0
VERTEX
  8
図枠
  5
635
 10
946.990
 20
-708.772
 30
0.000000
  70
    32
  0
VERTEX
  8
図枠
  5
636
 10
947.038
 20
-708.809
 30
0.000000
  70
    32
  0
VERTEX
  8
図枠
  5
637
 10
947.086
 20
-708.845
 30
0.000000
  70
    32
  0
VERTEX
  8
図枠
  5
638
 10
947.134
 20
-708.882
 30
0.000000
  70
    32
  0
VERTEX
  8
図枠
  5
639
 10
947.181
 20
-708.918
 30
0.000000
  70
    32
  0
VERTEX
  8
図枠
  5
63A
 10
947.229
 20
-708.954
 30
0.000000
  70
    32
  0
VERTEX
  8
図枠
  5
63B
 10
947.277
 20
-708.990
 30
0.000000
  70
    32
  0
VERTEX
  8
図枠
  5
63C
 10
947.325
 20
-709.026
 30
0.000000
  70
    32
  0
VERTEX
  8
図枠
  5
63D
 10
947.373
 20
-709.062
 30
0.000000
  70
    32
  0
VERTEX
  8
図枠
  5
63E
 10
947.421
 20
-709.098
 30
0.000000
  70
    32
  0
VERTEX
  8
図枠
  5
63F
 10
947.469
 20
-709.134
 30
0.000000
  70
    32
  0
VERTEX
  8
図枠
  5
640
 10
947.518
 20
-709.170
 30
0.000000
  70
    32
  0
VERTEX
  8
図枠
  5
641
 10
947.566
 20
-709.205
 30
0.000000
  70
    32
  0
VERTEX
  8
図枠
  5
642
 10
947.614
 20
-709.241
 30
0.000000
  70
    32
  0
VERTEX
  8
図枠
  5
643
 10
947.663
 20
-709.276
 30
0.000000
  70
    32
  0
VERTEX
  8
図枠
  5
644
 10
947.711
 20
-709.311
 30
0.000000
  70
    32
  0
VERTEX
  8
図枠
  5
645
 10
947.759
 20
-709.346
 30
0.000000
  70
    32
  0
VERTEX
  8
図枠
  5
646
 10
947.808
 20
-709.381
 30
0.000000
  70
    32
  0
VERTEX
  8
図枠
  5
647
 10
947.857
 20
-709.416
 30
0.000000
  70
    32
  0
VERTEX
  8
図枠
  5
648
 10
947.905
 20
-709.451
 30
0.000000
  70
    32
  0
VERTEX
  8
図枠
  5
649
 10
947.954
 20
-709.486
 30
0.000000
  70
    32
  0
VERTEX
  8
図枠
  5
64A
 10
948.003
 20
-709.520
 30
0.000000
  70
    32
  0
VERTEX
  8
図枠
  5
64B
 10
948.052
 20
-709.555
 30
0.000000
  70
    32
  0
VERTEX
  8
図枠
  5
64C
 10
948.100
 20
-709.589
 30
0.000000
  70
    32
  0
VERTEX
  8
図枠
  5
64D
 10
948.149
 20
-709.624
 30
0.000000
  70
    32
  0
VERTEX
  8
図枠
  5
64E
 10
948.198
 20
-709.658
 30
0.000000
  70
    32
  0
VERTEX
  8
図枠
  5
64F
 10
948.247
 20
-709.692
 30
0.000000
  70
    32
  0
VERTEX
  8
図枠
  5
650
 10
948.297
 20
-709.726
 30
0.000000
  70
    32
  0
VERTEX
  8
図枠
  5
651
 10
948.346
 20
-709.759
 30
0.000000
  70
    32
  0
VERTEX
  8
図枠
  5
652
 10
948.395
 20
-709.793
 30
0.000000
  70
    32
  0
VERTEX
  8
図枠
  5
653
 10
948.444
 20
-709.827
 30
0.000000
  70
    32
  0
VERTEX
  8
図枠
  5
654
 10
948.494
 20
-709.860
 30
0.000000
  70
    32
  0
VERTEX
  8
図枠
  5
655
 10
948.543
 20
-709.893
 30
0.000000
  70
    32
  0
VERTEX
  8
図枠
  5
656
 10
948.593
 20
-709.927
 30
0.000000
  70
    32
  0
VERTEX
  8
図枠
  5
657
 10
948.642
 20
-709.960
 30
0.000000
  70
    32
  0
VERTEX
  8
図枠
  5
658
 10
948.692
 20
-709.993
 30
0.000000
  70
    32
  0
VERTEX
  8
図枠
  5
659
 10
948.742
 20
-710.026
 30
0.000000
  70
    32
  0
VERTEX
  8
図枠
  5
65A
 10
948.791
 20
-710.058
 30
0.000000
  70
    32
  0
VERTEX
  8
図枠
  5
65B
 10
948.841
 20
-710.091
 30
0.000000
  70
    32
  0
VERTEX
  8
図枠
  5
65C
 10
948.891
 20
-710.123
 30
0.000000
  70
    32
  0
VERTEX
  8
図枠
  5
65D
 10
948.941
 20
-710.156
 30
0.000000
  70
    32
  0
VERTEX
  8
図枠
  5
65E
 10
948.991
 20
-710.188
 30
0.000000
  70
    32
  0
VERTEX
  8
図枠
  5
65F
 10
949.041
 20
-710.220
 30
0.000000
  70
    32
  0
VERTEX
  8
図枠
  5
660
 10
949.091
 20
-710.252
 30
0.000000
  70
    32
  0
VERTEX
  8
図枠
  5
661
 10
949.142
 20
-710.284
 30
0.000000
  70
    32
  0
VERTEX
  8
図枠
  5
662
 10
949.192
 20
-710.316
 30
0.000000
  70
    32
  0
VERTEX
  8
図枠
  5
663
 10
949.242
 20
-710.347
 30
0.000000
  70
    32
  0
VERTEX
  8
図枠
  5
664
 10
949.293
 20
-710.379
 30
0.000000
  70
    32
  0
VERTEX
  8
図枠
  5
665
 10
949.343
 20
-710.410
 30
0.000000
  70
    32
  0
VERTEX
  8
図枠
  5
666
 10
949.394
 20
-710.441
 30
0.000000
  70
    32
  0
VERTEX
  8
図枠
  5
667
 10
949.445
 20
-710.472
 30
0.000000
  70
    32
  0
VERTEX
  8
図枠
  5
668
 10
949.495
 20
-710.503
 30
0.000000
  70
    32
  0
VERTEX
  8
図枠
  5
669
 10
949.546
 20
-710.534
 30
0.000000
  70
    32
  0
VERTEX
  8
図枠
  5
66A
 10
949.597
 20
-710.565
 30
0.000000
  70
    32
  0
SEQEND
  8
図枠
  5
66B
  0
LINE
  5
1A2
  8
図枠
 10
952.12461749609997
 20
-703.7387216474001
 30
0.0
 11
950.71040393369992
 21
-705.15293520979992
 31
0.0
  0
LINE
  5
1A3
  8
図枠
 10
992.66832411679991
 20
-708.68344597869998
 30
0.0
 11
992.66832411679991
 21
-713.18344597869998
 31
0.0
  0
LINE
  5
1A4
  8
図枠
  6
BORDER
 10
962.32148612380001
 20
-642.87512839589999
 30
0.0
 11
962.32148612380001
 21
-660.87512839589999
 31
0.0
  0
LINE
  5
1A5
  8
図枠
 10
920.47310234449992
 20
-702.93344597869998
 30
0.0
 11
920.47310234449992
 21
-701.68344597869987
 31
0.0
  0
LINE
  5
1A6
  8
図枠
 10
959.28141587629989
 20
-710.05627400109995
 30
0.0
 11
958.83616072679979
 21
-710.49221936159995
 31
0.0
  0
INSERT
  5
1A7
  8
0
  6
CONTINUOUS
  2
*U51
 10
0.0
 20
0.0
 30
0.0
  0
INSERT
  5
1A8
  8
0
  6
CONTINUOUS
  2
*U52
 10
0.0
 20
0.0
 30
0.0
  0
LINE
  5
1A9
  8
図枠
 10
963.8214861237999
 20
-638.12512839589999
 30
0.0
 11
963.8214861237999
 21
-625.62512839589999
 31
0.0
  0
INSERT
  5
1AA
  8
0
  6
CONTINUOUS
  2
*U53
 10
0.0
 20
0.0
 30
0.0
  0
POLYLINE
  8
図枠
  5
66C
  66
     1
 10
0.000000
 20
0.000000
 30
0.000000
  70
     8
  0
VERTEX
  8
図枠
  5
66D
 10
955.772
 20
-713.274
 30
0.000000
  70
    32
  0
VERTEX
  8
図枠
  5
66E
 10
955.839
 20
-713.296
 30
0.000000
  70
    32
  0
VERTEX
  8
図枠
  5
66F
 10
955.906
 20
-713.317
 30
0.000000
  70
    32
  0
VERTEX
  8
図枠
  5
670
 10
955.974
 20
-713.338
 30
0.000000
  70
    32
  0
VERTEX
  8
図枠
  5
671
 10
956.041
 20
-713.359
 30
0.000000
  70
    32
  0
VERTEX
  8
図枠
  5
672
 10
956.109
 20
-713.381
 30
0.000000
  70
    32
  0
VERTEX
  8
図枠
  5
673
 10
956.176
 20
-713.401
 30
0.000000
  70
    32
  0
VERTEX
  8
図枠
  5
674
 10
956.244
 20
-713.422
 30
0.000000
  70
    32
  0
VERTEX
  8
図枠
  5
675
 10
956.312
 20
-713.443
 30
0.000000
  70
    32
  0
VERTEX
  8
図枠
  5
676
 10
956.379
 20
-713.464
 30
0.000000
  70
    32
  0
VERTEX
  8
図枠
  5
677
 10
956.447
 20
-713.484
 30
0.000000
  70
    32
  0
VERTEX
  8
図枠
  5
678
 10
956.515
 20
-713.505
 30
0.000000
  70
    32
  0
VERTEX
  8
図枠
  5
679
 10
956.583
 20
-713.525
 30
0.000000
  70
    32
  0
VERTEX
  8
図枠
  5
67A
 10
956.651
 20
-713.545
 30
0.000000
  70
    32
  0
VERTEX
  8
図枠
  5
67B
 10
956.719
 20
-713.565
 30
0.000000
  70
    32
  0
VERTEX
  8
図枠
  5
67C
 10
956.787
 20
-713.585
 30
0.000000
  70
    32
  0
VERTEX
  8
図枠
  5
67D
 10
956.855
 20
-713.605
 30
0.000000
  70
    32
  0
VERTEX
  8
図枠
  5
67E
 10
956.923
 20
-713.625
 30
0.000000
  70
    32
  0
VERTEX
  8
図枠
  5
67F
 10
956.991
 20
-713.645
 30
0.000000
  70
    32
  0
VERTEX
  8
図枠
  5
680
 10
957.060
 20
-713.665
 30
0.000000
  70
    32
  0
VERTEX
  8
図枠
  5
681
 10
957.128
 20
-713.684
 30
0.000000
  70
    32
  0
VERTEX
  8
図枠
  5
682
 10
957.196
 20
-713.704
 30
0.000000
  70
    32
  0
VERTEX
  8
図枠
  5
683
 10
957.265
 20
-713.723
 30
0.000000
  70
    32
  0
VERTEX
  8
図枠
  5
684
 10
957.333
 20
-713.743
 30
0.000000
  70
    32
  0
VERTEX
  8
図枠
  5
685
 10
957.402
 20
-713.762
 30
0.000000
  70
    32
  0
VERTEX
  8
図枠
  5
686
 10
957.470
 20
-713.781
 30
0.000000
  70
    32
  0
VERTEX
  8
図枠
  5
687
 10
957.539
 20
-713.800
 30
0.000000
  70
    32
  0
VERTEX
  8
図枠
  5
688
 10
957.607
 20
-713.819
 30
0.000000
  70
    32
  0
VERTEX
  8
図枠
  5
689
 10
957.676
 20
-713.838
 30
0.000000
  70
    32
  0
VERTEX
  8
図枠
  5
68A
 10
957.745
 20
-713.857
 30
0.000000
  70
    32
  0
VERTEX
  8
図枠
  5
68B
 10
957.814
 20
-713.875
 30
0.000000
  70
    32
  0
VERTEX
  8
図枠
  5
68C
 10
957.882
 20
-713.894
 30
0.000000
  70
    32
  0
VERTEX
  8
図枠
  5
68D
 10
957.951
 20
-713.913
 30
0.000000
  70
    32
  0
VERTEX
  8
図枠
  5
68E
 10
958.020
 20
-713.931
 30
0.000000
  70
    32
  0
VERTEX
  8
図枠
  5
68F
 10
958.089
 20
-713.950
 30
0.000000
  70
    32
  0
VERTEX
  8
図枠
  5
690
 10
958.158
 20
-713.968
 30
0.000000
  70
    32
  0
VERTEX
  8
図枠
  5
691
 10
958.227
 20
-713.986
 30
0.000000
  70
    32
  0
VERTEX
  8
図枠
  5
692
 10
958.296
 20
-714.004
 30
0.000000
  70
    32
  0
VERTEX
  8
図枠
  5
693
 10
958.365
 20
-714.023
 30
0.000000
  70
    32
  0
VERTEX
  8
図枠
  5
694
 10
958.434
 20
-714.041
 30
0.000000
  70
    32
  0
VERTEX
  8
図枠
  5
695
 10
958.504
 20
-714.058
 30
0.000000
  70
    32
  0
VERTEX
  8
図枠
  5
696
 10
958.573
 20
-714.076
 30
0.000000
  70
    32
  0
VERTEX
  8
図枠
  5
697
 10
958.642
 20
-714.094
 30
0.000000
  70
    32
  0
VERTEX
  8
図枠
  5
698
 10
958.711
 20
-714.112
 30
0.000000
  70
    32
  0
VERTEX
  8
図枠
  5
699
 10
958.781
 20
-714.130
 30
0.000000
  70
    32
  0
VERTEX
  8
図枠
  5
69A
 10
958.850
 20
-714.147
 30
0.000000
  70
    32
  0
VERTEX
  8
図枠
  5
69B
 10
958.920
 20
-714.165
 30
0.000000
  70
    32
  0
VERTEX
  8
図枠
  5
69C
 10
958.989
 20
-714.182
 30
0.000000
  70
    32
  0
VERTEX
  8
図枠
  5
69D
 10
959.059
 20
-714.200
 30
0.000000
  70
    32
  0
VERTEX
  8
図枠
  5
69E
 10
959.128
 20
-714.217
 30
0.000000
  70
    32
  0
VERTEX
  8
図枠
  5
69F
 10
959.198
 20
-714.234
 30
0.000000
  70
    32
  0
VERTEX
  8
図枠
  5
6A0
 10
959.267
 20
-714.251
 30
0.000000
  70
    32
  0
VERTEX
  8
図枠
  5
6A1
 10
959.337
 20
-714.269
 30
0.000000
  70
    32
  0
VERTEX
  8
図枠
  5
6A2
 10
959.407
 20
-714.286
 30
0.000000
  70
    32
  0
VERTEX
  8
図枠
  5
6A3
 10
959.476
 20
-714.303
 30
0.000000
  70
    32
  0
VERTEX
  8
図枠
  5
6A4
 10
959.546
 20
-714.320
 30
0.000000
  70
    32
  0
VERTEX
  8
図枠
  5
6A5
 10
959.616
 20
-714.336
 30
0.000000
  70
    32
  0
VERTEX
  8
図枠
  5
6A6
 10
959.686
 20
-714.353
 30
0.000000
  70
    32
  0
VERTEX
  8
図枠
  5
6A7
 10
959.755
 20
-714.370
 30
0.000000
  70
    32
  0
VERTEX
  8
図枠
  5
6A8
 10
959.825
 20
-714.387
 30
0.000000
  70
    32
  0
VERTEX
  8
図枠
  5
6A9
 10
959.895
 20
-714.403
 30
0.000000
  70
    32
  0
VERTEX
  8
図枠
  5
6AA
 10
959.965
 20
-714.420
 30
0.000000
  70
    32
  0
VERTEX
  8
図枠
  5
6AB
 10
960.035
 20
-714.437
 30
0.000000
  70
    32
  0
VERTEX
  8
図枠
  5
6AC
 10
960.105
 20
-714.453
 30
0.000000
  70
    32
  0
VERTEX
  8
図枠
  5
6AD
 10
960.175
 20
-714.470
 30
0.000000
  70
    32
  0
VERTEX
  8
図枠
  5
6AE
 10
960.245
 20
-714.486
 30
0.000000
  70
    32
  0
VERTEX
  8
図枠
  5
6AF
 10
960.315
 20
-714.502
 30
0.000000
  70
    32
  0
VERTEX
  8
図枠
  5
6B0
 10
960.385
 20
-714.519
 30
0.000000
  70
    32
  0
VERTEX
  8
図枠
  5
6B1
 10
960.455
 20
-714.535
 30
0.000000
  70
    32
  0
VERTEX
  8
図枠
  5
6B2
 10
960.525
 20
-714.551
 30
0.000000
  70
    32
  0
VERTEX
  8
図枠
  5
6B3
 10
960.596
 20
-714.567
 30
0.000000
  70
    32
  0
VERTEX
  8
図枠
  5
6B4
 10
960.666
 20
-714.583
 30
0.000000
  70
    32
  0
VERTEX
  8
図枠
  5
6B5
 10
960.736
 20
-714.599
 30
0.000000
  70
    32
  0
VERTEX
  8
図枠
  5
6B6
 10
960.806
 20
-714.615
 30
0.000000
  70
    32
  0
VERTEX
  8
図枠
  5
6B7
 10
960.877
 20
-714.631
 30
0.000000
  70
    32
  0
VERTEX
  8
図枠
  5
6B8
 10
960.947
 20
-714.647
 30
0.000000
  70
    32
  0
VERTEX
  8
図枠
  5
6B9
 10
961.017
 20
-714.663
 30
0.000000
  70
    32
  0
VERTEX
  8
図枠
  5
6BA
 10
961.088
 20
-714.679
 30
0.000000
  70
    32
  0
VERTEX
  8
図枠
  5
6BB
 10
961.158
 20
-714.694
 30
0.000000
  70
    32
  0
VERTEX
  8
図枠
  5
6BC
 10
961.228
 20
-714.710
 30
0.000000
  70
    32
  0
VERTEX
  8
図枠
  5
6BD
 10
961.299
 20
-714.726
 30
0.000000
  70
    32
  0
VERTEX
  8
図枠
  5
6BE
 10
961.369
 20
-714.742
 30
0.000000
  70
    32
  0
VERTEX
  8
図枠
  5
6BF
 10
961.440
 20
-714.757
 30
0.000000
  70
    32
  0
VERTEX
  8
図枠
  5
6C0
 10
961.510
 20
-714.773
 30
0.000000
  70
    32
  0
VERTEX
  8
図枠
  5
6C1
 10
961.581
 20
-714.788
 30
0.000000
  70
    32
  0
VERTEX
  8
図枠
  5
6C2
 10
961.651
 20
-714.804
 30
0.000000
  70
    32
  0
VERTEX
  8
図枠
  5
6C3
 10
961.722
 20
-714.819
 30
0.000000
  70
    32
  0
VERTEX
  8
図枠
  5
6C4
 10
961.792
 20
-714.835
 30
0.000000
  70
    32
  0
VERTEX
  8
図枠
  5
6C5
 10
961.863
 20
-714.850
 30
0.000000
  70
    32
  0
VERTEX
  8
図枠
  5
6C6
 10
961.933
 20
-714.865
 30
0.000000
  70
    32
  0
VERTEX
  8
図枠
  5
6C7
 10
962.004
 20
-714.881
 30
0.000000
  70
    32
  0
VERTEX
  8
図枠
  5
6C8
 10
962.075
 20
-714.896
 30
0.000000
  70
    32
  0
VERTEX
  8
図枠
  5
6C9
 10
962.145
 20
-714.911
 30
0.000000
  70
    32
  0
VERTEX
  8
図枠
  5
6CA
 10
962.216
 20
-714.927
 30
0.000000
  70
    32
  0
VERTEX
  8
図枠
  5
6CB
 10
962.287
 20
-714.942
 30
0.000000
  70
    32
  0
VERTEX
  8
図枠
  5
6CC
 10
962.357
 20
-714.957
 30
0.000000
  70
    32
  0
VERTEX
  8
図枠
  5
6CD
 10
962.428
 20
-714.972
 30
0.000000
  70
    32
  0
VERTEX
  8
図枠
  5
6CE
 10
962.499
 20
-714.987
 30
0.000000
  70
    32
  0
VERTEX
  8
図枠
  5
6CF
 10
962.570
 20
-715.002
 30
0.000000
  70
    32
  0
VERTEX
  8
図枠
  5
6D0
 10
962.640
 20
-715.018
 30
0.000000
  70
    32
  0
VERTEX
  8
図枠
  5
6D1
 10
962.711
 20
-715.033
 30
0.000000
  70
    32
  0
VERTEX
  8
図枠
  5
6D2
 10
962.782
 20
-715.048
 30
0.000000
  70
    32
  0
VERTEX
  8
図枠
  5
6D3
 10
962.853
 20
-715.063
 30
0.000000
  70
    32
  0
VERTEX
  8
図枠
  5
6D4
 10
962.923
 20
-715.078
 30
0.000000
  70
    32
  0
VERTEX
  8
図枠
  5
6D5
 10
962.994
 20
-715.093
 30
0.000000
  70
    32
  0
VERTEX
  8
図枠
  5
6D6
 10
963.065
 20
-715.108
 30
0.000000
  70
    32
  0
VERTEX
  8
図枠
  5
6D7
 10
963.136
 20
-715.122
 30
0.000000
  70
    32
  0
VERTEX
  8
図枠
  5
6D8
 10
963.207
 20
-715.137
 30
0.000000
  70
    32
  0
VERTEX
  8
図枠
  5
6D9
 10
963.277
 20
-715.152
 30
0.000000
  70
    32
  0
VERTEX
  8
図枠
  5
6DA
 10
963.348
 20
-715.167
 30
0.000000
  70
    32
  0
VERTEX
  8
図枠
  5
6DB
 10
963.419
 20
-715.182
 30
0.000000
  70
    32
  0
VERTEX
  8
図枠
  5
6DC
 10
963.490
 20
-715.197
 30
0.000000
  70
    32
  0
VERTEX
  8
図枠
  5
6DD
 10
963.561
 20
-715.212
 30
0.000000
  70
    32
  0
VERTEX
  8
図枠
  5
6DE
 10
963.632
 20
-715.227
 30
0.000000
  70
    32
  0
VERTEX
  8
図枠
  5
6DF
 10
963.703
 20
-715.241
 30
0.000000
  70
    32
  0
VERTEX
  8
図枠
  5
6E0
 10
963.774
 20
-715.256
 30
0.000000
  70
    32
  0
VERTEX
  8
図枠
  5
6E1
 10
963.844
 20
-715.271
 30
0.000000
  70
    32
  0
VERTEX
  8
図枠
  5
6E2
 10
963.915
 20
-715.286
 30
0.000000
  70
    32
  0
VERTEX
  8
図枠
  5
6E3
 10
963.986
 20
-715.301
 30
0.000000
  70
    32
  0
VERTEX
  8
図枠
  5
6E4
 10
964.057
 20
-715.315
 30
0.000000
  70
    32
  0
VERTEX
  8
図枠
  5
6E5
 10
964.128
 20
-715.330
 30
0.000000
  70
    32
  0
VERTEX
  8
図枠
  5
6E6
 10
964.199
 20
-715.345
 30
0.000000
  70
    32
  0
VERTEX
  8
図枠
  5
6E7
 10
964.270
 20
-715.360
 30
0.000000
  70
    32
  0
VERTEX
  8
図枠
  5
6E8
 10
964.341
 20
-715.374
 30
0.000000
  70
    32
  0
VERTEX
  8
図枠
  5
6E9
 10
964.412
 20
-715.389
 30
0.000000
  70
    32
  0
VERTEX
  8
図枠
  5
6EA
 10
964.483
 20
-715.404
 30
0.000000
  70
    32
  0
VERTEX
  8
図枠
  5
6EB
 10
964.554
 20
-715.419
 30
0.000000
  70
    32
  0
VERTEX
  8
図枠
  5
6EC
 10
964.625
 20
-715.433
 30
0.000000
  70
    32
  0
SEQEND
  8
図枠
  5
6ED
  0
LINE
  5
1AC
  8
図枠
 10
976.03627990309997
 20
-648.87512839589999
 30
0.0
 11
988.03627990309985
 21
-645.87512839589988
 31
0.0
  0
LINE
  5
1AD
  8
図枠
 10
978.32165745009991
 20
-708.68344597869998
 30
0.0
 11
977.73499078340001
 21
-706.68344597869987
 31
0.0
  0
INSERT
  5
1AE
  8
0
  6
CONTINUOUS
  2
*U54
 10
0.0
 20
0.0
 30
0.0
  0
INSERT
  5
1AF
  8
0
  6
CONTINUOUS
  2
*U55
 10
0.0
 20
0.0
 30
0.0
  0
INSERT
  5
1B0
  8
0
  6
CONTINUOUS
  2
*U56
 10
0.0
 20
0.0
 30
0.0
  0
LINE
  5
1B1
  8
図枠
 10
976.41499078339984
 20
-702.18344597869987
 30
0.0
 11
975.16832411679991
 21
-697.93344597869998
 31
0.0
  0
LINE
  5
1B2
  8
図枠
  6
BORDER
 10
962.32148612380001
 20
-642.87512839589999
 30
0.0
 11
962.32148612380001
 21
-660.87512839589999
 31
0.0
  0
LINE
  5
1B3
  8
図枠
 10
942.12461749609997
 20
-703.7387216474001
 30
0.0
 11
952.12461749609997
 21
-703.7387216474001
 31
0.0
  0
ARC
  5
1B4
  8
図枠
 10
945.12461749609986
 20
-702.18344597869987
 30
0.0
 40
9.5
 50
270.0
 51
298.08590481520002
  0
LINE
  5
1B5
  8
図枠
 10
962.12461749609986
 20
-701.68344597869987
 30
0.0
 11
964.62461749609997
 21
-697.93344597869998
 31
0.0
  0
LINE
  5
1B6
  8
図枠
 10
975.16832411679991
 20
-697.93344597869998
 30
0.0
 11
985.16832411679979
 21
-697.93344597869998
 31
0.0
  0
LINE
  5
1B7
  8
図枠
 10
925.47310234450003
 20
-697.93344597869998
 30
0.0
 11
925.47310234450003
 21
-702.93344597869998
 31
0.0
  0
LINE
  5
1B8
  8
図枠
 10
976.03627990309997
 20
-654.87512839589988
 30
0.0
 11
988.03627990309985
 21
-657.87512839589988
 31
0.0
  0
LINE
  5
1B9
  8
図枠
 10
988.03627990309985
 20
-645.87512839589988
 30
0.0
 11
988.03627990309985
 21
-657.87512839589988
 31
0.0
  0
CIRCLE
  5
1BA
  8
図枠
 10
962.32148612380001
 20
-651.87512839589999
 30
0.0
 40
6.0
  0
CIRCLE
  5
1BB
  8
図枠
 10
962.32148612380001
 20
-651.87512839589999
 30
0.0
 40
3.0
  0
LINE
  5
1BC
  8
図枠
 10
976.03627990309997
 20
-648.87512839589999
 30
0.0
 11
988.03627990309985
 21
-645.87512839589988
 31
0.0
  0
LINE
  5
1BD
  8
図枠
 10
976.03627990309997
 20
-654.87512839589988
 30
0.0
 11
988.03627990309985
 21
-657.87512839589988
 31
0.0
  0
LINE
  5
1BE
  8
図枠
 10
970.16832411679979
 20
-708.68344597869998
 30
0.0
 11
970.16832411679979
 21
-713.18344597869998
 31
0.0
  0
LINE
  5
1BF
  8
図枠
 10
925.47310234450003
 20
-706.68344597869987
 30
0.0
 11
925.47310234450003
 21
-707.93344597869987
 31
0.0
  0
LINE
  5
1C0
  8
図枠
 10
931.72310234450003
 20
-702.93344597869998
 30
0.0
 11
931.72310234450003
 21
-701.68344597869987
 31
0.0
  0
ARC
  5
1C1
  8
図枠
 10
921.72310234449981
 20
-707.93344597869987
 30
0.0
 40
3.75
 50
270.0
 51
0.0
  0
ARC
  5
1C2
  8
図枠
 10
948.37461749609997
 20
-701.68344597869987
 30
0.0
 40
13.75
 50
270.0
 51
302.54495885400001
  0
LINE
  5
1C3
  8
図枠
 10
980.66832411679979
 20
-716.68344597869998
 30
0.0
 11
979.64165745009996
 21
-713.18344597869998
 31
0.0
  0
LINE
  5
1C4
  8
図枠
 10
970.16832411679979
 20
-713.18344597869998
 30
0.0
 11
979.64165745009996
 21
-713.18344597869998
 31
0.0
  0
LINE
  5
1C5
  8
図枠
 10
942.12461749609997
 20
-711.68344597869998
 30
0.0
 11
945.12461749609986
 21
-711.68344597869998
 31
0.0
  0
LINE
  5
1C6
  8
図枠
 10
964.62461749609997
 20
-697.93344597869998
 30
0.0
 11
942.12461749609997
 21
-697.93344597869998
 31
0.0
  0
LINE
  5
1C7
  8
図枠
 10
942.12461749609997
 20
-704.54399731609988
 30
0.0
 11
942.12461749609997
 21
-703.7387216474001
 31
0.0
  0
LINE
  5
1C8
  8
図枠
 10
970.16832411679979
 20
-708.68344597869998
 30
0.0
 11
978.32165745009991
 21
-708.68344597869998
 31
0.0
  0
LINE
  5
1C9
  8
図枠
 10
942.12461749609997
 20
-711.68344597869998
 30
0.0
 11
942.12461749609997
 21
-715.43344597869998
 31
0.0
  0
LINE
  5
1CA
  8
図枠
 10
988.03627990309985
 20
-645.87512839589988
 30
0.0
 11
988.03627990309985
 21
-657.87512839589988
 31
0.0
  0
LINE
  5
1CB
  8
図枠
 10
916.3214861237999
 20
-679.37512839589988
 30
0.0
 11
997.5714861237999
 21
-679.37512839589988
 31
0.0
  0
LINE
  5
1CC
  8
図枠
 10
910.0714861237999
 20
-665.62512839589999
 30
0.0
 11
910.0714861237999
 21
-693.12512839589988
 31
0.0
  0
INSERT
  5
1CD
  8
0
  6
CONTINUOUS
  2
*U57
 10
0.0
 20
0.0
 30
0.0
  0
LINE
  5
1CE
  8
図枠
 10
885.0714861237999
 20
-651.87512839589999
 30
0.0
 11
935.0714861237999
 21
-651.87512839589999
 31
0.0
  0
LINE
  5
1CF
  8
図枠
 10
941.3214861237999
 20
-638.12512839589999
 30
0.0
 11
941.3214861237999
 21
-665.62512839589999
 31
0.0
  0
INSERT
  5
1D0
  8
0
  6
CONTINUOUS
  2
*U58
 10
0.0
 20
0.0
 30
0.0
  0
LINE
  5
1D1
  8
図枠
 10
986.66114743510002
 20
-713.18344597869998
 30
0.0
 11
992.66832411679991
 21
-713.18344597869998
 31
0.0
  0
LINE
  5
1D2
  8
図枠
 10
987.66832411679991
 20
-716.68344597869998
 30
0.0
 11
980.66832411679979
 21
-716.68344597869998
 31
0.0
  0
LINE
  5
1D3
  8
図枠
 10
931.72310234450003
 20
-707.93344597869987
 30
0.0
 11
931.72310234450003
 21
-706.68344597869987
 31
0.0
  0
LINE
  5
1D4
  8
図枠
 10
924.22310234449992
 20
-697.93344597869998
 30
0.0
 11
914.22310234449992
 21
-697.93344597869998
 31
0.0
  0
LINE
  5
1D5
  8
図枠
 10
920.47310234449992
 20
-701.68344597869987
 30
0.0
 11
924.22310234449992
 21
-697.93344597869998
 31
0.0
  0
LINE
  5
1D6
  8
図枠
 10
921.72310234449981
 20
-711.68344597869998
 30
0.0
 11
914.22310234449992
 21
-711.68344597869998
 31
0.0
  0
LINE
  5
1D7
  8
図枠
 10
985.36620598720003
 20
-708.68344597869998
 30
0.0
 11
984.79067645479995
 21
-706.68344597869987
 31
0.0
  0
LINE
  5
1D8
  8
図枠
 10
983.49573500689996
 20
-702.18344597869987
 30
0.0
 11
992.66832411679991
 21
-702.18344597869987
 31
0.0
  0
LINE
  5
1D9
  8
図枠
 10
983.49573500689996
 20
-702.18344597869987
 30
0.0
 11
983.12974938130003
 21
-700.91162375249985
 31
0.0
  0
LINE
  5
1DA
  8
図枠
 10
976.03627990309997
 20
-654.87512839589988
 30
0.0
 11
988.03627990309985
 21
-657.87512839589988
 31
0.0
  0
LINE
  5
1DB
  8
図枠
 10
988.03627990309985
 20
-645.87512839589988
 30
0.0
 11
988.03627990309985
 21
-657.87512839589988
 31
0.0
  0
LINE
  5
1DC
  8
図枠
 10
976.03627990309997
 20
-648.87512839589999
 30
0.0
 11
976.03627990309997
 21
-654.87512839589988
 31
0.0
  0
CIRCLE
  5
1DD
  8
図枠
 10
962.32148612380001
 20
-651.87512839589999
 30
0.0
 40
3.0
  0
LINE
  5
1DE
  8
図枠
 10
976.03627990309997
 20
-648.87512839589999
 30
0.0
 11
976.03627990309997
 21
-654.87512839589988
 31
0.0
  0
LINE
  5
1DF
  8
図枠
 10
914.22310234449992
 20
-697.93344597869998
 30
0.0
 11
914.22310234449992
 21
-702.93344597869998
 31
0.0
  0
LINE
  5
1E0
  8
図枠
 10
942.12461749609997
 20
-697.93344597869998
 30
0.0
 11
942.12461749609997
 21
-702.43344597869998
 31
0.0
  0
LINE
  5
1E1
  8
図枠
 10
1003.8214861238
 20
-638.12512839589999
 30
0.0
 11
1003.8214861238
 21
-720.62512839589999
 31
0.0
  0
ARC
  5
1E2
  8
図枠
 10
924.22310234449992
 20
-707.93344597869987
 30
0.0
 40
7.5
 50
270.0
 51
0.0
  0
LINE
  5
1E3
  8
図枠
 10
942.12461749609997
 20
-715.43344597869998
 30
0.0
 11
948.37461749609997
 21
-715.43344597869998
 31
0.0
  0
LINE
  5
1E4
  8
図枠
 10
920.47310234449992
 20
-706.68344597869987
 30
0.0
 11
925.47310234450003
 21
-706.68344597869987
 31
0.0
  0
LINE
  5
1E5
  8
図枠
 10
911.34534281570006
 20
-706.68344597869987
 30
0.0
 11
913.84534281570006
 21
-706.68344597869987
 31
0.0
  0
ARC
  5
1E6
  8
図枠
 10
948.37461749609997
 20
-701.68344597869987
 30
0.0
 40
13.75
 50
322.48761197969998
 51
0.0
  0
LINE
  5
1E7
  8
図枠
 10
970.16832411679979
 20
-702.18344597869987
 30
0.0
 11
976.41499078339984
 21
-702.18344597869987
 31
0.0
  0
LINE
  5
1E8
  8
図枠
 10
942.12461749609997
 20
-702.43344597869998
 30
0.0
 11
954.62461749609997
 21
-702.43344597869998
 31
0.0
  0
LINE
  5
1E9
  8
図枠
 10
914.22310234449992
 20
-710.43344597869998
 30
0.0
 11
920.47310234449992
 21
-710.43344597869998
 31
0.0
  0
LINE
  5
1EA
  8
図枠
 10
953.46539872529991
 20
-706.73112324149997
 30
0.0
 11
952.86390920949998
 21
-707.39546914280004
 31
0.0
  0
LINE
  5
1EB
  8
図枠
 10
911.34534281570006
 20
-702.93344597869998
 30
0.0
 11
911.34534281570006
 21
-706.68344597869987
 31
0.0
  0
LINE
  5
1EC
  8
図枠
 10
935.47310234449992
 20
-702.93344597869998
 30
0.0
 11
935.47310234449992
 21
-706.68344597869987
 31
0.0
  0
LINE
  5
1ED
  8
図枠
 10
935.47310234449992
 20
-697.93344597869998
 30
0.0
 11
925.47310234450003
 21
-697.93344597869998
 31
0.0
  0
LINE
  5
1EE
  8
図枠
 10
985.36620598720003
 20
-708.68344597869998
 30
0.0
 11
992.66832411679991
 21
-708.68344597869998
 31
0.0
  0
INSERT
  5
1EF
  8
0
  6
CONTINUOUS
  2
*U59
 10
0.0
 20
0.0
 30
0.0
  0
LINE
  5
1F0
  8
図枠
 10
976.03627990309997
 20
-648.87512839589999
 30
0.0
 11
976.03627990309997
 21
-654.87512839589988
 31
0.0
  0
LINE
  5
1F1
  8
図枠
 10
988.03627990309985
 20
-645.87512839589988
 30
0.0
 11
988.03627990309985
 21
-657.87512839589988
 31
0.0
  0
ARC
  5
1F2
  8
図枠
 10
945.12461749609986
 20
-702.18344597869987
 30
0.0
 40
9.5
 50
331.39928138329998
 51
358.49204224580001
  0
LINE
  5
1F3
  8
図枠
 10
931.72310234450003
 20
-706.68344597869987
 30
0.0
 11
935.47310234449992
 21
-706.68344597869987
 31
0.0
  0
LINE
  5
1F4
  8
図枠
 10
992.66832411679991
 20
-702.18344597869987
 30
0.0
 11
992.66832411679991
 21
-706.68344597869987
 31
0.0
  0
LINE
  5
1F5
  8
図枠
 10
970.16832411679979
 20
-706.68344597869987
 30
0.0
 11
977.73499078340001
 21
-706.68344597869987
 31
0.0
  0
LINE
  5
1F6
  8
図枠
 10
935.47310234449992
 20
-702.93344597869998
 30
0.0
 11
931.72310234450003
 21
-702.93344597869998
 31
0.0
  0
LINE
  5
1F7
  8
図枠
 10
914.22310234449992
 20
-702.93344597869998
 30
0.0
 11
911.34534281570006
 21
-702.93344597869998
 31
0.0
  0
LINE
  5
1F8
  8
図枠
 10
914.22310234449992
 20
-706.68344597869987
 30
0.0
 11
914.22310234449992
 21
-710.43344597869998
 31
0.0
  0
LINE
  5
1F9
  8
図枠
 10
931.72310234450003
 20
-701.68344597869987
 30
0.0
 11
935.47310234449992
 21
-697.93344597869998
 31
0.0
  0
LINE
  5
1FA
  8
図枠
 10
914.22310234449992
 20
-715.43344597869998
 30
0.0
 11
924.22310234449992
 21
-715.43344597869998
 31
0.0
  0
LINE
  5
1FB
  8
図枠
 10
942.12461749609997
 20
-715.43344597869998
 30
0.0
 11
942.12461749609997
 21
-711.68344597869998
 31
0.0
  0
INSERT
  5
1FC
  8
0
  6
CONTINUOUS
  2
*U60
 10
0.0
 20
0.0
 30
0.0
  0
INSERT
  5
1FD
  8
0
  6
CONTINUOUS
  2
*U61
 10
0.0
 20
0.0
 30
0.0
  0
INSERT
  5
1FE
  8
0
  6
CONTINUOUS
  2
*U62
 10
0.0
 20
0.0
 30
0.0
  0
INSERT
  5
1FF
  8
0
  6
CONTINUOUS
  2
*U63
 10
0.0
 20
0.0
 30
0.0
  0
INSERT
  5
200
  8
0
  6
CONTINUOUS
  2
*U64
 10
0.0
 20
0.0
 30
0.0
  0
INSERT
  5
201
  8
0
  6
CONTINUOUS
  2
*U65
 10
0.0
 20
0.0
 30
0.0
  0
LINE
  5
202
  8
図枠
  6
BORDER
 10
962.32148612380001
 20
-642.87512839589999
 30
0.0
 11
962.32148612380001
 21
-660.87512839589999
 31
0.0
  0
LINE
  5
203
  8
図枠
 10
983.12974938130003
 20
-700.91162375249985
 30
0.0
 11
985.16832411679979
 21
-697.93344597869998
 31
0.0
  0
LINE
  5
204
  8
図枠
 10
878.8214861237999
 20
-638.12512839589999
 30
0.0
 11
878.8214861237999
 21
-665.62512839589999
 31
0.0
  0
LINE
  5
205
  8
図枠
 10
976.03627990309997
 20
-654.87512839589988
 30
0.0
 11
988.03627990309985
 21
-657.87512839589988
 31
0.0
  0
LINE
  5
206
  8
図枠
 10
976.03627990309997
 20
-648.87512839589999
 30
0.0
 11
988.03627990309985
 21
-645.87512839589988
 31
0.0
  0
CIRCLE
  5
207
  8
図枠
 10
962.32148612380001
 20
-651.87512839589999
 30
0.0
 40
6.0
  0
CIRCLE
  5
208
  8
図枠
 10
962.32148612380001
 20
-651.87512839589999
 30
0.0
 40
3.0
  0
LINE
  5
209
  8
図枠
  6
BORDER
 10
953.32148612380001
 20
-651.87512839589999
 30
0.0
 11
991.82148612380001
 21
-651.87512839589999
 31
0.0
  0
CIRCLE
  5
20A
  8
図枠
 10
962.32148612380001
 20
-651.87512839589999
 30
0.0
 40
3.0
  0
LINE
  5
20B
  8
図枠
 10
962.12461749609986
 20
-701.68344597869987
 30
0.0
 11
964.62461749609997
 21
-697.93344597869998
 31
0.0
  0
INSERT
  5
20C
  8
0
  6
CONTINUOUS
  2
*U66
 10
0.0
 20
0.0
 30
0.0
  0
INSERT
  5
20D
  8
0
  6
CONTINUOUS
  2
*U67
 10
0.0
 20
0.0
 30
0.0
  0
INSERT
  5
20E
  8
0
  6
CONTINUOUS
  2
*U68
 10
0.0
 20
0.0
 30
0.0
  0
CIRCLE
  5
20F
  8
図枠
 10
962.32148612380001
 20
-651.87512839589999
 30
0.0
 40
6.0
  0
LINE
  5
210
  8
図枠
 10
976.03627990309997
 20
-648.87512839589999
 30
0.0
 11
988.03627990309985
 21
-645.87512839589988
 31
0.0
  0
LINE
  5
211
  8
図枠
 10
976.03627990309997
 20
-648.87512839589999
 30
0.0
 11
976.03627990309997
 21
-654.87512839589988
 31
0.0
  0
LINE
  5
212
  8
図枠
  6
BORDER
 10
962.32148612380001
 20
-642.87512839589999
 30
0.0
 11
962.32148612380001
 21
-660.87512839589999
 31
0.0
  0
CIRCLE
  5
213
  8
図枠
 10
962.32148612380001
 20
-651.87512839589999
 30
0.0
 40
6.0
  0
LINE
  5
214
  8
図枠
 10
987.66832411679991
 20
-716.68344597869998
 30
0.0
 11
986.66114743510002
 21
-713.18344597869998
 31
0.0
  0
LINE
  5
215
  8
図枠
 10
838.8214861237999
 20
-638.12512839589999
 30
0.0
 11
838.8214861237999
 21
-625.62512839589999
 31
0.0
  0
INSERT
  5
216
  8
0
  6
CONTINUOUS
  2
*U69
 10
0.0
 20
0.0
 30
0.0
  0
INSERT
  5
217
  8
0
  6
CONTINUOUS
  2
*U70
 10
0.0
 20
0.0
 30
0.0
  0
LINE
  5
218
  8
ﾚｲﾔ_1
  6
BORDER
 62
     3
 10
639.60119909039997
 20
-340.07200861109999
 30
0.0
 11
682.06682409040002
 21
-340.07200861109999
 31
0.0
  0
LINE
  5
219
  8
ﾚｲﾔ_1
 62
     5
 10
628.04182409040004
 20
-440.07200861109987
 30
0.0
 11
694.64182409039995
 21
-440.07200861109987
 31
0.0
  0
LINE
  5
21A
  8
ﾚｲﾔ_1
 62
     5
 10
625.54182409040004
 20
-423.77200861109998
 30
0.0
 11
697.14182409039995
 21
-423.77200861109998
 31
0.0
  0
CIRCLE
  5
21B
  8
ﾚｲﾔ_1
 62
     5
 10
661.3418240904
 20
-340.07200861109999
 30
0.0
 40
9.5
  0
CIRCLE
  5
21C
  8
ﾚｲﾔ_1
 62
     5
 10
661.3418240904
 20
-340.07200861109999
 30
0.0
 40
9.5
  0
CIRCLE
  5
21D
  8
ﾚｲﾔ_1
 10
661.3418240904
 20
-340.07200861109999
 30
0.0
 40
10.5
  0
CIRCLE
  5
21E
  8
ﾚｲﾔ_1
 62
     5
 10
661.3418240904
 20
-340.07200861109999
 30
0.0
 40
15.25
  0
CIRCLE
  5
21F
  8
ﾚｲﾔ_1
 62
     5
 10
661.3418240904
 20
-340.07200861109999
 30
0.0
 40
11.5
  0
ARC
  5
220
  8
ﾚｲﾔ_1
 62
     5
 10
628.04182409040004
 20
-437.57200861109999
 30
0.0
 40
2.5
 50
180.0
 51
270.0
  0
LINE
  5
221
  8
ﾚｲﾔ_1
 62
     5
 10
625.54182409040004
 20
-423.77200861109998
 30
0.0
 11
625.54182409040004
 21
-437.57200861109999
 31
0.0
  0
ARC
  5
222
  8
ﾚｲﾔ_1
 62
     5
 10
694.64182409039995
 20
-437.57200861109999
 30
0.0
 40
2.5
 50
270.0
 51
0.0
  0
LINE
  5
223
  8
ﾚｲﾔ_1
 62
     5
 10
697.14182409039995
 20
-423.77200861109998
 30
0.0
 11
697.14182409039995
 21
-437.57200861109999
 31
0.0
  0
DIMENSION
  5
232
  8
寸法線
  2
*D10
 10
584.17832084529994
 20
-340.07200861109999
 30
0.0
 11
584.17832084529994
 21
-390.07200861109999
 31
0.0
 70
   128
  1
200
 13
639.60119909039997
 23
-340.07200861109999
 33
0.0
 14
628.04182409040004
 24
-440.07200861109987
 34
0.0
 50
90.0
  0
ARC
  5
233
  8
ﾚｲﾔ_1
 62
     5
 10
826.883861561
 20
-437.57200861109999
 30
0.0
 40
2.5
 50
180.0
 51
270.0
  0
LINE
  5
234
  8
ﾚｲﾔ_1
 62
     5
 10
824.383861561
 20
-423.77200861109998
 30
0.0
 11
824.383861561
 21
-437.57200861109999
 31
0.0
  0
INSERT
  5
235
  8
0
  6
CONTINUOUS
  2
*U71
 10
0.0
 20
0.0
 30
0.0
  0
INSERT
  5
236
  8
0
  6
CONTINUOUS
  2
*U72
 10
0.0
 20
0.0
 30
0.0
  0
INSERT
  5
237
  8
0
  6
CONTINUOUS
  2
*U73
 10
0.0
 20
0.0
 30
0.0
  0
INSERT
  5
238
  8
0
  6
CONTINUOUS
  2
*U74
 10
0.0
 20
0.0
 30
0.0
  0
LINE
  5
239
  8
図枠
 62
     5
 10
868.52313250249983
 20
-625.06641428689989
 30
0.0
 11
880.89813250249995
 21
-625.06641428689989
 31
0.0
  0
LINE
  5
23A
  8
図枠
 62
     5
 10
874.71063250249995
 20
-614.34934991499995
 30
0.0
 11
880.89813250249995
 21
-625.06641428689989
 31
0.0
  0
LINE
  5
23B
  8
図枠
 62
     5
 10
874.71063250249995
 20
-614.34934991499995
 30
0.0
 11
868.52313250249983
 21
-625.06641428689989
 31
0.0
  0
LINE
  5
23C
  8
ﾚｲﾔ_1
 62
     5
 10
1044.4661730487001
 20
41.92799138889999
 30
0.0
 11
1044.4661730487001
 21
24.927991388900001
 31
0.0
  0
LINE
  5
23D
  8
ﾚｲﾔ_1
 62
     5
 10
1045.4661730487001
 20
53.927991388899997
 30
0.0
 11
1045.4661730487001
 21
24.927991388900001
 31
0.0
  0
LINE
  5
23E
  8
ﾚｲﾔ_1
 62
     5
 10
897.78386156099998
 20
40.42799138889999
 30
0.0
 11
897.78386156099998
 21
53.427991388900011
 31
0.0
  0
ARC
  5
23F
  8
ﾚｲﾔ_1
 62
     5
 10
895.28386156100009
 20
40.42799138889999
 30
0.0
 40
2.5
 50
270.0
 51
0.0
  0
LINE
  5
240
  8
ﾚｲﾔ_1
 62
     5
 10
1041.8661730486999
 20
40.42799138889999
 30
0.0
 11
1041.8661730486999
 21
53.427991388900011
 31
0.0
  0
LINE
  5
241
  8
ﾚｲﾔ_1
 62
     5
 10
1044.3661730486999
 20
41.92799138889999
 30
0.0
 11
1044.4661730487001
 21
41.92799138889999
 31
0.0
  0
ARC
  5
242
  8
ﾚｲﾔ_1
 62
     5
 10
1044.3661730486999
 20
40.42799138889999
 30
0.0
 40
2.5
 50
180.0
 51
270.0
  0
LINE
  5
243
  8
ﾚｲﾔ_1
 62
     5
 10
1042.8661730486999
 20
40.42799138889999
 30
0.0
 11
1042.8661730486999
 21
53.427991388900011
 31
0.0
  0
ARC
  5
244
  8
ﾚｲﾔ_1
 62
     5
 10
1044.3661730486999
 20
40.42799138889999
 30
0.0
 40
1.5
 50
180.0
 51
270.0
  0
LINE
  5
245
  8
ﾚｲﾔ_1
 62
     5
 10
1044.4661730487001
 20
41.92799138889999
 30
0.0
 11
1044.4661730487001
 21
53.927991388899997
 31
0.0
  0
ARC
  5
246
  8
ﾚｲﾔ_1
 62
     5
 10
1114.5661730487
 20
40.42799138889999
 30
0.0
 40
2.5
 50
270.0
 51
0.0
  0
LINE
  5
247
  8
ﾚｲﾔ_1
 62
     5
 10
1116.0661730487
 20
53.427991388900011
 30
0.0
 11
1116.0661730487
 21
40.42799138889999
 31
0.0
  0
ARC
  5
248
  8
ﾚｲﾔ_1
 62
     5
 10
1114.5661730487
 20
40.42799138889999
 30
0.0
 40
1.5
 50
270.0
 51
0.0
  0
LINE
  5
249
  8
ﾚｲﾔ_1
 62
     5
 10
1117.0661730487
 20
40.42799138889999
 30
0.0
 11
1117.0661730487
 21
53.427991388900011
 31
0.0
  0
LINE
  5
24A
  8
ﾚｲﾔ_1
 62
     5
 10
1114.4661730487001
 20
41.92799138889999
 30
0.0
 11
1114.4661730487001
 21
53.927991388899997
 31
0.0
  0
LINE
  5
24B
  8
ﾚｲﾔ_1
 62
     5
 10
1114.4661730487001
 20
41.92799138889999
 30
0.0
 11
1114.5661730487
 21
41.92799138889999
 31
0.0
  0
INSERT
  5
24C
  8
0
  6
CONTINUOUS
  2
*U75
 10
0.0
 20
0.0
 30
0.0
  0
INSERT
  5
24D
  8
0
  6
CONTINUOUS
  2
*U76
 10
0.0
 20
0.0
 30
0.0
  0
INSERT
  5
24E
  8
0
  6
CONTINUOUS
  2
*U77
 10
0.0
 20
0.0
 30
0.0
  0
INSERT
  5
24F
  8
0
  6
CONTINUOUS
  2
*U78
 10
0.0
 20
0.0
 30
0.0
  0
INSERT
  5
250
  8
0
  6
CONTINUOUS
  2
*U79
 10
0.0
 20
0.0
 30
0.0
  0
LINE
  5
251
  8
図枠
 10
816.3214861237999
 20
-638.12512839589999
 30
0.0
 11
816.3214861237999
 21
-720.62512839589999
 31
0.0
  0
LINE
  5
252
  8
図枠
 10
816.3214861237999
 20
-638.12512839589999
 30
0.0
 11
816.3214861237999
 21
-625.62512839589999
 31
0.0
  0
INSERT
  5
253
  8
0
  6
CONTINUOUS
  2
*U80
 10
0.0
 20
0.0
 30
0.0
  0
INSERT
  5
254
  8
0
  6
CONTINUOUS
  2
*U81
 10
0.0
 20
0.0
 30
0.0
  0
LINE
  5
255
  8
図枠
 62
     5
 10
1178.8214861238
 20
279.37487160410001
 30
0.0
 11
495.0714861237999
 21
279.37487160410001
 31
0.0
  0
INSERT
  5
257
  8
ﾚｲﾔ_1
  2
CLUMP0
 10
0.0
 20
0.0
 30
0.0
  0
LINE
  5
265
  8
ﾚｲﾔ_1
  6
BORDER
 62
     3
 10
851.45758850690004
 20
-112.9291752778
 30
0.0
 11
868.91013461509999
 21
-121.3795659028
 31
0.0
  0
LINE
  5
266
  8
ﾚｲﾔ_1
  6
BORDER
 62
     3
 10
851.45758850690004
 20
-121.3795659028
 30
0.0
 11
868.91013461509999
 21
-129.82995652779999
 31
0.0
  0
LINE
  5
267
  8
ﾚｲﾔ_1
 62
     5
 10
825.08386156100005
 20
55.927991388900011
 30
0.0
 11
895.28386156100009
 21
55.927991388900011
 31
0.0
  0
LINE
  5
268
  8
ﾚｲﾔ_1
 62
     5
 10
825.08386156100005
 20
37.927991388899997
 30
0.0
 11
895.28386156100009
 21
37.927991388899997
 31
0.0
  0
LINE
  5
269
  8
ﾚｲﾔ_1
 62
     5
 10
852.18386156099996
 20
59.827991388900003
 30
0.0
 11
868.18386156100007
 21
59.827991388900003
 31
0.0
  0
DIMENSION
  5
278
  8
寸法線
  2
*D12
 10
897.78386156099998
 20
103.9901631478
 30
0.0
 11
860.18386156100007
 21
103.9901631478
 31
0.0
 70
   128
  1
□75
 13
897.78386156099998
 23
53.427991388900011
 33
0.0
 14
822.58386156099994
 24
53.427991388900011
 34
0.0
  0
LINE
  5
279
  8
ﾚｲﾔ_1
 62
     5
 10
696.34182409039977
 20
37.927991388899997
 30
0.0
 11
696.34182409039977
 21
-117.1543705903
 31
0.0
  0
LINE
  5
27A
  8
ﾚｲﾔ_1
 62
     5
 10
626.3418240904
 20
37.927991388899997
 30
0.0
 11
626.3418240904
 21
-117.1543705903
 31
0.0
  0
DIMENSION
  5
289
  8
寸法線
  2
*D13
 10
584.60879110089991
 20
55.927991388900011
 30
0.0
 11
584.60879110089991
 21
30.927991388900001
 31
0.0
 70
   128
  1
(50)
 13
626.24182409039997
 23
55.927991388900011
 33
0.0
 14
639.60119909039997
 24
5.9279913888999989
 34
0.0
 50
90.0
  0
LINE
  5
28A
  8
ﾚｲﾔ_1
 62
     5
 10
825.18386156100007
 20
37.927991388899997
 30
0.0
 11
825.18386156100007
 21
-117.1543705903
 31
0.0
  0
LINE
  5
28B
  8
ﾚｲﾔ_1
 62
     5
 10
626.24182409039997
 20
37.927991388899997
 30
0.0
 11
696.4418240903999
 21
37.927991388899997
 31
0.0
  0
ARC
  5
28C
  8
ﾚｲﾔ_1
 62
     5
 10
626.24182409039997
 20
40.42799138889999
 30
0.0
 40
2.5
 50
180.0
 51
270.0
  0
LINE
  5
28D
  8
ﾚｲﾔ_1
 62
     5
 10
623.74182409039986
 20
40.42799138889999
 30
0.0
 11
623.74182409039986
 21
53.427991388900011
 31
0.0
  0
ARC
  5
28E
  8
ﾚｲﾔ_1
 62
     5
 10
696.4418240903999
 20
40.42799138889999
 30
0.0
 40
2.5
 50
270.0
 51
0.0
  0
LINE
  5
28F
  8
ﾚｲﾔ_1
 62
     5
 10
698.9418240903999
 20
40.42799138889999
 30
0.0
 11
698.9418240903999
 21
53.427991388900011
 31
0.0
  0
DIMENSION
  5
29E
  8
寸法線
  2
*D14
 10
696.34182409039977
 20
101.5665335642
 30
0.0
 11
661.3418240904
 21
101.5665335642
 31
0.0
 70
   128
  1
□70
 13
696.34182409039977
 23
37.927991388899997
 33
0.0
 14
626.3418240904
 24
37.927991388899997
 34
0.0
  0
LINE
  5
29F
  8
ﾚｲﾔ_1
 62
     5
 10
822.58386156099994
 20
40.42799138889999
 30
0.0
 11
822.58386156099994
 21
53.427991388900011
 31
0.0
  0
ARC
  5
2A0
  8
ﾚｲﾔ_1
 62
     5
 10
825.08386156100005
 20
40.42799138889999
 30
0.0
 40
2.5
 50
180.0
 51
270.0
  0
INSERT
  5
2A2
  8
ﾚｲﾔ_1
  2
*X15
 10
0.0
 20
0.0
 30
0.0
  0
INSERT
  5
2B7
  8
寸法線
  2
BALLON6
 10
0.0
 20
0.0
 30
0.0
  0
LINE
  5
2C0
  8
ﾚｲﾔ_1
 62
     5
 10
895.18386156099996
 20
37.927991388899997
 30
0.0
 11
895.18386156099996
 21
-117.1543705903
 31
0.0
  0
LINE
  5
2C1
  8
ﾚｲﾔ_1
 62
     5
 10
1114.4661730487001
 20
41.92799138889999
 30
0.0
 11
1114.4661730487001
 21
-117.1543705903
 31
0.0
  0
LINE
  5
2C2
  8
ﾚｲﾔ_1
 62
     5
 10
1113.4661730487001
 20
53.927991388899997
 30
0.0
 11
1113.4661730487001
 21
-117.1543705903
 31
0.0
  0
LINE
  5
2C3
  8
図枠
 10
1178.8214861238
 20
-625.62512839589999
 30
0.0
 11
816.3214861237999
 21
-625.62512839589999
 31
0.0
  0
LINE
  5
2C4
  8
図枠
 10
1178.8214861238
 20
-638.12512839589999
 30
0.0
 11
816.3214861237999
 21
-638.12512839589999
 31
0.0
  0
INSERT
  5
2C6
  8
図枠
  2
CLUMP1
 10
0.0
 20
0.0
 30
0.0
  0
INSERT
  5
2D0
  8
図枠
  2
CLUMP2
 10
0.0
 20
0.0
 30
0.0
  0
INSERT
  5
2DA
  8
図枠
  2
CLUMP3
 10
0.0
 20
0.0
 30
0.0
  0
INSERT
  5
2E4
  8
図枠
  2
CLUMP4
 10
0.0
 20
0.0
 30
0.0
  0
INSERT
  5
2EE
  8
図枠
  2
CLUMP5
 10
0.0
 20
0.0
 30
0.0
  0
INSERT
  5
2F8
  8
図枠
  2
CLUMP6
 10
0.0
 20
0.0
 30
0.0
  0
INSERT
  5
301
  8
0
  6
CONTINUOUS
  2
*U84
 10
0.0
 20
0.0
 30
0.0
  0
INSERT
  5
302
  8
0
  6
CONTINUOUS
  2
*U85
 10
0.0
 20
0.0
 30
0.0
  0
INSERT
  5
303
  8
0
  6
CONTINUOUS
  2
*U86
 10
0.0
 20
0.0
 30
0.0
  0
INSERT
  5
304
  8
0
  6
CONTINUOUS
  2
*U87
 10
0.0
 20
0.0
 30
0.0
  0
INSERT
  5
305
  8
0
  6
CONTINUOUS
  2
*U88
 10
0.0
 20
0.0
 30
0.0
  0
INSERT
  5
306
  8
0
  6
CONTINUOUS
  2
*U89
 10
0.0
 20
0.0
 30
0.0
  0
INSERT
  5
307
  8
0
  6
CONTINUOUS
  2
*U90
 10
0.0
 20
0.0
 30
0.0
  0
INSERT
  5
308
  8
0
  6
CONTINUOUS
  2
*U91
 10
0.0
 20
0.0
 30
0.0
  0
LINE
  5
309
  8
図枠
 10
822.5714861237999
 20
-651.87512839589999
 30
0.0
 11
872.5714861237999
 21
-651.87512839589999
 31
0.0
  0
INSERT
  5
30A
  8
0
  6
CONTINUOUS
  2
*U92
 10
0.0
 20
0.0
 30
0.0
  0
INSERT
  5
30B
  8
0
  6
CONTINUOUS
  2
*U93
 10
0.0
 20
0.0
 30
0.0
  0
INSERT
  5
30C
  8
0
  6
CONTINUOUS
  2
*U94
 10
0.0
 20
0.0
 30
0.0
  0
LINE
  5
30D
  8
図枠
 10
822.5714861237999
 20
-679.37512839589988
 30
0.0
 11
903.8214861237999
 21
-679.37512839589988
 31
0.0
  0
INSERT
  5
30E
  8
0
  6
CONTINUOUS
  2
*U95
 10
0.0
 20
0.0
 30
0.0
  0
LINE
  5
30F
  8
ﾚｲﾔ_1
 62
     5
 10
826.883861561
 20
-440.07200861109987
 30
0.0
 11
893.48386156100014
 21
-440.07200861109987
 31
0.0
  0
LINE
  5
310
  8
ﾚｲﾔ_1
 62
     5
 10
824.383861561
 20
-423.77200861109998
 30
0.0
 11
895.98386156099991
 21
-423.77200861109998
 31
0.0
  0
LINE
  5
311
  8
図枠
  6
DOT
 10
1193.0214861238001
 20
293.72487160409997
 30
0.0
 11
480.87148612380003
 21
293.72487160409997
 31
0.0
  0
LINE
  5
312
  8
図枠
  6
DOT
 10
480.87148612380003
 20
293.72487160409997
 30
0.0
 11
480.87148612380003
 21
-734.97512839590001
 31
0.0
  0
LINE
  5
313
  8
図枠
 62
     5
 10
495.0714861237999
 20
279.37487160410001
 30
0.0
 11
495.0714861237999
 21
-720.62512839589999
 31
0.0
  0
INSERT
  5
315
  8
ﾚｲﾔ_1
  2
*X23
 10
0.0
 20
0.0
 30
0.0
  0
LINE
  5
32F
  8
ﾚｲﾔ_1
 62
     5
 10
825.18386156100007
 20
-125.6047612153
 30
0.0
 11
825.18386156100007
 21
-423.77200861109998
 31
0.0
  0
LINE
  5
330
  8
ﾚｲﾔ_1
 62
     5
 10
895.18386156099996
 20
-125.6047612153
 30
0.0
 11
895.18386156099996
 21
-423.77200861109998
 31
0.0
  0
LINE
  5
331
  8
ﾚｲﾔ_1
  6
BORDER
 62
     3
 10
661.3418240904
 20
64.827991388900003
 30
0.0
 11
661.3418240904
 21
-445.07200861109987
 31
0.0
  0
LINE
  5
332
  8
ﾚｲﾔ_1
 62
     5
 10
696.34182409039977
 20
-125.6047612153
 30
0.0
 11
696.34182409039977
 21
-423.77200861109998
 31
0.0
  0
LINE
  5
333
  8
ﾚｲﾔ_1
 62
     5
 10
626.3418240904
 20
-125.6047612153
 30
0.0
 11
626.3418240904
 21
-423.77200861109998
 31
0.0
  0
LINE
  5
334
  8
ﾚｲﾔ_1
 62
     5
 10
1044.4661730487001
 20
-125.6047612153
 30
0.0
 11
1044.4661730487001
 21
-325.07200861109999
 31
0.0
  0
LINE
  5
335
  8
ﾚｲﾔ_1
 62
     5
 10
1067.2661730487
 20
-125.6047612153
 30
0.0
 11
1067.2661730487
 21
-328.57200861109999
 31
0.0
  0
LINE
  5
336
  8
ﾚｲﾔ_1
 62
     5
 10
1065.2661730487
 20
-301.57200861109999
 30
0.0
 11
1065.2661730487
 21
-125.6047612153
 31
0.0
  0
LINE
  5
337
  8
ﾚｲﾔ_1
 62
     5
 10
1045.4661730487001
 20
-125.6047612153
 30
0.0
 11
1045.4661730487001
 21
-325.07200861109999
 31
0.0
  0
LINE
  5
338
  8
ﾚｲﾔ_1
  6
BORDER
 62
     3
 10
1074.2661730487
 20
1.1779930077
 30
0.0
 11
1074.2661730487
 21
-331.32200861109999
 31
0.0
  0
LINE
  5
339
  8
ﾚｲﾔ_1
 62
     5
 10
1083.2661730487
 20
-301.57200861109999
 30
0.0
 11
1083.2661730487
 21
-127.4446924308
 31
0.0
  0
LINE
  5
33A
  8
ﾚｲﾔ_1
 62
     5
 10
1081.2661730487
 20
-126.47630758050001
 30
0.0
 11
1081.2661730487
 21
-328.57200861109999
 31
0.0
  0
DIMENSION
  5
349
  8
寸法線
  2
*D24
 10
552.17220281350001
 20
55.927991388900011
 30
0.0
 11
552.17220281350001
 21
-204.96323327850001
 31
0.0
 70
   128
  1
900
 13
628.04182409040004
 23
55.927991388900011
 33
0.0
 14
628.04182409040004
 24
-440.07200861109987
 34
0.0
 50
90.0
  0
DIMENSION
  5
358
  8
寸法線
  2
*D25
 10
584.35536473980005
 20
5.9279913888999989
 30
0.0
 11
584.35536473980005
 21
-172.1316959275
 31
0.0
 70
   128
  1
650
 13
639.60119909039997
 23
5.9279913888999989
 33
0.0
 14
639.60119909039997
 24
-340.07200861109999
 34
0.0
 50
90.0
  0
LINE
  5
359
  8
図枠
 62
     5
 10
1178.8214861238
 20
279.37487160410001
 30
0.0
 11
1178.8214861238
 21
-720.62512839589999
 31
0.0
  0
LINE
  5
35A
  8
ﾚｲﾔ_1
 62
     5
 10
1114.4661730487001
 20
-125.6047612153
 30
0.0
 11
1114.4661730487001
 21
-437.57200861109999
 31
0.0
  0
LINE
  5
35B
  8
ﾚｲﾔ_1
 62
     5
 10
1113.4661730487001
 20
-125.6047612153
 30
0.0
 11
1113.4661730487001
 21
-437.57200861109999
 31
0.0
  0
LINE
  5
35C
  8
図枠
 62
     5
 10
1178.8214861238
 20
-720.62512839589999
 30
0.0
 11
495.0714861237999
 21
-720.62512839589999
 31
0.0
  0
LINE
  5
35D
  8
図枠
 10
1178.8214861238
 20
-638.12512839589999
 30
0.0
 11
816.3214861237999
 21
-638.12512839589999
 31
0.0
  0
LINE
  5
35E
  8
図枠
 10
816.3214861237999
 20
-693.12512839589988
 30
0.0
 11
1178.8214861238
 21
-693.12512839589988
 31
0.0
  0
LINE
  5
35F
  8
図枠
 10
816.3214861237999
 20
-665.62512839589999
 30
0.0
 11
1178.8214861238
 21
-665.62512839589999
 31
0.0
  0
LINE
  5
360
  8
図枠
 10
816.3214861237999
 20
-638.12512839589999
 30
0.0
 11
1178.8214861238
 21
-638.12512839589999
 31
0.0
  0
INSERT
  5
37B
  8
ﾚｲﾔ_1
  2
*X26
 10
0.0
 20
0.0
 30
0.0
  0
ENDSEC
  0
EOF
