  0
SECTION
  2
HEADER
  9
$ACADVER
  1
AC1024
  9
$ACADMAINTVER
 70
   183
  9
$DWGCODEPAGE
  3
ANSI_932
  9
$LASTSAVEDBY
  1
MINATO
  9
$INSBASE
 10
0.0
 20
0.0
 30
0.0
  9
$EXTMIN
 10
737.9855217817707
 20
-364.873467270866
 30
-0.0015258207003583
  9
$EXTMAX
 10
936.0032326362848
 20
-76.37300780961971
 30
0.0000000349246037
  9
$LIMMIN
 10
0.0
 20
0.0
  9
$LIMMAX
 10
0.0
 20
0.0
  9
$ORTHOMODE
 70
     0
  9
$REGENMODE
 70
     1
  9
$FILLMODE
 70
     1
  9
$QTEXTMODE
 70
     0
  9
$MIRRTEXT
 70
     1
  9
$LTSCALE
 40
1.0
  9
$ATTMODE
 70
     1
  9
$TEXTSIZE
 40
0.0
  9
$TRACEWID
 40
0.05
  9
$TEXTSTYLE
  7
STANDARD
  9
$CLAYER
  8
0
  9
$CELTYPE
  6
CONTINUOUS
  9
$CECOLOR
 62
   256
  9
$CELTSCALE
 40
1.0
  9
$DISPSILH
 70
     0
  9
$DIMSCALE
 40
1.0
  9
$DIMASZ
 40
0.18
  9
$DIMEXO
 40
0.0625
  9
$DIMDLI
 40
0.38
  9
$DIMRND
 40
0.0
  9
$DIMDLE
 40
0.0
  9
$DIMEXE
 40
0.18
  9
$DIMTP
 40
0.0
  9
$DIMTM
 40
0.0
  9
$DIMTXT
 40
0.18
  9
$DIMCEN
 40
0.09
  9
$DIMTSZ
 40
0.0
  9
$DIMTOL
 70
     0
  9
$DIMLIM
 70
     0
  9
$DIMTIH
 70
     1
  9
$DIMTOH
 70
     1
  9
$DIMSE1
 70
     0
  9
$DIMSE2
 70
     0
  9
$DIMTAD
 70
     0
  9
$DIMZIN
 70
     0
  9
$DIMBLK
  1

  9
$DIMASO
 70
     1
  9
$DIMSHO
 70
     1
  9
$DIMPOST
  1

  9
$DIMAPOST
  1

  9
$DIMALT
 70
     0
  9
$DIMALTD
 70
     2
  9
$DIMALTF
 40
25.4
  9
$DIMLFAC
 40
1.0
  9
$DIMTOFL
 70
     0
  9
$DIMTVP
 40
0.0
  9
$DIMTIX
 70
     0
  9
$DIMSOXD
 70
     0
  9
$DIMSAH
 70
     0
  9
$DIMBLK1
  1

  9
$DIMBLK2
  1

  9
$DIMSTYLE
  2
STANDARD
  9
$DIMCLRD
 70
     0
  9
$DIMCLRE
 70
     0
  9
$DIMCLRT
 70
     0
  9
$DIMTFAC
 40
1.0
  9
$DIMGAP
 40
0.09
  9
$DIMJUST
 70
     0
  9
$DIMSD1
 70
     0
  9
$DIMSD2
 70
     0
  9
$DIMTOLJ
 70
     1
  9
$DIMTZIN
 70
     0
  9
$DIMALTZ
 70
     0
  9
$DIMALTTZ
 70
     0
  9
$DIMUPT
 70
     0
  9
$DIMDEC
 70
     4
  9
$DIMTDEC
 70
     4
  9
$DIMALTU
 70
     2
  9
$DIMALTTD
 70
     2
  9
$DIMTXSTY
  7
STANDARD
  9
$DIMAUNIT
 70
     0
  9
$DIMADEC
 70
     0
  9
$DIMALTRND
 40
0.0
  9
$DIMAZIN
 70
     0
  9
$DIMDSEP
 70
    46
  9
$DIMATFIT
 70
     3
  9
$DIMFRAC
 70
     0
  9
$DIMLDRBLK
  1

  9
$DIMLUNIT
 70
     2
  9
$DIMLWD
 70
    -2
  9
$DIMLWE
 70
    -2
  9
$DIMTMOVE
 70
     0
  9
$DIMFXL
 40
1.0
  9
$DIMFXLON
 70
     0
  9
$DIMJOGANG
 40
0.7853981633974483
  9
$DIMTFILL
 70
     0
  9
$DIMTFILLCLR
 70
     0
  9
$DIMARCSYM
 70
     0
  9
$DIMLTYPE
  6

  9
$DIMLTEX1
  6

  9
$DIMLTEX2
  6

  9
$DIMTXTDIRECTION
 70
     0
  9
$LUNITS
 70
     2
  9
$LUPREC
 70
     4
  9
$SKETCHINC
 40
0.1
  9
$FILLETRAD
 40
0.0
  9
$AUNITS
 70
     0
  9
$AUPREC
 70
     0
  9
$MENU
  1
acad
  9
$ELEVATION
 40
0.0
  9
$PELEVATION
 40
0.0
  9
$THICKNESS
 40
0.0
  9
$LIMCHECK
 70
     0
  9
$CHAMFERA
 40
0.0
  9
$CHAMFERB
 40
0.0
  9
$CHAMFERC
 40
0.0
  9
$CHAMFERD
 40
0.0
  9
$SKPOLY
 70
     0
  9
$TDCREATE
 40
2454861.483457570
  9
$TDUCREATE
 40
2454861.108457570
  9
$TDUPDATE
 40
2458856.541857130
  9
$TDUUPDATE
 40
2458856.166857130
  9
$TDINDWG
 40
0.0038646065
  9
$TDUSRTIMER
 40
0.0038597106
  9
$USRTIMER
 70
     1
  9
$ANGBASE
 50
0.0
  9
$ANGDIR
 70
     0
  9
$PDMODE
 70
     3
  9
$PDSIZE
 40
-1.0
  9
$PLINEWID
 40
0.0
  9
$SPLFRAME
 70
     0
  9
$SPLINETYPE
 70
     6
  9
$SPLINESEGS
 70
     8
  9
$HANDSEED
  5
64F
  9
$SURFTAB1
 70
     6
  9
$SURFTAB2
 70
     6
  9
$SURFTYPE
 70
     6
  9
$SURFU
 70
     6
  9
$SURFV
 70
     6
  9
$UCSBASE
  2

  9
$UCSNAME
  2

  9
$UCSORG
 10
0.0
 20
0.0
 30
0.0
  9
$UCSXDIR
 10
1.0
 20
0.0
 30
0.0
  9
$UCSYDIR
 10
0.0
 20
1.0
 30
0.0
  9
$UCSORTHOREF
  2

  9
$UCSORTHOVIEW
 70
     0
  9
$UCSORGTOP
 10
0.0
 20
0.0
 30
0.0
  9
$UCSORGBOTTOM
 10
0.0
 20
0.0
 30
0.0
  9
$UCSORGLEFT
 10
0.0
 20
0.0
 30
0.0
  9
$UCSORGRIGHT
 10
0.0
 20
0.0
 30
0.0
  9
$UCSORGFRONT
 10
0.0
 20
0.0
 30
0.0
  9
$UCSORGBACK
 10
0.0
 20
0.0
 30
0.0
  9
$PUCSBASE
  2

  9
$PUCSNAME
  2

  9
$PUCSORG
 10
0.0
 20
0.0
 30
0.0
  9
$PUCSXDIR
 10
1.0
 20
0.0
 30
0.0
  9
$PUCSYDIR
 10
0.0
 20
1.0
 30
0.0
  9
$PUCSORTHOREF
  2

  9
$PUCSORTHOVIEW
 70
     0
  9
$PUCSORGTOP
 10
0.0
 20
0.0
 30
0.0
  9
$PUCSORGBOTTOM
 10
0.0
 20
0.0
 30
0.0
  9
$PUCSORGLEFT
 10
0.0
 20
0.0
 30
0.0
  9
$PUCSORGRIGHT
 10
0.0
 20
0.0
 30
0.0
  9
$PUCSORGFRONT
 10
0.0
 20
0.0
 30
0.0
  9
$PUCSORGBACK
 10
0.0
 20
0.0
 30
0.0
  9
$USERI1
 70
     0
  9
$USERI2
 70
     0
  9
$USERI3
 70
     0
  9
$USERI4
 70
     0
  9
$USERI5
 70
     0
  9
$USERR1
 40
0.0
  9
$USERR2
 40
0.0
  9
$USERR3
 40
0.0
  9
$USERR4
 40
0.0
  9
$USERR5
 40
0.0
  9
$WORLDVIEW
 70
     1
  9
$SHADEDGE
 70
     3
  9
$SHADEDIF
 70
    70
  9
$TILEMODE
 70
     1
  9
$MAXACTVP
 70
    16
  9
$PINSBASE
 10
0.0
 20
0.0
 30
0.0
  9
$PLIMCHECK
 70
     0
  9
$PEXTMIN
 10
1.000000000000000E+20
 20
1.000000000000000E+20
 30
1.000000000000000E+20
  9
$PEXTMAX
 10
-1.000000000000000E+20
 20
-1.000000000000000E+20
 30
-1.000000000000000E+20
  9
$PLIMMIN
 10
0.0
 20
0.0
  9
$PLIMMAX
 10
12.0
 20
9.0
  9
$UNITMODE
 70
     0
  9
$VISRETAIN
 70
     0
  9
$PLINEGEN
 70
     1
  9
$PSLTSCALE
 70
     0
  9
$TREEDEPTH
 70
  3020
  9
$CMLSTYLE
  2
Standard
  9
$CMLJUST
 70
     0
  9
$CMLSCALE
 40
1.0
  9
$PROXYGRAPHICS
 70
     1
  9
$MEASUREMENT
 70
     0
  9
$CELWEIGHT
370
    -1
  9
$ENDCAPS
280
     0
  9
$JOINSTYLE
280
     0
  9
$LWDISPLAY
290
     0
  9
$INSUNITS
 70
     0
  9
$HYPERLINKBASE
  1

  9
$STYLESHEET
  1

  9
$XEDIT
290
     1
  9
$CEPSNTYPE
380
     0
  9
$PSTYLEMODE
290
     1
  9
$FINGERPRINTGUID
  2
{32847613-BF3F-4EEE-BF3C-7C27FF5DD2BF}
  9
$VERSIONGUID
  2
{B28C3650-DBF5-4466-AE6C-0E440E0B7C98}
  9
$EXTNAMES
290
     1
  9
$PSVPSCALE
 40
0.0
  9
$OLESTARTUP
290
     0
  9
$SORTENTS
280
   127
  9
$INDEXCTL
280
     0
  9
$HIDETEXT
280
     0
  9
$XCLIPFRAME
280
     2
  9
$HALOGAP
280
     0
  9
$OBSCOLOR
 70
   257
  9
$OBSLTYPE
280
     0
  9
$INTERSECTIONDISPLAY
280
     0
  9
$INTERSECTIONCOLOR
 70
   257
  9
$DIMASSOC
280
     1
  9
$PROJECTNAME
  1

  9
$CAMERADISPLAY
290
     0
  9
$LENSLENGTH
 40
50.0
  9
$CAMERAHEIGHT
 40
0.0
  9
$STEPSPERSEC
 40
2.0
  9
$STEPSIZE
 40
6.0
  9
$3DDWFPREC
 40
2.0
  9
$PSOLWIDTH
 40
0.25
  9
$PSOLHEIGHT
 40
4.0
  9
$LOFTANG1
 40
1.570796326794896
  9
$LOFTANG2
 40
1.570796326794896
  9
$LOFTMAG1
 40
0.0
  9
$LOFTMAG2
 40
0.0
  9
$LOFTPARAM
 70
     7
  9
$LOFTNORMALS
280
     1
  9
$LATITUDE
 40
37.795
  9
$LONGITUDE
 40
-122.394
  9
$NORTHDIRECTION
 40
0.0
  9
$TIMEZONE
 70
 -8000
  9
$LIGHTGLYPHDISPLAY
280
     1
  9
$TILEMODELIGHTSYNCH
280
     1
  9
$CMATERIAL
347
521
  9
$SOLIDHIST
280
     0
  9
$SHOWHIST
280
     1
  9
$DWFFRAME
280
     2
  9
$DGNFRAME
280
     0
  9
$REALWORLDSCALE
290
     1
  9
$INTERFERECOLOR
 62
     1
  9
$INTERFEREOBJVS
345
543
  9
$INTERFEREVPVS
346
540
  9
$CSHADOW
280
     0
  9
$SHADOWPLANELOCATION
 40
0.0
  0
ENDSEC
  0
SECTION
  2
CLASSES
  0
CLASS
  1
ACDBDICTIONARYWDFLT
  2
AcDbDictionaryWithDefault
  3
ObjectDBX Classes
 90
        0
 91
        1
280
     0
281
     0
  0
CLASS
  1
MATERIAL
  2
AcDbMaterial
  3
ObjectDBX Classes
 90
     1153
 91
        3
280
     0
281
     0
  0
CLASS
  1
VISUALSTYLE
  2
AcDbVisualStyle
  3
ObjectDBX Classes
 90
     4095
 91
       24
280
     0
281
     0
  0
CLASS
  1
SCALE
  2
AcDbScale
  3
ObjectDBX Classes
 90
     1153
 91
       17
280
     0
281
     0
  0
CLASS
  1
TABLESTYLE
  2
AcDbTableStyle
  3
ObjectDBX Classes
 90
     4095
 91
        1
280
     0
281
     0
  0
CLASS
  1
MLEADERSTYLE
  2
AcDbMLeaderStyle
  3
ACDB_MLEADERSTYLE_CLASS
 90
     4095
 91
        1
280
     0
281
     0
  0
CLASS
  1
ACDBSECTIONVIEWSTYLE
  2
AcDbSectionViewStyle
  3
ObjectDBX Classes
 90
     1025
 91
        1
280
     0
281
     0
  0
CLASS
  1
ACDBDETAILVIEWSTYLE
  2
AcDbDetailViewStyle
  3
ObjectDBX Classes
 90
     1025
 91
        1
280
     0
281
     0
  0
CLASS
  1
SORTENTSTABLE
  2
AcDbSortentsTable
  3
ObjectDBX Classes
 90
        0
 91
        1
280
     0
281
     0
  0
CLASS
  1
DICTIONARYVAR
  2
AcDbDictionaryVar
  3
ObjectDBX Classes
 90
        0
 91
        9
280
     0
281
     0
  0
CLASS
  1
CELLSTYLEMAP
  2
AcDbCellStyleMap
  3
ObjectDBX Classes
 90
     1152
 91
        1
280
     0
281
     0
  0
ENDSEC
  0
SECTION
  2
TABLES
  0
TABLE
  2
VPORT
  5
518
330
0
100
AcDbSymbolTable
 70
     1
  0
VPORT
  5
583
330
518
100
AcDbSymbolTableRecord
100
AcDbViewportTableRecord
  2
*ACTIVE
 70
     0
 10
0.0
 20
0.0
 11
1.0
 21
1.0
 12
836.9943772090277
 22
-220.6232375402429
 13
0.0
 23
0.0
 14
1.0
 24
1.0
 15
0.0
 25
0.0
 16
0.0
 26
0.0
 36
1.0
 17
0.0
 27
0.0
 37
0.0
 40
290.7083711407967
 41
2.438058748403575
 42
50.0
 43
0.0
 44
0.0
 50
0.0
 51
0.0
 71
     0
 72
   100
 73
     1
 74
     1
 75
     0
 76
     0
 77
     0
 78
     0
281
     0
 65
     1
110
0.0
120
0.0
130
0.0
111
1.0
121
0.0
131
0.0
112
0.0
122
1.0
132
0.0
 79
     0
146
0.0
348
53F
 60
     3
 61
     5
292
     1
282
     0
141
0.0
142
0.0
 63
   250
421
  3355443
1001
ACAD_NAV_VCDISPLAY
1070
     3
  0
ENDTAB
  0
TABLE
  2
LTYPE
  5
515
330
0
100
AcDbSymbolTable
 70
    12
  0
LTYPE
  5
56A
330
515
100
AcDbSymbolTableRecord
100
AcDbLinetypeTableRecord
  2
ByBlock
 70
     0
  3

 72
    65
 73
     0
 40
0.0
  0
LTYPE
  5
56B
330
515
100
AcDbSymbolTableRecord
100
AcDbLinetypeTableRecord
  2
ByLayer
 70
     0
  3

 72
    65
 73
     0
 40
0.0
  0
LTYPE
  5
56C
330
515
100
AcDbSymbolTableRecord
100
AcDbLinetypeTableRecord
  2
CONTINUOUS
 70
     0
  3
Solid line
 72
    65
 73
     0
 40
0.0
  0
LTYPE
  5
584
330
515
100
AcDbSymbolTableRecord
100
AcDbLinetypeTableRecord
  2
DOT
 70
     0
  3
. . . . . . . . 
 72
    65
 73
     2
 40
1.0
 49
0.0
 74
     0
 49
-1.0
 74
     0
  0
LTYPE
  5
585
330
515
100
AcDbSymbolTableRecord
100
AcDbLinetypeTableRecord
  2
DASHED
 70
     0
  3
___  ___  ___  ___  
 72
    65
 73
     2
 40
4.0
 49
3.0
 74
     0
 49
-1.0
 74
     0
  0
LTYPE
  5
586
330
515
100
AcDbSymbolTableRecord
100
AcDbLinetypeTableRecord
  2
HIDDEN
 70
     0
  3
__ __ __ __ 
 72
    65
 73
     2
 40
3.0
 49
2.0
 74
     0
 49
-1.0
 74
     0
  0
LTYPE
  5
587
330
515
100
AcDbSymbolTableRecord
100
AcDbLinetypeTableRecord
  2
STITCH
 70
     0
  3
_ _ _ _ 
 72
    65
 73
     2
 40
2.0
 49
1.0
 74
     0
 49
-1.0
 74
     0
  0
LTYPE
  5
588
330
515
100
AcDbSymbolTableRecord
100
AcDbLinetypeTableRecord
  2
CENTER
 70
     0
  3
______  __  ______  __  
 72
    65
 73
     4
 40
43.0
 49
40.0
 74
     0
 49
-1.0
 74
     0
 49
1.0
 74
     0
 49
-1.0
 74
     0
  0
LTYPE
  5
589
330
515
100
AcDbSymbolTableRecord
100
AcDbLinetypeTableRecord
  2
DASHDOT
 70
     0
  3
____ . ____ . 
 72
    65
 73
     4
 40
32.0
 49
30.0
 74
     0
 49
-1.0
 74
     0
 49
0.0
 74
     0
 49
-1.0
 74
     0
  0
LTYPE
  5
58A
330
515
100
AcDbSymbolTableRecord
100
AcDbLinetypeTableRecord
  2
BORDER
 70
     0
  3
__ . __ . 
 72
    65
 73
     4
 40
22.0
 49
20.0
 74
     0
 49
-1.0
 74
     0
 49
0.0
 74
     0
 49
-1.0
 74
     0
  0
LTYPE
  5
58B
330
515
100
AcDbSymbolTableRecord
100
AcDbLinetypeTableRecord
  2
CUTTING
 70
     0
  3
________   ___   ___   
 72
    65
 73
     6
 40
45.0
 49
40.0
 74
     0
 49
-1.0
 74
     0
 49
1.0
 74
     0
 49
-1.0
 74
     0
 49
1.0
 74
     0
 49
-1.0
 74
     0
  0
LTYPE
  5
58C
330
515
100
AcDbSymbolTableRecord
100
AcDbLinetypeTableRecord
  2
PHANTOM
 70
     0
  3
______  __  __  
 72
    65
 73
     6
 40
35.0
 49
30.0
 74
     0
 49
-1.0
 74
     0
 49
1.0
 74
     0
 49
-1.0
 74
     0
 49
1.0
 74
     0
 49
-1.0
 74
     0
  0
LTYPE
  5
58D
330
515
100
AcDbSymbolTableRecord
100
AcDbLinetypeTableRecord
  2
DIVIDE
 70
     0
  3
____ . . ____ . . 
 72
    65
 73
     6
 40
23.0
 49
20.0
 74
     0
 49
-1.0
 74
     0
 49
0.0
 74
     0
 49
-1.0
 74
     0
 49
0.0
 74
     0
 49
-1.0
 74
     0
  0
ENDTAB
  0
TABLE
  2
LAYER
  5
512
330
0
100
AcDbSymbolTable
 70
     5
  0
LAYER
  5
564
102
{ACAD_XDICTIONARY
360
603
102
}
330
512
100
AcDbSymbolTableRecord
100
AcDbLayerTableRecord
  2
0
 70
     0
 62
     7
  6
CONTINUOUS
370
    -3
390
51F
347
531
  0
LAYER
  5
58E
102
{ACAD_XDICTIONARY
360
605
102
}
330
512
100
AcDbSymbolTableRecord
100
AcDbLayerTableRecord
  2
改訂
 70
     0
 62
     7
  6
CONTINUOUS
370
    -3
390
51F
347
531
  0
LAYER
  5
58F
102
{ACAD_XDICTIONARY
360
607
102
}
330
512
100
AcDbSymbolTableRecord
100
AcDbLayerTableRecord
  2
図枠
 70
     0
 62
     7
  6
CONTINUOUS
370
    -3
390
51F
347
531
  0
LAYER
  5
590
102
{ACAD_XDICTIONARY
360
609
102
}
330
512
100
AcDbSymbolTableRecord
100
AcDbLayerTableRecord
  2
寸法線
 70
     0
 62
     7
  6
CONTINUOUS
370
    -3
390
51F
347
531
  0
LAYER
  5
591
102
{ACAD_XDICTIONARY
360
60B
102
}
330
512
100
AcDbSymbolTableRecord
100
AcDbLayerTableRecord
  2
ﾚｲﾔ_1
 70
     0
 62
     7
  6
CONTINUOUS
370
    -3
390
51F
347
531
  0
ENDTAB
  0
TABLE
  2
STYLE
  5
513
330
0
100
AcDbSymbolTable
 70
     2
  0
STYLE
  5
565
330
513
100
AcDbSymbolTableRecord
100
AcDbTextStyleTableRecord
  2
STANDARD
 70
     0
 40
0.0
 41
1.0
 50
0.0
 71
     0
 42
0.0
  3
txt
  4
extfont
  0
STYLE
  5
569
330
513
100
AcDbSymbolTableRecord
100
AcDbTextStyleTableRecord
  2
Annotative
 70
     0
 40
0.0
 41
1.0
 50
0.0
 71
     0
 42
0.2
  3
txt
  4

1001
AcadAnnotative
1000
AnnotativeData
1002
{
1070
     1
1070
     1
1002
}
  0
ENDTAB
  0
TABLE
  2
VIEW
  5
516
330
0
100
AcDbSymbolTable
 70
     0
  0
ENDTAB
  0
TABLE
  2
UCS
  5
517
330
0
100
AcDbSymbolTable
 70
     0
  0
ENDTAB
  0
TABLE
  2
APPID
  5
519
330
0
100
AcDbSymbolTable
 70
     5
  0
APPID
  5
566
330
519
100
AcDbSymbolTableRecord
100
AcDbRegAppTableRecord
  2
ACAD
 70
     0
  0
APPID
  5
56D
330
519
100
AcDbSymbolTableRecord
100
AcDbRegAppTableRecord
  2
AcadAnnotative
 70
     0
  0
APPID
  5
592
330
519
100
AcDbSymbolTableRecord
100
AcDbRegAppTableRecord
  2
DCO15
 70
     0
  0
APPID
  5
601
330
519
100
AcDbSymbolTableRecord
100
AcDbRegAppTableRecord
  2
ACAD_EXEMPT_FROM_CAD_STANDARDS
 70
     0
  0
APPID
  5
617
330
519
100
AcDbSymbolTableRecord
100
AcDbRegAppTableRecord
  2
ACAD_NAV_VCDISPLAY
 70
     0
  0
ENDTAB
  0
TABLE
  2
DIMSTYLE
  5
51A
330
0
100
AcDbSymbolTable
 70
     3
100
AcDbDimStyleTable
 71
     0
  0
DIMSTYLE
105
567
102
{ACAD_REACTORS
330
45
330
54
330
63
330
72
330
81
330
90
330
9F
330
AE
330
BD
330
195
330
1A4
102
}
330
51A
100
AcDbSymbolTableRecord
100
AcDbDimStyleTableRecord
  2
STANDARD
 70
     0
279
     2
340
565
  0
DIMSTYLE
105
568
330
51A
100
AcDbSymbolTableRecord
100
AcDbDimStyleTableRecord
  2
Annotative
 70
     0
340
565
1001
AcadAnnotative
1000
AnnotativeData
1002
{
1070
     1
1070
     1
1002
}
  0
DIMSTYLE
105
593
330
51A
100
AcDbSymbolTableRecord
100
AcDbDimStyleTableRecord
  2
VELDIM0
 70
     0
 41
3.0
 44
0.5
 46
3.0
 73
     0
 74
     0
 78
     8
140
2.998611020999999
279
     2
340
565
  0
ENDTAB
  0
TABLE
  2
BLOCK_RECORD
  5
511
330
0
100
AcDbSymbolTable
 70
    51
  0
BLOCK_RECORD
  5
57F
102
{ACAD_XDICTIONARY
360
5FF
102
}
330
511
100
AcDbSymbolTableRecord
100
AcDbBlockTableRecord
  2
*Model_Space
340
582
 70
     0
280
     1
281
     0
  0
BLOCK_RECORD
  5
57B
330
511
100
AcDbSymbolTableRecord
100
AcDbBlockTableRecord
  2
*Paper_Space
340
57E
 70
     0
280
     1
281
     0
  0
BLOCK_RECORD
  5
596
330
511
100
AcDbSymbolTableRecord
100
AcDbBlockTableRecord
  2
$MODEL_SPACE
340
0
 70
     0
280
     1
281
     0
  0
BLOCK_RECORD
  5
598
330
511
100
AcDbSymbolTableRecord
100
AcDbBlockTableRecord
  2
$PAPER_SPACE
340
0
 70
     0
280
     1
281
     0
  0
BLOCK_RECORD
  5
59A
330
511
100
AcDbSymbolTableRecord
100
AcDbBlockTableRecord
  2
*D2
340
0
 70
     0
280
     1
281
     0
  0
BLOCK_RECORD
  5
59C
330
511
100
AcDbSymbolTableRecord
100
AcDbBlockTableRecord
  2
*D3
340
0
 70
     0
280
     1
281
     0
  0
BLOCK_RECORD
  5
59E
330
511
100
AcDbSymbolTableRecord
100
AcDbBlockTableRecord
  2
*D4
340
0
 70
     0
280
     1
281
     0
  0
BLOCK_RECORD
  5
5A0
330
511
100
AcDbSymbolTableRecord
100
AcDbBlockTableRecord
  2
*D5
340
0
 70
     0
280
     1
281
     0
  0
BLOCK_RECORD
  5
5A2
330
511
100
AcDbSymbolTableRecord
100
AcDbBlockTableRecord
  2
*D6
340
0
 70
     0
280
     1
281
     0
  0
BLOCK_RECORD
  5
5A4
330
511
100
AcDbSymbolTableRecord
100
AcDbBlockTableRecord
  2
*D7
340
0
 70
     0
280
     1
281
     0
  0
BLOCK_RECORD
  5
5A6
330
511
100
AcDbSymbolTableRecord
100
AcDbBlockTableRecord
  2
*D8
340
0
 70
     0
280
     1
281
     0
  0
BLOCK_RECORD
  5
5A8
330
511
100
AcDbSymbolTableRecord
100
AcDbBlockTableRecord
  2
*D9
340
0
 70
     0
280
     1
281
     0
  0
BLOCK_RECORD
  5
5AA
330
511
100
AcDbSymbolTableRecord
100
AcDbBlockTableRecord
  2
*D10
340
0
 70
     0
280
     1
281
     0
  0
BLOCK_RECORD
  5
5AC
330
511
100
AcDbSymbolTableRecord
100
AcDbBlockTableRecord
  2
CLUMP0
340
0
102
{BLKREFS
331
C0
102
}
 70
     0
280
     1
281
     0
  0
BLOCK_RECORD
  5
5AE
330
511
100
AcDbSymbolTableRecord
100
AcDbBlockTableRecord
  2
*U12
340
0
102
{BLKREFS
331
C8
102
}
 70
     0
280
     1
281
     0
  0
BLOCK_RECORD
  5
5AF
330
511
100
AcDbSymbolTableRecord
100
AcDbBlockTableRecord
  2
*U13
340
0
102
{BLKREFS
331
EC
102
}
 70
     0
280
     1
281
     0
  0
BLOCK_RECORD
  5
5B0
330
511
100
AcDbSymbolTableRecord
100
AcDbBlockTableRecord
  2
*U14
340
0
102
{BLKREFS
331
ED
102
}
 70
     0
280
     1
281
     0
  0
BLOCK_RECORD
  5
5B1
330
511
100
AcDbSymbolTableRecord
100
AcDbBlockTableRecord
  2
*U15
340
0
102
{BLKREFS
331
F2
102
}
 70
     0
280
     1
281
     0
  0
BLOCK_RECORD
  5
5B2
330
511
100
AcDbSymbolTableRecord
100
AcDbBlockTableRecord
  2
*U16
340
0
102
{BLKREFS
331
105
102
}
 70
     0
280
     1
281
     0
  0
BLOCK_RECORD
  5
5B3
330
511
100
AcDbSymbolTableRecord
100
AcDbBlockTableRecord
  2
*U17
340
0
102
{BLKREFS
331
106
102
}
 70
     0
280
     1
281
     0
  0
BLOCK_RECORD
  5
5B4
330
511
100
AcDbSymbolTableRecord
100
AcDbBlockTableRecord
  2
*U18
340
0
102
{BLKREFS
331
107
102
}
 70
     0
280
     1
281
     0
  0
BLOCK_RECORD
  5
5B5
330
511
100
AcDbSymbolTableRecord
100
AcDbBlockTableRecord
  2
*U19
340
0
102
{BLKREFS
331
108
102
}
 70
     0
280
     1
281
     0
  0
BLOCK_RECORD
  5
5B6
330
511
100
AcDbSymbolTableRecord
100
AcDbBlockTableRecord
  2
*U20
340
0
102
{BLKREFS
331
109
102
}
 70
     0
280
     1
281
     0
  0
BLOCK_RECORD
  5
5B7
330
511
100
AcDbSymbolTableRecord
100
AcDbBlockTableRecord
  2
*U21
340
0
102
{BLKREFS
331
10A
102
}
 70
     0
280
     1
281
     0
  0
BLOCK_RECORD
  5
5B8
330
511
100
AcDbSymbolTableRecord
100
AcDbBlockTableRecord
  2
*U22
340
0
102
{BLKREFS
331
10B
102
}
 70
     0
280
     1
281
     0
  0
BLOCK_RECORD
  5
5B9
330
511
100
AcDbSymbolTableRecord
100
AcDbBlockTableRecord
  2
*U23
340
0
102
{BLKREFS
331
11D
102
}
 70
     0
280
     1
281
     0
  0
BLOCK_RECORD
  5
5BA
330
511
100
AcDbSymbolTableRecord
100
AcDbBlockTableRecord
  2
*U24
340
0
102
{BLKREFS
331
12E
102
}
 70
     0
280
     1
281
     0
  0
BLOCK_RECORD
  5
5BB
330
511
100
AcDbSymbolTableRecord
100
AcDbBlockTableRecord
  2
*U25
340
0
102
{BLKREFS
331
12F
102
}
 70
     0
280
     1
281
     0
  0
BLOCK_RECORD
  5
5BC
330
511
100
AcDbSymbolTableRecord
100
AcDbBlockTableRecord
  2
*U26
340
0
102
{BLKREFS
331
130
102
}
 70
     0
280
     1
281
     0
  0
BLOCK_RECORD
  5
5BD
330
511
100
AcDbSymbolTableRecord
100
AcDbBlockTableRecord
  2
*U27
340
0
102
{BLKREFS
331
136
102
}
 70
     0
280
     1
281
     0
  0
BLOCK_RECORD
  5
5BE
330
511
100
AcDbSymbolTableRecord
100
AcDbBlockTableRecord
  2
*U28
340
0
102
{BLKREFS
331
15E
102
}
 70
     0
280
     1
281
     0
  0
BLOCK_RECORD
  5
5BF
330
511
100
AcDbSymbolTableRecord
100
AcDbBlockTableRecord
  2
*U29
340
0
102
{BLKREFS
331
15F
102
}
 70
     0
280
     1
281
     0
  0
BLOCK_RECORD
  5
5C0
330
511
100
AcDbSymbolTableRecord
100
AcDbBlockTableRecord
  2
*D30
340
0
 70
     0
280
     1
281
     0
  0
BLOCK_RECORD
  5
5C2
330
511
100
AcDbSymbolTableRecord
100
AcDbBlockTableRecord
  2
*D31
340
0
 70
     0
280
     1
281
     0
  0
BLOCK_RECORD
  5
5C4
330
511
100
AcDbSymbolTableRecord
100
AcDbBlockTableRecord
  2
*U32
340
0
102
{BLKREFS
331
2F
102
}
 70
     0
280
     1
281
     0
  0
BLOCK_RECORD
  5
5C6
330
511
100
AcDbSymbolTableRecord
100
AcDbBlockTableRecord
  2
*U33
340
0
102
{BLKREFS
331
30
102
}
 70
     0
280
     1
281
     0
  0
BLOCK_RECORD
  5
5C8
330
511
100
AcDbSymbolTableRecord
100
AcDbBlockTableRecord
  2
*U34
340
0
102
{BLKREFS
331
32
102
}
 70
     0
280
     1
281
     0
  0
BLOCK_RECORD
  5
5CA
330
511
100
AcDbSymbolTableRecord
100
AcDbBlockTableRecord
  2
*U35
340
0
102
{BLKREFS
331
33
102
}
 70
     0
280
     1
281
     0
  0
BLOCK_RECORD
  5
5CC
330
511
100
AcDbSymbolTableRecord
100
AcDbBlockTableRecord
  2
*U36
340
0
102
{BLKREFS
331
34
102
}
 70
     0
280
     1
281
     0
  0
BLOCK_RECORD
  5
5E0
330
511
100
AcDbSymbolTableRecord
100
AcDbBlockTableRecord
  2
*U37
340
0
102
{BLKREFS
331
161
102
}
 70
     0
280
     1
281
     0
  0
BLOCK_RECORD
  5
5E2
330
511
100
AcDbSymbolTableRecord
100
AcDbBlockTableRecord
  2
*U38
340
0
102
{BLKREFS
331
162
102
}
 70
     0
280
     1
281
     0
  0
BLOCK_RECORD
  5
5E4
330
511
100
AcDbSymbolTableRecord
100
AcDbBlockTableRecord
  2
*U39
340
0
102
{BLKREFS
331
163
102
}
 70
     0
280
     1
281
     0
  0
BLOCK_RECORD
  5
5E6
330
511
100
AcDbSymbolTableRecord
100
AcDbBlockTableRecord
  2
*U40
340
0
102
{BLKREFS
331
164
102
}
 70
     0
280
     1
281
     0
  0
BLOCK_RECORD
  5
5E8
330
511
100
AcDbSymbolTableRecord
100
AcDbBlockTableRecord
  2
*U41
340
0
102
{BLKREFS
331
165
102
}
 70
     0
280
     1
281
     0
  0
BLOCK_RECORD
  5
5EA
330
511
100
AcDbSymbolTableRecord
100
AcDbBlockTableRecord
  2
*U42
340
0
102
{BLKREFS
331
166
102
}
 70
     0
280
     1
281
     0
  0
BLOCK_RECORD
  5
5EC
330
511
100
AcDbSymbolTableRecord
100
AcDbBlockTableRecord
  2
*U43
340
0
102
{BLKREFS
331
167
102
}
 70
     0
280
     1
281
     0
  0
BLOCK_RECORD
  5
5EE
330
511
100
AcDbSymbolTableRecord
100
AcDbBlockTableRecord
  2
*U44
340
0
102
{BLKREFS
331
168
102
}
 70
     0
280
     1
281
     0
  0
BLOCK_RECORD
  5
5F0
330
511
100
AcDbSymbolTableRecord
100
AcDbBlockTableRecord
  2
*U45
340
0
102
{BLKREFS
331
16B
102
}
 70
     0
280
     1
281
     0
  0
BLOCK_RECORD
  5
5F2
330
511
100
AcDbSymbolTableRecord
100
AcDbBlockTableRecord
  2
*U46
340
0
 70
     0
280
     1
281
     0
  0
BLOCK_RECORD
  5
5F4
330
511
100
AcDbSymbolTableRecord
100
AcDbBlockTableRecord
  2
*U47
340
0
102
{BLKREFS
331
16D
102
}
 70
     0
280
     1
281
     0
  0
BLOCK_RECORD
  5
5F6
330
511
100
AcDbSymbolTableRecord
100
AcDbBlockTableRecord
  2
*U48
340
0
102
{BLKREFS
331
16E
102
}
 70
     0
280
     1
281
     0
  0
BLOCK_RECORD
  5
5F8
330
511
100
AcDbSymbolTableRecord
100
AcDbBlockTableRecord
  2
*U49
340
0
102
{BLKREFS
331
16F
102
}
 70
     0
280
     1
281
     0
  0
BLOCK_RECORD
  5
5FA
330
511
100
AcDbSymbolTableRecord
100
AcDbBlockTableRecord
  2
*U50
340
0
102
{BLKREFS
331
20F
102
}
 70
     0
280
     1
281
     0
  0
ENDTAB
  0
ENDSEC
  0
SECTION
  2
BLOCKS
  0
BLOCK
  5
580
330
57F
100
AcDbEntity
  8
0
100
AcDbBlockBegin
  2
*Model_Space
 70
     0
 10
0.0
 20
0.0
 30
0.0
  3
*Model_Space
  1

  0
ENDBLK
  5
581
330
57F
100
AcDbEntity
  8
0
100
AcDbBlockEnd
  0
BLOCK
  5
57C
330
57B
100
AcDbEntity
 67
     1
  8
0
100
AcDbBlockBegin
  2
*Paper_Space
 70
     0
 10
0.0
 20
0.0
 30
0.0
  3
*Paper_Space
  1

  0
ENDBLK
  5
57D
330
57B
100
AcDbEntity
 67
     1
  8
0
100
AcDbBlockEnd
  0
BLOCK
  5
597
330
596
100
AcDbEntity
  8
0
100
AcDbBlockBegin
  2
$MODEL_SPACE
 70
     0
 10
0.0
 20
0.0
 30
0.0
  3
$MODEL_SPACE
  1

  0
ENDBLK
  5
E
330
596
100
AcDbEntity
  8
0
100
AcDbBlockEnd
  0
BLOCK
  5
599
330
598
100
AcDbEntity
  8
0
100
AcDbBlockBegin
  2
$PAPER_SPACE
 70
     0
 10
0.0
 20
0.0
 30
0.0
  3
$PAPER_SPACE
  1

  0
ENDBLK
  5
10
330
598
100
AcDbEntity
  8
0
100
AcDbBlockEnd
  0
BLOCK
  5
59B
330
59A
100
AcDbEntity
  8
0
100
AcDbBlockBegin
  2
*D2
 70
     1
 10
0.0
 20
0.0
 30
0.0
  3
*D2
  1

  0
TEXT
  5
38
330
59A
100
AcDbEntity
  8
0
 62
     0
100
AcDbText
 10
870.4095921199
 20
-146.0613542577
 30
0.0
 40
2.998611020999999
  1
(65)
100
AcDbText
  0
LINE
  5
39
330
59A
100
AcDbEntity
  8
0
 62
     0
100
AcDbLine
 10
906.4373697917
 20
-159.6393490335
 30
0.0
 11
906.4373697917
 21
-147.0905209085
 31
0.0
  0
LINE
  5
3A
330
59A
100
AcDbEntity
  8
0
 62
     0
100
AcDbLine
 10
841.4373697917
 20
-189.6393490335
 30
0.0
 11
841.4373697917
 21
-147.0905209085
 31
0.0
  0
LINE
  5
3B
330
59A
100
AcDbEntity
  8
0
 62
     0
100
AcDbLine
 10
906.4373697917
 20
-147.5905209085
 30
0.0
 11
879.2290362994
 21
-147.5905209085
 31
0.0
  0
LINE
  5
3C
330
59A
100
AcDbEntity
  8
0
 62
     0
100
AcDbLine
 10
906.4373697917
 20
-147.5905209085
 30
0.0
 11
868.6457032838998
 21
-147.5905209085
 31
0.0
  0
LINE
  5
3D
330
59A
100
AcDbEntity
  8
0
 62
     0
100
AcDbLine
 10
841.4373697917
 20
-147.5905209085
 30
0.0
 11
879.2290362994
 21
-147.5905209085
 31
0.0
  0
LINE
  5
3E
330
59A
100
AcDbEntity
  8
0
 62
     0
100
AcDbLine
 10
841.4373697917
 20
-147.5905209085
 30
0.0
 11
868.6457032838998
 21
-147.5905209085
 31
0.0
  0
LINE
  5
3F
330
59A
100
AcDbEntity
  8
0
 62
     0
100
AcDbLine
 10
841.4373697917
 20
-147.5905209085
 30
0.0
 11
844.4373697916999
 21
-147.5905209085
 31
0.0
  0
SOLID
  5
40
330
59A
100
AcDbEntity
  8
0
 62
     0
100
AcDbTrace
 10
841.4373697917
 20
-147.5905209085
 30
0.0
 11
844.4373697916999
 21
-146.8405209085
 31
0.0
 12
844.4373697916999
 22
-148.3405209085
 32
0.0
 13
843.6873697917
 23
-147.5905209085
 33
0.0
  0
LINE
  5
41
330
59A
100
AcDbEntity
  8
0
 62
     0
100
AcDbLine
 10
906.4373697917
 20
-147.5905209085
 30
0.0
 11
903.4373697917001
 21
-147.5905209085
 31
0.0
  0
SOLID
  5
42
330
59A
100
AcDbEntity
  8
0
 62
     0
100
AcDbTrace
 10
906.4373697917
 20
-147.5905209085
 30
0.0
 11
903.4373697917001
 21
-148.3405209085
 31
0.0
 12
903.4373697917001
 22
-146.8405209085
 32
0.0
 13
904.1873697916999
 23
-147.5905209085
 33
0.0
  0
ENDBLK
  5
43
330
59A
100
AcDbEntity
  8
0
100
AcDbBlockEnd
  0
BLOCK
  5
59D
330
59C
100
AcDbEntity
  8
0
100
AcDbBlockBegin
  2
*D3
 70
     1
 10
0.0
 20
0.0
 30
0.0
  3
*D3
  1

  0
TEXT
  5
48
330
59C
100
AcDbEntity
  8
0
 62
     0
100
AcDbText
 10
916.8947916825999
 20
-178.0253298303
 30
0.0
 40
2.998611020999999
  1
(27)
 50
90.0
100
AcDbText
  0
LINE
  5
49
330
59C
100
AcDbEntity
  8
0
 62
     0
100
AcDbLine
 10
903.4373697917001
 20
-187.6393490335
 30
0.0
 11
918.9239583333002
 21
-187.6393490335
 31
0.0
  0
LINE
  5
4A
330
59C
100
AcDbEntity
  8
0
 62
     0
100
AcDbLine
 10
907.4373697917
 20
-160.6393490335
 30
0.0
 11
918.9239583333002
 21
-160.6393490335
 31
0.0
  0
LINE
  5
4B
330
59C
100
AcDbEntity
  8
0
 62
     0
100
AcDbLine
 10
918.4239583332999
 20
-187.6393490335
 30
0.0
 11
918.4239583332999
 21
-169.2058856508
 31
0.0
  0
LINE
  5
4C
330
59C
100
AcDbEntity
  8
0
 62
     0
100
AcDbLine
 10
918.4239583332999
 20
-187.6393490335
 30
0.0
 11
918.4239583332999
 21
-179.7892186662
 31
0.0
  0
LINE
  5
4D
330
59C
100
AcDbEntity
  8
0
 62
     0
100
AcDbLine
 10
918.4239583332999
 20
-160.6393490335
 30
0.0
 11
918.4239583332999
 21
-169.2058856508
 31
0.0
  0
LINE
  5
4E
330
59C
100
AcDbEntity
  8
0
 62
     0
100
AcDbLine
 10
918.4239583332999
 20
-160.6393490335
 30
0.0
 11
918.4239583332999
 21
-179.7892186662
 31
0.0
  0
LINE
  5
4F
330
59C
100
AcDbEntity
  8
0
 62
     0
100
AcDbLine
 10
918.4239583332999
 20
-160.6393490335
 30
0.0
 11
918.4239583332999
 21
-163.6393490335
 31
0.0
  0
SOLID
  5
50
330
59C
100
AcDbEntity
  8
0
 62
     0
100
AcDbTrace
 10
918.4239583332999
 20
-160.6393490335
 30
0.0
 11
919.1739583332999
 21
-163.6393490335
 31
0.0
 12
917.6739583333002
 22
-163.6393490335
 32
0.0
 13
918.4239583332999
 23
-162.8893490335
 33
0.0
  0
LINE
  5
51
330
59C
100
AcDbEntity
  8
0
 62
     0
100
AcDbLine
 10
918.4239583332999
 20
-187.6393490335
 30
0.0
 11
918.4239583332999
 21
-184.6393490335
 31
0.0
  0
SOLID
  5
52
330
59C
100
AcDbEntity
  8
0
 62
     0
100
AcDbTrace
 10
918.4239583332999
 20
-187.6393490335
 30
0.0
 11
917.6739583333002
 21
-184.6393490335
 31
0.0
 12
919.1739583332999
 22
-184.6393490335
 32
0.0
 13
918.4239583332999
 23
-185.3893490335
 33
0.0
  0
ENDBLK
  5
53
330
59C
100
AcDbEntity
  8
0
100
AcDbBlockEnd
  0
BLOCK
  5
59F
330
59E
100
AcDbEntity
  8
0
100
AcDbBlockBegin
  2
*D4
 70
     1
 10
0.0
 20
0.0
 30
0.0
  3
*D4
  1

  0
TEXT
  5
57
330
59E
100
AcDbEntity
  8
0
 62
     0
100
AcDbText
 10
782.4907119114999
 20
-145.4455339452
 30
0.0
 40
2.998611020999999
  1
(28)
100
AcDbText
  0
LINE
  5
58
330
59E
100
AcDbEntity
  8
0
 62
     0
100
AcDbLine
 10
800.0184895832997
 20
-163.1063507106
 30
0.0
 11
800.0184895832997
 21
-146.474700596
 31
0.0
  0
LINE
  5
59
330
59E
100
AcDbEntity
  8
0
 62
     0
100
AcDbLine
 10
772.0184895833
 20
-163.1063507106
 30
0.0
 11
772.0184895833
 21
-146.474700596
 31
0.0
  0
LINE
  5
5A
330
59E
100
AcDbEntity
  8
0
 62
     0
100
AcDbLine
 10
800.0184895832997
 20
-146.974700596
 30
0.0
 11
791.3101560911
 21
-146.974700596
 31
0.0
  0
LINE
  5
5B
330
59E
100
AcDbEntity
  8
0
 62
     0
100
AcDbLine
 10
800.0184895832997
 20
-146.974700596
 30
0.0
 11
780.7268230756
 21
-146.974700596
 31
0.0
  0
LINE
  5
5C
330
59E
100
AcDbEntity
  8
0
 62
     0
100
AcDbLine
 10
772.0184895833
 20
-146.974700596
 30
0.0
 11
791.3101560911
 21
-146.974700596
 31
0.0
  0
LINE
  5
5D
330
59E
100
AcDbEntity
  8
0
 62
     0
100
AcDbLine
 10
772.0184895833
 20
-146.974700596
 30
0.0
 11
780.7268230756
 21
-146.974700596
 31
0.0
  0
LINE
  5
5E
330
59E
100
AcDbEntity
  8
0
 62
     0
100
AcDbLine
 10
772.0184895833
 20
-146.974700596
 30
0.0
 11
775.0184895833
 21
-146.974700596
 31
0.0
  0
SOLID
  5
5F
330
59E
100
AcDbEntity
  8
0
 62
     0
100
AcDbTrace
 10
772.0184895833
 20
-146.974700596
 30
0.0
 11
775.0184895833
 21
-146.224700596
 31
0.0
 12
775.0184895833
 22
-147.724700596
 32
0.0
 13
774.2684895833
 23
-146.974700596
 33
0.0
  0
LINE
  5
60
330
59E
100
AcDbEntity
  8
0
 62
     0
100
AcDbLine
 10
800.0184895832997
 20
-146.974700596
 30
0.0
 11
797.0184895833
 21
-146.974700596
 31
0.0
  0
SOLID
  5
61
330
59E
100
AcDbEntity
  8
0
 62
     0
100
AcDbTrace
 10
800.0184895832997
 20
-146.974700596
 30
0.0
 11
797.0184895833
 21
-147.724700596
 31
0.0
 12
797.0184895833
 22
-146.224700596
 32
0.0
 13
797.7684895833
 23
-146.974700596
 33
0.0
  0
ENDBLK
  5
62
330
59E
100
AcDbEntity
  8
0
100
AcDbBlockEnd
  0
BLOCK
  5
5A1
330
5A0
100
AcDbEntity
  8
0
100
AcDbBlockBegin
  2
*D5
 70
     1
 10
0.0
 20
0.0
 30
0.0
  3
*D5
  1

  0
TEXT
  5
66
330
5A0
100
AcDbEntity
  8
0
 62
     0
100
AcDbText
 10
909.7752171199001
 20
-286.0605062022001
 30
0.0
 40
2.998611020999999
  1
0.8t
100
AcDbText
  0
LINE
  5
67
330
5A0
100
AcDbEntity
  8
0
 62
     0
100
AcDbLine
 10
904.9373697916999
 20
-276.6393490335
 30
0.0
 11
904.9373697916999
 21
-288.089672853
 31
0.0
  0
LINE
  5
68
330
5A0
100
AcDbEntity
  8
0
 62
     0
100
AcDbLine
 10
906.4373697917
 20
-276.6393490335
 30
0.0
 11
906.4373697917
 21
-288.089672853
 31
0.0
  0
LINE
  5
69
330
5A0
100
AcDbEntity
  8
0
 62
     0
100
AcDbLine
 10
904.9373697916999
 20
-287.589672853
 30
0.0
 11
918.5946612993999
 21
-287.589672853
 31
0.0
  0
LINE
  5
6A
330
5A0
100
AcDbEntity
  8
0
 62
     0
100
AcDbLine
 10
904.9373697916999
 20
-287.589672853
 30
0.0
 11
908.0113282838999
 21
-287.589672853
 31
0.0
  0
LINE
  5
6B
330
5A0
100
AcDbEntity
  8
0
 62
     0
100
AcDbLine
 10
906.4373697917
 20
-287.589672853
 30
0.0
 11
918.5946612993999
 21
-287.589672853
 31
0.0
  0
LINE
  5
6C
330
5A0
100
AcDbEntity
  8
0
 62
     0
100
AcDbLine
 10
906.4373697917
 20
-287.589672853
 30
0.0
 11
908.0113282838999
 21
-287.589672853
 31
0.0
  0
LINE
  5
6D
330
5A0
100
AcDbEntity
  8
0
 62
     0
100
AcDbLine
 10
906.4373697917
 20
-287.589672853
 30
0.0
 11
909.4373697916999
 21
-287.589672853
 31
0.0
  0
SOLID
  5
6E
330
5A0
100
AcDbEntity
  8
0
 62
     0
100
AcDbTrace
 10
906.4373697917
 20
-287.589672853
 30
0.0
 11
909.4373697916999
 21
-286.8396728529999
 31
0.0
 12
909.4373697916999
 22
-288.339672853
 32
0.0
 13
908.6873697916999
 23
-287.589672853
 33
0.0
  0
LINE
  5
6F
330
5A0
100
AcDbEntity
  8
0
 62
     0
100
AcDbLine
 10
904.9373697916999
 20
-287.589672853
 30
0.0
 11
901.9373697917
 21
-287.589672853
 31
0.0
  0
SOLID
  5
70
330
5A0
100
AcDbEntity
  8
0
 62
     0
100
AcDbTrace
 10
904.9373697916999
 20
-287.589672853
 30
0.0
 11
901.9373697917
 21
-288.339672853
 31
0.0
 12
901.9373697917
 22
-286.8396728529999
 32
0.0
 13
902.6873697917
 23
-287.589672853
 33
0.0
  0
ENDBLK
  5
71
330
5A0
100
AcDbEntity
  8
0
100
AcDbBlockEnd
  0
BLOCK
  5
5A3
330
5A2
100
AcDbEntity
  8
0
100
AcDbBlockBegin
  2
*D6
 70
     1
 10
0.0
 20
0.0
 30
0.0
  3
*D6
  1

  0
TEXT
  5
75
330
5A2
100
AcDbEntity
  8
0
 62
     0
100
AcDbText
 10
916.9649739742
 20
-265.6671267053
 30
0.0
 40
2.998611020999999
  1
(27)
 50
90.0
100
AcDbText
  0
LINE
  5
76
330
5A2
100
AcDbEntity
  8
0
 62
     0
100
AcDbLine
 10
907.4373697917
 20
-275.6393490335
 30
0.0
 11
918.994140625
 21
-275.6393490335
 31
0.0
  0
LINE
  5
77
330
5A2
100
AcDbEntity
  8
0
 62
     0
100
AcDbLine
 10
902.9373697917
 20
-248.6393490335
 30
0.0
 11
918.994140625
 21
-248.6393490335
 31
0.0
  0
LINE
  5
78
330
5A2
100
AcDbEntity
  8
0
 62
     0
100
AcDbLine
 10
918.494140625
 20
-275.6393490335
 30
0.0
 11
918.494140625
 21
-256.8476825258
 31
0.0
  0
LINE
  5
79
330
5A2
100
AcDbEntity
  8
0
 62
     0
100
AcDbLine
 10
918.494140625
 20
-275.6393490335
 30
0.0
 11
918.494140625
 21
-267.4310155412
 31
0.0
  0
LINE
  5
7A
330
5A2
100
AcDbEntity
  8
0
 62
     0
100
AcDbLine
 10
918.494140625
 20
-248.6393490335
 30
0.0
 11
918.494140625
 21
-256.8476825258
 31
0.0
  0
LINE
  5
7B
330
5A2
100
AcDbEntity
  8
0
 62
     0
100
AcDbLine
 10
918.494140625
 20
-248.6393490335
 30
0.0
 11
918.494140625
 21
-267.4310155412
 31
0.0
  0
LINE
  5
7C
330
5A2
100
AcDbEntity
  8
0
 62
     0
100
AcDbLine
 10
918.494140625
 20
-248.6393490335
 30
0.0
 11
918.494140625
 21
-251.6393490335
 31
0.0
  0
SOLID
  5
7D
330
5A2
100
AcDbEntity
  8
0
 62
     0
100
AcDbTrace
 10
918.494140625
 20
-248.6393490335
 30
0.0
 11
919.2441406249999
 21
-251.6393490335
 31
0.0
 12
917.744140625
 22
-251.6393490335
 32
0.0
 13
918.494140625
 23
-250.8893490335
 33
0.0
  0
LINE
  5
7E
330
5A2
100
AcDbEntity
  8
0
 62
     0
100
AcDbLine
 10
918.494140625
 20
-275.6393490335
 30
0.0
 11
918.494140625
 21
-272.6393490335
 31
0.0
  0
SOLID
  5
7F
330
5A2
100
AcDbEntity
  8
0
 62
     0
100
AcDbTrace
 10
918.494140625
 20
-275.6393490335
 30
0.0
 11
917.744140625
 21
-272.6393490335
 31
0.0
 12
919.2441406249999
 22
-272.6393490335
 32
0.0
 13
918.494140625
 23
-273.3893490335
 33
0.0
  0
ENDBLK
  5
80
330
5A2
100
AcDbEntity
  8
0
100
AcDbBlockEnd
  0
BLOCK
  5
5A5
330
5A4
100
AcDbEntity
  8
0
100
AcDbBlockBegin
  2
*D7
 70
     1
 10
0.0
 20
0.0
 30
0.0
  3
*D7
  1

  0
TEXT
  5
84
330
5A4
100
AcDbEntity
  8
0
 62
     0
100
AcDbText
 10
760.1758463700999
 20
-222.5490711233
 30
0.0
 40
2.998611020999999
  1
(115)
 50
90.0
100
AcDbText
  0
LINE
  5
85
330
5A4
100
AcDbEntity
  8
0
 62
     0
100
AcDbLine
 10
785.0184895833
 20
-160.6393490335
 30
0.0
 11
761.2050130208
 21
-160.6393490335
 31
0.0
  0
LINE
  5
86
330
5A4
100
AcDbEntity
  8
0
 62
     0
100
AcDbLine
 10
785.0184895833
 20
-275.6393490335
 30
0.0
 11
761.2050130208
 21
-275.6393490335
 31
0.0
  0
LINE
  5
87
330
5A4
100
AcDbEntity
  8
0
 62
     0
100
AcDbLine
 10
761.7050130208
 20
-160.6393490335
 30
0.0
 11
761.7050130208
 21
-211.9657381078
 31
0.0
  0
LINE
  5
88
330
5A4
100
AcDbEntity
  8
0
 62
     0
100
AcDbLine
 10
761.7050130208
 20
-160.6393490335
 30
0.0
 11
761.7050130208
 21
-224.3129599592
 31
0.0
  0
LINE
  5
89
330
5A4
100
AcDbEntity
  8
0
 62
     0
100
AcDbLine
 10
761.7050130208
 20
-275.6393490335
 30
0.0
 11
761.7050130208
 21
-211.9657381078
 31
0.0
  0
LINE
  5
8A
330
5A4
100
AcDbEntity
  8
0
 62
     0
100
AcDbLine
 10
761.7050130208
 20
-275.6393490335
 30
0.0
 11
761.7050130208
 21
-224.3129599592
 31
0.0
  0
LINE
  5
8B
330
5A4
100
AcDbEntity
  8
0
 62
     0
100
AcDbLine
 10
761.7050130208
 20
-275.6393490335
 30
0.0
 11
761.7050130208
 21
-272.6393490335
 31
0.0
  0
SOLID
  5
8C
330
5A4
100
AcDbEntity
  8
0
 62
     0
100
AcDbTrace
 10
761.7050130208
 20
-275.6393490335
 30
0.0
 11
760.9550130208
 21
-272.6393490335
 31
0.0
 12
762.4550130208
 22
-272.6393490335
 32
0.0
 13
761.7050130208
 23
-273.3893490335
 33
0.0
  0
LINE
  5
8D
330
5A4
100
AcDbEntity
  8
0
 62
     0
100
AcDbLine
 10
761.7050130208
 20
-160.6393490335
 30
0.0
 11
761.7050130208
 21
-163.6393490335
 31
0.0
  0
SOLID
  5
8E
330
5A4
100
AcDbEntity
  8
0
 62
     0
100
AcDbTrace
 10
761.7050130208
 20
-160.6393490335
 30
0.0
 11
762.4550130208
 21
-163.6393490335
 31
0.0
 12
760.9550130208
 22
-163.6393490335
 32
0.0
 13
761.7050130208
 23
-162.8893490335
 33
0.0
  0
ENDBLK
  5
8F
330
5A4
100
AcDbEntity
  8
0
100
AcDbBlockEnd
  0
BLOCK
  5
5A7
330
5A6
100
AcDbEntity
  8
0
100
AcDbBlockBegin
  2
*D8
 70
     1
 10
0.0
 20
0.0
 30
0.0
  3
*D8
  1

  0
TEXT
  5
93
330
5A6
100
AcDbEntity
  8
0
 62
     0
100
AcDbText
 10
827.7172526200999
 20
-221.6671267053
 30
0.0
 40
2.998611020999999
  1
(69)
 50
90.0
100
AcDbText
  0
LINE
  5
94
330
5A6
100
AcDbEntity
  8
0
 62
     0
100
AcDbLine
 10
850.2499348958
 20
-183.6393490335
 30
0.0
 11
828.7464192707998
 21
-183.6393490335
 31
0.0
  0
LINE
  5
95
330
5A6
100
AcDbEntity
  8
0
 62
     0
100
AcDbLine
 10
850.2499348958
 20
-252.6393490335
 30
0.0
 11
828.7464192707998
 21
-252.6393490335
 31
0.0
  0
LINE
  5
96
330
5A6
100
AcDbEntity
  8
0
 62
     0
100
AcDbLine
 10
829.2464192708001
 20
-183.6393490335
 30
0.0
 11
829.2464192708001
 21
-212.8476825258
 31
0.0
  0
LINE
  5
97
330
5A6
100
AcDbEntity
  8
0
 62
     0
100
AcDbLine
 10
829.2464192708001
 20
-183.6393490335
 30
0.0
 11
829.2464192708001
 21
-223.4310155412
 31
0.0
  0
LINE
  5
98
330
5A6
100
AcDbEntity
  8
0
 62
     0
100
AcDbLine
 10
829.2464192708001
 20
-252.6393490335
 30
0.0
 11
829.2464192708001
 21
-212.8476825258
 31
0.0
  0
LINE
  5
99
330
5A6
100
AcDbEntity
  8
0
 62
     0
100
AcDbLine
 10
829.2464192708001
 20
-252.6393490335
 30
0.0
 11
829.2464192708001
 21
-223.4310155412
 31
0.0
  0
LINE
  5
9A
330
5A6
100
AcDbEntity
  8
0
 62
     0
100
AcDbLine
 10
829.2464192708001
 20
-252.6393490335
 30
0.0
 11
829.2464192708001
 21
-249.6393490335
 31
0.0
  0
SOLID
  5
9B
330
5A6
100
AcDbEntity
  8
0
 62
     0
100
AcDbTrace
 10
829.2464192708001
 20
-252.6393490335
 30
0.0
 11
828.4964192708001
 21
-249.6393490335
 31
0.0
 12
829.9964192707998
 22
-249.6393490335
 32
0.0
 13
829.2464192708001
 23
-250.3893490335
 33
0.0
  0
LINE
  5
9C
330
5A6
100
AcDbEntity
  8
0
 62
     0
100
AcDbLine
 10
829.2464192708001
 20
-183.6393490335
 30
0.0
 11
829.2464192708001
 21
-186.6393490335
 31
0.0
  0
SOLID
  5
9D
330
5A6
100
AcDbEntity
  8
0
 62
     0
100
AcDbTrace
 10
829.2464192708001
 20
-183.6393490335
 30
0.0
 11
829.9964192707998
 21
-186.6393490335
 31
0.0
 12
828.4964192708001
 22
-186.6393490335
 32
0.0
 13
829.2464192708001
 23
-185.8893490335
 33
0.0
  0
ENDBLK
  5
9E
330
5A6
100
AcDbEntity
  8
0
100
AcDbBlockEnd
  0
BLOCK
  5
5A9
330
5A8
100
AcDbEntity
  8
0
100
AcDbBlockBegin
  2
*D9
 70
     1
 10
0.0
 20
0.0
 30
0.0
  3
*D9
  1

  0
TEXT
  5
A2
330
5A8
100
AcDbEntity
  8
0
 62
     0
100
AcDbText
 10
811.2743572153
 20
-221.6671267053
 30
0.0
 40
2.998611020999999
  1
(91)
 50
90.0
100
AcDbText
  0
LINE
  5
A3
330
5A8
100
AcDbEntity
  8
0
 62
     0
100
AcDbLine
 10
803.803523866
 20
-263.6393490335
 30
0.0
 11
813.3035238660001
 21
-263.6393490335
 31
0.0
  0
LINE
  5
A4
330
5A8
100
AcDbEntity
  8
0
 62
     0
100
AcDbLine
 10
803.803523866
 20
-172.6393490335
 30
0.0
 11
813.3035238660001
 21
-172.6393490335
 31
0.0
  0
LINE
  5
A5
330
5A8
100
AcDbEntity
  8
0
 62
     0
100
AcDbLine
 10
812.803523866
 20
-263.6393490335
 30
0.0
 11
812.803523866
 21
-212.8476825258
 31
0.0
  0
LINE
  5
A6
330
5A8
100
AcDbEntity
  8
0
 62
     0
100
AcDbLine
 10
812.803523866
 20
-263.6393490335
 30
0.0
 11
812.803523866
 21
-223.4310155412
 31
0.0
  0
LINE
  5
A7
330
5A8
100
AcDbEntity
  8
0
 62
     0
100
AcDbLine
 10
812.803523866
 20
-172.6393490335
 30
0.0
 11
812.803523866
 21
-212.8476825258
 31
0.0
  0
LINE
  5
A8
330
5A8
100
AcDbEntity
  8
0
 62
     0
100
AcDbLine
 10
812.803523866
 20
-172.6393490335
 30
0.0
 11
812.803523866
 21
-223.4310155412
 31
0.0
  0
LINE
  5
A9
330
5A8
100
AcDbEntity
  8
0
 62
     0
100
AcDbLine
 10
812.803523866
 20
-172.6393490335
 30
0.0
 11
812.803523866
 21
-175.6393490335
 31
0.0
  0
SOLID
  5
AA
330
5A8
100
AcDbEntity
  8
0
 62
     0
100
AcDbTrace
 10
812.803523866
 20
-172.6393490335
 30
0.0
 11
813.5535238660001
 21
-175.6393490335
 31
0.0
 12
812.053523866
 22
-175.6393490335
 32
0.0
 13
812.803523866
 23
-174.8893490335
 33
0.0
  0
LINE
  5
AB
330
5A8
100
AcDbEntity
  8
0
 62
     0
100
AcDbLine
 10
812.803523866
 20
-263.6393490335
 30
0.0
 11
812.803523866
 21
-260.6393490335
 31
0.0
  0
SOLID
  5
AC
330
5A8
100
AcDbEntity
  8
0
 62
     0
100
AcDbTrace
 10
812.803523866
 20
-263.6393490335
 30
0.0
 11
812.053523866
 21
-260.6393490335
 31
0.0
 12
813.5535238660001
 22
-260.6393490335
 32
0.0
 13
812.803523866
 23
-261.3893490335
 33
0.0
  0
ENDBLK
  5
AD
330
5A8
100
AcDbEntity
  8
0
100
AcDbBlockEnd
  0
BLOCK
  5
5AB
330
5AA
100
AcDbEntity
  8
0
100
AcDbBlockBegin
  2
*D10
 70
     1
 10
0.0
 20
0.0
 30
0.0
  3
*D10
  1

  0
TEXT
  5
B1
330
5AA
100
AcDbEntity
  8
0
 62
     0
100
AcDbText
 10
885.8859779296
 20
-227.6678092225
 30
0.0
 40
2.998611020999999
  1
61
 50
90.0
100
AcDbText
  0
LINE
  5
B2
330
5AA
100
AcDbEntity
  8
0
 62
     0
100
AcDbLine
 10
878.4151445802999
 20
-256.4039203866
 30
0.0
 11
887.9151445802998
 21
-256.4039203866
 31
0.0
  0
LINE
  5
B3
330
5AA
100
AcDbEntity
  8
0
 62
     0
100
AcDbLine
 10
878.4151445802999
 20
-195.4039203866
 30
0.0
 11
887.9151445802998
 21
-195.4039203866
 31
0.0
  0
LINE
  5
B4
330
5AA
100
AcDbEntity
  8
0
 62
     0
100
AcDbLine
 10
887.4151445802999
 20
-256.4039203866
 30
0.0
 11
887.4151445802999
 21
-222.3761427148
 31
0.0
  0
LINE
  5
B5
330
5AA
100
AcDbEntity
  8
0
 62
     0
100
AcDbLine
 10
887.4151445802999
 20
-256.4039203866
 30
0.0
 11
887.4151445802999
 21
-229.4316980584
 31
0.0
  0
LINE
  5
B6
330
5AA
100
AcDbEntity
  8
0
 62
     0
100
AcDbLine
 10
887.4151445802999
 20
-195.4039203866
 30
0.0
 11
887.4151445802999
 21
-222.3761427148
 31
0.0
  0
LINE
  5
B7
330
5AA
100
AcDbEntity
  8
0
 62
     0
100
AcDbLine
 10
887.4151445802999
 20
-195.4039203866
 30
0.0
 11
887.4151445802999
 21
-229.4316980584
 31
0.0
  0
LINE
  5
B8
330
5AA
100
AcDbEntity
  8
0
 62
     0
100
AcDbLine
 10
887.4151445802999
 20
-195.4039203866
 30
0.0
 11
887.4151445802999
 21
-198.4039203866
 31
0.0
  0
SOLID
  5
B9
330
5AA
100
AcDbEntity
  8
0
 62
     0
100
AcDbTrace
 10
887.4151445802999
 20
-195.4039203866
 30
0.0
 11
888.1651445802999
 21
-198.4039203866
 31
0.0
 12
886.6651445802999
 22
-198.4039203866
 32
0.0
 13
887.4151445802999
 23
-197.6539203866
 33
0.0
  0
LINE
  5
BA
330
5AA
100
AcDbEntity
  8
0
 62
     0
100
AcDbLine
 10
887.4151445802999
 20
-256.4039203866
 30
0.0
 11
887.4151445802999
 21
-253.4039203866
 31
0.0
  0
SOLID
  5
BB
330
5AA
100
AcDbEntity
  8
0
 62
     0
100
AcDbTrace
 10
887.4151445802999
 20
-256.4039203866
 30
0.0
 11
886.6651445802999
 21
-253.4039203866
 31
0.0
 12
888.1651445802999
 22
-253.4039203866
 32
0.0
 13
887.4151445802999
 23
-254.1539203866
 33
0.0
  0
ENDBLK
  5
BC
330
5AA
100
AcDbEntity
  8
0
100
AcDbBlockEnd
  0
BLOCK
  5
5AD
330
5AC
100
AcDbEntity
  8
0
100
AcDbBlockBegin
  2
CLUMP0
 70
     0
 10
0.0
 20
0.0
 30
0.0
  3
CLUMP0
  1

  0
CIRCLE
  5
C2
330
5AC
100
AcDbEntity
  8
図枠
100
AcDbCircle
 10
859.563666777
 20
-336.5153334056
 30
0.0
 40
2.303999999999999
  0
CIRCLE
  5
C3
330
5AC
100
AcDbEntity
  8
図枠
100
AcDbCircle
 10
859.563666777
 20
-336.5153334056
 30
0.0
 40
1.151999999999999
  0
LINE
  5
C4
330
5AC
100
AcDbEntity
  8
図枠
100
AcDbLine
 10
864.8301475882
 20
-337.6673334056
 30
0.0
 11
869.4381475882
 21
-338.8193334056
 31
0.0
  0
LINE
  5
C5
330
5AC
100
AcDbEntity
  8
図枠
100
AcDbLine
 10
864.8301475882
 20
-335.3633334056
 30
0.0
 11
869.4381475882
 21
-334.2113334056
 31
0.0
  0
LINE
  5
C6
330
5AC
100
AcDbEntity
  8
図枠
100
AcDbLine
 10
864.8301475882
 20
-337.6673334056
 30
0.0
 11
869.4381475882
 21
-338.8193334056
 31
0.0
  0
LINE
  5
C7
330
5AC
100
AcDbEntity
  8
図枠
100
AcDbLine
 10
843.4996667770001
 20
-340.7653334056
 30
0.0
 11
843.4996667770001
 21
-349.2653334055999
 31
0.0
  0
INSERT
  5
C8
330
5AC
100
AcDbEntity
  8
0
  6
Continuous
100
AcDbBlockReference
  2
*U12
 10
0.0
 20
0.0
 30
0.0
  0
ARC
  5
C9
330
5AC
100
AcDbEntity
  8
図枠
100
AcDbCircle
 10
847.0968681430001
 20
-353.8371950321
 30
0.0
 40
1.199999999999999
100
AcDbArc
 50
270.0
 51
0.0
  0
LINE
  5
CA
330
5AC
100
AcDbEntity
  8
図枠
100
AcDbLine
 10
862.5993391100999
 20
-351.9971950321
 30
0.0
 11
862.5993391100999
 21
-353.4371950321
 31
0.0
  0
LINE
  5
CB
330
5AC
100
AcDbEntity
  8
図枠
100
AcDbLine
 10
850.2968681429999
 20
-353.4371950321
 30
0.0
 11
851.496868143
 21
-353.4371950321
 31
0.0
  0
LINE
  5
CC
330
5AC
100
AcDbEntity
  8
図枠
100
AcDbLine
 10
865.9593391100999
 20
-356.6371950321
 30
0.0
 11
865.6308057766999
 21
-355.5171950321
 31
0.0
  0
LINE
  5
CD
330
5AC
100
AcDbEntity
  8
図枠
100
AcDbLine
 10
847.0968681430001
 20
-355.0371950321
 30
0.0
 11
844.6968681429998
 21
-355.0371950321
 31
0.0
  0
LINE
  5
CE
330
5AC
100
AcDbEntity
  8
図枠
100
AcDbLine
 10
864.8301475882
 20
-335.3633334056
 30
0.0
 11
864.8301475882
 21
-337.6673334056
 31
0.0
  0
LINE
  5
CF
330
5AC
100
AcDbEntity
  8
図枠
  6
BORDER
100
AcDbLine
 10
859.563666777
 20
-333.0593334056
 30
0.0
 11
859.563666777
 21
-339.9713334056
 31
0.0
  0
LINE
  5
D0
330
5AC
100
AcDbEntity
  8
図枠
100
AcDbLine
 10
864.8301475882
 20
-335.3633334056
 30
0.0
 11
864.8301475882
 21
-337.6673334056
 31
0.0
  0
LINE
  5
D1
330
5AC
100
AcDbEntity
  8
図枠
100
AcDbLine
 10
869.7993391100999
 20
-351.9971950321
 30
0.0
 11
869.7993391100999
 21
-353.4371950321
 31
0.0
  0
LINE
  5
D2
330
5AC
100
AcDbEntity
  8
図枠
 62
     5
100
AcDbLine
 10
929.499666777
 20
-357.7653334055999
 30
0.0
 11
744.4996667769998
 21
-357.7653334055999
 31
0.0
  0
LINE
  5
D3
330
5AC
100
AcDbEntity
  8
図枠
  6
DOT
100
AcDbLine
 10
935.9746667769998
 20
-364.8623334056
 30
0.0
 11
738.0246667769999
 21
-364.8623334056
 31
0.0
  0
LINE
  5
D4
330
5AC
100
AcDbEntity
  8
図枠
  6
DOT
100
AcDbLine
 10
935.9746667769998
 20
-76.39533340559998
 30
0.0
 11
738.0246667769999
 21
-76.39533340559998
 31
0.0
  0
LINE
  5
D5
330
5AC
100
AcDbEntity
  8
図枠
 62
     5
100
AcDbLine
 10
929.499666777
 20
-82.7653334056
 30
0.0
 11
744.4996667769998
 21
-82.7653334056
 31
0.0
  0
LINE
  5
D6
330
5AC
100
AcDbEntity
  8
図枠
 62
     5
100
AcDbLine
 10
744.4996667769998
 20
-357.7653334055999
 30
0.0
 11
744.4996667769998
 21
-82.7653334056
 31
0.0
  0
LINE
  5
D7
330
5AC
100
AcDbEntity
  8
図枠
  6
DOT
100
AcDbLine
 10
738.0246667769999
 20
-364.8623334056
 30
0.0
 11
738.0246667769999
 21
-76.39533340559998
 31
0.0
  0
LINE
  5
D8
330
5AC
100
AcDbEntity
  8
図枠
  6
DOT
100
AcDbLine
 10
935.9746667769998
 20
-364.8623334056
 30
0.0
 11
935.9746667769998
 21
-76.39533340559998
 31
0.0
  0
LINE
  5
D9
330
5AC
100
AcDbEntity
  8
図枠
 62
     5
100
AcDbLine
 10
929.499666777
 20
-357.7653334055999
 30
0.0
 11
929.499666777
 21
-82.7653334056
 31
0.0
  0
POLYLINE
  5
2E9
330
5AC
100
AcDbEntity
  8
図枠
100
AcDb3dPolyline
 66
     1
 10
0.0
 20
0.0
 30
0.0
 70
     8
  0
VERTEX
  5
2EA
330
2E9
100
AcDbEntity
  8
図枠
100
AcDbVertex
100
AcDb3dPolylineVertex
 10
856.3730000000001
 20
-352.9469999999999
 30
0.0
 70
    32
  0
VERTEX
  5
2EB
330
2E9
100
AcDbEntity
  8
図枠
100
AcDbVertex
100
AcDb3dPolylineVertex
 10
856.3780000000001
 20
-352.953
 30
0.0
 70
    32
  0
VERTEX
  5
2EC
330
2E9
100
AcDbEntity
  8
図枠
100
AcDbVertex
100
AcDb3dPolylineVertex
 10
856.3830000000001
 20
-352.959
 30
0.0
 70
    32
  0
VERTEX
  5
2ED
330
2E9
100
AcDbEntity
  8
図枠
100
AcDbVertex
100
AcDb3dPolylineVertex
 10
856.3889999999998
 20
-352.965
 30
0.0
 70
    32
  0
VERTEX
  5
2EE
330
2E9
100
AcDbEntity
  8
図枠
100
AcDbVertex
100
AcDb3dPolylineVertex
 10
856.3939999999998
 20
-352.971
 30
0.0
 70
    32
  0
VERTEX
  5
2EF
330
2E9
100
AcDbEntity
  8
図枠
100
AcDbVertex
100
AcDb3dPolylineVertex
 10
856.3989999999998
 20
-352.977
 30
0.0
 70
    32
  0
VERTEX
  5
2F0
330
2E9
100
AcDbEntity
  8
図枠
100
AcDbVertex
100
AcDb3dPolylineVertex
 10
856.404
 20
-352.983
 30
0.0
 70
    32
  0
VERTEX
  5
2F1
330
2E9
100
AcDbEntity
  8
図枠
100
AcDbVertex
100
AcDb3dPolylineVertex
 10
856.4099999999999
 20
-352.989
 30
0.0
 70
    32
  0
VERTEX
  5
2F2
330
2E9
100
AcDbEntity
  8
図枠
100
AcDbVertex
100
AcDb3dPolylineVertex
 10
856.4149999999999
 20
-352.995
 30
0.0
 70
    32
  0
VERTEX
  5
2F3
330
2E9
100
AcDbEntity
  8
図枠
100
AcDbVertex
100
AcDb3dPolylineVertex
 10
856.4199999999999
 20
-353.0
 30
0.0
 70
    32
  0
VERTEX
  5
2F4
330
2E9
100
AcDbEntity
  8
図枠
100
AcDbVertex
100
AcDb3dPolylineVertex
 10
856.426
 20
-353.006
 30
0.0
 70
    32
  0
VERTEX
  5
2F5
330
2E9
100
AcDbEntity
  8
図枠
100
AcDbVertex
100
AcDb3dPolylineVertex
 10
856.431
 20
-353.012
 30
0.0
 70
    32
  0
VERTEX
  5
2F6
330
2E9
100
AcDbEntity
  8
図枠
100
AcDbVertex
100
AcDb3dPolylineVertex
 10
856.436
 20
-353.018
 30
0.0
 70
    32
  0
VERTEX
  5
2F7
330
2E9
100
AcDbEntity
  8
図枠
100
AcDbVertex
100
AcDb3dPolylineVertex
 10
856.441
 20
-353.024
 30
0.0
 70
    32
  0
VERTEX
  5
2F8
330
2E9
100
AcDbEntity
  8
図枠
100
AcDbVertex
100
AcDb3dPolylineVertex
 10
856.447
 20
-353.03
 30
0.0
 70
    32
  0
VERTEX
  5
2F9
330
2E9
100
AcDbEntity
  8
図枠
100
AcDbVertex
100
AcDb3dPolylineVertex
 10
856.4519999999999
 20
-353.036
 30
0.0
 70
    32
  0
VERTEX
  5
2FA
330
2E9
100
AcDbEntity
  8
図枠
100
AcDbVertex
100
AcDb3dPolylineVertex
 10
856.4569999999999
 20
-353.042
 30
0.0
 70
    32
  0
VERTEX
  5
2FB
330
2E9
100
AcDbEntity
  8
図枠
100
AcDbVertex
100
AcDb3dPolylineVertex
 10
856.4630000000001
 20
-353.047
 30
0.0
 70
    32
  0
VERTEX
  5
2FC
330
2E9
100
AcDbEntity
  8
図枠
100
AcDbVertex
100
AcDb3dPolylineVertex
 10
856.468
 20
-353.0530000000001
 30
0.0
 70
    32
  0
VERTEX
  5
2FD
330
2E9
100
AcDbEntity
  8
図枠
100
AcDbVertex
100
AcDb3dPolylineVertex
 10
856.473
 20
-353.059
 30
0.0
 70
    32
  0
VERTEX
  5
2FE
330
2E9
100
AcDbEntity
  8
図枠
100
AcDbVertex
100
AcDb3dPolylineVertex
 10
856.478
 20
-353.065
 30
0.0
 70
    32
  0
VERTEX
  5
2FF
330
2E9
100
AcDbEntity
  8
図枠
100
AcDbVertex
100
AcDb3dPolylineVertex
 10
856.484
 20
-353.071
 30
0.0
 70
    32
  0
VERTEX
  5
300
330
2E9
100
AcDbEntity
  8
図枠
100
AcDbVertex
100
AcDb3dPolylineVertex
 10
856.489
 20
-353.077
 30
0.0
 70
    32
  0
VERTEX
  5
301
330
2E9
100
AcDbEntity
  8
図枠
100
AcDbVertex
100
AcDb3dPolylineVertex
 10
856.4939999999999
 20
-353.083
 30
0.0
 70
    32
  0
VERTEX
  5
302
330
2E9
100
AcDbEntity
  8
図枠
100
AcDbVertex
100
AcDb3dPolylineVertex
 10
856.4999999999999
 20
-353.089
 30
0.0
 70
    32
  0
VERTEX
  5
303
330
2E9
100
AcDbEntity
  8
図枠
100
AcDbVertex
100
AcDb3dPolylineVertex
 10
856.5049999999999
 20
-353.094
 30
0.0
 70
    32
  0
VERTEX
  5
304
330
2E9
100
AcDbEntity
  8
図枠
100
AcDbVertex
100
AcDb3dPolylineVertex
 10
856.5099999999999
 20
-353.1
 30
0.0
 70
    32
  0
VERTEX
  5
305
330
2E9
100
AcDbEntity
  8
図枠
100
AcDbVertex
100
AcDb3dPolylineVertex
 10
856.516
 20
-353.106
 30
0.0
 70
    32
  0
VERTEX
  5
306
330
2E9
100
AcDbEntity
  8
図枠
100
AcDbVertex
100
AcDb3dPolylineVertex
 10
856.521
 20
-353.112
 30
0.0
 70
    32
  0
VERTEX
  5
307
330
2E9
100
AcDbEntity
  8
図枠
100
AcDbVertex
100
AcDb3dPolylineVertex
 10
856.526
 20
-353.118
 30
0.0
 70
    32
  0
VERTEX
  5
308
330
2E9
100
AcDbEntity
  8
図枠
100
AcDbVertex
100
AcDb3dPolylineVertex
 10
856.531
 20
-353.124
 30
0.0
 70
    32
  0
VERTEX
  5
309
330
2E9
100
AcDbEntity
  8
図枠
100
AcDbVertex
100
AcDb3dPolylineVertex
 10
856.5369999999999
 20
-353.129
 30
0.0
 70
    32
  0
VERTEX
  5
30A
330
2E9
100
AcDbEntity
  8
図枠
100
AcDbVertex
100
AcDb3dPolylineVertex
 10
856.5419999999999
 20
-353.135
 30
0.0
 70
    32
  0
VERTEX
  5
30B
330
2E9
100
AcDbEntity
  8
図枠
100
AcDbVertex
100
AcDb3dPolylineVertex
 10
856.5470000000001
 20
-353.141
 30
0.0
 70
    32
  0
VERTEX
  5
30C
330
2E9
100
AcDbEntity
  8
図枠
100
AcDbVertex
100
AcDb3dPolylineVertex
 10
856.553
 20
-353.147
 30
0.0
 70
    32
  0
VERTEX
  5
30D
330
2E9
100
AcDbEntity
  8
図枠
100
AcDbVertex
100
AcDb3dPolylineVertex
 10
856.558
 20
-353.153
 30
0.0
 70
    32
  0
VERTEX
  5
30E
330
2E9
100
AcDbEntity
  8
図枠
100
AcDbVertex
100
AcDb3dPolylineVertex
 10
856.563
 20
-353.159
 30
0.0
 70
    32
  0
VERTEX
  5
30F
330
2E9
100
AcDbEntity
  8
図枠
100
AcDbVertex
100
AcDb3dPolylineVertex
 10
856.569
 20
-353.164
 30
0.0
 70
    32
  0
VERTEX
  5
310
330
2E9
100
AcDbEntity
  8
図枠
100
AcDbVertex
100
AcDb3dPolylineVertex
 10
856.5739999999999
 20
-353.17
 30
0.0
 70
    32
  0
VERTEX
  5
311
330
2E9
100
AcDbEntity
  8
図枠
100
AcDbVertex
100
AcDb3dPolylineVertex
 10
856.5789999999999
 20
-353.176
 30
0.0
 70
    32
  0
VERTEX
  5
312
330
2E9
100
AcDbEntity
  8
図枠
100
AcDbVertex
100
AcDb3dPolylineVertex
 10
856.5850000000001
 20
-353.182
 30
0.0
 70
    32
  0
VERTEX
  5
313
330
2E9
100
AcDbEntity
  8
図枠
100
AcDbVertex
100
AcDb3dPolylineVertex
 10
856.59
 20
-353.1880000000001
 30
0.0
 70
    32
  0
VERTEX
  5
314
330
2E9
100
AcDbEntity
  8
図枠
100
AcDbVertex
100
AcDb3dPolylineVertex
 10
856.595
 20
-353.194
 30
0.0
 70
    32
  0
VERTEX
  5
315
330
2E9
100
AcDbEntity
  8
図枠
100
AcDbVertex
100
AcDb3dPolylineVertex
 10
856.6010000000002
 20
-353.199
 30
0.0
 70
    32
  0
VERTEX
  5
316
330
2E9
100
AcDbEntity
  8
図枠
100
AcDbVertex
100
AcDb3dPolylineVertex
 10
856.6060000000002
 20
-353.205
 30
0.0
 70
    32
  0
VERTEX
  5
317
330
2E9
100
AcDbEntity
  8
図枠
100
AcDbVertex
100
AcDb3dPolylineVertex
 10
856.6110000000001
 20
-353.211
 30
0.0
 70
    32
  0
VERTEX
  5
318
330
2E9
100
AcDbEntity
  8
図枠
100
AcDbVertex
100
AcDb3dPolylineVertex
 10
856.6169999999999
 20
-353.217
 30
0.0
 70
    32
  0
VERTEX
  5
319
330
2E9
100
AcDbEntity
  8
図枠
100
AcDbVertex
100
AcDb3dPolylineVertex
 10
856.6219999999999
 20
-353.223
 30
0.0
 70
    32
  0
VERTEX
  5
31A
330
2E9
100
AcDbEntity
  8
図枠
100
AcDbVertex
100
AcDb3dPolylineVertex
 10
856.6269999999999
 20
-353.228
 30
0.0
 70
    32
  0
VERTEX
  5
31B
330
2E9
100
AcDbEntity
  8
図枠
100
AcDbVertex
100
AcDb3dPolylineVertex
 10
856.633
 20
-353.234
 30
0.0
 70
    32
  0
VERTEX
  5
31C
330
2E9
100
AcDbEntity
  8
図枠
100
AcDbVertex
100
AcDb3dPolylineVertex
 10
856.638
 20
-353.24
 30
0.0
 70
    32
  0
VERTEX
  5
31D
330
2E9
100
AcDbEntity
  8
図枠
100
AcDbVertex
100
AcDb3dPolylineVertex
 10
856.643
 20
-353.246
 30
0.0
 70
    32
  0
VERTEX
  5
31E
330
2E9
100
AcDbEntity
  8
図枠
100
AcDbVertex
100
AcDb3dPolylineVertex
 10
856.6489999999999
 20
-353.251
 30
0.0
 70
    32
  0
VERTEX
  5
31F
330
2E9
100
AcDbEntity
  8
図枠
100
AcDbVertex
100
AcDb3dPolylineVertex
 10
856.6539999999999
 20
-353.257
 30
0.0
 70
    32
  0
VERTEX
  5
320
330
2E9
100
AcDbEntity
  8
図枠
100
AcDbVertex
100
AcDb3dPolylineVertex
 10
856.6589999999999
 20
-353.2630000000001
 30
0.0
 70
    32
  0
VERTEX
  5
321
330
2E9
100
AcDbEntity
  8
図枠
100
AcDbVertex
100
AcDb3dPolylineVertex
 10
856.6649999999999
 20
-353.269
 30
0.0
 70
    32
  0
VERTEX
  5
322
330
2E9
100
AcDbEntity
  8
図枠
100
AcDbVertex
100
AcDb3dPolylineVertex
 10
856.6699999999999
 20
-353.275
 30
0.0
 70
    32
  0
VERTEX
  5
323
330
2E9
100
AcDbEntity
  8
図枠
100
AcDbVertex
100
AcDb3dPolylineVertex
 10
856.6749999999998
 20
-353.28
 30
0.0
 70
    32
  0
VERTEX
  5
324
330
2E9
100
AcDbEntity
  8
図枠
100
AcDbVertex
100
AcDb3dPolylineVertex
 10
856.681
 20
-353.286
 30
0.0
 70
    32
  0
VERTEX
  5
325
330
2E9
100
AcDbEntity
  8
図枠
100
AcDbVertex
100
AcDb3dPolylineVertex
 10
856.686
 20
-353.292
 30
0.0
 70
    32
  0
VERTEX
  5
326
330
2E9
100
AcDbEntity
  8
図枠
100
AcDbVertex
100
AcDb3dPolylineVertex
 10
856.6919999999999
 20
-353.297
 30
0.0
 70
    32
  0
VERTEX
  5
327
330
2E9
100
AcDbEntity
  8
図枠
100
AcDbVertex
100
AcDb3dPolylineVertex
 10
856.6969999999999
 20
-353.3030000000001
 30
0.0
 70
    32
  0
VERTEX
  5
328
330
2E9
100
AcDbEntity
  8
図枠
100
AcDbVertex
100
AcDb3dPolylineVertex
 10
856.7019999999999
 20
-353.309
 30
0.0
 70
    32
  0
VERTEX
  5
329
330
2E9
100
AcDbEntity
  8
図枠
100
AcDbVertex
100
AcDb3dPolylineVertex
 10
856.708
 20
-353.315
 30
0.0
 70
    32
  0
VERTEX
  5
32A
330
2E9
100
AcDbEntity
  8
図枠
100
AcDbVertex
100
AcDb3dPolylineVertex
 10
856.713
 20
-353.32
 30
0.0
 70
    32
  0
VERTEX
  5
32B
330
2E9
100
AcDbEntity
  8
図枠
100
AcDbVertex
100
AcDb3dPolylineVertex
 10
856.718
 20
-353.326
 30
0.0
 70
    32
  0
VERTEX
  5
32C
330
2E9
100
AcDbEntity
  8
図枠
100
AcDbVertex
100
AcDb3dPolylineVertex
 10
856.7239999999999
 20
-353.332
 30
0.0
 70
    32
  0
VERTEX
  5
32D
330
2E9
100
AcDbEntity
  8
図枠
100
AcDbVertex
100
AcDb3dPolylineVertex
 10
856.7289999999999
 20
-353.337
 30
0.0
 70
    32
  0
VERTEX
  5
32E
330
2E9
100
AcDbEntity
  8
図枠
100
AcDbVertex
100
AcDb3dPolylineVertex
 10
856.7350000000001
 20
-353.343
 30
0.0
 70
    32
  0
VERTEX
  5
32F
330
2E9
100
AcDbEntity
  8
図枠
100
AcDbVertex
100
AcDb3dPolylineVertex
 10
856.7400000000001
 20
-353.349
 30
0.0
 70
    32
  0
VERTEX
  5
330
330
2E9
100
AcDbEntity
  8
図枠
100
AcDbVertex
100
AcDb3dPolylineVertex
 10
856.745
 20
-353.354
 30
0.0
 70
    32
  0
VERTEX
  5
331
330
2E9
100
AcDbEntity
  8
図枠
100
AcDbVertex
100
AcDb3dPolylineVertex
 10
856.751
 20
-353.36
 30
0.0
 70
    32
  0
VERTEX
  5
332
330
2E9
100
AcDbEntity
  8
図枠
100
AcDbVertex
100
AcDb3dPolylineVertex
 10
856.756
 20
-353.366
 30
0.0
 70
    32
  0
VERTEX
  5
333
330
2E9
100
AcDbEntity
  8
図枠
100
AcDbVertex
100
AcDb3dPolylineVertex
 10
856.7619999999999
 20
-353.371
 30
0.0
 70
    32
  0
VERTEX
  5
334
330
2E9
100
AcDbEntity
  8
図枠
100
AcDbVertex
100
AcDb3dPolylineVertex
 10
856.7669999999999
 20
-353.377
 30
0.0
 70
    32
  0
VERTEX
  5
335
330
2E9
100
AcDbEntity
  8
図枠
100
AcDbVertex
100
AcDb3dPolylineVertex
 10
856.773
 20
-353.383
 30
0.0
 70
    32
  0
VERTEX
  5
336
330
2E9
100
AcDbEntity
  8
図枠
100
AcDbVertex
100
AcDb3dPolylineVertex
 10
856.778
 20
-353.388
 30
0.0
 70
    32
  0
VERTEX
  5
337
330
2E9
100
AcDbEntity
  8
図枠
100
AcDbVertex
100
AcDb3dPolylineVertex
 10
856.783
 20
-353.394
 30
0.0
 70
    32
  0
VERTEX
  5
338
330
2E9
100
AcDbEntity
  8
図枠
100
AcDbVertex
100
AcDb3dPolylineVertex
 10
856.789
 20
-353.4
 30
0.0
 70
    32
  0
VERTEX
  5
339
330
2E9
100
AcDbEntity
  8
図枠
100
AcDbVertex
100
AcDb3dPolylineVertex
 10
856.794
 20
-353.405
 30
0.0
 70
    32
  0
VERTEX
  5
33A
330
2E9
100
AcDbEntity
  8
図枠
100
AcDbVertex
100
AcDb3dPolylineVertex
 10
856.7999999999999
 20
-353.411
 30
0.0
 70
    32
  0
VERTEX
  5
33B
330
2E9
100
AcDbEntity
  8
図枠
100
AcDbVertex
100
AcDb3dPolylineVertex
 10
856.8049999999999
 20
-353.416
 30
0.0
 70
    32
  0
VERTEX
  5
33C
330
2E9
100
AcDbEntity
  8
図枠
100
AcDbVertex
100
AcDb3dPolylineVertex
 10
856.811
 20
-353.422
 30
0.0
 70
    32
  0
VERTEX
  5
33D
330
2E9
100
AcDbEntity
  8
図枠
100
AcDbVertex
100
AcDb3dPolylineVertex
 10
856.816
 20
-353.4280000000001
 30
0.0
 70
    32
  0
VERTEX
  5
33E
330
2E9
100
AcDbEntity
  8
図枠
100
AcDbVertex
100
AcDb3dPolylineVertex
 10
856.822
 20
-353.4330000000001
 30
0.0
 70
    32
  0
VERTEX
  5
33F
330
2E9
100
AcDbEntity
  8
図枠
100
AcDbVertex
100
AcDb3dPolylineVertex
 10
856.827
 20
-353.439
 30
0.0
 70
    32
  0
VERTEX
  5
340
330
2E9
100
AcDbEntity
  8
図枠
100
AcDbVertex
100
AcDb3dPolylineVertex
 10
856.8330000000001
 20
-353.444
 30
0.0
 70
    32
  0
VERTEX
  5
341
330
2E9
100
AcDbEntity
  8
図枠
100
AcDbVertex
100
AcDb3dPolylineVertex
 10
856.8380000000001
 20
-353.45
 30
0.0
 70
    32
  0
VERTEX
  5
342
330
2E9
100
AcDbEntity
  8
図枠
100
AcDbVertex
100
AcDb3dPolylineVertex
 10
856.8439999999998
 20
-353.455
 30
0.0
 70
    32
  0
VERTEX
  5
343
330
2E9
100
AcDbEntity
  8
図枠
100
AcDbVertex
100
AcDb3dPolylineVertex
 10
856.8489999999998
 20
-353.461
 30
0.0
 70
    32
  0
VERTEX
  5
344
330
2E9
100
AcDbEntity
  8
図枠
100
AcDbVertex
100
AcDb3dPolylineVertex
 10
856.855
 20
-353.467
 30
0.0
 70
    32
  0
VERTEX
  5
345
330
2E9
100
AcDbEntity
  8
図枠
100
AcDbVertex
100
AcDb3dPolylineVertex
 10
856.8599999999999
 20
-353.472
 30
0.0
 70
    32
  0
VERTEX
  5
346
330
2E9
100
AcDbEntity
  8
図枠
100
AcDbVertex
100
AcDb3dPolylineVertex
 10
856.8660000000001
 20
-353.478
 30
0.0
 70
    32
  0
VERTEX
  5
347
330
2E9
100
AcDbEntity
  8
図枠
100
AcDbVertex
100
AcDb3dPolylineVertex
 10
856.8710000000001
 20
-353.483
 30
0.0
 70
    32
  0
VERTEX
  5
348
330
2E9
100
AcDbEntity
  8
図枠
100
AcDbVertex
100
AcDb3dPolylineVertex
 10
856.8769999999998
 20
-353.489
 30
0.0
 70
    32
  0
VERTEX
  5
349
330
2E9
100
AcDbEntity
  8
図枠
100
AcDbVertex
100
AcDb3dPolylineVertex
 10
856.882
 20
-353.494
 30
0.0
 70
    32
  0
VERTEX
  5
34A
330
2E9
100
AcDbEntity
  8
図枠
100
AcDbVertex
100
AcDb3dPolylineVertex
 10
856.888
 20
-353.5
 30
0.0
 70
    32
  0
VERTEX
  5
34B
330
2E9
100
AcDbEntity
  8
図枠
100
AcDbVertex
100
AcDb3dPolylineVertex
 10
856.8929999999999
 20
-353.505
 30
0.0
 70
    32
  0
VERTEX
  5
34C
330
2E9
100
AcDbEntity
  8
図枠
100
AcDbVertex
100
AcDb3dPolylineVertex
 10
856.8989999999999
 20
-353.5109999999999
 30
0.0
 70
    32
  0
VERTEX
  5
34D
330
2E9
100
AcDbEntity
  8
図枠
100
AcDbVertex
100
AcDb3dPolylineVertex
 10
856.9039999999999
 20
-353.516
 30
0.0
 70
    32
  0
VERTEX
  5
34E
330
2E9
100
AcDbEntity
  8
図枠
100
AcDbVertex
100
AcDb3dPolylineVertex
 10
856.91
 20
-353.521
 30
0.0
 70
    32
  0
VERTEX
  5
34F
330
2E9
100
AcDbEntity
  8
図枠
100
AcDbVertex
100
AcDb3dPolylineVertex
 10
856.915
 20
-353.527
 30
0.0
 70
    32
  0
VERTEX
  5
350
330
2E9
100
AcDbEntity
  8
図枠
100
AcDbVertex
100
AcDb3dPolylineVertex
 10
856.9209999999999
 20
-353.532
 30
0.0
 70
    32
  0
VERTEX
  5
351
330
2E9
100
AcDbEntity
  8
図枠
100
AcDbVertex
100
AcDb3dPolylineVertex
 10
856.9270000000001
 20
-353.538
 30
0.0
 70
    32
  0
VERTEX
  5
352
330
2E9
100
AcDbEntity
  8
図枠
100
AcDbVertex
100
AcDb3dPolylineVertex
 10
856.9320000000001
 20
-353.543
 30
0.0
 70
    32
  0
VERTEX
  5
353
330
2E9
100
AcDbEntity
  8
図枠
100
AcDbVertex
100
AcDb3dPolylineVertex
 10
856.938
 20
-353.549
 30
0.0
 70
    32
  0
VERTEX
  5
354
330
2E9
100
AcDbEntity
  8
図枠
100
AcDbVertex
100
AcDb3dPolylineVertex
 10
856.943
 20
-353.5540000000001
 30
0.0
 70
    32
  0
VERTEX
  5
355
330
2E9
100
AcDbEntity
  8
図枠
100
AcDbVertex
100
AcDb3dPolylineVertex
 10
856.949
 20
-353.559
 30
0.0
 70
    32
  0
VERTEX
  5
356
330
2E9
100
AcDbEntity
  8
図枠
100
AcDbVertex
100
AcDb3dPolylineVertex
 10
856.9539999999999
 20
-353.565
 30
0.0
 70
    32
  0
VERTEX
  5
357
330
2E9
100
AcDbEntity
  8
図枠
100
AcDbVertex
100
AcDb3dPolylineVertex
 10
856.9600000000001
 20
-353.57
 30
0.0
 70
    32
  0
VERTEX
  5
358
330
2E9
100
AcDbEntity
  8
図枠
100
AcDbVertex
100
AcDb3dPolylineVertex
 10
856.966
 20
-353.575
 30
0.0
 70
    32
  0
VERTEX
  5
359
330
2E9
100
AcDbEntity
  8
図枠
100
AcDbVertex
100
AcDb3dPolylineVertex
 10
856.971
 20
-353.581
 30
0.0
 70
    32
  0
VERTEX
  5
35A
330
2E9
100
AcDbEntity
  8
図枠
100
AcDbVertex
100
AcDb3dPolylineVertex
 10
856.977
 20
-353.586
 30
0.0
 70
    32
  0
VERTEX
  5
35B
330
2E9
100
AcDbEntity
  8
図枠
100
AcDbVertex
100
AcDb3dPolylineVertex
 10
856.9830000000001
 20
-353.591
 30
0.0
 70
    32
  0
VERTEX
  5
35C
330
2E9
100
AcDbEntity
  8
図枠
100
AcDbVertex
100
AcDb3dPolylineVertex
 10
856.9880000000001
 20
-353.597
 30
0.0
 70
    32
  0
VERTEX
  5
35D
330
2E9
100
AcDbEntity
  8
図枠
100
AcDbVertex
100
AcDb3dPolylineVertex
 10
856.9939999999999
 20
-353.602
 30
0.0
 70
    32
  0
VERTEX
  5
35E
330
2E9
100
AcDbEntity
  8
図枠
100
AcDbVertex
100
AcDb3dPolylineVertex
 10
856.9989999999998
 20
-353.607
 30
0.0
 70
    32
  0
VERTEX
  5
35F
330
2E9
100
AcDbEntity
  8
図枠
100
AcDbVertex
100
AcDb3dPolylineVertex
 10
857.005
 20
-353.613
 30
0.0
 70
    32
  0
VERTEX
  5
360
330
2E9
100
AcDbEntity
  8
図枠
100
AcDbVertex
100
AcDb3dPolylineVertex
 10
857.0110000000001
 20
-353.6180000000001
 30
0.0
 70
    32
  0
VERTEX
  5
361
330
2E9
100
AcDbEntity
  8
図枠
100
AcDbVertex
100
AcDb3dPolylineVertex
 10
857.0160000000001
 20
-353.6230000000001
 30
0.0
 70
    32
  0
VERTEX
  5
362
330
2E9
100
AcDbEntity
  8
図枠
100
AcDbVertex
100
AcDb3dPolylineVertex
 10
857.0219999999999
 20
-353.629
 30
0.0
 70
    32
  0
VERTEX
  5
363
330
2E9
100
AcDbEntity
  8
図枠
100
AcDbVertex
100
AcDb3dPolylineVertex
 10
857.028
 20
-353.634
 30
0.0
 70
    32
  0
VERTEX
  5
364
330
2E9
100
AcDbEntity
  8
図枠
100
AcDbVertex
100
AcDb3dPolylineVertex
 10
857.033
 20
-353.639
 30
0.0
 70
    32
  0
VERTEX
  5
365
330
2E9
100
AcDbEntity
  8
図枠
100
AcDbVertex
100
AcDb3dPolylineVertex
 10
857.0389999999999
 20
-353.644
 30
0.0
 70
    32
  0
VERTEX
  5
366
330
2E9
100
AcDbEntity
  8
図枠
100
AcDbVertex
100
AcDb3dPolylineVertex
 10
857.0449999999999
 20
-353.649
 30
0.0
 70
    32
  0
VERTEX
  5
367
330
2E9
100
AcDbEntity
  8
図枠
100
AcDbVertex
100
AcDb3dPolylineVertex
 10
857.051
 20
-353.655
 30
0.0
 70
    32
  0
VERTEX
  5
368
330
2E9
100
AcDbEntity
  8
図枠
100
AcDbVertex
100
AcDb3dPolylineVertex
 10
857.056
 20
-353.66
 30
0.0
 70
    32
  0
VERTEX
  5
369
330
2E9
100
AcDbEntity
  8
図枠
100
AcDbVertex
100
AcDb3dPolylineVertex
 10
857.0619999999999
 20
-353.665
 30
0.0
 70
    32
  0
SEQEND
  5
36A
330
2E9
100
AcDbEntity
  8
図枠
  0
LINE
  5
DB
330
5AC
100
AcDbEntity
  8
図枠
100
AcDbLine
 10
864.8301475882
 20
-335.3633334056
 30
0.0
 11
864.8301475882
 21
-337.6673334056
 31
0.0
  0
LINE
  5
DC
330
5AC
100
AcDbEntity
  8
図枠
100
AcDbLine
 10
869.4381475882
 20
-334.2113334056
 30
0.0
 11
869.4381475882
 21
-338.8193334056
 31
0.0
  0
CIRCLE
  5
DD
330
5AC
100
AcDbEntity
  8
図枠
100
AcDbCircle
 10
859.563666777
 20
-336.5153334056
 30
0.0
 40
1.151999999999999
  0
LINE
  5
DE
330
5AC
100
AcDbEntity
  8
図枠
  6
BORDER
100
AcDbLine
 10
856.1076667769999
 20
-336.5153334056
 30
0.0
 11
870.8916667769997
 21
-336.5153334056
 31
0.0
  0
CIRCLE
  5
DF
330
5AC
100
AcDbEntity
  8
図枠
100
AcDbCircle
 10
859.563666777
 20
-336.5153334056
 30
0.0
 40
1.151999999999999
  0
LINE
  5
E0
330
5AC
100
AcDbEntity
  8
図枠
100
AcDbLine
 10
864.8301475882
 20
-335.3633334056
 30
0.0
 11
869.4381475882
 21
-334.2113334056
 31
0.0
  0
LINE
  5
E1
330
5AC
100
AcDbEntity
  8
図枠
100
AcDbLine
 10
864.8301475882
 20
-337.6673334056
 30
0.0
 11
869.4381475882
 21
-338.8193334056
 31
0.0
  0
LINE
  5
E2
330
5AC
100
AcDbEntity
  8
図枠
100
AcDbLine
 10
864.8301475882
 20
-335.3633334056
 30
0.0
 11
864.8301475882
 21
-337.6673334056
 31
0.0
  0
LINE
  5
E3
330
5AC
100
AcDbEntity
  8
図枠
100
AcDbLine
 10
844.6968681429998
 20
-356.2371950321
 30
0.0
 11
847.896868143
 21
-356.2371950321
 31
0.0
  0
LINE
  5
E4
330
5AC
100
AcDbEntity
  8
図枠
100
AcDbLine
 10
853.6253529913999
 20
-356.2371950321
 30
0.0
 11
855.6253529913998
 21
-356.2371950321
 31
0.0
  0
LINE
  5
E5
330
5AC
100
AcDbEntity
  8
図枠
100
AcDbLine
 10
856.8253529914001
 20
-352.4948832461
 30
0.0
 11
856.3728046514999
 21
-352.947431586
 31
0.0
  0
LINE
  5
E6
330
5AC
100
AcDbEntity
  8
図枠
100
AcDbLine
 10
853.6253529913999
 20
-352.7525714601
 30
0.0
 11
853.6253529913999
 21
-352.4948832461
 31
0.0
  0
LINE
  5
E7
330
5AC
100
AcDbEntity
  8
図枠
100
AcDbLine
 10
848.296868143
 20
-353.4371950321
 30
0.0
 11
848.296868143
 21
-353.8371950321
 31
0.0
  0
ARC
  5
E8
330
5AC
100
AcDbEntity
  8
図枠
100
AcDbCircle
 10
854.5853529913998
 20
-351.9971950321
 30
0.0
 40
3.04
100
AcDbArc
 50
331.3992813833
 51
358.4920422458
  0
ARC
  5
E9
330
5AC
100
AcDbEntity
  8
図枠
100
AcDbCircle
 10
855.6253529913998
 20
-351.8371950321
 30
0.0
 40
4.4
100
AcDbArc
 50
322.4876119797
 51
0.0
  0
LINE
  5
EA
330
5AC
100
AcDbEntity
  8
図枠
100
AcDbLine
 10
853.6253529913999
 20
-356.2371950321
 30
0.0
 11
853.6253529913999
 21
-355.0371950321
 31
0.0
  0
CIRCLE
  5
EB
330
5AC
100
AcDbEntity
  8
図枠
100
AcDbCircle
 10
859.563666777
 20
-336.5153334056
 30
0.0
 40
2.303999999999999
  0
INSERT
  5
EC
330
5AC
100
AcDbEntity
  8
0
  6
Continuous
100
AcDbBlockReference
  2
*U13
 10
0.0
 20
0.0
 30
0.0
  0
INSERT
  5
ED
330
5AC
100
AcDbEntity
  8
0
  6
Continuous
100
AcDbBlockReference
  2
*U14
 10
0.0
 20
0.0
 30
0.0
  0
LINE
  5
EE
330
5AC
100
AcDbEntity
  8
図枠
100
AcDbLine
 10
844.6968681429998
 20
-353.4371950321
 30
0.0
 11
844.6968681429998
 21
-354.6371950321
 31
0.0
  0
LINE
  5
EF
330
5AC
100
AcDbEntity
  8
図枠
100
AcDbLine
 10
844.6968681429998
 20
-350.6371950321
 30
0.0
 11
844.6968681429998
 21
-352.2371950321
 31
0.0
  0
LINE
  5
F0
330
5AC
100
AcDbEntity
  8
図枠
100
AcDbLine
 10
864.5982724434
 20
-351.9971950321
 30
0.0
 11
864.1993391100999
 21
-350.6371950321
 31
0.0
  0
LINE
  5
F1
330
5AC
100
AcDbEntity
  8
図枠
100
AcDbLine
 10
866.8641105948999
 20
-351.9971950321
 30
0.0
 11
869.7993391100999
 21
-351.9971950321
 31
0.0
  0
INSERT
  5
F2
330
5AC
100
AcDbEntity
  8
0
  6
Continuous
100
AcDbBlockReference
  2
*U15
 10
0.0
 20
0.0
 30
0.0
  0
POLYLINE
  5
36B
330
5AC
100
AcDbEntity
  8
図枠
100
AcDb3dPolyline
 66
     1
 10
0.0
 20
0.0
 30
0.0
 70
     8
  0
VERTEX
  5
36C
330
36B
100
AcDbEntity
  8
図枠
100
AcDbVertex
100
AcDb3dPolylineVertex
 10
858.9730000000001
 20
-354.656
 30
0.0
 70
    32
  0
VERTEX
  5
36D
330
36B
100
AcDbEntity
  8
図枠
100
AcDbVertex
100
AcDb3dPolylineVertex
 10
858.9869999999999
 20
-354.66
 30
0.0
 70
    32
  0
VERTEX
  5
36E
330
36B
100
AcDbEntity
  8
図枠
100
AcDbVertex
100
AcDb3dPolylineVertex
 10
859.0010000000001
 20
-354.664
 30
0.0
 70
    32
  0
VERTEX
  5
36F
330
36B
100
AcDbEntity
  8
図枠
100
AcDbVertex
100
AcDb3dPolylineVertex
 10
859.0149999999999
 20
-354.668
 30
0.0
 70
    32
  0
VERTEX
  5
370
330
36B
100
AcDbEntity
  8
図枠
100
AcDbVertex
100
AcDb3dPolylineVertex
 10
859.0289999999999
 20
-354.672
 30
0.0
 70
    32
  0
VERTEX
  5
371
330
36B
100
AcDbEntity
  8
図枠
100
AcDbVertex
100
AcDb3dPolylineVertex
 10
859.0429999999999
 20
-354.676
 30
0.0
 70
    32
  0
VERTEX
  5
372
330
36B
100
AcDbEntity
  8
図枠
100
AcDbVertex
100
AcDb3dPolylineVertex
 10
859.0569999999999
 20
-354.679
 30
0.0
 70
    32
  0
VERTEX
  5
373
330
36B
100
AcDbEntity
  8
図枠
100
AcDbVertex
100
AcDb3dPolylineVertex
 10
859.0709999999999
 20
-354.683
 30
0.0
 70
    32
  0
VERTEX
  5
374
330
36B
100
AcDbEntity
  8
図枠
100
AcDbVertex
100
AcDb3dPolylineVertex
 10
859.0850000000001
 20
-354.687
 30
0.0
 70
    32
  0
VERTEX
  5
375
330
36B
100
AcDbEntity
  8
図枠
100
AcDbVertex
100
AcDb3dPolylineVertex
 10
859.0989999999999
 20
-354.691
 30
0.0
 70
    32
  0
VERTEX
  5
376
330
36B
100
AcDbEntity
  8
図枠
100
AcDbVertex
100
AcDb3dPolylineVertex
 10
859.1139999999999
 20
-354.695
 30
0.0
 70
    32
  0
VERTEX
  5
377
330
36B
100
AcDbEntity
  8
図枠
100
AcDbVertex
100
AcDb3dPolylineVertex
 10
859.1280000000001
 20
-354.698
 30
0.0
 70
    32
  0
VERTEX
  5
378
330
36B
100
AcDbEntity
  8
図枠
100
AcDbVertex
100
AcDb3dPolylineVertex
 10
859.1419999999999
 20
-354.702
 30
0.0
 70
    32
  0
VERTEX
  5
379
330
36B
100
AcDbEntity
  8
図枠
100
AcDbVertex
100
AcDb3dPolylineVertex
 10
859.1560000000001
 20
-354.706
 30
0.0
 70
    32
  0
VERTEX
  5
37A
330
36B
100
AcDbEntity
  8
図枠
100
AcDbVertex
100
AcDb3dPolylineVertex
 10
859.1699999999999
 20
-354.709
 30
0.0
 70
    32
  0
VERTEX
  5
37B
330
36B
100
AcDbEntity
  8
図枠
100
AcDbVertex
100
AcDb3dPolylineVertex
 10
859.1839999999999
 20
-354.713
 30
0.0
 70
    32
  0
VERTEX
  5
37C
330
36B
100
AcDbEntity
  8
図枠
100
AcDbVertex
100
AcDb3dPolylineVertex
 10
859.1979999999999
 20
-354.717
 30
0.0
 70
    32
  0
VERTEX
  5
37D
330
36B
100
AcDbEntity
  8
図枠
100
AcDbVertex
100
AcDb3dPolylineVertex
 10
859.213
 20
-354.72
 30
0.0
 70
    32
  0
VERTEX
  5
37E
330
36B
100
AcDbEntity
  8
図枠
100
AcDbVertex
100
AcDb3dPolylineVertex
 10
859.2269999999999
 20
-354.724
 30
0.0
 70
    32
  0
VERTEX
  5
37F
330
36B
100
AcDbEntity
  8
図枠
100
AcDbVertex
100
AcDb3dPolylineVertex
 10
859.241
 20
-354.728
 30
0.0
 70
    32
  0
VERTEX
  5
380
330
36B
100
AcDbEntity
  8
図枠
100
AcDbVertex
100
AcDb3dPolylineVertex
 10
859.2550000000001
 20
-354.731
 30
0.0
 70
    32
  0
VERTEX
  5
381
330
36B
100
AcDbEntity
  8
図枠
100
AcDbVertex
100
AcDb3dPolylineVertex
 10
859.27
 20
-354.735
 30
0.0
 70
    32
  0
VERTEX
  5
382
330
36B
100
AcDbEntity
  8
図枠
100
AcDbVertex
100
AcDb3dPolylineVertex
 10
859.284
 20
-354.738
 30
0.0
 70
    32
  0
VERTEX
  5
383
330
36B
100
AcDbEntity
  8
図枠
100
AcDbVertex
100
AcDb3dPolylineVertex
 10
859.298
 20
-354.742
 30
0.0
 70
    32
  0
VERTEX
  5
384
330
36B
100
AcDbEntity
  8
図枠
100
AcDbVertex
100
AcDb3dPolylineVertex
 10
859.312
 20
-354.745
 30
0.0
 70
    32
  0
VERTEX
  5
385
330
36B
100
AcDbEntity
  8
図枠
100
AcDbVertex
100
AcDb3dPolylineVertex
 10
859.327
 20
-354.749
 30
0.0
 70
    32
  0
VERTEX
  5
386
330
36B
100
AcDbEntity
  8
図枠
100
AcDbVertex
100
AcDb3dPolylineVertex
 10
859.341
 20
-354.752
 30
0.0
 70
    32
  0
VERTEX
  5
387
330
36B
100
AcDbEntity
  8
図枠
100
AcDbVertex
100
AcDb3dPolylineVertex
 10
859.355
 20
-354.756
 30
0.0
 70
    32
  0
VERTEX
  5
388
330
36B
100
AcDbEntity
  8
図枠
100
AcDbVertex
100
AcDb3dPolylineVertex
 10
859.37
 20
-354.759
 30
0.0
 70
    32
  0
VERTEX
  5
389
330
36B
100
AcDbEntity
  8
図枠
100
AcDbVertex
100
AcDb3dPolylineVertex
 10
859.3839999999998
 20
-354.7619999999999
 30
0.0
 70
    32
  0
VERTEX
  5
38A
330
36B
100
AcDbEntity
  8
図枠
100
AcDbVertex
100
AcDb3dPolylineVertex
 10
859.398
 20
-354.766
 30
0.0
 70
    32
  0
VERTEX
  5
38B
330
36B
100
AcDbEntity
  8
図枠
100
AcDbVertex
100
AcDb3dPolylineVertex
 10
859.4129999999999
 20
-354.769
 30
0.0
 70
    32
  0
VERTEX
  5
38C
330
36B
100
AcDbEntity
  8
図枠
100
AcDbVertex
100
AcDb3dPolylineVertex
 10
859.4269999999999
 20
-354.772
 30
0.0
 70
    32
  0
VERTEX
  5
38D
330
36B
100
AcDbEntity
  8
図枠
100
AcDbVertex
100
AcDb3dPolylineVertex
 10
859.4409999999999
 20
-354.776
 30
0.0
 70
    32
  0
VERTEX
  5
38E
330
36B
100
AcDbEntity
  8
図枠
100
AcDbVertex
100
AcDb3dPolylineVertex
 10
859.4559999999999
 20
-354.779
 30
0.0
 70
    32
  0
VERTEX
  5
38F
330
36B
100
AcDbEntity
  8
図枠
100
AcDbVertex
100
AcDb3dPolylineVertex
 10
859.4700000000001
 20
-354.782
 30
0.0
 70
    32
  0
VERTEX
  5
390
330
36B
100
AcDbEntity
  8
図枠
100
AcDbVertex
100
AcDb3dPolylineVertex
 10
859.485
 20
-354.786
 30
0.0
 70
    32
  0
VERTEX
  5
391
330
36B
100
AcDbEntity
  8
図枠
100
AcDbVertex
100
AcDb3dPolylineVertex
 10
859.4989999999999
 20
-354.789
 30
0.0
 70
    32
  0
VERTEX
  5
392
330
36B
100
AcDbEntity
  8
図枠
100
AcDbVertex
100
AcDb3dPolylineVertex
 10
859.5139999999998
 20
-354.792
 30
0.0
 70
    32
  0
VERTEX
  5
393
330
36B
100
AcDbEntity
  8
図枠
100
AcDbVertex
100
AcDb3dPolylineVertex
 10
859.528
 20
-354.795
 30
0.0
 70
    32
  0
VERTEX
  5
394
330
36B
100
AcDbEntity
  8
図枠
100
AcDbVertex
100
AcDb3dPolylineVertex
 10
859.5419999999998
 20
-354.799
 30
0.0
 70
    32
  0
VERTEX
  5
395
330
36B
100
AcDbEntity
  8
図枠
100
AcDbVertex
100
AcDb3dPolylineVertex
 10
859.557
 20
-354.802
 30
0.0
 70
    32
  0
VERTEX
  5
396
330
36B
100
AcDbEntity
  8
図枠
100
AcDbVertex
100
AcDb3dPolylineVertex
 10
859.571
 20
-354.805
 30
0.0
 70
    32
  0
VERTEX
  5
397
330
36B
100
AcDbEntity
  8
図枠
100
AcDbVertex
100
AcDb3dPolylineVertex
 10
859.586
 20
-354.8080000000001
 30
0.0
 70
    32
  0
VERTEX
  5
398
330
36B
100
AcDbEntity
  8
図枠
100
AcDbVertex
100
AcDb3dPolylineVertex
 10
859.6
 20
-354.811
 30
0.0
 70
    32
  0
VERTEX
  5
399
330
36B
100
AcDbEntity
  8
図枠
100
AcDbVertex
100
AcDb3dPolylineVertex
 10
859.6149999999999
 20
-354.814
 30
0.0
 70
    32
  0
VERTEX
  5
39A
330
36B
100
AcDbEntity
  8
図枠
100
AcDbVertex
100
AcDb3dPolylineVertex
 10
859.6289999999999
 20
-354.8169999999999
 30
0.0
 70
    32
  0
VERTEX
  5
39B
330
36B
100
AcDbEntity
  8
図枠
100
AcDbVertex
100
AcDb3dPolylineVertex
 10
859.6439999999999
 20
-354.821
 30
0.0
 70
    32
  0
VERTEX
  5
39C
330
36B
100
AcDbEntity
  8
図枠
100
AcDbVertex
100
AcDb3dPolylineVertex
 10
859.6580000000001
 20
-354.824
 30
0.0
 70
    32
  0
VERTEX
  5
39D
330
36B
100
AcDbEntity
  8
図枠
100
AcDbVertex
100
AcDb3dPolylineVertex
 10
859.673
 20
-354.827
 30
0.0
 70
    32
  0
VERTEX
  5
39E
330
36B
100
AcDbEntity
  8
図枠
100
AcDbVertex
100
AcDb3dPolylineVertex
 10
859.688
 20
-354.83
 30
0.0
 70
    32
  0
VERTEX
  5
39F
330
36B
100
AcDbEntity
  8
図枠
100
AcDbVertex
100
AcDb3dPolylineVertex
 10
859.702
 20
-354.833
 30
0.0
 70
    32
  0
VERTEX
  5
3A0
330
36B
100
AcDbEntity
  8
図枠
100
AcDbVertex
100
AcDb3dPolylineVertex
 10
859.717
 20
-354.836
 30
0.0
 70
    32
  0
VERTEX
  5
3A1
330
36B
100
AcDbEntity
  8
図枠
100
AcDbVertex
100
AcDb3dPolylineVertex
 10
859.7310000000002
 20
-354.839
 30
0.0
 70
    32
  0
VERTEX
  5
3A2
330
36B
100
AcDbEntity
  8
図枠
100
AcDbVertex
100
AcDb3dPolylineVertex
 10
859.7460000000001
 20
-354.842
 30
0.0
 70
    32
  0
VERTEX
  5
3A3
330
36B
100
AcDbEntity
  8
図枠
100
AcDbVertex
100
AcDb3dPolylineVertex
 10
859.7599999999999
 20
-354.845
 30
0.0
 70
    32
  0
VERTEX
  5
3A4
330
36B
100
AcDbEntity
  8
図枠
100
AcDbVertex
100
AcDb3dPolylineVertex
 10
859.7749999999999
 20
-354.848
 30
0.0
 70
    32
  0
VERTEX
  5
3A5
330
36B
100
AcDbEntity
  8
図枠
100
AcDbVertex
100
AcDb3dPolylineVertex
 10
859.7899999999999
 20
-354.851
 30
0.0
 70
    32
  0
VERTEX
  5
3A6
330
36B
100
AcDbEntity
  8
図枠
100
AcDbVertex
100
AcDb3dPolylineVertex
 10
859.8039999999999
 20
-354.854
 30
0.0
 70
    32
  0
VERTEX
  5
3A7
330
36B
100
AcDbEntity
  8
図枠
100
AcDbVertex
100
AcDb3dPolylineVertex
 10
859.819
 20
-354.857
 30
0.0
 70
    32
  0
VERTEX
  5
3A8
330
36B
100
AcDbEntity
  8
図枠
100
AcDbVertex
100
AcDb3dPolylineVertex
 10
859.834
 20
-354.86
 30
0.0
 70
    32
  0
VERTEX
  5
3A9
330
36B
100
AcDbEntity
  8
図枠
100
AcDbVertex
100
AcDb3dPolylineVertex
 10
859.848
 20
-354.8630000000001
 30
0.0
 70
    32
  0
VERTEX
  5
3AA
330
36B
100
AcDbEntity
  8
図枠
100
AcDbVertex
100
AcDb3dPolylineVertex
 10
859.8629999999999
 20
-354.865
 30
0.0
 70
    32
  0
VERTEX
  5
3AB
330
36B
100
AcDbEntity
  8
図枠
100
AcDbVertex
100
AcDb3dPolylineVertex
 10
859.877
 20
-354.868
 30
0.0
 70
    32
  0
VERTEX
  5
3AC
330
36B
100
AcDbEntity
  8
図枠
100
AcDbVertex
100
AcDb3dPolylineVertex
 10
859.8919999999999
 20
-354.871
 30
0.0
 70
    32
  0
VERTEX
  5
3AD
330
36B
100
AcDbEntity
  8
図枠
100
AcDbVertex
100
AcDb3dPolylineVertex
 10
859.9069999999999
 20
-354.874
 30
0.0
 70
    32
  0
VERTEX
  5
3AE
330
36B
100
AcDbEntity
  8
図枠
100
AcDbVertex
100
AcDb3dPolylineVertex
 10
859.9210000000001
 20
-354.877
 30
0.0
 70
    32
  0
VERTEX
  5
3AF
330
36B
100
AcDbEntity
  8
図枠
100
AcDbVertex
100
AcDb3dPolylineVertex
 10
859.936
 20
-354.88
 30
0.0
 70
    32
  0
VERTEX
  5
3B0
330
36B
100
AcDbEntity
  8
図枠
100
AcDbVertex
100
AcDb3dPolylineVertex
 10
859.951
 20
-354.8830000000001
 30
0.0
 70
    32
  0
VERTEX
  5
3B1
330
36B
100
AcDbEntity
  8
図枠
100
AcDbVertex
100
AcDb3dPolylineVertex
 10
859.966
 20
-354.885
 30
0.0
 70
    32
  0
VERTEX
  5
3B2
330
36B
100
AcDbEntity
  8
図枠
100
AcDbVertex
100
AcDb3dPolylineVertex
 10
859.98
 20
-354.888
 30
0.0
 70
    32
  0
VERTEX
  5
3B3
330
36B
100
AcDbEntity
  8
図枠
100
AcDbVertex
100
AcDb3dPolylineVertex
 10
859.9949999999999
 20
-354.891
 30
0.0
 70
    32
  0
VERTEX
  5
3B4
330
36B
100
AcDbEntity
  8
図枠
100
AcDbVertex
100
AcDb3dPolylineVertex
 10
860.0099999999999
 20
-354.894
 30
0.0
 70
    32
  0
VERTEX
  5
3B5
330
36B
100
AcDbEntity
  8
図枠
100
AcDbVertex
100
AcDb3dPolylineVertex
 10
860.0239999999999
 20
-354.897
 30
0.0
 70
    32
  0
VERTEX
  5
3B6
330
36B
100
AcDbEntity
  8
図枠
100
AcDbVertex
100
AcDb3dPolylineVertex
 10
860.039
 20
-354.899
 30
0.0
 70
    32
  0
VERTEX
  5
3B7
330
36B
100
AcDbEntity
  8
図枠
100
AcDbVertex
100
AcDb3dPolylineVertex
 10
860.054
 20
-354.902
 30
0.0
 70
    32
  0
VERTEX
  5
3B8
330
36B
100
AcDbEntity
  8
図枠
100
AcDbVertex
100
AcDb3dPolylineVertex
 10
860.069
 20
-354.905
 30
0.0
 70
    32
  0
VERTEX
  5
3B9
330
36B
100
AcDbEntity
  8
図枠
100
AcDbVertex
100
AcDb3dPolylineVertex
 10
860.083
 20
-354.908
 30
0.0
 70
    32
  0
VERTEX
  5
3BA
330
36B
100
AcDbEntity
  8
図枠
100
AcDbVertex
100
AcDb3dPolylineVertex
 10
860.0980000000001
 20
-354.91
 30
0.0
 70
    32
  0
VERTEX
  5
3BB
330
36B
100
AcDbEntity
  8
図枠
100
AcDbVertex
100
AcDb3dPolylineVertex
 10
860.1130000000001
 20
-354.913
 30
0.0
 70
    32
  0
VERTEX
  5
3BC
330
36B
100
AcDbEntity
  8
図枠
100
AcDbVertex
100
AcDb3dPolylineVertex
 10
860.128
 20
-354.916
 30
0.0
 70
    32
  0
VERTEX
  5
3BD
330
36B
100
AcDbEntity
  8
図枠
100
AcDbVertex
100
AcDb3dPolylineVertex
 10
860.1419999999999
 20
-354.919
 30
0.0
 70
    32
  0
VERTEX
  5
3BE
330
36B
100
AcDbEntity
  8
図枠
100
AcDbVertex
100
AcDb3dPolylineVertex
 10
860.1569999999998
 20
-354.921
 30
0.0
 70
    32
  0
VERTEX
  5
3BF
330
36B
100
AcDbEntity
  8
図枠
100
AcDbVertex
100
AcDb3dPolylineVertex
 10
860.172
 20
-354.9240000000001
 30
0.0
 70
    32
  0
VERTEX
  5
3C0
330
36B
100
AcDbEntity
  8
図枠
100
AcDbVertex
100
AcDb3dPolylineVertex
 10
860.1869999999999
 20
-354.927
 30
0.0
 70
    32
  0
VERTEX
  5
3C1
330
36B
100
AcDbEntity
  8
図枠
100
AcDbVertex
100
AcDb3dPolylineVertex
 10
860.2009999999999
 20
-354.929
 30
0.0
 70
    32
  0
VERTEX
  5
3C2
330
36B
100
AcDbEntity
  8
図枠
100
AcDbVertex
100
AcDb3dPolylineVertex
 10
860.2159999999999
 20
-354.932
 30
0.0
 70
    32
  0
VERTEX
  5
3C3
330
36B
100
AcDbEntity
  8
図枠
100
AcDbVertex
100
AcDb3dPolylineVertex
 10
860.2310000000001
 20
-354.935
 30
0.0
 70
    32
  0
VERTEX
  5
3C4
330
36B
100
AcDbEntity
  8
図枠
100
AcDbVertex
100
AcDb3dPolylineVertex
 10
860.246
 20
-354.937
 30
0.0
 70
    32
  0
VERTEX
  5
3C5
330
36B
100
AcDbEntity
  8
図枠
100
AcDbVertex
100
AcDb3dPolylineVertex
 10
860.261
 20
-354.94
 30
0.0
 70
    32
  0
VERTEX
  5
3C6
330
36B
100
AcDbEntity
  8
図枠
100
AcDbVertex
100
AcDb3dPolylineVertex
 10
860.275
 20
-354.943
 30
0.0
 70
    32
  0
VERTEX
  5
3C7
330
36B
100
AcDbEntity
  8
図枠
100
AcDbVertex
100
AcDb3dPolylineVertex
 10
860.2899999999999
 20
-354.945
 30
0.0
 70
    32
  0
VERTEX
  5
3C8
330
36B
100
AcDbEntity
  8
図枠
100
AcDbVertex
100
AcDb3dPolylineVertex
 10
860.3049999999999
 20
-354.948
 30
0.0
 70
    32
  0
VERTEX
  5
3C9
330
36B
100
AcDbEntity
  8
図枠
100
AcDbVertex
100
AcDb3dPolylineVertex
 10
860.3200000000001
 20
-354.951
 30
0.0
 70
    32
  0
VERTEX
  5
3CA
330
36B
100
AcDbEntity
  8
図枠
100
AcDbVertex
100
AcDb3dPolylineVertex
 10
860.335
 20
-354.953
 30
0.0
 70
    32
  0
VERTEX
  5
3CB
330
36B
100
AcDbEntity
  8
図枠
100
AcDbVertex
100
AcDb3dPolylineVertex
 10
860.35
 20
-354.956
 30
0.0
 70
    32
  0
VERTEX
  5
3CC
330
36B
100
AcDbEntity
  8
図枠
100
AcDbVertex
100
AcDb3dPolylineVertex
 10
860.3639999999998
 20
-354.958
 30
0.0
 70
    32
  0
VERTEX
  5
3CD
330
36B
100
AcDbEntity
  8
図枠
100
AcDbVertex
100
AcDb3dPolylineVertex
 10
860.379
 20
-354.961
 30
0.0
 70
    32
  0
VERTEX
  5
3CE
330
36B
100
AcDbEntity
  8
図枠
100
AcDbVertex
100
AcDb3dPolylineVertex
 10
860.3939999999999
 20
-354.964
 30
0.0
 70
    32
  0
VERTEX
  5
3CF
330
36B
100
AcDbEntity
  8
図枠
100
AcDbVertex
100
AcDb3dPolylineVertex
 10
860.4089999999999
 20
-354.966
 30
0.0
 70
    32
  0
VERTEX
  5
3D0
330
36B
100
AcDbEntity
  8
図枠
100
AcDbVertex
100
AcDb3dPolylineVertex
 10
860.424
 20
-354.969
 30
0.0
 70
    32
  0
VERTEX
  5
3D1
330
36B
100
AcDbEntity
  8
図枠
100
AcDbVertex
100
AcDb3dPolylineVertex
 10
860.439
 20
-354.971
 30
0.0
 70
    32
  0
VERTEX
  5
3D2
330
36B
100
AcDbEntity
  8
図枠
100
AcDbVertex
100
AcDb3dPolylineVertex
 10
860.453
 20
-354.974
 30
0.0
 70
    32
  0
VERTEX
  5
3D3
330
36B
100
AcDbEntity
  8
図枠
100
AcDbVertex
100
AcDb3dPolylineVertex
 10
860.468
 20
-354.976
 30
0.0
 70
    32
  0
VERTEX
  5
3D4
330
36B
100
AcDbEntity
  8
図枠
100
AcDbVertex
100
AcDb3dPolylineVertex
 10
860.4830000000001
 20
-354.9790000000001
 30
0.0
 70
    32
  0
VERTEX
  5
3D5
330
36B
100
AcDbEntity
  8
図枠
100
AcDbVertex
100
AcDb3dPolylineVertex
 10
860.4980000000001
 20
-354.982
 30
0.0
 70
    32
  0
VERTEX
  5
3D6
330
36B
100
AcDbEntity
  8
図枠
100
AcDbVertex
100
AcDb3dPolylineVertex
 10
860.513
 20
-354.984
 30
0.0
 70
    32
  0
VERTEX
  5
3D7
330
36B
100
AcDbEntity
  8
図枠
100
AcDbVertex
100
AcDb3dPolylineVertex
 10
860.528
 20
-354.987
 30
0.0
 70
    32
  0
VERTEX
  5
3D8
330
36B
100
AcDbEntity
  8
図枠
100
AcDbVertex
100
AcDb3dPolylineVertex
 10
860.543
 20
-354.989
 30
0.0
 70
    32
  0
VERTEX
  5
3D9
330
36B
100
AcDbEntity
  8
図枠
100
AcDbVertex
100
AcDb3dPolylineVertex
 10
860.557
 20
-354.992
 30
0.0
 70
    32
  0
VERTEX
  5
3DA
330
36B
100
AcDbEntity
  8
図枠
100
AcDbVertex
100
AcDb3dPolylineVertex
 10
860.5719999999999
 20
-354.994
 30
0.0
 70
    32
  0
VERTEX
  5
3DB
330
36B
100
AcDbEntity
  8
図枠
100
AcDbVertex
100
AcDb3dPolylineVertex
 10
860.5869999999999
 20
-354.997
 30
0.0
 70
    32
  0
VERTEX
  5
3DC
330
36B
100
AcDbEntity
  8
図枠
100
AcDbVertex
100
AcDb3dPolylineVertex
 10
860.6019999999999
 20
-354.999
 30
0.0
 70
    32
  0
VERTEX
  5
3DD
330
36B
100
AcDbEntity
  8
図枠
100
AcDbVertex
100
AcDb3dPolylineVertex
 10
860.617
 20
-355.0019999999999
 30
0.0
 70
    32
  0
VERTEX
  5
3DE
330
36B
100
AcDbEntity
  8
図枠
100
AcDbVertex
100
AcDb3dPolylineVertex
 10
860.632
 20
-355.004
 30
0.0
 70
    32
  0
VERTEX
  5
3DF
330
36B
100
AcDbEntity
  8
図枠
100
AcDbVertex
100
AcDb3dPolylineVertex
 10
860.6469999999999
 20
-355.0069999999999
 30
0.0
 70
    32
  0
VERTEX
  5
3E0
330
36B
100
AcDbEntity
  8
図枠
100
AcDbVertex
100
AcDb3dPolylineVertex
 10
860.6619999999999
 20
-355.009
 30
0.0
 70
    32
  0
VERTEX
  5
3E1
330
36B
100
AcDbEntity
  8
図枠
100
AcDbVertex
100
AcDb3dPolylineVertex
 10
860.6760000000001
 20
-355.012
 30
0.0
 70
    32
  0
VERTEX
  5
3E2
330
36B
100
AcDbEntity
  8
図枠
100
AcDbVertex
100
AcDb3dPolylineVertex
 10
860.691
 20
-355.015
 30
0.0
 70
    32
  0
VERTEX
  5
3E3
330
36B
100
AcDbEntity
  8
図枠
100
AcDbVertex
100
AcDb3dPolylineVertex
 10
860.706
 20
-355.017
 30
0.0
 70
    32
  0
VERTEX
  5
3E4
330
36B
100
AcDbEntity
  8
図枠
100
AcDbVertex
100
AcDb3dPolylineVertex
 10
860.721
 20
-355.02
 30
0.0
 70
    32
  0
VERTEX
  5
3E5
330
36B
100
AcDbEntity
  8
図枠
100
AcDbVertex
100
AcDb3dPolylineVertex
 10
860.7360000000001
 20
-355.022
 30
0.0
 70
    32
  0
VERTEX
  5
3E6
330
36B
100
AcDbEntity
  8
図枠
100
AcDbVertex
100
AcDb3dPolylineVertex
 10
860.7510000000001
 20
-355.025
 30
0.0
 70
    32
  0
VERTEX
  5
3E7
330
36B
100
AcDbEntity
  8
図枠
100
AcDbVertex
100
AcDb3dPolylineVertex
 10
860.766
 20
-355.027
 30
0.0
 70
    32
  0
VERTEX
  5
3E8
330
36B
100
AcDbEntity
  8
図枠
100
AcDbVertex
100
AcDb3dPolylineVertex
 10
860.781
 20
-355.03
 30
0.0
 70
    32
  0
VERTEX
  5
3E9
330
36B
100
AcDbEntity
  8
図枠
100
AcDbVertex
100
AcDb3dPolylineVertex
 10
860.796
 20
-355.032
 30
0.0
 70
    32
  0
VERTEX
  5
3EA
330
36B
100
AcDbEntity
  8
図枠
100
AcDbVertex
100
AcDb3dPolylineVertex
 10
860.81
 20
-355.035
 30
0.0
 70
    32
  0
VERTEX
  5
3EB
330
36B
100
AcDbEntity
  8
図枠
100
AcDbVertex
100
AcDb3dPolylineVertex
 10
860.8249999999999
 20
-355.037
 30
0.0
 70
    32
  0
SEQEND
  5
3EC
330
36B
100
AcDbEntity
  8
図枠
  0
POLYLINE
  5
3ED
330
5AC
100
AcDbEntity
  8
図枠
100
AcDb3dPolyline
 66
     1
 10
0.0
 20
0.0
 30
0.0
 70
     8
  0
VERTEX
  5
3EE
330
3ED
100
AcDbEntity
  8
図枠
100
AcDbVertex
100
AcDb3dPolylineVertex
 10
853.625
 20
-352.753
 30
0.0
 70
    32
  0
VERTEX
  5
3EF
330
3ED
100
AcDbEntity
  8
図枠
100
AcDbVertex
100
AcDb3dPolylineVertex
 10
853.64
 20
-352.766
 30
0.0
 70
    32
  0
VERTEX
  5
3F0
330
3ED
100
AcDbEntity
  8
図枠
100
AcDbVertex
100
AcDb3dPolylineVertex
 10
853.654
 20
-352.779
 30
0.0
 70
    32
  0
VERTEX
  5
3F1
330
3ED
100
AcDbEntity
  8
図枠
100
AcDbVertex
100
AcDb3dPolylineVertex
 10
853.669
 20
-352.792
 30
0.0
 70
    32
  0
VERTEX
  5
3F2
330
3ED
100
AcDbEntity
  8
図枠
100
AcDbVertex
100
AcDb3dPolylineVertex
 10
853.683
 20
-352.806
 30
0.0
 70
    32
  0
VERTEX
  5
3F3
330
3ED
100
AcDbEntity
  8
図枠
100
AcDbVertex
100
AcDb3dPolylineVertex
 10
853.697
 20
-352.819
 30
0.0
 70
    32
  0
VERTEX
  5
3F4
330
3ED
100
AcDbEntity
  8
図枠
100
AcDbVertex
100
AcDb3dPolylineVertex
 10
853.7119999999999
 20
-352.832
 30
0.0
 70
    32
  0
VERTEX
  5
3F5
330
3ED
100
AcDbEntity
  8
図枠
100
AcDbVertex
100
AcDb3dPolylineVertex
 10
853.7260000000001
 20
-352.846
 30
0.0
 70
    32
  0
VERTEX
  5
3F6
330
3ED
100
AcDbEntity
  8
図枠
100
AcDbVertex
100
AcDb3dPolylineVertex
 10
853.7410000000001
 20
-352.859
 30
0.0
 70
    32
  0
VERTEX
  5
3F7
330
3ED
100
AcDbEntity
  8
図枠
100
AcDbVertex
100
AcDb3dPolylineVertex
 10
853.7549999999999
 20
-352.872
 30
0.0
 70
    32
  0
VERTEX
  5
3F8
330
3ED
100
AcDbEntity
  8
図枠
100
AcDbVertex
100
AcDb3dPolylineVertex
 10
853.7689999999999
 20
-352.885
 30
0.0
 70
    32
  0
VERTEX
  5
3F9
330
3ED
100
AcDbEntity
  8
図枠
100
AcDbVertex
100
AcDb3dPolylineVertex
 10
853.784
 20
-352.899
 30
0.0
 70
    32
  0
VERTEX
  5
3FA
330
3ED
100
AcDbEntity
  8
図枠
100
AcDbVertex
100
AcDb3dPolylineVertex
 10
853.7980000000001
 20
-352.912
 30
0.0
 70
    32
  0
VERTEX
  5
3FB
330
3ED
100
AcDbEntity
  8
図枠
100
AcDbVertex
100
AcDb3dPolylineVertex
 10
853.813
 20
-352.925
 30
0.0
 70
    32
  0
VERTEX
  5
3FC
330
3ED
100
AcDbEntity
  8
図枠
100
AcDbVertex
100
AcDb3dPolylineVertex
 10
853.827
 20
-352.9380000000001
 30
0.0
 70
    32
  0
VERTEX
  5
3FD
330
3ED
100
AcDbEntity
  8
図枠
100
AcDbVertex
100
AcDb3dPolylineVertex
 10
853.842
 20
-352.952
 30
0.0
 70
    32
  0
VERTEX
  5
3FE
330
3ED
100
AcDbEntity
  8
図枠
100
AcDbVertex
100
AcDb3dPolylineVertex
 10
853.8560000000002
 20
-352.965
 30
0.0
 70
    32
  0
VERTEX
  5
3FF
330
3ED
100
AcDbEntity
  8
図枠
100
AcDbVertex
100
AcDb3dPolylineVertex
 10
853.87
 20
-352.978
 30
0.0
 70
    32
  0
VERTEX
  5
400
330
3ED
100
AcDbEntity
  8
図枠
100
AcDbVertex
100
AcDb3dPolylineVertex
 10
853.885
 20
-352.991
 30
0.0
 70
    32
  0
VERTEX
  5
401
330
3ED
100
AcDbEntity
  8
図枠
100
AcDbVertex
100
AcDb3dPolylineVertex
 10
853.8989999999998
 20
-353.005
 30
0.0
 70
    32
  0
VERTEX
  5
402
330
3ED
100
AcDbEntity
  8
図枠
100
AcDbVertex
100
AcDb3dPolylineVertex
 10
853.9139999999999
 20
-353.018
 30
0.0
 70
    32
  0
VERTEX
  5
403
330
3ED
100
AcDbEntity
  8
図枠
100
AcDbVertex
100
AcDb3dPolylineVertex
 10
853.9279999999999
 20
-353.031
 30
0.0
 70
    32
  0
VERTEX
  5
404
330
3ED
100
AcDbEntity
  8
図枠
100
AcDbVertex
100
AcDb3dPolylineVertex
 10
853.9429999999999
 20
-353.044
 30
0.0
 70
    32
  0
VERTEX
  5
405
330
3ED
100
AcDbEntity
  8
図枠
100
AcDbVertex
100
AcDb3dPolylineVertex
 10
853.9569999999999
 20
-353.0569999999999
 30
0.0
 70
    32
  0
VERTEX
  5
406
330
3ED
100
AcDbEntity
  8
図枠
100
AcDbVertex
100
AcDb3dPolylineVertex
 10
853.972
 20
-353.071
 30
0.0
 70
    32
  0
VERTEX
  5
407
330
3ED
100
AcDbEntity
  8
図枠
100
AcDbVertex
100
AcDb3dPolylineVertex
 10
853.986
 20
-353.084
 30
0.0
 70
    32
  0
VERTEX
  5
408
330
3ED
100
AcDbEntity
  8
図枠
100
AcDbVertex
100
AcDb3dPolylineVertex
 10
854.0
 20
-353.097
 30
0.0
 70
    32
  0
VERTEX
  5
409
330
3ED
100
AcDbEntity
  8
図枠
100
AcDbVertex
100
AcDb3dPolylineVertex
 10
854.015
 20
-353.11
 30
0.0
 70
    32
  0
VERTEX
  5
40A
330
3ED
100
AcDbEntity
  8
図枠
100
AcDbVertex
100
AcDb3dPolylineVertex
 10
854.029
 20
-353.1230000000001
 30
0.0
 70
    32
  0
VERTEX
  5
40B
330
3ED
100
AcDbEntity
  8
図枠
100
AcDbVertex
100
AcDb3dPolylineVertex
 10
854.044
 20
-353.1369999999999
 30
0.0
 70
    32
  0
VERTEX
  5
40C
330
3ED
100
AcDbEntity
  8
図枠
100
AcDbVertex
100
AcDb3dPolylineVertex
 10
854.058
 20
-353.15
 30
0.0
 70
    32
  0
VERTEX
  5
40D
330
3ED
100
AcDbEntity
  8
図枠
100
AcDbVertex
100
AcDb3dPolylineVertex
 10
854.0729999999999
 20
-353.163
 30
0.0
 70
    32
  0
VERTEX
  5
40E
330
3ED
100
AcDbEntity
  8
図枠
100
AcDbVertex
100
AcDb3dPolylineVertex
 10
854.0869999999999
 20
-353.176
 30
0.0
 70
    32
  0
VERTEX
  5
40F
330
3ED
100
AcDbEntity
  8
図枠
100
AcDbVertex
100
AcDb3dPolylineVertex
 10
854.1019999999999
 20
-353.189
 30
0.0
 70
    32
  0
VERTEX
  5
410
330
3ED
100
AcDbEntity
  8
図枠
100
AcDbVertex
100
AcDb3dPolylineVertex
 10
854.1160000000001
 20
-353.202
 30
0.0
 70
    32
  0
VERTEX
  5
411
330
3ED
100
AcDbEntity
  8
図枠
100
AcDbVertex
100
AcDb3dPolylineVertex
 10
854.1310000000001
 20
-353.215
 30
0.0
 70
    32
  0
VERTEX
  5
412
330
3ED
100
AcDbEntity
  8
図枠
100
AcDbVertex
100
AcDb3dPolylineVertex
 10
854.1449999999999
 20
-353.2290000000001
 30
0.0
 70
    32
  0
VERTEX
  5
413
330
3ED
100
AcDbEntity
  8
図枠
100
AcDbVertex
100
AcDb3dPolylineVertex
 10
854.16
 20
-353.242
 30
0.0
 70
    32
  0
VERTEX
  5
414
330
3ED
100
AcDbEntity
  8
図枠
100
AcDbVertex
100
AcDb3dPolylineVertex
 10
854.174
 20
-353.255
 30
0.0
 70
    32
  0
VERTEX
  5
415
330
3ED
100
AcDbEntity
  8
図枠
100
AcDbVertex
100
AcDb3dPolylineVertex
 10
854.189
 20
-353.268
 30
0.0
 70
    32
  0
VERTEX
  5
416
330
3ED
100
AcDbEntity
  8
図枠
100
AcDbVertex
100
AcDb3dPolylineVertex
 10
854.203
 20
-353.281
 30
0.0
 70
    32
  0
VERTEX
  5
417
330
3ED
100
AcDbEntity
  8
図枠
100
AcDbVertex
100
AcDb3dPolylineVertex
 10
854.218
 20
-353.294
 30
0.0
 70
    32
  0
VERTEX
  5
418
330
3ED
100
AcDbEntity
  8
図枠
100
AcDbVertex
100
AcDb3dPolylineVertex
 10
854.232
 20
-353.3069999999999
 30
0.0
 70
    32
  0
VERTEX
  5
419
330
3ED
100
AcDbEntity
  8
図枠
100
AcDbVertex
100
AcDb3dPolylineVertex
 10
854.2469999999999
 20
-353.32
 30
0.0
 70
    32
  0
VERTEX
  5
41A
330
3ED
100
AcDbEntity
  8
図枠
100
AcDbVertex
100
AcDb3dPolylineVertex
 10
854.2610000000001
 20
-353.333
 30
0.0
 70
    32
  0
VERTEX
  5
41B
330
3ED
100
AcDbEntity
  8
図枠
100
AcDbVertex
100
AcDb3dPolylineVertex
 10
854.2760000000001
 20
-353.346
 30
0.0
 70
    32
  0
VERTEX
  5
41C
330
3ED
100
AcDbEntity
  8
図枠
100
AcDbVertex
100
AcDb3dPolylineVertex
 10
854.291
 20
-353.359
 30
0.0
 70
    32
  0
VERTEX
  5
41D
330
3ED
100
AcDbEntity
  8
図枠
100
AcDbVertex
100
AcDb3dPolylineVertex
 10
854.3049999999999
 20
-353.372
 30
0.0
 70
    32
  0
VERTEX
  5
41E
330
3ED
100
AcDbEntity
  8
図枠
100
AcDbVertex
100
AcDb3dPolylineVertex
 10
854.32
 20
-353.385
 30
0.0
 70
    32
  0
VERTEX
  5
41F
330
3ED
100
AcDbEntity
  8
図枠
100
AcDbVertex
100
AcDb3dPolylineVertex
 10
854.3339999999998
 20
-353.398
 30
0.0
 70
    32
  0
VERTEX
  5
420
330
3ED
100
AcDbEntity
  8
図枠
100
AcDbVertex
100
AcDb3dPolylineVertex
 10
854.349
 20
-353.411
 30
0.0
 70
    32
  0
VERTEX
  5
421
330
3ED
100
AcDbEntity
  8
図枠
100
AcDbVertex
100
AcDb3dPolylineVertex
 10
854.3639999999999
 20
-353.424
 30
0.0
 70
    32
  0
VERTEX
  5
422
330
3ED
100
AcDbEntity
  8
図枠
100
AcDbVertex
100
AcDb3dPolylineVertex
 10
854.3779999999999
 20
-353.437
 30
0.0
 70
    32
  0
VERTEX
  5
423
330
3ED
100
AcDbEntity
  8
図枠
100
AcDbVertex
100
AcDb3dPolylineVertex
 10
854.3930000000001
 20
-353.45
 30
0.0
 70
    32
  0
VERTEX
  5
424
330
3ED
100
AcDbEntity
  8
図枠
100
AcDbVertex
100
AcDb3dPolylineVertex
 10
854.4069999999999
 20
-353.463
 30
0.0
 70
    32
  0
VERTEX
  5
425
330
3ED
100
AcDbEntity
  8
図枠
100
AcDbVertex
100
AcDb3dPolylineVertex
 10
854.4220000000001
 20
-353.475
 30
0.0
 70
    32
  0
VERTEX
  5
426
330
3ED
100
AcDbEntity
  8
図枠
100
AcDbVertex
100
AcDb3dPolylineVertex
 10
854.437
 20
-353.4880000000001
 30
0.0
 70
    32
  0
VERTEX
  5
427
330
3ED
100
AcDbEntity
  8
図枠
100
AcDbVertex
100
AcDb3dPolylineVertex
 10
854.451
 20
-353.501
 30
0.0
 70
    32
  0
VERTEX
  5
428
330
3ED
100
AcDbEntity
  8
図枠
100
AcDbVertex
100
AcDb3dPolylineVertex
 10
854.466
 20
-353.514
 30
0.0
 70
    32
  0
VERTEX
  5
429
330
3ED
100
AcDbEntity
  8
図枠
100
AcDbVertex
100
AcDb3dPolylineVertex
 10
854.4810000000001
 20
-353.527
 30
0.0
 70
    32
  0
VERTEX
  5
42A
330
3ED
100
AcDbEntity
  8
図枠
100
AcDbVertex
100
AcDb3dPolylineVertex
 10
854.495
 20
-353.54
 30
0.0
 70
    32
  0
VERTEX
  5
42B
330
3ED
100
AcDbEntity
  8
図枠
100
AcDbVertex
100
AcDb3dPolylineVertex
 10
854.5099999999999
 20
-353.5519999999999
 30
0.0
 70
    32
  0
VERTEX
  5
42C
330
3ED
100
AcDbEntity
  8
図枠
100
AcDbVertex
100
AcDb3dPolylineVertex
 10
854.5249999999999
 20
-353.565
 30
0.0
 70
    32
  0
VERTEX
  5
42D
330
3ED
100
AcDbEntity
  8
図枠
100
AcDbVertex
100
AcDb3dPolylineVertex
 10
854.5389999999999
 20
-353.578
 30
0.0
 70
    32
  0
VERTEX
  5
42E
330
3ED
100
AcDbEntity
  8
図枠
100
AcDbVertex
100
AcDb3dPolylineVertex
 10
854.554
 20
-353.591
 30
0.0
 70
    32
  0
VERTEX
  5
42F
330
3ED
100
AcDbEntity
  8
図枠
100
AcDbVertex
100
AcDb3dPolylineVertex
 10
854.569
 20
-353.603
 30
0.0
 70
    32
  0
VERTEX
  5
430
330
3ED
100
AcDbEntity
  8
図枠
100
AcDbVertex
100
AcDb3dPolylineVertex
 10
854.584
 20
-353.616
 30
0.0
 70
    32
  0
VERTEX
  5
431
330
3ED
100
AcDbEntity
  8
図枠
100
AcDbVertex
100
AcDb3dPolylineVertex
 10
854.598
 20
-353.629
 30
0.0
 70
    32
  0
VERTEX
  5
432
330
3ED
100
AcDbEntity
  8
図枠
100
AcDbVertex
100
AcDb3dPolylineVertex
 10
854.6130000000001
 20
-353.641
 30
0.0
 70
    32
  0
VERTEX
  5
433
330
3ED
100
AcDbEntity
  8
図枠
100
AcDbVertex
100
AcDb3dPolylineVertex
 10
854.6280000000001
 20
-353.654
 30
0.0
 70
    32
  0
VERTEX
  5
434
330
3ED
100
AcDbEntity
  8
図枠
100
AcDbVertex
100
AcDb3dPolylineVertex
 10
854.643
 20
-353.667
 30
0.0
 70
    32
  0
VERTEX
  5
435
330
3ED
100
AcDbEntity
  8
図枠
100
AcDbVertex
100
AcDb3dPolylineVertex
 10
854.6569999999999
 20
-353.679
 30
0.0
 70
    32
  0
VERTEX
  5
436
330
3ED
100
AcDbEntity
  8
図枠
100
AcDbVertex
100
AcDb3dPolylineVertex
 10
854.672
 20
-353.6919999999999
 30
0.0
 70
    32
  0
VERTEX
  5
437
330
3ED
100
AcDbEntity
  8
図枠
100
AcDbVertex
100
AcDb3dPolylineVertex
 10
854.687
 20
-353.704
 30
0.0
 70
    32
  0
VERTEX
  5
438
330
3ED
100
AcDbEntity
  8
図枠
100
AcDbVertex
100
AcDb3dPolylineVertex
 10
854.7019999999999
 20
-353.717
 30
0.0
 70
    32
  0
VERTEX
  5
439
330
3ED
100
AcDbEntity
  8
図枠
100
AcDbVertex
100
AcDb3dPolylineVertex
 10
854.7169999999999
 20
-353.729
 30
0.0
 70
    32
  0
VERTEX
  5
43A
330
3ED
100
AcDbEntity
  8
図枠
100
AcDbVertex
100
AcDb3dPolylineVertex
 10
854.7310000000001
 20
-353.742
 30
0.0
 70
    32
  0
VERTEX
  5
43B
330
3ED
100
AcDbEntity
  8
図枠
100
AcDbVertex
100
AcDb3dPolylineVertex
 10
854.746
 20
-353.754
 30
0.0
 70
    32
  0
VERTEX
  5
43C
330
3ED
100
AcDbEntity
  8
図枠
100
AcDbVertex
100
AcDb3dPolylineVertex
 10
854.761
 20
-353.767
 30
0.0
 70
    32
  0
VERTEX
  5
43D
330
3ED
100
AcDbEntity
  8
図枠
100
AcDbVertex
100
AcDb3dPolylineVertex
 10
854.776
 20
-353.779
 30
0.0
 70
    32
  0
VERTEX
  5
43E
330
3ED
100
AcDbEntity
  8
図枠
100
AcDbVertex
100
AcDb3dPolylineVertex
 10
854.7909999999999
 20
-353.792
 30
0.0
 70
    32
  0
VERTEX
  5
43F
330
3ED
100
AcDbEntity
  8
図枠
100
AcDbVertex
100
AcDb3dPolylineVertex
 10
854.8060000000001
 20
-353.804
 30
0.0
 70
    32
  0
VERTEX
  5
440
330
3ED
100
AcDbEntity
  8
図枠
100
AcDbVertex
100
AcDb3dPolylineVertex
 10
854.821
 20
-353.816
 30
0.0
 70
    32
  0
VERTEX
  5
441
330
3ED
100
AcDbEntity
  8
図枠
100
AcDbVertex
100
AcDb3dPolylineVertex
 10
854.836
 20
-353.829
 30
0.0
 70
    32
  0
VERTEX
  5
442
330
3ED
100
AcDbEntity
  8
図枠
100
AcDbVertex
100
AcDb3dPolylineVertex
 10
854.85
 20
-353.841
 30
0.0
 70
    32
  0
VERTEX
  5
443
330
3ED
100
AcDbEntity
  8
図枠
100
AcDbVertex
100
AcDb3dPolylineVertex
 10
854.865
 20
-353.853
 30
0.0
 70
    32
  0
VERTEX
  5
444
330
3ED
100
AcDbEntity
  8
図枠
100
AcDbVertex
100
AcDb3dPolylineVertex
 10
854.8799999999999
 20
-353.866
 30
0.0
 70
    32
  0
VERTEX
  5
445
330
3ED
100
AcDbEntity
  8
図枠
100
AcDbVertex
100
AcDb3dPolylineVertex
 10
854.8949999999999
 20
-353.878
 30
0.0
 70
    32
  0
VERTEX
  5
446
330
3ED
100
AcDbEntity
  8
図枠
100
AcDbVertex
100
AcDb3dPolylineVertex
 10
854.9099999999999
 20
-353.89
 30
0.0
 70
    32
  0
VERTEX
  5
447
330
3ED
100
AcDbEntity
  8
図枠
100
AcDbVertex
100
AcDb3dPolylineVertex
 10
854.9249999999998
 20
-353.902
 30
0.0
 70
    32
  0
VERTEX
  5
448
330
3ED
100
AcDbEntity
  8
図枠
100
AcDbVertex
100
AcDb3dPolylineVertex
 10
854.94
 20
-353.914
 30
0.0
 70
    32
  0
VERTEX
  5
449
330
3ED
100
AcDbEntity
  8
図枠
100
AcDbVertex
100
AcDb3dPolylineVertex
 10
854.9549999999999
 20
-353.927
 30
0.0
 70
    32
  0
VERTEX
  5
44A
330
3ED
100
AcDbEntity
  8
図枠
100
AcDbVertex
100
AcDb3dPolylineVertex
 10
854.9699999999999
 20
-353.939
 30
0.0
 70
    32
  0
VERTEX
  5
44B
330
3ED
100
AcDbEntity
  8
図枠
100
AcDbVertex
100
AcDb3dPolylineVertex
 10
854.9850000000001
 20
-353.951
 30
0.0
 70
    32
  0
VERTEX
  5
44C
330
3ED
100
AcDbEntity
  8
図枠
100
AcDbVertex
100
AcDb3dPolylineVertex
 10
855.001
 20
-353.963
 30
0.0
 70
    32
  0
VERTEX
  5
44D
330
3ED
100
AcDbEntity
  8
図枠
100
AcDbVertex
100
AcDb3dPolylineVertex
 10
855.0160000000001
 20
-353.975
 30
0.0
 70
    32
  0
VERTEX
  5
44E
330
3ED
100
AcDbEntity
  8
図枠
100
AcDbVertex
100
AcDb3dPolylineVertex
 10
855.0310000000001
 20
-353.987
 30
0.0
 70
    32
  0
VERTEX
  5
44F
330
3ED
100
AcDbEntity
  8
図枠
100
AcDbVertex
100
AcDb3dPolylineVertex
 10
855.0460000000001
 20
-353.999
 30
0.0
 70
    32
  0
VERTEX
  5
450
330
3ED
100
AcDbEntity
  8
図枠
100
AcDbVertex
100
AcDb3dPolylineVertex
 10
855.061
 20
-354.011
 30
0.0
 70
    32
  0
VERTEX
  5
451
330
3ED
100
AcDbEntity
  8
図枠
100
AcDbVertex
100
AcDb3dPolylineVertex
 10
855.076
 20
-354.023
 30
0.0
 70
    32
  0
VERTEX
  5
452
330
3ED
100
AcDbEntity
  8
図枠
100
AcDbVertex
100
AcDb3dPolylineVertex
 10
855.091
 20
-354.035
 30
0.0
 70
    32
  0
VERTEX
  5
453
330
3ED
100
AcDbEntity
  8
図枠
100
AcDbVertex
100
AcDb3dPolylineVertex
 10
855.1060000000001
 20
-354.047
 30
0.0
 70
    32
  0
VERTEX
  5
454
330
3ED
100
AcDbEntity
  8
図枠
100
AcDbVertex
100
AcDb3dPolylineVertex
 10
855.1219999999998
 20
-354.0580000000001
 30
0.0
 70
    32
  0
VERTEX
  5
455
330
3ED
100
AcDbEntity
  8
図枠
100
AcDbVertex
100
AcDb3dPolylineVertex
 10
855.137
 20
-354.07
 30
0.0
 70
    32
  0
VERTEX
  5
456
330
3ED
100
AcDbEntity
  8
図枠
100
AcDbVertex
100
AcDb3dPolylineVertex
 10
855.152
 20
-354.082
 30
0.0
 70
    32
  0
VERTEX
  5
457
330
3ED
100
AcDbEntity
  8
図枠
100
AcDbVertex
100
AcDb3dPolylineVertex
 10
855.1669999999999
 20
-354.094
 30
0.0
 70
    32
  0
VERTEX
  5
458
330
3ED
100
AcDbEntity
  8
図枠
100
AcDbVertex
100
AcDb3dPolylineVertex
 10
855.1820000000001
 20
-354.106
 30
0.0
 70
    32
  0
VERTEX
  5
459
330
3ED
100
AcDbEntity
  8
図枠
100
AcDbVertex
100
AcDb3dPolylineVertex
 10
855.198
 20
-354.117
 30
0.0
 70
    32
  0
VERTEX
  5
45A
330
3ED
100
AcDbEntity
  8
図枠
100
AcDbVertex
100
AcDb3dPolylineVertex
 10
855.2130000000001
 20
-354.129
 30
0.0
 70
    32
  0
VERTEX
  5
45B
330
3ED
100
AcDbEntity
  8
図枠
100
AcDbVertex
100
AcDb3dPolylineVertex
 10
855.2280000000001
 20
-354.1409999999999
 30
0.0
 70
    32
  0
VERTEX
  5
45C
330
3ED
100
AcDbEntity
  8
図枠
100
AcDbVertex
100
AcDb3dPolylineVertex
 10
855.2439999999998
 20
-354.152
 30
0.0
 70
    32
  0
VERTEX
  5
45D
330
3ED
100
AcDbEntity
  8
図枠
100
AcDbVertex
100
AcDb3dPolylineVertex
 10
855.2589999999998
 20
-354.164
 30
0.0
 70
    32
  0
VERTEX
  5
45E
330
3ED
100
AcDbEntity
  8
図枠
100
AcDbVertex
100
AcDb3dPolylineVertex
 10
855.2739999999998
 20
-354.175
 30
0.0
 70
    32
  0
VERTEX
  5
45F
330
3ED
100
AcDbEntity
  8
図枠
100
AcDbVertex
100
AcDb3dPolylineVertex
 10
855.2899999999999
 20
-354.1869999999999
 30
0.0
 70
    32
  0
VERTEX
  5
460
330
3ED
100
AcDbEntity
  8
図枠
100
AcDbVertex
100
AcDb3dPolylineVertex
 10
855.3049999999998
 20
-354.1980000000001
 30
0.0
 70
    32
  0
VERTEX
  5
461
330
3ED
100
AcDbEntity
  8
図枠
100
AcDbVertex
100
AcDb3dPolylineVertex
 10
855.32
 20
-354.21
 30
0.0
 70
    32
  0
VERTEX
  5
462
330
3ED
100
AcDbEntity
  8
図枠
100
AcDbVertex
100
AcDb3dPolylineVertex
 10
855.3359999999999
 20
-354.221
 30
0.0
 70
    32
  0
VERTEX
  5
463
330
3ED
100
AcDbEntity
  8
図枠
100
AcDbVertex
100
AcDb3dPolylineVertex
 10
855.3510000000001
 20
-354.233
 30
0.0
 70
    32
  0
VERTEX
  5
464
330
3ED
100
AcDbEntity
  8
図枠
100
AcDbVertex
100
AcDb3dPolylineVertex
 10
855.367
 20
-354.244
 30
0.0
 70
    32
  0
VERTEX
  5
465
330
3ED
100
AcDbEntity
  8
図枠
100
AcDbVertex
100
AcDb3dPolylineVertex
 10
855.3819999999999
 20
-354.255
 30
0.0
 70
    32
  0
VERTEX
  5
466
330
3ED
100
AcDbEntity
  8
図枠
100
AcDbVertex
100
AcDb3dPolylineVertex
 10
855.3980000000001
 20
-354.267
 30
0.0
 70
    32
  0
VERTEX
  5
467
330
3ED
100
AcDbEntity
  8
図枠
100
AcDbVertex
100
AcDb3dPolylineVertex
 10
855.413
 20
-354.278
 30
0.0
 70
    32
  0
VERTEX
  5
468
330
3ED
100
AcDbEntity
  8
図枠
100
AcDbVertex
100
AcDb3dPolylineVertex
 10
855.4289999999999
 20
-354.289
 30
0.0
 70
    32
  0
VERTEX
  5
469
330
3ED
100
AcDbEntity
  8
図枠
100
AcDbVertex
100
AcDb3dPolylineVertex
 10
855.4439999999999
 20
-354.301
 30
0.0
 70
    32
  0
VERTEX
  5
46A
330
3ED
100
AcDbEntity
  8
図枠
100
AcDbVertex
100
AcDb3dPolylineVertex
 10
855.46
 20
-354.312
 30
0.0
 70
    32
  0
VERTEX
  5
46B
330
3ED
100
AcDbEntity
  8
図枠
100
AcDbVertex
100
AcDb3dPolylineVertex
 10
855.475
 20
-354.323
 30
0.0
 70
    32
  0
VERTEX
  5
46C
330
3ED
100
AcDbEntity
  8
図枠
100
AcDbVertex
100
AcDb3dPolylineVertex
 10
855.4910000000001
 20
-354.334
 30
0.0
 70
    32
  0
VERTEX
  5
46D
330
3ED
100
AcDbEntity
  8
図枠
100
AcDbVertex
100
AcDb3dPolylineVertex
 10
855.506
 20
-354.345
 30
0.0
 70
    32
  0
VERTEX
  5
46E
330
3ED
100
AcDbEntity
  8
図枠
100
AcDbVertex
100
AcDb3dPolylineVertex
 10
855.522
 20
-354.356
 30
0.0
 70
    32
  0
VERTEX
  5
46F
330
3ED
100
AcDbEntity
  8
図枠
100
AcDbVertex
100
AcDb3dPolylineVertex
 10
855.5379999999999
 20
-354.367
 30
0.0
 70
    32
  0
VERTEX
  5
470
330
3ED
100
AcDbEntity
  8
図枠
100
AcDbVertex
100
AcDb3dPolylineVertex
 10
855.553
 20
-354.378
 30
0.0
 70
    32
  0
VERTEX
  5
471
330
3ED
100
AcDbEntity
  8
図枠
100
AcDbVertex
100
AcDb3dPolylineVertex
 10
855.569
 20
-354.389
 30
0.0
 70
    32
  0
VERTEX
  5
472
330
3ED
100
AcDbEntity
  8
図枠
100
AcDbVertex
100
AcDb3dPolylineVertex
 10
855.5850000000001
 20
-354.4
 30
0.0
 70
    32
  0
VERTEX
  5
473
330
3ED
100
AcDbEntity
  8
図枠
100
AcDbVertex
100
AcDb3dPolylineVertex
 10
855.6
 20
-354.411
 30
0.0
 70
    32
  0
VERTEX
  5
474
330
3ED
100
AcDbEntity
  8
図枠
100
AcDbVertex
100
AcDb3dPolylineVertex
 10
855.6160000000001
 20
-354.422
 30
0.0
 70
    32
  0
VERTEX
  5
475
330
3ED
100
AcDbEntity
  8
図枠
100
AcDbVertex
100
AcDb3dPolylineVertex
 10
855.6319999999999
 20
-354.4319999999999
 30
0.0
 70
    32
  0
VERTEX
  5
476
330
3ED
100
AcDbEntity
  8
図枠
100
AcDbVertex
100
AcDb3dPolylineVertex
 10
855.648
 20
-354.4430000000001
 30
0.0
 70
    32
  0
VERTEX
  5
477
330
3ED
100
AcDbEntity
  8
図枠
100
AcDbVertex
100
AcDb3dPolylineVertex
 10
855.663
 20
-354.454
 30
0.0
 70
    32
  0
VERTEX
  5
478
330
3ED
100
AcDbEntity
  8
図枠
100
AcDbVertex
100
AcDb3dPolylineVertex
 10
855.6789999999999
 20
-354.464
 30
0.0
 70
    32
  0
VERTEX
  5
479
330
3ED
100
AcDbEntity
  8
図枠
100
AcDbVertex
100
AcDb3dPolylineVertex
 10
855.695
 20
-354.475
 30
0.0
 70
    32
  0
VERTEX
  5
47A
330
3ED
100
AcDbEntity
  8
図枠
100
AcDbVertex
100
AcDb3dPolylineVertex
 10
855.7109999999999
 20
-354.486
 30
0.0
 70
    32
  0
VERTEX
  5
47B
330
3ED
100
AcDbEntity
  8
図枠
100
AcDbVertex
100
AcDb3dPolylineVertex
 10
855.727
 20
-354.496
 30
0.0
 70
    32
  0
VERTEX
  5
47C
330
3ED
100
AcDbEntity
  8
図枠
100
AcDbVertex
100
AcDb3dPolylineVertex
 10
855.743
 20
-354.5069999999999
 30
0.0
 70
    32
  0
VERTEX
  5
47D
330
3ED
100
AcDbEntity
  8
図枠
100
AcDbVertex
100
AcDb3dPolylineVertex
 10
855.7589999999999
 20
-354.517
 30
0.0
 70
    32
  0
VERTEX
  5
47E
330
3ED
100
AcDbEntity
  8
図枠
100
AcDbVertex
100
AcDb3dPolylineVertex
 10
855.775
 20
-354.528
 30
0.0
 70
    32
  0
VERTEX
  5
47F
330
3ED
100
AcDbEntity
  8
図枠
100
AcDbVertex
100
AcDb3dPolylineVertex
 10
855.7910000000001
 20
-354.538
 30
0.0
 70
    32
  0
VERTEX
  5
480
330
3ED
100
AcDbEntity
  8
図枠
100
AcDbVertex
100
AcDb3dPolylineVertex
 10
855.807
 20
-354.548
 30
0.0
 70
    32
  0
VERTEX
  5
481
330
3ED
100
AcDbEntity
  8
図枠
100
AcDbVertex
100
AcDb3dPolylineVertex
 10
855.823
 20
-354.559
 30
0.0
 70
    32
  0
VERTEX
  5
482
330
3ED
100
AcDbEntity
  8
図枠
100
AcDbVertex
100
AcDb3dPolylineVertex
 10
855.8389999999999
 20
-354.569
 30
0.0
 70
    32
  0
VERTEX
  5
483
330
3ED
100
AcDbEntity
  8
図枠
100
AcDbVertex
100
AcDb3dPolylineVertex
 10
855.855
 20
-354.579
 30
0.0
 70
    32
  0
VERTEX
  5
484
330
3ED
100
AcDbEntity
  8
図枠
100
AcDbVertex
100
AcDb3dPolylineVertex
 10
855.8710000000001
 20
-354.589
 30
0.0
 70
    32
  0
VERTEX
  5
485
330
3ED
100
AcDbEntity
  8
図枠
100
AcDbVertex
100
AcDb3dPolylineVertex
 10
855.8869999999998
 20
-354.6
 30
0.0
 70
    32
  0
VERTEX
  5
486
330
3ED
100
AcDbEntity
  8
図枠
100
AcDbVertex
100
AcDb3dPolylineVertex
 10
855.9029999999999
 20
-354.61
 30
0.0
 70
    32
  0
VERTEX
  5
487
330
3ED
100
AcDbEntity
  8
図枠
100
AcDbVertex
100
AcDb3dPolylineVertex
 10
855.9189999999999
 20
-354.62
 30
0.0
 70
    32
  0
VERTEX
  5
488
330
3ED
100
AcDbEntity
  8
図枠
100
AcDbVertex
100
AcDb3dPolylineVertex
 10
855.935
 20
-354.63
 30
0.0
 70
    32
  0
VERTEX
  5
489
330
3ED
100
AcDbEntity
  8
図枠
100
AcDbVertex
100
AcDb3dPolylineVertex
 10
855.952
 20
-354.64
 30
0.0
 70
    32
  0
VERTEX
  5
48A
330
3ED
100
AcDbEntity
  8
図枠
100
AcDbVertex
100
AcDb3dPolylineVertex
 10
855.968
 20
-354.65
 30
0.0
 70
    32
  0
VERTEX
  5
48B
330
3ED
100
AcDbEntity
  8
図枠
100
AcDbVertex
100
AcDb3dPolylineVertex
 10
855.9839999999999
 20
-354.66
 30
0.0
 70
    32
  0
VERTEX
  5
48C
330
3ED
100
AcDbEntity
  8
図枠
100
AcDbVertex
100
AcDb3dPolylineVertex
 10
856.0
 20
-354.669
 30
0.0
 70
    32
  0
VERTEX
  5
48D
330
3ED
100
AcDbEntity
  8
図枠
100
AcDbVertex
100
AcDb3dPolylineVertex
 10
856.0169999999999
 20
-354.679
 30
0.0
 70
    32
  0
SEQEND
  5
48E
330
3ED
100
AcDbEntity
  8
図枠
  0
POLYLINE
  5
48F
330
5AC
100
AcDbEntity
  8
図枠
100
AcDb3dPolyline
 66
     1
 10
0.0
 20
0.0
 30
0.0
 70
     8
  0
VERTEX
  5
490
330
48F
100
AcDbEntity
  8
図枠
100
AcDbVertex
100
AcDb3dPolylineVertex
 10
857.9919999999999
 20
-355.546
 30
0.0
 70
    32
  0
VERTEX
  5
491
330
48F
100
AcDbEntity
  8
図枠
100
AcDbVertex
100
AcDb3dPolylineVertex
 10
858.0139999999998
 20
-355.553
 30
0.0
 70
    32
  0
VERTEX
  5
492
330
48F
100
AcDbEntity
  8
図枠
100
AcDbVertex
100
AcDb3dPolylineVertex
 10
858.0349999999999
 20
-355.56
 30
0.0
 70
    32
  0
VERTEX
  5
493
330
48F
100
AcDbEntity
  8
図枠
100
AcDbVertex
100
AcDb3dPolylineVertex
 10
858.0569999999999
 20
-355.567
 30
0.0
 70
    32
  0
VERTEX
  5
494
330
48F
100
AcDbEntity
  8
図枠
100
AcDbVertex
100
AcDb3dPolylineVertex
 10
858.079
 20
-355.574
 30
0.0
 70
    32
  0
VERTEX
  5
495
330
48F
100
AcDbEntity
  8
図枠
100
AcDbVertex
100
AcDb3dPolylineVertex
 10
858.1000000000001
 20
-355.58
 30
0.0
 70
    32
  0
VERTEX
  5
496
330
48F
100
AcDbEntity
  8
図枠
100
AcDbVertex
100
AcDb3dPolylineVertex
 10
858.122
 20
-355.587
 30
0.0
 70
    32
  0
VERTEX
  5
497
330
48F
100
AcDbEntity
  8
図枠
100
AcDbVertex
100
AcDb3dPolylineVertex
 10
858.1439999999998
 20
-355.594
 30
0.0
 70
    32
  0
VERTEX
  5
498
330
48F
100
AcDbEntity
  8
図枠
100
AcDbVertex
100
AcDb3dPolylineVertex
 10
858.1649999999999
 20
-355.6
 30
0.0
 70
    32
  0
VERTEX
  5
499
330
48F
100
AcDbEntity
  8
図枠
100
AcDbVertex
100
AcDb3dPolylineVertex
 10
858.187
 20
-355.607
 30
0.0
 70
    32
  0
VERTEX
  5
49A
330
48F
100
AcDbEntity
  8
図枠
100
AcDbVertex
100
AcDb3dPolylineVertex
 10
858.2089999999999
 20
-355.613
 30
0.0
 70
    32
  0
VERTEX
  5
49B
330
48F
100
AcDbEntity
  8
図枠
100
AcDbVertex
100
AcDb3dPolylineVertex
 10
858.23
 20
-355.62
 30
0.0
 70
    32
  0
VERTEX
  5
49C
330
48F
100
AcDbEntity
  8
図枠
100
AcDbVertex
100
AcDb3dPolylineVertex
 10
858.252
 20
-355.626
 30
0.0
 70
    32
  0
VERTEX
  5
49D
330
48F
100
AcDbEntity
  8
図枠
100
AcDbVertex
100
AcDb3dPolylineVertex
 10
858.2739999999999
 20
-355.633
 30
0.0
 70
    32
  0
VERTEX
  5
49E
330
48F
100
AcDbEntity
  8
図枠
100
AcDbVertex
100
AcDb3dPolylineVertex
 10
858.295
 20
-355.639
 30
0.0
 70
    32
  0
VERTEX
  5
49F
330
48F
100
AcDbEntity
  8
図枠
100
AcDbVertex
100
AcDb3dPolylineVertex
 10
858.317
 20
-355.6459999999999
 30
0.0
 70
    32
  0
VERTEX
  5
4A0
330
48F
100
AcDbEntity
  8
図枠
100
AcDbVertex
100
AcDb3dPolylineVertex
 10
858.3389999999999
 20
-355.652
 30
0.0
 70
    32
  0
VERTEX
  5
4A1
330
48F
100
AcDbEntity
  8
図枠
100
AcDbVertex
100
AcDb3dPolylineVertex
 10
858.3610000000001
 20
-355.659
 30
0.0
 70
    32
  0
VERTEX
  5
4A2
330
48F
100
AcDbEntity
  8
図枠
100
AcDbVertex
100
AcDb3dPolylineVertex
 10
858.383
 20
-355.665
 30
0.0
 70
    32
  0
VERTEX
  5
4A3
330
48F
100
AcDbEntity
  8
図枠
100
AcDbVertex
100
AcDb3dPolylineVertex
 10
858.4049999999999
 20
-355.671
 30
0.0
 70
    32
  0
VERTEX
  5
4A4
330
48F
100
AcDbEntity
  8
図枠
100
AcDbVertex
100
AcDb3dPolylineVertex
 10
858.426
 20
-355.677
 30
0.0
 70
    32
  0
VERTEX
  5
4A5
330
48F
100
AcDbEntity
  8
図枠
100
AcDbVertex
100
AcDb3dPolylineVertex
 10
858.4479999999999
 20
-355.684
 30
0.0
 70
    32
  0
VERTEX
  5
4A6
330
48F
100
AcDbEntity
  8
図枠
100
AcDbVertex
100
AcDb3dPolylineVertex
 10
858.4699999999999
 20
-355.69
 30
0.0
 70
    32
  0
VERTEX
  5
4A7
330
48F
100
AcDbEntity
  8
図枠
100
AcDbVertex
100
AcDb3dPolylineVertex
 10
858.492
 20
-355.696
 30
0.0
 70
    32
  0
VERTEX
  5
4A8
330
48F
100
AcDbEntity
  8
図枠
100
AcDbVertex
100
AcDb3dPolylineVertex
 10
858.5139999999999
 20
-355.702
 30
0.0
 70
    32
  0
VERTEX
  5
4A9
330
48F
100
AcDbEntity
  8
図枠
100
AcDbVertex
100
AcDb3dPolylineVertex
 10
858.5360000000001
 20
-355.708
 30
0.0
 70
    32
  0
VERTEX
  5
4AA
330
48F
100
AcDbEntity
  8
図枠
100
AcDbVertex
100
AcDb3dPolylineVertex
 10
858.558
 20
-355.715
 30
0.0
 70
    32
  0
VERTEX
  5
4AB
330
48F
100
AcDbEntity
  8
図枠
100
AcDbVertex
100
AcDb3dPolylineVertex
 10
858.58
 20
-355.721
 30
0.0
 70
    32
  0
VERTEX
  5
4AC
330
48F
100
AcDbEntity
  8
図枠
100
AcDbVertex
100
AcDb3dPolylineVertex
 10
858.6019999999999
 20
-355.727
 30
0.0
 70
    32
  0
VERTEX
  5
4AD
330
48F
100
AcDbEntity
  8
図枠
100
AcDbVertex
100
AcDb3dPolylineVertex
 10
858.624
 20
-355.733
 30
0.0
 70
    32
  0
VERTEX
  5
4AE
330
48F
100
AcDbEntity
  8
図枠
100
AcDbVertex
100
AcDb3dPolylineVertex
 10
858.646
 20
-355.739
 30
0.0
 70
    32
  0
VERTEX
  5
4AF
330
48F
100
AcDbEntity
  8
図枠
100
AcDbVertex
100
AcDb3dPolylineVertex
 10
858.6679999999999
 20
-355.745
 30
0.0
 70
    32
  0
VERTEX
  5
4B0
330
48F
100
AcDbEntity
  8
図枠
100
AcDbVertex
100
AcDb3dPolylineVertex
 10
858.6899999999999
 20
-355.751
 30
0.0
 70
    32
  0
VERTEX
  5
4B1
330
48F
100
AcDbEntity
  8
図枠
100
AcDbVertex
100
AcDb3dPolylineVertex
 10
858.712
 20
-355.756
 30
0.0
 70
    32
  0
VERTEX
  5
4B2
330
48F
100
AcDbEntity
  8
図枠
100
AcDbVertex
100
AcDb3dPolylineVertex
 10
858.7339999999999
 20
-355.762
 30
0.0
 70
    32
  0
VERTEX
  5
4B3
330
48F
100
AcDbEntity
  8
図枠
100
AcDbVertex
100
AcDb3dPolylineVertex
 10
858.7560000000001
 20
-355.768
 30
0.0
 70
    32
  0
VERTEX
  5
4B4
330
48F
100
AcDbEntity
  8
図枠
100
AcDbVertex
100
AcDb3dPolylineVertex
 10
858.778
 20
-355.774
 30
0.0
 70
    32
  0
VERTEX
  5
4B5
330
48F
100
AcDbEntity
  8
図枠
100
AcDbVertex
100
AcDb3dPolylineVertex
 10
858.7999999999999
 20
-355.78
 30
0.0
 70
    32
  0
VERTEX
  5
4B6
330
48F
100
AcDbEntity
  8
図枠
100
AcDbVertex
100
AcDb3dPolylineVertex
 10
858.8219999999999
 20
-355.786
 30
0.0
 70
    32
  0
VERTEX
  5
4B7
330
48F
100
AcDbEntity
  8
図枠
100
AcDbVertex
100
AcDb3dPolylineVertex
 10
858.844
 20
-355.791
 30
0.0
 70
    32
  0
VERTEX
  5
4B8
330
48F
100
AcDbEntity
  8
図枠
100
AcDbVertex
100
AcDb3dPolylineVertex
 10
858.867
 20
-355.797
 30
0.0
 70
    32
  0
VERTEX
  5
4B9
330
48F
100
AcDbEntity
  8
図枠
100
AcDbVertex
100
AcDb3dPolylineVertex
 10
858.8889999999999
 20
-355.803
 30
0.0
 70
    32
  0
VERTEX
  5
4BA
330
48F
100
AcDbEntity
  8
図枠
100
AcDbVertex
100
AcDb3dPolylineVertex
 10
858.9110000000001
 20
-355.809
 30
0.0
 70
    32
  0
VERTEX
  5
4BB
330
48F
100
AcDbEntity
  8
図枠
100
AcDbVertex
100
AcDb3dPolylineVertex
 10
858.933
 20
-355.814
 30
0.0
 70
    32
  0
VERTEX
  5
4BC
330
48F
100
AcDbEntity
  8
図枠
100
AcDbVertex
100
AcDb3dPolylineVertex
 10
858.955
 20
-355.82
 30
0.0
 70
    32
  0
VERTEX
  5
4BD
330
48F
100
AcDbEntity
  8
図枠
100
AcDbVertex
100
AcDb3dPolylineVertex
 10
858.9780000000001
 20
-355.826
 30
0.0
 70
    32
  0
VERTEX
  5
4BE
330
48F
100
AcDbEntity
  8
図枠
100
AcDbVertex
100
AcDb3dPolylineVertex
 10
859.0
 20
-355.831
 30
0.0
 70
    32
  0
VERTEX
  5
4BF
330
48F
100
AcDbEntity
  8
図枠
100
AcDbVertex
100
AcDb3dPolylineVertex
 10
859.022
 20
-355.837
 30
0.0
 70
    32
  0
VERTEX
  5
4C0
330
48F
100
AcDbEntity
  8
図枠
100
AcDbVertex
100
AcDb3dPolylineVertex
 10
859.0439999999999
 20
-355.842
 30
0.0
 70
    32
  0
VERTEX
  5
4C1
330
48F
100
AcDbEntity
  8
図枠
100
AcDbVertex
100
AcDb3dPolylineVertex
 10
859.0659999999999
 20
-355.848
 30
0.0
 70
    32
  0
VERTEX
  5
4C2
330
48F
100
AcDbEntity
  8
図枠
100
AcDbVertex
100
AcDb3dPolylineVertex
 10
859.0889999999999
 20
-355.853
 30
0.0
 70
    32
  0
VERTEX
  5
4C3
330
48F
100
AcDbEntity
  8
図枠
100
AcDbVertex
100
AcDb3dPolylineVertex
 10
859.111
 20
-355.8590000000001
 30
0.0
 70
    32
  0
VERTEX
  5
4C4
330
48F
100
AcDbEntity
  8
図枠
100
AcDbVertex
100
AcDb3dPolylineVertex
 10
859.1330000000001
 20
-355.864
 30
0.0
 70
    32
  0
VERTEX
  5
4C5
330
48F
100
AcDbEntity
  8
図枠
100
AcDbVertex
100
AcDb3dPolylineVertex
 10
859.1560000000001
 20
-355.87
 30
0.0
 70
    32
  0
VERTEX
  5
4C6
330
48F
100
AcDbEntity
  8
図枠
100
AcDbVertex
100
AcDb3dPolylineVertex
 10
859.1779999999999
 20
-355.875
 30
0.0
 70
    32
  0
VERTEX
  5
4C7
330
48F
100
AcDbEntity
  8
図枠
100
AcDbVertex
100
AcDb3dPolylineVertex
 10
859.2
 20
-355.881
 30
0.0
 70
    32
  0
VERTEX
  5
4C8
330
48F
100
AcDbEntity
  8
図枠
100
AcDbVertex
100
AcDb3dPolylineVertex
 10
859.223
 20
-355.886
 30
0.0
 70
    32
  0
VERTEX
  5
4C9
330
48F
100
AcDbEntity
  8
図枠
100
AcDbVertex
100
AcDb3dPolylineVertex
 10
859.2449999999999
 20
-355.892
 30
0.0
 70
    32
  0
VERTEX
  5
4CA
330
48F
100
AcDbEntity
  8
図枠
100
AcDbVertex
100
AcDb3dPolylineVertex
 10
859.267
 20
-355.897
 30
0.0
 70
    32
  0
VERTEX
  5
4CB
330
48F
100
AcDbEntity
  8
図枠
100
AcDbVertex
100
AcDb3dPolylineVertex
 10
859.29
 20
-355.902
 30
0.0
 70
    32
  0
VERTEX
  5
4CC
330
48F
100
AcDbEntity
  8
図枠
100
AcDbVertex
100
AcDb3dPolylineVertex
 10
859.312
 20
-355.908
 30
0.0
 70
    32
  0
VERTEX
  5
4CD
330
48F
100
AcDbEntity
  8
図枠
100
AcDbVertex
100
AcDb3dPolylineVertex
 10
859.3339999999999
 20
-355.913
 30
0.0
 70
    32
  0
VERTEX
  5
4CE
330
48F
100
AcDbEntity
  8
図枠
100
AcDbVertex
100
AcDb3dPolylineVertex
 10
859.3569999999999
 20
-355.918
 30
0.0
 70
    32
  0
VERTEX
  5
4CF
330
48F
100
AcDbEntity
  8
図枠
100
AcDbVertex
100
AcDb3dPolylineVertex
 10
859.3789999999998
 20
-355.923
 30
0.0
 70
    32
  0
VERTEX
  5
4D0
330
48F
100
AcDbEntity
  8
図枠
100
AcDbVertex
100
AcDb3dPolylineVertex
 10
859.401
 20
-355.929
 30
0.0
 70
    32
  0
VERTEX
  5
4D1
330
48F
100
AcDbEntity
  8
図枠
100
AcDbVertex
100
AcDb3dPolylineVertex
 10
859.4239999999999
 20
-355.934
 30
0.0
 70
    32
  0
VERTEX
  5
4D2
330
48F
100
AcDbEntity
  8
図枠
100
AcDbVertex
100
AcDb3dPolylineVertex
 10
859.4459999999999
 20
-355.939
 30
0.0
 70
    32
  0
VERTEX
  5
4D3
330
48F
100
AcDbEntity
  8
図枠
100
AcDbVertex
100
AcDb3dPolylineVertex
 10
859.4689999999999
 20
-355.944
 30
0.0
 70
    32
  0
VERTEX
  5
4D4
330
48F
100
AcDbEntity
  8
図枠
100
AcDbVertex
100
AcDb3dPolylineVertex
 10
859.491
 20
-355.95
 30
0.0
 70
    32
  0
VERTEX
  5
4D5
330
48F
100
AcDbEntity
  8
図枠
100
AcDbVertex
100
AcDb3dPolylineVertex
 10
859.5139999999998
 20
-355.955
 30
0.0
 70
    32
  0
VERTEX
  5
4D6
330
48F
100
AcDbEntity
  8
図枠
100
AcDbVertex
100
AcDb3dPolylineVertex
 10
859.5360000000001
 20
-355.96
 30
0.0
 70
    32
  0
VERTEX
  5
4D7
330
48F
100
AcDbEntity
  8
図枠
100
AcDbVertex
100
AcDb3dPolylineVertex
 10
859.5589999999999
 20
-355.965
 30
0.0
 70
    32
  0
VERTEX
  5
4D8
330
48F
100
AcDbEntity
  8
図枠
100
AcDbVertex
100
AcDb3dPolylineVertex
 10
859.581
 20
-355.97
 30
0.0
 70
    32
  0
VERTEX
  5
4D9
330
48F
100
AcDbEntity
  8
図枠
100
AcDbVertex
100
AcDb3dPolylineVertex
 10
859.604
 20
-355.975
 30
0.0
 70
    32
  0
VERTEX
  5
4DA
330
48F
100
AcDbEntity
  8
図枠
100
AcDbVertex
100
AcDb3dPolylineVertex
 10
859.626
 20
-355.98
 30
0.0
 70
    32
  0
VERTEX
  5
4DB
330
48F
100
AcDbEntity
  8
図枠
100
AcDbVertex
100
AcDb3dPolylineVertex
 10
859.6479999999999
 20
-355.986
 30
0.0
 70
    32
  0
VERTEX
  5
4DC
330
48F
100
AcDbEntity
  8
図枠
100
AcDbVertex
100
AcDb3dPolylineVertex
 10
859.6709999999999
 20
-355.991
 30
0.0
 70
    32
  0
VERTEX
  5
4DD
330
48F
100
AcDbEntity
  8
図枠
100
AcDbVertex
100
AcDb3dPolylineVertex
 10
859.694
 20
-355.996
 30
0.0
 70
    32
  0
VERTEX
  5
4DE
330
48F
100
AcDbEntity
  8
図枠
100
AcDbVertex
100
AcDb3dPolylineVertex
 10
859.716
 20
-356.001
 30
0.0
 70
    32
  0
VERTEX
  5
4DF
330
48F
100
AcDbEntity
  8
図枠
100
AcDbVertex
100
AcDb3dPolylineVertex
 10
859.7389999999998
 20
-356.006
 30
0.0
 70
    32
  0
VERTEX
  5
4E0
330
48F
100
AcDbEntity
  8
図枠
100
AcDbVertex
100
AcDb3dPolylineVertex
 10
859.7610000000001
 20
-356.011
 30
0.0
 70
    32
  0
VERTEX
  5
4E1
330
48F
100
AcDbEntity
  8
図枠
100
AcDbVertex
100
AcDb3dPolylineVertex
 10
859.7839999999999
 20
-356.016
 30
0.0
 70
    32
  0
VERTEX
  5
4E2
330
48F
100
AcDbEntity
  8
図枠
100
AcDbVertex
100
AcDb3dPolylineVertex
 10
859.806
 20
-356.021
 30
0.0
 70
    32
  0
VERTEX
  5
4E3
330
48F
100
AcDbEntity
  8
図枠
100
AcDbVertex
100
AcDb3dPolylineVertex
 10
859.829
 20
-356.026
 30
0.0
 70
    32
  0
VERTEX
  5
4E4
330
48F
100
AcDbEntity
  8
図枠
100
AcDbVertex
100
AcDb3dPolylineVertex
 10
859.851
 20
-356.031
 30
0.0
 70
    32
  0
VERTEX
  5
4E5
330
48F
100
AcDbEntity
  8
図枠
100
AcDbVertex
100
AcDb3dPolylineVertex
 10
859.8739999999999
 20
-356.036
 30
0.0
 70
    32
  0
VERTEX
  5
4E6
330
48F
100
AcDbEntity
  8
図枠
100
AcDbVertex
100
AcDb3dPolylineVertex
 10
859.8960000000001
 20
-356.041
 30
0.0
 70
    32
  0
VERTEX
  5
4E7
330
48F
100
AcDbEntity
  8
図枠
100
AcDbVertex
100
AcDb3dPolylineVertex
 10
859.919
 20
-356.046
 30
0.0
 70
    32
  0
VERTEX
  5
4E8
330
48F
100
AcDbEntity
  8
図枠
100
AcDbVertex
100
AcDb3dPolylineVertex
 10
859.942
 20
-356.051
 30
0.0
 70
    32
  0
VERTEX
  5
4E9
330
48F
100
AcDbEntity
  8
図枠
100
AcDbVertex
100
AcDb3dPolylineVertex
 10
859.9639999999999
 20
-356.055
 30
0.0
 70
    32
  0
VERTEX
  5
4EA
330
48F
100
AcDbEntity
  8
図枠
100
AcDbVertex
100
AcDb3dPolylineVertex
 10
859.9869999999999
 20
-356.06
 30
0.0
 70
    32
  0
VERTEX
  5
4EB
330
48F
100
AcDbEntity
  8
図枠
100
AcDbVertex
100
AcDb3dPolylineVertex
 10
860.0089999999999
 20
-356.065
 30
0.0
 70
    32
  0
VERTEX
  5
4EC
330
48F
100
AcDbEntity
  8
図枠
100
AcDbVertex
100
AcDb3dPolylineVertex
 10
860.0319999999999
 20
-356.07
 30
0.0
 70
    32
  0
VERTEX
  5
4ED
330
48F
100
AcDbEntity
  8
図枠
100
AcDbVertex
100
AcDb3dPolylineVertex
 10
860.055
 20
-356.075
 30
0.0
 70
    32
  0
VERTEX
  5
4EE
330
48F
100
AcDbEntity
  8
図枠
100
AcDbVertex
100
AcDb3dPolylineVertex
 10
860.077
 20
-356.08
 30
0.0
 70
    32
  0
VERTEX
  5
4EF
330
48F
100
AcDbEntity
  8
図枠
100
AcDbVertex
100
AcDb3dPolylineVertex
 10
860.1
 20
-356.085
 30
0.0
 70
    32
  0
VERTEX
  5
4F0
330
48F
100
AcDbEntity
  8
図枠
100
AcDbVertex
100
AcDb3dPolylineVertex
 10
860.1219999999999
 20
-356.09
 30
0.0
 70
    32
  0
VERTEX
  5
4F1
330
48F
100
AcDbEntity
  8
図枠
100
AcDbVertex
100
AcDb3dPolylineVertex
 10
860.1449999999999
 20
-356.094
 30
0.0
 70
    32
  0
VERTEX
  5
4F2
330
48F
100
AcDbEntity
  8
図枠
100
AcDbVertex
100
AcDb3dPolylineVertex
 10
860.1679999999999
 20
-356.099
 30
0.0
 70
    32
  0
VERTEX
  5
4F3
330
48F
100
AcDbEntity
  8
図枠
100
AcDbVertex
100
AcDb3dPolylineVertex
 10
860.19
 20
-356.1040000000001
 30
0.0
 70
    32
  0
VERTEX
  5
4F4
330
48F
100
AcDbEntity
  8
図枠
100
AcDbVertex
100
AcDb3dPolylineVertex
 10
860.213
 20
-356.109
 30
0.0
 70
    32
  0
VERTEX
  5
4F5
330
48F
100
AcDbEntity
  8
図枠
100
AcDbVertex
100
AcDb3dPolylineVertex
 10
860.236
 20
-356.114
 30
0.0
 70
    32
  0
VERTEX
  5
4F6
330
48F
100
AcDbEntity
  8
図枠
100
AcDbVertex
100
AcDb3dPolylineVertex
 10
860.2580000000001
 20
-356.119
 30
0.0
 70
    32
  0
VERTEX
  5
4F7
330
48F
100
AcDbEntity
  8
図枠
100
AcDbVertex
100
AcDb3dPolylineVertex
 10
860.2810000000001
 20
-356.1230000000001
 30
0.0
 70
    32
  0
VERTEX
  5
4F8
330
48F
100
AcDbEntity
  8
図枠
100
AcDbVertex
100
AcDb3dPolylineVertex
 10
860.304
 20
-356.128
 30
0.0
 70
    32
  0
VERTEX
  5
4F9
330
48F
100
AcDbEntity
  8
図枠
100
AcDbVertex
100
AcDb3dPolylineVertex
 10
860.326
 20
-356.133
 30
0.0
 70
    32
  0
VERTEX
  5
4FA
330
48F
100
AcDbEntity
  8
図枠
100
AcDbVertex
100
AcDb3dPolylineVertex
 10
860.3489999999998
 20
-356.138
 30
0.0
 70
    32
  0
VERTEX
  5
4FB
330
48F
100
AcDbEntity
  8
図枠
100
AcDbVertex
100
AcDb3dPolylineVertex
 10
860.3719999999999
 20
-356.142
 30
0.0
 70
    32
  0
VERTEX
  5
4FC
330
48F
100
AcDbEntity
  8
図枠
100
AcDbVertex
100
AcDb3dPolylineVertex
 10
860.3939999999999
 20
-356.147
 30
0.0
 70
    32
  0
VERTEX
  5
4FD
330
48F
100
AcDbEntity
  8
図枠
100
AcDbVertex
100
AcDb3dPolylineVertex
 10
860.4169999999999
 20
-356.152
 30
0.0
 70
    32
  0
VERTEX
  5
4FE
330
48F
100
AcDbEntity
  8
図枠
100
AcDbVertex
100
AcDb3dPolylineVertex
 10
860.44
 20
-356.157
 30
0.0
 70
    32
  0
VERTEX
  5
4FF
330
48F
100
AcDbEntity
  8
図枠
100
AcDbVertex
100
AcDb3dPolylineVertex
 10
860.462
 20
-356.162
 30
0.0
 70
    32
  0
VERTEX
  5
500
330
48F
100
AcDbEntity
  8
図枠
100
AcDbVertex
100
AcDb3dPolylineVertex
 10
860.485
 20
-356.166
 30
0.0
 70
    32
  0
VERTEX
  5
501
330
48F
100
AcDbEntity
  8
図枠
100
AcDbVertex
100
AcDb3dPolylineVertex
 10
860.508
 20
-356.171
 30
0.0
 70
    32
  0
VERTEX
  5
502
330
48F
100
AcDbEntity
  8
図枠
100
AcDbVertex
100
AcDb3dPolylineVertex
 10
860.5299999999999
 20
-356.176
 30
0.0
 70
    32
  0
VERTEX
  5
503
330
48F
100
AcDbEntity
  8
図枠
100
AcDbVertex
100
AcDb3dPolylineVertex
 10
860.5529999999999
 20
-356.18
 30
0.0
 70
    32
  0
VERTEX
  5
504
330
48F
100
AcDbEntity
  8
図枠
100
AcDbVertex
100
AcDb3dPolylineVertex
 10
860.576
 20
-356.185
 30
0.0
 70
    32
  0
VERTEX
  5
505
330
48F
100
AcDbEntity
  8
図枠
100
AcDbVertex
100
AcDb3dPolylineVertex
 10
860.598
 20
-356.19
 30
0.0
 70
    32
  0
VERTEX
  5
506
330
48F
100
AcDbEntity
  8
図枠
100
AcDbVertex
100
AcDb3dPolylineVertex
 10
860.621
 20
-356.195
 30
0.0
 70
    32
  0
VERTEX
  5
507
330
48F
100
AcDbEntity
  8
図枠
100
AcDbVertex
100
AcDb3dPolylineVertex
 10
860.6439999999999
 20
-356.199
 30
0.0
 70
    32
  0
VERTEX
  5
508
330
48F
100
AcDbEntity
  8
図枠
100
AcDbVertex
100
AcDb3dPolylineVertex
 10
860.6660000000001
 20
-356.204
 30
0.0
 70
    32
  0
VERTEX
  5
509
330
48F
100
AcDbEntity
  8
図枠
100
AcDbVertex
100
AcDb3dPolylineVertex
 10
860.6889999999999
 20
-356.209
 30
0.0
 70
    32
  0
VERTEX
  5
50A
330
48F
100
AcDbEntity
  8
図枠
100
AcDbVertex
100
AcDb3dPolylineVertex
 10
860.712
 20
-356.214
 30
0.0
 70
    32
  0
VERTEX
  5
50B
330
48F
100
AcDbEntity
  8
図枠
100
AcDbVertex
100
AcDb3dPolylineVertex
 10
860.735
 20
-356.218
 30
0.0
 70
    32
  0
VERTEX
  5
50C
330
48F
100
AcDbEntity
  8
図枠
100
AcDbVertex
100
AcDb3dPolylineVertex
 10
860.7569999999999
 20
-356.223
 30
0.0
 70
    32
  0
VERTEX
  5
50D
330
48F
100
AcDbEntity
  8
図枠
100
AcDbVertex
100
AcDb3dPolylineVertex
 10
860.7799999999999
 20
-356.228
 30
0.0
 70
    32
  0
VERTEX
  5
50E
330
48F
100
AcDbEntity
  8
図枠
100
AcDbVertex
100
AcDb3dPolylineVertex
 10
860.8029999999999
 20
-356.232
 30
0.0
 70
    32
  0
VERTEX
  5
50F
330
48F
100
AcDbEntity
  8
図枠
100
AcDbVertex
100
AcDb3dPolylineVertex
 10
860.8249999999999
 20
-356.237
 30
0.0
 70
    32
  0
SEQEND
  5
510
330
48F
100
AcDbEntity
  8
図枠
  0
LINE
  5
F6
330
5AC
100
AcDbEntity
  8
図枠
100
AcDbLine
 10
862.5993391100999
 20
-354.0771950321
 30
0.0
 11
865.2084057767
 21
-354.0771950321
 31
0.0
  0
LINE
  5
F7
330
5AC
100
AcDbEntity
  8
図枠
100
AcDbLine
 10
853.6253529913999
 20
-350.6371950321
 30
0.0
 11
853.6253529913999
 21
-352.0771950321
 31
0.0
  0
LINE
  5
F8
330
5AC
100
AcDbEntity
  8
図枠
100
AcDbLine
 10
873.4996667769998
 20
-332.2653334056
 30
0.0
 11
873.4996667769998
 21
-357.7653334055999
 31
0.0
  0
LINE
  5
F9
330
5AC
100
AcDbEntity
  8
図枠
100
AcDbLine
 10
869.4381475882
 20
-334.2113334056
 30
0.0
 11
869.4381475882
 21
-338.8193334056
 31
0.0
  0
LINE
  5
FA
330
5AC
100
AcDbEntity
  8
図枠
100
AcDbLine
 10
846.6968681429998
 20
-354.6371950321
 30
0.0
 11
846.6968681429998
 21
-353.4371950321
 31
0.0
  0
LINE
  5
FB
330
5AC
100
AcDbEntity
  8
図枠
100
AcDbLine
 10
867.8770425718999
 20
-355.5171950321
 30
0.0
 11
869.7993391100999
 21
-355.5171950321
 31
0.0
  0
LINE
  5
FC
330
5AC
100
AcDbEntity
  8
図枠
100
AcDbLine
 10
848.296868143
 20
-350.6371950321
 30
0.0
 11
848.296868143
 21
-352.2371950321
 31
0.0
  0
LINE
  5
FD
330
5AC
100
AcDbEntity
  8
図枠
100
AcDbLine
 10
869.7993391100999
 20
-354.0771950321
 30
0.0
 11
869.7993391100999
 21
-355.5171950321
 31
0.0
  0
LINE
  5
FE
330
5AC
100
AcDbEntity
  8
図枠
100
AcDbLine
 10
860.8253529914
 20
-355.0371950321
 30
0.0
 11
860.8253529914
 21
-356.2371950321
 31
0.0
  0
LINE
  5
FF
330
5AC
100
AcDbEntity
  8
図枠
100
AcDbLine
 10
844.6968681429998
 20
-353.4371950321
 30
0.0
 11
844.5759850936999
 21
-353.4371950321
 31
0.0
  0
LINE
  5
100
330
5AC
100
AcDbEntity
  8
図枠
100
AcDbLine
 10
844.6968681429998
 20
-355.0371950321
 30
0.0
 11
844.6968681429998
 21
-356.2371950321
 31
0.0
  0
LINE
  5
101
330
5AC
100
AcDbEntity
  8
図枠
100
AcDbLine
 10
851.496868143
 20
-352.2371950321
 30
0.0
 11
850.2968681429999
 21
-352.2371950321
 31
0.0
  0
LINE
  5
102
330
5AC
100
AcDbEntity
  8
図枠
100
AcDbLine
 10
850.2968681429999
 20
-352.2371950321
 30
0.0
 11
850.2968681429999
 21
-351.8371950321
 31
0.0
  0
LINE
  5
103
330
5AC
100
AcDbEntity
  8
図枠
100
AcDbLine
 10
866.8641105948999
 20
-351.9971950321
 30
0.0
 11
866.7469951946998
 21
-351.5902119197
 31
0.0
  0
CIRCLE
  5
104
330
5AC
100
AcDbEntity
  8
図枠
100
AcDbCircle
 10
859.563666777
 20
-336.5153334056
 30
0.0
 40
1.151999999999999
  0
INSERT
  5
105
330
5AC
100
AcDbEntity
  8
0
  6
Continuous
100
AcDbBlockReference
  2
*U16
 10
0.0
 20
0.0
 30
0.0
  0
INSERT
  5
106
330
5AC
100
AcDbEntity
  8
0
  6
Continuous
100
AcDbBlockReference
  2
*U17
 10
0.0
 20
0.0
 30
0.0
  0
INSERT
  5
107
330
5AC
100
AcDbEntity
  8
0
  6
Continuous
100
AcDbBlockReference
  2
*U18
 10
0.0
 20
0.0
 30
0.0
  0
INSERT
  5
108
330
5AC
100
AcDbEntity
  8
0
  6
Continuous
100
AcDbBlockReference
  2
*U19
 10
0.0
 20
0.0
 30
0.0
  0
INSERT
  5
109
330
5AC
100
AcDbEntity
  8
0
  6
Continuous
100
AcDbBlockReference
  2
*U20
 10
0.0
 20
0.0
 30
0.0
  0
INSERT
  5
10A
330
5AC
100
AcDbEntity
  8
0
  6
Continuous
100
AcDbBlockReference
  2
*U21
 10
0.0
 20
0.0
 30
0.0
  0
INSERT
  5
10B
330
5AC
100
AcDbEntity
  8
0
  6
Continuous
100
AcDbBlockReference
  2
*U22
 10
0.0
 20
0.0
 30
0.0
  0
LINE
  5
10C
330
5AC
100
AcDbEntity
  8
図枠
  6
BORDER
100
AcDbLine
 10
859.563666777
 20
-333.0593334056
 30
0.0
 11
859.563666777
 21
-339.9713334056
 31
0.0
  0
LINE
  5
10D
330
5AC
100
AcDbEntity
  8
図枠
  6
BORDER
100
AcDbLine
 10
859.563666777
 20
-333.0593334056
 30
0.0
 11
859.563666777
 21
-339.9713334056
 31
0.0
  0
LINE
  5
10E
330
5AC
100
AcDbEntity
  8
図枠
100
AcDbLine
 10
869.4381475882
 20
-334.2113334056
 30
0.0
 11
869.4381475882
 21
-338.8193334056
 31
0.0
  0
LINE
  5
10F
330
5AC
100
AcDbEntity
  8
図枠
100
AcDbLine
 10
862.5993391100999
 20
-353.4371950321
 30
0.0
 11
865.0206724433997
 21
-353.4371950321
 31
0.0
  0
LINE
  5
110
330
5AC
100
AcDbEntity
  8
図枠
100
AcDbLine
 10
853.6253529913999
 20
-352.4948832461
 30
0.0
 11
856.8253529914001
 21
-352.4948832461
 31
0.0
  0
LINE
  5
111
330
5AC
100
AcDbEntity
  8
図枠
100
AcDbLine
 10
850.2968681429999
 20
-353.8371950321
 30
0.0
 11
850.2968681429999
 21
-353.4371950321
 31
0.0
  0
LINE
  5
112
330
5AC
100
AcDbEntity
  8
図枠
100
AcDbLine
 10
853.6253529913999
 20
-355.0371950321
 30
0.0
 11
854.5853529913998
 21
-355.0371950321
 31
0.0
  0
LINE
  5
113
330
5AC
100
AcDbEntity
  8
図枠
100
AcDbLine
 10
864.1993391100999
 20
-350.6371950321
 30
0.0
 11
867.3993391100999
 21
-350.6371950321
 31
0.0
  0
LINE
  5
114
330
5AC
100
AcDbEntity
  8
図枠
100
AcDbLine
 10
860.0253529914001
 20
-351.8371950321
 30
0.0
 11
860.8253529914
 21
-350.6371950321
 31
0.0
  0
LINE
  5
115
330
5AC
100
AcDbEntity
  8
図枠
100
AcDbLine
 10
813.499666777
 20
-321.2653334056
 30
0.0
 11
929.499666777
 21
-321.2653334056
 31
0.0
  0
LINE
  5
116
330
5AC
100
AcDbEntity
  8
図枠
100
AcDbLine
 10
813.499666777
 20
-315.7653334056
 30
0.0
 11
929.499666777
 21
-315.7653334056
 31
0.0
  0
LINE
  5
117
330
5AC
100
AcDbEntity
  8
図枠
100
AcDbLine
 10
813.499666777
 20
-332.2653334056
 30
0.0
 11
929.499666777
 21
-332.2653334056
 31
0.0
  0
LINE
  5
118
330
5AC
100
AcDbEntity
  8
図枠
100
AcDbLine
 10
868.1993391100998
 20
-356.6371950321
 30
0.0
 11
867.8770425718999
 21
-355.5171950321
 31
0.0
  0
LINE
  5
119
330
5AC
100
AcDbEntity
  8
図枠
100
AcDbLine
 10
867.4626613085999
 20
-354.0771950321
 30
0.0
 11
869.7993391100999
 21
-354.0771950321
 31
0.0
  0
LINE
  5
11A
330
5AC
100
AcDbEntity
  8
図枠
100
AcDbLine
 10
862.5993391100999
 20
-351.9971950321
 30
0.0
 11
864.5982724434
 21
-351.9971950321
 31
0.0
  0
LINE
  5
11B
330
5AC
100
AcDbEntity
  8
図枠
100
AcDbLine
 10
862.5993391100999
 20
-355.5171950321
 30
0.0
 11
865.6308057766999
 21
-355.5171950321
 31
0.0
  0
LINE
  5
11C
330
5AC
100
AcDbEntity
  8
図枠
100
AcDbLine
 10
860.8253529914
 20
-350.6371950321
 30
0.0
 11
853.6253529913999
 21
-350.6371950321
 31
0.0
  0
INSERT
  5
11D
330
5AC
100
AcDbEntity
  8
0
  6
Continuous
100
AcDbBlockReference
  2
*U23
 10
0.0
 20
0.0
 30
0.0
  0
LINE
  5
11E
330
5AC
100
AcDbEntity
  8
図枠
  6
BORDER
100
AcDbLine
 10
859.563666777
 20
-333.0593334056
 30
0.0
 11
859.563666777
 21
-339.9713334056
 31
0.0
  0
LINE
  5
11F
330
5AC
100
AcDbEntity
  8
図枠
100
AcDbLine
 10
869.4381475882
 20
-334.2113334056
 30
0.0
 11
869.4381475882
 21
-338.8193334056
 31
0.0
  0
LINE
  5
120
330
5AC
100
AcDbEntity
  8
図枠
100
AcDbLine
 10
846.6968681429998
 20
-353.4371950321
 30
0.0
 11
848.296868143
 21
-353.4371950321
 31
0.0
  0
LINE
  5
121
330
5AC
100
AcDbEntity
  8
図枠
100
AcDbLine
 10
864.8301475882
 20
-337.6673334056
 30
0.0
 11
869.4381475882
 21
-338.8193334056
 31
0.0
  0
LINE
  5
122
330
5AC
100
AcDbEntity
  8
図枠
100
AcDbLine
 10
864.8301475882
 20
-335.3633334056
 30
0.0
 11
869.4381475882
 21
-334.2113334056
 31
0.0
  0
CIRCLE
  5
123
330
5AC
100
AcDbEntity
  8
図枠
100
AcDbCircle
 10
859.563666777
 20
-336.5153334056
 30
0.0
 40
2.303999999999999
  0
LINE
  5
124
330
5AC
100
AcDbEntity
  8
図枠
100
AcDbLine
 10
850.2968681429999
 20
-351.8371950321
 30
0.0
 11
851.496868143
 21
-350.6371950321
 31
0.0
  0
ARC
  5
125
330
5AC
100
AcDbEntity
  8
図枠
100
AcDbCircle
 10
855.6253529913998
 20
-351.8371950321
 30
0.0
 40
4.4
100
AcDbArc
 50
270.0
 51
302.544958854
  0
CIRCLE
  5
126
330
5AC
100
AcDbEntity
  8
図枠
100
AcDbCircle
 10
859.563666777
 20
-336.5153334056
 30
0.0
 40
2.303999999999999
  0
LINE
  5
127
330
5AC
100
AcDbEntity
  8
図枠
100
AcDbLine
 10
843.7759850937
 20
-353.4371950321
 30
0.0
 11
844.5759850936999
 21
-353.4371950321
 31
0.0
  0
LINE
  5
128
330
5AC
100
AcDbEntity
  8
図枠
100
AcDbLine
 10
847.896868143
 20
-350.6371950321
 30
0.0
 11
844.6968681429998
 21
-350.6371950321
 31
0.0
  0
LINE
  5
129
330
5AC
100
AcDbEntity
  8
図枠
100
AcDbLine
 10
846.6968681429998
 20
-351.8371950321
 30
0.0
 11
847.896868143
 21
-350.6371950321
 31
0.0
  0
LINE
  5
12A
330
5AC
100
AcDbEntity
  8
図枠
100
AcDbLine
 10
844.6968681429998
 20
-352.2371950321
 30
0.0
 11
843.7759850937
 21
-352.2371950321
 31
0.0
  0
ARC
  5
12B
330
5AC
100
AcDbEntity
  8
図枠
100
AcDbCircle
 10
847.896868143
 20
-353.8371950321
 30
0.0
 40
2.399999999999999
100
AcDbArc
 50
270.0
 51
0.0
  0
ARC
  5
12C
330
5AC
100
AcDbEntity
  8
図枠
100
AcDbCircle
 10
854.5853529913998
 20
-351.9971950321
 30
0.0
 40
3.04
100
AcDbArc
 50
270.0
 51
298.0859048152
  0
LINE
  5
12D
330
5AC
100
AcDbEntity
  8
図枠
100
AcDbLine
 10
867.2784918581999
 20
-353.4371950321
 30
0.0
 11
869.7993391100999
 21
-353.4371950321
 31
0.0
  0
INSERT
  5
12E
330
5AC
100
AcDbEntity
  8
0
  6
Continuous
100
AcDbBlockReference
  2
*U24
 10
0.0
 20
0.0
 30
0.0
  0
INSERT
  5
12F
330
5AC
100
AcDbEntity
  8
0
  6
Continuous
100
AcDbBlockReference
  2
*U25
 10
0.0
 20
0.0
 30
0.0
  0
INSERT
  5
130
330
5AC
100
AcDbEntity
  8
0
  6
Continuous
100
AcDbBlockReference
  2
*U26
 10
0.0
 20
0.0
 30
0.0
  0
LINE
  5
131
330
5AC
100
AcDbEntity
  8
図枠
 62
     5
100
AcDbLine
 10
859.4996667770001
 20
-97.7653334056
 30
0.0
 11
859.4996667770001
 21
-82.7653334056
 31
0.0
  0
LINE
  5
132
330
5AC
100
AcDbEntity
  8
図枠
 62
     5
100
AcDbLine
 10
909.4996667770001
 20
-97.7653334056
 30
0.0
 11
909.4996667770001
 21
-82.7653334056
 31
0.0
  0
LINE
  5
133
330
5AC
100
AcDbEntity
  8
図枠
 62
     5
100
AcDbLine
 10
843.4996667770001
 20
-97.7653334056
 30
0.0
 11
843.4996667770001
 21
-82.7653334056
 31
0.0
  0
LINE
  5
134
330
5AC
100
AcDbEntity
  8
図枠
 62
     5
100
AcDbLine
 10
836.7403813908998
 20
-92.33454165459999
 30
0.0
 11
841.6903813908998
 21
-92.33454165459999
 31
0.0
  0
LINE
  5
135
330
5AC
100
AcDbEntity
  8
図枠
 62
     5
100
AcDbLine
 10
839.2153813909001
 20
-88.0477159059
 30
0.0
 11
841.6903813908998
 21
-92.33454165459999
 31
0.0
  0
INSERT
  5
136
330
5AC
100
AcDbEntity
  8
0
  6
Continuous
100
AcDbBlockReference
  2
*U27
 10
0.0
 20
0.0
 30
0.0
  0
LINE
  5
137
330
5AC
100
AcDbEntity
  8
図枠
100
AcDbLine
 10
835.499666777
 20
-336.5153334056
 30
0.0
 11
849.4996667769997
 21
-336.5153334056
 31
0.0
  0
LINE
  5
138
330
5AC
100
AcDbEntity
  8
図枠
100
AcDbLine
 10
845.499666777
 20
-345.0153334055999
 30
0.0
 11
871.499666777
 21
-345.0153334055999
 31
0.0
  0
LINE
  5
139
330
5AC
100
AcDbEntity
  8
図枠
100
AcDbLine
 10
815.4996667769998
 20
-345.0153334055999
 30
0.0
 11
841.4996667769997
 21
-345.0153334055999
 31
0.0
  0
LINE
  5
13A
330
5AC
100
AcDbEntity
  8
図枠
100
AcDbLine
 10
853.499666777
 20
-332.2653334056
 30
0.0
 11
853.499666777
 21
-340.7653334056
 31
0.0
  0
LINE
  5
13B
330
5AC
100
AcDbEntity
  8
図枠
100
AcDbLine
 10
833.4996667769997
 20
-332.2653334056
 30
0.0
 11
833.4996667769997
 21
-340.7653334056
 31
0.0
  0
LINE
  5
13C
330
5AC
100
AcDbEntity
  8
図枠
100
AcDbLine
 10
833.4996667769997
 20
-332.2653334056
 30
0.0
 11
833.4996667769997
 21
-315.7653334056
 31
0.0
  0
LINE
  5
13D
330
5AC
100
AcDbEntity
  8
図枠
100
AcDbLine
 10
851.496868143
 20
-352.2371950321
 30
0.0
 11
851.496868143
 21
-353.4371950321
 31
0.0
  0
LINE
  5
13E
330
5AC
100
AcDbEntity
  8
図枠
100
AcDbLine
 10
865.9593391100999
 20
-356.6371950321
 30
0.0
 11
868.1993391100998
 21
-356.6371950321
 31
0.0
  0
LINE
  5
13F
330
5AC
100
AcDbEntity
  8
図枠
100
AcDbLine
 10
846.6968681429998
 20
-352.2371950321
 30
0.0
 11
846.6968681429998
 21
-351.8371950321
 31
0.0
  0
LINE
  5
140
330
5AC
100
AcDbEntity
  8
図枠
100
AcDbLine
 10
815.4996667769998
 20
-336.5153334056
 30
0.0
 11
831.499666777
 21
-336.5153334056
 31
0.0
  0
LINE
  5
141
330
5AC
100
AcDbEntity
  8
図枠
100
AcDbLine
 10
813.499666777
 20
-315.7653334056
 30
0.0
 11
813.499666777
 21
-332.2653334056
 31
0.0
  0
LINE
  5
142
330
5AC
100
AcDbEntity
  8
図枠
100
AcDbLine
 10
813.499666777
 20
-332.2653334056
 30
0.0
 11
813.499666777
 21
-357.7653334055999
 31
0.0
  0
LINE
  5
143
330
5AC
100
AcDbEntity
  8
図枠
100
AcDbLine
 10
813.499666777
 20
-315.7653334056
 30
0.0
 11
813.499666777
 21
-332.2653334056
 31
0.0
  0
LINE
  5
144
330
5AC
100
AcDbEntity
  8
図枠
100
AcDbLine
 10
813.499666777
 20
-340.7653334056
 30
0.0
 11
929.499666777
 21
-340.7653334056
 31
0.0
  0
LINE
  5
145
330
5AC
100
AcDbEntity
  8
図枠
100
AcDbLine
 10
813.499666777
 20
-349.2653334055999
 30
0.0
 11
929.499666777
 21
-349.2653334055999
 31
0.0
  0
LINE
  5
146
330
5AC
100
AcDbEntity
  8
図枠
100
AcDbLine
 10
813.499666777
 20
-326.7653334056
 30
0.0
 11
929.499666777
 21
-326.7653334056
 31
0.0
  0
LINE
  5
147
330
5AC
100
AcDbEntity
  8
図枠
 62
     5
100
AcDbLine
 10
839.2153813909001
 20
-88.0477159059
 30
0.0
 11
836.7403813908998
 21
-92.33454165459999
 31
0.0
  0
LINE
  5
148
330
5AC
100
AcDbEntity
  8
図枠
 62
     5
100
AcDbLine
 10
839.2153813909001
 20
-92.99771590589999
 30
0.0
 11
836.7403813908998
 21
-97.2845416546
 31
0.0
  0
LINE
  5
149
330
5AC
100
AcDbEntity
  8
図枠
 62
     5
100
AcDbLine
 10
839.2153813909001
 20
-92.99771590589999
 30
0.0
 11
841.6903813908998
 21
-97.2845416546
 31
0.0
  0
LINE
  5
14A
330
5AC
100
AcDbEntity
  8
図枠
 62
     5
100
AcDbLine
 10
836.7403813908998
 20
-97.2845416546
 30
0.0
 11
841.6903813908998
 21
-97.2845416546
 31
0.0
  0
LINE
  5
14B
330
5AC
100
AcDbEntity
  8
図枠
 62
     5
100
AcDbLine
 10
835.499666777
 20
-97.7653334056
 30
0.0
 11
835.499666777
 21
-82.7653334056
 31
0.0
  0
LINE
  5
14C
330
5AC
100
AcDbEntity
  8
図枠
 62
     5
100
AcDbLine
 10
919.499666777
 20
-97.7653334056
 30
0.0
 11
919.499666777
 21
-82.7653334056
 31
0.0
  0
LINE
  5
14D
330
5AC
100
AcDbEntity
  8
図枠
 62
     5
100
AcDbLine
 10
835.499666777
 20
-87.76533340559998
 30
0.0
 11
929.499666777
 21
-87.76533340559998
 31
0.0
  0
LINE
  5
14E
330
5AC
100
AcDbEntity
  8
図枠
 62
     5
100
AcDbLine
 10
835.499666777
 20
-92.76533340559996
 30
0.0
 11
929.499666777
 21
-92.76533340559996
 31
0.0
  0
LINE
  5
14F
330
5AC
100
AcDbEntity
  8
図枠
100
AcDbLine
 10
844.6968681429998
 20
-354.6371950321
 30
0.0
 11
846.6968681429998
 21
-354.6371950321
 31
0.0
  0
LINE
  5
150
330
5AC
100
AcDbEntity
  8
図枠
100
AcDbLine
 10
864.8301475882
 20
-335.3633334056
 30
0.0
 11
869.4381475882
 21
-334.2113334056
 31
0.0
  0
LINE
  5
151
330
5AC
100
AcDbEntity
  8
図枠
100
AcDbLine
 10
862.5993391100999
 20
-354.0771950321
 30
0.0
 11
862.5993391100999
 21
-355.5171950321
 31
0.0
  0
LINE
  5
152
330
5AC
100
AcDbEntity
  8
図枠
100
AcDbLine
 10
853.6253529913999
 20
-352.0771950321
 30
0.0
 11
857.6253529913998
 21
-352.0771950321
 31
0.0
  0
LINE
  5
153
330
5AC
100
AcDbEntity
  8
図枠
100
AcDbLine
 10
866.7469951946998
 20
-351.5902119197
 30
0.0
 11
867.3993391100999
 21
-350.6371950321
 31
0.0
  0
LINE
  5
154
330
5AC
100
AcDbEntity
  8
図枠
100
AcDbLine
 10
848.296868143
 20
-352.2371950321
 30
0.0
 11
846.6968681429998
 21
-352.2371950321
 31
0.0
  0
LINE
  5
155
330
5AC
100
AcDbEntity
  8
図枠
100
AcDbLine
 10
851.496868143
 20
-350.6371950321
 30
0.0
 11
848.296868143
 21
-350.6371950321
 31
0.0
  0
LINE
  5
156
330
5AC
100
AcDbEntity
  8
図枠
100
AcDbLine
 10
865.2084057767
 20
-354.0771950321
 30
0.0
 11
865.0206724433997
 21
-353.4371950321
 31
0.0
  0
LINE
  5
157
330
5AC
100
AcDbEntity
  8
図枠
100
AcDbLine
 10
860.0253529914001
 20
-351.8371950321
 30
0.0
 11
860.8253529914
 21
-350.6371950321
 31
0.0
  0
LINE
  5
158
330
5AC
100
AcDbEntity
  8
図枠
100
AcDbLine
 10
857.2544029848
 20
-353.4524517562001
 30
0.0
 11
857.0619263397
 21
-353.6650424446
 31
0.0
  0
LINE
  5
159
330
5AC
100
AcDbEntity
  8
図枠
100
AcDbLine
 10
859.1155284730998
 20
-354.5164999993
 30
0.0
 11
858.9730468253
 21
-354.6560025146
 31
0.0
  0
LINE
  5
15A
330
5AC
100
AcDbEntity
  8
図枠
100
AcDbLine
 10
867.4626613085999
 20
-354.0771950321
 30
0.0
 11
867.2784918581999
 21
-353.4371950321
 31
0.0
  0
LINE
  5
15B
330
5AC
100
AcDbEntity
  8
図枠
100
AcDbLine
 10
843.7759850937
 20
-352.2371950321
 30
0.0
 11
843.7759850937
 21
-353.4371950321
 31
0.0
  0
LINE
  5
15C
330
5AC
100
AcDbEntity
  8
図枠
100
AcDbLine
 10
853.6253529913999
 20
-355.0371950321
 30
0.0
 11
853.6253529913999
 21
-356.2371950321
 31
0.0
  0
LINE
  5
15D
330
5AC
100
AcDbEntity
  8
図枠
 62
     5
100
AcDbLine
 10
835.499666777
 20
-97.7653334056
 30
0.0
 11
929.499666777
 21
-97.7653334056
 31
0.0
  0
INSERT
  5
15E
330
5AC
100
AcDbEntity
  8
0
  6
Continuous
100
AcDbBlockReference
  2
*U28
 10
0.0
 20
0.0
 30
0.0
  0
INSERT
  5
15F
330
5AC
100
AcDbEntity
  8
0
  6
Continuous
100
AcDbBlockReference
  2
*U29
 10
0.0
 20
0.0
 30
0.0
  0
ENDBLK
  5
160
330
5AC
100
AcDbEntity
  8
0
100
AcDbBlockEnd
  0
BLOCK
  5
5CE
330
5AE
100
AcDbEntity
  8
0
100
AcDbBlockBegin
  2
*U12
 70
     1
 10
0.0
 20
0.0
 30
0.0
  3
*U12
  1

  0
TEXT
  5
26A
330
5AE
100
AcDbEntity
  8
図枠
  6
Continuous
100
AcDbText
 10
817.7202205017
 20
-355.5511068571665
 30
0.0
 40
4.317999935199999
  1
株式会社
100
AcDbText
  0
ENDBLK
  5
26C
330
5AE
100
AcDbEntity
  8
0
100
AcDbBlockEnd
  0
BLOCK
  5
5CF
330
5AF
100
AcDbEntity
  8
0
100
AcDbBlockBegin
  2
*U13
 70
     1
 10
0.0
 20
0.0
 30
0.0
  3
*U13
  1

  0
TEXT
  5
26E
330
5AF
100
AcDbEntity
  8
図枠
  6
Continuous
100
AcDbText
 10
813.499666777
 20
-343.903290670868
 30
0.0
 40
2.337499999999999
  1
 設計
100
AcDbText
  0
ENDBLK
  5
270
330
5AF
100
AcDbEntity
  8
0
100
AcDbBlockEnd
  0
BLOCK
  5
5D0
330
5B0
100
AcDbEntity
  8
0
100
AcDbBlockBegin
  2
*U14
 70
     1
 10
0.0
 20
0.0
 30
0.0
  3
*U14
  1

  0
TEXT
  5
272
330
5B0
100
AcDbEntity
  8
図枠
  6
Continuous
100
AcDbText
 10
816.3447810935036
 20
-319.7700034144224
 30
0.0
 40
2.804999959499999
  1
材　　質
100
AcDbText
  0
ENDBLK
  5
274
330
5B0
100
AcDbEntity
  8
0
100
AcDbBlockEnd
  0
BLOCK
  5
5D1
330
5B1
100
AcDbEntity
  8
0
100
AcDbBlockBegin
  2
*U15
 70
     1
 10
0.0
 20
0.0
 30
0.0
  3
*U15
  1

  0
TEXT
  5
276
330
5B1
100
AcDbEntity
  8
図枠
  6
Continuous
100
AcDbText
 10
816.3163039365546
 20
-325.2984805713716
 30
0.0
 40
2.804999959499999
  1
表面処理
100
AcDbText
  0
ENDBLK
  5
278
330
5B1
100
AcDbEntity
  8
0
100
AcDbBlockEnd
  0
BLOCK
  5
5D2
330
5B2
100
AcDbEntity
  8
0
100
AcDbBlockBegin
  2
*U16
 70
     1
 10
0.0
 20
0.0
 30
0.0
  3
*U16
  1

  0
TEXT
  5
27A
330
5B2
100
AcDbEntity
  8
図枠
  6
Continuous
100
AcDbText
 10
843.4996667770001
 20
-348.1888871175686
 30
0.0
 40
2.337499999999999
  1
 検図
100
AcDbText
  0
ENDBLK
  5
27C
330
5B2
100
AcDbEntity
  8
0
100
AcDbBlockEnd
  0
BLOCK
  5
5D3
330
5B3
100
AcDbEntity
  8
0
100
AcDbBlockBegin
  2
*U17
 70
     1
 10
0.0
 20
0.0
 30
0.0
  3
*U17
  1

  0
TEXT
  5
27E
330
5B3
100
AcDbEntity
  8
図枠
  6
Continuous
100
AcDbText
 10
843.4996667770001
 20
-343.9151561531015
 30
0.0
 40
2.337499999999999
  1
 照査
100
AcDbText
  0
ENDBLK
  5
280
330
5B3
100
AcDbEntity
  8
0
100
AcDbBlockEnd
  0
BLOCK
  5
5D4
330
5B4
100
AcDbEntity
  8
0
100
AcDbBlockBegin
  2
*U18
 70
     1
 10
0.0
 20
0.0
 30
0.0
  3
*U18
  1

  0
TEXT
  5
282
330
5B4
100
AcDbEntity
  8
図枠
  6
Continuous
100
AcDbText
 10
814.9011261678626
 20
-348.177021635335
 30
0.0
 40
2.337499999999999
  1
製図
100
AcDbText
  0
ENDBLK
  5
284
330
5B4
100
AcDbEntity
  8
0
100
AcDbBlockEnd
  0
BLOCK
  5
5D5
330
5B5
100
AcDbEntity
  8
0
100
AcDbBlockBegin
  2
*U19
 70
     1
 10
0.0
 20
0.0
 30
0.0
  3
*U19
  1

  0
TEXT
  5
286
330
5B5
100
AcDbEntity
  8
図枠
  6
Continuous
100
AcDbText
 10
818.5695589089799
 20
-335.355828741934
 30
0.0
 40
2.337499999999999
  1
日 　付
100
AcDbText
  0
ENDBLK
  5
288
330
5B5
100
AcDbEntity
  8
0
100
AcDbBlockEnd
  0
BLOCK
  5
5D6
330
5B6
100
AcDbEntity
  8
0
100
AcDbBlockBegin
  2
*U20
 70
     1
 10
0.0
 20
0.0
 30
0.0
  3
*U20
  1

  0
TEXT
  5
28A
330
5B6
100
AcDbEntity
  8
図枠
  6
Continuous
100
AcDbText
 10
873.7891020561876
 20
-343.697757263468
 30
0.0
 40
2.337499999999999
  1
図面名
100
AcDbText
  0
ENDBLK
  5
28C
330
5B6
100
AcDbEntity
  8
0
100
AcDbBlockEnd
  0
BLOCK
  5
5D7
330
5B7
100
AcDbEntity
  8
0
100
AcDbBlockBegin
  2
*U21
 70
     1
 10
0.0
 20
0.0
 30
0.0
  3
*U21
  1

  0
TEXT
  5
28E
330
5B7
100
AcDbEntity
  8
図枠
  6
Continuous
100
AcDbText
 10
873.7772365739543
 20
-352.174026299001
 30
0.0
 40
2.337499999999999
  1
図　番
100
AcDbText
  0
ENDBLK
  5
290
330
5B7
100
AcDbEntity
  8
0
100
AcDbBlockEnd
  0
BLOCK
  5
5D8
330
5B8
100
AcDbEntity
  8
0
100
AcDbBlockBegin
  2
*U22
 70
     1
 10
0.0
 20
0.0
 30
0.0
  3
*U22
  1

  0
TEXT
  5
292
330
5B8
100
AcDbEntity
  8
図枠
  6
Continuous
100
AcDbText
 10
873.7238419039034
 20
-335.2214882279351
 30
0.0
 40
2.337499999999999
  1
製品名
100
AcDbText
  0
ENDBLK
  5
294
330
5B8
100
AcDbEntity
  8
0
100
AcDbBlockEnd
  0
BLOCK
  5
5D9
330
5B9
100
AcDbEntity
  8
0
100
AcDbBlockBegin
  2
*U23
 70
     1
 10
0.0
 20
0.0
 30
0.0
  3
*U23
  1

  0
TEXT
  5
296
330
5B9
100
AcDbEntity
  8
図枠
  6
Continuous
100
AcDbText
 10
816.3874968289276
 20
-330.8554348852701
 30
0.0
 40
2.804999959499999
  1
一般公差
100
AcDbText
  0
ENDBLK
  5
298
330
5B9
100
AcDbEntity
  8
0
100
AcDbBlockEnd
  0
BLOCK
  5
5DA
330
5BA
100
AcDbEntity
  8
0
100
AcDbBlockBegin
  2
*U24
 70
     1
 10
0.0
 20
0.0
 30
0.0
  3
*U24
  1

  0
TEXT
  5
29A
330
5BA
100
AcDbEntity
  8
図枠
  6
Continuous
100
AcDbText
 10
919.4583470557004
 20
-86.52977498720405
 30
0.0
 40
2.698749959499998
  1
検認者
100
AcDbText
  0
ENDBLK
  5
29C
330
5BA
100
AcDbEntity
  8
0
100
AcDbBlockEnd
  0
BLOCK
  5
5DB
330
5BB
100
AcDbEntity
  8
0
100
AcDbBlockBegin
  2
*U25
 70
     1
 10
0.0
 20
0.0
 30
0.0
  3
*U25
  1

  0
TEXT
  5
29E
330
5BB
100
AcDbEntity
  8
図枠
  6
Continuous
100
AcDbText
 10
909.4994447708195
 20
-86.51607574883099
 30
0.0
 40
2.698749959499998
  1
改訂者
100
AcDbText
  0
ENDBLK
  5
2A0
330
5BB
100
AcDbEntity
  8
0
100
AcDbBlockEnd
  0
BLOCK
  5
5DC
330
5BC
100
AcDbEntity
  8
0
100
AcDbBlockBegin
  2
*U26
 70
     1
 10
0.0
 20
0.0
 30
0.0
  3
*U26
  1

  0
TEXT
  5
2A2
330
5BC
100
AcDbEntity
  8
図枠
  6
Continuous
100
AcDbText
 10
836.1228045180316
 20
-86.46127879533857
 30
0.0
 40
2.698749959499998
  1
副番
100
AcDbText
  0
ENDBLK
  5
2A4
330
5BC
100
AcDbEntity
  8
0
100
AcDbBlockEnd
  0
BLOCK
  5
5DD
330
5BD
100
AcDbEntity
  8
0
100
AcDbBlockBegin
  2
*U27
 70
     1
 10
0.0
 20
0.0
 30
0.0
  3
*U27
  1

  0
TEXT
  5
2A6
330
5BD
100
AcDbEntity
  8
図枠
  6
Continuous
100
AcDbText
 10
838.3203837820763
 20
-335.427021635335
 30
0.0
 40
2.337499999999999
  1
尺 　度
100
AcDbText
  0
ENDBLK
  5
2A8
330
5BD
100
AcDbEntity
  8
0
100
AcDbBlockEnd
  0
BLOCK
  5
5DE
330
5BE
100
AcDbEntity
  8
0
100
AcDbBlockBegin
  2
*U28
 70
     1
 10
0.0
 20
0.0
 30
0.0
  3
*U28
  1

  0
TEXT
  5
2AA
330
5BE
100
AcDbEntity
  8
図枠
  6
Continuous
100
AcDbText
 10
846.355602767902
 20
-86.48867727208479
 30
0.0
 40
2.698749959499998
  1
改訂日
100
AcDbText
  0
ENDBLK
  5
2AC
330
5BE
100
AcDbEntity
  8
0
100
AcDbBlockEnd
  0
BLOCK
  5
5DF
330
5BF
100
AcDbEntity
  8
0
100
AcDbBlockBegin
  2
*U29
 70
     1
 10
0.0
 20
0.0
 30
0.0
  3
*U29
  1

  0
TEXT
  5
2AE
330
5BF
100
AcDbEntity
  8
図枠
  6
Continuous
100
AcDbText
 10
872.4306377703021
 20
-86.51607574883099
 30
0.0
 40
2.698749959499998
  1
改　訂　内　容
100
AcDbText
  0
ENDBLK
  5
2B0
330
5BF
100
AcDbEntity
  8
0
100
AcDbBlockEnd
  0
BLOCK
  5
5C1
330
5C0
100
AcDbEntity
  8
0
100
AcDbBlockBegin
  2
*D30
 70
     1
 10
0.0
 20
0.0
 30
0.0
  3
*D30
  1

  0
TEXT
  5
189
330
5C0
100
AcDbEntity
  8
0
 62
     0
100
AcDbText
 10
850.1579644892
 20
-232.0679297785
 30
0.0
 40
2.998611020999999
  1
(4)
100
AcDbText
  0
LINE
  5
18A
330
5C0
100
AcDbEntity
  8
0
 62
     0
100
AcDbLine
 10
845.4373697917
 20
-232.8893490335
 30
0.0
 11
845.4373697917
 21
-234.0970964293
 31
0.0
  0
LINE
  5
18B
330
5C0
100
AcDbEntity
  8
0
 62
     0
100
AcDbLine
 10
841.4373697917
 20
-232.8893490335
 30
0.0
 11
841.4373697917
 21
-234.0970964293
 31
0.0
  0
LINE
  5
18C
330
5C0
100
AcDbEntity
  8
0
 62
     0
100
AcDbLine
 10
845.4373697917
 20
-233.5970964293
 30
0.0
 11
857.2135198328
 21
-233.5970964293
 31
0.0
  0
LINE
  5
18D
330
5C0
100
AcDbEntity
  8
0
 62
     0
100
AcDbLine
 10
845.4373697917
 20
-233.5970964293
 30
0.0
 11
848.3940756532998
 21
-233.5970964293
 31
0.0
  0
LINE
  5
18E
330
5C0
100
AcDbEntity
  8
0
 62
     0
100
AcDbLine
 10
841.4373697917
 20
-233.5970964293
 30
0.0
 11
857.2135198328
 21
-233.5970964293
 31
0.0
  0
LINE
  5
18F
330
5C0
100
AcDbEntity
  8
0
 62
     0
100
AcDbLine
 10
841.4373697917
 20
-233.5970964293
 30
0.0
 11
848.3940756532998
 21
-233.5970964293
 31
0.0
  0
LINE
  5
190
330
5C0
100
AcDbEntity
  8
0
 62
     0
100
AcDbLine
 10
841.4373697917
 20
-233.5970964293
 30
0.0
 11
838.4373697917
 21
-233.5970964293
 31
0.0
  0
SOLID
  5
191
330
5C0
100
AcDbEntity
  8
0
 62
     0
100
AcDbTrace
 10
841.4373697917
 20
-233.5970964293
 30
0.0
 11
838.4373697917
 21
-234.3470964293
 31
0.0
 12
838.4373697917
 22
-232.8470964293
 32
0.0
 13
839.1873697917
 23
-233.5970964293
 33
0.0
  0
LINE
  5
192
330
5C0
100
AcDbEntity
  8
0
 62
     0
100
AcDbLine
 10
845.4373697917
 20
-233.5970964293
 30
0.0
 11
848.4373697917
 21
-233.5970964293
 31
0.0
  0
SOLID
  5
193
330
5C0
100
AcDbEntity
  8
0
 62
     0
100
AcDbTrace
 10
845.4373697917
 20
-233.5970964293
 30
0.0
 11
848.4373697917
 21
-232.8470964293
 31
0.0
 12
848.4373697917
 22
-234.3470964293
 32
0.0
 13
847.6873697917
 23
-233.5970964293
 33
0.0
  0
ENDBLK
  5
194
330
5C0
100
AcDbEntity
  8
0
100
AcDbBlockEnd
  0
BLOCK
  5
5C3
330
5C2
100
AcDbEntity
  8
0
100
AcDbBlockBegin
  2
*D31
 70
     1
 10
0.0
 20
0.0
 30
0.0
  3
*D31
  1

  0
TEXT
  5
198
330
5C2
100
AcDbEntity
  8
0
 62
     0
100
AcDbText
 10
874.1734809557998
 20
-153.8109148046
 30
0.0
 40
2.998611020999999
  1
61
100
AcDbText
  0
LINE
  5
199
330
5C2
100
AcDbEntity
  8
0
 62
     0
100
AcDbLine
 10
906.4373697917
 20
-159.6393490335
 30
0.0
 11
906.4373697917
 21
-154.8400814554
 31
0.0
  0
LINE
  5
19A
330
5C2
100
AcDbEntity
  8
0
 62
     0
100
AcDbLine
 10
845.4373697917
 20
-189.6393490335
 30
0.0
 11
845.4373697917
 21
-154.8400814554
 31
0.0
  0
LINE
  5
19B
330
5C2
100
AcDbEntity
  8
0
 62
     0
100
AcDbLine
 10
906.4373697917
 20
-155.3400814554
 30
0.0
 11
879.4651474635001
 21
-155.3400814554
 31
0.0
  0
LINE
  5
19C
330
5C2
100
AcDbEntity
  8
0
 62
     0
100
AcDbLine
 10
906.4373697917
 20
-155.3400814554
 30
0.0
 11
872.4095921198999
 21
-155.3400814554
 31
0.0
  0
LINE
  5
19D
330
5C2
100
AcDbEntity
  8
0
 62
     0
100
AcDbLine
 10
845.4373697917
 20
-155.3400814554
 30
0.0
 11
879.4651474635001
 21
-155.3400814554
 31
0.0
  0
LINE
  5
19E
330
5C2
100
AcDbEntity
  8
0
 62
     0
100
AcDbLine
 10
845.4373697917
 20
-155.3400814554
 30
0.0
 11
872.4095921198999
 21
-155.3400814554
 31
0.0
  0
LINE
  5
19F
330
5C2
100
AcDbEntity
  8
0
 62
     0
100
AcDbLine
 10
845.4373697917
 20
-155.3400814554
 30
0.0
 11
848.4373697917
 21
-155.3400814554
 31
0.0
  0
SOLID
  5
1A0
330
5C2
100
AcDbEntity
  8
0
 62
     0
100
AcDbTrace
 10
845.4373697917
 20
-155.3400814554
 30
0.0
 11
848.4373697917
 21
-154.5900814554
 31
0.0
 12
848.4373697917
 22
-156.0900814554
 32
0.0
 13
847.6873697917
 23
-155.3400814554
 33
0.0
  0
LINE
  5
1A1
330
5C2
100
AcDbEntity
  8
0
 62
     0
100
AcDbLine
 10
906.4373697917
 20
-155.3400814554
 30
0.0
 11
903.4373697917001
 21
-155.3400814554
 31
0.0
  0
SOLID
  5
1A2
330
5C2
100
AcDbEntity
  8
0
 62
     0
100
AcDbTrace
 10
906.4373697917
 20
-155.3400814554
 30
0.0
 11
903.4373697917001
 21
-156.0900814554
 31
0.0
 12
903.4373697917001
 22
-154.5900814554
 32
0.0
 13
904.1873697916999
 23
-155.3400814554
 33
0.0
  0
ENDBLK
  5
1A3
330
5C2
100
AcDbEntity
  8
0
100
AcDbBlockEnd
  0
BLOCK
  5
5C5
330
5C4
100
AcDbEntity
  8
0
100
AcDbBlockBegin
  2
*U32
 70
     1
 10
0.0
 20
0.0
 30
0.0
  3
*U32
  1

  0
TEXT
  5
256
330
5C4
100
AcDbEntity
  8
改訂
  6
Continuous
100
AcDbText
 10
838.5098706125678
 20
-91.98347563239996
 30
0.0
 40
2.698749967599999
  1
1
100
AcDbText
  0
ENDBLK
  5
258
330
5C4
100
AcDbEntity
  8
0
100
AcDbBlockEnd
  0
BLOCK
  5
5C7
330
5C6
100
AcDbEntity
  8
0
100
AcDbBlockBegin
  2
*U33
 70
     1
 10
0.0
 20
0.0
 30
0.0
  3
*U33
  1

  0
TEXT
  5
25A
330
5C6
100
AcDbEntity
  8
改訂
  6
Continuous
100
AcDbText
 10
863.4713358742967
 20
-91.37555470049999
 30
0.0
 40
2.698749959499998
  1
XXXXXXXXXXXXXXXXXXXXXXXX
100
AcDbText
  0
ENDBLK
  5
25C
330
5C6
100
AcDbEntity
  8
0
100
AcDbBlockEnd
  0
BLOCK
  5
5C9
330
5C8
100
AcDbEntity
  8
0
100
AcDbBlockBegin
  2
*U34
 70
     1
 10
0.0
 20
0.0
 30
0.0
  3
*U34
  1

  0
TEXT
  5
25E
330
5C8
100
AcDbEntity
  8
図枠
  6
Continuous
100
AcDbText
 10
892.3978920942062
 20
-337.9163795597524
 30
0.0
 40
2.998611020999999
  1
水栓柱支持金具
100
AcDbText
  0
ENDBLK
  5
260
330
5C8
100
AcDbEntity
  8
0
100
AcDbBlockEnd
  0
BLOCK
  5
5CB
330
5CA
100
AcDbEntity
  8
0
100
AcDbBlockBegin
  2
*U35
 70
     1
 10
0.0
 20
0.0
 30
0.0
  3
*U35
  1

  0
TEXT
  5
262
330
5CA
100
AcDbEntity
  8
図枠
  6
Continuous
100
AcDbText
 10
887.9228076263178
 20
-346.3098299295645
 30
0.0
 40
2.998611020999999
  1
ＷＰ－６０Ｂ 承認図
100
AcDbText
  0
ENDBLK
  5
264
330
5CA
100
AcDbEntity
  8
0
100
AcDbBlockEnd
  0
BLOCK
  5
5CD
330
5CC
100
AcDbEntity
  8
0
100
AcDbBlockBegin
  2
*U36
 70
     1
 10
0.0
 20
0.0
 30
0.0
  3
*U36
  1

  0
TEXT
  5
266
330
5CC
100
AcDbEntity
  8
図枠
  6
Continuous
100
AcDbText
 10
890.7920369535183
 20
-354.7489444266
 30
0.0
 40
2.998611020999999
  1
ＳＢＰ０００３２
100
AcDbText
  0
ENDBLK
  5
268
330
5CC
100
AcDbEntity
  8
0
100
AcDbBlockEnd
  0
BLOCK
  5
5E1
330
5E0
100
AcDbEntity
  8
0
100
AcDbBlockBegin
  2
*U37
 70
     1
 10
0.0
 20
0.0
 30
0.0
  3
*U37
  1

  0
TEXT
  5
2B2
330
5E0
100
AcDbEntity
  8
図枠
  6
Continuous
100
AcDbText
 10
819.6849142389286
 20
-339.558366813
 30
0.0
 40
2.337499999999999
  1
H16.4
100
AcDbText
  0
ENDBLK
  5
2B4
330
5E0
100
AcDbEntity
  8
0
100
AcDbBlockEnd
  0
BLOCK
  5
5E3
330
5E2
100
AcDbEntity
  8
0
100
AcDbBlockBegin
  2
*U38
 70
     1
 10
0.0
 20
0.0
 30
0.0
  3
*U38
  1

  0
TEXT
  5
2B6
330
5E2
100
AcDbEntity
  8
図枠
  6
Continuous
100
AcDbText
 10
828.8806946957816
 20
-348.200752599802
 30
0.0
 40
2.337499999999999
  1
岸 本
100
AcDbText
  0
ENDBLK
  5
2B8
330
5E2
100
AcDbEntity
  8
0
100
AcDbBlockEnd
  0
BLOCK
  5
5E5
330
5E4
100
AcDbEntity
  8
0
100
AcDbBlockBegin
  2
*U39
 70
     1
 10
0.0
 20
0.0
 30
0.0
  3
*U39
  1

  0
TEXT
  5
2BA
330
5E4
100
AcDbEntity
  8
図枠
  6
Continuous
100
AcDbText
 10
840.6104218531421
 20
-339.558366813
 30
0.0
 40
2.337499999999999
  1
1：1
100
AcDbText
  0
ENDBLK
  5
2BC
330
5E4
100
AcDbEntity
  8
0
100
AcDbBlockEnd
  0
BLOCK
  5
5E7
330
5E6
100
AcDbEntity
  8
0
100
AcDbBlockBegin
  2
*U40
 70
     1
 10
0.0
 20
0.0
 30
0.0
  3
*U40
  1

  0
TEXT
  5
2BE
330
5E6
100
AcDbEntity
  8
図枠
  6
Continuous
100
AcDbText
 10
905.3596922096206
 20
-319.8453333651
 30
0.0
 40
3.229999959499998
  1
0.8t
100
AcDbText
  0
ENDBLK
  5
2C0
330
5E6
100
AcDbEntity
  8
0
100
AcDbBlockEnd
  0
BLOCK
  5
5E9
330
5E8
100
AcDbEntity
  8
0
100
AcDbBlockBegin
  2
*U41
 70
     1
 10
0.0
 20
0.0
 30
0.0
  3
*U41
  1

  0
TEXT
  5
2C2
330
5E8
100
AcDbEntity
  8
図枠
  6
Continuous
100
AcDbText
 10
850.7016215363984
 20
-330.8269577283208
 30
0.0
 40
2.804999959499999
  1
指定無き公差はJIS 0408-Bによること
100
AcDbText
  0
ENDBLK
  5
2C4
330
5E8
100
AcDbEntity
  8
0
100
AcDbBlockEnd
  0
BLOCK
  5
5EB
330
5EA
100
AcDbEntity
  8
0
100
AcDbBlockBegin
  2
*U42
 70
     1
 10
0.0
 20
0.0
 30
0.0
  3
*U42
  1

  0
TEXT
  5
2C6
330
5EA
100
AcDbEntity
  8
図枠
  6
Continuous
100
AcDbText
 10
828.180631244005
 20
-343.9388871175685
 30
0.0
 40
2.337499999999999
  1
白須賀
100
AcDbText
  0
ENDBLK
  5
2C8
330
5EA
100
AcDbEntity
  8
0
100
AcDbBlockEnd
  0
BLOCK
  5
5ED
330
5EC
100
AcDbEntity
  8
0
100
AcDbBlockBegin
  2
*U43
 70
     1
 10
0.0
 20
0.0
 30
0.0
  3
*U43
  1

  0
TEXT
  5
2CA
330
5EC
100
AcDbEntity
  8
図枠
  6
Continuous
100
AcDbText
 10
858.8925601780148
 20
-348.1176942241676
 30
0.0
 40
2.337499999999999
  1
園 原
100
AcDbText
  0
ENDBLK
  5
2CC
330
5EC
100
AcDbEntity
  8
0
100
AcDbBlockEnd
  0
BLOCK
  5
5EF
330
5EE
100
AcDbEntity
  8
0
100
AcDbBlockBegin
  2
*U44
 70
     1
 10
0.0
 20
0.0
 30
0.0
  3
*U44
  1

  0
TEXT
  5
2CE
330
5EE
100
AcDbEntity
  8
図枠
  6
Continuous
100
AcDbText
 10
858.8925601780148
 20
-343.8676942241675
 30
0.0
 40
2.337499999999999
  1
園 原
100
AcDbText
  0
ENDBLK
  5
2D0
330
5EE
100
AcDbEntity
  8
0
100
AcDbBlockEnd
  0
BLOCK
  5
5F1
330
5F0
100
AcDbEntity
  8
0
100
AcDbBlockBegin
  2
*U45
 70
     1
 10
0.0
 20
0.0
 30
0.0
  3
*U45
  1

  0
TEXT
  5
2D2
330
5F0
100
AcDbEntity
  8
図枠
  6
Continuous
100
AcDbText
 10
872.3091846473172
 20
-319.8269577283209
 30
0.0
 40
2.804999959499999
  1
板　　厚
100
AcDbText
  0
ENDBLK
  5
2D4
330
5F0
100
AcDbEntity
  8
0
100
AcDbBlockEnd
  0
BLOCK
  5
5F3
330
5F2
100
AcDbEntity
  8
0
100
AcDbBlockBegin
  2
*U46
 70
     1
 10
0.0
 20
0.0
 30
0.0
  3
*U46
  1

  0
TEXT
  5
2D6
330
5F2
100
AcDbEntity
  8
図枠
  6
Continuous
100
AcDbText
 10
867.2326111454315
 20
-325.4123891991686
 30
0.0
 40
2.804999959499999
  1
＃400 研磨仕上げ
100
AcDbText
  0
ENDBLK
  5
2D8
330
5F2
100
AcDbEntity
  8
0
100
AcDbBlockEnd
  0
BLOCK
  5
5F5
330
5F4
100
AcDbEntity
  8
0
100
AcDbBlockBegin
  2
*U47
 70
     1
 10
0.0
 20
0.0
 30
0.0
  3
*U47
  1

  0
TEXT
  5
2DA
330
5F4
100
AcDbEntity
  8
図枠
  6
Continuous
100
AcDbText
 10
842.5638039511508
 20
-319.8453333651
 30
0.0
 40
3.229999959499998
  1
SUS304-HL
100
AcDbText
  0
ENDBLK
  5
2DC
330
5F4
100
AcDbEntity
  8
0
100
AcDbBlockEnd
  0
BLOCK
  5
5F7
330
5F6
100
AcDbEntity
  8
0
100
AcDbBlockBegin
  2
*U48
 70
     1
 10
0.0
 20
0.0
 30
0.0
  3
*U48
  1

  0
TEXT
  5
2DE
330
5F6
100
AcDbEntity
  8
改訂
  6
Continuous
100
AcDbText
 10
911.4447366197993
 20
-91.37908336509999
 30
0.0
 40
2.698749959499998
  1
＊＊
100
AcDbText
  0
ENDBLK
  5
2E0
330
5F6
100
AcDbEntity
  8
0
100
AcDbBlockEnd
  0
BLOCK
  5
5F9
330
5F8
100
AcDbEntity
  8
0
100
AcDbBlockBegin
  2
*U49
 70
     1
 10
0.0
 20
0.0
 30
0.0
  3
*U49
  1

  0
TEXT
  5
2E2
330
5F8
100
AcDbEntity
  8
改訂
  6
Continuous
100
AcDbText
 10
843.5746573781635
 20
-91.37908336509999
 30
0.0
 40
2.698749959499998
  1
HXX.XX.XX
100
AcDbText
  0
ENDBLK
  5
2E4
330
5F8
100
AcDbEntity
  8
0
100
AcDbBlockEnd
  0
BLOCK
  5
5FB
330
5FA
100
AcDbEntity
  8
0
100
AcDbBlockBegin
  2
*U50
 70
     1
 10
0.0
 20
0.0
 30
0.0
  3
*U50
  1

  0
TEXT
  5
2E6
330
5FA
100
AcDbEntity
  8
ﾚｲﾔ_1
  6
Continuous
100
AcDbText
 10
782.5948891084607
 20
-132.8613821379523
 30
0.0
 40
2.998611020999999
  1
2-Φ5.1×皿押しΦ10
100
AcDbText
  0
ENDBLK
  5
2E8
330
5FA
100
AcDbEntity
  8
0
100
AcDbBlockEnd
  0
ENDSEC
  0
SECTION
  2
ENTITIES
  0
INSERT
  5
2F
330
57F
100
AcDbEntity
  8
0
  6
Continuous
100
AcDbBlockReference
  2
*U32
 10
0.0
 20
0.0
 30
0.0
  0
INSERT
  5
30
330
57F
100
AcDbEntity
  8
0
  6
Continuous
100
AcDbBlockReference
  2
*U33
 10
0.0
 20
0.0
 30
0.0
  0
INSERT
  5
32
330
57F
100
AcDbEntity
  8
0
  6
Continuous
100
AcDbBlockReference
  2
*U34
 10
0.0
 20
0.0
 30
0.0
  0
INSERT
  5
33
330
57F
100
AcDbEntity
  8
0
  6
Continuous
100
AcDbBlockReference
  2
*U35
 10
0.0
 20
0.0
 30
0.0
  0
INSERT
  5
34
330
57F
100
AcDbEntity
  8
0
  6
Continuous
100
AcDbBlockReference
  2
*U36
 10
0.0
 20
0.0
 30
0.0
  0
DIMENSION
  5
45
330
57F
100
AcDbEntity
  8
寸法線
100
AcDbDimension
280
     0
  2
*D2
 10
906.4373697917
 20
-147.5905209085
 30
0.0
 11
873.9373697917001
 21
-147.5905209085
 31
0.0
 70
   128
  1
(65)
 71
     5
 42
-1.0
 73
     0
 74
     0
 75
     0
  3
STANDARD
100
AcDbAlignedDimension
 13
906.4373697917
 23
-160.6393490335
 33
0.0
 14
841.4373697917
 24
-190.6393490335
 34
0.0
100
AcDbRotatedDimension
  0
DIMENSION
  5
54
330
57F
100
AcDbEntity
  8
寸法線
100
AcDbDimension
280
     0
  2
*D3
 10
918.4239583332999
 20
-187.6393490335
 30
0.0
 11
918.4239583332999
 21
-174.4975521585
 31
0.0
 70
   128
  1
(27)
 71
     5
 42
-1.0
 73
     0
 74
     0
 75
     0
  3
STANDARD
100
AcDbAlignedDimension
 13
902.4373697916999
 23
-187.6393490335
 33
0.0
 14
906.4373697917
 24
-160.6393490335
 34
0.0
 50
90.0
100
AcDbRotatedDimension
  0
DIMENSION
  5
63
330
57F
100
AcDbEntity
  8
寸法線
100
AcDbDimension
280
     0
  2
*D4
 10
800.0184895832997
 20
-146.974700596
 30
0.0
 11
786.0184895833
 21
-146.974700596
 31
0.0
 70
   128
  1
(<>)
 71
     5
 42
-1.0
 73
     0
 74
     0
 75
     0
  3
STANDARD
100
AcDbAlignedDimension
 13
800.0184895832997
 23
-164.1063507106
 33
0.0
 14
772.0184895833
 24
-164.1063507106
 34
0.0
100
AcDbRotatedDimension
  0
DIMENSION
  5
72
330
57F
100
AcDbEntity
  8
寸法線
100
AcDbDimension
280
     0
  2
*D5
 10
904.9373697916999
 20
-287.589672853
 30
0.0
 11
913.3029947917
 21
-287.589672853
 31
0.0
 70
   128
  1
0.8t
 71
     5
 42
-1.0
 73
     0
 74
     0
 75
     0
  3
STANDARD
100
AcDbAlignedDimension
 13
904.9373697916999
 23
-275.6393490335
 33
0.0
 14
906.4373697917
 24
-275.6393490335
 34
0.0
 50
180.0
100
AcDbRotatedDimension
  0
DIMENSION
  5
81
330
57F
100
AcDbEntity
  8
寸法線
100
AcDbDimension
280
     0
  2
*D6
 10
918.494140625
 20
-275.6393490335
 30
0.0
 11
918.494140625
 21
-262.1393490335
 31
0.0
 70
   128
  1
(27)
 71
     5
 42
-1.0
 73
     0
 74
     0
 75
     0
  3
STANDARD
100
AcDbAlignedDimension
 13
906.4373697917
 23
-275.6393490335
 33
0.0
 14
901.9373697917
 24
-248.6393490335
 34
0.0
 50
90.0
100
AcDbRotatedDimension
  0
DIMENSION
  5
90
330
57F
100
AcDbEntity
  8
寸法線
100
AcDbDimension
280
     0
  2
*D7
 10
761.7050130208
 20
-160.6393490335
 30
0.0
 11
761.7050130208
 21
-218.1393490335
 31
0.0
 70
   128
  1
(<>)
 71
     5
 42
-1.0
 73
     0
 74
     0
 75
     0
  3
STANDARD
100
AcDbAlignedDimension
 13
786.0184895833
 23
-160.6393490335
 33
0.0
 14
786.0184895833
 24
-275.6393490335
 34
0.0
 50
90.0
100
AcDbRotatedDimension
  0
DIMENSION
  5
9F
330
57F
100
AcDbEntity
  8
寸法線
100
AcDbDimension
280
     0
  2
*D8
 10
829.2464192708001
 20
-183.6393490335
 30
0.0
 11
829.2464192708001
 21
-218.1393490335
 31
0.0
 70
   128
  1
(69)
 71
     5
 42
-1.0
 73
     0
 74
     0
 75
     0
  3
STANDARD
100
AcDbAlignedDimension
 13
851.2499348958
 23
-183.6393490335
 33
0.0
 14
851.2499348958
 24
-252.6393490335
 34
0.0
 50
90.0
100
AcDbRotatedDimension
  0
DIMENSION
  5
AE
330
57F
100
AcDbEntity
  8
寸法線
100
AcDbDimension
280
     0
  2
*D9
 10
812.803523866
 20
-263.6393490335
 30
0.0
 11
812.803523866
 21
-218.1393490335
 31
0.0
 70
   128
  1
(<>)
 71
     5
 42
-1.0
 73
     0
 74
     0
 75
     0
  3
STANDARD
100
AcDbAlignedDimension
 13
802.8035238660001
 23
-263.6393490335
 33
0.0
 14
802.8035238660001
 24
-172.6393490335
 34
0.0
 50
90.0
100
AcDbRotatedDimension
  0
DIMENSION
  5
BD
330
57F
100
AcDbEntity
  8
寸法線
100
AcDbDimension
280
     0
  2
*D10
 10
887.4151445802999
 20
-256.4039203866
 30
0.0
 11
887.4151445802999
 21
-225.9039203866
 31
0.0
 70
   128
  1
<>
 71
     5
 42
-1.0
 73
     0
 74
     0
 75
     0
  3
STANDARD
100
AcDbAlignedDimension
 13
877.4151445802997
 23
-256.4039203866
 33
0.0
 14
877.4151445802997
 24
-195.4039203866
 34
0.0
 50
90.0
100
AcDbRotatedDimension
  0
INSERT
  5
C0
330
57F
100
AcDbEntity
  8
ﾚｲﾔ_1
100
AcDbBlockReference
  2
CLUMP0
 10
0.0
 20
0.0
 30
0.0
  0
INSERT
  5
161
330
57F
100
AcDbEntity
  8
0
  6
Continuous
100
AcDbBlockReference
  2
*U37
 10
0.0
 20
0.0
 30
0.0
  0
INSERT
  5
162
330
57F
100
AcDbEntity
  8
0
  6
Continuous
100
AcDbBlockReference
  2
*U38
 10
0.0
 20
0.0
 30
0.0
  0
INSERT
  5
163
330
57F
100
AcDbEntity
  8
0
  6
Continuous
100
AcDbBlockReference
  2
*U39
 10
0.0
 20
0.0
 30
0.0
  0
INSERT
  5
164
330
57F
100
AcDbEntity
  8
0
  6
Continuous
100
AcDbBlockReference
  2
*U40
 10
0.0
 20
0.0
 30
0.0
  0
INSERT
  5
165
330
57F
100
AcDbEntity
  8
0
  6
Continuous
100
AcDbBlockReference
  2
*U41
 10
0.0
 20
0.0
 30
0.0
  0
INSERT
  5
166
330
57F
100
AcDbEntity
  8
0
  6
Continuous
100
AcDbBlockReference
  2
*U42
 10
0.0
 20
0.0
 30
0.0
  0
INSERT
  5
167
330
57F
100
AcDbEntity
  8
0
  6
Continuous
100
AcDbBlockReference
  2
*U43
 10
0.0
 20
0.0
 30
0.0
  0
INSERT
  5
168
330
57F
100
AcDbEntity
  8
0
  6
Continuous
100
AcDbBlockReference
  2
*U44
 10
0.0
 20
0.0
 30
0.0
  0
LINE
  5
169
330
57F
100
AcDbEntity
  8
図枠
100
AcDbLine
 10
870.499666777
 20
-321.2653334056
 30
0.0
 11
870.499666777
 21
-315.7653334056
 31
0.0
  0
LINE
  5
16A
330
57F
100
AcDbEntity
  8
図枠
100
AcDbLine
 10
888.499666777
 20
-321.2653334056
 30
0.0
 11
888.499666777
 21
-315.7653334056
 31
0.0
  0
INSERT
  5
16B
330
57F
100
AcDbEntity
  8
0
  6
Continuous
100
AcDbBlockReference
  2
*U45
 10
0.0
 20
0.0
 30
0.0
  0
INSERT
  5
16D
330
57F
100
AcDbEntity
  8
0
  6
Continuous
100
AcDbBlockReference
  2
*U47
 10
0.0
 20
0.0
 30
0.0
  0
INSERT
  5
16E
330
57F
100
AcDbEntity
  8
0
  6
Continuous
100
AcDbBlockReference
  2
*U48
 10
0.0
 20
0.0
 30
0.0
  0
INSERT
  5
16F
330
57F
100
AcDbEntity
  8
0
  6
Continuous
100
AcDbBlockReference
  2
*U49
 10
0.0
 20
0.0
 30
0.0
  0
LINE
  5
170
330
57F
100
AcDbEntity
  8
ﾚｲﾔ_1
  6
STITCH
100
AcDbLine
 10
902.4373697916999
 20
-257.6392165549
 30
0.0
 11
905.1873697917001
 21
-260.3892165549
 31
0.0
  0
LINE
  5
171
330
57F
100
AcDbEntity
  8
ﾚｲﾔ_1
  6
STITCH
100
AcDbLine
 10
905.1873697917001
 20
-260.3892165549
 30
0.0
 11
906.2480299634
 21
-259.3285563831
 31
0.0
  0
LINE
  5
172
330
57F
100
AcDbEntity
  8
ﾚｲﾔ_1
  6
STITCH
100
AcDbLine
 10
906.2480299634
 20
-265.9498767266
 30
0.0
 11
903.9373697917
 21
-268.2605368984
 31
0.0
  0
LINE
  5
173
330
57F
100
AcDbEntity
  8
ﾚｲﾔ_1
  6
STITCH
100
AcDbLine
 10
906.2480299634
 20
-259.3285563831
 30
0.0
 11
903.9373697917
 21
-257.0178962113
 31
0.0
  0
LINE
  5
174
330
57F
100
AcDbEntity
  8
ﾚｲﾔ_1
  6
STITCH
100
AcDbLine
 10
903.9373697917
 20
-269.6393490335
 30
0.0
 11
903.9373697917
 21
-253.1393490335
 31
0.0
  0
LINE
  5
175
330
57F
100
AcDbEntity
  8
ﾚｲﾔ_1
100
AcDbLine
 10
848.4373697917
 20
-248.6393490335
 30
0.0
 11
877.4151445802997
 21
-256.4039203866
 31
0.0
  0
ARC
  5
176
330
57F
100
AcDbEntity
  8
ﾚｲﾔ_1
  6
HIDDEN
 62
     5
100
AcDbCircle
 10
904.9373697916999
 20
-271.6393490335
 30
0.0
 40
1.5
100
AcDbArc
 50
0.0
 51
90.0
  0
ARC
  5
177
330
57F
100
AcDbEntity
  8
ﾚｲﾔ_1
  6
HIDDEN
 62
     5
100
AcDbCircle
 10
904.4373697917
 20
-269.6393490335
 30
0.0
 40
0.5
100
AcDbArc
 50
180.0
 51
270.0
  0
LINE
  5
178
330
57F
100
AcDbEntity
  8
ﾚｲﾔ_1
  6
BORDER
 62
     3
100
AcDbLine
 10
768.4677083333
 20
-218.1393490335
 30
0.0
 11
804.2177083332997
 21
-218.1393490335
 31
0.0
  0
LINE
  5
179
330
57F
100
AcDbEntity
  8
ﾚｲﾔ_1
  6
BORDER
 62
     3
100
AcDbLine
 10
770.115760153
 20
-263.6393490335
 30
0.0
 11
802.8035238660001
 21
-263.6393490335
 31
0.0
  0
LINE
  5
17A
330
57F
100
AcDbEntity
  8
ﾚｲﾔ_1
  6
BORDER
 62
     3
100
AcDbLine
 10
834.0574218750001
 20
-218.1393490335
 30
0.0
 11
905.7177083333
 21
-218.1393490335
 31
0.0
  0
LINE
  5
17B
330
57F
100
AcDbEntity
  8
ﾚｲﾔ_1
  6
BORDER
 62
     3
100
AcDbLine
 10
908.9816005609
 20
-262.6392165549
 30
0.0
 11
900.1892928686
 21
-262.6392165549
 31
0.0
  0
LINE
  5
17C
330
57F
100
AcDbEntity
  8
ﾚｲﾔ_1
 62
     5
100
AcDbLine
 10
841.4373697917
 20
-218.1393490335
 30
0.0
 11
841.4373697917
 21
-190.6393490335
 31
0.0
  0
LINE
  5
17D
330
57F
100
AcDbEntity
  8
ﾚｲﾔ_1
 62
     5
100
AcDbLine
 10
845.4373697917
 20
-218.1393490335
 30
0.0
 11
845.4373697917
 21
-190.6393490335
 31
0.0
  0
LINE
  5
17E
330
57F
100
AcDbEntity
  8
ﾚｲﾔ_1
  6
STITCH
100
AcDbLine
 10
842.9373697917
 20
-218.1393490335
 30
0.0
 11
842.9373697917
 21
-190.6393490335
 31
0.0
  0
LINE
  5
17F
330
57F
100
AcDbEntity
  8
ﾚｲﾔ_1
 62
     5
100
AcDbLine
 10
843.9373697917
 20
-218.1393490335
 30
0.0
 11
843.9373697917
 21
-190.6393490335
 31
0.0
  0
LINE
  5
180
330
57F
100
AcDbEntity
  8
ﾚｲﾔ_1
  6
STITCH
100
AcDbLine
 10
794.5184895833
 20
-217.1393490335
 30
0.0
 11
794.5184895833
 21
-185.1393490335
 31
0.0
  0
LINE
  5
181
330
57F
100
AcDbEntity
  8
ﾚｲﾔ_1
  6
STITCH
100
AcDbLine
 10
777.5184895833
 20
-217.1393490335
 30
0.0
 11
777.5184895833
 21
-185.1393490335
 31
0.0
  0
LINE
  5
182
330
57F
100
AcDbEntity
  8
ﾚｲﾔ_1
 62
     5
100
AcDbLine
 10
772.0184895833
 20
-164.1063507106
 30
0.0
 11
772.0184895833
 21
-218.1393490335
 31
0.0
  0
LINE
  5
183
330
57F
100
AcDbEntity
  8
ﾚｲﾔ_1
 62
     5
100
AcDbLine
 10
800.0184895832997
 20
-164.1063507106
 30
0.0
 11
800.0184895832997
 21
-218.1393490335
 31
0.0
  0
LINE
  5
184
330
57F
100
AcDbEntity
  8
ﾚｲﾔ_1
 62
     5
100
AcDbLine
 10
776.0184895833
 20
-185.1393490335
 30
0.0
 11
776.0184895833
 21
-218.1393490335
 31
0.0
  0
LINE
  5
185
330
57F
100
AcDbEntity
  8
ﾚｲﾔ_1
 62
     5
100
AcDbLine
 10
796.0184895833
 20
-185.1393490335
 30
0.0
 11
796.0184895833
 21
-218.1393490335
 31
0.0
  0
LINE
  5
186
330
57F
100
AcDbEntity
  8
ﾚｲﾔ_1
  6
BORDER
 62
     3
100
AcDbLine
 10
786.0184895833
 20
-277.8060157002
 30
0.0
 11
786.0184895833
 21
-157.5579144343
 31
0.0
  0
DIMENSION
  5
195
330
57F
100
AcDbEntity
  8
寸法線
100
AcDbDimension
280
     0
  2
*D30
 10
845.4373697917
 20
-233.5970964293
 30
0.0
 11
852.8037977430997
 21
-233.5970964293
 31
0.0
 70
   128
  1
(<>)
 71
     5
 42
-1.0
 73
     0
 74
     0
 75
     0
  3
STANDARD
100
AcDbAlignedDimension
 13
845.4373697917
 23
-231.8893490335
 33
0.0
 14
841.4373697917
 24
-231.8893490335
 34
0.0
100
AcDbRotatedDimension
  0
DIMENSION
  5
1A4
330
57F
100
AcDbEntity
  8
寸法線
100
AcDbDimension
280
     0
  2
*D31
 10
906.4373697917
 20
-155.3400814554
 30
0.0
 11
875.9373697917
 21
-155.3400814554
 31
0.0
 70
   128
  1
<>
 71
     5
 42
-1.0
 73
     0
 74
     0
 75
     0
  3
STANDARD
100
AcDbAlignedDimension
 13
906.4373697917
 23
-160.6393490335
 33
0.0
 14
845.4373697917
 24
-190.6393490335
 34
0.0
100
AcDbRotatedDimension
  0
ARC
  5
1A5
330
57F
100
AcDbEntity
  8
ﾚｲﾔ_1
 62
     5
100
AcDbCircle
 10
778.5184895833
 20
-251.1393490335
 30
0.0
 40
2.5
100
AcDbArc
 50
180.0
 51
270.0
  0
LINE
  5
1A6
330
57F
100
AcDbEntity
  8
ﾚｲﾔ_1
 62
     5
100
AcDbLine
 10
793.5184895833
 20
-253.6393490335
 30
0.0
 11
778.5184895833
 21
-253.6393490335
 31
0.0
  0
CIRCLE
  5
1A7
330
57F
100
AcDbEntity
  8
ﾚｲﾔ_1
 62
     5
100
AcDbCircle
 10
786.0184895833
 20
-263.6393490335
 30
0.0
 40
2.25
  0
ARC
  5
1A8
330
57F
100
AcDbEntity
  8
ﾚｲﾔ_1
 62
     5
100
AcDbCircle
 10
786.0184895833
 20
-245.6393490335
 30
0.0
 40
26.0
100
AcDbArc
 50
247.380135052
 51
292.619864948
  0
CIRCLE
  5
1A9
330
57F
100
AcDbEntity
  8
ﾚｲﾔ_1
 62
     5
100
AcDbCircle
 10
786.0184895833
 20
-263.6393490335
 30
0.0
 40
5.0
  0
LINE
  5
1AA
330
57F
100
AcDbEntity
  8
ﾚｲﾔ_1
  6
HIDDEN
 62
     5
100
AcDbLine
 10
904.4373697917
 20
-270.1393490335
 30
0.0
 11
904.9373697916999
 21
-270.1393490335
 31
0.0
  0
LINE
  5
1AB
330
57F
100
AcDbEntity
  8
ﾚｲﾔ_1
 62
     5
100
AcDbLine
 10
848.4373697917
 20
-250.1393490335
 30
0.0
 11
902.4373697916999
 21
-250.1393490335
 31
0.0
  0
LINE
  5
1AC
330
57F
100
AcDbEntity
  8
ﾚｲﾔ_1
 62
     5
100
AcDbLine
 10
848.4373697917
 20
-248.6393490335
 30
0.0
 11
902.4373697916999
 21
-248.6393490335
 31
0.0
  0
LINE
  5
1AD
330
57F
100
AcDbEntity
  8
ﾚｲﾔ_1
 62
     5
100
AcDbLine
 10
848.4373697917
 20
-252.6393490335
 30
0.0
 11
901.4373697916999
 21
-252.6393490335
 31
0.0
  0
LINE
  5
1AE
330
57F
100
AcDbEntity
  8
ﾚｲﾔ_1
 62
     5
100
AcDbLine
 10
904.9373697916999
 20
-272.1393490335
 30
0.0
 11
904.9373697916999
 21
-275.6393490335
 31
0.0
  0
LINE
  5
1AF
330
57F
100
AcDbEntity
  8
ﾚｲﾔ_1
 62
     5
100
AcDbLine
 10
906.4373697917
 20
-252.6393490335
 30
0.0
 11
906.4373697917
 21
-271.6393490335
 31
0.0
  0
ARC
  5
1B0
330
57F
100
AcDbEntity
  8
ﾚｲﾔ_1
 62
     5
100
AcDbCircle
 10
902.4373697916999
 20
-252.6393490335
 30
0.0
 40
2.5
100
AcDbArc
 50
0.0
 51
90.0
  0
LINE
  5
1B1
330
57F
100
AcDbEntity
  8
ﾚｲﾔ_1
 62
     5
100
AcDbLine
 10
902.4373697916999
 20
-269.6393490335
 30
0.0
 11
902.4373697916999
 21
-253.6393490335
 31
0.0
  0
ARC
  5
1B2
330
57F
100
AcDbEntity
  8
ﾚｲﾔ_1
 62
     5
100
AcDbCircle
 10
904.4373697917
 20
-269.6393490335
 30
0.0
 40
2.0
100
AcDbArc
 50
180.0
 51
270.0
  0
ARC
  5
1B3
330
57F
100
AcDbEntity
  8
ﾚｲﾔ_1
 62
     5
100
AcDbCircle
 10
904.4373697917
 20
-272.1393490335
 30
0.0
 40
0.5
100
AcDbArc
 50
0.0
 51
90.0
  0
LINE
  5
1B4
330
57F
100
AcDbEntity
  8
ﾚｲﾔ_1
 62
     5
100
AcDbLine
 10
904.9373697916999
 20
-252.6393490335
 30
0.0
 11
904.9373697916999
 21
-272.1393490335
 31
0.0
  0
LINE
  5
1B5
330
57F
100
AcDbEntity
  8
ﾚｲﾔ_1
 62
     5
100
AcDbLine
 10
906.4373697917
 20
-275.6393490335
 30
0.0
 11
904.9373697916999
 21
-275.6393490335
 31
0.0
  0
LINE
  5
1B6
330
57F
100
AcDbEntity
  8
ﾚｲﾔ_1
 62
     5
100
AcDbLine
 10
906.4373697917
 20
-271.6393490335
 30
0.0
 11
906.4373697917
 21
-275.6393490335
 31
0.0
  0
ARC
  5
1B7
330
57F
100
AcDbEntity
  8
ﾚｲﾔ_1
 62
     5
100
AcDbCircle
 10
901.4373697916999
 20
-253.6393490335
 30
0.0
 40
1.0
100
AcDbArc
 50
0.0
 51
90.0
  0
ARC
  5
1B8
330
57F
100
AcDbEntity
  8
ﾚｲﾔ_1
 62
     5
100
AcDbCircle
 10
902.4373697916999
 20
-252.6393490335
 30
0.0
 40
4.0
100
AcDbArc
 50
0.0
 51
90.0
  0
LINE
  5
1B9
330
57F
100
AcDbEntity
  8
ﾚｲﾔ_1
 62
     5
100
AcDbLine
 10
841.4373697917
 20
-218.1393490335
 30
0.0
 11
841.4373697917
 21
-245.6393490335
 31
0.0
  0
LINE
  5
1BA
330
57F
100
AcDbEntity
  8
ﾚｲﾔ_1
 62
     5
100
AcDbLine
 10
843.9373697917
 20
-218.1393490335
 30
0.0
 11
843.9373697917
 21
-245.6393490335
 31
0.0
  0
LINE
  5
1BB
330
57F
100
AcDbEntity
  8
ﾚｲﾔ_1
  6
STITCH
100
AcDbLine
 10
906.2480299634
 20
-259.3285563831
 30
0.0
 11
906.2480299634
 21
-265.9498767266
 31
0.0
  0
LINE
  5
1BC
330
57F
100
AcDbEntity
  8
ﾚｲﾔ_1
  6
STITCH
100
AcDbLine
 10
905.1873697917001
 20
-264.8892165549
 30
0.0
 11
906.2480299634
 21
-265.9498767266
 31
0.0
  0
LINE
  5
1BD
330
57F
100
AcDbEntity
  8
ﾚｲﾔ_1
  6
STITCH
100
AcDbLine
 10
902.4373697916999
 20
-267.6392165549
 30
0.0
 11
905.1873697917001
 21
-264.8892165549
 31
0.0
  0
LINE
  5
1BE
330
57F
100
AcDbEntity
  8
ﾚｲﾔ_1
  6
BORDER
 62
     3
100
AcDbLine
 10
770.115760153
 20
-172.6393490335
 30
0.0
 11
802.8035238660001
 21
-172.6393490335
 31
0.0
  0
ARC
  5
1BF
330
57F
100
AcDbEntity
  8
ﾚｲﾔ_1
 62
     5
100
AcDbCircle
 10
786.0184895833
 20
-245.6393490335
 30
0.0
 40
30.0
100
AcDbArc
 50
242.1818607153
 51
297.8181392847
  0
LINE
  5
1C0
330
57F
100
AcDbEntity
  8
ﾚｲﾔ_1
 62
     5
100
AcDbLine
 10
776.0184895833
 20
-251.1393490335
 30
0.0
 11
776.0184895833
 21
-269.6393490335
 31
0.0
  0
LINE
  5
1C1
330
57F
100
AcDbEntity
  8
ﾚｲﾔ_1
 62
     5
100
AcDbLine
 10
796.0184895833
 20
-251.1393490335
 30
0.0
 11
796.0184895833
 21
-269.6393490335
 31
0.0
  0
LINE
  5
1C2
330
57F
100
AcDbEntity
  8
ﾚｲﾔ_1
 62
     5
100
AcDbLine
 10
772.0184895833
 20
-272.1723473563
 30
0.0
 11
772.0184895833
 21
-218.1393490335
 31
0.0
  0
ARC
  5
1C3
330
57F
100
AcDbEntity
  8
ﾚｲﾔ_1
  6
STITCH
100
AcDbCircle
 10
901.9373697917
 20
-253.1393490335
 30
0.0
 40
2.0
100
AcDbArc
 50
0.0
 51
90.0
  0
LINE
  5
1C4
330
57F
100
AcDbEntity
  8
ﾚｲﾔ_1
  6
STITCH
100
AcDbLine
 10
842.9373697917
 20
-218.1393490335
 30
0.0
 11
842.9373697917
 21
-245.6393490335
 31
0.0
  0
LINE
  5
1C5
330
57F
100
AcDbEntity
  8
ﾚｲﾔ_1
  6
STITCH
100
AcDbLine
 10
848.4373697917
 20
-251.1393490335
 30
0.0
 11
901.9373697917
 21
-251.1393490335
 31
0.0
  0
ARC
  5
1C6
330
57F
100
AcDbEntity
  8
ﾚｲﾔ_1
  6
STITCH
100
AcDbCircle
 10
848.4373697917
 20
-245.6393490335
 30
0.0
 40
5.5
100
AcDbArc
 50
180.0
 51
270.0
  0
ARC
  5
1C7
330
57F
100
AcDbEntity
  8
ﾚｲﾔ_1
 62
     5
100
AcDbCircle
 10
848.4373697917
 20
-245.6393490335
 30
0.0
 40
4.5
100
AcDbArc
 50
180.0
 51
270.0
  0
LINE
  5
1C8
330
57F
100
AcDbEntity
  8
ﾚｲﾔ_1
 62
     5
100
AcDbLine
 10
845.4373697917
 20
-218.1393490335
 30
0.0
 11
845.4373697917
 21
-245.6393490335
 31
0.0
  0
ARC
  5
1C9
330
57F
100
AcDbEntity
  8
ﾚｲﾔ_1
 62
     5
100
AcDbCircle
 10
848.4373697917
 20
-245.6393490335
 30
0.0
 40
3.0
100
AcDbArc
 50
180.0
 51
270.0
  0
ARC
  5
1CA
330
57F
100
AcDbEntity
  8
ﾚｲﾔ_1
 62
     5
100
AcDbCircle
 10
848.4373697917
 20
-245.6393490335
 30
0.0
 40
7.0
100
AcDbArc
 50
180.0
 51
270.0
  0
LINE
  5
1CB
330
57F
100
AcDbEntity
  8
ﾚｲﾔ_1
 62
     5
100
AcDbLine
 10
796.0184895833
 20
-251.1393490335
 30
0.0
 11
796.0184895833
 21
-218.1393490335
 31
0.0
  0
LINE
  5
1CC
330
57F
100
AcDbEntity
  8
ﾚｲﾔ_1
 62
     5
100
AcDbLine
 10
776.0184895833
 20
-251.1393490335
 30
0.0
 11
776.0184895833
 21
-218.1393490335
 31
0.0
  0
LINE
  5
1CD
330
57F
100
AcDbEntity
  8
ﾚｲﾔ_1
 62
     5
100
AcDbLine
 10
800.0184895832997
 20
-272.1723473563
 30
0.0
 11
800.0184895832997
 21
-218.1393490335
 31
0.0
  0
LINE
  5
1CE
330
57F
100
AcDbEntity
  8
ﾚｲﾔ_1
  6
STITCH
100
AcDbLine
 10
786.0184895833
 20
-252.1393490335
 30
0.0
 11
778.5184895833
 21
-252.1393490335
 31
0.0
  0
ARC
  5
1CF
330
57F
100
AcDbEntity
  8
ﾚｲﾔ_1
  6
STITCH
100
AcDbCircle
 10
778.5184895833
 20
-251.1393490335
 30
0.0
 40
1.0
100
AcDbArc
 50
180.0
 51
270.0
  0
LINE
  5
1D0
330
57F
100
AcDbEntity
  8
ﾚｲﾔ_1
  6
STITCH
100
AcDbLine
 10
786.0184895833
 20
-252.1393490335
 30
0.0
 11
793.5184895833
 21
-252.1393490335
 31
0.0
  0
ARC
  5
1D1
330
57F
100
AcDbEntity
  8
ﾚｲﾔ_1
  6
STITCH
100
AcDbCircle
 10
793.5184895833
 20
-251.1393490335
 30
0.0
 40
1.0
100
AcDbArc
 50
270.0
 51
0.0
  0
LINE
  5
1D2
330
57F
100
AcDbEntity
  8
ﾚｲﾔ_1
  6
STITCH
100
AcDbLine
 10
777.5184895833
 20
-249.6393490335
 30
0.0
 11
776.0184895833
 21
-249.6393490335
 31
0.0
  0
LINE
  5
1D3
330
57F
100
AcDbEntity
  8
ﾚｲﾔ_1
  6
STITCH
100
AcDbLine
 10
796.0184895833
 20
-249.6393490335
 30
0.0
 11
794.5184895833
 21
-249.6393490335
 31
0.0
  0
LINE
  5
1D4
330
57F
100
AcDbEntity
  8
ﾚｲﾔ_1
  6
STITCH
100
AcDbLine
 10
794.5184895833
 20
-219.1393490335
 30
0.0
 11
794.5184895833
 21
-251.1393490335
 31
0.0
  0
LINE
  5
1D5
330
57F
100
AcDbEntity
  8
ﾚｲﾔ_1
  6
STITCH
100
AcDbLine
 10
777.5184895833
 20
-219.1393490335
 30
0.0
 11
777.5184895833
 21
-251.1393490335
 31
0.0
  0
ARC
  5
1D6
330
57F
100
AcDbEntity
  8
ﾚｲﾔ_1
 62
     5
100
AcDbCircle
 10
793.5184895833
 20
-251.1393490335
 30
0.0
 40
2.5
100
AcDbArc
 50
270.0
 51
0.0
  0
ARC
  5
1D7
330
57F
100
AcDbEntity
  8
ﾚｲﾔ_1
 62
     5
100
AcDbCircle
 10
843.4373697916999
 20
-132.1804815121
 30
0.0
 40
2.0
100
AcDbArc
 50
0.0
 51
90.0
  0
LINE
  5
1D8
330
57F
100
AcDbEntity
  8
ﾚｲﾔ_1
 62
     5
100
AcDbLine
 10
845.4373697917
 20
-135.6804815121
 30
0.0
 11
845.4373697917
 21
-132.1804815121
 31
0.0
  0
ARC
  5
1D9
330
57F
100
AcDbEntity
  8
ﾚｲﾔ_1
 62
     5
100
AcDbCircle
 10
843.4373697916999
 20
-111.1804815121
 30
0.0
 40
2.0
100
AcDbArc
 50
270.0
 51
0.0
  0
LINE
  5
1DA
330
57F
100
AcDbEntity
  8
ﾚｲﾔ_1
 62
     5
100
AcDbLine
 10
845.4373697917
 20
-107.6804815121
 30
0.0
 11
845.4373697917
 21
-111.1804815121
 31
0.0
  0
LINE
  5
1DB
330
57F
100
AcDbEntity
  8
ﾚｲﾔ_1
 62
     5
100
AcDbLine
 10
843.4373697916999
 20
-113.1804815121
 30
0.0
 11
842.9373697917
 21
-113.1804815121
 31
0.0
  0
LINE
  5
1DC
330
57F
100
AcDbEntity
  8
ﾚｲﾔ_1
 62
     5
100
AcDbLine
 10
848.4373697917
 20
-186.1393490335
 30
0.0
 11
902.4373697916999
 21
-186.1393490335
 31
0.0
  0
LINE
  5
1DD
330
57F
100
AcDbEntity
  8
ﾚｲﾔ_1
 62
     5
100
AcDbLine
 10
848.4373697917
 20
-187.6393490335
 30
0.0
 11
902.4373697916999
 21
-187.6393490335
 31
0.0
  0
LINE
  5
1DE
330
57F
100
AcDbEntity
  8
ﾚｲﾔ_1
 62
     5
100
AcDbLine
 10
848.4373697917
 20
-183.6393490335
 30
0.0
 11
901.4373697916999
 21
-183.6393490335
 31
0.0
  0
ARC
  5
1DF
330
57F
100
AcDbEntity
  8
ﾚｲﾔ_1
 62
     5
100
AcDbCircle
 10
848.4373697917
 20
-190.6393490335
 30
0.0
 40
7.0
100
AcDbArc
 50
90.0
 51
180.0
  0
ARC
  5
1E0
330
57F
100
AcDbEntity
  8
ﾚｲﾔ_1
  6
HIDDEN
 62
     5
100
AcDbCircle
 10
904.4373697917
 20
-166.6393490335
 30
0.0
 40
0.5
100
AcDbArc
 50
90.0
 51
180.0
  0
ARC
  5
1E1
330
57F
100
AcDbEntity
  8
ﾚｲﾔ_1
  6
HIDDEN
 62
     5
100
AcDbCircle
 10
904.9373697916999
 20
-164.6393490335
 30
0.0
 40
1.5
100
AcDbArc
 50
270.0
 51
0.0
  0
LINE
  5
1E2
330
57F
100
AcDbEntity
  8
ﾚｲﾔ_1
  6
HIDDEN
 62
     5
100
AcDbLine
 10
904.4373697917
 20
-166.1393490335
 30
0.0
 11
904.9373697916999
 21
-166.1393490335
 31
0.0
  0
LINE
  5
1E3
330
57F
100
AcDbEntity
  8
ﾚｲﾔ_1
  6
STITCH
100
AcDbLine
 10
906.2480299634
 20
-118.3698213403
 30
0.0
 11
903.9373697917
 21
-116.0591611686
 31
0.0
  0
LINE
  5
1E4
330
57F
100
AcDbEntity
  8
ﾚｲﾔ_1
  6
STITCH
100
AcDbLine
 10
906.2480299634
 20
-124.9911416839
 30
0.0
 11
903.9373697917
 21
-127.3018018557
 31
0.0
  0
LINE
  5
1E5
330
57F
100
AcDbEntity
  8
ﾚｲﾔ_1
  6
STITCH
100
AcDbLine
 10
905.1873697917001
 20
-119.4304815121
 30
0.0
 11
906.2480299634
 21
-118.3698213403
 31
0.0
  0
LINE
  5
1E6
330
57F
100
AcDbEntity
  8
ﾚｲﾔ_1
  6
STITCH
100
AcDbLine
 10
902.4373697916999
 20
-116.6804815121
 30
0.0
 11
905.1873697917001
 21
-119.4304815121
 31
0.0
  0
LINE
  5
1E7
330
57F
100
AcDbEntity
  8
ﾚｲﾔ_1
  6
STITCH
100
AcDbLine
 10
902.4373697916999
 20
-126.6804815121
 30
0.0
 11
905.1873697917001
 21
-123.9304815121
 31
0.0
  0
LINE
  5
1E8
330
57F
100
AcDbEntity
  8
ﾚｲﾔ_1
  6
STITCH
100
AcDbLine
 10
905.1873697917001
 20
-123.9304815121
 30
0.0
 11
906.2480299634
 21
-124.9911416839
 31
0.0
  0
LINE
  5
1E9
330
57F
100
AcDbEntity
  8
ﾚｲﾔ_1
  6
STITCH
100
AcDbLine
 10
906.2480299634
 20
-124.9911416839
 30
0.0
 11
906.2480299634
 21
-118.3698213403
 31
0.0
  0
LINE
  5
1EA
330
57F
100
AcDbEntity
  8
ﾚｲﾔ_1
 62
     5
100
AcDbLine
 10
904.9373697916999
 20
-135.6804815121
 30
0.0
 11
904.9373697916999
 21
-131.6804815121
 31
0.0
  0
LINE
  5
1EB
330
57F
100
AcDbEntity
  8
ﾚｲﾔ_1
 62
     5
100
AcDbLine
 10
904.9373697916999
 20
-111.6804815121
 30
0.0
 11
903.9373697917
 21
-111.6804815121
 31
0.0
  0
LINE
  5
1EC
330
57F
100
AcDbEntity
  8
ﾚｲﾔ_1
 62
     5
100
AcDbLine
 10
902.4373697916999
 20
-113.1804815121
 30
0.0
 11
902.4373697916999
 21
-121.6804815121
 31
0.0
  0
LINE
  5
1ED
330
57F
100
AcDbEntity
  8
ﾚｲﾔ_1
 62
     5
100
AcDbLine
 10
841.4373697917
 20
-113.1804815121
 30
0.0
 11
841.4373697917
 21
-121.6804815121
 31
0.0
  0
LINE
  5
1EE
330
57F
100
AcDbEntity
  8
ﾚｲﾔ_1
  6
BORDER
 62
     3
100
AcDbLine
 10
908.9816005609
 20
-173.6394815121
 30
0.0
 11
900.1892928686
 21
-173.6394815121
 31
0.0
  0
LINE
  5
1EF
330
57F
100
AcDbEntity
  8
ﾚｲﾔ_1
  6
BORDER
 62
     3
100
AcDbLine
 10
912.3153612447
 20
-121.6804815121
 30
0.0
 11
835.0298911592
 21
-121.6804815121
 31
0.0
  0
ARC
  5
1F0
330
57F
100
AcDbEntity
  8
ﾚｲﾔ_1
 62
     5
100
AcDbCircle
 10
903.9373697917
 20
-130.1804815121
 30
0.0
 40
1.5
100
AcDbArc
 50
180.0
 51
270.0
  0
LINE
  5
1F1
330
57F
100
AcDbEntity
  8
ﾚｲﾔ_1
 62
     5
100
AcDbLine
 10
906.4373697917
 20
-135.6804815121
 30
0.0
 11
906.4373697917
 21
-131.6804815121
 31
0.0
  0
LINE
  5
1F2
330
57F
100
AcDbEntity
  8
ﾚｲﾔ_1
 62
     5
100
AcDbLine
 10
904.9373697916999
 20
-164.1393490335
 30
0.0
 11
904.9373697916999
 21
-160.6393490335
 31
0.0
  0
LINE
  5
1F3
330
57F
100
AcDbEntity
  8
ﾚｲﾔ_1
 62
     5
100
AcDbLine
 10
904.9373697916999
 20
-183.6393490335
 30
0.0
 11
904.9373697916999
 21
-164.1393490335
 31
0.0
  0
ARC
  5
1F4
330
57F
100
AcDbEntity
  8
ﾚｲﾔ_1
 62
     5
100
AcDbCircle
 10
902.4373697916999
 20
-183.6393490335
 30
0.0
 40
4.0
100
AcDbArc
 50
270.0
 51
0.0
  0
ARC
  5
1F5
330
57F
100
AcDbEntity
  8
ﾚｲﾔ_1
 62
     5
100
AcDbCircle
 10
901.4373697916999
 20
-182.6393490335
 30
0.0
 40
1.0
100
AcDbArc
 50
270.0
 51
0.0
  0
ARC
  5
1F6
330
57F
100
AcDbEntity
  8
ﾚｲﾔ_1
 62
     5
100
AcDbCircle
 10
904.4373697917
 20
-166.6393490335
 30
0.0
 40
2.0
100
AcDbArc
 50
90.0
 51
180.0
  0
ARC
  5
1F7
330
57F
100
AcDbEntity
  8
ﾚｲﾔ_1
 62
     5
100
AcDbCircle
 10
904.4373697917
 20
-164.1393490335
 30
0.0
 40
0.5
100
AcDbArc
 50
270.0
 51
0.0
  0
LINE
  5
1F8
330
57F
100
AcDbEntity
  8
ﾚｲﾔ_1
 62
     5
100
AcDbLine
 10
902.4373697916999
 20
-166.6393490335
 30
0.0
 11
902.4373697916999
 21
-182.6393490335
 31
0.0
  0
LINE
  5
1F9
330
57F
100
AcDbEntity
  8
ﾚｲﾔ_1
 62
     5
100
AcDbLine
 10
841.4373697917
 20
-130.1804815121
 30
0.0
 11
841.4373697917
 21
-121.6804815121
 31
0.0
  0
LINE
  5
1FA
330
57F
100
AcDbEntity
  8
ﾚｲﾔ_1
 62
     5
100
AcDbLine
 10
843.4373697916999
 20
-130.1804815121
 30
0.0
 11
842.9373697917
 21
-130.1804815121
 31
0.0
  0
LINE
  5
1FB
330
57F
100
AcDbEntity
  8
ﾚｲﾔ_1
 62
     5
100
AcDbLine
 10
843.4373697916999
 20
-131.6804815121
 30
0.0
 11
842.9373697917
 21
-131.6804815121
 31
0.0
  0
LINE
  5
1FC
330
57F
100
AcDbEntity
  8
ﾚｲﾔ_1
 62
     5
100
AcDbLine
 10
843.4373697916999
 20
-111.6804815121
 30
0.0
 11
842.9373697917
 21
-111.6804815121
 31
0.0
  0
LINE
  5
1FD
330
57F
100
AcDbEntity
  8
ﾚｲﾔ_1
 62
     5
100
AcDbLine
 10
842.9373697917
 20
-130.1804815121
 30
0.0
 11
842.9373697917
 21
-121.6804815121
 31
0.0
  0
ARC
  5
1FE
330
57F
100
AcDbEntity
  8
ﾚｲﾔ_1
 62
     5
100
AcDbCircle
 10
842.9373697917
 20
-130.1804815121
 30
0.0
 40
1.5
100
AcDbArc
 50
180.0
 51
270.0
  0
ARC
  5
1FF
330
57F
100
AcDbEntity
  8
ﾚｲﾔ_1
 62
     5
100
AcDbCircle
 10
842.9373697917
 20
-113.1804815121
 30
0.0
 40
1.5
100
AcDbArc
 50
90.0
 51
180.0
  0
LINE
  5
200
330
57F
100
AcDbEntity
  8
ﾚｲﾔ_1
 62
     5
100
AcDbLine
 10
842.9373697917
 20
-113.1804815121
 30
0.0
 11
842.9373697917
 21
-121.6804815121
 31
0.0
  0
ARC
  5
201
330
57F
100
AcDbEntity
  8
ﾚｲﾔ_1
 62
     5
100
AcDbCircle
 10
843.4373697916999
 20
-132.1804815121
 30
0.0
 40
0.5
100
AcDbArc
 50
0.0
 51
90.0
  0
LINE
  5
202
330
57F
100
AcDbEntity
  8
ﾚｲﾔ_1
 62
     5
100
AcDbLine
 10
843.9373697917
 20
-107.6804815121
 30
0.0
 11
843.9373697917
 21
-111.1804815121
 31
0.0
  0
ARC
  5
203
330
57F
100
AcDbEntity
  8
ﾚｲﾔ_1
 62
     5
100
AcDbCircle
 10
843.4373697916999
 20
-111.1804815121
 30
0.0
 40
0.5
100
AcDbArc
 50
270.0
 51
0.0
  0
LINE
  5
204
330
57F
100
AcDbEntity
  8
ﾚｲﾔ_1
 62
     5
100
AcDbLine
 10
843.9373697917
 20
-135.6804815121
 30
0.0
 11
843.9373697917
 21
-132.1804815121
 31
0.0
  0
LINE
  5
205
330
57F
100
AcDbEntity
  8
ﾚｲﾔ_1
 62
     5
100
AcDbLine
 10
845.4373697917
 20
-107.6804815121
 30
0.0
 11
906.4373697917
 21
-107.6804815121
 31
0.0
  0
LINE
  5
206
330
57F
100
AcDbEntity
  8
ﾚｲﾔ_1
 62
     5
100
AcDbLine
 10
845.4373697917
 20
-135.6804815121
 30
0.0
 11
906.4373697917
 21
-135.6804815121
 31
0.0
  0
LINE
  5
207
330
57F
100
AcDbEntity
  8
ﾚｲﾔ_1
 62
     5
100
AcDbLine
 10
904.9373697916999
 20
-130.1804815121
 30
0.0
 11
843.4373697916999
 21
-130.1804815121
 31
0.0
  0
LINE
  5
208
330
57F
100
AcDbEntity
  8
ﾚｲﾔ_1
 62
     5
100
AcDbLine
 10
904.9373697916999
 20
-113.1804815121
 30
0.0
 11
843.4373697916999
 21
-113.1804815121
 31
0.0
  0
LINE
  5
209
330
57F
100
AcDbEntity
  8
ﾚｲﾔ_1
  6
STITCH
100
AcDbLine
 10
777.5184895833
 20
-186.6393490335
 30
0.0
 11
776.0184895833
 21
-186.6393490335
 31
0.0
  0
LINE
  5
20A
330
57F
100
AcDbEntity
  8
ﾚｲﾔ_1
  6
STITCH
100
AcDbLine
 10
906.2480299634
 20
-176.9501416839
 30
0.0
 11
906.2480299634
 21
-170.3288213403
 31
0.0
  0
LINE
  5
20B
330
57F
100
AcDbEntity
  8
ﾚｲﾔ_1
  6
STITCH
100
AcDbLine
 10
902.4373697916999
 20
-178.6394815121
 30
0.0
 11
905.1873697917001
 21
-175.8894815121
 31
0.0
  0
LINE
  5
20C
330
57F
100
AcDbEntity
  8
ﾚｲﾔ_1
  6
STITCH
100
AcDbLine
 10
905.1873697917001
 20
-175.8894815121
 30
0.0
 11
906.2480299634
 21
-176.9501416839
 31
0.0
  0
LINE
  5
20D
330
57F
100
AcDbEntity
  8
ﾚｲﾔ_1
  6
STITCH
100
AcDbLine
 10
906.2480299634
 20
-170.3288213403
 30
0.0
 11
903.9373697917
 21
-168.0181611686
 31
0.0
  0
LINE
  5
20E
330
57F
100
AcDbEntity
  8
ﾚｲﾔ_1
  6
STITCH
100
AcDbLine
 10
906.2480299634
 20
-176.9501416839
 30
0.0
 11
903.9373697917
 21
-179.2608018557
 31
0.0
  0
INSERT
  5
20F
330
57F
100
AcDbEntity
  8
0
  6
Continuous
100
AcDbBlockReference
  2
*U50
 10
0.0
 20
0.0
 30
0.0
  0
LINE
  5
210
330
57F
100
AcDbEntity
  8
ﾚｲﾔ_1
100
AcDbLine
 10
789.5745783665
 20
-169.1244902076
 30
0.0
 11
824.0679394942999
 21
-135.0310515487
 31
0.0
  0
SOLID
  5
211
330
57F
100
AcDbEntity
  8
ﾚｲﾔ_1
100
AcDbTrace
 10
789.5745783665
 20
-169.1244902076
 30
0.0
 11
791.4191017572997
 21
-165.972272731
 31
0.0
 12
791.4113071086999
 22
-167.3090568414
 32
0.0
 13
791.4113071086999
 23
-167.3090568414
 33
0.0
  0
SOLID
  5
212
330
57F
100
AcDbEntity
  8
ﾚｲﾔ_1
100
AcDbTrace
 10
789.5745783665
 20
-169.1244902076
 30
0.0
 11
792.7480912191001
 21
-167.3168514899
 31
0.0
 12
791.4113071086999
 22
-167.3090568414
 32
0.0
 13
791.4113071086999
 23
-167.3090568414
 33
0.0
  0
LINE
  5
213
330
57F
100
AcDbEntity
  8
ﾚｲﾔ_1
100
AcDbLine
 10
824.0679394942999
 20
-135.0310515487
 30
0.0
 11
781.6562499999999
 21
-135.0310515487
 31
0.0
  0
ARC
  5
214
330
57F
100
AcDbEntity
  8
ﾚｲﾔ_1
 62
     5
100
AcDbCircle
 10
848.4373697917
 20
-190.6393490335
 30
0.0
 40
3.0
100
AcDbArc
 50
90.0
 51
180.0
  0
ARC
  5
215
330
57F
100
AcDbEntity
  8
ﾚｲﾔ_1
 62
     5
100
AcDbCircle
 10
848.4373697917
 20
-190.6393490335
 30
0.0
 40
4.5
100
AcDbArc
 50
90.0
 51
180.0
  0
LINE
  5
216
330
57F
100
AcDbEntity
  8
ﾚｲﾔ_1
 62
     5
100
AcDbLine
 10
845.4373697917
 20
-135.6804815121
 30
0.0
 11
843.9373697917
 21
-135.6804815121
 31
0.0
  0
LINE
  5
217
330
57F
100
AcDbEntity
  8
ﾚｲﾔ_1
 62
     5
100
AcDbLine
 10
845.4373697917
 20
-107.6804815121
 30
0.0
 11
843.9373697917
 21
-107.6804815121
 31
0.0
  0
LINE
  5
218
330
57F
100
AcDbEntity
  8
ﾚｲﾔ_1
 62
     5
100
AcDbLine
 10
903.9373697917
 20
-113.1804815121
 30
0.0
 11
903.9373697917
 21
-116.0591611686
 31
0.0
  0
LINE
  5
219
330
57F
100
AcDbEntity
  8
ﾚｲﾔ_1
 62
     5
100
AcDbLine
 10
904.9373697916999
 20
-107.6804815121
 30
0.0
 11
904.9373697916999
 21
-111.6804815121
 31
0.0
  0
LINE
  5
21A
330
57F
100
AcDbEntity
  8
ﾚｲﾔ_1
 62
     5
100
AcDbLine
 10
903.9373697917
 20
-127.3018018557
 30
0.0
 11
903.9373697917
 21
-116.0591611686
 31
0.0
  0
LINE
  5
21B
330
57F
100
AcDbEntity
  8
ﾚｲﾔ_1
 62
     5
100
AcDbLine
 10
902.4373697916999
 20
-130.1804815121
 30
0.0
 11
902.4373697916999
 21
-121.6804815121
 31
0.0
  0
ARC
  5
21C
330
57F
100
AcDbEntity
  8
ﾚｲﾔ_1
 62
     5
100
AcDbCircle
 10
903.9373697917
 20
-113.1804815121
 30
0.0
 40
1.5
100
AcDbArc
 50
90.0
 51
180.0
  0
LINE
  5
21D
330
57F
100
AcDbEntity
  8
ﾚｲﾔ_1
 62
     5
100
AcDbLine
 10
903.9373697917
 20
-130.1804815121
 30
0.0
 11
903.9373697917
 21
-127.3018018557
 31
0.0
  0
ARC
  5
21E
330
57F
100
AcDbEntity
  8
ﾚｲﾔ_1
 62
     5
100
AcDbCircle
 10
904.9373697916999
 20
-131.6804815121
 30
0.0
 40
1.5
100
AcDbArc
 50
0.0
 51
90.0
  0
LINE
  5
21F
330
57F
100
AcDbEntity
  8
ﾚｲﾔ_1
 62
     5
100
AcDbLine
 10
906.4373697917
 20
-131.6804815121
 30
0.0
 11
906.4373697917
 21
-121.6804815121
 31
0.0
  0
LINE
  5
220
330
57F
100
AcDbEntity
  8
ﾚｲﾔ_1
 62
     5
100
AcDbLine
 10
906.4373697917
 20
-111.6804815121
 30
0.0
 11
906.4373697917
 21
-121.6804815121
 31
0.0
  0
ARC
  5
221
330
57F
100
AcDbEntity
  8
ﾚｲﾔ_1
 62
     5
100
AcDbCircle
 10
904.9373697916999
 20
-111.6804815121
 30
0.0
 40
1.5
100
AcDbArc
 50
270.0
 51
0.0
  0
LINE
  5
222
330
57F
100
AcDbEntity
  8
ﾚｲﾔ_1
 62
     5
100
AcDbLine
 10
906.4373697917
 20
-107.6804815121
 30
0.0
 11
906.4373697917
 21
-111.6804815121
 31
0.0
  0
LINE
  5
223
330
57F
100
AcDbEntity
  8
ﾚｲﾔ_1
 62
     5
100
AcDbLine
 10
904.9373697916999
 20
-131.6804815121
 30
0.0
 11
903.9373697917
 21
-131.6804815121
 31
0.0
  0
CIRCLE
  5
224
330
57F
100
AcDbEntity
  8
ﾚｲﾔ_1
 62
     5
100
AcDbCircle
 10
786.0184895833
 20
-172.6393490335
 30
0.0
 40
5.0
  0
CIRCLE
  5
225
330
57F
100
AcDbEntity
  8
ﾚｲﾔ_1
 62
     5
100
AcDbCircle
 10
786.0184895833
 20
-172.6393490335
 30
0.0
 40
2.25
  0
LINE
  5
226
330
57F
100
AcDbEntity
  8
ﾚｲﾔ_1
 62
     5
100
AcDbLine
 10
793.5184895833
 20
-182.6393490335
 30
0.0
 11
778.5184895833
 21
-182.6393490335
 31
0.0
  0
ARC
  5
227
330
57F
100
AcDbEntity
  8
ﾚｲﾔ_1
 62
     5
100
AcDbCircle
 10
778.5184895833
 20
-185.1393490335
 30
0.0
 40
2.5
100
AcDbArc
 50
90.0
 51
180.0
  0
ARC
  5
228
330
57F
100
AcDbEntity
  8
ﾚｲﾔ_1
 62
     5
100
AcDbCircle
 10
793.5184895833
 20
-185.1393490335
 30
0.0
 40
2.5
100
AcDbArc
 50
0.0
 51
90.0
  0
ARC
  5
229
330
57F
100
AcDbEntity
  8
ﾚｲﾔ_1
 62
     5
100
AcDbCircle
 10
786.0184895833
 20
-190.6393490335
 30
0.0
 40
26.0
100
AcDbArc
 50
67.380135052
 51
112.619864948
  0
LINE
  5
22A
330
57F
100
AcDbEntity
  8
ﾚｲﾔ_1
 62
     5
100
AcDbLine
 10
796.0184895833
 20
-185.1393490335
 30
0.0
 11
796.0184895833
 21
-166.6393490335
 31
0.0
  0
LINE
  5
22B
330
57F
100
AcDbEntity
  8
ﾚｲﾔ_1
 62
     5
100
AcDbLine
 10
776.0184895833
 20
-185.1393490335
 30
0.0
 11
776.0184895833
 21
-166.6393490335
 31
0.0
  0
LINE
  5
22C
330
57F
100
AcDbEntity
  8
ﾚｲﾔ_1
100
AcDbLine
 10
848.4373697917
 20
-187.6393490335
 30
0.0
 11
877.4151445802997
 21
-195.4039203866
 31
0.0
  0
ARC
  5
22D
330
57F
100
AcDbEntity
  8
ﾚｲﾔ_1
 62
     5
100
AcDbCircle
 10
902.4373697916999
 20
-183.6393490335
 30
0.0
 40
2.5
100
AcDbArc
 50
270.0
 51
0.0
  0
LINE
  5
22E
330
57F
100
AcDbEntity
  8
ﾚｲﾔ_1
 62
     5
100
AcDbLine
 10
906.4373697917
 20
-183.6393490335
 30
0.0
 11
906.4373697917
 21
-164.6393490335
 31
0.0
  0
LINE
  5
22F
330
57F
100
AcDbEntity
  8
ﾚｲﾔ_1
 62
     5
100
AcDbLine
 10
906.4373697917
 20
-164.6393490335
 30
0.0
 11
906.4373697917
 21
-160.6393490335
 31
0.0
  0
LINE
  5
230
330
57F
100
AcDbEntity
  8
ﾚｲﾔ_1
  6
STITCH
100
AcDbLine
 10
905.1873697917001
 20
-171.3894815121
 30
0.0
 11
906.2480299634
 21
-170.3288213403
 31
0.0
  0
LINE
  5
231
330
57F
100
AcDbEntity
  8
ﾚｲﾔ_1
  6
STITCH
100
AcDbLine
 10
902.4373697916999
 20
-168.6394815121
 30
0.0
 11
905.1873697917001
 21
-171.3894815121
 31
0.0
  0
ARC
  5
232
330
57F
100
AcDbEntity
  8
ﾚｲﾔ_1
  6
STITCH
100
AcDbCircle
 10
901.9373697917
 20
-183.1393490335
 30
0.0
 40
2.0
100
AcDbArc
 50
270.0
 51
0.0
  0
LINE
  5
233
330
57F
100
AcDbEntity
  8
ﾚｲﾔ_1
  6
STITCH
100
AcDbLine
 10
903.9373697917
 20
-166.6393490335
 30
0.0
 11
903.9373697917
 21
-183.1393490335
 31
0.0
  0
LINE
  5
234
330
57F
100
AcDbEntity
  8
ﾚｲﾔ_1
  6
STITCH
100
AcDbLine
 10
848.4373697917
 20
-185.1393490335
 30
0.0
 11
901.9373697917
 21
-185.1393490335
 31
0.0
  0
ARC
  5
235
330
57F
100
AcDbEntity
  8
ﾚｲﾔ_1
  6
STITCH
100
AcDbCircle
 10
848.4373697917
 20
-190.6393490335
 30
0.0
 40
5.5
100
AcDbArc
 50
90.0
 51
180.0
  0
LINE
  5
236
330
57F
100
AcDbEntity
  8
ﾚｲﾔ_1
 62
     5
100
AcDbLine
 10
906.4373697917
 20
-160.6393490335
 30
0.0
 11
904.9373697916999
 21
-160.6393490335
 31
0.0
  0
ARC
  5
237
330
57F
100
AcDbEntity
  8
ﾚｲﾔ_1
 62
     5
100
AcDbCircle
 10
786.0184895833
 20
-190.6393490335
 30
0.0
 40
30.0
100
AcDbArc
 50
62.18186071529999
 51
117.8181392847
  0
LINE
  5
238
330
57F
100
AcDbEntity
  8
ﾚｲﾔ_1
  6
STITCH
100
AcDbLine
 10
796.0184895833
 20
-186.6393490335
 30
0.0
 11
794.5184895833
 21
-186.6393490335
 31
0.0
  0
ARC
  5
239
330
57F
100
AcDbEntity
  8
ﾚｲﾔ_1
  6
STITCH
100
AcDbCircle
 10
778.5184895833
 20
-185.1393490335
 30
0.0
 40
1.0
100
AcDbArc
 50
90.0
 51
180.0
  0
LINE
  5
23A
330
57F
100
AcDbEntity
  8
ﾚｲﾔ_1
  6
STITCH
100
AcDbLine
 10
786.0184895833
 20
-184.1393490335
 30
0.0
 11
778.5184895833
 21
-184.1393490335
 31
0.0
  0
LINE
  5
23B
330
57F
100
AcDbEntity
  8
ﾚｲﾔ_1
  6
STITCH
100
AcDbLine
 10
786.0184895833
 20
-184.1393490335
 30
0.0
 11
793.5184895833
 21
-184.1393490335
 31
0.0
  0
ARC
  5
23C
330
57F
100
AcDbEntity
  8
ﾚｲﾔ_1
  6
STITCH
100
AcDbCircle
 10
793.5184895833
 20
-185.1393490335
 30
0.0
 40
1.0
100
AcDbArc
 50
0.0
 51
90.0
  0
TEXT
  5
5FE
330
57F
100
AcDbEntity
  8
図枠
  6
Continuous
100
AcDbText
 10
867.2326111454315
 20
-325.4123891991686
 30
0.0
 40
2.804999959499999
  1
HL研磨仕上げ
100
AcDbText
  0
ENDSEC
  0
SECTION
  2
OBJECTS
  0
DICTIONARY
  5
51C
330
0
100
AcDbDictionary
281
     1
  3
ACAD_CIP_PREVIOUS_PRODUCT_INFO
350
5FD
  3
ACAD_COLOR
350
572
  3
ACAD_DETAILVIEWSTYLE
350
579
  3
ACAD_GROUP
350
51D
  3
ACAD_LAYOUT
350
571
  3
ACAD_MATERIAL
350
520
  3
ACAD_MLEADERSTYLE
350
575
  3
ACAD_MLINESTYLE
350
56E
  3
ACAD_PLOTSETTINGS
350
570
  3
ACAD_PLOTSTYLENAME
350
51E
  3
ACAD_SCALELIST
350
552
  3
ACAD_SECTIONVIEWSTYLE
350
577
  3
ACAD_TABLESTYLE
350
573
  3
ACAD_VISUALSTYLE
350
539
  3
ACDB_RECOMPOSE_DATA
350
61A
  3
AcDbVariableDictionary
350
60D
  0
DICTIONARY
  5
603
330
564
100
AcDbDictionary
280
     1
281
     1
  3
ADSK_XREC_LAYER_RECONCILED
360
604
  0
DICTIONARY
  5
605
330
58E
100
AcDbDictionary
280
     1
281
     1
  3
ADSK_XREC_LAYER_RECONCILED
360
606
  0
DICTIONARY
  5
607
330
58F
100
AcDbDictionary
280
     1
281
     1
  3
ADSK_XREC_LAYER_RECONCILED
360
608
  0
DICTIONARY
  5
609
330
590
100
AcDbDictionary
280
     1
281
     1
  3
ADSK_XREC_LAYER_RECONCILED
360
60A
  0
DICTIONARY
  5
60B
330
591
100
AcDbDictionary
280
     1
281
     1
  3
ADSK_XREC_LAYER_RECONCILED
360
60C
  0
DICTIONARY
  5
5FF
330
57F
100
AcDbDictionary
280
     1
281
     1
  3
ACAD_SORTENTS
360
600
  0
XRECORD
  5
5FD
102
{ACAD_REACTORS
330
51C
102
}
330
51C
100
AcDbXrecord
280
     1
300
ACDLT
300
2015
300
ACDLT_F_S
  0
DICTIONARY
  5
572
102
{ACAD_REACTORS
330
51C
102
}
330
51C
100
AcDbDictionary
281
     1
  0
DICTIONARY
  5
579
102
{ACAD_REACTORS
330
51C
102
}
330
51C
100
AcDbDictionary
281
     1
  3
Imperial24
350
57A
  0
DICTIONARY
  5
51D
102
{ACAD_REACTORS
330
51C
102
}
330
51C
100
AcDbDictionary
281
     1
  0
DICTIONARY
  5
571
102
{ACAD_REACTORS
330
51C
102
}
330
51C
100
AcDbDictionary
281
     1
  3
Model
350
582
  3
レイアウト1
350
57E
  0
DICTIONARY
  5
520
102
{ACAD_REACTORS
330
51C
102
}
330
51C
100
AcDbDictionary
281
     1
  3
ByBlock
350
529
  3
ByLayer
350
521
  3
Global
350
531
  0
DICTIONARY
  5
575
102
{ACAD_REACTORS
330
51C
102
}
330
51C
100
AcDbDictionary
281
     1
  3
Standard
350
576
  0
DICTIONARY
  5
56E
102
{ACAD_REACTORS
330
51C
102
}
330
51C
100
AcDbDictionary
281
     1
  3
Standard
350
56F
  0
DICTIONARY
  5
570
102
{ACAD_REACTORS
330
51C
102
}
330
51C
100
AcDbDictionary
281
     1
  0
ACDBDICTIONARYWDFLT
  5
51E
102
{ACAD_REACTORS
330
51C
102
}
330
51C
100
AcDbDictionary
281
     1
  3
Normal
350
51F
100
AcDbDictionaryWithDefault
340
51F
  0
DICTIONARY
  5
552
102
{ACAD_REACTORS
330
51C
102
}
330
51C
100
AcDbDictionary
281
     1
  3
A0
350
553
  3
A1
350
554
  3
A2
350
555
  3
A3
350
556
  3
A4
350
557
  3
A5
350
558
  3
A6
350
559
  3
A7
350
55A
  3
A8
350
55B
  3
A9
350
55C
  3
B0
350
55D
  3
B1
350
55E
  3
B2
350
55F
  3
B3
350
560
  3
B4
350
561
  3
B5
350
562
  3
B6
350
563
  0
DICTIONARY
  5
577
102
{ACAD_REACTORS
330
51C
102
}
330
51C
100
AcDbDictionary
281
     1
  3
Imperial24
350
578
  0
DICTIONARY
  5
573
102
{ACAD_REACTORS
330
51C
102
}
330
51C
100
AcDbDictionary
281
     1
  3
Standard
350
574
  0
DICTIONARY
  5
539
102
{ACAD_REACTORS
330
51C
102
}
330
51C
100
AcDbDictionary
281
     1
  3
2dWireframe
350
53F
  3
Basic
350
53E
  3
Brighten
350
545
  3
ColorChange
350
549
  3
Conceptual
350
542
  3
Dim
350
544
  3
EdgeColorOff
350
551
  3
Facepattern
350
548
  3
Flat
350
53A
  3
FlatWithEdges
350
53B
  3
Gouraud
350
53C
  3
GouraudWithEdges
350
53D
  3
Hidden
350
541
  3
JitterOff
350
54F
  3
Linepattern
350
547
  3
OverhangOff
350
550
  3
Realistic
350
543
  3
Shaded
350
54E
  3
Shaded with edges
350
54D
  3
Shades of Gray
350
54A
  3
Sketchy
350
54B
  3
Thicken
350
546
  3
Wireframe
350
540
  3
X-Ray
350
54C
  0
XRECORD
  5
61A
102
{ACAD_REACTORS
330
51C
102
}
330
51C
100
AcDbXrecord
280
     1
 90
        1
330
574
  0
DICTIONARY
  5
60D
102
{ACAD_REACTORS
330
51C
102
}
330
51C
100
AcDbDictionary
281
     1
  3
CANNOSCALE
350
613
  3
CMLEADERSTYLE
350
60F
  3
CTABLESTYLE
350
60E
  3
CVIEWDETAILSTYLE
350
610
  3
CVIEWSECTIONSTYLE
350
611
  3
LAYEREVAL
350
615
  3
LAYERNOTIFY
350
616
  3
LIGHTINGUNITS
350
614
  3
MSLTSCALE
350
612
  0
XRECORD
  5
604
102
{ACAD_REACTORS
330
603
102
}
330
603
100
AcDbXrecord
280
     1
290
     1
  0
XRECORD
  5
606
102
{ACAD_REACTORS
330
605
102
}
330
605
100
AcDbXrecord
280
     1
290
     1
  0
XRECORD
  5
608
102
{ACAD_REACTORS
330
607
102
}
330
607
100
AcDbXrecord
280
     1
290
     1
  0
XRECORD
  5
60A
102
{ACAD_REACTORS
330
609
102
}
330
609
100
AcDbXrecord
280
     1
290
     1
  0
XRECORD
  5
60C
102
{ACAD_REACTORS
330
60B
102
}
330
60B
100
AcDbXrecord
280
     1
290
     1
  0
SORTENTSTABLE
  5
600
102
{ACAD_REACTORS
330
5FF
102
}
330
5FF
100
AcDbSortentsTable
330
57F
331
234
  5
235
331
223
  5
224
331
212
  5
213
331
201
  5
202
331
1F0
  5
1F1
331
1E1
  5
1E2
331
1D0
  5
1D1
331
1BF
  5
1C0
331
1AE
  5
1AF
331
17D
  5
17E
331
72
  5
72
331
235
  5
236
331
224
  5
225
331
213
  5
214
331
202
  5
203
331
1F1
  5
1F2
331
1E2
  5
1E3
331
1D1
  5
1D2
331
1C0
  5
1C1
331
1AF
  5
1B0
331
17E
  5
17F
331
16D
  5
16E
331
236
  5
237
331
225
  5
226
331
214
  5
215
331
203
  5
204
331
1F2
  5
1F3
331
1E3
  5
1E4
331
1D2
  5
1D3
331
1C1
  5
1C2
331
1B0
  5
1B1
331
17F
  5
180
331
16E
  5
16F
331
1A4
  5
1A5
331
237
  5
238
331
226
  5
227
331
215
  5
216
331
204
  5
205
331
1F3
  5
1F4
331
1E4
  5
1E5
331
1D3
  5
1D4
331
1C2
  5
1C3
331
1B1
  5
1B2
331
180
  5
181
331
16F
  5
170
331
1A5
  5
1A6
331
227
  5
228
331
216
  5
217
331
205
  5
206
331
1F4
  5
1F5
331
238
  5
239
331
1E5
  5
1E6
331
1D4
  5
1D5
331
1C3
  5
1C4
331
1B2
  5
1B3
331
181
  5
182
331
170
  5
171
331
1A6
  5
1A7
331
195
  5
1A4
331
2F
  5
2F
331
228
  5
229
331
217
  5
218
331
206
  5
207
331
1F5
  5
1F6
331
239
  5
23A
331
1E6
  5
1E7
331
1D5
  5
1D6
331
1C4
  5
1C5
331
1B3
  5
1B4
331
182
  5
183
331
171
  5
172
331
1A7
  5
1A8
331
9F
  5
9F
331
30
  5
30
331
23A
  5
23B
331
229
  5
22A
331
218
  5
219
331
207
  5
208
331
1F6
  5
1F7
331
1E7
  5
1E8
331
1D6
  5
1D7
331
1C5
  5
1C6
331
1B4
  5
1B5
331
183
  5
184
331
172
  5
173
331
1E8
  5
1E9
331
22A
  5
22B
331
219
  5
21A
331
208
  5
209
331
1F7
  5
1F8
331
90
  5
90
331
23B
  5
23C
331
1D7
  5
1D8
331
1C6
  5
1C7
331
1B5
  5
1B6
331
184
  5
185
331
173
  5
174
331
32
  5
32
331
22B
  5
22C
331
21A
  5
21B
331
209
  5
20A
331
1F8
  5
1F9
331
1E9
  5
1EA
331
1D8
  5
1D9
331
23C
  5
5FE
331
1C7
  5
1C8
331
1B6
  5
1B7
331
185
  5
186
331
174
  5
175
331
33
  5
33
331
1EA
  5
1EB
331
1D9
  5
1DA
331
1C8
  5
1C9
331
22C
  5
22D
331
21B
  5
21C
331
20A
  5
20B
331
1F9
  5
1FA
331
BD
  5
BD
331
1B7
  5
1B8
331
186
  5
195
331
175
  5
176
331
34
  5
34
331
1C9
  5
1CA
331
1B8
  5
1B9
331
22D
  5
22E
331
21C
  5
21D
331
20B
  5
20C
331
1FA
  5
1FB
331
1EB
  5
1EC
331
1DA
  5
1DB
331
176
  5
177
331
161
  5
161
331
1CA
  5
1CB
331
1B9
  5
1BA
331
1A8
  5
1A9
331
162
  5
162
331
1EC
  5
1ED
331
1DB
  5
1DC
331
22E
  5
22F
331
21D
  5
21E
331
20C
  5
20D
331
1FB
  5
1FC
331
177
  5
178
331
AE
  5
AE
331
63
  5
63
331
1CB
  5
1CC
331
1BA
  5
1BB
331
1A9
  5
1AA
331
178
  5
179
331
1ED
  5
1EE
331
1DC
  5
1DD
331
163
  5
163
331
22F
  5
230
331
21E
  5
21F
331
20D
  5
20E
331
1FC
  5
1FD
331
C0
  5
C0
331
230
  5
231
331
1BB
  5
1BC
331
1AA
  5
1AB
331
179
  5
17A
331
168
  5
168
331
1CC
  5
1CD
331
20E
  5
20F
331
1FD
  5
1FE
331
1EE
  5
1EF
331
1DD
  5
1DE
331
21F
  5
220
331
5FE
  5
16D
331
164
  5
164
331
54
  5
54
331
231
  5
232
331
220
  5
221
331
1CD
  5
1CE
331
1BC
  5
1BD
331
1AB
  5
1AC
331
17A
  5
17B
331
169
  5
169
331
20F
  5
210
331
1FE
  5
1FF
331
1EF
  5
1F0
331
1DE
  5
1DF
331
165
  5
165
331
232
  5
233
331
221
  5
222
331
210
  5
211
331
1AC
  5
1AD
331
17B
  5
17C
331
16A
  5
16A
331
1CE
  5
1CF
331
1BD
  5
1BE
331
1DF
  5
1E0
331
166
  5
166
331
1FF
  5
200
331
81
  5
81
331
45
  5
45
331
233
  5
234
331
222
  5
223
331
211
  5
212
331
200
  5
201
331
1CF
  5
1D0
331
1BE
  5
1BF
331
1AD
  5
1AE
331
17C
  5
17D
331
16B
  5
16B
331
1E0
  5
1E1
331
167
  5
167
  0
ACDBDETAILVIEWSTYLE
  5
57A
102
{ACAD_XDICTIONARY
360
64D
102
}
102
{ACAD_REACTORS
330
579
102
}
330
579
100
AcDbModelDocViewStyle
 70
     0
  3
Imperial24
290
     0
100
AcDbDetailViewStyle
 70
     0
 71
     0
 90
        3
 71
     1
340
565
 62
   256
 40
0.24
340
0
 62
   256
 40
0.24
300

 40
0.36
280
     3
 71
     2
340
56C
 90
       25
 62
   256
 71
     3
340
565
 62
   256
 40
0.24
 90
        1
 40
0.75
 90
        1
300
%<\AcVar ViewType \f "%tc1">% %<\AcVar ViewDetailId>%\PSCALE %<\AcVar ViewScale \f "%sn">%
 71
     4
340
56C
 90
       25
 62
   256
340
56C
 90
       25
 62
   256
280
     0
  0
LAYOUT
  5
582
102
{ACAD_REACTORS
330
571
102
}
330
571
100
AcDbPlotSettings
  1

  2
EPSON PX-1700F
  4

  6

 40
0.0
 41
0.0
 42
0.0
 43
0.0
 44
0.0
 45
0.0
 46
0.0
 47
0.0
 48
0.0
 49
0.0
140
0.0
141
0.0
142
1.0
143
1.0
 70
  1712
 72
     0
 73
     0
 74
     0
  7

 75
     0
147
1.0
 76
     0
 77
     2
 78
   300
148
0.0
149
0.0
100
AcDbLayout
  1
Model
 70
     1
 71
     0
 10
0.0
 20
0.0
 11
12.0
 21
9.0
 12
0.0
 22
0.0
 32
0.0
 14
0.0
 24
0.0
 34
0.0
 15
0.0
 25
0.0
 35
0.0
146
0.0
 13
0.0
 23
0.0
 33
0.0
 16
1.0
 26
0.0
 36
0.0
 17
0.0
 27
1.0
 37
0.0
 76
     0
330
57F
331
583
  0
LAYOUT
  5
57E
102
{ACAD_REACTORS
330
571
102
}
330
571
100
AcDbPlotSettings
  1

  2
EPSON PX-1700F
  4

  6

 40
0.0
 41
0.0
 42
0.0
 43
0.0
 44
0.0
 45
0.0
 46
0.0
 47
0.0
 48
0.0
 49
0.0
140
0.0
141
0.0
142
1.0
143
1.0
 70
   688
 72
     0
 73
     0
 74
     5
  7

 75
    16
147
1.0
 76
     0
 77
     2
 78
   300
148
0.0
149
0.0
100
AcDbLayout
  1
レイアウト1
 70
     0
 71
     1
 10
0.0
 20
0.0
 11
12.0
 21
9.0
 12
0.0
 22
0.0
 32
0.0
 14
1.000000000000000E+20
 24
1.000000000000000E+20
 34
1.000000000000000E+20
 15
-1.000000000000000E+20
 25
-1.000000000000000E+20
 35
-1.000000000000000E+20
146
0.0
 13
0.0
 23
0.0
 33
0.0
 16
1.0
 26
0.0
 36
0.0
 17
0.0
 27
1.0
 37
0.0
 76
     0
330
57B
  0
MATERIAL
  5
529
102
{ACAD_XDICTIONARY
360
52A
102
}
102
{ACAD_REACTORS
330
520
102
}
330
520
100
AcDbMaterial
  1
ByBlock
 72
     0
 43
0.0208333333333333
 43
0.0
 43
0.0
 43
0.0
 43
0.0
 43
0.0208333333333333
 43
0.0
 43
0.0
 43
0.0
 43
0.0
 43
1.0
 43
0.0
 43
0.0
 43
0.0
 43
0.0
 43
1.0
 77
     0
 47
0.0208333333333333
 47
0.0
 47
0.0
 47
0.0
 47
0.0
 47
0.0208333333333333
 47
0.0
 47
0.0
 47
0.0
 47
0.0
 47
1.0
 47
0.0
 47
0.0
 47
0.0
 47
0.0
 47
1.0
171
     0
 49
0.0208333333333333
 49
0.0
 49
0.0
 49
0.0
 49
0.0
 49
0.0208333333333333
 49
0.0
 49
0.0
 49
0.0
 49
0.0
 49
1.0
 49
0.0
 49
0.0
 49
0.0
 49
0.0
 49
1.0
175
     0
142
0.0208333333333333
142
0.0
142
0.0
142
0.0
142
0.0
142
0.0208333333333333
142
0.0
142
0.0
142
0.0
142
0.0
142
1.0
142
0.0
142
0.0
142
0.0
142
0.0
142
1.0
179
     0
144
0.0208333333333333
144
0.0
144
0.0
144
0.0
144
0.0
144
0.0208333333333333
144
0.0
144
0.0
144
0.0
144
0.0
144
1.0
144
0.0
144
0.0
144
0.0
144
0.0
144
1.0
147
0.0208333333333333
147
0.0
147
0.0
147
0.0
147
0.0
147
0.0208333333333333
147
0.0
147
0.0
147
0.0
147
0.0
147
1.0
147
0.0
147
0.0
147
0.0
147
0.0
147
1.0
  0
MATERIAL
  5
521
102
{ACAD_XDICTIONARY
360
522
102
}
102
{ACAD_REACTORS
330
520
102
}
330
520
100
AcDbMaterial
  1
ByLayer
 72
     0
 43
0.0208333333333333
 43
0.0
 43
0.0
 43
0.0
 43
0.0
 43
0.0208333333333333
 43
0.0
 43
0.0
 43
0.0
 43
0.0
 43
1.0
 43
0.0
 43
0.0
 43
0.0
 43
0.0
 43
1.0
 77
     0
 47
0.0208333333333333
 47
0.0
 47
0.0
 47
0.0
 47
0.0
 47
0.0208333333333333
 47
0.0
 47
0.0
 47
0.0
 47
0.0
 47
1.0
 47
0.0
 47
0.0
 47
0.0
 47
0.0
 47
1.0
171
     0
 49
0.0208333333333333
 49
0.0
 49
0.0
 49
0.0
 49
0.0
 49
0.0208333333333333
 49
0.0
 49
0.0
 49
0.0
 49
0.0
 49
1.0
 49
0.0
 49
0.0
 49
0.0
 49
0.0
 49
1.0
175
     0
142
0.0208333333333333
142
0.0
142
0.0
142
0.0
142
0.0
142
0.0208333333333333
142
0.0
142
0.0
142
0.0
142
0.0
142
1.0
142
0.0
142
0.0
142
0.0
142
0.0
142
1.0
179
     0
144
0.0208333333333333
144
0.0
144
0.0
144
0.0
144
0.0
144
0.0208333333333333
144
0.0
144
0.0
144
0.0
144
0.0
144
1.0
144
0.0
144
0.0
144
0.0
144
0.0
144
1.0
147
0.0208333333333333
147
0.0
147
0.0
147
0.0
147
0.0
147
0.0208333333333333
147
0.0
147
0.0
147
0.0
147
0.0
147
1.0
147
0.0
147
0.0
147
0.0
147
0.0
147
1.0
  0
MATERIAL
  5
531
102
{ACAD_XDICTIONARY
360
532
102
}
102
{ACAD_REACTORS
330
520
102
}
330
520
100
AcDbMaterial
  1
Global
 72
     0
 43
0.0208333333333333
 43
0.0
 43
0.0
 43
0.0
 43
0.0
 43
0.0208333333333333
 43
0.0
 43
0.0
 43
0.0
 43
0.0
 43
1.0
 43
0.0
 43
0.0
 43
0.0
 43
0.0
 43
1.0
 77
     0
 47
0.0208333333333333
 47
0.0
 47
0.0
 47
0.0
 47
0.0
 47
0.0208333333333333
 47
0.0
 47
0.0
 47
0.0
 47
0.0
 47
1.0
 47
0.0
 47
0.0
 47
0.0
 47
0.0
 47
1.0
171
     0
 49
0.0208333333333333
 49
0.0
 49
0.0
 49
0.0
 49
0.0
 49
0.0208333333333333
 49
0.0
 49
0.0
 49
0.0
 49
0.0
 49
1.0
 49
0.0
 49
0.0
 49
0.0
 49
0.0
 49
1.0
175
     0
142
0.0208333333333333
142
0.0
142
0.0
142
0.0
142
0.0
142
0.0208333333333333
142
0.0
142
0.0
142
0.0
142
0.0
142
1.0
142
0.0
142
0.0
142
0.0
142
0.0
142
1.0
179
     0
144
0.0208333333333333
144
0.0
144
0.0
144
0.0
144
0.0
144
0.0208333333333333
144
0.0
144
0.0
144
0.0
144
0.0
144
1.0
144
0.0
144
0.0
144
0.0
144
0.0
144
1.0
147
0.0208333333333333
147
0.0
147
0.0
147
0.0
147
0.0
147
0.0208333333333333
147
0.0
147
0.0
147
0.0
147
0.0
147
1.0
147
0.0
147
0.0
147
0.0
147
0.0
147
1.0
  0
MLEADERSTYLE
  5
576
102
{ACAD_REACTORS
330
575
102
}
330
575
100
AcDbMLeaderStyle
179
     2
170
     2
171
     1
172
     0
 90
        2
 40
0.0
 41
0.0
173
     1
 91
-1056964608
340
56A
 92
       -2
290
     1
 42
0.09
291
     1
 43
0.36
  3
Standard
 44
0.18
300

342
565
174
     1
178
     6
175
     1
176
     0
 93
-1056964608
 45
0.18
292
     0
297
     0
 46
0.18
 94
-1056964608
 47
1.0
 49
1.0
140
1.0
293
     1
141
0.0
294
     1
177
     0
142
1.0
295
     0
296
     0
143
0.125
271
     0
272
     9
273
     9
  0
MLINESTYLE
  5
56F
102
{ACAD_REACTORS
330
56E
102
}
330
56E
100
AcDbMlineStyle
  2
STANDARD
 70
     0
  3

 62
   256
 51
90.0
 52
90.0
 71
     2
 49
0.5
 62
   256
  6
BYLAYER
 49
-0.5
 62
   256
  6
BYLAYER
  0
ACDBPLACEHOLDER
  5
51F
102
{ACAD_REACTORS
330
51E
102
}
330
51E
  0
SCALE
  5
553
102
{ACAD_REACTORS
330
552
102
}
330
552
100
AcDbScale
 70
     0
300
1:1
140
1.0
141
1.0
290
     1
  0
SCALE
  5
554
102
{ACAD_REACTORS
330
552
102
}
330
552
100
AcDbScale
 70
     0
300
1/128" = 1'-0"
140
0.0078125
141
12.0
290
     0
  0
SCALE
  5
555
102
{ACAD_REACTORS
330
552
102
}
330
552
100
AcDbScale
 70
     0
300
1/64" = 1'-0"
140
0.015625
141
12.0
290
     0
  0
SCALE
  5
556
102
{ACAD_REACTORS
330
552
102
}
330
552
100
AcDbScale
 70
     0
300
1/32" = 1'-0"
140
0.03125
141
12.0
290
     0
  0
SCALE
  5
557
102
{ACAD_REACTORS
330
552
102
}
330
552
100
AcDbScale
 70
     0
300
1/16" = 1'-0"
140
0.0625
141
12.0
290
     0
  0
SCALE
  5
558
102
{ACAD_REACTORS
330
552
102
}
330
552
100
AcDbScale
 70
     0
300
3/32" = 1'-0"
140
0.09375
141
12.0
290
     0
  0
SCALE
  5
559
102
{ACAD_REACTORS
330
552
102
}
330
552
100
AcDbScale
 70
     0
300
1/8" = 1'-0"
140
0.125
141
12.0
290
     0
  0
SCALE
  5
55A
102
{ACAD_REACTORS
330
552
102
}
330
552
100
AcDbScale
 70
     0
300
3/16" = 1'-0"
140
0.1875
141
12.0
290
     0
  0
SCALE
  5
55B
102
{ACAD_REACTORS
330
552
102
}
330
552
100
AcDbScale
 70
     0
300
1/4" = 1'-0"
140
0.25
141
12.0
290
     0
  0
SCALE
  5
55C
102
{ACAD_REACTORS
330
552
102
}
330
552
100
AcDbScale
 70
     0
300
3/8" = 1'-0"
140
0.375
141
12.0
290
     0
  0
SCALE
  5
55D
102
{ACAD_REACTORS
330
552
102
}
330
552
100
AcDbScale
 70
     0
300
1/2" = 1'-0"
140
0.5
141
12.0
290
     0
  0
SCALE
  5
55E
102
{ACAD_REACTORS
330
552
102
}
330
552
100
AcDbScale
 70
     0
300
3/4" = 1'-0"
140
0.75
141
12.0
290
     0
  0
SCALE
  5
55F
102
{ACAD_REACTORS
330
552
102
}
330
552
100
AcDbScale
 70
     0
300
1" = 1'-0"
140
1.0
141
12.0
290
     0
  0
SCALE
  5
560
102
{ACAD_REACTORS
330
552
102
}
330
552
100
AcDbScale
 70
     0
300
1-1/2" = 1'-0"
140
1.5
141
12.0
290
     0
  0
SCALE
  5
561
102
{ACAD_REACTORS
330
552
102
}
330
552
100
AcDbScale
 70
     0
300
3" = 1'-0"
140
3.0
141
12.0
290
     0
  0
SCALE
  5
562
102
{ACAD_REACTORS
330
552
102
}
330
552
100
AcDbScale
 70
     0
300
6" = 1'-0"
140
6.0
141
12.0
290
     0
  0
SCALE
  5
563
102
{ACAD_REACTORS
330
552
102
}
330
552
100
AcDbScale
 70
     0
300
1'-0" = 1'-0"
140
12.0
141
12.0
290
     0
  0
ACDBSECTIONVIEWSTYLE
  5
578
102
{ACAD_XDICTIONARY
360
64B
102
}
102
{ACAD_REACTORS
330
577
102
}
330
577
100
AcDbModelDocViewStyle
 70
     0
  3
Imperial24
290
     0
100
AcDbSectionViewStyle
 70
     0
 71
     0
 90
       78
 71
     1
340
565
 62
   256
 40
0.24
340
0
340
0
 62
   256
 40
0.24
300
I, O, Q, S, X, Z
 40
0.48
 90
        3
 40
0.18
 90
        1
 71
     2
340
56C
 90
       25
 62
   256
340
56C
 90
       50
 62
   256
 40
0.24
 40
0.0
 40
0.24
 71
     3
340
565
 62
   256
 40
0.24
 90
        1
 40
0.75
 90
        1
300
%<\AcVar ViewType \f "%tc1">% %<\AcVar ViewSectionStartId>%-%<\AcVar ViewSectionEndId>%\PSCALE %<\AcVar ViewScale \f "%sn">%
 71
     4
 62
   256
 62
   257
300
ANSI31
 40
1.0
 90
        0
290
     0
290
     0
 90
        6
 40
0.0
 40
1.570796326794896
 40
0.2617993877991494
 40
1.308996938995747
 40
-0.2617993877991494
 40
1.832595714594046
  0
TABLESTYLE
  5
574
102
{ACAD_XDICTIONARY
360
618
102
}
102
{ACAD_REACTORS
330
573
102
}
330
573
100
AcDbTableStyle
280
     0
  3
Standard
 70
     0
 71
     0
 40
0.06
 41
0.06
280
     0
281
     0
  7
STANDARD
140
0.18
170
     2
 62
     0
 63
     7
283
     0
 90
      512
 91
        0
  1

274
    -2
284
     1
 64
     0
275
    -2
285
     1
 65
     0
276
    -2
286
     1
 66
     0
277
    -2
287
     1
 67
     0
278
    -2
288
     1
 68
     0
279
    -2
289
     1
 69
     0
  7
STANDARD
140
0.25
170
     5
 62
     0
 63
     7
283
     0
 90
      512
 91
        0
  1

274
    -2
284
     1
 64
     0
275
    -2
285
     1
 65
     0
276
    -2
286
     1
 66
     0
277
    -2
287
     1
 67
     0
278
    -2
288
     1
 68
     0
279
    -2
289
     1
 69
     0
  7
STANDARD
140
0.18
170
     5
 62
     0
 63
     7
283
     0
 90
      512
 91
        0
  1

274
    -2
284
     1
 64
     0
275
    -2
285
     1
 65
     0
276
    -2
286
     1
 66
     0
277
    -2
287
     1
 67
     0
278
    -2
288
     1
 68
     0
279
    -2
289
     1
 69
     0
  0
VISUALSTYLE
  5
53F
102
{ACAD_XDICTIONARY
360
625
102
}
102
{ACAD_REACTORS
330
539
102
}
330
539
100
AcDbVisualStyle
  2
2dWireframe
 70
     4
177
     2
291
     0
 71
     0
176
     1
 72
     2
176
     1
 73
     0
176
     1
 90
        0
176
     1
 40
0.6
176
     1
 41
30.0
176
     1
 63
     7
421
 16777215
176
     1
 74
     1
176
     1
 91
        4
176
     1
 64
     7
176
     1
 65
   257
176
     1
 75
     1
176
     1
175
     1
176
     1
 42
1.0
176
     1
 92
        0
176
     1
 66
   257
176
     1
 43
1.0
176
     1
 76
     1
176
     1
 77
     6
176
     1
 78
     2
176
     1
 67
     7
176
     1
 79
     5
176
     1
170
     0
176
     1
171
     0
176
     1
290
     0
176
     1
 93
        1
176
     1
 44
0.0
176
     1
173
     0
176
     1
1001
ACAD
1000
AcDbSavedByObjectVersion
1070
     0
  0
VISUALSTYLE
  5
53E
102
{ACAD_XDICTIONARY
360
623
102
}
102
{ACAD_REACTORS
330
539
102
}
330
539
100
AcDbVisualStyle
  2
Basic
 70
     7
177
     2
291
     1
 71
     1
176
     1
 72
     0
176
     1
 73
     1
176
     1
 90
        0
176
     1
 40
0.6
176
     1
 41
30.0
176
     1
 63
     7
421
 16777215
176
     1
 74
     0
176
     1
 91
        4
176
     1
 64
     7
176
     1
 65
   257
176
     1
 75
     1
176
     1
175
     1
176
     1
 42
1.0
176
     1
 92
        8
176
     1
 66
     7
176
     1
 43
1.0
176
     1
 76
     1
176
     1
 77
     6
176
     1
 78
     2
176
     1
 67
     7
176
     1
 79
     5
176
     1
170
     0
176
     1
171
     0
176
     1
290
     0
176
     1
 93
        1
176
     1
 44
0.0
176
     1
173
     0
176
     1
1001
ACAD
1000
AcDbSavedByObjectVersion
1070
     0
  0
VISUALSTYLE
  5
545
102
{ACAD_XDICTIONARY
360
631
102
}
102
{ACAD_REACTORS
330
539
102
}
330
539
100
AcDbVisualStyle
  2
Brighten
 70
    12
177
     2
291
     1
 71
     2
176
     1
 72
     2
176
     1
 73
     0
176
     1
 90
        0
176
     1
 40
0.6
176
     1
 41
30.0
176
     1
 63
     7
421
 16777215
176
     1
 74
     1
176
     1
 91
        4
176
     1
 64
     7
176
     1
 65
   257
176
     1
 75
     1
176
     1
175
     1
176
     1
 42
1.0
176
     1
 92
        8
176
     1
 66
     7
176
     1
 43
1.0
176
     1
 76
     1
176
     1
 77
     6
176
     1
 78
     2
176
     1
 67
     7
176
     1
 79
     5
176
     1
170
     0
176
     1
171
     0
176
     1
290
     0
176
     1
 93
        1
176
     1
 44
50.0
176
     1
173
     0
176
     1
1001
ACAD
1000
AcDbSavedByObjectVersion
1070
     0
  0
VISUALSTYLE
  5
549
102
{ACAD_XDICTIONARY
360
639
102
}
102
{ACAD_REACTORS
330
539
102
}
330
539
100
AcDbVisualStyle
  2
ColorChange
 70
    16
177
     2
291
     1
 71
     2
176
     1
 72
     2
176
     1
 73
     3
176
     1
 90
        0
176
     1
 40
0.6
176
     1
 41
30.0
176
     1
 63
     8
421
  8421504
176
     1
 74
     1
176
     1
 91
        4
176
     1
 64
     7
176
     1
 65
   257
176
     1
 75
     1
176
     1
175
     1
176
     1
 42
1.0
176
     1
 92
        8
176
     1
 66
     8
424
  8421504
176
     1
 43
1.0
176
     1
 76
     1
176
     1
 77
     6
176
     1
 78
     2
176
     1
 67
     7
176
     1
 79
     5
176
     1
170
     0
176
     1
171
     0
176
     1
290
     0
176
     1
 93
        1
176
     1
 44
0.0
176
     1
173
     0
176
     1
1001
ACAD
1000
AcDbSavedByObjectVersion
1070
     0
  0
VISUALSTYLE
  5
542
102
{ACAD_XDICTIONARY
360
62B
102
}
102
{ACAD_REACTORS
330
539
102
}
330
539
100
AcDbVisualStyle
  2
Conceptual
 70
     9
177
     2
291
     0
 71
     3
176
     1
 72
     2
176
     1
 73
     0
176
     1
 90
        0
176
     1
 40
0.6
176
     1
 41
30.0
176
     1
 63
     7
421
 16777215
176
     1
 74
     2
176
     1
 91
        2
176
     1
 64
     7
176
     1
 65
   257
176
     1
 75
     1
176
     1
175
     1
176
     1
 42
179.0
176
     1
 92
        8
176
     1
 66
     7
176
     1
 43
1.0
176
     1
 76
     1
176
     1
 77
     6
176
     1
 78
     2
176
     1
 67
     7
176
     1
 79
     3
176
     1
170
     0
176
     1
171
     0
176
     1
290
     0
176
     1
 93
        1
176
     1
 44
0.0
176
     1
173
     0
176
     1
1001
ACAD
1000
AcDbSavedByObjectVersion
1070
     0
  0
VISUALSTYLE
  5
544
102
{ACAD_XDICTIONARY
360
62F
102
}
102
{ACAD_REACTORS
330
539
102
}
330
539
100
AcDbVisualStyle
  2
Dim
 70
    11
177
     2
291
     1
 71
     2
176
     1
 72
     2
176
     1
 73
     0
176
     1
 90
        0
176
     1
 40
0.6
176
     1
 41
30.0
176
     1
 63
     7
421
 16777215
176
     1
 74
     1
176
     1
 91
        4
176
     1
 64
     7
176
     1
 65
   257
176
     1
 75
     1
176
     1
175
     1
176
     1
 42
1.0
176
     1
 92
        8
176
     1
 66
     7
176
     1
 43
1.0
176
     1
 76
     1
176
     1
 77
     6
176
     1
 78
     2
176
     1
 67
     7
176
     1
 79
     5
176
     1
170
     0
176
     1
171
     0
176
     1
290
     0
176
     1
 93
        1
176
     1
 44
-50.0
176
     1
173
     0
176
     1
1001
ACAD
1000
AcDbSavedByObjectVersion
1070
     0
  0
VISUALSTYLE
  5
551
102
{ACAD_XDICTIONARY
360
649
102
}
102
{ACAD_REACTORS
330
539
102
}
330
539
100
AcDbVisualStyle
  2
EdgeColorOff
 70
    22
177
     2
291
     1
 71
     2
176
     0
 72
     2
176
     0
 73
     0
176
     0
 90
        0
176
     0
 40
0.6
176
     0
 41
30.0
176
     0
 63
     7
421
 16777215
176
     0
 74
     1
176
     0
 91
        4
176
     0
 64
     7
176
     0
 65
   257
176
     0
 75
     1
176
     0
175
     1
176
     0
 42
1.0
176
     0
 92
        8
176
     2
 66
     7
176
     0
 43
1.0
176
     0
 76
     1
176
     0
 77
     6
176
     0
 78
     2
176
     0
 67
     7
176
     0
 79
     5
176
     0
170
     0
176
     0
171
     0
176
     0
290
     0
176
     0
 93
        1
176
     0
 44
0.0
176
     0
173
     0
176
     0
1001
ACAD
1000
AcDbSavedByObjectVersion
1070
     0
  0
VISUALSTYLE
  5
548
102
{ACAD_XDICTIONARY
360
637
102
}
102
{ACAD_REACTORS
330
539
102
}
330
539
100
AcDbVisualStyle
  2
Facepattern
 70
    15
177
     2
291
     1
 71
     2
176
     1
 72
     2
176
     1
 73
     0
176
     1
 90
        0
176
     1
 40
0.6
176
     1
 41
30.0
176
     1
 63
     7
421
 16777215
176
     1
 74
     1
176
     1
 91
        4
176
     1
 64
     7
176
     1
 65
   257
176
     1
 75
     1
176
     1
175
     1
176
     1
 42
1.0
176
     1
 92
        8
176
     1
 66
     7
176
     1
 43
1.0
176
     1
 76
     1
176
     1
 77
     6
176
     1
 78
     2
176
     1
 67
     7
176
     1
 79
     5
176
     1
170
     0
176
     1
171
     0
176
     1
290
     0
176
     1
 93
        1
176
     1
 44
0.0
176
     1
173
     0
176
     1
1001
ACAD
1000
AcDbSavedByObjectVersion
1070
     0
  0
VISUALSTYLE
  5
53A
102
{ACAD_XDICTIONARY
360
61B
102
}
102
{ACAD_REACTORS
330
539
102
}
330
539
100
AcDbVisualStyle
  2
Flat
 70
     0
177
     2
291
     1
 71
     2
176
     1
 72
     1
176
     1
 73
     1
176
     1
 90
        2
176
     1
 40
0.6
176
     1
 41
30.0
176
     1
 63
     7
421
 16777215
176
     1
 74
     0
176
     1
 91
        0
176
     1
 64
     7
176
     1
 65
   257
176
     1
 75
     1
176
     1
175
     1
176
     1
 42
1.0
176
     1
 92
        8
176
     1
 66
     7
176
     1
 43
1.0
176
     1
 76
     1
176
     1
 77
     6
176
     1
 78
     2
176
     1
 67
     7
176
     1
 79
     5
176
     1
170
     0
176
     1
171
     0
176
     1
290
     0
176
     1
 93
       13
176
     1
 44
0.0
176
     1
173
     0
176
     1
1001
ACAD
1000
AcDbSavedByObjectVersion
1070
     0
  0
VISUALSTYLE
  5
53B
102
{ACAD_XDICTIONARY
360
61D
102
}
102
{ACAD_REACTORS
330
539
102
}
330
539
100
AcDbVisualStyle
  2
FlatWithEdges
 70
     1
177
     2
291
     1
 71
     2
176
     1
 72
     1
176
     1
 73
     1
176
     1
 90
        2
176
     1
 40
0.6
176
     1
 41
30.0
176
     1
 63
     7
421
 16777215
176
     1
 74
     1
176
     1
 91
        0
176
     1
 64
     7
176
     1
 65
   257
176
     1
 75
     1
176
     1
175
     1
176
     1
 42
1.0
176
     1
 92
        0
176
     1
 66
   257
176
     1
 43
1.0
176
     1
 76
     1
176
     1
 77
     6
176
     1
 78
     2
176
     1
 67
     7
176
     1
 79
     5
176
     1
170
     0
176
     1
171
     0
176
     1
290
     0
176
     1
 93
       13
176
     1
 44
0.0
176
     1
173
     0
176
     1
1001
ACAD
1000
AcDbSavedByObjectVersion
1070
     0
  0
VISUALSTYLE
  5
53C
102
{ACAD_XDICTIONARY
360
61F
102
}
102
{ACAD_REACTORS
330
539
102
}
330
539
100
AcDbVisualStyle
  2
Gouraud
 70
     2
177
     2
291
     1
 71
     2
176
     1
 72
     2
176
     1
 73
     1
176
     1
 90
        2
176
     1
 40
0.6
176
     1
 41
30.0
176
     1
 63
     7
421
 16777215
176
     1
 74
     0
176
     1
 91
        0
176
     1
 64
     7
176
     1
 65
   257
176
     1
 75
     1
176
     1
175
     1
176
     1
 42
1.0
176
     1
 92
        0
176
     1
 66
     7
176
     1
 43
1.0
176
     1
 76
     1
176
     1
 77
     6
176
     1
 78
     2
176
     1
 67
     7
176
     1
 79
     5
176
     1
170
     0
176
     1
171
     0
176
     1
290
     0
176
     1
 93
       13
176
     1
 44
0.0
176
     1
173
     0
176
     1
1001
ACAD
1000
AcDbSavedByObjectVersion
1070
     0
  0
VISUALSTYLE
  5
53D
102
{ACAD_XDICTIONARY
360
621
102
}
102
{ACAD_REACTORS
330
539
102
}
330
539
100
AcDbVisualStyle
  2
GouraudWithEdges
 70
     3
177
     2
291
     1
 71
     2
176
     1
 72
     2
176
     1
 73
     1
176
     1
 90
        2
176
     1
 40
0.6
176
     1
 41
30.0
176
     1
 63
     7
421
 16777215
176
     1
 74
     1
176
     1
 91
        0
176
     1
 64
     7
176
     1
 65
   257
176
     1
 75
     1
176
     1
175
     1
176
     1
 42
1.0
176
     1
 92
        0
176
     1
 66
   257
176
     1
 43
1.0
176
     1
 76
     1
176
     1
 77
     6
176
     1
 78
     2
176
     1
 67
     7
176
     1
 79
     5
176
     1
170
     0
176
     1
171
     0
176
     1
290
     0
176
     1
 93
       13
176
     1
 44
0.0
176
     1
173
     0
176
     1
1001
ACAD
1000
AcDbSavedByObjectVersion
1070
     0
  0
VISUALSTYLE
  5
541
102
{ACAD_XDICTIONARY
360
629
102
}
102
{ACAD_REACTORS
330
539
102
}
330
539
100
AcDbVisualStyle
  2
Hidden
 70
     6
177
     2
291
     0
 71
     1
176
     1
 72
     2
176
     1
 73
     2
176
     1
 90
        0
176
     1
 40
0.6
176
     1
 41
30.0
176
     1
 63
     7
421
 16777215
176
     1
 74
     2
176
     1
 91
        2
176
     1
 64
     7
176
     1
 65
   257
176
     1
 75
     2
176
     1
175
     1
176
     1
 42
40.0
176
     1
 92
        0
176
     1
 66
   257
176
     1
 43
1.0
176
     1
 76
     1
176
     1
 77
     6
176
     1
 78
     2
176
     1
 67
     7
176
     1
 79
     3
176
     1
170
     0
176
     1
171
     0
176
     1
290
     0
176
     1
 93
        1
176
     1
 44
0.0
176
     1
173
     0
176
     1
1001
ACAD
1000
AcDbSavedByObjectVersion
1070
     0
  0
VISUALSTYLE
  5
54F
102
{ACAD_XDICTIONARY
360
645
102
}
102
{ACAD_REACTORS
330
539
102
}
330
539
100
AcDbVisualStyle
  2
JitterOff
 70
    20
177
     2
291
     1
 71
     2
176
     0
 72
     2
176
     0
 73
     0
176
     0
 90
        0
176
     0
 40
0.6
176
     0
 41
30.0
176
     0
 63
     7
421
 16777215
176
     0
 74
     1
176
     0
 91
        4
176
     0
 64
     7
176
     0
 65
   257
176
     0
 75
     1
176
     0
175
     1
176
     0
 42
1.0
176
     0
 92
       10
176
     2
 66
     7
176
     0
 43
1.0
176
     0
 76
     1
176
     0
 77
     6
176
     0
 78
     2
176
     0
 67
     7
176
     0
 79
     5
176
     0
170
     0
176
     0
171
     0
176
     0
290
     0
176
     0
 93
        1
176
     0
 44
0.0
176
     0
173
     0
176
     0
1001
ACAD
1000
AcDbSavedByObjectVersion
1070
     0
  0
VISUALSTYLE
  5
547
102
{ACAD_XDICTIONARY
360
635
102
}
102
{ACAD_REACTORS
330
539
102
}
330
539
100
AcDbVisualStyle
  2
Linepattern
 70
    14
177
     2
291
     1
 71
     2
176
     1
 72
     2
176
     1
 73
     0
176
     1
 90
        0
176
     1
 40
0.6
176
     1
 41
30.0
176
     1
 63
     7
421
 16777215
176
     1
 74
     1
176
     1
 91
        4
176
     1
 64
     7
176
     1
 65
   257
176
     1
 75
     7
176
     1
175
     7
176
     1
 42
1.0
176
     1
 92
        8
176
     1
 66
     7
176
     1
 43
1.0
176
     1
 76
     1
176
     1
 77
     6
176
     1
 78
     2
176
     1
 67
     7
176
     1
 79
     5
176
     1
170
     0
176
     1
171
     0
176
     1
290
     0
176
     1
 93
        1
176
     1
 44
0.0
176
     1
173
     0
176
     1
1001
ACAD
1000
AcDbSavedByObjectVersion
1070
     0
  0
VISUALSTYLE
  5
550
102
{ACAD_XDICTIONARY
360
647
102
}
102
{ACAD_REACTORS
330
539
102
}
330
539
100
AcDbVisualStyle
  2
OverhangOff
 70
    21
177
     2
291
     1
 71
     2
176
     0
 72
     2
176
     0
 73
     0
176
     0
 90
        0
176
     0
 40
0.6
176
     0
 41
30.0
176
     0
 63
     7
421
 16777215
176
     0
 74
     1
176
     0
 91
        4
176
     0
 64
     7
176
     0
 65
   257
176
     0
 75
     1
176
     0
175
     1
176
     0
 42
1.0
176
     0
 92
        9
176
     2
 66
     7
176
     0
 43
1.0
176
     0
 76
     1
176
     0
 77
     6
176
     0
 78
     2
176
     0
 67
     7
176
     0
 79
     5
176
     0
170
     0
176
     0
171
     0
176
     0
290
     0
176
     0
 93
        1
176
     0
 44
0.0
176
     0
173
     0
176
     0
1001
ACAD
1000
AcDbSavedByObjectVersion
1070
     0
  0
VISUALSTYLE
  5
543
102
{ACAD_XDICTIONARY
360
62D
102
}
102
{ACAD_REACTORS
330
539
102
}
330
539
100
AcDbVisualStyle
  2
Realistic
 70
     8
177
     2
291
     0
 71
     2
176
     1
 72
     3
176
     1
 73
     0
176
     1
 90
        2
176
     1
 40
0.6
176
     1
 41
30.0
176
     1
 63
     7
421
 16777215
176
     1
 74
     0
176
     1
 91
        0
176
     1
 64
     7
176
     1
 65
   257
176
     1
 75
     1
176
     1
175
     1
176
     1
 42
1.0
176
     1
 92
        8
176
     1
 66
   257
176
     1
 43
1.0
176
     1
 76
     1
176
     1
 77
     6
176
     1
 78
     2
176
     1
 67
     7
176
     1
 79
     3
176
     1
170
     0
176
     1
171
     0
176
     1
290
     0
176
     1
 93
       13
176
     1
 44
0.0
176
     1
173
     0
176
     1
1001
ACAD
1000
AcDbSavedByObjectVersion
1070
     0
  0
VISUALSTYLE
  5
54E
102
{ACAD_XDICTIONARY
360
643
102
}
102
{ACAD_REACTORS
330
539
102
}
330
539
100
AcDbVisualStyle
  2
Shaded
 70
    27
177
     2
291
     0
 71
     2
176
     1
 72
     2
176
     1
 73
     1
176
     1
 90
        2
176
     1
 40
0.6
176
     1
 41
30.0
176
     1
 63
     7
421
 16777215
176
     1
 74
     0
176
     1
 91
        4
176
     1
 64
     7
176
     1
 65
   257
176
     1
 75
     1
176
     1
175
     1
176
     1
 42
1.0
176
     1
 92
        8
176
     1
 66
   257
176
     1
 43
1.0
176
     1
 76
     1
176
     1
 77
     6
176
     1
 78
     2
176
     1
 67
     8
425
  7895160
176
     1
 79
     3
176
     1
170
     0
176
     1
171
     0
176
     1
290
     0
176
     1
 93
        5
176
     1
 44
0.0
176
     1
173
     0
176
     1
1001
ACAD
1000
AcDbSavedByObjectVersion
1070
     0
  0
VISUALSTYLE
  5
54D
102
{ACAD_XDICTIONARY
360
641
102
}
102
{ACAD_REACTORS
330
539
102
}
330
539
100
AcDbVisualStyle
  2
Shaded with edges
 70
    26
177
     2
291
     0
 71
     2
176
     1
 72
     2
176
     1
 73
     1
176
     1
 90
        2
176
     1
 40
0.6
176
     1
 41
30.0
176
     1
 63
     7
421
 16777215
176
     1
 74
     1
176
     1
 91
       10
176
     1
 64
     7
176
     1
 65
   257
176
     1
 75
     2
176
     1
175
     1
176
     1
 42
1.0
176
     1
 92
        8
176
     1
 66
   257
176
     1
 43
1.0
176
     1
 76
     1
176
     1
 77
     6
176
     1
 78
     2
176
     1
 67
     7
176
     1
 79
     3
176
     1
170
     0
176
     1
171
     0
176
     1
290
     0
176
     1
 93
        5
176
     1
 44
0.0
176
     1
173
     0
176
     1
1001
ACAD
1000
AcDbSavedByObjectVersion
1070
     0
  0
VISUALSTYLE
  5
54A
102
{ACAD_XDICTIONARY
360
63B
102
}
102
{ACAD_REACTORS
330
539
102
}
330
539
100
AcDbVisualStyle
  2
Shades of Gray
 70
    23
177
     2
291
     0
 71
     2
176
     1
 72
     2
176
     1
 73
     3
176
     1
 90
        0
176
     1
 40
0.6
176
     1
 41
30.0
176
     1
 63
     7
421
 16777215
176
     1
 74
     2
176
     1
 91
        2
176
     1
 64
     7
176
     1
 65
     7
176
     1
 75
     1
176
     1
175
     1
176
     1
 42
40.0
176
     1
 92
        8
176
     1
 66
     7
176
     1
 43
1.0
176
     1
 76
     1
176
     1
 77
     6
176
     1
 78
     2
176
     1
 67
     7
176
     1
 79
     3
176
     1
170
     0
176
     1
171
     0
176
     1
290
     0
176
     1
 93
        1
176
     1
 44
0.0
176
     1
173
     0
176
     1
1001
ACAD
1000
AcDbSavedByObjectVersion
1070
     0
  0
VISUALSTYLE
  5
54B
102
{ACAD_XDICTIONARY
360
63D
102
}
102
{ACAD_REACTORS
330
539
102
}
330
539
100
AcDbVisualStyle
  2
Sketchy
 70
    24
177
     2
291
     0
 71
     1
176
     1
 72
     2
176
     1
 73
     2
176
     1
 90
        0
176
     1
 40
0.6
176
     1
 41
30.0
176
     1
 63
     7
421
 16777215
176
     1
 74
     2
176
     1
 91
        2
176
     1
 64
     7
176
     1
 65
     7
176
     1
 75
     1
176
     1
175
     1
176
     1
 42
40.0
176
     1
 92
       11
176
     1
 66
     7
176
     1
 43
1.0
176
     1
 76
     1
176
     1
 77
     6
176
     1
 78
     2
176
     1
 67
     7
176
     1
 79
     6
176
     1
170
     0
176
     1
171
     0
176
     1
290
     0
176
     1
 93
        1
176
     1
 44
0.0
176
     1
173
     0
176
     1
1001
ACAD
1000
AcDbSavedByObjectVersion
1070
     0
  0
VISUALSTYLE
  5
546
102
{ACAD_XDICTIONARY
360
633
102
}
102
{ACAD_REACTORS
330
539
102
}
330
539
100
AcDbVisualStyle
  2
Thicken
 70
    13
177
     2
291
     1
 71
     2
176
     1
 72
     2
176
     1
 73
     0
176
     1
 90
        0
176
     1
 40
0.6
176
     1
 41
30.0
176
     1
 63
     7
421
 16777215
176
     1
 74
     1
176
     1
 91
        4
176
     1
 64
     7
176
     1
 65
   257
176
     1
 75
     1
176
     1
175
     1
176
     1
 42
1.0
176
     1
 92
       12
176
     1
 66
     7
176
     1
 43
1.0
176
     1
 76
     1
176
     1
 77
     6
176
     1
 78
     2
176
     1
 67
     7
176
     1
 79
     5
176
     1
170
     0
176
     1
171
     0
176
     1
290
     0
176
     1
 93
        1
176
     1
 44
0.0
176
     1
173
     0
176
     1
1001
ACAD
1000
AcDbSavedByObjectVersion
1070
     0
  0
VISUALSTYLE
  5
540
102
{ACAD_XDICTIONARY
360
627
102
}
102
{ACAD_REACTORS
330
539
102
}
330
539
100
AcDbVisualStyle
  2
Wireframe
 70
     5
177
     2
291
     0
 71
     0
176
     1
 72
     2
176
     1
 73
     0
176
     1
 90
        0
176
     1
 40
0.6
176
     1
 41
30.0
176
     1
 63
     7
421
 16777215
176
     1
 74
     1
176
     1
 91
        4
176
     1
 64
     7
176
     1
 65
   257
176
     1
 75
     1
176
     1
175
     1
176
     1
 42
1.0
176
     1
 92
        0
176
     1
 66
   257
176
     1
 43
1.0
176
     1
 76
     1
176
     1
 77
     6
176
     1
 78
     2
176
     1
 67
     7
176
     1
 79
     3
176
     1
170
     0
176
     1
171
     0
176
     1
290
     0
176
     1
 93
        1
176
     1
 44
0.0
176
     1
173
     0
176
     1
1001
ACAD
1000
AcDbSavedByObjectVersion
1070
     0
  0
VISUALSTYLE
  5
54C
102
{ACAD_XDICTIONARY
360
63F
102
}
102
{ACAD_REACTORS
330
539
102
}
330
539
100
AcDbVisualStyle
  2
X-Ray
 70
    25
177
     2
291
     0
 71
     2
176
     1
 72
     2
176
     1
 73
     1
176
     1
 90
        1
176
     1
 40
0.5
176
     1
 41
30.0
176
     1
 63
     7
421
 16777215
176
     1
 74
     1
176
     1
 91
        0
176
     1
 64
     7
176
     1
 65
   257
176
     1
 75
     1
176
     1
175
     1
176
     1
 42
1.0
176
     1
 92
        8
176
     1
 66
     7
176
     1
 43
1.0
176
     1
 76
     1
176
     1
 77
     6
176
     1
 78
     2
176
     1
 67
     7
176
     1
 79
     3
176
     1
170
     0
176
     1
171
     0
176
     1
290
     0
176
     1
 93
       13
176
     1
 44
0.0
176
     1
173
     0
176
     1
1001
ACAD
1000
AcDbSavedByObjectVersion
1070
     0
  0
DICTIONARYVAR
  5
613
102
{ACAD_REACTORS
330
60D
102
}
330
60D
100
DictionaryVariables
280
     0
  1
1:1
  0
DICTIONARYVAR
  5
60F
102
{ACAD_REACTORS
330
60D
102
}
330
60D
100
DictionaryVariables
280
     0
  1
STANDARD
  0
DICTIONARYVAR
  5
60E
102
{ACAD_REACTORS
330
60D
102
}
330
60D
100
DictionaryVariables
280
     0
  1
STANDARD
  0
DICTIONARYVAR
  5
610
102
{ACAD_REACTORS
330
60D
102
}
330
60D
100
DictionaryVariables
280
     0
  1
Imperial24
  0
DICTIONARYVAR
  5
611
102
{ACAD_REACTORS
330
60D
102
}
330
60D
100
DictionaryVariables
280
     0
  1
Imperial24
  0
DICTIONARYVAR
  5
615
102
{ACAD_REACTORS
330
60D
102
}
330
60D
100
DictionaryVariables
280
     0
  1
1
  0
DICTIONARYVAR
  5
616
102
{ACAD_REACTORS
330
60D
102
}
330
60D
100
DictionaryVariables
280
     0
  1
15
  0
DICTIONARYVAR
  5
614
102
{ACAD_REACTORS
330
60D
102
}
330
60D
100
DictionaryVariables
280
     0
  1
0
  0
DICTIONARYVAR
  5
612
102
{ACAD_REACTORS
330
60D
102
}
330
60D
100
DictionaryVariables
280
     0
  1
0
  0
DICTIONARY
  5
64D
330
57A
100
AcDbDictionary
280
     1
281
     1
  3
ACAD_XREC_ROUNDTRIP
360
64E
  0
DICTIONARY
  5
52A
330
529
100
AcDbDictionary
280
     1
281
     1
  3
BUMPTILE
360
52C
  3
DIFFUSETILE
360
52B
  3
OPACITYTILE
360
52F
  3
REFLECTIONTILE
360
52E
  3
REFRACTIONTILE
360
530
  3
SPECULARTILE
360
52D
  0
DICTIONARY
  5
522
330
521
100
AcDbDictionary
280
     1
281
     1
  3
BUMPTILE
360
524
  3
DIFFUSETILE
360
523
  3
OPACITYTILE
360
527
  3
REFLECTIONTILE
360
526
  3
REFRACTIONTILE
360
528
  3
SPECULARTILE
360
525
  0
DICTIONARY
  5
532
330
531
100
AcDbDictionary
280
     1
281
     1
  3
BUMPTILE
360
534
  3
DIFFUSETILE
360
533
  3
OPACITYTILE
360
537
  3
REFLECTIONTILE
360
536
  3
REFRACTIONTILE
360
538
  3
SPECULARTILE
360
535
  0
DICTIONARY
  5
64B
330
578
100
AcDbDictionary
280
     1
281
     1
  3
ACAD_XREC_ROUNDTRIP
360
64C
  0
DICTIONARY
  5
618
330
574
100
AcDbDictionary
280
     1
281
     1
  3
ACAD_ROUNDTRIP_2008_TABLESTYLE_CELLSTYLEMAP
360
619
  0
DICTIONARY
  5
625
330
53F
100
AcDbDictionary
280
     1
281
     1
  3
ACAD_XREC_ROUNDTRIP
360
626
  0
DICTIONARY
  5
623
330
53E
100
AcDbDictionary
280
     1
281
     1
  3
ACAD_XREC_ROUNDTRIP
360
624
  0
DICTIONARY
  5
631
330
545
100
AcDbDictionary
280
     1
281
     1
  3
ACAD_XREC_ROUNDTRIP
360
632
  0
DICTIONARY
  5
639
330
549
100
AcDbDictionary
280
     1
281
     1
  3
ACAD_XREC_ROUNDTRIP
360
63A
  0
DICTIONARY
  5
62B
330
542
100
AcDbDictionary
280
     1
281
     1
  3
ACAD_XREC_ROUNDTRIP
360
62C
  0
DICTIONARY
  5
62F
330
544
100
AcDbDictionary
280
     1
281
     1
  3
ACAD_XREC_ROUNDTRIP
360
630
  0
DICTIONARY
  5
649
330
551
100
AcDbDictionary
280
     1
281
     1
  3
ACAD_XREC_ROUNDTRIP
360
64A
  0
DICTIONARY
  5
637
330
548
100
AcDbDictionary
280
     1
281
     1
  3
ACAD_XREC_ROUNDTRIP
360
638
  0
DICTIONARY
  5
61B
330
53A
100
AcDbDictionary
280
     1
281
     1
  3
ACAD_XREC_ROUNDTRIP
360
61C
  0
DICTIONARY
  5
61D
330
53B
100
AcDbDictionary
280
     1
281
     1
  3
ACAD_XREC_ROUNDTRIP
360
61E
  0
DICTIONARY
  5
61F
330
53C
100
AcDbDictionary
280
     1
281
     1
  3
ACAD_XREC_ROUNDTRIP
360
620
  0
DICTIONARY
  5
621
330
53D
100
AcDbDictionary
280
     1
281
     1
  3
ACAD_XREC_ROUNDTRIP
360
622
  0
DICTIONARY
  5
629
330
541
100
AcDbDictionary
280
     1
281
     1
  3
ACAD_XREC_ROUNDTRIP
360
62A
  0
DICTIONARY
  5
645
330
54F
100
AcDbDictionary
280
     1
281
     1
  3
ACAD_XREC_ROUNDTRIP
360
646
  0
DICTIONARY
  5
635
330
547
100
AcDbDictionary
280
     1
281
     1
  3
ACAD_XREC_ROUNDTRIP
360
636
  0
DICTIONARY
  5
647
330
550
100
AcDbDictionary
280
     1
281
     1
  3
ACAD_XREC_ROUNDTRIP
360
648
  0
DICTIONARY
  5
62D
330
543
100
AcDbDictionary
280
     1
281
     1
  3
ACAD_XREC_ROUNDTRIP
360
62E
  0
DICTIONARY
  5
643
330
54E
100
AcDbDictionary
280
     1
281
     1
  3
ACAD_XREC_ROUNDTRIP
360
644
  0
DICTIONARY
  5
641
330
54D
100
AcDbDictionary
280
     1
281
     1
  3
ACAD_XREC_ROUNDTRIP
360
642
  0
DICTIONARY
  5
63B
330
54A
100
AcDbDictionary
280
     1
281
     1
  3
ACAD_XREC_ROUNDTRIP
360
63C
  0
DICTIONARY
  5
63D
330
54B
100
AcDbDictionary
280
     1
281
     1
  3
ACAD_XREC_ROUNDTRIP
360
63E
  0
DICTIONARY
  5
633
330
546
100
AcDbDictionary
280
     1
281
     1
  3
ACAD_XREC_ROUNDTRIP
360
634
  0
DICTIONARY
  5
627
330
540
100
AcDbDictionary
280
     1
281
     1
  3
ACAD_XREC_ROUNDTRIP
360
628
  0
DICTIONARY
  5
63F
330
54C
100
AcDbDictionary
280
     1
281
     1
  3
ACAD_XREC_ROUNDTRIP
360
640
  0
XRECORD
  5
64E
102
{ACAD_REACTORS
330
64D
102
}
330
64D
100
AcDbXrecord
280
     1
102
DISPLAYNAME
  1
Imperial24
102
FLAGS
 90
        0
  0
XRECORD
  5
52C
102
{ACAD_REACTORS
330
52A
102
}
330
52A
100
AcDbXrecord
280
     1
270
     1
271
     1
  0
XRECORD
  5
52B
102
{ACAD_REACTORS
330
52A
102
}
330
52A
100
AcDbXrecord
280
     1
270
     1
271
     1
  0
XRECORD
  5
52F
102
{ACAD_REACTORS
330
52A
102
}
330
52A
100
AcDbXrecord
280
     1
270
     1
271
     1
  0
XRECORD
  5
52E
102
{ACAD_REACTORS
330
52A
102
}
330
52A
100
AcDbXrecord
280
     1
270
     1
271
     1
  0
XRECORD
  5
530
102
{ACAD_REACTORS
330
52A
102
}
330
52A
100
AcDbXrecord
280
     1
270
     1
271
     1
  0
XRECORD
  5
52D
102
{ACAD_REACTORS
330
52A
102
}
330
52A
100
AcDbXrecord
280
     1
270
     1
271
     1
  0
XRECORD
  5
524
102
{ACAD_REACTORS
330
522
102
}
330
522
100
AcDbXrecord
280
     1
270
     1
271
     1
  0
XRECORD
  5
523
102
{ACAD_REACTORS
330
522
102
}
330
522
100
AcDbXrecord
280
     1
270
     1
271
     1
  0
XRECORD
  5
527
102
{ACAD_REACTORS
330
522
102
}
330
522
100
AcDbXrecord
280
     1
270
     1
271
     1
  0
XRECORD
  5
526
102
{ACAD_REACTORS
330
522
102
}
330
522
100
AcDbXrecord
280
     1
270
     1
271
     1
  0
XRECORD
  5
528
102
{ACAD_REACTORS
330
522
102
}
330
522
100
AcDbXrecord
280
     1
270
     1
271
     1
  0
XRECORD
  5
525
102
{ACAD_REACTORS
330
522
102
}
330
522
100
AcDbXrecord
280
     1
270
     1
271
     1
  0
XRECORD
  5
534
102
{ACAD_REACTORS
330
532
102
}
330
532
100
AcDbXrecord
280
     1
270
     1
271
     1
  0
XRECORD
  5
533
102
{ACAD_REACTORS
330
532
102
}
330
532
100
AcDbXrecord
280
     1
270
     1
271
     1
  0
XRECORD
  5
537
102
{ACAD_REACTORS
330
532
102
}
330
532
100
AcDbXrecord
280
     1
270
     1
271
     1
  0
XRECORD
  5
536
102
{ACAD_REACTORS
330
532
102
}
330
532
100
AcDbXrecord
280
     1
270
     1
271
     1
  0
XRECORD
  5
538
102
{ACAD_REACTORS
330
532
102
}
330
532
100
AcDbXrecord
280
     1
270
     1
271
     1
  0
XRECORD
  5
535
102
{ACAD_REACTORS
330
532
102
}
330
532
100
AcDbXrecord
280
     1
270
     1
271
     1
  0
XRECORD
  5
64C
102
{ACAD_REACTORS
330
64B
102
}
330
64B
100
AcDbXrecord
280
     1
102
DISPLAYNAME
  1
Imperial24
102
FLAGS
 90
        0
  0
CELLSTYLEMAP
  5
619
102
{ACAD_REACTORS
330
618
102
}
330
618
100
AcDbCellStyleMap
 90
        3
300
CELLSTYLE
  1
TABLEFORMAT_BEGIN
 90
        5
170
     1
 91
        0
 92
    32768
 62
   257
 93
        1
300
CONTENTFORMAT
  1
CONTENTFORMAT_BEGIN
 90
        0
 91
        0
 92
      512
 93
        0
300

 40
0.0
140
1.0
 94
        5
 62
     0
340
565
144
0.25
309
CONTENTFORMAT_END
171
     0
 94
        0
309
TABLEFORMAT_END
  1
CELLSTYLE_BEGIN
 90
        1
 91
        1
300
_TITLE
309
CELLSTYLE_END
300
CELLSTYLE
  1
TABLEFORMAT_BEGIN
 90
        5
170
     1
 91
        0
 92
        0
 62
   257
 93
        1
300
CONTENTFORMAT
  1
CONTENTFORMAT_BEGIN
 90
        0
 91
        0
 92
      512
 93
        0
300

 40
0.0
140
1.0
 94
        5
 62
     0
340
565
144
0.18
309
CONTENTFORMAT_END
171
     0
 94
        0
309
TABLEFORMAT_END
  1
CELLSTYLE_BEGIN
 90
        2
 91
        1
300
_HEADER
309
CELLSTYLE_END
300
CELLSTYLE
  1
TABLEFORMAT_BEGIN
 90
        5
170
     1
 91
        0
 92
        0
 62
   257
 93
        1
300
CONTENTFORMAT
  1
CONTENTFORMAT_BEGIN
 90
        0
 91
        0
 92
      512
 93
        0
300

 40
0.0
140
1.0
 94
        2
 62
     0
340
565
144
0.18
309
CONTENTFORMAT_END
171
     0
 94
        0
309
TABLEFORMAT_END
  1
CELLSTYLE_BEGIN
 90
        3
 91
        2
300
_DATA
309
CELLSTYLE_END
  0
XRECORD
  5
626
102
{ACAD_REACTORS
330
625
102
}
330
625
100
AcDbXrecord
280
     1
102
RTVSPost2010Prop28
280
     1
102
RTVSPost2010PropOp28
 70
     1
102
RTVSPost2010Prop29
280
     1
102
RTVSPost2010PropOp29
 70
     1
102
RTVSPost2010Prop30
280
     0
102
RTVSPost2010PropOp30
 70
     1
102
RTVSPost2010Prop31
280
     0
102
RTVSPost2010PropOp31
 70
     1
102
RTVSPost2010Prop32
280
     0
102
RTVSPost2010PropOp32
 70
     1
102
RTVSPost2010Prop33
280
     0
102
RTVSPost2010PropOp33
 70
     1
102
RTVSPost2010Prop34
280
     0
102
RTVSPost2010PropOp34
 70
     1
102
RTVSPost2010Prop35
280
     0
102
RTVSPost2010PropOp35
 70
     1
102
RTVSPost2010Prop36
280
     0
102
RTVSPost2010PropOp36
 70
     1
102
RTVSPost2010Prop37
 90
       50
102
RTVSPost2010PropOp37
 70
     1
102
RTVSPost2010Prop38
140
0.0
102
RTVSPost2010PropOp38
 70
     1
102
RTVSPost2010Prop39
140
1.0
102
RTVSPost2010PropOp39
 70
     1
102
RTVSPost2010Prop40
 90
        0
102
RTVSPost2010PropOp40
 70
     1
102
RTVSPost2010Prop41ColorIndex
 90
       18
102
RTVSPost2010Prop41ColorRGB
 90
        0
102
RTVSPost2010PropOp41
 70
     1
102
RTVSPost2010Prop42
 90
       50
102
RTVSPost2010PropOp42
 70
     1
102
RTVSPost2010Prop43
 90
        3
102
RTVSPost2010PropOp43
 70
     1
102
RTVSPost2010Prop44ColorIndex
 90
        5
102
RTVSPost2010Prop44ColorRGB
 90
      255
102
RTVSPost2010PropOp44
 70
     1
102
RTVSPost2010Prop45
280
     0
102
RTVSPost2010PropOp45
 70
     1
102
RTVSPost2010Prop46
 90
       50
102
RTVSPost2010PropOp46
 70
     1
102
RTVSPost2010Prop47
 90
       50
102
RTVSPost2010PropOp47
 70
     1
102
RTVSPost2010Prop48
 90
       50
102
RTVSPost2010PropOp48
 70
     1
102
RTVSPost2010Prop49
280
     0
102
RTVSPost2010PropOp49
 70
     1
102
RTVSPost2010Prop50
 90
       50
102
RTVSPost2010PropOp50
 70
     1
102
RTVSPost2010Prop51ColorIndex
 90
      256
102
RTVSPost2010Prop51ColorRGB
 90
-16777216
102
RTVSPost2010PropOp51
 70
     0
102
RTVSPost2010Prop52
140
1.0
102
RTVSPost2010PropOp52
 70
     0
102
RTVSPost2010Prop53
 90
        2
102
RTVSPost2010PropOp53
 70
     1
102
RTVSPost2010Prop54
  1
strokes_ogs.tif
102
RTVSPost2010PropOp54
 70
     1
102
RTVSPost2010Prop55
280
     0
102
RTVSPost2010PropOp55
 70
     1
102
RTVSPost2010Prop56
140
1.0
102
RTVSPost2010PropOp56
 70
     1
102
RTVSPost2010Prop57
140
1.0
102
RTVSPost2010PropOp57
 70
     1
  0
XRECORD
  5
624
102
{ACAD_REACTORS
330
623
102
}
330
623
100
AcDbXrecord
280
     1
102
RTVSPost2010Prop28
280
     0
102
RTVSPost2010PropOp28
 70
     1
102
RTVSPost2010Prop29
280
     1
102
RTVSPost2010PropOp29
 70
     1
102
RTVSPost2010Prop30
280
     1
102
RTVSPost2010PropOp30
 70
     1
102
RTVSPost2010Prop31
280
     0
102
RTVSPost2010PropOp31
 70
     1
102
RTVSPost2010Prop32
280
     0
102
RTVSPost2010PropOp32
 70
     1
102
RTVSPost2010Prop33
280
     0
102
RTVSPost2010PropOp33
 70
     1
102
RTVSPost2010Prop34
280
     0
102
RTVSPost2010PropOp34
 70
     1
102
RTVSPost2010Prop35
280
     0
102
RTVSPost2010PropOp35
 70
     1
102
RTVSPost2010Prop36
280
     0
102
RTVSPost2010PropOp36
 70
     1
102
RTVSPost2010Prop37
 90
       50
102
RTVSPost2010PropOp37
 70
     1
102
RTVSPost2010Prop38
140
0.0
102
RTVSPost2010PropOp38
 70
     1
102
RTVSPost2010Prop39
140
1.0
102
RTVSPost2010PropOp39
 70
     1
102
RTVSPost2010Prop40
 90
        0
102
RTVSPost2010PropOp40
 70
     1
102
RTVSPost2010Prop41ColorIndex
 90
       18
102
RTVSPost2010Prop41ColorRGB
 90
        0
102
RTVSPost2010PropOp41
 70
     1
102
RTVSPost2010Prop42
 90
       50
102
RTVSPost2010PropOp42
 70
     1
102
RTVSPost2010Prop43
 90
        3
102
RTVSPost2010PropOp43
 70
     1
102
RTVSPost2010Prop44ColorIndex
 90
        5
102
RTVSPost2010Prop44ColorRGB
 90
      255
102
RTVSPost2010PropOp44
 70
     1
102
RTVSPost2010Prop45
280
     0
102
RTVSPost2010PropOp45
 70
     1
102
RTVSPost2010Prop46
 90
       50
102
RTVSPost2010PropOp46
 70
     1
102
RTVSPost2010Prop47
 90
       50
102
RTVSPost2010PropOp47
 70
     1
102
RTVSPost2010Prop48
 90
       50
102
RTVSPost2010PropOp48
 70
     1
102
RTVSPost2010Prop49
280
     0
102
RTVSPost2010PropOp49
 70
     1
102
RTVSPost2010Prop50
 90
       50
102
RTVSPost2010PropOp50
 70
     1
102
RTVSPost2010Prop51ColorIndex
 90
      256
102
RTVSPost2010Prop51ColorRGB
 90
-16777216
102
RTVSPost2010PropOp51
 70
     0
102
RTVSPost2010Prop52
140
1.0
102
RTVSPost2010PropOp52
 70
     0
102
RTVSPost2010Prop53
 90
        2
102
RTVSPost2010PropOp53
 70
     1
102
RTVSPost2010Prop54
  1
strokes_ogs.tif
102
RTVSPost2010PropOp54
 70
     1
102
RTVSPost2010Prop55
280
     0
102
RTVSPost2010PropOp55
 70
     1
102
RTVSPost2010Prop56
140
1.0
102
RTVSPost2010PropOp56
 70
     1
102
RTVSPost2010Prop57
140
1.0
102
RTVSPost2010PropOp57
 70
     1
  0
XRECORD
  5
632
102
{ACAD_REACTORS
330
631
102
}
330
631
100
AcDbXrecord
280
     1
102
RTVSPost2010Prop28
280
     0
102
RTVSPost2010PropOp28
 70
     1
102
RTVSPost2010Prop29
280
     1
102
RTVSPost2010PropOp29
 70
     1
102
RTVSPost2010Prop30
280
     1
102
RTVSPost2010PropOp30
 70
     1
102
RTVSPost2010Prop31
280
     0
102
RTVSPost2010PropOp31
 70
     1
102
RTVSPost2010Prop32
280
     0
102
RTVSPost2010PropOp32
 70
     1
102
RTVSPost2010Prop33
280
     0
102
RTVSPost2010PropOp33
 70
     1
102
RTVSPost2010Prop34
280
     0
102
RTVSPost2010PropOp34
 70
     1
102
RTVSPost2010Prop35
280
     0
102
RTVSPost2010PropOp35
 70
     1
102
RTVSPost2010Prop36
280
     0
102
RTVSPost2010PropOp36
 70
     1
102
RTVSPost2010Prop37
 90
       50
102
RTVSPost2010PropOp37
 70
     1
102
RTVSPost2010Prop38
140
0.0
102
RTVSPost2010PropOp38
 70
     1
102
RTVSPost2010Prop39
140
1.0
102
RTVSPost2010PropOp39
 70
     1
102
RTVSPost2010Prop40
 90
        0
102
RTVSPost2010PropOp40
 70
     1
102
RTVSPost2010Prop41ColorIndex
 90
       18
102
RTVSPost2010Prop41ColorRGB
 90
        0
102
RTVSPost2010PropOp41
 70
     1
102
RTVSPost2010Prop42
 90
       50
102
RTVSPost2010PropOp42
 70
     1
102
RTVSPost2010Prop43
 90
        3
102
RTVSPost2010PropOp43
 70
     1
102
RTVSPost2010Prop44ColorIndex
 90
        5
102
RTVSPost2010Prop44ColorRGB
 90
      255
102
RTVSPost2010PropOp44
 70
     1
102
RTVSPost2010Prop45
280
     0
102
RTVSPost2010PropOp45
 70
     1
102
RTVSPost2010Prop46
 90
       50
102
RTVSPost2010PropOp46
 70
     1
102
RTVSPost2010Prop47
 90
       50
102
RTVSPost2010PropOp47
 70
     1
102
RTVSPost2010Prop48
 90
       50
102
RTVSPost2010PropOp48
 70
     1
102
RTVSPost2010Prop49
280
     0
102
RTVSPost2010PropOp49
 70
     1
102
RTVSPost2010Prop50
 90
       50
102
RTVSPost2010PropOp50
 70
     1
102
RTVSPost2010Prop51ColorIndex
 90
      256
102
RTVSPost2010Prop51ColorRGB
 90
-16777216
102
RTVSPost2010PropOp51
 70
     0
102
RTVSPost2010Prop52
140
1.0
102
RTVSPost2010PropOp52
 70
     0
102
RTVSPost2010Prop53
 90
        2
102
RTVSPost2010PropOp53
 70
     1
102
RTVSPost2010Prop54
  1
strokes_ogs.tif
102
RTVSPost2010PropOp54
 70
     1
102
RTVSPost2010Prop55
280
     0
102
RTVSPost2010PropOp55
 70
     1
102
RTVSPost2010Prop56
140
1.0
102
RTVSPost2010PropOp56
 70
     1
102
RTVSPost2010Prop57
140
1.0
102
RTVSPost2010PropOp57
 70
     1
  0
XRECORD
  5
63A
102
{ACAD_REACTORS
330
639
102
}
330
639
100
AcDbXrecord
280
     1
102
RTVSPost2010Prop28
280
     0
102
RTVSPost2010PropOp28
 70
     1
102
RTVSPost2010Prop29
280
     1
102
RTVSPost2010PropOp29
 70
     1
102
RTVSPost2010Prop30
280
     1
102
RTVSPost2010PropOp30
 70
     1
102
RTVSPost2010Prop31
280
     0
102
RTVSPost2010PropOp31
 70
     1
102
RTVSPost2010Prop32
280
     0
102
RTVSPost2010PropOp32
 70
     1
102
RTVSPost2010Prop33
280
     0
102
RTVSPost2010PropOp33
 70
     1
102
RTVSPost2010Prop34
280
     0
102
RTVSPost2010PropOp34
 70
     1
102
RTVSPost2010Prop35
280
     0
102
RTVSPost2010PropOp35
 70
     1
102
RTVSPost2010Prop36
280
     0
102
RTVSPost2010PropOp36
 70
     1
102
RTVSPost2010Prop37
 90
       50
102
RTVSPost2010PropOp37
 70
     1
102
RTVSPost2010Prop38
140
0.0
102
RTVSPost2010PropOp38
 70
     1
102
RTVSPost2010Prop39
140
1.0
102
RTVSPost2010PropOp39
 70
     1
102
RTVSPost2010Prop40
 90
        0
102
RTVSPost2010PropOp40
 70
     1
102
RTVSPost2010Prop41ColorIndex
 90
       18
102
RTVSPost2010Prop41ColorRGB
 90
        0
102
RTVSPost2010PropOp41
 70
     1
102
RTVSPost2010Prop42
 90
       50
102
RTVSPost2010PropOp42
 70
     1
102
RTVSPost2010Prop43
 90
        3
102
RTVSPost2010PropOp43
 70
     1
102
RTVSPost2010Prop44ColorIndex
 90
        5
102
RTVSPost2010Prop44ColorRGB
 90
      255
102
RTVSPost2010PropOp44
 70
     1
102
RTVSPost2010Prop45
280
     0
102
RTVSPost2010PropOp45
 70
     1
102
RTVSPost2010Prop46
 90
       50
102
RTVSPost2010PropOp46
 70
     1
102
RTVSPost2010Prop47
 90
       50
102
RTVSPost2010PropOp47
 70
     1
102
RTVSPost2010Prop48
 90
       50
102
RTVSPost2010PropOp48
 70
     1
102
RTVSPost2010Prop49
280
     0
102
RTVSPost2010PropOp49
 70
     1
102
RTVSPost2010Prop50
 90
       50
102
RTVSPost2010PropOp50
 70
     1
102
RTVSPost2010Prop51ColorIndex
 90
      256
102
RTVSPost2010Prop51ColorRGB
 90
-16777216
102
RTVSPost2010PropOp51
 70
     0
102
RTVSPost2010Prop52
140
1.0
102
RTVSPost2010PropOp52
 70
     0
102
RTVSPost2010Prop53
 90
        2
102
RTVSPost2010PropOp53
 70
     1
102
RTVSPost2010Prop54
  1
strokes_ogs.tif
102
RTVSPost2010PropOp54
 70
     1
102
RTVSPost2010Prop55
280
     0
102
RTVSPost2010PropOp55
 70
     1
102
RTVSPost2010Prop56
140
1.0
102
RTVSPost2010PropOp56
 70
     1
102
RTVSPost2010Prop57
140
1.0
102
RTVSPost2010PropOp57
 70
     1
  0
XRECORD
  5
62C
102
{ACAD_REACTORS
330
62B
102
}
330
62B
100
AcDbXrecord
280
     1
102
RTVSPost2010Prop28
280
     0
102
RTVSPost2010PropOp28
 70
     1
102
RTVSPost2010Prop29
280
     1
102
RTVSPost2010PropOp29
 70
     1
102
RTVSPost2010Prop30
280
     1
102
RTVSPost2010PropOp30
 70
     1
102
RTVSPost2010Prop31
280
     0
102
RTVSPost2010PropOp31
 70
     1
102
RTVSPost2010Prop32
280
     0
102
RTVSPost2010PropOp32
 70
     1
102
RTVSPost2010Prop33
280
     0
102
RTVSPost2010PropOp33
 70
     1
102
RTVSPost2010Prop34
280
     0
102
RTVSPost2010PropOp34
 70
     1
102
RTVSPost2010Prop35
280
     0
102
RTVSPost2010PropOp35
 70
     1
102
RTVSPost2010Prop36
280
     0
102
RTVSPost2010PropOp36
 70
     1
102
RTVSPost2010Prop37
 90
       50
102
RTVSPost2010PropOp37
 70
     1
102
RTVSPost2010Prop38
140
0.0
102
RTVSPost2010PropOp38
 70
     1
102
RTVSPost2010Prop39
140
1.0
102
RTVSPost2010PropOp39
 70
     1
102
RTVSPost2010Prop40
 90
        0
102
RTVSPost2010PropOp40
 70
     1
102
RTVSPost2010Prop41ColorIndex
 90
       18
102
RTVSPost2010Prop41ColorRGB
 90
        0
102
RTVSPost2010PropOp41
 70
     1
102
RTVSPost2010Prop42
 90
       50
102
RTVSPost2010PropOp42
 70
     1
102
RTVSPost2010Prop43
 90
        3
102
RTVSPost2010PropOp43
 70
     1
102
RTVSPost2010Prop44ColorIndex
 90
        5
102
RTVSPost2010Prop44ColorRGB
 90
      255
102
RTVSPost2010PropOp44
 70
     1
102
RTVSPost2010Prop45
280
     0
102
RTVSPost2010PropOp45
 70
     1
102
RTVSPost2010Prop46
 90
       50
102
RTVSPost2010PropOp46
 70
     1
102
RTVSPost2010Prop47
 90
       50
102
RTVSPost2010PropOp47
 70
     1
102
RTVSPost2010Prop48
 90
       50
102
RTVSPost2010PropOp48
 70
     1
102
RTVSPost2010Prop49
280
     0
102
RTVSPost2010PropOp49
 70
     1
102
RTVSPost2010Prop50
 90
       50
102
RTVSPost2010PropOp50
 70
     1
102
RTVSPost2010Prop51ColorIndex
 90
      256
102
RTVSPost2010Prop51ColorRGB
 90
-16777216
102
RTVSPost2010PropOp51
 70
     0
102
RTVSPost2010Prop52
140
1.0
102
RTVSPost2010PropOp52
 70
     0
102
RTVSPost2010Prop53
 90
        2
102
RTVSPost2010PropOp53
 70
     1
102
RTVSPost2010Prop54
  1
strokes_ogs.tif
102
RTVSPost2010PropOp54
 70
     1
102
RTVSPost2010Prop55
280
     0
102
RTVSPost2010PropOp55
 70
     1
102
RTVSPost2010Prop56
140
1.0
102
RTVSPost2010PropOp56
 70
     1
102
RTVSPost2010Prop57
140
1.0
102
RTVSPost2010PropOp57
 70
     1
  0
XRECORD
  5
630
102
{ACAD_REACTORS
330
62F
102
}
330
62F
100
AcDbXrecord
280
     1
102
RTVSPost2010Prop28
280
     0
102
RTVSPost2010PropOp28
 70
     1
102
RTVSPost2010Prop29
280
     1
102
RTVSPost2010PropOp29
 70
     1
102
RTVSPost2010Prop30
280
     1
102
RTVSPost2010PropOp30
 70
     1
102
RTVSPost2010Prop31
280
     0
102
RTVSPost2010PropOp31
 70
     1
102
RTVSPost2010Prop32
280
     0
102
RTVSPost2010PropOp32
 70
     1
102
RTVSPost2010Prop33
280
     0
102
RTVSPost2010PropOp33
 70
     1
102
RTVSPost2010Prop34
280
     0
102
RTVSPost2010PropOp34
 70
     1
102
RTVSPost2010Prop35
280
     0
102
RTVSPost2010PropOp35
 70
     1
102
RTVSPost2010Prop36
280
     0
102
RTVSPost2010PropOp36
 70
     1
102
RTVSPost2010Prop37
 90
       50
102
RTVSPost2010PropOp37
 70
     1
102
RTVSPost2010Prop38
140
0.0
102
RTVSPost2010PropOp38
 70
     1
102
RTVSPost2010Prop39
140
1.0
102
RTVSPost2010PropOp39
 70
     1
102
RTVSPost2010Prop40
 90
        0
102
RTVSPost2010PropOp40
 70
     1
102
RTVSPost2010Prop41ColorIndex
 90
       18
102
RTVSPost2010Prop41ColorRGB
 90
        0
102
RTVSPost2010PropOp41
 70
     1
102
RTVSPost2010Prop42
 90
       50
102
RTVSPost2010PropOp42
 70
     1
102
RTVSPost2010Prop43
 90
        3
102
RTVSPost2010PropOp43
 70
     1
102
RTVSPost2010Prop44ColorIndex
 90
        5
102
RTVSPost2010Prop44ColorRGB
 90
      255
102
RTVSPost2010PropOp44
 70
     1
102
RTVSPost2010Prop45
280
     0
102
RTVSPost2010PropOp45
 70
     1
102
RTVSPost2010Prop46
 90
       50
102
RTVSPost2010PropOp46
 70
     1
102
RTVSPost2010Prop47
 90
       50
102
RTVSPost2010PropOp47
 70
     1
102
RTVSPost2010Prop48
 90
       50
102
RTVSPost2010PropOp48
 70
     1
102
RTVSPost2010Prop49
280
     0
102
RTVSPost2010PropOp49
 70
     1
102
RTVSPost2010Prop50
 90
       50
102
RTVSPost2010PropOp50
 70
     1
102
RTVSPost2010Prop51ColorIndex
 90
      256
102
RTVSPost2010Prop51ColorRGB
 90
-16777216
102
RTVSPost2010PropOp51
 70
     0
102
RTVSPost2010Prop52
140
1.0
102
RTVSPost2010PropOp52
 70
     0
102
RTVSPost2010Prop53
 90
        2
102
RTVSPost2010PropOp53
 70
     1
102
RTVSPost2010Prop54
  1
strokes_ogs.tif
102
RTVSPost2010PropOp54
 70
     1
102
RTVSPost2010Prop55
280
     0
102
RTVSPost2010PropOp55
 70
     1
102
RTVSPost2010Prop56
140
1.0
102
RTVSPost2010PropOp56
 70
     1
102
RTVSPost2010Prop57
140
1.0
102
RTVSPost2010PropOp57
 70
     1
  0
XRECORD
  5
64A
102
{ACAD_REACTORS
330
649
102
}
330
649
100
AcDbXrecord
280
     1
102
RTVSPost2010Prop28
280
     0
102
RTVSPost2010PropOp28
 70
     1
102
RTVSPost2010Prop29
280
     1
102
RTVSPost2010PropOp29
 70
     1
102
RTVSPost2010Prop30
280
     1
102
RTVSPost2010PropOp30
 70
     1
102
RTVSPost2010Prop31
280
     0
102
RTVSPost2010PropOp31
 70
     1
102
RTVSPost2010Prop32
280
     0
102
RTVSPost2010PropOp32
 70
     1
102
RTVSPost2010Prop33
280
     0
102
RTVSPost2010PropOp33
 70
     1
102
RTVSPost2010Prop34
280
     0
102
RTVSPost2010PropOp34
 70
     1
102
RTVSPost2010Prop35
280
     0
102
RTVSPost2010PropOp35
 70
     1
102
RTVSPost2010Prop36
280
     0
102
RTVSPost2010PropOp36
 70
     1
102
RTVSPost2010Prop37
 90
       50
102
RTVSPost2010PropOp37
 70
     0
102
RTVSPost2010Prop38
140
0.0
102
RTVSPost2010PropOp38
 70
     0
102
RTVSPost2010Prop39
140
1.0
102
RTVSPost2010PropOp39
 70
     0
102
RTVSPost2010Prop40
 90
        0
102
RTVSPost2010PropOp40
 70
     0
102
RTVSPost2010Prop41ColorIndex
 90
       18
102
RTVSPost2010Prop41ColorRGB
 90
        0
102
RTVSPost2010PropOp41
 70
     0
102
RTVSPost2010Prop42
 90
       50
102
RTVSPost2010PropOp42
 70
     0
102
RTVSPost2010Prop43
 90
        3
102
RTVSPost2010PropOp43
 70
     0
102
RTVSPost2010Prop44ColorIndex
 90
        5
102
RTVSPost2010Prop44ColorRGB
 90
      255
102
RTVSPost2010PropOp44
 70
     0
102
RTVSPost2010Prop45
280
     0
102
RTVSPost2010PropOp45
 70
     1
102
RTVSPost2010Prop46
 90
       50
102
RTVSPost2010PropOp46
 70
     0
102
RTVSPost2010Prop47
 90
       50
102
RTVSPost2010PropOp47
 70
     0
102
RTVSPost2010Prop48
 90
       50
102
RTVSPost2010PropOp48
 70
     0
102
RTVSPost2010Prop49
280
     0
102
RTVSPost2010PropOp49
 70
     1
102
RTVSPost2010Prop50
 90
       50
102
RTVSPost2010PropOp50
 70
     0
102
RTVSPost2010Prop51ColorIndex
 90
      256
102
RTVSPost2010Prop51ColorRGB
 90
-16777216
102
RTVSPost2010PropOp51
 70
     0
102
RTVSPost2010Prop52
140
1.0
102
RTVSPost2010PropOp52
 70
     0
102
RTVSPost2010Prop53
 90
        2
102
RTVSPost2010PropOp53
 70
     0
102
RTVSPost2010Prop54
  1
strokes_ogs.tif
102
RTVSPost2010PropOp54
 70
     0
102
RTVSPost2010Prop55
280
     0
102
RTVSPost2010PropOp55
 70
     1
102
RTVSPost2010Prop56
140
1.0
102
RTVSPost2010PropOp56
 70
     0
102
RTVSPost2010Prop57
140
1.0
102
RTVSPost2010PropOp57
 70
     0
  0
XRECORD
  5
638
102
{ACAD_REACTORS
330
637
102
}
330
637
100
AcDbXrecord
280
     1
102
RTVSPost2010Prop28
280
     0
102
RTVSPost2010PropOp28
 70
     1
102
RTVSPost2010Prop29
280
     1
102
RTVSPost2010PropOp29
 70
     1
102
RTVSPost2010Prop30
280
     1
102
RTVSPost2010PropOp30
 70
     1
102
RTVSPost2010Prop31
280
     0
102
RTVSPost2010PropOp31
 70
     1
102
RTVSPost2010Prop32
280
     0
102
RTVSPost2010PropOp32
 70
     1
102
RTVSPost2010Prop33
280
     0
102
RTVSPost2010PropOp33
 70
     1
102
RTVSPost2010Prop34
280
     0
102
RTVSPost2010PropOp34
 70
     1
102
RTVSPost2010Prop35
280
     0
102
RTVSPost2010PropOp35
 70
     1
102
RTVSPost2010Prop36
280
     0
102
RTVSPost2010PropOp36
 70
     1
102
RTVSPost2010Prop37
 90
       50
102
RTVSPost2010PropOp37
 70
     1
102
RTVSPost2010Prop38
140
0.0
102
RTVSPost2010PropOp38
 70
     1
102
RTVSPost2010Prop39
140
1.0
102
RTVSPost2010PropOp39
 70
     1
102
RTVSPost2010Prop40
 90
        0
102
RTVSPost2010PropOp40
 70
     1
102
RTVSPost2010Prop41ColorIndex
 90
       18
102
RTVSPost2010Prop41ColorRGB
 90
        0
102
RTVSPost2010PropOp41
 70
     1
102
RTVSPost2010Prop42
 90
       50
102
RTVSPost2010PropOp42
 70
     1
102
RTVSPost2010Prop43
 90
        3
102
RTVSPost2010PropOp43
 70
     1
102
RTVSPost2010Prop44ColorIndex
 90
        5
102
RTVSPost2010Prop44ColorRGB
 90
      255
102
RTVSPost2010PropOp44
 70
     1
102
RTVSPost2010Prop45
280
     0
102
RTVSPost2010PropOp45
 70
     1
102
RTVSPost2010Prop46
 90
       50
102
RTVSPost2010PropOp46
 70
     1
102
RTVSPost2010Prop47
 90
       50
102
RTVSPost2010PropOp47
 70
     1
102
RTVSPost2010Prop48
 90
       50
102
RTVSPost2010PropOp48
 70
     1
102
RTVSPost2010Prop49
280
     0
102
RTVSPost2010PropOp49
 70
     1
102
RTVSPost2010Prop50
 90
       50
102
RTVSPost2010PropOp50
 70
     1
102
RTVSPost2010Prop51ColorIndex
 90
      256
102
RTVSPost2010Prop51ColorRGB
 90
-16777216
102
RTVSPost2010PropOp51
 70
     0
102
RTVSPost2010Prop52
140
1.0
102
RTVSPost2010PropOp52
 70
     0
102
RTVSPost2010Prop53
 90
        2
102
RTVSPost2010PropOp53
 70
     1
102
RTVSPost2010Prop54
  1
strokes_ogs.tif
102
RTVSPost2010PropOp54
 70
     1
102
RTVSPost2010Prop55
280
     0
102
RTVSPost2010PropOp55
 70
     1
102
RTVSPost2010Prop56
140
1.0
102
RTVSPost2010PropOp56
 70
     1
102
RTVSPost2010Prop57
140
1.0
102
RTVSPost2010PropOp57
 70
     1
  0
XRECORD
  5
61C
102
{ACAD_REACTORS
330
61B
102
}
330
61B
100
AcDbXrecord
280
     1
102
RTVSPost2010Prop28
280
     0
102
RTVSPost2010PropOp28
 70
     1
102
RTVSPost2010Prop29
280
     1
102
RTVSPost2010PropOp29
 70
     1
102
RTVSPost2010Prop30
280
     1
102
RTVSPost2010PropOp30
 70
     1
102
RTVSPost2010Prop31
280
     0
102
RTVSPost2010PropOp31
 70
     1
102
RTVSPost2010Prop32
280
     0
102
RTVSPost2010PropOp32
 70
     1
102
RTVSPost2010Prop33
280
     0
102
RTVSPost2010PropOp33
 70
     1
102
RTVSPost2010Prop34
280
     0
102
RTVSPost2010PropOp34
 70
     1
102
RTVSPost2010Prop35
280
     0
102
RTVSPost2010PropOp35
 70
     1
102
RTVSPost2010Prop36
280
     0
102
RTVSPost2010PropOp36
 70
     1
102
RTVSPost2010Prop37
 90
       50
102
RTVSPost2010PropOp37
 70
     1
102
RTVSPost2010Prop38
140
0.0
102
RTVSPost2010PropOp38
 70
     1
102
RTVSPost2010Prop39
140
1.0
102
RTVSPost2010PropOp39
 70
     1
102
RTVSPost2010Prop40
 90
        0
102
RTVSPost2010PropOp40
 70
     1
102
RTVSPost2010Prop41ColorIndex
 90
       18
102
RTVSPost2010Prop41ColorRGB
 90
        0
102
RTVSPost2010PropOp41
 70
     1
102
RTVSPost2010Prop42
 90
       50
102
RTVSPost2010PropOp42
 70
     1
102
RTVSPost2010Prop43
 90
        3
102
RTVSPost2010PropOp43
 70
     1
102
RTVSPost2010Prop44ColorIndex
 90
        5
102
RTVSPost2010Prop44ColorRGB
 90
      255
102
RTVSPost2010PropOp44
 70
     1
102
RTVSPost2010Prop45
280
     0
102
RTVSPost2010PropOp45
 70
     1
102
RTVSPost2010Prop46
 90
       50
102
RTVSPost2010PropOp46
 70
     1
102
RTVSPost2010Prop47
 90
       50
102
RTVSPost2010PropOp47
 70
     1
102
RTVSPost2010Prop48
 90
       50
102
RTVSPost2010PropOp48
 70
     1
102
RTVSPost2010Prop49
280
     0
102
RTVSPost2010PropOp49
 70
     1
102
RTVSPost2010Prop50
 90
       50
102
RTVSPost2010PropOp50
 70
     1
102
RTVSPost2010Prop51ColorIndex
 90
      256
102
RTVSPost2010Prop51ColorRGB
 90
-16777216
102
RTVSPost2010PropOp51
 70
     0
102
RTVSPost2010Prop52
140
1.0
102
RTVSPost2010PropOp52
 70
     0
102
RTVSPost2010Prop53
 90
        2
102
RTVSPost2010PropOp53
 70
     1
102
RTVSPost2010Prop54
  1
strokes_ogs.tif
102
RTVSPost2010PropOp54
 70
     1
102
RTVSPost2010Prop55
280
     0
102
RTVSPost2010PropOp55
 70
     1
102
RTVSPost2010Prop56
140
1.0
102
RTVSPost2010PropOp56
 70
     1
102
RTVSPost2010Prop57
140
1.0
102
RTVSPost2010PropOp57
 70
     1
  0
XRECORD
  5
61E
102
{ACAD_REACTORS
330
61D
102
}
330
61D
100
AcDbXrecord
280
     1
102
RTVSPost2010Prop28
280
     0
102
RTVSPost2010PropOp28
 70
     1
102
RTVSPost2010Prop29
280
     1
102
RTVSPost2010PropOp29
 70
     1
102
RTVSPost2010Prop30
280
     1
102
RTVSPost2010PropOp30
 70
     1
102
RTVSPost2010Prop31
280
     0
102
RTVSPost2010PropOp31
 70
     1
102
RTVSPost2010Prop32
280
     0
102
RTVSPost2010PropOp32
 70
     1
102
RTVSPost2010Prop33
280
     0
102
RTVSPost2010PropOp33
 70
     1
102
RTVSPost2010Prop34
280
     0
102
RTVSPost2010PropOp34
 70
     1
102
RTVSPost2010Prop35
280
     0
102
RTVSPost2010PropOp35
 70
     1
102
RTVSPost2010Prop36
280
     0
102
RTVSPost2010PropOp36
 70
     1
102
RTVSPost2010Prop37
 90
       50
102
RTVSPost2010PropOp37
 70
     1
102
RTVSPost2010Prop38
140
0.0
102
RTVSPost2010PropOp38
 70
     1
102
RTVSPost2010Prop39
140
1.0
102
RTVSPost2010PropOp39
 70
     1
102
RTVSPost2010Prop40
 90
        0
102
RTVSPost2010PropOp40
 70
     1
102
RTVSPost2010Prop41ColorIndex
 90
       18
102
RTVSPost2010Prop41ColorRGB
 90
        0
102
RTVSPost2010PropOp41
 70
     1
102
RTVSPost2010Prop42
 90
       50
102
RTVSPost2010PropOp42
 70
     1
102
RTVSPost2010Prop43
 90
        3
102
RTVSPost2010PropOp43
 70
     1
102
RTVSPost2010Prop44ColorIndex
 90
        5
102
RTVSPost2010Prop44ColorRGB
 90
      255
102
RTVSPost2010PropOp44
 70
     1
102
RTVSPost2010Prop45
280
     0
102
RTVSPost2010PropOp45
 70
     1
102
RTVSPost2010Prop46
 90
       50
102
RTVSPost2010PropOp46
 70
     1
102
RTVSPost2010Prop47
 90
       50
102
RTVSPost2010PropOp47
 70
     1
102
RTVSPost2010Prop48
 90
       50
102
RTVSPost2010PropOp48
 70
     1
102
RTVSPost2010Prop49
280
     0
102
RTVSPost2010PropOp49
 70
     1
102
RTVSPost2010Prop50
 90
       50
102
RTVSPost2010PropOp50
 70
     1
102
RTVSPost2010Prop51ColorIndex
 90
      256
102
RTVSPost2010Prop51ColorRGB
 90
-16777216
102
RTVSPost2010PropOp51
 70
     0
102
RTVSPost2010Prop52
140
1.0
102
RTVSPost2010PropOp52
 70
     0
102
RTVSPost2010Prop53
 90
        2
102
RTVSPost2010PropOp53
 70
     1
102
RTVSPost2010Prop54
  1
strokes_ogs.tif
102
RTVSPost2010PropOp54
 70
     1
102
RTVSPost2010Prop55
280
     0
102
RTVSPost2010PropOp55
 70
     1
102
RTVSPost2010Prop56
140
1.0
102
RTVSPost2010PropOp56
 70
     1
102
RTVSPost2010Prop57
140
1.0
102
RTVSPost2010PropOp57
 70
     1
  0
XRECORD
  5
620
102
{ACAD_REACTORS
330
61F
102
}
330
61F
100
AcDbXrecord
280
     1
102
RTVSPost2010Prop28
280
     0
102
RTVSPost2010PropOp28
 70
     1
102
RTVSPost2010Prop29
280
     1
102
RTVSPost2010PropOp29
 70
     1
102
RTVSPost2010Prop30
280
     1
102
RTVSPost2010PropOp30
 70
     1
102
RTVSPost2010Prop31
280
     0
102
RTVSPost2010PropOp31
 70
     1
102
RTVSPost2010Prop32
280
     0
102
RTVSPost2010PropOp32
 70
     1
102
RTVSPost2010Prop33
280
     0
102
RTVSPost2010PropOp33
 70
     1
102
RTVSPost2010Prop34
280
     0
102
RTVSPost2010PropOp34
 70
     1
102
RTVSPost2010Prop35
280
     0
102
RTVSPost2010PropOp35
 70
     1
102
RTVSPost2010Prop36
280
     0
102
RTVSPost2010PropOp36
 70
     1
102
RTVSPost2010Prop37
 90
       50
102
RTVSPost2010PropOp37
 70
     1
102
RTVSPost2010Prop38
140
0.0
102
RTVSPost2010PropOp38
 70
     1
102
RTVSPost2010Prop39
140
1.0
102
RTVSPost2010PropOp39
 70
     1
102
RTVSPost2010Prop40
 90
        0
102
RTVSPost2010PropOp40
 70
     1
102
RTVSPost2010Prop41ColorIndex
 90
       18
102
RTVSPost2010Prop41ColorRGB
 90
        0
102
RTVSPost2010PropOp41
 70
     1
102
RTVSPost2010Prop42
 90
       50
102
RTVSPost2010PropOp42
 70
     1
102
RTVSPost2010Prop43
 90
        3
102
RTVSPost2010PropOp43
 70
     1
102
RTVSPost2010Prop44ColorIndex
 90
        5
102
RTVSPost2010Prop44ColorRGB
 90
      255
102
RTVSPost2010PropOp44
 70
     1
102
RTVSPost2010Prop45
280
     0
102
RTVSPost2010PropOp45
 70
     1
102
RTVSPost2010Prop46
 90
       50
102
RTVSPost2010PropOp46
 70
     1
102
RTVSPost2010Prop47
 90
       50
102
RTVSPost2010PropOp47
 70
     1
102
RTVSPost2010Prop48
 90
       50
102
RTVSPost2010PropOp48
 70
     1
102
RTVSPost2010Prop49
280
     0
102
RTVSPost2010PropOp49
 70
     1
102
RTVSPost2010Prop50
 90
       50
102
RTVSPost2010PropOp50
 70
     1
102
RTVSPost2010Prop51ColorIndex
 90
      256
102
RTVSPost2010Prop51ColorRGB
 90
-16777216
102
RTVSPost2010PropOp51
 70
     0
102
RTVSPost2010Prop52
140
1.0
102
RTVSPost2010PropOp52
 70
     0
102
RTVSPost2010Prop53
 90
        2
102
RTVSPost2010PropOp53
 70
     1
102
RTVSPost2010Prop54
  1
strokes_ogs.tif
102
RTVSPost2010PropOp54
 70
     1
102
RTVSPost2010Prop55
280
     0
102
RTVSPost2010PropOp55
 70
     1
102
RTVSPost2010Prop56
140
1.0
102
RTVSPost2010PropOp56
 70
     1
102
RTVSPost2010Prop57
140
1.0
102
RTVSPost2010PropOp57
 70
     1
  0
XRECORD
  5
622
102
{ACAD_REACTORS
330
621
102
}
330
621
100
AcDbXrecord
280
     1
102
RTVSPost2010Prop28
280
     0
102
RTVSPost2010PropOp28
 70
     1
102
RTVSPost2010Prop29
280
     1
102
RTVSPost2010PropOp29
 70
     1
102
RTVSPost2010Prop30
280
     1
102
RTVSPost2010PropOp30
 70
     1
102
RTVSPost2010Prop31
280
     0
102
RTVSPost2010PropOp31
 70
     1
102
RTVSPost2010Prop32
280
     0
102
RTVSPost2010PropOp32
 70
     1
102
RTVSPost2010Prop33
280
     0
102
RTVSPost2010PropOp33
 70
     1
102
RTVSPost2010Prop34
280
     0
102
RTVSPost2010PropOp34
 70
     1
102
RTVSPost2010Prop35
280
     0
102
RTVSPost2010PropOp35
 70
     1
102
RTVSPost2010Prop36
280
     0
102
RTVSPost2010PropOp36
 70
     1
102
RTVSPost2010Prop37
 90
       50
102
RTVSPost2010PropOp37
 70
     1
102
RTVSPost2010Prop38
140
0.0
102
RTVSPost2010PropOp38
 70
     1
102
RTVSPost2010Prop39
140
1.0
102
RTVSPost2010PropOp39
 70
     1
102
RTVSPost2010Prop40
 90
        0
102
RTVSPost2010PropOp40
 70
     1
102
RTVSPost2010Prop41ColorIndex
 90
       18
102
RTVSPost2010Prop41ColorRGB
 90
        0
102
RTVSPost2010PropOp41
 70
     1
102
RTVSPost2010Prop42
 90
       50
102
RTVSPost2010PropOp42
 70
     1
102
RTVSPost2010Prop43
 90
        3
102
RTVSPost2010PropOp43
 70
     1
102
RTVSPost2010Prop44ColorIndex
 90
        5
102
RTVSPost2010Prop44ColorRGB
 90
      255
102
RTVSPost2010PropOp44
 70
     1
102
RTVSPost2010Prop45
280
     0
102
RTVSPost2010PropOp45
 70
     1
102
RTVSPost2010Prop46
 90
       50
102
RTVSPost2010PropOp46
 70
     1
102
RTVSPost2010Prop47
 90
       50
102
RTVSPost2010PropOp47
 70
     1
102
RTVSPost2010Prop48
 90
       50
102
RTVSPost2010PropOp48
 70
     1
102
RTVSPost2010Prop49
280
     0
102
RTVSPost2010PropOp49
 70
     1
102
RTVSPost2010Prop50
 90
       50
102
RTVSPost2010PropOp50
 70
     1
102
RTVSPost2010Prop51ColorIndex
 90
      256
102
RTVSPost2010Prop51ColorRGB
 90
-16777216
102
RTVSPost2010PropOp51
 70
     0
102
RTVSPost2010Prop52
140
1.0
102
RTVSPost2010PropOp52
 70
     0
102
RTVSPost2010Prop53
 90
        2
102
RTVSPost2010PropOp53
 70
     1
102
RTVSPost2010Prop54
  1
strokes_ogs.tif
102
RTVSPost2010PropOp54
 70
     1
102
RTVSPost2010Prop55
280
     0
102
RTVSPost2010PropOp55
 70
     1
102
RTVSPost2010Prop56
140
1.0
102
RTVSPost2010PropOp56
 70
     1
102
RTVSPost2010Prop57
140
1.0
102
RTVSPost2010PropOp57
 70
     1
  0
XRECORD
  5
62A
102
{ACAD_REACTORS
330
629
102
}
330
629
100
AcDbXrecord
280
     1
102
RTVSPost2010Prop28
280
     0
102
RTVSPost2010PropOp28
 70
     1
102
RTVSPost2010Prop29
280
     1
102
RTVSPost2010PropOp29
 70
     1
102
RTVSPost2010Prop30
280
     1
102
RTVSPost2010PropOp30
 70
     1
102
RTVSPost2010Prop31
280
     0
102
RTVSPost2010PropOp31
 70
     1
102
RTVSPost2010Prop32
280
     0
102
RTVSPost2010PropOp32
 70
     1
102
RTVSPost2010Prop33
280
     0
102
RTVSPost2010PropOp33
 70
     1
102
RTVSPost2010Prop34
280
     0
102
RTVSPost2010PropOp34
 70
     1
102
RTVSPost2010Prop35
280
     0
102
RTVSPost2010PropOp35
 70
     1
102
RTVSPost2010Prop36
280
     0
102
RTVSPost2010PropOp36
 70
     1
102
RTVSPost2010Prop37
 90
       50
102
RTVSPost2010PropOp37
 70
     1
102
RTVSPost2010Prop38
140
0.0
102
RTVSPost2010PropOp38
 70
     1
102
RTVSPost2010Prop39
140
1.0
102
RTVSPost2010PropOp39
 70
     1
102
RTVSPost2010Prop40
 90
        0
102
RTVSPost2010PropOp40
 70
     1
102
RTVSPost2010Prop41ColorIndex
 90
       18
102
RTVSPost2010Prop41ColorRGB
 90
        0
102
RTVSPost2010PropOp41
 70
     1
102
RTVSPost2010Prop42
 90
       50
102
RTVSPost2010PropOp42
 70
     1
102
RTVSPost2010Prop43
 90
        3
102
RTVSPost2010PropOp43
 70
     1
102
RTVSPost2010Prop44ColorIndex
 90
        5
102
RTVSPost2010Prop44ColorRGB
 90
      255
102
RTVSPost2010PropOp44
 70
     1
102
RTVSPost2010Prop45
280
     0
102
RTVSPost2010PropOp45
 70
     1
102
RTVSPost2010Prop46
 90
       50
102
RTVSPost2010PropOp46
 70
     1
102
RTVSPost2010Prop47
 90
       50
102
RTVSPost2010PropOp47
 70
     1
102
RTVSPost2010Prop48
 90
       50
102
RTVSPost2010PropOp48
 70
     1
102
RTVSPost2010Prop49
280
     0
102
RTVSPost2010PropOp49
 70
     1
102
RTVSPost2010Prop50
 90
       50
102
RTVSPost2010PropOp50
 70
     1
102
RTVSPost2010Prop51ColorIndex
 90
      256
102
RTVSPost2010Prop51ColorRGB
 90
-16777216
102
RTVSPost2010PropOp51
 70
     0
102
RTVSPost2010Prop52
140
1.0
102
RTVSPost2010PropOp52
 70
     0
102
RTVSPost2010Prop53
 90
        2
102
RTVSPost2010PropOp53
 70
     1
102
RTVSPost2010Prop54
  1
strokes_ogs.tif
102
RTVSPost2010PropOp54
 70
     1
102
RTVSPost2010Prop55
280
     0
102
RTVSPost2010PropOp55
 70
     1
102
RTVSPost2010Prop56
140
1.0
102
RTVSPost2010PropOp56
 70
     1
102
RTVSPost2010Prop57
140
1.0
102
RTVSPost2010PropOp57
 70
     1
  0
XRECORD
  5
646
102
{ACAD_REACTORS
330
645
102
}
330
645
100
AcDbXrecord
280
     1
102
RTVSPost2010Prop28
280
     0
102
RTVSPost2010PropOp28
 70
     1
102
RTVSPost2010Prop29
280
     1
102
RTVSPost2010PropOp29
 70
     1
102
RTVSPost2010Prop30
280
     1
102
RTVSPost2010PropOp30
 70
     1
102
RTVSPost2010Prop31
280
     0
102
RTVSPost2010PropOp31
 70
     1
102
RTVSPost2010Prop32
280
     0
102
RTVSPost2010PropOp32
 70
     1
102
RTVSPost2010Prop33
280
     0
102
RTVSPost2010PropOp33
 70
     1
102
RTVSPost2010Prop34
280
     0
102
RTVSPost2010PropOp34
 70
     1
102
RTVSPost2010Prop35
280
     0
102
RTVSPost2010PropOp35
 70
     1
102
RTVSPost2010Prop36
280
     0
102
RTVSPost2010PropOp36
 70
     1
102
RTVSPost2010Prop37
 90
       50
102
RTVSPost2010PropOp37
 70
     0
102
RTVSPost2010Prop38
140
0.0
102
RTVSPost2010PropOp38
 70
     0
102
RTVSPost2010Prop39
140
1.0
102
RTVSPost2010PropOp39
 70
     0
102
RTVSPost2010Prop40
 90
        0
102
RTVSPost2010PropOp40
 70
     0
102
RTVSPost2010Prop41ColorIndex
 90
       18
102
RTVSPost2010Prop41ColorRGB
 90
        0
102
RTVSPost2010PropOp41
 70
     0
102
RTVSPost2010Prop42
 90
       50
102
RTVSPost2010PropOp42
 70
     0
102
RTVSPost2010Prop43
 90
        3
102
RTVSPost2010PropOp43
 70
     0
102
RTVSPost2010Prop44ColorIndex
 90
        5
102
RTVSPost2010Prop44ColorRGB
 90
      255
102
RTVSPost2010PropOp44
 70
     0
102
RTVSPost2010Prop45
280
     0
102
RTVSPost2010PropOp45
 70
     1
102
RTVSPost2010Prop46
 90
       50
102
RTVSPost2010PropOp46
 70
     0
102
RTVSPost2010Prop47
 90
       50
102
RTVSPost2010PropOp47
 70
     0
102
RTVSPost2010Prop48
 90
       50
102
RTVSPost2010PropOp48
 70
     0
102
RTVSPost2010Prop49
280
     0
102
RTVSPost2010PropOp49
 70
     1
102
RTVSPost2010Prop50
 90
       50
102
RTVSPost2010PropOp50
 70
     0
102
RTVSPost2010Prop51ColorIndex
 90
      256
102
RTVSPost2010Prop51ColorRGB
 90
-16777216
102
RTVSPost2010PropOp51
 70
     0
102
RTVSPost2010Prop52
140
1.0
102
RTVSPost2010PropOp52
 70
     0
102
RTVSPost2010Prop53
 90
        2
102
RTVSPost2010PropOp53
 70
     0
102
RTVSPost2010Prop54
  1
strokes_ogs.tif
102
RTVSPost2010PropOp54
 70
     0
102
RTVSPost2010Prop55
280
     0
102
RTVSPost2010PropOp55
 70
     1
102
RTVSPost2010Prop56
140
1.0
102
RTVSPost2010PropOp56
 70
     0
102
RTVSPost2010Prop57
140
1.0
102
RTVSPost2010PropOp57
 70
     0
  0
XRECORD
  5
636
102
{ACAD_REACTORS
330
635
102
}
330
635
100
AcDbXrecord
280
     1
102
RTVSPost2010Prop28
280
     0
102
RTVSPost2010PropOp28
 70
     1
102
RTVSPost2010Prop29
280
     1
102
RTVSPost2010PropOp29
 70
     1
102
RTVSPost2010Prop30
280
     1
102
RTVSPost2010PropOp30
 70
     1
102
RTVSPost2010Prop31
280
     0
102
RTVSPost2010PropOp31
 70
     1
102
RTVSPost2010Prop32
280
     0
102
RTVSPost2010PropOp32
 70
     1
102
RTVSPost2010Prop33
280
     0
102
RTVSPost2010PropOp33
 70
     1
102
RTVSPost2010Prop34
280
     0
102
RTVSPost2010PropOp34
 70
     1
102
RTVSPost2010Prop35
280
     0
102
RTVSPost2010PropOp35
 70
     1
102
RTVSPost2010Prop36
280
     0
102
RTVSPost2010PropOp36
 70
     1
102
RTVSPost2010Prop37
 90
       50
102
RTVSPost2010PropOp37
 70
     1
102
RTVSPost2010Prop38
140
0.0
102
RTVSPost2010PropOp38
 70
     1
102
RTVSPost2010Prop39
140
1.0
102
RTVSPost2010PropOp39
 70
     1
102
RTVSPost2010Prop40
 90
        0
102
RTVSPost2010PropOp40
 70
     1
102
RTVSPost2010Prop41ColorIndex
 90
       18
102
RTVSPost2010Prop41ColorRGB
 90
        0
102
RTVSPost2010PropOp41
 70
     1
102
RTVSPost2010Prop42
 90
       50
102
RTVSPost2010PropOp42
 70
     1
102
RTVSPost2010Prop43
 90
        3
102
RTVSPost2010PropOp43
 70
     1
102
RTVSPost2010Prop44ColorIndex
 90
        5
102
RTVSPost2010Prop44ColorRGB
 90
      255
102
RTVSPost2010PropOp44
 70
     1
102
RTVSPost2010Prop45
280
     0
102
RTVSPost2010PropOp45
 70
     1
102
RTVSPost2010Prop46
 90
       50
102
RTVSPost2010PropOp46
 70
     1
102
RTVSPost2010Prop47
 90
       50
102
RTVSPost2010PropOp47
 70
     1
102
RTVSPost2010Prop48
 90
       50
102
RTVSPost2010PropOp48
 70
     1
102
RTVSPost2010Prop49
280
     0
102
RTVSPost2010PropOp49
 70
     1
102
RTVSPost2010Prop50
 90
       50
102
RTVSPost2010PropOp50
 70
     1
102
RTVSPost2010Prop51ColorIndex
 90
      256
102
RTVSPost2010Prop51ColorRGB
 90
-16777216
102
RTVSPost2010PropOp51
 70
     0
102
RTVSPost2010Prop52
140
1.0
102
RTVSPost2010PropOp52
 70
     0
102
RTVSPost2010Prop53
 90
        2
102
RTVSPost2010PropOp53
 70
     1
102
RTVSPost2010Prop54
  1
strokes_ogs.tif
102
RTVSPost2010PropOp54
 70
     1
102
RTVSPost2010Prop55
280
     0
102
RTVSPost2010PropOp55
 70
     1
102
RTVSPost2010Prop56
140
1.0
102
RTVSPost2010PropOp56
 70
     1
102
RTVSPost2010Prop57
140
1.0
102
RTVSPost2010PropOp57
 70
     1
  0
XRECORD
  5
648
102
{ACAD_REACTORS
330
647
102
}
330
647
100
AcDbXrecord
280
     1
102
RTVSPost2010Prop28
280
     0
102
RTVSPost2010PropOp28
 70
     1
102
RTVSPost2010Prop29
280
     1
102
RTVSPost2010PropOp29
 70
     1
102
RTVSPost2010Prop30
280
     1
102
RTVSPost2010PropOp30
 70
     1
102
RTVSPost2010Prop31
280
     0
102
RTVSPost2010PropOp31
 70
     1
102
RTVSPost2010Prop32
280
     0
102
RTVSPost2010PropOp32
 70
     1
102
RTVSPost2010Prop33
280
     0
102
RTVSPost2010PropOp33
 70
     1
102
RTVSPost2010Prop34
280
     0
102
RTVSPost2010PropOp34
 70
     1
102
RTVSPost2010Prop35
280
     0
102
RTVSPost2010PropOp35
 70
     1
102
RTVSPost2010Prop36
280
     0
102
RTVSPost2010PropOp36
 70
     1
102
RTVSPost2010Prop37
 90
       50
102
RTVSPost2010PropOp37
 70
     0
102
RTVSPost2010Prop38
140
0.0
102
RTVSPost2010PropOp38
 70
     0
102
RTVSPost2010Prop39
140
1.0
102
RTVSPost2010PropOp39
 70
     0
102
RTVSPost2010Prop40
 90
        0
102
RTVSPost2010PropOp40
 70
     0
102
RTVSPost2010Prop41ColorIndex
 90
       18
102
RTVSPost2010Prop41ColorRGB
 90
        0
102
RTVSPost2010PropOp41
 70
     0
102
RTVSPost2010Prop42
 90
       50
102
RTVSPost2010PropOp42
 70
     0
102
RTVSPost2010Prop43
 90
        3
102
RTVSPost2010PropOp43
 70
     0
102
RTVSPost2010Prop44ColorIndex
 90
        5
102
RTVSPost2010Prop44ColorRGB
 90
      255
102
RTVSPost2010PropOp44
 70
     0
102
RTVSPost2010Prop45
280
     0
102
RTVSPost2010PropOp45
 70
     1
102
RTVSPost2010Prop46
 90
       50
102
RTVSPost2010PropOp46
 70
     0
102
RTVSPost2010Prop47
 90
       50
102
RTVSPost2010PropOp47
 70
     0
102
RTVSPost2010Prop48
 90
       50
102
RTVSPost2010PropOp48
 70
     0
102
RTVSPost2010Prop49
280
     0
102
RTVSPost2010PropOp49
 70
     1
102
RTVSPost2010Prop50
 90
       50
102
RTVSPost2010PropOp50
 70
     0
102
RTVSPost2010Prop51ColorIndex
 90
      256
102
RTVSPost2010Prop51ColorRGB
 90
-16777216
102
RTVSPost2010PropOp51
 70
     0
102
RTVSPost2010Prop52
140
1.0
102
RTVSPost2010PropOp52
 70
     0
102
RTVSPost2010Prop53
 90
        2
102
RTVSPost2010PropOp53
 70
     0
102
RTVSPost2010Prop54
  1
strokes_ogs.tif
102
RTVSPost2010PropOp54
 70
     0
102
RTVSPost2010Prop55
280
     0
102
RTVSPost2010PropOp55
 70
     1
102
RTVSPost2010Prop56
140
1.0
102
RTVSPost2010PropOp56
 70
     0
102
RTVSPost2010Prop57
140
1.0
102
RTVSPost2010PropOp57
 70
     0
  0
XRECORD
  5
62E
102
{ACAD_REACTORS
330
62D
102
}
330
62D
100
AcDbXrecord
280
     1
102
RTVSPost2010Prop28
280
     0
102
RTVSPost2010PropOp28
 70
     1
102
RTVSPost2010Prop29
280
     1
102
RTVSPost2010PropOp29
 70
     1
102
RTVSPost2010Prop30
280
     1
102
RTVSPost2010PropOp30
 70
     1
102
RTVSPost2010Prop31
280
     0
102
RTVSPost2010PropOp31
 70
     1
102
RTVSPost2010Prop32
280
     0
102
RTVSPost2010PropOp32
 70
     1
102
RTVSPost2010Prop33
280
     0
102
RTVSPost2010PropOp33
 70
     1
102
RTVSPost2010Prop34
280
     0
102
RTVSPost2010PropOp34
 70
     1
102
RTVSPost2010Prop35
280
     0
102
RTVSPost2010PropOp35
 70
     1
102
RTVSPost2010Prop36
280
     0
102
RTVSPost2010PropOp36
 70
     1
102
RTVSPost2010Prop37
 90
       50
102
RTVSPost2010PropOp37
 70
     1
102
RTVSPost2010Prop38
140
0.0
102
RTVSPost2010PropOp38
 70
     1
102
RTVSPost2010Prop39
140
1.0
102
RTVSPost2010PropOp39
 70
     1
102
RTVSPost2010Prop40
 90
        0
102
RTVSPost2010PropOp40
 70
     1
102
RTVSPost2010Prop41ColorIndex
 90
       18
102
RTVSPost2010Prop41ColorRGB
 90
        0
102
RTVSPost2010PropOp41
 70
     1
102
RTVSPost2010Prop42
 90
       50
102
RTVSPost2010PropOp42
 70
     1
102
RTVSPost2010Prop43
 90
        3
102
RTVSPost2010PropOp43
 70
     1
102
RTVSPost2010Prop44ColorIndex
 90
        5
102
RTVSPost2010Prop44ColorRGB
 90
      255
102
RTVSPost2010PropOp44
 70
     1
102
RTVSPost2010Prop45
280
     0
102
RTVSPost2010PropOp45
 70
     1
102
RTVSPost2010Prop46
 90
       50
102
RTVSPost2010PropOp46
 70
     1
102
RTVSPost2010Prop47
 90
       50
102
RTVSPost2010PropOp47
 70
     1
102
RTVSPost2010Prop48
 90
       50
102
RTVSPost2010PropOp48
 70
     1
102
RTVSPost2010Prop49
280
     0
102
RTVSPost2010PropOp49
 70
     1
102
RTVSPost2010Prop50
 90
       50
102
RTVSPost2010PropOp50
 70
     1
102
RTVSPost2010Prop51ColorIndex
 90
      256
102
RTVSPost2010Prop51ColorRGB
 90
-16777216
102
RTVSPost2010PropOp51
 70
     0
102
RTVSPost2010Prop52
140
1.0
102
RTVSPost2010PropOp52
 70
     0
102
RTVSPost2010Prop53
 90
        2
102
RTVSPost2010PropOp53
 70
     1
102
RTVSPost2010Prop54
  1
strokes_ogs.tif
102
RTVSPost2010PropOp54
 70
     1
102
RTVSPost2010Prop55
280
     0
102
RTVSPost2010PropOp55
 70
     1
102
RTVSPost2010Prop56
140
1.0
102
RTVSPost2010PropOp56
 70
     1
102
RTVSPost2010Prop57
140
1.0
102
RTVSPost2010PropOp57
 70
     1
  0
XRECORD
  5
644
102
{ACAD_REACTORS
330
643
102
}
330
643
100
AcDbXrecord
280
     1
102
RTVSPost2010Prop28
280
     0
102
RTVSPost2010PropOp28
 70
     1
102
RTVSPost2010Prop29
280
     1
102
RTVSPost2010PropOp29
 70
     1
102
RTVSPost2010Prop30
280
     1
102
RTVSPost2010PropOp30
 70
     1
102
RTVSPost2010Prop31
280
     0
102
RTVSPost2010PropOp31
 70
     1
102
RTVSPost2010Prop32
280
     0
102
RTVSPost2010PropOp32
 70
     1
102
RTVSPost2010Prop33
280
     0
102
RTVSPost2010PropOp33
 70
     1
102
RTVSPost2010Prop34
280
     0
102
RTVSPost2010PropOp34
 70
     1
102
RTVSPost2010Prop35
280
     0
102
RTVSPost2010PropOp35
 70
     1
102
RTVSPost2010Prop36
280
     0
102
RTVSPost2010PropOp36
 70
     1
102
RTVSPost2010Prop37
 90
       50
102
RTVSPost2010PropOp37
 70
     1
102
RTVSPost2010Prop38
140
0.0
102
RTVSPost2010PropOp38
 70
     1
102
RTVSPost2010Prop39
140
1.0
102
RTVSPost2010PropOp39
 70
     1
102
RTVSPost2010Prop40
 90
        0
102
RTVSPost2010PropOp40
 70
     1
102
RTVSPost2010Prop41ColorIndex
 90
       18
102
RTVSPost2010Prop41ColorRGB
 90
        0
102
RTVSPost2010PropOp41
 70
     1
102
RTVSPost2010Prop42
 90
       50
102
RTVSPost2010PropOp42
 70
     1
102
RTVSPost2010Prop43
 90
        3
102
RTVSPost2010PropOp43
 70
     1
102
RTVSPost2010Prop44ColorIndex
 90
        5
102
RTVSPost2010Prop44ColorRGB
 90
      255
102
RTVSPost2010PropOp44
 70
     1
102
RTVSPost2010Prop45
280
     0
102
RTVSPost2010PropOp45
 70
     1
102
RTVSPost2010Prop46
 90
       50
102
RTVSPost2010PropOp46
 70
     1
102
RTVSPost2010Prop47
 90
       50
102
RTVSPost2010PropOp47
 70
     1
102
RTVSPost2010Prop48
 90
       50
102
RTVSPost2010PropOp48
 70
     1
102
RTVSPost2010Prop49
280
     0
102
RTVSPost2010PropOp49
 70
     1
102
RTVSPost2010Prop50
 90
       50
102
RTVSPost2010PropOp50
 70
     1
102
RTVSPost2010Prop51ColorIndex
 90
      256
102
RTVSPost2010Prop51ColorRGB
 90
-16777216
102
RTVSPost2010PropOp51
 70
     0
102
RTVSPost2010Prop52
140
1.0
102
RTVSPost2010PropOp52
 70
     0
102
RTVSPost2010Prop53
 90
        2
102
RTVSPost2010PropOp53
 70
     1
102
RTVSPost2010Prop54
  1
strokes_ogs.tif
102
RTVSPost2010PropOp54
 70
     1
102
RTVSPost2010Prop55
280
     0
102
RTVSPost2010PropOp55
 70
     1
102
RTVSPost2010Prop56
140
1.0
102
RTVSPost2010PropOp56
 70
     1
102
RTVSPost2010Prop57
140
1.0
102
RTVSPost2010PropOp57
 70
     1
  0
XRECORD
  5
642
102
{ACAD_REACTORS
330
641
102
}
330
641
100
AcDbXrecord
280
     1
102
RTVSPost2010Prop28
280
     0
102
RTVSPost2010PropOp28
 70
     1
102
RTVSPost2010Prop29
280
     1
102
RTVSPost2010PropOp29
 70
     1
102
RTVSPost2010Prop30
280
     1
102
RTVSPost2010PropOp30
 70
     1
102
RTVSPost2010Prop31
280
     0
102
RTVSPost2010PropOp31
 70
     1
102
RTVSPost2010Prop32
280
     0
102
RTVSPost2010PropOp32
 70
     1
102
RTVSPost2010Prop33
280
     0
102
RTVSPost2010PropOp33
 70
     1
102
RTVSPost2010Prop34
280
     0
102
RTVSPost2010PropOp34
 70
     1
102
RTVSPost2010Prop35
280
     0
102
RTVSPost2010PropOp35
 70
     1
102
RTVSPost2010Prop36
280
     0
102
RTVSPost2010PropOp36
 70
     1
102
RTVSPost2010Prop37
 90
       50
102
RTVSPost2010PropOp37
 70
     1
102
RTVSPost2010Prop38
140
0.0
102
RTVSPost2010PropOp38
 70
     1
102
RTVSPost2010Prop39
140
1.0
102
RTVSPost2010PropOp39
 70
     1
102
RTVSPost2010Prop40
 90
        0
102
RTVSPost2010PropOp40
 70
     1
102
RTVSPost2010Prop41ColorIndex
 90
       18
102
RTVSPost2010Prop41ColorRGB
 90
        0
102
RTVSPost2010PropOp41
 70
     1
102
RTVSPost2010Prop42
 90
       50
102
RTVSPost2010PropOp42
 70
     1
102
RTVSPost2010Prop43
 90
        3
102
RTVSPost2010PropOp43
 70
     1
102
RTVSPost2010Prop44ColorIndex
 90
        5
102
RTVSPost2010Prop44ColorRGB
 90
      255
102
RTVSPost2010PropOp44
 70
     1
102
RTVSPost2010Prop45
280
     0
102
RTVSPost2010PropOp45
 70
     1
102
RTVSPost2010Prop46
 90
       50
102
RTVSPost2010PropOp46
 70
     1
102
RTVSPost2010Prop47
 90
       50
102
RTVSPost2010PropOp47
 70
     1
102
RTVSPost2010Prop48
 90
       50
102
RTVSPost2010PropOp48
 70
     1
102
RTVSPost2010Prop49
280
     0
102
RTVSPost2010PropOp49
 70
     1
102
RTVSPost2010Prop50
 90
       50
102
RTVSPost2010PropOp50
 70
     1
102
RTVSPost2010Prop51ColorIndex
 90
      256
102
RTVSPost2010Prop51ColorRGB
 90
-16777216
102
RTVSPost2010PropOp51
 70
     0
102
RTVSPost2010Prop52
140
1.0
102
RTVSPost2010PropOp52
 70
     0
102
RTVSPost2010Prop53
 90
        2
102
RTVSPost2010PropOp53
 70
     1
102
RTVSPost2010Prop54
  1
strokes_ogs.tif
102
RTVSPost2010PropOp54
 70
     1
102
RTVSPost2010Prop55
280
     0
102
RTVSPost2010PropOp55
 70
     1
102
RTVSPost2010Prop56
140
1.0
102
RTVSPost2010PropOp56
 70
     1
102
RTVSPost2010Prop57
140
1.0
102
RTVSPost2010PropOp57
 70
     1
  0
XRECORD
  5
63C
102
{ACAD_REACTORS
330
63B
102
}
330
63B
100
AcDbXrecord
280
     1
102
RTVSPost2010Prop28
280
     0
102
RTVSPost2010PropOp28
 70
     1
102
RTVSPost2010Prop29
280
     1
102
RTVSPost2010PropOp29
 70
     1
102
RTVSPost2010Prop30
280
     1
102
RTVSPost2010PropOp30
 70
     1
102
RTVSPost2010Prop31
280
     0
102
RTVSPost2010PropOp31
 70
     1
102
RTVSPost2010Prop32
280
     0
102
RTVSPost2010PropOp32
 70
     1
102
RTVSPost2010Prop33
280
     0
102
RTVSPost2010PropOp33
 70
     1
102
RTVSPost2010Prop34
280
     0
102
RTVSPost2010PropOp34
 70
     1
102
RTVSPost2010Prop35
280
     0
102
RTVSPost2010PropOp35
 70
     1
102
RTVSPost2010Prop36
280
     0
102
RTVSPost2010PropOp36
 70
     1
102
RTVSPost2010Prop37
 90
       50
102
RTVSPost2010PropOp37
 70
     1
102
RTVSPost2010Prop38
140
0.0
102
RTVSPost2010PropOp38
 70
     1
102
RTVSPost2010Prop39
140
1.0
102
RTVSPost2010PropOp39
 70
     1
102
RTVSPost2010Prop40
 90
        0
102
RTVSPost2010PropOp40
 70
     1
102
RTVSPost2010Prop41ColorIndex
 90
       18
102
RTVSPost2010Prop41ColorRGB
 90
        0
102
RTVSPost2010PropOp41
 70
     1
102
RTVSPost2010Prop42
 90
       50
102
RTVSPost2010PropOp42
 70
     1
102
RTVSPost2010Prop43
 90
        3
102
RTVSPost2010PropOp43
 70
     1
102
RTVSPost2010Prop44ColorIndex
 90
        5
102
RTVSPost2010Prop44ColorRGB
 90
      255
102
RTVSPost2010PropOp44
 70
     1
102
RTVSPost2010Prop45
280
     0
102
RTVSPost2010PropOp45
 70
     1
102
RTVSPost2010Prop46
 90
       50
102
RTVSPost2010PropOp46
 70
     1
102
RTVSPost2010Prop47
 90
       50
102
RTVSPost2010PropOp47
 70
     1
102
RTVSPost2010Prop48
 90
       50
102
RTVSPost2010PropOp48
 70
     1
102
RTVSPost2010Prop49
280
     0
102
RTVSPost2010PropOp49
 70
     1
102
RTVSPost2010Prop50
 90
       50
102
RTVSPost2010PropOp50
 70
     1
102
RTVSPost2010Prop51ColorIndex
 90
      256
102
RTVSPost2010Prop51ColorRGB
 90
-16777216
102
RTVSPost2010PropOp51
 70
     0
102
RTVSPost2010Prop52
140
1.0
102
RTVSPost2010PropOp52
 70
     0
102
RTVSPost2010Prop53
 90
        2
102
RTVSPost2010PropOp53
 70
     1
102
RTVSPost2010Prop54
  1
strokes_ogs.tif
102
RTVSPost2010PropOp54
 70
     1
102
RTVSPost2010Prop55
280
     0
102
RTVSPost2010PropOp55
 70
     1
102
RTVSPost2010Prop56
140
1.0
102
RTVSPost2010PropOp56
 70
     1
102
RTVSPost2010Prop57
140
1.0
102
RTVSPost2010PropOp57
 70
     1
  0
XRECORD
  5
63E
102
{ACAD_REACTORS
330
63D
102
}
330
63D
100
AcDbXrecord
280
     1
102
RTVSPost2010Prop28
280
     0
102
RTVSPost2010PropOp28
 70
     1
102
RTVSPost2010Prop29
280
     1
102
RTVSPost2010PropOp29
 70
     1
102
RTVSPost2010Prop30
280
     1
102
RTVSPost2010PropOp30
 70
     1
102
RTVSPost2010Prop31
280
     0
102
RTVSPost2010PropOp31
 70
     1
102
RTVSPost2010Prop32
280
     0
102
RTVSPost2010PropOp32
 70
     1
102
RTVSPost2010Prop33
280
     0
102
RTVSPost2010PropOp33
 70
     1
102
RTVSPost2010Prop34
280
     0
102
RTVSPost2010PropOp34
 70
     1
102
RTVSPost2010Prop35
280
     0
102
RTVSPost2010PropOp35
 70
     1
102
RTVSPost2010Prop36
280
     0
102
RTVSPost2010PropOp36
 70
     1
102
RTVSPost2010Prop37
 90
       50
102
RTVSPost2010PropOp37
 70
     1
102
RTVSPost2010Prop38
140
0.0
102
RTVSPost2010PropOp38
 70
     1
102
RTVSPost2010Prop39
140
1.0
102
RTVSPost2010PropOp39
 70
     1
102
RTVSPost2010Prop40
 90
        0
102
RTVSPost2010PropOp40
 70
     1
102
RTVSPost2010Prop41ColorIndex
 90
       18
102
RTVSPost2010Prop41ColorRGB
 90
        0
102
RTVSPost2010PropOp41
 70
     1
102
RTVSPost2010Prop42
 90
       50
102
RTVSPost2010PropOp42
 70
     1
102
RTVSPost2010Prop43
 90
        3
102
RTVSPost2010PropOp43
 70
     1
102
RTVSPost2010Prop44ColorIndex
 90
        5
102
RTVSPost2010Prop44ColorRGB
 90
      255
102
RTVSPost2010PropOp44
 70
     1
102
RTVSPost2010Prop45
280
     0
102
RTVSPost2010PropOp45
 70
     1
102
RTVSPost2010Prop46
 90
       50
102
RTVSPost2010PropOp46
 70
     1
102
RTVSPost2010Prop47
 90
       50
102
RTVSPost2010PropOp47
 70
     1
102
RTVSPost2010Prop48
 90
       50
102
RTVSPost2010PropOp48
 70
     1
102
RTVSPost2010Prop49
280
     0
102
RTVSPost2010PropOp49
 70
     1
102
RTVSPost2010Prop50
 90
       50
102
RTVSPost2010PropOp50
 70
     1
102
RTVSPost2010Prop51ColorIndex
 90
      256
102
RTVSPost2010Prop51ColorRGB
 90
-16777216
102
RTVSPost2010PropOp51
 70
     0
102
RTVSPost2010Prop52
140
1.0
102
RTVSPost2010PropOp52
 70
     0
102
RTVSPost2010Prop53
 90
        2
102
RTVSPost2010PropOp53
 70
     1
102
RTVSPost2010Prop54
  1
strokes_ogs.tif
102
RTVSPost2010PropOp54
 70
     1
102
RTVSPost2010Prop55
280
     0
102
RTVSPost2010PropOp55
 70
     1
102
RTVSPost2010Prop56
140
1.0
102
RTVSPost2010PropOp56
 70
     1
102
RTVSPost2010Prop57
140
1.0
102
RTVSPost2010PropOp57
 70
     1
  0
XRECORD
  5
634
102
{ACAD_REACTORS
330
633
102
}
330
633
100
AcDbXrecord
280
     1
102
RTVSPost2010Prop28
280
     0
102
RTVSPost2010PropOp28
 70
     1
102
RTVSPost2010Prop29
280
     1
102
RTVSPost2010PropOp29
 70
     1
102
RTVSPost2010Prop30
280
     1
102
RTVSPost2010PropOp30
 70
     1
102
RTVSPost2010Prop31
280
     0
102
RTVSPost2010PropOp31
 70
     1
102
RTVSPost2010Prop32
280
     0
102
RTVSPost2010PropOp32
 70
     1
102
RTVSPost2010Prop33
280
     0
102
RTVSPost2010PropOp33
 70
     1
102
RTVSPost2010Prop34
280
     0
102
RTVSPost2010PropOp34
 70
     1
102
RTVSPost2010Prop35
280
     0
102
RTVSPost2010PropOp35
 70
     1
102
RTVSPost2010Prop36
280
     0
102
RTVSPost2010PropOp36
 70
     1
102
RTVSPost2010Prop37
 90
       50
102
RTVSPost2010PropOp37
 70
     1
102
RTVSPost2010Prop38
140
0.0
102
RTVSPost2010PropOp38
 70
     1
102
RTVSPost2010Prop39
140
1.0
102
RTVSPost2010PropOp39
 70
     1
102
RTVSPost2010Prop40
 90
        0
102
RTVSPost2010PropOp40
 70
     1
102
RTVSPost2010Prop41ColorIndex
 90
       18
102
RTVSPost2010Prop41ColorRGB
 90
        0
102
RTVSPost2010PropOp41
 70
     1
102
RTVSPost2010Prop42
 90
       50
102
RTVSPost2010PropOp42
 70
     1
102
RTVSPost2010Prop43
 90
        3
102
RTVSPost2010PropOp43
 70
     1
102
RTVSPost2010Prop44ColorIndex
 90
        5
102
RTVSPost2010Prop44ColorRGB
 90
      255
102
RTVSPost2010PropOp44
 70
     1
102
RTVSPost2010Prop45
280
     0
102
RTVSPost2010PropOp45
 70
     1
102
RTVSPost2010Prop46
 90
       50
102
RTVSPost2010PropOp46
 70
     1
102
RTVSPost2010Prop47
 90
       50
102
RTVSPost2010PropOp47
 70
     1
102
RTVSPost2010Prop48
 90
       50
102
RTVSPost2010PropOp48
 70
     1
102
RTVSPost2010Prop49
280
     0
102
RTVSPost2010PropOp49
 70
     1
102
RTVSPost2010Prop50
 90
       50
102
RTVSPost2010PropOp50
 70
     1
102
RTVSPost2010Prop51ColorIndex
 90
      256
102
RTVSPost2010Prop51ColorRGB
 90
-16777216
102
RTVSPost2010PropOp51
 70
     0
102
RTVSPost2010Prop52
140
1.0
102
RTVSPost2010PropOp52
 70
     0
102
RTVSPost2010Prop53
 90
        2
102
RTVSPost2010PropOp53
 70
     1
102
RTVSPost2010Prop54
  1
strokes_ogs.tif
102
RTVSPost2010PropOp54
 70
     1
102
RTVSPost2010Prop55
280
     0
102
RTVSPost2010PropOp55
 70
     1
102
RTVSPost2010Prop56
140
1.0
102
RTVSPost2010PropOp56
 70
     1
102
RTVSPost2010Prop57
140
1.0
102
RTVSPost2010PropOp57
 70
     1
  0
XRECORD
  5
628
102
{ACAD_REACTORS
330
627
102
}
330
627
100
AcDbXrecord
280
     1
102
RTVSPost2010Prop28
280
     0
102
RTVSPost2010PropOp28
 70
     1
102
RTVSPost2010Prop29
280
     1
102
RTVSPost2010PropOp29
 70
     1
102
RTVSPost2010Prop30
280
     1
102
RTVSPost2010PropOp30
 70
     1
102
RTVSPost2010Prop31
280
     0
102
RTVSPost2010PropOp31
 70
     1
102
RTVSPost2010Prop32
280
     0
102
RTVSPost2010PropOp32
 70
     1
102
RTVSPost2010Prop33
280
     0
102
RTVSPost2010PropOp33
 70
     1
102
RTVSPost2010Prop34
280
     0
102
RTVSPost2010PropOp34
 70
     1
102
RTVSPost2010Prop35
280
     0
102
RTVSPost2010PropOp35
 70
     1
102
RTVSPost2010Prop36
280
     0
102
RTVSPost2010PropOp36
 70
     1
102
RTVSPost2010Prop37
 90
       50
102
RTVSPost2010PropOp37
 70
     1
102
RTVSPost2010Prop38
140
0.0
102
RTVSPost2010PropOp38
 70
     1
102
RTVSPost2010Prop39
140
1.0
102
RTVSPost2010PropOp39
 70
     1
102
RTVSPost2010Prop40
 90
        0
102
RTVSPost2010PropOp40
 70
     1
102
RTVSPost2010Prop41ColorIndex
 90
       18
102
RTVSPost2010Prop41ColorRGB
 90
        0
102
RTVSPost2010PropOp41
 70
     1
102
RTVSPost2010Prop42
 90
       50
102
RTVSPost2010PropOp42
 70
     1
102
RTVSPost2010Prop43
 90
        3
102
RTVSPost2010PropOp43
 70
     1
102
RTVSPost2010Prop44ColorIndex
 90
        5
102
RTVSPost2010Prop44ColorRGB
 90
      255
102
RTVSPost2010PropOp44
 70
     1
102
RTVSPost2010Prop45
280
     0
102
RTVSPost2010PropOp45
 70
     1
102
RTVSPost2010Prop46
 90
       50
102
RTVSPost2010PropOp46
 70
     1
102
RTVSPost2010Prop47
 90
       50
102
RTVSPost2010PropOp47
 70
     1
102
RTVSPost2010Prop48
 90
       50
102
RTVSPost2010PropOp48
 70
     1
102
RTVSPost2010Prop49
280
     0
102
RTVSPost2010PropOp49
 70
     1
102
RTVSPost2010Prop50
 90
       50
102
RTVSPost2010PropOp50
 70
     1
102
RTVSPost2010Prop51ColorIndex
 90
      256
102
RTVSPost2010Prop51ColorRGB
 90
-16777216
102
RTVSPost2010PropOp51
 70
     0
102
RTVSPost2010Prop52
140
1.0
102
RTVSPost2010PropOp52
 70
     0
102
RTVSPost2010Prop53
 90
        2
102
RTVSPost2010PropOp53
 70
     1
102
RTVSPost2010Prop54
  1
strokes_ogs.tif
102
RTVSPost2010PropOp54
 70
     1
102
RTVSPost2010Prop55
280
     0
102
RTVSPost2010PropOp55
 70
     1
102
RTVSPost2010Prop56
140
1.0
102
RTVSPost2010PropOp56
 70
     1
102
RTVSPost2010Prop57
140
1.0
102
RTVSPost2010PropOp57
 70
     1
  0
XRECORD
  5
640
102
{ACAD_REACTORS
330
63F
102
}
330
63F
100
AcDbXrecord
280
     1
102
RTVSPost2010Prop28
280
     0
102
RTVSPost2010PropOp28
 70
     1
102
RTVSPost2010Prop29
280
     1
102
RTVSPost2010PropOp29
 70
     1
102
RTVSPost2010Prop30
280
     1
102
RTVSPost2010PropOp30
 70
     1
102
RTVSPost2010Prop31
280
     0
102
RTVSPost2010PropOp31
 70
     1
102
RTVSPost2010Prop32
280
     0
102
RTVSPost2010PropOp32
 70
     1
102
RTVSPost2010Prop33
280
     0
102
RTVSPost2010PropOp33
 70
     1
102
RTVSPost2010Prop34
280
     0
102
RTVSPost2010PropOp34
 70
     1
102
RTVSPost2010Prop35
280
     0
102
RTVSPost2010PropOp35
 70
     1
102
RTVSPost2010Prop36
280
     0
102
RTVSPost2010PropOp36
 70
     1
102
RTVSPost2010Prop37
 90
       50
102
RTVSPost2010PropOp37
 70
     1
102
RTVSPost2010Prop38
140
0.0
102
RTVSPost2010PropOp38
 70
     1
102
RTVSPost2010Prop39
140
1.0
102
RTVSPost2010PropOp39
 70
     1
102
RTVSPost2010Prop40
 90
        0
102
RTVSPost2010PropOp40
 70
     1
102
RTVSPost2010Prop41ColorIndex
 90
       18
102
RTVSPost2010Prop41ColorRGB
 90
        0
102
RTVSPost2010PropOp41
 70
     1
102
RTVSPost2010Prop42
 90
       50
102
RTVSPost2010PropOp42
 70
     1
102
RTVSPost2010Prop43
 90
        3
102
RTVSPost2010PropOp43
 70
     1
102
RTVSPost2010Prop44ColorIndex
 90
        5
102
RTVSPost2010Prop44ColorRGB
 90
      255
102
RTVSPost2010PropOp44
 70
     1
102
RTVSPost2010Prop45
280
     0
102
RTVSPost2010PropOp45
 70
     1
102
RTVSPost2010Prop46
 90
       50
102
RTVSPost2010PropOp46
 70
     1
102
RTVSPost2010Prop47
 90
       50
102
RTVSPost2010PropOp47
 70
     1
102
RTVSPost2010Prop48
 90
       50
102
RTVSPost2010PropOp48
 70
     1
102
RTVSPost2010Prop49
280
     0
102
RTVSPost2010PropOp49
 70
     1
102
RTVSPost2010Prop50
 90
       50
102
RTVSPost2010PropOp50
 70
     1
102
RTVSPost2010Prop51ColorIndex
 90
      256
102
RTVSPost2010Prop51ColorRGB
 90
-16777216
102
RTVSPost2010PropOp51
 70
     0
102
RTVSPost2010Prop52
140
1.0
102
RTVSPost2010PropOp52
 70
     0
102
RTVSPost2010Prop53
 90
        2
102
RTVSPost2010PropOp53
 70
     1
102
RTVSPost2010Prop54
  1
strokes_ogs.tif
102
RTVSPost2010PropOp54
 70
     1
102
RTVSPost2010Prop55
280
     0
102
RTVSPost2010PropOp55
 70
     1
102
RTVSPost2010Prop56
140
1.0
102
RTVSPost2010PropOp56
 70
     1
102
RTVSPost2010Prop57
140
1.0
102
RTVSPost2010PropOp57
 70
     1
  0
ENDSEC
  0
EOF
