  0
SECTION
  2
HEADER
  9
$ACADVER
  1
AC1009
  9
$INSBASE
 10
0.0
 20
0.0
 30
0.0
  9
$EXTMIN
 10
440.58221078391159
 20
-501.15714937421848
 30
-0.0015258207003583
  9
$EXTMAX
 10
1240.658112834112
 20
58.877030313321256
 30
0.0000000349246037
  9
$LIMMIN
 10
0.0
 20
0.0
  9
$LIMMAX
 10
0.0
 20
0.0
  9
$ORTHOMODE
 70
     0
  9
$REGENMODE
 70
     1
  9
$FILLMODE
 70
     1
  9
$QTEXTMODE
 70
     0
  9
$MIRRTEXT
 70
     1
  9
$DRAGMODE
 70
     2
  9
$LTSCALE
 40
1.0
  9
$OSMODE
 70
    31
  9
$ATTMODE
 70
     1
  9
$TEXTSIZE
 40
0.0
  9
$TRACEWID
 40
0.05
  9
$TEXTSTYLE
  7
STANDARD
  9
$CLAYER
  8
0
  9
$CELTYPE
  6
CONTINUOUS
  9
$CECOLOR
 62
   256
  9
$DIMSCALE
 40
1.0
  9
$DIMASZ
 40
0.18
  9
$DIMEXO
 40
0.0625
  9
$DIMDLI
 40
0.38
  9
$DIMRND
 40
0.0
  9
$DIMDLE
 40
0.0
  9
$DIMEXE
 40
0.18
  9
$DIMTP
 40
0.0
  9
$DIMTM
 40
0.0
  9
$DIMTXT
 40
0.18
  9
$DIMCEN
 40
0.09
  9
$DIMTSZ
 40
0.0
  9
$DIMTOL
 70
     0
  9
$DIMLIM
 70
     0
  9
$DIMTIH
 70
     1
  9
$DIMTOH
 70
     1
  9
$DIMSE1
 70
     0
  9
$DIMSE2
 70
     0
  9
$DIMTAD
 70
     0
  9
$DIMZIN
 70
     0
  9
$DIMBLK
  1

  9
$DIMASO
 70
     1
  9
$DIMSHO
 70
     1
  9
$DIMPOST
  1

  9
$DIMAPOST
  1

  9
$DIMALT
 70
     0
  9
$DIMALTD
 70
     2
  9
$DIMALTF
 40
25.399999999999999
  9
$DIMLFAC
 40
1.0
  9
$DIMTOFL
 70
     0
  9
$DIMTVP
 40
0.0
  9
$DIMTIX
 70
     0
  9
$DIMSOXD
 70
     0
  9
$DIMSAH
 70
     0
  9
$DIMBLK1
  1

  9
$DIMBLK2
  1

  9
$DIMSTYLE
  2
STANDARD
  9
$DIMCLRD
 70
     0
  9
$DIMCLRE
 70
     0
  9
$DIMCLRT
 70
     0
  9
$DIMTFAC
 40
1.0
  9
$DIMGAP
 40
0.09
  9
$LUNITS
 70
     2
  9
$LUPREC
 70
     4
  9
$SKETCHINC
 40
0.1
  9
$FILLETRAD
 40
0.0
  9
$AUNITS
 70
     0
  9
$AUPREC
 70
     0
  9
$MENU
  1
acad
  9
$ELEVATION
 40
0.0
  9
$PELEVATION
 40
0.0
  9
$THICKNESS
 40
0.0
  9
$LIMCHECK
 70
     0
  9
$BLIPMODE
 70
     0
  9
$CHAMFERA
 40
0.0
  9
$CHAMFERB
 40
0.0
  9
$SKPOLY
 70
     0
  9
$TDCREATE
 40
2454862.4707020381
  9
$TDUPDATE
 40
2454862.4736785651
  9
$TDINDWG
 40
0.0030197454
  9
$TDUSRTIMER
 40
0.0030155903
  9
$USRTIMER
 70
     1
  9
$ANGBASE
 50
0.0
  9
$ANGDIR
 70
     0
  9
$PDMODE
 70
     3
  9
$PDSIZE
 40
-1.0
  9
$PLINEWID
 40
0.0
  9
$COORDS
 70
     2
  9
$SPLFRAME
 70
     0
  9
$SPLINETYPE
 70
     6
  9
$SPLINESEGS
 70
     8
  9
$ATTDIA
 70
     0
  9
$ATTREQ
 70
     1
  9
$HANDLING
 70
     1
  9
$HANDSEED
  5
6ED
  9
$SURFTAB1
 70
     6
  9
$SURFTAB2
 70
     6
  9
$SURFTYPE
 70
     6
  9
$SURFU
 70
     6
  9
$SURFV
 70
     6
  9
$UCSNAME
  2

  9
$UCSORG
 10
0.0
 20
0.0
 30
0.0
  9
$UCSXDIR
 10
1.0
 20
0.0
 30
0.0
  9
$UCSYDIR
 10
0.0
 20
1.0
 30
0.0
  9
$PUCSNAME
  2

  9
$PUCSORG
 10
0.0
 20
0.0
 30
0.0
  9
$PUCSXDIR
 10
1.0
 20
0.0
 30
0.0
  9
$PUCSYDIR
 10
0.0
 20
1.0
 30
0.0
  9
$USERI1
 70
     0
  9
$USERI2
 70
     0
  9
$USERI3
 70
     0
  9
$USERI4
 70
     0
  9
$USERI5
 70
     0
  9
$USERR1
 40
0.0
  9
$USERR2
 40
0.0
  9
$USERR3
 40
0.0
  9
$USERR4
 40
0.0
  9
$USERR5
 40
0.0
  9
$WORLDVIEW
 70
     1
  9
$SHADEDGE
 70
     3
  9
$SHADEDIF
 70
    70
  9
$TILEMODE
 70
     1
  9
$MAXACTVP
 70
    16
  9
$PLIMCHECK
 70
     0
  9
$PEXTMIN
 10
1.0000000000000000E+020
 20
1.0000000000000000E+020
 30
1.0000000000000000E+020
  9
$PEXTMAX
 10
-1.0000000000000000E+020
 20
-1.0000000000000000E+020
 30
-1.0000000000000000E+020
  9
$PLIMMIN
 10
0.0
 20
0.0
  9
$PLIMMAX
 10
12.0
 20
9.0
  9
$UNITMODE
 70
     0
  9
$VISRETAIN
 70
     0
  9
$PLINEGEN
 70
     1
  9
$PSLTSCALE
 70
     0
  0
ENDSEC
  0
SECTION
  2
TABLES
  0
TABLE
  2
VPORT
 70
     2
  0
VPORT
  2
*ACTIVE
 70
     0
 10
0.0
 20
0.0
 11
1.0
 21
1.0
 12
840.62016180901219
 22
-221.14005953044861
 13
0.0
 23
0.0
 14
1.0
 24
1.0
 15
0.0
 25
0.0
 16
0.0
 26
0.0
 36
1.0
 17
0.0
 27
0.0
 37
0.0
 40
564.68176624096338
 41
1.6343490304709141
 42
50.0
 43
0.0
 44
0.0
 50
0.0
 51
0.0
 71
     0
 72
   100
 73
     1
 74
     1
 75
     0
 76
     0
 77
     0
 78
     0
  0
ENDTAB
  0
TABLE
  2
LTYPE
 70
    11
  0
LTYPE
  2
CONTINUOUS
 70
     0
  3
Solid line
 72
    65
 73
     0
 40
0.0
  0
LTYPE
  2
DOT
 70
     0
  3
. . . . . . . . 
 72
    65
 73
     2
 40
1.0
 49
0.0
 49
-1.0
  0
LTYPE
  2
DASHED
 70
     0
  3
___  ___  ___  ___  
 72
    65
 73
     2
 40
4.0
 49
3.0
 49
-1.0
  0
LTYPE
  2
HIDDEN
 70
     0
  3
__ __ __ __ 
 72
    65
 73
     2
 40
3.0
 49
2.0
 49
-1.0
  0
LTYPE
  2
STITCH
 70
     0
  3
_ _ _ _ 
 72
    65
 73
     2
 40
2.0
 49
1.0
 49
-1.0
  0
LTYPE
  2
CENTER
 70
     0
  3
______  __  ______  __  
 72
    65
 73
     4
 40
43.0
 49
40.0
 49
-1.0
 49
1.0
 49
-1.0
  0
LTYPE
  2
DASHDOT
 70
     0
  3
____ . ____ . 
 72
    65
 73
     4
 40
32.0
 49
30.0
 49
-1.0
 49
0.0
 49
-1.0
  0
LTYPE
  2
BORDER
 70
     0
  3
__ . __ . 
 72
    65
 73
     4
 40
22.0
 49
20.0
 49
-1.0
 49
0.0
 49
-1.0
  0
LTYPE
  2
CUTTING
 70
     0
  3
________   ___   ___   
 72
    65
 73
     6
 40
45.0
 49
40.0
 49
-1.0
 49
1.0
 49
-1.0
 49
1.0
 49
-1.0
  0
LTYPE
  2
PHANTOM
 70
     0
  3
______  __  __  
 72
    65
 73
     6
 40
35.0
 49
30.0
 49
-1.0
 49
1.0
 49
-1.0
 49
1.0
 49
-1.0
  0
LTYPE
  2
DIVIDE
 70
     0
  3
____ . . ____ . . 
 72
    65
 73
     6
 40
23.0
 49
20.0
 49
-1.0
 49
0.0
 49
-1.0
 49
0.0
 49
-1.0
  0
ENDTAB
  0
TABLE
  2
LAYER
 70
     3
  0
LAYER
  2
0
 70
     0
 62
     7
  6
CONTINUOUS
  0
LAYER
  2
┌▓È_1
 70
     0
 62
     7
  6
CONTINUOUS
  0
LAYER
  2
Éíû@É³
 70
     0
 62
     7
  6
CONTINUOUS
  0
ENDTAB
  0
TABLE
  2
STYLE
 70
     1
  0
STYLE
  2
STANDARD
 70
     0
 40
0.0
 41
1.0
 50
0.0
 71
     0
 42
0.0
  3
txt
  4
extfont
  0
ENDTAB
  0
TABLE
  2
VIEW
 70
     0
  0
ENDTAB
  0
TABLE
  2
UCS
 70
     0
  0
ENDTAB
  0
TABLE
  2
APPID
 70
     2
  0
APPID
  2
ACAD
 70
     0
  0
APPID
  2
DCO15
 70
     0
  0
ENDTAB
  0
TABLE
  2
DIMSTYLE
 70
     2
  0
DIMSTYLE
  2
STANDARD
 70
     0
  3

  4

  5

  6

  7

 40
1.0
 41
0.18
 42
0.0625
 43
0.38
 44
0.18
 45
0.0
 46
0.0
 47
0.0
 48
0.0
140
0.18
141
0.09
142
0.0
143
25.399999999999999
144
1.0
145
0.0
146
1.0
147
0.09
 71
     0
 72
     0
 73
     1
 74
     1
 75
     0
 76
     0
 77
     0
 78
     0
170
     0
171
     2
172
     0
173
     0
174
     0
175
     0
176
     0
177
     0
178
     0
  0
DIMSTYLE
  2
VELDIM0
 70
     0
  3

  4

  5

  6

  7

 40
1.0
 41
6.0
 42
0.0625
 43
0.38
 44
0.5
 45
0.0
 46
3.0
 47
0.0
 48
0.0
140
5.9972220420999998
141
0.09
142
0.0
143
25.399999999999999
144
1.0
145
0.0
146
1.0
147
0.09
 71
     0
 72
     0
 73
     0
 74
     0
 75
     0
 76
     0
 77
     0
 78
     8
170
     0
171
     2
172
     0
173
     0
174
     0
175
     0
176
     0
177
     0
178
     0
  0
ENDTAB
  0
ENDSEC
  0
SECTION
  2
BLOCKS
  0
BLOCK
  8
0
  2
$MODEL_SPACE
 70
     0
 10
0.0
 20
0.0
 30
0.0
  3
$MODEL_SPACE
  1

  0
ENDBLK
  5
E
  8
0
  0
BLOCK
 67
     1
  8
0
  2
$PAPER_SPACE
 70
     0
 10
0.0
 20
0.0
 30
0.0
  3
$PAPER_SPACE
  1

  0
ENDBLK
  5
10
 67
     1
  8
0
  0
BLOCK
  8
0
  2
BALLON0
 70
     0
 10
0.0
 20
0.0
 30
0.0
  3
BALLON0
  1

  0
INSERT
  5
36
  8
0
  6
CONTINUOUS
  2
*U18
 10
0.0
 20
0.0
 30
0.0
  0
CIRCLE
  5
37
  8
┌▓È_1
 10
258.77588601790001
 20
-384.6212534572
 30
0.0
 40
8.0
  0
LINE
  5
38
  8
Éíû@É³
 10
245.44255268449999
 20
-384.6212534572
 30
0.0
 11
250.77588601790001
 21
-384.6212534572
 31
0.0
  0
LINE
  5
39
  8
Éíû@É³
 10
207.44818821589999
 20
-437.57419629899999
 30
0.0
 11
245.44255268449999
 21
-384.6212534572
 31
0.0
  0
SOLID
  5
3A
  8
Éíû@É³
 10
207.44818821589999
 20
-437.57419629899999
 30
0.0
 11
210.8119815821
 21
-430.1415053872999
 31
0.0
 12
211.179212484
 22
-432.37424842320002
 32
0.0
 13
211.179212484
 23
-432.37424842320002
 33
0.0
  0
SOLID
  5
3B
  8
Éíû@É³
 10
211.179212484
 20
-432.37424842320002
 30
0.0
 11
213.4119555199
 21
-432.00701752129987
 31
0.0
 12
207.44818821589999
 22
-437.57419629899999
 32
0.0
 13
207.44818821589999
 23
-437.57419629899999
 33
0.0
  0
ENDBLK
  5
3C
  8
0
  0
BLOCK
  8
0
  2
BALLON1
 70
     0
 10
0.0
 20
0.0
 30
0.0
  3
BALLON1
  1

  0
INSERT
  5
42
  8
0
  6
CONTINUOUS
  2
*U19
 10
0.0
 20
0.0
 30
0.0
  0
CIRCLE
  5
43
  8
┌▓È_1
 10
-392.51167291920001
 20
-89.844673930499994
 30
0.0
 40
8.0
  0
LINE
  5
44
  8
Éíû@É³
 10
-379.17833958589989
 20
-89.844673930499994
 30
0.0
 11
-384.51167291920001
 21
-89.844673930499994
 31
0.0
  0
LINE
  5
45
  8
Éíû@É³
 10
-355.29987578909999
 20
-40.094673930500001
 30
0.0
 11
-379.17833958589989
 21
-89.844673930499994
 31
0.0
  0
SOLID
  5
46
  8
Éíû@É³
 10
-355.29987578909999
 20
-40.094673930500001
 30
0.0
 11
-357.31908906000001
 21
-47.999278776200001
 31
0.0
 12
-358.06920981989998
 22
-45.864491000900003
 32
0.0
 13
-358.06920981989998
 23
-45.864491000900003
 33
0.0
  0
SOLID
  5
47
  8
Éíû@É³
 10
-358.06920981989998
 20
-45.864491000900003
 30
0.0
 11
-360.20399759520001
 21
-46.614611760899997
 31
0.0
 12
-355.29987578909999
 22
-40.094673930500001
 32
0.0
 13
-355.29987578909999
 23
-40.094673930500001
 33
0.0
  0
ENDBLK
  5
48
  8
0
  0
BLOCK
  8
0
  2
BALLON2
 70
     0
 10
0.0
 20
0.0
 30
0.0
  3
BALLON2
  1

  0
INSERT
  5
4C
  8
0
  6
CONTINUOUS
  2
*U20
 10
0.0
 20
0.0
 30
0.0
  0
CIRCLE
  5
4D
  8
┌▓È_1
 10
-178.96486197249999
 20
-89.844673930499994
 30
0.0
 40
8.0
  0
LINE
  5
4E
  8
Éíû@É³
 10
-192.29819530579999
 20
-89.844673930499994
 30
0.0
 11
-186.96486197249999
 21
-89.844673930499994
 31
0.0
  0
LINE
  5
4F
  8
Éíû@É³
 10
-225.9879771487
 20
-1.8446739304999999
 30
0.0
 11
-192.29819530579999
 21
-89.844673930499994
 31
0.0
  0
SOLID
  5
50
  8
Éíû@É³
 10
-225.9879771487
 20
-1.8446739304999999
 30
0.0
 11
-221.63347231899999
 21
-8.7438251601000001
 31
0.0
 12
-223.69976593039999
 22
-7.8216371577999988
 32
0.0
 13
-223.69976593039999
 23
-7.8216371577999988
 33
0.0
  0
SOLID
  5
51
  8
Éíû@É³
 10
-223.69976593039999
 20
-7.8216371577999988
 30
0.0
 11
-224.62195393269999
 21
-9.8879307691999987
 31
0.0
 12
-225.9879771487
 22
-1.8446739304999999
 32
0.0
 13
-225.9879771487
 23
-1.8446739304999999
 33
0.0
  0
ENDBLK
  5
52
  8
0
  0
BLOCK
  8
0
  2
*D3
 70
     1
 10
0.0
 20
0.0
 30
0.0
  3
*D3
  1

  0
TEXT
  5
65
  8
0
 62
     0
 10
658.65694488519989
 20
16.439887473500001
 30
0.0
 40
5.9972220420999998
  1
235
  0
LINE
  5
66
  8
0
 62
     0
 10
781.44861139289992
 20
-22.871253457200002
 30
0.0
 11
781.44861139289992
 21
14.8815541719
 31
0.0
  0
LINE
  5
67
  8
0
 62
     0
 10
546.44861139290003
 20
-22.871253457200002
 30
0.0
 11
546.44861139290003
 21
14.8815541719
 31
0.0
  0
LINE
  5
68
  8
0
 62
     0
 10
781.44861139289992
 20
14.3815541719
 30
0.0
 11
672.76805557249986
 21
14.3815541719
 31
0.0
  0
LINE
  5
69
  8
0
 62
     0
 10
781.44861139289992
 20
14.3815541719
 30
0.0
 11
655.12916721339991
 21
14.3815541719
 31
0.0
  0
LINE
  5
6A
  8
0
 62
     0
 10
546.44861139290003
 20
14.3815541719
 30
0.0
 11
672.76805557249986
 21
14.3815541719
 31
0.0
  0
LINE
  5
6B
  8
0
 62
     0
 10
546.44861139290003
 20
14.3815541719
 30
0.0
 11
655.12916721339991
 21
14.3815541719
 31
0.0
  0
LINE
  5
6C
  8
0
 62
     0
 10
546.44861139290003
 20
14.3815541719
 30
0.0
 11
549.44861139290003
 21
14.3815541719
 31
0.0
  0
SOLID
  5
6D
  8
0
 62
     0
 10
546.44861139290003
 20
14.3815541719
 30
0.0
 11
552.44861139290003
 21
15.8815541719
 31
0.0
 12
552.44861139290003
 22
12.8815541719
 32
0.0
 13
550.94861139290003
 23
14.3815541719
 33
0.0
  0
LINE
  5
6E
  8
0
 62
     0
 10
781.44861139289992
 20
14.3815541719
 30
0.0
 11
778.44861139289992
 21
14.3815541719
 31
0.0
  0
SOLID
  5
6F
  8
0
 62
     0
 10
781.44861139289992
 20
14.3815541719
 30
0.0
 11
775.44861139289992
 21
12.8815541719
 31
0.0
 12
775.44861139289992
 22
15.8815541719
 32
0.0
 13
776.94861139289992
 23
14.3815541719
 33
0.0
  0
ENDBLK
  5
70
  8
0
  0
BLOCK
  8
0
  2
*D4
 70
     1
 10
0.0
 20
0.0
 30
0.0
  3
*D4
  1

  0
TEXT
  5
7C
  8
0
 62
     0
 10
658.65694488519989
 20
-452.73197456420002
 30
0.0
 40
5.9972220420999998
  1
230
  0
LINE
  5
7D
  8
0
 62
     0
 10
548.94861139290003
 20
-414.07477339479999
 30
0.0
 11
548.94861139290003
 21
-455.29030786570002
 31
0.0
  0
LINE
  5
7E
  8
0
 62
     0
 10
778.94861139289992
 20
-414.07477339479999
 30
0.0
 11
778.94861139289992
 21
-455.29030786570002
 31
0.0
  0
LINE
  5
7F
  8
0
 62
     0
 10
548.94861139290003
 20
-454.7903078656999
 30
0.0
 11
672.76805557249986
 21
-454.7903078656999
 31
0.0
  0
LINE
  5
80
  8
0
 62
     0
 10
548.94861139290003
 20
-454.7903078656999
 30
0.0
 11
655.12916721339991
 21
-454.7903078656999
 31
0.0
  0
LINE
  5
81
  8
0
 62
     0
 10
778.94861139289992
 20
-454.7903078656999
 30
0.0
 11
672.76805557249986
 21
-454.7903078656999
 31
0.0
  0
LINE
  5
82
  8
0
 62
     0
 10
778.94861139289992
 20
-454.7903078656999
 30
0.0
 11
655.12916721339991
 21
-454.7903078656999
 31
0.0
  0
LINE
  5
83
  8
0
 62
     0
 10
778.94861139289992
 20
-454.7903078656999
 30
0.0
 11
775.94861139289992
 21
-454.7903078656999
 31
0.0
  0
SOLID
  5
84
  8
0
 62
     0
 10
778.94861139289992
 20
-454.7903078656999
 30
0.0
 11
772.94861139289992
 21
-456.29030786570002
 31
0.0
 12
772.94861139289992
 22
-453.29030786570002
 32
0.0
 13
774.44861139289992
 23
-454.7903078656999
 33
0.0
  0
LINE
  5
85
  8
0
 62
     0
 10
548.94861139290003
 20
-454.7903078656999
 30
0.0
 11
551.94861139290003
 21
-454.7903078656999
 31
0.0
  0
SOLID
  5
86
  8
0
 62
     0
 10
548.94861139290003
 20
-454.7903078656999
 30
0.0
 11
554.94861139290003
 21
-453.29030786570002
 31
0.0
 12
554.94861139290003
 22
-456.29030786570002
 32
0.0
 13
553.44861139290003
 23
-454.7903078656999
 33
0.0
  0
ENDBLK
  5
87
  8
0
  0
BLOCK
  8
0
  2
*D5
 70
     1
 10
0.0
 20
0.0
 30
0.0
  3
*D5
  1

  0
TEXT
  5
8B
  8
0
 62
     0
 10
648.07361186980006
 20
-435.70560556980001
 30
0.0
 40
5.9972220420999998
  1
(217)ôÓÉí
  0
LINE
  5
8C
  8
0
 62
     0
 10
555.44861139290003
 20
-413.07477339479999
 30
0.0
 11
555.44861139290003
 21
-438.26393887139989
 31
0.0
  0
LINE
  5
8D
  8
0
 62
     0
 10
772.44861139289992
 20
-413.07477339479999
 30
0.0
 11
772.44861139289992
 21
-438.26393887139989
 31
0.0
  0
LINE
  5
8E
  8
0
 62
     0
 10
555.44861139290003
 20
-437.76393887139989
 30
0.0
 11
683.35138858790003
 21
-437.76393887139989
 31
0.0
  0
LINE
  5
8F
  8
0
 62
     0
 10
555.44861139290003
 20
-437.76393887139989
 30
0.0
 11
644.54583419800008
 21
-437.76393887139989
 31
0.0
  0
LINE
  5
90
  8
0
 62
     0
 10
772.44861139289992
 20
-437.76393887139989
 30
0.0
 11
683.35138858790003
 21
-437.76393887139989
 31
0.0
  0
LINE
  5
91
  8
0
 62
     0
 10
772.44861139289992
 20
-437.76393887139989
 30
0.0
 11
644.54583419800008
 21
-437.76393887139989
 31
0.0
  0
LINE
  5
92
  8
0
 62
     0
 10
772.44861139289992
 20
-437.76393887139989
 30
0.0
 11
769.44861139289992
 21
-437.76393887139989
 31
0.0
  0
SOLID
  5
93
  8
0
 62
     0
 10
772.44861139289992
 20
-437.76393887139989
 30
0.0
 11
766.44861139289992
 21
-439.2639388714
 31
0.0
 12
766.44861139289992
 22
-436.2639388714
 32
0.0
 13
767.94861139289992
 23
-437.76393887139989
 33
0.0
  0
LINE
  5
94
  8
0
 62
     0
 10
555.44861139290003
 20
-437.76393887139989
 30
0.0
 11
558.44861139290003
 21
-437.76393887139989
 31
0.0
  0
SOLID
  5
95
  8
0
 62
     0
 10
555.44861139290003
 20
-437.76393887139989
 30
0.0
 11
561.44861139290003
 21
-436.2639388714
 31
0.0
 12
561.44861139290003
 22
-439.2639388714
 32
0.0
 13
559.94861139290003
 23
-437.76393887139989
 33
0.0
  0
ENDBLK
  5
96
  8
0
  0
BLOCK
  8
0
  2
*D6
 70
     1
 10
0.0
 20
0.0
 30
0.0
  3
*D6
  1

  0
TEXT
  5
9D
  8
0
 62
     0
 10
810.99364087189986
 20
-121.1629199649
 30
0.0
 40
5.9972220420999998
  1
190
 50
90.0
  0
LINE
  5
9E
  8
0
 62
     0
 10
779.44861139289992
 20
-210.8712534572
 30
0.0
 11
813.55197417339991
 21
-210.8712534572
 31
0.0
  0
LINE
  5
9F
  8
0
 62
     0
 10
779.44861139289992
 20
-20.871253457200002
 30
0.0
 11
813.55197417339991
 21
-20.871253457200002
 31
0.0
  0
LINE
  5
A0
  8
0
 62
     0
 10
813.05197417340003
 20
-210.8712534572
 30
0.0
 11
813.05197417340003
 21
-107.0518092777
 31
0.0
  0
LINE
  5
A1
  8
0
 62
     0
 10
813.05197417340003
 20
-210.8712534572
 30
0.0
 11
813.05197417340003
 21
-124.69069763669999
 31
0.0
  0
LINE
  5
A2
  8
0
 62
     0
 10
813.05197417340003
 20
-20.871253457200002
 30
0.0
 11
813.05197417340003
 21
-107.0518092777
 31
0.0
  0
LINE
  5
A3
  8
0
 62
     0
 10
813.05197417340003
 20
-20.871253457200002
 30
0.0
 11
813.05197417340003
 21
-124.69069763669999
 31
0.0
  0
LINE
  5
A4
  8
0
 62
     0
 10
813.05197417340003
 20
-20.871253457200002
 30
0.0
 11
813.05197417340003
 21
-23.871253457200002
 31
0.0
  0
SOLID
  5
A5
  8
0
 62
     0
 10
813.05197417340003
 20
-20.871253457200002
 30
0.0
 11
814.5519741733998
 21
-26.871253457200002
 31
0.0
 12
811.55197417339991
 22
-26.871253457200002
 32
0.0
 13
813.05197417340003
 23
-25.371253457200002
 33
0.0
  0
LINE
  5
A6
  8
0
 62
     0
 10
813.05197417340003
 20
-210.8712534572
 30
0.0
 11
813.05197417340003
 21
-207.8712534572
 31
0.0
  0
SOLID
  5
A7
  8
0
 62
     0
 10
813.05197417340003
 20
-210.8712534572
 30
0.0
 11
811.55197417339991
 21
-204.8712534572
 31
0.0
 12
814.5519741733998
 22
-204.8712534572
 32
0.0
 13
813.05197417340003
 23
-206.3712534572
 33
0.0
  0
ENDBLK
  5
A8
  8
0
  0
BLOCK
  8
0
  2
*D7
 70
     1
 10
0.0
 20
0.0
 30
0.0
  3
*D7
  1

  0
TEXT
  5
B0
  8
0
 62
     0
 10
565.4208370261
 20
-73.812968185399995
 30
0.0
 40
5.9972220420999998
  1
25
  0
LINE
  5
B1
  8
0
 62
     0
 10
581.44861800290005
 20
-94.871301486900009
 30
0.0
 11
581.44861800290005
 21
-75.371301486899995
 31
0.0
  0
LINE
  5
B2
  8
0
 62
     0
 10
556.44861139290003
 20
-114.8712534572
 30
0.0
 11
556.44861139290003
 21
-75.371301486899995
 31
0.0
  0
LINE
  5
B3
  8
0
 62
     0
 10
581.44861800290005
 20
-75.871301486899995
 30
0.0
 11
576.00417004159999
 21
-75.871301486899995
 31
0.0
  0
LINE
  5
B4
  8
0
 62
     0
 10
581.44861800290005
 20
-75.871301486899995
 30
0.0
 11
561.89305935430002
 21
-75.871301486899995
 31
0.0
  0
LINE
  5
B5
  8
0
 62
     0
 10
556.44861139290003
 20
-75.871301486899995
 30
0.0
 11
576.00417004159999
 21
-75.871301486899995
 31
0.0
  0
LINE
  5
B6
  8
0
 62
     0
 10
556.44861139290003
 20
-75.871301486899995
 30
0.0
 11
561.89305935430002
 21
-75.871301486899995
 31
0.0
  0
LINE
  5
B7
  8
0
 62
     0
 10
556.44861139290003
 20
-75.871301486899995
 30
0.0
 11
553.44861139290003
 21
-75.871301486899995
 31
0.0
  0
SOLID
  5
B8
  8
0
 62
     0
 10
556.44861139290003
 20
-75.871301486899995
 30
0.0
 11
550.44861139290003
 21
-77.371301486899995
 31
0.0
 12
550.44861139290003
 22
-74.371301486899995
 32
0.0
 13
551.94861139290003
 23
-75.871301486899995
 33
0.0
  0
LINE
  5
B9
  8
0
 62
     0
 10
581.44861800290005
 20
-75.871301486899995
 30
0.0
 11
584.44861800290005
 21
-75.871301486899995
 31
0.0
  0
SOLID
  5
BA
  8
0
 62
     0
 10
581.44861800290005
 20
-75.871301486899995
 30
0.0
 11
587.44861800290005
 21
-74.371301486899995
 31
0.0
 12
587.44861800290005
 22
-77.371301486899995
 32
0.0
 13
585.94861800290005
 23
-75.871301486899995
 33
0.0
  0
ENDBLK
  5
BB
  8
0
  0
BLOCK
  8
0
  2
*D8
 70
     1
 10
0.0
 20
0.0
 30
0.0
  3
*D8
  1

  0
TEXT
  5
E5
  8
0
 62
     0
 10
1090.5183520600999
 20
-121.1631285876
 30
0.0
 40
5.9972220420999998
  1
186
 50
90.0
  0
LINE
  5
E6
  8
0
 62
     0
 10
1045.3736107540999
 20
-208.8714620801
 30
0.0
 11
1093.0766853616999
 21
-208.8714620801
 31
0.0
  0
LINE
  5
E7
  8
0
 62
     0
 10
1045.3736107540999
 20
-22.871462079699999
 30
0.0
 11
1093.0766853616999
 21
-22.871462079699999
 31
0.0
  0
LINE
  5
E8
  8
0
 62
     0
 10
1092.5766853616999
 20
-208.8714620801
 30
0.0
 11
1092.5766853616999
 21
-107.0520179003
 31
0.0
  0
LINE
  5
E9
  8
0
 62
     0
 10
1092.5766853616999
 20
-208.8714620801
 30
0.0
 11
1092.5766853616999
 21
-124.69090625939999
 31
0.0
  0
LINE
  5
EA
  8
0
 62
     0
 10
1092.5766853616999
 20
-22.871462079699999
 30
0.0
 11
1092.5766853616999
 21
-107.0520179003
 31
0.0
  0
LINE
  5
EB
  8
0
 62
     0
 10
1092.5766853616999
 20
-22.871462079699999
 30
0.0
 11
1092.5766853616999
 21
-124.69090625939999
 31
0.0
  0
LINE
  5
EC
  8
0
 62
     0
 10
1092.5766853616999
 20
-22.871462079699999
 30
0.0
 11
1092.5766853616999
 21
-25.871462079699999
 31
0.0
  0
SOLID
  5
ED
  8
0
 62
     0
 10
1092.5766853616999
 20
-22.871462079699999
 30
0.0
 11
1094.0766853616999
 21
-28.871462079699999
 31
0.0
 12
1091.0766853616999
 22
-28.871462079699999
 32
0.0
 13
1092.5766853616999
 23
-27.371462079699999
 33
0.0
  0
LINE
  5
EE
  8
0
 62
     0
 10
1092.5766853616999
 20
-208.8714620801
 30
0.0
 11
1092.5766853616999
 21
-205.8714620801
 31
0.0
  0
SOLID
  5
EF
  8
0
 62
     0
 10
1092.5766853616999
 20
-208.8714620801
 30
0.0
 11
1091.0766853616999
 21
-202.8714620801
 31
0.0
 12
1094.0766853616999
 22
-202.8714620801
 32
0.0
 13
1092.5766853616999
 23
-204.3714620801
 33
0.0
  0
ENDBLK
  5
F0
  8
0
  0
BLOCK
  8
0
  2
*D9
 70
     1
 10
0.0
 20
0.0
 30
0.0
  3
*D9
  1

  0
TEXT
  5
F4
  8
0
 62
     0
 10
1071.3045776905999
 20
-131.7464595772
 30
0.0
 40
5.9972220420999998
  1
(173)ôÓÉí
 50
90.0
  0
LINE
  5
F5
  8
0
 62
     0
 10
1044.3732603486999
 20
-202.37146005389999
 30
0.0
 11
1073.8629109921001
 21
-202.37146005389999
 31
0.0
  0
LINE
  5
F6
  8
0
 62
     0
 10
1044.3736107540999
 20
-29.3714600542
 30
0.0
 11
1073.8629109921001
 21
-29.3714600542
 31
0.0
  0
LINE
  5
F7
  8
0
 62
     0
 10
1073.3629109921001
 20
-202.37146005389999
 30
0.0
 11
1073.3629109921001
 21
-96.468682859100014
 31
0.0
  0
LINE
  5
F8
  8
0
 62
     0
 10
1073.3629109921001
 20
-202.37146005389999
 30
0.0
 11
1073.3629109921001
 21
-135.27423724900001
 31
0.0
  0
LINE
  5
F9
  8
0
 62
     0
 10
1073.3629109921001
 20
-29.3714600542
 30
0.0
 11
1073.3629109921001
 21
-96.468682859100014
 31
0.0
  0
LINE
  5
FA
  8
0
 62
     0
 10
1073.3629109921001
 20
-29.3714600542
 30
0.0
 11
1073.3629109921001
 21
-135.27423724900001
 31
0.0
  0
LINE
  5
FB
  8
0
 62
     0
 10
1073.3629109921001
 20
-29.3714600542
 30
0.0
 11
1073.3629109921001
 21
-32.3714600542
 31
0.0
  0
SOLID
  5
FC
  8
0
 62
     0
 10
1073.3629109921001
 20
-29.3714600542
 30
0.0
 11
1074.8629109921001
 21
-35.3714600542
 31
0.0
 12
1071.8629109921001
 22
-35.3714600542
 32
0.0
 13
1073.3629109921001
 23
-33.8714600542
 33
0.0
  0
LINE
  5
FD
  8
0
 62
     0
 10
1073.3629109921001
 20
-202.37146005389999
 30
0.0
 11
1073.3629109921001
 21
-199.37146005389999
 31
0.0
  0
SOLID
  5
FE
  8
0
 62
     0
 10
1073.3629109921001
 20
-202.37146005389999
 30
0.0
 11
1071.8629109921001
 21
-196.37146005389999
 31
0.0
 12
1074.8629109921001
 22
-196.37146005389999
 32
0.0
 13
1073.3629109921001
 23
-197.87146005389999
 33
0.0
  0
ENDBLK
  5
FF
  8
0
  0
BLOCK
  8
0
  2
BALLON3
 70
     0
 10
0.0
 20
0.0
 30
0.0
  3
BALLON3
  1

  0
INSERT
  5
13B
  8
0
  6
CONTINUOUS
  2
*U25
 10
0.0
 20
0.0
 30
0.0
  0
CIRCLE
  5
13C
  8
┌▓È_1
 10
334.08185042380001
 20
-384.6212534572
 30
0.0
 40
8.0
  0
LINE
  5
13D
  8
Éíû@É³
 10
347.4151837572
 20
-384.6212534572
 30
0.0
 11
342.08185042380001
 21
-384.6212534572
 31
0.0
  0
LINE
  5
13E
  8
Éíû@É³
 10
380.81201550959997
 20
-447.12327367440002
 30
0.0
 11
347.4151837572
 21
-384.6212534572
 31
0.0
  0
SOLID
  5
13F
  8
Éíû@É³
 10
380.81201550959997
 20
-447.12327367440002
 30
0.0
 11
375.63064546110002
 21
-440.82141645449991
 31
0.0
 12
377.79586273690001
 22
-441.47855734400002
 32
0.0
 13
377.79586273690001
 23
-441.47855734400002
 33
0.0
  0
SOLID
  5
140
  8
Éíû@É³
 10
377.79586273690001
 20
-441.47855734400002
 30
0.0
 11
378.45300362630002
 21
-439.31334006809999
 31
0.0
 12
380.81201550959997
 22
-447.12327367440002
 32
0.0
 13
380.81201550959997
 23
-447.12327367440002
 33
0.0
  0
ENDBLK
  5
141
  8
0
  0
BLOCK
  8
0
  2
*D11
 70
     1
 10
0.0
 20
0.0
 30
0.0
  3
*D11
  1

  0
TEXT
  5
17B
  8
0
 62
     0
 10
796.39027809139998
 20
-209.39903112900001
 30
0.0
 40
5.9972220420999998
  1
10
 50
90.0
  0
LINE
  5
17C
  8
0
 62
     0
 10
779.44861139289992
 20
-210.8712534572
 30
0.0
 11
798.94861139289981
 21
-210.8712534572
 31
0.0
  0
LINE
  5
17D
  8
0
 62
     0
 10
769.44861139289992
 20
-200.8712534572
 30
0.0
 11
798.94861139289981
 21
-200.8712534572
 31
0.0
  0
LINE
  5
17E
  8
0
 62
     0
 10
798.44861139289992
 20
-210.8712534572
 30
0.0
 11
798.44861139289992
 21
-210.8712534572
 31
0.0
  0
LINE
  5
17F
  8
0
 62
     0
 10
798.44861139289992
 20
-210.8712534572
 30
0.0
 11
798.44861139289992
 21
-200.8712534572
 31
0.0
  0
LINE
  5
180
  8
0
 62
     0
 10
798.44861139289992
 20
-200.8712534572
 30
0.0
 11
798.44861139289992
 21
-210.8712534572
 31
0.0
  0
LINE
  5
181
  8
0
 62
     0
 10
798.44861139289992
 20
-200.8712534572
 30
0.0
 11
798.44861139289992
 21
-200.8712534572
 31
0.0
  0
LINE
  5
182
  8
0
 62
     0
 10
798.44861139289992
 20
-200.8712534572
 30
0.0
 11
798.44861139289992
 21
-197.8712534572
 31
0.0
  0
SOLID
  5
183
  8
0
 62
     0
 10
798.44861139289992
 20
-200.8712534572
 30
0.0
 11
796.94861139289992
 21
-194.8712534572
 31
0.0
 12
799.94861139289992
 22
-194.8712534572
 32
0.0
 13
798.44861139289992
 23
-196.3712534572
 33
0.0
  0
LINE
  5
184
  8
0
 62
     0
 10
798.44861139289992
 20
-210.8712534572
 30
0.0
 11
798.44861139289992
 21
-213.8712534572
 31
0.0
  0
SOLID
  5
185
  8
0
 62
     0
 10
798.44861139289992
 20
-210.8712534572
 30
0.0
 11
799.94861139289992
 21
-216.8712534572
 31
0.0
 12
796.94861139289992
 22
-216.8712534572
 32
0.0
 13
798.44861139289992
 23
-215.3712534572
 33
0.0
  0
ENDBLK
  5
186
  8
0
  0
BLOCK
  8
0
  2
*D12
 70
     1
 10
0.0
 20
0.0
 30
0.0
  3
*D12
  1

  0
TEXT
  5
18D
  8
0
 62
     0
 10
547.92083372110005
 20
-1.8129201556000001
 30
0.0
 40
5.9972220420999998
  1
10
  0
LINE
  5
18E
  8
0
 62
     0
 10
556.44861139290003
 20
-32.871253457199998
 30
0.0
 11
556.44861139290003
 21
-3.3712534571999999
 31
0.0
  0
LINE
  5
18F
  8
0
 62
     0
 10
546.44861139290003
 20
-22.871253457200002
 30
0.0
 11
546.44861139290003
 21
-3.3712534571999999
 31
0.0
  0
LINE
  5
190
  8
0
 62
     0
 10
556.44861139290003
 20
-3.8712534571999999
 30
0.0
 11
556.44861139290003
 21
-3.8712534571999999
 31
0.0
  0
LINE
  5
191
  8
0
 62
     0
 10
556.44861139290003
 20
-3.8712534571999999
 30
0.0
 11
546.44861139290003
 21
-3.8712534571999999
 31
0.0
  0
LINE
  5
192
  8
0
 62
     0
 10
546.44861139290003
 20
-3.8712534571999999
 30
0.0
 11
556.44861139290003
 21
-3.8712534571999999
 31
0.0
  0
LINE
  5
193
  8
0
 62
     0
 10
546.44861139290003
 20
-3.8712534571999999
 30
0.0
 11
546.44861139290003
 21
-3.8712534571999999
 31
0.0
  0
LINE
  5
194
  8
0
 62
     0
 10
546.44861139290003
 20
-3.8712534571999999
 30
0.0
 11
543.44861139290003
 21
-3.8712534571999999
 31
0.0
  0
SOLID
  5
195
  8
0
 62
     0
 10
546.44861139290003
 20
-3.8712534571999999
 30
0.0
 11
540.44861139290003
 21
-5.371253457199999
 31
0.0
 12
540.44861139290003
 22
-2.371253457199999
 32
0.0
 13
541.94861139290003
 23
-3.8712534571999999
 33
0.0
  0
LINE
  5
196
  8
0
 62
     0
 10
556.44861139290003
 20
-3.8712534571999999
 30
0.0
 11
559.44861139290003
 21
-3.8712534571999999
 31
0.0
  0
SOLID
  5
197
  8
0
 62
     0
 10
556.44861139290003
 20
-3.8712534571999999
 30
0.0
 11
562.44861139290003
 21
-2.371253457199999
 31
0.0
 12
562.44861139290003
 22
-5.371253457199999
 32
0.0
 13
560.94861139290003
 23
-3.8712534571999999
 33
0.0
  0
ENDBLK
  5
198
  8
0
  0
BLOCK
  8
0
  2
*D13
 70
     1
 10
0.0
 20
0.0
 30
0.0
  3
*D13
  1

  0
TEXT
  5
1BB
  8
0
 62
     0
 10
772.92083372110005
 20
-1.8129201556000001
 30
0.0
 40
5.9972220420999998
  1
10
  0
LINE
  5
1BC
  8
0
 62
     0
 10
781.44861139289992
 20
-22.871253457200002
 30
0.0
 11
781.44861139289992
 21
-3.3712534571999999
 31
0.0
  0
LINE
  5
1BD
  8
0
 62
     0
 10
771.44861139289992
 20
-32.871253457199998
 30
0.0
 11
771.44861139289992
 21
-3.3712534571999999
 31
0.0
  0
LINE
  5
1BE
  8
0
 62
     0
 10
781.44861139289992
 20
-3.8712534571999999
 30
0.0
 11
781.44861139289992
 21
-3.8712534571999999
 31
0.0
  0
LINE
  5
1BF
  8
0
 62
     0
 10
781.44861139289992
 20
-3.8712534571999999
 30
0.0
 11
771.44861139289992
 21
-3.8712534571999999
 31
0.0
  0
LINE
  5
1C0
  8
0
 62
     0
 10
771.44861139289992
 20
-3.8712534571999999
 30
0.0
 11
781.44861139289992
 21
-3.8712534571999999
 31
0.0
  0
LINE
  5
1C1
  8
0
 62
     0
 10
771.44861139289992
 20
-3.8712534571999999
 30
0.0
 11
771.44861139289992
 21
-3.8712534571999999
 31
0.0
  0
LINE
  5
1C2
  8
0
 62
     0
 10
771.44861139289992
 20
-3.8712534571999999
 30
0.0
 11
768.44861139289992
 21
-3.8712534571999999
 31
0.0
  0
SOLID
  5
1C3
  8
0
 62
     0
 10
771.44861139289992
 20
-3.8712534571999999
 30
0.0
 11
765.44861139289992
 21
-5.371253457199999
 31
0.0
 12
765.44861139289992
 22
-2.371253457199999
 32
0.0
 13
766.94861139289992
 23
-3.8712534571999999
 33
0.0
  0
LINE
  5
1C4
  8
0
 62
     0
 10
781.44861139289992
 20
-3.8712534571999999
 30
0.0
 11
784.44861139289992
 21
-3.8712534571999999
 31
0.0
  0
SOLID
  5
1C5
  8
0
 62
     0
 10
781.44861139289992
 20
-3.8712534571999999
 30
0.0
 11
787.44861139289992
 21
-2.371253457199999
 31
0.0
 12
787.44861139289992
 22
-5.371253457199999
 32
0.0
 13
785.94861139289992
 23
-3.8712534571999999
 33
0.0
  0
ENDBLK
  5
1C6
  8
0
  0
BLOCK
  8
0
  2
*D14
 70
     1
 10
0.0
 20
0.0
 30
0.0
  3
*D14
  1

  0
TEXT
  5
1CA
  8
0
 62
     0
 10
796.39027809139998
 20
-29.399031129000001
 30
0.0
 40
5.9972220420999998
  1
10
 50
90.0
  0
LINE
  5
1CB
  8
0
 62
     0
 10
769.44861139289992
 20
-30.871253457200002
 30
0.0
 11
798.94861139289981
 21
-30.871253457200002
 31
0.0
  0
LINE
  5
1CC
  8
0
 62
     0
 10
779.44861139289992
 20
-20.871253457200002
 30
0.0
 11
798.94861139289981
 21
-20.871253457200002
 31
0.0
  0
LINE
  5
1CD
  8
0
 62
     0
 10
798.44861139289992
 20
-30.871253457200002
 30
0.0
 11
798.44861139289992
 21
-30.871253457200002
 31
0.0
  0
LINE
  5
1CE
  8
0
 62
     0
 10
798.44861139289992
 20
-30.871253457200002
 30
0.0
 11
798.44861139289992
 21
-20.871253457200002
 31
0.0
  0
LINE
  5
1CF
  8
0
 62
     0
 10
798.44861139289992
 20
-20.871253457200002
 30
0.0
 11
798.44861139289992
 21
-30.871253457200002
 31
0.0
  0
LINE
  5
1D0
  8
0
 62
     0
 10
798.44861139289992
 20
-20.871253457200002
 30
0.0
 11
798.44861139289992
 21
-20.871253457200002
 31
0.0
  0
LINE
  5
1D1
  8
0
 62
     0
 10
798.44861139289992
 20
-20.871253457200002
 30
0.0
 11
798.44861139289992
 21
-17.871253457200002
 31
0.0
  0
SOLID
  5
1D2
  8
0
 62
     0
 10
798.44861139289992
 20
-20.871253457200002
 30
0.0
 11
796.94861139289992
 21
-14.8712534572
 31
0.0
 12
799.94861139289992
 22
-14.8712534572
 32
0.0
 13
798.44861139289992
 23
-16.371253457200002
 33
0.0
  0
LINE
  5
1D3
  8
0
 62
     0
 10
798.44861139289992
 20
-30.871253457200002
 30
0.0
 11
798.44861139289992
 21
-33.871253457199998
 31
0.0
  0
SOLID
  5
1D4
  8
0
 62
     0
 10
798.44861139289992
 20
-30.871253457200002
 30
0.0
 11
799.94861139289992
 21
-36.871253457199998
 31
0.0
 12
796.94861139289992
 22
-36.871253457199998
 32
0.0
 13
798.44861139289992
 23
-35.371253457199998
 33
0.0
  0
ENDBLK
  5
1D5
  8
0
  0
BLOCK
  8
0
  2
BALLON4
 70
     0
 10
0.0
 20
0.0
 30
0.0
  3
BALLON4
  1

  0
INSERT
  5
252
  8
0
  6
CONTINUOUS
  2
*U58
 10
0.0
 20
0.0
 30
0.0
  0
CIRCLE
  5
253
  8
┌▓È_1
 10
538.63216335729987
 20
-259.15158943810002
 30
0.0
 40
8.0
  0
LINE
  5
254
  8
Éíû@É³
 10
551.96549669069987
 20
-259.15158943810002
 30
0.0
 11
546.63216335729999
 21
-259.15158943810002
 31
0.0
  0
LINE
  5
255
  8
Éíû@É³
 10
602.7290795040999
 20
-295.68136804049999
 30
0.0
 11
551.96549669069987
 21
-259.15158943810002
 31
0.0
  0
SOLID
  5
256
  8
Éíû@É³
 10
602.7290795040999
 20
-295.68136804049999
 30
0.0
 11
595.30104127769994
 21
-292.3073128977
 31
0.0
 12
597.53428935190004
 22
-291.94316589580001
 32
0.0
 13
597.53428935190004
 23
-291.94316589580001
 33
0.0
  0
SOLID
  5
257
  8
Éíû@É³
 10
597.53428935190004
 20
-291.94316589580001
 30
0.0
 11
597.17014234999988
 21
-289.70991782160002
 31
0.0
 12
602.7290795040999
 22
-295.68136804049999
 32
0.0
 13
602.7290795040999
 23
-295.68136804049999
 33
0.0
  0
ENDBLK
  5
258
  8
0
  0
BLOCK
  8
0
  2
*D16
 70
     1
 10
0.0
 20
0.0
 30
0.0
  3
*D16
  1

  0
TEXT
  5
277
  8
0
 62
     0
 10
950.60972191820008
 20
1.187079844399999
 30
0.0
 40
5.9972220420999998
  1
6
  0
LINE
  5
278
  8
0
 62
     0
 10
955.37361075410001
 20
-19.871253457200002
 30
0.0
 11
955.37361075410001
 21
-0.3712534572
 31
0.0
  0
LINE
  5
279
  8
0
 62
     0
 10
949.37361075410001
 20
-20.871253457200002
 30
0.0
 11
949.37361075410001
 21
-0.3712534572
 31
0.0
  0
LINE
  5
27A
  8
0
 62
     0
 10
955.37361075410001
 20
-0.8712534572
 30
0.0
 11
955.37361075410001
 21
-0.8712534572
 31
0.0
  0
LINE
  5
27B
  8
0
 62
     0
 10
955.37361075410001
 20
-0.8712534572
 30
0.0
 11
949.37361075410001
 21
-0.8712534572
 31
0.0
  0
LINE
  5
27C
  8
0
 62
     0
 10
949.37361075410001
 20
-0.8712534572
 30
0.0
 11
955.37361075410001
 21
-0.8712534572
 31
0.0
  0
LINE
  5
27D
  8
0
 62
     0
 10
949.37361075410001
 20
-0.8712534572
 30
0.0
 11
949.37361075410001
 21
-0.8712534572
 31
0.0
  0
LINE
  5
27E
  8
0
 62
     0
 10
949.37361075410001
 20
-0.8712534572
 30
0.0
 11
946.37361075410001
 21
-0.8712534572
 31
0.0
  0
SOLID
  5
27F
  8
0
 62
     0
 10
949.37361075410001
 20
-0.8712534572
 30
0.0
 11
943.3736107540999
 21
-2.371253457199999
 31
0.0
 12
943.3736107540999
 22
0.6287465428
 32
0.0
 13
944.87361075410001
 23
-0.8712534572
 33
0.0
  0
LINE
  5
280
  8
0
 62
     0
 10
955.37361075410001
 20
-0.8712534572
 30
0.0
 11
958.37361075410001
 21
-0.8712534572
 31
0.0
  0
SOLID
  5
281
  8
0
 62
     0
 10
955.37361075410001
 20
-0.8712534572
 30
0.0
 11
961.3736107540999
 21
0.6287465428
 31
0.0
 12
961.3736107540999
 22
-2.371253457199999
 32
0.0
 13
959.87361075410001
 23
-0.8712534572
 33
0.0
  0
ENDBLK
  5
282
  8
0
  0
BLOCK
  8
0
  2
*D17
 70
     1
 10
0.0
 20
0.0
 30
0.0
  3
*D17
  1

  0
TEXT
  5
286
  8
0
 62
     0
 10
993.34583308229992
 20
17.866268273999999
 30
0.0
 40
5.9972220420999998
  1
95
  0
LINE
  5
287
  8
0
 62
     0
 10
1044.3736107540999
 20
-21.871462079699999
 30
0.0
 11
1044.3736107540999
 21
16.3079349725
 31
0.0
  0
LINE
  5
288
  8
0
 62
     0
 10
949.37361075410001
 20
-20.871253457200002
 30
0.0
 11
949.37361075410001
 21
16.3079349725
 31
0.0
  0
LINE
  5
289
  8
0
 62
     0
 10
1044.3736107540999
 20
15.8079349725
 30
0.0
 11
1003.9291660977
 21
15.8079349725
 31
0.0
  0
LINE
  5
28A
  8
0
 62
     0
 10
1044.3736107540999
 20
15.8079349725
 30
0.0
 11
989.81805541039989
 21
15.8079349725
 31
0.0
  0
LINE
  5
28B
  8
0
 62
     0
 10
949.37361075410001
 20
15.8079349725
 30
0.0
 11
1003.9291660977
 21
15.8079349725
 31
0.0
  0
LINE
  5
28C
  8
0
 62
     0
 10
949.37361075410001
 20
15.8079349725
 30
0.0
 11
989.81805541039989
 21
15.8079349725
 31
0.0
  0
LINE
  5
28D
  8
0
 62
     0
 10
949.37361075410001
 20
15.8079349725
 30
0.0
 11
952.3736107540999
 21
15.8079349725
 31
0.0
  0
SOLID
  5
28E
  8
0
 62
     0
 10
949.37361075410001
 20
15.8079349725
 30
0.0
 11
955.37361075410001
 21
17.3079349725
 31
0.0
 12
955.37361075410001
 22
14.3079349725
 32
0.0
 13
953.87361075410001
 23
15.8079349725
 33
0.0
  0
LINE
  5
28F
  8
0
 62
     0
 10
1044.3736107540999
 20
15.8079349725
 30
0.0
 11
1041.3736107540999
 21
15.8079349725
 31
0.0
  0
SOLID
  5
290
  8
0
 62
     0
 10
1044.3736107540999
 20
15.8079349725
 30
0.0
 11
1038.3736107540999
 21
14.3079349725
 31
0.0
 12
1038.3736107540999
 22
17.3079349725
 32
0.0
 13
1039.8736107540999
 23
15.8079349725
 33
0.0
  0
ENDBLK
  5
291
  8
0
  0
BLOCK
  8
0
  2
*U18
 70
     1
 10
0.0
 20
0.0
 30
0.0
  3
*U18
  1

  0
TEXT
  5
2AE
  8
┌▓È_1
  6
CONTINUOUS
 10
256.67712691568988
 20
-387.09069782749998
 30
0.0
 40
5.9972220420999998
  1
5
  0
ENDBLK
  5
2B0
  8
0
  0
BLOCK
  8
0
  2
*U19
 70
     1
 10
0.0
 20
0.0
 30
0.0
  3
*U19
  1

  0
TEXT
  5
2B2
  8
┌▓È_1
  6
CONTINUOUS
 10
-395.0366305421685
 20
-92.314118300800018
 30
0.0
 40
5.9972220420999998
  1
1
  0
ENDBLK
  5
2B4
  8
0
  0
BLOCK
  8
0
  2
*U20
 70
     1
 10
0.0
 20
0.0
 30
0.0
  3
*U20
  1

  0
TEXT
  5
2B6
  8
┌▓È_1
  6
CONTINUOUS
 10
-181.09406382619289
 20
-92.314118300800018
 30
0.0
 40
5.9972220420999998
  1
2
  0
ENDBLK
  5
2B8
  8
0
  0
BLOCK
  8
0
  2
*U21
 70
     1
 10
0.0
 20
0.0
 30
0.0
  3
*U21
  1

  0
TEXT
  5
2BA
  8
┌▓È_1
  6
CONTINUOUS
 10
1022.7183892317
 20
-465.46098397062741
 30
0.0
 40
5.9972220420999998
  1
 Ä┌ü@ü@ôx
  0
ENDBLK
  5
2BC
  8
0
  0
BLOCK
  8
0
  2
*U22
 70
     1
 10
0.0
 20
0.0
 30
0.0
  3
*U22
  1

  0
TEXT
  5
2BE
  8
┌▓È_1
  6
CONTINUOUS
 62
     5
 10
1032.6472465016629
 20
-476.17089114319998
 30
0.0
 40
5.9972220420999998
  1
1üF2
  0
ENDBLK
  5
2C0
  8
0
  0
BLOCK
  8
0
  2
*U23
 70
     1
 10
0.0
 20
0.0
 30
0.0
  3
*U23
  1

  0
TEXT
  5
2C2
  8
┌▓È_1
  6
CONTINUOUS
 10
1022.7183892317
 20
-443.49142672211019
 30
0.0
 40
5.9972220420999998
  1
 ö┬ü@ü@î·
  0
ENDBLK
  5
2C4
  8
0
  0
BLOCK
  8
0
  2
*U24
 70
     1
 10
0.0
 20
0.0
 30
0.0
  3
*U24
  1

  0
TEXT
  5
2C6
  8
┌▓È_1
  6
CONTINUOUS
 62
     5
 10
621.98070692250099
 20
-126.0161137996913
 30
0.0
 40
21.462499999999999
  1
ÄU Éà É­
  0
ENDBLK
  5
2C8
  8
0
  0
BLOCK
  8
0
  2
*U25
 70
     1
 10
0.0
 20
0.0
 30
0.0
  3
*U25
  1

  0
TEXT
  5
2CA
  8
┌▓È_1
  6
CONTINUOUS
 10
332.07441957603811
 20
-387.09069782749998
 30
0.0
 40
5.9972220420999998
  1
4
  0
ENDBLK
  5
2CC
  8
0
  0
BLOCK
  8
0
  2
*U26
 70
     1
 10
0.0
 20
0.0
 30
0.0
  3
*U26
  1

  0
TEXT
  5
2CE
  8
┌▓È_1
  6
CONTINUOUS
 10
940.60802601439991
 20
-465.49142672211008
 30
0.0
 40
5.9972220420999998
  1
 É¦îvü@ü@öÆÉ{ëÛ
  0
ENDBLK
  5
2D0
  8
0
  0
BLOCK
  8
0
  2
*U27
 70
     1
 10
0.0
 20
0.0
 30
0.0
  3
*U27
  1

  0
TEXT
  5
2D2
  8
┌▓È_1
  6
CONTINUOUS
 10
940.60802601439991
 20
-476.52186947359291
 30
0.0
 40
5.9972220420999998
  1
 É╗É}ü@ü@ è¦û{
  0
ENDBLK
  5
2D4
  8
0
  0
BLOCK
  8
0
  2
*U28
 70
     1
 10
0.0
 20
0.0
 30
0.0
  3
*U28
  1

  0
TEXT
  5
2D6
  8
┌▓È_1
  6
CONTINUOUS
 10
942.71838923170003
 20
-443.2783274617309
 30
0.0
 40
5.9972220420999998
  1
 ô·ü@ü@òt
  0
ENDBLK
  5
2D8
  8
0
  0
BLOCK
  8
0
  2
*U29
 70
     1
 10
0.0
 20
0.0
 30
0.0
  3
*U29
  1

  0
TEXT
  5
2DA
  8
┌▓È_1
  6
CONTINUOUS
 10
931.54109849959696
 20
-393.5148111920999
 30
0.0
 40
4.9752947043999987
  1
1
  0
ENDBLK
  5
2DC
  8
0
  0
BLOCK
  8
0
  2
*U30
 70
     1
 10
0.0
 20
0.0
 30
0.0
  3
*U30
  1

  0
TEXT
  5
2DE
  8
┌▓È_1
  6
CONTINUOUS
 10
713.86243831976606
 20
-74.371090412800001
 30
0.0
 40
5.9972220420999998
  1
égék
  0
ENDBLK
  5
2E0
  8
0
  0
BLOCK
  8
0
  2
*U31
 70
     1
 10
0.0
 20
0.0
 30
0.0
  3
*U31
  1

  0
TEXT
  5
2E2
  8
┌▓È_1
  6
CONTINUOUS
 10
951.48769988799995
 20
-494.77116049401059
 30
0.0
 40
10.794999837900001
  1
èöÄ«ë´Äð
  0
ENDBLK
  5
2E4
  8
0
  0
BLOCK
  8
0
  2
*U32
 70
     1
 10
0.0
 20
0.0
 30
0.0
  3
*U32
  1

  0
TEXT
  5
2E6
  8
┌▓È_1
  6
CONTINUOUS
 10
1070.776463657133
 20
-392.48481622129998
 30
0.0
 40
5.9972220420999998
  1
érétéréRéOéSü@âËéVü@âËéU
  0
ENDBLK
  5
2E8
  8
0
  0
BLOCK
  8
0
  2
*U33
 70
     1
 10
0.0
 20
0.0
 30
0.0
  3
*U33
  1

  0
TEXT
  5
2EA
  8
┌▓È_1
  6
CONTINUOUS
 10
1003.0306786957
 20
-422.81756614152738
 30
0.0
 40
5.9972220420999998
  1
ÿg
  0
ENDBLK
  5
2EC
  8
0
  0
BLOCK
  8
0
  2
*U34
 70
     1
 10
0.0
 20
0.0
 30
0.0
  3
*U34
  1

  0
TEXT
  5
2EE
  8
┌▓È_1
  6
CONTINUOUS
 10
986.68010318489996
 20
-392.91234502864472
 30
0.0
 40
5.9972220420999998
  1
öÓ Ä¾ é» Ä▓
  0
ENDBLK
  5
2F0
  8
0
  0
BLOCK
  8
0
  2
*U35
 70
     1
 10
0.0
 20
0.0
 30
0.0
  3
*U35
  1

  0
TEXT
  5
2F2
  8
┌▓È_1
  6
CONTINUOUS
 10
946.76106968939996
 20
-392.48481622129998
 30
0.0
 40
5.9972220420999998
  1
éS
  0
ENDBLK
  5
2F4
  8
0
  0
BLOCK
  8
0
  2
*U36
 70
     1
 10
0.0
 20
0.0
 30
0.0
  3
*U36
  1

  0
TEXT
  5
2F6
  8
┌▓È_1
  6
CONTINUOUS
 10
946.76106968939996
 20
-402.48481622129992
 30
0.0
 40
5.9972220420999998
  1
éR
  0
ENDBLK
  5
2F8
  8
0
  0
BLOCK
  8
0
  2
*U37
 70
     1
 10
0.0
 20
0.0
 30
0.0
  3
*U37
  1

  0
TEXT
  5
2FA
  8
┌▓È_1
  6
CONTINUOUS
 10
946.76106968939996
 20
-412.48481622129992
 30
0.0
 40
5.9972220420999998
  1
éQ
  0
ENDBLK
  5
2FC
  8
0
  0
BLOCK
  8
0
  2
*U38
 70
     1
 10
0.0
 20
0.0
 30
0.0
  3
*U38
  1

  0
TEXT
  5
2FE
  8
┌▓È_1
  6
CONTINUOUS
 10
946.76106968939996
 20
-382.48481622129998
 30
0.0
 40
5.9972220420999998
  1
éT
  0
ENDBLK
  5
300
  8
0
  0
BLOCK
  8
0
  2
*U39
 70
     1
 10
0.0
 20
0.0
 30
0.0
  3
*U39
  1

  0
TEXT
  5
302
  8
┌▓È_1
  6
CONTINUOUS
 10
979.28497233644975
 20
-382.75204507394818
 30
0.0
 40
5.9972220420999998
  1
âVâXâeâÇâìâbâN
  0
ENDBLK
  5
304
  8
0
  0
BLOCK
  8
0
  2
*U40
 70
     1
 10
0.0
 20
0.0
 30
0.0
  3
*U40
  1

  0
TEXT
  5
306
  8
┌▓È_1
  6
CONTINUOUS
 10
991.50454056440014
 20
-432.72835823316183
 30
0.0
 40
5.9972220420999998
  1
òiü@ü@ü@û╝
  0
ENDBLK
  5
308
  8
0
  0
BLOCK
  8
0
  2
*U41
 70
     1
 10
0.0
 20
0.0
 30
0.0
  3
*U41
  1

  0
TEXT
  5
30A
  8
┌▓È_1
  6
CONTINUOUS
 10
946.76106968939996
 20
-422.48481622129998
 30
0.0
 40
5.9972220420999998
  1
éP
  0
ENDBLK
  5
30C
  8
0
  0
BLOCK
  8
0
  2
*U42
 70
     1
 10
0.0
 20
0.0
 30
0.0
  3
*U42
  1

  0
TEXT
  5
30E
  8
┌▓È_1
  6
CONTINUOUS
 10
943.32078654350005
 20
-432.66747273019638
 30
0.0
 40
5.9972220420999998
  1
É}öÈ
  0
ENDBLK
  5
310
  8
0
  0
BLOCK
  8
0
  2
*U43
 70
     1
 10
0.0
 20
0.0
 30
0.0
  3
*U43
  1

  0
TEXT
  5
312
  8
┌▓È_1
  6
CONTINUOUS
 10
992.79704843349998
 20
-402.8480088930101
 30
0.0
 40
5.9972220420999998
  1
û{ü@ü@æ╠
  0
ENDBLK
  5
314
  8
0
  0
BLOCK
  8
0
  2
*U44
 70
     1
 10
0.0
 20
0.0
 30
0.0
  3
*U44
  1

  0
TEXT
  5
316
  8
┌▓È_1
  6
CONTINUOUS
 10
1003.0306786957
 20
-412.7871233900446
 30
0.0
 40
5.9972220420999998
  1
èW
  0
ENDBLK
  5
318
  8
0
  0
BLOCK
  8
0
  2
*U45
 70
     1
 10
0.0
 20
0.0
 30
0.0
  3
*U45
  1

  0
TEXT
  5
31A
  8
┌▓È_1
  6
CONTINUOUS
 10
982.71838923170003
 20
-443.36965571617918
 30
0.0
 40
5.9972220420999998
  1
 ìÌü@ü@Ä┐
  0
ENDBLK
  5
31C
  8
0
  0
BLOCK
  8
0
  2
*U46
 70
     1
 10
0.0
 20
0.0
 30
0.0
  3
*U46
  1

  0
TEXT
  5
31E
  8
┌▓È_1
  6
CONTINUOUS
 62
     5
 10
950.82068141269872
 20
-454.17089114319998
 30
0.0
 40
5.9972220420999998
  1
H16.4
  0
ENDBLK
  5
320
  8
0
  0
BLOCK
  8
0
  2
*U47
 70
     1
 10
0.0
 20
0.0
 30
0.0
  3
*U47
  1

  0
TEXT
  5
322
  8
┌▓È_1
  6
CONTINUOUS
 10
1102.8413696881
 20
-443.3403651178964
 30
0.0
 40
5.9972220420999998
  1
î^öÈ
  0
ENDBLK
  5
324
  8
0
  0
BLOCK
  8
0
  2
*U48
 70
     1
 10
0.0
 20
0.0
 30
0.0
  3
*U48
  1

  0
TEXT
  5
326
  8
┌▓È_1
  6
CONTINUOUS
 10
1102.8413696881
 20
-465.4012506208619
 30
0.0
 40
5.9972220420999998
  1
òiû╝
  0
ENDBLK
  5
328
  8
0
  0
BLOCK
  8
0
  2
*U49
 70
     1
 10
0.0
 20
0.0
 30
0.0
  3
*U49
  1

  0
TEXT
  5
32A
  8
┌▓È_1
  6
CONTINUOUS
 10
1102.8413696881
 20
-487.3403651178964
 30
0.0
 40
5.9972220420999998
  1
É}öÈ
  0
ENDBLK
  5
32C
  8
0
  0
BLOCK
  8
0
  2
*U50
 70
     1
 10
0.0
 20
0.0
 30
0.0
  3
*U50
  1

  0
TEXT
  5
32E
  8
┌▓È_1
  6
CONTINUOUS
 10
1177.0710217668
 20
-412.48481622129992
 30
0.0
 40
5.9972220420999998
  1
éP
  0
ENDBLK
  5
330
  8
0
  0
BLOCK
  8
0
  2
*U51
 70
     1
 10
0.0
 20
0.0
 30
0.0
  3
*U51
  1

  0
TEXT
  5
332
  8
┌▓È_1
  6
CONTINUOUS
 10
1068.5283261203001
 20
-412.48481622129992
 30
0.0
 40
5.9972220420999998
  1
érétéréRéOéSü@éP.éOéöü@égék
  0
ENDBLK
  5
334
  8
0
  0
BLOCK
  8
0
  2
*U52
 70
     1
 10
0.0
 20
0.0
 30
0.0
  3
*U52
  1

  0
TEXT
  5
336
  8
┌▓È_1
  6
CONTINUOUS
 10
1091.7521554651071
 20
-383.13489557755838
 30
0.0
 40
5.9972220420999998
  1
â^âLâQâôC-35A
  0
ENDBLK
  5
338
  8
0
  0
BLOCK
  8
0
  2
*U53
 70
     1
 10
0.0
 20
0.0
 30
0.0
  3
*U53
  1

  0
TEXT
  5
33A
  8
┌▓È_1
  6
CONTINUOUS
 10
1177.0710217668
 20
-382.48481622129998
 30
0.0
 40
5.9972220420999998
  1
éP
  0
ENDBLK
  5
33C
  8
0
  0
BLOCK
  8
0
  2
*U54
 70
     1
 10
0.0
 20
0.0
 30
0.0
  3
*U54
  1

  0
TEXT
  5
33E
  8
┌▓È_1
  6
CONTINUOUS
 10
1150.1115578828001
 20
-493.55757384707613
 30
0.0
 40
7.1966662884000003
  1
òÃùpü@î«òt
  0
ENDBLK
  5
340
  8
0
  0
BLOCK
  8
0
  2
*U55
 70
     1
 10
0.0
 20
0.0
 30
0.0
  3
*U55
  1

  0
TEXT
  5
342
  8
┌▓È_1
  6
CONTINUOUS
 10
1143.988505693
 20
-449.03859851469991
 30
0.0
 40
7.1966662884000003
  1
éréaéQéTü|éPéU
  0
ENDBLK
  5
344
  8
0
  0
BLOCK
  8
0
  2
*U56
 70
     1
 10
0.0
 20
0.0
 30
0.0
  3
*U56
  1

  0
TEXT
  5
346
  8
┌▓È_1
  6
CONTINUOUS
 10
1144.4511363601
 20
-471.1821845437579
 30
0.0
 40
7.1966662884000003
  1
ÄUÉàÉ­â{âbâNâX
  0
ENDBLK
  5
348
  8
0
  0
BLOCK
  8
0
  2
*U57
 70
     1
 10
0.0
 20
0.0
 30
0.0
  3
*U57
  1

  0
TEXT
  5
34A
  8
┌▓È_1
  6
CONTINUOUS
 10
1062.7183892317
 20
-443.49142672211019
 30
0.0
 40
5.9972220420999998
  1
 îƒü@ü@ê¾
  0
ENDBLK
  5
34C
  8
0
  0
BLOCK
  8
0
  2
*U58
 70
     1
 10
0.0
 20
0.0
 30
0.0
  3
*U58
  1

  0
TEXT
  5
34E
  8
┌▓È_1
  6
CONTINUOUS
 10
536.53340425508975
 20
-261.6210338084
 30
0.0
 40
5.9972220420999998
  1
3
  0
ENDBLK
  5
350
  8
0
  0
BLOCK
  8
0
  2
*U59
 70
     1
 10
0.0
 20
0.0
 30
0.0
  3
*U59
  1

  0
TEXT
  5
352
  8
┌▓È_1
  6
CONTINUOUS
 10
1068.5283261203001
 20
-422.48481622129998
 30
0.0
 40
5.9972220420999998
  1
érétéréRéOéSü@éP.éOéöü@égék
  0
ENDBLK
  5
354
  8
0
  0
BLOCK
  8
0
  2
*U60
 70
     1
 10
0.0
 20
0.0
 30
0.0
  3
*U60
  1

  0
TEXT
  5
356
  8
┌▓È_1
  6
CONTINUOUS
 10
1173.7435059228001
 20
-432.51185658505682
 30
0.0
 40
5.3974999188999986
  1
Éöù╩
  0
ENDBLK
  5
358
  8
0
  0
BLOCK
  8
0
  2
*U61
 70
     1
 10
0.0
 20
0.0
 30
0.0
  3
*U61
  1

  0
TEXT
  5
35A
  8
┌▓È_1
  6
CONTINUOUS
 10
1177.0710217668
 20
-422.48481622129998
 30
0.0
 40
5.9972220420999998
  1
éP
  0
ENDBLK
  5
35C
  8
0
  0
BLOCK
  8
0
  2
*U62
 70
     1
 10
0.0
 20
0.0
 30
0.0
  3
*U62
  1

  0
TEXT
  5
35E
  8
┌▓È_1
  6
CONTINUOUS
 10
1177.0710217668
 20
-392.48481622129998
 30
0.0
 40
5.9972220420999998
  1
éP
  0
ENDBLK
  5
360
  8
0
  0
BLOCK
  8
0
  2
*U63
 70
     1
 10
0.0
 20
0.0
 30
0.0
  3
*U63
  1

  0
TEXT
  5
362
  8
┌▓È_1
  6
CONTINUOUS
 10
1099.299701248
 20
-432.6979154816791
 30
0.0
 40
5.9972220420999998
  1
ìÌü@ü@ü@Ä┐
  0
ENDBLK
  5
364
  8
0
  0
BLOCK
  8
0
  2
*U64
 70
     1
 10
0.0
 20
0.0
 30
0.0
  3
*U64
  1

  0
TEXT
  5
366
  8
┌▓È_1
  6
CONTINUOUS
 10
1177.0710217668
 20
-402.48481622129992
 30
0.0
 40
5.9972220420999998
  1
éP
  0
ENDBLK
  5
368
  8
0
  0
BLOCK
  8
0
  2
*U65
 70
     1
 10
0.0
 20
0.0
 30
0.0
  3
*U65
  1

  0
TEXT
  5
36A
  8
┌▓È_1
  6
CONTINUOUS
 10
1068.5283261203001
 20
-402.48481622129992
 30
0.0
 40
5.9972220420999998
  1
érétéréRéOéSü@éO.éVéöü@éQéa
  0
ENDBLK
  5
36C
  8
0
  0
BLOCK
  8
0
  2
*U66
 70
     1
 10
0.0
 20
0.0
 30
0.0
  3
*U66
  1

  0
TEXT
  5
36E
  8
┌▓È_1
  6
CONTINUOUS
 10
1068.7388071342971
 20
40.845859942899999
 30
0.0
 40
4.9752947043999987
  1
1
  0
ENDBLK
  5
370
  8
0
  0
BLOCK
  8
0
  2
*U67
 70
     1
 10
0.0
 20
0.0
 30
0.0
  3
*U67
  1

  0
TEXT
  5
372
  8
┌▓È_1
  6
CONTINUOUS
 10
1153.7879619581049
 20
51.034497936672587
 30
0.0
 40
5.9972220420999998
  1
ë³ü@Æ¨ü@ôÓü@ùe
  0
ENDBLK
  5
374
  8
0
  0
BLOCK
  8
0
  2
*U68
 70
     1
 10
0.0
 20
0.0
 30
0.0
  3
*U68
  1

  0
TEXT
  5
376
  8
┌▓È_1
  6
CONTINUOUS
 10
1130.240493686204
 20
41.074904186489853
 30
0.0
 40
5.9972220420999998
  1
öÓÄ¾é»Ä▓ü@âËéVü¿âËéUé╔ò¤ìX
  0
ENDBLK
  5
378
  8
0
  0
BLOCK
  8
0
  2
*U69
 70
     1
 10
0.0
 20
0.0
 30
0.0
  3
*U69
  1

  0
TEXT
  5
37A
  8
┌▓È_1
  6
CONTINUOUS
 10
1086.9848947258729
 20
41.409774452799986
 30
0.0
 40
5.9972220420999998
  1
H16.7.8
  0
ENDBLK
  5
37C
  8
0
  0
BLOCK
  8
0
  2
*U70
 70
     1
 10
0.0
 20
0.0
 30
0.0
  3
*U70
  1

  0
TEXT
  5
37E
  8
┌▓È_1
  6
CONTINUOUS
 10
1089.1767728326299
 20
51.09538343963807
 30
0.0
 40
5.9972220420999998
  1
ë³Æ¨ô·
  0
ENDBLK
  5
380
  8
0
  0
ENDSEC
  0
SECTION
  2
ENTITIES
  0
LINE
  5
2F
  8
┌▓È_1
 62
     5
 10
558.64845904920003
 20
-318.07465360319998
 30
0.0
 11
768.78924811169998
 21
-318.07465360319998
 31
0.0
  0
LINE
  5
30
  8
┌▓È_1
 62
     5
 10
558.64845904920003
 20
-319.27465360320002
 30
0.0
 11
768.78924811169998
 21
-319.27465360320002
 31
0.0
  0
LINE
  5
31
  8
┌▓È_1
 62
     5
 10
595.44862455919997
 20
-322.57465360319998
 30
0.0
 11
746.48924811170002
 21
-322.57465360319998
 31
0.0
  0
INSERT
  5
34
  8
Éíû@É³
  2
BALLON0
 10
374.64205484467072
 20
125.211440171603
 30
0.0
  0
LINE
  5
3D
  8
┌▓È_1
 62
     5
 10
1240.6080260143999
 20
-435.1400608342999
 30
0.0
 11
1240.6080260143999
 21
58.859939165699998
 31
0.0
  0
LINE
  5
3E
  8
┌▓È_1
 62
     5
 10
440.60802601440002
 20
-501.14006083430002
 30
0.0
 11
440.60802601440002
 21
58.859939165699998
 31
0.0
  0
INSERT
  5
40
  8
Éíû@É³
  2
BALLON1
 10
960.31510200268599
 20
-172.4485696427364
 30
0.0
  0
INSERT
  5
4A
  8
Éíû@É³
  2
BALLON2
 10
960.31510200268599
 20
-172.4485696427364
 30
0.0
  0
LINE
  5
53
  8
┌▓È_1
 62
     5
 10
940.60802601439991
 20
-501.14006083430002
 30
0.0
 11
440.60802601440002
 21
-501.14006083430002
 31
0.0
  0
LINE
  5
54
  8
┌▓È_1
 62
     5
 10
1240.6080260143999
 20
58.859939165699998
 30
0.0
 11
440.60802601440002
 21
58.859939165699998
 31
0.0
  0
INSERT
  5
55
  8
0
  6
CONTINUOUS
  2
*U21
 10
0.0
 20
0.0
 30
0.0
  0
INSERT
  5
56
  8
0
  6
CONTINUOUS
  2
*U22
 10
0.0
 20
0.0
 30
0.0
  0
INSERT
  5
57
  8
0
  6
CONTINUOUS
  2
*U23
 10
0.0
 20
0.0
 30
0.0
  0
LINE
  5
58
  8
┌▓È_1
 10
1240.6080260143999
 20
-435.1400608342999
 30
0.0
 11
940.60802601439991
 21
-435.1400608342999
 31
0.0
  0
LINE
  5
59
  8
┌▓È_1
 10
940.60802601439991
 20
-479.14006083430002
 30
0.0
 11
1240.6080260143999
 21
-479.14006083430002
 31
0.0
  0
LINE
  5
5A
  8
┌▓È_1
 62
     5
 10
1059.2505311122
 20
-482.56971490059999
 30
0.0
 11
1041.2505311122
 21
-482.56971490059999
 31
0.0
  0
LINE
  5
5B
  8
┌▓È_1
 62
     5
 10
1041.2505311122
 20
-496.56971490059999
 30
0.0
 11
1046.2505311122
 21
-496.56971490059999
 31
0.0
  0
LINE
  5
5C
  8
┌▓È_1
 62
     5
 10
940.60802601439991
 20
-501.14006083430002
 30
0.0
 11
1240.6080260143999
 21
-501.14006083430002
 31
0.0
  0
LINE
  5
5D
  8
┌▓È_1
 62
     5
 10
1041.2505311122
 20
-487.21393543549999
 30
0.0
 11
1049.2505311122
 21
-487.21393543549999
 31
0.0
  0
LINE
  5
5E
  8
┌▓È_1
 62
     5
 10
1041.2505311122
 20
-486.1697149005999
 30
0.0
 11
1051.2505311122
 21
-486.1697149005999
 31
0.0
  0
LINE
  5
5F
  8
┌▓È_1
 10
1025.6080260143999
 20
-446.14006083430002
 30
0.0
 11
1055.6080260143999
 21
-446.14006083430002
 31
0.0
  0
LINE
  5
60
  8
┌▓È_1
 10
1025.6080260143999
 20
-468.1400608342999
 30
0.0
 11
1055.6080260143999
 21
-468.1400608342999
 31
0.0
  0
POLYLINE
  8
┌▓È_1
  5
381
  62
5
  66
     1
 10
0.000000
 20
0.000000
 30
0.000000
  70
     8
  0
VERTEX
  8
┌▓È_1
  5
382
 10
1041.25
 20
-487.858
 30
0.000000
  70
    32
  0
VERTEX
  8
┌▓È_1
  5
383
 10
1041.29
 20
-487.891
 30
0.000000
  70
    32
  0
VERTEX
  8
┌▓È_1
  5
384
 10
1041.32
 20
-487.925
 30
0.000000
  70
    32
  0
VERTEX
  8
┌▓È_1
  5
385
 10
1041.36
 20
-487.958
 30
0.000000
  70
    32
  0
VERTEX
  8
┌▓È_1
  5
386
 10
1041.39
 20
-487.991
 30
0.000000
  70
    32
  0
VERTEX
  8
┌▓È_1
  5
387
 10
1041.43
 20
-488.024
 30
0.000000
  70
    32
  0
VERTEX
  8
┌▓È_1
  5
388
 10
1041.47
 20
-488.057
 30
0.000000
  70
    32
  0
VERTEX
  8
┌▓È_1
  5
389
 10
1041.50
 20
-488.091
 30
0.000000
  70
    32
  0
VERTEX
  8
┌▓È_1
  5
38A
 10
1041.54
 20
-488.124
 30
0.000000
  70
    32
  0
VERTEX
  8
┌▓È_1
  5
38B
 10
1041.57
 20
-488.157
 30
0.000000
  70
    32
  0
VERTEX
  8
┌▓È_1
  5
38C
 10
1041.61
 20
-488.190
 30
0.000000
  70
    32
  0
VERTEX
  8
┌▓È_1
  5
38D
 10
1041.65
 20
-488.223
 30
0.000000
  70
    32
  0
VERTEX
  8
┌▓È_1
  5
38E
 10
1041.68
 20
-488.256
 30
0.000000
  70
    32
  0
VERTEX
  8
┌▓È_1
  5
38F
 10
1041.72
 20
-488.290
 30
0.000000
  70
    32
  0
VERTEX
  8
┌▓È_1
  5
390
 10
1041.76
 20
-488.323
 30
0.000000
  70
    32
  0
VERTEX
  8
┌▓È_1
  5
391
 10
1041.79
 20
-488.356
 30
0.000000
  70
    32
  0
VERTEX
  8
┌▓È_1
  5
392
 10
1041.83
 20
-488.389
 30
0.000000
  70
    32
  0
VERTEX
  8
┌▓È_1
  5
393
 10
1041.86
 20
-488.422
 30
0.000000
  70
    32
  0
VERTEX
  8
┌▓È_1
  5
394
 10
1041.90
 20
-488.455
 30
0.000000
  70
    32
  0
VERTEX
  8
┌▓È_1
  5
395
 10
1041.94
 20
-488.488
 30
0.000000
  70
    32
  0
VERTEX
  8
┌▓È_1
  5
396
 10
1041.97
 20
-488.521
 30
0.000000
  70
    32
  0
VERTEX
  8
┌▓È_1
  5
397
 10
1042.01
 20
-488.554
 30
0.000000
  70
    32
  0
VERTEX
  8
┌▓È_1
  5
398
 10
1042.04
 20
-488.587
 30
0.000000
  70
    32
  0
VERTEX
  8
┌▓È_1
  5
399
 10
1042.08
 20
-488.620
 30
0.000000
  70
    32
  0
VERTEX
  8
┌▓È_1
  5
39A
 10
1042.12
 20
-488.653
 30
0.000000
  70
    32
  0
VERTEX
  8
┌▓È_1
  5
39B
 10
1042.15
 20
-488.686
 30
0.000000
  70
    32
  0
VERTEX
  8
┌▓È_1
  5
39C
 10
1042.19
 20
-488.719
 30
0.000000
  70
    32
  0
VERTEX
  8
┌▓È_1
  5
39D
 10
1042.22
 20
-488.752
 30
0.000000
  70
    32
  0
VERTEX
  8
┌▓È_1
  5
39E
 10
1042.26
 20
-488.785
 30
0.000000
  70
    32
  0
VERTEX
  8
┌▓È_1
  5
39F
 10
1042.30
 20
-488.818
 30
0.000000
  70
    32
  0
VERTEX
  8
┌▓È_1
  5
3A0
 10
1042.33
 20
-488.851
 30
0.000000
  70
    32
  0
VERTEX
  8
┌▓È_1
  5
3A1
 10
1042.37
 20
-488.884
 30
0.000000
  70
    32
  0
VERTEX
  8
┌▓È_1
  5
3A2
 10
1042.41
 20
-488.917
 30
0.000000
  70
    32
  0
VERTEX
  8
┌▓È_1
  5
3A3
 10
1042.44
 20
-488.950
 30
0.000000
  70
    32
  0
VERTEX
  8
┌▓È_1
  5
3A4
 10
1042.48
 20
-488.983
 30
0.000000
  70
    32
  0
VERTEX
  8
┌▓È_1
  5
3A5
 10
1042.51
 20
-489.015
 30
0.000000
  70
    32
  0
VERTEX
  8
┌▓È_1
  5
3A6
 10
1042.55
 20
-489.048
 30
0.000000
  70
    32
  0
VERTEX
  8
┌▓È_1
  5
3A7
 10
1042.59
 20
-489.081
 30
0.000000
  70
    32
  0
VERTEX
  8
┌▓È_1
  5
3A8
 10
1042.62
 20
-489.114
 30
0.000000
  70
    32
  0
VERTEX
  8
┌▓È_1
  5
3A9
 10
1042.66
 20
-489.146
 30
0.000000
  70
    32
  0
VERTEX
  8
┌▓È_1
  5
3AA
 10
1042.70
 20
-489.179
 30
0.000000
  70
    32
  0
VERTEX
  8
┌▓È_1
  5
3AB
 10
1042.73
 20
-489.212
 30
0.000000
  70
    32
  0
VERTEX
  8
┌▓È_1
  5
3AC
 10
1042.77
 20
-489.244
 30
0.000000
  70
    32
  0
VERTEX
  8
┌▓È_1
  5
3AD
 10
1042.80
 20
-489.277
 30
0.000000
  70
    32
  0
VERTEX
  8
┌▓È_1
  5
3AE
 10
1042.84
 20
-489.309
 30
0.000000
  70
    32
  0
VERTEX
  8
┌▓È_1
  5
3AF
 10
1042.88
 20
-489.342
 30
0.000000
  70
    32
  0
VERTEX
  8
┌▓È_1
  5
3B0
 10
1042.91
 20
-489.374
 30
0.000000
  70
    32
  0
VERTEX
  8
┌▓È_1
  5
3B1
 10
1042.95
 20
-489.407
 30
0.000000
  70
    32
  0
VERTEX
  8
┌▓È_1
  5
3B2
 10
1042.99
 20
-489.439
 30
0.000000
  70
    32
  0
VERTEX
  8
┌▓È_1
  5
3B3
 10
1043.02
 20
-489.472
 30
0.000000
  70
    32
  0
VERTEX
  8
┌▓È_1
  5
3B4
 10
1043.06
 20
-489.504
 30
0.000000
  70
    32
  0
VERTEX
  8
┌▓È_1
  5
3B5
 10
1043.10
 20
-489.536
 30
0.000000
  70
    32
  0
VERTEX
  8
┌▓È_1
  5
3B6
 10
1043.13
 20
-489.569
 30
0.000000
  70
    32
  0
VERTEX
  8
┌▓È_1
  5
3B7
 10
1043.17
 20
-489.601
 30
0.000000
  70
    32
  0
VERTEX
  8
┌▓È_1
  5
3B8
 10
1043.21
 20
-489.633
 30
0.000000
  70
    32
  0
VERTEX
  8
┌▓È_1
  5
3B9
 10
1043.24
 20
-489.665
 30
0.000000
  70
    32
  0
VERTEX
  8
┌▓È_1
  5
3BA
 10
1043.28
 20
-489.697
 30
0.000000
  70
    32
  0
VERTEX
  8
┌▓È_1
  5
3BB
 10
1043.32
 20
-489.730
 30
0.000000
  70
    32
  0
VERTEX
  8
┌▓È_1
  5
3BC
 10
1043.35
 20
-489.762
 30
0.000000
  70
    32
  0
VERTEX
  8
┌▓È_1
  5
3BD
 10
1043.39
 20
-489.794
 30
0.000000
  70
    32
  0
VERTEX
  8
┌▓È_1
  5
3BE
 10
1043.43
 20
-489.826
 30
0.000000
  70
    32
  0
VERTEX
  8
┌▓È_1
  5
3BF
 10
1043.46
 20
-489.858
 30
0.000000
  70
    32
  0
VERTEX
  8
┌▓È_1
  5
3C0
 10
1043.50
 20
-489.889
 30
0.000000
  70
    32
  0
VERTEX
  8
┌▓È_1
  5
3C1
 10
1043.54
 20
-489.921
 30
0.000000
  70
    32
  0
VERTEX
  8
┌▓È_1
  5
3C2
 10
1043.57
 20
-489.953
 30
0.000000
  70
    32
  0
VERTEX
  8
┌▓È_1
  5
3C3
 10
1043.61
 20
-489.985
 30
0.000000
  70
    32
  0
VERTEX
  8
┌▓È_1
  5
3C4
 10
1043.65
 20
-490.017
 30
0.000000
  70
    32
  0
VERTEX
  8
┌▓È_1
  5
3C5
 10
1043.68
 20
-490.048
 30
0.000000
  70
    32
  0
VERTEX
  8
┌▓È_1
  5
3C6
 10
1043.72
 20
-490.080
 30
0.000000
  70
    32
  0
VERTEX
  8
┌▓È_1
  5
3C7
 10
1043.76
 20
-490.111
 30
0.000000
  70
    32
  0
VERTEX
  8
┌▓È_1
  5
3C8
 10
1043.79
 20
-490.143
 30
0.000000
  70
    32
  0
VERTEX
  8
┌▓È_1
  5
3C9
 10
1043.83
 20
-490.174
 30
0.000000
  70
    32
  0
VERTEX
  8
┌▓È_1
  5
3CA
 10
1043.87
 20
-490.206
 30
0.000000
  70
    32
  0
VERTEX
  8
┌▓È_1
  5
3CB
 10
1043.90
 20
-490.237
 30
0.000000
  70
    32
  0
VERTEX
  8
┌▓È_1
  5
3CC
 10
1043.94
 20
-490.269
 30
0.000000
  70
    32
  0
VERTEX
  8
┌▓È_1
  5
3CD
 10
1043.98
 20
-490.300
 30
0.000000
  70
    32
  0
VERTEX
  8
┌▓È_1
  5
3CE
 10
1044.02
 20
-490.331
 30
0.000000
  70
    32
  0
VERTEX
  8
┌▓È_1
  5
3CF
 10
1044.05
 20
-490.362
 30
0.000000
  70
    32
  0
VERTEX
  8
┌▓È_1
  5
3D0
 10
1044.09
 20
-490.393
 30
0.000000
  70
    32
  0
VERTEX
  8
┌▓È_1
  5
3D1
 10
1044.13
 20
-490.425
 30
0.000000
  70
    32
  0
VERTEX
  8
┌▓È_1
  5
3D2
 10
1044.16
 20
-490.456
 30
0.000000
  70
    32
  0
VERTEX
  8
┌▓È_1
  5
3D3
 10
1044.20
 20
-490.487
 30
0.000000
  70
    32
  0
VERTEX
  8
┌▓È_1
  5
3D4
 10
1044.24
 20
-490.517
 30
0.000000
  70
    32
  0
VERTEX
  8
┌▓È_1
  5
3D5
 10
1044.28
 20
-490.548
 30
0.000000
  70
    32
  0
VERTEX
  8
┌▓È_1
  5
3D6
 10
1044.31
 20
-490.579
 30
0.000000
  70
    32
  0
VERTEX
  8
┌▓È_1
  5
3D7
 10
1044.35
 20
-490.610
 30
0.000000
  70
    32
  0
VERTEX
  8
┌▓È_1
  5
3D8
 10
1044.39
 20
-490.641
 30
0.000000
  70
    32
  0
VERTEX
  8
┌▓È_1
  5
3D9
 10
1044.43
 20
-490.671
 30
0.000000
  70
    32
  0
VERTEX
  8
┌▓È_1
  5
3DA
 10
1044.46
 20
-490.702
 30
0.000000
  70
    32
  0
VERTEX
  8
┌▓È_1
  5
3DB
 10
1044.50
 20
-490.732
 30
0.000000
  70
    32
  0
VERTEX
  8
┌▓È_1
  5
3DC
 10
1044.54
 20
-490.763
 30
0.000000
  70
    32
  0
VERTEX
  8
┌▓È_1
  5
3DD
 10
1044.58
 20
-490.793
 30
0.000000
  70
    32
  0
VERTEX
  8
┌▓È_1
  5
3DE
 10
1044.61
 20
-490.823
 30
0.000000
  70
    32
  0
VERTEX
  8
┌▓È_1
  5
3DF
 10
1044.65
 20
-490.854
 30
0.000000
  70
    32
  0
VERTEX
  8
┌▓È_1
  5
3E0
 10
1044.69
 20
-490.884
 30
0.000000
  70
    32
  0
VERTEX
  8
┌▓È_1
  5
3E1
 10
1044.73
 20
-490.914
 30
0.000000
  70
    32
  0
VERTEX
  8
┌▓È_1
  5
3E2
 10
1044.76
 20
-490.944
 30
0.000000
  70
    32
  0
VERTEX
  8
┌▓È_1
  5
3E3
 10
1044.80
 20
-490.974
 30
0.000000
  70
    32
  0
VERTEX
  8
┌▓È_1
  5
3E4
 10
1044.84
 20
-491.004
 30
0.000000
  70
    32
  0
VERTEX
  8
┌▓È_1
  5
3E5
 10
1044.88
 20
-491.034
 30
0.000000
  70
    32
  0
VERTEX
  8
┌▓È_1
  5
3E6
 10
1044.92
 20
-491.063
 30
0.000000
  70
    32
  0
VERTEX
  8
┌▓È_1
  5
3E7
 10
1044.95
 20
-491.093
 30
0.000000
  70
    32
  0
VERTEX
  8
┌▓È_1
  5
3E8
 10
1044.99
 20
-491.123
 30
0.000000
  70
    32
  0
VERTEX
  8
┌▓È_1
  5
3E9
 10
1045.03
 20
-491.152
 30
0.000000
  70
    32
  0
VERTEX
  8
┌▓È_1
  5
3EA
 10
1045.07
 20
-491.182
 30
0.000000
  70
    32
  0
VERTEX
  8
┌▓È_1
  5
3EB
 10
1045.11
 20
-491.211
 30
0.000000
  70
    32
  0
VERTEX
  8
┌▓È_1
  5
3EC
 10
1045.14
 20
-491.241
 30
0.000000
  70
    32
  0
VERTEX
  8
┌▓È_1
  5
3ED
 10
1045.18
 20
-491.270
 30
0.000000
  70
    32
  0
VERTEX
  8
┌▓È_1
  5
3EE
 10
1045.22
 20
-491.299
 30
0.000000
  70
    32
  0
VERTEX
  8
┌▓È_1
  5
3EF
 10
1045.26
 20
-491.328
 30
0.000000
  70
    32
  0
VERTEX
  8
┌▓È_1
  5
3F0
 10
1045.30
 20
-491.357
 30
0.000000
  70
    32
  0
VERTEX
  8
┌▓È_1
  5
3F1
 10
1045.33
 20
-491.386
 30
0.000000
  70
    32
  0
VERTEX
  8
┌▓È_1
  5
3F2
 10
1045.37
 20
-491.415
 30
0.000000
  70
    32
  0
VERTEX
  8
┌▓È_1
  5
3F3
 10
1045.41
 20
-491.444
 30
0.000000
  70
    32
  0
VERTEX
  8
┌▓È_1
  5
3F4
 10
1045.45
 20
-491.473
 30
0.000000
  70
    32
  0
VERTEX
  8
┌▓È_1
  5
3F5
 10
1045.49
 20
-491.502
 30
0.000000
  70
    32
  0
VERTEX
  8
┌▓È_1
  5
3F6
 10
1045.53
 20
-491.530
 30
0.000000
  70
    32
  0
VERTEX
  8
┌▓È_1
  5
3F7
 10
1045.56
 20
-491.559
 30
0.000000
  70
    32
  0
VERTEX
  8
┌▓È_1
  5
3F8
 10
1045.60
 20
-491.587
 30
0.000000
  70
    32
  0
VERTEX
  8
┌▓È_1
  5
3F9
 10
1045.64
 20
-491.615
 30
0.000000
  70
    32
  0
VERTEX
  8
┌▓È_1
  5
3FA
 10
1045.68
 20
-491.644
 30
0.000000
  70
    32
  0
VERTEX
  8
┌▓È_1
  5
3FB
 10
1045.72
 20
-491.672
 30
0.000000
  70
    32
  0
VERTEX
  8
┌▓È_1
  5
3FC
 10
1045.76
 20
-491.700
 30
0.000000
  70
    32
  0
VERTEX
  8
┌▓È_1
  5
3FD
 10
1045.80
 20
-491.728
 30
0.000000
  70
    32
  0
VERTEX
  8
┌▓È_1
  5
3FE
 10
1045.84
 20
-491.756
 30
0.000000
  70
    32
  0
VERTEX
  8
┌▓È_1
  5
3FF
 10
1045.88
 20
-491.784
 30
0.000000
  70
    32
  0
VERTEX
  8
┌▓È_1
  5
400
 10
1045.91
 20
-491.812
 30
0.000000
  70
    32
  0
VERTEX
  8
┌▓È_1
  5
401
 10
1045.95
 20
-491.839
 30
0.000000
  70
    32
  0
VERTEX
  8
┌▓È_1
  5
402
 10
1045.99
 20
-491.867
 30
0.000000
  70
    32
  0
VERTEX
  8
┌▓È_1
  5
403
 10
1046.03
 20
-491.894
 30
0.000000
  70
    32
  0
VERTEX
  8
┌▓È_1
  5
404
 10
1046.07
 20
-491.922
 30
0.000000
  70
    32
  0
VERTEX
  8
┌▓È_1
  5
405
 10
1046.11
 20
-491.949
 30
0.000000
  70
    32
  0
VERTEX
  8
┌▓È_1
  5
406
 10
1046.15
 20
-491.976
 30
0.000000
  70
    32
  0
VERTEX
  8
┌▓È_1
  5
407
 10
1046.19
 20
-492.003
 30
0.000000
  70
    32
  0
VERTEX
  8
┌▓È_1
  5
408
 10
1046.23
 20
-492.030
 30
0.000000
  70
    32
  0
VERTEX
  8
┌▓È_1
  5
409
 10
1046.27
 20
-492.057
 30
0.000000
  70
    32
  0
VERTEX
  8
┌▓È_1
  5
40A
 10
1046.31
 20
-492.084
 30
0.000000
  70
    32
  0
VERTEX
  8
┌▓È_1
  5
40B
 10
1046.35
 20
-492.111
 30
0.000000
  70
    32
  0
VERTEX
  8
┌▓È_1
  5
40C
 10
1046.39
 20
-492.138
 30
0.000000
  70
    32
  0
VERTEX
  8
┌▓È_1
  5
40D
 10
1046.43
 20
-492.164
 30
0.000000
  70
    32
  0
VERTEX
  8
┌▓È_1
  5
40E
 10
1046.46
 20
-492.191
 30
0.000000
  70
    32
  0
VERTEX
  8
┌▓È_1
  5
40F
 10
1046.50
 20
-492.217
 30
0.000000
  70
    32
  0
VERTEX
  8
┌▓È_1
  5
410
 10
1046.54
 20
-492.243
 30
0.000000
  70
    32
  0
VERTEX
  8
┌▓È_1
  5
411
 10
1046.58
 20
-492.270
 30
0.000000
  70
    32
  0
VERTEX
  8
┌▓È_1
  5
412
 10
1046.62
 20
-492.296
 30
0.000000
  70
    32
  0
VERTEX
  8
┌▓È_1
  5
413
 10
1046.66
 20
-492.322
 30
0.000000
  70
    32
  0
VERTEX
  8
┌▓È_1
  5
414
 10
1046.70
 20
-492.348
 30
0.000000
  70
    32
  0
VERTEX
  8
┌▓È_1
  5
415
 10
1046.74
 20
-492.373
 30
0.000000
  70
    32
  0
VERTEX
  8
┌▓È_1
  5
416
 10
1046.78
 20
-492.399
 30
0.000000
  70
    32
  0
VERTEX
  8
┌▓È_1
  5
417
 10
1046.82
 20
-492.425
 30
0.000000
  70
    32
  0
VERTEX
  8
┌▓È_1
  5
418
 10
1046.86
 20
-492.450
 30
0.000000
  70
    32
  0
VERTEX
  8
┌▓È_1
  5
419
 10
1046.90
 20
-492.476
 30
0.000000
  70
    32
  0
VERTEX
  8
┌▓È_1
  5
41A
 10
1046.94
 20
-492.501
 30
0.000000
  70
    32
  0
VERTEX
  8
┌▓È_1
  5
41B
 10
1046.99
 20
-492.526
 30
0.000000
  70
    32
  0
VERTEX
  8
┌▓È_1
  5
41C
 10
1047.03
 20
-492.551
 30
0.000000
  70
    32
  0
VERTEX
  8
┌▓È_1
  5
41D
 10
1047.07
 20
-492.576
 30
0.000000
  70
    32
  0
VERTEX
  8
┌▓È_1
  5
41E
 10
1047.11
 20
-492.601
 30
0.000000
  70
    32
  0
VERTEX
  8
┌▓È_1
  5
41F
 10
1047.15
 20
-492.626
 30
0.000000
  70
    32
  0
VERTEX
  8
┌▓È_1
  5
420
 10
1047.19
 20
-492.650
 30
0.000000
  70
    32
  0
VERTEX
  8
┌▓È_1
  5
421
 10
1047.23
 20
-492.675
 30
0.000000
  70
    32
  0
SEQEND
  8
┌▓È_1
  5
422
  0
DIMENSION
  5
71
  8
Éíû@É³
  2
*D3
 10
781.44861139289992
 20
14.3815541719
 30
0.0
 11
663.94861139290003
 21
14.3815541719
 31
0.0
 70
   128
  1
<>
 13
781.44861139289992
 23
-23.871253457200002
 33
0.0
 14
546.44861139290003
 24
-23.871253457200002
 34
0.0
  0
LINE
  5
72
  8
┌▓È_1
 62
     5
 10
549.44861139290003
 20
-210.8712534572
 30
0.0
 11
778.44861139289992
 21
-210.8712534572
 31
0.0
  0
INSERT
  5
73
  8
0
  6
CONTINUOUS
  2
*U24
 10
0.0
 20
0.0
 30
0.0
  0
LINE
  5
74
  8
┌▓È_1
 62
     5
 10
559.44861139290003
 20
-30.871253457200002
 30
0.0
 11
768.44861139289992
 21
-30.871253457200002
 31
0.0
  0
LINE
  5
75
  8
┌▓È_1
 62
     5
 10
778.44861139289992
 20
-20.871253457200002
 30
0.0
 11
549.44861139290003
 21
-20.871253457200002
 31
0.0
  0
LINE
  5
76
  8
┌▓È_1
 62
     5
 10
559.44829104940004
 20
-31.8709331136
 30
0.0
 11
768.44893173649996
 21
-31.8709331136
 31
0.0
  0
LINE
  5
77
  8
┌▓È_1
  6
BORDER
 62
     3
 10
541.44861139290003
 20
-115.8712534572
 30
0.0
 11
786.44861139289981
 21
-115.8712534572
 31
0.0
  0
LINE
  5
78
  8
┌▓È_1
 62
     5
 10
768.44861139289992
 20
-200.8712534572
 30
0.0
 11
559.44861139290003
 21
-200.8712534572
 31
0.0
  0
LINE
  5
79
  8
┌▓È_1
 62
     5
 10
768.44893173649996
 20
-199.87157380069999
 30
0.0
 11
559.44829104940004
 21
-199.87157380069999
 31
0.0
  0
DIMENSION
  5
88
  8
Éíû@É³
  2
*D4
 10
548.94861139290003
 20
-454.7903078656999
 30
0.0
 11
663.94861139290003
 21
-454.7903078656999
 31
0.0
 70
   128
  1
<>
 13
548.94861139290003
 23
-413.07477339479999
 33
0.0
 14
778.94861139289992
 24
-413.07477339479999
 34
0.0
 50
180.0
  0
DIMENSION
  5
97
  8
Éíû@É³
  2
*D5
 10
555.44861139290003
 20
-437.76393887139989
 30
0.0
 11
663.94861139290003
 21
-437.76393887139989
 31
0.0
 70
   128
  1
(<>)ôÓÉí
 13
555.44861139290003
 23
-412.07477339479999
 33
0.0
 14
772.44861139289992
 24
-412.07477339479999
 34
0.0
 50
180.0
  0
LINE
  5
98
  8
┌▓È_1
 62
     5
 10
773.94861094880002
 20
-413.07477339479999
 30
0.0
 11
553.94861158469985
 21
-413.07477339479999
 31
0.0
  0
LINE
  5
99
  8
┌▓È_1
 62
     5
 10
949.37361075410001
 20
-21.871253457200002
 30
0.0
 11
949.37361075410001
 21
-209.8712534572
 31
0.0
  0
LINE
  5
9A
  8
┌▓È_1
 62
     5
 10
955.37361075410001
 20
-20.871253457200002
 30
0.0
 11
955.37361075410001
 21
-210.8712534572
 31
0.0
  0
DIMENSION
  5
A9
  8
Éíû@É³
  2
*D6
 10
813.05197417340003
 20
-210.8712534572
 30
0.0
 11
813.05197417340003
 21
-115.8712534572
 31
0.0
 70
   128
  1
<>
 13
778.44861139289992
 23
-210.8712534572
 33
0.0
 14
778.44861139289992
 24
-20.871253457200002
 34
0.0
 50
90.0
  0
LINE
  5
AA
  8
┌▓È_1
 62
     5
 10
771.44861139289992
 20
-33.871253457199998
 30
0.0
 11
771.44861139289992
 21
-197.8712534572
 31
0.0
  0
LINE
  5
AB
  8
┌▓È_1
 62
     5
 10
770.44893173649984
 20
-33.87093311360001
 30
0.0
 11
770.44893173649984
 21
-197.87157380069999
 31
0.0
  0
LINE
  5
AC
  8
┌▓È_1
 62
     5
 10
781.44861139289992
 20
-207.8712534572
 30
0.0
 11
781.44861139289992
 21
-23.871253457200002
 31
0.0
  0
LINE
  5
AD
  8
┌▓È_1
  6
BORDER
 62
     3
 10
663.94861139290003
 20
-15.8712534572
 30
0.0
 11
663.94861139290003
 21
-215.8712534572
 31
0.0
  0
DIMENSION
  5
BC
  8
Éíû@É³
  2
*D7
 10
581.44861800290005
 20
-75.871301486899995
 30
0.0
 11
568.94861469789998
 21
-75.871301486899995
 31
0.0
 70
   128
  1
<>
 13
581.44861800290005
 23
-95.871301486899995
 33
0.0
 14
556.44861139290003
 24
-115.8712534572
 34
0.0
  0
LINE
  5
BD
  8
┌▓È_1
 62
     5
 10
556.44861139290003
 20
-197.8712534572
 30
0.0
 11
556.44861139290003
 21
-33.871253457199998
 31
0.0
  0
LINE
  5
BE
  8
┌▓È_1
 62
     5
 10
557.44829104940004
 20
-197.87157380069999
 30
0.0
 11
557.44829104940004
 21
-33.87093311360001
 31
0.0
  0
LINE
  5
BF
  8
┌▓È_1
 62
     5
 10
546.44861139290003
 20
-23.871253457200002
 30
0.0
 11
546.44861139290003
 21
-207.8712534572
 31
0.0
  0
LINE
  5
C0
  8
┌▓È_1
 62
     5
 10
773.44861139289992
 20
-331.07477339479999
 30
0.0
 11
773.44861139289992
 21
-412.07477339479999
 31
0.0
  0
LINE
  5
C1
  8
┌▓È_1
 62
     5
 10
772.44861139289992
 20
-412.07477339479999
 30
0.0
 11
772.44861139289992
 21
-331.11843433770002
 31
0.0
  0
LINE
  5
C2
  8
┌▓È_1
  6
BORDER
 62
     3
 10
663.94861139290003
 20
-313.07465360319998
 30
0.0
 11
663.94861139290003
 21
-418.07477339479999
 31
0.0
  0
LINE
  5
C3
  8
┌▓È_1
 62
     5
 10
554.44861139290003
 20
-324.57477339479999
 30
0.0
 11
554.44861139290003
 21
-412.07477339479999
 31
0.0
  0
LINE
  5
C4
  8
┌▓È_1
 62
     5
 10
555.44861139290003
 20
-412.07477339479999
 30
0.0
 11
555.44861139290003
 21
-324.57477339479999
 31
0.0
  0
LINE
  5
C5
  8
┌▓È_1
  6
BORDER
 62
     3
 10
941.37370590570004
 20
-115.8712534572
 30
0.0
 11
1049.3736107540999
 21
-115.8714722072
 31
0.0
  0
LINE
  5
C6
  8
┌▓È_1
 10
1240.6080260143999
 20
-375.14006083430002
 30
0.0
 11
940.60802601439991
 21
-375.14006083430002
 31
0.0
  0
LINE
  5
C7
  8
┌▓È_1
 10
1240.6080260143999
 20
-385.14006083430002
 30
0.0
 11
940.60802601439991
 21
-385.14006083430002
 31
0.0
  0
LINE
  5
C8
  8
┌▓È_1
 10
1240.6080260143999
 20
-395.14006083430002
 30
0.0
 11
940.60802601439991
 21
-395.14006083430002
 31
0.0
  0
LINE
  5
C9
  8
┌▓È_1
 10
1240.6080260143999
 20
-435.1400608342999
 30
0.0
 11
940.60802601439991
 21
-435.1400608342999
 31
0.0
  0
LINE
  5
CA
  8
┌▓È_1
 10
1240.6080260143999
 20
-415.14006083430002
 30
0.0
 11
940.60802601439991
 21
-415.14006083430002
 31
0.0
  0
LINE
  5
CB
  8
┌▓È_1
 10
1240.6080260143999
 20
-425.14006083430002
 30
0.0
 11
940.60802601439991
 21
-425.14006083430002
 31
0.0
  0
LINE
  5
CC
  8
┌▓È_1
 10
1240.6080260143999
 20
-405.14006083430002
 30
0.0
 11
940.60802601439991
 21
-405.14006083430002
 31
0.0
  0
LINE
  5
CD
  8
┌▓È_1
 10
940.60802601439991
 20
-457.14006083430002
 30
0.0
 11
1060.6080260143999
 21
-457.14006083430002
 31
0.0
  0
LINE
  5
CE
  8
┌▓È_1
 62
     5
 10
572.44818821590002
 20
-323.77419629899998
 30
0.0
 11
572.44818821590002
 21
-333.06009370729998
 31
0.0
  0
LINE
  5
CF
  8
┌▓È_1
 62
     5
 10
547.44861139290003
 20
-318.07477339479999
 30
0.0
 11
555.44861139290003
 21
-318.07477339479999
 31
0.0
  0
LINE
  5
D0
  8
┌▓È_1
 62
     5
 10
555.44861139290003
 20
-319.07477339479999
 30
0.0
 11
547.44861139290003
 21
-319.07477339479999
 31
0.0
  0
LINE
  5
D1
  8
┌▓È_1
 62
     5
 10
588.94818821590002
 20
-340.77419629899998
 30
0.0
 11
588.94818821590002
 21
-339.2741962990001
 31
0.0
  0
LINE
  5
D2
  8
┌▓È_1
 62
     5
 10
573.94818821590002
 20
-340.77419629899998
 30
0.0
 11
588.94818821590002
 21
-340.77419629899998
 31
0.0
  0
ARC
  5
D3
  8
┌▓È_1
 62
     5
 10
575.69818821590002
 20
-344.27419629899998
 30
0.0
 40
3.5
 50
60.0
 51
120.0
  0
LINE
  5
D4
  8
┌▓È_1
 62
     5
 10
559.44861139290003
 20
-324.57477339479999
 30
0.0
 11
563.44861139290003
 21
-324.57477339479999
 31
0.0
  0
LINE
  5
D5
  8
┌▓È_1
 62
     5
 10
559.44861139290003
 20
-324.57477339479999
 30
0.0
 11
555.44861139290003
 21
-324.57477339479999
 31
0.0
  0
ARC
  5
D6
  8
┌▓È_1
 62
     5
 10
555.44861139290003
 20
-319.07477339479999
 30
0.0
 40
1.0
 50
0.0
 51
90.0
  0
LINE
  5
D7
  8
┌▓È_1
 62
     5
 10
557.44818821590002
 20
-325.57477339479999
 30
0.0
 11
569.44818821590002
 21
-325.57477339479999
 31
0.0
  0
LINE
  5
D8
  8
┌▓È_1
 62
     5
 10
557.44845904919998
 20
-322.57465360319998
 30
0.0
 11
567.44862455919986
 21
-322.57465360319998
 31
0.0
  0
LINE
  5
D9
  8
┌▓È_1
 62
     5
 10
557.44818821590002
 20
-325.57477339479999
 30
0.0
 11
557.44818821590002
 21
-327.57477339479999
 31
0.0
  0
LINE
  5
DA
  8
┌▓È_1
 62
     5
 10
557.44845904919998
 20
-319.27465360320002
 30
0.0
 11
557.44845904919998
 21
-322.57465360319998
 31
0.0
  0
LINE
  5
DB
  8
┌▓È_1
 62
     5
 10
556.44861139290003
 20
-319.07477339479999
 30
0.0
 11
556.44861139290003
 21
-322.57477339479999
 31
0.0
  0
POLYLINE
  8
┌▓È_1
  5
423
  62
5
  66
     1
 10
0.000000
 20
0.000000
 30
0.000000
  70
     8
  0
VERTEX
  8
┌▓È_1
  5
424
 10
585.448
 20
-341.243
 30
0.000000
  70
    32
  0
VERTEX
  8
┌▓È_1
  5
425
 10
585.398
 20
-341.234
 30
0.000000
  70
    32
  0
VERTEX
  8
┌▓È_1
  5
426
 10
585.348
 20
-341.225
 30
0.000000
  70
    32
  0
VERTEX
  8
┌▓È_1
  5
427
 10
585.297
 20
-341.217
 30
0.000000
  70
    32
  0
VERTEX
  8
┌▓È_1
  5
428
 10
585.247
 20
-341.208
 30
0.000000
  70
    32
  0
VERTEX
  8
┌▓È_1
  5
429
 10
585.197
 20
-341.199
 30
0.000000
  70
    32
  0
VERTEX
  8
┌▓È_1
  5
42A
 10
585.146
 20
-341.190
 30
0.000000
  70
    32
  0
VERTEX
  8
┌▓È_1
  5
42B
 10
585.096
 20
-341.181
 30
0.000000
  70
    32
  0
VERTEX
  8
┌▓È_1
  5
42C
 10
585.046
 20
-341.173
 30
0.000000
  70
    32
  0
VERTEX
  8
┌▓È_1
  5
42D
 10
584.995
 20
-341.164
 30
0.000000
  70
    32
  0
VERTEX
  8
┌▓È_1
  5
42E
 10
584.945
 20
-341.155
 30
0.000000
  70
    32
  0
VERTEX
  8
┌▓È_1
  5
42F
 10
584.895
 20
-341.146
 30
0.000000
  70
    32
  0
VERTEX
  8
┌▓È_1
  5
430
 10
584.844
 20
-341.138
 30
0.000000
  70
    32
  0
VERTEX
  8
┌▓È_1
  5
431
 10
584.794
 20
-341.129
 30
0.000000
  70
    32
  0
VERTEX
  8
┌▓È_1
  5
432
 10
584.744
 20
-341.121
 30
0.000000
  70
    32
  0
VERTEX
  8
┌▓È_1
  5
433
 10
584.693
 20
-341.112
 30
0.000000
  70
    32
  0
VERTEX
  8
┌▓È_1
  5
434
 10
584.643
 20
-341.103
 30
0.000000
  70
    32
  0
VERTEX
  8
┌▓È_1
  5
435
 10
584.593
 20
-341.095
 30
0.000000
  70
    32
  0
VERTEX
  8
┌▓È_1
  5
436
 10
584.543
 20
-341.087
 30
0.000000
  70
    32
  0
VERTEX
  8
┌▓È_1
  5
437
 10
584.492
 20
-341.078
 30
0.000000
  70
    32
  0
VERTEX
  8
┌▓È_1
  5
438
 10
584.442
 20
-341.070
 30
0.000000
  70
    32
  0
VERTEX
  8
┌▓È_1
  5
439
 10
584.392
 20
-341.062
 30
0.000000
  70
    32
  0
VERTEX
  8
┌▓È_1
  5
43A
 10
584.341
 20
-341.053
 30
0.000000
  70
    32
  0
VERTEX
  8
┌▓È_1
  5
43B
 10
584.291
 20
-341.045
 30
0.000000
  70
    32
  0
VERTEX
  8
┌▓È_1
  5
43C
 10
584.241
 20
-341.037
 30
0.000000
  70
    32
  0
VERTEX
  8
┌▓È_1
  5
43D
 10
584.190
 20
-341.029
 30
0.000000
  70
    32
  0
VERTEX
  8
┌▓È_1
  5
43E
 10
584.140
 20
-341.021
 30
0.000000
  70
    32
  0
VERTEX
  8
┌▓È_1
  5
43F
 10
584.090
 20
-341.013
 30
0.000000
  70
    32
  0
VERTEX
  8
┌▓È_1
  5
440
 10
584.039
 20
-341.006
 30
0.000000
  70
    32
  0
VERTEX
  8
┌▓È_1
  5
441
 10
583.989
 20
-340.998
 30
0.000000
  70
    32
  0
VERTEX
  8
┌▓È_1
  5
442
 10
583.939
 20
-340.990
 30
0.000000
  70
    32
  0
VERTEX
  8
┌▓È_1
  5
443
 10
583.888
 20
-340.983
 30
0.000000
  70
    32
  0
VERTEX
  8
┌▓È_1
  5
444
 10
583.838
 20
-340.975
 30
0.000000
  70
    32
  0
VERTEX
  8
┌▓È_1
  5
445
 10
583.788
 20
-340.968
 30
0.000000
  70
    32
  0
VERTEX
  8
┌▓È_1
  5
446
 10
583.737
 20
-340.961
 30
0.000000
  70
    32
  0
VERTEX
  8
┌▓È_1
  5
447
 10
583.687
 20
-340.953
 30
0.000000
  70
    32
  0
VERTEX
  8
┌▓È_1
  5
448
 10
583.637
 20
-340.946
 30
0.000000
  70
    32
  0
VERTEX
  8
┌▓È_1
  5
449
 10
583.587
 20
-340.939
 30
0.000000
  70
    32
  0
VERTEX
  8
┌▓È_1
  5
44A
 10
583.536
 20
-340.933
 30
0.000000
  70
    32
  0
VERTEX
  8
┌▓È_1
  5
44B
 10
583.486
 20
-340.926
 30
0.000000
  70
    32
  0
VERTEX
  8
┌▓È_1
  5
44C
 10
583.436
 20
-340.919
 30
0.000000
  70
    32
  0
VERTEX
  8
┌▓È_1
  5
44D
 10
583.385
 20
-340.913
 30
0.000000
  70
    32
  0
VERTEX
  8
┌▓È_1
  5
44E
 10
583.335
 20
-340.906
 30
0.000000
  70
    32
  0
VERTEX
  8
┌▓È_1
  5
44F
 10
583.285
 20
-340.900
 30
0.000000
  70
    32
  0
VERTEX
  8
┌▓È_1
  5
450
 10
583.234
 20
-340.894
 30
0.000000
  70
    32
  0
VERTEX
  8
┌▓È_1
  5
451
 10
583.184
 20
-340.887
 30
0.000000
  70
    32
  0
VERTEX
  8
┌▓È_1
  5
452
 10
583.134
 20
-340.882
 30
0.000000
  70
    32
  0
VERTEX
  8
┌▓È_1
  5
453
 10
583.083
 20
-340.876
 30
0.000000
  70
    32
  0
VERTEX
  8
┌▓È_1
  5
454
 10
583.033
 20
-340.870
 30
0.000000
  70
    32
  0
VERTEX
  8
┌▓È_1
  5
455
 10
582.983
 20
-340.864
 30
0.000000
  70
    32
  0
VERTEX
  8
┌▓È_1
  5
456
 10
582.932
 20
-340.859
 30
0.000000
  70
    32
  0
VERTEX
  8
┌▓È_1
  5
457
 10
582.882
 20
-340.854
 30
0.000000
  70
    32
  0
VERTEX
  8
┌▓È_1
  5
458
 10
582.832
 20
-340.849
 30
0.000000
  70
    32
  0
VERTEX
  8
┌▓È_1
  5
459
 10
582.782
 20
-340.844
 30
0.000000
  70
    32
  0
VERTEX
  8
┌▓È_1
  5
45A
 10
582.731
 20
-340.839
 30
0.000000
  70
    32
  0
VERTEX
  8
┌▓È_1
  5
45B
 10
582.681
 20
-340.834
 30
0.000000
  70
    32
  0
VERTEX
  8
┌▓È_1
  5
45C
 10
582.631
 20
-340.830
 30
0.000000
  70
    32
  0
VERTEX
  8
┌▓È_1
  5
45D
 10
582.580
 20
-340.825
 30
0.000000
  70
    32
  0
VERTEX
  8
┌▓È_1
  5
45E
 10
582.530
 20
-340.821
 30
0.000000
  70
    32
  0
VERTEX
  8
┌▓È_1
  5
45F
 10
582.480
 20
-340.817
 30
0.000000
  70
    32
  0
VERTEX
  8
┌▓È_1
  5
460
 10
582.429
 20
-340.813
 30
0.000000
  70
    32
  0
VERTEX
  8
┌▓È_1
  5
461
 10
582.379
 20
-340.809
 30
0.000000
  70
    32
  0
VERTEX
  8
┌▓È_1
  5
462
 10
582.329
 20
-340.806
 30
0.000000
  70
    32
  0
VERTEX
  8
┌▓È_1
  5
463
 10
582.278
 20
-340.802
 30
0.000000
  70
    32
  0
VERTEX
  8
┌▓È_1
  5
464
 10
582.228
 20
-340.799
 30
0.000000
  70
    32
  0
VERTEX
  8
┌▓È_1
  5
465
 10
582.178
 20
-340.796
 30
0.000000
  70
    32
  0
VERTEX
  8
┌▓È_1
  5
466
 10
582.127
 20
-340.793
 30
0.000000
  70
    32
  0
VERTEX
  8
┌▓È_1
  5
467
 10
582.077
 20
-340.791
 30
0.000000
  70
    32
  0
VERTEX
  8
┌▓È_1
  5
468
 10
582.027
 20
-340.788
 30
0.000000
  70
    32
  0
VERTEX
  8
┌▓È_1
  5
469
 10
581.976
 20
-340.786
 30
0.000000
  70
    32
  0
VERTEX
  8
┌▓È_1
  5
46A
 10
581.926
 20
-340.784
 30
0.000000
  70
    32
  0
VERTEX
  8
┌▓È_1
  5
46B
 10
581.876
 20
-340.782
 30
0.000000
  70
    32
  0
VERTEX
  8
┌▓È_1
  5
46C
 10
581.826
 20
-340.780
 30
0.000000
  70
    32
  0
VERTEX
  8
┌▓È_1
  5
46D
 10
581.775
 20
-340.779
 30
0.000000
  70
    32
  0
VERTEX
  8
┌▓È_1
  5
46E
 10
581.725
 20
-340.777
 30
0.000000
  70
    32
  0
VERTEX
  8
┌▓È_1
  5
46F
 10
581.675
 20
-340.776
 30
0.000000
  70
    32
  0
VERTEX
  8
┌▓È_1
  5
470
 10
581.624
 20
-340.776
 30
0.000000
  70
    32
  0
VERTEX
  8
┌▓È_1
  5
471
 10
581.574
 20
-340.775
 30
0.000000
  70
    32
  0
VERTEX
  8
┌▓È_1
  5
472
 10
581.524
 20
-340.774
 30
0.000000
  70
    32
  0
VERTEX
  8
┌▓È_1
  5
473
 10
581.473
 20
-340.774
 30
0.000000
  70
    32
  0
VERTEX
  8
┌▓È_1
  5
474
 10
581.423
 20
-340.774
 30
0.000000
  70
    32
  0
VERTEX
  8
┌▓È_1
  5
475
 10
581.373
 20
-340.774
 30
0.000000
  70
    32
  0
VERTEX
  8
┌▓È_1
  5
476
 10
581.322
 20
-340.775
 30
0.000000
  70
    32
  0
VERTEX
  8
┌▓È_1
  5
477
 10
581.272
 20
-340.776
 30
0.000000
  70
    32
  0
VERTEX
  8
┌▓È_1
  5
478
 10
581.222
 20
-340.776
 30
0.000000
  70
    32
  0
VERTEX
  8
┌▓È_1
  5
479
 10
581.171
 20
-340.777
 30
0.000000
  70
    32
  0
VERTEX
  8
┌▓È_1
  5
47A
 10
581.121
 20
-340.779
 30
0.000000
  70
    32
  0
VERTEX
  8
┌▓È_1
  5
47B
 10
581.071
 20
-340.780
 30
0.000000
  70
    32
  0
VERTEX
  8
┌▓È_1
  5
47C
 10
581.021
 20
-340.782
 30
0.000000
  70
    32
  0
VERTEX
  8
┌▓È_1
  5
47D
 10
580.970
 20
-340.784
 30
0.000000
  70
    32
  0
VERTEX
  8
┌▓È_1
  5
47E
 10
580.920
 20
-340.786
 30
0.000000
  70
    32
  0
VERTEX
  8
┌▓È_1
  5
47F
 10
580.870
 20
-340.788
 30
0.000000
  70
    32
  0
VERTEX
  8
┌▓È_1
  5
480
 10
580.819
 20
-340.791
 30
0.000000
  70
    32
  0
VERTEX
  8
┌▓È_1
  5
481
 10
580.769
 20
-340.793
 30
0.000000
  70
    32
  0
VERTEX
  8
┌▓È_1
  5
482
 10
580.719
 20
-340.796
 30
0.000000
  70
    32
  0
VERTEX
  8
┌▓È_1
  5
483
 10
580.668
 20
-340.799
 30
0.000000
  70
    32
  0
VERTEX
  8
┌▓È_1
  5
484
 10
580.618
 20
-340.802
 30
0.000000
  70
    32
  0
VERTEX
  8
┌▓È_1
  5
485
 10
580.568
 20
-340.806
 30
0.000000
  70
    32
  0
VERTEX
  8
┌▓È_1
  5
486
 10
580.517
 20
-340.809
 30
0.000000
  70
    32
  0
VERTEX
  8
┌▓È_1
  5
487
 10
580.467
 20
-340.813
 30
0.000000
  70
    32
  0
VERTEX
  8
┌▓È_1
  5
488
 10
580.417
 20
-340.817
 30
0.000000
  70
    32
  0
VERTEX
  8
┌▓È_1
  5
489
 10
580.366
 20
-340.821
 30
0.000000
  70
    32
  0
VERTEX
  8
┌▓È_1
  5
48A
 10
580.316
 20
-340.825
 30
0.000000
  70
    32
  0
VERTEX
  8
┌▓È_1
  5
48B
 10
580.266
 20
-340.830
 30
0.000000
  70
    32
  0
VERTEX
  8
┌▓È_1
  5
48C
 10
580.215
 20
-340.834
 30
0.000000
  70
    32
  0
VERTEX
  8
┌▓È_1
  5
48D
 10
580.165
 20
-340.839
 30
0.000000
  70
    32
  0
VERTEX
  8
┌▓È_1
  5
48E
 10
580.115
 20
-340.844
 30
0.000000
  70
    32
  0
VERTEX
  8
┌▓È_1
  5
48F
 10
580.065
 20
-340.849
 30
0.000000
  70
    32
  0
VERTEX
  8
┌▓È_1
  5
490
 10
580.014
 20
-340.854
 30
0.000000
  70
    32
  0
VERTEX
  8
┌▓È_1
  5
491
 10
579.964
 20
-340.859
 30
0.000000
  70
    32
  0
VERTEX
  8
┌▓È_1
  5
492
 10
579.914
 20
-340.864
 30
0.000000
  70
    32
  0
VERTEX
  8
┌▓È_1
  5
493
 10
579.863
 20
-340.870
 30
0.000000
  70
    32
  0
VERTEX
  8
┌▓È_1
  5
494
 10
579.813
 20
-340.876
 30
0.000000
  70
    32
  0
VERTEX
  8
┌▓È_1
  5
495
 10
579.763
 20
-340.882
 30
0.000000
  70
    32
  0
VERTEX
  8
┌▓È_1
  5
496
 10
579.712
 20
-340.887
 30
0.000000
  70
    32
  0
VERTEX
  8
┌▓È_1
  5
497
 10
579.662
 20
-340.894
 30
0.000000
  70
    32
  0
VERTEX
  8
┌▓È_1
  5
498
 10
579.612
 20
-340.900
 30
0.000000
  70
    32
  0
VERTEX
  8
┌▓È_1
  5
499
 10
579.561
 20
-340.906
 30
0.000000
  70
    32
  0
VERTEX
  8
┌▓È_1
  5
49A
 10
579.511
 20
-340.913
 30
0.000000
  70
    32
  0
VERTEX
  8
┌▓È_1
  5
49B
 10
579.461
 20
-340.919
 30
0.000000
  70
    32
  0
VERTEX
  8
┌▓È_1
  5
49C
 10
579.410
 20
-340.926
 30
0.000000
  70
    32
  0
VERTEX
  8
┌▓È_1
  5
49D
 10
579.360
 20
-340.933
 30
0.000000
  70
    32
  0
VERTEX
  8
┌▓È_1
  5
49E
 10
579.310
 20
-340.939
 30
0.000000
  70
    32
  0
VERTEX
  8
┌▓È_1
  5
49F
 10
579.260
 20
-340.946
 30
0.000000
  70
    32
  0
VERTEX
  8
┌▓È_1
  5
4A0
 10
579.209
 20
-340.953
 30
0.000000
  70
    32
  0
VERTEX
  8
┌▓È_1
  5
4A1
 10
579.159
 20
-340.961
 30
0.000000
  70
    32
  0
VERTEX
  8
┌▓È_1
  5
4A2
 10
579.109
 20
-340.968
 30
0.000000
  70
    32
  0
VERTEX
  8
┌▓È_1
  5
4A3
 10
579.058
 20
-340.975
 30
0.000000
  70
    32
  0
VERTEX
  8
┌▓È_1
  5
4A4
 10
579.008
 20
-340.983
 30
0.000000
  70
    32
  0
VERTEX
  8
┌▓È_1
  5
4A5
 10
578.958
 20
-340.990
 30
0.000000
  70
    32
  0
VERTEX
  8
┌▓È_1
  5
4A6
 10
578.907
 20
-340.998
 30
0.000000
  70
    32
  0
VERTEX
  8
┌▓È_1
  5
4A7
 10
578.857
 20
-341.006
 30
0.000000
  70
    32
  0
VERTEX
  8
┌▓È_1
  5
4A8
 10
578.807
 20
-341.013
 30
0.000000
  70
    32
  0
VERTEX
  8
┌▓È_1
  5
4A9
 10
578.756
 20
-341.021
 30
0.000000
  70
    32
  0
VERTEX
  8
┌▓È_1
  5
4AA
 10
578.706
 20
-341.029
 30
0.000000
  70
    32
  0
VERTEX
  8
┌▓È_1
  5
4AB
 10
578.656
 20
-341.037
 30
0.000000
  70
    32
  0
VERTEX
  8
┌▓È_1
  5
4AC
 10
578.605
 20
-341.045
 30
0.000000
  70
    32
  0
VERTEX
  8
┌▓È_1
  5
4AD
 10
578.555
 20
-341.053
 30
0.000000
  70
    32
  0
VERTEX
  8
┌▓È_1
  5
4AE
 10
578.505
 20
-341.062
 30
0.000000
  70
    32
  0
VERTEX
  8
┌▓È_1
  5
4AF
 10
578.454
 20
-341.070
 30
0.000000
  70
    32
  0
VERTEX
  8
┌▓È_1
  5
4B0
 10
578.404
 20
-341.078
 30
0.000000
  70
    32
  0
VERTEX
  8
┌▓È_1
  5
4B1
 10
578.354
 20
-341.087
 30
0.000000
  70
    32
  0
VERTEX
  8
┌▓È_1
  5
4B2
 10
578.304
 20
-341.095
 30
0.000000
  70
    32
  0
VERTEX
  8
┌▓È_1
  5
4B3
 10
578.253
 20
-341.103
 30
0.000000
  70
    32
  0
VERTEX
  8
┌▓È_1
  5
4B4
 10
578.203
 20
-341.112
 30
0.000000
  70
    32
  0
VERTEX
  8
┌▓È_1
  5
4B5
 10
578.153
 20
-341.121
 30
0.000000
  70
    32
  0
VERTEX
  8
┌▓È_1
  5
4B6
 10
578.102
 20
-341.129
 30
0.000000
  70
    32
  0
VERTEX
  8
┌▓È_1
  5
4B7
 10
578.052
 20
-341.138
 30
0.000000
  70
    32
  0
VERTEX
  8
┌▓È_1
  5
4B8
 10
578.002
 20
-341.146
 30
0.000000
  70
    32
  0
VERTEX
  8
┌▓È_1
  5
4B9
 10
577.951
 20
-341.155
 30
0.000000
  70
    32
  0
VERTEX
  8
┌▓È_1
  5
4BA
 10
577.901
 20
-341.164
 30
0.000000
  70
    32
  0
VERTEX
  8
┌▓È_1
  5
4BB
 10
577.851
 20
-341.173
 30
0.000000
  70
    32
  0
VERTEX
  8
┌▓È_1
  5
4BC
 10
577.800
 20
-341.181
 30
0.000000
  70
    32
  0
VERTEX
  8
┌▓È_1
  5
4BD
 10
577.750
 20
-341.190
 30
0.000000
  70
    32
  0
VERTEX
  8
┌▓È_1
  5
4BE
 10
577.700
 20
-341.199
 30
0.000000
  70
    32
  0
VERTEX
  8
┌▓È_1
  5
4BF
 10
577.649
 20
-341.208
 30
0.000000
  70
    32
  0
VERTEX
  8
┌▓È_1
  5
4C0
 10
577.599
 20
-341.217
 30
0.000000
  70
    32
  0
VERTEX
  8
┌▓È_1
  5
4C1
 10
577.549
 20
-341.225
 30
0.000000
  70
    32
  0
VERTEX
  8
┌▓È_1
  5
4C2
 10
577.499
 20
-341.234
 30
0.000000
  70
    32
  0
VERTEX
  8
┌▓È_1
  5
4C3
 10
577.448
 20
-341.243
 30
0.000000
  70
    32
  0
SEQEND
  8
┌▓È_1
  5
4C4
  0
POLYLINE
  8
┌▓È_1
  5
4C5
  62
5
  66
     1
 10
0.000000
 20
0.000000
 30
0.000000
  70
     8
  0
VERTEX
  8
┌▓È_1
  5
4C6
 10
585.448
 20
-347.305
 30
0.000000
  70
    32
  0
VERTEX
  8
┌▓È_1
  5
4C7
 10
585.398
 20
-347.314
 30
0.000000
  70
    32
  0
VERTEX
  8
┌▓È_1
  5
4C8
 10
585.348
 20
-347.323
 30
0.000000
  70
    32
  0
VERTEX
  8
┌▓È_1
  5
4C9
 10
585.297
 20
-347.332
 30
0.000000
  70
    32
  0
VERTEX
  8
┌▓È_1
  5
4CA
 10
585.247
 20
-347.341
 30
0.000000
  70
    32
  0
VERTEX
  8
┌▓È_1
  5
4CB
 10
585.197
 20
-347.349
 30
0.000000
  70
    32
  0
VERTEX
  8
┌▓È_1
  5
4CC
 10
585.146
 20
-347.358
 30
0.000000
  70
    32
  0
VERTEX
  8
┌▓È_1
  5
4CD
 10
585.096
 20
-347.367
 30
0.000000
  70
    32
  0
VERTEX
  8
┌▓È_1
  5
4CE
 10
585.046
 20
-347.376
 30
0.000000
  70
    32
  0
VERTEX
  8
┌▓È_1
  5
4CF
 10
584.995
 20
-347.385
 30
0.000000
  70
    32
  0
VERTEX
  8
┌▓È_1
  5
4D0
 10
584.945
 20
-347.393
 30
0.000000
  70
    32
  0
VERTEX
  8
┌▓È_1
  5
4D1
 10
584.895
 20
-347.402
 30
0.000000
  70
    32
  0
VERTEX
  8
┌▓È_1
  5
4D2
 10
584.844
 20
-347.411
 30
0.000000
  70
    32
  0
VERTEX
  8
┌▓È_1
  5
4D3
 10
584.794
 20
-347.419
 30
0.000000
  70
    32
  0
VERTEX
  8
┌▓È_1
  5
4D4
 10
584.744
 20
-347.428
 30
0.000000
  70
    32
  0
VERTEX
  8
┌▓È_1
  5
4D5
 10
584.693
 20
-347.436
 30
0.000000
  70
    32
  0
VERTEX
  8
┌▓È_1
  5
4D6
 10
584.643
 20
-347.445
 30
0.000000
  70
    32
  0
VERTEX
  8
┌▓È_1
  5
4D7
 10
584.593
 20
-347.453
 30
0.000000
  70
    32
  0
VERTEX
  8
┌▓È_1
  5
4D8
 10
584.543
 20
-347.462
 30
0.000000
  70
    32
  0
VERTEX
  8
┌▓È_1
  5
4D9
 10
584.492
 20
-347.470
 30
0.000000
  70
    32
  0
VERTEX
  8
┌▓È_1
  5
4DA
 10
584.442
 20
-347.478
 30
0.000000
  70
    32
  0
VERTEX
  8
┌▓È_1
  5
4DB
 10
584.392
 20
-347.487
 30
0.000000
  70
    32
  0
VERTEX
  8
┌▓È_1
  5
4DC
 10
584.341
 20
-347.495
 30
0.000000
  70
    32
  0
VERTEX
  8
┌▓È_1
  5
4DD
 10
584.291
 20
-347.503
 30
0.000000
  70
    32
  0
VERTEX
  8
┌▓È_1
  5
4DE
 10
584.241
 20
-347.511
 30
0.000000
  70
    32
  0
VERTEX
  8
┌▓È_1
  5
4DF
 10
584.190
 20
-347.519
 30
0.000000
  70
    32
  0
VERTEX
  8
┌▓È_1
  5
4E0
 10
584.140
 20
-347.527
 30
0.000000
  70
    32
  0
VERTEX
  8
┌▓È_1
  5
4E1
 10
584.090
 20
-347.535
 30
0.000000
  70
    32
  0
VERTEX
  8
┌▓È_1
  5
4E2
 10
584.039
 20
-347.543
 30
0.000000
  70
    32
  0
VERTEX
  8
┌▓È_1
  5
4E3
 10
583.989
 20
-347.550
 30
0.000000
  70
    32
  0
VERTEX
  8
┌▓È_1
  5
4E4
 10
583.939
 20
-347.558
 30
0.000000
  70
    32
  0
VERTEX
  8
┌▓È_1
  5
4E5
 10
583.888
 20
-347.566
 30
0.000000
  70
    32
  0
VERTEX
  8
┌▓È_1
  5
4E6
 10
583.838
 20
-347.573
 30
0.000000
  70
    32
  0
VERTEX
  8
┌▓È_1
  5
4E7
 10
583.788
 20
-347.580
 30
0.000000
  70
    32
  0
VERTEX
  8
┌▓È_1
  5
4E8
 10
583.737
 20
-347.588
 30
0.000000
  70
    32
  0
VERTEX
  8
┌▓È_1
  5
4E9
 10
583.687
 20
-347.595
 30
0.000000
  70
    32
  0
VERTEX
  8
┌▓È_1
  5
4EA
 10
583.637
 20
-347.602
 30
0.000000
  70
    32
  0
VERTEX
  8
┌▓È_1
  5
4EB
 10
583.587
 20
-347.609
 30
0.000000
  70
    32
  0
VERTEX
  8
┌▓È_1
  5
4EC
 10
583.536
 20
-347.616
 30
0.000000
  70
    32
  0
VERTEX
  8
┌▓È_1
  5
4ED
 10
583.486
 20
-347.623
 30
0.000000
  70
    32
  0
VERTEX
  8
┌▓È_1
  5
4EE
 10
583.436
 20
-347.629
 30
0.000000
  70
    32
  0
VERTEX
  8
┌▓È_1
  5
4EF
 10
583.385
 20
-347.636
 30
0.000000
  70
    32
  0
VERTEX
  8
┌▓È_1
  5
4F0
 10
583.335
 20
-347.642
 30
0.000000
  70
    32
  0
VERTEX
  8
┌▓È_1
  5
4F1
 10
583.285
 20
-347.649
 30
0.000000
  70
    32
  0
VERTEX
  8
┌▓È_1
  5
4F2
 10
583.234
 20
-347.655
 30
0.000000
  70
    32
  0
VERTEX
  8
┌▓È_1
  5
4F3
 10
583.184
 20
-347.661
 30
0.000000
  70
    32
  0
VERTEX
  8
┌▓È_1
  5
4F4
 10
583.134
 20
-347.667
 30
0.000000
  70
    32
  0
VERTEX
  8
┌▓È_1
  5
4F5
 10
583.083
 20
-347.673
 30
0.000000
  70
    32
  0
VERTEX
  8
┌▓È_1
  5
4F6
 10
583.033
 20
-347.678
 30
0.000000
  70
    32
  0
VERTEX
  8
┌▓È_1
  5
4F7
 10
582.983
 20
-347.684
 30
0.000000
  70
    32
  0
VERTEX
  8
┌▓È_1
  5
4F8
 10
582.932
 20
-347.689
 30
0.000000
  70
    32
  0
VERTEX
  8
┌▓È_1
  5
4F9
 10
582.882
 20
-347.695
 30
0.000000
  70
    32
  0
VERTEX
  8
┌▓È_1
  5
4FA
 10
582.832
 20
-347.700
 30
0.000000
  70
    32
  0
VERTEX
  8
┌▓È_1
  5
4FB
 10
582.782
 20
-347.705
 30
0.000000
  70
    32
  0
VERTEX
  8
┌▓È_1
  5
4FC
 10
582.731
 20
-347.710
 30
0.000000
  70
    32
  0
VERTEX
  8
┌▓È_1
  5
4FD
 10
582.681
 20
-347.714
 30
0.000000
  70
    32
  0
VERTEX
  8
┌▓È_1
  5
4FE
 10
582.631
 20
-347.719
 30
0.000000
  70
    32
  0
VERTEX
  8
┌▓È_1
  5
4FF
 10
582.580
 20
-347.723
 30
0.000000
  70
    32
  0
VERTEX
  8
┌▓È_1
  5
500
 10
582.530
 20
-347.727
 30
0.000000
  70
    32
  0
VERTEX
  8
┌▓È_1
  5
501
 10
582.480
 20
-347.731
 30
0.000000
  70
    32
  0
VERTEX
  8
┌▓È_1
  5
502
 10
582.429
 20
-347.735
 30
0.000000
  70
    32
  0
VERTEX
  8
┌▓È_1
  5
503
 10
582.379
 20
-347.739
 30
0.000000
  70
    32
  0
VERTEX
  8
┌▓È_1
  5
504
 10
582.329
 20
-347.743
 30
0.000000
  70
    32
  0
VERTEX
  8
┌▓È_1
  5
505
 10
582.278
 20
-347.746
 30
0.000000
  70
    32
  0
VERTEX
  8
┌▓È_1
  5
506
 10
582.228
 20
-347.749
 30
0.000000
  70
    32
  0
VERTEX
  8
┌▓È_1
  5
507
 10
582.178
 20
-347.752
 30
0.000000
  70
    32
  0
VERTEX
  8
┌▓È_1
  5
508
 10
582.127
 20
-347.755
 30
0.000000
  70
    32
  0
VERTEX
  8
┌▓È_1
  5
509
 10
582.077
 20
-347.758
 30
0.000000
  70
    32
  0
VERTEX
  8
┌▓È_1
  5
50A
 10
582.027
 20
-347.760
 30
0.000000
  70
    32
  0
VERTEX
  8
┌▓È_1
  5
50B
 10
581.976
 20
-347.762
 30
0.000000
  70
    32
  0
VERTEX
  8
┌▓È_1
  5
50C
 10
581.926
 20
-347.765
 30
0.000000
  70
    32
  0
VERTEX
  8
┌▓È_1
  5
50D
 10
581.876
 20
-347.766
 30
0.000000
  70
    32
  0
VERTEX
  8
┌▓È_1
  5
50E
 10
581.826
 20
-347.768
 30
0.000000
  70
    32
  0
VERTEX
  8
┌▓È_1
  5
50F
 10
581.775
 20
-347.770
 30
0.000000
  70
    32
  0
VERTEX
  8
┌▓È_1
  5
510
 10
581.725
 20
-347.771
 30
0.000000
  70
    32
  0
VERTEX
  8
┌▓È_1
  5
511
 10
581.675
 20
-347.772
 30
0.000000
  70
    32
  0
VERTEX
  8
┌▓È_1
  5
512
 10
581.624
 20
-347.773
 30
0.000000
  70
    32
  0
VERTEX
  8
┌▓È_1
  5
513
 10
581.574
 20
-347.774
 30
0.000000
  70
    32
  0
VERTEX
  8
┌▓È_1
  5
514
 10
581.524
 20
-347.774
 30
0.000000
  70
    32
  0
VERTEX
  8
┌▓È_1
  5
515
 10
581.473
 20
-347.774
 30
0.000000
  70
    32
  0
VERTEX
  8
┌▓È_1
  5
516
 10
581.423
 20
-347.774
 30
0.000000
  70
    32
  0
VERTEX
  8
┌▓È_1
  5
517
 10
581.373
 20
-347.774
 30
0.000000
  70
    32
  0
VERTEX
  8
┌▓È_1
  5
518
 10
581.322
 20
-347.774
 30
0.000000
  70
    32
  0
VERTEX
  8
┌▓È_1
  5
519
 10
581.272
 20
-347.773
 30
0.000000
  70
    32
  0
VERTEX
  8
┌▓È_1
  5
51A
 10
581.222
 20
-347.772
 30
0.000000
  70
    32
  0
VERTEX
  8
┌▓È_1
  5
51B
 10
581.171
 20
-347.771
 30
0.000000
  70
    32
  0
VERTEX
  8
┌▓È_1
  5
51C
 10
581.121
 20
-347.770
 30
0.000000
  70
    32
  0
VERTEX
  8
┌▓È_1
  5
51D
 10
581.071
 20
-347.768
 30
0.000000
  70
    32
  0
VERTEX
  8
┌▓È_1
  5
51E
 10
581.021
 20
-347.766
 30
0.000000
  70
    32
  0
VERTEX
  8
┌▓È_1
  5
51F
 10
580.970
 20
-347.765
 30
0.000000
  70
    32
  0
VERTEX
  8
┌▓È_1
  5
520
 10
580.920
 20
-347.762
 30
0.000000
  70
    32
  0
VERTEX
  8
┌▓È_1
  5
521
 10
580.870
 20
-347.760
 30
0.000000
  70
    32
  0
VERTEX
  8
┌▓È_1
  5
522
 10
580.819
 20
-347.758
 30
0.000000
  70
    32
  0
VERTEX
  8
┌▓È_1
  5
523
 10
580.769
 20
-347.755
 30
0.000000
  70
    32
  0
VERTEX
  8
┌▓È_1
  5
524
 10
580.719
 20
-347.752
 30
0.000000
  70
    32
  0
VERTEX
  8
┌▓È_1
  5
525
 10
580.668
 20
-347.749
 30
0.000000
  70
    32
  0
VERTEX
  8
┌▓È_1
  5
526
 10
580.618
 20
-347.746
 30
0.000000
  70
    32
  0
VERTEX
  8
┌▓È_1
  5
527
 10
580.568
 20
-347.743
 30
0.000000
  70
    32
  0
VERTEX
  8
┌▓È_1
  5
528
 10
580.517
 20
-347.739
 30
0.000000
  70
    32
  0
VERTEX
  8
┌▓È_1
  5
529
 10
580.467
 20
-347.735
 30
0.000000
  70
    32
  0
VERTEX
  8
┌▓È_1
  5
52A
 10
580.417
 20
-347.731
 30
0.000000
  70
    32
  0
VERTEX
  8
┌▓È_1
  5
52B
 10
580.366
 20
-347.727
 30
0.000000
  70
    32
  0
VERTEX
  8
┌▓È_1
  5
52C
 10
580.316
 20
-347.723
 30
0.000000
  70
    32
  0
VERTEX
  8
┌▓È_1
  5
52D
 10
580.266
 20
-347.719
 30
0.000000
  70
    32
  0
VERTEX
  8
┌▓È_1
  5
52E
 10
580.215
 20
-347.714
 30
0.000000
  70
    32
  0
VERTEX
  8
┌▓È_1
  5
52F
 10
580.165
 20
-347.710
 30
0.000000
  70
    32
  0
VERTEX
  8
┌▓È_1
  5
530
 10
580.115
 20
-347.705
 30
0.000000
  70
    32
  0
VERTEX
  8
┌▓È_1
  5
531
 10
580.065
 20
-347.700
 30
0.000000
  70
    32
  0
VERTEX
  8
┌▓È_1
  5
532
 10
580.014
 20
-347.695
 30
0.000000
  70
    32
  0
VERTEX
  8
┌▓È_1
  5
533
 10
579.964
 20
-347.689
 30
0.000000
  70
    32
  0
VERTEX
  8
┌▓È_1
  5
534
 10
579.914
 20
-347.684
 30
0.000000
  70
    32
  0
VERTEX
  8
┌▓È_1
  5
535
 10
579.863
 20
-347.678
 30
0.000000
  70
    32
  0
VERTEX
  8
┌▓È_1
  5
536
 10
579.813
 20
-347.673
 30
0.000000
  70
    32
  0
VERTEX
  8
┌▓È_1
  5
537
 10
579.763
 20
-347.667
 30
0.000000
  70
    32
  0
VERTEX
  8
┌▓È_1
  5
538
 10
579.712
 20
-347.661
 30
0.000000
  70
    32
  0
VERTEX
  8
┌▓È_1
  5
539
 10
579.662
 20
-347.655
 30
0.000000
  70
    32
  0
VERTEX
  8
┌▓È_1
  5
53A
 10
579.612
 20
-347.649
 30
0.000000
  70
    32
  0
VERTEX
  8
┌▓È_1
  5
53B
 10
579.561
 20
-347.642
 30
0.000000
  70
    32
  0
VERTEX
  8
┌▓È_1
  5
53C
 10
579.511
 20
-347.636
 30
0.000000
  70
    32
  0
VERTEX
  8
┌▓È_1
  5
53D
 10
579.461
 20
-347.629
 30
0.000000
  70
    32
  0
VERTEX
  8
┌▓È_1
  5
53E
 10
579.410
 20
-347.623
 30
0.000000
  70
    32
  0
VERTEX
  8
┌▓È_1
  5
53F
 10
579.360
 20
-347.616
 30
0.000000
  70
    32
  0
VERTEX
  8
┌▓È_1
  5
540
 10
579.310
 20
-347.609
 30
0.000000
  70
    32
  0
VERTEX
  8
┌▓È_1
  5
541
 10
579.260
 20
-347.602
 30
0.000000
  70
    32
  0
VERTEX
  8
┌▓È_1
  5
542
 10
579.209
 20
-347.595
 30
0.000000
  70
    32
  0
VERTEX
  8
┌▓È_1
  5
543
 10
579.159
 20
-347.588
 30
0.000000
  70
    32
  0
VERTEX
  8
┌▓È_1
  5
544
 10
579.109
 20
-347.580
 30
0.000000
  70
    32
  0
VERTEX
  8
┌▓È_1
  5
545
 10
579.058
 20
-347.573
 30
0.000000
  70
    32
  0
VERTEX
  8
┌▓È_1
  5
546
 10
579.008
 20
-347.566
 30
0.000000
  70
    32
  0
VERTEX
  8
┌▓È_1
  5
547
 10
578.958
 20
-347.558
 30
0.000000
  70
    32
  0
VERTEX
  8
┌▓È_1
  5
548
 10
578.907
 20
-347.550
 30
0.000000
  70
    32
  0
VERTEX
  8
┌▓È_1
  5
549
 10
578.857
 20
-347.543
 30
0.000000
  70
    32
  0
VERTEX
  8
┌▓È_1
  5
54A
 10
578.807
 20
-347.535
 30
0.000000
  70
    32
  0
VERTEX
  8
┌▓È_1
  5
54B
 10
578.756
 20
-347.527
 30
0.000000
  70
    32
  0
VERTEX
  8
┌▓È_1
  5
54C
 10
578.706
 20
-347.519
 30
0.000000
  70
    32
  0
VERTEX
  8
┌▓È_1
  5
54D
 10
578.656
 20
-347.511
 30
0.000000
  70
    32
  0
VERTEX
  8
┌▓È_1
  5
54E
 10
578.605
 20
-347.503
 30
0.000000
  70
    32
  0
VERTEX
  8
┌▓È_1
  5
54F
 10
578.555
 20
-347.495
 30
0.000000
  70
    32
  0
VERTEX
  8
┌▓È_1
  5
550
 10
578.505
 20
-347.487
 30
0.000000
  70
    32
  0
VERTEX
  8
┌▓È_1
  5
551
 10
578.454
 20
-347.478
 30
0.000000
  70
    32
  0
VERTEX
  8
┌▓È_1
  5
552
 10
578.404
 20
-347.470
 30
0.000000
  70
    32
  0
VERTEX
  8
┌▓È_1
  5
553
 10
578.354
 20
-347.462
 30
0.000000
  70
    32
  0
VERTEX
  8
┌▓È_1
  5
554
 10
578.304
 20
-347.453
 30
0.000000
  70
    32
  0
VERTEX
  8
┌▓È_1
  5
555
 10
578.253
 20
-347.445
 30
0.000000
  70
    32
  0
VERTEX
  8
┌▓È_1
  5
556
 10
578.203
 20
-347.436
 30
0.000000
  70
    32
  0
VERTEX
  8
┌▓È_1
  5
557
 10
578.153
 20
-347.428
 30
0.000000
  70
    32
  0
VERTEX
  8
┌▓È_1
  5
558
 10
578.102
 20
-347.419
 30
0.000000
  70
    32
  0
VERTEX
  8
┌▓È_1
  5
559
 10
578.052
 20
-347.411
 30
0.000000
  70
    32
  0
VERTEX
  8
┌▓È_1
  5
55A
 10
578.002
 20
-347.402
 30
0.000000
  70
    32
  0
VERTEX
  8
┌▓È_1
  5
55B
 10
577.951
 20
-347.393
 30
0.000000
  70
    32
  0
VERTEX
  8
┌▓È_1
  5
55C
 10
577.901
 20
-347.385
 30
0.000000
  70
    32
  0
VERTEX
  8
┌▓È_1
  5
55D
 10
577.851
 20
-347.376
 30
0.000000
  70
    32
  0
VERTEX
  8
┌▓È_1
  5
55E
 10
577.800
 20
-347.367
 30
0.000000
  70
    32
  0
VERTEX
  8
┌▓È_1
  5
55F
 10
577.750
 20
-347.358
 30
0.000000
  70
    32
  0
VERTEX
  8
┌▓È_1
  5
560
 10
577.700
 20
-347.349
 30
0.000000
  70
    32
  0
VERTEX
  8
┌▓È_1
  5
561
 10
577.649
 20
-347.341
 30
0.000000
  70
    32
  0
VERTEX
  8
┌▓È_1
  5
562
 10
577.599
 20
-347.332
 30
0.000000
  70
    32
  0
VERTEX
  8
┌▓È_1
  5
563
 10
577.549
 20
-347.323
 30
0.000000
  70
    32
  0
VERTEX
  8
┌▓È_1
  5
564
 10
577.499
 20
-347.314
 30
0.000000
  70
    32
  0
VERTEX
  8
┌▓È_1
  5
565
 10
577.448
 20
-347.305
 30
0.000000
  70
    32
  0
SEQEND
  8
┌▓È_1
  5
566
  0
LINE
  5
DE
  8
┌▓È_1
  6
BORDER
 62
     3
 10
581.4481882158999
 20
-355.27419629899998
 30
0.0
 11
581.4481882158999
 21
-308.57419629899999
 31
0.0
  0
LINE
  5
DF
  8
┌▓È_1
 62
     5
 10
548.94861139290003
 20
-413.07477339479999
 30
0.0
 11
553.94861139290003
 21
-413.07477339479999
 31
0.0
  0
LINE
  5
E0
  8
┌▓È_1
 62
     5
 10
548.94861139290003
 20
-412.07477339479999
 30
0.0
 11
548.94861139290003
 21
-413.07477339479999
 31
0.0
  0
LINE
  5
E1
  8
┌▓È_1
 62
     5
 10
554.44861139290003
 20
-412.07477339479999
 30
0.0
 11
548.94861139290003
 21
-412.07477339479999
 31
0.0
  0
ARC
  5
E2
  8
┌▓È_1
 62
     5
 10
554.44861139290003
 20
-412.07477339479999
 30
0.0
 40
1.0
 50
270.0
 51
0.0
  0
DIMENSION
  5
F1
  8
Éíû@É³
  2
*D8
 10
1092.5766853616999
 20
-208.8714620801
 30
0.0
 11
1092.5766853616999
 21
-115.8714620799
 31
0.0
 70
   128
  1
<>
 13
1044.3736107540999
 23
-208.8714620801
 33
0.0
 14
1044.3736107540999
 24
-22.871462079699999
 34
0.0
 50
90.0
  0
DIMENSION
  5
100
  8
Éíû@É³
  2
*D9
 10
1073.3629109921001
 20
-202.37146005389999
 30
0.0
 11
1073.3629109921001
 21
-115.871460054
 31
0.0
 70
   128
  1
(<>)ôÓÉí
 13
1043.3732603486999
 23
-202.37146005389999
 33
0.0
 14
1043.3736107540999
 24
-29.3714600542
 34
0.0
 50
90.0
  0
LINE
  5
101
  8
┌▓È_1
 62
     5
 10
1044.3736107540999
 20
-29.871253457200002
 30
0.0
 11
1044.3736107540999
 21
-201.8712534572
 31
0.0
  0
LINE
  5
102
  8
┌▓È_1
 62
     5
 10
1043.3736107540999
 20
-29.871253457200002
 30
0.0
 11
1043.3736107540999
 21
-201.8712534572
 31
0.0
  0
LINE
  5
103
  8
┌▓È_1
 62
     5
 10
569.94818821590002
 20
-315.57419629899999
 30
0.0
 11
592.94818821590002
 21
-315.57419629899999
 31
0.0
  0
ARC
  5
104
  8
┌▓È_1
 62
     5
 10
556.44861139290003
 20
-322.57477339479999
 30
0.0
 40
1.0
 50
180.0
 51
270.0
  0
LINE
  5
105
  8
┌▓È_1
 62
     5
 10
558.64845904920003
 20
-319.27465360320002
 30
0.0
 11
558.64845904920003
 21
-322.57465360319998
 31
0.0
  0
ARC
  5
106
  8
┌▓È_1
 62
     5
 10
558.64845904920003
 20
-319.27465360320002
 30
0.0
 40
1.1999999999999991
 50
90.0
 51
180.0
  0
LINE
  5
107
  8
┌▓È_1
 62
     5
 10
556.44861139290003
 20
-323.57477339479999
 30
0.0
 11
555.44861139290003
 21
-323.57477339479999
 31
0.0
  0
ARC
  5
108
  8
┌▓È_1
 62
     5
 10
555.44861139290003
 20
-324.57477339479999
 30
0.0
 40
1.0
 50
90.0
 51
180.0
  0
LINE
  5
109
  8
┌▓È_1
 62
     5
 10
547.44861139290003
 20
-324.07477339479999
 30
0.0
 11
554.58258598919997
 21
-324.07477339479999
 31
0.0
  0
LINE
  5
10A
  8
┌▓È_1
 62
     5
 10
578.74818821589986
 20
-350.27419629899998
 30
0.0
 11
578.74818821589986
 21
-347.7741962990001
 31
0.0
  0
LINE
  5
10B
  8
┌▓È_1
 62
     5
 10
556.44861139290003
 20
-322.57477339479999
 30
0.0
 11
557.41145904919995
 21
-322.57465360319998
 31
0.0
  0
LINE
  5
10C
  8
┌▓È_1
 62
     5
 10
578.74818821589986
 20
-350.27419629899998
 30
0.0
 11
584.14818821589995
 21
-350.27419629899998
 31
0.0
  0
ARC
  5
10D
  8
┌▓È_1
 62
     5
 10
575.69818821590002
 20
-344.27419629899998
 30
0.0
 40
3.5
 50
240.0
 51
300.0
  0
LINE
  5
10E
  8
┌▓È_1
 62
     5
 10
588.94818821590002
 20
-341.24310738579999
 30
0.0
 11
588.94818821590002
 21
-347.30528521219998
 31
0.0
  0
ARC
  5
10F
  8
┌▓È_1
 62
     5
 10
587.1981882158999
 20
-344.27419629899998
 30
0.0
 40
3.5
 50
60.0
 51
120.0
  0
ARC
  5
110
  8
┌▓È_1
 62
     5
 10
571.44818821590002
 20
-337.2741962990001
 30
0.0
 40
2.0
 50
180.0
 51
270.0
  0
LINE
  5
111
  8
┌▓È_1
 62
     5
 10
578.74818821589986
 20
-350.27419629899998
 30
0.0
 11
577.44818821590002
 21
-348.97419629900003
 31
0.0
  0
LINE
  5
112
  8
┌▓È_1
 62
     5
 10
585.4481882158999
 20
-348.97419629900003
 30
0.0
 11
584.14818821589995
 21
-350.27419629899998
 31
0.0
  0
LINE
  5
113
  8
┌▓È_1
 62
     5
 10
577.44818821590002
 20
-348.97419629900003
 30
0.0
 11
585.4481882158999
 21
-348.97419629900003
 31
0.0
  0
LINE
  5
114
  8
┌▓È_1
 62
     5
 10
547.44861139290003
 20
-319.07477339479999
 30
0.0
 11
547.44861139290003
 21
-324.07477339479999
 31
0.0
  0
LINE
  5
115
  8
┌▓È_1
 62
     5
 10
546.44861139290003
 20
-324.07477339479999
 30
0.0
 11
546.44861139290003
 21
-319.07477339479999
 31
0.0
  0
ARC
  5
116
  8
┌▓È_1
 62
     5
 10
547.44861139290003
 20
-319.07477339479999
 30
0.0
 40
1.0
 50
90.0
 51
180.0
  0
LINE
  5
117
  8
┌▓È_1
 62
     5
 10
557.44818821590002
 20
-327.57477339479999
 30
0.0
 11
569.44818821590002
 21
-327.57477339479999
 31
0.0
  0
LINE
  5
118
  8
┌▓È_1
 62
     5
 10
588.94818821590002
 20
-321.27419629899998
 30
0.0
 11
588.94818821590002
 21
-323.77419629899998
 31
0.0
  0
LINE
  5
119
  8
┌▓È_1
 62
     5
 10
573.94818821590002
 20
-321.27419629899998
 30
0.0
 11
573.94818821590002
 21
-319.27419629899998
 31
0.0
  0
LINE
  5
11A
  8
┌▓È_1
 62
     5
 10
569.94818821590002
 20
-315.57419629899999
 30
0.0
 11
571.94818821590002
 21
-313.57419629899999
 31
0.0
  0
LINE
  5
11B
  8
┌▓È_1
 62
     5
 10
563.44861139290003
 20
-323.57477339479999
 30
0.0
 11
556.44861139290003
 21
-323.57477339479999
 31
0.0
  0
LINE
  5
11C
  8
┌▓È_1
 62
     5
 10
585.4481882158999
 20
-348.97419629900003
 30
0.0
 11
585.4481882158999
 21
-347.7741962990001
 31
0.0
  0
LINE
  5
11D
  8
┌▓È_1
 62
     5
 10
577.44818821590002
 20
-347.30528521219998
 30
0.0
 11
577.44818821590002
 21
-341.24310738579999
 31
0.0
  0
LINE
  5
11E
  8
┌▓È_1
 62
     5
 10
585.4481882158999
 20
-347.30528521219998
 30
0.0
 11
585.4481882158999
 21
-341.24310738579999
 31
0.0
  0
LINE
  5
11F
  8
┌▓È_1
 62
     5
 10
595.44818821590002
 20
-321.27419629899998
 30
0.0
 11
595.44818821590002
 21
-319.27419629899998
 31
0.0
  0
ARC
  5
120
  8
┌▓È_1
 62
     5
 10
563.44861139290003
 20
-324.57477339479999
 30
0.0
 40
1.0
 50
270.0
 51
0.0
  0
ARC
  5
121
  8
┌▓È_1
 62
     5
 10
563.44861139290003
 20
-323.57477339479999
 30
0.0
 40
1.0
 50
0.0
 51
90.0
  0
LINE
  5
122
  8
┌▓È_1
 62
     5
 10
564.44861139290003
 20
-323.57477339479999
 30
0.0
 11
564.44861139290003
 21
-324.57477339479999
 31
0.0
  0
LINE
  5
123
  8
┌▓È_1
 62
     5
 10
563.44861139290003
 20
-324.57477339479999
 30
0.0
 11
563.44861139290003
 21
-323.57477339479999
 31
0.0
  0
LINE
  5
124
  8
┌▓È_1
 62
     5
 10
547.44861139290003
 20
-324.07477339479999
 30
0.0
 11
546.44861139290003
 21
-324.07477339479999
 31
0.0
  0
LINE
  5
125
  8
┌▓È_1
 62
     5
 10
592.94818821590002
 20
-315.57419629899999
 30
0.0
 11
592.94818821590002
 21
-318.07419629899999
 31
0.0
  0
LINE
  5
126
  8
┌▓È_1
 62
     5
 10
571.94818821590002
 20
-313.57419629899999
 30
0.0
 11
590.94818821590002
 21
-313.57419629899999
 31
0.0
  0
LINE
  5
127
  8
┌▓È_1
 62
     5
 10
569.44818821590002
 20
-327.57477339479999
 30
0.0
 11
569.44818821590002
 21
-337.2741962990001
 31
0.0
  0
LINE
  5
128
  8
┌▓È_1
 62
     5
 10
593.4481882158999
 20
-339.2741962990001
 30
0.0
 11
571.44818821590002
 21
-339.2741962990001
 31
0.0
  0
LINE
  5
129
  8
┌▓È_1
 62
     5
 10
573.94818821590002
 20
-347.30528521219998
 30
0.0
 11
573.94818821590002
 21
-341.24310738579999
 31
0.0
  0
LINE
  5
12A
  8
┌▓È_1
 62
     5
 10
573.94818821590002
 20
-340.77419629899998
 30
0.0
 11
573.94818821590002
 21
-339.2741962990001
 31
0.0
  0
LINE
  5
12B
  8
┌▓È_1
 62
     5
 10
577.44818821590002
 20
-348.97419629900003
 30
0.0
 11
577.44818821590002
 21
-347.7741962990001
 31
0.0
  0
ARC
  5
12C
  8
┌▓È_1
 62
     5
 10
587.1981882158999
 20
-344.27419629899998
 30
0.0
 40
3.5
 50
240.0
 51
300.0
  0
LINE
  5
12D
  8
┌▓È_1
 62
     5
 10
572.44818821590002
 20
-333.06009370729998
 30
0.0
 11
573.44818821590002
 21
-334.06009370729998
 31
0.0
  0
LINE
  5
12E
  8
┌▓È_1
 62
     5
 10
573.44818821590002
 20
-333.06009370729998
 30
0.0
 11
573.44818821590002
 21
-337.2741962990001
 31
0.0
  0
LINE
  5
12F
  8
┌▓È_1
 62
     5
 10
573.44818821590002
 20
-334.06009370729998
 30
0.0
 11
589.4481882158999
 21
-334.06009370729998
 31
0.0
  0
LINE
  5
130
  8
┌▓È_1
 62
     5
 10
572.44818821590002
 20
-333.06009370729998
 30
0.0
 11
590.44818821590002
 21
-333.06009370729998
 31
0.0
  0
LINE
  5
131
  8
┌▓È_1
 62
     5
 10
571.44818821590002
 20
-337.2741962990001
 30
0.0
 11
593.4481882158999
 21
-337.2741962990001
 31
0.0
  0
LINE
  5
132
  8
┌▓È_1
 62
     5
 10
571.44818821590002
 20
-327.57477339479999
 30
0.0
 11
571.44818821590002
 21
-337.2741962990001
 31
0.0
  0
ARC
  5
133
  8
┌▓È_1
 62
     5
 10
569.44818821590002
 20
-327.57477339479999
 30
0.0
 40
2.0
 50
0.0
 51
90.0
  0
LINE
  5
134
  8
┌▓È_1
 62
     5
 10
555.44861139290003
 20
-322.57477339479999
 30
0.0
 11
555.44861139290003
 21
-319.07477339479999
 31
0.0
  0
LINE
  5
135
  8
┌▓È_1
 62
     5
 10
780.44861139289992
 20
-324.07477339479999
 30
0.0
 11
773.1593574149
 21
-324.07477339479999
 31
0.0
  0
LINE
  5
136
  8
┌▓È_1
 62
     5
 10
765.62744764100012
 20
-331.07465360319998
 30
0.0
 11
748.76681624740002
 21
-331.07465360319998
 31
0.0
  0
CIRCLE
  5
137
  8
┌▓È_1
 62
     5
 10
757.44861139289981
 20
-325.57446973920003
 30
0.0
 40
3.6000000000000001
  0
INSERT
  5
139
  8
Éíû@É³
  2
BALLON3
 10
374.64205484467072
 20
125.211440171603
 30
0.0
  0
LINE
  5
142
  8
┌▓È_1
 62
     5
 10
773.44861139289992
 20
-412.07477339479999
 30
0.0
 11
778.94861139289992
 21
-412.07477339479999
 31
0.0
  0
ARC
  5
143
  8
┌▓È_1
 62
     5
 10
773.44861139289992
 20
-412.07477339479999
 30
0.0
 40
1.0
 50
180.0
 51
270.0
  0
LINE
  5
144
  8
┌▓È_1
 62
     5
 10
778.94861139289992
 20
-413.07477339479999
 30
0.0
 11
773.94861139289981
 21
-413.07477339479999
 31
0.0
  0
LINE
  5
145
  8
┌▓È_1
 62
     5
 10
778.94861139289992
 20
-412.07477339479999
 30
0.0
 11
778.94861139289992
 21
-413.07477339479999
 31
0.0
  0
LINE
  5
146
  8
┌▓È_1
 62
     5
 10
584.14818821589995
 20
-350.27419629899998
 30
0.0
 11
584.14818821589995
 21
-347.7741962990001
 31
0.0
  0
LINE
  5
147
  8
┌▓È_1
 62
     5
 10
588.94818821590002
 20
-321.27419629899998
 30
0.0
 11
588.94818821590002
 21
-319.27419629899998
 31
0.0
  0
LINE
  5
148
  8
┌▓È_1
 62
     5
 10
573.94818821590002
 20
-321.27419629899998
 30
0.0
 11
573.94818821590002
 21
-323.77419629899998
 31
0.0
  0
LINE
  5
149
  8
┌▓È_1
 62
     5
 10
595.44818821590002
 20
-323.77419629899998
 30
0.0
 11
595.44818821590002
 21
-321.27419629899998
 31
0.0
  0
LINE
  5
14A
  8
┌▓È_1
 62
     5
 10
567.44818821590002
 20
-321.27419629899998
 30
0.0
 11
567.44818821590002
 21
-319.27419629899998
 31
0.0
  0
LINE
  5
14B
  8
┌▓È_1
 62
     5
 10
567.44818821590002
 20
-323.77419629899998
 30
0.0
 11
595.44818821590002
 21
-323.77419629899998
 31
0.0
  0
LINE
  5
14C
  8
┌▓È_1
 62
     5
 10
567.44818821590002
 20
-321.27419629899998
 30
0.0
 11
567.44818821590002
 21
-323.77419629899998
 31
0.0
  0
LINE
  5
14D
  8
┌▓È_1
 62
     5
 10
590.94818821590002
 20
-313.57419629899999
 30
0.0
 11
592.94818821590002
 21
-315.57419629899999
 31
0.0
  0
LINE
  5
14E
  8
┌▓È_1
 62
     5
 10
569.94818821590002
 20
-318.07419629899999
 30
0.0
 11
569.94818821590002
 21
-315.57419629899999
 31
0.0
  0
LINE
  5
14F
  8
┌▓È_1
 62
     5
 10
587.19818895949993
 20
-347.7741962990001
 30
0.0
 11
575.69818709139997
 21
-347.7741962990001
 31
0.0
  0
LINE
  5
150
  8
┌▓È_1
 62
     5
 10
563.44861139290003
 20
-325.57477339479999
 30
0.0
 11
559.44861139290003
 21
-325.57477339479999
 31
0.0
  0
LINE
  5
151
  8
┌▓È_1
 62
     5
 10
559.44861139290003
 20
-325.57477339479999
 30
0.0
 11
559.44861139290003
 21
-324.57477339479999
 31
0.0
  0
LINE
  5
152
  8
┌▓È_1
 62
     5
 10
593.4481882158999
 20
-337.2741962990001
 30
0.0
 11
593.4481882158999
 21
-339.2741962990001
 31
0.0
  0
LINE
  5
153
  8
┌▓È_1
 62
     5
 10
590.44818821590002
 20
-323.77419629899998
 30
0.0
 11
590.44818821590002
 21
-333.06009370729998
 31
0.0
  0
LINE
  5
154
  8
┌▓È_1
 62
     5
 10
589.4481882158999
 20
-323.77419629899998
 30
0.0
 11
589.4481882158999
 21
-337.2741962990001
 31
0.0
  0
LINE
  5
155
  8
┌▓È_1
 62
     5
 10
590.44818821590002
 20
-333.06009370729998
 30
0.0
 11
589.4481882158999
 21
-334.06009370729998
 31
0.0
  0
LINE
  5
156
  8
┌▓È_1
 62
     5
 10
573.44818821590002
 20
-323.77419629899998
 30
0.0
 11
573.44818821590002
 21
-333.06009370729998
 31
0.0
  0
LINE
  5
157
  8
┌▓È_1
 62
     5
 10
587.95617531339985
 20
-114.8712534572
 30
0.0
 11
587.95617531339985
 21
-116.8712534572
 31
0.0
  0
LINE
  5
158
  8
┌▓È_1
  6
BORDER
 62
     3
 10
581.44861800290005
 20
-95.871301486899995
 30
0.0
 11
581.44861800290005
 21
-135.87123667750001
 31
0.0
  0
ARC
  5
159
  8
┌▓È_1
 62
     5
 10
559.44861139290003
 20
-197.8712534572
 30
0.0
 40
3.0
 50
180.0
 51
270.0
  0
ARC
  5
15A
  8
┌▓È_1
 62
     5
 10
559.44829104940004
 20
-197.87157380069999
 30
0.0
 40
2.0
 50
180.0
 51
270.0
  0
ARC
  5
15B
  8
┌▓È_1
 62
     5
 10
549.44861139290003
 20
-207.8712534572
 30
0.0
 40
3.0
 50
180.0
 51
270.0
  0
LINE
  5
15C
  8
┌▓È_1
  6
BORDER
 62
     3
 10
750.44861139289992
 20
-325.57446973920003
 30
0.0
 11
764.44861139289992
 21
-325.57446973920003
 31
0.0
  0
LINE
  5
15D
  8
┌▓È_1
 62
     5
 10
746.48924811170002
 20
-322.57465360319998
 30
0.0
 11
748.76681624740002
 21
-331.07465360319998
 31
0.0
  0
LINE
  5
15E
  8
┌▓È_1
 62
     5
 10
780.44861139289992
 20
-324.07477339479999
 30
0.0
 11
781.44861139289992
 21
-324.07477339479999
 31
0.0
  0
ARC
  5
15F
  8
┌▓È_1
 62
     5
 10
768.78924811169998
 20
-319.27465360320002
 30
0.0
 40
1.1999999999999991
 50
345.0
 51
90.0
  0
LINE
  5
160
  8
┌▓È_1
 62
     5
 10
767.67075150630001
 20
-328.08538372859999
 30
0.0
 11
766.51164051479986
 21
-327.77480087449999
 31
0.0
  0
LINE
  5
161
  8
┌▓È_1
 62
     5
 10
769.9483591032
 20
-319.58523645730003
 30
0.0
 11
767.67075150630001
 21
-328.08538372859999
 31
0.0
  0
LINE
  5
162
  8
┌▓È_1
 62
     5
 10
768.78924811169998
 20
-319.27465360320002
 30
0.0
 11
766.52259669160003
 21
-327.73391186610002
 31
0.0
  0
LINE
  5
163
  8
┌▓È_1
 62
     5
 10
781.44861139289992
 20
-324.07477339479999
 30
0.0
 11
781.44861139289992
 21
-319.07477339479999
 31
0.0
  0
ARC
  5
164
  8
┌▓È_1
 62
     5
 10
780.44861139289992
 20
-319.07477339479999
 30
0.0
 40
1.0
 50
0.0
 51
90.0
  0
LINE
  5
165
  8
┌▓È_1
 62
     5
 10
780.44861139289992
 20
-319.07477339479999
 30
0.0
 11
780.44861139289992
 21
-324.07477339479999
 31
0.0
  0
LINE
  5
166
  8
┌▓È_1
 62
     5
 10
766.52259669160003
 20
-327.73391186610002
 30
0.0
 11
765.62744764100012
 21
-331.07465360319998
 31
0.0
  0
LINE
  5
167
  8
┌▓È_1
 62
     5
 10
771.94892759309994
 20
-319.07477339479999
 30
0.0
 11
780.44861139289992
 21
-319.07477339479999
 31
0.0
  0
LINE
  5
168
  8
┌▓È_1
 62
     5
 10
780.44861139289992
 20
-318.07477339479999
 30
0.0
 11
771.94861139289992
 21
-318.07477339479999
 31
0.0
  0
ARC
  5
169
  8
┌▓È_1
 62
     5
 10
771.94861139289992
 20
-319.07477339479999
 30
0.0
 40
1.0
 50
90.0
 51
185.0
  0
LINE
  5
16A
  8
┌▓È_1
 62
     5
 10
772.95274743059986
 20
-319.07477339479999
 30
0.0
 11
771.95655273249986
 21
-319.1619291376
 31
0.0
  0
LINE
  5
16B
  8
┌▓È_1
 62
     5
 10
770.95241669490008
 20
-319.1619291376
 30
0.0
 11
771.4592960696001
 21
-331.28783587769999
 31
0.0
  0
LINE
  5
16C
  8
┌▓È_1
 62
     5
 10
773.44861139289992
 20
-331.07477339479999
 30
0.0
 11
772.95274743059986
 21
-319.07477339479999
 31
0.0
  0
LINE
  5
16D
  8
┌▓È_1
 62
     5
 10
771.94892759309994
 20
-319.07477339479999
 30
0.0
 11
772.44861139289992
 21
-331.11843433770002
 31
0.0
  0
LINE
  5
16E
  8
┌▓È_1
 62
     5
 10
772.4554907677001
 20
-331.20068013500003
 30
0.0
 11
771.4592960696001
 21
-331.28783587769999
 31
0.0
  0
LINE
  5
16F
  8
┌▓È_1
  6
BORDER
 62
     3
 10
757.44861139289981
 20
-318.57446973920003
 30
0.0
 11
757.44861139289981
 21
-332.57446973920003
 31
0.0
  0
LINE
  5
170
  8
┌▓È_1
 10
688.98550501859995
 20
-58.617245264300003
 30
0.0
 11
738.98550501859995
 21
-58.617245264300003
 31
0.0
  0
ARC
  5
171
  8
┌▓È_1
 62
     5
 10
768.44893173649996
 20
-33.87093311360001
 30
0.0
 40
2.0
 50
0.0
 51
90.0
  0
ARC
  5
172
  8
┌▓È_1
 62
     5
 10
778.44861139289992
 20
-23.871253457200002
 30
0.0
 40
3.0
 50
0.0
 51
90.0
  0
ARC
  5
173
  8
┌▓È_1
 62
     5
 10
768.44861139289992
 20
-33.871253457199998
 30
0.0
 40
3.0
 50
0.0
 51
90.0
  0
LINE
  5
174
  8
┌▓È_1
 10
694.98550501859995
 20
-64.61724526430001
 30
0.0
 11
744.98550501859995
 21
-64.61724526430001
 31
0.0
  0
LINE
  5
175
  8
┌▓È_1
 10
696.48550501859995
 20
-66.11724526430001
 30
0.0
 11
746.48550501859995
 21
-66.11724526430001
 31
0.0
  0
LINE
  5
176
  8
┌▓È_1
 10
691.98550501859995
 20
-61.617245264300003
 30
0.0
 11
741.98550501859995
 21
-61.617245264300003
 31
0.0
  0
LINE
  5
177
  8
┌▓È_1
 10
693.48550501859995
 20
-63.117245264300003
 30
0.0
 11
743.48550501859995
 21
-63.117245264300003
 31
0.0
  0
LINE
  5
178
  8
┌▓È_1
 10
690.48550501859995
 20
-60.117245264300003
 30
0.0
 11
740.48550501859995
 21
-60.117245264300003
 31
0.0
  0
DIMENSION
  5
187
  8
Éíû@É³
  2
*D11
 10
798.44861139289992
 20
-210.8712534572
 30
0.0
 11
798.44861139289992
 21
-205.8712534572
 31
0.0
 70
   128
  1
<>
 13
778.44861139289992
 23
-210.8712534572
 33
0.0
 14
768.44861139289992
 24
-200.8712534572
 34
0.0
 50
90.0
  0
ARC
  5
188
  8
┌▓È_1
 62
     5
 10
778.44861139289992
 20
-207.8712534572
 30
0.0
 40
3.0
 50
270.0
 51
0.0
  0
ARC
  5
189
  8
┌▓È_1
 62
     5
 10
768.44893173649996
 20
-197.87157380069999
 30
0.0
 40
2.0
 50
270.0
 51
360.0
  0
ARC
  5
18A
  8
┌▓È_1
 62
     5
 10
768.44861139289992
 20
-197.8712534572
 30
0.0
 40
3.0
 50
270.0
 51
0.0
  0
DIMENSION
  5
199
  8
Éíû@É³
  2
*D12
 10
556.44861139290003
 20
-3.8712534571999999
 30
0.0
 11
551.44861139290003
 21
-3.8712534571999999
 31
0.0
 70
   128
  1
<>
 13
556.44861139290003
 23
-33.871253457199998
 33
0.0
 14
546.44861139290003
 24
-23.871253457200002
 34
0.0
  0
ARC
  5
19A
  8
┌▓È_1
 62
     5
 10
549.44861139290003
 20
-23.871253457200002
 30
0.0
 40
3.0
 50
90.0
 51
180.0
  0
ARC
  5
19B
  8
┌▓È_1
 62
     5
 10
559.44861139290003
 20
-33.871253457199998
 30
0.0
 40
3.0
 50
90.0
 51
180.0
  0
ARC
  5
19C
  8
┌▓È_1
 62
     5
 10
559.44829104940004
 20
-33.87093311360001
 30
0.0
 40
2.0
 50
90.0
 51
180.0
  0
ARC
  5
19D
  8
┌▓È_1
 62
     5
 10
581.44861139290003
 20
-115.8712534572
 30
0.0
 40
2.0
 50
30.0
 51
150.0
  0
CIRCLE
  5
19E
  8
┌▓È_1
 62
     5
 10
581.44861139290003
 20
-115.8712534572
 30
0.0
 40
9.5
  0
CIRCLE
  5
19F
  8
┌▓È_1
 62
     5
 10
581.44861139290003
 20
-115.8712534572
 30
0.0
 40
11.0
  0
LINE
  5
1A0
  8
┌▓È_1
 62
     5
 10
587.95617531339985
 20
-114.8712534572
 30
0.0
 11
577.95617531339985
 21
-114.8712534572
 31
0.0
  0
LINE
  5
1A1
  8
┌▓È_1
 62
     5
 10
577.95617531339985
 20
-114.8712534572
 30
0.0
 11
577.95617531339985
 21
-116.8712534572
 31
0.0
  0
CIRCLE
  5
1A2
  8
┌▓È_1
 62
     5
 10
581.44861139290003
 20
-115.8712534572
 30
0.0
 40
7.5
  0
ARC
  5
1A3
  8
┌▓È_1
 62
     5
 10
581.44861139290003
 20
-115.8712534572
 30
0.0
 40
2.0
 50
210.0
 51
330.0
  0
LINE
  5
1A4
  8
┌▓È_1
 62
     5
 10
577.95617531339985
 20
-116.8712534572
 30
0.0
 11
587.95617531339985
 21
-116.8712534572
 31
0.0
  0
LINE
  5
1A5
  8
┌▓È_1
 62
     5
 10
1018.9293189909999
 20
-486.56971490059999
 30
0.0
 11
1016.6271113679001
 21
-486.56971490059999
 31
0.0
  0
LINE
  5
1A6
  8
┌▓È_1
 62
     5
 10
1018.9293189909999
 20
-489.56971490059988
 30
0.0
 11
1018.6271113679001
 21
-489.56971490059988
 31
0.0
  0
LINE
  5
1A7
  8
┌▓È_1
 62
     5
 10
1018.9293189909999
 20
-493.56971490059988
 30
0.0
 11
1018.9293189909999
 21
-496.56971490059999
 31
0.0
  0
LINE
  5
1A8
  8
┌▓È_1
 62
     5
 10
1032.9293189909999
 20
-489.56971490059988
 30
0.0
 11
1035.9293189909999
 21
-489.56971490059988
 31
0.0
  0
LINE
  5
1A9
  8
┌▓È_1
 62
     5
 10
1016.6271113679001
 20
-489.56971490059988
 30
0.0
 11
1018.6271113679001
 21
-489.56971490059988
 31
0.0
  0
LINE
  5
1AA
  8
┌▓È_1
 62
     5
 10
1024.9293189909999
 20
-493.56971490059988
 30
0.0
 11
1018.9293189909999
 21
-493.56971490059988
 31
0.0
  0
LINE
  5
1AB
  8
┌▓È_1
 62
     5
 10
1023.9293189909999
 20
-492.56971490059988
 30
0.0
 11
1023.9293189909999
 21
-489.56971490059988
 31
0.0
  0
LINE
  5
1AC
  8
┌▓È_1
 62
     5
 10
1035.9293189909999
 20
-486.56971490059999
 30
0.0
 11
1032.9293189909999
 21
-486.56971490059999
 31
0.0
  0
LINE
  5
1AD
  8
┌▓È_1
 62
     5
 10
1032.9293189909999
 20
-486.56971490059999
 30
0.0
 11
1032.9293189909999
 21
-485.56971490059988
 31
0.0
  0
LINE
  5
1AE
  8
┌▓È_1
 62
     5
 10
1018.9293189909999
 20
-489.56971490059988
 30
0.0
 11
1018.9293189909999
 21
-492.56971490059988
 31
0.0
  0
LINE
  5
1AF
  8
┌▓È_1
 10
945.60802601440002
 20
-446.14006083430002
 30
0.0
 11
975.60802601440014
 21
-446.14006083430002
 31
0.0
  0
LINE
  5
1B0
  8
┌▓È_1
 10
985.60802601440002
 20
-446.14006083430002
 30
0.0
 11
1015.6080260144
 21
-446.14006083430002
 31
0.0
  0
LINE
  5
1B1
  8
┌▓È_1
 10
945.60802601440002
 20
-468.1400608342999
 30
0.0
 11
1015.6080260144
 21
-468.1400608342999
 31
0.0
  0
INSERT
  5
1B2
  8
0
  6
CONTINUOUS
  2
*U26
 10
0.0
 20
0.0
 30
0.0
  0
INSERT
  5
1B3
  8
0
  6
CONTINUOUS
  2
*U27
 10
0.0
 20
0.0
 30
0.0
  0
INSERT
  5
1B4
  8
0
  6
CONTINUOUS
  2
*U28
 10
0.0
 20
0.0
 30
0.0
  0
LINE
  5
1B5
  8
┌▓È_1
 62
     5
 10
932.84174660759993
 20
-386.06549696989998
 30
0.0
 11
927.8917466076
 21
-394.6391484673
 31
0.0
  0
LINE
  5
1B6
  8
┌▓È_1
 62
     5
 10
932.84174660759993
 20
-386.06549696989998
 30
0.0
 11
937.79174660759986
 21
-394.6391484673
 31
0.0
  0
LINE
  5
1B7
  8
┌▓È_1
 62
     5
 10
927.8917466076
 20
-394.6391484673
 30
0.0
 11
937.79174660759986
 21
-394.6391484673
 31
0.0
  0
INSERT
  5
1B8
  8
0
  6
CONTINUOUS
  2
*U29
 10
0.0
 20
0.0
 30
0.0
  0
DIMENSION
  5
1C7
  8
Éíû@É³
  2
*D13
 10
781.44861139289992
 20
-3.8712534571999999
 30
0.0
 11
776.44861139289992
 21
-3.8712534571999999
 31
0.0
 70
   128
  1
<>
 13
781.44861139289992
 23
-23.871253457200002
 33
0.0
 14
771.44861139289992
 24
-33.871253457199998
 34
0.0
  0
DIMENSION
  5
1D6
  8
Éíû@É³
  2
*D14
 10
798.44861139289992
 20
-30.871253457200002
 30
0.0
 11
798.44861139289992
 21
-25.871253457200002
 31
0.0
 70
   128
  1
<>
 13
768.44861139289992
 23
-30.871253457200002
 33
0.0
 14
778.44861139289992
 24
-20.871253457200002
 34
0.0
 50
90.0
  0
LINE
  5
1D7
  8
┌▓È_1
 10
685.98550501859995
 20
-55.617245264300003
 30
0.0
 11
735.98550501859995
 21
-55.617245264300003
 31
0.0
  0
LINE
  5
1D8
  8
┌▓È_1
 10
687.48550501859995
 20
-57.117245264300003
 30
0.0
 11
737.48550501859995
 21
-57.117245264300003
 31
0.0
  0
INSERT
  5
1D9
  8
0
  6
CONTINUOUS
  2
*U30
 10
0.0
 20
0.0
 30
0.0
  0
LINE
  5
1DA
  8
┌▓È_1
 62
     5
 10
1016.6271113679001
 20
-486.56971490059999
 30
0.0
 11
1016.6271113679001
 21
-489.56971490059988
 31
0.0
  0
LINE
  5
1DB
  8
┌▓È_1
 62
     5
 10
1035.9293189909999
 20
-486.56971490059999
 30
0.0
 11
1035.9293189909999
 21
-489.56971490059988
 31
0.0
  0
LINE
  5
1DC
  8
┌▓È_1
 62
     5
 10
1035.9293189909999
 20
-482.56971490059999
 30
0.0
 11
1027.9293189909999
 21
-482.56971490059999
 31
0.0
  0
LINE
  5
1DD
  8
┌▓È_1
 62
     5
 10
1041.2505311122
 20
-482.56971490059999
 30
0.0
 11
1041.2505311122
 21
-486.1697149005999
 31
0.0
  0
ARC
  5
1DE
  8
┌▓È_1
 62
     5
 10
1026.9293189909999
 20
-490.56971490059999
 30
0.0
 40
6.0
 50
270.0
 51
0.0
  0
LINE
  5
1DF
  8
┌▓È_1
 62
     5
 10
1041.2505311122
 20
-496.56971490059999
 30
0.0
 11
1041.2505311122
 21
-493.56971490059988
 31
0.0
  0
LINE
  5
1E0
  8
┌▓È_1
 62
     5
 10
1023.9293189909999
 20
-489.56971490059988
 30
0.0
 11
1027.9293189909999
 21
-489.56971490059988
 31
0.0
  0
LINE
  5
1E1
  8
┌▓È_1
 62
     5
 10
1018.9293189909999
 20
-496.56971490059999
 30
0.0
 11
1026.9293189909999
 21
-496.56971490059999
 31
0.0
  0
ARC
  5
1E2
  8
┌▓È_1
 62
     5
 10
1024.9293189909999
 20
-490.56971490059999
 30
0.0
 40
3.0
 50
270.0
 51
0.0
  0
LINE
  5
1E3
  8
┌▓È_1
 62
     5
 10
1032.9293189909999
 20
-490.56971490059999
 30
0.0
 11
1032.9293189909999
 21
-489.56971490059988
 31
0.0
  0
LINE
  5
1E4
  8
┌▓È_1
 10
1020.6080260144
 20
-435.1400608342999
 30
0.0
 11
1020.6080260144
 21
-457.14006083430002
 31
0.0
  0
INSERT
  5
1E5
  8
0
  6
CONTINUOUS
  2
*U31
 10
0.0
 20
0.0
 30
0.0
  0
LINE
  5
1E6
  8
┌▓È_1
 62
     5
 10
1027.9293189909999
 20
-486.56971490059999
 30
0.0
 11
1023.9293189909999
 21
-486.56971490059999
 31
0.0
  0
LINE
  5
1E7
  8
┌▓È_1
 62
     5
 10
1026.9293189909999
 20
-482.56971490059999
 30
0.0
 11
1018.9293189909999
 21
-482.56971490059999
 31
0.0
  0
LINE
  5
1E8
  8
┌▓È_1
 62
     5
 10
1023.9293189909999
 20
-485.56971490059988
 30
0.0
 11
1026.9293189909999
 21
-482.56971490059999
 31
0.0
  0
LINE
  5
1E9
  8
┌▓È_1
 62
     5
 10
1018.9293189909999
 20
-482.56971490059999
 30
0.0
 11
1018.9293189909999
 21
-486.56971490059999
 31
0.0
  0
LINE
  5
1EA
  8
┌▓È_1
 10
1020.6080260144
 20
-457.14006083430002
 30
0.0
 11
1020.6080260144
 21
-479.14006083430002
 31
0.0
  0
LINE
  5
1EB
  8
┌▓È_1
 10
940.60802601439991
 20
-435.1400608342999
 30
0.0
 11
940.60802601439991
 21
-501.14006083430002
 31
0.0
  0
LINE
  5
1EC
  8
┌▓È_1
 10
980.60802601440002
 20
-435.1400608342999
 30
0.0
 11
980.60802601440002
 21
-457.14006083430002
 31
0.0
  0
LINE
  5
1ED
  8
┌▓È_1
 62
     5
 10
1018.9293189909999
 20
-492.56971490059988
 30
0.0
 11
1023.9293189909999
 21
-492.56971490059988
 31
0.0
  0
LINE
  5
1EE
  8
┌▓È_1
 62
     5
 10
1032.9293189909999
 20
-485.56971490059988
 30
0.0
 11
1035.9293189909999
 21
-482.56971490059999
 31
0.0
  0
LINE
  5
1EF
  8
┌▓È_1
 62
     5
 10
1023.9293189909999
 20
-486.56971490059999
 30
0.0
 11
1023.9293189909999
 21
-485.56971490059988
 31
0.0
  0
LINE
  5
1F0
  8
┌▓È_1
 62
     5
 10
1027.9293189909999
 20
-482.56971490059999
 30
0.0
 11
1027.9293189909999
 21
-486.56971490059999
 31
0.0
  0
LINE
  5
1F1
  8
┌▓È_1
 62
     5
 10
1041.2505311122
 20
-493.56971490059988
 30
0.0
 11
1041.2505311122
 21
-496.56971490059999
 31
0.0
  0
LINE
  5
1F2
  8
┌▓È_1
 62
     5
 10
1041.2505311122
 20
-493.56971490059988
 30
0.0
 11
1043.6505311122
 21
-493.56971490059988
 31
0.0
  0
POLYLINE
  8
┌▓È_1
  5
567
  62
5
  66
     1
 10
0.000000
 20
0.000000
 30
0.000000
  70
     8
  0
VERTEX
  8
┌▓È_1
  5
568
 10
1054.62
 20
-492.617
 30
0.000000
  70
    32
  0
VERTEX
  8
┌▓È_1
  5
569
 10
1054.65
 20
-492.627
 30
0.000000
  70
    32
  0
VERTEX
  8
┌▓È_1
  5
56A
 10
1054.69
 20
-492.636
 30
0.000000
  70
    32
  0
VERTEX
  8
┌▓È_1
  5
56B
 10
1054.72
 20
-492.646
 30
0.000000
  70
    32
  0
VERTEX
  8
┌▓È_1
  5
56C
 10
1054.76
 20
-492.656
 30
0.000000
  70
    32
  0
VERTEX
  8
┌▓È_1
  5
56D
 10
1054.79
 20
-492.666
 30
0.000000
  70
    32
  0
VERTEX
  8
┌▓È_1
  5
56E
 10
1054.83
 20
-492.675
 30
0.000000
  70
    32
  0
VERTEX
  8
┌▓È_1
  5
56F
 10
1054.87
 20
-492.685
 30
0.000000
  70
    32
  0
VERTEX
  8
┌▓È_1
  5
570
 10
1054.90
 20
-492.694
 30
0.000000
  70
    32
  0
VERTEX
  8
┌▓È_1
  5
571
 10
1054.94
 20
-492.704
 30
0.000000
  70
    32
  0
VERTEX
  8
┌▓È_1
  5
572
 10
1054.97
 20
-492.713
 30
0.000000
  70
    32
  0
VERTEX
  8
┌▓È_1
  5
573
 10
1055.01
 20
-492.723
 30
0.000000
  70
    32
  0
VERTEX
  8
┌▓È_1
  5
574
 10
1055.04
 20
-492.732
 30
0.000000
  70
    32
  0
VERTEX
  8
┌▓È_1
  5
575
 10
1055.08
 20
-492.741
 30
0.000000
  70
    32
  0
VERTEX
  8
┌▓È_1
  5
576
 10
1055.11
 20
-492.750
 30
0.000000
  70
    32
  0
VERTEX
  8
┌▓È_1
  5
577
 10
1055.15
 20
-492.760
 30
0.000000
  70
    32
  0
VERTEX
  8
┌▓È_1
  5
578
 10
1055.18
 20
-492.769
 30
0.000000
  70
    32
  0
VERTEX
  8
┌▓È_1
  5
579
 10
1055.22
 20
-492.778
 30
0.000000
  70
    32
  0
VERTEX
  8
┌▓È_1
  5
57A
 10
1055.25
 20
-492.787
 30
0.000000
  70
    32
  0
VERTEX
  8
┌▓È_1
  5
57B
 10
1055.29
 20
-492.796
 30
0.000000
  70
    32
  0
VERTEX
  8
┌▓È_1
  5
57C
 10
1055.33
 20
-492.805
 30
0.000000
  70
    32
  0
VERTEX
  8
┌▓È_1
  5
57D
 10
1055.36
 20
-492.813
 30
0.000000
  70
    32
  0
VERTEX
  8
┌▓È_1
  5
57E
 10
1055.40
 20
-492.822
 30
0.000000
  70
    32
  0
VERTEX
  8
┌▓È_1
  5
57F
 10
1055.43
 20
-492.831
 30
0.000000
  70
    32
  0
VERTEX
  8
┌▓È_1
  5
580
 10
1055.47
 20
-492.840
 30
0.000000
  70
    32
  0
VERTEX
  8
┌▓È_1
  5
581
 10
1055.50
 20
-492.848
 30
0.000000
  70
    32
  0
VERTEX
  8
┌▓È_1
  5
582
 10
1055.54
 20
-492.857
 30
0.000000
  70
    32
  0
VERTEX
  8
┌▓È_1
  5
583
 10
1055.58
 20
-492.866
 30
0.000000
  70
    32
  0
VERTEX
  8
┌▓È_1
  5
584
 10
1055.61
 20
-492.874
 30
0.000000
  70
    32
  0
VERTEX
  8
┌▓È_1
  5
585
 10
1055.65
 20
-492.883
 30
0.000000
  70
    32
  0
VERTEX
  8
┌▓È_1
  5
586
 10
1055.68
 20
-492.891
 30
0.000000
  70
    32
  0
VERTEX
  8
┌▓È_1
  5
587
 10
1055.72
 20
-492.899
 30
0.000000
  70
    32
  0
VERTEX
  8
┌▓È_1
  5
588
 10
1055.75
 20
-492.908
 30
0.000000
  70
    32
  0
VERTEX
  8
┌▓È_1
  5
589
 10
1055.79
 20
-492.916
 30
0.000000
  70
    32
  0
VERTEX
  8
┌▓È_1
  5
58A
 10
1055.83
 20
-492.924
 30
0.000000
  70
    32
  0
VERTEX
  8
┌▓È_1
  5
58B
 10
1055.86
 20
-492.933
 30
0.000000
  70
    32
  0
VERTEX
  8
┌▓È_1
  5
58C
 10
1055.90
 20
-492.941
 30
0.000000
  70
    32
  0
VERTEX
  8
┌▓È_1
  5
58D
 10
1055.93
 20
-492.949
 30
0.000000
  70
    32
  0
VERTEX
  8
┌▓È_1
  5
58E
 10
1055.97
 20
-492.957
 30
0.000000
  70
    32
  0
VERTEX
  8
┌▓È_1
  5
58F
 10
1056.01
 20
-492.965
 30
0.000000
  70
    32
  0
VERTEX
  8
┌▓È_1
  5
590
 10
1056.04
 20
-492.973
 30
0.000000
  70
    32
  0
VERTEX
  8
┌▓È_1
  5
591
 10
1056.08
 20
-492.981
 30
0.000000
  70
    32
  0
VERTEX
  8
┌▓È_1
  5
592
 10
1056.12
 20
-492.989
 30
0.000000
  70
    32
  0
VERTEX
  8
┌▓È_1
  5
593
 10
1056.15
 20
-492.997
 30
0.000000
  70
    32
  0
VERTEX
  8
┌▓È_1
  5
594
 10
1056.19
 20
-493.005
 30
0.000000
  70
    32
  0
VERTEX
  8
┌▓È_1
  5
595
 10
1056.22
 20
-493.013
 30
0.000000
  70
    32
  0
VERTEX
  8
┌▓È_1
  5
596
 10
1056.26
 20
-493.020
 30
0.000000
  70
    32
  0
VERTEX
  8
┌▓È_1
  5
597
 10
1056.30
 20
-493.028
 30
0.000000
  70
    32
  0
VERTEX
  8
┌▓È_1
  5
598
 10
1056.33
 20
-493.036
 30
0.000000
  70
    32
  0
VERTEX
  8
┌▓È_1
  5
599
 10
1056.37
 20
-493.044
 30
0.000000
  70
    32
  0
VERTEX
  8
┌▓È_1
  5
59A
 10
1056.41
 20
-493.051
 30
0.000000
  70
    32
  0
VERTEX
  8
┌▓È_1
  5
59B
 10
1056.44
 20
-493.059
 30
0.000000
  70
    32
  0
VERTEX
  8
┌▓È_1
  5
59C
 10
1056.48
 20
-493.066
 30
0.000000
  70
    32
  0
VERTEX
  8
┌▓È_1
  5
59D
 10
1056.52
 20
-493.074
 30
0.000000
  70
    32
  0
VERTEX
  8
┌▓È_1
  5
59E
 10
1056.55
 20
-493.081
 30
0.000000
  70
    32
  0
VERTEX
  8
┌▓È_1
  5
59F
 10
1056.59
 20
-493.089
 30
0.000000
  70
    32
  0
VERTEX
  8
┌▓È_1
  5
5A0
 10
1056.62
 20
-493.096
 30
0.000000
  70
    32
  0
VERTEX
  8
┌▓È_1
  5
5A1
 10
1056.66
 20
-493.104
 30
0.000000
  70
    32
  0
VERTEX
  8
┌▓È_1
  5
5A2
 10
1056.70
 20
-493.111
 30
0.000000
  70
    32
  0
VERTEX
  8
┌▓È_1
  5
5A3
 10
1056.73
 20
-493.119
 30
0.000000
  70
    32
  0
VERTEX
  8
┌▓È_1
  5
5A4
 10
1056.77
 20
-493.126
 30
0.000000
  70
    32
  0
VERTEX
  8
┌▓È_1
  5
5A5
 10
1056.81
 20
-493.133
 30
0.000000
  70
    32
  0
VERTEX
  8
┌▓È_1
  5
5A6
 10
1056.84
 20
-493.140
 30
0.000000
  70
    32
  0
VERTEX
  8
┌▓È_1
  5
5A7
 10
1056.88
 20
-493.148
 30
0.000000
  70
    32
  0
VERTEX
  8
┌▓È_1
  5
5A8
 10
1056.92
 20
-493.155
 30
0.000000
  70
    32
  0
VERTEX
  8
┌▓È_1
  5
5A9
 10
1056.95
 20
-493.162
 30
0.000000
  70
    32
  0
VERTEX
  8
┌▓È_1
  5
5AA
 10
1056.99
 20
-493.169
 30
0.000000
  70
    32
  0
VERTEX
  8
┌▓È_1
  5
5AB
 10
1057.03
 20
-493.176
 30
0.000000
  70
    32
  0
VERTEX
  8
┌▓È_1
  5
5AC
 10
1057.06
 20
-493.183
 30
0.000000
  70
    32
  0
VERTEX
  8
┌▓È_1
  5
5AD
 10
1057.10
 20
-493.190
 30
0.000000
  70
    32
  0
VERTEX
  8
┌▓È_1
  5
5AE
 10
1057.14
 20
-493.197
 30
0.000000
  70
    32
  0
VERTEX
  8
┌▓È_1
  5
5AF
 10
1057.17
 20
-493.204
 30
0.000000
  70
    32
  0
VERTEX
  8
┌▓È_1
  5
5B0
 10
1057.21
 20
-493.211
 30
0.000000
  70
    32
  0
VERTEX
  8
┌▓È_1
  5
5B1
 10
1057.25
 20
-493.218
 30
0.000000
  70
    32
  0
VERTEX
  8
┌▓È_1
  5
5B2
 10
1057.28
 20
-493.225
 30
0.000000
  70
    32
  0
VERTEX
  8
┌▓È_1
  5
5B3
 10
1057.32
 20
-493.232
 30
0.000000
  70
    32
  0
VERTEX
  8
┌▓È_1
  5
5B4
 10
1057.36
 20
-493.239
 30
0.000000
  70
    32
  0
VERTEX
  8
┌▓È_1
  5
5B5
 10
1057.40
 20
-493.246
 30
0.000000
  70
    32
  0
VERTEX
  8
┌▓È_1
  5
5B6
 10
1057.43
 20
-493.253
 30
0.000000
  70
    32
  0
VERTEX
  8
┌▓È_1
  5
5B7
 10
1057.47
 20
-493.260
 30
0.000000
  70
    32
  0
VERTEX
  8
┌▓È_1
  5
5B8
 10
1057.51
 20
-493.266
 30
0.000000
  70
    32
  0
VERTEX
  8
┌▓È_1
  5
5B9
 10
1057.54
 20
-493.273
 30
0.000000
  70
    32
  0
VERTEX
  8
┌▓È_1
  5
5BA
 10
1057.58
 20
-493.280
 30
0.000000
  70
    32
  0
VERTEX
  8
┌▓È_1
  5
5BB
 10
1057.62
 20
-493.287
 30
0.000000
  70
    32
  0
VERTEX
  8
┌▓È_1
  5
5BC
 10
1057.65
 20
-493.293
 30
0.000000
  70
    32
  0
VERTEX
  8
┌▓È_1
  5
5BD
 10
1057.69
 20
-493.300
 30
0.000000
  70
    32
  0
VERTEX
  8
┌▓È_1
  5
5BE
 10
1057.73
 20
-493.307
 30
0.000000
  70
    32
  0
VERTEX
  8
┌▓È_1
  5
5BF
 10
1057.76
 20
-493.313
 30
0.000000
  70
    32
  0
VERTEX
  8
┌▓È_1
  5
5C0
 10
1057.80
 20
-493.320
 30
0.000000
  70
    32
  0
VERTEX
  8
┌▓È_1
  5
5C1
 10
1057.84
 20
-493.327
 30
0.000000
  70
    32
  0
VERTEX
  8
┌▓È_1
  5
5C2
 10
1057.88
 20
-493.333
 30
0.000000
  70
    32
  0
VERTEX
  8
┌▓È_1
  5
5C3
 10
1057.91
 20
-493.340
 30
0.000000
  70
    32
  0
VERTEX
  8
┌▓È_1
  5
5C4
 10
1057.95
 20
-493.346
 30
0.000000
  70
    32
  0
VERTEX
  8
┌▓È_1
  5
5C5
 10
1057.99
 20
-493.353
 30
0.000000
  70
    32
  0
VERTEX
  8
┌▓È_1
  5
5C6
 10
1058.02
 20
-493.360
 30
0.000000
  70
    32
  0
VERTEX
  8
┌▓È_1
  5
5C7
 10
1058.06
 20
-493.366
 30
0.000000
  70
    32
  0
VERTEX
  8
┌▓È_1
  5
5C8
 10
1058.10
 20
-493.373
 30
0.000000
  70
    32
  0
VERTEX
  8
┌▓È_1
  5
5C9
 10
1058.14
 20
-493.379
 30
0.000000
  70
    32
  0
VERTEX
  8
┌▓È_1
  5
5CA
 10
1058.17
 20
-493.386
 30
0.000000
  70
    32
  0
VERTEX
  8
┌▓È_1
  5
5CB
 10
1058.21
 20
-493.392
 30
0.000000
  70
    32
  0
VERTEX
  8
┌▓È_1
  5
5CC
 10
1058.25
 20
-493.399
 30
0.000000
  70
    32
  0
VERTEX
  8
┌▓È_1
  5
5CD
 10
1058.28
 20
-493.405
 30
0.000000
  70
    32
  0
VERTEX
  8
┌▓È_1
  5
5CE
 10
1058.32
 20
-493.411
 30
0.000000
  70
    32
  0
VERTEX
  8
┌▓È_1
  5
5CF
 10
1058.36
 20
-493.418
 30
0.000000
  70
    32
  0
VERTEX
  8
┌▓È_1
  5
5D0
 10
1058.40
 20
-493.424
 30
0.000000
  70
    32
  0
VERTEX
  8
┌▓È_1
  5
5D1
 10
1058.43
 20
-493.431
 30
0.000000
  70
    32
  0
VERTEX
  8
┌▓È_1
  5
5D2
 10
1058.47
 20
-493.437
 30
0.000000
  70
    32
  0
VERTEX
  8
┌▓È_1
  5
5D3
 10
1058.51
 20
-493.443
 30
0.000000
  70
    32
  0
VERTEX
  8
┌▓È_1
  5
5D4
 10
1058.54
 20
-493.450
 30
0.000000
  70
    32
  0
VERTEX
  8
┌▓È_1
  5
5D5
 10
1058.58
 20
-493.456
 30
0.000000
  70
    32
  0
VERTEX
  8
┌▓È_1
  5
5D6
 10
1058.62
 20
-493.462
 30
0.000000
  70
    32
  0
VERTEX
  8
┌▓È_1
  5
5D7
 10
1058.66
 20
-493.469
 30
0.000000
  70
    32
  0
VERTEX
  8
┌▓È_1
  5
5D8
 10
1058.69
 20
-493.475
 30
0.000000
  70
    32
  0
VERTEX
  8
┌▓È_1
  5
5D9
 10
1058.73
 20
-493.482
 30
0.000000
  70
    32
  0
VERTEX
  8
┌▓È_1
  5
5DA
 10
1058.77
 20
-493.488
 30
0.000000
  70
    32
  0
VERTEX
  8
┌▓È_1
  5
5DB
 10
1058.80
 20
-493.494
 30
0.000000
  70
    32
  0
VERTEX
  8
┌▓È_1
  5
5DC
 10
1058.84
 20
-493.500
 30
0.000000
  70
    32
  0
VERTEX
  8
┌▓È_1
  5
5DD
 10
1058.88
 20
-493.507
 30
0.000000
  70
    32
  0
VERTEX
  8
┌▓È_1
  5
5DE
 10
1058.92
 20
-493.513
 30
0.000000
  70
    32
  0
VERTEX
  8
┌▓È_1
  5
5DF
 10
1058.95
 20
-493.519
 30
0.000000
  70
    32
  0
VERTEX
  8
┌▓È_1
  5
5E0
 10
1058.99
 20
-493.526
 30
0.000000
  70
    32
  0
VERTEX
  8
┌▓È_1
  5
5E1
 10
1059.03
 20
-493.532
 30
0.000000
  70
    32
  0
VERTEX
  8
┌▓È_1
  5
5E2
 10
1059.06
 20
-493.538
 30
0.000000
  70
    32
  0
VERTEX
  8
┌▓È_1
  5
5E3
 10
1059.10
 20
-493.545
 30
0.000000
  70
    32
  0
VERTEX
  8
┌▓È_1
  5
5E4
 10
1059.14
 20
-493.551
 30
0.000000
  70
    32
  0
VERTEX
  8
┌▓È_1
  5
5E5
 10
1059.18
 20
-493.557
 30
0.000000
  70
    32
  0
VERTEX
  8
┌▓È_1
  5
5E6
 10
1059.21
 20
-493.563
 30
0.000000
  70
    32
  0
VERTEX
  8
┌▓È_1
  5
5E7
 10
1059.25
 20
-493.570
 30
0.000000
  70
    32
  0
SEQEND
  8
┌▓È_1
  5
5E8
  0
POLYLINE
  8
┌▓È_1
  5
5E9
  62
5
  66
     1
 10
0.000000
 20
0.000000
 30
0.000000
  70
     8
  0
VERTEX
  8
┌▓È_1
  5
5EA
 10
1048.12
 20
-488.345
 30
0.000000
  70
    32
  0
VERTEX
  8
┌▓È_1
  5
5EB
 10
1048.13
 20
-488.360
 30
0.000000
  70
    32
  0
VERTEX
  8
┌▓È_1
  5
5EC
 10
1048.15
 20
-488.375
 30
0.000000
  70
    32
  0
VERTEX
  8
┌▓È_1
  5
5ED
 10
1048.16
 20
-488.389
 30
0.000000
  70
    32
  0
VERTEX
  8
┌▓È_1
  5
5EE
 10
1048.17
 20
-488.404
 30
0.000000
  70
    32
  0
VERTEX
  8
┌▓È_1
  5
5EF
 10
1048.19
 20
-488.419
 30
0.000000
  70
    32
  0
VERTEX
  8
┌▓È_1
  5
5F0
 10
1048.20
 20
-488.434
 30
0.000000
  70
    32
  0
VERTEX
  8
┌▓È_1
  5
5F1
 10
1048.21
 20
-488.448
 30
0.000000
  70
    32
  0
VERTEX
  8
┌▓È_1
  5
5F2
 10
1048.22
 20
-488.463
 30
0.000000
  70
    32
  0
VERTEX
  8
┌▓È_1
  5
5F3
 10
1048.24
 20
-488.478
 30
0.000000
  70
    32
  0
VERTEX
  8
┌▓È_1
  5
5F4
 10
1048.25
 20
-488.492
 30
0.000000
  70
    32
  0
VERTEX
  8
┌▓È_1
  5
5F5
 10
1048.26
 20
-488.507
 30
0.000000
  70
    32
  0
VERTEX
  8
┌▓È_1
  5
5F6
 10
1048.28
 20
-488.522
 30
0.000000
  70
    32
  0
VERTEX
  8
┌▓È_1
  5
5F7
 10
1048.29
 20
-488.537
 30
0.000000
  70
    32
  0
VERTEX
  8
┌▓È_1
  5
5F8
 10
1048.30
 20
-488.551
 30
0.000000
  70
    32
  0
VERTEX
  8
┌▓È_1
  5
5F9
 10
1048.32
 20
-488.566
 30
0.000000
  70
    32
  0
VERTEX
  8
┌▓È_1
  5
5FA
 10
1048.33
 20
-488.581
 30
0.000000
  70
    32
  0
VERTEX
  8
┌▓È_1
  5
5FB
 10
1048.34
 20
-488.595
 30
0.000000
  70
    32
  0
VERTEX
  8
┌▓È_1
  5
5FC
 10
1048.36
 20
-488.610
 30
0.000000
  70
    32
  0
VERTEX
  8
┌▓È_1
  5
5FD
 10
1048.37
 20
-488.625
 30
0.000000
  70
    32
  0
VERTEX
  8
┌▓È_1
  5
5FE
 10
1048.38
 20
-488.639
 30
0.000000
  70
    32
  0
VERTEX
  8
┌▓È_1
  5
5FF
 10
1048.40
 20
-488.654
 30
0.000000
  70
    32
  0
VERTEX
  8
┌▓È_1
  5
600
 10
1048.41
 20
-488.669
 30
0.000000
  70
    32
  0
VERTEX
  8
┌▓È_1
  5
601
 10
1048.42
 20
-488.683
 30
0.000000
  70
    32
  0
VERTEX
  8
┌▓È_1
  5
602
 10
1048.44
 20
-488.698
 30
0.000000
  70
    32
  0
VERTEX
  8
┌▓È_1
  5
603
 10
1048.45
 20
-488.713
 30
0.000000
  70
    32
  0
VERTEX
  8
┌▓È_1
  5
604
 10
1048.46
 20
-488.727
 30
0.000000
  70
    32
  0
VERTEX
  8
┌▓È_1
  5
605
 10
1048.48
 20
-488.742
 30
0.000000
  70
    32
  0
VERTEX
  8
┌▓È_1
  5
606
 10
1048.49
 20
-488.757
 30
0.000000
  70
    32
  0
VERTEX
  8
┌▓È_1
  5
607
 10
1048.50
 20
-488.771
 30
0.000000
  70
    32
  0
VERTEX
  8
┌▓È_1
  5
608
 10
1048.52
 20
-488.786
 30
0.000000
  70
    32
  0
VERTEX
  8
┌▓È_1
  5
609
 10
1048.53
 20
-488.800
 30
0.000000
  70
    32
  0
VERTEX
  8
┌▓È_1
  5
60A
 10
1048.54
 20
-488.815
 30
0.000000
  70
    32
  0
VERTEX
  8
┌▓È_1
  5
60B
 10
1048.56
 20
-488.830
 30
0.000000
  70
    32
  0
VERTEX
  8
┌▓È_1
  5
60C
 10
1048.57
 20
-488.844
 30
0.000000
  70
    32
  0
VERTEX
  8
┌▓È_1
  5
60D
 10
1048.58
 20
-488.859
 30
0.000000
  70
    32
  0
VERTEX
  8
┌▓È_1
  5
60E
 10
1048.60
 20
-488.873
 30
0.000000
  70
    32
  0
VERTEX
  8
┌▓È_1
  5
60F
 10
1048.61
 20
-488.888
 30
0.000000
  70
    32
  0
VERTEX
  8
┌▓È_1
  5
610
 10
1048.62
 20
-488.903
 30
0.000000
  70
    32
  0
VERTEX
  8
┌▓È_1
  5
611
 10
1048.64
 20
-488.917
 30
0.000000
  70
    32
  0
VERTEX
  8
┌▓È_1
  5
612
 10
1048.65
 20
-488.932
 30
0.000000
  70
    32
  0
VERTEX
  8
┌▓È_1
  5
613
 10
1048.66
 20
-488.946
 30
0.000000
  70
    32
  0
VERTEX
  8
┌▓È_1
  5
614
 10
1048.68
 20
-488.961
 30
0.000000
  70
    32
  0
VERTEX
  8
┌▓È_1
  5
615
 10
1048.69
 20
-488.975
 30
0.000000
  70
    32
  0
VERTEX
  8
┌▓È_1
  5
616
 10
1048.70
 20
-488.990
 30
0.000000
  70
    32
  0
VERTEX
  8
┌▓È_1
  5
617
 10
1048.72
 20
-489.004
 30
0.000000
  70
    32
  0
VERTEX
  8
┌▓È_1
  5
618
 10
1048.73
 20
-489.019
 30
0.000000
  70
    32
  0
VERTEX
  8
┌▓È_1
  5
619
 10
1048.74
 20
-489.033
 30
0.000000
  70
    32
  0
VERTEX
  8
┌▓È_1
  5
61A
 10
1048.76
 20
-489.048
 30
0.000000
  70
    32
  0
VERTEX
  8
┌▓È_1
  5
61B
 10
1048.77
 20
-489.062
 30
0.000000
  70
    32
  0
VERTEX
  8
┌▓È_1
  5
61C
 10
1048.78
 20
-489.077
 30
0.000000
  70
    32
  0
VERTEX
  8
┌▓È_1
  5
61D
 10
1048.80
 20
-489.091
 30
0.000000
  70
    32
  0
VERTEX
  8
┌▓È_1
  5
61E
 10
1048.81
 20
-489.105
 30
0.000000
  70
    32
  0
VERTEX
  8
┌▓È_1
  5
61F
 10
1048.82
 20
-489.120
 30
0.000000
  70
    32
  0
VERTEX
  8
┌▓È_1
  5
620
 10
1048.84
 20
-489.134
 30
0.000000
  70
    32
  0
VERTEX
  8
┌▓È_1
  5
621
 10
1048.85
 20
-489.149
 30
0.000000
  70
    32
  0
VERTEX
  8
┌▓È_1
  5
622
 10
1048.86
 20
-489.163
 30
0.000000
  70
    32
  0
VERTEX
  8
┌▓È_1
  5
623
 10
1048.88
 20
-489.177
 30
0.000000
  70
    32
  0
VERTEX
  8
┌▓È_1
  5
624
 10
1048.89
 20
-489.192
 30
0.000000
  70
    32
  0
VERTEX
  8
┌▓È_1
  5
625
 10
1048.90
 20
-489.206
 30
0.000000
  70
    32
  0
VERTEX
  8
┌▓È_1
  5
626
 10
1048.92
 20
-489.220
 30
0.000000
  70
    32
  0
VERTEX
  8
┌▓È_1
  5
627
 10
1048.93
 20
-489.235
 30
0.000000
  70
    32
  0
VERTEX
  8
┌▓È_1
  5
628
 10
1048.94
 20
-489.249
 30
0.000000
  70
    32
  0
VERTEX
  8
┌▓È_1
  5
629
 10
1048.96
 20
-489.263
 30
0.000000
  70
    32
  0
VERTEX
  8
┌▓È_1
  5
62A
 10
1048.97
 20
-489.278
 30
0.000000
  70
    32
  0
VERTEX
  8
┌▓È_1
  5
62B
 10
1048.98
 20
-489.292
 30
0.000000
  70
    32
  0
VERTEX
  8
┌▓È_1
  5
62C
 10
1049.00
 20
-489.306
 30
0.000000
  70
    32
  0
VERTEX
  8
┌▓È_1
  5
62D
 10
1049.01
 20
-489.320
 30
0.000000
  70
    32
  0
VERTEX
  8
┌▓È_1
  5
62E
 10
1049.02
 20
-489.335
 30
0.000000
  70
    32
  0
VERTEX
  8
┌▓È_1
  5
62F
 10
1049.04
 20
-489.349
 30
0.000000
  70
    32
  0
VERTEX
  8
┌▓È_1
  5
630
 10
1049.05
 20
-489.363
 30
0.000000
  70
    32
  0
VERTEX
  8
┌▓È_1
  5
631
 10
1049.06
 20
-489.377
 30
0.000000
  70
    32
  0
VERTEX
  8
┌▓È_1
  5
632
 10
1049.08
 20
-489.391
 30
0.000000
  70
    32
  0
VERTEX
  8
┌▓È_1
  5
633
 10
1049.09
 20
-489.405
 30
0.000000
  70
    32
  0
VERTEX
  8
┌▓È_1
  5
634
 10
1049.11
 20
-489.419
 30
0.000000
  70
    32
  0
VERTEX
  8
┌▓È_1
  5
635
 10
1049.12
 20
-489.434
 30
0.000000
  70
    32
  0
VERTEX
  8
┌▓È_1
  5
636
 10
1049.13
 20
-489.448
 30
0.000000
  70
    32
  0
VERTEX
  8
┌▓È_1
  5
637
 10
1049.15
 20
-489.462
 30
0.000000
  70
    32
  0
VERTEX
  8
┌▓È_1
  5
638
 10
1049.16
 20
-489.476
 30
0.000000
  70
    32
  0
VERTEX
  8
┌▓È_1
  5
639
 10
1049.17
 20
-489.490
 30
0.000000
  70
    32
  0
VERTEX
  8
┌▓È_1
  5
63A
 10
1049.19
 20
-489.504
 30
0.000000
  70
    32
  0
VERTEX
  8
┌▓È_1
  5
63B
 10
1049.20
 20
-489.518
 30
0.000000
  70
    32
  0
VERTEX
  8
┌▓È_1
  5
63C
 10
1049.21
 20
-489.532
 30
0.000000
  70
    32
  0
VERTEX
  8
┌▓È_1
  5
63D
 10
1049.23
 20
-489.546
 30
0.000000
  70
    32
  0
VERTEX
  8
┌▓È_1
  5
63E
 10
1049.24
 20
-489.560
 30
0.000000
  70
    32
  0
VERTEX
  8
┌▓È_1
  5
63F
 10
1049.26
 20
-489.574
 30
0.000000
  70
    32
  0
VERTEX
  8
┌▓È_1
  5
640
 10
1049.27
 20
-489.588
 30
0.000000
  70
    32
  0
VERTEX
  8
┌▓È_1
  5
641
 10
1049.28
 20
-489.602
 30
0.000000
  70
    32
  0
VERTEX
  8
┌▓È_1
  5
642
 10
1049.30
 20
-489.615
 30
0.000000
  70
    32
  0
VERTEX
  8
┌▓È_1
  5
643
 10
1049.31
 20
-489.629
 30
0.000000
  70
    32
  0
VERTEX
  8
┌▓È_1
  5
644
 10
1049.32
 20
-489.643
 30
0.000000
  70
    32
  0
VERTEX
  8
┌▓È_1
  5
645
 10
1049.34
 20
-489.657
 30
0.000000
  70
    32
  0
VERTEX
  8
┌▓È_1
  5
646
 10
1049.35
 20
-489.671
 30
0.000000
  70
    32
  0
VERTEX
  8
┌▓È_1
  5
647
 10
1049.36
 20
-489.685
 30
0.000000
  70
    32
  0
VERTEX
  8
┌▓È_1
  5
648
 10
1049.38
 20
-489.698
 30
0.000000
  70
    32
  0
VERTEX
  8
┌▓È_1
  5
649
 10
1049.39
 20
-489.712
 30
0.000000
  70
    32
  0
VERTEX
  8
┌▓È_1
  5
64A
 10
1049.41
 20
-489.726
 30
0.000000
  70
    32
  0
VERTEX
  8
┌▓È_1
  5
64B
 10
1049.42
 20
-489.739
 30
0.000000
  70
    32
  0
VERTEX
  8
┌▓È_1
  5
64C
 10
1049.43
 20
-489.753
 30
0.000000
  70
    32
  0
VERTEX
  8
┌▓È_1
  5
64D
 10
1049.45
 20
-489.767
 30
0.000000
  70
    32
  0
VERTEX
  8
┌▓È_1
  5
64E
 10
1049.46
 20
-489.780
 30
0.000000
  70
    32
  0
VERTEX
  8
┌▓È_1
  5
64F
 10
1049.48
 20
-489.794
 30
0.000000
  70
    32
  0
VERTEX
  8
┌▓È_1
  5
650
 10
1049.49
 20
-489.808
 30
0.000000
  70
    32
  0
VERTEX
  8
┌▓È_1
  5
651
 10
1049.50
 20
-489.821
 30
0.000000
  70
    32
  0
VERTEX
  8
┌▓È_1
  5
652
 10
1049.52
 20
-489.835
 30
0.000000
  70
    32
  0
VERTEX
  8
┌▓È_1
  5
653
 10
1049.53
 20
-489.848
 30
0.000000
  70
    32
  0
VERTEX
  8
┌▓È_1
  5
654
 10
1049.55
 20
-489.862
 30
0.000000
  70
    32
  0
VERTEX
  8
┌▓È_1
  5
655
 10
1049.56
 20
-489.875
 30
0.000000
  70
    32
  0
VERTEX
  8
┌▓È_1
  5
656
 10
1049.57
 20
-489.889
 30
0.000000
  70
    32
  0
VERTEX
  8
┌▓È_1
  5
657
 10
1049.59
 20
-489.902
 30
0.000000
  70
    32
  0
VERTEX
  8
┌▓È_1
  5
658
 10
1049.60
 20
-489.915
 30
0.000000
  70
    32
  0
VERTEX
  8
┌▓È_1
  5
659
 10
1049.62
 20
-489.929
 30
0.000000
  70
    32
  0
VERTEX
  8
┌▓È_1
  5
65A
 10
1049.63
 20
-489.942
 30
0.000000
  70
    32
  0
VERTEX
  8
┌▓È_1
  5
65B
 10
1049.64
 20
-489.955
 30
0.000000
  70
    32
  0
VERTEX
  8
┌▓È_1
  5
65C
 10
1049.66
 20
-489.969
 30
0.000000
  70
    32
  0
VERTEX
  8
┌▓È_1
  5
65D
 10
1049.67
 20
-489.982
 30
0.000000
  70
    32
  0
VERTEX
  8
┌▓È_1
  5
65E
 10
1049.69
 20
-489.995
 30
0.000000
  70
    32
  0
VERTEX
  8
┌▓È_1
  5
65F
 10
1049.70
 20
-490.009
 30
0.000000
  70
    32
  0
VERTEX
  8
┌▓È_1
  5
660
 10
1049.71
 20
-490.022
 30
0.000000
  70
    32
  0
VERTEX
  8
┌▓È_1
  5
661
 10
1049.73
 20
-490.035
 30
0.000000
  70
    32
  0
VERTEX
  8
┌▓È_1
  5
662
 10
1049.74
 20
-490.048
 30
0.000000
  70
    32
  0
VERTEX
  8
┌▓È_1
  5
663
 10
1049.76
 20
-490.061
 30
0.000000
  70
    32
  0
VERTEX
  8
┌▓È_1
  5
664
 10
1049.77
 20
-490.074
 30
0.000000
  70
    32
  0
VERTEX
  8
┌▓È_1
  5
665
 10
1049.78
 20
-490.087
 30
0.000000
  70
    32
  0
VERTEX
  8
┌▓È_1
  5
666
 10
1049.80
 20
-490.100
 30
0.000000
  70
    32
  0
VERTEX
  8
┌▓È_1
  5
667
 10
1049.81
 20
-490.113
 30
0.000000
  70
    32
  0
VERTEX
  8
┌▓È_1
  5
668
 10
1049.83
 20
-490.126
 30
0.000000
  70
    32
  0
VERTEX
  8
┌▓È_1
  5
669
 10
1049.84
 20
-490.139
 30
0.000000
  70
    32
  0
SEQEND
  8
┌▓È_1
  5
66A
  0
POLYLINE
  8
┌▓È_1
  5
66B
  62
5
  66
     1
 10
0.000000
 20
0.000000
 30
0.000000
  70
     8
  0
VERTEX
  8
┌▓È_1
  5
66C
 10
1052.17
 20
-494.842
 30
0.000000
  70
    32
  0
VERTEX
  8
┌▓È_1
  5
66D
 10
1052.22
 20
-494.860
 30
0.000000
  70
    32
  0
VERTEX
  8
┌▓È_1
  5
66E
 10
1052.28
 20
-494.877
 30
0.000000
  70
    32
  0
VERTEX
  8
┌▓È_1
  5
66F
 10
1052.33
 20
-494.894
 30
0.000000
  70
    32
  0
VERTEX
  8
┌▓È_1
  5
670
 10
1052.38
 20
-494.911
 30
0.000000
  70
    32
  0
VERTEX
  8
┌▓È_1
  5
671
 10
1052.44
 20
-494.927
 30
0.000000
  70
    32
  0
VERTEX
  8
┌▓È_1
  5
672
 10
1052.49
 20
-494.944
 30
0.000000
  70
    32
  0
VERTEX
  8
┌▓È_1
  5
673
 10
1052.55
 20
-494.961
 30
0.000000
  70
    32
  0
VERTEX
  8
┌▓È_1
  5
674
 10
1052.60
 20
-494.977
 30
0.000000
  70
    32
  0
VERTEX
  8
┌▓È_1
  5
675
 10
1052.65
 20
-494.994
 30
0.000000
  70
    32
  0
VERTEX
  8
┌▓È_1
  5
676
 10
1052.71
 20
-495.010
 30
0.000000
  70
    32
  0
VERTEX
  8
┌▓È_1
  5
677
 10
1052.76
 20
-495.027
 30
0.000000
  70
    32
  0
VERTEX
  8
┌▓È_1
  5
678
 10
1052.82
 20
-495.043
 30
0.000000
  70
    32
  0
VERTEX
  8
┌▓È_1
  5
679
 10
1052.87
 20
-495.059
 30
0.000000
  70
    32
  0
VERTEX
  8
┌▓È_1
  5
67A
 10
1052.93
 20
-495.075
 30
0.000000
  70
    32
  0
VERTEX
  8
┌▓È_1
  5
67B
 10
1052.98
 20
-495.091
 30
0.000000
  70
    32
  0
VERTEX
  8
┌▓È_1
  5
67C
 10
1053.03
 20
-495.107
 30
0.000000
  70
    32
  0
VERTEX
  8
┌▓È_1
  5
67D
 10
1053.09
 20
-495.123
 30
0.000000
  70
    32
  0
VERTEX
  8
┌▓È_1
  5
67E
 10
1053.14
 20
-495.139
 30
0.000000
  70
    32
  0
VERTEX
  8
┌▓È_1
  5
67F
 10
1053.20
 20
-495.155
 30
0.000000
  70
    32
  0
VERTEX
  8
┌▓È_1
  5
680
 10
1053.25
 20
-495.170
 30
0.000000
  70
    32
  0
VERTEX
  8
┌▓È_1
  5
681
 10
1053.31
 20
-495.186
 30
0.000000
  70
    32
  0
VERTEX
  8
┌▓È_1
  5
682
 10
1053.36
 20
-495.202
 30
0.000000
  70
    32
  0
VERTEX
  8
┌▓È_1
  5
683
 10
1053.42
 20
-495.217
 30
0.000000
  70
    32
  0
VERTEX
  8
┌▓È_1
  5
684
 10
1053.47
 20
-495.232
 30
0.000000
  70
    32
  0
VERTEX
  8
┌▓È_1
  5
685
 10
1053.53
 20
-495.248
 30
0.000000
  70
    32
  0
VERTEX
  8
┌▓È_1
  5
686
 10
1053.58
 20
-495.263
 30
0.000000
  70
    32
  0
VERTEX
  8
┌▓È_1
  5
687
 10
1053.64
 20
-495.278
 30
0.000000
  70
    32
  0
VERTEX
  8
┌▓È_1
  5
688
 10
1053.69
 20
-495.293
 30
0.000000
  70
    32
  0
VERTEX
  8
┌▓È_1
  5
689
 10
1053.75
 20
-495.308
 30
0.000000
  70
    32
  0
VERTEX
  8
┌▓È_1
  5
68A
 10
1053.80
 20
-495.323
 30
0.000000
  70
    32
  0
VERTEX
  8
┌▓È_1
  5
68B
 10
1053.86
 20
-495.338
 30
0.000000
  70
    32
  0
VERTEX
  8
┌▓È_1
  5
68C
 10
1053.91
 20
-495.353
 30
0.000000
  70
    32
  0
VERTEX
  8
┌▓È_1
  5
68D
 10
1053.97
 20
-495.368
 30
0.000000
  70
    32
  0
VERTEX
  8
┌▓È_1
  5
68E
 10
1054.02
 20
-495.383
 30
0.000000
  70
    32
  0
VERTEX
  8
┌▓È_1
  5
68F
 10
1054.08
 20
-495.397
 30
0.000000
  70
    32
  0
VERTEX
  8
┌▓È_1
  5
690
 10
1054.13
 20
-495.412
 30
0.000000
  70
    32
  0
VERTEX
  8
┌▓È_1
  5
691
 10
1054.19
 20
-495.426
 30
0.000000
  70
    32
  0
VERTEX
  8
┌▓È_1
  5
692
 10
1054.24
 20
-495.441
 30
0.000000
  70
    32
  0
VERTEX
  8
┌▓È_1
  5
693
 10
1054.30
 20
-495.455
 30
0.000000
  70
    32
  0
VERTEX
  8
┌▓È_1
  5
694
 10
1054.35
 20
-495.470
 30
0.000000
  70
    32
  0
VERTEX
  8
┌▓È_1
  5
695
 10
1054.41
 20
-495.484
 30
0.000000
  70
    32
  0
VERTEX
  8
┌▓È_1
  5
696
 10
1054.46
 20
-495.498
 30
0.000000
  70
    32
  0
VERTEX
  8
┌▓È_1
  5
697
 10
1054.52
 20
-495.513
 30
0.000000
  70
    32
  0
VERTEX
  8
┌▓È_1
  5
698
 10
1054.58
 20
-495.527
 30
0.000000
  70
    32
  0
VERTEX
  8
┌▓È_1
  5
699
 10
1054.63
 20
-495.541
 30
0.000000
  70
    32
  0
VERTEX
  8
┌▓È_1
  5
69A
 10
1054.69
 20
-495.555
 30
0.000000
  70
    32
  0
VERTEX
  8
┌▓È_1
  5
69B
 10
1054.74
 20
-495.569
 30
0.000000
  70
    32
  0
VERTEX
  8
┌▓È_1
  5
69C
 10
1054.80
 20
-495.583
 30
0.000000
  70
    32
  0
VERTEX
  8
┌▓È_1
  5
69D
 10
1054.85
 20
-495.597
 30
0.000000
  70
    32
  0
VERTEX
  8
┌▓È_1
  5
69E
 10
1054.91
 20
-495.610
 30
0.000000
  70
    32
  0
VERTEX
  8
┌▓È_1
  5
69F
 10
1054.96
 20
-495.624
 30
0.000000
  70
    32
  0
VERTEX
  8
┌▓È_1
  5
6A0
 10
1055.02
 20
-495.638
 30
0.000000
  70
    32
  0
VERTEX
  8
┌▓È_1
  5
6A1
 10
1055.08
 20
-495.651
 30
0.000000
  70
    32
  0
VERTEX
  8
┌▓È_1
  5
6A2
 10
1055.13
 20
-495.665
 30
0.000000
  70
    32
  0
VERTEX
  8
┌▓È_1
  5
6A3
 10
1055.19
 20
-495.679
 30
0.000000
  70
    32
  0
VERTEX
  8
┌▓È_1
  5
6A4
 10
1055.24
 20
-495.692
 30
0.000000
  70
    32
  0
VERTEX
  8
┌▓È_1
  5
6A5
 10
1055.30
 20
-495.706
 30
0.000000
  70
    32
  0
VERTEX
  8
┌▓È_1
  5
6A6
 10
1055.36
 20
-495.719
 30
0.000000
  70
    32
  0
VERTEX
  8
┌▓È_1
  5
6A7
 10
1055.41
 20
-495.732
 30
0.000000
  70
    32
  0
VERTEX
  8
┌▓È_1
  5
6A8
 10
1055.47
 20
-495.746
 30
0.000000
  70
    32
  0
VERTEX
  8
┌▓È_1
  5
6A9
 10
1055.52
 20
-495.759
 30
0.000000
  70
    32
  0
VERTEX
  8
┌▓È_1
  5
6AA
 10
1055.58
 20
-495.772
 30
0.000000
  70
    32
  0
VERTEX
  8
┌▓È_1
  5
6AB
 10
1055.63
 20
-495.785
 30
0.000000
  70
    32
  0
VERTEX
  8
┌▓È_1
  5
6AC
 10
1055.69
 20
-495.799
 30
0.000000
  70
    32
  0
VERTEX
  8
┌▓È_1
  5
6AD
 10
1055.75
 20
-495.812
 30
0.000000
  70
    32
  0
VERTEX
  8
┌▓È_1
  5
6AE
 10
1055.80
 20
-495.825
 30
0.000000
  70
    32
  0
VERTEX
  8
┌▓È_1
  5
6AF
 10
1055.86
 20
-495.838
 30
0.000000
  70
    32
  0
VERTEX
  8
┌▓È_1
  5
6B0
 10
1055.92
 20
-495.851
 30
0.000000
  70
    32
  0
VERTEX
  8
┌▓È_1
  5
6B1
 10
1055.97
 20
-495.864
 30
0.000000
  70
    32
  0
VERTEX
  8
┌▓È_1
  5
6B2
 10
1056.03
 20
-495.877
 30
0.000000
  70
    32
  0
VERTEX
  8
┌▓È_1
  5
6B3
 10
1056.08
 20
-495.889
 30
0.000000
  70
    32
  0
VERTEX
  8
┌▓È_1
  5
6B4
 10
1056.14
 20
-495.902
 30
0.000000
  70
    32
  0
VERTEX
  8
┌▓È_1
  5
6B5
 10
1056.20
 20
-495.915
 30
0.000000
  70
    32
  0
VERTEX
  8
┌▓È_1
  5
6B6
 10
1056.25
 20
-495.928
 30
0.000000
  70
    32
  0
VERTEX
  8
┌▓È_1
  5
6B7
 10
1056.31
 20
-495.941
 30
0.000000
  70
    32
  0
VERTEX
  8
┌▓È_1
  5
6B8
 10
1056.36
 20
-495.953
 30
0.000000
  70
    32
  0
VERTEX
  8
┌▓È_1
  5
6B9
 10
1056.42
 20
-495.966
 30
0.000000
  70
    32
  0
VERTEX
  8
┌▓È_1
  5
6BA
 10
1056.48
 20
-495.979
 30
0.000000
  70
    32
  0
VERTEX
  8
┌▓È_1
  5
6BB
 10
1056.53
 20
-495.991
 30
0.000000
  70
    32
  0
VERTEX
  8
┌▓È_1
  5
6BC
 10
1056.59
 20
-496.004
 30
0.000000
  70
    32
  0
VERTEX
  8
┌▓È_1
  5
6BD
 10
1056.65
 20
-496.016
 30
0.000000
  70
    32
  0
VERTEX
  8
┌▓È_1
  5
6BE
 10
1056.70
 20
-496.029
 30
0.000000
  70
    32
  0
VERTEX
  8
┌▓È_1
  5
6BF
 10
1056.76
 20
-496.041
 30
0.000000
  70
    32
  0
VERTEX
  8
┌▓È_1
  5
6C0
 10
1056.82
 20
-496.054
 30
0.000000
  70
    32
  0
VERTEX
  8
┌▓È_1
  5
6C1
 10
1056.87
 20
-496.066
 30
0.000000
  70
    32
  0
VERTEX
  8
┌▓È_1
  5
6C2
 10
1056.93
 20
-496.078
 30
0.000000
  70
    32
  0
VERTEX
  8
┌▓È_1
  5
6C3
 10
1056.98
 20
-496.091
 30
0.000000
  70
    32
  0
VERTEX
  8
┌▓È_1
  5
6C4
 10
1057.04
 20
-496.103
 30
0.000000
  70
    32
  0
VERTEX
  8
┌▓È_1
  5
6C5
 10
1057.10
 20
-496.115
 30
0.000000
  70
    32
  0
VERTEX
  8
┌▓È_1
  5
6C6
 10
1057.15
 20
-496.128
 30
0.000000
  70
    32
  0
VERTEX
  8
┌▓È_1
  5
6C7
 10
1057.21
 20
-496.140
 30
0.000000
  70
    32
  0
VERTEX
  8
┌▓È_1
  5
6C8
 10
1057.27
 20
-496.152
 30
0.000000
  70
    32
  0
VERTEX
  8
┌▓È_1
  5
6C9
 10
1057.32
 20
-496.164
 30
0.000000
  70
    32
  0
VERTEX
  8
┌▓È_1
  5
6CA
 10
1057.38
 20
-496.176
 30
0.000000
  70
    32
  0
VERTEX
  8
┌▓È_1
  5
6CB
 10
1057.44
 20
-496.189
 30
0.000000
  70
    32
  0
VERTEX
  8
┌▓È_1
  5
6CC
 10
1057.49
 20
-496.201
 30
0.000000
  70
    32
  0
VERTEX
  8
┌▓È_1
  5
6CD
 10
1057.55
 20
-496.213
 30
0.000000
  70
    32
  0
VERTEX
  8
┌▓È_1
  5
6CE
 10
1057.61
 20
-496.225
 30
0.000000
  70
    32
  0
VERTEX
  8
┌▓È_1
  5
6CF
 10
1057.66
 20
-496.237
 30
0.000000
  70
    32
  0
VERTEX
  8
┌▓È_1
  5
6D0
 10
1057.72
 20
-496.249
 30
0.000000
  70
    32
  0
VERTEX
  8
┌▓È_1
  5
6D1
 10
1057.78
 20
-496.261
 30
0.000000
  70
    32
  0
VERTEX
  8
┌▓È_1
  5
6D2
 10
1057.83
 20
-496.273
 30
0.000000
  70
    32
  0
VERTEX
  8
┌▓È_1
  5
6D3
 10
1057.89
 20
-496.285
 30
0.000000
  70
    32
  0
VERTEX
  8
┌▓È_1
  5
6D4
 10
1057.95
 20
-496.297
 30
0.000000
  70
    32
  0
VERTEX
  8
┌▓È_1
  5
6D5
 10
1058.00
 20
-496.309
 30
0.000000
  70
    32
  0
VERTEX
  8
┌▓È_1
  5
6D6
 10
1058.06
 20
-496.321
 30
0.000000
  70
    32
  0
VERTEX
  8
┌▓È_1
  5
6D7
 10
1058.12
 20
-496.333
 30
0.000000
  70
    32
  0
VERTEX
  8
┌▓È_1
  5
6D8
 10
1058.17
 20
-496.345
 30
0.000000
  70
    32
  0
VERTEX
  8
┌▓È_1
  5
6D9
 10
1058.23
 20
-496.357
 30
0.000000
  70
    32
  0
VERTEX
  8
┌▓È_1
  5
6DA
 10
1058.29
 20
-496.369
 30
0.000000
  70
    32
  0
VERTEX
  8
┌▓È_1
  5
6DB
 10
1058.34
 20
-496.381
 30
0.000000
  70
    32
  0
VERTEX
  8
┌▓È_1
  5
6DC
 10
1058.40
 20
-496.392
 30
0.000000
  70
    32
  0
VERTEX
  8
┌▓È_1
  5
6DD
 10
1058.46
 20
-496.404
 30
0.000000
  70
    32
  0
VERTEX
  8
┌▓È_1
  5
6DE
 10
1058.51
 20
-496.416
 30
0.000000
  70
    32
  0
VERTEX
  8
┌▓È_1
  5
6DF
 10
1058.57
 20
-496.428
 30
0.000000
  70
    32
  0
VERTEX
  8
┌▓È_1
  5
6E0
 10
1058.63
 20
-496.440
 30
0.000000
  70
    32
  0
VERTEX
  8
┌▓È_1
  5
6E1
 10
1058.68
 20
-496.452
 30
0.000000
  70
    32
  0
VERTEX
  8
┌▓È_1
  5
6E2
 10
1058.74
 20
-496.463
 30
0.000000
  70
    32
  0
VERTEX
  8
┌▓È_1
  5
6E3
 10
1058.80
 20
-496.475
 30
0.000000
  70
    32
  0
VERTEX
  8
┌▓È_1
  5
6E4
 10
1058.85
 20
-496.487
 30
0.000000
  70
    32
  0
VERTEX
  8
┌▓È_1
  5
6E5
 10
1058.91
 20
-496.499
 30
0.000000
  70
    32
  0
VERTEX
  8
┌▓È_1
  5
6E6
 10
1058.97
 20
-496.511
 30
0.000000
  70
    32
  0
VERTEX
  8
┌▓È_1
  5
6E7
 10
1059.02
 20
-496.523
 30
0.000000
  70
    32
  0
VERTEX
  8
┌▓È_1
  5
6E8
 10
1059.08
 20
-496.534
 30
0.000000
  70
    32
  0
VERTEX
  8
┌▓È_1
  5
6E9
 10
1059.14
 20
-496.546
 30
0.000000
  70
    32
  0
VERTEX
  8
┌▓È_1
  5
6EA
 10
1059.19
 20
-496.558
 30
0.000000
  70
    32
  0
VERTEX
  8
┌▓È_1
  5
6EB
 10
1059.25
 20
-496.570
 30
0.000000
  70
    32
  0
SEQEND
  8
┌▓È_1
  5
6EC
  0
LINE
  5
1F6
  8
┌▓È_1
 62
     5
 10
1120.5422936693001
 20
-389.29393451949989
 30
0.0
 11
1140.5422936693001
 21
-389.29393451949989
 31
0.0
  0
INSERT
  5
1F7
  8
0
  6
CONTINUOUS
  2
*U32
 10
0.0
 20
0.0
 30
0.0
  0
LINE
  5
1F8
  8
┌▓È_1
 62
     5
 10
1120.5422936693001
 20
-390.7939345195
 30
0.0
 11
1140.5422936693001
 21
-390.7939345195
 31
0.0
  0
INSERT
  5
1F9
  8
0
  6
CONTINUOUS
  2
*U33
 10
0.0
 20
0.0
 30
0.0
  0
INSERT
  5
1FA
  8
0
  6
CONTINUOUS
  2
*U34
 10
0.0
 20
0.0
 30
0.0
  0
INSERT
  5
1FB
  8
0
  6
CONTINUOUS
  2
*U35
 10
0.0
 20
0.0
 30
0.0
  0
INSERT
  5
1FC
  8
0
  6
CONTINUOUS
  2
*U36
 10
0.0
 20
0.0
 30
0.0
  0
INSERT
  5
1FD
  8
0
  6
CONTINUOUS
  2
*U37
 10
0.0
 20
0.0
 30
0.0
  0
INSERT
  5
1FE
  8
0
  6
CONTINUOUS
  2
*U38
 10
0.0
 20
0.0
 30
0.0
  0
INSERT
  5
1FF
  8
0
  6
CONTINUOUS
  2
*U39
 10
0.0
 20
0.0
 30
0.0
  0
LINE
  5
200
  8
┌▓È_1
 10
940.60802601439991
 20
-435.1400608342999
 30
0.0
 11
940.60802601439991
 21
-375.14006083430002
 31
0.0
  0
LINE
  5
201
  8
┌▓È_1
 10
960.60802601440002
 20
-435.1400608342999
 30
0.0
 11
960.60802601440002
 21
-375.14006083430002
 31
0.0
  0
INSERT
  5
202
  8
0
  6
CONTINUOUS
  2
*U40
 10
0.0
 20
0.0
 30
0.0
  0
INSERT
  5
203
  8
0
  6
CONTINUOUS
  2
*U41
 10
0.0
 20
0.0
 30
0.0
  0
INSERT
  5
204
  8
0
  6
CONTINUOUS
  2
*U42
 10
0.0
 20
0.0
 30
0.0
  0
INSERT
  5
205
  8
0
  6
CONTINUOUS
  2
*U43
 10
0.0
 20
0.0
 30
0.0
  0
INSERT
  5
206
  8
0
  6
CONTINUOUS
  2
*U44
 10
0.0
 20
0.0
 30
0.0
  0
LINE
  5
207
  8
┌▓È_1
 10
960.60802601440002
 20
-435.1400608342999
 30
0.0
 11
960.60802601440002
 21
-405.14006083430002
 31
0.0
  0
INSERT
  5
208
  8
0
  6
CONTINUOUS
  2
*U45
 10
0.0
 20
0.0
 30
0.0
  0
INSERT
  5
209
  8
0
  6
CONTINUOUS
  2
*U46
 10
0.0
 20
0.0
 30
0.0
  0
LINE
  5
20A
  8
┌▓È_1
 62
     5
 10
1027.9293189909999
 20
-489.56971490059988
 30
0.0
 11
1027.9293189909999
 21
-490.56971490059999
 31
0.0
  0
LINE
  5
20B
  8
┌▓È_1
 62
     5
 10
1041.2505311122
 20
-487.85815597049998
 30
0.0
 11
1041.2505311122
 21
-487.21393543549999
 31
0.0
  0
LINE
  5
20C
  8
┌▓È_1
 62
     5
 10
1074.3474251209
 20
-485.96971490060002
 30
0.0
 11
1081.6854964088
 21
-485.96971490060002
 31
0.0
  0
LINE
  5
20D
  8
┌▓È_1
 62
     5
 10
1074.3474251209
 20
-485.96971490060002
 30
0.0
 11
1074.0546366204001
 21
-484.95225711960001
 31
0.0
  0
LINE
  5
20E
  8
┌▓È_1
 62
     5
 10
1070.2081630754001
 20
-491.1697149005999
 30
0.0
 11
1069.7388297421001
 21
-489.56971490059988
 31
0.0
  0
LINE
  5
20F
  8
┌▓È_1
 62
     5
 10
1054.9759698164
 20
-492.26797731850002
 30
0.0
 11
1054.6197656968
 21
-492.61673360690003
 31
0.0
  0
LINE
  5
210
  8
┌▓È_1
 62
     5
 10
1057.2505311122
 20
-485.56971490059988
 30
0.0
 11
1059.2505311122
 21
-482.56971490059999
 31
0.0
  0
LINE
  5
211
  8
┌▓È_1
 62
     5
 10
1075.3833782792001
 20
-489.56971490059988
 30
0.0
 11
1081.6854964088
 21
-489.56971490059988
 31
0.0
  0
LINE
  5
212
  8
┌▓È_1
 62
     5
 10
1050.3231560956001
 20
-489.60785671079998
 30
0.0
 11
1049.8419644829
 21
-490.13933343190001
 31
0.0
  0
ARC
  5
213
  8
┌▓È_1
 62
     5
 10
1043.6505311122
 20
-485.96971490060002
 30
0.0
 40
7.5999999999999988
 50
270.0
 51
298.08590481520002
  0
LINE
  5
214
  8
┌▓È_1
 62
     5
 10
1057.2505311122
 20
-485.56971490059988
 30
0.0
 11
1059.2505311122
 21
-482.56971490059999
 31
0.0
  0
LINE
  5
215
  8
┌▓È_1
 62
     5
 10
1067.6854964088
 20
-482.56971490059999
 30
0.0
 11
1075.6854964088
 21
-482.56971490059999
 31
0.0
  0
LINE
  5
216
  8
┌▓È_1
 62
     5
 10
1081.6854964088
 20
-491.1697149005999
 30
0.0
 11
1081.6854964088
 21
-494.76971490059998
 31
0.0
  0
LINE
  5
217
  8
┌▓È_1
 62
     5
 10
1059.2505311122
 20
-493.56971490059988
 30
0.0
 11
1059.2505311122
 21
-496.56971490059999
 31
0.0
  0
ARC
  5
218
  8
┌▓È_1
 62
     5
 10
1043.6505311122
 20
-485.96971490060002
 30
0.0
 40
7.5999999999999988
 50
331.39928138329998
 51
358.49204224580001
  0
ARC
  5
219
  8
┌▓È_1
 62
     5
 10
1046.2505311122
 20
-485.56971490059988
 30
0.0
 40
11.0
 50
270.0
 51
302.54495885400001
  0
LINE
  5
21A
  8
┌▓È_1
 62
     5
 10
1063.6854964088
 20
-491.1697149005999
 30
0.0
 11
1070.2081630754001
 21
-491.1697149005999
 31
0.0
  0
LINE
  5
21B
  8
┌▓È_1
 62
     5
 10
1075.8438019051
 20
-491.1697149005999
 30
0.0
 11
1075.3833782792001
 21
-489.56971490059988
 31
0.0
  0
LINE
  5
21C
  8
┌▓È_1
 62
     5
 10
1072.0854964088001
 20
-497.56971490059988
 30
0.0
 11
1071.2641630753999
 21
-494.76971490059998
 31
0.0
  0
LINE
  5
21D
  8
┌▓È_1
 62
     5
 10
1081.6854964088
 20
-485.96971490060002
 30
0.0
 11
1081.6854964088
 21
-489.56971490059988
 31
0.0
  0
LINE
  5
21E
  8
┌▓È_1
 62
     5
 10
1063.6854964088
 20
-489.56971490059988
 30
0.0
 11
1069.7388297421001
 21
-489.56971490059988
 31
0.0
  0
LINE
  5
21F
  8
┌▓È_1
 62
     5
 10
1063.6854964088
 20
-491.1697149005999
 30
0.0
 11
1063.6854964088
 21
-494.76971490059998
 31
0.0
  0
LINE
  5
220
  8
┌▓È_1
 62
     5
 10
1063.6854964088
 20
-485.96971490060002
 30
0.0
 11
1068.6828297421
 21
-485.96971490060002
 31
0.0
  0
LINE
  5
221
  8
┌▓È_1
 62
     5
 10
1074.0546366204001
 20
-484.95225711960001
 30
0.0
 11
1075.6854964088
 21
-482.56971490059999
 31
0.0
  0
INSERT
  5
222
  8
0
  6
CONTINUOUS
  2
*U47
 10
0.0
 20
0.0
 30
0.0
  0
INSERT
  5
223
  8
0
  6
CONTINUOUS
  2
*U48
 10
0.0
 20
0.0
 30
0.0
  0
INSERT
  5
224
  8
0
  6
CONTINUOUS
  2
*U49
 10
0.0
 20
0.0
 30
0.0
  0
INSERT
  5
225
  8
0
  6
CONTINUOUS
  2
*U50
 10
0.0
 20
0.0
 30
0.0
  0
INSERT
  5
226
  8
0
  6
CONTINUOUS
  2
*U51
 10
0.0
 20
0.0
 30
0.0
  0
INSERT
  5
227
  8
0
  6
CONTINUOUS
  2
*U52
 10
0.0
 20
0.0
 30
0.0
  0
INSERT
  5
228
  8
0
  6
CONTINUOUS
  2
*U53
 10
0.0
 20
0.0
 30
0.0
  0
LINE
  5
229
  8
┌▓È_1
 10
1064.6080260143999
 20
-435.1400608342999
 30
0.0
 11
1064.6080260143999
 21
-375.14006083430002
 31
0.0
  0
LINE
  5
22A
  8
┌▓È_1
 10
1168.6080260143999
 20
-435.1400608342999
 30
0.0
 11
1168.6080260143999
 21
-375.14006083430002
 31
0.0
  0
LINE
  5
22B
  8
┌▓È_1
 10
1192.6080260143999
 20
-435.1400608342999
 30
0.0
 11
1192.6080260143999
 21
-375.14006083430002
 31
0.0
  0
INSERT
  5
22C
  8
0
  6
CONTINUOUS
  2
*U54
 10
0.0
 20
0.0
 30
0.0
  0
INSERT
  5
22D
  8
0
  6
CONTINUOUS
  2
*U55
 10
0.0
 20
0.0
 30
0.0
  0
INSERT
  5
22E
  8
0
  6
CONTINUOUS
  2
*U56
 10
0.0
 20
0.0
 30
0.0
  0
INSERT
  5
22F
  8
0
  6
CONTINUOUS
  2
*U57
 10
0.0
 20
0.0
 30
0.0
  0
LINE
  5
230
  8
┌▓È_1
 10
1060.6080260143999
 20
-446.14006083430002
 30
0.0
 11
1100.6080260143999
 21
-446.14006083430002
 31
0.0
  0
LINE
  5
231
  8
┌▓È_1
 10
1100.6080260143999
 20
-457.14006083430002
 30
0.0
 11
1240.6080260143999
 21
-457.14006083430002
 31
0.0
  0
LINE
  5
232
  8
┌▓È_1
 62
     5
 10
1077.6854964088
 20
-497.56971490059988
 30
0.0
 11
1072.0854964088001
 21
-497.56971490059988
 31
0.0
  0
LINE
  5
233
  8
┌▓È_1
 62
     5
 10
1049.2505311122
 20
-487.21393543549999
 30
0.0
 11
1048.1191602623001
 21
-488.3453062854
 31
0.0
  0
LINE
  5
234
  8
┌▓È_1
 62
     5
 10
1240.6080260143999
 20
-501.14006083430002
 30
0.0
 11
1240.6080260143999
 21
-435.1400608342999
 31
0.0
  0
LINE
  5
235
  8
┌▓È_1
 62
     5
 10
1077.6854964088
 20
-497.56971490059988
 30
0.0
 11
1076.8797550633999
 21
-494.76971490059998
 31
0.0
  0
LINE
  5
236
  8
┌▓È_1
 62
     5
 10
1075.8438019051
 20
-491.1697149005999
 30
0.0
 11
1081.6854964088
 21
-491.1697149005999
 31
0.0
  0
ARC
  5
237
  8
┌▓È_1
 62
     5
 10
1046.2505311122
 20
-485.56971490059988
 30
0.0
 40
11.0
 50
322.48761197969998
 51
0.0
  0
LINE
  5
238
  8
┌▓È_1
 62
     5
 10
1063.6854964088
 20
-494.76971490059998
 30
0.0
 11
1071.2641630753999
 21
-494.76971490059998
 31
0.0
  0
LINE
  5
239
  8
┌▓È_1
 10
1100.6080260143999
 20
-435.1400608342999
 30
0.0
 11
1100.6080260143999
 21
-501.14006083430002
 31
0.0
  0
LINE
  5
23A
  8
┌▓È_1
 10
1060.6080260143999
 20
-435.1400608342999
 30
0.0
 11
1060.6080260143999
 21
-479.14006083430002
 31
0.0
  0
LINE
  5
23B
  8
┌▓È_1
 62
     5
 10
1063.6854964088
 20
-485.96971490060002
 30
0.0
 11
1063.6854964088
 21
-489.56971490059988
 31
0.0
  0
LINE
  5
23C
  8
┌▓È_1
 62
     5
 10
1076.8797550633999
 20
-494.76971490059998
 30
0.0
 11
1081.6854964088
 21
-494.76971490059998
 31
0.0
  0
LINE
  5
23D
  8
┌▓È_1
 62
     5
 10
1068.6828297421
 20
-485.96971490060002
 30
0.0
 11
1067.6854964088
 21
-482.56971490059999
 31
0.0
  0
LINE
  5
23E
  8
┌▓È_1
 62
     5
 10
1043.3736107540999
 20
-22.871462079699999
 30
0.0
 11
1043.3736107540999
 21
-29.871253457200002
 31
0.0
  0
LINE
  5
23F
  8
┌▓È_1
 62
     5
 10
955.37361075410001
 20
-28.3714600542
 30
0.0
 11
1043.3736107540999
 21
-28.3714600542
 31
0.0
  0
LINE
  5
240
  8
┌▓È_1
 62
     5
 10
950.37361075410001
 20
-20.871253457200002
 30
0.0
 11
955.37361075410001
 21
-20.871253457200002
 31
0.0
  0
ARC
  5
241
  8
┌▓È_1
 62
     5
 10
950.37361075410001
 20
-21.871253457200002
 30
0.0
 40
1.0
 50
90.0
 51
180.0
  0
ARC
  5
242
  8
┌▓È_1
 62
     5
 10
950.37361075410001
 20
-209.8712534572
 30
0.0
 40
1.0
 50
180.0
 51
270.0
  0
LINE
  5
243
  8
┌▓È_1
 62
     5
 10
950.37361075410001
 20
-210.8712534572
 30
0.0
 11
955.37361075410001
 21
-210.8712534572
 31
0.0
  0
LINE
  5
244
  8
┌▓È_1
 62
     5
 10
955.37361075410001
 20
-203.37146005459999
 30
0.0
 11
1043.3736107540999
 21
-203.37146005459999
 31
0.0
  0
LINE
  5
245
  8
┌▓È_1
 62
     5
 10
948.37370590570004
 20
-104.3712534572
 30
0.0
 11
948.37370590570004
 21
-127.3712534572
 31
0.0
  0
LINE
  5
246
  8
┌▓È_1
 62
     5
 10
948.37370590570004
 20
-104.3712534572
 30
0.0
 11
946.37370590570015
 21
-106.3712534572
 31
0.0
  0
LINE
  5
247
  8
┌▓È_1
 62
     5
 10
948.37370590570004
 20
-127.3712534572
 30
0.0
 11
949.37370590570004
 21
-127.3712534572
 31
0.0
  0
LINE
  5
248
  8
┌▓È_1
 62
     5
 10
946.37370590570015
 20
-115.8712534572
 30
0.0
 11
946.37370590570015
 21
-125.3712534572
 31
0.0
  0
LINE
  5
249
  8
┌▓È_1
 62
     5
 10
949.37370590570004
 20
-104.3712534572
 30
0.0
 11
948.37370590570004
 21
-104.3712534572
 31
0.0
  0
LINE
  5
24A
  8
┌▓È_1
 62
     5
 10
1044.3736107540999
 20
-201.8712534572
 30
0.0
 11
1044.3736107540999
 21
-208.8714620801
 31
0.0
  0
LINE
  5
24B
  8
┌▓È_1
 62
     5
 10
1043.3736107540999
 20
-201.8712534572
 30
0.0
 11
1043.3736107540999
 21
-208.8714620801
 31
0.0
  0
LINE
  5
24C
  8
┌▓È_1
 62
     5
 10
946.37370590570015
 20
-106.3712534572
 30
0.0
 11
946.37370590570015
 21
-115.8712534572
 31
0.0
  0
LINE
  5
24D
  8
┌▓È_1
 62
     5
 10
946.37370590570015
 20
-125.3712534572
 30
0.0
 11
948.37370590570004
 21
-127.3712534572
 31
0.0
  0
LINE
  5
24E
  8
┌▓È_1
 62
     5
 10
1044.3736107540999
 20
-208.8714620801
 30
0.0
 11
1043.3736107540999
 21
-208.8714620801
 31
0.0
  0
INSERT
  5
250
  8
Éíû@É³
  2
BALLON4
 10
364.7877440776565
 20
121.8145883935258
 30
0.0
  0
INSERT
  5
259
  8
0
  6
CONTINUOUS
  2
*U59
 10
0.0
 20
0.0
 30
0.0
  0
INSERT
  5
25A
  8
0
  6
CONTINUOUS
  2
*U60
 10
0.0
 20
0.0
 30
0.0
  0
INSERT
  5
25B
  8
0
  6
CONTINUOUS
  2
*U61
 10
0.0
 20
0.0
 30
0.0
  0
INSERT
  5
25C
  8
0
  6
CONTINUOUS
  2
*U62
 10
0.0
 20
0.0
 30
0.0
  0
INSERT
  5
25D
  8
0
  6
CONTINUOUS
  2
*U63
 10
0.0
 20
0.0
 30
0.0
  0
INSERT
  5
25E
  8
0
  6
CONTINUOUS
  2
*U64
 10
0.0
 20
0.0
 30
0.0
  0
INSERT
  5
25F
  8
0
  6
CONTINUOUS
  2
*U65
 10
0.0
 20
0.0
 30
0.0
  0
INSERT
  5
260
  8
0
  6
CONTINUOUS
  2
*U66
 10
0.0
 20
0.0
 30
0.0
  0
LINE
  5
261
  8
┌▓È_1
 62
     5
 10
1060.6080260143999
 20
28.859939165699998
 30
0.0
 11
1060.6080260143999
 21
58.859939165699998
 31
0.0
  0
LINE
  5
262
  8
┌▓È_1
 62
     5
 10
1080.6080260143999
 20
28.859939165699998
 30
0.0
 11
1080.6080260143999
 21
58.859939165699998
 31
0.0
  0
INSERT
  5
263
  8
0
  6
CONTINUOUS
  2
*U67
 10
0.0
 20
0.0
 30
0.0
  0
INSERT
  5
264
  8
0
  6
CONTINUOUS
  2
*U68
 10
0.0
 20
0.0
 30
0.0
  0
LINE
  5
265
  8
┌▓È_1
 62
     5
 10
1120.6080260143999
 20
28.859939165699998
 30
0.0
 11
1120.6080260143999
 21
58.859939165699998
 31
0.0
  0
LINE
  5
266
  8
┌▓È_1
 62
     5
 10
1060.6080260143999
 20
48.859939165699998
 30
0.0
 11
1240.6080260143999
 21
48.859939165699998
 31
0.0
  0
LINE
  5
267
  8
┌▓È_1
 62
     5
 10
1060.6080260143999
 20
38.859939165699998
 30
0.0
 11
1240.6080260143999
 21
38.859939165699998
 31
0.0
  0
LINE
  5
268
  8
┌▓È_1
 62
     5
 10
1060.6080260143999
 20
28.859939165699998
 30
0.0
 11
1240.6080260143999
 21
28.859939165699998
 31
0.0
  0
INSERT
  5
269
  8
0
  6
CONTINUOUS
  2
*U69
 10
0.0
 20
0.0
 30
0.0
  0
INSERT
  5
26A
  8
0
  6
CONTINUOUS
  2
*U70
 10
0.0
 20
0.0
 30
0.0
  0
LINE
  5
26B
  8
┌▓È_1
 62
     5
 10
1120.6080260143999
 20
28.859939165699998
 30
0.0
 11
1120.6080260143999
 21
58.859939165699998
 31
0.0
  0
LINE
  5
26C
  8
┌▓È_1
 62
     5
 10
1065.0894552422999
 20
29.821522667699998
 30
0.0
 11
1074.9894552423
 21
29.821522667699998
 31
0.0
  0
LINE
  5
26D
  8
┌▓È_1
 62
     5
 10
1070.0394552422999
 20
38.395174165100002
 30
0.0
 11
1074.9894552423
 21
29.821522667699998
 31
0.0
  0
LINE
  5
26E
  8
┌▓È_1
 62
     5
 10
1070.0394552422999
 20
38.395174165100002
 30
0.0
 11
1065.0894552422999
 21
29.821522667699998
 31
0.0
  0
LINE
  5
26F
  8
┌▓È_1
 62
     5
 10
1070.0394552422999
 20
48.295174165100001
 30
0.0
 11
1065.0894552422999
 21
39.7215226677
 31
0.0
  0
LINE
  5
270
  8
┌▓È_1
 62
     5
 10
1070.0394552422999
 20
48.295174165100001
 30
0.0
 11
1074.9894552423
 21
39.7215226677
 31
0.0
  0
LINE
  5
271
  8
┌▓È_1
 62
     5
 10
1065.0894552422999
 20
39.7215226677
 30
0.0
 11
1074.9894552423
 21
39.7215226677
 31
0.0
  0
LINE
  5
272
  8
┌▓È_1
 62
     5
 10
1065.0894552422999
 20
49.621522667700013
 30
0.0
 11
1074.9894552423
 21
49.621522667700013
 31
0.0
  0
LINE
  5
273
  8
┌▓È_1
 62
     5
 10
1070.0394552422999
 20
58.195174165099999
 30
0.0
 11
1074.9894552423
 21
49.621522667700013
 31
0.0
  0
LINE
  5
274
  8
┌▓È_1
 62
     5
 10
1070.0394552422999
 20
58.195174165099999
 30
0.0
 11
1065.0894552422999
 21
49.621522667700013
 31
0.0
  0
DIMENSION
  5
283
  8
Éíû@É³
  2
*D16
 10
955.37361075410001
 20
-0.8712534572
 30
0.0
 11
952.3736107540999
 21
-0.8712534572
 31
0.0
 70
   128
  1
<>
 13
955.37361075410001
 23
-20.871253457200002
 33
0.0
 14
949.37361075410001
 24
-21.871253457200002
 34
0.0
  0
DIMENSION
  5
292
  8
Éíû@É³
  2
*D17
 10
1044.3736107540999
 20
15.8079349725
 30
0.0
 11
996.8736107540999
 21
15.8079349725
 31
0.0
 70
   128
  1
<>
 13
1044.3736107540999
 23
-22.871462079699999
 33
0.0
 14
949.37361075410001
 24
-21.871253457200002
 34
0.0
  0
LINE
  5
293
  8
┌▓È_1
 62
     5
 10
1044.3736107540999
 20
-22.871462079699999
 30
0.0
 11
1044.3736107540999
 21
-29.871253457200002
 31
0.0
  0
LINE
  5
294
  8
┌▓È_1
 62
     5
 10
1044.3736107540999
 20
-22.871462079699999
 30
0.0
 11
1043.3736107540999
 21
-22.871462079699999
 31
0.0
  0
ENDSEC
  0
EOF
