  0
SECTION
  2
HEADER
  9
$ACADVER
  1
AC1009
  9
$INSBASE
 10
0.0
 20
0.0
 30
0.0
  9
$EXTMIN
 10
427.04529150309992
 20
-590.6607675742232
 30
0.0
  9
$EXTMAX
 10
1310.2648351918031
 20
67.833360429300001
 30
0.0
  9
$LIMMIN
 10
0.0
 20
0.0
  9
$LIMMAX
 10
0.0
 20
0.0
  9
$ORTHOMODE
 70
     0
  9
$REGENMODE
 70
     1
  9
$FILLMODE
 70
     1
  9
$QTEXTMODE
 70
     0
  9
$MIRRTEXT
 70
     1
  9
$DRAGMODE
 70
     2
  9
$LTSCALE
 40
1.0
  9
$OSMODE
 70
    31
  9
$ATTMODE
 70
     1
  9
$TEXTSIZE
 40
0.0
  9
$TRACEWID
 40
0.05
  9
$TEXTSTYLE
  7
STANDARD
  9
$CLAYER
  8
0
  9
$CELTYPE
  6
CONTINUOUS
  9
$CECOLOR
 62
   256
  9
$DIMSCALE
 40
1.0
  9
$DIMASZ
 40
0.18
  9
$DIMEXO
 40
0.0625
  9
$DIMDLI
 40
0.38
  9
$DIMRND
 40
0.0
  9
$DIMDLE
 40
0.0
  9
$DIMEXE
 40
0.18
  9
$DIMTP
 40
0.0
  9
$DIMTM
 40
0.0
  9
$DIMTXT
 40
0.18
  9
$DIMCEN
 40
0.09
  9
$DIMTSZ
 40
0.0
  9
$DIMTOL
 70
     0
  9
$DIMLIM
 70
     0
  9
$DIMTIH
 70
     1
  9
$DIMTOH
 70
     1
  9
$DIMSE1
 70
     0
  9
$DIMSE2
 70
     0
  9
$DIMTAD
 70
     0
  9
$DIMZIN
 70
     0
  9
$DIMBLK
  1

  9
$DIMASO
 70
     1
  9
$DIMSHO
 70
     1
  9
$DIMPOST
  1

  9
$DIMAPOST
  1

  9
$DIMALT
 70
     0
  9
$DIMALTD
 70
     2
  9
$DIMALTF
 40
25.399999999999999
  9
$DIMLFAC
 40
1.0
  9
$DIMTOFL
 70
     0
  9
$DIMTVP
 40
0.0
  9
$DIMTIX
 70
     0
  9
$DIMSOXD
 70
     0
  9
$DIMSAH
 70
     0
  9
$DIMBLK1
  1

  9
$DIMBLK2
  1

  9
$DIMSTYLE
  2
STANDARD
  9
$DIMCLRD
 70
     0
  9
$DIMCLRE
 70
     0
  9
$DIMCLRT
 70
     0
  9
$DIMTFAC
 40
1.0
  9
$DIMGAP
 40
0.09
  9
$LUNITS
 70
     2
  9
$LUPREC
 70
     4
  9
$SKETCHINC
 40
0.1
  9
$FILLETRAD
 40
0.0
  9
$AUNITS
 70
     0
  9
$AUPREC
 70
     0
  9
$MENU
  1
acad
  9
$ELEVATION
 40
0.0
  9
$PELEVATION
 40
0.0
  9
$THICKNESS
 40
0.0
  9
$LIMCHECK
 70
     0
  9
$BLIPMODE
 70
     0
  9
$CHAMFERA
 40
0.0
  9
$CHAMFERB
 40
0.0
  9
$SKPOLY
 70
     0
  9
$TDCREATE
 40
2454860.6773303589
  9
$TDUPDATE
 40
2454860.67752206
  9
$TDINDWG
 40
0.0002115856
  9
$TDUSRTIMER
 40
0.0002112269
  9
$USRTIMER
 70
     1
  9
$ANGBASE
 50
0.0
  9
$ANGDIR
 70
     0
  9
$PDMODE
 70
     3
  9
$PDSIZE
 40
-1.0
  9
$PLINEWID
 40
0.0
  9
$COORDS
 70
     2
  9
$SPLFRAME
 70
     0
  9
$SPLINETYPE
 70
     6
  9
$SPLINESEGS
 70
     8
  9
$ATTDIA
 70
     0
  9
$ATTREQ
 70
     1
  9
$HANDLING
 70
     1
  9
$HANDSEED
  5
E2B
  9
$SURFTAB1
 70
     6
  9
$SURFTAB2
 70
     6
  9
$SURFTYPE
 70
     6
  9
$SURFU
 70
     6
  9
$SURFV
 70
     6
  9
$UCSNAME
  2

  9
$UCSORG
 10
0.0
 20
0.0
 30
0.0
  9
$UCSXDIR
 10
1.0
 20
0.0
 30
0.0
  9
$UCSYDIR
 10
0.0
 20
1.0
 30
0.0
  9
$PUCSNAME
  2

  9
$PUCSORG
 10
0.0
 20
0.0
 30
0.0
  9
$PUCSXDIR
 10
1.0
 20
0.0
 30
0.0
  9
$PUCSYDIR
 10
0.0
 20
1.0
 30
0.0
  9
$USERI1
 70
     0
  9
$USERI2
 70
     0
  9
$USERI3
 70
     0
  9
$USERI4
 70
     0
  9
$USERI5
 70
     0
  9
$USERR1
 40
0.0
  9
$USERR2
 40
0.0
  9
$USERR3
 40
0.0
  9
$USERR4
 40
0.0
  9
$USERR5
 40
0.0
  9
$WORLDVIEW
 70
     1
  9
$SHADEDGE
 70
     3
  9
$SHADEDIF
 70
    70
  9
$TILEMODE
 70
     1
  9
$MAXACTVP
 70
    16
  9
$PLIMCHECK
 70
     0
  9
$PEXTMIN
 10
1.0000000000000000E+020
 20
1.0000000000000000E+020
 30
1.0000000000000000E+020
  9
$PEXTMAX
 10
-1.0000000000000000E+020
 20
-1.0000000000000000E+020
 30
-1.0000000000000000E+020
  9
$PLIMMIN
 10
0.0
 20
0.0
  9
$PLIMMAX
 10
12.0
 20
9.0
  9
$UNITMODE
 70
     0
  9
$VISRETAIN
 70
     0
  9
$PLINEGEN
 70
     1
  9
$PSLTSCALE
 70
     0
  0
ENDSEC
  0
SECTION
  2
TABLES
  0
TABLE
  2
VPORT
 70
     2
  0
VPORT
  2
*ACTIVE
 70
     0
 10
0.0
 20
0.0
 11
1.0
 21
1.0
 12
868.65506334745135
 22
-261.4137035724616
 13
0.0
 23
0.0
 14
1.0
 24
1.0
 15
0.0
 25
0.0
 16
0.0
 26
0.0
 36
1.0
 17
0.0
 27
0.0
 37
0.0
 40
663.95880956371855
 41
1.6343490304709141
 42
50.0
 43
0.0
 44
0.0
 50
0.0
 51
0.0
 71
     0
 72
   100
 73
     1
 74
     1
 75
     0
 76
     0
 77
     0
 78
     0
  0
ENDTAB
  0
TABLE
  2
LTYPE
 70
    11
  0
LTYPE
  2
CONTINUOUS
 70
     0
  3
Solid line
 72
    65
 73
     0
 40
0.0
  0
LTYPE
  2
DOT
 70
     0
  3
. . . . . . . . 
 72
    65
 73
     2
 40
1.0
 49
0.0
 49
-1.0
  0
LTYPE
  2
DASHED
 70
     0
  3
___  ___  ___  ___  
 72
    65
 73
     2
 40
4.0
 49
3.0
 49
-1.0
  0
LTYPE
  2
HIDDEN
 70
     0
  3
__ __ __ __ 
 72
    65
 73
     2
 40
3.0
 49
2.0
 49
-1.0
  0
LTYPE
  2
STITCH
 70
     0
  3
_ _ _ _ 
 72
    65
 73
     2
 40
2.0
 49
1.0
 49
-1.0
  0
LTYPE
  2
CENTER
 70
     0
  3
______  __  ______  __  
 72
    65
 73
     4
 40
43.0
 49
40.0
 49
-1.0
 49
1.0
 49
-1.0
  0
LTYPE
  2
DASHDOT
 70
     0
  3
____ . ____ . 
 72
    65
 73
     4
 40
32.0
 49
30.0
 49
-1.0
 49
0.0
 49
-1.0
  0
LTYPE
  2
BORDER
 70
     0
  3
__ . __ . 
 72
    65
 73
     4
 40
22.0
 49
20.0
 49
-1.0
 49
0.0
 49
-1.0
  0
LTYPE
  2
CUTTING
 70
     0
  3
________   ___   ___   
 72
    65
 73
     6
 40
45.0
 49
40.0
 49
-1.0
 49
1.0
 49
-1.0
 49
1.0
 49
-1.0
  0
LTYPE
  2
PHANTOM
 70
     0
  3
______  __  __  
 72
    65
 73
     6
 40
35.0
 49
30.0
 49
-1.0
 49
1.0
 49
-1.0
 49
1.0
 49
-1.0
  0
LTYPE
  2
DIVIDE
 70
     0
  3
____ . . ____ . . 
 72
    65
 73
     6
 40
23.0
 49
20.0
 49
-1.0
 49
0.0
 49
-1.0
 49
0.0
 49
-1.0
  0
ENDTAB
  0
TABLE
  2
LAYER
 70
     5
  0
LAYER
  2
0
 70
     0
 62
     7
  6
CONTINUOUS
  0
LAYER
  2
┌▓È_1
 70
     0
 62
     7
  6
CONTINUOUS
  0
LAYER
  2
Éíû@É³
 70
     0
 62
     7
  6
CONTINUOUS
  0
LAYER
  2
É}ÿg
 70
     0
 62
     7
  6
CONTINUOUS
  0
LAYER
  2
ë³Æ¨
 70
     0
 62
     7
  6
CONTINUOUS
  0
ENDTAB
  0
TABLE
  2
STYLE
 70
     1
  0
STYLE
  2
STANDARD
 70
     0
 40
0.0
 41
1.0
 50
0.0
 71
     0
 42
0.0
  3
txt
  4
extfont
  0
ENDTAB
  0
TABLE
  2
VIEW
 70
     0
  0
ENDTAB
  0
TABLE
  2
UCS
 70
     0
  0
ENDTAB
  0
TABLE
  2
APPID
 70
     2
  0
APPID
  2
ACAD
 70
     0
  0
APPID
  2
DCO15
 70
     0
  0
ENDTAB
  0
TABLE
  2
DIMSTYLE
 70
     4
  0
DIMSTYLE
  2
STANDARD
 70
     0
  3

  4

  5

  6

  7

 40
1.0
 41
0.18
 42
0.0625
 43
0.38
 44
0.18
 45
0.0
 46
0.0
 47
0.0
 48
0.0
140
0.18
141
0.09
142
0.0
143
25.399999999999999
144
1.0
145
0.0
146
1.0
147
0.09
 71
     0
 72
     0
 73
     1
 74
     1
 75
     0
 76
     0
 77
     0
 78
     0
170
     0
171
     2
172
     0
173
     0
174
     0
175
     0
176
     0
177
     0
178
     0
  0
DIMSTYLE
  2
VELDIM0
 70
     0
  3

  4

  5

  6

  7

 40
1.0
 41
6.0
 42
0.0625
 43
0.38
 44
0.5
 45
0.0
 46
3.0
 47
0.0
 48
0.0
140
5.9972220420999998
141
0.09
142
0.0
143
25.399999999999999
144
1.0
145
0.0
146
1.0
147
0.09
 71
     0
 72
     0
 73
     0
 74
     0
 75
     0
 76
     0
 77
     0
 78
     8
170
     0
171
     2
172
     0
173
     0
174
     0
175
     0
176
     0
177
     0
178
     0
  0
DIMSTYLE
  2
VELDIM1
 70
     0
  3

  4

  5

  6

  7

 40
1.0
 41
6.0
 42
0.0625
 43
0.38
 44
1.0
 45
0.0
 46
6.0
 47
0.0
 48
0.0
140
5.9972220420999998
141
0.09
142
0.0
143
25.399999999999999
144
1.0
145
0.0
146
1.0
147
0.09
 71
     0
 72
     0
 73
     0
 74
     0
 75
     0
 76
     0
 77
     0
 78
     8
170
     0
171
     2
172
     0
173
     0
174
     0
175
     0
176
     0
177
     0
178
     0
  0
DIMSTYLE
  2
VELDIM2
 70
     0
  3

  4

  5

  6

  7

 40
1.0
 41
6.0
 42
0.0625
 43
0.38
 44
1.25
 45
0.0
 46
5.0
 47
0.0
 48
0.0
140
5.9972220420999998
141
0.09
142
0.0
143
25.399999999999999
144
1.0
145
0.0
146
1.0
147
0.09
 71
     0
 72
     0
 73
     0
 74
     0
 75
     0
 76
     0
 77
     0
 78
     8
170
     0
171
     2
172
     0
173
     0
174
     0
175
     0
176
     0
177
     0
178
     0
  0
ENDTAB
  0
ENDSEC
  0
SECTION
  2
BLOCKS
  0
BLOCK
  8
0
  2
$MODEL_SPACE
 70
     0
 10
0.0
 20
0.0
 30
0.0
  3
$MODEL_SPACE
  1

  0
ENDBLK
  5
E
  8
0
  0
BLOCK
 67
     1
  8
0
  2
$PAPER_SPACE
 70
     0
 10
0.0
 20
0.0
 30
0.0
  3
$PAPER_SPACE
  1

  0
ENDBLK
  5
10
 67
     1
  8
0
  0
BLOCK
  8
0
  2
*D0
 70
     1
 10
0.0
 20
0.0
 30
0.0
  3
*D0
  1

  0
TEXT
  5
FB
  8
0
 62
     0
 10
964.68617067000014
 20
14.733437609699999
 30
0.0
 40
5.9972220420999998
  1
95
  0
LINE
  5
FC
  8
0
 62
     0
 10
1019.0391129593
 20
-21.622415931599999
 30
0.0
 11
1019.0391129593
 21
13.1751043081
 31
0.0
  0
LINE
  5
FD
  8
0
 62
     0
 10
924.03911295930004
 20
-20.1224160039
 30
0.0
 11
924.03911295930004
 21
13.1751043081
 31
0.0
  0
LINE
  5
FE
  8
0
 62
     0
 10
1019.0391129593
 20
12.6751043081
 30
0.0
 11
975.26950368539985
 21
12.6751043081
 31
0.0
  0
LINE
  5
FF
  8
0
 62
     0
 10
1019.0391129593
 20
12.6751043081
 30
0.0
 11
961.15839299820004
 21
12.6751043081
 31
0.0
  0
LINE
  5
100
  8
0
 62
     0
 10
924.03911295930004
 20
12.6751043081
 30
0.0
 11
975.26950368539985
 21
12.6751043081
 31
0.0
  0
LINE
  5
101
  8
0
 62
     0
 10
924.03911295930004
 20
12.6751043081
 30
0.0
 11
961.15839299820004
 21
12.6751043081
 31
0.0
  0
LINE
  5
102
  8
0
 62
     0
 10
924.03911295930004
 20
12.6751043081
 30
0.0
 11
927.03911295929993
 21
12.6751043081
 31
0.0
  0
SOLID
  5
103
  8
0
 62
     0
 10
924.03911295930004
 20
12.6751043081
 30
0.0
 11
930.03911295929981
 21
14.1751043081
 31
0.0
 12
930.03911295929981
 22
11.1751043081
 32
0.0
 13
928.53911295930004
 23
12.6751043081
 33
0.0
  0
LINE
  5
104
  8
0
 62
     0
 10
1019.0391129593
 20
12.6751043081
 30
0.0
 11
1016.0391129593
 21
12.6751043081
 31
0.0
  0
SOLID
  5
105
  8
0
 62
     0
 10
1019.0391129593
 20
12.6751043081
 30
0.0
 11
1013.0391129593
 21
11.1751043081
 31
0.0
 12
1013.0391129593
 22
14.1751043081
 32
0.0
 13
1014.5391129593
 23
12.6751043081
 33
0.0
  0
ENDBLK
  5
106
  8
0
  0
BLOCK
  8
0
  2
*D1
 70
     1
 10
0.0
 20
0.0
 30
0.0
  3
*D1
  1

  0
TEXT
  5
10B
  8
0
 62
     0
 10
925.27522412339999
 20
2.8867977101999989
 30
0.0
 40
5.9972220420999998
  1
6
  0
LINE
  5
10C
  8
0
 62
     0
 10
930.03911295929981
 20
-19.1224160039
 30
0.0
 11
930.03911295929981
 21
1.3284644086999999
 31
0.0
  0
LINE
  5
10D
  8
0
 62
     0
 10
924.03911295930004
 20
-20.1224160039
 30
0.0
 11
924.03911295930004
 21
1.3284644086999999
 31
0.0
  0
LINE
  5
10E
  8
0
 62
     0
 10
930.03911295929981
 20
0.8284644087
 30
0.0
 11
930.03911295929981
 21
0.8284644087
 31
0.0
  0
LINE
  5
10F
  8
0
 62
     0
 10
930.03911295929981
 20
0.8284644087
 30
0.0
 11
924.03911295930004
 21
0.8284644087
 31
0.0
  0
LINE
  5
110
  8
0
 62
     0
 10
924.03911295930004
 20
0.8284644087
 30
0.0
 11
930.03911295929981
 21
0.8284644087
 31
0.0
  0
LINE
  5
111
  8
0
 62
     0
 10
924.03911295930004
 20
0.8284644087
 30
0.0
 11
924.03911295930004
 21
0.8284644087
 31
0.0
  0
LINE
  5
112
  8
0
 62
     0
 10
924.03911295930004
 20
0.8284644087
 30
0.0
 11
921.03911295929981
 21
0.8284644087
 31
0.0
  0
SOLID
  5
113
  8
0
 62
     0
 10
924.03911295930004
 20
0.8284644087
 30
0.0
 11
918.03911295929993
 21
-0.6715355913
 31
0.0
 12
918.03911295929993
 22
2.328464408699999
 32
0.0
 13
919.53911295930004
 23
0.8284644087
 33
0.0
  0
LINE
  5
114
  8
0
 62
     0
 10
930.03911295929981
 20
0.8284644087
 30
0.0
 11
933.03911295929993
 21
0.8284644087
 31
0.0
  0
SOLID
  5
115
  8
0
 62
     0
 10
930.03911295929981
 20
0.8284644087
 30
0.0
 11
936.03911295929993
 21
2.328464408699999
 31
0.0
 12
936.03911295929993
 22
-0.6715355913
 32
0.0
 13
934.53911295929981
 23
0.8284644087
 33
0.0
  0
ENDBLK
  5
116
  8
0
  0
BLOCK
  8
0
  2
*D2
 70
     1
 10
0.0
 20
0.0
 30
0.0
  3
*D2
  1

  0
TEXT
  5
18A
  8
0
 62
     0
 10
816.99469737410004
 20
-1.064082702399999
 30
0.0
 40
5.9972220420999998
  1
10
  0
LINE
  5
18B
  8
0
 62
     0
 10
825.52247504589991
 20
-22.1224160039
 30
0.0
 11
825.52247504589991
 21
-2.6224160038999988
 31
0.0
  0
LINE
  5
18C
  8
0
 62
     0
 10
815.5224750458998
 20
-32.1224160039
 30
0.0
 11
815.5224750458998
 21
-2.6224160038999988
 31
0.0
  0
LINE
  5
18D
  8
0
 62
     0
 10
825.52247504589991
 20
-3.1224160038999988
 30
0.0
 11
825.52247504589991
 21
-3.1224160038999988
 31
0.0
  0
LINE
  5
18E
  8
0
 62
     0
 10
825.52247504589991
 20
-3.1224160038999988
 30
0.0
 11
815.5224750458998
 21
-3.1224160038999988
 31
0.0
  0
LINE
  5
18F
  8
0
 62
     0
 10
815.5224750458998
 20
-3.1224160038999988
 30
0.0
 11
825.52247504589991
 21
-3.1224160038999988
 31
0.0
  0
LINE
  5
190
  8
0
 62
     0
 10
815.5224750458998
 20
-3.1224160038999988
 30
0.0
 11
815.5224750458998
 21
-3.1224160038999988
 31
0.0
  0
LINE
  5
191
  8
0
 62
     0
 10
815.5224750458998
 20
-3.1224160038999988
 30
0.0
 11
812.52247504589991
 21
-3.1224160038999988
 31
0.0
  0
SOLID
  5
192
  8
0
 62
     0
 10
815.5224750458998
 20
-3.1224160038999988
 30
0.0
 11
809.52247504589991
 21
-4.6224160038999988
 31
0.0
 12
809.52247504589991
 22
-1.6224160038999991
 32
0.0
 13
811.0224750458998
 23
-3.1224160038999988
 33
0.0
  0
LINE
  5
193
  8
0
 62
     0
 10
825.52247504589991
 20
-3.1224160038999988
 30
0.0
 11
828.52247504589991
 21
-3.1224160038999988
 31
0.0
  0
SOLID
  5
194
  8
0
 62
     0
 10
825.52247504589991
 20
-3.1224160038999988
 30
0.0
 11
831.5224750458998
 21
-1.6224160038999991
 31
0.0
 12
831.5224750458998
 22
-4.6224160038999988
 32
0.0
 13
830.02247504589991
 23
-3.1224160038999988
 33
0.0
  0
ENDBLK
  5
195
  8
0
  0
BLOCK
  8
0
  2
*D3
 70
     1
 10
0.0
 20
0.0
 30
0.0
  3
*D3
  1

  0
TEXT
  5
19A
  8
0
 62
     0
 10
735.80379018190001
 20
-59.306651003999988
 30
0.0
 40
5.9972220420999998
  1
42.5
 50
90.0
  0
LINE
  5
19B
  8
0
 62
     0
 10
719.86212348339996
 20
-73.501095660299995
 30
0.0
 11
739.86212348339996
 21
-73.501095660299995
 31
0.0
  0
LINE
  5
19C
  8
0
 62
     0
 10
709.02247504589991
 20
-31.001095660299999
 30
0.0
 11
739.86212348339996
 21
-31.001095660299999
 31
0.0
  0
LINE
  5
19D
  8
0
 62
     0
 10
738.86212348339996
 20
-73.501095660299995
 30
0.0
 11
738.86212348339996
 21
-41.667762644899987
 31
0.0
  0
LINE
  5
19E
  8
0
 62
     0
 10
738.86212348339996
 20
-73.501095660299995
 30
0.0
 11
738.86212348339996
 21
-62.834428675799991
 31
0.0
  0
LINE
  5
19F
  8
0
 62
     0
 10
738.86212348339996
 20
-31.001095660299999
 30
0.0
 11
738.86212348339996
 21
-41.667762644899987
 31
0.0
  0
LINE
  5
1A0
  8
0
 62
     0
 10
738.86212348339996
 20
-31.001095660299999
 30
0.0
 11
738.86212348339996
 21
-62.834428675799991
 31
0.0
  0
LINE
  5
1A1
  8
0
 62
     0
 10
738.86212348339996
 20
-31.001095660299999
 30
0.0
 11
738.86212348339996
 21
-37.001095660300003
 31
0.0
  0
SOLID
  5
1A2
  8
0
 62
     0
 10
738.86212348339996
 20
-31.001095660299999
 30
0.0
 11
740.36212348339996
 21
-37.001095660300003
 31
0.0
 12
737.36212348339996
 22
-37.001095660300003
 32
0.0
 13
738.86212348339996
 23
-35.50109566030001
 33
0.0
  0
LINE
  5
1A3
  8
0
 62
     0
 10
738.86212348339996
 20
-73.501095660299995
 30
0.0
 11
738.86212348339996
 21
-67.501095660299995
 31
0.0
  0
SOLID
  5
1A4
  8
0
 62
     0
 10
738.86212348339996
 20
-73.501095660299995
 30
0.0
 11
737.36212348339996
 21
-67.501095660299995
 31
0.0
 12
740.36212348339996
 22
-67.501095660299995
 32
0.0
 13
738.86212348339996
 23
-69.001095660299995
 33
0.0
  0
ENDBLK
  5
1A5
  8
0
  0
BLOCK
  8
0
  2
BALLON0
 70
     0
 10
0.0
 20
0.0
 30
0.0
  3
BALLON0
  1

  0
INSERT
  5
1C4
  8
0
  6
CONTINUOUS
  2
*U51
 10
0.0
 20
0.0
 30
0.0
  0
CIRCLE
  5
1C5
  8
┌▓È_1
 10
699.86774149270002
 20
-253.80574933720001
 30
0.0
 40
8.0
  0
LINE
  5
1C6
  8
Éíû@É³
 10
713.20107482610001
 20
-253.80574933720001
 30
0.0
 11
707.86774149270002
 21
-253.80574933720001
 31
0.0
  0
LINE
  5
1C7
  8
Éíû@É³
 10
736.37764955609987
 20
-313.80574933719998
 30
0.0
 11
713.20107482610001
 21
-253.80574933720001
 31
0.0
  0
SOLID
  5
1C8
  8
Éíû@É³
 10
736.37764955609987
 20
-313.80574933719998
 30
0.0
 11
732.00250192679994
 21
-306.9196703934
 31
0.0
 12
734.07154814030002
 22
-307.83566589899999
 32
0.0
 13
734.07154814030002
 23
-307.83566589899999
 33
0.0
  0
SOLID
  5
1C9
  8
Éíû@É³
 10
734.07154814030002
 20
-307.83566589899999
 30
0.0
 11
734.98754364590002
 21
-305.76661968539997
 31
0.0
 12
736.37764955609987
 22
-313.80574933719998
 32
0.0
 13
736.37764955609987
 23
-313.80574933719998
 33
0.0
  0
ENDBLK
  5
1CA
  8
0
  0
BLOCK
  8
0
  2
*D5
 70
     1
 10
0.0
 20
0.0
 30
0.0
  3
*D5
  1

  0
TEXT
  5
1D2
  8
0
 62
     0
 10
591.99469737410004
 20
-1.064082702399999
 30
0.0
 40
5.9972220420999998
  1
10
  0
LINE
  5
1D3
  8
0
 62
     0
 10
600.52247504589991
 20
-32.1224160039
 30
0.0
 11
600.52247504589991
 21
-2.6224160038999988
 31
0.0
  0
LINE
  5
1D4
  8
0
 62
     0
 10
590.52247504589991
 20
-22.1224160039
 30
0.0
 11
590.52247504589991
 21
-2.6224160038999988
 31
0.0
  0
LINE
  5
1D5
  8
0
 62
     0
 10
600.52247504589991
 20
-3.1224160038999988
 30
0.0
 11
600.52247504589991
 21
-3.1224160038999988
 31
0.0
  0
LINE
  5
1D6
  8
0
 62
     0
 10
600.52247504589991
 20
-3.1224160038999988
 30
0.0
 11
590.52247504589991
 21
-3.1224160038999988
 31
0.0
  0
LINE
  5
1D7
  8
0
 62
     0
 10
590.52247504589991
 20
-3.1224160038999988
 30
0.0
 11
600.52247504589991
 21
-3.1224160038999988
 31
0.0
  0
LINE
  5
1D8
  8
0
 62
     0
 10
590.52247504589991
 20
-3.1224160038999988
 30
0.0
 11
590.52247504589991
 21
-3.1224160038999988
 31
0.0
  0
LINE
  5
1D9
  8
0
 62
     0
 10
590.52247504589991
 20
-3.1224160038999988
 30
0.0
 11
587.52247504589991
 21
-3.1224160038999988
 31
0.0
  0
SOLID
  5
1DA
  8
0
 62
     0
 10
590.52247504589991
 20
-3.1224160038999988
 30
0.0
 11
584.5224750458998
 21
-4.6224160038999988
 31
0.0
 12
584.5224750458998
 22
-1.6224160038999991
 32
0.0
 13
586.02247504589991
 23
-3.1224160038999988
 33
0.0
  0
LINE
  5
1DB
  8
0
 62
     0
 10
600.52247504589991
 20
-3.1224160038999988
 30
0.0
 11
603.52247504589991
 21
-3.1224160038999988
 31
0.0
  0
SOLID
  5
1DC
  8
0
 62
     0
 10
600.52247504589991
 20
-3.1224160038999988
 30
0.0
 11
606.52247504589991
 21
-1.6224160038999991
 31
0.0
 12
606.52247504589991
 22
-4.6224160038999988
 32
0.0
 13
605.0224750458998
 23
-3.1224160038999988
 33
0.0
  0
ENDBLK
  5
1DD
  8
0
  0
BLOCK
  8
0
  2
*D6
 70
     1
 10
0.0
 20
0.0
 30
0.0
  3
*D6
  1

  0
TEXT
  5
1E5
  8
0
 62
     0
 10
715.6685041641
 20
-153.1050651658
 30
0.0
 40
5.9972220420999998
  1
%%c18
 50
45.0
  0
LINE
  5
1E6
  8
0
 62
     0
 10
701.65851401520001
 20
-170.60737703460001
 30
0.0
 11
727.39272708110002
 21
-144.8731639687
 31
0.0
  0
LINE
  5
1E7
  8
0
 62
     0
 10
701.65851401520001
 20
-170.60737703460001
 30
0.0
 11
714.38643607660003
 21
-157.87945497320001
 31
0.0
  0
SOLID
  5
1E8
  8
0
 62
     0
 10
701.65851401520001
 20
-170.60737703460001
 30
0.0
 11
704.84049453059993
 21
-165.3040761757
 31
0.0
 12
706.96181487410001
 22
-167.42539651920001
 32
0.0
 13
704.84049453059993
 23
-167.42539651920001
 33
0.0
  0
SOLID
  5
1E9
  8
0
 62
     0
 10
714.38643607660003
 20
-157.87945497320001
 30
0.0
 11
711.20445556130005
 21
-163.18275583210001
 31
0.0
 12
709.08313521770003
 22
-161.06143548860001
 32
0.0
 13
711.20445556130005
 23
-161.06143548860001
 33
0.0
  0
ENDBLK
  5
1EA
  8
0
  0
BLOCK
  8
0
  2
*D7
 70
     1
 10
0.0
 20
0.0
 30
0.0
  3
*D7
  1

  0
TEXT
  5
1EE
  8
0
 62
     0
 10
670.29944918349986
 20
-185.2713538475
 30
0.0
 40
5.9972220420999998
  1
35
 50
90.0
  0
LINE
  5
1EF
  8
0
 62
     0
 10
690.92221462919986
 20
-164.24341600389999
 30
0.0
 11
671.85778248509996
 21
-164.24341600389999
 31
0.0
  0
LINE
  5
1F0
  8
0
 62
     0
 10
695.3581195772
 20
-199.2437363475
 30
0.0
 11
671.85778248509996
 21
-199.2437363475
 31
0.0
  0
LINE
  5
1F1
  8
0
 62
     0
 10
672.35778248509996
 20
-164.24341600389999
 30
0.0
 11
672.35778248509996
 21
-174.68802083200001
 31
0.0
  0
LINE
  5
1F2
  8
0
 62
     0
 10
672.35778248509996
 20
-164.24341600389999
 30
0.0
 11
672.35778248509996
 21
-188.7991315193
 31
0.0
  0
LINE
  5
1F3
  8
0
 62
     0
 10
672.35778248509996
 20
-199.2437363475
 30
0.0
 11
672.35778248509996
 21
-174.68802083200001
 31
0.0
  0
LINE
  5
1F4
  8
0
 62
     0
 10
672.35778248509996
 20
-199.2437363475
 30
0.0
 11
672.35778248509996
 21
-188.7991315193
 31
0.0
  0
LINE
  5
1F5
  8
0
 62
     0
 10
672.35778248509996
 20
-199.2437363475
 30
0.0
 11
672.35778248509996
 21
-196.2437363475
 31
0.0
  0
SOLID
  5
1F6
  8
0
 62
     0
 10
672.35778248509996
 20
-199.2437363475
 30
0.0
 11
670.85778248509996
 21
-193.2437363475
 31
0.0
 12
673.85778248510007
 22
-193.2437363475
 32
0.0
 13
672.35778248509996
 23
-194.7437363475
 33
0.0
  0
LINE
  5
1F7
  8
0
 62
     0
 10
672.35778248509996
 20
-164.24341600389999
 30
0.0
 11
672.35778248509996
 21
-167.24341600389999
 31
0.0
  0
SOLID
  5
1F8
  8
0
 62
     0
 10
672.35778248509996
 20
-164.24341600389999
 30
0.0
 11
673.85778248510007
 21
-170.24341600389999
 31
0.0
 12
670.85778248509996
 22
-170.24341600389999
 32
0.0
 13
672.35778248509996
 23
-168.74341600389999
 33
0.0
  0
ENDBLK
  5
1F9
  8
0
  0
BLOCK
  8
0
  2
CLUMP0
 70
     0
 10
0.0
 20
0.0
 30
0.0
  3
CLUMP0
  1

  0
LINE
  5
2A8
  8
É}ÿg
 10
1065.0052915030999
 20
-374.62663957069998
 30
0.0
 11
1065.0052915030999
 21
-364.62663957069998
 31
0.0
  0
LINE
  5
2A9
  8
É}ÿg
 10
947.00529150310012
 20
-374.62663957069998
 30
0.0
 11
947.00529150310012
 21
-364.62663957069998
 31
0.0
  0
LINE
  5
2AA
  8
É}ÿg
 10
965.00529150310001
 20
-374.62663957069998
 30
0.0
 11
965.00529150310001
 21
-364.62663957069998
 31
0.0
  0
LINE
  5
2AB
  8
É}ÿg
 10
1175.0052915030999
 20
-374.62663957069998
 30
0.0
 11
1175.0052915030999
 21
-364.62663957069998
 31
0.0
  0
LINE
  5
2AC
  8
É}ÿg
 10
1157.0052915030999
 20
-374.62663957069998
 30
0.0
 11
1157.0052915030999
 21
-364.62663957069998
 31
0.0
  0
LINE
  5
2AD
  8
É}ÿg
 10
1237.0052915030999
 20
-364.62663957069998
 30
0.0
 11
947.00529150310012
 21
-364.62663957069998
 31
0.0
  0
ENDBLK
  5
2AE
  8
0
  0
BLOCK
  8
0
  2
CLUMP1
 70
     0
 10
0.0
 20
0.0
 30
0.0
  3
CLUMP1
  1

  0
LINE
  5
2B2
  8
É}ÿg
 10
1065.0052915030999
 20
-384.62663957069998
 30
0.0
 11
1065.0052915030999
 21
-374.62663957069998
 31
0.0
  0
LINE
  5
2B3
  8
É}ÿg
 10
947.00529150310012
 20
-384.62663957069998
 30
0.0
 11
947.00529150310012
 21
-374.62663957069998
 31
0.0
  0
LINE
  5
2B4
  8
É}ÿg
 10
965.00529150310001
 20
-384.62663957069998
 30
0.0
 11
965.00529150310001
 21
-374.62663957069998
 31
0.0
  0
LINE
  5
2B5
  8
É}ÿg
 10
1175.0052915030999
 20
-384.62663957069998
 30
0.0
 11
1175.0052915030999
 21
-374.62663957069998
 31
0.0
  0
LINE
  5
2B6
  8
É}ÿg
 10
1157.0052915030999
 20
-384.62663957069998
 30
0.0
 11
1157.0052915030999
 21
-374.62663957069998
 31
0.0
  0
LINE
  5
2B7
  8
É}ÿg
 10
1237.0052915030999
 20
-374.62663957069998
 30
0.0
 11
947.00529150310012
 21
-374.62663957069998
 31
0.0
  0
ENDBLK
  5
2B8
  8
0
  0
BLOCK
  8
0
  2
CLUMP2
 70
     0
 10
0.0
 20
0.0
 30
0.0
  3
CLUMP2
  1

  0
LINE
  5
2BC
  8
É}ÿg
 10
1065.0052915030999
 20
-394.62663957069998
 30
0.0
 11
1065.0052915030999
 21
-384.62663957069998
 31
0.0
  0
LINE
  5
2BD
  8
É}ÿg
 10
947.00529150310012
 20
-394.62663957069998
 30
0.0
 11
947.00529150310012
 21
-384.62663957069998
 31
0.0
  0
LINE
  5
2BE
  8
É}ÿg
 10
965.00529150310001
 20
-394.62663957069998
 30
0.0
 11
965.00529150310001
 21
-384.62663957069998
 31
0.0
  0
LINE
  5
2BF
  8
É}ÿg
 10
1175.0052915030999
 20
-394.62663957069998
 30
0.0
 11
1175.0052915030999
 21
-384.62663957069998
 31
0.0
  0
LINE
  5
2C0
  8
É}ÿg
 10
1157.0052915030999
 20
-394.62663957069998
 30
0.0
 11
1157.0052915030999
 21
-384.62663957069998
 31
0.0
  0
LINE
  5
2C1
  8
É}ÿg
 10
1237.0052915030999
 20
-384.62663957069998
 30
0.0
 11
947.00529150310012
 21
-384.62663957069998
 31
0.0
  0
ENDBLK
  5
2C2
  8
0
  0
BLOCK
  8
0
  2
CLUMP3
 70
     0
 10
0.0
 20
0.0
 30
0.0
  3
CLUMP3
  1

  0
LINE
  5
2C6
  8
É}ÿg
 10
1065.0052915030999
 20
-404.62663957069992
 30
0.0
 11
1065.0052915030999
 21
-394.62663957069998
 31
0.0
  0
LINE
  5
2C7
  8
É}ÿg
 10
947.00529150310012
 20
-404.62663957069992
 30
0.0
 11
947.00529150310012
 21
-394.62663957069998
 31
0.0
  0
LINE
  5
2C8
  8
É}ÿg
 10
965.00529150310001
 20
-404.62663957069992
 30
0.0
 11
965.00529150310001
 21
-394.62663957069998
 31
0.0
  0
LINE
  5
2C9
  8
É}ÿg
 10
1175.0052915030999
 20
-404.62663957069992
 30
0.0
 11
1175.0052915030999
 21
-394.62663957069998
 31
0.0
  0
LINE
  5
2CA
  8
É}ÿg
 10
1157.0052915030999
 20
-404.62663957069992
 30
0.0
 11
1157.0052915030999
 21
-394.62663957069998
 31
0.0
  0
LINE
  5
2CB
  8
É}ÿg
 10
1237.0052915030999
 20
-394.62663957069998
 30
0.0
 11
947.00529150310012
 21
-394.62663957069998
 31
0.0
  0
ENDBLK
  5
2CC
  8
0
  0
BLOCK
  8
0
  2
CLUMP4
 70
     0
 10
0.0
 20
0.0
 30
0.0
  3
CLUMP4
  1

  0
LINE
  5
2D0
  8
É}ÿg
 10
1065.0052915030999
 20
-414.62663957069998
 30
0.0
 11
1065.0052915030999
 21
-404.62663957069992
 31
0.0
  0
LINE
  5
2D1
  8
É}ÿg
 10
947.00529150310012
 20
-414.62663957069998
 30
0.0
 11
947.00529150310012
 21
-404.62663957069992
 31
0.0
  0
LINE
  5
2D2
  8
É}ÿg
 10
965.00529150310001
 20
-414.62663957069998
 30
0.0
 11
965.00529150310001
 21
-404.62663957069992
 31
0.0
  0
LINE
  5
2D3
  8
É}ÿg
 10
1175.0052915030999
 20
-414.62663957069998
 30
0.0
 11
1175.0052915030999
 21
-404.62663957069992
 31
0.0
  0
LINE
  5
2D4
  8
É}ÿg
 10
1157.0052915030999
 20
-414.62663957069998
 30
0.0
 11
1157.0052915030999
 21
-404.62663957069992
 31
0.0
  0
LINE
  5
2D5
  8
É}ÿg
 10
1237.0052915030999
 20
-404.62663957069992
 30
0.0
 11
947.00529150310012
 21
-404.62663957069992
 31
0.0
  0
ENDBLK
  5
2D6
  8
0
  0
BLOCK
  8
0
  2
*D13
 70
     1
 10
0.0
 20
0.0
 30
0.0
  3
*D13
  1

  0
TEXT
  5
2DB
  8
0
 62
     0
 10
1064.9436321358
 20
-123.9418601111
 30
0.0
 40
5.9972220420999998
  1
(185)
 50
90.0
  0
LINE
  5
2DC
  8
0
 62
     0
 10
1020.0391129593
 20
-207.62241593159999
 30
0.0
 11
1067.5019654373
 21
-207.62241593159999
 31
0.0
  0
LINE
  5
2DD
  8
0
 62
     0
 10
1020.0391129593
 20
-22.622415931599999
 30
0.0
 11
1067.5019654373
 21
-22.622415931599999
 31
0.0
  0
LINE
  5
2DE
  8
0
 62
     0
 10
1067.0019654373
 20
-207.62241593159999
 30
0.0
 11
1067.0019654373
 21
-102.7751940803
 31
0.0
  0
LINE
  5
2DF
  8
0
 62
     0
 10
1067.0019654373
 20
-207.62241593159999
 30
0.0
 11
1067.0019654373
 21
-127.469637783
 31
0.0
  0
LINE
  5
2E0
  8
0
 62
     0
 10
1067.0019654373
 20
-22.622415931599999
 30
0.0
 11
1067.0019654373
 21
-102.7751940803
 31
0.0
  0
LINE
  5
2E1
  8
0
 62
     0
 10
1067.0019654373
 20
-22.622415931599999
 30
0.0
 11
1067.0019654373
 21
-127.469637783
 31
0.0
  0
LINE
  5
2E2
  8
0
 62
     0
 10
1067.0019654373
 20
-22.622415931599999
 30
0.0
 11
1067.0019654373
 21
-25.622415931599999
 31
0.0
  0
SOLID
  5
2E3
  8
0
 62
     0
 10
1067.0019654373
 20
-22.622415931599999
 30
0.0
 11
1068.5019654373
 21
-28.622415931599999
 31
0.0
 12
1065.5019654373
 22
-28.622415931599999
 32
0.0
 13
1067.0019654373
 23
-27.122415931599999
 33
0.0
  0
LINE
  5
2E4
  8
0
 62
     0
 10
1067.0019654373
 20
-207.62241593159999
 30
0.0
 11
1067.0019654373
 21
-204.62241593159999
 31
0.0
  0
SOLID
  5
2E5
  8
0
 62
     0
 10
1067.0019654373
 20
-207.62241593159999
 30
0.0
 11
1065.5019654373
 21
-201.62241593159999
 31
0.0
 12
1068.5019654373
 22
-201.62241593159999
 32
0.0
 13
1067.0019654373
 23
-203.12241593159999
 33
0.0
  0
ENDBLK
  5
2E6
  8
0
  0
BLOCK
  8
0
  2
*D14
 70
     1
 10
0.0
 20
0.0
 30
0.0
  3
*D14
  1

  0
TEXT
  5
2EA
  8
0
 62
     0
 10
1047.2429982602
 20
-130.9974155271
 30
0.0
 40
5.9972220420999998
  1
(168)ôÓÉí
 50
90.0
  0
LINE
  5
2EB
  8
0
 62
     0
 10
1020.0391129593
 20
-199.12241600390001
 30
0.0
 11
1049.8013315618
 21
-199.12241600390001
 31
0.0
  0
LINE
  5
2EC
  8
0
 62
     0
 10
1020.0391129593
 20
-31.1224160039
 30
0.0
 11
1049.8013315618
 21
-31.1224160039
 31
0.0
  0
LINE
  5
2ED
  8
0
 62
     0
 10
1049.3013315618
 20
-199.12241600390001
 30
0.0
 11
1049.3013315618
 21
-95.719638808900015
 31
0.0
  0
LINE
  5
2EE
  8
0
 62
     0
 10
1049.3013315618
 20
-199.12241600390001
 30
0.0
 11
1049.3013315618
 21
-134.52519319890001
 31
0.0
  0
LINE
  5
2EF
  8
0
 62
     0
 10
1049.3013315618
 20
-31.1224160039
 30
0.0
 11
1049.3013315618
 21
-95.719638808900015
 31
0.0
  0
LINE
  5
2F0
  8
0
 62
     0
 10
1049.3013315618
 20
-31.1224160039
 30
0.0
 11
1049.3013315618
 21
-134.52519319890001
 31
0.0
  0
LINE
  5
2F1
  8
0
 62
     0
 10
1049.3013315618
 20
-31.1224160039
 30
0.0
 11
1049.3013315618
 21
-34.1224160039
 31
0.0
  0
SOLID
  5
2F2
  8
0
 62
     0
 10
1049.3013315618
 20
-31.1224160039
 30
0.0
 11
1050.8013315618
 21
-37.1224160039
 31
0.0
 12
1047.8013315618
 22
-37.1224160039
 32
0.0
 13
1049.3013315618
 23
-35.6224160039
 33
0.0
  0
LINE
  5
2F3
  8
0
 62
     0
 10
1049.3013315618
 20
-199.12241600390001
 30
0.0
 11
1049.3013315618
 21
-196.12241600390001
 31
0.0
  0
SOLID
  5
2F4
  8
0
 62
     0
 10
1049.3013315618
 20
-199.12241600390001
 30
0.0
 11
1047.8013315618
 21
-193.12241600390001
 31
0.0
 12
1050.8013315618
 22
-193.12241600390001
 32
0.0
 13
1049.3013315618
 23
-194.62241600390001
 33
0.0
  0
ENDBLK
  5
2F5
  8
0
  0
BLOCK
  8
0
  2
*D15
 70
     1
 10
0.0
 20
0.0
 30
0.0
  3
*D15
  1

  0
TEXT
  5
2FB
  8
0
 62
     0
 10
667.40867299440004
 20
-374.32250259749998
 30
0.0
 40
5.9972220420999998
  1
42.5
 50
90.0
  0
LINE
  5
2FC
  8
0
 62
     0
 10
689.46700629589998
 20
-346.01694725390001
 30
0.0
 11
669.46700629589998
 21
-346.01694725390001
 31
0.0
  0
LINE
  5
2FD
  8
0
 62
     0
 10
707.02247504589991
 20
-388.51694725390001
 30
0.0
 11
669.46700629589998
 21
-388.51694725390001
 31
0.0
  0
LINE
  5
2FE
  8
0
 62
     0
 10
670.46700629589986
 20
-346.01694725390001
 30
0.0
 11
670.46700629589986
 21
-356.68361423850001
 31
0.0
  0
LINE
  5
2FF
  8
0
 62
     0
 10
670.46700629589986
 20
-346.01694725390001
 30
0.0
 11
670.46700629589986
 21
-377.85028026930001
 31
0.0
  0
LINE
  5
300
  8
0
 62
     0
 10
670.46700629589986
 20
-388.51694725390001
 30
0.0
 11
670.46700629589986
 21
-356.68361423850001
 31
0.0
  0
LINE
  5
301
  8
0
 62
     0
 10
670.46700629589986
 20
-388.51694725390001
 30
0.0
 11
670.46700629589986
 21
-377.85028026930001
 31
0.0
  0
LINE
  5
302
  8
0
 62
     0
 10
670.46700629589986
 20
-388.51694725390001
 30
0.0
 11
670.46700629589986
 21
-382.51694725390001
 31
0.0
  0
SOLID
  5
303
  8
0
 62
     0
 10
670.46700629589986
 20
-388.51694725390001
 30
0.0
 11
668.96700629589998
 21
-382.51694725390001
 31
0.0
 12
671.96700629589986
 22
-382.51694725390001
 32
0.0
 13
670.46700629589986
 23
-384.01694725390001
 33
0.0
  0
LINE
  5
304
  8
0
 62
     0
 10
670.46700629589986
 20
-346.01694725390001
 30
0.0
 11
670.46700629589986
 21
-352.01694725390001
 31
0.0
  0
SOLID
  5
305
  8
0
 62
     0
 10
670.46700629589986
 20
-346.01694725390001
 30
0.0
 11
671.96700629589986
 21
-352.01694725390001
 31
0.0
 12
668.96700629589998
 22
-352.01694725390001
 32
0.0
 13
670.46700629589986
 23
-350.51694725390001
 33
0.0
  0
ENDBLK
  5
306
  8
0
  0
BLOCK
  8
0
  2
CLUMP5
 70
     0
 10
0.0
 20
0.0
 30
0.0
  3
CLUMP5
  1

  0
LINE
  5
312
  8
É}ÿg
 10
1063.6477966008999
 20
-485.47329363699993
 30
0.0
 11
1065.6477966008999
 21
-482.47329363699998
 31
0.0
  0
LINE
  5
313
  8
É}ÿg
 10
1034.3265844796999
 20
-482.47329363699998
 30
0.0
 11
1034.3265844796999
 21
-486.47329363699998
 31
0.0
  0
LINE
  5
314
  8
É}ÿg
 10
1081.7806437679001
 20
-489.47329363699993
 30
0.0
 11
1088.0827618974999
 21
-489.47329363699993
 31
0.0
  0
LINE
  5
315
  8
É}ÿg
 10
1047.6477966008999
 20
-496.47329363699993
 30
0.0
 11
1052.6477966008999
 21
-496.47329363699993
 31
0.0
  0
LINE
  5
316
  8
É}ÿg
 10
1047.6477966008999
 20
-487.11751417189998
 30
0.0
 11
1055.6477966008999
 21
-487.11751417189998
 31
0.0
  0
INSERT
  5
317
  8
0
  6
CONTINUOUS
  2
*U64
 10
0.0
 20
0.0
 30
0.0
  0
LINE
  5
318
  8
É}ÿg
 62
     5
 10
1097.0052915030999
 20
29.3733604293
 30
0.0
 11
1097.0052915030999
 21
59.3733604293
 31
0.0
  0
LINE
  5
319
  8
É}ÿg
 62
     5
 10
1197.0052915030999
 20
29.3733604293
 30
0.0
 11
1197.0052915030999
 21
59.3733604293
 31
0.0
  0
LINE
  5
31A
  8
É}ÿg
 62
     5
 10
1065.0052915030999
 20
29.3733604293
 30
0.0
 11
1065.0052915030999
 21
59.3733604293
 31
0.0
  0
LINE
  5
31B
  8
É}ÿg
 62
     5
 10
1051.4867207310001
 20
40.234943931300002
 30
0.0
 11
1061.3867207311
 21
40.234943931300002
 31
0.0
  0
LINE
  5
31C
  8
É}ÿg
 62
     5
 10
1056.4367207311
 20
38.908595428700004
 30
0.0
 11
1061.3867207311
 21
30.3349439313
 31
0.0
  0
LINE
  5
31D
  8
É}ÿg
 62
     5
 10
1049.0052915030999
 20
29.3733604293
 30
0.0
 11
1049.0052915030999
 21
59.3733604293
 31
0.0
  0
LINE
  5
31E
  8
É}ÿg
 62
     5
 10
1217.0052915030999
 20
29.3733604293
 30
0.0
 11
1217.0052915030999
 21
59.3733604293
 31
0.0
  0
LINE
  5
31F
  8
É}ÿg
 62
     5
 10
1049.0052915030999
 20
49.3733604293
 30
0.0
 11
1237.0052915030999
 21
49.3733604293
 31
0.0
  0
LINE
  5
320
  8
É}ÿg
 62
     5
 10
1049.0052915030999
 20
39.3733604293
 30
0.0
 11
1237.0052915030999
 21
39.3733604293
 31
0.0
  0
LINE
  5
321
  8
É}ÿg
 62
     5
 10
1049.0052915030999
 20
29.3733604293
 30
0.0
 11
1237.0052915030999
 21
29.3733604293
 31
0.0
  0
INSERT
  5
322
  8
0
  6
CONTINUOUS
  2
*U65
 10
0.0
 20
0.0
 30
0.0
  0
LINE
  5
323
  8
É}ÿg
 62
     5
 10
437.0052915030999
 20
-500.62663957069992
 30
0.0
 11
437.0052915030999
 21
59.3733604293
 31
0.0
  0
LINE
  5
324
  8
É}ÿg
 62
     5
 10
437.0052915030999
 20
-500.62663957069992
 30
0.0
 11
1237.0052915030999
 21
-500.62663957069992
 31
0.0
  0
LINE
  5
325
  8
É}ÿg
 62
     5
 10
1237.0052915030999
 20
59.3733604293
 30
0.0
 11
437.0052915030999
 21
59.3733604293
 31
0.0
  0
LINE
  5
326
  8
É}ÿg
 62
     5
 10
1237.0052915030999
 20
-500.62663957069992
 30
0.0
 11
1237.0052915030999
 21
59.3733604293
 31
0.0
  0
LINE
  5
327
  8
É}ÿg
 10
1047.6477966008999
 20
-487.76173470689997
 30
0.0
 11
1047.6477966008999
 21
-487.11751417189998
 31
0.0
  0
LINE
  5
328
  8
É}ÿg
 10
1023.0243768566
 20
-486.47329363699998
 30
0.0
 11
1023.0243768566
 21
-489.47329363699993
 31
0.0
  0
LINE
  5
329
  8
É}ÿg
 62
     5
 10
1056.4367207311
 20
48.808595428700002
 30
0.0
 11
1061.3867207311
 21
40.234943931300002
 31
0.0
  0
LINE
  5
32A
  8
É}ÿg
 62
     5
 10
1056.4367207311
 20
38.908595428700004
 30
0.0
 11
1051.4867207310001
 21
30.3349439313
 31
0.0
  0
INSERT
  5
32B
  8
0
  6
CONTINUOUS
  2
*U66
 10
0.0
 20
0.0
 30
0.0
  0
LINE
  5
32C
  8
É}ÿg
  6
DOT
 10
427.04529150309992
 20
-509.08663957070002
 30
0.0
 11
427.04529150309992
 21
67.833360429300001
 31
0.0
  0
LINE
  5
32D
  8
É}ÿg
  6
DOT
 10
1246.9652915030999
 20
-509.08663957070002
 30
0.0
 11
1246.9652915030999
 21
67.833360429300001
 31
0.0
  0
LINE
  5
32E
  8
É}ÿg
  6
DOT
 10
427.04529150309992
 20
-509.08663957070002
 30
0.0
 11
1246.9652915030999
 21
-509.08663957070002
 31
0.0
  0
LINE
  5
32F
  8
É}ÿg
 10
1030.3265844796999
 20
-492.47329363699993
 30
0.0
 11
1030.3265844796999
 21
-489.47329363699993
 31
0.0
  0
LINE
  5
330
  8
É}ÿg
  6
DOT
 10
1246.9652915030999
 20
67.833360429300001
 30
0.0
 11
427.04529150309992
 21
67.833360429300001
 31
0.0
  0
LINE
  5
331
  8
É}ÿg
 10
1025.3265844796999
 20
-489.47329363699993
 30
0.0
 11
1025.3265844796999
 21
-492.47329363699993
 31
0.0
  0
LINE
  5
332
  8
É}ÿg
 10
1039.3265844796999
 20
-485.47329363699993
 30
0.0
 11
1042.3265844796999
 21
-482.47329363699998
 31
0.0
  0
LINE
  5
333
  8
É}ÿg
 10
1076.6054285642001
 20
-491.07329363699989
 30
0.0
 11
1076.1360952308
 21
-489.47329363699993
 31
0.0
  0
LINE
  5
334
  8
É}ÿg
 10
1030.3265844796999
 20
-486.47329363699998
 30
0.0
 11
1030.3265844796999
 21
-485.47329363699993
 31
0.0
  0
LINE
  5
335
  8
É}ÿg
 10
1061.3732353051
 20
-492.1715560548999
 30
0.0
 11
1061.0170311854999
 21
-492.52031234330002
 31
0.0
  0
LINE
  5
336
  8
É}ÿg
 10
1063.6477966008999
 20
-485.47329363699993
 30
0.0
 11
1065.6477966008999
 21
-482.47329363699998
 31
0.0
  0
LINE
  5
337
  8
É}ÿg
 10
1088.0827618974999
 20
-491.07329363699989
 30
0.0
 11
1088.0827618974999
 21
-494.67329363699997
 31
0.0
  0
LINE
  5
338
  8
É}ÿg
 10
1065.6477966008999
 20
-493.47329363699993
 30
0.0
 11
1065.6477966008999
 21
-496.47329363699993
 31
0.0
  0
LINE
  5
339
  8
É}ÿg
 10
1080.7446906096
 20
-485.87329363700002
 30
0.0
 11
1088.0827618974999
 21
-485.87329363700002
 31
0.0
  0
LINE
  5
33A
  8
É}ÿg
 10
1080.7446906096
 20
-485.87329363700002
 30
0.0
 11
1080.4519021091
 21
-484.855835856
 31
0.0
  0
LINE
  5
33B
  8
É}ÿg
 10
1065.6477966008999
 20
-482.47329363699998
 30
0.0
 11
1047.6477966008999
 21
-482.47329363699998
 31
0.0
  0
INSERT
  5
33C
  8
0
  6
CONTINUOUS
  2
*U67
 10
0.0
 20
0.0
 30
0.0
  0
LINE
  5
33D
  8
É}ÿg
 10
1078.4827618975
 20
-497.47329363699993
 30
0.0
 11
1077.6614285641999
 21
-494.67329363699997
 31
0.0
  0
LINE
  5
33E
  8
É}ÿg
 10
1031.3265844796999
 20
-493.47329363699993
 30
0.0
 11
1025.3265844796999
 21
-493.47329363699993
 31
0.0
  0
LINE
  5
33F
  8
É}ÿg
 10
1047.6477966008999
 20
-486.07329363699989
 30
0.0
 11
1057.6477966008999
 21
-486.07329363699989
 31
0.0
  0
LINE
  5
340
  8
É}ÿg
 10
1074.7771265265001
 20
-443.22663957069989
 30
0.0
 11
1084.3771265265
 21
-440.82663957070002
 31
0.0
  0
CIRCLE
  5
341
  8
É}ÿg
 10
1063.8052915031001
 20
-445.62663957069992
 30
0.0
 40
4.7999999999999989
  0
INSERT
  5
342
  8
0
  6
CONTINUOUS
  2
*U68
 10
0.0
 20
0.0
 30
0.0
  0
LINE
  5
343
  8
É}ÿg
 10
1030.3265844796999
 20
-489.47329363699993
 30
0.0
 11
1034.3265844796999
 21
-489.47329363699993
 31
0.0
  0
LINE
  5
344
  8
É}ÿg
 10
1070.0827618974999
 20
-489.47329363699993
 30
0.0
 11
1076.1360952308
 21
-489.47329363699993
 31
0.0
  0
LINE
  5
345
  8
É}ÿg
 10
1042.3265844796999
 20
-486.47329363699998
 30
0.0
 11
1039.3265844796999
 21
-486.47329363699998
 31
0.0
  0
LINE
  5
346
  8
É}ÿg
 10
1039.3265844796999
 20
-486.47329363699998
 30
0.0
 11
1039.3265844796999
 21
-485.47329363699993
 31
0.0
  0
LINE
  5
347
  8
É}ÿg
 10
1070.0827618974999
 20
-485.87329363700002
 30
0.0
 11
1075.0800952308
 21
-485.87329363700002
 31
0.0
  0
LINE
  5
348
  8
É}ÿg
 10
1080.4519021091
 20
-484.855835856
 30
0.0
 11
1082.0827618974999
 21
-482.47329363699998
 31
0.0
  0
LINE
  5
349
  8
É}ÿg
 10
1047.6477966008999
 20
-496.47329363699993
 30
0.0
 11
1047.6477966008999
 21
-493.47329363699993
 31
0.0
  0
LINE
  5
34A
  8
É}ÿg
 10
1097.0052915030999
 20
-434.62663957069992
 30
0.0
 11
1097.0052915030999
 21
-500.62663957069992
 31
0.0
  0
INSERT
  5
34B
  8
0
  6
CONTINUOUS
  2
*U69
 10
0.0
 20
0.0
 30
0.0
  0
INSERT
  5
34C
  8
0
  6
CONTINUOUS
  2
*U70
 10
0.0
 20
0.0
 30
0.0
  0
INSERT
  5
34D
  8
0
  6
CONTINUOUS
  2
*U71
 10
0.0
 20
0.0
 30
0.0
  0
LINE
  5
34E
  8
É}ÿg
 62
     5
 10
1051.4867207310001
 20
30.3349439313
 30
0.0
 11
1061.3867207311
 21
30.3349439313
 31
0.0
  0
LINE
  5
34F
  8
É}ÿg
 10
1023.0243768566
 20
-489.47329363699993
 30
0.0
 11
1025.0243768565999
 21
-489.47329363699993
 31
0.0
  0
ARC
  5
350
  8
É}ÿg
 10
1052.6477966008999
 20
-485.47329363699993
 30
0.0
 40
11.0
 50
322.48761197969998
 51
0.0
  0
LINE
  5
351
  8
É}ÿg
 10
1025.3265844796999
 20
-496.47329363699993
 30
0.0
 11
1033.3265844796999
 21
-496.47329363699993
 31
0.0
  0
LINE
  5
352
  8
É}ÿg
 10
1070.0827618974999
 20
-494.67329363699997
 30
0.0
 11
1077.6614285641999
 21
-494.67329363699997
 31
0.0
  0
ARC
  5
353
  8
É}ÿg
 10
1031.3265844796999
 20
-490.47329363699998
 30
0.0
 40
3.0
 50
270.0
 51
0.0
  0
LINE
  5
354
  8
É}ÿg
 10
1070.0827618974999
 20
-491.07329363699989
 30
0.0
 11
1070.0827618974999
 21
-494.67329363699997
 31
0.0
  0
LINE
  5
355
  8
É}ÿg
 10
1025.3265844796999
 20
-492.47329363699993
 30
0.0
 11
1030.3265844796999
 21
-492.47329363699993
 31
0.0
  0
LINE
  5
356
  8
É}ÿg
 10
1056.7204215843001
 20
-489.51143544719997
 30
0.0
 11
1056.2392299717001
 21
-490.04291216830001
 31
0.0
  0
LINE
  5
357
  8
É}ÿg
 10
1084.0827618974999
 20
-497.47329363699993
 30
0.0
 11
1078.4827618975
 21
-497.47329363699993
 31
0.0
  0
LINE
  5
358
  8
É}ÿg
 10
1034.3265844796999
 20
-489.47329363699993
 30
0.0
 11
1034.3265844796999
 21
-490.47329363699998
 31
0.0
  0
LINE
  5
359
  8
É}ÿg
 10
1237.0052915030999
 20
-434.62663957069992
 30
0.0
 11
947.00529150310012
 21
-434.62663957069992
 31
0.0
  0
LINE
  5
35A
  8
É}ÿg
 10
1084.3771265265
 20
-440.82663957070002
 30
0.0
 11
1084.3771265265
 21
-450.42663957069988
 31
0.0
  0
LINE
  5
35B
  8
É}ÿg
 62
     5
 10
1056.4367207311
 20
48.808595428700002
 30
0.0
 11
1051.4867207310001
 21
40.234943931300002
 31
0.0
  0
LINE
  5
35C
  8
É}ÿg
 10
1042.3265844796999
 20
-482.47329363699998
 30
0.0
 11
1034.3265844796999
 21
-482.47329363699998
 31
0.0
  0
LINE
  5
35D
  8
É}ÿg
 10
1039.3265844796999
 20
-490.47329363699998
 30
0.0
 11
1039.3265844796999
 21
-489.47329363699993
 31
0.0
  0
LINE
  5
35E
  8
É}ÿg
 10
1070.0827618974999
 20
-485.87329363700002
 30
0.0
 11
1070.0827618974999
 21
-489.47329363699993
 31
0.0
  0
LINE
  5
35F
  8
É}ÿg
 10
1034.3265844796999
 20
-486.47329363699998
 30
0.0
 11
1030.3265844796999
 21
-486.47329363699998
 31
0.0
  0
LINE
  5
360
  8
É}ÿg
 10
1033.3265844796999
 20
-482.47329363699998
 30
0.0
 11
1025.3265844796999
 21
-482.47329363699998
 31
0.0
  0
LINE
  5
361
  8
É}ÿg
 10
1030.3265844796999
 20
-485.47329363699993
 30
0.0
 11
1033.3265844796999
 21
-482.47329363699998
 31
0.0
  0
LINE
  5
362
  8
É}ÿg
 10
1025.3265844796999
 20
-482.47329363699998
 30
0.0
 11
1025.3265844796999
 21
-486.47329363699998
 31
0.0
  0
LINE
  5
363
  8
É}ÿg
 10
1083.2770205521001
 20
-494.67329363699997
 30
0.0
 11
1088.0827618974999
 21
-494.67329363699997
 31
0.0
  0
LINE
  5
364
  8
É}ÿg
 10
1075.0800952308
 20
-485.87329363700002
 30
0.0
 11
1074.0827618974999
 21
-482.47329363699998
 31
0.0
  0
LINE
  5
365
  8
É}ÿg
 10
1070.0827618974999
 20
-491.07329363699989
 30
0.0
 11
1076.6054285642001
 21
-491.07329363699989
 31
0.0
  0
LINE
  5
366
  8
É}ÿg
 10
1082.2410673938
 20
-491.07329363699989
 30
0.0
 11
1081.7806437679001
 21
-489.47329363699993
 31
0.0
  0
ARC
  5
367
  8
É}ÿg
 10
1050.0477966009
 20
-485.87329363700002
 30
0.0
 40
7.5999999999999988
 50
270.0
 51
298.08590481520002
  0
INSERT
  5
368
  8
0
  6
CONTINUOUS
  2
*U72
 10
0.0
 20
0.0
 30
0.0
  0
LINE
  5
369
  8
É}ÿg
 10
952.00529150310001
 20
-445.62663957069992
 30
0.0
 11
992.00529150310001
 21
-445.62663957069992
 31
0.0
  0
LINE
  5
36A
  8
É}ÿg
 10
997.00529150310012
 20
-434.62663957069992
 30
0.0
 11
997.00529150310012
 21
-456.62663957069998
 31
0.0
  0
LINE
  5
36B
  8
É}ÿg
 10
947.00529150310012
 20
-456.62663957069998
 30
0.0
 11
1237.0052915030999
 21
-456.62663957069998
 31
0.0
  0
LINE
  5
36C
  8
É}ÿg
 10
1047.0052915030999
 20
-434.62663957069992
 30
0.0
 11
1047.0052915030999
 21
-456.62663957069998
 31
0.0
  0
LINE
  5
36D
  8
É}ÿg
  6
BORDER
 10
1063.8052915031001
 20
-438.42663957069988
 30
0.0
 11
1063.8052915031001
 21
-452.82663957069991
 31
0.0
  0
LINE
  5
36E
  8
É}ÿg
  6
BORDER
 10
1063.8052915031001
 20
-438.42663957069988
 30
0.0
 11
1063.8052915031001
 21
-452.82663957069991
 31
0.0
  0
LINE
  5
36F
  8
É}ÿg
 10
1088.0827618974999
 20
-485.87329363700002
 30
0.0
 11
1088.0827618974999
 21
-489.47329363699993
 31
0.0
  0
LINE
  5
370
  8
É}ÿg
 10
1002.0052915031
 20
-445.62663957069992
 30
0.0
 11
1042.0052915030999
 21
-445.62663957069992
 31
0.0
  0
INSERT
  5
371
  8
0
  6
CONTINUOUS
  2
*U73
 10
0.0
 20
0.0
 30
0.0
  0
CIRCLE
  5
372
  8
É}ÿg
 10
1063.8052915031001
 20
-445.62663957069992
 30
0.0
 40
4.7999999999999989
  0
LINE
  5
373
  8
É}ÿg
 10
1074.7771265265001
 20
-443.22663957069989
 30
0.0
 11
1084.3771265265
 21
-440.82663957070002
 31
0.0
  0
INSERT
  5
374
  8
0
  6
CONTINUOUS
  2
*U74
 10
0.0
 20
0.0
 30
0.0
  0
CIRCLE
  5
375
  8
É}ÿg
 10
1063.8052915031001
 20
-445.62663957069992
 30
0.0
 40
2.399999999999999
  0
LINE
  5
376
  8
É}ÿg
 10
1084.0827618974999
 20
-497.47329363699993
 30
0.0
 11
1083.2770205521001
 21
-494.67329363699997
 31
0.0
  0
LINE
  5
377
  8
É}ÿg
 10
1082.2410673938
 20
-491.07329363699989
 30
0.0
 11
1088.0827618974999
 21
-491.07329363699989
 31
0.0
  0
LINE
  5
378
  8
É}ÿg
 10
1047.6477966008999
 20
-493.47329363699993
 30
0.0
 11
1050.0477966009
 21
-493.47329363699993
 31
0.0
  0
LINE
  5
379
  8
É}ÿg
 10
1074.0827618974999
 20
-482.47329363699998
 30
0.0
 11
1082.0827618974999
 21
-482.47329363699998
 31
0.0
  0
LINE
  5
37A
  8
É}ÿg
 10
1025.3265844796999
 20
-486.47329363699998
 30
0.0
 11
1023.0243768566
 21
-486.47329363699998
 31
0.0
  0
LINE
  5
37B
  8
É}ÿg
 10
1047.6477966008999
 20
-493.47329363699993
 30
0.0
 11
1047.6477966008999
 21
-496.47329363699993
 31
0.0
  0
LINE
  5
37C
  8
É}ÿg
 10
1025.3265844796999
 20
-489.47329363699993
 30
0.0
 11
1025.0243768565999
 21
-489.47329363699993
 31
0.0
  0
LINE
  5
37D
  8
É}ÿg
 10
1025.3265844796999
 20
-493.47329363699993
 30
0.0
 11
1025.3265844796999
 21
-496.47329363699993
 31
0.0
  0
ARC
  5
37E
  8
É}ÿg
 10
1050.0477966009
 20
-485.87329363700002
 30
0.0
 40
7.5999999999999988
 50
331.39928138329998
 51
358.49204224580001
  0
LINE
  5
37F
  8
É}ÿg
 10
1039.3265844796999
 20
-489.47329363699993
 30
0.0
 11
1042.3265844796999
 21
-489.47329363699993
 31
0.0
  0
ARC
  5
380
  8
É}ÿg
 10
1052.6477966008999
 20
-485.47329363699993
 30
0.0
 40
11.0
 50
270.0
 51
302.54495885400001
  0
LINE
  5
381
  8
É}ÿg
 10
1074.7771265265001
 20
-448.0266395706999
 30
0.0
 11
1084.3771265265
 21
-450.42663957069988
 31
0.0
  0
LINE
  5
382
  8
É}ÿg
 10
1074.7771265265001
 20
-443.22663957069989
 30
0.0
 11
1074.7771265265001
 21
-448.0266395706999
 31
0.0
  0
LINE
  5
383
  8
É}ÿg
 10
1084.3771265265
 20
-440.82663957070002
 30
0.0
 11
1084.3771265265
 21
-450.42663957069988
 31
0.0
  0
LINE
  5
384
  8
É}ÿg
 10
1055.6477966008999
 20
-487.11751417189998
 30
0.0
 11
1054.516425751
 21
-488.24888502179999
 31
0.0
  0
LINE
  5
385
  8
É}ÿg
  6
BORDER
 10
1056.6052915031
 20
-445.62663957069992
 30
0.0
 11
1087.4052915031
 21
-445.62663957069992
 31
0.0
  0
CIRCLE
  5
386
  8
É}ÿg
 10
1063.8052915031001
 20
-445.62663957069992
 30
0.0
 40
2.399999999999999
  0
POLYLINE
  8
É}ÿg
  5
569
  66
     1
 10
0.000000
 20
0.000000
 30
0.000000
  70
     8
  0
VERTEX
  8
É}ÿg
  5
56A
 10
1061.02
 20
-492.520
 30
0.000000
  70
    32
  0
VERTEX
  8
É}ÿg
  5
56B
 10
1061.05
 20
-492.530
 30
0.000000
  70
    32
  0
VERTEX
  8
É}ÿg
  5
56C
 10
1061.09
 20
-492.540
 30
0.000000
  70
    32
  0
VERTEX
  8
É}ÿg
  5
56D
 10
1061.12
 20
-492.550
 30
0.000000
  70
    32
  0
VERTEX
  8
É}ÿg
  5
56E
 10
1061.16
 20
-492.560
 30
0.000000
  70
    32
  0
VERTEX
  8
É}ÿg
  5
56F
 10
1061.19
 20
-492.569
 30
0.000000
  70
    32
  0
VERTEX
  8
É}ÿg
  5
570
 10
1061.23
 20
-492.579
 30
0.000000
  70
    32
  0
VERTEX
  8
É}ÿg
  5
571
 10
1061.26
 20
-492.589
 30
0.000000
  70
    32
  0
VERTEX
  8
É}ÿg
  5
572
 10
1061.30
 20
-492.598
 30
0.000000
  70
    32
  0
VERTEX
  8
É}ÿg
  5
573
 10
1061.33
 20
-492.607
 30
0.000000
  70
    32
  0
VERTEX
  8
É}ÿg
  5
574
 10
1061.37
 20
-492.617
 30
0.000000
  70
    32
  0
VERTEX
  8
É}ÿg
  5
575
 10
1061.40
 20
-492.626
 30
0.000000
  70
    32
  0
VERTEX
  8
É}ÿg
  5
576
 10
1061.44
 20
-492.636
 30
0.000000
  70
    32
  0
VERTEX
  8
É}ÿg
  5
577
 10
1061.47
 20
-492.645
 30
0.000000
  70
    32
  0
VERTEX
  8
É}ÿg
  5
578
 10
1061.51
 20
-492.654
 30
0.000000
  70
    32
  0
VERTEX
  8
É}ÿg
  5
579
 10
1061.55
 20
-492.663
 30
0.000000
  70
    32
  0
VERTEX
  8
É}ÿg
  5
57A
 10
1061.58
 20
-492.672
 30
0.000000
  70
    32
  0
VERTEX
  8
É}ÿg
  5
57B
 10
1061.62
 20
-492.681
 30
0.000000
  70
    32
  0
VERTEX
  8
É}ÿg
  5
57C
 10
1061.65
 20
-492.690
 30
0.000000
  70
    32
  0
VERTEX
  8
É}ÿg
  5
57D
 10
1061.69
 20
-492.699
 30
0.000000
  70
    32
  0
VERTEX
  8
É}ÿg
  5
57E
 10
1061.72
 20
-492.708
 30
0.000000
  70
    32
  0
VERTEX
  8
É}ÿg
  5
57F
 10
1061.76
 20
-492.717
 30
0.000000
  70
    32
  0
VERTEX
  8
É}ÿg
  5
580
 10
1061.79
 20
-492.726
 30
0.000000
  70
    32
  0
VERTEX
  8
É}ÿg
  5
581
 10
1061.83
 20
-492.735
 30
0.000000
  70
    32
  0
VERTEX
  8
É}ÿg
  5
582
 10
1061.87
 20
-492.743
 30
0.000000
  70
    32
  0
VERTEX
  8
É}ÿg
  5
583
 10
1061.90
 20
-492.752
 30
0.000000
  70
    32
  0
VERTEX
  8
É}ÿg
  5
584
 10
1061.94
 20
-492.761
 30
0.000000
  70
    32
  0
VERTEX
  8
É}ÿg
  5
585
 10
1061.97
 20
-492.769
 30
0.000000
  70
    32
  0
VERTEX
  8
É}ÿg
  5
586
 10
1062.01
 20
-492.778
 30
0.000000
  70
    32
  0
VERTEX
  8
É}ÿg
  5
587
 10
1062.04
 20
-492.786
 30
0.000000
  70
    32
  0
VERTEX
  8
É}ÿg
  5
588
 10
1062.08
 20
-492.795
 30
0.000000
  70
    32
  0
VERTEX
  8
É}ÿg
  5
589
 10
1062.12
 20
-492.803
 30
0.000000
  70
    32
  0
VERTEX
  8
É}ÿg
  5
58A
 10
1062.15
 20
-492.811
 30
0.000000
  70
    32
  0
VERTEX
  8
É}ÿg
  5
58B
 10
1062.19
 20
-492.820
 30
0.000000
  70
    32
  0
VERTEX
  8
É}ÿg
  5
58C
 10
1062.22
 20
-492.828
 30
0.000000
  70
    32
  0
VERTEX
  8
É}ÿg
  5
58D
 10
1062.26
 20
-492.836
 30
0.000000
  70
    32
  0
VERTEX
  8
É}ÿg
  5
58E
 10
1062.30
 20
-492.844
 30
0.000000
  70
    32
  0
VERTEX
  8
É}ÿg
  5
58F
 10
1062.33
 20
-492.853
 30
0.000000
  70
    32
  0
VERTEX
  8
É}ÿg
  5
590
 10
1062.37
 20
-492.861
 30
0.000000
  70
    32
  0
VERTEX
  8
É}ÿg
  5
591
 10
1062.40
 20
-492.869
 30
0.000000
  70
    32
  0
VERTEX
  8
É}ÿg
  5
592
 10
1062.44
 20
-492.877
 30
0.000000
  70
    32
  0
VERTEX
  8
É}ÿg
  5
593
 10
1062.48
 20
-492.885
 30
0.000000
  70
    32
  0
VERTEX
  8
É}ÿg
  5
594
 10
1062.51
 20
-492.893
 30
0.000000
  70
    32
  0
VERTEX
  8
É}ÿg
  5
595
 10
1062.55
 20
-492.901
 30
0.000000
  70
    32
  0
VERTEX
  8
É}ÿg
  5
596
 10
1062.59
 20
-492.908
 30
0.000000
  70
    32
  0
VERTEX
  8
É}ÿg
  5
597
 10
1062.62
 20
-492.916
 30
0.000000
  70
    32
  0
VERTEX
  8
É}ÿg
  5
598
 10
1062.66
 20
-492.924
 30
0.000000
  70
    32
  0
VERTEX
  8
É}ÿg
  5
599
 10
1062.69
 20
-492.932
 30
0.000000
  70
    32
  0
VERTEX
  8
É}ÿg
  5
59A
 10
1062.73
 20
-492.939
 30
0.000000
  70
    32
  0
VERTEX
  8
É}ÿg
  5
59B
 10
1062.77
 20
-492.947
 30
0.000000
  70
    32
  0
VERTEX
  8
É}ÿg
  5
59C
 10
1062.80
 20
-492.955
 30
0.000000
  70
    32
  0
VERTEX
  8
É}ÿg
  5
59D
 10
1062.84
 20
-492.962
 30
0.000000
  70
    32
  0
VERTEX
  8
É}ÿg
  5
59E
 10
1062.88
 20
-492.970
 30
0.000000
  70
    32
  0
VERTEX
  8
É}ÿg
  5
59F
 10
1062.91
 20
-492.978
 30
0.000000
  70
    32
  0
VERTEX
  8
É}ÿg
  5
5A0
 10
1062.95
 20
-492.985
 30
0.000000
  70
    32
  0
VERTEX
  8
É}ÿg
  5
5A1
 10
1062.99
 20
-492.993
 30
0.000000
  70
    32
  0
VERTEX
  8
É}ÿg
  5
5A2
 10
1063.02
 20
-493.000
 30
0.000000
  70
    32
  0
VERTEX
  8
É}ÿg
  5
5A3
 10
1063.06
 20
-493.007
 30
0.000000
  70
    32
  0
VERTEX
  8
É}ÿg
  5
5A4
 10
1063.10
 20
-493.015
 30
0.000000
  70
    32
  0
VERTEX
  8
É}ÿg
  5
5A5
 10
1063.13
 20
-493.022
 30
0.000000
  70
    32
  0
VERTEX
  8
É}ÿg
  5
5A6
 10
1063.17
 20
-493.029
 30
0.000000
  70
    32
  0
VERTEX
  8
É}ÿg
  5
5A7
 10
1063.20
 20
-493.037
 30
0.000000
  70
    32
  0
VERTEX
  8
É}ÿg
  5
5A8
 10
1063.24
 20
-493.044
 30
0.000000
  70
    32
  0
VERTEX
  8
É}ÿg
  5
5A9
 10
1063.28
 20
-493.051
 30
0.000000
  70
    32
  0
VERTEX
  8
É}ÿg
  5
5AA
 10
1063.31
 20
-493.058
 30
0.000000
  70
    32
  0
VERTEX
  8
É}ÿg
  5
5AB
 10
1063.35
 20
-493.066
 30
0.000000
  70
    32
  0
VERTEX
  8
É}ÿg
  5
5AC
 10
1063.39
 20
-493.073
 30
0.000000
  70
    32
  0
VERTEX
  8
É}ÿg
  5
5AD
 10
1063.42
 20
-493.080
 30
0.000000
  70
    32
  0
VERTEX
  8
É}ÿg
  5
5AE
 10
1063.46
 20
-493.087
 30
0.000000
  70
    32
  0
VERTEX
  8
É}ÿg
  5
5AF
 10
1063.50
 20
-493.094
 30
0.000000
  70
    32
  0
VERTEX
  8
É}ÿg
  5
5B0
 10
1063.53
 20
-493.101
 30
0.000000
  70
    32
  0
VERTEX
  8
É}ÿg
  5
5B1
 10
1063.57
 20
-493.108
 30
0.000000
  70
    32
  0
VERTEX
  8
É}ÿg
  5
5B2
 10
1063.61
 20
-493.115
 30
0.000000
  70
    32
  0
VERTEX
  8
É}ÿg
  5
5B3
 10
1063.65
 20
-493.122
 30
0.000000
  70
    32
  0
VERTEX
  8
É}ÿg
  5
5B4
 10
1063.68
 20
-493.129
 30
0.000000
  70
    32
  0
VERTEX
  8
É}ÿg
  5
5B5
 10
1063.72
 20
-493.136
 30
0.000000
  70
    32
  0
VERTEX
  8
É}ÿg
  5
5B6
 10
1063.76
 20
-493.143
 30
0.000000
  70
    32
  0
VERTEX
  8
É}ÿg
  5
5B7
 10
1063.79
 20
-493.150
 30
0.000000
  70
    32
  0
VERTEX
  8
É}ÿg
  5
5B8
 10
1063.83
 20
-493.156
 30
0.000000
  70
    32
  0
VERTEX
  8
É}ÿg
  5
5B9
 10
1063.87
 20
-493.163
 30
0.000000
  70
    32
  0
VERTEX
  8
É}ÿg
  5
5BA
 10
1063.90
 20
-493.170
 30
0.000000
  70
    32
  0
VERTEX
  8
É}ÿg
  5
5BB
 10
1063.94
 20
-493.177
 30
0.000000
  70
    32
  0
VERTEX
  8
É}ÿg
  5
5BC
 10
1063.98
 20
-493.184
 30
0.000000
  70
    32
  0
VERTEX
  8
É}ÿg
  5
5BD
 10
1064.01
 20
-493.190
 30
0.000000
  70
    32
  0
VERTEX
  8
É}ÿg
  5
5BE
 10
1064.05
 20
-493.197
 30
0.000000
  70
    32
  0
VERTEX
  8
É}ÿg
  5
5BF
 10
1064.09
 20
-493.204
 30
0.000000
  70
    32
  0
VERTEX
  8
É}ÿg
  5
5C0
 10
1064.13
 20
-493.210
 30
0.000000
  70
    32
  0
VERTEX
  8
É}ÿg
  5
5C1
 10
1064.16
 20
-493.217
 30
0.000000
  70
    32
  0
VERTEX
  8
É}ÿg
  5
5C2
 10
1064.20
 20
-493.224
 30
0.000000
  70
    32
  0
VERTEX
  8
É}ÿg
  5
5C3
 10
1064.24
 20
-493.230
 30
0.000000
  70
    32
  0
VERTEX
  8
É}ÿg
  5
5C4
 10
1064.27
 20
-493.237
 30
0.000000
  70
    32
  0
VERTEX
  8
É}ÿg
  5
5C5
 10
1064.31
 20
-493.243
 30
0.000000
  70
    32
  0
VERTEX
  8
É}ÿg
  5
5C6
 10
1064.35
 20
-493.250
 30
0.000000
  70
    32
  0
VERTEX
  8
É}ÿg
  5
5C7
 10
1064.38
 20
-493.257
 30
0.000000
  70
    32
  0
VERTEX
  8
É}ÿg
  5
5C8
 10
1064.42
 20
-493.263
 30
0.000000
  70
    32
  0
VERTEX
  8
É}ÿg
  5
5C9
 10
1064.46
 20
-493.270
 30
0.000000
  70
    32
  0
VERTEX
  8
É}ÿg
  5
5CA
 10
1064.50
 20
-493.276
 30
0.000000
  70
    32
  0
VERTEX
  8
É}ÿg
  5
5CB
 10
1064.53
 20
-493.283
 30
0.000000
  70
    32
  0
VERTEX
  8
É}ÿg
  5
5CC
 10
1064.57
 20
-493.289
 30
0.000000
  70
    32
  0
VERTEX
  8
É}ÿg
  5
5CD
 10
1064.61
 20
-493.296
 30
0.000000
  70
    32
  0
VERTEX
  8
É}ÿg
  5
5CE
 10
1064.64
 20
-493.302
 30
0.000000
  70
    32
  0
VERTEX
  8
É}ÿg
  5
5CF
 10
1064.68
 20
-493.309
 30
0.000000
  70
    32
  0
VERTEX
  8
É}ÿg
  5
5D0
 10
1064.72
 20
-493.315
 30
0.000000
  70
    32
  0
VERTEX
  8
É}ÿg
  5
5D1
 10
1064.76
 20
-493.321
 30
0.000000
  70
    32
  0
VERTEX
  8
É}ÿg
  5
5D2
 10
1064.79
 20
-493.328
 30
0.000000
  70
    32
  0
VERTEX
  8
É}ÿg
  5
5D3
 10
1064.83
 20
-493.334
 30
0.000000
  70
    32
  0
VERTEX
  8
É}ÿg
  5
5D4
 10
1064.87
 20
-493.341
 30
0.000000
  70
    32
  0
VERTEX
  8
É}ÿg
  5
5D5
 10
1064.90
 20
-493.347
 30
0.000000
  70
    32
  0
VERTEX
  8
É}ÿg
  5
5D6
 10
1064.94
 20
-493.353
 30
0.000000
  70
    32
  0
VERTEX
  8
É}ÿg
  5
5D7
 10
1064.98
 20
-493.360
 30
0.000000
  70
    32
  0
VERTEX
  8
É}ÿg
  5
5D8
 10
1065.02
 20
-493.366
 30
0.000000
  70
    32
  0
VERTEX
  8
É}ÿg
  5
5D9
 10
1065.05
 20
-493.372
 30
0.000000
  70
    32
  0
VERTEX
  8
É}ÿg
  5
5DA
 10
1065.09
 20
-493.379
 30
0.000000
  70
    32
  0
VERTEX
  8
É}ÿg
  5
5DB
 10
1065.13
 20
-493.385
 30
0.000000
  70
    32
  0
VERTEX
  8
É}ÿg
  5
5DC
 10
1065.16
 20
-493.391
 30
0.000000
  70
    32
  0
VERTEX
  8
É}ÿg
  5
5DD
 10
1065.20
 20
-493.398
 30
0.000000
  70
    32
  0
VERTEX
  8
É}ÿg
  5
5DE
 10
1065.24
 20
-493.404
 30
0.000000
  70
    32
  0
VERTEX
  8
É}ÿg
  5
5DF
 10
1065.28
 20
-493.410
 30
0.000000
  70
    32
  0
VERTEX
  8
É}ÿg
  5
5E0
 10
1065.31
 20
-493.417
 30
0.000000
  70
    32
  0
VERTEX
  8
É}ÿg
  5
5E1
 10
1065.35
 20
-493.423
 30
0.000000
  70
    32
  0
VERTEX
  8
É}ÿg
  5
5E2
 10
1065.39
 20
-493.429
 30
0.000000
  70
    32
  0
VERTEX
  8
É}ÿg
  5
5E3
 10
1065.42
 20
-493.436
 30
0.000000
  70
    32
  0
VERTEX
  8
É}ÿg
  5
5E4
 10
1065.46
 20
-493.442
 30
0.000000
  70
    32
  0
VERTEX
  8
É}ÿg
  5
5E5
 10
1065.50
 20
-493.448
 30
0.000000
  70
    32
  0
VERTEX
  8
É}ÿg
  5
5E6
 10
1065.54
 20
-493.454
 30
0.000000
  70
    32
  0
VERTEX
  8
É}ÿg
  5
5E7
 10
1065.57
 20
-493.461
 30
0.000000
  70
    32
  0
VERTEX
  8
É}ÿg
  5
5E8
 10
1065.61
 20
-493.467
 30
0.000000
  70
    32
  0
VERTEX
  8
É}ÿg
  5
5E9
 10
1065.65
 20
-493.473
 30
0.000000
  70
    32
  0
SEQEND
  8
É}ÿg
  5
5EA
  0
POLYLINE
  8
É}ÿg
  5
5EB
  66
     1
 10
0.000000
 20
0.000000
 30
0.000000
  70
     8
  0
VERTEX
  8
É}ÿg
  5
5EC
 10
1054.52
 20
-488.249
 30
0.000000
  70
    32
  0
VERTEX
  8
É}ÿg
  5
5ED
 10
1054.53
 20
-488.264
 30
0.000000
  70
    32
  0
VERTEX
  8
É}ÿg
  5
5EE
 10
1054.54
 20
-488.278
 30
0.000000
  70
    32
  0
VERTEX
  8
É}ÿg
  5
5EF
 10
1054.56
 20
-488.293
 30
0.000000
  70
    32
  0
VERTEX
  8
É}ÿg
  5
5F0
 10
1054.57
 20
-488.308
 30
0.000000
  70
    32
  0
VERTEX
  8
É}ÿg
  5
5F1
 10
1054.58
 20
-488.322
 30
0.000000
  70
    32
  0
VERTEX
  8
É}ÿg
  5
5F2
 10
1054.60
 20
-488.337
 30
0.000000
  70
    32
  0
VERTEX
  8
É}ÿg
  5
5F3
 10
1054.61
 20
-488.352
 30
0.000000
  70
    32
  0
VERTEX
  8
É}ÿg
  5
5F4
 10
1054.62
 20
-488.367
 30
0.000000
  70
    32
  0
VERTEX
  8
É}ÿg
  5
5F5
 10
1054.64
 20
-488.381
 30
0.000000
  70
    32
  0
VERTEX
  8
É}ÿg
  5
5F6
 10
1054.65
 20
-488.396
 30
0.000000
  70
    32
  0
VERTEX
  8
É}ÿg
  5
5F7
 10
1054.66
 20
-488.411
 30
0.000000
  70
    32
  0
VERTEX
  8
É}ÿg
  5
5F8
 10
1054.67
 20
-488.425
 30
0.000000
  70
    32
  0
VERTEX
  8
É}ÿg
  5
5F9
 10
1054.69
 20
-488.440
 30
0.000000
  70
    32
  0
VERTEX
  8
É}ÿg
  5
5FA
 10
1054.70
 20
-488.455
 30
0.000000
  70
    32
  0
VERTEX
  8
É}ÿg
  5
5FB
 10
1054.71
 20
-488.470
 30
0.000000
  70
    32
  0
VERTEX
  8
É}ÿg
  5
5FC
 10
1054.73
 20
-488.484
 30
0.000000
  70
    32
  0
VERTEX
  8
É}ÿg
  5
5FD
 10
1054.74
 20
-488.499
 30
0.000000
  70
    32
  0
VERTEX
  8
É}ÿg
  5
5FE
 10
1054.75
 20
-488.514
 30
0.000000
  70
    32
  0
VERTEX
  8
É}ÿg
  5
5FF
 10
1054.77
 20
-488.528
 30
0.000000
  70
    32
  0
VERTEX
  8
É}ÿg
  5
600
 10
1054.78
 20
-488.543
 30
0.000000
  70
    32
  0
VERTEX
  8
É}ÿg
  5
601
 10
1054.79
 20
-488.558
 30
0.000000
  70
    32
  0
VERTEX
  8
É}ÿg
  5
602
 10
1054.81
 20
-488.572
 30
0.000000
  70
    32
  0
VERTEX
  8
É}ÿg
  5
603
 10
1054.82
 20
-488.587
 30
0.000000
  70
    32
  0
VERTEX
  8
É}ÿg
  5
604
 10
1054.83
 20
-488.602
 30
0.000000
  70
    32
  0
VERTEX
  8
É}ÿg
  5
605
 10
1054.85
 20
-488.616
 30
0.000000
  70
    32
  0
VERTEX
  8
É}ÿg
  5
606
 10
1054.86
 20
-488.631
 30
0.000000
  70
    32
  0
VERTEX
  8
É}ÿg
  5
607
 10
1054.87
 20
-488.646
 30
0.000000
  70
    32
  0
VERTEX
  8
É}ÿg
  5
608
 10
1054.89
 20
-488.660
 30
0.000000
  70
    32
  0
VERTEX
  8
É}ÿg
  5
609
 10
1054.90
 20
-488.675
 30
0.000000
  70
    32
  0
VERTEX
  8
É}ÿg
  5
60A
 10
1054.91
 20
-488.689
 30
0.000000
  70
    32
  0
VERTEX
  8
É}ÿg
  5
60B
 10
1054.93
 20
-488.704
 30
0.000000
  70
    32
  0
VERTEX
  8
É}ÿg
  5
60C
 10
1054.94
 20
-488.719
 30
0.000000
  70
    32
  0
VERTEX
  8
É}ÿg
  5
60D
 10
1054.95
 20
-488.733
 30
0.000000
  70
    32
  0
VERTEX
  8
É}ÿg
  5
60E
 10
1054.97
 20
-488.748
 30
0.000000
  70
    32
  0
VERTEX
  8
É}ÿg
  5
60F
 10
1054.98
 20
-488.762
 30
0.000000
  70
    32
  0
VERTEX
  8
É}ÿg
  5
610
 10
1054.99
 20
-488.777
 30
0.000000
  70
    32
  0
VERTEX
  8
É}ÿg
  5
611
 10
1055.01
 20
-488.792
 30
0.000000
  70
    32
  0
VERTEX
  8
É}ÿg
  5
612
 10
1055.02
 20
-488.806
 30
0.000000
  70
    32
  0
VERTEX
  8
É}ÿg
  5
613
 10
1055.03
 20
-488.821
 30
0.000000
  70
    32
  0
VERTEX
  8
É}ÿg
  5
614
 10
1055.05
 20
-488.835
 30
0.000000
  70
    32
  0
VERTEX
  8
É}ÿg
  5
615
 10
1055.06
 20
-488.850
 30
0.000000
  70
    32
  0
VERTEX
  8
É}ÿg
  5
616
 10
1055.07
 20
-488.864
 30
0.000000
  70
    32
  0
VERTEX
  8
É}ÿg
  5
617
 10
1055.09
 20
-488.879
 30
0.000000
  70
    32
  0
VERTEX
  8
É}ÿg
  5
618
 10
1055.10
 20
-488.893
 30
0.000000
  70
    32
  0
VERTEX
  8
É}ÿg
  5
619
 10
1055.11
 20
-488.908
 30
0.000000
  70
    32
  0
VERTEX
  8
É}ÿg
  5
61A
 10
1055.13
 20
-488.922
 30
0.000000
  70
    32
  0
VERTEX
  8
É}ÿg
  5
61B
 10
1055.14
 20
-488.937
 30
0.000000
  70
    32
  0
VERTEX
  8
É}ÿg
  5
61C
 10
1055.15
 20
-488.951
 30
0.000000
  70
    32
  0
VERTEX
  8
É}ÿg
  5
61D
 10
1055.17
 20
-488.966
 30
0.000000
  70
    32
  0
VERTEX
  8
É}ÿg
  5
61E
 10
1055.18
 20
-488.980
 30
0.000000
  70
    32
  0
VERTEX
  8
É}ÿg
  5
61F
 10
1055.19
 20
-488.995
 30
0.000000
  70
    32
  0
VERTEX
  8
É}ÿg
  5
620
 10
1055.21
 20
-489.009
 30
0.000000
  70
    32
  0
VERTEX
  8
É}ÿg
  5
621
 10
1055.22
 20
-489.023
 30
0.000000
  70
    32
  0
VERTEX
  8
É}ÿg
  5
622
 10
1055.23
 20
-489.038
 30
0.000000
  70
    32
  0
VERTEX
  8
É}ÿg
  5
623
 10
1055.25
 20
-489.052
 30
0.000000
  70
    32
  0
VERTEX
  8
É}ÿg
  5
624
 10
1055.26
 20
-489.067
 30
0.000000
  70
    32
  0
VERTEX
  8
É}ÿg
  5
625
 10
1055.27
 20
-489.081
 30
0.000000
  70
    32
  0
VERTEX
  8
É}ÿg
  5
626
 10
1055.29
 20
-489.095
 30
0.000000
  70
    32
  0
VERTEX
  8
É}ÿg
  5
627
 10
1055.30
 20
-489.110
 30
0.000000
  70
    32
  0
VERTEX
  8
É}ÿg
  5
628
 10
1055.31
 20
-489.124
 30
0.000000
  70
    32
  0
VERTEX
  8
É}ÿg
  5
629
 10
1055.33
 20
-489.138
 30
0.000000
  70
    32
  0
VERTEX
  8
É}ÿg
  5
62A
 10
1055.34
 20
-489.153
 30
0.000000
  70
    32
  0
VERTEX
  8
É}ÿg
  5
62B
 10
1055.35
 20
-489.167
 30
0.000000
  70
    32
  0
VERTEX
  8
É}ÿg
  5
62C
 10
1055.37
 20
-489.181
 30
0.000000
  70
    32
  0
VERTEX
  8
É}ÿg
  5
62D
 10
1055.38
 20
-489.195
 30
0.000000
  70
    32
  0
VERTEX
  8
É}ÿg
  5
62E
 10
1055.39
 20
-489.210
 30
0.000000
  70
    32
  0
VERTEX
  8
É}ÿg
  5
62F
 10
1055.41
 20
-489.224
 30
0.000000
  70
    32
  0
VERTEX
  8
É}ÿg
  5
630
 10
1055.42
 20
-489.238
 30
0.000000
  70
    32
  0
VERTEX
  8
É}ÿg
  5
631
 10
1055.43
 20
-489.252
 30
0.000000
  70
    32
  0
VERTEX
  8
É}ÿg
  5
632
 10
1055.45
 20
-489.266
 30
0.000000
  70
    32
  0
VERTEX
  8
É}ÿg
  5
633
 10
1055.46
 20
-489.281
 30
0.000000
  70
    32
  0
VERTEX
  8
É}ÿg
  5
634
 10
1055.48
 20
-489.295
 30
0.000000
  70
    32
  0
VERTEX
  8
É}ÿg
  5
635
 10
1055.49
 20
-489.309
 30
0.000000
  70
    32
  0
VERTEX
  8
É}ÿg
  5
636
 10
1055.50
 20
-489.323
 30
0.000000
  70
    32
  0
VERTEX
  8
É}ÿg
  5
637
 10
1055.52
 20
-489.337
 30
0.000000
  70
    32
  0
VERTEX
  8
É}ÿg
  5
638
 10
1055.53
 20
-489.351
 30
0.000000
  70
    32
  0
VERTEX
  8
É}ÿg
  5
639
 10
1055.54
 20
-489.365
 30
0.000000
  70
    32
  0
VERTEX
  8
É}ÿg
  5
63A
 10
1055.56
 20
-489.379
 30
0.000000
  70
    32
  0
VERTEX
  8
É}ÿg
  5
63B
 10
1055.57
 20
-489.393
 30
0.000000
  70
    32
  0
VERTEX
  8
É}ÿg
  5
63C
 10
1055.58
 20
-489.407
 30
0.000000
  70
    32
  0
VERTEX
  8
É}ÿg
  5
63D
 10
1055.60
 20
-489.421
 30
0.000000
  70
    32
  0
VERTEX
  8
É}ÿg
  5
63E
 10
1055.61
 20
-489.435
 30
0.000000
  70
    32
  0
VERTEX
  8
É}ÿg
  5
63F
 10
1055.62
 20
-489.449
 30
0.000000
  70
    32
  0
VERTEX
  8
É}ÿg
  5
640
 10
1055.64
 20
-489.463
 30
0.000000
  70
    32
  0
VERTEX
  8
É}ÿg
  5
641
 10
1055.65
 20
-489.477
 30
0.000000
  70
    32
  0
VERTEX
  8
É}ÿg
  5
642
 10
1055.67
 20
-489.491
 30
0.000000
  70
    32
  0
VERTEX
  8
É}ÿg
  5
643
 10
1055.68
 20
-489.505
 30
0.000000
  70
    32
  0
VERTEX
  8
É}ÿg
  5
644
 10
1055.69
 20
-489.519
 30
0.000000
  70
    32
  0
VERTEX
  8
É}ÿg
  5
645
 10
1055.71
 20
-489.533
 30
0.000000
  70
    32
  0
VERTEX
  8
É}ÿg
  5
646
 10
1055.72
 20
-489.547
 30
0.000000
  70
    32
  0
VERTEX
  8
É}ÿg
  5
647
 10
1055.73
 20
-489.561
 30
0.000000
  70
    32
  0
VERTEX
  8
É}ÿg
  5
648
 10
1055.75
 20
-489.574
 30
0.000000
  70
    32
  0
VERTEX
  8
É}ÿg
  5
649
 10
1055.76
 20
-489.588
 30
0.000000
  70
    32
  0
VERTEX
  8
É}ÿg
  5
64A
 10
1055.78
 20
-489.602
 30
0.000000
  70
    32
  0
VERTEX
  8
É}ÿg
  5
64B
 10
1055.79
 20
-489.616
 30
0.000000
  70
    32
  0
VERTEX
  8
É}ÿg
  5
64C
 10
1055.80
 20
-489.629
 30
0.000000
  70
    32
  0
VERTEX
  8
É}ÿg
  5
64D
 10
1055.82
 20
-489.643
 30
0.000000
  70
    32
  0
VERTEX
  8
É}ÿg
  5
64E
 10
1055.83
 20
-489.657
 30
0.000000
  70
    32
  0
VERTEX
  8
É}ÿg
  5
64F
 10
1055.85
 20
-489.670
 30
0.000000
  70
    32
  0
VERTEX
  8
É}ÿg
  5
650
 10
1055.86
 20
-489.684
 30
0.000000
  70
    32
  0
VERTEX
  8
É}ÿg
  5
651
 10
1055.87
 20
-489.698
 30
0.000000
  70
    32
  0
VERTEX
  8
É}ÿg
  5
652
 10
1055.89
 20
-489.711
 30
0.000000
  70
    32
  0
VERTEX
  8
É}ÿg
  5
653
 10
1055.90
 20
-489.725
 30
0.000000
  70
    32
  0
VERTEX
  8
É}ÿg
  5
654
 10
1055.91
 20
-489.738
 30
0.000000
  70
    32
  0
VERTEX
  8
É}ÿg
  5
655
 10
1055.93
 20
-489.752
 30
0.000000
  70
    32
  0
VERTEX
  8
É}ÿg
  5
656
 10
1055.94
 20
-489.765
 30
0.000000
  70
    32
  0
VERTEX
  8
É}ÿg
  5
657
 10
1055.96
 20
-489.779
 30
0.000000
  70
    32
  0
VERTEX
  8
É}ÿg
  5
658
 10
1055.97
 20
-489.792
 30
0.000000
  70
    32
  0
VERTEX
  8
É}ÿg
  5
659
 10
1055.98
 20
-489.806
 30
0.000000
  70
    32
  0
VERTEX
  8
É}ÿg
  5
65A
 10
1056.00
 20
-489.819
 30
0.000000
  70
    32
  0
VERTEX
  8
É}ÿg
  5
65B
 10
1056.01
 20
-489.832
 30
0.000000
  70
    32
  0
VERTEX
  8
É}ÿg
  5
65C
 10
1056.03
 20
-489.846
 30
0.000000
  70
    32
  0
VERTEX
  8
É}ÿg
  5
65D
 10
1056.04
 20
-489.859
 30
0.000000
  70
    32
  0
VERTEX
  8
É}ÿg
  5
65E
 10
1056.05
 20
-489.872
 30
0.000000
  70
    32
  0
VERTEX
  8
É}ÿg
  5
65F
 10
1056.07
 20
-489.886
 30
0.000000
  70
    32
  0
VERTEX
  8
É}ÿg
  5
660
 10
1056.08
 20
-489.899
 30
0.000000
  70
    32
  0
VERTEX
  8
É}ÿg
  5
661
 10
1056.10
 20
-489.912
 30
0.000000
  70
    32
  0
VERTEX
  8
É}ÿg
  5
662
 10
1056.11
 20
-489.925
 30
0.000000
  70
    32
  0
VERTEX
  8
É}ÿg
  5
663
 10
1056.13
 20
-489.938
 30
0.000000
  70
    32
  0
VERTEX
  8
É}ÿg
  5
664
 10
1056.14
 20
-489.952
 30
0.000000
  70
    32
  0
VERTEX
  8
É}ÿg
  5
665
 10
1056.15
 20
-489.965
 30
0.000000
  70
    32
  0
VERTEX
  8
É}ÿg
  5
666
 10
1056.17
 20
-489.978
 30
0.000000
  70
    32
  0
VERTEX
  8
É}ÿg
  5
667
 10
1056.18
 20
-489.991
 30
0.000000
  70
    32
  0
VERTEX
  8
É}ÿg
  5
668
 10
1056.20
 20
-490.004
 30
0.000000
  70
    32
  0
VERTEX
  8
É}ÿg
  5
669
 10
1056.21
 20
-490.017
 30
0.000000
  70
    32
  0
VERTEX
  8
É}ÿg
  5
66A
 10
1056.22
 20
-490.030
 30
0.000000
  70
    32
  0
VERTEX
  8
É}ÿg
  5
66B
 10
1056.24
 20
-490.043
 30
0.000000
  70
    32
  0
SEQEND
  8
É}ÿg
  5
66C
  0
POLYLINE
  8
É}ÿg
  5
66D
  66
     1
 10
0.000000
 20
0.000000
 30
0.000000
  70
     8
  0
VERTEX
  8
É}ÿg
  5
66E
 10
1058.57
 20
-494.746
 30
0.000000
  70
    32
  0
VERTEX
  8
É}ÿg
  5
66F
 10
1058.62
 20
-494.763
 30
0.000000
  70
    32
  0
VERTEX
  8
É}ÿg
  5
670
 10
1058.67
 20
-494.780
 30
0.000000
  70
    32
  0
VERTEX
  8
É}ÿg
  5
671
 10
1058.73
 20
-494.797
 30
0.000000
  70
    32
  0
VERTEX
  8
É}ÿg
  5
672
 10
1058.78
 20
-494.814
 30
0.000000
  70
    32
  0
VERTEX
  8
É}ÿg
  5
673
 10
1058.84
 20
-494.831
 30
0.000000
  70
    32
  0
VERTEX
  8
É}ÿg
  5
674
 10
1058.89
 20
-494.848
 30
0.000000
  70
    32
  0
VERTEX
  8
É}ÿg
  5
675
 10
1058.94
 20
-494.864
 30
0.000000
  70
    32
  0
VERTEX
  8
É}ÿg
  5
676
 10
1059.00
 20
-494.881
 30
0.000000
  70
    32
  0
VERTEX
  8
É}ÿg
  5
677
 10
1059.05
 20
-494.897
 30
0.000000
  70
    32
  0
VERTEX
  8
É}ÿg
  5
678
 10
1059.11
 20
-494.914
 30
0.000000
  70
    32
  0
VERTEX
  8
É}ÿg
  5
679
 10
1059.16
 20
-494.930
 30
0.000000
  70
    32
  0
VERTEX
  8
É}ÿg
  5
67A
 10
1059.21
 20
-494.947
 30
0.000000
  70
    32
  0
VERTEX
  8
É}ÿg
  5
67B
 10
1059.27
 20
-494.963
 30
0.000000
  70
    32
  0
VERTEX
  8
É}ÿg
  5
67C
 10
1059.32
 20
-494.979
 30
0.000000
  70
    32
  0
VERTEX
  8
É}ÿg
  5
67D
 10
1059.38
 20
-494.995
 30
0.000000
  70
    32
  0
VERTEX
  8
É}ÿg
  5
67E
 10
1059.43
 20
-495.011
 30
0.000000
  70
    32
  0
VERTEX
  8
É}ÿg
  5
67F
 10
1059.49
 20
-495.027
 30
0.000000
  70
    32
  0
VERTEX
  8
É}ÿg
  5
680
 10
1059.54
 20
-495.043
 30
0.000000
  70
    32
  0
VERTEX
  8
É}ÿg
  5
681
 10
1059.60
 20
-495.058
 30
0.000000
  70
    32
  0
VERTEX
  8
É}ÿg
  5
682
 10
1059.65
 20
-495.074
 30
0.000000
  70
    32
  0
VERTEX
  8
É}ÿg
  5
683
 10
1059.71
 20
-495.090
 30
0.000000
  70
    32
  0
VERTEX
  8
É}ÿg
  5
684
 10
1059.76
 20
-495.105
 30
0.000000
  70
    32
  0
VERTEX
  8
É}ÿg
  5
685
 10
1059.81
 20
-495.121
 30
0.000000
  70
    32
  0
VERTEX
  8
É}ÿg
  5
686
 10
1059.87
 20
-495.136
 30
0.000000
  70
    32
  0
VERTEX
  8
É}ÿg
  5
687
 10
1059.92
 20
-495.151
 30
0.000000
  70
    32
  0
VERTEX
  8
É}ÿg
  5
688
 10
1059.98
 20
-495.167
 30
0.000000
  70
    32
  0
VERTEX
  8
É}ÿg
  5
689
 10
1060.03
 20
-495.182
 30
0.000000
  70
    32
  0
VERTEX
  8
É}ÿg
  5
68A
 10
1060.09
 20
-495.197
 30
0.000000
  70
    32
  0
VERTEX
  8
É}ÿg
  5
68B
 10
1060.14
 20
-495.212
 30
0.000000
  70
    32
  0
VERTEX
  8
É}ÿg
  5
68C
 10
1060.20
 20
-495.227
 30
0.000000
  70
    32
  0
VERTEX
  8
É}ÿg
  5
68D
 10
1060.25
 20
-495.242
 30
0.000000
  70
    32
  0
VERTEX
  8
É}ÿg
  5
68E
 10
1060.31
 20
-495.257
 30
0.000000
  70
    32
  0
VERTEX
  8
É}ÿg
  5
68F
 10
1060.36
 20
-495.272
 30
0.000000
  70
    32
  0
VERTEX
  8
É}ÿg
  5
690
 10
1060.42
 20
-495.286
 30
0.000000
  70
    32
  0
VERTEX
  8
É}ÿg
  5
691
 10
1060.47
 20
-495.301
 30
0.000000
  70
    32
  0
VERTEX
  8
É}ÿg
  5
692
 10
1060.53
 20
-495.316
 30
0.000000
  70
    32
  0
VERTEX
  8
É}ÿg
  5
693
 10
1060.59
 20
-495.330
 30
0.000000
  70
    32
  0
VERTEX
  8
É}ÿg
  5
694
 10
1060.64
 20
-495.345
 30
0.000000
  70
    32
  0
VERTEX
  8
É}ÿg
  5
695
 10
1060.70
 20
-495.359
 30
0.000000
  70
    32
  0
VERTEX
  8
É}ÿg
  5
696
 10
1060.75
 20
-495.373
 30
0.000000
  70
    32
  0
VERTEX
  8
É}ÿg
  5
697
 10
1060.81
 20
-495.388
 30
0.000000
  70
    32
  0
VERTEX
  8
É}ÿg
  5
698
 10
1060.86
 20
-495.402
 30
0.000000
  70
    32
  0
VERTEX
  8
É}ÿg
  5
699
 10
1060.92
 20
-495.416
 30
0.000000
  70
    32
  0
VERTEX
  8
É}ÿg
  5
69A
 10
1060.97
 20
-495.430
 30
0.000000
  70
    32
  0
VERTEX
  8
É}ÿg
  5
69B
 10
1061.03
 20
-495.444
 30
0.000000
  70
    32
  0
VERTEX
  8
É}ÿg
  5
69C
 10
1061.08
 20
-495.458
 30
0.000000
  70
    32
  0
VERTEX
  8
É}ÿg
  5
69D
 10
1061.14
 20
-495.472
 30
0.000000
  70
    32
  0
VERTEX
  8
É}ÿg
  5
69E
 10
1061.19
 20
-495.486
 30
0.000000
  70
    32
  0
VERTEX
  8
É}ÿg
  5
69F
 10
1061.25
 20
-495.500
 30
0.000000
  70
    32
  0
VERTEX
  8
É}ÿg
  5
6A0
 10
1061.31
 20
-495.514
 30
0.000000
  70
    32
  0
VERTEX
  8
É}ÿg
  5
6A1
 10
1061.36
 20
-495.528
 30
0.000000
  70
    32
  0
VERTEX
  8
É}ÿg
  5
6A2
 10
1061.42
 20
-495.541
 30
0.000000
  70
    32
  0
VERTEX
  8
É}ÿg
  5
6A3
 10
1061.47
 20
-495.555
 30
0.000000
  70
    32
  0
VERTEX
  8
É}ÿg
  5
6A4
 10
1061.53
 20
-495.569
 30
0.000000
  70
    32
  0
VERTEX
  8
É}ÿg
  5
6A5
 10
1061.58
 20
-495.582
 30
0.000000
  70
    32
  0
VERTEX
  8
É}ÿg
  5
6A6
 10
1061.64
 20
-495.596
 30
0.000000
  70
    32
  0
VERTEX
  8
É}ÿg
  5
6A7
 10
1061.70
 20
-495.609
 30
0.000000
  70
    32
  0
VERTEX
  8
É}ÿg
  5
6A8
 10
1061.75
 20
-495.623
 30
0.000000
  70
    32
  0
VERTEX
  8
É}ÿg
  5
6A9
 10
1061.81
 20
-495.636
 30
0.000000
  70
    32
  0
VERTEX
  8
É}ÿg
  5
6AA
 10
1061.86
 20
-495.649
 30
0.000000
  70
    32
  0
VERTEX
  8
É}ÿg
  5
6AB
 10
1061.92
 20
-495.663
 30
0.000000
  70
    32
  0
VERTEX
  8
É}ÿg
  5
6AC
 10
1061.98
 20
-495.676
 30
0.000000
  70
    32
  0
VERTEX
  8
É}ÿg
  5
6AD
 10
1062.03
 20
-495.689
 30
0.000000
  70
    32
  0
VERTEX
  8
É}ÿg
  5
6AE
 10
1062.09
 20
-495.702
 30
0.000000
  70
    32
  0
VERTEX
  8
É}ÿg
  5
6AF
 10
1062.14
 20
-495.715
 30
0.000000
  70
    32
  0
VERTEX
  8
É}ÿg
  5
6B0
 10
1062.20
 20
-495.728
 30
0.000000
  70
    32
  0
VERTEX
  8
É}ÿg
  5
6B1
 10
1062.26
 20
-495.741
 30
0.000000
  70
    32
  0
VERTEX
  8
É}ÿg
  5
6B2
 10
1062.31
 20
-495.754
 30
0.000000
  70
    32
  0
VERTEX
  8
É}ÿg
  5
6B3
 10
1062.37
 20
-495.767
 30
0.000000
  70
    32
  0
VERTEX
  8
É}ÿg
  5
6B4
 10
1062.42
 20
-495.780
 30
0.000000
  70
    32
  0
VERTEX
  8
É}ÿg
  5
6B5
 10
1062.48
 20
-495.793
 30
0.000000
  70
    32
  0
VERTEX
  8
É}ÿg
  5
6B6
 10
1062.54
 20
-495.806
 30
0.000000
  70
    32
  0
VERTEX
  8
É}ÿg
  5
6B7
 10
1062.59
 20
-495.819
 30
0.000000
  70
    32
  0
VERTEX
  8
É}ÿg
  5
6B8
 10
1062.65
 20
-495.831
 30
0.000000
  70
    32
  0
VERTEX
  8
É}ÿg
  5
6B9
 10
1062.71
 20
-495.844
 30
0.000000
  70
    32
  0
VERTEX
  8
É}ÿg
  5
6BA
 10
1062.76
 20
-495.857
 30
0.000000
  70
    32
  0
VERTEX
  8
É}ÿg
  5
6BB
 10
1062.82
 20
-495.869
 30
0.000000
  70
    32
  0
VERTEX
  8
É}ÿg
  5
6BC
 10
1062.87
 20
-495.882
 30
0.000000
  70
    32
  0
VERTEX
  8
É}ÿg
  5
6BD
 10
1062.93
 20
-495.895
 30
0.000000
  70
    32
  0
VERTEX
  8
É}ÿg
  5
6BE
 10
1062.99
 20
-495.907
 30
0.000000
  70
    32
  0
VERTEX
  8
É}ÿg
  5
6BF
 10
1063.04
 20
-495.920
 30
0.000000
  70
    32
  0
VERTEX
  8
É}ÿg
  5
6C0
 10
1063.10
 20
-495.932
 30
0.000000
  70
    32
  0
VERTEX
  8
É}ÿg
  5
6C1
 10
1063.16
 20
-495.945
 30
0.000000
  70
    32
  0
VERTEX
  8
É}ÿg
  5
6C2
 10
1063.21
 20
-495.957
 30
0.000000
  70
    32
  0
VERTEX
  8
É}ÿg
  5
6C3
 10
1063.27
 20
-495.970
 30
0.000000
  70
    32
  0
VERTEX
  8
É}ÿg
  5
6C4
 10
1063.33
 20
-495.982
 30
0.000000
  70
    32
  0
VERTEX
  8
É}ÿg
  5
6C5
 10
1063.38
 20
-495.994
 30
0.000000
  70
    32
  0
VERTEX
  8
É}ÿg
  5
6C6
 10
1063.44
 20
-496.007
 30
0.000000
  70
    32
  0
VERTEX
  8
É}ÿg
  5
6C7
 10
1063.49
 20
-496.019
 30
0.000000
  70
    32
  0
VERTEX
  8
É}ÿg
  5
6C8
 10
1063.55
 20
-496.031
 30
0.000000
  70
    32
  0
VERTEX
  8
É}ÿg
  5
6C9
 10
1063.61
 20
-496.043
 30
0.000000
  70
    32
  0
VERTEX
  8
É}ÿg
  5
6CA
 10
1063.66
 20
-496.056
 30
0.000000
  70
    32
  0
VERTEX
  8
É}ÿg
  5
6CB
 10
1063.72
 20
-496.068
 30
0.000000
  70
    32
  0
VERTEX
  8
É}ÿg
  5
6CC
 10
1063.78
 20
-496.080
 30
0.000000
  70
    32
  0
VERTEX
  8
É}ÿg
  5
6CD
 10
1063.83
 20
-496.092
 30
0.000000
  70
    32
  0
VERTEX
  8
É}ÿg
  5
6CE
 10
1063.89
 20
-496.104
 30
0.000000
  70
    32
  0
VERTEX
  8
É}ÿg
  5
6CF
 10
1063.95
 20
-496.116
 30
0.000000
  70
    32
  0
VERTEX
  8
É}ÿg
  5
6D0
 10
1064.00
 20
-496.128
 30
0.000000
  70
    32
  0
VERTEX
  8
É}ÿg
  5
6D1
 10
1064.06
 20
-496.141
 30
0.000000
  70
    32
  0
VERTEX
  8
É}ÿg
  5
6D2
 10
1064.12
 20
-496.153
 30
0.000000
  70
    32
  0
VERTEX
  8
É}ÿg
  5
6D3
 10
1064.17
 20
-496.165
 30
0.000000
  70
    32
  0
VERTEX
  8
É}ÿg
  5
6D4
 10
1064.23
 20
-496.177
 30
0.000000
  70
    32
  0
VERTEX
  8
É}ÿg
  5
6D5
 10
1064.29
 20
-496.189
 30
0.000000
  70
    32
  0
VERTEX
  8
É}ÿg
  5
6D6
 10
1064.34
 20
-496.201
 30
0.000000
  70
    32
  0
VERTEX
  8
É}ÿg
  5
6D7
 10
1064.40
 20
-496.213
 30
0.000000
  70
    32
  0
VERTEX
  8
É}ÿg
  5
6D8
 10
1064.46
 20
-496.225
 30
0.000000
  70
    32
  0
VERTEX
  8
É}ÿg
  5
6D9
 10
1064.51
 20
-496.236
 30
0.000000
  70
    32
  0
VERTEX
  8
É}ÿg
  5
6DA
 10
1064.57
 20
-496.248
 30
0.000000
  70
    32
  0
VERTEX
  8
É}ÿg
  5
6DB
 10
1064.63
 20
-496.260
 30
0.000000
  70
    32
  0
VERTEX
  8
É}ÿg
  5
6DC
 10
1064.68
 20
-496.272
 30
0.000000
  70
    32
  0
VERTEX
  8
É}ÿg
  5
6DD
 10
1064.74
 20
-496.284
 30
0.000000
  70
    32
  0
VERTEX
  8
É}ÿg
  5
6DE
 10
1064.80
 20
-496.296
 30
0.000000
  70
    32
  0
VERTEX
  8
É}ÿg
  5
6DF
 10
1064.85
 20
-496.308
 30
0.000000
  70
    32
  0
VERTEX
  8
É}ÿg
  5
6E0
 10
1064.91
 20
-496.320
 30
0.000000
  70
    32
  0
VERTEX
  8
É}ÿg
  5
6E1
 10
1064.97
 20
-496.332
 30
0.000000
  70
    32
  0
VERTEX
  8
É}ÿg
  5
6E2
 10
1065.02
 20
-496.343
 30
0.000000
  70
    32
  0
VERTEX
  8
É}ÿg
  5
6E3
 10
1065.08
 20
-496.355
 30
0.000000
  70
    32
  0
VERTEX
  8
É}ÿg
  5
6E4
 10
1065.14
 20
-496.367
 30
0.000000
  70
    32
  0
VERTEX
  8
É}ÿg
  5
6E5
 10
1065.19
 20
-496.379
 30
0.000000
  70
    32
  0
VERTEX
  8
É}ÿg
  5
6E6
 10
1065.25
 20
-496.391
 30
0.000000
  70
    32
  0
VERTEX
  8
É}ÿg
  5
6E7
 10
1065.31
 20
-496.402
 30
0.000000
  70
    32
  0
VERTEX
  8
É}ÿg
  5
6E8
 10
1065.36
 20
-496.414
 30
0.000000
  70
    32
  0
VERTEX
  8
É}ÿg
  5
6E9
 10
1065.42
 20
-496.426
 30
0.000000
  70
    32
  0
VERTEX
  8
É}ÿg
  5
6EA
 10
1065.48
 20
-496.438
 30
0.000000
  70
    32
  0
VERTEX
  8
É}ÿg
  5
6EB
 10
1065.53
 20
-496.450
 30
0.000000
  70
    32
  0
VERTEX
  8
É}ÿg
  5
6EC
 10
1065.59
 20
-496.461
 30
0.000000
  70
    32
  0
VERTEX
  8
É}ÿg
  5
6ED
 10
1065.65
 20
-496.473
 30
0.000000
  70
    32
  0
SEQEND
  8
É}ÿg
  5
6EE
  0
POLYLINE
  8
É}ÿg
  5
6EF
  66
     1
 10
0.000000
 20
0.000000
 30
0.000000
  70
     8
  0
VERTEX
  8
É}ÿg
  5
6F0
 10
1047.65
 20
-487.762
 30
0.000000
  70
    32
  0
VERTEX
  8
É}ÿg
  5
6F1
 10
1047.68
 20
-487.795
 30
0.000000
  70
    32
  0
VERTEX
  8
É}ÿg
  5
6F2
 10
1047.72
 20
-487.828
 30
0.000000
  70
    32
  0
VERTEX
  8
É}ÿg
  5
6F3
 10
1047.76
 20
-487.861
 30
0.000000
  70
    32
  0
VERTEX
  8
É}ÿg
  5
6F4
 10
1047.79
 20
-487.895
 30
0.000000
  70
    32
  0
VERTEX
  8
É}ÿg
  5
6F5
 10
1047.83
 20
-487.928
 30
0.000000
  70
    32
  0
VERTEX
  8
É}ÿg
  5
6F6
 10
1047.86
 20
-487.961
 30
0.000000
  70
    32
  0
VERTEX
  8
É}ÿg
  5
6F7
 10
1047.90
 20
-487.994
 30
0.000000
  70
    32
  0
VERTEX
  8
É}ÿg
  5
6F8
 10
1047.94
 20
-488.027
 30
0.000000
  70
    32
  0
VERTEX
  8
É}ÿg
  5
6F9
 10
1047.97
 20
-488.060
 30
0.000000
  70
    32
  0
VERTEX
  8
É}ÿg
  5
6FA
 10
1048.01
 20
-488.094
 30
0.000000
  70
    32
  0
VERTEX
  8
É}ÿg
  5
6FB
 10
1048.04
 20
-488.127
 30
0.000000
  70
    32
  0
VERTEX
  8
É}ÿg
  5
6FC
 10
1048.08
 20
-488.160
 30
0.000000
  70
    32
  0
VERTEX
  8
É}ÿg
  5
6FD
 10
1048.12
 20
-488.193
 30
0.000000
  70
    32
  0
VERTEX
  8
É}ÿg
  5
6FE
 10
1048.15
 20
-488.226
 30
0.000000
  70
    32
  0
VERTEX
  8
É}ÿg
  5
6FF
 10
1048.19
 20
-488.259
 30
0.000000
  70
    32
  0
VERTEX
  8
É}ÿg
  5
700
 10
1048.22
 20
-488.293
 30
0.000000
  70
    32
  0
VERTEX
  8
É}ÿg
  5
701
 10
1048.26
 20
-488.326
 30
0.000000
  70
    32
  0
VERTEX
  8
É}ÿg
  5
702
 10
1048.30
 20
-488.359
 30
0.000000
  70
    32
  0
VERTEX
  8
É}ÿg
  5
703
 10
1048.33
 20
-488.392
 30
0.000000
  70
    32
  0
VERTEX
  8
É}ÿg
  5
704
 10
1048.37
 20
-488.425
 30
0.000000
  70
    32
  0
VERTEX
  8
É}ÿg
  5
705
 10
1048.40
 20
-488.458
 30
0.000000
  70
    32
  0
VERTEX
  8
É}ÿg
  5
706
 10
1048.44
 20
-488.491
 30
0.000000
  70
    32
  0
VERTEX
  8
É}ÿg
  5
707
 10
1048.48
 20
-488.524
 30
0.000000
  70
    32
  0
VERTEX
  8
É}ÿg
  5
708
 10
1048.51
 20
-488.557
 30
0.000000
  70
    32
  0
VERTEX
  8
É}ÿg
  5
709
 10
1048.55
 20
-488.590
 30
0.000000
  70
    32
  0
VERTEX
  8
É}ÿg
  5
70A
 10
1048.59
 20
-488.623
 30
0.000000
  70
    32
  0
VERTEX
  8
É}ÿg
  5
70B
 10
1048.62
 20
-488.656
 30
0.000000
  70
    32
  0
VERTEX
  8
É}ÿg
  5
70C
 10
1048.66
 20
-488.689
 30
0.000000
  70
    32
  0
VERTEX
  8
É}ÿg
  5
70D
 10
1048.69
 20
-488.722
 30
0.000000
  70
    32
  0
VERTEX
  8
É}ÿg
  5
70E
 10
1048.73
 20
-488.755
 30
0.000000
  70
    32
  0
VERTEX
  8
É}ÿg
  5
70F
 10
1048.77
 20
-488.788
 30
0.000000
  70
    32
  0
VERTEX
  8
É}ÿg
  5
710
 10
1048.80
 20
-488.821
 30
0.000000
  70
    32
  0
VERTEX
  8
É}ÿg
  5
711
 10
1048.84
 20
-488.853
 30
0.000000
  70
    32
  0
VERTEX
  8
É}ÿg
  5
712
 10
1048.88
 20
-488.886
 30
0.000000
  70
    32
  0
VERTEX
  8
É}ÿg
  5
713
 10
1048.91
 20
-488.919
 30
0.000000
  70
    32
  0
VERTEX
  8
É}ÿg
  5
714
 10
1048.95
 20
-488.952
 30
0.000000
  70
    32
  0
VERTEX
  8
É}ÿg
  5
715
 10
1048.98
 20
-488.984
 30
0.000000
  70
    32
  0
VERTEX
  8
É}ÿg
  5
716
 10
1049.02
 20
-489.017
 30
0.000000
  70
    32
  0
VERTEX
  8
É}ÿg
  5
717
 10
1049.06
 20
-489.050
 30
0.000000
  70
    32
  0
VERTEX
  8
É}ÿg
  5
718
 10
1049.09
 20
-489.083
 30
0.000000
  70
    32
  0
VERTEX
  8
É}ÿg
  5
719
 10
1049.13
 20
-489.115
 30
0.000000
  70
    32
  0
VERTEX
  8
É}ÿg
  5
71A
 10
1049.17
 20
-489.148
 30
0.000000
  70
    32
  0
VERTEX
  8
É}ÿg
  5
71B
 10
1049.20
 20
-489.180
 30
0.000000
  70
    32
  0
VERTEX
  8
É}ÿg
  5
71C
 10
1049.24
 20
-489.213
 30
0.000000
  70
    32
  0
VERTEX
  8
É}ÿg
  5
71D
 10
1049.27
 20
-489.245
 30
0.000000
  70
    32
  0
VERTEX
  8
É}ÿg
  5
71E
 10
1049.31
 20
-489.278
 30
0.000000
  70
    32
  0
VERTEX
  8
É}ÿg
  5
71F
 10
1049.35
 20
-489.310
 30
0.000000
  70
    32
  0
VERTEX
  8
É}ÿg
  5
720
 10
1049.38
 20
-489.343
 30
0.000000
  70
    32
  0
VERTEX
  8
É}ÿg
  5
721
 10
1049.42
 20
-489.375
 30
0.000000
  70
    32
  0
VERTEX
  8
É}ÿg
  5
722
 10
1049.46
 20
-489.408
 30
0.000000
  70
    32
  0
VERTEX
  8
É}ÿg
  5
723
 10
1049.49
 20
-489.440
 30
0.000000
  70
    32
  0
VERTEX
  8
É}ÿg
  5
724
 10
1049.53
 20
-489.472
 30
0.000000
  70
    32
  0
VERTEX
  8
É}ÿg
  5
725
 10
1049.57
 20
-489.504
 30
0.000000
  70
    32
  0
VERTEX
  8
É}ÿg
  5
726
 10
1049.60
 20
-489.537
 30
0.000000
  70
    32
  0
VERTEX
  8
É}ÿg
  5
727
 10
1049.64
 20
-489.569
 30
0.000000
  70
    32
  0
VERTEX
  8
É}ÿg
  5
728
 10
1049.68
 20
-489.601
 30
0.000000
  70
    32
  0
VERTEX
  8
É}ÿg
  5
729
 10
1049.71
 20
-489.633
 30
0.000000
  70
    32
  0
VERTEX
  8
É}ÿg
  5
72A
 10
1049.75
 20
-489.665
 30
0.000000
  70
    32
  0
VERTEX
  8
É}ÿg
  5
72B
 10
1049.79
 20
-489.697
 30
0.000000
  70
    32
  0
VERTEX
  8
É}ÿg
  5
72C
 10
1049.82
 20
-489.729
 30
0.000000
  70
    32
  0
VERTEX
  8
É}ÿg
  5
72D
 10
1049.86
 20
-489.761
 30
0.000000
  70
    32
  0
VERTEX
  8
É}ÿg
  5
72E
 10
1049.90
 20
-489.793
 30
0.000000
  70
    32
  0
VERTEX
  8
É}ÿg
  5
72F
 10
1049.93
 20
-489.825
 30
0.000000
  70
    32
  0
VERTEX
  8
É}ÿg
  5
730
 10
1049.97
 20
-489.857
 30
0.000000
  70
    32
  0
VERTEX
  8
É}ÿg
  5
731
 10
1050.01
 20
-489.888
 30
0.000000
  70
    32
  0
VERTEX
  8
É}ÿg
  5
732
 10
1050.04
 20
-489.920
 30
0.000000
  70
    32
  0
VERTEX
  8
É}ÿg
  5
733
 10
1050.08
 20
-489.952
 30
0.000000
  70
    32
  0
VERTEX
  8
É}ÿg
  5
734
 10
1050.12
 20
-489.983
 30
0.000000
  70
    32
  0
VERTEX
  8
É}ÿg
  5
735
 10
1050.15
 20
-490.015
 30
0.000000
  70
    32
  0
VERTEX
  8
É}ÿg
  5
736
 10
1050.19
 20
-490.047
 30
0.000000
  70
    32
  0
VERTEX
  8
É}ÿg
  5
737
 10
1050.23
 20
-490.078
 30
0.000000
  70
    32
  0
VERTEX
  8
É}ÿg
  5
738
 10
1050.26
 20
-490.110
 30
0.000000
  70
    32
  0
VERTEX
  8
É}ÿg
  5
739
 10
1050.30
 20
-490.141
 30
0.000000
  70
    32
  0
VERTEX
  8
É}ÿg
  5
73A
 10
1050.34
 20
-490.172
 30
0.000000
  70
    32
  0
VERTEX
  8
É}ÿg
  5
73B
 10
1050.38
 20
-490.204
 30
0.000000
  70
    32
  0
VERTEX
  8
É}ÿg
  5
73C
 10
1050.41
 20
-490.235
 30
0.000000
  70
    32
  0
VERTEX
  8
É}ÿg
  5
73D
 10
1050.45
 20
-490.266
 30
0.000000
  70
    32
  0
VERTEX
  8
É}ÿg
  5
73E
 10
1050.49
 20
-490.297
 30
0.000000
  70
    32
  0
VERTEX
  8
É}ÿg
  5
73F
 10
1050.52
 20
-490.328
 30
0.000000
  70
    32
  0
VERTEX
  8
É}ÿg
  5
740
 10
1050.56
 20
-490.359
 30
0.000000
  70
    32
  0
VERTEX
  8
É}ÿg
  5
741
 10
1050.60
 20
-490.390
 30
0.000000
  70
    32
  0
VERTEX
  8
É}ÿg
  5
742
 10
1050.64
 20
-490.421
 30
0.000000
  70
    32
  0
VERTEX
  8
É}ÿg
  5
743
 10
1050.67
 20
-490.452
 30
0.000000
  70
    32
  0
VERTEX
  8
É}ÿg
  5
744
 10
1050.71
 20
-490.483
 30
0.000000
  70
    32
  0
VERTEX
  8
É}ÿg
  5
745
 10
1050.75
 20
-490.513
 30
0.000000
  70
    32
  0
VERTEX
  8
É}ÿg
  5
746
 10
1050.79
 20
-490.544
 30
0.000000
  70
    32
  0
VERTEX
  8
É}ÿg
  5
747
 10
1050.82
 20
-490.575
 30
0.000000
  70
    32
  0
VERTEX
  8
É}ÿg
  5
748
 10
1050.86
 20
-490.605
 30
0.000000
  70
    32
  0
VERTEX
  8
É}ÿg
  5
749
 10
1050.90
 20
-490.636
 30
0.000000
  70
    32
  0
VERTEX
  8
É}ÿg
  5
74A
 10
1050.94
 20
-490.666
 30
0.000000
  70
    32
  0
VERTEX
  8
É}ÿg
  5
74B
 10
1050.97
 20
-490.697
 30
0.000000
  70
    32
  0
VERTEX
  8
É}ÿg
  5
74C
 10
1051.01
 20
-490.727
 30
0.000000
  70
    32
  0
VERTEX
  8
É}ÿg
  5
74D
 10
1051.05
 20
-490.757
 30
0.000000
  70
    32
  0
VERTEX
  8
É}ÿg
  5
74E
 10
1051.09
 20
-490.787
 30
0.000000
  70
    32
  0
VERTEX
  8
É}ÿg
  5
74F
 10
1051.12
 20
-490.817
 30
0.000000
  70
    32
  0
VERTEX
  8
É}ÿg
  5
750
 10
1051.16
 20
-490.848
 30
0.000000
  70
    32
  0
VERTEX
  8
É}ÿg
  5
751
 10
1051.20
 20
-490.878
 30
0.000000
  70
    32
  0
VERTEX
  8
É}ÿg
  5
752
 10
1051.24
 20
-490.907
 30
0.000000
  70
    32
  0
VERTEX
  8
É}ÿg
  5
753
 10
1051.27
 20
-490.937
 30
0.000000
  70
    32
  0
VERTEX
  8
É}ÿg
  5
754
 10
1051.31
 20
-490.967
 30
0.000000
  70
    32
  0
VERTEX
  8
É}ÿg
  5
755
 10
1051.35
 20
-490.997
 30
0.000000
  70
    32
  0
VERTEX
  8
É}ÿg
  5
756
 10
1051.39
 20
-491.026
 30
0.000000
  70
    32
  0
VERTEX
  8
É}ÿg
  5
757
 10
1051.43
 20
-491.056
 30
0.000000
  70
    32
  0
VERTEX
  8
É}ÿg
  5
758
 10
1051.46
 20
-491.086
 30
0.000000
  70
    32
  0
VERTEX
  8
É}ÿg
  5
759
 10
1051.50
 20
-491.115
 30
0.000000
  70
    32
  0
VERTEX
  8
É}ÿg
  5
75A
 10
1051.54
 20
-491.144
 30
0.000000
  70
    32
  0
VERTEX
  8
É}ÿg
  5
75B
 10
1051.58
 20
-491.174
 30
0.000000
  70
    32
  0
VERTEX
  8
É}ÿg
  5
75C
 10
1051.62
 20
-491.203
 30
0.000000
  70
    32
  0
VERTEX
  8
É}ÿg
  5
75D
 10
1051.65
 20
-491.232
 30
0.000000
  70
    32
  0
VERTEX
  8
É}ÿg
  5
75E
 10
1051.69
 20
-491.261
 30
0.000000
  70
    32
  0
VERTEX
  8
É}ÿg
  5
75F
 10
1051.73
 20
-491.290
 30
0.000000
  70
    32
  0
VERTEX
  8
É}ÿg
  5
760
 10
1051.77
 20
-491.319
 30
0.000000
  70
    32
  0
VERTEX
  8
É}ÿg
  5
761
 10
1051.81
 20
-491.348
 30
0.000000
  70
    32
  0
VERTEX
  8
É}ÿg
  5
762
 10
1051.85
 20
-491.376
 30
0.000000
  70
    32
  0
VERTEX
  8
É}ÿg
  5
763
 10
1051.89
 20
-491.405
 30
0.000000
  70
    32
  0
VERTEX
  8
É}ÿg
  5
764
 10
1051.92
 20
-491.434
 30
0.000000
  70
    32
  0
VERTEX
  8
É}ÿg
  5
765
 10
1051.96
 20
-491.462
 30
0.000000
  70
    32
  0
VERTEX
  8
É}ÿg
  5
766
 10
1052.00
 20
-491.491
 30
0.000000
  70
    32
  0
VERTEX
  8
É}ÿg
  5
767
 10
1052.04
 20
-491.519
 30
0.000000
  70
    32
  0
VERTEX
  8
É}ÿg
  5
768
 10
1052.08
 20
-491.547
 30
0.000000
  70
    32
  0
VERTEX
  8
É}ÿg
  5
769
 10
1052.12
 20
-491.576
 30
0.000000
  70
    32
  0
VERTEX
  8
É}ÿg
  5
76A
 10
1052.16
 20
-491.604
 30
0.000000
  70
    32
  0
VERTEX
  8
É}ÿg
  5
76B
 10
1052.19
 20
-491.632
 30
0.000000
  70
    32
  0
VERTEX
  8
É}ÿg
  5
76C
 10
1052.23
 20
-491.660
 30
0.000000
  70
    32
  0
VERTEX
  8
É}ÿg
  5
76D
 10
1052.27
 20
-491.687
 30
0.000000
  70
    32
  0
VERTEX
  8
É}ÿg
  5
76E
 10
1052.31
 20
-491.715
 30
0.000000
  70
    32
  0
VERTEX
  8
É}ÿg
  5
76F
 10
1052.35
 20
-491.743
 30
0.000000
  70
    32
  0
VERTEX
  8
É}ÿg
  5
770
 10
1052.39
 20
-491.770
 30
0.000000
  70
    32
  0
VERTEX
  8
É}ÿg
  5
771
 10
1052.43
 20
-491.798
 30
0.000000
  70
    32
  0
VERTEX
  8
É}ÿg
  5
772
 10
1052.47
 20
-491.825
 30
0.000000
  70
    32
  0
VERTEX
  8
É}ÿg
  5
773
 10
1052.51
 20
-491.853
 30
0.000000
  70
    32
  0
VERTEX
  8
É}ÿg
  5
774
 10
1052.55
 20
-491.880
 30
0.000000
  70
    32
  0
VERTEX
  8
É}ÿg
  5
775
 10
1052.59
 20
-491.907
 30
0.000000
  70
    32
  0
VERTEX
  8
É}ÿg
  5
776
 10
1052.62
 20
-491.934
 30
0.000000
  70
    32
  0
VERTEX
  8
É}ÿg
  5
777
 10
1052.66
 20
-491.961
 30
0.000000
  70
    32
  0
VERTEX
  8
É}ÿg
  5
778
 10
1052.70
 20
-491.988
 30
0.000000
  70
    32
  0
VERTEX
  8
É}ÿg
  5
779
 10
1052.74
 20
-492.015
 30
0.000000
  70
    32
  0
VERTEX
  8
É}ÿg
  5
77A
 10
1052.78
 20
-492.041
 30
0.000000
  70
    32
  0
VERTEX
  8
É}ÿg
  5
77B
 10
1052.82
 20
-492.068
 30
0.000000
  70
    32
  0
VERTEX
  8
É}ÿg
  5
77C
 10
1052.86
 20
-492.094
 30
0.000000
  70
    32
  0
VERTEX
  8
É}ÿg
  5
77D
 10
1052.90
 20
-492.121
 30
0.000000
  70
    32
  0
VERTEX
  8
É}ÿg
  5
77E
 10
1052.94
 20
-492.147
 30
0.000000
  70
    32
  0
VERTEX
  8
É}ÿg
  5
77F
 10
1052.98
 20
-492.173
 30
0.000000
  70
    32
  0
VERTEX
  8
É}ÿg
  5
780
 10
1053.02
 20
-492.199
 30
0.000000
  70
    32
  0
VERTEX
  8
É}ÿg
  5
781
 10
1053.06
 20
-492.225
 30
0.000000
  70
    32
  0
VERTEX
  8
É}ÿg
  5
782
 10
1053.10
 20
-492.251
 30
0.000000
  70
    32
  0
VERTEX
  8
É}ÿg
  5
783
 10
1053.14
 20
-492.277
 30
0.000000
  70
    32
  0
VERTEX
  8
É}ÿg
  5
784
 10
1053.18
 20
-492.303
 30
0.000000
  70
    32
  0
VERTEX
  8
É}ÿg
  5
785
 10
1053.22
 20
-492.328
 30
0.000000
  70
    32
  0
VERTEX
  8
É}ÿg
  5
786
 10
1053.26
 20
-492.354
 30
0.000000
  70
    32
  0
VERTEX
  8
É}ÿg
  5
787
 10
1053.30
 20
-492.379
 30
0.000000
  70
    32
  0
VERTEX
  8
É}ÿg
  5
788
 10
1053.34
 20
-492.404
 30
0.000000
  70
    32
  0
VERTEX
  8
É}ÿg
  5
789
 10
1053.38
 20
-492.430
 30
0.000000
  70
    32
  0
VERTEX
  8
É}ÿg
  5
78A
 10
1053.42
 20
-492.455
 30
0.000000
  70
    32
  0
VERTEX
  8
É}ÿg
  5
78B
 10
1053.46
 20
-492.480
 30
0.000000
  70
    32
  0
VERTEX
  8
É}ÿg
  5
78C
 10
1053.50
 20
-492.504
 30
0.000000
  70
    32
  0
VERTEX
  8
É}ÿg
  5
78D
 10
1053.54
 20
-492.529
 30
0.000000
  70
    32
  0
VERTEX
  8
É}ÿg
  5
78E
 10
1053.59
 20
-492.554
 30
0.000000
  70
    32
  0
VERTEX
  8
É}ÿg
  5
78F
 10
1053.63
 20
-492.578
 30
0.000000
  70
    32
  0
SEQEND
  8
É}ÿg
  5
790
  0
INSERT
  5
38B
  8
0
  6
CONTINUOUS
  2
*U75
 10
0.0
 20
0.0
 30
0.0
  0
LINE
  5
38C
  8
É}ÿg
 10
1074.7771265265001
 20
-443.22663957069989
 30
0.0
 11
1074.7771265265001
 21
-448.0266395706999
 31
0.0
  0
LINE
  5
38D
  8
É}ÿg
 10
1042.3265844796999
 20
-486.47329363699998
 30
0.0
 11
1042.3265844796999
 21
-489.47329363699993
 31
0.0
  0
LINE
  5
38E
  8
É}ÿg
 10
1074.7771265265001
 20
-448.0266395706999
 30
0.0
 11
1084.3771265265
 21
-450.42663957069988
 31
0.0
  0
LINE
  5
38F
  8
É}ÿg
 10
1047.6477966008999
 20
-482.47329363699998
 30
0.0
 11
1047.6477966008999
 21
-486.07329363699989
 31
0.0
  0
ARC
  5
390
  8
É}ÿg
 10
1033.3265844796999
 20
-490.47329363699998
 30
0.0
 40
6.0
 50
270.0
 51
0.0
  0
LINE
  5
391
  8
É}ÿg
 10
947.00529150310012
 20
-434.62663957069992
 30
0.0
 11
947.00529150310012
 21
-500.62663957069992
 31
0.0
  0
INSERT
  5
392
  8
0
  6
CONTINUOUS
  2
*U76
 10
0.0
 20
0.0
 30
0.0
  0
INSERT
  5
393
  8
0
  6
CONTINUOUS
  2
*U77
 10
0.0
 20
0.0
 30
0.0
  0
INSERT
  5
394
  8
0
  6
CONTINUOUS
  2
*U78
 10
0.0
 20
0.0
 30
0.0
  0
INSERT
  5
395
  8
0
  6
CONTINUOUS
  2
*U79
 10
0.0
 20
0.0
 30
0.0
  0
LINE
  5
396
  8
É}ÿg
 10
1022.0052915031
 20
-456.62663957069998
 30
0.0
 11
1022.0052915031
 21
-478.62663957069992
 31
0.0
  0
LINE
  5
397
  8
É}ÿg
 10
947.00529150310012
 20
-478.62663957069992
 30
0.0
 11
1237.0052915030999
 21
-478.62663957069992
 31
0.0
  0
LINE
  5
398
  8
É}ÿg
 10
952.00529150310001
 20
-467.62663957069992
 30
0.0
 11
1017.0052915031
 21
-467.62663957069992
 31
0.0
  0
LINE
  5
399
  8
É}ÿg
 10
1027.0052915030999
 20
-467.62663957069992
 30
0.0
 11
1092.0052915030999
 21
-467.62663957069992
 31
0.0
  0
INSERT
  5
39A
  8
0
  6
CONTINUOUS
  2
*U80
 10
0.0
 20
0.0
 30
0.0
  0
INSERT
  5
39B
  8
0
  6
CONTINUOUS
  2
*U81
 10
0.0
 20
0.0
 30
0.0
  0
LINE
  5
39C
  8
É}ÿg
 10
965.00529150310001
 20
-424.62663957069992
 30
0.0
 11
965.00529150310001
 21
-414.62663957069998
 31
0.0
  0
LINE
  5
39D
  8
É}ÿg
 10
947.00529150310012
 20
-424.62663957069992
 30
0.0
 11
947.00529150310012
 21
-414.62663957069998
 31
0.0
  0
LINE
  5
39E
  8
É}ÿg
 10
1175.0052915030999
 20
-424.62663957069992
 30
0.0
 11
1175.0052915030999
 21
-414.62663957069998
 31
0.0
  0
LINE
  5
39F
  8
É}ÿg
 10
1157.0052915030999
 20
-424.62663957069992
 30
0.0
 11
1157.0052915030999
 21
-414.62663957069998
 31
0.0
  0
LINE
  5
3A0
  8
É}ÿg
 10
1237.0052915030999
 20
-414.62663957069998
 30
0.0
 11
947.00529150310012
 21
-414.62663957069998
 31
0.0
  0
LINE
  5
3A1
  8
É}ÿg
 10
947.00529150310012
 20
-424.62663957069992
 30
0.0
 11
1237.0052915030999
 21
-424.62663957069992
 31
0.0
  0
LINE
  5
3A2
  8
É}ÿg
 10
1065.0052915030999
 20
-424.62663957069992
 30
0.0
 11
1065.0052915030999
 21
-414.62663957069998
 31
0.0
  0
INSERT
  5
3A3
  8
0
  6
CONTINUOUS
  2
*U82
 10
0.0
 20
0.0
 30
0.0
  0
INSERT
  5
3A4
  8
0
  6
CONTINUOUS
  2
*U83
 10
0.0
 20
0.0
 30
0.0
  0
CIRCLE
  5
3A5
  8
É}ÿg
 10
1063.8052915031001
 20
-445.62663957069992
 30
0.0
 40
2.399999999999999
  0
LINE
  5
3A6
  8
É}ÿg
 10
1074.7771265265001
 20
-448.0266395706999
 30
0.0
 11
1084.3771265265
 21
-450.42663957069988
 31
0.0
  0
LINE
  5
3A7
  8
É}ÿg
 10
1074.7771265265001
 20
-443.22663957069989
 30
0.0
 11
1074.7771265265001
 21
-448.0266395706999
 31
0.0
  0
LINE
  5
3A8
  8
É}ÿg
 10
1084.3771265265
 20
-440.82663957070002
 30
0.0
 11
1084.3771265265
 21
-450.42663957069988
 31
0.0
  0
LINE
  5
3A9
  8
É}ÿg
  6
BORDER
 10
1063.8052915031001
 20
-438.42663957069988
 30
0.0
 11
1063.8052915031001
 21
-452.82663957069991
 31
0.0
  0
LINE
  5
3AA
  8
É}ÿg
  6
BORDER
 10
1063.8052915031001
 20
-438.42663957069988
 30
0.0
 11
1063.8052915031001
 21
-452.82663957069991
 31
0.0
  0
LINE
  5
3AB
  8
É}ÿg
 10
1084.3771265265
 20
-440.82663957070002
 30
0.0
 11
1084.3771265265
 21
-450.42663957069988
 31
0.0
  0
LINE
  5
3AC
  8
É}ÿg
 10
1074.7771265265001
 20
-443.22663957069989
 30
0.0
 11
1074.7771265265001
 21
-448.0266395706999
 31
0.0
  0
LINE
  5
3AD
  8
É}ÿg
 10
1074.7771265265001
 20
-448.0266395706999
 30
0.0
 11
1084.3771265265
 21
-450.42663957069988
 31
0.0
  0
LINE
  5
3AE
  8
É}ÿg
 10
1074.7771265265001
 20
-443.22663957069989
 30
0.0
 11
1084.3771265265
 21
-440.82663957070002
 31
0.0
  0
CIRCLE
  5
3AF
  8
É}ÿg
 10
1063.8052915031001
 20
-445.62663957069992
 30
0.0
 40
4.7999999999999989
  0
CIRCLE
  5
3B0
  8
É}ÿg
 10
1063.8052915031001
 20
-445.62663957069992
 30
0.0
 40
2.399999999999999
  0
CIRCLE
  5
3B1
  8
É}ÿg
 10
1063.8052915031001
 20
-445.62663957069992
 30
0.0
 40
4.7999999999999989
  0
LINE
  5
3B2
  8
É}ÿg
 10
1074.7771265265001
 20
-443.22663957069989
 30
0.0
 11
1084.3771265265
 21
-440.82663957070002
 31
0.0
  0
ENDBLK
  5
3B3
  8
0
  0
BLOCK
  8
0
  2
*D17
 70
     1
 10
0.0
 20
0.0
 30
0.0
  3
*D17
  1

  0
TEXT
  5
3BB
  8
0
 62
     0
 10
840.46414174439997
 20
-28.650193675699999
 30
0.0
 40
5.9972220420999998
  1
10
 50
90.0
  0
LINE
  5
3BC
  8
0
 62
     0
 10
813.5224750458998
 20
-30.1224160039
 30
0.0
 11
843.0224750458998
 21
-30.1224160039
 31
0.0
  0
LINE
  5
3BD
  8
0
 62
     0
 10
823.5224750458998
 20
-20.1224160039
 30
0.0
 11
843.0224750458998
 21
-20.1224160039
 31
0.0
  0
LINE
  5
3BE
  8
0
 62
     0
 10
842.52247504589991
 20
-30.1224160039
 30
0.0
 11
842.52247504589991
 21
-30.1224160039
 31
0.0
  0
LINE
  5
3BF
  8
0
 62
     0
 10
842.52247504589991
 20
-30.1224160039
 30
0.0
 11
842.52247504589991
 21
-20.1224160039
 31
0.0
  0
LINE
  5
3C0
  8
0
 62
     0
 10
842.52247504589991
 20
-20.1224160039
 30
0.0
 11
842.52247504589991
 21
-30.1224160039
 31
0.0
  0
LINE
  5
3C1
  8
0
 62
     0
 10
842.52247504589991
 20
-20.1224160039
 30
0.0
 11
842.52247504589991
 21
-20.1224160039
 31
0.0
  0
LINE
  5
3C2
  8
0
 62
     0
 10
842.52247504589991
 20
-20.1224160039
 30
0.0
 11
842.52247504589991
 21
-17.1224160039
 31
0.0
  0
SOLID
  5
3C3
  8
0
 62
     0
 10
842.52247504589991
 20
-20.1224160039
 30
0.0
 11
841.02247504589991
 21
-14.1224160039
 31
0.0
 12
844.0224750458998
 22
-14.1224160039
 32
0.0
 13
842.52247504589991
 23
-15.6224160039
 33
0.0
  0
LINE
  5
3C4
  8
0
 62
     0
 10
842.52247504589991
 20
-30.1224160039
 30
0.0
 11
842.52247504589991
 21
-33.1224160039
 31
0.0
  0
SOLID
  5
3C5
  8
0
 62
     0
 10
842.52247504589991
 20
-30.1224160039
 30
0.0
 11
844.0224750458998
 21
-36.1224160039
 31
0.0
 12
841.02247504589991
 22
-36.1224160039
 32
0.0
 13
842.52247504589991
 23
-34.6224160039
 33
0.0
  0
ENDBLK
  5
3C6
  8
0
  0
BLOCK
  8
0
  2
*D18
 70
     1
 10
0.0
 20
0.0
 30
0.0
  3
*D18
  1

  0
TEXT
  5
3CA
  8
0
 62
     0
 10
840.46414174439997
 20
-208.6501936757
 30
0.0
 40
5.9972220420999998
  1
10
 50
90.0
  0
LINE
  5
3CB
  8
0
 62
     0
 10
823.5224750458998
 20
-210.12241600390001
 30
0.0
 11
843.0224750458998
 21
-210.12241600390001
 31
0.0
  0
LINE
  5
3CC
  8
0
 62
     0
 10
813.5224750458998
 20
-200.12241600390001
 30
0.0
 11
843.0224750458998
 21
-200.12241600390001
 31
0.0
  0
LINE
  5
3CD
  8
0
 62
     0
 10
842.52247504589991
 20
-210.12241600390001
 30
0.0
 11
842.52247504589991
 21
-210.12241600390001
 31
0.0
  0
LINE
  5
3CE
  8
0
 62
     0
 10
842.52247504589991
 20
-210.12241600390001
 30
0.0
 11
842.52247504589991
 21
-200.12241600390001
 31
0.0
  0
LINE
  5
3CF
  8
0
 62
     0
 10
842.52247504589991
 20
-200.12241600390001
 30
0.0
 11
842.52247504589991
 21
-210.12241600390001
 31
0.0
  0
LINE
  5
3D0
  8
0
 62
     0
 10
842.52247504589991
 20
-200.12241600390001
 30
0.0
 11
842.52247504589991
 21
-200.12241600390001
 31
0.0
  0
LINE
  5
3D1
  8
0
 62
     0
 10
842.52247504589991
 20
-200.12241600390001
 30
0.0
 11
842.52247504589991
 21
-197.12241600390001
 31
0.0
  0
SOLID
  5
3D2
  8
0
 62
     0
 10
842.52247504589991
 20
-200.12241600390001
 30
0.0
 11
841.02247504589991
 21
-194.12241600390001
 31
0.0
 12
844.0224750458998
 22
-194.12241600390001
 32
0.0
 13
842.52247504589991
 23
-195.6224160038999
 33
0.0
  0
LINE
  5
3D3
  8
0
 62
     0
 10
842.52247504589991
 20
-210.12241600390001
 30
0.0
 11
842.52247504589991
 21
-213.12241600390001
 31
0.0
  0
SOLID
  5
3D4
  8
0
 62
     0
 10
842.52247504589991
 20
-210.12241600390001
 30
0.0
 11
844.0224750458998
 21
-216.12241600390001
 31
0.0
 12
841.02247504589991
 22
-216.12241600390001
 32
0.0
 13
842.52247504589991
 23
-214.62241600390001
 33
0.0
  0
ENDBLK
  5
3D5
  8
0
  0
BLOCK
  8
0
  2
*D19
 70
     1
 10
0.0
 20
0.0
 30
0.0
  3
*D19
  1

  0
TEXT
  5
3D9
  8
0
 62
     0
 10
856.11603657299997
 20
-120.4140825116
 30
0.0
 40
5.9972220420999998
  1
190
 50
90.0
  0
LINE
  5
3DA
  8
0
 62
     0
 10
823.5224750458998
 20
-210.12241600390001
 30
0.0
 11
858.67436987449992
 21
-210.12241600390001
 31
0.0
  0
LINE
  5
3DB
  8
0
 62
     0
 10
823.5224750458998
 20
-20.1224160039
 30
0.0
 11
858.67436987449992
 21
-20.1224160039
 31
0.0
  0
LINE
  5
3DC
  8
0
 62
     0
 10
858.17436987449992
 20
-210.12241600390001
 30
0.0
 11
858.17436987449992
 21
-106.3029718244
 31
0.0
  0
LINE
  5
3DD
  8
0
 62
     0
 10
858.17436987449992
 20
-210.12241600390001
 30
0.0
 11
858.17436987449992
 21
-123.9418601834
 31
0.0
  0
LINE
  5
3DE
  8
0
 62
     0
 10
858.17436987449992
 20
-20.1224160039
 30
0.0
 11
858.17436987449992
 21
-106.3029718244
 31
0.0
  0
LINE
  5
3DF
  8
0
 62
     0
 10
858.17436987449992
 20
-20.1224160039
 30
0.0
 11
858.17436987449992
 21
-123.9418601834
 31
0.0
  0
LINE
  5
3E0
  8
0
 62
     0
 10
858.17436987449992
 20
-20.1224160039
 30
0.0
 11
858.17436987449992
 21
-23.1224160039
 31
0.0
  0
SOLID
  5
3E1
  8
0
 62
     0
 10
858.17436987449992
 20
-20.1224160039
 30
0.0
 11
859.67436987449992
 21
-26.1224160039
 31
0.0
 12
856.6743698744998
 22
-26.1224160039
 32
0.0
 13
858.17436987449992
 23
-24.6224160039
 33
0.0
  0
LINE
  5
3E2
  8
0
 62
     0
 10
858.17436987449992
 20
-210.12241600390001
 30
0.0
 11
858.17436987449992
 21
-207.12241600390001
 31
0.0
  0
SOLID
  5
3E3
  8
0
 62
     0
 10
858.17436987449992
 20
-210.12241600390001
 30
0.0
 11
856.6743698744998
 21
-204.12241600390001
 31
0.0
 12
859.67436987449992
 22
-204.12241600390001
 32
0.0
 13
858.17436987449992
 23
-205.62241600390001
 33
0.0
  0
ENDBLK
  5
3E4
  8
0
  0
BLOCK
  8
0
  2
BALLON1
 70
     0
 10
0.0
 20
0.0
 30
0.0
  3
BALLON1
  1

  0
INSERT
  5
3E9
  8
0
  6
CONTINUOUS
  2
*U88
 10
0.0
 20
0.0
 30
0.0
  0
CIRCLE
  5
3EA
  8
┌▓È_1
 10
659.78184831609985
 20
-253.80574933720001
 30
0.0
 40
8.0
  0
LINE
  5
3EB
  8
Éíû@É³
 10
646.44851498269986
 20
-253.80574933720001
 30
0.0
 11
651.78184831609997
 21
-253.80574933720001
 31
0.0
  0
LINE
  5
3EC
  8
Éíû@É³
 10
631.21775372280001
 20
-210.12241600390001
 30
0.0
 11
646.44851498269986
 21
-253.80574933720001
 31
0.0
  0
SOLID
  5
3ED
  8
Éíû@É³
 10
631.21775372280001
 20
-210.12241600390001
 30
0.0
 11
635.36235973880002
 21
-217.14966589069999
 31
0.0
 12
633.32479682949986
 22
-216.16562453469999
 32
0.0
 13
633.32479682949986
 23
-216.16562453469999
 33
0.0
  0
SOLID
  5
3EE
  8
Éíû@É³
 10
633.32479682949986
 20
-216.16562453469999
 30
0.0
 11
632.34075547340001
 21
-218.2031874441
 31
0.0
 12
631.21775372280001
 22
-210.12241600390001
 32
0.0
 13
631.21775372280001
 23
-210.12241600390001
 33
0.0
  0
ENDBLK
  5
3EF
  8
0
  0
BLOCK
  8
0
  2
BALLON2
 70
     0
 10
0.0
 20
0.0
 30
0.0
  3
BALLON2
  1

  0
INSERT
  5
3F3
  8
0
  6
CONTINUOUS
  2
*U89
 10
0.0
 20
0.0
 30
0.0
  0
CIRCLE
  5
3F4
  8
┌▓È_1
 10
777.58714447779994
 20
-253.80574933720001
 30
0.0
 40
8.0
  0
LINE
  5
3F5
  8
Éíû@É³
 10
764.25381114449988
 20
-253.80574933720001
 30
0.0
 11
769.58714447779994
 21
-253.80574933720001
 31
0.0
  0
LINE
  5
3F6
  8
Éíû@É³
 10
742.37764955609998
 20
-172.80574933720001
 30
0.0
 11
764.25381114449988
 21
-253.80574933720001
 31
0.0
  0
SOLID
  5
3F7
  8
Éíû@É³
 10
742.37764955609998
 20
-172.80574933720001
 30
0.0
 11
746.00818091159988
 21
-180.11185925140001
 31
0.0
 12
744.0463490735001
 22
-178.98437717199999
 32
0.0
 13
744.0463490735001
 23
-178.98437717199999
 33
0.0
  0
SOLID
  5
3F8
  8
Éíû@É³
 10
744.0463490735001
 20
-178.98437717199999
 30
0.0
 11
742.91886699420002
 21
-180.94620900999999
 31
0.0
 12
742.37764955609998
 22
-172.80574933720001
 32
0.0
 13
742.37764955609998
 23
-172.80574933720001
 33
0.0
  0
ENDBLK
  5
3F9
  8
0
  0
BLOCK
  8
0
  2
BALLON3
 70
     0
 10
0.0
 20
0.0
 30
0.0
  3
BALLON3
  1

  0
INSERT
  5
3FD
  8
0
  6
CONTINUOUS
  2
*U90
 10
0.0
 20
0.0
 30
0.0
  0
CIRCLE
  5
3FE
  8
┌▓È_1
 10
1014.241263531
 20
-253.80574933720001
 30
0.0
 40
8.0
  0
LINE
  5
3FF
  8
Éíû@É³
 10
1000.9079301976
 20
-253.80574933720001
 30
0.0
 11
1006.241263531
 21
-253.80574933720001
 31
0.0
  0
LINE
  5
400
  8
Éíû@É³
 10
979.94250721440005
 20
-75.444216274799999
 30
0.0
 11
1000.9079301976
 21
-253.80574933720001
 31
0.0
  0
SOLID
  5
401
  8
Éíû@É³
 10
979.94250721440005
 20
-75.444216274799999
 30
0.0
 11
982.46549357139986
 21
-83.202730297700001
 31
0.0
 12
980.68964840859985
 22
-81.800455731900001
 32
0.0
 13
980.68964840859985
 23
-81.800455731900001
 33
0.0
  0
SOLID
  5
402
  8
Éíû@É³
 10
980.68964840859985
 20
-81.800455731900001
 30
0.0
 11
979.28737384279987
 21
-83.576300894699983
 31
0.0
 12
979.94250721440005
 22
-75.444216274799999
 32
0.0
 13
979.94250721440005
 23
-75.444216274799999
 33
0.0
  0
ENDBLK
  5
403
  8
0
  0
BLOCK
  8
0
  2
BALLON4
 70
     0
 10
0.0
 20
0.0
 30
0.0
  3
BALLON4
  1

  0
INSERT
  5
407
  8
0
  6
CONTINUOUS
  2
*U91
 10
0.0
 20
0.0
 30
0.0
  0
CIRCLE
  5
408
  8
┌▓È_1
 10
970.72143931219989
 20
-253.80574933720001
 30
0.0
 40
8.0
  0
LINE
  5
409
  8
Éíû@É³
 10
957.38810597889994
 20
-253.80574933720001
 30
0.0
 11
962.72143931220012
 21
-253.80574933720001
 31
0.0
  0
LINE
  5
40A
  8
Éíû@É³
 10
933.23849727999993
 20
-82.596656268700016
 30
0.0
 11
957.38810597889994
 21
-253.80574933720001
 31
0.0
  0
SOLID
  5
40B
  8
Éíû@É³
 10
933.23849727999993
 20
-82.596656268700016
 30
0.0
 11
935.94017971810001
 21
-90.294767205999989
 31
0.0
 12
934.13238978050015
 22
-88.933923518600011
 32
0.0
 13
934.13238978050015
 23
-88.933923518600011
 33
0.0
  0
SOLID
  5
40C
  8
Éíû@É³
 10
934.13238978050015
 20
-88.933923518600011
 30
0.0
 11
932.77154609310014
 21
-90.741713456299991
 31
0.0
 12
933.23849727999993
 22
-82.596656268700016
 32
0.0
 13
933.23849727999993
 23
-82.596656268700016
 33
0.0
  0
ENDBLK
  5
40D
  8
0
  0
BLOCK
  8
0
  2
*D24
 70
     1
 10
0.0
 20
0.0
 30
0.0
  3
*D24
  1

  0
TEXT
  5
410
  8
0
 62
     0
 10
699.2030308663999
 20
-435.53020056119999
 30
0.0
 40
5.9972220420999998
  1
(230)
  0
LINE
  5
411
  8
0
 62
     0
 10
593.0224750458998
 20
-389.51694725390001
 30
0.0
 11
593.0224750458998
 21
-438.08853386279992
 31
0.0
  0
LINE
  5
412
  8
0
 62
     0
 10
823.02247504589991
 20
-389.51694725390001
 30
0.0
 11
823.02247504589991
 21
-438.08853386279992
 31
0.0
  0
LINE
  5
413
  8
0
 62
     0
 10
593.0224750458998
 20
-437.58853386279992
 30
0.0
 11
720.36969689729995
 21
-437.58853386279992
 31
0.0
  0
LINE
  5
414
  8
0
 62
     0
 10
593.0224750458998
 20
-437.58853386279992
 30
0.0
 11
695.67525319460003
 21
-437.58853386279992
 31
0.0
  0
LINE
  5
415
  8
0
 62
     0
 10
823.02247504589991
 20
-437.58853386279992
 30
0.0
 11
720.36969689729995
 21
-437.58853386279992
 31
0.0
  0
LINE
  5
416
  8
0
 62
     0
 10
823.02247504589991
 20
-437.58853386279992
 30
0.0
 11
695.67525319460003
 21
-437.58853386279992
 31
0.0
  0
LINE
  5
417
  8
0
 62
     0
 10
823.02247504589991
 20
-437.58853386279992
 30
0.0
 11
820.0224750458998
 21
-437.58853386279992
 31
0.0
  0
SOLID
  5
418
  8
0
 62
     0
 10
823.02247504589991
 20
-437.58853386279992
 30
0.0
 11
817.02247504589991
 21
-439.08853386279998
 31
0.0
 12
817.02247504589991
 22
-436.08853386279992
 32
0.0
 13
818.52247504589991
 23
-437.58853386279992
 33
0.0
  0
LINE
  5
419
  8
0
 62
     0
 10
593.0224750458998
 20
-437.58853386279992
 30
0.0
 11
596.02247504589991
 21
-437.58853386279992
 31
0.0
  0
SOLID
  5
41A
  8
0
 62
     0
 10
593.0224750458998
 20
-437.58853386279992
 30
0.0
 11
599.02247504589991
 21
-436.08853386279992
 31
0.0
 12
599.02247504589991
 22
-439.08853386279998
 32
0.0
 13
597.5224750458998
 23
-437.58853386279992
 33
0.0
  0
ENDBLK
  5
41B
  8
0
  0
BLOCK
  8
0
  2
*D25
 70
     1
 10
0.0
 20
0.0
 30
0.0
  3
*D25
  1

  0
TEXT
  5
41F
  8
0
 62
     0
 10
692.14747552279994
 20
-418.93898396989999
 30
0.0
 40
5.9972220420999998
  1
(213)ôÓÉí
  0
LINE
  5
420
  8
0
 62
     0
 10
601.5224750458998
 20
-388.51694725390001
 30
0.0
 11
601.5224750458998
 21
-421.49731727149998
 31
0.0
  0
LINE
  5
421
  8
0
 62
     0
 10
814.5224750458998
 20
-388.51694725390001
 30
0.0
 11
814.5224750458998
 21
-421.49731727149998
 31
0.0
  0
LINE
  5
422
  8
0
 62
     0
 10
601.5224750458998
 20
-420.99731727149998
 30
0.0
 11
727.42525224089991
 21
-420.99731727149998
 31
0.0
  0
LINE
  5
423
  8
0
 62
     0
 10
601.5224750458998
 20
-420.99731727149998
 30
0.0
 11
688.61969785089991
 21
-420.99731727149998
 31
0.0
  0
LINE
  5
424
  8
0
 62
     0
 10
814.5224750458998
 20
-420.99731727149998
 30
0.0
 11
727.42525224089991
 21
-420.99731727149998
 31
0.0
  0
LINE
  5
425
  8
0
 62
     0
 10
814.5224750458998
 20
-420.99731727149998
 30
0.0
 11
688.61969785089991
 21
-420.99731727149998
 31
0.0
  0
LINE
  5
426
  8
0
 62
     0
 10
814.5224750458998
 20
-420.99731727149998
 30
0.0
 11
811.52247504589991
 21
-420.99731727149998
 31
0.0
  0
SOLID
  5
427
  8
0
 62
     0
 10
814.5224750458998
 20
-420.99731727149998
 30
0.0
 11
808.52247504590002
 21
-422.49731727149998
 31
0.0
 12
808.52247504590002
 22
-419.49731727149998
 32
0.0
 13
810.0224750458998
 23
-420.99731727149998
 33
0.0
  0
LINE
  5
428
  8
0
 62
     0
 10
601.5224750458998
 20
-420.99731727149998
 30
0.0
 11
604.52247504589991
 21
-420.99731727149998
 31
0.0
  0
SOLID
  5
429
  8
0
 62
     0
 10
601.5224750458998
 20
-420.99731727149998
 30
0.0
 11
607.52247504589991
 21
-419.49731727149998
 31
0.0
 12
607.52247504589991
 22
-422.49731727149998
 32
0.0
 13
606.02247504589991
 23
-420.99731727149998
 33
0.0
  0
ENDBLK
  5
42A
  8
0
  0
BLOCK
  8
0
  2
*D26
 70
     1
 10
0.0
 20
0.0
 30
0.0
  3
*D26
  1

  0
TEXT
  5
432
  8
0
 62
     0
 10
702.73080853820011
 20
18.816125630999998
 30
0.0
 40
5.9972220420999998
  1
235
  0
LINE
  5
433
  8
0
 62
     0
 10
825.52247504589991
 20
-22.1224160039
 30
0.0
 11
825.52247504589991
 21
17.257792329400001
 31
0.0
  0
LINE
  5
434
  8
0
 62
     0
 10
590.52247504589991
 20
-22.1224160039
 30
0.0
 11
590.52247504589991
 21
17.257792329400001
 31
0.0
  0
LINE
  5
435
  8
0
 62
     0
 10
825.52247504589991
 20
16.757792329400001
 30
0.0
 11
716.84191922550008
 21
16.757792329400001
 31
0.0
  0
LINE
  5
436
  8
0
 62
     0
 10
825.52247504589991
 20
16.757792329400001
 30
0.0
 11
699.2030308663999
 21
16.757792329400001
 31
0.0
  0
LINE
  5
437
  8
0
 62
     0
 10
590.52247504589991
 20
16.757792329400001
 30
0.0
 11
716.84191922550008
 21
16.757792329400001
 31
0.0
  0
LINE
  5
438
  8
0
 62
     0
 10
590.52247504589991
 20
16.757792329400001
 30
0.0
 11
699.2030308663999
 21
16.757792329400001
 31
0.0
  0
LINE
  5
439
  8
0
 62
     0
 10
590.52247504589991
 20
16.757792329400001
 30
0.0
 11
593.5224750458998
 21
16.757792329400001
 31
0.0
  0
SOLID
  5
43A
  8
0
 62
     0
 10
590.52247504589991
 20
16.757792329400001
 30
0.0
 11
596.52247504589991
 21
18.257792329400001
 31
0.0
 12
596.52247504589991
 22
15.257792329400001
 32
0.0
 13
595.02247504589991
 23
16.757792329400001
 33
0.0
  0
LINE
  5
43B
  8
0
 62
     0
 10
825.52247504589991
 20
16.757792329400001
 30
0.0
 11
822.5224750458998
 21
16.757792329400001
 31
0.0
  0
SOLID
  5
43C
  8
0
 62
     0
 10
825.52247504589991
 20
16.757792329400001
 30
0.0
 11
819.52247504589991
 21
15.257792329400001
 31
0.0
 12
819.52247504589991
 22
18.257792329400001
 32
0.0
 13
821.02247504590002
 23
16.757792329400001
 33
0.0
  0
ENDBLK
  5
43D
  8
0
  0
BLOCK
  8
0
  2
*U27
 70
     1
 10
0.0
 20
0.0
 30
0.0
  3
*U27
  1

  0
TEXT
  5
45E
  8
┌▓È_1
  6
CONTINUOUS
 10
965.26899160130006
 20
0.4595957081406095
 30
0.0
 40
5.3974999188999986
  1
âvâîâXâJâVâü
  0
ENDBLK
  5
460
  8
0
  0
BLOCK
  8
0
  2
*U28
 70
     1
 10
0.0
 20
0.0
 30
0.0
  3
*U28
  1

  0
TEXT
  5
462
  8
É}ÿg
  6
CONTINUOUS
 10
1090.7715164264109
 20
-381.49613948960001
 30
0.0
 40
5.3974999188999986
  1
érétéréRéOéS
  0
ENDBLK
  5
464
  8
0
  0
BLOCK
  8
0
  2
*U29
 70
     1
 10
0.0
 20
0.0
 30
0.0
  3
*U29
  1

  0
TEXT
  5
466
  8
É}ÿg
  6
CONTINUOUS
 10
1164.594269950697
 20
-391.49613948960001
 30
0.0
 40
5.3974999188999986
  1
1
  0
ENDBLK
  5
468
  8
0
  0
BLOCK
  8
0
  2
*U30
 70
     1
 10
0.0
 20
0.0
 30
0.0
  3
*U30
  1

  0
TEXT
  5
46A
  8
É}ÿg
  6
CONTINUOUS
 10
1164.594269950697
 20
-401.4961394895999
 30
0.0
 40
5.3974999188999986
  1
1
  0
ENDBLK
  5
46C
  8
0
  0
BLOCK
  8
0
  2
*U31
 70
     1
 10
0.0
 20
0.0
 30
0.0
  3
*U31
  1

  0
TEXT
  5
46E
  8
É}ÿg
  6
CONTINUOUS
 10
1164.594269950697
 20
-411.49613948960001
 30
0.0
 40
5.3974999188999986
  1
1
  0
ENDBLK
  5
470
  8
0
  0
BLOCK
  8
0
  2
*U32
 70
     1
 10
0.0
 20
0.0
 30
0.0
  3
*U32
  1

  0
TEXT
  5
472
  8
É}ÿg
  6
CONTINUOUS
 10
1064.4826779889261
 20
-391.49613948960001
 30
0.0
 40
5.3974999188999986
  1
érétéréRéOéSü@éO.éVéöü@éQéa
  0
ENDBLK
  5
474
  8
0
  0
BLOCK
  8
0
  2
*U33
 70
     1
 10
0.0
 20
0.0
 30
0.0
  3
*U33
  1

  0
TEXT
  5
476
  8
É}ÿg
  6
CONTINUOUS
 10
1064.4689787505531
 20
-411.49613948960001
 30
0.0
 40
5.3974999188999986
  1
érétéréRéOéSü@éP.éOéöü@üöéS
  0
ENDBLK
  5
478
  8
0
  0
BLOCK
  8
0
  2
*U34
 70
     1
 10
0.0
 20
0.0
 30
0.0
  3
*U34
  1

  0
TEXT
  5
47A
  8
É}ÿg
  6
CONTINUOUS
 10
1134.1996508801419
 20
-470.73643106292531
 30
0.0
 40
7.1966662884000003
  1
éréaéQéS-éPéO Å│öFÉ}
  0
ENDBLK
  5
47C
  8
0
  0
BLOCK
  8
0
  2
*U35
 70
     1
 10
0.0
 20
0.0
 30
0.0
  3
*U35
  1

  0
TEXT
  5
47E
  8
É}ÿg
  6
CONTINUOUS
 10
1142.601850100102
 20
-492.5903058591
 30
0.0
 40
7.1966662884000003
  1
éréaévéOéOéOéRéR
  0
ENDBLK
  5
480
  8
0
  0
BLOCK
  8
0
  2
*U36
 70
     1
 10
0.0
 20
0.0
 30
0.0
  3
*U36
  1

  0
TEXT
  5
482
  8
É}ÿg
  6
CONTINUOUS
 10
1146.638558855778
 20
-449.21133797535782
 30
0.0
 40
7.1966662884000003
  1
ÄUÉàÉ­â{âbâNâX
  0
ENDBLK
  5
484
  8
0
  0
BLOCK
  8
0
  2
*U37
 70
     1
 10
0.0
 20
0.0
 30
0.0
  3
*U37
  1

  0
TEXT
  5
486
  8
┌▓È_1
  6
CONTINUOUS
 10
705.45023389499988
 20
-62.278666480200002
 30
0.0
 40
4.3179999351999987
  1
ü~
  0
ENDBLK
  5
488
  8
0
  0
BLOCK
  8
0
  2
*U38
 70
     1
 10
0.0
 20
0.0
 30
0.0
  3
*U38
  1

  0
TEXT
  5
48A
  8
É}ÿg
  6
CONTINUOUS
 10
954.26548822974894
 20
-381.49613948960001
 30
0.0
 40
5.3974999188999986
  1
4
  0
ENDBLK
  5
48C
  8
0
  0
BLOCK
  8
0
  2
*U39
 70
     1
 10
0.0
 20
0.0
 30
0.0
  3
*U39
  1

  0
TEXT
  5
48E
  8
É}ÿg
  6
CONTINUOUS
 10
954.30658594486761
 20
-391.49613948960001
 30
0.0
 40
5.3974999188999986
  1
3
  0
ENDBLK
  5
490
  8
0
  0
BLOCK
  8
0
  2
*U40
 70
     1
 10
0.0
 20
0.0
 30
0.0
  3
*U40
  1

  0
TEXT
  5
492
  8
É}ÿg
  6
CONTINUOUS
 10
954.59426995069725
 20
-411.49613948960001
 30
0.0
 40
5.3974999188999986
  1
1
  0
ENDBLK
  5
494
  8
0
  0
BLOCK
  8
0
  2
*U41
 70
     1
 10
0.0
 20
0.0
 30
0.0
  3
*U41
  1

  0
TEXT
  5
496
  8
É}ÿg
  6
CONTINUOUS
 10
954.2791874681219
 20
-401.4961394895999
 30
0.0
 40
5.3974999188999986
  1
2
  0
ENDBLK
  5
498
  8
0
  0
BLOCK
  8
0
  2
*U42
 70
     1
 10
0.0
 20
0.0
 30
0.0
  3
*U42
  1

  0
TEXT
  5
49A
  8
É}ÿg
  6
CONTINUOUS
 10
954.30658594486761
 20
-371.49613948960001
 30
0.0
 40
5.3974999188999986
  1
5
  0
ENDBLK
  5
49C
  8
0
  0
BLOCK
  8
0
  2
*U43
 70
     1
 10
0.0
 20
0.0
 30
0.0
  3
*U43
  1

  0
TEXT
  5
49E
  8
É}ÿg
  6
CONTINUOUS
 10
964.25761125074234
 20
-453.6574698796
 30
0.0
 40
5.9972220420999998
  1
H9.3
  0
ENDBLK
  5
4A0
  8
0
  0
BLOCK
  8
0
  2
*U44
 70
     1
 10
0.0
 20
0.0
 30
0.0
  3
*U44
  1

  0
TEXT
  5
4A2
  8
É}ÿg
  6
CONTINUOUS
 10
1014.044511990363
 20
-453.6574698796
 30
0.0
 40
5.9972220420999998
  1
1üF2
  0
ENDBLK
  5
4A4
  8
0
  0
BLOCK
  8
0
  2
*U45
 70
     1
 10
0.0
 20
0.0
 30
0.0
  3
*U45
  1

  0
TEXT
  5
4A6
  8
É}ÿg
  6
CONTINUOUS
 10
983.42412996338226
 20
-464.9780054585101
 30
0.0
 40
5.9972220420999998
  1
öÆÉ{ëÛ
  0
ENDBLK
  5
4A8
  8
0
  0
BLOCK
  8
0
  2
*U46
 70
     1
 10
0.0
 20
0.0
 30
0.0
  3
*U46
  1

  0
TEXT
  5
4AA
  8
É}ÿg
  6
CONTINUOUS
 10
985.22025230086399
 20
-476.00844820999282
 30
0.0
 40
5.9972220420999998
  1
è¦ û{
  0
ENDBLK
  5
4AC
  8
0
  0
BLOCK
  8
0
  2
*U47
 70
     1
 10
0.0
 20
0.0
 30
0.0
  3
*U47
  1

  0
TEXT
  5
4AE
  8
É}ÿg
  6
CONTINUOUS
 10
1064.4689787505531
 20
-401.4961394895999
 30
0.0
 40
5.3974999188999986
  1
érétéréRéOéSü@éR.éOéöü@üöéS
  0
ENDBLK
  5
4B0
  8
0
  0
BLOCK
  8
0
  2
*U48
 70
     1
 10
0.0
 20
0.0
 30
0.0
  3
*U48
  1

  0
TEXT
  5
4B2
  8
É}ÿg
  6
CONTINUOUS
 10
1074.8393021987949
 20
-371.49613948960001
 30
0.0
 40
5.3974999188999986
  1
érétéréRéOéSü@éP.éOéö
  0
ENDBLK
  5
4B4
  8
0
  0
BLOCK
  8
0
  2
*U49
 70
     1
 10
0.0
 20
0.0
 30
0.0
  3
*U49
  1

  0
TEXT
  5
4B6
  8
É}ÿg
  6
CONTINUOUS
 10
1164.279187468122
 20
-371.49613948960001
 30
0.0
 40
5.3974999188999986
  1
2
  0
ENDBLK
  5
4B8
  8
0
  0
BLOCK
  8
0
  2
*U50
 70
     1
 10
0.0
 20
0.0
 30
0.0
  3
*U50
  1

  0
TEXT
  5
4BA
  8
É}ÿg
  6
CONTINUOUS
 10
1164.594269950697
 20
-381.49613948960001
 30
0.0
 40
5.3974999188999986
  1
1
  0
ENDBLK
  5
4BC
  8
0
  0
BLOCK
  8
0
  2
*U51
 70
     1
 10
0.0
 20
0.0
 30
0.0
  3
*U51
  1

  0
TEXT
  5
4BE
  8
┌▓È_1
  6
CONTINUOUS
 10
697.98029090077
 20
-256.27519370750002
 30
0.0
 40
5.9972220420999998
  1
3
  0
ENDBLK
  5
4C0
  8
0
  0
BLOCK
  8
0
  2
*U52
 70
     1
 10
0.0
 20
0.0
 30
0.0
  3
*U52
  1

  0
TEXT
  5
4C2
  8
┌▓È_1
  6
CONTINUOUS
 10
705.45023389499988
 20
-86.278666480200016
 30
0.0
 40
4.3179999351999987
  1
ü~
  0
ENDBLK
  5
4C4
  8
0
  0
BLOCK
  8
0
  2
*U53
 70
     1
 10
0.0
 20
0.0
 30
0.0
  3
*U53
  1

  0
TEXT
  5
4C6
  8
┌▓È_1
  6
CONTINUOUS
 10
740.53064305739997
 20
-363.36010289027661
 30
0.0
 40
5.3974999188999986
  1
âXâ|âbâgùnÉ┌
  0
ENDBLK
  5
4C8
  8
0
  0
BLOCK
  8
0
  2
*U54
 70
     1
 10
0.0
 20
0.0
 30
0.0
  3
*U54
  1

  0
TEXT
  5
4CA
  8
┌▓È_1
  6
CONTINUOUS
 10
705.45023389499988
 20
-334.79451807380002
 30
0.0
 40
4.3179999351999987
  1
ü~
  0
ENDBLK
  5
4CC
  8
0
  0
BLOCK
  8
0
  2
*U55
 70
     1
 10
0.0
 20
0.0
 30
0.0
  3
*U55
  1

  0
TEXT
  5
4CE
  8
┌▓È_1
  6
CONTINUOUS
 10
705.45023389499988
 20
-358.79451807380002
 30
0.0
 40
4.3179999351999987
  1
ü~
  0
ENDBLK
  5
4D0
  8
0
  0
BLOCK
  8
0
  2
*U56
 70
     1
 10
0.0
 20
0.0
 30
0.0
  3
*U56
  1

  0
TEXT
  5
4D2
  8
┌▓È_1
  6
CONTINUOUS
 62
     5
 10
653.72062106430087
 20
-124.2843440012914
 30
0.0
 40
21.462499999999999
  1
ÄU Éà É­
  0
ENDBLK
  5
4D4
  8
0
  0
BLOCK
  8
0
  2
*U57
 70
     1
 10
0.0
 20
0.0
 30
0.0
  3
*U57
  1

  0
TEXT
  5
4D6
  8
É}ÿg
  6
CONTINUOUS
 10
1001.744428758188
 20
-371.57833491983712
 30
0.0
 40
5.3974999188999986
  1
ât âb âN
  0
ENDBLK
  5
4D8
  8
0
  0
BLOCK
  8
0
  2
*U58
 70
     1
 10
0.0
 20
0.0
 30
0.0
  3
*U58
  1

  0
TEXT
  5
4DA
  8
É}ÿg
  6
CONTINUOUS
 10
1001.360850083749
 20
-381.57833491983712
 30
0.0
 40
5.3974999188999986
  1
âN âT âè
  0
ENDBLK
  5
4DC
  8
0
  0
BLOCK
  8
0
  2
*U59
 70
     1
 10
0.0
 20
0.0
 30
0.0
  3
*U59
  1

  0
TEXT
  5
4DE
  8
É}ÿg
  6
CONTINUOUS
 10
1001.333451607003
 20
-391.79752273380262
 30
0.0
 40
5.3974999188999986
  1
û{ü@ü@æ╠
  0
ENDBLK
  5
4E0
  8
0
  0
BLOCK
  8
0
  2
*U60
 70
     1
 10
0.0
 20
0.0
 30
0.0
  3
*U60
  1

  0
TEXT
  5
4E2
  8
É}ÿg
  6
CONTINUOUS
 10
1011.73117353199
 20
-401.7427257803111
 30
0.0
 40
5.3974999188999986
  1
èW
  0
ENDBLK
  5
4E4
  8
0
  0
BLOCK
  8
0
  2
*U61
 70
     1
 10
0.0
 20
0.0
 30
0.0
  3
*U61
  1

  0
TEXT
  5
4E6
  8
É}ÿg
  6
CONTINUOUS
 10
1011.799669723855
 20
-411.77012425705681
 30
0.0
 40
5.3974999188999986
  1
ÿg
  0
ENDBLK
  5
4E8
  8
0
  0
BLOCK
  8
0
  2
*U62
 70
     1
 10
0.0
 20
0.0
 30
0.0
  3
*U62
  1

  0
TEXT
  5
4EA
  8
É}ÿg
  6
CONTINUOUS
 10
1060.2506950523459
 20
-464.7953489496137
 30
0.0
 40
5.9972220420999998
  1
ëÇ î┤
  0
ENDBLK
  5
4EC
  8
0
  0
BLOCK
  8
0
  2
*U63
 70
     1
 10
0.0
 20
0.0
 30
0.0
  3
*U63
  1

  0
TEXT
  5
4EE
  8
É}ÿg
  6
CONTINUOUS
 10
1060.2506950523459
 20
-475.7953489496137
 30
0.0
 40
5.9972220420999998
  1
ëÇ î┤
  0
ENDBLK
  5
4F0
  8
0
  0
BLOCK
  8
0
  2
*U64
 70
     1
 10
0.0
 20
0.0
 30
0.0
  3
*U64
  1

  0
TEXT
  5
4F2
  8
É}ÿg
  6
CONTINUOUS
 10
1122.867233490151
 20
51.871875742943139
 30
0.0
 40
5.3974999188999986
  1
ë³ü@Æ¨ü@ôÓü@ùe
  0
ENDBLK
  5
4F4
  8
0
  0
BLOCK
  8
0
  2
*U65
 70
     1
 10
0.0
 20
0.0
 30
0.0
  3
*U65
  1

  0
TEXT
  5
4F6
  8
É}ÿg
  6
CONTINUOUS
 10
1070.7171634850949
 20
51.926672696434522
 30
0.0
 40
5.3974999188999986
  1
ë³Æ¨ô·
  0
ENDBLK
  5
4F8
  8
0
  0
BLOCK
  8
0
  2
*U66
 70
     1
 10
0.0
 20
0.0
 30
0.0
  3
*U66
  1

  0
TEXT
  5
4FA
  8
É}ÿg
  6
CONTINUOUS
 10
1050.251566985288
 20
51.981469649925891
 30
0.0
 40
5.3974999188999986
  1
òøöÈ
  0
ENDBLK
  5
4FC
  8
0
  0
BLOCK
  8
0
  2
*U67
 70
     1
 10
0.0
 20
0.0
 30
0.0
  3
*U67
  1

  0
TEXT
  5
4FE
  8
É}ÿg
  6
CONTINUOUS
 10
957.88496537669994
 20
-494.67473923041058
 30
0.0
 40
10.794999837900001
  1
èöÄ«ë´Äð
  0
ENDBLK
  5
500
  8
0
  0
BLOCK
  8
0
  2
*U68
 70
     1
 10
0.0
 20
0.0
 30
0.0
  3
*U68
  1

  0
TEXT
  5
502
  8
É}ÿg
  6
CONTINUOUS
 10
1216.9226520606881
 20
51.844477266197472
 30
0.0
 40
5.3974999188999986
  1
îƒöFÄÊ
  0
ENDBLK
  5
504
  8
0
  0
BLOCK
  8
0
  2
*U69
 70
     1
 10
0.0
 20
0.0
 30
0.0
  3
*U69
  1

  0
TEXT
  5
506
  8
É}ÿg
  6
CONTINUOUS
 10
1099.7354736766049
 20
-486.00651812169639
 30
0.0
 40
5.9972220420999998
  1
É} öÈ
  0
ENDBLK
  5
508
  8
0
  0
BLOCK
  8
0
  2
*U70
 70
     1
 10
0.0
 20
0.0
 30
0.0
  3
*U70
  1

  0
TEXT
  5
50A
  8
É}ÿg
  6
CONTINUOUS
 10
1097.6501452000371
 20
-442.1282891276274
 30
0.0
 40
5.9972220420999998
  1
É╗òiû╝
  0
ENDBLK
  5
50C
  8
0
  0
BLOCK
  8
0
  2
*U71
 70
     1
 10
0.0
 20
0.0
 30
0.0
  3
*U71
  1

  0
TEXT
  5
50E
  8
É}ÿg
  6
CONTINUOUS
 10
1097.8175803331919
 20
-464.06740362466189
 30
0.0
 40
5.9972220420999998
  1
É}û╩û╝
  0
ENDBLK
  5
510
  8
0
  0
BLOCK
  8
0
  2
*U72
 70
     1
 10
0.0
 20
0.0
 30
0.0
  3
*U72
  1

  0
TEXT
  5
512
  8
É}ÿg
  6
CONTINUOUS
 10
957.40799216712549
 20
-442.76490619813092
 30
0.0
 40
5.9972220420999998
  1
ô·ü@ü@òt
  0
ENDBLK
  5
514
  8
0
  0
BLOCK
  8
0
  2
*U73
 70
     1
 10
0.0
 20
0.0
 30
0.0
  3
*U73
  1

  0
TEXT
  5
516
  8
É}ÿg
  6
CONTINUOUS
 10
1006.7686943859881
 20
-442.94756270702732
 30
0.0
 40
5.9972220420999998
  1
Ä┌ü@ü@ôx
  0
ENDBLK
  5
518
  8
0
  0
BLOCK
  8
0
  2
*U74
 70
     1
 10
0.0
 20
0.0
 30
0.0
  3
*U74
  1

  0
TEXT
  5
51A
  8
É}ÿg
  6
CONTINUOUS
 10
1197.0048474909249
 20
51.871875742943139
 30
0.0
 40
5.3974999188999986
  1
ë³Æ¨ÄÊ
  0
ENDBLK
  5
51C
  8
0
  0
BLOCK
  8
0
  2
*U75
 70
     1
 10
0.0
 20
0.0
 30
0.0
  3
*U75
  1

  0
TEXT
  5
51E
  8
É}ÿg
  6
CONTINUOUS
 10
948.69903114724207
 20
-422.27851812169638
 30
0.0
 40
5.9972220420999998
  1
òiöÈ
  0
ENDBLK
  5
520
  8
0
  0
BLOCK
  8
0
  2
*U76
 70
     1
 10
0.0
 20
0.0
 30
0.0
  3
*U76
  1

  0
TEXT
  5
522
  8
É}ÿg
  6
CONTINUOUS
 10
947.00529150310012
 20
-475.94756270702737
 30
0.0
 40
5.9972220420999998
  1
 É╗É}
  0
ENDBLK
  5
524
  8
0
  0
BLOCK
  8
0
  2
*U77
 70
     1
 10
0.0
 20
0.0
 30
0.0
  3
*U77
  1

  0
TEXT
  5
526
  8
É}ÿg
  6
CONTINUOUS
 10
947.00529150310012
 20
-464.88667720406181
 30
0.0
 40
5.9972220420999998
  1
 É¦îv
  0
ENDBLK
  5
528
  8
0
  0
BLOCK
  8
0
  2
*U78
 70
     1
 10
0.0
 20
0.0
 30
0.0
  3
*U78
  1

  0
TEXT
  5
52A
  8
É}ÿg
  6
CONTINUOUS
 10
1022.0052915031
 20
-475.9780054585101
 30
0.0
 40
5.9972220420999998
  1
 îƒÉ}
  0
ENDBLK
  5
52C
  8
0
  0
BLOCK
  8
0
  2
*U79
 70
     1
 10
0.0
 20
0.0
 30
0.0
  3
*U79
  1

  0
TEXT
  5
52E
  8
É}ÿg
  6
CONTINUOUS
 10
1022.0052915031
 20
-464.91711995554459
 30
0.0
 40
5.9972220420999998
  1
 Åãì©
  0
ENDBLK
  5
530
  8
0
  0
BLOCK
  8
0
  2
*U80
 70
     1
 10
0.0
 20
0.0
 30
0.0
  3
*U80
  1

  0
TEXT
  5
532
  8
É}ÿg
  6
CONTINUOUS
 10
1158.501153262604
 20
-422.40028912762739
 30
0.0
 40
5.9972220420999998
  1
Éöù╩
  0
ENDBLK
  5
534
  8
0
  0
BLOCK
  8
0
  2
*U81
 70
     1
 10
0.0
 20
0.0
 30
0.0
  3
*U81
  1

  0
TEXT
  5
536
  8
É}ÿg
  6
CONTINUOUS
 10
1187.526541353076
 20
-422.49161738207567
 30
0.0
 40
5.9972220420999998
  1
ö§ü@ü@ü@ìl
  0
ENDBLK
  5
538
  8
0
  0
BLOCK
  8
0
  2
*U82
 70
     1
 10
0.0
 20
0.0
 30
0.0
  3
*U82
  1

  0
TEXT
  5
53A
  8
É}ÿg
  6
CONTINUOUS
 10
1091.811136693231
 20
-422.3089608731791
 30
0.0
 40
5.9972220420999998
  1
ìÌü@ü@ü@Ä┐
  0
ENDBLK
  5
53C
  8
0
  0
BLOCK
  8
0
  2
*U83
 70
     1
 10
0.0
 20
0.0
 30
0.0
  3
*U83
  1

  0
TEXT
  5
53E
  8
É}ÿg
  6
CONTINUOUS
 10
996.03945732935233
 20
-422.33940362466188
 30
0.0
 40
5.9972220420999998
  1
òiü@ü@ü@û╝
  0
ENDBLK
  5
540
  8
0
  0
BLOCK
  8
0
  2
*U84
 70
     1
 10
0.0
 20
0.0
 30
0.0
  3
*U84
  1

  0
TEXT
  5
542
  8
ë³Æ¨
  6
CONTINUOUS
 10
1296.2368150980119
 20
-588.46563787369996
 30
0.0
 40
5.3974999188999986
  1
üûüû
  0
ENDBLK
  5
544
  8
0
  0
BLOCK
  8
0
  2
*U85
 70
     1
 10
0.0
 20
0.0
 30
0.0
  3
*U85
  1

  0
TEXT
  5
546
  8
ë³Æ¨
  6
CONTINUOUS
 10
1203.7696201543749
 20
-588.4606378737999
 30
0.0
 40
5.3974999188999986
  1
**********************
  0
ENDBLK
  5
548
  8
0
  0
BLOCK
  8
0
  2
*U86
 70
     1
 10
0.0
 20
0.0
 30
0.0
  3
*U86
  1

  0
TEXT
  5
54A
  8
ë³Æ¨
  6
CONTINUOUS
 10
1150.367083083536
 20
-589.67442240840001
 30
0.0
 40
5.397499935199999
  1
1
  0
ENDBLK
  5
54C
  8
0
  0
BLOCK
  8
0
  2
*U87
 70
     1
 10
0.0
 20
0.0
 30
0.0
  3
*U87
  1

  0
TEXT
  5
54E
  8
ë³Æ¨
  6
CONTINUOUS
 10
1160.4692581381751
 20
-588.46563787369996
 30
0.0
 40
5.3974999188999986
  1
H**.**.**
  0
ENDBLK
  5
550
  8
0
  0
BLOCK
  8
0
  2
*U88
 70
     1
 10
0.0
 20
0.0
 30
0.0
  3
*U88
  1

  0
TEXT
  5
552
  8
┌▓È_1
  6
CONTINUOUS
 10
658.21404661473878
 20
-256.27519370750002
 30
0.0
 40
5.9972220420999998
  1
1
  0
ENDBLK
  5
554
  8
0
  0
BLOCK
  8
0
  2
*U89
 70
     1
 10
0.0
 20
0.0
 30
0.0
  3
*U89
  1

  0
TEXT
  5
556
  8
┌▓È_1
  6
CONTINUOUS
 10
775.6692511343872
 20
-256.27519370750002
 30
0.0
 40
5.9972220420999998
  1
2
  0
ENDBLK
  5
558
  8
0
  0
BLOCK
  8
0
  2
*U90
 70
     1
 10
0.0
 20
0.0
 30
0.0
  3
*U90
  1

  0
TEXT
  5
55A
  8
┌▓È_1
  6
CONTINUOUS
 10
1012.308148811846
 20
-256.27519370750002
 30
0.0
 40
5.9972220420999998
  1
4
  0
ENDBLK
  5
55C
  8
0
  0
BLOCK
  8
0
  2
*U91
 70
     1
 10
0.0
 20
0.0
 30
0.0
  3
*U91
  1

  0
TEXT
  5
55E
  8
┌▓È_1
  6
CONTINUOUS
 10
968.83398872026987
 20
-256.27519370750002
 30
0.0
 40
5.9972220420999998
  1
5
  0
ENDBLK
  5
560
  8
0
  0
BLOCK
  8
0
  2
*U92
 70
     1
 10
0.0
 20
0.0
 30
0.0
  3
*U92
  1

  0
TEXT
  5
562
  8
┌▓È_1
  6
CONTINUOUS
 10
629.20276475720004
 20
-82.271690059876647
 30
0.0
 40
5.3974999188999986
  1
âXâ|âbâgùnÉ┌
  0
ENDBLK
  5
564
  8
0
  0
BLOCK
  8
0
  2
*U93
 70
     1
 10
0.0
 20
0.0
 30
0.0
  3
*U93
  1

  0
TEXT
  5
566
  8
┌▓È_1
  6
CONTINUOUS
 10
619.50299331409997
 20
-56.197774454844669
 30
0.0
 40
5.9972220420999998
  1
èWÉíû@214ü~169ü~3éö
  0
ENDBLK
  5
568
  8
0
  0
ENDSEC
  0
SECTION
  2
ENTITIES
  0
LINE
  5
2F
  8
┌▓È_1
 62
     5
 10
930.53911295929993
 20
-30.1224160039
 30
0.0
 11
1018.0391129593
 21
-30.1224160039
 31
0.0
  0
ARC
  5
30
  8
┌▓È_1
 62
     5
 10
928.53911295930004
 20
-30.1224160039
 30
0.0
 40
1.0
 50
359.99998258009998
 51
90.0
  0
LINE
  5
31
  8
┌▓È_1
 62
     5
 10
929.53911295929993
 20
-37.1224160039
 30
0.0
 11
929.53911295929993
 21
-30.1224163079
 31
0.0
  0
LINE
  5
32
  8
┌▓È_1
 62
     5
 10
930.03911295929981
 20
-21.1224160039
 30
0.0
 11
930.03911295929981
 21
-30.256390600100001
 31
0.0
  0
ARC
  5
33
  8
┌▓È_1
 62
     5
 10
930.53911295929993
 20
-31.1224160039
 30
0.0
 40
1.0
 50
90.0
 51
180.0
  0
LINE
  5
34
  8
┌▓È_1
 62
     5
 10
929.53911295929993
 20
-38.1224160039
 30
0.0
 11
930.53911295929993
 21
-38.1224160039
 31
0.0
  0
LINE
  5
35
  8
┌▓È_1
 62
     5
 10
931.53911295929993
 20
-37.1224160039
 30
0.0
 11
931.53911295929993
 21
-33.1224160039
 31
0.0
  0
ARC
  5
36
  8
┌▓È_1
 62
     5
 10
930.53911295929993
 20
-37.1224160039
 30
0.0
 40
1.0
 50
270.0
 51
0.0
  0
LINE
  5
37
  8
┌▓È_1
 62
     5
 10
930.53911295929993
 20
-31.1224160039
 30
0.0
 11
930.53911295929993
 21
-33.1224160039
 31
0.0
  0
LINE
  5
38
  8
┌▓È_1
 62
     5
 10
925.03911295929993
 20
-30.1224160039
 30
0.0
 11
928.53911295930004
 21
-30.1224160039
 31
0.0
  0
ARC
  5
39
  8
┌▓È_1
 62
     5
 10
929.53911295929993
 20
-37.1224160039
 30
0.0
 40
1.0
 50
180.0
 51
270.0
  0
LINE
  5
3A
  8
┌▓È_1
 62
     5
 10
925.53911295929981
 20
-31.1224160039
 30
0.0
 11
928.53911295930004
 21
-31.1224160039
 31
0.0
  0
LINE
  5
3B
  8
┌▓È_1
 62
     5
 10
930.53911295929993
 20
-37.1224160039
 30
0.0
 11
929.53911295929993
 21
-37.1224160039
 31
0.0
  0
LINE
  5
3C
  8
┌▓È_1
 62
     5
 10
929.53911295929993
 20
-58.6224160039
 30
0.0
 11
929.53911295929993
 21
-68.185162070700002
 31
0.0
  0
LINE
  5
3D
  8
┌▓È_1
 62
     5
 10
928.53911295930004
 20
-29.1224160039
 30
0.0
 11
925.03911295929993
 21
-29.1224160039
 31
0.0
  0
ARC
  5
3E
  8
┌▓È_1
 62
     5
 10
925.03911295929993
 20
-21.1224160039
 30
0.0
 40
1.0
 50
90.0
 51
180.0
  0
ARC
  5
3F
  8
┌▓È_1
 62
     5
 10
925.03911295929993
 20
-29.1224160039
 30
0.0
 40
1.0
 50
180.0
 51
270.0
  0
LINE
  5
40
  8
┌▓È_1
 62
     5
 10
930.03911295929981
 20
-21.1224160039
 30
0.0
 11
930.03911295929981
 21
-20.1224160039
 31
0.0
  0
LINE
  5
41
  8
┌▓È_1
 62
     5
 10
925.03911295929993
 20
-29.1224160039
 30
0.0
 11
925.03911295929993
 21
-21.1224160039
 31
0.0
  0
LINE
  5
42
  8
┌▓È_1
 62
     5
 10
924.03911295930004
 20
-21.1224160039
 30
0.0
 11
924.03911295930004
 21
-29.1224160039
 31
0.0
  0
LINE
  5
43
  8
┌▓È_1
 62
     5
 10
925.03911295929993
 20
-21.1224160039
 30
0.0
 11
930.03911295929981
 21
-21.1224160039
 31
0.0
  0
LINE
  5
44
  8
┌▓È_1
 62
     5
 10
957.28911295929993
 20
-32.1224160039
 30
0.0
 11
966.85185902609987
 21
-32.1224160039
 31
0.0
  0
LINE
  5
45
  8
┌▓È_1
 62
     5
 10
957.28911295929993
 20
-31.1224160039
 30
0.0
 11
957.28911295929993
 21
-32.1224160039
 31
0.0
  0
LINE
  5
46
  8
┌▓È_1
 62
     5
 10
1014.2975637006
 20
-64.684794316999998
 30
0.0
 11
1013.9102487524
 21
-66.662942691200001
 31
0.0
  0
LINE
  5
47
  8
┌▓È_1
 62
     5
 10
1014.790782531
 20
-62.165759014999999
 30
0.0
 11
1014.4897584405001
 21
-63.703190807699997
 31
0.0
  0
LINE
  5
48
  8
┌▓È_1
 62
     5
 10
1013.5619770539
 20
-59.702603936599999
 30
0.0
 11
1013.2494716748
 21
-62.023372977900003
 31
0.0
  0
ARC
  5
49
  8
┌▓È_1
 62
     5
 10
1014.7360547776
 20
-62.223549596300003
 30
0.0
 40
1.5
 50
343.82518253939998
 51
39.487275519999997
  0
ARC
  5
4A
  8
┌▓È_1
 62
     5
 10
1014.7360547776
 20
-62.223549596300003
 30
0.0
 40
2.5
 50
327.62771839480001
 51
39.487269270299997
  0
ARC
  5
4B
  8
┌▓È_1
 62
     5
 10
1013.1012936684
 20
-57.245416353499998
 30
0.0
 40
2.5
 50
180.28544561929999
 51
300.18805573989999
  0
ARC
  5
4C
  8
┌▓È_1
 62
     5
 10
1002.5632574188
 20
-67.041649403899996
 30
0.0
 40
2.5
 50
335.42184097699999
 51
94.617814940800002
  0
ARC
  5
4D
  8
┌▓È_1
 62
     5
 10
1002.5632574188
 20
-67.041649403899996
 30
0.0
 40
1.5
 50
335.4218093101
 51
89.233216368899988
  0
LINE
  5
4E
  8
┌▓È_1
 62
     5
 10
1018.0391129593
 20
-31.1224160039
 30
0.0
 11
930.53911295929993
 21
-31.1224160039
 31
0.0
  0
LINE
  5
4F
  8
┌▓È_1
 62
     5
 10
1019.0391129593
 20
-22.622415931599999
 30
0.0
 11
1019.0391129593
 21
-30.1224160039
 31
0.0
  0
LINE
  5
50
  8
┌▓È_1
 62
     5
 10
1018.0391129593
 20
-30.1224160039
 30
0.0
 11
1018.0391129593
 21
-22.622415931599999
 31
0.0
  0
LINE
  5
51
  8
┌▓È_1
 62
     5
 10
1018.0391129593
 20
-22.622415931599999
 30
0.0
 11
1019.0391129593
 21
-22.622415931599999
 31
0.0
  0
LINE
  5
52
  8
┌▓È_1
 62
     5
 10
971.40081598289987
 20
-72.711345815599998
 30
0.0
 11
969.41347790969996
 21
-72.119718669700006
 31
0.0
  0
ARC
  5
53
  8
┌▓È_1
 62
     5
 10
1016.2893325932
 20
-72.596525234399991
 30
0.0
 40
0.5
 50
26.987213627399999
 51
206.9872763166
  0
ARC
  5
54
  8
┌▓È_1
 62
     5
 10
1002.5632574188
 20
-67.041649403899996
 30
0.0
 40
2.5
 50
167.98158383309999
 51
202.5781783612
  0
ARC
  5
55
  8
┌▓È_1
 62
     5
 10
1002.5632574188
 20
-67.041649403899996
 30
0.0
 40
2.5
 50
94.617814940800002
 51
117.73797548819999
  0
ARC
  5
56
  8
┌▓È_1
 62
     5
 10
1016.363663543
 20
-67.143313241200005
 30
0.0
 40
2.5
 50
304.32538846070003
 51
36.078178361200003
  0
ARC
  5
57
  8
┌▓È_1
 62
     5
 10
1014.7360547776
 20
-62.223549596300003
 30
0.0
 40
1.5
 50
172.3309002192
 51
302.95454241499999
  0
ARC
  5
58
  8
┌▓È_1
 62
     5
 10
1016.363663543
 20
-67.143313241200005
 30
0.0
 40
1.5
 50
309.2781076686
 51
36.078184610900003
  0
ARC
  5
59
  8
┌▓È_1
 62
     5
 10
1015.2814654733
 20
-62.261833205599999
 30
0.0
 40
0.5
 50
36.078122718300008
 51
216.0781854075
  0
LINE
  5
5A
  8
┌▓È_1
 62
     5
 10
1012.9796127741
 20
-57.733013827800001
 30
0.0
 11
1015.8937036205
 21
-61.269689461599988
 31
0.0
  0
LINE
  5
5B
  8
┌▓È_1
 62
     5
 10
1015.6855725857999
 20
-61.967388912700002
 30
0.0
 11
1018.3841991057
 21
-65.671091776899985
 31
0.0
  0
LINE
  5
5C
  8
┌▓È_1
 62
     5
 10
1015.3226276339
 20
-64.6537619912
 30
0.0
 11
1014.8916146686
 21
-66.855090911199994
 31
0.0
  0
ARC
  5
5D
  8
┌▓È_1
 62
     5
 10
1002.809678353
 20
-72.258299678400007
 30
0.0
 40
2.5
 50
348.4218387592
 51
106.25443397399999
  0
ARC
  5
5E
  8
┌▓È_1
 62
     5
 10
1016.363663543
 20
-67.143313241200005
 30
0.0
 40
1.5
 50
168.9218093101
 51
270.0
  0
ARC
  5
5F
  8
┌▓È_1
 62
     5
 10
1018.0391129593
 20
-30.1224160039
 30
0.0
 40
1.0
 50
270.0
 51
0.0
  0
LINE
  5
60
  8
┌▓È_1
 62
     5
 10
930.03911295929981
 20
-20.1224160039
 30
0.0
 11
925.03911295929993
 21
-20.1224160039
 31
0.0
  0
LINE
  5
61
  8
┌▓È_1
 62
     5
 10
931.53911295929993
 20
-33.1224160039
 30
0.0
 11
930.53911295929993
 21
-33.1224160039
 31
0.0
  0
LINE
  5
62
  8
┌▓È_1
 62
     5
 10
928.53911295930004
 20
-30.1224160039
 30
0.0
 11
928.53911295930004
 21
-37.1224160039
 31
0.0
  0
LINE
  5
63
  8
┌▓È_1
 62
     5
 10
930.53911295929993
 20
-33.1224160039
 30
0.0
 11
930.53911295929993
 21
-37.1224160039
 31
0.0
  0
LINE
  5
64
  8
┌▓È_1
 62
     5
 10
928.53911295930004
 20
-58.6224160039
 30
0.0
 11
929.53911295929993
 21
-58.6224160039
 31
0.0
  0
LINE
  5
65
  8
┌▓È_1
 62
     5
 10
1000.9992130705
 20
-65.498905400400005
 30
0.0
 11
998.81554045369978
 21
-65.553105381999998
 31
0.0
  0
ARC
  5
66
  8
┌▓È_1
 62
     5
 10
998.87757345969999
 20
-68.052335644799996
 30
0.0
 40
2.5
 50
91.4218387592
 51
212.55774729269999
  0
LINE
  5
67
  8
┌▓È_1
 62
     5
 10
1001.1598357315
 20
-66.495226638399998
 30
0.0
 11
1002.5518674305
 21
-66.495226638399998
 31
0.0
  0
ARC
  5
68
  8
┌▓È_1
 62
     5
 10
1014.7360547776
 20
-62.223549596300003
 30
0.0
 40
2.5
 50
172.3309296683
 51
304.20459121530001
  0
ARC
  5
69
  8
┌▓È_1
 62
     5
 10
1002.809678353
 20
-72.258299678400007
 30
0.0
 40
1.5
 50
348.4218093101
 51
101.9999969605
  0
ARC
  5
6A
  8
┌▓È_1
 62
     5
 10
1002.4759953865999
 20
-72.040887879699994
 30
0.0
 40
0.5
 50
202.57812271829999
 51
22.578185407500001
  0
LINE
  5
6B
  8
┌▓È_1
 62
     5
 10
1002.5518674305
 20
-66.495226638399998
 30
0.0
 11
1003.3076844348
 21
-65.739409634099999
 31
0.0
  0
LINE
  5
6C
  8
┌▓È_1
 62
     5
 10
981.37989540779995
 20
-72.533335194599985
 30
0.0
 11
979.09870836530001
 21
-71.854229713100011
 31
0.0
  0
ARC
  5
6D
  8
┌▓È_1
 62
     5
 10
989.01826355029982
 20
-71.640682446599996
 30
0.0
 40
1.5
 50
84.421790788699994
 51
197.9999969605
  0
LINE
  5
6E
  8
┌▓È_1
 62
     5
 10
981.61667402289982
 20
-71.560452194899995
 30
0.0
 11
979.38403081910008
 21
-70.895798131099994
 31
0.0
  0
ARC
  5
6F
  8
┌▓È_1
 62
     5
 10
989.01826355029982
 20
-71.640682446599996
 30
0.0
 40
2.5
 50
84.421838759199986
 51
203.48038057350001
  0
ARC
  5
70
  8
┌▓È_1
 62
     5
 10
998.87757345969999
 20
-68.052335644799996
 30
0.0
 40
2.5
 50
235.6326176602
 51
318.5781783612
  0
ARC
  5
71
  8
┌▓È_1
 62
     5
 10
998.87757345969999
 20
-68.052335644799996
 30
0.0
 40
1.5
 50
91.421809310100016
 51
204.9999969605
  0
LINE
  5
72
  8
┌▓È_1
 62
     5
 10
1015.8437789058
 20
-67.622421491799997
 30
0.0
 11
1017.9233174547001
 21
-71.705988489399999
 31
0.0
  0
LINE
  5
73
  8
┌▓È_1
 62
     5
 10
1016.7348862806
 20
-67.168628976999997
 30
0.0
 11
1018.8144248295
 21
-71.252195974599999
 31
0.0
  0
LINE
  5
74
  8
┌▓È_1
 62
     5
 10
1002.9678862463001
 20
-69.763310647799997
 30
0.0
 11
1003.92734933
 21
-67.665551044899999
 31
0.0
  0
LINE
  5
75
  8
┌▓È_1
 62
     5
 10
1002.9306926798999
 20
-72.248855116000001
 30
0.0
 11
1003.5285229948
 21
-70.941765447500003
 31
0.0
  0
LINE
  5
76
  8
┌▓È_1
 62
     5
 10
1003.945083558
 20
-70.031001983699994
 30
0.0
 11
1004.8367442256
 21
-68.0814848423
 31
0.0
  0
ARC
  5
77
  8
┌▓È_1
 62
     5
 10
993.99426441749995
 20
-69.968838502700009
 30
0.0
 40
1.5
 50
238.96950005979991
 51
313.57818461099998
  0
ARC
  5
78
  8
┌▓È_1
 62
     5
 10
993.99426441749995
 20
-69.968838502700009
 30
0.0
 40
2.5
 50
231.9093665819
 51
313.5781783612
  0
ARC
  5
79
  8
┌▓È_1
 62
     5
 10
993.99426441749995
 20
-69.968838502700009
 30
0.0
 40
1.5
 50
86.421809310100016
 51
200.0
  0
LINE
  5
7A
  8
┌▓È_1
 62
     5
 10
1001.2520293706
 20
-67.795064698299996
 30
0.0
 11
1002.5518674305
 21
-66.495226638399998
 31
0.0
  0
ARC
  5
7B
  8
┌▓È_1
 62
     5
 10
1002.5632574188
 20
-67.041649403899996
 30
0.0
 40
1.5
 50
89.233216368899988
 51
90.0
  0
LINE
  5
7C
  8
┌▓È_1
 62
     5
 10
1000.9992130705
 20
-65.498905400400005
 30
0.0
 11
1002.5833311681
 21
-65.541783728400006
 31
0.0
  0
ARC
  5
7D
  8
┌▓È_1
 62
     5
 10
1002.5632574188
 20
-67.041649403899996
 30
0.0
 40
2.5
 50
117.73797548819999
 51
142.19211505999999
  0
LINE
  5
7E
  8
┌▓È_1
 62
     5
 10
1012.5553128551001
 20
-59.685068982799997
 30
0.0
 11
1012.258416219
 21
-61.889922299600002
 31
0.0
  0
LINE
  5
7F
  8
┌▓È_1
 62
     5
 10
1013.7513786693
 20
-57.097107071300002
 30
0.0
 11
1016.6654695157
 21
-60.633782705200012
 31
0.0
  0
LINE
  5
80
  8
┌▓È_1
 62
     5
 10
1014.8773583608
 20
-62.5562774984
 30
0.0
 11
1017.5759848806
 21
-66.259980362600004
 31
0.0
  0
LINE
  5
81
  8
┌▓È_1
 62
     5
 10
991.52808565570024
 20
-70.378670559399993
 30
0.0
 11
989.16406932970006
 21
-70.147785707200001
 31
0.0
  0
LINE
  5
82
  8
┌▓È_1
 62
     5
 10
993.82214802709996
 20
-69.597965225199999
 30
0.0
 11
992.57740176079994
 21
-69.476395397399983
 31
0.0
  0
LINE
  5
83
  8
┌▓È_1
 62
     5
 10
991.56519819160008
 20
-69.377537166599993
 30
0.0
 11
989.26127246100009
 21
-69.1525211437
 31
0.0
  0
LINE
  5
84
  8
┌▓È_1
 62
     5
 10
1008.5349965928
 20
-51.315160793300002
 30
0.0
 11
1009.1568519793
 21
-53.177224268099998
 31
0.0
  0
LINE
  5
85
  8
┌▓È_1
 62
     5
 10
978.74389890539987
 20
-72.737566516699999
 30
0.0
 11
977.4915582491999
 21
-72.364746844899997
 31
0.0
  0
ARC
  5
86
  8
┌▓È_1
 62
     5
 10
993.99426441749995
 20
-69.968838502700009
 30
0.0
 40
2.5
 50
86.4218387592
 51
208.8302454917
  0
ARC
  5
87
  8
┌▓È_1
 62
     5
 10
1016.2893325932
 20
-67.395525234399997
 30
0.0
 40
0.5
 50
26.987213627399999
 51
206.9872763166
  0
LINE
  5
88
  8
┌▓È_1
 62
     5
 10
1001.6665629825
 20
-68.79198775350001
 30
0.0
 11
1003.9610701155
 21
-66.497480620499999
 31
0.0
  0
LINE
  5
89
  8
┌▓È_1
 62
     5
 10
1016.0058042493999
 20
-69.617568023100006
 30
0.0
 11
1015.1786374471
 21
-71.869490013399997
 31
0.0
  0
LINE
  5
8A
  8
┌▓È_1
 62
     5
 10
1015.0647056504999
 20
-69.279362958199997
 30
0.0
 11
1014.2399579626
 21
-71.524699025499999
 31
0.0
  0
LINE
  5
8B
  8
┌▓È_1
 62
     5
 10
1015.8199930018
 20
-67.223129329599999
 30
0.0
 11
1015.4207935678
 21
-68.309930663399996
 31
0.0
  0
LINE
  5
8C
  8
┌▓È_1
 62
     5
 10
983.77611576109996
 20
-72.203314307599996
 30
0.0
 11
982.59375964610012
 21
-71.851328913999993
 31
0.0
  0
ARC
  5
8D
  8
┌▓È_1
 62
     5
 10
1007.3785212233
 20
-49.098730167299991
 30
0.0
 40
2.5
 50
193.92183875919989
 51
324.99877811229999
  0
LINE
  5
8E
  8
┌▓È_1
 62
     5
 10
1010.5784935735001
 20
-52.675352931499987
 30
0.0
 11
1010.5860999945
 21
-54.202065755900001
 31
0.0
  0
ARC
  5
8F
  8
┌▓È_1
 62
     5
 10
1010.5796090683
 20
-52.702079799999993
 30
0.0
 40
1.5
 50
352.37505186890002
 51
65.623653953500011
  0
ARC
  5
90
  8
┌▓È_1
 62
     5
 10
1010.5796090683
 20
-52.702079799999993
 30
0.0
 40
1.5
 50
198.4672573208
 51
312.04545150600001
  0
LINE
  5
91
  8
┌▓È_1
 62
     5
 10
1004.0929061906
 20
-45.569603666800013
 30
0.0
 11
1008.1039448863
 21
-47.785809564599987
 31
0.0
  0
LINE
  5
92
  8
┌▓È_1
 62
     5
 10
986.5237673764999
 20
-71.806480030800003
 30
0.0
 11
984.28100295369995
 21
-71.181209615499995
 31
0.0
  0
ARC
  5
93
  8
┌▓È_1
 62
     5
 10
1002.5632574188
 20
-67.041649403899996
 30
0.0
 40
1.5
 50
158.63660717729999
 51
202.57819990050001
  0
ARC
  5
94
  8
┌▓È_1
 62
     5
 10
998.69272752149982
 20
-68.258737786099999
 30
0.0
 40
0.5
 50
313.57812271829999
 51
133.5781854075
  0
ARC
  5
95
  8
┌▓È_1
 62
     5
 10
998.87757345969999
 20
-68.052335644799996
 30
0.0
 40
1.5
 50
243.9473873078
 51
318.57818461099998
  0
LINE
  5
96
  8
┌▓È_1
 62
     5
 10
996.44264462039985
 20
-68.619011520000001
 30
0.0
 11
994.08788003119992
 21
-68.471762647299997
 31
0.0
  0
LINE
  5
97
  8
┌▓È_1
 62
     5
 10
998.72393272600004
 20
-67.75971250100001
 30
0.0
 11
997.42490931179998
 21
-67.678481564199998
 31
0.0
  0
ARC
  5
98
  8
┌▓È_1
 62
     5
 10
1016.363663543
 20
-67.143313241200005
 30
0.0
 40
2.5
 50
168.92183001800001
 51
281.18755152310001
  0
LINE
  5
99
  8
┌▓È_1
 62
     5
 10
1000.7522213306
 20
-69.706329405399984
 30
0.0
 11
1000.9016277337
 21
-69.556923002199994
 31
0.0
  0
LINE
  5
9A
  8
┌▓È_1
 62
     5
 10
1000.0023622904999
 20
-69.044731778400006
 30
0.0
 11
1000.4870941219
 21
-68.559999946999994
 31
0.0
  0
LINE
  5
9B
  8
┌▓È_1
 62
     5
 10
1002.0143171306
 20
-72.232859721300002
 30
0.0
 11
1000.2548661391
 21
-68.0015086123
 31
0.0
  0
LINE
  5
9C
  8
┌▓È_1
 62
     5
 10
1002.9376736425
 20
-71.848916037999999
 30
0.0
 11
1001.1782226510001
 21
-67.617564928899995
 31
0.0
  0
LINE
  5
9D
  8
┌▓È_1
 62
     5
 10
992.62535921549988
 20
-37.0347087098
 30
0.0
 11
993.64435205719997
 21
-38.0043427154
 31
0.0
  0
ARC
  5
9E
  8
┌▓È_1
 62
     5
 10
1000.5250205212
 20
-41.513544566599997
 30
0.0
 40
0.5
 50
66.759940900100005
 51
246.7600035893
  0
LINE
  5
9F
  8
┌▓È_1
 62
     5
 10
1010.5910821545
 20
-55.202053473500001
 30
0.0
 11
1010.6013247011
 21
-57.2578727904
 31
0.0
  0
LINE
  5
A0
  8
┌▓È_1
 62
     5
 10
1011.590032042
 20
-54.988790410100002
 30
0.0
 11
1011.6013122916
 21
-57.252890942299992
 31
0.0
  0
ARC
  5
A1
  8
┌▓È_1
 62
     5
 10
1013.1012936684
 20
-57.245416353499998
 30
0.0
 40
1.5
 50
332.89985892589999
 51
47.441820974599999
  0
ARC
  5
A2
  8
┌▓È_1
 62
     5
 10
1013.3654957217
 20
-57.415060449599999
 30
0.0
 40
0.5
 50
39.487213627400003
 51
219.4872763166
  0
ARC
  5
A3
  8
┌▓È_1
 62
     5
 10
988.8295138371999
 20
-71.930241486300005
 30
0.0
 40
0.5
 50
301.57812271829999
 51
121.5781854075
  0
ARC
  5
A4
  8
┌▓È_1
 62
     5
 10
1013.1012936684
 20
-57.245416353499998
 30
0.0
 40
1.5
 50
180.2854456737
 51
293.86363332420001
  0
LINE
  5
A5
  8
┌▓È_1
 62
     5
 10
988.96379074649985
 20
-71.448609145600003
 30
0.0
 11
987.62847674490001
 21
-71.076330928700003
 31
0.0
  0
LINE
  5
A6
  8
┌▓È_1
 62
     5
 10
986.66145930070002
 20
-70.806731771199992
 30
0.0
 11
984.54955525009996
 21
-70.217944509700004
 31
0.0
  0
LINE
  5
A7
  8
┌▓È_1
 62
     5
 10
1004.5765219659
 20
-44.694323264899992
 30
0.0
 11
1008.5875606617
 21
-46.910529162700001
 31
0.0
  0
LINE
  5
A8
  8
┌▓È_1
 62
     5
 10
999.03739936519992
 20
-68.620955013900002
 30
0.0
 11
995.7176236363
 21
-71.779924641799994
 31
0.0
  0
LINE
  5
A9
  8
┌▓È_1
 62
     5
 10
976.49135469399994
 20
-72.066987956899993
 30
0.0
 11
974.35181424580003
 21
-71.430050424300006
 31
0.0
  0
LINE
  5
AA
  8
┌▓È_1
 62
     5
 10
1001.1598357315
 20
-66.495226638399998
 30
0.0
 11
998.84034976600003
 21
-66.552797583699984
 31
0.0
  0
LINE
  5
AB
  8
┌▓È_1
 62
     5
 10
998.3480556776999
 20
-67.896520558299997
 30
0.0
 11
995.02827994879999
 21
-71.055490186200004
 31
0.0
  0
ARC
  5
AC
  8
┌▓È_1
 62
     5
 10
993.77354613169996
 20
-70.095597474800002
 30
0.0
 40
0.5
 50
311.57812271829999
 51
131.5781854075
  0
LINE
  5
AD
  8
┌▓È_1
 62
     5
 10
993.44172545169988
 20
-69.721572026000004
 30
0.0
 11
990.01372559039987
 21
-72.762758792799985
 31
0.0
  0
ARC
  5
AE
  8
┌▓È_1
 62
     5
 10
983.8781734933998
 20
-72.626106991100002
 30
0.0
 40
1.5
 50
74.421809310100002
 51
188.0
  0
LINE
  5
AF
  8
┌▓È_1
 62
     5
 10
1005.36668057
 20
-47.216988926299997
 30
0.0
 11
1005.9225840719999
 21
-49.459627675600011
 31
0.0
  0
ARC
  5
B0
  8
┌▓È_1
 62
     5
 10
1007.3785212233
 20
-49.098730167299991
 30
0.0
 40
2.5
 50
348.07567005210001
 51
61.078178361199988
  0
ARC
  5
B1
  8
┌▓È_1
 62
     5
 10
996.1492065435001
 20
-38.317284247300002
 30
0.0
 40
2.5
 50
3.2456486425999991
 51
93.578178361200003
  0
LINE
  5
B2
  8
┌▓È_1
 62
     5
 10
991.41953823499989
 20
-36.1081582455
 30
0.0
 11
995.99318052069998
 21
-35.822157821600001
 31
0.0
  0
ARC
  5
B3
  8
┌▓È_1
 62
     5
 10
991.4507434395
 20
-36.607183530599997
 30
0.0
 40
0.5
 50
93.578122718299994
 51
273.57818540749997
  0
ARC
  5
B4
  8
┌▓È_1
 62
     5
 10
1000.2313485901
 20
-41.460845365899999
 30
0.0
 40
1.5
 50
201.87635476459999
 51
319.99999696050003
  0
ARC
  5
B5
  8
┌▓È_1
 62
     5
 10
1011.078487368
 20
-52.6728618518
 30
0.0
 40
0.5
 50
47.441759081899988
 51
227.4418217711
  0
LINE
  5
B6
  8
┌▓È_1
 62
     5
 10
1007.4373736694
 20
-48.533584064399989
 30
0.0
 11
1011.6114309715
 21
-50.424944854499991
 31
0.0
  0
LINE
  5
B7
  8
┌▓È_1
 62
     5
 10
1007.572879612
 20
-51.591163680299999
 30
0.0
 11
1008.2083472533
 21
-53.493987246899998
 31
0.0
  0
LINE
  5
B8
  8
┌▓È_1
 62
     5
 10
1006.7567569257
 20
-49.1473925429
 30
0.0
 11
1007.2392833054
 21
-50.592253786899988
 31
0.0
  0
ARC
  5
B9
  8
┌▓È_1
 62
     5
 10
996.66787773320004
 20
-37.953470927399998
 30
0.0
 40
0.5
 50
69.032668172800001
 51
249.03273086199999
  0
LINE
  5
BA
  8
┌▓È_1
 62
     5
 10
994.43211127170002
 20
-38.753943783700002
 30
0.0
 11
995.11519138149993
 21
-39.403936282099998
 31
0.0
  0
ARC
  5
BB
  8
┌▓È_1
 62
     5
 10
974.78911295929981
 20
-31.1224160039
 30
0.0
 40
8.0
 50
293.1567072295
 51
352.81924421849999
  0
LINE
  5
BC
  8
┌▓È_1
 62
     5
 10
991.48194864410004
 20
-37.106208815800009
 30
0.0
 11
996.05559092979991
 21
-36.820208391800001
 31
0.0
  0
ARC
  5
BD
  8
┌▓È_1
 62
     5
 10
996.1492065435001
 20
-38.317284247300002
 30
0.0
 40
1.5
 50
226.4218093101
 51
339.99999696050003
  0
POLYLINE
  5
BE
  8
┌▓È_1
 62
     5
 10
981.14638726834994
 20
-34.052443880852323
 30
0.0
 66
     1
 70
     8
  0
VERTEX
  8
┌▓È_1
  5
791
 10
981.146
 20
-34.0524
 30
0.000000
  70
    32
  0
VERTEX
  8
┌▓È_1
  5
792
 10
980.932
 20
-34.1330
 30
0.000000
  70
    32
  0
VERTEX
  8
┌▓È_1
  5
793
 10
980.722
 20
-34.2172
 30
0.000000
  70
    32
  0
VERTEX
  8
┌▓È_1
  5
794
 10
980.518
 20
-34.3050
 30
0.000000
  70
    32
  0
VERTEX
  8
┌▓È_1
  5
795
 10
980.320
 20
-34.3962
 30
0.000000
  70
    32
  0
VERTEX
  8
┌▓È_1
  5
796
 10
980.127
 20
-34.4909
 30
0.000000
  70
    32
  0
VERTEX
  8
┌▓È_1
  5
797
 10
979.941
 20
-34.5888
 30
0.000000
  70
    32
  0
VERTEX
  8
┌▓È_1
  5
798
 10
979.761
 20
-34.6898
 30
0.000000
  70
    32
  0
VERTEX
  8
┌▓È_1
  5
799
 10
979.587
 20
-34.7939
 30
0.000000
  70
    32
  0
VERTEX
  8
┌▓È_1
  5
79A
 10
979.420
 20
-34.9010
 30
0.000000
  70
    32
  0
VERTEX
  8
┌▓È_1
  5
79B
 10
979.260
 20
-35.0108
 30
0.000000
  70
    32
  0
VERTEX
  8
┌▓È_1
  5
79C
 10
979.107
 20
-35.1234
 30
0.000000
  70
    32
  0
VERTEX
  8
┌▓È_1
  5
79D
 10
978.962
 20
-35.2386
 30
0.000000
  70
    32
  0
VERTEX
  8
┌▓È_1
  5
79E
 10
978.823
 20
-35.3562
 30
0.000000
  70
    32
  0
VERTEX
  8
┌▓È_1
  5
79F
 10
978.692
 20
-35.4761
 30
0.000000
  70
    32
  0
VERTEX
  8
┌▓È_1
  5
7A0
 10
978.569
 20
-35.5982
 30
0.000000
  70
    32
  0
VERTEX
  8
┌▓È_1
  5
7A1
 10
978.453
 20
-35.7224
 30
0.000000
  70
    32
  0
VERTEX
  8
┌▓È_1
  5
7A2
 10
978.346
 20
-35.8485
 30
0.000000
  70
    32
  0
VERTEX
  8
┌▓È_1
  5
7A3
 10
978.246
 20
-35.9764
 30
0.000000
  70
    32
  0
VERTEX
  8
┌▓È_1
  5
7A4
 10
978.155
 20
-36.1059
 30
0.000000
  70
    32
  0
VERTEX
  8
┌▓È_1
  5
7A5
 10
978.072
 20
-36.2370
 30
0.000000
  70
    32
  0
VERTEX
  8
┌▓È_1
  5
7A6
 10
977.997
 20
-36.3694
 30
0.000000
  70
    32
  0
VERTEX
  8
┌▓È_1
  5
7A7
 10
977.931
 20
-36.5030
 30
0.000000
  70
    32
  0
VERTEX
  8
┌▓È_1
  5
7A8
 10
977.873
 20
-36.6377
 30
0.000000
  70
    32
  0
VERTEX
  8
┌▓È_1
  5
7A9
 10
977.823
 20
-36.7734
 30
0.000000
  70
    32
  0
VERTEX
  8
┌▓È_1
  5
7AA
 10
977.783
 20
-36.9098
 30
0.000000
  70
    32
  0
VERTEX
  8
┌▓È_1
  5
7AB
 10
977.750
 20
-37.0468
 30
0.000000
  70
    32
  0
VERTEX
  8
┌▓È_1
  5
7AC
 10
977.727
 20
-37.1843
 30
0.000000
  70
    32
  0
VERTEX
  8
┌▓È_1
  5
7AD
 10
977.712
 20
-37.3222
 30
0.000000
  70
    32
  0
VERTEX
  8
┌▓È_1
  5
7AE
 10
977.706
 20
-37.4602
 30
0.000000
  70
    32
  0
VERTEX
  8
┌▓È_1
  5
7AF
 10
977.709
 20
-37.5982
 30
0.000000
  70
    32
  0
VERTEX
  8
┌▓È_1
  5
7B0
 10
977.721
 20
-37.7361
 30
0.000000
  70
    32
  0
VERTEX
  8
┌▓È_1
  5
7B1
 10
977.741
 20
-37.8738
 30
0.000000
  70
    32
  0
VERTEX
  8
┌▓È_1
  5
7B2
 10
977.770
 20
-38.0110
 30
0.000000
  70
    32
  0
VERTEX
  8
┌▓È_1
  5
7B3
 10
977.807
 20
-38.1477
 30
0.000000
  70
    32
  0
VERTEX
  8
┌▓È_1
  5
7B4
 10
977.853
 20
-38.2836
 30
0.000000
  70
    32
  0
VERTEX
  8
┌▓È_1
  5
7B5
 10
977.908
 20
-38.4187
 30
0.000000
  70
    32
  0
VERTEX
  8
┌▓È_1
  5
7B6
 10
977.972
 20
-38.5527
 30
0.000000
  70
    32
  0
VERTEX
  8
┌▓È_1
  5
7B7
 10
978.043
 20
-38.6856
 30
0.000000
  70
    32
  0
VERTEX
  8
┌▓È_1
  5
7B8
 10
978.123
 20
-38.8172
 30
0.000000
  70
    32
  0
VERTEX
  8
┌▓È_1
  5
7B9
 10
978.212
 20
-38.9473
 30
0.000000
  70
    32
  0
VERTEX
  8
┌▓È_1
  5
7BA
 10
978.308
 20
-39.0758
 30
0.000000
  70
    32
  0
VERTEX
  8
┌▓È_1
  5
7BB
 10
978.413
 20
-39.2026
 30
0.000000
  70
    32
  0
VERTEX
  8
┌▓È_1
  5
7BC
 10
978.525
 20
-39.3275
 30
0.000000
  70
    32
  0
VERTEX
  8
┌▓È_1
  5
7BD
 10
978.646
 20
-39.4504
 30
0.000000
  70
    32
  0
VERTEX
  8
┌▓È_1
  5
7BE
 10
978.774
 20
-39.5711
 30
0.000000
  70
    32
  0
VERTEX
  8
┌▓È_1
  5
7BF
 10
978.910
 20
-39.6896
 30
0.000000
  70
    32
  0
VERTEX
  8
┌▓È_1
  5
7C0
 10
979.053
 20
-39.8057
 30
0.000000
  70
    32
  0
VERTEX
  8
┌▓È_1
  5
7C1
 10
979.203
 20
-39.9192
 30
0.000000
  70
    32
  0
VERTEX
  8
┌▓È_1
  5
7C2
 10
979.361
 20
-40.0301
 30
0.000000
  70
    32
  0
VERTEX
  8
┌▓È_1
  5
7C3
 10
979.525
 20
-40.1382
 30
0.000000
  70
    32
  0
VERTEX
  8
┌▓È_1
  5
7C4
 10
979.696
 20
-40.2434
 30
0.000000
  70
    32
  0
VERTEX
  8
┌▓È_1
  5
7C5
 10
979.874
 20
-40.3456
 30
0.000000
  70
    32
  0
VERTEX
  8
┌▓È_1
  5
7C6
 10
980.058
 20
-40.4447
 30
0.000000
  70
    32
  0
VERTEX
  8
┌▓È_1
  5
7C7
 10
980.248
 20
-40.5405
 30
0.000000
  70
    32
  0
VERTEX
  8
┌▓È_1
  5
7C8
 10
980.444
 20
-40.6330
 30
0.000000
  70
    32
  0
VERTEX
  8
┌▓È_1
  5
7C9
 10
980.646
 20
-40.7221
 30
0.000000
  70
    32
  0
VERTEX
  8
┌▓È_1
  5
7CA
 10
980.854
 20
-40.8076
 30
0.000000
  70
    32
  0
VERTEX
  8
┌▓È_1
  5
7CB
 10
981.067
 20
-40.8895
 30
0.000000
  70
    32
  0
VERTEX
  8
┌▓È_1
  5
7CC
 10
981.285
 20
-40.9677
 30
0.000000
  70
    32
  0
VERTEX
  8
┌▓È_1
  5
7CD
 10
981.507
 20
-41.0421
 30
0.000000
  70
    32
  0
VERTEX
  8
┌▓È_1
  5
7CE
 10
981.734
 20
-41.1126
 30
0.000000
  70
    32
  0
VERTEX
  8
┌▓È_1
  5
7CF
 10
981.966
 20
-41.1792
 30
0.000000
  70
    32
  0
VERTEX
  8
┌▓È_1
  5
7D0
 10
982.202
 20
-41.2417
 30
0.000000
  70
    32
  0
VERTEX
  8
┌▓È_1
  5
7D1
 10
982.441
 20
-41.3001
 30
0.000000
  70
    32
  0
VERTEX
  8
┌▓È_1
  5
7D2
 10
982.684
 20
-41.3544
 30
0.000000
  70
    32
  0
VERTEX
  8
┌▓È_1
  5
7D3
 10
982.931
 20
-41.4044
 30
0.000000
  70
    32
  0
VERTEX
  8
┌▓È_1
  5
7D4
 10
983.180
 20
-41.4502
 30
0.000000
  70
    32
  0
VERTEX
  8
┌▓È_1
  5
7D5
 10
983.432
 20
-41.4916
 30
0.000000
  70
    32
  0
VERTEX
  8
┌▓È_1
  5
7D6
 10
983.687
 20
-41.5287
 30
0.000000
  70
    32
  0
VERTEX
  8
┌▓È_1
  5
7D7
 10
983.944
 20
-41.5613
 30
0.000000
  70
    32
  0
VERTEX
  8
┌▓È_1
  5
7D8
 10
984.202
 20
-41.5895
 30
0.000000
  70
    32
  0
VERTEX
  8
┌▓È_1
  5
7D9
 10
984.463
 20
-41.6132
 30
0.000000
  70
    32
  0
VERTEX
  8
┌▓È_1
  5
7DA
 10
984.724
 20
-41.6324
 30
0.000000
  70
    32
  0
VERTEX
  8
┌▓È_1
  5
7DB
 10
984.987
 20
-41.6471
 30
0.000000
  70
    32
  0
VERTEX
  8
┌▓È_1
  5
7DC
 10
985.251
 20
-41.6572
 30
0.000000
  70
    32
  0
VERTEX
  8
┌▓È_1
  5
7DD
 10
985.515
 20
-41.6628
 30
0.000000
  70
    32
  0
VERTEX
  8
┌▓È_1
  5
7DE
 10
985.779
 20
-41.6638
 30
0.000000
  70
    32
  0
VERTEX
  8
┌▓È_1
  5
7DF
 10
986.044
 20
-41.6603
 30
0.000000
  70
    32
  0
VERTEX
  8
┌▓È_1
  5
7E0
 10
986.307
 20
-41.6522
 30
0.000000
  70
    32
  0
VERTEX
  8
┌▓È_1
  5
7E1
 10
986.571
 20
-41.6395
 30
0.000000
  70
    32
  0
VERTEX
  8
┌▓È_1
  5
7E2
 10
986.833
 20
-41.6223
 30
0.000000
  70
    32
  0
VERTEX
  8
┌▓È_1
  5
7E3
 10
987.094
 20
-41.6006
 30
0.000000
  70
    32
  0
VERTEX
  8
┌▓È_1
  5
7E4
 10
987.354
 20
-41.5744
 30
0.000000
  70
    32
  0
VERTEX
  8
┌▓È_1
  5
7E5
 10
987.611
 20
-41.5438
 30
0.000000
  70
    32
  0
VERTEX
  8
┌▓È_1
  5
7E6
 10
987.867
 20
-41.5087
 30
0.000000
  70
    32
  0
VERTEX
  8
┌▓È_1
  5
7E7
 10
988.120
 20
-41.4692
 30
0.000000
  70
    32
  0
VERTEX
  8
┌▓È_1
  5
7E8
 10
988.371
 20
-41.4254
 30
0.000000
  70
    32
  0
VERTEX
  8
┌▓È_1
  5
7E9
 10
988.619
 20
-41.3773
 30
0.000000
  70
    32
  0
VERTEX
  8
┌▓È_1
  5
7EA
 10
988.863
 20
-41.3249
 30
0.000000
  70
    32
  0
VERTEX
  8
┌▓È_1
  5
7EB
 10
989.104
 20
-41.2683
 30
0.000000
  70
    32
  0
VERTEX
  8
┌▓È_1
  5
7EC
 10
989.342
 20
-41.2076
 30
0.000000
  70
    32
  0
VERTEX
  8
┌▓È_1
  5
7ED
 10
989.575
 20
-41.1429
 30
0.000000
  70
    32
  0
VERTEX
  8
┌▓È_1
  5
7EE
 10
989.804
 20
-41.0741
 30
0.000000
  70
    32
  0
VERTEX
  8
┌▓È_1
  5
7EF
 10
990.029
 20
-41.0014
 30
0.000000
  70
    32
  0
VERTEX
  8
┌▓È_1
  5
7F0
 10
990.249
 20
-40.9249
 30
0.000000
  70
    32
  0
VERTEX
  8
┌▓È_1
  5
7F1
 10
990.464
 20
-40.8447
 30
0.000000
  70
    32
  0
VERTEX
  8
┌▓È_1
  5
7F2
 10
990.674
 20
-40.7608
 30
0.000000
  70
    32
  0
VERTEX
  8
┌▓È_1
  5
7F3
 10
990.878
 20
-40.6732
 30
0.000000
  70
    32
  0
VERTEX
  8
┌▓È_1
  5
7F4
 10
991.077
 20
-40.5823
 30
0.000000
  70
    32
  0
VERTEX
  8
┌▓È_1
  5
7F5
 10
991.270
 20
-40.4879
 30
0.000000
  70
    32
  0
VERTEX
  8
┌▓È_1
  5
7F6
 10
991.457
 20
-40.3903
 30
0.000000
  70
    32
  0
VERTEX
  8
┌▓È_1
  5
7F7
 10
991.638
 20
-40.2894
 30
0.000000
  70
    32
  0
VERTEX
  8
┌▓È_1
  5
7F8
 10
991.812
 20
-40.1856
 30
0.000000
  70
    32
  0
VERTEX
  8
┌▓È_1
  5
7F9
 10
991.979
 20
-40.0787
 30
0.000000
  70
    32
  0
VERTEX
  8
┌▓È_1
  5
7FA
 10
992.140
 20
-39.9691
 30
0.000000
  70
    32
  0
VERTEX
  8
┌▓È_1
  5
7FB
 10
992.293
 20
-39.8567
 30
0.000000
  70
    32
  0
VERTEX
  8
┌▓È_1
  5
7FC
 10
992.440
 20
-39.7418
 30
0.000000
  70
    32
  0
VERTEX
  8
┌▓È_1
  5
7FD
 10
992.579
 20
-39.6244
 30
0.000000
  70
    32
  0
VERTEX
  8
┌▓È_1
  5
7FE
 10
992.710
 20
-39.5046
 30
0.000000
  70
    32
  0
VERTEX
  8
┌▓È_1
  5
7FF
 10
992.834
 20
-39.3827
 30
0.000000
  70
    32
  0
VERTEX
  8
┌▓È_1
  5
800
 10
992.950
 20
-39.2586
 30
0.000000
  70
    32
  0
VERTEX
  8
┌▓È_1
  5
801
 10
993.058
 20
-39.1327
 30
0.000000
  70
    32
  0
VERTEX
  8
┌▓È_1
  5
802
 10
993.159
 20
-39.0049
 30
0.000000
  70
    32
  0
VERTEX
  8
┌▓È_1
  5
803
 10
993.251
 20
-38.8755
 30
0.000000
  70
    32
  0
VERTEX
  8
┌▓È_1
  5
804
 10
993.334
 20
-38.7446
 30
0.000000
  70
    32
  0
VERTEX
  8
┌▓È_1
  5
805
 10
993.410
 20
-38.6122
 30
0.000000
  70
    32
  0
VERTEX
  8
┌▓È_1
  5
806
 10
993.477
 20
-38.4787
 30
0.000000
  70
    32
  0
VERTEX
  8
┌▓È_1
  5
807
 10
993.536
 20
-38.3441
 30
0.000000
  70
    32
  0
VERTEX
  8
┌▓È_1
  5
808
 10
993.586
 20
-38.2085
 30
0.000000
  70
    32
  0
VERTEX
  8
┌▓È_1
  5
809
 10
993.627
 20
-38.0722
 30
0.000000
  70
    32
  0
VERTEX
  8
┌▓È_1
  5
80A
 10
993.660
 20
-37.9352
 30
0.000000
  70
    32
  0
VERTEX
  8
┌▓È_1
  5
80B
 10
993.684
 20
-37.7977
 30
0.000000
  70
    32
  0
VERTEX
  8
┌▓È_1
  5
80C
 10
993.699
 20
-37.6599
 30
0.000000
  70
    32
  0
VERTEX
  8
┌▓È_1
  5
80D
 10
993.706
 20
-37.5219
 30
0.000000
  70
    32
  0
VERTEX
  8
┌▓È_1
  5
80E
 10
993.704
 20
-37.3838
 30
0.000000
  70
    32
  0
VERTEX
  8
┌▓È_1
  5
80F
 10
993.693
 20
-37.2459
 30
0.000000
  70
    32
  0
VERTEX
  8
┌▓È_1
  5
810
 10
993.674
 20
-37.1082
 30
0.000000
  70
    32
  0
VERTEX
  8
┌▓È_1
  5
811
 10
993.645
 20
-36.9709
 30
0.000000
  70
    32
  0
SEQEND
  8
┌▓È_1
  5
812
  0
LINE
  5
BF
  8
┌▓È_1
 62
     5
 10
992.28911295929993
 20
-31.1224160039
 30
0.0
 11
992.28911295929993
 21
-32.1224160039
 31
0.0
  0
ARC
  5
C0
  8
┌▓È_1
 62
     5
 10
974.78911295929981
 20
-31.1224160039
 30
0.0
 40
8.0
 50
187.18075578150001
 51
286.08228746129998
  0
LINE
  5
C1
  8
┌▓È_1
 62
     5
 10
1008.0681592336
 20
-49.917278240100003
 30
0.0
 11
1008.2114161588
 21
-50.3462421017
 31
0.0
  0
ARC
  5
C2
  8
┌▓È_1
 62
     5
 10
1007.3785212233
 20
-49.098730167299991
 30
0.0
 40
1.5
 50
356.68517119670003
 51
61.078184610900003
  0
ARC
  5
C3
  8
┌▓È_1
 62
     5
 10
1007.3785212233
 20
-49.098730167299991
 30
0.0
 40
1.5
 50
193.92180931009989
 51
317.7272696878
  0
LINE
  5
C4
  8
┌▓È_1
 62
     5
 10
1004.434198174
 20
-47.611462101699992
 30
0.0
 11
1004.951959071
 21
-49.700225072499997
 31
0.0
  0
ARC
  5
C5
  8
┌▓È_1
 62
     5
 10
1010.5796090683
 20
-52.702079799999993
 30
0.0
 40
2.5
 50
337.53652103860009
 51
65.623638956899995
  0
ARC
  5
C6
  8
┌▓È_1
 62
     5
 10
1007.2310092887
 20
-48.989011053500001
 30
0.0
 40
0.5
 50
65.623577263800001
 51
245.62363995290011
  0
LINE
  5
C7
  8
┌▓È_1
 62
     5
 10
1011.4166566585
 20
-52.304566411999993
 30
0.0
 11
1014.7921401206
 21
-55.403939154399993
 31
0.0
  0
ARC
  5
C8
  8
┌▓È_1
 62
     5
 10
1010.5796090683
 20
-52.702079799999993
 30
0.0
 40
2.5
 50
198.46726758310001
 51
314.20706352709999
  0
LINE
  5
C9
  8
┌▓È_1
 62
     5
 10
1010.7403180775
 20
-53.041157291600001
 30
0.0
 11
1014.1158015397
 21
-56.140530034099989
 31
0.0
  0
POLYLINE
  5
CA
  8
┌▓È_1
 62
     5
 10
994.2898093789272
 20
-35.92867355628357
 30
0.0
 66
     1
 70
     8
  0
VERTEX
  8
┌▓È_1
  5
813
 10
994.290
 20
-35.9287
 30
0.000000
  70
    32
  0
VERTEX
  8
┌▓È_1
  5
814
 10
994.255
 20
-35.8666
 30
0.000000
  70
    32
  0
VERTEX
  8
┌▓È_1
  5
815
 10
994.219
 20
-35.8048
 30
0.000000
  70
    32
  0
VERTEX
  8
┌▓È_1
  5
816
 10
994.181
 20
-35.7432
 30
0.000000
  70
    32
  0
VERTEX
  8
┌▓È_1
  5
817
 10
994.143
 20
-35.6820
 30
0.000000
  70
    32
  0
VERTEX
  8
┌▓È_1
  5
818
 10
994.103
 20
-35.6210
 30
0.000000
  70
    32
  0
VERTEX
  8
┌▓È_1
  5
819
 10
994.061
 20
-35.5603
 30
0.000000
  70
    32
  0
VERTEX
  8
┌▓È_1
  5
81A
 10
994.018
 20
-35.4999
 30
0.000000
  70
    32
  0
VERTEX
  8
┌▓È_1
  5
81B
 10
993.974
 20
-35.4398
 30
0.000000
  70
    32
  0
VERTEX
  8
┌▓È_1
  5
81C
 10
993.929
 20
-35.3801
 30
0.000000
  70
    32
  0
VERTEX
  8
┌▓È_1
  5
81D
 10
993.882
 20
-35.3207
 30
0.000000
  70
    32
  0
VERTEX
  8
┌▓È_1
  5
81E
 10
993.834
 20
-35.2616
 30
0.000000
  70
    32
  0
VERTEX
  8
┌▓È_1
  5
81F
 10
993.785
 20
-35.2029
 30
0.000000
  70
    32
  0
VERTEX
  8
┌▓È_1
  5
820
 10
993.734
 20
-35.1445
 30
0.000000
  70
    32
  0
VERTEX
  8
┌▓È_1
  5
821
 10
993.682
 20
-35.0865
 30
0.000000
  70
    32
  0
VERTEX
  8
┌▓È_1
  5
822
 10
993.629
 20
-35.0289
 30
0.000000
  70
    32
  0
VERTEX
  8
┌▓È_1
  5
823
 10
993.575
 20
-34.9717
 30
0.000000
  70
    32
  0
VERTEX
  8
┌▓È_1
  5
824
 10
993.519
 20
-34.9149
 30
0.000000
  70
    32
  0
VERTEX
  8
┌▓È_1
  5
825
 10
993.462
 20
-34.8585
 30
0.000000
  70
    32
  0
VERTEX
  8
┌▓È_1
  5
826
 10
993.404
 20
-34.8025
 30
0.000000
  70
    32
  0
VERTEX
  8
┌▓È_1
  5
827
 10
993.345
 20
-34.7469
 30
0.000000
  70
    32
  0
VERTEX
  8
┌▓È_1
  5
828
 10
993.284
 20
-34.6918
 30
0.000000
  70
    32
  0
VERTEX
  8
┌▓È_1
  5
829
 10
993.222
 20
-34.6371
 30
0.000000
  70
    32
  0
VERTEX
  8
┌▓È_1
  5
82A
 10
993.159
 20
-34.5829
 30
0.000000
  70
    32
  0
VERTEX
  8
┌▓È_1
  5
82B
 10
993.095
 20
-34.5291
 30
0.000000
  70
    32
  0
VERTEX
  8
┌▓È_1
  5
82C
 10
993.030
 20
-34.4758
 30
0.000000
  70
    32
  0
VERTEX
  8
┌▓È_1
  5
82D
 10
992.963
 20
-34.4230
 30
0.000000
  70
    32
  0
VERTEX
  8
┌▓È_1
  5
82E
 10
992.896
 20
-34.3706
 30
0.000000
  70
    32
  0
VERTEX
  8
┌▓È_1
  5
82F
 10
992.827
 20
-34.3188
 30
0.000000
  70
    32
  0
VERTEX
  8
┌▓È_1
  5
830
 10
992.757
 20
-34.2674
 30
0.000000
  70
    32
  0
VERTEX
  8
┌▓È_1
  5
831
 10
992.686
 20
-34.2166
 30
0.000000
  70
    32
  0
VERTEX
  8
┌▓È_1
  5
832
 10
992.614
 20
-34.1663
 30
0.000000
  70
    32
  0
VERTEX
  8
┌▓È_1
  5
833
 10
992.541
 20
-34.1165
 30
0.000000
  70
    32
  0
VERTEX
  8
┌▓È_1
  5
834
 10
992.467
 20
-34.0672
 30
0.000000
  70
    32
  0
VERTEX
  8
┌▓È_1
  5
835
 10
992.391
 20
-34.0185
 30
0.000000
  70
    32
  0
VERTEX
  8
┌▓È_1
  5
836
 10
992.315
 20
-33.9703
 30
0.000000
  70
    32
  0
VERTEX
  8
┌▓È_1
  5
837
 10
992.237
 20
-33.9227
 30
0.000000
  70
    32
  0
VERTEX
  8
┌▓È_1
  5
838
 10
992.159
 20
-33.8757
 30
0.000000
  70
    32
  0
VERTEX
  8
┌▓È_1
  5
839
 10
992.079
 20
-33.8292
 30
0.000000
  70
    32
  0
VERTEX
  8
┌▓È_1
  5
83A
 10
991.999
 20
-33.7833
 30
0.000000
  70
    32
  0
VERTEX
  8
┌▓È_1
  5
83B
 10
991.917
 20
-33.7380
 30
0.000000
  70
    32
  0
VERTEX
  8
┌▓È_1
  5
83C
 10
991.835
 20
-33.6933
 30
0.000000
  70
    32
  0
VERTEX
  8
┌▓È_1
  5
83D
 10
991.751
 20
-33.6492
 30
0.000000
  70
    32
  0
VERTEX
  8
┌▓È_1
  5
83E
 10
991.667
 20
-33.6057
 30
0.000000
  70
    32
  0
VERTEX
  8
┌▓È_1
  5
83F
 10
991.581
 20
-33.5628
 30
0.000000
  70
    32
  0
VERTEX
  8
┌▓È_1
  5
840
 10
991.495
 20
-33.5206
 30
0.000000
  70
    32
  0
VERTEX
  8
┌▓È_1
  5
841
 10
991.408
 20
-33.4789
 30
0.000000
  70
    32
  0
VERTEX
  8
┌▓È_1
  5
842
 10
991.320
 20
-33.4379
 30
0.000000
  70
    32
  0
VERTEX
  8
┌▓È_1
  5
843
 10
991.231
 20
-33.3976
 30
0.000000
  70
    32
  0
VERTEX
  8
┌▓È_1
  5
844
 10
991.141
 20
-33.3579
 30
0.000000
  70
    32
  0
VERTEX
  8
┌▓È_1
  5
845
 10
991.050
 20
-33.3188
 30
0.000000
  70
    32
  0
VERTEX
  8
┌▓È_1
  5
846
 10
990.958
 20
-33.2804
 30
0.000000
  70
    32
  0
VERTEX
  8
┌▓È_1
  5
847
 10
990.866
 20
-33.2427
 30
0.000000
  70
    32
  0
VERTEX
  8
┌▓È_1
  5
848
 10
990.773
 20
-33.2057
 30
0.000000
  70
    32
  0
VERTEX
  8
┌▓È_1
  5
849
 10
990.678
 20
-33.1693
 30
0.000000
  70
    32
  0
VERTEX
  8
┌▓È_1
  5
84A
 10
990.584
 20
-33.1336
 30
0.000000
  70
    32
  0
VERTEX
  8
┌▓È_1
  5
84B
 10
990.488
 20
-33.0986
 30
0.000000
  70
    32
  0
VERTEX
  8
┌▓È_1
  5
84C
 10
990.392
 20
-33.0643
 30
0.000000
  70
    32
  0
VERTEX
  8
┌▓È_1
  5
84D
 10
990.294
 20
-33.0307
 30
0.000000
  70
    32
  0
VERTEX
  8
┌▓È_1
  5
84E
 10
990.197
 20
-32.9978
 30
0.000000
  70
    32
  0
VERTEX
  8
┌▓È_1
  5
84F
 10
990.098
 20
-32.9656
 30
0.000000
  70
    32
  0
VERTEX
  8
┌▓È_1
  5
850
 10
989.999
 20
-32.9342
 30
0.000000
  70
    32
  0
VERTEX
  8
┌▓È_1
  5
851
 10
989.899
 20
-32.9034
 30
0.000000
  70
    32
  0
VERTEX
  8
┌▓È_1
  5
852
 10
989.798
 20
-32.8734
 30
0.000000
  70
    32
  0
VERTEX
  8
┌▓È_1
  5
853
 10
989.697
 20
-32.8441
 30
0.000000
  70
    32
  0
VERTEX
  8
┌▓È_1
  5
854
 10
989.595
 20
-32.8156
 30
0.000000
  70
    32
  0
VERTEX
  8
┌▓È_1
  5
855
 10
989.492
 20
-32.7878
 30
0.000000
  70
    32
  0
VERTEX
  8
┌▓È_1
  5
856
 10
989.389
 20
-32.7607
 30
0.000000
  70
    32
  0
VERTEX
  8
┌▓È_1
  5
857
 10
989.286
 20
-32.7344
 30
0.000000
  70
    32
  0
VERTEX
  8
┌▓È_1
  5
858
 10
989.181
 20
-32.7088
 30
0.000000
  70
    32
  0
VERTEX
  8
┌▓È_1
  5
859
 10
989.076
 20
-32.6840
 30
0.000000
  70
    32
  0
VERTEX
  8
┌▓È_1
  5
85A
 10
988.971
 20
-32.6600
 30
0.000000
  70
    32
  0
VERTEX
  8
┌▓È_1
  5
85B
 10
988.865
 20
-32.6367
 30
0.000000
  70
    32
  0
VERTEX
  8
┌▓È_1
  5
85C
 10
988.759
 20
-32.6142
 30
0.000000
  70
    32
  0
VERTEX
  8
┌▓È_1
  5
85D
 10
988.652
 20
-32.5925
 30
0.000000
  70
    32
  0
VERTEX
  8
┌▓È_1
  5
85E
 10
988.545
 20
-32.5715
 30
0.000000
  70
    32
  0
VERTEX
  8
┌▓È_1
  5
85F
 10
988.437
 20
-32.5513
 30
0.000000
  70
    32
  0
VERTEX
  8
┌▓È_1
  5
860
 10
988.329
 20
-32.5320
 30
0.000000
  70
    32
  0
VERTEX
  8
┌▓È_1
  5
861
 10
988.220
 20
-32.5133
 30
0.000000
  70
    32
  0
VERTEX
  8
┌▓È_1
  5
862
 10
988.111
 20
-32.4955
 30
0.000000
  70
    32
  0
VERTEX
  8
┌▓È_1
  5
863
 10
988.002
 20
-32.4785
 30
0.000000
  70
    32
  0
VERTEX
  8
┌▓È_1
  5
864
 10
987.892
 20
-32.4623
 30
0.000000
  70
    32
  0
VERTEX
  8
┌▓È_1
  5
865
 10
987.782
 20
-32.4468
 30
0.000000
  70
    32
  0
VERTEX
  8
┌▓È_1
  5
866
 10
987.671
 20
-32.4322
 30
0.000000
  70
    32
  0
VERTEX
  8
┌▓È_1
  5
867
 10
987.560
 20
-32.4183
 30
0.000000
  70
    32
  0
VERTEX
  8
┌▓È_1
  5
868
 10
987.449
 20
-32.4053
 30
0.000000
  70
    32
  0
VERTEX
  8
┌▓È_1
  5
869
 10
987.338
 20
-32.3931
 30
0.000000
  70
    32
  0
VERTEX
  8
┌▓È_1
  5
86A
 10
987.226
 20
-32.3817
 30
0.000000
  70
    32
  0
VERTEX
  8
┌▓È_1
  5
86B
 10
987.115
 20
-32.3711
 30
0.000000
  70
    32
  0
VERTEX
  8
┌▓È_1
  5
86C
 10
987.002
 20
-32.3613
 30
0.000000
  70
    32
  0
VERTEX
  8
┌▓È_1
  5
86D
 10
986.890
 20
-32.3523
 30
0.000000
  70
    32
  0
VERTEX
  8
┌▓È_1
  5
86E
 10
986.778
 20
-32.3441
 30
0.000000
  70
    32
  0
VERTEX
  8
┌▓È_1
  5
86F
 10
986.665
 20
-32.3367
 30
0.000000
  70
    32
  0
VERTEX
  8
┌▓È_1
  5
870
 10
986.552
 20
-32.3302
 30
0.000000
  70
    32
  0
VERTEX
  8
┌▓È_1
  5
871
 10
986.439
 20
-32.3245
 30
0.000000
  70
    32
  0
VERTEX
  8
┌▓È_1
  5
872
 10
986.326
 20
-32.3196
 30
0.000000
  70
    32
  0
VERTEX
  8
┌▓È_1
  5
873
 10
986.213
 20
-32.3155
 30
0.000000
  70
    32
  0
VERTEX
  8
┌▓È_1
  5
874
 10
986.100
 20
-32.3122
 30
0.000000
  70
    32
  0
VERTEX
  8
┌▓È_1
  5
875
 10
985.987
 20
-32.3098
 30
0.000000
  70
    32
  0
VERTEX
  8
┌▓È_1
  5
876
 10
985.874
 20
-32.3082
 30
0.000000
  70
    32
  0
VERTEX
  8
┌▓È_1
  5
877
 10
985.760
 20
-32.3074
 30
0.000000
  70
    32
  0
VERTEX
  8
┌▓È_1
  5
878
 10
985.647
 20
-32.3074
 30
0.000000
  70
    32
  0
VERTEX
  8
┌▓È_1
  5
879
 10
985.534
 20
-32.3082
 30
0.000000
  70
    32
  0
VERTEX
  8
┌▓È_1
  5
87A
 10
985.420
 20
-32.3099
 30
0.000000
  70
    32
  0
VERTEX
  8
┌▓È_1
  5
87B
 10
985.307
 20
-32.3124
 30
0.000000
  70
    32
  0
VERTEX
  8
┌▓È_1
  5
87C
 10
985.194
 20
-32.3157
 30
0.000000
  70
    32
  0
VERTEX
  8
┌▓È_1
  5
87D
 10
985.081
 20
-32.3198
 30
0.000000
  70
    32
  0
VERTEX
  8
┌▓È_1
  5
87E
 10
984.968
 20
-32.3247
 30
0.000000
  70
    32
  0
VERTEX
  8
┌▓È_1
  5
87F
 10
984.855
 20
-32.3305
 30
0.000000
  70
    32
  0
VERTEX
  8
┌▓È_1
  5
880
 10
984.742
 20
-32.3371
 30
0.000000
  70
    32
  0
VERTEX
  8
┌▓È_1
  5
881
 10
984.629
 20
-32.3445
 30
0.000000
  70
    32
  0
VERTEX
  8
┌▓È_1
  5
882
 10
984.517
 20
-32.3527
 30
0.000000
  70
    32
  0
VERTEX
  8
┌▓È_1
  5
883
 10
984.405
 20
-32.3617
 30
0.000000
  70
    32
  0
VERTEX
  8
┌▓È_1
  5
884
 10
984.293
 20
-32.3715
 30
0.000000
  70
    32
  0
VERTEX
  8
┌▓È_1
  5
885
 10
984.181
 20
-32.3822
 30
0.000000
  70
    32
  0
VERTEX
  8
┌▓È_1
  5
886
 10
984.069
 20
-32.3937
 30
0.000000
  70
    32
  0
VERTEX
  8
┌▓È_1
  5
887
 10
983.958
 20
-32.4059
 30
0.000000
  70
    32
  0
VERTEX
  8
┌▓È_1
  5
888
 10
983.847
 20
-32.4190
 30
0.000000
  70
    32
  0
VERTEX
  8
┌▓È_1
  5
889
 10
983.736
 20
-32.4329
 30
0.000000
  70
    32
  0
VERTEX
  8
┌▓È_1
  5
88A
 10
983.626
 20
-32.4475
 30
0.000000
  70
    32
  0
VERTEX
  8
┌▓È_1
  5
88B
 10
983.515
 20
-32.4630
 30
0.000000
  70
    32
  0
VERTEX
  8
┌▓È_1
  5
88C
 10
983.406
 20
-32.4793
 30
0.000000
  70
    32
  0
VERTEX
  8
┌▓È_1
  5
88D
 10
983.296
 20
-32.4964
 30
0.000000
  70
    32
  0
VERTEX
  8
┌▓È_1
  5
88E
 10
983.187
 20
-32.5142
 30
0.000000
  70
    32
  0
VERTEX
  8
┌▓È_1
  5
88F
 10
983.079
 20
-32.5329
 30
0.000000
  70
    32
  0
VERTEX
  8
┌▓È_1
  5
890
 10
982.971
 20
-32.5523
 30
0.000000
  70
    32
  0
VERTEX
  8
┌▓È_1
  5
891
 10
982.863
 20
-32.5725
 30
0.000000
  70
    32
  0
VERTEX
  8
┌▓È_1
  5
892
 10
982.755
 20
-32.5935
 30
0.000000
  70
    32
  0
VERTEX
  8
┌▓È_1
  5
893
 10
982.649
 20
-32.6153
 30
0.000000
  70
    32
  0
SEQEND
  8
┌▓È_1
  5
894
  0
POLYLINE
  5
CB
  8
┌▓È_1
 62
     5
 10
981.56259591777916
 20
-32.888747968972034
 30
0.0
 66
     1
 70
     8
  0
VERTEX
  8
┌▓È_1
  5
895
 10
981.563
 20
-32.8887
 30
0.000000
  70
    32
  0
VERTEX
  8
┌▓È_1
  5
896
 10
981.294
 20
-32.9723
 30
0.000000
  70
    32
  0
VERTEX
  8
┌▓È_1
  5
897
 10
981.030
 20
-33.0611
 30
0.000000
  70
    32
  0
VERTEX
  8
┌▓È_1
  5
898
 10
980.772
 20
-33.1550
 30
0.000000
  70
    32
  0
VERTEX
  8
┌▓È_1
  5
899
 10
980.519
 20
-33.2539
 30
0.000000
  70
    32
  0
VERTEX
  8
┌▓È_1
  5
89A
 10
980.272
 20
-33.3576
 30
0.000000
  70
    32
  0
VERTEX
  8
┌▓È_1
  5
89B
 10
980.032
 20
-33.4661
 30
0.000000
  70
    32
  0
VERTEX
  8
┌▓È_1
  5
89C
 10
979.798
 20
-33.5792
 30
0.000000
  70
    32
  0
VERTEX
  8
┌▓È_1
  5
89D
 10
979.571
 20
-33.6969
 30
0.000000
  70
    32
  0
VERTEX
  8
┌▓È_1
  5
89E
 10
979.351
 20
-33.8189
 30
0.000000
  70
    32
  0
VERTEX
  8
┌▓È_1
  5
89F
 10
979.138
 20
-33.9451
 30
0.000000
  70
    32
  0
VERTEX
  8
┌▓È_1
  5
8A0
 10
978.933
 20
-34.0754
 30
0.000000
  70
    32
  0
VERTEX
  8
┌▓È_1
  5
8A1
 10
978.736
 20
-34.2097
 30
0.000000
  70
    32
  0
VERTEX
  8
┌▓È_1
  5
8A2
 10
978.547
 20
-34.3477
 30
0.000000
  70
    32
  0
VERTEX
  8
┌▓È_1
  5
8A3
 10
978.366
 20
-34.4893
 30
0.000000
  70
    32
  0
VERTEX
  8
┌▓È_1
  5
8A4
 10
978.193
 20
-34.6344
 30
0.000000
  70
    32
  0
VERTEX
  8
┌▓È_1
  5
8A5
 10
978.029
 20
-34.7828
 30
0.000000
  70
    32
  0
VERTEX
  8
┌▓È_1
  5
8A6
 10
977.874
 20
-34.9343
 30
0.000000
  70
    32
  0
VERTEX
  8
┌▓È_1
  5
8A7
 10
977.728
 20
-35.0887
 30
0.000000
  70
    32
  0
VERTEX
  8
┌▓È_1
  5
8A8
 10
977.592
 20
-35.2459
 30
0.000000
  70
    32
  0
VERTEX
  8
┌▓È_1
  5
8A9
 10
977.464
 20
-35.4057
 30
0.000000
  70
    32
  0
VERTEX
  8
┌▓È_1
  5
8AA
 10
977.346
 20
-35.5678
 30
0.000000
  70
    32
  0
VERTEX
  8
┌▓È_1
  5
8AB
 10
977.238
 20
-35.7322
 30
0.000000
  70
    32
  0
VERTEX
  8
┌▓È_1
  5
8AC
 10
977.139
 20
-35.8986
 30
0.000000
  70
    32
  0
VERTEX
  8
┌▓È_1
  5
8AD
 10
977.051
 20
-36.0669
 30
0.000000
  70
    32
  0
VERTEX
  8
┌▓È_1
  5
8AE
 10
976.972
 20
-36.2367
 30
0.000000
  70
    32
  0
VERTEX
  8
┌▓È_1
  5
8AF
 10
976.903
 20
-36.4080
 30
0.000000
  70
    32
  0
VERTEX
  8
┌▓È_1
  5
8B0
 10
976.845
 20
-36.5806
 30
0.000000
  70
    32
  0
VERTEX
  8
┌▓È_1
  5
8B1
 10
976.796
 20
-36.7542
 30
0.000000
  70
    32
  0
VERTEX
  8
┌▓È_1
  5
8B2
 10
976.758
 20
-36.9286
 30
0.000000
  70
    32
  0
VERTEX
  8
┌▓È_1
  5
8B3
 10
976.731
 20
-37.1037
 30
0.000000
  70
    32
  0
VERTEX
  8
┌▓È_1
  5
8B4
 10
976.713
 20
-37.2792
 30
0.000000
  70
    32
  0
VERTEX
  8
┌▓È_1
  5
8B5
 10
976.706
 20
-37.4550
 30
0.000000
  70
    32
  0
VERTEX
  8
┌▓È_1
  5
8B6
 10
976.710
 20
-37.6307
 30
0.000000
  70
    32
  0
VERTEX
  8
┌▓È_1
  5
8B7
 10
976.724
 20
-37.8064
 30
0.000000
  70
    32
  0
VERTEX
  8
┌▓È_1
  5
8B8
 10
976.748
 20
-37.9816
 30
0.000000
  70
    32
  0
VERTEX
  8
┌▓È_1
  5
8B9
 10
976.782
 20
-38.1563
 30
0.000000
  70
    32
  0
VERTEX
  8
┌▓È_1
  5
8BA
 10
976.827
 20
-38.3302
 30
0.000000
  70
    32
  0
VERTEX
  8
┌▓È_1
  5
8BB
 10
976.882
 20
-38.5031
 30
0.000000
  70
    32
  0
VERTEX
  8
┌▓È_1
  5
8BC
 10
976.947
 20
-38.6749
 30
0.000000
  70
    32
  0
VERTEX
  8
┌▓È_1
  5
8BD
 10
977.022
 20
-38.8453
 30
0.000000
  70
    32
  0
VERTEX
  8
┌▓È_1
  5
8BE
 10
977.107
 20
-39.0141
 30
0.000000
  70
    32
  0
VERTEX
  8
┌▓È_1
  5
8BF
 10
977.202
 20
-39.1812
 30
0.000000
  70
    32
  0
VERTEX
  8
┌▓È_1
  5
8C0
 10
977.307
 20
-39.3463
 30
0.000000
  70
    32
  0
VERTEX
  8
┌▓È_1
  5
8C1
 10
977.422
 20
-39.5093
 30
0.000000
  70
    32
  0
VERTEX
  8
┌▓È_1
  5
8C2
 10
977.546
 20
-39.6699
 30
0.000000
  70
    32
  0
VERTEX
  8
┌▓È_1
  5
8C3
 10
977.680
 20
-39.8280
 30
0.000000
  70
    32
  0
VERTEX
  8
┌▓È_1
  5
8C4
 10
977.822
 20
-39.9834
 30
0.000000
  70
    32
  0
VERTEX
  8
┌▓È_1
  5
8C5
 10
977.974
 20
-40.1360
 30
0.000000
  70
    32
  0
VERTEX
  8
┌▓È_1
  5
8C6
 10
978.135
 20
-40.2854
 30
0.000000
  70
    32
  0
VERTEX
  8
┌▓È_1
  5
8C7
 10
978.305
 20
-40.4317
 30
0.000000
  70
    32
  0
VERTEX
  8
┌▓È_1
  5
8C8
 10
978.483
 20
-40.5746
 30
0.000000
  70
    32
  0
VERTEX
  8
┌▓È_1
  5
8C9
 10
978.669
 20
-40.7138
 30
0.000000
  70
    32
  0
VERTEX
  8
┌▓È_1
  5
8CA
 10
978.864
 20
-40.8494
 30
0.000000
  70
    32
  0
VERTEX
  8
┌▓È_1
  5
8CB
 10
979.066
 20
-40.9811
 30
0.000000
  70
    32
  0
VERTEX
  8
┌▓È_1
  5
8CC
 10
979.276
 20
-41.1088
 30
0.000000
  70
    32
  0
VERTEX
  8
┌▓È_1
  5
8CD
 10
979.494
 20
-41.2323
 30
0.000000
  70
    32
  0
VERTEX
  8
┌▓È_1
  5
8CE
 10
979.718
 20
-41.3515
 30
0.000000
  70
    32
  0
VERTEX
  8
┌▓È_1
  5
8CF
 10
979.950
 20
-41.4662
 30
0.000000
  70
    32
  0
VERTEX
  8
┌▓È_1
  5
8D0
 10
980.188
 20
-41.5763
 30
0.000000
  70
    32
  0
VERTEX
  8
┌▓È_1
  5
8D1
 10
980.432
 20
-41.6818
 30
0.000000
  70
    32
  0
VERTEX
  8
┌▓È_1
  5
8D2
 10
980.683
 20
-41.7823
 30
0.000000
  70
    32
  0
VERTEX
  8
┌▓È_1
  5
8D3
 10
980.939
 20
-41.8780
 30
0.000000
  70
    32
  0
VERTEX
  8
┌▓È_1
  5
8D4
 10
981.201
 20
-41.9685
 30
0.000000
  70
    32
  0
VERTEX
  8
┌▓È_1
  5
8D5
 10
981.468
 20
-42.0539
 30
0.000000
  70
    32
  0
VERTEX
  8
┌▓È_1
  5
8D6
 10
981.740
 20
-42.1341
 30
0.000000
  70
    32
  0
VERTEX
  8
┌▓È_1
  5
8D7
 10
982.017
 20
-42.2089
 30
0.000000
  70
    32
  0
VERTEX
  8
┌▓È_1
  5
8D8
 10
982.298
 20
-42.2782
 30
0.000000
  70
    32
  0
VERTEX
  8
┌▓È_1
  5
8D9
 10
982.582
 20
-42.3420
 30
0.000000
  70
    32
  0
VERTEX
  8
┌▓È_1
  5
8DA
 10
982.871
 20
-42.4002
 30
0.000000
  70
    32
  0
VERTEX
  8
┌▓È_1
  5
8DB
 10
983.162
 20
-42.4528
 30
0.000000
  70
    32
  0
VERTEX
  8
┌▓È_1
  5
8DC
 10
983.457
 20
-42.4996
 30
0.000000
  70
    32
  0
VERTEX
  8
┌▓È_1
  5
8DD
 10
983.754
 20
-42.5406
 30
0.000000
  70
    32
  0
VERTEX
  8
┌▓È_1
  5
8DE
 10
984.053
 20
-42.5759
 30
0.000000
  70
    32
  0
VERTEX
  8
┌▓È_1
  5
8DF
 10
984.354
 20
-42.6052
 30
0.000000
  70
    32
  0
VERTEX
  8
┌▓È_1
  5
8E0
 10
984.657
 20
-42.6287
 30
0.000000
  70
    32
  0
VERTEX
  8
┌▓È_1
  5
8E1
 10
984.961
 20
-42.6462
 30
0.000000
  70
    32
  0
VERTEX
  8
┌▓È_1
  5
8E2
 10
985.266
 20
-42.6578
 30
0.000000
  70
    32
  0
VERTEX
  8
┌▓È_1
  5
8E3
 10
985.571
 20
-42.6634
 30
0.000000
  70
    32
  0
VERTEX
  8
┌▓È_1
  5
8E4
 10
985.877
 20
-42.6630
 30
0.000000
  70
    32
  0
VERTEX
  8
┌▓È_1
  5
8E5
 10
986.182
 20
-42.6567
 30
0.000000
  70
    32
  0
VERTEX
  8
┌▓È_1
  5
8E6
 10
986.487
 20
-42.6444
 30
0.000000
  70
    32
  0
VERTEX
  8
┌▓È_1
  5
8E7
 10
986.791
 20
-42.6262
 30
0.000000
  70
    32
  0
VERTEX
  8
┌▓È_1
  5
8E8
 10
987.094
 20
-42.6021
 30
0.000000
  70
    32
  0
VERTEX
  8
┌▓È_1
  5
8E9
 10
987.395
 20
-42.5720
 30
0.000000
  70
    32
  0
VERTEX
  8
┌▓È_1
  5
8EA
 10
987.694
 20
-42.5361
 30
0.000000
  70
    32
  0
VERTEX
  8
┌▓È_1
  5
8EB
 10
987.991
 20
-42.4944
 30
0.000000
  70
    32
  0
VERTEX
  8
┌▓È_1
  5
8EC
 10
988.285
 20
-42.4469
 30
0.000000
  70
    32
  0
VERTEX
  8
┌▓È_1
  5
8ED
 10
988.576
 20
-42.3937
 30
0.000000
  70
    32
  0
VERTEX
  8
┌▓È_1
  5
8EE
 10
988.864
 20
-42.3348
 30
0.000000
  70
    32
  0
VERTEX
  8
┌▓È_1
  5
8EF
 10
989.148
 20
-42.2703
 30
0.000000
  70
    32
  0
VERTEX
  8
┌▓È_1
  5
8F0
 10
989.428
 20
-42.2004
 30
0.000000
  70
    32
  0
VERTEX
  8
┌▓È_1
  5
8F1
 10
989.704
 20
-42.1249
 30
0.000000
  70
    32
  0
VERTEX
  8
┌▓È_1
  5
8F2
 10
989.976
 20
-42.0442
 30
0.000000
  70
    32
  0
VERTEX
  8
┌▓È_1
  5
8F3
 10
990.242
 20
-41.9582
 30
0.000000
  70
    32
  0
VERTEX
  8
┌▓È_1
  5
8F4
 10
990.504
 20
-41.8670
 30
0.000000
  70
    32
  0
VERTEX
  8
┌▓È_1
  5
8F5
 10
990.759
 20
-41.7708
 30
0.000000
  70
    32
  0
VERTEX
  8
┌▓È_1
  5
8F6
 10
991.009
 20
-41.6696
 30
0.000000
  70
    32
  0
VERTEX
  8
┌▓È_1
  5
8F7
 10
991.253
 20
-41.5636
 30
0.000000
  70
    32
  0
VERTEX
  8
┌▓È_1
  5
8F8
 10
991.490
 20
-41.4530
 30
0.000000
  70
    32
  0
VERTEX
  8
┌▓È_1
  5
8F9
 10
991.721
 20
-41.3377
 30
0.000000
  70
    32
  0
VERTEX
  8
┌▓È_1
  5
8FA
 10
991.945
 20
-41.2180
 30
0.000000
  70
    32
  0
VERTEX
  8
┌▓È_1
  5
8FB
 10
992.161
 20
-41.0940
 30
0.000000
  70
    32
  0
VERTEX
  8
┌▓È_1
  5
8FC
 10
992.371
 20
-40.9659
 30
0.000000
  70
    32
  0
VERTEX
  8
┌▓È_1
  5
8FD
 10
992.572
 20
-40.8337
 30
0.000000
  70
    32
  0
VERTEX
  8
┌▓È_1
  5
8FE
 10
992.766
 20
-40.6977
 30
0.000000
  70
    32
  0
VERTEX
  8
┌▓È_1
  5
8FF
 10
992.951
 20
-40.5580
 30
0.000000
  70
    32
  0
VERTEX
  8
┌▓È_1
  5
900
 10
993.128
 20
-40.4147
 30
0.000000
  70
    32
  0
VERTEX
  8
┌▓È_1
  5
901
 10
993.297
 20
-40.2681
 30
0.000000
  70
    32
  0
VERTEX
  8
┌▓È_1
  5
902
 10
993.456
 20
-40.1182
 30
0.000000
  70
    32
  0
VERTEX
  8
┌▓È_1
  5
903
 10
993.607
 20
-39.9653
 30
0.000000
  70
    32
  0
VERTEX
  8
┌▓È_1
  5
904
 10
993.749
 20
-39.8096
 30
0.000000
  70
    32
  0
VERTEX
  8
┌▓È_1
  5
905
 10
993.881
 20
-39.6512
 30
0.000000
  70
    32
  0
VERTEX
  8
┌▓È_1
  5
906
 10
994.005
 20
-39.4902
 30
0.000000
  70
    32
  0
VERTEX
  8
┌▓È_1
  5
907
 10
994.118
 20
-39.3270
 30
0.000000
  70
    32
  0
VERTEX
  8
┌▓È_1
  5
908
 10
994.222
 20
-39.1617
 30
0.000000
  70
    32
  0
VERTEX
  8
┌▓È_1
  5
909
 10
994.316
 20
-38.9944
 30
0.000000
  70
    32
  0
VERTEX
  8
┌▓È_1
  5
90A
 10
994.400
 20
-38.8254
 30
0.000000
  70
    32
  0
VERTEX
  8
┌▓È_1
  5
90B
 10
994.474
 20
-38.6548
 30
0.000000
  70
    32
  0
VERTEX
  8
┌▓È_1
  5
90C
 10
994.538
 20
-38.4829
 30
0.000000
  70
    32
  0
VERTEX
  8
┌▓È_1
  5
90D
 10
994.592
 20
-38.3098
 30
0.000000
  70
    32
  0
VERTEX
  8
┌▓È_1
  5
90E
 10
994.635
 20
-38.1358
 30
0.000000
  70
    32
  0
VERTEX
  8
┌▓È_1
  5
90F
 10
994.668
 20
-37.9611
 30
0.000000
  70
    32
  0
VERTEX
  8
┌▓È_1
  5
910
 10
994.691
 20
-37.7858
 30
0.000000
  70
    32
  0
VERTEX
  8
┌▓È_1
  5
911
 10
994.704
 20
-37.6101
 30
0.000000
  70
    32
  0
VERTEX
  8
┌▓È_1
  5
912
 10
994.706
 20
-37.4343
 30
0.000000
  70
    32
  0
VERTEX
  8
┌▓È_1
  5
913
 10
994.698
 20
-37.2586
 30
0.000000
  70
    32
  0
VERTEX
  8
┌▓È_1
  5
914
 10
994.679
 20
-37.0831
 30
0.000000
  70
    32
  0
VERTEX
  8
┌▓È_1
  5
915
 10
994.650
 20
-36.9081
 30
0.000000
  70
    32
  0
SEQEND
  8
┌▓È_1
  5
916
  0
ARC
  5
CC
  8
┌▓È_1
 62
     5
 10
1004.3347140783
 20
-45.1319634659
 30
0.0
 40
0.5
 50
61.078122718300001
 51
241.0781854075
  0
LINE
  5
CD
  8
┌▓È_1
 62
     5
 10
996.41605294169983
 20
-67.615395443500006
 30
0.0
 11
994.15028975369989
 21
-67.473712034100004
 31
0.0
  0
LINE
  5
CE
  8
┌▓È_1
 62
     5
 10
1002.2762276611001
 20
-66.4675171632
 30
0.0
 11
1002.2681316518
 21
-66.467718110699991
 31
0.0
  0
LINE
  5
CF
  8
┌▓È_1
 62
     5
 10
1001.7455154564
 20
-43.450141397499991
 30
0.0
 11
1002.5335453029001
 21
-45.6627415265
 31
0.0
  0
ARC
  5
D0
  8
┌▓È_1
 62
     5
 10
1000.2313485901
 20
-41.460845365899999
 30
0.0
 40
1.5
 50
358.9886201228
 51
69.032730065500004
  0
ARC
  5
D1
  8
┌▓È_1
 62
     5
 10
974.78911295929981
 20
-31.1224160039
 30
0.0
 40
7.0
 50
180.0
 51
286.08331298780001
  0
LINE
  5
D2
  8
┌▓È_1
 62
     5
 10
1012.8699680495999
 20
-57.348334696000002
 30
0.0
 11
1012.6895993296999
 21
-58.687812891100002
 31
0.0
  0
LINE
  5
D3
  8
┌▓È_1
 62
     5
 10
1000.3277287489
 20
-41.972974601099992
 30
0.0
 11
1004.5384745679
 21
-43.781183562299987
 31
0.0
  0
LINE
  5
D4
  8
┌▓È_1
 62
     5
 10
1000.7223122935
 20
-41.054114532100002
 30
0.0
 11
1004.9330581125
 21
-42.862323493299989
 31
0.0
  0
ARC
  5
D5
  8
┌▓È_1
 62
     5
 10
1003.946599251
 20
-45.159473665699991
 30
0.0
 40
1.5
 50
199.6036274919
 51
319.99999696050003
  0
ARC
  5
D6
  8
┌▓È_1
 62
     5
 10
1003.946599251
 20
-45.159473665699991
 30
0.0
 40
2.5
 50
347.61975512230009
 51
66.759996542999986
  0
LINE
  5
D7
  8
┌▓È_1
 62
     5
 10
1003.849401619
 20
-45.252262330699992
 30
0.0
 11
1004.1931625013
 21
-46.639070422799989
 31
0.0
  0
LINE
  5
D8
  8
┌▓È_1
 62
     5
 10
996.84679507600003
 20
-37.486578451100002
 30
0.0
 11
1001.1259353042
 21
-39.126382984400003
 31
0.0
  0
ARC
  5
D9
  8
┌▓È_1
 62
     5
 10
1003.946599251
 20
-45.159473665699991
 30
0.0
 40
2.5
 50
199.60365097499999
 51
324.45788619780001
  0
LINE
  5
DA
  8
┌▓È_1
 62
     5
 10
992.28911295929993
 20
-32.1224160039
 30
0.0
 11
982.72636689249987
 21
-32.1224160039
 31
0.0
  0
ARC
  5
DB
  8
┌▓È_1
 62
     5
 10
1013.1012936684
 20
-57.245416353499998
 30
0.0
 40
2.5
 50
323.27996930440003
 51
47.441814724799997
  0
ARC
  5
DC
  8
┌▓È_1
 62
     5
 10
974.78911295929981
 20
-31.1224160039
 30
0.0
 40
7.0
 50
294.62845823840001
 51
360.0
  0
LINE
  5
DD
  8
┌▓È_1
 62
     5
 10
996.48896039040005
 20
-38.420363403700001
 30
0.0
 11
1000.7681006186
 21
-40.060167936999989
 31
0.0
  0
POLYLINE
  5
DE
  8
┌▓È_1
 62
     5
 10
993.1819967428097
 20
-35.997947641145601
 30
0.0
 66
     1
 70
     8
  0
VERTEX
  8
┌▓È_1
  5
917
 10
993.182
 20
-35.9979
 30
0.000000
  70
    32
  0
VERTEX
  8
┌▓È_1
  5
918
 10
993.145
 20
-35.9481
 30
0.000000
  70
    32
  0
VERTEX
  8
┌▓È_1
  5
919
 10
993.107
 20
-35.8985
 30
0.000000
  70
    32
  0
VERTEX
  8
┌▓È_1
  5
91A
 10
993.067
 20
-35.8492
 30
0.000000
  70
    32
  0
VERTEX
  8
┌▓È_1
  5
91B
 10
993.027
 20
-35.8002
 30
0.000000
  70
    32
  0
VERTEX
  8
┌▓È_1
  5
91C
 10
992.985
 20
-35.7514
 30
0.000000
  70
    32
  0
VERTEX
  8
┌▓È_1
  5
91D
 10
992.942
 20
-35.7029
 30
0.000000
  70
    32
  0
VERTEX
  8
┌▓È_1
  5
91E
 10
992.897
 20
-35.6547
 30
0.000000
  70
    32
  0
VERTEX
  8
┌▓È_1
  5
91F
 10
992.852
 20
-35.6068
 30
0.000000
  70
    32
  0
VERTEX
  8
┌▓È_1
  5
920
 10
992.805
 20
-35.5592
 30
0.000000
  70
    32
  0
VERTEX
  8
┌▓È_1
  5
921
 10
992.758
 20
-35.5120
 30
0.000000
  70
    32
  0
VERTEX
  8
┌▓È_1
  5
922
 10
992.709
 20
-35.4650
 30
0.000000
  70
    32
  0
VERTEX
  8
┌▓È_1
  5
923
 10
992.659
 20
-35.4184
 30
0.000000
  70
    32
  0
VERTEX
  8
┌▓È_1
  5
924
 10
992.607
 20
-35.3721
 30
0.000000
  70
    32
  0
VERTEX
  8
┌▓È_1
  5
925
 10
992.555
 20
-35.3262
 30
0.000000
  70
    32
  0
VERTEX
  8
┌▓È_1
  5
926
 10
992.502
 20
-35.2806
 30
0.000000
  70
    32
  0
VERTEX
  8
┌▓È_1
  5
927
 10
992.447
 20
-35.2354
 30
0.000000
  70
    32
  0
VERTEX
  8
┌▓È_1
  5
928
 10
992.391
 20
-35.1905
 30
0.000000
  70
    32
  0
VERTEX
  8
┌▓È_1
  5
929
 10
992.335
 20
-35.1461
 30
0.000000
  70
    32
  0
VERTEX
  8
┌▓È_1
  5
92A
 10
992.277
 20
-35.1020
 30
0.000000
  70
    32
  0
VERTEX
  8
┌▓È_1
  5
92B
 10
992.218
 20
-35.0583
 30
0.000000
  70
    32
  0
VERTEX
  8
┌▓È_1
  5
92C
 10
992.158
 20
-35.0149
 30
0.000000
  70
    32
  0
VERTEX
  8
┌▓È_1
  5
92D
 10
992.097
 20
-34.9720
 30
0.000000
  70
    32
  0
VERTEX
  8
┌▓È_1
  5
92E
 10
992.035
 20
-34.9295
 30
0.000000
  70
    32
  0
VERTEX
  8
┌▓È_1
  5
92F
 10
991.972
 20
-34.8875
 30
0.000000
  70
    32
  0
VERTEX
  8
┌▓È_1
  5
930
 10
991.907
 20
-34.8458
 30
0.000000
  70
    32
  0
VERTEX
  8
┌▓È_1
  5
931
 10
991.842
 20
-34.8046
 30
0.000000
  70
    32
  0
VERTEX
  8
┌▓È_1
  5
932
 10
991.776
 20
-34.7638
 30
0.000000
  70
    32
  0
VERTEX
  8
┌▓È_1
  5
933
 10
991.709
 20
-34.7235
 30
0.000000
  70
    32
  0
VERTEX
  8
┌▓È_1
  5
934
 10
991.641
 20
-34.6836
 30
0.000000
  70
    32
  0
VERTEX
  8
┌▓È_1
  5
935
 10
991.572
 20
-34.6442
 30
0.000000
  70
    32
  0
VERTEX
  8
┌▓È_1
  5
936
 10
991.502
 20
-34.6052
 30
0.000000
  70
    32
  0
VERTEX
  8
┌▓È_1
  5
937
 10
991.431
 20
-34.5668
 30
0.000000
  70
    32
  0
VERTEX
  8
┌▓È_1
  5
938
 10
991.359
 20
-34.5288
 30
0.000000
  70
    32
  0
VERTEX
  8
┌▓È_1
  5
939
 10
991.286
 20
-34.4912
 30
0.000000
  70
    32
  0
VERTEX
  8
┌▓È_1
  5
93A
 10
991.212
 20
-34.4542
 30
0.000000
  70
    32
  0
VERTEX
  8
┌▓È_1
  5
93B
 10
991.137
 20
-34.4177
 30
0.000000
  70
    32
  0
VERTEX
  8
┌▓È_1
  5
93C
 10
991.062
 20
-34.3816
 30
0.000000
  70
    32
  0
VERTEX
  8
┌▓È_1
  5
93D
 10
990.985
 20
-34.3461
 30
0.000000
  70
    32
  0
VERTEX
  8
┌▓È_1
  5
93E
 10
990.908
 20
-34.3111
 30
0.000000
  70
    32
  0
VERTEX
  8
┌▓È_1
  5
93F
 10
990.830
 20
-34.2766
 30
0.000000
  70
    32
  0
VERTEX
  8
┌▓È_1
  5
940
 10
990.751
 20
-34.2426
 30
0.000000
  70
    32
  0
VERTEX
  8
┌▓È_1
  5
941
 10
990.671
 20
-34.2092
 30
0.000000
  70
    32
  0
VERTEX
  8
┌▓È_1
  5
942
 10
990.590
 20
-34.1763
 30
0.000000
  70
    32
  0
VERTEX
  8
┌▓È_1
  5
943
 10
990.509
 20
-34.1439
 30
0.000000
  70
    32
  0
VERTEX
  8
┌▓È_1
  5
944
 10
990.427
 20
-34.1121
 30
0.000000
  70
    32
  0
VERTEX
  8
┌▓È_1
  5
945
 10
990.343
 20
-34.0808
 30
0.000000
  70
    32
  0
VERTEX
  8
┌▓È_1
  5
946
 10
990.260
 20
-34.0501
 30
0.000000
  70
    32
  0
VERTEX
  8
┌▓È_1
  5
947
 10
990.175
 20
-34.0200
 30
0.000000
  70
    32
  0
VERTEX
  8
┌▓È_1
  5
948
 10
990.090
 20
-33.9904
 30
0.000000
  70
    32
  0
VERTEX
  8
┌▓È_1
  5
949
 10
990.004
 20
-33.9614
 30
0.000000
  70
    32
  0
VERTEX
  8
┌▓È_1
  5
94A
 10
989.917
 20
-33.9330
 30
0.000000
  70
    32
  0
VERTEX
  8
┌▓È_1
  5
94B
 10
989.830
 20
-33.9051
 30
0.000000
  70
    32
  0
VERTEX
  8
┌▓È_1
  5
94C
 10
989.742
 20
-33.8779
 30
0.000000
  70
    32
  0
VERTEX
  8
┌▓È_1
  5
94D
 10
989.653
 20
-33.8512
 30
0.000000
  70
    32
  0
VERTEX
  8
┌▓È_1
  5
94E
 10
989.564
 20
-33.8251
 30
0.000000
  70
    32
  0
VERTEX
  8
┌▓È_1
  5
94F
 10
989.474
 20
-33.7997
 30
0.000000
  70
    32
  0
VERTEX
  8
┌▓È_1
  5
950
 10
989.383
 20
-33.7748
 30
0.000000
  70
    32
  0
VERTEX
  8
┌▓È_1
  5
951
 10
989.292
 20
-33.7505
 30
0.000000
  70
    32
  0
VERTEX
  8
┌▓È_1
  5
952
 10
989.200
 20
-33.7269
 30
0.000000
  70
    32
  0
VERTEX
  8
┌▓È_1
  5
953
 10
989.108
 20
-33.7038
 30
0.000000
  70
    32
  0
VERTEX
  8
┌▓È_1
  5
954
 10
989.015
 20
-33.6814
 30
0.000000
  70
    32
  0
VERTEX
  8
┌▓È_1
  5
955
 10
988.922
 20
-33.6596
 30
0.000000
  70
    32
  0
VERTEX
  8
┌▓È_1
  5
956
 10
988.828
 20
-33.6385
 30
0.000000
  70
    32
  0
VERTEX
  8
┌▓È_1
  5
957
 10
988.733
 20
-33.6179
 30
0.000000
  70
    32
  0
VERTEX
  8
┌▓È_1
  5
958
 10
988.638
 20
-33.5980
 30
0.000000
  70
    32
  0
VERTEX
  8
┌▓È_1
  5
959
 10
988.543
 20
-33.5787
 30
0.000000
  70
    32
  0
VERTEX
  8
┌▓È_1
  5
95A
 10
988.447
 20
-33.5601
 30
0.000000
  70
    32
  0
VERTEX
  8
┌▓È_1
  5
95B
 10
988.351
 20
-33.5421
 30
0.000000
  70
    32
  0
VERTEX
  8
┌▓È_1
  5
95C
 10
988.254
 20
-33.5248
 30
0.000000
  70
    32
  0
VERTEX
  8
┌▓È_1
  5
95D
 10
988.156
 20
-33.5081
 30
0.000000
  70
    32
  0
VERTEX
  8
┌▓È_1
  5
95E
 10
988.059
 20
-33.4920
 30
0.000000
  70
    32
  0
VERTEX
  8
┌▓È_1
  5
95F
 10
987.961
 20
-33.4766
 30
0.000000
  70
    32
  0
VERTEX
  8
┌▓È_1
  5
960
 10
987.862
 20
-33.4619
 30
0.000000
  70
    32
  0
VERTEX
  8
┌▓È_1
  5
961
 10
987.764
 20
-33.4478
 30
0.000000
  70
    32
  0
VERTEX
  8
┌▓È_1
  5
962
 10
987.665
 20
-33.4344
 30
0.000000
  70
    32
  0
VERTEX
  8
┌▓È_1
  5
963
 10
987.565
 20
-33.4217
 30
0.000000
  70
    32
  0
VERTEX
  8
┌▓È_1
  5
964
 10
987.466
 20
-33.4096
 30
0.000000
  70
    32
  0
VERTEX
  8
┌▓È_1
  5
965
 10
987.366
 20
-33.3981
 30
0.000000
  70
    32
  0
VERTEX
  8
┌▓È_1
  5
966
 10
987.265
 20
-33.3874
 30
0.000000
  70
    32
  0
VERTEX
  8
┌▓È_1
  5
967
 10
987.165
 20
-33.3773
 30
0.000000
  70
    32
  0
VERTEX
  8
┌▓È_1
  5
968
 10
987.064
 20
-33.3679
 30
0.000000
  70
    32
  0
VERTEX
  8
┌▓È_1
  5
969
 10
986.963
 20
-33.3592
 30
0.000000
  70
    32
  0
VERTEX
  8
┌▓È_1
  5
96A
 10
986.862
 20
-33.3511
 30
0.000000
  70
    32
  0
VERTEX
  8
┌▓È_1
  5
96B
 10
986.761
 20
-33.3437
 30
0.000000
  70
    32
  0
VERTEX
  8
┌▓È_1
  5
96C
 10
986.659
 20
-33.3370
 30
0.000000
  70
    32
  0
VERTEX
  8
┌▓È_1
  5
96D
 10
986.557
 20
-33.3310
 30
0.000000
  70
    32
  0
VERTEX
  8
┌▓È_1
  5
96E
 10
986.456
 20
-33.3256
 30
0.000000
  70
    32
  0
VERTEX
  8
┌▓È_1
  5
96F
 10
986.354
 20
-33.3210
 30
0.000000
  70
    32
  0
VERTEX
  8
┌▓È_1
  5
970
 10
986.252
 20
-33.3170
 30
0.000000
  70
    32
  0
VERTEX
  8
┌▓È_1
  5
971
 10
986.149
 20
-33.3137
 30
0.000000
  70
    32
  0
VERTEX
  8
┌▓È_1
  5
972
 10
986.047
 20
-33.3111
 30
0.000000
  70
    32
  0
VERTEX
  8
┌▓È_1
  5
973
 10
985.945
 20
-33.3091
 30
0.000000
  70
    32
  0
VERTEX
  8
┌▓È_1
  5
974
 10
985.843
 20
-33.3079
 30
0.000000
  70
    32
  0
VERTEX
  8
┌▓È_1
  5
975
 10
985.740
 20
-33.3073
 30
0.000000
  70
    32
  0
VERTEX
  8
┌▓È_1
  5
976
 10
985.638
 20
-33.3074
 30
0.000000
  70
    32
  0
VERTEX
  8
┌▓È_1
  5
977
 10
985.536
 20
-33.3082
 30
0.000000
  70
    32
  0
VERTEX
  8
┌▓È_1
  5
978
 10
985.433
 20
-33.3097
 30
0.000000
  70
    32
  0
VERTEX
  8
┌▓È_1
  5
979
 10
985.331
 20
-33.3119
 30
0.000000
  70
    32
  0
VERTEX
  8
┌▓È_1
  5
97A
 10
985.229
 20
-33.3147
 30
0.000000
  70
    32
  0
VERTEX
  8
┌▓È_1
  5
97B
 10
985.127
 20
-33.3182
 30
0.000000
  70
    32
  0
VERTEX
  8
┌▓È_1
  5
97C
 10
985.025
 20
-33.3225
 30
0.000000
  70
    32
  0
VERTEX
  8
┌▓È_1
  5
97D
 10
984.923
 20
-33.3273
 30
0.000000
  70
    32
  0
VERTEX
  8
┌▓È_1
  5
97E
 10
984.821
 20
-33.3329
 30
0.000000
  70
    32
  0
VERTEX
  8
┌▓È_1
  5
97F
 10
984.719
 20
-33.3392
 30
0.000000
  70
    32
  0
VERTEX
  8
┌▓È_1
  5
980
 10
984.618
 20
-33.3461
 30
0.000000
  70
    32
  0
VERTEX
  8
┌▓È_1
  5
981
 10
984.517
 20
-33.3537
 30
0.000000
  70
    32
  0
VERTEX
  8
┌▓È_1
  5
982
 10
984.416
 20
-33.3620
 30
0.000000
  70
    32
  0
VERTEX
  8
┌▓È_1
  5
983
 10
984.315
 20
-33.3710
 30
0.000000
  70
    32
  0
VERTEX
  8
┌▓È_1
  5
984
 10
984.214
 20
-33.3806
 30
0.000000
  70
    32
  0
VERTEX
  8
┌▓È_1
  5
985
 10
984.114
 20
-33.3909
 30
0.000000
  70
    32
  0
VERTEX
  8
┌▓È_1
  5
986
 10
984.013
 20
-33.4019
 30
0.000000
  70
    32
  0
VERTEX
  8
┌▓È_1
  5
987
 10
983.914
 20
-33.4135
 30
0.000000
  70
    32
  0
VERTEX
  8
┌▓È_1
  5
988
 10
983.814
 20
-33.4258
 30
0.000000
  70
    32
  0
VERTEX
  8
┌▓È_1
  5
989
 10
983.715
 20
-33.4388
 30
0.000000
  70
    32
  0
VERTEX
  8
┌▓È_1
  5
98A
 10
983.616
 20
-33.4524
 30
0.000000
  70
    32
  0
VERTEX
  8
┌▓È_1
  5
98B
 10
983.517
 20
-33.4667
 30
0.000000
  70
    32
  0
VERTEX
  8
┌▓È_1
  5
98C
 10
983.419
 20
-33.4817
 30
0.000000
  70
    32
  0
VERTEX
  8
┌▓È_1
  5
98D
 10
983.321
 20
-33.4973
 30
0.000000
  70
    32
  0
VERTEX
  8
┌▓È_1
  5
98E
 10
983.224
 20
-33.5136
 30
0.000000
  70
    32
  0
VERTEX
  8
┌▓È_1
  5
98F
 10
983.126
 20
-33.5305
 30
0.000000
  70
    32
  0
VERTEX
  8
┌▓È_1
  5
990
 10
983.030
 20
-33.5480
 30
0.000000
  70
    32
  0
VERTEX
  8
┌▓È_1
  5
991
 10
982.934
 20
-33.5663
 30
0.000000
  70
    32
  0
VERTEX
  8
┌▓È_1
  5
992
 10
982.838
 20
-33.5851
 30
0.000000
  70
    32
  0
VERTEX
  8
┌▓È_1
  5
993
 10
982.742
 20
-33.6046
 30
0.000000
  70
    32
  0
VERTEX
  8
┌▓È_1
  5
994
 10
982.648
 20
-33.6247
 30
0.000000
  70
    32
  0
VERTEX
  8
┌▓È_1
  5
995
 10
982.553
 20
-33.6455
 30
0.000000
  70
    32
  0
VERTEX
  8
┌▓È_1
  5
996
 10
982.460
 20
-33.6668
 30
0.000000
  70
    32
  0
VERTEX
  8
┌▓È_1
  5
997
 10
982.366
 20
-33.6888
 30
0.000000
  70
    32
  0
SEQEND
  8
┌▓È_1
  5
998
  0
LINE
  5
DF
  8
┌▓È_1
 62
     5
 10
993.89993660309995
 20
-39.627934172400003
 30
0.0
 11
994.42584798869996
 21
-40.12837101809999
 31
0.0
  0
LINE
  5
E0
  8
┌▓È_1
 62
     5
 10
991.1060715957999
 20
-36.969400758399999
 30
0.0
 11
993.19423148550004
 21
-38.956412595499998
 31
0.0
  0
ARC
  5
E1
  8
┌▓È_1
 62
     5
 10
1000.2313485901
 20
-41.460845365899999
 30
0.0
 40
2.5
 50
349.87944910189998
 51
69.032723815699995
  0
ARC
  5
E2
  8
┌▓È_1
 62
     5
 10
1000.2313485901
 20
-41.460845365899999
 30
0.0
 40
2.5
 50
201.87638421380001
 51
326.79665626219997
  0
LINE
  5
E3
  8
┌▓È_1
 62
     5
 10
997.18816437380008
 20
-40.591172245099997
 30
0.0
 11
997.91137390940003
 21
-42.392358908899993
 31
0.0
  0
LINE
  5
E4
  8
┌▓È_1
 62
     5
 10
996.2038827217998
 20
-38.13977344860001
 30
0.0
 11
996.81487861630001
 21
-39.661486870200001
 31
0.0
  0
LINE
  5
E5
  8
┌▓È_1
 62
     5
 10
998.01904536819995
 20
-39.976712693899998
 30
0.0
 11
998.8393639331
 21
-42.019753868999999
 31
0.0
  0
ARC
  5
E6
  8
┌▓È_1
 62
     5
 10
996.1492065435001
 20
-38.317284247300002
 30
0.0
 40
1.5
 50
22.154243398199998
 51
93.57818461090001
  0
LINE
  5
E7
  8
┌▓È_1
 62
     5
 10
1007.0246449081
 20
-49.444438042599998
 30
0.0
 11
1011.1987022103
 21
-51.335798832700007
 31
0.0
  0
LINE
  5
E8
  8
┌▓È_1
 62
     5
 10
1019.0391129593
 20
-207.62241593159999
 30
0.0
 11
1019.0391129593
 21
-200.12241600390001
 31
0.0
  0
LINE
  5
E9
  8
┌▓È_1
 62
     5
 10
1018.0391129593
 20
-200.12241600390001
 30
0.0
 11
1018.0391129593
 21
-207.62241593159999
 31
0.0
  0
LINE
  5
EA
  8
┌▓È_1
 62
     5
 10
1018.0391129593
 20
-207.62241593159999
 30
0.0
 11
1019.0391129593
 21
-207.62241593159999
 31
0.0
  0
LINE
  5
EB
  8
┌▓È_1
 62
     5
 10
930.53911295929993
 20
-200.12241600390001
 30
0.0
 11
1018.0391129593
 21
-200.12241600390001
 31
0.0
  0
LINE
  5
EC
  8
┌▓È_1
 62
     5
 10
929.53911295929993
 20
-193.12241600390001
 30
0.0
 11
929.53911295929993
 21
-200.12241568460001
 31
0.0
  0
ARC
  5
ED
  8
┌▓È_1
 62
     5
 10
928.53911295930004
 20
-200.12241600390001
 30
0.0
 40
1.0
 50
270.0
 51
0.0000182969
  0
LINE
  5
EE
  8
┌▓È_1
 62
     5
 10
930.03911295929981
 20
-209.12241600390001
 30
0.0
 11
930.03911295929981
 21
-199.98844140770001
 31
0.0
  0
ARC
  5
EF
  8
┌▓È_1
 62
     5
 10
930.53911295929993
 20
-199.12241600390001
 30
0.0
 40
1.0
 50
180.0
 51
270.0
  0
ARC
  5
F0
  8
┌▓È_1
 62
     5
 10
1012.1082140639
 20
-90.387691515
 30
0.0
 40
0.5
 50
244.57812271830011
 51
64.578185407399985
  0
LINE
  5
F1
  8
┌▓È_1
 62
     5
 10
1011.8935744918
 20
-90.839277447199976
 30
0.0
 11
1007.7547210584
 21
-88.872073274500011
 31
0.0
  0
LINE
  5
F2
  8
┌▓È_1
 62
     5
 10
1012.322853636
 20
-89.936105582900012
 30
0.0
 11
1008.1840002026
 21
-87.968901410300006
 31
0.0
  0
ARC
  5
F3
  8
┌▓È_1
 62
     5
 10
1016.4102101271
 20
-93.446104192099995
 30
0.0
 40
2.2964069956999991
 50
287.2453768538
 51
311.64207716649997
  0
ARC
  5
F4
  8
┌▓È_1
 62
     5
 10
1016.5866563924
 20
-93.190677261600001
 30
0.0
 40
1.5
 50
273.4090878696
 51
312.3545217189
  0
LINE
  5
F5
  8
┌▓È_1
 62
     5
 10
1015.7706166054001
 20
-91.213766547900008
 30
0.0
 11
1016.2546764705
 21
-92.108202158899999
 31
0.0
  0
LINE
  5
F6
  8
┌▓È_1
 62
     5
 10
924.03911295930004
 20
-209.12241600390001
 30
0.0
 11
924.03911295930004
 21
-201.12241600390001
 31
0.0
  0
ARC
  5
F7
  8
┌▓È_1
 62
     5
 10
925.03911295929993
 20
-209.12241600390001
 30
0.0
 40
1.0
 50
180.0
 51
270.0
  0
DIMENSION
  5
108
  8
Éíû@É³
  2
*D0
 10
1019.0391129593
 20
12.6751043081
 30
0.0
 11
968.21394834179978
 21
12.6751043081
 31
0.0
 70
   128
  1
<>
 13
1019.0391129593
 23
-22.622415931599999
 33
0.0
 14
924.03911295930004
 24
-21.1224160039
 34
0.0
  0
DIMENSION
  5
117
  8
Éíû@É³
  2
*D1
 10
930.03911295929981
 20
0.8284644087
 30
0.0
 11
927.03911295929993
 21
0.8284644087
 31
0.0
 70
   128
  1
<>
 13
930.03911295929981
 23
-20.1224160039
 33
0.0
 14
924.03911295930004
 24
-21.1224160039
 34
0.0
  0
LINE
  5
118
  8
┌▓È_1
 10
932.07183148540003
 20
-26.803111200299998
 30
0.0
 11
960.85539082619994
 21
-3.1175792377999989
 31
0.0
  0
SOLID
  5
119
  8
┌▓È_1
 10
932.07183148540003
 20
-26.803111200299998
 30
0.0
 11
934.19526116869997
 21
-23.8316149877
 31
0.0
 12
934.06598248119997
 22
-25.162156147099999
 32
0.0
 13
934.06598248119997
 23
-25.162156147099999
 33
0.0
  0
SOLID
  5
11A
  8
┌▓È_1
 10
932.07183148540003
 20
-26.803111200299998
 30
0.0
 11
935.39652364059987
 21
-25.2914348346
 31
0.0
 12
934.06598248119997
 22
-25.162156147099999
 32
0.0
 13
934.06598248119997
 23
-25.162156147099999
 33
0.0
  0
INSERT
  5
11B
  8
0
  6
CONTINUOUS
  2
*U27
 10
0.0
 20
0.0
 30
0.0
  0
LINE
  5
11C
  8
┌▓È_1
 10
960.85539082619994
 20
-3.1175792377999989
 30
0.0
 11
1009.9867059304
 21
-3.1175792377999989
 31
0.0
  0
LINE
  5
11D
  8
┌▓È_1
 62
     5
 10
1000.8391591428
 20
-43.885833269400003
 30
0.0
 11
1001.5915088975
 21
-45.998252198499998
 31
0.0
  0
ARC
  5
11E
  8
┌▓È_1
 62
     5
 10
1003.946599251
 20
-45.159473665699991
 30
0.0
 40
1.5
 50
359.40617586050001
 51
66.760002792799995
  0
ARC
  5
11F
  8
┌▓È_1
 62
     5
 10
996.1492065435001
 20
-38.317284247300002
 30
0.0
 40
2.5
 50
226.4218387592
 51
339.61307010550001
  0
LINE
  5
120
  8
┌▓È_1
 62
     5
 10
1000.0540024505
 20
-41.681300273200002
 30
0.0
 11
1000.5010154131
 21
-42.936406210000001
 31
0.0
  0
LINE
  5
121
  8
┌▓È_1
 62
     5
 10
930.53911295929993
 20
-197.12241600390001
 30
0.0
 11
930.53911295929993
 21
-193.12241600390001
 31
0.0
  0
LINE
  5
122
  8
┌▓È_1
 62
     5
 10
931.53911295929993
 20
-193.12241600390001
 30
0.0
 11
931.53911295929993
 21
-197.12241600390001
 31
0.0
  0
LINE
  5
123
  8
┌▓È_1
 62
     5
 10
930.53911295929993
 20
-199.12241600390001
 30
0.0
 11
930.53911295929993
 21
-197.12241600390001
 31
0.0
  0
LINE
  5
124
  8
┌▓È_1
 62
     5
 10
928.53911295930004
 20
-200.12241600390001
 30
0.0
 11
928.53911295930004
 21
-193.12241600390001
 31
0.0
  0
LINE
  5
125
  8
┌▓È_1
 62
     5
 10
929.53911295929993
 20
-192.12241600390001
 30
0.0
 11
930.53911295929993
 21
-192.12241600390001
 31
0.0
  0
LINE
  5
126
  8
┌▓È_1
 62
     5
 10
930.53911295929993
 20
-193.12241600390001
 30
0.0
 11
929.53911295929993
 21
-193.12241600390001
 31
0.0
  0
LINE
  5
127
  8
┌▓È_1
 62
     5
 10
928.53911295930004
 20
-201.12241600390001
 30
0.0
 11
925.03911295929993
 21
-201.12241600390001
 31
0.0
  0
LINE
  5
128
  8
┌▓È_1
 62
     5
 10
925.53911295929981
 20
-199.12241600390001
 30
0.0
 11
928.53911295930004
 21
-199.12241600390001
 31
0.0
  0
LINE
  5
129
  8
┌▓È_1
 62
     5
 10
925.03911295929993
 20
-201.12241600390001
 30
0.0
 11
925.03911295929993
 21
-209.12241600390001
 31
0.0
  0
LINE
  5
12A
  8
┌▓È_1
 62
     5
 10
1016.8499438092
 20
-93.208124594500006
 30
0.0
 11
1016.2546764705
 21
-92.108202158899999
 31
0.0
  0
LINE
  5
12B
  8
┌▓È_1
 62
     5
 10
1016.5347395077
 20
-92.961860004300007
 30
0.0
 11
1012.0965682173
 21
-91.820529378700002
 31
0.0
  0
ARC
  5
12C
  8
┌▓È_1
 62
     5
 10
1016.4102101271
 20
-93.446104192099995
 30
0.0
 40
0.5
 50
208.42182152180001
 51
269.99999999990001
  0
LINE
  5
12D
  8
┌▓È_1
 62
     5
 10
1014.9198863410001
 20
-91.742825549900004
 30
0.0
 11
1015.9704764451
 21
-93.684083789699997
 31
0.0
  0
ARC
  5
12E
  8
┌▓È_1
 62
     5
 10
1016.5866563924
 20
-82.788677261599986
 30
0.0
 40
2.5
 50
304.71338381010003
 51
26.987269270300001
  0
LINE
  5
12F
  8
┌▓È_1
 62
     5
 10
1008.9476054861
 20
-86.528110088499986
 30
0.0
 11
1008.8134096112
 21
-85.114213788900003
 31
0.0
  0
LINE
  5
130
  8
┌▓È_1
 62
     5
 10
930.03911295929981
 20
-210.12241600390001
 30
0.0
 11
925.03911295929993
 21
-210.12241600390001
 31
0.0
  0
ARC
  5
131
  8
┌▓È_1
 62
     5
 10
925.03911295929993
 20
-201.12241600390001
 30
0.0
 40
1.0
 50
90.0
 51
180.0
  0
LINE
  5
132
  8
┌▓È_1
 62
     5
 10
925.03911295929993
 20
-200.12241600390001
 30
0.0
 11
928.53911295930004
 21
-200.12241600390001
 31
0.0
  0
LINE
  5
133
  8
┌▓È_1
 62
     5
 10
930.03911295929981
 20
-209.12241600390001
 30
0.0
 11
930.03911295929981
 21
-210.12241600390001
 31
0.0
  0
LINE
  5
134
  8
┌▓È_1
 62
     5
 10
925.03911295929993
 20
-209.12241600390001
 30
0.0
 11
930.03911295929981
 21
-209.12241600390001
 31
0.0
  0
ARC
  5
135
  8
┌▓È_1
 62
     5
 10
930.53911295929993
 20
-193.12241600390001
 30
0.0
 40
1.0
 50
0.0
 51
90.0
  0
ARC
  5
136
  8
┌▓È_1
 62
     5
 10
929.53911295929993
 20
-193.12241600390001
 30
0.0
 40
1.0
 50
90.0
 51
180.0
  0
LINE
  5
137
  8
┌▓È_1
 62
     5
 10
931.53911295929993
 20
-197.12241600390001
 30
0.0
 11
930.53911295929993
 21
-197.12241600390001
 31
0.0
  0
LINE
  5
138
  8
┌▓È_1
 62
     5
 10
1018.0391129593
 20
-199.12241600390001
 30
0.0
 11
930.53911295929993
 21
-199.12241600390001
 31
0.0
  0
LINE
  5
139
  8
┌▓È_1
  6
BORDER
 62
     3
 10
919.03911295929993
 20
-115.1224160039
 30
0.0
 11
1024.0391129592999
 21
-115.122415928
 31
0.0
  0
LINE
  5
13A
  8
┌▓È_1
 62
     5
 10
1016.7348862806
 20
-87.972628977000014
 30
0.0
 11
1018.8144248295
 21
-92.056195974599973
 31
0.0
  0
ARC
  5
13B
  8
┌▓È_1
 62
     5
 10
1016.5866563924
 20
-93.190677261600001
 30
0.0
 40
1.5
 50
312.3545217189
 51
26.987275520000001
  0
ARC
  5
13C
  8
┌▓È_1
 62
     5
 10
1012.4701563591
 20
-90.367796815499986
 30
0.0
 40
2.5
 50
170.20299944210001
 51
255.5781783612
  0
ARC
  5
13D
  8
┌▓È_1
 62
     5
 10
1012.4701563591
 20
-90.367796815499986
 30
0.0
 40
1.5
 50
28.421809310099999
 51
141.9999969605
  0
ARC
  5
13E
  8
┌▓È_1
 62
     5
 10
1012.4701563591
 20
-90.367796815499986
 30
0.0
 40
1.5
 50
181.25099362520001
 51
255.57818461100001
  0
LINE
  5
13F
  8
┌▓È_1
 62
     5
 10
1010.9541351332
 20
-88.379913608999999
 30
0.0
 11
1010.2591084701
 21
-86.165037313900001
 31
0.0
  0
ARC
  5
140
  8
┌▓È_1
 62
     5
 10
1016.2893325932
 20
-88.199525234399985
 30
0.0
 40
0.5
 50
26.987213627399999
 51
206.98727631649999
  0
ARC
  5
141
  8
┌▓È_1
 62
     5
 10
1016.5866563924
 20
-93.190677261600001
 30
0.0
 40
2.5
 50
184.0313454976
 51
281.6388898765
  0
ARC
  5
142
  8
┌▓È_1
 62
     5
 10
1016.5866563924
 20
-93.190677261600001
 30
0.0
 40
1.5
 50
197.4181782597
 51
273.4090878696
  0
LINE
  5
143
  8
┌▓È_1
 62
     5
 10
1014.9198863410001
 20
-91.742825549900004
 30
0.0
 11
1013.7893572614
 21
-89.653857756899995
 31
0.0
  0
POLYLINE
  5
144
  8
┌▓È_1
 62
     5
 10
1008.1460028971755
 20
-86.972445149275387
 30
0.0
 66
     1
 70
     8
  0
VERTEX
  8
┌▓È_1
  5
999
 10
1008.15
 20
-86.9724
 30
0.000000
  70
    32
  0
VERTEX
  8
┌▓È_1
  5
99A
 10
1008.16
 20
-86.9798
 30
0.000000
  70
    32
  0
VERTEX
  8
┌▓È_1
  5
99B
 10
1008.17
 20
-86.9869
 30
0.000000
  70
    32
  0
VERTEX
  8
┌▓È_1
  5
99C
 10
1008.18
 20
-86.9937
 30
0.000000
  70
    32
  0
VERTEX
  8
┌▓È_1
  5
99D
 10
1008.19
 20
-87.0003
 30
0.000000
  70
    32
  0
VERTEX
  8
┌▓È_1
  5
99E
 10
1008.20
 20
-87.0067
 30
0.000000
  70
    32
  0
VERTEX
  8
┌▓È_1
  5
99F
 10
1008.21
 20
-87.0127
 30
0.000000
  70
    32
  0
VERTEX
  8
┌▓È_1
  5
9A0
 10
1008.22
 20
-87.0185
 30
0.000000
  70
    32
  0
VERTEX
  8
┌▓È_1
  5
9A1
 10
1008.23
 20
-87.0241
 30
0.000000
  70
    32
  0
VERTEX
  8
┌▓È_1
  5
9A2
 10
1008.24
 20
-87.0294
 30
0.000000
  70
    32
  0
VERTEX
  8
┌▓È_1
  5
9A3
 10
1008.25
 20
-87.0344
 30
0.000000
  70
    32
  0
VERTEX
  8
┌▓È_1
  5
9A4
 10
1008.26
 20
-87.0391
 30
0.000000
  70
    32
  0
VERTEX
  8
┌▓È_1
  5
9A5
 10
1008.27
 20
-87.0435
 30
0.000000
  70
    32
  0
VERTEX
  8
┌▓È_1
  5
9A6
 10
1008.29
 20
-87.0477
 30
0.000000
  70
    32
  0
VERTEX
  8
┌▓È_1
  5
9A7
 10
1008.30
 20
-87.0516
 30
0.000000
  70
    32
  0
VERTEX
  8
┌▓È_1
  5
9A8
 10
1008.31
 20
-87.0552
 30
0.000000
  70
    32
  0
VERTEX
  8
┌▓È_1
  5
9A9
 10
1008.32
 20
-87.0585
 30
0.000000
  70
    32
  0
VERTEX
  8
┌▓È_1
  5
9AA
 10
1008.33
 20
-87.0615
 30
0.000000
  70
    32
  0
VERTEX
  8
┌▓È_1
  5
9AB
 10
1008.34
 20
-87.0642
 30
0.000000
  70
    32
  0
VERTEX
  8
┌▓È_1
  5
9AC
 10
1008.36
 20
-87.0667
 30
0.000000
  70
    32
  0
VERTEX
  8
┌▓È_1
  5
9AD
 10
1008.37
 20
-87.0688
 30
0.000000
  70
    32
  0
VERTEX
  8
┌▓È_1
  5
9AE
 10
1008.38
 20
-87.0706
 30
0.000000
  70
    32
  0
VERTEX
  8
┌▓È_1
  5
9AF
 10
1008.39
 20
-87.0722
 30
0.000000
  70
    32
  0
VERTEX
  8
┌▓È_1
  5
9B0
 10
1008.41
 20
-87.0734
 30
0.000000
  70
    32
  0
VERTEX
  8
┌▓È_1
  5
9B1
 10
1008.42
 20
-87.0743
 30
0.000000
  70
    32
  0
VERTEX
  8
┌▓È_1
  5
9B2
 10
1008.43
 20
-87.0750
 30
0.000000
  70
    32
  0
VERTEX
  8
┌▓È_1
  5
9B3
 10
1008.44
 20
-87.0753
 30
0.000000
  70
    32
  0
VERTEX
  8
┌▓È_1
  5
9B4
 10
1008.45
 20
-87.0753
 30
0.000000
  70
    32
  0
VERTEX
  8
┌▓È_1
  5
9B5
 10
1008.47
 20
-87.0751
 30
0.000000
  70
    32
  0
VERTEX
  8
┌▓È_1
  5
9B6
 10
1008.48
 20
-87.0745
 30
0.000000
  70
    32
  0
VERTEX
  8
┌▓È_1
  5
9B7
 10
1008.49
 20
-87.0736
 30
0.000000
  70
    32
  0
VERTEX
  8
┌▓È_1
  5
9B8
 10
1008.50
 20
-87.0725
 30
0.000000
  70
    32
  0
VERTEX
  8
┌▓È_1
  5
9B9
 10
1008.52
 20
-87.0710
 30
0.000000
  70
    32
  0
VERTEX
  8
┌▓È_1
  5
9BA
 10
1008.53
 20
-87.0692
 30
0.000000
  70
    32
  0
VERTEX
  8
┌▓È_1
  5
9BB
 10
1008.54
 20
-87.0672
 30
0.000000
  70
    32
  0
VERTEX
  8
┌▓È_1
  5
9BC
 10
1008.55
 20
-87.0648
 30
0.000000
  70
    32
  0
VERTEX
  8
┌▓È_1
  5
9BD
 10
1008.56
 20
-87.0621
 30
0.000000
  70
    32
  0
VERTEX
  8
┌▓È_1
  5
9BE
 10
1008.58
 20
-87.0592
 30
0.000000
  70
    32
  0
VERTEX
  8
┌▓È_1
  5
9BF
 10
1008.59
 20
-87.0559
 30
0.000000
  70
    32
  0
VERTEX
  8
┌▓È_1
  5
9C0
 10
1008.60
 20
-87.0524
 30
0.000000
  70
    32
  0
VERTEX
  8
┌▓È_1
  5
9C1
 10
1008.61
 20
-87.0486
 30
0.000000
  70
    32
  0
VERTEX
  8
┌▓È_1
  5
9C2
 10
1008.62
 20
-87.0445
 30
0.000000
  70
    32
  0
VERTEX
  8
┌▓È_1
  5
9C3
 10
1008.63
 20
-87.0401
 30
0.000000
  70
    32
  0
VERTEX
  8
┌▓È_1
  5
9C4
 10
1008.65
 20
-87.0354
 30
0.000000
  70
    32
  0
VERTEX
  8
┌▓È_1
  5
9C5
 10
1008.66
 20
-87.0305
 30
0.000000
  70
    32
  0
VERTEX
  8
┌▓È_1
  5
9C6
 10
1008.67
 20
-87.0253
 30
0.000000
  70
    32
  0
VERTEX
  8
┌▓È_1
  5
9C7
 10
1008.68
 20
-87.0198
 30
0.000000
  70
    32
  0
VERTEX
  8
┌▓È_1
  5
9C8
 10
1008.69
 20
-87.0140
 30
0.000000
  70
    32
  0
VERTEX
  8
┌▓È_1
  5
9C9
 10
1008.70
 20
-87.0080
 30
0.000000
  70
    32
  0
VERTEX
  8
┌▓È_1
  5
9CA
 10
1008.71
 20
-87.0017
 30
0.000000
  70
    32
  0
VERTEX
  8
┌▓È_1
  5
9CB
 10
1008.72
 20
-86.9952
 30
0.000000
  70
    32
  0
VERTEX
  8
┌▓È_1
  5
9CC
 10
1008.73
 20
-86.9884
 30
0.000000
  70
    32
  0
VERTEX
  8
┌▓È_1
  5
9CD
 10
1008.74
 20
-86.9814
 30
0.000000
  70
    32
  0
VERTEX
  8
┌▓È_1
  5
9CE
 10
1008.75
 20
-86.9741
 30
0.000000
  70
    32
  0
VERTEX
  8
┌▓È_1
  5
9CF
 10
1008.76
 20
-86.9666
 30
0.000000
  70
    32
  0
VERTEX
  8
┌▓È_1
  5
9D0
 10
1008.77
 20
-86.9588
 30
0.000000
  70
    32
  0
VERTEX
  8
┌▓È_1
  5
9D1
 10
1008.78
 20
-86.9508
 30
0.000000
  70
    32
  0
VERTEX
  8
┌▓È_1
  5
9D2
 10
1008.79
 20
-86.9426
 30
0.000000
  70
    32
  0
VERTEX
  8
┌▓È_1
  5
9D3
 10
1008.80
 20
-86.9342
 30
0.000000
  70
    32
  0
VERTEX
  8
┌▓È_1
  5
9D4
 10
1008.81
 20
-86.9255
 30
0.000000
  70
    32
  0
VERTEX
  8
┌▓È_1
  5
9D5
 10
1008.82
 20
-86.9167
 30
0.000000
  70
    32
  0
VERTEX
  8
┌▓È_1
  5
9D6
 10
1008.82
 20
-86.9076
 30
0.000000
  70
    32
  0
VERTEX
  8
┌▓È_1
  5
9D7
 10
1008.83
 20
-86.8983
 30
0.000000
  70
    32
  0
VERTEX
  8
┌▓È_1
  5
9D8
 10
1008.84
 20
-86.8888
 30
0.000000
  70
    32
  0
VERTEX
  8
┌▓È_1
  5
9D9
 10
1008.85
 20
-86.8792
 30
0.000000
  70
    32
  0
VERTEX
  8
┌▓È_1
  5
9DA
 10
1008.85
 20
-86.8694
 30
0.000000
  70
    32
  0
VERTEX
  8
┌▓È_1
  5
9DB
 10
1008.86
 20
-86.8593
 30
0.000000
  70
    32
  0
VERTEX
  8
┌▓È_1
  5
9DC
 10
1008.87
 20
-86.8492
 30
0.000000
  70
    32
  0
VERTEX
  8
┌▓È_1
  5
9DD
 10
1008.87
 20
-86.8388
 30
0.000000
  70
    32
  0
VERTEX
  8
┌▓È_1
  5
9DE
 10
1008.88
 20
-86.8283
 30
0.000000
  70
    32
  0
VERTEX
  8
┌▓È_1
  5
9DF
 10
1008.89
 20
-86.8176
 30
0.000000
  70
    32
  0
VERTEX
  8
┌▓È_1
  5
9E0
 10
1008.89
 20
-86.8068
 30
0.000000
  70
    32
  0
VERTEX
  8
┌▓È_1
  5
9E1
 10
1008.90
 20
-86.7959
 30
0.000000
  70
    32
  0
VERTEX
  8
┌▓È_1
  5
9E2
 10
1008.90
 20
-86.7848
 30
0.000000
  70
    32
  0
VERTEX
  8
┌▓È_1
  5
9E3
 10
1008.91
 20
-86.7736
 30
0.000000
  70
    32
  0
VERTEX
  8
┌▓È_1
  5
9E4
 10
1008.91
 20
-86.7623
 30
0.000000
  70
    32
  0
VERTEX
  8
┌▓È_1
  5
9E5
 10
1008.92
 20
-86.7508
 30
0.000000
  70
    32
  0
VERTEX
  8
┌▓È_1
  5
9E6
 10
1008.92
 20
-86.7393
 30
0.000000
  70
    32
  0
VERTEX
  8
┌▓È_1
  5
9E7
 10
1008.93
 20
-86.7277
 30
0.000000
  70
    32
  0
VERTEX
  8
┌▓È_1
  5
9E8
 10
1008.93
 20
-86.7159
 30
0.000000
  70
    32
  0
VERTEX
  8
┌▓È_1
  5
9E9
 10
1008.93
 20
-86.7041
 30
0.000000
  70
    32
  0
VERTEX
  8
┌▓È_1
  5
9EA
 10
1008.94
 20
-86.6922
 30
0.000000
  70
    32
  0
VERTEX
  8
┌▓È_1
  5
9EB
 10
1008.94
 20
-86.6802
 30
0.000000
  70
    32
  0
VERTEX
  8
┌▓È_1
  5
9EC
 10
1008.94
 20
-86.6682
 30
0.000000
  70
    32
  0
VERTEX
  8
┌▓È_1
  5
9ED
 10
1008.94
 20
-86.6561
 30
0.000000
  70
    32
  0
VERTEX
  8
┌▓È_1
  5
9EE
 10
1008.95
 20
-86.6440
 30
0.000000
  70
    32
  0
VERTEX
  8
┌▓È_1
  5
9EF
 10
1008.95
 20
-86.6318
 30
0.000000
  70
    32
  0
VERTEX
  8
┌▓È_1
  5
9F0
 10
1008.95
 20
-86.6196
 30
0.000000
  70
    32
  0
VERTEX
  8
┌▓È_1
  5
9F1
 10
1008.95
 20
-86.6074
 30
0.000000
  70
    32
  0
VERTEX
  8
┌▓È_1
  5
9F2
 10
1008.95
 20
-86.5951
 30
0.000000
  70
    32
  0
VERTEX
  8
┌▓È_1
  5
9F3
 10
1008.95
 20
-86.5829
 30
0.000000
  70
    32
  0
VERTEX
  8
┌▓È_1
  5
9F4
 10
1008.95
 20
-86.5706
 30
0.000000
  70
    32
  0
VERTEX
  8
┌▓È_1
  5
9F5
 10
1008.95
 20
-86.5583
 30
0.000000
  70
    32
  0
VERTEX
  8
┌▓È_1
  5
9F6
 10
1008.95
 20
-86.5461
 30
0.000000
  70
    32
  0
VERTEX
  8
┌▓È_1
  5
9F7
 10
1008.95
 20
-86.5338
 30
0.000000
  70
    32
  0
VERTEX
  8
┌▓È_1
  5
9F8
 10
1008.95
 20
-86.5216
 30
0.000000
  70
    32
  0
VERTEX
  8
┌▓È_1
  5
9F9
 10
1008.95
 20
-86.5094
 30
0.000000
  70
    32
  0
VERTEX
  8
┌▓È_1
  5
9FA
 10
1008.94
 20
-86.4973
 30
0.000000
  70
    32
  0
VERTEX
  8
┌▓È_1
  5
9FB
 10
1008.94
 20
-86.4852
 30
0.000000
  70
    32
  0
VERTEX
  8
┌▓È_1
  5
9FC
 10
1008.94
 20
-86.4731
 30
0.000000
  70
    32
  0
VERTEX
  8
┌▓È_1
  5
9FD
 10
1008.94
 20
-86.4612
 30
0.000000
  70
    32
  0
VERTEX
  8
┌▓È_1
  5
9FE
 10
1008.93
 20
-86.4492
 30
0.000000
  70
    32
  0
VERTEX
  8
┌▓È_1
  5
9FF
 10
1008.93
 20
-86.4374
 30
0.000000
  70
    32
  0
VERTEX
  8
┌▓È_1
  5
A00
 10
1008.93
 20
-86.4257
 30
0.000000
  70
    32
  0
VERTEX
  8
┌▓È_1
  5
A01
 10
1008.92
 20
-86.4140
 30
0.000000
  70
    32
  0
VERTEX
  8
┌▓È_1
  5
A02
 10
1008.92
 20
-86.4024
 30
0.000000
  70
    32
  0
VERTEX
  8
┌▓È_1
  5
A03
 10
1008.91
 20
-86.3910
 30
0.000000
  70
    32
  0
VERTEX
  8
┌▓È_1
  5
A04
 10
1008.91
 20
-86.3796
 30
0.000000
  70
    32
  0
VERTEX
  8
┌▓È_1
  5
A05
 10
1008.90
 20
-86.3684
 30
0.000000
  70
    32
  0
VERTEX
  8
┌▓È_1
  5
A06
 10
1008.90
 20
-86.3573
 30
0.000000
  70
    32
  0
VERTEX
  8
┌▓È_1
  5
A07
 10
1008.89
 20
-86.3463
 30
0.000000
  70
    32
  0
VERTEX
  8
┌▓È_1
  5
A08
 10
1008.89
 20
-86.3355
 30
0.000000
  70
    32
  0
VERTEX
  8
┌▓È_1
  5
A09
 10
1008.88
 20
-86.3248
 30
0.000000
  70
    32
  0
VERTEX
  8
┌▓È_1
  5
A0A
 10
1008.88
 20
-86.3142
 30
0.000000
  70
    32
  0
VERTEX
  8
┌▓È_1
  5
A0B
 10
1008.87
 20
-86.3038
 30
0.000000
  70
    32
  0
VERTEX
  8
┌▓È_1
  5
A0C
 10
1008.86
 20
-86.2936
 30
0.000000
  70
    32
  0
VERTEX
  8
┌▓È_1
  5
A0D
 10
1008.86
 20
-86.2836
 30
0.000000
  70
    32
  0
VERTEX
  8
┌▓È_1
  5
A0E
 10
1008.85
 20
-86.2737
 30
0.000000
  70
    32
  0
VERTEX
  8
┌▓È_1
  5
A0F
 10
1008.84
 20
-86.2640
 30
0.000000
  70
    32
  0
VERTEX
  8
┌▓È_1
  5
A10
 10
1008.83
 20
-86.2545
 30
0.000000
  70
    32
  0
VERTEX
  8
┌▓È_1
  5
A11
 10
1008.83
 20
-86.2452
 30
0.000000
  70
    32
  0
VERTEX
  8
┌▓È_1
  5
A12
 10
1008.82
 20
-86.2361
 30
0.000000
  70
    32
  0
VERTEX
  8
┌▓È_1
  5
A13
 10
1008.81
 20
-86.2271
 30
0.000000
  70
    32
  0
VERTEX
  8
┌▓È_1
  5
A14
 10
1008.80
 20
-86.2184
 30
0.000000
  70
    32
  0
VERTEX
  8
┌▓È_1
  5
A15
 10
1008.79
 20
-86.2100
 30
0.000000
  70
    32
  0
VERTEX
  8
┌▓È_1
  5
A16
 10
1008.78
 20
-86.2017
 30
0.000000
  70
    32
  0
VERTEX
  8
┌▓È_1
  5
A17
 10
1008.77
 20
-86.1936
 30
0.000000
  70
    32
  0
VERTEX
  8
┌▓È_1
  5
A18
 10
1008.76
 20
-86.1858
 30
0.000000
  70
    32
  0
VERTEX
  8
┌▓È_1
  5
A19
 10
1008.75
 20
-86.1783
 30
0.000000
  70
    32
  0
SEQEND
  8
┌▓È_1
  5
A1A
  0
LINE
  5
145
  8
┌▓È_1
 62
     5
 10
1012.5852774422
 20
-90.237990034999996
 30
0.0
 11
1012.1651455558
 21
-88.899134699799987
 31
0.0
  0
LINE
  5
146
  8
┌▓È_1
 62
     5
 10
1008.7187173185
 20
-84.116529750599994
 30
0.0
 11
1008.5146093611
 21
-81.966035289300009
 31
0.0
  0
LINE
  5
147
  8
┌▓È_1
 62
     5
 10
1015.8437789058
 20
-83.225421491800006
 30
0.0
 11
1017.9233174547001
 21
-87.308988489399994
 31
0.0
  0
LINE
  5
148
  8
┌▓È_1
 62
     5
 10
1016.7348862806
 20
-82.771628977000006
 30
0.0
 11
1018.8144248295
 21
-86.855195974599994
 31
0.0
  0
ARC
  5
149
  8
┌▓È_1
 62
     5
 10
1016.5866563924
 20
-82.788677261599986
 30
0.0
 40
1.5
 50
312.3545217189
 51
26.987275520000001
  0
ARC
  5
14A
  8
┌▓È_1
 62
     5
 10
1016.5866563924
 20
-87.989677261599994
 30
0.0
 40
2.5
 50
304.71338381010003
 51
26.987269270300001
  0
ARC
  5
14B
  8
┌▓È_1
 62
     5
 10
1006.0257943596
 20
-82.202255289600004
 30
0.0
 40
2.5
 50
147.59703049839999
 51
232.5781783612
  0
ARC
  5
14C
  8
┌▓È_1
 62
     5
 10
1016.5866563924
 20
-93.190677261600001
 30
0.0
 40
2.5
 50
304.71338381010003
 51
26.987269270300001
  0
LINE
  5
14D
  8
┌▓È_1
 62
     5
 10
1016.0058042493999
 20
-90.421568023099994
 30
0.0
 11
1015.7373772721
 21
-91.152347608699998
 31
0.0
  0
LINE
  5
14E
  8
┌▓È_1
 62
     5
 10
1014.6430515467
 20
-91.231296054699996
 30
0.0
 11
1014.2399579626
 21
-92.328699025499986
 31
0.0
  0
ARC
  5
14F
  8
┌▓È_1
 62
     5
 10
1016.5866563924
 20
-93.190677261600001
 30
0.0
 40
2.5
 50
159.8309296683
 51
160.7900943619
  0
LINE
  5
150
  8
┌▓È_1
 62
     5
 10
929.53911295929993
 20
-93.622416003899986
 30
0.0
 11
929.53911295929993
 21
-84.059669937099997
 31
0.0
  0
LINE
  5
151
  8
┌▓È_1
 62
     5
 10
928.53911295930004
 20
-93.622416003899986
 30
0.0
 11
929.53911295929993
 21
-93.622416003899986
 31
0.0
  0
ARC
  5
152
  8
┌▓È_1
 62
     5
 10
1018.0391129593
 20
-200.12241600390001
 30
0.0
 40
1.0
 50
0.0
 51
90.0
  0
ARC
  5
153
  8
┌▓È_1
 62
     5
 10
1016.5866563924
 20
-87.989677261599994
 30
0.0
 40
1.5
 50
303.05610228
 51
312.3545217189
  0
ARC
  5
154
  8
┌▓È_1
 62
     5
 10
1016.5866563924
 20
-87.989677261599994
 30
0.0
 40
2.5
 50
300.40198024929998
 51
304.71338381010003
  0
ARC
  5
155
  8
┌▓È_1
 62
     5
 10
1016.5866563924
 20
-82.788677261599986
 30
0.0
 40
1.5
 50
159.8309002192
 51
261.99611861310001
  0
ARC
  5
156
  8
┌▓È_1
 62
     5
 10
1016.5866563924
 20
-82.788677261599986
 30
0.0
 40
2.5
 50
159.8309296683
 51
276.86223712029999
  0
ARC
  5
157
  8
┌▓È_1
 62
     5
 10
1016.5866563924
 20
-82.788677261599986
 30
0.0
 40
1.5
 50
303.05610228
 51
312.3545217189
  0
ARC
  5
158
  8
┌▓È_1
 62
     5
 10
1016.5866563924
 20
-82.788677261599986
 30
0.0
 40
2.5
 50
300.40198024929998
 51
304.71338381010003
  0
LINE
  5
159
  8
┌▓È_1
 62
     5
 10
1008.753681638
 20
-86.178262205599992
 30
0.0
 11
1005.1142768280999
 21
-83.393530148599993
 31
0.0
  0
LINE
  5
15A
  8
┌▓È_1
 62
     5
 10
1015.8437789058
 20
-88.426421491799985
 30
0.0
 11
1017.9233174547001
 21
-92.509988489400001
 31
0.0
  0
ARC
  5
15B
  8
┌▓È_1
 62
     5
 10
1016.5866563924
 20
-87.989677261599994
 30
0.0
 40
1.5
 50
312.3545217189
 51
26.987275520000001
  0
LINE
  5
15C
  8
┌▓È_1
 62
     5
 10
1016.0058042493999
 20
-85.2205680231
 30
0.0
 11
1015.1786374471
 21
-87.472490013400005
 31
0.0
  0
ARC
  5
15D
  8
┌▓È_1
 62
     5
 10
1012.4701563591
 20
-90.367796815499986
 30
0.0
 40
2.5
 50
48.060728885200007
 51
147.07027484060001
  0
LINE
  5
15E
  8
┌▓È_1
 62
     5
 10
1011.8648543123001
 20
-87.942181546699999
 30
0.0
 11
1011.2132345047
 21
-85.865632053400006
 31
0.0
  0
ARC
  5
15F
  8
┌▓È_1
 62
     5
 10
1016.4102101271
 20
-93.446104192099995
 30
0.0
 40
0.5
 50
255.57812271820001
 51
75.578185407500001
  0
ARC
  5
160
  8
┌▓È_1
 62
     5
 10
1016.5866563924
 20
-87.989677261599994
 30
0.0
 40
2.5
 50
159.8309296683
 51
276.86223712029999
  0
LINE
  5
161
  8
┌▓È_1
 62
     5
 10
1015.8199930018
 20
-82.826129329599993
 30
0.0
 11
1015.4670716619
 21
-83.786940769399976
 31
0.0
  0
ARC
  5
162
  8
┌▓È_1
 62
     5
 10
1016.2893325932
 20
-82.998525234400006
 30
0.0
 40
0.5
 50
26.987213627399999
 51
206.9872763166
  0
LINE
  5
163
  8
┌▓È_1
 62
     5
 10
1015.2776586182
 20
-92.403909619100006
 30
0.0
 11
1015.1988979282
 21
-92.618331824400002
 31
0.0
  0
LINE
  5
164
  8
┌▓È_1
 62
     5
 10
1015.8199930018
 20
-88.027129329599987
 30
0.0
 11
1015.4670716619
 21
-88.987940769400012
 31
0.0
  0
LINE
  5
165
  8
┌▓È_1
 62
     5
 10
1015.7706166054001
 20
-91.213766547900008
 30
0.0
 11
1015.1223883304
 21
-90.015984010899984
 31
0.0
  0
LINE
  5
166
  8
┌▓È_1
 62
     5
 10
1016.2856807465
 20
-93.930348379799995
 30
0.0
 11
1011.8475094561001
 21
-92.789017754200003
 31
0.0
  0
LINE
  5
167
  8
┌▓È_1
 62
     5
 10
1008.1460032837
 20
-86.972445445000005
 30
0.0
 11
1004.5065984737
 21
-84.187713388000006
 31
0.0
  0
POLYLINE
  5
168
  8
┌▓È_1
 62
     5
 10
1005.3373623795954
 20
-82.410521376378838
 30
0.0
 66
     1
 70
     8
  0
VERTEX
  8
┌▓È_1
  5
A1B
 10
1005.34
 20
-82.4105
 30
0.000000
  70
    32
  0
VERTEX
  8
┌▓È_1
  5
A1C
 10
1005.35
 20
-82.4195
 30
0.000000
  70
    32
  0
VERTEX
  8
┌▓È_1
  5
A1D
 10
1005.35
 20
-82.4282
 30
0.000000
  70
    32
  0
VERTEX
  8
┌▓È_1
  5
A1E
 10
1005.36
 20
-82.4367
 30
0.000000
  70
    32
  0
VERTEX
  8
┌▓È_1
  5
A1F
 10
1005.37
 20
-82.4450
 30
0.000000
  70
    32
  0
VERTEX
  8
┌▓È_1
  5
A20
 10
1005.38
 20
-82.4530
 30
0.000000
  70
    32
  0
VERTEX
  8
┌▓È_1
  5
A21
 10
1005.39
 20
-82.4609
 30
0.000000
  70
    32
  0
VERTEX
  8
┌▓È_1
  5
A22
 10
1005.40
 20
-82.4685
 30
0.000000
  70
    32
  0
VERTEX
  8
┌▓È_1
  5
A23
 10
1005.41
 20
-82.4758
 30
0.000000
  70
    32
  0
VERTEX
  8
┌▓È_1
  5
A24
 10
1005.42
 20
-82.4830
 30
0.000000
  70
    32
  0
VERTEX
  8
┌▓È_1
  5
A25
 10
1005.43
 20
-82.4898
 30
0.000000
  70
    32
  0
VERTEX
  8
┌▓È_1
  5
A26
 10
1005.44
 20
-82.4965
 30
0.000000
  70
    32
  0
VERTEX
  8
┌▓È_1
  5
A27
 10
1005.45
 20
-82.5028
 30
0.000000
  70
    32
  0
VERTEX
  8
┌▓È_1
  5
A28
 10
1005.46
 20
-82.5089
 30
0.000000
  70
    32
  0
VERTEX
  8
┌▓È_1
  5
A29
 10
1005.47
 20
-82.5148
 30
0.000000
  70
    32
  0
VERTEX
  8
┌▓È_1
  5
A2A
 10
1005.48
 20
-82.5204
 30
0.000000
  70
    32
  0
VERTEX
  8
┌▓È_1
  5
A2B
 10
1005.49
 20
-82.5257
 30
0.000000
  70
    32
  0
VERTEX
  8
┌▓È_1
  5
A2C
 10
1005.51
 20
-82.5307
 30
0.000000
  70
    32
  0
VERTEX
  8
┌▓È_1
  5
A2D
 10
1005.52
 20
-82.5355
 30
0.000000
  70
    32
  0
VERTEX
  8
┌▓È_1
  5
A2E
 10
1005.53
 20
-82.5399
 30
0.000000
  70
    32
  0
VERTEX
  8
┌▓È_1
  5
A2F
 10
1005.54
 20
-82.5441
 30
0.000000
  70
    32
  0
VERTEX
  8
┌▓È_1
  5
A30
 10
1005.55
 20
-82.5480
 30
0.000000
  70
    32
  0
VERTEX
  8
┌▓È_1
  5
A31
 10
1005.56
 20
-82.5517
 30
0.000000
  70
    32
  0
VERTEX
  8
┌▓È_1
  5
A32
 10
1005.58
 20
-82.5550
 30
0.000000
  70
    32
  0
VERTEX
  8
┌▓È_1
  5
A33
 10
1005.59
 20
-82.5581
 30
0.000000
  70
    32
  0
VERTEX
  8
┌▓È_1
  5
A34
 10
1005.60
 20
-82.5608
 30
0.000000
  70
    32
  0
VERTEX
  8
┌▓È_1
  5
A35
 10
1005.61
 20
-82.5633
 30
0.000000
  70
    32
  0
VERTEX
  8
┌▓È_1
  5
A36
 10
1005.62
 20
-82.5654
 30
0.000000
  70
    32
  0
VERTEX
  8
┌▓È_1
  5
A37
 10
1005.64
 20
-82.5673
 30
0.000000
  70
    32
  0
VERTEX
  8
┌▓È_1
  5
A38
 10
1005.65
 20
-82.5689
 30
0.000000
  70
    32
  0
VERTEX
  8
┌▓È_1
  5
A39
 10
1005.66
 20
-82.5701
 30
0.000000
  70
    32
  0
VERTEX
  8
┌▓È_1
  5
A3A
 10
1005.67
 20
-82.5711
 30
0.000000
  70
    32
  0
VERTEX
  8
┌▓È_1
  5
A3B
 10
1005.68
 20
-82.5718
 30
0.000000
  70
    32
  0
VERTEX
  8
┌▓È_1
  5
A3C
 10
1005.70
 20
-82.5721
 30
0.000000
  70
    32
  0
VERTEX
  8
┌▓È_1
  5
A3D
 10
1005.71
 20
-82.5722
 30
0.000000
  70
    32
  0
VERTEX
  8
┌▓È_1
  5
A3E
 10
1005.72
 20
-82.5720
 30
0.000000
  70
    32
  0
VERTEX
  8
┌▓È_1
  5
A3F
 10
1005.73
 20
-82.5714
 30
0.000000
  70
    32
  0
VERTEX
  8
┌▓È_1
  5
A40
 10
1005.75
 20
-82.5706
 30
0.000000
  70
    32
  0
VERTEX
  8
┌▓È_1
  5
A41
 10
1005.76
 20
-82.5695
 30
0.000000
  70
    32
  0
VERTEX
  8
┌▓È_1
  5
A42
 10
1005.77
 20
-82.5680
 30
0.000000
  70
    32
  0
VERTEX
  8
┌▓È_1
  5
A43
 10
1005.78
 20
-82.5663
 30
0.000000
  70
    32
  0
VERTEX
  8
┌▓È_1
  5
A44
 10
1005.79
 20
-82.5643
 30
0.000000
  70
    32
  0
VERTEX
  8
┌▓È_1
  5
A45
 10
1005.81
 20
-82.5619
 30
0.000000
  70
    32
  0
VERTEX
  8
┌▓È_1
  5
A46
 10
1005.82
 20
-82.5593
 30
0.000000
  70
    32
  0
VERTEX
  8
┌▓È_1
  5
A47
 10
1005.83
 20
-82.5564
 30
0.000000
  70
    32
  0
VERTEX
  8
┌▓È_1
  5
A48
 10
1005.84
 20
-82.5532
 30
0.000000
  70
    32
  0
VERTEX
  8
┌▓È_1
  5
A49
 10
1005.85
 20
-82.5497
 30
0.000000
  70
    32
  0
VERTEX
  8
┌▓È_1
  5
A4A
 10
1005.87
 20
-82.5459
 30
0.000000
  70
    32
  0
VERTEX
  8
┌▓È_1
  5
A4B
 10
1005.88
 20
-82.5418
 30
0.000000
  70
    32
  0
VERTEX
  8
┌▓È_1
  5
A4C
 10
1005.89
 20
-82.5375
 30
0.000000
  70
    32
  0
VERTEX
  8
┌▓È_1
  5
A4D
 10
1005.90
 20
-82.5328
 30
0.000000
  70
    32
  0
VERTEX
  8
┌▓È_1
  5
A4E
 10
1005.91
 20
-82.5279
 30
0.000000
  70
    32
  0
VERTEX
  8
┌▓È_1
  5
A4F
 10
1005.92
 20
-82.5228
 30
0.000000
  70
    32
  0
VERTEX
  8
┌▓È_1
  5
A50
 10
1005.93
 20
-82.5173
 30
0.000000
  70
    32
  0
VERTEX
  8
┌▓È_1
  5
A51
 10
1005.94
 20
-82.5116
 30
0.000000
  70
    32
  0
VERTEX
  8
┌▓È_1
  5
A52
 10
1005.95
 20
-82.5056
 30
0.000000
  70
    32
  0
VERTEX
  8
┌▓È_1
  5
A53
 10
1005.97
 20
-82.4993
 30
0.000000
  70
    32
  0
VERTEX
  8
┌▓È_1
  5
A54
 10
1005.98
 20
-82.4928
 30
0.000000
  70
    32
  0
VERTEX
  8
┌▓È_1
  5
A55
 10
1005.99
 20
-82.4861
 30
0.000000
  70
    32
  0
VERTEX
  8
┌▓È_1
  5
A56
 10
1006.00
 20
-82.4790
 30
0.000000
  70
    32
  0
VERTEX
  8
┌▓È_1
  5
A57
 10
1006.01
 20
-82.4718
 30
0.000000
  70
    32
  0
VERTEX
  8
┌▓È_1
  5
A58
 10
1006.02
 20
-82.4643
 30
0.000000
  70
    32
  0
VERTEX
  8
┌▓È_1
  5
A59
 10
1006.03
 20
-82.4566
 30
0.000000
  70
    32
  0
VERTEX
  8
┌▓È_1
  5
A5A
 10
1006.03
 20
-82.4486
 30
0.000000
  70
    32
  0
VERTEX
  8
┌▓È_1
  5
A5B
 10
1006.04
 20
-82.4404
 30
0.000000
  70
    32
  0
VERTEX
  8
┌▓È_1
  5
A5C
 10
1006.05
 20
-82.4320
 30
0.000000
  70
    32
  0
VERTEX
  8
┌▓È_1
  5
A5D
 10
1006.06
 20
-82.4234
 30
0.000000
  70
    32
  0
VERTEX
  8
┌▓È_1
  5
A5E
 10
1006.07
 20
-82.4145
 30
0.000000
  70
    32
  0
VERTEX
  8
┌▓È_1
  5
A5F
 10
1006.08
 20
-82.4055
 30
0.000000
  70
    32
  0
VERTEX
  8
┌▓È_1
  5
A60
 10
1006.09
 20
-82.3962
 30
0.000000
  70
    32
  0
VERTEX
  8
┌▓È_1
  5
A61
 10
1006.09
 20
-82.3868
 30
0.000000
  70
    32
  0
VERTEX
  8
┌▓È_1
  5
A62
 10
1006.10
 20
-82.3771
 30
0.000000
  70
    32
  0
VERTEX
  8
┌▓È_1
  5
A63
 10
1006.11
 20
-82.3673
 30
0.000000
  70
    32
  0
VERTEX
  8
┌▓È_1
  5
A64
 10
1006.12
 20
-82.3573
 30
0.000000
  70
    32
  0
VERTEX
  8
┌▓È_1
  5
A65
 10
1006.12
 20
-82.3472
 30
0.000000
  70
    32
  0
VERTEX
  8
┌▓È_1
  5
A66
 10
1006.13
 20
-82.3368
 30
0.000000
  70
    32
  0
VERTEX
  8
┌▓È_1
  5
A67
 10
1006.14
 20
-82.3263
 30
0.000000
  70
    32
  0
VERTEX
  8
┌▓È_1
  5
A68
 10
1006.14
 20
-82.3157
 30
0.000000
  70
    32
  0
VERTEX
  8
┌▓È_1
  5
A69
 10
1006.15
 20
-82.3049
 30
0.000000
  70
    32
  0
VERTEX
  8
┌▓È_1
  5
A6A
 10
1006.15
 20
-82.2940
 30
0.000000
  70
    32
  0
VERTEX
  8
┌▓È_1
  5
A6B
 10
1006.16
 20
-82.2829
 30
0.000000
  70
    32
  0
VERTEX
  8
┌▓È_1
  5
A6C
 10
1006.16
 20
-82.2717
 30
0.000000
  70
    32
  0
VERTEX
  8
┌▓È_1
  5
A6D
 10
1006.17
 20
-82.2604
 30
0.000000
  70
    32
  0
VERTEX
  8
┌▓È_1
  5
A6E
 10
1006.17
 20
-82.2490
 30
0.000000
  70
    32
  0
VERTEX
  8
┌▓È_1
  5
A6F
 10
1006.18
 20
-82.2375
 30
0.000000
  70
    32
  0
VERTEX
  8
┌▓È_1
  5
A70
 10
1006.18
 20
-82.2258
 30
0.000000
  70
    32
  0
VERTEX
  8
┌▓È_1
  5
A71
 10
1006.18
 20
-82.2141
 30
0.000000
  70
    32
  0
VERTEX
  8
┌▓È_1
  5
A72
 10
1006.19
 20
-82.2023
 30
0.000000
  70
    32
  0
VERTEX
  8
┌▓È_1
  5
A73
 10
1006.19
 20
-82.1904
 30
0.000000
  70
    32
  0
VERTEX
  8
┌▓È_1
  5
A74
 10
1006.19
 20
-82.1784
 30
0.000000
  70
    32
  0
VERTEX
  8
┌▓È_1
  5
A75
 10
1006.20
 20
-82.1664
 30
0.000000
  70
    32
  0
VERTEX
  8
┌▓È_1
  5
A76
 10
1006.20
 20
-82.1543
 30
0.000000
  70
    32
  0
VERTEX
  8
┌▓È_1
  5
A77
 10
1006.20
 20
-82.1422
 30
0.000000
  70
    32
  0
VERTEX
  8
┌▓È_1
  5
A78
 10
1006.20
 20
-82.1300
 30
0.000000
  70
    32
  0
VERTEX
  8
┌▓È_1
  5
A79
 10
1006.20
 20
-82.1178
 30
0.000000
  70
    32
  0
VERTEX
  8
┌▓È_1
  5
A7A
 10
1006.20
 20
-82.1056
 30
0.000000
  70
    32
  0
VERTEX
  8
┌▓È_1
  5
A7B
 10
1006.21
 20
-82.0934
 30
0.000000
  70
    32
  0
VERTEX
  8
┌▓È_1
  5
A7C
 10
1006.21
 20
-82.0811
 30
0.000000
  70
    32
  0
VERTEX
  8
┌▓È_1
  5
A7D
 10
1006.21
 20
-82.0688
 30
0.000000
  70
    32
  0
VERTEX
  8
┌▓È_1
  5
A7E
 10
1006.21
 20
-82.0565
 30
0.000000
  70
    32
  0
VERTEX
  8
┌▓È_1
  5
A7F
 10
1006.20
 20
-82.0443
 30
0.000000
  70
    32
  0
VERTEX
  8
┌▓È_1
  5
A80
 10
1006.20
 20
-82.0320
 30
0.000000
  70
    32
  0
VERTEX
  8
┌▓È_1
  5
A81
 10
1006.20
 20
-82.0198
 30
0.000000
  70
    32
  0
VERTEX
  8
┌▓È_1
  5
A82
 10
1006.20
 20
-82.0076
 30
0.000000
  70
    32
  0
VERTEX
  8
┌▓È_1
  5
A83
 10
1006.20
 20
-81.9955
 30
0.000000
  70
    32
  0
VERTEX
  8
┌▓È_1
  5
A84
 10
1006.20
 20
-81.9834
 30
0.000000
  70
    32
  0
VERTEX
  8
┌▓È_1
  5
A85
 10
1006.20
 20
-81.9713
 30
0.000000
  70
    32
  0
VERTEX
  8
┌▓È_1
  5
A86
 10
1006.19
 20
-81.9593
 30
0.000000
  70
    32
  0
VERTEX
  8
┌▓È_1
  5
A87
 10
1006.19
 20
-81.9474
 30
0.000000
  70
    32
  0
VERTEX
  8
┌▓È_1
  5
A88
 10
1006.19
 20
-81.9356
 30
0.000000
  70
    32
  0
VERTEX
  8
┌▓È_1
  5
A89
 10
1006.18
 20
-81.9238
 30
0.000000
  70
    32
  0
VERTEX
  8
┌▓È_1
  5
A8A
 10
1006.18
 20
-81.9121
 30
0.000000
  70
    32
  0
VERTEX
  8
┌▓È_1
  5
A8B
 10
1006.18
 20
-81.9006
 30
0.000000
  70
    32
  0
VERTEX
  8
┌▓È_1
  5
A8C
 10
1006.17
 20
-81.8891
 30
0.000000
  70
    32
  0
VERTEX
  8
┌▓È_1
  5
A8D
 10
1006.17
 20
-81.8777
 30
0.000000
  70
    32
  0
VERTEX
  8
┌▓È_1
  5
A8E
 10
1006.16
 20
-81.8665
 30
0.000000
  70
    32
  0
VERTEX
  8
┌▓È_1
  5
A8F
 10
1006.16
 20
-81.8554
 30
0.000000
  70
    32
  0
VERTEX
  8
┌▓È_1
  5
A90
 10
1006.15
 20
-81.8444
 30
0.000000
  70
    32
  0
VERTEX
  8
┌▓È_1
  5
A91
 10
1006.14
 20
-81.8335
 30
0.000000
  70
    32
  0
VERTEX
  8
┌▓È_1
  5
A92
 10
1006.14
 20
-81.8228
 30
0.000000
  70
    32
  0
VERTEX
  8
┌▓È_1
  5
A93
 10
1006.13
 20
-81.8123
 30
0.000000
  70
    32
  0
VERTEX
  8
┌▓È_1
  5
A94
 10
1006.13
 20
-81.8019
 30
0.000000
  70
    32
  0
VERTEX
  8
┌▓È_1
  5
A95
 10
1006.12
 20
-81.7916
 30
0.000000
  70
    32
  0
VERTEX
  8
┌▓È_1
  5
A96
 10
1006.11
 20
-81.7815
 30
0.000000
  70
    32
  0
VERTEX
  8
┌▓È_1
  5
A97
 10
1006.11
 20
-81.7716
 30
0.000000
  70
    32
  0
VERTEX
  8
┌▓È_1
  5
A98
 10
1006.10
 20
-81.7619
 30
0.000000
  70
    32
  0
VERTEX
  8
┌▓È_1
  5
A99
 10
1006.09
 20
-81.7524
 30
0.000000
  70
    32
  0
VERTEX
  8
┌▓È_1
  5
A9A
 10
1006.08
 20
-81.7431
 30
0.000000
  70
    32
  0
VERTEX
  8
┌▓È_1
  5
A9B
 10
1006.07
 20
-81.7339
 30
0.000000
  70
    32
  0
SEQEND
  8
┌▓È_1
  5
A9C
  0
ARC
  5
169
  8
┌▓È_1
 62
     5
 10
1006.0257943596
 20
-82.202255289600004
 30
0.0
 40
1.5
 50
158.1660443863
 51
232.57818461100001
  0
ARC
  5
16A
  8
┌▓È_1
 62
     5
 10
1008.827918919
 20
-86.614143613899984
 30
0.0
 40
2.5
 50
17.4218387592
 51
135.66166690079999
  0
ARC
  5
16B
  8
┌▓È_1
 62
     5
 10
1008.827918919
 20
-86.614143613899984
 30
0.0
 40
2.5
 50
158.81314314950001
 51
244.5781783612
  0
INSERT
  5
16D
  8
0
  6
CONTINUOUS
  2
*U28
 10
0.0
 20
0.0
 30
0.0
  0
INSERT
  5
16E
  8
0
  6
CONTINUOUS
  2
*U29
 10
0.0
 20
0.0
 30
0.0
  0
INSERT
  5
16F
  8
0
  6
CONTINUOUS
  2
*U30
 10
0.0
 20
0.0
 30
0.0
  0
INSERT
  5
170
  8
0
  6
CONTINUOUS
  2
*U31
 10
0.0
 20
0.0
 30
0.0
  0
INSERT
  5
171
  8
0
  6
CONTINUOUS
  2
*U32
 10
0.0
 20
0.0
 30
0.0
  0
INSERT
  5
172
  8
0
  6
CONTINUOUS
  2
*U33
 10
0.0
 20
0.0
 30
0.0
  0
INSERT
  5
173
  8
0
  6
CONTINUOUS
  2
*U34
 10
0.0
 20
0.0
 30
0.0
  0
INSERT
  5
174
  8
0
  6
CONTINUOUS
  2
*U35
 10
0.0
 20
0.0
 30
0.0
  0
INSERT
  5
175
  8
0
  6
CONTINUOUS
  2
*U36
 10
0.0
 20
0.0
 30
0.0
  0
LINE
  5
176
  8
┌▓È_1
 62
     5
 10
1015.8437789058
 20
-78.024421491799998
 30
0.0
 11
1017.9233174547001
 21
-82.107988489399986
 31
0.0
  0
LINE
  5
177
  8
┌▓È_1
 62
     5
 10
1006.0737175358
 20
-81.733926162100005
 30
0.0
 11
1002.9731671096
 21
-78.359524429299995
 31
0.0
  0
LINE
  5
178
  8
┌▓È_1
 62
     5
 10
1016.0058042493999
 20
-80.019568023100007
 30
0.0
 11
1015.1786374471
 21
-82.271490013399998
 31
0.0
  0
LINE
  5
179
  8
┌▓È_1
 62
     5
 10
1015.0647056504999
 20
-79.681362958199983
 30
0.0
 11
1014.2399579626
 21
-81.926699025499985
 31
0.0
  0
ARC
  5
17A
  8
┌▓È_1
 62
     5
 10
1006.0257943596
 20
-82.202255289600004
 30
0.0
 40
2.5
 50
5.421838759199999
 51
124.4803823641
  0
ARC
  5
17B
  8
┌▓È_1
 62
     5
 10
1016.5866563924
 20
-77.587677261599993
 30
0.0
 40
2.5
 50
300.40198024929998
 51
304.71338381010003
  0
LINE
  5
17C
  8
┌▓È_1
 62
     5
 10
1005.3373627088
 20
-82.410521734699998
 30
0.0
 11
1002.2368122827
 21
-79.036120001800001
 31
0.0
  0
ARC
  5
17D
  8
┌▓È_1
 62
     5
 10
1016.5866563924
 20
-77.587677261599993
 30
0.0
 40
1.5
 50
303.05610228
 51
312.3545217189
  0
LINE
  5
17E
  8
┌▓È_1
 62
     5
 10
1015.8199930018
 20
-77.6251293296
 30
0.0
 11
1015.4670716619
 21
-78.585940769399997
 31
0.0
  0
ARC
  5
17F
  8
┌▓È_1
 62
     5
 10
1006.0257943596
 20
-82.202255289600004
 30
0.0
 40
1.5
 50
5.4218093100999987
 51
119.0
  0
LINE
  5
180
  8
┌▓È_1
 62
     5
 10
1006.2039447833
 20
-82.112133770499995
 30
0.0
 11
1006.314593261
 21
-80.730319423300003
 31
0.0
  0
ARC
  5
181
  8
┌▓È_1
 62
     5
 10
1008.827918919
 20
-86.614143613899984
 30
0.0
 40
1.5
 50
17.421809310099999
 51
130.9999969605
  0
LINE
  5
182
  8
┌▓È_1
 62
     5
 10
1007.7377454487
 20
-84.364361001199995
 30
0.0
 11
1007.5190834354
 21
-82.060524079200007
 31
0.0
  0
LINE
  5
183
  8
┌▓È_1
 62
     5
 10
1015.0647056504999
 20
-84.882362958200005
 30
0.0
 11
1014.2399579626
 21
-87.127699025499979
 31
0.0
  0
ARC
  5
184
  8
┌▓È_1
 62
     5
 10
1016.5866563924
 20
-87.989677261599994
 30
0.0
 40
1.5
 50
159.8309002192
 51
261.99611861310001
  0
ARC
  5
185
  8
┌▓È_1
 62
     5
 10
1008.827918919
 20
-86.614143613899984
 30
0.0
 40
1.5
 50
170.35066347860001
 51
244.57818461100001
  0
ARC
  5
186
  8
┌▓È_1
 62
     5
 10
811.64379538949993
 20
-196.2437363475
 30
0.0
 40
3.0
 50
270.0
 51
0.0
  0
ARC
  5
187
  8
┌▓È_1
 62
     5
 10
822.5224750458998
 20
-207.12241600390001
 30
0.0
 40
3.0
 50
270.0
 51
0.0
  0
DIMENSION
  5
196
  8
Éíû@É³
  2
*D2
 10
825.52247504589991
 20
-3.1224160038999988
 30
0.0
 11
820.52247504589991
 21
-3.1224160038999988
 31
0.0
 70
   128
  1
<>
 13
825.52247504589991
 23
-23.1224160039
 33
0.0
 14
815.5224750458998
 24
-33.1224160039
 34
0.0
  0
DIMENSION
  5
1A6
  8
Éíû@É³
  2
*D3
 10
738.86212348339996
 20
-73.501095660299995
 30
0.0
 11
738.86212348339996
 21
-52.251095660299988
 31
0.0
 70
   128
  1
<>
 13
718.86212348339996
 23
-73.501095660299995
 33
0.0
 14
708.02247504589991
 24
-31.001095660299999
 34
0.0
 50
90.0
  0
INSERT
  5
1A7
  8
0
  6
CONTINUOUS
  2
*U37
 10
0.0
 20
0.0
 30
0.0
  0
LINE
  5
1A8
  8
┌▓È_1
  6
STITCH
 10
704.02247504589991
 20
-66.051404057900001
 30
0.0
 11
704.02247504589991
 21
-59.851095660299997
 31
0.0
  0
LINE
  5
1A9
  8
┌▓È_1
  6
STITCH
 10
712.02247504589991
 20
-66.051095660299993
 30
0.0
 11
712.02247504589991
 21
-59.851095660299997
 31
0.0
  0
LINE
  5
1AA
  8
┌▓È_1
  6
STITCH
 10
704.02247504589991
 20
-66.051095660299993
 30
0.0
 11
712.02247504589991
 21
-66.051095660299993
 31
0.0
  0
ARC
  5
1AB
  8
┌▓È_1
  6
STITCH
 10
708.02247504589991
 20
-59.851095660299997
 30
0.0
 40
4.0
 50
0.0000000702
 51
179.99999732160001
  0
ARC
  5
1AC
  8
┌▓È_1
 62
     5
 10
812.52247504589991
 20
-33.1224160039
 30
0.0
 40
3.0
 50
0.0
 51
90.0
  0
ARC
  5
1AD
  8
┌▓È_1
 62
     5
 10
811.64379538949993
 20
-34.001095660300003
 30
0.0
 40
3.0
 50
0.0
 51
90.0
  0
ARC
  5
1AE
  8
┌▓È_1
 62
     5
 10
822.5224750458998
 20
-23.1224160039
 30
0.0
 40
3.0
 50
0.0
 51
90.0
  0
INSERT
  5
1AF
  8
0
  6
CONTINUOUS
  2
*U38
 10
0.0
 20
0.0
 30
0.0
  0
INSERT
  5
1B0
  8
0
  6
CONTINUOUS
  2
*U39
 10
0.0
 20
0.0
 30
0.0
  0
INSERT
  5
1B1
  8
0
  6
CONTINUOUS
  2
*U40
 10
0.0
 20
0.0
 30
0.0
  0
INSERT
  5
1B2
  8
0
  6
CONTINUOUS
  2
*U41
 10
0.0
 20
0.0
 30
0.0
  0
INSERT
  5
1B3
  8
0
  6
CONTINUOUS
  2
*U42
 10
0.0
 20
0.0
 30
0.0
  0
INSERT
  5
1B4
  8
0
  6
CONTINUOUS
  2
*U43
 10
0.0
 20
0.0
 30
0.0
  0
INSERT
  5
1B5
  8
0
  6
CONTINUOUS
  2
*U44
 10
0.0
 20
0.0
 30
0.0
  0
INSERT
  5
1B6
  8
0
  6
CONTINUOUS
  2
*U45
 10
0.0
 20
0.0
 30
0.0
  0
INSERT
  5
1B7
  8
0
  6
CONTINUOUS
  2
*U46
 10
0.0
 20
0.0
 30
0.0
  0
INSERT
  5
1B8
  8
0
  6
CONTINUOUS
  2
*U47
 10
0.0
 20
0.0
 30
0.0
  0
INSERT
  5
1B9
  8
0
  6
CONTINUOUS
  2
*U48
 10
0.0
 20
0.0
 30
0.0
  0
INSERT
  5
1BA
  8
0
  6
CONTINUOUS
  2
*U49
 10
0.0
 20
0.0
 30
0.0
  0
INSERT
  5
1BB
  8
0
  6
CONTINUOUS
  2
*U50
 10
0.0
 20
0.0
 30
0.0
  0
LINE
  5
1BC
  8
┌▓È_1
 62
     5
 10
808.40182266299996
 20
-304.5065687064
 30
0.0
 11
812.64441976809985
 21
-308.74925297499999
 31
0.0
  0
LINE
  5
1BD
  8
┌▓È_1
 62
     5
 10
812.64446334990009
 20
-304.50661228809997
 30
0.0
 11
808.40177908119995
 21
-308.74920939330002
 31
0.0
  0
LINE
  5
1BE
  8
┌▓È_1
 62
     5
 10
812.64408440310001
 20
-341.396701619
 30
0.0
 11
808.40140013439998
 21
-345.63929872410012
 31
0.0
  0
LINE
  5
1BF
  8
┌▓È_1
 62
     5
 10
808.40144371619999
 20
-341.39665803719998
 30
0.0
 11
812.64404082129988
 21
-345.63934230590002
 31
0.0
  0
LINE
  5
1C0
  8
┌▓È_1
 62
     5
 10
814.52252432880005
 20
-299.51804125630002
 30
0.0
 11
814.52250378410008
 21
-301.51804125619998
 31
0.0
  0
INSERT
  5
1C2
  8
Éíû@É³
  2
BALLON0
 10
0.0
 20
0.0
 30
0.0
  0
LINE
  5
1CB
  8
┌▓È_1
 62
     5
 10
825.52247504589991
 20
-294.51694725390001
 30
0.0
 11
825.52247504589991
 21
-299.51694725390001
 31
0.0
  0
ARC
  5
1CC
  8
┌▓È_1
 62
     5
 10
824.5224750458998
 20
-294.51694725390001
 30
0.0
 40
1.0
 50
0.0
 51
90.0
  0
ARC
  5
1CD
  8
┌▓È_1
 62
     5
 10
593.5224750458998
 20
-207.12241600390001
 30
0.0
 40
3.0
 50
180.0
 51
270.0
  0
ARC
  5
1CE
  8
┌▓È_1
 62
     5
 10
604.40115470239994
 20
-196.2437363475
 30
0.0
 40
3.0
 50
180.0
 51
270.0
  0
ARC
  5
1CF
  8
┌▓È_1
 62
     5
 10
603.52247504589991
 20
-197.12241600390001
 30
0.0
 40
3.0
 50
180.0
 51
270.0
  0
DIMENSION
  5
1DE
  8
Éíû@É³
  2
*D5
 10
600.52247504589991
 20
-3.1224160038999988
 30
0.0
 11
595.52247504589991
 21
-3.1224160038999988
 31
0.0
 70
   128
  1
<>
 13
600.52247504589991
 23
-33.1224160039
 33
0.0
 14
590.52247504589991
 24
-23.1224160039
 34
0.0
  0
ARC
  5
1DF
  8
┌▓È_1
 62
     5
 10
604.40115470239994
 20
-34.001095660300003
 30
0.0
 40
3.0
 50
90.0
 51
180.0
  0
ARC
  5
1E0
  8
┌▓È_1
 62
     5
 10
603.52247504589991
 20
-33.1224160039
 30
0.0
 40
3.0
 50
90.0
 51
180.0
  0
ARC
  5
1E1
  8
┌▓È_1
 62
     5
 10
593.5224750458998
 20
-23.1224160039
 30
0.0
 40
3.0
 50
90.0
 51
180.0
  0
DIMENSION
  5
1EB
  8
Éíû@É³
  2
*D6
 10
714.38643607660003
 20
-157.87945497320001
 30
0.0
 11
723.9305477065999
 21
-149.86219499719999
 31
0.0
 70
   131
  1
<>
 15
701.65851401520001
 25
-170.60737703460001
 35
0.0
 40
0.0
  0
DIMENSION
  5
1FA
  8
Éíû@É³
  2
*D7
 10
672.35778248509996
 20
-164.24341600389999
 30
0.0
 11
672.35778248509996
 21
-181.74357617570001
 31
0.0
 70
   128
  1
<>
 13
691.92221462919997
 23
-164.24341600389999
 33
0.0
 14
696.35811957719989
 24
-199.2437363475
 34
0.0
 50
90.0
  0
INSERT
  5
1FB
  8
0
  6
CONTINUOUS
  2
*U52
 10
0.0
 20
0.0
 30
0.0
  0
LINE
  5
1FC
  8
┌▓È_1
  6
STITCH
 10
704.02247504589991
 20
-87.151095660299987
 30
0.0
 11
704.02247504589991
 21
-80.950787262700004
 31
0.0
  0
LINE
  5
1FD
  8
┌▓È_1
  6
STITCH
 10
712.02247504589991
 20
-87.151095660299987
 30
0.0
 11
712.02247504589991
 21
-80.951095660299998
 31
0.0
  0
LINE
  5
1FE
  8
┌▓È_1
  6
STITCH
 10
704.02247504589991
 20
-80.951095660299998
 30
0.0
 11
712.02247504589991
 21
-80.951095660299998
 31
0.0
  0
ARC
  5
1FF
  8
┌▓È_1
  6
STITCH
 10
708.02247504589991
 20
-87.151095660299987
 30
0.0
 40
4.0
 50
179.99999732160001
 51
0.0000000702
  0
ARC
  5
200
  8
┌▓È_1
 62
     5
 10
812.52247504589991
 20
-197.12241600390001
 30
0.0
 40
3.0
 50
270.0
 51
0.0
  0
CIRCLE
  5
201
  8
┌▓È_1
 62
     5
 10
708.02247504589991
 20
-164.24341600389999
 30
0.0
 40
9.0
  0
LINE
  5
202
  8
┌▓È_1
  6
BORDER
 62
     3
 10
693.0224750458998
 20
-164.24341600389999
 30
0.0
 11
723.02247504589991
 21
-164.24341600389999
 31
0.0
  0
LINE
  5
203
  8
┌▓È_1
 62
     5
 10
590.52247504589991
 20
-294.51694725390001
 30
0.0
 11
590.52247504589991
 21
-299.51694725390001
 31
0.0
  0
LINE
  5
204
  8
┌▓È_1
 62
     5
 10
808.40107166210009
 20
-377.61574839000002
 30
0.0
 11
812.64366876719987
 21
-381.8584326587
 31
0.0
  0
LINE
  5
205
  8
┌▓È_1
 62
     5
 10
812.64371234899988
 20
-377.61579197179998
 30
0.0
 11
808.40102808029985
 21
-381.8583890769001
 31
0.0
  0
LINE
  5
206
  8
┌▓È_1
 62
     5
 10
805.52231083149991
 20
-385.5179488076999
 30
0.0
 11
815.52231083100003
 21
-385.51805153089998
 31
0.0
  0
LINE
  5
207
  8
┌▓È_1
 62
     5
 10
814.52164090919985
 20
-385.51804125170003
 30
0.0
 11
814.52162036460004
 21
-387.51804125159998
 31
0.0
  0
LINE
  5
208
  8
┌▓È_1
 62
     5
 10
823.02247504589991
 20
-388.51694725390001
 30
0.0
 11
823.02247504589991
 21
-387.51694725390001
 31
0.0
  0
ARC
  5
209
  8
┌▓È_1
  6
STITCH
 10
708.02214008500005
 20
-358.65338931119999
 30
0.0
 40
4.0
 50
180.0
 51
270.0
  0
ARC
  5
20A
  8
┌▓È_1
  6
STITCH
 10
708.02214008500005
 20
-358.65338931119999
 30
0.0
 40
4.0
 50
270.0
 51
0.0
  0
INSERT
  5
20B
  8
0
  6
CONTINUOUS
  2
*U53
 10
0.0
 20
0.0
 30
0.0
  0
INSERT
  5
20C
  8
0
  6
CONTINUOUS
  2
*U54
 10
0.0
 20
0.0
 30
0.0
  0
INSERT
  5
20D
  8
0
  6
CONTINUOUS
  2
*U55
 10
0.0
 20
0.0
 30
0.0
  0
POLYLINE
  5
20E
  8
┌▓È_1
  6
STITCH
 10
704.02214008500005
 20
-337.65338931119999
 30
0.0
 66
     1
 70
     8
  0
VERTEX
  8
┌▓È_1
  5
A9D
 10
704.022
 20
-337.653
 30
0.000000
  70
    32
  0
VERTEX
  8
┌▓È_1
  5
A9E
 10
704.071
 20
-337.656
 30
0.000000
  70
    32
  0
VERTEX
  8
┌▓È_1
  5
A9F
 10
704.120
 20
-337.662
 30
0.000000
  70
    32
  0
VERTEX
  8
┌▓È_1
  5
AA0
 10
704.169
 20
-337.674
 30
0.000000
  70
    32
  0
VERTEX
  8
┌▓È_1
  5
AA1
 10
704.218
 20
-337.690
 30
0.000000
  70
    32
  0
VERTEX
  8
┌▓È_1
  5
AA2
 10
704.267
 20
-337.710
 30
0.000000
  70
    32
  0
VERTEX
  8
┌▓È_1
  5
AA3
 10
704.316
 20
-337.735
 30
0.000000
  70
    32
  0
VERTEX
  8
┌▓È_1
  5
AA4
 10
704.364
 20
-337.764
 30
0.000000
  70
    32
  0
VERTEX
  8
┌▓È_1
  5
AA5
 10
704.412
 20
-337.797
 30
0.000000
  70
    32
  0
VERTEX
  8
┌▓È_1
  5
AA6
 10
704.460
 20
-337.836
 30
0.000000
  70
    32
  0
VERTEX
  8
┌▓È_1
  5
AA7
 10
704.508
 20
-337.878
 30
0.000000
  70
    32
  0
VERTEX
  8
┌▓È_1
  5
AA8
 10
704.556
 20
-337.925
 30
0.000000
  70
    32
  0
VERTEX
  8
┌▓È_1
  5
AA9
 10
704.603
 20
-337.976
 30
0.000000
  70
    32
  0
VERTEX
  8
┌▓È_1
  5
AAA
 10
704.650
 20
-338.032
 30
0.000000
  70
    32
  0
VERTEX
  8
┌▓È_1
  5
AAB
 10
704.696
 20
-338.092
 30
0.000000
  70
    32
  0
VERTEX
  8
┌▓È_1
  5
AAC
 10
704.742
 20
-338.156
 30
0.000000
  70
    32
  0
VERTEX
  8
┌▓È_1
  5
AAD
 10
704.788
 20
-338.224
 30
0.000000
  70
    32
  0
VERTEX
  8
┌▓È_1
  5
AAE
 10
704.833
 20
-338.297
 30
0.000000
  70
    32
  0
VERTEX
  8
┌▓È_1
  5
AAF
 10
704.877
 20
-338.373
 30
0.000000
  70
    32
  0
VERTEX
  8
┌▓È_1
  5
AB0
 10
704.921
 20
-338.454
 30
0.000000
  70
    32
  0
VERTEX
  8
┌▓È_1
  5
AB1
 10
704.965
 20
-338.539
 30
0.000000
  70
    32
  0
VERTEX
  8
┌▓È_1
  5
AB2
 10
705.008
 20
-338.628
 30
0.000000
  70
    32
  0
VERTEX
  8
┌▓È_1
  5
AB3
 10
705.050
 20
-338.720
 30
0.000000
  70
    32
  0
VERTEX
  8
┌▓È_1
  5
AB4
 10
705.092
 20
-338.817
 30
0.000000
  70
    32
  0
VERTEX
  8
┌▓È_1
  5
AB5
 10
705.133
 20
-338.917
 30
0.000000
  70
    32
  0
VERTEX
  8
┌▓È_1
  5
AB6
 10
705.174
 20
-339.022
 30
0.000000
  70
    32
  0
VERTEX
  8
┌▓È_1
  5
AB7
 10
705.214
 20
-339.129
 30
0.000000
  70
    32
  0
VERTEX
  8
┌▓È_1
  5
AB8
 10
705.253
 20
-339.241
 30
0.000000
  70
    32
  0
VERTEX
  8
┌▓È_1
  5
AB9
 10
705.291
 20
-339.356
 30
0.000000
  70
    32
  0
VERTEX
  8
┌▓È_1
  5
ABA
 10
705.328
 20
-339.474
 30
0.000000
  70
    32
  0
VERTEX
  8
┌▓È_1
  5
ABB
 10
705.365
 20
-339.596
 30
0.000000
  70
    32
  0
VERTEX
  8
┌▓È_1
  5
ABC
 10
705.401
 20
-339.722
 30
0.000000
  70
    32
  0
VERTEX
  8
┌▓È_1
  5
ABD
 10
705.436
 20
-339.850
 30
0.000000
  70
    32
  0
VERTEX
  8
┌▓È_1
  5
ABE
 10
705.471
 20
-339.982
 30
0.000000
  70
    32
  0
VERTEX
  8
┌▓È_1
  5
ABF
 10
705.504
 20
-340.117
 30
0.000000
  70
    32
  0
VERTEX
  8
┌▓È_1
  5
AC0
 10
705.537
 20
-340.255
 30
0.000000
  70
    32
  0
VERTEX
  8
┌▓È_1
  5
AC1
 10
705.568
 20
-340.395
 30
0.000000
  70
    32
  0
VERTEX
  8
┌▓È_1
  5
AC2
 10
705.599
 20
-340.539
 30
0.000000
  70
    32
  0
VERTEX
  8
┌▓È_1
  5
AC3
 10
705.629
 20
-340.686
 30
0.000000
  70
    32
  0
VERTEX
  8
┌▓È_1
  5
AC4
 10
705.657
 20
-340.835
 30
0.000000
  70
    32
  0
VERTEX
  8
┌▓È_1
  5
AC5
 10
705.685
 20
-340.987
 30
0.000000
  70
    32
  0
VERTEX
  8
┌▓È_1
  5
AC6
 10
705.712
 20
-341.141
 30
0.000000
  70
    32
  0
VERTEX
  8
┌▓È_1
  5
AC7
 10
705.738
 20
-341.298
 30
0.000000
  70
    32
  0
VERTEX
  8
┌▓È_1
  5
AC8
 10
705.762
 20
-341.457
 30
0.000000
  70
    32
  0
VERTEX
  8
┌▓È_1
  5
AC9
 10
705.786
 20
-341.618
 30
0.000000
  70
    32
  0
VERTEX
  8
┌▓È_1
  5
ACA
 10
705.809
 20
-341.781
 30
0.000000
  70
    32
  0
VERTEX
  8
┌▓È_1
  5
ACB
 10
705.830
 20
-341.947
 30
0.000000
  70
    32
  0
VERTEX
  8
┌▓È_1
  5
ACC
 10
705.851
 20
-342.114
 30
0.000000
  70
    32
  0
VERTEX
  8
┌▓È_1
  5
ACD
 10
705.870
 20
-342.283
 30
0.000000
  70
    32
  0
VERTEX
  8
┌▓È_1
  5
ACE
 10
705.888
 20
-342.454
 30
0.000000
  70
    32
  0
VERTEX
  8
┌▓È_1
  5
ACF
 10
705.905
 20
-342.627
 30
0.000000
  70
    32
  0
VERTEX
  8
┌▓È_1
  5
AD0
 10
705.921
 20
-342.801
 30
0.000000
  70
    32
  0
VERTEX
  8
┌▓È_1
  5
AD1
 10
705.936
 20
-342.976
 30
0.000000
  70
    32
  0
VERTEX
  8
┌▓È_1
  5
AD2
 10
705.950
 20
-343.153
 30
0.000000
  70
    32
  0
VERTEX
  8
┌▓È_1
  5
AD3
 10
705.962
 20
-343.331
 30
0.000000
  70
    32
  0
VERTEX
  8
┌▓È_1
  5
AD4
 10
705.974
 20
-343.510
 30
0.000000
  70
    32
  0
VERTEX
  8
┌▓È_1
  5
AD5
 10
705.984
 20
-343.690
 30
0.000000
  70
    32
  0
VERTEX
  8
┌▓È_1
  5
AD6
 10
705.993
 20
-343.871
 30
0.000000
  70
    32
  0
VERTEX
  8
┌▓È_1
  5
AD7
 10
706.000
 20
-344.053
 30
0.000000
  70
    32
  0
VERTEX
  8
┌▓È_1
  5
AD8
 10
706.007
 20
-344.235
 30
0.000000
  70
    32
  0
VERTEX
  8
┌▓È_1
  5
AD9
 10
706.013
 20
-344.418
 30
0.000000
  70
    32
  0
VERTEX
  8
┌▓È_1
  5
ADA
 10
706.017
 20
-344.602
 30
0.000000
  70
    32
  0
VERTEX
  8
┌▓È_1
  5
ADB
 10
706.020
 20
-344.785
 30
0.000000
  70
    32
  0
VERTEX
  8
┌▓È_1
  5
ADC
 10
706.022
 20
-344.969
 30
0.000000
  70
    32
  0
VERTEX
  8
┌▓È_1
  5
ADD
 10
706.022
 20
-345.153
 30
0.000000
  70
    32
  0
VERTEX
  8
┌▓È_1
  5
ADE
 10
706.022
 20
-345.337
 30
0.000000
  70
    32
  0
VERTEX
  8
┌▓È_1
  5
ADF
 10
706.020
 20
-345.521
 30
0.000000
  70
    32
  0
VERTEX
  8
┌▓È_1
  5
AE0
 10
706.017
 20
-345.705
 30
0.000000
  70
    32
  0
VERTEX
  8
┌▓È_1
  5
AE1
 10
706.013
 20
-345.889
 30
0.000000
  70
    32
  0
VERTEX
  8
┌▓È_1
  5
AE2
 10
706.007
 20
-346.071
 30
0.000000
  70
    32
  0
VERTEX
  8
┌▓È_1
  5
AE3
 10
706.000
 20
-346.254
 30
0.000000
  70
    32
  0
VERTEX
  8
┌▓È_1
  5
AE4
 10
705.993
 20
-346.436
 30
0.000000
  70
    32
  0
VERTEX
  8
┌▓È_1
  5
AE5
 10
705.984
 20
-346.617
 30
0.000000
  70
    32
  0
VERTEX
  8
┌▓È_1
  5
AE6
 10
705.974
 20
-346.797
 30
0.000000
  70
    32
  0
VERTEX
  8
┌▓È_1
  5
AE7
 10
705.962
 20
-346.976
 30
0.000000
  70
    32
  0
VERTEX
  8
┌▓È_1
  5
AE8
 10
705.950
 20
-347.154
 30
0.000000
  70
    32
  0
VERTEX
  8
┌▓È_1
  5
AE9
 10
705.936
 20
-347.331
 30
0.000000
  70
    32
  0
VERTEX
  8
┌▓È_1
  5
AEA
 10
705.921
 20
-347.506
 30
0.000000
  70
    32
  0
VERTEX
  8
┌▓È_1
  5
AEB
 10
705.905
 20
-347.680
 30
0.000000
  70
    32
  0
VERTEX
  8
┌▓È_1
  5
AEC
 10
705.888
 20
-347.853
 30
0.000000
  70
    32
  0
VERTEX
  8
┌▓È_1
  5
AED
 10
705.870
 20
-348.024
 30
0.000000
  70
    32
  0
VERTEX
  8
┌▓È_1
  5
AEE
 10
705.851
 20
-348.193
 30
0.000000
  70
    32
  0
VERTEX
  8
┌▓È_1
  5
AEF
 10
705.830
 20
-348.360
 30
0.000000
  70
    32
  0
VERTEX
  8
┌▓È_1
  5
AF0
 10
705.809
 20
-348.525
 30
0.000000
  70
    32
  0
VERTEX
  8
┌▓È_1
  5
AF1
 10
705.786
 20
-348.689
 30
0.000000
  70
    32
  0
VERTEX
  8
┌▓È_1
  5
AF2
 10
705.762
 20
-348.850
 30
0.000000
  70
    32
  0
VERTEX
  8
┌▓È_1
  5
AF3
 10
705.738
 20
-349.009
 30
0.000000
  70
    32
  0
VERTEX
  8
┌▓È_1
  5
AF4
 10
705.712
 20
-349.166
 30
0.000000
  70
    32
  0
VERTEX
  8
┌▓È_1
  5
AF5
 10
705.685
 20
-349.320
 30
0.000000
  70
    32
  0
VERTEX
  8
┌▓È_1
  5
AF6
 10
705.657
 20
-349.472
 30
0.000000
  70
    32
  0
VERTEX
  8
┌▓È_1
  5
AF7
 10
705.629
 20
-349.621
 30
0.000000
  70
    32
  0
VERTEX
  8
┌▓È_1
  5
AF8
 10
705.599
 20
-349.768
 30
0.000000
  70
    32
  0
VERTEX
  8
┌▓È_1
  5
AF9
 10
705.568
 20
-349.911
 30
0.000000
  70
    32
  0
VERTEX
  8
┌▓È_1
  5
AFA
 10
705.537
 20
-350.052
 30
0.000000
  70
    32
  0
VERTEX
  8
┌▓È_1
  5
AFB
 10
705.504
 20
-350.190
 30
0.000000
  70
    32
  0
VERTEX
  8
┌▓È_1
  5
AFC
 10
705.471
 20
-350.325
 30
0.000000
  70
    32
  0
VERTEX
  8
┌▓È_1
  5
AFD
 10
705.436
 20
-350.457
 30
0.000000
  70
    32
  0
VERTEX
  8
┌▓È_1
  5
AFE
 10
705.401
 20
-350.585
 30
0.000000
  70
    32
  0
VERTEX
  8
┌▓È_1
  5
AFF
 10
705.365
 20
-350.711
 30
0.000000
  70
    32
  0
VERTEX
  8
┌▓È_1
  5
B00
 10
705.328
 20
-350.832
 30
0.000000
  70
    32
  0
VERTEX
  8
┌▓È_1
  5
B01
 10
705.291
 20
-350.951
 30
0.000000
  70
    32
  0
VERTEX
  8
┌▓È_1
  5
B02
 10
705.253
 20
-351.066
 30
0.000000
  70
    32
  0
VERTEX
  8
┌▓È_1
  5
B03
 10
705.214
 20
-351.177
 30
0.000000
  70
    32
  0
VERTEX
  8
┌▓È_1
  5
B04
 10
705.174
 20
-351.285
 30
0.000000
  70
    32
  0
VERTEX
  8
┌▓È_1
  5
B05
 10
705.133
 20
-351.389
 30
0.000000
  70
    32
  0
VERTEX
  8
┌▓È_1
  5
B06
 10
705.092
 20
-351.490
 30
0.000000
  70
    32
  0
VERTEX
  8
┌▓È_1
  5
B07
 10
705.050
 20
-351.586
 30
0.000000
  70
    32
  0
VERTEX
  8
┌▓È_1
  5
B08
 10
705.008
 20
-351.679
 30
0.000000
  70
    32
  0
VERTEX
  8
┌▓È_1
  5
B09
 10
704.965
 20
-351.768
 30
0.000000
  70
    32
  0
VERTEX
  8
┌▓È_1
  5
B0A
 10
704.921
 20
-351.853
 30
0.000000
  70
    32
  0
VERTEX
  8
┌▓È_1
  5
B0B
 10
704.877
 20
-351.933
 30
0.000000
  70
    32
  0
VERTEX
  8
┌▓È_1
  5
B0C
 10
704.833
 20
-352.010
 30
0.000000
  70
    32
  0
VERTEX
  8
┌▓È_1
  5
B0D
 10
704.788
 20
-352.082
 30
0.000000
  70
    32
  0
VERTEX
  8
┌▓È_1
  5
B0E
 10
704.742
 20
-352.151
 30
0.000000
  70
    32
  0
VERTEX
  8
┌▓È_1
  5
B0F
 10
704.696
 20
-352.215
 30
0.000000
  70
    32
  0
VERTEX
  8
┌▓È_1
  5
B10
 10
704.650
 20
-352.275
 30
0.000000
  70
    32
  0
VERTEX
  8
┌▓È_1
  5
B11
 10
704.603
 20
-352.330
 30
0.000000
  70
    32
  0
VERTEX
  8
┌▓È_1
  5
B12
 10
704.556
 20
-352.382
 30
0.000000
  70
    32
  0
VERTEX
  8
┌▓È_1
  5
B13
 10
704.508
 20
-352.429
 30
0.000000
  70
    32
  0
VERTEX
  8
┌▓È_1
  5
B14
 10
704.460
 20
-352.471
 30
0.000000
  70
    32
  0
VERTEX
  8
┌▓È_1
  5
B15
 10
704.412
 20
-352.509
 30
0.000000
  70
    32
  0
VERTEX
  8
┌▓È_1
  5
B16
 10
704.364
 20
-352.543
 30
0.000000
  70
    32
  0
VERTEX
  8
┌▓È_1
  5
B17
 10
704.316
 20
-352.572
 30
0.000000
  70
    32
  0
VERTEX
  8
┌▓È_1
  5
B18
 10
704.267
 20
-352.597
 30
0.000000
  70
    32
  0
VERTEX
  8
┌▓È_1
  5
B19
 10
704.218
 20
-352.617
 30
0.000000
  70
    32
  0
VERTEX
  8
┌▓È_1
  5
B1A
 10
704.169
 20
-352.633
 30
0.000000
  70
    32
  0
VERTEX
  8
┌▓È_1
  5
B1B
 10
704.120
 20
-352.644
 30
0.000000
  70
    32
  0
VERTEX
  8
┌▓È_1
  5
B1C
 10
704.071
 20
-352.651
 30
0.000000
  70
    32
  0
VERTEX
  8
┌▓È_1
  5
B1D
 10
704.022
 20
-352.653
 30
0.000000
  70
    32
  0
SEQEND
  8
┌▓È_1
  5
B1E
  0
LINE
  5
20F
  8
┌▓È_1
  6
STITCH
 10
704.02214015289996
 20
-337.65338931119999
 30
0.0
 11
708.02214008500005
 21
-337.65338931119999
 31
0.0
  0
LINE
  5
210
  8
┌▓È_1
  6
STITCH
 10
704.02214012019999
 20
-352.65338931119999
 30
0.0
 11
708.02214008500005
 21
-352.65338931119999
 31
0.0
  0
LINE
  5
211
  8
┌▓È_1
  6
STITCH
 10
704.02214008500005
 20
-331.65338931119999
 30
0.0
 11
704.02214008500005
 21
-337.65338931119999
 31
0.0
  0
LINE
  5
212
  8
┌▓È_1
  6
STITCH
 10
704.02214008500005
 20
-358.65338931119999
 30
0.0
 11
704.02214008500005
 21
-352.65338931119999
 31
0.0
  0
POLYLINE
  5
213
  8
┌▓È_1
  6
STITCH
 10
712.02214008500005
 20
-337.65338931119999
 30
0.0
 66
     1
 70
     8
  0
VERTEX
  8
┌▓È_1
  5
B1F
 10
712.022
 20
-337.653
 30
0.000000
  70
    32
  0
VERTEX
  8
┌▓È_1
  5
B20
 10
711.973
 20
-337.656
 30
0.000000
  70
    32
  0
VERTEX
  8
┌▓È_1
  5
B21
 10
711.924
 20
-337.662
 30
0.000000
  70
    32
  0
VERTEX
  8
┌▓È_1
  5
B22
 10
711.875
 20
-337.674
 30
0.000000
  70
    32
  0
VERTEX
  8
┌▓È_1
  5
B23
 10
711.826
 20
-337.690
 30
0.000000
  70
    32
  0
VERTEX
  8
┌▓È_1
  5
B24
 10
711.777
 20
-337.710
 30
0.000000
  70
    32
  0
VERTEX
  8
┌▓È_1
  5
B25
 10
711.729
 20
-337.735
 30
0.000000
  70
    32
  0
VERTEX
  8
┌▓È_1
  5
B26
 10
711.680
 20
-337.764
 30
0.000000
  70
    32
  0
VERTEX
  8
┌▓È_1
  5
B27
 10
711.632
 20
-337.797
 30
0.000000
  70
    32
  0
VERTEX
  8
┌▓È_1
  5
B28
 10
711.584
 20
-337.836
 30
0.000000
  70
    32
  0
VERTEX
  8
┌▓È_1
  5
B29
 10
711.536
 20
-337.878
 30
0.000000
  70
    32
  0
VERTEX
  8
┌▓È_1
  5
B2A
 10
711.489
 20
-337.925
 30
0.000000
  70
    32
  0
VERTEX
  8
┌▓È_1
  5
B2B
 10
711.442
 20
-337.976
 30
0.000000
  70
    32
  0
VERTEX
  8
┌▓È_1
  5
B2C
 10
711.395
 20
-338.032
 30
0.000000
  70
    32
  0
VERTEX
  8
┌▓È_1
  5
B2D
 10
711.348
 20
-338.092
 30
0.000000
  70
    32
  0
VERTEX
  8
┌▓È_1
  5
B2E
 10
711.302
 20
-338.156
 30
0.000000
  70
    32
  0
VERTEX
  8
┌▓È_1
  5
B2F
 10
711.257
 20
-338.224
 30
0.000000
  70
    32
  0
VERTEX
  8
┌▓È_1
  5
B30
 10
711.212
 20
-338.297
 30
0.000000
  70
    32
  0
VERTEX
  8
┌▓È_1
  5
B31
 10
711.167
 20
-338.373
 30
0.000000
  70
    32
  0
VERTEX
  8
┌▓È_1
  5
B32
 10
711.123
 20
-338.454
 30
0.000000
  70
    32
  0
VERTEX
  8
┌▓È_1
  5
B33
 10
711.079
 20
-338.539
 30
0.000000
  70
    32
  0
VERTEX
  8
┌▓È_1
  5
B34
 10
711.036
 20
-338.628
 30
0.000000
  70
    32
  0
VERTEX
  8
┌▓È_1
  5
B35
 10
710.994
 20
-338.720
 30
0.000000
  70
    32
  0
VERTEX
  8
┌▓È_1
  5
B36
 10
710.952
 20
-338.817
 30
0.000000
  70
    32
  0
VERTEX
  8
┌▓È_1
  5
B37
 10
710.911
 20
-338.917
 30
0.000000
  70
    32
  0
VERTEX
  8
┌▓È_1
  5
B38
 10
710.871
 20
-339.022
 30
0.000000
  70
    32
  0
VERTEX
  8
┌▓È_1
  5
B39
 10
710.831
 20
-339.129
 30
0.000000
  70
    32
  0
VERTEX
  8
┌▓È_1
  5
B3A
 10
710.792
 20
-339.241
 30
0.000000
  70
    32
  0
VERTEX
  8
┌▓È_1
  5
B3B
 10
710.753
 20
-339.356
 30
0.000000
  70
    32
  0
VERTEX
  8
┌▓È_1
  5
B3C
 10
710.716
 20
-339.474
 30
0.000000
  70
    32
  0
VERTEX
  8
┌▓È_1
  5
B3D
 10
710.679
 20
-339.596
 30
0.000000
  70
    32
  0
VERTEX
  8
┌▓È_1
  5
B3E
 10
710.643
 20
-339.722
 30
0.000000
  70
    32
  0
VERTEX
  8
┌▓È_1
  5
B3F
 10
710.608
 20
-339.850
 30
0.000000
  70
    32
  0
VERTEX
  8
┌▓È_1
  5
B40
 10
710.574
 20
-339.982
 30
0.000000
  70
    32
  0
VERTEX
  8
┌▓È_1
  5
B41
 10
710.540
 20
-340.117
 30
0.000000
  70
    32
  0
VERTEX
  8
┌▓È_1
  5
B42
 10
710.508
 20
-340.255
 30
0.000000
  70
    32
  0
VERTEX
  8
┌▓È_1
  5
B43
 10
710.476
 20
-340.395
 30
0.000000
  70
    32
  0
VERTEX
  8
┌▓È_1
  5
B44
 10
710.445
 20
-340.539
 30
0.000000
  70
    32
  0
VERTEX
  8
┌▓È_1
  5
B45
 10
710.416
 20
-340.686
 30
0.000000
  70
    32
  0
VERTEX
  8
┌▓È_1
  5
B46
 10
710.387
 20
-340.835
 30
0.000000
  70
    32
  0
VERTEX
  8
┌▓È_1
  5
B47
 10
710.359
 20
-340.987
 30
0.000000
  70
    32
  0
VERTEX
  8
┌▓È_1
  5
B48
 10
710.332
 20
-341.141
 30
0.000000
  70
    32
  0
VERTEX
  8
┌▓È_1
  5
B49
 10
710.307
 20
-341.298
 30
0.000000
  70
    32
  0
VERTEX
  8
┌▓È_1
  5
B4A
 10
710.282
 20
-341.457
 30
0.000000
  70
    32
  0
VERTEX
  8
┌▓È_1
  5
B4B
 10
710.258
 20
-341.618
 30
0.000000
  70
    32
  0
VERTEX
  8
┌▓È_1
  5
B4C
 10
710.236
 20
-341.781
 30
0.000000
  70
    32
  0
VERTEX
  8
┌▓È_1
  5
B4D
 10
710.214
 20
-341.947
 30
0.000000
  70
    32
  0
VERTEX
  8
┌▓È_1
  5
B4E
 10
710.194
 20
-342.114
 30
0.000000
  70
    32
  0
VERTEX
  8
┌▓È_1
  5
B4F
 10
710.174
 20
-342.283
 30
0.000000
  70
    32
  0
VERTEX
  8
┌▓È_1
  5
B50
 10
710.156
 20
-342.454
 30
0.000000
  70
    32
  0
VERTEX
  8
┌▓È_1
  5
B51
 10
710.139
 20
-342.627
 30
0.000000
  70
    32
  0
VERTEX
  8
┌▓È_1
  5
B52
 10
710.123
 20
-342.801
 30
0.000000
  70
    32
  0
VERTEX
  8
┌▓È_1
  5
B53
 10
710.108
 20
-342.976
 30
0.000000
  70
    32
  0
VERTEX
  8
┌▓È_1
  5
B54
 10
710.095
 20
-343.153
 30
0.000000
  70
    32
  0
VERTEX
  8
┌▓È_1
  5
B55
 10
710.082
 20
-343.331
 30
0.000000
  70
    32
  0
VERTEX
  8
┌▓È_1
  5
B56
 10
710.071
 20
-343.510
 30
0.000000
  70
    32
  0
VERTEX
  8
┌▓È_1
  5
B57
 10
710.061
 20
-343.690
 30
0.000000
  70
    32
  0
VERTEX
  8
┌▓È_1
  5
B58
 10
710.052
 20
-343.871
 30
0.000000
  70
    32
  0
VERTEX
  8
┌▓È_1
  5
B59
 10
710.044
 20
-344.053
 30
0.000000
  70
    32
  0
VERTEX
  8
┌▓È_1
  5
B5A
 10
710.037
 20
-344.235
 30
0.000000
  70
    32
  0
VERTEX
  8
┌▓È_1
  5
B5B
 10
710.032
 20
-344.418
 30
0.000000
  70
    32
  0
VERTEX
  8
┌▓È_1
  5
B5C
 10
710.028
 20
-344.602
 30
0.000000
  70
    32
  0
VERTEX
  8
┌▓È_1
  5
B5D
 10
710.025
 20
-344.785
 30
0.000000
  70
    32
  0
VERTEX
  8
┌▓È_1
  5
B5E
 10
710.023
 20
-344.969
 30
0.000000
  70
    32
  0
VERTEX
  8
┌▓È_1
  5
B5F
 10
710.022
 20
-345.153
 30
0.000000
  70
    32
  0
VERTEX
  8
┌▓È_1
  5
B60
 10
710.023
 20
-345.337
 30
0.000000
  70
    32
  0
VERTEX
  8
┌▓È_1
  5
B61
 10
710.025
 20
-345.521
 30
0.000000
  70
    32
  0
VERTEX
  8
┌▓È_1
  5
B62
 10
710.028
 20
-345.705
 30
0.000000
  70
    32
  0
VERTEX
  8
┌▓È_1
  5
B63
 10
710.032
 20
-345.889
 30
0.000000
  70
    32
  0
VERTEX
  8
┌▓È_1
  5
B64
 10
710.037
 20
-346.071
 30
0.000000
  70
    32
  0
VERTEX
  8
┌▓È_1
  5
B65
 10
710.044
 20
-346.254
 30
0.000000
  70
    32
  0
VERTEX
  8
┌▓È_1
  5
B66
 10
710.052
 20
-346.436
 30
0.000000
  70
    32
  0
VERTEX
  8
┌▓È_1
  5
B67
 10
710.061
 20
-346.617
 30
0.000000
  70
    32
  0
VERTEX
  8
┌▓È_1
  5
B68
 10
710.071
 20
-346.797
 30
0.000000
  70
    32
  0
VERTEX
  8
┌▓È_1
  5
B69
 10
710.082
 20
-346.976
 30
0.000000
  70
    32
  0
VERTEX
  8
┌▓È_1
  5
B6A
 10
710.095
 20
-347.154
 30
0.000000
  70
    32
  0
VERTEX
  8
┌▓È_1
  5
B6B
 10
710.108
 20
-347.331
 30
0.000000
  70
    32
  0
VERTEX
  8
┌▓È_1
  5
B6C
 10
710.123
 20
-347.506
 30
0.000000
  70
    32
  0
VERTEX
  8
┌▓È_1
  5
B6D
 10
710.139
 20
-347.680
 30
0.000000
  70
    32
  0
VERTEX
  8
┌▓È_1
  5
B6E
 10
710.156
 20
-347.853
 30
0.000000
  70
    32
  0
VERTEX
  8
┌▓È_1
  5
B6F
 10
710.174
 20
-348.024
 30
0.000000
  70
    32
  0
VERTEX
  8
┌▓È_1
  5
B70
 10
710.194
 20
-348.193
 30
0.000000
  70
    32
  0
VERTEX
  8
┌▓È_1
  5
B71
 10
710.214
 20
-348.360
 30
0.000000
  70
    32
  0
VERTEX
  8
┌▓È_1
  5
B72
 10
710.236
 20
-348.525
 30
0.000000
  70
    32
  0
VERTEX
  8
┌▓È_1
  5
B73
 10
710.258
 20
-348.689
 30
0.000000
  70
    32
  0
VERTEX
  8
┌▓È_1
  5
B74
 10
710.282
 20
-348.850
 30
0.000000
  70
    32
  0
VERTEX
  8
┌▓È_1
  5
B75
 10
710.307
 20
-349.009
 30
0.000000
  70
    32
  0
VERTEX
  8
┌▓È_1
  5
B76
 10
710.332
 20
-349.166
 30
0.000000
  70
    32
  0
VERTEX
  8
┌▓È_1
  5
B77
 10
710.359
 20
-349.320
 30
0.000000
  70
    32
  0
VERTEX
  8
┌▓È_1
  5
B78
 10
710.387
 20
-349.472
 30
0.000000
  70
    32
  0
VERTEX
  8
┌▓È_1
  5
B79
 10
710.416
 20
-349.621
 30
0.000000
  70
    32
  0
VERTEX
  8
┌▓È_1
  5
B7A
 10
710.445
 20
-349.768
 30
0.000000
  70
    32
  0
VERTEX
  8
┌▓È_1
  5
B7B
 10
710.476
 20
-349.911
 30
0.000000
  70
    32
  0
VERTEX
  8
┌▓È_1
  5
B7C
 10
710.508
 20
-350.052
 30
0.000000
  70
    32
  0
VERTEX
  8
┌▓È_1
  5
B7D
 10
710.540
 20
-350.190
 30
0.000000
  70
    32
  0
VERTEX
  8
┌▓È_1
  5
B7E
 10
710.574
 20
-350.325
 30
0.000000
  70
    32
  0
VERTEX
  8
┌▓È_1
  5
B7F
 10
710.608
 20
-350.457
 30
0.000000
  70
    32
  0
VERTEX
  8
┌▓È_1
  5
B80
 10
710.643
 20
-350.585
 30
0.000000
  70
    32
  0
VERTEX
  8
┌▓È_1
  5
B81
 10
710.679
 20
-350.711
 30
0.000000
  70
    32
  0
VERTEX
  8
┌▓È_1
  5
B82
 10
710.716
 20
-350.832
 30
0.000000
  70
    32
  0
VERTEX
  8
┌▓È_1
  5
B83
 10
710.753
 20
-350.951
 30
0.000000
  70
    32
  0
VERTEX
  8
┌▓È_1
  5
B84
 10
710.792
 20
-351.066
 30
0.000000
  70
    32
  0
VERTEX
  8
┌▓È_1
  5
B85
 10
710.831
 20
-351.177
 30
0.000000
  70
    32
  0
VERTEX
  8
┌▓È_1
  5
B86
 10
710.871
 20
-351.285
 30
0.000000
  70
    32
  0
VERTEX
  8
┌▓È_1
  5
B87
 10
710.911
 20
-351.389
 30
0.000000
  70
    32
  0
VERTEX
  8
┌▓È_1
  5
B88
 10
710.952
 20
-351.490
 30
0.000000
  70
    32
  0
VERTEX
  8
┌▓È_1
  5
B89
 10
710.994
 20
-351.586
 30
0.000000
  70
    32
  0
VERTEX
  8
┌▓È_1
  5
B8A
 10
711.036
 20
-351.679
 30
0.000000
  70
    32
  0
VERTEX
  8
┌▓È_1
  5
B8B
 10
711.079
 20
-351.768
 30
0.000000
  70
    32
  0
VERTEX
  8
┌▓È_1
  5
B8C
 10
711.123
 20
-351.853
 30
0.000000
  70
    32
  0
VERTEX
  8
┌▓È_1
  5
B8D
 10
711.167
 20
-351.933
 30
0.000000
  70
    32
  0
VERTEX
  8
┌▓È_1
  5
B8E
 10
711.212
 20
-352.010
 30
0.000000
  70
    32
  0
VERTEX
  8
┌▓È_1
  5
B8F
 10
711.257
 20
-352.082
 30
0.000000
  70
    32
  0
VERTEX
  8
┌▓È_1
  5
B90
 10
711.302
 20
-352.151
 30
0.000000
  70
    32
  0
VERTEX
  8
┌▓È_1
  5
B91
 10
711.348
 20
-352.215
 30
0.000000
  70
    32
  0
VERTEX
  8
┌▓È_1
  5
B92
 10
711.395
 20
-352.275
 30
0.000000
  70
    32
  0
VERTEX
  8
┌▓È_1
  5
B93
 10
711.442
 20
-352.330
 30
0.000000
  70
    32
  0
VERTEX
  8
┌▓È_1
  5
B94
 10
711.489
 20
-352.382
 30
0.000000
  70
    32
  0
VERTEX
  8
┌▓È_1
  5
B95
 10
711.536
 20
-352.429
 30
0.000000
  70
    32
  0
VERTEX
  8
┌▓È_1
  5
B96
 10
711.584
 20
-352.471
 30
0.000000
  70
    32
  0
VERTEX
  8
┌▓È_1
  5
B97
 10
711.632
 20
-352.509
 30
0.000000
  70
    32
  0
VERTEX
  8
┌▓È_1
  5
B98
 10
711.680
 20
-352.543
 30
0.000000
  70
    32
  0
VERTEX
  8
┌▓È_1
  5
B99
 10
711.729
 20
-352.572
 30
0.000000
  70
    32
  0
VERTEX
  8
┌▓È_1
  5
B9A
 10
711.777
 20
-352.597
 30
0.000000
  70
    32
  0
VERTEX
  8
┌▓È_1
  5
B9B
 10
711.826
 20
-352.617
 30
0.000000
  70
    32
  0
VERTEX
  8
┌▓È_1
  5
B9C
 10
711.875
 20
-352.633
 30
0.000000
  70
    32
  0
VERTEX
  8
┌▓È_1
  5
B9D
 10
711.924
 20
-352.644
 30
0.000000
  70
    32
  0
VERTEX
  8
┌▓È_1
  5
B9E
 10
711.973
 20
-352.651
 30
0.000000
  70
    32
  0
VERTEX
  8
┌▓È_1
  5
B9F
 10
712.022
 20
-352.653
 30
0.000000
  70
    32
  0
SEQEND
  8
┌▓È_1
  5
BA0
  0
LINE
  5
214
  8
┌▓È_1
  6
STITCH
 10
712.02214001699997
 20
-337.65338931119999
 30
0.0
 11
708.02214008500005
 21
-337.65338931119999
 31
0.0
  0
LINE
  5
215
  8
┌▓È_1
  6
STITCH
 10
712.02214004970006
 20
-352.65338931119999
 30
0.0
 11
708.02214008500005
 21
-352.65338931119999
 31
0.0
  0
LINE
  5
216
  8
┌▓È_1
  6
STITCH
 10
712.02214008500005
 20
-331.65338931119999
 30
0.0
 11
712.02214008500005
 21
-337.65338931119999
 31
0.0
  0
LINE
  5
217
  8
┌▓È_1
  6
STITCH
 10
712.02214008500005
 20
-358.65338931119999
 30
0.0
 11
712.02214008500005
 21
-352.65338931119999
 31
0.0
  0
ARC
  5
218
  8
┌▓È_1
  6
STITCH
 10
708.02214008500005
 20
-331.65338931119999
 30
0.0
 40
4.0
 50
0.0
 51
90.0
  0
ARC
  5
219
  8
┌▓È_1
  6
STITCH
 10
708.02214008500005
 20
-331.65338931119999
 30
0.0
 40
4.0
 50
90.0
 51
180.0
  0
LINE
  5
21A
  8
┌▓È_1
  6
BORDER
 62
     3
 10
690.46700629589998
 20
-346.01694725390001
 30
0.0
 11
725.30932400419999
 21
-346.01694725390001
 31
0.0
  0
LINE
  5
21B
  8
┌▓È_1
 62
     5
 10
815.52317370589992
 20
-301.51805153539999
 30
0.0
 11
805.52317370649996
 21
-301.51794881220002
 31
0.0
  0
ARC
  5
21C
  8
┌▓È_1
 62
     5
 10
978.67072332169994
 20
-73.291876680299993
 30
0.0
 40
1.5
 50
226.04418554119999
 51
300.57818461099998
  0
ARC
  5
21D
  8
┌▓È_1
 62
     5
 10
928.53911295930004
 20
-76.122416003899986
 30
0.0
 40
7.0
 50
16.683373367000002
 51
90.0
  0
ARC
  5
21E
  8
┌▓È_1
 62
     5
 10
1002.809678353
 20
-72.258299678400007
 30
0.0
 40
2.5
 50
129.42738080250001
 51
215.5781783612
  0
ARC
  5
21F
  8
┌▓È_1
 62
     5
 10
1016.5866563924
 20
-72.386677261599999
 30
0.0
 40
2.5
 50
304.71338381010003
 51
26.987269270300001
  0
LINE
  5
220
  8
┌▓È_1
 62
     5
 10
958.18297793580007
 20
-75.212535536199994
 30
0.0
 11
957.11185017830007
 21
-74.852515311499999
 31
0.0
  0
LINE
  5
221
  8
┌▓È_1
 62
     5
 10
956.12730519770003
 20
-74.52159670479999
 30
0.0
 11
953.83920083889996
 21
-73.752534527500003
 31
0.0
  0
ARC
  5
222
  8
┌▓È_1
 62
     5
 10
953.03061266179986
 20
-76.122416003899986
 30
0.0
 40
1.5
 50
71.42180931
 51
121.02736904450001
  0
ARC
  5
223
  8
┌▓È_1
 62
     5
 10
953.04270528450002
 20
-76.122259159600006
 30
0.0
 40
2.5
 50
71.4218387592
 51
121.4153715546
  0
LINE
  5
224
  8
┌▓È_1
 62
     5
 10
966.44908974479995
 20
-73.428305642200002
 30
0.0
 11
964.20261045469988
 21
-72.7595325992
 31
0.0
  0
LINE
  5
225
  8
┌▓È_1
 62
     5
 10
994.10536681179997
 20
-70.469622923499983
 30
0.0
 11
990.67736695040003
 21
-73.510809690299993
 31
0.0
  0
LINE
  5
226
  8
┌▓È_1
 62
     5
 10
971.1429024982001
 20
-73.6779370008
 30
0.0
 11
969.12815483859993
 21
-73.078150067899998
 31
0.0
  0
ARC
  5
227
  8
┌▓È_1
 62
     5
 10
1002.809678353
 20
-72.258299678400007
 30
0.0
 40
1.5
 50
141.46556464310001
 51
215.57818461100001
  0
LINE
  5
228
  8
┌▓È_1
 62
     5
 10
977.36055453469987
 20
-73.369118851699994
 30
0.0
 11
977.17086716170002
 21
-73.312649245100005
 31
0.0
  0
LINE
  5
229
  8
┌▓È_1
 62
     5
 10
1015.8199930018
 20
-72.424129329600007
 30
0.0
 11
1015.4670716619
 21
-73.384940769399989
 31
0.0
  0
ARC
  5
22A
  8
┌▓È_1
 62
     5
 10
978.60123722419996
 20
-73.216782172400002
 30
0.0
 40
0.5
 50
300.57812271829999
 51
120.5781854075
  0
ARC
  5
22B
  8
┌▓È_1
 62
     5
 10
983.63345407990005
 20
-72.682529963299999
 30
0.0
 40
0.5
 50
300.57812271820001
 51
120.5781854075
  0
ARC
  5
22C
  8
┌▓È_1
 62
     5
 10
989.01826355029982
 20
-71.640682446599996
 30
0.0
 40
1.5
 50
237.1660411105
 51
311.57824514700002
  0
LINE
  5
22D
  8
┌▓È_1
 62
     5
 10
976.1856225734
 20
-73.019343616
 30
0.0
 11
974.0664912231
 21
-72.388481836899999
 31
0.0
  0
ARC
  5
22E
  8
┌▓È_1
 62
     5
 10
1016.5866563924
 20
-72.386677261599999
 30
0.0
 40
1.5
 50
303.05610228
 51
312.3545217189
  0
LINE
  5
22F
  8
┌▓È_1
 62
     5
 10
973.80556244369996
 20
-73.4272347247
 30
0.0
 11
972.38387323409995
 21
-73.004000278199996
 31
0.0
  0
ARC
  5
230
  8
┌▓È_1
 62
     5
 10
1016.5866563924
 20
-72.386677261599999
 30
0.0
 40
1.5
 50
312.3545217189
 51
26.987275520000001
  0
ARC
  5
231
  8
┌▓È_1
 62
     5
 10
978.67072332169994
 20
-73.291876680299993
 30
0.0
 40
1.5
 50
73.421809310100002
 51
186.9999969605
  0
ARC
  5
232
  8
┌▓È_1
 62
     5
 10
928.53911295930004
 20
-76.122416003899986
 30
0.0
 40
8.0
 50
20.816916245400002
 51
82.819244218500003
  0
LINE
  5
233
  8
┌▓È_1
 62
     5
 10
593.0224750458998
 20
-388.51694725390001
 30
0.0
 11
593.0224750458998
 21
-387.51694725390001
 31
0.0
  0
ARC
  5
234
  8
┌▓È_1
 62
     5
 10
591.52247504589991
 20
-294.51694725390001
 30
0.0
 40
1.0
 50
90.0
 51
180.0
  0
ARC
  5
235
  8
┌▓È_1
 62
     5
 10
973.63850646599997
 20
-73.826128889399996
 30
0.0
 40
1.5
 50
233.39011137770001
 51
300.57823546679998
  0
LINE
  5
236
  8
┌▓È_1
 62
     5
 10
978.34688044479981
 20
-72.78631425399999
 30
0.0
 11
974.40157680429991
 21
-75.117532644600004
 31
0.0
  0
ARC
  5
237
  8
┌▓È_1
 62
     5
 10
968.45203345669995
 20
-74.546264354399995
 30
0.0
 40
0.5
 50
300.57812271829999
 51
120.5781854075
  0
ARC
  5
238
  8
┌▓È_1
 62
     5
 10
983.8781734933998
 20
-72.626106991100002
 30
0.0
 40
2.5
 50
220.3447060007
 51
301.5781783612
  0
LINE
  5
239
  8
┌▓È_1
 62
     5
 10
960.98950019439997
 20
-75.1241875029
 30
0.0
 11
958.7563324521999
 21
-74.373590250000007
 31
0.0
  0
LINE
  5
23A
  8
┌▓È_1
 62
     5
 10
961.2042698962
 20
-74.141399509500005
 30
0.0
 11
959.07493046310003
 21
-73.425700326300003
 31
0.0
  0
LINE
  5
23B
  8
┌▓È_1
 62
     5
 10
988.56768309639995
 20
-71.504278268199997
 30
0.0
 11
984.66366571560002
 21
-73.903996645500001
 31
0.0
  0
ARC
  5
23C
  8
┌▓È_1
 62
     5
 10
973.63850646599997
 20
-73.826128889399996
 30
0.0
 40
2.5
 50
73.421834853700005
 51
200.94292103000001
  0
ARC
  5
23D
  8
┌▓È_1
 62
     5
 10
978.67072332169994
 20
-73.291876680299993
 30
0.0
 40
2.5
 50
73.421834626899994
 51
196.6916363938
  0
LINE
  5
23E
  8
┌▓È_1
 62
     5
 10
963.41870805359986
 20
-74.885701500899998
 30
0.0
 11
962.15912465979989
 21
-74.462338841099992
 31
0.0
  0
LINE
  5
23F
  8
┌▓È_1
 62
     5
 10
968.59469513789986
 20
-74.06704869859999
 30
0.0
 11
967.42871131579989
 21
-73.719937308699997
 31
0.0
  0
LINE
  5
240
  8
┌▓È_1
 62
     5
 10
989.0913445778998
 20
-72.356204704500001
 30
0.0
 11
985.1873271971001
 21
-74.755923081800006
 31
0.0
  0
ARC
  5
241
  8
┌▓È_1
 62
     5
 10
983.8781734933998
 20
-72.626106991100002
 30
0.0
 40
1.5
 50
227.00096678040001
 51
301.57818461099998
  0
ARC
  5
242
  8
┌▓È_1
 62
     5
 10
968.70017000429993
 20
-74.515797097499984
 30
0.0
 40
1.5
 50
73.421809310100002
 51
186.9999969605
  0
LINE
  5
243
  8
┌▓È_1
 62
     5
 10
966.20292816000006
 20
-74.398395347900006
 30
0.0
 11
963.9172876824
 21
-73.717964086400002
 31
0.0
  0
ARC
  5
244
  8
┌▓È_1
 62
     5
 10
973.63850646599997
 20
-73.826128889399996
 30
0.0
 40
1.5
 50
73.42180931
 51
194.38008848219999
  0
ARC
  5
245
  8
┌▓È_1
 62
     5
 10
973.66290076249993
 20
-73.906450380500004
 30
0.0
 40
0.5
 50
300.57812271820001
 51
120.5781854075
  0
LINE
  5
246
  8
┌▓È_1
 62
     5
 10
983.37909730049989
 20
-72.252062044900001
 30
0.0
 11
979.43379365999988
 21
-74.583280435500001
 31
0.0
  0
LINE
  5
247
  8
┌▓È_1
 62
     5
 10
1004.8093116239
 20
-74.954078104899992
 30
0.0
 11
1005.2588079670001
 21
-72.760060711000008
 31
0.0
  0
ARC
  5
248
  8
┌▓È_1
 62
     5
 10
1016.5866563924
 20
-72.386677261599999
 30
0.0
 40
1.5
 50
159.8309002190999
 51
261.99611861310001
  0
ARC
  5
249
  8
┌▓È_1
 62
     5
 10
1016.5866563924
 20
-72.386677261599999
 30
0.0
 40
2.5
 50
159.8309296683
 51
276.86223712029999
  0
ARC
  5
24A
  8
┌▓È_1
 62
     5
 10
1016.5866563924
 20
-72.386677261599999
 30
0.0
 40
2.5
 50
300.40198024929998
 51
304.71338381010003
  0
LINE
  5
24B
  8
┌▓È_1
 62
     5
 10
972.42221807299995
 20
-74.058787059700009
 30
0.0
 11
972.14607055789998
 21
-73.976578416699994
 31
0.0
  0
ARC
  5
24C
  8
┌▓È_1
 62
     5
 10
989.01826355029982
 20
-71.640682446599996
 30
0.0
 40
2.5
 50
226.597028663
 51
311.57818415790001
  0
LINE
  5
24D
  8
┌▓È_1
 62
     5
 10
1003.8079738332
 20
-74.859224032200004
 30
0.0
 11
1004.2791559939
 21
-72.559356920500008
 31
0.0
  0
ARC
  5
24E
  8
┌▓È_1
 62
     5
 10
1004.07769935
 20
-77.344631070399984
 30
0.0
 40
2.5
 50
138.8049618272
 51
222.5781783612
  0
LINE
  5
24F
  8
┌▓È_1
 62
     5
 10
1004.3390625649
 20
-77.249390693899997
 30
0.0
 11
1004.6070859296
 21
-75.941153300899998
 31
0.0
  0
ARC
  5
250
  8
┌▓È_1
 62
     5
 10
963.48930269849996
 20
-75.155611071400003
 30
0.0
 40
1.5
 50
230.8790491211
 51
300.57818461099998
  0
ARC
  5
251
  8
┌▓È_1
 62
     5
 10
1004.07769935
 20
-77.344631070399984
 30
0.0
 40
1.5
 50
147.9950901869
 51
222.57818461100001
  0
ARC
  5
252
  8
┌▓È_1
 62
     5
 10
928.53911295930004
 20
-76.122416003899986
 30
0.0
 40
8.0
 50
277.18075578150001
 51
13.095485609400001
  0
ARC
  5
253
  8
┌▓È_1
 62
     5
 10
928.53911295930004
 20
-76.122416003899986
 30
0.0
 40
7.0
 50
270.0
 51
0.0000025595
  0
ARC
  5
254
  8
┌▓È_1
 62
     5
 10
958.27843540240008
 20
-75.79542512430001
 30
0.0
 40
2.5
 50
215.0656260335
 51
298.5781783612
  0
ARC
  5
255
  8
┌▓È_1
 62
     5
 10
958.27843540240008
 20
-75.79542512430001
 30
0.0
 40
1.5
 50
219.4323076769
 51
298.57824765639998
  0
ARC
  5
256
  8
┌▓È_1
 62
     5
 10
953.03061266179986
 20
-76.122416003899986
 30
0.0
 40
1.5
 50
175.30149997589999
 51
298.57818461099998
  0
ARC
  5
257
  8
┌▓È_1
 62
     5
 10
953.04270528450002
 20
-76.122259159600006
 30
0.0
 40
2.5
 50
143.84768659279999
 51
298.5781783612
  0
ARC
  5
258
  8
┌▓È_1
 62
     5
 10
963.48930269849996
 20
-75.155611071400003
 30
0.0
 40
2.5
 50
73.421834911999994
 51
198.6555662003
  0
ARC
  5
259
  8
┌▓È_1
 62
     5
 10
963.48930269849996
 20
-75.155611071400003
 30
0.0
 40
1.5
 50
73.42180931
 51
191.88799280040001
  0
ARC
  5
25A
  8
┌▓È_1
 62
     5
 10
968.70017000429993
 20
-74.515797097499984
 30
0.0
 40
1.5
 50
226.04418554119999
 51
300.57820190299998
  0
ARC
  5
25B
  8
┌▓È_1
 62
     5
 10
973.63850646599997
 20
-73.826128889399996
 30
0.0
 40
2.5
 50
224.0298174943
 51
300.5781783612
  0
LINE
  5
25C
  8
┌▓È_1
 62
     5
 10
978.85559400359989
 20
-73.6472500908
 30
0.0
 11
974.91029036320003
 21
-75.9784684814
 31
0.0
  0
LINE
  5
25D
  8
┌▓È_1
 62
     5
 10
973.4085439831
 20
-73.475982462100006
 30
0.0
 11
969.46324034259999
 21
-75.807200852700007
 31
0.0
  0
LINE
  5
25E
  8
┌▓È_1
 62
     5
 10
983.88781085929998
 20
-73.112997881699997
 30
0.0
 11
979.94250721879996
 21
-75.444216272200009
 31
0.0
  0
ARC
  5
25F
  8
┌▓È_1
 62
     5
 10
963.25940889280002
 20
-75.359646410500005
 30
0.0
 40
0.5
 50
298.57812271829999
 51
118.5781854075
  0
POLYLINE
  5
260
  8
┌▓È_1
 62
     5
 10
984.54955520242788
 20
-70.217944496419804
 30
0.0
 66
     1
 70
     8
  0
VERTEX
  8
┌▓È_1
  5
BA1
 10
984.550
 20
-70.2179
 30
0.000000
  70
    32
  0
VERTEX
  8
┌▓È_1
  5
BA2
 10
984.509
 20
-70.2070
 30
0.000000
  70
    32
  0
VERTEX
  8
┌▓È_1
  5
BA3
 10
984.469
 20
-70.1968
 30
0.000000
  70
    32
  0
VERTEX
  8
┌▓È_1
  5
BA4
 10
984.428
 20
-70.1873
 30
0.000000
  70
    32
  0
VERTEX
  8
┌▓È_1
  5
BA5
 10
984.387
 20
-70.1784
 30
0.000000
  70
    32
  0
VERTEX
  8
┌▓È_1
  5
BA6
 10
984.346
 20
-70.1702
 30
0.000000
  70
    32
  0
VERTEX
  8
┌▓È_1
  5
BA7
 10
984.305
 20
-70.1627
 30
0.000000
  70
    32
  0
VERTEX
  8
┌▓È_1
  5
BA8
 10
984.263
 20
-70.1559
 30
0.000000
  70
    32
  0
VERTEX
  8
┌▓È_1
  5
BA9
 10
984.222
 20
-70.1498
 30
0.000000
  70
    32
  0
VERTEX
  8
┌▓È_1
  5
BAA
 10
984.180
 20
-70.1444
 30
0.000000
  70
    32
  0
VERTEX
  8
┌▓È_1
  5
BAB
 10
984.139
 20
-70.1397
 30
0.000000
  70
    32
  0
VERTEX
  8
┌▓È_1
  5
BAC
 10
984.097
 20
-70.1357
 30
0.000000
  70
    32
  0
VERTEX
  8
┌▓È_1
  5
BAD
 10
984.055
 20
-70.1324
 30
0.000000
  70
    32
  0
VERTEX
  8
┌▓È_1
  5
BAE
 10
984.013
 20
-70.1298
 30
0.000000
  70
    32
  0
VERTEX
  8
┌▓È_1
  5
BAF
 10
983.972
 20
-70.1279
 30
0.000000
  70
    32
  0
VERTEX
  8
┌▓È_1
  5
BB0
 10
983.930
 20
-70.1266
 30
0.000000
  70
    32
  0
VERTEX
  8
┌▓È_1
  5
BB1
 10
983.888
 20
-70.1261
 30
0.000000
  70
    32
  0
VERTEX
  8
┌▓È_1
  5
BB2
 10
983.846
 20
-70.1263
 30
0.000000
  70
    32
  0
VERTEX
  8
┌▓È_1
  5
BB3
 10
983.804
 20
-70.1272
 30
0.000000
  70
    32
  0
VERTEX
  8
┌▓È_1
  5
BB4
 10
983.762
 20
-70.1288
 30
0.000000
  70
    32
  0
VERTEX
  8
┌▓È_1
  5
BB5
 10
983.721
 20
-70.1311
 30
0.000000
  70
    32
  0
VERTEX
  8
┌▓È_1
  5
BB6
 10
983.679
 20
-70.1341
 30
0.000000
  70
    32
  0
VERTEX
  8
┌▓È_1
  5
BB7
 10
983.637
 20
-70.1378
 30
0.000000
  70
    32
  0
VERTEX
  8
┌▓È_1
  5
BB8
 10
983.595
 20
-70.1421
 30
0.000000
  70
    32
  0
VERTEX
  8
┌▓È_1
  5
BB9
 10
983.554
 20
-70.1472
 30
0.000000
  70
    32
  0
VERTEX
  8
┌▓È_1
  5
BBA
 10
983.512
 20
-70.1530
 30
0.000000
  70
    32
  0
VERTEX
  8
┌▓È_1
  5
BBB
 10
983.471
 20
-70.1595
 30
0.000000
  70
    32
  0
VERTEX
  8
┌▓È_1
  5
BBC
 10
983.430
 20
-70.1667
 30
0.000000
  70
    32
  0
VERTEX
  8
┌▓È_1
  5
BBD
 10
983.389
 20
-70.1745
 30
0.000000
  70
    32
  0
VERTEX
  8
┌▓È_1
  5
BBE
 10
983.348
 20
-70.1831
 30
0.000000
  70
    32
  0
VERTEX
  8
┌▓È_1
  5
BBF
 10
983.307
 20
-70.1923
 30
0.000000
  70
    32
  0
VERTEX
  8
┌▓È_1
  5
BC0
 10
983.266
 20
-70.2022
 30
0.000000
  70
    32
  0
VERTEX
  8
┌▓È_1
  5
BC1
 10
983.226
 20
-70.2128
 30
0.000000
  70
    32
  0
VERTEX
  8
┌▓È_1
  5
BC2
 10
983.185
 20
-70.2240
 30
0.000000
  70
    32
  0
VERTEX
  8
┌▓È_1
  5
BC3
 10
983.145
 20
-70.2360
 30
0.000000
  70
    32
  0
VERTEX
  8
┌▓È_1
  5
BC4
 10
983.105
 20
-70.2486
 30
0.000000
  70
    32
  0
VERTEX
  8
┌▓È_1
  5
BC5
 10
983.065
 20
-70.2619
 30
0.000000
  70
    32
  0
VERTEX
  8
┌▓È_1
  5
BC6
 10
983.026
 20
-70.2758
 30
0.000000
  70
    32
  0
VERTEX
  8
┌▓È_1
  5
BC7
 10
982.987
 20
-70.2904
 30
0.000000
  70
    32
  0
VERTEX
  8
┌▓È_1
  5
BC8
 10
982.948
 20
-70.3057
 30
0.000000
  70
    32
  0
VERTEX
  8
┌▓È_1
  5
BC9
 10
982.909
 20
-70.3216
 30
0.000000
  70
    32
  0
VERTEX
  8
┌▓È_1
  5
BCA
 10
982.871
 20
-70.3381
 30
0.000000
  70
    32
  0
VERTEX
  8
┌▓È_1
  5
BCB
 10
982.832
 20
-70.3553
 30
0.000000
  70
    32
  0
VERTEX
  8
┌▓È_1
  5
BCC
 10
982.795
 20
-70.3732
 30
0.000000
  70
    32
  0
VERTEX
  8
┌▓È_1
  5
BCD
 10
982.757
 20
-70.3916
 30
0.000000
  70
    32
  0
VERTEX
  8
┌▓È_1
  5
BCE
 10
982.720
 20
-70.4107
 30
0.000000
  70
    32
  0
VERTEX
  8
┌▓È_1
  5
BCF
 10
982.683
 20
-70.4305
 30
0.000000
  70
    32
  0
VERTEX
  8
┌▓È_1
  5
BD0
 10
982.646
 20
-70.4508
 30
0.000000
  70
    32
  0
VERTEX
  8
┌▓È_1
  5
BD1
 10
982.610
 20
-70.4717
 30
0.000000
  70
    32
  0
VERTEX
  8
┌▓È_1
  5
BD2
 10
982.574
 20
-70.4933
 30
0.000000
  70
    32
  0
VERTEX
  8
┌▓È_1
  5
BD3
 10
982.538
 20
-70.5154
 30
0.000000
  70
    32
  0
VERTEX
  8
┌▓È_1
  5
BD4
 10
982.503
 20
-70.5381
 30
0.000000
  70
    32
  0
VERTEX
  8
┌▓È_1
  5
BD5
 10
982.468
 20
-70.5615
 30
0.000000
  70
    32
  0
VERTEX
  8
┌▓È_1
  5
BD6
 10
982.434
 20
-70.5854
 30
0.000000
  70
    32
  0
VERTEX
  8
┌▓È_1
  5
BD7
 10
982.400
 20
-70.6098
 30
0.000000
  70
    32
  0
VERTEX
  8
┌▓È_1
  5
BD8
 10
982.367
 20
-70.6349
 30
0.000000
  70
    32
  0
VERTEX
  8
┌▓È_1
  5
BD9
 10
982.333
 20
-70.6605
 30
0.000000
  70
    32
  0
VERTEX
  8
┌▓È_1
  5
BDA
 10
982.301
 20
-70.6866
 30
0.000000
  70
    32
  0
VERTEX
  8
┌▓È_1
  5
BDB
 10
982.268
 20
-70.7133
 30
0.000000
  70
    32
  0
VERTEX
  8
┌▓È_1
  5
BDC
 10
982.237
 20
-70.7405
 30
0.000000
  70
    32
  0
VERTEX
  8
┌▓È_1
  5
BDD
 10
982.205
 20
-70.7683
 30
0.000000
  70
    32
  0
VERTEX
  8
┌▓È_1
  5
BDE
 10
982.174
 20
-70.7966
 30
0.000000
  70
    32
  0
VERTEX
  8
┌▓È_1
  5
BDF
 10
982.144
 20
-70.8254
 30
0.000000
  70
    32
  0
VERTEX
  8
┌▓È_1
  5
BE0
 10
982.114
 20
-70.8547
 30
0.000000
  70
    32
  0
VERTEX
  8
┌▓È_1
  5
BE1
 10
982.085
 20
-70.8845
 30
0.000000
  70
    32
  0
VERTEX
  8
┌▓È_1
  5
BE2
 10
982.056
 20
-70.9148
 30
0.000000
  70
    32
  0
VERTEX
  8
┌▓È_1
  5
BE3
 10
982.027
 20
-70.9455
 30
0.000000
  70
    32
  0
VERTEX
  8
┌▓È_1
  5
BE4
 10
981.999
 20
-70.9767
 30
0.000000
  70
    32
  0
VERTEX
  8
┌▓È_1
  5
BE5
 10
981.972
 20
-71.0084
 30
0.000000
  70
    32
  0
VERTEX
  8
┌▓È_1
  5
BE6
 10
981.945
 20
-71.0406
 30
0.000000
  70
    32
  0
VERTEX
  8
┌▓È_1
  5
BE7
 10
981.919
 20
-71.0732
 30
0.000000
  70
    32
  0
VERTEX
  8
┌▓È_1
  5
BE8
 10
981.893
 20
-71.1062
 30
0.000000
  70
    32
  0
VERTEX
  8
┌▓È_1
  5
BE9
 10
981.868
 20
-71.1397
 30
0.000000
  70
    32
  0
VERTEX
  8
┌▓È_1
  5
BEA
 10
981.843
 20
-71.1736
 30
0.000000
  70
    32
  0
VERTEX
  8
┌▓È_1
  5
BEB
 10
981.819
 20
-71.2078
 30
0.000000
  70
    32
  0
VERTEX
  8
┌▓È_1
  5
BEC
 10
981.796
 20
-71.2425
 30
0.000000
  70
    32
  0
VERTEX
  8
┌▓È_1
  5
BED
 10
981.773
 20
-71.2776
 30
0.000000
  70
    32
  0
VERTEX
  8
┌▓È_1
  5
BEE
 10
981.751
 20
-71.3130
 30
0.000000
  70
    32
  0
VERTEX
  8
┌▓È_1
  5
BEF
 10
981.729
 20
-71.3489
 30
0.000000
  70
    32
  0
VERTEX
  8
┌▓È_1
  5
BF0
 10
981.708
 20
-71.3850
 30
0.000000
  70
    32
  0
VERTEX
  8
┌▓È_1
  5
BF1
 10
981.688
 20
-71.4215
 30
0.000000
  70
    32
  0
VERTEX
  8
┌▓È_1
  5
BF2
 10
981.668
 20
-71.4584
 30
0.000000
  70
    32
  0
VERTEX
  8
┌▓È_1
  5
BF3
 10
981.648
 20
-71.4956
 30
0.000000
  70
    32
  0
VERTEX
  8
┌▓È_1
  5
BF4
 10
981.630
 20
-71.5331
 30
0.000000
  70
    32
  0
VERTEX
  8
┌▓È_1
  5
BF5
 10
981.612
 20
-71.5709
 30
0.000000
  70
    32
  0
VERTEX
  8
┌▓È_1
  5
BF6
 10
981.594
 20
-71.6090
 30
0.000000
  70
    32
  0
VERTEX
  8
┌▓È_1
  5
BF7
 10
981.578
 20
-71.6474
 30
0.000000
  70
    32
  0
VERTEX
  8
┌▓È_1
  5
BF8
 10
981.562
 20
-71.6861
 30
0.000000
  70
    32
  0
VERTEX
  8
┌▓È_1
  5
BF9
 10
981.546
 20
-71.7250
 30
0.000000
  70
    32
  0
VERTEX
  8
┌▓È_1
  5
BFA
 10
981.531
 20
-71.7642
 30
0.000000
  70
    32
  0
VERTEX
  8
┌▓È_1
  5
BFB
 10
981.517
 20
-71.8036
 30
0.000000
  70
    32
  0
VERTEX
  8
┌▓È_1
  5
BFC
 10
981.504
 20
-71.8433
 30
0.000000
  70
    32
  0
VERTEX
  8
┌▓È_1
  5
BFD
 10
981.491
 20
-71.8831
 30
0.000000
  70
    32
  0
VERTEX
  8
┌▓È_1
  5
BFE
 10
981.479
 20
-71.9232
 30
0.000000
  70
    32
  0
VERTEX
  8
┌▓È_1
  5
BFF
 10
981.468
 20
-71.9635
 30
0.000000
  70
    32
  0
VERTEX
  8
┌▓È_1
  5
C00
 10
981.457
 20
-72.0040
 30
0.000000
  70
    32
  0
VERTEX
  8
┌▓È_1
  5
C01
 10
981.447
 20
-72.0446
 30
0.000000
  70
    32
  0
VERTEX
  8
┌▓È_1
  5
C02
 10
981.437
 20
-72.0854
 30
0.000000
  70
    32
  0
VERTEX
  8
┌▓È_1
  5
C03
 10
981.429
 20
-72.1264
 30
0.000000
  70
    32
  0
VERTEX
  8
┌▓È_1
  5
C04
 10
981.421
 20
-72.1675
 30
0.000000
  70
    32
  0
VERTEX
  8
┌▓È_1
  5
C05
 10
981.413
 20
-72.2087
 30
0.000000
  70
    32
  0
VERTEX
  8
┌▓È_1
  5
C06
 10
981.407
 20
-72.2500
 30
0.000000
  70
    32
  0
VERTEX
  8
┌▓È_1
  5
C07
 10
981.401
 20
-72.2915
 30
0.000000
  70
    32
  0
VERTEX
  8
┌▓È_1
  5
C08
 10
981.395
 20
-72.3330
 30
0.000000
  70
    32
  0
VERTEX
  8
┌▓È_1
  5
C09
 10
981.391
 20
-72.3747
 30
0.000000
  70
    32
  0
VERTEX
  8
┌▓È_1
  5
C0A
 10
981.387
 20
-72.4164
 30
0.000000
  70
    32
  0
VERTEX
  8
┌▓È_1
  5
C0B
 10
981.384
 20
-72.4581
 30
0.000000
  70
    32
  0
VERTEX
  8
┌▓È_1
  5
C0C
 10
981.381
 20
-72.4999
 30
0.000000
  70
    32
  0
VERTEX
  8
┌▓È_1
  5
C0D
 10
981.380
 20
-72.5417
 30
0.000000
  70
    32
  0
VERTEX
  8
┌▓È_1
  5
C0E
 10
981.379
 20
-72.5836
 30
0.000000
  70
    32
  0
VERTEX
  8
┌▓È_1
  5
C0F
 10
981.378
 20
-72.6255
 30
0.000000
  70
    32
  0
VERTEX
  8
┌▓È_1
  5
C10
 10
981.379
 20
-72.6673
 30
0.000000
  70
    32
  0
VERTEX
  8
┌▓È_1
  5
C11
 10
981.380
 20
-72.7092
 30
0.000000
  70
    32
  0
VERTEX
  8
┌▓È_1
  5
C12
 10
981.381
 20
-72.7510
 30
0.000000
  70
    32
  0
VERTEX
  8
┌▓È_1
  5
C13
 10
981.384
 20
-72.7928
 30
0.000000
  70
    32
  0
VERTEX
  8
┌▓È_1
  5
C14
 10
981.387
 20
-72.8346
 30
0.000000
  70
    32
  0
VERTEX
  8
┌▓È_1
  5
C15
 10
981.391
 20
-72.8763
 30
0.000000
  70
    32
  0
VERTEX
  8
┌▓È_1
  5
C16
 10
981.395
 20
-72.9179
 30
0.000000
  70
    32
  0
VERTEX
  8
┌▓È_1
  5
C17
 10
981.400
 20
-72.9595
 30
0.000000
  70
    32
  0
VERTEX
  8
┌▓È_1
  5
C18
 10
981.406
 20
-73.0009
 30
0.000000
  70
    32
  0
VERTEX
  8
┌▓È_1
  5
C19
 10
981.413
 20
-73.0423
 30
0.000000
  70
    32
  0
VERTEX
  8
┌▓È_1
  5
C1A
 10
981.420
 20
-73.0835
 30
0.000000
  70
    32
  0
VERTEX
  8
┌▓È_1
  5
C1B
 10
981.428
 20
-73.1246
 30
0.000000
  70
    32
  0
VERTEX
  8
┌▓È_1
  5
C1C
 10
981.437
 20
-73.1656
 30
0.000000
  70
    32
  0
VERTEX
  8
┌▓È_1
  5
C1D
 10
981.446
 20
-73.2064
 30
0.000000
  70
    32
  0
VERTEX
  8
┌▓È_1
  5
C1E
 10
981.457
 20
-73.2470
 30
0.000000
  70
    32
  0
VERTEX
  8
┌▓È_1
  5
C1F
 10
981.467
 20
-73.2875
 30
0.000000
  70
    32
  0
VERTEX
  8
┌▓È_1
  5
C20
 10
981.479
 20
-73.3278
 30
0.000000
  70
    32
  0
VERTEX
  8
┌▓È_1
  5
C21
 10
981.491
 20
-73.3679
 30
0.000000
  70
    32
  0
SEQEND
  8
┌▓È_1
  5
C22
  0
ARC
  5
261
  8
┌▓È_1
 62
     5
 10
978.67072332169994
 20
-73.291876680299993
 30
0.0
 40
2.5
 50
219.7850730063
 51
300.5781783612
  0
LINE
  5
262
  8
┌▓È_1
 62
     5
 10
955.8001534048999
 20
-75.466611589099998
 30
0.0
 11
953.52060214769995
 21
-74.700424222500004
 31
0.0
  0
ARC
  5
263
  8
┌▓È_1
 62
     5
 10
958.27843540240008
 20
-75.79542512430001
 30
0.0
 40
2.5
 50
71.4218387592
 51
191.8988781086
  0
ARC
  5
264
  8
┌▓È_1
 62
     5
 10
958.27843540240008
 20
-75.79542512430001
 30
0.0
 40
1.5
 50
71.421809310100002
 51
180.0
  0
ARC
  5
265
  8
┌▓È_1
 62
     5
 10
958.02367877499989
 20
-75.686480445800001
 30
0.0
 40
0.5
 50
298.57812271829999
 51
118.5781854075
  0
ARC
  5
266
  8
┌▓È_1
 62
     5
 10
968.70017000429993
 20
-74.515797097499984
 30
0.0
 40
2.5
 50
73.421835414100002
 51
196.6916363938
  0
ARC
  5
267
  8
┌▓È_1
 62
     5
 10
1003.8492368071001
 20
-77.149037681999999
 30
0.0
 40
0.5
 50
215.57812271829999
 51
35.578185407500001
  0
ARC
  5
268
  8
┌▓È_1
 62
     5
 10
963.48930269849996
 20
-75.155611071400003
 30
0.0
 40
2.5
 50
221.73882590310001
 51
300.5781783612
  0
ARC
  5
269
  8
┌▓È_1
 62
     5
 10
1016.2893325932
 20
-77.797525234399998
 30
0.0
 40
0.5
 50
26.987213627399999
 51
206.9872763166
  0
ARC
  5
26A
  8
┌▓È_1
 62
     5
 10
1016.5866563924
 20
-77.587677261599993
 30
0.0
 40
1.5
 50
312.3545217189
 51
26.987275520000001
  0
ARC
  5
26B
  8
┌▓È_1
 62
     5
 10
1016.5866563924
 20
-77.587677261599993
 30
0.0
 40
2.5
 50
304.71338381010003
 51
26.987269270300001
  0
LINE
  5
26C
  8
┌▓È_1
 62
     5
 10
1016.0058042493999
 20
-74.818568023099999
 30
0.0
 11
1015.1786374471
 21
-77.070490013400004
 31
0.0
  0
LINE
  5
26D
  8
┌▓È_1
 62
     5
 10
1015.0647056504999
 20
-74.48036295819999
 30
0.0
 11
1014.2399579626
 21
-76.725699025500006
 31
0.0
  0
LINE
  5
26E
  8
┌▓È_1
 62
     5
 10
958.26285749349995
 20
-76.125563058400004
 30
0.0
 11
954.23859887679998
 21
-78.317672222299976
 31
0.0
  0
LINE
  5
26F
  8
┌▓È_1
 62
     5
 10
957.78450005649995
 20
-75.247397833299999
 30
0.0
 11
953.76024143990003
 21
-77.439506997199999
 31
0.0
  0
POLYLINE
  5
270
  8
┌▓È_1
 62
     5
 10
936.01687929841739
 20
-78.965479594171128
 30
0.0
 66
     1
 70
     8
  0
VERTEX
  8
┌▓È_1
  5
C23
 10
936.017
 20
-78.9655
 30
0.000000
  70
    32
  0
VERTEX
  8
┌▓È_1
  5
C24
 10
936.100
 20
-79.0373
 30
0.000000
  70
    32
  0
VERTEX
  8
┌▓È_1
  5
C25
 10
936.186
 20
-79.1083
 30
0.000000
  70
    32
  0
VERTEX
  8
┌▓È_1
  5
C26
 10
936.274
 20
-79.1785
 30
0.000000
  70
    32
  0
VERTEX
  8
┌▓È_1
  5
C27
 10
936.363
 20
-79.2478
 30
0.000000
  70
    32
  0
VERTEX
  8
┌▓È_1
  5
C28
 10
936.455
 20
-79.3163
 30
0.000000
  70
    32
  0
VERTEX
  8
┌▓È_1
  5
C29
 10
936.548
 20
-79.3838
 30
0.000000
  70
    32
  0
VERTEX
  8
┌▓È_1
  5
C2A
 10
936.644
 20
-79.4505
 30
0.000000
  70
    32
  0
VERTEX
  8
┌▓È_1
  5
C2B
 10
936.741
 20
-79.5162
 30
0.000000
  70
    32
  0
VERTEX
  8
┌▓È_1
  5
C2C
 10
936.841
 20
-79.5810
 30
0.000000
  70
    32
  0
VERTEX
  8
┌▓È_1
  5
C2D
 10
936.942
 20
-79.6448
 30
0.000000
  70
    32
  0
VERTEX
  8
┌▓È_1
  5
C2E
 10
937.045
 20
-79.7077
 30
0.000000
  70
    32
  0
VERTEX
  8
┌▓È_1
  5
C2F
 10
937.150
 20
-79.7695
 30
0.000000
  70
    32
  0
VERTEX
  8
┌▓È_1
  5
C30
 10
937.257
 20
-79.8303
 30
0.000000
  70
    32
  0
VERTEX
  8
┌▓È_1
  5
C31
 10
937.365
 20
-79.8901
 30
0.000000
  70
    32
  0
VERTEX
  8
┌▓È_1
  5
C32
 10
937.475
 20
-79.9489
 30
0.000000
  70
    32
  0
VERTEX
  8
┌▓È_1
  5
C33
 10
937.587
 20
-80.0065
 30
0.000000
  70
    32
  0
VERTEX
  8
┌▓È_1
  5
C34
 10
937.700
 20
-80.0632
 30
0.000000
  70
    32
  0
VERTEX
  8
┌▓È_1
  5
C35
 10
937.815
 20
-80.1187
 30
0.000000
  70
    32
  0
VERTEX
  8
┌▓È_1
  5
C36
 10
937.932
 20
-80.1730
 30
0.000000
  70
    32
  0
VERTEX
  8
┌▓È_1
  5
C37
 10
938.050
 20
-80.2263
 30
0.000000
  70
    32
  0
VERTEX
  8
┌▓È_1
  5
C38
 10
938.170
 20
-80.2784
 30
0.000000
  70
    32
  0
VERTEX
  8
┌▓È_1
  5
C39
 10
938.291
 20
-80.3294
 30
0.000000
  70
    32
  0
VERTEX
  8
┌▓È_1
  5
C3A
 10
938.414
 20
-80.3792
 30
0.000000
  70
    32
  0
VERTEX
  8
┌▓È_1
  5
C3B
 10
938.538
 20
-80.4278
 30
0.000000
  70
    32
  0
VERTEX
  8
┌▓È_1
  5
C3C
 10
938.664
 20
-80.4752
 30
0.000000
  70
    32
  0
VERTEX
  8
┌▓È_1
  5
C3D
 10
938.791
 20
-80.5214
 30
0.000000
  70
    32
  0
VERTEX
  8
┌▓È_1
  5
C3E
 10
938.919
 20
-80.5664
 30
0.000000
  70
    32
  0
VERTEX
  8
┌▓È_1
  5
C3F
 10
939.048
 20
-80.6101
 30
0.000000
  70
    32
  0
VERTEX
  8
┌▓È_1
  5
C40
 10
939.179
 20
-80.6526
 30
0.000000
  70
    32
  0
VERTEX
  8
┌▓È_1
  5
C41
 10
939.311
 20
-80.6938
 30
0.000000
  70
    32
  0
VERTEX
  8
┌▓È_1
  5
C42
 10
939.444
 20
-80.7338
 30
0.000000
  70
    32
  0
VERTEX
  8
┌▓È_1
  5
C43
 10
939.579
 20
-80.7724
 30
0.000000
  70
    32
  0
VERTEX
  8
┌▓È_1
  5
C44
 10
939.714
 20
-80.8098
 30
0.000000
  70
    32
  0
VERTEX
  8
┌▓È_1
  5
C45
 10
939.850
 20
-80.8459
 30
0.000000
  70
    32
  0
VERTEX
  8
┌▓È_1
  5
C46
 10
939.988
 20
-80.8806
 30
0.000000
  70
    32
  0
VERTEX
  8
┌▓È_1
  5
C47
 10
940.126
 20
-80.9141
 30
0.000000
  70
    32
  0
VERTEX
  8
┌▓È_1
  5
C48
 10
940.266
 20
-80.9461
 30
0.000000
  70
    32
  0
VERTEX
  8
┌▓È_1
  5
C49
 10
940.406
 20
-80.9769
 30
0.000000
  70
    32
  0
VERTEX
  8
┌▓È_1
  5
C4A
 10
940.547
 20
-81.0063
 30
0.000000
  70
    32
  0
VERTEX
  8
┌▓È_1
  5
C4B
 10
940.689
 20
-81.0343
 30
0.000000
  70
    32
  0
VERTEX
  8
┌▓È_1
  5
C4C
 10
940.832
 20
-81.0610
 30
0.000000
  70
    32
  0
VERTEX
  8
┌▓È_1
  5
C4D
 10
940.976
 20
-81.0863
 30
0.000000
  70
    32
  0
VERTEX
  8
┌▓È_1
  5
C4E
 10
941.120
 20
-81.1102
 30
0.000000
  70
    32
  0
VERTEX
  8
┌▓È_1
  5
C4F
 10
941.265
 20
-81.1328
 30
0.000000
  70
    32
  0
VERTEX
  8
┌▓È_1
  5
C50
 10
941.411
 20
-81.1539
 30
0.000000
  70
    32
  0
VERTEX
  8
┌▓È_1
  5
C51
 10
941.557
 20
-81.1736
 30
0.000000
  70
    32
  0
VERTEX
  8
┌▓È_1
  5
C52
 10
941.704
 20
-81.1919
 30
0.000000
  70
    32
  0
VERTEX
  8
┌▓È_1
  5
C53
 10
941.851
 20
-81.2089
 30
0.000000
  70
    32
  0
VERTEX
  8
┌▓È_1
  5
C54
 10
941.999
 20
-81.2244
 30
0.000000
  70
    32
  0
VERTEX
  8
┌▓È_1
  5
C55
 10
942.147
 20
-81.2384
 30
0.000000
  70
    32
  0
VERTEX
  8
┌▓È_1
  5
C56
 10
942.295
 20
-81.2511
 30
0.000000
  70
    32
  0
VERTEX
  8
┌▓È_1
  5
C57
 10
942.444
 20
-81.2623
 30
0.000000
  70
    32
  0
VERTEX
  8
┌▓È_1
  5
C58
 10
942.593
 20
-81.2721
 30
0.000000
  70
    32
  0
VERTEX
  8
┌▓È_1
  5
C59
 10
942.743
 20
-81.2805
 30
0.000000
  70
    32
  0
VERTEX
  8
┌▓È_1
  5
C5A
 10
942.893
 20
-81.2874
 30
0.000000
  70
    32
  0
VERTEX
  8
┌▓È_1
  5
C5B
 10
943.043
 20
-81.2929
 30
0.000000
  70
    32
  0
VERTEX
  8
┌▓È_1
  5
C5C
 10
943.193
 20
-81.2969
 30
0.000000
  70
    32
  0
VERTEX
  8
┌▓È_1
  5
C5D
 10
943.343
 20
-81.2995
 30
0.000000
  70
    32
  0
VERTEX
  8
┌▓È_1
  5
C5E
 10
943.493
 20
-81.3007
 30
0.000000
  70
    32
  0
VERTEX
  8
┌▓È_1
  5
C5F
 10
943.643
 20
-81.3004
 30
0.000000
  70
    32
  0
VERTEX
  8
┌▓È_1
  5
C60
 10
943.793
 20
-81.2987
 30
0.000000
  70
    32
  0
VERTEX
  8
┌▓È_1
  5
C61
 10
943.943
 20
-81.2956
 30
0.000000
  70
    32
  0
VERTEX
  8
┌▓È_1
  5
C62
 10
944.093
 20
-81.2910
 30
0.000000
  70
    32
  0
VERTEX
  8
┌▓È_1
  5
C63
 10
944.243
 20
-81.2849
 30
0.000000
  70
    32
  0
VERTEX
  8
┌▓È_1
  5
C64
 10
944.392
 20
-81.2774
 30
0.000000
  70
    32
  0
VERTEX
  8
┌▓È_1
  5
C65
 10
944.542
 20
-81.2685
 30
0.000000
  70
    32
  0
VERTEX
  8
┌▓È_1
  5
C66
 10
944.691
 20
-81.2582
 30
0.000000
  70
    32
  0
VERTEX
  8
┌▓È_1
  5
C67
 10
944.840
 20
-81.2464
 30
0.000000
  70
    32
  0
VERTEX
  8
┌▓È_1
  5
C68
 10
944.988
 20
-81.2332
 30
0.000000
  70
    32
  0
VERTEX
  8
┌▓È_1
  5
C69
 10
945.136
 20
-81.2186
 30
0.000000
  70
    32
  0
VERTEX
  8
┌▓È_1
  5
C6A
 10
945.284
 20
-81.2026
 30
0.000000
  70
    32
  0
VERTEX
  8
┌▓È_1
  5
C6B
 10
945.431
 20
-81.1851
 30
0.000000
  70
    32
  0
VERTEX
  8
┌▓È_1
  5
C6C
 10
945.577
 20
-81.1662
 30
0.000000
  70
    32
  0
VERTEX
  8
┌▓È_1
  5
C6D
 10
945.723
 20
-81.1460
 30
0.000000
  70
    32
  0
VERTEX
  8
┌▓È_1
  5
C6E
 10
945.869
 20
-81.1243
 30
0.000000
  70
    32
  0
VERTEX
  8
┌▓È_1
  5
C6F
 10
946.013
 20
-81.1012
 30
0.000000
  70
    32
  0
VERTEX
  8
┌▓È_1
  5
C70
 10
946.157
 20
-81.0768
 30
0.000000
  70
    32
  0
VERTEX
  8
┌▓È_1
  5
C71
 10
946.301
 20
-81.0510
 30
0.000000
  70
    32
  0
VERTEX
  8
┌▓È_1
  5
C72
 10
946.443
 20
-81.0238
 30
0.000000
  70
    32
  0
VERTEX
  8
┌▓È_1
  5
C73
 10
946.585
 20
-80.9952
 30
0.000000
  70
    32
  0
VERTEX
  8
┌▓È_1
  5
C74
 10
946.726
 20
-80.9653
 30
0.000000
  70
    32
  0
VERTEX
  8
┌▓È_1
  5
C75
 10
946.866
 20
-80.9340
 30
0.000000
  70
    32
  0
VERTEX
  8
┌▓È_1
  5
C76
 10
947.005
 20
-80.9014
 30
0.000000
  70
    32
  0
VERTEX
  8
┌▓È_1
  5
C77
 10
947.143
 20
-80.8675
 30
0.000000
  70
    32
  0
VERTEX
  8
┌▓È_1
  5
C78
 10
947.280
 20
-80.8322
 30
0.000000
  70
    32
  0
VERTEX
  8
┌▓È_1
  5
C79
 10
947.416
 20
-80.7957
 30
0.000000
  70
    32
  0
VERTEX
  8
┌▓È_1
  5
C7A
 10
947.551
 20
-80.7578
 30
0.000000
  70
    32
  0
VERTEX
  8
┌▓È_1
  5
C7B
 10
947.685
 20
-80.7186
 30
0.000000
  70
    32
  0
VERTEX
  8
┌▓È_1
  5
C7C
 10
947.818
 20
-80.6782
 30
0.000000
  70
    32
  0
VERTEX
  8
┌▓È_1
  5
C7D
 10
947.949
 20
-80.6365
 30
0.000000
  70
    32
  0
VERTEX
  8
┌▓È_1
  5
C7E
 10
948.079
 20
-80.5935
 30
0.000000
  70
    32
  0
VERTEX
  8
┌▓È_1
  5
C7F
 10
948.209
 20
-80.5493
 30
0.000000
  70
    32
  0
VERTEX
  8
┌▓È_1
  5
C80
 10
948.336
 20
-80.5039
 30
0.000000
  70
    32
  0
VERTEX
  8
┌▓È_1
  5
C81
 10
948.463
 20
-80.4572
 30
0.000000
  70
    32
  0
VERTEX
  8
┌▓È_1
  5
C82
 10
948.588
 20
-80.4093
 30
0.000000
  70
    32
  0
VERTEX
  8
┌▓È_1
  5
C83
 10
948.711
 20
-80.3603
 30
0.000000
  70
    32
  0
VERTEX
  8
┌▓È_1
  5
C84
 10
948.833
 20
-80.3100
 30
0.000000
  70
    32
  0
VERTEX
  8
┌▓È_1
  5
C85
 10
948.954
 20
-80.2586
 30
0.000000
  70
    32
  0
VERTEX
  8
┌▓È_1
  5
C86
 10
949.073
 20
-80.2061
 30
0.000000
  70
    32
  0
VERTEX
  8
┌▓È_1
  5
C87
 10
949.191
 20
-80.1524
 30
0.000000
  70
    32
  0
VERTEX
  8
┌▓È_1
  5
C88
 10
949.307
 20
-80.0975
 30
0.000000
  70
    32
  0
VERTEX
  8
┌▓È_1
  5
C89
 10
949.421
 20
-80.0416
 30
0.000000
  70
    32
  0
VERTEX
  8
┌▓È_1
  5
C8A
 10
949.534
 20
-79.9846
 30
0.000000
  70
    32
  0
VERTEX
  8
┌▓È_1
  5
C8B
 10
949.645
 20
-79.9265
 30
0.000000
  70
    32
  0
VERTEX
  8
┌▓È_1
  5
C8C
 10
949.755
 20
-79.8674
 30
0.000000
  70
    32
  0
VERTEX
  8
┌▓È_1
  5
C8D
 10
949.863
 20
-79.8072
 30
0.000000
  70
    32
  0
VERTEX
  8
┌▓È_1
  5
C8E
 10
949.969
 20
-79.7459
 30
0.000000
  70
    32
  0
VERTEX
  8
┌▓È_1
  5
C8F
 10
950.073
 20
-79.6837
 30
0.000000
  70
    32
  0
VERTEX
  8
┌▓È_1
  5
C90
 10
950.175
 20
-79.6205
 30
0.000000
  70
    32
  0
VERTEX
  8
┌▓È_1
  5
C91
 10
950.276
 20
-79.5563
 30
0.000000
  70
    32
  0
VERTEX
  8
┌▓È_1
  5
C92
 10
950.374
 20
-79.4912
 30
0.000000
  70
    32
  0
VERTEX
  8
┌▓È_1
  5
C93
 10
950.471
 20
-79.4251
 30
0.000000
  70
    32
  0
VERTEX
  8
┌▓È_1
  5
C94
 10
950.566
 20
-79.3581
 30
0.000000
  70
    32
  0
VERTEX
  8
┌▓È_1
  5
C95
 10
950.659
 20
-79.2902
 30
0.000000
  70
    32
  0
VERTEX
  8
┌▓È_1
  5
C96
 10
950.750
 20
-79.2214
 30
0.000000
  70
    32
  0
VERTEX
  8
┌▓È_1
  5
C97
 10
950.838
 20
-79.1517
 30
0.000000
  70
    32
  0
VERTEX
  8
┌▓È_1
  5
C98
 10
950.925
 20
-79.0812
 30
0.000000
  70
    32
  0
VERTEX
  8
┌▓È_1
  5
C99
 10
951.010
 20
-79.0099
 30
0.000000
  70
    32
  0
VERTEX
  8
┌▓È_1
  5
C9A
 10
951.093
 20
-78.9378
 30
0.000000
  70
    32
  0
VERTEX
  8
┌▓È_1
  5
C9B
 10
951.173
 20
-78.8649
 30
0.000000
  70
    32
  0
VERTEX
  8
┌▓È_1
  5
C9C
 10
951.252
 20
-78.7912
 30
0.000000
  70
    32
  0
VERTEX
  8
┌▓È_1
  5
C9D
 10
951.328
 20
-78.7168
 30
0.000000
  70
    32
  0
VERTEX
  8
┌▓È_1
  5
C9E
 10
951.402
 20
-78.6417
 30
0.000000
  70
    32
  0
VERTEX
  8
┌▓È_1
  5
C9F
 10
951.474
 20
-78.5658
 30
0.000000
  70
    32
  0
VERTEX
  8
┌▓È_1
  5
CA0
 10
951.544
 20
-78.4893
 30
0.000000
  70
    32
  0
VERTEX
  8
┌▓È_1
  5
CA1
 10
951.611
 20
-78.4121
 30
0.000000
  70
    32
  0
VERTEX
  8
┌▓È_1
  5
CA2
 10
951.677
 20
-78.3343
 30
0.000000
  70
    32
  0
VERTEX
  8
┌▓È_1
  5
CA3
 10
951.740
 20
-78.2559
 30
0.000000
  70
    32
  0
SEQEND
  8
┌▓È_1
  5
CA4
  0
POLYLINE
  5
271
  8
┌▓È_1
 62
     5
 10
936.33106353797405
 20
-77.935012533624274
 30
0.0
 66
     1
 70
     8
  0
VERTEX
  8
┌▓È_1
  5
CA5
 10
936.331
 20
-77.9350
 30
0.000000
  70
    32
  0
VERTEX
  8
┌▓È_1
  5
CA6
 10
936.395
 20
-78.0033
 30
0.000000
  70
    32
  0
VERTEX
  8
┌▓È_1
  5
CA7
 10
936.462
 20
-78.0710
 30
0.000000
  70
    32
  0
VERTEX
  8
┌▓È_1
  5
CA8
 10
936.531
 20
-78.1380
 30
0.000000
  70
    32
  0
VERTEX
  8
┌▓È_1
  5
CA9
 10
936.603
 20
-78.2043
 30
0.000000
  70
    32
  0
VERTEX
  8
┌▓È_1
  5
CAA
 10
936.677
 20
-78.2700
 30
0.000000
  70
    32
  0
VERTEX
  8
┌▓È_1
  5
CAB
 10
936.753
 20
-78.3349
 30
0.000000
  70
    32
  0
VERTEX
  8
┌▓È_1
  5
CAC
 10
936.831
 20
-78.3991
 30
0.000000
  70
    32
  0
VERTEX
  8
┌▓È_1
  5
CAD
 10
936.912
 20
-78.4626
 30
0.000000
  70
    32
  0
VERTEX
  8
┌▓È_1
  5
CAE
 10
936.994
 20
-78.5253
 30
0.000000
  70
    32
  0
VERTEX
  8
┌▓È_1
  5
CAF
 10
937.079
 20
-78.5871
 30
0.000000
  70
    32
  0
VERTEX
  8
┌▓È_1
  5
CB0
 10
937.166
 20
-78.6482
 30
0.000000
  70
    32
  0
VERTEX
  8
┌▓È_1
  5
CB1
 10
937.255
 20
-78.7084
 30
0.000000
  70
    32
  0
VERTEX
  8
┌▓È_1
  5
CB2
 10
937.347
 20
-78.7678
 30
0.000000
  70
    32
  0
VERTEX
  8
┌▓È_1
  5
CB3
 10
937.440
 20
-78.8263
 30
0.000000
  70
    32
  0
VERTEX
  8
┌▓È_1
  5
CB4
 10
937.535
 20
-78.8839
 30
0.000000
  70
    32
  0
VERTEX
  8
┌▓È_1
  5
CB5
 10
937.633
 20
-78.9405
 30
0.000000
  70
    32
  0
VERTEX
  8
┌▓È_1
  5
CB6
 10
937.732
 20
-78.9963
 30
0.000000
  70
    32
  0
VERTEX
  8
┌▓È_1
  5
CB7
 10
937.833
 20
-79.0511
 30
0.000000
  70
    32
  0
VERTEX
  8
┌▓È_1
  5
CB8
 10
937.936
 20
-79.1049
 30
0.000000
  70
    32
  0
VERTEX
  8
┌▓È_1
  5
CB9
 10
938.041
 20
-79.1577
 30
0.000000
  70
    32
  0
VERTEX
  8
┌▓È_1
  5
CBA
 10
938.148
 20
-79.2095
 30
0.000000
  70
    32
  0
VERTEX
  8
┌▓È_1
  5
CBB
 10
938.257
 20
-79.2603
 30
0.000000
  70
    32
  0
VERTEX
  8
┌▓È_1
  5
CBC
 10
938.367
 20
-79.3100
 30
0.000000
  70
    32
  0
VERTEX
  8
┌▓È_1
  5
CBD
 10
938.479
 20
-79.3587
 30
0.000000
  70
    32
  0
VERTEX
  8
┌▓È_1
  5
CBE
 10
938.593
 20
-79.4063
 30
0.000000
  70
    32
  0
VERTEX
  8
┌▓È_1
  5
CBF
 10
938.708
 20
-79.4529
 30
0.000000
  70
    32
  0
VERTEX
  8
┌▓È_1
  5
CC0
 10
938.825
 20
-79.4983
 30
0.000000
  70
    32
  0
VERTEX
  8
┌▓È_1
  5
CC1
 10
938.944
 20
-79.5426
 30
0.000000
  70
    32
  0
VERTEX
  8
┌▓È_1
  5
CC2
 10
939.064
 20
-79.5857
 30
0.000000
  70
    32
  0
VERTEX
  8
┌▓È_1
  5
CC3
 10
939.185
 20
-79.6277
 30
0.000000
  70
    32
  0
VERTEX
  8
┌▓È_1
  5
CC4
 10
939.308
 20
-79.6686
 30
0.000000
  70
    32
  0
VERTEX
  8
┌▓È_1
  5
CC5
 10
939.433
 20
-79.7083
 30
0.000000
  70
    32
  0
VERTEX
  8
┌▓È_1
  5
CC6
 10
939.558
 20
-79.7467
 30
0.000000
  70
    32
  0
VERTEX
  8
┌▓È_1
  5
CC7
 10
939.685
 20
-79.7840
 30
0.000000
  70
    32
  0
VERTEX
  8
┌▓È_1
  5
CC8
 10
939.814
 20
-79.8201
 30
0.000000
  70
    32
  0
VERTEX
  8
┌▓È_1
  5
CC9
 10
939.943
 20
-79.8549
 30
0.000000
  70
    32
  0
VERTEX
  8
┌▓È_1
  5
CCA
 10
940.074
 20
-79.8885
 30
0.000000
  70
    32
  0
VERTEX
  8
┌▓È_1
  5
CCB
 10
940.206
 20
-79.9209
 30
0.000000
  70
    32
  0
VERTEX
  8
┌▓È_1
  5
CCC
 10
940.339
 20
-79.9520
 30
0.000000
  70
    32
  0
VERTEX
  8
┌▓È_1
  5
CCD
 10
940.473
 20
-79.9818
 30
0.000000
  70
    32
  0
VERTEX
  8
┌▓È_1
  5
CCE
 10
940.608
 20
-80.0103
 30
0.000000
  70
    32
  0
VERTEX
  8
┌▓È_1
  5
CCF
 10
940.745
 20
-80.0375
 30
0.000000
  70
    32
  0
VERTEX
  8
┌▓È_1
  5
CD0
 10
940.882
 20
-80.0635
 30
0.000000
  70
    32
  0
VERTEX
  8
┌▓È_1
  5
CD1
 10
941.019
 20
-80.0881
 30
0.000000
  70
    32
  0
VERTEX
  8
┌▓È_1
  5
CD2
 10
941.158
 20
-80.1114
 30
0.000000
  70
    32
  0
VERTEX
  8
┌▓È_1
  5
CD3
 10
941.298
 20
-80.1334
 30
0.000000
  70
    32
  0
VERTEX
  8
┌▓È_1
  5
CD4
 10
941.438
 20
-80.1541
 30
0.000000
  70
    32
  0
VERTEX
  8
┌▓È_1
  5
CD5
 10
941.579
 20
-80.1734
 30
0.000000
  70
    32
  0
VERTEX
  8
┌▓È_1
  5
CD6
 10
941.721
 20
-80.1914
 30
0.000000
  70
    32
  0
VERTEX
  8
┌▓È_1
  5
CD7
 10
941.863
 20
-80.2080
 30
0.000000
  70
    32
  0
VERTEX
  8
┌▓È_1
  5
CD8
 10
942.006
 20
-80.2233
 30
0.000000
  70
    32
  0
VERTEX
  8
┌▓È_1
  5
CD9
 10
942.149
 20
-80.2372
 30
0.000000
  70
    32
  0
VERTEX
  8
┌▓È_1
  5
CDA
 10
942.293
 20
-80.2498
 30
0.000000
  70
    32
  0
VERTEX
  8
┌▓È_1
  5
CDB
 10
942.437
 20
-80.2609
 30
0.000000
  70
    32
  0
VERTEX
  8
┌▓È_1
  5
CDC
 10
942.581
 20
-80.2707
 30
0.000000
  70
    32
  0
VERTEX
  8
┌▓È_1
  5
CDD
 10
942.726
 20
-80.2792
 30
0.000000
  70
    32
  0
VERTEX
  8
┌▓È_1
  5
CDE
 10
942.871
 20
-80.2862
 30
0.000000
  70
    32
  0
VERTEX
  8
┌▓È_1
  5
CDF
 10
943.017
 20
-80.2919
 30
0.000000
  70
    32
  0
VERTEX
  8
┌▓È_1
  5
CE0
 10
943.162
 20
-80.2961
 30
0.000000
  70
    32
  0
VERTEX
  8
┌▓È_1
  5
CE1
 10
943.308
 20
-80.2990
 30
0.000000
  70
    32
  0
VERTEX
  8
┌▓È_1
  5
CE2
 10
943.454
 20
-80.3005
 30
0.000000
  70
    32
  0
VERTEX
  8
┌▓È_1
  5
CE3
 10
943.599
 20
-80.3007
 30
0.000000
  70
    32
  0
VERTEX
  8
┌▓È_1
  5
CE4
 10
943.745
 20
-80.2994
 30
0.000000
  70
    32
  0
VERTEX
  8
┌▓È_1
  5
CE5
 10
943.891
 20
-80.2967
 30
0.000000
  70
    32
  0
VERTEX
  8
┌▓È_1
  5
CE6
 10
944.036
 20
-80.2927
 30
0.000000
  70
    32
  0
VERTEX
  8
┌▓È_1
  5
CE7
 10
944.182
 20
-80.2873
 30
0.000000
  70
    32
  0
VERTEX
  8
┌▓È_1
  5
CE8
 10
944.327
 20
-80.2805
 30
0.000000
  70
    32
  0
VERTEX
  8
┌▓È_1
  5
CE9
 10
944.472
 20
-80.2723
 30
0.000000
  70
    32
  0
VERTEX
  8
┌▓È_1
  5
CEA
 10
944.616
 20
-80.2627
 30
0.000000
  70
    32
  0
VERTEX
  8
┌▓È_1
  5
CEB
 10
944.761
 20
-80.2518
 30
0.000000
  70
    32
  0
VERTEX
  8
┌▓È_1
  5
CEC
 10
944.905
 20
-80.2395
 30
0.000000
  70
    32
  0
VERTEX
  8
┌▓È_1
  5
CED
 10
945.048
 20
-80.2258
 30
0.000000
  70
    32
  0
VERTEX
  8
┌▓È_1
  5
CEE
 10
945.191
 20
-80.2107
 30
0.000000
  70
    32
  0
VERTEX
  8
┌▓È_1
  5
CEF
 10
945.333
 20
-80.1943
 30
0.000000
  70
    32
  0
VERTEX
  8
┌▓È_1
  5
CF0
 10
945.475
 20
-80.1766
 30
0.000000
  70
    32
  0
VERTEX
  8
┌▓È_1
  5
CF1
 10
945.616
 20
-80.1575
 30
0.000000
  70
    32
  0
VERTEX
  8
┌▓È_1
  5
CF2
 10
945.756
 20
-80.1371
 30
0.000000
  70
    32
  0
VERTEX
  8
┌▓È_1
  5
CF3
 10
945.896
 20
-80.1153
 30
0.000000
  70
    32
  0
VERTEX
  8
┌▓È_1
  5
CF4
 10
946.035
 20
-80.0922
 30
0.000000
  70
    32
  0
VERTEX
  8
┌▓È_1
  5
CF5
 10
946.173
 20
-80.0678
 30
0.000000
  70
    32
  0
VERTEX
  8
┌▓È_1
  5
CF6
 10
946.310
 20
-80.0421
 30
0.000000
  70
    32
  0
VERTEX
  8
┌▓È_1
  5
CF7
 10
946.447
 20
-80.0151
 30
0.000000
  70
    32
  0
VERTEX
  8
┌▓È_1
  5
CF8
 10
946.582
 20
-79.9868
 30
0.000000
  70
    32
  0
VERTEX
  8
┌▓È_1
  5
CF9
 10
946.716
 20
-79.9572
 30
0.000000
  70
    32
  0
VERTEX
  8
┌▓È_1
  5
CFA
 10
946.849
 20
-79.9263
 30
0.000000
  70
    32
  0
VERTEX
  8
┌▓È_1
  5
CFB
 10
946.981
 20
-79.8942
 30
0.000000
  70
    32
  0
VERTEX
  8
┌▓È_1
  5
CFC
 10
947.112
 20
-79.8608
 30
0.000000
  70
    32
  0
VERTEX
  8
┌▓È_1
  5
CFD
 10
947.242
 20
-79.8262
 30
0.000000
  70
    32
  0
VERTEX
  8
┌▓È_1
  5
CFE
 10
947.371
 20
-79.7903
 30
0.000000
  70
    32
  0
VERTEX
  8
┌▓È_1
  5
CFF
 10
947.498
 20
-79.7532
 30
0.000000
  70
    32
  0
VERTEX
  8
┌▓È_1
  5
D00
 10
947.624
 20
-79.7150
 30
0.000000
  70
    32
  0
VERTEX
  8
┌▓È_1
  5
D01
 10
947.749
 20
-79.6755
 30
0.000000
  70
    32
  0
VERTEX
  8
┌▓È_1
  5
D02
 10
947.872
 20
-79.6348
 30
0.000000
  70
    32
  0
VERTEX
  8
┌▓È_1
  5
D03
 10
947.994
 20
-79.5930
 30
0.000000
  70
    32
  0
VERTEX
  8
┌▓È_1
  5
D04
 10
948.114
 20
-79.5501
 30
0.000000
  70
    32
  0
VERTEX
  8
┌▓È_1
  5
D05
 10
948.233
 20
-79.5060
 30
0.000000
  70
    32
  0
VERTEX
  8
┌▓È_1
  5
D06
 10
948.350
 20
-79.4607
 30
0.000000
  70
    32
  0
VERTEX
  8
┌▓È_1
  5
D07
 10
948.466
 20
-79.4144
 30
0.000000
  70
    32
  0
VERTEX
  8
┌▓È_1
  5
D08
 10
948.580
 20
-79.3670
 30
0.000000
  70
    32
  0
VERTEX
  8
┌▓È_1
  5
D09
 10
948.692
 20
-79.3185
 30
0.000000
  70
    32
  0
VERTEX
  8
┌▓È_1
  5
D0A
 10
948.803
 20
-79.2689
 30
0.000000
  70
    32
  0
VERTEX
  8
┌▓È_1
  5
D0B
 10
948.912
 20
-79.2183
 30
0.000000
  70
    32
  0
VERTEX
  8
┌▓È_1
  5
D0C
 10
949.019
 20
-79.1667
 30
0.000000
  70
    32
  0
VERTEX
  8
┌▓È_1
  5
D0D
 10
949.124
 20
-79.1140
 30
0.000000
  70
    32
  0
VERTEX
  8
┌▓È_1
  5
D0E
 10
949.228
 20
-79.0604
 30
0.000000
  70
    32
  0
VERTEX
  8
┌▓È_1
  5
D0F
 10
949.329
 20
-79.0058
 30
0.000000
  70
    32
  0
VERTEX
  8
┌▓È_1
  5
D10
 10
949.429
 20
-78.9502
 30
0.000000
  70
    32
  0
VERTEX
  8
┌▓È_1
  5
D11
 10
949.526
 20
-78.8937
 30
0.000000
  70
    32
  0
VERTEX
  8
┌▓È_1
  5
D12
 10
949.622
 20
-78.8362
 30
0.000000
  70
    32
  0
VERTEX
  8
┌▓È_1
  5
D13
 10
949.716
 20
-78.7779
 30
0.000000
  70
    32
  0
VERTEX
  8
┌▓È_1
  5
D14
 10
949.807
 20
-78.7187
 30
0.000000
  70
    32
  0
VERTEX
  8
┌▓È_1
  5
D15
 10
949.897
 20
-78.6586
 30
0.000000
  70
    32
  0
VERTEX
  8
┌▓È_1
  5
D16
 10
949.984
 20
-78.5977
 30
0.000000
  70
    32
  0
VERTEX
  8
┌▓È_1
  5
D17
 10
950.070
 20
-78.5360
 30
0.000000
  70
    32
  0
VERTEX
  8
┌▓È_1
  5
D18
 10
950.153
 20
-78.4734
 30
0.000000
  70
    32
  0
VERTEX
  8
┌▓È_1
  5
D19
 10
950.234
 20
-78.4101
 30
0.000000
  70
    32
  0
VERTEX
  8
┌▓È_1
  5
D1A
 10
950.312
 20
-78.3460
 30
0.000000
  70
    32
  0
VERTEX
  8
┌▓È_1
  5
D1B
 10
950.389
 20
-78.2812
 30
0.000000
  70
    32
  0
VERTEX
  8
┌▓È_1
  5
D1C
 10
950.463
 20
-78.2157
 30
0.000000
  70
    32
  0
VERTEX
  8
┌▓È_1
  5
D1D
 10
950.535
 20
-78.1494
 30
0.000000
  70
    32
  0
VERTEX
  8
┌▓È_1
  5
D1E
 10
950.604
 20
-78.0825
 30
0.000000
  70
    32
  0
VERTEX
  8
┌▓È_1
  5
D1F
 10
950.671
 20
-78.0150
 30
0.000000
  70
    32
  0
VERTEX
  8
┌▓È_1
  5
D20
 10
950.736
 20
-77.9468
 30
0.000000
  70
    32
  0
VERTEX
  8
┌▓È_1
  5
D21
 10
950.799
 20
-77.8780
 30
0.000000
  70
    32
  0
VERTEX
  8
┌▓È_1
  5
D22
 10
950.859
 20
-77.8086
 30
0.000000
  70
    32
  0
VERTEX
  8
┌▓È_1
  5
D23
 10
950.916
 20
-77.7387
 30
0.000000
  70
    32
  0
VERTEX
  8
┌▓È_1
  5
D24
 10
950.972
 20
-77.6682
 30
0.000000
  70
    32
  0
VERTEX
  8
┌▓È_1
  5
D25
 10
951.024
 20
-77.5972
 30
0.000000
  70
    32
  0
SEQEND
  8
┌▓È_1
  5
D26
  0
POLYLINE
  5
272
  8
┌▓È_1
 62
     5
 10
952.25924341368159
 20
-77.403744803222025
 30
0.0
 66
     1
 70
     8
  0
VERTEX
  8
┌▓È_1
  5
D27
 10
952.259
 20
-77.4037
 30
0.000000
  70
    32
  0
VERTEX
  8
┌▓È_1
  5
D28
 10
952.321
 20
-77.2546
 30
0.000000
  70
    32
  0
VERTEX
  8
┌▓È_1
  5
D29
 10
952.376
 20
-77.1045
 30
0.000000
  70
    32
  0
VERTEX
  8
┌▓È_1
  5
D2A
 10
952.422
 20
-76.9536
 30
0.000000
  70
    32
  0
VERTEX
  8
┌▓È_1
  5
D2B
 10
952.461
 20
-76.8019
 30
0.000000
  70
    32
  0
VERTEX
  8
┌▓È_1
  5
D2C
 10
952.492
 20
-76.6496
 30
0.000000
  70
    32
  0
VERTEX
  8
┌▓È_1
  5
D2D
 10
952.516
 20
-76.4969
 30
0.000000
  70
    32
  0
VERTEX
  8
┌▓È_1
  5
D2E
 10
952.531
 20
-76.3438
 30
0.000000
  70
    32
  0
VERTEX
  8
┌▓È_1
  5
D2F
 10
952.538
 20
-76.1905
 30
0.000000
  70
    32
  0
VERTEX
  8
┌▓È_1
  5
D30
 10
952.538
 20
-76.0372
 30
0.000000
  70
    32
  0
VERTEX
  8
┌▓È_1
  5
D31
 10
952.530
 20
-75.8839
 30
0.000000
  70
    32
  0
VERTEX
  8
┌▓È_1
  5
D32
 10
952.513
 20
-75.7309
 30
0.000000
  70
    32
  0
VERTEX
  8
┌▓È_1
  5
D33
 10
952.489
 20
-75.5782
 30
0.000000
  70
    32
  0
VERTEX
  8
┌▓È_1
  5
D34
 10
952.457
 20
-75.4260
 30
0.000000
  70
    32
  0
VERTEX
  8
┌▓È_1
  5
D35
 10
952.418
 20
-75.2743
 30
0.000000
  70
    32
  0
VERTEX
  8
┌▓È_1
  5
D36
 10
952.370
 20
-75.1235
 30
0.000000
  70
    32
  0
VERTEX
  8
┌▓È_1
  5
D37
 10
952.315
 20
-74.9735
 30
0.000000
  70
    32
  0
VERTEX
  8
┌▓È_1
  5
D38
 10
952.252
 20
-74.8245
 30
0.000000
  70
    32
  0
VERTEX
  8
┌▓È_1
  5
D39
 10
952.181
 20
-74.6766
 30
0.000000
  70
    32
  0
VERTEX
  8
┌▓È_1
  5
D3A
 10
952.103
 20
-74.5301
 30
0.000000
  70
    32
  0
VERTEX
  8
┌▓È_1
  5
D3B
 10
952.017
 20
-74.3849
 30
0.000000
  70
    32
  0
VERTEX
  8
┌▓È_1
  5
D3C
 10
951.924
 20
-74.2412
 30
0.000000
  70
    32
  0
VERTEX
  8
┌▓È_1
  5
D3D
 10
951.824
 20
-74.0992
 30
0.000000
  70
    32
  0
VERTEX
  8
┌▓È_1
  5
D3E
 10
951.716
 20
-73.9590
 30
0.000000
  70
    32
  0
VERTEX
  8
┌▓È_1
  5
D3F
 10
951.601
 20
-73.8206
 30
0.000000
  70
    32
  0
VERTEX
  8
┌▓È_1
  5
D40
 10
951.479
 20
-73.6843
 30
0.000000
  70
    32
  0
VERTEX
  8
┌▓È_1
  5
D41
 10
951.350
 20
-73.5501
 30
0.000000
  70
    32
  0
VERTEX
  8
┌▓È_1
  5
D42
 10
951.214
 20
-73.4182
 30
0.000000
  70
    32
  0
VERTEX
  8
┌▓È_1
  5
D43
 10
951.072
 20
-73.2886
 30
0.000000
  70
    32
  0
VERTEX
  8
┌▓È_1
  5
D44
 10
950.923
 20
-73.1615
 30
0.000000
  70
    32
  0
VERTEX
  8
┌▓È_1
  5
D45
 10
950.767
 20
-73.0371
 30
0.000000
  70
    32
  0
VERTEX
  8
┌▓È_1
  5
D46
 10
950.605
 20
-72.9153
 30
0.000000
  70
    32
  0
VERTEX
  8
┌▓È_1
  5
D47
 10
950.437
 20
-72.7963
 30
0.000000
  70
    32
  0
VERTEX
  8
┌▓È_1
  5
D48
 10
950.263
 20
-72.6803
 30
0.000000
  70
    32
  0
VERTEX
  8
┌▓È_1
  5
D49
 10
950.083
 20
-72.5672
 30
0.000000
  70
    32
  0
VERTEX
  8
┌▓È_1
  5
D4A
 10
949.897
 20
-72.4573
 30
0.000000
  70
    32
  0
VERTEX
  8
┌▓È_1
  5
D4B
 10
949.706
 20
-72.3506
 30
0.000000
  70
    32
  0
VERTEX
  8
┌▓È_1
  5
D4C
 10
949.509
 20
-72.2472
 30
0.000000
  70
    32
  0
VERTEX
  8
┌▓È_1
  5
D4D
 10
949.307
 20
-72.1472
 30
0.000000
  70
    32
  0
VERTEX
  8
┌▓È_1
  5
D4E
 10
949.100
 20
-72.0507
 30
0.000000
  70
    32
  0
VERTEX
  8
┌▓È_1
  5
D4F
 10
948.888
 20
-71.9578
 30
0.000000
  70
    32
  0
VERTEX
  8
┌▓È_1
  5
D50
 10
948.671
 20
-71.8685
 30
0.000000
  70
    32
  0
VERTEX
  8
┌▓È_1
  5
D51
 10
948.450
 20
-71.7829
 30
0.000000
  70
    32
  0
VERTEX
  8
┌▓È_1
  5
D52
 10
948.225
 20
-71.7012
 30
0.000000
  70
    32
  0
VERTEX
  8
┌▓È_1
  5
D53
 10
947.995
 20
-71.6233
 30
0.000000
  70
    32
  0
VERTEX
  8
┌▓È_1
  5
D54
 10
947.762
 20
-71.5494
 30
0.000000
  70
    32
  0
VERTEX
  8
┌▓È_1
  5
D55
 10
947.524
 20
-71.4794
 30
0.000000
  70
    32
  0
VERTEX
  8
┌▓È_1
  5
D56
 10
947.284
 20
-71.4136
 30
0.000000
  70
    32
  0
VERTEX
  8
┌▓È_1
  5
D57
 10
947.040
 20
-71.3519
 30
0.000000
  70
    32
  0
VERTEX
  8
┌▓È_1
  5
D58
 10
946.793
 20
-71.2943
 30
0.000000
  70
    32
  0
VERTEX
  8
┌▓È_1
  5
D59
 10
946.543
 20
-71.2410
 30
0.000000
  70
    32
  0
VERTEX
  8
┌▓È_1
  5
D5A
 10
946.291
 20
-71.1920
 30
0.000000
  70
    32
  0
VERTEX
  8
┌▓È_1
  5
D5B
 10
946.036
 20
-71.1473
 30
0.000000
  70
    32
  0
VERTEX
  8
┌▓È_1
  5
D5C
 10
945.779
 20
-71.1069
 30
0.000000
  70
    32
  0
VERTEX
  8
┌▓È_1
  5
D5D
 10
945.519
 20
-71.0710
 30
0.000000
  70
    32
  0
VERTEX
  8
┌▓È_1
  5
D5E
 10
945.259
 20
-71.0395
 30
0.000000
  70
    32
  0
VERTEX
  8
┌▓È_1
  5
D5F
 10
944.996
 20
-71.0124
 30
0.000000
  70
    32
  0
VERTEX
  8
┌▓È_1
  5
D60
 10
944.733
 20
-70.9898
 30
0.000000
  70
    32
  0
VERTEX
  8
┌▓È_1
  5
D61
 10
944.468
 20
-70.9717
 30
0.000000
  70
    32
  0
VERTEX
  8
┌▓È_1
  5
D62
 10
944.203
 20
-70.9582
 30
0.000000
  70
    32
  0
VERTEX
  8
┌▓È_1
  5
D63
 10
943.937
 20
-70.9491
 30
0.000000
  70
    32
  0
VERTEX
  8
┌▓È_1
  5
D64
 10
943.670
 20
-70.9446
 30
0.000000
  70
    32
  0
VERTEX
  8
┌▓È_1
  5
D65
 10
943.404
 20
-70.9446
 30
0.000000
  70
    32
  0
VERTEX
  8
┌▓È_1
  5
D66
 10
943.137
 20
-70.9492
 30
0.000000
  70
    32
  0
VERTEX
  8
┌▓È_1
  5
D67
 10
942.871
 20
-70.9583
 30
0.000000
  70
    32
  0
VERTEX
  8
┌▓È_1
  5
D68
 10
942.606
 20
-70.9720
 30
0.000000
  70
    32
  0
VERTEX
  8
┌▓È_1
  5
D69
 10
942.341
 20
-70.9901
 30
0.000000
  70
    32
  0
VERTEX
  8
┌▓È_1
  5
D6A
 10
942.078
 20
-71.0128
 30
0.000000
  70
    32
  0
VERTEX
  8
┌▓È_1
  5
D6B
 10
941.816
 20
-71.0399
 30
0.000000
  70
    32
  0
VERTEX
  8
┌▓È_1
  5
D6C
 10
941.555
 20
-71.0715
 30
0.000000
  70
    32
  0
VERTEX
  8
┌▓È_1
  5
D6D
 10
941.296
 20
-71.1075
 30
0.000000
  70
    32
  0
VERTEX
  8
┌▓È_1
  5
D6E
 10
941.039
 20
-71.1479
 30
0.000000
  70
    32
  0
VERTEX
  8
┌▓È_1
  5
D6F
 10
940.784
 20
-71.1927
 30
0.000000
  70
    32
  0
VERTEX
  8
┌▓È_1
  5
D70
 10
940.531
 20
-71.2418
 30
0.000000
  70
    32
  0
VERTEX
  8
┌▓È_1
  5
D71
 10
940.282
 20
-71.2952
 30
0.000000
  70
    32
  0
VERTEX
  8
┌▓È_1
  5
D72
 10
940.035
 20
-71.3528
 30
0.000000
  70
    32
  0
VERTEX
  8
┌▓È_1
  5
D73
 10
939.791
 20
-71.4146
 30
0.000000
  70
    32
  0
VERTEX
  8
┌▓È_1
  5
D74
 10
939.550
 20
-71.4805
 30
0.000000
  70
    32
  0
VERTEX
  8
┌▓È_1
  5
D75
 10
939.313
 20
-71.5505
 30
0.000000
  70
    32
  0
VERTEX
  8
┌▓È_1
  5
D76
 10
939.080
 20
-71.6245
 30
0.000000
  70
    32
  0
VERTEX
  8
┌▓È_1
  5
D77
 10
938.850
 20
-71.7024
 30
0.000000
  70
    32
  0
VERTEX
  8
┌▓È_1
  5
D78
 10
938.625
 20
-71.7842
 30
0.000000
  70
    32
  0
VERTEX
  8
┌▓È_1
  5
D79
 10
938.404
 20
-71.8698
 30
0.000000
  70
    32
  0
VERTEX
  8
┌▓È_1
  5
D7A
 10
938.187
 20
-71.9592
 30
0.000000
  70
    32
  0
VERTEX
  8
┌▓È_1
  5
D7B
 10
937.975
 20
-72.0522
 30
0.000000
  70
    32
  0
VERTEX
  8
┌▓È_1
  5
D7C
 10
937.768
 20
-72.1487
 30
0.000000
  70
    32
  0
VERTEX
  8
┌▓È_1
  5
D7D
 10
937.566
 20
-72.2488
 30
0.000000
  70
    32
  0
VERTEX
  8
┌▓È_1
  5
D7E
 10
937.370
 20
-72.3522
 30
0.000000
  70
    32
  0
VERTEX
  8
┌▓È_1
  5
D7F
 10
937.178
 20
-72.4590
 30
0.000000
  70
    32
  0
VERTEX
  8
┌▓È_1
  5
D80
 10
936.993
 20
-72.5689
 30
0.000000
  70
    32
  0
VERTEX
  8
┌▓È_1
  5
D81
 10
936.813
 20
-72.6820
 30
0.000000
  70
    32
  0
VERTEX
  8
┌▓È_1
  5
D82
 10
936.638
 20
-72.7981
 30
0.000000
  70
    32
  0
VERTEX
  8
┌▓È_1
  5
D83
 10
936.470
 20
-72.9171
 30
0.000000
  70
    32
  0
VERTEX
  8
┌▓È_1
  5
D84
 10
936.309
 20
-73.0389
 30
0.000000
  70
    32
  0
VERTEX
  8
┌▓È_1
  5
D85
 10
936.153
 20
-73.1634
 30
0.000000
  70
    32
  0
VERTEX
  8
┌▓È_1
  5
D86
 10
936.004
 20
-73.2906
 30
0.000000
  70
    32
  0
VERTEX
  8
┌▓È_1
  5
D87
 10
935.862
 20
-73.4202
 30
0.000000
  70
    32
  0
VERTEX
  8
┌▓È_1
  5
D88
 10
935.726
 20
-73.5521
 30
0.000000
  70
    32
  0
VERTEX
  8
┌▓È_1
  5
D89
 10
935.597
 20
-73.6863
 30
0.000000
  70
    32
  0
VERTEX
  8
┌▓È_1
  5
D8A
 10
935.475
 20
-73.8227
 30
0.000000
  70
    32
  0
VERTEX
  8
┌▓È_1
  5
D8B
 10
935.361
 20
-73.9611
 30
0.000000
  70
    32
  0
VERTEX
  8
┌▓È_1
  5
D8C
 10
935.253
 20
-74.1013
 30
0.000000
  70
    32
  0
VERTEX
  8
┌▓È_1
  5
D8D
 10
935.153
 20
-74.2434
 30
0.000000
  70
    32
  0
VERTEX
  8
┌▓È_1
  5
D8E
 10
935.060
 20
-74.3871
 30
0.000000
  70
    32
  0
VERTEX
  8
┌▓È_1
  5
D8F
 10
934.974
 20
-74.5323
 30
0.000000
  70
    32
  0
VERTEX
  8
┌▓È_1
  5
D90
 10
934.896
 20
-74.6789
 30
0.000000
  70
    32
  0
VERTEX
  8
┌▓È_1
  5
D91
 10
934.825
 20
-74.8267
 30
0.000000
  70
    32
  0
VERTEX
  8
┌▓È_1
  5
D92
 10
934.763
 20
-74.9758
 30
0.000000
  70
    32
  0
VERTEX
  8
┌▓È_1
  5
D93
 10
934.707
 20
-75.1258
 30
0.000000
  70
    32
  0
VERTEX
  8
┌▓È_1
  5
D94
 10
934.660
 20
-75.2766
 30
0.000000
  70
    32
  0
VERTEX
  8
┌▓È_1
  5
D95
 10
934.620
 20
-75.4283
 30
0.000000
  70
    32
  0
VERTEX
  8
┌▓È_1
  5
D96
 10
934.589
 20
-75.5805
 30
0.000000
  70
    32
  0
VERTEX
  8
┌▓È_1
  5
D97
 10
934.565
 20
-75.7332
 30
0.000000
  70
    32
  0
VERTEX
  8
┌▓È_1
  5
D98
 10
934.548
 20
-75.8863
 30
0.000000
  70
    32
  0
VERTEX
  8
┌▓È_1
  5
D99
 10
934.540
 20
-76.0395
 30
0.000000
  70
    32
  0
VERTEX
  8
┌▓È_1
  5
D9A
 10
934.540
 20
-76.1928
 30
0.000000
  70
    32
  0
VERTEX
  8
┌▓È_1
  5
D9B
 10
934.548
 20
-76.3461
 30
0.000000
  70
    32
  0
VERTEX
  8
┌▓È_1
  5
D9C
 10
934.563
 20
-76.4992
 30
0.000000
  70
    32
  0
VERTEX
  8
┌▓È_1
  5
D9D
 10
934.586
 20
-76.6519
 30
0.000000
  70
    32
  0
VERTEX
  8
┌▓È_1
  5
D9E
 10
934.617
 20
-76.8042
 30
0.000000
  70
    32
  0
VERTEX
  8
┌▓È_1
  5
D9F
 10
934.656
 20
-76.9559
 30
0.000000
  70
    32
  0
VERTEX
  8
┌▓È_1
  5
DA0
 10
934.703
 20
-77.1068
 30
0.000000
  70
    32
  0
VERTEX
  8
┌▓È_1
  5
DA1
 10
934.758
 20
-77.2569
 30
0.000000
  70
    32
  0
VERTEX
  8
┌▓È_1
  5
DA2
 10
934.820
 20
-77.4060
 30
0.000000
  70
    32
  0
VERTEX
  8
┌▓È_1
  5
DA3
 10
934.890
 20
-77.5540
 30
0.000000
  70
    32
  0
VERTEX
  8
┌▓È_1
  5
DA4
 10
934.967
 20
-77.7007
 30
0.000000
  70
    32
  0
VERTEX
  8
┌▓È_1
  5
DA5
 10
935.052
 20
-77.8460
 30
0.000000
  70
    32
  0
VERTEX
  8
┌▓È_1
  5
DA6
 10
935.145
 20
-77.9898
 30
0.000000
  70
    32
  0
VERTEX
  8
┌▓È_1
  5
DA7
 10
935.244
 20
-78.1320
 30
0.000000
  70
    32
  0
SEQEND
  8
┌▓È_1
  5
DA8
  0
LINE
  5
273
  8
┌▓È_1
 62
     5
 10
1019.0391129593
 20
-30.122416086000001
 30
0.0
 11
1019.0391129593
 21
-200.12241577
 31
0.0
  0
LINE
  5
274
  8
┌▓È_1
 62
     5
 10
924.03911295930004
 20
-29.1224160039
 30
0.0
 11
924.03911295930004
 21
-201.12241600390001
 31
0.0
  0
LINE
  5
275
  8
┌▓È_1
 62
     5
 10
928.53911295930004
 20
-37.1224160039
 30
0.0
 11
928.53911295930004
 21
-193.12241600390001
 31
0.0
  0
LINE
  5
276
  8
┌▓È_1
 62
     5
 10
925.53911295929981
 20
-31.1224160039
 30
0.0
 11
925.53911295929981
 21
-199.12241600390001
 31
0.0
  0
ARC
  5
277
  8
┌▓È_1
 62
     5
 10
1016.5866563924
 20
-77.587677261599993
 30
0.0
 40
1.5
 50
159.8309002190999
 51
261.99611861310001
  0
ARC
  5
278
  8
┌▓È_1
 62
     5
 10
1016.5866563924
 20
-77.587677261599993
 30
0.0
 40
2.5
 50
159.8309296683
 51
276.86223712029999
  0
LINE
  5
279
  8
┌▓È_1
 62
     5
 10
1015.8437789058
 20
-72.823421491800005
 30
0.0
 11
1017.9233174547001
 21
-76.906988489399993
 31
0.0
  0
LINE
  5
27A
  8
┌▓È_1
 62
     5
 10
973.9172575419999
 20
-74.336918298900002
 30
0.0
 11
969.97195390149989
 21
-76.668136689400001
 31
0.0
  0
ARC
  5
27B
  8
┌▓È_1
 62
     5
 10
968.70017000429993
 20
-74.515797097499984
 30
0.0
 40
2.5
 50
219.7850730063
 51
300.5781783612
  0
LINE
  5
27C
  8
┌▓È_1
 62
     5
 10
968.70639023609999
 20
-74.976732272799993
 30
0.0
 11
964.76108659570002
 21
-77.307950663300005
 31
0.0
  0
LINE
  5
27D
  8
┌▓È_1
 62
     5
 10
963.49858761130008
 20
-75.798729023099995
 30
0.0
 11
959.47432899470004
 21
-77.990838186999994
 31
0.0
  0
LINE
  5
27E
  8
┌▓È_1
 62
     5
 10
963.02023017440013
 20
-74.920563798000003
 30
0.0
 11
958.99597155779998
 21
-77.112672961899989
 31
0.0
  0
ARC
  5
27F
  8
┌▓È_1
 62
     5
 10
1004.07769935
 20
-77.344631070399984
 30
0.0
 40
2.5
 50
355.42183958189997
 51
115.7209276997
  0
LINE
  5
280
  8
┌▓È_1
  6
STITCH
 10
814.52250378410008
 20
-301.51804125619998
 30
0.0
 11
814.52164090919985
 21
-385.51804125170003
 31
0.0
  0
LINE
  5
281
  8
┌▓È_1
 62
     5
 10
815.5224750458998
 20
-299.51694725390001
 30
0.0
 11
815.5224750458998
 21
-387.51694725390001
 31
0.0
  0
LINE
  5
282
  8
┌▓È_1
  6
BORDER
 62
     3
 10
708.02247504589991
 20
-288.51694725390001
 30
0.0
 11
708.02247504589991
 21
-393.51694725390001
 31
0.0
  0
LINE
  5
283
  8
┌▓È_1
 10
782.77689120720004
 20
-366.88944536790001
 30
0.0
 11
734.74876620719988
 21
-366.88944536790001
 31
0.0
  0
LINE
  5
284
  8
┌▓È_1
 62
     5
 10
600.52247504589991
 20
-197.12241600390001
 30
0.0
 11
600.52247504589991
 21
-33.1224160039
 31
0.0
  0
LINE
  5
285
  8
┌▓È_1
 62
     5
 10
601.40115470239994
 20
-196.2437363475
 30
0.0
 11
601.40115470239994
 21
-34.001095660300003
 31
0.0
  0
LINE
  5
286
  8
┌▓È_1
 62
     5
 10
590.52247504589991
 20
-23.1224160039
 30
0.0
 11
590.52247504589991
 21
-207.12241600390001
 31
0.0
  0
LINE
  5
287
  8
┌▓È_1
 10
675.1227747378
 20
-84.531495463400006
 30
0.0
 11
705.73165473339986
 21
-62.295165458200003
 31
0.0
  0
SOLID
  5
288
  8
┌▓È_1
 10
705.73165473339986
 20
-62.295165458200003
 30
0.0
 11
702.47385284960012
 21
-66.317807143599993
 31
0.0
 12
702.77034014289995
 22
-64.446461699499991
 32
0.0
 13
702.77034014289995
 23
-64.446461699499991
 33
0.0
  0
SOLID
  5
289
  8
┌▓È_1
 10
705.73165473339986
 20
-62.295165458200003
 30
0.0
 11
700.89899469880004
 21
-64.1499744061
 31
0.0
 12
702.77034014289995
 22
-64.446461699499991
 32
0.0
 13
702.77034014289995
 23
-64.446461699499991
 33
0.0
  0
LINE
  5
28A
  8
┌▓È_1
  6
BORDER
 62
     3
 10
708.02247504589991
 20
-94.397636540799994
 30
0.0
 11
708.02247504589991
 21
-50.946064213799993
 31
0.0
  0
ARC
  5
28B
  8
┌▓È_1
  6
STITCH
 10
690.76724300210003
 20
-73.501095660299995
 30
0.0
 40
15.205232043800001
 50
330.66217509630002
 51
29.3378249037
  0
ARC
  5
28C
  8
┌▓È_1
  6
STITCH
 10
725.27770708970002
 20
-73.501095660299995
 30
0.0
 40
15.205232043800001
 50
150.66217509629999
 51
209.33782490370001
  0
LINE
  5
28D
  8
┌▓È_1
 62
     5
 10
825.52247504589991
 20
-207.12241600390001
 30
0.0
 11
825.52247504589991
 21
-23.1224160039
 31
0.0
  0
LINE
  5
28E
  8
┌▓È_1
  6
BORDER
 62
     3
 10
708.02247504589991
 20
-15.1224160039
 30
0.0
 11
708.02247504589991
 21
-215.12241600390001
 31
0.0
  0
LINE
  5
28F
  8
┌▓È_1
 62
     5
 10
815.5224750458998
 20
-33.1224160039
 30
0.0
 11
815.5224750458998
 21
-197.12241600390001
 31
0.0
  0
LINE
  5
290
  8
┌▓È_1
 62
     5
 10
814.64379538949993
 20
-34.001095660300003
 30
0.0
 11
814.64379538949993
 21
-196.2437363475
 31
0.0
  0
LINE
  5
291
  8
┌▓È_1
  6
BORDER
 62
     3
 10
698.83233832719998
 20
-73.501095660299995
 30
0.0
 11
718.86212348339996
 21
-73.501095660299995
 31
0.0
  0
POLYLINE
  5
292
  8
┌▓È_1
 62
     5
 10
951.53911295929981
 20
-76.122415858179551
 30
0.0
 66
     1
 70
     8
  0
VERTEX
  8
┌▓È_1
  5
DA9
 10
951.539
 20
-76.1224
 30
0.000000
  70
    32
  0
VERTEX
  8
┌▓È_1
  5
DAA
 10
951.537
 20
-76.0199
 30
0.000000
  70
    32
  0
VERTEX
  8
┌▓È_1
  5
DAB
 10
951.529
 20
-75.9174
 30
0.000000
  70
    32
  0
VERTEX
  8
┌▓È_1
  5
DAC
 10
951.517
 20
-75.8150
 30
0.000000
  70
    32
  0
VERTEX
  8
┌▓È_1
  5
DAD
 10
951.501
 20
-75.7129
 30
0.000000
  70
    32
  0
VERTEX
  8
┌▓È_1
  5
DAE
 10
951.479
 20
-75.6109
 30
0.000000
  70
    32
  0
VERTEX
  8
┌▓È_1
  5
DAF
 10
951.453
 20
-75.5093
 30
0.000000
  70
    32
  0
VERTEX
  8
┌▓È_1
  5
DB0
 10
951.421
 20
-75.4081
 30
0.000000
  70
    32
  0
VERTEX
  8
┌▓È_1
  5
DB1
 10
951.385
 20
-75.3073
 30
0.000000
  70
    32
  0
VERTEX
  8
┌▓È_1
  5
DB2
 10
951.345
 20
-75.2069
 30
0.000000
  70
    32
  0
VERTEX
  8
┌▓È_1
  5
DB3
 10
951.299
 20
-75.1072
 30
0.000000
  70
    32
  0
VERTEX
  8
┌▓È_1
  5
DB4
 10
951.249
 20
-75.0080
 30
0.000000
  70
    32
  0
VERTEX
  8
┌▓È_1
  5
DB5
 10
951.195
 20
-74.9095
 30
0.000000
  70
    32
  0
VERTEX
  8
┌▓È_1
  5
DB6
 10
951.135
 20
-74.8117
 30
0.000000
  70
    32
  0
VERTEX
  8
┌▓È_1
  5
DB7
 10
951.071
 20
-74.7148
 30
0.000000
  70
    32
  0
VERTEX
  8
┌▓È_1
  5
DB8
 10
951.003
 20
-74.6186
 30
0.000000
  70
    32
  0
VERTEX
  8
┌▓È_1
  5
DB9
 10
950.930
 20
-74.5234
 30
0.000000
  70
    32
  0
VERTEX
  8
┌▓È_1
  5
DBA
 10
950.853
 20
-74.4292
 30
0.000000
  70
    32
  0
VERTEX
  8
┌▓È_1
  5
DBB
 10
950.771
 20
-74.3359
 30
0.000000
  70
    32
  0
VERTEX
  8
┌▓È_1
  5
DBC
 10
950.685
 20
-74.2438
 30
0.000000
  70
    32
  0
VERTEX
  8
┌▓È_1
  5
DBD
 10
950.594
 20
-74.1528
 30
0.000000
  70
    32
  0
VERTEX
  8
┌▓È_1
  5
DBE
 10
950.500
 20
-74.0629
 30
0.000000
  70
    32
  0
VERTEX
  8
┌▓È_1
  5
DBF
 10
950.401
 20
-73.9743
 30
0.000000
  70
    32
  0
VERTEX
  8
┌▓È_1
  5
DC0
 10
950.298
 20
-73.8870
 30
0.000000
  70
    32
  0
VERTEX
  8
┌▓È_1
  5
DC1
 10
950.191
 20
-73.8010
 30
0.000000
  70
    32
  0
VERTEX
  8
┌▓È_1
  5
DC2
 10
950.080
 20
-73.7165
 30
0.000000
  70
    32
  0
VERTEX
  8
┌▓È_1
  5
DC3
 10
949.965
 20
-73.6334
 30
0.000000
  70
    32
  0
VERTEX
  8
┌▓È_1
  5
DC4
 10
949.846
 20
-73.5518
 30
0.000000
  70
    32
  0
VERTEX
  8
┌▓È_1
  5
DC5
 10
949.723
 20
-73.4717
 30
0.000000
  70
    32
  0
VERTEX
  8
┌▓È_1
  5
DC6
 10
949.597
 20
-73.3932
 30
0.000000
  70
    32
  0
VERTEX
  8
┌▓È_1
  5
DC7
 10
949.467
 20
-73.3164
 30
0.000000
  70
    32
  0
VERTEX
  8
┌▓È_1
  5
DC8
 10
949.333
 20
-73.2413
 30
0.000000
  70
    32
  0
VERTEX
  8
┌▓È_1
  5
DC9
 10
949.196
 20
-73.1679
 30
0.000000
  70
    32
  0
VERTEX
  8
┌▓È_1
  5
DCA
 10
949.055
 20
-73.0963
 30
0.000000
  70
    32
  0
VERTEX
  8
┌▓È_1
  5
DCB
 10
948.912
 20
-73.0265
 30
0.000000
  70
    32
  0
VERTEX
  8
┌▓È_1
  5
DCC
 10
948.764
 20
-72.9585
 30
0.000000
  70
    32
  0
VERTEX
  8
┌▓È_1
  5
DCD
 10
948.614
 20
-72.8925
 30
0.000000
  70
    32
  0
VERTEX
  8
┌▓È_1
  5
DCE
 10
948.461
 20
-72.8284
 30
0.000000
  70
    32
  0
VERTEX
  8
┌▓È_1
  5
DCF
 10
948.305
 20
-72.7663
 30
0.000000
  70
    32
  0
VERTEX
  8
┌▓È_1
  5
DD0
 10
948.146
 20
-72.7063
 30
0.000000
  70
    32
  0
VERTEX
  8
┌▓È_1
  5
DD1
 10
947.984
 20
-72.6482
 30
0.000000
  70
    32
  0
VERTEX
  8
┌▓È_1
  5
DD2
 10
947.819
 20
-72.5923
 30
0.000000
  70
    32
  0
VERTEX
  8
┌▓È_1
  5
DD3
 10
947.652
 20
-72.5385
 30
0.000000
  70
    32
  0
VERTEX
  8
┌▓È_1
  5
DD4
 10
947.482
 20
-72.4869
 30
0.000000
  70
    32
  0
VERTEX
  8
┌▓È_1
  5
DD5
 10
947.310
 20
-72.4374
 30
0.000000
  70
    32
  0
VERTEX
  8
┌▓È_1
  5
DD6
 10
947.136
 20
-72.3902
 30
0.000000
  70
    32
  0
VERTEX
  8
┌▓È_1
  5
DD7
 10
946.960
 20
-72.3452
 30
0.000000
  70
    32
  0
VERTEX
  8
┌▓È_1
  5
DD8
 10
946.781
 20
-72.3025
 30
0.000000
  70
    32
  0
VERTEX
  8
┌▓È_1
  5
DD9
 10
946.601
 20
-72.2621
 30
0.000000
  70
    32
  0
VERTEX
  8
┌▓È_1
  5
DDA
 10
946.418
 20
-72.2240
 30
0.000000
  70
    32
  0
VERTEX
  8
┌▓È_1
  5
DDB
 10
946.234
 20
-72.1883
 30
0.000000
  70
    32
  0
VERTEX
  8
┌▓È_1
  5
DDC
 10
946.049
 20
-72.1550
 30
0.000000
  70
    32
  0
VERTEX
  8
┌▓È_1
  5
DDD
 10
945.861
 20
-72.1240
 30
0.000000
  70
    32
  0
VERTEX
  8
┌▓È_1
  5
DDE
 10
945.673
 20
-72.0954
 30
0.000000
  70
    32
  0
VERTEX
  8
┌▓È_1
  5
DDF
 10
945.483
 20
-72.0693
 30
0.000000
  70
    32
  0
VERTEX
  8
┌▓È_1
  5
DE0
 10
945.292
 20
-72.0456
 30
0.000000
  70
    32
  0
VERTEX
  8
┌▓È_1
  5
DE1
 10
945.100
 20
-72.0243
 30
0.000000
  70
    32
  0
VERTEX
  8
┌▓È_1
  5
DE2
 10
944.907
 20
-72.0056
 30
0.000000
  70
    32
  0
VERTEX
  8
┌▓È_1
  5
DE3
 10
944.713
 20
-71.9893
 30
0.000000
  70
    32
  0
VERTEX
  8
┌▓È_1
  5
DE4
 10
944.518
 20
-71.9755
 30
0.000000
  70
    32
  0
VERTEX
  8
┌▓È_1
  5
DE5
 10
944.323
 20
-71.9642
 30
0.000000
  70
    32
  0
VERTEX
  8
┌▓È_1
  5
DE6
 10
944.128
 20
-71.9554
 30
0.000000
  70
    32
  0
VERTEX
  8
┌▓È_1
  5
DE7
 10
943.932
 20
-71.9491
 30
0.000000
  70
    32
  0
VERTEX
  8
┌▓È_1
  5
DE8
 10
943.735
 20
-71.9453
 30
0.000000
  70
    32
  0
VERTEX
  8
┌▓È_1
  5
DE9
 10
943.539
 20
-71.9441
 30
0.000000
  70
    32
  0
VERTEX
  8
┌▓È_1
  5
DEA
 10
943.343
 20
-71.9453
 30
0.000000
  70
    32
  0
VERTEX
  8
┌▓È_1
  5
DEB
 10
943.147
 20
-71.9491
 30
0.000000
  70
    32
  0
VERTEX
  8
┌▓È_1
  5
DEC
 10
942.951
 20
-71.9554
 30
0.000000
  70
    32
  0
VERTEX
  8
┌▓È_1
  5
DED
 10
942.755
 20
-71.9642
 30
0.000000
  70
    32
  0
VERTEX
  8
┌▓È_1
  5
DEE
 10
942.560
 20
-71.9755
 30
0.000000
  70
    32
  0
VERTEX
  8
┌▓È_1
  5
DEF
 10
942.365
 20
-71.9893
 30
0.000000
  70
    32
  0
VERTEX
  8
┌▓È_1
  5
DF0
 10
942.171
 20
-72.0056
 30
0.000000
  70
    32
  0
VERTEX
  8
┌▓È_1
  5
DF1
 10
941.978
 20
-72.0243
 30
0.000000
  70
    32
  0
VERTEX
  8
┌▓È_1
  5
DF2
 10
941.786
 20
-72.0456
 30
0.000000
  70
    32
  0
VERTEX
  8
┌▓È_1
  5
DF3
 10
941.595
 20
-72.0693
 30
0.000000
  70
    32
  0
VERTEX
  8
┌▓È_1
  5
DF4
 10
941.405
 20
-72.0954
 30
0.000000
  70
    32
  0
VERTEX
  8
┌▓È_1
  5
DF5
 10
941.217
 20
-72.1240
 30
0.000000
  70
    32
  0
VERTEX
  8
┌▓È_1
  5
DF6
 10
941.030
 20
-72.1550
 30
0.000000
  70
    32
  0
VERTEX
  8
┌▓È_1
  5
DF7
 10
940.844
 20
-72.1883
 30
0.000000
  70
    32
  0
VERTEX
  8
┌▓È_1
  5
DF8
 10
940.660
 20
-72.2240
 30
0.000000
  70
    32
  0
VERTEX
  8
┌▓È_1
  5
DF9
 10
940.478
 20
-72.2621
 30
0.000000
  70
    32
  0
VERTEX
  8
┌▓È_1
  5
DFA
 10
940.297
 20
-72.3025
 30
0.000000
  70
    32
  0
VERTEX
  8
┌▓È_1
  5
DFB
 10
940.119
 20
-72.3452
 30
0.000000
  70
    32
  0
VERTEX
  8
┌▓È_1
  5
DFC
 10
939.942
 20
-72.3902
 30
0.000000
  70
    32
  0
VERTEX
  8
┌▓È_1
  5
DFD
 10
939.768
 20
-72.4374
 30
0.000000
  70
    32
  0
VERTEX
  8
┌▓È_1
  5
DFE
 10
939.596
 20
-72.4869
 30
0.000000
  70
    32
  0
VERTEX
  8
┌▓È_1
  5
DFF
 10
939.426
 20
-72.5385
 30
0.000000
  70
    32
  0
VERTEX
  8
┌▓È_1
  5
E00
 10
939.259
 20
-72.5923
 30
0.000000
  70
    32
  0
VERTEX
  8
┌▓È_1
  5
E01
 10
939.095
 20
-72.6482
 30
0.000000
  70
    32
  0
VERTEX
  8
┌▓È_1
  5
E02
 10
938.933
 20
-72.7063
 30
0.000000
  70
    32
  0
VERTEX
  8
┌▓È_1
  5
E03
 10
938.774
 20
-72.7663
 30
0.000000
  70
    32
  0
VERTEX
  8
┌▓È_1
  5
E04
 10
938.617
 20
-72.8284
 30
0.000000
  70
    32
  0
VERTEX
  8
┌▓È_1
  5
E05
 10
938.464
 20
-72.8925
 30
0.000000
  70
    32
  0
VERTEX
  8
┌▓È_1
  5
E06
 10
938.314
 20
-72.9585
 30
0.000000
  70
    32
  0
VERTEX
  8
┌▓È_1
  5
E07
 10
938.167
 20
-73.0265
 30
0.000000
  70
    32
  0
VERTEX
  8
┌▓È_1
  5
E08
 10
938.023
 20
-73.0963
 30
0.000000
  70
    32
  0
VERTEX
  8
┌▓È_1
  5
E09
 10
937.882
 20
-73.1679
 30
0.000000
  70
    32
  0
VERTEX
  8
┌▓È_1
  5
E0A
 10
937.745
 20
-73.2413
 30
0.000000
  70
    32
  0
VERTEX
  8
┌▓È_1
  5
E0B
 10
937.612
 20
-73.3164
 30
0.000000
  70
    32
  0
VERTEX
  8
┌▓È_1
  5
E0C
 10
937.481
 20
-73.3932
 30
0.000000
  70
    32
  0
VERTEX
  8
┌▓È_1
  5
E0D
 10
937.355
 20
-73.4717
 30
0.000000
  70
    32
  0
VERTEX
  8
┌▓È_1
  5
E0E
 10
937.232
 20
-73.5518
 30
0.000000
  70
    32
  0
VERTEX
  8
┌▓È_1
  5
E0F
 10
937.113
 20
-73.6334
 30
0.000000
  70
    32
  0
VERTEX
  8
┌▓È_1
  5
E10
 10
936.998
 20
-73.7165
 30
0.000000
  70
    32
  0
VERTEX
  8
┌▓È_1
  5
E11
 10
936.887
 20
-73.8010
 30
0.000000
  70
    32
  0
VERTEX
  8
┌▓È_1
  5
E12
 10
936.780
 20
-73.8870
 30
0.000000
  70
    32
  0
VERTEX
  8
┌▓È_1
  5
E13
 10
936.677
 20
-73.9743
 30
0.000000
  70
    32
  0
VERTEX
  8
┌▓È_1
  5
E14
 10
936.578
 20
-74.0629
 30
0.000000
  70
    32
  0
VERTEX
  8
┌▓È_1
  5
E15
 10
936.484
 20
-74.1528
 30
0.000000
  70
    32
  0
VERTEX
  8
┌▓È_1
  5
E16
 10
936.393
 20
-74.2438
 30
0.000000
  70
    32
  0
VERTEX
  8
┌▓È_1
  5
E17
 10
936.307
 20
-74.3359
 30
0.000000
  70
    32
  0
VERTEX
  8
┌▓È_1
  5
E18
 10
936.225
 20
-74.4292
 30
0.000000
  70
    32
  0
VERTEX
  8
┌▓È_1
  5
E19
 10
936.148
 20
-74.5234
 30
0.000000
  70
    32
  0
VERTEX
  8
┌▓È_1
  5
E1A
 10
936.075
 20
-74.6186
 30
0.000000
  70
    32
  0
VERTEX
  8
┌▓È_1
  5
E1B
 10
936.007
 20
-74.7148
 30
0.000000
  70
    32
  0
VERTEX
  8
┌▓È_1
  5
E1C
 10
935.943
 20
-74.8117
 30
0.000000
  70
    32
  0
VERTEX
  8
┌▓È_1
  5
E1D
 10
935.884
 20
-74.9095
 30
0.000000
  70
    32
  0
VERTEX
  8
┌▓È_1
  5
E1E
 10
935.829
 20
-75.0080
 30
0.000000
  70
    32
  0
VERTEX
  8
┌▓È_1
  5
E1F
 10
935.779
 20
-75.1072
 30
0.000000
  70
    32
  0
VERTEX
  8
┌▓È_1
  5
E20
 10
935.733
 20
-75.2069
 30
0.000000
  70
    32
  0
VERTEX
  8
┌▓È_1
  5
E21
 10
935.693
 20
-75.3073
 30
0.000000
  70
    32
  0
VERTEX
  8
┌▓È_1
  5
E22
 10
935.657
 20
-75.4081
 30
0.000000
  70
    32
  0
VERTEX
  8
┌▓È_1
  5
E23
 10
935.626
 20
-75.5093
 30
0.000000
  70
    32
  0
VERTEX
  8
┌▓È_1
  5
E24
 10
935.599
 20
-75.6109
 30
0.000000
  70
    32
  0
VERTEX
  8
┌▓È_1
  5
E25
 10
935.578
 20
-75.7129
 30
0.000000
  70
    32
  0
VERTEX
  8
┌▓È_1
  5
E26
 10
935.561
 20
-75.8150
 30
0.000000
  70
    32
  0
VERTEX
  8
┌▓È_1
  5
E27
 10
935.549
 20
-75.9174
 30
0.000000
  70
    32
  0
VERTEX
  8
┌▓È_1
  5
E28
 10
935.542
 20
-76.0199
 30
0.000000
  70
    32
  0
VERTEX
  8
┌▓È_1
  5
E29
 10
935.539
 20
-76.1224
 30
0.000000
  70
    32
  0
SEQEND
  8
┌▓È_1
  5
E2A
  0
LINE
  5
293
  8
┌▓È_1
 62
     5
 10
1016.7348862806
 20
-72.369628977000005
 30
0.0
 11
1018.8144248295
 21
-76.453195974600007
 31
0.0
  0
LINE
  5
294
  8
┌▓È_1
 62
     5
 10
968.19767667729991
 20
-74.115796436000011
 30
0.0
 11
964.2523730367999
 21
-76.447014826599997
 31
0.0
  0
LINE
  5
295
  8
┌▓È_1
 62
     5
 10
1016.7348862806
 20
-77.570628976999998
 30
0.0
 11
1018.8144248295
 21
-81.654195974599986
 31
0.0
  0
LINE
  5
296
  8
┌▓È_1
 62
     5
 10
1005.3870705672
 20
-79.7852257248
 30
0.0
 11
1005.5729133758
 21
-77.464360002299998
 31
0.0
  0
LINE
  5
297
  8
┌▓È_1
 62
     5
 10
1006.3947234953999
 20
-79.729626871799994
 30
0.0
 11
1006.569722788
 21
-77.544178520399996
 31
0.0
  0
ARC
  5
298
  8
┌▓È_1
 62
     5
 10
1004.07769935
 20
-77.344631070399984
 30
0.0
 40
1.5
 50
355.4218093101
 51
108.9999969605
  0
LINE
  5
299
  8
┌▓È_1
 62
     5
 10
1003.4425756032
 20
-77.439944308299985
 30
0.0
 11
1000.7763723332
 21
-73.712832809600002
 31
0.0
  0
LINE
  5
29A
  8
┌▓È_1
 62
     5
 10
1004.2558980111
 20
-76.858131055800001
 30
0.0
 11
1001.5896947410999
 21
-73.131019557100004
 31
0.0
  0
LINE
  5
29B
  8
┌▓È_1
  6
BORDER
 62
     3
 10
585.52247504589991
 20
-115.1224160039
 30
0.0
 11
830.5224750458998
 21
-115.1224160039
 31
0.0
  0
LINE
  5
29C
  8
┌▓È_1
 62
     5
 10
812.52247504589991
 20
-200.12241600390001
 30
0.0
 11
603.52247504589991
 21
-200.12241600390001
 31
0.0
  0
LINE
  5
29D
  8
┌▓È_1
 62
     5
 10
811.64379538949993
 20
-199.2437363475
 30
0.0
 11
604.40115470239994
 21
-199.2437363475
 31
0.0
  0
LINE
  5
29E
  8
┌▓È_1
 62
     5
 10
593.5224750458998
 20
-210.12241600390001
 30
0.0
 11
822.5224750458998
 21
-210.12241600390001
 31
0.0
  0
INSERT
  5
29F
  8
0
  6
CONTINUOUS
  2
*U56
 10
0.0
 20
0.0
 30
0.0
  0
INSERT
  5
2A0
  8
0
  6
CONTINUOUS
  2
*U57
 10
0.0
 20
0.0
 30
0.0
  0
INSERT
  5
2A1
  8
0
  6
CONTINUOUS
  2
*U58
 10
0.0
 20
0.0
 30
0.0
  0
INSERT
  5
2A2
  8
0
  6
CONTINUOUS
  2
*U59
 10
0.0
 20
0.0
 30
0.0
  0
INSERT
  5
2A3
  8
0
  6
CONTINUOUS
  2
*U60
 10
0.0
 20
0.0
 30
0.0
  0
INSERT
  5
2A4
  8
0
  6
CONTINUOUS
  2
*U61
 10
0.0
 20
0.0
 30
0.0
  0
INSERT
  5
2A6
  8
É}ÿg
  2
CLUMP0
 10
0.0
 20
0.0
 30
0.0
  0
INSERT
  5
2B0
  8
É}ÿg
  2
CLUMP1
 10
0.0
 20
0.0
 30
0.0
  0
INSERT
  5
2BA
  8
É}ÿg
  2
CLUMP2
 10
0.0
 20
0.0
 30
0.0
  0
INSERT
  5
2C4
  8
É}ÿg
  2
CLUMP3
 10
0.0
 20
0.0
 30
0.0
  0
INSERT
  5
2CE
  8
É}ÿg
  2
CLUMP4
 10
0.0
 20
0.0
 30
0.0
  0
INSERT
  5
2D7
  8
0
  6
CONTINUOUS
  2
*U62
 10
0.0
 20
0.0
 30
0.0
  0
INSERT
  5
2D8
  8
0
  6
CONTINUOUS
  2
*U63
 10
0.0
 20
0.0
 30
0.0
  0
DIMENSION
  5
2E7
  8
Éíû@É³
  2
*D13
 10
1067.0019654373
 20
-207.62241593159999
 30
0.0
 11
1067.0019654373
 21
-115.1224159316
 31
0.0
 70
   128
  1
(<>)
 13
1019.0391129593
 23
-207.62241593159999
 33
0.0
 14
1019.0391129593
 24
-22.622415931599999
 34
0.0
 50
90.0
  0
DIMENSION
  5
2F6
  8
Éíû@É³
  2
*D14
 10
1049.3013315618
 20
-199.12241600390001
 30
0.0
 11
1049.3013315618
 21
-115.1224160039
 31
0.0
 70
   128
  1
(168)ôÓÉí
 13
1019.0391129593
 23
-199.12241600390001
 33
0.0
 14
1019.0391129593
 24
-31.1224160039
 34
0.0
 50
90.0
  0
LINE
  5
2F7
  8
┌▓È_1
  6
STITCH
 10
601.52252434000002
 20
-299.515853252
 30
0.0
 11
601.52162037580001
 21
-387.5158532474
 31
0.0
  0
LINE
  5
2F8
  8
┌▓È_1
 62
     5
 10
600.52247504589991
 20
-299.51694725390001
 30
0.0
 11
600.52247504589991
 21
-387.51694725390001
 31
0.0
  0
DIMENSION
  5
307
  8
Éíû@É³
  2
*D15
 10
670.46700629589986
 20
-346.01694725390001
 30
0.0
 11
670.46700629589986
 21
-367.26694725390001
 31
0.0
 70
   128
  1
<>
 13
690.46700629589998
 23
-346.01694725390001
 33
0.0
 14
708.02247504589991
 24
-388.51694725390001
 34
0.0
 50
90.0
  0
LINE
  5
308
  8
┌▓È_1
 10
713.86456992259991
 20
-357.4639808567
 30
0.0
 11
734.74876620719988
 21
-366.88944536790001
 31
0.0
  0
SOLID
  5
309
  8
┌▓È_1
 10
713.86456992259991
 20
-357.4639808567
 30
0.0
 11
717.1084532957999
 21
-357.994642376
 31
0.0
 12
715.98306567149996
 22
-358.42010127560002
 32
0.0
 13
715.98306567149996
 23
-358.42010127560002
 33
0.0
  0
SOLID
  5
30A
  8
┌▓È_1
 10
713.86456992259991
 20
-357.4639808567
 30
0.0
 11
716.40852457109997
 21
-359.54548889990002
 31
0.0
 12
715.98306567149996
 22
-358.42010127560002
 32
0.0
 13
715.98306567149996
 23
-358.42010127560002
 33
0.0
  0
LINE
  5
30B
  8
┌▓È_1
 62
     5
 10
805.52317370649996
 20
-301.51794881220002
 30
0.0
 11
805.52231083149991
 21
-385.5179488076999
 31
0.0
  0
LINE
  5
30C
  8
┌▓È_1
 10
807.14710406299992
 20
-343.64029568900003
 30
0.0
 11
782.77689120720004
 21
-366.88944536790001
 31
0.0
  0
SOLID
  5
30D
  8
┌▓È_1
 10
807.14710406299992
 20
-343.64029568900003
 30
0.0
 11
804.8670469791
 21
-347.38317248009997
 31
0.0
 12
804.9048021192998
 22
-345.77944867150001
 32
0.0
 13
804.9048021192998
 23
-345.77944867150001
 33
0.0
  0
SOLID
  5
30E
  8
┌▓È_1
 10
807.14710406299992
 20
-343.64029568900003
 30
0.0
 11
803.30107831069995
 21
-345.74169353140002
 31
0.0
 12
804.9048021192998
 22
-345.77944867150001
 32
0.0
 13
804.9048021192998
 23
-345.77944867150001
 33
0.0
  0
INSERT
  5
310
  8
É}ÿg
  2
CLUMP5
 10
0.0
 20
0.0
 30
0.0
  0
INSERT
  5
3B5
  8
0
  6
CONTINUOUS
  2
*U84
 10
0.0
 20
0.0
 30
0.0
  0
INSERT
  5
3B6
  8
0
  6
CONTINUOUS
  2
*U85
 10
0.0
 20
0.0
 30
0.0
  0
INSERT
  5
3B7
  8
0
  6
CONTINUOUS
  2
*U86
 10
0.0
 20
0.0
 30
0.0
  0
INSERT
  5
3B8
  8
0
  6
CONTINUOUS
  2
*U87
 10
0.0
 20
0.0
 30
0.0
  0
DIMENSION
  5
3C7
  8
Éíû@É³
  2
*D17
 10
842.52247504589991
 20
-30.1224160039
 30
0.0
 11
842.52247504589991
 21
-25.1224160039
 31
0.0
 70
   128
  1
<>
 13
812.52247504589991
 23
-30.1224160039
 33
0.0
 14
822.5224750458998
 24
-20.1224160039
 34
0.0
 50
90.0
  0
DIMENSION
  5
3D6
  8
Éíû@É³
  2
*D18
 10
842.52247504589991
 20
-210.12241600390001
 30
0.0
 11
842.52247504589991
 21
-205.12241600390001
 31
0.0
 70
   128
  1
<>
 13
822.5224750458998
 23
-210.12241600390001
 33
0.0
 14
812.52247504589991
 24
-200.12241600390001
 34
0.0
 50
90.0
  0
DIMENSION
  5
3E5
  8
Éíû@É³
  2
*D19
 10
858.17436987449992
 20
-210.12241600390001
 30
0.0
 11
858.17436987449992
 21
-115.1224160039
 31
0.0
 70
   128
  1
<>
 13
822.5224750458998
 23
-210.12241600390001
 33
0.0
 14
822.5224750458998
 24
-20.1224160039
 34
0.0
 50
90.0
  0
INSERT
  5
3E7
  8
Éíû@É³
  2
BALLON1
 10
0.0
 20
0.0
 30
0.0
  0
INSERT
  5
3F1
  8
Éíû@É³
  2
BALLON2
 10
0.0
 20
0.0
 30
0.0
  0
INSERT
  5
3FB
  8
Éíû@É³
  2
BALLON3
 10
0.0
 20
0.0
 30
0.0
  0
INSERT
  5
405
  8
Éíû@É³
  2
BALLON4
 10
0.0
 20
0.0
 30
0.0
  0
DIMENSION
  5
41C
  8
Éíû@É³
  2
*D24
 10
593.0224750458998
 20
-437.58853386279992
 30
0.0
 11
708.02247504589991
 21
-437.58853386279992
 31
0.0
 70
   128
  1
(<>)
 13
593.0224750458998
 23
-388.51694725390001
 33
0.0
 14
823.02247504589991
 24
-388.51694725390001
 34
0.0
 50
180.0
  0
DIMENSION
  5
42B
  8
Éíû@É³
  2
*D25
 10
601.5224750458998
 20
-420.99731727149998
 30
0.0
 11
708.02247504589991
 21
-420.99731727149998
 31
0.0
 70
   128
  1
(213)ôÓÉí
 13
601.5224750458998
 23
-387.51694725390001
 33
0.0
 14
814.5224750458998
 24
-387.51694725390001
 34
0.0
 50
180.0
  0
LINE
  5
42C
  8
┌▓È_1
 62
     5
 10
590.52247504589991
 20
-299.51694725390001
 30
0.0
 11
825.52247504589991
 21
-299.51694725390001
 31
0.0
  0
LINE
  5
42D
  8
┌▓È_1
 62
     5
 10
591.52247504589991
 20
-293.51694725390001
 30
0.0
 11
824.5224750458998
 21
-293.51694725390001
 31
0.0
  0
LINE
  5
42E
  8
┌▓È_1
 62
     5
 10
593.0224750458998
 20
-388.51694725390001
 30
0.0
 11
823.02247504589991
 21
-388.51694725390001
 31
0.0
  0
LINE
  5
42F
  8
┌▓È_1
 62
     5
 10
593.0224750458998
 20
-387.51694725390001
 30
0.0
 11
823.02247504589991
 21
-387.51694725390001
 31
0.0
  0
DIMENSION
  5
43E
  8
Éíû@É³
  2
*D26
 10
825.52247504589991
 20
16.757792329400001
 30
0.0
 11
708.02247504589991
 21
16.757792329400001
 31
0.0
 70
   128
  1
<>
 13
825.52247504589991
 23
-23.1224160039
 33
0.0
 14
590.52247504589991
 24
-23.1224160039
 34
0.0
  0
INSERT
  5
43F
  8
0
  6
CONTINUOUS
  2
*U92
 10
0.0
 20
0.0
 30
0.0
  0
LINE
  5
440
  8
┌▓È_1
 10
626.85080208149998
 20
-84.531495463400006
 30
0.0
 11
675.1227747378
 21
-84.531495463400006
 31
0.0
  0
INSERT
  5
441
  8
0
  6
CONTINUOUS
  2
*U93
 10
0.0
 20
0.0
 30
0.0
  0
LINE
  5
442
  8
┌▓È_1
 62
     5
 10
822.5224750458998
 20
-20.1224160039
 30
0.0
 11
593.5224750458998
 21
-20.1224160039
 31
0.0
  0
LINE
  5
443
  8
┌▓È_1
 62
     5
 10
604.40115470239994
 20
-31.001095660299999
 30
0.0
 11
811.64379538949993
 21
-31.001095660299999
 31
0.0
  0
LINE
  5
444
  8
┌▓È_1
 62
     5
 10
603.52247504589991
 20
-30.1224160039
 30
0.0
 11
812.52247504589991
 21
-30.1224160039
 31
0.0
  0
ENDSEC
  0
EOF
