  0
SECTION
  2
HEADER
  9
$ACADVER
  1
AC1009
  9
$INSBASE
 10
0.0
 20
0.0
 30
0.0
  9
$EXTMIN
 10
-660.9446681062999
 20
-798.57354332320006
 30
0.0
  9
$EXTMAX
 10
363.95533189370002
 20
-77.423543323199993
 30
0.0
  9
$LIMMIN
 10
0.0
 20
0.0
  9
$LIMMAX
 10
0.0
 20
0.0
  9
$ORTHOMODE
 70
     0
  9
$REGENMODE
 70
     1
  9
$FILLMODE
 70
     1
  9
$QTEXTMODE
 70
     0
  9
$MIRRTEXT
 70
     1
  9
$DRAGMODE
 70
     2
  9
$LTSCALE
 40
1.0
  9
$OSMODE
 70
    31
  9
$ATTMODE
 70
     1
  9
$TEXTSIZE
 40
0.0
  9
$TRACEWID
 40
0.05
  9
$TEXTSTYLE
  7
STANDARD
  9
$CLAYER
  8
0
  9
$CELTYPE
  6
CONTINUOUS
  9
$CECOLOR
 62
   256
  9
$DIMSCALE
 40
1.0
  9
$DIMASZ
 40
0.18
  9
$DIMEXO
 40
0.0625
  9
$DIMDLI
 40
0.38
  9
$DIMRND
 40
0.0
  9
$DIMDLE
 40
0.0
  9
$DIMEXE
 40
0.18
  9
$DIMTP
 40
0.0
  9
$DIMTM
 40
0.0
  9
$DIMTXT
 40
0.18
  9
$DIMCEN
 40
0.09
  9
$DIMTSZ
 40
0.0
  9
$DIMTOL
 70
     0
  9
$DIMLIM
 70
     0
  9
$DIMTIH
 70
     1
  9
$DIMTOH
 70
     1
  9
$DIMSE1
 70
     0
  9
$DIMSE2
 70
     0
  9
$DIMTAD
 70
     0
  9
$DIMZIN
 70
     0
  9
$DIMBLK
  1

  9
$DIMASO
 70
     1
  9
$DIMSHO
 70
     1
  9
$DIMPOST
  1

  9
$DIMAPOST
  1

  9
$DIMALT
 70
     0
  9
$DIMALTD
 70
     2
  9
$DIMALTF
 40
25.399999999999999
  9
$DIMLFAC
 40
1.0
  9
$DIMTOFL
 70
     0
  9
$DIMTVP
 40
0.0
  9
$DIMTIX
 70
     0
  9
$DIMSOXD
 70
     0
  9
$DIMSAH
 70
     0
  9
$DIMBLK1
  1

  9
$DIMBLK2
  1

  9
$DIMSTYLE
  2
STANDARD
  9
$DIMCLRD
 70
     0
  9
$DIMCLRE
 70
     0
  9
$DIMCLRT
 70
     0
  9
$DIMTFAC
 40
1.0
  9
$DIMGAP
 40
0.09
  9
$LUNITS
 70
     2
  9
$LUPREC
 70
     4
  9
$SKETCHINC
 40
0.1
  9
$FILLETRAD
 40
0.0
  9
$AUNITS
 70
     0
  9
$AUPREC
 70
     0
  9
$MENU
  1
acad
  9
$ELEVATION
 40
0.0
  9
$PELEVATION
 40
0.0
  9
$THICKNESS
 40
0.0
  9
$LIMCHECK
 70
     0
  9
$BLIPMODE
 70
     0
  9
$CHAMFERA
 40
0.0
  9
$CHAMFERB
 40
0.0
  9
$SKPOLY
 70
     0
  9
$TDCREATE
 40
2454859.8105014809
  9
$TDUPDATE
 40
2454859.8106609839
  9
$TDINDWG
 40
0.0001757755
  9
$TDUSRTIMER
 40
0.0001752315
  9
$USRTIMER
 70
     1
  9
$ANGBASE
 50
0.0
  9
$ANGDIR
 70
     0
  9
$PDMODE
 70
     3
  9
$PDSIZE
 40
-1.0
  9
$PLINEWID
 40
0.0
  9
$COORDS
 70
     2
  9
$SPLFRAME
 70
     0
  9
$SPLINETYPE
 70
     6
  9
$SPLINESEGS
 70
     8
  9
$ATTDIA
 70
     0
  9
$ATTREQ
 70
     1
  9
$HANDLING
 70
     1
  9
$HANDSEED
  5
920
  9
$SURFTAB1
 70
     6
  9
$SURFTAB2
 70
     6
  9
$SURFTYPE
 70
     6
  9
$SURFU
 70
     6
  9
$SURFV
 70
     6
  9
$UCSNAME
  2

  9
$UCSORG
 10
0.0
 20
0.0
 30
0.0
  9
$UCSXDIR
 10
1.0
 20
0.0
 30
0.0
  9
$UCSYDIR
 10
0.0
 20
1.0
 30
0.0
  9
$PUCSNAME
  2

  9
$PUCSORG
 10
0.0
 20
0.0
 30
0.0
  9
$PUCSXDIR
 10
1.0
 20
0.0
 30
0.0
  9
$PUCSYDIR
 10
0.0
 20
1.0
 30
0.0
  9
$USERI1
 70
     0
  9
$USERI2
 70
     0
  9
$USERI3
 70
     0
  9
$USERI4
 70
     0
  9
$USERI5
 70
     0
  9
$USERR1
 40
0.0
  9
$USERR2
 40
0.0
  9
$USERR3
 40
0.0
  9
$USERR4
 40
0.0
  9
$USERR5
 40
0.0
  9
$WORLDVIEW
 70
     1
  9
$SHADEDGE
 70
     3
  9
$SHADEDIF
 70
    70
  9
$TILEMODE
 70
     1
  9
$MAXACTVP
 70
    16
  9
$PLIMCHECK
 70
     0
  9
$PEXTMIN
 10
1.0000000000000000E+020
 20
1.0000000000000000E+020
 30
1.0000000000000000E+020
  9
$PEXTMAX
 10
-1.0000000000000000E+020
 20
-1.0000000000000000E+020
 30
-1.0000000000000000E+020
  9
$PLIMMIN
 10
0.0
 20
0.0
  9
$PLIMMAX
 10
12.0
 20
9.0
  9
$UNITMODE
 70
     0
  9
$VISRETAIN
 70
     0
  9
$PLINEGEN
 70
     1
  9
$PSLTSCALE
 70
     0
  0
ENDSEC
  0
SECTION
  2
TABLES
  0
TABLE
  2
VPORT
 70
     2
  0
VPORT
  2
*ACTIVE
 70
     0
 10
0.0
 20
0.0
 11
1.0
 21
1.0
 12
-148.49466810629991
 22
-437.99854332320001
 13
0.0
 23
0.0
 14
1.0
 24
1.0
 15
0.0
 25
0.0
 16
0.0
 26
0.0
 36
1.0
 17
0.0
 27
0.0
 37
0.0
 40
727.13464730290445
 41
1.6343490304709141
 42
50.0
 43
0.0
 44
0.0
 50
0.0
 51
0.0
 71
     0
 72
   100
 73
     1
 74
     1
 75
     0
 76
     0
 77
     0
 78
     0
  0
ENDTAB
  0
TABLE
  2
LTYPE
 70
    11
  0
LTYPE
  2
CONTINUOUS
 70
     0
  3
Solid line
 72
    65
 73
     0
 40
0.0
  0
LTYPE
  2
DOT
 70
     0
  3
. . . . . . . . 
 72
    65
 73
     2
 40
1.0
 49
0.0
 49
-1.0
  0
LTYPE
  2
DASHED
 70
     0
  3
___  ___  ___  ___  
 72
    65
 73
     2
 40
4.0
 49
3.0
 49
-1.0
  0
LTYPE
  2
HIDDEN
 70
     0
  3
__ __ __ __ 
 72
    65
 73
     2
 40
3.0
 49
2.0
 49
-1.0
  0
LTYPE
  2
STITCH
 70
     0
  3
_ _ _ _ 
 72
    65
 73
     2
 40
2.0
 49
1.0
 49
-1.0
  0
LTYPE
  2
CENTER
 70
     0
  3
______  __  ______  __  
 72
    65
 73
     4
 40
43.0
 49
40.0
 49
-1.0
 49
1.0
 49
-1.0
  0
LTYPE
  2
DASHDOT
 70
     0
  3
____ . ____ . 
 72
    65
 73
     4
 40
32.0
 49
30.0
 49
-1.0
 49
0.0
 49
-1.0
  0
LTYPE
  2
BORDER
 70
     0
  3
__ . __ . 
 72
    65
 73
     4
 40
22.0
 49
20.0
 49
-1.0
 49
0.0
 49
-1.0
  0
LTYPE
  2
CUTTING
 70
     0
  3
________   ___   ___   
 72
    65
 73
     6
 40
45.0
 49
40.0
 49
-1.0
 49
1.0
 49
-1.0
 49
1.0
 49
-1.0
  0
LTYPE
  2
PHANTOM
 70
     0
  3
______  __  __  
 72
    65
 73
     6
 40
35.0
 49
30.0
 49
-1.0
 49
1.0
 49
-1.0
 49
1.0
 49
-1.0
  0
LTYPE
  2
DIVIDE
 70
     0
  3
____ . . ____ . . 
 72
    65
 73
     6
 40
23.0
 49
20.0
 49
-1.0
 49
0.0
 49
-1.0
 49
0.0
 49
-1.0
  0
ENDTAB
  0
TABLE
  2
LAYER
 70
     5
  0
LAYER
  2
0
 70
     0
 62
     7
  6
CONTINUOUS
  0
LAYER
  2
寸法線
 70
     0
 62
     7
  6
CONTINUOUS
  0
LAYER
  2
改訂
 70
     0
 62
     7
  6
CONTINUOUS
  0
LAYER
  2
ﾚｲﾔ_1
 70
     0
 62
     7
  6
CONTINUOUS
  0
LAYER
  2
図枠
 70
     0
 62
     7
  6
CONTINUOUS
  0
ENDTAB
  0
TABLE
  2
STYLE
 70
     1
  0
STYLE
  2
STANDARD
 70
     0
 40
0.0
 41
1.0
 50
0.0
 71
     0
 42
0.0
  3
txt
  4
extfont
  0
ENDTAB
  0
TABLE
  2
VIEW
 70
     0
  0
ENDTAB
  0
TABLE
  2
UCS
 70
     0
  0
ENDTAB
  0
TABLE
  2
APPID
 70
     2
  0
APPID
  2
ACAD
 70
     0
  0
APPID
  2
DCO15
 70
     0
  0
ENDTAB
  0
TABLE
  2
DIMSTYLE
 70
     3
  0
DIMSTYLE
  2
STANDARD
 70
     0
  3

  4

  5

  6

  7

 40
1.0
 41
0.18
 42
0.0625
 43
0.38
 44
0.18
 45
0.0
 46
0.0
 47
0.0
 48
0.0
140
0.18
141
0.09
142
0.0
143
25.399999999999999
144
1.0
145
0.0
146
1.0
147
0.09
 71
     0
 72
     0
 73
     1
 74
     1
 75
     0
 76
     0
 77
     0
 78
     0
170
     0
171
     2
172
     0
173
     0
174
     0
175
     0
176
     0
177
     0
178
     0
  0
DIMSTYLE
  2
VELDIM0
 70
     0
  3

  4

  5

  6

  7

 40
1.0
 41
7.5
 42
0.0625
 43
0.38
 44
1.0
 45
0.0
 46
5.0
 47
0.0
 48
0.0
140
8.2461809158000001
141
0.09
142
0.0
143
25.399999999999999
144
1.0
145
0.0
146
1.0
147
0.09
 71
     0
 72
     0
 73
     0
 74
     0
 75
     0
 76
     0
 77
     0
 78
     8
170
     0
171
     2
172
     0
173
     0
174
     0
175
     0
176
     0
177
     0
178
     0
  0
DIMSTYLE
  2
VELDIM1
 70
     0
  3

  4

  5

  6

  7

 40
1.0
 41
7.5
 42
0.0625
 43
0.38
 44
1.25
 45
0.0
 46
5.0
 47
0.0
 48
0.0
140
8.2461809158000001
141
0.09
142
0.0
143
25.399999999999999
144
1.0
145
0.0
146
1.0
147
0.09
 71
     0
 72
     0
 73
     0
 74
     0
 75
     0
 76
     0
 77
     0
 78
     8
170
     0
171
     2
172
     0
173
     0
174
     0
175
     0
176
     0
177
     0
178
     0
  0
ENDTAB
  0
ENDSEC
  0
SECTION
  2
BLOCKS
  0
BLOCK
  8
0
  2
$MODEL_SPACE
 70
     0
 10
0.0
 20
0.0
 30
0.0
  3
$MODEL_SPACE
  1

  0
ENDBLK
  5
E
  8
0
  0
BLOCK
 67
     1
  8
0
  2
$PAPER_SPACE
 70
     0
 10
0.0
 20
0.0
 30
0.0
  3
$PAPER_SPACE
  1

  0
ENDBLK
  5
10
 67
     1
  8
0
  0
BLOCK
  8
0
  2
*D0
 70
     1
 10
0.0
 20
0.0
 30
0.0
  3
*D0
  1

  0
TEXT
  5
31
  8
0
 62
     0
 10
143.77485695159999
 20
-187.92903626809999
 30
0.0
 40
8.2461809158000001
  1
14
 50
90.0
  0
LINE
  5
32
  8
0
 62
     0
 10
126.8151540783
 20
-190.07834161170001
 30
0.0
 11
147.23006534850001
 21
-190.07834161170001
 31
0.0
  0
LINE
  5
33
  8
0
 62
     0
 10
126.8151540783
 20
-176.07834161170001
 30
0.0
 11
147.23006534850001
 21
-176.07834161170001
 31
0.0
  0
LINE
  5
34
  8
0
 62
     0
 10
146.23006534850001
 20
-190.07834161170001
 30
0.0
 11
146.23006534850001
 21
-190.07834161170001
 31
0.0
  0
LINE
  5
35
  8
0
 62
     0
 10
146.23006534850001
 20
-190.07834161170001
 30
0.0
 11
146.23006534850001
 21
-176.07834161170001
 31
0.0
  0
LINE
  5
36
  8
0
 62
     0
 10
146.23006534850001
 20
-176.07834161170001
 30
0.0
 11
146.23006534850001
 21
-190.07834161170001
 31
0.0
  0
LINE
  5
37
  8
0
 62
     0
 10
146.23006534850001
 20
-176.07834161170001
 30
0.0
 11
146.23006534850001
 21
-176.07834161170001
 31
0.0
  0
LINE
  5
38
  8
0
 62
     0
 10
146.23006534850001
 20
-176.07834161170001
 30
0.0
 11
146.23006534850001
 21
-171.07834161170001
 31
0.0
  0
SOLID
  5
39
  8
0
 62
     0
 10
146.23006534850001
 20
-176.07834161170001
 30
0.0
 11
144.35506534850001
 21
-168.57834161170001
 31
0.0
 12
148.10506534850001
 22
-168.57834161170001
 32
0.0
 13
146.23006534850001
 23
-170.45334161170001
 33
0.0
  0
LINE
  5
3A
  8
0
 62
     0
 10
146.23006534850001
 20
-190.07834161170001
 30
0.0
 11
146.23006534850001
 21
-195.07834161170001
 31
0.0
  0
SOLID
  5
3B
  8
0
 62
     0
 10
146.23006534850001
 20
-190.07834161170001
 30
0.0
 11
148.10506534850001
 21
-197.57834161170001
 31
0.0
 12
144.35506534850001
 22
-197.57834161170001
 32
0.0
 13
146.23006534850001
 23
-195.7033416116999
 33
0.0
  0
ENDBLK
  5
3C
  8
0
  0
BLOCK
  8
0
  2
CLUMP0
 70
     0
 10
0.0
 20
0.0
 30
0.0
  3
CLUMP0
  1

  0
LINE
  5
46
  8
ﾚｲﾔ_1
 62
     5
 10
-33.117072484200001
 20
-366.67787025749999
 30
0.0
 11
-8.4170724842000002
 21
-366.67787025749999
 31
0.0
  0
LINE
  5
47
  8
ﾚｲﾔ_1
 62
     5
 10
-33.117072484200001
 20
-366.67787025749999
 30
0.0
 11
-33.117072484200001
 21
-365.87787025749998
 31
0.0
  0
ARC
  5
48
  8
ﾚｲﾔ_1
 62
     5
 10
-22.617072484200001
 20
-365.07787025750002
 30
0.0
 40
0.8
 50
270.0
 51
0.0
  0
LINE
  5
49
  8
ﾚｲﾔ_1
 62
     5
 10
-13.617072484199999
 20
-373.27787025750001
 30
0.0
 11
-8.4170724842000002
 21
-373.27787025750001
 31
0.0
  0
LINE
  5
4A
  8
ﾚｲﾔ_1
 62
     5
 10
-13.617072484199999
 20
-374.07787025750002
 30
0.0
 11
-13.617072484199999
 21
-373.27787025750001
 31
0.0
  0
LINE
  5
4B
  8
ﾚｲﾔ_1
 62
     5
 10
-31.617072484200001
 20
-373.27787025750001
 30
0.0
 11
-31.617072484200001
 21
-374.07787025750002
 31
0.0
  0
LINE
  5
4C
  8
ﾚｲﾔ_1
 62
     5
 10
-21.817072484200001
 20
-358.57787025750002
 30
0.0
 11
-8.4170724842000002
 21
-358.57787025750002
 31
0.0
  0
LINE
  5
4D
  8
ﾚｲﾔ_1
 62
     5
 10
-22.617072484200001
 20
-365.07787025750002
 30
0.0
 11
-22.617072484200001
 21
-359.37787025749998
 31
0.0
  0
ARC
  5
4E
  8
ﾚｲﾔ_1
 62
     5
 10
-21.817072484200001
 20
-359.37787025749998
 30
0.0
 40
0.8
 50
90.0
 51
180.0
  0
LINE
  5
4F
  8
ﾚｲﾔ_1
 62
     5
 10
-21.817072484200001
 20
-359.37787025749998
 30
0.0
 11
-21.817072484200001
 21
-365.07787025750002
 31
0.0
  0
LINE
  5
50
  8
ﾚｲﾔ_1
 62
     5
 10
-8.4170724842000002
 20
-373.27787025750001
 30
0.0
 11
-8.4170724842000002
 21
-359.37787025749998
 31
0.0
  0
LINE
  5
51
  8
ﾚｲﾔ_1
 62
     5
 10
-8.4170724842000002
 20
-374.07787025750002
 30
0.0
 11
-13.617072484199999
 21
-374.07787025750002
 31
0.0
  0
ARC
  5
52
  8
ﾚｲﾔ_1
 62
     5
 10
-8.4170724842000002
 20
-373.27787025750001
 30
0.0
 40
0.8
 50
270.0
 51
0.0
  0
LINE
  5
53
  8
ﾚｲﾔ_1
 62
     5
 10
-7.6170724841999986
 20
-359.37787025749998
 30
0.0
 11
-7.6170724841999986
 21
-373.27787025750001
 31
0.0
  0
ARC
  5
54
  8
ﾚｲﾔ_1
 62
     5
 10
-8.4170724842000002
 20
-359.37787025749998
 30
0.0
 40
0.8
 50
0.0
 51
90.0
  0
LINE
  5
55
  8
ﾚｲﾔ_1
 62
     5
 10
-31.617072484200001
 20
-373.27787025750001
 30
0.0
 11
-31.617072484200001
 21
-366.67787025749999
 31
0.0
  0
LINE
  5
56
  8
ﾚｲﾔ_1
 62
     5
 10
-22.617072484200001
 20
-365.87787025749998
 30
0.0
 11
-8.4170724842000002
 21
-365.87787025749998
 31
0.0
  0
LINE
  5
57
  8
ﾚｲﾔ_1
 62
     5
 10
-8.4170724842000002
 20
-359.37787025749998
 30
0.0
 11
-21.817072484200001
 21
-359.37787025749998
 31
0.0
  0
LINE
  5
58
  8
ﾚｲﾔ_1
 62
     5
 10
-36.817072484199997
 20
-365.87787025749998
 30
0.0
 11
-36.817072484199997
 21
-373.27787025750001
 31
0.0
  0
ARC
  5
59
  8
ﾚｲﾔ_1
 62
     5
 10
-36.817072484199997
 20
-373.27787025750001
 30
0.0
 40
0.8
 50
180.0
 51
270.0
  0
LINE
  5
5A
  8
ﾚｲﾔ_1
 62
     5
 10
-37.617072484200001
 20
-373.27787025750001
 30
0.0
 11
-37.617072484200001
 21
-365.87787025749998
 31
0.0
  0
ARC
  5
5B
  8
ﾚｲﾔ_1
 62
     5
 10
-36.817072484199997
 20
-365.87787025749998
 30
0.0
 40
0.8
 50
90.0
 51
180.0
  0
LINE
  5
5C
  8
ﾚｲﾔ_1
 62
     5
 10
-36.817072484199997
 20
-365.07787025750002
 30
0.0
 11
-22.617072484200001
 21
-365.07787025750002
 31
0.0
  0
LINE
  5
5D
  8
ﾚｲﾔ_1
 62
     5
 10
-36.817072484199997
 20
-373.27787025750001
 30
0.0
 11
-31.617072484200001
 21
-373.27787025750001
 31
0.0
  0
LINE
  5
5E
  8
ﾚｲﾔ_1
 62
     5
 10
-31.617072484200001
 20
-374.07787025750002
 30
0.0
 11
-36.817072484199997
 21
-374.07787025750002
 31
0.0
  0
LINE
  5
5F
  8
ﾚｲﾔ_1
 62
     5
 10
-22.617072484200001
 20
-365.87787025749998
 30
0.0
 11
-36.817072484199997
 21
-365.87787025749998
 31
0.0
  0
ENDBLK
  5
60
  8
0
  0
BLOCK
  8
0
  2
*D2
 70
     1
 10
0.0
 20
0.0
 30
0.0
  3
*D2
  1

  0
TEXT
  5
69
  8
0
 62
     0
 10
77.464459422000004
 20
-151.51369908699999
 30
0.0
 40
8.2461809158000001
  1
25
  0
LINE
  5
6A
  8
0
 62
     0
 10
94.815154078299997
 20
-183.0783416116999
 30
0.0
 11
94.815154078299997
 21
-152.96890748390001
 31
0.0
  0
LINE
  5
6B
  8
0
 62
     0
 10
69.815154078299983
 20
-174.07834161170001
 30
0.0
 11
69.815154078299983
 21
-152.96890748390001
 31
0.0
  0
LINE
  5
6C
  8
0
 62
     0
 10
94.815154078299997
 20
-153.96890748390001
 30
0.0
 11
92.016543391100001
 21
-153.96890748390001
 31
0.0
  0
LINE
  5
6D
  8
0
 62
     0
 10
94.815154078299997
 20
-153.96890748390001
 30
0.0
 11
72.61376476560001
 21
-153.96890748390001
 31
0.0
  0
LINE
  5
6E
  8
0
 62
     0
 10
69.815154078299983
 20
-153.96890748390001
 30
0.0
 11
92.016543391100001
 21
-153.96890748390001
 31
0.0
  0
LINE
  5
6F
  8
0
 62
     0
 10
69.815154078299983
 20
-153.96890748390001
 30
0.0
 11
72.61376476560001
 21
-153.96890748390001
 31
0.0
  0
LINE
  5
70
  8
0
 62
     0
 10
69.815154078299983
 20
-153.96890748390001
 30
0.0
 11
64.815154078299983
 21
-153.96890748390001
 31
0.0
  0
SOLID
  5
71
  8
0
 62
     0
 10
69.815154078299983
 20
-153.96890748390001
 30
0.0
 11
62.31515407829999
 21
-155.8439074838999
 31
0.0
 12
62.31515407829999
 22
-152.09390748390001
 32
0.0
 13
64.190154078299983
 23
-153.96890748390001
 33
0.0
  0
LINE
  5
72
  8
0
 62
     0
 10
94.815154078299997
 20
-153.96890748390001
 30
0.0
 11
99.815154078299997
 21
-153.96890748390001
 31
0.0
  0
SOLID
  5
73
  8
0
 62
     0
 10
94.815154078299997
 20
-153.96890748390001
 30
0.0
 11
102.3151540783
 21
-152.09390748390001
 31
0.0
 12
102.3151540783
 22
-155.8439074838999
 32
0.0
 13
100.4401540783
 23
-153.96890748390001
 33
0.0
  0
ENDBLK
  5
74
  8
0
  0
BLOCK
  8
0
  2
*D3
 70
     1
 10
0.0
 20
0.0
 30
0.0
  3
*D3
  1

  0
TEXT
  5
7D
  8
0
 62
     0
 10
-27.467767140500001
 20
-137.2059756118
 30
0.0
 40
8.2461809158000001
  1
30
  0
LINE
  5
7E
  8
0
 62
     0
 10
-7.6170724841999986
 20
-174.87787025750001
 30
0.0
 11
-7.6170724841999986
 21
-138.66118400869999
 31
0.0
  0
LINE
  5
7F
  8
0
 62
     0
 10
-37.617072484200001
 20
-174.87787025750001
 30
0.0
 11
-37.617072484200001
 21
-138.66118400869999
 31
0.0
  0
LINE
  5
80
  8
0
 62
     0
 10
-7.6170724841999986
 20
-139.66118400869999
 30
0.0
 11
-12.9156831714
 21
-139.66118400869999
 31
0.0
  0
LINE
  5
81
  8
0
 62
     0
 10
-7.6170724841999986
 20
-139.66118400869999
 30
0.0
 11
-32.31846179690001
 21
-139.66118400869999
 31
0.0
  0
LINE
  5
82
  8
0
 62
     0
 10
-37.617072484200001
 20
-139.66118400869999
 30
0.0
 11
-12.9156831714
 21
-139.66118400869999
 31
0.0
  0
LINE
  5
83
  8
0
 62
     0
 10
-37.617072484200001
 20
-139.66118400869999
 30
0.0
 11
-32.31846179690001
 21
-139.66118400869999
 31
0.0
  0
LINE
  5
84
  8
0
 62
     0
 10
-37.617072484200001
 20
-139.66118400869999
 30
0.0
 11
-42.617072484200001
 21
-139.66118400869999
 31
0.0
  0
SOLID
  5
85
  8
0
 62
     0
 10
-37.617072484200001
 20
-139.66118400869999
 30
0.0
 11
-45.117072484200001
 21
-141.53618400869999
 31
0.0
 12
-45.117072484200001
 22
-137.78618400869999
 32
0.0
 13
-43.242072484200001
 23
-139.66118400869999
 33
0.0
  0
LINE
  5
86
  8
0
 62
     0
 10
-7.6170724841999986
 20
-139.66118400869999
 30
0.0
 11
-2.617072484199999
 21
-139.66118400869999
 31
0.0
  0
SOLID
  5
87
  8
0
 62
     0
 10
-7.6170724841999986
 20
-139.66118400869999
 30
0.0
 11
-0.1170724842
 21
-137.78618400869999
 31
0.0
 12
-0.1170724842
 22
-141.53618400869999
 32
0.0
 13
-1.992072484199999
 23
-139.66118400869999
 33
0.0
  0
ENDBLK
  5
88
  8
0
  0
BLOCK
  8
0
  2
*D4
 70
     1
 10
0.0
 20
0.0
 30
0.0
  3
*D4
  1

  0
TEXT
  5
8C
  8
0
 62
     0
 10
-20.035763374199998
 20
-151.68434627830001
 30
0.0
 40
8.2461809158000001
  1
15
  0
LINE
  5
8D
  8
0
 62
     0
 10
-7.6170724841999986
 20
-174.87787025750001
 30
0.0
 11
-7.6170724841999986
 21
-153.1395546752
 31
0.0
  0
LINE
  5
8E
  8
0
 62
     0
 10
-22.617072484200001
 20
-183.0778702575
 30
0.0
 11
-22.617072484200001
 21
-153.1395546752
 31
0.0
  0
LINE
  5
8F
  8
0
 62
     0
 10
-7.6170724841999986
 20
-154.1395546752
 30
0.0
 11
-7.6170724841999986
 21
-154.1395546752
 31
0.0
  0
LINE
  5
90
  8
0
 62
     0
 10
-7.6170724841999986
 20
-154.1395546752
 30
0.0
 11
-22.617072484200001
 21
-154.1395546752
 31
0.0
  0
LINE
  5
91
  8
0
 62
     0
 10
-22.617072484200001
 20
-154.1395546752
 30
0.0
 11
-7.6170724841999986
 21
-154.1395546752
 31
0.0
  0
LINE
  5
92
  8
0
 62
     0
 10
-22.617072484200001
 20
-154.1395546752
 30
0.0
 11
-22.617072484200001
 21
-154.1395546752
 31
0.0
  0
LINE
  5
93
  8
0
 62
     0
 10
-22.617072484200001
 20
-154.1395546752
 30
0.0
 11
-17.617072484200001
 21
-154.1395546752
 31
0.0
  0
SOLID
  5
94
  8
0
 62
     0
 10
-22.617072484200001
 20
-154.1395546752
 30
0.0
 11
-15.117072484199999
 21
-152.2645546752
 31
0.0
 12
-15.117072484199999
 22
-156.0145546752
 32
0.0
 13
-16.992072484200001
 23
-154.1395546752
 33
0.0
  0
LINE
  5
95
  8
0
 62
     0
 10
-7.6170724841999986
 20
-154.1395546752
 30
0.0
 11
-12.617072484199999
 21
-154.1395546752
 31
0.0
  0
SOLID
  5
96
  8
0
 62
     0
 10
-7.6170724841999986
 20
-154.1395546752
 30
0.0
 11
-15.117072484199999
 21
-156.0145546752
 31
0.0
 12
-15.117072484199999
 22
-152.2645546752
 32
0.0
 13
-13.242072484199999
 23
-154.1395546752
 33
0.0
  0
ENDBLK
  5
97
  8
0
  0
BLOCK
  8
0
  2
*D5
 70
     1
 10
0.0
 20
0.0
 30
0.0
  3
*D5
  1

  0
TEXT
  5
9B
  8
0
 62
     0
 10
-35.208243719000002
 20
-151.68434627830001
 30
0.0
 40
8.2461809158000001
  1
15
  0
LINE
  5
9C
  8
0
 62
     0
 10
-22.617072484200001
 20
-183.0778702575
 30
0.0
 11
-22.617072484200001
 21
-153.1395546752
 31
0.0
  0
LINE
  5
9D
  8
0
 62
     0
 10
-37.617072484200001
 20
-174.87787025750001
 30
0.0
 11
-37.617072484200001
 21
-153.1395546752
 31
0.0
  0
LINE
  5
9E
  8
0
 62
     0
 10
-22.617072484200001
 20
-154.1395546752
 30
0.0
 11
-22.617072484200001
 21
-154.1395546752
 31
0.0
  0
LINE
  5
9F
  8
0
 62
     0
 10
-22.617072484200001
 20
-154.1395546752
 30
0.0
 11
-37.617072484200001
 21
-154.1395546752
 31
0.0
  0
LINE
  5
A0
  8
0
 62
     0
 10
-37.617072484200001
 20
-154.1395546752
 30
0.0
 11
-22.617072484200001
 21
-154.1395546752
 31
0.0
  0
LINE
  5
A1
  8
0
 62
     0
 10
-37.617072484200001
 20
-154.1395546752
 30
0.0
 11
-37.617072484200001
 21
-154.1395546752
 31
0.0
  0
LINE
  5
A2
  8
0
 62
     0
 10
-37.617072484200001
 20
-154.1395546752
 30
0.0
 11
-32.617072484200001
 21
-154.1395546752
 31
0.0
  0
SOLID
  5
A3
  8
0
 62
     0
 10
-37.617072484200001
 20
-154.1395546752
 30
0.0
 11
-30.117072484200001
 21
-152.2645546752
 31
0.0
 12
-30.117072484200001
 22
-156.0145546752
 32
0.0
 13
-31.992072484200001
 23
-154.1395546752
 33
0.0
  0
LINE
  5
A4
  8
0
 62
     0
 10
-22.617072484200001
 20
-154.1395546752
 30
0.0
 11
-27.617072484200001
 21
-154.1395546752
 31
0.0
  0
SOLID
  5
A5
  8
0
 62
     0
 10
-22.617072484200001
 20
-154.1395546752
 30
0.0
 11
-30.117072484200001
 21
-156.0145546752
 31
0.0
 12
-30.117072484200001
 22
-152.2645546752
 32
0.0
 13
-28.242072484200001
 23
-154.1395546752
 33
0.0
  0
ENDBLK
  5
A6
  8
0
  0
BLOCK
  8
0
  2
CLUMP1
 70
     0
 10
0.0
 20
0.0
 30
0.0
  3
CLUMP1
  1

  0
LINE
  5
AF
  8
ﾚｲﾔ_1
 62
     5
 10
-33.117072484200001
 20
-183.4778702575
 30
0.0
 11
-8.4170724842000002
 21
-183.4778702575
 31
0.0
  0
LINE
  5
B0
  8
ﾚｲﾔ_1
 62
     5
 10
-33.117072484200001
 20
-183.4778702575
 30
0.0
 11
-33.117072484200001
 21
-184.27787025750001
 31
0.0
  0
LINE
  5
B1
  8
ﾚｲﾔ_1
 62
     5
 10
-8.4170724842000002
 20
-190.77787025750001
 30
0.0
 11
-21.817072484200001
 21
-190.77787025750001
 31
0.0
  0
LINE
  5
B2
  8
ﾚｲﾔ_1
 62
     5
 10
-8.4170724842000002
 20
-176.87787025750001
 30
0.0
 11
-8.4170724842000002
 21
-190.77787025750001
 31
0.0
  0
ARC
  5
B3
  8
ﾚｲﾔ_1
 62
     5
 10
-8.4170724842000002
 20
-176.87787025750001
 30
0.0
 40
0.8
 50
0.0
 51
90.0
  0
LINE
  5
B4
  8
ﾚｲﾔ_1
 62
     5
 10
-7.6170724841999986
 20
-190.77787025750001
 30
0.0
 11
-7.6170724841999986
 21
-176.87787025750001
 31
0.0
  0
ARC
  5
B5
  8
ﾚｲﾔ_1
 62
     5
 10
-8.4170724842000002
 20
-190.77787025750001
 30
0.0
 40
0.8
 50
270.0
 51
0.0
  0
LINE
  5
B6
  8
ﾚｲﾔ_1
 62
     5
 10
-21.817072484200001
 20
-191.5778702575
 30
0.0
 11
-8.4170724842000002
 21
-191.5778702575
 31
0.0
  0
LINE
  5
B7
  8
ﾚｲﾔ_1
 62
     5
 10
-22.617072484200001
 20
-185.0778702575
 30
0.0
 11
-22.617072484200001
 21
-190.77787025750001
 31
0.0
  0
ARC
  5
B8
  8
ﾚｲﾔ_1
 62
     5
 10
-21.817072484200001
 20
-190.77787025750001
 30
0.0
 40
0.8
 50
180.0
 51
270.0
  0
LINE
  5
B9
  8
ﾚｲﾔ_1
 62
     5
 10
-21.817072484200001
 20
-190.77787025750001
 30
0.0
 11
-21.817072484200001
 21
-185.0778702575
 31
0.0
  0
LINE
  5
BA
  8
ﾚｲﾔ_1
 62
     5
 10
-13.617072484199999
 20
-176.87787025750001
 30
0.0
 11
-8.4170724842000002
 21
-176.87787025750001
 31
0.0
  0
LINE
  5
BB
  8
ﾚｲﾔ_1
 62
     5
 10
-13.617072484199999
 20
-176.0778702575
 30
0.0
 11
-13.617072484199999
 21
-176.87787025750001
 31
0.0
  0
LINE
  5
BC
  8
ﾚｲﾔ_1
 62
     5
 10
-31.617072484200001
 20
-176.87787025750001
 30
0.0
 11
-31.617072484200001
 21
-183.4778702575
 31
0.0
  0
LINE
  5
BD
  8
ﾚｲﾔ_1
 62
     5
 10
-22.617072484200001
 20
-184.27787025750001
 30
0.0
 11
-8.4170724842000002
 21
-184.27787025750001
 31
0.0
  0
LINE
  5
BE
  8
ﾚｲﾔ_1
 62
     5
 10
-31.617072484200001
 20
-176.87787025750001
 30
0.0
 11
-31.617072484200001
 21
-176.0778702575
 31
0.0
  0
LINE
  5
BF
  8
ﾚｲﾔ_1
 62
     5
 10
-8.4170724842000002
 20
-176.0778702575
 30
0.0
 11
-13.617072484199999
 21
-176.0778702575
 31
0.0
  0
ARC
  5
C0
  8
ﾚｲﾔ_1
 62
     5
 10
-22.617072484200001
 20
-185.0778702575
 30
0.0
 40
0.8
 50
0.0
 51
90.0
  0
ARC
  5
C1
  8
ﾚｲﾔ_1
 62
     5
 10
-36.817072484199997
 20
-184.27787025750001
 30
0.0
 40
0.8
 50
180.0
 51
270.0
  0
LINE
  5
C2
  8
ﾚｲﾔ_1
 62
     5
 10
-36.817072484199997
 20
-184.27787025750001
 30
0.0
 11
-36.817072484199997
 21
-176.87787025750001
 31
0.0
  0
ARC
  5
C3
  8
ﾚｲﾔ_1
 62
     5
 10
-36.817072484199997
 20
-176.87787025750001
 30
0.0
 40
0.8
 50
90.0
 51
180.0
  0
LINE
  5
C4
  8
ﾚｲﾔ_1
 62
     5
 10
-37.617072484200001
 20
-176.87787025750001
 30
0.0
 11
-37.617072484200001
 21
-184.27787025750001
 31
0.0
  0
LINE
  5
C5
  8
ﾚｲﾔ_1
 62
     5
 10
-36.817072484199997
 20
-176.87787025750001
 30
0.0
 11
-31.617072484200001
 21
-176.87787025750001
 31
0.0
  0
LINE
  5
C6
  8
ﾚｲﾔ_1
 62
     5
 10
-31.617072484200001
 20
-176.0778702575
 30
0.0
 11
-36.817072484199997
 21
-176.0778702575
 31
0.0
  0
LINE
  5
C7
  8
ﾚｲﾔ_1
 62
     5
 10
-22.617072484200001
 20
-184.27787025750001
 30
0.0
 11
-36.817072484199997
 21
-184.27787025750001
 31
0.0
  0
LINE
  5
C8
  8
ﾚｲﾔ_1
 62
     5
 10
-36.817072484199997
 20
-185.0778702575
 30
0.0
 11
-22.617072484200001
 21
-185.0778702575
 31
0.0
  0
ENDBLK
  5
C9
  8
0
  0
BLOCK
  8
0
  2
*D7
 70
     1
 10
0.0
 20
0.0
 30
0.0
  3
*D7
  1

  0
TEXT
  5
CC
  8
0
 62
     0
 10
12.9131614712
 20
-166.6570246695
 30
0.0
 40
8.2461809158000001
  1
15.5
 50
90.0
  0
LINE
  5
CD
  8
0
 62
     0
 10
-6.4170724841999993
 20
-191.5778702575
 30
0.0
 11
16.3683698681
 21
-191.5778702575
 31
0.0
  0
LINE
  5
CE
  8
0
 62
     0
 10
-6.4170724841999993
 20
-176.0778702575
 30
0.0
 11
16.3683698681
 21
-176.0778702575
 31
0.0
  0
LINE
  5
CF
  8
0
 62
     0
 10
15.3683698681
 20
-191.5778702575
 30
0.0
 11
15.3683698681
 21
-145.23312327049999
 31
0.0
  0
LINE
  5
D0
  8
0
 62
     0
 10
15.3683698681
 20
-191.5778702575
 30
0.0
 11
15.3683698681
 21
-171.5077193258
 31
0.0
  0
LINE
  5
D1
  8
0
 62
     0
 10
15.3683698681
 20
-176.0778702575
 30
0.0
 11
15.3683698681
 21
-145.23312327049999
 31
0.0
  0
LINE
  5
D2
  8
0
 62
     0
 10
15.3683698681
 20
-176.0778702575
 30
0.0
 11
15.3683698681
 21
-171.5077193258
 31
0.0
  0
LINE
  5
D3
  8
0
 62
     0
 10
15.3683698681
 20
-176.0778702575
 30
0.0
 11
15.3683698681
 21
-181.0778702575
 31
0.0
  0
SOLID
  5
D4
  8
0
 62
     0
 10
15.3683698681
 20
-176.0778702575
 30
0.0
 11
17.2433698681
 21
-183.5778702575
 31
0.0
 12
13.4933698681
 22
-183.5778702575
 32
0.0
 13
15.3683698681
 23
-181.7028702575
 33
0.0
  0
LINE
  5
D5
  8
0
 62
     0
 10
15.3683698681
 20
-191.5778702575
 30
0.0
 11
15.3683698681
 21
-186.5778702575
 31
0.0
  0
SOLID
  5
D6
  8
0
 62
     0
 10
15.3683698681
 20
-191.5778702575
 30
0.0
 11
13.4933698681
 21
-184.0778702575
 31
0.0
 12
17.2433698681
 22
-184.0778702575
 32
0.0
 13
15.3683698681
 23
-185.9528702575
 33
0.0
  0
ENDBLK
  5
D7
  8
0
  0
BLOCK
  8
0
  2
*D8
 70
     1
 10
0.0
 20
0.0
 30
0.0
  3
*D8
  1

  0
TEXT
  5
DB
  8
0
 62
     0
 10
143.77485695159999
 20
-371.92809355970002
 30
0.0
 40
8.2461809158000001
  1
14
 50
90.0
  0
LINE
  5
DC
  8
0
 62
     0
 10
126.8151540783
 20
-374.07739890340002
 30
0.0
 11
147.23006534850001
 21
-374.07739890340002
 31
0.0
  0
LINE
  5
DD
  8
0
 62
     0
 10
126.8151540783
 20
-360.07739890340002
 30
0.0
 11
147.23006534850001
 21
-360.07739890340002
 31
0.0
  0
LINE
  5
DE
  8
0
 62
     0
 10
146.23006534850001
 20
-374.07739890340002
 30
0.0
 11
146.23006534850001
 21
-374.07739890340002
 31
0.0
  0
LINE
  5
DF
  8
0
 62
     0
 10
146.23006534850001
 20
-374.07739890340002
 30
0.0
 11
146.23006534850001
 21
-360.07739890340002
 31
0.0
  0
LINE
  5
E0
  8
0
 62
     0
 10
146.23006534850001
 20
-360.07739890340002
 30
0.0
 11
146.23006534850001
 21
-374.07739890340002
 31
0.0
  0
LINE
  5
E1
  8
0
 62
     0
 10
146.23006534850001
 20
-360.07739890340002
 30
0.0
 11
146.23006534850001
 21
-360.07739890340002
 31
0.0
  0
LINE
  5
E2
  8
0
 62
     0
 10
146.23006534850001
 20
-360.07739890340002
 30
0.0
 11
146.23006534850001
 21
-355.07739890339991
 31
0.0
  0
SOLID
  5
E3
  8
0
 62
     0
 10
146.23006534850001
 20
-360.07739890340002
 30
0.0
 11
144.35506534850001
 21
-352.57739890340002
 31
0.0
 12
148.10506534850001
 22
-352.57739890340002
 32
0.0
 13
146.23006534850001
 23
-354.45239890340002
 33
0.0
  0
LINE
  5
E4
  8
0
 62
     0
 10
146.23006534850001
 20
-374.07739890340002
 30
0.0
 11
146.23006534850001
 21
-379.07739890340002
 31
0.0
  0
SOLID
  5
E5
  8
0
 62
     0
 10
146.23006534850001
 20
-374.07739890340002
 30
0.0
 11
148.10506534850001
 21
-381.57739890340002
 31
0.0
 12
144.35506534850001
 22
-381.57739890340002
 32
0.0
 13
146.23006534850001
 23
-379.70239890340002
 33
0.0
  0
ENDBLK
  5
E6
  8
0
  0
BLOCK
  8
0
  2
*D9
 70
     1
 10
0.0
 20
0.0
 30
0.0
  3
*D9
  1

  0
TEXT
  5
EC
  8
0
 62
     0
 10
-78.189586084599995
 20
-490.44634993080001
 30
0.0
 40
8.2461809158000001
  1
23
  0
LINE
  5
ED
  8
0
 62
     0
 10
-61.838891428300002
 20
-512.98645441529993
 30
0.0
 11
-61.838891428300002
 21
-491.90155832769989
 31
0.0
  0
LINE
  5
EE
  8
0
 62
     0
 10
-84.838891428299988
 20
-514.98645441529993
 30
0.0
 11
-84.838891428299988
 21
-491.90155832769989
 31
0.0
  0
LINE
  5
EF
  8
0
 62
     0
 10
-61.838891428300002
 20
-492.90155832769989
 30
0.0
 11
-63.637502115499998
 21
-492.90155832769989
 31
0.0
  0
LINE
  5
F0
  8
0
 62
     0
 10
-61.838891428300002
 20
-492.90155832769989
 30
0.0
 11
-83.040280741000004
 21
-492.90155832769989
 31
0.0
  0
LINE
  5
F1
  8
0
 62
     0
 10
-84.838891428299988
 20
-492.90155832769989
 30
0.0
 11
-63.637502115499998
 21
-492.90155832769989
 31
0.0
  0
LINE
  5
F2
  8
0
 62
     0
 10
-84.838891428299988
 20
-492.90155832769989
 30
0.0
 11
-83.040280741000004
 21
-492.90155832769989
 31
0.0
  0
LINE
  5
F3
  8
0
 62
     0
 10
-84.838891428299988
 20
-492.90155832769989
 30
0.0
 11
-89.838891428299988
 21
-492.90155832769989
 31
0.0
  0
SOLID
  5
F4
  8
0
 62
     0
 10
-84.838891428299988
 20
-492.90155832769989
 30
0.0
 11
-92.338891428299988
 21
-494.77655832769989
 31
0.0
 12
-92.338891428299988
 22
-491.02655832769989
 32
0.0
 13
-90.463891428299988
 23
-492.90155832769989
 33
0.0
  0
LINE
  5
F5
  8
0
 62
     0
 10
-61.838891428300002
 20
-492.90155832769989
 30
0.0
 11
-56.838891428300002
 21
-492.90155832769989
 31
0.0
  0
SOLID
  5
F6
  8
0
 62
     0
 10
-61.838891428300002
 20
-492.90155832769989
 30
0.0
 11
-54.338891428300002
 21
-491.02655832769989
 31
0.0
 12
-54.338891428300002
 22
-494.77655832769989
 32
0.0
 13
-56.213891428300002
 23
-492.90155832769989
 33
0.0
  0
ENDBLK
  5
F7
  8
0
  0
BLOCK
  8
0
  2
*D10
 70
     1
 10
0.0
 20
0.0
 30
0.0
  3
*D10
  1

  0
TEXT
  5
10F
  8
0
 62
     0
 10
12.9131614712
 20
-400.35546331389997
 30
0.0
 40
8.2461809158000001
  1
15.5
 50
90.0
  0
LINE
  5
110
  8
0
 62
     0
 10
-6.4170724841999993
 20
-374.07787025750002
 30
0.0
 11
16.3683698681
 21
-374.07787025750002
 31
0.0
  0
LINE
  5
111
  8
0
 62
     0
 10
-6.4170724841999993
 20
-358.57787025750002
 30
0.0
 11
16.3683698681
 21
-358.57787025750002
 31
0.0
  0
LINE
  5
112
  8
0
 62
     0
 10
15.3683698681
 20
-374.07787025750002
 30
0.0
 11
15.3683698681
 21
-378.93156191489999
 31
0.0
  0
LINE
  5
113
  8
0
 62
     0
 10
15.3683698681
 20
-374.07787025750002
 30
0.0
 11
15.3683698681
 21
-405.20615797030001
 31
0.0
  0
LINE
  5
114
  8
0
 62
     0
 10
15.3683698681
 20
-358.57787025750002
 30
0.0
 11
15.3683698681
 21
-378.93156191489999
 31
0.0
  0
LINE
  5
115
  8
0
 62
     0
 10
15.3683698681
 20
-358.57787025750002
 30
0.0
 11
15.3683698681
 21
-405.20615797030001
 31
0.0
  0
LINE
  5
116
  8
0
 62
     0
 10
15.3683698681
 20
-358.57787025750002
 30
0.0
 11
15.3683698681
 21
-363.57787025750002
 31
0.0
  0
SOLID
  5
117
  8
0
 62
     0
 10
15.3683698681
 20
-358.57787025750002
 30
0.0
 11
17.2433698681
 21
-366.07787025750002
 31
0.0
 12
13.4933698681
 22
-366.07787025750002
 32
0.0
 13
15.3683698681
 23
-364.20287025750002
 33
0.0
  0
LINE
  5
118
  8
0
 62
     0
 10
15.3683698681
 20
-374.07787025750002
 30
0.0
 11
15.3683698681
 21
-369.07787025750002
 31
0.0
  0
SOLID
  5
119
  8
0
 62
     0
 10
15.3683698681
 20
-374.07787025750002
 30
0.0
 11
13.4933698681
 21
-366.57787025750002
 31
0.0
 12
17.2433698681
 22
-366.57787025750002
 32
0.0
 13
15.3683698681
 23
-368.45287025750002
 33
0.0
  0
ENDBLK
  5
11A
  8
0
  0
BLOCK
  8
0
  2
*D11
 70
     1
 10
0.0
 20
0.0
 30
0.0
  3
*D11
  1

  0
TEXT
  5
13A
  8
0
 62
     0
 10
-137.6682579596
 20
-490.44634993080001
 30
0.0
 40
8.2461809158000001
  1
14
  0
LINE
  5
13B
  8
0
 62
     0
 10
-125.81756330330001
 20
-512.98645441529993
 30
0.0
 11
-125.81756330330001
 21
-491.90155832769989
 31
0.0
  0
LINE
  5
13C
  8
0
 62
     0
 10
-139.81756330330001
 20
-514.98645576460001
 30
0.0
 11
-139.81756330330001
 21
-491.90155832769989
 31
0.0
  0
LINE
  5
13D
  8
0
 62
     0
 10
-125.81756330330001
 20
-492.90155832769989
 30
0.0
 11
-125.81756330330001
 21
-492.90155832769989
 31
0.0
  0
LINE
  5
13E
  8
0
 62
     0
 10
-125.81756330330001
 20
-492.90155832769989
 30
0.0
 11
-139.81756330330001
 21
-492.90155832769989
 31
0.0
  0
LINE
  5
13F
  8
0
 62
     0
 10
-139.81756330330001
 20
-492.90155832769989
 30
0.0
 11
-125.81756330330001
 21
-492.90155832769989
 31
0.0
  0
LINE
  5
140
  8
0
 62
     0
 10
-139.81756330330001
 20
-492.90155832769989
 30
0.0
 11
-139.81756330330001
 21
-492.90155832769989
 31
0.0
  0
LINE
  5
141
  8
0
 62
     0
 10
-139.81756330330001
 20
-492.90155832769989
 30
0.0
 11
-144.81756330330001
 21
-492.90155832769989
 31
0.0
  0
SOLID
  5
142
  8
0
 62
     0
 10
-139.81756330330001
 20
-492.90155832769989
 30
0.0
 11
-147.31756330330001
 21
-494.77655832769989
 31
0.0
 12
-147.31756330330001
 22
-491.02655832769989
 32
0.0
 13
-145.44256330330001
 23
-492.90155832769989
 33
0.0
  0
LINE
  5
143
  8
0
 62
     0
 10
-125.81756330330001
 20
-492.90155832769989
 30
0.0
 11
-120.81756330330001
 21
-492.90155832769989
 31
0.0
  0
SOLID
  5
144
  8
0
 62
     0
 10
-125.81756330330001
 20
-492.90155832769989
 30
0.0
 11
-118.31756330330001
 21
-491.02655832769989
 31
0.0
 12
-118.31756330330001
 22
-494.77655832769989
 32
0.0
 13
-120.19256330330001
 23
-492.90155832769989
 33
0.0
  0
ENDBLK
  5
145
  8
0
  0
BLOCK
  8
0
  2
*D12
 70
     1
 10
0.0
 20
0.0
 30
0.0
  3
*D12
  1

  0
TEXT
  5
1D4
  8
0
 62
     0
 10
-550.17043273299987
 20
-148.0387022811
 30
0.0
 40
8.2461809158000001
  1
9
  0
LINE
  5
1D5
  8
0
 62
     0
 10
-543.24508540479997
 20
-183.0778702575
 30
0.0
 11
-543.24508540479997
 21
-149.49391067810001
 31
0.0
  0
LINE
  5
1D6
  8
0
 62
     0
 10
-552.24508540480008
 20
-174.0778702575
 30
0.0
 11
-552.24508540480008
 21
-149.49391067810001
 31
0.0
  0
LINE
  5
1D7
  8
0
 62
     0
 10
-543.24508540479997
 20
-150.49391067810001
 30
0.0
 11
-543.24508540479997
 21
-150.49391067810001
 31
0.0
  0
LINE
  5
1D8
  8
0
 62
     0
 10
-543.24508540479997
 20
-150.49391067810001
 30
0.0
 11
-552.24508540480008
 21
-150.49391067810001
 31
0.0
  0
LINE
  5
1D9
  8
0
 62
     0
 10
-552.24508540480008
 20
-150.49391067810001
 30
0.0
 11
-543.24508540479997
 21
-150.49391067810001
 31
0.0
  0
LINE
  5
1DA
  8
0
 62
     0
 10
-552.24508540480008
 20
-150.49391067810001
 30
0.0
 11
-552.24508540480008
 21
-150.49391067810001
 31
0.0
  0
LINE
  5
1DB
  8
0
 62
     0
 10
-552.24508540480008
 20
-150.49391067810001
 30
0.0
 11
-557.24508540480008
 21
-150.49391067810001
 31
0.0
  0
SOLID
  5
1DC
  8
0
 62
     0
 10
-552.24508540480008
 20
-150.49391067810001
 30
0.0
 11
-559.74508540479997
 21
-152.36891067810001
 31
0.0
 12
-559.74508540479997
 22
-148.61891067810001
 32
0.0
 13
-557.87008540479997
 23
-150.49391067810001
 33
0.0
  0
LINE
  5
1DD
  8
0
 62
     0
 10
-543.24508540479997
 20
-150.49391067810001
 30
0.0
 11
-538.24508540479997
 21
-150.49391067810001
 31
0.0
  0
SOLID
  5
1DE
  8
0
 62
     0
 10
-543.24508540479997
 20
-150.49391067810001
 30
0.0
 11
-535.74508540480008
 21
-148.61891067810001
 31
0.0
 12
-535.74508540480008
 22
-152.36891067810001
 32
0.0
 13
-537.62008540480008
 23
-150.49391067810001
 33
0.0
  0
ENDBLK
  5
1DF
  8
0
  0
BLOCK
  8
0
  2
BALLON0
 70
     0
 10
0.0
 20
0.0
 30
0.0
  3
BALLON0
  1

  0
INSERT
  5
1EE
  8
0
  6
CONTINUOUS
  2
*U76
 10
0.0
 20
0.0
 30
0.0
  0
CIRCLE
  5
1EF
  8
ﾚｲﾔ_1
 10
-513.50429842159997
 20
-394.283373606
 30
0.0
 40
8.0
  0
LINE
  5
1F0
  8
寸法線
 10
-500.17096508829991
 20
-394.283373606
 30
0.0
 11
-505.50429842160003
 21
-394.283373606
 31
0.0
  0
LINE
  5
1F1
  8
寸法線
 10
-488.7559729859999
 20
-414.20674920229999
 30
0.0
 11
-500.17096508829991
 21
-394.283373606
 31
0.0
  0
SOLID
  5
1F2
  8
寸法線
 10
-488.7559729859999
 20
-414.20674920229999
 30
0.0
 11
-494.12129678119999
 21
-408.0607504573
 31
0.0
 12
-491.93760686769991
 22
-408.65362342999993
 32
0.0
 13
-491.93760686769991
 23
-408.65362342999993
 33
0.0
  0
SOLID
  5
1F3
  8
寸法線
 10
-491.93760686769991
 20
-408.65362342999993
 30
0.0
 11
-491.34473389499999
 21
-406.46993351650002
 31
0.0
 12
-488.7559729859999
 22
-414.20674920229999
 32
0.0
 13
-488.7559729859999
 23
-414.20674920229999
 33
0.0
  0
ENDBLK
  5
1F4
  8
0
  0
BLOCK
  8
0
  2
BALLON1
 70
     0
 10
0.0
 20
0.0
 30
0.0
  3
BALLON1
  1

  0
INSERT
  5
228
  8
0
  6
CONTINUOUS
  2
*U77
 10
0.0
 20
0.0
 30
0.0
  0
CIRCLE
  5
229
  8
ﾚｲﾔ_1
 10
-598.3784487209
 20
-394.283373606
 30
0.0
 40
8.0
  0
LINE
  5
22A
  8
寸法線
 10
-585.04511538760005
 20
-394.283373606
 30
0.0
 11
-590.3784487209
 21
-394.283373606
 31
0.0
  0
LINE
  5
22B
  8
寸法線
 10
-544.04508540480003
 20
-434.99681895890001
 30
0.0
 11
-585.04511538760005
 21
-394.283373606
 31
0.0
  0
SOLID
  5
22C
  8
寸法線
 10
-544.04508540480003
 20
-434.99681895890001
 30
0.0
 11
-550.84914038529985
 21
-430.4951708358999
 31
0.0
 12
-548.58641260160005
 22
-430.48723502109999
 32
0.0
 13
-548.58641260160005
 23
-430.48723502109999
 33
0.0
  0
SOLID
  5
22D
  8
寸法線
 10
-548.58641260160005
 20
-430.48723502109999
 30
0.0
 11
-548.59434841639995
 21
-428.22450723749989
 31
0.0
 12
-544.04508540480003
 22
-434.99681895890001
 32
0.0
 13
-544.04508540480003
 23
-434.99681895890001
 33
0.0
  0
ENDBLK
  5
22E
  8
0
  0
BLOCK
  8
0
  2
*D15
 70
     1
 10
0.0
 20
0.0
 30
0.0
  3
*D15
  1

  0
TEXT
  5
231
  8
0
 62
     0
 10
-188.98973698029999
 20
-564.33744594669997
 30
0.0
 40
8.2461809158000001
  1
15
 50
90.0
  0
LINE
  5
232
  8
0
 62
     0
 10
-224.7845285834
 20
-566.98675129029994
 30
0.0
 11
-185.5345285834
 21
-566.98675129029994
 31
0.0
  0
LINE
  5
233
  8
0
 62
     0
 10
-224.7845285834
 20
-551.98675129029994
 30
0.0
 11
-185.5345285834
 21
-551.98675129029994
 31
0.0
  0
LINE
  5
234
  8
0
 62
     0
 10
-186.5345285834
 20
-566.98675129029994
 30
0.0
 11
-186.5345285834
 21
-566.98675129029994
 31
0.0
  0
LINE
  5
235
  8
0
 62
     0
 10
-186.5345285834
 20
-566.98675129029994
 30
0.0
 11
-186.5345285834
 21
-551.98675129029994
 31
0.0
  0
LINE
  5
236
  8
0
 62
     0
 10
-186.5345285834
 20
-551.98675129029994
 30
0.0
 11
-186.5345285834
 21
-566.98675129029994
 31
0.0
  0
LINE
  5
237
  8
0
 62
     0
 10
-186.5345285834
 20
-551.98675129029994
 30
0.0
 11
-186.5345285834
 21
-551.98675129029994
 31
0.0
  0
LINE
  5
238
  8
0
 62
     0
 10
-186.5345285834
 20
-551.98675129029994
 30
0.0
 11
-186.5345285834
 21
-556.98675129029994
 31
0.0
  0
SOLID
  5
239
  8
0
 62
     0
 10
-186.5345285834
 20
-551.98675129029994
 30
0.0
 11
-184.6595285834
 21
-559.48675129029994
 31
0.0
 12
-188.4095285834
 22
-559.48675129029994
 32
0.0
 13
-186.5345285834
 23
-557.61175129029994
 33
0.0
  0
LINE
  5
23A
  8
0
 62
     0
 10
-186.5345285834
 20
-566.98675129029994
 30
0.0
 11
-186.5345285834
 21
-561.98675129029994
 31
0.0
  0
SOLID
  5
23B
  8
0
 62
     0
 10
-186.5345285834
 20
-566.98675129029994
 30
0.0
 11
-188.4095285834
 21
-559.48675129029994
 31
0.0
 12
-184.6595285834
 22
-559.48675129029994
 32
0.0
 13
-186.5345285834
 23
-561.36175129029994
 33
0.0
  0
ENDBLK
  5
23C
  8
0
  0
BLOCK
  8
0
  2
*D16
 70
     1
 10
0.0
 20
0.0
 30
0.0
  3
*D16
  1

  0
TEXT
  5
240
  8
0
 62
     0
 10
-188.98973698029999
 20
-586.83744594669986
 30
0.0
 40
8.2461809158000001
  1
30
 50
90.0
  0
LINE
  5
241
  8
0
 62
     0
 10
-265.0345285834
 20
-596.98675129029994
 30
0.0
 11
-185.5345285834
 21
-596.98675129029994
 31
0.0
  0
LINE
  5
242
  8
0
 62
     0
 10
-224.7845285834
 20
-566.98675129029994
 30
0.0
 11
-185.5345285834
 21
-566.98675129029994
 31
0.0
  0
LINE
  5
243
  8
0
 62
     0
 10
-186.5345285834
 20
-596.98675129029994
 30
0.0
 11
-186.5345285834
 21
-572.28536197760002
 31
0.0
  0
LINE
  5
244
  8
0
 62
     0
 10
-186.5345285834
 20
-596.98675129029994
 30
0.0
 11
-186.5345285834
 21
-591.6881406030999
 31
0.0
  0
LINE
  5
245
  8
0
 62
     0
 10
-186.5345285834
 20
-566.98675129029994
 30
0.0
 11
-186.5345285834
 21
-572.28536197760002
 31
0.0
  0
LINE
  5
246
  8
0
 62
     0
 10
-186.5345285834
 20
-566.98675129029994
 30
0.0
 11
-186.5345285834
 21
-591.6881406030999
 31
0.0
  0
LINE
  5
247
  8
0
 62
     0
 10
-186.5345285834
 20
-566.98675129029994
 30
0.0
 11
-186.5345285834
 21
-561.98675129029994
 31
0.0
  0
SOLID
  5
248
  8
0
 62
     0
 10
-186.5345285834
 20
-566.98675129029994
 30
0.0
 11
-188.4095285834
 21
-559.48675129029994
 31
0.0
 12
-184.6595285834
 22
-559.48675129029994
 32
0.0
 13
-186.5345285834
 23
-561.36175129029994
 33
0.0
  0
LINE
  5
249
  8
0
 62
     0
 10
-186.5345285834
 20
-596.98675129029994
 30
0.0
 11
-186.5345285834
 21
-601.98675129029994
 31
0.0
  0
SOLID
  5
24A
  8
0
 62
     0
 10
-186.5345285834
 20
-596.98675129029994
 30
0.0
 11
-184.6595285834
 21
-604.48675129029994
 31
0.0
 12
-188.4095285834
 22
-604.48675129029994
 32
0.0
 13
-186.5345285834
 23
-602.61175129029994
 33
0.0
  0
ENDBLK
  5
24B
  8
0
  0
BLOCK
  8
0
  2
*D17
 70
     1
 10
0.0
 20
0.0
 30
0.0
  3
*D17
  1

  0
TEXT
  5
24F
  8
0
 62
     0
 10
-188.98973698029999
 20
-609.33744594669997
 30
0.0
 40
8.2461809158000001
  1
15
 50
90.0
  0
LINE
  5
250
  8
0
 62
     0
 10
-265.0345285834
 20
-611.98675129029994
 30
0.0
 11
-185.5345285834
 21
-611.98675129029994
 31
0.0
  0
LINE
  5
251
  8
0
 62
     0
 10
-265.0345285834
 20
-596.98675129029994
 30
0.0
 11
-185.5345285834
 21
-596.98675129029994
 31
0.0
  0
LINE
  5
252
  8
0
 62
     0
 10
-186.5345285834
 20
-611.98675129029994
 30
0.0
 11
-186.5345285834
 21
-611.98675129029994
 31
0.0
  0
LINE
  5
253
  8
0
 62
     0
 10
-186.5345285834
 20
-611.98675129029994
 30
0.0
 11
-186.5345285834
 21
-596.98675129029994
 31
0.0
  0
LINE
  5
254
  8
0
 62
     0
 10
-186.5345285834
 20
-596.98675129029994
 30
0.0
 11
-186.5345285834
 21
-611.98675129029994
 31
0.0
  0
LINE
  5
255
  8
0
 62
     0
 10
-186.5345285834
 20
-596.98675129029994
 30
0.0
 11
-186.5345285834
 21
-596.98675129029994
 31
0.0
  0
LINE
  5
256
  8
0
 62
     0
 10
-186.5345285834
 20
-596.98675129029994
 30
0.0
 11
-186.5345285834
 21
-601.98675129029994
 31
0.0
  0
SOLID
  5
257
  8
0
 62
     0
 10
-186.5345285834
 20
-596.98675129029994
 30
0.0
 11
-184.6595285834
 21
-604.48675129029994
 31
0.0
 12
-188.4095285834
 22
-604.48675129029994
 32
0.0
 13
-186.5345285834
 23
-602.61175129029994
 33
0.0
  0
LINE
  5
258
  8
0
 62
     0
 10
-186.5345285834
 20
-611.98675129029994
 30
0.0
 11
-186.5345285834
 21
-606.98675129029994
 31
0.0
  0
SOLID
  5
259
  8
0
 62
     0
 10
-186.5345285834
 20
-611.98675129029994
 30
0.0
 11
-188.4095285834
 21
-604.48675129029994
 31
0.0
 12
-184.6595285834
 22
-604.48675129029994
 32
0.0
 13
-186.5345285834
 23
-606.36175129029994
 33
0.0
  0
ENDBLK
  5
25A
  8
0
  0
BLOCK
  8
0
  2
*D18
 70
     1
 10
0.0
 20
0.0
 30
0.0
  3
*D18
  1

  0
TEXT
  5
28B
  8
0
 62
     0
 10
-188.98973698029999
 20
-530.83729750919986
 30
0.0
 40
8.2461809158000001
  1
22
 50
90.0
  0
LINE
  5
28C
  8
0
 62
     0
 10
-224.7845285834
 20
-536.98675129029994
 30
0.0
 11
-185.5345285834
 21
-536.98675129029994
 31
0.0
  0
LINE
  5
28D
  8
0
 62
     0
 10
-209.5345285834
 20
-514.98645441529993
 30
0.0
 11
-185.5345285834
 21
-514.98645441529993
 31
0.0
  0
LINE
  5
28E
  8
0
 62
     0
 10
-186.5345285834
 20
-536.98675129029994
 30
0.0
 11
-186.5345285834
 21
-516.28521354010002
 31
0.0
  0
LINE
  5
28F
  8
0
 62
     0
 10
-186.5345285834
 20
-536.98675129029994
 30
0.0
 11
-186.5345285834
 21
-535.68799216560001
 31
0.0
  0
LINE
  5
290
  8
0
 62
     0
 10
-186.5345285834
 20
-514.98645441529993
 30
0.0
 11
-186.5345285834
 21
-516.28521354010002
 31
0.0
  0
LINE
  5
291
  8
0
 62
     0
 10
-186.5345285834
 20
-514.98645441529993
 30
0.0
 11
-186.5345285834
 21
-535.68799216560001
 31
0.0
  0
LINE
  5
292
  8
0
 62
     0
 10
-186.5345285834
 20
-514.98645441529993
 30
0.0
 11
-186.5345285834
 21
-509.98645441529999
 31
0.0
  0
SOLID
  5
293
  8
0
 62
     0
 10
-186.5345285834
 20
-514.98645441529993
 30
0.0
 11
-188.4095285834
 21
-507.48645441529987
 31
0.0
 12
-184.6595285834
 22
-507.48645441529987
 32
0.0
 13
-186.5345285834
 23
-509.36145441529987
 33
0.0
  0
LINE
  5
294
  8
0
 62
     0
 10
-186.5345285834
 20
-536.98675129029994
 30
0.0
 11
-186.5345285834
 21
-541.98675129029994
 31
0.0
  0
SOLID
  5
295
  8
0
 62
     0
 10
-186.5345285834
 20
-536.98675129029994
 30
0.0
 11
-184.6595285834
 21
-544.48675129029994
 31
0.0
 12
-188.4095285834
 22
-544.48675129029994
 32
0.0
 13
-186.5345285834
 23
-542.61175129029994
 33
0.0
  0
ENDBLK
  5
296
  8
0
  0
BLOCK
  8
0
  2
*D19
 70
     1
 10
0.0
 20
0.0
 30
0.0
  3
*D19
  1

  0
TEXT
  5
29A
  8
0
 62
     0
 10
-188.98973698029999
 20
-549.33744594669986
 30
0.0
 40
8.2461809158000001
  1
15
 50
90.0
  0
LINE
  5
29B
  8
0
 62
     0
 10
-224.7845285834
 20
-551.98675129029994
 30
0.0
 11
-185.5345285834
 21
-551.98675129029994
 31
0.0
  0
LINE
  5
29C
  8
0
 62
     0
 10
-224.7845285834
 20
-536.98675129029994
 30
0.0
 11
-185.5345285834
 21
-536.98675129029994
 31
0.0
  0
LINE
  5
29D
  8
0
 62
     0
 10
-186.5345285834
 20
-551.98675129029994
 30
0.0
 11
-186.5345285834
 21
-551.98675129029994
 31
0.0
  0
LINE
  5
29E
  8
0
 62
     0
 10
-186.5345285834
 20
-551.98675129029994
 30
0.0
 11
-186.5345285834
 21
-536.98675129029994
 31
0.0
  0
LINE
  5
29F
  8
0
 62
     0
 10
-186.5345285834
 20
-536.98675129029994
 30
0.0
 11
-186.5345285834
 21
-551.98675129029994
 31
0.0
  0
LINE
  5
2A0
  8
0
 62
     0
 10
-186.5345285834
 20
-536.98675129029994
 30
0.0
 11
-186.5345285834
 21
-536.98675129029994
 31
0.0
  0
LINE
  5
2A1
  8
0
 62
     0
 10
-186.5345285834
 20
-536.98675129029994
 30
0.0
 11
-186.5345285834
 21
-541.98675129029994
 31
0.0
  0
SOLID
  5
2A2
  8
0
 62
     0
 10
-186.5345285834
 20
-536.98675129029994
 30
0.0
 11
-184.6595285834
 21
-544.48675129029994
 31
0.0
 12
-188.4095285834
 22
-544.48675129029994
 32
0.0
 13
-186.5345285834
 23
-542.61175129029994
 33
0.0
  0
LINE
  5
2A3
  8
0
 62
     0
 10
-186.5345285834
 20
-551.98675129029994
 30
0.0
 11
-186.5345285834
 21
-546.98675129029994
 31
0.0
  0
SOLID
  5
2A4
  8
0
 62
     0
 10
-186.5345285834
 20
-551.98675129029994
 30
0.0
 11
-188.4095285834
 21
-544.48675129029994
 31
0.0
 12
-184.6595285834
 22
-544.48675129029994
 32
0.0
 13
-186.5345285834
 23
-546.36175129029994
 33
0.0
  0
ENDBLK
  5
2A5
  8
0
  0
BLOCK
  8
0
  2
*D20
 70
     1
 10
0.0
 20
0.0
 30
0.0
  3
*D20
  1

  0
TEXT
  5
2AB
  8
0
 62
     0
 10
-188.98973698029999
 20
-687.83729750919986
 30
0.0
 40
8.2461809158000001
  1
22
 50
90.0
  0
LINE
  5
2AC
  8
0
 62
     0
 10
-209.5345285834
 20
-693.98645441529993
 30
0.0
 11
-185.5345285834
 21
-693.98645441529993
 31
0.0
  0
LINE
  5
2AD
  8
0
 62
     0
 10
-224.7845285834
 20
-671.98675129029994
 30
0.0
 11
-185.5345285834
 21
-671.98675129029994
 31
0.0
  0
LINE
  5
2AE
  8
0
 62
     0
 10
-186.5345285834
 20
-693.98645441529993
 30
0.0
 11
-186.5345285834
 21
-673.28521354010002
 31
0.0
  0
LINE
  5
2AF
  8
0
 62
     0
 10
-186.5345285834
 20
-693.98645441529993
 30
0.0
 11
-186.5345285834
 21
-692.68799216559989
 31
0.0
  0
LINE
  5
2B0
  8
0
 62
     0
 10
-186.5345285834
 20
-671.98675129029994
 30
0.0
 11
-186.5345285834
 21
-673.28521354010002
 31
0.0
  0
LINE
  5
2B1
  8
0
 62
     0
 10
-186.5345285834
 20
-671.98675129029994
 30
0.0
 11
-186.5345285834
 21
-692.68799216559989
 31
0.0
  0
LINE
  5
2B2
  8
0
 62
     0
 10
-186.5345285834
 20
-671.98675129029994
 30
0.0
 11
-186.5345285834
 21
-666.98675129029994
 31
0.0
  0
SOLID
  5
2B3
  8
0
 62
     0
 10
-186.5345285834
 20
-671.98675129029994
 30
0.0
 11
-188.4095285834
 21
-664.48675129029994
 31
0.0
 12
-184.6595285834
 22
-664.48675129029994
 32
0.0
 13
-186.5345285834
 23
-666.36175129029994
 33
0.0
  0
LINE
  5
2B4
  8
0
 62
     0
 10
-186.5345285834
 20
-693.98645441529993
 30
0.0
 11
-186.5345285834
 21
-698.98645441529993
 31
0.0
  0
SOLID
  5
2B5
  8
0
 62
     0
 10
-186.5345285834
 20
-693.98645441529993
 30
0.0
 11
-184.6595285834
 21
-701.48645441529993
 31
0.0
 12
-188.4095285834
 22
-701.48645441529993
 32
0.0
 13
-186.5345285834
 23
-699.61145441529993
 33
0.0
  0
ENDBLK
  5
2B6
  8
0
  0
BLOCK
  8
0
  2
*D21
 70
     1
 10
0.0
 20
0.0
 30
0.0
  3
*D21
  1

  0
TEXT
  5
2BA
  8
0
 62
     0
 10
-366.82090447479999
 20
-714.53124601839988
 30
0.0
 40
8.2461809158000001
  1
80.5
  0
LINE
  5
2BB
  8
0
 62
     0
 10
-398.78407362360002
 20
-700.98645441529993
 30
0.0
 11
-398.78407362360002
 21
-717.98645441529993
 31
0.0
  0
LINE
  5
2BC
  8
0
 62
     0
 10
-318.2845285834
 20
-677.48675129029994
 30
0.0
 11
-318.2845285834
 21
-717.98645441529993
 31
0.0
  0
LINE
  5
2BD
  8
0
 62
     0
 10
-398.78407362360002
 20
-716.98645441529993
 30
0.0
 11
-345.3970030758
 21
-716.98645441529993
 31
0.0
  0
LINE
  5
2BE
  8
0
 62
     0
 10
-398.78407362360002
 20
-716.98645441529993
 30
0.0
 11
-371.67159913120003
 21
-716.98645441529993
 31
0.0
  0
LINE
  5
2BF
  8
0
 62
     0
 10
-318.2845285834
 20
-716.98645441529993
 30
0.0
 11
-345.3970030758
 21
-716.98645441529993
 31
0.0
  0
LINE
  5
2C0
  8
0
 62
     0
 10
-318.2845285834
 20
-716.98645441529993
 30
0.0
 11
-371.67159913120003
 21
-716.98645441529993
 31
0.0
  0
LINE
  5
2C1
  8
0
 62
     0
 10
-318.2845285834
 20
-716.98645441529993
 30
0.0
 11
-323.2845285834
 21
-716.98645441529993
 31
0.0
  0
SOLID
  5
2C2
  8
0
 62
     0
 10
-318.2845285834
 20
-716.98645441529993
 30
0.0
 11
-325.7845285834
 21
-718.86145441529993
 31
0.0
 12
-325.7845285834
 22
-715.11145441529993
 32
0.0
 13
-323.9095285834
 23
-716.98645441529993
 33
0.0
  0
LINE
  5
2C3
  8
0
 62
     0
 10
-398.78407362360002
 20
-716.98645441529993
 30
0.0
 11
-393.78407362360002
 21
-716.98645441529993
 31
0.0
  0
SOLID
  5
2C4
  8
0
 62
     0
 10
-398.78407362360002
 20
-716.98645441529993
 30
0.0
 11
-391.28407362360002
 21
-715.11145441529993
 31
0.0
 12
-391.28407362360002
 22
-718.86145441529993
 32
0.0
 13
-393.15907362360002
 23
-716.98645441529993
 33
0.0
  0
ENDBLK
  5
2C5
  8
0
  0
BLOCK
  8
0
  2
*D22
 70
     1
 10
0.0
 20
0.0
 30
0.0
  3
*D22
  1

  0
TEXT
  5
2C9
  8
0
 62
     0
 10
-286.32113195470009
 20
-714.53124534699987
 30
0.0
 40
8.2461809158000001
  1
80.5
  0
LINE
  5
2CA
  8
0
 62
     0
 10
-318.2845285834
 20
-677.48675129029994
 30
0.0
 11
-318.2845285834
 21
-717.98645374390003
 31
0.0
  0
LINE
  5
2CB
  8
0
 62
     0
 10
-237.7845285834
 20
-677.48675129029994
 30
0.0
 11
-237.7845285834
 21
-717.98645374390003
 31
0.0
  0
LINE
  5
2CC
  8
0
 62
     0
 10
-318.2845285834
 20
-716.98645374390003
 30
0.0
 11
-264.89723055569999
 21
-716.98645374390003
 31
0.0
  0
LINE
  5
2CD
  8
0
 62
     0
 10
-318.2845285834
 20
-716.98645374390003
 30
0.0
 11
-291.17182661110002
 21
-716.98645374390003
 31
0.0
  0
LINE
  5
2CE
  8
0
 62
     0
 10
-237.7845285834
 20
-716.98645374390003
 30
0.0
 11
-264.89723055569999
 21
-716.98645374390003
 31
0.0
  0
LINE
  5
2CF
  8
0
 62
     0
 10
-237.7845285834
 20
-716.98645374390003
 30
0.0
 11
-291.17182661110002
 21
-716.98645374390003
 31
0.0
  0
LINE
  5
2D0
  8
0
 62
     0
 10
-237.7845285834
 20
-716.98645374390003
 30
0.0
 11
-242.7845285834
 21
-716.98645374390003
 31
0.0
  0
SOLID
  5
2D1
  8
0
 62
     0
 10
-237.7845285834
 20
-716.98645374390003
 30
0.0
 11
-245.2845285834
 21
-718.86145374390003
 31
0.0
 12
-245.2845285834
 22
-715.11145374390003
 32
0.0
 13
-243.4095285834
 23
-716.98645374390003
 33
0.0
  0
LINE
  5
2D2
  8
0
 62
     0
 10
-318.2845285834
 20
-716.98645374390003
 30
0.0
 11
-313.2845285834
 21
-716.98645374390003
 31
0.0
  0
SOLID
  5
2D3
  8
0
 62
     0
 10
-318.2845285834
 20
-716.98645374390003
 30
0.0
 11
-310.7845285834
 21
-715.11145374390003
 31
0.0
 12
-310.7845285834
 22
-718.86145374390003
 32
0.0
 13
-312.6595285834
 23
-716.98645374390003
 33
0.0
  0
ENDBLK
  5
2D4
  8
0
  0
BLOCK
  8
0
  2
*D23
 70
     1
 10
0.0
 20
0.0
 30
0.0
  3
*D23
  1

  0
TEXT
  5
2D8
  8
0
 62
     0
 10
-234.3714792829
 20
-714.53124601839988
 30
0.0
 40
8.2461809158000001
  1
28.25
  0
LINE
  5
2D9
  8
0
 62
     0
 10
-237.7845285834
 20
-677.48675129029994
 30
0.0
 11
-237.7845285834
 21
-717.98645441529993
 31
0.0
  0
LINE
  5
2DA
  8
0
 62
     0
 10
-209.5345285834
 20
-693.98645441529993
 30
0.0
 11
-209.5345285834
 21
-717.98645441529993
 31
0.0
  0
LINE
  5
2DB
  8
0
 62
     0
 10
-237.7845285834
 20
-716.98645441529993
 30
0.0
 11
-237.7845285834
 21
-716.98645441529993
 31
0.0
  0
LINE
  5
2DC
  8
0
 62
     0
 10
-237.7845285834
 20
-716.98645441529993
 30
0.0
 11
-209.5345285834
 21
-716.98645441529993
 31
0.0
  0
LINE
  5
2DD
  8
0
 62
     0
 10
-209.5345285834
 20
-716.98645441529993
 30
0.0
 11
-237.7845285834
 21
-716.98645441529993
 31
0.0
  0
LINE
  5
2DE
  8
0
 62
     0
 10
-209.5345285834
 20
-716.98645441529993
 30
0.0
 11
-209.5345285834
 21
-716.98645441529993
 31
0.0
  0
LINE
  5
2DF
  8
0
 62
     0
 10
-209.5345285834
 20
-716.98645441529993
 30
0.0
 11
-214.5345285834
 21
-716.98645441529993
 31
0.0
  0
SOLID
  5
2E0
  8
0
 62
     0
 10
-209.5345285834
 20
-716.98645441529993
 30
0.0
 11
-217.0345285834
 21
-718.86145441529993
 31
0.0
 12
-217.0345285834
 22
-715.11145441529993
 32
0.0
 13
-215.1595285834
 23
-716.98645441529993
 33
0.0
  0
LINE
  5
2E1
  8
0
 62
     0
 10
-237.7845285834
 20
-716.98645441529993
 30
0.0
 11
-232.7845285834
 21
-716.98645441529993
 31
0.0
  0
SOLID
  5
2E2
  8
0
 62
     0
 10
-237.7845285834
 20
-716.98645441529993
 30
0.0
 11
-230.2845285834
 21
-715.11145441529993
 31
0.0
 12
-230.2845285834
 22
-718.86145441529993
 32
0.0
 13
-232.1595285834
 23
-716.98645441529993
 33
0.0
  0
ENDBLK
  5
2E3
  8
0
  0
BLOCK
  8
0
  2
*D24
 70
     1
 10
0.0
 20
0.0
 30
0.0
  3
*D24
  1

  0
TEXT
  5
2E7
  8
0
 62
     0
 10
-188.98973698029999
 20
-654.33744594669986
 30
0.0
 40
8.2461809158000001
  1
15
 50
90.0
  0
LINE
  5
2E8
  8
0
 62
     0
 10
-224.7845285834
 20
-656.98675129029994
 30
0.0
 11
-185.5345285834
 21
-656.98675129029994
 31
0.0
  0
LINE
  5
2E9
  8
0
 62
     0
 10
-224.7845285834
 20
-641.98675129029994
 30
0.0
 11
-185.5345285834
 21
-641.98675129029994
 31
0.0
  0
LINE
  5
2EA
  8
0
 62
     0
 10
-186.5345285834
 20
-656.98675129029994
 30
0.0
 11
-186.5345285834
 21
-656.98675129029994
 31
0.0
  0
LINE
  5
2EB
  8
0
 62
     0
 10
-186.5345285834
 20
-656.98675129029994
 30
0.0
 11
-186.5345285834
 21
-641.98675129029994
 31
0.0
  0
LINE
  5
2EC
  8
0
 62
     0
 10
-186.5345285834
 20
-641.98675129029994
 30
0.0
 11
-186.5345285834
 21
-656.98675129029994
 31
0.0
  0
LINE
  5
2ED
  8
0
 62
     0
 10
-186.5345285834
 20
-641.98675129029994
 30
0.0
 11
-186.5345285834
 21
-641.98675129029994
 31
0.0
  0
LINE
  5
2EE
  8
0
 62
     0
 10
-186.5345285834
 20
-641.98675129029994
 30
0.0
 11
-186.5345285834
 21
-646.98675129029994
 31
0.0
  0
SOLID
  5
2EF
  8
0
 62
     0
 10
-186.5345285834
 20
-641.98675129029994
 30
0.0
 11
-184.6595285834
 21
-649.48675129029994
 31
0.0
 12
-188.4095285834
 22
-649.48675129029994
 32
0.0
 13
-186.5345285834
 23
-647.61175129029994
 33
0.0
  0
LINE
  5
2F0
  8
0
 62
     0
 10
-186.5345285834
 20
-656.98675129029994
 30
0.0
 11
-186.5345285834
 21
-651.98675129029994
 31
0.0
  0
SOLID
  5
2F1
  8
0
 62
     0
 10
-186.5345285834
 20
-656.98675129029994
 30
0.0
 11
-188.4095285834
 21
-649.48675129029994
 31
0.0
 12
-184.6595285834
 22
-649.48675129029994
 32
0.0
 13
-186.5345285834
 23
-651.36175129029994
 33
0.0
  0
ENDBLK
  5
2F2
  8
0
  0
BLOCK
  8
0
  2
*D25
 70
     1
 10
0.0
 20
0.0
 30
0.0
  3
*D25
  1

  0
TEXT
  5
2F6
  8
0
 62
     0
 10
-188.98973698029999
 20
-669.33744594669986
 30
0.0
 40
8.2461809158000001
  1
15
 50
90.0
  0
LINE
  5
2F7
  8
0
 62
     0
 10
-224.7845285834
 20
-671.98675129029994
 30
0.0
 11
-185.5345285834
 21
-671.98675129029994
 31
0.0
  0
LINE
  5
2F8
  8
0
 62
     0
 10
-224.7845285834
 20
-656.98675129029994
 30
0.0
 11
-185.5345285834
 21
-656.98675129029994
 31
0.0
  0
LINE
  5
2F9
  8
0
 62
     0
 10
-186.5345285834
 20
-671.98675129029994
 30
0.0
 11
-186.5345285834
 21
-671.98675129029994
 31
0.0
  0
LINE
  5
2FA
  8
0
 62
     0
 10
-186.5345285834
 20
-671.98675129029994
 30
0.0
 11
-186.5345285834
 21
-656.98675129029994
 31
0.0
  0
LINE
  5
2FB
  8
0
 62
     0
 10
-186.5345285834
 20
-656.98675129029994
 30
0.0
 11
-186.5345285834
 21
-671.98675129029994
 31
0.0
  0
LINE
  5
2FC
  8
0
 62
     0
 10
-186.5345285834
 20
-656.98675129029994
 30
0.0
 11
-186.5345285834
 21
-656.98675129029994
 31
0.0
  0
LINE
  5
2FD
  8
0
 62
     0
 10
-186.5345285834
 20
-656.98675129029994
 30
0.0
 11
-186.5345285834
 21
-661.98675129029994
 31
0.0
  0
SOLID
  5
2FE
  8
0
 62
     0
 10
-186.5345285834
 20
-656.98675129029994
 30
0.0
 11
-184.6595285834
 21
-664.48675129029994
 31
0.0
 12
-188.4095285834
 22
-664.48675129029994
 32
0.0
 13
-186.5345285834
 23
-662.61175129029994
 33
0.0
  0
LINE
  5
2FF
  8
0
 62
     0
 10
-186.5345285834
 20
-671.98675129029994
 30
0.0
 11
-186.5345285834
 21
-666.98675129029994
 31
0.0
  0
SOLID
  5
300
  8
0
 62
     0
 10
-186.5345285834
 20
-671.98675129029994
 30
0.0
 11
-188.4095285834
 21
-664.48675129029994
 31
0.0
 12
-184.6595285834
 22
-664.48675129029994
 32
0.0
 13
-186.5345285834
 23
-666.36175129029994
 33
0.0
  0
ENDBLK
  5
301
  8
0
  0
BLOCK
  8
0
  2
*D26
 70
     1
 10
0.0
 20
0.0
 30
0.0
  3
*D26
  1

  0
TEXT
  5
36A
  8
0
 62
     0
 10
12.853020861499999
 20
-282.35391224210002
 30
0.0
 40
8.2461809158000001
  1
167
 50
90.0
  0
LINE
  5
36B
  8
0
 62
     0
 10
-6.4170724841999993
 20
-358.57787025750002
 30
0.0
 11
16.308229258400001
 21
-358.57787025750002
 31
0.0
  0
LINE
  5
36C
  8
0
 62
     0
 10
-6.4170724841999993
 20
-191.5778702575
 30
0.0
 11
16.308229258400001
 21
-191.5778702575
 31
0.0
  0
LINE
  5
36D
  8
0
 62
     0
 10
15.308229258400001
 20
-358.57787025750002
 30
0.0
 11
15.308229258400001
 21
-262.95113361659998
 31
0.0
  0
LINE
  5
36E
  8
0
 62
     0
 10
15.308229258400001
 20
-358.57787025750002
 30
0.0
 11
15.308229258400001
 21
-287.2046068985
 31
0.0
  0
LINE
  5
36F
  8
0
 62
     0
 10
15.308229258400001
 20
-191.5778702575
 30
0.0
 11
15.308229258400001
 21
-262.95113361659998
 31
0.0
  0
LINE
  5
370
  8
0
 62
     0
 10
15.308229258400001
 20
-191.5778702575
 30
0.0
 11
15.308229258400001
 21
-287.2046068985
 31
0.0
  0
LINE
  5
371
  8
0
 62
     0
 10
15.308229258400001
 20
-191.5778702575
 30
0.0
 11
15.308229258400001
 21
-196.5778702575
 31
0.0
  0
SOLID
  5
372
  8
0
 62
     0
 10
15.308229258400001
 20
-191.5778702575
 30
0.0
 11
17.183229258400001
 21
-199.0778702575
 31
0.0
 12
13.433229258400001
 22
-199.0778702575
 32
0.0
 13
15.308229258400001
 23
-197.2028702575
 33
0.0
  0
LINE
  5
373
  8
0
 62
     0
 10
15.308229258400001
 20
-358.57787025750002
 30
0.0
 11
15.308229258400001
 21
-353.57787025750002
 31
0.0
  0
SOLID
  5
374
  8
0
 62
     0
 10
15.308229258400001
 20
-358.57787025750002
 30
0.0
 11
13.433229258400001
 21
-351.07787025750002
 31
0.0
 12
17.183229258400001
 22
-351.07787025750002
 32
0.0
 13
15.308229258400001
 23
-352.95287025750002
 33
0.0
  0
ENDBLK
  5
375
  8
0
  0
BLOCK
  8
0
  2
*D27
 70
     1
 10
0.0
 20
0.0
 30
0.0
  3
*D27
  1

  0
TEXT
  5
381
  8
0
 62
     0
 10
143.77485695159999
 20
-282.35391224210002
 30
0.0
 40
8.2461809158000001
  1
170
 50
90.0
  0
LINE
  5
382
  8
0
 62
     0
 10
126.8151540783
 20
-360.07739890340002
 30
0.0
 11
147.23006534850001
 21
-360.07739890340002
 31
0.0
  0
LINE
  5
383
  8
0
 62
     0
 10
126.8151540783
 20
-190.07834161170001
 30
0.0
 11
147.23006534850001
 21
-190.07834161170001
 31
0.0
  0
LINE
  5
384
  8
0
 62
     0
 10
146.23006534850001
 20
-360.07739890340002
 30
0.0
 11
146.23006534850001
 21
-262.95113361659998
 31
0.0
  0
LINE
  5
385
  8
0
 62
     0
 10
146.23006534850001
 20
-360.07739890340002
 30
0.0
 11
146.23006534850001
 21
-287.2046068985
 31
0.0
  0
LINE
  5
386
  8
0
 62
     0
 10
146.23006534850001
 20
-190.07834161170001
 30
0.0
 11
146.23006534850001
 21
-262.95113361659998
 31
0.0
  0
LINE
  5
387
  8
0
 62
     0
 10
146.23006534850001
 20
-190.07834161170001
 30
0.0
 11
146.23006534850001
 21
-287.2046068985
 31
0.0
  0
LINE
  5
388
  8
0
 62
     0
 10
146.23006534850001
 20
-190.07834161170001
 30
0.0
 11
146.23006534850001
 21
-195.07834161170001
 31
0.0
  0
SOLID
  5
389
  8
0
 62
     0
 10
146.23006534850001
 20
-190.07834161170001
 30
0.0
 11
148.10506534850001
 21
-197.57834161170001
 31
0.0
 12
144.35506534850001
 22
-197.57834161170001
 32
0.0
 13
146.23006534850001
 23
-195.7033416116999
 33
0.0
  0
LINE
  5
38A
  8
0
 62
     0
 10
146.23006534850001
 20
-360.07739890340002
 30
0.0
 11
146.23006534850001
 21
-355.07739890339991
 31
0.0
  0
SOLID
  5
38B
  8
0
 62
     0
 10
146.23006534850001
 20
-360.07739890340002
 30
0.0
 11
144.35506534850001
 21
-352.57739890340002
 31
0.0
 12
148.10506534850001
 22
-352.57739890340002
 32
0.0
 13
146.23006534850001
 23
-354.45239890340002
 33
0.0
  0
ENDBLK
  5
38C
  8
0
  0
BLOCK
  8
0
  2
*D28
 70
     1
 10
0.0
 20
0.0
 30
0.0
  3
*D28
  1

  0
TEXT
  5
391
  8
0
 62
     0
 10
-584.62147928290005
 20
-714.53124601839988
 30
0.0
 40
8.2461809158000001
  1
28.25
  0
LINE
  5
392
  8
0
 62
     0
 10
-588.03452858339995
 20
-693.98645441529993
 30
0.0
 11
-588.03452858339995
 21
-717.98645441529993
 31
0.0
  0
LINE
  5
393
  8
0
 62
     0
 10
-559.78452858339995
 20
-677.48675129029994
 30
0.0
 11
-559.78452858339995
 21
-717.98645441529993
 31
0.0
  0
LINE
  5
394
  8
0
 62
     0
 10
-588.03452858339995
 20
-716.98645441529993
 30
0.0
 11
-588.03452858339995
 21
-716.98645441529993
 31
0.0
  0
LINE
  5
395
  8
0
 62
     0
 10
-588.03452858339995
 20
-716.98645441529993
 30
0.0
 11
-559.78452858339995
 21
-716.98645441529993
 31
0.0
  0
LINE
  5
396
  8
0
 62
     0
 10
-559.78452858339995
 20
-716.98645441529993
 30
0.0
 11
-588.03452858339995
 21
-716.98645441529993
 31
0.0
  0
LINE
  5
397
  8
0
 62
     0
 10
-559.78452858339995
 20
-716.98645441529993
 30
0.0
 11
-559.78452858339995
 21
-716.98645441529993
 31
0.0
  0
LINE
  5
398
  8
0
 62
     0
 10
-559.78452858339995
 20
-716.98645441529993
 30
0.0
 11
-564.78452858339995
 21
-716.98645441529993
 31
0.0
  0
SOLID
  5
399
  8
0
 62
     0
 10
-559.78452858339995
 20
-716.98645441529993
 30
0.0
 11
-567.28452858339995
 21
-718.86145441529993
 31
0.0
 12
-567.28452858339995
 22
-715.11145441529993
 32
0.0
 13
-565.40952858339995
 23
-716.98645441529993
 33
0.0
  0
LINE
  5
39A
  8
0
 62
     0
 10
-588.03452858339995
 20
-716.98645441529993
 30
0.0
 11
-583.03452858339995
 21
-716.98645441529993
 31
0.0
  0
SOLID
  5
39B
  8
0
 62
     0
 10
-588.03452858339995
 20
-716.98645441529993
 30
0.0
 11
-580.53452858339995
 21
-715.11145441529993
 31
0.0
 12
-580.53452858339995
 22
-718.86145441529993
 32
0.0
 13
-582.40952858339995
 23
-716.98645441529993
 33
0.0
  0
ENDBLK
  5
39C
  8
0
  0
BLOCK
  8
0
  2
*D29
 70
     1
 10
0.0
 20
0.0
 30
0.0
  3
*D29
  1

  0
TEXT
  5
3A0
  8
0
 62
     0
 10
-527.82113195470004
 20
-714.53124534699987
 30
0.0
 40
8.2461809158000001
  1
80.5
  0
LINE
  5
3A1
  8
0
 62
     0
 10
-559.78452858339995
 20
-677.48675129029994
 30
0.0
 11
-559.78452858339995
 21
-717.98645374390003
 31
0.0
  0
LINE
  5
3A2
  8
0
 62
     0
 10
-479.28452858339989
 20
-677.48675129029994
 30
0.0
 11
-479.28452858339989
 21
-717.98645374390003
 31
0.0
  0
LINE
  5
3A3
  8
0
 62
     0
 10
-559.78452858339995
 20
-716.98645374390003
 30
0.0
 11
-506.39723055569988
 21
-716.98645374390003
 31
0.0
  0
LINE
  5
3A4
  8
0
 62
     0
 10
-559.78452858339995
 20
-716.98645374390003
 30
0.0
 11
-532.67182661109985
 21
-716.98645374390003
 31
0.0
  0
LINE
  5
3A5
  8
0
 62
     0
 10
-479.28452858339989
 20
-716.98645374390003
 30
0.0
 11
-506.39723055569988
 21
-716.98645374390003
 31
0.0
  0
LINE
  5
3A6
  8
0
 62
     0
 10
-479.28452858339989
 20
-716.98645374390003
 30
0.0
 11
-532.67182661109985
 21
-716.98645374390003
 31
0.0
  0
LINE
  5
3A7
  8
0
 62
     0
 10
-479.28452858339989
 20
-716.98645374390003
 30
0.0
 11
-484.28452858339989
 21
-716.98645374390003
 31
0.0
  0
SOLID
  5
3A8
  8
0
 62
     0
 10
-479.28452858339989
 20
-716.98645374390003
 30
0.0
 11
-486.7845285834
 21
-718.86145374390003
 31
0.0
 12
-486.7845285834
 22
-715.11145374390003
 32
0.0
 13
-484.90952858339989
 23
-716.98645374390003
 33
0.0
  0
LINE
  5
3A9
  8
0
 62
     0
 10
-559.78452858339995
 20
-716.98645374390003
 30
0.0
 11
-554.78452858339995
 21
-716.98645374390003
 31
0.0
  0
SOLID
  5
3AA
  8
0
 62
     0
 10
-559.78452858339995
 20
-716.98645374390003
 30
0.0
 11
-552.28452858339995
 21
-715.11145374390003
 31
0.0
 12
-552.28452858339995
 22
-718.86145374390003
 32
0.0
 13
-554.15952858339995
 23
-716.98645374390003
 33
0.0
  0
ENDBLK
  5
3AB
  8
0
  0
BLOCK
  8
0
  2
*D30
 70
     1
 10
0.0
 20
0.0
 30
0.0
  3
*D30
  1

  0
TEXT
  5
3AF
  8
0
 62
     0
 10
-456.43967670809991
 20
-644.41209861849995
 30
0.0
 40
8.2461809158000001
  1
7
 50
90.0
  0
LINE
  5
3B0
  8
0
 62
     0
 10
-469.78452858339989
 20
-645.48675129029994
 30
0.0
 11
-452.98446831119998
 21
-645.48675129029994
 31
0.0
  0
LINE
  5
3B1
  8
0
 62
     0
 10
-469.78452858339989
 20
-638.48675129029994
 30
0.0
 11
-452.98446831119998
 21
-638.48675129029994
 31
0.0
  0
LINE
  5
3B2
  8
0
 62
     0
 10
-453.98446831119998
 20
-645.48675129029994
 30
0.0
 11
-453.98446831119998
 21
-645.48675129029994
 31
0.0
  0
LINE
  5
3B3
  8
0
 62
     0
 10
-453.98446831119998
 20
-645.48675129029994
 30
0.0
 11
-453.98446831119998
 21
-638.48675129029994
 31
0.0
  0
LINE
  5
3B4
  8
0
 62
     0
 10
-453.98446831119998
 20
-638.48675129029994
 30
0.0
 11
-453.98446831119998
 21
-645.48675129029994
 31
0.0
  0
LINE
  5
3B5
  8
0
 62
     0
 10
-453.98446831119998
 20
-638.48675129029994
 30
0.0
 11
-453.98446831119998
 21
-638.48675129029994
 31
0.0
  0
LINE
  5
3B6
  8
0
 62
     0
 10
-453.98446831119998
 20
-638.48675129029994
 30
0.0
 11
-453.98446831119998
 21
-633.48675129029994
 31
0.0
  0
SOLID
  5
3B7
  8
0
 62
     0
 10
-453.98446831119998
 20
-638.48675129029994
 30
0.0
 11
-455.85946831119998
 21
-630.98675129029994
 31
0.0
 12
-452.10946831119998
 22
-630.98675129029994
 32
0.0
 13
-453.98446831119998
 23
-632.86175129029994
 33
0.0
  0
LINE
  5
3B8
  8
0
 62
     0
 10
-453.98446831119998
 20
-645.48675129029994
 30
0.0
 11
-453.98446831119998
 21
-650.48675129029994
 31
0.0
  0
SOLID
  5
3B9
  8
0
 62
     0
 10
-453.98446831119998
 20
-645.48675129029994
 30
0.0
 11
-452.10946831119998
 21
-652.98675129029994
 31
0.0
 12
-455.85946831119998
 22
-652.98675129029994
 32
0.0
 13
-453.98446831119998
 23
-651.11175129029994
 33
0.0
  0
ENDBLK
  5
3BA
  8
0
  0
BLOCK
  8
0
  2
*D31
 70
     1
 10
0.0
 20
0.0
 30
0.0
  3
*D31
  1

  0
TEXT
  5
3C5
  8
0
 62
     0
 10
92.464459422000004
 20
-137.97728284249999
 30
0.0
 40
8.2461809158000001
  1
55
  0
LINE
  5
3C6
  8
0
 62
     0
 10
124.8151540783
 20
-174.87834161169999
 30
0.0
 11
124.8151540783
 21
-139.43249123940001
 31
0.0
  0
LINE
  5
3C7
  8
0
 62
     0
 10
69.815154078299983
 20
-174.87834161169999
 30
0.0
 11
69.815154078299983
 21
-139.43249123940001
 31
0.0
  0
LINE
  5
3C8
  8
0
 62
     0
 10
124.8151540783
 20
-140.43249123940001
 30
0.0
 11
107.0165433911
 21
-140.43249123940001
 31
0.0
  0
LINE
  5
3C9
  8
0
 62
     0
 10
124.8151540783
 20
-140.43249123940001
 30
0.0
 11
87.613764765599996
 21
-140.43249123940001
 31
0.0
  0
LINE
  5
3CA
  8
0
 62
     0
 10
69.815154078299983
 20
-140.43249123940001
 30
0.0
 11
107.0165433911
 21
-140.43249123940001
 31
0.0
  0
LINE
  5
3CB
  8
0
 62
     0
 10
69.815154078299983
 20
-140.43249123940001
 30
0.0
 11
87.613764765599996
 21
-140.43249123940001
 31
0.0
  0
LINE
  5
3CC
  8
0
 62
     0
 10
69.815154078299983
 20
-140.43249123940001
 30
0.0
 11
74.815154078299983
 21
-140.43249123940001
 31
0.0
  0
SOLID
  5
3CD
  8
0
 62
     0
 10
69.815154078299983
 20
-140.43249123940001
 30
0.0
 11
77.315154078299983
 21
-138.55749123940001
 31
0.0
 12
77.315154078299983
 22
-142.30749123940001
 32
0.0
 13
75.440154078299983
 23
-140.43249123940001
 33
0.0
  0
LINE
  5
3CE
  8
0
 62
     0
 10
124.8151540783
 20
-140.43249123940001
 30
0.0
 11
119.8151540783
 21
-140.43249123940001
 31
0.0
  0
SOLID
  5
3CF
  8
0
 62
     0
 10
124.8151540783
 20
-140.43249123940001
 30
0.0
 11
117.3151540783
 21
-142.30749123940001
 31
0.0
 12
117.3151540783
 22
-138.55749123940001
 32
0.0
 13
119.1901540783
 23
-140.43249123940001
 33
0.0
  0
ENDBLK
  5
3D0
  8
0
  0
BLOCK
  8
0
  2
*D32
 70
     1
 10
0.0
 20
0.0
 30
0.0
  3
*D32
  1

  0
TEXT
  5
3D4
  8
0
 62
     0
 10
104.964459422
 20
-151.51369908699999
 30
0.0
 40
8.2461809158000001
  1
30
  0
LINE
  5
3D5
  8
0
 62
     0
 10
124.8151540783
 20
-174.07834161170001
 30
0.0
 11
124.8151540783
 21
-152.96890748390001
 31
0.0
  0
LINE
  5
3D6
  8
0
 62
     0
 10
94.815154078299997
 20
-183.0783416116999
 30
0.0
 11
94.815154078299997
 21
-152.96890748390001
 31
0.0
  0
LINE
  5
3D7
  8
0
 62
     0
 10
124.8151540783
 20
-153.96890748390001
 30
0.0
 11
119.5165433911
 21
-153.96890748390001
 31
0.0
  0
LINE
  5
3D8
  8
0
 62
     0
 10
124.8151540783
 20
-153.96890748390001
 30
0.0
 11
100.1137647656
 21
-153.96890748390001
 31
0.0
  0
LINE
  5
3D9
  8
0
 62
     0
 10
94.815154078299997
 20
-153.96890748390001
 30
0.0
 11
119.5165433911
 21
-153.96890748390001
 31
0.0
  0
LINE
  5
3DA
  8
0
 62
     0
 10
94.815154078299997
 20
-153.96890748390001
 30
0.0
 11
100.1137647656
 21
-153.96890748390001
 31
0.0
  0
LINE
  5
3DB
  8
0
 62
     0
 10
94.815154078299997
 20
-153.96890748390001
 30
0.0
 11
89.815154078299997
 21
-153.96890748390001
 31
0.0
  0
SOLID
  5
3DC
  8
0
 62
     0
 10
94.815154078299997
 20
-153.96890748390001
 30
0.0
 11
87.315154078299997
 21
-155.8439074838999
 31
0.0
 12
87.315154078299997
 22
-152.09390748390001
 32
0.0
 13
89.190154078299997
 23
-153.96890748390001
 33
0.0
  0
LINE
  5
3DD
  8
0
 62
     0
 10
124.8151540783
 20
-153.96890748390001
 30
0.0
 11
129.8151540783
 21
-153.96890748390001
 31
0.0
  0
SOLID
  5
3DE
  8
0
 62
     0
 10
124.8151540783
 20
-153.96890748390001
 30
0.0
 11
132.3151540783
 21
-152.09390748390001
 31
0.0
 12
132.3151540783
 22
-155.8439074838999
 32
0.0
 13
130.4401540783
 23
-153.96890748390001
 33
0.0
  0
ENDBLK
  5
3DF
  8
0
  0
BLOCK
  8
0
  2
CLUMP2
 70
     0
 10
0.0
 20
0.0
 30
0.0
  3
CLUMP2
  1

  0
LINE
  5
3E5
  8
ﾚｲﾔ_1
 62
     5
 10
76.5151540783
 20
-184.2783416117
 30
0.0
 11
76.5151540783
 21
-183.47834161169999
 31
0.0
  0
LINE
  5
3E6
  8
ﾚｲﾔ_1
 62
     5
 10
70.615154078299994
 20
-176.87834161169999
 30
0.0
 11
70.615154078299994
 21
-184.2783416117
 31
0.0
  0
LINE
  5
3E7
  8
ﾚｲﾔ_1
 62
     5
 10
75.815154078299997
 20
-176.87834161169999
 30
0.0
 11
70.615154078299994
 21
-176.87834161169999
 31
0.0
  0
LINE
  5
3E8
  8
ﾚｲﾔ_1
 62
     5
 10
75.815154078299997
 20
-176.87834161169999
 30
0.0
 11
75.815154078299997
 21
-176.07834161170001
 31
0.0
  0
LINE
  5
3E9
  8
ﾚｲﾔ_1
 62
     5
 10
75.815154078299997
 20
-176.07834161170001
 30
0.0
 11
70.615154078299994
 21
-176.07834161170001
 31
0.0
  0
ARC
  5
3EA
  8
ﾚｲﾔ_1
 62
     5
 10
70.615154078299994
 20
-176.87834161169999
 30
0.0
 40
0.8
 50
90.0
 51
180.0
  0
LINE
  5
3EB
  8
ﾚｲﾔ_1
 62
     5
 10
69.815154078299983
 20
-176.87834161169999
 30
0.0
 11
69.815154078299983
 21
-184.2783416117
 31
0.0
  0
ARC
  5
3EC
  8
ﾚｲﾔ_1
 62
     5
 10
70.615154078299994
 20
-184.2783416117
 30
0.0
 40
0.8
 50
180.0
 51
270.0
  0
LINE
  5
3ED
  8
ﾚｲﾔ_1
 62
     5
 10
118.8151540783
 20
-176.07834161170001
 30
0.0
 11
118.8151540783
 21
-176.87834161169999
 31
0.0
  0
LINE
  5
3EE
  8
ﾚｲﾔ_1
 62
     5
 10
124.0151540783
 20
-176.87834161169999
 30
0.0
 11
118.8151540783
 21
-176.87834161169999
 31
0.0
  0
LINE
  5
3EF
  8
ﾚｲﾔ_1
 62
     5
 10
124.0151540783
 20
-189.2783416117
 30
0.0
 11
124.0151540783
 21
-176.87834161169999
 31
0.0
  0
LINE
  5
3F0
  8
ﾚｲﾔ_1
 62
     5
 10
95.615154078299994
 20
-189.2783416117
 30
0.0
 11
124.0151540783
 21
-189.2783416117
 31
0.0
  0
LINE
  5
3F1
  8
ﾚｲﾔ_1
 62
     5
 10
70.615154078299994
 20
-185.07834161170001
 30
0.0
 11
94.815154078299997
 21
-185.07834161170001
 31
0.0
  0
LINE
  5
3F2
  8
ﾚｲﾔ_1
 62
     5
 10
70.615154078299994
 20
-184.2783416117
 30
0.0
 11
94.815154078299997
 21
-184.2783416117
 31
0.0
  0
LINE
  5
3F3
  8
ﾚｲﾔ_1
 62
     5
 10
95.615154078299994
 20
-185.07834161170001
 30
0.0
 11
95.615154078299994
 21
-189.2783416117
 31
0.0
  0
ARC
  5
3F4
  8
ﾚｲﾔ_1
 62
     5
 10
94.815154078299997
 20
-185.07834161170001
 30
0.0
 40
0.8
 50
0.0
 51
90.0
  0
LINE
  5
3F5
  8
ﾚｲﾔ_1
 62
     5
 10
94.815154078299997
 20
-185.07834161170001
 30
0.0
 11
94.815154078299997
 21
-189.2783416117
 31
0.0
  0
ARC
  5
3F6
  8
ﾚｲﾔ_1
 62
     5
 10
95.615154078299994
 20
-189.2783416117
 30
0.0
 40
0.8
 50
180.0
 51
270.0
  0
LINE
  5
3F7
  8
ﾚｲﾔ_1
 62
     5
 10
95.615154078299994
 20
-190.07834161170001
 30
0.0
 11
124.0151540783
 21
-190.07834161170001
 31
0.0
  0
ARC
  5
3F8
  8
ﾚｲﾔ_1
 62
     5
 10
124.0151540783
 20
-189.2783416117
 30
0.0
 40
0.8
 50
270.0
 51
0.0
  0
LINE
  5
3F9
  8
ﾚｲﾔ_1
 62
     5
 10
124.0151540783
 20
-176.07834161170001
 30
0.0
 11
118.8151540783
 21
-176.07834161170001
 31
0.0
  0
LINE
  5
3FA
  8
ﾚｲﾔ_1
 62
     5
 10
124.8151540783
 20
-189.2783416117
 30
0.0
 11
124.8151540783
 21
-176.87834161169999
 31
0.0
  0
ARC
  5
3FB
  8
ﾚｲﾔ_1
 62
     5
 10
124.0151540783
 20
-176.87834161169999
 30
0.0
 40
0.8
 50
0.0
 51
90.0
  0
LINE
  5
3FC
  8
ﾚｲﾔ_1
 62
     5
 10
76.5151540783
 20
-183.47834161169999
 30
0.0
 11
124.0151540783
 21
-183.47834161169999
 31
0.0
  0
LINE
  5
3FD
  8
ﾚｲﾔ_1
 62
     5
 10
94.815154078299997
 20
-184.2783416117
 30
0.0
 11
124.0151540783
 21
-184.2783416117
 31
0.0
  0
ENDBLK
  5
3FE
  8
0
  0
BLOCK
  8
0
  2
CLUMP3
 70
     0
 10
0.0
 20
0.0
 30
0.0
  3
CLUMP3
  1

  0
LINE
  5
402
  8
ﾚｲﾔ_1
 62
     5
 10
76.5151540783
 20
-365.87739890339998
 30
0.0
 11
76.5151540783
 21
-366.67739890339999
 31
0.0
  0
LINE
  5
403
  8
ﾚｲﾔ_1
 62
     5
 10
70.615154078299994
 20
-373.2773989033999
 30
0.0
 11
70.615154078299994
 21
-365.87739890339998
 31
0.0
  0
LINE
  5
404
  8
ﾚｲﾔ_1
 62
     5
 10
75.815154078299997
 20
-373.2773989033999
 30
0.0
 11
70.615154078299994
 21
-373.2773989033999
 31
0.0
  0
LINE
  5
405
  8
ﾚｲﾔ_1
 62
     5
 10
75.815154078299997
 20
-373.2773989033999
 30
0.0
 11
75.815154078299997
 21
-374.07739890340002
 31
0.0
  0
LINE
  5
406
  8
ﾚｲﾔ_1
 62
     5
 10
75.815154078299997
 20
-374.07739890340002
 30
0.0
 11
70.615154078299994
 21
-374.07739890340002
 31
0.0
  0
ARC
  5
407
  8
ﾚｲﾔ_1
 62
     5
 10
70.615154078299994
 20
-373.2773989033999
 30
0.0
 40
0.8
 50
180.0
 51
270.0
  0
LINE
  5
408
  8
ﾚｲﾔ_1
 62
     5
 10
69.815154078299983
 20
-373.2773989033999
 30
0.0
 11
69.815154078299983
 21
-365.87739890339998
 31
0.0
  0
ARC
  5
409
  8
ﾚｲﾔ_1
 62
     5
 10
70.615154078299994
 20
-365.87739890339998
 30
0.0
 40
0.8
 50
90.0
 51
180.0
  0
LINE
  5
40A
  8
ﾚｲﾔ_1
 62
     5
 10
118.8151540783
 20
-374.07739890340002
 30
0.0
 11
118.8151540783
 21
-373.2773989033999
 31
0.0
  0
LINE
  5
40B
  8
ﾚｲﾔ_1
 62
     5
 10
124.0151540783
 20
-373.2773989033999
 30
0.0
 11
118.8151540783
 21
-373.2773989033999
 31
0.0
  0
LINE
  5
40C
  8
ﾚｲﾔ_1
 62
     5
 10
124.0151540783
 20
-360.87739890339998
 30
0.0
 11
124.0151540783
 21
-373.2773989033999
 31
0.0
  0
LINE
  5
40D
  8
ﾚｲﾔ_1
 62
     5
 10
95.615154078299994
 20
-360.87739890339998
 30
0.0
 11
124.0151540783
 21
-360.87739890339998
 31
0.0
  0
LINE
  5
40E
  8
ﾚｲﾔ_1
 62
     5
 10
70.615154078299994
 20
-365.07739890340002
 30
0.0
 11
94.815154078299997
 21
-365.07739890340002
 31
0.0
  0
LINE
  5
40F
  8
ﾚｲﾔ_1
 62
     5
 10
70.615154078299994
 20
-365.87739890339998
 30
0.0
 11
94.815154078299997
 21
-365.87739890339998
 31
0.0
  0
LINE
  5
410
  8
ﾚｲﾔ_1
 62
     5
 10
95.615154078299994
 20
-365.07739890340002
 30
0.0
 11
95.615154078299994
 21
-360.87739890339998
 31
0.0
  0
ARC
  5
411
  8
ﾚｲﾔ_1
 62
     5
 10
94.815154078299997
 20
-365.07739890340002
 30
0.0
 40
0.8
 50
270.0
 51
0.0
  0
LINE
  5
412
  8
ﾚｲﾔ_1
 62
     5
 10
94.815154078299997
 20
-365.07739890340002
 30
0.0
 11
94.815154078299997
 21
-360.87739890339998
 31
0.0
  0
ARC
  5
413
  8
ﾚｲﾔ_1
 62
     5
 10
95.615154078299994
 20
-360.87739890339998
 30
0.0
 40
0.8
 50
90.0
 51
180.0
  0
LINE
  5
414
  8
ﾚｲﾔ_1
 62
     5
 10
95.615154078299994
 20
-360.07739890340002
 30
0.0
 11
124.0151540783
 21
-360.07739890340002
 31
0.0
  0
ARC
  5
415
  8
ﾚｲﾔ_1
 62
     5
 10
124.0151540783
 20
-360.87739890339998
 30
0.0
 40
0.8
 50
0.0
 51
90.0
  0
LINE
  5
416
  8
ﾚｲﾔ_1
 62
     5
 10
124.0151540783
 20
-374.07739890340002
 30
0.0
 11
118.8151540783
 21
-374.07739890340002
 31
0.0
  0
LINE
  5
417
  8
ﾚｲﾔ_1
 62
     5
 10
124.8151540783
 20
-360.87739890339998
 30
0.0
 11
124.8151540783
 21
-373.2773989033999
 31
0.0
  0
ARC
  5
418
  8
ﾚｲﾔ_1
 62
     5
 10
124.0151540783
 20
-373.2773989033999
 30
0.0
 40
0.8
 50
270.0
 51
0.0
  0
LINE
  5
419
  8
ﾚｲﾔ_1
 62
     5
 10
76.5151540783
 20
-366.67739890339999
 30
0.0
 11
124.0151540783
 21
-366.67739890339999
 31
0.0
  0
LINE
  5
41A
  8
ﾚｲﾔ_1
 62
     5
 10
94.815154078299997
 20
-365.87739890339998
 30
0.0
 11
124.0151540783
 21
-365.87739890339998
 31
0.0
  0
ENDBLK
  5
41B
  8
0
  0
BLOCK
  8
0
  2
*D35
 70
     1
 10
0.0
 20
0.0
 30
0.0
  3
*D35
  1

  0
TEXT
  5
420
  8
0
 62
     0
 10
-622.0798312904999
 20
-632.03490925409994
 30
0.0
 40
8.2461809158000001
  1
2-Φ15
 50
26.776143397399998
  0
LINE
  5
421
  8
0
 62
     0
 10
-566.51362704250005
 20
-607.79873467300001
 30
0.0
 11
-620.5501448668
 21
-635.06630932389987
 31
0.0
  0
SOLID
  5
422
  8
0
 62
     0
 10
-566.51362704250005
 20
-607.79873467300001
 30
0.0
 11
-572.36472964199993
 21
-612.85147881559999
 31
0.0
 12
-574.05412657969987
 22
-609.5035782814
 32
0.0
 13
-571.53547784379987
 23
-610.33283007959994
 33
0.0
  0
ENDBLK
  5
423
  8
0
  0
BLOCK
  8
0
  2
*D36
 70
     1
 10
0.0
 20
0.0
 30
0.0
  3
*D36
  1

  0
TEXT
  5
429
  8
0
 62
     0
 10
-484.13522323979998
 20
-626.79163372129995
 30
0.0
 40
8.2461809158000001
  1
22
  0
LINE
  5
42A
  8
0
 62
     0
 10
-468.28452858339989
 20
-639.98675129029994
 30
0.0
 11
-468.28452858339989
 21
-628.24684211830004
 31
0.0
  0
LINE
  5
42B
  8
0
 62
     0
 10
-490.28452858339989
 20
-639.98675129029994
 30
0.0
 11
-490.28452858339989
 21
-628.24684211830004
 31
0.0
  0
LINE
  5
42C
  8
0
 62
     0
 10
-468.28452858339989
 20
-629.24684211830004
 30
0.0
 11
-469.58313927059999
 21
-629.24684211830004
 31
0.0
  0
LINE
  5
42D
  8
0
 62
     0
 10
-468.28452858339989
 20
-629.24684211830004
 30
0.0
 11
-488.98591789609998
 21
-629.24684211830004
 31
0.0
  0
LINE
  5
42E
  8
0
 62
     0
 10
-490.28452858339989
 20
-629.24684211830004
 30
0.0
 11
-469.58313927059999
 21
-629.24684211830004
 31
0.0
  0
LINE
  5
42F
  8
0
 62
     0
 10
-490.28452858339989
 20
-629.24684211830004
 30
0.0
 11
-488.98591789609998
 21
-629.24684211830004
 31
0.0
  0
LINE
  5
430
  8
0
 62
     0
 10
-490.28452858339989
 20
-629.24684211830004
 30
0.0
 11
-495.28452858339989
 21
-629.24684211830004
 31
0.0
  0
SOLID
  5
431
  8
0
 62
     0
 10
-490.28452858339989
 20
-629.24684211830004
 30
0.0
 11
-497.78452858339989
 21
-631.12184211830004
 31
0.0
 12
-497.78452858339989
 22
-627.37184211830004
 32
0.0
 13
-495.90952858339989
 23
-629.24684211830004
 33
0.0
  0
LINE
  5
432
  8
0
 62
     0
 10
-468.28452858339989
 20
-629.24684211830004
 30
0.0
 11
-463.28452858339989
 21
-629.24684211830004
 31
0.0
  0
SOLID
  5
433
  8
0
 62
     0
 10
-468.28452858339989
 20
-629.24684211830004
 30
0.0
 11
-460.78452858339989
 21
-627.37184211830004
 31
0.0
 12
-460.78452858339989
 22
-631.12184211830004
 32
0.0
 13
-462.65952858339989
 23
-629.24684211830004
 33
0.0
  0
ENDBLK
  5
434
  8
0
  0
BLOCK
  8
0
  2
*D37
 70
     1
 10
0.0
 20
0.0
 30
0.0
  3
*D37
  1

  0
TEXT
  5
439
  8
0
 62
     0
 10
-171.4021973074
 20
-611.76249639989987
 30
0.0
 40
8.2461809158000001
  1
179
 50
90.0
  0
LINE
  5
43A
  8
0
 62
     0
 10
-209.5345285834
 20
-693.98645441529993
 30
0.0
 11
-167.94698891050001
 21
-693.98645441529993
 31
0.0
  0
LINE
  5
43B
  8
0
 62
     0
 10
-209.5345285834
 20
-514.98645441529993
 30
0.0
 11
-167.94698891050001
 21
-514.98645441529993
 31
0.0
  0
LINE
  5
43C
  8
0
 62
     0
 10
-168.94698891050001
 20
-693.98645441529993
 30
0.0
 11
-168.94698891050001
 21
-592.35971777439988
 31
0.0
  0
LINE
  5
43D
  8
0
 62
     0
 10
-168.94698891050001
 20
-693.98645441529993
 30
0.0
 11
-168.94698891050001
 21
-616.61319105619998
 31
0.0
  0
LINE
  5
43E
  8
0
 62
     0
 10
-168.94698891050001
 20
-514.98645441529993
 30
0.0
 11
-168.94698891050001
 21
-592.35971777439988
 31
0.0
  0
LINE
  5
43F
  8
0
 62
     0
 10
-168.94698891050001
 20
-514.98645441529993
 30
0.0
 11
-168.94698891050001
 21
-616.61319105619998
 31
0.0
  0
LINE
  5
440
  8
0
 62
     0
 10
-168.94698891050001
 20
-514.98645441529993
 30
0.0
 11
-168.94698891050001
 21
-519.98645441529993
 31
0.0
  0
SOLID
  5
441
  8
0
 62
     0
 10
-168.94698891050001
 20
-514.98645441529993
 30
0.0
 11
-167.07198891050001
 21
-522.48645441529993
 31
0.0
 12
-170.82198891050001
 22
-522.48645441529993
 32
0.0
 13
-168.94698891050001
 23
-520.61145441529993
 33
0.0
  0
LINE
  5
442
  8
0
 62
     0
 10
-168.94698891050001
 20
-693.98645441529993
 30
0.0
 11
-168.94698891050001
 21
-688.98645441529993
 31
0.0
  0
SOLID
  5
443
  8
0
 62
     0
 10
-168.94698891050001
 20
-693.98645441529993
 30
0.0
 11
-170.82198891050001
 21
-686.48645441529993
 31
0.0
 12
-167.07198891050001
 22
-686.48645441529993
 32
0.0
 13
-168.94698891050001
 23
-688.36145441529993
 33
0.0
  0
ENDBLK
  5
444
  8
0
  0
BLOCK
  8
0
  2
*D38
 70
     1
 10
0.0
 20
0.0
 30
0.0
  3
*D38
  1

  0
TEXT
  5
448
  8
0
 62
     0
 10
-188.98973698029999
 20
-631.83744594669986
 30
0.0
 40
8.2461809158000001
  1
30
 50
90.0
  0
LINE
  5
449
  8
0
 62
     0
 10
-224.7845285834
 20
-641.98675129029994
 30
0.0
 11
-185.5345285834
 21
-641.98675129029994
 31
0.0
  0
LINE
  5
44A
  8
0
 62
     0
 10
-265.0345285834
 20
-611.98675129029994
 30
0.0
 11
-185.5345285834
 21
-611.98675129029994
 31
0.0
  0
LINE
  5
44B
  8
0
 62
     0
 10
-186.5345285834
 20
-641.98675129029994
 30
0.0
 11
-186.5345285834
 21
-617.28536197760002
 31
0.0
  0
LINE
  5
44C
  8
0
 62
     0
 10
-186.5345285834
 20
-641.98675129029994
 30
0.0
 11
-186.5345285834
 21
-636.68814060310001
 31
0.0
  0
LINE
  5
44D
  8
0
 62
     0
 10
-186.5345285834
 20
-611.98675129029994
 30
0.0
 11
-186.5345285834
 21
-617.28536197760002
 31
0.0
  0
LINE
  5
44E
  8
0
 62
     0
 10
-186.5345285834
 20
-611.98675129029994
 30
0.0
 11
-186.5345285834
 21
-636.68814060310001
 31
0.0
  0
LINE
  5
44F
  8
0
 62
     0
 10
-186.5345285834
 20
-611.98675129029994
 30
0.0
 11
-186.5345285834
 21
-606.98675129029994
 31
0.0
  0
SOLID
  5
450
  8
0
 62
     0
 10
-186.5345285834
 20
-611.98675129029994
 30
0.0
 11
-188.4095285834
 21
-604.48675129029994
 31
0.0
 12
-184.6595285834
 22
-604.48675129029994
 32
0.0
 13
-186.5345285834
 23
-606.36175129029994
 33
0.0
  0
LINE
  5
451
  8
0
 62
     0
 10
-186.5345285834
 20
-641.98675129029994
 30
0.0
 11
-186.5345285834
 21
-646.98675129029994
 31
0.0
  0
SOLID
  5
452
  8
0
 62
     0
 10
-186.5345285834
 20
-641.98675129029994
 30
0.0
 11
-184.6595285834
 21
-649.48675129029994
 31
0.0
 12
-188.4095285834
 22
-649.48675129029994
 32
0.0
 13
-186.5345285834
 23
-647.61175129029994
 33
0.0
  0
ENDBLK
  5
453
  8
0
  0
BLOCK
  8
0
  2
BALLON2
 70
     0
 10
0.0
 20
0.0
 30
0.0
  3
BALLON2
  1

  0
INSERT
  5
464
  8
0
  6
CONTINUOUS
  2
*U83
 10
0.0
 20
0.0
 30
0.0
  0
CIRCLE
  5
465
  8
ﾚｲﾔ_1
 10
-440.83955189389991
 20
-394.283373606
 30
0.0
 40
8.0
  0
LINE
  5
466
  8
寸法線
 10
-427.50621856060002
 20
-394.283373606
 30
0.0
 11
-432.83955189389991
 21
-394.283373606
 31
0.0
  0
LINE
  5
467
  8
寸法線
 10
-395.6779488528
 20
-333.72336818080009
 30
0.0
 11
-427.50621856060002
 21
-394.283373606
 31
0.0
  0
SOLID
  5
468
  8
寸法線
 10
-395.6779488528
 20
-333.72336818080009
 30
0.0
 11
-397.98345417659999
 21
-341.549263989
 31
0.0
 12
-398.65539845699999
 22
-339.38859490649997
 32
0.0
 13
-398.65539845699999
 23
-339.38859490649997
 33
0.0
  0
SOLID
  5
469
  8
寸法線
 10
-398.65539845699999
 20
-339.38859490649997
 30
0.0
 11
-400.8160675394999
 21
-340.06053918689997
 31
0.0
 12
-395.6779488528
 22
-333.72336818080009
 32
0.0
 13
-395.6779488528
 23
-333.72336818080009
 33
0.0
  0
ENDBLK
  5
46A
  8
0
  0
BLOCK
  8
0
  2
*D40
 70
     1
 10
0.0
 20
0.0
 30
0.0
  3
*D40
  1

  0
TEXT
  5
46D
  8
0
 62
     0
 10
-360.52112738940002
 20
-133.1848337966
 30
0.0
 40
8.2461809158000001
  1
398
  0
LINE
  5
46E
  8
0
 62
     0
 10
-154.24508540479999
 20
-174.0778702575
 30
0.0
 11
-154.24508540479999
 21
-134.64004219360001
 31
0.0
  0
LINE
  5
46F
  8
0
 62
     0
 10
-552.24508540480008
 20
-174.0778702575
 30
0.0
 11
-552.24508540480008
 21
-134.64004219360001
 31
0.0
  0
LINE
  5
470
  8
0
 62
     0
 10
-154.24508540479999
 20
-135.64004219360001
 30
0.0
 11
-341.11834876389997
 21
-135.64004219360001
 31
0.0
  0
LINE
  5
471
  8
0
 62
     0
 10
-154.24508540479999
 20
-135.64004219360001
 30
0.0
 11
-365.3718220458
 21
-135.64004219360001
 31
0.0
  0
LINE
  5
472
  8
0
 62
     0
 10
-552.24508540480008
 20
-135.64004219360001
 30
0.0
 11
-341.11834876389997
 21
-135.64004219360001
 31
0.0
  0
LINE
  5
473
  8
0
 62
     0
 10
-552.24508540480008
 20
-135.64004219360001
 30
0.0
 11
-365.3718220458
 21
-135.64004219360001
 31
0.0
  0
LINE
  5
474
  8
0
 62
     0
 10
-552.24508540480008
 20
-135.64004219360001
 30
0.0
 11
-547.24508540479997
 21
-135.64004219360001
 31
0.0
  0
SOLID
  5
475
  8
0
 62
     0
 10
-552.24508540480008
 20
-135.64004219360001
 30
0.0
 11
-544.74508540480008
 21
-133.76504219360001
 31
0.0
 12
-544.74508540480008
 22
-137.51504219360001
 32
0.0
 13
-546.62008540479997
 23
-135.64004219360001
 33
0.0
  0
LINE
  5
476
  8
0
 62
     0
 10
-154.24508540479999
 20
-135.64004219360001
 30
0.0
 11
-159.24508540479999
 21
-135.64004219360001
 31
0.0
  0
SOLID
  5
477
  8
0
 62
     0
 10
-154.24508540479999
 20
-135.64004219360001
 30
0.0
 11
-161.74508540479999
 21
-137.51504219360001
 31
0.0
 12
-161.74508540479999
 22
-133.76504219360001
 32
0.0
 13
-159.87008540479999
 23
-135.64004219360001
 33
0.0
  0
ENDBLK
  5
478
  8
0
  0
BLOCK
  8
0
  2
*D41
 70
     1
 10
0.0
 20
0.0
 30
0.0
  3
*D41
  1

  0
TEXT
  5
47C
  8
0
 62
     0
 10
-360.52112738940002
 20
-148.0387003738
 30
0.0
 40
8.2461809158000001
  1
380
  0
LINE
  5
47D
  8
0
 62
     0
 10
-163.24508540479999
 20
-183.0778702575
 30
0.0
 11
-163.24508540479999
 21
-149.49390877069999
 31
0.0
  0
LINE
  5
47E
  8
0
 62
     0
 10
-543.24508540479997
 20
-183.0778702575
 30
0.0
 11
-543.24508540479997
 21
-149.49390877069999
 31
0.0
  0
LINE
  5
47F
  8
0
 62
     0
 10
-163.24508540479999
 20
-150.49390877069999
 30
0.0
 11
-341.11834876389997
 21
-150.49390877069999
 31
0.0
  0
LINE
  5
480
  8
0
 62
     0
 10
-163.24508540479999
 20
-150.49390877069999
 30
0.0
 11
-365.3718220458
 21
-150.49390877069999
 31
0.0
  0
LINE
  5
481
  8
0
 62
     0
 10
-543.24508540479997
 20
-150.49390877069999
 30
0.0
 11
-341.11834876389997
 21
-150.49390877069999
 31
0.0
  0
LINE
  5
482
  8
0
 62
     0
 10
-543.24508540479997
 20
-150.49390877069999
 30
0.0
 11
-365.3718220458
 21
-150.49390877069999
 31
0.0
  0
LINE
  5
483
  8
0
 62
     0
 10
-543.24508540479997
 20
-150.49390877069999
 30
0.0
 11
-538.24508540479997
 21
-150.49390877069999
 31
0.0
  0
SOLID
  5
484
  8
0
 62
     0
 10
-543.24508540479997
 20
-150.49390877069999
 30
0.0
 11
-535.74508540480008
 21
-148.61890877069999
 31
0.0
 12
-535.74508540480008
 22
-152.36890877069999
 32
0.0
 13
-537.62008540480008
 23
-150.49390877069999
 33
0.0
  0
LINE
  5
485
  8
0
 62
     0
 10
-163.24508540479999
 20
-150.49390877069999
 30
0.0
 11
-168.24508540479999
 21
-150.49390877069999
 31
0.0
  0
SOLID
  5
486
  8
0
 62
     0
 10
-163.24508540479999
 20
-150.49390877069999
 30
0.0
 11
-170.74508540479999
 21
-152.36890877069999
 31
0.0
 12
-170.74508540479999
 22
-148.61890877069999
 32
0.0
 13
-168.87008540479999
 23
-150.49390877069999
 33
0.0
  0
ENDBLK
  5
487
  8
0
  0
BLOCK
  8
0
  2
CLUMP4
 70
     0
 10
0.0
 20
0.0
 30
0.0
  3
CLUMP4
  1

  0
LINE
  5
499
  8
図枠
 10
136.5053318937
 20
-667.9985433231999
 30
0.0
 11
136.5053318937
 21
-655.4985433231999
 31
0.0
  0
LINE
  5
49A
  8
図枠
 10
-10.994668106300001
 20
-667.9985433231999
 30
0.0
 11
-10.994668106300001
 21
-655.4985433231999
 31
0.0
  0
LINE
  5
49B
  8
図枠
 10
11.505331893699999
 20
-667.9985433231999
 30
0.0
 11
11.505331893699999
 21
-655.4985433231999
 31
0.0
  0
LINE
  5
49C
  8
図枠
 10
274.00533189369997
 20
-667.9985433231999
 30
0.0
 11
274.00533189369997
 21
-655.4985433231999
 31
0.0
  0
LINE
  5
49D
  8
図枠
 10
251.5053318937
 20
-667.9985433231999
 30
0.0
 11
251.5053318937
 21
-655.4985433231999
 31
0.0
  0
LINE
  5
49E
  8
図枠
 10
351.50533189369997
 20
-655.4985433231999
 30
0.0
 11
-10.994668106300001
 21
-655.4985433231999
 31
0.0
  0
ENDBLK
  5
49F
  8
0
  0
BLOCK
  8
0
  2
CLUMP5
 70
     0
 10
0.0
 20
0.0
 30
0.0
  3
CLUMP5
  1

  0
LINE
  5
4A3
  8
図枠
 10
136.5053318937
 20
-680.4985433231999
 30
0.0
 11
136.5053318937
 21
-667.9985433231999
 31
0.0
  0
LINE
  5
4A4
  8
図枠
 10
-10.994668106300001
 20
-680.4985433231999
 30
0.0
 11
-10.994668106300001
 21
-667.9985433231999
 31
0.0
  0
LINE
  5
4A5
  8
図枠
 10
11.505331893699999
 20
-680.4985433231999
 30
0.0
 11
11.505331893699999
 21
-667.9985433231999
 31
0.0
  0
LINE
  5
4A6
  8
図枠
 10
274.00533189369997
 20
-680.4985433231999
 30
0.0
 11
274.00533189369997
 21
-667.9985433231999
 31
0.0
  0
LINE
  5
4A7
  8
図枠
 10
251.5053318937
 20
-680.4985433231999
 30
0.0
 11
251.5053318937
 21
-667.9985433231999
 31
0.0
  0
LINE
  5
4A8
  8
図枠
 10
351.50533189369997
 20
-667.9985433231999
 30
0.0
 11
-10.994668106300001
 21
-667.9985433231999
 31
0.0
  0
ENDBLK
  5
4A9
  8
0
  0
BLOCK
  8
0
  2
CLUMP6
 70
     0
 10
0.0
 20
0.0
 30
0.0
  3
CLUMP6
  1

  0
LINE
  5
4AD
  8
図枠
 10
136.5053318937
 20
-655.4985433231999
 30
0.0
 11
136.5053318937
 21
-642.9985433231999
 31
0.0
  0
LINE
  5
4AE
  8
図枠
 10
-10.994668106300001
 20
-655.4985433231999
 30
0.0
 11
-10.994668106300001
 21
-642.9985433231999
 31
0.0
  0
LINE
  5
4AF
  8
図枠
 10
11.505331893699999
 20
-655.4985433231999
 30
0.0
 11
11.505331893699999
 21
-642.9985433231999
 31
0.0
  0
LINE
  5
4B0
  8
図枠
 10
274.00533189369997
 20
-655.4985433231999
 30
0.0
 11
274.00533189369997
 21
-642.9985433231999
 31
0.0
  0
LINE
  5
4B1
  8
図枠
 10
251.5053318937
 20
-655.4985433231999
 30
0.0
 11
251.5053318937
 21
-642.9985433231999
 31
0.0
  0
LINE
  5
4B2
  8
図枠
 10
351.50533189369997
 20
-642.9985433231999
 30
0.0
 11
-10.994668106300001
 21
-642.9985433231999
 31
0.0
  0
ENDBLK
  5
4B3
  8
0
  0
BLOCK
  8
0
  2
*D45
 70
     1
 10
0.0
 20
0.0
 30
0.0
  3
*D45
  1

  0
TEXT
  5
4B9
  8
0
 62
     0
 10
-447.32090447479999
 20
-714.53124601839988
 30
0.0
 40
8.2461809158000001
  1
80.5
  0
LINE
  5
4BA
  8
0
 62
     0
 10
-479.28452858339989
 20
-677.48675129029994
 30
0.0
 11
-479.28452858339989
 21
-717.98645441529993
 31
0.0
  0
LINE
  5
4BB
  8
0
 62
     0
 10
-398.78407362360002
 20
-700.98645441529993
 30
0.0
 11
-398.78407362360002
 21
-717.98645441529993
 31
0.0
  0
LINE
  5
4BC
  8
0
 62
     0
 10
-479.28452858339989
 20
-716.98645441529993
 30
0.0
 11
-425.8970030758
 21
-716.98645441529993
 31
0.0
  0
LINE
  5
4BD
  8
0
 62
     0
 10
-479.28452858339989
 20
-716.98645441529993
 30
0.0
 11
-452.17159913119991
 21
-716.98645441529993
 31
0.0
  0
LINE
  5
4BE
  8
0
 62
     0
 10
-398.78407362360002
 20
-716.98645441529993
 30
0.0
 11
-425.8970030758
 21
-716.98645441529993
 31
0.0
  0
LINE
  5
4BF
  8
0
 62
     0
 10
-398.78407362360002
 20
-716.98645441529993
 30
0.0
 11
-452.17159913119991
 21
-716.98645441529993
 31
0.0
  0
LINE
  5
4C0
  8
0
 62
     0
 10
-398.78407362360002
 20
-716.98645441529993
 30
0.0
 11
-403.78407362360002
 21
-716.98645441529993
 31
0.0
  0
SOLID
  5
4C1
  8
0
 62
     0
 10
-398.78407362360002
 20
-716.98645441529993
 30
0.0
 11
-406.28407362360002
 21
-718.86145441529993
 31
0.0
 12
-406.28407362360002
 22
-715.11145441529993
 32
0.0
 13
-404.40907362359991
 23
-716.98645441529993
 33
0.0
  0
LINE
  5
4C2
  8
0
 62
     0
 10
-479.28452858339989
 20
-716.98645441529993
 30
0.0
 11
-474.2845285834
 21
-716.98645441529993
 31
0.0
  0
SOLID
  5
4C3
  8
0
 62
     0
 10
-479.28452858339989
 20
-716.98645441529993
 30
0.0
 11
-471.78452858339989
 21
-715.11145441529993
 31
0.0
 12
-471.78452858339989
 22
-718.86145441529993
 32
0.0
 13
-473.65952858339989
 23
-716.98645441529993
 33
0.0
  0
ENDBLK
  5
4C4
  8
0
  0
BLOCK
  8
0
  2
*D46
 70
     1
 10
0.0
 20
0.0
 30
0.0
  3
*D46
  1

  0
TEXT
  5
4C8
  8
0
 62
     0
 10
-409.49647928289988
 20
-484.74155600069992
 30
0.0
 40
8.2461809158000001
  1
378.5
  0
LINE
  5
4C9
  8
0
 62
     0
 10
-209.5345285834
 20
-514.98645441529993
 30
0.0
 11
-209.5345285834
 21
-486.19676439760002
 31
0.0
  0
LINE
  5
4CA
  8
0
 62
     0
 10
-588.03452858339995
 20
-514.98645441529993
 30
0.0
 11
-588.03452858339995
 21
-486.19676439760002
 31
0.0
  0
LINE
  5
4CB
  8
0
 62
     0
 10
-209.5345285834
 20
-487.19676439760002
 30
0.0
 11
-383.22188322749997
 21
-487.19676439760002
 31
0.0
  0
LINE
  5
4CC
  8
0
 62
     0
 10
-209.5345285834
 20
-487.19676439760002
 30
0.0
 11
-414.34717393919988
 21
-487.19676439760002
 31
0.0
  0
LINE
  5
4CD
  8
0
 62
     0
 10
-588.03452858339995
 20
-487.19676439760002
 30
0.0
 11
-383.22188322749997
 21
-487.19676439760002
 31
0.0
  0
LINE
  5
4CE
  8
0
 62
     0
 10
-588.03452858339995
 20
-487.19676439760002
 30
0.0
 11
-414.34717393919988
 21
-487.19676439760002
 31
0.0
  0
LINE
  5
4CF
  8
0
 62
     0
 10
-588.03452858339995
 20
-487.19676439760002
 30
0.0
 11
-583.03452858339995
 21
-487.19676439760002
 31
0.0
  0
SOLID
  5
4D0
  8
0
 62
     0
 10
-588.03452858339995
 20
-487.19676439760002
 30
0.0
 11
-580.53452858339995
 21
-485.32176439760002
 31
0.0
 12
-580.53452858339995
 22
-489.07176439760002
 32
0.0
 13
-582.40952858339995
 23
-487.19676439760002
 33
0.0
  0
LINE
  5
4D1
  8
0
 62
     0
 10
-209.5345285834
 20
-487.19676439760002
 30
0.0
 11
-214.5345285834
 21
-487.19676439760002
 31
0.0
  0
SOLID
  5
4D2
  8
0
 62
     0
 10
-209.5345285834
 20
-487.19676439760002
 30
0.0
 11
-217.0345285834
 21
-489.07176439760002
 31
0.0
 12
-217.0345285834
 22
-485.32176439760002
 32
0.0
 13
-215.1595285834
 23
-487.19676439760002
 33
0.0
  0
ENDBLK
  5
4D3
  8
0
  0
BLOCK
  8
0
  2
*D47
 70
     1
 10
0.0
 20
0.0
 30
0.0
  3
*D47
  1

  0
TEXT
  5
4EE
  8
0
 62
     0
 10
-161.17043273300001
 20
-148.0387022811
 30
0.0
 40
8.2461809158000001
  1
9
  0
LINE
  5
4EF
  8
0
 62
     0
 10
-154.24508540479999
 20
-174.0778702575
 30
0.0
 11
-154.24508540479999
 21
-149.49391067810001
 31
0.0
  0
LINE
  5
4F0
  8
0
 62
     0
 10
-163.24508540479999
 20
-183.0778702575
 30
0.0
 11
-163.24508540479999
 21
-149.49391067810001
 31
0.0
  0
LINE
  5
4F1
  8
0
 62
     0
 10
-154.24508540479999
 20
-150.49391067810001
 30
0.0
 11
-154.24508540479999
 21
-150.49391067810001
 31
0.0
  0
LINE
  5
4F2
  8
0
 62
     0
 10
-154.24508540479999
 20
-150.49391067810001
 30
0.0
 11
-163.24508540479999
 21
-150.49391067810001
 31
0.0
  0
LINE
  5
4F3
  8
0
 62
     0
 10
-163.24508540479999
 20
-150.49391067810001
 30
0.0
 11
-154.24508540479999
 21
-150.49391067810001
 31
0.0
  0
LINE
  5
4F4
  8
0
 62
     0
 10
-163.24508540479999
 20
-150.49391067810001
 30
0.0
 11
-163.24508540479999
 21
-150.49391067810001
 31
0.0
  0
LINE
  5
4F5
  8
0
 62
     0
 10
-163.24508540479999
 20
-150.49391067810001
 30
0.0
 11
-168.24508540479999
 21
-150.49391067810001
 31
0.0
  0
SOLID
  5
4F6
  8
0
 62
     0
 10
-163.24508540479999
 20
-150.49391067810001
 30
0.0
 11
-170.74508540479999
 21
-152.36891067810001
 31
0.0
 12
-170.74508540479999
 22
-148.61891067810001
 32
0.0
 13
-168.87008540479999
 23
-150.49391067810001
 33
0.0
  0
LINE
  5
4F7
  8
0
 62
     0
 10
-154.24508540479999
 20
-150.49391067810001
 30
0.0
 11
-149.24508540479999
 21
-150.49391067810001
 31
0.0
  0
SOLID
  5
4F8
  8
0
 62
     0
 10
-154.24508540479999
 20
-150.49391067810001
 30
0.0
 11
-146.74508540479999
 21
-148.61891067810001
 31
0.0
 12
-146.74508540479999
 22
-152.36891067810001
 32
0.0
 13
-148.62008540479999
 23
-150.49391067810001
 33
0.0
  0
ENDBLK
  5
4F9
  8
0
  0
BLOCK
  8
0
  2
*D48
 70
     1
 10
0.0
 20
0.0
 30
0.0
  3
*D48
  1

  0
TEXT
  5
4FD
  8
0
 62
     0
 10
-113.85949637740001
 20
-183.00321758570001
 30
0.0
 40
8.2461809158000001
  1
9
 50
90.0
  0
LINE
  5
4FE
  8
0
 62
     0
 10
-152.24508540479999
 20
-176.0778702575
 30
0.0
 11
-110.4042879805
 21
-176.0778702575
 31
0.0
  0
LINE
  5
4FF
  8
0
 62
     0
 10
-161.24508540479999
 20
-185.0778702575
 30
0.0
 11
-110.4042879805
 21
-185.0778702575
 31
0.0
  0
LINE
  5
500
  8
0
 62
     0
 10
-111.4042879805
 20
-176.0778702575
 30
0.0
 11
-111.4042879805
 21
-176.0778702575
 31
0.0
  0
LINE
  5
501
  8
0
 62
     0
 10
-111.4042879805
 20
-176.0778702575
 30
0.0
 11
-111.4042879805
 21
-185.0778702575
 31
0.0
  0
LINE
  5
502
  8
0
 62
     0
 10
-111.4042879805
 20
-185.0778702575
 30
0.0
 11
-111.4042879805
 21
-176.0778702575
 31
0.0
  0
LINE
  5
503
  8
0
 62
     0
 10
-111.4042879805
 20
-185.0778702575
 30
0.0
 11
-111.4042879805
 21
-185.0778702575
 31
0.0
  0
LINE
  5
504
  8
0
 62
     0
 10
-111.4042879805
 20
-185.0778702575
 30
0.0
 11
-111.4042879805
 21
-190.0778702575
 31
0.0
  0
SOLID
  5
505
  8
0
 62
     0
 10
-111.4042879805
 20
-185.0778702575
 30
0.0
 11
-109.5292879805
 21
-192.5778702575
 31
0.0
 12
-113.2792879805
 22
-192.5778702575
 32
0.0
 13
-111.4042879805
 23
-190.7028702575
 33
0.0
  0
LINE
  5
506
  8
0
 62
     0
 10
-111.4042879805
 20
-176.0778702575
 30
0.0
 11
-111.4042879805
 21
-171.0778702575
 31
0.0
  0
SOLID
  5
507
  8
0
 62
     0
 10
-111.4042879805
 20
-176.0778702575
 30
0.0
 11
-113.2792879805
 21
-168.5778702575
 31
0.0
 12
-109.5292879805
 22
-168.5778702575
 32
0.0
 13
-111.4042879805
 23
-170.4528702575
 33
0.0
  0
ENDBLK
  5
508
  8
0
  0
BLOCK
  8
0
  2
CLUMP7
 70
     0
 10
0.0
 20
0.0
 30
0.0
  3
CLUMP7
  1

  0
LINE
  5
50D
  8
図枠
 10
134.8084632659
 20
-769.05686090600011
 30
0.0
 11
137.3084632659
 21
-765.306860906
 31
0.0
  0
LINE
  5
50E
  8
図枠
 10
98.156948114400009
 20
-765.306860906
 30
0.0
 11
98.156948114400009
 21
-770.30686090600011
 31
0.0
  0
LINE
  5
50F
  8
図枠
 10
157.47452222460001
 20
-774.05686090600011
 30
0.0
 11
165.3521698866
 21
-774.05686090600011
 31
0.0
  0
LINE
  5
510
  8
図枠
 10
114.8084632659
 20
-782.80686090600011
 30
0.0
 11
121.0584632659
 21
-782.80686090600011
 31
0.0
  0
LINE
  5
511
  8
図枠
 10
114.8084632659
 20
-771.1121365747
 30
0.0
 11
124.8084632659
 21
-771.1121365747
 31
0.0
  0
INSERT
  5
512
  8
0
  6
CONTINUOUS
  2
*U87
 10
0.0
 20
0.0
 30
0.0
  0
LINE
  5
513
  8
図枠
 62
     5
 10
176.5053318937
 20
-125.4985433232
 30
0.0
 11
176.5053318937
 21
-87.998543323199996
 31
0.0
  0
LINE
  5
514
  8
図枠
 62
     5
 10
301.50533189369997
 20
-125.4985433232
 30
0.0
 11
301.50533189369997
 21
-87.998543323199996
 31
0.0
  0
LINE
  5
515
  8
図枠
 62
     5
 10
136.5053318937
 20
-125.4985433232
 30
0.0
 11
136.5053318937
 21
-87.998543323199996
 31
0.0
  0
LINE
  5
516
  8
図枠
 62
     5
 10
119.6071184286
 20
-111.9215639457
 30
0.0
 11
131.98211842859999
 21
-111.9215639457
 31
0.0
  0
LINE
  5
517
  8
図枠
 62
     5
 10
125.7946184286
 20
-113.57949957389999
 30
0.0
 11
131.98211842859999
 21
-124.2965639457
 31
0.0
  0
LINE
  5
518
  8
図枠
 62
     5
 10
116.5053318937
 20
-125.4985433232
 30
0.0
 11
116.5053318937
 21
-87.998543323199996
 31
0.0
  0
LINE
  5
519
  8
図枠
 62
     5
 10
326.50533189369997
 20
-125.4985433232
 30
0.0
 11
326.50533189369997
 21
-87.998543323199996
 31
0.0
  0
LINE
  5
51A
  8
図枠
 62
     5
 10
116.5053318937
 20
-100.4985433232
 30
0.0
 11
351.50533189369997
 21
-100.4985433232
 31
0.0
  0
LINE
  5
51B
  8
図枠
 62
     5
 10
116.5053318937
 20
-112.9985433232
 30
0.0
 11
351.50533189369997
 21
-112.9985433232
 31
0.0
  0
LINE
  5
51C
  8
図枠
 62
     5
 10
116.5053318937
 20
-125.4985433232
 30
0.0
 11
351.50533189369997
 21
-125.4985433232
 31
0.0
  0
INSERT
  5
51D
  8
0
  6
CONTINUOUS
  2
*U88
 10
0.0
 20
0.0
 30
0.0
  0
LINE
  5
51E
  8
図枠
 62
     5
 10
-648.49466810629986
 20
-787.99854332320012
 30
0.0
 11
-648.49466810629986
 21
-87.998543323199996
 31
0.0
  0
LINE
  5
51F
  8
図枠
 62
     5
 10
-648.49466810629986
 20
-787.99854332320012
 30
0.0
 11
351.50533189369997
 21
-787.99854332320012
 31
0.0
  0
LINE
  5
520
  8
図枠
 62
     5
 10
351.50533189369997
 20
-87.998543323199996
 30
0.0
 11
-648.49466810629986
 21
-87.998543323199996
 31
0.0
  0
LINE
  5
521
  8
図枠
 62
     5
 10
351.50533189369997
 20
-787.99854332320012
 30
0.0
 11
351.50533189369997
 21
-87.998543323199996
 31
0.0
  0
LINE
  5
522
  8
図枠
 10
114.8084632659
 20
-771.91741224340001
 30
0.0
 11
114.8084632659
 21
-771.1121365747
 31
0.0
  0
LINE
  5
523
  8
図枠
 10
84.029188585499995
 20
-770.30686090600011
 30
0.0
 11
84.029188585499995
 21
-774.05686090600011
 31
0.0
  0
LINE
  5
524
  8
図枠
 62
     5
 10
125.7946184286
 20
-101.20449957389999
 30
0.0
 11
131.98211842859999
 21
-111.9215639457
 31
0.0
  0
LINE
  5
525
  8
図枠
 62
     5
 10
125.7946184286
 20
-113.57949957389999
 30
0.0
 11
119.6071184286
 21
-124.2965639457
 31
0.0
  0
INSERT
  5
526
  8
0
  6
CONTINUOUS
  2
*U89
 10
0.0
 20
0.0
 30
0.0
  0
LINE
  5
527
  8
図枠
  6
DOT
 10
-660.9446681062999
 20
-798.57354332320006
 30
0.0
 11
-660.9446681062999
 21
-77.423543323199993
 31
0.0
  0
LINE
  5
528
  8
図枠
  6
DOT
 10
363.95533189370002
 20
-798.57354332320006
 30
0.0
 11
363.95533189370002
 21
-77.423543323199993
 31
0.0
  0
LINE
  5
529
  8
図枠
  6
DOT
 10
-660.9446681062999
 20
-798.57354332320006
 30
0.0
 11
363.95533189370002
 21
-798.57354332320006
 31
0.0
  0
LINE
  5
52A
  8
図枠
 10
93.156948114400009
 20
-777.806860906
 30
0.0
 11
93.156948114400009
 21
-774.05686090600011
 31
0.0
  0
LINE
  5
52B
  8
図枠
  6
DOT
 10
363.95533189370002
 20
-77.423543323199993
 30
0.0
 11
-660.9446681062999
 21
-77.423543323199993
 31
0.0
  0
LINE
  5
52C
  8
図枠
 10
86.906948114400009
 20
-774.05686090600011
 30
0.0
 11
86.906948114400009
 21
-777.806860906
 31
0.0
  0
LINE
  5
52D
  8
図枠
 10
104.4069481144
 20
-769.05686090600011
 30
0.0
 11
108.1569481144
 21
-765.306860906
 31
0.0
  0
LINE
  5
52E
  8
図枠
 10
151.00550321989999
 20
-776.05686090600011
 30
0.0
 11
150.4188365533
 21
-774.05686090600011
 31
0.0
  0
LINE
  5
52F
  8
図枠
 10
93.156948114400009
 20
-770.30686090600011
 30
0.0
 11
93.156948114400009
 21
-769.05686090600011
 31
0.0
  0
LINE
  5
530
  8
図枠
 10
131.9652616461
 20
-777.42968892839986
 30
0.0
 11
131.52000649659999
 21
-777.86563428889986
 31
0.0
  0
LINE
  5
531
  8
図枠
 10
134.8084632659
 20
-769.05686090600011
 30
0.0
 11
137.3084632659
 21
-765.306860906
 31
0.0
  0
LINE
  5
532
  8
図枠
 10
165.3521698866
 20
-776.05686090600011
 30
0.0
 11
165.3521698866
 21
-780.55686090600011
 31
0.0
  0
LINE
  5
533
  8
図枠
 10
137.3084632659
 20
-779.05686090600011
 30
0.0
 11
137.3084632659
 21
-782.80686090600011
 31
0.0
  0
LINE
  5
534
  8
図枠
 10
156.17958077669999
 20
-769.55686090600011
 30
0.0
 11
165.3521698866
 21
-769.55686090600011
 31
0.0
  0
LINE
  5
535
  8
図枠
 10
156.17958077669999
 20
-769.55686090600011
 30
0.0
 11
155.8135951511
 21
-768.28503867979998
 31
0.0
  0
LINE
  5
536
  8
図枠
 10
137.3084632659
 20
-765.306860906
 30
0.0
 11
114.8084632659
 21
-765.306860906
 31
0.0
  0
INSERT
  5
537
  8
0
  6
CONTINUOUS
  2
*U90
 10
0.0
 20
0.0
 30
0.0
  0
LINE
  5
538
  8
図枠
 10
153.3521698866
 20
-784.056860906
 30
0.0
 11
152.32550321990001
 21
-780.55686090600011
 31
0.0
  0
LINE
  5
539
  8
図枠
 10
94.406948114400009
 20
-779.05686090600011
 30
0.0
 11
86.906948114400009
 21
-779.05686090600011
 31
0.0
  0
LINE
  5
53A
  8
図枠
 10
114.8084632659
 20
-769.80686090600011
 30
0.0
 11
127.3084632659
 21
-769.80686090600011
 31
0.0
  0
LINE
  5
53B
  8
図枠
 10
148.7201256729
 20
-716.24854332320012
 30
0.0
 11
160.7201256729
 21
-713.24854332320012
 31
0.0
  0
CIRCLE
  5
53C
  8
図枠
 10
135.0053318937
 20
-719.24854332320001
 30
0.0
 40
6.0
  0
INSERT
  5
53D
  8
0
  6
CONTINUOUS
  2
*U91
 10
0.0
 20
0.0
 30
0.0
  0
LINE
  5
53E
  8
図枠
 10
93.156948114400009
 20
-774.05686090600011
 30
0.0
 11
98.156948114400009
 21
-774.05686090600011
 31
0.0
  0
LINE
  5
53F
  8
図枠
 10
142.8521698866
 20
-774.05686090600011
 30
0.0
 11
150.4188365533
 21
-774.05686090600011
 31
0.0
  0
LINE
  5
540
  8
図枠
 10
108.1569481144
 20
-770.30686090600011
 30
0.0
 11
104.4069481144
 21
-770.30686090600011
 31
0.0
  0
LINE
  5
541
  8
図枠
 10
104.4069481144
 20
-770.30686090600011
 30
0.0
 11
104.4069481144
 21
-769.05686090600011
 31
0.0
  0
LINE
  5
542
  8
図枠
 10
142.8521698866
 20
-769.55686090600011
 30
0.0
 11
149.0988365533
 21
-769.55686090600011
 31
0.0
  0
LINE
  5
543
  8
図枠
 10
155.8135951511
 20
-768.28503867979998
 30
0.0
 11
157.8521698866
 21
-765.306860906
 31
0.0
  0
LINE
  5
544
  8
図枠
 10
114.8084632659
 20
-782.80686090600011
 30
0.0
 11
114.8084632659
 21
-779.05686090600011
 31
0.0
  0
LINE
  5
545
  8
図枠
 10
176.5053318937
 20
-705.49854332320012
 30
0.0
 11
176.5053318937
 21
-787.99854332320012
 31
0.0
  0
INSERT
  5
546
  8
0
  6
CONTINUOUS
  2
*U92
 10
0.0
 20
0.0
 30
0.0
  0
INSERT
  5
547
  8
0
  6
CONTINUOUS
  2
*U93
 10
0.0
 20
0.0
 30
0.0
  0
INSERT
  5
548
  8
0
  6
CONTINUOUS
  2
*U94
 10
0.0
 20
0.0
 30
0.0
  0
LINE
  5
549
  8
図枠
 62
     5
 10
119.6071184286
 20
-124.2965639457
 30
0.0
 11
131.98211842859999
 21
-124.2965639457
 31
0.0
  0
LINE
  5
54A
  8
図枠
 10
84.029188585499995
 20
-774.05686090600011
 30
0.0
 11
86.529188585499995
 21
-774.05686090600011
 31
0.0
  0
ARC
  5
54B
  8
図枠
 10
121.0584632659
 20
-769.05686090600011
 30
0.0
 40
13.75
 50
322.48761197969998
 51
0.0
  0
LINE
  5
54C
  8
図枠
 10
86.906948114400009
 20
-782.80686090600011
 30
0.0
 11
96.906948114400009
 21
-782.80686090600011
 31
0.0
  0
LINE
  5
54D
  8
図枠
 10
142.8521698866
 20
-780.55686090600011
 30
0.0
 11
152.32550321990001
 21
-780.55686090600011
 31
0.0
  0
ARC
  5
54E
  8
図枠
 10
94.406948114400009
 20
-775.30686090600011
 30
0.0
 40
3.75
 50
270.0
 51
0.0
  0
LINE
  5
54F
  8
図枠
 10
142.8521698866
 20
-776.05686090600011
 30
0.0
 11
142.8521698866
 21
-780.55686090600011
 31
0.0
  0
LINE
  5
550
  8
図枠
 10
86.906948114400009
 20
-777.806860906
 30
0.0
 11
93.156948114400009
 21
-777.806860906
 31
0.0
  0
LINE
  5
551
  8
図枠
 10
126.14924449510001
 20
-774.10453816879999
 30
0.0
 11
125.5477549793
 21
-774.76888407019987
 31
0.0
  0
LINE
  5
552
  8
図枠
 10
160.3521698866
 20
-784.056860906
 30
0.0
 11
153.3521698866
 21
-784.056860906
 31
0.0
  0
LINE
  5
553
  8
図枠
 10
98.156948114400009
 20
-774.05686090600011
 30
0.0
 11
98.156948114400009
 21
-775.30686090600011
 31
0.0
  0
LINE
  5
554
  8
図枠
 10
351.50533189369997
 20
-705.49854332320012
 30
0.0
 11
-10.994668106300001
 21
-705.49854332320012
 31
0.0
  0
LINE
  5
555
  8
図枠
 10
160.7201256729
 20
-713.24854332320012
 30
0.0
 11
160.7201256729
 21
-725.24854332320012
 31
0.0
  0
LINE
  5
556
  8
図枠
 62
     5
 10
125.7946184286
 20
-101.20449957389999
 30
0.0
 11
119.6071184286
 21
-111.9215639457
 31
0.0
  0
LINE
  5
557
  8
図枠
 10
108.1569481144
 20
-765.306860906
 30
0.0
 11
98.156948114400009
 21
-765.306860906
 31
0.0
  0
LINE
  5
558
  8
図枠
 10
104.4069481144
 20
-775.30686090600011
 30
0.0
 11
104.4069481144
 21
-774.05686090600011
 31
0.0
  0
LINE
  5
559
  8
図枠
 10
142.8521698866
 20
-769.55686090600011
 30
0.0
 11
142.8521698866
 21
-774.05686090600011
 31
0.0
  0
LINE
  5
55A
  8
図枠
 10
98.156948114400009
 20
-770.30686090600011
 30
0.0
 11
93.156948114400009
 21
-770.30686090600011
 31
0.0
  0
LINE
  5
55B
  8
図枠
 10
96.906948114400009
 20
-765.306860906
 30
0.0
 11
86.906948114400009
 21
-765.306860906
 31
0.0
  0
LINE
  5
55C
  8
図枠
 10
93.156948114400009
 20
-769.05686090600011
 30
0.0
 11
96.906948114400009
 21
-765.306860906
 31
0.0
  0
LINE
  5
55D
  8
図枠
 10
86.906948114400009
 20
-765.306860906
 30
0.0
 11
86.906948114400009
 21
-770.30686090600011
 31
0.0
  0
LINE
  5
55E
  8
図枠
 10
159.34499320489999
 20
-780.55686090600011
 30
0.0
 11
165.3521698866
 21
-780.55686090600011
 31
0.0
  0
LINE
  5
55F
  8
図枠
 10
149.0988365533
 20
-769.55686090600011
 30
0.0
 11
147.8521698866
 21
-765.306860906
 31
0.0
  0
LINE
  5
560
  8
図枠
 10
142.8521698866
 20
-776.05686090600011
 30
0.0
 11
151.00550321989999
 21
-776.05686090600011
 31
0.0
  0
LINE
  5
561
  8
図枠
 10
158.05005175700001
 20
-776.05686090600011
 30
0.0
 11
157.47452222460001
 21
-774.05686090600011
 31
0.0
  0
ARC
  5
562
  8
図枠
 10
117.8084632659
 20
-769.55686090600011
 30
0.0
 40
9.5
 50
270.0
 51
298.08590481520002
  0
INSERT
  5
563
  8
0
  6
CONTINUOUS
  2
*U95
 10
0.0
 20
0.0
 30
0.0
  0
LINE
  5
564
  8
図枠
 10
-4.7446681062999989
 20
-719.24854332320001
 30
0.0
 11
45.255331893699989
 21
-719.24854332320001
 31
0.0
  0
LINE
  5
565
  8
図枠
 10
51.505331893699989
 20
-705.49854332320012
 30
0.0
 11
51.505331893699989
 21
-732.99854332320012
 31
0.0
  0
LINE
  5
566
  8
図枠
 10
-10.994668106300001
 20
-732.99854332320012
 30
0.0
 11
351.50533189369997
 21
-732.99854332320012
 31
0.0
  0
LINE
  5
567
  8
図枠
 10
114.0053318937
 20
-705.49854332320012
 30
0.0
 11
114.0053318937
 21
-732.99854332320012
 31
0.0
  0
LINE
  5
568
  8
図枠
  6
BORDER
 10
135.0053318937
 20
-710.24854332320012
 30
0.0
 11
135.0053318937
 21
-728.24854332320012
 31
0.0
  0
LINE
  5
569
  8
図枠
  6
BORDER
 10
135.0053318937
 20
-710.24854332320012
 30
0.0
 11
135.0053318937
 21
-728.24854332320012
 31
0.0
  0
LINE
  5
56A
  8
図枠
 10
165.3521698866
 20
-769.55686090600011
 30
0.0
 11
165.3521698866
 21
-774.05686090600011
 31
0.0
  0
LINE
  5
56B
  8
図枠
 10
57.755331893699989
 20
-719.24854332320001
 30
0.0
 11
107.7553318937
 21
-719.24854332320001
 31
0.0
  0
INSERT
  5
56C
  8
0
  6
CONTINUOUS
  2
*U96
 10
0.0
 20
0.0
 30
0.0
  0
CIRCLE
  5
56D
  8
図枠
 10
135.0053318937
 20
-719.24854332320001
 30
0.0
 40
6.0
  0
LINE
  5
56E
  8
図枠
 10
148.7201256729
 20
-716.24854332320012
 30
0.0
 11
160.7201256729
 21
-713.24854332320012
 31
0.0
  0
INSERT
  5
56F
  8
0
  6
CONTINUOUS
  2
*U97
 10
0.0
 20
0.0
 30
0.0
  0
CIRCLE
  5
570
  8
図枠
 10
135.0053318937
 20
-719.24854332320001
 30
0.0
 40
3.0
  0
LINE
  5
571
  8
図枠
 10
160.3521698866
 20
-784.056860906
 30
0.0
 11
159.34499320489999
 21
-780.55686090600011
 31
0.0
  0
LINE
  5
572
  8
図枠
 10
158.05005175700001
 20
-776.05686090600011
 30
0.0
 11
165.3521698866
 21
-776.05686090600011
 31
0.0
  0
LINE
  5
573
  8
図枠
 10
114.8084632659
 20
-779.05686090600011
 30
0.0
 11
117.8084632659
 21
-779.05686090600011
 31
0.0
  0
LINE
  5
574
  8
図枠
 10
147.8521698866
 20
-765.306860906
 30
0.0
 11
157.8521698866
 21
-765.306860906
 31
0.0
  0
LINE
  5
575
  8
図枠
 10
86.906948114400009
 20
-770.30686090600011
 30
0.0
 11
84.029188585499995
 21
-770.30686090600011
 31
0.0
  0
LINE
  5
576
  8
図枠
 10
114.8084632659
 20
-779.05686090600011
 30
0.0
 11
114.8084632659
 21
-782.80686090600011
 31
0.0
  0
LINE
  5
577
  8
図枠
 10
86.906948114400009
 20
-774.05686090600011
 30
0.0
 11
86.529188585499995
 21
-774.05686090600011
 31
0.0
  0
LINE
  5
578
  8
図枠
 10
86.906948114400009
 20
-779.05686090600011
 30
0.0
 11
86.906948114400009
 21
-782.80686090600011
 31
0.0
  0
ARC
  5
579
  8
図枠
 10
117.8084632659
 20
-769.55686090600011
 30
0.0
 40
9.5
 50
331.39928138329998
 51
358.49204224580001
  0
LINE
  5
57A
  8
図枠
 10
104.4069481144
 20
-774.05686090600011
 30
0.0
 11
108.1569481144
 21
-774.05686090600011
 31
0.0
  0
ARC
  5
57B
  8
図枠
 10
121.0584632659
 20
-769.05686090600011
 30
0.0
 40
13.75
 50
270.0
 51
302.54495885400001
  0
LINE
  5
57C
  8
図枠
 10
148.7201256729
 20
-722.24854332320012
 30
0.0
 11
160.7201256729
 21
-725.24854332320012
 31
0.0
  0
LINE
  5
57D
  8
図枠
 10
148.7201256729
 20
-716.24854332320012
 30
0.0
 11
148.7201256729
 21
-722.24854332320012
 31
0.0
  0
LINE
  5
57E
  8
図枠
 10
160.7201256729
 20
-713.24854332320012
 30
0.0
 11
160.7201256729
 21
-725.24854332320012
 31
0.0
  0
LINE
  5
57F
  8
図枠
 10
124.8084632659
 20
-771.1121365747
 30
0.0
 11
123.39424970349999
 21
-772.52635013710005
 31
0.0
  0
LINE
  5
580
  8
図枠
  6
BORDER
 10
126.0053318937
 20
-719.24854332320001
 30
0.0
 11
164.5053318937
 21
-719.24854332320001
 31
0.0
  0
CIRCLE
  5
581
  8
図枠
 10
135.0053318937
 20
-719.24854332320001
 30
0.0
 40
3.0
  0
POLYLINE
  8
図枠
  5
6F8
  66
     1
 10
0.000000
 20
0.000000
 30
0.000000
  70
     8
  0
VERTEX
  8
図枠
  5
6F9
 10
131.520
 20
-777.866
 30
0.000000
  70
    32
  0
VERTEX
  8
図枠
  5
6FA
 10
131.564
 20
-777.878
 30
0.000000
  70
    32
  0
VERTEX
  8
図枠
  5
6FB
 10
131.607
 20
-777.890
 30
0.000000
  70
    32
  0
VERTEX
  8
図枠
  5
6FC
 10
131.651
 20
-777.903
 30
0.000000
  70
    32
  0
VERTEX
  8
図枠
  5
6FD
 10
131.695
 20
-777.915
 30
0.000000
  70
    32
  0
VERTEX
  8
図枠
  5
6FE
 10
131.739
 20
-777.927
 30
0.000000
  70
    32
  0
VERTEX
  8
図枠
  5
6FF
 10
131.783
 20
-777.939
 30
0.000000
  70
    32
  0
VERTEX
  8
図枠
  5
700
 10
131.827
 20
-777.951
 30
0.000000
  70
    32
  0
VERTEX
  8
図枠
  5
701
 10
131.871
 20
-777.963
 30
0.000000
  70
    32
  0
VERTEX
  8
図枠
  5
702
 10
131.915
 20
-777.975
 30
0.000000
  70
    32
  0
VERTEX
  8
図枠
  5
703
 10
131.959
 20
-777.986
 30
0.000000
  70
    32
  0
VERTEX
  8
図枠
  5
704
 10
132.003
 20
-777.998
 30
0.000000
  70
    32
  0
VERTEX
  8
図枠
  5
705
 10
132.047
 20
-778.010
 30
0.000000
  70
    32
  0
VERTEX
  8
図枠
  5
706
 10
132.092
 20
-778.021
 30
0.000000
  70
    32
  0
VERTEX
  8
図枠
  5
707
 10
132.136
 20
-778.033
 30
0.000000
  70
    32
  0
VERTEX
  8
図枠
  5
708
 10
132.180
 20
-778.044
 30
0.000000
  70
    32
  0
VERTEX
  8
図枠
  5
709
 10
132.224
 20
-778.056
 30
0.000000
  70
    32
  0
VERTEX
  8
図枠
  5
70A
 10
132.269
 20
-778.067
 30
0.000000
  70
    32
  0
VERTEX
  8
図枠
  5
70B
 10
132.313
 20
-778.078
 30
0.000000
  70
    32
  0
VERTEX
  8
図枠
  5
70C
 10
132.358
 20
-778.089
 30
0.000000
  70
    32
  0
VERTEX
  8
図枠
  5
70D
 10
132.402
 20
-778.100
 30
0.000000
  70
    32
  0
VERTEX
  8
図枠
  5
70E
 10
132.447
 20
-778.112
 30
0.000000
  70
    32
  0
VERTEX
  8
図枠
  5
70F
 10
132.491
 20
-778.123
 30
0.000000
  70
    32
  0
VERTEX
  8
図枠
  5
710
 10
132.536
 20
-778.134
 30
0.000000
  70
    32
  0
VERTEX
  8
図枠
  5
711
 10
132.581
 20
-778.144
 30
0.000000
  70
    32
  0
VERTEX
  8
図枠
  5
712
 10
132.625
 20
-778.155
 30
0.000000
  70
    32
  0
VERTEX
  8
図枠
  5
713
 10
132.670
 20
-778.166
 30
0.000000
  70
    32
  0
VERTEX
  8
図枠
  5
714
 10
132.715
 20
-778.177
 30
0.000000
  70
    32
  0
VERTEX
  8
図枠
  5
715
 10
132.759
 20
-778.187
 30
0.000000
  70
    32
  0
VERTEX
  8
図枠
  5
716
 10
132.804
 20
-778.198
 30
0.000000
  70
    32
  0
VERTEX
  8
図枠
  5
717
 10
132.849
 20
-778.209
 30
0.000000
  70
    32
  0
VERTEX
  8
図枠
  5
718
 10
132.894
 20
-778.219
 30
0.000000
  70
    32
  0
VERTEX
  8
図枠
  5
719
 10
132.939
 20
-778.229
 30
0.000000
  70
    32
  0
VERTEX
  8
図枠
  5
71A
 10
132.984
 20
-778.240
 30
0.000000
  70
    32
  0
VERTEX
  8
図枠
  5
71B
 10
133.029
 20
-778.250
 30
0.000000
  70
    32
  0
VERTEX
  8
図枠
  5
71C
 10
133.074
 20
-778.260
 30
0.000000
  70
    32
  0
VERTEX
  8
図枠
  5
71D
 10
133.119
 20
-778.271
 30
0.000000
  70
    32
  0
VERTEX
  8
図枠
  5
71E
 10
133.164
 20
-778.281
 30
0.000000
  70
    32
  0
VERTEX
  8
図枠
  5
71F
 10
133.209
 20
-778.291
 30
0.000000
  70
    32
  0
VERTEX
  8
図枠
  5
720
 10
133.254
 20
-778.301
 30
0.000000
  70
    32
  0
VERTEX
  8
図枠
  5
721
 10
133.299
 20
-778.311
 30
0.000000
  70
    32
  0
VERTEX
  8
図枠
  5
722
 10
133.345
 20
-778.321
 30
0.000000
  70
    32
  0
VERTEX
  8
図枠
  5
723
 10
133.390
 20
-778.331
 30
0.000000
  70
    32
  0
VERTEX
  8
図枠
  5
724
 10
133.435
 20
-778.341
 30
0.000000
  70
    32
  0
VERTEX
  8
図枠
  5
725
 10
133.480
 20
-778.351
 30
0.000000
  70
    32
  0
VERTEX
  8
図枠
  5
726
 10
133.526
 20
-778.361
 30
0.000000
  70
    32
  0
VERTEX
  8
図枠
  5
727
 10
133.571
 20
-778.370
 30
0.000000
  70
    32
  0
VERTEX
  8
図枠
  5
728
 10
133.617
 20
-778.380
 30
0.000000
  70
    32
  0
VERTEX
  8
図枠
  5
729
 10
133.662
 20
-778.390
 30
0.000000
  70
    32
  0
VERTEX
  8
図枠
  5
72A
 10
133.707
 20
-778.399
 30
0.000000
  70
    32
  0
VERTEX
  8
図枠
  5
72B
 10
133.753
 20
-778.409
 30
0.000000
  70
    32
  0
VERTEX
  8
図枠
  5
72C
 10
133.798
 20
-778.418
 30
0.000000
  70
    32
  0
VERTEX
  8
図枠
  5
72D
 10
133.844
 20
-778.428
 30
0.000000
  70
    32
  0
VERTEX
  8
図枠
  5
72E
 10
133.889
 20
-778.437
 30
0.000000
  70
    32
  0
VERTEX
  8
図枠
  5
72F
 10
133.935
 20
-778.447
 30
0.000000
  70
    32
  0
VERTEX
  8
図枠
  5
730
 10
133.981
 20
-778.456
 30
0.000000
  70
    32
  0
VERTEX
  8
図枠
  5
731
 10
134.026
 20
-778.465
 30
0.000000
  70
    32
  0
VERTEX
  8
図枠
  5
732
 10
134.072
 20
-778.474
 30
0.000000
  70
    32
  0
VERTEX
  8
図枠
  5
733
 10
134.118
 20
-778.484
 30
0.000000
  70
    32
  0
VERTEX
  8
図枠
  5
734
 10
134.163
 20
-778.493
 30
0.000000
  70
    32
  0
VERTEX
  8
図枠
  5
735
 10
134.209
 20
-778.502
 30
0.000000
  70
    32
  0
VERTEX
  8
図枠
  5
736
 10
134.255
 20
-778.511
 30
0.000000
  70
    32
  0
VERTEX
  8
図枠
  5
737
 10
134.301
 20
-778.520
 30
0.000000
  70
    32
  0
VERTEX
  8
図枠
  5
738
 10
134.346
 20
-778.529
 30
0.000000
  70
    32
  0
VERTEX
  8
図枠
  5
739
 10
134.392
 20
-778.538
 30
0.000000
  70
    32
  0
VERTEX
  8
図枠
  5
73A
 10
134.438
 20
-778.547
 30
0.000000
  70
    32
  0
VERTEX
  8
図枠
  5
73B
 10
134.484
 20
-778.556
 30
0.000000
  70
    32
  0
VERTEX
  8
図枠
  5
73C
 10
134.530
 20
-778.565
 30
0.000000
  70
    32
  0
VERTEX
  8
図枠
  5
73D
 10
134.576
 20
-778.574
 30
0.000000
  70
    32
  0
VERTEX
  8
図枠
  5
73E
 10
134.622
 20
-778.583
 30
0.000000
  70
    32
  0
VERTEX
  8
図枠
  5
73F
 10
134.667
 20
-778.592
 30
0.000000
  70
    32
  0
VERTEX
  8
図枠
  5
740
 10
134.713
 20
-778.600
 30
0.000000
  70
    32
  0
VERTEX
  8
図枠
  5
741
 10
134.759
 20
-778.609
 30
0.000000
  70
    32
  0
VERTEX
  8
図枠
  5
742
 10
134.805
 20
-778.618
 30
0.000000
  70
    32
  0
VERTEX
  8
図枠
  5
743
 10
134.851
 20
-778.626
 30
0.000000
  70
    32
  0
VERTEX
  8
図枠
  5
744
 10
134.897
 20
-778.635
 30
0.000000
  70
    32
  0
VERTEX
  8
図枠
  5
745
 10
134.944
 20
-778.644
 30
0.000000
  70
    32
  0
VERTEX
  8
図枠
  5
746
 10
134.990
 20
-778.652
 30
0.000000
  70
    32
  0
VERTEX
  8
図枠
  5
747
 10
135.036
 20
-778.661
 30
0.000000
  70
    32
  0
VERTEX
  8
図枠
  5
748
 10
135.082
 20
-778.669
 30
0.000000
  70
    32
  0
VERTEX
  8
図枠
  5
749
 10
135.128
 20
-778.678
 30
0.000000
  70
    32
  0
VERTEX
  8
図枠
  5
74A
 10
135.174
 20
-778.686
 30
0.000000
  70
    32
  0
VERTEX
  8
図枠
  5
74B
 10
135.220
 20
-778.695
 30
0.000000
  70
    32
  0
VERTEX
  8
図枠
  5
74C
 10
135.266
 20
-778.703
 30
0.000000
  70
    32
  0
VERTEX
  8
図枠
  5
74D
 10
135.313
 20
-778.711
 30
0.000000
  70
    32
  0
VERTEX
  8
図枠
  5
74E
 10
135.359
 20
-778.720
 30
0.000000
  70
    32
  0
VERTEX
  8
図枠
  5
74F
 10
135.405
 20
-778.728
 30
0.000000
  70
    32
  0
VERTEX
  8
図枠
  5
750
 10
135.451
 20
-778.737
 30
0.000000
  70
    32
  0
VERTEX
  8
図枠
  5
751
 10
135.498
 20
-778.745
 30
0.000000
  70
    32
  0
VERTEX
  8
図枠
  5
752
 10
135.544
 20
-778.753
 30
0.000000
  70
    32
  0
VERTEX
  8
図枠
  5
753
 10
135.590
 20
-778.761
 30
0.000000
  70
    32
  0
VERTEX
  8
図枠
  5
754
 10
135.636
 20
-778.770
 30
0.000000
  70
    32
  0
VERTEX
  8
図枠
  5
755
 10
135.683
 20
-778.778
 30
0.000000
  70
    32
  0
VERTEX
  8
図枠
  5
756
 10
135.729
 20
-778.786
 30
0.000000
  70
    32
  0
VERTEX
  8
図枠
  5
757
 10
135.775
 20
-778.794
 30
0.000000
  70
    32
  0
VERTEX
  8
図枠
  5
758
 10
135.822
 20
-778.802
 30
0.000000
  70
    32
  0
VERTEX
  8
図枠
  5
759
 10
135.868
 20
-778.810
 30
0.000000
  70
    32
  0
VERTEX
  8
図枠
  5
75A
 10
135.914
 20
-778.819
 30
0.000000
  70
    32
  0
VERTEX
  8
図枠
  5
75B
 10
135.961
 20
-778.827
 30
0.000000
  70
    32
  0
VERTEX
  8
図枠
  5
75C
 10
136.007
 20
-778.835
 30
0.000000
  70
    32
  0
VERTEX
  8
図枠
  5
75D
 10
136.053
 20
-778.843
 30
0.000000
  70
    32
  0
VERTEX
  8
図枠
  5
75E
 10
136.100
 20
-778.851
 30
0.000000
  70
    32
  0
VERTEX
  8
図枠
  5
75F
 10
136.146
 20
-778.859
 30
0.000000
  70
    32
  0
VERTEX
  8
図枠
  5
760
 10
136.193
 20
-778.867
 30
0.000000
  70
    32
  0
VERTEX
  8
図枠
  5
761
 10
136.239
 20
-778.875
 30
0.000000
  70
    32
  0
VERTEX
  8
図枠
  5
762
 10
136.286
 20
-778.883
 30
0.000000
  70
    32
  0
VERTEX
  8
図枠
  5
763
 10
136.332
 20
-778.891
 30
0.000000
  70
    32
  0
VERTEX
  8
図枠
  5
764
 10
136.378
 20
-778.899
 30
0.000000
  70
    32
  0
VERTEX
  8
図枠
  5
765
 10
136.425
 20
-778.907
 30
0.000000
  70
    32
  0
VERTEX
  8
図枠
  5
766
 10
136.471
 20
-778.915
 30
0.000000
  70
    32
  0
VERTEX
  8
図枠
  5
767
 10
136.518
 20
-778.923
 30
0.000000
  70
    32
  0
VERTEX
  8
図枠
  5
768
 10
136.564
 20
-778.931
 30
0.000000
  70
    32
  0
VERTEX
  8
図枠
  5
769
 10
136.611
 20
-778.939
 30
0.000000
  70
    32
  0
VERTEX
  8
図枠
  5
76A
 10
136.657
 20
-778.947
 30
0.000000
  70
    32
  0
VERTEX
  8
図枠
  5
76B
 10
136.704
 20
-778.955
 30
0.000000
  70
    32
  0
VERTEX
  8
図枠
  5
76C
 10
136.750
 20
-778.962
 30
0.000000
  70
    32
  0
VERTEX
  8
図枠
  5
76D
 10
136.797
 20
-778.970
 30
0.000000
  70
    32
  0
VERTEX
  8
図枠
  5
76E
 10
136.843
 20
-778.978
 30
0.000000
  70
    32
  0
VERTEX
  8
図枠
  5
76F
 10
136.890
 20
-778.986
 30
0.000000
  70
    32
  0
VERTEX
  8
図枠
  5
770
 10
136.936
 20
-778.994
 30
0.000000
  70
    32
  0
VERTEX
  8
図枠
  5
771
 10
136.983
 20
-779.002
 30
0.000000
  70
    32
  0
VERTEX
  8
図枠
  5
772
 10
137.029
 20
-779.010
 30
0.000000
  70
    32
  0
VERTEX
  8
図枠
  5
773
 10
137.076
 20
-779.018
 30
0.000000
  70
    32
  0
VERTEX
  8
図枠
  5
774
 10
137.122
 20
-779.025
 30
0.000000
  70
    32
  0
VERTEX
  8
図枠
  5
775
 10
137.169
 20
-779.033
 30
0.000000
  70
    32
  0
VERTEX
  8
図枠
  5
776
 10
137.215
 20
-779.041
 30
0.000000
  70
    32
  0
VERTEX
  8
図枠
  5
777
 10
137.262
 20
-779.049
 30
0.000000
  70
    32
  0
VERTEX
  8
図枠
  5
778
 10
137.308
 20
-779.057
 30
0.000000
  70
    32
  0
SEQEND
  8
図枠
  5
779
  0
POLYLINE
  8
図枠
  5
77A
  66
     1
 10
0.000000
 20
0.000000
 30
0.000000
  70
     8
  0
VERTEX
  8
図枠
  5
77B
 10
123.394
 20
-772.526
 30
0.000000
  70
    32
  0
VERTEX
  8
図枠
  5
77C
 10
123.411
 20
-772.545
 30
0.000000
  70
    32
  0
VERTEX
  8
図枠
  5
77D
 10
123.427
 20
-772.563
 30
0.000000
  70
    32
  0
VERTEX
  8
図枠
  5
77E
 10
123.444
 20
-772.582
 30
0.000000
  70
    32
  0
VERTEX
  8
図枠
  5
77F
 10
123.460
 20
-772.600
 30
0.000000
  70
    32
  0
VERTEX
  8
図枠
  5
780
 10
123.477
 20
-772.618
 30
0.000000
  70
    32
  0
VERTEX
  8
図枠
  5
781
 10
123.493
 20
-772.637
 30
0.000000
  70
    32
  0
VERTEX
  8
図枠
  5
782
 10
123.510
 20
-772.655
 30
0.000000
  70
    32
  0
VERTEX
  8
図枠
  5
783
 10
123.526
 20
-772.673
 30
0.000000
  70
    32
  0
VERTEX
  8
図枠
  5
784
 10
123.543
 20
-772.692
 30
0.000000
  70
    32
  0
VERTEX
  8
図枠
  5
785
 10
123.559
 20
-772.710
 30
0.000000
  70
    32
  0
VERTEX
  8
図枠
  5
786
 10
123.576
 20
-772.729
 30
0.000000
  70
    32
  0
VERTEX
  8
図枠
  5
787
 10
123.592
 20
-772.747
 30
0.000000
  70
    32
  0
VERTEX
  8
図枠
  5
788
 10
123.609
 20
-772.765
 30
0.000000
  70
    32
  0
VERTEX
  8
図枠
  5
789
 10
123.625
 20
-772.784
 30
0.000000
  70
    32
  0
VERTEX
  8
図枠
  5
78A
 10
123.642
 20
-772.802
 30
0.000000
  70
    32
  0
VERTEX
  8
図枠
  5
78B
 10
123.658
 20
-772.820
 30
0.000000
  70
    32
  0
VERTEX
  8
図枠
  5
78C
 10
123.675
 20
-772.839
 30
0.000000
  70
    32
  0
VERTEX
  8
図枠
  5
78D
 10
123.691
 20
-772.857
 30
0.000000
  70
    32
  0
VERTEX
  8
図枠
  5
78E
 10
123.708
 20
-772.876
 30
0.000000
  70
    32
  0
VERTEX
  8
図枠
  5
78F
 10
123.724
 20
-772.894
 30
0.000000
  70
    32
  0
VERTEX
  8
図枠
  5
790
 10
123.741
 20
-772.912
 30
0.000000
  70
    32
  0
VERTEX
  8
図枠
  5
791
 10
123.758
 20
-772.931
 30
0.000000
  70
    32
  0
VERTEX
  8
図枠
  5
792
 10
123.774
 20
-772.949
 30
0.000000
  70
    32
  0
VERTEX
  8
図枠
  5
793
 10
123.791
 20
-772.967
 30
0.000000
  70
    32
  0
VERTEX
  8
図枠
  5
794
 10
123.807
 20
-772.986
 30
0.000000
  70
    32
  0
VERTEX
  8
図枠
  5
795
 10
123.824
 20
-773.004
 30
0.000000
  70
    32
  0
VERTEX
  8
図枠
  5
796
 10
123.840
 20
-773.022
 30
0.000000
  70
    32
  0
VERTEX
  8
図枠
  5
797
 10
123.857
 20
-773.040
 30
0.000000
  70
    32
  0
VERTEX
  8
図枠
  5
798
 10
123.873
 20
-773.059
 30
0.000000
  70
    32
  0
VERTEX
  8
図枠
  5
799
 10
123.890
 20
-773.077
 30
0.000000
  70
    32
  0
VERTEX
  8
図枠
  5
79A
 10
123.907
 20
-773.095
 30
0.000000
  70
    32
  0
VERTEX
  8
図枠
  5
79B
 10
123.923
 20
-773.114
 30
0.000000
  70
    32
  0
VERTEX
  8
図枠
  5
79C
 10
123.940
 20
-773.132
 30
0.000000
  70
    32
  0
VERTEX
  8
図枠
  5
79D
 10
123.956
 20
-773.150
 30
0.000000
  70
    32
  0
VERTEX
  8
図枠
  5
79E
 10
123.973
 20
-773.168
 30
0.000000
  70
    32
  0
VERTEX
  8
図枠
  5
79F
 10
123.990
 20
-773.186
 30
0.000000
  70
    32
  0
VERTEX
  8
図枠
  5
7A0
 10
124.006
 20
-773.205
 30
0.000000
  70
    32
  0
VERTEX
  8
図枠
  5
7A1
 10
124.023
 20
-773.223
 30
0.000000
  70
    32
  0
VERTEX
  8
図枠
  5
7A2
 10
124.039
 20
-773.241
 30
0.000000
  70
    32
  0
VERTEX
  8
図枠
  5
7A3
 10
124.056
 20
-773.259
 30
0.000000
  70
    32
  0
VERTEX
  8
図枠
  5
7A4
 10
124.073
 20
-773.277
 30
0.000000
  70
    32
  0
VERTEX
  8
図枠
  5
7A5
 10
124.089
 20
-773.296
 30
0.000000
  70
    32
  0
VERTEX
  8
図枠
  5
7A6
 10
124.106
 20
-773.314
 30
0.000000
  70
    32
  0
VERTEX
  8
図枠
  5
7A7
 10
124.123
 20
-773.332
 30
0.000000
  70
    32
  0
VERTEX
  8
図枠
  5
7A8
 10
124.139
 20
-773.350
 30
0.000000
  70
    32
  0
VERTEX
  8
図枠
  5
7A9
 10
124.156
 20
-773.368
 30
0.000000
  70
    32
  0
VERTEX
  8
図枠
  5
7AA
 10
124.173
 20
-773.386
 30
0.000000
  70
    32
  0
VERTEX
  8
図枠
  5
7AB
 10
124.189
 20
-773.404
 30
0.000000
  70
    32
  0
VERTEX
  8
図枠
  5
7AC
 10
124.206
 20
-773.422
 30
0.000000
  70
    32
  0
VERTEX
  8
図枠
  5
7AD
 10
124.223
 20
-773.440
 30
0.000000
  70
    32
  0
VERTEX
  8
図枠
  5
7AE
 10
124.239
 20
-773.458
 30
0.000000
  70
    32
  0
VERTEX
  8
図枠
  5
7AF
 10
124.256
 20
-773.476
 30
0.000000
  70
    32
  0
VERTEX
  8
図枠
  5
7B0
 10
124.273
 20
-773.495
 30
0.000000
  70
    32
  0
VERTEX
  8
図枠
  5
7B1
 10
124.290
 20
-773.513
 30
0.000000
  70
    32
  0
VERTEX
  8
図枠
  5
7B2
 10
124.306
 20
-773.531
 30
0.000000
  70
    32
  0
VERTEX
  8
図枠
  5
7B3
 10
124.323
 20
-773.548
 30
0.000000
  70
    32
  0
VERTEX
  8
図枠
  5
7B4
 10
124.340
 20
-773.566
 30
0.000000
  70
    32
  0
VERTEX
  8
図枠
  5
7B5
 10
124.357
 20
-773.584
 30
0.000000
  70
    32
  0
VERTEX
  8
図枠
  5
7B6
 10
124.373
 20
-773.602
 30
0.000000
  70
    32
  0
VERTEX
  8
図枠
  5
7B7
 10
124.390
 20
-773.620
 30
0.000000
  70
    32
  0
VERTEX
  8
図枠
  5
7B8
 10
124.407
 20
-773.638
 30
0.000000
  70
    32
  0
VERTEX
  8
図枠
  5
7B9
 10
124.424
 20
-773.656
 30
0.000000
  70
    32
  0
VERTEX
  8
図枠
  5
7BA
 10
124.441
 20
-773.674
 30
0.000000
  70
    32
  0
VERTEX
  8
図枠
  5
7BB
 10
124.458
 20
-773.692
 30
0.000000
  70
    32
  0
VERTEX
  8
図枠
  5
7BC
 10
124.474
 20
-773.710
 30
0.000000
  70
    32
  0
VERTEX
  8
図枠
  5
7BD
 10
124.491
 20
-773.727
 30
0.000000
  70
    32
  0
VERTEX
  8
図枠
  5
7BE
 10
124.508
 20
-773.745
 30
0.000000
  70
    32
  0
VERTEX
  8
図枠
  5
7BF
 10
124.525
 20
-773.763
 30
0.000000
  70
    32
  0
VERTEX
  8
図枠
  5
7C0
 10
124.542
 20
-773.781
 30
0.000000
  70
    32
  0
VERTEX
  8
図枠
  5
7C1
 10
124.559
 20
-773.798
 30
0.000000
  70
    32
  0
VERTEX
  8
図枠
  5
7C2
 10
124.576
 20
-773.816
 30
0.000000
  70
    32
  0
VERTEX
  8
図枠
  5
7C3
 10
124.593
 20
-773.834
 30
0.000000
  70
    32
  0
VERTEX
  8
図枠
  5
7C4
 10
124.610
 20
-773.851
 30
0.000000
  70
    32
  0
VERTEX
  8
図枠
  5
7C5
 10
124.627
 20
-773.869
 30
0.000000
  70
    32
  0
VERTEX
  8
図枠
  5
7C6
 10
124.644
 20
-773.887
 30
0.000000
  70
    32
  0
VERTEX
  8
図枠
  5
7C7
 10
124.661
 20
-773.904
 30
0.000000
  70
    32
  0
VERTEX
  8
図枠
  5
7C8
 10
124.678
 20
-773.922
 30
0.000000
  70
    32
  0
VERTEX
  8
図枠
  5
7C9
 10
124.695
 20
-773.940
 30
0.000000
  70
    32
  0
VERTEX
  8
図枠
  5
7CA
 10
124.712
 20
-773.957
 30
0.000000
  70
    32
  0
VERTEX
  8
図枠
  5
7CB
 10
124.729
 20
-773.975
 30
0.000000
  70
    32
  0
VERTEX
  8
図枠
  5
7CC
 10
124.746
 20
-773.992
 30
0.000000
  70
    32
  0
VERTEX
  8
図枠
  5
7CD
 10
124.763
 20
-774.010
 30
0.000000
  70
    32
  0
VERTEX
  8
図枠
  5
7CE
 10
124.780
 20
-774.027
 30
0.000000
  70
    32
  0
VERTEX
  8
図枠
  5
7CF
 10
124.797
 20
-774.044
 30
0.000000
  70
    32
  0
VERTEX
  8
図枠
  5
7D0
 10
124.814
 20
-774.062
 30
0.000000
  70
    32
  0
VERTEX
  8
図枠
  5
7D1
 10
124.831
 20
-774.079
 30
0.000000
  70
    32
  0
VERTEX
  8
図枠
  5
7D2
 10
124.848
 20
-774.097
 30
0.000000
  70
    32
  0
VERTEX
  8
図枠
  5
7D3
 10
124.865
 20
-774.114
 30
0.000000
  70
    32
  0
VERTEX
  8
図枠
  5
7D4
 10
124.883
 20
-774.131
 30
0.000000
  70
    32
  0
VERTEX
  8
図枠
  5
7D5
 10
124.900
 20
-774.149
 30
0.000000
  70
    32
  0
VERTEX
  8
図枠
  5
7D6
 10
124.917
 20
-774.166
 30
0.000000
  70
    32
  0
VERTEX
  8
図枠
  5
7D7
 10
124.934
 20
-774.183
 30
0.000000
  70
    32
  0
VERTEX
  8
図枠
  5
7D8
 10
124.951
 20
-774.200
 30
0.000000
  70
    32
  0
VERTEX
  8
図枠
  5
7D9
 10
124.969
 20
-774.218
 30
0.000000
  70
    32
  0
VERTEX
  8
図枠
  5
7DA
 10
124.986
 20
-774.235
 30
0.000000
  70
    32
  0
VERTEX
  8
図枠
  5
7DB
 10
125.003
 20
-774.252
 30
0.000000
  70
    32
  0
VERTEX
  8
図枠
  5
7DC
 10
125.021
 20
-774.269
 30
0.000000
  70
    32
  0
VERTEX
  8
図枠
  5
7DD
 10
125.038
 20
-774.286
 30
0.000000
  70
    32
  0
VERTEX
  8
図枠
  5
7DE
 10
125.055
 20
-774.303
 30
0.000000
  70
    32
  0
VERTEX
  8
図枠
  5
7DF
 10
125.073
 20
-774.320
 30
0.000000
  70
    32
  0
VERTEX
  8
図枠
  5
7E0
 10
125.090
 20
-774.337
 30
0.000000
  70
    32
  0
VERTEX
  8
図枠
  5
7E1
 10
125.107
 20
-774.354
 30
0.000000
  70
    32
  0
VERTEX
  8
図枠
  5
7E2
 10
125.125
 20
-774.371
 30
0.000000
  70
    32
  0
VERTEX
  8
図枠
  5
7E3
 10
125.142
 20
-774.388
 30
0.000000
  70
    32
  0
VERTEX
  8
図枠
  5
7E4
 10
125.159
 20
-774.405
 30
0.000000
  70
    32
  0
VERTEX
  8
図枠
  5
7E5
 10
125.177
 20
-774.422
 30
0.000000
  70
    32
  0
VERTEX
  8
図枠
  5
7E6
 10
125.194
 20
-774.439
 30
0.000000
  70
    32
  0
VERTEX
  8
図枠
  5
7E7
 10
125.212
 20
-774.455
 30
0.000000
  70
    32
  0
VERTEX
  8
図枠
  5
7E8
 10
125.229
 20
-774.472
 30
0.000000
  70
    32
  0
VERTEX
  8
図枠
  5
7E9
 10
125.247
 20
-774.489
 30
0.000000
  70
    32
  0
VERTEX
  8
図枠
  5
7EA
 10
125.264
 20
-774.506
 30
0.000000
  70
    32
  0
VERTEX
  8
図枠
  5
7EB
 10
125.282
 20
-774.522
 30
0.000000
  70
    32
  0
VERTEX
  8
図枠
  5
7EC
 10
125.300
 20
-774.539
 30
0.000000
  70
    32
  0
VERTEX
  8
図枠
  5
7ED
 10
125.317
 20
-774.556
 30
0.000000
  70
    32
  0
VERTEX
  8
図枠
  5
7EE
 10
125.335
 20
-774.572
 30
0.000000
  70
    32
  0
VERTEX
  8
図枠
  5
7EF
 10
125.352
 20
-774.589
 30
0.000000
  70
    32
  0
VERTEX
  8
図枠
  5
7F0
 10
125.370
 20
-774.605
 30
0.000000
  70
    32
  0
VERTEX
  8
図枠
  5
7F1
 10
125.388
 20
-774.622
 30
0.000000
  70
    32
  0
VERTEX
  8
図枠
  5
7F2
 10
125.405
 20
-774.638
 30
0.000000
  70
    32
  0
VERTEX
  8
図枠
  5
7F3
 10
125.423
 20
-774.655
 30
0.000000
  70
    32
  0
VERTEX
  8
図枠
  5
7F4
 10
125.441
 20
-774.671
 30
0.000000
  70
    32
  0
VERTEX
  8
図枠
  5
7F5
 10
125.459
 20
-774.688
 30
0.000000
  70
    32
  0
VERTEX
  8
図枠
  5
7F6
 10
125.476
 20
-774.704
 30
0.000000
  70
    32
  0
VERTEX
  8
図枠
  5
7F7
 10
125.494
 20
-774.720
 30
0.000000
  70
    32
  0
VERTEX
  8
図枠
  5
7F8
 10
125.512
 20
-774.736
 30
0.000000
  70
    32
  0
VERTEX
  8
図枠
  5
7F9
 10
125.530
 20
-774.753
 30
0.000000
  70
    32
  0
VERTEX
  8
図枠
  5
7FA
 10
125.548
 20
-774.769
 30
0.000000
  70
    32
  0
SEQEND
  8
図枠
  5
7FB
  0
POLYLINE
  8
図枠
  5
7FC
  66
     1
 10
0.000000
 20
0.000000
 30
0.000000
  70
     8
  0
VERTEX
  8
図枠
  5
7FD
 10
128.455
 20
-780.648
 30
0.000000
  70
    32
  0
VERTEX
  8
図枠
  5
7FE
 10
128.523
 20
-780.669
 30
0.000000
  70
    32
  0
VERTEX
  8
図枠
  5
7FF
 10
128.590
 20
-780.691
 30
0.000000
  70
    32
  0
VERTEX
  8
図枠
  5
800
 10
128.657
 20
-780.712
 30
0.000000
  70
    32
  0
VERTEX
  8
図枠
  5
801
 10
128.725
 20
-780.733
 30
0.000000
  70
    32
  0
VERTEX
  8
図枠
  5
802
 10
128.792
 20
-780.754
 30
0.000000
  70
    32
  0
VERTEX
  8
図枠
  5
803
 10
128.860
 20
-780.775
 30
0.000000
  70
    32
  0
VERTEX
  8
図枠
  5
804
 10
128.928
 20
-780.796
 30
0.000000
  70
    32
  0
VERTEX
  8
図枠
  5
805
 10
128.995
 20
-780.816
 30
0.000000
  70
    32
  0
VERTEX
  8
図枠
  5
806
 10
129.063
 20
-780.837
 30
0.000000
  70
    32
  0
VERTEX
  8
図枠
  5
807
 10
129.131
 20
-780.858
 30
0.000000
  70
    32
  0
VERTEX
  8
図枠
  5
808
 10
129.199
 20
-780.878
 30
0.000000
  70
    32
  0
VERTEX
  8
図枠
  5
809
 10
129.267
 20
-780.898
 30
0.000000
  70
    32
  0
VERTEX
  8
図枠
  5
80A
 10
129.335
 20
-780.919
 30
0.000000
  70
    32
  0
VERTEX
  8
図枠
  5
80B
 10
129.403
 20
-780.939
 30
0.000000
  70
    32
  0
VERTEX
  8
図枠
  5
80C
 10
129.471
 20
-780.959
 30
0.000000
  70
    32
  0
VERTEX
  8
図枠
  5
80D
 10
129.539
 20
-780.979
 30
0.000000
  70
    32
  0
VERTEX
  8
図枠
  5
80E
 10
129.607
 20
-780.999
 30
0.000000
  70
    32
  0
VERTEX
  8
図枠
  5
80F
 10
129.675
 20
-781.018
 30
0.000000
  70
    32
  0
VERTEX
  8
図枠
  5
810
 10
129.743
 20
-781.038
 30
0.000000
  70
    32
  0
VERTEX
  8
図枠
  5
811
 10
129.812
 20
-781.058
 30
0.000000
  70
    32
  0
VERTEX
  8
図枠
  5
812
 10
129.880
 20
-781.077
 30
0.000000
  70
    32
  0
VERTEX
  8
図枠
  5
813
 10
129.948
 20
-781.097
 30
0.000000
  70
    32
  0
VERTEX
  8
図枠
  5
814
 10
130.017
 20
-781.116
 30
0.000000
  70
    32
  0
VERTEX
  8
図枠
  5
815
 10
130.085
 20
-781.135
 30
0.000000
  70
    32
  0
VERTEX
  8
図枠
  5
816
 10
130.154
 20
-781.154
 30
0.000000
  70
    32
  0
VERTEX
  8
図枠
  5
817
 10
130.223
 20
-781.173
 30
0.000000
  70
    32
  0
VERTEX
  8
図枠
  5
818
 10
130.291
 20
-781.192
 30
0.000000
  70
    32
  0
VERTEX
  8
図枠
  5
819
 10
130.360
 20
-781.211
 30
0.000000
  70
    32
  0
VERTEX
  8
図枠
  5
81A
 10
130.429
 20
-781.230
 30
0.000000
  70
    32
  0
VERTEX
  8
図枠
  5
81B
 10
130.497
 20
-781.249
 30
0.000000
  70
    32
  0
VERTEX
  8
図枠
  5
81C
 10
130.566
 20
-781.268
 30
0.000000
  70
    32
  0
VERTEX
  8
図枠
  5
81D
 10
130.635
 20
-781.286
 30
0.000000
  70
    32
  0
VERTEX
  8
図枠
  5
81E
 10
130.704
 20
-781.305
 30
0.000000
  70
    32
  0
VERTEX
  8
図枠
  5
81F
 10
130.773
 20
-781.323
 30
0.000000
  70
    32
  0
VERTEX
  8
図枠
  5
820
 10
130.842
 20
-781.341
 30
0.000000
  70
    32
  0
VERTEX
  8
図枠
  5
821
 10
130.911
 20
-781.360
 30
0.000000
  70
    32
  0
VERTEX
  8
図枠
  5
822
 10
130.980
 20
-781.378
 30
0.000000
  70
    32
  0
VERTEX
  8
図枠
  5
823
 10
131.049
 20
-781.396
 30
0.000000
  70
    32
  0
VERTEX
  8
図枠
  5
824
 10
131.118
 20
-781.414
 30
0.000000
  70
    32
  0
VERTEX
  8
図枠
  5
825
 10
131.187
 20
-781.432
 30
0.000000
  70
    32
  0
VERTEX
  8
図枠
  5
826
 10
131.257
 20
-781.450
 30
0.000000
  70
    32
  0
VERTEX
  8
図枠
  5
827
 10
131.326
 20
-781.468
 30
0.000000
  70
    32
  0
VERTEX
  8
図枠
  5
828
 10
131.395
 20
-781.485
 30
0.000000
  70
    32
  0
VERTEX
  8
図枠
  5
829
 10
131.465
 20
-781.503
 30
0.000000
  70
    32
  0
VERTEX
  8
図枠
  5
82A
 10
131.534
 20
-781.521
 30
0.000000
  70
    32
  0
VERTEX
  8
図枠
  5
82B
 10
131.603
 20
-781.538
 30
0.000000
  70
    32
  0
VERTEX
  8
図枠
  5
82C
 10
131.673
 20
-781.556
 30
0.000000
  70
    32
  0
VERTEX
  8
図枠
  5
82D
 10
131.742
 20
-781.573
 30
0.000000
  70
    32
  0
VERTEX
  8
図枠
  5
82E
 10
131.812
 20
-781.590
 30
0.000000
  70
    32
  0
VERTEX
  8
図枠
  5
82F
 10
131.881
 20
-781.608
 30
0.000000
  70
    32
  0
VERTEX
  8
図枠
  5
830
 10
131.951
 20
-781.625
 30
0.000000
  70
    32
  0
VERTEX
  8
図枠
  5
831
 10
132.021
 20
-781.642
 30
0.000000
  70
    32
  0
VERTEX
  8
図枠
  5
832
 10
132.090
 20
-781.659
 30
0.000000
  70
    32
  0
VERTEX
  8
図枠
  5
833
 10
132.160
 20
-781.676
 30
0.000000
  70
    32
  0
VERTEX
  8
図枠
  5
834
 10
132.230
 20
-781.693
 30
0.000000
  70
    32
  0
VERTEX
  8
図枠
  5
835
 10
132.300
 20
-781.710
 30
0.000000
  70
    32
  0
VERTEX
  8
図枠
  5
836
 10
132.369
 20
-781.727
 30
0.000000
  70
    32
  0
VERTEX
  8
図枠
  5
837
 10
132.439
 20
-781.743
 30
0.000000
  70
    32
  0
VERTEX
  8
図枠
  5
838
 10
132.509
 20
-781.760
 30
0.000000
  70
    32
  0
VERTEX
  8
図枠
  5
839
 10
132.579
 20
-781.777
 30
0.000000
  70
    32
  0
VERTEX
  8
図枠
  5
83A
 10
132.649
 20
-781.793
 30
0.000000
  70
    32
  0
VERTEX
  8
図枠
  5
83B
 10
132.719
 20
-781.810
 30
0.000000
  70
    32
  0
VERTEX
  8
図枠
  5
83C
 10
132.789
 20
-781.826
 30
0.000000
  70
    32
  0
VERTEX
  8
図枠
  5
83D
 10
132.859
 20
-781.843
 30
0.000000
  70
    32
  0
VERTEX
  8
図枠
  5
83E
 10
132.929
 20
-781.859
 30
0.000000
  70
    32
  0
VERTEX
  8
図枠
  5
83F
 10
132.999
 20
-781.876
 30
0.000000
  70
    32
  0
VERTEX
  8
図枠
  5
840
 10
133.069
 20
-781.892
 30
0.000000
  70
    32
  0
VERTEX
  8
図枠
  5
841
 10
133.139
 20
-781.908
 30
0.000000
  70
    32
  0
VERTEX
  8
図枠
  5
842
 10
133.209
 20
-781.924
 30
0.000000
  70
    32
  0
VERTEX
  8
図枠
  5
843
 10
133.280
 20
-781.940
 30
0.000000
  70
    32
  0
VERTEX
  8
図枠
  5
844
 10
133.350
 20
-781.957
 30
0.000000
  70
    32
  0
VERTEX
  8
図枠
  5
845
 10
133.420
 20
-781.973
 30
0.000000
  70
    32
  0
VERTEX
  8
図枠
  5
846
 10
133.490
 20
-781.989
 30
0.000000
  70
    32
  0
VERTEX
  8
図枠
  5
847
 10
133.560
 20
-782.005
 30
0.000000
  70
    32
  0
VERTEX
  8
図枠
  5
848
 10
133.631
 20
-782.020
 30
0.000000
  70
    32
  0
VERTEX
  8
図枠
  5
849
 10
133.701
 20
-782.036
 30
0.000000
  70
    32
  0
VERTEX
  8
図枠
  5
84A
 10
133.771
 20
-782.052
 30
0.000000
  70
    32
  0
VERTEX
  8
図枠
  5
84B
 10
133.842
 20
-782.068
 30
0.000000
  70
    32
  0
VERTEX
  8
図枠
  5
84C
 10
133.912
 20
-782.084
 30
0.000000
  70
    32
  0
VERTEX
  8
図枠
  5
84D
 10
133.983
 20
-782.099
 30
0.000000
  70
    32
  0
VERTEX
  8
図枠
  5
84E
 10
134.053
 20
-782.115
 30
0.000000
  70
    32
  0
VERTEX
  8
図枠
  5
84F
 10
134.124
 20
-782.131
 30
0.000000
  70
    32
  0
VERTEX
  8
図枠
  5
850
 10
134.194
 20
-782.146
 30
0.000000
  70
    32
  0
VERTEX
  8
図枠
  5
851
 10
134.265
 20
-782.162
 30
0.000000
  70
    32
  0
VERTEX
  8
図枠
  5
852
 10
134.335
 20
-782.177
 30
0.000000
  70
    32
  0
VERTEX
  8
図枠
  5
853
 10
134.406
 20
-782.193
 30
0.000000
  70
    32
  0
VERTEX
  8
図枠
  5
854
 10
134.476
 20
-782.208
 30
0.000000
  70
    32
  0
VERTEX
  8
図枠
  5
855
 10
134.547
 20
-782.223
 30
0.000000
  70
    32
  0
VERTEX
  8
図枠
  5
856
 10
134.617
 20
-782.239
 30
0.000000
  70
    32
  0
VERTEX
  8
図枠
  5
857
 10
134.688
 20
-782.254
 30
0.000000
  70
    32
  0
VERTEX
  8
図枠
  5
858
 10
134.759
 20
-782.269
 30
0.000000
  70
    32
  0
VERTEX
  8
図枠
  5
859
 10
134.829
 20
-782.285
 30
0.000000
  70
    32
  0
VERTEX
  8
図枠
  5
85A
 10
134.900
 20
-782.300
 30
0.000000
  70
    32
  0
VERTEX
  8
図枠
  5
85B
 10
134.971
 20
-782.315
 30
0.000000
  70
    32
  0
VERTEX
  8
図枠
  5
85C
 10
135.041
 20
-782.330
 30
0.000000
  70
    32
  0
VERTEX
  8
図枠
  5
85D
 10
135.112
 20
-782.346
 30
0.000000
  70
    32
  0
VERTEX
  8
図枠
  5
85E
 10
135.183
 20
-782.361
 30
0.000000
  70
    32
  0
VERTEX
  8
図枠
  5
85F
 10
135.253
 20
-782.376
 30
0.000000
  70
    32
  0
VERTEX
  8
図枠
  5
860
 10
135.324
 20
-782.391
 30
0.000000
  70
    32
  0
VERTEX
  8
図枠
  5
861
 10
135.395
 20
-782.406
 30
0.000000
  70
    32
  0
VERTEX
  8
図枠
  5
862
 10
135.466
 20
-782.421
 30
0.000000
  70
    32
  0
VERTEX
  8
図枠
  5
863
 10
135.536
 20
-782.436
 30
0.000000
  70
    32
  0
VERTEX
  8
図枠
  5
864
 10
135.607
 20
-782.451
 30
0.000000
  70
    32
  0
VERTEX
  8
図枠
  5
865
 10
135.678
 20
-782.466
 30
0.000000
  70
    32
  0
VERTEX
  8
図枠
  5
866
 10
135.749
 20
-782.481
 30
0.000000
  70
    32
  0
VERTEX
  8
図枠
  5
867
 10
135.820
 20
-782.496
 30
0.000000
  70
    32
  0
VERTEX
  8
図枠
  5
868
 10
135.890
 20
-782.511
 30
0.000000
  70
    32
  0
VERTEX
  8
図枠
  5
869
 10
135.961
 20
-782.526
 30
0.000000
  70
    32
  0
VERTEX
  8
図枠
  5
86A
 10
136.032
 20
-782.541
 30
0.000000
  70
    32
  0
VERTEX
  8
図枠
  5
86B
 10
136.103
 20
-782.556
 30
0.000000
  70
    32
  0
VERTEX
  8
図枠
  5
86C
 10
136.174
 20
-782.570
 30
0.000000
  70
    32
  0
VERTEX
  8
図枠
  5
86D
 10
136.245
 20
-782.585
 30
0.000000
  70
    32
  0
VERTEX
  8
図枠
  5
86E
 10
136.316
 20
-782.600
 30
0.000000
  70
    32
  0
VERTEX
  8
図枠
  5
86F
 10
136.387
 20
-782.615
 30
0.000000
  70
    32
  0
VERTEX
  8
図枠
  5
870
 10
136.457
 20
-782.630
 30
0.000000
  70
    32
  0
VERTEX
  8
図枠
  5
871
 10
136.528
 20
-782.644
 30
0.000000
  70
    32
  0
VERTEX
  8
図枠
  5
872
 10
136.599
 20
-782.659
 30
0.000000
  70
    32
  0
VERTEX
  8
図枠
  5
873
 10
136.670
 20
-782.674
 30
0.000000
  70
    32
  0
VERTEX
  8
図枠
  5
874
 10
136.741
 20
-782.689
 30
0.000000
  70
    32
  0
VERTEX
  8
図枠
  5
875
 10
136.812
 20
-782.704
 30
0.000000
  70
    32
  0
VERTEX
  8
図枠
  5
876
 10
136.883
 20
-782.718
 30
0.000000
  70
    32
  0
VERTEX
  8
図枠
  5
877
 10
136.954
 20
-782.733
 30
0.000000
  70
    32
  0
VERTEX
  8
図枠
  5
878
 10
137.025
 20
-782.748
 30
0.000000
  70
    32
  0
VERTEX
  8
図枠
  5
879
 10
137.096
 20
-782.763
 30
0.000000
  70
    32
  0
VERTEX
  8
図枠
  5
87A
 10
137.167
 20
-782.777
 30
0.000000
  70
    32
  0
VERTEX
  8
図枠
  5
87B
 10
137.238
 20
-782.792
 30
0.000000
  70
    32
  0
VERTEX
  8
図枠
  5
87C
 10
137.308
 20
-782.807
 30
0.000000
  70
    32
  0
SEQEND
  8
図枠
  5
87D
  0
POLYLINE
  8
図枠
  5
87E
  66
     1
 10
0.000000
 20
0.000000
 30
0.000000
  70
     8
  0
VERTEX
  8
図枠
  5
87F
 10
114.808
 20
-771.917
 30
0.000000
  70
    32
  0
VERTEX
  8
図枠
  5
880
 10
114.853
 20
-771.959
 30
0.000000
  70
    32
  0
VERTEX
  8
図枠
  5
881
 10
114.899
 20
-772.000
 30
0.000000
  70
    32
  0
VERTEX
  8
図枠
  5
882
 10
114.944
 20
-772.042
 30
0.000000
  70
    32
  0
VERTEX
  8
図枠
  5
883
 10
114.989
 20
-772.083
 30
0.000000
  70
    32
  0
VERTEX
  8
図枠
  5
884
 10
115.034
 20
-772.125
 30
0.000000
  70
    32
  0
VERTEX
  8
図枠
  5
885
 10
115.079
 20
-772.166
 30
0.000000
  70
    32
  0
VERTEX
  8
図枠
  5
886
 10
115.124
 20
-772.208
 30
0.000000
  70
    32
  0
VERTEX
  8
図枠
  5
887
 10
115.169
 20
-772.249
 30
0.000000
  70
    32
  0
VERTEX
  8
図枠
  5
888
 10
115.214
 20
-772.291
 30
0.000000
  70
    32
  0
VERTEX
  8
図枠
  5
889
 10
115.259
 20
-772.332
 30
0.000000
  70
    32
  0
VERTEX
  8
図枠
  5
88A
 10
115.304
 20
-772.374
 30
0.000000
  70
    32
  0
VERTEX
  8
図枠
  5
88B
 10
115.349
 20
-772.415
 30
0.000000
  70
    32
  0
VERTEX
  8
図枠
  5
88C
 10
115.394
 20
-772.457
 30
0.000000
  70
    32
  0
VERTEX
  8
図枠
  5
88D
 10
115.439
 20
-772.498
 30
0.000000
  70
    32
  0
VERTEX
  8
図枠
  5
88E
 10
115.484
 20
-772.540
 30
0.000000
  70
    32
  0
VERTEX
  8
図枠
  5
88F
 10
115.529
 20
-772.581
 30
0.000000
  70
    32
  0
VERTEX
  8
図枠
  5
890
 10
115.574
 20
-772.622
 30
0.000000
  70
    32
  0
VERTEX
  8
図枠
  5
891
 10
115.619
 20
-772.664
 30
0.000000
  70
    32
  0
VERTEX
  8
図枠
  5
892
 10
115.665
 20
-772.705
 30
0.000000
  70
    32
  0
VERTEX
  8
図枠
  5
893
 10
115.710
 20
-772.746
 30
0.000000
  70
    32
  0
VERTEX
  8
図枠
  5
894
 10
115.755
 20
-772.788
 30
0.000000
  70
    32
  0
VERTEX
  8
図枠
  5
895
 10
115.800
 20
-772.829
 30
0.000000
  70
    32
  0
VERTEX
  8
図枠
  5
896
 10
115.845
 20
-772.870
 30
0.000000
  70
    32
  0
VERTEX
  8
図枠
  5
897
 10
115.890
 20
-772.912
 30
0.000000
  70
    32
  0
VERTEX
  8
図枠
  5
898
 10
115.935
 20
-772.953
 30
0.000000
  70
    32
  0
VERTEX
  8
図枠
  5
899
 10
115.981
 20
-772.994
 30
0.000000
  70
    32
  0
VERTEX
  8
図枠
  5
89A
 10
116.026
 20
-773.035
 30
0.000000
  70
    32
  0
VERTEX
  8
図枠
  5
89B
 10
116.071
 20
-773.076
 30
0.000000
  70
    32
  0
VERTEX
  8
図枠
  5
89C
 10
116.116
 20
-773.118
 30
0.000000
  70
    32
  0
VERTEX
  8
図枠
  5
89D
 10
116.161
 20
-773.159
 30
0.000000
  70
    32
  0
VERTEX
  8
図枠
  5
89E
 10
116.207
 20
-773.200
 30
0.000000
  70
    32
  0
VERTEX
  8
図枠
  5
89F
 10
116.252
 20
-773.241
 30
0.000000
  70
    32
  0
VERTEX
  8
図枠
  5
8A0
 10
116.297
 20
-773.282
 30
0.000000
  70
    32
  0
VERTEX
  8
図枠
  5
8A1
 10
116.342
 20
-773.323
 30
0.000000
  70
    32
  0
VERTEX
  8
図枠
  5
8A2
 10
116.388
 20
-773.364
 30
0.000000
  70
    32
  0
VERTEX
  8
図枠
  5
8A3
 10
116.433
 20
-773.405
 30
0.000000
  70
    32
  0
VERTEX
  8
図枠
  5
8A4
 10
116.478
 20
-773.446
 30
0.000000
  70
    32
  0
VERTEX
  8
図枠
  5
8A5
 10
116.524
 20
-773.487
 30
0.000000
  70
    32
  0
VERTEX
  8
図枠
  5
8A6
 10
116.569
 20
-773.528
 30
0.000000
  70
    32
  0
VERTEX
  8
図枠
  5
8A7
 10
116.615
 20
-773.568
 30
0.000000
  70
    32
  0
VERTEX
  8
図枠
  5
8A8
 10
116.660
 20
-773.609
 30
0.000000
  70
    32
  0
VERTEX
  8
図枠
  5
8A9
 10
116.705
 20
-773.650
 30
0.000000
  70
    32
  0
VERTEX
  8
図枠
  5
8AA
 10
116.751
 20
-773.691
 30
0.000000
  70
    32
  0
VERTEX
  8
図枠
  5
8AB
 10
116.796
 20
-773.731
 30
0.000000
  70
    32
  0
VERTEX
  8
図枠
  5
8AC
 10
116.842
 20
-773.772
 30
0.000000
  70
    32
  0
VERTEX
  8
図枠
  5
8AD
 10
116.887
 20
-773.813
 30
0.000000
  70
    32
  0
VERTEX
  8
図枠
  5
8AE
 10
116.933
 20
-773.853
 30
0.000000
  70
    32
  0
VERTEX
  8
図枠
  5
8AF
 10
116.978
 20
-773.894
 30
0.000000
  70
    32
  0
VERTEX
  8
図枠
  5
8B0
 10
117.024
 20
-773.934
 30
0.000000
  70
    32
  0
VERTEX
  8
図枠
  5
8B1
 10
117.070
 20
-773.975
 30
0.000000
  70
    32
  0
VERTEX
  8
図枠
  5
8B2
 10
117.115
 20
-774.015
 30
0.000000
  70
    32
  0
VERTEX
  8
図枠
  5
8B3
 10
117.161
 20
-774.056
 30
0.000000
  70
    32
  0
VERTEX
  8
図枠
  5
8B4
 10
117.207
 20
-774.096
 30
0.000000
  70
    32
  0
VERTEX
  8
図枠
  5
8B5
 10
117.252
 20
-774.136
 30
0.000000
  70
    32
  0
VERTEX
  8
図枠
  5
8B6
 10
117.298
 20
-774.176
 30
0.000000
  70
    32
  0
VERTEX
  8
図枠
  5
8B7
 10
117.344
 20
-774.216
 30
0.000000
  70
    32
  0
VERTEX
  8
図枠
  5
8B8
 10
117.390
 20
-774.257
 30
0.000000
  70
    32
  0
VERTEX
  8
図枠
  5
8B9
 10
117.435
 20
-774.297
 30
0.000000
  70
    32
  0
VERTEX
  8
図枠
  5
8BA
 10
117.481
 20
-774.337
 30
0.000000
  70
    32
  0
VERTEX
  8
図枠
  5
8BB
 10
117.527
 20
-774.377
 30
0.000000
  70
    32
  0
VERTEX
  8
図枠
  5
8BC
 10
117.573
 20
-774.417
 30
0.000000
  70
    32
  0
VERTEX
  8
図枠
  5
8BD
 10
117.619
 20
-774.457
 30
0.000000
  70
    32
  0
VERTEX
  8
図枠
  5
8BE
 10
117.665
 20
-774.496
 30
0.000000
  70
    32
  0
VERTEX
  8
図枠
  5
8BF
 10
117.711
 20
-774.536
 30
0.000000
  70
    32
  0
VERTEX
  8
図枠
  5
8C0
 10
117.757
 20
-774.576
 30
0.000000
  70
    32
  0
VERTEX
  8
図枠
  5
8C1
 10
117.803
 20
-774.615
 30
0.000000
  70
    32
  0
VERTEX
  8
図枠
  5
8C2
 10
117.849
 20
-774.655
 30
0.000000
  70
    32
  0
VERTEX
  8
図枠
  5
8C3
 10
117.895
 20
-774.695
 30
0.000000
  70
    32
  0
VERTEX
  8
図枠
  5
8C4
 10
117.941
 20
-774.734
 30
0.000000
  70
    32
  0
VERTEX
  8
図枠
  5
8C5
 10
117.987
 20
-774.773
 30
0.000000
  70
    32
  0
VERTEX
  8
図枠
  5
8C6
 10
118.033
 20
-774.813
 30
0.000000
  70
    32
  0
VERTEX
  8
図枠
  5
8C7
 10
118.080
 20
-774.852
 30
0.000000
  70
    32
  0
VERTEX
  8
図枠
  5
8C8
 10
118.126
 20
-774.891
 30
0.000000
  70
    32
  0
VERTEX
  8
図枠
  5
8C9
 10
118.172
 20
-774.931
 30
0.000000
  70
    32
  0
VERTEX
  8
図枠
  5
8CA
 10
118.218
 20
-774.970
 30
0.000000
  70
    32
  0
VERTEX
  8
図枠
  5
8CB
 10
118.265
 20
-775.009
 30
0.000000
  70
    32
  0
VERTEX
  8
図枠
  5
8CC
 10
118.311
 20
-775.048
 30
0.000000
  70
    32
  0
VERTEX
  8
図枠
  5
8CD
 10
118.358
 20
-775.087
 30
0.000000
  70
    32
  0
VERTEX
  8
図枠
  5
8CE
 10
118.404
 20
-775.125
 30
0.000000
  70
    32
  0
VERTEX
  8
図枠
  5
8CF
 10
118.451
 20
-775.164
 30
0.000000
  70
    32
  0
VERTEX
  8
図枠
  5
8D0
 10
118.497
 20
-775.203
 30
0.000000
  70
    32
  0
VERTEX
  8
図枠
  5
8D1
 10
118.544
 20
-775.242
 30
0.000000
  70
    32
  0
VERTEX
  8
図枠
  5
8D2
 10
118.590
 20
-775.280
 30
0.000000
  70
    32
  0
VERTEX
  8
図枠
  5
8D3
 10
118.637
 20
-775.319
 30
0.000000
  70
    32
  0
VERTEX
  8
図枠
  5
8D4
 10
118.684
 20
-775.357
 30
0.000000
  70
    32
  0
VERTEX
  8
図枠
  5
8D5
 10
118.730
 20
-775.395
 30
0.000000
  70
    32
  0
VERTEX
  8
図枠
  5
8D6
 10
118.777
 20
-775.434
 30
0.000000
  70
    32
  0
VERTEX
  8
図枠
  5
8D7
 10
118.824
 20
-775.472
 30
0.000000
  70
    32
  0
VERTEX
  8
図枠
  5
8D8
 10
118.871
 20
-775.510
 30
0.000000
  70
    32
  0
VERTEX
  8
図枠
  5
8D9
 10
118.918
 20
-775.548
 30
0.000000
  70
    32
  0
VERTEX
  8
図枠
  5
8DA
 10
118.965
 20
-775.586
 30
0.000000
  70
    32
  0
VERTEX
  8
図枠
  5
8DB
 10
119.012
 20
-775.624
 30
0.000000
  70
    32
  0
VERTEX
  8
図枠
  5
8DC
 10
119.059
 20
-775.662
 30
0.000000
  70
    32
  0
VERTEX
  8
図枠
  5
8DD
 10
119.106
 20
-775.699
 30
0.000000
  70
    32
  0
VERTEX
  8
図枠
  5
8DE
 10
119.153
 20
-775.737
 30
0.000000
  70
    32
  0
VERTEX
  8
図枠
  5
8DF
 10
119.200
 20
-775.775
 30
0.000000
  70
    32
  0
VERTEX
  8
図枠
  5
8E0
 10
119.247
 20
-775.812
 30
0.000000
  70
    32
  0
VERTEX
  8
図枠
  5
8E1
 10
119.295
 20
-775.850
 30
0.000000
  70
    32
  0
VERTEX
  8
図枠
  5
8E2
 10
119.342
 20
-775.887
 30
0.000000
  70
    32
  0
VERTEX
  8
図枠
  5
8E3
 10
119.389
 20
-775.924
 30
0.000000
  70
    32
  0
VERTEX
  8
図枠
  5
8E4
 10
119.437
 20
-775.961
 30
0.000000
  70
    32
  0
VERTEX
  8
図枠
  5
8E5
 10
119.484
 20
-775.998
 30
0.000000
  70
    32
  0
VERTEX
  8
図枠
  5
8E6
 10
119.531
 20
-776.035
 30
0.000000
  70
    32
  0
VERTEX
  8
図枠
  5
8E7
 10
119.579
 20
-776.072
 30
0.000000
  70
    32
  0
VERTEX
  8
図枠
  5
8E8
 10
119.627
 20
-776.109
 30
0.000000
  70
    32
  0
VERTEX
  8
図枠
  5
8E9
 10
119.674
 20
-776.146
 30
0.000000
  70
    32
  0
VERTEX
  8
図枠
  5
8EA
 10
119.722
 20
-776.182
 30
0.000000
  70
    32
  0
VERTEX
  8
図枠
  5
8EB
 10
119.770
 20
-776.219
 30
0.000000
  70
    32
  0
VERTEX
  8
図枠
  5
8EC
 10
119.817
 20
-776.255
 30
0.000000
  70
    32
  0
VERTEX
  8
図枠
  5
8ED
 10
119.865
 20
-776.291
 30
0.000000
  70
    32
  0
VERTEX
  8
図枠
  5
8EE
 10
119.913
 20
-776.328
 30
0.000000
  70
    32
  0
VERTEX
  8
図枠
  5
8EF
 10
119.961
 20
-776.364
 30
0.000000
  70
    32
  0
VERTEX
  8
図枠
  5
8F0
 10
120.009
 20
-776.400
 30
0.000000
  70
    32
  0
VERTEX
  8
図枠
  5
8F1
 10
120.057
 20
-776.436
 30
0.000000
  70
    32
  0
VERTEX
  8
図枠
  5
8F2
 10
120.105
 20
-776.472
 30
0.000000
  70
    32
  0
VERTEX
  8
図枠
  5
8F3
 10
120.153
 20
-776.507
 30
0.000000
  70
    32
  0
VERTEX
  8
図枠
  5
8F4
 10
120.202
 20
-776.543
 30
0.000000
  70
    32
  0
VERTEX
  8
図枠
  5
8F5
 10
120.250
 20
-776.579
 30
0.000000
  70
    32
  0
VERTEX
  8
図枠
  5
8F6
 10
120.298
 20
-776.614
 30
0.000000
  70
    32
  0
VERTEX
  8
図枠
  5
8F7
 10
120.346
 20
-776.649
 30
0.000000
  70
    32
  0
VERTEX
  8
図枠
  5
8F8
 10
120.395
 20
-776.685
 30
0.000000
  70
    32
  0
VERTEX
  8
図枠
  5
8F9
 10
120.443
 20
-776.720
 30
0.000000
  70
    32
  0
VERTEX
  8
図枠
  5
8FA
 10
120.492
 20
-776.755
 30
0.000000
  70
    32
  0
VERTEX
  8
図枠
  5
8FB
 10
120.540
 20
-776.790
 30
0.000000
  70
    32
  0
VERTEX
  8
図枠
  5
8FC
 10
120.589
 20
-776.825
 30
0.000000
  70
    32
  0
VERTEX
  8
図枠
  5
8FD
 10
120.638
 20
-776.859
 30
0.000000
  70
    32
  0
VERTEX
  8
図枠
  5
8FE
 10
120.687
 20
-776.894
 30
0.000000
  70
    32
  0
VERTEX
  8
図枠
  5
8FF
 10
120.735
 20
-776.928
 30
0.000000
  70
    32
  0
VERTEX
  8
図枠
  5
900
 10
120.784
 20
-776.963
 30
0.000000
  70
    32
  0
VERTEX
  8
図枠
  5
901
 10
120.833
 20
-776.997
 30
0.000000
  70
    32
  0
VERTEX
  8
図枠
  5
902
 10
120.882
 20
-777.031
 30
0.000000
  70
    32
  0
VERTEX
  8
図枠
  5
903
 10
120.931
 20
-777.065
 30
0.000000
  70
    32
  0
VERTEX
  8
図枠
  5
904
 10
120.980
 20
-777.099
 30
0.000000
  70
    32
  0
VERTEX
  8
図枠
  5
905
 10
121.030
 20
-777.133
 30
0.000000
  70
    32
  0
VERTEX
  8
図枠
  5
906
 10
121.079
 20
-777.167
 30
0.000000
  70
    32
  0
VERTEX
  8
図枠
  5
907
 10
121.128
 20
-777.200
 30
0.000000
  70
    32
  0
VERTEX
  8
図枠
  5
908
 10
121.178
 20
-777.234
 30
0.000000
  70
    32
  0
VERTEX
  8
図枠
  5
909
 10
121.227
 20
-777.267
 30
0.000000
  70
    32
  0
VERTEX
  8
図枠
  5
90A
 10
121.277
 20
-777.300
 30
0.000000
  70
    32
  0
VERTEX
  8
図枠
  5
90B
 10
121.326
 20
-777.333
 30
0.000000
  70
    32
  0
VERTEX
  8
図枠
  5
90C
 10
121.376
 20
-777.366
 30
0.000000
  70
    32
  0
VERTEX
  8
図枠
  5
90D
 10
121.425
 20
-777.399
 30
0.000000
  70
    32
  0
VERTEX
  8
図枠
  5
90E
 10
121.475
 20
-777.432
 30
0.000000
  70
    32
  0
VERTEX
  8
図枠
  5
90F
 10
121.525
 20
-777.464
 30
0.000000
  70
    32
  0
VERTEX
  8
図枠
  5
910
 10
121.575
 20
-777.497
 30
0.000000
  70
    32
  0
VERTEX
  8
図枠
  5
911
 10
121.625
 20
-777.529
 30
0.000000
  70
    32
  0
VERTEX
  8
図枠
  5
912
 10
121.675
 20
-777.561
 30
0.000000
  70
    32
  0
VERTEX
  8
図枠
  5
913
 10
121.725
 20
-777.594
 30
0.000000
  70
    32
  0
VERTEX
  8
図枠
  5
914
 10
121.775
 20
-777.626
 30
0.000000
  70
    32
  0
VERTEX
  8
図枠
  5
915
 10
121.826
 20
-777.657
 30
0.000000
  70
    32
  0
VERTEX
  8
図枠
  5
916
 10
121.876
 20
-777.689
 30
0.000000
  70
    32
  0
VERTEX
  8
図枠
  5
917
 10
121.926
 20
-777.721
 30
0.000000
  70
    32
  0
VERTEX
  8
図枠
  5
918
 10
121.977
 20
-777.752
 30
0.000000
  70
    32
  0
VERTEX
  8
図枠
  5
919
 10
122.027
 20
-777.784
 30
0.000000
  70
    32
  0
VERTEX
  8
図枠
  5
91A
 10
122.078
 20
-777.815
 30
0.000000
  70
    32
  0
VERTEX
  8
図枠
  5
91B
 10
122.129
 20
-777.846
 30
0.000000
  70
    32
  0
VERTEX
  8
図枠
  5
91C
 10
122.179
 20
-777.877
 30
0.000000
  70
    32
  0
VERTEX
  8
図枠
  5
91D
 10
122.230
 20
-777.908
 30
0.000000
  70
    32
  0
VERTEX
  8
図枠
  5
91E
 10
122.281
 20
-777.938
 30
0.000000
  70
    32
  0
SEQEND
  8
図枠
  5
91F
  0
INSERT
  5
586
  8
0
  6
CONTINUOUS
  2
*U98
 10
0.0
 20
0.0
 30
0.0
  0
LINE
  5
587
  8
図枠
 10
148.7201256729
 20
-716.24854332320012
 30
0.0
 11
148.7201256729
 21
-722.24854332320012
 31
0.0
  0
LINE
  5
588
  8
図枠
 10
108.1569481144
 20
-770.30686090600011
 30
0.0
 11
108.1569481144
 21
-774.05686090600011
 31
0.0
  0
LINE
  5
589
  8
図枠
 10
148.7201256729
 20
-722.24854332320012
 30
0.0
 11
160.7201256729
 21
-725.24854332320012
 31
0.0
  0
LINE
  5
58A
  8
図枠
 10
114.8084632659
 20
-765.306860906
 30
0.0
 11
114.8084632659
 21
-769.80686090600011
 31
0.0
  0
ARC
  5
58B
  8
図枠
 10
96.906948114400009
 20
-775.30686090600011
 30
0.0
 40
7.5
 50
270.0
 51
0.0
  0
LINE
  5
58C
  8
図枠
 10
-10.994668106300001
 20
-705.49854332320012
 30
0.0
 11
-10.994668106300001
 21
-787.99854332320012
 31
0.0
  0
INSERT
  5
58D
  8
0
  6
CONTINUOUS
  2
*U99
 10
0.0
 20
0.0
 30
0.0
  0
INSERT
  5
58E
  8
0
  6
CONTINUOUS
  2
*U100
 10
0.0
 20
0.0
 30
0.0
  0
INSERT
  5
58F
  8
0
  6
CONTINUOUS
  2
*U101
 10
0.0
 20
0.0
 30
0.0
  0
INSERT
  5
590
  8
0
  6
CONTINUOUS
  2
*U102
 10
0.0
 20
0.0
 30
0.0
  0
LINE
  5
591
  8
図枠
 10
82.755331893699989
 20
-732.99854332320012
 30
0.0
 11
82.755331893699989
 21
-760.49854332320012
 31
0.0
  0
LINE
  5
592
  8
図枠
 10
-10.994668106300001
 20
-760.49854332320012
 30
0.0
 11
351.50533189369997
 21
-760.49854332320012
 31
0.0
  0
LINE
  5
593
  8
図枠
 10
-4.7446681062999989
 20
-746.74854332320012
 30
0.0
 11
76.505331893700003
 21
-746.74854332320012
 31
0.0
  0
LINE
  5
594
  8
図枠
 10
89.005331893699989
 20
-746.74854332320012
 30
0.0
 11
170.2553318937
 21
-746.74854332320012
 31
0.0
  0
INSERT
  5
595
  8
0
  6
CONTINUOUS
  2
*U103
 10
0.0
 20
0.0
 30
0.0
  0
INSERT
  5
596
  8
0
  6
CONTINUOUS
  2
*U104
 10
0.0
 20
0.0
 30
0.0
  0
LINE
  5
597
  8
図枠
 10
11.505331893699999
 20
-692.99854332320012
 30
0.0
 11
11.505331893699999
 21
-680.4985433231999
 31
0.0
  0
LINE
  5
598
  8
図枠
 10
-10.994668106300001
 20
-692.99854332320012
 30
0.0
 11
-10.994668106300001
 21
-680.4985433231999
 31
0.0
  0
LINE
  5
599
  8
図枠
 10
274.00533189369997
 20
-692.99854332320012
 30
0.0
 11
274.00533189369997
 21
-680.4985433231999
 31
0.0
  0
LINE
  5
59A
  8
図枠
 10
251.5053318937
 20
-692.99854332320012
 30
0.0
 11
251.5053318937
 21
-680.4985433231999
 31
0.0
  0
LINE
  5
59B
  8
図枠
 10
351.50533189369997
 20
-680.4985433231999
 30
0.0
 11
-10.994668106300001
 21
-680.4985433231999
 31
0.0
  0
LINE
  5
59C
  8
図枠
 10
-10.994668106300001
 20
-692.99854332320012
 30
0.0
 11
351.50533189369997
 21
-692.99854332320012
 31
0.0
  0
LINE
  5
59D
  8
図枠
 10
136.5053318937
 20
-692.99854332320012
 30
0.0
 11
136.5053318937
 21
-680.4985433231999
 31
0.0
  0
INSERT
  5
59E
  8
0
  6
CONTINUOUS
  2
*U105
 10
0.0
 20
0.0
 30
0.0
  0
INSERT
  5
59F
  8
0
  6
CONTINUOUS
  2
*U106
 10
0.0
 20
0.0
 30
0.0
  0
CIRCLE
  5
5A0
  8
図枠
 10
135.0053318937
 20
-719.24854332320001
 30
0.0
 40
3.0
  0
LINE
  5
5A1
  8
図枠
 10
148.7201256729
 20
-722.24854332320012
 30
0.0
 11
160.7201256729
 21
-725.24854332320012
 31
0.0
  0
LINE
  5
5A2
  8
図枠
 10
148.7201256729
 20
-716.24854332320012
 30
0.0
 11
148.7201256729
 21
-722.24854332320012
 31
0.0
  0
LINE
  5
5A3
  8
図枠
 10
160.7201256729
 20
-713.24854332320012
 30
0.0
 11
160.7201256729
 21
-725.24854332320012
 31
0.0
  0
LINE
  5
5A4
  8
図枠
  6
BORDER
 10
135.0053318937
 20
-710.24854332320012
 30
0.0
 11
135.0053318937
 21
-728.24854332320012
 31
0.0
  0
LINE
  5
5A5
  8
図枠
  6
BORDER
 10
135.0053318937
 20
-710.24854332320012
 30
0.0
 11
135.0053318937
 21
-728.24854332320012
 31
0.0
  0
LINE
  5
5A6
  8
図枠
 10
160.7201256729
 20
-713.24854332320012
 30
0.0
 11
160.7201256729
 21
-725.24854332320012
 31
0.0
  0
LINE
  5
5A7
  8
図枠
 10
148.7201256729
 20
-716.24854332320012
 30
0.0
 11
148.7201256729
 21
-722.24854332320012
 31
0.0
  0
LINE
  5
5A8
  8
図枠
 10
148.7201256729
 20
-722.24854332320012
 30
0.0
 11
160.7201256729
 21
-725.24854332320012
 31
0.0
  0
LINE
  5
5A9
  8
図枠
 10
148.7201256729
 20
-716.24854332320012
 30
0.0
 11
160.7201256729
 21
-713.24854332320012
 31
0.0
  0
CIRCLE
  5
5AA
  8
図枠
 10
135.0053318937
 20
-719.24854332320001
 30
0.0
 40
6.0
  0
CIRCLE
  5
5AB
  8
図枠
 10
135.0053318937
 20
-719.24854332320001
 30
0.0
 40
3.0
  0
CIRCLE
  5
5AC
  8
図枠
 10
135.0053318937
 20
-719.24854332320001
 30
0.0
 40
6.0
  0
LINE
  5
5AD
  8
図枠
 10
148.7201256729
 20
-716.24854332320012
 30
0.0
 11
160.7201256729
 21
-713.24854332320012
 31
0.0
  0
ENDBLK
  5
5AE
  8
0
  0
BLOCK
  8
0
  2
*D50
 70
     1
 10
0.0
 20
0.0
 30
0.0
  3
*D50
  1

  0
TEXT
  5
5B1
  8
0
 62
     0
 10
-123.7020104155
 20
-443.63209653049989
 30
0.0
 40
8.2461809158000001
  1
6
 50
90.0
  0
LINE
  5
5B2
  8
0
 62
     0
 10
-153.04508540480001
 20
-444.20674920229999
 30
0.0
 11
-120.24680201859999
 21
-444.20674920229999
 31
0.0
  0
LINE
  5
5B3
  8
0
 62
     0
 10
-152.24508540479999
 20
-438.20674920229999
 30
0.0
 11
-120.24680201859999
 21
-438.20674920229999
 31
0.0
  0
LINE
  5
5B4
  8
0
 62
     0
 10
-121.24680201859999
 20
-444.20674920229999
 30
0.0
 11
-121.24680201859999
 21
-444.20674920229999
 31
0.0
  0
LINE
  5
5B5
  8
0
 62
     0
 10
-121.24680201859999
 20
-444.20674920229999
 30
0.0
 11
-121.24680201859999
 21
-438.20674920229999
 31
0.0
  0
LINE
  5
5B6
  8
0
 62
     0
 10
-121.24680201859999
 20
-438.20674920229999
 30
0.0
 11
-121.24680201859999
 21
-444.20674920229999
 31
0.0
  0
LINE
  5
5B7
  8
0
 62
     0
 10
-121.24680201859999
 20
-438.20674920229999
 30
0.0
 11
-121.24680201859999
 21
-438.20674920229999
 31
0.0
  0
LINE
  5
5B8
  8
0
 62
     0
 10
-121.24680201859999
 20
-438.20674920229999
 30
0.0
 11
-121.24680201859999
 21
-433.20674920229999
 31
0.0
  0
SOLID
  5
5B9
  8
0
 62
     0
 10
-121.24680201859999
 20
-438.20674920229999
 30
0.0
 11
-123.12180201859999
 21
-430.70674920229999
 31
0.0
 12
-119.37180201859999
 22
-430.70674920229999
 32
0.0
 13
-121.24680201859999
 23
-432.58174920229999
 33
0.0
  0
LINE
  5
5BA
  8
0
 62
     0
 10
-121.24680201859999
 20
-444.20674920229999
 30
0.0
 11
-121.24680201859999
 21
-449.20674920229999
 31
0.0
  0
SOLID
  5
5BB
  8
0
 62
     0
 10
-121.24680201859999
 20
-444.20674920229999
 30
0.0
 11
-119.37180201859999
 21
-451.70674920229999
 31
0.0
 12
-123.12180201859999
 22
-451.70674920229999
 32
0.0
 13
-121.24680201859999
 23
-449.83174920229999
 33
0.0
  0
ENDBLK
  5
5BC
  8
0
  0
BLOCK
  8
0
  2
*D51
 70
     1
 10
0.0
 20
0.0
 30
0.0
  3
*D51
  1

  0
TEXT
  5
5C0
  8
0
 62
     0
 10
-123.7020104155
 20
-419.63209653050001
 30
0.0
 40
8.2461809158000001
  1
6
 50
90.0
  0
LINE
  5
5C1
  8
0
 62
     0
 10
-152.24508540479999
 20
-420.20674920229999
 30
0.0
 11
-120.24680201859999
 21
-420.20674920229999
 31
0.0
  0
LINE
  5
5C2
  8
0
 62
     0
 10
-153.04508540480001
 20
-414.20674920229999
 30
0.0
 11
-120.24680201859999
 21
-414.20674920229999
 31
0.0
  0
LINE
  5
5C3
  8
0
 62
     0
 10
-121.24680201859999
 20
-420.20674920229999
 30
0.0
 11
-121.24680201859999
 21
-420.20674920229999
 31
0.0
  0
LINE
  5
5C4
  8
0
 62
     0
 10
-121.24680201859999
 20
-420.20674920229999
 30
0.0
 11
-121.24680201859999
 21
-414.20674920229999
 31
0.0
  0
LINE
  5
5C5
  8
0
 62
     0
 10
-121.24680201859999
 20
-414.20674920229999
 30
0.0
 11
-121.24680201859999
 21
-420.20674920229999
 31
0.0
  0
LINE
  5
5C6
  8
0
 62
     0
 10
-121.24680201859999
 20
-414.20674920229999
 30
0.0
 11
-121.24680201859999
 21
-414.20674920229999
 31
0.0
  0
LINE
  5
5C7
  8
0
 62
     0
 10
-121.24680201859999
 20
-414.20674920229999
 30
0.0
 11
-121.24680201859999
 21
-409.20674920229999
 31
0.0
  0
SOLID
  5
5C8
  8
0
 62
     0
 10
-121.24680201859999
 20
-414.20674920229999
 30
0.0
 11
-123.12180201859999
 21
-406.70674920229999
 31
0.0
 12
-119.37180201859999
 22
-406.70674920229999
 32
0.0
 13
-121.24680201859999
 23
-408.58174920229999
 33
0.0
  0
LINE
  5
5C9
  8
0
 62
     0
 10
-121.24680201859999
 20
-420.20674920229999
 30
0.0
 11
-121.24680201859999
 21
-425.20674920229999
 31
0.0
  0
SOLID
  5
5CA
  8
0
 62
     0
 10
-121.24680201859999
 20
-420.20674920229999
 30
0.0
 11
-119.37180201859999
 21
-427.70674920229999
 31
0.0
 12
-123.12180201859999
 22
-427.70674920229999
 32
0.0
 13
-121.24680201859999
 23
-425.83174920229999
 33
0.0
  0
ENDBLK
  5
5CB
  8
0
  0
BLOCK
  8
0
  2
*D52
 70
     1
 10
0.0
 20
0.0
 30
0.0
  3
*D52
  1

  0
TEXT
  5
5CF
  8
0
 62
     0
 10
-98.537272714100013
 20
-282.35391224210002
 30
0.0
 40
8.2461809158000001
  1
198
 50
90.0
  0
LINE
  5
5D0
  8
0
 62
     0
 10
-152.24508540479999
 20
-374.07787025750002
 30
0.0
 11
-95.082064317199993
 21
-374.07787025750002
 31
0.0
  0
LINE
  5
5D1
  8
0
 62
     0
 10
-152.24508540479999
 20
-176.0778702575
 30
0.0
 11
-95.082064317199993
 21
-176.0778702575
 31
0.0
  0
LINE
  5
5D2
  8
0
 62
     0
 10
-96.082064317199993
 20
-374.07787025750002
 30
0.0
 11
-96.082064317199993
 21
-262.95113361659998
 31
0.0
  0
LINE
  5
5D3
  8
0
 62
     0
 10
-96.082064317199993
 20
-374.07787025750002
 30
0.0
 11
-96.082064317199993
 21
-287.2046068985
 31
0.0
  0
LINE
  5
5D4
  8
0
 62
     0
 10
-96.082064317199993
 20
-176.0778702575
 30
0.0
 11
-96.082064317199993
 21
-262.95113361659998
 31
0.0
  0
LINE
  5
5D5
  8
0
 62
     0
 10
-96.082064317199993
 20
-176.0778702575
 30
0.0
 11
-96.082064317199993
 21
-287.2046068985
 31
0.0
  0
LINE
  5
5D6
  8
0
 62
     0
 10
-96.082064317199993
 20
-176.0778702575
 30
0.0
 11
-96.082064317199993
 21
-181.0778702575
 31
0.0
  0
SOLID
  5
5D7
  8
0
 62
     0
 10
-96.082064317199993
 20
-176.0778702575
 30
0.0
 11
-94.207064317199993
 21
-183.5778702575
 31
0.0
 12
-97.957064317199993
 22
-183.5778702575
 32
0.0
 13
-96.082064317199993
 23
-181.7028702575
 33
0.0
  0
LINE
  5
5D8
  8
0
 62
     0
 10
-96.082064317199993
 20
-374.07787025750002
 30
0.0
 11
-96.082064317199993
 21
-369.07787025750002
 31
0.0
  0
SOLID
  5
5D9
  8
0
 62
     0
 10
-96.082064317199993
 20
-374.07787025750002
 30
0.0
 11
-97.957064317199993
 21
-366.57787025750002
 31
0.0
 12
-94.207064317199993
 22
-366.57787025750002
 32
0.0
 13
-96.082064317199993
 23
-368.45287025750002
 33
0.0
  0
ENDBLK
  5
5DA
  8
0
  0
BLOCK
  8
0
  2
*D53
 70
     1
 10
0.0
 20
0.0
 30
0.0
  3
*D53
  1

  0
TEXT
  5
5DE
  8
0
 62
     0
 10
-113.85949637740001
 20
-282.35391224210002
 30
0.0
 40
8.2461809158000001
  1
180
 50
90.0
  0
LINE
  5
5DF
  8
0
 62
     0
 10
-161.24508540479999
 20
-185.0778702575
 30
0.0
 11
-110.4042879805
 21
-185.0778702575
 31
0.0
  0
LINE
  5
5E0
  8
0
 62
     0
 10
-161.24508540479999
 20
-365.07787025750002
 30
0.0
 11
-110.4042879805
 21
-365.07787025750002
 31
0.0
  0
LINE
  5
5E1
  8
0
 62
     0
 10
-111.4042879805
 20
-185.0778702575
 30
0.0
 11
-111.4042879805
 21
-262.95113361659998
 31
0.0
  0
LINE
  5
5E2
  8
0
 62
     0
 10
-111.4042879805
 20
-185.0778702575
 30
0.0
 11
-111.4042879805
 21
-287.2046068985
 31
0.0
  0
LINE
  5
5E3
  8
0
 62
     0
 10
-111.4042879805
 20
-365.07787025750002
 30
0.0
 11
-111.4042879805
 21
-262.95113361659998
 31
0.0
  0
LINE
  5
5E4
  8
0
 62
     0
 10
-111.4042879805
 20
-365.07787025750002
 30
0.0
 11
-111.4042879805
 21
-287.2046068985
 31
0.0
  0
LINE
  5
5E5
  8
0
 62
     0
 10
-111.4042879805
 20
-365.07787025750002
 30
0.0
 11
-111.4042879805
 21
-360.07787025750002
 31
0.0
  0
SOLID
  5
5E6
  8
0
 62
     0
 10
-111.4042879805
 20
-365.07787025750002
 30
0.0
 11
-113.2792879805
 21
-357.57787025750002
 31
0.0
 12
-109.5292879805
 22
-357.57787025750002
 32
0.0
 13
-111.4042879805
 23
-359.45287025750002
 33
0.0
  0
LINE
  5
5E7
  8
0
 62
     0
 10
-111.4042879805
 20
-185.0778702575
 30
0.0
 11
-111.4042879805
 21
-190.0778702575
 31
0.0
  0
SOLID
  5
5E8
  8
0
 62
     0
 10
-111.4042879805
 20
-185.0778702575
 30
0.0
 11
-109.5292879805
 21
-192.5778702575
 31
0.0
 12
-113.2792879805
 22
-192.5778702575
 32
0.0
 13
-111.4042879805
 23
-190.7028702575
 33
0.0
  0
ENDBLK
  5
5E9
  8
0
  0
BLOCK
  8
0
  2
*D54
 70
     1
 10
0.0
 20
0.0
 30
0.0
  3
*D54
  1

  0
TEXT
  5
5ED
  8
0
 62
     0
 10
-113.85949637740001
 20
-372.00321758569999
 30
0.0
 40
8.2461809158000001
  1
9
 50
90.0
  0
LINE
  5
5EE
  8
0
 62
     0
 10
-152.24508540479999
 20
-374.07787025750002
 30
0.0
 11
-110.4042879805
 21
-374.07787025750002
 31
0.0
  0
LINE
  5
5EF
  8
0
 62
     0
 10
-161.24508540479999
 20
-365.07787025750002
 30
0.0
 11
-110.4042879805
 21
-365.07787025750002
 31
0.0
  0
LINE
  5
5F0
  8
0
 62
     0
 10
-111.4042879805
 20
-374.07787025750002
 30
0.0
 11
-111.4042879805
 21
-374.07787025750002
 31
0.0
  0
LINE
  5
5F1
  8
0
 62
     0
 10
-111.4042879805
 20
-374.07787025750002
 30
0.0
 11
-111.4042879805
 21
-365.07787025750002
 31
0.0
  0
LINE
  5
5F2
  8
0
 62
     0
 10
-111.4042879805
 20
-365.07787025750002
 30
0.0
 11
-111.4042879805
 21
-374.07787025750002
 31
0.0
  0
LINE
  5
5F3
  8
0
 62
     0
 10
-111.4042879805
 20
-365.07787025750002
 30
0.0
 11
-111.4042879805
 21
-365.07787025750002
 31
0.0
  0
LINE
  5
5F4
  8
0
 62
     0
 10
-111.4042879805
 20
-365.07787025750002
 30
0.0
 11
-111.4042879805
 21
-360.07787025750002
 31
0.0
  0
SOLID
  5
5F5
  8
0
 62
     0
 10
-111.4042879805
 20
-365.07787025750002
 30
0.0
 11
-113.2792879805
 21
-357.57787025750002
 31
0.0
 12
-109.5292879805
 22
-357.57787025750002
 32
0.0
 13
-111.4042879805
 23
-359.45287025750002
 33
0.0
  0
LINE
  5
5F6
  8
0
 62
     0
 10
-111.4042879805
 20
-374.07787025750002
 30
0.0
 11
-111.4042879805
 21
-379.07787025750002
 31
0.0
  0
SOLID
  5
5F7
  8
0
 62
     0
 10
-111.4042879805
 20
-374.07787025750002
 30
0.0
 11
-109.5292879805
 21
-381.57787025750002
 31
0.0
 12
-113.2792879805
 22
-381.57787025750002
 32
0.0
 13
-111.4042879805
 23
-379.70287025750002
 33
0.0
  0
ENDBLK
  5
5F8
  8
0
  0
BLOCK
  8
0
  2
*U55
 70
     1
 10
0.0
 20
0.0
 30
0.0
  3
*U55
  1

  0
TEXT
  5
625
  8
改訂
  6
CONTINUOUS
 10
190.78401282075779
 20
-109.5266682219
 30
0.0
 40
6.7468748986999989
  1
**********************
  0
ENDBLK
  5
627
  8
0
  0
BLOCK
  8
0
  2
*U56
 70
     1
 10
0.0
 20
0.0
 30
0.0
  3
*U56
  1

  0
TEXT
  5
629
  8
改訂
  6
CONTINUOUS
 10
306.36800650075531
 20
-109.5329182219
 30
0.0
 40
6.7468748986999989
  1
＊＊
  0
ENDBLK
  5
62B
  8
0
  0
BLOCK
  8
0
  2
*U57
 70
     1
 10
0.0
 20
0.0
 30
0.0
  3
*U57
  1

  0
TEXT
  5
62D
  8
ﾚｲﾔ_1
  6
CONTINUOUS
 10
-38.3576797877
 20
-424.68866998248529
 30
0.0
 40
7.4965279578999988
  1
（浅型）
  0
ENDBLK
  5
62F
  8
0
  0
BLOCK
  8
0
  2
*U58
 70
     1
 10
0.0
 20
0.0
 30
0.0
  3
*U58
  1

  0
TEXT
  5
631
  8
改訂
  6
CONTINUOUS
 10
136.65856030082361
 20
-109.5329182219
 30
0.0
 40
6.7468748986999989
  1
H**.**.**
  0
ENDBLK
  5
633
  8
0
  0
BLOCK
  8
0
  2
*U59
 70
     1
 10
0.0
 20
0.0
 30
0.0
  3
*U59
  1

  0
TEXT
  5
635
  8
改訂
  6
CONTINUOUS
 10
124.03084148279621
 20
-111.0438988901
 30
0.0
 40
6.7468749188999988
  1
1
  0
ENDBLK
  5
637
  8
0
  0
BLOCK
  8
0
  2
*U60
 70
     1
 10
0.0
 20
0.0
 30
0.0
  3
*U60
  1

  0
TEXT
  5
639
  8
図枠
  6
CONTINUOUS
 10
204.82585834806801
 20
-724.19747406607814
 30
0.0
 40
9.7454860209999996
  1
ハイとーる(浅型 ・深型 )
  0
ENDBLK
  5
63B
  8
0
  0
BLOCK
  8
0
  2
*U61
 70
     1
 10
0.0
 20
0.0
 30
0.0
  3
*U61
  1

  0
TEXT
  5
63D
  8
図枠
  6
CONTINUOUS
 10
248.5074022899106
 20
-751.69747406607814
 30
0.0
 40
9.7454860209999996
  1
FM20-40(D)
  0
ENDBLK
  5
63F
  8
0
  0
BLOCK
  8
0
  2
*U62
 70
     1
 10
0.0
 20
0.0
 30
0.0
  3
*U62
  1

  0
TEXT
  5
641
  8
図枠
  6
CONTINUOUS
 10
253.7511663418193
 20
-778.70277934420005
 30
0.0
 40
9.7454860209999996
  1
SHF00038
  0
ENDBLK
  5
643
  8
0
  0
BLOCK
  8
0
  2
*U63
 70
     1
 10
0.0
 20
0.0
 30
0.0
  3
*U63
  1

  0
TEXT
  5
645
  8
図枠
  6
CONTINUOUS
 10
167.3108441873604
 20
-677.33507087580006
 30
0.0
 40
7.496527552599999
  1
SUS304 0.8t
  0
ENDBLK
  5
647
  8
0
  0
BLOCK
  8
0
  2
*U64
 70
     1
 10
0.0
 20
0.0
 30
0.0
  3
*U64
  1

  0
TEXT
  5
649
  8
図枠
  6
CONTINUOUS
 10
260.35796521444212
 20
-677.33507087580006
 30
0.0
 40
7.496527552599999
  1
2
  0
ENDBLK
  5
64B
  8
0
  0
BLOCK
  8
0
  2
*U65
 70
     1
 10
0.0
 20
0.0
 30
0.0
  3
*U65
  1

  0
TEXT
  5
64D
  8
図枠
  6
CONTINUOUS
 10
260.79557976700499
 20
-652.33507087580006
 30
0.0
 40
7.496527552599999
  1
1
  0
ENDBLK
  5
64F
  8
0
  0
BLOCK
  8
0
  2
*U66
 70
     1
 10
0.0
 20
0.0
 30
0.0
  3
*U66
  1

  0
TEXT
  5
651
  8
図枠
  6
CONTINUOUS
 10
167.3108441873604
 20
-652.33507087580006
 30
0.0
 40
7.496527552599999
  1
SUS304 2.0t
  0
ENDBLK
  5
653
  8
0
  0
BLOCK
  8
0
  2
*U67
 70
     1
 10
0.0
 20
0.0
 30
0.0
  3
*U67
  1

  0
TEXT
  5
655
  8
図枠
  6
CONTINUOUS
 10
260.35796521444212
 20
-664.83507087580006
 30
0.0
 40
7.496527552599999
  1
2
  0
ENDBLK
  5
657
  8
0
  0
BLOCK
  8
0
  2
*U68
 70
     1
 10
0.0
 20
0.0
 30
0.0
  3
*U68
  1

  0
TEXT
  5
659
  8
図枠
  6
CONTINUOUS
 10
167.3108441873604
 20
-664.83507087580006
 30
0.0
 40
7.496527552599999
  1
SUS304 0.8t
  0
ENDBLK
  5
65B
  8
0
  0
BLOCK
  8
0
  2
*U69
 70
     1
 10
0.0
 20
0.0
 30
0.0
  3
*U69
  1

  0
TEXT
  5
65D
  8
図枠
  6
CONTINUOUS
 10
-2.1039813462045678
 20
-652.33507087580006
 30
0.0
 40
7.496527552599999
  1
3
  0
ENDBLK
  5
65F
  8
0
  0
BLOCK
  8
0
  2
*U70
 70
     1
 10
0.0
 20
0.0
 30
0.0
  3
*U70
  1

  0
TEXT
  5
661
  8
図枠
  6
CONTINUOUS
 10
-1.704420232994923
 20
-677.33507087580006
 30
0.0
 40
7.496527552599999
  1
1
  0
ENDBLK
  5
663
  8
0
  0
BLOCK
  8
0
  2
*U71
 70
     1
 10
0.0
 20
0.0
 30
0.0
  3
*U71
  1

  0
TEXT
  5
665
  8
図枠
  6
CONTINUOUS
 10
-2.142034785557867
 20
-664.83507087580006
 30
0.0
 40
7.496527552599999
  1
2
  0
ENDBLK
  5
667
  8
0
  0
BLOCK
  8
0
  2
*U72
 70
     1
 10
0.0
 20
0.0
 30
0.0
  3
*U72
  1

  0
TEXT
  5
669
  8
図枠
  6
CONTINUOUS
 10
5.7379447804162442
 20
-729.28708120930003
 30
0.0
 40
7.496527552599999
  1
H09.07
  0
ENDBLK
  5
66B
  8
0
  0
BLOCK
  8
0
  2
*U73
 70
     1
 10
0.0
 20
0.0
 30
0.0
  3
*U73
  1

  0
TEXT
  5
66D
  8
図枠
  6
CONTINUOUS
 10
34.52887996909898
 20
-743.43775068298623
 30
0.0
 40
7.496527552599999
  1
白須賀
  0
ENDBLK
  5
66F
  8
0
  0
BLOCK
  8
0
  2
*U74
 70
     1
 10
0.0
 20
0.0
 30
0.0
  3
*U74
  1

  0
TEXT
  5
671
  8
図枠
  6
CONTINUOUS
 10
34.52887996909898
 20
-757.18775068298623
 30
0.0
 40
7.496527552599999
  1
白須賀
  0
ENDBLK
  5
673
  8
0
  0
BLOCK
  8
0
  2
*U75
 70
     1
 10
0.0
 20
0.0
 30
0.0
  3
*U75
  1

  0
TEXT
  5
675
  8
ﾚｲﾔ_1
  6
CONTINUOUS
 10
-88.924864506500001
 20
-717.70926172454278
 30
0.0
 40
7.4965279578999988
  1
（深型）
  0
ENDBLK
  5
677
  8
0
  0
BLOCK
  8
0
  2
*U76
 70
     1
 10
0.0
 20
0.0
 30
0.0
  3
*U76
  1

  0
TEXT
  5
679
  8
ﾚｲﾔ_1
  6
CONTINUOUS
 10
-517.19468486756477
 20
-397.6788598654
 30
0.0
 40
8.2461809158000001
  1
1
  0
ENDBLK
  5
67B
  8
0
  0
BLOCK
  8
0
  2
*U77
 70
     1
 10
0.0
 20
0.0
 30
0.0
  3
*U77
  1

  0
TEXT
  5
67D
  8
ﾚｲﾔ_1
  6
CONTINUOUS
 10
-601.41288895765342
 20
-397.6788598654
 30
0.0
 40
8.2461809158000001
  1
2
  0
ENDBLK
  5
67F
  8
0
  0
BLOCK
  8
0
  2
*U78
 70
     1
 10
0.0
 20
0.0
 30
0.0
  3
*U78
  1

  0
TEXT
  5
681
  8
ﾚｲﾔ_1
  6
CONTINUOUS
 10
-464.54830972639871
 20
-504.95650781499592
 30
0.0
 40
7.4965279578999988
  1
38-小判穴
  0
ENDBLK
  5
683
  8
0
  0
BLOCK
  8
0
  2
*U79
 70
     1
 10
0.0
 20
0.0
 30
0.0
  3
*U79
  1

  0
TEXT
  5
685
  8
図枠
  6
CONTINUOUS
 10
69.857507004190353
 20
-664.83507087580006
 30
0.0
 40
7.496527552599999
  1
耳
  0
ENDBLK
  5
687
  8
0
  0
BLOCK
  8
0
  2
*U80
 70
     1
 10
0.0
 20
0.0
 30
0.0
  3
*U80
  1

  0
TEXT
  5
689
  8
図枠
  6
CONTINUOUS
 10
130.33376569417709
 20
-743.399697243633
 30
0.0
 40
7.496527552599999
  1
柳 原
  0
ENDBLK
  5
68B
  8
0
  0
BLOCK
  8
0
  2
*U81
 70
     1
 10
0.0
 20
0.0
 30
0.0
  3
*U81
  1

  0
TEXT
  5
68D
  8
図枠
  6
CONTINUOUS
 10
130.33376569417709
 20
-757.149697243633
 30
0.0
 40
7.496527552599999
  1
柳 原
  0
ENDBLK
  5
68F
  8
0
  0
BLOCK
  8
0
  2
*U82
 70
     1
 10
0.0
 20
0.0
 30
0.0
  3
*U82
  1

  0
TEXT
  5
691
  8
ﾚｲﾔ_1
  6
CONTINUOUS
 10
78.672593583199998
 20
-424.53645621684251
 30
0.0
 40
7.4965279578999988
  1
（深型）
  0
ENDBLK
  5
693
  8
0
  0
BLOCK
  8
0
  2
*U83
 70
     1
 10
0.0
 20
0.0
 30
0.0
  3
*U83
  1

  0
TEXT
  5
695
  8
ﾚｲﾔ_1
  6
CONTINUOUS
 10
-443.87399213065339
 20
-397.6788598654
 30
0.0
 40
8.2461809158000001
  1
3
  0
ENDBLK
  5
697
  8
0
  0
BLOCK
  8
0
  2
*U84
 70
     1
 10
0.0
 20
0.0
 30
0.0
  3
*U84
  1

  0
TEXT
  5
699
  8
図枠
  6
CONTINUOUS
 10
57.452085775014723
 20
-677.75365870868632
 30
0.0
 40
7.496527552599999
  1
本   体
  0
ENDBLK
  5
69B
  8
0
  0
BLOCK
  8
0
  2
*U85
 70
     1
 10
0.0
 20
0.0
 30
0.0
  3
*U85
  1

  0
TEXT
  5
69D
  8
図枠
  6
CONTINUOUS
 10
67.952543985266502
 20
-729.28708120930003
 30
0.0
 40
7.496527552599999
  1
1：2.5
  0
ENDBLK
  5
69F
  8
0
  0
BLOCK
  8
0
  2
*U86
 70
     1
 10
0.0
 20
0.0
 30
0.0
  3
*U86
  1

  0
TEXT
  5
6A1
  8
図枠
  6
CONTINUOUS
 10
55.910921481206088
 20
-652.71560526933308
 30
0.0
 40
7.496527552599999
  1
蓋(目皿)
  0
ENDBLK
  5
6A3
  8
0
  0
BLOCK
  8
0
  2
*U87
 70
     1
 10
0.0
 20
0.0
 30
0.0
  3
*U87
  1

  0
TEXT
  5
6A5
  8
図枠
  6
CONTINUOUS
 10
208.83275937717869
 20
-97.375399181224864
 30
0.0
 40
6.7468748986999989
  1
改　訂　内　容
  0
ENDBLK
  5
6A7
  8
0
  0
BLOCK
  8
0
  2
*U88
 70
     1
 10
0.0
 20
0.0
 30
0.0
  3
*U88
  1

  0
TEXT
  5
6A9
  8
図枠
  6
CONTINUOUS
 10
143.64517187105099
 20
-97.306902989359884
 30
0.0
 40
6.7468748986999989
  1
改訂日
  0
ENDBLK
  5
6AB
  8
0
  0
BLOCK
  8
0
  2
*U89
 70
     1
 10
0.0
 20
0.0
 30
0.0
  3
*U89
  1

  0
TEXT
  5
6AD
  8
図枠
  6
CONTINUOUS
 10
118.0631762463419
 20
-97.238406797494932
 30
0.0
 40
6.7468748986999989
  1
副番
  0
ENDBLK
  5
6AF
  8
0
  0
BLOCK
  8
0
  2
*U90
 70
     1
 10
0.0
 20
0.0
 30
0.0
  3
*U90
  1

  0
TEXT
  5
6B1
  8
図枠
  6
CONTINUOUS
 10
2.6049242355999991
 20
-780.55866789770926
 30
0.0
 40
13.4937497973
  1
株式会社
  0
ENDBLK
  5
6B3
  8
0
  0
BLOCK
  8
0
  2
*U91
 70
     1
 10
0.0
 20
0.0
 30
0.0
  3
*U91
  1

  0
TEXT
  5
6B5
  8
図枠
  6
CONTINUOUS
 10
326.40203259054459
 20
-97.409647277157333
 30
0.0
 40
6.7468748986999989
  1
検認者
  0
ENDBLK
  5
6B7
  8
0
  0
BLOCK
  8
0
  2
*U92
 70
     1
 10
0.0
 20
0.0
 30
0.0
  3
*U92
  1

  0
TEXT
  5
6B9
  8
図枠
  6
CONTINUOUS
 10
179.9180596106203
 20
-769.72339151191977
 30
0.0
 40
7.496527552599999
  1
図 番
  0
ENDBLK
  5
6BB
  8
0
  0
BLOCK
  8
0
  2
*U93
 70
     1
 10
0.0
 20
0.0
 30
0.0
  3
*U93
  1

  0
TEXT
  5
6BD
  8
図枠
  6
CONTINUOUS
 10
177.31139901491929
 20
-714.87560526933316
 30
0.0
 40
7.496527552599999
  1
製品名
  0
ENDBLK
  5
6BF
  8
0
  0
BLOCK
  8
0
  2
*U94
 70
     1
 10
0.0
 20
0.0
 30
0.0
  3
*U94
  1

  0
TEXT
  5
6C1
  8
図枠
  6
CONTINUOUS
 10
177.52069293136239
 20
-742.29949839062635
 30
0.0
 40
7.496527552599999
  1
図面名
  0
ENDBLK
  5
6C3
  8
0
  0
BLOCK
  8
0
  2
*U95
 70
     1
 10
0.0
 20
0.0
 30
0.0
  3
*U95
  1

  0
TEXT
  5
6C5
  8
図枠
  6
CONTINUOUS
 10
2.0087077237928912
 20
-715.67137660751314
 30
0.0
 40
7.496527552599999
  1
日　　付
  0
ENDBLK
  5
6C7
  8
0
  0
BLOCK
  8
0
  2
*U96
 70
     1
 10
0.0
 20
0.0
 30
0.0
  3
*U96
  1

  0
TEXT
  5
6C9
  8
図枠
  6
CONTINUOUS
 10
63.70958549737361
 20
-715.89969724363289
 30
0.0
 40
7.496527552599999
  1
尺　　度
  0
ENDBLK
  5
6CB
  8
0
  0
BLOCK
  8
0
  2
*U97
 70
     1
 10
0.0
 20
0.0
 30
0.0
  3
*U97
  1

  0
TEXT
  5
6CD
  8
図枠
  6
CONTINUOUS
 10
301.50477687834211
 20
-97.375399181224864
 30
0.0
 40
6.7468748986999989
  1
改訂者
  0
ENDBLK
  5
6CF
  8
0
  0
BLOCK
  8
0
  2
*U98
 70
     1
 10
0.0
 20
0.0
 30
0.0
  3
*U98
  1

  0
TEXT
  5
6D1
  8
図枠
  6
CONTINUOUS
 10
-8.8774935510918773
 20
-690.0633915119198
 30
0.0
 40
7.496527552599999
  1
品番
  0
ENDBLK
  5
6D3
  8
0
  0
BLOCK
  8
0
  2
*U99
 70
     1
 10
0.0
 20
0.0
 30
0.0
  3
*U99
  1

  0
TEXT
  5
6D5
  8
図枠
  6
CONTINUOUS
 10
-10.994668106300001
 20
-757.149697243633
 30
0.0
 40
7.496527552599999
  1
 製図
  0
ENDBLK
  5
6D7
  8
0
  0
BLOCK
  8
0
  2
*U100
 70
     1
 10
0.0
 20
0.0
 30
0.0
  3
*U100
  1

  0
TEXT
  5
6D9
  8
図枠
  6
CONTINUOUS
 10
-10.994668106300001
 20
-743.32359036492619
 30
0.0
 40
7.496527552599999
  1
 設計
  0
ENDBLK
  5
6DB
  8
0
  0
BLOCK
  8
0
  2
*U101
 70
     1
 10
0.0
 20
0.0
 30
0.0
  3
*U101
  1

  0
TEXT
  5
6DD
  8
図枠
  6
CONTINUOUS
 10
82.755331893699989
 20
-757.18775068298623
 30
0.0
 40
7.496527552599999
  1
 検図
  0
ENDBLK
  5
6DF
  8
0
  0
BLOCK
  8
0
  2
*U102
 70
     1
 10
0.0
 20
0.0
 30
0.0
  3
*U102
  1

  0
TEXT
  5
6E1
  8
図枠
  6
CONTINUOUS
 10
82.755331893699989
 20
-743.36164380427965
 30
0.0
 40
7.496527552599999
  1
 照査
  0
ENDBLK
  5
6E3
  8
0
  0
BLOCK
  8
0
  2
*U103
 70
     1
 10
0.0
 20
0.0
 30
0.0
  3
*U103
  1

  0
TEXT
  5
6E5
  8
図枠
  6
CONTINUOUS
 10
253.37515909311171
 20
-690.21560526933308
 30
0.0
 40
7.496527552599999
  1
数量
  0
ENDBLK
  5
6E7
  8
0
  0
BLOCK
  8
0
  2
*U104
 70
     1
 10
0.0
 20
0.0
 30
0.0
  3
*U104
  1

  0
TEXT
  5
6E9
  8
図枠
  6
CONTINUOUS
 10
289.65689420624722
 20
-690.32976558739279
 30
0.0
 40
7.496527552599999
  1
備　　　考
  0
ENDBLK
  5
6EB
  8
0
  0
BLOCK
  8
0
  2
*U105
 70
     1
 10
0.0
 20
0.0
 30
0.0
  3
*U105
  1

  0
TEXT
  5
6ED
  8
図枠
  6
CONTINUOUS
 10
170.01263838144459
 20
-690.10144495127315
 30
0.0
 40
7.496527552599999
  1
材　　　質
  0
ENDBLK
  5
6EF
  8
0
  0
BLOCK
  8
0
  2
*U106
 70
     1
 10
0.0
 20
0.0
 30
0.0
  3
*U106
  1

  0
TEXT
  5
6F1
  8
図枠
  6
CONTINUOUS
 10
50.298039176594422
 20
-690.13949839062627
 30
0.0
 40
7.496527552599999
  1
品　　　名
  0
ENDBLK
  5
6F3
  8
0
  0
BLOCK
  8
0
  2
*U107
 70
     1
 10
0.0
 20
0.0
 30
0.0
  3
*U107
  1

  0
TEXT
  5
6F5
  8
ﾚｲﾔ_1
  6
CONTINUOUS
 10
-150.63438194290001
 20
-717.8614754901854
 30
0.0
 40
7.4965279578999988
  1
（浅型）
  0
ENDBLK
  5
6F7
  8
0
  0
ENDSEC
  0
SECTION
  2
ENTITIES
  0
DIMENSION
  5
3E
  8
寸法線
  2
*D0
 10
146.23006534850001
 20
-190.07834161170001
 30
0.0
 11
146.23006534850001
 21
-183.0783416116999
 31
0.0
 70
   128
  1
14
 13
124.8151540783
 23
-190.07834161170001
 33
0.0
 14
124.8151540783
 24
-176.07834161170001
 34
0.0
 50
90.0
  0
INSERT
  5
40
  8
0
  6
CONTINUOUS
  2
*U55
 10
0.0
 20
0.0
 30
0.0
  0
INSERT
  5
41
  8
0
  6
CONTINUOUS
  2
*U56
 10
0.0
 20
0.0
 30
0.0
  0
INSERT
  5
44
  8
ﾚｲﾔ_1
  6
BORDER
 62
     5
  2
CLUMP0
 10
0.0
 20
0.0
 30
0.0
  0
LINE
  5
61
  8
ﾚｲﾔ_1
 62
     5
 10
73.815154078299997
 20
-362.57739890340002
 30
0.0
 11
94.815154078299997
 21
-362.57739890340002
 31
0.0
  0
ARC
  5
62
  8
ﾚｲﾔ_1
 62
     5
 10
73.815154078299997
 20
-362.57739890340002
 30
0.0
 40
2.0
 50
180.0
 51
270.0
  0
LINE
  5
63
  8
ﾚｲﾔ_1
 62
     5
 10
94.815154078299997
 20
-363.07739890340002
 30
0.0
 11
94.815154078299997
 21
-360.07739890340002
 31
0.0
  0
LINE
  5
64
  8
ﾚｲﾔ_1
 62
     5
 10
73.815154078299997
 20
-364.57739890340002
 30
0.0
 11
94.815154078299997
 21
-364.57739890340002
 31
0.0
  0
LINE
  5
65
  8
ﾚｲﾔ_1
 62
     5
 10
-34.6170721278
 20
-364.57739890340002
 30
0.0
 11
-22.617072484200001
 21
-364.57739890340002
 31
0.0
  0
INSERT
  5
66
  8
0
  6
CONTINUOUS
  2
*U57
 10
0.0
 20
0.0
 30
0.0
  0
DIMENSION
  5
75
  8
寸法線
  2
*D2
 10
94.815154078299997
 20
-153.96890748390001
 30
0.0
 11
82.315154078299997
 21
-153.96890748390001
 31
0.0
 70
   128
  1
<>
 13
94.815154078299997
 23
-185.07834161170001
 33
0.0
 14
69.815154078299983
 24
-176.07834161170001
 34
0.0
  0
LINE
  5
76
  8
ﾚｲﾔ_1
 62
     5
 10
94.815154078299997
 20
-185.07834161170001
 30
0.0
 11
94.815154078299997
 21
-185.57834161170001
 31
0.0
  0
LINE
  5
77
  8
ﾚｲﾔ_1
 62
     5
 10
73.815154078299997
 20
-185.57834161170001
 30
0.0
 11
94.815154078299997
 21
-185.57834161170001
 31
0.0
  0
LINE
  5
78
  8
ﾚｲﾔ_1
 62
     5
 10
94.815154078299997
 20
-187.07834161170001
 30
0.0
 11
94.815154078299997
 21
-190.07834161170001
 31
0.0
  0
ARC
  5
79
  8
ﾚｲﾔ_1
 62
     5
 10
73.815154078299997
 20
-187.57834161170001
 30
0.0
 40
2.0
 50
90.0
 51
180.0
  0
LINE
  5
7A
  8
ﾚｲﾔ_1
 62
     5
 10
73.815154078299997
 20
-187.57834161170001
 30
0.0
 11
94.815154078299997
 21
-187.57834161170001
 31
0.0
  0
DIMENSION
  5
89
  8
寸法線
  2
*D3
 10
-7.6170724841999986
 20
-139.66118400869999
 30
0.0
 11
-22.617072484200001
 21
-139.66118400869999
 31
0.0
 70
   128
  1
<>
 13
-7.6170724841999986
 23
-176.87787025750001
 33
0.0
 14
-37.617072484200001
 24
-176.87787025750001
 34
0.0
  0
DIMENSION
  5
98
  8
寸法線
  2
*D4
 10
-7.6170724841999986
 20
-154.1395546752
 30
0.0
 11
-15.1850687179
 21
-154.1395546752
 31
0.0
 70
   128
  1
<>
 13
-7.6170724841999986
 23
-176.87787025750001
 33
0.0
 14
-22.617072484200001
 24
-185.0778702575
 34
0.0
  0
DIMENSION
  5
A7
  8
寸法線
  2
*D5
 10
-22.617072484200001
 20
-154.1395546752
 30
0.0
 11
-30.357549062600011
 21
-154.1395546752
 31
0.0
 70
   128
  1
<>
 13
-22.617072484200001
 23
-185.0778702575
 33
0.0
 14
-37.617072484200001
 24
-176.87787025750001
 34
0.0
  0
LINE
  5
A8
  8
ﾚｲﾔ_1
 62
     5
 10
-34.617072484200001
 20
-185.57834161170001
 30
0.0
 11
-22.617072484200001
 21
-185.57834161170001
 31
0.0
  0
ARC
  5
A9
  8
ﾚｲﾔ_1
 62
     5
 10
-34.617072484200001
 20
-187.57834161170001
 30
0.0
 40
2.0
 50
90.0
 51
180.0000386554
  0
LINE
  5
AA
  8
ﾚｲﾔ_1
 62
     5
 10
-34.617072484200001
 20
-187.57834161170001
 30
0.0
 11
-22.617072484200001
 21
-187.57834161170001
 31
0.0
  0
LINE
  5
AB
  8
ﾚｲﾔ_1
 62
     5
 10
-34.117072484200001
 20
-187.57834161170001
 30
0.0
 11
-34.617072484200001
 21
-187.57834161170001
 31
0.0
  0
INSERT
  5
AD
  8
ﾚｲﾔ_1
  6
BORDER
 62
     5
  2
CLUMP1
 10
0.0
 20
0.0
 30
0.0
  0
DIMENSION
  5
D8
  8
寸法線
  2
*D7
 10
15.3683698681
 20
-191.5778702575
 30
0.0
 11
15.3683698681
 21
-158.3704212982
 31
0.0
 70
   128
  1
15.5
 13
-8.4170724842000002
 23
-191.5778702575
 33
0.0
 14
-8.4170724842000002
 24
-176.0778702575
 34
0.0
 50
90.0
  0
DIMENSION
  5
E7
  8
寸法線
  2
*D8
 10
146.23006534850001
 20
-374.07739890340002
 30
0.0
 11
146.23006534850001
 21
-367.07739890340002
 31
0.0
 70
   128
  1
14
 13
124.8151540783
 23
-374.07739890340002
 33
0.0
 14
124.8151540783
 24
-360.07739890340002
 34
0.0
 50
90.0
  0
INSERT
  5
E8
  8
0
  6
CONTINUOUS
  2
*U58
 10
0.0
 20
0.0
 30
0.0
  0
INSERT
  5
E9
  8
0
  6
CONTINUOUS
  2
*U59
 10
0.0
 20
0.0
 30
0.0
  0
DIMENSION
  5
F8
  8
寸法線
  2
*D9
 10
-61.838891428300002
 20
-492.90155832769989
 30
0.0
 11
-73.338891428300002
 21
-492.90155832769989
 31
0.0
 70
   128
  1
<>
 13
-61.838891428300002
 23
-514.98645441529993
 33
0.0
 14
-84.838891428299988
 24
-516.98645441529993
 34
0.0
  0
LINE
  5
F9
  8
ﾚｲﾔ_1
 62
     5
 10
-82.838891428300002
 20
-516.98645441529993
 30
0.0
 11
-61.838891428300002
 21
-516.98645441529993
 31
0.0
  0
LINE
  5
FA
  8
ﾚｲﾔ_1
 62
     5
 10
-82.838891428300002
 20
-514.98645441529993
 30
0.0
 11
-61.838891428300002
 21
-514.98645441529993
 31
0.0
  0
LINE
  5
FB
  8
ﾚｲﾔ_1
  6
BORDER
 62
     3
 10
-91.838891428300002
 20
-604.48645441529993
 30
0.0
 11
-56.838891428300002
 21
-604.48645441529993
 31
0.0
  0
ARC
  5
FC
  8
ﾚｲﾔ_1
 62
     5
 10
-137.81756330330001
 20
-516.98645441529993
 30
0.0
 40
2.0
 50
90.0
 51
180.0000386554
  0
LINE
  5
FD
  8
ﾚｲﾔ_1
 62
     5
 10
-125.81756330330001
 20
-514.98645441529993
 30
0.0
 11
-125.81756330330001
 21
-516.98645441529993
 31
0.0
  0
LINE
  5
FE
  8
ﾚｲﾔ_1
 62
     5
 10
-137.81756330330001
 20
-514.98645441529993
 30
0.0
 11
-125.81756330330001
 21
-514.98645441529993
 31
0.0
  0
LINE
  5
FF
  8
ﾚｲﾔ_1
 62
     5
 10
-137.81756330330001
 20
-516.98645441529993
 30
0.0
 11
-125.81756330330001
 21
-516.98645441529993
 31
0.0
  0
ARC
  5
100
  8
ﾚｲﾔ_1
 62
     5
 10
-82.838891428300002
 20
-516.98645441529993
 30
0.0
 40
2.0
 50
90.0
 51
180.0
  0
LINE
  5
101
  8
ﾚｲﾔ_1
 62
     5
 10
-61.838891428300002
 20
-514.98645441529993
 30
0.0
 11
-61.838891428300002
 21
-516.98645441529993
 31
0.0
  0
INSERT
  5
103
  8
0
  6
CONTINUOUS
  2
*U60
 10
0.0
 20
0.0
 30
0.0
  0
INSERT
  5
104
  8
0
  6
CONTINUOUS
  2
*U61
 10
0.0
 20
0.0
 30
0.0
  0
INSERT
  5
105
  8
0
  6
CONTINUOUS
  2
*U62
 10
0.0
 20
0.0
 30
0.0
  0
INSERT
  5
106
  8
0
  6
CONTINUOUS
  2
*U63
 10
0.0
 20
0.0
 30
0.0
  0
INSERT
  5
107
  8
0
  6
CONTINUOUS
  2
*U64
 10
0.0
 20
0.0
 30
0.0
  0
INSERT
  5
108
  8
0
  6
CONTINUOUS
  2
*U65
 10
0.0
 20
0.0
 30
0.0
  0
INSERT
  5
109
  8
0
  6
CONTINUOUS
  2
*U66
 10
0.0
 20
0.0
 30
0.0
  0
INSERT
  5
10A
  8
0
  6
CONTINUOUS
  2
*U67
 10
0.0
 20
0.0
 30
0.0
  0
INSERT
  5
10B
  8
0
  6
CONTINUOUS
  2
*U68
 10
0.0
 20
0.0
 30
0.0
  0
LINE
  5
10C
  8
ﾚｲﾔ_1
  6
BORDER
 62
     3
 10
-42.617072484200001
 20
-275.06973451530001
 30
0.0
 11
-2.617072484199999
 21
-275.06973451530001
 31
0.0
  0
DIMENSION
  5
11B
  8
寸法線
  2
*D10
 10
15.3683698681
 20
-374.07787025750002
 30
0.0
 11
15.3683698681
 21
-392.0688599426
 31
0.0
 70
   128
  1
15.5
 13
-8.4170724842000002
 23
-374.07787025750002
 33
0.0
 14
-8.4170724842000002
 24
-358.57787025750002
 34
0.0
 50
90.0
  0
LINE
  5
11C
  8
ﾚｲﾔ_1
 62
     5
 10
-37.617072484200001
 20
-365.87787025749998
 30
0.0
 11
-37.617072484200001
 21
-275.06973451530001
 31
0.0
  0
LINE
  5
11D
  8
ﾚｲﾔ_1
 62
     5
 10
-34.617072484200001
 20
-362.57739890340002
 30
0.0
 11
-22.617072484200001
 21
-362.57739890340002
 31
0.0
  0
LINE
  5
11E
  8
ﾚｲﾔ_1
 62
     5
 10
-34.117072484200001
 20
-362.57739890340002
 30
0.0
 11
-34.617072484200001
 21
-362.57739890340002
 31
0.0
  0
ARC
  5
11F
  8
ﾚｲﾔ_1
 62
     5
 10
-34.617072484200001
 20
-362.57739890340002
 30
0.0
 40
2.0
 50
180.0
 51
270.00001020809998
  0
ARC
  5
120
  8
ﾚｲﾔ_1
 62
     5
 10
-360.7455403646
 20
-207.5781671325
 30
0.0
 40
3.5
 50
90.0
 51
270.0
  0
ARC
  5
121
  8
ﾚｲﾔ_1
 62
     5
 10
-345.7455403646
 20
-207.5781671325
 30
0.0
 40
3.5
 50
270.0
 51
90.0
  0
LINE
  5
122
  8
ﾚｲﾔ_1
 62
     5
 10
-345.7455403646
 20
-234.0781671325
 30
0.0
 11
-360.7455403646
 21
-234.0781671325
 31
0.0
  0
ARC
  5
123
  8
ﾚｲﾔ_1
 62
     5
 10
-360.7455403646
 20
-237.5781671325
 30
0.0
 40
3.5
 50
90.0
 51
270.0
  0
LINE
  5
124
  8
ﾚｲﾔ_1
 62
     5
 10
-345.7455403646
 20
-219.0781671325
 30
0.0
 11
-360.7455403646
 21
-219.0781671325
 31
0.0
  0
ARC
  5
125
  8
ﾚｲﾔ_1
 62
     5
 10
-360.7455403646
 20
-222.5781671325
 30
0.0
 40
3.5
 50
90.0
 51
270.0
  0
LINE
  5
126
  8
ﾚｲﾔ_1
 62
     5
 10
-345.7455403646
 20
-204.0781671325
 30
0.0
 11
-360.7455403646
 21
-204.0781671325
 31
0.0
  0
LINE
  5
127
  8
ﾚｲﾔ_1
 62
     5
 10
-360.7455403646
 20
-211.0781671325
 30
0.0
 11
-345.7455403646
 21
-211.0781671325
 31
0.0
  0
ARC
  5
128
  8
ﾚｲﾔ_1
 62
     5
 10
-345.7455403646
 20
-237.5781671325
 30
0.0
 40
3.5
 50
270.0
 51
90.0
  0
INSERT
  5
129
  8
0
  6
CONTINUOUS
  2
*U69
 10
0.0
 20
0.0
 30
0.0
  0
INSERT
  5
12A
  8
0
  6
CONTINUOUS
  2
*U70
 10
0.0
 20
0.0
 30
0.0
  0
INSERT
  5
12B
  8
0
  6
CONTINUOUS
  2
*U71
 10
0.0
 20
0.0
 30
0.0
  0
INSERT
  5
12C
  8
0
  6
CONTINUOUS
  2
*U72
 10
0.0
 20
0.0
 30
0.0
  0
INSERT
  5
12D
  8
0
  6
CONTINUOUS
  2
*U73
 10
0.0
 20
0.0
 30
0.0
  0
INSERT
  5
12E
  8
0
  6
CONTINUOUS
  2
*U74
 10
0.0
 20
0.0
 30
0.0
  0
INSERT
  5
12F
  8
0
  6
CONTINUOUS
  2
*U75
 10
0.0
 20
0.0
 30
0.0
  0
LINE
  5
130
  8
ﾚｲﾔ_1
 62
     5
 10
-82.838891428300002
 20
-693.98645441529993
 30
0.0
 11
-61.838891428300002
 21
-693.98645441529993
 31
0.0
  0
LINE
  5
131
  8
ﾚｲﾔ_1
 62
     5
 10
-82.838891428300002
 20
-691.98645441529993
 30
0.0
 11
-61.838891428300002
 21
-691.98645441529993
 31
0.0
  0
LINE
  5
132
  8
ﾚｲﾔ_1
 62
     5
 10
-137.81756330330001
 20
-691.98645441529993
 30
0.0
 11
-125.81756330330001
 21
-691.98645441529993
 31
0.0
  0
ARC
  5
133
  8
ﾚｲﾔ_1
 62
     5
 10
-137.81756330330001
 20
-691.98645441529993
 30
0.0
 40
2.0
 50
180.0
 51
270.00001020809998
  0
LINE
  5
134
  8
ﾚｲﾔ_1
 62
     5
 10
-125.81756330330001
 20
-693.98645441529993
 30
0.0
 11
-125.81756330330001
 21
-691.98645441529993
 31
0.0
  0
LINE
  5
135
  8
ﾚｲﾔ_1
 62
     5
 10
-137.81756294690001
 20
-693.98645441529993
 30
0.0
 11
-125.81756330330001
 21
-693.98645441529993
 31
0.0
  0
ARC
  5
136
  8
ﾚｲﾔ_1
 62
     5
 10
-82.838891428300002
 20
-691.98645441529993
 30
0.0
 40
2.0
 50
180.0
 51
270.0
  0
LINE
  5
137
  8
ﾚｲﾔ_1
 62
     5
 10
-61.838891428300002
 20
-691.98645441529993
 30
0.0
 11
-61.838891428300002
 21
-693.98645441529993
 31
0.0
  0
DIMENSION
  5
146
  8
寸法線
  2
*D11
 10
-125.81756330330001
 20
-492.90155832769989
 30
0.0
 11
-132.81756330330001
 21
-492.90155832769989
 31
0.0
 70
   128
  1
<>
 13
-125.81756330330001
 23
-514.98645441529993
 33
0.0
 14
-139.81756330330001
 24
-516.98645576460001
 34
0.0
  0
LINE
  5
147
  8
ﾚｲﾔ_1
 62
     5
 10
-265.2455403646
 20
-219.0781671325
 30
0.0
 11
-280.2455403646
 21
-219.0781671325
 31
0.0
  0
ARC
  5
148
  8
ﾚｲﾔ_1
 62
     5
 10
-265.2455403646
 20
-237.5781671325
 30
0.0
 40
3.5
 50
270.0
 51
90.0
  0
ARC
  5
149
  8
ﾚｲﾔ_1
 62
     5
 10
-265.2455403646
 20
-222.5781671325
 30
0.0
 40
3.5
 50
270.0
 51
90.0
  0
LINE
  5
14A
  8
ﾚｲﾔ_1
 62
     5
 10
-280.2455403646
 20
-241.0781671325
 30
0.0
 11
-265.2455403646
 21
-241.0781671325
 31
0.0
  0
LINE
  5
14B
  8
ﾚｲﾔ_1
 62
     5
 10
-265.2455403646
 20
-234.0781671325
 30
0.0
 11
-280.2455403646
 21
-234.0781671325
 31
0.0
  0
ARC
  5
14C
  8
ﾚｲﾔ_1
 62
     5
 10
-280.2455403646
 20
-222.5781671325
 30
0.0
 40
3.5
 50
90.0
 51
270.0
  0
ARC
  5
14D
  8
ﾚｲﾔ_1
 62
     5
 10
-184.7455403646
 20
-222.5781671325
 30
0.0
 40
3.5
 50
270.0
 51
90.0
  0
LINE
  5
14E
  8
ﾚｲﾔ_1
 62
     5
 10
-199.7455403646
 20
-226.0781671325
 30
0.0
 11
-184.7455403646
 21
-226.0781671325
 31
0.0
  0
LINE
  5
14F
  8
ﾚｲﾔ_1
 62
     5
 10
-184.7455403646
 20
-219.0781671325
 30
0.0
 11
-199.7455403646
 21
-219.0781671325
 31
0.0
  0
ARC
  5
150
  8
ﾚｲﾔ_1
 62
     5
 10
-280.2455403646
 20
-237.5781671325
 30
0.0
 40
3.5
 50
90.0
 51
270.0
  0
LINE
  5
151
  8
ﾚｲﾔ_1
 62
     5
 10
-265.2455403646
 20
-204.0781671325
 30
0.0
 11
-280.2455403646
 21
-204.0781671325
 31
0.0
  0
ARC
  5
152
  8
ﾚｲﾔ_1
 62
     5
 10
-265.2455403646
 20
-207.5781671325
 30
0.0
 40
3.5
 50
270.0
 51
90.0
  0
LINE
  5
153
  8
ﾚｲﾔ_1
 62
     5
 10
-280.2455403646
 20
-211.0781671325
 30
0.0
 11
-265.2455403646
 21
-211.0781671325
 31
0.0
  0
LINE
  5
154
  8
ﾚｲﾔ_1
 62
     5
 10
-184.7455403646
 20
-204.0781671325
 30
0.0
 11
-199.7455403646
 21
-204.0781671325
 31
0.0
  0
ARC
  5
155
  8
ﾚｲﾔ_1
 62
     5
 10
-280.2455403646
 20
-207.5781671325
 30
0.0
 40
3.5
 50
90.0
 51
270.0
  0
ARC
  5
156
  8
ﾚｲﾔ_1
 62
     5
 10
-184.7455403646
 20
-207.5781671325
 30
0.0
 40
3.5
 50
270.0
 51
90.0
  0
LINE
  5
157
  8
ﾚｲﾔ_1
 62
     5
 10
-199.7455403646
 20
-211.0781671325
 30
0.0
 11
-184.7455403646
 21
-211.0781671325
 31
0.0
  0
ARC
  5
158
  8
ﾚｲﾔ_1
 62
     5
 10
-199.7455403646
 20
-207.5781671325
 30
0.0
 40
3.5
 50
90.0
 51
270.0
  0
LINE
  5
159
  8
ﾚｲﾔ_1
 62
     5
 10
-165.9955403646
 20
-187.5778702575
 30
0.0
 11
-165.9955403646
 21
-185.5778702575
 31
0.0
  0
LINE
  5
15A
  8
ﾚｲﾔ_1
 62
     5
 10
-165.9955403646
 20
-187.5778702575
 30
0.0
 11
-163.9955403646
 21
-187.5778702575
 31
0.0
  0
ARC
  5
15B
  8
ﾚｲﾔ_1
 62
     5
 10
-199.7455403646
 20
-222.5781671325
 30
0.0
 40
3.5
 50
90.0
 51
270.0
  0
ARC
  5
15C
  8
ﾚｲﾔ_1
 62
     5
 10
-184.7455403646
 20
-237.5781671325
 30
0.0
 40
3.5
 50
270.0
 51
90.0
  0
LINE
  5
15D
  8
ﾚｲﾔ_1
 62
     5
 10
-360.7455403646
 20
-241.0781671325
 30
0.0
 11
-345.7455403646
 21
-241.0781671325
 31
0.0
  0
ARC
  5
15E
  8
ﾚｲﾔ_1
 62
     5
 10
-345.7455403646
 20
-222.5781671325
 30
0.0
 40
3.5
 50
270.0
 51
90.0
  0
LINE
  5
15F
  8
ﾚｲﾔ_1
 62
     5
 10
-360.7455403646
 20
-226.0781671325
 30
0.0
 11
-345.7455403646
 21
-226.0781671325
 31
0.0
  0
LINE
  5
160
  8
ﾚｲﾔ_1
 62
     5
 10
-165.9955403646
 20
-362.57787025750002
 30
0.0
 11
-163.9955403646
 21
-362.57787025750002
 31
0.0
  0
LINE
  5
161
  8
ﾚｲﾔ_1
 62
     5
 10
-165.9955403646
 20
-362.57787025750002
 30
0.0
 11
-165.9955403646
 21
-364.57787025750002
 31
0.0
  0
LINE
  5
162
  8
ﾚｲﾔ_1
 62
     5
 10
-162.44508540480001
 20
-429.20674920229999
 30
0.0
 11
-162.44508540480001
 21
-415.0067492023
 31
0.0
  0
LINE
  5
163
  8
ﾚｲﾔ_1
 62
     5
 10
-184.7455403646
 20
-331.07816713250003
 30
0.0
 11
-199.7455403646
 21
-331.07816713250003
 31
0.0
  0
LINE
  5
164
  8
ﾚｲﾔ_1
 62
     5
 10
-265.2455403646
 20
-346.07816713250003
 30
0.0
 11
-280.2455403646
 21
-346.07816713250003
 31
0.0
  0
ARC
  5
165
  8
ﾚｲﾔ_1
 62
     5
 10
-280.2455403646
 20
-312.57816713250003
 30
0.0
 40
3.5
 50
90.0
 51
270.0
  0
ARC
  5
166
  8
ﾚｲﾔ_1
 62
     5
 10
-265.2455403646
 20
-327.57816713250003
 30
0.0
 40
3.5
 50
270.0
 51
90.0
  0
ARC
  5
167
  8
ﾚｲﾔ_1
 62
     5
 10
-280.2455403646
 20
-342.57816713250003
 30
0.0
 40
3.5
 50
90.0
 51
270.0
  0
ARC
  5
168
  8
ﾚｲﾔ_1
 62
     5
 10
-184.7455403646
 20
-312.57816713250003
 30
0.0
 40
3.5
 50
270.0
 51
90.0
  0
LINE
  5
169
  8
ﾚｲﾔ_1
 62
     5
 10
-184.7455403646
 20
-316.07816713250003
 30
0.0
 11
-199.7455403646
 21
-316.07816713250003
 31
0.0
  0
ARC
  5
16A
  8
ﾚｲﾔ_1
 62
     5
 10
-199.7455403646
 20
-312.57816713250003
 30
0.0
 40
3.5
 50
90.0
 51
270.0
  0
ARC
  5
16B
  8
ﾚｲﾔ_1
 62
     5
 10
-184.7455403646
 20
-342.57816713250003
 30
0.0
 40
3.5
 50
270.0
 51
90.0
  0
ARC
  5
16C
  8
ﾚｲﾔ_1
 62
     5
 10
-199.7455403646
 20
-342.57816713250003
 30
0.0
 40
3.5
 50
90.0
 51
270.0
  0
ARC
  5
16D
  8
ﾚｲﾔ_1
 62
     5
 10
-184.7455403646
 20
-327.57816713250003
 30
0.0
 40
3.5
 50
270.0
 51
90.0
  0
LINE
  5
16E
  8
ﾚｲﾔ_1
 62
     5
 10
-199.7455403646
 20
-324.07816713250003
 30
0.0
 11
-184.7455403646
 21
-324.07816713250003
 31
0.0
  0
LINE
  5
16F
  8
ﾚｲﾔ_1
 62
     5
 10
-280.2455403646
 20
-324.07816713250003
 30
0.0
 11
-265.2455403646
 21
-324.07816713250003
 31
0.0
  0
ARC
  5
170
  8
ﾚｲﾔ_1
 62
     5
 10
-305.4955403646
 20
-267.57816713250003
 30
0.0
 40
3.5
 50
270.0
 51
90.0
  0
LINE
  5
171
  8
ﾚｲﾔ_1
 62
     5
 10
-320.4955403646
 20
-271.07816713250003
 30
0.0
 11
-305.4955403646
 21
-271.07816713250003
 31
0.0
  0
ARC
  5
172
  8
ﾚｲﾔ_1
 62
     5
 10
-385.9955403646
 20
-267.57816713250003
 30
0.0
 40
3.5
 50
270.0
 51
90.0
  0
LINE
  5
173
  8
ﾚｲﾔ_1
 62
     5
 10
-305.4955403646
 20
-264.07816713250003
 30
0.0
 11
-320.4955403646
 21
-264.07816713250003
 31
0.0
  0
ARC
  5
174
  8
ﾚｲﾔ_1
 62
     5
 10
-320.4955403646
 20
-267.57816713250003
 30
0.0
 40
3.5
 50
90.0
 51
270.0
  0
LINE
  5
175
  8
ﾚｲﾔ_1
 62
     5
 10
-199.7455403646
 20
-241.0781671325
 30
0.0
 11
-184.7455403646
 21
-241.0781671325
 31
0.0
  0
LINE
  5
176
  8
ﾚｲﾔ_1
 62
     5
 10
-184.7455403646
 20
-234.0781671325
 30
0.0
 11
-199.7455403646
 21
-234.0781671325
 31
0.0
  0
ARC
  5
177
  8
ﾚｲﾔ_1
 62
     5
 10
-199.7455403646
 20
-237.5781671325
 30
0.0
 40
3.5
 50
90.0
 51
270.0
  0
LINE
  5
178
  8
ﾚｲﾔ_1
 62
     5
 10
-280.2455403646
 20
-226.0781671325
 30
0.0
 11
-265.2455403646
 21
-226.0781671325
 31
0.0
  0
LINE
  5
179
  8
ﾚｲﾔ_1
 62
     5
 10
-360.7455403646
 20
-309.07816713250003
 30
0.0
 11
-345.7455403646
 21
-309.07816713250003
 31
0.0
  0
LINE
  5
17A
  8
ﾚｲﾔ_1
 62
     5
 10
-345.7455403646
 20
-316.07816713250003
 30
0.0
 11
-360.7455403646
 21
-316.07816713250003
 31
0.0
  0
ARC
  5
17B
  8
ﾚｲﾔ_1
 62
     5
 10
-360.7455403646
 20
-327.57816713250003
 30
0.0
 40
3.5
 50
90.0
 51
270.0
  0
ARC
  5
17C
  8
ﾚｲﾔ_1
 62
     5
 10
-385.9955403646
 20
-282.57816713250003
 30
0.0
 40
3.5
 50
270.0
 51
90.0
  0
ARC
  5
17D
  8
ﾚｲﾔ_1
 62
     5
 10
-345.7455403646
 20
-312.57816713250003
 30
0.0
 40
3.5
 50
270.0
 51
90.0
  0
ARC
  5
17E
  8
ﾚｲﾔ_1
 62
     5
 10
-360.7455403646
 20
-312.57816713250003
 30
0.0
 40
3.5
 50
90.0
 51
270.0
  0
ARC
  5
17F
  8
ﾚｲﾔ_1
 62
     5
 10
-305.4955403646
 20
-282.57816713250003
 30
0.0
 40
3.5
 50
270.0
 51
90.0
  0
LINE
  5
180
  8
ﾚｲﾔ_1
 62
     5
 10
-320.4955403646
 20
-286.07816713250003
 30
0.0
 11
-305.4955403646
 21
-286.07816713250003
 31
0.0
  0
ARC
  5
181
  8
ﾚｲﾔ_1
 62
     5
 10
-345.7455403646
 20
-327.57816713250003
 30
0.0
 40
3.5
 50
270.0
 51
90.0
  0
LINE
  5
182
  8
ﾚｲﾔ_1
 62
     5
 10
-360.7455403646
 20
-324.07816713250003
 30
0.0
 11
-345.7455403646
 21
-324.07816713250003
 31
0.0
  0
LINE
  5
183
  8
ﾚｲﾔ_1
 62
     5
 10
-345.7455403646
 20
-331.07816713250003
 30
0.0
 11
-360.7455403646
 21
-331.07816713250003
 31
0.0
  0
LINE
  5
184
  8
ﾚｲﾔ_1
 62
     5
 10
-305.4955403646
 20
-279.07816713250003
 30
0.0
 11
-320.4955403646
 21
-279.07816713250003
 31
0.0
  0
ARC
  5
185
  8
ﾚｲﾔ_1
 62
     5
 10
-320.4955403646
 20
-282.57816713250003
 30
0.0
 40
3.5
 50
90.0
 51
270.0
  0
LINE
  5
186
  8
ﾚｲﾔ_1
 62
     5
 10
-265.2455403646
 20
-331.07816713250003
 30
0.0
 11
-280.2455403646
 21
-331.07816713250003
 31
0.0
  0
ARC
  5
187
  8
ﾚｲﾔ_1
 62
     5
 10
-265.2455403646
 20
-342.57816713250003
 30
0.0
 40
3.5
 50
270.0
 51
90.0
  0
LINE
  5
188
  8
ﾚｲﾔ_1
 62
     5
 10
-199.7455403646
 20
-339.07816713250003
 30
0.0
 11
-184.7455403646
 21
-339.07816713250003
 31
0.0
  0
LINE
  5
189
  8
ﾚｲﾔ_1
 62
     5
 10
-184.7455403646
 20
-346.07816713250003
 30
0.0
 11
-199.7455403646
 21
-346.07816713250003
 31
0.0
  0
ARC
  5
18A
  8
ﾚｲﾔ_1
 62
     5
 10
-199.7455403646
 20
-327.57816713250003
 30
0.0
 40
3.5
 50
90.0
 51
270.0
  0
ARC
  5
18B
  8
ﾚｲﾔ_1
 62
     5
 10
-280.2455403646
 20
-327.57816713250003
 30
0.0
 40
3.5
 50
90.0
 51
270.0
  0
ARC
  5
18C
  8
ﾚｲﾔ_1
 62
     5
 10
-265.2455403646
 20
-312.57816713250003
 30
0.0
 40
3.5
 50
270.0
 51
90.0
  0
LINE
  5
18D
  8
ﾚｲﾔ_1
 62
     5
 10
-265.2455403646
 20
-316.07816713250003
 30
0.0
 11
-280.2455403646
 21
-316.07816713250003
 31
0.0
  0
LINE
  5
18E
  8
ﾚｲﾔ_1
 62
     5
 10
-280.2455403646
 20
-339.07816713250003
 30
0.0
 11
-265.2455403646
 21
-339.07816713250003
 31
0.0
  0
LINE
  5
18F
  8
ﾚｲﾔ_1
 62
     5
 10
-165.99508540479999
 20
-417.20674920229999
 30
0.0
 11
-165.99508540479999
 21
-429.20674920229999
 31
0.0
  0
LINE
  5
190
  8
ﾚｲﾔ_1
 62
     5
 10
-163.99508540479999
 20
-417.20674920229999
 30
0.0
 11
-163.99508540479999
 21
-429.20674920229999
 31
0.0
  0
ARC
  5
191
  8
ﾚｲﾔ_1
 62
     5
 10
-165.99508540479999
 20
-417.20674920229999
 30
0.0
 40
2.0
 50
0.0
 51
90.0
  0
ARC
  5
192
  8
ﾚｲﾔ_1
 62
     5
 10
-239.9955403646
 20
-267.57816713250003
 30
0.0
 40
3.5
 50
90.0
 51
270.0
  0
LINE
  5
193
  8
ﾚｲﾔ_1
 62
     5
 10
-400.99554036459989
 20
-271.07816713250003
 30
0.0
 11
-385.9955403646
 21
-271.07816713250003
 31
0.0
  0
LINE
  5
194
  8
ﾚｲﾔ_1
 62
     5
 10
-385.9955403646
 20
-264.07816713250003
 30
0.0
 11
-400.99554036459989
 21
-264.07816713250003
 31
0.0
  0
LINE
  5
195
  8
ﾚｲﾔ_1
 62
     5
 10
-400.99554036459989
 20
-286.07816713250003
 30
0.0
 11
-385.9955403646
 21
-286.07816713250003
 31
0.0
  0
LINE
  5
196
  8
ﾚｲﾔ_1
 62
     5
 10
-385.9955403646
 20
-279.07816713250003
 30
0.0
 11
-400.99554036459989
 21
-279.07816713250003
 31
0.0
  0
ARC
  5
197
  8
ﾚｲﾔ_1
 62
     5
 10
-345.7455403646
 20
-342.57816713250003
 30
0.0
 40
3.5
 50
270.0
 51
90.0
  0
LINE
  5
198
  8
ﾚｲﾔ_1
 62
     5
 10
-360.7455403646
 20
-339.07816713250003
 30
0.0
 11
-345.7455403646
 21
-339.07816713250003
 31
0.0
  0
LINE
  5
199
  8
ﾚｲﾔ_1
 62
     5
 10
-345.7455403646
 20
-346.07816713250003
 30
0.0
 11
-360.7455403646
 21
-346.07816713250003
 31
0.0
  0
LINE
  5
19A
  8
ﾚｲﾔ_1
 62
     5
 10
-353.24508540480002
 20
-417.20674920229999
 30
0.0
 11
-165.99508540479999
 21
-417.20674920229999
 31
0.0
  0
LINE
  5
19B
  8
ﾚｲﾔ_1
 62
     5
 10
-162.44508540480001
 20
-414.20674920229999
 30
0.0
 11
-353.24508540480002
 21
-414.20674920229999
 31
0.0
  0
LINE
  5
19C
  8
ﾚｲﾔ_1
 62
     5
 10
-353.24508540480002
 20
-415.20674920229999
 30
0.0
 11
-165.99508540479999
 21
-415.20674920229999
 31
0.0
  0
LINE
  5
19D
  8
ﾚｲﾔ_1
 62
     5
 10
-163.99508540479999
 20
-429.20674920229999
 30
0.0
 11
-353.24508540480002
 21
-429.20674920229999
 31
0.0
  0
LINE
  5
19E
  8
ﾚｲﾔ_1
 62
     5
 10
-199.7455403646
 20
-309.07816713250003
 30
0.0
 11
-184.7455403646
 21
-309.07816713250003
 31
0.0
  0
LINE
  5
19F
  8
ﾚｲﾔ_1
 62
     5
 10
-280.2455403646
 20
-309.07816713250003
 30
0.0
 11
-265.2455403646
 21
-309.07816713250003
 31
0.0
  0
ARC
  5
1A0
  8
ﾚｲﾔ_1
 62
     5
 10
-162.44508540480001
 20
-415.0067492023
 30
0.0
 40
0.8
 50
90.0
 51
180.0
  0
LINE
  5
1A1
  8
ﾚｲﾔ_1
 62
     5
 10
-163.24508540479999
 20
-415.0067492023
 30
0.0
 11
-163.24508540479999
 21
-429.20674920229999
 31
0.0
  0
LINE
  5
1A2
  8
ﾚｲﾔ_1
 62
     5
 10
-163.24508540479999
 20
-429.20674920229999
 30
0.0
 11
-168.94508540480001
 21
-429.20674920229999
 31
0.0
  0
LINE
  5
1A3
  8
ﾚｲﾔ_1
 62
     5
 10
-155.04508540480001
 20
-420.20674920229999
 30
0.0
 11
-154.24508540479999
 21
-420.20674920229999
 31
0.0
  0
LINE
  5
1A4
  8
ﾚｲﾔ_1
 62
     5
 10
-155.04508540480001
 20
-415.0067492023
 30
0.0
 11
-155.04508540480001
 21
-420.20674920229999
 31
0.0
  0
ARC
  5
1A5
  8
ﾚｲﾔ_1
 62
     5
 10
-155.04508540480001
 20
-415.0067492023
 30
0.0
 40
0.8
 50
0.0
 51
90.0
  0
LINE
  5
1A6
  8
ﾚｲﾔ_1
 62
     5
 10
-154.24508540479999
 20
-420.20674920229999
 30
0.0
 11
-154.24508540479999
 21
-415.0067492023
 31
0.0
  0
LINE
  5
1A7
  8
ﾚｲﾔ_1
 62
     5
 10
-162.44508540480001
 20
-415.0067492023
 30
0.0
 11
-155.04508540480001
 21
-415.0067492023
 31
0.0
  0
LINE
  5
1A8
  8
ﾚｲﾔ_1
 62
     5
 10
-155.04508540480001
 20
-420.20674920229999
 30
0.0
 11
-162.44508540480001
 21
-420.20674920229999
 31
0.0
  0
LINE
  5
1A9
  8
ﾚｲﾔ_1
 62
     5
 10
-155.04508540480001
 20
-414.20674920229999
 30
0.0
 11
-162.44508540480001
 21
-414.20674920229999
 31
0.0
  0
ARC
  5
1AA
  8
ﾚｲﾔ_1
 62
     5
 10
-360.7455403646
 20
-342.57816713250003
 30
0.0
 40
3.5
 50
90.0
 51
270.0
  0
LINE
  5
1AB
  8
ﾚｲﾔ_1
 62
     5
 10
-540.49554036459995
 20
-187.5778702575
 30
0.0
 11
-540.49554036459995
 21
-185.5778702575
 31
0.0
  0
LINE
  5
1AC
  8
ﾚｲﾔ_1
 62
     5
 10
-540.49554036459995
 20
-187.5778702575
 30
0.0
 11
-542.49554036459995
 21
-187.5778702575
 31
0.0
  0
ARC
  5
1AD
  8
ﾚｲﾔ_1
 62
     5
 10
-521.74554036459995
 20
-207.5781671325
 30
0.0
 40
3.5
 50
90.0
 51
270.0
  0
LINE
  5
1AE
  8
ﾚｲﾔ_1
 62
     5
 10
-506.7455403646
 20
-234.0781671325
 30
0.0
 11
-521.74554036459995
 21
-234.0781671325
 31
0.0
  0
LINE
  5
1AF
  8
ﾚｲﾔ_1
 62
     5
 10
-521.74554036459995
 20
-226.0781671325
 30
0.0
 11
-506.7455403646
 21
-226.0781671325
 31
0.0
  0
LINE
  5
1B0
  8
ﾚｲﾔ_1
 62
     5
 10
-506.7455403646
 20
-219.0781671325
 30
0.0
 11
-521.74554036459995
 21
-219.0781671325
 31
0.0
  0
LINE
  5
1B1
  8
ﾚｲﾔ_1
 62
     5
 10
-521.74554036459995
 20
-211.0781671325
 30
0.0
 11
-506.7455403646
 21
-211.0781671325
 31
0.0
  0
LINE
  5
1B2
  8
ﾚｲﾔ_1
 62
     5
 10
-506.7455403646
 20
-204.0781671325
 30
0.0
 11
-521.74554036459995
 21
-204.0781671325
 31
0.0
  0
LINE
  5
1B3
  8
ﾚｲﾔ_1
 62
     5
 10
-521.74554036459995
 20
-241.0781671325
 30
0.0
 11
-506.7455403646
 21
-241.0781671325
 31
0.0
  0
ARC
  5
1B4
  8
ﾚｲﾔ_1
 62
     5
 10
-426.2455403646
 20
-222.5781671325
 30
0.0
 40
3.5
 50
270.0
 51
90.0
  0
ARC
  5
1B5
  8
ﾚｲﾔ_1
 62
     5
 10
-426.2455403646
 20
-237.5781671325
 30
0.0
 40
3.5
 50
270.0
 51
90.0
  0
LINE
  5
1B6
  8
ﾚｲﾔ_1
 62
     5
 10
-426.2455403646
 20
-234.0781671325
 30
0.0
 11
-441.24554036459989
 21
-234.0781671325
 31
0.0
  0
LINE
  5
1B7
  8
ﾚｲﾔ_1
 62
     5
 10
-441.24554036459989
 20
-226.0781671325
 30
0.0
 11
-426.2455403646
 21
-226.0781671325
 31
0.0
  0
ARC
  5
1B8
  8
ﾚｲﾔ_1
 62
     5
 10
-441.24554036459989
 20
-222.5781671325
 30
0.0
 40
3.5
 50
90.0
 51
270.0
  0
LINE
  5
1B9
  8
ﾚｲﾔ_1
 62
     5
 10
-426.2455403646
 20
-219.0781671325
 30
0.0
 11
-441.24554036459989
 21
-219.0781671325
 31
0.0
  0
LINE
  5
1BA
  8
ﾚｲﾔ_1
 62
     5
 10
-441.24554036459989
 20
-211.0781671325
 30
0.0
 11
-426.2455403646
 21
-211.0781671325
 31
0.0
  0
LINE
  5
1BB
  8
ﾚｲﾔ_1
  6
BORDER
 62
     3
 10
-192.2455403646
 20
-262.57816713250003
 30
0.0
 11
-192.2455403646
 21
-287.57816713250003
 31
0.0
  0
CIRCLE
  5
1BC
  8
ﾚｲﾔ_1
 62
     5
 10
-192.2455403646
 20
-275.07816713250003
 30
0.0
 40
7.5
  0
ARC
  5
1BD
  8
ﾚｲﾔ_1
 62
     5
 10
-224.9955403646
 20
-282.57816713250003
 30
0.0
 40
3.5
 50
270.0
 51
90.0
  0
LINE
  5
1BE
  8
ﾚｲﾔ_1
 62
     5
 10
-239.9955403646
 20
-286.07816713250003
 30
0.0
 11
-224.9955403646
 21
-286.07816713250003
 31
0.0
  0
LINE
  5
1BF
  8
ﾚｲﾔ_1
 62
     5
 10
-224.9955403646
 20
-279.07816713250003
 30
0.0
 11
-239.9955403646
 21
-279.07816713250003
 31
0.0
  0
ARC
  5
1C0
  8
ﾚｲﾔ_1
 62
     5
 10
-239.9955403646
 20
-282.57816713250003
 30
0.0
 40
3.5
 50
90.0
 51
270.0
  0
ARC
  5
1C1
  8
ﾚｲﾔ_1
 62
     5
 10
-224.9955403646
 20
-267.57816713250003
 30
0.0
 40
3.5
 50
270.0
 51
90.0
  0
LINE
  5
1C2
  8
ﾚｲﾔ_1
 62
     5
 10
-239.9955403646
 20
-271.07816713250003
 30
0.0
 11
-224.9955403646
 21
-271.07816713250003
 31
0.0
  0
LINE
  5
1C3
  8
ﾚｲﾔ_1
 62
     5
 10
-224.9955403646
 20
-264.07816713250003
 30
0.0
 11
-239.9955403646
 21
-264.07816713250003
 31
0.0
  0
ARC
  5
1C4
  8
ﾚｲﾔ_1
 62
     5
 10
-506.7455403646
 20
-327.57816713250003
 30
0.0
 40
3.5
 50
270.0
 51
90.0
  0
ARC
  5
1C5
  8
ﾚｲﾔ_1
 62
     5
 10
-506.7455403646
 20
-342.57816713250003
 30
0.0
 40
3.5
 50
270.0
 51
90.0
  0
ARC
  5
1C6
  8
ﾚｲﾔ_1
 62
     5
 10
-506.7455403646
 20
-312.57816713250003
 30
0.0
 40
3.5
 50
270.0
 51
90.0
  0
LINE
  5
1C7
  8
ﾚｲﾔ_1
 62
     5
 10
-540.49554036459995
 20
-362.57787025750002
 30
0.0
 11
-542.49554036459995
 21
-362.57787025750002
 31
0.0
  0
LINE
  5
1C8
  8
ﾚｲﾔ_1
 62
     5
 10
-540.49554036459995
 20
-362.57787025750002
 30
0.0
 11
-540.49554036459995
 21
-364.57787025750002
 31
0.0
  0
ARC
  5
1C9
  8
ﾚｲﾔ_1
 62
     5
 10
-426.2455403646
 20
-327.57816713250003
 30
0.0
 40
3.5
 50
270.0
 51
90.0
  0
ARC
  5
1CA
  8
ﾚｲﾔ_1
 62
     5
 10
-466.4955403646
 20
-282.57816713250003
 30
0.0
 40
3.5
 50
270.0
 51
90.0
  0
LINE
  5
1CB
  8
ﾚｲﾔ_1
 62
     5
 10
-481.4955403646
 20
-286.07816713250003
 30
0.0
 11
-466.4955403646
 21
-286.07816713250003
 31
0.0
  0
LINE
  5
1CC
  8
ﾚｲﾔ_1
 62
     5
 10
-466.4955403646
 20
-279.07816713250003
 30
0.0
 11
-481.4955403646
 21
-279.07816713250003
 31
0.0
  0
ARC
  5
1CD
  8
ﾚｲﾔ_1
 62
     5
 10
-481.4955403646
 20
-282.57816713250003
 30
0.0
 40
3.5
 50
90.0
 51
270.0
  0
ARC
  5
1CE
  8
ﾚｲﾔ_1
 62
     5
 10
-481.4955403646
 20
-267.57816713250003
 30
0.0
 40
3.5
 50
90.0
 51
270.0
  0
ARC
  5
1CF
  8
ﾚｲﾔ_1
 62
     5
 10
-466.4955403646
 20
-267.57816713250003
 30
0.0
 40
3.5
 50
270.0
 51
90.0
  0
LINE
  5
1D0
  8
ﾚｲﾔ_1
 62
     5
 10
-481.4955403646
 20
-271.07816713250003
 30
0.0
 11
-466.4955403646
 21
-271.07816713250003
 31
0.0
  0
LINE
  5
1D1
  8
ﾚｲﾔ_1
 62
     5
 10
-466.4955403646
 20
-264.07816713250003
 30
0.0
 11
-481.4955403646
 21
-264.07816713250003
 31
0.0
  0
DIMENSION
  5
1E0
  8
寸法線
  2
*D12
 10
-543.24508540479997
 20
-150.49391067810001
 30
0.0
 11
-547.74508540479997
 21
-150.49391067810001
 31
0.0
 70
   128
  1
<>
 13
-543.24508540479997
 23
-185.0778702575
 33
0.0
 14
-552.24508540480008
 24
-176.0778702575
 34
0.0
  0
LINE
  5
1E1
  8
ﾚｲﾔ_1
 62
     5
 10
-426.2455403646
 20
-204.0781671325
 30
0.0
 11
-441.24554036459989
 21
-204.0781671325
 31
0.0
  0
ARC
  5
1E2
  8
ﾚｲﾔ_1
 62
     5
 10
-426.2455403646
 20
-207.5781671325
 30
0.0
 40
3.5
 50
270.0
 51
90.0
  0
ARC
  5
1E3
  8
ﾚｲﾔ_1
 62
     5
 10
-441.24554036459989
 20
-237.5781671325
 30
0.0
 40
3.5
 50
90.0
 51
270.0
  0
ARC
  5
1E4
  8
ﾚｲﾔ_1
 62
     5
 10
-441.24554036459989
 20
-207.5781671325
 30
0.0
 40
3.5
 50
90.0
 51
270.0
  0
LINE
  5
1E5
  8
ﾚｲﾔ_1
 62
     5
 10
-441.24554036459989
 20
-241.0781671325
 30
0.0
 11
-426.2455403646
 21
-241.0781671325
 31
0.0
  0
ARC
  5
1E6
  8
ﾚｲﾔ_1
 62
     5
 10
-506.7455403646
 20
-222.5781671325
 30
0.0
 40
3.5
 50
270.0
 51
90.0
  0
ARC
  5
1E7
  8
ﾚｲﾔ_1
 62
     5
 10
-506.7455403646
 20
-207.5781671325
 30
0.0
 40
3.5
 50
270.0
 51
90.0
  0
ARC
  5
1E8
  8
ﾚｲﾔ_1
 62
     5
 10
-506.7455403646
 20
-237.5781671325
 30
0.0
 40
3.5
 50
270.0
 51
90.0
  0
ARC
  5
1E9
  8
ﾚｲﾔ_1
 62
     5
 10
-521.74554036459995
 20
-222.5781671325
 30
0.0
 40
3.5
 50
90.0
 51
270.0
  0
ARC
  5
1EA
  8
ﾚｲﾔ_1
 62
     5
 10
-521.74554036459995
 20
-237.5781671325
 30
0.0
 40
3.5
 50
90.0
 51
270.0
  0
INSERT
  5
1EC
  8
寸法線
  2
BALLON0
 10
0.0
 20
0.0
 30
0.0
  0
LINE
  5
1F5
  8
ﾚｲﾔ_1
  6
BORDER
 62
     3
 10
-514.24554036459995
 20
-262.57816713250003
 30
0.0
 11
-514.24554036459995
 21
-287.57816713250003
 31
0.0
  0
CIRCLE
  5
1F6
  8
ﾚｲﾔ_1
 62
     5
 10
-514.24554036459995
 20
-275.07816713250003
 30
0.0
 40
7.5
  0
LINE
  5
1F7
  8
ﾚｲﾔ_1
 10
-552.24508540480008
 20
-420.20674920229999
 30
0.0
 11
-552.24508540480008
 21
-415.0067492023
 31
0.0
  0
ARC
  5
1F8
  8
ﾚｲﾔ_1
 10
-551.44508540480001
 20
-415.0067492023
 30
0.0
 40
0.8
 50
90.0
 51
180.0
  0
ARC
  5
1F9
  8
ﾚｲﾔ_1
 62
     5
 10
-521.74554036459995
 20
-342.57816713250003
 30
0.0
 40
3.5
 50
90.0
 51
270.0
  0
ARC
  5
1FA
  8
ﾚｲﾔ_1
 62
     5
 10
-521.74554036459995
 20
-327.57816713250003
 30
0.0
 40
3.5
 50
90.0
 51
270.0
  0
ARC
  5
1FB
  8
ﾚｲﾔ_1
 62
     5
 10
-521.74554036459995
 20
-312.57816713250003
 30
0.0
 40
3.5
 50
90.0
 51
270.0
  0
LINE
  5
1FC
  8
ﾚｲﾔ_1
 62
     5
 10
-521.74554036459995
 20
-339.07816713250003
 30
0.0
 11
-506.7455403646
 21
-339.07816713250003
 31
0.0
  0
LINE
  5
1FD
  8
ﾚｲﾔ_1
 62
     5
 10
-506.7455403646
 20
-346.07816713250003
 30
0.0
 11
-521.74554036459995
 21
-346.07816713250003
 31
0.0
  0
LINE
  5
1FE
  8
ﾚｲﾔ_1
 62
     5
 10
-521.74554036459995
 20
-309.07816713250003
 30
0.0
 11
-506.7455403646
 21
-309.07816713250003
 31
0.0
  0
LINE
  5
1FF
  8
ﾚｲﾔ_1
 62
     5
 10
-521.74554036459995
 20
-324.07816713250003
 30
0.0
 11
-506.7455403646
 21
-324.07816713250003
 31
0.0
  0
LINE
  5
200
  8
ﾚｲﾔ_1
 62
     5
 10
-506.7455403646
 20
-331.07816713250003
 30
0.0
 11
-521.74554036459995
 21
-331.07816713250003
 31
0.0
  0
LINE
  5
201
  8
ﾚｲﾔ_1
 62
     5
 10
-506.7455403646
 20
-316.07816713250003
 30
0.0
 11
-521.74554036459995
 21
-316.07816713250003
 31
0.0
  0
ARC
  5
202
  8
ﾚｲﾔ_1
 62
     5
 10
-426.2455403646
 20
-342.57816713250003
 30
0.0
 40
3.5
 50
270.0
 51
90.0
  0
ARC
  5
203
  8
ﾚｲﾔ_1
 62
     5
 10
-426.2455403646
 20
-312.57816713250003
 30
0.0
 40
3.5
 50
270.0
 51
90.0
  0
ARC
  5
204
  8
ﾚｲﾔ_1
 62
     5
 10
-441.24554036459989
 20
-327.57816713250003
 30
0.0
 40
3.5
 50
90.0
 51
270.0
  0
LINE
  5
205
  8
ﾚｲﾔ_1
 62
     5
 10
-441.24554036459989
 20
-324.07816713250003
 30
0.0
 11
-426.2455403646
 21
-324.07816713250003
 31
0.0
  0
ARC
  5
206
  8
ﾚｲﾔ_1
 62
     5
 10
-441.24554036459989
 20
-342.57816713250003
 30
0.0
 40
3.5
 50
90.0
 51
270.0
  0
ARC
  5
207
  8
ﾚｲﾔ_1
 62
     5
 10
-441.24554036459989
 20
-312.57816713250003
 30
0.0
 40
3.5
 50
90.0
 51
270.0
  0
LINE
  5
208
  8
ﾚｲﾔ_1
 62
     5
 10
-426.2455403646
 20
-331.07816713250003
 30
0.0
 11
-441.24554036459989
 21
-331.07816713250003
 31
0.0
  0
LINE
  5
209
  8
ﾚｲﾔ_1
 62
     5
 10
-441.24554036459989
 20
-339.07816713250003
 30
0.0
 11
-426.2455403646
 21
-339.07816713250003
 31
0.0
  0
LINE
  5
20A
  8
ﾚｲﾔ_1
 62
     5
 10
-426.2455403646
 20
-346.07816713250003
 30
0.0
 11
-441.24554036459989
 21
-346.07816713250003
 31
0.0
  0
LINE
  5
20B
  8
ﾚｲﾔ_1
 62
     5
 10
-441.24554036459989
 20
-309.07816713250003
 30
0.0
 11
-426.2455403646
 21
-309.07816713250003
 31
0.0
  0
LINE
  5
20C
  8
ﾚｲﾔ_1
 62
     5
 10
-426.2455403646
 20
-316.07816713250003
 30
0.0
 11
-441.24554036459989
 21
-316.07816713250003
 31
0.0
  0
ARC
  5
20D
  8
ﾚｲﾔ_1
 62
     5
 10
-310.7845285834
 20
-536.98675129029994
 30
0.0
 40
3.5
 50
270.0
 51
90.0
  0
LINE
  5
20E
  8
ﾚｲﾔ_1
 62
     5
 10
-366.03452858339989
 20
-600.48675129029994
 30
0.0
 11
-351.0345285834
 21
-600.48675129029994
 31
0.0
  0
ARC
  5
20F
  8
ﾚｲﾔ_1
 62
     5
 10
-310.7845285834
 20
-551.98675129029994
 30
0.0
 40
3.5
 50
270.0
 51
90.0
  0
ARC
  5
210
  8
ﾚｲﾔ_1
 62
     5
 10
-310.7845285834
 20
-566.98675129029994
 30
0.0
 40
3.5
 50
270.0
 51
90.0
  0
CIRCLE
  5
211
  8
ﾚｲﾔ_1
 62
     5
 10
-237.7845285834
 20
-604.48675129029994
 30
0.0
 40
7.5
  0
LINE
  5
212
  8
ﾚｲﾔ_1
 62
     5
 10
-211.5345285834
 20
-516.98645441529993
 30
0.0
 11
-211.5345285834
 21
-514.98645441529993
 31
0.0
  0
ARC
  5
213
  8
ﾚｲﾔ_1
 62
     5
 10
-245.2845285834
 20
-536.98675129029994
 30
0.0
 40
3.5
 50
90.0
 51
270.0
  0
LINE
  5
214
  8
ﾚｲﾔ_1
 62
     5
 10
-245.2845285834
 20
-540.48675129029994
 30
0.0
 11
-230.2845285834
 21
-540.48675129029994
 31
0.0
  0
ARC
  5
215
  8
ﾚｲﾔ_1
 62
     5
 10
-230.2845285834
 20
-536.98675129029994
 30
0.0
 40
3.5
 50
270.0
 51
90.0
  0
LINE
  5
216
  8
ﾚｲﾔ_1
 62
     5
 10
-230.2845285834
 20
-533.48675129029994
 30
0.0
 11
-245.2845285834
 21
-533.48675129029994
 31
0.0
  0
ARC
  5
217
  8
ﾚｲﾔ_1
 62
     5
 10
-285.5345285834
 20
-596.98675129029994
 30
0.0
 40
3.5
 50
90.0
 51
270.0
  0
LINE
  5
218
  8
ﾚｲﾔ_1
 62
     5
 10
-285.5345285834
 20
-600.48675129029994
 30
0.0
 11
-270.5345285834
 21
-600.48675129029994
 31
0.0
  0
ARC
  5
219
  8
ﾚｲﾔ_1
 62
     5
 10
-270.5345285834
 20
-596.98675129029994
 30
0.0
 40
3.5
 50
270.0
 51
90.0
  0
LINE
  5
21A
  8
ﾚｲﾔ_1
 62
     5
 10
-230.2845285834
 20
-548.48675129029994
 30
0.0
 11
-245.2845285834
 21
-548.48675129029994
 31
0.0
  0
LINE
  5
21B
  8
ﾚｲﾔ_1
 62
     5
 10
-245.2845285834
 20
-555.48675129029994
 30
0.0
 11
-230.2845285834
 21
-555.48675129029994
 31
0.0
  0
ARC
  5
21C
  8
ﾚｲﾔ_1
 62
     5
 10
-230.2845285834
 20
-551.98675129029994
 30
0.0
 40
3.5
 50
270.0
 51
90.0
  0
LINE
  5
21D
  8
ﾚｲﾔ_1
 62
     5
 10
-270.5345285834
 20
-608.48675129029994
 30
0.0
 11
-285.5345285834
 21
-608.48675129029994
 31
0.0
  0
LINE
  5
21E
  8
ﾚｲﾔ_1
 62
     5
 10
-211.5345285834
 20
-516.98645441529993
 30
0.0
 11
-209.5345285834
 21
-516.98645441529993
 31
0.0
  0
LINE
  5
21F
  8
ﾚｲﾔ_1
 62
     5
 10
-270.5345285834
 20
-593.48675129029994
 30
0.0
 11
-285.5345285834
 21
-593.48675129029994
 31
0.0
  0
ARC
  5
220
  8
ﾚｲﾔ_1
 62
     5
 10
-245.2845285834
 20
-566.98675129029994
 30
0.0
 40
3.5
 50
90.0
 51
270.0
  0
LINE
  5
221
  8
ﾚｲﾔ_1
 62
     5
 10
-230.2845285834
 20
-563.48675129029994
 30
0.0
 11
-245.2845285834
 21
-563.48675129029994
 31
0.0
  0
LINE
  5
222
  8
ﾚｲﾔ_1
 62
     5
 10
-245.2845285834
 20
-570.48675129029994
 30
0.0
 11
-230.2845285834
 21
-570.48675129029994
 31
0.0
  0
ARC
  5
223
  8
ﾚｲﾔ_1
 62
     5
 10
-230.2845285834
 20
-566.98675129029994
 30
0.0
 40
3.5
 50
270.0
 51
90.0
  0
ARC
  5
224
  8
ﾚｲﾔ_1
 62
     5
 10
-245.2845285834
 20
-551.98675129029994
 30
0.0
 40
3.5
 50
90.0
 51
270.0
  0
INSERT
  5
226
  8
寸法線
  2
BALLON1
 10
0.0
 20
0.0
 30
0.0
  0
DIMENSION
  5
23D
  8
寸法線
  2
*D15
 10
-186.5345285834
 20
-566.98675129029994
 30
0.0
 11
-186.5345285834
 21
-559.48675129029994
 31
0.0
 70
   128
  1
<>
 13
-226.7845285834
 23
-566.98675129029994
 33
0.0
 14
-226.7845285834
 24
-551.98675129029994
 34
0.0
 50
90.0
  0
DIMENSION
  5
24C
  8
寸法線
  2
*D16
 10
-186.5345285834
 20
-596.98675129029994
 30
0.0
 11
-186.5345285834
 21
-581.98675129029994
 31
0.0
 70
   128
  1
<>
 13
-267.0345285834
 23
-596.98675129029994
 33
0.0
 14
-226.7845285834
 24
-566.98675129029994
 34
0.0
 50
90.0
  0
DIMENSION
  5
25B
  8
寸法線
  2
*D17
 10
-186.5345285834
 20
-611.98675129029994
 30
0.0
 11
-186.5345285834
 21
-604.48675129029994
 31
0.0
 70
   128
  1
<>
 13
-267.0345285834
 23
-611.98675129029994
 33
0.0
 14
-267.0345285834
 24
-596.98675129029994
 34
0.0
 50
90.0
  0
LINE
  5
25C
  8
ﾚｲﾔ_1
 62
     5
 10
-168.94508540480001
 20
-444.20674920229999
 30
0.0
 11
-353.24508540480002
 21
-444.20674920229999
 31
0.0
  0
LINE
  5
25D
  8
ﾚｲﾔ_1
 62
     5
 10
-161.6450854048
 20
-444.20674920229999
 30
0.0
 11
-155.04508540480001
 21
-444.20674920229999
 31
0.0
  0
LINE
  5
25E
  8
ﾚｲﾔ_1
 62
     5
 10
-161.6450854048
 20
-444.20674920229999
 30
0.0
 11
-168.94508540480001
 21
-444.20674920229999
 31
0.0
  0
LINE
  5
25F
  8
ﾚｲﾔ_1
 62
     5
 10
-162.44508540480001
 20
-443.40674920229998
 30
0.0
 11
-155.04508540480001
 21
-443.40674920229998
 31
0.0
  0
ARC
  5
260
  8
ﾚｲﾔ_1
 62
     5
 10
-162.44508540480001
 20
-443.40674920229998
 30
0.0
 40
0.8
 50
180.0
 51
270.0
  0
ARC
  5
261
  8
ﾚｲﾔ_1
 62
     5
 10
-155.04508540480001
 20
-443.40674920229998
 30
0.0
 40
0.8
 50
270.0
 51
0.0
  0
LINE
  5
262
  8
ﾚｲﾔ_1
 62
     5
 10
-325.7845285834
 20
-540.48675129029994
 30
0.0
 11
-310.7845285834
 21
-540.48675129029994
 31
0.0
  0
LINE
  5
263
  8
ﾚｲﾔ_1
 62
     5
 10
-310.7845285834
 20
-533.48675129029994
 30
0.0
 11
-325.7845285834
 21
-533.48675129029994
 31
0.0
  0
LINE
  5
264
  8
ﾚｲﾔ_1
 62
     5
 10
-310.7845285834
 20
-563.48675129029994
 30
0.0
 11
-325.7845285834
 21
-563.48675129029994
 31
0.0
  0
LINE
  5
265
  8
ﾚｲﾔ_1
 62
     5
 10
-325.7845285834
 20
-570.48675129029994
 30
0.0
 11
-310.7845285834
 21
-570.48675129029994
 31
0.0
  0
LINE
  5
266
  8
ﾚｲﾔ_1
 62
     5
 10
-310.7845285834
 20
-548.48675129029994
 30
0.0
 11
-325.7845285834
 21
-548.48675129029994
 31
0.0
  0
LINE
  5
267
  8
ﾚｲﾔ_1
 62
     5
 10
-325.7845285834
 20
-555.48675129029994
 30
0.0
 11
-310.7845285834
 21
-555.48675129029994
 31
0.0
  0
ARC
  5
268
  8
ﾚｲﾔ_1
 62
     5
 10
-366.03452858339989
 20
-596.98675129029994
 30
0.0
 40
3.5
 50
90.0
 51
270.0
  0
LINE
  5
269
  8
ﾚｲﾔ_1
 62
     5
 10
-351.0345285834
 20
-593.48675129029994
 30
0.0
 11
-366.03452858339989
 21
-593.48675129029994
 31
0.0
  0
ARC
  5
26A
  8
ﾚｲﾔ_1
 62
     5
 10
-325.7845285834
 20
-536.98675129029994
 30
0.0
 40
3.5
 50
90.0
 51
270.0
  0
ARC
  5
26B
  8
ﾚｲﾔ_1
 62
     5
 10
-325.7845285834
 20
-566.98675129029994
 30
0.0
 40
3.5
 50
90.0
 51
270.0
  0
ARC
  5
26C
  8
ﾚｲﾔ_1
 62
     5
 10
-325.7845285834
 20
-551.98675129029994
 30
0.0
 40
3.5
 50
90.0
 51
270.0
  0
ARC
  5
26D
  8
ﾚｲﾔ_1
 62
     5
 10
-351.0345285834
 20
-596.98675129029994
 30
0.0
 40
3.5
 50
270.0
 51
90.0
  0
ARC
  5
26E
  8
ﾚｲﾔ_1
 62
     5
 10
-391.28452858339989
 20
-551.98675129029994
 30
0.0
 40
3.5
 50
270.0
 51
90.0
  0
ARC
  5
26F
  8
ﾚｲﾔ_1
 62
     5
 10
-391.28452858339989
 20
-566.98675129029994
 30
0.0
 40
3.5
 50
270.0
 51
90.0
  0
LINE
  5
270
  8
ﾚｲﾔ_1
 62
     5
 10
-351.0345285834
 20
-608.48675129029994
 30
0.0
 11
-366.03452858339989
 21
-608.48675129029994
 31
0.0
  0
ARC
  5
271
  8
ﾚｲﾔ_1
 62
     5
 10
-391.28452858339989
 20
-536.98675129029994
 30
0.0
 40
3.5
 50
270.0
 51
90.0
  0
LINE
  5
272
  8
ﾚｲﾔ_1
 62
     5
 10
-245.2845285834
 20
-668.48675129029994
 30
0.0
 11
-230.2845285834
 21
-668.48675129029994
 31
0.0
  0
LINE
  5
273
  8
ﾚｲﾔ_1
 62
     5
 10
-230.2845285834
 20
-660.48675129029994
 30
0.0
 11
-245.2845285834
 21
-660.48675129029994
 31
0.0
  0
ARC
  5
274
  8
ﾚｲﾔ_1
 62
     5
 10
-211.5345285834
 20
-752.63462007850001
 30
0.0
 40
2.0
 50
0.0
 51
90.000038655400004
  0
LINE
  5
275
  8
ﾚｲﾔ_1
 62
     5
 10
-209.5345285834
 20
-764.63462007850001
 30
0.0
 11
-211.5345285834
 21
-764.63462007850001
 31
0.0
  0
LINE
  5
276
  8
ﾚｲﾔ_1
 62
     5
 10
-209.5345285834
 20
-752.63462007850001
 30
0.0
 11
-209.5345285834
 21
-764.63462007850001
 31
0.0
  0
LINE
  5
277
  8
ﾚｲﾔ_1
 62
     5
 10
-211.5345285834
 20
-752.63462007850001
 30
0.0
 11
-211.5345285834
 21
-764.63462007850001
 31
0.0
  0
LINE
  5
278
  8
ﾚｲﾔ_1
 62
     5
 10
-211.5345285834
 20
-691.98645441529993
 30
0.0
 11
-211.5345285834
 21
-693.98645441529993
 31
0.0
  0
LINE
  5
279
  8
ﾚｲﾔ_1
 62
     5
 10
-211.5345285834
 20
-691.98645441529993
 30
0.0
 11
-209.5345285834
 21
-691.98645441529993
 31
0.0
  0
LINE
  5
27A
  8
ﾚｲﾔ_1
 62
     5
 10
-245.2845285834
 20
-653.48675129029994
 30
0.0
 11
-230.2845285834
 21
-653.48675129029994
 31
0.0
  0
ARC
  5
27B
  8
ﾚｲﾔ_1
 62
     5
 10
-230.2845285834
 20
-656.98675129029994
 30
0.0
 40
3.5
 50
270.0
 51
90.0
  0
ARC
  5
27C
  8
ﾚｲﾔ_1
 62
     5
 10
-245.2845285834
 20
-671.98675129029994
 30
0.0
 40
3.5
 50
90.0
 51
270.0
  0
ARC
  5
27D
  8
ﾚｲﾔ_1
 62
     5
 10
-230.2845285834
 20
-671.98675129029994
 30
0.0
 40
3.5
 50
270.0
 51
90.0
  0
ARC
  5
27E
  8
ﾚｲﾔ_1
 62
     5
 10
-245.2845285834
 20
-641.98675129029994
 30
0.0
 40
3.5
 50
90.0
 51
270.0
  0
LINE
  5
27F
  8
ﾚｲﾔ_1
 62
     5
 10
-230.2845285834
 20
-645.48675129029994
 30
0.0
 11
-245.2845285834
 21
-645.48675129029994
 31
0.0
  0
LINE
  5
280
  8
ﾚｲﾔ_1
 62
     5
 10
-245.2845285834
 20
-638.48675129029994
 30
0.0
 11
-230.2845285834
 21
-638.48675129029994
 31
0.0
  0
ARC
  5
281
  8
ﾚｲﾔ_1
 62
     5
 10
-230.2845285834
 20
-641.98675129029994
 30
0.0
 40
3.5
 50
270.0
 51
90.0
  0
ARC
  5
282
  8
ﾚｲﾔ_1
 62
     5
 10
-351.0345285834
 20
-611.98675129029994
 30
0.0
 40
3.5
 50
270.0
 51
90.0
  0
ARC
  5
283
  8
ﾚｲﾔ_1
 62
     5
 10
-366.03452858339989
 20
-611.98675129029994
 30
0.0
 40
3.5
 50
90.0
 51
270.0
  0
LINE
  5
284
  8
ﾚｲﾔ_1
  6
BORDER
 62
     3
 10
-237.7845285834
 20
-591.98675129029994
 30
0.0
 11
-237.7845285834
 21
-616.98675129029994
 31
0.0
  0
ARC
  5
285
  8
ﾚｲﾔ_1
 62
     5
 10
-270.5345285834
 20
-611.98675129029994
 30
0.0
 40
3.5
 50
270.0
 51
90.0
  0
ARC
  5
286
  8
ﾚｲﾔ_1
 62
     5
 10
-285.5345285834
 20
-611.98675129029994
 30
0.0
 40
3.5
 50
90.0
 51
270.0
  0
LINE
  5
287
  8
ﾚｲﾔ_1
 62
     5
 10
-366.03452858339989
 20
-615.48675129029994
 30
0.0
 11
-351.0345285834
 21
-615.48675129029994
 31
0.0
  0
LINE
  5
288
  8
ﾚｲﾔ_1
 62
     5
 10
-285.5345285834
 20
-615.48675129029994
 30
0.0
 11
-270.5345285834
 21
-615.48675129029994
 31
0.0
  0
DIMENSION
  5
297
  8
寸法線
  2
*D18
 10
-186.5345285834
 20
-536.98675129029994
 30
0.0
 11
-186.5345285834
 21
-525.98660285279993
 31
0.0
 70
   128
  1
<>
 13
-226.7845285834
 23
-536.98675129029994
 33
0.0
 14
-211.5345285834
 24
-514.98645441529993
 34
0.0
 50
90.0
  0
DIMENSION
  5
2A6
  8
寸法線
  2
*D19
 10
-186.5345285834
 20
-551.98675129029994
 30
0.0
 11
-186.5345285834
 21
-544.48675129029994
 31
0.0
 70
   128
  1
<>
 13
-226.7845285834
 23
-551.98675129029994
 33
0.0
 14
-226.7845285834
 24
-536.98675129029994
 34
0.0
 50
90.0
  0
LINE
  5
2A7
  8
ﾚｲﾔ_1
 62
     5
 10
-431.53452858339989
 20
-608.48675129029994
 30
0.0
 11
-446.53452858339989
 21
-608.48675129029994
 31
0.0
  0
LINE
  5
2A8
  8
ﾚｲﾔ_1
  6
BORDER
 62
     3
 10
-398.78407362360002
 20
-744.63462007850001
 30
0.0
 11
-398.78407362360002
 21
-769.63462007850001
 31
0.0
  0
DIMENSION
  5
2B7
  8
寸法線
  2
*D20
 10
-186.5345285834
 20
-693.98645441529993
 30
0.0
 11
-186.5345285834
 21
-682.98660285279993
 31
0.0
 70
   128
  1
<>
 13
-211.5345285834
 23
-693.98645441529993
 33
0.0
 14
-226.7845285834
 24
-671.98675129029994
 34
0.0
 50
90.0
  0
DIMENSION
  5
2C6
  8
寸法線
  2
*D21
 10
-398.78407362360002
 20
-716.98645441529993
 30
0.0
 11
-358.53430110350001
 21
-716.98645441529993
 31
0.0
 70
   128
  1
<>
 13
-398.78407362360002
 23
-698.98645441529993
 33
0.0
 14
-318.2845285834
 24
-675.48675129029994
 34
0.0
 50
180.0
  0
DIMENSION
  5
2D5
  8
寸法線
  2
*D22
 10
-318.2845285834
 20
-716.98645374390003
 30
0.0
 11
-278.0345285834
 21
-716.98645374390003
 31
0.0
 70
   128
  1
<>
 13
-318.2845285834
 23
-675.48675129029994
 33
0.0
 14
-237.7845285834
 24
-675.48675129029994
 34
0.0
 50
180.0
  0
DIMENSION
  5
2E4
  8
寸法線
  2
*D23
 10
-237.7845285834
 20
-716.98645441529993
 30
0.0
 11
-223.6595285834
 21
-716.98645441529993
 31
0.0
 70
   128
  1
<>
 13
-237.7845285834
 23
-675.48675129029994
 33
0.0
 14
-209.5345285834
 24
-691.98645441529993
 34
0.0
 50
180.0
  0
DIMENSION
  5
2F3
  8
寸法線
  2
*D24
 10
-186.5345285834
 20
-656.98675129029994
 30
0.0
 11
-186.5345285834
 21
-649.48675129029994
 31
0.0
 70
   128
  1
<>
 13
-226.7845285834
 23
-656.98675129029994
 33
0.0
 14
-226.7845285834
 24
-641.98675129029994
 34
0.0
 50
90.0
  0
DIMENSION
  5
302
  8
寸法線
  2
*D25
 10
-186.5345285834
 20
-671.98675129029994
 30
0.0
 11
-186.5345285834
 21
-664.48675129029994
 31
0.0
 70
   128
  1
<>
 13
-226.7845285834
 23
-671.98675129029994
 33
0.0
 14
-226.7845285834
 24
-656.98675129029994
 34
0.0
 50
90.0
  0
LINE
  5
303
  8
ﾚｲﾔ_1
 62
     5
 10
-325.7845285834
 20
-668.48675129029994
 30
0.0
 11
-310.7845285834
 21
-668.48675129029994
 31
0.0
  0
LINE
  5
304
  8
ﾚｲﾔ_1
 62
     5
 10
-310.7845285834
 20
-645.48675129029994
 30
0.0
 11
-325.7845285834
 21
-645.48675129029994
 31
0.0
  0
LINE
  5
305
  8
ﾚｲﾔ_1
 62
     5
 10
-325.7845285834
 20
-638.48675129029994
 30
0.0
 11
-310.7845285834
 21
-638.48675129029994
 31
0.0
  0
LINE
  5
306
  8
ﾚｲﾔ_1
 62
     5
 10
-310.7845285834
 20
-660.48675129029994
 30
0.0
 11
-325.7845285834
 21
-660.48675129029994
 31
0.0
  0
LINE
  5
307
  8
ﾚｲﾔ_1
 62
     5
 10
-325.7845285834
 20
-653.48675129029994
 30
0.0
 11
-310.7845285834
 21
-653.48675129029994
 31
0.0
  0
LINE
  5
308
  8
ﾚｲﾔ_1
 62
     5
 10
-310.7845285834
 20
-675.48675129029994
 30
0.0
 11
-325.7845285834
 21
-675.48675129029994
 31
0.0
  0
ARC
  5
309
  8
ﾚｲﾔ_1
 62
     5
 10
-325.7845285834
 20
-641.98675129029994
 30
0.0
 40
3.5
 50
90.0
 51
270.0
  0
ARC
  5
30A
  8
ﾚｲﾔ_1
 62
     5
 10
-325.7845285834
 20
-656.98675129029994
 30
0.0
 40
3.5
 50
90.0
 51
270.0
  0
ARC
  5
30B
  8
ﾚｲﾔ_1
 62
     5
 10
-325.7845285834
 20
-671.98675129029994
 30
0.0
 40
3.5
 50
90.0
 51
270.0
  0
ARC
  5
30C
  8
ﾚｲﾔ_1
 62
     5
 10
-391.28452858339989
 20
-641.98675129029994
 30
0.0
 40
3.5
 50
270.0
 51
90.0
  0
ARC
  5
30D
  8
ﾚｲﾔ_1
 62
     5
 10
-391.28452858339989
 20
-671.98675129029994
 30
0.0
 40
3.5
 50
270.0
 51
90.0
  0
ARC
  5
30E
  8
ﾚｲﾔ_1
 62
     5
 10
-310.7845285834
 20
-671.98675129029994
 30
0.0
 40
3.5
 50
270.0
 51
90.0
  0
ARC
  5
30F
  8
ﾚｲﾔ_1
 62
     5
 10
-310.7845285834
 20
-656.98675129029994
 30
0.0
 40
3.5
 50
270.0
 51
90.0
  0
ARC
  5
310
  8
ﾚｲﾔ_1
 62
     5
 10
-391.28452858339989
 20
-656.98675129029994
 30
0.0
 40
3.5
 50
270.0
 51
90.0
  0
ARC
  5
311
  8
ﾚｲﾔ_1
 62
     5
 10
-310.7845285834
 20
-641.98675129029994
 30
0.0
 40
3.5
 50
270.0
 51
90.0
  0
ARC
  5
312
  8
ﾚｲﾔ_1
 62
     5
 10
-245.2845285834
 20
-656.98675129029994
 30
0.0
 40
3.5
 50
90.0
 51
270.0
  0
LINE
  5
313
  8
ﾚｲﾔ_1
 62
     5
 10
-230.2845285834
 20
-675.48675129029994
 30
0.0
 11
-245.2845285834
 21
-675.48675129029994
 31
0.0
  0
ARC
  5
314
  8
ﾚｲﾔ_1
 62
     5
 10
-567.28452858339995
 20
-566.98675129029994
 30
0.0
 40
3.5
 50
90.0
 51
270.0
  0
ARC
  5
315
  8
ﾚｲﾔ_1
 62
     5
 10
-567.28452858339995
 20
-551.98675129029994
 30
0.0
 40
3.5
 50
90.0
 51
270.0
  0
ARC
  5
316
  8
ﾚｲﾔ_1
 62
     5
 10
-527.03452858339995
 20
-596.98675129029994
 30
0.0
 40
3.5
 50
90.0
 51
270.0
  0
LINE
  5
317
  8
ﾚｲﾔ_1
 62
     5
 10
-512.03452858339995
 20
-593.48675129029994
 30
0.0
 11
-527.03452858339995
 21
-593.48675129029994
 31
0.0
  0
LINE
  5
318
  8
ﾚｲﾔ_1
 62
     5
 10
-527.03452858339995
 20
-600.48675129029994
 30
0.0
 11
-512.03452858339995
 21
-600.48675129029994
 31
0.0
  0
LINE
  5
319
  8
ﾚｲﾔ_1
 62
     5
 10
-512.03452858339995
 20
-608.48675129029994
 30
0.0
 11
-527.03452858339995
 21
-608.48675129029994
 31
0.0
  0
LINE
  5
31A
  8
ﾚｲﾔ_1
 62
     5
 10
-567.28452858339995
 20
-570.48675129029994
 30
0.0
 11
-552.28452858339995
 21
-570.48675129029994
 31
0.0
  0
LINE
  5
31B
  8
ﾚｲﾔ_1
 62
     5
 10
-431.53452858339989
 20
-593.48675129029994
 30
0.0
 11
-446.53452858339989
 21
-593.48675129029994
 31
0.0
  0
LINE
  5
31C
  8
ﾚｲﾔ_1
 62
     5
 10
-446.53452858339989
 20
-600.48675129029994
 30
0.0
 11
-431.53452858339989
 21
-600.48675129029994
 31
0.0
  0
ARC
  5
31D
  8
ﾚｲﾔ_1
 62
     5
 10
-431.53452858339989
 20
-596.98675129029994
 30
0.0
 40
3.5
 50
270.0
 51
90.0
  0
LINE
  5
31E
  8
ﾚｲﾔ_1
 10
-479.28452858339989
 20
-533.48675129029994
 30
0.0
 11
-470.39555789699989
 21
-507.58876863839998
 31
0.0
  0
SOLID
  5
31F
  8
ﾚｲﾔ_1
 10
-479.28452858339989
 20
-533.48675129029994
 30
0.0
 11
-478.9285103661
 21
-528.32262791150004
 31
0.0
 12
-478.09626344639997
 22
-530.02474528430002
 32
0.0
 13
-478.09626344639997
 23
-530.02474528430002
 33
0.0
  0
SOLID
  5
320
  8
ﾚｲﾔ_1
 10
-479.28452858339989
 20
-533.48675129029994
 30
0.0
 11
-476.39414607359993
 21
-529.19249836459994
 31
0.0
 12
-478.09626344639997
 22
-530.02474528430002
 32
0.0
 13
-478.09626344639997
 23
-530.02474528430002
 33
0.0
  0
LINE
  5
321
  8
ﾚｲﾔ_1
 10
-470.39555789699989
 20
-507.58876863839998
 30
0.0
 11
-417.01887278330003
 21
-507.58876863839998
 31
0.0
  0
ARC
  5
322
  8
ﾚｲﾔ_1
 62
     5
 10
-446.53452858339989
 20
-596.98675129029994
 30
0.0
 40
3.5
 50
90.0
 51
270.0
  0
ARC
  5
323
  8
ﾚｲﾔ_1
 62
     5
 10
-471.78452858339989
 20
-551.98675129029994
 30
0.0
 40
3.5
 50
270.0
 51
90.0
  0
ARC
  5
324
  8
ﾚｲﾔ_1
 62
     5
 10
-471.78452858339989
 20
-566.98675129029994
 30
0.0
 40
3.5
 50
270.0
 51
90.0
  0
ARC
  5
325
  8
ﾚｲﾔ_1
 62
     5
 10
-486.7845285834
 20
-551.98675129029994
 30
0.0
 40
3.5
 50
90.0
 51
270.0
  0
LINE
  5
326
  8
ﾚｲﾔ_1
 62
     5
 10
-486.7845285834
 20
-555.48675129029994
 30
0.0
 11
-471.78452858339989
 21
-555.48675129029994
 31
0.0
  0
LINE
  5
327
  8
ﾚｲﾔ_1
 62
     5
 10
-471.78452858339989
 20
-563.48675129029994
 30
0.0
 11
-486.7845285834
 21
-563.48675129029994
 31
0.0
  0
LINE
  5
328
  8
ﾚｲﾔ_1
 62
     5
 10
-486.7845285834
 20
-570.48675129029994
 30
0.0
 11
-471.78452858339989
 21
-570.48675129029994
 31
0.0
  0
ARC
  5
329
  8
ﾚｲﾔ_1
 62
     5
 10
-486.7845285834
 20
-536.98675129029994
 30
0.0
 40
3.5
 50
90.0
 51
270.0
  0
ARC
  5
32A
  8
ﾚｲﾔ_1
 62
     5
 10
-486.7845285834
 20
-566.98675129029994
 30
0.0
 40
3.5
 50
90.0
 51
270.0
  0
LINE
  5
32B
  8
ﾚｲﾔ_1
 62
     5
 10
-471.78452858339989
 20
-533.48675129029994
 30
0.0
 11
-486.7845285834
 21
-533.48675129029994
 31
0.0
  0
LINE
  5
32C
  8
ﾚｲﾔ_1
 62
     5
 10
-486.7845285834
 20
-540.48675129029994
 30
0.0
 11
-471.78452858339989
 21
-540.48675129029994
 31
0.0
  0
LINE
  5
32D
  8
ﾚｲﾔ_1
 62
     5
 10
-471.78452858339989
 20
-548.48675129029994
 30
0.0
 11
-486.7845285834
 21
-548.48675129029994
 31
0.0
  0
ARC
  5
32E
  8
ﾚｲﾔ_1
 62
     5
 10
-471.78452858339989
 20
-536.98675129029994
 30
0.0
 40
3.5
 50
270.0
 51
90.0
  0
LINE
  5
32F
  8
ﾚｲﾔ_1
 62
     5
 10
-471.78452858339989
 20
-660.48675129029994
 30
0.0
 11
-486.7845285834
 21
-660.48675129029994
 31
0.0
  0
ARC
  5
330
  8
ﾚｲﾔ_1
 62
     5
 10
-512.03452858339995
 20
-611.98675129029994
 30
0.0
 40
3.5
 50
270.0
 51
90.0
  0
LINE
  5
331
  8
ﾚｲﾔ_1
  6
BORDER
 62
     3
 10
-559.78452858339995
 20
-591.98675129029994
 30
0.0
 11
-559.78452858339995
 21
-616.98675129029994
 31
0.0
  0
ARC
  5
332
  8
ﾚｲﾔ_1
 62
     5
 10
-527.03452858339995
 20
-611.98675129029994
 30
0.0
 40
3.5
 50
90.0
 51
270.0
  0
ARC
  5
333
  8
ﾚｲﾔ_1
 62
     5
 10
-431.53452858339989
 20
-611.98675129029994
 30
0.0
 40
3.5
 50
270.0
 51
90.0
  0
ARC
  5
334
  8
ﾚｲﾔ_1
 62
     5
 10
-446.53452858339989
 20
-611.98675129029994
 30
0.0
 40
3.5
 50
90.0
 51
270.0
  0
LINE
  5
335
  8
ﾚｲﾔ_1
 62
     5
 10
-527.03452858339995
 20
-615.48675129029994
 30
0.0
 11
-512.03452858339995
 21
-615.48675129029994
 31
0.0
  0
LINE
  5
336
  8
ﾚｲﾔ_1
 62
     5
 10
-446.53452858339989
 20
-615.48675129029994
 30
0.0
 11
-431.53452858339989
 21
-615.48675129029994
 31
0.0
  0
LINE
  5
337
  8
ﾚｲﾔ_1
 10
-535.24511848960003
 20
-443.40674920229998
 30
0.0
 11
-551.44508540480001
 21
-443.40674920229998
 31
0.0
  0
ARC
  5
338
  8
ﾚｲﾔ_1
 10
-544.04508540480003
 20
-443.40674920229998
 30
0.0
 40
0.8
 50
270.0
 51
0.0
  0
ARC
  5
339
  8
ﾚｲﾔ_1
 10
-551.44508540480001
 20
-443.40674920229998
 30
0.0
 40
0.8
 50
180.0
 51
270.0
  0
INSERT
  5
33A
  8
0
  6
CONTINUOUS
  2
*U78
 10
0.0
 20
0.0
 30
0.0
  0
ARC
  5
33B
  8
ﾚｲﾔ_1
 62
     5
 10
-512.03452858339995
 20
-596.98675129029994
 30
0.0
 40
3.5
 50
270.0
 51
90.0
  0
ARC
  5
33C
  8
ﾚｲﾔ_1
 62
     5
 10
-567.28452858339995
 20
-536.98675129029994
 30
0.0
 40
3.5
 50
90.0
 51
270.0
  0
LINE
  5
33D
  8
ﾚｲﾔ_1
 62
     5
 10
-586.03452858339995
 20
-516.98645441529993
 30
0.0
 11
-586.03452858339995
 21
-514.98645441529993
 31
0.0
  0
LINE
  5
33E
  8
ﾚｲﾔ_1
 62
     5
 10
-552.28452858339995
 20
-563.48675129029994
 30
0.0
 11
-567.28452858339995
 21
-563.48675129029994
 31
0.0
  0
LINE
  5
33F
  8
ﾚｲﾔ_1
 62
     5
 10
-552.28452858339995
 20
-533.48675129029994
 30
0.0
 11
-567.28452858339995
 21
-533.48675129029994
 31
0.0
  0
LINE
  5
340
  8
ﾚｲﾔ_1
 62
     5
 10
-567.28452858339995
 20
-540.48675129029994
 30
0.0
 11
-552.28452858339995
 21
-540.48675129029994
 31
0.0
  0
CIRCLE
  5
341
  8
ﾚｲﾔ_1
 62
     5
 10
-559.78452858339995
 20
-604.48675129029994
 30
0.0
 40
7.5
  0
LINE
  5
342
  8
ﾚｲﾔ_1
 62
     5
 10
-552.28452858339995
 20
-548.48675129029994
 30
0.0
 11
-567.28452858339995
 21
-548.48675129029994
 31
0.0
  0
LINE
  5
343
  8
ﾚｲﾔ_1
 62
     5
 10
-567.28452858339995
 20
-555.48675129029994
 30
0.0
 11
-552.28452858339995
 21
-555.48675129029994
 31
0.0
  0
ARC
  5
344
  8
ﾚｲﾔ_1
 62
     5
 10
-552.28452858339995
 20
-566.98675129029994
 30
0.0
 40
3.5
 50
270.0
 51
90.0
  0
ARC
  5
345
  8
ﾚｲﾔ_1
 62
     5
 10
-552.28452858339995
 20
-536.98675129029994
 30
0.0
 40
3.5
 50
270.0
 51
90.0
  0
ARC
  5
346
  8
ﾚｲﾔ_1
 62
     5
 10
-552.28452858339995
 20
-551.98675129029994
 30
0.0
 40
3.5
 50
270.0
 51
90.0
  0
LINE
  5
347
  8
ﾚｲﾔ_1
 62
     5
 10
-586.03452858339995
 20
-516.98645441529993
 30
0.0
 11
-588.03452858339995
 21
-516.98645441529993
 31
0.0
  0
ARC
  5
348
  8
ﾚｲﾔ_1
 62
     5
 10
-586.03452858339995
 20
-752.63462007850001
 30
0.0
 40
2.0
 50
90.0
 51
180.00001020810001
  0
LINE
  5
349
  8
ﾚｲﾔ_1
 62
     5
 10
-586.03452858339995
 20
-752.63462007850001
 30
0.0
 11
-586.03452858339995
 21
-764.63462007850001
 31
0.0
  0
LINE
  5
34A
  8
ﾚｲﾔ_1
 62
     5
 10
-552.28452858339995
 20
-645.48675129029994
 30
0.0
 11
-567.28452858339995
 21
-645.48675129029994
 31
0.0
  0
LINE
  5
34B
  8
ﾚｲﾔ_1
 62
     5
 10
-552.28452858339995
 20
-660.48675129029994
 30
0.0
 11
-567.28452858339995
 21
-660.48675129029994
 31
0.0
  0
LINE
  5
34C
  8
ﾚｲﾔ_1
 62
     5
 10
-567.28452858339995
 20
-653.48675129029994
 30
0.0
 11
-552.28452858339995
 21
-653.48675129029994
 31
0.0
  0
LINE
  5
34D
  8
ﾚｲﾔ_1
 62
     5
 10
-567.28452858339995
 20
-638.48675129029994
 30
0.0
 11
-552.28452858339995
 21
-638.48675129029994
 31
0.0
  0
ARC
  5
34E
  8
ﾚｲﾔ_1
 62
     5
 10
-552.28452858339995
 20
-641.98675129029994
 30
0.0
 40
3.5
 50
270.0
 51
90.0
  0
ARC
  5
34F
  8
ﾚｲﾔ_1
 62
     5
 10
-552.28452858339995
 20
-671.98675129029994
 30
0.0
 40
3.5
 50
270.0
 51
90.0
  0
ARC
  5
350
  8
ﾚｲﾔ_1
 62
     5
 10
-552.28452858339995
 20
-656.98675129029994
 30
0.0
 40
3.5
 50
270.0
 51
90.0
  0
LINE
  5
351
  8
ﾚｲﾔ_1
 62
     5
 10
-586.03452858339995
 20
-691.98645441529993
 30
0.0
 11
-586.03452858339995
 21
-693.98645441529993
 31
0.0
  0
LINE
  5
352
  8
ﾚｲﾔ_1
 62
     5
 10
-586.03452858339995
 20
-691.98645441529993
 30
0.0
 11
-588.03452858339995
 21
-691.98645441529993
 31
0.0
  0
ARC
  5
353
  8
ﾚｲﾔ_1
 62
     5
 10
-567.28452858339995
 20
-641.98675129029994
 30
0.0
 40
3.5
 50
90.0
 51
270.0
  0
LINE
  5
354
  8
ﾚｲﾔ_1
 62
     5
 10
-552.28452858339995
 20
-675.48675129029994
 30
0.0
 11
-567.28452858339995
 21
-675.48675129029994
 31
0.0
  0
LINE
  5
355
  8
ﾚｲﾔ_1
 62
     5
 10
-567.28452858339995
 20
-668.48675129029994
 30
0.0
 11
-552.28452858339995
 21
-668.48675129029994
 31
0.0
  0
ARC
  5
356
  8
ﾚｲﾔ_1
 62
     5
 10
-471.78452858339989
 20
-656.98675129029994
 30
0.0
 40
3.5
 50
270.0
 51
90.0
  0
ARC
  5
357
  8
ﾚｲﾔ_1
 62
     5
 10
-471.78452858339989
 20
-641.98675129029994
 30
0.0
 40
3.5
 50
270.0
 51
90.0
  0
ARC
  5
358
  8
ﾚｲﾔ_1
 62
     5
 10
-471.78452858339989
 20
-671.98675129029994
 30
0.0
 40
3.5
 50
270.0
 51
90.0
  0
ARC
  5
359
  8
ﾚｲﾔ_1
 62
     5
 10
-486.7845285834
 20
-656.98675129029994
 30
0.0
 40
3.5
 50
90.0
 51
270.0
  0
ARC
  5
35A
  8
ﾚｲﾔ_1
 62
     5
 10
-486.7845285834
 20
-641.98675129029994
 30
0.0
 40
3.5
 50
90.0
 51
270.0
  0
ARC
  5
35B
  8
ﾚｲﾔ_1
 62
     5
 10
-486.7845285834
 20
-671.98675129029994
 30
0.0
 40
3.5
 50
90.0
 51
270.0
  0
LINE
  5
35C
  8
ﾚｲﾔ_1
 62
     5
 10
-486.7845285834
 20
-653.48675129029994
 30
0.0
 11
-471.78452858339989
 21
-653.48675129029994
 31
0.0
  0
LINE
  5
35D
  8
ﾚｲﾔ_1
 62
     5
 10
-471.78452858339989
 20
-645.48675129029994
 30
0.0
 11
-486.7845285834
 21
-645.48675129029994
 31
0.0
  0
LINE
  5
35E
  8
ﾚｲﾔ_1
 62
     5
 10
-486.7845285834
 20
-638.48675129029994
 30
0.0
 11
-471.78452858339989
 21
-638.48675129029994
 31
0.0
  0
LINE
  5
35F
  8
ﾚｲﾔ_1
 62
     5
 10
-471.78452858339989
 20
-675.48675129029994
 30
0.0
 11
-486.7845285834
 21
-675.48675129029994
 31
0.0
  0
LINE
  5
360
  8
ﾚｲﾔ_1
 62
     5
 10
-486.7845285834
 20
-668.48675129029994
 30
0.0
 11
-471.78452858339989
 21
-668.48675129029994
 31
0.0
  0
LINE
  5
361
  8
ﾚｲﾔ_1
  6
HIDDEN
 10
-165.9955403646
 20
-187.5778702575
 30
0.0
 11
-165.9955403646
 21
-362.57787025750002
 31
0.0
  0
LINE
  5
362
  8
ﾚｲﾔ_1
  6
BORDER
 62
     3
 10
-353.24508540480002
 20
-171.0778702575
 30
0.0
 11
-353.24508540480002
 21
-379.07787025750002
 31
0.0
  0
LINE
  5
363
  8
ﾚｲﾔ_1
 62
     5
 10
-137.81756330330001
 20
-691.98645441529993
 30
0.0
 11
-137.81756330330001
 21
-516.98645441529993
 31
0.0
  0
LINE
  5
364
  8
ﾚｲﾔ_1
 62
     5
 10
-139.81756330330001
 20
-516.98645576460001
 30
0.0
 11
-139.81756330330001
 21
-691.98645441529993
 31
0.0
  0
LINE
  5
365
  8
ﾚｲﾔ_1
 62
     5
 10
-82.838891428300002
 20
-516.98645441529993
 30
0.0
 11
-82.838891428300002
 21
-691.98645441529993
 31
0.0
  0
LINE
  5
366
  8
ﾚｲﾔ_1
 62
     5
 10
-84.838891428299988
 20
-516.98645441529993
 30
0.0
 11
-84.838891428299988
 21
-691.98645441529993
 31
0.0
  0
LINE
  5
367
  8
ﾚｲﾔ_1
 62
     5
 10
-37.617072484200001
 20
-184.27787025750001
 30
0.0
 11
-37.617072484200001
 21
-275.06973451530001
 31
0.0
  0
DIMENSION
  5
376
  8
寸法線
  2
*D26
 10
15.308229258400001
 20
-358.57787025750002
 30
0.0
 11
15.308229258400001
 21
-275.07787025750002
 31
0.0
 70
   128
  1
<>
 13
-8.4170724842000002
 23
-358.57787025750002
 33
0.0
 14
-8.4170724842000002
 24
-191.5778702575
 34
0.0
 50
90.0
  0
LINE
  5
377
  8
ﾚｲﾔ_1
 62
     5
 10
-36.617072484200001
 20
-187.578342961
 30
0.0
 11
-36.617072484200001
 21
-362.57739890340002
 31
0.0
  0
LINE
  5
378
  8
ﾚｲﾔ_1
 62
     5
 10
-22.617072484200001
 20
-364.57739890340002
 30
0.0
 11
-22.617072484200001
 21
-185.57834161170001
 31
0.0
  0
LINE
  5
379
  8
ﾚｲﾔ_1
 62
     5
 10
94.815154078299997
 20
-364.57739890340002
 30
0.0
 11
94.815154078299997
 21
-185.57834161170001
 31
0.0
  0
LINE
  5
37A
  8
ﾚｲﾔ_1
 62
     5
 10
69.815154078299983
 20
-365.87739890339998
 30
0.0
 11
69.815154078299983
 21
-184.2783416117
 31
0.0
  0
LINE
  5
37B
  8
ﾚｲﾔ_1
 62
     5
 10
71.815154078299997
 20
-187.57834161170001
 30
0.0
 11
71.815154078299997
 21
-362.57739890340002
 31
0.0
  0
LINE
  5
37C
  8
ﾚｲﾔ_1
 62
     5
 10
73.815154078299997
 20
-187.57834161170001
 30
0.0
 11
73.815154078299997
 21
-362.57739890340002
 31
0.0
  0
LINE
  5
37D
  8
ﾚｲﾔ_1
 62
     5
 10
-34.617072484200001
 20
-362.57739890340002
 30
0.0
 11
-34.617072484200001
 21
-187.57834161170001
 31
0.0
  0
LINE
  5
37E
  8
ﾚｲﾔ_1
 62
     5
 10
-7.6170724841999986
 20
-359.37787025749998
 30
0.0
 11
-7.6170724841999986
 21
-190.77787025750001
 31
0.0
  0
DIMENSION
  5
38D
  8
寸法線
  2
*D27
 10
146.23006534850001
 20
-360.07739890340002
 30
0.0
 11
146.23006534850001
 21
-275.07787025750002
 31
0.0
 70
   128
  1
170
 13
124.8151540783
 23
-360.07739890340002
 33
0.0
 14
124.8151540783
 24
-190.07834161170001
 34
0.0
 50
90.0
  0
LINE
  5
38E
  8
ﾚｲﾔ_1
 62
     5
 10
124.8151540783
 20
-189.2783416117
 30
0.0
 11
124.8151540783
 21
-360.87739890339998
 31
0.0
  0
DIMENSION
  5
39D
  8
寸法線
  2
*D28
 10
-588.03452858339995
 20
-716.98645441529993
 30
0.0
 11
-573.90952858339995
 21
-716.98645441529993
 31
0.0
 70
   128
  1
<>
 13
-588.03452858339995
 23
-691.98645441529993
 33
0.0
 14
-559.78452858339995
 24
-675.48675129029994
 34
0.0
 50
180.0
  0
DIMENSION
  5
3AC
  8
寸法線
  2
*D29
 10
-559.78452858339995
 20
-716.98645374390003
 30
0.0
 11
-519.53452858339995
 21
-716.98645374390003
 31
0.0
 70
   128
  1
<>
 13
-559.78452858339995
 23
-675.48675129029994
 33
0.0
 14
-479.28452858339989
 24
-675.48675129029994
 34
0.0
 50
180.0
  0
DIMENSION
  5
3BB
  8
寸法線
  2
*D30
 10
-453.98446831119998
 20
-645.48675129029994
 30
0.0
 11
-453.98446831119998
 21
-641.98675129029994
 31
0.0
 70
   128
  1
<>
 13
-471.78452858339989
 23
-645.48675129029994
 33
0.0
 14
-471.78452858339989
 24
-638.48675129029994
 34
0.0
 50
90.0
  0
ARC
  5
3BC
  8
ﾚｲﾔ_1
 62
     5
 10
-567.28452858339995
 20
-656.98675129029994
 30
0.0
 40
3.5
 50
90.0
 51
270.0
  0
ARC
  5
3BD
  8
ﾚｲﾔ_1
 62
     5
 10
-567.28452858339995
 20
-671.98675129029994
 30
0.0
 40
3.5
 50
90.0
 51
270.0
  0
LINE
  5
3BE
  8
ﾚｲﾔ_1
 62
     5
 10
-588.03452858339995
 20
-764.63462007850001
 30
0.0
 11
-586.03452858339995
 21
-764.63462007850001
 31
0.0
  0
LINE
  5
3BF
  8
ﾚｲﾔ_1
 62
     5
 10
-588.03452858339995
 20
-752.63462043480001
 30
0.0
 11
-588.03452858339995
 21
-764.63462007850001
 31
0.0
  0
INSERT
  5
3C0
  8
0
  6
CONTINUOUS
  2
*U79
 10
0.0
 20
0.0
 30
0.0
  0
INSERT
  5
3C1
  8
0
  6
CONTINUOUS
  2
*U80
 10
0.0
 20
0.0
 30
0.0
  0
INSERT
  5
3C2
  8
0
  6
CONTINUOUS
  2
*U81
 10
0.0
 20
0.0
 30
0.0
  0
DIMENSION
  5
3D1
  8
寸法線
  2
*D31
 10
124.8151540783
 20
-140.43249123940001
 30
0.0
 11
97.315154078299997
 21
-140.43249123940001
 31
0.0
 70
   128
  1
<>
 13
124.8151540783
 23
-176.87834161169999
 33
0.0
 14
69.815154078299983
 24
-176.87834161169999
 34
0.0
  0
DIMENSION
  5
3E0
  8
寸法線
  2
*D32
 10
124.8151540783
 20
-153.96890748390001
 30
0.0
 11
109.8151540783
 21
-153.96890748390001
 31
0.0
 70
   128
  1
<>
 13
124.8151540783
 23
-176.07834161170001
 33
0.0
 14
94.815154078299997
 24
-185.07834161170001
 34
0.0
  0
LINE
  5
3E1
  8
ﾚｲﾔ_1
  6
BORDER
 62
     3
 10
64.815154078299983
 20
-275.06973451530001
 30
0.0
 11
129.8151540783
 21
-275.06973451530001
 31
0.0
  0
INSERT
  5
3E3
  8
ﾚｲﾔ_1
 62
     5
  2
CLUMP2
 10
0.0
 20
0.0
 30
0.0
  0
INSERT
  5
400
  8
ﾚｲﾔ_1
 62
     5
  2
CLUMP3
 10
0.0
 20
0.0
 30
0.0
  0
INSERT
  5
41C
  8
0
  6
CONTINUOUS
  2
*U82
 10
0.0
 20
0.0
 30
0.0
  0
DIMENSION
  5
424
  8
寸法線
  2
*D35
 10
-579.90522917919986
 20
-614.55632242399997
 30
0.0
 11
-573.89532183619997
 21
-627.41787720540003
 31
0.0
 70
   131
  1
2-Φ15
 15
-566.51362704250005
 25
-607.79873467300001
 35
0.0
 40
0.0
  0
LINE
  5
425
  8
ﾚｲﾔ_1
  6
HIDDEN
 10
-586.03452858339995
 20
-516.98645441529993
 30
0.0
 11
-586.03452858339995
 21
-691.98645441529993
 31
0.0
  0
LINE
  5
426
  8
ﾚｲﾔ_1
 62
     5
 10
-588.03452858339995
 20
-691.98645441529993
 30
0.0
 11
-588.03452858339995
 21
-516.98645441529993
 31
0.0
  0
DIMENSION
  5
435
  8
寸法線
  2
*D36
 10
-468.28452858339989
 20
-629.24684211830004
 30
0.0
 11
-479.28452858339989
 21
-629.24684211830004
 31
0.0
 70
   128
  1
<>
 13
-468.28452858339989
 23
-641.98675129029994
 33
0.0
 14
-490.28452858339989
 24
-641.98675129029994
 34
0.0
  0
LINE
  5
436
  8
ﾚｲﾔ_1
  6
BORDER
 62
     3
 10
-398.78407362360002
 20
-509.98645441529999
 30
0.0
 11
-398.78407362360002
 21
-698.98645441529993
 31
0.0
  0
DIMENSION
  5
445
  8
寸法線
  2
*D37
 10
-168.94698891050001
 20
-693.98645441529993
 30
0.0
 11
-168.94698891050001
 21
-604.48645441529993
 31
0.0
 70
   128
  1
<>
 13
-211.5345285834
 23
-693.98645441529993
 33
0.0
 14
-211.5345285834
 24
-514.98645441529993
 34
0.0
 50
90.0
  0
DIMENSION
  5
454
  8
寸法線
  2
*D38
 10
-186.5345285834
 20
-641.98675129029994
 30
0.0
 11
-186.5345285834
 21
-626.98675129029994
 31
0.0
 70
   128
  1
<>
 13
-226.7845285834
 23
-641.98675129029994
 33
0.0
 14
-267.0345285834
 24
-611.98675129029994
 34
0.0
 50
90.0
  0
LINE
  5
455
  8
ﾚｲﾔ_1
 62
     5
 10
-209.5345285834
 20
-516.98645441529993
 30
0.0
 11
-209.5345285834
 21
-691.98645441529993
 31
0.0
  0
LINE
  5
456
  8
ﾚｲﾔ_1
  6
HIDDEN
 10
-211.5345285834
 20
-516.98645441529993
 30
0.0
 11
-211.5345285834
 21
-691.98645441529993
 31
0.0
  0
LINE
  5
457
  8
ﾚｲﾔ_1
 62
     5
 10
-542.49554036459995
 20
-362.57787025750002
 30
0.0
 11
-542.49554036459995
 21
-187.5778702575
 31
0.0
  0
LINE
  5
458
  8
ﾚｲﾔ_1
 62
     5
 10
-543.24508540479997
 20
-365.07787025750002
 30
0.0
 11
-543.24508540479997
 21
-185.0778702575
 31
0.0
  0
LINE
  5
459
  8
ﾚｲﾔ_1
 62
     5
 10
-552.24508540480008
 20
-374.07787025750002
 30
0.0
 11
-552.24508540480008
 21
-176.0778702575
 31
0.0
  0
LINE
  5
45A
  8
ﾚｲﾔ_1
  6
HIDDEN
 10
-540.49554036459995
 20
-187.5778702575
 30
0.0
 11
-540.49554036459995
 21
-362.57787025750002
 31
0.0
  0
LINE
  5
45B
  8
ﾚｲﾔ_1
 62
     5
 10
-163.9955403646
 20
-187.5778702575
 30
0.0
 11
-163.9955403646
 21
-362.57787025750002
 31
0.0
  0
LINE
  5
45C
  8
ﾚｲﾔ_1
 62
     5
 10
-163.24508540479999
 20
-185.0778702575
 30
0.0
 11
-163.24508540479999
 21
-365.07787025750002
 31
0.0
  0
LINE
  5
45D
  8
ﾚｲﾔ_1
 62
     5
 10
-154.24508540479999
 20
-176.0778702575
 30
0.0
 11
-154.24508540479999
 21
-374.07787025750002
 31
0.0
  0
ARC
  5
45E
  8
ﾚｲﾔ_1
 62
     5
 10
-406.28452858339989
 20
-551.98675129029994
 30
0.0
 40
3.5
 50
90.0
 51
270.0
  0
ARC
  5
45F
  8
ﾚｲﾔ_1
 62
     5
 10
-406.28452858339989
 20
-566.98675129029994
 30
0.0
 40
3.5
 50
90.0
 51
270.0
  0
ARC
  5
460
  8
ﾚｲﾔ_1
 62
     5
 10
-406.28452858339989
 20
-536.98675129029994
 30
0.0
 40
3.5
 50
90.0
 51
270.0
  0
INSERT
  5
462
  8
寸法線
  2
BALLON2
 10
0.0
 20
0.0
 30
0.0
  0
DIMENSION
  5
479
  8
寸法線
  2
*D40
 10
-154.24508540479999
 20
-135.64004219360001
 30
0.0
 11
-353.24508540480002
 21
-135.64004219360001
 31
0.0
 70
   128
  1
<>
 13
-154.24508540479999
 23
-176.0778702575
 33
0.0
 14
-552.24508540480008
 24
-176.0778702575
 34
0.0
  0
DIMENSION
  5
488
  8
寸法線
  2
*D41
 10
-163.24508540479999
 20
-150.49390877069999
 30
0.0
 11
-353.24508540480002
 21
-150.49390877069999
 31
0.0
 70
   128
  1
<>
 13
-163.24508540479999
 23
-185.0778702575
 33
0.0
 14
-543.24508540479997
 24
-185.0778702575
 34
0.0
  0
LINE
  5
489
  8
ﾚｲﾔ_1
 62
     5
 10
-543.24508540479997
 20
-365.07787025750002
 30
0.0
 11
-163.24508540479999
 21
-365.07787025750002
 31
0.0
  0
LINE
  5
48A
  8
ﾚｲﾔ_1
 62
     5
 10
-552.24508540480008
 20
-176.0778702575
 30
0.0
 11
-154.24508540479999
 21
-176.0778702575
 31
0.0
  0
LINE
  5
48B
  8
ﾚｲﾔ_1
 62
     5
 10
-552.24508540480008
 20
-374.07787025750002
 30
0.0
 11
-154.24508540479999
 21
-374.07787025750002
 31
0.0
  0
LINE
  5
48C
  8
ﾚｲﾔ_1
 62
     5
 10
-540.49554036459995
 20
-364.57787025750002
 30
0.0
 11
-165.9955403646
 21
-364.57787025750002
 31
0.0
  0
LINE
  5
48D
  8
ﾚｲﾔ_1
 62
     5
 10
-540.49554036459995
 20
-185.5778702575
 30
0.0
 11
-165.9955403646
 21
-185.5778702575
 31
0.0
  0
LINE
  5
48E
  8
ﾚｲﾔ_1
  6
STITCH
 10
-540.49554036459995
 20
-187.5778702575
 30
0.0
 11
-165.9955403646
 21
-187.5778702575
 31
0.0
  0
LINE
  5
48F
  8
ﾚｲﾔ_1
  6
STITCH
 10
-540.49554036459995
 20
-362.57787025750002
 30
0.0
 11
-165.9955403646
 21
-362.57787025750002
 31
0.0
  0
LINE
  5
490
  8
ﾚｲﾔ_1
 10
-552.24508540480008
 20
-420.20674920229999
 30
0.0
 11
-353.24508540480002
 21
-420.20674920229999
 31
0.0
  0
LINE
  5
491
  8
ﾚｲﾔ_1
 10
-551.44508540480001
 20
-414.20674920229999
 30
0.0
 11
-353.24508540480002
 21
-414.20674920229999
 31
0.0
  0
LINE
  5
492
  8
ﾚｲﾔ_1
 10
-353.24508540480002
 20
-430.0067492023
 30
0.0
 11
-536.04508540480003
 21
-430.0067492023
 31
0.0
  0
LINE
  5
493
  8
ﾚｲﾔ_1
 62
     5
 10
-543.24508540479997
 20
-185.0778702575
 30
0.0
 11
-163.24508540479999
 21
-185.0778702575
 31
0.0
  0
ARC
  5
494
  8
ﾚｲﾔ_1
 62
     5
 10
-400.99554036459989
 20
-267.57816713250003
 30
0.0
 40
3.5
 50
90.0
 51
270.0
  0
ARC
  5
495
  8
ﾚｲﾔ_1
 62
     5
 10
-400.99554036459989
 20
-282.57816713250003
 30
0.0
 40
3.5
 50
90.0
 51
270.0
  0
INSERT
  5
497
  8
図枠
  2
CLUMP4
 10
0.0
 20
0.0
 30
0.0
  0
INSERT
  5
4A1
  8
図枠
  2
CLUMP5
 10
0.0
 20
0.0
 30
0.0
  0
INSERT
  5
4AB
  8
図枠
  2
CLUMP6
 10
0.0
 20
0.0
 30
0.0
  0
INSERT
  5
4B4
  8
0
  6
CONTINUOUS
  2
*U84
 10
0.0
 20
0.0
 30
0.0
  0
INSERT
  5
4B5
  8
0
  6
CONTINUOUS
  2
*U85
 10
0.0
 20
0.0
 30
0.0
  0
INSERT
  5
4B6
  8
0
  6
CONTINUOUS
  2
*U86
 10
0.0
 20
0.0
 30
0.0
  0
DIMENSION
  5
4C5
  8
寸法線
  2
*D45
 10
-479.28452858339989
 20
-716.98645441529993
 30
0.0
 11
-439.03430110350001
 21
-716.98645441529993
 31
0.0
 70
   128
  1
<>
 13
-479.28452858339989
 23
-675.48675129029994
 33
0.0
 14
-398.78407362360002
 24
-698.98645441529993
 34
0.0
 50
180.0
  0
DIMENSION
  5
4D4
  8
寸法線
  2
*D46
 10
-209.5345285834
 20
-487.19676439760002
 30
0.0
 11
-398.7845285834
 21
-487.19676439760002
 31
0.0
 70
   128
  1
<>
 13
-209.5345285834
 23
-516.98645441529993
 33
0.0
 14
-588.03452858339995
 24
-516.98645441529993
 34
0.0
  0
LINE
  5
4D5
  8
ﾚｲﾔ_1
 10
-353.24508540480002
 20
-444.20674920229999
 30
0.0
 11
-551.44508540480001
 21
-444.20674920229999
 31
0.0
  0
LINE
  5
4D6
  8
ﾚｲﾔ_1
  6
STITCH
 10
-586.03452858339995
 20
-516.98645441529993
 30
0.0
 11
-211.5345285834
 21
-516.98645441529993
 31
0.0
  0
LINE
  5
4D7
  8
ﾚｲﾔ_1
 62
     5
 10
-586.03452858339995
 20
-514.98645441529993
 30
0.0
 11
-211.5345285834
 21
-514.98645441529993
 31
0.0
  0
LINE
  5
4D8
  8
ﾚｲﾔ_1
 62
     5
 10
-586.03452858339995
 20
-693.98645441529993
 30
0.0
 11
-211.5345285834
 21
-693.98645441529993
 31
0.0
  0
LINE
  5
4D9
  8
ﾚｲﾔ_1
  6
STITCH
 10
-586.03452858339995
 20
-691.98645441529993
 30
0.0
 11
-211.5345285834
 21
-691.98645441529993
 31
0.0
  0
LINE
  5
4DA
  8
ﾚｲﾔ_1
  6
BORDER
 62
     3
 10
-593.03452858339995
 20
-604.48645441529993
 30
0.0
 11
-204.5345285834
 21
-604.48645441529993
 31
0.0
  0
LINE
  5
4DB
  8
ﾚｲﾔ_1
 62
     5
 10
-586.03452858339995
 20
-752.63462007850001
 30
0.0
 11
-211.5345285834
 21
-752.63462007850001
 31
0.0
  0
LINE
  5
4DC
  8
ﾚｲﾔ_1
 62
     5
 10
-211.5345299327
 20
-750.63462007849989
 30
0.0
 11
-586.03452858339995
 21
-750.63462007849989
 31
0.0
  0
LINE
  5
4DD
  8
ﾚｲﾔ_1
 62
     5
 10
-391.28452858339989
 20
-660.48675129029994
 30
0.0
 11
-406.28452858339989
 21
-660.48675129029994
 31
0.0
  0
LINE
  5
4DE
  8
ﾚｲﾔ_1
 62
     5
 10
-406.28452858339989
 20
-653.48675129029994
 30
0.0
 11
-391.28452858339989
 21
-653.48675129029994
 31
0.0
  0
LINE
  5
4DF
  8
ﾚｲﾔ_1
 62
     5
 10
-406.28452858339989
 20
-555.48675129029994
 30
0.0
 11
-391.28452858339989
 21
-555.48675129029994
 31
0.0
  0
LINE
  5
4E0
  8
ﾚｲﾔ_1
 62
     5
 10
-406.28452858339989
 20
-570.48675129029994
 30
0.0
 11
-391.28452858339989
 21
-570.48675129029994
 31
0.0
  0
LINE
  5
4E1
  8
ﾚｲﾔ_1
 62
     5
 10
-391.28452858339989
 20
-645.48675129029994
 30
0.0
 11
-406.28452858339989
 21
-645.48675129029994
 31
0.0
  0
LINE
  5
4E2
  8
ﾚｲﾔ_1
 62
     5
 10
-406.28452858339989
 20
-638.48675129029994
 30
0.0
 11
-391.28452858339989
 21
-638.48675129029994
 31
0.0
  0
LINE
  5
4E3
  8
ﾚｲﾔ_1
 62
     5
 10
-391.28452858339989
 20
-548.48675129029994
 30
0.0
 11
-406.28452858339989
 21
-548.48675129029994
 31
0.0
  0
LINE
  5
4E4
  8
ﾚｲﾔ_1
 62
     5
 10
-391.28452858339989
 20
-563.48675129029994
 30
0.0
 11
-406.28452858339989
 21
-563.48675129029994
 31
0.0
  0
LINE
  5
4E5
  8
ﾚｲﾔ_1
 62
     5
 10
-391.28452858339989
 20
-675.48675129029994
 30
0.0
 11
-406.28452858339989
 21
-675.48675129029994
 31
0.0
  0
LINE
  5
4E6
  8
ﾚｲﾔ_1
 62
     5
 10
-406.28452858339989
 20
-668.48675129029994
 30
0.0
 11
-391.28452858339989
 21
-668.48675129029994
 31
0.0
  0
LINE
  5
4E7
  8
ﾚｲﾔ_1
 62
     5
 10
-406.28452858339989
 20
-540.48675129029994
 30
0.0
 11
-391.28452858339989
 21
-540.48675129029994
 31
0.0
  0
LINE
  5
4E8
  8
ﾚｲﾔ_1
 62
     5
 10
-391.28452858339989
 20
-533.48675129029994
 30
0.0
 11
-406.28452858339989
 21
-533.48675129029994
 31
0.0
  0
ARC
  5
4E9
  8
ﾚｲﾔ_1
 62
     5
 10
-406.28452858339989
 20
-656.98675129029994
 30
0.0
 40
3.5
 50
90.0
 51
270.0
  0
ARC
  5
4EA
  8
ﾚｲﾔ_1
 62
     5
 10
-406.28452858339989
 20
-641.98675129029994
 30
0.0
 40
3.5
 50
90.0
 51
270.0
  0
ARC
  5
4EB
  8
ﾚｲﾔ_1
 62
     5
 10
-406.28452858339989
 20
-671.98675129029994
 30
0.0
 40
3.5
 50
90.0
 51
270.0
  0
DIMENSION
  5
4FA
  8
寸法線
  2
*D47
 10
-154.24508540479999
 20
-150.49391067810001
 30
0.0
 11
-158.74508540479999
 21
-150.49391067810001
 31
0.0
 70
   128
  1
<>
 13
-154.24508540479999
 23
-176.0778702575
 33
0.0
 14
-163.24508540479999
 24
-185.0778702575
 34
0.0
  0
DIMENSION
  5
509
  8
寸法線
  2
*D48
 10
-111.4042879805
 20
-176.0778702575
 30
0.0
 11
-111.4042879805
 21
-180.5778702575
 31
0.0
 70
   128
  1
<>
 13
-154.24508540479999
 23
-176.0778702575
 33
0.0
 14
-163.24508540479999
 24
-185.0778702575
 34
0.0
 50
90.0
  0
INSERT
  5
50B
  8
図枠
  2
CLUMP7
 10
0.0
 20
0.0
 30
0.0
  0
DIMENSION
  5
5BD
  8
寸法線
  2
*D50
 10
-121.24680201859999
 20
-444.20674920229999
 30
0.0
 11
-121.24680201859999
 21
-441.20674920229999
 31
0.0
 70
   128
  1
<>
 13
-155.04508540480001
 23
-444.20674920229999
 33
0.0
 14
-154.24508540479999
 24
-438.20674920229999
 34
0.0
 50
90.0
  0
DIMENSION
  5
5CC
  8
寸法線
  2
*D51
 10
-121.24680201859999
 20
-420.20674920229999
 30
0.0
 11
-121.24680201859999
 21
-417.20674920229999
 31
0.0
 70
   128
  1
<>
 13
-154.24508540479999
 23
-420.20674920229999
 33
0.0
 14
-155.04508540480001
 24
-414.20674920229999
 34
0.0
 50
90.0
  0
DIMENSION
  5
5DB
  8
寸法線
  2
*D52
 10
-96.082064317199993
 20
-374.07787025750002
 30
0.0
 11
-96.082064317199993
 21
-275.07787025750002
 31
0.0
 70
   128
  1
<>
 13
-154.24508540479999
 23
-374.07787025750002
 33
0.0
 14
-154.24508540479999
 24
-176.0778702575
 34
0.0
 50
90.0
  0
DIMENSION
  5
5EA
  8
寸法線
  2
*D53
 10
-111.4042879805
 20
-185.0778702575
 30
0.0
 11
-111.4042879805
 21
-275.07787025750002
 31
0.0
 70
   128
  1
<>
 13
-163.24508540479999
 23
-185.0778702575
 33
0.0
 14
-163.24508540479999
 24
-365.07787025750002
 34
0.0
 50
90.0
  0
DIMENSION
  5
5F9
  8
寸法線
  2
*D54
 10
-111.4042879805
 20
-374.07787025750002
 30
0.0
 11
-111.4042879805
 21
-369.57787025750002
 31
0.0
 70
   128
  1
<>
 13
-154.24508540479999
 23
-374.07787025750002
 33
0.0
 14
-163.24508540479999
 24
-365.07787025750002
 34
0.0
 50
90.0
  0
LINE
  5
5FA
  8
ﾚｲﾔ_1
 10
-158.4902213224
 20
-365.07787025750002
 30
0.0
 11
-112.3365627858
 21
-365.07787025750002
 31
0.0
  0
INSERT
  5
5FB
  8
0
  6
CONTINUOUS
  2
*U107
 10
0.0
 20
0.0
 30
0.0
  0
LINE
  5
5FC
  8
ﾚｲﾔ_1
  6
BORDER
 62
     3
 10
-557.24508540480008
 20
-275.07787025750002
 30
0.0
 11
-149.24508540479999
 21
-275.07787025750002
 31
0.0
  0
LINE
  5
5FD
  8
ﾚｲﾔ_1
  6
BORDER
 62
     3
 10
-145.81756330330001
 20
-604.48645441529993
 30
0.0
 11
-120.81756330330001
 21
-604.48645441529993
 31
0.0
  0
LINE
  5
5FE
  8
ﾚｲﾔ_1
 10
-551.44508540480001
 20
-443.40674920229998
 30
0.0
 11
-551.44508540480001
 21
-438.20674920229999
 31
0.0
  0
LINE
  5
5FF
  8
ﾚｲﾔ_1
 10
-535.24511848960003
 20
-438.20674920229999
 30
0.0
 11
-535.24511848960003
 21
-444.20674920229999
 31
0.0
  0
LINE
  5
600
  8
ﾚｲﾔ_1
 10
-544.04508540480003
 20
-420.20674920229999
 30
0.0
 11
-544.04508540480003
 21
-443.40674920229998
 31
0.0
  0
LINE
  5
601
  8
ﾚｲﾔ_1
 10
-536.04508540480003
 20
-420.20674920229999
 30
0.0
 11
-536.04508540480003
 21
-443.40674920229998
 31
0.0
  0
LINE
  5
602
  8
ﾚｲﾔ_1
 10
-552.24508540480008
 20
-443.40674920229998
 30
0.0
 11
-552.24508540480008
 21
-438.20674920229999
 31
0.0
  0
LINE
  5
603
  8
ﾚｲﾔ_1
  6
BORDER
 62
     3
 10
-353.24508540480002
 20
-409.20674920229999
 30
0.0
 11
-353.24508540480002
 21
-449.20674920229999
 31
0.0
  0
LINE
  5
604
  8
ﾚｲﾔ_1
 62
     5
 10
-154.24508540479999
 20
-443.40674920229998
 30
0.0
 11
-154.24508540479999
 21
-438.20674920229999
 31
0.0
  0
LINE
  5
605
  8
ﾚｲﾔ_1
 62
     5
 10
-155.04508540480001
 20
-438.20674920229999
 30
0.0
 11
-155.04508540480001
 21
-443.40674920229998
 31
0.0
  0
LINE
  5
606
  8
ﾚｲﾔ_1
 62
     5
 10
-162.44508540480001
 20
-429.20674920229999
 30
0.0
 11
-162.44508540480001
 21
-443.40674920229998
 31
0.0
  0
LINE
  5
607
  8
ﾚｲﾔ_1
 62
     5
 10
-163.24508540479999
 20
-429.20674920229999
 30
0.0
 11
-163.24508540479999
 21
-443.40674920229998
 31
0.0
  0
LINE
  5
608
  8
ﾚｲﾔ_1
 10
-535.24511848960003
 20
-438.20674920229999
 30
0.0
 11
-353.24508540480002
 21
-438.20674920229999
 31
0.0
  0
LINE
  5
609
  8
ﾚｲﾔ_1
 10
-551.44508540480001
 20
-438.20674920229999
 30
0.0
 11
-552.24508540480008
 21
-438.20674920229999
 31
0.0
  0
LINE
  5
60A
  8
ﾚｲﾔ_1
 62
     5
 10
-154.24508540479999
 20
-438.20674920229999
 30
0.0
 11
-155.04508540480001
 21
-438.20674920229999
 31
0.0
  0
ENDSEC
  0
EOF
