  0
SECTION
  2
HEADER
  9
$ACADVER
  1
AC1009
  9
$INSBASE
 10
0.0
 20
0.0
 30
0.0
  9
$EXTMIN
 10
-322.98668153147543
 20
-382.5960963866321
 30
-0.0015258207003583
  9
$EXTMAX
 10
701.97587340023802
 20
338.59791911634898
 30
0.0000000349246037
  9
$LIMMIN
 10
0.0
 20
0.0
  9
$LIMMAX
 10
0.0
 20
0.0
  9
$ORTHOMODE
 70
     0
  9
$REGENMODE
 70
     1
  9
$FILLMODE
 70
     1
  9
$QTEXTMODE
 70
     0
  9
$MIRRTEXT
 70
     1
  9
$DRAGMODE
 70
     2
  9
$LTSCALE
 40
1.0
  9
$OSMODE
 70
    31
  9
$ATTMODE
 70
     1
  9
$TEXTSIZE
 40
0.0
  9
$TRACEWID
 40
0.05
  9
$TEXTSTYLE
  7
STANDARD
  9
$CLAYER
  8
0
  9
$CELTYPE
  6
CONTINUOUS
  9
$CECOLOR
 62
   256
  9
$DIMSCALE
 40
1.0
  9
$DIMASZ
 40
0.18
  9
$DIMEXO
 40
0.0625
  9
$DIMDLI
 40
0.38
  9
$DIMRND
 40
0.0
  9
$DIMDLE
 40
0.0
  9
$DIMEXE
 40
0.18
  9
$DIMTP
 40
0.0
  9
$DIMTM
 40
0.0
  9
$DIMTXT
 40
0.18
  9
$DIMCEN
 40
0.09
  9
$DIMTSZ
 40
0.0
  9
$DIMTOL
 70
     0
  9
$DIMLIM
 70
     0
  9
$DIMTIH
 70
     1
  9
$DIMTOH
 70
     1
  9
$DIMSE1
 70
     0
  9
$DIMSE2
 70
     0
  9
$DIMTAD
 70
     0
  9
$DIMZIN
 70
     0
  9
$DIMBLK
  1

  9
$DIMASO
 70
     1
  9
$DIMSHO
 70
     1
  9
$DIMPOST
  1

  9
$DIMAPOST
  1

  9
$DIMALT
 70
     0
  9
$DIMALTD
 70
     2
  9
$DIMALTF
 40
25.399999999999999
  9
$DIMLFAC
 40
1.0
  9
$DIMTOFL
 70
     0
  9
$DIMTVP
 40
0.0
  9
$DIMTIX
 70
     0
  9
$DIMSOXD
 70
     0
  9
$DIMSAH
 70
     0
  9
$DIMBLK1
  1

  9
$DIMBLK2
  1

  9
$DIMSTYLE
  2
STANDARD
  9
$DIMCLRD
 70
     0
  9
$DIMCLRE
 70
     0
  9
$DIMCLRT
 70
     0
  9
$DIMTFAC
 40
1.0
  9
$DIMGAP
 40
0.09
  9
$LUNITS
 70
     2
  9
$LUPREC
 70
     4
  9
$SKETCHINC
 40
0.1
  9
$FILLETRAD
 40
0.0
  9
$AUNITS
 70
     0
  9
$AUPREC
 70
     0
  9
$MENU
  1
acad
  9
$ELEVATION
 40
0.0
  9
$PELEVATION
 40
0.0
  9
$THICKNESS
 40
0.0
  9
$LIMCHECK
 70
     0
  9
$BLIPMODE
 70
     0
  9
$CHAMFERA
 40
0.0
  9
$CHAMFERB
 40
0.0
  9
$SKPOLY
 70
     0
  9
$TDCREATE
 40
2454859.7978757871
  9
$TDUPDATE
 40
2454859.7980928011
  9
$TDINDWG
 40
0.0002352778
  9
$TDUSRTIMER
 40
0.000234919
  9
$USRTIMER
 70
     1
  9
$ANGBASE
 50
0.0
  9
$ANGDIR
 70
     0
  9
$PDMODE
 70
     3
  9
$PDSIZE
 40
-1.0
  9
$PLINEWID
 40
0.0
  9
$COORDS
 70
     2
  9
$SPLFRAME
 70
     0
  9
$SPLINETYPE
 70
     6
  9
$SPLINESEGS
 70
     8
  9
$ATTDIA
 70
     0
  9
$ATTREQ
 70
     1
  9
$HANDLING
 70
     1
  9
$HANDSEED
  5
B1A
  9
$SURFTAB1
 70
     6
  9
$SURFTAB2
 70
     6
  9
$SURFTYPE
 70
     6
  9
$SURFU
 70
     6
  9
$SURFV
 70
     6
  9
$UCSNAME
  2

  9
$UCSORG
 10
0.0
 20
0.0
 30
0.0
  9
$UCSXDIR
 10
1.0
 20
0.0
 30
0.0
  9
$UCSYDIR
 10
0.0
 20
1.0
 30
0.0
  9
$PUCSNAME
  2

  9
$PUCSORG
 10
0.0
 20
0.0
 30
0.0
  9
$PUCSXDIR
 10
1.0
 20
0.0
 30
0.0
  9
$PUCSYDIR
 10
0.0
 20
1.0
 30
0.0
  9
$USERI1
 70
     0
  9
$USERI2
 70
     0
  9
$USERI3
 70
     0
  9
$USERI4
 70
     0
  9
$USERI5
 70
     0
  9
$USERR1
 40
0.0
  9
$USERR2
 40
0.0
  9
$USERR3
 40
0.0
  9
$USERR4
 40
0.0
  9
$USERR5
 40
0.0
  9
$WORLDVIEW
 70
     1
  9
$SHADEDGE
 70
     3
  9
$SHADEDIF
 70
    70
  9
$TILEMODE
 70
     1
  9
$MAXACTVP
 70
    16
  9
$PLIMCHECK
 70
     0
  9
$PEXTMIN
 10
1.0000000000000000E+020
 20
1.0000000000000000E+020
 30
1.0000000000000000E+020
  9
$PEXTMAX
 10
-1.0000000000000000E+020
 20
-1.0000000000000000E+020
 30
-1.0000000000000000E+020
  9
$PLIMMIN
 10
0.0
 20
0.0
  9
$PLIMMAX
 10
12.0
 20
9.0
  9
$UNITMODE
 70
     0
  9
$VISRETAIN
 70
     0
  9
$PLINEGEN
 70
     1
  9
$PSLTSCALE
 70
     0
  0
ENDSEC
  0
SECTION
  2
TABLES
  0
TABLE
  2
VPORT
 70
     2
  0
VPORT
  2
*ACTIVE
 70
     0
 10
0.0
 20
0.0
 11
1.0
 21
1.0
 12
189.49459593438129
 22
-21.999088635141561
 13
0.0
 23
0.0
 14
1.0
 24
1.0
 15
0.0
 25
0.0
 16
0.0
 26
0.0
 36
1.0
 17
0.0
 27
0.0
 37
0.0
 40
727.17902807976918
 41
1.6343490304709141
 42
50.0
 43
0.0
 44
0.0
 50
0.0
 51
0.0
 71
     0
 72
   100
 73
     1
 74
     1
 75
     0
 76
     0
 77
     0
 78
     0
  0
ENDTAB
  0
TABLE
  2
LTYPE
 70
    11
  0
LTYPE
  2
CONTINUOUS
 70
     0
  3
Solid line
 72
    65
 73
     0
 40
0.0
  0
LTYPE
  2
DOT
 70
     0
  3
. . . . . . . . 
 72
    65
 73
     2
 40
1.0
 49
0.0
 49
-1.0
  0
LTYPE
  2
DASHED
 70
     0
  3
___  ___  ___  ___  
 72
    65
 73
     2
 40
4.0
 49
3.0
 49
-1.0
  0
LTYPE
  2
HIDDEN
 70
     0
  3
__ __ __ __ 
 72
    65
 73
     2
 40
3.0
 49
2.0
 49
-1.0
  0
LTYPE
  2
STITCH
 70
     0
  3
_ _ _ _ 
 72
    65
 73
     2
 40
2.0
 49
1.0
 49
-1.0
  0
LTYPE
  2
CENTER
 70
     0
  3
______  __  ______  __  
 72
    65
 73
     4
 40
43.0
 49
40.0
 49
-1.0
 49
1.0
 49
-1.0
  0
LTYPE
  2
DASHDOT
 70
     0
  3
____ . ____ . 
 72
    65
 73
     4
 40
32.0
 49
30.0
 49
-1.0
 49
0.0
 49
-1.0
  0
LTYPE
  2
BORDER
 70
     0
  3
__ . __ . 
 72
    65
 73
     4
 40
22.0
 49
20.0
 49
-1.0
 49
0.0
 49
-1.0
  0
LTYPE
  2
CUTTING
 70
     0
  3
________   ___   ___   
 72
    65
 73
     6
 40
45.0
 49
40.0
 49
-1.0
 49
1.0
 49
-1.0
 49
1.0
 49
-1.0
  0
LTYPE
  2
PHANTOM
 70
     0
  3
______  __  __  
 72
    65
 73
     6
 40
35.0
 49
30.0
 49
-1.0
 49
1.0
 49
-1.0
 49
1.0
 49
-1.0
  0
LTYPE
  2
DIVIDE
 70
     0
  3
____ . . ____ . . 
 72
    65
 73
     6
 40
23.0
 49
20.0
 49
-1.0
 49
0.0
 49
-1.0
 49
0.0
 49
-1.0
  0
ENDTAB
  0
TABLE
  2
LAYER
 70
     5
  0
LAYER
  2
0
 70
     0
 62
     7
  6
CONTINUOUS
  0
LAYER
  2
┌▓È_1
 70
     0
 62
     7
  6
CONTINUOUS
  0
LAYER
  2
Éíû@É³
 70
     0
 62
     7
  6
CONTINUOUS
  0
LAYER
  2
É}ÿg
 70
     0
 62
     7
  6
CONTINUOUS
  0
LAYER
  2
ë³Æ¨
 70
     0
 62
     7
  6
CONTINUOUS
  0
ENDTAB
  0
TABLE
  2
STYLE
 70
     1
  0
STYLE
  2
STANDARD
 70
     0
 40
0.0
 41
1.0
 50
0.0
 71
     0
 42
0.0
  3
txt
  4
extfont
  0
ENDTAB
  0
TABLE
  2
VIEW
 70
     0
  0
ENDTAB
  0
TABLE
  2
UCS
 70
     0
  0
ENDTAB
  0
TABLE
  2
APPID
 70
     2
  0
APPID
  2
ACAD
 70
     0
  0
APPID
  2
DCO15
 70
     0
  0
ENDTAB
  0
TABLE
  2
DIMSTYLE
 70
     3
  0
DIMSTYLE
  2
STANDARD
 70
     0
  3

  4

  5

  6

  7

 40
1.0
 41
0.18
 42
0.0625
 43
0.38
 44
0.18
 45
0.0
 46
0.0
 47
0.0
 48
0.0
140
0.18
141
0.09
142
0.0
143
25.399999999999999
144
1.0
145
0.0
146
1.0
147
0.09
 71
     0
 72
     0
 73
     1
 74
     1
 75
     0
 76
     0
 77
     0
 78
     0
170
     0
171
     2
172
     0
173
     0
174
     0
175
     0
176
     0
177
     0
178
     0
  0
DIMSTYLE
  2
VELDIM0
 70
     0
  3

  4

  5

  6

  7

 40
1.0
 41
7.5
 42
0.0625
 43
0.38
 44
1.0
 45
0.0
 46
7.0
 47
0.0
 48
0.0
140
8.2461809158000001
141
0.09
142
0.0
143
25.399999999999999
144
1.0
145
0.0
146
1.0
147
0.09
 71
     0
 72
     0
 73
     0
 74
     0
 75
     0
 76
     0
 77
     0
 78
     8
170
     0
171
     2
172
     0
173
     0
174
     0
175
     0
176
     0
177
     0
178
     0
  0
DIMSTYLE
  2
VELDIM1
 70
     0
  3

  4

  5

  6

  7

 40
1.0
 41
7.5
 42
0.0625
 43
0.38
 44
1.25
 45
0.0
 46
5.0
 47
0.0
 48
0.0
140
8.2461809158000001
141
0.09
142
0.0
143
25.399999999999999
144
1.0
145
0.0
146
1.0
147
0.09
 71
     0
 72
     0
 73
     0
 74
     0
 75
     0
 76
     0
 77
     0
 78
     8
170
     0
171
     2
172
     0
173
     0
174
     0
175
     0
176
     0
177
     0
178
     0
  0
ENDTAB
  0
ENDSEC
  0
SECTION
  2
BLOCKS
  0
BLOCK
  8
0
  2
$MODEL_SPACE
 70
     0
 10
0.0
 20
0.0
 30
0.0
  3
$MODEL_SPACE
  1

  0
ENDBLK
  5
E
  8
0
  0
BLOCK
 67
     1
  8
0
  2
$PAPER_SPACE
 70
     0
 10
0.0
 20
0.0
 30
0.0
  3
$PAPER_SPACE
  1

  0
ENDBLK
  5
10
 67
     1
  8
0
  0
BLOCK
  8
0
  2
CLUMP0
 70
     0
 10
0.0
 20
0.0
 30
0.0
  3
CLUMP0
  1

  0
ARC
  5
32
  8
┌▓È_1
 10
50.54115625
 20
162.46285809759999
 30
0.0
 40
3.5
 50
90.0
 51
270.0
  0
LINE
  5
33
  8
┌▓È_1
 10
65.54115625
 20
165.96285809759999
 30
0.0
 11
50.54115625
 21
165.96285809759999
 31
0.0
  0
LINE
  5
34
  8
┌▓È_1
 10
50.54115625
 20
158.96285809759999
 30
0.0
 11
65.54115625
 21
158.96285809759999
 31
0.0
  0
ARC
  5
35
  8
┌▓È_1
 10
65.54115625
 20
162.46285809759999
 30
0.0
 40
3.5
 50
270.0
 51
90.0
  0
ENDBLK
  5
36
  8
0
  0
BLOCK
  8
0
  2
CLUMP1
 70
     0
 10
0.0
 20
0.0
 30
0.0
  3
CLUMP1
  1

  0
ARC
  5
3A
  8
┌▓È_1
 10
125.54115625
 20
162.46285809759999
 30
0.0
 40
3.5
 50
90.0
 51
270.0
  0
LINE
  5
3B
  8
┌▓È_1
 10
140.54115625
 20
165.96285809759999
 30
0.0
 11
125.54115625
 21
165.96285809759999
 31
0.0
  0
LINE
  5
3C
  8
┌▓È_1
 10
125.54115625
 20
158.96285809759999
 30
0.0
 11
140.54115625
 21
158.96285809759999
 31
0.0
  0
ARC
  5
3D
  8
┌▓È_1
 10
140.54115625
 20
162.46285809759999
 30
0.0
 40
3.5
 50
270.0
 51
90.0
  0
ENDBLK
  5
3E
  8
0
  0
BLOCK
  8
0
  2
CLUMP2
 70
     0
 10
0.0
 20
0.0
 30
0.0
  3
CLUMP2
  1

  0
INSERT
  5
44
  8
┌▓È_1
  2
CLUMP3
 10
0.0
 20
0.0
 30
0.0
  0
INSERT
  5
58
  8
┌▓È_1
  2
CLUMP6
 10
0.0
 20
0.0
 30
0.0
  0
ENDBLK
  5
6B
  8
0
  0
BLOCK
  8
0
  2
CLUMP3
 70
     0
 10
0.0
 20
0.0
 30
0.0
  3
CLUMP3
  1

  0
INSERT
  5
47
  8
┌▓È_1
  2
CLUMP4
 10
0.0
 20
0.0
 30
0.0
  0
INSERT
  5
4F
  8
┌▓È_1
  2
CLUMP5
 10
0.0
 20
0.0
 30
0.0
  0
ENDBLK
  5
56
  8
0
  0
BLOCK
  8
0
  2
CLUMP4
 70
     0
 10
0.0
 20
0.0
 30
0.0
  3
CLUMP4
  1

  0
ARC
  5
49
  8
┌▓È_1
 10
238.04115625
 20
115.96285809760001
 30
0.0
 40
3.5
 50
90.0
 51
270.0
  0
LINE
  5
4A
  8
┌▓È_1
 10
238.04115625
 20
119.46285809760001
 30
0.0
 11
253.04115625
 21
119.46285809760001
 31
0.0
  0
ARC
  5
4B
  8
┌▓È_1
 10
253.04115625
 20
115.96285809760001
 30
0.0
 40
3.5
 50
270.0
 51
90.0
  0
LINE
  5
4C
  8
┌▓È_1
 10
253.04115625
 20
112.46285809760001
 30
0.0
 11
238.04115625
 21
112.46285809760001
 31
0.0
  0
ENDBLK
  5
4D
  8
0
  0
BLOCK
  8
0
  2
CLUMP5
 70
     0
 10
0.0
 20
0.0
 30
0.0
  3
CLUMP5
  1

  0
ARC
  5
51
  8
┌▓È_1
 10
238.04115625
 20
130.96285809759999
 30
0.0
 40
3.5
 50
90.0
 51
270.0
  0
LINE
  5
52
  8
┌▓È_1
 10
253.04115625
 20
127.46285809760001
 30
0.0
 11
238.04115625
 21
127.46285809760001
 31
0.0
  0
LINE
  5
53
  8
┌▓È_1
 10
238.04115625
 20
134.46285809759999
 30
0.0
 11
253.04115625
 21
134.46285809759999
 31
0.0
  0
ARC
  5
54
  8
┌▓È_1
 10
253.04115625
 20
130.96285809759999
 30
0.0
 40
3.5
 50
270.0
 51
90.0
  0
ENDBLK
  5
55
  8
0
  0
BLOCK
  8
0
  2
CLUMP6
 70
     0
 10
0.0
 20
0.0
 30
0.0
  3
CLUMP6
  1

  0
INSERT
  5
5B
  8
┌▓È_1
  2
CLUMP7
 10
0.0
 20
0.0
 30
0.0
  0
INSERT
  5
63
  8
┌▓È_1
  2
CLUMP8
 10
0.0
 20
0.0
 30
0.0
  0
ENDBLK
  5
6A
  8
0
  0
BLOCK
  8
0
  2
CLUMP7
 70
     0
 10
0.0
 20
0.0
 30
0.0
  3
CLUMP7
  1

  0
ARC
  5
5D
  8
┌▓È_1
 10
238.04115625
 20
193.96285809759999
 30
0.0
 40
3.5
 50
90.0
 51
270.0
  0
LINE
  5
5E
  8
┌▓È_1
 10
253.04115625
 20
197.46285809759999
 30
0.0
 11
238.04115625
 21
197.46285809759999
 31
0.0
  0
LINE
  5
5F
  8
┌▓È_1
 10
238.04115625
 20
190.46285809759999
 30
0.0
 11
253.04115625
 21
190.46285809759999
 31
0.0
  0
ARC
  5
60
  8
┌▓È_1
 10
253.04115625
 20
193.96285809759999
 30
0.0
 40
3.5
 50
270.0
 51
90.0
  0
ENDBLK
  5
61
  8
0
  0
BLOCK
  8
0
  2
CLUMP8
 70
     0
 10
0.0
 20
0.0
 30
0.0
  3
CLUMP8
  1

  0
ARC
  5
65
  8
┌▓È_1
 10
238.04115625
 20
208.96285809759999
 30
0.0
 40
3.5
 50
90.0
 51
270.0
  0
LINE
  5
66
  8
┌▓È_1
 10
253.04115625
 20
212.46285809759999
 30
0.0
 11
238.04115625
 21
212.46285809759999
 31
0.0
  0
LINE
  5
67
  8
┌▓È_1
 10
238.04115625
 20
205.46285809759999
 30
0.0
 11
253.04115625
 21
205.46285809759999
 31
0.0
  0
ARC
  5
68
  8
┌▓È_1
 10
253.04115625
 20
208.96285809759999
 30
0.0
 40
3.5
 50
270.0
 51
90.0
  0
ENDBLK
  5
69
  8
0
  0
BLOCK
  8
0
  2
CLUMP9
 70
     0
 10
0.0
 20
0.0
 30
0.0
  3
CLUMP9
  1

  0
ARC
  5
6F
  8
┌▓È_1
 10
275.54115624999997
 20
162.46285809759999
 30
0.0
 40
3.5
 50
90.0
 51
270.0
  0
LINE
  5
70
  8
┌▓È_1
 10
290.54115624999997
 20
165.96285809759999
 30
0.0
 11
275.54115624999997
 21
165.96285809759999
 31
0.0
  0
LINE
  5
71
  8
┌▓È_1
 10
275.54115624999997
 20
158.96285809759999
 30
0.0
 11
290.54115624999997
 21
158.96285809759999
 31
0.0
  0
ARC
  5
72
  8
┌▓È_1
 10
290.54115624999997
 20
162.46285809759999
 30
0.0
 40
3.5
 50
270.0
 51
90.0
  0
ENDBLK
  5
73
  8
0
  0
BLOCK
  8
0
  2
*D10
 70
     1
 10
0.0
 20
0.0
 30
0.0
  3
*D10
  1

  0
TEXT
  5
78
  8
0
 62
     0
 10
-238.94832439530001
 20
269.75015008219998
 30
0.0
 40
8.2461809158000001
  1
9
  0
LINE
  5
79
  8
0
 62
     0
 10
-231.9583932292
 20
229.46297528509999
 30
0.0
 11
-231.9583932292
 21
268.29494168529999
 31
0.0
  0
LINE
  5
7A
  8
0
 62
     0
 10
-240.9583932292
 20
238.46297528509999
 30
0.0
 11
-240.9583932292
 21
268.29494168529999
 31
0.0
  0
LINE
  5
7B
  8
0
 62
     0
 10
-231.9583932292
 20
267.29494168529999
 30
0.0
 11
-231.9583932292
 21
267.29494168529999
 31
0.0
  0
LINE
  5
7C
  8
0
 62
     0
 10
-231.9583932292
 20
267.29494168529999
 30
0.0
 11
-240.9583932292
 21
267.29494168529999
 31
0.0
  0
LINE
  5
7D
  8
0
 62
     0
 10
-240.9583932292
 20
267.29494168529999
 30
0.0
 11
-231.9583932292
 21
267.29494168529999
 31
0.0
  0
LINE
  5
7E
  8
0
 62
     0
 10
-240.9583932292
 20
267.29494168529999
 30
0.0
 11
-240.9583932292
 21
267.29494168529999
 31
0.0
  0
LINE
  5
7F
  8
0
 62
     0
 10
-240.9583932292
 20
267.29494168529999
 30
0.0
 11
-247.9583932292
 21
267.29494168529999
 31
0.0
  0
SOLID
  5
80
  8
0
 62
     0
 10
-240.9583932292
 20
267.29494168529999
 30
0.0
 11
-248.4583932292
 21
265.41994168529999
 31
0.0
 12
-248.4583932292
 22
269.16994168529999
 32
0.0
 13
-246.58339322919991
 23
267.29494168529999
 33
0.0
  0
LINE
  5
81
  8
0
 62
     0
 10
-231.9583932292
 20
267.29494168529999
 30
0.0
 11
-224.9583932292
 21
267.29494168529999
 31
0.0
  0
SOLID
  5
82
  8
0
 62
     0
 10
-231.9583932292
 20
267.29494168529999
 30
0.0
 11
-224.4583932292
 21
269.16994168529999
 31
0.0
 12
-224.4583932292
 22
265.41994168529999
 32
0.0
 13
-226.3333932292
 23
267.29494168529999
 33
0.0
  0
ENDBLK
  5
83
  8
0
  0
BLOCK
  8
0
  2
BALLON0
 70
     0
 10
0.0
 20
0.0
 30
0.0
  3
BALLON0
  1

  0
INSERT
  5
89
  8
0
  6
CONTINUOUS
  2
*U183
 10
0.0
 20
0.0
 30
0.0
  0
CIRCLE
  5
8A
  8
┌▓È_1
 10
-284.09913017830002
 20
62.909626719199998
 30
0.0
 40
10.0
  0
LINE
  5
8B
  8
Éíû@É³
 10
-267.43246351160002
 20
62.909626719199998
 30
0.0
 11
-274.09913017830002
 21
62.909626719199998
 31
0.0
  0
LINE
  5
8C
  8
Éíû@É³
 10
-232.75839322920001
 20
12.002560967999999
 30
0.0
 11
-267.43246351160002
 21
62.909626719199998
 31
0.0
  0
SOLID
  5
8D
  8
Éíû@É³
 10
-232.75839322920001
 20
12.002560967999999
 30
0.0
 11
-240.04083721040001
 21
19.1416092001
 31
0.0
 12
-237.26195810210001
 22
18.614512528300001
 32
0.0
 13
-237.26195810210001
 23
18.614512528300001
 33
0.0
  0
SOLID
  5
8E
  8
Éíû@É³
 10
-237.26195810210001
 20
18.614512528300001
 30
0.0
 11
-236.73486143029999
 21
21.393391636600001
 31
0.0
 12
-232.75839322920001
 22
12.002560967999999
 32
0.0
 13
-232.75839322920001
 23
12.002560967999999
 33
0.0
  0
ENDBLK
  5
8F
  8
0
  0
BLOCK
  8
0
  2
BALLON1
 70
     0
 10
0.0
 20
0.0
 30
0.0
  3
BALLON1
  1

  0
INSERT
  5
93
  8
0
  6
CONTINUOUS
  2
*U184
 10
0.0
 20
0.0
 30
0.0
  0
CIRCLE
  5
94
  8
┌▓È_1
 10
-193.230203125
 20
62.909626719199998
 30
0.0
 40
10.0
  0
LINE
  5
95
  8
Éíû@É³
 10
-176.56353645830001
 20
62.909626719199998
 30
0.0
 11
-183.230203125
 21
62.909626719199998
 31
0.0
  0
LINE
  5
96
  8
Éíû@É³
 10
-157.01910241940001
 20
34.918378740800001
 30
0.0
 11
-176.56353645830001
 21
62.909626719199998
 31
0.0
  0
SOLID
  5
97
  8
Éíû@É³
 10
-157.01910241940001
 20
34.918378740800001
 30
0.0
 11
-164.38382595499999
 21
41.9725156294
 31
0.0
 12
-161.59902254080001
 22
41.477672276
 32
0.0
 13
-161.59902254080001
 23
41.477672276
 33
0.0
  0
SOLID
  5
98
  8
Éíû@É³
 10
-161.59902254080001
 20
41.477672276
 30
0.0
 11
-161.10417918740001
 21
44.262475690099997
 31
0.0
 12
-157.01910241940001
 22
34.918378740800001
 32
0.0
 13
-157.01910241940001
 23
34.918378740800001
 33
0.0
  0
ENDBLK
  5
99
  8
0
  0
BLOCK
  8
0
  2
BALLON2
 70
     0
 10
0.0
 20
0.0
 30
0.0
  3
BALLON2
  1

  0
INSERT
  5
9D
  8
0
  6
CONTINUOUS
  2
*U185
 10
0.0
 20
0.0
 30
0.0
  0
CIRCLE
  5
9E
  8
┌▓È_1
 10
-131.55346201419999
 20
62.909626719199998
 30
0.0
 40
10.0
  0
LINE
  5
9F
  8
Éíû@É³
 10
-114.8867953475
 20
62.909626719199998
 30
0.0
 11
-121.55346201419999
 21
62.909626719199998
 31
0.0
  0
LINE
  5
A0
  8
Éíû@É³
 10
-91.714836848700003
 20
122.04627508910001
 30
0.0
 11
-114.8867953475
 21
62.909626719199998
 31
0.0
  0
SOLID
  5
A1
  8
Éíû@É³
 10
-91.714836848700003
 20
122.04627508910001
 30
0.0
 11
-93.500986672099984
 21
112.005873264
 31
0.0
 12
-94.633475455099997
 22
114.59768135029999
 32
0.0
 13
-94.633475455099997
 23
114.59768135029999
 33
0.0
  0
SOLID
  5
A2
  8
Éíû@É³
 10
-94.633475455099997
 20
114.59768135029999
 30
0.0
 11
-97.225283541399989
 21
113.46519256720001
 31
0.0
 12
-91.714836848700003
 22
122.04627508910001
 32
0.0
 13
-91.714836848700003
 23
122.04627508910001
 33
0.0
  0
ENDBLK
  5
A3
  8
0
  0
BLOCK
  8
0
  2
CLUMP10
 70
     0
 10
0.0
 20
0.0
 30
0.0
  3
CLUMP10
  1

  0
INSERT
  5
A8
  8
┌▓È_1
  2
CLUMP11
 10
0.0
 20
0.0
 30
0.0
  0
INSERT
  5
BC
  8
┌▓È_1
  2
CLUMP14
 10
0.0
 20
0.0
 30
0.0
  0
ENDBLK
  5
CF
  8
0
  0
BLOCK
  8
0
  2
CLUMP11
 70
     0
 10
0.0
 20
0.0
 30
0.0
  3
CLUMP11
  1

  0
INSERT
  5
AB
  8
┌▓È_1
  2
CLUMP12
 10
0.0
 20
0.0
 30
0.0
  0
INSERT
  5
B3
  8
┌▓È_1
  2
CLUMP13
 10
0.0
 20
0.0
 30
0.0
  0
ENDBLK
  5
BA
  8
0
  0
BLOCK
  8
0
  2
CLUMP12
 70
     0
 10
0.0
 20
0.0
 30
0.0
  3
CLUMP12
  1

  0
ARC
  5
AD
  8
┌▓È_1
 10
103.6916528477
 20
-185.99622685400001
 30
0.0
 40
3.5
 50
90.0
 51
270.0
  0
LINE
  5
AE
  8
┌▓È_1
 10
103.6916528477
 20
-182.49622685400001
 30
0.0
 11
118.6916528477
 21
-182.49622685400001
 31
0.0
  0
ARC
  5
AF
  8
┌▓È_1
 10
118.6916528477
 20
-185.99622685400001
 30
0.0
 40
3.5
 50
270.0
 51
90.0
  0
LINE
  5
B0
  8
┌▓È_1
 10
118.6916528477
 20
-189.49622685400001
 30
0.0
 11
103.6916528477
 21
-189.49622685400001
 31
0.0
  0
ENDBLK
  5
B1
  8
0
  0
BLOCK
  8
0
  2
CLUMP13
 70
     0
 10
0.0
 20
0.0
 30
0.0
  3
CLUMP13
  1

  0
ARC
  5
B5
  8
┌▓È_1
 10
103.6916528477
 20
-170.99622685400001
 30
0.0
 40
3.5
 50
90.0
 51
270.0
  0
LINE
  5
B6
  8
┌▓È_1
 10
118.6916528477
 20
-174.49622685400001
 30
0.0
 11
103.6916528477
 21
-174.49622685400001
 31
0.0
  0
LINE
  5
B7
  8
┌▓È_1
 10
103.6916528477
 20
-167.49622685400001
 30
0.0
 11
118.6916528477
 21
-167.49622685400001
 31
0.0
  0
ARC
  5
B8
  8
┌▓È_1
 10
118.6916528477
 20
-170.99622685400001
 30
0.0
 40
3.5
 50
270.0
 51
90.0
  0
ENDBLK
  5
B9
  8
0
  0
BLOCK
  8
0
  2
CLUMP14
 70
     0
 10
0.0
 20
0.0
 30
0.0
  3
CLUMP14
  1

  0
INSERT
  5
BF
  8
┌▓È_1
  2
CLUMP15
 10
0.0
 20
0.0
 30
0.0
  0
INSERT
  5
C7
  8
┌▓È_1
  2
CLUMP16
 10
0.0
 20
0.0
 30
0.0
  0
ENDBLK
  5
CE
  8
0
  0
BLOCK
  8
0
  2
CLUMP15
 70
     0
 10
0.0
 20
0.0
 30
0.0
  3
CLUMP15
  1

  0
ARC
  5
C1
  8
┌▓È_1
 10
103.6916528477
 20
-107.996226854
 30
0.0
 40
3.5
 50
90.0
 51
270.0
  0
LINE
  5
C2
  8
┌▓È_1
 10
118.6916528477
 20
-104.496226854
 30
0.0
 11
103.6916528477
 21
-104.496226854
 31
0.0
  0
LINE
  5
C3
  8
┌▓È_1
 10
103.6916528477
 20
-111.496226854
 30
0.0
 11
118.6916528477
 21
-111.496226854
 31
0.0
  0
ARC
  5
C4
  8
┌▓È_1
 10
118.6916528477
 20
-107.996226854
 30
0.0
 40
3.5
 50
270.0
 51
90.0
  0
ENDBLK
  5
C5
  8
0
  0
BLOCK
  8
0
  2
CLUMP16
 70
     0
 10
0.0
 20
0.0
 30
0.0
  3
CLUMP16
  1

  0
ARC
  5
C9
  8
┌▓È_1
 10
103.6916528477
 20
-92.996226854000014
 30
0.0
 40
3.5
 50
90.0
 51
270.0
  0
LINE
  5
CA
  8
┌▓È_1
 10
118.6916528477
 20
-89.496226853999985
 30
0.0
 11
103.6916528477
 21
-89.496226853999985
 31
0.0
  0
LINE
  5
CB
  8
┌▓È_1
 10
103.6916528477
 20
-96.496226854
 30
0.0
 11
118.6916528477
 21
-96.496226854
 31
0.0
  0
ARC
  5
CC
  8
┌▓È_1
 10
118.6916528477
 20
-92.996226854000014
 30
0.0
 40
3.5
 50
270.0
 51
90.0
  0
ENDBLK
  5
CD
  8
0
  0
BLOCK
  8
0
  2
CLUMP17
 70
     0
 10
0.0
 20
0.0
 30
0.0
  3
CLUMP17
  1

  0
ARC
  5
D3
  8
┌▓È_1
 10
141.1916528477
 20
-139.49622685400001
 30
0.0
 40
3.5
 50
90.0
 51
270.0
  0
LINE
  5
D4
  8
┌▓È_1
 10
156.1916528477
 20
-135.99622685400001
 30
0.0
 11
141.1916528477
 21
-135.99622685400001
 31
0.0
  0
LINE
  5
D5
  8
┌▓È_1
 10
141.1916528477
 20
-142.99622685400001
 30
0.0
 11
156.1916528477
 21
-142.99622685400001
 31
0.0
  0
ARC
  5
D6
  8
┌▓È_1
 10
156.1916528477
 20
-139.49622685400001
 30
0.0
 40
3.5
 50
270.0
 51
90.0
  0
ENDBLK
  5
D7
  8
0
  0
BLOCK
  8
0
  2
CLUMP18
 70
     0
 10
0.0
 20
0.0
 30
0.0
  3
CLUMP18
  1

  0
ARC
  5
DB
  8
┌▓È_1
 10
66.191652847699999
 20
-139.49622685400001
 30
0.0
 40
3.5
 50
90.0
 51
270.0
  0
LINE
  5
DC
  8
┌▓È_1
 10
81.191652847699999
 20
-135.99622685400001
 30
0.0
 11
66.191652847699999
 21
-135.99622685400001
 31
0.0
  0
LINE
  5
DD
  8
┌▓È_1
 10
66.191652847699999
 20
-142.99622685400001
 30
0.0
 11
81.191652847699999
 21
-142.99622685400001
 31
0.0
  0
ARC
  5
DE
  8
┌▓È_1
 10
81.191652847699999
 20
-139.49622685400001
 30
0.0
 40
3.5
 50
270.0
 51
90.0
  0
ENDBLK
  5
DF
  8
0
  0
BLOCK
  8
0
  2
CLUMP19
 70
     0
 10
0.0
 20
0.0
 30
0.0
  3
CLUMP19
  1

  0
INSERT
  5
E5
  8
┌▓È_1
  2
CLUMP20
 10
0.0
 20
0.0
 30
0.0
  0
INSERT
  5
F9
  8
┌▓È_1
  2
CLUMP23
 10
0.0
 20
0.0
 30
0.0
  0
ENDBLK
  5
10C
  8
0
  0
BLOCK
  8
0
  2
CLUMP20
 70
     0
 10
0.0
 20
0.0
 30
0.0
  3
CLUMP20
  1

  0
INSERT
  5
E8
  8
┌▓È_1
  2
CLUMP21
 10
0.0
 20
0.0
 30
0.0
  0
INSERT
  5
F0
  8
┌▓È_1
  2
CLUMP22
 10
0.0
 20
0.0
 30
0.0
  0
ENDBLK
  5
F7
  8
0
  0
BLOCK
  8
0
  2
CLUMP21
 70
     0
 10
0.0
 20
0.0
 30
0.0
  3
CLUMP21
  1

  0
ARC
  5
EA
  8
┌▓È_1
 10
253.6916528477
 20
-185.99622685400001
 30
0.0
 40
3.5
 50
90.0
 51
270.0
  0
LINE
  5
EB
  8
┌▓È_1
 10
253.6916528477
 20
-182.49622685400001
 30
0.0
 11
268.69165284770003
 21
-182.49622685400001
 31
0.0
  0
ARC
  5
EC
  8
┌▓È_1
 10
268.69165284770003
 20
-185.99622685400001
 30
0.0
 40
3.5
 50
270.0
 51
90.0
  0
LINE
  5
ED
  8
┌▓È_1
 10
268.69165284770003
 20
-189.49622685400001
 30
0.0
 11
253.6916528477
 21
-189.49622685400001
 31
0.0
  0
ENDBLK
  5
EE
  8
0
  0
BLOCK
  8
0
  2
CLUMP22
 70
     0
 10
0.0
 20
0.0
 30
0.0
  3
CLUMP22
  1

  0
ARC
  5
F2
  8
┌▓È_1
 10
253.6916528477
 20
-170.99622685400001
 30
0.0
 40
3.5
 50
90.0
 51
270.0
  0
LINE
  5
F3
  8
┌▓È_1
 10
268.69165284770003
 20
-174.49622685400001
 30
0.0
 11
253.6916528477
 21
-174.49622685400001
 31
0.0
  0
LINE
  5
F4
  8
┌▓È_1
 10
253.6916528477
 20
-167.49622685400001
 30
0.0
 11
268.69165284770003
 21
-167.49622685400001
 31
0.0
  0
ARC
  5
F5
  8
┌▓È_1
 10
268.69165284770003
 20
-170.99622685400001
 30
0.0
 40
3.5
 50
270.0
 51
90.0
  0
ENDBLK
  5
F6
  8
0
  0
BLOCK
  8
0
  2
CLUMP23
 70
     0
 10
0.0
 20
0.0
 30
0.0
  3
CLUMP23
  1

  0
INSERT
  5
FC
  8
┌▓È_1
  2
CLUMP24
 10
0.0
 20
0.0
 30
0.0
  0
INSERT
  5
104
  8
┌▓È_1
  2
CLUMP25
 10
0.0
 20
0.0
 30
0.0
  0
ENDBLK
  5
10B
  8
0
  0
BLOCK
  8
0
  2
CLUMP24
 70
     0
 10
0.0
 20
0.0
 30
0.0
  3
CLUMP24
  1

  0
ARC
  5
FE
  8
┌▓È_1
 10
253.6916528477
 20
-107.996226854
 30
0.0
 40
3.5
 50
90.0
 51
270.0
  0
LINE
  5
FF
  8
┌▓È_1
 10
268.69165284770003
 20
-104.496226854
 30
0.0
 11
253.6916528477
 21
-104.496226854
 31
0.0
  0
LINE
  5
100
  8
┌▓È_1
 10
253.6916528477
 20
-111.496226854
 30
0.0
 11
268.69165284770003
 21
-111.496226854
 31
0.0
  0
ARC
  5
101
  8
┌▓È_1
 10
268.69165284770003
 20
-107.996226854
 30
0.0
 40
3.5
 50
270.0
 51
90.0
  0
ENDBLK
  5
102
  8
0
  0
BLOCK
  8
0
  2
CLUMP25
 70
     0
 10
0.0
 20
0.0
 30
0.0
  3
CLUMP25
  1

  0
ARC
  5
106
  8
┌▓È_1
 10
253.6916528477
 20
-92.996226854000014
 30
0.0
 40
3.5
 50
90.0
 51
270.0
  0
LINE
  5
107
  8
┌▓È_1
 10
268.69165284770003
 20
-89.496226853999985
 30
0.0
 11
253.6916528477
 21
-89.496226853999985
 31
0.0
  0
LINE
  5
108
  8
┌▓È_1
 10
253.6916528477
 20
-96.496226854
 30
0.0
 11
268.69165284770003
 21
-96.496226854
 31
0.0
  0
ARC
  5
109
  8
┌▓È_1
 10
268.69165284770003
 20
-92.996226854000014
 30
0.0
 40
3.5
 50
270.0
 51
90.0
  0
ENDBLK
  5
10A
  8
0
  0
BLOCK
  8
0
  2
CLUMP26
 70
     0
 10
0.0
 20
0.0
 30
0.0
  3
CLUMP26
  1

  0
ARC
  5
112
  8
┌▓È_1
 10
216.1916528477
 20
-139.49622685400001
 30
0.0
 40
3.5
 50
90.0
 51
270.0
  0
LINE
  5
113
  8
┌▓È_1
 10
231.1916528477
 20
-135.99622685400001
 30
0.0
 11
216.1916528477
 21
-135.99622685400001
 31
0.0
  0
LINE
  5
114
  8
┌▓È_1
 10
216.1916528477
 20
-142.99622685400001
 30
0.0
 11
231.1916528477
 21
-142.99622685400001
 31
0.0
  0
ARC
  5
115
  8
┌▓È_1
 10
231.1916528477
 20
-139.49622685400001
 30
0.0
 40
3.5
 50
270.0
 51
90.0
  0
ENDBLK
  5
116
  8
0
  0
BLOCK
  8
0
  2
CLUMP27
 70
     0
 10
0.0
 20
0.0
 30
0.0
  3
CLUMP27
  1

  0
INSERT
  5
11D
  8
┌▓È_1
  2
CLUMP28
 10
0.0
 20
0.0
 30
0.0
  0
INSERT
  5
131
  8
┌▓È_1
  2
CLUMP31
 10
0.0
 20
0.0
 30
0.0
  0
ENDBLK
  5
144
  8
0
  0
BLOCK
  8
0
  2
CLUMP28
 70
     0
 10
0.0
 20
0.0
 30
0.0
  3
CLUMP28
  1

  0
INSERT
  5
120
  8
┌▓È_1
  2
CLUMP29
 10
0.0
 20
0.0
 30
0.0
  0
INSERT
  5
128
  8
┌▓È_1
  2
CLUMP30
 10
0.0
 20
0.0
 30
0.0
  0
ENDBLK
  5
12F
  8
0
  0
BLOCK
  8
0
  2
CLUMP29
 70
     0
 10
0.0
 20
0.0
 30
0.0
  3
CLUMP29
  1

  0
ARC
  5
122
  8
┌▓È_1
 10
178.6916528477
 20
-185.99622685400001
 30
0.0
 40
3.5
 50
90.0
 51
270.0
  0
LINE
  5
123
  8
┌▓È_1
 10
178.6916528477
 20
-182.49622685400001
 30
0.0
 11
193.6916528477
 21
-182.49622685400001
 31
0.0
  0
ARC
  5
124
  8
┌▓È_1
 10
193.6916528477
 20
-185.99622685400001
 30
0.0
 40
3.5
 50
270.0
 51
90.0
  0
LINE
  5
125
  8
┌▓È_1
 10
193.6916528477
 20
-189.49622685400001
 30
0.0
 11
178.6916528477
 21
-189.49622685400001
 31
0.0
  0
ENDBLK
  5
126
  8
0
  0
BLOCK
  8
0
  2
CLUMP30
 70
     0
 10
0.0
 20
0.0
 30
0.0
  3
CLUMP30
  1

  0
ARC
  5
12A
  8
┌▓È_1
 10
178.6916528477
 20
-170.99622685400001
 30
0.0
 40
3.5
 50
90.0
 51
270.0
  0
LINE
  5
12B
  8
┌▓È_1
 10
193.6916528477
 20
-174.49622685400001
 30
0.0
 11
178.6916528477
 21
-174.49622685400001
 31
0.0
  0
LINE
  5
12C
  8
┌▓È_1
 10
178.6916528477
 20
-167.49622685400001
 30
0.0
 11
193.6916528477
 21
-167.49622685400001
 31
0.0
  0
ARC
  5
12D
  8
┌▓È_1
 10
193.6916528477
 20
-170.99622685400001
 30
0.0
 40
3.5
 50
270.0
 51
90.0
  0
ENDBLK
  5
12E
  8
0
  0
BLOCK
  8
0
  2
CLUMP31
 70
     0
 10
0.0
 20
0.0
 30
0.0
  3
CLUMP31
  1

  0
INSERT
  5
134
  8
┌▓È_1
  2
CLUMP32
 10
0.0
 20
0.0
 30
0.0
  0
INSERT
  5
13C
  8
┌▓È_1
  2
CLUMP33
 10
0.0
 20
0.0
 30
0.0
  0
ENDBLK
  5
143
  8
0
  0
BLOCK
  8
0
  2
CLUMP32
 70
     0
 10
0.0
 20
0.0
 30
0.0
  3
CLUMP32
  1

  0
ARC
  5
136
  8
┌▓È_1
 10
178.6916528477
 20
-107.996226854
 30
0.0
 40
3.5
 50
90.0
 51
270.0
  0
LINE
  5
137
  8
┌▓È_1
 10
193.6916528477
 20
-104.496226854
 30
0.0
 11
178.6916528477
 21
-104.496226854
 31
0.0
  0
LINE
  5
138
  8
┌▓È_1
 10
178.6916528477
 20
-111.496226854
 30
0.0
 11
193.6916528477
 21
-111.496226854
 31
0.0
  0
ARC
  5
139
  8
┌▓È_1
 10
193.6916528477
 20
-107.996226854
 30
0.0
 40
3.5
 50
270.0
 51
90.0
  0
ENDBLK
  5
13A
  8
0
  0
BLOCK
  8
0
  2
CLUMP33
 70
     0
 10
0.0
 20
0.0
 30
0.0
  3
CLUMP33
  1

  0
ARC
  5
13E
  8
┌▓È_1
 10
178.6916528477
 20
-92.996226854000014
 30
0.0
 40
3.5
 50
90.0
 51
270.0
  0
LINE
  5
13F
  8
┌▓È_1
 10
193.6916528477
 20
-89.496226853999985
 30
0.0
 11
178.6916528477
 21
-89.496226853999985
 31
0.0
  0
LINE
  5
140
  8
┌▓È_1
 10
178.6916528477
 20
-96.496226854
 30
0.0
 11
193.6916528477
 21
-96.496226854
 31
0.0
  0
ARC
  5
141
  8
┌▓È_1
 10
193.6916528477
 20
-92.996226854000014
 30
0.0
 40
3.5
 50
270.0
 51
90.0
  0
ENDBLK
  5
142
  8
0
  0
BLOCK
  8
0
  2
CLUMP34
 70
     0
 10
0.0
 20
0.0
 30
0.0
  3
CLUMP34
  1

  0
INSERT
  5
149
  8
┌▓È_1
  2
CLUMP35
 10
0.0
 20
0.0
 30
0.0
  0
INSERT
  5
15D
  8
┌▓È_1
  2
CLUMP38
 10
0.0
 20
0.0
 30
0.0
  0
ENDBLK
  5
170
  8
0
  0
BLOCK
  8
0
  2
CLUMP35
 70
     0
 10
0.0
 20
0.0
 30
0.0
  3
CLUMP35
  1

  0
INSERT
  5
14C
  8
┌▓È_1
  2
CLUMP36
 10
0.0
 20
0.0
 30
0.0
  0
INSERT
  5
154
  8
┌▓È_1
  2
CLUMP37
 10
0.0
 20
0.0
 30
0.0
  0
ENDBLK
  5
15B
  8
0
  0
BLOCK
  8
0
  2
CLUMP36
 70
     0
 10
0.0
 20
0.0
 30
0.0
  3
CLUMP36
  1

  0
ARC
  5
14E
  8
┌▓È_1
 10
28.691652847699999
 20
-185.99622685400001
 30
0.0
 40
3.5
 50
90.0
 51
270.0
  0
LINE
  5
14F
  8
┌▓È_1
 10
28.691652847699999
 20
-182.49622685400001
 30
0.0
 11
43.691652847700013
 21
-182.49622685400001
 31
0.0
  0
ARC
  5
150
  8
┌▓È_1
 10
43.691652847700013
 20
-185.99622685400001
 30
0.0
 40
3.5
 50
270.0
 51
90.0
  0
LINE
  5
151
  8
┌▓È_1
 10
43.691652847700013
 20
-189.49622685400001
 30
0.0
 11
28.691652847699999
 21
-189.49622685400001
 31
0.0
  0
ENDBLK
  5
152
  8
0
  0
BLOCK
  8
0
  2
CLUMP37
 70
     0
 10
0.0
 20
0.0
 30
0.0
  3
CLUMP37
  1

  0
ARC
  5
156
  8
┌▓È_1
 10
28.691652847699999
 20
-170.99622685400001
 30
0.0
 40
3.5
 50
90.0
 51
270.0
  0
LINE
  5
157
  8
┌▓È_1
 10
43.691652847700013
 20
-174.49622685400001
 30
0.0
 11
28.691652847699999
 21
-174.49622685400001
 31
0.0
  0
LINE
  5
158
  8
┌▓È_1
 10
28.691652847699999
 20
-167.49622685400001
 30
0.0
 11
43.691652847700013
 21
-167.49622685400001
 31
0.0
  0
ARC
  5
159
  8
┌▓È_1
 10
43.691652847700013
 20
-170.99622685400001
 30
0.0
 40
3.5
 50
270.0
 51
90.0
  0
ENDBLK
  5
15A
  8
0
  0
BLOCK
  8
0
  2
CLUMP38
 70
     0
 10
0.0
 20
0.0
 30
0.0
  3
CLUMP38
  1

  0
INSERT
  5
160
  8
┌▓È_1
  2
CLUMP39
 10
0.0
 20
0.0
 30
0.0
  0
INSERT
  5
168
  8
┌▓È_1
  2
CLUMP40
 10
0.0
 20
0.0
 30
0.0
  0
ENDBLK
  5
16F
  8
0
  0
BLOCK
  8
0
  2
CLUMP39
 70
     0
 10
0.0
 20
0.0
 30
0.0
  3
CLUMP39
  1

  0
ARC
  5
162
  8
┌▓È_1
 10
28.691652847699999
 20
-107.996226854
 30
0.0
 40
3.5
 50
90.0
 51
270.0
  0
LINE
  5
163
  8
┌▓È_1
 10
43.691652847700013
 20
-104.496226854
 30
0.0
 11
28.691652847699999
 21
-104.496226854
 31
0.0
  0
LINE
  5
164
  8
┌▓È_1
 10
28.691652847699999
 20
-111.496226854
 30
0.0
 11
43.691652847700013
 21
-111.496226854
 31
0.0
  0
ARC
  5
165
  8
┌▓È_1
 10
43.691652847700013
 20
-107.996226854
 30
0.0
 40
3.5
 50
270.0
 51
90.0
  0
ENDBLK
  5
166
  8
0
  0
BLOCK
  8
0
  2
CLUMP40
 70
     0
 10
0.0
 20
0.0
 30
0.0
  3
CLUMP40
  1

  0
ARC
  5
16A
  8
┌▓È_1
 10
28.691652847699999
 20
-92.996226854000014
 30
0.0
 40
3.5
 50
90.0
 51
270.0
  0
LINE
  5
16B
  8
┌▓È_1
 10
43.691652847700013
 20
-89.496226853999985
 30
0.0
 11
28.691652847699999
 21
-89.496226853999985
 31
0.0
  0
LINE
  5
16C
  8
┌▓È_1
 10
28.691652847699999
 20
-96.496226854
 30
0.0
 11
43.691652847700013
 21
-96.496226854
 31
0.0
  0
ARC
  5
16D
  8
┌▓È_1
 10
43.691652847700013
 20
-92.996226854000014
 30
0.0
 40
3.5
 50
270.0
 51
90.0
  0
ENDBLK
  5
16E
  8
0
  0
BLOCK
  8
0
  2
*D45
 70
     1
 10
0.0
 20
0.0
 30
0.0
  3
*D45
  1

  0
TEXT
  5
173
  8
0
 62
     0
 10
218.84095819129999
 20
-226.5405568788
 30
0.0
 40
8.2461809158000001
  1
75
  0
LINE
  5
174
  8
0
 62
     0
 10
186.1916528477
 20
-191.49622685400001
 30
0.0
 11
186.1916528477
 21
-229.99576527569999
 31
0.0
  0
LINE
  5
175
  8
0
 62
     0
 10
261.19165284770003
 20
-191.49622685400001
 30
0.0
 11
261.19165284770003
 21
-229.99576527569999
 31
0.0
  0
LINE
  5
176
  8
0
 62
     0
 10
186.1916528477
 20
-228.99576527569999
 30
0.0
 11
233.3930421604
 21
-228.99576527569999
 31
0.0
  0
LINE
  5
177
  8
0
 62
     0
 10
186.1916528477
 20
-228.99576527569999
 30
0.0
 11
213.99026353490001
 21
-228.99576527569999
 31
0.0
  0
LINE
  5
178
  8
0
 62
     0
 10
261.19165284770003
 20
-228.99576527569999
 30
0.0
 11
233.3930421604
 21
-228.99576527569999
 31
0.0
  0
LINE
  5
179
  8
0
 62
     0
 10
261.19165284770003
 20
-228.99576527569999
 30
0.0
 11
213.99026353490001
 21
-228.99576527569999
 31
0.0
  0
LINE
  5
17A
  8
0
 62
     0
 10
261.19165284770003
 20
-228.99576527569999
 30
0.0
 11
254.1916528477
 21
-228.99576527569999
 31
0.0
  0
SOLID
  5
17B
  8
0
 62
     0
 10
261.19165284770003
 20
-228.99576527569999
 30
0.0
 11
253.6916528477
 21
-230.87076527569999
 31
0.0
 12
253.6916528477
 22
-227.12076527569999
 32
0.0
 13
255.5666528477
 23
-228.99576527569999
 33
0.0
  0
LINE
  5
17C
  8
0
 62
     0
 10
186.1916528477
 20
-228.99576527569999
 30
0.0
 11
193.1916528477
 21
-228.99576527569999
 31
0.0
  0
SOLID
  5
17D
  8
0
 62
     0
 10
186.1916528477
 20
-228.99576527569999
 30
0.0
 11
193.6916528477
 21
-227.12076527569999
 31
0.0
 12
193.6916528477
 22
-230.87076527569999
 32
0.0
 13
191.8166528477
 23
-228.99576527569999
 33
0.0
  0
ENDBLK
  5
17E
  8
0
  0
BLOCK
  8
0
  2
*D46
 70
     1
 10
0.0
 20
0.0
 30
0.0
  3
*D46
  1

  0
TEXT
  5
182
  8
0
 62
     0
 10
263.8545680336
 20
-226.54055751959999
 30
0.0
 40
8.2461809158000001
  1
26.75
  0
LINE
  5
183
  8
0
 62
     0
 10
261.19165284770003
 20
-191.49622685400001
 30
0.0
 11
261.19165284770003
 21
-229.99576591650001
 31
0.0
  0
LINE
  5
184
  8
0
 62
     0
 10
287.94138461850002
 20
-205.99576591650001
 30
0.0
 11
287.94138461850002
 21
-229.99576591650001
 31
0.0
  0
LINE
  5
185
  8
0
 62
     0
 10
261.19165284770003
 20
-228.99576591650001
 30
0.0
 11
261.19165284770003
 21
-228.99576591650001
 31
0.0
  0
LINE
  5
186
  8
0
 62
     0
 10
261.19165284770003
 20
-228.99576591650001
 30
0.0
 11
287.94138461850002
 21
-228.99576591650001
 31
0.0
  0
LINE
  5
187
  8
0
 62
     0
 10
287.94138461850002
 20
-228.99576591650001
 30
0.0
 11
261.19165284770003
 21
-228.99576591650001
 31
0.0
  0
LINE
  5
188
  8
0
 62
     0
 10
287.94138461850002
 20
-228.99576591650001
 30
0.0
 11
287.94138461850002
 21
-228.99576591650001
 31
0.0
  0
LINE
  5
189
  8
0
 62
     0
 10
287.94138461850002
 20
-228.99576591650001
 30
0.0
 11
280.94138461850002
 21
-228.99576591650001
 31
0.0
  0
SOLID
  5
18A
  8
0
 62
     0
 10
287.94138461850002
 20
-228.99576591650001
 30
0.0
 11
280.44138461850002
 21
-230.87076591650001
 31
0.0
 12
280.44138461850002
 22
-227.12076591650001
 32
0.0
 13
282.31638461850002
 23
-228.99576591650001
 33
0.0
  0
LINE
  5
18B
  8
0
 62
     0
 10
261.19165284770003
 20
-228.99576591650001
 30
0.0
 11
268.19165284770003
 21
-228.99576591650001
 31
0.0
  0
SOLID
  5
18C
  8
0
 62
     0
 10
261.19165284770003
 20
-228.99576591650001
 30
0.0
 11
268.69165284770003
 21
-227.12076591650001
 31
0.0
 12
268.69165284770003
 22
-230.87076591650001
 32
0.0
 13
266.81665284770003
 23
-228.99576591650001
 33
0.0
  0
ENDBLK
  5
18D
  8
0
  0
BLOCK
  8
0
  2
*D47
 70
     1
 10
0.0
 20
0.0
 30
0.0
  3
*D47
  1

  0
TEXT
  5
191
  8
0
 62
     0
 10
143.84095819129999
 20
-226.5405568788
 30
0.0
 40
8.2461809158000001
  1
75
  0
LINE
  5
192
  8
0
 62
     0
 10
111.1916528477
 20
-191.49622685400001
 30
0.0
 11
111.1916528477
 21
-229.99576527569999
 31
0.0
  0
LINE
  5
193
  8
0
 62
     0
 10
186.1916528477
 20
-191.49622685400001
 30
0.0
 11
186.1916528477
 21
-229.99576527569999
 31
0.0
  0
LINE
  5
194
  8
0
 62
     0
 10
111.1916528477
 20
-228.99576527569999
 30
0.0
 11
158.3930421604
 21
-228.99576527569999
 31
0.0
  0
LINE
  5
195
  8
0
 62
     0
 10
111.1916528477
 20
-228.99576527569999
 30
0.0
 11
138.99026353490001
 21
-228.99576527569999
 31
0.0
  0
LINE
  5
196
  8
0
 62
     0
 10
186.1916528477
 20
-228.99576527569999
 30
0.0
 11
158.3930421604
 21
-228.99576527569999
 31
0.0
  0
LINE
  5
197
  8
0
 62
     0
 10
186.1916528477
 20
-228.99576527569999
 30
0.0
 11
138.99026353490001
 21
-228.99576527569999
 31
0.0
  0
LINE
  5
198
  8
0
 62
     0
 10
186.1916528477
 20
-228.99576527569999
 30
0.0
 11
179.1916528477
 21
-228.99576527569999
 31
0.0
  0
SOLID
  5
199
  8
0
 62
     0
 10
186.1916528477
 20
-228.99576527569999
 30
0.0
 11
178.6916528477
 21
-230.87076527569999
 31
0.0
 12
178.6916528477
 22
-227.12076527569999
 32
0.0
 13
180.5666528477
 23
-228.99576527569999
 33
0.0
  0
LINE
  5
19A
  8
0
 62
     0
 10
111.1916528477
 20
-228.99576527569999
 30
0.0
 11
118.1916528477
 21
-228.99576527569999
 31
0.0
  0
SOLID
  5
19B
  8
0
 62
     0
 10
111.1916528477
 20
-228.99576527569999
 30
0.0
 11
118.6916528477
 21
-227.12076527569999
 31
0.0
 12
118.6916528477
 22
-230.87076527569999
 32
0.0
 13
116.8166528477
 23
-228.99576527569999
 33
0.0
  0
ENDBLK
  5
19C
  8
0
  0
BLOCK
  8
0
  2
*D48
 70
     1
 10
0.0
 20
0.0
 30
0.0
  3
*D48
  1

  0
TEXT
  5
1A0
  8
0
 62
     0
 10
68.840958191300004
 20
-226.5405568788
 30
0.0
 40
8.2461809158000001
  1
75
  0
LINE
  5
1A1
  8
0
 62
     0
 10
36.191652847699999
 20
-191.49622685400001
 30
0.0
 11
36.191652847699999
 21
-229.99576527569999
 31
0.0
  0
LINE
  5
1A2
  8
0
 62
     0
 10
111.1916528477
 20
-191.49622685400001
 30
0.0
 11
111.1916528477
 21
-229.99576527569999
 31
0.0
  0
LINE
  5
1A3
  8
0
 62
     0
 10
36.191652847699999
 20
-228.99576527569999
 30
0.0
 11
83.3930421604
 21
-228.99576527569999
 31
0.0
  0
LINE
  5
1A4
  8
0
 62
     0
 10
36.191652847699999
 20
-228.99576527569999
 30
0.0
 11
63.990263534900002
 21
-228.99576527569999
 31
0.0
  0
LINE
  5
1A5
  8
0
 62
     0
 10
111.1916528477
 20
-228.99576527569999
 30
0.0
 11
83.3930421604
 21
-228.99576527569999
 31
0.0
  0
LINE
  5
1A6
  8
0
 62
     0
 10
111.1916528477
 20
-228.99576527569999
 30
0.0
 11
63.990263534900002
 21
-228.99576527569999
 31
0.0
  0
LINE
  5
1A7
  8
0
 62
     0
 10
111.1916528477
 20
-228.99576527569999
 30
0.0
 11
104.1916528477
 21
-228.99576527569999
 31
0.0
  0
SOLID
  5
1A8
  8
0
 62
     0
 10
111.1916528477
 20
-228.99576527569999
 30
0.0
 11
103.6916528477
 21
-230.87076527569999
 31
0.0
 12
103.6916528477
 22
-227.12076527569999
 32
0.0
 13
105.5666528477
 23
-228.99576527569999
 33
0.0
  0
LINE
  5
1A9
  8
0
 62
     0
 10
36.191652847699999
 20
-228.99576527569999
 30
0.0
 11
43.191652847699999
 21
-228.99576527569999
 31
0.0
  0
SOLID
  5
1AA
  8
0
 62
     0
 10
36.191652847699999
 20
-228.99576527569999
 30
0.0
 11
43.691652847700013
 21
-227.12076527569999
 31
0.0
 12
43.691652847700013
 22
-230.87076527569999
 32
0.0
 13
41.816652847699999
 23
-228.99576527569999
 33
0.0
  0
ENDBLK
  5
1AB
  8
0
  0
BLOCK
  8
0
  2
CLUMP41
 70
     0
 10
0.0
 20
0.0
 30
0.0
  3
CLUMP41
  1

  0
ARC
  5
1B0
  8
┌▓È_1
 10
200.54115625
 20
162.46285809759999
 30
0.0
 40
3.5
 50
90.0
 51
270.0
  0
LINE
  5
1B1
  8
┌▓È_1
 10
215.54115625
 20
165.96285809759999
 30
0.0
 11
200.54115625
 21
165.96285809759999
 31
0.0
  0
LINE
  5
1B2
  8
┌▓È_1
 10
200.54115625
 20
158.96285809759999
 30
0.0
 11
215.54115625
 21
158.96285809759999
 31
0.0
  0
ARC
  5
1B3
  8
┌▓È_1
 10
215.54115625
 20
162.46285809759999
 30
0.0
 40
3.5
 50
270.0
 51
90.0
  0
ENDBLK
  5
1B4
  8
0
  0
BLOCK
  8
0
  2
CLUMP42
 70
     0
 10
0.0
 20
0.0
 30
0.0
  3
CLUMP42
  1

  0
INSERT
  5
1B9
  8
┌▓È_1
  2
CLUMP43
 10
0.0
 20
0.0
 30
0.0
  0
INSERT
  5
1CD
  8
┌▓È_1
  2
CLUMP46
 10
0.0
 20
0.0
 30
0.0
  0
ENDBLK
  5
1E0
  8
0
  0
BLOCK
  8
0
  2
CLUMP43
 70
     0
 10
0.0
 20
0.0
 30
0.0
  3
CLUMP43
  1

  0
INSERT
  5
1BC
  8
┌▓È_1
  2
CLUMP44
 10
0.0
 20
0.0
 30
0.0
  0
INSERT
  5
1C4
  8
┌▓È_1
  2
CLUMP45
 10
0.0
 20
0.0
 30
0.0
  0
ENDBLK
  5
1CB
  8
0
  0
BLOCK
  8
0
  2
CLUMP44
 70
     0
 10
0.0
 20
0.0
 30
0.0
  3
CLUMP44
  1

  0
ARC
  5
1BE
  8
┌▓È_1
 10
13.04115625
 20
115.96285809760001
 30
0.0
 40
3.5
 50
90.0
 51
270.0
  0
LINE
  5
1BF
  8
┌▓È_1
 10
13.04115625
 20
119.46285809760001
 30
0.0
 11
28.04115625
 21
119.46285809760001
 31
0.0
  0
ARC
  5
1C0
  8
┌▓È_1
 10
28.04115625
 20
115.96285809760001
 30
0.0
 40
3.5
 50
270.0
 51
90.0
  0
LINE
  5
1C1
  8
┌▓È_1
 10
28.04115625
 20
112.46285809760001
 30
0.0
 11
13.04115625
 21
112.46285809760001
 31
0.0
  0
ENDBLK
  5
1C2
  8
0
  0
BLOCK
  8
0
  2
CLUMP45
 70
     0
 10
0.0
 20
0.0
 30
0.0
  3
CLUMP45
  1

  0
ARC
  5
1C6
  8
┌▓È_1
 10
13.04115625
 20
130.96285809759999
 30
0.0
 40
3.5
 50
90.0
 51
270.0
  0
LINE
  5
1C7
  8
┌▓È_1
 10
28.04115625
 20
127.46285809760001
 30
0.0
 11
13.04115625
 21
127.46285809760001
 31
0.0
  0
LINE
  5
1C8
  8
┌▓È_1
 10
13.04115625
 20
134.46285809759999
 30
0.0
 11
28.04115625
 21
134.46285809759999
 31
0.0
  0
ARC
  5
1C9
  8
┌▓È_1
 10
28.04115625
 20
130.96285809759999
 30
0.0
 40
3.5
 50
270.0
 51
90.0
  0
ENDBLK
  5
1CA
  8
0
  0
BLOCK
  8
0
  2
CLUMP46
 70
     0
 10
0.0
 20
0.0
 30
0.0
  3
CLUMP46
  1

  0
INSERT
  5
1D0
  8
┌▓È_1
  2
CLUMP47
 10
0.0
 20
0.0
 30
0.0
  0
INSERT
  5
1D8
  8
┌▓È_1
  2
CLUMP48
 10
0.0
 20
0.0
 30
0.0
  0
ENDBLK
  5
1DF
  8
0
  0
BLOCK
  8
0
  2
CLUMP47
 70
     0
 10
0.0
 20
0.0
 30
0.0
  3
CLUMP47
  1

  0
ARC
  5
1D2
  8
┌▓È_1
 10
13.04115625
 20
193.96285809759999
 30
0.0
 40
3.5
 50
90.0
 51
270.0
  0
LINE
  5
1D3
  8
┌▓È_1
 10
28.04115625
 20
197.46285809759999
 30
0.0
 11
13.04115625
 21
197.46285809759999
 31
0.0
  0
LINE
  5
1D4
  8
┌▓È_1
 10
13.04115625
 20
190.46285809759999
 30
0.0
 11
28.04115625
 21
190.46285809759999
 31
0.0
  0
ARC
  5
1D5
  8
┌▓È_1
 10
28.04115625
 20
193.96285809759999
 30
0.0
 40
3.5
 50
270.0
 51
90.0
  0
ENDBLK
  5
1D6
  8
0
  0
BLOCK
  8
0
  2
CLUMP48
 70
     0
 10
0.0
 20
0.0
 30
0.0
  3
CLUMP48
  1

  0
ARC
  5
1DA
  8
┌▓È_1
 10
13.04115625
 20
208.96285809759999
 30
0.0
 40
3.5
 50
90.0
 51
270.0
  0
LINE
  5
1DB
  8
┌▓È_1
 10
28.04115625
 20
212.46285809759999
 30
0.0
 11
13.04115625
 21
212.46285809759999
 31
0.0
  0
LINE
  5
1DC
  8
┌▓È_1
 10
13.04115625
 20
205.46285809759999
 30
0.0
 11
28.04115625
 21
205.46285809759999
 31
0.0
  0
ARC
  5
1DD
  8
┌▓È_1
 10
28.04115625
 20
208.96285809759999
 30
0.0
 40
3.5
 50
270.0
 51
90.0
  0
ENDBLK
  5
1DE
  8
0
  0
BLOCK
  8
0
  2
CLUMP49
 70
     0
 10
0.0
 20
0.0
 30
0.0
  3
CLUMP49
  1

  0
INSERT
  5
1E5
  8
┌▓È_1
  2
CLUMP50
 10
0.0
 20
0.0
 30
0.0
  0
INSERT
  5
1F9
  8
┌▓È_1
  2
CLUMP53
 10
0.0
 20
0.0
 30
0.0
  0
ENDBLK
  5
20C
  8
0
  0
BLOCK
  8
0
  2
CLUMP50
 70
     0
 10
0.0
 20
0.0
 30
0.0
  3
CLUMP50
  1

  0
INSERT
  5
1E8
  8
┌▓È_1
  2
CLUMP51
 10
0.0
 20
0.0
 30
0.0
  0
INSERT
  5
1F0
  8
┌▓È_1
  2
CLUMP52
 10
0.0
 20
0.0
 30
0.0
  0
ENDBLK
  5
1F7
  8
0
  0
BLOCK
  8
0
  2
CLUMP51
 70
     0
 10
0.0
 20
0.0
 30
0.0
  3
CLUMP51
  1

  0
ARC
  5
1EA
  8
┌▓È_1
 10
88.041156249999986
 20
115.96285809760001
 30
0.0
 40
3.5
 50
90.0
 51
270.0
  0
LINE
  5
1EB
  8
┌▓È_1
 10
88.041156249999986
 20
119.46285809760001
 30
0.0
 11
103.04115625
 21
119.46285809760001
 31
0.0
  0
ARC
  5
1EC
  8
┌▓È_1
 10
103.04115625
 20
115.96285809760001
 30
0.0
 40
3.5
 50
270.0
 51
90.0
  0
LINE
  5
1ED
  8
┌▓È_1
 10
103.04115625
 20
112.46285809760001
 30
0.0
 11
88.041156249999986
 21
112.46285809760001
 31
0.0
  0
ENDBLK
  5
1EE
  8
0
  0
BLOCK
  8
0
  2
CLUMP52
 70
     0
 10
0.0
 20
0.0
 30
0.0
  3
CLUMP52
  1

  0
ARC
  5
1F2
  8
┌▓È_1
 10
88.041156249999986
 20
130.96285809759999
 30
0.0
 40
3.5
 50
90.0
 51
270.0
  0
LINE
  5
1F3
  8
┌▓È_1
 10
103.04115625
 20
127.46285809760001
 30
0.0
 11
88.041156249999986
 21
127.46285809760001
 31
0.0
  0
LINE
  5
1F4
  8
┌▓È_1
 10
88.041156249999986
 20
134.46285809759999
 30
0.0
 11
103.04115625
 21
134.46285809759999
 31
0.0
  0
ARC
  5
1F5
  8
┌▓È_1
 10
103.04115625
 20
130.96285809759999
 30
0.0
 40
3.5
 50
270.0
 51
90.0
  0
ENDBLK
  5
1F6
  8
0
  0
BLOCK
  8
0
  2
CLUMP53
 70
     0
 10
0.0
 20
0.0
 30
0.0
  3
CLUMP53
  1

  0
INSERT
  5
1FC
  8
┌▓È_1
  2
CLUMP54
 10
0.0
 20
0.0
 30
0.0
  0
INSERT
  5
204
  8
┌▓È_1
  2
CLUMP55
 10
0.0
 20
0.0
 30
0.0
  0
ENDBLK
  5
20B
  8
0
  0
BLOCK
  8
0
  2
CLUMP54
 70
     0
 10
0.0
 20
0.0
 30
0.0
  3
CLUMP54
  1

  0
ARC
  5
1FE
  8
┌▓È_1
 10
88.041156249999986
 20
193.96285809759999
 30
0.0
 40
3.5
 50
90.0
 51
270.0
  0
LINE
  5
1FF
  8
┌▓È_1
 10
103.04115625
 20
197.46285809759999
 30
0.0
 11
88.041156249999986
 21
197.46285809759999
 31
0.0
  0
LINE
  5
200
  8
┌▓È_1
 10
88.041156249999986
 20
190.46285809759999
 30
0.0
 11
103.04115625
 21
190.46285809759999
 31
0.0
  0
ARC
  5
201
  8
┌▓È_1
 10
103.04115625
 20
193.96285809759999
 30
0.0
 40
3.5
 50
270.0
 51
90.0
  0
ENDBLK
  5
202
  8
0
  0
BLOCK
  8
0
  2
CLUMP55
 70
     0
 10
0.0
 20
0.0
 30
0.0
  3
CLUMP55
  1

  0
ARC
  5
206
  8
┌▓È_1
 10
88.041156249999986
 20
208.96285809759999
 30
0.0
 40
3.5
 50
90.0
 51
270.0
  0
LINE
  5
207
  8
┌▓È_1
 10
103.04115625
 20
212.46285809759999
 30
0.0
 11
88.041156249999986
 21
212.46285809759999
 31
0.0
  0
LINE
  5
208
  8
┌▓È_1
 10
88.041156249999986
 20
205.46285809759999
 30
0.0
 11
103.04115625
 21
205.46285809759999
 31
0.0
  0
ARC
  5
209
  8
┌▓È_1
 10
103.04115625
 20
208.96285809759999
 30
0.0
 40
3.5
 50
270.0
 51
90.0
  0
ENDBLK
  5
20A
  8
0
  0
BLOCK
  8
0
  2
CLUMP56
 70
     0
 10
0.0
 20
0.0
 30
0.0
  3
CLUMP56
  1

  0
INSERT
  5
211
  8
┌▓È_1
  2
CLUMP57
 10
0.0
 20
0.0
 30
0.0
  0
INSERT
  5
225
  8
┌▓È_1
  2
CLUMP60
 10
0.0
 20
0.0
 30
0.0
  0
ENDBLK
  5
238
  8
0
  0
BLOCK
  8
0
  2
CLUMP57
 70
     0
 10
0.0
 20
0.0
 30
0.0
  3
CLUMP57
  1

  0
INSERT
  5
214
  8
┌▓È_1
  2
CLUMP58
 10
0.0
 20
0.0
 30
0.0
  0
INSERT
  5
21C
  8
┌▓È_1
  2
CLUMP59
 10
0.0
 20
0.0
 30
0.0
  0
ENDBLK
  5
223
  8
0
  0
BLOCK
  8
0
  2
CLUMP58
 70
     0
 10
0.0
 20
0.0
 30
0.0
  3
CLUMP58
  1

  0
ARC
  5
216
  8
┌▓È_1
 10
163.04115625
 20
115.96285809760001
 30
0.0
 40
3.5
 50
90.0
 51
270.0
  0
LINE
  5
217
  8
┌▓È_1
 10
163.04115625
 20
119.46285809760001
 30
0.0
 11
178.04115625
 21
119.46285809760001
 31
0.0
  0
ARC
  5
218
  8
┌▓È_1
 10
178.04115625
 20
115.96285809760001
 30
0.0
 40
3.5
 50
270.0
 51
90.0
  0
LINE
  5
219
  8
┌▓È_1
 10
178.04115625
 20
112.46285809760001
 30
0.0
 11
163.04115625
 21
112.46285809760001
 31
0.0
  0
ENDBLK
  5
21A
  8
0
  0
BLOCK
  8
0
  2
CLUMP59
 70
     0
 10
0.0
 20
0.0
 30
0.0
  3
CLUMP59
  1

  0
ARC
  5
21E
  8
┌▓È_1
 10
163.04115625
 20
130.96285809759999
 30
0.0
 40
3.5
 50
90.0
 51
270.0
  0
LINE
  5
21F
  8
┌▓È_1
 10
178.04115625
 20
127.46285809760001
 30
0.0
 11
163.04115625
 21
127.46285809760001
 31
0.0
  0
LINE
  5
220
  8
┌▓È_1
 10
163.04115625
 20
134.46285809759999
 30
0.0
 11
178.04115625
 21
134.46285809759999
 31
0.0
  0
ARC
  5
221
  8
┌▓È_1
 10
178.04115625
 20
130.96285809759999
 30
0.0
 40
3.5
 50
270.0
 51
90.0
  0
ENDBLK
  5
222
  8
0
  0
BLOCK
  8
0
  2
CLUMP60
 70
     0
 10
0.0
 20
0.0
 30
0.0
  3
CLUMP60
  1

  0
INSERT
  5
228
  8
┌▓È_1
  2
CLUMP61
 10
0.0
 20
0.0
 30
0.0
  0
INSERT
  5
230
  8
┌▓È_1
  2
CLUMP62
 10
0.0
 20
0.0
 30
0.0
  0
ENDBLK
  5
237
  8
0
  0
BLOCK
  8
0
  2
CLUMP61
 70
     0
 10
0.0
 20
0.0
 30
0.0
  3
CLUMP61
  1

  0
ARC
  5
22A
  8
┌▓È_1
 10
163.04115625
 20
193.96285809759999
 30
0.0
 40
3.5
 50
90.0
 51
270.0
  0
LINE
  5
22B
  8
┌▓È_1
 10
178.04115625
 20
197.46285809759999
 30
0.0
 11
163.04115625
 21
197.46285809759999
 31
0.0
  0
LINE
  5
22C
  8
┌▓È_1
 10
163.04115625
 20
190.46285809759999
 30
0.0
 11
178.04115625
 21
190.46285809759999
 31
0.0
  0
ARC
  5
22D
  8
┌▓È_1
 10
178.04115625
 20
193.96285809759999
 30
0.0
 40
3.5
 50
270.0
 51
90.0
  0
ENDBLK
  5
22E
  8
0
  0
BLOCK
  8
0
  2
CLUMP62
 70
     0
 10
0.0
 20
0.0
 30
0.0
  3
CLUMP62
  1

  0
ARC
  5
232
  8
┌▓È_1
 10
163.04115625
 20
208.96285809759999
 30
0.0
 40
3.5
 50
90.0
 51
270.0
  0
LINE
  5
233
  8
┌▓È_1
 10
178.04115625
 20
212.46285809759999
 30
0.0
 11
163.04115625
 21
212.46285809759999
 31
0.0
  0
LINE
  5
234
  8
┌▓È_1
 10
163.04115625
 20
205.46285809759999
 30
0.0
 11
178.04115625
 21
205.46285809759999
 31
0.0
  0
ARC
  5
235
  8
┌▓È_1
 10
178.04115625
 20
208.96285809759999
 30
0.0
 40
3.5
 50
270.0
 51
90.0
  0
ENDBLK
  5
236
  8
0
  0
BLOCK
  8
0
  2
*D71
 70
     1
 10
0.0
 20
0.0
 30
0.0
  3
*D71
  1

  0
TEXT
  5
23C
  8
0
 62
     0
 10
-243.23431475530001
 20
-123.9339093163
 30
0.0
 40
8.2461809158000001
  1
2-â│15
 50
26.776143397399998
  0
LINE
  5
23D
  8
0
 62
     0
 10
-257.75697746660001
 20
-135.0655468919
 30
0.0
 11
-211.3906276335
 21
-111.66844514899999
 31
0.0
  0
SOLID
  5
23E
  8
0
 62
     0
 10
-257.75697746660001
 20
-135.0655468919
 30
0.0
 11
-251.9058748672
 21
-130.01280274929999
 31
0.0
 12
-250.21647792940001
 22
-133.36070328349999
 32
0.0
 13
-252.7351266654
 23
-132.53145148530001
 33
0.0
  0
ENDBLK
  5
23F
  8
0
  0
BLOCK
  8
0
  2
*D72
 70
     1
 10
0.0
 20
0.0
 30
0.0
  3
*D72
  1

  0
TEXT
  5
243
  8
0
 62
     0
 10
-81.159041808699996
 20
-226.5405568788
 30
0.0
 40
8.2461809158000001
  1
75
  0
LINE
  5
244
  8
0
 62
     0
 10
-113.8083471523
 20
-191.49622685400001
 30
0.0
 11
-113.8083471523
 21
-229.99576527569999
 31
0.0
  0
LINE
  5
245
  8
0
 62
     0
 10
-38.808347152300001
 20
-191.49622685400001
 30
0.0
 11
-38.808347152300001
 21
-229.99576527569999
 31
0.0
  0
LINE
  5
246
  8
0
 62
     0
 10
-113.8083471523
 20
-228.99576527569999
 30
0.0
 11
-66.6069578396
 21
-228.99576527569999
 31
0.0
  0
LINE
  5
247
  8
0
 62
     0
 10
-113.8083471523
 20
-228.99576527569999
 30
0.0
 11
-86.009736465100005
 21
-228.99576527569999
 31
0.0
  0
LINE
  5
248
  8
0
 62
     0
 10
-38.808347152300001
 20
-228.99576527569999
 30
0.0
 11
-66.6069578396
 21
-228.99576527569999
 31
0.0
  0
LINE
  5
249
  8
0
 62
     0
 10
-38.808347152300001
 20
-228.99576527569999
 30
0.0
 11
-86.009736465100005
 21
-228.99576527569999
 31
0.0
  0
LINE
  5
24A
  8
0
 62
     0
 10
-38.808347152300001
 20
-228.99576527569999
 30
0.0
 11
-45.808347152299987
 21
-228.99576527569999
 31
0.0
  0
SOLID
  5
24B
  8
0
 62
     0
 10
-38.808347152300001
 20
-228.99576527569999
 30
0.0
 11
-46.308347152299987
 21
-230.87076527569999
 31
0.0
 12
-46.308347152299987
 22
-227.12076527569999
 32
0.0
 13
-44.433347152299987
 23
-228.99576527569999
 33
0.0
  0
LINE
  5
24C
  8
0
 62
     0
 10
-113.8083471523
 20
-228.99576527569999
 30
0.0
 11
-106.8083471523
 21
-228.99576527569999
 31
0.0
  0
SOLID
  5
24D
  8
0
 62
     0
 10
-113.8083471523
 20
-228.99576527569999
 30
0.0
 11
-106.3083471523
 21
-227.12076527569999
 31
0.0
 12
-106.3083471523
 22
-230.87076527569999
 32
0.0
 13
-108.1833471523
 23
-228.99576527569999
 33
0.0
  0
ENDBLK
  5
24E
  8
0
  0
BLOCK
  8
0
  2
CLUMP63
 70
     0
 10
0.0
 20
0.0
 30
0.0
  3
CLUMP63
  1

  0
INSERT
  5
254
  8
┌▓È_1
  2
CLUMP64
 10
0.0
 20
0.0
 30
0.0
  0
INSERT
  5
268
  8
┌▓È_1
  2
CLUMP67
 10
0.0
 20
0.0
 30
0.0
  0
ENDBLK
  5
27B
  8
0
  0
BLOCK
  8
0
  2
CLUMP64
 70
     0
 10
0.0
 20
0.0
 30
0.0
  3
CLUMP64
  1

  0
INSERT
  5
257
  8
┌▓È_1
  2
CLUMP65
 10
0.0
 20
0.0
 30
0.0
  0
INSERT
  5
25F
  8
┌▓È_1
  2
CLUMP66
 10
0.0
 20
0.0
 30
0.0
  0
ENDBLK
  5
266
  8
0
  0
BLOCK
  8
0
  2
CLUMP65
 70
     0
 10
0.0
 20
0.0
 30
0.0
  3
CLUMP65
  1

  0
ARC
  5
259
  8
┌▓È_1
 10
-211.95884375
 20
115.96285809760001
 30
0.0
 40
3.5
 50
90.0
 51
270.0
  0
LINE
  5
25A
  8
┌▓È_1
 10
-211.95884375
 20
119.46285809760001
 30
0.0
 11
-196.95884375
 21
119.46285809760001
 31
0.0
  0
ARC
  5
25B
  8
┌▓È_1
 10
-196.95884375
 20
115.96285809760001
 30
0.0
 40
3.5
 50
270.0
 51
90.0
  0
LINE
  5
25C
  8
┌▓È_1
 10
-196.95884375
 20
112.46285809760001
 30
0.0
 11
-211.95884375
 21
112.46285809760001
 31
0.0
  0
ENDBLK
  5
25D
  8
0
  0
BLOCK
  8
0
  2
CLUMP66
 70
     0
 10
0.0
 20
0.0
 30
0.0
  3
CLUMP66
  1

  0
ARC
  5
261
  8
┌▓È_1
 10
-211.95884375
 20
130.96285809759999
 30
0.0
 40
3.5
 50
90.0
 51
270.0
  0
LINE
  5
262
  8
┌▓È_1
 10
-196.95884375
 20
127.46285809760001
 30
0.0
 11
-211.95884375
 21
127.46285809760001
 31
0.0
  0
LINE
  5
263
  8
┌▓È_1
 10
-211.95884375
 20
134.46285809759999
 30
0.0
 11
-196.95884375
 21
134.46285809759999
 31
0.0
  0
ARC
  5
264
  8
┌▓È_1
 10
-196.95884375
 20
130.96285809759999
 30
0.0
 40
3.5
 50
270.0
 51
90.0
  0
ENDBLK
  5
265
  8
0
  0
BLOCK
  8
0
  2
CLUMP67
 70
     0
 10
0.0
 20
0.0
 30
0.0
  3
CLUMP67
  1

  0
INSERT
  5
26B
  8
┌▓È_1
  2
CLUMP68
 10
0.0
 20
0.0
 30
0.0
  0
INSERT
  5
273
  8
┌▓È_1
  2
CLUMP69
 10
0.0
 20
0.0
 30
0.0
  0
ENDBLK
  5
27A
  8
0
  0
BLOCK
  8
0
  2
CLUMP68
 70
     0
 10
0.0
 20
0.0
 30
0.0
  3
CLUMP68
  1

  0
ARC
  5
26D
  8
┌▓È_1
 10
-211.95884375
 20
193.96285809759999
 30
0.0
 40
3.5
 50
90.0
 51
270.0
  0
LINE
  5
26E
  8
┌▓È_1
 10
-196.95884375
 20
197.46285809759999
 30
0.0
 11
-211.95884375
 21
197.46285809759999
 31
0.0
  0
LINE
  5
26F
  8
┌▓È_1
 10
-211.95884375
 20
190.46285809759999
 30
0.0
 11
-196.95884375
 21
190.46285809759999
 31
0.0
  0
ARC
  5
270
  8
┌▓È_1
 10
-196.95884375
 20
193.96285809759999
 30
0.0
 40
3.5
 50
270.0
 51
90.0
  0
ENDBLK
  5
271
  8
0
  0
BLOCK
  8
0
  2
CLUMP69
 70
     0
 10
0.0
 20
0.0
 30
0.0
  3
CLUMP69
  1

  0
ARC
  5
275
  8
┌▓È_1
 10
-211.95884375
 20
208.96285809759999
 30
0.0
 40
3.5
 50
90.0
 51
270.0
  0
LINE
  5
276
  8
┌▓È_1
 10
-196.95884375
 20
212.46285809759999
 30
0.0
 11
-211.95884375
 21
212.46285809759999
 31
0.0
  0
LINE
  5
277
  8
┌▓È_1
 10
-211.95884375
 20
205.46285809759999
 30
0.0
 11
-196.95884375
 21
205.46285809759999
 31
0.0
  0
ARC
  5
278
  8
┌▓È_1
 10
-196.95884375
 20
208.96285809759999
 30
0.0
 40
3.5
 50
270.0
 51
90.0
  0
ENDBLK
  5
279
  8
0
  0
BLOCK
  8
0
  2
CLUMP70
 70
     0
 10
0.0
 20
0.0
 30
0.0
  3
CLUMP70
  1

  0
INSERT
  5
280
  8
┌▓È_1
  2
CLUMP71
 10
0.0
 20
0.0
 30
0.0
  0
INSERT
  5
294
  8
┌▓È_1
  2
CLUMP74
 10
0.0
 20
0.0
 30
0.0
  0
ENDBLK
  5
2A7
  8
0
  0
BLOCK
  8
0
  2
CLUMP71
 70
     0
 10
0.0
 20
0.0
 30
0.0
  3
CLUMP71
  1

  0
INSERT
  5
283
  8
┌▓È_1
  2
CLUMP72
 10
0.0
 20
0.0
 30
0.0
  0
INSERT
  5
28B
  8
┌▓È_1
  2
CLUMP73
 10
0.0
 20
0.0
 30
0.0
  0
ENDBLK
  5
292
  8
0
  0
BLOCK
  8
0
  2
CLUMP72
 70
     0
 10
0.0
 20
0.0
 30
0.0
  3
CLUMP72
  1

  0
ARC
  5
285
  8
┌▓È_1
 10
-136.95884375
 20
115.96285809760001
 30
0.0
 40
3.5
 50
90.0
 51
270.0
  0
LINE
  5
286
  8
┌▓È_1
 10
-136.95884375
 20
119.46285809760001
 30
0.0
 11
-121.95884375
 21
119.46285809760001
 31
0.0
  0
ARC
  5
287
  8
┌▓È_1
 10
-121.95884375
 20
115.96285809760001
 30
0.0
 40
3.5
 50
270.0
 51
90.0
  0
LINE
  5
288
  8
┌▓È_1
 10
-121.95884375
 20
112.46285809760001
 30
0.0
 11
-136.95884375
 21
112.46285809760001
 31
0.0
  0
ENDBLK
  5
289
  8
0
  0
BLOCK
  8
0
  2
CLUMP73
 70
     0
 10
0.0
 20
0.0
 30
0.0
  3
CLUMP73
  1

  0
ARC
  5
28D
  8
┌▓È_1
 10
-136.95884375
 20
130.96285809759999
 30
0.0
 40
3.5
 50
90.0
 51
270.0
  0
LINE
  5
28E
  8
┌▓È_1
 10
-121.95884375
 20
127.46285809760001
 30
0.0
 11
-136.95884375
 21
127.46285809760001
 31
0.0
  0
LINE
  5
28F
  8
┌▓È_1
 10
-136.95884375
 20
134.46285809759999
 30
0.0
 11
-121.95884375
 21
134.46285809759999
 31
0.0
  0
ARC
  5
290
  8
┌▓È_1
 10
-121.95884375
 20
130.96285809759999
 30
0.0
 40
3.5
 50
270.0
 51
90.0
  0
ENDBLK
  5
291
  8
0
  0
BLOCK
  8
0
  2
CLUMP74
 70
     0
 10
0.0
 20
0.0
 30
0.0
  3
CLUMP74
  1

  0
INSERT
  5
297
  8
┌▓È_1
  2
CLUMP75
 10
0.0
 20
0.0
 30
0.0
  0
INSERT
  5
29F
  8
┌▓È_1
  2
CLUMP76
 10
0.0
 20
0.0
 30
0.0
  0
ENDBLK
  5
2A6
  8
0
  0
BLOCK
  8
0
  2
CLUMP75
 70
     0
 10
0.0
 20
0.0
 30
0.0
  3
CLUMP75
  1

  0
ARC
  5
299
  8
┌▓È_1
 10
-136.95884375
 20
193.96285809759999
 30
0.0
 40
3.5
 50
90.0
 51
270.0
  0
LINE
  5
29A
  8
┌▓È_1
 10
-121.95884375
 20
197.46285809759999
 30
0.0
 11
-136.95884375
 21
197.46285809759999
 31
0.0
  0
LINE
  5
29B
  8
┌▓È_1
 10
-136.95884375
 20
190.46285809759999
 30
0.0
 11
-121.95884375
 21
190.46285809759999
 31
0.0
  0
ARC
  5
29C
  8
┌▓È_1
 10
-121.95884375
 20
193.96285809759999
 30
0.0
 40
3.5
 50
270.0
 51
90.0
  0
ENDBLK
  5
29D
  8
0
  0
BLOCK
  8
0
  2
CLUMP76
 70
     0
 10
0.0
 20
0.0
 30
0.0
  3
CLUMP76
  1

  0
ARC
  5
2A1
  8
┌▓È_1
 10
-136.95884375
 20
208.96285809759999
 30
0.0
 40
3.5
 50
90.0
 51
270.0
  0
LINE
  5
2A2
  8
┌▓È_1
 10
-121.95884375
 20
212.46285809759999
 30
0.0
 11
-136.95884375
 21
212.46285809759999
 31
0.0
  0
LINE
  5
2A3
  8
┌▓È_1
 10
-136.95884375
 20
205.46285809759999
 30
0.0
 11
-121.95884375
 21
205.46285809759999
 31
0.0
  0
ARC
  5
2A4
  8
┌▓È_1
 10
-121.95884375
 20
208.96285809759999
 30
0.0
 40
3.5
 50
270.0
 51
90.0
  0
ENDBLK
  5
2A5
  8
0
  0
BLOCK
  8
0
  2
CLUMP77
 70
     0
 10
0.0
 20
0.0
 30
0.0
  3
CLUMP77
  1

  0
ARC
  5
2AB
  8
┌▓È_1
 10
-174.45884375
 20
162.46285809759999
 30
0.0
 40
3.5
 50
90.0
 51
270.0
  0
LINE
  5
2AC
  8
┌▓È_1
 10
-159.45884375
 20
165.96285809759999
 30
0.0
 11
-174.45884375
 21
165.96285809759999
 31
0.0
  0
LINE
  5
2AD
  8
┌▓È_1
 10
-174.45884375
 20
158.96285809759999
 30
0.0
 11
-159.45884375
 21
158.96285809759999
 31
0.0
  0
ARC
  5
2AE
  8
┌▓È_1
 10
-159.45884375
 20
162.46285809759999
 30
0.0
 40
3.5
 50
270.0
 51
90.0
  0
ENDBLK
  5
2AF
  8
0
  0
BLOCK
  8
0
  2
CLUMP78
 70
     0
 10
0.0
 20
0.0
 30
0.0
  3
CLUMP78
  1

  0
ARC
  5
2B3
  8
┌▓È_1
 10
-99.45884375
 20
162.46285809759999
 30
0.0
 40
3.5
 50
90.0
 51
270.0
  0
LINE
  5
2B4
  8
┌▓È_1
 10
-84.45884375
 20
165.96285809759999
 30
0.0
 11
-99.45884375
 21
165.96285809759999
 31
0.0
  0
LINE
  5
2B5
  8
┌▓È_1
 10
-99.45884375
 20
158.96285809759999
 30
0.0
 11
-84.45884375
 21
158.96285809759999
 31
0.0
  0
ARC
  5
2B6
  8
┌▓È_1
 10
-84.45884375
 20
162.46285809759999
 30
0.0
 40
3.5
 50
270.0
 51
90.0
  0
ENDBLK
  5
2B7
  8
0
  0
BLOCK
  8
0
  2
CLUMP79
 70
     0
 10
0.0
 20
0.0
 30
0.0
  3
CLUMP79
  1

  0
ARC
  5
2BE
  8
┌▓È_1
 10
-24.45884375
 20
162.46285809759999
 30
0.0
 40
3.5
 50
90.0
 51
270.0
  0
LINE
  5
2BF
  8
┌▓È_1
 10
-9.4588437499999998
 20
165.96285809759999
 30
0.0
 11
-24.45884375
 21
165.96285809759999
 31
0.0
  0
LINE
  5
2C0
  8
┌▓È_1
 10
-24.45884375
 20
158.96285809759999
 30
0.0
 11
-9.4588437499999998
 21
158.96285809759999
 31
0.0
  0
ARC
  5
2C1
  8
┌▓È_1
 10
-9.4588437499999998
 20
162.46285809759999
 30
0.0
 40
3.5
 50
270.0
 51
90.0
  0
ENDBLK
  5
2C2
  8
0
  0
BLOCK
  8
0
  2
CLUMP80
 70
     0
 10
0.0
 20
0.0
 30
0.0
  3
CLUMP80
  1

  0
INSERT
  5
2CB
  8
┌▓È_1
  2
CLUMP81
 10
0.0
 20
0.0
 30
0.0
  0
INSERT
  5
2DF
  8
┌▓È_1
  2
CLUMP84
 10
0.0
 20
0.0
 30
0.0
  0
ENDBLK
  5
2F2
  8
0
  0
BLOCK
  8
0
  2
CLUMP81
 70
     0
 10
0.0
 20
0.0
 30
0.0
  3
CLUMP81
  1

  0
INSERT
  5
2CE
  8
┌▓È_1
  2
CLUMP82
 10
0.0
 20
0.0
 30
0.0
  0
INSERT
  5
2D6
  8
┌▓È_1
  2
CLUMP83
 10
0.0
 20
0.0
 30
0.0
  0
ENDBLK
  5
2DD
  8
0
  0
BLOCK
  8
0
  2
CLUMP82
 70
     0
 10
0.0
 20
0.0
 30
0.0
  3
CLUMP82
  1

  0
ARC
  5
2D0
  8
┌▓È_1
 10
-61.95884375
 20
115.96285809760001
 30
0.0
 40
3.5
 50
90.0
 51
270.0
  0
LINE
  5
2D1
  8
┌▓È_1
 10
-61.95884375
 20
119.46285809760001
 30
0.0
 11
-46.95884375
 21
119.46285809760001
 31
0.0
  0
ARC
  5
2D2
  8
┌▓È_1
 10
-46.95884375
 20
115.96285809760001
 30
0.0
 40
3.5
 50
270.0
 51
90.0
  0
LINE
  5
2D3
  8
┌▓È_1
 10
-46.95884375
 20
112.46285809760001
 30
0.0
 11
-61.95884375
 21
112.46285809760001
 31
0.0
  0
ENDBLK
  5
2D4
  8
0
  0
BLOCK
  8
0
  2
CLUMP83
 70
     0
 10
0.0
 20
0.0
 30
0.0
  3
CLUMP83
  1

  0
ARC
  5
2D8
  8
┌▓È_1
 10
-61.95884375
 20
130.96285809759999
 30
0.0
 40
3.5
 50
90.0
 51
270.0
  0
LINE
  5
2D9
  8
┌▓È_1
 10
-46.95884375
 20
127.46285809760001
 30
0.0
 11
-61.95884375
 21
127.46285809760001
 31
0.0
  0
LINE
  5
2DA
  8
┌▓È_1
 10
-61.95884375
 20
134.46285809759999
 30
0.0
 11
-46.95884375
 21
134.46285809759999
 31
0.0
  0
ARC
  5
2DB
  8
┌▓È_1
 10
-46.95884375
 20
130.96285809759999
 30
0.0
 40
3.5
 50
270.0
 51
90.0
  0
ENDBLK
  5
2DC
  8
0
  0
BLOCK
  8
0
  2
CLUMP84
 70
     0
 10
0.0
 20
0.0
 30
0.0
  3
CLUMP84
  1

  0
INSERT
  5
2E2
  8
┌▓È_1
  2
CLUMP85
 10
0.0
 20
0.0
 30
0.0
  0
INSERT
  5
2EA
  8
┌▓È_1
  2
CLUMP86
 10
0.0
 20
0.0
 30
0.0
  0
ENDBLK
  5
2F1
  8
0
  0
BLOCK
  8
0
  2
CLUMP85
 70
     0
 10
0.0
 20
0.0
 30
0.0
  3
CLUMP85
  1

  0
ARC
  5
2E4
  8
┌▓È_1
 10
-61.95884375
 20
193.96285809759999
 30
0.0
 40
3.5
 50
90.0
 51
270.0
  0
LINE
  5
2E5
  8
┌▓È_1
 10
-46.95884375
 20
197.46285809759999
 30
0.0
 11
-61.95884375
 21
197.46285809759999
 31
0.0
  0
LINE
  5
2E6
  8
┌▓È_1
 10
-61.95884375
 20
190.46285809759999
 30
0.0
 11
-46.95884375
 21
190.46285809759999
 31
0.0
  0
ARC
  5
2E7
  8
┌▓È_1
 10
-46.95884375
 20
193.96285809759999
 30
0.0
 40
3.5
 50
270.0
 51
90.0
  0
ENDBLK
  5
2E8
  8
0
  0
BLOCK
  8
0
  2
CLUMP86
 70
     0
 10
0.0
 20
0.0
 30
0.0
  3
CLUMP86
  1

  0
ARC
  5
2EC
  8
┌▓È_1
 10
-61.95884375
 20
208.96285809759999
 30
0.0
 40
3.5
 50
90.0
 51
270.0
  0
LINE
  5
2ED
  8
┌▓È_1
 10
-46.95884375
 20
212.46285809759999
 30
0.0
 11
-61.95884375
 21
212.46285809759999
 31
0.0
  0
LINE
  5
2EE
  8
┌▓È_1
 10
-61.95884375
 20
205.46285809759999
 30
0.0
 11
-46.95884375
 21
205.46285809759999
 31
0.0
  0
ARC
  5
2EF
  8
┌▓È_1
 10
-46.95884375
 20
208.96285809759999
 30
0.0
 40
3.5
 50
270.0
 51
90.0
  0
ENDBLK
  5
2F0
  8
0
  0
BLOCK
  8
0
  2
CLUMP87
 70
     0
 10
0.0
 20
0.0
 30
0.0
  3
CLUMP87
  1

  0
ARC
  5
305
  8
┌▓È_1
 10
-233.8083471523
 20
-139.49622685400001
 30
0.0
 40
3.5
 50
90.0
 51
270.0
  0
LINE
  5
306
  8
┌▓È_1
 10
-218.8083471523
 20
-135.99622685400001
 30
0.0
 11
-233.8083471523
 21
-135.99622685400001
 31
0.0
  0
LINE
  5
307
  8
┌▓È_1
 10
-233.8083471523
 20
-142.99622685400001
 30
0.0
 11
-218.8083471523
 21
-142.99622685400001
 31
0.0
  0
ARC
  5
308
  8
┌▓È_1
 10
-218.8083471523
 20
-139.49622685400001
 30
0.0
 40
3.5
 50
270.0
 51
90.0
  0
ENDBLK
  5
309
  8
0
  0
BLOCK
  8
0
  2
CLUMP88
 70
     0
 10
0.0
 20
0.0
 30
0.0
  3
CLUMP88
  1

  0
ARC
  5
30D
  8
┌▓È_1
 10
-158.8083471523
 20
-139.49622685400001
 30
0.0
 40
3.5
 50
90.0
 51
270.0
  0
LINE
  5
30E
  8
┌▓È_1
 10
-143.8083471523
 20
-135.99622685400001
 30
0.0
 11
-158.8083471523
 21
-135.99622685400001
 31
0.0
  0
LINE
  5
30F
  8
┌▓È_1
 10
-158.8083471523
 20
-142.99622685400001
 30
0.0
 11
-143.8083471523
 21
-142.99622685400001
 31
0.0
  0
ARC
  5
310
  8
┌▓È_1
 10
-143.8083471523
 20
-139.49622685400001
 30
0.0
 40
3.5
 50
270.0
 51
90.0
  0
ENDBLK
  5
311
  8
0
  0
BLOCK
  8
0
  2
CLUMP89
 70
     0
 10
0.0
 20
0.0
 30
0.0
  3
CLUMP89
  1

  0
ARC
  5
317
  8
┌▓È_1
 10
-83.808347152299987
 20
-139.49622685400001
 30
0.0
 40
3.5
 50
90.0
 51
270.0
  0
LINE
  5
318
  8
┌▓È_1
 10
-68.808347152300001
 20
-135.99622685400001
 30
0.0
 11
-83.808347152299987
 21
-135.99622685400001
 31
0.0
  0
LINE
  5
319
  8
┌▓È_1
 10
-83.808347152299987
 20
-142.99622685400001
 30
0.0
 11
-68.808347152300001
 21
-142.99622685400001
 31
0.0
  0
ARC
  5
31A
  8
┌▓È_1
 10
-68.808347152300001
 20
-139.49622685400001
 30
0.0
 40
3.5
 50
270.0
 51
90.0
  0
ENDBLK
  5
31B
  8
0
  0
BLOCK
  8
0
  2
CLUMP90
 70
     0
 10
0.0
 20
0.0
 30
0.0
  3
CLUMP90
  1

  0
INSERT
  5
327
  8
┌▓È_1
  2
CLUMP91
 10
0.0
 20
0.0
 30
0.0
  0
INSERT
  5
33B
  8
┌▓È_1
  2
CLUMP94
 10
0.0
 20
0.0
 30
0.0
  0
ENDBLK
  5
34E
  8
0
  0
BLOCK
  8
0
  2
CLUMP91
 70
     0
 10
0.0
 20
0.0
 30
0.0
  3
CLUMP91
  1

  0
INSERT
  5
32A
  8
┌▓È_1
  2
CLUMP92
 10
0.0
 20
0.0
 30
0.0
  0
INSERT
  5
332
  8
┌▓È_1
  2
CLUMP93
 10
0.0
 20
0.0
 30
0.0
  0
ENDBLK
  5
339
  8
0
  0
BLOCK
  8
0
  2
CLUMP92
 70
     0
 10
0.0
 20
0.0
 30
0.0
  3
CLUMP92
  1

  0
ARC
  5
32C
  8
┌▓È_1
 10
-121.3083471523
 20
-185.99622685400001
 30
0.0
 40
3.5
 50
90.0
 51
270.0
  0
LINE
  5
32D
  8
┌▓È_1
 10
-121.3083471523
 20
-182.49622685400001
 30
0.0
 11
-106.3083471523
 21
-182.49622685400001
 31
0.0
  0
ARC
  5
32E
  8
┌▓È_1
 10
-106.3083471523
 20
-185.99622685400001
 30
0.0
 40
3.5
 50
270.0
 51
90.0
  0
LINE
  5
32F
  8
┌▓È_1
 10
-106.3083471523
 20
-189.49622685400001
 30
0.0
 11
-121.3083471523
 21
-189.49622685400001
 31
0.0
  0
ENDBLK
  5
330
  8
0
  0
BLOCK
  8
0
  2
CLUMP93
 70
     0
 10
0.0
 20
0.0
 30
0.0
  3
CLUMP93
  1

  0
ARC
  5
334
  8
┌▓È_1
 10
-121.3083471523
 20
-170.99622685400001
 30
0.0
 40
3.5
 50
90.0
 51
270.0
  0
LINE
  5
335
  8
┌▓È_1
 10
-106.3083471523
 20
-174.49622685400001
 30
0.0
 11
-121.3083471523
 21
-174.49622685400001
 31
0.0
  0
LINE
  5
336
  8
┌▓È_1
 10
-121.3083471523
 20
-167.49622685400001
 30
0.0
 11
-106.3083471523
 21
-167.49622685400001
 31
0.0
  0
ARC
  5
337
  8
┌▓È_1
 10
-106.3083471523
 20
-170.99622685400001
 30
0.0
 40
3.5
 50
270.0
 51
90.0
  0
ENDBLK
  5
338
  8
0
  0
BLOCK
  8
0
  2
CLUMP94
 70
     0
 10
0.0
 20
0.0
 30
0.0
  3
CLUMP94
  1

  0
INSERT
  5
33E
  8
┌▓È_1
  2
CLUMP95
 10
0.0
 20
0.0
 30
0.0
  0
INSERT
  5
346
  8
┌▓È_1
  2
CLUMP96
 10
0.0
 20
0.0
 30
0.0
  0
ENDBLK
  5
34D
  8
0
  0
BLOCK
  8
0
  2
CLUMP95
 70
     0
 10
0.0
 20
0.0
 30
0.0
  3
CLUMP95
  1

  0
ARC
  5
340
  8
┌▓È_1
 10
-121.3083471523
 20
-107.996226854
 30
0.0
 40
3.5
 50
90.0
 51
270.0
  0
LINE
  5
341
  8
┌▓È_1
 10
-106.3083471523
 20
-104.496226854
 30
0.0
 11
-121.3083471523
 21
-104.496226854
 31
0.0
  0
LINE
  5
342
  8
┌▓È_1
 10
-121.3083471523
 20
-111.496226854
 30
0.0
 11
-106.3083471523
 21
-111.496226854
 31
0.0
  0
ARC
  5
343
  8
┌▓È_1
 10
-106.3083471523
 20
-107.996226854
 30
0.0
 40
3.5
 50
270.0
 51
90.0
  0
ENDBLK
  5
344
  8
0
  0
BLOCK
  8
0
  2
CLUMP96
 70
     0
 10
0.0
 20
0.0
 30
0.0
  3
CLUMP96
  1

  0
ARC
  5
348
  8
┌▓È_1
 10
-121.3083471523
 20
-92.996226854000014
 30
0.0
 40
3.5
 50
90.0
 51
270.0
  0
LINE
  5
349
  8
┌▓È_1
 10
-106.3083471523
 20
-89.496226853999985
 30
0.0
 11
-121.3083471523
 21
-89.496226853999985
 31
0.0
  0
LINE
  5
34A
  8
┌▓È_1
 10
-121.3083471523
 20
-96.496226854
 30
0.0
 11
-106.3083471523
 21
-96.496226854
 31
0.0
  0
ARC
  5
34B
  8
┌▓È_1
 10
-106.3083471523
 20
-92.996226854000014
 30
0.0
 40
3.5
 50
270.0
 51
90.0
  0
ENDBLK
  5
34C
  8
0
  0
BLOCK
  8
0
  2
CLUMP97
 70
     0
 10
0.0
 20
0.0
 30
0.0
  3
CLUMP97
  1

  0
INSERT
  5
353
  8
┌▓È_1
  2
CLUMP98
 10
0.0
 20
0.0
 30
0.0
  0
INSERT
  5
367
  8
┌▓È_1
  2
CLUMP101
 10
0.0
 20
0.0
 30
0.0
  0
ENDBLK
  5
37A
  8
0
  0
BLOCK
  8
0
  2
CLUMP98
 70
     0
 10
0.0
 20
0.0
 30
0.0
  3
CLUMP98
  1

  0
INSERT
  5
356
  8
┌▓È_1
  2
CLUMP99
 10
0.0
 20
0.0
 30
0.0
  0
INSERT
  5
35E
  8
┌▓È_1
  2
CLUMP100
 10
0.0
 20
0.0
 30
0.0
  0
ENDBLK
  5
365
  8
0
  0
BLOCK
  8
0
  2
CLUMP99
 70
     0
 10
0.0
 20
0.0
 30
0.0
  3
CLUMP99
  1

  0
ARC
  5
358
  8
┌▓È_1
 10
-46.308347152299987
 20
-185.99622685400001
 30
0.0
 40
3.5
 50
90.0
 51
270.0
  0
LINE
  5
359
  8
┌▓È_1
 10
-46.308347152299987
 20
-182.49622685400001
 30
0.0
 11
-31.308347152300001
 21
-182.49622685400001
 31
0.0
  0
ARC
  5
35A
  8
┌▓È_1
 10
-31.308347152300001
 20
-185.99622685400001
 30
0.0
 40
3.5
 50
270.0
 51
90.0
  0
LINE
  5
35B
  8
┌▓È_1
 10
-31.308347152300001
 20
-189.49622685400001
 30
0.0
 11
-46.308347152299987
 21
-189.49622685400001
 31
0.0
  0
ENDBLK
  5
35C
  8
0
  0
BLOCK
  8
0
  2
CLUMP100
 70
     0
 10
0.0
 20
0.0
 30
0.0
  3
CLUMP100
  1

  0
ARC
  5
360
  8
┌▓È_1
 10
-46.308347152299987
 20
-170.99622685400001
 30
0.0
 40
3.5
 50
90.0
 51
270.0
  0
LINE
  5
361
  8
┌▓È_1
 10
-31.308347152300001
 20
-174.49622685400001
 30
0.0
 11
-46.308347152299987
 21
-174.49622685400001
 31
0.0
  0
LINE
  5
362
  8
┌▓È_1
 10
-46.308347152299987
 20
-167.49622685400001
 30
0.0
 11
-31.308347152300001
 21
-167.49622685400001
 31
0.0
  0
ARC
  5
363
  8
┌▓È_1
 10
-31.308347152300001
 20
-170.99622685400001
 30
0.0
 40
3.5
 50
270.0
 51
90.0
  0
ENDBLK
  5
364
  8
0
  0
BLOCK
  8
0
  2
CLUMP101
 70
     0
 10
0.0
 20
0.0
 30
0.0
  3
CLUMP101
  1

  0
INSERT
  5
36A
  8
┌▓È_1
  2
CLUMP102
 10
0.0
 20
0.0
 30
0.0
  0
INSERT
  5
372
  8
┌▓È_1
  2
CLUMP103
 10
0.0
 20
0.0
 30
0.0
  0
ENDBLK
  5
379
  8
0
  0
BLOCK
  8
0
  2
CLUMP102
 70
     0
 10
0.0
 20
0.0
 30
0.0
  3
CLUMP102
  1

  0
ARC
  5
36C
  8
┌▓È_1
 10
-46.308347152299987
 20
-107.996226854
 30
0.0
 40
3.5
 50
90.0
 51
270.0
  0
LINE
  5
36D
  8
┌▓È_1
 10
-31.308347152300001
 20
-104.496226854
 30
0.0
 11
-46.308347152299987
 21
-104.496226854
 31
0.0
  0
LINE
  5
36E
  8
┌▓È_1
 10
-46.308347152299987
 20
-111.496226854
 30
0.0
 11
-31.308347152300001
 21
-111.496226854
 31
0.0
  0
ARC
  5
36F
  8
┌▓È_1
 10
-31.308347152300001
 20
-107.996226854
 30
0.0
 40
3.5
 50
270.0
 51
90.0
  0
ENDBLK
  5
370
  8
0
  0
BLOCK
  8
0
  2
CLUMP103
 70
     0
 10
0.0
 20
0.0
 30
0.0
  3
CLUMP103
  1

  0
ARC
  5
374
  8
┌▓È_1
 10
-46.308347152299987
 20
-92.996226854000014
 30
0.0
 40
3.5
 50
90.0
 51
270.0
  0
LINE
  5
375
  8
┌▓È_1
 10
-31.308347152300001
 20
-89.496226853999985
 30
0.0
 11
-46.308347152299987
 21
-89.496226853999985
 31
0.0
  0
LINE
  5
376
  8
┌▓È_1
 10
-46.308347152299987
 20
-96.496226854
 30
0.0
 11
-31.308347152300001
 21
-96.496226854
 31
0.0
  0
ARC
  5
377
  8
┌▓È_1
 10
-31.308347152300001
 20
-92.996226854000014
 30
0.0
 40
3.5
 50
270.0
 51
90.0
  0
ENDBLK
  5
378
  8
0
  0
BLOCK
  8
0
  2
CLUMP104
 70
     0
 10
0.0
 20
0.0
 30
0.0
  3
CLUMP104
  1

  0
INSERT
  5
37F
  8
┌▓È_1
  2
CLUMP105
 10
0.0
 20
0.0
 30
0.0
  0
INSERT
  5
393
  8
┌▓È_1
  2
CLUMP108
 10
0.0
 20
0.0
 30
0.0
  0
ENDBLK
  5
3A6
  8
0
  0
BLOCK
  8
0
  2
CLUMP105
 70
     0
 10
0.0
 20
0.0
 30
0.0
  3
CLUMP105
  1

  0
INSERT
  5
382
  8
┌▓È_1
  2
CLUMP106
 10
0.0
 20
0.0
 30
0.0
  0
INSERT
  5
38A
  8
┌▓È_1
  2
CLUMP107
 10
0.0
 20
0.0
 30
0.0
  0
ENDBLK
  5
391
  8
0
  0
BLOCK
  8
0
  2
CLUMP106
 70
     0
 10
0.0
 20
0.0
 30
0.0
  3
CLUMP106
  1

  0
ARC
  5
384
  8
┌▓È_1
 10
-271.30834715229997
 20
-185.99622685400001
 30
0.0
 40
3.5
 50
90.0
 51
270.0
  0
LINE
  5
385
  8
┌▓È_1
 10
-271.30834715229997
 20
-182.49622685400001
 30
0.0
 11
-256.30834715229997
 21
-182.49622685400001
 31
0.0
  0
ARC
  5
386
  8
┌▓È_1
 10
-256.30834715229997
 20
-185.99622685400001
 30
0.0
 40
3.5
 50
270.0
 51
90.0
  0
LINE
  5
387
  8
┌▓È_1
 10
-256.30834715229997
 20
-189.49622685400001
 30
0.0
 11
-271.30834715229997
 21
-189.49622685400001
 31
0.0
  0
ENDBLK
  5
388
  8
0
  0
BLOCK
  8
0
  2
CLUMP107
 70
     0
 10
0.0
 20
0.0
 30
0.0
  3
CLUMP107
  1

  0
ARC
  5
38C
  8
┌▓È_1
 10
-271.30834715229997
 20
-170.99622685400001
 30
0.0
 40
3.5
 50
90.0
 51
270.0
  0
LINE
  5
38D
  8
┌▓È_1
 10
-256.30834715229997
 20
-174.49622685400001
 30
0.0
 11
-271.30834715229997
 21
-174.49622685400001
 31
0.0
  0
LINE
  5
38E
  8
┌▓È_1
 10
-271.30834715229997
 20
-167.49622685400001
 30
0.0
 11
-256.30834715229997
 21
-167.49622685400001
 31
0.0
  0
ARC
  5
38F
  8
┌▓È_1
 10
-256.30834715229997
 20
-170.99622685400001
 30
0.0
 40
3.5
 50
270.0
 51
90.0
  0
ENDBLK
  5
390
  8
0
  0
BLOCK
  8
0
  2
CLUMP108
 70
     0
 10
0.0
 20
0.0
 30
0.0
  3
CLUMP108
  1

  0
INSERT
  5
396
  8
┌▓È_1
  2
CLUMP109
 10
0.0
 20
0.0
 30
0.0
  0
INSERT
  5
39E
  8
┌▓È_1
  2
CLUMP110
 10
0.0
 20
0.0
 30
0.0
  0
ENDBLK
  5
3A5
  8
0
  0
BLOCK
  8
0
  2
CLUMP109
 70
     0
 10
0.0
 20
0.0
 30
0.0
  3
CLUMP109
  1

  0
ARC
  5
398
  8
┌▓È_1
 10
-271.30834715229997
 20
-107.996226854
 30
0.0
 40
3.5
 50
90.0
 51
270.0
  0
LINE
  5
399
  8
┌▓È_1
 10
-256.30834715229997
 20
-104.496226854
 30
0.0
 11
-271.30834715229997
 21
-104.496226854
 31
0.0
  0
LINE
  5
39A
  8
┌▓È_1
 10
-271.30834715229997
 20
-111.496226854
 30
0.0
 11
-256.30834715229997
 21
-111.496226854
 31
0.0
  0
ARC
  5
39B
  8
┌▓È_1
 10
-256.30834715229997
 20
-107.996226854
 30
0.0
 40
3.5
 50
270.0
 51
90.0
  0
ENDBLK
  5
39C
  8
0
  0
BLOCK
  8
0
  2
CLUMP110
 70
     0
 10
0.0
 20
0.0
 30
0.0
  3
CLUMP110
  1

  0
ARC
  5
3A0
  8
┌▓È_1
 10
-271.30834715229997
 20
-92.996226854000014
 30
0.0
 40
3.5
 50
90.0
 51
270.0
  0
LINE
  5
3A1
  8
┌▓È_1
 10
-256.30834715229997
 20
-89.496226853999985
 30
0.0
 11
-271.30834715229997
 21
-89.496226853999985
 31
0.0
  0
LINE
  5
3A2
  8
┌▓È_1
 10
-271.30834715229997
 20
-96.496226854
 30
0.0
 11
-256.30834715229997
 21
-96.496226854
 31
0.0
  0
ARC
  5
3A3
  8
┌▓È_1
 10
-256.30834715229997
 20
-92.996226854000014
 30
0.0
 40
3.5
 50
270.0
 51
90.0
  0
ENDBLK
  5
3A4
  8
0
  0
BLOCK
  8
0
  2
CLUMP111
 70
     0
 10
0.0
 20
0.0
 30
0.0
  3
CLUMP111
  1

  0
INSERT
  5
3AB
  8
┌▓È_1
  2
CLUMP112
 10
0.0
 20
0.0
 30
0.0
  0
INSERT
  5
3BF
  8
┌▓È_1
  2
CLUMP115
 10
0.0
 20
0.0
 30
0.0
  0
ENDBLK
  5
3D2
  8
0
  0
BLOCK
  8
0
  2
CLUMP112
 70
     0
 10
0.0
 20
0.0
 30
0.0
  3
CLUMP112
  1

  0
INSERT
  5
3AE
  8
┌▓È_1
  2
CLUMP113
 10
0.0
 20
0.0
 30
0.0
  0
INSERT
  5
3B6
  8
┌▓È_1
  2
CLUMP114
 10
0.0
 20
0.0
 30
0.0
  0
ENDBLK
  5
3BD
  8
0
  0
BLOCK
  8
0
  2
CLUMP113
 70
     0
 10
0.0
 20
0.0
 30
0.0
  3
CLUMP113
  1

  0
ARC
  5
3B0
  8
┌▓È_1
 10
-196.3083471523
 20
-185.99622685400001
 30
0.0
 40
3.5
 50
90.0
 51
270.0
  0
LINE
  5
3B1
  8
┌▓È_1
 10
-196.3083471523
 20
-182.49622685400001
 30
0.0
 11
-181.3083471523
 21
-182.49622685400001
 31
0.0
  0
ARC
  5
3B2
  8
┌▓È_1
 10
-181.3083471523
 20
-185.99622685400001
 30
0.0
 40
3.5
 50
270.0
 51
90.0
  0
LINE
  5
3B3
  8
┌▓È_1
 10
-181.3083471523
 20
-189.49622685400001
 30
0.0
 11
-196.3083471523
 21
-189.49622685400001
 31
0.0
  0
ENDBLK
  5
3B4
  8
0
  0
BLOCK
  8
0
  2
CLUMP114
 70
     0
 10
0.0
 20
0.0
 30
0.0
  3
CLUMP114
  1

  0
ARC
  5
3B8
  8
┌▓È_1
 10
-196.3083471523
 20
-170.99622685400001
 30
0.0
 40
3.5
 50
90.0
 51
270.0
  0
LINE
  5
3B9
  8
┌▓È_1
 10
-181.3083471523
 20
-174.49622685400001
 30
0.0
 11
-196.3083471523
 21
-174.49622685400001
 31
0.0
  0
LINE
  5
3BA
  8
┌▓È_1
 10
-196.3083471523
 20
-167.49622685400001
 30
0.0
 11
-181.3083471523
 21
-167.49622685400001
 31
0.0
  0
ARC
  5
3BB
  8
┌▓È_1
 10
-181.3083471523
 20
-170.99622685400001
 30
0.0
 40
3.5
 50
270.0
 51
90.0
  0
ENDBLK
  5
3BC
  8
0
  0
BLOCK
  8
0
  2
CLUMP115
 70
     0
 10
0.0
 20
0.0
 30
0.0
  3
CLUMP115
  1

  0
INSERT
  5
3C2
  8
┌▓È_1
  2
CLUMP116
 10
0.0
 20
0.0
 30
0.0
  0
INSERT
  5
3CA
  8
┌▓È_1
  2
CLUMP117
 10
0.0
 20
0.0
 30
0.0
  0
ENDBLK
  5
3D1
  8
0
  0
BLOCK
  8
0
  2
CLUMP116
 70
     0
 10
0.0
 20
0.0
 30
0.0
  3
CLUMP116
  1

  0
ARC
  5
3C4
  8
┌▓È_1
 10
-196.3083471523
 20
-107.996226854
 30
0.0
 40
3.5
 50
90.0
 51
270.0
  0
LINE
  5
3C5
  8
┌▓È_1
 10
-181.3083471523
 20
-104.496226854
 30
0.0
 11
-196.3083471523
 21
-104.496226854
 31
0.0
  0
LINE
  5
3C6
  8
┌▓È_1
 10
-196.3083471523
 20
-111.496226854
 30
0.0
 11
-181.3083471523
 21
-111.496226854
 31
0.0
  0
ARC
  5
3C7
  8
┌▓È_1
 10
-181.3083471523
 20
-107.996226854
 30
0.0
 40
3.5
 50
270.0
 51
90.0
  0
ENDBLK
  5
3C8
  8
0
  0
BLOCK
  8
0
  2
CLUMP117
 70
     0
 10
0.0
 20
0.0
 30
0.0
  3
CLUMP117
  1

  0
ARC
  5
3CC
  8
┌▓È_1
 10
-196.3083471523
 20
-92.996226854000014
 30
0.0
 40
3.5
 50
90.0
 51
270.0
  0
LINE
  5
3CD
  8
┌▓È_1
 10
-181.3083471523
 20
-89.496226853999985
 30
0.0
 11
-196.3083471523
 21
-89.496226853999985
 31
0.0
  0
LINE
  5
3CE
  8
┌▓È_1
 10
-196.3083471523
 20
-96.496226854
 30
0.0
 11
-181.3083471523
 21
-96.496226854
 31
0.0
  0
ARC
  5
3CF
  8
┌▓È_1
 10
-181.3083471523
 20
-92.996226854000014
 30
0.0
 40
3.5
 50
270.0
 51
90.0
  0
ENDBLK
  5
3D0
  8
0
  0
BLOCK
  8
0
  2
*D128
 70
     1
 10
0.0
 20
0.0
 30
0.0
  3
*D128
  1

  0
TEXT
  5
3D7
  8
0
 62
     0
 10
-156.15904180870001
 20
-226.5405568788
 30
0.0
 40
8.2461809158000001
  1
75
  0
LINE
  5
3D8
  8
0
 62
     0
 10
-188.8083471523
 20
-191.49622685400001
 30
0.0
 11
-188.8083471523
 21
-229.99576527569999
 31
0.0
  0
LINE
  5
3D9
  8
0
 62
     0
 10
-113.8083471523
 20
-191.49622685400001
 30
0.0
 11
-113.8083471523
 21
-229.99576527569999
 31
0.0
  0
LINE
  5
3DA
  8
0
 62
     0
 10
-188.8083471523
 20
-228.99576527569999
 30
0.0
 11
-141.6069578396
 21
-228.99576527569999
 31
0.0
  0
LINE
  5
3DB
  8
0
 62
     0
 10
-188.8083471523
 20
-228.99576527569999
 30
0.0
 11
-161.00973646509999
 21
-228.99576527569999
 31
0.0
  0
LINE
  5
3DC
  8
0
 62
     0
 10
-113.8083471523
 20
-228.99576527569999
 30
0.0
 11
-141.6069578396
 21
-228.99576527569999
 31
0.0
  0
LINE
  5
3DD
  8
0
 62
     0
 10
-113.8083471523
 20
-228.99576527569999
 30
0.0
 11
-161.00973646509999
 21
-228.99576527569999
 31
0.0
  0
LINE
  5
3DE
  8
0
 62
     0
 10
-113.8083471523
 20
-228.99576527569999
 30
0.0
 11
-120.8083471523
 21
-228.99576527569999
 31
0.0
  0
SOLID
  5
3DF
  8
0
 62
     0
 10
-113.8083471523
 20
-228.99576527569999
 30
0.0
 11
-121.3083471523
 21
-230.87076527569999
 31
0.0
 12
-121.3083471523
 22
-227.12076527569999
 32
0.0
 13
-119.4333471523
 23
-228.99576527569999
 33
0.0
  0
LINE
  5
3E0
  8
0
 62
     0
 10
-188.8083471523
 20
-228.99576527569999
 30
0.0
 11
-181.8083471523
 21
-228.99576527569999
 31
0.0
  0
SOLID
  5
3E1
  8
0
 62
     0
 10
-188.8083471523
 20
-228.99576527569999
 30
0.0
 11
-181.3083471523
 21
-227.12076527569999
 31
0.0
 12
-181.3083471523
 22
-230.87076527569999
 32
0.0
 13
-183.1833471523
 23
-228.99576527569999
 33
0.0
  0
ENDBLK
  5
3E2
  8
0
  0
BLOCK
  8
0
  2
*D129
 70
     1
 10
0.0
 20
0.0
 30
0.0
  3
*D129
  1

  0
TEXT
  5
3E6
  8
0
 62
     0
 10
-231.15904180870001
 20
-226.5405568788
 30
0.0
 40
8.2461809158000001
  1
75
  0
LINE
  5
3E7
  8
0
 62
     0
 10
-263.80834715229997
 20
-191.49622685400001
 30
0.0
 11
-263.80834715229997
 21
-229.99576527569999
 31
0.0
  0
LINE
  5
3E8
  8
0
 62
     0
 10
-188.8083471523
 20
-191.49622685400001
 30
0.0
 11
-188.8083471523
 21
-229.99576527569999
 31
0.0
  0
LINE
  5
3E9
  8
0
 62
     0
 10
-263.80834715229997
 20
-228.99576527569999
 30
0.0
 11
-216.6069578396
 21
-228.99576527569999
 31
0.0
  0
LINE
  5
3EA
  8
0
 62
     0
 10
-263.80834715229997
 20
-228.99576527569999
 30
0.0
 11
-236.00973646509999
 21
-228.99576527569999
 31
0.0
  0
LINE
  5
3EB
  8
0
 62
     0
 10
-188.8083471523
 20
-228.99576527569999
 30
0.0
 11
-216.6069578396
 21
-228.99576527569999
 31
0.0
  0
LINE
  5
3EC
  8
0
 62
     0
 10
-188.8083471523
 20
-228.99576527569999
 30
0.0
 11
-236.00973646509999
 21
-228.99576527569999
 31
0.0
  0
LINE
  5
3ED
  8
0
 62
     0
 10
-188.8083471523
 20
-228.99576527569999
 30
0.0
 11
-195.8083471523
 21
-228.99576527569999
 31
0.0
  0
SOLID
  5
3EE
  8
0
 62
     0
 10
-188.8083471523
 20
-228.99576527569999
 30
0.0
 11
-196.3083471523
 21
-230.87076527569999
 31
0.0
 12
-196.3083471523
 22
-227.12076527569999
 32
0.0
 13
-194.4333471523
 23
-228.99576527569999
 33
0.0
  0
LINE
  5
3EF
  8
0
 62
     0
 10
-263.80834715229997
 20
-228.99576527569999
 30
0.0
 11
-256.80834715229997
 21
-228.99576527569999
 31
0.0
  0
SOLID
  5
3F0
  8
0
 62
     0
 10
-263.80834715229997
 20
-228.99576527569999
 30
0.0
 11
-256.30834715229997
 21
-227.12076527569999
 31
0.0
 12
-256.30834715229997
 22
-230.87076527569999
 32
0.0
 13
-258.18334715229997
 23
-228.99576527569999
 33
0.0
  0
ENDBLK
  5
3F1
  8
0
  0
BLOCK
  8
0
  2
*D130
 70
     1
 10
0.0
 20
0.0
 30
0.0
  3
*D130
  1

  0
TEXT
  5
3F5
  8
0
 62
     0
 10
-287.8954319664
 20
-226.54055751959999
 30
0.0
 40
8.2461809158000001
  1
26.75
  0
LINE
  5
3F6
  8
0
 62
     0
 10
-290.55861538149998
 20
-205.99576591650001
 30
0.0
 11
-290.55861538149998
 21
-229.99576591650001
 31
0.0
  0
LINE
  5
3F7
  8
0
 62
     0
 10
-263.80834715229997
 20
-191.49622685400001
 30
0.0
 11
-263.80834715229997
 21
-229.99576591650001
 31
0.0
  0
LINE
  5
3F8
  8
0
 62
     0
 10
-290.55861538149998
 20
-228.99576591650001
 30
0.0
 11
-290.55861538149998
 21
-228.99576591650001
 31
0.0
  0
LINE
  5
3F9
  8
0
 62
     0
 10
-290.55861538149998
 20
-228.99576591650001
 30
0.0
 11
-263.80834715229997
 21
-228.99576591650001
 31
0.0
  0
LINE
  5
3FA
  8
0
 62
     0
 10
-263.80834715229997
 20
-228.99576591650001
 30
0.0
 11
-290.55861538149998
 21
-228.99576591650001
 31
0.0
  0
LINE
  5
3FB
  8
0
 62
     0
 10
-263.80834715229997
 20
-228.99576591650001
 30
0.0
 11
-263.80834715229997
 21
-228.99576591650001
 31
0.0
  0
LINE
  5
3FC
  8
0
 62
     0
 10
-263.80834715229997
 20
-228.99576591650001
 30
0.0
 11
-270.80834715229997
 21
-228.99576591650001
 31
0.0
  0
SOLID
  5
3FD
  8
0
 62
     0
 10
-263.80834715229997
 20
-228.99576591650001
 30
0.0
 11
-271.30834715229997
 21
-230.87076591650001
 31
0.0
 12
-271.30834715229997
 22
-227.12076591650001
 32
0.0
 13
-269.43334715229997
 23
-228.99576591650001
 33
0.0
  0
LINE
  5
3FE
  8
0
 62
     0
 10
-290.55861538149998
 20
-228.99576591650001
 30
0.0
 11
-283.55861538149998
 21
-228.99576591650001
 31
0.0
  0
SOLID
  5
3FF
  8
0
 62
     0
 10
-290.55861538149998
 20
-228.99576591650001
 30
0.0
 11
-283.05861538150009
 21
-227.12076591650001
 31
0.0
 12
-283.05861538150009
 22
-230.87076591650001
 32
0.0
 13
-284.93361538149998
 23
-228.99576591650001
 33
0.0
  0
ENDBLK
  5
400
  8
0
  0
BLOCK
  8
0
  2
*D131
 70
     1
 10
0.0
 20
0.0
 30
0.0
  3
*D131
  1

  0
TEXT
  5
404
  8
0
 62
     0
 10
-193.65904180870001
 20
-155.80110928510001
 30
0.0
 40
8.2461809158000001
  1
22
  0
LINE
  5
405
  8
0
 62
     0
 10
-177.8083471523
 20
-168.99622685400001
 30
0.0
 11
-177.8083471523
 21
-157.256317682
 31
0.0
  0
LINE
  5
406
  8
0
 62
     0
 10
-199.8083471523
 20
-168.99622685400001
 30
0.0
 11
-199.8083471523
 21
-157.256317682
 31
0.0
  0
LINE
  5
407
  8
0
 62
     0
 10
-177.8083471523
 20
-158.256317682
 30
0.0
 11
-179.1069578396
 21
-158.256317682
 31
0.0
  0
LINE
  5
408
  8
0
 62
     0
 10
-177.8083471523
 20
-158.256317682
 30
0.0
 11
-198.50973646509999
 21
-158.256317682
 31
0.0
  0
LINE
  5
409
  8
0
 62
     0
 10
-199.8083471523
 20
-158.256317682
 30
0.0
 11
-179.1069578396
 21
-158.256317682
 31
0.0
  0
LINE
  5
40A
  8
0
 62
     0
 10
-199.8083471523
 20
-158.256317682
 30
0.0
 11
-198.50973646509999
 21
-158.256317682
 31
0.0
  0
LINE
  5
40B
  8
0
 62
     0
 10
-199.8083471523
 20
-158.256317682
 30
0.0
 11
-206.8083471523
 21
-158.256317682
 31
0.0
  0
SOLID
  5
40C
  8
0
 62
     0
 10
-199.8083471523
 20
-158.256317682
 30
0.0
 11
-207.3083471523
 21
-160.131317682
 31
0.0
 12
-207.3083471523
 22
-156.381317682
 32
0.0
 13
-205.4333471523
 23
-158.256317682
 33
0.0
  0
LINE
  5
40D
  8
0
 62
     0
 10
-177.8083471523
 20
-158.256317682
 30
0.0
 11
-170.8083471523
 21
-158.256317682
 31
0.0
  0
SOLID
  5
40E
  8
0
 62
     0
 10
-177.8083471523
 20
-158.256317682
 30
0.0
 11
-170.3083471523
 21
-156.381317682
 31
0.0
 12
-170.3083471523
 22
-160.131317682
 32
0.0
 13
-172.1833471523
 23
-158.256317682
 33
0.0
  0
ENDBLK
  5
40F
  8
0
  0
BLOCK
  8
0
  2
*D132
 70
     1
 10
0.0
 20
0.0
 30
0.0
  3
*D132
  1

  0
TEXT
  5
413
  8
0
 62
     0
 10
-167.76355554919999
 20
-173.4215741822
 30
0.0
 40
8.2461809158000001
  1
7
 50
90.0
  0
LINE
  5
414
  8
0
 62
     0
 10
-179.3083471523
 20
-174.49622685400001
 30
0.0
 11
-164.3083471523
 21
-174.49622685400001
 31
0.0
  0
LINE
  5
415
  8
0
 62
     0
 10
-179.3083471523
 20
-167.49622685400001
 30
0.0
 11
-164.3083471523
 21
-167.49622685400001
 31
0.0
  0
LINE
  5
416
  8
0
 62
     0
 10
-165.3083471523
 20
-174.49622685400001
 30
0.0
 11
-165.3083471523
 21
-174.49622685400001
 31
0.0
  0
LINE
  5
417
  8
0
 62
     0
 10
-165.3083471523
 20
-174.49622685400001
 30
0.0
 11
-165.3083471523
 21
-167.49622685400001
 31
0.0
  0
LINE
  5
418
  8
0
 62
     0
 10
-165.3083471523
 20
-167.49622685400001
 30
0.0
 11
-165.3083471523
 21
-174.49622685400001
 31
0.0
  0
LINE
  5
419
  8
0
 62
     0
 10
-165.3083471523
 20
-167.49622685400001
 30
0.0
 11
-165.3083471523
 21
-167.49622685400001
 31
0.0
  0
LINE
  5
41A
  8
0
 62
     0
 10
-165.3083471523
 20
-167.49622685400001
 30
0.0
 11
-165.3083471523
 21
-160.49622685400001
 31
0.0
  0
SOLID
  5
41B
  8
0
 62
     0
 10
-165.3083471523
 20
-167.49622685400001
 30
0.0
 11
-167.1833471523
 21
-159.99622685400001
 31
0.0
 12
-163.4333471523
 22
-159.99622685400001
 32
0.0
 13
-165.3083471523
 23
-161.87122685400001
 33
0.0
  0
LINE
  5
41C
  8
0
 62
     0
 10
-165.3083471523
 20
-174.49622685400001
 30
0.0
 11
-165.3083471523
 21
-181.49622685400001
 31
0.0
  0
SOLID
  5
41D
  8
0
 62
     0
 10
-165.3083471523
 20
-174.49622685400001
 30
0.0
 11
-163.4333471523
 21
-181.99622685400001
 31
0.0
 12
-167.1833471523
 22
-181.99622685400001
 32
0.0
 13
-165.3083471523
 23
-180.12122685400001
 33
0.0
  0
ENDBLK
  5
41E
  8
0
  0
BLOCK
  8
0
  2
CLUMP118
 70
     0
 10
0.0
 20
0.0
 30
0.0
  3
CLUMP118
  1

  0
LINE
  5
424
  8
É}ÿg
 10
474.49459354809989
 20
-239.4990903142
 30
0.0
 11
474.49459354809989
 21
-226.9990903142
 31
0.0
  0
LINE
  5
425
  8
É}ÿg
 10
326.9945935481
 20
-239.4990903142
 30
0.0
 11
326.9945935481
 21
-226.9990903142
 31
0.0
  0
LINE
  5
426
  8
É}ÿg
 10
349.4945935481
 20
-239.4990903142
 30
0.0
 11
349.4945935481
 21
-226.9990903142
 31
0.0
  0
LINE
  5
427
  8
É}ÿg
 10
611.99459354809994
 20
-239.4990903142
 30
0.0
 11
611.99459354809994
 21
-226.9990903142
 31
0.0
  0
LINE
  5
428
  8
É}ÿg
 10
589.49459354809994
 20
-239.4990903142
 30
0.0
 11
589.49459354809994
 21
-226.9990903142
 31
0.0
  0
LINE
  5
429
  8
É}ÿg
 10
689.49459354809994
 20
-226.9990903142
 30
0.0
 11
326.9945935481
 21
-226.9990903142
 31
0.0
  0
ENDBLK
  5
42A
  8
0
  0
BLOCK
  8
0
  2
CLUMP119
 70
     0
 10
0.0
 20
0.0
 30
0.0
  3
CLUMP119
  1

  0
LINE
  5
431
  8
É}ÿg
 10
472.79772492029991
 20
-353.05740789689997
 30
0.0
 11
475.29772492030003
 21
-349.30740789689997
 31
0.0
  0
LINE
  5
432
  8
É}ÿg
 10
436.14620976879991
 20
-349.30740789689997
 30
0.0
 11
436.14620976879991
 21
-354.30740789689997
 31
0.0
  0
LINE
  5
433
  8
É}ÿg
 10
495.46378387909999
 20
-358.05740789690009
 30
0.0
 11
503.34143154110001
 21
-358.05740789690009
 31
0.0
  0
LINE
  5
434
  8
É}ÿg
 10
452.79772492029991
 20
-366.80740789689997
 30
0.0
 11
459.04772492029991
 21
-366.80740789689997
 31
0.0
  0
LINE
  5
435
  8
É}ÿg
 10
452.79772492029991
 20
-355.11268356570002
 30
0.0
 11
462.79772492030003
 21
-355.11268356570002
 31
0.0
  0
INSERT
  5
436
  8
0
  6
CONTINUOUS
  2
*U193
 10
0.0
 20
0.0
 30
0.0
  0
LINE
  5
437
  8
É}ÿg
 62
     5
 10
514.49459354809994
 20
290.50090968580002
 30
0.0
 11
514.49459354809994
 21
328.00090968580002
 31
0.0
  0
LINE
  5
438
  8
É}ÿg
 62
     5
 10
639.49459354809994
 20
290.50090968580002
 30
0.0
 11
639.49459354809994
 21
328.00090968580002
 31
0.0
  0
LINE
  5
439
  8
É}ÿg
 62
     5
 10
474.49459354809989
 20
290.50090968580002
 30
0.0
 11
474.49459354809989
 21
328.00090968580002
 31
0.0
  0
LINE
  5
43A
  8
É}ÿg
 62
     5
 10
457.59638008299999
 20
304.07788906330001
 30
0.0
 11
469.97138008299999
 21
304.07788906330001
 31
0.0
  0
LINE
  5
43B
  8
É}ÿg
 62
     5
 10
463.78388008299999
 20
302.4199534352
 30
0.0
 11
469.97138008299999
 21
291.70288906330001
 31
0.0
  0
LINE
  5
43C
  8
É}ÿg
 62
     5
 10
454.4945935481
 20
290.50090968580002
 30
0.0
 11
454.4945935481
 21
328.00090968580002
 31
0.0
  0
LINE
  5
43D
  8
É}ÿg
 62
     5
 10
664.49459354809994
 20
290.50090968580002
 30
0.0
 11
664.49459354809994
 21
328.00090968580002
 31
0.0
  0
LINE
  5
43E
  8
É}ÿg
 62
     5
 10
454.4945935481
 20
315.50090968580002
 30
0.0
 11
689.49459354809994
 21
315.50090968580002
 31
0.0
  0
LINE
  5
43F
  8
É}ÿg
 62
     5
 10
454.4945935481
 20
303.00090968580002
 30
0.0
 11
689.49459354809994
 21
303.00090968580002
 31
0.0
  0
LINE
  5
440
  8
É}ÿg
 62
     5
 10
454.4945935481
 20
290.50090968580002
 30
0.0
 11
689.49459354809994
 21
290.50090968580002
 31
0.0
  0
INSERT
  5
441
  8
0
  6
CONTINUOUS
  2
*U194
 10
0.0
 20
0.0
 30
0.0
  0
LINE
  5
442
  8
É}ÿg
 62
     5
 10
-310.5054064519
 20
-371.99909031419998
 30
0.0
 11
-310.5054064519
 21
328.00090968580002
 31
0.0
  0
LINE
  5
443
  8
É}ÿg
 62
     5
 10
-310.5054064519
 20
-371.99909031419998
 30
0.0
 11
689.49459354809994
 21
-371.99909031419998
 31
0.0
  0
LINE
  5
444
  8
É}ÿg
 62
     5
 10
689.49459354809994
 20
328.00090968580002
 30
0.0
 11
-310.5054064519
 21
328.00090968580002
 31
0.0
  0
LINE
  5
445
  8
É}ÿg
 62
     5
 10
689.49459354809994
 20
-371.99909031419998
 30
0.0
 11
689.49459354809994
 21
328.00090968580002
 31
0.0
  0
LINE
  5
446
  8
É}ÿg
 10
452.79772492029991
 20
-355.91795923439997
 30
0.0
 11
452.79772492029991
 21
-355.11268356570002
 31
0.0
  0
LINE
  5
447
  8
É}ÿg
 10
422.01845023999999
 20
-354.30740789689997
 30
0.0
 11
422.01845023999999
 21
-358.05740789690009
 31
0.0
  0
LINE
  5
448
  8
É}ÿg
 62
     5
 10
463.78388008299999
 20
314.7949534352
 30
0.0
 11
469.97138008299999
 21
304.07788906330001
 31
0.0
  0
LINE
  5
449
  8
É}ÿg
 62
     5
 10
463.78388008299999
 20
302.4199534352
 30
0.0
 11
457.59638008299999
 21
291.70288906330001
 31
0.0
  0
INSERT
  5
44A
  8
0
  6
CONTINUOUS
  2
*U195
 10
0.0
 20
0.0
 30
0.0
  0
LINE
  5
44B
  8
É}ÿg
  6
DOT
 10
-322.95540645189999
 20
-382.57409031419991
 30
0.0
 11
-322.95540645189999
 21
338.57590968580001
 31
0.0
  0
LINE
  5
44C
  8
É}ÿg
  6
DOT
 10
701.94459354809999
 20
-382.57409031419991
 30
0.0
 11
701.94459354809999
 21
338.57590968580001
 31
0.0
  0
LINE
  5
44D
  8
É}ÿg
  6
DOT
 10
-322.95540645189999
 20
-382.57409031419991
 30
0.0
 11
701.94459354809999
 21
-382.57409031419991
 31
0.0
  0
LINE
  5
44E
  8
É}ÿg
 10
431.14620976879991
 20
-361.80740789689997
 30
0.0
 11
431.14620976879991
 21
-358.05740789690009
 31
0.0
  0
LINE
  5
44F
  8
É}ÿg
  6
DOT
 10
701.94459354809999
 20
338.57590968580001
 30
0.0
 11
-322.95540645189999
 21
338.57590968580001
 31
0.0
  0
LINE
  5
450
  8
É}ÿg
 10
424.89620976879991
 20
-358.05740789690009
 30
0.0
 11
424.89620976879991
 21
-361.80740789689997
 31
0.0
  0
LINE
  5
451
  8
É}ÿg
 10
442.39620976879991
 20
-353.05740789689997
 30
0.0
 11
446.14620976879991
 21
-349.30740789689997
 31
0.0
  0
LINE
  5
452
  8
É}ÿg
 10
488.9947648744
 20
-360.05740789689997
 30
0.0
 11
488.40809820769999
 21
-358.05740789690009
 31
0.0
  0
LINE
  5
453
  8
É}ÿg
 10
431.14620976879991
 20
-354.30740789689997
 30
0.0
 11
431.14620976879991
 21
-353.05740789689997
 31
0.0
  0
LINE
  5
454
  8
É}ÿg
 10
469.95452330059987
 20
-361.4302359194001
 30
0.0
 11
469.5092681511
 21
-361.86618127989999
 31
0.0
  0
LINE
  5
455
  8
É}ÿg
 10
472.79772492029991
 20
-353.05740789689997
 30
0.0
 11
475.29772492030003
 21
-349.30740789689997
 31
0.0
  0
LINE
  5
456
  8
É}ÿg
 10
503.34143154110001
 20
-360.05740789689997
 30
0.0
 11
503.34143154110001
 21
-364.55740789689997
 31
0.0
  0
LINE
  5
457
  8
É}ÿg
 10
475.29772492030003
 20
-363.05740789689997
 30
0.0
 11
475.29772492030003
 21
-366.80740789689997
 31
0.0
  0
LINE
  5
458
  8
É}ÿg
 10
494.16884243119989
 20
-353.55740789689997
 30
0.0
 11
503.34143154110001
 21
-353.55740789689997
 31
0.0
  0
LINE
  5
459
  8
É}ÿg
 10
494.16884243119989
 20
-353.55740789689997
 30
0.0
 11
493.8028568055999
 21
-352.2855856708
 31
0.0
  0
LINE
  5
45A
  8
É}ÿg
 10
475.29772492030003
 20
-349.30740789689997
 30
0.0
 11
452.79772492029991
 21
-349.30740789689997
 31
0.0
  0
INSERT
  5
45B
  8
0
  6
CONTINUOUS
  2
*U196
 10
0.0
 20
0.0
 30
0.0
  0
LINE
  5
45C
  8
É}ÿg
 10
491.34143154109989
 20
-368.05740789689997
 30
0.0
 11
490.3147648744
 21
-364.55740789689997
 31
0.0
  0
LINE
  5
45D
  8
É}ÿg
 10
432.39620976879991
 20
-363.05740789689997
 30
0.0
 11
424.89620976879991
 21
-363.05740789689997
 31
0.0
  0
LINE
  5
45E
  8
É}ÿg
 10
452.79772492029991
 20
-353.80740789689997
 30
0.0
 11
465.29772492029991
 21
-353.80740789689997
 31
0.0
  0
LINE
  5
45F
  8
É}ÿg
 10
486.70938732730002
 20
-300.24909031419998
 30
0.0
 11
498.70938732730002
 21
-297.24909031419998
 31
0.0
  0
CIRCLE
  5
460
  8
É}ÿg
 10
472.9945935481
 20
-303.24909031419998
 30
0.0
 40
6.0
  0
INSERT
  5
461
  8
0
  6
CONTINUOUS
  2
*U197
 10
0.0
 20
0.0
 30
0.0
  0
LINE
  5
462
  8
É}ÿg
 10
431.14620976879991
 20
-358.05740789690009
 30
0.0
 11
436.14620976879991
 21
-358.05740789690009
 31
0.0
  0
LINE
  5
463
  8
É}ÿg
 10
480.84143154110001
 20
-358.05740789690009
 30
0.0
 11
488.40809820769999
 21
-358.05740789690009
 31
0.0
  0
LINE
  5
464
  8
É}ÿg
 10
446.14620976879991
 20
-354.30740789689997
 30
0.0
 11
442.39620976879991
 21
-354.30740789689997
 31
0.0
  0
LINE
  5
465
  8
É}ÿg
 10
442.39620976879991
 20
-354.30740789689997
 30
0.0
 11
442.39620976879991
 21
-353.05740789689997
 31
0.0
  0
LINE
  5
466
  8
É}ÿg
 10
480.84143154110001
 20
-353.55740789689997
 30
0.0
 11
487.08809820769989
 21
-353.55740789689997
 31
0.0
  0
LINE
  5
467
  8
É}ÿg
 10
493.8028568055999
 20
-352.2855856708
 30
0.0
 11
495.84143154109989
 21
-349.30740789689997
 31
0.0
  0
LINE
  5
468
  8
É}ÿg
 10
452.79772492029991
 20
-366.80740789689997
 30
0.0
 11
452.79772492029991
 21
-363.05740789689997
 31
0.0
  0
LINE
  5
469
  8
É}ÿg
 10
514.49459354809994
 20
-289.49909031419998
 30
0.0
 11
514.49459354809994
 21
-371.99909031419998
 31
0.0
  0
INSERT
  5
46A
  8
0
  6
CONTINUOUS
  2
*U198
 10
0.0
 20
0.0
 30
0.0
  0
INSERT
  5
46B
  8
0
  6
CONTINUOUS
  2
*U199
 10
0.0
 20
0.0
 30
0.0
  0
INSERT
  5
46C
  8
0
  6
CONTINUOUS
  2
*U200
 10
0.0
 20
0.0
 30
0.0
  0
LINE
  5
46D
  8
É}ÿg
 62
     5
 10
457.59638008299999
 20
291.70288906330001
 30
0.0
 11
469.97138008299999
 21
291.70288906330001
 31
0.0
  0
LINE
  5
46E
  8
É}ÿg
 10
422.01845023999999
 20
-358.05740789690009
 30
0.0
 11
424.51845023999988
 21
-358.05740789690009
 31
0.0
  0
ARC
  5
46F
  8
É}ÿg
 10
459.04772492029991
 20
-353.05740789689997
 30
0.0
 40
13.75
 50
322.48761197969998
 51
0.0
  0
LINE
  5
470
  8
É}ÿg
 10
424.89620976879991
 20
-366.80740789689997
 30
0.0
 11
434.89620976880002
 21
-366.80740789689997
 31
0.0
  0
LINE
  5
471
  8
É}ÿg
 10
480.84143154110001
 20
-364.55740789689997
 30
0.0
 11
490.3147648744
 21
-364.55740789689997
 31
0.0
  0
ARC
  5
472
  8
É}ÿg
 10
432.39620976879991
 20
-359.30740789689997
 30
0.0
 40
3.75
 50
270.0
 51
0.0
  0
LINE
  5
473
  8
É}ÿg
 10
480.84143154110001
 20
-360.05740789689997
 30
0.0
 11
480.84143154110001
 21
-364.55740789689997
 31
0.0
  0
LINE
  5
474
  8
É}ÿg
 10
424.89620976879991
 20
-361.80740789689997
 30
0.0
 11
431.14620976879991
 21
-361.80740789689997
 31
0.0
  0
LINE
  5
475
  8
É}ÿg
 10
464.13850614959989
 20
-358.10508515970002
 30
0.0
 11
463.53701663379991
 21
-358.76943106110002
 31
0.0
  0
LINE
  5
476
  8
É}ÿg
 10
498.34143154110001
 20
-368.05740789689997
 30
0.0
 11
491.34143154109989
 21
-368.05740789689997
 31
0.0
  0
LINE
  5
477
  8
É}ÿg
 10
436.14620976879991
 20
-358.05740789690009
 30
0.0
 11
436.14620976879991
 21
-359.30740789689997
 31
0.0
  0
LINE
  5
478
  8
É}ÿg
 10
689.49459354809994
 20
-289.49909031419998
 30
0.0
 11
326.9945935481
 21
-289.49909031419998
 31
0.0
  0
LINE
  5
479
  8
É}ÿg
 10
498.70938732730002
 20
-297.24909031419998
 30
0.0
 11
498.70938732730002
 21
-309.24909031419998
 31
0.0
  0
LINE
  5
47A
  8
É}ÿg
 62
     5
 10
463.78388008299999
 20
314.7949534352
 30
0.0
 11
457.59638008299999
 21
304.07788906330001
 31
0.0
  0
LINE
  5
47B
  8
É}ÿg
 10
446.14620976879991
 20
-349.30740789689997
 30
0.0
 11
436.14620976879991
 21
-349.30740789689997
 31
0.0
  0
LINE
  5
47C
  8
É}ÿg
 10
442.39620976879991
 20
-359.30740789689997
 30
0.0
 11
442.39620976879991
 21
-358.05740789690009
 31
0.0
  0
LINE
  5
47D
  8
É}ÿg
 10
480.84143154110001
 20
-353.55740789689997
 30
0.0
 11
480.84143154110001
 21
-358.05740789690009
 31
0.0
  0
LINE
  5
47E
  8
É}ÿg
 10
436.14620976879991
 20
-354.30740789689997
 30
0.0
 11
431.14620976879991
 21
-354.30740789689997
 31
0.0
  0
LINE
  5
47F
  8
É}ÿg
 10
434.89620976880002
 20
-349.30740789689997
 30
0.0
 11
424.89620976879991
 21
-349.30740789689997
 31
0.0
  0
LINE
  5
480
  8
É}ÿg
 10
431.14620976879991
 20
-353.05740789689997
 30
0.0
 11
434.89620976880002
 21
-349.30740789689997
 31
0.0
  0
LINE
  5
481
  8
É}ÿg
 10
424.89620976879991
 20
-349.30740789689997
 30
0.0
 11
424.89620976879991
 21
-354.30740789689997
 31
0.0
  0
LINE
  5
482
  8
É}ÿg
 10
497.3342548594
 20
-364.55740789689997
 30
0.0
 11
503.34143154110001
 21
-364.55740789689997
 31
0.0
  0
LINE
  5
483
  8
É}ÿg
 10
487.08809820769989
 20
-353.55740789689997
 30
0.0
 11
485.84143154110001
 21
-349.30740789689997
 31
0.0
  0
LINE
  5
484
  8
É}ÿg
 10
480.84143154110001
 20
-360.05740789689997
 30
0.0
 11
488.9947648744
 21
-360.05740789689997
 31
0.0
  0
LINE
  5
485
  8
É}ÿg
 10
496.03931341150002
 20
-360.05740789689997
 30
0.0
 11
495.46378387909999
 21
-358.05740789690009
 31
0.0
  0
ARC
  5
486
  8
É}ÿg
 10
455.79772492029991
 20
-353.55740789689997
 30
0.0
 40
9.5
 50
270.0
 51
298.08590481520002
  0
INSERT
  5
487
  8
0
  6
CONTINUOUS
  2
*U201
 10
0.0
 20
0.0
 30
0.0
  0
LINE
  5
488
  8
É}ÿg
 10
333.2445935481
 20
-303.24909031419998
 30
0.0
 11
383.2445935481
 21
-303.24909031419998
 31
0.0
  0
LINE
  5
489
  8
É}ÿg
 10
389.4945935481
 20
-289.49909031419998
 30
0.0
 11
389.4945935481
 21
-316.99909031419998
 31
0.0
  0
LINE
  5
48A
  8
É}ÿg
 10
326.9945935481
 20
-316.99909031419998
 30
0.0
 11
689.49459354809994
 21
-316.99909031419998
 31
0.0
  0
LINE
  5
48B
  8
É}ÿg
 10
451.9945935481
 20
-289.49909031419998
 30
0.0
 11
451.9945935481
 21
-316.99909031419998
 31
0.0
  0
LINE
  5
48C
  8
É}ÿg
  6
BORDER
 10
472.9945935481
 20
-294.24909031419998
 30
0.0
 11
472.9945935481
 21
-312.24909031419998
 31
0.0
  0
LINE
  5
48D
  8
É}ÿg
  6
BORDER
 10
472.9945935481
 20
-294.24909031419998
 30
0.0
 11
472.9945935481
 21
-312.24909031419998
 31
0.0
  0
LINE
  5
48E
  8
É}ÿg
 10
503.34143154110001
 20
-353.55740789689997
 30
0.0
 11
503.34143154110001
 21
-358.05740789690009
 31
0.0
  0
LINE
  5
48F
  8
É}ÿg
 10
395.7445935481
 20
-303.24909031419998
 30
0.0
 11
445.7445935481
 21
-303.24909031419998
 31
0.0
  0
INSERT
  5
490
  8
0
  6
CONTINUOUS
  2
*U202
 10
0.0
 20
0.0
 30
0.0
  0
CIRCLE
  5
491
  8
É}ÿg
 10
472.9945935481
 20
-303.24909031419998
 30
0.0
 40
6.0
  0
LINE
  5
492
  8
É}ÿg
 10
486.70938732730002
 20
-300.24909031419998
 30
0.0
 11
498.70938732730002
 21
-297.24909031419998
 31
0.0
  0
INSERT
  5
493
  8
0
  6
CONTINUOUS
  2
*U203
 10
0.0
 20
0.0
 30
0.0
  0
CIRCLE
  5
494
  8
É}ÿg
 10
472.9945935481
 20
-303.24909031419998
 30
0.0
 40
3.0
  0
LINE
  5
495
  8
É}ÿg
 10
498.34143154110001
 20
-368.05740789689997
 30
0.0
 11
497.3342548594
 21
-364.55740789689997
 31
0.0
  0
LINE
  5
496
  8
É}ÿg
 10
496.03931341150002
 20
-360.05740789689997
 30
0.0
 11
503.34143154110001
 21
-360.05740789689997
 31
0.0
  0
LINE
  5
497
  8
É}ÿg
 10
452.79772492029991
 20
-363.05740789689997
 30
0.0
 11
455.79772492029991
 21
-363.05740789689997
 31
0.0
  0
LINE
  5
498
  8
É}ÿg
 10
485.84143154110001
 20
-349.30740789689997
 30
0.0
 11
495.84143154109989
 21
-349.30740789689997
 31
0.0
  0
LINE
  5
499
  8
É}ÿg
 10
424.89620976879991
 20
-354.30740789689997
 30
0.0
 11
422.01845023999999
 21
-354.30740789689997
 31
0.0
  0
LINE
  5
49A
  8
É}ÿg
 10
452.79772492029991
 20
-363.05740789689997
 30
0.0
 11
452.79772492029991
 21
-366.80740789689997
 31
0.0
  0
LINE
  5
49B
  8
É}ÿg
 10
424.89620976879991
 20
-358.05740789690009
 30
0.0
 11
424.51845023999988
 21
-358.05740789690009
 31
0.0
  0
LINE
  5
49C
  8
É}ÿg
 10
424.89620976879991
 20
-363.05740789689997
 30
0.0
 11
424.89620976879991
 21
-366.80740789689997
 31
0.0
  0
ARC
  5
49D
  8
É}ÿg
 10
455.79772492029991
 20
-353.55740789689997
 30
0.0
 40
9.5
 50
331.39928138329998
 51
358.49204224580001
  0
LINE
  5
49E
  8
É}ÿg
 10
442.39620976879991
 20
-358.05740789690009
 30
0.0
 11
446.14620976879991
 21
-358.05740789690009
 31
0.0
  0
ARC
  5
49F
  8
É}ÿg
 10
459.04772492029991
 20
-353.05740789689997
 30
0.0
 40
13.75
 50
270.0
 51
302.54495885400001
  0
LINE
  5
4A0
  8
É}ÿg
 10
486.70938732730002
 20
-306.24909031419998
 30
0.0
 11
498.70938732730002
 21
-309.24909031419998
 31
0.0
  0
LINE
  5
4A1
  8
É}ÿg
 10
486.70938732730002
 20
-300.24909031419998
 30
0.0
 11
486.70938732730002
 21
-306.24909031419998
 31
0.0
  0
LINE
  5
4A2
  8
É}ÿg
 10
498.70938732730002
 20
-297.24909031419998
 30
0.0
 11
498.70938732730002
 21
-309.24909031419998
 31
0.0
  0
LINE
  5
4A3
  8
É}ÿg
 10
462.79772492030003
 20
-355.11268356570002
 30
0.0
 11
461.38351135800002
 21
-356.52689712799997
 31
0.0
  0
LINE
  5
4A4
  8
É}ÿg
  6
BORDER
 10
463.9945935481
 20
-303.24909031419998
 30
0.0
 11
502.49459354809989
 21
-303.24909031419998
 31
0.0
  0
CIRCLE
  5
4A5
  8
É}ÿg
 10
472.9945935481
 20
-303.24909031419998
 30
0.0
 40
3.0
  0
POLYLINE
  8
É}ÿg
  5
8F2
  66
     1
 10
0.000000
 20
0.000000
 30
0.000000
  70
     8
  0
VERTEX
  8
É}ÿg
  5
8F3
 10
469.509
 20
-361.866
 30
0.000000
  70
    32
  0
VERTEX
  8
É}ÿg
  5
8F4
 10
469.553
 20
-361.879
 30
0.000000
  70
    32
  0
VERTEX
  8
É}ÿg
  5
8F5
 10
469.597
 20
-361.891
 30
0.000000
  70
    32
  0
VERTEX
  8
É}ÿg
  5
8F6
 10
469.641
 20
-361.903
 30
0.000000
  70
    32
  0
VERTEX
  8
É}ÿg
  5
8F7
 10
469.684
 20
-361.915
 30
0.000000
  70
    32
  0
VERTEX
  8
É}ÿg
  5
8F8
 10
469.728
 20
-361.927
 30
0.000000
  70
    32
  0
VERTEX
  8
É}ÿg
  5
8F9
 10
469.772
 20
-361.939
 30
0.000000
  70
    32
  0
VERTEX
  8
É}ÿg
  5
8FA
 10
469.816
 20
-361.951
 30
0.000000
  70
    32
  0
VERTEX
  8
É}ÿg
  5
8FB
 10
469.860
 20
-361.963
 30
0.000000
  70
    32
  0
VERTEX
  8
É}ÿg
  5
8FC
 10
469.904
 20
-361.975
 30
0.000000
  70
    32
  0
VERTEX
  8
É}ÿg
  5
8FD
 10
469.948
 20
-361.987
 30
0.000000
  70
    32
  0
VERTEX
  8
É}ÿg
  5
8FE
 10
469.992
 20
-361.999
 30
0.000000
  70
    32
  0
VERTEX
  8
É}ÿg
  5
8FF
 10
470.037
 20
-362.010
 30
0.000000
  70
    32
  0
VERTEX
  8
É}ÿg
  5
900
 10
470.081
 20
-362.022
 30
0.000000
  70
    32
  0
VERTEX
  8
É}ÿg
  5
901
 10
470.125
 20
-362.033
 30
0.000000
  70
    32
  0
VERTEX
  8
É}ÿg
  5
902
 10
470.169
 20
-362.045
 30
0.000000
  70
    32
  0
VERTEX
  8
É}ÿg
  5
903
 10
470.214
 20
-362.056
 30
0.000000
  70
    32
  0
VERTEX
  8
É}ÿg
  5
904
 10
470.258
 20
-362.067
 30
0.000000
  70
    32
  0
VERTEX
  8
É}ÿg
  5
905
 10
470.303
 20
-362.079
 30
0.000000
  70
    32
  0
VERTEX
  8
É}ÿg
  5
906
 10
470.347
 20
-362.090
 30
0.000000
  70
    32
  0
VERTEX
  8
É}ÿg
  5
907
 10
470.391
 20
-362.101
 30
0.000000
  70
    32
  0
VERTEX
  8
É}ÿg
  5
908
 10
470.436
 20
-362.112
 30
0.000000
  70
    32
  0
VERTEX
  8
É}ÿg
  5
909
 10
470.481
 20
-362.123
 30
0.000000
  70
    32
  0
VERTEX
  8
É}ÿg
  5
90A
 10
470.525
 20
-362.134
 30
0.000000
  70
    32
  0
VERTEX
  8
É}ÿg
  5
90B
 10
470.570
 20
-362.145
 30
0.000000
  70
    32
  0
VERTEX
  8
É}ÿg
  5
90C
 10
470.614
 20
-362.156
 30
0.000000
  70
    32
  0
VERTEX
  8
É}ÿg
  5
90D
 10
470.659
 20
-362.167
 30
0.000000
  70
    32
  0
VERTEX
  8
É}ÿg
  5
90E
 10
470.704
 20
-362.177
 30
0.000000
  70
    32
  0
VERTEX
  8
É}ÿg
  5
90F
 10
470.749
 20
-362.188
 30
0.000000
  70
    32
  0
VERTEX
  8
É}ÿg
  5
910
 10
470.794
 20
-362.199
 30
0.000000
  70
    32
  0
VERTEX
  8
É}ÿg
  5
911
 10
470.838
 20
-362.209
 30
0.000000
  70
    32
  0
VERTEX
  8
É}ÿg
  5
912
 10
470.883
 20
-362.220
 30
0.000000
  70
    32
  0
VERTEX
  8
É}ÿg
  5
913
 10
470.928
 20
-362.230
 30
0.000000
  70
    32
  0
VERTEX
  8
É}ÿg
  5
914
 10
470.973
 20
-362.240
 30
0.000000
  70
    32
  0
VERTEX
  8
É}ÿg
  5
915
 10
471.018
 20
-362.251
 30
0.000000
  70
    32
  0
VERTEX
  8
É}ÿg
  5
916
 10
471.063
 20
-362.261
 30
0.000000
  70
    32
  0
VERTEX
  8
É}ÿg
  5
917
 10
471.108
 20
-362.271
 30
0.000000
  70
    32
  0
VERTEX
  8
É}ÿg
  5
918
 10
471.153
 20
-362.281
 30
0.000000
  70
    32
  0
VERTEX
  8
É}ÿg
  5
919
 10
471.198
 20
-362.292
 30
0.000000
  70
    32
  0
VERTEX
  8
É}ÿg
  5
91A
 10
471.244
 20
-362.302
 30
0.000000
  70
    32
  0
VERTEX
  8
É}ÿg
  5
91B
 10
471.289
 20
-362.312
 30
0.000000
  70
    32
  0
VERTEX
  8
É}ÿg
  5
91C
 10
471.334
 20
-362.322
 30
0.000000
  70
    32
  0
VERTEX
  8
É}ÿg
  5
91D
 10
471.379
 20
-362.332
 30
0.000000
  70
    32
  0
VERTEX
  8
É}ÿg
  5
91E
 10
471.424
 20
-362.341
 30
0.000000
  70
    32
  0
VERTEX
  8
É}ÿg
  5
91F
 10
471.470
 20
-362.351
 30
0.000000
  70
    32
  0
VERTEX
  8
É}ÿg
  5
920
 10
471.515
 20
-362.361
 30
0.000000
  70
    32
  0
VERTEX
  8
É}ÿg
  5
921
 10
471.560
 20
-362.371
 30
0.000000
  70
    32
  0
VERTEX
  8
É}ÿg
  5
922
 10
471.606
 20
-362.380
 30
0.000000
  70
    32
  0
VERTEX
  8
É}ÿg
  5
923
 10
471.651
 20
-362.390
 30
0.000000
  70
    32
  0
VERTEX
  8
É}ÿg
  5
924
 10
471.697
 20
-362.400
 30
0.000000
  70
    32
  0
VERTEX
  8
É}ÿg
  5
925
 10
471.742
 20
-362.409
 30
0.000000
  70
    32
  0
VERTEX
  8
É}ÿg
  5
926
 10
471.788
 20
-362.419
 30
0.000000
  70
    32
  0
VERTEX
  8
É}ÿg
  5
927
 10
471.833
 20
-362.428
 30
0.000000
  70
    32
  0
VERTEX
  8
É}ÿg
  5
928
 10
471.879
 20
-362.438
 30
0.000000
  70
    32
  0
VERTEX
  8
É}ÿg
  5
929
 10
471.924
 20
-362.447
 30
0.000000
  70
    32
  0
VERTEX
  8
É}ÿg
  5
92A
 10
471.970
 20
-362.456
 30
0.000000
  70
    32
  0
VERTEX
  8
É}ÿg
  5
92B
 10
472.016
 20
-362.466
 30
0.000000
  70
    32
  0
VERTEX
  8
É}ÿg
  5
92C
 10
472.061
 20
-362.475
 30
0.000000
  70
    32
  0
VERTEX
  8
É}ÿg
  5
92D
 10
472.107
 20
-362.484
 30
0.000000
  70
    32
  0
VERTEX
  8
É}ÿg
  5
92E
 10
472.153
 20
-362.493
 30
0.000000
  70
    32
  0
VERTEX
  8
É}ÿg
  5
92F
 10
472.198
 20
-362.503
 30
0.000000
  70
    32
  0
VERTEX
  8
É}ÿg
  5
930
 10
472.244
 20
-362.512
 30
0.000000
  70
    32
  0
VERTEX
  8
É}ÿg
  5
931
 10
472.290
 20
-362.521
 30
0.000000
  70
    32
  0
VERTEX
  8
É}ÿg
  5
932
 10
472.336
 20
-362.530
 30
0.000000
  70
    32
  0
VERTEX
  8
É}ÿg
  5
933
 10
472.381
 20
-362.539
 30
0.000000
  70
    32
  0
VERTEX
  8
É}ÿg
  5
934
 10
472.427
 20
-362.548
 30
0.000000
  70
    32
  0
VERTEX
  8
É}ÿg
  5
935
 10
472.473
 20
-362.557
 30
0.000000
  70
    32
  0
VERTEX
  8
É}ÿg
  5
936
 10
472.519
 20
-362.566
 30
0.000000
  70
    32
  0
VERTEX
  8
É}ÿg
  5
937
 10
472.565
 20
-362.574
 30
0.000000
  70
    32
  0
VERTEX
  8
É}ÿg
  5
938
 10
472.611
 20
-362.583
 30
0.000000
  70
    32
  0
VERTEX
  8
É}ÿg
  5
939
 10
472.657
 20
-362.592
 30
0.000000
  70
    32
  0
VERTEX
  8
É}ÿg
  5
93A
 10
472.703
 20
-362.601
 30
0.000000
  70
    32
  0
VERTEX
  8
É}ÿg
  5
93B
 10
472.749
 20
-362.610
 30
0.000000
  70
    32
  0
VERTEX
  8
É}ÿg
  5
93C
 10
472.795
 20
-362.618
 30
0.000000
  70
    32
  0
VERTEX
  8
É}ÿg
  5
93D
 10
472.841
 20
-362.627
 30
0.000000
  70
    32
  0
VERTEX
  8
É}ÿg
  5
93E
 10
472.887
 20
-362.636
 30
0.000000
  70
    32
  0
VERTEX
  8
É}ÿg
  5
93F
 10
472.933
 20
-362.644
 30
0.000000
  70
    32
  0
VERTEX
  8
É}ÿg
  5
940
 10
472.979
 20
-362.653
 30
0.000000
  70
    32
  0
VERTEX
  8
É}ÿg
  5
941
 10
473.025
 20
-362.661
 30
0.000000
  70
    32
  0
VERTEX
  8
É}ÿg
  5
942
 10
473.071
 20
-362.670
 30
0.000000
  70
    32
  0
VERTEX
  8
É}ÿg
  5
943
 10
473.117
 20
-362.678
 30
0.000000
  70
    32
  0
VERTEX
  8
É}ÿg
  5
944
 10
473.163
 20
-362.687
 30
0.000000
  70
    32
  0
VERTEX
  8
É}ÿg
  5
945
 10
473.209
 20
-362.695
 30
0.000000
  70
    32
  0
VERTEX
  8
É}ÿg
  5
946
 10
473.256
 20
-362.704
 30
0.000000
  70
    32
  0
VERTEX
  8
É}ÿg
  5
947
 10
473.302
 20
-362.712
 30
0.000000
  70
    32
  0
VERTEX
  8
É}ÿg
  5
948
 10
473.348
 20
-362.720
 30
0.000000
  70
    32
  0
VERTEX
  8
É}ÿg
  5
949
 10
473.394
 20
-362.729
 30
0.000000
  70
    32
  0
VERTEX
  8
É}ÿg
  5
94A
 10
473.441
 20
-362.737
 30
0.000000
  70
    32
  0
VERTEX
  8
É}ÿg
  5
94B
 10
473.487
 20
-362.745
 30
0.000000
  70
    32
  0
VERTEX
  8
É}ÿg
  5
94C
 10
473.533
 20
-362.754
 30
0.000000
  70
    32
  0
VERTEX
  8
É}ÿg
  5
94D
 10
473.579
 20
-362.762
 30
0.000000
  70
    32
  0
VERTEX
  8
É}ÿg
  5
94E
 10
473.626
 20
-362.770
 30
0.000000
  70
    32
  0
VERTEX
  8
É}ÿg
  5
94F
 10
473.672
 20
-362.778
 30
0.000000
  70
    32
  0
VERTEX
  8
É}ÿg
  5
950
 10
473.718
 20
-362.787
 30
0.000000
  70
    32
  0
VERTEX
  8
É}ÿg
  5
951
 10
473.765
 20
-362.795
 30
0.000000
  70
    32
  0
VERTEX
  8
É}ÿg
  5
952
 10
473.811
 20
-362.803
 30
0.000000
  70
    32
  0
VERTEX
  8
É}ÿg
  5
953
 10
473.857
 20
-362.811
 30
0.000000
  70
    32
  0
VERTEX
  8
É}ÿg
  5
954
 10
473.904
 20
-362.819
 30
0.000000
  70
    32
  0
VERTEX
  8
É}ÿg
  5
955
 10
473.950
 20
-362.827
 30
0.000000
  70
    32
  0
VERTEX
  8
É}ÿg
  5
956
 10
473.996
 20
-362.835
 30
0.000000
  70
    32
  0
VERTEX
  8
É}ÿg
  5
957
 10
474.043
 20
-362.843
 30
0.000000
  70
    32
  0
VERTEX
  8
É}ÿg
  5
958
 10
474.089
 20
-362.851
 30
0.000000
  70
    32
  0
VERTEX
  8
É}ÿg
  5
959
 10
474.136
 20
-362.859
 30
0.000000
  70
    32
  0
VERTEX
  8
É}ÿg
  5
95A
 10
474.182
 20
-362.868
 30
0.000000
  70
    32
  0
VERTEX
  8
É}ÿg
  5
95B
 10
474.228
 20
-362.876
 30
0.000000
  70
    32
  0
VERTEX
  8
É}ÿg
  5
95C
 10
474.275
 20
-362.884
 30
0.000000
  70
    32
  0
VERTEX
  8
É}ÿg
  5
95D
 10
474.321
 20
-362.892
 30
0.000000
  70
    32
  0
VERTEX
  8
É}ÿg
  5
95E
 10
474.368
 20
-362.900
 30
0.000000
  70
    32
  0
VERTEX
  8
É}ÿg
  5
95F
 10
474.414
 20
-362.907
 30
0.000000
  70
    32
  0
VERTEX
  8
É}ÿg
  5
960
 10
474.461
 20
-362.915
 30
0.000000
  70
    32
  0
VERTEX
  8
É}ÿg
  5
961
 10
474.507
 20
-362.923
 30
0.000000
  70
    32
  0
VERTEX
  8
É}ÿg
  5
962
 10
474.554
 20
-362.931
 30
0.000000
  70
    32
  0
VERTEX
  8
É}ÿg
  5
963
 10
474.600
 20
-362.939
 30
0.000000
  70
    32
  0
VERTEX
  8
É}ÿg
  5
964
 10
474.647
 20
-362.947
 30
0.000000
  70
    32
  0
VERTEX
  8
É}ÿg
  5
965
 10
474.693
 20
-362.955
 30
0.000000
  70
    32
  0
VERTEX
  8
É}ÿg
  5
966
 10
474.740
 20
-362.963
 30
0.000000
  70
    32
  0
VERTEX
  8
É}ÿg
  5
967
 10
474.786
 20
-362.971
 30
0.000000
  70
    32
  0
VERTEX
  8
É}ÿg
  5
968
 10
474.833
 20
-362.979
 30
0.000000
  70
    32
  0
VERTEX
  8
É}ÿg
  5
969
 10
474.879
 20
-362.987
 30
0.000000
  70
    32
  0
VERTEX
  8
É}ÿg
  5
96A
 10
474.926
 20
-362.995
 30
0.000000
  70
    32
  0
VERTEX
  8
É}ÿg
  5
96B
 10
474.972
 20
-363.002
 30
0.000000
  70
    32
  0
VERTEX
  8
É}ÿg
  5
96C
 10
475.019
 20
-363.010
 30
0.000000
  70
    32
  0
VERTEX
  8
É}ÿg
  5
96D
 10
475.065
 20
-363.018
 30
0.000000
  70
    32
  0
VERTEX
  8
É}ÿg
  5
96E
 10
475.112
 20
-363.026
 30
0.000000
  70
    32
  0
VERTEX
  8
É}ÿg
  5
96F
 10
475.158
 20
-363.034
 30
0.000000
  70
    32
  0
VERTEX
  8
É}ÿg
  5
970
 10
475.205
 20
-363.042
 30
0.000000
  70
    32
  0
VERTEX
  8
É}ÿg
  5
971
 10
475.251
 20
-363.050
 30
0.000000
  70
    32
  0
VERTEX
  8
É}ÿg
  5
972
 10
475.298
 20
-363.057
 30
0.000000
  70
    32
  0
SEQEND
  8
É}ÿg
  5
973
  0
POLYLINE
  8
É}ÿg
  5
974
  66
     1
 10
0.000000
 20
0.000000
 30
0.000000
  70
     8
  0
VERTEX
  8
É}ÿg
  5
975
 10
461.384
 20
-356.527
 30
0.000000
  70
    32
  0
VERTEX
  8
É}ÿg
  5
976
 10
461.400
 20
-356.545
 30
0.000000
  70
    32
  0
VERTEX
  8
É}ÿg
  5
977
 10
461.417
 20
-356.564
 30
0.000000
  70
    32
  0
VERTEX
  8
É}ÿg
  5
978
 10
461.433
 20
-356.582
 30
0.000000
  70
    32
  0
VERTEX
  8
É}ÿg
  5
979
 10
461.450
 20
-356.600
 30
0.000000
  70
    32
  0
VERTEX
  8
É}ÿg
  5
97A
 10
461.466
 20
-356.619
 30
0.000000
  70
    32
  0
VERTEX
  8
É}ÿg
  5
97B
 10
461.483
 20
-356.637
 30
0.000000
  70
    32
  0
VERTEX
  8
É}ÿg
  5
97C
 10
461.499
 20
-356.656
 30
0.000000
  70
    32
  0
VERTEX
  8
É}ÿg
  5
97D
 10
461.516
 20
-356.674
 30
0.000000
  70
    32
  0
VERTEX
  8
É}ÿg
  5
97E
 10
461.532
 20
-356.692
 30
0.000000
  70
    32
  0
VERTEX
  8
É}ÿg
  5
97F
 10
461.549
 20
-356.711
 30
0.000000
  70
    32
  0
VERTEX
  8
É}ÿg
  5
980
 10
461.565
 20
-356.729
 30
0.000000
  70
    32
  0
VERTEX
  8
É}ÿg
  5
981
 10
461.582
 20
-356.748
 30
0.000000
  70
    32
  0
VERTEX
  8
É}ÿg
  5
982
 10
461.598
 20
-356.766
 30
0.000000
  70
    32
  0
VERTEX
  8
É}ÿg
  5
983
 10
461.615
 20
-356.784
 30
0.000000
  70
    32
  0
VERTEX
  8
É}ÿg
  5
984
 10
461.631
 20
-356.803
 30
0.000000
  70
    32
  0
VERTEX
  8
É}ÿg
  5
985
 10
461.648
 20
-356.821
 30
0.000000
  70
    32
  0
VERTEX
  8
É}ÿg
  5
986
 10
461.664
 20
-356.839
 30
0.000000
  70
    32
  0
VERTEX
  8
É}ÿg
  5
987
 10
461.681
 20
-356.858
 30
0.000000
  70
    32
  0
VERTEX
  8
É}ÿg
  5
988
 10
461.697
 20
-356.876
 30
0.000000
  70
    32
  0
VERTEX
  8
É}ÿg
  5
989
 10
461.714
 20
-356.894
 30
0.000000
  70
    32
  0
VERTEX
  8
É}ÿg
  5
98A
 10
461.730
 20
-356.913
 30
0.000000
  70
    32
  0
VERTEX
  8
É}ÿg
  5
98B
 10
461.747
 20
-356.931
 30
0.000000
  70
    32
  0
VERTEX
  8
É}ÿg
  5
98C
 10
461.763
 20
-356.949
 30
0.000000
  70
    32
  0
VERTEX
  8
É}ÿg
  5
98D
 10
461.780
 20
-356.968
 30
0.000000
  70
    32
  0
VERTEX
  8
É}ÿg
  5
98E
 10
461.796
 20
-356.986
 30
0.000000
  70
    32
  0
VERTEX
  8
É}ÿg
  5
98F
 10
461.813
 20
-357.004
 30
0.000000
  70
    32
  0
VERTEX
  8
É}ÿg
  5
990
 10
461.830
 20
-357.023
 30
0.000000
  70
    32
  0
VERTEX
  8
É}ÿg
  5
991
 10
461.846
 20
-357.041
 30
0.000000
  70
    32
  0
VERTEX
  8
É}ÿg
  5
992
 10
461.863
 20
-357.059
 30
0.000000
  70
    32
  0
VERTEX
  8
É}ÿg
  5
993
 10
461.879
 20
-357.078
 30
0.000000
  70
    32
  0
VERTEX
  8
É}ÿg
  5
994
 10
461.896
 20
-357.096
 30
0.000000
  70
    32
  0
VERTEX
  8
É}ÿg
  5
995
 10
461.912
 20
-357.114
 30
0.000000
  70
    32
  0
VERTEX
  8
É}ÿg
  5
996
 10
461.929
 20
-357.132
 30
0.000000
  70
    32
  0
VERTEX
  8
É}ÿg
  5
997
 10
461.946
 20
-357.151
 30
0.000000
  70
    32
  0
VERTEX
  8
É}ÿg
  5
998
 10
461.962
 20
-357.169
 30
0.000000
  70
    32
  0
VERTEX
  8
É}ÿg
  5
999
 10
461.979
 20
-357.187
 30
0.000000
  70
    32
  0
VERTEX
  8
É}ÿg
  5
99A
 10
461.995
 20
-357.205
 30
0.000000
  70
    32
  0
VERTEX
  8
É}ÿg
  5
99B
 10
462.012
 20
-357.223
 30
0.000000
  70
    32
  0
VERTEX
  8
É}ÿg
  5
99C
 10
462.029
 20
-357.242
 30
0.000000
  70
    32
  0
VERTEX
  8
É}ÿg
  5
99D
 10
462.045
 20
-357.260
 30
0.000000
  70
    32
  0
VERTEX
  8
É}ÿg
  5
99E
 10
462.062
 20
-357.278
 30
0.000000
  70
    32
  0
VERTEX
  8
É}ÿg
  5
99F
 10
462.079
 20
-357.296
 30
0.000000
  70
    32
  0
VERTEX
  8
É}ÿg
  5
9A0
 10
462.095
 20
-357.314
 30
0.000000
  70
    32
  0
VERTEX
  8
É}ÿg
  5
9A1
 10
462.112
 20
-357.332
 30
0.000000
  70
    32
  0
VERTEX
  8
É}ÿg
  5
9A2
 10
462.129
 20
-357.351
 30
0.000000
  70
    32
  0
VERTEX
  8
É}ÿg
  5
9A3
 10
462.145
 20
-357.369
 30
0.000000
  70
    32
  0
VERTEX
  8
É}ÿg
  5
9A4
 10
462.162
 20
-357.387
 30
0.000000
  70
    32
  0
VERTEX
  8
É}ÿg
  5
9A5
 10
462.179
 20
-357.405
 30
0.000000
  70
    32
  0
VERTEX
  8
É}ÿg
  5
9A6
 10
462.195
 20
-357.423
 30
0.000000
  70
    32
  0
VERTEX
  8
É}ÿg
  5
9A7
 10
462.212
 20
-357.441
 30
0.000000
  70
    32
  0
VERTEX
  8
É}ÿg
  5
9A8
 10
462.229
 20
-357.459
 30
0.000000
  70
    32
  0
VERTEX
  8
É}ÿg
  5
9A9
 10
462.245
 20
-357.477
 30
0.000000
  70
    32
  0
VERTEX
  8
É}ÿg
  5
9AA
 10
462.262
 20
-357.495
 30
0.000000
  70
    32
  0
VERTEX
  8
É}ÿg
  5
9AB
 10
462.279
 20
-357.513
 30
0.000000
  70
    32
  0
VERTEX
  8
É}ÿg
  5
9AC
 10
462.296
 20
-357.531
 30
0.000000
  70
    32
  0
VERTEX
  8
É}ÿg
  5
9AD
 10
462.312
 20
-357.549
 30
0.000000
  70
    32
  0
VERTEX
  8
É}ÿg
  5
9AE
 10
462.329
 20
-357.567
 30
0.000000
  70
    32
  0
VERTEX
  8
É}ÿg
  5
9AF
 10
462.346
 20
-357.585
 30
0.000000
  70
    32
  0
VERTEX
  8
É}ÿg
  5
9B0
 10
462.363
 20
-357.603
 30
0.000000
  70
    32
  0
VERTEX
  8
É}ÿg
  5
9B1
 10
462.380
 20
-357.621
 30
0.000000
  70
    32
  0
VERTEX
  8
É}ÿg
  5
9B2
 10
462.396
 20
-357.639
 30
0.000000
  70
    32
  0
VERTEX
  8
É}ÿg
  5
9B3
 10
462.413
 20
-357.657
 30
0.000000
  70
    32
  0
VERTEX
  8
É}ÿg
  5
9B4
 10
462.430
 20
-357.674
 30
0.000000
  70
    32
  0
VERTEX
  8
É}ÿg
  5
9B5
 10
462.447
 20
-357.692
 30
0.000000
  70
    32
  0
VERTEX
  8
É}ÿg
  5
9B6
 10
462.464
 20
-357.710
 30
0.000000
  70
    32
  0
VERTEX
  8
É}ÿg
  5
9B7
 10
462.481
 20
-357.728
 30
0.000000
  70
    32
  0
VERTEX
  8
É}ÿg
  5
9B8
 10
462.497
 20
-357.746
 30
0.000000
  70
    32
  0
VERTEX
  8
É}ÿg
  5
9B9
 10
462.514
 20
-357.763
 30
0.000000
  70
    32
  0
VERTEX
  8
É}ÿg
  5
9BA
 10
462.531
 20
-357.781
 30
0.000000
  70
    32
  0
VERTEX
  8
É}ÿg
  5
9BB
 10
462.548
 20
-357.799
 30
0.000000
  70
    32
  0
VERTEX
  8
É}ÿg
  5
9BC
 10
462.565
 20
-357.817
 30
0.000000
  70
    32
  0
VERTEX
  8
É}ÿg
  5
9BD
 10
462.582
 20
-357.834
 30
0.000000
  70
    32
  0
VERTEX
  8
É}ÿg
  5
9BE
 10
462.599
 20
-357.852
 30
0.000000
  70
    32
  0
VERTEX
  8
É}ÿg
  5
9BF
 10
462.616
 20
-357.870
 30
0.000000
  70
    32
  0
VERTEX
  8
É}ÿg
  5
9C0
 10
462.633
 20
-357.887
 30
0.000000
  70
    32
  0
VERTEX
  8
É}ÿg
  5
9C1
 10
462.650
 20
-357.905
 30
0.000000
  70
    32
  0
VERTEX
  8
É}ÿg
  5
9C2
 10
462.667
 20
-357.922
 30
0.000000
  70
    32
  0
VERTEX
  8
É}ÿg
  5
9C3
 10
462.684
 20
-357.940
 30
0.000000
  70
    32
  0
VERTEX
  8
É}ÿg
  5
9C4
 10
462.701
 20
-357.958
 30
0.000000
  70
    32
  0
VERTEX
  8
É}ÿg
  5
9C5
 10
462.718
 20
-357.975
 30
0.000000
  70
    32
  0
VERTEX
  8
É}ÿg
  5
9C6
 10
462.735
 20
-357.993
 30
0.000000
  70
    32
  0
VERTEX
  8
É}ÿg
  5
9C7
 10
462.752
 20
-358.010
 30
0.000000
  70
    32
  0
VERTEX
  8
É}ÿg
  5
9C8
 10
462.769
 20
-358.028
 30
0.000000
  70
    32
  0
VERTEX
  8
É}ÿg
  5
9C9
 10
462.786
 20
-358.045
 30
0.000000
  70
    32
  0
VERTEX
  8
É}ÿg
  5
9CA
 10
462.803
 20
-358.062
 30
0.000000
  70
    32
  0
VERTEX
  8
É}ÿg
  5
9CB
 10
462.820
 20
-358.080
 30
0.000000
  70
    32
  0
VERTEX
  8
É}ÿg
  5
9CC
 10
462.838
 20
-358.097
 30
0.000000
  70
    32
  0
VERTEX
  8
É}ÿg
  5
9CD
 10
462.855
 20
-358.115
 30
0.000000
  70
    32
  0
VERTEX
  8
É}ÿg
  5
9CE
 10
462.872
 20
-358.132
 30
0.000000
  70
    32
  0
VERTEX
  8
É}ÿg
  5
9CF
 10
462.889
 20
-358.149
 30
0.000000
  70
    32
  0
VERTEX
  8
É}ÿg
  5
9D0
 10
462.906
 20
-358.166
 30
0.000000
  70
    32
  0
VERTEX
  8
É}ÿg
  5
9D1
 10
462.923
 20
-358.184
 30
0.000000
  70
    32
  0
VERTEX
  8
É}ÿg
  5
9D2
 10
462.941
 20
-358.201
 30
0.000000
  70
    32
  0
VERTEX
  8
É}ÿg
  5
9D3
 10
462.958
 20
-358.218
 30
0.000000
  70
    32
  0
VERTEX
  8
É}ÿg
  5
9D4
 10
462.975
 20
-358.235
 30
0.000000
  70
    32
  0
VERTEX
  8
É}ÿg
  5
9D5
 10
462.992
 20
-358.252
 30
0.000000
  70
    32
  0
VERTEX
  8
É}ÿg
  5
9D6
 10
463.010
 20
-358.270
 30
0.000000
  70
    32
  0
VERTEX
  8
É}ÿg
  5
9D7
 10
463.027
 20
-358.287
 30
0.000000
  70
    32
  0
VERTEX
  8
É}ÿg
  5
9D8
 10
463.044
 20
-358.304
 30
0.000000
  70
    32
  0
VERTEX
  8
É}ÿg
  5
9D9
 10
463.062
 20
-358.321
 30
0.000000
  70
    32
  0
VERTEX
  8
É}ÿg
  5
9DA
 10
463.079
 20
-358.338
 30
0.000000
  70
    32
  0
VERTEX
  8
É}ÿg
  5
9DB
 10
463.097
 20
-358.355
 30
0.000000
  70
    32
  0
VERTEX
  8
É}ÿg
  5
9DC
 10
463.114
 20
-358.372
 30
0.000000
  70
    32
  0
VERTEX
  8
É}ÿg
  5
9DD
 10
463.131
 20
-358.389
 30
0.000000
  70
    32
  0
VERTEX
  8
É}ÿg
  5
9DE
 10
463.149
 20
-358.405
 30
0.000000
  70
    32
  0
VERTEX
  8
É}ÿg
  5
9DF
 10
463.166
 20
-358.422
 30
0.000000
  70
    32
  0
VERTEX
  8
É}ÿg
  5
9E0
 10
463.184
 20
-358.439
 30
0.000000
  70
    32
  0
VERTEX
  8
É}ÿg
  5
9E1
 10
463.201
 20
-358.456
 30
0.000000
  70
    32
  0
VERTEX
  8
É}ÿg
  5
9E2
 10
463.219
 20
-358.473
 30
0.000000
  70
    32
  0
VERTEX
  8
É}ÿg
  5
9E3
 10
463.236
 20
-358.490
 30
0.000000
  70
    32
  0
VERTEX
  8
É}ÿg
  5
9E4
 10
463.254
 20
-358.506
 30
0.000000
  70
    32
  0
VERTEX
  8
É}ÿg
  5
9E5
 10
463.271
 20
-358.523
 30
0.000000
  70
    32
  0
VERTEX
  8
É}ÿg
  5
9E6
 10
463.289
 20
-358.540
 30
0.000000
  70
    32
  0
VERTEX
  8
É}ÿg
  5
9E7
 10
463.306
 20
-358.556
 30
0.000000
  70
    32
  0
VERTEX
  8
É}ÿg
  5
9E8
 10
463.324
 20
-358.573
 30
0.000000
  70
    32
  0
VERTEX
  8
É}ÿg
  5
9E9
 10
463.342
 20
-358.589
 30
0.000000
  70
    32
  0
VERTEX
  8
É}ÿg
  5
9EA
 10
463.359
 20
-358.606
 30
0.000000
  70
    32
  0
VERTEX
  8
É}ÿg
  5
9EB
 10
463.377
 20
-358.622
 30
0.000000
  70
    32
  0
VERTEX
  8
É}ÿg
  5
9EC
 10
463.395
 20
-358.639
 30
0.000000
  70
    32
  0
VERTEX
  8
É}ÿg
  5
9ED
 10
463.412
 20
-358.655
 30
0.000000
  70
    32
  0
VERTEX
  8
É}ÿg
  5
9EE
 10
463.430
 20
-358.672
 30
0.000000
  70
    32
  0
VERTEX
  8
É}ÿg
  5
9EF
 10
463.448
 20
-358.688
 30
0.000000
  70
    32
  0
VERTEX
  8
É}ÿg
  5
9F0
 10
463.466
 20
-358.704
 30
0.000000
  70
    32
  0
VERTEX
  8
É}ÿg
  5
9F1
 10
463.483
 20
-358.721
 30
0.000000
  70
    32
  0
VERTEX
  8
É}ÿg
  5
9F2
 10
463.501
 20
-358.737
 30
0.000000
  70
    32
  0
VERTEX
  8
É}ÿg
  5
9F3
 10
463.519
 20
-358.753
 30
0.000000
  70
    32
  0
VERTEX
  8
É}ÿg
  5
9F4
 10
463.537
 20
-358.769
 30
0.000000
  70
    32
  0
SEQEND
  8
É}ÿg
  5
9F5
  0
POLYLINE
  8
É}ÿg
  5
9F6
  66
     1
 10
0.000000
 20
0.000000
 30
0.000000
  70
     8
  0
VERTEX
  8
É}ÿg
  5
9F7
 10
466.445
 20
-364.648
 30
0.000000
  70
    32
  0
VERTEX
  8
É}ÿg
  5
9F8
 10
466.512
 20
-364.670
 30
0.000000
  70
    32
  0
VERTEX
  8
É}ÿg
  5
9F9
 10
466.579
 20
-364.691
 30
0.000000
  70
    32
  0
VERTEX
  8
É}ÿg
  5
9FA
 10
466.647
 20
-364.712
 30
0.000000
  70
    32
  0
VERTEX
  8
É}ÿg
  5
9FB
 10
466.714
 20
-364.733
 30
0.000000
  70
    32
  0
VERTEX
  8
É}ÿg
  5
9FC
 10
466.782
 20
-364.754
 30
0.000000
  70
    32
  0
VERTEX
  8
É}ÿg
  5
9FD
 10
466.849
 20
-364.775
 30
0.000000
  70
    32
  0
VERTEX
  8
É}ÿg
  5
9FE
 10
466.917
 20
-364.796
 30
0.000000
  70
    32
  0
VERTEX
  8
É}ÿg
  5
9FF
 10
466.985
 20
-364.817
 30
0.000000
  70
    32
  0
VERTEX
  8
É}ÿg
  5
A00
 10
467.052
 20
-364.838
 30
0.000000
  70
    32
  0
VERTEX
  8
É}ÿg
  5
A01
 10
467.120
 20
-364.858
 30
0.000000
  70
    32
  0
VERTEX
  8
É}ÿg
  5
A02
 10
467.188
 20
-364.879
 30
0.000000
  70
    32
  0
VERTEX
  8
É}ÿg
  5
A03
 10
467.256
 20
-364.899
 30
0.000000
  70
    32
  0
VERTEX
  8
É}ÿg
  5
A04
 10
467.324
 20
-364.919
 30
0.000000
  70
    32
  0
VERTEX
  8
É}ÿg
  5
A05
 10
467.392
 20
-364.939
 30
0.000000
  70
    32
  0
VERTEX
  8
É}ÿg
  5
A06
 10
467.460
 20
-364.959
 30
0.000000
  70
    32
  0
VERTEX
  8
É}ÿg
  5
A07
 10
467.528
 20
-364.979
 30
0.000000
  70
    32
  0
VERTEX
  8
É}ÿg
  5
A08
 10
467.596
 20
-364.999
 30
0.000000
  70
    32
  0
VERTEX
  8
É}ÿg
  5
A09
 10
467.664
 20
-365.019
 30
0.000000
  70
    32
  0
VERTEX
  8
É}ÿg
  5
A0A
 10
467.733
 20
-365.039
 30
0.000000
  70
    32
  0
VERTEX
  8
É}ÿg
  5
A0B
 10
467.801
 20
-365.058
 30
0.000000
  70
    32
  0
VERTEX
  8
É}ÿg
  5
A0C
 10
467.869
 20
-365.078
 30
0.000000
  70
    32
  0
VERTEX
  8
É}ÿg
  5
A0D
 10
467.938
 20
-365.097
 30
0.000000
  70
    32
  0
VERTEX
  8
É}ÿg
  5
A0E
 10
468.006
 20
-365.117
 30
0.000000
  70
    32
  0
VERTEX
  8
É}ÿg
  5
A0F
 10
468.075
 20
-365.136
 30
0.000000
  70
    32
  0
VERTEX
  8
É}ÿg
  5
A10
 10
468.143
 20
-365.155
 30
0.000000
  70
    32
  0
VERTEX
  8
É}ÿg
  5
A11
 10
468.212
 20
-365.174
 30
0.000000
  70
    32
  0
VERTEX
  8
É}ÿg
  5
A12
 10
468.280
 20
-365.193
 30
0.000000
  70
    32
  0
VERTEX
  8
É}ÿg
  5
A13
 10
468.349
 20
-365.212
 30
0.000000
  70
    32
  0
VERTEX
  8
É}ÿg
  5
A14
 10
468.418
 20
-365.231
 30
0.000000
  70
    32
  0
VERTEX
  8
É}ÿg
  5
A15
 10
468.487
 20
-365.249
 30
0.000000
  70
    32
  0
VERTEX
  8
É}ÿg
  5
A16
 10
468.555
 20
-365.268
 30
0.000000
  70
    32
  0
VERTEX
  8
É}ÿg
  5
A17
 10
468.624
 20
-365.287
 30
0.000000
  70
    32
  0
VERTEX
  8
É}ÿg
  5
A18
 10
468.693
 20
-365.305
 30
0.000000
  70
    32
  0
VERTEX
  8
É}ÿg
  5
A19
 10
468.762
 20
-365.324
 30
0.000000
  70
    32
  0
VERTEX
  8
É}ÿg
  5
A1A
 10
468.831
 20
-365.342
 30
0.000000
  70
    32
  0
VERTEX
  8
É}ÿg
  5
A1B
 10
468.900
 20
-365.360
 30
0.000000
  70
    32
  0
VERTEX
  8
É}ÿg
  5
A1C
 10
468.969
 20
-365.378
 30
0.000000
  70
    32
  0
VERTEX
  8
É}ÿg
  5
A1D
 10
469.038
 20
-365.396
 30
0.000000
  70
    32
  0
VERTEX
  8
É}ÿg
  5
A1E
 10
469.108
 20
-365.414
 30
0.000000
  70
    32
  0
VERTEX
  8
É}ÿg
  5
A1F
 10
469.177
 20
-365.432
 30
0.000000
  70
    32
  0
VERTEX
  8
É}ÿg
  5
A20
 10
469.246
 20
-365.450
 30
0.000000
  70
    32
  0
VERTEX
  8
É}ÿg
  5
A21
 10
469.315
 20
-365.468
 30
0.000000
  70
    32
  0
VERTEX
  8
É}ÿg
  5
A22
 10
469.385
 20
-365.486
 30
0.000000
  70
    32
  0
VERTEX
  8
É}ÿg
  5
A23
 10
469.454
 20
-365.504
 30
0.000000
  70
    32
  0
VERTEX
  8
É}ÿg
  5
A24
 10
469.523
 20
-365.521
 30
0.000000
  70
    32
  0
VERTEX
  8
É}ÿg
  5
A25
 10
469.593
 20
-365.539
 30
0.000000
  70
    32
  0
VERTEX
  8
É}ÿg
  5
A26
 10
469.662
 20
-365.556
 30
0.000000
  70
    32
  0
VERTEX
  8
É}ÿg
  5
A27
 10
469.732
 20
-365.574
 30
0.000000
  70
    32
  0
VERTEX
  8
É}ÿg
  5
A28
 10
469.801
 20
-365.591
 30
0.000000
  70
    32
  0
VERTEX
  8
É}ÿg
  5
A29
 10
469.871
 20
-365.608
 30
0.000000
  70
    32
  0
VERTEX
  8
É}ÿg
  5
A2A
 10
469.940
 20
-365.625
 30
0.000000
  70
    32
  0
VERTEX
  8
É}ÿg
  5
A2B
 10
470.010
 20
-365.642
 30
0.000000
  70
    32
  0
VERTEX
  8
É}ÿg
  5
A2C
 10
470.080
 20
-365.660
 30
0.000000
  70
    32
  0
VERTEX
  8
É}ÿg
  5
A2D
 10
470.149
 20
-365.677
 30
0.000000
  70
    32
  0
VERTEX
  8
É}ÿg
  5
A2E
 10
470.219
 20
-365.694
 30
0.000000
  70
    32
  0
VERTEX
  8
É}ÿg
  5
A2F
 10
470.289
 20
-365.710
 30
0.000000
  70
    32
  0
VERTEX
  8
É}ÿg
  5
A30
 10
470.359
 20
-365.727
 30
0.000000
  70
    32
  0
VERTEX
  8
É}ÿg
  5
A31
 10
470.428
 20
-365.744
 30
0.000000
  70
    32
  0
VERTEX
  8
É}ÿg
  5
A32
 10
470.498
 20
-365.761
 30
0.000000
  70
    32
  0
VERTEX
  8
É}ÿg
  5
A33
 10
470.568
 20
-365.777
 30
0.000000
  70
    32
  0
VERTEX
  8
É}ÿg
  5
A34
 10
470.638
 20
-365.794
 30
0.000000
  70
    32
  0
VERTEX
  8
É}ÿg
  5
A35
 10
470.708
 20
-365.811
 30
0.000000
  70
    32
  0
VERTEX
  8
É}ÿg
  5
A36
 10
470.778
 20
-365.827
 30
0.000000
  70
    32
  0
VERTEX
  8
É}ÿg
  5
A37
 10
470.848
 20
-365.843
 30
0.000000
  70
    32
  0
VERTEX
  8
É}ÿg
  5
A38
 10
470.918
 20
-365.860
 30
0.000000
  70
    32
  0
VERTEX
  8
É}ÿg
  5
A39
 10
470.988
 20
-365.876
 30
0.000000
  70
    32
  0
VERTEX
  8
É}ÿg
  5
A3A
 10
471.058
 20
-365.892
 30
0.000000
  70
    32
  0
VERTEX
  8
É}ÿg
  5
A3B
 10
471.128
 20
-365.909
 30
0.000000
  70
    32
  0
VERTEX
  8
É}ÿg
  5
A3C
 10
471.199
 20
-365.925
 30
0.000000
  70
    32
  0
VERTEX
  8
É}ÿg
  5
A3D
 10
471.269
 20
-365.941
 30
0.000000
  70
    32
  0
VERTEX
  8
É}ÿg
  5
A3E
 10
471.339
 20
-365.957
 30
0.000000
  70
    32
  0
VERTEX
  8
É}ÿg
  5
A3F
 10
471.409
 20
-365.973
 30
0.000000
  70
    32
  0
VERTEX
  8
É}ÿg
  5
A40
 10
471.479
 20
-365.989
 30
0.000000
  70
    32
  0
VERTEX
  8
É}ÿg
  5
A41
 10
471.550
 20
-366.005
 30
0.000000
  70
    32
  0
VERTEX
  8
É}ÿg
  5
A42
 10
471.620
 20
-366.021
 30
0.000000
  70
    32
  0
VERTEX
  8
É}ÿg
  5
A43
 10
471.690
 20
-366.037
 30
0.000000
  70
    32
  0
VERTEX
  8
É}ÿg
  5
A44
 10
471.761
 20
-366.053
 30
0.000000
  70
    32
  0
VERTEX
  8
É}ÿg
  5
A45
 10
471.831
 20
-366.068
 30
0.000000
  70
    32
  0
VERTEX
  8
É}ÿg
  5
A46
 10
471.902
 20
-366.084
 30
0.000000
  70
    32
  0
VERTEX
  8
É}ÿg
  5
A47
 10
471.972
 20
-366.100
 30
0.000000
  70
    32
  0
VERTEX
  8
É}ÿg
  5
A48
 10
472.042
 20
-366.116
 30
0.000000
  70
    32
  0
VERTEX
  8
É}ÿg
  5
A49
 10
472.113
 20
-366.131
 30
0.000000
  70
    32
  0
VERTEX
  8
É}ÿg
  5
A4A
 10
472.183
 20
-366.147
 30
0.000000
  70
    32
  0
VERTEX
  8
É}ÿg
  5
A4B
 10
472.254
 20
-366.162
 30
0.000000
  70
    32
  0
VERTEX
  8
É}ÿg
  5
A4C
 10
472.324
 20
-366.178
 30
0.000000
  70
    32
  0
VERTEX
  8
É}ÿg
  5
A4D
 10
472.395
 20
-366.193
 30
0.000000
  70
    32
  0
VERTEX
  8
É}ÿg
  5
A4E
 10
472.465
 20
-366.209
 30
0.000000
  70
    32
  0
VERTEX
  8
É}ÿg
  5
A4F
 10
472.536
 20
-366.224
 30
0.000000
  70
    32
  0
VERTEX
  8
É}ÿg
  5
A50
 10
472.607
 20
-366.239
 30
0.000000
  70
    32
  0
VERTEX
  8
É}ÿg
  5
A51
 10
472.677
 20
-366.255
 30
0.000000
  70
    32
  0
VERTEX
  8
É}ÿg
  5
A52
 10
472.748
 20
-366.270
 30
0.000000
  70
    32
  0
VERTEX
  8
É}ÿg
  5
A53
 10
472.818
 20
-366.285
 30
0.000000
  70
    32
  0
VERTEX
  8
É}ÿg
  5
A54
 10
472.889
 20
-366.301
 30
0.000000
  70
    32
  0
VERTEX
  8
É}ÿg
  5
A55
 10
472.960
 20
-366.316
 30
0.000000
  70
    32
  0
VERTEX
  8
É}ÿg
  5
A56
 10
473.030
 20
-366.331
 30
0.000000
  70
    32
  0
VERTEX
  8
É}ÿg
  5
A57
 10
473.101
 20
-366.346
 30
0.000000
  70
    32
  0
VERTEX
  8
É}ÿg
  5
A58
 10
473.172
 20
-366.361
 30
0.000000
  70
    32
  0
VERTEX
  8
É}ÿg
  5
A59
 10
473.243
 20
-366.376
 30
0.000000
  70
    32
  0
VERTEX
  8
É}ÿg
  5
A5A
 10
473.313
 20
-366.391
 30
0.000000
  70
    32
  0
VERTEX
  8
É}ÿg
  5
A5B
 10
473.384
 20
-366.407
 30
0.000000
  70
    32
  0
VERTEX
  8
É}ÿg
  5
A5C
 10
473.455
 20
-366.422
 30
0.000000
  70
    32
  0
VERTEX
  8
É}ÿg
  5
A5D
 10
473.526
 20
-366.437
 30
0.000000
  70
    32
  0
VERTEX
  8
É}ÿg
  5
A5E
 10
473.596
 20
-366.452
 30
0.000000
  70
    32
  0
VERTEX
  8
É}ÿg
  5
A5F
 10
473.667
 20
-366.467
 30
0.000000
  70
    32
  0
VERTEX
  8
É}ÿg
  5
A60
 10
473.738
 20
-366.482
 30
0.000000
  70
    32
  0
VERTEX
  8
É}ÿg
  5
A61
 10
473.809
 20
-366.496
 30
0.000000
  70
    32
  0
VERTEX
  8
É}ÿg
  5
A62
 10
473.880
 20
-366.511
 30
0.000000
  70
    32
  0
VERTEX
  8
É}ÿg
  5
A63
 10
473.951
 20
-366.526
 30
0.000000
  70
    32
  0
VERTEX
  8
É}ÿg
  5
A64
 10
474.021
 20
-366.541
 30
0.000000
  70
    32
  0
VERTEX
  8
É}ÿg
  5
A65
 10
474.092
 20
-366.556
 30
0.000000
  70
    32
  0
VERTEX
  8
É}ÿg
  5
A66
 10
474.163
 20
-366.571
 30
0.000000
  70
    32
  0
VERTEX
  8
É}ÿg
  5
A67
 10
474.234
 20
-366.586
 30
0.000000
  70
    32
  0
VERTEX
  8
É}ÿg
  5
A68
 10
474.305
 20
-366.601
 30
0.000000
  70
    32
  0
VERTEX
  8
É}ÿg
  5
A69
 10
474.376
 20
-366.615
 30
0.000000
  70
    32
  0
VERTEX
  8
É}ÿg
  5
A6A
 10
474.447
 20
-366.630
 30
0.000000
  70
    32
  0
VERTEX
  8
É}ÿg
  5
A6B
 10
474.518
 20
-366.645
 30
0.000000
  70
    32
  0
VERTEX
  8
É}ÿg
  5
A6C
 10
474.589
 20
-366.660
 30
0.000000
  70
    32
  0
VERTEX
  8
É}ÿg
  5
A6D
 10
474.659
 20
-366.675
 30
0.000000
  70
    32
  0
VERTEX
  8
É}ÿg
  5
A6E
 10
474.730
 20
-366.689
 30
0.000000
  70
    32
  0
VERTEX
  8
É}ÿg
  5
A6F
 10
474.801
 20
-366.704
 30
0.000000
  70
    32
  0
VERTEX
  8
É}ÿg
  5
A70
 10
474.872
 20
-366.719
 30
0.000000
  70
    32
  0
VERTEX
  8
É}ÿg
  5
A71
 10
474.943
 20
-366.734
 30
0.000000
  70
    32
  0
VERTEX
  8
É}ÿg
  5
A72
 10
475.014
 20
-366.748
 30
0.000000
  70
    32
  0
VERTEX
  8
É}ÿg
  5
A73
 10
475.085
 20
-366.763
 30
0.000000
  70
    32
  0
VERTEX
  8
É}ÿg
  5
A74
 10
475.156
 20
-366.778
 30
0.000000
  70
    32
  0
VERTEX
  8
É}ÿg
  5
A75
 10
475.227
 20
-366.793
 30
0.000000
  70
    32
  0
VERTEX
  8
É}ÿg
  5
A76
 10
475.298
 20
-366.807
 30
0.000000
  70
    32
  0
SEQEND
  8
É}ÿg
  5
A77
  0
POLYLINE
  8
É}ÿg
  5
A78
  66
     1
 10
0.000000
 20
0.000000
 30
0.000000
  70
     8
  0
VERTEX
  8
É}ÿg
  5
A79
 10
452.798
 20
-355.918
 30
0.000000
  70
    32
  0
VERTEX
  8
É}ÿg
  5
A7A
 10
452.843
 20
-355.959
 30
0.000000
  70
    32
  0
VERTEX
  8
É}ÿg
  5
A7B
 10
452.888
 20
-356.001
 30
0.000000
  70
    32
  0
VERTEX
  8
É}ÿg
  5
A7C
 10
452.933
 20
-356.042
 30
0.000000
  70
    32
  0
VERTEX
  8
É}ÿg
  5
A7D
 10
452.978
 20
-356.084
 30
0.000000
  70
    32
  0
VERTEX
  8
É}ÿg
  5
A7E
 10
453.023
 20
-356.125
 30
0.000000
  70
    32
  0
VERTEX
  8
É}ÿg
  5
A7F
 10
453.068
 20
-356.167
 30
0.000000
  70
    32
  0
VERTEX
  8
É}ÿg
  5
A80
 10
453.113
 20
-356.208
 30
0.000000
  70
    32
  0
VERTEX
  8
É}ÿg
  5
A81
 10
453.158
 20
-356.250
 30
0.000000
  70
    32
  0
VERTEX
  8
É}ÿg
  5
A82
 10
453.203
 20
-356.291
 30
0.000000
  70
    32
  0
VERTEX
  8
É}ÿg
  5
A83
 10
453.248
 20
-356.333
 30
0.000000
  70
    32
  0
VERTEX
  8
É}ÿg
  5
A84
 10
453.293
 20
-356.374
 30
0.000000
  70
    32
  0
VERTEX
  8
É}ÿg
  5
A85
 10
453.338
 20
-356.416
 30
0.000000
  70
    32
  0
VERTEX
  8
É}ÿg
  5
A86
 10
453.383
 20
-356.457
 30
0.000000
  70
    32
  0
VERTEX
  8
É}ÿg
  5
A87
 10
453.428
 20
-356.499
 30
0.000000
  70
    32
  0
VERTEX
  8
É}ÿg
  5
A88
 10
453.473
 20
-356.540
 30
0.000000
  70
    32
  0
VERTEX
  8
É}ÿg
  5
A89
 10
453.519
 20
-356.581
 30
0.000000
  70
    32
  0
VERTEX
  8
É}ÿg
  5
A8A
 10
453.564
 20
-356.623
 30
0.000000
  70
    32
  0
VERTEX
  8
É}ÿg
  5
A8B
 10
453.609
 20
-356.664
 30
0.000000
  70
    32
  0
VERTEX
  8
É}ÿg
  5
A8C
 10
453.654
 20
-356.706
 30
0.000000
  70
    32
  0
VERTEX
  8
É}ÿg
  5
A8D
 10
453.699
 20
-356.747
 30
0.000000
  70
    32
  0
VERTEX
  8
É}ÿg
  5
A8E
 10
453.744
 20
-356.788
 30
0.000000
  70
    32
  0
VERTEX
  8
É}ÿg
  5
A8F
 10
453.789
 20
-356.830
 30
0.000000
  70
    32
  0
VERTEX
  8
É}ÿg
  5
A90
 10
453.834
 20
-356.871
 30
0.000000
  70
    32
  0
VERTEX
  8
É}ÿg
  5
A91
 10
453.879
 20
-356.912
 30
0.000000
  70
    32
  0
VERTEX
  8
É}ÿg
  5
A92
 10
453.925
 20
-356.953
 30
0.000000
  70
    32
  0
VERTEX
  8
É}ÿg
  5
A93
 10
453.970
 20
-356.995
 30
0.000000
  70
    32
  0
VERTEX
  8
É}ÿg
  5
A94
 10
454.015
 20
-357.036
 30
0.000000
  70
    32
  0
VERTEX
  8
É}ÿg
  5
A95
 10
454.060
 20
-357.077
 30
0.000000
  70
    32
  0
VERTEX
  8
É}ÿg
  5
A96
 10
454.105
 20
-357.118
 30
0.000000
  70
    32
  0
VERTEX
  8
É}ÿg
  5
A97
 10
454.151
 20
-357.159
 30
0.000000
  70
    32
  0
VERTEX
  8
É}ÿg
  5
A98
 10
454.196
 20
-357.200
 30
0.000000
  70
    32
  0
VERTEX
  8
É}ÿg
  5
A99
 10
454.241
 20
-357.241
 30
0.000000
  70
    32
  0
VERTEX
  8
É}ÿg
  5
A9A
 10
454.286
 20
-357.283
 30
0.000000
  70
    32
  0
VERTEX
  8
É}ÿg
  5
A9B
 10
454.332
 20
-357.324
 30
0.000000
  70
    32
  0
VERTEX
  8
É}ÿg
  5
A9C
 10
454.377
 20
-357.365
 30
0.000000
  70
    32
  0
VERTEX
  8
É}ÿg
  5
A9D
 10
454.422
 20
-357.405
 30
0.000000
  70
    32
  0
VERTEX
  8
É}ÿg
  5
A9E
 10
454.468
 20
-357.446
 30
0.000000
  70
    32
  0
VERTEX
  8
É}ÿg
  5
A9F
 10
454.513
 20
-357.487
 30
0.000000
  70
    32
  0
VERTEX
  8
É}ÿg
  5
AA0
 10
454.558
 20
-357.528
 30
0.000000
  70
    32
  0
VERTEX
  8
É}ÿg
  5
AA1
 10
454.604
 20
-357.569
 30
0.000000
  70
    32
  0
VERTEX
  8
É}ÿg
  5
AA2
 10
454.649
 20
-357.610
 30
0.000000
  70
    32
  0
VERTEX
  8
É}ÿg
  5
AA3
 10
454.695
 20
-357.651
 30
0.000000
  70
    32
  0
VERTEX
  8
É}ÿg
  5
AA4
 10
454.740
 20
-357.691
 30
0.000000
  70
    32
  0
VERTEX
  8
É}ÿg
  5
AA5
 10
454.786
 20
-357.732
 30
0.000000
  70
    32
  0
VERTEX
  8
É}ÿg
  5
AA6
 10
454.831
 20
-357.773
 30
0.000000
  70
    32
  0
VERTEX
  8
É}ÿg
  5
AA7
 10
454.877
 20
-357.813
 30
0.000000
  70
    32
  0
VERTEX
  8
É}ÿg
  5
AA8
 10
454.922
 20
-357.854
 30
0.000000
  70
    32
  0
VERTEX
  8
É}ÿg
  5
AA9
 10
454.968
 20
-357.894
 30
0.000000
  70
    32
  0
VERTEX
  8
É}ÿg
  5
AAA
 10
455.013
 20
-357.935
 30
0.000000
  70
    32
  0
VERTEX
  8
É}ÿg
  5
AAB
 10
455.059
 20
-357.975
 30
0.000000
  70
    32
  0
VERTEX
  8
É}ÿg
  5
AAC
 10
455.105
 20
-358.016
 30
0.000000
  70
    32
  0
VERTEX
  8
É}ÿg
  5
AAD
 10
455.150
 20
-358.056
 30
0.000000
  70
    32
  0
VERTEX
  8
É}ÿg
  5
AAE
 10
455.196
 20
-358.096
 30
0.000000
  70
    32
  0
VERTEX
  8
É}ÿg
  5
AAF
 10
455.242
 20
-358.137
 30
0.000000
  70
    32
  0
VERTEX
  8
É}ÿg
  5
AB0
 10
455.287
 20
-358.177
 30
0.000000
  70
    32
  0
VERTEX
  8
É}ÿg
  5
AB1
 10
455.333
 20
-358.217
 30
0.000000
  70
    32
  0
VERTEX
  8
É}ÿg
  5
AB2
 10
455.379
 20
-358.257
 30
0.000000
  70
    32
  0
VERTEX
  8
É}ÿg
  5
AB3
 10
455.425
 20
-358.297
 30
0.000000
  70
    32
  0
VERTEX
  8
É}ÿg
  5
AB4
 10
455.470
 20
-358.337
 30
0.000000
  70
    32
  0
VERTEX
  8
É}ÿg
  5
AB5
 10
455.516
 20
-358.377
 30
0.000000
  70
    32
  0
VERTEX
  8
É}ÿg
  5
AB6
 10
455.562
 20
-358.417
 30
0.000000
  70
    32
  0
VERTEX
  8
É}ÿg
  5
AB7
 10
455.608
 20
-358.457
 30
0.000000
  70
    32
  0
VERTEX
  8
É}ÿg
  5
AB8
 10
455.654
 20
-358.497
 30
0.000000
  70
    32
  0
VERTEX
  8
É}ÿg
  5
AB9
 10
455.700
 20
-358.537
 30
0.000000
  70
    32
  0
VERTEX
  8
É}ÿg
  5
ABA
 10
455.746
 20
-358.576
 30
0.000000
  70
    32
  0
VERTEX
  8
É}ÿg
  5
ABB
 10
455.792
 20
-358.616
 30
0.000000
  70
    32
  0
VERTEX
  8
É}ÿg
  5
ABC
 10
455.838
 20
-358.656
 30
0.000000
  70
    32
  0
VERTEX
  8
É}ÿg
  5
ABD
 10
455.884
 20
-358.695
 30
0.000000
  70
    32
  0
VERTEX
  8
É}ÿg
  5
ABE
 10
455.930
 20
-358.735
 30
0.000000
  70
    32
  0
VERTEX
  8
É}ÿg
  5
ABF
 10
455.976
 20
-358.774
 30
0.000000
  70
    32
  0
VERTEX
  8
É}ÿg
  5
AC0
 10
456.023
 20
-358.813
 30
0.000000
  70
    32
  0
VERTEX
  8
É}ÿg
  5
AC1
 10
456.069
 20
-358.853
 30
0.000000
  70
    32
  0
VERTEX
  8
É}ÿg
  5
AC2
 10
456.115
 20
-358.892
 30
0.000000
  70
    32
  0
VERTEX
  8
É}ÿg
  5
AC3
 10
456.161
 20
-358.931
 30
0.000000
  70
    32
  0
VERTEX
  8
É}ÿg
  5
AC4
 10
456.208
 20
-358.970
 30
0.000000
  70
    32
  0
VERTEX
  8
É}ÿg
  5
AC5
 10
456.254
 20
-359.009
 30
0.000000
  70
    32
  0
VERTEX
  8
É}ÿg
  5
AC6
 10
456.300
 20
-359.048
 30
0.000000
  70
    32
  0
VERTEX
  8
É}ÿg
  5
AC7
 10
456.347
 20
-359.087
 30
0.000000
  70
    32
  0
VERTEX
  8
É}ÿg
  5
AC8
 10
456.393
 20
-359.126
 30
0.000000
  70
    32
  0
VERTEX
  8
É}ÿg
  5
AC9
 10
456.440
 20
-359.165
 30
0.000000
  70
    32
  0
VERTEX
  8
É}ÿg
  5
ACA
 10
456.486
 20
-359.203
 30
0.000000
  70
    32
  0
VERTEX
  8
É}ÿg
  5
ACB
 10
456.533
 20
-359.242
 30
0.000000
  70
    32
  0
VERTEX
  8
É}ÿg
  5
ACC
 10
456.580
 20
-359.281
 30
0.000000
  70
    32
  0
VERTEX
  8
É}ÿg
  5
ACD
 10
456.626
 20
-359.319
 30
0.000000
  70
    32
  0
VERTEX
  8
É}ÿg
  5
ACE
 10
456.673
 20
-359.358
 30
0.000000
  70
    32
  0
VERTEX
  8
É}ÿg
  5
ACF
 10
456.720
 20
-359.396
 30
0.000000
  70
    32
  0
VERTEX
  8
É}ÿg
  5
AD0
 10
456.766
 20
-359.434
 30
0.000000
  70
    32
  0
VERTEX
  8
É}ÿg
  5
AD1
 10
456.813
 20
-359.472
 30
0.000000
  70
    32
  0
VERTEX
  8
É}ÿg
  5
AD2
 10
456.860
 20
-359.511
 30
0.000000
  70
    32
  0
VERTEX
  8
É}ÿg
  5
AD3
 10
456.907
 20
-359.549
 30
0.000000
  70
    32
  0
VERTEX
  8
É}ÿg
  5
AD4
 10
456.954
 20
-359.587
 30
0.000000
  70
    32
  0
VERTEX
  8
É}ÿg
  5
AD5
 10
457.001
 20
-359.624
 30
0.000000
  70
    32
  0
VERTEX
  8
É}ÿg
  5
AD6
 10
457.048
 20
-359.662
 30
0.000000
  70
    32
  0
VERTEX
  8
É}ÿg
  5
AD7
 10
457.095
 20
-359.700
 30
0.000000
  70
    32
  0
VERTEX
  8
É}ÿg
  5
AD8
 10
457.142
 20
-359.738
 30
0.000000
  70
    32
  0
VERTEX
  8
É}ÿg
  5
AD9
 10
457.189
 20
-359.775
 30
0.000000
  70
    32
  0
VERTEX
  8
É}ÿg
  5
ADA
 10
457.237
 20
-359.813
 30
0.000000
  70
    32
  0
VERTEX
  8
É}ÿg
  5
ADB
 10
457.284
 20
-359.850
 30
0.000000
  70
    32
  0
VERTEX
  8
É}ÿg
  5
ADC
 10
457.331
 20
-359.887
 30
0.000000
  70
    32
  0
VERTEX
  8
É}ÿg
  5
ADD
 10
457.378
 20
-359.925
 30
0.000000
  70
    32
  0
VERTEX
  8
É}ÿg
  5
ADE
 10
457.426
 20
-359.962
 30
0.000000
  70
    32
  0
VERTEX
  8
É}ÿg
  5
ADF
 10
457.473
 20
-359.999
 30
0.000000
  70
    32
  0
VERTEX
  8
É}ÿg
  5
AE0
 10
457.521
 20
-360.036
 30
0.000000
  70
    32
  0
VERTEX
  8
É}ÿg
  5
AE1
 10
457.568
 20
-360.073
 30
0.000000
  70
    32
  0
VERTEX
  8
É}ÿg
  5
AE2
 10
457.616
 20
-360.109
 30
0.000000
  70
    32
  0
VERTEX
  8
É}ÿg
  5
AE3
 10
457.663
 20
-360.146
 30
0.000000
  70
    32
  0
VERTEX
  8
É}ÿg
  5
AE4
 10
457.711
 20
-360.183
 30
0.000000
  70
    32
  0
VERTEX
  8
É}ÿg
  5
AE5
 10
457.759
 20
-360.219
 30
0.000000
  70
    32
  0
VERTEX
  8
É}ÿg
  5
AE6
 10
457.807
 20
-360.256
 30
0.000000
  70
    32
  0
VERTEX
  8
É}ÿg
  5
AE7
 10
457.855
 20
-360.292
 30
0.000000
  70
    32
  0
VERTEX
  8
É}ÿg
  5
AE8
 10
457.902
 20
-360.328
 30
0.000000
  70
    32
  0
VERTEX
  8
É}ÿg
  5
AE9
 10
457.950
 20
-360.364
 30
0.000000
  70
    32
  0
VERTEX
  8
É}ÿg
  5
AEA
 10
457.998
 20
-360.400
 30
0.000000
  70
    32
  0
VERTEX
  8
É}ÿg
  5
AEB
 10
458.046
 20
-360.436
 30
0.000000
  70
    32
  0
VERTEX
  8
É}ÿg
  5
AEC
 10
458.094
 20
-360.472
 30
0.000000
  70
    32
  0
VERTEX
  8
É}ÿg
  5
AED
 10
458.143
 20
-360.508
 30
0.000000
  70
    32
  0
VERTEX
  8
É}ÿg
  5
AEE
 10
458.191
 20
-360.544
 30
0.000000
  70
    32
  0
VERTEX
  8
É}ÿg
  5
AEF
 10
458.239
 20
-360.579
 30
0.000000
  70
    32
  0
VERTEX
  8
É}ÿg
  5
AF0
 10
458.287
 20
-360.615
 30
0.000000
  70
    32
  0
VERTEX
  8
É}ÿg
  5
AF1
 10
458.336
 20
-360.650
 30
0.000000
  70
    32
  0
VERTEX
  8
É}ÿg
  5
AF2
 10
458.384
 20
-360.685
 30
0.000000
  70
    32
  0
VERTEX
  8
É}ÿg
  5
AF3
 10
458.433
 20
-360.720
 30
0.000000
  70
    32
  0
VERTEX
  8
É}ÿg
  5
AF4
 10
458.481
 20
-360.755
 30
0.000000
  70
    32
  0
VERTEX
  8
É}ÿg
  5
AF5
 10
458.530
 20
-360.790
 30
0.000000
  70
    32
  0
VERTEX
  8
É}ÿg
  5
AF6
 10
458.578
 20
-360.825
 30
0.000000
  70
    32
  0
VERTEX
  8
É}ÿg
  5
AF7
 10
458.627
 20
-360.860
 30
0.000000
  70
    32
  0
VERTEX
  8
É}ÿg
  5
AF8
 10
458.676
 20
-360.894
 30
0.000000
  70
    32
  0
VERTEX
  8
É}ÿg
  5
AF9
 10
458.725
 20
-360.929
 30
0.000000
  70
    32
  0
VERTEX
  8
É}ÿg
  5
AFA
 10
458.774
 20
-360.963
 30
0.000000
  70
    32
  0
VERTEX
  8
É}ÿg
  5
AFB
 10
458.823
 20
-360.997
 30
0.000000
  70
    32
  0
VERTEX
  8
É}ÿg
  5
AFC
 10
458.872
 20
-361.032
 30
0.000000
  70
    32
  0
VERTEX
  8
É}ÿg
  5
AFD
 10
458.921
 20
-361.066
 30
0.000000
  70
    32
  0
VERTEX
  8
É}ÿg
  5
AFE
 10
458.970
 20
-361.100
 30
0.000000
  70
    32
  0
VERTEX
  8
É}ÿg
  5
AFF
 10
459.019
 20
-361.133
 30
0.000000
  70
    32
  0
VERTEX
  8
É}ÿg
  5
B00
 10
459.068
 20
-361.167
 30
0.000000
  70
    32
  0
VERTEX
  8
É}ÿg
  5
B01
 10
459.117
 20
-361.201
 30
0.000000
  70
    32
  0
VERTEX
  8
É}ÿg
  5
B02
 10
459.167
 20
-361.234
 30
0.000000
  70
    32
  0
VERTEX
  8
É}ÿg
  5
B03
 10
459.216
 20
-361.267
 30
0.000000
  70
    32
  0
VERTEX
  8
É}ÿg
  5
B04
 10
459.266
 20
-361.301
 30
0.000000
  70
    32
  0
VERTEX
  8
É}ÿg
  5
B05
 10
459.315
 20
-361.334
 30
0.000000
  70
    32
  0
VERTEX
  8
É}ÿg
  5
B06
 10
459.365
 20
-361.367
 30
0.000000
  70
    32
  0
VERTEX
  8
É}ÿg
  5
B07
 10
459.415
 20
-361.400
 30
0.000000
  70
    32
  0
VERTEX
  8
É}ÿg
  5
B08
 10
459.465
 20
-361.432
 30
0.000000
  70
    32
  0
VERTEX
  8
É}ÿg
  5
B09
 10
459.514
 20
-361.465
 30
0.000000
  70
    32
  0
VERTEX
  8
É}ÿg
  5
B0A
 10
459.564
 20
-361.497
 30
0.000000
  70
    32
  0
VERTEX
  8
É}ÿg
  5
B0B
 10
459.614
 20
-361.530
 30
0.000000
  70
    32
  0
VERTEX
  8
É}ÿg
  5
B0C
 10
459.664
 20
-361.562
 30
0.000000
  70
    32
  0
VERTEX
  8
É}ÿg
  5
B0D
 10
459.714
 20
-361.594
 30
0.000000
  70
    32
  0
VERTEX
  8
É}ÿg
  5
B0E
 10
459.765
 20
-361.626
 30
0.000000
  70
    32
  0
VERTEX
  8
É}ÿg
  5
B0F
 10
459.815
 20
-361.658
 30
0.000000
  70
    32
  0
VERTEX
  8
É}ÿg
  5
B10
 10
459.865
 20
-361.690
 30
0.000000
  70
    32
  0
VERTEX
  8
É}ÿg
  5
B11
 10
459.916
 20
-361.721
 30
0.000000
  70
    32
  0
VERTEX
  8
É}ÿg
  5
B12
 10
459.966
 20
-361.753
 30
0.000000
  70
    32
  0
VERTEX
  8
É}ÿg
  5
B13
 10
460.017
 20
-361.784
 30
0.000000
  70
    32
  0
VERTEX
  8
É}ÿg
  5
B14
 10
460.067
 20
-361.815
 30
0.000000
  70
    32
  0
VERTEX
  8
É}ÿg
  5
B15
 10
460.118
 20
-361.846
 30
0.000000
  70
    32
  0
VERTEX
  8
É}ÿg
  5
B16
 10
460.169
 20
-361.877
 30
0.000000
  70
    32
  0
VERTEX
  8
É}ÿg
  5
B17
 10
460.219
 20
-361.908
 30
0.000000
  70
    32
  0
VERTEX
  8
É}ÿg
  5
B18
 10
460.270
 20
-361.939
 30
0.000000
  70
    32
  0
SEQEND
  8
É}ÿg
  5
B19
  0
INSERT
  5
4AA
  8
0
  6
CONTINUOUS
  2
*U204
 10
0.0
 20
0.0
 30
0.0
  0
LINE
  5
4AB
  8
É}ÿg
 10
486.70938732730002
 20
-300.24909031419998
 30
0.0
 11
486.70938732730002
 21
-306.24909031419998
 31
0.0
  0
LINE
  5
4AC
  8
É}ÿg
 10
446.14620976879991
 20
-354.30740789689997
 30
0.0
 11
446.14620976879991
 21
-358.05740789690009
 31
0.0
  0
LINE
  5
4AD
  8
É}ÿg
 10
486.70938732730002
 20
-306.24909031419998
 30
0.0
 11
498.70938732730002
 21
-309.24909031419998
 31
0.0
  0
LINE
  5
4AE
  8
É}ÿg
 10
452.79772492029991
 20
-349.30740789689997
 30
0.0
 11
452.79772492029991
 21
-353.80740789689997
 31
0.0
  0
ARC
  5
4AF
  8
É}ÿg
 10
434.89620976880002
 20
-359.30740789689997
 30
0.0
 40
7.5
 50
270.0
 51
0.0
  0
LINE
  5
4B0
  8
É}ÿg
 10
326.9945935481
 20
-289.49909031419998
 30
0.0
 11
326.9945935481
 21
-371.99909031419998
 31
0.0
  0
INSERT
  5
4B1
  8
0
  6
CONTINUOUS
  2
*U205
 10
0.0
 20
0.0
 30
0.0
  0
INSERT
  5
4B2
  8
0
  6
CONTINUOUS
  2
*U206
 10
0.0
 20
0.0
 30
0.0
  0
INSERT
  5
4B3
  8
0
  6
CONTINUOUS
  2
*U207
 10
0.0
 20
0.0
 30
0.0
  0
INSERT
  5
4B4
  8
0
  6
CONTINUOUS
  2
*U208
 10
0.0
 20
0.0
 30
0.0
  0
LINE
  5
4B5
  8
É}ÿg
 10
420.7445935481
 20
-316.99909031419998
 30
0.0
 11
420.7445935481
 21
-344.49909031419998
 31
0.0
  0
LINE
  5
4B6
  8
É}ÿg
 10
326.9945935481
 20
-344.49909031419998
 30
0.0
 11
689.49459354809994
 21
-344.49909031419998
 31
0.0
  0
LINE
  5
4B7
  8
É}ÿg
 10
333.2445935481
 20
-330.74909031419998
 30
0.0
 11
414.4945935481
 21
-330.74909031419998
 31
0.0
  0
LINE
  5
4B8
  8
É}ÿg
 10
426.9945935481
 20
-330.74909031419998
 30
0.0
 11
508.2445935481
 21
-330.74909031419998
 31
0.0
  0
INSERT
  5
4B9
  8
0
  6
CONTINUOUS
  2
*U209
 10
0.0
 20
0.0
 30
0.0
  0
INSERT
  5
4BA
  8
0
  6
CONTINUOUS
  2
*U210
 10
0.0
 20
0.0
 30
0.0
  0
LINE
  5
4BB
  8
É}ÿg
 10
349.4945935481
 20
-276.99909031419998
 30
0.0
 11
349.4945935481
 21
-264.49909031419998
 31
0.0
  0
LINE
  5
4BC
  8
É}ÿg
 10
326.9945935481
 20
-276.99909031419998
 30
0.0
 11
326.9945935481
 21
-264.49909031419998
 31
0.0
  0
LINE
  5
4BD
  8
É}ÿg
 10
611.99459354809994
 20
-276.99909031419998
 30
0.0
 11
611.99459354809994
 21
-264.49909031419998
 31
0.0
  0
LINE
  5
4BE
  8
É}ÿg
 10
589.49459354809994
 20
-276.99909031419998
 30
0.0
 11
589.49459354809994
 21
-264.49909031419998
 31
0.0
  0
LINE
  5
4BF
  8
É}ÿg
 10
689.49459354809994
 20
-264.49909031419998
 30
0.0
 11
326.9945935481
 21
-264.49909031419998
 31
0.0
  0
LINE
  5
4C0
  8
É}ÿg
 10
326.9945935481
 20
-276.99909031419998
 30
0.0
 11
689.49459354809994
 21
-276.99909031419998
 31
0.0
  0
LINE
  5
4C1
  8
É}ÿg
 10
474.49459354809989
 20
-276.99909031419998
 30
0.0
 11
474.49459354809989
 21
-264.49909031419998
 31
0.0
  0
INSERT
  5
4C2
  8
0
  6
CONTINUOUS
  2
*U211
 10
0.0
 20
0.0
 30
0.0
  0
INSERT
  5
4C3
  8
0
  6
CONTINUOUS
  2
*U212
 10
0.0
 20
0.0
 30
0.0
  0
CIRCLE
  5
4C4
  8
É}ÿg
 10
472.9945935481
 20
-303.24909031419998
 30
0.0
 40
3.0
  0
LINE
  5
4C5
  8
É}ÿg
 10
486.70938732730002
 20
-306.24909031419998
 30
0.0
 11
498.70938732730002
 21
-309.24909031419998
 31
0.0
  0
LINE
  5
4C6
  8
É}ÿg
 10
486.70938732730002
 20
-300.24909031419998
 30
0.0
 11
486.70938732730002
 21
-306.24909031419998
 31
0.0
  0
LINE
  5
4C7
  8
É}ÿg
 10
498.70938732730002
 20
-297.24909031419998
 30
0.0
 11
498.70938732730002
 21
-309.24909031419998
 31
0.0
  0
LINE
  5
4C8
  8
É}ÿg
  6
BORDER
 10
472.9945935481
 20
-294.24909031419998
 30
0.0
 11
472.9945935481
 21
-312.24909031419998
 31
0.0
  0
LINE
  5
4C9
  8
É}ÿg
  6
BORDER
 10
472.9945935481
 20
-294.24909031419998
 30
0.0
 11
472.9945935481
 21
-312.24909031419998
 31
0.0
  0
LINE
  5
4CA
  8
É}ÿg
 10
498.70938732730002
 20
-297.24909031419998
 30
0.0
 11
498.70938732730002
 21
-309.24909031419998
 31
0.0
  0
LINE
  5
4CB
  8
É}ÿg
 10
486.70938732730002
 20
-300.24909031419998
 30
0.0
 11
486.70938732730002
 21
-306.24909031419998
 31
0.0
  0
LINE
  5
4CC
  8
É}ÿg
 10
486.70938732730002
 20
-306.24909031419998
 30
0.0
 11
498.70938732730002
 21
-309.24909031419998
 31
0.0
  0
LINE
  5
4CD
  8
É}ÿg
 10
486.70938732730002
 20
-300.24909031419998
 30
0.0
 11
498.70938732730002
 21
-297.24909031419998
 31
0.0
  0
CIRCLE
  5
4CE
  8
É}ÿg
 10
472.9945935481
 20
-303.24909031419998
 30
0.0
 40
6.0
  0
CIRCLE
  5
4CF
  8
É}ÿg
 10
472.9945935481
 20
-303.24909031419998
 30
0.0
 40
3.0
  0
CIRCLE
  5
4D0
  8
É}ÿg
 10
472.9945935481
 20
-303.24909031419998
 30
0.0
 40
6.0
  0
LINE
  5
4D1
  8
É}ÿg
 10
486.70938732730002
 20
-300.24909031419998
 30
0.0
 11
498.70938732730002
 21
-297.24909031419998
 31
0.0
  0
ENDBLK
  5
4D2
  8
0
  0
BLOCK
  8
0
  2
CLUMP120
 70
     0
 10
0.0
 20
0.0
 30
0.0
  3
CLUMP120
  1

  0
LINE
  5
4E7
  8
É}ÿg
 10
474.49459354809989
 20
-264.49909031419998
 30
0.0
 11
474.49459354809989
 21
-251.9990903142
 31
0.0
  0
LINE
  5
4E8
  8
É}ÿg
 10
326.9945935481
 20
-264.49909031419998
 30
0.0
 11
326.9945935481
 21
-251.9990903142
 31
0.0
  0
LINE
  5
4E9
  8
É}ÿg
 10
349.4945935481
 20
-264.49909031419998
 30
0.0
 11
349.4945935481
 21
-251.9990903142
 31
0.0
  0
LINE
  5
4EA
  8
É}ÿg
 10
611.99459354809994
 20
-264.49909031419998
 30
0.0
 11
611.99459354809994
 21
-251.9990903142
 31
0.0
  0
LINE
  5
4EB
  8
É}ÿg
 10
589.49459354809994
 20
-264.49909031419998
 30
0.0
 11
589.49459354809994
 21
-251.9990903142
 31
0.0
  0
LINE
  5
4EC
  8
É}ÿg
 10
689.49459354809994
 20
-251.9990903142
 30
0.0
 11
326.9945935481
 21
-251.9990903142
 31
0.0
  0
ENDBLK
  5
4ED
  8
0
  0
BLOCK
  8
0
  2
CLUMP121
 70
     0
 10
0.0
 20
0.0
 30
0.0
  3
CLUMP121
  1

  0
LINE
  5
4F1
  8
É}ÿg
 10
474.49459354809989
 20
-251.9990903142
 30
0.0
 11
474.49459354809989
 21
-239.4990903142
 31
0.0
  0
LINE
  5
4F2
  8
É}ÿg
 10
326.9945935481
 20
-251.9990903142
 30
0.0
 11
326.9945935481
 21
-239.4990903142
 31
0.0
  0
LINE
  5
4F3
  8
É}ÿg
 10
349.4945935481
 20
-251.9990903142
 30
0.0
 11
349.4945935481
 21
-239.4990903142
 31
0.0
  0
LINE
  5
4F4
  8
É}ÿg
 10
611.99459354809994
 20
-251.9990903142
 30
0.0
 11
611.99459354809994
 21
-239.4990903142
 31
0.0
  0
LINE
  5
4F5
  8
É}ÿg
 10
589.49459354809994
 20
-251.9990903142
 30
0.0
 11
589.49459354809994
 21
-239.4990903142
 31
0.0
  0
LINE
  5
4F6
  8
É}ÿg
 10
689.49459354809994
 20
-239.4990903142
 30
0.0
 11
326.9945935481
 21
-239.4990903142
 31
0.0
  0
ENDBLK
  5
4F7
  8
0
  0
BLOCK
  8
0
  2
*D137
 70
     1
 10
0.0
 20
0.0
 30
0.0
  3
*D137
  1

  0
TEXT
  5
4FB
  8
0
 62
     0
 10
349.6027776171
 20
269.75015008219998
 30
0.0
 40
8.2461809158000001
  1
9
  0
LINE
  5
4FC
  8
0
 62
     0
 10
357.0416067708
 20
238.46297528509999
 30
0.0
 11
357.0416067708
 21
268.29494168529999
 31
0.0
  0
LINE
  5
4FD
  8
0
 62
     0
 10
348.0416067708
 20
229.46297528509999
 30
0.0
 11
348.0416067708
 21
268.29494168529999
 31
0.0
  0
LINE
  5
4FE
  8
0
 62
     0
 10
357.0416067708
 20
267.29494168529999
 30
0.0
 11
357.0416067708
 21
267.29494168529999
 31
0.0
  0
LINE
  5
4FF
  8
0
 62
     0
 10
357.0416067708
 20
267.29494168529999
 30
0.0
 11
348.0416067708
 21
267.29494168529999
 31
0.0
  0
LINE
  5
500
  8
0
 62
     0
 10
348.0416067708
 20
267.29494168529999
 30
0.0
 11
357.0416067708
 21
267.29494168529999
 31
0.0
  0
LINE
  5
501
  8
0
 62
     0
 10
348.0416067708
 20
267.29494168529999
 30
0.0
 11
348.0416067708
 21
267.29494168529999
 31
0.0
  0
LINE
  5
502
  8
0
 62
     0
 10
348.0416067708
 20
267.29494168529999
 30
0.0
 11
341.0416067708
 21
267.29494168529999
 31
0.0
  0
SOLID
  5
503
  8
0
 62
     0
 10
348.0416067708
 20
267.29494168529999
 30
0.0
 11
340.5416067708
 21
265.41994168529999
 31
0.0
 12
340.5416067708
 22
269.16994168529999
 32
0.0
 13
342.4166067708
 23
267.29494168529999
 33
0.0
  0
LINE
  5
504
  8
0
 62
     0
 10
357.0416067708
 20
267.29494168529999
 30
0.0
 11
364.0416067708
 21
267.29494168529999
 31
0.0
  0
SOLID
  5
505
  8
0
 62
     0
 10
357.0416067708
 20
267.29494168529999
 30
0.0
 11
364.5416067708
 21
269.16994168529999
 31
0.0
 12
364.5416067708
 22
265.41994168529999
 32
0.0
 13
362.6666067708
 23
267.29494168529999
 33
0.0
  0
ENDBLK
  5
506
  8
0
  0
BLOCK
  8
0
  2
*D138
 70
     1
 10
0.0
 20
0.0
 30
0.0
  3
*D138
  1

  0
TEXT
  5
50A
  8
0
 62
     0
 10
375.7667114843
 20
5.4930314125999988
 30
0.0
 40
8.2461809158000001
  1
6
 50
90.0
  0
LINE
  5
50B
  8
0
 62
     0
 10
358.24160677079999
 20
4.9183787407999988
 30
0.0
 11
379.22191988119999
 21
4.9183787407999988
 31
0.0
  0
LINE
  5
50C
  8
0
 62
     0
 10
359.0416067708
 20
10.9183787408
 30
0.0
 11
379.22191988119999
 21
10.9183787408
 31
0.0
  0
LINE
  5
50D
  8
0
 62
     0
 10
378.22191988120011
 20
4.9183787407999988
 30
0.0
 11
378.22191988120011
 21
4.9183787407999988
 31
0.0
  0
LINE
  5
50E
  8
0
 62
     0
 10
378.22191988120011
 20
4.9183787407999988
 30
0.0
 11
378.22191988120011
 21
10.9183787408
 31
0.0
  0
LINE
  5
50F
  8
0
 62
     0
 10
378.22191988120011
 20
10.9183787408
 30
0.0
 11
378.22191988120011
 21
4.9183787407999988
 31
0.0
  0
LINE
  5
510
  8
0
 62
     0
 10
378.22191988120011
 20
10.9183787408
 30
0.0
 11
378.22191988120011
 21
10.9183787408
 31
0.0
  0
LINE
  5
511
  8
0
 62
     0
 10
378.22191988120011
 20
10.9183787408
 30
0.0
 11
378.22191988120011
 21
17.918378740800001
 31
0.0
  0
SOLID
  5
512
  8
0
 62
     0
 10
378.22191988120011
 20
10.9183787408
 30
0.0
 11
376.34691988119999
 21
18.418378740800001
 31
0.0
 12
380.09691988119999
 22
18.418378740800001
 32
0.0
 13
378.22191988120011
 23
16.543378740800001
 33
0.0
  0
LINE
  5
513
  8
0
 62
     0
 10
378.22191988120011
 20
4.9183787407999988
 30
0.0
 11
378.22191988120011
 21
-2.081621259199999
 31
0.0
  0
SOLID
  5
514
  8
0
 62
     0
 10
378.22191988120011
 20
4.9183787407999988
 30
0.0
 11
380.09691988119999
 21
-2.581621259199999
 31
0.0
 12
376.34691988119999
 22
-2.581621259199999
 32
0.0
 13
378.22191988120011
 23
-0.7066212592
 33
0.0
  0
ENDBLK
  5
515
  8
0
  0
BLOCK
  8
0
  2
*D139
 70
     1
 10
0.0
 20
0.0
 30
0.0
  3
*D139
  1

  0
TEXT
  5
519
  8
0
 62
     0
 10
375.7667114843
 20
29.493031412600001
 30
0.0
 40
8.2461809158000001
  1
6
 50
90.0
  0
LINE
  5
51A
  8
0
 62
     0
 10
359.0416067708
 20
28.918378740800001
 30
0.0
 11
379.22191988119999
 21
28.918378740800001
 31
0.0
  0
LINE
  5
51B
  8
0
 62
     0
 10
358.24160677079999
 20
34.918378740800001
 30
0.0
 11
379.22191988119999
 21
34.918378740800001
 31
0.0
  0
LINE
  5
51C
  8
0
 62
     0
 10
378.22191988120011
 20
28.918378740800001
 30
0.0
 11
378.22191988120011
 21
28.918378740800001
 31
0.0
  0
LINE
  5
51D
  8
0
 62
     0
 10
378.22191988120011
 20
28.918378740800001
 30
0.0
 11
378.22191988120011
 21
34.918378740800001
 31
0.0
  0
LINE
  5
51E
  8
0
 62
     0
 10
378.22191988120011
 20
34.918378740800001
 30
0.0
 11
378.22191988120011
 21
28.918378740800001
 31
0.0
  0
LINE
  5
51F
  8
0
 62
     0
 10
378.22191988120011
 20
34.918378740800001
 30
0.0
 11
378.22191988120011
 21
34.918378740800001
 31
0.0
  0
LINE
  5
520
  8
0
 62
     0
 10
378.22191988120011
 20
34.918378740800001
 30
0.0
 11
378.22191988120011
 21
41.918378740799987
 31
0.0
  0
SOLID
  5
521
  8
0
 62
     0
 10
378.22191988120011
 20
34.918378740800001
 30
0.0
 11
376.34691988119999
 21
42.418378740800001
 31
0.0
 12
380.09691988119999
 22
42.418378740800001
 32
0.0
 13
378.22191988120011
 23
40.543378740800001
 33
0.0
  0
LINE
  5
522
  8
0
 62
     0
 10
378.22191988120011
 20
28.918378740800001
 30
0.0
 11
378.22191988120011
 21
21.918378740800001
 31
0.0
  0
SOLID
  5
523
  8
0
 62
     0
 10
378.22191988120011
 20
28.918378740800001
 30
0.0
 11
380.09691988119999
 21
21.418378740800001
 31
0.0
 12
376.34691988119999
 22
21.418378740800001
 32
0.0
 13
378.22191988120011
 23
23.293378740800001
 33
0.0
  0
ENDBLK
  5
524
  8
0
  0
BLOCK
  8
0
  2
*D140
 70
     1
 10
0.0
 20
0.0
 30
0.0
  3
*D140
  1

  0
TEXT
  5
528
  8
0
 62
     0
 10
474.3175996144999
 20
280.42140882040002
 30
0.0
 40
8.2461809158000001
  1
30
  0
LINE
  5
529
  8
0
 62
     0
 10
494.16829427079989
 20
237.82736070179999
 30
0.0
 11
494.16829427079989
 21
278.96620042350003
 31
0.0
  0
LINE
  5
52A
  8
0
 62
     0
 10
464.16829427079989
 20
237.82736070179999
 30
0.0
 11
464.16829427079989
 21
278.96620042350003
 31
0.0
  0
LINE
  5
52B
  8
0
 62
     0
 10
494.16829427079989
 20
277.96620042349991
 30
0.0
 11
488.86968358359991
 21
277.96620042349991
 31
0.0
  0
LINE
  5
52C
  8
0
 62
     0
 10
494.16829427079989
 20
277.96620042349991
 30
0.0
 11
469.46690495809992
 21
277.96620042349991
 31
0.0
  0
LINE
  5
52D
  8
0
 62
     0
 10
464.16829427079989
 20
277.96620042349991
 30
0.0
 11
488.86968358359991
 21
277.96620042349991
 31
0.0
  0
LINE
  5
52E
  8
0
 62
     0
 10
464.16829427079989
 20
277.96620042349991
 30
0.0
 11
469.46690495809992
 21
277.96620042349991
 31
0.0
  0
LINE
  5
52F
  8
0
 62
     0
 10
464.16829427079989
 20
277.96620042349991
 30
0.0
 11
457.1682942708
 21
277.96620042349991
 31
0.0
  0
SOLID
  5
530
  8
0
 62
     0
 10
464.16829427079989
 20
277.96620042349991
 30
0.0
 11
456.66829427079989
 21
276.09120042350003
 31
0.0
 12
456.66829427079989
 22
279.84120042350003
 32
0.0
 13
458.5432942708
 23
277.96620042349991
 33
0.0
  0
LINE
  5
531
  8
0
 62
     0
 10
494.16829427079989
 20
277.96620042349991
 30
0.0
 11
501.1682942708
 21
277.96620042349991
 31
0.0
  0
SOLID
  5
532
  8
0
 62
     0
 10
494.16829427079989
 20
277.96620042349991
 30
0.0
 11
501.66829427079989
 21
279.84120042350003
 31
0.0
 12
501.66829427079989
 22
276.09120042350003
 32
0.0
 13
499.7932942708
 23
277.96620042349991
 33
0.0
  0
ENDBLK
  5
533
  8
0
  0
BLOCK
  8
0
  2
*D141
 70
     1
 10
0.0
 20
0.0
 30
0.0
  3
*D141
  1

  0
TEXT
  5
537
  8
0
 62
     0
 10
466.57712303599988
 20
267.84831540610003
 30
0.0
 40
8.2461809158000001
  1
15
  0
LINE
  5
538
  8
0
 62
     0
 10
479.1682942708
 20
229.6273607018
 30
0.0
 11
479.1682942708
 21
266.39310700909999
 31
0.0
  0
LINE
  5
539
  8
0
 62
     0
 10
464.16829427079989
 20
237.82736070179999
 30
0.0
 11
464.16829427079989
 21
266.39310700909999
 31
0.0
  0
LINE
  5
53A
  8
0
 62
     0
 10
479.1682942708
 20
265.39310700909999
 30
0.0
 11
479.1682942708
 21
265.39310700909999
 31
0.0
  0
LINE
  5
53B
  8
0
 62
     0
 10
479.1682942708
 20
265.39310700909999
 30
0.0
 11
464.16829427079989
 21
265.39310700909999
 31
0.0
  0
LINE
  5
53C
  8
0
 62
     0
 10
464.16829427079989
 20
265.39310700909999
 30
0.0
 11
479.1682942708
 21
265.39310700909999
 31
0.0
  0
LINE
  5
53D
  8
0
 62
     0
 10
464.16829427079989
 20
265.39310700909999
 30
0.0
 11
464.16829427079989
 21
265.39310700909999
 31
0.0
  0
LINE
  5
53E
  8
0
 62
     0
 10
464.16829427079989
 20
265.39310700909999
 30
0.0
 11
471.1682942708
 21
265.39310700909999
 31
0.0
  0
SOLID
  5
53F
  8
0
 62
     0
 10
464.16829427079989
 20
265.39310700909999
 30
0.0
 11
471.6682942708
 21
267.26810700909999
 31
0.0
 12
471.6682942708
 22
263.51810700909999
 32
0.0
 13
469.7932942708
 23
265.39310700909999
 33
0.0
  0
LINE
  5
540
  8
0
 62
     0
 10
479.1682942708
 20
265.39310700909999
 30
0.0
 11
472.1682942708
 21
265.39310700909999
 31
0.0
  0
SOLID
  5
541
  8
0
 62
     0
 10
479.1682942708
 20
265.39310700909999
 30
0.0
 11
471.6682942708
 21
263.51810700909999
 31
0.0
 12
471.6682942708
 22
267.26810700909999
 32
0.0
 13
473.54329427079989
 23
265.39310700909999
 33
0.0
  0
ENDBLK
  5
542
  8
0
  0
BLOCK
  8
0
  2
*D142
 70
     1
 10
0.0
 20
0.0
 30
0.0
  3
*D142
  1

  0
TEXT
  5
546
  8
0
 62
     0
 10
620.51049308649988
 20
155.35084736300001
 30
0.0
 40
8.2461809158000001
  1
120
 50
90.0
  0
LINE
  5
547
  8
0
 62
     0
 10
603.55079021330005
 20
102.6268893476
 30
0.0
 11
623.96570148339993
 21
102.6268893476
 31
0.0
  0
LINE
  5
548
  8
0
 62
     0
 10
603.55079021330005
 20
222.62688934760001
 30
0.0
 11
623.96570148339993
 21
222.62688934760001
 31
0.0
  0
LINE
  5
549
  8
0
 62
     0
 10
622.96570148339993
 20
102.6268893476
 30
0.0
 11
622.96570148339993
 21
174.75362598849989
 31
0.0
  0
LINE
  5
54A
  8
0
 62
     0
 10
622.96570148339993
 20
102.6268893476
 30
0.0
 11
622.96570148339993
 21
150.50015270669999
 31
0.0
  0
LINE
  5
54B
  8
0
 62
     0
 10
622.96570148339993
 20
222.62688934760001
 30
0.0
 11
622.96570148339993
 21
174.75362598849989
 31
0.0
  0
LINE
  5
54C
  8
0
 62
     0
 10
622.96570148339993
 20
222.62688934760001
 30
0.0
 11
622.96570148339993
 21
150.50015270669999
 31
0.0
  0
LINE
  5
54D
  8
0
 62
     0
 10
622.96570148339993
 20
222.62688934760001
 30
0.0
 11
622.96570148339993
 21
215.62688934760001
 31
0.0
  0
SOLID
  5
54E
  8
0
 62
     0
 10
622.96570148339993
 20
222.62688934760001
 30
0.0
 11
624.84070148339993
 21
215.12688934760001
 31
0.0
 12
621.09070148339993
 22
215.12688934760001
 32
0.0
 13
622.96570148339993
 23
217.00188934760001
 33
0.0
  0
LINE
  5
54F
  8
0
 62
     0
 10
622.96570148339993
 20
102.6268893476
 30
0.0
 11
622.96570148339993
 21
109.6268893476
 31
0.0
  0
SOLID
  5
550
  8
0
 62
     0
 10
622.96570148339993
 20
102.6268893476
 30
0.0
 11
621.09070148339993
 21
110.1268893476
 31
0.0
 12
624.84070148339993
 22
110.1268893476
 32
0.0
 13
622.96570148339993
 23
108.2518893476
 33
0.0
  0
ENDBLK
  5
551
  8
0
  0
BLOCK
  8
0
  2
*D143
 70
     1
 10
0.0
 20
0.0
 30
0.0
  3
*D143
  1

  0
TEXT
  5
555
  8
0
 62
     0
 10
514.63838761650004
 20
155.35084736300001
 30
0.0
 40
8.2461809158000001
  1
117
 50
90.0
  0
LINE
  5
556
  8
0
 62
     0
 10
495.36829427079999
 20
104.1264179934
 30
0.0
 11
518.09359601339986
 21
104.1264179934
 31
0.0
  0
LINE
  5
557
  8
0
 62
     0
 10
495.36829427079999
 20
221.1273607018
 30
0.0
 11
518.09359601339986
 21
221.1273607018
 31
0.0
  0
LINE
  5
558
  8
0
 62
     0
 10
517.09359601339986
 20
104.1264179934
 30
0.0
 11
517.09359601339986
 21
174.75362598849989
 31
0.0
  0
LINE
  5
559
  8
0
 62
     0
 10
517.09359601339986
 20
104.1264179934
 30
0.0
 11
517.09359601339986
 21
150.50015270669999
 31
0.0
  0
LINE
  5
55A
  8
0
 62
     0
 10
517.09359601339986
 20
221.1273607018
 30
0.0
 11
517.09359601339986
 21
174.75362598849989
 31
0.0
  0
LINE
  5
55B
  8
0
 62
     0
 10
517.09359601339986
 20
221.1273607018
 30
0.0
 11
517.09359601339986
 21
150.50015270669999
 31
0.0
  0
LINE
  5
55C
  8
0
 62
     0
 10
517.09359601339986
 20
221.1273607018
 30
0.0
 11
517.09359601339986
 21
214.1273607018
 31
0.0
  0
SOLID
  5
55D
  8
0
 62
     0
 10
517.09359601339986
 20
221.1273607018
 30
0.0
 11
518.96859601339986
 21
213.6273607018
 31
0.0
 12
515.21859601339997
 22
213.6273607018
 32
0.0
 13
517.09359601339986
 23
215.5023607018
 33
0.0
  0
LINE
  5
55E
  8
0
 62
     0
 10
517.09359601339986
 20
104.1264179934
 30
0.0
 11
517.09359601339986
 21
111.1264179934
 31
0.0
  0
SOLID
  5
55F
  8
0
 62
     0
 10
517.09359601339986
 20
104.1264179934
 30
0.0
 11
515.21859601339997
 21
111.6264179934
 31
0.0
 12
518.96859601339986
 22
111.6264179934
 32
0.0
 13
517.09359601339986
 23
109.7514179934
 33
0.0
  0
ENDBLK
  5
560
  8
0
  0
BLOCK
  8
0
  2
*D144
 70
     1
 10
0.0
 20
0.0
 30
0.0
  3
*D144
  1

  0
TEXT
  5
564
  8
0
 62
     0
 10
620.51049308649988
 20
90.776194691200004
 30
0.0
 40
8.2461809158000001
  1
14
 50
90.0
  0
LINE
  5
565
  8
0
 62
     0
 10
603.55079021330005
 20
88.626889347599985
 30
0.0
 11
623.96570148339993
 21
88.626889347599985
 31
0.0
  0
LINE
  5
566
  8
0
 62
     0
 10
603.55079021330005
 20
102.6268893476
 30
0.0
 11
623.96570148339993
 21
102.6268893476
 31
0.0
  0
LINE
  5
567
  8
0
 62
     0
 10
622.96570148339993
 20
88.626889347599985
 30
0.0
 11
622.96570148339993
 21
88.626889347599985
 31
0.0
  0
LINE
  5
568
  8
0
 62
     0
 10
622.96570148339993
 20
88.626889347599985
 30
0.0
 11
622.96570148339993
 21
102.6268893476
 31
0.0
  0
LINE
  5
569
  8
0
 62
     0
 10
622.96570148339993
 20
102.6268893476
 30
0.0
 11
622.96570148339993
 21
88.626889347599985
 31
0.0
  0
LINE
  5
56A
  8
0
 62
     0
 10
622.96570148339993
 20
102.6268893476
 30
0.0
 11
622.96570148339993
 21
102.6268893476
 31
0.0
  0
LINE
  5
56B
  8
0
 62
     0
 10
622.96570148339993
 20
102.6268893476
 30
0.0
 11
622.96570148339993
 21
109.6268893476
 31
0.0
  0
SOLID
  5
56C
  8
0
 62
     0
 10
622.96570148339993
 20
102.6268893476
 30
0.0
 11
621.09070148339993
 21
110.1268893476
 31
0.0
 12
624.84070148339993
 22
110.1268893476
 32
0.0
 13
622.96570148339993
 23
108.2518893476
 33
0.0
  0
LINE
  5
56D
  8
0
 62
     0
 10
622.96570148339993
 20
88.626889347599985
 30
0.0
 11
622.96570148339993
 21
81.626889347599999
 31
0.0
  0
SOLID
  5
56E
  8
0
 62
     0
 10
622.96570148339993
 20
88.626889347599985
 30
0.0
 11
624.84070148339993
 21
81.126889347599985
 31
0.0
 12
621.09070148339993
 22
81.126889347599985
 32
0.0
 13
622.96570148339993
 23
83.001889347599985
 33
0.0
  0
ENDBLK
  5
56F
  8
0
  0
BLOCK
  8
0
  2
*D145
 70
     1
 10
0.0
 20
0.0
 30
0.0
  3
*D145
  1

  0
TEXT
  5
573
  8
0
 62
     0
 10
569.20009555690001
 20
279.6501015897
 30
0.0
 40
8.2461809158000001
  1
55
  0
LINE
  5
574
  8
0
 62
     0
 10
601.55079021330005
 20
237.8268893476
 30
0.0
 11
601.55079021330005
 21
278.19489319280001
 31
0.0
  0
LINE
  5
575
  8
0
 62
     0
 10
546.55079021330005
 20
237.8268893476
 30
0.0
 11
546.55079021330005
 21
278.19489319280001
 31
0.0
  0
LINE
  5
576
  8
0
 62
     0
 10
601.55079021330005
 20
277.19489319280001
 30
0.0
 11
583.75217952599985
 21
277.19489319280001
 31
0.0
  0
LINE
  5
577
  8
0
 62
     0
 10
601.55079021330005
 20
277.19489319280001
 30
0.0
 11
564.34940090049997
 21
277.19489319280001
 31
0.0
  0
LINE
  5
578
  8
0
 62
     0
 10
546.55079021330005
 20
277.19489319280001
 30
0.0
 11
583.75217952599985
 21
277.19489319280001
 31
0.0
  0
LINE
  5
579
  8
0
 62
     0
 10
546.55079021330005
 20
277.19489319280001
 30
0.0
 11
564.34940090049997
 21
277.19489319280001
 31
0.0
  0
LINE
  5
57A
  8
0
 62
     0
 10
546.55079021330005
 20
277.19489319280001
 30
0.0
 11
553.55079021330005
 21
277.19489319280001
 31
0.0
  0
SOLID
  5
57B
  8
0
 62
     0
 10
546.55079021330005
 20
277.19489319280001
 30
0.0
 11
554.05079021330005
 21
279.06989319280001
 31
0.0
 12
554.05079021330005
 22
275.31989319280001
 32
0.0
 13
552.17579021330005
 23
277.19489319280001
 33
0.0
  0
LINE
  5
57C
  8
0
 62
     0
 10
601.55079021330005
 20
277.19489319280001
 30
0.0
 11
594.55079021330005
 21
277.19489319280001
 31
0.0
  0
SOLID
  5
57D
  8
0
 62
     0
 10
601.55079021330005
 20
277.19489319280001
 30
0.0
 11
594.05079021330005
 21
275.31989319280001
 31
0.0
 12
594.05079021330005
 22
279.06989319280001
 32
0.0
 13
595.92579021330005
 23
277.19489319280001
 33
0.0
  0
ENDBLK
  5
57E
  8
0
  0
BLOCK
  8
0
  2
*D146
 70
     1
 10
0.0
 20
0.0
 30
0.0
  3
*D146
  1

  0
TEXT
  5
582
  8
0
 62
     0
 10
581.70009555690001
 20
268.01896450480001
 30
0.0
 40
8.2461809158000001
  1
30
  0
LINE
  5
583
  8
0
 62
     0
 10
601.55079021330005
 20
238.62688934760001
 30
0.0
 11
601.55079021330005
 21
266.56375610790002
 31
0.0
  0
LINE
  5
584
  8
0
 62
     0
 10
571.55079021330005
 20
229.62688934760001
 30
0.0
 11
571.55079021330005
 21
266.56375610790002
 31
0.0
  0
LINE
  5
585
  8
0
 62
     0
 10
601.55079021330005
 20
265.56375610790002
 30
0.0
 11
596.25217952599985
 21
265.56375610790002
 31
0.0
  0
LINE
  5
586
  8
0
 62
     0
 10
601.55079021330005
 20
265.56375610790002
 30
0.0
 11
576.84940090049997
 21
265.56375610790002
 31
0.0
  0
LINE
  5
587
  8
0
 62
     0
 10
571.55079021330005
 20
265.56375610790002
 30
0.0
 11
596.25217952599985
 21
265.56375610790002
 31
0.0
  0
LINE
  5
588
  8
0
 62
     0
 10
571.55079021330005
 20
265.56375610790002
 30
0.0
 11
576.84940090049997
 21
265.56375610790002
 31
0.0
  0
LINE
  5
589
  8
0
 62
     0
 10
571.55079021330005
 20
265.56375610790002
 30
0.0
 11
564.55079021330005
 21
265.56375610790002
 31
0.0
  0
SOLID
  5
58A
  8
0
 62
     0
 10
571.55079021330005
 20
265.56375610790002
 30
0.0
 11
564.05079021330005
 21
263.68875610790002
 31
0.0
 12
564.05079021330005
 22
267.43875610790002
 32
0.0
 13
565.92579021330005
 23
265.56375610790002
 33
0.0
  0
LINE
  5
58B
  8
0
 62
     0
 10
601.55079021330005
 20
265.56375610790002
 30
0.0
 11
608.55079021330005
 21
265.56375610790002
 31
0.0
  0
SOLID
  5
58C
  8
0
 62
     0
 10
601.55079021330005
 20
265.56375610790002
 30
0.0
 11
609.05079021330005
 21
267.43875610790002
 31
0.0
 12
609.05079021330005
 22
263.68875610790002
 32
0.0
 13
607.17579021330005
 23
265.56375610790002
 33
0.0
  0
ENDBLK
  5
58D
  8
0
  0
BLOCK
  8
0
  2
*D147
 70
     1
 10
0.0
 20
0.0
 30
0.0
  3
*D147
  1

  0
TEXT
  5
591
  8
0
 62
     0
 10
-12.020566081
 20
-47.5405575196
 30
0.0
 40
8.2461809158000001
  1
578.5
  0
LINE
  5
592
  8
0
 62
     0
 10
287.94138461850002
 20
-72.995765916499991
 30
0.0
 11
287.94138461850002
 21
-48.995765916499991
 31
0.0
  0
LINE
  5
593
  8
0
 62
     0
 10
-290.55861538149998
 20
-72.995765916499991
 30
0.0
 11
-290.55861538149998
 21
-48.995765916499991
 31
0.0
  0
LINE
  5
594
  8
0
 62
     0
 10
287.94138461850002
 20
-49.995765916499998
 30
0.0
 11
14.2540299744
 21
-49.995765916499998
 31
0.0
  0
LINE
  5
595
  8
0
 62
     0
 10
287.94138461850002
 20
-49.995765916499998
 30
0.0
 11
-16.8712607374
 21
-49.995765916499998
 31
0.0
  0
LINE
  5
596
  8
0
 62
     0
 10
-290.55861538149998
 20
-49.995765916499998
 30
0.0
 11
14.2540299744
 21
-49.995765916499998
 31
0.0
  0
LINE
  5
597
  8
0
 62
     0
 10
-290.55861538149998
 20
-49.995765916499998
 30
0.0
 11
-16.8712607374
 21
-49.995765916499998
 31
0.0
  0
LINE
  5
598
  8
0
 62
     0
 10
-290.55861538149998
 20
-49.995765916499998
 30
0.0
 11
-283.55861538149998
 21
-49.995765916499998
 31
0.0
  0
SOLID
  5
599
  8
0
 62
     0
 10
-290.55861538149998
 20
-49.995765916499998
 30
0.0
 11
-283.05861538150009
 21
-48.120765916499998
 31
0.0
 12
-283.05861538150009
 22
-51.870765916499998
 32
0.0
 13
-284.93361538149998
 23
-49.995765916499998
 33
0.0
  0
LINE
  5
59A
  8
0
 62
     0
 10
287.94138461850002
 20
-49.995765916499998
 30
0.0
 11
280.94138461850002
 21
-49.995765916499998
 31
0.0
  0
SOLID
  5
59B
  8
0
 62
     0
 10
287.94138461850002
 20
-49.995765916499998
 30
0.0
 11
280.44138461850002
 21
-51.870765916499998
 31
0.0
 12
280.44138461850002
 22
-48.120765916499998
 32
0.0
 13
282.31638461850002
 23
-49.995765916499998
 33
0.0
  0
ENDBLK
  5
59C
  8
0
  0
BLOCK
  8
0
  2
*D148
 70
     1
 10
0.0
 20
0.0
 30
0.0
  3
*D148
  1

  0
TEXT
  5
5A0
  8
0
 62
     0
 10
50.765564786299997
 20
287.35711419350002
 30
0.0
 40
8.2461809158000001
  1
598
  0
LINE
  5
5A1
  8
0
 62
     0
 10
357.0416067708
 20
238.46297528509999
 30
0.0
 11
357.0416067708
 21
285.90190579659998
 31
0.0
  0
LINE
  5
5A2
  8
0
 62
     0
 10
-240.9583932292
 20
238.46297528509999
 30
0.0
 11
-240.9583932292
 21
285.90190579659998
 31
0.0
  0
LINE
  5
5A3
  8
0
 62
     0
 10
357.0416067708
 20
284.90190579659998
 30
0.0
 11
70.168343411799995
 21
284.90190579659998
 31
0.0
  0
LINE
  5
5A4
  8
0
 62
     0
 10
357.0416067708
 20
284.90190579659998
 30
0.0
 11
45.914870129900002
 21
284.90190579659998
 31
0.0
  0
LINE
  5
5A5
  8
0
 62
     0
 10
-240.9583932292
 20
284.90190579659998
 30
0.0
 11
70.168343411799995
 21
284.90190579659998
 31
0.0
  0
LINE
  5
5A6
  8
0
 62
     0
 10
-240.9583932292
 20
284.90190579659998
 30
0.0
 11
45.914870129900002
 21
284.90190579659998
 31
0.0
  0
LINE
  5
5A7
  8
0
 62
     0
 10
-240.9583932292
 20
284.90190579659998
 30
0.0
 11
-233.9583932292
 21
284.90190579659998
 31
0.0
  0
SOLID
  5
5A8
  8
0
 62
     0
 10
-240.9583932292
 20
284.90190579659998
 30
0.0
 11
-233.4583932292
 21
286.77690579659998
 31
0.0
 12
-233.4583932292
 22
283.02690579659998
 32
0.0
 13
-235.3333932292
 23
284.90190579659998
 33
0.0
  0
LINE
  5
5A9
  8
0
 62
     0
 10
357.0416067708
 20
284.90190579659998
 30
0.0
 11
350.0416067708
 21
284.90190579659998
 31
0.0
  0
SOLID
  5
5AA
  8
0
 62
     0
 10
357.0416067708
 20
284.90190579659998
 30
0.0
 11
349.5416067708
 21
283.02690579659998
 31
0.0
 12
349.5416067708
 22
286.77690579659998
 32
0.0
 13
351.4166067708
 23
284.90190579659998
 33
0.0
  0
ENDBLK
  5
5AB
  8
0
  0
BLOCK
  8
0
  2
*D149
 70
     1
 10
0.0
 20
0.0
 30
0.0
  3
*D149
  1

  0
TEXT
  5
5AF
  8
0
 62
     0
 10
-6.1590418086999987
 20
-226.5405568788
 30
0.0
 40
8.2461809158000001
  1
75
  0
LINE
  5
5B0
  8
0
 62
     0
 10
-38.808347152300001
 20
-191.49622685400001
 30
0.0
 11
-38.808347152300001
 21
-229.99576527569999
 31
0.0
  0
LINE
  5
5B1
  8
0
 62
     0
 10
36.191652847699999
 20
-191.49622685400001
 30
0.0
 11
36.191652847699999
 21
-229.99576527569999
 31
0.0
  0
LINE
  5
5B2
  8
0
 62
     0
 10
-38.808347152300001
 20
-228.99576527569999
 30
0.0
 11
8.3930421604000003
 21
-228.99576527569999
 31
0.0
  0
LINE
  5
5B3
  8
0
 62
     0
 10
-38.808347152300001
 20
-228.99576527569999
 30
0.0
 11
-11.0097364651
 21
-228.99576527569999
 31
0.0
  0
LINE
  5
5B4
  8
0
 62
     0
 10
36.191652847699999
 20
-228.99576527569999
 30
0.0
 11
8.3930421604000003
 21
-228.99576527569999
 31
0.0
  0
LINE
  5
5B5
  8
0
 62
     0
 10
36.191652847699999
 20
-228.99576527569999
 30
0.0
 11
-11.0097364651
 21
-228.99576527569999
 31
0.0
  0
LINE
  5
5B6
  8
0
 62
     0
 10
36.191652847699999
 20
-228.99576527569999
 30
0.0
 11
29.191652847699999
 21
-228.99576527569999
 31
0.0
  0
SOLID
  5
5B7
  8
0
 62
     0
 10
36.191652847699999
 20
-228.99576527569999
 30
0.0
 11
28.691652847699999
 21
-230.87076527569999
 31
0.0
 12
28.691652847699999
 22
-227.12076527569999
 32
0.0
 13
30.566652847699999
 23
-228.99576527569999
 33
0.0
  0
LINE
  5
5B8
  8
0
 62
     0
 10
-38.808347152300001
 20
-228.99576527569999
 30
0.0
 11
-31.808347152300001
 21
-228.99576527569999
 31
0.0
  0
SOLID
  5
5B9
  8
0
 62
     0
 10
-38.808347152300001
 20
-228.99576527569999
 30
0.0
 11
-31.308347152300001
 21
-227.12076527569999
 31
0.0
 12
-31.308347152300001
 22
-230.87076527569999
 32
0.0
 13
-33.183347152300001
 23
-228.99576527569999
 33
0.0
  0
ENDBLK
  5
5BA
  8
0
  0
BLOCK
  8
0
  2
*D150
 70
     1
 10
0.0
 20
0.0
 30
0.0
  3
*D150
  1

  0
TEXT
  5
5BE
  8
0
 62
     0
 10
50.252086268699998
 20
269.75015008219998
 30
0.0
 40
8.2461809158000001
  1
580
  0
LINE
  5
5BF
  8
0
 62
     0
 10
348.0416067708
 20
229.46297528509999
 30
0.0
 11
348.0416067708
 21
268.29494168529999
 31
0.0
  0
LINE
  5
5C0
  8
0
 62
     0
 10
-231.9583932292
 20
229.46297528509999
 30
0.0
 11
-231.9583932292
 21
268.29494168529999
 31
0.0
  0
LINE
  5
5C1
  8
0
 62
     0
 10
348.0416067708
 20
267.29494168529999
 30
0.0
 11
69.654864894200003
 21
267.29494168529999
 31
0.0
  0
LINE
  5
5C2
  8
0
 62
     0
 10
348.0416067708
 20
267.29494168529999
 30
0.0
 11
45.401391612399991
 21
267.29494168529999
 31
0.0
  0
LINE
  5
5C3
  8
0
 62
     0
 10
-231.9583932292
 20
267.29494168529999
 30
0.0
 11
69.654864894200003
 21
267.29494168529999
 31
0.0
  0
LINE
  5
5C4
  8
0
 62
     0
 10
-231.9583932292
 20
267.29494168529999
 30
0.0
 11
45.401391612399991
 21
267.29494168529999
 31
0.0
  0
LINE
  5
5C5
  8
0
 62
     0
 10
-231.9583932292
 20
267.29494168529999
 30
0.0
 11
-224.9583932292
 21
267.29494168529999
 31
0.0
  0
SOLID
  5
5C6
  8
0
 62
     0
 10
-231.9583932292
 20
267.29494168529999
 30
0.0
 11
-224.4583932292
 21
269.16994168529999
 31
0.0
 12
-224.4583932292
 22
265.41994168529999
 32
0.0
 13
-226.3333932292
 23
267.29494168529999
 33
0.0
  0
LINE
  5
5C7
  8
0
 62
     0
 10
348.0416067708
 20
267.29494168529999
 30
0.0
 11
341.0416067708
 21
267.29494168529999
 31
0.0
  0
SOLID
  5
5C8
  8
0
 62
     0
 10
348.0416067708
 20
267.29494168529999
 30
0.0
 11
340.5416067708
 21
265.41994168529999
 31
0.0
 12
340.5416067708
 22
269.16994168529999
 32
0.0
 13
342.4166067708
 23
267.29494168529999
 33
0.0
  0
ENDBLK
  5
5C9
  8
0
  0
BLOCK
  8
0
  2
*D151
 70
     1
 10
0.0
 20
0.0
 30
0.0
  3
*D151
  1

  0
TEXT
  5
5CD
  8
0
 62
     0
 10
310.4871768726
 20
-183.34692151039999
 30
0.0
 40
8.2461809158000001
  1
15
 50
90.0
  0
LINE
  5
5CE
  8
0
 62
     0
 10
274.19165284770003
 20
-185.99622685400001
 30
0.0
 11
313.94238526949999
 21
-185.99622685400001
 31
0.0
  0
LINE
  5
5CF
  8
0
 62
     0
 10
274.19165284770003
 20
-170.99622685400001
 30
0.0
 11
313.94238526949999
 21
-170.99622685400001
 31
0.0
  0
LINE
  5
5D0
  8
0
 62
     0
 10
312.94238526949999
 20
-185.99622685400001
 30
0.0
 11
312.94238526949999
 21
-185.99622685400001
 31
0.0
  0
LINE
  5
5D1
  8
0
 62
     0
 10
312.94238526949999
 20
-185.99622685400001
 30
0.0
 11
312.94238526949999
 21
-170.99622685400001
 31
0.0
  0
LINE
  5
5D2
  8
0
 62
     0
 10
312.94238526949999
 20
-170.99622685400001
 30
0.0
 11
312.94238526949999
 21
-185.99622685400001
 31
0.0
  0
LINE
  5
5D3
  8
0
 62
     0
 10
312.94238526949999
 20
-170.99622685400001
 30
0.0
 11
312.94238526949999
 21
-170.99622685400001
 31
0.0
  0
LINE
  5
5D4
  8
0
 62
     0
 10
312.94238526949999
 20
-170.99622685400001
 30
0.0
 11
312.94238526949999
 21
-163.99622685400001
 31
0.0
  0
SOLID
  5
5D5
  8
0
 62
     0
 10
312.94238526949999
 20
-170.99622685400001
 30
0.0
 11
311.06738526949999
 21
-163.4962268539999
 31
0.0
 12
314.81738526949999
 22
-163.4962268539999
 32
0.0
 13
312.94238526949999
 23
-165.37122685400001
 33
0.0
  0
LINE
  5
5D6
  8
0
 62
     0
 10
312.94238526949999
 20
-185.99622685400001
 30
0.0
 11
312.94238526949999
 21
-192.99622685400001
 31
0.0
  0
SOLID
  5
5D7
  8
0
 62
     0
 10
312.94238526949999
 20
-185.99622685400001
 30
0.0
 11
314.81738526949999
 21
-193.49622685400001
 31
0.0
 12
311.06738526949999
 22
-193.49622685400001
 32
0.0
 13
312.94238526949999
 23
-191.62122685400001
 33
0.0
  0
ENDBLK
  5
5D8
  8
0
  0
BLOCK
  8
0
  2
*D152
 70
     1
 10
0.0
 20
0.0
 30
0.0
  3
*D152
  1

  0
TEXT
  5
5DC
  8
0
 62
     0
 10
296.11301943900003
 20
-273.74030668490002
 30
0.0
 40
8.2461809158000001
  1
R5
 50
315.0
  0
LINE
  5
5DD
  8
0
 62
     0
 10
286.47791852440002
 20
-268.90714848930003
 30
0.0
 11
303.57318044879997
 21
-286.00241041369998
 31
0.0
  0
SOLID
  5
5DE
  8
0
 62
     0
 10
286.47791852440002
 20
-268.90714848930003
 30
0.0
 11
293.1070445981
 21
-272.8846241334
 31
0.0
 12
290.45539416859998
 22
-275.53627456290002
 32
0.0
 13
290.45539416859998
 23
-272.8846241334
 33
0.0
  0
ENDBLK
  5
5DF
  8
0
  0
BLOCK
  8
0
  2
*D153
 70
     1
 10
0.0
 20
0.0
 30
0.0
  3
*D153
  1

  0
TEXT
  5
5E3
  8
0
 62
     0
 10
310.48617622159998
 20
-163.53259975660001
 30
0.0
 40
8.2461809158000001
  1
31.5
 50
90.0
  0
LINE
  5
5E4
  8
0
 62
     0
 10
274.19165284770003
 20
-170.99622685400001
 30
0.0
 11
313.94138461850002
 21
-170.99622685400001
 31
0.0
  0
LINE
  5
5E5
  8
0
 62
     0
 10
294.94138461850002
 20
-139.49576591650001
 30
0.0
 11
313.94138461850002
 21
-139.49576591650001
 31
0.0
  0
LINE
  5
5E6
  8
0
 62
     0
 10
312.94138461850002
 20
-170.99622685400001
 30
0.0
 11
312.94138461850002
 21
-142.10869835759999
 31
0.0
  0
LINE
  5
5E7
  8
0
 62
     0
 10
312.94138461850002
 20
-170.99622685400001
 30
0.0
 11
312.94138461850002
 21
-168.38329441299999
 31
0.0
  0
LINE
  5
5E8
  8
0
 62
     0
 10
312.94138461850002
 20
-139.49576591650001
 30
0.0
 11
312.94138461850002
 21
-142.10869835759999
 31
0.0
  0
LINE
  5
5E9
  8
0
 62
     0
 10
312.94138461850002
 20
-139.49576591650001
 30
0.0
 11
312.94138461850002
 21
-168.38329441299999
 31
0.0
  0
LINE
  5
5EA
  8
0
 62
     0
 10
312.94138461850002
 20
-139.49576591650001
 30
0.0
 11
312.94138461850002
 21
-132.49576591650001
 31
0.0
  0
SOLID
  5
5EB
  8
0
 62
     0
 10
312.94138461850002
 20
-139.49576591650001
 30
0.0
 11
311.06638461850002
 21
-131.99576591650001
 31
0.0
 12
314.81638461850002
 22
-131.99576591650001
 32
0.0
 13
312.94138461850002
 23
-133.87076591650001
 33
0.0
  0
LINE
  5
5EC
  8
0
 62
     0
 10
312.94138461850002
 20
-170.99622685400001
 30
0.0
 11
312.94138461850002
 21
-177.99622685400001
 31
0.0
  0
SOLID
  5
5ED
  8
0
 62
     0
 10
312.94138461850002
 20
-170.99622685400001
 30
0.0
 11
314.81638461850002
 21
-178.49622685400001
 31
0.0
 12
311.06638461850002
 22
-178.49622685400001
 32
0.0
 13
312.94138461850002
 23
-176.62122685400001
 33
0.0
  0
ENDBLK
  5
5EE
  8
0
  0
BLOCK
  8
0
  2
*D154
 70
     1
 10
0.0
 20
0.0
 30
0.0
  3
*D154
  1

  0
TEXT
  5
5F2
  8
0
 62
     0
 10
310.48617622159998
 20
-199.84669104170001
 30
0.0
 40
8.2461809158000001
  1
18
 50
90.0
  0
LINE
  5
5F3
  8
0
 62
     0
 10
289.94138461850002
 20
-203.99576591650001
 30
0.0
 11
313.94138461850002
 21
-203.99576591650001
 31
0.0
  0
LINE
  5
5F4
  8
0
 62
     0
 10
274.19165284770003
 20
-185.99622685400001
 30
0.0
 11
313.94138461850002
 21
-185.99622685400001
 31
0.0
  0
LINE
  5
5F5
  8
0
 62
     0
 10
312.94138461850002
 20
-203.99576591650001
 30
0.0
 11
312.94138461850002
 21
-203.99576591650001
 31
0.0
  0
LINE
  5
5F6
  8
0
 62
     0
 10
312.94138461850002
 20
-203.99576591650001
 30
0.0
 11
312.94138461850002
 21
-185.99622685400001
 31
0.0
  0
LINE
  5
5F7
  8
0
 62
     0
 10
312.94138461850002
 20
-185.99622685400001
 30
0.0
 11
312.94138461850002
 21
-203.99576591650001
 31
0.0
  0
LINE
  5
5F8
  8
0
 62
     0
 10
312.94138461850002
 20
-185.99622685400001
 30
0.0
 11
312.94138461850002
 21
-185.99622685400001
 31
0.0
  0
LINE
  5
5F9
  8
0
 62
     0
 10
312.94138461850002
 20
-185.99622685400001
 30
0.0
 11
312.94138461850002
 21
-192.99622685400001
 31
0.0
  0
SOLID
  5
5FA
  8
0
 62
     0
 10
312.94138461850002
 20
-185.99622685400001
 30
0.0
 11
314.81638461850002
 21
-193.49622685400001
 31
0.0
 12
311.06638461850002
 22
-193.49622685400001
 32
0.0
 13
312.94138461850002
 23
-191.62122685400001
 33
0.0
  0
LINE
  5
5FB
  8
0
 62
     0
 10
312.94138461850002
 20
-203.99576591650001
 30
0.0
 11
312.94138461850002
 21
-196.99576591650001
 31
0.0
  0
SOLID
  5
5FC
  8
0
 62
     0
 10
312.94138461850002
 20
-203.99576591650001
 30
0.0
 11
311.06638461850002
 21
-196.49576591650001
 31
0.0
 12
314.81638461850002
 22
-196.49576591650001
 32
0.0
 13
312.94138461850002
 23
-198.37076591650001
 33
0.0
  0
ENDBLK
  5
5FD
  8
0
  0
BLOCK
  8
0
  2
*D155
 70
     1
 10
0.0
 20
0.0
 30
0.0
  3
*D155
  1

  0
TEXT
  5
601
  8
0
 62
     0
 10
310.4871768726
 20
-105.34692151039999
 30
0.0
 40
8.2461809158000001
  1
15
 50
90.0
  0
LINE
  5
602
  8
0
 62
     0
 10
274.19165284770003
 20
-107.996226854
 30
0.0
 11
313.94238526949999
 21
-107.996226854
 31
0.0
  0
LINE
  5
603
  8
0
 62
     0
 10
274.19165284770003
 20
-92.996226854000014
 30
0.0
 11
313.94238526949999
 21
-92.996226854000014
 31
0.0
  0
LINE
  5
604
  8
0
 62
     0
 10
312.94238526949999
 20
-107.996226854
 30
0.0
 11
312.94238526949999
 21
-107.996226854
 31
0.0
  0
LINE
  5
605
  8
0
 62
     0
 10
312.94238526949999
 20
-107.996226854
 30
0.0
 11
312.94238526949999
 21
-92.996226854000014
 31
0.0
  0
LINE
  5
606
  8
0
 62
     0
 10
312.94238526949999
 20
-92.996226854000014
 30
0.0
 11
312.94238526949999
 21
-107.996226854
 31
0.0
  0
LINE
  5
607
  8
0
 62
     0
 10
312.94238526949999
 20
-92.996226854000014
 30
0.0
 11
312.94238526949999
 21
-92.996226854000014
 31
0.0
  0
LINE
  5
608
  8
0
 62
     0
 10
312.94238526949999
 20
-92.996226854000014
 30
0.0
 11
312.94238526949999
 21
-99.996226854
 31
0.0
  0
SOLID
  5
609
  8
0
 62
     0
 10
312.94238526949999
 20
-92.996226854000014
 30
0.0
 11
314.81738526949999
 21
-100.496226854
 31
0.0
 12
311.06738526949999
 22
-100.496226854
 32
0.0
 13
312.94238526949999
 23
-98.621226854000014
 33
0.0
  0
LINE
  5
60A
  8
0
 62
     0
 10
312.94238526949999
 20
-107.996226854
 30
0.0
 11
312.94238526949999
 21
-100.996226854
 31
0.0
  0
SOLID
  5
60B
  8
0
 62
     0
 10
312.94238526949999
 20
-107.996226854
 30
0.0
 11
311.06738526949999
 21
-100.496226854
 31
0.0
 12
314.81738526949999
 22
-100.496226854
 32
0.0
 13
312.94238526949999
 23
-102.371226854
 33
0.0
  0
ENDBLK
  5
60C
  8
0
  0
BLOCK
  8
0
  2
*D156
 70
     1
 10
0.0
 20
0.0
 30
0.0
  3
*D156
  1

  0
TEXT
  5
610
  8
0
 62
     0
 10
310.48617622159998
 20
-132.03259975660001
 30
0.0
 40
8.2461809158000001
  1
31.5
 50
90.0
  0
LINE
  5
611
  8
0
 62
     0
 10
294.94138461850002
 20
-139.49576591650001
 30
0.0
 11
313.94138461850002
 21
-139.49576591650001
 31
0.0
  0
LINE
  5
612
  8
0
 62
     0
 10
274.19165284770003
 20
-107.996226854
 30
0.0
 11
313.94138461850002
 21
-107.996226854
 31
0.0
  0
LINE
  5
613
  8
0
 62
     0
 10
312.94138461850002
 20
-139.49576591650001
 30
0.0
 11
312.94138461850002
 21
-110.60869835760001
 31
0.0
  0
LINE
  5
614
  8
0
 62
     0
 10
312.94138461850002
 20
-139.49576591650001
 30
0.0
 11
312.94138461850002
 21
-136.88329441299999
 31
0.0
  0
LINE
  5
615
  8
0
 62
     0
 10
312.94138461850002
 20
-107.996226854
 30
0.0
 11
312.94138461850002
 21
-110.60869835760001
 31
0.0
  0
LINE
  5
616
  8
0
 62
     0
 10
312.94138461850002
 20
-107.996226854
 30
0.0
 11
312.94138461850002
 21
-136.88329441299999
 31
0.0
  0
LINE
  5
617
  8
0
 62
     0
 10
312.94138461850002
 20
-107.996226854
 30
0.0
 11
312.94138461850002
 21
-100.996226854
 31
0.0
  0
SOLID
  5
618
  8
0
 62
     0
 10
312.94138461850002
 20
-107.996226854
 30
0.0
 11
311.06638461850002
 21
-100.496226854
 31
0.0
 12
314.81638461850002
 22
-100.496226854
 32
0.0
 13
312.94138461850002
 23
-102.371226854
 33
0.0
  0
LINE
  5
619
  8
0
 62
     0
 10
312.94138461850002
 20
-139.49576591650001
 30
0.0
 11
312.94138461850002
 21
-146.49576591650001
 31
0.0
  0
SOLID
  5
61A
  8
0
 62
     0
 10
312.94138461850002
 20
-139.49576591650001
 30
0.0
 11
314.81638461850002
 21
-146.99576591650001
 31
0.0
 12
311.06638461850002
 22
-146.99576591650001
 32
0.0
 13
312.94138461850002
 23
-145.12076591650001
 33
0.0
  0
ENDBLK
  5
61B
  8
0
  0
BLOCK
  8
0
  2
*D157
 70
     1
 10
0.0
 20
0.0
 30
0.0
  3
*D157
  1

  0
TEXT
  5
61F
  8
0
 62
     0
 10
514.69852822619998
 20
62.348824937099991
 30
0.0
 40
8.2461809158000001
  1
15.5
 50
90.0
  0
LINE
  5
620
  8
0
 62
     0
 10
495.36829427079999
 20
88.626417993399997
 30
0.0
 11
518.15373662310003
 21
88.626417993399997
 31
0.0
  0
LINE
  5
621
  8
0
 62
     0
 10
495.36829427079999
 20
104.1264179934
 30
0.0
 11
518.15373662310003
 21
104.1264179934
 31
0.0
  0
LINE
  5
622
  8
0
 62
     0
 10
517.15373662310003
 20
88.626417993399997
 30
0.0
 11
517.15373662310003
 21
83.772726336099993
 31
0.0
  0
LINE
  5
623
  8
0
 62
     0
 10
517.15373662310003
 20
88.626417993399997
 30
0.0
 11
517.15373662310003
 21
57.498130280700003
 31
0.0
  0
LINE
  5
624
  8
0
 62
     0
 10
517.15373662310003
 20
104.1264179934
 30
0.0
 11
517.15373662310003
 21
83.772726336099993
 31
0.0
  0
LINE
  5
625
  8
0
 62
     0
 10
517.15373662310003
 20
104.1264179934
 30
0.0
 11
517.15373662310003
 21
57.498130280700003
 31
0.0
  0
LINE
  5
626
  8
0
 62
     0
 10
517.15373662310003
 20
104.1264179934
 30
0.0
 11
517.15373662310003
 21
97.126417993399997
 31
0.0
  0
SOLID
  5
627
  8
0
 62
     0
 10
517.15373662310003
 20
104.1264179934
 30
0.0
 11
519.02873662310003
 21
96.626417993400011
 31
0.0
 12
515.27873662310003
 22
96.626417993400011
 32
0.0
 13
517.15373662310003
 23
98.501417993400011
 33
0.0
  0
LINE
  5
628
  8
0
 62
     0
 10
517.15373662310003
 20
88.626417993399997
 30
0.0
 11
517.15373662310003
 21
95.626417993399997
 31
0.0
  0
SOLID
  5
629
  8
0
 62
     0
 10
517.15373662310003
 20
88.626417993399997
 30
0.0
 11
515.27873662310003
 21
96.126417993399997
 31
0.0
 12
519.02873662310003
 22
96.126417993399997
 32
0.0
 13
517.15373662310003
 23
94.251417993399997
 33
0.0
  0
ENDBLK
  5
62A
  8
0
  0
BLOCK
  8
0
  2
*D158
 70
     1
 10
0.0
 20
0.0
 30
0.0
  3
*D158
  1

  0
TEXT
  5
62E
  8
0
 62
     0
 10
620.51049308649988
 20
224.7761946912
 30
0.0
 40
8.2461809158000001
  1
14
 50
90.0
  0
LINE
  5
62F
  8
0
 62
     0
 10
603.55079021330005
 20
222.62688934760001
 30
0.0
 11
623.96570148339993
 21
222.62688934760001
 31
0.0
  0
LINE
  5
630
  8
0
 62
     0
 10
603.55079021330005
 20
236.62688934760001
 30
0.0
 11
623.96570148339993
 21
236.62688934760001
 31
0.0
  0
LINE
  5
631
  8
0
 62
     0
 10
622.96570148339993
 20
222.62688934760001
 30
0.0
 11
622.96570148339993
 21
222.62688934760001
 31
0.0
  0
LINE
  5
632
  8
0
 62
     0
 10
622.96570148339993
 20
222.62688934760001
 30
0.0
 11
622.96570148339993
 21
236.62688934760001
 31
0.0
  0
LINE
  5
633
  8
0
 62
     0
 10
622.96570148339993
 20
236.62688934760001
 30
0.0
 11
622.96570148339993
 21
222.62688934760001
 31
0.0
  0
LINE
  5
634
  8
0
 62
     0
 10
622.96570148339993
 20
236.62688934760001
 30
0.0
 11
622.96570148339993
 21
236.62688934760001
 31
0.0
  0
LINE
  5
635
  8
0
 62
     0
 10
622.96570148339993
 20
236.62688934760001
 30
0.0
 11
622.96570148339993
 21
243.62688934760001
 31
0.0
  0
SOLID
  5
636
  8
0
 62
     0
 10
622.96570148339993
 20
236.62688934760001
 30
0.0
 11
621.09070148339993
 21
244.12688934760001
 31
0.0
 12
624.84070148339993
 22
244.12688934760001
 32
0.0
 13
622.96570148339993
 23
242.25188934760001
 33
0.0
  0
LINE
  5
637
  8
0
 62
     0
 10
622.96570148339993
 20
222.62688934760001
 30
0.0
 11
622.96570148339993
 21
215.62688934760001
 31
0.0
  0
SOLID
  5
638
  8
0
 62
     0
 10
622.96570148339993
 20
222.62688934760001
 30
0.0
 11
624.84070148339993
 21
215.12688934760001
 31
0.0
 12
621.09070148339993
 22
215.12688934760001
 32
0.0
 13
622.96570148339993
 23
217.00188934760001
 33
0.0
  0
ENDBLK
  5
639
  8
0
  0
BLOCK
  8
0
  2
*D159
 70
     1
 10
0.0
 20
0.0
 30
0.0
  3
*D159
  1

  0
TEXT
  5
63D
  8
0
 62
     0
 10
554.20009555690001
 20
268.01896450480001
 30
0.0
 40
8.2461809158000001
  1
25
  0
LINE
  5
63E
  8
0
 62
     0
 10
571.55079021330005
 20
229.62688934760001
 30
0.0
 11
571.55079021330005
 21
266.56375610790002
 31
0.0
  0
LINE
  5
63F
  8
0
 62
     0
 10
546.55079021330005
 20
238.62688934760001
 30
0.0
 11
546.55079021330005
 21
266.56375610790002
 31
0.0
  0
LINE
  5
640
  8
0
 62
     0
 10
571.55079021330005
 20
265.56375610790002
 30
0.0
 11
568.75217952599985
 21
265.56375610790002
 31
0.0
  0
LINE
  5
641
  8
0
 62
     0
 10
571.55079021330005
 20
265.56375610790002
 30
0.0
 11
549.34940090050009
 21
265.56375610790002
 31
0.0
  0
LINE
  5
642
  8
0
 62
     0
 10
546.55079021330005
 20
265.56375610790002
 30
0.0
 11
568.75217952599985
 21
265.56375610790002
 31
0.0
  0
LINE
  5
643
  8
0
 62
     0
 10
546.55079021330005
 20
265.56375610790002
 30
0.0
 11
549.34940090050009
 21
265.56375610790002
 31
0.0
  0
LINE
  5
644
  8
0
 62
     0
 10
546.55079021330005
 20
265.56375610790002
 30
0.0
 11
539.55079021330005
 21
265.56375610790002
 31
0.0
  0
SOLID
  5
645
  8
0
 62
     0
 10
546.55079021330005
 20
265.56375610790002
 30
0.0
 11
539.05079021330005
 21
263.68875610790002
 31
0.0
 12
539.05079021330005
 22
267.43875610790002
 32
0.0
 13
540.92579021330005
 23
265.56375610790002
 33
0.0
  0
LINE
  5
646
  8
0
 62
     0
 10
571.55079021330005
 20
265.56375610790002
 30
0.0
 11
578.55079021330005
 21
265.56375610790002
 31
0.0
  0
SOLID
  5
647
  8
0
 62
     0
 10
571.55079021330005
 20
265.56375610790002
 30
0.0
 11
579.05079021330005
 21
267.43875610790002
 31
0.0
 12
579.05079021330005
 22
263.68875610790002
 32
0.0
 13
577.17579021330005
 23
265.56375610790002
 33
0.0
  0
ENDBLK
  5
648
  8
0
  0
BLOCK
  8
0
  2
CLUMP122
 70
     0
 10
0.0
 20
0.0
 30
0.0
  3
CLUMP122
  1

  0
ARC
  5
651
  8
┌▓È_1
 10
-8.8083471522999996
 20
-139.49622685400001
 30
0.0
 40
3.5
 50
90.0
 51
270.0
  0
LINE
  5
652
  8
┌▓È_1
 10
6.1916528476999986
 20
-135.99622685400001
 30
0.0
 11
-8.8083471522999996
 21
-135.99622685400001
 31
0.0
  0
LINE
  5
653
  8
┌▓È_1
 10
-8.8083471522999996
 20
-142.99622685400001
 30
0.0
 11
6.1916528476999986
 21
-142.99622685400001
 31
0.0
  0
ARC
  5
654
  8
┌▓È_1
 10
6.1916528476999986
 20
-139.49622685400001
 30
0.0
 40
3.5
 50
270.0
 51
90.0
  0
ENDBLK
  5
655
  8
0
  0
BLOCK
  8
0
  2
*D161
 70
     1
 10
0.0
 20
0.0
 30
0.0
  3
*D161
  1

  0
TEXT
  5
664
  8
0
 62
     0
 10
481.74960338080001
 20
267.84831540610003
 30
0.0
 40
8.2461809158000001
  1
15
  0
LINE
  5
665
  8
0
 62
     0
 10
494.16829427079989
 20
237.82736070179999
 30
0.0
 11
494.16829427079989
 21
266.39310700909999
 31
0.0
  0
LINE
  5
666
  8
0
 62
     0
 10
479.1682942708
 20
229.6273607018
 30
0.0
 11
479.1682942708
 21
266.39310700909999
 31
0.0
  0
LINE
  5
667
  8
0
 62
     0
 10
494.16829427079989
 20
265.39310700909999
 30
0.0
 11
494.16829427079989
 21
265.39310700909999
 31
0.0
  0
LINE
  5
668
  8
0
 62
     0
 10
494.16829427079989
 20
265.39310700909999
 30
0.0
 11
479.1682942708
 21
265.39310700909999
 31
0.0
  0
LINE
  5
669
  8
0
 62
     0
 10
479.1682942708
 20
265.39310700909999
 30
0.0
 11
494.16829427079989
 21
265.39310700909999
 31
0.0
  0
LINE
  5
66A
  8
0
 62
     0
 10
479.1682942708
 20
265.39310700909999
 30
0.0
 11
479.1682942708
 21
265.39310700909999
 31
0.0
  0
LINE
  5
66B
  8
0
 62
     0
 10
479.1682942708
 20
265.39310700909999
 30
0.0
 11
486.16829427079989
 21
265.39310700909999
 31
0.0
  0
SOLID
  5
66C
  8
0
 62
     0
 10
479.1682942708
 20
265.39310700909999
 30
0.0
 11
486.6682942708
 21
267.26810700909999
 31
0.0
 12
486.6682942708
 22
263.51810700909999
 32
0.0
 13
484.79329427079989
 23
265.39310700909999
 33
0.0
  0
LINE
  5
66D
  8
0
 62
     0
 10
494.16829427079989
 20
265.39310700909999
 30
0.0
 11
487.1682942708
 21
265.39310700909999
 31
0.0
  0
SOLID
  5
66E
  8
0
 62
     0
 10
494.16829427079989
 20
265.39310700909999
 30
0.0
 11
486.6682942708
 21
263.51810700909999
 31
0.0
 12
486.6682942708
 22
267.26810700909999
 32
0.0
 13
488.5432942708
 23
265.39310700909999
 33
0.0
  0
ENDBLK
  5
66F
  8
0
  0
BLOCK
  8
0
  2
*D162
 70
     1
 10
0.0
 20
0.0
 30
0.0
  3
*D162
  1

  0
TEXT
  5
673
  8
0
 62
     0
 10
514.69852822619998
 20
246.04820628979999
 30
0.0
 40
8.2461809158000001
  1
15.5
 50
90.0
  0
LINE
  5
674
  8
0
 62
     0
 10
495.36829427079999
 20
221.1273607018
 30
0.0
 11
518.15373662310003
 21
221.1273607018
 31
0.0
  0
LINE
  5
675
  8
0
 62
     0
 10
495.36829427079999
 20
236.6273607018
 30
0.0
 11
518.15373662310003
 21
236.6273607018
 31
0.0
  0
LINE
  5
676
  8
0
 62
     0
 10
517.15373662310003
 20
221.1273607018
 30
0.0
 11
517.15373662310003
 21
267.47210768880001
 31
0.0
  0
LINE
  5
677
  8
0
 62
     0
 10
517.15373662310003
 20
221.1273607018
 30
0.0
 11
517.15373662310003
 21
241.19751163340001
 31
0.0
  0
LINE
  5
678
  8
0
 62
     0
 10
517.15373662310003
 20
236.6273607018
 30
0.0
 11
517.15373662310003
 21
267.47210768880001
 31
0.0
  0
LINE
  5
679
  8
0
 62
     0
 10
517.15373662310003
 20
236.6273607018
 30
0.0
 11
517.15373662310003
 21
241.19751163340001
 31
0.0
  0
LINE
  5
67A
  8
0
 62
     0
 10
517.15373662310003
 20
236.6273607018
 30
0.0
 11
517.15373662310003
 21
229.6273607018
 31
0.0
  0
SOLID
  5
67B
  8
0
 62
     0
 10
517.15373662310003
 20
236.6273607018
 30
0.0
 11
519.02873662310003
 21
229.1273607018
 31
0.0
 12
515.27873662310003
 22
229.1273607018
 32
0.0
 13
517.15373662310003
 23
231.0023607018
 33
0.0
  0
LINE
  5
67C
  8
0
 62
     0
 10
517.15373662310003
 20
221.1273607018
 30
0.0
 11
517.15373662310003
 21
228.1273607018
 31
0.0
  0
SOLID
  5
67D
  8
0
 62
     0
 10
517.15373662310003
 20
221.1273607018
 30
0.0
 11
515.27873662310003
 21
228.6273607018
 31
0.0
 12
519.02873662310003
 22
228.6273607018
 32
0.0
 13
517.15373662310003
 23
226.7523607018
 33
0.0
  0
ENDBLK
  5
67E
  8
0
  0
BLOCK
  8
0
  2
*D163
 70
     1
 10
0.0
 20
0.0
 30
0.0
  3
*D163
  1

  0
TEXT
  5
682
  8
0
 62
     0
 10
310.48617622159998
 20
-88.846691041699984
 30
0.0
 40
8.2461809158000001
  1
18
 50
90.0
  0
LINE
  5
683
  8
0
 62
     0
 10
274.19165284770003
 20
-92.996226854000014
 30
0.0
 11
313.94138461850002
 21
-92.996226854000014
 31
0.0
  0
LINE
  5
684
  8
0
 62
     0
 10
289.94138461850002
 20
-74.995765916499991
 30
0.0
 11
313.94138461850002
 21
-74.995765916499991
 31
0.0
  0
LINE
  5
685
  8
0
 62
     0
 10
312.94138461850002
 20
-92.996226854000014
 30
0.0
 11
312.94138461850002
 21
-92.996226854000014
 31
0.0
  0
LINE
  5
686
  8
0
 62
     0
 10
312.94138461850002
 20
-92.996226854000014
 30
0.0
 11
312.94138461850002
 21
-74.995765916499991
 31
0.0
  0
LINE
  5
687
  8
0
 62
     0
 10
312.94138461850002
 20
-74.995765916499991
 30
0.0
 11
312.94138461850002
 21
-92.996226854000014
 31
0.0
  0
LINE
  5
688
  8
0
 62
     0
 10
312.94138461850002
 20
-74.995765916499991
 30
0.0
 11
312.94138461850002
 21
-74.995765916499991
 31
0.0
  0
LINE
  5
689
  8
0
 62
     0
 10
312.94138461850002
 20
-74.995765916499991
 30
0.0
 11
312.94138461850002
 21
-81.995765916499977
 31
0.0
  0
SOLID
  5
68A
  8
0
 62
     0
 10
312.94138461850002
 20
-74.995765916499991
 30
0.0
 11
314.81638461850002
 21
-82.495765916499991
 31
0.0
 12
311.06638461850002
 22
-82.495765916499991
 32
0.0
 13
312.94138461850002
 23
-80.620765916499991
 33
0.0
  0
LINE
  5
68B
  8
0
 62
     0
 10
312.94138461850002
 20
-92.996226854000014
 30
0.0
 11
312.94138461850002
 21
-85.996226853999985
 31
0.0
  0
SOLID
  5
68C
  8
0
 62
     0
 10
312.94138461850002
 20
-92.996226854000014
 30
0.0
 11
311.06638461850002
 21
-85.496226854000014
 31
0.0
 12
314.81638461850002
 22
-85.496226854000014
 32
0.0
 13
312.94138461850002
 23
-87.371226854000014
 33
0.0
  0
ENDBLK
  5
68D
  8
0
  0
BLOCK
  8
0
  2
*D164
 70
     1
 10
0.0
 20
0.0
 30
0.0
  3
*D164
  1

  0
TEXT
  5
691
  8
0
 62
     0
 10
328.14867851040009
 20
-146.7718079011
 30
0.0
 40
8.2461809158000001
  1
129
 50
90.0
  0
LINE
  5
692
  8
0
 62
     0
 10
289.94138461850002
 20
-203.99576591650001
 30
0.0
 11
331.60388690730002
 21
-203.99576591650001
 31
0.0
  0
LINE
  5
693
  8
0
 62
     0
 10
289.94138461850002
 20
-74.995765916499991
 30
0.0
 11
331.60388690730002
 21
-74.995765916499991
 31
0.0
  0
LINE
  5
694
  8
0
 62
     0
 10
330.60388690730002
 20
-203.99576591650001
 30
0.0
 11
330.60388690730002
 21
-127.3690292756
 31
0.0
  0
LINE
  5
695
  8
0
 62
     0
 10
330.60388690730002
 20
-203.99576591650001
 30
0.0
 11
330.60388690730002
 21
-151.62250255750001
 31
0.0
  0
LINE
  5
696
  8
0
 62
     0
 10
330.60388690730002
 20
-74.995765916499991
 30
0.0
 11
330.60388690730002
 21
-127.3690292756
 31
0.0
  0
LINE
  5
697
  8
0
 62
     0
 10
330.60388690730002
 20
-74.995765916499991
 30
0.0
 11
330.60388690730002
 21
-151.62250255750001
 31
0.0
  0
LINE
  5
698
  8
0
 62
     0
 10
330.60388690730002
 20
-74.995765916499991
 30
0.0
 11
330.60388690730002
 21
-81.995765916499977
 31
0.0
  0
SOLID
  5
699
  8
0
 62
     0
 10
330.60388690730002
 20
-74.995765916499991
 30
0.0
 11
332.47888690730002
 21
-82.495765916499991
 31
0.0
 12
328.72888690730002
 22
-82.495765916499991
 32
0.0
 13
330.60388690730002
 23
-80.620765916499991
 33
0.0
  0
LINE
  5
69A
  8
0
 62
     0
 10
330.60388690730002
 20
-203.99576591650001
 30
0.0
 11
330.60388690730002
 21
-196.99576591650001
 31
0.0
  0
SOLID
  5
69B
  8
0
 62
     0
 10
330.60388690730002
 20
-203.99576591650001
 30
0.0
 11
328.72888690730002
 21
-196.49576591650001
 31
0.0
 12
332.47888690730002
 22
-196.49576591650001
 32
0.0
 13
330.60388690730002
 23
-198.37076591650001
 33
0.0
  0
ENDBLK
  5
69C
  8
0
  0
BLOCK
  8
0
  2
*D165
 70
     1
 10
0.0
 20
0.0
 30
0.0
  3
*D165
  1

  0
TEXT
  5
6A0
  8
0
 62
     0
 10
433.39344295789999
 20
-53.681347731599999
 30
0.0
 40
8.2461809158000001
  1
23
  0
LINE
  5
6A1
  8
0
 62
     0
 10
449.74413761429997
 20
-72.996087531100002
 30
0.0
 11
449.74413761429997
 21
-55.136556128499997
 31
0.0
  0
LINE
  5
6A2
  8
0
 62
     0
 10
426.74413761429997
 20
-74.996087531100002
 30
0.0
 11
426.74413761429997
 21
-55.136556128499997
 31
0.0
  0
LINE
  5
6A3
  8
0
 62
     0
 10
449.74413761429997
 20
-56.136556128499997
 30
0.0
 11
447.94552692699989
 21
-56.136556128499997
 31
0.0
  0
LINE
  5
6A4
  8
0
 62
     0
 10
449.74413761429997
 20
-56.136556128499997
 30
0.0
 11
428.5427483014999
 21
-56.136556128499997
 31
0.0
  0
LINE
  5
6A5
  8
0
 62
     0
 10
426.74413761429997
 20
-56.136556128499997
 30
0.0
 11
447.94552692699989
 21
-56.136556128499997
 31
0.0
  0
LINE
  5
6A6
  8
0
 62
     0
 10
426.74413761429997
 20
-56.136556128499997
 30
0.0
 11
428.5427483014999
 21
-56.136556128499997
 31
0.0
  0
LINE
  5
6A7
  8
0
 62
     0
 10
426.74413761429997
 20
-56.136556128499997
 30
0.0
 11
419.74413761429997
 21
-56.136556128499997
 31
0.0
  0
SOLID
  5
6A8
  8
0
 62
     0
 10
426.74413761429997
 20
-56.136556128499997
 30
0.0
 11
419.24413761429992
 21
-58.011556128499997
 31
0.0
 12
419.24413761429992
 22
-54.261556128499997
 32
0.0
 13
421.11913761429997
 23
-56.136556128499997
 33
0.0
  0
LINE
  5
6A9
  8
0
 62
     0
 10
449.74413761429997
 20
-56.136556128499997
 30
0.0
 11
456.74413761429997
 21
-56.136556128499997
 31
0.0
  0
SOLID
  5
6AA
  8
0
 62
     0
 10
449.74413761429997
 20
-56.136556128499997
 30
0.0
 11
457.24413761429997
 21
-54.261556128499997
 31
0.0
 12
457.24413761429997
 22
-58.011556128499997
 32
0.0
 13
455.36913761429997
 23
-56.136556128499997
 33
0.0
  0
ENDBLK
  5
6AB
  8
0
  0
BLOCK
  8
0
  2
*D166
 70
     1
 10
0.0
 20
0.0
 30
0.0
  3
*D166
  1

  0
TEXT
  5
6AF
  8
0
 62
     0
 10
379.83722310309997
 20
-53.681347731599999
 30
0.0
 40
8.2461809158000001
  1
14
  0
LINE
  5
6B0
  8
0
 62
     0
 10
391.68791775940002
 20
-72.996087531100002
 30
0.0
 11
391.68791775940002
 21
-55.136556128499997
 31
0.0
  0
LINE
  5
6B1
  8
0
 62
     0
 10
377.68791775940002
 20
-74.996088880499997
 30
0.0
 11
377.68791775940002
 21
-55.136556128499997
 31
0.0
  0
LINE
  5
6B2
  8
0
 62
     0
 10
391.68791775940002
 20
-56.136556128499997
 30
0.0
 11
391.68791775940002
 21
-56.136556128499997
 31
0.0
  0
LINE
  5
6B3
  8
0
 62
     0
 10
391.68791775940002
 20
-56.136556128499997
 30
0.0
 11
377.68791775940002
 21
-56.136556128499997
 31
0.0
  0
LINE
  5
6B4
  8
0
 62
     0
 10
377.68791775940002
 20
-56.136556128499997
 30
0.0
 11
391.68791775940002
 21
-56.136556128499997
 31
0.0
  0
LINE
  5
6B5
  8
0
 62
     0
 10
377.68791775940002
 20
-56.136556128499997
 30
0.0
 11
377.68791775940002
 21
-56.136556128499997
 31
0.0
  0
LINE
  5
6B6
  8
0
 62
     0
 10
377.68791775940002
 20
-56.136556128499997
 30
0.0
 11
370.68791775940002
 21
-56.136556128499997
 31
0.0
  0
SOLID
  5
6B7
  8
0
 62
     0
 10
377.68791775940002
 20
-56.136556128499997
 30
0.0
 11
370.18791775940002
 21
-58.011556128499997
 31
0.0
 12
370.18791775940002
 22
-54.261556128499997
 32
0.0
 13
372.06291775940002
 23
-56.136556128499997
 33
0.0
  0
LINE
  5
6B8
  8
0
 62
     0
 10
391.68791775940002
 20
-56.136556128499997
 30
0.0
 11
398.68791775940002
 21
-56.136556128499997
 31
0.0
  0
SOLID
  5
6B9
  8
0
 62
     0
 10
391.68791775940002
 20
-56.136556128499997
 30
0.0
 11
399.18791775940002
 21
-54.261556128499997
 31
0.0
 12
399.18791775940002
 22
-58.011556128499997
 32
0.0
 13
397.31291775940002
 23
-56.136556128499997
 33
0.0
  0
ENDBLK
  5
6BA
  8
0
  0
BLOCK
  8
0
  2
*D167
 70
     1
 10
0.0
 20
0.0
 30
0.0
  3
*D167
  1

  0
TEXT
  5
6BE
  8
0
 62
     0
 10
401.06661535389992
 20
155.35092916260001
 30
0.0
 40
8.2461809158000001
  1
148
 50
90.0
  0
LINE
  5
6BF
  8
0
 62
     0
 10
359.0416067708
 20
88.462975285100001
 30
0.0
 11
404.52182375080002
 21
88.462975285100001
 31
0.0
  0
LINE
  5
6C0
  8
0
 62
     0
 10
359.0416067708
 20
236.46297528509999
 30
0.0
 11
404.52182375080002
 21
236.46297528509999
 31
0.0
  0
LINE
  5
6C1
  8
0
 62
     0
 10
403.52182375080002
 20
88.462975285100001
 30
0.0
 11
403.52182375080002
 21
174.75370778800001
 31
0.0
  0
LINE
  5
6C2
  8
0
 62
     0
 10
403.52182375080002
 20
88.462975285100001
 30
0.0
 11
403.52182375080002
 21
150.5002345062
 31
0.0
  0
LINE
  5
6C3
  8
0
 62
     0
 10
403.52182375080002
 20
236.46297528509999
 30
0.0
 11
403.52182375080002
 21
174.75370778800001
 31
0.0
  0
LINE
  5
6C4
  8
0
 62
     0
 10
403.52182375080002
 20
236.46297528509999
 30
0.0
 11
403.52182375080002
 21
150.5002345062
 31
0.0
  0
LINE
  5
6C5
  8
0
 62
     0
 10
403.52182375080002
 20
236.46297528509999
 30
0.0
 11
403.52182375080002
 21
229.46297528509999
 31
0.0
  0
SOLID
  5
6C6
  8
0
 62
     0
 10
403.52182375080002
 20
236.46297528509999
 30
0.0
 11
405.39682375080002
 21
228.96297528509999
 31
0.0
 12
401.64682375080002
 22
228.96297528509999
 32
0.0
 13
403.52182375080002
 23
230.83797528509999
 33
0.0
  0
LINE
  5
6C7
  8
0
 62
     0
 10
403.52182375080002
 20
88.462975285100001
 30
0.0
 11
403.52182375080002
 21
95.462975285100015
 31
0.0
  0
SOLID
  5
6C8
  8
0
 62
     0
 10
403.52182375080002
 20
88.462975285100001
 30
0.0
 11
401.64682375080002
 21
95.962975285100001
 31
0.0
 12
405.39682375080002
 22
95.962975285100001
 32
0.0
 13
403.52182375080002
 23
94.087975285100001
 33
0.0
  0
ENDBLK
  5
6C9
  8
0
  0
BLOCK
  8
0
  2
*D168
 70
     1
 10
0.0
 20
0.0
 30
0.0
  3
*D168
  1

  0
TEXT
  5
6CD
  8
0
 62
     0
 10
383.97014547480001
 20
229.5376279569
 30
0.0
 40
8.2461809158000001
  1
9
 50
90.0
  0
LINE
  5
6CE
  8
0
 62
     0
 10
350.0416067708
 20
227.46297528509999
 30
0.0
 11
387.4253538717
 21
227.46297528509999
 31
0.0
  0
LINE
  5
6CF
  8
0
 62
     0
 10
359.0416067708
 20
236.46297528509999
 30
0.0
 11
387.4253538717
 21
236.46297528509999
 31
0.0
  0
LINE
  5
6D0
  8
0
 62
     0
 10
386.4253538717
 20
227.46297528509999
 30
0.0
 11
386.4253538717
 21
227.46297528509999
 31
0.0
  0
LINE
  5
6D1
  8
0
 62
     0
 10
386.4253538717
 20
227.46297528509999
 30
0.0
 11
386.4253538717
 21
236.46297528509999
 31
0.0
  0
LINE
  5
6D2
  8
0
 62
     0
 10
386.4253538717
 20
236.46297528509999
 30
0.0
 11
386.4253538717
 21
227.46297528509999
 31
0.0
  0
LINE
  5
6D3
  8
0
 62
     0
 10
386.4253538717
 20
236.46297528509999
 30
0.0
 11
386.4253538717
 21
236.46297528509999
 31
0.0
  0
LINE
  5
6D4
  8
0
 62
     0
 10
386.4253538717
 20
236.46297528509999
 30
0.0
 11
386.4253538717
 21
243.46297528509999
 31
0.0
  0
SOLID
  5
6D5
  8
0
 62
     0
 10
386.4253538717
 20
236.46297528509999
 30
0.0
 11
384.5503538717
 21
243.96297528509999
 31
0.0
 12
388.3003538717
 22
243.96297528509999
 32
0.0
 13
386.4253538717
 23
242.08797528509999
 33
0.0
  0
LINE
  5
6D6
  8
0
 62
     0
 10
386.4253538717
 20
227.46297528509999
 30
0.0
 11
386.4253538717
 21
220.46297528509999
 31
0.0
  0
SOLID
  5
6D7
  8
0
 62
     0
 10
386.4253538717
 20
227.46297528509999
 30
0.0
 11
388.3003538717
 21
219.96297528509999
 31
0.0
 12
384.5503538717
 22
219.96297528509999
 32
0.0
 13
386.4253538717
 23
221.83797528509999
 33
0.0
  0
ENDBLK
  5
6D8
  8
0
  0
BLOCK
  8
0
  2
*D169
 70
     1
 10
0.0
 20
0.0
 30
0.0
  3
*D169
  1

  0
TEXT
  5
6DC
  8
0
 62
     0
 10
383.97014547480001
 20
155.18693330049999
 30
0.0
 40
8.2461809158000001
  1
130
 50
90.0
  0
LINE
  5
6DD
  8
0
 62
     0
 10
350.0416067708
 20
97.462975285100001
 30
0.0
 11
387.4253538717
 21
97.462975285100001
 31
0.0
  0
LINE
  5
6DE
  8
0
 62
     0
 10
350.0416067708
 20
227.46297528509999
 30
0.0
 11
387.4253538717
 21
227.46297528509999
 31
0.0
  0
LINE
  5
6DF
  8
0
 62
     0
 10
386.4253538717
 20
97.462975285100001
 30
0.0
 11
386.4253538717
 21
174.58971192600001
 31
0.0
  0
LINE
  5
6E0
  8
0
 62
     0
 10
386.4253538717
 20
97.462975285100001
 30
0.0
 11
386.4253538717
 21
150.33623864419999
 31
0.0
  0
LINE
  5
6E1
  8
0
 62
     0
 10
386.4253538717
 20
227.46297528509999
 30
0.0
 11
386.4253538717
 21
174.58971192600001
 31
0.0
  0
LINE
  5
6E2
  8
0
 62
     0
 10
386.4253538717
 20
227.46297528509999
 30
0.0
 11
386.4253538717
 21
150.33623864419999
 31
0.0
  0
LINE
  5
6E3
  8
0
 62
     0
 10
386.4253538717
 20
227.46297528509999
 30
0.0
 11
386.4253538717
 21
220.46297528509999
 31
0.0
  0
SOLID
  5
6E4
  8
0
 62
     0
 10
386.4253538717
 20
227.46297528509999
 30
0.0
 11
388.3003538717
 21
219.96297528509999
 31
0.0
 12
384.5503538717
 22
219.96297528509999
 32
0.0
 13
386.4253538717
 23
221.83797528509999
 33
0.0
  0
LINE
  5
6E5
  8
0
 62
     0
 10
386.4253538717
 20
97.462975285100001
 30
0.0
 11
386.4253538717
 21
104.4629752851
 31
0.0
  0
SOLID
  5
6E6
  8
0
 62
     0
 10
386.4253538717
 20
97.462975285100001
 30
0.0
 11
384.5503538717
 21
104.9629752851
 31
0.0
 12
388.3003538717
 22
104.9629752851
 32
0.0
 13
386.4253538717
 23
103.0879752851
 33
0.0
  0
ENDBLK
  5
6E7
  8
0
  0
BLOCK
  8
0
  2
*D170
 70
     1
 10
0.0
 20
0.0
 30
0.0
  3
*D170
  1

  0
TEXT
  5
6EB
  8
0
 62
     0
 10
383.97014547480001
 20
90.53762795690001
 30
0.0
 40
8.2461809158000001
  1
9
 50
90.0
  0
LINE
  5
6EC
  8
0
 62
     0
 10
359.0416067708
 20
88.462975285100001
 30
0.0
 11
387.4253538717
 21
88.462975285100001
 31
0.0
  0
LINE
  5
6ED
  8
0
 62
     0
 10
350.0416067708
 20
97.462975285100001
 30
0.0
 11
387.4253538717
 21
97.462975285100001
 31
0.0
  0
LINE
  5
6EE
  8
0
 62
     0
 10
386.4253538717
 20
88.462975285100001
 30
0.0
 11
386.4253538717
 21
88.462975285100001
 31
0.0
  0
LINE
  5
6EF
  8
0
 62
     0
 10
386.4253538717
 20
88.462975285100001
 30
0.0
 11
386.4253538717
 21
97.462975285100001
 31
0.0
  0
LINE
  5
6F0
  8
0
 62
     0
 10
386.4253538717
 20
97.462975285100001
 30
0.0
 11
386.4253538717
 21
88.462975285100001
 31
0.0
  0
LINE
  5
6F1
  8
0
 62
     0
 10
386.4253538717
 20
97.462975285100001
 30
0.0
 11
386.4253538717
 21
97.462975285100001
 31
0.0
  0
LINE
  5
6F2
  8
0
 62
     0
 10
386.4253538717
 20
97.462975285100001
 30
0.0
 11
386.4253538717
 21
104.4629752851
 31
0.0
  0
SOLID
  5
6F3
  8
0
 62
     0
 10
386.4253538717
 20
97.462975285100001
 30
0.0
 11
384.5503538717
 21
104.9629752851
 31
0.0
 12
388.3003538717
 22
104.9629752851
 32
0.0
 13
386.4253538717
 23
103.0879752851
 33
0.0
  0
LINE
  5
6F4
  8
0
 62
     0
 10
386.4253538717
 20
88.462975285100001
 30
0.0
 11
386.4253538717
 21
81.462975285100001
 31
0.0
  0
SOLID
  5
6F5
  8
0
 62
     0
 10
386.4253538717
 20
88.462975285100001
 30
0.0
 11
388.3003538717
 21
80.962975285100001
 31
0.0
 12
384.5503538717
 22
80.962975285100001
 32
0.0
 13
386.4253538717
 23
82.837975285100001
 33
0.0
  0
ENDBLK
  5
6F6
  8
0
  0
BLOCK
  8
0
  2
CLUMP123
 70
     0
 10
0.0
 20
0.0
 30
0.0
  3
CLUMP123
  1

  0
LINE
  5
730
  8
┌▓È_1
 62
     5
 10
468.66829427079989
 20
229.2273607018
 30
0.0
 11
493.36829427079988
 21
229.2273607018
 31
0.0
  0
LINE
  5
731
  8
┌▓È_1
 62
     5
 10
468.66829427079989
 20
229.2273607018
 30
0.0
 11
468.66829427079989
 21
228.42736070180001
 31
0.0
  0
LINE
  5
732
  8
┌▓È_1
 62
     5
 10
493.36829427079988
 20
221.92736070180001
 30
0.0
 11
479.96829427080002
 21
221.92736070180001
 31
0.0
  0
LINE
  5
733
  8
┌▓È_1
 62
     5
 10
493.36829427079988
 20
235.82736070179999
 30
0.0
 11
493.36829427079988
 21
221.92736070180001
 31
0.0
  0
ARC
  5
734
  8
┌▓È_1
 62
     5
 10
493.36829427079988
 20
235.82736070179999
 30
0.0
 40
0.8
 50
0.0
 51
90.0
  0
LINE
  5
735
  8
┌▓È_1
 62
     5
 10
494.16829427079989
 20
221.92736070180001
 30
0.0
 11
494.16829427079989
 21
235.82736070179999
 31
0.0
  0
ARC
  5
736
  8
┌▓È_1
 62
     5
 10
493.36829427079988
 20
221.92736070180001
 30
0.0
 40
0.8
 50
270.0
 51
0.0
  0
LINE
  5
737
  8
┌▓È_1
 62
     5
 10
479.96829427080002
 20
221.1273607018
 30
0.0
 11
493.36829427079988
 21
221.1273607018
 31
0.0
  0
LINE
  5
738
  8
┌▓È_1
 62
     5
 10
479.1682942708
 20
227.6273607018
 30
0.0
 11
479.1682942708
 21
221.92736070180001
 31
0.0
  0
ARC
  5
739
  8
┌▓È_1
 62
     5
 10
479.96829427080002
 20
221.92736070180001
 30
0.0
 40
0.8
 50
180.0
 51
270.0
  0
LINE
  5
73A
  8
┌▓È_1
 62
     5
 10
479.96829427080002
 20
221.92736070180001
 30
0.0
 11
479.96829427080002
 21
227.6273607018
 31
0.0
  0
LINE
  5
73B
  8
┌▓È_1
 62
     5
 10
488.1682942708
 20
235.82736070179999
 30
0.0
 11
493.36829427079988
 21
235.82736070179999
 31
0.0
  0
LINE
  5
73C
  8
┌▓È_1
 62
     5
 10
488.1682942708
 20
236.6273607018
 30
0.0
 11
488.1682942708
 21
235.82736070179999
 31
0.0
  0
LINE
  5
73D
  8
┌▓È_1
 62
     5
 10
470.1682942708
 20
235.82736070179999
 30
0.0
 11
470.1682942708
 21
229.2273607018
 31
0.0
  0
LINE
  5
73E
  8
┌▓È_1
 62
     5
 10
479.1682942708
 20
228.42736070180001
 30
0.0
 11
493.36829427079988
 21
228.42736070180001
 31
0.0
  0
LINE
  5
73F
  8
┌▓È_1
 62
     5
 10
470.1682942708
 20
235.82736070179999
 30
0.0
 11
470.1682942708
 21
236.6273607018
 31
0.0
  0
LINE
  5
740
  8
┌▓È_1
 62
     5
 10
493.36829427079988
 20
236.6273607018
 30
0.0
 11
488.1682942708
 21
236.6273607018
 31
0.0
  0
ARC
  5
741
  8
┌▓È_1
 62
     5
 10
479.1682942708
 20
227.6273607018
 30
0.0
 40
0.8
 50
0.0
 51
90.0
  0
ARC
  5
742
  8
┌▓È_1
 62
     5
 10
464.9682942707999
 20
228.42736070180001
 30
0.0
 40
0.8
 50
180.0
 51
270.0
  0
LINE
  5
743
  8
┌▓È_1
 62
     5
 10
464.9682942707999
 20
228.42736070180001
 30
0.0
 11
464.9682942707999
 21
235.82736070179999
 31
0.0
  0
ARC
  5
744
  8
┌▓È_1
 62
     5
 10
464.9682942707999
 20
235.82736070179999
 30
0.0
 40
0.8
 50
90.0
 51
180.0
  0
LINE
  5
745
  8
┌▓È_1
 62
     5
 10
464.16829427079989
 20
235.82736070179999
 30
0.0
 11
464.16829427079989
 21
228.42736070180001
 31
0.0
  0
LINE
  5
746
  8
┌▓È_1
 62
     5
 10
464.9682942707999
 20
235.82736070179999
 30
0.0
 11
470.1682942708
 21
235.82736070179999
 31
0.0
  0
LINE
  5
747
  8
┌▓È_1
 62
     5
 10
470.1682942708
 20
236.6273607018
 30
0.0
 11
464.9682942707999
 21
236.6273607018
 31
0.0
  0
LINE
  5
748
  8
┌▓È_1
 62
     5
 10
479.1682942708
 20
228.42736070180001
 30
0.0
 11
464.9682942707999
 21
228.42736070180001
 31
0.0
  0
LINE
  5
749
  8
┌▓È_1
 62
     5
 10
464.9682942707999
 20
227.6273607018
 30
0.0
 11
479.1682942708
 21
227.6273607018
 31
0.0
  0
ENDBLK
  5
74A
  8
0
  0
BLOCK
  8
0
  2
CLUMP124
 70
     0
 10
0.0
 20
0.0
 30
0.0
  3
CLUMP124
  1

  0
LINE
  5
74F
  8
┌▓È_1
 62
     5
 10
553.25079021329998
 20
96.826889347600016
 30
0.0
 11
553.25079021329998
 21
96.026889347600004
 31
0.0
  0
LINE
  5
750
  8
┌▓È_1
 62
     5
 10
547.35079021329989
 20
89.426889347599996
 30
0.0
 11
547.35079021329989
 21
96.826889347600016
 31
0.0
  0
LINE
  5
751
  8
┌▓È_1
 62
     5
 10
552.55079021330005
 20
89.426889347599996
 30
0.0
 11
547.35079021329989
 21
89.426889347599996
 31
0.0
  0
LINE
  5
752
  8
┌▓È_1
 62
     5
 10
552.55079021330005
 20
89.426889347599996
 30
0.0
 11
552.55079021330005
 21
88.626889347599985
 31
0.0
  0
LINE
  5
753
  8
┌▓È_1
 62
     5
 10
552.55079021330005
 20
88.626889347599985
 30
0.0
 11
547.35079021329989
 21
88.626889347599985
 31
0.0
  0
ARC
  5
754
  8
┌▓È_1
 62
     5
 10
547.35079021329989
 20
89.426889347599996
 30
0.0
 40
0.8
 50
180.0
 51
270.0
  0
LINE
  5
755
  8
┌▓È_1
 62
     5
 10
546.55079021330005
 20
89.426889347599996
 30
0.0
 11
546.55079021330005
 21
96.826889347600016
 31
0.0
  0
ARC
  5
756
  8
┌▓È_1
 62
     5
 10
547.35079021329989
 20
96.826889347600016
 30
0.0
 40
0.8
 50
90.0
 51
180.0
  0
LINE
  5
757
  8
┌▓È_1
 62
     5
 10
595.55079021330005
 20
88.626889347599985
 30
0.0
 11
595.55079021330005
 21
89.426889347599996
 31
0.0
  0
LINE
  5
758
  8
┌▓È_1
 62
     5
 10
600.75079021329987
 20
89.426889347599996
 30
0.0
 11
595.55079021330005
 21
89.426889347599996
 31
0.0
  0
LINE
  5
759
  8
┌▓È_1
 62
     5
 10
600.75079021329987
 20
101.8268893476
 30
0.0
 11
600.75079021329987
 21
89.426889347599996
 31
0.0
  0
LINE
  5
75A
  8
┌▓È_1
 62
     5
 10
572.35079021329989
 20
101.8268893476
 30
0.0
 11
600.75079021329987
 21
101.8268893476
 31
0.0
  0
LINE
  5
75B
  8
┌▓È_1
 62
     5
 10
547.35079021329989
 20
97.626889347599985
 30
0.0
 11
571.55079021330005
 21
97.626889347599985
 31
0.0
  0
LINE
  5
75C
  8
┌▓È_1
 62
     5
 10
547.35079021329989
 20
96.826889347600016
 30
0.0
 11
571.55079021330005
 21
96.826889347600016
 31
0.0
  0
LINE
  5
75D
  8
┌▓È_1
 62
     5
 10
572.35079021329989
 20
97.626889347599985
 30
0.0
 11
572.35079021329989
 21
101.8268893476
 31
0.0
  0
ARC
  5
75E
  8
┌▓È_1
 62
     5
 10
571.55079021330005
 20
97.626889347599985
 30
0.0
 40
0.8
 50
270.0
 51
0.0
  0
LINE
  5
75F
  8
┌▓È_1
 62
     5
 10
571.55079021330005
 20
97.626889347599985
 30
0.0
 11
571.55079021330005
 21
101.8268893476
 31
0.0
  0
ARC
  5
760
  8
┌▓È_1
 62
     5
 10
572.35079021329989
 20
101.8268893476
 30
0.0
 40
0.8
 50
90.0
 51
180.0
  0
LINE
  5
761
  8
┌▓È_1
 62
     5
 10
572.35079021329989
 20
102.6268893476
 30
0.0
 11
600.75079021329987
 21
102.6268893476
 31
0.0
  0
ARC
  5
762
  8
┌▓È_1
 62
     5
 10
600.75079021329987
 20
101.8268893476
 30
0.0
 40
0.8
 50
0.0
 51
90.0
  0
LINE
  5
763
  8
┌▓È_1
 62
     5
 10
600.75079021329987
 20
88.626889347599985
 30
0.0
 11
595.55079021330005
 21
88.626889347599985
 31
0.0
  0
LINE
  5
764
  8
┌▓È_1
 62
     5
 10
601.55079021330005
 20
101.8268893476
 30
0.0
 11
601.55079021330005
 21
89.426889347599996
 31
0.0
  0
ARC
  5
765
  8
┌▓È_1
 62
     5
 10
600.75079021329987
 20
89.426889347599996
 30
0.0
 40
0.8
 50
270.0
 51
0.0
  0
LINE
  5
766
  8
┌▓È_1
 62
     5
 10
553.25079021329998
 20
96.026889347600004
 30
0.0
 11
600.75079021329987
 21
96.026889347600004
 31
0.0
  0
LINE
  5
767
  8
┌▓È_1
 62
     5
 10
571.55079021330005
 20
96.826889347600016
 30
0.0
 11
600.75079021329987
 21
96.826889347600016
 31
0.0
  0
ENDBLK
  5
768
  8
0
  0
BLOCK
  8
0
  2
CLUMP125
 70
     0
 10
0.0
 20
0.0
 30
0.0
  3
CLUMP125
  1

  0
LINE
  5
773
  8
┌▓È_1
 62
     5
 10
468.66829427079989
 20
96.026417993400003
 30
0.0
 11
493.36829427079988
 21
96.026417993400003
 31
0.0
  0
LINE
  5
774
  8
┌▓È_1
 62
     5
 10
468.66829427079989
 20
96.026417993400003
 30
0.0
 11
468.66829427079989
 21
96.8264179934
 31
0.0
  0
ARC
  5
775
  8
┌▓È_1
 62
     5
 10
479.1682942708
 20
97.626417993399997
 30
0.0
 40
0.8
 50
270.0
 51
0.0
  0
LINE
  5
776
  8
┌▓È_1
 62
     5
 10
488.1682942708
 20
89.426417993399994
 30
0.0
 11
493.36829427079988
 21
89.426417993399994
 31
0.0
  0
LINE
  5
777
  8
┌▓È_1
 62
     5
 10
488.1682942708
 20
88.626417993399997
 30
0.0
 11
488.1682942708
 21
89.426417993399994
 31
0.0
  0
LINE
  5
778
  8
┌▓È_1
 62
     5
 10
470.1682942708
 20
89.426417993399994
 30
0.0
 11
470.1682942708
 21
88.626417993399997
 31
0.0
  0
LINE
  5
779
  8
┌▓È_1
 62
     5
 10
479.96829427080002
 20
104.1264179934
 30
0.0
 11
493.36829427079988
 21
104.1264179934
 31
0.0
  0
LINE
  5
77A
  8
┌▓È_1
 62
     5
 10
479.1682942708
 20
97.626417993399997
 30
0.0
 11
479.1682942708
 21
103.3264179934
 31
0.0
  0
ARC
  5
77B
  8
┌▓È_1
 62
     5
 10
479.96829427080002
 20
103.3264179934
 30
0.0
 40
0.8
 50
90.0
 51
180.0
  0
LINE
  5
77C
  8
┌▓È_1
 62
     5
 10
479.96829427080002
 20
103.3264179934
 30
0.0
 11
479.96829427080002
 21
97.626417993399997
 31
0.0
  0
LINE
  5
77D
  8
┌▓È_1
 62
     5
 10
493.36829427079988
 20
89.426417993399994
 30
0.0
 11
493.36829427079988
 21
103.3264179934
 31
0.0
  0
LINE
  5
77E
  8
┌▓È_1
 62
     5
 10
493.36829427079988
 20
88.626417993399997
 30
0.0
 11
488.1682942708
 21
88.626417993399997
 31
0.0
  0
ARC
  5
77F
  8
┌▓È_1
 62
     5
 10
493.36829427079988
 20
89.426417993399994
 30
0.0
 40
0.8
 50
270.0
 51
0.0
  0
LINE
  5
780
  8
┌▓È_1
 62
     5
 10
494.16829427079989
 20
103.3264179934
 30
0.0
 11
494.16829427079989
 21
89.426417993399994
 31
0.0
  0
ARC
  5
781
  8
┌▓È_1
 62
     5
 10
493.36829427079988
 20
103.3264179934
 30
0.0
 40
0.8
 50
0.0
 51
90.0
  0
LINE
  5
782
  8
┌▓È_1
 62
     5
 10
470.1682942708
 20
89.426417993399994
 30
0.0
 11
470.1682942708
 21
96.026417993400003
 31
0.0
  0
LINE
  5
783
  8
┌▓È_1
 62
     5
 10
479.1682942708
 20
96.8264179934
 30
0.0
 11
493.36829427079988
 21
96.8264179934
 31
0.0
  0
LINE
  5
784
  8
┌▓È_1
 62
     5
 10
493.36829427079988
 20
103.3264179934
 30
0.0
 11
479.96829427080002
 21
103.3264179934
 31
0.0
  0
LINE
  5
785
  8
┌▓È_1
 62
     5
 10
464.9682942707999
 20
96.8264179934
 30
0.0
 11
464.9682942707999
 21
89.426417993399994
 31
0.0
  0
ARC
  5
786
  8
┌▓È_1
 62
     5
 10
464.9682942707999
 20
89.426417993399994
 30
0.0
 40
0.8
 50
180.0
 51
270.0
  0
LINE
  5
787
  8
┌▓È_1
 62
     5
 10
464.16829427079989
 20
89.426417993399994
 30
0.0
 11
464.16829427079989
 21
96.8264179934
 31
0.0
  0
ARC
  5
788
  8
┌▓È_1
 62
     5
 10
464.9682942707999
 20
96.8264179934
 30
0.0
 40
0.8
 50
90.0
 51
180.0
  0
LINE
  5
789
  8
┌▓È_1
 62
     5
 10
464.9682942707999
 20
97.626417993399997
 30
0.0
 11
479.1682942708
 21
97.626417993399997
 31
0.0
  0
LINE
  5
78A
  8
┌▓È_1
 62
     5
 10
464.9682942707999
 20
89.426417993399994
 30
0.0
 11
470.1682942708
 21
89.426417993399994
 31
0.0
  0
LINE
  5
78B
  8
┌▓È_1
 62
     5
 10
470.1682942708
 20
88.626417993399997
 30
0.0
 11
464.9682942707999
 21
88.626417993399997
 31
0.0
  0
LINE
  5
78C
  8
┌▓È_1
 62
     5
 10
479.1682942708
 20
96.8264179934
 30
0.0
 11
464.9682942707999
 21
96.8264179934
 31
0.0
  0
ENDBLK
  5
78D
  8
0
  0
BLOCK
  8
0
  2
CLUMP126
 70
     0
 10
0.0
 20
0.0
 30
0.0
  3
CLUMP126
  1

  0
LINE
  5
7A1
  8
┌▓È_1
 62
     5
 10
467.16829462719988
 20
98.126889347599999
 30
0.0
 11
479.1682942708
 21
98.126889347599999
 31
0.0
  0
ARC
  5
7A2
  8
┌▓È_1
 62
     5
 10
467.1682942708
 20
100.1268893476
 30
0.0
 40
2.0
 50
180.0
 51
270.00001020809998
  0
LINE
  5
7A3
  8
┌▓È_1
 62
     5
 10
467.1682942708
 20
100.1268893476
 30
0.0
 11
479.1682942708
 21
100.1268893476
 31
0.0
  0
LINE
  5
7A4
  8
┌▓È_1
 62
     5
 10
467.1682942708
 20
100.1268893476
 30
0.0
 11
467.1682942708
 21
225.12688934760001
 31
0.0
  0
LINE
  5
7A5
  8
┌▓È_1
 62
     5
 10
479.1682942708
 20
98.126889347599999
 30
0.0
 11
479.1682942708
 21
227.12688934760001
 31
0.0
  0
LINE
  5
7A6
  8
┌▓È_1
 62
     5
 10
467.1682942708
 20
227.12688934760001
 30
0.0
 11
479.1682942708
 21
227.12688934760001
 31
0.0
  0
LINE
  5
7A7
  8
┌▓È_1
 62
     5
 10
465.16829427079989
 20
225.12688799829999
 30
0.0
 11
465.16829427079989
 21
100.1268893476
 31
0.0
  0
ARC
  5
7A8
  8
┌▓È_1
 62
     5
 10
467.1682942708
 20
225.12688934760001
 30
0.0
 40
2.0
 50
90.0
 51
180.0000386554
  0
LINE
  5
7A9
  8
┌▓È_1
 62
     5
 10
467.1682942708
 20
225.12688934760001
 30
0.0
 11
479.1682942708
 21
225.12688934760001
 31
0.0
  0
ENDBLK
  5
7AA
  8
0
  0
BLOCK
  8
0
  2
CLUMP127
 70
     0
 10
0.0
 20
0.0
 30
0.0
  3
CLUMP127
  1

  0
INSERT
  5
7B2
  8
┌▓È_1
  2
CLUMP128
 10
0.0
 20
0.0
 30
0.0
  0
INSERT
  5
7C6
  8
┌▓È_1
  2
CLUMP131
 10
0.0
 20
0.0
 30
0.0
  0
ENDBLK
  5
7D9
  8
0
  0
BLOCK
  8
0
  2
CLUMP128
 70
     0
 10
0.0
 20
0.0
 30
0.0
  3
CLUMP128
  1

  0
INSERT
  5
7B5
  8
┌▓È_1
  2
CLUMP129
 10
0.0
 20
0.0
 30
0.0
  0
INSERT
  5
7BD
  8
┌▓È_1
  2
CLUMP130
 10
0.0
 20
0.0
 30
0.0
  0
ENDBLK
  5
7C4
  8
0
  0
BLOCK
  8
0
  2
CLUMP129
 70
     0
 10
0.0
 20
0.0
 30
0.0
  3
CLUMP129
  1

  0
ARC
  5
7B7
  8
┌▓È_1
 10
313.04115624999997
 20
115.96285809760001
 30
0.0
 40
3.5
 50
90.0
 51
270.0
  0
LINE
  5
7B8
  8
┌▓È_1
 10
313.04115624999997
 20
119.46285809760001
 30
0.0
 11
328.04115624999997
 21
119.46285809760001
 31
0.0
  0
ARC
  5
7B9
  8
┌▓È_1
 10
328.04115624999997
 20
115.96285809760001
 30
0.0
 40
3.5
 50
270.0
 51
90.0
  0
LINE
  5
7BA
  8
┌▓È_1
 10
328.04115624999997
 20
112.46285809760001
 30
0.0
 11
313.04115624999997
 21
112.46285809760001
 31
0.0
  0
ENDBLK
  5
7BB
  8
0
  0
BLOCK
  8
0
  2
CLUMP130
 70
     0
 10
0.0
 20
0.0
 30
0.0
  3
CLUMP130
  1

  0
ARC
  5
7BF
  8
┌▓È_1
 10
313.04115624999997
 20
130.96285809759999
 30
0.0
 40
3.5
 50
90.0
 51
270.0
  0
LINE
  5
7C0
  8
┌▓È_1
 10
328.04115624999997
 20
127.46285809760001
 30
0.0
 11
313.04115624999997
 21
127.46285809760001
 31
0.0
  0
LINE
  5
7C1
  8
┌▓È_1
 10
313.04115624999997
 20
134.46285809759999
 30
0.0
 11
328.04115624999997
 21
134.46285809759999
 31
0.0
  0
ARC
  5
7C2
  8
┌▓È_1
 10
328.04115624999997
 20
130.96285809759999
 30
0.0
 40
3.5
 50
270.0
 51
90.0
  0
ENDBLK
  5
7C3
  8
0
  0
BLOCK
  8
0
  2
CLUMP131
 70
     0
 10
0.0
 20
0.0
 30
0.0
  3
CLUMP131
  1

  0
INSERT
  5
7C9
  8
┌▓È_1
  2
CLUMP132
 10
0.0
 20
0.0
 30
0.0
  0
INSERT
  5
7D1
  8
┌▓È_1
  2
CLUMP133
 10
0.0
 20
0.0
 30
0.0
  0
ENDBLK
  5
7D8
  8
0
  0
BLOCK
  8
0
  2
CLUMP132
 70
     0
 10
0.0
 20
0.0
 30
0.0
  3
CLUMP132
  1

  0
ARC
  5
7CB
  8
┌▓È_1
 10
313.04115624999997
 20
193.96285809759999
 30
0.0
 40
3.5
 50
90.0
 51
270.0
  0
LINE
  5
7CC
  8
┌▓È_1
 10
328.04115624999997
 20
197.46285809759999
 30
0.0
 11
313.04115624999997
 21
197.46285809759999
 31
0.0
  0
LINE
  5
7CD
  8
┌▓È_1
 10
313.04115624999997
 20
190.46285809759999
 30
0.0
 11
328.04115624999997
 21
190.46285809759999
 31
0.0
  0
ARC
  5
7CE
  8
┌▓È_1
 10
328.04115624999997
 20
193.96285809759999
 30
0.0
 40
3.5
 50
270.0
 51
90.0
  0
ENDBLK
  5
7CF
  8
0
  0
BLOCK
  8
0
  2
CLUMP133
 70
     0
 10
0.0
 20
0.0
 30
0.0
  3
CLUMP133
  1

  0
ARC
  5
7D3
  8
┌▓È_1
 10
313.04115624999997
 20
208.96285809759999
 30
0.0
 40
3.5
 50
90.0
 51
270.0
  0
LINE
  5
7D4
  8
┌▓È_1
 10
328.04115624999997
 20
212.46285809759999
 30
0.0
 11
313.04115624999997
 21
212.46285809759999
 31
0.0
  0
LINE
  5
7D5
  8
┌▓È_1
 10
313.04115624999997
 20
205.46285809759999
 30
0.0
 11
328.04115624999997
 21
205.46285809759999
 31
0.0
  0
ARC
  5
7D6
  8
┌▓È_1
 10
328.04115624999997
 20
208.96285809759999
 30
0.0
 40
3.5
 50
270.0
 51
90.0
  0
ENDBLK
  5
7D7
  8
0
  0
BLOCK
  8
0
  2
CLUMP134
 70
     0
 10
0.0
 20
0.0
 30
0.0
  3
CLUMP134
  1

  0
LINE
  5
7EB
  8
┌▓È_1
 62
     5
 10
553.25079021329998
 20
228.4268893476
 30
0.0
 11
553.25079021329998
 21
229.22688934760001
 31
0.0
  0
LINE
  5
7EC
  8
┌▓È_1
 62
     5
 10
547.35079021329989
 20
235.8268893476
 30
0.0
 11
547.35079021329989
 21
228.4268893476
 31
0.0
  0
LINE
  5
7ED
  8
┌▓È_1
 62
     5
 10
552.55079021330005
 20
235.8268893476
 30
0.0
 11
547.35079021329989
 21
235.8268893476
 31
0.0
  0
LINE
  5
7EE
  8
┌▓È_1
 62
     5
 10
552.55079021330005
 20
235.8268893476
 30
0.0
 11
552.55079021330005
 21
236.62688934760001
 31
0.0
  0
LINE
  5
7EF
  8
┌▓È_1
 62
     5
 10
552.55079021330005
 20
236.62688934760001
 30
0.0
 11
547.35079021329989
 21
236.62688934760001
 31
0.0
  0
ARC
  5
7F0
  8
┌▓È_1
 62
     5
 10
547.35079021329989
 20
235.8268893476
 30
0.0
 40
0.8
 50
90.0
 51
180.0
  0
LINE
  5
7F1
  8
┌▓È_1
 62
     5
 10
546.55079021330005
 20
235.8268893476
 30
0.0
 11
546.55079021330005
 21
228.4268893476
 31
0.0
  0
ARC
  5
7F2
  8
┌▓È_1
 62
     5
 10
547.35079021329989
 20
228.4268893476
 30
0.0
 40
0.8
 50
180.0
 51
270.0
  0
LINE
  5
7F3
  8
┌▓È_1
 62
     5
 10
595.55079021330005
 20
236.62688934760001
 30
0.0
 11
595.55079021330005
 21
235.8268893476
 31
0.0
  0
LINE
  5
7F4
  8
┌▓È_1
 62
     5
 10
600.75079021329987
 20
235.8268893476
 30
0.0
 11
595.55079021330005
 21
235.8268893476
 31
0.0
  0
LINE
  5
7F5
  8
┌▓È_1
 62
     5
 10
600.75079021329987
 20
223.4268893476
 30
0.0
 11
600.75079021329987
 21
235.8268893476
 31
0.0
  0
LINE
  5
7F6
  8
┌▓È_1
 62
     5
 10
572.35079021329989
 20
223.4268893476
 30
0.0
 11
600.75079021329987
 21
223.4268893476
 31
0.0
  0
LINE
  5
7F7
  8
┌▓È_1
 62
     5
 10
547.35079021329989
 20
227.62688934760001
 30
0.0
 11
571.55079021330005
 21
227.62688934760001
 31
0.0
  0
LINE
  5
7F8
  8
┌▓È_1
 62
     5
 10
547.35079021329989
 20
228.4268893476
 30
0.0
 11
571.55079021330005
 21
228.4268893476
 31
0.0
  0
LINE
  5
7F9
  8
┌▓È_1
 62
     5
 10
572.35079021329989
 20
227.62688934760001
 30
0.0
 11
572.35079021329989
 21
223.4268893476
 31
0.0
  0
ARC
  5
7FA
  8
┌▓È_1
 62
     5
 10
571.55079021330005
 20
227.62688934760001
 30
0.0
 40
0.8
 50
0.0
 51
90.0
  0
LINE
  5
7FB
  8
┌▓È_1
 62
     5
 10
571.55079021330005
 20
227.62688934760001
 30
0.0
 11
571.55079021330005
 21
223.4268893476
 31
0.0
  0
ARC
  5
7FC
  8
┌▓È_1
 62
     5
 10
572.35079021329989
 20
223.4268893476
 30
0.0
 40
0.8
 50
180.0
 51
270.0
  0
LINE
  5
7FD
  8
┌▓È_1
 62
     5
 10
572.35079021329989
 20
222.62688934760001
 30
0.0
 11
600.75079021329987
 21
222.62688934760001
 31
0.0
  0
ARC
  5
7FE
  8
┌▓È_1
 62
     5
 10
600.75079021329987
 20
223.4268893476
 30
0.0
 40
0.8
 50
270.0
 51
0.0
  0
LINE
  5
7FF
  8
┌▓È_1
 62
     5
 10
600.75079021329987
 20
236.62688934760001
 30
0.0
 11
595.55079021330005
 21
236.62688934760001
 31
0.0
  0
LINE
  5
800
  8
┌▓È_1
 62
     5
 10
601.55079021330005
 20
223.4268893476
 30
0.0
 11
601.55079021330005
 21
235.8268893476
 31
0.0
  0
ARC
  5
801
  8
┌▓È_1
 62
     5
 10
600.75079021329987
 20
235.8268893476
 30
0.0
 40
0.8
 50
0.0
 51
90.0
  0
LINE
  5
802
  8
┌▓È_1
 62
     5
 10
553.25079021329998
 20
229.22688934760001
 30
0.0
 11
600.75079021329987
 21
229.22688934760001
 31
0.0
  0
LINE
  5
803
  8
┌▓È_1
 62
     5
 10
571.55079021330005
 20
228.4268893476
 30
0.0
 11
600.75079021329987
 21
228.4268893476
 31
0.0
  0
ENDBLK
  5
804
  8
0
  0
BLOCK
  8
0
  2
*U183
 70
     1
 10
0.0
 20
0.0
 30
0.0
  3
*U183
  1

  0
TEXT
  5
81F
  8
┌▓È_1
  6
CONTINUOUS
 10
-287.1335704149534
 20
59.514140459799997
 30
0.0
 40
8.2461809158000001
  1
2
  0
ENDBLK
  5
821
  8
0
  0
BLOCK
  8
0
  2
*U184
 70
     1
 10
0.0
 20
0.0
 30
0.0
  3
*U184
  1

  0
TEXT
  5
823
  8
┌▓È_1
  6
CONTINUOUS
 10
-196.92058957096481
 20
59.514140459799997
 30
0.0
 40
8.2461809158000001
  1
1
  0
ENDBLK
  5
825
  8
0
  0
BLOCK
  8
0
  2
*U185
 70
     1
 10
0.0
 20
0.0
 30
0.0
  3
*U185
  1

  0
TEXT
  5
827
  8
┌▓È_1
  6
CONTINUOUS
 10
-134.58790225095339
 20
59.514140459799997
 30
0.0
 40
8.2461809158000001
  1
3
  0
ENDBLK
  5
829
  8
0
  0
BLOCK
  8
0
  2
*U186
 70
     1
 10
0.0
 20
0.0
 30
0.0
  3
*U186
  1

  0
TEXT
  5
82B
  8
É}ÿg
  6
CONTINUOUS
 10
586.49666394431063
 20
-335.69802105707822
 30
0.0
 40
9.7454860209999996
  1
FM15-60(D)
  0
ENDBLK
  5
82D
  8
0
  0
BLOCK
  8
0
  2
*U187
 70
     1
 10
0.0
 20
0.0
 30
0.0
  3
*U187
  1

  0
TEXT
  5
82F
  8
É}ÿg
  6
CONTINUOUS
 10
542.81512000246801
 20
-308.19802105707822
 30
0.0
 40
9.7454860209999996
  1
ânâCéãü[éÚ(É¾î^ üEÉ[î^ )
  0
ENDBLK
  5
831
  8
0
  0
BLOCK
  8
0
  2
*U188
 70
     1
 10
0.0
 20
0.0
 30
0.0
  3
*U188
  1

  0
TEXT
  5
833
  8
┌▓È_1
  6
CONTINUOUS
 10
-163.71770491719869
 20
-62.693210326595931
 30
0.0
 40
7.4965279578999988
  1
39-Å¼ö╗îè
  0
ENDBLK
  5
835
  8
0
  0
BLOCK
  8
0
  2
*U189
 70
     1
 10
0.0
 20
0.0
 30
0.0
  3
*U189
  1

  0
TEXT
  5
837
  8
É}ÿg
  6
CONTINUOUS
 10
598.34722686884197
 20
-248.83561786679991
 30
0.0
 40
7.496527552599999
  1
2
  0
ENDBLK
  5
839
  8
0
  0
BLOCK
  8
0
  2
*U190
 70
     1
 10
0.0
 20
0.0
 30
0.0
  3
*U190
  1

  0
TEXT
  5
83B
  8
É}ÿg
  6
CONTINUOUS
 10
393.90018313560608
 20
-236.71615226033299
 30
0.0
 40
7.496527552599999
  1
èW(û┌ÄM)
  0
ENDBLK
  5
83D
  8
0
  0
BLOCK
  8
0
  2
*U191
 70
     1
 10
0.0
 20
0.0
 30
0.0
  3
*U191
  1

  0
TEXT
  5
83F
  8
É}ÿg
  6
CONTINUOUS
 10
505.3001058417604
 20
-236.33561786679991
 30
0.0
 40
7.496527552599999
  1
SUS304 2.0t
  0
ENDBLK
  5
841
  8
0
  0
BLOCK
  8
0
  2
*U192
 70
     1
 10
0.0
 20
0.0
 30
0.0
  3
*U192
  1

  0
TEXT
  5
843
  8
É}ÿg
  6
CONTINUOUS
 10
598.78484142140508
 20
-236.33561786679991
 30
0.0
 40
7.496527552599999
  1
1
  0
ENDBLK
  5
845
  8
0
  0
BLOCK
  8
0
  2
*U193
 70
     1
 10
0.0
 20
0.0
 30
0.0
  3
*U193
  1

  0
TEXT
  5
847
  8
É}ÿg
  6
CONTINUOUS
 10
546.82202103157863
 20
318.62405382777513
 30
0.0
 40
6.7468748986999989
  1
ë³ü@Æ¨ü@ôÓü@ùe
  0
ENDBLK
  5
849
  8
0
  0
BLOCK
  8
0
  2
*U194
 70
     1
 10
0.0
 20
0.0
 30
0.0
  3
*U194
  1

  0
TEXT
  5
84B
  8
É}ÿg
  6
CONTINUOUS
 10
481.63443352545102
 20
318.69255001964012
 30
0.0
 40
6.7468748986999989
  1
ë³Æ¨ô·
  0
ENDBLK
  5
84D
  8
0
  0
BLOCK
  8
0
  2
*U195
 70
     1
 10
0.0
 20
0.0
 30
0.0
  3
*U195
  1

  0
TEXT
  5
84F
  8
É}ÿg
  6
CONTINUOUS
 10
456.05243790074189
 20
318.761046211505
 30
0.0
 40
6.7468748986999989
  1
òøöÈ
  0
ENDBLK
  5
851
  8
0
  0
BLOCK
  8
0
  2
*U196
 70
     1
 10
0.0
 20
0.0
 30
0.0
  3
*U196
  1

  0
TEXT
  5
853
  8
É}ÿg
  6
CONTINUOUS
 10
340.59418589009999
 20
-364.55921488860912
 30
0.0
 40
13.4937497973
  1
èöÄ«ë´Äð
  0
ENDBLK
  5
855
  8
0
  0
BLOCK
  8
0
  2
*U197
 70
     1
 10
0.0
 20
0.0
 30
0.0
  3
*U197
  1

  0
TEXT
  5
857
  8
É}ÿg
  6
CONTINUOUS
 10
664.39129424494445
 20
318.58980573184272
 30
0.0
 40
6.7468748986999989
  1
îƒöFÄÊ
  0
ENDBLK
  5
859
  8
0
  0
BLOCK
  8
0
  2
*U198
 70
     1
 10
0.0
 20
0.0
 30
0.0
  3
*U198
  1

  0
TEXT
  5
85B
  8
É}ÿg
  6
CONTINUOUS
 10
517.9073212650203
 20
-353.72393850291979
 30
0.0
 40
7.496527552599999
  1
É} öÈ
  0
ENDBLK
  5
85D
  8
0
  0
BLOCK
  8
0
  2
*U199
 70
     1
 10
0.0
 20
0.0
 30
0.0
  3
*U199
  1

  0
TEXT
  5
85F
  8
É}ÿg
  6
CONTINUOUS
 10
515.3006606693192
 20
-298.87615226033301
 30
0.0
 40
7.496527552599999
  1
É╗òiû╝
  0
ENDBLK
  5
861
  8
0
  0
BLOCK
  8
0
  2
*U200
 70
     1
 10
0.0
 20
0.0
 30
0.0
  3
*U200
  1

  0
TEXT
  5
863
  8
É}ÿg
  6
CONTINUOUS
 10
515.50995458576222
 20
-326.30004538162638
 30
0.0
 40
7.496527552599999
  1
É}û╩û╝
  0
ENDBLK
  5
865
  8
0
  0
BLOCK
  8
0
  2
*U201
 70
     1
 10
0.0
 20
0.0
 30
0.0
  3
*U201
  1

  0
TEXT
  5
867
  8
É}ÿg
  6
CONTINUOUS
 10
339.99796937819292
 20
-299.67192359841317
 30
0.0
 40
7.496527552599999
  1
ô·ü@ü@òt
  0
ENDBLK
  5
869
  8
0
  0
BLOCK
  8
0
  2
*U202
 70
     1
 10
0.0
 20
0.0
 30
0.0
  3
*U202
  1

  0
TEXT
  5
86B
  8
É}ÿg
  6
CONTINUOUS
 10
401.69884715177358
 20
-299.90024423453298
 30
0.0
 40
7.496527552599999
  1
Ä┌ü@ü@ôx
  0
ENDBLK
  5
86D
  8
0
  0
BLOCK
  8
0
  2
*U203
 70
     1
 10
0.0
 20
0.0
 30
0.0
  3
*U203
  1

  0
TEXT
  5
86F
  8
É}ÿg
  6
CONTINUOUS
 10
639.49403853274202
 20
318.62405382777513
 30
0.0
 40
6.7468748986999989
  1
ë³Æ¨ÄÊ
  0
ENDBLK
  5
871
  8
0
  0
BLOCK
  8
0
  2
*U204
 70
     1
 10
0.0
 20
0.0
 30
0.0
  3
*U204
  1

  0
TEXT
  5
873
  8
É}ÿg
  6
CONTINUOUS
 10
329.11176810330812
 20
-274.06393850291983
 30
0.0
 40
7.496527552599999
  1
òiöÈ
  0
ENDBLK
  5
875
  8
0
  0
BLOCK
  8
0
  2
*U205
 70
     1
 10
0.0
 20
0.0
 30
0.0
  3
*U205
  1

  0
TEXT
  5
877
  8
É}ÿg
  6
CONTINUOUS
 10
326.9945935481
 20
-341.15024423453298
 30
0.0
 40
7.496527552599999
  1
 É╗É}
  0
ENDBLK
  5
879
  8
0
  0
BLOCK
  8
0
  2
*U206
 70
     1
 10
0.0
 20
0.0
 30
0.0
  3
*U206
  1

  0
TEXT
  5
87B
  8
É}ÿg
  6
CONTINUOUS
 10
326.9945935481
 20
-327.32413735582639
 30
0.0
 40
7.496527552599999
  1
 É¦îv
  0
ENDBLK
  5
87D
  8
0
  0
BLOCK
  8
0
  2
*U207
 70
     1
 10
0.0
 20
0.0
 30
0.0
  3
*U207
  1

  0
TEXT
  5
87F
  8
É}ÿg
  6
CONTINUOUS
 10
420.7445935481
 20
-341.18829767388621
 30
0.0
 40
7.496527552599999
  1
 îƒÉ}
  0
ENDBLK
  5
881
  8
0
  0
BLOCK
  8
0
  2
*U208
 70
     1
 10
0.0
 20
0.0
 30
0.0
  3
*U208
  1

  0
TEXT
  5
883
  8
É}ÿg
  6
CONTINUOUS
 10
420.7445935481
 20
-327.36219079517969
 30
0.0
 40
7.496527552599999
  1
 Åãì©
  0
ENDBLK
  5
885
  8
0
  0
BLOCK
  8
0
  2
*U209
 70
     1
 10
0.0
 20
0.0
 30
0.0
  3
*U209
  1

  0
TEXT
  5
887
  8
É}ÿg
  6
CONTINUOUS
 10
591.36442074751164
 20
-274.21615226033299
 30
0.0
 40
7.496527552599999
  1
Éöù╩
  0
ENDBLK
  5
889
  8
0
  0
BLOCK
  8
0
  2
*U210
 70
     1
 10
0.0
 20
0.0
 30
0.0
  3
*U210
  1

  0
TEXT
  5
88B
  8
É}ÿg
  6
CONTINUOUS
 10
627.64615586064713
 20
-274.33031257839292
 30
0.0
 40
7.496527552599999
  1
ö§ü@ü@ü@ìl
  0
ENDBLK
  5
88D
  8
0
  0
BLOCK
  8
0
  2
*U211
 70
     1
 10
0.0
 20
0.0
 30
0.0
  3
*U211
  1

  0
TEXT
  5
88F
  8
É}ÿg
  6
CONTINUOUS
 10
508.00190003584459
 20
-274.10199194227312
 30
0.0
 40
7.496527552599999
  1
ìÌü@ü@ü@Ä┐
  0
ENDBLK
  5
891
  8
0
  0
BLOCK
  8
0
  2
*U212
 70
     1
 10
0.0
 20
0.0
 30
0.0
  3
*U212
  1

  0
TEXT
  5
893
  8
É}ÿg
  6
CONTINUOUS
 10
388.28730083099441
 20
-274.14004538162641
 30
0.0
 40
7.496527552599999
  1
òiü@ü@ü@û╝
  0
ENDBLK
  5
895
  8
0
  0
BLOCK
  8
0
  2
*U213
 70
     1
 10
0.0
 20
0.0
 30
0.0
  3
*U213
  1

  0
TEXT
  5
897
  8
É}ÿg
  6
CONTINUOUS
 10
372.51814162349899
 20
-341.18829767388621
 30
0.0
 40
7.496527552599999
  1
öÆÉ{ëÛ
  0
ENDBLK
  5
899
  8
0
  0
BLOCK
  8
0
  2
*U214
 70
     1
 10
0.0
 20
0.0
 30
0.0
  3
*U214
  1

  0
TEXT
  5
89B
  8
É}ÿg
  6
CONTINUOUS
 10
372.51814162349899
 20
-327.43829767388632
 30
0.0
 40
7.496527552599999
  1
öÆÉ{ëÛ
  0
ENDBLK
  5
89D
  8
0
  0
BLOCK
  8
0
  2
*U215
 70
     1
 10
0.0
 20
0.0
 30
0.0
  3
*U215
  1

  0
TEXT
  5
89F
  8
É}ÿg
  6
CONTINUOUS
 10
468.32302734857711
 20
-341.15024423453298
 30
0.0
 40
7.496527552599999
  1
û÷ î┤
  0
ENDBLK
  5
8A1
  8
0
  0
BLOCK
  8
0
  2
*U216
 70
     1
 10
0.0
 20
0.0
 30
0.0
  3
*U216
  1

  0
TEXT
  5
8A3
  8
É}ÿg
  6
CONTINUOUS
 10
468.32302734857711
 20
-327.40024423453298
 30
0.0
 40
7.496527552599999
  1
û÷ î┤
  0
ENDBLK
  5
8A5
  8
0
  0
BLOCK
  8
0
  2
*U217
 70
     1
 10
0.0
 20
0.0
 30
0.0
  3
*U217
  1

  0
TEXT
  5
8A7
  8
É}ÿg
  6
CONTINUOUS
 10
343.7272064348162
 20
-313.28762820029999
 30
0.0
 40
7.496527552599999
  1
H09.07
  0
ENDBLK
  5
8A9
  8
0
  0
BLOCK
  8
0
  2
*U218
 70
     1
 10
0.0
 20
0.0
 30
0.0
  3
*U218
  1

  0
TEXT
  5
8AB
  8
É}ÿg
  6
CONTINUOUS
 10
335.8472268688422
 20
-248.83561786679991
 30
0.0
 40
7.496527552599999
  1
2
  0
ENDBLK
  5
8AD
  8
0
  0
BLOCK
  8
0
  2
*U219
 70
     1
 10
0.0
 20
0.0
 30
0.0
  3
*U219
  1

  0
TEXT
  5
8AF
  8
É}ÿg
  6
CONTINUOUS
 10
336.28484142140508
 20
-261.33561786679991
 30
0.0
 40
7.496527552599999
  1
1
  0
ENDBLK
  5
8B1
  8
0
  0
BLOCK
  8
0
  2
*U220
 70
     1
 10
0.0
 20
0.0
 30
0.0
  3
*U220
  1

  0
TEXT
  5
8B3
  8
É}ÿg
  6
CONTINUOUS
 10
598.34722686884197
 20
-261.33561786679991
 30
0.0
 40
7.496527552599999
  1
2
  0
ENDBLK
  5
8B5
  8
0
  0
BLOCK
  8
0
  2
*U221
 70
     1
 10
0.0
 20
0.0
 30
0.0
  3
*U221
  1

  0
TEXT
  5
8B7
  8
É}ÿg
  6
CONTINUOUS
 10
335.88528030819538
 20
-236.33561786679991
 30
0.0
 40
7.496527552599999
  1
3
  0
ENDBLK
  5
8B9
  8
0
  0
BLOCK
  8
0
  2
*U222
 70
     1
 10
0.0
 20
0.0
 30
0.0
  3
*U222
  1

  0
TEXT
  5
8BB
  8
ë³Æ¨
  6
CONTINUOUS
 10
644.35726815515523
 20
306.46653478709999
 30
0.0
 40
6.7468748986999989
  1
üûüû
  0
ENDBLK
  5
8BD
  8
0
  0
BLOCK
  8
0
  2
*U223
 70
     1
 10
0.0
 20
0.0
 30
0.0
  3
*U223
  1

  0
TEXT
  5
8BF
  8
ë³Æ¨
  6
CONTINUOUS
 10
528.77327447515779
 20
306.47278478710001
 30
0.0
 40
6.7468748986999989
  1
**********************
  0
ENDBLK
  5
8C1
  8
0
  0
BLOCK
  8
0
  2
*U224
 70
     1
 10
0.0
 20
0.0
 30
0.0
  3
*U224
  1

  0
TEXT
  5
8C3
  8
ë³Æ¨
  6
CONTINUOUS
 10
462.02010313719609
 20
304.955554119
 30
0.0
 40
6.7468749188999988
  1
1
  0
ENDBLK
  5
8C5
  8
0
  0
BLOCK
  8
0
  2
*U225
 70
     1
 10
0.0
 20
0.0
 30
0.0
  3
*U225
  1

  0
TEXT
  5
8C7
  8
ë³Æ¨
  6
CONTINUOUS
 10
474.64782195522361
 20
306.46653478709999
 30
0.0
 40
6.7468748986999989
  1
H**.**.**
  0
ENDBLK
  5
8C9
  8
0
  0
BLOCK
  8
0
  2
*U226
 70
     1
 10
0.0
 20
0.0
 30
0.0
  3
*U226
  1

  0
TEXT
  5
8CB
  8
É}ÿg
  6
CONTINUOUS
 10
405.94180563966648
 20
-313.28762820029999
 30
0.0
 40
7.496527552599999
  1
1üF2.5
  0
ENDBLK
  5
8CD
  8
0
  0
BLOCK
  8
0
  2
*U227
 70
     1
 10
0.0
 20
0.0
 30
0.0
  3
*U227
  1

  0
TEXT
  5
8CF
  8
É}ÿg
  6
CONTINUOUS
 10
505.3001058417604
 20
-261.33561786679991
 30
0.0
 40
7.496527552599999
  1
SUS304 0.8t
  0
ENDBLK
  5
8D1
  8
0
  0
BLOCK
  8
0
  2
*U228
 70
     1
 10
0.0
 20
0.0
 30
0.0
  3
*U228
  1

  0
TEXT
  5
8D3
  8
É}ÿg
  6
CONTINUOUS
 10
395.4413474294148
 20
-261.75420569968628
 30
0.0
 40
7.496527552599999
  1
û{   æ╠
  0
ENDBLK
  5
8D5
  8
0
  0
BLOCK
  8
0
  2
*U229
 70
     1
 10
0.0
 20
0.0
 30
0.0
  3
*U229
  1

  0
TEXT
  5
8D7
  8
É}ÿg
  6
CONTINUOUS
 10
591.78989746840705
 20
-362.70332633520002
 30
0.0
 40
9.7454860209999996
  1
SHF00033
  0
ENDBLK
  5
8D9
  8
0
  0
BLOCK
  8
0
  2
*U230
 70
     1
 10
0.0
 20
0.0
 30
0.0
  3
*U230
  1

  0
TEXT
  5
8DB
  8
É}ÿg
  6
CONTINUOUS
 10
407.84676865859029
 20
-248.83561786679991
 30
0.0
 40
7.496527552599999
  1
Ä¿
  0
ENDBLK
  5
8DD
  8
0
  0
BLOCK
  8
0
  2
*U231
 70
     1
 10
0.0
 20
0.0
 30
0.0
  3
*U231
  1

  0
TEXT
  5
8DF
  8
É}ÿg
  6
CONTINUOUS
 10
505.3001058417604
 20
-248.83561786679991
 30
0.0
 40
7.496527552599999
  1
SUS304 0.8t
  0
ENDBLK
  5
8E1
  8
0
  0
BLOCK
  8
0
  2
*U232
 70
     1
 10
0.0
 20
0.0
 30
0.0
  3
*U232
  1

  0
TEXT
  5
8E3
  8
┌▓È_1
  6
CONTINUOUS
 10
423.39727995120001
 20
-215.85963941774261
 30
0.0
 40
7.4965279578999988
  1
üiÉ[î^üj
  0
ENDBLK
  5
8E5
  8
0
  0
BLOCK
  8
0
  2
*U233
 70
     1
 10
0.0
 20
0.0
 30
0.0
  3
*U233
  1

  0
TEXT
  5
8E7
  8
┌▓È_1
  6
CONTINUOUS
 10
370.35723960780001
 20
-216.01185318338531
 30
0.0
 40
7.4965279578999988
  1
üiÉ¾î^üj
  0
ENDBLK
  5
8E9
  8
0
  0
BLOCK
  8
0
  2
*U234
 70
     1
 10
0.0
 20
0.0
 30
0.0
  3
*U234
  1

  0
TEXT
  5
8EB
  8
┌▓È_1
  6
CONTINUOUS
 10
466.86505290519989
 20
47.098501385014707
 30
0.0
 40
7.4965279578999988
  1
üiÉ¾î^üj
  0
ENDBLK
  5
8ED
  8
0
  0
BLOCK
  8
0
  2
*U235
 70
     1
 10
0.0
 20
0.0
 30
0.0
  3
*U235
  1

  0
TEXT
  5
8EF
  8
┌▓È_1
  6
CONTINUOUS
 10
558.84559565610004
 20
47.250715150657349
 30
0.0
 40
7.4965279578999988
  1
üiÉ[î^üj
  0
ENDBLK
  5
8F1
  8
0
  0
ENDSEC
  0
SECTION
  2
ENTITIES
  0
INSERT
  5
30
  8
┌▓È_1
  2
CLUMP0
 10
0.0
 20
0.0
 30
0.0
  0
INSERT
  5
38
  8
┌▓È_1
  2
CLUMP1
 10
0.0
 20
0.0
 30
0.0
  0
LINE
  5
3F
  8
┌▓È_1
  6
BORDER
 62
     3
 10
58.041606770800001
 20
241.46297528509999
 30
0.0
 11
58.041606770800001
 21
83.462975285100001
 31
0.0
  0
INSERT
  5
41
  8
┌▓È_1
  2
CLUMP2
 10
0.0
 20
0.0
 30
0.0
  0
INSERT
  5
6D
  8
┌▓È_1
  2
CLUMP9
 10
0.0
 20
0.0
 30
0.0
  0
LINE
  5
74
  8
┌▓È_1
 10
-224.75839322920001
 20
28.918378740800001
 30
0.0
 11
-224.75839322920001
 21
5.7183787408000004
 31
0.0
  0
DIMENSION
  5
85
  8
Éíû@É³
 62
     5
  2
*D10
 10
-231.9583932292
 20
267.29494168529999
 30
0.0
 11
-236.5229770672
 21
267.29494168529999
 31
0.0
 70
   128
  1
<>
 13
-231.9583932292
 23
227.46297528509999
 33
0.0
 14
-240.9583932292
 24
236.46297528509999
 34
0.0
  0
INSERT
  5
87
  8
Éíû@É³
  2
BALLON0
 10
0.0
 20
0.0
 30
0.0
  0
INSERT
  5
91
  8
Éíû@É³
  2
BALLON1
 10
0.0
 20
0.0
 30
0.0
  0
INSERT
  5
9B
  8
Éíû@É³
  2
BALLON2
 10
0.0
 20
0.0
 30
0.0
  0
INSERT
  5
A5
  8
┌▓È_1
  2
CLUMP10
 10
0.0
 20
0.0
 30
0.0
  0
INSERT
  5
D1
  8
┌▓È_1
  2
CLUMP17
 10
0.0
 20
0.0
 30
0.0
  0
INSERT
  5
D9
  8
┌▓È_1
  2
CLUMP18
 10
0.0
 20
0.0
 30
0.0
  0
LINE
  5
E0
  8
┌▓È_1
 10
287.94138461850002
 20
-74.995765916499991
 30
0.0
 11
287.94138461850002
 21
-203.99576591650001
 31
0.0
  0
INSERT
  5
E2
  8
┌▓È_1
  2
CLUMP19
 10
0.0
 20
0.0
 30
0.0
  0
ARC
  5
10D
  8
┌▓È_1
 62
     5
 10
282.9423846185
 20
-265.37161458330002
 30
0.0
 40
5.0
 50
269.99999715709998
 51
0.0
  0
LINE
  5
10E
  8
┌▓È_1
 62
     5
 10
287.9423846185
 20
-256.37161458330002
 30
0.0
 11
287.9423846185
 21
-265.37161458330002
 31
0.0
  0
INSERT
  5
110
  8
┌▓È_1
  2
CLUMP26
 10
0.0
 20
0.0
 30
0.0
  0
CIRCLE
  5
117
  8
┌▓È_1
 10
261.19165284770003
 20
-139.49622685400001
 30
0.0
 40
7.5
  0
LINE
  5
118
  8
┌▓È_1
  6
BORDER
 62
     3
 10
261.19165284770003
 20
-126.996226854
 30
0.0
 11
261.19165284770003
 21
-151.99622685400001
 31
0.0
  0
INSERT
  5
11A
  8
┌▓È_1
  2
CLUMP27
 10
0.0
 20
0.0
 30
0.0
  0
INSERT
  5
146
  8
┌▓È_1
  2
CLUMP34
 10
0.0
 20
0.0
 30
0.0
  0
DIMENSION
  5
17F
  8
Éíû@É³
 62
     5
  2
*D45
 10
186.1916528477
 20
-228.99576527569999
 30
0.0
 11
223.6916528477
 21
-228.99576527569999
 31
0.0
 70
   128
  1
<>
 13
186.1916528477
 23
-189.49622685400001
 33
0.0
 14
261.19165284770003
 24
-189.49622685400001
 34
0.0
 50
180.0
  0
DIMENSION
  5
18E
  8
Éíû@É³
 62
     5
  2
*D46
 10
261.19165284770003
 20
-228.99576591650001
 30
0.0
 11
274.5665187331
 21
-228.99576591650001
 31
0.0
 70
   128
  1
<>
 13
261.19165284770003
 23
-189.49622685400001
 33
0.0
 14
287.94138461850002
 24
-203.99576591650001
 34
0.0
 50
180.0
  0
DIMENSION
  5
19D
  8
Éíû@É³
 62
     5
  2
*D47
 10
111.1916528477
 20
-228.99576527569999
 30
0.0
 11
148.6916528477
 21
-228.99576527569999
 31
0.0
 70
   128
  1
<>
 13
111.1916528477
 23
-189.49622685400001
 33
0.0
 14
186.1916528477
 24
-189.49622685400001
 34
0.0
 50
180.0
  0
DIMENSION
  5
1AC
  8
Éíû@É³
 62
     5
  2
*D48
 10
36.191652847699999
 20
-228.99576527569999
 30
0.0
 11
73.691652847699999
 21
-228.99576527569999
 31
0.0
 70
   128
  1
<>
 13
36.191652847699999
 23
-189.49622685400001
 33
0.0
 14
111.1916528477
 24
-189.49622685400001
 34
0.0
 50
180.0
  0
INSERT
  5
1AE
  8
┌▓È_1
  2
CLUMP41
 10
0.0
 20
0.0
 30
0.0
  0
INSERT
  5
1B6
  8
┌▓È_1
  2
CLUMP42
 10
0.0
 20
0.0
 30
0.0
  0
INSERT
  5
1E2
  8
┌▓È_1
  2
CLUMP49
 10
0.0
 20
0.0
 30
0.0
  0
INSERT
  5
20E
  8
┌▓È_1
  2
CLUMP56
 10
0.0
 20
0.0
 30
0.0
  0
DIMENSION
  5
240
  8
Éíû@É³
 62
     5
  2
*D71
 10
-271.14857960329999
 20
-141.82313464289999
 30
0.0
 11
-204.73896065139999
 21
-119.31687726760001
 31
0.0
 70
   131
  1
2-â│15
 15
-257.75697746660001
 25
-135.0655468919
 35
0.0
 40
0.0
  0
DIMENSION
  5
24F
  8
Éíû@É³
 62
     5
  2
*D72
 10
-113.8083471523
 20
-228.99576527569999
 30
0.0
 11
-76.308347152300001
 21
-228.99576527569999
 31
0.0
 70
   128
  1
<>
 13
-113.8083471523
 23
-189.49622685400001
 33
0.0
 14
-38.808347152300001
 24
-189.49622685400001
 34
0.0
 50
180.0
  0
INSERT
  5
251
  8
┌▓È_1
  2
CLUMP63
 10
0.0
 20
0.0
 30
0.0
  0
INSERT
  5
27D
  8
┌▓È_1
  2
CLUMP70
 10
0.0
 20
0.0
 30
0.0
  0
INSERT
  5
2A9
  8
┌▓È_1
  2
CLUMP77
 10
0.0
 20
0.0
 30
0.0
  0
INSERT
  5
2B1
  8
┌▓È_1
  2
CLUMP78
 10
0.0
 20
0.0
 30
0.0
  0
CIRCLE
  5
2B8
  8
┌▓È_1
 10
-204.45884375
 20
162.46285809759999
 30
0.0
 40
7.5
  0
LINE
  5
2B9
  8
┌▓È_1
  6
BORDER
 62
     3
 10
-204.45884375
 20
174.96285809759999
 30
0.0
 11
-204.45884375
 21
149.96285809759999
 31
0.0
  0
LINE
  5
2BA
  8
┌▓È_1
 10
-231.2081119792
 20
224.71282163929999
 30
0.0
 11
-231.2081119792
 21
226.9633190351
 31
0.0
  0
INSERT
  5
2BC
  8
┌▓È_1
  2
CLUMP79
 10
0.0
 20
0.0
 30
0.0
  0
LINE
  5
2C3
  8
┌▓È_1
 10
-231.2081119792
 20
100.2128216393
 30
0.0
 11
-231.2081119792
 21
224.71282163929999
 31
0.0
  0
LINE
  5
2C4
  8
┌▓È_1
 10
-231.9583932292
 20
97.462975285100001
 30
0.0
 11
-231.9583932292
 21
227.46297528509999
 31
0.0
  0
LINE
  5
2C5
  8
┌▓È_1
 10
-231.2081119792
 20
100.2128216393
 30
0.0
 11
-231.2081119792
 21
97.963319035100014
 31
0.0
  0
LINE
  5
2C6
  8
┌▓È_1
 10
-240.9583932292
 20
88.462975285100001
 30
0.0
 11
-240.9583932292
 21
236.46297528509999
 31
0.0
  0
INSERT
  5
2C8
  8
┌▓È_1
  2
CLUMP80
 10
0.0
 20
0.0
 30
0.0
  0
ARC
  5
2F3
  8
┌▓È_1
 10
-240.15839322919999
 20
34.118378740799997
 30
0.0
 40
0.8
 50
90.0
 51
180.0
  0
LINE
  5
2F4
  8
┌▓È_1
 10
-240.9583932292
 20
28.918378740800001
 30
0.0
 11
-240.9583932292
 21
34.118378740799997
 31
0.0
  0
ARC
  5
2F5
  8
┌▓È_1
 10
-232.75839322920001
 20
5.7183787408000004
 30
0.0
 40
0.8
 50
270.0
 51
0.0
  0
ARC
  5
2F6
  8
┌▓È_1
 10
-240.15839322919999
 20
5.7183787408000004
 30
0.0
 40
0.8
 50
180.0
 51
270.0
  0
LINE
  5
2F7
  8
┌▓È_1
 10
-240.9583932292
 20
5.7183787408000004
 30
0.0
 11
-240.9583932292
 21
10.9183787408
 31
0.0
  0
LINE
  5
2F8
  8
┌▓È_1
 10
-240.15839322919999
 20
5.7183787408000004
 30
0.0
 11
-240.15839322919999
 21
10.9183787408
 31
0.0
  0
LINE
  5
2F9
  8
┌▓È_1
 10
-240.15839322919999
 20
10.9183787408
 30
0.0
 11
-240.9583932292
 21
10.9183787408
 31
0.0
  0
LINE
  5
2FA
  8
┌▓È_1
 10
-223.95842631389999
 20
10.9183787408
 30
0.0
 11
-223.95842631389999
 21
4.9183787407999988
 31
0.0
  0
LINE
  5
2FB
  8
┌▓È_1
 10
-223.95842631389999
 20
5.7183787408000004
 30
0.0
 11
-240.15839322919999
 21
5.7183787408000004
 31
0.0
  0
LINE
  5
2FC
  8
┌▓È_1
 10
-232.75839322920001
 20
28.918378740800001
 30
0.0
 11
-232.75839322920001
 21
5.7183787408000004
 31
0.0
  0
INSERT
  5
2FE
  8
0
  6
CONTINUOUS
  2
*U186
 10
0.0
 20
0.0
 30
0.0
  0
INSERT
  5
2FF
  8
0
  6
CONTINUOUS
  2
*U187
 10
0.0
 20
0.0
 30
0.0
  0
LINE
  5
300
  8
┌▓È_1
  6
BORDER
 62
     3
 10
58.041606770800001
 20
39.918378740800001
 30
0.0
 11
58.041606770800001
 21
-0.0816212592
 31
0.0
  0
LINE
  5
301
  8
┌▓È_1
 62
     5
 10
-290.5576153815
 20
-256.37161458330002
 30
0.0
 11
-290.5576153815
 21
-265.37161458330002
 31
0.0
  0
INSERT
  5
303
  8
┌▓È_1
  2
CLUMP87
 10
0.0
 20
0.0
 30
0.0
  0
INSERT
  5
30B
  8
┌▓È_1
  2
CLUMP88
 10
0.0
 20
0.0
 30
0.0
  0
CIRCLE
  5
312
  8
┌▓È_1
 10
-263.80834715229997
 20
-139.49622685400001
 30
0.0
 40
7.5
  0
LINE
  5
313
  8
┌▓È_1
  6
BORDER
 62
     3
 10
-263.80834715229997
 20
-126.996226854
 30
0.0
 11
-263.80834715229997
 21
-151.99622685400001
 31
0.0
  0
INSERT
  5
315
  8
┌▓È_1
  2
CLUMP89
 10
0.0
 20
0.0
 30
0.0
  0
LINE
  5
31C
  8
┌▓È_1
 10
-290.55861538149998
 20
-77.246263312400004
 30
0.0
 11
-290.55861538149998
 21
-74.995765916499991
 31
0.0
  0
LINE
  5
31D
  8
┌▓È_1
 10
-169.56495308769999
 20
-65.325471149899997
 30
0.0
 11
-116.188267974
 21
-65.325471149899997
 31
0.0
  0
INSERT
  5
31E
  8
0
  6
CONTINUOUS
  2
*U188
 10
0.0
 20
0.0
 30
0.0
  0
LINE
  5
31F
  8
┌▓È_1
 10
-188.8083471523
 20
-89.496226853999985
 30
0.0
 11
-169.56495308769999
 21
-65.325471149899997
 31
0.0
  0
SOLID
  5
320
  8
┌▓È_1
 10
-188.8083471523
 20
-89.496226853999985
 30
0.0
 11
-186.74221324129999
 21
-84.750069471000003
 31
0.0
 12
-186.528544361
 22
-86.632669825699978
 32
0.0
 13
-186.528544361
 23
-86.632669825699978
 33
0.0
  0
SOLID
  5
321
  8
┌▓È_1
 10
-188.8083471523
 20
-89.496226853999985
 30
0.0
 11
-184.6459440063
 21
-86.419000945400015
 31
0.0
 12
-186.528544361
 22
-86.632669825699978
 32
0.0
 13
-186.528544361
 23
-86.632669825699978
 33
0.0
  0
LINE
  5
322
  8
┌▓È_1
 10
-290.55861538149998
 20
-201.7462633124
 30
0.0
 11
-290.55861538149998
 21
-77.246263312400004
 31
0.0
  0
INSERT
  5
324
  8
┌▓È_1
  2
CLUMP90
 10
0.0
 20
0.0
 30
0.0
  0
INSERT
  5
350
  8
┌▓È_1
  2
CLUMP97
 10
0.0
 20
0.0
 30
0.0
  0
INSERT
  5
37C
  8
┌▓È_1
  2
CLUMP104
 10
0.0
 20
0.0
 30
0.0
  0
INSERT
  5
3A8
  8
┌▓È_1
  2
CLUMP111
 10
0.0
 20
0.0
 30
0.0
  0
LINE
  5
3D3
  8
┌▓È_1
 10
-290.55861538149998
 20
-201.7462633124
 30
0.0
 11
-290.55861538149998
 21
-203.99576591650001
 31
0.0
  0
ARC
  5
3D4
  8
┌▓È_1
 62
     5
 10
-285.5576153815
 20
-265.37161458330002
 30
0.0
 40
5.0
 50
180.0
 51
269.99999957839998
  0
DIMENSION
  5
3E3
  8
Éíû@É³
 62
     5
  2
*D128
 10
-188.8083471523
 20
-228.99576527569999
 30
0.0
 11
-151.3083471523
 21
-228.99576527569999
 31
0.0
 70
   128
  1
<>
 13
-188.8083471523
 23
-189.49622685400001
 33
0.0
 14
-113.8083471523
 24
-189.49622685400001
 34
0.0
 50
180.0
  0
DIMENSION
  5
3F2
  8
Éíû@É³
 62
     5
  2
*D129
 10
-263.80834715229997
 20
-228.99576527569999
 30
0.0
 11
-226.3083471523
 21
-228.99576527569999
 31
0.0
 70
   128
  1
<>
 13
-263.80834715229997
 23
-189.49622685400001
 33
0.0
 14
-188.8083471523
 24
-189.49622685400001
 34
0.0
 50
180.0
  0
DIMENSION
  5
401
  8
Éíû@É³
 62
     5
  2
*D130
 10
-290.55861538149998
 20
-228.99576591650001
 30
0.0
 11
-277.1834812669
 21
-228.99576591650001
 31
0.0
 70
   128
  1
<>
 13
-290.55861538149998
 23
-203.99576591650001
 33
0.0
 14
-263.80834715229997
 24
-189.49622685400001
 34
0.0
 50
180.0
  0
DIMENSION
  5
410
  8
Éíû@É³
 62
     5
  2
*D131
 10
-177.8083471523
 20
-158.256317682
 30
0.0
 11
-188.8083471523
 21
-158.256317682
 31
0.0
 70
   128
  1
<>
 13
-177.8083471523
 23
-170.99622685400001
 33
0.0
 14
-199.8083471523
 24
-170.99622685400001
 34
0.0
  0
DIMENSION
  5
41F
  8
Éíû@É³
 62
     5
  2
*D132
 10
-165.3083471523
 20
-174.49622685400001
 30
0.0
 11
-165.3083471523
 21
-170.99622685400001
 31
0.0
 70
   128
  1
<>
 13
-181.3083471523
 23
-174.49622685400001
 33
0.0
 14
-181.3083471523
 24
-167.49622685400001
 34
0.0
 50
90.0
  0
INSERT
  5
420
  8
0
  6
CONTINUOUS
  2
*U189
 10
0.0
 20
0.0
 30
0.0
  0
INSERT
  5
422
  8
É}ÿg
  2
CLUMP118
 10
0.0
 20
0.0
 30
0.0
  0
INSERT
  5
42B
  8
0
  6
CONTINUOUS
  2
*U190
 10
0.0
 20
0.0
 30
0.0
  0
INSERT
  5
42C
  8
0
  6
CONTINUOUS
  2
*U191
 10
0.0
 20
0.0
 30
0.0
  0
INSERT
  5
42D
  8
0
  6
CONTINUOUS
  2
*U192
 10
0.0
 20
0.0
 30
0.0
  0
INSERT
  5
42F
  8
É}ÿg
  2
CLUMP119
 10
0.0
 20
0.0
 30
0.0
  0
INSERT
  5
4D3
  8
0
  6
CONTINUOUS
  2
*U213
 10
0.0
 20
0.0
 30
0.0
  0
INSERT
  5
4D4
  8
0
  6
CONTINUOUS
  2
*U214
 10
0.0
 20
0.0
 30
0.0
  0
INSERT
  5
4D5
  8
0
  6
CONTINUOUS
  2
*U215
 10
0.0
 20
0.0
 30
0.0
  0
INSERT
  5
4D6
  8
0
  6
CONTINUOUS
  2
*U216
 10
0.0
 20
0.0
 30
0.0
  0
INSERT
  5
4D7
  8
0
  6
CONTINUOUS
  2
*U217
 10
0.0
 20
0.0
 30
0.0
  0
INSERT
  5
4D8
  8
0
  6
CONTINUOUS
  2
*U218
 10
0.0
 20
0.0
 30
0.0
  0
INSERT
  5
4D9
  8
0
  6
CONTINUOUS
  2
*U219
 10
0.0
 20
0.0
 30
0.0
  0
INSERT
  5
4DA
  8
0
  6
CONTINUOUS
  2
*U220
 10
0.0
 20
0.0
 30
0.0
  0
INSERT
  5
4DB
  8
0
  6
CONTINUOUS
  2
*U221
 10
0.0
 20
0.0
 30
0.0
  0
INSERT
  5
4DD
  8
0
  6
CONTINUOUS
  2
*U222
 10
0.0
 20
0.0
 30
0.0
  0
INSERT
  5
4DE
  8
0
  6
CONTINUOUS
  2
*U223
 10
0.0
 20
0.0
 30
0.0
  0
INSERT
  5
4DF
  8
0
  6
CONTINUOUS
  2
*U224
 10
0.0
 20
0.0
 30
0.0
  0
INSERT
  5
4E0
  8
0
  6
CONTINUOUS
  2
*U225
 10
0.0
 20
0.0
 30
0.0
  0
INSERT
  5
4E1
  8
0
  6
CONTINUOUS
  2
*U226
 10
0.0
 20
0.0
 30
0.0
  0
INSERT
  5
4E2
  8
0
  6
CONTINUOUS
  2
*U227
 10
0.0
 20
0.0
 30
0.0
  0
INSERT
  5
4E3
  8
0
  6
CONTINUOUS
  2
*U228
 10
0.0
 20
0.0
 30
0.0
  0
INSERT
  5
4E5
  8
É}ÿg
  2
CLUMP120
 10
0.0
 20
0.0
 30
0.0
  0
INSERT
  5
4EF
  8
É}ÿg
  2
CLUMP121
 10
0.0
 20
0.0
 30
0.0
  0
INSERT
  5
4F8
  8
0
  6
CONTINUOUS
  2
*U229
 10
0.0
 20
0.0
 30
0.0
  0
DIMENSION
  5
507
  8
Éíû@É³
 62
     5
  2
*D137
 10
357.0416067708
 20
267.29494168529999
 30
0.0
 11
352.02812494519998
 21
267.29494168529999
 31
0.0
 70
   128
  1
<>
 13
357.0416067708
 23
236.46297528509999
 33
0.0
 14
348.0416067708
 24
227.46297528509999
 34
0.0
  0
DIMENSION
  5
516
  8
Éíû@É³
 62
     5
  2
*D138
 10
378.22191988120011
 20
4.9183787407999988
 30
0.0
 11
378.22191988120011
 21
7.9183787407999997
 31
0.0
 70
   128
  1
<>
 13
356.24160677079999
 23
4.9183787407999988
 33
0.0
 14
357.0416067708
 24
10.9183787408
 34
0.0
 50
90.0
  0
DIMENSION
  5
525
  8
Éíû@É³
 62
     5
  2
*D139
 10
378.22191988120011
 20
28.918378740800001
 30
0.0
 11
378.22191988120011
 21
31.918378740800001
 31
0.0
 70
   128
  1
<>
 13
357.0416067708
 23
28.918378740800001
 33
0.0
 14
356.24160677079999
 24
34.918378740800001
 34
0.0
 50
90.0
  0
DIMENSION
  5
534
  8
Éíû@É³
 62
     5
  2
*D140
 10
494.16829427079989
 20
277.96620042349991
 30
0.0
 11
479.1682942708
 21
277.96620042349991
 31
0.0
 70
   128
  1
<>
 13
494.16829427079989
 23
235.82736070179999
 33
0.0
 14
464.16829427079989
 24
235.82736070179999
 34
0.0
  0
DIMENSION
  5
543
  8
Éíû@É³
 62
     5
  2
*D141
 10
479.1682942708
 20
265.39310700909999
 30
0.0
 11
471.42781769240003
 21
265.39310700909999
 31
0.0
 70
   128
  1
<>
 13
479.1682942708
 23
227.6273607018
 33
0.0
 14
464.16829427079989
 24
235.82736070179999
 34
0.0
  0
DIMENSION
  5
552
  8
Éíû@É³
 62
     5
  2
*D142
 10
622.96570148339993
 20
102.6268893476
 30
0.0
 11
622.96570148339993
 21
162.62688934760001
 31
0.0
 70
   128
  1
<>
 13
601.55079021330005
 23
102.6268893476
 33
0.0
 14
601.55079021330005
 24
222.62688934760001
 34
0.0
 50
90.0
  0
DIMENSION
  5
561
  8
Éíû@É³
 62
     5
  2
*D143
 10
517.09359601339986
 20
104.1264179934
 30
0.0
 11
517.09359601339986
 21
162.62688934760001
 31
0.0
 70
   128
  1
<>
 13
493.36829427079988
 23
104.1264179934
 33
0.0
 14
493.36829427079988
 24
221.1273607018
 34
0.0
 50
90.0
  0
DIMENSION
  5
570
  8
Éíû@É³
 62
     5
  2
*D144
 10
622.96570148339993
 20
88.626889347599985
 30
0.0
 11
622.96570148339993
 21
95.626889347599999
 31
0.0
 70
   128
  1
14
 13
601.55079021330005
 23
88.626889347599985
 33
0.0
 14
601.55079021330005
 24
102.6268893476
 34
0.0
 50
90.0
  0
DIMENSION
  5
57F
  8
Éíû@É³
 62
     5
  2
*D145
 10
601.55079021330005
 20
277.19489319280001
 30
0.0
 11
574.05079021330005
 21
277.19489319280001
 31
0.0
 70
   128
  1
<>
 13
601.55079021330005
 23
235.8268893476
 33
0.0
 14
546.55079021330005
 24
235.8268893476
 34
0.0
  0
DIMENSION
  5
58E
  8
Éíû@É³
 62
     5
  2
*D146
 10
601.55079021330005
 20
265.56375610790002
 30
0.0
 11
586.55079021330005
 21
265.56375610790002
 31
0.0
 70
   128
  1
<>
 13
601.55079021330005
 23
236.62688934760001
 33
0.0
 14
571.55079021330005
 24
227.62688934760001
 34
0.0
  0
DIMENSION
  5
59D
  8
Éíû@É³
 62
     5
  2
*D147
 10
287.94138461850002
 20
-49.995765916499998
 30
0.0
 11
-1.3086153814999999
 21
-49.995765916499998
 31
0.0
 70
   128
  1
<>
 13
287.94138461850002
 23
-74.995765916499991
 33
0.0
 14
-290.55861538149998
 24
-74.995765916499991
 34
0.0
  0
DIMENSION
  5
5AC
  8
Éíû@É³
 62
     5
  2
*D148
 10
357.0416067708
 20
284.90190579659998
 30
0.0
 11
58.041606770800001
 21
284.90190579659998
 31
0.0
 70
   128
  1
<>
 13
357.0416067708
 23
236.46297528509999
 33
0.0
 14
-240.9583932292
 24
236.46297528509999
 34
0.0
  0
DIMENSION
  5
5BB
  8
Éíû@É³
 62
     5
  2
*D149
 10
-38.808347152300001
 20
-228.99576527569999
 30
0.0
 11
-1.3083471523000001
 21
-228.99576527569999
 31
0.0
 70
   128
  1
<>
 13
-38.808347152300001
 23
-189.49622685400001
 33
0.0
 14
36.191652847699999
 24
-189.49622685400001
 34
0.0
 50
180.0
  0
DIMENSION
  5
5CA
  8
Éíû@É³
 62
     5
  2
*D150
 10
348.0416067708
 20
267.29494168529999
 30
0.0
 11
57.528128253299997
 21
267.29494168529999
 31
0.0
 70
   128
  1
<>
 13
348.0416067708
 23
227.46297528509999
 33
0.0
 14
-231.9583932292
 24
227.46297528509999
 34
0.0
  0
DIMENSION
  5
5D9
  8
Éíû@É³
 62
     5
  2
*D151
 10
312.94238526949999
 20
-185.99622685400001
 30
0.0
 11
312.94238526949999
 21
-178.49622685400001
 31
0.0
 70
   128
  1
<>
 13
272.19165284770003
 23
-185.99622685400001
 33
0.0
 14
272.19165284770003
 24
-170.99622685400001
 34
0.0
 50
90.0
  0
DIMENSION
  5
5E0
  8
Éíû@É³
 62
     5
  2
*D152
 10
282.9423846185
 20
-265.37161458330002
 30
0.0
 11
279.3214363047
 21
-281.07184422900002
 31
0.0
 70
   132
  1
<>
 15
286.47791852440002
 25
-268.90714848930003
 35
0.0
 40
0.0
  0
DIMENSION
  5
5EF
  8
Éíû@É³
 62
     5
  2
*D153
 10
312.94138461850002
 20
-170.99622685400001
 30
0.0
 11
312.94138461850002
 21
-155.2459963853
 31
0.0
 70
   128
  1
<>
 13
272.19165284770003
 23
-170.99622685400001
 33
0.0
 14
292.94138461850002
 24
-139.49576591650001
 34
0.0
 50
90.0
  0
DIMENSION
  5
5FE
  8
Éíû@É³
 62
     5
  2
*D154
 10
312.94138461850002
 20
-203.99576591650001
 30
0.0
 11
312.94138461850002
 21
-194.9959963853
 31
0.0
 70
   128
  1
<>
 13
287.94138461850002
 23
-203.99576591650001
 33
0.0
 14
272.19165284770003
 24
-185.99622685400001
 34
0.0
 50
90.0
  0
DIMENSION
  5
60D
  8
Éíû@É³
 62
     5
  2
*D155
 10
312.94238526949999
 20
-107.996226854
 30
0.0
 11
312.94238526949999
 21
-100.496226854
 31
0.0
 70
   128
  1
<>
 13
272.19165284770003
 23
-107.996226854
 33
0.0
 14
272.19165284770003
 24
-92.996226854000014
 34
0.0
 50
90.0
  0
DIMENSION
  5
61C
  8
Éíû@É³
 62
     5
  2
*D156
 10
312.94138461850002
 20
-139.49576591650001
 30
0.0
 11
312.94138461850002
 21
-123.7459963853
 31
0.0
 70
   128
  1
<>
 13
292.94138461850002
 23
-139.49576591650001
 33
0.0
 14
272.19165284770003
 24
-107.996226854
 34
0.0
 50
90.0
  0
DIMENSION
  5
62B
  8
Éíû@É³
 62
     5
  2
*D157
 10
517.15373662310003
 20
88.626417993399997
 30
0.0
 11
517.15373662310003
 21
70.635428308399995
 31
0.0
 70
   128
  1
15.5
 13
493.36829427079988
 23
88.626417993399997
 33
0.0
 14
493.36829427079988
 24
104.1264179934
 34
0.0
 50
90.0
  0
DIMENSION
  5
63A
  8
Éíû@É³
 62
     5
  2
*D158
 10
622.96570148339993
 20
222.62688934760001
 30
0.0
 11
622.96570148339993
 21
229.62688934760001
 31
0.0
 70
   128
  1
14
 13
601.55079021330005
 23
222.62688934760001
 33
0.0
 14
601.55079021330005
 24
236.62688934760001
 34
0.0
 50
90.0
  0
DIMENSION
  5
649
  8
Éíû@É³
 62
     5
  2
*D159
 10
571.55079021330005
 20
265.56375610790002
 30
0.0
 11
559.05079021330005
 21
265.56375610790002
 31
0.0
 70
   128
  1
<>
 13
571.55079021330005
 23
227.62688934760001
 33
0.0
 14
546.55079021330005
 24
236.62688934760001
 34
0.0
  0
INSERT
  5
64A
  8
0
  6
CONTINUOUS
  2
*U230
 10
0.0
 20
0.0
 30
0.0
  0
INSERT
  5
64B
  8
0
  6
CONTINUOUS
  2
*U231
 10
0.0
 20
0.0
 30
0.0
  0
LINE
  5
64C
  8
┌▓È_1
  6
BORDER
 62
     3
 10
-1.3078966315
 20
-69.995765916499991
 30
0.0
 11
-1.3078966315
 21
-208.99576591650001
 31
0.0
  0
LINE
  5
64D
  8
┌▓È_1
  6
BORDER
 62
     3
 10
-1.3078966315
 20
-251.37161458329999
 30
0.0
 11
-1.3078966315
 21
-275.37161458330002
 31
0.0
  0
INSERT
  5
64F
  8
┌▓È_1
  2
CLUMP122
 10
0.0
 20
0.0
 30
0.0
  0
LINE
  5
656
  8
┌▓È_1
 10
-240.15839322919999
 20
34.918378740800001
 30
0.0
 11
58.041606770800001
 21
34.918378740800001
 31
0.0
  0
LINE
  5
657
  8
┌▓È_1
 10
-223.95842631389999
 20
10.9183787408
 30
0.0
 11
58.041606770800001
 21
10.9183787408
 31
0.0
  0
LINE
  5
658
  8
┌▓È_1
 10
-240.9583932292
 20
28.918378740800001
 30
0.0
 11
58.041606770800001
 21
28.918378740800001
 31
0.0
  0
LINE
  5
659
  8
┌▓È_1
 10
58.041606770800001
 20
19.118378740800001
 30
0.0
 11
-224.75839322920001
 21
19.118378740800001
 31
0.0
  0
LINE
  5
65A
  8
┌▓È_1
  6
BORDER
 62
     3
 10
-295.55861538150009
 20
-139.49576591650001
 30
0.0
 11
292.94138461850002
 21
-139.49576591650001
 31
0.0
  0
LINE
  5
65B
  8
┌▓È_1
  6
HIDDEN
 62
     1
 10
-290.55861538149998
 20
-201.99576591650001
 30
0.0
 11
287.94138461850002
 21
-201.99576591650001
 31
0.0
  0
LINE
  5
65C
  8
┌▓È_1
  6
HIDDEN
 62
     1
 10
-290.55861538149998
 20
-76.995765916499991
 30
0.0
 11
287.94138461850002
 21
-76.995765916499991
 31
0.0
  0
LINE
  5
65D
  8
┌▓È_1
 10
-290.55861538149998
 20
-74.995765916499991
 30
0.0
 11
287.94138461850002
 21
-74.995765916499991
 31
0.0
  0
LINE
  5
65E
  8
┌▓È_1
 10
-290.55861538149998
 20
-203.99576591650001
 30
0.0
 11
287.94138461850002
 21
-203.99576591650001
 31
0.0
  0
LINE
  5
65F
  8
┌▓È_1
 62
     5
 10
-290.5576153815
 20
-256.37161458330002
 30
0.0
 11
287.9423846185
 21
-256.37161458330002
 31
0.0
  0
INSERT
  5
660
  8
0
  6
CONTINUOUS
  2
*U232
 10
0.0
 20
0.0
 30
0.0
  0
INSERT
  5
661
  8
0
  6
CONTINUOUS
  2
*U233
 10
0.0
 20
0.0
 30
0.0
  0
DIMENSION
  5
670
  8
Éíû@É³
 62
     5
  2
*D161
 10
494.16829427079989
 20
265.39310700909999
 30
0.0
 11
486.6002980371
 21
265.39310700909999
 31
0.0
 70
   128
  1
<>
 13
494.16829427079989
 23
235.82736070179999
 33
0.0
 14
479.1682942708
 24
227.6273607018
 34
0.0
  0
DIMENSION
  5
67F
  8
Éíû@É³
 62
     5
  2
*D162
 10
517.15373662310003
 20
221.1273607018
 30
0.0
 11
517.15373662310003
 21
254.3348096611
 31
0.0
 70
   128
  1
15.5
 13
493.36829427079988
 23
221.1273607018
 33
0.0
 14
493.36829427079988
 24
236.6273607018
 34
0.0
 50
90.0
  0
DIMENSION
  5
68E
  8
Éíû@É³
 62
     5
  2
*D163
 10
312.94138461850002
 20
-92.996226854000014
 30
0.0
 11
312.94138461850002
 21
-83.995996385300003
 31
0.0
 70
   128
  1
<>
 13
272.19165284770003
 23
-92.996226854000014
 33
0.0
 14
287.94138461850002
 24
-74.995765916499991
 34
0.0
 50
90.0
  0
DIMENSION
  5
69D
  8
Éíû@É³
 62
     5
  2
*D164
 10
330.60388690730002
 20
-203.99576591650001
 30
0.0
 11
330.60388690730002
 21
-139.49576591650001
 31
0.0
 70
   128
  1
<>
 13
287.94138461850002
 23
-203.99576591650001
 33
0.0
 14
287.94138461850002
 24
-74.995765916499991
 34
0.0
 50
90.0
  0
DIMENSION
  5
6AC
  8
Éíû@É³
 62
     5
  2
*D165
 10
449.74413761429997
 20
-56.136556128499997
 30
0.0
 11
438.24413761429997
 21
-56.136556128499997
 31
0.0
 70
   128
  1
<>
 13
449.74413761429997
 23
-74.996087531100002
 33
0.0
 14
426.74413761429997
 24
-76.996087531100002
 34
0.0
  0
DIMENSION
  5
6BB
  8
Éíû@É³
 62
     5
  2
*D166
 10
391.68791775940002
 20
-56.136556128499997
 30
0.0
 11
384.68791775940002
 21
-56.136556128499997
 31
0.0
 70
   128
  1
<>
 13
391.68791775940002
 23
-74.996087531100002
 33
0.0
 14
377.68791775940002
 24
-76.996088880499997
 34
0.0
  0
DIMENSION
  5
6CA
  8
Éíû@É³
 62
     5
  2
*D167
 10
403.52182375080002
 20
88.462975285100001
 30
0.0
 11
403.52182375080002
 21
162.62697114709999
 31
0.0
 70
   128
  1
<>
 13
357.0416067708
 23
88.462975285100001
 33
0.0
 14
357.0416067708
 24
236.46297528509999
 34
0.0
 50
90.0
  0
DIMENSION
  5
6D9
  8
Éíû@É³
 62
     5
  2
*D168
 10
386.4253538717
 20
227.46297528509999
 30
0.0
 11
386.4253538717
 21
231.96297528509999
 31
0.0
 70
   128
  1
<>
 13
348.0416067708
 23
227.46297528509999
 33
0.0
 14
357.0416067708
 24
236.46297528509999
 34
0.0
 50
90.0
  0
DIMENSION
  5
6E8
  8
Éíû@É³
 62
     5
  2
*D169
 10
386.4253538717
 20
97.462975285100001
 30
0.0
 11
386.4253538717
 21
162.46297528509999
 31
0.0
 70
   128
  1
<>
 13
348.0416067708
 23
97.462975285100001
 33
0.0
 14
348.0416067708
 24
227.46297528509999
 34
0.0
 50
90.0
  0
DIMENSION
  5
6F7
  8
Éíû@É³
 62
     5
  2
*D170
 10
386.4253538717
 20
88.462975285100001
 30
0.0
 11
386.4253538717
 21
92.962975285100015
 31
0.0
 70
   128
  1
<>
 13
357.0416067708
 23
88.462975285100001
 33
0.0
 14
348.0416067708
 24
97.462975285100001
 34
0.0
 50
90.0
  0
LINE
  5
6F8
  8
┌▓È_1
 62
     5
 10
391.68791775940002
 20
-203.99608753109999
 30
0.0
 11
391.68791775940002
 21
-201.99608753109999
 31
0.0
  0
ARC
  5
6F9
  8
┌▓È_1
 62
     5
 10
379.68791775940002
 20
-201.99608753109999
 30
0.0
 40
2.0
 50
180.0
 51
270.00001020809998
  0
LINE
  5
6FA
  8
┌▓È_1
 62
     5
 10
379.68791811580002
 20
-203.99608753109999
 30
0.0
 11
391.68791775940002
 21
-203.99608753109999
 31
0.0
  0
LINE
  5
6FB
  8
┌▓È_1
 62
     5
 10
379.68791775940002
 20
-201.99608753109999
 30
0.0
 11
391.68791775940002
 21
-201.99608753109999
 31
0.0
  0
LINE
  5
6FC
  8
┌▓È_1
 62
     5
 10
428.74413761429997
 20
-201.99608753109999
 30
0.0
 11
449.74413761429997
 21
-201.99608753109999
 31
0.0
  0
LINE
  5
6FD
  8
┌▓È_1
 62
     5
 10
377.68791775940002
 20
-76.996088880499997
 30
0.0
 11
377.68791775940002
 21
-201.99608753109999
 31
0.0
  0
LINE
  5
6FE
  8
┌▓È_1
 62
     5
 10
379.68791775940002
 20
-201.99608753109999
 30
0.0
 11
379.68791775940002
 21
-76.996087531100002
 31
0.0
  0
LINE
  5
6FF
  8
┌▓È_1
 62
     5
 10
426.74413761429997
 20
-76.996087531100002
 30
0.0
 11
426.74413761429997
 21
-201.99608753109999
 31
0.0
  0
LINE
  5
700
  8
┌▓È_1
 62
     5
 10
428.74413761429997
 20
-76.996087531100002
 30
0.0
 11
428.74413761429997
 21
-201.99608753109999
 31
0.0
  0
LINE
  5
701
  8
┌▓È_1
  6
STITCH
 10
-290.5576153815
 20
-257.87161458330002
 30
0.0
 11
287.9423846185
 21
-257.87161458330002
 31
0.0
  0
LINE
  5
702
  8
┌▓È_1
 62
     5
 10
282.94238437040002
 20
-270.37161458330002
 30
0.0
 11
-285.55761541829997
 21
-270.37161458330002
 31
0.0
  0
LINE
  5
703
  8
┌▓È_1
 62
     5
 10
348.0416067708
 20
19.918378740799991
 30
0.0
 11
58.041606770800001
 21
19.918378740799991
 31
0.0
  0
LINE
  5
704
  8
┌▓È_1
 62
     5
 10
342.34160677080001
 20
4.9183787407999988
 30
0.0
 11
58.041606770800001
 21
4.9183787407999988
 31
0.0
  0
LINE
  5
705
  8
┌▓È_1
 62
     5
 10
58.041606770800001
 20
33.918378740800001
 30
0.0
 11
344.7916067708
 21
33.918378740800001
 31
0.0
  0
LINE
  5
706
  8
┌▓È_1
 62
     5
 10
348.84160677080001
 20
34.918378740800001
 30
0.0
 11
58.041606770800001
 21
34.918378740800001
 31
0.0
  0
LINE
  5
707
  8
┌▓È_1
 62
     5
 10
344.7916067708
 20
31.918378740800001
 30
0.0
 11
58.041606770800001
 21
31.918378740800001
 31
0.0
  0
LINE
  5
708
  8
┌▓È_1
 10
-231.9583932292
 20
227.46297528509999
 30
0.0
 11
348.0416067708
 21
227.46297528509999
 31
0.0
  0
LINE
  5
709
  8
┌▓È_1
 10
357.0416067708
 20
88.462975285100001
 30
0.0
 11
-240.9583932292
 21
88.462975285100001
 31
0.0
  0
LINE
  5
70A
  8
┌▓È_1
  6
HIDDEN
 62
     1
 10
-231.2081119792
 20
99.9633190351
 30
0.0
 11
347.2918880208
 21
99.9633190351
 31
0.0
  0
LINE
  5
70B
  8
┌▓È_1
  6
HIDDEN
 62
     1
 10
-231.2081119792
 20
224.9633190351
 30
0.0
 11
347.2918880208
 21
224.9633190351
 31
0.0
  0
LINE
  5
70C
  8
┌▓È_1
 10
-231.2081119792
 20
226.9633190351
 30
0.0
 11
347.2918880208
 21
226.9633190351
 31
0.0
  0
LINE
  5
70D
  8
┌▓È_1
 10
-231.2081119792
 20
97.963319035100014
 30
0.0
 11
347.2918880208
 21
97.963319035100014
 31
0.0
  0
LINE
  5
70E
  8
┌▓È_1
  6
BORDER
 62
     3
 10
-245.9583932292
 20
162.4633190351
 30
0.0
 11
362.0416067708
 21
162.4633190351
 31
0.0
  0
LINE
  5
70F
  8
┌▓È_1
 10
-240.9583932292
 20
236.46297528509999
 30
0.0
 11
357.0416067708
 21
236.46297528509999
 31
0.0
  0
LINE
  5
710
  8
┌▓È_1
 10
348.0416067708
 20
97.462975285100001
 30
0.0
 11
-231.9583932292
 21
97.462975285100001
 31
0.0
  0
ARC
  5
711
  8
┌▓È_1
 62
     5
 10
342.2916067708
 20
24.918378740800001
 30
0.0
 40
5.0
 50
270.0
 51
0.0
  0
LINE
  5
712
  8
┌▓È_1
 62
     5
 10
347.2916067708
 20
31.418378740800001
 30
0.0
 11
347.2916067708
 21
24.918378740800001
 31
0.0
  0
LINE
  5
713
  8
┌▓È_1
 62
     5
 10
348.0416067708
 20
19.918378740799991
 30
0.0
 11
348.0416067708
 21
5.7183787408000004
 31
0.0
  0
LINE
  5
714
  8
┌▓È_1
 62
     5
 10
344.7916067708
 20
33.918378740800001
 30
0.0
 11
347.2916067708
 21
33.918378740800001
 31
0.0
  0
LINE
  5
715
  8
┌▓È_1
 62
     5
 10
342.2916067708
 20
19.918378740799991
 30
0.0
 11
342.34160677080001
 21
19.918378740799991
 31
0.0
  0
LINE
  5
716
  8
┌▓È_1
 62
     5
 10
348.84160677080001
 20
34.118378740799997
 30
0.0
 11
356.24160677079999
 21
34.118378740799997
 31
0.0
  0
LINE
  5
717
  8
┌▓È_1
 62
     5
 10
357.0416067708
 20
10.9183787408
 30
0.0
 11
356.24160677079999
 21
10.9183787408
 31
0.0
  0
LINE
  5
718
  8
┌▓È_1
 62
     5
 10
356.24160677079999
 20
10.9183787408
 30
0.0
 11
356.24160677079999
 21
5.7183787408000004
 31
0.0
  0
LINE
  5
719
  8
┌▓È_1
 62
     5
 10
349.64160677080002
 20
4.9183787407999988
 30
0.0
 11
356.24160677079999
 21
4.9183787407999988
 31
0.0
  0
LINE
  5
71A
  8
┌▓È_1
 62
     5
 10
349.64160677080002
 20
4.9183787407999988
 30
0.0
 11
342.34160677080001
 21
4.9183787407999988
 31
0.0
  0
LINE
  5
71B
  8
┌▓È_1
 62
     5
 10
356.24160677079999
 20
28.918378740800001
 30
0.0
 11
348.84160677080001
 21
28.918378740800001
 31
0.0
  0
LINE
  5
71C
  8
┌▓È_1
 10
58.041606770800001
 20
4.9183787407999988
 30
0.0
 11
-240.15839322919999
 21
4.9183787407999988
 31
0.0
  0
LINE
  5
71D
  8
┌▓È_1
 62
     5
 10
428.74413761429997
 20
-76.996087531100002
 30
0.0
 11
449.74413761429997
 21
-76.996087531100002
 31
0.0
  0
LINE
  5
71E
  8
┌▓È_1
 62
     5
 10
428.74413761429997
 20
-74.996087531100002
 30
0.0
 11
449.74413761429997
 21
-74.996087531100002
 31
0.0
  0
LINE
  5
71F
  8
┌▓È_1
 62
     5
 10
449.74413761429997
 20
-74.996087531100002
 30
0.0
 11
449.74413761429997
 21
-76.996087531100002
 31
0.0
  0
ARC
  5
720
  8
┌▓È_1
 62
     5
 10
428.74413761429997
 20
-76.996087531100002
 30
0.0
 40
2.0
 50
90.0
 51
180.0
  0
LINE
  5
721
  8
┌▓È_1
  6
BORDER
 62
     3
 10
419.74413761429997
 20
-139.49608753109999
 30
0.0
 11
454.74413761429997
 21
-139.49608753109999
 31
0.0
  0
LINE
  5
722
  8
┌▓È_1
 62
     5
 10
391.68791775940002
 20
-74.996087531100002
 30
0.0
 11
391.68791775940002
 21
-76.996087531100002
 31
0.0
  0
LINE
  5
723
  8
┌▓È_1
  6
BORDER
 62
     3
 10
371.68791775940002
 20
-139.49608753109999
 30
0.0
 11
396.68791775940002
 21
-139.49608753109999
 31
0.0
  0
LINE
  5
724
  8
┌▓È_1
 62
     5
 10
379.68791775940002
 20
-76.996087531100002
 30
0.0
 11
391.68791775940002
 21
-76.996087531100002
 31
0.0
  0
ARC
  5
725
  8
┌▓È_1
 62
     5
 10
379.68791775940002
 20
-76.996087531100002
 30
0.0
 40
2.0
 50
90.0
 51
180.0000386554
  0
LINE
  5
726
  8
┌▓È_1
 62
     5
 10
379.68791775940002
 20
-74.996087531100002
 30
0.0
 11
391.68791775940002
 21
-74.996087531100002
 31
0.0
  0
LINE
  5
727
  8
┌▓È_1
 62
     5
 10
428.74413761429997
 20
-203.99608753109999
 30
0.0
 11
449.74413761429997
 21
-203.99608753109999
 31
0.0
  0
LINE
  5
728
  8
┌▓È_1
 62
     5
 10
449.74413761429997
 20
-201.99608753109999
 30
0.0
 11
449.74413761429997
 21
-203.99608753109999
 31
0.0
  0
ARC
  5
729
  8
┌▓È_1
 62
     5
 10
428.74413761429997
 20
-201.99608753109999
 30
0.0
 40
2.0
 50
180.0
 51
270.0
  0
LINE
  5
72A
  8
┌▓È_1
 62
     5
 10
571.55079021330005
 20
227.62688934760001
 30
0.0
 11
571.55079021330005
 21
227.12688934760001
 31
0.0
  0
ARC
  5
72B
  8
┌▓È_1
 62
     5
 10
550.55079021330005
 20
225.12688934760001
 30
0.0
 40
2.0
 50
90.0
 51
180.0
  0
LINE
  5
72C
  8
┌▓È_1
 62
     5
 10
467.6682942708
 20
225.12688934760001
 30
0.0
 11
467.1682942708
 21
225.12688934760001
 31
0.0
  0
INSERT
  5
72E
  8
┌▓È_1
  6
BORDER
 62
     5
  2
CLUMP123
 10
0.0
 20
0.0
 30
0.0
  0
LINE
  5
74B
  8
┌▓È_1
 62
     5
 10
550.55079021330005
 20
100.1268893476
 30
0.0
 11
571.55079021330005
 21
100.1268893476
 31
0.0
  0
INSERT
  5
74D
  8
┌▓È_1
 62
     5
  2
CLUMP124
 10
0.0
 20
0.0
 30
0.0
  0
LINE
  5
769
  8
┌▓È_1
  6
BORDER
 62
     3
 10
541.55079021330005
 20
162.62688934760001
 30
0.0
 11
606.55079021330005
 21
162.62688934760001
 31
0.0
  0
LINE
  5
76A
  8
┌▓È_1
 62
     5
 10
571.55079021330005
 20
99.626889347599999
 30
0.0
 11
571.55079021330005
 21
102.6268893476
 31
0.0
  0
LINE
  5
76B
  8
┌▓È_1
 62
     5
 10
550.55079021330005
 20
98.126889347599999
 30
0.0
 11
571.55079021330005
 21
98.126889347599999
 31
0.0
  0
ARC
  5
76C
  8
┌▓È_1
 62
     5
 10
550.55079021330005
 20
100.1268893476
 30
0.0
 40
2.0
 50
180.0
 51
270.0
  0
LINE
  5
76D
  8
┌▓È_1
 62
     5
 10
467.6682942708
 20
100.1268893476
 30
0.0
 11
467.1682942708
 21
100.1268893476
 31
0.0
  0
LINE
  5
76E
  8
┌▓È_1
 62
     5
 10
464.16829427079989
 20
96.8264179934
 30
0.0
 11
464.16829427079989
 21
162.62688934760001
 31
0.0
  0
LINE
  5
76F
  8
┌▓È_1
  6
BORDER
 62
     3
 10
459.1682942708
 20
162.62688934760001
 30
0.0
 11
499.1682942708
 21
162.62688934760001
 31
0.0
  0
INSERT
  5
771
  8
┌▓È_1
  6
BORDER
 62
     5
  2
CLUMP125
 10
0.0
 20
0.0
 30
0.0
  0
LINE
  5
78E
  8
┌▓È_1
 62
     5
 10
464.16829427079989
 20
228.42736070180001
 30
0.0
 11
464.16829427079989
 21
162.62688934760001
 31
0.0
  0
ARC
  5
78F
  8
┌▓È_1
 62
     5
 10
356.24160677079999
 20
5.7183787408000004
 30
0.0
 40
0.8
 50
270.0
 51
0.0
  0
LINE
  5
790
  8
┌▓È_1
 62
     5
 10
348.84160677080001
 20
5.7183787408000004
 30
0.0
 11
356.24160677079999
 21
5.7183787408000004
 31
0.0
  0
LINE
  5
791
  8
┌▓È_1
 62
     5
 10
356.24160677079999
 20
34.918378740800001
 30
0.0
 11
348.84160677080001
 21
34.918378740800001
 31
0.0
  0
LINE
  5
792
  8
┌▓È_1
 62
     5
 10
348.84160677080001
 20
19.918378740799991
 30
0.0
 11
348.84160677080001
 21
5.7183787408000004
 31
0.0
  0
ARC
  5
793
  8
┌▓È_1
 62
     5
 10
356.24160677079999
 20
34.118378740799997
 30
0.0
 40
0.8
 50
0.0
 51
90.0
  0
LINE
  5
794
  8
┌▓È_1
 62
     5
 10
357.0416067708
 20
28.918378740800001
 30
0.0
 11
357.0416067708
 21
34.118378740799997
 31
0.0
  0
LINE
  5
795
  8
┌▓È_1
 62
     5
 10
347.2916067708
 20
31.418378740800001
 30
0.0
 11
347.2916067708
 21
33.918378740800001
 31
0.0
  0
LINE
  5
796
  8
┌▓È_1
 62
     5
 10
344.7916067708
 20
31.918378740800001
 30
0.0
 11
347.2916067708
 21
31.918378740800001
 31
0.0
  0
LINE
  5
797
  8
┌▓È_1
 62
     5
 10
348.0416067708
 20
34.118378740799997
 30
0.0
 11
348.0416067708
 21
19.918378740799991
 31
0.0
  0
ARC
  5
798
  8
┌▓È_1
 62
     5
 10
348.84160677080001
 20
34.118378740799997
 30
0.0
 40
0.8
 50
90.0
 51
180.0
  0
INSERT
  5
799
  8
0
  6
CONTINUOUS
  2
*U234
 10
0.0
 20
0.0
 30
0.0
  0
INSERT
  5
79A
  8
0
  6
CONTINUOUS
  2
*U235
 10
0.0
 20
0.0
 30
0.0
  0
LINE
  5
79B
  8
┌▓È_1
 62
     5
 10
494.16829427079989
 20
103.3264179934
 30
0.0
 11
494.16829427079989
 21
221.92736070180001
 31
0.0
  0
LINE
  5
79C
  8
┌▓È_1
 62
     5
 10
571.55079021330005
 20
225.62688934760001
 30
0.0
 11
571.55079021330005
 21
222.62688934760001
 31
0.0
  0
LINE
  5
79D
  8
┌▓È_1
 62
     5
 10
601.55079021330005
 20
223.4268893476
 30
0.0
 11
601.55079021330005
 21
101.8268893476
 31
0.0
  0
INSERT
  5
79F
  8
┌▓È_1
  6
BORDER
 62
     5
  2
CLUMP126
 10
0.0
 20
0.0
 30
0.0
  0
LINE
  5
7AB
  8
┌▓È_1
 62
     5
 10
548.55079021330005
 20
225.12688934760001
 30
0.0
 11
548.55079021330005
 21
100.1268893476
 31
0.0
  0
LINE
  5
7AC
  8
┌▓È_1
 62
     5
 10
546.55079021330005
 20
96.826889347600016
 30
0.0
 11
546.55079021330005
 21
228.4268893476
 31
0.0
  0
LINE
  5
7AD
  8
┌▓È_1
 10
348.0416067708
 20
227.46297528509999
 30
0.0
 11
348.0416067708
 21
97.462975285100001
 31
0.0
  0
INSERT
  5
7AF
  8
┌▓È_1
  2
CLUMP127
 10
0.0
 20
0.0
 30
0.0
  0
CIRCLE
  5
7DA
  8
┌▓È_1
 10
320.54115624999997
 20
162.46285809759999
 30
0.0
 40
7.5
  0
LINE
  5
7DB
  8
┌▓È_1
  6
BORDER
 62
     3
 10
320.54115624999997
 20
174.96285809759999
 30
0.0
 11
320.54115624999997
 21
149.96285809759999
 31
0.0
  0
LINE
  5
7DC
  8
┌▓È_1
 10
347.2918880208
 20
98.212821639300003
 30
0.0
 11
347.2918880208
 21
100.2128216393
 31
0.0
  0
LINE
  5
7DD
  8
┌▓È_1
 10
357.0416067708
 20
236.46297528509999
 30
0.0
 11
357.0416067708
 21
88.462975285100001
 31
0.0
  0
LINE
  5
7DE
  8
┌▓È_1
 10
347.2918880208
 20
226.9633190351
 30
0.0
 11
347.2918880208
 21
97.963319035100014
 31
0.0
  0
LINE
  5
7DF
  8
┌▓È_1
 62
     5
 10
348.84160677080001
 20
19.918378740799991
 30
0.0
 11
348.84160677080001
 21
34.118378740799997
 31
0.0
  0
LINE
  5
7E0
  8
┌▓È_1
 62
     5
 10
356.24160677079999
 20
28.918378740800001
 30
0.0
 11
357.0416067708
 21
28.918378740800001
 31
0.0
  0
LINE
  5
7E1
  8
┌▓È_1
 62
     5
 10
356.24160677079999
 20
34.118378740799997
 30
0.0
 11
356.24160677079999
 21
28.918378740800001
 31
0.0
  0
ARC
  5
7E2
  8
┌▓È_1
 62
     5
 10
348.84160677080001
 20
5.7183787408000004
 30
0.0
 40
0.8
 50
180.0
 51
270.0
  0
LINE
  5
7E3
  8
┌▓È_1
 62
     5
 10
357.0416067708
 20
5.7183787408000004
 30
0.0
 11
357.0416067708
 21
10.9183787408
 31
0.0
  0
LINE
  5
7E4
  8
┌▓È_1
 62
     5
 10
550.55079021330005
 20
225.12688934760001
 30
0.0
 11
550.55079021330005
 21
100.1268893476
 31
0.0
  0
LINE
  5
7E5
  8
┌▓È_1
 62
     5
 10
571.55079021330005
 20
98.126889347599999
 30
0.0
 11
571.55079021330005
 21
227.12688934760001
 31
0.0
  0
LINE
  5
7E6
  8
┌▓È_1
 62
     5
 10
550.55079021330005
 20
227.12688934760001
 30
0.0
 11
571.55079021330005
 21
227.12688934760001
 31
0.0
  0
LINE
  5
7E7
  8
┌▓È_1
 62
     5
 10
550.55079021330005
 20
225.12688934760001
 30
0.0
 11
571.55079021330005
 21
225.12688934760001
 31
0.0
  0
INSERT
  5
7E9
  8
┌▓È_1
 62
     5
  2
CLUMP134
 10
0.0
 20
0.0
 30
0.0
  0
ENDSEC
  0
EOF
