  0
SECTION
  2
HEADER
  9
$ACADVER
  1
AC1009
  9
$INSBASE
 10
0.0
 20
0.0
 30
0.0
  9
$EXTMIN
 10
-409.45599686309993
 20
-287.45933223489999
 30
0.0
  9
$EXTMAX
 10
410.46400313689998
 20
289.46066776510003
 30
0.0
  9
$LIMMIN
 10
0.0
 20
0.0
  9
$LIMMAX
 10
0.0
 20
0.0
  9
$ORTHOMODE
 70
     0
  9
$REGENMODE
 70
     1
  9
$FILLMODE
 70
     1
  9
$QTEXTMODE
 70
     0
  9
$MIRRTEXT
 70
     1
  9
$DRAGMODE
 70
     2
  9
$LTSCALE
 40
1.0
  9
$OSMODE
 70
    31
  9
$ATTMODE
 70
     1
  9
$TEXTSIZE
 40
0.0
  9
$TRACEWID
 40
0.05
  9
$TEXTSTYLE
  7
STANDARD
  9
$CLAYER
  8
0
  9
$CELTYPE
  6
CONTINUOUS
  9
$CECOLOR
 62
   256
  9
$DIMSCALE
 40
1.0
  9
$DIMASZ
 40
0.18
  9
$DIMEXO
 40
0.0625
  9
$DIMDLI
 40
0.38
  9
$DIMRND
 40
0.0
  9
$DIMDLE
 40
0.0
  9
$DIMEXE
 40
0.18
  9
$DIMTP
 40
0.0
  9
$DIMTM
 40
0.0
  9
$DIMTXT
 40
0.18
  9
$DIMCEN
 40
0.09
  9
$DIMTSZ
 40
0.0
  9
$DIMTOL
 70
     0
  9
$DIMLIM
 70
     0
  9
$DIMTIH
 70
     1
  9
$DIMTOH
 70
     1
  9
$DIMSE1
 70
     0
  9
$DIMSE2
 70
     0
  9
$DIMTAD
 70
     0
  9
$DIMZIN
 70
     0
  9
$DIMBLK
  1

  9
$DIMASO
 70
     1
  9
$DIMSHO
 70
     1
  9
$DIMPOST
  1

  9
$DIMAPOST
  1

  9
$DIMALT
 70
     0
  9
$DIMALTD
 70
     2
  9
$DIMALTF
 40
25.399999999999999
  9
$DIMLFAC
 40
1.0
  9
$DIMTOFL
 70
     0
  9
$DIMTVP
 40
0.0
  9
$DIMTIX
 70
     0
  9
$DIMSOXD
 70
     0
  9
$DIMSAH
 70
     0
  9
$DIMBLK1
  1

  9
$DIMBLK2
  1

  9
$DIMSTYLE
  2
STANDARD
  9
$DIMCLRD
 70
     0
  9
$DIMCLRE
 70
     0
  9
$DIMCLRT
 70
     0
  9
$DIMTFAC
 40
1.0
  9
$DIMGAP
 40
0.09
  9
$LUNITS
 70
     2
  9
$LUPREC
 70
     4
  9
$SKETCHINC
 40
0.1
  9
$FILLETRAD
 40
0.0
  9
$AUNITS
 70
     0
  9
$AUPREC
 70
     0
  9
$MENU
  1
acad
  9
$ELEVATION
 40
0.0
  9
$PELEVATION
 40
0.0
  9
$THICKNESS
 40
0.0
  9
$LIMCHECK
 70
     0
  9
$BLIPMODE
 70
     0
  9
$CHAMFERA
 40
0.0
  9
$CHAMFERB
 40
0.0
  9
$SKPOLY
 70
     0
  9
$TDCREATE
 40
2454859.7972686919
  9
$TDUPDATE
 40
2454859.7974357991
  9
$TDINDWG
 40
0.0001833796
  9
$TDUSRTIMER
 40
0.0001830208
  9
$USRTIMER
 70
     1
  9
$ANGBASE
 50
0.0
  9
$ANGDIR
 70
     0
  9
$PDMODE
 70
     3
  9
$PDSIZE
 40
-1.0
  9
$PLINEWID
 40
0.0
  9
$COORDS
 70
     2
  9
$SPLFRAME
 70
     0
  9
$SPLINETYPE
 70
     6
  9
$SPLINESEGS
 70
     8
  9
$ATTDIA
 70
     0
  9
$ATTREQ
 70
     1
  9
$HANDLING
 70
     1
  9
$HANDSEED
  5
845
  9
$SURFTAB1
 70
     6
  9
$SURFTAB2
 70
     6
  9
$SURFTYPE
 70
     6
  9
$SURFU
 70
     6
  9
$SURFV
 70
     6
  9
$UCSNAME
  2

  9
$UCSORG
 10
0.0
 20
0.0
 30
0.0
  9
$UCSXDIR
 10
1.0
 20
0.0
 30
0.0
  9
$UCSYDIR
 10
0.0
 20
1.0
 30
0.0
  9
$PUCSNAME
  2

  9
$PUCSORG
 10
0.0
 20
0.0
 30
0.0
  9
$PUCSXDIR
 10
1.0
 20
0.0
 30
0.0
  9
$PUCSYDIR
 10
0.0
 20
1.0
 30
0.0
  9
$USERI1
 70
     0
  9
$USERI2
 70
     0
  9
$USERI3
 70
     0
  9
$USERI4
 70
     0
  9
$USERI5
 70
     0
  9
$USERR1
 40
0.0
  9
$USERR2
 40
0.0
  9
$USERR3
 40
0.0
  9
$USERR4
 40
0.0
  9
$USERR5
 40
0.0
  9
$WORLDVIEW
 70
     1
  9
$SHADEDGE
 70
     3
  9
$SHADEDIF
 70
    70
  9
$TILEMODE
 70
     1
  9
$MAXACTVP
 70
    16
  9
$PLIMCHECK
 70
     0
  9
$PEXTMIN
 10
1.0000000000000000E+020
 20
1.0000000000000000E+020
 30
1.0000000000000000E+020
  9
$PEXTMAX
 10
-1.0000000000000000E+020
 20
-1.0000000000000000E+020
 30
-1.0000000000000000E+020
  9
$PLIMMIN
 10
0.0
 20
0.0
  9
$PLIMMAX
 10
12.0
 20
9.0
  9
$UNITMODE
 70
     0
  9
$VISRETAIN
 70
     0
  9
$PLINEGEN
 70
     1
  9
$PSLTSCALE
 70
     0
  0
ENDSEC
  0
SECTION
  2
TABLES
  0
TABLE
  2
VPORT
 70
     2
  0
VPORT
  2
*ACTIVE
 70
     0
 10
0.0
 20
0.0
 11
1.0
 21
1.0
 12
0.5040031369000957
 22
1.00066776509999
 13
0.0
 23
0.0
 14
1.0
 24
1.0
 15
0.0
 25
0.0
 16
0.0
 26
0.0
 36
1.0
 17
0.0
 27
0.0
 37
0.0
 40
581.70771784232363
 41
1.6343490304709141
 42
50.0
 43
0.0
 44
0.0
 50
0.0
 51
0.0
 71
     0
 72
   100
 73
     1
 74
     1
 75
     0
 76
     0
 77
     0
 78
     0
  0
ENDTAB
  0
TABLE
  2
LTYPE
 70
    11
  0
LTYPE
  2
CONTINUOUS
 70
     0
  3
Solid line
 72
    65
 73
     0
 40
0.0
  0
LTYPE
  2
DOT
 70
     0
  3
. . . . . . . . 
 72
    65
 73
     2
 40
1.0
 49
0.0
 49
-1.0
  0
LTYPE
  2
DASHED
 70
     0
  3
___  ___  ___  ___  
 72
    65
 73
     2
 40
4.0
 49
3.0
 49
-1.0
  0
LTYPE
  2
HIDDEN
 70
     0
  3
__ __ __ __ 
 72
    65
 73
     2
 40
3.0
 49
2.0
 49
-1.0
  0
LTYPE
  2
STITCH
 70
     0
  3
_ _ _ _ 
 72
    65
 73
     2
 40
2.0
 49
1.0
 49
-1.0
  0
LTYPE
  2
CENTER
 70
     0
  3
______  __  ______  __  
 72
    65
 73
     4
 40
43.0
 49
40.0
 49
-1.0
 49
1.0
 49
-1.0
  0
LTYPE
  2
DASHDOT
 70
     0
  3
____ . ____ . 
 72
    65
 73
     4
 40
32.0
 49
30.0
 49
-1.0
 49
0.0
 49
-1.0
  0
LTYPE
  2
BORDER
 70
     0
  3
__ . __ . 
 72
    65
 73
     4
 40
22.0
 49
20.0
 49
-1.0
 49
0.0
 49
-1.0
  0
LTYPE
  2
CUTTING
 70
     0
  3
________   ___   ___   
 72
    65
 73
     6
 40
45.0
 49
40.0
 49
-1.0
 49
1.0
 49
-1.0
 49
1.0
 49
-1.0
  0
LTYPE
  2
PHANTOM
 70
     0
  3
______  __  __  
 72
    65
 73
     6
 40
35.0
 49
30.0
 49
-1.0
 49
1.0
 49
-1.0
 49
1.0
 49
-1.0
  0
LTYPE
  2
DIVIDE
 70
     0
  3
____ . . ____ . . 
 72
    65
 73
     6
 40
23.0
 49
20.0
 49
-1.0
 49
0.0
 49
-1.0
 49
0.0
 49
-1.0
  0
ENDTAB
  0
TABLE
  2
LAYER
 70
     5
  0
LAYER
  2
0
 70
     0
 62
     7
  6
CONTINUOUS
  0
LAYER
  2
ﾚｲﾔ_1
 70
     0
 62
     7
  6
CONTINUOUS
  0
LAYER
  2
寸法線
 70
     0
 62
     7
  6
CONTINUOUS
  0
LAYER
  2
改訂
 70
     0
 62
     7
  6
CONTINUOUS
  0
LAYER
  2
図枠
 70
     0
 62
     7
  6
CONTINUOUS
  0
ENDTAB
  0
TABLE
  2
STYLE
 70
     1
  0
STYLE
  2
STANDARD
 70
     0
 40
0.0
 41
1.0
 50
0.0
 71
     0
 42
0.0
  3
txt
  4
extfont
  0
ENDTAB
  0
TABLE
  2
VIEW
 70
     0
  0
ENDTAB
  0
TABLE
  2
UCS
 70
     0
  0
ENDTAB
  0
TABLE
  2
APPID
 70
     2
  0
APPID
  2
ACAD
 70
     0
  0
APPID
  2
DCO15
 70
     0
  0
ENDTAB
  0
TABLE
  2
DIMSTYLE
 70
     4
  0
DIMSTYLE
  2
STANDARD
 70
     0
  3

  4

  5

  6

  7

 40
1.0
 41
0.18
 42
0.0625
 43
0.38
 44
0.18
 45
0.0
 46
0.0
 47
0.0
 48
0.0
140
0.18
141
0.09
142
0.0
143
25.399999999999999
144
1.0
145
0.0
146
1.0
147
0.09
 71
     0
 72
     0
 73
     1
 74
     1
 75
     0
 76
     0
 77
     0
 78
     0
170
     0
171
     2
172
     0
173
     0
174
     0
175
     0
176
     0
177
     0
178
     0
  0
DIMSTYLE
  2
VELDIM0
 70
     0
  3

  4

  5

  6

  7

 40
1.0
 41
6.0003314017999987
 42
0.0625
 43
0.38
 44
1.0
 45
0.0
 46
5.0
 47
0.0
 48
0.0
140
6.5969445704999989
141
0.09
142
0.0
143
25.399999999999999
144
1.0
145
0.0
146
1.0
147
0.09
 71
     0
 72
     0
 73
     0
 74
     0
 75
     0
 76
     0
 77
     0
 78
     8
170
     0
171
     2
172
     0
173
     0
174
     0
175
     0
176
     0
177
     0
178
     0
  0
DIMSTYLE
  2
VELDIM1
 70
     0
  3

  4

  5

  6

  7

 40
1.0
 41
6.0003314017999987
 42
0.0625
 43
0.38
 44
2.0
 45
0.0
 46
10.0
 47
0.0
 48
0.0
140
6.5969445704999989
141
0.09
142
0.0
143
25.399999999999999
144
1.0
145
0.0
146
1.0
147
0.09
 71
     0
 72
     0
 73
     0
 74
     0
 75
     0
 76
     0
 77
     0
 78
     8
170
     0
171
     2
172
     0
173
     0
174
     0
175
     0
176
     0
177
     0
178
     0
  0
DIMSTYLE
  2
VELDIM2
 70
     0
  3

  4

  5

  6

  7

 40
1.0
 41
6.0003314017999987
 42
0.0625
 43
0.38
 44
1.25
 45
0.0
 46
5.0
 47
0.0
 48
0.0
140
6.5969445704999989
141
0.09
142
0.0
143
25.399999999999999
144
1.0
145
0.0
146
1.0
147
0.09
 71
     0
 72
     0
 73
     0
 74
     0
 75
     0
 76
     0
 77
     0
 78
     8
170
     0
171
     2
172
     0
173
     0
174
     0
175
     0
176
     0
177
     0
178
     0
  0
ENDTAB
  0
ENDSEC
  0
SECTION
  2
BLOCKS
  0
BLOCK
  8
0
  2
$MODEL_SPACE
 70
     0
 10
0.0
 20
0.0
 30
0.0
  3
$MODEL_SPACE
  1

  0
ENDBLK
  5
E
  8
0
  0
BLOCK
 67
     1
  8
0
  2
$PAPER_SPACE
 70
     0
 10
0.0
 20
0.0
 30
0.0
  3
$PAPER_SPACE
  1

  0
ENDBLK
  5
10
 67
     1
  8
0
  0
BLOCK
  8
0
  2
*D0
 70
     1
 10
0.0
 20
0.0
 30
0.0
  3
*D0
  1

  0
TEXT
  5
37
  8
0
 62
     0
 10
70.216994849700001
 20
237.8120541607
 30
0.0
 40
6.5969445704999989
  1
15
  0
LINE
  5
38
  8
0
 62
     0
 10
81.665546713100014
 20
208.08214116440001
 30
0.0
 11
81.665546713100014
 21
236.6478874718
 31
0.0
  0
LINE
  5
39
  8
0
 62
     0
 10
66.665546713099999
 20
199.8821411644
 30
0.0
 11
66.665546713099999
 21
236.6478874718
 31
0.0
  0
LINE
  5
3A
  8
0
 62
     0
 10
81.665546713100014
 20
235.6478874718
 30
0.0
 11
81.665546713100014
 21
235.6478874718
 31
0.0
  0
LINE
  5
3B
  8
0
 62
     0
 10
81.665546713100014
 20
235.6478874718
 30
0.0
 11
66.665546713099999
 21
235.6478874718
 31
0.0
  0
LINE
  5
3C
  8
0
 62
     0
 10
66.665546713099999
 20
235.6478874718
 30
0.0
 11
81.665546713100014
 21
235.6478874718
 31
0.0
  0
LINE
  5
3D
  8
0
 62
     0
 10
66.665546713099999
 20
235.6478874718
 30
0.0
 11
66.665546713099999
 21
235.6478874718
 31
0.0
  0
LINE
  5
3E
  8
0
 62
     0
 10
66.665546713099999
 20
235.6478874718
 30
0.0
 11
71.665546713099999
 21
235.6478874718
 31
0.0
  0
SOLID
  5
3F
  8
0
 62
     0
 10
66.665546713099999
 20
235.6478874718
 30
0.0
 11
72.665878114899996
 21
237.1478874718
 31
0.0
 12
72.665878114899996
 22
234.1478874718
 32
0.0
 13
71.165795264500005
 23
235.6478874718
 33
0.0
  0
LINE
  5
40
  8
0
 62
     0
 10
81.665546713100014
 20
235.6478874718
 30
0.0
 11
76.665546713099999
 21
235.6478874718
 31
0.0
  0
SOLID
  5
41
  8
0
 62
     0
 10
81.665546713100014
 20
235.6478874718
 30
0.0
 11
75.665215311300003
 21
234.1478874718
 31
0.0
 12
75.665215311300003
 22
237.1478874718
 32
0.0
 13
77.165298161699994
 23
235.6478874718
 33
0.0
  0
ENDBLK
  5
42
  8
0
  0
BLOCK
  8
0
  2
*D1
 70
     1
 10
0.0
 20
0.0
 30
0.0
  3
*D1
  1

  0
TEXT
  5
47
  8
0
 62
     0
 10
55.0445145049
 20
237.8120541607
 30
0.0
 40
6.5969445704999989
  1
15
  0
LINE
  5
48
  8
0
 62
     0
 10
66.665546713099999
 20
199.8821411644
 30
0.0
 11
66.665546713099999
 21
236.6478874718
 31
0.0
  0
LINE
  5
49
  8
0
 62
     0
 10
51.665546713100007
 20
208.08214116440001
 30
0.0
 11
51.665546713100007
 21
236.6478874718
 31
0.0
  0
LINE
  5
4A
  8
0
 62
     0
 10
66.665546713099999
 20
235.6478874718
 30
0.0
 11
66.665546713099999
 21
235.6478874718
 31
0.0
  0
LINE
  5
4B
  8
0
 62
     0
 10
66.665546713099999
 20
235.6478874718
 30
0.0
 11
51.665546713100007
 21
235.6478874718
 31
0.0
  0
LINE
  5
4C
  8
0
 62
     0
 10
51.665546713100007
 20
235.6478874718
 30
0.0
 11
66.665546713099999
 21
235.6478874718
 31
0.0
  0
LINE
  5
4D
  8
0
 62
     0
 10
51.665546713100007
 20
235.6478874718
 30
0.0
 11
51.665546713100007
 21
235.6478874718
 31
0.0
  0
LINE
  5
4E
  8
0
 62
     0
 10
51.665546713100007
 20
235.6478874718
 30
0.0
 11
56.665546713100007
 21
235.6478874718
 31
0.0
  0
SOLID
  5
4F
  8
0
 62
     0
 10
51.665546713100007
 20
235.6478874718
 30
0.0
 11
57.665878114899989
 21
237.1478874718
 31
0.0
 12
57.665878114899989
 22
234.1478874718
 32
0.0
 13
56.165795264499991
 23
235.6478874718
 33
0.0
  0
LINE
  5
50
  8
0
 62
     0
 10
66.665546713099999
 20
235.6478874718
 30
0.0
 11
61.665546713100007
 21
235.6478874718
 31
0.0
  0
SOLID
  5
51
  8
0
 62
     0
 10
66.665546713099999
 20
235.6478874718
 30
0.0
 11
60.665215311300003
 21
234.1478874718
 31
0.0
 12
60.665215311300003
 22
237.1478874718
 32
0.0
 13
62.165298161700001
 23
235.6478874718
 33
0.0
  0
ENDBLK
  5
52
  8
0
  0
BLOCK
  8
0
  2
*D2
 70
     1
 10
0.0
 20
0.0
 30
0.0
  3
*D2
  1

  0
TEXT
  5
56
  8
0
 62
     0
 10
172.61219722609999
 20
249.61384034439999
 30
0.0
 40
6.5969445704999989
  1
55
  0
LINE
  5
57
  8
0
 62
     0
 10
203.99275285580001
 20
208.08166981030001
 30
0.0
 11
203.99275285580001
 21
248.44967365549999
 31
0.0
  0
LINE
  5
58
  8
0
 62
     0
 10
148.99275285580001
 20
208.08166981030001
 30
0.0
 11
148.99275285580001
 21
248.44967365549999
 31
0.0
  0
LINE
  5
59
  8
0
 62
     0
 10
203.99275285580001
 20
247.44967365549999
 30
0.0
 11
184.25386411529999
 21
247.44967365549999
 31
0.0
  0
LINE
  5
5A
  8
0
 62
     0
 10
203.99275285580001
 20
247.44967365549999
 30
0.0
 11
168.73164159640001
 21
247.44967365549999
 31
0.0
  0
LINE
  5
5B
  8
0
 62
     0
 10
148.99275285580001
 20
247.44967365549999
 30
0.0
 11
184.25386411529999
 21
247.44967365549999
 31
0.0
  0
LINE
  5
5C
  8
0
 62
     0
 10
148.99275285580001
 20
247.44967365549999
 30
0.0
 11
168.73164159640001
 21
247.44967365549999
 31
0.0
  0
LINE
  5
5D
  8
0
 62
     0
 10
148.99275285580001
 20
247.44967365549999
 30
0.0
 11
153.99275285580001
 21
247.44967365549999
 31
0.0
  0
SOLID
  5
5E
  8
0
 62
     0
 10
148.99275285580001
 20
247.44967365549999
 30
0.0
 11
154.9930842576
 21
248.94967365549999
 31
0.0
 12
154.9930842576
 22
245.94967365549999
 32
0.0
 13
153.49300140720001
 23
247.44967365549999
 33
0.0
  0
LINE
  5
5F
  8
0
 62
     0
 10
203.99275285580001
 20
247.44967365549999
 30
0.0
 11
198.99275285580001
 21
247.44967365549999
 31
0.0
  0
SOLID
  5
60
  8
0
 62
     0
 10
203.99275285580001
 20
247.44967365549999
 30
0.0
 11
197.99242145400001
 21
245.94967365549999
 31
0.0
 12
197.99242145400001
 22
248.94967365549999
 32
0.0
 13
199.49250430449999
 23
247.44967365549999
 33
0.0
  0
ENDBLK
  5
61
  8
0
  0
BLOCK
  8
0
  2
*D3
 70
     1
 10
0.0
 20
0.0
 30
0.0
  3
*D3
  1

  0
TEXT
  5
65
  8
0
 62
     0
 10
102.4266817667
 20
127.0608363657
 30
0.0
 40
6.5969445704999989
  1
117
 50
90.0
  0
LINE
  5
66
  8
0
 62
     0
 10
82.865546713100002
 20
74.381198456099995
 30
0.0
 11
105.5908484557
 21
74.381198456099995
 31
0.0
  0
LINE
  5
67
  8
0
 62
     0
 10
82.865546713100002
 20
191.3821411644
 30
0.0
 11
105.5908484557
 21
191.3821411644
 31
0.0
  0
LINE
  5
68
  8
0
 62
     0
 10
104.5908484557
 20
74.381198456099995
 30
0.0
 11
104.5908484557
 21
142.58305888460001
 31
0.0
  0
LINE
  5
69
  8
0
 62
     0
 10
104.5908484557
 20
74.381198456099995
 30
0.0
 11
104.5908484557
 21
123.1802807359
 31
0.0
  0
LINE
  5
6A
  8
0
 62
     0
 10
104.5908484557
 20
191.3821411644
 30
0.0
 11
104.5908484557
 21
142.58305888460001
 31
0.0
  0
LINE
  5
6B
  8
0
 62
     0
 10
104.5908484557
 20
191.3821411644
 30
0.0
 11
104.5908484557
 21
123.1802807359
 31
0.0
  0
LINE
  5
6C
  8
0
 62
     0
 10
104.5908484557
 20
191.3821411644
 30
0.0
 11
104.5908484557
 21
186.3821411644
 31
0.0
  0
SOLID
  5
6D
  8
0
 62
     0
 10
104.5908484557
 20
191.3821411644
 30
0.0
 11
106.0908484557
 21
185.38180976259989
 31
0.0
 12
103.0908484557
 22
185.38180976259989
 32
0.0
 13
104.5908484557
 23
186.88189261310001
 33
0.0
  0
LINE
  5
6E
  8
0
 62
     0
 10
104.5908484557
 20
74.381198456099995
 30
0.0
 11
104.5908484557
 21
79.381198456099995
 31
0.0
  0
SOLID
  5
6F
  8
0
 62
     0
 10
104.5908484557
 20
74.381198456099995
 30
0.0
 11
103.0908484557
 21
80.381529857900006
 31
0.0
 12
106.0908484557
 22
80.381529857900006
 32
0.0
 13
104.5908484557
 23
78.8814470075
 33
0.0
  0
ENDBLK
  5
70
  8
0
  0
BLOCK
  8
0
  2
*D4
 70
     1
 10
0.0
 20
0.0
 30
0.0
  3
*D4
  1

  0
TEXT
  5
74
  8
0
 62
     0
 10
102.4868223765
 20
34.260926236899998
 30
0.0
 40
6.5969445704999989
  1
15.5
 50
90.0
  0
LINE
  5
75
  8
0
 62
     0
 10
82.865546713100002
 20
58.881198456099987
 30
0.0
 11
105.6509890654
 21
58.881198456099987
 31
0.0
  0
LINE
  5
76
  8
0
 62
     0
 10
82.865546713100002
 20
74.381198456099995
 30
0.0
 11
105.6509890654
 21
74.381198456099995
 31
0.0
  0
LINE
  5
77
  8
0
 62
     0
 10
104.6509890654
 20
58.881198456099987
 30
0.0
 11
104.6509890654
 21
51.40004693489999
 31
0.0
  0
LINE
  5
78
  8
0
 62
     0
 10
104.6509890654
 20
58.881198456099987
 30
0.0
 11
104.6509890654
 21
30.3803706072
 31
0.0
  0
LINE
  5
79
  8
0
 62
     0
 10
104.6509890654
 20
74.381198456099995
 30
0.0
 11
104.6509890654
 21
51.40004693489999
 31
0.0
  0
LINE
  5
7A
  8
0
 62
     0
 10
104.6509890654
 20
74.381198456099995
 30
0.0
 11
104.6509890654
 21
30.3803706072
 31
0.0
  0
LINE
  5
7B
  8
0
 62
     0
 10
104.6509890654
 20
74.381198456099995
 30
0.0
 11
104.6509890654
 21
69.381198456099995
 31
0.0
  0
SOLID
  5
7C
  8
0
 62
     0
 10
104.6509890654
 20
74.381198456099995
 30
0.0
 11
106.1509890654
 21
68.380867054299998
 31
0.0
 12
103.1509890654
 22
68.380867054299998
 32
0.0
 13
104.6509890654
 23
69.880949904700003
 33
0.0
  0
LINE
  5
7D
  8
0
 62
     0
 10
104.6509890654
 20
58.881198456099987
 30
0.0
 11
104.6509890654
 21
63.881198456099987
 31
0.0
  0
SOLID
  5
7E
  8
0
 62
     0
 10
104.6509890654
 20
58.881198456099987
 30
0.0
 11
103.1509890654
 21
64.881529857900006
 31
0.0
 12
106.1509890654
 22
64.881529857900006
 32
0.0
 13
104.6509890654
 23
63.3814470075
 33
0.0
  0
ENDBLK
  5
7F
  8
0
  0
BLOCK
  8
0
  2
*D5
 70
     1
 10
0.0
 20
0.0
 30
0.0
  3
*D5
  1

  0
TEXT
  5
83
  8
0
 62
     0
 10
102.4868223765
 20
217.96030758969999
 30
0.0
 40
6.5969445704999989
  1
15.5
 50
90.0
  0
LINE
  5
84
  8
0
 62
     0
 10
82.865546713100002
 20
191.3821411644
 30
0.0
 11
105.6509890654
 21
191.3821411644
 31
0.0
  0
LINE
  5
85
  8
0
 62
     0
 10
82.865546713100002
 20
206.8821411644
 30
0.0
 11
105.6509890654
 21
206.8821411644
 31
0.0
  0
LINE
  5
86
  8
0
 62
     0
 10
104.6509890654
 20
191.3821411644
 30
0.0
 11
104.6509890654
 21
235.09942828760001
 31
0.0
  0
LINE
  5
87
  8
0
 62
     0
 10
104.6509890654
 20
191.3821411644
 30
0.0
 11
104.6509890654
 21
214.07975195989999
 31
0.0
  0
LINE
  5
88
  8
0
 62
     0
 10
104.6509890654
 20
206.8821411644
 30
0.0
 11
104.6509890654
 21
235.09942828760001
 31
0.0
  0
LINE
  5
89
  8
0
 62
     0
 10
104.6509890654
 20
206.8821411644
 30
0.0
 11
104.6509890654
 21
214.07975195989999
 31
0.0
  0
LINE
  5
8A
  8
0
 62
     0
 10
104.6509890654
 20
206.8821411644
 30
0.0
 11
104.6509890654
 21
201.8821411644
 31
0.0
  0
SOLID
  5
8B
  8
0
 62
     0
 10
104.6509890654
 20
206.8821411644
 30
0.0
 11
106.1509890654
 21
200.8818097626
 31
0.0
 12
103.1509890654
 22
200.8818097626
 32
0.0
 13
104.6509890654
 23
202.38189261310001
 33
0.0
  0
LINE
  5
8C
  8
0
 62
     0
 10
104.6509890654
 20
191.3821411644
 30
0.0
 11
104.6509890654
 21
196.3821411644
 31
0.0
  0
SOLID
  5
8D
  8
0
 62
     0
 10
104.6509890654
 20
191.3821411644
 30
0.0
 11
103.1509890654
 21
197.38247256630001
 31
0.0
 12
106.1509890654
 22
197.38247256630001
 32
0.0
 13
104.6509890654
 23
195.8823897158
 33
0.0
  0
ENDBLK
  5
8E
  8
0
  0
BLOCK
  8
0
  2
*D6
 70
     1
 10
0.0
 20
0.0
 30
0.0
  3
*D6
  1

  0
TEXT
  5
92
  8
0
 62
     0
 10
223.243497437
 20
127.0608363657
 30
0.0
 40
6.5969445704999989
  1
120
 50
90.0
  0
LINE
  5
93
  8
0
 62
     0
 10
205.99275285580001
 20
72.881669810299996
 30
0.0
 11
226.40766412599999
 21
72.881669810299996
 31
0.0
  0
LINE
  5
94
  8
0
 62
     0
 10
205.99275285580001
 20
192.8816698103
 30
0.0
 11
226.40766412599999
 21
192.8816698103
 31
0.0
  0
LINE
  5
95
  8
0
 62
     0
 10
225.40766412599999
 20
72.881669810299996
 30
0.0
 11
225.40766412599999
 21
142.58305888460001
 31
0.0
  0
LINE
  5
96
  8
0
 62
     0
 10
225.40766412599999
 20
72.881669810299996
 30
0.0
 11
225.40766412599999
 21
123.1802807359
 31
0.0
  0
LINE
  5
97
  8
0
 62
     0
 10
225.40766412599999
 20
192.8816698103
 30
0.0
 11
225.40766412599999
 21
142.58305888460001
 31
0.0
  0
LINE
  5
98
  8
0
 62
     0
 10
225.40766412599999
 20
192.8816698103
 30
0.0
 11
225.40766412599999
 21
123.1802807359
 31
0.0
  0
LINE
  5
99
  8
0
 62
     0
 10
225.40766412599999
 20
192.8816698103
 30
0.0
 11
225.40766412599999
 21
187.8816698103
 31
0.0
  0
SOLID
  5
9A
  8
0
 62
     0
 10
225.40766412599999
 20
192.8816698103
 30
0.0
 11
226.90766412599999
 21
186.88133840840001
 31
0.0
 12
223.90766412599999
 22
186.88133840840001
 32
0.0
 13
225.40766412599999
 23
188.38142125889999
 33
0.0
  0
LINE
  5
9B
  8
0
 62
     0
 10
225.40766412599999
 20
72.881669810299996
 30
0.0
 11
225.40766412599999
 21
77.881669810299996
 31
0.0
  0
SOLID
  5
9C
  8
0
 62
     0
 10
225.40766412599999
 20
72.881669810299996
 30
0.0
 11
223.90766412599999
 21
78.882001212099993
 31
0.0
 12
226.90766412599999
 22
78.882001212099993
 32
0.0
 13
225.40766412599999
 23
77.3819183616
 33
0.0
  0
ENDBLK
  5
9D
  8
0
  0
BLOCK
  8
0
  2
*D7
 70
     1
 10
0.0
 20
0.0
 30
0.0
  3
*D7
  1

  0
TEXT
  5
A1
  8
0
 62
     0
 10
223.243497437
 20
196.0011141805
 30
0.0
 40
6.5969445704999989
  1
14
 50
90.0
  0
LINE
  5
A2
  8
0
 62
     0
 10
205.99275285580001
 20
192.8816698103
 30
0.0
 11
226.40766412599999
 21
192.8816698103
 31
0.0
  0
LINE
  5
A3
  8
0
 62
     0
 10
205.99275285580001
 20
206.8816698103
 30
0.0
 11
226.40766412599999
 21
206.8816698103
 31
0.0
  0
LINE
  5
A4
  8
0
 62
     0
 10
225.40766412599999
 20
192.8816698103
 30
0.0
 11
225.40766412599999
 21
192.8816698103
 31
0.0
  0
LINE
  5
A5
  8
0
 62
     0
 10
225.40766412599999
 20
192.8816698103
 30
0.0
 11
225.40766412599999
 21
206.8816698103
 31
0.0
  0
LINE
  5
A6
  8
0
 62
     0
 10
225.40766412599999
 20
206.8816698103
 30
0.0
 11
225.40766412599999
 21
192.8816698103
 31
0.0
  0
LINE
  5
A7
  8
0
 62
     0
 10
225.40766412599999
 20
206.8816698103
 30
0.0
 11
225.40766412599999
 21
206.8816698103
 31
0.0
  0
LINE
  5
A8
  8
0
 62
     0
 10
225.40766412599999
 20
206.8816698103
 30
0.0
 11
225.40766412599999
 21
201.8816698103
 31
0.0
  0
SOLID
  5
A9
  8
0
 62
     0
 10
225.40766412599999
 20
206.8816698103
 30
0.0
 11
226.90766412599999
 21
200.88133840840001
 31
0.0
 12
223.90766412599999
 22
200.88133840840001
 32
0.0
 13
225.40766412599999
 23
202.38142125889999
 33
0.0
  0
LINE
  5
AA
  8
0
 62
     0
 10
225.40766412599999
 20
192.8816698103
 30
0.0
 11
225.40766412599999
 21
197.8816698103
 31
0.0
  0
SOLID
  5
AB
  8
0
 62
     0
 10
225.40766412599999
 20
192.8816698103
 30
0.0
 11
223.90766412599999
 21
198.88200121209999
 31
0.0
 12
226.90766412599999
 22
198.88200121209999
 32
0.0
 13
225.40766412599999
 23
197.38191836159999
 33
0.0
  0
ENDBLK
  5
AC
  8
0
  0
BLOCK
  8
0
  2
*D8
 70
     1
 10
0.0
 20
0.0
 30
0.0
  3
*D8
  1

  0
TEXT
  5
B0
  8
0
 62
     0
 10
223.243497437
 20
62.001114180499997
 30
0.0
 40
6.5969445704999989
  1
14
 50
90.0
  0
LINE
  5
B1
  8
0
 62
     0
 10
205.99275285580001
 20
58.881669810299996
 30
0.0
 11
226.40766412599999
 21
58.881669810299996
 31
0.0
  0
LINE
  5
B2
  8
0
 62
     0
 10
205.99275285580001
 20
72.881669810299996
 30
0.0
 11
226.40766412599999
 21
72.881669810299996
 31
0.0
  0
LINE
  5
B3
  8
0
 62
     0
 10
225.40766412599999
 20
58.881669810299996
 30
0.0
 11
225.40766412599999
 21
58.881669810299996
 31
0.0
  0
LINE
  5
B4
  8
0
 62
     0
 10
225.40766412599999
 20
58.881669810299996
 30
0.0
 11
225.40766412599999
 21
72.881669810299996
 31
0.0
  0
LINE
  5
B5
  8
0
 62
     0
 10
225.40766412599999
 20
72.881669810299996
 30
0.0
 11
225.40766412599999
 21
58.881669810299996
 31
0.0
  0
LINE
  5
B6
  8
0
 62
     0
 10
225.40766412599999
 20
72.881669810299996
 30
0.0
 11
225.40766412599999
 21
72.881669810299996
 31
0.0
  0
LINE
  5
B7
  8
0
 62
     0
 10
225.40766412599999
 20
72.881669810299996
 30
0.0
 11
225.40766412599999
 21
67.881669810299996
 31
0.0
  0
SOLID
  5
B8
  8
0
 62
     0
 10
225.40766412599999
 20
72.881669810299996
 30
0.0
 11
226.90766412599999
 21
66.881338408399984
 31
0.0
 12
223.90766412599999
 22
66.881338408399984
 32
0.0
 13
225.40766412599999
 23
68.381421258900005
 33
0.0
  0
LINE
  5
B9
  8
0
 62
     0
 10
225.40766412599999
 20
58.881669810299996
 30
0.0
 11
225.40766412599999
 21
63.881669810299996
 31
0.0
  0
SOLID
  5
BA
  8
0
 62
     0
 10
225.40766412599999
 20
58.881669810299996
 30
0.0
 11
223.90766412599999
 21
64.882001212099993
 31
0.0
 12
226.90766412599999
 22
64.882001212099993
 32
0.0
 13
225.40766412599999
 23
63.3819183616
 33
0.0
  0
ENDBLK
  5
BB
  8
0
  0
BLOCK
  8
0
  2
*D9
 70
     1
 10
0.0
 20
0.0
 30
0.0
  3
*D9
  1

  0
TEXT
  5
BF
  8
0
 62
     0
 10
185.11219722609999
 20
237.98270325940001
 30
0.0
 40
6.5969445704999989
  1
30
  0
LINE
  5
C0
  8
0
 62
     0
 10
203.99275285580001
 20
208.8816698103
 30
0.0
 11
203.99275285580001
 21
236.81853657049999
 31
0.0
  0
LINE
  5
C1
  8
0
 62
     0
 10
173.99275285580001
 20
199.8816698103
 30
0.0
 11
173.99275285580001
 21
236.81853657049999
 31
0.0
  0
LINE
  5
C2
  8
0
 62
     0
 10
203.99275285580001
 20
235.81853657049999
 30
0.0
 11
196.75386411529999
 21
235.81853657049999
 31
0.0
  0
LINE
  5
C3
  8
0
 62
     0
 10
203.99275285580001
 20
235.81853657049999
 30
0.0
 11
181.23164159640001
 21
235.81853657049999
 31
0.0
  0
LINE
  5
C4
  8
0
 62
     0
 10
173.99275285580001
 20
235.81853657049999
 30
0.0
 11
196.75386411529999
 21
235.81853657049999
 31
0.0
  0
LINE
  5
C5
  8
0
 62
     0
 10
173.99275285580001
 20
235.81853657049999
 30
0.0
 11
181.23164159640001
 21
235.81853657049999
 31
0.0
  0
LINE
  5
C6
  8
0
 62
     0
 10
173.99275285580001
 20
235.81853657049999
 30
0.0
 11
178.99275285580001
 21
235.81853657049999
 31
0.0
  0
SOLID
  5
C7
  8
0
 62
     0
 10
173.99275285580001
 20
235.81853657049999
 30
0.0
 11
179.9930842576
 21
237.31853657049999
 31
0.0
 12
179.9930842576
 22
234.31853657049999
 32
0.0
 13
178.49300140720001
 23
235.81853657049999
 33
0.0
  0
LINE
  5
C8
  8
0
 62
     0
 10
203.99275285580001
 20
235.81853657049999
 30
0.0
 11
198.99275285580001
 21
235.81853657049999
 31
0.0
  0
SOLID
  5
C9
  8
0
 62
     0
 10
203.99275285580001
 20
235.81853657049999
 30
0.0
 11
197.99242145400001
 21
234.31853657049999
 31
0.0
 12
197.99242145400001
 22
237.31853657049999
 32
0.0
 13
199.49250430449999
 23
235.81853657049999
 33
0.0
  0
ENDBLK
  5
CA
  8
0
  0
BLOCK
  8
0
  2
*D10
 70
     1
 10
0.0
 20
0.0
 30
0.0
  3
*D10
  1

  0
TEXT
  5
CE
  8
0
 62
     0
 10
62.784991083400001
 20
250.38514757499999
 30
0.0
 40
6.5969445704999989
  1
30
  0
LINE
  5
CF
  8
0
 62
     0
 10
81.665546713100014
 20
208.08214116440001
 30
0.0
 11
81.665546713100014
 21
249.22098088609999
 31
0.0
  0
LINE
  5
D0
  8
0
 62
     0
 10
51.665546713100007
 20
208.08214116440001
 30
0.0
 11
51.665546713100007
 21
249.22098088609999
 31
0.0
  0
LINE
  5
D1
  8
0
 62
     0
 10
81.665546713100014
 20
248.22098088609999
 30
0.0
 11
74.426657972599997
 21
248.22098088609999
 31
0.0
  0
LINE
  5
D2
  8
0
 62
     0
 10
81.665546713100014
 20
248.22098088609999
 30
0.0
 11
58.904435453600001
 21
248.22098088609999
 31
0.0
  0
LINE
  5
D3
  8
0
 62
     0
 10
51.665546713100007
 20
248.22098088609999
 30
0.0
 11
74.426657972599997
 21
248.22098088609999
 31
0.0
  0
LINE
  5
D4
  8
0
 62
     0
 10
51.665546713100007
 20
248.22098088609999
 30
0.0
 11
58.904435453600001
 21
248.22098088609999
 31
0.0
  0
LINE
  5
D5
  8
0
 62
     0
 10
51.665546713100007
 20
248.22098088609999
 30
0.0
 11
56.665546713100007
 21
248.22098088609999
 31
0.0
  0
SOLID
  5
D6
  8
0
 62
     0
 10
51.665546713100007
 20
248.22098088609999
 30
0.0
 11
57.665878114899989
 21
249.72098088609999
 31
0.0
 12
57.665878114899989
 22
246.72098088609999
 32
0.0
 13
56.165795264499991
 23
248.22098088609999
 33
0.0
  0
LINE
  5
D7
  8
0
 62
     0
 10
81.665546713100014
 20
248.22098088609999
 30
0.0
 11
76.665546713099999
 21
248.22098088609999
 31
0.0
  0
SOLID
  5
D8
  8
0
 62
     0
 10
81.665546713100014
 20
248.22098088609999
 30
0.0
 11
75.665215311300003
 21
246.72098088609999
 31
0.0
 12
75.665215311300003
 22
249.72098088609999
 32
0.0
 13
77.165298161699994
 23
248.22098088609999
 33
0.0
  0
ENDBLK
  5
D9
  8
0
  0
BLOCK
  8
0
  2
*D11
 70
     1
 10
0.0
 20
0.0
 30
0.0
  3
*D11
  1

  0
TEXT
  5
DD
  8
0
 62
     0
 10
157.61219722609999
 20
237.98270325940001
 30
0.0
 40
6.5969445704999989
  1
25
  0
LINE
  5
DE
  8
0
 62
     0
 10
173.99275285580001
 20
199.8816698103
 30
0.0
 11
173.99275285580001
 21
236.81853657049999
 31
0.0
  0
LINE
  5
DF
  8
0
 62
     0
 10
148.99275285580001
 20
208.8816698103
 30
0.0
 11
148.99275285580001
 21
236.81853657049999
 31
0.0
  0
LINE
  5
E0
  8
0
 62
     0
 10
173.99275285580001
 20
235.81853657049999
 30
0.0
 11
169.25386411529999
 21
235.81853657049999
 31
0.0
  0
LINE
  5
E1
  8
0
 62
     0
 10
173.99275285580001
 20
235.81853657049999
 30
0.0
 11
153.7316415963999
 21
235.81853657049999
 31
0.0
  0
LINE
  5
E2
  8
0
 62
     0
 10
148.99275285580001
 20
235.81853657049999
 30
0.0
 11
169.25386411529999
 21
235.81853657049999
 31
0.0
  0
LINE
  5
E3
  8
0
 62
     0
 10
148.99275285580001
 20
235.81853657049999
 30
0.0
 11
153.7316415963999
 21
235.81853657049999
 31
0.0
  0
LINE
  5
E4
  8
0
 62
     0
 10
148.99275285580001
 20
235.81853657049999
 30
0.0
 11
143.99275285580001
 21
235.81853657049999
 31
0.0
  0
SOLID
  5
E5
  8
0
 62
     0
 10
148.99275285580001
 20
235.81853657049999
 30
0.0
 11
142.99242145400001
 21
234.31853657049999
 31
0.0
 12
142.99242145400001
 22
237.31853657049999
 32
0.0
 13
144.49250430449999
 23
235.81853657049999
 33
0.0
  0
LINE
  5
E6
  8
0
 62
     0
 10
173.99275285580001
 20
235.81853657049999
 30
0.0
 11
178.99275285580001
 21
235.81853657049999
 31
0.0
  0
SOLID
  5
E7
  8
0
 62
     0
 10
173.99275285580001
 20
235.81853657049999
 30
0.0
 11
179.9930842576
 21
237.31853657049999
 31
0.0
 12
179.9930842576
 22
234.31853657049999
 32
0.0
 13
178.49300140720001
 23
235.81853657049999
 33
0.0
  0
ENDBLK
  5
E8
  8
0
  0
BLOCK
  8
0
  2
CLUMP0
 70
     0
 10
0.0
 20
0.0
 30
0.0
  3
CLUMP0
  1

  0
LINE
  5
F6
  8
ﾚｲﾔ_1
 62
     5
 10
155.69275285579999
 20
67.081669810299999
 30
0.0
 11
155.69275285579999
 21
66.281669810300002
 31
0.0
  0
LINE
  5
F7
  8
ﾚｲﾔ_1
 62
     5
 10
149.7927528557999
 20
59.681669810300001
 30
0.0
 11
149.7927528557999
 21
67.081669810299999
 31
0.0
  0
LINE
  5
F8
  8
ﾚｲﾔ_1
 62
     5
 10
154.99275285580001
 20
59.681669810300001
 30
0.0
 11
149.7927528557999
 21
59.681669810300001
 31
0.0
  0
LINE
  5
F9
  8
ﾚｲﾔ_1
 62
     5
 10
154.99275285580001
 20
59.681669810300001
 30
0.0
 11
154.99275285580001
 21
58.881669810299996
 31
0.0
  0
LINE
  5
FA
  8
ﾚｲﾔ_1
 62
     5
 10
154.99275285580001
 20
58.881669810299996
 30
0.0
 11
149.7927528557999
 21
58.881669810299996
 31
0.0
  0
ARC
  5
FB
  8
ﾚｲﾔ_1
 62
     5
 10
149.7927528557999
 20
59.681669810300001
 30
0.0
 40
0.8
 50
180.0
 51
270.0
  0
LINE
  5
FC
  8
ﾚｲﾔ_1
 62
     5
 10
148.99275285580001
 20
59.681669810300001
 30
0.0
 11
148.99275285580001
 21
67.081669810299999
 31
0.0
  0
ARC
  5
FD
  8
ﾚｲﾔ_1
 62
     5
 10
149.7927528557999
 20
67.081669810299999
 30
0.0
 40
0.8
 50
90.0
 51
180.0
  0
LINE
  5
FE
  8
ﾚｲﾔ_1
 62
     5
 10
197.99275285580001
 20
58.881669810299996
 30
0.0
 11
197.99275285580001
 21
59.681669810300001
 31
0.0
  0
LINE
  5
FF
  8
ﾚｲﾔ_1
 62
     5
 10
203.19275285579999
 20
59.681669810300001
 30
0.0
 11
197.99275285580001
 21
59.681669810300001
 31
0.0
  0
LINE
  5
100
  8
ﾚｲﾔ_1
 62
     5
 10
203.19275285579999
 20
72.081669810299999
 30
0.0
 11
203.19275285579999
 21
59.681669810300001
 31
0.0
  0
LINE
  5
101
  8
ﾚｲﾔ_1
 62
     5
 10
174.79275285579999
 20
72.081669810299999
 30
0.0
 11
203.19275285579999
 21
72.081669810299999
 31
0.0
  0
LINE
  5
102
  8
ﾚｲﾔ_1
 62
     5
 10
149.7927528557999
 20
67.881669810299996
 30
0.0
 11
173.99275285580001
 21
67.881669810299996
 31
0.0
  0
LINE
  5
103
  8
ﾚｲﾔ_1
 62
     5
 10
149.7927528557999
 20
67.081669810299999
 30
0.0
 11
173.99275285580001
 21
67.081669810299999
 31
0.0
  0
LINE
  5
104
  8
ﾚｲﾔ_1
 62
     5
 10
174.79275285579999
 20
67.881669810299996
 30
0.0
 11
174.79275285579999
 21
72.081669810299999
 31
0.0
  0
ARC
  5
105
  8
ﾚｲﾔ_1
 62
     5
 10
173.99275285580001
 20
67.881669810299996
 30
0.0
 40
0.8
 50
270.0
 51
0.0
  0
LINE
  5
106
  8
ﾚｲﾔ_1
 62
     5
 10
173.99275285580001
 20
67.881669810299996
 30
0.0
 11
173.99275285580001
 21
72.081669810299999
 31
0.0
  0
ARC
  5
107
  8
ﾚｲﾔ_1
 62
     5
 10
174.79275285579999
 20
72.081669810299999
 30
0.0
 40
0.8
 50
90.0
 51
180.0
  0
LINE
  5
108
  8
ﾚｲﾔ_1
 62
     5
 10
174.79275285579999
 20
72.881669810299996
 30
0.0
 11
203.19275285579999
 21
72.881669810299996
 31
0.0
  0
ARC
  5
109
  8
ﾚｲﾔ_1
 62
     5
 10
203.19275285579999
 20
72.081669810299999
 30
0.0
 40
0.8
 50
0.0
 51
90.0
  0
LINE
  5
10A
  8
ﾚｲﾔ_1
 62
     5
 10
203.19275285579999
 20
58.881669810299996
 30
0.0
 11
197.99275285580001
 21
58.881669810299996
 31
0.0
  0
LINE
  5
10B
  8
ﾚｲﾔ_1
 62
     5
 10
203.99275285580001
 20
72.081669810299999
 30
0.0
 11
203.99275285580001
 21
59.681669810300001
 31
0.0
  0
ARC
  5
10C
  8
ﾚｲﾔ_1
 62
     5
 10
203.19275285579999
 20
59.681669810300001
 30
0.0
 40
0.8
 50
270.0
 51
0.0
  0
LINE
  5
10D
  8
ﾚｲﾔ_1
 62
     5
 10
155.69275285579999
 20
66.281669810300002
 30
0.0
 11
203.19275285579999
 21
66.281669810300002
 31
0.0
  0
LINE
  5
10E
  8
ﾚｲﾔ_1
 62
     5
 10
173.99275285580001
 20
67.081669810299999
 30
0.0
 11
203.19275285579999
 21
67.081669810299999
 31
0.0
  0
ENDBLK
  5
10F
  8
0
  0
BLOCK
  8
0
  2
CLUMP1
 70
     0
 10
0.0
 20
0.0
 30
0.0
  3
CLUMP1
  1

  0
LINE
  5
115
  8
ﾚｲﾔ_1
 62
     5
 10
56.165546713100007
 20
66.2811984561
 30
0.0
 11
80.865546713100002
 21
66.2811984561
 31
0.0
  0
LINE
  5
116
  8
ﾚｲﾔ_1
 62
     5
 10
56.165546713100007
 20
66.2811984561
 30
0.0
 11
56.165546713100007
 21
67.081198456099983
 31
0.0
  0
ARC
  5
117
  8
ﾚｲﾔ_1
 62
     5
 10
66.665546713099999
 20
67.881198456099995
 30
0.0
 40
0.8
 50
270.0
 51
0.0
  0
LINE
  5
118
  8
ﾚｲﾔ_1
 62
     5
 10
75.665546713099999
 20
59.681198456099999
 30
0.0
 11
80.865546713100002
 21
59.681198456099999
 31
0.0
  0
LINE
  5
119
  8
ﾚｲﾔ_1
 62
     5
 10
75.665546713099999
 20
58.881198456099987
 30
0.0
 11
75.665546713099999
 21
59.681198456099999
 31
0.0
  0
LINE
  5
11A
  8
ﾚｲﾔ_1
 62
     5
 10
57.665546713099999
 20
59.681198456099999
 30
0.0
 11
57.665546713099999
 21
58.881198456099987
 31
0.0
  0
LINE
  5
11B
  8
ﾚｲﾔ_1
 62
     5
 10
67.465546713100011
 20
74.381198456099995
 30
0.0
 11
80.865546713100002
 21
74.381198456099995
 31
0.0
  0
LINE
  5
11C
  8
ﾚｲﾔ_1
 62
     5
 10
66.665546713099999
 20
67.881198456099995
 30
0.0
 11
66.665546713099999
 21
73.581198456099997
 31
0.0
  0
ARC
  5
11D
  8
ﾚｲﾔ_1
 62
     5
 10
67.465546713100011
 20
73.581198456099997
 30
0.0
 40
0.8
 50
90.0
 51
180.0
  0
LINE
  5
11E
  8
ﾚｲﾔ_1
 62
     5
 10
67.465546713100011
 20
73.581198456099997
 30
0.0
 11
67.465546713100011
 21
67.881198456099995
 31
0.0
  0
LINE
  5
11F
  8
ﾚｲﾔ_1
 62
     5
 10
80.865546713100002
 20
59.681198456099999
 30
0.0
 11
80.865546713100002
 21
73.581198456099997
 31
0.0
  0
LINE
  5
120
  8
ﾚｲﾔ_1
 62
     5
 10
80.865546713100002
 20
58.881198456099987
 30
0.0
 11
75.665546713099999
 21
58.881198456099987
 31
0.0
  0
ARC
  5
121
  8
ﾚｲﾔ_1
 62
     5
 10
80.865546713100002
 20
59.681198456099999
 30
0.0
 40
0.8
 50
270.0
 51
0.0
  0
LINE
  5
122
  8
ﾚｲﾔ_1
 62
     5
 10
81.665546713100014
 20
73.581198456099997
 30
0.0
 11
81.665546713100014
 21
59.681198456099999
 31
0.0
  0
ARC
  5
123
  8
ﾚｲﾔ_1
 62
     5
 10
80.865546713100002
 20
73.581198456099997
 30
0.0
 40
0.8
 50
0.0
 51
90.0
  0
LINE
  5
124
  8
ﾚｲﾔ_1
 62
     5
 10
57.665546713099999
 20
59.681198456099999
 30
0.0
 11
57.665546713099999
 21
66.2811984561
 31
0.0
  0
LINE
  5
125
  8
ﾚｲﾔ_1
 62
     5
 10
66.665546713099999
 20
67.081198456099983
 30
0.0
 11
80.865546713100002
 21
67.081198456099983
 31
0.0
  0
LINE
  5
126
  8
ﾚｲﾔ_1
 62
     5
 10
80.865546713100002
 20
73.581198456099997
 30
0.0
 11
67.465546713100011
 21
73.581198456099997
 31
0.0
  0
LINE
  5
127
  8
ﾚｲﾔ_1
 62
     5
 10
52.465546713100011
 20
67.081198456099983
 30
0.0
 11
52.465546713100011
 21
59.681198456099999
 31
0.0
  0
ARC
  5
128
  8
ﾚｲﾔ_1
 62
     5
 10
52.465546713100011
 20
59.681198456099999
 30
0.0
 40
0.8
 50
180.0
 51
270.0
  0
LINE
  5
129
  8
ﾚｲﾔ_1
 62
     5
 10
51.665546713100007
 20
59.681198456099999
 30
0.0
 11
51.665546713100007
 21
67.081198456099983
 31
0.0
  0
ARC
  5
12A
  8
ﾚｲﾔ_1
 62
     5
 10
52.465546713100011
 20
67.081198456099983
 30
0.0
 40
0.8
 50
90.0
 51
180.0
  0
LINE
  5
12B
  8
ﾚｲﾔ_1
 62
     5
 10
52.465546713100011
 20
67.881198456099995
 30
0.0
 11
66.665546713099999
 21
67.881198456099995
 31
0.0
  0
LINE
  5
12C
  8
ﾚｲﾔ_1
 62
     5
 10
52.465546713100011
 20
59.681198456099999
 30
0.0
 11
57.665546713099999
 21
59.681198456099999
 31
0.0
  0
LINE
  5
12D
  8
ﾚｲﾔ_1
 62
     5
 10
57.665546713099999
 20
58.881198456099987
 30
0.0
 11
52.465546713100011
 21
58.881198456099987
 31
0.0
  0
LINE
  5
12E
  8
ﾚｲﾔ_1
 62
     5
 10
66.665546713099999
 20
67.081198456099983
 30
0.0
 11
52.465546713100011
 21
67.081198456099983
 31
0.0
  0
ENDBLK
  5
12F
  8
0
  0
BLOCK
  8
0
  2
CLUMP2
 70
     0
 10
0.0
 20
0.0
 30
0.0
  3
CLUMP2
  1

  0
LINE
  5
136
  8
ﾚｲﾔ_1
 62
     5
 10
54.665547069399999
 20
68.381669810299996
 30
0.0
 11
66.665546713099999
 21
68.381669810299996
 31
0.0
  0
ARC
  5
137
  8
ﾚｲﾔ_1
 62
     5
 10
54.665546713099999
 20
70.381669810299996
 30
0.0
 40
2.0
 50
180.0
 51
270.00001020809998
  0
LINE
  5
138
  8
ﾚｲﾔ_1
 62
     5
 10
54.665546713099999
 20
70.381669810299996
 30
0.0
 11
66.665546713099999
 21
70.381669810299996
 31
0.0
  0
LINE
  5
139
  8
ﾚｲﾔ_1
 62
     5
 10
54.665546713099999
 20
70.381669810299996
 30
0.0
 11
54.665546713099999
 21
195.3816698103
 31
0.0
  0
LINE
  5
13A
  8
ﾚｲﾔ_1
 62
     5
 10
66.665546713099999
 20
68.381669810299996
 30
0.0
 11
66.665546713099999
 21
197.3816698103
 31
0.0
  0
LINE
  5
13B
  8
ﾚｲﾔ_1
 62
     5
 10
54.665546713099999
 20
197.3816698103
 30
0.0
 11
66.665546713099999
 21
197.3816698103
 31
0.0
  0
LINE
  5
13C
  8
ﾚｲﾔ_1
 62
     5
 10
52.665546713099999
 20
195.38166846089999
 30
0.0
 11
52.665546713099999
 21
70.381669810299996
 31
0.0
  0
ARC
  5
13D
  8
ﾚｲﾔ_1
 62
     5
 10
54.665546713099999
 20
195.3816698103
 30
0.0
 40
2.0
 50
90.0
 51
180.0000386554
  0
LINE
  5
13E
  8
ﾚｲﾔ_1
 62
     5
 10
54.665546713099999
 20
195.3816698103
 30
0.0
 11
66.665546713099999
 21
195.3816698103
 31
0.0
  0
ENDBLK
  5
13F
  8
0
  0
BLOCK
  8
0
  2
CLUMP3
 70
     0
 10
0.0
 20
0.0
 30
0.0
  3
CLUMP3
  1

  0
LINE
  5
148
  8
ﾚｲﾔ_1
 62
     5
 10
56.165546713100007
 20
199.48214116439999
 30
0.0
 11
80.865546713100002
 21
199.48214116439999
 31
0.0
  0
LINE
  5
149
  8
ﾚｲﾔ_1
 62
     5
 10
56.165546713100007
 20
199.48214116439999
 30
0.0
 11
56.165546713100007
 21
198.68214116440001
 31
0.0
  0
LINE
  5
14A
  8
ﾚｲﾔ_1
 62
     5
 10
80.865546713100002
 20
192.18214116440001
 30
0.0
 11
67.465546713100011
 21
192.18214116440001
 31
0.0
  0
LINE
  5
14B
  8
ﾚｲﾔ_1
 62
     5
 10
80.865546713100002
 20
206.08214116440001
 30
0.0
 11
80.865546713100002
 21
192.18214116440001
 31
0.0
  0
ARC
  5
14C
  8
ﾚｲﾔ_1
 62
     5
 10
80.865546713100002
 20
206.08214116440001
 30
0.0
 40
0.8
 50
0.0
 51
90.0
  0
LINE
  5
14D
  8
ﾚｲﾔ_1
 62
     5
 10
81.665546713100014
 20
192.18214116440001
 30
0.0
 11
81.665546713100014
 21
206.08214116440001
 31
0.0
  0
ARC
  5
14E
  8
ﾚｲﾔ_1
 62
     5
 10
80.865546713100002
 20
192.18214116440001
 30
0.0
 40
0.8
 50
270.0
 51
0.0
  0
LINE
  5
14F
  8
ﾚｲﾔ_1
 62
     5
 10
67.465546713100011
 20
191.3821411644
 30
0.0
 11
80.865546713100002
 21
191.3821411644
 31
0.0
  0
LINE
  5
150
  8
ﾚｲﾔ_1
 62
     5
 10
66.665546713099999
 20
197.8821411644
 30
0.0
 11
66.665546713099999
 21
192.18214116440001
 31
0.0
  0
ARC
  5
151
  8
ﾚｲﾔ_1
 62
     5
 10
67.465546713100011
 20
192.18214116440001
 30
0.0
 40
0.8
 50
180.0
 51
270.0
  0
LINE
  5
152
  8
ﾚｲﾔ_1
 62
     5
 10
67.465546713100011
 20
192.18214116440001
 30
0.0
 11
67.465546713100011
 21
197.8821411644
 31
0.0
  0
LINE
  5
153
  8
ﾚｲﾔ_1
 62
     5
 10
75.665546713099999
 20
206.08214116440001
 30
0.0
 11
80.865546713100002
 21
206.08214116440001
 31
0.0
  0
LINE
  5
154
  8
ﾚｲﾔ_1
 62
     5
 10
75.665546713099999
 20
206.8821411644
 30
0.0
 11
75.665546713099999
 21
206.08214116440001
 31
0.0
  0
LINE
  5
155
  8
ﾚｲﾔ_1
 62
     5
 10
57.665546713099999
 20
206.08214116440001
 30
0.0
 11
57.665546713099999
 21
199.48214116439999
 31
0.0
  0
LINE
  5
156
  8
ﾚｲﾔ_1
 62
     5
 10
66.665546713099999
 20
198.68214116440001
 30
0.0
 11
80.865546713100002
 21
198.68214116440001
 31
0.0
  0
LINE
  5
157
  8
ﾚｲﾔ_1
 62
     5
 10
57.665546713099999
 20
206.08214116440001
 30
0.0
 11
57.665546713099999
 21
206.8821411644
 31
0.0
  0
LINE
  5
158
  8
ﾚｲﾔ_1
 62
     5
 10
80.865546713100002
 20
206.8821411644
 30
0.0
 11
75.665546713099999
 21
206.8821411644
 31
0.0
  0
ARC
  5
159
  8
ﾚｲﾔ_1
 62
     5
 10
66.665546713099999
 20
197.8821411644
 30
0.0
 40
0.8
 50
0.0
 51
90.0
  0
ARC
  5
15A
  8
ﾚｲﾔ_1
 62
     5
 10
52.465546713100011
 20
198.68214116440001
 30
0.0
 40
0.8
 50
180.0
 51
270.0
  0
LINE
  5
15B
  8
ﾚｲﾔ_1
 62
     5
 10
52.465546713100011
 20
198.68214116440001
 30
0.0
 11
52.465546713100011
 21
206.08214116440001
 31
0.0
  0
ARC
  5
15C
  8
ﾚｲﾔ_1
 62
     5
 10
52.465546713100011
 20
206.08214116440001
 30
0.0
 40
0.8
 50
90.0
 51
180.0
  0
LINE
  5
15D
  8
ﾚｲﾔ_1
 62
     5
 10
51.665546713100007
 20
206.08214116440001
 30
0.0
 11
51.665546713100007
 21
198.68214116440001
 31
0.0
  0
LINE
  5
15E
  8
ﾚｲﾔ_1
 62
     5
 10
52.465546713100011
 20
206.08214116440001
 30
0.0
 11
57.665546713099999
 21
206.08214116440001
 31
0.0
  0
LINE
  5
15F
  8
ﾚｲﾔ_1
 62
     5
 10
57.665546713099999
 20
206.8821411644
 30
0.0
 11
52.465546713100011
 21
206.8821411644
 31
0.0
  0
LINE
  5
160
  8
ﾚｲﾔ_1
 62
     5
 10
66.665546713099999
 20
198.68214116440001
 30
0.0
 11
52.465546713100011
 21
198.68214116440001
 31
0.0
  0
LINE
  5
161
  8
ﾚｲﾔ_1
 62
     5
 10
52.465546713100011
 20
197.8821411644
 30
0.0
 11
66.665546713099999
 21
197.8821411644
 31
0.0
  0
ENDBLK
  5
162
  8
0
  0
BLOCK
  8
0
  2
CLUMP4
 70
     0
 10
0.0
 20
0.0
 30
0.0
  3
CLUMP4
  1

  0
LINE
  5
168
  8
ﾚｲﾔ_1
 62
     5
 10
155.69275285579999
 20
198.68166981030001
 30
0.0
 11
155.69275285579999
 21
199.48166981029999
 31
0.0
  0
LINE
  5
169
  8
ﾚｲﾔ_1
 62
     5
 10
149.7927528557999
 20
206.08166981030001
 30
0.0
 11
149.7927528557999
 21
198.68166981030001
 31
0.0
  0
LINE
  5
16A
  8
ﾚｲﾔ_1
 62
     5
 10
154.99275285580001
 20
206.08166981030001
 30
0.0
 11
149.7927528557999
 21
206.08166981030001
 31
0.0
  0
LINE
  5
16B
  8
ﾚｲﾔ_1
 62
     5
 10
154.99275285580001
 20
206.08166981030001
 30
0.0
 11
154.99275285580001
 21
206.8816698103
 31
0.0
  0
LINE
  5
16C
  8
ﾚｲﾔ_1
 62
     5
 10
154.99275285580001
 20
206.8816698103
 30
0.0
 11
149.7927528557999
 21
206.8816698103
 31
0.0
  0
ARC
  5
16D
  8
ﾚｲﾔ_1
 62
     5
 10
149.7927528557999
 20
206.08166981030001
 30
0.0
 40
0.8
 50
90.0
 51
180.0
  0
LINE
  5
16E
  8
ﾚｲﾔ_1
 62
     5
 10
148.99275285580001
 20
206.08166981030001
 30
0.0
 11
148.99275285580001
 21
198.68166981030001
 31
0.0
  0
ARC
  5
16F
  8
ﾚｲﾔ_1
 62
     5
 10
149.7927528557999
 20
198.68166981030001
 30
0.0
 40
0.8
 50
180.0
 51
270.0
  0
LINE
  5
170
  8
ﾚｲﾔ_1
 62
     5
 10
197.99275285580001
 20
206.8816698103
 30
0.0
 11
197.99275285580001
 21
206.08166981030001
 31
0.0
  0
LINE
  5
171
  8
ﾚｲﾔ_1
 62
     5
 10
203.19275285579999
 20
206.08166981030001
 30
0.0
 11
197.99275285580001
 21
206.08166981030001
 31
0.0
  0
LINE
  5
172
  8
ﾚｲﾔ_1
 62
     5
 10
203.19275285579999
 20
193.68166981030001
 30
0.0
 11
203.19275285579999
 21
206.08166981030001
 31
0.0
  0
LINE
  5
173
  8
ﾚｲﾔ_1
 62
     5
 10
174.79275285579999
 20
193.68166981030001
 30
0.0
 11
203.19275285579999
 21
193.68166981030001
 31
0.0
  0
LINE
  5
174
  8
ﾚｲﾔ_1
 62
     5
 10
149.7927528557999
 20
197.8816698103
 30
0.0
 11
173.99275285580001
 21
197.8816698103
 31
0.0
  0
LINE
  5
175
  8
ﾚｲﾔ_1
 62
     5
 10
149.7927528557999
 20
198.68166981030001
 30
0.0
 11
173.99275285580001
 21
198.68166981030001
 31
0.0
  0
LINE
  5
176
  8
ﾚｲﾔ_1
 62
     5
 10
174.79275285579999
 20
197.8816698103
 30
0.0
 11
174.79275285579999
 21
193.68166981030001
 31
0.0
  0
ARC
  5
177
  8
ﾚｲﾔ_1
 62
     5
 10
173.99275285580001
 20
197.8816698103
 30
0.0
 40
0.8
 50
0.0
 51
90.0
  0
LINE
  5
178
  8
ﾚｲﾔ_1
 62
     5
 10
173.99275285580001
 20
197.8816698103
 30
0.0
 11
173.99275285580001
 21
193.68166981030001
 31
0.0
  0
ARC
  5
179
  8
ﾚｲﾔ_1
 62
     5
 10
174.79275285579999
 20
193.68166981030001
 30
0.0
 40
0.8
 50
180.0
 51
270.0
  0
LINE
  5
17A
  8
ﾚｲﾔ_1
 62
     5
 10
174.79275285579999
 20
192.8816698103
 30
0.0
 11
203.19275285579999
 21
192.8816698103
 31
0.0
  0
ARC
  5
17B
  8
ﾚｲﾔ_1
 62
     5
 10
203.19275285579999
 20
193.68166981030001
 30
0.0
 40
0.8
 50
270.0
 51
0.0
  0
LINE
  5
17C
  8
ﾚｲﾔ_1
 62
     5
 10
203.19275285579999
 20
206.8816698103
 30
0.0
 11
197.99275285580001
 21
206.8816698103
 31
0.0
  0
LINE
  5
17D
  8
ﾚｲﾔ_1
 62
     5
 10
203.99275285580001
 20
193.68166981030001
 30
0.0
 11
203.99275285580001
 21
206.08166981030001
 31
0.0
  0
ARC
  5
17E
  8
ﾚｲﾔ_1
 62
     5
 10
203.19275285579999
 20
206.08166981030001
 30
0.0
 40
0.8
 50
0.0
 51
90.0
  0
LINE
  5
17F
  8
ﾚｲﾔ_1
 62
     5
 10
155.69275285579999
 20
199.48166981029999
 30
0.0
 11
203.19275285579999
 21
199.48166981029999
 31
0.0
  0
LINE
  5
180
  8
ﾚｲﾔ_1
 62
     5
 10
173.99275285580001
 20
198.68166981030001
 30
0.0
 11
203.19275285579999
 21
198.68166981030001
 31
0.0
  0
ENDBLK
  5
181
  8
0
  0
BLOCK
  8
0
  2
*D17
 70
     1
 10
0.0
 20
0.0
 30
0.0
  3
*D17
  1

  0
TEXT
  5
18B
  8
0
 62
     0
 10
-145.80443044980001
 20
248.7887030153
 30
0.0
 40
6.5969445704999989
  1
148
  0
LINE
  5
18C
  8
0
 62
     0
 10
-65.983597005200011
 20
208.8816698103
 30
0.0
 11
-65.983597005200011
 21
247.6245363264
 31
0.0
  0
LINE
  5
18D
  8
0
 62
     0
 10
-213.98359700520001
 20
208.8816698103
 30
0.0
 11
-213.98359700520001
 21
247.6245363264
 31
0.0
  0
LINE
  5
18E
  8
0
 62
     0
 10
-65.983597005200011
 20
246.6245363264
 30
0.0
 11
-130.2822079309
 21
246.6245363264
 31
0.0
  0
LINE
  5
18F
  8
0
 62
     0
 10
-65.983597005200011
 20
246.6245363264
 30
0.0
 11
-149.68498607949999
 21
246.6245363264
 31
0.0
  0
LINE
  5
190
  8
0
 62
     0
 10
-213.98359700520001
 20
246.6245363264
 30
0.0
 11
-130.2822079309
 21
246.6245363264
 31
0.0
  0
LINE
  5
191
  8
0
 62
     0
 10
-213.98359700520001
 20
246.6245363264
 30
0.0
 11
-149.68498607949999
 21
246.6245363264
 31
0.0
  0
LINE
  5
192
  8
0
 62
     0
 10
-213.98359700520001
 20
246.6245363264
 30
0.0
 11
-208.98359700520001
 21
246.6245363264
 31
0.0
  0
SOLID
  5
193
  8
0
 62
     0
 10
-213.98359700520001
 20
246.6245363264
 30
0.0
 11
-207.98326560340001
 21
248.1245363264
 31
0.0
 12
-207.98326560340001
 22
245.1245363264
 32
0.0
 13
-209.48334845380001
 23
246.6245363264
 33
0.0
  0
LINE
  5
194
  8
0
 62
     0
 10
-65.983597005200011
 20
246.6245363264
 30
0.0
 11
-70.983597005200011
 21
246.6245363264
 31
0.0
  0
SOLID
  5
195
  8
0
 62
     0
 10
-65.983597005200011
 20
246.6245363264
 30
0.0
 11
-71.983928406999993
 21
245.1245363264
 31
0.0
 12
-71.983928406999993
 22
248.1245363264
 32
0.0
 13
-70.483845556600002
 23
246.6245363264
 33
0.0
  0
ENDBLK
  5
196
  8
0
  0
BLOCK
  8
0
  2
*D18
 70
     1
 10
0.0
 20
0.0
 30
0.0
  3
*D18
  1

  0
TEXT
  5
19A
  8
0
 62
     0
 10
-145.80443044980001
 20
235.3498144655
 30
0.0
 40
6.5969445704999989
  1
130
  0
LINE
  5
19B
  8
0
 62
     0
 10
-74.983597005200011
 20
199.8816698103
 30
0.0
 11
-74.983597005200011
 21
234.18564777660001
 31
0.0
  0
LINE
  5
19C
  8
0
 62
     0
 10
-204.98359700520001
 20
199.8816698103
 30
0.0
 11
-204.98359700520001
 21
234.18564777660001
 31
0.0
  0
LINE
  5
19D
  8
0
 62
     0
 10
-74.983597005200011
 20
233.18564777660001
 30
0.0
 11
-130.2822079309
 21
233.18564777660001
 31
0.0
  0
LINE
  5
19E
  8
0
 62
     0
 10
-74.983597005200011
 20
233.18564777660001
 30
0.0
 11
-149.68498607949999
 21
233.18564777660001
 31
0.0
  0
LINE
  5
19F
  8
0
 62
     0
 10
-204.98359700520001
 20
233.18564777660001
 30
0.0
 11
-130.2822079309
 21
233.18564777660001
 31
0.0
  0
LINE
  5
1A0
  8
0
 62
     0
 10
-204.98359700520001
 20
233.18564777660001
 30
0.0
 11
-149.68498607949999
 21
233.18564777660001
 31
0.0
  0
LINE
  5
1A1
  8
0
 62
     0
 10
-204.98359700520001
 20
233.18564777660001
 30
0.0
 11
-199.98359700520001
 21
233.18564777660001
 31
0.0
  0
SOLID
  5
1A2
  8
0
 62
     0
 10
-204.98359700520001
 20
233.18564777660001
 30
0.0
 11
-198.98326560340001
 21
234.68564777660001
 31
0.0
 12
-198.98326560340001
 22
231.68564777660001
 32
0.0
 13
-200.48334845380001
 23
233.18564777660001
 33
0.0
  0
LINE
  5
1A3
  8
0
 62
     0
 10
-74.983597005200011
 20
233.18564777660001
 30
0.0
 11
-79.983597005200011
 21
233.18564777660001
 31
0.0
  0
SOLID
  5
1A4
  8
0
 62
     0
 10
-74.983597005200011
 20
233.18564777660001
 30
0.0
 11
-80.983928406999979
 21
231.68564777660001
 31
0.0
 12
-80.983928406999979
 22
234.68564777660001
 32
0.0
 13
-79.483845556600002
 23
233.18564777660001
 33
0.0
  0
ENDBLK
  5
1A5
  8
0
  0
BLOCK
  8
0
  2
*D19
 70
     1
 10
0.0
 20
0.0
 30
0.0
  3
*D19
  1

  0
TEXT
  5
1A9
  8
0
 62
     0
 10
-72.423874820099996
 20
235.3498144655
 30
0.0
 40
6.5969445704999989
  1
9
  0
LINE
  5
1AA
  8
0
 62
     0
 10
-65.983597005200011
 20
208.8816698103
 30
0.0
 11
-65.983597005200011
 21
234.18564777660001
 31
0.0
  0
LINE
  5
1AB
  8
0
 62
     0
 10
-74.983597005200011
 20
199.8816698103
 30
0.0
 11
-74.983597005200011
 21
234.18564777660001
 31
0.0
  0
LINE
  5
1AC
  8
0
 62
     0
 10
-65.983597005200011
 20
233.18564777660001
 30
0.0
 11
-65.983597005200011
 21
233.18564777660001
 31
0.0
  0
LINE
  5
1AD
  8
0
 62
     0
 10
-65.983597005200011
 20
233.18564777660001
 30
0.0
 11
-74.983597005200011
 21
233.18564777660001
 31
0.0
  0
LINE
  5
1AE
  8
0
 62
     0
 10
-74.983597005200011
 20
233.18564777660001
 30
0.0
 11
-65.983597005200011
 21
233.18564777660001
 31
0.0
  0
LINE
  5
1AF
  8
0
 62
     0
 10
-74.983597005200011
 20
233.18564777660001
 30
0.0
 11
-74.983597005200011
 21
233.18564777660001
 31
0.0
  0
LINE
  5
1B0
  8
0
 62
     0
 10
-74.983597005200011
 20
233.18564777660001
 30
0.0
 11
-79.983597005200011
 21
233.18564777660001
 31
0.0
  0
SOLID
  5
1B1
  8
0
 62
     0
 10
-74.983597005200011
 20
233.18564777660001
 30
0.0
 11
-80.983928406999979
 21
231.68564777660001
 31
0.0
 12
-80.983928406999979
 22
234.68564777660001
 32
0.0
 13
-79.483845556600002
 23
233.18564777660001
 33
0.0
  0
LINE
  5
1B2
  8
0
 62
     0
 10
-65.983597005200011
 20
233.18564777660001
 30
0.0
 11
-60.983597005199996
 21
233.18564777660001
 31
0.0
  0
SOLID
  5
1B3
  8
0
 62
     0
 10
-65.983597005200011
 20
233.18564777660001
 30
0.0
 11
-59.9832656034
 21
234.68564777660001
 31
0.0
 12
-59.9832656034
 22
231.68564777660001
 32
0.0
 13
-61.483348453799991
 23
233.18564777660001
 33
0.0
  0
ENDBLK
  5
1B4
  8
0
  0
BLOCK
  8
0
  2
BALLON0
 70
     0
 10
0.0
 20
0.0
 30
0.0
  3
BALLON0
  1

  0
INSERT
  5
1B9
  8
0
  6
CONTINUOUS
  2
*U60
 10
0.0
 20
0.0
 30
0.0
  0
CIRCLE
  5
1BA
  8
ﾚｲﾔ_1
 10
-221.07378913790001
 20
38.123189499299997
 30
0.0
 40
8.0
  0
LINE
  5
1BB
  8
寸法線
 10
-207.7404558046
 20
38.123189499299997
 30
0.0
 11
-213.07378913790001
 21
38.123189499299997
 31
0.0
  0
LINE
  5
1BC
  8
寸法線
 10
-188.63083624250001
 20
14.4375942894
 30
0.0
 11
-207.7404558046
 21
38.123189499299997
 31
0.0
  0
SOLID
  5
1BD
  8
寸法線
 10
-188.63083624250001
 20
14.4375942894
 30
0.0
 11
-194.8994297895
 21
19.659158704700001
 31
0.0
 12
-192.64951367629999
 22
19.4185813084
 32
0.0
 13
-192.64951367629999
 23
19.4185813084
 33
0.0
  0
SOLID
  5
1BE
  8
寸法線
 10
-192.64951367629999
 20
19.4185813084
 30
0.0
 11
-192.40893628000001
 21
21.668497421600001
 31
0.0
 12
-188.63083624250001
 22
14.4375942894
 32
0.0
 13
-188.63083624250001
 23
14.4375942894
 33
0.0
  0
ENDBLK
  5
1BF
  8
0
  0
BLOCK
  8
0
  2
BALLON1
 70
     0
 10
0.0
 20
0.0
 30
0.0
  3
BALLON1
  1

  0
INSERT
  5
1C3
  8
0
  6
CONTINUOUS
  2
*U61
 10
0.0
 20
0.0
 30
0.0
  0
CIRCLE
  5
1C4
  8
ﾚｲﾔ_1
 10
-149.55229848900001
 20
38.123189499299997
 30
0.0
 40
8.0
  0
LINE
  5
1C5
  8
寸法線
 10
-136.2189651557
 20
38.123189499299997
 30
0.0
 11
-141.55229848900001
 21
38.123189499299997
 31
0.0
  0
LINE
  5
1C6
  8
寸法線
 10
-116.68599088169999
 20
88.495580071700005
 30
0.0
 11
-136.2189651557
 21
38.123189499299997
 31
0.0
  0
SOLID
  5
1C7
  8
寸法線
 10
-116.68599088169999
 20
88.495580071700005
 30
0.0
 11
-118.08654975180001
 21
80.458264919799987
 31
0.0
 12
-118.9998538821
 22
82.528500550299995
 32
0.0
 13
-118.9998538821
 23
82.528500550299995
 33
0.0
  0
SOLID
  5
1C8
  8
寸法線
 10
-118.9998538821
 20
82.528500550299995
 30
0.0
 11
-121.0700895125
 21
81.615196420000004
 31
0.0
 12
-116.68599088169999
 22
88.495580071700005
 32
0.0
 13
-116.68599088169999
 23
88.495580071700005
 33
0.0
  0
ENDBLK
  5
1C9
  8
0
  0
BLOCK
  8
0
  2
*D22
 70
     1
 10
0.0
 20
0.0
 30
0.0
  3
*D22
  1

  0
TEXT
  5
1CC
  8
0
 62
     0
 10
-211.4238748201
 20
235.3498144655
 30
0.0
 40
6.5969445704999989
  1
9
  0
LINE
  5
1CD
  8
0
 62
     0
 10
-204.98359700520001
 20
199.8816698103
 30
0.0
 11
-204.98359700520001
 21
234.18564777660001
 31
0.0
  0
LINE
  5
1CE
  8
0
 62
     0
 10
-213.98359700520001
 20
208.8816698103
 30
0.0
 11
-213.98359700520001
 21
234.18564777660001
 31
0.0
  0
LINE
  5
1CF
  8
0
 62
     0
 10
-204.98359700520001
 20
233.18564777660001
 30
0.0
 11
-204.98359700520001
 21
233.18564777660001
 31
0.0
  0
LINE
  5
1D0
  8
0
 62
     0
 10
-204.98359700520001
 20
233.18564777660001
 30
0.0
 11
-213.98359700520001
 21
233.18564777660001
 31
0.0
  0
LINE
  5
1D1
  8
0
 62
     0
 10
-213.98359700520001
 20
233.18564777660001
 30
0.0
 11
-204.98359700520001
 21
233.18564777660001
 31
0.0
  0
LINE
  5
1D2
  8
0
 62
     0
 10
-213.98359700520001
 20
233.18564777660001
 30
0.0
 11
-213.98359700520001
 21
233.18564777660001
 31
0.0
  0
LINE
  5
1D3
  8
0
 62
     0
 10
-213.98359700520001
 20
233.18564777660001
 30
0.0
 11
-218.98359700520001
 21
233.18564777660001
 31
0.0
  0
SOLID
  5
1D4
  8
0
 62
     0
 10
-213.98359700520001
 20
233.18564777660001
 30
0.0
 11
-219.98392840700001
 21
231.68564777660001
 31
0.0
 12
-219.98392840700001
 22
234.68564777660001
 32
0.0
 13
-218.48384555659999
 23
233.18564777660001
 33
0.0
  0
LINE
  5
1D5
  8
0
 62
     0
 10
-204.98359700520001
 20
233.18564777660001
 30
0.0
 11
-199.98359700520001
 21
233.18564777660001
 31
0.0
  0
SOLID
  5
1D6
  8
0
 62
     0
 10
-204.98359700520001
 20
233.18564777660001
 30
0.0
 11
-198.98326560340001
 21
234.68564777660001
 31
0.0
 12
-198.98326560340001
 22
231.68564777660001
 32
0.0
 13
-200.48334845380001
 23
233.18564777660001
 33
0.0
  0
ENDBLK
  5
1D7
  8
0
  0
BLOCK
  8
0
  2
*D23
 70
     1
 10
0.0
 20
0.0
 30
0.0
  3
*D23
  1

  0
TEXT
  5
1DB
  8
0
 62
     0
 10
-20.3936438211
 20
127.8584267406
 30
0.0
 40
6.5969445704999989
  1
148
 50
90.0
  0
LINE
  5
1DC
  8
0
 62
     0
 10
-63.983597005199996
 20
58.881669810299996
 30
0.0
 11
-17.2294771322
 21
58.881669810299996
 31
0.0
  0
LINE
  5
1DD
  8
0
 62
     0
 10
-63.983597005199996
 20
206.8816698103
 30
0.0
 11
-17.2294771322
 21
206.8816698103
 31
0.0
  0
LINE
  5
1DE
  8
0
 62
     0
 10
-18.2294771322
 20
58.881669810299996
 30
0.0
 11
-18.2294771322
 21
143.38064925949999
 31
0.0
  0
LINE
  5
1DF
  8
0
 62
     0
 10
-18.2294771322
 20
58.881669810299996
 30
0.0
 11
-18.2294771322
 21
123.9778711109
 31
0.0
  0
LINE
  5
1E0
  8
0
 62
     0
 10
-18.2294771322
 20
206.8816698103
 30
0.0
 11
-18.2294771322
 21
143.38064925949999
 31
0.0
  0
LINE
  5
1E1
  8
0
 62
     0
 10
-18.2294771322
 20
206.8816698103
 30
0.0
 11
-18.2294771322
 21
123.9778711109
 31
0.0
  0
LINE
  5
1E2
  8
0
 62
     0
 10
-18.2294771322
 20
206.8816698103
 30
0.0
 11
-18.2294771322
 21
201.8816698103
 31
0.0
  0
SOLID
  5
1E3
  8
0
 62
     0
 10
-18.2294771322
 20
206.8816698103
 30
0.0
 11
-16.7294771322
 21
200.88133840840001
 31
0.0
 12
-19.7294771322
 22
200.88133840840001
 32
0.0
 13
-18.2294771322
 23
202.38142125889999
 33
0.0
  0
LINE
  5
1E4
  8
0
 62
     0
 10
-18.2294771322
 20
58.881669810299996
 30
0.0
 11
-18.2294771322
 21
63.881669810299996
 31
0.0
  0
SOLID
  5
1E5
  8
0
 62
     0
 10
-18.2294771322
 20
58.881669810299996
 30
0.0
 11
-19.7294771322
 21
64.882001212099993
 31
0.0
 12
-16.7294771322
 22
64.882001212099993
 32
0.0
 13
-18.2294771322
 23
63.3819183616
 33
0.0
  0
ENDBLK
  5
1E6
  8
0
  0
BLOCK
  8
0
  2
*D24
 70
     1
 10
0.0
 20
0.0
 30
0.0
  3
*D24
  1

  0
TEXT
  5
1EA
  8
0
 62
     0
 10
-56.147318381600002
 20
9.497793037100001
 30
0.0
 40
6.5969445704999989
  1
6
 50
90.0
  0
LINE
  5
1EB
  8
0
 62
     0
 10
-63.983151692699998
 20
8.4380708518999992
 30
0.0
 11
-52.983151692700012
 21
8.4380708518999992
 31
0.0
  0
LINE
  5
1EC
  8
0
 62
     0
 10
-64.783151692700002
 20
14.438070851899999
 30
0.0
 11
-52.983151692700012
 21
14.438070851899999
 31
0.0
  0
LINE
  5
1ED
  8
0
 62
     0
 10
-53.983151692699998
 20
8.4380708518999992
 30
0.0
 11
-53.983151692699998
 21
8.4380708518999992
 31
0.0
  0
LINE
  5
1EE
  8
0
 62
     0
 10
-53.983151692699998
 20
8.4380708518999992
 30
0.0
 11
-53.983151692699998
 21
14.438070851899999
 31
0.0
  0
LINE
  5
1EF
  8
0
 62
     0
 10
-53.983151692699998
 20
14.438070851899999
 30
0.0
 11
-53.983151692699998
 21
8.4380708518999992
 31
0.0
  0
LINE
  5
1F0
  8
0
 62
     0
 10
-53.983151692699998
 20
14.438070851899999
 30
0.0
 11
-53.983151692699998
 21
14.438070851899999
 31
0.0
  0
LINE
  5
1F1
  8
0
 62
     0
 10
-53.983151692699998
 20
14.438070851899999
 30
0.0
 11
-53.983151692699998
 21
19.438070851900001
 31
0.0
  0
SOLID
  5
1F2
  8
0
 62
     0
 10
-53.983151692699998
 20
14.438070851899999
 30
0.0
 11
-55.483151692700012
 21
20.4384022538
 31
0.0
 12
-52.483151692699998
 22
20.4384022538
 32
0.0
 13
-53.983151692699998
 23
18.9383194033
 33
0.0
  0
LINE
  5
1F3
  8
0
 62
     0
 10
-53.983151692699998
 20
8.4380708518999992
 30
0.0
 11
-53.983151692699998
 21
3.4380708519000001
 31
0.0
  0
SOLID
  5
1F4
  8
0
 62
     0
 10
-53.983151692699998
 20
8.4380708518999992
 30
0.0
 11
-52.483151692699998
 21
2.4377394501
 31
0.0
 12
-55.483151692700012
 22
2.4377394501
 32
0.0
 13
-53.983151692699998
 23
3.9378223006000002
 33
0.0
  0
ENDBLK
  5
1F5
  8
0
  0
BLOCK
  8
0
  2
*D25
 70
     1
 10
0.0
 20
0.0
 30
0.0
  3
*D25
  1

  0
TEXT
  5
1F9
  8
0
 62
     0
 10
-35.804116690999997
 20
127.0608363657
 30
0.0
 40
6.5969445704999989
  1
130
 50
90.0
  0
LINE
  5
1FA
  8
0
 62
     0
 10
-72.983597005200011
 20
67.881669810299996
 30
0.0
 11
-32.639950001999999
 21
67.881669810299996
 31
0.0
  0
LINE
  5
1FB
  8
0
 62
     0
 10
-72.983597005200011
 20
197.8816698103
 30
0.0
 11
-32.639950001999999
 21
197.8816698103
 31
0.0
  0
LINE
  5
1FC
  8
0
 62
     0
 10
-33.639950001999999
 20
67.881669810299996
 30
0.0
 11
-33.639950001999999
 21
142.58305888460001
 31
0.0
  0
LINE
  5
1FD
  8
0
 62
     0
 10
-33.639950001999999
 20
67.881669810299996
 30
0.0
 11
-33.639950001999999
 21
123.1802807359
 31
0.0
  0
LINE
  5
1FE
  8
0
 62
     0
 10
-33.639950001999999
 20
197.8816698103
 30
0.0
 11
-33.639950001999999
 21
142.58305888460001
 31
0.0
  0
LINE
  5
1FF
  8
0
 62
     0
 10
-33.639950001999999
 20
197.8816698103
 30
0.0
 11
-33.639950001999999
 21
123.1802807359
 31
0.0
  0
LINE
  5
200
  8
0
 62
     0
 10
-33.639950001999999
 20
197.8816698103
 30
0.0
 11
-33.639950001999999
 21
192.8816698103
 31
0.0
  0
SOLID
  5
201
  8
0
 62
     0
 10
-33.639950001999999
 20
197.8816698103
 30
0.0
 11
-32.139950001999999
 21
191.88133840840001
 31
0.0
 12
-35.139950001999999
 22
191.88133840840001
 32
0.0
 13
-33.639950001999999
 23
193.38142125889999
 33
0.0
  0
LINE
  5
202
  8
0
 62
     0
 10
-33.639950001999999
 20
67.881669810299996
 30
0.0
 11
-33.639950001999999
 21
72.881669810299996
 31
0.0
  0
SOLID
  5
203
  8
0
 62
     0
 10
-33.639950001999999
 20
67.881669810299996
 30
0.0
 11
-35.139950001999999
 21
73.882001212099993
 31
0.0
 12
-32.139950001999999
 22
73.882001212099993
 32
0.0
 13
-33.639950001999999
 23
72.3819183616
 33
0.0
  0
ENDBLK
  5
204
  8
0
  0
BLOCK
  8
0
  2
*D26
 70
     1
 10
0.0
 20
0.0
 30
0.0
  3
*D26
  1

  0
TEXT
  5
208
  8
0
 62
     0
 10
-35.804116690999997
 20
61.441391995399989
 30
0.0
 40
6.5969445704999989
  1
9
 50
90.0
  0
LINE
  5
209
  8
0
 62
     0
 10
-63.983597005199996
 20
58.881669810299996
 30
0.0
 11
-32.639950001999999
 21
58.881669810299996
 31
0.0
  0
LINE
  5
20A
  8
0
 62
     0
 10
-72.983597005200011
 20
67.881669810299996
 30
0.0
 11
-32.639950001999999
 21
67.881669810299996
 31
0.0
  0
LINE
  5
20B
  8
0
 62
     0
 10
-33.639950001999999
 20
58.881669810299996
 30
0.0
 11
-33.639950001999999
 21
58.881669810299996
 31
0.0
  0
LINE
  5
20C
  8
0
 62
     0
 10
-33.639950001999999
 20
58.881669810299996
 30
0.0
 11
-33.639950001999999
 21
67.881669810299996
 31
0.0
  0
LINE
  5
20D
  8
0
 62
     0
 10
-33.639950001999999
 20
67.881669810299996
 30
0.0
 11
-33.639950001999999
 21
58.881669810299996
 31
0.0
  0
LINE
  5
20E
  8
0
 62
     0
 10
-33.639950001999999
 20
67.881669810299996
 30
0.0
 11
-33.639950001999999
 21
67.881669810299996
 31
0.0
  0
LINE
  5
20F
  8
0
 62
     0
 10
-33.639950001999999
 20
67.881669810299996
 30
0.0
 11
-33.639950001999999
 21
72.881669810299996
 31
0.0
  0
SOLID
  5
210
  8
0
 62
     0
 10
-33.639950001999999
 20
67.881669810299996
 30
0.0
 11
-35.139950001999999
 21
73.882001212099993
 31
0.0
 12
-32.139950001999999
 22
73.882001212099993
 32
0.0
 13
-33.639950001999999
 23
72.3819183616
 33
0.0
  0
LINE
  5
211
  8
0
 62
     0
 10
-33.639950001999999
 20
58.881669810299996
 30
0.0
 11
-33.639950001999999
 21
53.881669810299996
 31
0.0
  0
SOLID
  5
212
  8
0
 62
     0
 10
-33.639950001999999
 20
58.881669810299996
 30
0.0
 11
-32.139950001999999
 21
52.881338408399998
 31
0.0
 12
-35.139950001999999
 22
52.881338408399998
 32
0.0
 13
-33.639950001999999
 23
54.381421258899998
 33
0.0
  0
ENDBLK
  5
213
  8
0
  0
BLOCK
  8
0
  2
*D27
 70
     1
 10
0.0
 20
0.0
 30
0.0
  3
*D27
  1

  0
TEXT
  5
217
  8
0
 62
     0
 10
-35.804116690999997
 20
200.76229040909999
 30
0.0
 40
6.5969445704999989
  1
9
 50
90.0
  0
LINE
  5
218
  8
0
 62
     0
 10
-72.983597005200011
 20
197.8816698103
 30
0.0
 11
-32.639950001999999
 21
197.8816698103
 31
0.0
  0
LINE
  5
219
  8
0
 62
     0
 10
-63.983597005199996
 20
206.8816698103
 30
0.0
 11
-32.639950001999999
 21
206.8816698103
 31
0.0
  0
LINE
  5
21A
  8
0
 62
     0
 10
-33.639950001999999
 20
197.8816698103
 30
0.0
 11
-33.639950001999999
 21
197.8816698103
 31
0.0
  0
LINE
  5
21B
  8
0
 62
     0
 10
-33.639950001999999
 20
197.8816698103
 30
0.0
 11
-33.639950001999999
 21
206.8816698103
 31
0.0
  0
LINE
  5
21C
  8
0
 62
     0
 10
-33.639950001999999
 20
206.8816698103
 30
0.0
 11
-33.639950001999999
 21
197.8816698103
 31
0.0
  0
LINE
  5
21D
  8
0
 62
     0
 10
-33.639950001999999
 20
206.8816698103
 30
0.0
 11
-33.639950001999999
 21
206.8816698103
 31
0.0
  0
LINE
  5
21E
  8
0
 62
     0
 10
-33.639950001999999
 20
206.8816698103
 30
0.0
 11
-33.639950001999999
 21
211.8816698103
 31
0.0
  0
SOLID
  5
21F
  8
0
 62
     0
 10
-33.639950001999999
 20
206.8816698103
 30
0.0
 11
-35.139950001999999
 21
212.88200121209999
 31
0.0
 12
-32.139950001999999
 22
212.88200121209999
 32
0.0
 13
-33.639950001999999
 23
211.38191836159999
 33
0.0
  0
LINE
  5
220
  8
0
 62
     0
 10
-33.639950001999999
 20
197.8816698103
 30
0.0
 11
-33.639950001999999
 21
192.8816698103
 31
0.0
  0
SOLID
  5
221
  8
0
 62
     0
 10
-33.639950001999999
 20
197.8816698103
 30
0.0
 11
-32.139950001999999
 21
191.88133840840001
 31
0.0
 12
-35.139950001999999
 22
191.88133840840001
 32
0.0
 13
-33.639950001999999
 23
193.38142125889999
 33
0.0
  0
ENDBLK
  5
222
  8
0
  0
BLOCK
  8
0
  2
*D28
 70
     1
 10
0.0
 20
0.0
 30
0.0
  3
*D28
  1

  0
TEXT
  5
29B
  8
0
 62
     0
 10
-227.66360133309999
 20
-175.78326248830001
 30
0.0
 40
6.5969445704999989
  1
7
 50
90.0
  0
LINE
  5
29C
  8
0
 62
     0
 10
-239.49943464419999
 20
-177.3429846734
 30
0.0
 11
-224.49943464419999
 21
-177.3429846734
 31
0.0
  0
LINE
  5
29D
  8
0
 62
     0
 10
-239.49943464419999
 20
-170.3429846734
 30
0.0
 11
-224.49943464419999
 21
-170.3429846734
 31
0.0
  0
LINE
  5
29E
  8
0
 62
     0
 10
-225.49943464419999
 20
-177.3429846734
 30
0.0
 11
-225.49943464419999
 21
-177.3429846734
 31
0.0
  0
LINE
  5
29F
  8
0
 62
     0
 10
-225.49943464419999
 20
-177.3429846734
 30
0.0
 11
-225.49943464419999
 21
-170.3429846734
 31
0.0
  0
LINE
  5
2A0
  8
0
 62
     0
 10
-225.49943464419999
 20
-170.3429846734
 30
0.0
 11
-225.49943464419999
 21
-177.3429846734
 31
0.0
  0
LINE
  5
2A1
  8
0
 62
     0
 10
-225.49943464419999
 20
-170.3429846734
 30
0.0
 11
-225.49943464419999
 21
-170.3429846734
 31
0.0
  0
LINE
  5
2A2
  8
0
 62
     0
 10
-225.49943464419999
 20
-170.3429846734
 30
0.0
 11
-225.49943464419999
 21
-165.3429846734
 31
0.0
  0
SOLID
  5
2A3
  8
0
 62
     0
 10
-225.49943464419999
 20
-170.3429846734
 30
0.0
 11
-226.99943464419999
 21
-164.3426532716
 31
0.0
 12
-223.99943464419999
 22
-164.3426532716
 32
0.0
 13
-225.49943464419999
 23
-165.84273612210001
 33
0.0
  0
LINE
  5
2A4
  8
0
 62
     0
 10
-225.49943464419999
 20
-177.3429846734
 30
0.0
 11
-225.49943464419999
 21
-182.3429846734
 31
0.0
  0
SOLID
  5
2A5
  8
0
 62
     0
 10
-225.49943464419999
 20
-177.3429846734
 30
0.0
 11
-223.99943464419999
 21
-183.34331607519999
 31
0.0
 12
-226.99943464419999
 22
-183.34331607519999
 32
0.0
 13
-225.49943464419999
 23
-181.8432332248
 33
0.0
  0
ENDBLK
  5
2A6
  8
0
  0
BLOCK
  8
0
  2
*D29
 70
     1
 10
0.0
 20
0.0
 30
0.0
  3
*D29
  1

  0
TEXT
  5
2AB
  8
0
 62
     0
 10
-267.69399499320002
 20
-218.9288179845
 30
0.0
 40
6.5969445704999989
  1
20.25
  0
LINE
  5
2AC
  8
0
 62
     0
 10
-269.24943464419999
 20
-204.0929846734
 30
0.0
 11
-269.24943464419999
 21
-224.0929846734
 31
0.0
  0
LINE
  5
2AD
  8
0
 62
     0
 10
-248.99943464419999
 20
-194.3429846734
 30
0.0
 11
-248.99943464419999
 21
-224.0929846734
 31
0.0
  0
LINE
  5
2AE
  8
0
 62
     0
 10
-269.24943464419999
 20
-222.0929846734
 30
0.0
 11
-269.24943464419999
 21
-222.0929846734
 31
0.0
  0
LINE
  5
2AF
  8
0
 62
     0
 10
-269.24943464419999
 20
-222.0929846734
 30
0.0
 11
-248.99943464419999
 21
-222.0929846734
 31
0.0
  0
LINE
  5
2B0
  8
0
 62
     0
 10
-248.99943464419999
 20
-222.0929846734
 30
0.0
 11
-269.24943464419999
 21
-222.0929846734
 31
0.0
  0
LINE
  5
2B1
  8
0
 62
     0
 10
-248.99943464419999
 20
-222.0929846734
 30
0.0
 11
-248.99943464419999
 21
-222.0929846734
 31
0.0
  0
LINE
  5
2B2
  8
0
 62
     0
 10
-248.99943464419999
 20
-222.0929846734
 30
0.0
 11
-258.99943464419999
 21
-222.0929846734
 31
0.0
  0
SOLID
  5
2B3
  8
0
 62
     0
 10
-248.99943464419999
 20
-222.0929846734
 30
0.0
 11
-254.99976604599999
 21
-223.5929846734
 31
0.0
 12
-254.99976604599999
 22
-220.5929846734
 32
0.0
 13
-253.49968319550001
 23
-222.0929846734
 33
0.0
  0
LINE
  5
2B4
  8
0
 62
     0
 10
-269.24943464419999
 20
-222.0929846734
 30
0.0
 11
-259.24943464419999
 21
-222.0929846734
 31
0.0
  0
SOLID
  5
2B5
  8
0
 62
     0
 10
-269.24943464419999
 20
-222.0929846734
 30
0.0
 11
-263.2491032424
 21
-220.5929846734
 31
0.0
 12
-263.2491032424
 22
-223.5929846734
 32
0.0
 13
-264.74918609280002
 23
-222.0929846734
 33
0.0
  0
ENDBLK
  5
2B6
  8
0
  0
BLOCK
  8
0
  2
*D30
 70
     1
 10
0.0
 20
0.0
 30
0.0
  3
*D30
  1

  0
TEXT
  5
2BA
  8
0
 62
     0
 10
-235.44399499319999
 20
-218.9288179845
 30
0.0
 40
6.5969445704999989
  1
44.25
  0
LINE
  5
2BB
  8
0
 62
     0
 10
-248.99943464419999
 20
-194.3429846734
 30
0.0
 11
-248.99943464419999
 21
-224.0929846734
 31
0.0
  0
LINE
  5
2BC
  8
0
 62
     0
 10
-204.74943464419999
 20
-211.0929846734
 30
0.0
 11
-204.74943464419999
 21
-224.0929846734
 31
0.0
  0
LINE
  5
2BD
  8
0
 62
     0
 10
-248.99943464419999
 20
-222.0929846734
 30
0.0
 11
-214.42431866550001
 21
-222.0929846734
 31
0.0
  0
LINE
  5
2BE
  8
0
 62
     0
 10
-248.99943464419999
 20
-222.0929846734
 30
0.0
 11
-239.32455062290001
 21
-222.0929846734
 31
0.0
  0
LINE
  5
2BF
  8
0
 62
     0
 10
-204.74943464419999
 20
-222.0929846734
 30
0.0
 11
-214.42431866550001
 21
-222.0929846734
 31
0.0
  0
LINE
  5
2C0
  8
0
 62
     0
 10
-204.74943464419999
 20
-222.0929846734
 30
0.0
 11
-239.32455062290001
 21
-222.0929846734
 31
0.0
  0
LINE
  5
2C1
  8
0
 62
     0
 10
-204.74943464419999
 20
-222.0929846734
 30
0.0
 11
-214.74943464419999
 21
-222.0929846734
 31
0.0
  0
SOLID
  5
2C2
  8
0
 62
     0
 10
-204.74943464419999
 20
-222.0929846734
 30
0.0
 11
-210.74976604599999
 21
-223.5929846734
 31
0.0
 12
-210.74976604599999
 22
-220.5929846734
 32
0.0
 13
-209.24968319550001
 23
-222.0929846734
 33
0.0
  0
LINE
  5
2C3
  8
0
 62
     0
 10
-248.99943464419999
 20
-222.0929846734
 30
0.0
 11
-238.99943464419999
 21
-222.0929846734
 31
0.0
  0
SOLID
  5
2C4
  8
0
 62
     0
 10
-248.99943464419999
 20
-222.0929846734
 30
0.0
 11
-242.9991032424
 21
-220.5929846734
 31
0.0
 12
-242.9991032424
 22
-223.5929846734
 32
0.0
 13
-244.49918609279999
 23
-222.0929846734
 33
0.0
  0
ENDBLK
  5
2C5
  8
0
  0
BLOCK
  8
0
  2
*D31
 70
     1
 10
0.0
 20
0.0
 30
0.0
  3
*D31
  1

  0
TEXT
  5
2C9
  8
0
 62
     0
 10
-191.19399499319999
 20
-218.9288179845
 30
0.0
 40
6.5969445704999989
  1
44.25
  0
LINE
  5
2CA
  8
0
 62
     0
 10
-204.74943464419999
 20
-211.0929846734
 30
0.0
 11
-204.74943464419999
 21
-224.0929846734
 31
0.0
  0
LINE
  5
2CB
  8
0
 62
     0
 10
-160.49943464419999
 20
-194.3429846734
 30
0.0
 11
-160.49943464419999
 21
-224.0929846734
 31
0.0
  0
LINE
  5
2CC
  8
0
 62
     0
 10
-204.74943464419999
 20
-222.0929846734
 30
0.0
 11
-170.17431866550001
 21
-222.0929846734
 31
0.0
  0
LINE
  5
2CD
  8
0
 62
     0
 10
-204.74943464419999
 20
-222.0929846734
 30
0.0
 11
-195.07455062290001
 21
-222.0929846734
 31
0.0
  0
LINE
  5
2CE
  8
0
 62
     0
 10
-160.49943464419999
 20
-222.0929846734
 30
0.0
 11
-170.17431866550001
 21
-222.0929846734
 31
0.0
  0
LINE
  5
2CF
  8
0
 62
     0
 10
-160.49943464419999
 20
-222.0929846734
 30
0.0
 11
-195.07455062290001
 21
-222.0929846734
 31
0.0
  0
LINE
  5
2D0
  8
0
 62
     0
 10
-160.49943464419999
 20
-222.0929846734
 30
0.0
 11
-170.49943464419999
 21
-222.0929846734
 31
0.0
  0
SOLID
  5
2D1
  8
0
 62
     0
 10
-160.49943464419999
 20
-222.0929846734
 30
0.0
 11
-166.49976604599999
 21
-223.5929846734
 31
0.0
 12
-166.49976604599999
 22
-220.5929846734
 32
0.0
 13
-164.9996831954999
 23
-222.0929846734
 33
0.0
  0
LINE
  5
2D2
  8
0
 62
     0
 10
-204.74943464419999
 20
-222.0929846734
 30
0.0
 11
-194.74943464419999
 21
-222.0929846734
 31
0.0
  0
SOLID
  5
2D3
  8
0
 62
     0
 10
-204.74943464419999
 20
-222.0929846734
 30
0.0
 11
-198.7491032424
 21
-220.5929846734
 31
0.0
 12
-198.7491032424
 22
-223.5929846734
 32
0.0
 13
-200.24918609279999
 23
-222.0929846734
 33
0.0
  0
ENDBLK
  5
2D4
  8
0
  0
BLOCK
  8
0
  2
*D32
 70
     1
 10
0.0
 20
0.0
 30
0.0
  3
*D32
  1

  0
TEXT
  5
2D8
  8
0
 62
     0
 10
-158.94399499319999
 20
-218.9288179845
 30
0.0
 40
6.5969445704999989
  1
20.25
  0
LINE
  5
2D9
  8
0
 62
     0
 10
-160.49943464419999
 20
-194.3429846734
 30
0.0
 11
-160.49943464419999
 21
-224.0929846734
 31
0.0
  0
LINE
  5
2DA
  8
0
 62
     0
 10
-140.24943464419999
 20
-204.0929846734
 30
0.0
 11
-140.24943464419999
 21
-224.0929846734
 31
0.0
  0
LINE
  5
2DB
  8
0
 62
     0
 10
-160.49943464419999
 20
-222.0929846734
 30
0.0
 11
-160.49943464419999
 21
-222.0929846734
 31
0.0
  0
LINE
  5
2DC
  8
0
 62
     0
 10
-160.49943464419999
 20
-222.0929846734
 30
0.0
 11
-140.24943464419999
 21
-222.0929846734
 31
0.0
  0
LINE
  5
2DD
  8
0
 62
     0
 10
-140.24943464419999
 20
-222.0929846734
 30
0.0
 11
-160.49943464419999
 21
-222.0929846734
 31
0.0
  0
LINE
  5
2DE
  8
0
 62
     0
 10
-140.24943464419999
 20
-222.0929846734
 30
0.0
 11
-140.24943464419999
 21
-222.0929846734
 31
0.0
  0
LINE
  5
2DF
  8
0
 62
     0
 10
-140.24943464419999
 20
-222.0929846734
 30
0.0
 11
-150.24943464419999
 21
-222.0929846734
 31
0.0
  0
SOLID
  5
2E0
  8
0
 62
     0
 10
-140.24943464419999
 20
-222.0929846734
 30
0.0
 11
-146.24976604599999
 21
-223.5929846734
 31
0.0
 12
-146.24976604599999
 22
-220.5929846734
 32
0.0
 13
-144.74968319550001
 23
-222.0929846734
 33
0.0
  0
LINE
  5
2E1
  8
0
 62
     0
 10
-160.49943464419999
 20
-222.0929846734
 30
0.0
 11
-150.49943464419999
 21
-222.0929846734
 31
0.0
  0
SOLID
  5
2E2
  8
0
 62
     0
 10
-160.49943464419999
 20
-222.0929846734
 30
0.0
 11
-154.4991032424
 21
-220.5929846734
 31
0.0
 12
-154.4991032424
 22
-223.5929846734
 32
0.0
 13
-155.99918609279999
 23
-222.0929846734
 33
0.0
  0
ENDBLK
  5
2E3
  8
0
  0
BLOCK
  8
0
  2
*D33
 70
     1
 10
0.0
 20
0.0
 30
0.0
  3
*D33
  1

  0
TEXT
  5
2E7
  8
0
 62
     0
 10
-121.2946800532
 20
-91.287545022399996
 30
0.0
 40
6.5969445704999989
  1
15.25
 50
90.0
  0
LINE
  5
2E8
  8
0
 62
     0
 10
-147.49943464419999
 20
-90.342984673399997
 30
0.0
 11
-116.1305133643
 21
-90.342984673399997
 31
0.0
  0
LINE
  5
2E9
  8
0
 62
     0
 10
-140.24943464419999
 20
-75.092984673399997
 30
0.0
 11
-116.1305133643
 21
-75.092984673399997
 31
0.0
  0
LINE
  5
2EA
  8
0
 62
     0
 10
-118.1305133643
 20
-90.342984673399997
 30
0.0
 11
-118.1305133643
 21
-90.342984673399997
 31
0.0
  0
LINE
  5
2EB
  8
0
 62
     0
 10
-118.1305133643
 20
-90.342984673399997
 30
0.0
 11
-118.1305133643
 21
-75.092984673399997
 31
0.0
  0
LINE
  5
2EC
  8
0
 62
     0
 10
-118.1305133643
 20
-75.092984673399997
 30
0.0
 11
-118.1305133643
 21
-90.342984673399997
 31
0.0
  0
LINE
  5
2ED
  8
0
 62
     0
 10
-118.1305133643
 20
-75.092984673399997
 30
0.0
 11
-118.1305133643
 21
-75.092984673399997
 31
0.0
  0
LINE
  5
2EE
  8
0
 62
     0
 10
-118.1305133643
 20
-75.092984673399997
 30
0.0
 11
-118.1305133643
 21
-85.092984673399997
 31
0.0
  0
SOLID
  5
2EF
  8
0
 62
     0
 10
-118.1305133643
 20
-75.092984673399997
 30
0.0
 11
-116.6305133643
 21
-81.093316075200008
 31
0.0
 12
-119.6305133643
 22
-81.093316075200008
 32
0.0
 13
-118.1305133643
 23
-79.593233224800002
 33
0.0
  0
LINE
  5
2F0
  8
0
 62
     0
 10
-118.1305133643
 20
-90.342984673399997
 30
0.0
 11
-118.1305133643
 21
-80.342984673399997
 31
0.0
  0
SOLID
  5
2F1
  8
0
 62
     0
 10
-118.1305133643
 20
-90.342984673399997
 30
0.0
 11
-119.6305133643
 21
-84.3426532716
 31
0.0
 12
-116.6305133643
 22
-84.3426532716
 32
0.0
 13
-118.1305133643
 23
-85.842736122100007
 33
0.0
  0
ENDBLK
  5
2F2
  8
0
  0
BLOCK
  8
0
  2
*D34
 70
     1
 10
0.0
 20
0.0
 30
0.0
  3
*D34
  1

  0
TEXT
  5
2F6
  8
0
 62
     0
 10
-121.2946800532
 20
-101.7235403032
 30
0.0
 40
6.5969445704999989
  1
15
 50
90.0
  0
LINE
  5
2F7
  8
0
 62
     0
 10
-147.49943464419999
 20
-105.3429846734
 30
0.0
 11
-116.1305133643
 21
-105.3429846734
 31
0.0
  0
LINE
  5
2F8
  8
0
 62
     0
 10
-147.49943464419999
 20
-90.342984673399997
 30
0.0
 11
-116.1305133643
 21
-90.342984673399997
 31
0.0
  0
LINE
  5
2F9
  8
0
 62
     0
 10
-118.1305133643
 20
-105.3429846734
 30
0.0
 11
-118.1305133643
 21
-105.3429846734
 31
0.0
  0
LINE
  5
2FA
  8
0
 62
     0
 10
-118.1305133643
 20
-105.3429846734
 30
0.0
 11
-118.1305133643
 21
-90.342984673399997
 31
0.0
  0
LINE
  5
2FB
  8
0
 62
     0
 10
-118.1305133643
 20
-90.342984673399997
 30
0.0
 11
-118.1305133643
 21
-105.3429846734
 31
0.0
  0
LINE
  5
2FC
  8
0
 62
     0
 10
-118.1305133643
 20
-90.342984673399997
 30
0.0
 11
-118.1305133643
 21
-90.342984673399997
 31
0.0
  0
LINE
  5
2FD
  8
0
 62
     0
 10
-118.1305133643
 20
-90.342984673399997
 30
0.0
 11
-118.1305133643
 21
-100.3429846734
 31
0.0
  0
SOLID
  5
2FE
  8
0
 62
     0
 10
-118.1305133643
 20
-90.342984673399997
 30
0.0
 11
-116.6305133643
 21
-96.343316075200008
 31
0.0
 12
-119.6305133643
 22
-96.343316075200008
 32
0.0
 13
-118.1305133643
 23
-94.843233224799988
 33
0.0
  0
LINE
  5
2FF
  8
0
 62
     0
 10
-118.1305133643
 20
-105.3429846734
 30
0.0
 11
-118.1305133643
 21
-95.342984673399997
 31
0.0
  0
SOLID
  5
300
  8
0
 62
     0
 10
-118.1305133643
 20
-105.3429846734
 30
0.0
 11
-119.6305133643
 21
-99.3426532716
 31
0.0
 12
-116.6305133643
 22
-99.3426532716
 32
0.0
 13
-118.1305133643
 23
-100.84273612210001
 33
0.0
  0
ENDBLK
  5
301
  8
0
  0
BLOCK
  8
0
  2
*D35
 70
     1
 10
0.0
 20
0.0
 30
0.0
  3
*D35
  1

  0
TEXT
  5
305
  8
0
 62
     0
 10
-121.2946800532
 20
-123.53712347290001
 30
0.0
 40
6.5969445704999989
  1
19.25
 50
90.0
  0
LINE
  5
306
  8
0
 62
     0
 10
-191.32558047750001
 20
-124.5921415745
 30
0.0
 11
-116.1305133643
 21
-124.5921415745
 31
0.0
  0
LINE
  5
307
  8
0
 62
     0
 10
-147.49943464419999
 20
-105.3429846734
 30
0.0
 11
-116.1305133643
 21
-105.3429846734
 31
0.0
  0
LINE
  5
308
  8
0
 62
     0
 10
-118.1305133643
 20
-124.5921415745
 30
0.0
 11
-118.1305133643
 21
-124.5921415745
 31
0.0
  0
LINE
  5
309
  8
0
 62
     0
 10
-118.1305133643
 20
-124.5921415745
 30
0.0
 11
-118.1305133643
 21
-105.3429846734
 31
0.0
  0
LINE
  5
30A
  8
0
 62
     0
 10
-118.1305133643
 20
-105.3429846734
 30
0.0
 11
-118.1305133643
 21
-124.5921415745
 31
0.0
  0
LINE
  5
30B
  8
0
 62
     0
 10
-118.1305133643
 20
-105.3429846734
 30
0.0
 11
-118.1305133643
 21
-105.3429846734
 31
0.0
  0
LINE
  5
30C
  8
0
 62
     0
 10
-118.1305133643
 20
-105.3429846734
 30
0.0
 11
-118.1305133643
 21
-115.3429846734
 31
0.0
  0
SOLID
  5
30D
  8
0
 62
     0
 10
-118.1305133643
 20
-105.3429846734
 30
0.0
 11
-116.6305133643
 21
-111.34331607519999
 31
0.0
 12
-119.6305133643
 22
-111.34331607519999
 32
0.0
 13
-118.1305133643
 23
-109.8432332248
 33
0.0
  0
LINE
  5
30E
  8
0
 62
     0
 10
-118.1305133643
 20
-124.5921415745
 30
0.0
 11
-118.1305133643
 21
-114.5921415745
 31
0.0
  0
SOLID
  5
30F
  8
0
 62
     0
 10
-118.1305133643
 20
-124.5921415745
 30
0.0
 11
-119.6305133643
 21
-118.59181017260001
 31
0.0
 12
-116.6305133643
 22
-118.59181017260001
 32
0.0
 13
-118.1305133643
 23
-120.0918930231
 33
0.0
  0
ENDBLK
  5
310
  8
0
  0
BLOCK
  8
0
  2
*D36
 70
     1
 10
0.0
 20
0.0
 30
0.0
  3
*D36
  1

  0
TEXT
  5
314
  8
0
 62
     0
 10
-121.2946800532
 20
-135.97311875369999
 30
0.0
 40
6.5969445704999989
  1
15
 50
90.0
  0
LINE
  5
315
  8
0
 62
     0
 10
-133.24943464419999
 20
-139.5929846734
 30
0.0
 11
-116.1305133643
 21
-139.5929846734
 31
0.0
  0
LINE
  5
316
  8
0
 62
     0
 10
-191.32558047750001
 20
-124.5921415745
 30
0.0
 11
-116.1305133643
 21
-124.5921415745
 31
0.0
  0
LINE
  5
317
  8
0
 62
     0
 10
-118.1305133643
 20
-139.5929846734
 30
0.0
 11
-118.1305133643
 21
-139.5929846734
 31
0.0
  0
LINE
  5
318
  8
0
 62
     0
 10
-118.1305133643
 20
-139.5929846734
 30
0.0
 11
-118.1305133643
 21
-124.5921415745
 31
0.0
  0
LINE
  5
319
  8
0
 62
     0
 10
-118.1305133643
 20
-124.5921415745
 30
0.0
 11
-118.1305133643
 21
-139.5929846734
 31
0.0
  0
LINE
  5
31A
  8
0
 62
     0
 10
-118.1305133643
 20
-124.5921415745
 30
0.0
 11
-118.1305133643
 21
-124.5921415745
 31
0.0
  0
LINE
  5
31B
  8
0
 62
     0
 10
-118.1305133643
 20
-124.5921415745
 30
0.0
 11
-118.1305133643
 21
-134.5921415745
 31
0.0
  0
SOLID
  5
31C
  8
0
 62
     0
 10
-118.1305133643
 20
-124.5921415745
 30
0.0
 11
-116.6305133643
 21
-130.5924729763
 31
0.0
 12
-119.6305133643
 22
-130.5924729763
 32
0.0
 13
-118.1305133643
 23
-129.09239012579999
 33
0.0
  0
LINE
  5
31D
  8
0
 62
     0
 10
-118.1305133643
 20
-139.5929846734
 30
0.0
 11
-118.1305133643
 21
-129.5929846734
 31
0.0
  0
SOLID
  5
31E
  8
0
 62
     0
 10
-118.1305133643
 20
-139.5929846734
 30
0.0
 11
-119.6305133643
 21
-133.5926532716
 31
0.0
 12
-116.6305133643
 22
-133.5926532716
 32
0.0
 13
-118.1305133643
 23
-135.09273612209989
 33
0.0
  0
ENDBLK
  5
31F
  8
0
  0
BLOCK
  8
0
  2
*D37
 70
     1
 10
0.0
 20
0.0
 30
0.0
  3
*D37
  1

  0
TEXT
  5
323
  8
0
 62
     0
 10
-121.2946800532
 20
-150.97311875369999
 30
0.0
 40
6.5969445704999989
  1
15
 50
90.0
  0
LINE
  5
324
  8
0
 62
     0
 10
-191.32558047750001
 20
-154.5921415745
 30
0.0
 11
-116.1305133643
 21
-154.5921415745
 31
0.0
  0
LINE
  5
325
  8
0
 62
     0
 10
-133.24943464419999
 20
-139.5929846734
 30
0.0
 11
-116.1305133643
 21
-139.5929846734
 31
0.0
  0
LINE
  5
326
  8
0
 62
     0
 10
-118.1305133643
 20
-154.5921415745
 30
0.0
 11
-118.1305133643
 21
-154.5921415745
 31
0.0
  0
LINE
  5
327
  8
0
 62
     0
 10
-118.1305133643
 20
-154.5921415745
 30
0.0
 11
-118.1305133643
 21
-139.5929846734
 31
0.0
  0
LINE
  5
328
  8
0
 62
     0
 10
-118.1305133643
 20
-139.5929846734
 30
0.0
 11
-118.1305133643
 21
-154.5921415745
 31
0.0
  0
LINE
  5
329
  8
0
 62
     0
 10
-118.1305133643
 20
-139.5929846734
 30
0.0
 11
-118.1305133643
 21
-139.5929846734
 31
0.0
  0
LINE
  5
32A
  8
0
 62
     0
 10
-118.1305133643
 20
-139.5929846734
 30
0.0
 11
-118.1305133643
 21
-149.5929846734
 31
0.0
  0
SOLID
  5
32B
  8
0
 62
     0
 10
-118.1305133643
 20
-139.5929846734
 30
0.0
 11
-116.6305133643
 21
-145.59331607519999
 31
0.0
 12
-119.6305133643
 22
-145.59331607519999
 32
0.0
 13
-118.1305133643
 23
-144.0932332248
 33
0.0
  0
LINE
  5
32C
  8
0
 62
     0
 10
-118.1305133643
 20
-154.5921415745
 30
0.0
 11
-118.1305133643
 21
-144.5921415745
 31
0.0
  0
SOLID
  5
32D
  8
0
 62
     0
 10
-118.1305133643
 20
-154.5921415745
 30
0.0
 11
-119.6305133643
 21
-148.59181017259999
 31
0.0
 12
-116.6305133643
 22
-148.59181017259999
 32
0.0
 13
-118.1305133643
 23
-150.0918930231
 33
0.0
  0
ENDBLK
  5
32E
  8
0
  0
BLOCK
  8
0
  2
*D38
 70
     1
 10
0.0
 20
0.0
 30
0.0
  3
*D38
  1

  0
TEXT
  5
332
  8
0
 62
     0
 10
-121.2946800532
 20
-172.78712347289999
 30
0.0
 40
6.5969445704999989
  1
19.25
 50
90.0
  0
LINE
  5
333
  8
0
 62
     0
 10
-147.49943464419999
 20
-173.8429846734
 30
0.0
 11
-116.1305133643
 21
-173.8429846734
 31
0.0
  0
LINE
  5
334
  8
0
 62
     0
 10
-191.32558047750001
 20
-154.5921415745
 30
0.0
 11
-116.1305133643
 21
-154.5921415745
 31
0.0
  0
LINE
  5
335
  8
0
 62
     0
 10
-118.1305133643
 20
-173.8429846734
 30
0.0
 11
-118.1305133643
 21
-173.8429846734
 31
0.0
  0
LINE
  5
336
  8
0
 62
     0
 10
-118.1305133643
 20
-173.8429846734
 30
0.0
 11
-118.1305133643
 21
-154.5921415745
 31
0.0
  0
LINE
  5
337
  8
0
 62
     0
 10
-118.1305133643
 20
-154.5921415745
 30
0.0
 11
-118.1305133643
 21
-173.8429846734
 31
0.0
  0
LINE
  5
338
  8
0
 62
     0
 10
-118.1305133643
 20
-154.5921415745
 30
0.0
 11
-118.1305133643
 21
-154.5921415745
 31
0.0
  0
LINE
  5
339
  8
0
 62
     0
 10
-118.1305133643
 20
-154.5921415745
 30
0.0
 11
-118.1305133643
 21
-164.5921415745
 31
0.0
  0
SOLID
  5
33A
  8
0
 62
     0
 10
-118.1305133643
 20
-154.5921415745
 30
0.0
 11
-116.6305133643
 21
-160.5924729763
 31
0.0
 12
-119.6305133643
 22
-160.5924729763
 32
0.0
 13
-118.1305133643
 23
-159.09239012579999
 33
0.0
  0
LINE
  5
33B
  8
0
 62
     0
 10
-118.1305133643
 20
-173.8429846734
 30
0.0
 11
-118.1305133643
 21
-163.8429846734
 31
0.0
  0
SOLID
  5
33C
  8
0
 62
     0
 10
-118.1305133643
 20
-173.8429846734
 30
0.0
 11
-119.6305133643
 21
-167.8426532716
 31
0.0
 12
-116.6305133643
 22
-167.8426532716
 32
0.0
 13
-118.1305133643
 23
-169.34273612210001
 33
0.0
  0
ENDBLK
  5
33D
  8
0
  0
BLOCK
  8
0
  2
*D39
 70
     1
 10
0.0
 20
0.0
 30
0.0
  3
*D39
  1

  0
TEXT
  5
341
  8
0
 62
     0
 10
-121.2946800532
 20
-185.2235403032
 30
0.0
 40
6.5969445704999989
  1
15
 50
90.0
  0
LINE
  5
342
  8
0
 62
     0
 10
-147.49943464419999
 20
-188.8429846734
 30
0.0
 11
-116.1305133643
 21
-188.8429846734
 31
0.0
  0
LINE
  5
343
  8
0
 62
     0
 10
-147.49943464419999
 20
-173.8429846734
 30
0.0
 11
-116.1305133643
 21
-173.8429846734
 31
0.0
  0
LINE
  5
344
  8
0
 62
     0
 10
-118.1305133643
 20
-188.8429846734
 30
0.0
 11
-118.1305133643
 21
-188.8429846734
 31
0.0
  0
LINE
  5
345
  8
0
 62
     0
 10
-118.1305133643
 20
-188.8429846734
 30
0.0
 11
-118.1305133643
 21
-173.8429846734
 31
0.0
  0
LINE
  5
346
  8
0
 62
     0
 10
-118.1305133643
 20
-173.8429846734
 30
0.0
 11
-118.1305133643
 21
-188.8429846734
 31
0.0
  0
LINE
  5
347
  8
0
 62
     0
 10
-118.1305133643
 20
-173.8429846734
 30
0.0
 11
-118.1305133643
 21
-173.8429846734
 31
0.0
  0
LINE
  5
348
  8
0
 62
     0
 10
-118.1305133643
 20
-173.8429846734
 30
0.0
 11
-118.1305133643
 21
-183.8429846734
 31
0.0
  0
SOLID
  5
349
  8
0
 62
     0
 10
-118.1305133643
 20
-173.8429846734
 30
0.0
 11
-116.6305133643
 21
-179.84331607519999
 31
0.0
 12
-119.6305133643
 22
-179.84331607519999
 32
0.0
 13
-118.1305133643
 23
-178.3432332248
 33
0.0
  0
LINE
  5
34A
  8
0
 62
     0
 10
-118.1305133643
 20
-188.8429846734
 30
0.0
 11
-118.1305133643
 21
-178.8429846734
 31
0.0
  0
SOLID
  5
34B
  8
0
 62
     0
 10
-118.1305133643
 20
-188.8429846734
 30
0.0
 11
-119.6305133643
 21
-182.8426532716
 31
0.0
 12
-116.6305133643
 22
-182.8426532716
 32
0.0
 13
-118.1305133643
 23
-184.34273612210001
 33
0.0
  0
ENDBLK
  5
34C
  8
0
  0
BLOCK
  8
0
  2
*D40
 70
     1
 10
0.0
 20
0.0
 30
0.0
  3
*D40
  1

  0
TEXT
  5
350
  8
0
 62
     0
 10
-121.2946800532
 20
-205.0375450224
 30
0.0
 40
6.5969445704999989
  1
15.25
 50
90.0
  0
LINE
  5
351
  8
0
 62
     0
 10
-140.24943464419999
 20
-204.0929846734
 30
0.0
 11
-116.1305133643
 21
-204.0929846734
 31
0.0
  0
LINE
  5
352
  8
0
 62
     0
 10
-147.49943464419999
 20
-188.8429846734
 30
0.0
 11
-116.1305133643
 21
-188.8429846734
 31
0.0
  0
LINE
  5
353
  8
0
 62
     0
 10
-118.1305133643
 20
-204.0929846734
 30
0.0
 11
-118.1305133643
 21
-204.0929846734
 31
0.0
  0
LINE
  5
354
  8
0
 62
     0
 10
-118.1305133643
 20
-204.0929846734
 30
0.0
 11
-118.1305133643
 21
-188.8429846734
 31
0.0
  0
LINE
  5
355
  8
0
 62
     0
 10
-118.1305133643
 20
-188.8429846734
 30
0.0
 11
-118.1305133643
 21
-204.0929846734
 31
0.0
  0
LINE
  5
356
  8
0
 62
     0
 10
-118.1305133643
 20
-188.8429846734
 30
0.0
 11
-118.1305133643
 21
-188.8429846734
 31
0.0
  0
LINE
  5
357
  8
0
 62
     0
 10
-118.1305133643
 20
-188.8429846734
 30
0.0
 11
-118.1305133643
 21
-198.8429846734
 31
0.0
  0
SOLID
  5
358
  8
0
 62
     0
 10
-118.1305133643
 20
-188.8429846734
 30
0.0
 11
-116.6305133643
 21
-194.84331607519999
 31
0.0
 12
-119.6305133643
 22
-194.84331607519999
 32
0.0
 13
-118.1305133643
 23
-193.3432332248
 33
0.0
  0
LINE
  5
359
  8
0
 62
     0
 10
-118.1305133643
 20
-204.0929846734
 30
0.0
 11
-118.1305133643
 21
-194.0929846734
 31
0.0
  0
SOLID
  5
35A
  8
0
 62
     0
 10
-118.1305133643
 20
-204.0929846734
 30
0.0
 11
-119.6305133643
 21
-198.0926532716
 31
0.0
 12
-116.6305133643
 22
-198.0926532716
 32
0.0
 13
-118.1305133643
 23
-199.59273612209989
 33
0.0
  0
ENDBLK
  5
35B
  8
0
  0
BLOCK
  8
0
  2
*D41
 70
     1
 10
0.0
 20
0.0
 30
0.0
  3
*D41
  1

  0
TEXT
  5
35F
  8
0
 62
     0
 10
-107.2742580714
 20
-145.41381811799999
 30
0.0
 40
6.5969445704999989
  1
129
 50
90.0
  0
LINE
  5
360
  8
0
 62
     0
 10
-140.24943464419999
 20
-204.0929846734
 30
0.0
 11
-104.1100913825
 21
-204.0929846734
 31
0.0
  0
LINE
  5
361
  8
0
 62
     0
 10
-140.24943464419999
 20
-75.092984673399997
 30
0.0
 11
-104.1100913825
 21
-75.092984673399997
 31
0.0
  0
LINE
  5
362
  8
0
 62
     0
 10
-105.1100913825
 20
-204.0929846734
 30
0.0
 11
-105.1100913825
 21
-129.89159559909999
 31
0.0
  0
LINE
  5
363
  8
0
 62
     0
 10
-105.1100913825
 20
-204.0929846734
 30
0.0
 11
-105.1100913825
 21
-149.29437374770001
 31
0.0
  0
LINE
  5
364
  8
0
 62
     0
 10
-105.1100913825
 20
-75.092984673399997
 30
0.0
 11
-105.1100913825
 21
-129.89159559909999
 31
0.0
  0
LINE
  5
365
  8
0
 62
     0
 10
-105.1100913825
 20
-75.092984673399997
 30
0.0
 11
-105.1100913825
 21
-149.29437374770001
 31
0.0
  0
LINE
  5
366
  8
0
 62
     0
 10
-105.1100913825
 20
-75.092984673399997
 30
0.0
 11
-105.1100913825
 21
-80.092984673399997
 31
0.0
  0
SOLID
  5
367
  8
0
 62
     0
 10
-105.1100913825
 20
-75.092984673399997
 30
0.0
 11
-103.6100913825
 21
-81.093316075200008
 31
0.0
 12
-106.6100913825
 22
-81.093316075200008
 32
0.0
 13
-105.1100913825
 23
-79.593233224800002
 33
0.0
  0
LINE
  5
368
  8
0
 62
     0
 10
-105.1100913825
 20
-204.0929846734
 30
0.0
 11
-105.1100913825
 21
-199.0929846734
 31
0.0
  0
SOLID
  5
369
  8
0
 62
     0
 10
-105.1100913825
 20
-204.0929846734
 30
0.0
 11
-106.6100913825
 21
-198.0926532716
 31
0.0
 12
-103.6100913825
 22
-198.0926532716
 32
0.0
 13
-105.1100913825
 23
-199.59273612209989
 33
0.0
  0
ENDBLK
  5
36A
  8
0
  0
BLOCK
  8
0
  2
*D42
 70
     1
 10
0.0
 20
0.0
 30
0.0
  3
*D42
  1

  0
TEXT
  5
36E
  8
0
 62
     0
 10
-252.87999027390001
 20
-158.9389088124
 30
0.0
 40
6.5969445704999989
  1
22
  0
LINE
  5
36F
  8
0
 62
     0
 10
-237.99943464419999
 20
-171.8429846734
 30
0.0
 11
-237.99943464419999
 21
-160.10307550140001
 31
0.0
  0
LINE
  5
370
  8
0
 62
     0
 10
-259.99943464419999
 20
-171.8429846734
 30
0.0
 11
-259.99943464419999
 21
-160.10307550140001
 31
0.0
  0
LINE
  5
371
  8
0
 62
     0
 10
-237.99943464419999
 20
-161.10307550140001
 30
0.0
 11
-241.23832338470001
 21
-161.10307550140001
 31
0.0
  0
LINE
  5
372
  8
0
 62
     0
 10
-237.99943464419999
 20
-161.10307550140001
 30
0.0
 11
-256.76054590360002
 21
-161.10307550140001
 31
0.0
  0
LINE
  5
373
  8
0
 62
     0
 10
-259.99943464419999
 20
-161.10307550140001
 30
0.0
 11
-241.23832338470001
 21
-161.10307550140001
 31
0.0
  0
LINE
  5
374
  8
0
 62
     0
 10
-259.99943464419999
 20
-161.10307550140001
 30
0.0
 11
-256.76054590360002
 21
-161.10307550140001
 31
0.0
  0
LINE
  5
375
  8
0
 62
     0
 10
-259.99943464419999
 20
-161.10307550140001
 30
0.0
 11
-264.99943464419999
 21
-161.10307550140001
 31
0.0
  0
SOLID
  5
376
  8
0
 62
     0
 10
-259.99943464419999
 20
-161.10307550140001
 30
0.0
 11
-265.99976604599999
 21
-162.60307550140001
 31
0.0
 12
-265.99976604599999
 22
-159.60307550140001
 32
0.0
 13
-264.49968319549998
 23
-161.10307550140001
 33
0.0
  0
LINE
  5
377
  8
0
 62
     0
 10
-237.99943464419999
 20
-161.10307550140001
 30
0.0
 11
-232.99943464419999
 21
-161.10307550140001
 31
0.0
  0
SOLID
  5
378
  8
0
 62
     0
 10
-237.99943464419999
 20
-161.10307550140001
 30
0.0
 11
-231.9991032424
 21
-159.60307550140001
 31
0.0
 12
-231.9991032424
 22
-162.60307550140001
 32
0.0
 13
-233.49918609279999
 23
-161.10307550140001
 33
0.0
  0
ENDBLK
  5
379
  8
0
  0
BLOCK
  8
0
  2
*D43
 70
     1
 10
0.0
 20
0.0
 30
0.0
  3
*D43
  1

  0
TEXT
  5
37D
  8
0
 62
     0
 10
-69.589234042299992
 20
-54.069286581900002
 30
0.0
 40
6.5969445704999989
  1
14
  0
LINE
  5
37E
  8
0
 62
     0
 10
-58.708678412499992
 20
-73.092984673399997
 30
0.0
 11
-58.708678412499992
 21
-55.233453270799998
 31
0.0
  0
LINE
  5
37F
  8
0
 62
     0
 10
-72.708678412500007
 20
-75.092986022799991
 30
0.0
 11
-72.708678412500007
 21
-55.233453270799998
 31
0.0
  0
LINE
  5
380
  8
0
 62
     0
 10
-58.708678412499992
 20
-56.233453270799998
 30
0.0
 11
-58.708678412499992
 21
-56.233453270799998
 31
0.0
  0
LINE
  5
381
  8
0
 62
     0
 10
-58.708678412499992
 20
-56.233453270799998
 30
0.0
 11
-72.708678412500007
 21
-56.233453270799998
 31
0.0
  0
LINE
  5
382
  8
0
 62
     0
 10
-72.708678412500007
 20
-56.233453270799998
 30
0.0
 11
-58.708678412499992
 21
-56.233453270799998
 31
0.0
  0
LINE
  5
383
  8
0
 62
     0
 10
-72.708678412500007
 20
-56.233453270799998
 30
0.0
 11
-72.708678412500007
 21
-56.233453270799998
 31
0.0
  0
LINE
  5
384
  8
0
 62
     0
 10
-72.708678412500007
 20
-56.233453270799998
 30
0.0
 11
-67.708678412500007
 21
-56.233453270799998
 31
0.0
  0
SOLID
  5
385
  8
0
 62
     0
 10
-72.708678412500007
 20
-56.233453270799998
 30
0.0
 11
-66.708347010699995
 21
-54.733453270799998
 31
0.0
 12
-66.708347010699995
 22
-57.733453270799998
 32
0.0
 13
-68.208429861200003
 23
-56.233453270799998
 33
0.0
  0
LINE
  5
386
  8
0
 62
     0
 10
-58.708678412499992
 20
-56.233453270799998
 30
0.0
 11
-63.708678412499992
 21
-56.233453270799998
 31
0.0
  0
SOLID
  5
387
  8
0
 62
     0
 10
-58.708678412499992
 20
-56.233453270799998
 30
0.0
 11
-64.709009814399991
 21
-57.733453270799998
 31
0.0
 12
-64.709009814399991
 22
-54.733453270799998
 32
0.0
 13
-63.208926963899998
 23
-56.233453270799998
 33
0.0
  0
ENDBLK
  5
388
  8
0
  0
BLOCK
  8
0
  2
*D44
 70
     1
 10
0.0
 20
0.0
 30
0.0
  3
*D44
  1

  0
TEXT
  5
38C
  8
0
 62
     0
 10
-210.57026808879999
 20
-49.921650168299998
 30
0.0
 40
6.5969445704999989
  1
129
  0
LINE
  5
38D
  8
0
 62
     0
 10
-140.24943464419999
 20
-75.092984673399997
 30
0.0
 11
-140.24943464419999
 21
-51.085816857299989
 31
0.0
  0
LINE
  5
38E
  8
0
 62
     0
 10
-269.24943464419999
 20
-75.092984673399997
 30
0.0
 11
-269.24943464419999
 21
-51.085816857299989
 31
0.0
  0
LINE
  5
38F
  8
0
 62
     0
 10
-140.24943464419999
 20
-52.085816857299989
 30
0.0
 11
-195.0480455698
 21
-52.085816857299989
 31
0.0
  0
LINE
  5
390
  8
0
 62
     0
 10
-140.24943464419999
 20
-52.085816857299989
 30
0.0
 11
-214.4508237185
 21
-52.085816857299989
 31
0.0
  0
LINE
  5
391
  8
0
 62
     0
 10
-269.24943464419999
 20
-52.085816857299989
 30
0.0
 11
-195.0480455698
 21
-52.085816857299989
 31
0.0
  0
LINE
  5
392
  8
0
 62
     0
 10
-269.24943464419999
 20
-52.085816857299989
 30
0.0
 11
-214.4508237185
 21
-52.085816857299989
 31
0.0
  0
LINE
  5
393
  8
0
 62
     0
 10
-269.24943464419999
 20
-52.085816857299989
 30
0.0
 11
-264.24943464419999
 21
-52.085816857299989
 31
0.0
  0
SOLID
  5
394
  8
0
 62
     0
 10
-269.24943464419999
 20
-52.085816857299989
 30
0.0
 11
-263.2491032424
 21
-50.585816857300003
 31
0.0
 12
-263.2491032424
 22
-53.585816857299989
 32
0.0
 13
-264.74918609280002
 23
-52.085816857299989
 33
0.0
  0
LINE
  5
395
  8
0
 62
     0
 10
-140.24943464419999
 20
-52.085816857299989
 30
0.0
 11
-145.24943464419999
 21
-52.085816857299989
 31
0.0
  0
SOLID
  5
396
  8
0
 62
     0
 10
-140.24943464419999
 20
-52.085816857299989
 30
0.0
 11
-146.24976604599999
 21
-53.585816857299989
 31
0.0
 12
-146.24976604599999
 22
-50.585816857300003
 32
0.0
 13
-144.74968319550001
 23
-52.085816857299989
 33
0.0
  0
ENDBLK
  5
397
  8
0
  0
BLOCK
  8
0
  2
*D45
 70
     1
 10
0.0
 20
0.0
 30
0.0
  3
*D45
  1

  0
TEXT
  5
39B
  8
0
 62
     0
 10
-56.147318381600002
 20
-14.502206962900001
 30
0.0
 40
6.5969445704999989
  1
6
 50
90.0
  0
LINE
  5
39C
  8
0
 62
     0
 10
-64.783151692700002
 20
-15.561929148100001
 30
0.0
 11
-52.983151692700012
 21
-15.561929148100001
 31
0.0
  0
LINE
  5
39D
  8
0
 62
     0
 10
-63.983151692699998
 20
-9.5619291480999991
 30
0.0
 11
-52.983151692700012
 21
-9.5619291480999991
 31
0.0
  0
LINE
  5
39E
  8
0
 62
     0
 10
-53.983151692699998
 20
-15.561929148100001
 30
0.0
 11
-53.983151692699998
 21
-15.561929148100001
 31
0.0
  0
LINE
  5
39F
  8
0
 62
     0
 10
-53.983151692699998
 20
-15.561929148100001
 30
0.0
 11
-53.983151692699998
 21
-9.5619291480999991
 31
0.0
  0
LINE
  5
3A0
  8
0
 62
     0
 10
-53.983151692699998
 20
-9.5619291480999991
 30
0.0
 11
-53.983151692699998
 21
-15.561929148100001
 31
0.0
  0
LINE
  5
3A1
  8
0
 62
     0
 10
-53.983151692699998
 20
-9.5619291480999991
 30
0.0
 11
-53.983151692699998
 21
-9.5619291480999991
 31
0.0
  0
LINE
  5
3A2
  8
0
 62
     0
 10
-53.983151692699998
 20
-9.5619291480999991
 30
0.0
 11
-53.983151692699998
 21
-4.5619291480999991
 31
0.0
  0
SOLID
  5
3A3
  8
0
 62
     0
 10
-53.983151692699998
 20
-9.5619291480999991
 30
0.0
 11
-55.483151692700012
 21
-3.561597746199999
 31
0.0
 12
-52.483151692699998
 22
-3.561597746199999
 32
0.0
 13
-53.983151692699998
 23
-5.0616805966999996
 33
0.0
  0
LINE
  5
3A4
  8
0
 62
     0
 10
-53.983151692699998
 20
-15.561929148100001
 30
0.0
 11
-53.983151692699998
 21
-20.561929148099999
 31
0.0
  0
SOLID
  5
3A5
  8
0
 62
     0
 10
-53.983151692699998
 20
-15.561929148100001
 30
0.0
 11
-52.483151692699998
 21
-21.5622605499
 31
0.0
 12
-55.483151692700012
 22
-21.5622605499
 32
0.0
 13
-53.983151692699998
 23
-20.062177699399999
 33
0.0
  0
ENDBLK
  5
3A6
  8
0
  0
BLOCK
  8
0
  2
CLUMP5
 70
     0
 10
0.0
 20
0.0
 30
0.0
  3
CLUMP5
  1

  0
LINE
  5
415
  8
ﾚｲﾔ_1
 10
-139.98359700520001
 20
-15.5624057106
 30
0.0
 11
-213.18356392050001
 21
-15.5624057106
 31
0.0
  0
LINE
  5
416
  8
ﾚｲﾔ_1
 10
-205.7835639205
 20
8.4375942893999998
 30
0.0
 11
-205.7835639205
 21
-14.7624057106
 31
0.0
  0
ARC
  5
417
  8
ﾚｲﾔ_1
 10
-205.7835639205
 20
-14.7624057106
 30
0.0
 40
0.8
 50
270.0
 51
0.0
  0
LINE
  5
418
  8
ﾚｲﾔ_1
 10
-197.7835639205
 20
8.4375942893999998
 30
0.0
 11
-197.7835639205
 21
-14.7624057106
 31
0.0
  0
LINE
  5
419
  8
ﾚｲﾔ_1
 10
-139.98359700520001
 20
-1.3624057106
 30
0.0
 11
-197.7835639205
 21
-1.3624057106
 31
0.0
  0
ARC
  5
41A
  8
ﾚｲﾔ_1
 10
-213.18356392050001
 20
-14.7624057106
 30
0.0
 40
0.8
 50
180.0
 51
270.0
  0
LINE
  5
41B
  8
ﾚｲﾔ_1
 10
-213.98356392049999
 20
-14.7624057106
 30
0.0
 11
-213.98356392049999
 21
-9.5624057106000002
 31
0.0
  0
ARC
  5
41C
  8
ﾚｲﾔ_1
 10
-213.18356392050001
 20
13.637594289400001
 30
0.0
 40
0.8
 50
90.0
 51
180.0
  0
LINE
  5
41D
  8
ﾚｲﾔ_1
 10
-213.18356392050001
 20
-14.7624057106
 30
0.0
 11
-213.18356392050001
 21
-9.5624057106000002
 31
0.0
  0
LINE
  5
41E
  8
ﾚｲﾔ_1
 10
-213.18356392050001
 20
-9.5624057106000002
 30
0.0
 11
-213.98356392049999
 21
-9.5624057106000002
 31
0.0
  0
LINE
  5
41F
  8
ﾚｲﾔ_1
 10
-213.98356392049999
 20
8.4375942893999998
 30
0.0
 11
-213.98356392049999
 21
13.637594289400001
 31
0.0
  0
LINE
  5
420
  8
ﾚｲﾔ_1
 10
-213.98356392049999
 20
8.4375942893999998
 30
0.0
 11
-139.98359700520001
 21
8.4375942893999998
 31
0.0
  0
LINE
  5
421
  8
ﾚｲﾔ_1
 10
-196.98359700520001
 20
-9.5624057106000002
 30
0.0
 11
-139.98359700520001
 21
-9.5624057106000002
 31
0.0
  0
LINE
  5
422
  8
ﾚｲﾔ_1
 10
-196.98359700520001
 20
-9.5624057106000002
 30
0.0
 11
-196.98359700520001
 21
-15.5624057106
 31
0.0
  0
LINE
  5
423
  8
ﾚｲﾔ_1
 10
-213.18356392050001
 20
14.4375942894
 30
0.0
 11
-139.98359700520001
 21
14.4375942894
 31
0.0
  0
LINE
  5
424
  8
ﾚｲﾔ_1
 10
-196.98359700520001
 20
-14.7624057106
 30
0.0
 11
-213.18356392050001
 21
-14.7624057106
 31
0.0
  0
ENDBLK
  5
425
  8
0
  0
BLOCK
  8
0
  2
BALLON2
 70
     0
 10
0.0
 20
0.0
 30
0.0
  3
BALLON2
  1

  0
INSERT
  5
42E
  8
0
  6
CONTINUOUS
  2
*U72
 10
0.0
 20
0.0
 30
0.0
  0
CIRCLE
  5
42F
  8
ﾚｲﾔ_1
 10
-260.11692723649998
 20
38.123189499299997
 30
0.0
 40
8.0
  0
LINE
  5
430
  8
寸法線
 10
-246.7835939032
 20
38.123189499299997
 30
0.0
 11
-252.1169272365
 21
38.123189499299997
 31
0.0
  0
LINE
  5
431
  8
寸法線
 10
-205.7835639205
 20
-6.3524754671999997
 30
0.0
 11
-246.7835939032
 21
38.123189499299997
 31
0.0
  0
SOLID
  5
432
  8
寸法線
 10
-205.7835639205
 20
-6.3524754671999997
 30
0.0
 11
-212.38231963210001
 21
-1.5549320272
 31
0.0
 12
-210.1214462463
 22
-1.646864249999999
 32
0.0
 13
-210.1214462463
 23
-1.646864249999999
 33
0.0
  0
SOLID
  5
433
  8
寸法線
 10
-210.1214462463
 20
-1.646864249999999
 30
0.0
 11
-210.02951402350001
 21
0.6140091357000002
 31
0.0
 12
-205.7835639205
 22
-6.3524754671999997
 32
0.0
 13
-205.7835639205
 23
-6.3524754671999997
 33
0.0
  0
ENDBLK
  5
434
  8
0
  0
BLOCK
  8
0
  2
*D48
 70
     1
 10
0.0
 20
0.0
 30
0.0
  3
*D48
  1

  0
TEXT
  5
44E
  8
0
 62
     0
 10
-307.95739966869991
 20
-166.21773613670001
 30
0.0
 40
6.5969445704999989
  1
2-Φ15
 50
26.776143397399998
  0
LINE
  5
44F
  8
0
 62
     0
 10
-255.72853310330001
 20
-142.90496805609999
 30
0.0
 11
-306.73365055980003
 21
-168.64285613289999
 31
0.0
  0
SOLID
  5
450
  8
0
 62
     0
 10
-255.72853310330001
 20
-142.90496805609999
 30
0.0
 11
-260.40971104959999
 21
-146.94731266869999
 31
0.0
 12
-261.76122859980001
 22
-144.2689922413
 32
0.0
 13
-259.74623564439997
 23
-144.93235635529999
 33
0.0
  0
ENDBLK
  5
451
  8
0
  0
BLOCK
  8
0
  2
*D49
 70
     1
 10
0.0
 20
0.0
 30
0.0
  3
*D49
  1

  0
TEXT
  5
455
  8
0
 62
     0
 10
-16.033014187399999
 20
-54.069286581900002
 30
0.0
 40
6.5969445704999989
  1
23
  0
LINE
  5
456
  8
0
 62
     0
 10
-0.6524585577000001
 20
-73.092984673399997
 30
0.0
 11
-0.6524585577000001
 21
-55.233453270799998
 31
0.0
  0
LINE
  5
457
  8
0
 62
     0
 10
-23.652458557700001
 20
-75.092984673399997
 30
0.0
 11
-23.652458557700001
 21
-55.233453270799998
 31
0.0
  0
LINE
  5
458
  8
0
 62
     0
 10
-0.6524585577000001
 20
-56.233453270799998
 30
0.0
 11
-4.3913472982999986
 21
-56.233453270799998
 31
0.0
  0
LINE
  5
459
  8
0
 62
     0
 10
-0.6524585577000001
 20
-56.233453270799998
 30
0.0
 11
-19.913569817199999
 21
-56.233453270799998
 31
0.0
  0
LINE
  5
45A
  8
0
 62
     0
 10
-23.652458557700001
 20
-56.233453270799998
 30
0.0
 11
-4.3913472982999986
 21
-56.233453270799998
 31
0.0
  0
LINE
  5
45B
  8
0
 62
     0
 10
-23.652458557700001
 20
-56.233453270799998
 30
0.0
 11
-19.913569817199999
 21
-56.233453270799998
 31
0.0
  0
LINE
  5
45C
  8
0
 62
     0
 10
-23.652458557700001
 20
-56.233453270799998
 30
0.0
 11
-28.652458557700001
 21
-56.233453270799998
 31
0.0
  0
SOLID
  5
45D
  8
0
 62
     0
 10
-23.652458557700001
 20
-56.233453270799998
 30
0.0
 11
-29.652789959500002
 21
-57.733453270799998
 31
0.0
 12
-29.652789959500002
 22
-54.733453270799998
 32
0.0
 13
-28.1527071091
 23
-56.233453270799998
 33
0.0
  0
LINE
  5
45E
  8
0
 62
     0
 10
-0.6524585577000001
 20
-56.233453270799998
 30
0.0
 11
4.3475414422999989
 21
-56.233453270799998
 31
0.0
  0
SOLID
  5
45F
  8
0
 62
     0
 10
-0.6524585577000001
 20
-56.233453270799998
 30
0.0
 11
5.3478728441000003
 21
-54.733453270799998
 31
0.0
 12
5.3478728441000003
 22
-57.733453270799998
 32
0.0
 13
3.8477899937000002
 23
-56.233453270799998
 33
0.0
  0
ENDBLK
  5
460
  8
0
  0
BLOCK
  8
0
  2
CLUMP6
 70
     0
 10
0.0
 20
0.0
 30
0.0
  3
CLUMP6
  1

  0
LINE
  5
467
  8
図枠
 10
228.5040031369
 20
-172.99933223490001
 30
0.0
 11
228.5040031369
 21
-162.99933223490001
 31
0.0
  0
LINE
  5
468
  8
図枠
 10
110.5040031369
 20
-172.99933223490001
 30
0.0
 11
110.5040031369
 21
-162.99933223490001
 31
0.0
  0
LINE
  5
469
  8
図枠
 10
128.5040031369
 20
-172.99933223490001
 30
0.0
 11
128.5040031369
 21
-162.99933223490001
 31
0.0
  0
LINE
  5
46A
  8
図枠
 10
338.5040031369
 20
-172.99933223490001
 30
0.0
 11
338.5040031369
 21
-162.99933223490001
 31
0.0
  0
LINE
  5
46B
  8
図枠
 10
320.5040031369
 20
-172.99933223490001
 30
0.0
 11
320.5040031369
 21
-162.99933223490001
 31
0.0
  0
LINE
  5
46C
  8
図枠
 10
400.50400313689988
 20
-162.99933223490001
 30
0.0
 11
110.5040031369
 21
-162.99933223490001
 31
0.0
  0
ENDBLK
  5
46D
  8
0
  0
BLOCK
  8
0
  2
CLUMP7
 70
     0
 10
0.0
 20
0.0
 30
0.0
  3
CLUMP7
  1

  0
LINE
  5
472
  8
図枠
 10
227.14650823470001
 20
-263.84598630110003
 30
0.0
 11
229.14650823470001
 21
-260.84598630110003
 31
0.0
  0
LINE
  5
473
  8
図枠
 10
197.8252961135
 20
-260.84598630110003
 30
0.0
 11
197.8252961135
 21
-264.84598630110003
 31
0.0
  0
LINE
  5
474
  8
図枠
 10
245.27935540159999
 20
-267.84598630110003
 30
0.0
 11
251.5814735312
 21
-267.84598630110003
 31
0.0
  0
LINE
  5
475
  8
図枠
 10
211.14650823470001
 20
-274.84598630110003
 30
0.0
 11
216.14650823470001
 21
-274.84598630110003
 31
0.0
  0
LINE
  5
476
  8
図枠
 10
211.14650823470001
 20
-265.49020683610001
 30
0.0
 11
219.14650823470001
 21
-265.49020683610001
 31
0.0
  0
INSERT
  5
477
  8
0
  6
CONTINUOUS
  2
*U79
 10
0.0
 20
0.0
 30
0.0
  0
LINE
  5
478
  8
図枠
 62
     5
 10
260.5040031369
 20
251.00066776509999
 30
0.0
 11
260.5040031369
 21
281.00066776509999
 31
0.0
  0
LINE
  5
479
  8
図枠
 62
     5
 10
360.5040031369
 20
251.00066776509999
 30
0.0
 11
360.5040031369
 21
281.00066776509999
 31
0.0
  0
LINE
  5
47A
  8
図枠
 62
     5
 10
228.5040031369
 20
251.00066776509999
 30
0.0
 11
228.5040031369
 21
281.00066776509999
 31
0.0
  0
LINE
  5
47B
  8
図枠
 62
     5
 10
214.9854323648
 20
261.86225126710002
 30
0.0
 11
224.88543236480001
 21
261.86225126710002
 31
0.0
  0
LINE
  5
47C
  8
図枠
 62
     5
 10
219.93543236479999
 20
260.5359027646
 30
0.0
 11
224.88543236480001
 21
251.96225126709999
 31
0.0
  0
LINE
  5
47D
  8
図枠
 62
     5
 10
212.5040031369
 20
251.00066776509999
 30
0.0
 11
212.5040031369
 21
281.00066776509999
 31
0.0
  0
LINE
  5
47E
  8
図枠
 62
     5
 10
380.5040031369
 20
251.00066776509999
 30
0.0
 11
380.5040031369
 21
281.00066776509999
 31
0.0
  0
LINE
  5
47F
  8
図枠
 62
     5
 10
212.5040031369
 20
271.00066776509999
 30
0.0
 11
400.50400313689988
 21
271.00066776509999
 31
0.0
  0
LINE
  5
480
  8
図枠
 62
     5
 10
212.5040031369
 20
261.00066776509999
 30
0.0
 11
400.50400313689988
 21
261.00066776509999
 31
0.0
  0
LINE
  5
481
  8
図枠
 62
     5
 10
212.5040031369
 20
251.00066776509999
 30
0.0
 11
400.50400313689988
 21
251.00066776509999
 31
0.0
  0
INSERT
  5
482
  8
0
  6
CONTINUOUS
  2
*U80
 10
0.0
 20
0.0
 30
0.0
  0
LINE
  5
483
  8
図枠
 62
     5
 10
-399.4959968631
 20
-278.99933223490001
 30
0.0
 11
-399.4959968631
 21
281.00066776509999
 31
0.0
  0
LINE
  5
484
  8
図枠
 62
     5
 10
-399.4959968631
 20
-278.99933223490001
 30
0.0
 11
400.50400313689988
 21
-278.99933223490001
 31
0.0
  0
LINE
  5
485
  8
図枠
 62
     5
 10
400.50400313689988
 20
281.00066776509999
 30
0.0
 11
-399.4959968631
 21
281.00066776509999
 31
0.0
  0
LINE
  5
486
  8
図枠
 62
     5
 10
400.50400313689988
 20
-278.99933223490001
 30
0.0
 11
400.50400313689988
 21
281.00066776509999
 31
0.0
  0
LINE
  5
487
  8
図枠
 10
211.14650823470001
 20
-266.1344273711
 30
0.0
 11
211.14650823470001
 21
-265.49020683610001
 31
0.0
  0
LINE
  5
488
  8
図枠
 10
186.52308849030001
 20
-264.84598630110003
 30
0.0
 11
186.52308849030001
 21
-267.84598630110003
 31
0.0
  0
LINE
  5
489
  8
図枠
 62
     5
 10
219.93543236479999
 20
270.43590276459997
 30
0.0
 11
224.88543236480001
 21
261.86225126710002
 31
0.0
  0
LINE
  5
48A
  8
図枠
 62
     5
 10
219.93543236479999
 20
260.5359027646
 30
0.0
 11
214.9854323648
 21
251.96225126709999
 31
0.0
  0
INSERT
  5
48B
  8
0
  6
CONTINUOUS
  2
*U81
 10
0.0
 20
0.0
 30
0.0
  0
LINE
  5
48C
  8
図枠
  6
DOT
 10
-409.45599686309993
 20
-287.45933223489999
 30
0.0
 11
-409.45599686309993
 21
289.46066776510003
 31
0.0
  0
LINE
  5
48D
  8
図枠
  6
DOT
 10
410.46400313689998
 20
-287.45933223489999
 30
0.0
 11
410.46400313689998
 21
289.46066776510003
 31
0.0
  0
LINE
  5
48E
  8
図枠
  6
DOT
 10
-409.45599686309993
 20
-287.45933223489999
 30
0.0
 11
410.46400313689998
 21
-287.45933223489999
 31
0.0
  0
LINE
  5
48F
  8
図枠
 10
193.82529611349989
 20
-270.84598630110003
 30
0.0
 11
193.82529611349989
 21
-267.84598630110003
 31
0.0
  0
LINE
  5
490
  8
図枠
  6
DOT
 10
410.46400313689998
 20
289.46066776510003
 30
0.0
 11
-409.45599686309993
 21
289.46066776510003
 31
0.0
  0
LINE
  5
491
  8
図枠
 10
188.8252961135
 20
-267.84598630110003
 30
0.0
 11
188.8252961135
 21
-270.84598630110003
 31
0.0
  0
LINE
  5
492
  8
図枠
 10
202.8252961135
 20
-263.84598630110003
 30
0.0
 11
205.8252961135
 21
-260.84598630110003
 31
0.0
  0
LINE
  5
493
  8
図枠
 10
240.10414019789999
 20
-269.44598630109999
 30
0.0
 11
239.63480686459999
 21
-267.84598630110003
 31
0.0
  0
LINE
  5
494
  8
図枠
 10
193.82529611349989
 20
-264.84598630110003
 30
0.0
 11
193.82529611349989
 21
-263.84598630110003
 31
0.0
  0
LINE
  5
495
  8
図枠
 10
224.87194693879999
 20
-270.54424871909998
 30
0.0
 11
224.51574281929999
 21
-270.89300500749999
 31
0.0
  0
LINE
  5
496
  8
図枠
 10
227.14650823470001
 20
-263.84598630110003
 30
0.0
 11
229.14650823470001
 21
-260.84598630110003
 31
0.0
  0
LINE
  5
497
  8
図枠
 10
251.5814735312
 20
-269.44598630109999
 30
0.0
 11
251.5814735312
 21
-273.04598630110002
 31
0.0
  0
LINE
  5
498
  8
図枠
 10
229.14650823470001
 20
-271.84598630110003
 30
0.0
 11
229.14650823470001
 21
-274.84598630110003
 31
0.0
  0
LINE
  5
499
  8
図枠
 10
244.24340224330001
 20
-264.2459863011
 30
0.0
 11
251.5814735312
 21
-264.2459863011
 31
0.0
  0
LINE
  5
49A
  8
図枠
 10
244.24340224330001
 20
-264.2459863011
 30
0.0
 11
243.9506137429
 21
-263.22852852019997
 31
0.0
  0
LINE
  5
49B
  8
図枠
 10
229.14650823470001
 20
-260.84598630110003
 30
0.0
 11
211.14650823470001
 21
-260.84598630110003
 31
0.0
  0
INSERT
  5
49C
  8
0
  6
CONTINUOUS
  2
*U82
 10
0.0
 20
0.0
 30
0.0
  0
LINE
  5
49D
  8
図枠
 10
241.98147353120001
 20
-275.84598630110003
 30
0.0
 11
241.16014019790001
 21
-273.04598630110002
 31
0.0
  0
LINE
  5
49E
  8
図枠
 10
194.82529611349989
 20
-271.84598630110003
 30
0.0
 11
188.8252961135
 21
-271.84598630110003
 31
0.0
  0
LINE
  5
49F
  8
図枠
 10
211.14650823470001
 20
-264.44598630109999
 30
0.0
 11
221.14650823470001
 21
-264.44598630109999
 31
0.0
  0
LINE
  5
4A0
  8
図枠
 10
238.2758381603
 20
-221.5993322349
 30
0.0
 11
247.87583816029999
 21
-219.1993322349
 31
0.0
  0
CIRCLE
  5
4A1
  8
図枠
 10
227.30400313690001
 20
-223.99933223490001
 30
0.0
 40
4.7999999999999989
  0
INSERT
  5
4A2
  8
0
  6
CONTINUOUS
  2
*U83
 10
0.0
 20
0.0
 30
0.0
  0
LINE
  5
4A3
  8
図枠
 10
193.82529611349989
 20
-267.84598630110003
 30
0.0
 11
197.8252961135
 21
-267.84598630110003
 31
0.0
  0
LINE
  5
4A4
  8
図枠
 10
233.5814735312
 20
-267.84598630110003
 30
0.0
 11
239.63480686459999
 21
-267.84598630110003
 31
0.0
  0
LINE
  5
4A5
  8
図枠
 10
205.8252961135
 20
-264.84598630110003
 30
0.0
 11
202.8252961135
 21
-264.84598630110003
 31
0.0
  0
LINE
  5
4A6
  8
図枠
 10
202.8252961135
 20
-264.84598630110003
 30
0.0
 11
202.8252961135
 21
-263.84598630110003
 31
0.0
  0
LINE
  5
4A7
  8
図枠
 10
233.5814735312
 20
-264.2459863011
 30
0.0
 11
238.57880686460001
 21
-264.2459863011
 31
0.0
  0
LINE
  5
4A8
  8
図枠
 10
243.9506137429
 20
-263.22852852019997
 30
0.0
 11
245.5814735312
 21
-260.84598630110003
 31
0.0
  0
LINE
  5
4A9
  8
図枠
 10
211.14650823470001
 20
-274.84598630110003
 30
0.0
 11
211.14650823470001
 21
-271.84598630110003
 31
0.0
  0
LINE
  5
4AA
  8
図枠
 10
260.5040031369
 20
-212.99933223490001
 30
0.0
 11
260.5040031369
 21
-278.99933223490001
 31
0.0
  0
INSERT
  5
4AB
  8
0
  6
CONTINUOUS
  2
*U84
 10
0.0
 20
0.0
 30
0.0
  0
INSERT
  5
4AC
  8
0
  6
CONTINUOUS
  2
*U85
 10
0.0
 20
0.0
 30
0.0
  0
INSERT
  5
4AD
  8
0
  6
CONTINUOUS
  2
*U86
 10
0.0
 20
0.0
 30
0.0
  0
LINE
  5
4AE
  8
図枠
 62
     5
 10
214.9854323648
 20
251.96225126709999
 30
0.0
 11
224.88543236480001
 21
251.96225126709999
 31
0.0
  0
LINE
  5
4AF
  8
図枠
 10
186.52308849030001
 20
-267.84598630110003
 30
0.0
 11
188.52308849030001
 21
-267.84598630110003
 31
0.0
  0
ARC
  5
4B0
  8
図枠
 10
216.14650823470001
 20
-263.84598630110003
 30
0.0
 40
11.0
 50
322.48761197969998
 51
0.0
  0
LINE
  5
4B1
  8
図枠
 10
188.8252961135
 20
-274.84598630110003
 30
0.0
 11
196.82529611349989
 21
-274.84598630110003
 31
0.0
  0
LINE
  5
4B2
  8
図枠
 10
233.5814735312
 20
-273.04598630110002
 30
0.0
 11
241.16014019790001
 21
-273.04598630110002
 31
0.0
  0
ARC
  5
4B3
  8
図枠
 10
194.82529611349989
 20
-268.84598630110003
 30
0.0
 40
3.0
 50
270.0
 51
0.0
  0
LINE
  5
4B4
  8
図枠
 10
233.5814735312
 20
-269.44598630109999
 30
0.0
 11
233.5814735312
 21
-273.04598630110002
 31
0.0
  0
LINE
  5
4B5
  8
図枠
 10
188.8252961135
 20
-270.84598630110003
 30
0.0
 11
193.82529611349989
 21
-270.84598630110003
 31
0.0
  0
LINE
  5
4B6
  8
図枠
 10
220.219133218
 20
-267.8841281114
 30
0.0
 11
219.73794160540001
 21
-268.41560483249998
 31
0.0
  0
LINE
  5
4B7
  8
図枠
 10
247.5814735312
 20
-275.84598630110003
 30
0.0
 11
241.98147353120001
 21
-275.84598630110003
 31
0.0
  0
LINE
  5
4B8
  8
図枠
 10
197.8252961135
 20
-267.84598630110003
 30
0.0
 11
197.8252961135
 21
-268.84598630110003
 31
0.0
  0
LINE
  5
4B9
  8
図枠
 10
400.50400313689988
 20
-212.99933223490001
 30
0.0
 11
110.5040031369
 21
-212.99933223490001
 31
0.0
  0
LINE
  5
4BA
  8
図枠
 10
247.87583816029999
 20
-219.1993322349
 30
0.0
 11
247.87583816029999
 21
-228.79933223489999
 31
0.0
  0
LINE
  5
4BB
  8
図枠
 62
     5
 10
219.93543236479999
 20
270.43590276459997
 30
0.0
 11
214.9854323648
 21
261.86225126710002
 31
0.0
  0
LINE
  5
4BC
  8
図枠
 10
205.8252961135
 20
-260.84598630110003
 30
0.0
 11
197.8252961135
 21
-260.84598630110003
 31
0.0
  0
LINE
  5
4BD
  8
図枠
 10
202.8252961135
 20
-268.84598630110003
 30
0.0
 11
202.8252961135
 21
-267.84598630110003
 31
0.0
  0
LINE
  5
4BE
  8
図枠
 10
233.5814735312
 20
-264.2459863011
 30
0.0
 11
233.5814735312
 21
-267.84598630110003
 31
0.0
  0
LINE
  5
4BF
  8
図枠
 10
197.8252961135
 20
-264.84598630110003
 30
0.0
 11
193.82529611349989
 21
-264.84598630110003
 31
0.0
  0
LINE
  5
4C0
  8
図枠
 10
196.82529611349989
 20
-260.84598630110003
 30
0.0
 11
188.8252961135
 21
-260.84598630110003
 31
0.0
  0
LINE
  5
4C1
  8
図枠
 10
193.82529611349989
 20
-263.84598630110003
 30
0.0
 11
196.82529611349989
 21
-260.84598630110003
 31
0.0
  0
LINE
  5
4C2
  8
図枠
 10
188.8252961135
 20
-260.84598630110003
 30
0.0
 11
188.8252961135
 21
-264.84598630110003
 31
0.0
  0
LINE
  5
4C3
  8
図枠
 10
246.77573218590001
 20
-273.04598630110002
 30
0.0
 11
251.5814735312
 21
-273.04598630110002
 31
0.0
  0
LINE
  5
4C4
  8
図枠
 10
238.57880686460001
 20
-264.2459863011
 30
0.0
 11
237.5814735312
 21
-260.84598630110003
 31
0.0
  0
LINE
  5
4C5
  8
図枠
 10
233.5814735312
 20
-269.44598630109999
 30
0.0
 11
240.10414019789999
 21
-269.44598630109999
 31
0.0
  0
LINE
  5
4C6
  8
図枠
 10
245.73977902760001
 20
-269.44598630109999
 30
0.0
 11
245.27935540159999
 21
-267.84598630110003
 31
0.0
  0
ARC
  5
4C7
  8
図枠
 10
213.54650823470001
 20
-264.2459863011
 30
0.0
 40
7.5999999999999988
 50
270.0
 51
298.08590481520002
  0
INSERT
  5
4C8
  8
0
  6
CONTINUOUS
  2
*U87
 10
0.0
 20
0.0
 30
0.0
  0
LINE
  5
4C9
  8
図枠
 10
115.5040031369
 20
-223.99933223490001
 30
0.0
 11
155.5040031369
 21
-223.99933223490001
 31
0.0
  0
LINE
  5
4CA
  8
図枠
 10
160.5040031369
 20
-212.99933223490001
 30
0.0
 11
160.5040031369
 21
-234.99933223490001
 31
0.0
  0
LINE
  5
4CB
  8
図枠
 10
110.5040031369
 20
-234.99933223490001
 30
0.0
 11
400.50400313689988
 21
-234.99933223490001
 31
0.0
  0
LINE
  5
4CC
  8
図枠
 10
210.5040031369
 20
-212.99933223490001
 30
0.0
 11
210.5040031369
 21
-234.99933223490001
 31
0.0
  0
LINE
  5
4CD
  8
図枠
  6
BORDER
 10
227.30400313690001
 20
-216.79933223489999
 30
0.0
 11
227.30400313690001
 21
-231.1993322349
 31
0.0
  0
LINE
  5
4CE
  8
図枠
  6
BORDER
 10
227.30400313690001
 20
-216.79933223489999
 30
0.0
 11
227.30400313690001
 21
-231.1993322349
 31
0.0
  0
LINE
  5
4CF
  8
図枠
 10
251.5814735312
 20
-264.2459863011
 30
0.0
 11
251.5814735312
 21
-267.84598630110003
 31
0.0
  0
LINE
  5
4D0
  8
図枠
 10
165.5040031369
 20
-223.99933223490001
 30
0.0
 11
205.5040031369
 21
-223.99933223490001
 31
0.0
  0
INSERT
  5
4D1
  8
0
  6
CONTINUOUS
  2
*U88
 10
0.0
 20
0.0
 30
0.0
  0
CIRCLE
  5
4D2
  8
図枠
 10
227.30400313690001
 20
-223.99933223490001
 30
0.0
 40
4.7999999999999989
  0
LINE
  5
4D3
  8
図枠
 10
238.2758381603
 20
-221.5993322349
 30
0.0
 11
247.87583816029999
 21
-219.1993322349
 31
0.0
  0
INSERT
  5
4D4
  8
0
  6
CONTINUOUS
  2
*U89
 10
0.0
 20
0.0
 30
0.0
  0
CIRCLE
  5
4D5
  8
図枠
 10
227.30400313690001
 20
-223.99933223490001
 30
0.0
 40
2.399999999999999
  0
LINE
  5
4D6
  8
図枠
 10
247.5814735312
 20
-275.84598630110003
 30
0.0
 11
246.77573218590001
 21
-273.04598630110002
 31
0.0
  0
LINE
  5
4D7
  8
図枠
 10
245.73977902760001
 20
-269.44598630109999
 30
0.0
 11
251.5814735312
 21
-269.44598630109999
 31
0.0
  0
LINE
  5
4D8
  8
図枠
 10
211.14650823470001
 20
-271.84598630110003
 30
0.0
 11
213.54650823470001
 21
-271.84598630110003
 31
0.0
  0
LINE
  5
4D9
  8
図枠
 10
237.5814735312
 20
-260.84598630110003
 30
0.0
 11
245.5814735312
 21
-260.84598630110003
 31
0.0
  0
LINE
  5
4DA
  8
図枠
 10
188.8252961135
 20
-264.84598630110003
 30
0.0
 11
186.52308849030001
 21
-264.84598630110003
 31
0.0
  0
LINE
  5
4DB
  8
図枠
 10
211.14650823470001
 20
-271.84598630110003
 30
0.0
 11
211.14650823470001
 21
-274.84598630110003
 31
0.0
  0
LINE
  5
4DC
  8
図枠
 10
188.8252961135
 20
-267.84598630110003
 30
0.0
 11
188.52308849030001
 21
-267.84598630110003
 31
0.0
  0
LINE
  5
4DD
  8
図枠
 10
188.8252961135
 20
-271.84598630110003
 30
0.0
 11
188.8252961135
 21
-274.84598630110003
 31
0.0
  0
ARC
  5
4DE
  8
図枠
 10
213.54650823470001
 20
-264.2459863011
 30
0.0
 40
7.5999999999999988
 50
331.39928138329998
 51
358.49204224580001
  0
LINE
  5
4DF
  8
図枠
 10
202.8252961135
 20
-267.84598630110003
 30
0.0
 11
205.8252961135
 21
-267.84598630110003
 31
0.0
  0
ARC
  5
4E0
  8
図枠
 10
216.14650823470001
 20
-263.84598630110003
 30
0.0
 40
11.0
 50
270.0
 51
302.54495885400001
  0
LINE
  5
4E1
  8
図枠
 10
238.2758381603
 20
-226.39933223489999
 30
0.0
 11
247.87583816029999
 21
-228.79933223489999
 31
0.0
  0
LINE
  5
4E2
  8
図枠
 10
238.2758381603
 20
-221.5993322349
 30
0.0
 11
238.2758381603
 21
-226.39933223489999
 31
0.0
  0
LINE
  5
4E3
  8
図枠
 10
247.87583816029999
 20
-219.1993322349
 30
0.0
 11
247.87583816029999
 21
-228.79933223489999
 31
0.0
  0
LINE
  5
4E4
  8
図枠
 10
219.14650823470001
 20
-265.49020683610001
 30
0.0
 11
218.0151373848
 21
-266.62157768600002
 31
0.0
  0
LINE
  5
4E5
  8
図枠
  6
BORDER
 10
220.10400313689999
 20
-223.99933223490001
 30
0.0
 11
250.9040031369
 21
-223.99933223490001
 31
0.0
  0
CIRCLE
  5
4E6
  8
図枠
 10
227.30400313690001
 20
-223.99933223490001
 30
0.0
 40
2.399999999999999
  0
POLYLINE
  8
図枠
  5
61D
  66
     1
 10
0.000000
 20
0.000000
 30
0.000000
  70
     8
  0
VERTEX
  8
図枠
  5
61E
 10
224.516
 20
-270.893
 30
0.000000
  70
    32
  0
VERTEX
  8
図枠
  5
61F
 10
224.551
 20
-270.903
 30
0.000000
  70
    32
  0
VERTEX
  8
図枠
  5
620
 10
224.586
 20
-270.913
 30
0.000000
  70
    32
  0
VERTEX
  8
図枠
  5
621
 10
224.621
 20
-270.923
 30
0.000000
  70
    32
  0
VERTEX
  8
図枠
  5
622
 10
224.656
 20
-270.932
 30
0.000000
  70
    32
  0
VERTEX
  8
図枠
  5
623
 10
224.691
 20
-270.942
 30
0.000000
  70
    32
  0
VERTEX
  8
図枠
  5
624
 10
224.726
 20
-270.952
 30
0.000000
  70
    32
  0
VERTEX
  8
図枠
  5
625
 10
224.761
 20
-270.961
 30
0.000000
  70
    32
  0
VERTEX
  8
図枠
  5
626
 10
224.796
 20
-270.971
 30
0.000000
  70
    32
  0
VERTEX
  8
図枠
  5
627
 10
224.832
 20
-270.980
 30
0.000000
  70
    32
  0
VERTEX
  8
図枠
  5
628
 10
224.867
 20
-270.990
 30
0.000000
  70
    32
  0
VERTEX
  8
図枠
  5
629
 10
224.902
 20
-270.999
 30
0.000000
  70
    32
  0
VERTEX
  8
図枠
  5
62A
 10
224.938
 20
-271.008
 30
0.000000
  70
    32
  0
VERTEX
  8
図枠
  5
62B
 10
224.973
 20
-271.018
 30
0.000000
  70
    32
  0
VERTEX
  8
図枠
  5
62C
 10
225.008
 20
-271.027
 30
0.000000
  70
    32
  0
VERTEX
  8
図枠
  5
62D
 10
225.044
 20
-271.036
 30
0.000000
  70
    32
  0
VERTEX
  8
図枠
  5
62E
 10
225.079
 20
-271.045
 30
0.000000
  70
    32
  0
VERTEX
  8
図枠
  5
62F
 10
225.115
 20
-271.054
 30
0.000000
  70
    32
  0
VERTEX
  8
図枠
  5
630
 10
225.150
 20
-271.063
 30
0.000000
  70
    32
  0
VERTEX
  8
図枠
  5
631
 10
225.186
 20
-271.072
 30
0.000000
  70
    32
  0
VERTEX
  8
図枠
  5
632
 10
225.222
 20
-271.081
 30
0.000000
  70
    32
  0
VERTEX
  8
図枠
  5
633
 10
225.257
 20
-271.090
 30
0.000000
  70
    32
  0
VERTEX
  8
図枠
  5
634
 10
225.293
 20
-271.099
 30
0.000000
  70
    32
  0
VERTEX
  8
図枠
  5
635
 10
225.328
 20
-271.107
 30
0.000000
  70
    32
  0
VERTEX
  8
図枠
  5
636
 10
225.364
 20
-271.116
 30
0.000000
  70
    32
  0
VERTEX
  8
図枠
  5
637
 10
225.400
 20
-271.125
 30
0.000000
  70
    32
  0
VERTEX
  8
図枠
  5
638
 10
225.436
 20
-271.133
 30
0.000000
  70
    32
  0
VERTEX
  8
図枠
  5
639
 10
225.471
 20
-271.142
 30
0.000000
  70
    32
  0
VERTEX
  8
図枠
  5
63A
 10
225.507
 20
-271.150
 30
0.000000
  70
    32
  0
VERTEX
  8
図枠
  5
63B
 10
225.543
 20
-271.159
 30
0.000000
  70
    32
  0
VERTEX
  8
図枠
  5
63C
 10
225.579
 20
-271.167
 30
0.000000
  70
    32
  0
VERTEX
  8
図枠
  5
63D
 10
225.615
 20
-271.176
 30
0.000000
  70
    32
  0
VERTEX
  8
図枠
  5
63E
 10
225.651
 20
-271.184
 30
0.000000
  70
    32
  0
VERTEX
  8
図枠
  5
63F
 10
225.687
 20
-271.192
 30
0.000000
  70
    32
  0
VERTEX
  8
図枠
  5
640
 10
225.723
 20
-271.201
 30
0.000000
  70
    32
  0
VERTEX
  8
図枠
  5
641
 10
225.759
 20
-271.209
 30
0.000000
  70
    32
  0
VERTEX
  8
図枠
  5
642
 10
225.795
 20
-271.217
 30
0.000000
  70
    32
  0
VERTEX
  8
図枠
  5
643
 10
225.831
 20
-271.225
 30
0.000000
  70
    32
  0
VERTEX
  8
図枠
  5
644
 10
225.867
 20
-271.233
 30
0.000000
  70
    32
  0
VERTEX
  8
図枠
  5
645
 10
225.903
 20
-271.241
 30
0.000000
  70
    32
  0
VERTEX
  8
図枠
  5
646
 10
225.939
 20
-271.249
 30
0.000000
  70
    32
  0
VERTEX
  8
図枠
  5
647
 10
225.975
 20
-271.257
 30
0.000000
  70
    32
  0
VERTEX
  8
図枠
  5
648
 10
226.012
 20
-271.265
 30
0.000000
  70
    32
  0
VERTEX
  8
図枠
  5
649
 10
226.048
 20
-271.273
 30
0.000000
  70
    32
  0
VERTEX
  8
図枠
  5
64A
 10
226.084
 20
-271.281
 30
0.000000
  70
    32
  0
VERTEX
  8
図枠
  5
64B
 10
226.120
 20
-271.289
 30
0.000000
  70
    32
  0
VERTEX
  8
図枠
  5
64C
 10
226.157
 20
-271.297
 30
0.000000
  70
    32
  0
VERTEX
  8
図枠
  5
64D
 10
226.193
 20
-271.304
 30
0.000000
  70
    32
  0
VERTEX
  8
図枠
  5
64E
 10
226.229
 20
-271.312
 30
0.000000
  70
    32
  0
VERTEX
  8
図枠
  5
64F
 10
226.266
 20
-271.320
 30
0.000000
  70
    32
  0
VERTEX
  8
図枠
  5
650
 10
226.302
 20
-271.328
 30
0.000000
  70
    32
  0
VERTEX
  8
図枠
  5
651
 10
226.338
 20
-271.335
 30
0.000000
  70
    32
  0
VERTEX
  8
図枠
  5
652
 10
226.375
 20
-271.343
 30
0.000000
  70
    32
  0
VERTEX
  8
図枠
  5
653
 10
226.411
 20
-271.350
 30
0.000000
  70
    32
  0
VERTEX
  8
図枠
  5
654
 10
226.448
 20
-271.358
 30
0.000000
  70
    32
  0
VERTEX
  8
図枠
  5
655
 10
226.484
 20
-271.365
 30
0.000000
  70
    32
  0
VERTEX
  8
図枠
  5
656
 10
226.521
 20
-271.373
 30
0.000000
  70
    32
  0
VERTEX
  8
図枠
  5
657
 10
226.557
 20
-271.380
 30
0.000000
  70
    32
  0
VERTEX
  8
図枠
  5
658
 10
226.594
 20
-271.387
 30
0.000000
  70
    32
  0
VERTEX
  8
図枠
  5
659
 10
226.630
 20
-271.395
 30
0.000000
  70
    32
  0
VERTEX
  8
図枠
  5
65A
 10
226.667
 20
-271.402
 30
0.000000
  70
    32
  0
VERTEX
  8
図枠
  5
65B
 10
226.704
 20
-271.409
 30
0.000000
  70
    32
  0
VERTEX
  8
図枠
  5
65C
 10
226.740
 20
-271.417
 30
0.000000
  70
    32
  0
VERTEX
  8
図枠
  5
65D
 10
226.777
 20
-271.424
 30
0.000000
  70
    32
  0
VERTEX
  8
図枠
  5
65E
 10
226.813
 20
-271.431
 30
0.000000
  70
    32
  0
VERTEX
  8
図枠
  5
65F
 10
226.850
 20
-271.438
 30
0.000000
  70
    32
  0
VERTEX
  8
図枠
  5
660
 10
226.887
 20
-271.445
 30
0.000000
  70
    32
  0
VERTEX
  8
図枠
  5
661
 10
226.923
 20
-271.453
 30
0.000000
  70
    32
  0
VERTEX
  8
図枠
  5
662
 10
226.960
 20
-271.460
 30
0.000000
  70
    32
  0
VERTEX
  8
図枠
  5
663
 10
226.997
 20
-271.467
 30
0.000000
  70
    32
  0
VERTEX
  8
図枠
  5
664
 10
227.034
 20
-271.474
 30
0.000000
  70
    32
  0
VERTEX
  8
図枠
  5
665
 10
227.070
 20
-271.481
 30
0.000000
  70
    32
  0
VERTEX
  8
図枠
  5
666
 10
227.107
 20
-271.488
 30
0.000000
  70
    32
  0
VERTEX
  8
図枠
  5
667
 10
227.144
 20
-271.495
 30
0.000000
  70
    32
  0
VERTEX
  8
図枠
  5
668
 10
227.181
 20
-271.502
 30
0.000000
  70
    32
  0
VERTEX
  8
図枠
  5
669
 10
227.218
 20
-271.509
 30
0.000000
  70
    32
  0
VERTEX
  8
図枠
  5
66A
 10
227.255
 20
-271.515
 30
0.000000
  70
    32
  0
VERTEX
  8
図枠
  5
66B
 10
227.291
 20
-271.522
 30
0.000000
  70
    32
  0
VERTEX
  8
図枠
  5
66C
 10
227.328
 20
-271.529
 30
0.000000
  70
    32
  0
VERTEX
  8
図枠
  5
66D
 10
227.365
 20
-271.536
 30
0.000000
  70
    32
  0
VERTEX
  8
図枠
  5
66E
 10
227.402
 20
-271.543
 30
0.000000
  70
    32
  0
VERTEX
  8
図枠
  5
66F
 10
227.439
 20
-271.549
 30
0.000000
  70
    32
  0
VERTEX
  8
図枠
  5
670
 10
227.476
 20
-271.556
 30
0.000000
  70
    32
  0
VERTEX
  8
図枠
  5
671
 10
227.513
 20
-271.563
 30
0.000000
  70
    32
  0
VERTEX
  8
図枠
  5
672
 10
227.550
 20
-271.570
 30
0.000000
  70
    32
  0
VERTEX
  8
図枠
  5
673
 10
227.587
 20
-271.576
 30
0.000000
  70
    32
  0
VERTEX
  8
図枠
  5
674
 10
227.624
 20
-271.583
 30
0.000000
  70
    32
  0
VERTEX
  8
図枠
  5
675
 10
227.661
 20
-271.590
 30
0.000000
  70
    32
  0
VERTEX
  8
図枠
  5
676
 10
227.698
 20
-271.596
 30
0.000000
  70
    32
  0
VERTEX
  8
図枠
  5
677
 10
227.735
 20
-271.603
 30
0.000000
  70
    32
  0
VERTEX
  8
図枠
  5
678
 10
227.772
 20
-271.610
 30
0.000000
  70
    32
  0
VERTEX
  8
図枠
  5
679
 10
227.809
 20
-271.616
 30
0.000000
  70
    32
  0
VERTEX
  8
図枠
  5
67A
 10
227.846
 20
-271.623
 30
0.000000
  70
    32
  0
VERTEX
  8
図枠
  5
67B
 10
227.883
 20
-271.629
 30
0.000000
  70
    32
  0
VERTEX
  8
図枠
  5
67C
 10
227.920
 20
-271.636
 30
0.000000
  70
    32
  0
VERTEX
  8
図枠
  5
67D
 10
227.957
 20
-271.642
 30
0.000000
  70
    32
  0
VERTEX
  8
図枠
  5
67E
 10
227.994
 20
-271.649
 30
0.000000
  70
    32
  0
VERTEX
  8
図枠
  5
67F
 10
228.031
 20
-271.655
 30
0.000000
  70
    32
  0
VERTEX
  8
図枠
  5
680
 10
228.068
 20
-271.662
 30
0.000000
  70
    32
  0
VERTEX
  8
図枠
  5
681
 10
228.105
 20
-271.668
 30
0.000000
  70
    32
  0
VERTEX
  8
図枠
  5
682
 10
228.143
 20
-271.675
 30
0.000000
  70
    32
  0
VERTEX
  8
図枠
  5
683
 10
228.180
 20
-271.681
 30
0.000000
  70
    32
  0
VERTEX
  8
図枠
  5
684
 10
228.217
 20
-271.688
 30
0.000000
  70
    32
  0
VERTEX
  8
図枠
  5
685
 10
228.254
 20
-271.694
 30
0.000000
  70
    32
  0
VERTEX
  8
図枠
  5
686
 10
228.291
 20
-271.700
 30
0.000000
  70
    32
  0
VERTEX
  8
図枠
  5
687
 10
228.328
 20
-271.707
 30
0.000000
  70
    32
  0
VERTEX
  8
図枠
  5
688
 10
228.365
 20
-271.713
 30
0.000000
  70
    32
  0
VERTEX
  8
図枠
  5
689
 10
228.402
 20
-271.720
 30
0.000000
  70
    32
  0
VERTEX
  8
図枠
  5
68A
 10
228.440
 20
-271.726
 30
0.000000
  70
    32
  0
VERTEX
  8
図枠
  5
68B
 10
228.477
 20
-271.732
 30
0.000000
  70
    32
  0
VERTEX
  8
図枠
  5
68C
 10
228.514
 20
-271.739
 30
0.000000
  70
    32
  0
VERTEX
  8
図枠
  5
68D
 10
228.551
 20
-271.745
 30
0.000000
  70
    32
  0
VERTEX
  8
図枠
  5
68E
 10
228.588
 20
-271.751
 30
0.000000
  70
    32
  0
VERTEX
  8
図枠
  5
68F
 10
228.626
 20
-271.758
 30
0.000000
  70
    32
  0
VERTEX
  8
図枠
  5
690
 10
228.663
 20
-271.764
 30
0.000000
  70
    32
  0
VERTEX
  8
図枠
  5
691
 10
228.700
 20
-271.770
 30
0.000000
  70
    32
  0
VERTEX
  8
図枠
  5
692
 10
228.737
 20
-271.777
 30
0.000000
  70
    32
  0
VERTEX
  8
図枠
  5
693
 10
228.774
 20
-271.783
 30
0.000000
  70
    32
  0
VERTEX
  8
図枠
  5
694
 10
228.812
 20
-271.789
 30
0.000000
  70
    32
  0
VERTEX
  8
図枠
  5
695
 10
228.849
 20
-271.796
 30
0.000000
  70
    32
  0
VERTEX
  8
図枠
  5
696
 10
228.886
 20
-271.802
 30
0.000000
  70
    32
  0
VERTEX
  8
図枠
  5
697
 10
228.923
 20
-271.808
 30
0.000000
  70
    32
  0
VERTEX
  8
図枠
  5
698
 10
228.960
 20
-271.815
 30
0.000000
  70
    32
  0
VERTEX
  8
図枠
  5
699
 10
228.998
 20
-271.821
 30
0.000000
  70
    32
  0
VERTEX
  8
図枠
  5
69A
 10
229.035
 20
-271.827
 30
0.000000
  70
    32
  0
VERTEX
  8
図枠
  5
69B
 10
229.072
 20
-271.833
 30
0.000000
  70
    32
  0
VERTEX
  8
図枠
  5
69C
 10
229.109
 20
-271.840
 30
0.000000
  70
    32
  0
VERTEX
  8
図枠
  5
69D
 10
229.147
 20
-271.846
 30
0.000000
  70
    32
  0
SEQEND
  8
図枠
  5
69E
  0
POLYLINE
  8
図枠
  5
69F
  66
     1
 10
0.000000
 20
0.000000
 30
0.000000
  70
     8
  0
VERTEX
  8
図枠
  5
6A0
 10
218.015
 20
-266.622
 30
0.000000
  70
    32
  0
VERTEX
  8
図枠
  5
6A1
 10
218.028
 20
-266.636
 30
0.000000
  70
    32
  0
VERTEX
  8
図枠
  5
6A2
 10
218.042
 20
-266.651
 30
0.000000
  70
    32
  0
VERTEX
  8
図枠
  5
6A3
 10
218.055
 20
-266.666
 30
0.000000
  70
    32
  0
VERTEX
  8
図枠
  5
6A4
 10
218.068
 20
-266.680
 30
0.000000
  70
    32
  0
VERTEX
  8
図枠
  5
6A5
 10
218.081
 20
-266.695
 30
0.000000
  70
    32
  0
VERTEX
  8
図枠
  5
6A6
 10
218.094
 20
-266.710
 30
0.000000
  70
    32
  0
VERTEX
  8
図枠
  5
6A7
 10
218.108
 20
-266.725
 30
0.000000
  70
    32
  0
VERTEX
  8
図枠
  5
6A8
 10
218.121
 20
-266.739
 30
0.000000
  70
    32
  0
VERTEX
  8
図枠
  5
6A9
 10
218.134
 20
-266.754
 30
0.000000
  70
    32
  0
VERTEX
  8
図枠
  5
6AA
 10
218.147
 20
-266.769
 30
0.000000
  70
    32
  0
VERTEX
  8
図枠
  5
6AB
 10
218.160
 20
-266.783
 30
0.000000
  70
    32
  0
VERTEX
  8
図枠
  5
6AC
 10
218.174
 20
-266.798
 30
0.000000
  70
    32
  0
VERTEX
  8
図枠
  5
6AD
 10
218.187
 20
-266.813
 30
0.000000
  70
    32
  0
VERTEX
  8
図枠
  5
6AE
 10
218.200
 20
-266.828
 30
0.000000
  70
    32
  0
VERTEX
  8
図枠
  5
6AF
 10
218.213
 20
-266.842
 30
0.000000
  70
    32
  0
VERTEX
  8
図枠
  5
6B0
 10
218.226
 20
-266.857
 30
0.000000
  70
    32
  0
VERTEX
  8
図枠
  5
6B1
 10
218.240
 20
-266.872
 30
0.000000
  70
    32
  0
VERTEX
  8
図枠
  5
6B2
 10
218.253
 20
-266.886
 30
0.000000
  70
    32
  0
VERTEX
  8
図枠
  5
6B3
 10
218.266
 20
-266.901
 30
0.000000
  70
    32
  0
VERTEX
  8
図枠
  5
6B4
 10
218.279
 20
-266.916
 30
0.000000
  70
    32
  0
VERTEX
  8
図枠
  5
6B5
 10
218.293
 20
-266.930
 30
0.000000
  70
    32
  0
VERTEX
  8
図枠
  5
6B6
 10
218.306
 20
-266.945
 30
0.000000
  70
    32
  0
VERTEX
  8
図枠
  5
6B7
 10
218.319
 20
-266.960
 30
0.000000
  70
    32
  0
VERTEX
  8
図枠
  5
6B8
 10
218.332
 20
-266.974
 30
0.000000
  70
    32
  0
VERTEX
  8
図枠
  5
6B9
 10
218.345
 20
-266.989
 30
0.000000
  70
    32
  0
VERTEX
  8
図枠
  5
6BA
 10
218.359
 20
-267.004
 30
0.000000
  70
    32
  0
VERTEX
  8
図枠
  5
6BB
 10
218.372
 20
-267.018
 30
0.000000
  70
    32
  0
VERTEX
  8
図枠
  5
6BC
 10
218.385
 20
-267.033
 30
0.000000
  70
    32
  0
VERTEX
  8
図枠
  5
6BD
 10
218.398
 20
-267.047
 30
0.000000
  70
    32
  0
VERTEX
  8
図枠
  5
6BE
 10
218.412
 20
-267.062
 30
0.000000
  70
    32
  0
VERTEX
  8
図枠
  5
6BF
 10
218.425
 20
-267.077
 30
0.000000
  70
    32
  0
VERTEX
  8
図枠
  5
6C0
 10
218.438
 20
-267.091
 30
0.000000
  70
    32
  0
VERTEX
  8
図枠
  5
6C1
 10
218.452
 20
-267.106
 30
0.000000
  70
    32
  0
VERTEX
  8
図枠
  5
6C2
 10
218.465
 20
-267.121
 30
0.000000
  70
    32
  0
VERTEX
  8
図枠
  5
6C3
 10
218.478
 20
-267.135
 30
0.000000
  70
    32
  0
VERTEX
  8
図枠
  5
6C4
 10
218.491
 20
-267.150
 30
0.000000
  70
    32
  0
VERTEX
  8
図枠
  5
6C5
 10
218.505
 20
-267.164
 30
0.000000
  70
    32
  0
VERTEX
  8
図枠
  5
6C6
 10
218.518
 20
-267.179
 30
0.000000
  70
    32
  0
VERTEX
  8
図枠
  5
6C7
 10
218.531
 20
-267.193
 30
0.000000
  70
    32
  0
VERTEX
  8
図枠
  5
6C8
 10
218.545
 20
-267.208
 30
0.000000
  70
    32
  0
VERTEX
  8
図枠
  5
6C9
 10
218.558
 20
-267.222
 30
0.000000
  70
    32
  0
VERTEX
  8
図枠
  5
6CA
 10
218.571
 20
-267.237
 30
0.000000
  70
    32
  0
VERTEX
  8
図枠
  5
6CB
 10
218.584
 20
-267.251
 30
0.000000
  70
    32
  0
VERTEX
  8
図枠
  5
6CC
 10
218.598
 20
-267.266
 30
0.000000
  70
    32
  0
VERTEX
  8
図枠
  5
6CD
 10
218.611
 20
-267.280
 30
0.000000
  70
    32
  0
VERTEX
  8
図枠
  5
6CE
 10
218.624
 20
-267.295
 30
0.000000
  70
    32
  0
VERTEX
  8
図枠
  5
6CF
 10
218.638
 20
-267.309
 30
0.000000
  70
    32
  0
VERTEX
  8
図枠
  5
6D0
 10
218.651
 20
-267.324
 30
0.000000
  70
    32
  0
VERTEX
  8
図枠
  5
6D1
 10
218.665
 20
-267.338
 30
0.000000
  70
    32
  0
VERTEX
  8
図枠
  5
6D2
 10
218.678
 20
-267.353
 30
0.000000
  70
    32
  0
VERTEX
  8
図枠
  5
6D3
 10
218.691
 20
-267.367
 30
0.000000
  70
    32
  0
VERTEX
  8
図枠
  5
6D4
 10
218.705
 20
-267.382
 30
0.000000
  70
    32
  0
VERTEX
  8
図枠
  5
6D5
 10
218.718
 20
-267.396
 30
0.000000
  70
    32
  0
VERTEX
  8
図枠
  5
6D6
 10
218.731
 20
-267.411
 30
0.000000
  70
    32
  0
VERTEX
  8
図枠
  5
6D7
 10
218.745
 20
-267.425
 30
0.000000
  70
    32
  0
VERTEX
  8
図枠
  5
6D8
 10
218.758
 20
-267.439
 30
0.000000
  70
    32
  0
VERTEX
  8
図枠
  5
6D9
 10
218.772
 20
-267.454
 30
0.000000
  70
    32
  0
VERTEX
  8
図枠
  5
6DA
 10
218.785
 20
-267.468
 30
0.000000
  70
    32
  0
VERTEX
  8
図枠
  5
6DB
 10
218.799
 20
-267.482
 30
0.000000
  70
    32
  0
VERTEX
  8
図枠
  5
6DC
 10
218.812
 20
-267.497
 30
0.000000
  70
    32
  0
VERTEX
  8
図枠
  5
6DD
 10
218.825
 20
-267.511
 30
0.000000
  70
    32
  0
VERTEX
  8
図枠
  5
6DE
 10
218.839
 20
-267.525
 30
0.000000
  70
    32
  0
VERTEX
  8
図枠
  5
6DF
 10
218.852
 20
-267.540
 30
0.000000
  70
    32
  0
VERTEX
  8
図枠
  5
6E0
 10
218.866
 20
-267.554
 30
0.000000
  70
    32
  0
VERTEX
  8
図枠
  5
6E1
 10
218.879
 20
-267.568
 30
0.000000
  70
    32
  0
VERTEX
  8
図枠
  5
6E2
 10
218.893
 20
-267.582
 30
0.000000
  70
    32
  0
VERTEX
  8
図枠
  5
6E3
 10
218.906
 20
-267.597
 30
0.000000
  70
    32
  0
VERTEX
  8
図枠
  5
6E4
 10
218.920
 20
-267.611
 30
0.000000
  70
    32
  0
VERTEX
  8
図枠
  5
6E5
 10
218.933
 20
-267.625
 30
0.000000
  70
    32
  0
VERTEX
  8
図枠
  5
6E6
 10
218.947
 20
-267.639
 30
0.000000
  70
    32
  0
VERTEX
  8
図枠
  5
6E7
 10
218.960
 20
-267.653
 30
0.000000
  70
    32
  0
VERTEX
  8
図枠
  5
6E8
 10
218.974
 20
-267.668
 30
0.000000
  70
    32
  0
VERTEX
  8
図枠
  5
6E9
 10
218.987
 20
-267.682
 30
0.000000
  70
    32
  0
VERTEX
  8
図枠
  5
6EA
 10
219.001
 20
-267.696
 30
0.000000
  70
    32
  0
VERTEX
  8
図枠
  5
6EB
 10
219.015
 20
-267.710
 30
0.000000
  70
    32
  0
VERTEX
  8
図枠
  5
6EC
 10
219.028
 20
-267.724
 30
0.000000
  70
    32
  0
VERTEX
  8
図枠
  5
6ED
 10
219.042
 20
-267.738
 30
0.000000
  70
    32
  0
VERTEX
  8
図枠
  5
6EE
 10
219.055
 20
-267.752
 30
0.000000
  70
    32
  0
VERTEX
  8
図枠
  5
6EF
 10
219.069
 20
-267.766
 30
0.000000
  70
    32
  0
VERTEX
  8
図枠
  5
6F0
 10
219.083
 20
-267.780
 30
0.000000
  70
    32
  0
VERTEX
  8
図枠
  5
6F1
 10
219.096
 20
-267.794
 30
0.000000
  70
    32
  0
VERTEX
  8
図枠
  5
6F2
 10
219.110
 20
-267.808
 30
0.000000
  70
    32
  0
VERTEX
  8
図枠
  5
6F3
 10
219.124
 20
-267.822
 30
0.000000
  70
    32
  0
VERTEX
  8
図枠
  5
6F4
 10
219.137
 20
-267.836
 30
0.000000
  70
    32
  0
VERTEX
  8
図枠
  5
6F5
 10
219.151
 20
-267.850
 30
0.000000
  70
    32
  0
VERTEX
  8
図枠
  5
6F6
 10
219.165
 20
-267.864
 30
0.000000
  70
    32
  0
VERTEX
  8
図枠
  5
6F7
 10
219.178
 20
-267.878
 30
0.000000
  70
    32
  0
VERTEX
  8
図枠
  5
6F8
 10
219.192
 20
-267.892
 30
0.000000
  70
    32
  0
VERTEX
  8
図枠
  5
6F9
 10
219.206
 20
-267.906
 30
0.000000
  70
    32
  0
VERTEX
  8
図枠
  5
6FA
 10
219.220
 20
-267.919
 30
0.000000
  70
    32
  0
VERTEX
  8
図枠
  5
6FB
 10
219.233
 20
-267.933
 30
0.000000
  70
    32
  0
VERTEX
  8
図枠
  5
6FC
 10
219.247
 20
-267.947
 30
0.000000
  70
    32
  0
VERTEX
  8
図枠
  5
6FD
 10
219.261
 20
-267.961
 30
0.000000
  70
    32
  0
VERTEX
  8
図枠
  5
6FE
 10
219.275
 20
-267.975
 30
0.000000
  70
    32
  0
VERTEX
  8
図枠
  5
6FF
 10
219.289
 20
-267.988
 30
0.000000
  70
    32
  0
VERTEX
  8
図枠
  5
700
 10
219.302
 20
-268.002
 30
0.000000
  70
    32
  0
VERTEX
  8
図枠
  5
701
 10
219.316
 20
-268.016
 30
0.000000
  70
    32
  0
VERTEX
  8
図枠
  5
702
 10
219.330
 20
-268.029
 30
0.000000
  70
    32
  0
VERTEX
  8
図枠
  5
703
 10
219.344
 20
-268.043
 30
0.000000
  70
    32
  0
VERTEX
  8
図枠
  5
704
 10
219.358
 20
-268.057
 30
0.000000
  70
    32
  0
VERTEX
  8
図枠
  5
705
 10
219.372
 20
-268.070
 30
0.000000
  70
    32
  0
VERTEX
  8
図枠
  5
706
 10
219.386
 20
-268.084
 30
0.000000
  70
    32
  0
VERTEX
  8
図枠
  5
707
 10
219.399
 20
-268.097
 30
0.000000
  70
    32
  0
VERTEX
  8
図枠
  5
708
 10
219.413
 20
-268.111
 30
0.000000
  70
    32
  0
VERTEX
  8
図枠
  5
709
 10
219.427
 20
-268.124
 30
0.000000
  70
    32
  0
VERTEX
  8
図枠
  5
70A
 10
219.441
 20
-268.138
 30
0.000000
  70
    32
  0
VERTEX
  8
図枠
  5
70B
 10
219.455
 20
-268.151
 30
0.000000
  70
    32
  0
VERTEX
  8
図枠
  5
70C
 10
219.469
 20
-268.165
 30
0.000000
  70
    32
  0
VERTEX
  8
図枠
  5
70D
 10
219.483
 20
-268.178
 30
0.000000
  70
    32
  0
VERTEX
  8
図枠
  5
70E
 10
219.497
 20
-268.192
 30
0.000000
  70
    32
  0
VERTEX
  8
図枠
  5
70F
 10
219.511
 20
-268.205
 30
0.000000
  70
    32
  0
VERTEX
  8
図枠
  5
710
 10
219.525
 20
-268.218
 30
0.000000
  70
    32
  0
VERTEX
  8
図枠
  5
711
 10
219.539
 20
-268.232
 30
0.000000
  70
    32
  0
VERTEX
  8
図枠
  5
712
 10
219.553
 20
-268.245
 30
0.000000
  70
    32
  0
VERTEX
  8
図枠
  5
713
 10
219.568
 20
-268.258
 30
0.000000
  70
    32
  0
VERTEX
  8
図枠
  5
714
 10
219.582
 20
-268.272
 30
0.000000
  70
    32
  0
VERTEX
  8
図枠
  5
715
 10
219.596
 20
-268.285
 30
0.000000
  70
    32
  0
VERTEX
  8
図枠
  5
716
 10
219.610
 20
-268.298
 30
0.000000
  70
    32
  0
VERTEX
  8
図枠
  5
717
 10
219.624
 20
-268.311
 30
0.000000
  70
    32
  0
VERTEX
  8
図枠
  5
718
 10
219.638
 20
-268.324
 30
0.000000
  70
    32
  0
VERTEX
  8
図枠
  5
719
 10
219.652
 20
-268.337
 30
0.000000
  70
    32
  0
VERTEX
  8
図枠
  5
71A
 10
219.667
 20
-268.351
 30
0.000000
  70
    32
  0
VERTEX
  8
図枠
  5
71B
 10
219.681
 20
-268.364
 30
0.000000
  70
    32
  0
VERTEX
  8
図枠
  5
71C
 10
219.695
 20
-268.377
 30
0.000000
  70
    32
  0
VERTEX
  8
図枠
  5
71D
 10
219.709
 20
-268.390
 30
0.000000
  70
    32
  0
VERTEX
  8
図枠
  5
71E
 10
219.724
 20
-268.403
 30
0.000000
  70
    32
  0
VERTEX
  8
図枠
  5
71F
 10
219.738
 20
-268.416
 30
0.000000
  70
    32
  0
SEQEND
  8
図枠
  5
720
  0
POLYLINE
  8
図枠
  5
721
  66
     1
 10
0.000000
 20
0.000000
 30
0.000000
  70
     8
  0
VERTEX
  8
図枠
  5
722
 10
222.064
 20
-273.119
 30
0.000000
  70
    32
  0
VERTEX
  8
図枠
  5
723
 10
222.118
 20
-273.136
 30
0.000000
  70
    32
  0
VERTEX
  8
図枠
  5
724
 10
222.172
 20
-273.153
 30
0.000000
  70
    32
  0
VERTEX
  8
図枠
  5
725
 10
222.226
 20
-273.170
 30
0.000000
  70
    32
  0
VERTEX
  8
図枠
  5
726
 10
222.280
 20
-273.187
 30
0.000000
  70
    32
  0
VERTEX
  8
図枠
  5
727
 10
222.334
 20
-273.204
 30
0.000000
  70
    32
  0
VERTEX
  8
図枠
  5
728
 10
222.388
 20
-273.220
 30
0.000000
  70
    32
  0
VERTEX
  8
図枠
  5
729
 10
222.442
 20
-273.237
 30
0.000000
  70
    32
  0
VERTEX
  8
図枠
  5
72A
 10
222.496
 20
-273.254
 30
0.000000
  70
    32
  0
VERTEX
  8
図枠
  5
72B
 10
222.550
 20
-273.270
 30
0.000000
  70
    32
  0
VERTEX
  8
図枠
  5
72C
 10
222.604
 20
-273.287
 30
0.000000
  70
    32
  0
VERTEX
  8
図枠
  5
72D
 10
222.659
 20
-273.303
 30
0.000000
  70
    32
  0
VERTEX
  8
図枠
  5
72E
 10
222.713
 20
-273.319
 30
0.000000
  70
    32
  0
VERTEX
  8
図枠
  5
72F
 10
222.767
 20
-273.335
 30
0.000000
  70
    32
  0
VERTEX
  8
図枠
  5
730
 10
222.822
 20
-273.352
 30
0.000000
  70
    32
  0
VERTEX
  8
図枠
  5
731
 10
222.876
 20
-273.368
 30
0.000000
  70
    32
  0
VERTEX
  8
図枠
  5
732
 10
222.931
 20
-273.384
 30
0.000000
  70
    32
  0
VERTEX
  8
図枠
  5
733
 10
222.985
 20
-273.399
 30
0.000000
  70
    32
  0
VERTEX
  8
図枠
  5
734
 10
223.040
 20
-273.415
 30
0.000000
  70
    32
  0
VERTEX
  8
図枠
  5
735
 10
223.094
 20
-273.431
 30
0.000000
  70
    32
  0
VERTEX
  8
図枠
  5
736
 10
223.149
 20
-273.447
 30
0.000000
  70
    32
  0
VERTEX
  8
図枠
  5
737
 10
223.204
 20
-273.462
 30
0.000000
  70
    32
  0
VERTEX
  8
図枠
  5
738
 10
223.259
 20
-273.478
 30
0.000000
  70
    32
  0
VERTEX
  8
図枠
  5
739
 10
223.313
 20
-273.493
 30
0.000000
  70
    32
  0
VERTEX
  8
図枠
  5
73A
 10
223.368
 20
-273.509
 30
0.000000
  70
    32
  0
VERTEX
  8
図枠
  5
73B
 10
223.423
 20
-273.524
 30
0.000000
  70
    32
  0
VERTEX
  8
図枠
  5
73C
 10
223.478
 20
-273.539
 30
0.000000
  70
    32
  0
VERTEX
  8
図枠
  5
73D
 10
223.533
 20
-273.554
 30
0.000000
  70
    32
  0
VERTEX
  8
図枠
  5
73E
 10
223.588
 20
-273.570
 30
0.000000
  70
    32
  0
VERTEX
  8
図枠
  5
73F
 10
223.643
 20
-273.585
 30
0.000000
  70
    32
  0
VERTEX
  8
図枠
  5
740
 10
223.698
 20
-273.600
 30
0.000000
  70
    32
  0
VERTEX
  8
図枠
  5
741
 10
223.753
 20
-273.615
 30
0.000000
  70
    32
  0
VERTEX
  8
図枠
  5
742
 10
223.808
 20
-273.629
 30
0.000000
  70
    32
  0
VERTEX
  8
図枠
  5
743
 10
223.863
 20
-273.644
 30
0.000000
  70
    32
  0
VERTEX
  8
図枠
  5
744
 10
223.918
 20
-273.659
 30
0.000000
  70
    32
  0
VERTEX
  8
図枠
  5
745
 10
223.973
 20
-273.674
 30
0.000000
  70
    32
  0
VERTEX
  8
図枠
  5
746
 10
224.028
 20
-273.688
 30
0.000000
  70
    32
  0
VERTEX
  8
図枠
  5
747
 10
224.084
 20
-273.703
 30
0.000000
  70
    32
  0
VERTEX
  8
図枠
  5
748
 10
224.139
 20
-273.717
 30
0.000000
  70
    32
  0
VERTEX
  8
図枠
  5
749
 10
224.194
 20
-273.732
 30
0.000000
  70
    32
  0
VERTEX
  8
図枠
  5
74A
 10
224.250
 20
-273.746
 30
0.000000
  70
    32
  0
VERTEX
  8
図枠
  5
74B
 10
224.305
 20
-273.760
 30
0.000000
  70
    32
  0
VERTEX
  8
図枠
  5
74C
 10
224.361
 20
-273.775
 30
0.000000
  70
    32
  0
VERTEX
  8
図枠
  5
74D
 10
224.416
 20
-273.789
 30
0.000000
  70
    32
  0
VERTEX
  8
図枠
  5
74E
 10
224.471
 20
-273.803
 30
0.000000
  70
    32
  0
VERTEX
  8
図枠
  5
74F
 10
224.527
 20
-273.817
 30
0.000000
  70
    32
  0
VERTEX
  8
図枠
  5
750
 10
224.582
 20
-273.831
 30
0.000000
  70
    32
  0
VERTEX
  8
図枠
  5
751
 10
224.638
 20
-273.845
 30
0.000000
  70
    32
  0
VERTEX
  8
図枠
  5
752
 10
224.694
 20
-273.859
 30
0.000000
  70
    32
  0
VERTEX
  8
図枠
  5
753
 10
224.749
 20
-273.873
 30
0.000000
  70
    32
  0
VERTEX
  8
図枠
  5
754
 10
224.805
 20
-273.887
 30
0.000000
  70
    32
  0
VERTEX
  8
図枠
  5
755
 10
224.861
 20
-273.900
 30
0.000000
  70
    32
  0
VERTEX
  8
図枠
  5
756
 10
224.916
 20
-273.914
 30
0.000000
  70
    32
  0
VERTEX
  8
図枠
  5
757
 10
224.972
 20
-273.928
 30
0.000000
  70
    32
  0
VERTEX
  8
図枠
  5
758
 10
225.028
 20
-273.941
 30
0.000000
  70
    32
  0
VERTEX
  8
図枠
  5
759
 10
225.084
 20
-273.955
 30
0.000000
  70
    32
  0
VERTEX
  8
図枠
  5
75A
 10
225.139
 20
-273.968
 30
0.000000
  70
    32
  0
VERTEX
  8
図枠
  5
75B
 10
225.195
 20
-273.982
 30
0.000000
  70
    32
  0
VERTEX
  8
図枠
  5
75C
 10
225.251
 20
-273.995
 30
0.000000
  70
    32
  0
VERTEX
  8
図枠
  5
75D
 10
225.307
 20
-274.009
 30
0.000000
  70
    32
  0
VERTEX
  8
図枠
  5
75E
 10
225.363
 20
-274.022
 30
0.000000
  70
    32
  0
VERTEX
  8
図枠
  5
75F
 10
225.419
 20
-274.035
 30
0.000000
  70
    32
  0
VERTEX
  8
図枠
  5
760
 10
225.475
 20
-274.048
 30
0.000000
  70
    32
  0
VERTEX
  8
図枠
  5
761
 10
225.531
 20
-274.062
 30
0.000000
  70
    32
  0
VERTEX
  8
図枠
  5
762
 10
225.587
 20
-274.075
 30
0.000000
  70
    32
  0
VERTEX
  8
図枠
  5
763
 10
225.643
 20
-274.088
 30
0.000000
  70
    32
  0
VERTEX
  8
図枠
  5
764
 10
225.699
 20
-274.101
 30
0.000000
  70
    32
  0
VERTEX
  8
図枠
  5
765
 10
225.755
 20
-274.114
 30
0.000000
  70
    32
  0
VERTEX
  8
図枠
  5
766
 10
225.811
 20
-274.127
 30
0.000000
  70
    32
  0
VERTEX
  8
図枠
  5
767
 10
225.867
 20
-274.140
 30
0.000000
  70
    32
  0
VERTEX
  8
図枠
  5
768
 10
225.923
 20
-274.153
 30
0.000000
  70
    32
  0
VERTEX
  8
図枠
  5
769
 10
225.980
 20
-274.166
 30
0.000000
  70
    32
  0
VERTEX
  8
図枠
  5
76A
 10
226.036
 20
-274.179
 30
0.000000
  70
    32
  0
VERTEX
  8
図枠
  5
76B
 10
226.092
 20
-274.191
 30
0.000000
  70
    32
  0
VERTEX
  8
図枠
  5
76C
 10
226.148
 20
-274.204
 30
0.000000
  70
    32
  0
VERTEX
  8
図枠
  5
76D
 10
226.204
 20
-274.217
 30
0.000000
  70
    32
  0
VERTEX
  8
図枠
  5
76E
 10
226.261
 20
-274.230
 30
0.000000
  70
    32
  0
VERTEX
  8
図枠
  5
76F
 10
226.317
 20
-274.242
 30
0.000000
  70
    32
  0
VERTEX
  8
図枠
  5
770
 10
226.373
 20
-274.255
 30
0.000000
  70
    32
  0
VERTEX
  8
図枠
  5
771
 10
226.430
 20
-274.267
 30
0.000000
  70
    32
  0
VERTEX
  8
図枠
  5
772
 10
226.486
 20
-274.280
 30
0.000000
  70
    32
  0
VERTEX
  8
図枠
  5
773
 10
226.542
 20
-274.292
 30
0.000000
  70
    32
  0
VERTEX
  8
図枠
  5
774
 10
226.599
 20
-274.305
 30
0.000000
  70
    32
  0
VERTEX
  8
図枠
  5
775
 10
226.655
 20
-274.317
 30
0.000000
  70
    32
  0
VERTEX
  8
図枠
  5
776
 10
226.711
 20
-274.330
 30
0.000000
  70
    32
  0
VERTEX
  8
図枠
  5
777
 10
226.768
 20
-274.342
 30
0.000000
  70
    32
  0
VERTEX
  8
図枠
  5
778
 10
226.824
 20
-274.355
 30
0.000000
  70
    32
  0
VERTEX
  8
図枠
  5
779
 10
226.881
 20
-274.367
 30
0.000000
  70
    32
  0
VERTEX
  8
図枠
  5
77A
 10
226.937
 20
-274.379
 30
0.000000
  70
    32
  0
VERTEX
  8
図枠
  5
77B
 10
226.994
 20
-274.392
 30
0.000000
  70
    32
  0
VERTEX
  8
図枠
  5
77C
 10
227.050
 20
-274.404
 30
0.000000
  70
    32
  0
VERTEX
  8
図枠
  5
77D
 10
227.107
 20
-274.416
 30
0.000000
  70
    32
  0
VERTEX
  8
図枠
  5
77E
 10
227.163
 20
-274.428
 30
0.000000
  70
    32
  0
VERTEX
  8
図枠
  5
77F
 10
227.220
 20
-274.441
 30
0.000000
  70
    32
  0
VERTEX
  8
図枠
  5
780
 10
227.276
 20
-274.453
 30
0.000000
  70
    32
  0
VERTEX
  8
図枠
  5
781
 10
227.333
 20
-274.465
 30
0.000000
  70
    32
  0
VERTEX
  8
図枠
  5
782
 10
227.389
 20
-274.477
 30
0.000000
  70
    32
  0
VERTEX
  8
図枠
  5
783
 10
227.446
 20
-274.489
 30
0.000000
  70
    32
  0
VERTEX
  8
図枠
  5
784
 10
227.502
 20
-274.501
 30
0.000000
  70
    32
  0
VERTEX
  8
図枠
  5
785
 10
227.559
 20
-274.513
 30
0.000000
  70
    32
  0
VERTEX
  8
図枠
  5
786
 10
227.616
 20
-274.525
 30
0.000000
  70
    32
  0
VERTEX
  8
図枠
  5
787
 10
227.672
 20
-274.537
 30
0.000000
  70
    32
  0
VERTEX
  8
図枠
  5
788
 10
227.729
 20
-274.549
 30
0.000000
  70
    32
  0
VERTEX
  8
図枠
  5
789
 10
227.786
 20
-274.561
 30
0.000000
  70
    32
  0
VERTEX
  8
図枠
  5
78A
 10
227.842
 20
-274.573
 30
0.000000
  70
    32
  0
VERTEX
  8
図枠
  5
78B
 10
227.899
 20
-274.585
 30
0.000000
  70
    32
  0
VERTEX
  8
図枠
  5
78C
 10
227.955
 20
-274.597
 30
0.000000
  70
    32
  0
VERTEX
  8
図枠
  5
78D
 10
228.012
 20
-274.609
 30
0.000000
  70
    32
  0
VERTEX
  8
図枠
  5
78E
 10
228.069
 20
-274.621
 30
0.000000
  70
    32
  0
VERTEX
  8
図枠
  5
78F
 10
228.125
 20
-274.633
 30
0.000000
  70
    32
  0
VERTEX
  8
図枠
  5
790
 10
228.182
 20
-274.645
 30
0.000000
  70
    32
  0
VERTEX
  8
図枠
  5
791
 10
228.239
 20
-274.657
 30
0.000000
  70
    32
  0
VERTEX
  8
図枠
  5
792
 10
228.296
 20
-274.669
 30
0.000000
  70
    32
  0
VERTEX
  8
図枠
  5
793
 10
228.352
 20
-274.681
 30
0.000000
  70
    32
  0
VERTEX
  8
図枠
  5
794
 10
228.409
 20
-274.692
 30
0.000000
  70
    32
  0
VERTEX
  8
図枠
  5
795
 10
228.466
 20
-274.704
 30
0.000000
  70
    32
  0
VERTEX
  8
図枠
  5
796
 10
228.522
 20
-274.716
 30
0.000000
  70
    32
  0
VERTEX
  8
図枠
  5
797
 10
228.579
 20
-274.728
 30
0.000000
  70
    32
  0
VERTEX
  8
図枠
  5
798
 10
228.636
 20
-274.740
 30
0.000000
  70
    32
  0
VERTEX
  8
図枠
  5
799
 10
228.693
 20
-274.752
 30
0.000000
  70
    32
  0
VERTEX
  8
図枠
  5
79A
 10
228.749
 20
-274.763
 30
0.000000
  70
    32
  0
VERTEX
  8
図枠
  5
79B
 10
228.806
 20
-274.775
 30
0.000000
  70
    32
  0
VERTEX
  8
図枠
  5
79C
 10
228.863
 20
-274.787
 30
0.000000
  70
    32
  0
VERTEX
  8
図枠
  5
79D
 10
228.920
 20
-274.799
 30
0.000000
  70
    32
  0
VERTEX
  8
図枠
  5
79E
 10
228.976
 20
-274.811
 30
0.000000
  70
    32
  0
VERTEX
  8
図枠
  5
79F
 10
229.033
 20
-274.822
 30
0.000000
  70
    32
  0
VERTEX
  8
図枠
  5
7A0
 10
229.090
 20
-274.834
 30
0.000000
  70
    32
  0
VERTEX
  8
図枠
  5
7A1
 10
229.147
 20
-274.846
 30
0.000000
  70
    32
  0
SEQEND
  8
図枠
  5
7A2
  0
POLYLINE
  8
図枠
  5
7A3
  66
     1
 10
0.000000
 20
0.000000
 30
0.000000
  70
     8
  0
VERTEX
  8
図枠
  5
7A4
 10
211.147
 20
-266.134
 30
0.000000
  70
    32
  0
VERTEX
  8
図枠
  5
7A5
 10
211.183
 20
-266.168
 30
0.000000
  70
    32
  0
VERTEX
  8
図枠
  5
7A6
 10
211.219
 20
-266.201
 30
0.000000
  70
    32
  0
VERTEX
  8
図枠
  5
7A7
 10
211.255
 20
-266.234
 30
0.000000
  70
    32
  0
VERTEX
  8
図枠
  5
7A8
 10
211.291
 20
-266.267
 30
0.000000
  70
    32
  0
VERTEX
  8
図枠
  5
7A9
 10
211.327
 20
-266.300
 30
0.000000
  70
    32
  0
VERTEX
  8
図枠
  5
7AA
 10
211.363
 20
-266.334
 30
0.000000
  70
    32
  0
VERTEX
  8
図枠
  5
7AB
 10
211.399
 20
-266.367
 30
0.000000
  70
    32
  0
VERTEX
  8
図枠
  5
7AC
 10
211.435
 20
-266.400
 30
0.000000
  70
    32
  0
VERTEX
  8
図枠
  5
7AD
 10
211.471
 20
-266.433
 30
0.000000
  70
    32
  0
VERTEX
  8
図枠
  5
7AE
 10
211.507
 20
-266.466
 30
0.000000
  70
    32
  0
VERTEX
  8
図枠
  5
7AF
 10
211.543
 20
-266.500
 30
0.000000
  70
    32
  0
VERTEX
  8
図枠
  5
7B0
 10
211.579
 20
-266.533
 30
0.000000
  70
    32
  0
VERTEX
  8
図枠
  5
7B1
 10
211.615
 20
-266.566
 30
0.000000
  70
    32
  0
VERTEX
  8
図枠
  5
7B2
 10
211.651
 20
-266.599
 30
0.000000
  70
    32
  0
VERTEX
  8
図枠
  5
7B3
 10
211.687
 20
-266.632
 30
0.000000
  70
    32
  0
VERTEX
  8
図枠
  5
7B4
 10
211.723
 20
-266.665
 30
0.000000
  70
    32
  0
VERTEX
  8
図枠
  5
7B5
 10
211.759
 20
-266.698
 30
0.000000
  70
    32
  0
VERTEX
  8
図枠
  5
7B6
 10
211.795
 20
-266.731
 30
0.000000
  70
    32
  0
VERTEX
  8
図枠
  5
7B7
 10
211.831
 20
-266.765
 30
0.000000
  70
    32
  0
VERTEX
  8
図枠
  5
7B8
 10
211.867
 20
-266.798
 30
0.000000
  70
    32
  0
VERTEX
  8
図枠
  5
7B9
 10
211.904
 20
-266.831
 30
0.000000
  70
    32
  0
VERTEX
  8
図枠
  5
7BA
 10
211.940
 20
-266.864
 30
0.000000
  70
    32
  0
VERTEX
  8
図枠
  5
7BB
 10
211.976
 20
-266.897
 30
0.000000
  70
    32
  0
VERTEX
  8
図枠
  5
7BC
 10
212.012
 20
-266.930
 30
0.000000
  70
    32
  0
VERTEX
  8
図枠
  5
7BD
 10
212.048
 20
-266.963
 30
0.000000
  70
    32
  0
VERTEX
  8
図枠
  5
7BE
 10
212.084
 20
-266.996
 30
0.000000
  70
    32
  0
VERTEX
  8
図枠
  5
7BF
 10
212.120
 20
-267.029
 30
0.000000
  70
    32
  0
VERTEX
  8
図枠
  5
7C0
 10
212.157
 20
-267.062
 30
0.000000
  70
    32
  0
VERTEX
  8
図枠
  5
7C1
 10
212.193
 20
-267.095
 30
0.000000
  70
    32
  0
VERTEX
  8
図枠
  5
7C2
 10
212.229
 20
-267.127
 30
0.000000
  70
    32
  0
VERTEX
  8
図枠
  5
7C3
 10
212.265
 20
-267.160
 30
0.000000
  70
    32
  0
VERTEX
  8
図枠
  5
7C4
 10
212.301
 20
-267.193
 30
0.000000
  70
    32
  0
VERTEX
  8
図枠
  5
7C5
 10
212.337
 20
-267.226
 30
0.000000
  70
    32
  0
VERTEX
  8
図枠
  5
7C6
 10
212.374
 20
-267.259
 30
0.000000
  70
    32
  0
VERTEX
  8
図枠
  5
7C7
 10
212.410
 20
-267.292
 30
0.000000
  70
    32
  0
VERTEX
  8
図枠
  5
7C8
 10
212.446
 20
-267.324
 30
0.000000
  70
    32
  0
VERTEX
  8
図枠
  5
7C9
 10
212.483
 20
-267.357
 30
0.000000
  70
    32
  0
VERTEX
  8
図枠
  5
7CA
 10
212.519
 20
-267.390
 30
0.000000
  70
    32
  0
VERTEX
  8
図枠
  5
7CB
 10
212.555
 20
-267.423
 30
0.000000
  70
    32
  0
VERTEX
  8
図枠
  5
7CC
 10
212.591
 20
-267.455
 30
0.000000
  70
    32
  0
VERTEX
  8
図枠
  5
7CD
 10
212.628
 20
-267.488
 30
0.000000
  70
    32
  0
VERTEX
  8
図枠
  5
7CE
 10
212.664
 20
-267.521
 30
0.000000
  70
    32
  0
VERTEX
  8
図枠
  5
7CF
 10
212.700
 20
-267.553
 30
0.000000
  70
    32
  0
VERTEX
  8
図枠
  5
7D0
 10
212.737
 20
-267.586
 30
0.000000
  70
    32
  0
VERTEX
  8
図枠
  5
7D1
 10
212.773
 20
-267.618
 30
0.000000
  70
    32
  0
VERTEX
  8
図枠
  5
7D2
 10
212.810
 20
-267.651
 30
0.000000
  70
    32
  0
VERTEX
  8
図枠
  5
7D3
 10
212.846
 20
-267.683
 30
0.000000
  70
    32
  0
VERTEX
  8
図枠
  5
7D4
 10
212.882
 20
-267.716
 30
0.000000
  70
    32
  0
VERTEX
  8
図枠
  5
7D5
 10
212.919
 20
-267.748
 30
0.000000
  70
    32
  0
VERTEX
  8
図枠
  5
7D6
 10
212.955
 20
-267.780
 30
0.000000
  70
    32
  0
VERTEX
  8
図枠
  5
7D7
 10
212.992
 20
-267.813
 30
0.000000
  70
    32
  0
VERTEX
  8
図枠
  5
7D8
 10
213.028
 20
-267.845
 30
0.000000
  70
    32
  0
VERTEX
  8
図枠
  5
7D9
 10
213.065
 20
-267.877
 30
0.000000
  70
    32
  0
VERTEX
  8
図枠
  5
7DA
 10
213.102
 20
-267.909
 30
0.000000
  70
    32
  0
VERTEX
  8
図枠
  5
7DB
 10
213.138
 20
-267.942
 30
0.000000
  70
    32
  0
VERTEX
  8
図枠
  5
7DC
 10
213.175
 20
-267.974
 30
0.000000
  70
    32
  0
VERTEX
  8
図枠
  5
7DD
 10
213.211
 20
-268.006
 30
0.000000
  70
    32
  0
VERTEX
  8
図枠
  5
7DE
 10
213.248
 20
-268.038
 30
0.000000
  70
    32
  0
VERTEX
  8
図枠
  5
7DF
 10
213.285
 20
-268.070
 30
0.000000
  70
    32
  0
VERTEX
  8
図枠
  5
7E0
 10
213.321
 20
-268.102
 30
0.000000
  70
    32
  0
VERTEX
  8
図枠
  5
7E1
 10
213.358
 20
-268.134
 30
0.000000
  70
    32
  0
VERTEX
  8
図枠
  5
7E2
 10
213.395
 20
-268.166
 30
0.000000
  70
    32
  0
VERTEX
  8
図枠
  5
7E3
 10
213.432
 20
-268.198
 30
0.000000
  70
    32
  0
VERTEX
  8
図枠
  5
7E4
 10
213.468
 20
-268.229
 30
0.000000
  70
    32
  0
VERTEX
  8
図枠
  5
7E5
 10
213.505
 20
-268.261
 30
0.000000
  70
    32
  0
VERTEX
  8
図枠
  5
7E6
 10
213.542
 20
-268.293
 30
0.000000
  70
    32
  0
VERTEX
  8
図枠
  5
7E7
 10
213.579
 20
-268.325
 30
0.000000
  70
    32
  0
VERTEX
  8
図枠
  5
7E8
 10
213.616
 20
-268.356
 30
0.000000
  70
    32
  0
VERTEX
  8
図枠
  5
7E9
 10
213.653
 20
-268.388
 30
0.000000
  70
    32
  0
VERTEX
  8
図枠
  5
7EA
 10
213.689
 20
-268.419
 30
0.000000
  70
    32
  0
VERTEX
  8
図枠
  5
7EB
 10
213.726
 20
-268.451
 30
0.000000
  70
    32
  0
VERTEX
  8
図枠
  5
7EC
 10
213.763
 20
-268.482
 30
0.000000
  70
    32
  0
VERTEX
  8
図枠
  5
7ED
 10
213.800
 20
-268.514
 30
0.000000
  70
    32
  0
VERTEX
  8
図枠
  5
7EE
 10
213.837
 20
-268.545
 30
0.000000
  70
    32
  0
VERTEX
  8
図枠
  5
7EF
 10
213.875
 20
-268.576
 30
0.000000
  70
    32
  0
VERTEX
  8
図枠
  5
7F0
 10
213.912
 20
-268.607
 30
0.000000
  70
    32
  0
VERTEX
  8
図枠
  5
7F1
 10
213.949
 20
-268.639
 30
0.000000
  70
    32
  0
VERTEX
  8
図枠
  5
7F2
 10
213.986
 20
-268.670
 30
0.000000
  70
    32
  0
VERTEX
  8
図枠
  5
7F3
 10
214.023
 20
-268.701
 30
0.000000
  70
    32
  0
VERTEX
  8
図枠
  5
7F4
 10
214.060
 20
-268.732
 30
0.000000
  70
    32
  0
VERTEX
  8
図枠
  5
7F5
 10
214.097
 20
-268.763
 30
0.000000
  70
    32
  0
VERTEX
  8
図枠
  5
7F6
 10
214.135
 20
-268.794
 30
0.000000
  70
    32
  0
VERTEX
  8
図枠
  5
7F7
 10
214.172
 20
-268.825
 30
0.000000
  70
    32
  0
VERTEX
  8
図枠
  5
7F8
 10
214.209
 20
-268.855
 30
0.000000
  70
    32
  0
VERTEX
  8
図枠
  5
7F9
 10
214.247
 20
-268.886
 30
0.000000
  70
    32
  0
VERTEX
  8
図枠
  5
7FA
 10
214.284
 20
-268.917
 30
0.000000
  70
    32
  0
VERTEX
  8
図枠
  5
7FB
 10
214.322
 20
-268.947
 30
0.000000
  70
    32
  0
VERTEX
  8
図枠
  5
7FC
 10
214.359
 20
-268.978
 30
0.000000
  70
    32
  0
VERTEX
  8
図枠
  5
7FD
 10
214.396
 20
-269.008
 30
0.000000
  70
    32
  0
VERTEX
  8
図枠
  5
7FE
 10
214.434
 20
-269.039
 30
0.000000
  70
    32
  0
VERTEX
  8
図枠
  5
7FF
 10
214.472
 20
-269.069
 30
0.000000
  70
    32
  0
VERTEX
  8
図枠
  5
800
 10
214.509
 20
-269.100
 30
0.000000
  70
    32
  0
VERTEX
  8
図枠
  5
801
 10
214.547
 20
-269.130
 30
0.000000
  70
    32
  0
VERTEX
  8
図枠
  5
802
 10
214.584
 20
-269.160
 30
0.000000
  70
    32
  0
VERTEX
  8
図枠
  5
803
 10
214.622
 20
-269.190
 30
0.000000
  70
    32
  0
VERTEX
  8
図枠
  5
804
 10
214.660
 20
-269.220
 30
0.000000
  70
    32
  0
VERTEX
  8
図枠
  5
805
 10
214.698
 20
-269.250
 30
0.000000
  70
    32
  0
VERTEX
  8
図枠
  5
806
 10
214.735
 20
-269.280
 30
0.000000
  70
    32
  0
VERTEX
  8
図枠
  5
807
 10
214.773
 20
-269.310
 30
0.000000
  70
    32
  0
VERTEX
  8
図枠
  5
808
 10
214.811
 20
-269.340
 30
0.000000
  70
    32
  0
VERTEX
  8
図枠
  5
809
 10
214.849
 20
-269.369
 30
0.000000
  70
    32
  0
VERTEX
  8
図枠
  5
80A
 10
214.887
 20
-269.399
 30
0.000000
  70
    32
  0
VERTEX
  8
図枠
  5
80B
 10
214.925
 20
-269.429
 30
0.000000
  70
    32
  0
VERTEX
  8
図枠
  5
80C
 10
214.963
 20
-269.458
 30
0.000000
  70
    32
  0
VERTEX
  8
図枠
  5
80D
 10
215.001
 20
-269.488
 30
0.000000
  70
    32
  0
VERTEX
  8
図枠
  5
80E
 10
215.039
 20
-269.517
 30
0.000000
  70
    32
  0
VERTEX
  8
図枠
  5
80F
 10
215.077
 20
-269.546
 30
0.000000
  70
    32
  0
VERTEX
  8
図枠
  5
810
 10
215.115
 20
-269.575
 30
0.000000
  70
    32
  0
VERTEX
  8
図枠
  5
811
 10
215.154
 20
-269.605
 30
0.000000
  70
    32
  0
VERTEX
  8
図枠
  5
812
 10
215.192
 20
-269.634
 30
0.000000
  70
    32
  0
VERTEX
  8
図枠
  5
813
 10
215.230
 20
-269.663
 30
0.000000
  70
    32
  0
VERTEX
  8
図枠
  5
814
 10
215.269
 20
-269.692
 30
0.000000
  70
    32
  0
VERTEX
  8
図枠
  5
815
 10
215.307
 20
-269.720
 30
0.000000
  70
    32
  0
VERTEX
  8
図枠
  5
816
 10
215.345
 20
-269.749
 30
0.000000
  70
    32
  0
VERTEX
  8
図枠
  5
817
 10
215.384
 20
-269.778
 30
0.000000
  70
    32
  0
VERTEX
  8
図枠
  5
818
 10
215.422
 20
-269.806
 30
0.000000
  70
    32
  0
VERTEX
  8
図枠
  5
819
 10
215.461
 20
-269.835
 30
0.000000
  70
    32
  0
VERTEX
  8
図枠
  5
81A
 10
215.500
 20
-269.863
 30
0.000000
  70
    32
  0
VERTEX
  8
図枠
  5
81B
 10
215.538
 20
-269.892
 30
0.000000
  70
    32
  0
VERTEX
  8
図枠
  5
81C
 10
215.577
 20
-269.920
 30
0.000000
  70
    32
  0
VERTEX
  8
図枠
  5
81D
 10
215.616
 20
-269.948
 30
0.000000
  70
    32
  0
VERTEX
  8
図枠
  5
81E
 10
215.654
 20
-269.976
 30
0.000000
  70
    32
  0
VERTEX
  8
図枠
  5
81F
 10
215.693
 20
-270.004
 30
0.000000
  70
    32
  0
VERTEX
  8
図枠
  5
820
 10
215.732
 20
-270.032
 30
0.000000
  70
    32
  0
VERTEX
  8
図枠
  5
821
 10
215.771
 20
-270.060
 30
0.000000
  70
    32
  0
VERTEX
  8
図枠
  5
822
 10
215.810
 20
-270.088
 30
0.000000
  70
    32
  0
VERTEX
  8
図枠
  5
823
 10
215.849
 20
-270.116
 30
0.000000
  70
    32
  0
VERTEX
  8
図枠
  5
824
 10
215.888
 20
-270.143
 30
0.000000
  70
    32
  0
VERTEX
  8
図枠
  5
825
 10
215.927
 20
-270.171
 30
0.000000
  70
    32
  0
VERTEX
  8
図枠
  5
826
 10
215.966
 20
-270.198
 30
0.000000
  70
    32
  0
VERTEX
  8
図枠
  5
827
 10
216.006
 20
-270.225
 30
0.000000
  70
    32
  0
VERTEX
  8
図枠
  5
828
 10
216.045
 20
-270.253
 30
0.000000
  70
    32
  0
VERTEX
  8
図枠
  5
829
 10
216.084
 20
-270.280
 30
0.000000
  70
    32
  0
VERTEX
  8
図枠
  5
82A
 10
216.123
 20
-270.307
 30
0.000000
  70
    32
  0
VERTEX
  8
図枠
  5
82B
 10
216.163
 20
-270.334
 30
0.000000
  70
    32
  0
VERTEX
  8
図枠
  5
82C
 10
216.202
 20
-270.361
 30
0.000000
  70
    32
  0
VERTEX
  8
図枠
  5
82D
 10
216.242
 20
-270.387
 30
0.000000
  70
    32
  0
VERTEX
  8
図枠
  5
82E
 10
216.281
 20
-270.414
 30
0.000000
  70
    32
  0
VERTEX
  8
図枠
  5
82F
 10
216.321
 20
-270.441
 30
0.000000
  70
    32
  0
VERTEX
  8
図枠
  5
830
 10
216.361
 20
-270.467
 30
0.000000
  70
    32
  0
VERTEX
  8
図枠
  5
831
 10
216.400
 20
-270.493
 30
0.000000
  70
    32
  0
VERTEX
  8
図枠
  5
832
 10
216.440
 20
-270.520
 30
0.000000
  70
    32
  0
VERTEX
  8
図枠
  5
833
 10
216.480
 20
-270.546
 30
0.000000
  70
    32
  0
VERTEX
  8
図枠
  5
834
 10
216.520
 20
-270.572
 30
0.000000
  70
    32
  0
VERTEX
  8
図枠
  5
835
 10
216.560
 20
-270.598
 30
0.000000
  70
    32
  0
VERTEX
  8
図枠
  5
836
 10
216.600
 20
-270.624
 30
0.000000
  70
    32
  0
VERTEX
  8
図枠
  5
837
 10
216.640
 20
-270.650
 30
0.000000
  70
    32
  0
VERTEX
  8
図枠
  5
838
 10
216.680
 20
-270.675
 30
0.000000
  70
    32
  0
VERTEX
  8
図枠
  5
839
 10
216.720
 20
-270.701
 30
0.000000
  70
    32
  0
VERTEX
  8
図枠
  5
83A
 10
216.760
 20
-270.726
 30
0.000000
  70
    32
  0
VERTEX
  8
図枠
  5
83B
 10
216.800
 20
-270.752
 30
0.000000
  70
    32
  0
VERTEX
  8
図枠
  5
83C
 10
216.841
 20
-270.777
 30
0.000000
  70
    32
  0
VERTEX
  8
図枠
  5
83D
 10
216.881
 20
-270.802
 30
0.000000
  70
    32
  0
VERTEX
  8
図枠
  5
83E
 10
216.922
 20
-270.827
 30
0.000000
  70
    32
  0
VERTEX
  8
図枠
  5
83F
 10
216.962
 20
-270.852
 30
0.000000
  70
    32
  0
VERTEX
  8
図枠
  5
840
 10
217.003
 20
-270.877
 30
0.000000
  70
    32
  0
VERTEX
  8
図枠
  5
841
 10
217.043
 20
-270.902
 30
0.000000
  70
    32
  0
VERTEX
  8
図枠
  5
842
 10
217.084
 20
-270.927
 30
0.000000
  70
    32
  0
VERTEX
  8
図枠
  5
843
 10
217.125
 20
-270.951
 30
0.000000
  70
    32
  0
SEQEND
  8
図枠
  5
844
  0
INSERT
  5
4EB
  8
0
  6
CONTINUOUS
  2
*U90
 10
0.0
 20
0.0
 30
0.0
  0
LINE
  5
4EC
  8
図枠
 10
238.2758381603
 20
-221.5993322349
 30
0.0
 11
238.2758381603
 21
-226.39933223489999
 31
0.0
  0
LINE
  5
4ED
  8
図枠
 10
205.8252961135
 20
-264.84598630110003
 30
0.0
 11
205.8252961135
 21
-267.84598630110003
 31
0.0
  0
LINE
  5
4EE
  8
図枠
 10
238.2758381603
 20
-226.39933223489999
 30
0.0
 11
247.87583816029999
 21
-228.79933223489999
 31
0.0
  0
LINE
  5
4EF
  8
図枠
 10
211.14650823470001
 20
-260.84598630110003
 30
0.0
 11
211.14650823470001
 21
-264.44598630109999
 31
0.0
  0
ARC
  5
4F0
  8
図枠
 10
196.82529611349989
 20
-268.84598630110003
 30
0.0
 40
6.0
 50
270.0
 51
0.0
  0
LINE
  5
4F1
  8
図枠
 10
110.5040031369
 20
-212.99933223490001
 30
0.0
 11
110.5040031369
 21
-278.99933223490001
 31
0.0
  0
INSERT
  5
4F2
  8
0
  6
CONTINUOUS
  2
*U91
 10
0.0
 20
0.0
 30
0.0
  0
INSERT
  5
4F3
  8
0
  6
CONTINUOUS
  2
*U92
 10
0.0
 20
0.0
 30
0.0
  0
INSERT
  5
4F4
  8
0
  6
CONTINUOUS
  2
*U93
 10
0.0
 20
0.0
 30
0.0
  0
INSERT
  5
4F5
  8
0
  6
CONTINUOUS
  2
*U94
 10
0.0
 20
0.0
 30
0.0
  0
LINE
  5
4F6
  8
図枠
 10
185.5040031369
 20
-234.99933223490001
 30
0.0
 11
185.5040031369
 21
-256.99933223490001
 31
0.0
  0
LINE
  5
4F7
  8
図枠
 10
110.5040031369
 20
-256.99933223490001
 30
0.0
 11
400.50400313689988
 21
-256.99933223490001
 31
0.0
  0
LINE
  5
4F8
  8
図枠
 10
115.5040031369
 20
-245.99933223490001
 30
0.0
 11
180.5040031369
 21
-245.99933223490001
 31
0.0
  0
LINE
  5
4F9
  8
図枠
 10
190.5040031369
 20
-245.99933223490001
 30
0.0
 11
255.5040031369
 21
-245.99933223490001
 31
0.0
  0
INSERT
  5
4FA
  8
0
  6
CONTINUOUS
  2
*U95
 10
0.0
 20
0.0
 30
0.0
  0
INSERT
  5
4FB
  8
0
  6
CONTINUOUS
  2
*U96
 10
0.0
 20
0.0
 30
0.0
  0
LINE
  5
4FC
  8
図枠
 10
128.5040031369
 20
-202.99933223490001
 30
0.0
 11
128.5040031369
 21
-192.99933223490001
 31
0.0
  0
LINE
  5
4FD
  8
図枠
 10
110.5040031369
 20
-202.99933223490001
 30
0.0
 11
110.5040031369
 21
-192.99933223490001
 31
0.0
  0
LINE
  5
4FE
  8
図枠
 10
338.5040031369
 20
-202.99933223490001
 30
0.0
 11
338.5040031369
 21
-192.99933223490001
 31
0.0
  0
LINE
  5
4FF
  8
図枠
 10
320.5040031369
 20
-202.99933223490001
 30
0.0
 11
320.5040031369
 21
-192.99933223490001
 31
0.0
  0
LINE
  5
500
  8
図枠
 10
400.50400313689988
 20
-192.99933223490001
 30
0.0
 11
110.5040031369
 21
-192.99933223490001
 31
0.0
  0
LINE
  5
501
  8
図枠
 10
110.5040031369
 20
-202.99933223490001
 30
0.0
 11
400.50400313689988
 21
-202.99933223490001
 31
0.0
  0
LINE
  5
502
  8
図枠
 10
228.5040031369
 20
-202.99933223490001
 30
0.0
 11
228.5040031369
 21
-192.99933223490001
 31
0.0
  0
INSERT
  5
503
  8
0
  6
CONTINUOUS
  2
*U97
 10
0.0
 20
0.0
 30
0.0
  0
INSERT
  5
504
  8
0
  6
CONTINUOUS
  2
*U98
 10
0.0
 20
0.0
 30
0.0
  0
CIRCLE
  5
505
  8
図枠
 10
227.30400313690001
 20
-223.99933223490001
 30
0.0
 40
2.399999999999999
  0
LINE
  5
506
  8
図枠
 10
238.2758381603
 20
-226.39933223489999
 30
0.0
 11
247.87583816029999
 21
-228.79933223489999
 31
0.0
  0
LINE
  5
507
  8
図枠
 10
238.2758381603
 20
-221.5993322349
 30
0.0
 11
238.2758381603
 21
-226.39933223489999
 31
0.0
  0
LINE
  5
508
  8
図枠
 10
247.87583816029999
 20
-219.1993322349
 30
0.0
 11
247.87583816029999
 21
-228.79933223489999
 31
0.0
  0
LINE
  5
509
  8
図枠
  6
BORDER
 10
227.30400313690001
 20
-216.79933223489999
 30
0.0
 11
227.30400313690001
 21
-231.1993322349
 31
0.0
  0
LINE
  5
50A
  8
図枠
  6
BORDER
 10
227.30400313690001
 20
-216.79933223489999
 30
0.0
 11
227.30400313690001
 21
-231.1993322349
 31
0.0
  0
LINE
  5
50B
  8
図枠
 10
247.87583816029999
 20
-219.1993322349
 30
0.0
 11
247.87583816029999
 21
-228.79933223489999
 31
0.0
  0
LINE
  5
50C
  8
図枠
 10
238.2758381603
 20
-221.5993322349
 30
0.0
 11
238.2758381603
 21
-226.39933223489999
 31
0.0
  0
LINE
  5
50D
  8
図枠
 10
238.2758381603
 20
-226.39933223489999
 30
0.0
 11
247.87583816029999
 21
-228.79933223489999
 31
0.0
  0
LINE
  5
50E
  8
図枠
 10
238.2758381603
 20
-221.5993322349
 30
0.0
 11
247.87583816029999
 21
-219.1993322349
 31
0.0
  0
CIRCLE
  5
50F
  8
図枠
 10
227.30400313690001
 20
-223.99933223490001
 30
0.0
 40
4.7999999999999989
  0
CIRCLE
  5
510
  8
図枠
 10
227.30400313690001
 20
-223.99933223490001
 30
0.0
 40
2.399999999999999
  0
CIRCLE
  5
511
  8
図枠
 10
227.30400313690001
 20
-223.99933223490001
 30
0.0
 40
4.7999999999999989
  0
LINE
  5
512
  8
図枠
 10
238.2758381603
 20
-221.5993322349
 30
0.0
 11
247.87583816029999
 21
-219.1993322349
 31
0.0
  0
ENDBLK
  5
513
  8
0
  0
BLOCK
  8
0
  2
CLUMP8
 70
     0
 10
0.0
 20
0.0
 30
0.0
  3
CLUMP8
  1

  0
LINE
  5
51E
  8
図枠
 10
228.5040031369
 20
-192.99933223490001
 30
0.0
 11
228.5040031369
 21
-182.99933223490001
 31
0.0
  0
LINE
  5
51F
  8
図枠
 10
110.5040031369
 20
-192.99933223490001
 30
0.0
 11
110.5040031369
 21
-182.99933223490001
 31
0.0
  0
LINE
  5
520
  8
図枠
 10
128.5040031369
 20
-192.99933223490001
 30
0.0
 11
128.5040031369
 21
-182.99933223490001
 31
0.0
  0
LINE
  5
521
  8
図枠
 10
338.5040031369
 20
-192.99933223490001
 30
0.0
 11
338.5040031369
 21
-182.99933223490001
 31
0.0
  0
LINE
  5
522
  8
図枠
 10
320.5040031369
 20
-192.99933223490001
 30
0.0
 11
320.5040031369
 21
-182.99933223490001
 31
0.0
  0
LINE
  5
523
  8
図枠
 10
400.50400313689988
 20
-182.99933223490001
 30
0.0
 11
110.5040031369
 21
-182.99933223490001
 31
0.0
  0
ENDBLK
  5
524
  8
0
  0
BLOCK
  8
0
  2
CLUMP9
 70
     0
 10
0.0
 20
0.0
 30
0.0
  3
CLUMP9
  1

  0
LINE
  5
528
  8
図枠
 10
228.5040031369
 20
-182.99933223490001
 30
0.0
 11
228.5040031369
 21
-172.99933223490001
 31
0.0
  0
LINE
  5
529
  8
図枠
 10
110.5040031369
 20
-182.99933223490001
 30
0.0
 11
110.5040031369
 21
-172.99933223490001
 31
0.0
  0
LINE
  5
52A
  8
図枠
 10
128.5040031369
 20
-182.99933223490001
 30
0.0
 11
128.5040031369
 21
-172.99933223490001
 31
0.0
  0
LINE
  5
52B
  8
図枠
 10
338.5040031369
 20
-182.99933223490001
 30
0.0
 11
338.5040031369
 21
-172.99933223490001
 31
0.0
  0
LINE
  5
52C
  8
図枠
 10
320.5040031369
 20
-182.99933223490001
 30
0.0
 11
320.5040031369
 21
-172.99933223490001
 31
0.0
  0
LINE
  5
52D
  8
図枠
 10
400.50400313689988
 20
-172.99933223490001
 30
0.0
 11
110.5040031369
 21
-172.99933223490001
 31
0.0
  0
ENDBLK
  5
52E
  8
0
  0
BLOCK
  8
0
  2
*U54
 70
     1
 10
0.0
 20
0.0
 30
0.0
  3
*U54
  1

  0
TEXT
  5
54A
  8
改訂
  6
CONTINUOUS
 10
218.524410808136
 20
262.56438331150002
 30
0.0
 40
5.397499935199999
  1
1
  0
ENDBLK
  5
54C
  8
0
  0
BLOCK
  8
0
  2
*U55
 70
     1
 10
0.0
 20
0.0
 30
0.0
  3
*U55
  1

  0
TEXT
  5
54E
  8
改訂
  6
CONTINUOUS
 10
228.62658586277541
 20
263.77316784620001
 30
0.0
 40
5.3974999188999986
  1
H**.**.**
  0
ENDBLK
  5
550
  8
0
  0
BLOCK
  8
0
  2
*U56
 70
     1
 10
0.0
 20
0.0
 30
0.0
  3
*U56
  1

  0
TEXT
  5
552
  8
図枠
  6
CONTINUOUS
 10
177.5432236241632
 20
-232.0301625438
 30
0.0
 40
5.9972220420999998
  1
1：2
  0
ENDBLK
  5
554
  8
0
  0
BLOCK
  8
0
  2
*U57
 70
     1
 10
0.0
 20
0.0
 30
0.0
  3
*U57
  1

  0
TEXT
  5
556
  8
図枠
  6
CONTINUOUS
 10
165.26140624190759
 20
-190.8034245433102
 30
0.0
 40
5.9972220420999998
  1
本   体
  0
ENDBLK
  5
558
  8
0
  0
BLOCK
  8
0
  2
*U58
 70
     1
 10
0.0
 20
0.0
 30
0.0
  3
*U58
  1

  0
TEXT
  5
55A
  8
ﾚｲﾔ_1
  6
CONTINUOUS
 10
54.362305347399989
 20
18.913473282938071
 30
0.0
 40
5.9972220420999998
  1
（浅型）
  0
ENDBLK
  5
55C
  8
0
  0
BLOCK
  8
0
  2
*U59
 70
     1
 10
0.0
 20
0.0
 30
0.0
  3
*U59
  1

  0
TEXT
  5
55E
  8
ﾚｲﾔ_1
  6
CONTINUOUS
 10
161.2875582986
 20
19.035244288869031
 30
0.0
 40
5.9972220420999998
  1
（深型）
  0
ENDBLK
  5
560
  8
0
  0
BLOCK
  8
0
  2
*U60
 70
     1
 10
0.0
 20
0.0
 30
0.0
  3
*U60
  1

  0
TEXT
  5
562
  8
ﾚｲﾔ_1
  6
CONTINUOUS
 10
-224.0260982221381
 20
35.406800558599997
 30
0.0
 40
6.5969445704999989
  1
1
  0
ENDBLK
  5
564
  8
0
  0
BLOCK
  8
0
  2
*U61
 70
     1
 10
0.0
 20
0.0
 30
0.0
  3
*U61
  1

  0
TEXT
  5
566
  8
ﾚｲﾔ_1
  6
CONTINUOUS
 10
-151.97985061876651
 20
35.406800558599997
 30
0.0
 40
6.5969445704999989
  1
3
  0
ENDBLK
  5
568
  8
0
  0
BLOCK
  8
0
  2
*U62
 70
     1
 10
0.0
 20
0.0
 30
0.0
  3
*U62
  1

  0
TEXT
  5
56A
  8
図枠
  6
CONTINUOUS
 10
175.18574322528119
 20
-180.46855427700001
 30
0.0
 40
5.9972220420999998
  1
耳
  0
ENDBLK
  5
56C
  8
0
  0
BLOCK
  8
0
  2
*U63
 70
     1
 10
0.0
 20
0.0
 30
0.0
  3
*U63
  1

  0
TEXT
  5
56E
  8
図枠
  6
CONTINUOUS
 10
164.02847480685659
 20
-170.77298179182739
 30
0.0
 40
5.9972220420999998
  1
蓋(目皿)
  0
ENDBLK
  5
570
  8
0
  0
BLOCK
  8
0
  2
*U64
 70
     1
 10
0.0
 20
0.0
 30
0.0
  3
*U64
  1

  0
TEXT
  5
572
  8
図枠
  6
CONTINUOUS
 10
146.92284159718221
 20
-254.35069812271021
 30
0.0
 40
5.9972220420999998
  1
白須賀
  0
ENDBLK
  5
574
  8
0
  0
BLOCK
  8
0
  2
*U65
 70
     1
 10
0.0
 20
0.0
 30
0.0
  3
*U65
  1

  0
TEXT
  5
576
  8
図枠
  6
CONTINUOUS
 10
146.92284159718221
 20
-243.35069812271021
 30
0.0
 40
5.9972220420999998
  1
白須賀
  0
ENDBLK
  5
578
  8
0
  0
BLOCK
  8
0
  2
*U66
 70
     1
 10
0.0
 20
0.0
 30
0.0
  3
*U66
  1

  0
TEXT
  5
57A
  8
図枠
  6
CONTINUOUS
 10
223.56675017725021
 20
-254.3202553712274
 30
0.0
 40
5.9972220420999998
  1
柳 原
  0
ENDBLK
  5
57C
  8
0
  0
BLOCK
  8
0
  2
*U67
 70
     1
 10
0.0
 20
0.0
 30
0.0
  3
*U67
  1

  0
TEXT
  5
57E
  8
図枠
  6
CONTINUOUS
 10
223.56675017725021
 20
-243.3202553712274
 30
0.0
 40
5.9972220420999998
  1
柳 原
  0
ENDBLK
  5
580
  8
0
  0
BLOCK
  8
0
  2
*U68
 70
     1
 10
0.0
 20
0.0
 30
0.0
  3
*U68
  1

  0
TEXT
  5
582
  8
図枠
  6
CONTINUOUS
 10
123.8900934462342
 20
-232.0301625438
 30
0.0
 40
5.9972220420999998
  1
H09.07
  0
ENDBLK
  5
584
  8
0
  0
BLOCK
  8
0
  2
*U69
 70
     1
 10
0.0
 20
0.0
 30
0.0
  3
*U69
  1

  0
TEXT
  5
586
  8
図枠
  6
CONTINUOUS
 10
117.5861097934873
 20
-180.46855427700001
 30
0.0
 40
5.9972220420999998
  1
2
  0
ENDBLK
  5
588
  8
0
  0
BLOCK
  8
0
  2
*U70
 70
     1
 10
0.0
 20
0.0
 30
0.0
  3
*U70
  1

  0
TEXT
  5
58A
  8
図枠
  6
CONTINUOUS
 10
117.93620143553881
 20
-190.46855427700001
 30
0.0
 40
5.9972220420999998
  1
1
  0
ENDBLK
  5
58C
  8
0
  0
BLOCK
  8
0
  2
*U71
 70
     1
 10
0.0
 20
0.0
 30
0.0
  3
*U71
  1

  0
TEXT
  5
58E
  8
図枠
  6
CONTINUOUS
 10
117.61655254497001
 20
-170.46855427700001
 30
0.0
 40
5.9972220420999998
  1
3
  0
ENDBLK
  5
590
  8
0
  0
BLOCK
  8
0
  2
*U72
 70
     1
 10
0.0
 20
0.0
 30
0.0
  3
*U72
  1

  0
TEXT
  5
592
  8
ﾚｲﾔ_1
  6
CONTINUOUS
 10
-262.54447936626639
 20
35.406800558599997
 30
0.0
 40
6.5969445704999989
  1
2
  0
ENDBLK
  5
594
  8
0
  0
BLOCK
  8
0
  2
*U73
 70
     1
 10
0.0
 20
0.0
 30
0.0
  3
*U73
  1

  0
TEXT
  5
596
  8
ﾚｲﾔ_1
  6
CONTINUOUS
 10
-78.263474698599993
 20
-232.70376525096191
 30
0.0
 40
5.9972220420999998
  1
（浅型）
  0
ENDBLK
  5
598
  8
0
  0
BLOCK
  8
0
  2
*U74
 70
     1
 10
0.0
 20
0.0
 30
0.0
  3
*U74
  1

  0
TEXT
  5
59A
  8
ﾚｲﾔ_1
  6
CONTINUOUS
 10
-237.0168872469178
 20
-61.807317374944667
 30
0.0
 40
5.9972220420999998
  1
15-小判穴
  0
ENDBLK
  5
59C
  8
0
  0
BLOCK
  8
0
  2
*U75
 70
     1
 10
0.0
 20
0.0
 30
0.0
  3
*U75
  1

  0
TEXT
  5
59E
  8
ﾚｲﾔ_1
  6
CONTINUOUS
 10
-25.223434355199998
 20
-232.58199424503101
 30
0.0
 40
5.9972220420999998
  1
（深型）
  0
ENDBLK
  5
5A0
  8
0
  0
BLOCK
  8
0
  2
*U76
 70
     1
 10
0.0
 20
0.0
 30
0.0
  3
*U76
  1

  0
TEXT
  5
5A2
  8
図枠
  6
CONTINUOUS
 10
253.1484129717571
 20
-180.46855427700001
 30
0.0
 40
5.9972220420999998
  1
SUS304 0.8t
  0
ENDBLK
  5
5A4
  8
0
  0
BLOCK
  8
0
  2
*U77
 70
     1
 10
0.0
 20
0.0
 30
0.0
  3
*U77
  1

  0
TEXT
  5
5A6
  8
図枠
  6
CONTINUOUS
 10
327.58610979348731
 20
-180.46855427700001
 30
0.0
 40
5.9972220420999998
  1
2
  0
ENDBLK
  5
5A8
  8
0
  0
BLOCK
  8
0
  2
*U78
 70
     1
 10
0.0
 20
0.0
 30
0.0
  3
*U78
  1

  0
TEXT
  5
5AA
  8
図枠
  6
CONTINUOUS
 10
327.93620143553881
 20
-170.46855427700001
 30
0.0
 40
5.9972220420999998
  1
1
  0
ENDBLK
  5
5AC
  8
0
  0
BLOCK
  8
0
  2
*U79
 70
     1
 10
0.0
 20
0.0
 30
0.0
  3
*U79
  1

  0
TEXT
  5
5AE
  8
図枠
  6
CONTINUOUS
 10
286.36594512395129
 20
273.49918307874321
 30
0.0
 40
5.3974999188999986
  1
改　訂　内　容
  0
ENDBLK
  5
5B0
  8
0
  0
BLOCK
  8
0
  2
*U80
 70
     1
 10
0.0
 20
0.0
 30
0.0
  3
*U80
  1

  0
TEXT
  5
5B2
  8
図枠
  6
CONTINUOUS
 10
234.21587511889521
 20
273.55398003223451
 30
0.0
 40
5.3974999188999986
  1
改訂日
  0
ENDBLK
  5
5B4
  8
0
  0
BLOCK
  8
0
  2
*U81
 70
     1
 10
0.0
 20
0.0
 30
0.0
  3
*U81
  1

  0
TEXT
  5
5B6
  8
図枠
  6
CONTINUOUS
 10
213.75027861908859
 20
273.60877698572591
 30
0.0
 40
5.3974999188999986
  1
副番
  0
ENDBLK
  5
5B8
  8
0
  0
BLOCK
  8
0
  2
*U82
 70
     1
 10
0.0
 20
0.0
 30
0.0
  3
*U82
  1

  0
TEXT
  5
5BA
  8
図枠
  6
CONTINUOUS
 10
121.38367701040001
 20
-273.04743189451068
 30
0.0
 40
10.794999837900001
  1
株式会社
  0
ENDBLK
  5
5BC
  8
0
  0
BLOCK
  8
0
  2
*U83
 70
     1
 10
0.0
 20
0.0
 30
0.0
  3
*U83
  1

  0
TEXT
  5
5BE
  8
図枠
  6
CONTINUOUS
 10
380.42136369448781
 20
273.47178460199751
 30
0.0
 40
5.3974999188999986
  1
検認者
  0
ENDBLK
  5
5C0
  8
0
  0
BLOCK
  8
0
  2
*U84
 70
     1
 10
0.0
 20
0.0
 30
0.0
  3
*U84
  1

  0
TEXT
  5
5C2
  8
図枠
  6
CONTINUOUS
 10
263.23418531040528
 20
-264.37921078589642
 30
0.0
 40
5.9972220420999998
  1
図 番
  0
ENDBLK
  5
5C4
  8
0
  0
BLOCK
  8
0
  2
*U85
 70
     1
 10
0.0
 20
0.0
 30
0.0
  3
*U85
  1

  0
TEXT
  5
5C6
  8
図枠
  6
CONTINUOUS
 10
261.1488568338375
 20
-220.5009817918274
 30
0.0
 40
5.9972220420999998
  1
製品名
  0
ENDBLK
  5
5C8
  8
0
  0
BLOCK
  8
0
  2
*U86
 70
     1
 10
0.0
 20
0.0
 30
0.0
  3
*U86
  1

  0
TEXT
  5
5CA
  8
図枠
  6
CONTINUOUS
 10
261.31629196699259
 20
-242.44009628886189
 30
0.0
 40
5.9972220420999998
  1
図面名
  0
ENDBLK
  5
5CC
  8
0
  0
BLOCK
  8
0
  2
*U87
 70
     1
 10
0.0
 20
0.0
 30
0.0
  3
*U87
  1

  0
TEXT
  5
5CE
  8
図枠
  6
CONTINUOUS
 10
120.9067038009256
 20
-221.137598862331
 30
0.0
 40
5.9972220420999998
  1
日　　付
  0
ENDBLK
  5
5D0
  8
0
  0
BLOCK
  8
0
  2
*U88
 70
     1
 10
0.0
 20
0.0
 30
0.0
  3
*U88
  1

  0
TEXT
  5
5D2
  8
図枠
  6
CONTINUOUS
 10
170.26740601978801
 20
-221.3202553712274
 30
0.0
 40
5.9972220420999998
  1
尺　　度
  0
ENDBLK
  5
5D4
  8
0
  0
BLOCK
  8
0
  2
*U89
 70
     1
 10
0.0
 20
0.0
 30
0.0
  3
*U89
  1

  0
TEXT
  5
5D6
  8
図枠
  6
CONTINUOUS
 10
360.5035591247248
 20
273.49918307874321
 30
0.0
 40
5.3974999188999986
  1
改訂者
  0
ENDBLK
  5
5D8
  8
0
  0
BLOCK
  8
0
  2
*U90
 70
     1
 10
0.0
 20
0.0
 30
0.0
  3
*U90
  1

  0
TEXT
  5
5DA
  8
図枠
  6
CONTINUOUS
 10
112.19774278104209
 20
-200.6512107858965
 30
0.0
 40
5.9972220420999998
  1
品番
  0
ENDBLK
  5
5DC
  8
0
  0
BLOCK
  8
0
  2
*U91
 70
     1
 10
0.0
 20
0.0
 30
0.0
  3
*U91
  1

  0
TEXT
  5
5DE
  8
図枠
  6
CONTINUOUS
 10
110.5040031369
 20
-254.3202553712274
 30
0.0
 40
5.9972220420999998
  1
 製図
  0
ENDBLK
  5
5E0
  8
0
  0
BLOCK
  8
0
  2
*U92
 70
     1
 10
0.0
 20
0.0
 30
0.0
  3
*U92
  1

  0
TEXT
  5
5E2
  8
図枠
  6
CONTINUOUS
 10
110.5040031369
 20
-243.2593698682619
 30
0.0
 40
5.9972220420999998
  1
 設計
  0
ENDBLK
  5
5E4
  8
0
  0
BLOCK
  8
0
  2
*U93
 70
     1
 10
0.0
 20
0.0
 30
0.0
  3
*U93
  1

  0
TEXT
  5
5E6
  8
図枠
  6
CONTINUOUS
 10
185.5040031369
 20
-254.35069812271021
 30
0.0
 40
5.9972220420999998
  1
 検図
  0
ENDBLK
  5
5E8
  8
0
  0
BLOCK
  8
0
  2
*U94
 70
     1
 10
0.0
 20
0.0
 30
0.0
  3
*U94
  1

  0
TEXT
  5
5EA
  8
図枠
  6
CONTINUOUS
 10
185.5040031369
 20
-243.28981261974471
 30
0.0
 40
5.9972220420999998
  1
 照査
  0
ENDBLK
  5
5EC
  8
0
  0
BLOCK
  8
0
  2
*U95
 70
     1
 10
0.0
 20
0.0
 30
0.0
  3
*U95
  1

  0
TEXT
  5
5EE
  8
図枠
  6
CONTINUOUS
 10
321.99986489640429
 20
-200.77298179182739
 30
0.0
 40
5.9972220420999998
  1
数量
  0
ENDBLK
  5
5F0
  8
0
  0
BLOCK
  8
0
  2
*U96
 70
     1
 10
0.0
 20
0.0
 30
0.0
  3
*U96
  1

  0
TEXT
  5
5F2
  8
図枠
  6
CONTINUOUS
 10
351.02525298687613
 20
-200.86431004627559
 30
0.0
 40
5.9972220420999998
  1
備　　　考
  0
ENDBLK
  5
5F4
  8
0
  0
BLOCK
  8
0
  2
*U97
 70
     1
 10
0.0
 20
0.0
 30
0.0
  3
*U97
  1

  0
TEXT
  5
5F6
  8
図枠
  6
CONTINUOUS
 10
255.30984832703169
 20
-200.68165353737919
 30
0.0
 40
5.9972220420999998
  1
材　　　質
  0
ENDBLK
  5
5F8
  8
0
  0
BLOCK
  8
0
  2
*U98
 70
     1
 10
0.0
 20
0.0
 30
0.0
  3
*U98
  1

  0
TEXT
  5
5FA
  8
図枠
  6
CONTINUOUS
 10
159.53816896315229
 20
-200.71209628886189
 30
0.0
 40
5.9972220420999998
  1
品　　　名
  0
ENDBLK
  5
5FC
  8
0
  0
BLOCK
  8
0
  2
*U99
 70
     1
 10
0.0
 20
0.0
 30
0.0
  3
*U99
  1

  0
TEXT
  5
5FE
  8
図枠
  6
CONTINUOUS
 10
287.72531735286037
 20
-227.32831153286349
 30
0.0
 40
7.1966662884000003
  1
ハイとーる(浅型 ・深型 )
  0
ENDBLK
  5
600
  8
0
  0
BLOCK
  8
0
  2
*U100
 70
     1
 10
0.0
 20
0.0
 30
0.0
  3
*U100
  1

  0
TEXT
  5
602
  8
図枠
  6
CONTINUOUS
 10
319.98245609731322
 20
-249.32831153286349
 30
0.0
 40
7.1966662884000003
  1
FM15-15(D)
  0
ENDBLK
  5
604
  8
0
  0
BLOCK
  8
0
  2
*U101
 70
     1
 10
0.0
 20
0.0
 30
0.0
  3
*U101
  1

  0
TEXT
  5
606
  8
図枠
  6
CONTINUOUS
 10
324.53060306637809
 20
-270.96299852329997
 30
0.0
 40
7.1966662884000003
  1
SHF00031
  0
ENDBLK
  5
608
  8
0
  0
BLOCK
  8
0
  2
*U102
 70
     1
 10
0.0
 20
0.0
 30
0.0
  3
*U102
  1

  0
TEXT
  5
60A
  8
図枠
  6
CONTINUOUS
 10
327.58610979348731
 20
-190.46855427700001
 30
0.0
 40
5.9972220420999998
  1
2
  0
ENDBLK
  5
60C
  8
0
  0
BLOCK
  8
0
  2
*U103
 70
     1
 10
0.0
 20
0.0
 30
0.0
  3
*U103
  1

  0
TEXT
  5
60E
  8
改訂
  6
CONTINUOUS
 10
364.3941428226122
 20
263.77316784620001
 30
0.0
 40
5.3974999188999986
  1
＊＊
  0
ENDBLK
  5
610
  8
0
  0
BLOCK
  8
0
  2
*U104
 70
     1
 10
0.0
 20
0.0
 30
0.0
  3
*U104
  1

  0
TEXT
  5
612
  8
改訂
  6
CONTINUOUS
 10
271.92694787897511
 20
263.77816784620001
 30
0.0
 40
5.3974999188999986
  1
**********************
  0
ENDBLK
  5
614
  8
0
  0
BLOCK
  8
0
  2
*U105
 70
     1
 10
0.0
 20
0.0
 30
0.0
  3
*U105
  1

  0
TEXT
  5
616
  8
図枠
  6
CONTINUOUS
 10
253.1484129717571
 20
-190.46855427700001
 30
0.0
 40
5.9972220420999998
  1
SUS304 0.8t
  0
ENDBLK
  5
618
  8
0
  0
BLOCK
  8
0
  2
*U106
 70
     1
 10
0.0
 20
0.0
 30
0.0
  3
*U106
  1

  0
TEXT
  5
61A
  8
ﾚｲﾔ_1
  6
CONTINUOUS
 10
231.55475452744309
 20
-170.2385227095568
 30
0.0
 40
5.3974999188999986
  1
SUS304 2.0t(浅型)1.5t(深型)
  0
ENDBLK
  5
61C
  8
0
  0
ENDSEC
  0
SECTION
  2
ENTITIES
  0
LINE
  5
2F
  8
ﾚｲﾔ_1
 62
     5
 10
152.49275285580001
 20
68.381669810299996
 30
0.0
 11
173.99275285580001
 21
68.381669810299996
 31
0.0
  0
LINE
  5
30
  8
ﾚｲﾔ_1
 62
     5
 10
150.99275285580001
 20
195.8816698103
 30
0.0
 11
150.99275285580001
 21
69.881669810299996
 31
0.0
  0
ARC
  5
31
  8
ﾚｲﾔ_1
 62
     5
 10
152.49275285580001
 20
195.8816698103
 30
0.0
 40
1.5
 50
90.0
 51
180.0
  0
LINE
  5
32
  8
ﾚｲﾔ_1
 62
     5
 10
152.49275285580001
 20
197.3816698103
 30
0.0
 11
173.99275285580001
 21
197.3816698103
 31
0.0
  0
LINE
  5
33
  8
ﾚｲﾔ_1
 62
     5
 10
152.49275285580001
 20
195.8816698103
 30
0.0
 11
173.99275285580001
 21
195.8816698103
 31
0.0
  0
DIMENSION
  5
44
  8
寸法線
 62
     5
  2
*D0
 10
81.665546713100014
 20
235.6478874718
 30
0.0
 11
74.097550479399999
 21
235.6478874718
 31
0.0
 70
   128
  1
<>
 13
81.665546713100014
 23
206.08214116440001
 33
0.0
 14
66.665546713099999
 24
197.8821411644
 34
0.0
  0
DIMENSION
  5
53
  8
寸法線
 62
     5
  2
*D1
 10
66.665546713099999
 20
235.6478874718
 30
0.0
 11
58.925070134599999
 21
235.6478874718
 31
0.0
 70
   128
  1
<>
 13
66.665546713099999
 23
197.8821411644
 33
0.0
 14
51.665546713100007
 24
206.08214116440001
 34
0.0
  0
DIMENSION
  5
62
  8
寸法線
 62
     5
  2
*D2
 10
203.99275285580001
 20
247.44967365549999
 30
0.0
 11
176.49275285580001
 21
247.44967365549999
 31
0.0
 70
   128
  1
<>
 13
203.99275285580001
 23
206.08166981030001
 33
0.0
 14
148.99275285580001
 24
206.08166981030001
 34
0.0
  0
DIMENSION
  5
71
  8
寸法線
 62
     5
  2
*D3
 10
104.5908484557
 20
74.381198456099995
 30
0.0
 11
104.5908484557
 21
132.8816698103
 31
0.0
 70
   128
  1
<>
 13
80.865546713100002
 23
74.381198456099995
 33
0.0
 14
80.865546713100002
 24
191.3821411644
 34
0.0
 50
90.0
  0
DIMENSION
  5
80
  8
寸法線
 62
     5
  2
*D4
 10
104.6509890654
 20
58.881198456099987
 30
0.0
 11
104.6509890654
 21
40.890208770999998
 31
0.0
 70
   128
  1
15.5
 13
80.865546713100002
 23
58.881198456099987
 33
0.0
 14
80.865546713100002
 24
74.381198456099995
 34
0.0
 50
90.0
  0
DIMENSION
  5
8F
  8
寸法線
 62
     5
  2
*D5
 10
104.6509890654
 20
191.3821411644
 30
0.0
 11
104.6509890654
 21
224.58959012380001
 31
0.0
 70
   128
  1
15.5
 13
80.865546713100002
 23
191.3821411644
 33
0.0
 14
80.865546713100002
 24
206.8821411644
 34
0.0
 50
90.0
  0
DIMENSION
  5
9E
  8
寸法線
 62
     5
  2
*D6
 10
225.40766412599999
 20
72.881669810299996
 30
0.0
 11
225.40766412599999
 21
132.8816698103
 31
0.0
 70
   128
  1
<>
 13
203.99275285580001
 23
72.881669810299996
 33
0.0
 14
203.99275285580001
 24
192.8816698103
 34
0.0
 50
90.0
  0
DIMENSION
  5
AD
  8
寸法線
 62
     5
  2
*D7
 10
225.40766412599999
 20
192.8816698103
 30
0.0
 11
225.40766412599999
 21
199.8816698103
 31
0.0
 70
   128
  1
14
 13
203.99275285580001
 23
192.8816698103
 33
0.0
 14
203.99275285580001
 24
206.8816698103
 34
0.0
 50
90.0
  0
DIMENSION
  5
BC
  8
寸法線
 62
     5
  2
*D8
 10
225.40766412599999
 20
58.881669810299996
 30
0.0
 11
225.40766412599999
 21
65.881669810299996
 31
0.0
 70
   128
  1
14
 13
203.99275285580001
 23
58.881669810299996
 33
0.0
 14
203.99275285580001
 24
72.881669810299996
 34
0.0
 50
90.0
  0
DIMENSION
  5
CB
  8
寸法線
 62
     5
  2
*D9
 10
203.99275285580001
 20
235.81853657049999
 30
0.0
 11
188.99275285580001
 21
235.81853657049999
 31
0.0
 70
   128
  1
<>
 13
203.99275285580001
 23
206.8816698103
 33
0.0
 14
173.99275285580001
 24
197.8816698103
 34
0.0
  0
DIMENSION
  5
DA
  8
寸法線
 62
     5
  2
*D10
 10
81.665546713100014
 20
248.22098088609999
 30
0.0
 11
66.665546713099999
 21
248.22098088609999
 31
0.0
 70
   128
  1
<>
 13
81.665546713100014
 23
206.08214116440001
 33
0.0
 14
51.665546713100007
 24
206.08214116440001
 34
0.0
  0
DIMENSION
  5
E9
  8
寸法線
 62
     5
  2
*D11
 10
173.99275285580001
 20
235.81853657049999
 30
0.0
 11
161.49275285580001
 21
235.81853657049999
 31
0.0
 70
   128
  1
<>
 13
173.99275285580001
 23
197.8816698103
 33
0.0
 14
148.99275285580001
 24
206.8816698103
 34
0.0
  0
INSERT
  5
EB
  8
0
  6
CONTINUOUS
  2
*U54
 10
0.0
 20
0.0
 30
0.0
  0
INSERT
  5
EC
  8
0
  6
CONTINUOUS
  2
*U55
 10
0.0
 20
0.0
 30
0.0
  0
INSERT
  5
EE
  8
0
  6
CONTINUOUS
  2
*U56
 10
0.0
 20
0.0
 30
0.0
  0
INSERT
  5
EF
  8
0
  6
CONTINUOUS
  2
*U57
 10
0.0
 20
0.0
 30
0.0
  0
INSERT
  5
F0
  8
0
  6
CONTINUOUS
  2
*U58
 10
0.0
 20
0.0
 30
0.0
  0
INSERT
  5
F1
  8
0
  6
CONTINUOUS
  2
*U59
 10
0.0
 20
0.0
 30
0.0
  0
LINE
  5
F2
  8
ﾚｲﾔ_1
  6
BORDER
 62
     3
 10
143.99275285580001
 20
132.8816698103
 30
0.0
 11
208.99275285580001
 21
132.8816698103
 31
0.0
  0
INSERT
  5
F4
  8
ﾚｲﾔ_1
 62
     5
  2
CLUMP0
 10
0.0
 20
0.0
 30
0.0
  0
LINE
  5
110
  8
ﾚｲﾔ_1
 62
     5
 10
203.99275285580001
 20
193.68166981030001
 30
0.0
 11
203.99275285580001
 21
72.081669810299999
 31
0.0
  0
LINE
  5
111
  8
ﾚｲﾔ_1
 62
     5
 10
173.99275285580001
 20
195.8816698103
 30
0.0
 11
173.99275285580001
 21
192.8816698103
 31
0.0
  0
INSERT
  5
113
  8
ﾚｲﾔ_1
  6
BORDER
 62
     5
  2
CLUMP1
 10
0.0
 20
0.0
 30
0.0
  0
LINE
  5
130
  8
ﾚｲﾔ_1
 62
     5
 10
55.165546713099999
 20
70.381669810299996
 30
0.0
 11
54.665546713099999
 21
70.381669810299996
 31
0.0
  0
LINE
  5
131
  8
ﾚｲﾔ_1
 62
     5
 10
173.99275285580001
 20
69.881669810299996
 30
0.0
 11
173.99275285580001
 21
72.881669810299996
 31
0.0
  0
LINE
  5
132
  8
ﾚｲﾔ_1
 62
     5
 10
81.665546713100014
 20
73.581198456099997
 30
0.0
 11
81.665546713100014
 21
192.18214116440001
 31
0.0
  0
INSERT
  5
134
  8
ﾚｲﾔ_1
  6
BORDER
 62
     5
  2
CLUMP2
 10
0.0
 20
0.0
 30
0.0
  0
LINE
  5
140
  8
ﾚｲﾔ_1
 62
     5
 10
51.665546713100007
 20
67.081198456099983
 30
0.0
 11
51.665546713100007
 21
132.8816698103
 31
0.0
  0
LINE
  5
141
  8
ﾚｲﾔ_1
 62
     5
 10
148.99275285580001
 20
67.081669810299999
 30
0.0
 11
148.99275285580001
 21
198.68166981030001
 31
0.0
  0
LINE
  5
142
  8
ﾚｲﾔ_1
 62
     5
 10
173.99275285580001
 20
68.381669810299996
 30
0.0
 11
173.99275285580001
 21
197.3816698103
 31
0.0
  0
LINE
  5
143
  8
ﾚｲﾔ_1
  6
BORDER
 62
     3
 10
46.665546713100007
 20
132.8816698103
 30
0.0
 11
86.665546713100014
 21
132.8816698103
 31
0.0
  0
LINE
  5
144
  8
ﾚｲﾔ_1
 62
     5
 10
51.665546713100007
 20
198.68214116440001
 30
0.0
 11
51.665546713100007
 21
132.8816698103
 31
0.0
  0
INSERT
  5
146
  8
ﾚｲﾔ_1
  6
BORDER
 62
     5
  2
CLUMP3
 10
0.0
 20
0.0
 30
0.0
  0
LINE
  5
163
  8
ﾚｲﾔ_1
 62
     5
 10
55.165546713099999
 20
195.3816698103
 30
0.0
 11
54.665546713099999
 21
195.3816698103
 31
0.0
  0
LINE
  5
164
  8
ﾚｲﾔ_1
 62
     5
 10
173.99275285580001
 20
197.8816698103
 30
0.0
 11
173.99275285580001
 21
197.3816698103
 31
0.0
  0
INSERT
  5
166
  8
ﾚｲﾔ_1
 62
     5
  2
CLUMP4
 10
0.0
 20
0.0
 30
0.0
  0
LINE
  5
182
  8
ﾚｲﾔ_1
 62
     5
 10
152.49275285580001
 20
69.881669810299996
 30
0.0
 11
173.99275285580001
 21
69.881669810299996
 31
0.0
  0
LINE
  5
183
  8
ﾚｲﾔ_1
 62
     5
 10
152.49275285580001
 20
195.8816698103
 30
0.0
 11
152.49275285580001
 21
69.881669810299996
 31
0.0
  0
ARC
  5
184
  8
ﾚｲﾔ_1
 62
     5
 10
152.49275285580001
 20
69.881669810299996
 30
0.0
 40
1.5
 50
180.0
 51
270.0
  0
LINE
  5
185
  8
ﾚｲﾔ_1
 10
-204.48359700520001
 20
195.3816698103
 30
0.0
 11
-204.48359700520001
 21
70.381669810299996
 31
0.0
  0
LINE
  5
186
  8
ﾚｲﾔ_1
 10
-213.98359700520001
 20
58.881669810299996
 30
0.0
 11
-213.98359700520001
 21
206.8816698103
 31
0.0
  0
LINE
  5
187
  8
ﾚｲﾔ_1
 10
-204.98359700520001
 20
67.881669810299996
 30
0.0
 11
-204.98359700520001
 21
197.8816698103
 31
0.0
  0
ARC
  5
188
  8
ﾚｲﾔ_1
 10
-74.183151692700008
 20
13.6380708519
 30
0.0
 40
0.8
 50
90.0
 51
180.0
  0
DIMENSION
  5
197
  8
寸法線
 62
     5
  2
*D17
 10
-65.983597005200011
 20
246.6245363264
 30
0.0
 11
-139.98359700520001
 21
246.6245363264
 31
0.0
 70
   128
  1
<>
 13
-65.983597005200011
 23
206.8816698103
 33
0.0
 14
-213.98359700520001
 24
206.8816698103
 34
0.0
  0
DIMENSION
  5
1A6
  8
寸法線
 62
     5
  2
*D18
 10
-74.983597005200011
 20
233.18564777660001
 30
0.0
 11
-139.98359700520001
 21
233.18564777660001
 31
0.0
 70
   128
  1
<>
 13
-74.983597005200011
 23
197.8816698103
 33
0.0
 14
-204.98359700520001
 24
197.8816698103
 34
0.0
  0
DIMENSION
  5
1B5
  8
寸法線
 62
     5
  2
*D19
 10
-65.983597005200011
 20
233.18564777660001
 30
0.0
 11
-70.483597005200011
 21
233.18564777660001
 31
0.0
 70
   128
  1
<>
 13
-65.983597005200011
 23
206.8816698103
 33
0.0
 14
-74.983597005200011
 24
197.8816698103
 34
0.0
  0
INSERT
  5
1B7
  8
寸法線
  2
BALLON0
 10
0.0
 20
0.0
 30
0.0
  0
INSERT
  5
1C1
  8
寸法線
  2
BALLON1
 10
0.0
 20
0.0
 30
0.0
  0
DIMENSION
  5
1D8
  8
寸法線
 62
     5
  2
*D22
 10
-204.98359700520001
 20
233.18564777660001
 30
0.0
 11
-209.48359700520001
 21
233.18564777660001
 31
0.0
 70
   128
  1
<>
 13
-204.98359700520001
 23
197.8816698103
 33
0.0
 14
-213.98359700520001
 24
206.8816698103
 34
0.0
  0
DIMENSION
  5
1E7
  8
寸法線
 62
     5
  2
*D23
 10
-18.2294771322
 20
58.881669810299996
 30
0.0
 11
-18.2294771322
 21
133.67926018520001
 31
0.0
 70
   128
  1
<>
 13
-65.983597005200011
 23
58.881669810299996
 33
0.0
 14
-65.983597005200011
 24
206.8816698103
 34
0.0
 50
90.0
  0
DIMENSION
  5
1F6
  8
寸法線
 62
     5
  2
*D24
 10
-53.983151692699998
 20
8.4380708518999992
 30
0.0
 11
-53.983151692699998
 21
11.438070851899999
 31
0.0
 70
   128
  1
<>
 13
-65.983151692700005
 23
8.4380708518999992
 33
0.0
 14
-66.783151692700002
 24
14.438070851899999
 34
0.0
 50
90.0
  0
DIMENSION
  5
205
  8
寸法線
 62
     5
  2
*D25
 10
-33.639950001999999
 20
67.881669810299996
 30
0.0
 11
-33.639950001999999
 21
132.8816698103
 31
0.0
 70
   128
  1
<>
 13
-74.983597005200011
 23
67.881669810299996
 33
0.0
 14
-74.983597005200011
 24
197.8816698103
 34
0.0
 50
90.0
  0
DIMENSION
  5
214
  8
寸法線
 62
     5
  2
*D26
 10
-33.639950001999999
 20
58.881669810299996
 30
0.0
 11
-33.639950001999999
 21
63.381669810299989
 31
0.0
 70
   128
  1
<>
 13
-65.983597005200011
 23
58.881669810299996
 33
0.0
 14
-74.983597005200011
 24
67.881669810299996
 34
0.0
 50
90.0
  0
DIMENSION
  5
223
  8
寸法線
 62
     5
  2
*D27
 10
-33.639950001999999
 20
197.8816698103
 30
0.0
 11
-33.639950001999999
 21
202.70256822389999
 31
0.0
 70
   128
  1
<>
 13
-74.983597005200011
 23
197.8816698103
 33
0.0
 14
-65.983597005200011
 24
206.8816698103
 34
0.0
 50
90.0
  0
INSERT
  5
224
  8
0
  6
CONTINUOUS
  2
*U62
 10
0.0
 20
0.0
 30
0.0
  0
INSERT
  5
225
  8
0
  6
CONTINUOUS
  2
*U63
 10
0.0
 20
0.0
 30
0.0
  0
INSERT
  5
226
  8
0
  6
CONTINUOUS
  2
*U64
 10
0.0
 20
0.0
 30
0.0
  0
INSERT
  5
227
  8
0
  6
CONTINUOUS
  2
*U65
 10
0.0
 20
0.0
 30
0.0
  0
INSERT
  5
228
  8
0
  6
CONTINUOUS
  2
*U66
 10
0.0
 20
0.0
 30
0.0
  0
INSERT
  5
229
  8
0
  6
CONTINUOUS
  2
*U67
 10
0.0
 20
0.0
 30
0.0
  0
INSERT
  5
22A
  8
0
  6
CONTINUOUS
  2
*U68
 10
0.0
 20
0.0
 30
0.0
  0
INSERT
  5
22B
  8
0
  6
CONTINUOUS
  2
*U69
 10
0.0
 20
0.0
 30
0.0
  0
INSERT
  5
22C
  8
0
  6
CONTINUOUS
  2
*U70
 10
0.0
 20
0.0
 30
0.0
  0
INSERT
  5
22D
  8
0
  6
CONTINUOUS
  2
*U71
 10
0.0
 20
0.0
 30
0.0
  0
LINE
  5
22E
  8
ﾚｲﾔ_1
 10
-103.2335970052
 20
87.131669810300011
 30
0.0
 11
-88.233597005200011
 21
87.131669810300011
 31
0.0
  0
LINE
  5
22F
  8
ﾚｲﾔ_1
 10
-103.2335970052
 20
102.1316698103
 30
0.0
 11
-88.233597005200011
 21
102.1316698103
 31
0.0
  0
ARC
  5
230
  8
ﾚｲﾔ_1
 10
-176.73359700520001
 20
98.631669810300011
 30
0.0
 40
3.5
 50
270.0
 51
90.0
  0
ARC
  5
231
  8
ﾚｲﾔ_1
 10
-77.733151692700005
 20
11.438070851899999
 30
0.0
 40
2.0
 50
0.0
 51
90.0
  0
LINE
  5
232
  8
ﾚｲﾔ_1
 10
-66.783151692700002
 20
8.4380708518999992
 30
0.0
 11
-65.983151692700005
 21
8.4380708518999992
 31
0.0
  0
LINE
  5
233
  8
ﾚｲﾔ_1
 10
-66.783151692700002
 20
13.6380708519
 30
0.0
 11
-66.783151692700002
 21
8.4380708518999992
 31
0.0
  0
LINE
  5
234
  8
ﾚｲﾔ_1
 10
-74.183151692700008
 20
13.6380708519
 30
0.0
 11
-66.783151692700002
 21
13.6380708519
 31
0.0
  0
ARC
  5
235
  8
ﾚｲﾔ_1
 10
-66.783151692700002
 20
13.6380708519
 30
0.0
 40
0.8
 50
0.0
 51
90.0
  0
LINE
  5
236
  8
ﾚｲﾔ_1
 10
-65.983151692700005
 20
8.4380708518999992
 30
0.0
 11
-65.983151692700005
 21
13.6380708519
 31
0.0
  0
LINE
  5
237
  8
ﾚｲﾔ_1
 10
-74.183151692700008
 20
14.438070851899999
 30
0.0
 11
-139.98359700520001
 21
14.438070851899999
 31
0.0
  0
LINE
  5
238
  8
ﾚｲﾔ_1
 10
-139.98359700520001
 20
13.438070851899999
 30
0.0
 11
-77.733151692700005
 21
13.438070851899999
 31
0.0
  0
LINE
  5
239
  8
ﾚｲﾔ_1
 10
-78.233151692700005
 20
11.438070851899999
 30
0.0
 11
-139.98359700520001
 21
11.438070851899999
 31
0.0
  0
ARC
  5
23A
  8
ﾚｲﾔ_1
 10
-88.233597005200011
 20
182.1316698103
 30
0.0
 40
3.5
 50
270.0
 51
90.0
  0
ARC
  5
23B
  8
ﾚｲﾔ_1
 10
-88.233597005200011
 20
83.631669810299996
 30
0.0
 40
3.5
 50
270.0
 51
90.0
  0
ARC
  5
23C
  8
ﾚｲﾔ_1
 10
-88.233597005200011
 20
98.631669810300011
 30
0.0
 40
3.5
 50
270.0
 51
90.0
  0
LINE
  5
23D
  8
ﾚｲﾔ_1
 10
-74.983597005200011
 20
67.881669810299996
 30
0.0
 11
-204.98359700520001
 21
67.881669810299996
 31
0.0
  0
LINE
  5
23E
  8
ﾚｲﾔ_1
 10
-204.98359700520001
 20
197.8816698103
 30
0.0
 11
-74.983597005200011
 21
197.8816698103
 31
0.0
  0
LINE
  5
23F
  8
ﾚｲﾔ_1
 10
-65.983597005200011
 20
58.881669810299996
 30
0.0
 11
-213.98359700520001
 21
58.881669810299996
 31
0.0
  0
LINE
  5
240
  8
ﾚｲﾔ_1
 10
-213.98359700520001
 20
206.8816698103
 30
0.0
 11
-65.983597005200011
 21
206.8816698103
 31
0.0
  0
LINE
  5
241
  8
ﾚｲﾔ_1
  6
BORDER
 62
     3
 10
-218.98359700520001
 20
132.8816698103
 30
0.0
 11
-60.983597005199996
 21
132.8816698103
 31
0.0
  0
LINE
  5
242
  8
ﾚｲﾔ_1
  6
HIDDEN
 62
     1
 10
-202.48359700520001
 20
70.381669810299996
 30
0.0
 11
-77.483597005200011
 21
70.381669810299996
 31
0.0
  0
LINE
  5
243
  8
ﾚｲﾔ_1
  6
HIDDEN
 62
     1
 10
-202.48359700520001
 20
195.3816698103
 30
0.0
 11
-77.483597005200011
 21
195.3816698103
 31
0.0
  0
LINE
  5
244
  8
ﾚｲﾔ_1
 10
-202.48359700520001
 20
68.381669810299996
 30
0.0
 11
-77.483597005200011
 21
68.381669810299996
 31
0.0
  0
LINE
  5
245
  8
ﾚｲﾔ_1
 10
-202.48359700520001
 20
197.3816698103
 30
0.0
 11
-77.483597005200011
 21
197.3816698103
 31
0.0
  0
LINE
  5
246
  8
ﾚｲﾔ_1
  6
HIDDEN
 62
     1
 10
-202.48359700520001
 20
195.3816698103
 30
0.0
 11
-202.48359700520001
 21
70.381669810299996
 31
0.0
  0
LINE
  5
247
  8
ﾚｲﾔ_1
 10
-202.48359700520001
 20
70.381669810299996
 30
0.0
 11
-204.48359700520001
 21
70.381669810299996
 31
0.0
  0
LINE
  5
248
  8
ﾚｲﾔ_1
 10
-132.0597428385
 20
102.1325129092
 30
0.0
 11
-147.0597428385
 21
102.1325129092
 31
0.0
  0
LINE
  5
249
  8
ﾚｲﾔ_1
 10
-147.0597428385
 20
95.132512909200017
 30
0.0
 11
-132.0597428385
 21
95.132512909200017
 31
0.0
  0
LINE
  5
24A
  8
ﾚｲﾔ_1
 10
-66.783151692700002
 20
8.4380708518999992
 30
0.0
 11
-74.183151692700008
 21
8.4380708518999992
 31
0.0
  0
LINE
  5
24B
  8
ﾚｲﾔ_1
 10
-66.783151692700002
 20
14.438070851899999
 30
0.0
 11
-74.183151692700008
 21
14.438070851899999
 31
0.0
  0
LINE
  5
24C
  8
ﾚｲﾔ_1
 10
-78.233151692700005
 20
11.438070851899999
 30
0.0
 11
-77.733151692700005
 21
11.438070851899999
 31
0.0
  0
LINE
  5
24D
  8
ﾚｲﾔ_1
 10
-77.733151692700005
 20
10.938070851899999
 30
0.0
 11
-77.733151692700005
 21
11.438070851899999
 31
0.0
  0
ARC
  5
24E
  8
ﾚｲﾔ_1
 10
-132.0597428385
 20
83.632512909200003
 30
0.0
 40
3.5
 50
270.0
 51
90.0
  0
ARC
  5
24F
  8
ﾚｲﾔ_1
 10
-147.0597428385
 20
98.632512909200003
 30
0.0
 40
3.5
 50
90.0
 51
270.0
  0
LINE
  5
250
  8
ﾚｲﾔ_1
 10
-132.0597428385
 20
144.38251290919999
 30
0.0
 11
-147.0597428385
 21
144.38251290919999
 31
0.0
  0
LINE
  5
251
  8
ﾚｲﾔ_1
 10
-147.0597428385
 20
185.63251290919999
 30
0.0
 11
-132.0597428385
 21
185.63251290919999
 31
0.0
  0
ARC
  5
252
  8
ﾚｲﾔ_1
 10
-132.0597428385
 20
182.13251290919999
 30
0.0
 40
3.5
 50
270.0
 51
90.0
  0
ARC
  5
253
  8
ﾚｲﾔ_1
 10
-147.0597428385
 20
167.13251290919999
 30
0.0
 40
3.5
 50
90.0
 51
270.0
  0
ARC
  5
254
  8
ﾚｲﾔ_1
 10
-147.0597428385
 20
117.8825129092
 30
0.0
 40
3.5
 50
90.0
 51
270.0
  0
LINE
  5
255
  8
ﾚｲﾔ_1
 10
-132.0597428385
 20
114.3825129092
 30
0.0
 11
-147.0597428385
 21
114.3825129092
 31
0.0
  0
ARC
  5
256
  8
ﾚｲﾔ_1
 10
-132.0597428385
 20
117.8825129092
 30
0.0
 40
3.5
 50
270.0
 51
90.0
  0
LINE
  5
257
  8
ﾚｲﾔ_1
  6
BORDER
 62
     3
 10
-139.98359700520001
 20
211.8816698103
 30
0.0
 11
-139.98359700520001
 21
53.881669810299996
 31
0.0
  0
LINE
  5
258
  8
ﾚｲﾔ_1
 10
-65.983597005200011
 20
206.8816698103
 30
0.0
 11
-65.983597005200011
 21
58.881669810299996
 31
0.0
  0
LINE
  5
259
  8
ﾚｲﾔ_1
 10
-74.983597005200011
 20
197.8816698103
 30
0.0
 11
-74.983597005200011
 21
67.881669810299996
 31
0.0
  0
LINE
  5
25A
  8
ﾚｲﾔ_1
  6
HIDDEN
 62
     1
 10
-77.483597005200011
 20
195.3816698103
 30
0.0
 11
-77.483597005200011
 21
70.381669810299996
 31
0.0
  0
LINE
  5
25B
  8
ﾚｲﾔ_1
 10
-75.483597005200011
 20
195.3816698103
 30
0.0
 11
-75.483597005200011
 21
70.381669810299996
 31
0.0
  0
ARC
  5
25C
  8
ﾚｲﾔ_1
 10
-103.2335970052
 20
98.631669810300011
 30
0.0
 40
3.5
 50
90.0
 51
270.0
  0
LINE
  5
25D
  8
ﾚｲﾔ_1
 10
-88.233597005200011
 20
95.131669810300025
 30
0.0
 11
-103.2335970052
 21
95.131669810300025
 31
0.0
  0
ARC
  5
25E
  8
ﾚｲﾔ_1
 10
-103.2335970052
 20
83.631669810299996
 30
0.0
 40
3.5
 50
90.0
 51
270.0
  0
LINE
  5
25F
  8
ﾚｲﾔ_1
 10
-88.233597005200011
 20
80.131669810299996
 30
0.0
 11
-103.2335970052
 21
80.131669810299996
 31
0.0
  0
LINE
  5
260
  8
ﾚｲﾔ_1
 10
-191.73359700520001
 20
170.6316698103
 30
0.0
 11
-176.73359700520001
 21
170.6316698103
 31
0.0
  0
LINE
  5
261
  8
ﾚｲﾔ_1
 10
-176.73359700520001
 20
163.6316698103
 30
0.0
 11
-191.73359700520001
 21
163.6316698103
 31
0.0
  0
ARC
  5
262
  8
ﾚｲﾔ_1
 10
-191.73359700520001
 20
167.1316698103
 30
0.0
 40
3.5
 50
90.0
 51
270.0
  0
ARC
  5
263
  8
ﾚｲﾔ_1
 10
-176.73359700520001
 20
83.631669810299996
 30
0.0
 40
3.5
 50
270.0
 51
90.0
  0
LINE
  5
264
  8
ﾚｲﾔ_1
 10
-191.73359700520001
 20
80.131669810299996
 30
0.0
 11
-176.73359700520001
 21
80.131669810299996
 31
0.0
  0
LINE
  5
265
  8
ﾚｲﾔ_1
 10
-176.73359700520001
 20
87.131669810300011
 30
0.0
 11
-191.73359700520001
 21
87.131669810300011
 31
0.0
  0
ARC
  5
266
  8
ﾚｲﾔ_1
 10
-88.233597005200011
 20
167.1316698103
 30
0.0
 40
3.5
 50
270.0
 51
90.0
  0
LINE
  5
267
  8
ﾚｲﾔ_1
 10
-147.0597428385
 20
151.38251290919999
 30
0.0
 11
-132.0597428385
 21
151.38251290919999
 31
0.0
  0
ARC
  5
268
  8
ﾚｲﾔ_1
 10
-132.0597428385
 20
147.8825129091999
 30
0.0
 40
3.5
 50
270.0
 51
90.0
  0
LINE
  5
269
  8
ﾚｲﾔ_1
 10
-147.0597428385
 20
121.3825129092
 30
0.0
 11
-132.0597428385
 21
121.3825129092
 31
0.0
  0
ARC
  5
26A
  8
ﾚｲﾔ_1
 10
-132.0597428385
 20
132.88251290919999
 30
0.0
 40
3.5
 50
270.0
 51
90.0
  0
ARC
  5
26B
  8
ﾚｲﾔ_1
 10
-147.0597428385
 20
182.13251290919999
 30
0.0
 40
3.5
 50
90.0
 51
270.0
  0
LINE
  5
26C
  8
ﾚｲﾔ_1
 10
-132.0597428385
 20
178.63251290919999
 30
0.0
 11
-147.0597428385
 21
178.63251290919999
 31
0.0
  0
LINE
  5
26D
  8
ﾚｲﾔ_1
 10
-132.0597428385
 20
163.63251290919999
 30
0.0
 11
-147.0597428385
 21
163.63251290919999
 31
0.0
  0
LINE
  5
26E
  8
ﾚｲﾔ_1
 10
-147.0597428385
 20
170.63251290919999
 30
0.0
 11
-132.0597428385
 21
170.63251290919999
 31
0.0
  0
ARC
  5
26F
  8
ﾚｲﾔ_1
 10
-132.0597428385
 20
167.13251290919999
 30
0.0
 40
3.5
 50
270.0
 51
90.0
  0
ARC
  5
270
  8
ﾚｲﾔ_1
 10
-147.0597428385
 20
132.88251290919999
 30
0.0
 40
3.5
 50
90.0
 51
270.0
  0
LINE
  5
271
  8
ﾚｲﾔ_1
 10
-132.0597428385
 20
129.38251290919999
 30
0.0
 11
-147.0597428385
 21
129.38251290919999
 31
0.0
  0
LINE
  5
272
  8
ﾚｲﾔ_1
 10
-147.0597428385
 20
136.38251290919999
 30
0.0
 11
-132.0597428385
 21
136.38251290919999
 31
0.0
  0
ARC
  5
273
  8
ﾚｲﾔ_1
 10
-147.0597428385
 20
147.8825129091999
 30
0.0
 40
3.5
 50
90.0
 51
270.0
  0
LINE
  5
274
  8
ﾚｲﾔ_1
 10
-191.73359700520001
 20
95.131669810300025
 30
0.0
 11
-176.73359700520001
 21
95.131669810300025
 31
0.0
  0
LINE
  5
275
  8
ﾚｲﾔ_1
 10
-176.73359700520001
 20
102.1316698103
 30
0.0
 11
-191.73359700520001
 21
102.1316698103
 31
0.0
  0
ARC
  5
276
  8
ﾚｲﾔ_1
 10
-191.73359700520001
 20
98.631669810300011
 30
0.0
 40
3.5
 50
90.0
 51
270.0
  0
ARC
  5
277
  8
ﾚｲﾔ_1
 10
-191.73359700520001
 20
83.631669810299996
 30
0.0
 40
3.5
 50
90.0
 51
270.0
  0
LINE
  5
278
  8
ﾚｲﾔ_1
 10
-202.48359700520001
 20
70.381669810299996
 30
0.0
 11
-202.48359700520001
 21
68.381669810299996
 31
0.0
  0
CIRCLE
  5
279
  8
ﾚｲﾔ_1
 10
-184.23359700520001
 20
132.8816698103
 30
0.0
 40
7.5
  0
LINE
  5
27A
  8
ﾚｲﾔ_1
 10
-202.48359700520001
 20
195.3816698103
 30
0.0
 11
-202.48359700520001
 21
197.3816698103
 31
0.0
  0
LINE
  5
27B
  8
ﾚｲﾔ_1
 10
-202.48359700520001
 20
195.3816698103
 30
0.0
 11
-204.48359700520001
 21
195.3816698103
 31
0.0
  0
ARC
  5
27C
  8
ﾚｲﾔ_1
 10
-132.0597428385
 20
98.632512909200003
 30
0.0
 40
3.5
 50
270.0
 51
90.0
  0
ARC
  5
27D
  8
ﾚｲﾔ_1
 10
-147.0597428385
 20
83.632512909200003
 30
0.0
 40
3.5
 50
90.0
 51
270.0
  0
LINE
  5
27E
  8
ﾚｲﾔ_1
 10
-132.0597428385
 20
87.132512909200003
 30
0.0
 11
-147.0597428385
 21
87.132512909200003
 31
0.0
  0
LINE
  5
27F
  8
ﾚｲﾔ_1
 10
-147.0597428385
 20
80.132512909200017
 30
0.0
 11
-132.0597428385
 21
80.132512909200017
 31
0.0
  0
LINE
  5
280
  8
ﾚｲﾔ_1
 10
-77.483597005200011
 20
70.381669810299996
 30
0.0
 11
-77.483597005200011
 21
68.381669810299996
 31
0.0
  0
LINE
  5
281
  8
ﾚｲﾔ_1
 10
-77.483597005200011
 20
195.3816698103
 30
0.0
 11
-77.483597005200011
 21
197.3816698103
 31
0.0
  0
LINE
  5
282
  8
ﾚｲﾔ_1
 10
-77.483597005200011
 20
195.3816698103
 30
0.0
 11
-75.483597005200011
 21
195.3816698103
 31
0.0
  0
LINE
  5
283
  8
ﾚｲﾔ_1
 10
-77.483597005200011
 20
70.381669810299996
 30
0.0
 11
-75.483597005200011
 21
70.381669810299996
 31
0.0
  0
LINE
  5
284
  8
ﾚｲﾔ_1
  6
BORDER
 62
     3
 10
-95.733597005200011
 20
145.3816698103
 30
0.0
 11
-95.733597005200011
 21
120.3816698103
 31
0.0
  0
ARC
  5
285
  8
ﾚｲﾔ_1
 10
-103.2335970052
 20
167.1316698103
 30
0.0
 40
3.5
 50
90.0
 51
270.0
  0
LINE
  5
286
  8
ﾚｲﾔ_1
 10
-88.233597005200011
 20
170.6316698103
 30
0.0
 11
-103.2335970052
 21
170.6316698103
 31
0.0
  0
LINE
  5
287
  8
ﾚｲﾔ_1
 10
-103.2335970052
 20
163.6316698103
 30
0.0
 11
-88.233597005200011
 21
163.6316698103
 31
0.0
  0
ARC
  5
288
  8
ﾚｲﾔ_1
 10
-103.2335970052
 20
182.1316698103
 30
0.0
 40
3.5
 50
90.0
 51
270.0
  0
LINE
  5
289
  8
ﾚｲﾔ_1
 10
-88.233597005200011
 20
185.6316698103
 30
0.0
 11
-103.2335970052
 21
185.6316698103
 31
0.0
  0
LINE
  5
28A
  8
ﾚｲﾔ_1
 10
-103.2335970052
 20
178.6316698103
 30
0.0
 11
-88.233597005200011
 21
178.6316698103
 31
0.0
  0
CIRCLE
  5
28B
  8
ﾚｲﾔ_1
 10
-95.733597005200011
 20
132.8816698103
 30
0.0
 40
7.5
  0
LINE
  5
28C
  8
ﾚｲﾔ_1
  6
BORDER
 62
     3
 10
-184.23359700520001
 20
145.3816698103
 30
0.0
 11
-184.23359700520001
 21
120.3816698103
 31
0.0
  0
ARC
  5
28D
  8
ﾚｲﾔ_1
 10
-176.73359700520001
 20
182.1316698103
 30
0.0
 40
3.5
 50
270.0
 51
90.0
  0
LINE
  5
28E
  8
ﾚｲﾔ_1
 10
-191.73359700520001
 20
185.6316698103
 30
0.0
 11
-176.73359700520001
 21
185.6316698103
 31
0.0
  0
LINE
  5
28F
  8
ﾚｲﾔ_1
 10
-176.73359700520001
 20
178.6316698103
 30
0.0
 11
-191.73359700520001
 21
178.6316698103
 31
0.0
  0
ARC
  5
290
  8
ﾚｲﾔ_1
 10
-191.73359700520001
 20
182.1316698103
 30
0.0
 40
3.5
 50
90.0
 51
270.0
  0
ARC
  5
291
  8
ﾚｲﾔ_1
 10
-176.73359700520001
 20
167.1316698103
 30
0.0
 40
3.5
 50
270.0
 51
90.0
  0
ARC
  5
292
  8
ﾚｲﾔ_1
 10
-241.49943464419999
 20
-105.3429846734
 30
0.0
 40
3.5
 50
270.0
 51
90.0
  0
LINE
  5
293
  8
ﾚｲﾔ_1
  6
HIDDEN
 62
     1
 10
-267.24943464419999
 20
-77.092984673399997
 30
0.0
 11
-267.24943464419999
 21
-202.0929846734
 31
0.0
  0
LINE
  5
294
  8
ﾚｲﾔ_1
 10
-269.24943464419999
 20
-77.092984673399997
 30
0.0
 11
-269.24943464419999
 21
-202.0929846734
 31
0.0
  0
LINE
  5
295
  8
ﾚｲﾔ_1
 62
     5
 10
-70.708678412500007
 20
-202.0929846734
 30
0.0
 11
-58.708678412499992
 21
-202.0929846734
 31
0.0
  0
ARC
  5
296
  8
ﾚｲﾔ_1
 62
     5
 10
-70.708678412500007
 20
-202.0929846734
 30
0.0
 40
2.0
 50
180.0
 51
270.00001020809998
  0
LINE
  5
297
  8
ﾚｲﾔ_1
 62
     5
 10
-70.7086780562
 20
-204.0929846734
 30
0.0
 11
-58.708678412499992
 21
-204.0929846734
 31
0.0
  0
LINE
  5
298
  8
ﾚｲﾔ_1
  6
BORDER
 62
     3
 10
-78.708678412500007
 20
-139.5929846734
 30
0.0
 11
-53.708678412499992
 21
-139.5929846734
 31
0.0
  0
DIMENSION
  5
2A7
  8
寸法線
 62
     5
  2
*D28
 10
-225.49943464419999
 20
-177.3429846734
 30
0.0
 11
-225.49943464419999
 21
-173.8429846734
 31
0.0
 70
   128
  1
<>
 13
-241.49943464419999
 23
-177.3429846734
 33
0.0
 14
-241.49943464419999
 24
-170.3429846734
 34
0.0
 50
90.0
  0
DIMENSION
  5
2B7
  8
寸法線
 62
     5
  2
*D29
 10
-269.24943464419999
 20
-222.0929846734
 30
0.0
 11
-259.12443464419999
 21
-222.0929846734
 31
0.0
 70
   128
  1
<>
 13
-269.24943464419999
 23
-202.0929846734
 33
0.0
 14
-248.99943464419999
 24
-192.3429846734
 34
0.0
 50
180.0
  0
DIMENSION
  5
2C6
  8
寸法線
 62
     5
  2
*D30
 10
-248.99943464419999
 20
-222.0929846734
 30
0.0
 11
-226.87443464419999
 21
-222.0929846734
 31
0.0
 70
   128
  1
<>
 13
-248.99943464419999
 23
-192.3429846734
 33
0.0
 14
-204.74943464419999
 24
-209.0929846734
 34
0.0
 50
180.0
  0
DIMENSION
  5
2D5
  8
寸法線
 62
     5
  2
*D31
 10
-204.74943464419999
 20
-222.0929846734
 30
0.0
 11
-182.62443464419999
 21
-222.0929846734
 31
0.0
 70
   128
  1
<>
 13
-204.74943464419999
 23
-209.0929846734
 33
0.0
 14
-160.49943464419999
 24
-192.3429846734
 34
0.0
 50
180.0
  0
DIMENSION
  5
2E4
  8
寸法線
 62
     5
  2
*D32
 10
-160.49943464419999
 20
-222.0929846734
 30
0.0
 11
-150.37443464419999
 21
-222.0929846734
 31
0.0
 70
   128
  1
<>
 13
-160.49943464419999
 23
-192.3429846734
 33
0.0
 14
-140.24943464419999
 24
-202.0929846734
 34
0.0
 50
180.0
  0
DIMENSION
  5
2F3
  8
寸法線
 62
     5
  2
*D33
 10
-118.1305133643
 20
-90.342984673399997
 30
0.0
 11
-118.1305133643
 21
-82.717984673399997
 31
0.0
 70
   128
  1
<>
 13
-149.49943464419999
 23
-90.342984673399997
 33
0.0
 14
-142.24943464419999
 24
-75.092984673399997
 34
0.0
 50
90.0
  0
DIMENSION
  5
302
  8
寸法線
 62
     5
  2
*D34
 10
-118.1305133643
 20
-105.3429846734
 30
0.0
 11
-118.1305133643
 21
-97.842984673400011
 31
0.0
 70
   128
  1
<>
 13
-149.49943464419999
 23
-105.3429846734
 33
0.0
 14
-149.49943464419999
 24
-90.342984673399997
 34
0.0
 50
90.0
  0
DIMENSION
  5
311
  8
寸法線
 62
     5
  2
*D35
 10
-118.1305133643
 20
-124.5921415745
 30
0.0
 11
-118.1305133643
 21
-114.96756312390001
 31
0.0
 70
   128
  1
<>
 13
-193.32558047750001
 23
-124.5921415745
 33
0.0
 14
-149.49943464419999
 24
-105.3429846734
 34
0.0
 50
90.0
  0
DIMENSION
  5
320
  8
寸法線
 62
     5
  2
*D36
 10
-118.1305133643
 20
-139.5929846734
 30
0.0
 11
-118.1305133643
 21
-132.09256312389999
 31
0.0
 70
   128
  1
<>
 13
-135.24943464419999
 23
-139.5929846734
 33
0.0
 14
-193.32558047750001
 24
-124.5921415745
 34
0.0
 50
90.0
  0
DIMENSION
  5
32F
  8
寸法線
 62
     5
  2
*D37
 10
-118.1305133643
 20
-154.5921415745
 30
0.0
 11
-118.1305133643
 21
-147.09256312389999
 31
0.0
 70
   128
  1
<>
 13
-193.32558047750001
 23
-154.5921415745
 33
0.0
 14
-135.24943464419999
 24
-139.5929846734
 34
0.0
 50
90.0
  0
DIMENSION
  5
33E
  8
寸法線
 62
     5
  2
*D38
 10
-118.1305133643
 20
-173.8429846734
 30
0.0
 11
-118.1305133643
 21
-164.21756312389999
 31
0.0
 70
   128
  1
<>
 13
-149.49943464419999
 23
-173.8429846734
 33
0.0
 14
-193.32558047750001
 24
-154.5921415745
 34
0.0
 50
90.0
  0
DIMENSION
  5
34D
  8
寸法線
 62
     5
  2
*D39
 10
-118.1305133643
 20
-188.8429846734
 30
0.0
 11
-118.1305133643
 21
-181.3429846734
 31
0.0
 70
   128
  1
<>
 13
-149.49943464419999
 23
-188.8429846734
 33
0.0
 14
-149.49943464419999
 24
-173.8429846734
 34
0.0
 50
90.0
  0
DIMENSION
  5
35C
  8
寸法線
 62
     5
  2
*D40
 10
-118.1305133643
 20
-204.0929846734
 30
0.0
 11
-118.1305133643
 21
-196.4679846734
 31
0.0
 70
   128
  1
<>
 13
-142.24943464419999
 23
-204.0929846734
 33
0.0
 14
-149.49943464419999
 24
-188.8429846734
 34
0.0
 50
90.0
  0
DIMENSION
  5
36B
  8
寸法線
 62
     5
  2
*D41
 10
-105.1100913825
 20
-204.0929846734
 30
0.0
 11
-105.1100913825
 21
-139.5929846734
 31
0.0
 70
   128
  1
<>
 13
-142.24943464419999
 23
-204.0929846734
 33
0.0
 14
-142.24943464419999
 24
-75.092984673399997
 34
0.0
 50
90.0
  0
DIMENSION
  5
37A
  8
寸法線
 62
     5
  2
*D42
 10
-237.99943464419999
 20
-161.10307550140001
 30
0.0
 11
-248.99943464419999
 21
-161.10307550140001
 31
0.0
 70
   128
  1
<>
 13
-237.99943464419999
 23
-173.8429846734
 33
0.0
 14
-259.99943464419999
 24
-173.8429846734
 34
0.0
  0
DIMENSION
  5
389
  8
寸法線
 62
     5
  2
*D43
 10
-58.708678412499992
 20
-56.233453270799998
 30
0.0
 11
-65.708678412500007
 21
-56.233453270799998
 31
0.0
 70
   128
  1
<>
 13
-58.708678412499992
 23
-75.092984673399997
 33
0.0
 14
-72.708678412500007
 24
-77.092986022799991
 34
0.0
  0
DIMENSION
  5
398
  8
寸法線
 62
     5
  2
*D44
 10
-140.24943464419999
 20
-52.085816857299989
 30
0.0
 11
-204.74943464419999
 21
-52.085816857299989
 31
0.0
 70
   128
  1
<>
 13
-140.24943464419999
 23
-77.092984673399997
 33
0.0
 14
-269.24943464419999
 24
-77.092984673399997
 34
0.0
  0
DIMENSION
  5
3A7
  8
寸法線
 62
     5
  2
*D45
 10
-53.983151692699998
 20
-15.561929148100001
 30
0.0
 11
-53.983151692699998
 21
-12.561929148100001
 31
0.0
 70
   128
  1
<>
 13
-66.783151692700002
 23
-15.561929148100001
 33
0.0
 14
-65.983151692700005
 24
-9.5619291480999991
 34
0.0
 50
90.0
  0
LINE
  5
3A8
  8
ﾚｲﾔ_1
 10
-211.82558047750001
 20
-177.3421415745
 30
0.0
 11
-196.82558047750001
 21
-177.3421415745
 31
0.0
  0
LINE
  5
3A9
  8
ﾚｲﾔ_1
 10
-196.82558047750001
 20
-170.3421415745
 30
0.0
 11
-211.82558047750001
 21
-170.3421415745
 31
0.0
  0
ARC
  5
3AA
  8
ﾚｲﾔ_1
 10
-211.82558047750001
 20
-124.5921415745
 30
0.0
 40
3.5
 50
90.0
 51
270.0
  0
LINE
  5
3AB
  8
ﾚｲﾔ_1
 10
-211.82558047750001
 20
-136.0921415745
 30
0.0
 11
-196.82558047750001
 21
-136.0921415745
 31
0.0
  0
LINE
  5
3AC
  8
ﾚｲﾔ_1
 10
-196.82558047750001
 20
-143.0921415745
 30
0.0
 11
-211.82558047750001
 21
-143.0921415745
 31
0.0
  0
ARC
  5
3AD
  8
ﾚｲﾔ_1
 10
-211.82558047750001
 20
-139.5921415745
 30
0.0
 40
3.5
 50
90.0
 51
270.0
  0
ARC
  5
3AE
  8
ﾚｲﾔ_1
 10
-196.82558047750001
 20
-139.5921415745
 30
0.0
 40
3.5
 50
270.0
 51
90.0
  0
LINE
  5
3AF
  8
ﾚｲﾔ_1
 10
-211.82558047750001
 20
-151.0921415745
 30
0.0
 11
-196.82558047750001
 21
-151.0921415745
 31
0.0
  0
ARC
  5
3B0
  8
ﾚｲﾔ_1
 10
-196.82558047750001
 20
-124.5921415745
 30
0.0
 40
3.5
 50
270.0
 51
90.0
  0
ARC
  5
3B1
  8
ﾚｲﾔ_1
 10
-152.99943464419999
 20
-173.8429846734
 30
0.0
 40
3.5
 50
270.0
 51
90.0
  0
ARC
  5
3B2
  8
ﾚｲﾔ_1
 10
-152.99943464419999
 20
-188.8429846734
 30
0.0
 40
3.5
 50
270.0
 51
90.0
  0
LINE
  5
3B3
  8
ﾚｲﾔ_1
 10
-167.99943464419999
 20
-170.3429846734
 30
0.0
 11
-152.99943464419999
 21
-170.3429846734
 31
0.0
  0
LINE
  5
3B4
  8
ﾚｲﾔ_1
 62
     5
 10
-72.708678412500007
 20
-77.092986022799991
 30
0.0
 11
-72.708678412500007
 21
-202.0929846734
 31
0.0
  0
LINE
  5
3B5
  8
ﾚｲﾔ_1
 62
     5
 10
-70.708678412500007
 20
-202.0929846734
 30
0.0
 11
-70.708678412500007
 21
-77.092984673399997
 31
0.0
  0
ARC
  5
3B6
  8
ﾚｲﾔ_1
 10
-152.99943464419999
 20
-105.3429846734
 30
0.0
 40
3.5
 50
270.0
 51
90.0
  0
LINE
  5
3B7
  8
ﾚｲﾔ_1
 10
-167.99943464419999
 20
-108.8429846734
 30
0.0
 11
-152.99943464419999
 21
-108.8429846734
 31
0.0
  0
ARC
  5
3B8
  8
ﾚｲﾔ_1
 10
-167.99943464419999
 20
-105.3429846734
 30
0.0
 40
3.5
 50
90.0
 51
270.0
  0
ARC
  5
3B9
  8
ﾚｲﾔ_1
 10
-196.82558047750001
 20
-105.3421415745
 30
0.0
 40
3.5
 50
270.0
 51
90.0
  0
LINE
  5
3BA
  8
ﾚｲﾔ_1
 10
-196.82558047750001
 20
-108.8421415745
 30
0.0
 11
-211.82558047750001
 21
-108.8421415745
 31
0.0
  0
ARC
  5
3BB
  8
ﾚｲﾔ_1
 10
-211.82558047750001
 20
-105.3421415745
 30
0.0
 40
3.5
 50
90.0
 51
270.0
  0
LINE
  5
3BC
  8
ﾚｲﾔ_1
  6
BORDER
 62
     3
 10
-204.74943464419999
 20
-70.092984673399997
 30
0.0
 11
-204.74943464419999
 21
-209.0929846734
 31
0.0
  0
LINE
  5
3BD
  8
ﾚｲﾔ_1
 10
-140.24943464419999
 20
-77.092984673399997
 30
0.0
 11
-140.24943464419999
 21
-202.0929846734
 31
0.0
  0
LINE
  5
3BE
  8
ﾚｲﾔ_1
  6
HIDDEN
 62
     1
 10
-142.24943464419999
 20
-77.092984673399997
 30
0.0
 11
-142.24943464419999
 21
-202.0929846734
 31
0.0
  0
ARC
  5
3BF
  8
ﾚｲﾔ_1
 10
-256.49943464419999
 20
-105.3429846734
 30
0.0
 40
3.5
 50
90.0
 51
270.0
  0
LINE
  5
3C0
  8
ﾚｲﾔ_1
 10
-241.49943464419999
 20
-108.8429846734
 30
0.0
 11
-256.49943464419999
 21
-108.8429846734
 31
0.0
  0
LINE
  5
3C1
  8
ﾚｲﾔ_1
 10
-196.82558047750001
 20
-158.0921415745
 30
0.0
 11
-211.82558047750001
 21
-158.0921415745
 31
0.0
  0
ARC
  5
3C2
  8
ﾚｲﾔ_1
 10
-211.82558047750001
 20
-154.5921415745
 30
0.0
 40
3.5
 50
90.0
 51
270.0
  0
LINE
  5
3C3
  8
ﾚｲﾔ_1
 10
-196.82558047750001
 20
-128.0921415745
 30
0.0
 11
-211.82558047750001
 21
-128.0921415745
 31
0.0
  0
ARC
  5
3C4
  8
ﾚｲﾔ_1
 10
-211.82558047750001
 20
-173.8421415745
 30
0.0
 40
3.5
 50
90.0
 51
270.0
  0
CIRCLE
  5
3C5
  8
ﾚｲﾔ_1
 10
-248.99943464419999
 20
-139.5929846734
 30
0.0
 40
7.5
  0
LINE
  5
3C6
  8
ﾚｲﾔ_1
 10
-241.49943464419999
 20
-185.3429846734
 30
0.0
 11
-256.49943464419999
 21
-185.3429846734
 31
0.0
  0
LINE
  5
3C7
  8
ﾚｲﾔ_1
  6
BORDER
 62
     3
 10
-248.99943464419999
 20
-127.0929846734
 30
0.0
 11
-248.99943464419999
 21
-152.0929846734
 31
0.0
  0
LINE
  5
3C8
  8
ﾚｲﾔ_1
 10
-267.24943464419999
 20
-204.0929846734
 30
0.0
 11
-142.24943464419999
 21
-204.0929846734
 31
0.0
  0
LINE
  5
3C9
  8
ﾚｲﾔ_1
  6
HIDDEN
 62
     1
 10
-267.24943464419999
 20
-202.0929846734
 30
0.0
 11
-142.24943464419999
 21
-202.0929846734
 31
0.0
  0
LINE
  5
3CA
  8
ﾚｲﾔ_1
 10
-267.24943464419999
 20
-202.0929846734
 30
0.0
 11
-269.24943464419999
 21
-202.0929846734
 31
0.0
  0
LINE
  5
3CB
  8
ﾚｲﾔ_1
 10
-267.24943464419999
 20
-202.0929846734
 30
0.0
 11
-267.24943464419999
 21
-204.0929846734
 31
0.0
  0
ARC
  5
3CC
  8
ﾚｲﾔ_1
 10
-256.49943464419999
 20
-188.8429846734
 30
0.0
 40
3.5
 50
90.0
 51
270.0
  0
ARC
  5
3CD
  8
ﾚｲﾔ_1
 10
-256.49943464419999
 20
-173.8429846734
 30
0.0
 40
3.5
 50
90.0
 51
270.0
  0
LINE
  5
3CE
  8
ﾚｲﾔ_1
 10
-241.49943464419999
 20
-170.3429846734
 30
0.0
 11
-256.49943464419999
 21
-170.3429846734
 31
0.0
  0
LINE
  5
3CF
  8
ﾚｲﾔ_1
 62
     5
 10
-58.708678412499992
 20
-204.0929846734
 30
0.0
 11
-58.708678412499992
 21
-202.0929846734
 31
0.0
  0
ARC
  5
3D0
  8
ﾚｲﾔ_1
 10
-211.82558047750001
 20
-188.8421415745
 30
0.0
 40
3.5
 50
90.0
 51
270.0
  0
ARC
  5
3D1
  8
ﾚｲﾔ_1
 10
-196.82558047750001
 20
-173.8421415745
 30
0.0
 40
3.5
 50
270.0
 51
90.0
  0
LINE
  5
3D2
  8
ﾚｲﾔ_1
 10
-211.82558047750001
 20
-121.0921415745
 30
0.0
 11
-196.82558047750001
 21
-121.0921415745
 31
0.0
  0
CIRCLE
  5
3D3
  8
ﾚｲﾔ_1
 10
-160.49943464419999
 20
-139.5929846734
 30
0.0
 40
7.5
  0
LINE
  5
3D4
  8
ﾚｲﾔ_1
  6
BORDER
 62
     3
 10
-160.49943464419999
 20
-127.0929846734
 30
0.0
 11
-160.49943464419999
 21
-152.0929846734
 31
0.0
  0
LINE
  5
3D5
  8
ﾚｲﾔ_1
 10
-142.24943464419999
 20
-202.0929846734
 30
0.0
 11
-140.24943464419999
 21
-202.0929846734
 31
0.0
  0
LINE
  5
3D6
  8
ﾚｲﾔ_1
 10
-142.24943464419999
 20
-202.0929846734
 30
0.0
 11
-142.24943464419999
 21
-204.0929846734
 31
0.0
  0
ARC
  5
3D7
  8
ﾚｲﾔ_1
 10
-196.82558047750001
 20
-188.8421415745
 30
0.0
 40
3.5
 50
270.0
 51
90.0
  0
LINE
  5
3D8
  8
ﾚｲﾔ_1
 10
-211.82558047750001
 20
-192.3421415745
 30
0.0
 11
-196.82558047750001
 21
-192.3421415745
 31
0.0
  0
LINE
  5
3D9
  8
ﾚｲﾔ_1
 10
-196.82558047750001
 20
-185.3421415745
 30
0.0
 11
-211.82558047750001
 21
-185.3421415745
 31
0.0
  0
LINE
  5
3DA
  8
ﾚｲﾔ_1
 10
-241.49943464419999
 20
-93.842984673399997
 30
0.0
 11
-256.49943464419999
 21
-93.842984673399997
 31
0.0
  0
LINE
  5
3DB
  8
ﾚｲﾔ_1
 10
-256.49943464419999
 20
-86.842984673399997
 30
0.0
 11
-241.49943464419999
 21
-86.842984673399997
 31
0.0
  0
ARC
  5
3DC
  8
ﾚｲﾔ_1
 10
-241.49943464419999
 20
-90.342984673399997
 30
0.0
 40
3.5
 50
270.0
 51
90.0
  0
LINE
  5
3DD
  8
ﾚｲﾔ_1
  6
HIDDEN
 62
     1
 10
-267.24943464419999
 20
-77.092984673399997
 30
0.0
 11
-142.24943464419999
 21
-77.092984673399997
 31
0.0
  0
LINE
  5
3DE
  8
ﾚｲﾔ_1
 10
-256.49943464419999
 20
-177.3429846734
 30
0.0
 11
-241.49943464419999
 21
-177.3429846734
 31
0.0
  0
LINE
  5
3DF
  8
ﾚｲﾔ_1
  6
BORDER
 62
     3
 10
-274.24943464419999
 20
-139.5929846734
 30
0.0
 11
-135.24943464419999
 21
-139.5929846734
 31
0.0
  0
LINE
  5
3E0
  8
ﾚｲﾔ_1
 10
-256.49943464419999
 20
-192.3429846734
 30
0.0
 11
-241.49943464419999
 21
-192.3429846734
 31
0.0
  0
ARC
  5
3E1
  8
ﾚｲﾔ_1
 10
-241.49943464419999
 20
-188.8429846734
 30
0.0
 40
3.5
 50
270.0
 51
90.0
  0
ARC
  5
3E2
  8
ﾚｲﾔ_1
 10
-241.49943464419999
 20
-173.8429846734
 30
0.0
 40
3.5
 50
270.0
 51
90.0
  0
LINE
  5
3E3
  8
ﾚｲﾔ_1
 62
     5
 10
-70.708678412500007
 20
-77.092984673399997
 30
0.0
 11
-58.708678412499992
 21
-77.092984673399997
 31
0.0
  0
ARC
  5
3E4
  8
ﾚｲﾔ_1
 62
     5
 10
-70.708678412500007
 20
-77.092984673399997
 30
0.0
 40
2.0
 50
90.0
 51
180.0000386554
  0
LINE
  5
3E5
  8
ﾚｲﾔ_1
 62
     5
 10
-70.708678412500007
 20
-75.092984673399997
 30
0.0
 11
-58.708678412499992
 21
-75.092984673399997
 31
0.0
  0
LINE
  5
3E6
  8
ﾚｲﾔ_1
 62
     5
 10
-58.708678412499992
 20
-75.092984673399997
 30
0.0
 11
-58.708678412499992
 21
-77.092984673399997
 31
0.0
  0
LINE
  5
3E7
  8
ﾚｲﾔ_1
 10
-241.22619868230001
 20
-63.751926840499998
 30
0.0
 11
-198.4619533815
 21
-63.751926840499998
 31
0.0
  0
LINE
  5
3E8
  8
ﾚｲﾔ_1
 10
-248.99943464419999
 20
-86.842984673399997
 30
0.0
 11
-241.22619868230001
 21
-63.751926840499998
 31
0.0
  0
SOLID
  5
3E9
  8
ﾚｲﾔ_1
 10
-248.99943464419999
 20
-86.842984673399997
 30
0.0
 11
-248.67395755659999
 21
-81.676846472700007
 31
0.0
 12
-247.83166074869999
 22
-83.374013103799996
 32
0.0
 13
-247.83166074869999
 23
-83.374013103799996
 33
0.0
  0
SOLID
  5
3EA
  8
ﾚｲﾔ_1
 10
-248.99943464419999
 20
-86.842984673399997
 30
0.0
 11
-246.1344941177
 21
-82.531716295999999
 31
0.0
 12
-247.83166074869999
 22
-83.374013103799996
 32
0.0
 13
-247.83166074869999
 23
-83.374013103799996
 33
0.0
  0
ARC
  5
3EB
  8
ﾚｲﾔ_1
 10
-74.183151692700008
 20
-14.7619291481
 30
0.0
 40
0.8
 50
180.0
 51
270.0
  0
LINE
  5
3EC
  8
ﾚｲﾔ_1
 10
-65.983151692700005
 20
-9.5619291480999991
 30
0.0
 11
-66.783151692700002
 21
-9.5619291480999991
 31
0.0
  0
LINE
  5
3ED
  8
ﾚｲﾔ_1
 10
-66.783151692700002
 20
-9.5619291480999991
 30
0.0
 11
-66.783151692700002
 21
-14.7619291481
 31
0.0
  0
LINE
  5
3EE
  8
ﾚｲﾔ_1
 10
-73.383151692700011
 20
-15.561929148100001
 30
0.0
 11
-66.783151692700002
 21
-15.561929148100001
 31
0.0
  0
LINE
  5
3EF
  8
ﾚｲﾔ_1
 10
-167.99943464419999
 20
-185.3429846734
 30
0.0
 11
-152.99943464419999
 21
-185.3429846734
 31
0.0
  0
LINE
  5
3F0
  8
ﾚｲﾔ_1
 10
-152.99943464419999
 20
-192.3429846734
 30
0.0
 11
-167.99943464419999
 21
-192.3429846734
 31
0.0
  0
ARC
  5
3F1
  8
ﾚｲﾔ_1
 10
-167.99943464419999
 20
-188.8429846734
 30
0.0
 40
3.5
 50
90.0
 51
270.0
  0
LINE
  5
3F2
  8
ﾚｲﾔ_1
 10
-152.99943464419999
 20
-177.3429846734
 30
0.0
 11
-167.99943464419999
 21
-177.3429846734
 31
0.0
  0
ARC
  5
3F3
  8
ﾚｲﾔ_1
 10
-167.99943464419999
 20
-173.8429846734
 30
0.0
 40
3.5
 50
90.0
 51
270.0
  0
ARC
  5
3F4
  8
ﾚｲﾔ_1
 10
-196.82558047750001
 20
-154.5921415745
 30
0.0
 40
3.5
 50
270.0
 51
90.0
  0
LINE
  5
3F5
  8
ﾚｲﾔ_1
 62
     5
 10
-23.652458557700001
 20
-76.592984673399997
 30
0.0
 11
-23.652458557700001
 21
-202.5929846734
 31
0.0
  0
LINE
  5
3F6
  8
ﾚｲﾔ_1
 62
     5
 10
-22.152458557700001
 20
-76.592984673399997
 30
0.0
 11
-22.152458557700001
 21
-202.5929846734
 31
0.0
  0
ARC
  5
3F7
  8
ﾚｲﾔ_1
 62
     5
 10
-22.152458557700001
 20
-76.592984673399997
 30
0.0
 40
1.5
 50
90.0
 51
180.0
  0
ARC
  5
3F8
  8
ﾚｲﾔ_1
 62
     5
 10
-22.152458557700001
 20
-202.5929846734
 30
0.0
 40
1.5
 50
180.0
 51
270.0
  0
ARC
  5
3F9
  8
ﾚｲﾔ_1
 10
-66.783151692700002
 20
-14.7619291481
 30
0.0
 40
0.8
 50
270.0
 51
0.0
  0
LINE
  5
3FA
  8
ﾚｲﾔ_1
 10
-65.983151692700005
 20
-14.7619291481
 30
0.0
 11
-65.983151692700005
 21
-9.5619291480999991
 31
0.0
  0
LINE
  5
3FB
  8
ﾚｲﾔ_1
 10
-80.683151692699994
 20
-15.561929148100001
 30
0.0
 11
-139.98359700520001
 21
-15.561929148100001
 31
0.0
  0
LINE
  5
3FC
  8
ﾚｲﾔ_1
 10
-73.383151692700011
 20
-15.561929148100001
 30
0.0
 11
-80.683151692699994
 21
-15.561929148100001
 31
0.0
  0
LINE
  5
3FD
  8
ﾚｲﾔ_1
 10
-74.183151692700008
 20
-14.7619291481
 30
0.0
 11
-66.783151692700002
 21
-14.7619291481
 31
0.0
  0
LINE
  5
3FE
  8
ﾚｲﾔ_1
 10
-142.24943464419999
 20
-77.092984673399997
 30
0.0
 11
-140.24943464419999
 21
-77.092984673399997
 31
0.0
  0
LINE
  5
3FF
  8
ﾚｲﾔ_1
 10
-142.24943464419999
 20
-77.092984673399997
 30
0.0
 11
-142.24943464419999
 21
-75.092984673399997
 31
0.0
  0
LINE
  5
400
  8
ﾚｲﾔ_1
 10
-167.99943464419999
 20
-93.842984673399997
 30
0.0
 11
-152.99943464419999
 21
-93.842984673399997
 31
0.0
  0
LINE
  5
401
  8
ﾚｲﾔ_1
 10
-152.99943464419999
 20
-101.8429846734
 30
0.0
 11
-167.99943464419999
 21
-101.8429846734
 31
0.0
  0
LINE
  5
402
  8
ﾚｲﾔ_1
 10
-211.82558047750001
 20
-101.8421415745
 30
0.0
 11
-196.82558047750001
 21
-101.8421415745
 31
0.0
  0
LINE
  5
403
  8
ﾚｲﾔ_1
 10
-196.82558047750001
 20
-93.842141574500005
 30
0.0
 11
-211.82558047750001
 21
-93.842141574500005
 31
0.0
  0
LINE
  5
404
  8
ﾚｲﾔ_1
 10
-152.99943464419999
 20
-86.842984673399997
 30
0.0
 11
-167.99943464419999
 21
-86.842984673399997
 31
0.0
  0
ARC
  5
405
  8
ﾚｲﾔ_1
 10
-167.99943464419999
 20
-90.342984673399997
 30
0.0
 40
3.5
 50
90.0
 51
270.0
  0
ARC
  5
406
  8
ﾚｲﾔ_1
 10
-211.82558047750001
 20
-90.342141574500005
 30
0.0
 40
3.5
 50
90.0
 51
270.0
  0
ARC
  5
407
  8
ﾚｲﾔ_1
 10
-152.99943464419999
 20
-90.342984673399997
 30
0.0
 40
3.5
 50
270.0
 51
90.0
  0
ARC
  5
408
  8
ﾚｲﾔ_1
 10
-196.82558047750001
 20
-90.342141574500005
 30
0.0
 40
3.5
 50
270.0
 51
90.0
  0
LINE
  5
409
  8
ﾚｲﾔ_1
 10
-211.82558047750001
 20
-86.842141574500005
 30
0.0
 11
-196.82558047750001
 21
-86.842141574500005
 31
0.0
  0
LINE
  5
40A
  8
ﾚｲﾔ_1
 10
-267.24943464419999
 20
-77.092984673399997
 30
0.0
 11
-269.24943464419999
 21
-77.092984673399997
 31
0.0
  0
LINE
  5
40B
  8
ﾚｲﾔ_1
 10
-267.24943464419999
 20
-77.092984673399997
 30
0.0
 11
-267.24943464419999
 21
-75.092984673399997
 31
0.0
  0
LINE
  5
40C
  8
ﾚｲﾔ_1
 10
-256.49943464419999
 20
-101.8429846734
 30
0.0
 11
-241.49943464419999
 21
-101.8429846734
 31
0.0
  0
ARC
  5
40D
  8
ﾚｲﾔ_1
 10
-256.49943464419999
 20
-90.342984673399997
 30
0.0
 40
3.5
 50
90.0
 51
270.0
  0
LINE
  5
40E
  8
ﾚｲﾔ_1
 10
-74.983151692700005
 20
13.6380708519
 30
0.0
 11
-74.983151692700005
 21
-0.5619291481000001
 31
0.0
  0
LINE
  5
40F
  8
ﾚｲﾔ_1
 10
-74.183151692700008
 20
-0.5619291481000001
 30
0.0
 11
-74.183151692700008
 21
13.6380708519
 31
0.0
  0
LINE
  5
410
  8
ﾚｲﾔ_1
 10
-74.983151692700005
 20
-0.5619291481000001
 30
0.0
 11
-74.983151692700005
 21
-14.7619291481
 31
0.0
  0
LINE
  5
411
  8
ﾚｲﾔ_1
 10
-74.183151692700008
 20
-0.5619291481000001
 30
0.0
 11
-74.183151692700008
 21
-14.7619291481
 31
0.0
  0
INSERT
  5
413
  8
ﾚｲﾔ_1
  2
CLUMP5
 10
0.0
 20
0.0
 30
0.0
  0
LINE
  5
426
  8
ﾚｲﾔ_1
  6
BORDER
 62
     3
 10
-139.98359700520001
 20
19.4375942894
 30
0.0
 11
-139.98359700520001
 21
-20.5624057106
 31
0.0
  0
LINE
  5
427
  8
ﾚｲﾔ_1
 10
-75.733151692700005
 20
-0.5619291481000001
 30
0.0
 11
-139.98359700520001
 21
-0.5619291481000001
 31
0.0
  0
LINE
  5
428
  8
ﾚｲﾔ_1
 10
-74.983151692700005
 20
-0.5619291481000001
 30
0.0
 11
-80.683151692699994
 21
-0.5619291481000001
 31
0.0
  0
LINE
  5
429
  8
ﾚｲﾔ_1
 10
-77.733151692700005
 20
10.938070851899999
 30
0.0
 11
-77.733151692700005
 21
-0.5619291481000001
 31
0.0
  0
LINE
  5
42A
  8
ﾚｲﾔ_1
 10
-75.733151692700005
 20
11.438070851899999
 30
0.0
 11
-75.733151692700005
 21
-0.5619291481000001
 31
0.0
  0
INSERT
  5
42C
  8
寸法線
  2
BALLON2
 10
0.0
 20
0.0
 30
0.0
  0
LINE
  5
435
  8
ﾚｲﾔ_1
  6
BORDER
 62
     3
 10
-204.74943464419999
 20
-239.67060546880001
 30
0.0
 11
-204.74943464419999
 21
-264.67060546869999
 31
0.0
  0
LINE
  5
436
  8
ﾚｲﾔ_1
 62
     5
 10
-142.24943464419999
 20
-247.67060546869999
 30
0.0
 11
-142.24943464419999
 21
-259.67060546879998
 31
0.0
  0
ARC
  5
437
  8
ﾚｲﾔ_1
 62
     5
 10
-142.24943464419999
 20
-247.67060546880001
 30
0.0
 40
2.0
 50
0.0
 51
90.000038655400004
  0
LINE
  5
438
  8
ﾚｲﾔ_1
 62
     5
 10
-140.24943464419999
 20
-247.67060546880001
 30
0.0
 11
-140.24943464419999
 21
-259.67060546869999
 31
0.0
  0
LINE
  5
439
  8
ﾚｲﾔ_1
 62
     5
 10
-140.24943464419999
 20
-259.67060546869999
 30
0.0
 11
-142.24943464419999
 21
-259.67060546879998
 31
0.0
  0
LINE
  5
43A
  8
ﾚｲﾔ_1
 62
     5
 10
-142.24943599349999
 20
-245.67060546869999
 30
0.0
 11
-267.24943464419999
 21
-245.67060546880001
 31
0.0
  0
LINE
  5
43B
  8
ﾚｲﾔ_1
 62
     5
 10
-267.24943464419999
 20
-247.67060546880001
 30
0.0
 11
-142.24943464419999
 21
-247.67060546869999
 31
0.0
  0
LINE
  5
43C
  8
ﾚｲﾔ_1
 62
     5
 10
-267.24943464419999
 20
-247.67060546880001
 30
0.0
 11
-267.24943464419999
 21
-259.67060546879998
 31
0.0
  0
ARC
  5
43D
  8
ﾚｲﾔ_1
 62
     5
 10
-267.24943464419999
 20
-247.67060546880001
 30
0.0
 40
2.0
 50
90.0
 51
180.00001020810001
  0
LINE
  5
43E
  8
ﾚｲﾔ_1
 62
     5
 10
-269.24943464419999
 20
-247.67060582510001
 30
0.0
 11
-269.24943464419999
 21
-259.67060546879998
 31
0.0
  0
LINE
  5
43F
  8
ﾚｲﾔ_1
 62
     5
 10
-269.24943464419999
 20
-259.67060546879998
 30
0.0
 11
-267.24943464419999
 21
-259.67060546879998
 31
0.0
  0
INSERT
  5
440
  8
0
  6
CONTINUOUS
  2
*U73
 10
0.0
 20
0.0
 30
0.0
  0
INSERT
  5
441
  8
0
  6
CONTINUOUS
  2
*U74
 10
0.0
 20
0.0
 30
0.0
  0
LINE
  5
442
  8
ﾚｲﾔ_1
 10
-267.24943464419999
 20
-75.092984673399997
 30
0.0
 11
-142.24943464419999
 21
-75.092984673399997
 31
0.0
  0
INSERT
  5
443
  8
0
  6
CONTINUOUS
  2
*U75
 10
0.0
 20
0.0
 30
0.0
  0
LINE
  5
444
  8
ﾚｲﾔ_1
 62
     5
 10
-0.6524585577000001
 20
-202.0929846734
 30
0.0
 11
-0.6524585577000001
 21
-204.0929846734
 31
0.0
  0
LINE
  5
445
  8
ﾚｲﾔ_1
 62
     5
 10
-0.6524585577000001
 20
-75.092984673399997
 30
0.0
 11
-0.6524585577000001
 21
-76.592984673399997
 31
0.0
  0
LINE
  5
446
  8
ﾚｲﾔ_1
 62
     5
 10
-22.152458557700001
 20
-76.592984673399997
 30
0.0
 11
-0.6524585577000001
 21
-76.592984673399997
 31
0.0
  0
LINE
  5
447
  8
ﾚｲﾔ_1
 62
     5
 10
-22.152458557700001
 20
-75.092984673399997
 30
0.0
 11
-0.6524585577000001
 21
-75.092984673399997
 31
0.0
  0
LINE
  5
448
  8
ﾚｲﾔ_1
 62
     5
 10
-22.152458557700001
 20
-204.0929846734
 30
0.0
 11
-0.6524585577000001
 21
-204.0929846734
 31
0.0
  0
LINE
  5
449
  8
ﾚｲﾔ_1
 62
     5
 10
-22.152458557700001
 20
-202.5929846734
 30
0.0
 11
-0.6524585577000001
 21
-202.5929846734
 31
0.0
  0
LINE
  5
44A
  8
ﾚｲﾔ_1
  6
BORDER
 62
     3
 10
-30.652458557700001
 20
-139.5929846734
 30
0.0
 11
4.3475414422999989
 21
-139.5929846734
 31
0.0
  0
DIMENSION
  5
452
  8
寸法線
 62
     5
  2
*D48
 10
-269.12013524000002
 20
-149.66255580709989
 30
0.0
 11
-263.11022789700002
 21
-162.52411058850001
 31
0.0
 70
   131
  1
2-Φ15
 15
-255.72853310330001
 25
-142.90496805609999
 35
0.0
 40
0.0
  0
DIMENSION
  5
461
  8
寸法線
 62
     5
  2
*D49
 10
-0.6524585577000001
 20
-56.233453270799998
 30
0.0
 11
-12.152458557699999
 21
-56.233453270799998
 31
0.0
 70
   128
  1
<>
 13
-0.6524585577000001
 23
-75.092984673399997
 33
0.0
 14
-23.652458557700001
 24
-77.092984673399997
 34
0.0
  0
INSERT
  5
462
  8
0
  6
CONTINUOUS
  2
*U76
 10
0.0
 20
0.0
 30
0.0
  0
INSERT
  5
463
  8
0
  6
CONTINUOUS
  2
*U77
 10
0.0
 20
0.0
 30
0.0
  0
INSERT
  5
465
  8
図枠
  2
CLUMP6
 10
0.0
 20
0.0
 30
0.0
  0
INSERT
  5
46E
  8
0
  6
CONTINUOUS
  2
*U78
 10
0.0
 20
0.0
 30
0.0
  0
INSERT
  5
470
  8
図枠
  2
CLUMP7
 10
0.0
 20
0.0
 30
0.0
  0
INSERT
  5
514
  8
0
  6
CONTINUOUS
  2
*U99
 10
0.0
 20
0.0
 30
0.0
  0
INSERT
  5
515
  8
0
  6
CONTINUOUS
  2
*U100
 10
0.0
 20
0.0
 30
0.0
  0
INSERT
  5
516
  8
0
  6
CONTINUOUS
  2
*U101
 10
0.0
 20
0.0
 30
0.0
  0
INSERT
  5
517
  8
0
  6
CONTINUOUS
  2
*U102
 10
0.0
 20
0.0
 30
0.0
  0
INSERT
  5
518
  8
0
  6
CONTINUOUS
  2
*U103
 10
0.0
 20
0.0
 30
0.0
  0
INSERT
  5
519
  8
0
  6
CONTINUOUS
  2
*U104
 10
0.0
 20
0.0
 30
0.0
  0
INSERT
  5
51A
  8
0
  6
CONTINUOUS
  2
*U105
 10
0.0
 20
0.0
 30
0.0
  0
INSERT
  5
51C
  8
図枠
  2
CLUMP8
 10
0.0
 20
0.0
 30
0.0
  0
INSERT
  5
526
  8
図枠
  2
CLUMP9
 10
0.0
 20
0.0
 30
0.0
  0
INSERT
  5
52F
  8
0
  6
CONTINUOUS
  2
*U106
 10
0.0
 20
0.0
 30
0.0
  0
ENDSEC
  0
EOF
