  0
SECTION
  2
HEADER
  9
$ACADVER
  1
AC1009
  9
$INSBASE
 10
0.0
 20
0.0
 30
0.0
  9
$EXTMIN
 10
69.795614966999992
 20
-308.2073945866
 30
0.0
  9
$EXTMAX
 10
889.71561496699985
 20
268.71260541340001
 30
0.0
  9
$LIMMIN
 10
0.0
 20
0.0
  9
$LIMMAX
 10
0.0
 20
0.0
  9
$ORTHOMODE
 70
     0
  9
$REGENMODE
 70
     1
  9
$FILLMODE
 70
     1
  9
$QTEXTMODE
 70
     0
  9
$MIRRTEXT
 70
     1
  9
$DRAGMODE
 70
     2
  9
$LTSCALE
 40
1.0
  9
$OSMODE
 70
    31
  9
$ATTMODE
 70
     1
  9
$TEXTSIZE
 40
0.0
  9
$TRACEWID
 40
0.05
  9
$TEXTSTYLE
  7
STANDARD
  9
$CLAYER
  8
0
  9
$CELTYPE
  6
CONTINUOUS
  9
$CECOLOR
 62
   256
  9
$DIMSCALE
 40
1.0
  9
$DIMASZ
 40
0.18
  9
$DIMEXO
 40
0.0625
  9
$DIMDLI
 40
0.38
  9
$DIMRND
 40
0.0
  9
$DIMDLE
 40
0.0
  9
$DIMEXE
 40
0.18
  9
$DIMTP
 40
0.0
  9
$DIMTM
 40
0.0
  9
$DIMTXT
 40
0.18
  9
$DIMCEN
 40
0.09
  9
$DIMTSZ
 40
0.0
  9
$DIMTOL
 70
     0
  9
$DIMLIM
 70
     0
  9
$DIMTIH
 70
     1
  9
$DIMTOH
 70
     1
  9
$DIMSE1
 70
     0
  9
$DIMSE2
 70
     0
  9
$DIMTAD
 70
     0
  9
$DIMZIN
 70
     0
  9
$DIMBLK
  1

  9
$DIMASO
 70
     1
  9
$DIMSHO
 70
     1
  9
$DIMPOST
  1

  9
$DIMAPOST
  1

  9
$DIMALT
 70
     0
  9
$DIMALTD
 70
     2
  9
$DIMALTF
 40
25.399999999999999
  9
$DIMLFAC
 40
1.0
  9
$DIMTOFL
 70
     0
  9
$DIMTVP
 40
0.0
  9
$DIMTIX
 70
     0
  9
$DIMSOXD
 70
     0
  9
$DIMSAH
 70
     0
  9
$DIMBLK1
  1

  9
$DIMBLK2
  1

  9
$DIMSTYLE
  2
STANDARD
  9
$DIMCLRD
 70
     0
  9
$DIMCLRE
 70
     0
  9
$DIMCLRT
 70
     0
  9
$DIMTFAC
 40
1.0
  9
$DIMGAP
 40
0.09
  9
$LUNITS
 70
     2
  9
$LUPREC
 70
     4
  9
$SKETCHINC
 40
0.1
  9
$FILLETRAD
 40
0.0
  9
$AUNITS
 70
     0
  9
$AUPREC
 70
     0
  9
$MENU
  1
acad
  9
$ELEVATION
 40
0.0
  9
$PELEVATION
 40
0.0
  9
$THICKNESS
 40
0.0
  9
$LIMCHECK
 70
     0
  9
$BLIPMODE
 70
     0
  9
$CHAMFERA
 40
0.0
  9
$CHAMFERB
 40
0.0
  9
$SKPOLY
 70
     0
  9
$TDCREATE
 40
2454860.609532326
  9
$TDUPDATE
 40
2454860.609828739
  9
$TDINDWG
 40
0.0003242593
  9
$TDUSRTIMER
 40
0.0003239005
  9
$USRTIMER
 70
     1
  9
$ANGBASE
 50
0.0
  9
$ANGDIR
 70
     0
  9
$PDMODE
 70
     3
  9
$PDSIZE
 40
-1.0
  9
$PLINEWID
 40
0.0
  9
$COORDS
 70
     2
  9
$SPLFRAME
 70
     0
  9
$SPLINETYPE
 70
     6
  9
$SPLINESEGS
 70
     8
  9
$ATTDIA
 70
     0
  9
$ATTREQ
 70
     1
  9
$HANDLING
 70
     1
  9
$HANDSEED
  5
6A0
  9
$SURFTAB1
 70
     6
  9
$SURFTAB2
 70
     6
  9
$SURFTYPE
 70
     6
  9
$SURFU
 70
     6
  9
$SURFV
 70
     6
  9
$UCSNAME
  2

  9
$UCSORG
 10
0.0
 20
0.0
 30
0.0
  9
$UCSXDIR
 10
1.0
 20
0.0
 30
0.0
  9
$UCSYDIR
 10
0.0
 20
1.0
 30
0.0
  9
$PUCSNAME
  2

  9
$PUCSORG
 10
0.0
 20
0.0
 30
0.0
  9
$PUCSXDIR
 10
1.0
 20
0.0
 30
0.0
  9
$PUCSYDIR
 10
0.0
 20
1.0
 30
0.0
  9
$USERI1
 70
     0
  9
$USERI2
 70
     0
  9
$USERI3
 70
     0
  9
$USERI4
 70
     0
  9
$USERI5
 70
     0
  9
$USERR1
 40
0.0
  9
$USERR2
 40
0.0
  9
$USERR3
 40
0.0
  9
$USERR4
 40
0.0
  9
$USERR5
 40
0.0
  9
$WORLDVIEW
 70
     1
  9
$SHADEDGE
 70
     3
  9
$SHADEDIF
 70
    70
  9
$TILEMODE
 70
     1
  9
$MAXACTVP
 70
    16
  9
$PLIMCHECK
 70
     0
  9
$PEXTMIN
 10
1.0000000000000000E+020
 20
1.0000000000000000E+020
 30
1.0000000000000000E+020
  9
$PEXTMAX
 10
-1.0000000000000000E+020
 20
-1.0000000000000000E+020
 30
-1.0000000000000000E+020
  9
$PLIMMIN
 10
0.0
 20
0.0
  9
$PLIMMAX
 10
12.0
 20
9.0
  9
$UNITMODE
 70
     0
  9
$VISRETAIN
 70
     0
  9
$PLINEGEN
 70
     1
  9
$PSLTSCALE
 70
     0
  0
ENDSEC
  0
SECTION
  2
TABLES
  0
TABLE
  2
VPORT
 70
     2
  0
VPORT
  2
*ACTIVE
 70
     0
 10
0.0
 20
0.0
 11
1.0
 21
1.0
 12
479.75561496699999
 22
-19.74739458659996
 13
0.0
 23
0.0
 14
1.0
 24
1.0
 15
0.0
 25
0.0
 16
0.0
 26
0.0
 36
1.0
 17
0.0
 27
0.0
 37
0.0
 40
581.70771784232375
 41
1.6343490304709141
 42
50.0
 43
0.0
 44
0.0
 50
0.0
 51
0.0
 71
     0
 72
   100
 73
     1
 74
     1
 75
     0
 76
     0
 77
     0
 78
     0
  0
ENDTAB
  0
TABLE
  2
LTYPE
 70
    11
  0
LTYPE
  2
CONTINUOUS
 70
     0
  3
Solid line
 72
    65
 73
     0
 40
0.0
  0
LTYPE
  2
DOT
 70
     0
  3
. . . . . . . . 
 72
    65
 73
     2
 40
1.0
 49
0.0
 49
-1.0
  0
LTYPE
  2
DASHED
 70
     0
  3
___  ___  ___  ___  
 72
    65
 73
     2
 40
4.0
 49
3.0
 49
-1.0
  0
LTYPE
  2
HIDDEN
 70
     0
  3
__ __ __ __ 
 72
    65
 73
     2
 40
3.0
 49
2.0
 49
-1.0
  0
LTYPE
  2
STITCH
 70
     0
  3
_ _ _ _ 
 72
    65
 73
     2
 40
2.0
 49
1.0
 49
-1.0
  0
LTYPE
  2
CENTER
 70
     0
  3
______  __  ______  __  
 72
    65
 73
     4
 40
43.0
 49
40.0
 49
-1.0
 49
1.0
 49
-1.0
  0
LTYPE
  2
DASHDOT
 70
     0
  3
____ . ____ . 
 72
    65
 73
     4
 40
32.0
 49
30.0
 49
-1.0
 49
0.0
 49
-1.0
  0
LTYPE
  2
BORDER
 70
     0
  3
__ . __ . 
 72
    65
 73
     4
 40
22.0
 49
20.0
 49
-1.0
 49
0.0
 49
-1.0
  0
LTYPE
  2
CUTTING
 70
     0
  3
________   ___   ___   
 72
    65
 73
     6
 40
45.0
 49
40.0
 49
-1.0
 49
1.0
 49
-1.0
 49
1.0
 49
-1.0
  0
LTYPE
  2
PHANTOM
 70
     0
  3
______  __  __  
 72
    65
 73
     6
 40
35.0
 49
30.0
 49
-1.0
 49
1.0
 49
-1.0
 49
1.0
 49
-1.0
  0
LTYPE
  2
DIVIDE
 70
     0
  3
____ . . ____ . . 
 72
    65
 73
     6
 40
23.0
 49
20.0
 49
-1.0
 49
0.0
 49
-1.0
 49
0.0
 49
-1.0
  0
ENDTAB
  0
TABLE
  2
LAYER
 70
     6
  0
LAYER
  2
0
 70
     0
 62
     7
  6
CONTINUOUS
  0
LAYER
  2
図枠
 70
     0
 62
     7
  6
CONTINUOUS
  0
LAYER
  2
ﾚｲﾔ_1
 70
     0
 62
     7
  6
CONTINUOUS
  0
LAYER
  2
寸法線
 70
     0
 62
     7
  6
CONTINUOUS
  0
LAYER
  2
UNASSIGNED
 70
     0
 62
     7
  6
CONTINUOUS
  0
LAYER
  2
Defpoints
 70
     0
 62
     7
  6
CONTINUOUS
  0
ENDTAB
  0
TABLE
  2
STYLE
 70
     1
  0
STYLE
  2
STANDARD
 70
     0
 40
0.0
 41
1.0
 50
0.0
 71
     0
 42
0.0
  3
txt
  4
extfont
  0
ENDTAB
  0
TABLE
  2
VIEW
 70
     0
  0
ENDTAB
  0
TABLE
  2
UCS
 70
     0
  0
ENDTAB
  0
TABLE
  2
APPID
 70
     2
  0
APPID
  2
ACAD
 70
     0
  0
APPID
  2
DCO15
 70
     0
  0
ENDTAB
  0
TABLE
  2
DIMSTYLE
 70
     4
  0
DIMSTYLE
  2
STANDARD
 70
     0
  3

  4

  5

  6

  7

 40
1.0
 41
0.18
 42
0.0625
 43
0.38
 44
0.18
 45
0.0
 46
0.0
 47
0.0
 48
0.0
140
0.18
141
0.09
142
0.0
143
25.399999999999999
144
1.0
145
0.0
146
1.0
147
0.09
 71
     0
 72
     0
 73
     1
 74
     1
 75
     0
 76
     0
 77
     0
 78
     0
170
     0
171
     2
172
     0
173
     0
174
     0
175
     0
176
     0
177
     0
178
     0
  0
DIMSTYLE
  2
VELDIM0
 70
     0
  3

  4

  5

  6

  7

 40
1.0
 41
3.8637032508999991
 42
0.0625
 43
0.38
 44
2.0
 45
0.0
 46
10.0
 47
0.0
 48
0.0
140
5.9972220420999998
141
0.09
142
0.0
143
25.399999999999999
144
1.0
145
0.0
146
1.0
147
0.09
 71
     0
 72
     0
 73
     0
 74
     0
 75
     0
 76
     0
 77
     0
 78
     8
170
     0
171
     2
172
     0
173
     0
174
     0
175
     0
176
     0
177
     0
178
     0
  0
DIMSTYLE
  2
VELDIM1
 70
     0
  3

  4

  5

  6

  7

 40
1.0
 41
3.8637032508999991
 42
0.0625
 43
0.38
 44
1.0
 45
0.0
 46
5.0
 47
0.0
 48
0.0
140
5.9972220420999998
141
0.09
142
0.0
143
25.399999999999999
144
1.0
145
0.0
146
1.0
147
0.09
 71
     0
 72
     0
 73
     0
 74
     0
 75
     0
 76
     0
 77
     0
 78
     8
170
     0
171
     2
172
     0
173
     0
174
     0
175
     0
176
     0
177
     0
178
     0
  0
DIMSTYLE
  2
VELDIM2
 70
     0
  3

  4

  5

  6

  7

 40
1.0
 41
3.8637032508999991
 42
0.0625
 43
0.38
 44
1.25
 45
0.0
 46
5.0
 47
0.0
 48
0.0
140
5.9972220420999998
141
0.09
142
0.0
143
25.399999999999999
144
1.0
145
0.0
146
1.0
147
0.09
 71
     0
 72
     0
 73
     0
 74
     0
 75
     0
 76
     0
 77
     0
 78
     8
170
     0
171
     2
172
     0
173
     0
174
     0
175
     0
176
     0
177
     0
178
     0
  0
ENDTAB
  0
ENDSEC
  0
SECTION
  2
BLOCKS
  0
BLOCK
  8
0
  2
$MODEL_SPACE
 70
     0
 10
0.0
 20
0.0
 30
0.0
  3
$MODEL_SPACE
  1

  0
ENDBLK
  5
E
  8
0
  0
BLOCK
 67
     1
  8
0
  2
$PAPER_SPACE
 70
     0
 10
0.0
 20
0.0
 30
0.0
  3
$PAPER_SPACE
  1

  0
ENDBLK
  5
10
 67
     1
  8
0
  0
BLOCK
  8
0
  2
CLUMP0
 70
     0
 10
0.0
 20
0.0
 30
0.0
  3
CLUMP0
  1

  0
LINE
  5
34
  8
図枠
 10
707.75561496699993
 20
-173.7473945866
 30
0.0
 11
707.75561496699993
 21
-163.7473945866
 31
0.0
  0
LINE
  5
35
  8
図枠
 10
589.75561496699993
 20
-173.7473945866
 30
0.0
 11
589.75561496699993
 21
-163.7473945866
 31
0.0
  0
LINE
  5
36
  8
図枠
 10
607.75561496699993
 20
-173.7473945866
 30
0.0
 11
607.75561496699993
 21
-163.7473945866
 31
0.0
  0
LINE
  5
37
  8
図枠
 10
817.75561496699993
 20
-173.7473945866
 30
0.0
 11
817.75561496699993
 21
-163.7473945866
 31
0.0
  0
LINE
  5
38
  8
図枠
 10
799.75561496699993
 20
-173.7473945866
 30
0.0
 11
799.75561496699993
 21
-163.7473945866
 31
0.0
  0
LINE
  5
39
  8
図枠
 10
879.75561496699993
 20
-163.7473945866
 30
0.0
 11
589.75561496699993
 21
-163.7473945866
 31
0.0
  0
ENDBLK
  5
3A
  8
0
  0
BLOCK
  8
0
  2
*D1
 70
     1
 10
0.0
 20
0.0
 30
0.0
  3
*D1
  1

  0
TEXT
  5
45
  8
0
 62
     0
 10
193.97010939859999
 20
-154.7272258747
 30
0.0
 40
5.9972220420999998
  1
160
 50
90.0
  0
LINE
  5
46
  8
0
 62
     0
 10
268.43530246699999
 20
-229.435559367
 30
0.0
 11
195.02844270009999
 21
-229.435559367
 31
0.0
  0
LINE
  5
47
  8
0
 62
     0
 10
236.83530246699999
 20
-69.435559366999996
 30
0.0
 11
195.02844270009999
 21
-69.435559366999996
 31
0.0
  0
LINE
  5
48
  8
0
 62
     0
 10
197.02844270009999
 20
-229.435559367
 30
0.0
 11
197.02844270009999
 21
-140.61611518749999
 31
0.0
  0
LINE
  5
49
  8
0
 62
     0
 10
197.02844270009999
 20
-229.435559367
 30
0.0
 11
197.02844270009999
 21
-158.25500354659999
 31
0.0
  0
LINE
  5
4A
  8
0
 62
     0
 10
197.02844270009999
 20
-69.435559366999996
 30
0.0
 11
197.02844270009999
 21
-140.61611518749999
 31
0.0
  0
LINE
  5
4B
  8
0
 62
     0
 10
197.02844270009999
 20
-69.435559366999996
 30
0.0
 11
197.02844270009999
 21
-158.25500354659999
 31
0.0
  0
LINE
  5
4C
  8
0
 62
     0
 10
197.02844270009999
 20
-69.435559366999996
 30
0.0
 11
197.02844270009999
 21
-79.435559366999996
 31
0.0
  0
LINE
  5
4D
  8
0
 62
     0
 10
198.06371887469999
 20
-73.299262617899984
 30
0.0
 11
197.02844270009999
 21
-69.435559366999996
 31
0.0
  0
LINE
  5
4E
  8
0
 62
     0
 10
197.02844270009999
 20
-69.435559366999996
 30
0.0
 11
195.9931665256
 21
-73.299262617899984
 31
0.0
  0
LINE
  5
4F
  8
0
 62
     0
 10
197.02844270009999
 20
-229.435559367
 30
0.0
 11
197.02844270009999
 21
-219.435559367
 31
0.0
  0
LINE
  5
50
  8
0
 62
     0
 10
195.9931665256
 20
-225.57185611610001
 30
0.0
 11
197.02844270009999
 21
-229.435559367
 31
0.0
  0
LINE
  5
51
  8
0
 62
     0
 10
197.02844270009999
 20
-229.435559367
 30
0.0
 11
198.06371887469999
 21
-225.57185611610001
 31
0.0
  0
ENDBLK
  5
52
  8
0
  0
BLOCK
  8
0
  2
*D2
 70
     1
 10
0.0
 20
0.0
 30
0.0
  3
*D2
  1

  0
TEXT
  5
57
  8
0
 62
     0
 10
217.7769691654
 20
-161.2272258747
 30
0.0
 40
5.9972220420999998
  1
147
 50
90.0
  0
LINE
  5
58
  8
0
 62
     0
 10
236.83530246699999
 20
-82.435559366999996
 30
0.0
 11
218.83530246699999
 21
-82.435559366999996
 31
0.0
  0
LINE
  5
59
  8
0
 62
     0
 10
268.43530246699999
 20
-229.435559367
 30
0.0
 11
218.83530246699999
 21
-229.435559367
 31
0.0
  0
LINE
  5
5A
  8
0
 62
     0
 10
220.83530246699999
 20
-82.435559366999996
 30
0.0
 11
220.83530246699999
 21
-147.11611518749999
 31
0.0
  0
LINE
  5
5B
  8
0
 62
     0
 10
220.83530246699999
 20
-82.435559366999996
 30
0.0
 11
220.83530246699999
 21
-164.75500354659999
 31
0.0
  0
LINE
  5
5C
  8
0
 62
     0
 10
220.83530246699999
 20
-229.435559367
 30
0.0
 11
220.83530246699999
 21
-147.11611518749999
 31
0.0
  0
LINE
  5
5D
  8
0
 62
     0
 10
220.83530246699999
 20
-229.435559367
 30
0.0
 11
220.83530246699999
 21
-164.75500354659999
 31
0.0
  0
LINE
  5
5E
  8
0
 62
     0
 10
220.83530246699999
 20
-229.435559367
 30
0.0
 11
220.83530246699999
 21
-219.435559367
 31
0.0
  0
LINE
  5
5F
  8
0
 62
     0
 10
219.80002629239999
 20
-225.57185611610001
 30
0.0
 11
220.83530246699999
 21
-229.435559367
 31
0.0
  0
LINE
  5
60
  8
0
 62
     0
 10
220.83530246699999
 20
-229.435559367
 30
0.0
 11
221.8705786415
 21
-225.57185611610001
 31
0.0
  0
LINE
  5
61
  8
0
 62
     0
 10
220.83530246699999
 20
-82.435559366999996
 30
0.0
 11
220.83530246699999
 21
-92.43555936700001
 31
0.0
  0
LINE
  5
62
  8
0
 62
     0
 10
221.8705786415
 20
-86.299262617900027
 30
0.0
 11
220.83530246699999
 21
-82.435559366999996
 31
0.0
  0
LINE
  5
63
  8
0
 62
     0
 10
220.83530246699999
 20
-82.435559366999996
 30
0.0
 11
219.80002629239999
 21
-86.299262617900027
 31
0.0
  0
ENDBLK
  5
64
  8
0
  0
BLOCK
  8
0
  2
CLUMP1
 70
     0
 10
0.0
 20
0.0
 30
0.0
  3
CLUMP1
  1

  0
LINE
  5
72
  8
図枠
 10
706.39812006479985
 20
-284.59404865279998
 30
0.0
 11
708.39812006479997
 21
-281.59404865279998
 31
0.0
  0
LINE
  5
73
  8
図枠
 10
677.07690794359985
 20
-281.59404865279998
 30
0.0
 11
677.07690794359985
 21
-285.59404865279998
 31
0.0
  0
LINE
  5
74
  8
図枠
 10
724.53096723169995
 20
-288.59404865279998
 30
0.0
 11
730.83308536130005
 21
-288.59404865279998
 31
0.0
  0
LINE
  5
75
  8
図枠
 10
690.39812006479985
 20
-295.59404865279998
 30
0.0
 11
695.39812006479997
 21
-295.59404865279998
 31
0.0
  0
LINE
  5
76
  8
図枠
 10
690.39812006479985
 20
-286.23826918779997
 30
0.0
 11
698.39812006479985
 21
-286.23826918779997
 31
0.0
  0
INSERT
  5
77
  8
0
  6
CONTINUOUS
  2
*U40
 10
0.0
 20
0.0
 30
0.0
  0
LINE
  5
78
  8
図枠
 62
     5
 10
739.75561496699993
 20
230.2526054134
 30
0.0
 11
739.75561496699993
 21
260.25260541339998
 31
0.0
  0
LINE
  5
79
  8
図枠
 62
     5
 10
839.75561496699981
 20
230.2526054134
 30
0.0
 11
839.75561496699981
 21
260.25260541339998
 31
0.0
  0
LINE
  5
7A
  8
図枠
 62
     5
 10
707.75561496699993
 20
230.2526054134
 30
0.0
 11
707.75561496699993
 21
260.25260541339998
 31
0.0
  0
LINE
  5
7B
  8
図枠
 62
     5
 10
694.23704419490002
 20
241.11418891540001
 30
0.0
 11
704.13704419489989
 21
241.11418891540001
 31
0.0
  0
LINE
  5
7C
  8
図枠
 62
     5
 10
699.18704419489995
 20
239.78784041290001
 30
0.0
 11
704.13704419489989
 21
231.2141889154
 31
0.0
  0
LINE
  5
7D
  8
図枠
 62
     5
 10
691.75561496699993
 20
230.2526054134
 30
0.0
 11
691.75561496699993
 21
260.25260541339998
 31
0.0
  0
LINE
  5
7E
  8
図枠
 62
     5
 10
859.75561496699993
 20
230.2526054134
 30
0.0
 11
859.75561496699993
 21
260.25260541339998
 31
0.0
  0
LINE
  5
7F
  8
図枠
 62
     5
 10
691.75561496699993
 20
250.2526054134
 30
0.0
 11
879.75561496699993
 21
250.2526054134
 31
0.0
  0
LINE
  5
80
  8
図枠
 62
     5
 10
691.75561496699993
 20
240.2526054134
 30
0.0
 11
879.75561496699993
 21
240.2526054134
 31
0.0
  0
LINE
  5
81
  8
図枠
 62
     5
 10
691.75561496699993
 20
230.2526054134
 30
0.0
 11
879.75561496699993
 21
230.2526054134
 31
0.0
  0
INSERT
  5
82
  8
0
  6
CONTINUOUS
  2
*U41
 10
0.0
 20
0.0
 30
0.0
  0
LINE
  5
83
  8
図枠
 62
     5
 10
79.755614967
 20
-299.74739458660002
 30
0.0
 11
79.755614967
 21
260.25260541339998
 31
0.0
  0
LINE
  5
84
  8
図枠
 62
     5
 10
79.755614967
 20
-299.74739458660002
 30
0.0
 11
879.75561496699993
 21
-299.74739458660002
 31
0.0
  0
LINE
  5
85
  8
図枠
 62
     5
 10
879.75561496699993
 20
260.25260541339998
 30
0.0
 11
79.755614967
 21
260.25260541339998
 31
0.0
  0
LINE
  5
86
  8
図枠
 62
     5
 10
879.75561496699993
 20
-299.74739458660002
 30
0.0
 11
879.75561496699993
 21
260.25260541339998
 31
0.0
  0
LINE
  5
87
  8
図枠
 10
690.39812006479985
 20
-286.88248972280002
 30
0.0
 11
690.39812006479985
 21
-286.23826918779997
 31
0.0
  0
LINE
  5
88
  8
図枠
 10
665.77470032040003
 20
-285.59404865279998
 30
0.0
 11
665.77470032040003
 21
-288.59404865279998
 31
0.0
  0
LINE
  5
89
  8
図枠
 62
     5
 10
699.18704419489995
 20
249.68784041289999
 30
0.0
 11
704.13704419489989
 21
241.11418891540001
 31
0.0
  0
LINE
  5
8A
  8
図枠
 62
     5
 10
699.18704419489995
 20
239.78784041290001
 30
0.0
 11
694.23704419490002
 21
231.2141889154
 31
0.0
  0
INSERT
  5
8B
  8
0
  6
CONTINUOUS
  2
*U42
 10
0.0
 20
0.0
 30
0.0
  0
LINE
  5
8C
  8
図枠
  6
DOT
 10
69.795614966999992
 20
-308.2073945866
 30
0.0
 11
69.795614966999992
 21
268.71260541340001
 31
0.0
  0
LINE
  5
8D
  8
図枠
  6
DOT
 10
889.71561496699985
 20
-308.2073945866
 30
0.0
 11
889.71561496699985
 21
268.71260541340001
 31
0.0
  0
LINE
  5
8E
  8
図枠
  6
DOT
 10
69.795614966999992
 20
-308.2073945866
 30
0.0
 11
889.71561496699985
 21
-308.2073945866
 31
0.0
  0
LINE
  5
8F
  8
図枠
 10
673.07690794359985
 20
-291.59404865279998
 30
0.0
 11
673.07690794359985
 21
-288.59404865279998
 31
0.0
  0
LINE
  5
90
  8
図枠
  6
DOT
 10
889.71561496699985
 20
268.71260541340001
 30
0.0
 11
69.795614966999992
 21
268.71260541340001
 31
0.0
  0
LINE
  5
91
  8
図枠
 10
668.07690794359985
 20
-288.59404865279998
 30
0.0
 11
668.07690794359985
 21
-291.59404865279998
 31
0.0
  0
LINE
  5
92
  8
図枠
 10
682.07690794359985
 20
-284.59404865279998
 30
0.0
 11
685.07690794359985
 21
-281.59404865279998
 31
0.0
  0
LINE
  5
93
  8
図枠
 10
719.35575202799987
 20
-290.19404865280001
 30
0.0
 11
718.88641869469996
 21
-288.59404865279998
 31
0.0
  0
LINE
  5
94
  8
図枠
 10
673.07690794359985
 20
-285.59404865279998
 30
0.0
 11
673.07690794359985
 21
-284.59404865279998
 31
0.0
  0
LINE
  5
95
  8
図枠
 10
704.12355876890001
 20
-291.2923110708
 30
0.0
 11
703.76735464939998
 21
-291.64106735920001
 31
0.0
  0
LINE
  5
96
  8
図枠
 10
706.39812006479985
 20
-284.59404865279998
 30
0.0
 11
708.39812006479997
 21
-281.59404865279998
 31
0.0
  0
LINE
  5
97
  8
図枠
 10
730.83308536130005
 20
-290.19404865280001
 30
0.0
 11
730.83308536130005
 21
-293.79404865279997
 31
0.0
  0
LINE
  5
98
  8
図枠
 10
708.39812006479997
 20
-292.59404865279998
 30
0.0
 11
708.39812006479997
 21
-295.59404865279998
 31
0.0
  0
LINE
  5
99
  8
図枠
 10
723.49501407339994
 20
-284.99404865280002
 30
0.0
 11
730.83308536130005
 21
-284.99404865280002
 31
0.0
  0
LINE
  5
9A
  8
図枠
 10
723.49501407339994
 20
-284.99404865280002
 30
0.0
 11
723.20222557300008
 21
-283.97659087189999
 31
0.0
  0
LINE
  5
9B
  8
図枠
 10
708.39812006479997
 20
-281.59404865279998
 30
0.0
 11
690.39812006479985
 21
-281.59404865279998
 31
0.0
  0
INSERT
  5
9C
  8
0
  6
CONTINUOUS
  2
*U43
 10
0.0
 20
0.0
 30
0.0
  0
LINE
  5
9D
  8
図枠
 10
721.23308536130003
 20
-296.59404865279998
 30
0.0
 11
720.41175202800002
 21
-293.79404865279997
 31
0.0
  0
LINE
  5
9E
  8
図枠
 10
674.07690794359985
 20
-292.59404865279998
 30
0.0
 11
668.07690794359985
 21
-292.59404865279998
 31
0.0
  0
LINE
  5
9F
  8
図枠
 10
690.39812006479985
 20
-285.19404865280001
 30
0.0
 11
700.39812006479997
 21
-285.19404865280001
 31
0.0
  0
LINE
  5
A0
  8
図枠
 10
717.52744999039987
 20
-242.34739458659999
 30
0.0
 11
727.1274499903999
 21
-239.94739458660001
 31
0.0
  0
CIRCLE
  5
A1
  8
図枠
 10
706.55561496699988
 20
-244.7473945866
 30
0.0
 40
4.7999999999999989
  0
INSERT
  5
A2
  8
0
  6
CONTINUOUS
  2
*U44
 10
0.0
 20
0.0
 30
0.0
  0
LINE
  5
A3
  8
図枠
 10
673.07690794359985
 20
-288.59404865279998
 30
0.0
 11
677.07690794359985
 21
-288.59404865279998
 31
0.0
  0
LINE
  5
A4
  8
図枠
 10
712.83308536130005
 20
-288.59404865279998
 30
0.0
 11
718.88641869469996
 21
-288.59404865279998
 31
0.0
  0
LINE
  5
A5
  8
図枠
 10
685.07690794359985
 20
-285.59404865279998
 30
0.0
 11
682.07690794359985
 21
-285.59404865279998
 31
0.0
  0
LINE
  5
A6
  8
図枠
 10
682.07690794359985
 20
-285.59404865279998
 30
0.0
 11
682.07690794359985
 21
-284.59404865279998
 31
0.0
  0
LINE
  5
A7
  8
図枠
 10
712.83308536130005
 20
-284.99404865280002
 30
0.0
 11
717.83041869470003
 21
-284.99404865280002
 31
0.0
  0
LINE
  5
A8
  8
図枠
 10
723.20222557300008
 20
-283.97659087189999
 30
0.0
 11
724.83308536130005
 21
-281.59404865279998
 31
0.0
  0
LINE
  5
A9
  8
図枠
 10
690.39812006479985
 20
-295.59404865279998
 30
0.0
 11
690.39812006479985
 21
-292.59404865279998
 31
0.0
  0
LINE
  5
AA
  8
図枠
 10
739.75561496699993
 20
-233.7473945866
 30
0.0
 11
739.75561496699993
 21
-299.74739458660002
 31
0.0
  0
INSERT
  5
AB
  8
0
  6
CONTINUOUS
  2
*U45
 10
0.0
 20
0.0
 30
0.0
  0
INSERT
  5
AC
  8
0
  6
CONTINUOUS
  2
*U46
 10
0.0
 20
0.0
 30
0.0
  0
INSERT
  5
AD
  8
0
  6
CONTINUOUS
  2
*U47
 10
0.0
 20
0.0
 30
0.0
  0
LINE
  5
AE
  8
図枠
 62
     5
 10
694.23704419490002
 20
231.2141889154
 30
0.0
 11
704.13704419489989
 21
231.2141889154
 31
0.0
  0
LINE
  5
AF
  8
図枠
 10
665.77470032040003
 20
-288.59404865279998
 30
0.0
 11
667.77470032040003
 21
-288.59404865279998
 31
0.0
  0
ARC
  5
B0
  8
図枠
 10
695.39812006479997
 20
-284.59404865279998
 30
0.0
 40
11.0
 50
322.48761197969998
 51
0.0
  0
LINE
  5
B1
  8
図枠
 10
668.07690794359985
 20
-295.59404865279998
 30
0.0
 11
676.07690794359985
 21
-295.59404865279998
 31
0.0
  0
LINE
  5
B2
  8
図枠
 10
712.83308536130005
 20
-293.79404865279997
 30
0.0
 11
720.41175202800002
 21
-293.79404865279997
 31
0.0
  0
ARC
  5
B3
  8
図枠
 10
674.07690794359985
 20
-289.59404865279998
 30
0.0
 40
3.0
 50
270.0
 51
0.0
  0
LINE
  5
B4
  8
図枠
 10
712.83308536130005
 20
-290.19404865280001
 30
0.0
 11
712.83308536130005
 21
-293.79404865279997
 31
0.0
  0
LINE
  5
B5
  8
図枠
 10
668.07690794359985
 20
-291.59404865279998
 30
0.0
 11
673.07690794359985
 21
-291.59404865279998
 31
0.0
  0
LINE
  5
B6
  8
図枠
 10
699.47074504809996
 20
-288.63219046310002
 30
0.0
 11
698.98955343550006
 21
-289.16366718419999
 31
0.0
  0
LINE
  5
B7
  8
図枠
 10
726.83308536130005
 20
-296.59404865279998
 30
0.0
 11
721.23308536130003
 21
-296.59404865279998
 31
0.0
  0
LINE
  5
B8
  8
図枠
 10
677.07690794359985
 20
-288.59404865279998
 30
0.0
 11
677.07690794359985
 21
-289.59404865279998
 31
0.0
  0
LINE
  5
B9
  8
図枠
 10
879.75561496699993
 20
-233.7473945866
 30
0.0
 11
589.75561496699993
 21
-233.7473945866
 31
0.0
  0
LINE
  5
BA
  8
図枠
 10
727.1274499903999
 20
-239.94739458660001
 30
0.0
 11
727.1274499903999
 21
-249.54739458660001
 31
0.0
  0
LINE
  5
BB
  8
図枠
 62
     5
 10
699.18704419489995
 20
249.68784041289999
 30
0.0
 11
694.23704419490002
 21
241.11418891540001
 31
0.0
  0
LINE
  5
BC
  8
図枠
 10
685.07690794359985
 20
-281.59404865279998
 30
0.0
 11
677.07690794359985
 21
-281.59404865279998
 31
0.0
  0
LINE
  5
BD
  8
図枠
 10
682.07690794359985
 20
-289.59404865279998
 30
0.0
 11
682.07690794359985
 21
-288.59404865279998
 31
0.0
  0
LINE
  5
BE
  8
図枠
 10
712.83308536130005
 20
-284.99404865280002
 30
0.0
 11
712.83308536130005
 21
-288.59404865279998
 31
0.0
  0
LINE
  5
BF
  8
図枠
 10
677.07690794359985
 20
-285.59404865279998
 30
0.0
 11
673.07690794359985
 21
-285.59404865279998
 31
0.0
  0
LINE
  5
C0
  8
図枠
 10
676.07690794359985
 20
-281.59404865279998
 30
0.0
 11
668.07690794359985
 21
-281.59404865279998
 31
0.0
  0
LINE
  5
C1
  8
図枠
 10
673.07690794359985
 20
-284.59404865279998
 30
0.0
 11
676.07690794359985
 21
-281.59404865279998
 31
0.0
  0
LINE
  5
C2
  8
図枠
 10
668.07690794359985
 20
-281.59404865279998
 30
0.0
 11
668.07690794359985
 21
-285.59404865279998
 31
0.0
  0
LINE
  5
C3
  8
図枠
 10
726.02734401600003
 20
-293.79404865279997
 30
0.0
 11
730.83308536130005
 21
-293.79404865279997
 31
0.0
  0
LINE
  5
C4
  8
図枠
 10
717.83041869470003
 20
-284.99404865280002
 30
0.0
 11
716.83308536130005
 21
-281.59404865279998
 31
0.0
  0
LINE
  5
C5
  8
図枠
 10
712.83308536130005
 20
-290.19404865280001
 30
0.0
 11
719.35575202799987
 21
-290.19404865280001
 31
0.0
  0
LINE
  5
C6
  8
図枠
 10
724.99139085770003
 20
-290.19404865280001
 30
0.0
 11
724.53096723169995
 21
-288.59404865279998
 31
0.0
  0
ARC
  5
C7
  8
図枠
 10
692.79812006479995
 20
-284.99404865280002
 30
0.0
 40
7.5999999999999988
 50
270.0
 51
298.08590481520002
  0
INSERT
  5
C8
  8
0
  6
CONTINUOUS
  2
*U48
 10
0.0
 20
0.0
 30
0.0
  0
LINE
  5
C9
  8
図枠
 10
594.75561496699993
 20
-244.7473945866
 30
0.0
 11
634.75561496699993
 21
-244.7473945866
 31
0.0
  0
LINE
  5
CA
  8
図枠
 10
639.75561496699993
 20
-233.7473945866
 30
0.0
 11
639.75561496699993
 21
-255.7473945866
 31
0.0
  0
LINE
  5
CB
  8
図枠
 10
589.75561496699993
 20
-255.7473945866
 30
0.0
 11
879.75561496699993
 21
-255.7473945866
 31
0.0
  0
LINE
  5
CC
  8
図枠
 10
689.75561496699993
 20
-233.7473945866
 30
0.0
 11
689.75561496699993
 21
-255.7473945866
 31
0.0
  0
LINE
  5
CD
  8
図枠
  6
BORDER
 10
706.55561496699988
 20
-237.54739458660001
 30
0.0
 11
706.55561496699988
 21
-251.94739458660001
 31
0.0
  0
LINE
  5
CE
  8
図枠
  6
BORDER
 10
706.55561496699988
 20
-237.54739458660001
 30
0.0
 11
706.55561496699988
 21
-251.94739458660001
 31
0.0
  0
LINE
  5
CF
  8
図枠
 10
730.83308536130005
 20
-284.99404865280002
 30
0.0
 11
730.83308536130005
 21
-288.59404865279998
 31
0.0
  0
LINE
  5
D0
  8
図枠
 10
644.75561496699993
 20
-244.7473945866
 30
0.0
 11
684.75561496699993
 21
-244.7473945866
 31
0.0
  0
INSERT
  5
D1
  8
0
  6
CONTINUOUS
  2
*U49
 10
0.0
 20
0.0
 30
0.0
  0
CIRCLE
  5
D2
  8
図枠
 10
706.55561496699988
 20
-244.7473945866
 30
0.0
 40
4.7999999999999989
  0
LINE
  5
D3
  8
図枠
 10
717.52744999039987
 20
-242.34739458659999
 30
0.0
 11
727.1274499903999
 21
-239.94739458660001
 31
0.0
  0
INSERT
  5
D4
  8
0
  6
CONTINUOUS
  2
*U50
 10
0.0
 20
0.0
 30
0.0
  0
CIRCLE
  5
D5
  8
図枠
 10
706.55561496699988
 20
-244.7473945866
 30
0.0
 40
2.399999999999999
  0
LINE
  5
D6
  8
図枠
 10
726.83308536130005
 20
-296.59404865279998
 30
0.0
 11
726.02734401600003
 21
-293.79404865279997
 31
0.0
  0
LINE
  5
D7
  8
図枠
 10
724.99139085770003
 20
-290.19404865280001
 30
0.0
 11
730.83308536130005
 21
-290.19404865280001
 31
0.0
  0
LINE
  5
D8
  8
図枠
 10
690.39812006479985
 20
-292.59404865279998
 30
0.0
 11
692.79812006479995
 21
-292.59404865279998
 31
0.0
  0
LINE
  5
D9
  8
図枠
 10
716.83308536130005
 20
-281.59404865279998
 30
0.0
 11
724.83308536130005
 21
-281.59404865279998
 31
0.0
  0
LINE
  5
DA
  8
図枠
 10
668.07690794359985
 20
-285.59404865279998
 30
0.0
 11
665.77470032040003
 21
-285.59404865279998
 31
0.0
  0
LINE
  5
DB
  8
図枠
 10
690.39812006479985
 20
-292.59404865279998
 30
0.0
 11
690.39812006479985
 21
-295.59404865279998
 31
0.0
  0
LINE
  5
DC
  8
図枠
 10
668.07690794359985
 20
-288.59404865279998
 30
0.0
 11
667.77470032040003
 21
-288.59404865279998
 31
0.0
  0
LINE
  5
DD
  8
図枠
 10
668.07690794359985
 20
-292.59404865279998
 30
0.0
 11
668.07690794359985
 21
-295.59404865279998
 31
0.0
  0
ARC
  5
DE
  8
図枠
 10
692.79812006479995
 20
-284.99404865280002
 30
0.0
 40
7.5999999999999988
 50
331.39928138329998
 51
358.49204224580001
  0
LINE
  5
DF
  8
図枠
 10
682.07690794359985
 20
-288.59404865279998
 30
0.0
 11
685.07690794359985
 21
-288.59404865279998
 31
0.0
  0
ARC
  5
E0
  8
図枠
 10
695.39812006479997
 20
-284.59404865279998
 30
0.0
 40
11.0
 50
270.0
 51
302.54495885400001
  0
LINE
  5
E1
  8
図枠
 10
717.52744999039987
 20
-247.1473945866
 30
0.0
 11
727.1274499903999
 21
-249.54739458660001
 31
0.0
  0
LINE
  5
E2
  8
図枠
 10
717.52744999039987
 20
-242.34739458659999
 30
0.0
 11
717.52744999039987
 21
-247.1473945866
 31
0.0
  0
LINE
  5
E3
  8
図枠
 10
727.1274499903999
 20
-239.94739458660001
 30
0.0
 11
727.1274499903999
 21
-249.54739458660001
 31
0.0
  0
LINE
  5
E4
  8
図枠
 10
698.39812006479985
 20
-286.23826918779997
 30
0.0
 11
697.26674921490007
 21
-287.36964003769998
 31
0.0
  0
LINE
  5
E5
  8
図枠
  6
BORDER
 10
699.35561496699995
 20
-244.7473945866
 30
0.0
 11
730.15561496700002
 21
-244.7473945866
 31
0.0
  0
CIRCLE
  5
E6
  8
図枠
 10
706.55561496699988
 20
-244.7473945866
 30
0.0
 40
2.399999999999999
  0
POLYLINE
  8
図枠
  5
477
  66
     1
 10
0.000000
 20
0.000000
 30
0.000000
  70
     8
  0
VERTEX
  8
図枠
  5
478
 10
703.767
 20
-291.641
 30
0.000000
  70
    32
  0
VERTEX
  8
図枠
  5
479
 10
703.802
 20
-291.651
 30
0.000000
  70
    32
  0
VERTEX
  8
図枠
  5
47A
 10
703.837
 20
-291.661
 30
0.000000
  70
    32
  0
VERTEX
  8
図枠
  5
47B
 10
703.872
 20
-291.671
 30
0.000000
  70
    32
  0
VERTEX
  8
図枠
  5
47C
 10
703.907
 20
-291.680
 30
0.000000
  70
    32
  0
VERTEX
  8
図枠
  5
47D
 10
703.943
 20
-291.690
 30
0.000000
  70
    32
  0
VERTEX
  8
図枠
  5
47E
 10
703.978
 20
-291.700
 30
0.000000
  70
    32
  0
VERTEX
  8
図枠
  5
47F
 10
704.013
 20
-291.709
 30
0.000000
  70
    32
  0
VERTEX
  8
図枠
  5
480
 10
704.048
 20
-291.719
 30
0.000000
  70
    32
  0
VERTEX
  8
図枠
  5
481
 10
704.083
 20
-291.728
 30
0.000000
  70
    32
  0
VERTEX
  8
図枠
  5
482
 10
704.119
 20
-291.738
 30
0.000000
  70
    32
  0
VERTEX
  8
図枠
  5
483
 10
704.154
 20
-291.747
 30
0.000000
  70
    32
  0
VERTEX
  8
図枠
  5
484
 10
704.189
 20
-291.756
 30
0.000000
  70
    32
  0
VERTEX
  8
図枠
  5
485
 10
704.225
 20
-291.766
 30
0.000000
  70
    32
  0
VERTEX
  8
図枠
  5
486
 10
704.260
 20
-291.775
 30
0.000000
  70
    32
  0
VERTEX
  8
図枠
  5
487
 10
704.295
 20
-291.784
 30
0.000000
  70
    32
  0
VERTEX
  8
図枠
  5
488
 10
704.331
 20
-291.793
 30
0.000000
  70
    32
  0
VERTEX
  8
図枠
  5
489
 10
704.366
 20
-291.802
 30
0.000000
  70
    32
  0
VERTEX
  8
図枠
  5
48A
 10
704.402
 20
-291.811
 30
0.000000
  70
    32
  0
VERTEX
  8
図枠
  5
48B
 10
704.438
 20
-291.820
 30
0.000000
  70
    32
  0
VERTEX
  8
図枠
  5
48C
 10
704.473
 20
-291.829
 30
0.000000
  70
    32
  0
VERTEX
  8
図枠
  5
48D
 10
704.509
 20
-291.838
 30
0.000000
  70
    32
  0
VERTEX
  8
図枠
  5
48E
 10
704.544
 20
-291.847
 30
0.000000
  70
    32
  0
VERTEX
  8
図枠
  5
48F
 10
704.580
 20
-291.855
 30
0.000000
  70
    32
  0
VERTEX
  8
図枠
  5
490
 10
704.616
 20
-291.864
 30
0.000000
  70
    32
  0
VERTEX
  8
図枠
  5
491
 10
704.652
 20
-291.873
 30
0.000000
  70
    32
  0
VERTEX
  8
図枠
  5
492
 10
704.687
 20
-291.881
 30
0.000000
  70
    32
  0
VERTEX
  8
図枠
  5
493
 10
704.723
 20
-291.890
 30
0.000000
  70
    32
  0
VERTEX
  8
図枠
  5
494
 10
704.759
 20
-291.898
 30
0.000000
  70
    32
  0
VERTEX
  8
図枠
  5
495
 10
704.795
 20
-291.907
 30
0.000000
  70
    32
  0
VERTEX
  8
図枠
  5
496
 10
704.831
 20
-291.915
 30
0.000000
  70
    32
  0
VERTEX
  8
図枠
  5
497
 10
704.867
 20
-291.924
 30
0.000000
  70
    32
  0
VERTEX
  8
図枠
  5
498
 10
704.903
 20
-291.932
 30
0.000000
  70
    32
  0
VERTEX
  8
図枠
  5
499
 10
704.938
 20
-291.940
 30
0.000000
  70
    32
  0
VERTEX
  8
図枠
  5
49A
 10
704.974
 20
-291.949
 30
0.000000
  70
    32
  0
VERTEX
  8
図枠
  5
49B
 10
705.010
 20
-291.957
 30
0.000000
  70
    32
  0
VERTEX
  8
図枠
  5
49C
 10
705.047
 20
-291.965
 30
0.000000
  70
    32
  0
VERTEX
  8
図枠
  5
49D
 10
705.083
 20
-291.973
 30
0.000000
  70
    32
  0
VERTEX
  8
図枠
  5
49E
 10
705.119
 20
-291.981
 30
0.000000
  70
    32
  0
VERTEX
  8
図枠
  5
49F
 10
705.155
 20
-291.989
 30
0.000000
  70
    32
  0
VERTEX
  8
図枠
  5
4A0
 10
705.191
 20
-291.997
 30
0.000000
  70
    32
  0
VERTEX
  8
図枠
  5
4A1
 10
705.227
 20
-292.005
 30
0.000000
  70
    32
  0
VERTEX
  8
図枠
  5
4A2
 10
705.263
 20
-292.013
 30
0.000000
  70
    32
  0
VERTEX
  8
図枠
  5
4A3
 10
705.300
 20
-292.021
 30
0.000000
  70
    32
  0
VERTEX
  8
図枠
  5
4A4
 10
705.336
 20
-292.029
 30
0.000000
  70
    32
  0
VERTEX
  8
図枠
  5
4A5
 10
705.372
 20
-292.037
 30
0.000000
  70
    32
  0
VERTEX
  8
図枠
  5
4A6
 10
705.408
 20
-292.045
 30
0.000000
  70
    32
  0
VERTEX
  8
図枠
  5
4A7
 10
705.445
 20
-292.053
 30
0.000000
  70
    32
  0
VERTEX
  8
図枠
  5
4A8
 10
705.481
 20
-292.060
 30
0.000000
  70
    32
  0
VERTEX
  8
図枠
  5
4A9
 10
705.517
 20
-292.068
 30
0.000000
  70
    32
  0
VERTEX
  8
図枠
  5
4AA
 10
705.554
 20
-292.076
 30
0.000000
  70
    32
  0
VERTEX
  8
図枠
  5
4AB
 10
705.590
 20
-292.083
 30
0.000000
  70
    32
  0
VERTEX
  8
図枠
  5
4AC
 10
705.626
 20
-292.091
 30
0.000000
  70
    32
  0
VERTEX
  8
図枠
  5
4AD
 10
705.663
 20
-292.098
 30
0.000000
  70
    32
  0
VERTEX
  8
図枠
  5
4AE
 10
705.699
 20
-292.106
 30
0.000000
  70
    32
  0
VERTEX
  8
図枠
  5
4AF
 10
705.736
 20
-292.113
 30
0.000000
  70
    32
  0
VERTEX
  8
図枠
  5
4B0
 10
705.772
 20
-292.121
 30
0.000000
  70
    32
  0
VERTEX
  8
図枠
  5
4B1
 10
705.809
 20
-292.128
 30
0.000000
  70
    32
  0
VERTEX
  8
図枠
  5
4B2
 10
705.845
 20
-292.136
 30
0.000000
  70
    32
  0
VERTEX
  8
図枠
  5
4B3
 10
705.882
 20
-292.143
 30
0.000000
  70
    32
  0
VERTEX
  8
図枠
  5
4B4
 10
705.919
 20
-292.150
 30
0.000000
  70
    32
  0
VERTEX
  8
図枠
  5
4B5
 10
705.955
 20
-292.157
 30
0.000000
  70
    32
  0
VERTEX
  8
図枠
  5
4B6
 10
705.992
 20
-292.165
 30
0.000000
  70
    32
  0
VERTEX
  8
図枠
  5
4B7
 10
706.028
 20
-292.172
 30
0.000000
  70
    32
  0
VERTEX
  8
図枠
  5
4B8
 10
706.065
 20
-292.179
 30
0.000000
  70
    32
  0
VERTEX
  8
図枠
  5
4B9
 10
706.102
 20
-292.186
 30
0.000000
  70
    32
  0
VERTEX
  8
図枠
  5
4BA
 10
706.138
 20
-292.193
 30
0.000000
  70
    32
  0
VERTEX
  8
図枠
  5
4BB
 10
706.175
 20
-292.201
 30
0.000000
  70
    32
  0
VERTEX
  8
図枠
  5
4BC
 10
706.212
 20
-292.208
 30
0.000000
  70
    32
  0
VERTEX
  8
図枠
  5
4BD
 10
706.249
 20
-292.215
 30
0.000000
  70
    32
  0
VERTEX
  8
図枠
  5
4BE
 10
706.285
 20
-292.222
 30
0.000000
  70
    32
  0
VERTEX
  8
図枠
  5
4BF
 10
706.322
 20
-292.229
 30
0.000000
  70
    32
  0
VERTEX
  8
図枠
  5
4C0
 10
706.359
 20
-292.236
 30
0.000000
  70
    32
  0
VERTEX
  8
図枠
  5
4C1
 10
706.396
 20
-292.243
 30
0.000000
  70
    32
  0
VERTEX
  8
図枠
  5
4C2
 10
706.432
 20
-292.250
 30
0.000000
  70
    32
  0
VERTEX
  8
図枠
  5
4C3
 10
706.469
 20
-292.257
 30
0.000000
  70
    32
  0
VERTEX
  8
図枠
  5
4C4
 10
706.506
 20
-292.263
 30
0.000000
  70
    32
  0
VERTEX
  8
図枠
  5
4C5
 10
706.543
 20
-292.270
 30
0.000000
  70
    32
  0
VERTEX
  8
図枠
  5
4C6
 10
706.580
 20
-292.277
 30
0.000000
  70
    32
  0
VERTEX
  8
図枠
  5
4C7
 10
706.617
 20
-292.284
 30
0.000000
  70
    32
  0
VERTEX
  8
図枠
  5
4C8
 10
706.654
 20
-292.291
 30
0.000000
  70
    32
  0
VERTEX
  8
図枠
  5
4C9
 10
706.691
 20
-292.298
 30
0.000000
  70
    32
  0
VERTEX
  8
図枠
  5
4CA
 10
706.728
 20
-292.304
 30
0.000000
  70
    32
  0
VERTEX
  8
図枠
  5
4CB
 10
706.764
 20
-292.311
 30
0.000000
  70
    32
  0
VERTEX
  8
図枠
  5
4CC
 10
706.801
 20
-292.318
 30
0.000000
  70
    32
  0
VERTEX
  8
図枠
  5
4CD
 10
706.838
 20
-292.324
 30
0.000000
  70
    32
  0
VERTEX
  8
図枠
  5
4CE
 10
706.875
 20
-292.331
 30
0.000000
  70
    32
  0
VERTEX
  8
図枠
  5
4CF
 10
706.912
 20
-292.338
 30
0.000000
  70
    32
  0
VERTEX
  8
図枠
  5
4D0
 10
706.949
 20
-292.344
 30
0.000000
  70
    32
  0
VERTEX
  8
図枠
  5
4D1
 10
706.986
 20
-292.351
 30
0.000000
  70
    32
  0
VERTEX
  8
図枠
  5
4D2
 10
707.023
 20
-292.358
 30
0.000000
  70
    32
  0
VERTEX
  8
図枠
  5
4D3
 10
707.060
 20
-292.364
 30
0.000000
  70
    32
  0
VERTEX
  8
図枠
  5
4D4
 10
707.097
 20
-292.371
 30
0.000000
  70
    32
  0
VERTEX
  8
図枠
  5
4D5
 10
707.135
 20
-292.377
 30
0.000000
  70
    32
  0
VERTEX
  8
図枠
  5
4D6
 10
707.172
 20
-292.384
 30
0.000000
  70
    32
  0
VERTEX
  8
図枠
  5
4D7
 10
707.209
 20
-292.390
 30
0.000000
  70
    32
  0
VERTEX
  8
図枠
  5
4D8
 10
707.246
 20
-292.397
 30
0.000000
  70
    32
  0
VERTEX
  8
図枠
  5
4D9
 10
707.283
 20
-292.403
 30
0.000000
  70
    32
  0
VERTEX
  8
図枠
  5
4DA
 10
707.320
 20
-292.410
 30
0.000000
  70
    32
  0
VERTEX
  8
図枠
  5
4DB
 10
707.357
 20
-292.416
 30
0.000000
  70
    32
  0
VERTEX
  8
図枠
  5
4DC
 10
707.394
 20
-292.423
 30
0.000000
  70
    32
  0
VERTEX
  8
図枠
  5
4DD
 10
707.431
 20
-292.429
 30
0.000000
  70
    32
  0
VERTEX
  8
図枠
  5
4DE
 10
707.468
 20
-292.436
 30
0.000000
  70
    32
  0
VERTEX
  8
図枠
  5
4DF
 10
707.506
 20
-292.442
 30
0.000000
  70
    32
  0
VERTEX
  8
図枠
  5
4E0
 10
707.543
 20
-292.449
 30
0.000000
  70
    32
  0
VERTEX
  8
図枠
  5
4E1
 10
707.580
 20
-292.455
 30
0.000000
  70
    32
  0
VERTEX
  8
図枠
  5
4E2
 10
707.617
 20
-292.461
 30
0.000000
  70
    32
  0
VERTEX
  8
図枠
  5
4E3
 10
707.654
 20
-292.468
 30
0.000000
  70
    32
  0
VERTEX
  8
図枠
  5
4E4
 10
707.691
 20
-292.474
 30
0.000000
  70
    32
  0
VERTEX
  8
図枠
  5
4E5
 10
707.728
 20
-292.480
 30
0.000000
  70
    32
  0
VERTEX
  8
図枠
  5
4E6
 10
707.766
 20
-292.487
 30
0.000000
  70
    32
  0
VERTEX
  8
図枠
  5
4E7
 10
707.803
 20
-292.493
 30
0.000000
  70
    32
  0
VERTEX
  8
図枠
  5
4E8
 10
707.840
 20
-292.500
 30
0.000000
  70
    32
  0
VERTEX
  8
図枠
  5
4E9
 10
707.877
 20
-292.506
 30
0.000000
  70
    32
  0
VERTEX
  8
図枠
  5
4EA
 10
707.914
 20
-292.512
 30
0.000000
  70
    32
  0
VERTEX
  8
図枠
  5
4EB
 10
707.952
 20
-292.518
 30
0.000000
  70
    32
  0
VERTEX
  8
図枠
  5
4EC
 10
707.989
 20
-292.525
 30
0.000000
  70
    32
  0
VERTEX
  8
図枠
  5
4ED
 10
708.026
 20
-292.531
 30
0.000000
  70
    32
  0
VERTEX
  8
図枠
  5
4EE
 10
708.063
 20
-292.537
 30
0.000000
  70
    32
  0
VERTEX
  8
図枠
  5
4EF
 10
708.100
 20
-292.544
 30
0.000000
  70
    32
  0
VERTEX
  8
図枠
  5
4F0
 10
708.138
 20
-292.550
 30
0.000000
  70
    32
  0
VERTEX
  8
図枠
  5
4F1
 10
708.175
 20
-292.556
 30
0.000000
  70
    32
  0
VERTEX
  8
図枠
  5
4F2
 10
708.212
 20
-292.563
 30
0.000000
  70
    32
  0
VERTEX
  8
図枠
  5
4F3
 10
708.249
 20
-292.569
 30
0.000000
  70
    32
  0
VERTEX
  8
図枠
  5
4F4
 10
708.286
 20
-292.575
 30
0.000000
  70
    32
  0
VERTEX
  8
図枠
  5
4F5
 10
708.324
 20
-292.581
 30
0.000000
  70
    32
  0
VERTEX
  8
図枠
  5
4F6
 10
708.361
 20
-292.588
 30
0.000000
  70
    32
  0
VERTEX
  8
図枠
  5
4F7
 10
708.398
 20
-292.594
 30
0.000000
  70
    32
  0
SEQEND
  8
図枠
  5
4F8
  0
POLYLINE
  8
図枠
  5
4F9
  66
     1
 10
0.000000
 20
0.000000
 30
0.000000
  70
     8
  0
VERTEX
  8
図枠
  5
4FA
 10
697.267
 20
-287.370
 30
0.000000
  70
    32
  0
VERTEX
  8
図枠
  5
4FB
 10
697.280
 20
-287.384
 30
0.000000
  70
    32
  0
VERTEX
  8
図枠
  5
4FC
 10
697.293
 20
-287.399
 30
0.000000
  70
    32
  0
VERTEX
  8
図枠
  5
4FD
 10
697.306
 20
-287.414
 30
0.000000
  70
    32
  0
VERTEX
  8
図枠
  5
4FE
 10
697.320
 20
-287.429
 30
0.000000
  70
    32
  0
VERTEX
  8
図枠
  5
4FF
 10
697.333
 20
-287.443
 30
0.000000
  70
    32
  0
VERTEX
  8
図枠
  5
500
 10
697.346
 20
-287.458
 30
0.000000
  70
    32
  0
VERTEX
  8
図枠
  5
501
 10
697.359
 20
-287.473
 30
0.000000
  70
    32
  0
VERTEX
  8
図枠
  5
502
 10
697.372
 20
-287.487
 30
0.000000
  70
    32
  0
VERTEX
  8
図枠
  5
503
 10
697.386
 20
-287.502
 30
0.000000
  70
    32
  0
VERTEX
  8
図枠
  5
504
 10
697.399
 20
-287.517
 30
0.000000
  70
    32
  0
VERTEX
  8
図枠
  5
505
 10
697.412
 20
-287.531
 30
0.000000
  70
    32
  0
VERTEX
  8
図枠
  5
506
 10
697.425
 20
-287.546
 30
0.000000
  70
    32
  0
VERTEX
  8
図枠
  5
507
 10
697.438
 20
-287.561
 30
0.000000
  70
    32
  0
VERTEX
  8
図枠
  5
508
 10
697.452
 20
-287.576
 30
0.000000
  70
    32
  0
VERTEX
  8
図枠
  5
509
 10
697.465
 20
-287.590
 30
0.000000
  70
    32
  0
VERTEX
  8
図枠
  5
50A
 10
697.478
 20
-287.605
 30
0.000000
  70
    32
  0
VERTEX
  8
図枠
  5
50B
 10
697.491
 20
-287.620
 30
0.000000
  70
    32
  0
VERTEX
  8
図枠
  5
50C
 10
697.504
 20
-287.634
 30
0.000000
  70
    32
  0
VERTEX
  8
図枠
  5
50D
 10
697.518
 20
-287.649
 30
0.000000
  70
    32
  0
VERTEX
  8
図枠
  5
50E
 10
697.531
 20
-287.664
 30
0.000000
  70
    32
  0
VERTEX
  8
図枠
  5
50F
 10
697.544
 20
-287.678
 30
0.000000
  70
    32
  0
VERTEX
  8
図枠
  5
510
 10
697.557
 20
-287.693
 30
0.000000
  70
    32
  0
VERTEX
  8
図枠
  5
511
 10
697.571
 20
-287.708
 30
0.000000
  70
    32
  0
VERTEX
  8
図枠
  5
512
 10
697.584
 20
-287.722
 30
0.000000
  70
    32
  0
VERTEX
  8
図枠
  5
513
 10
697.597
 20
-287.737
 30
0.000000
  70
    32
  0
VERTEX
  8
図枠
  5
514
 10
697.610
 20
-287.752
 30
0.000000
  70
    32
  0
VERTEX
  8
図枠
  5
515
 10
697.624
 20
-287.766
 30
0.000000
  70
    32
  0
VERTEX
  8
図枠
  5
516
 10
697.637
 20
-287.781
 30
0.000000
  70
    32
  0
VERTEX
  8
図枠
  5
517
 10
697.650
 20
-287.796
 30
0.000000
  70
    32
  0
VERTEX
  8
図枠
  5
518
 10
697.663
 20
-287.810
 30
0.000000
  70
    32
  0
VERTEX
  8
図枠
  5
519
 10
697.677
 20
-287.825
 30
0.000000
  70
    32
  0
VERTEX
  8
図枠
  5
51A
 10
697.690
 20
-287.839
 30
0.000000
  70
    32
  0
VERTEX
  8
図枠
  5
51B
 10
697.703
 20
-287.854
 30
0.000000
  70
    32
  0
VERTEX
  8
図枠
  5
51C
 10
697.716
 20
-287.869
 30
0.000000
  70
    32
  0
VERTEX
  8
図枠
  5
51D
 10
697.730
 20
-287.883
 30
0.000000
  70
    32
  0
VERTEX
  8
図枠
  5
51E
 10
697.743
 20
-287.898
 30
0.000000
  70
    32
  0
VERTEX
  8
図枠
  5
51F
 10
697.756
 20
-287.912
 30
0.000000
  70
    32
  0
VERTEX
  8
図枠
  5
520
 10
697.770
 20
-287.927
 30
0.000000
  70
    32
  0
VERTEX
  8
図枠
  5
521
 10
697.783
 20
-287.941
 30
0.000000
  70
    32
  0
VERTEX
  8
図枠
  5
522
 10
697.796
 20
-287.956
 30
0.000000
  70
    32
  0
VERTEX
  8
図枠
  5
523
 10
697.809
 20
-287.970
 30
0.000000
  70
    32
  0
VERTEX
  8
図枠
  5
524
 10
697.823
 20
-287.985
 30
0.000000
  70
    32
  0
VERTEX
  8
図枠
  5
525
 10
697.836
 20
-288.000
 30
0.000000
  70
    32
  0
VERTEX
  8
図枠
  5
526
 10
697.849
 20
-288.014
 30
0.000000
  70
    32
  0
VERTEX
  8
図枠
  5
527
 10
697.863
 20
-288.029
 30
0.000000
  70
    32
  0
VERTEX
  8
図枠
  5
528
 10
697.876
 20
-288.043
 30
0.000000
  70
    32
  0
VERTEX
  8
図枠
  5
529
 10
697.889
 20
-288.058
 30
0.000000
  70
    32
  0
VERTEX
  8
図枠
  5
52A
 10
697.903
 20
-288.072
 30
0.000000
  70
    32
  0
VERTEX
  8
図枠
  5
52B
 10
697.916
 20
-288.086
 30
0.000000
  70
    32
  0
VERTEX
  8
図枠
  5
52C
 10
697.930
 20
-288.101
 30
0.000000
  70
    32
  0
VERTEX
  8
図枠
  5
52D
 10
697.943
 20
-288.115
 30
0.000000
  70
    32
  0
VERTEX
  8
図枠
  5
52E
 10
697.956
 20
-288.130
 30
0.000000
  70
    32
  0
VERTEX
  8
図枠
  5
52F
 10
697.970
 20
-288.144
 30
0.000000
  70
    32
  0
VERTEX
  8
図枠
  5
530
 10
697.983
 20
-288.159
 30
0.000000
  70
    32
  0
VERTEX
  8
図枠
  5
531
 10
697.996
 20
-288.173
 30
0.000000
  70
    32
  0
VERTEX
  8
図枠
  5
532
 10
698.010
 20
-288.187
 30
0.000000
  70
    32
  0
VERTEX
  8
図枠
  5
533
 10
698.023
 20
-288.202
 30
0.000000
  70
    32
  0
VERTEX
  8
図枠
  5
534
 10
698.037
 20
-288.216
 30
0.000000
  70
    32
  0
VERTEX
  8
図枠
  5
535
 10
698.050
 20
-288.230
 30
0.000000
  70
    32
  0
VERTEX
  8
図枠
  5
536
 10
698.064
 20
-288.245
 30
0.000000
  70
    32
  0
VERTEX
  8
図枠
  5
537
 10
698.077
 20
-288.259
 30
0.000000
  70
    32
  0
VERTEX
  8
図枠
  5
538
 10
698.090
 20
-288.273
 30
0.000000
  70
    32
  0
VERTEX
  8
図枠
  5
539
 10
698.104
 20
-288.288
 30
0.000000
  70
    32
  0
VERTEX
  8
図枠
  5
53A
 10
698.117
 20
-288.302
 30
0.000000
  70
    32
  0
VERTEX
  8
図枠
  5
53B
 10
698.131
 20
-288.316
 30
0.000000
  70
    32
  0
VERTEX
  8
図枠
  5
53C
 10
698.144
 20
-288.330
 30
0.000000
  70
    32
  0
VERTEX
  8
図枠
  5
53D
 10
698.158
 20
-288.345
 30
0.000000
  70
    32
  0
VERTEX
  8
図枠
  5
53E
 10
698.171
 20
-288.359
 30
0.000000
  70
    32
  0
VERTEX
  8
図枠
  5
53F
 10
698.185
 20
-288.373
 30
0.000000
  70
    32
  0
VERTEX
  8
図枠
  5
540
 10
698.198
 20
-288.387
 30
0.000000
  70
    32
  0
VERTEX
  8
図枠
  5
541
 10
698.212
 20
-288.401
 30
0.000000
  70
    32
  0
VERTEX
  8
図枠
  5
542
 10
698.226
 20
-288.416
 30
0.000000
  70
    32
  0
VERTEX
  8
図枠
  5
543
 10
698.239
 20
-288.430
 30
0.000000
  70
    32
  0
VERTEX
  8
図枠
  5
544
 10
698.253
 20
-288.444
 30
0.000000
  70
    32
  0
VERTEX
  8
図枠
  5
545
 10
698.266
 20
-288.458
 30
0.000000
  70
    32
  0
VERTEX
  8
図枠
  5
546
 10
698.280
 20
-288.472
 30
0.000000
  70
    32
  0
VERTEX
  8
図枠
  5
547
 10
698.293
 20
-288.486
 30
0.000000
  70
    32
  0
VERTEX
  8
図枠
  5
548
 10
698.307
 20
-288.500
 30
0.000000
  70
    32
  0
VERTEX
  8
図枠
  5
549
 10
698.321
 20
-288.514
 30
0.000000
  70
    32
  0
VERTEX
  8
図枠
  5
54A
 10
698.334
 20
-288.528
 30
0.000000
  70
    32
  0
VERTEX
  8
図枠
  5
54B
 10
698.348
 20
-288.542
 30
0.000000
  70
    32
  0
VERTEX
  8
図枠
  5
54C
 10
698.362
 20
-288.556
 30
0.000000
  70
    32
  0
VERTEX
  8
図枠
  5
54D
 10
698.375
 20
-288.570
 30
0.000000
  70
    32
  0
VERTEX
  8
図枠
  5
54E
 10
698.389
 20
-288.584
 30
0.000000
  70
    32
  0
VERTEX
  8
図枠
  5
54F
 10
698.403
 20
-288.598
 30
0.000000
  70
    32
  0
VERTEX
  8
図枠
  5
550
 10
698.416
 20
-288.612
 30
0.000000
  70
    32
  0
VERTEX
  8
図枠
  5
551
 10
698.430
 20
-288.626
 30
0.000000
  70
    32
  0
VERTEX
  8
図枠
  5
552
 10
698.444
 20
-288.640
 30
0.000000
  70
    32
  0
VERTEX
  8
図枠
  5
553
 10
698.457
 20
-288.654
 30
0.000000
  70
    32
  0
VERTEX
  8
図枠
  5
554
 10
698.471
 20
-288.667
 30
0.000000
  70
    32
  0
VERTEX
  8
図枠
  5
555
 10
698.485
 20
-288.681
 30
0.000000
  70
    32
  0
VERTEX
  8
図枠
  5
556
 10
698.499
 20
-288.695
 30
0.000000
  70
    32
  0
VERTEX
  8
図枠
  5
557
 10
698.513
 20
-288.709
 30
0.000000
  70
    32
  0
VERTEX
  8
図枠
  5
558
 10
698.526
 20
-288.723
 30
0.000000
  70
    32
  0
VERTEX
  8
図枠
  5
559
 10
698.540
 20
-288.736
 30
0.000000
  70
    32
  0
VERTEX
  8
図枠
  5
55A
 10
698.554
 20
-288.750
 30
0.000000
  70
    32
  0
VERTEX
  8
図枠
  5
55B
 10
698.568
 20
-288.764
 30
0.000000
  70
    32
  0
VERTEX
  8
図枠
  5
55C
 10
698.582
 20
-288.777
 30
0.000000
  70
    32
  0
VERTEX
  8
図枠
  5
55D
 10
698.595
 20
-288.791
 30
0.000000
  70
    32
  0
VERTEX
  8
図枠
  5
55E
 10
698.609
 20
-288.805
 30
0.000000
  70
    32
  0
VERTEX
  8
図枠
  5
55F
 10
698.623
 20
-288.818
 30
0.000000
  70
    32
  0
VERTEX
  8
図枠
  5
560
 10
698.637
 20
-288.832
 30
0.000000
  70
    32
  0
VERTEX
  8
図枠
  5
561
 10
698.651
 20
-288.845
 30
0.000000
  70
    32
  0
VERTEX
  8
図枠
  5
562
 10
698.665
 20
-288.859
 30
0.000000
  70
    32
  0
VERTEX
  8
図枠
  5
563
 10
698.679
 20
-288.873
 30
0.000000
  70
    32
  0
VERTEX
  8
図枠
  5
564
 10
698.693
 20
-288.886
 30
0.000000
  70
    32
  0
VERTEX
  8
図枠
  5
565
 10
698.707
 20
-288.899
 30
0.000000
  70
    32
  0
VERTEX
  8
図枠
  5
566
 10
698.721
 20
-288.913
 30
0.000000
  70
    32
  0
VERTEX
  8
図枠
  5
567
 10
698.735
 20
-288.926
 30
0.000000
  70
    32
  0
VERTEX
  8
図枠
  5
568
 10
698.749
 20
-288.940
 30
0.000000
  70
    32
  0
VERTEX
  8
図枠
  5
569
 10
698.763
 20
-288.953
 30
0.000000
  70
    32
  0
VERTEX
  8
図枠
  5
56A
 10
698.777
 20
-288.966
 30
0.000000
  70
    32
  0
VERTEX
  8
図枠
  5
56B
 10
698.791
 20
-288.980
 30
0.000000
  70
    32
  0
VERTEX
  8
図枠
  5
56C
 10
698.805
 20
-288.993
 30
0.000000
  70
    32
  0
VERTEX
  8
図枠
  5
56D
 10
698.819
 20
-289.006
 30
0.000000
  70
    32
  0
VERTEX
  8
図枠
  5
56E
 10
698.833
 20
-289.020
 30
0.000000
  70
    32
  0
VERTEX
  8
図枠
  5
56F
 10
698.847
 20
-289.033
 30
0.000000
  70
    32
  0
VERTEX
  8
図枠
  5
570
 10
698.862
 20
-289.046
 30
0.000000
  70
    32
  0
VERTEX
  8
図枠
  5
571
 10
698.876
 20
-289.059
 30
0.000000
  70
    32
  0
VERTEX
  8
図枠
  5
572
 10
698.890
 20
-289.072
 30
0.000000
  70
    32
  0
VERTEX
  8
図枠
  5
573
 10
698.904
 20
-289.086
 30
0.000000
  70
    32
  0
VERTEX
  8
図枠
  5
574
 10
698.918
 20
-289.099
 30
0.000000
  70
    32
  0
VERTEX
  8
図枠
  5
575
 10
698.932
 20
-289.112
 30
0.000000
  70
    32
  0
VERTEX
  8
図枠
  5
576
 10
698.947
 20
-289.125
 30
0.000000
  70
    32
  0
VERTEX
  8
図枠
  5
577
 10
698.961
 20
-289.138
 30
0.000000
  70
    32
  0
VERTEX
  8
図枠
  5
578
 10
698.975
 20
-289.151
 30
0.000000
  70
    32
  0
VERTEX
  8
図枠
  5
579
 10
698.990
 20
-289.164
 30
0.000000
  70
    32
  0
SEQEND
  8
図枠
  5
57A
  0
POLYLINE
  8
図枠
  5
57B
  66
     1
 10
0.000000
 20
0.000000
 30
0.000000
  70
     8
  0
VERTEX
  8
図枠
  5
57C
 10
701.316
 20
-293.867
 30
0.000000
  70
    32
  0
VERTEX
  8
図枠
  5
57D
 10
701.370
 20
-293.884
 30
0.000000
  70
    32
  0
VERTEX
  8
図枠
  5
57E
 10
701.423
 20
-293.901
 30
0.000000
  70
    32
  0
VERTEX
  8
図枠
  5
57F
 10
701.477
 20
-293.918
 30
0.000000
  70
    32
  0
VERTEX
  8
図枠
  5
580
 10
701.531
 20
-293.935
 30
0.000000
  70
    32
  0
VERTEX
  8
図枠
  5
581
 10
701.585
 20
-293.952
 30
0.000000
  70
    32
  0
VERTEX
  8
図枠
  5
582
 10
701.639
 20
-293.968
 30
0.000000
  70
    32
  0
VERTEX
  8
図枠
  5
583
 10
701.694
 20
-293.985
 30
0.000000
  70
    32
  0
VERTEX
  8
図枠
  5
584
 10
701.748
 20
-294.002
 30
0.000000
  70
    32
  0
VERTEX
  8
図枠
  5
585
 10
701.802
 20
-294.018
 30
0.000000
  70
    32
  0
VERTEX
  8
図枠
  5
586
 10
701.856
 20
-294.035
 30
0.000000
  70
    32
  0
VERTEX
  8
図枠
  5
587
 10
701.910
 20
-294.051
 30
0.000000
  70
    32
  0
VERTEX
  8
図枠
  5
588
 10
701.965
 20
-294.067
 30
0.000000
  70
    32
  0
VERTEX
  8
図枠
  5
589
 10
702.019
 20
-294.083
 30
0.000000
  70
    32
  0
VERTEX
  8
図枠
  5
58A
 10
702.073
 20
-294.100
 30
0.000000
  70
    32
  0
VERTEX
  8
図枠
  5
58B
 10
702.128
 20
-294.116
 30
0.000000
  70
    32
  0
VERTEX
  8
図枠
  5
58C
 10
702.182
 20
-294.132
 30
0.000000
  70
    32
  0
VERTEX
  8
図枠
  5
58D
 10
702.237
 20
-294.148
 30
0.000000
  70
    32
  0
VERTEX
  8
図枠
  5
58E
 10
702.291
 20
-294.163
 30
0.000000
  70
    32
  0
VERTEX
  8
図枠
  5
58F
 10
702.346
 20
-294.179
 30
0.000000
  70
    32
  0
VERTEX
  8
図枠
  5
590
 10
702.401
 20
-294.195
 30
0.000000
  70
    32
  0
VERTEX
  8
図枠
  5
591
 10
702.455
 20
-294.210
 30
0.000000
  70
    32
  0
VERTEX
  8
図枠
  5
592
 10
702.510
 20
-294.226
 30
0.000000
  70
    32
  0
VERTEX
  8
図枠
  5
593
 10
702.565
 20
-294.241
 30
0.000000
  70
    32
  0
VERTEX
  8
図枠
  5
594
 10
702.620
 20
-294.257
 30
0.000000
  70
    32
  0
VERTEX
  8
図枠
  5
595
 10
702.675
 20
-294.272
 30
0.000000
  70
    32
  0
VERTEX
  8
図枠
  5
596
 10
702.729
 20
-294.287
 30
0.000000
  70
    32
  0
VERTEX
  8
図枠
  5
597
 10
702.784
 20
-294.303
 30
0.000000
  70
    32
  0
VERTEX
  8
図枠
  5
598
 10
702.839
 20
-294.318
 30
0.000000
  70
    32
  0
VERTEX
  8
図枠
  5
599
 10
702.894
 20
-294.333
 30
0.000000
  70
    32
  0
VERTEX
  8
図枠
  5
59A
 10
702.949
 20
-294.348
 30
0.000000
  70
    32
  0
VERTEX
  8
図枠
  5
59B
 10
703.004
 20
-294.363
 30
0.000000
  70
    32
  0
VERTEX
  8
図枠
  5
59C
 10
703.059
 20
-294.377
 30
0.000000
  70
    32
  0
VERTEX
  8
図枠
  5
59D
 10
703.115
 20
-294.392
 30
0.000000
  70
    32
  0
VERTEX
  8
図枠
  5
59E
 10
703.170
 20
-294.407
 30
0.000000
  70
    32
  0
VERTEX
  8
図枠
  5
59F
 10
703.225
 20
-294.422
 30
0.000000
  70
    32
  0
VERTEX
  8
図枠
  5
5A0
 10
703.280
 20
-294.436
 30
0.000000
  70
    32
  0
VERTEX
  8
図枠
  5
5A1
 10
703.335
 20
-294.451
 30
0.000000
  70
    32
  0
VERTEX
  8
図枠
  5
5A2
 10
703.391
 20
-294.465
 30
0.000000
  70
    32
  0
VERTEX
  8
図枠
  5
5A3
 10
703.446
 20
-294.480
 30
0.000000
  70
    32
  0
VERTEX
  8
図枠
  5
5A4
 10
703.501
 20
-294.494
 30
0.000000
  70
    32
  0
VERTEX
  8
図枠
  5
5A5
 10
703.557
 20
-294.508
 30
0.000000
  70
    32
  0
VERTEX
  8
図枠
  5
5A6
 10
703.612
 20
-294.523
 30
0.000000
  70
    32
  0
VERTEX
  8
図枠
  5
5A7
 10
703.668
 20
-294.537
 30
0.000000
  70
    32
  0
VERTEX
  8
図枠
  5
5A8
 10
703.723
 20
-294.551
 30
0.000000
  70
    32
  0
VERTEX
  8
図枠
  5
5A9
 10
703.779
 20
-294.565
 30
0.000000
  70
    32
  0
VERTEX
  8
図枠
  5
5AA
 10
703.834
 20
-294.579
 30
0.000000
  70
    32
  0
VERTEX
  8
図枠
  5
5AB
 10
703.890
 20
-294.593
 30
0.000000
  70
    32
  0
VERTEX
  8
図枠
  5
5AC
 10
703.945
 20
-294.607
 30
0.000000
  70
    32
  0
VERTEX
  8
図枠
  5
5AD
 10
704.001
 20
-294.621
 30
0.000000
  70
    32
  0
VERTEX
  8
図枠
  5
5AE
 10
704.057
 20
-294.635
 30
0.000000
  70
    32
  0
VERTEX
  8
図枠
  5
5AF
 10
704.112
 20
-294.648
 30
0.000000
  70
    32
  0
VERTEX
  8
図枠
  5
5B0
 10
704.168
 20
-294.662
 30
0.000000
  70
    32
  0
VERTEX
  8
図枠
  5
5B1
 10
704.224
 20
-294.676
 30
0.000000
  70
    32
  0
VERTEX
  8
図枠
  5
5B2
 10
704.279
 20
-294.689
 30
0.000000
  70
    32
  0
VERTEX
  8
図枠
  5
5B3
 10
704.335
 20
-294.703
 30
0.000000
  70
    32
  0
VERTEX
  8
図枠
  5
5B4
 10
704.391
 20
-294.716
 30
0.000000
  70
    32
  0
VERTEX
  8
図枠
  5
5B5
 10
704.447
 20
-294.730
 30
0.000000
  70
    32
  0
VERTEX
  8
図枠
  5
5B6
 10
704.503
 20
-294.743
 30
0.000000
  70
    32
  0
VERTEX
  8
図枠
  5
5B7
 10
704.559
 20
-294.757
 30
0.000000
  70
    32
  0
VERTEX
  8
図枠
  5
5B8
 10
704.615
 20
-294.770
 30
0.000000
  70
    32
  0
VERTEX
  8
図枠
  5
5B9
 10
704.670
 20
-294.783
 30
0.000000
  70
    32
  0
VERTEX
  8
図枠
  5
5BA
 10
704.726
 20
-294.797
 30
0.000000
  70
    32
  0
VERTEX
  8
図枠
  5
5BB
 10
704.782
 20
-294.810
 30
0.000000
  70
    32
  0
VERTEX
  8
図枠
  5
5BC
 10
704.838
 20
-294.823
 30
0.000000
  70
    32
  0
VERTEX
  8
図枠
  5
5BD
 10
704.894
 20
-294.836
 30
0.000000
  70
    32
  0
VERTEX
  8
図枠
  5
5BE
 10
704.951
 20
-294.849
 30
0.000000
  70
    32
  0
VERTEX
  8
図枠
  5
5BF
 10
705.007
 20
-294.862
 30
0.000000
  70
    32
  0
VERTEX
  8
図枠
  5
5C0
 10
705.063
 20
-294.875
 30
0.000000
  70
    32
  0
VERTEX
  8
図枠
  5
5C1
 10
705.119
 20
-294.888
 30
0.000000
  70
    32
  0
VERTEX
  8
図枠
  5
5C2
 10
705.175
 20
-294.901
 30
0.000000
  70
    32
  0
VERTEX
  8
図枠
  5
5C3
 10
705.231
 20
-294.914
 30
0.000000
  70
    32
  0
VERTEX
  8
図枠
  5
5C4
 10
705.287
 20
-294.927
 30
0.000000
  70
    32
  0
VERTEX
  8
図枠
  5
5C5
 10
705.344
 20
-294.939
 30
0.000000
  70
    32
  0
VERTEX
  8
図枠
  5
5C6
 10
705.400
 20
-294.952
 30
0.000000
  70
    32
  0
VERTEX
  8
図枠
  5
5C7
 10
705.456
 20
-294.965
 30
0.000000
  70
    32
  0
VERTEX
  8
図枠
  5
5C8
 10
705.512
 20
-294.978
 30
0.000000
  70
    32
  0
VERTEX
  8
図枠
  5
5C9
 10
705.569
 20
-294.990
 30
0.000000
  70
    32
  0
VERTEX
  8
図枠
  5
5CA
 10
705.625
 20
-295.003
 30
0.000000
  70
    32
  0
VERTEX
  8
図枠
  5
5CB
 10
705.681
 20
-295.015
 30
0.000000
  70
    32
  0
VERTEX
  8
図枠
  5
5CC
 10
705.737
 20
-295.028
 30
0.000000
  70
    32
  0
VERTEX
  8
図枠
  5
5CD
 10
705.794
 20
-295.041
 30
0.000000
  70
    32
  0
VERTEX
  8
図枠
  5
5CE
 10
705.850
 20
-295.053
 30
0.000000
  70
    32
  0
VERTEX
  8
図枠
  5
5CF
 10
705.907
 20
-295.065
 30
0.000000
  70
    32
  0
VERTEX
  8
図枠
  5
5D0
 10
705.963
 20
-295.078
 30
0.000000
  70
    32
  0
VERTEX
  8
図枠
  5
5D1
 10
706.019
 20
-295.090
 30
0.000000
  70
    32
  0
VERTEX
  8
図枠
  5
5D2
 10
706.076
 20
-295.103
 30
0.000000
  70
    32
  0
VERTEX
  8
図枠
  5
5D3
 10
706.132
 20
-295.115
 30
0.000000
  70
    32
  0
VERTEX
  8
図枠
  5
5D4
 10
706.189
 20
-295.127
 30
0.000000
  70
    32
  0
VERTEX
  8
図枠
  5
5D5
 10
706.245
 20
-295.140
 30
0.000000
  70
    32
  0
VERTEX
  8
図枠
  5
5D6
 10
706.302
 20
-295.152
 30
0.000000
  70
    32
  0
VERTEX
  8
図枠
  5
5D7
 10
706.358
 20
-295.164
 30
0.000000
  70
    32
  0
VERTEX
  8
図枠
  5
5D8
 10
706.415
 20
-295.176
 30
0.000000
  70
    32
  0
VERTEX
  8
図枠
  5
5D9
 10
706.471
 20
-295.189
 30
0.000000
  70
    32
  0
VERTEX
  8
図枠
  5
5DA
 10
706.528
 20
-295.201
 30
0.000000
  70
    32
  0
VERTEX
  8
図枠
  5
5DB
 10
706.584
 20
-295.213
 30
0.000000
  70
    32
  0
VERTEX
  8
図枠
  5
5DC
 10
706.641
 20
-295.225
 30
0.000000
  70
    32
  0
VERTEX
  8
図枠
  5
5DD
 10
706.697
 20
-295.237
 30
0.000000
  70
    32
  0
VERTEX
  8
図枠
  5
5DE
 10
706.754
 20
-295.249
 30
0.000000
  70
    32
  0
VERTEX
  8
図枠
  5
5DF
 10
706.811
 20
-295.261
 30
0.000000
  70
    32
  0
VERTEX
  8
図枠
  5
5E0
 10
706.867
 20
-295.273
 30
0.000000
  70
    32
  0
VERTEX
  8
図枠
  5
5E1
 10
706.924
 20
-295.285
 30
0.000000
  70
    32
  0
VERTEX
  8
図枠
  5
5E2
 10
706.980
 20
-295.297
 30
0.000000
  70
    32
  0
VERTEX
  8
図枠
  5
5E3
 10
707.037
 20
-295.309
 30
0.000000
  70
    32
  0
VERTEX
  8
図枠
  5
5E4
 10
707.094
 20
-295.321
 30
0.000000
  70
    32
  0
VERTEX
  8
図枠
  5
5E5
 10
707.150
 20
-295.333
 30
0.000000
  70
    32
  0
VERTEX
  8
図枠
  5
5E6
 10
707.207
 20
-295.345
 30
0.000000
  70
    32
  0
VERTEX
  8
図枠
  5
5E7
 10
707.264
 20
-295.357
 30
0.000000
  70
    32
  0
VERTEX
  8
図枠
  5
5E8
 10
707.320
 20
-295.369
 30
0.000000
  70
    32
  0
VERTEX
  8
図枠
  5
5E9
 10
707.377
 20
-295.381
 30
0.000000
  70
    32
  0
VERTEX
  8
図枠
  5
5EA
 10
707.434
 20
-295.393
 30
0.000000
  70
    32
  0
VERTEX
  8
図枠
  5
5EB
 10
707.490
 20
-295.405
 30
0.000000
  70
    32
  0
VERTEX
  8
図枠
  5
5EC
 10
707.547
 20
-295.417
 30
0.000000
  70
    32
  0
VERTEX
  8
図枠
  5
5ED
 10
707.604
 20
-295.429
 30
0.000000
  70
    32
  0
VERTEX
  8
図枠
  5
5EE
 10
707.661
 20
-295.440
 30
0.000000
  70
    32
  0
VERTEX
  8
図枠
  5
5EF
 10
707.717
 20
-295.452
 30
0.000000
  70
    32
  0
VERTEX
  8
図枠
  5
5F0
 10
707.774
 20
-295.464
 30
0.000000
  70
    32
  0
VERTEX
  8
図枠
  5
5F1
 10
707.831
 20
-295.476
 30
0.000000
  70
    32
  0
VERTEX
  8
図枠
  5
5F2
 10
707.887
 20
-295.488
 30
0.000000
  70
    32
  0
VERTEX
  8
図枠
  5
5F3
 10
707.944
 20
-295.500
 30
0.000000
  70
    32
  0
VERTEX
  8
図枠
  5
5F4
 10
708.001
 20
-295.511
 30
0.000000
  70
    32
  0
VERTEX
  8
図枠
  5
5F5
 10
708.058
 20
-295.523
 30
0.000000
  70
    32
  0
VERTEX
  8
図枠
  5
5F6
 10
708.114
 20
-295.535
 30
0.000000
  70
    32
  0
VERTEX
  8
図枠
  5
5F7
 10
708.171
 20
-295.547
 30
0.000000
  70
    32
  0
VERTEX
  8
図枠
  5
5F8
 10
708.228
 20
-295.559
 30
0.000000
  70
    32
  0
VERTEX
  8
図枠
  5
5F9
 10
708.285
 20
-295.570
 30
0.000000
  70
    32
  0
VERTEX
  8
図枠
  5
5FA
 10
708.341
 20
-295.582
 30
0.000000
  70
    32
  0
VERTEX
  8
図枠
  5
5FB
 10
708.398
 20
-295.594
 30
0.000000
  70
    32
  0
SEQEND
  8
図枠
  5
5FC
  0
POLYLINE
  8
図枠
  5
5FD
  66
     1
 10
0.000000
 20
0.000000
 30
0.000000
  70
     8
  0
VERTEX
  8
図枠
  5
5FE
 10
690.398
 20
-286.882
 30
0.000000
  70
    32
  0
VERTEX
  8
図枠
  5
5FF
 10
690.434
 20
-286.916
 30
0.000000
  70
    32
  0
VERTEX
  8
図枠
  5
600
 10
690.470
 20
-286.949
 30
0.000000
  70
    32
  0
VERTEX
  8
図枠
  5
601
 10
690.506
 20
-286.982
 30
0.000000
  70
    32
  0
VERTEX
  8
図枠
  5
602
 10
690.542
 20
-287.015
 30
0.000000
  70
    32
  0
VERTEX
  8
図枠
  5
603
 10
690.578
 20
-287.049
 30
0.000000
  70
    32
  0
VERTEX
  8
図枠
  5
604
 10
690.614
 20
-287.082
 30
0.000000
  70
    32
  0
VERTEX
  8
図枠
  5
605
 10
690.650
 20
-287.115
 30
0.000000
  70
    32
  0
VERTEX
  8
図枠
  5
606
 10
690.686
 20
-287.148
 30
0.000000
  70
    32
  0
VERTEX
  8
図枠
  5
607
 10
690.722
 20
-287.181
 30
0.000000
  70
    32
  0
VERTEX
  8
図枠
  5
608
 10
690.758
 20
-287.214
 30
0.000000
  70
    32
  0
VERTEX
  8
図枠
  5
609
 10
690.794
 20
-287.248
 30
0.000000
  70
    32
  0
VERTEX
  8
図枠
  5
60A
 10
690.831
 20
-287.281
 30
0.000000
  70
    32
  0
VERTEX
  8
図枠
  5
60B
 10
690.867
 20
-287.314
 30
0.000000
  70
    32
  0
VERTEX
  8
図枠
  5
60C
 10
690.903
 20
-287.347
 30
0.000000
  70
    32
  0
VERTEX
  8
図枠
  5
60D
 10
690.939
 20
-287.380
 30
0.000000
  70
    32
  0
VERTEX
  8
図枠
  5
60E
 10
690.975
 20
-287.413
 30
0.000000
  70
    32
  0
VERTEX
  8
図枠
  5
60F
 10
691.011
 20
-287.446
 30
0.000000
  70
    32
  0
VERTEX
  8
図枠
  5
610
 10
691.047
 20
-287.480
 30
0.000000
  70
    32
  0
VERTEX
  8
図枠
  5
611
 10
691.083
 20
-287.513
 30
0.000000
  70
    32
  0
VERTEX
  8
図枠
  5
612
 10
691.119
 20
-287.546
 30
0.000000
  70
    32
  0
VERTEX
  8
図枠
  5
613
 10
691.155
 20
-287.579
 30
0.000000
  70
    32
  0
VERTEX
  8
図枠
  5
614
 10
691.191
 20
-287.612
 30
0.000000
  70
    32
  0
VERTEX
  8
図枠
  5
615
 10
691.227
 20
-287.645
 30
0.000000
  70
    32
  0
VERTEX
  8
図枠
  5
616
 10
691.264
 20
-287.678
 30
0.000000
  70
    32
  0
VERTEX
  8
図枠
  5
617
 10
691.300
 20
-287.711
 30
0.000000
  70
    32
  0
VERTEX
  8
図枠
  5
618
 10
691.336
 20
-287.744
 30
0.000000
  70
    32
  0
VERTEX
  8
図枠
  5
619
 10
691.372
 20
-287.777
 30
0.000000
  70
    32
  0
VERTEX
  8
図枠
  5
61A
 10
691.408
 20
-287.810
 30
0.000000
  70
    32
  0
VERTEX
  8
図枠
  5
61B
 10
691.444
 20
-287.843
 30
0.000000
  70
    32
  0
VERTEX
  8
図枠
  5
61C
 10
691.480
 20
-287.876
 30
0.000000
  70
    32
  0
VERTEX
  8
図枠
  5
61D
 10
691.517
 20
-287.908
 30
0.000000
  70
    32
  0
VERTEX
  8
図枠
  5
61E
 10
691.553
 20
-287.941
 30
0.000000
  70
    32
  0
VERTEX
  8
図枠
  5
61F
 10
691.589
 20
-287.974
 30
0.000000
  70
    32
  0
VERTEX
  8
図枠
  5
620
 10
691.625
 20
-288.007
 30
0.000000
  70
    32
  0
VERTEX
  8
図枠
  5
621
 10
691.662
 20
-288.040
 30
0.000000
  70
    32
  0
VERTEX
  8
図枠
  5
622
 10
691.698
 20
-288.073
 30
0.000000
  70
    32
  0
VERTEX
  8
図枠
  5
623
 10
691.734
 20
-288.105
 30
0.000000
  70
    32
  0
VERTEX
  8
図枠
  5
624
 10
691.770
 20
-288.138
 30
0.000000
  70
    32
  0
VERTEX
  8
図枠
  5
625
 10
691.807
 20
-288.171
 30
0.000000
  70
    32
  0
VERTEX
  8
図枠
  5
626
 10
691.843
 20
-288.203
 30
0.000000
  70
    32
  0
VERTEX
  8
図枠
  5
627
 10
691.879
 20
-288.236
 30
0.000000
  70
    32
  0
VERTEX
  8
図枠
  5
628
 10
691.916
 20
-288.269
 30
0.000000
  70
    32
  0
VERTEX
  8
図枠
  5
629
 10
691.952
 20
-288.301
 30
0.000000
  70
    32
  0
VERTEX
  8
図枠
  5
62A
 10
691.988
 20
-288.334
 30
0.000000
  70
    32
  0
VERTEX
  8
図枠
  5
62B
 10
692.025
 20
-288.366
 30
0.000000
  70
    32
  0
VERTEX
  8
図枠
  5
62C
 10
692.061
 20
-288.399
 30
0.000000
  70
    32
  0
VERTEX
  8
図枠
  5
62D
 10
692.098
 20
-288.431
 30
0.000000
  70
    32
  0
VERTEX
  8
図枠
  5
62E
 10
692.134
 20
-288.464
 30
0.000000
  70
    32
  0
VERTEX
  8
図枠
  5
62F
 10
692.171
 20
-288.496
 30
0.000000
  70
    32
  0
VERTEX
  8
図枠
  5
630
 10
692.207
 20
-288.528
 30
0.000000
  70
    32
  0
VERTEX
  8
図枠
  5
631
 10
692.244
 20
-288.561
 30
0.000000
  70
    32
  0
VERTEX
  8
図枠
  5
632
 10
692.280
 20
-288.593
 30
0.000000
  70
    32
  0
VERTEX
  8
図枠
  5
633
 10
692.317
 20
-288.625
 30
0.000000
  70
    32
  0
VERTEX
  8
図枠
  5
634
 10
692.353
 20
-288.657
 30
0.000000
  70
    32
  0
VERTEX
  8
図枠
  5
635
 10
692.390
 20
-288.690
 30
0.000000
  70
    32
  0
VERTEX
  8
図枠
  5
636
 10
692.426
 20
-288.722
 30
0.000000
  70
    32
  0
VERTEX
  8
図枠
  5
637
 10
692.463
 20
-288.754
 30
0.000000
  70
    32
  0
VERTEX
  8
図枠
  5
638
 10
692.500
 20
-288.786
 30
0.000000
  70
    32
  0
VERTEX
  8
図枠
  5
639
 10
692.536
 20
-288.818
 30
0.000000
  70
    32
  0
VERTEX
  8
図枠
  5
63A
 10
692.573
 20
-288.850
 30
0.000000
  70
    32
  0
VERTEX
  8
図枠
  5
63B
 10
692.610
 20
-288.882
 30
0.000000
  70
    32
  0
VERTEX
  8
図枠
  5
63C
 10
692.646
 20
-288.914
 30
0.000000
  70
    32
  0
VERTEX
  8
図枠
  5
63D
 10
692.683
 20
-288.946
 30
0.000000
  70
    32
  0
VERTEX
  8
図枠
  5
63E
 10
692.720
 20
-288.977
 30
0.000000
  70
    32
  0
VERTEX
  8
図枠
  5
63F
 10
692.757
 20
-289.009
 30
0.000000
  70
    32
  0
VERTEX
  8
図枠
  5
640
 10
692.794
 20
-289.041
 30
0.000000
  70
    32
  0
VERTEX
  8
図枠
  5
641
 10
692.830
 20
-289.073
 30
0.000000
  70
    32
  0
VERTEX
  8
図枠
  5
642
 10
692.867
 20
-289.104
 30
0.000000
  70
    32
  0
VERTEX
  8
図枠
  5
643
 10
692.904
 20
-289.136
 30
0.000000
  70
    32
  0
VERTEX
  8
図枠
  5
644
 10
692.941
 20
-289.167
 30
0.000000
  70
    32
  0
VERTEX
  8
図枠
  5
645
 10
692.978
 20
-289.199
 30
0.000000
  70
    32
  0
VERTEX
  8
図枠
  5
646
 10
693.015
 20
-289.230
 30
0.000000
  70
    32
  0
VERTEX
  8
図枠
  5
647
 10
693.052
 20
-289.262
 30
0.000000
  70
    32
  0
VERTEX
  8
図枠
  5
648
 10
693.089
 20
-289.293
 30
0.000000
  70
    32
  0
VERTEX
  8
図枠
  5
649
 10
693.126
 20
-289.324
 30
0.000000
  70
    32
  0
VERTEX
  8
図枠
  5
64A
 10
693.163
 20
-289.356
 30
0.000000
  70
    32
  0
VERTEX
  8
図枠
  5
64B
 10
693.200
 20
-289.387
 30
0.000000
  70
    32
  0
VERTEX
  8
図枠
  5
64C
 10
693.237
 20
-289.418
 30
0.000000
  70
    32
  0
VERTEX
  8
図枠
  5
64D
 10
693.275
 20
-289.449
 30
0.000000
  70
    32
  0
VERTEX
  8
図枠
  5
64E
 10
693.312
 20
-289.480
 30
0.000000
  70
    32
  0
VERTEX
  8
図枠
  5
64F
 10
693.349
 20
-289.511
 30
0.000000
  70
    32
  0
VERTEX
  8
図枠
  5
650
 10
693.386
 20
-289.542
 30
0.000000
  70
    32
  0
VERTEX
  8
図枠
  5
651
 10
693.424
 20
-289.573
 30
0.000000
  70
    32
  0
VERTEX
  8
図枠
  5
652
 10
693.461
 20
-289.603
 30
0.000000
  70
    32
  0
VERTEX
  8
図枠
  5
653
 10
693.498
 20
-289.634
 30
0.000000
  70
    32
  0
VERTEX
  8
図枠
  5
654
 10
693.536
 20
-289.665
 30
0.000000
  70
    32
  0
VERTEX
  8
図枠
  5
655
 10
693.573
 20
-289.695
 30
0.000000
  70
    32
  0
VERTEX
  8
図枠
  5
656
 10
693.611
 20
-289.726
 30
0.000000
  70
    32
  0
VERTEX
  8
図枠
  5
657
 10
693.648
 20
-289.757
 30
0.000000
  70
    32
  0
VERTEX
  8
図枠
  5
658
 10
693.686
 20
-289.787
 30
0.000000
  70
    32
  0
VERTEX
  8
図枠
  5
659
 10
693.723
 20
-289.817
 30
0.000000
  70
    32
  0
VERTEX
  8
図枠
  5
65A
 10
693.761
 20
-289.848
 30
0.000000
  70
    32
  0
VERTEX
  8
図枠
  5
65B
 10
693.798
 20
-289.878
 30
0.000000
  70
    32
  0
VERTEX
  8
図枠
  5
65C
 10
693.836
 20
-289.908
 30
0.000000
  70
    32
  0
VERTEX
  8
図枠
  5
65D
 10
693.874
 20
-289.938
 30
0.000000
  70
    32
  0
VERTEX
  8
図枠
  5
65E
 10
693.911
 20
-289.968
 30
0.000000
  70
    32
  0
VERTEX
  8
図枠
  5
65F
 10
693.949
 20
-289.998
 30
0.000000
  70
    32
  0
VERTEX
  8
図枠
  5
660
 10
693.987
 20
-290.028
 30
0.000000
  70
    32
  0
VERTEX
  8
図枠
  5
661
 10
694.025
 20
-290.058
 30
0.000000
  70
    32
  0
VERTEX
  8
図枠
  5
662
 10
694.063
 20
-290.088
 30
0.000000
  70
    32
  0
VERTEX
  8
図枠
  5
663
 10
694.101
 20
-290.118
 30
0.000000
  70
    32
  0
VERTEX
  8
図枠
  5
664
 10
694.139
 20
-290.147
 30
0.000000
  70
    32
  0
VERTEX
  8
図枠
  5
665
 10
694.177
 20
-290.177
 30
0.000000
  70
    32
  0
VERTEX
  8
図枠
  5
666
 10
694.215
 20
-290.206
 30
0.000000
  70
    32
  0
VERTEX
  8
図枠
  5
667
 10
694.253
 20
-290.236
 30
0.000000
  70
    32
  0
VERTEX
  8
図枠
  5
668
 10
694.291
 20
-290.265
 30
0.000000
  70
    32
  0
VERTEX
  8
図枠
  5
669
 10
694.329
 20
-290.294
 30
0.000000
  70
    32
  0
VERTEX
  8
図枠
  5
66A
 10
694.367
 20
-290.324
 30
0.000000
  70
    32
  0
VERTEX
  8
図枠
  5
66B
 10
694.405
 20
-290.353
 30
0.000000
  70
    32
  0
VERTEX
  8
図枠
  5
66C
 10
694.444
 20
-290.382
 30
0.000000
  70
    32
  0
VERTEX
  8
図枠
  5
66D
 10
694.482
 20
-290.411
 30
0.000000
  70
    32
  0
VERTEX
  8
図枠
  5
66E
 10
694.520
 20
-290.440
 30
0.000000
  70
    32
  0
VERTEX
  8
図枠
  5
66F
 10
694.559
 20
-290.468
 30
0.000000
  70
    32
  0
VERTEX
  8
図枠
  5
670
 10
694.597
 20
-290.497
 30
0.000000
  70
    32
  0
VERTEX
  8
図枠
  5
671
 10
694.635
 20
-290.526
 30
0.000000
  70
    32
  0
VERTEX
  8
図枠
  5
672
 10
694.674
 20
-290.554
 30
0.000000
  70
    32
  0
VERTEX
  8
図枠
  5
673
 10
694.713
 20
-290.583
 30
0.000000
  70
    32
  0
VERTEX
  8
図枠
  5
674
 10
694.751
 20
-290.611
 30
0.000000
  70
    32
  0
VERTEX
  8
図枠
  5
675
 10
694.790
 20
-290.640
 30
0.000000
  70
    32
  0
VERTEX
  8
図枠
  5
676
 10
694.829
 20
-290.668
 30
0.000000
  70
    32
  0
VERTEX
  8
図枠
  5
677
 10
694.867
 20
-290.696
 30
0.000000
  70
    32
  0
VERTEX
  8
図枠
  5
678
 10
694.906
 20
-290.724
 30
0.000000
  70
    32
  0
VERTEX
  8
図枠
  5
679
 10
694.945
 20
-290.752
 30
0.000000
  70
    32
  0
VERTEX
  8
図枠
  5
67A
 10
694.984
 20
-290.780
 30
0.000000
  70
    32
  0
VERTEX
  8
図枠
  5
67B
 10
695.023
 20
-290.808
 30
0.000000
  70
    32
  0
VERTEX
  8
図枠
  5
67C
 10
695.062
 20
-290.836
 30
0.000000
  70
    32
  0
VERTEX
  8
図枠
  5
67D
 10
695.101
 20
-290.864
 30
0.000000
  70
    32
  0
VERTEX
  8
図枠
  5
67E
 10
695.140
 20
-290.891
 30
0.000000
  70
    32
  0
VERTEX
  8
図枠
  5
67F
 10
695.179
 20
-290.919
 30
0.000000
  70
    32
  0
VERTEX
  8
図枠
  5
680
 10
695.218
 20
-290.946
 30
0.000000
  70
    32
  0
VERTEX
  8
図枠
  5
681
 10
695.257
 20
-290.973
 30
0.000000
  70
    32
  0
VERTEX
  8
図枠
  5
682
 10
695.296
 20
-291.001
 30
0.000000
  70
    32
  0
VERTEX
  8
図枠
  5
683
 10
695.336
 20
-291.028
 30
0.000000
  70
    32
  0
VERTEX
  8
図枠
  5
684
 10
695.375
 20
-291.055
 30
0.000000
  70
    32
  0
VERTEX
  8
図枠
  5
685
 10
695.414
 20
-291.082
 30
0.000000
  70
    32
  0
VERTEX
  8
図枠
  5
686
 10
695.454
 20
-291.109
 30
0.000000
  70
    32
  0
VERTEX
  8
図枠
  5
687
 10
695.493
 20
-291.135
 30
0.000000
  70
    32
  0
VERTEX
  8
図枠
  5
688
 10
695.533
 20
-291.162
 30
0.000000
  70
    32
  0
VERTEX
  8
図枠
  5
689
 10
695.573
 20
-291.189
 30
0.000000
  70
    32
  0
VERTEX
  8
図枠
  5
68A
 10
695.612
 20
-291.215
 30
0.000000
  70
    32
  0
VERTEX
  8
図枠
  5
68B
 10
695.652
 20
-291.242
 30
0.000000
  70
    32
  0
VERTEX
  8
図枠
  5
68C
 10
695.692
 20
-291.268
 30
0.000000
  70
    32
  0
VERTEX
  8
図枠
  5
68D
 10
695.732
 20
-291.294
 30
0.000000
  70
    32
  0
VERTEX
  8
図枠
  5
68E
 10
695.771
 20
-291.320
 30
0.000000
  70
    32
  0
VERTEX
  8
図枠
  5
68F
 10
695.811
 20
-291.346
 30
0.000000
  70
    32
  0
VERTEX
  8
図枠
  5
690
 10
695.851
 20
-291.372
 30
0.000000
  70
    32
  0
VERTEX
  8
図枠
  5
691
 10
695.891
 20
-291.398
 30
0.000000
  70
    32
  0
VERTEX
  8
図枠
  5
692
 10
695.931
 20
-291.423
 30
0.000000
  70
    32
  0
VERTEX
  8
図枠
  5
693
 10
695.972
 20
-291.449
 30
0.000000
  70
    32
  0
VERTEX
  8
図枠
  5
694
 10
696.012
 20
-291.475
 30
0.000000
  70
    32
  0
VERTEX
  8
図枠
  5
695
 10
696.052
 20
-291.500
 30
0.000000
  70
    32
  0
VERTEX
  8
図枠
  5
696
 10
696.092
 20
-291.525
 30
0.000000
  70
    32
  0
VERTEX
  8
図枠
  5
697
 10
696.133
 20
-291.550
 30
0.000000
  70
    32
  0
VERTEX
  8
図枠
  5
698
 10
696.173
 20
-291.575
 30
0.000000
  70
    32
  0
VERTEX
  8
図枠
  5
699
 10
696.214
 20
-291.600
 30
0.000000
  70
    32
  0
VERTEX
  8
図枠
  5
69A
 10
696.254
 20
-291.625
 30
0.000000
  70
    32
  0
VERTEX
  8
図枠
  5
69B
 10
696.295
 20
-291.650
 30
0.000000
  70
    32
  0
VERTEX
  8
図枠
  5
69C
 10
696.335
 20
-291.675
 30
0.000000
  70
    32
  0
VERTEX
  8
図枠
  5
69D
 10
696.376
 20
-291.699
 30
0.000000
  70
    32
  0
SEQEND
  8
図枠
  5
69E
  0
INSERT
  5
EB
  8
0
  6
CONTINUOUS
  2
*U51
 10
0.0
 20
0.0
 30
0.0
  0
LINE
  5
EC
  8
図枠
 10
717.52744999039987
 20
-242.34739458659999
 30
0.0
 11
717.52744999039987
 21
-247.1473945866
 31
0.0
  0
LINE
  5
ED
  8
図枠
 10
685.07690794359985
 20
-285.59404865279998
 30
0.0
 11
685.07690794359985
 21
-288.59404865279998
 31
0.0
  0
LINE
  5
EE
  8
図枠
 10
717.52744999039987
 20
-247.1473945866
 30
0.0
 11
727.1274499903999
 21
-249.54739458660001
 31
0.0
  0
LINE
  5
EF
  8
図枠
 10
690.39812006479985
 20
-281.59404865279998
 30
0.0
 11
690.39812006479985
 21
-285.19404865280001
 31
0.0
  0
ARC
  5
F0
  8
図枠
 10
676.07690794359985
 20
-289.59404865279998
 30
0.0
 40
6.0
 50
270.0
 51
0.0
  0
LINE
  5
F1
  8
図枠
 10
589.75561496699993
 20
-233.7473945866
 30
0.0
 11
589.75561496699993
 21
-299.74739458660002
 31
0.0
  0
INSERT
  5
F2
  8
0
  6
CONTINUOUS
  2
*U52
 10
0.0
 20
0.0
 30
0.0
  0
INSERT
  5
F3
  8
0
  6
CONTINUOUS
  2
*U53
 10
0.0
 20
0.0
 30
0.0
  0
INSERT
  5
F4
  8
0
  6
CONTINUOUS
  2
*U54
 10
0.0
 20
0.0
 30
0.0
  0
INSERT
  5
F5
  8
0
  6
CONTINUOUS
  2
*U55
 10
0.0
 20
0.0
 30
0.0
  0
LINE
  5
F6
  8
図枠
 10
664.75561496699993
 20
-255.7473945866
 30
0.0
 11
664.75561496699993
 21
-277.74739458660002
 31
0.0
  0
LINE
  5
F7
  8
図枠
 10
589.75561496699993
 20
-277.74739458660002
 30
0.0
 11
879.75561496699993
 21
-277.74739458660002
 31
0.0
  0
LINE
  5
F8
  8
図枠
 10
594.75561496699993
 20
-266.74739458660002
 30
0.0
 11
659.75561496699993
 21
-266.74739458660002
 31
0.0
  0
LINE
  5
F9
  8
図枠
 10
669.75561496699993
 20
-266.74739458660002
 30
0.0
 11
734.75561496699993
 21
-266.74739458660002
 31
0.0
  0
INSERT
  5
FA
  8
0
  6
CONTINUOUS
  2
*U56
 10
0.0
 20
0.0
 30
0.0
  0
INSERT
  5
FB
  8
0
  6
CONTINUOUS
  2
*U57
 10
0.0
 20
0.0
 30
0.0
  0
LINE
  5
FC
  8
図枠
 10
607.75561496699993
 20
-223.7473945866
 30
0.0
 11
607.75561496699993
 21
-213.7473945866
 31
0.0
  0
LINE
  5
FD
  8
図枠
 10
589.75561496699993
 20
-223.7473945866
 30
0.0
 11
589.75561496699993
 21
-213.7473945866
 31
0.0
  0
LINE
  5
FE
  8
図枠
 10
817.75561496699993
 20
-223.7473945866
 30
0.0
 11
817.75561496699993
 21
-213.7473945866
 31
0.0
  0
LINE
  5
FF
  8
図枠
 10
799.75561496699993
 20
-223.7473945866
 30
0.0
 11
799.75561496699993
 21
-213.7473945866
 31
0.0
  0
LINE
  5
100
  8
図枠
 10
879.75561496699993
 20
-213.7473945866
 30
0.0
 11
589.75561496699993
 21
-213.7473945866
 31
0.0
  0
LINE
  5
101
  8
図枠
 10
589.75561496699993
 20
-223.7473945866
 30
0.0
 11
879.75561496699993
 21
-223.7473945866
 31
0.0
  0
LINE
  5
102
  8
図枠
 10
707.75561496699993
 20
-223.7473945866
 30
0.0
 11
707.75561496699993
 21
-213.7473945866
 31
0.0
  0
INSERT
  5
103
  8
0
  6
CONTINUOUS
  2
*U58
 10
0.0
 20
0.0
 30
0.0
  0
INSERT
  5
104
  8
0
  6
CONTINUOUS
  2
*U59
 10
0.0
 20
0.0
 30
0.0
  0
CIRCLE
  5
105
  8
図枠
 10
706.55561496699988
 20
-244.7473945866
 30
0.0
 40
2.399999999999999
  0
LINE
  5
106
  8
図枠
 10
717.52744999039987
 20
-247.1473945866
 30
0.0
 11
727.1274499903999
 21
-249.54739458660001
 31
0.0
  0
LINE
  5
107
  8
図枠
 10
717.52744999039987
 20
-242.34739458659999
 30
0.0
 11
717.52744999039987
 21
-247.1473945866
 31
0.0
  0
LINE
  5
108
  8
図枠
 10
727.1274499903999
 20
-239.94739458660001
 30
0.0
 11
727.1274499903999
 21
-249.54739458660001
 31
0.0
  0
LINE
  5
109
  8
図枠
  6
BORDER
 10
706.55561496699988
 20
-237.54739458660001
 30
0.0
 11
706.55561496699988
 21
-251.94739458660001
 31
0.0
  0
LINE
  5
10A
  8
図枠
  6
BORDER
 10
706.55561496699988
 20
-237.54739458660001
 30
0.0
 11
706.55561496699988
 21
-251.94739458660001
 31
0.0
  0
LINE
  5
10B
  8
図枠
 10
727.1274499903999
 20
-239.94739458660001
 30
0.0
 11
727.1274499903999
 21
-249.54739458660001
 31
0.0
  0
LINE
  5
10C
  8
図枠
 10
717.52744999039987
 20
-242.34739458659999
 30
0.0
 11
717.52744999039987
 21
-247.1473945866
 31
0.0
  0
LINE
  5
10D
  8
図枠
 10
717.52744999039987
 20
-247.1473945866
 30
0.0
 11
727.1274499903999
 21
-249.54739458660001
 31
0.0
  0
LINE
  5
10E
  8
図枠
 10
717.52744999039987
 20
-242.34739458659999
 30
0.0
 11
727.1274499903999
 21
-239.94739458660001
 31
0.0
  0
CIRCLE
  5
10F
  8
図枠
 10
706.55561496699988
 20
-244.7473945866
 30
0.0
 40
4.7999999999999989
  0
CIRCLE
  5
110
  8
図枠
 10
706.55561496699988
 20
-244.7473945866
 30
0.0
 40
2.399999999999999
  0
CIRCLE
  5
111
  8
図枠
 10
706.55561496699988
 20
-244.7473945866
 30
0.0
 40
4.7999999999999989
  0
LINE
  5
112
  8
図枠
 10
717.52744999039987
 20
-242.34739458659999
 30
0.0
 11
727.1274499903999
 21
-239.94739458660001
 31
0.0
  0
ENDBLK
  5
113
  8
0
  0
BLOCK
  8
0
  2
CLUMP2
 70
     0
 10
0.0
 20
0.0
 30
0.0
  3
CLUMP2
  1

  0
LINE
  5
11A
  8
図枠
 10
707.75561496699993
 20
-133.7473945866
 30
0.0
 11
707.75561496699993
 21
-123.7473945866
 31
0.0
  0
LINE
  5
11B
  8
図枠
 10
589.75561496699993
 20
-133.7473945866
 30
0.0
 11
589.75561496699993
 21
-123.7473945866
 31
0.0
  0
LINE
  5
11C
  8
図枠
 10
607.75561496699993
 20
-133.7473945866
 30
0.0
 11
607.75561496699993
 21
-123.7473945866
 31
0.0
  0
LINE
  5
11D
  8
図枠
 10
817.75561496699993
 20
-133.7473945866
 30
0.0
 11
817.75561496699993
 21
-123.7473945866
 31
0.0
  0
LINE
  5
11E
  8
図枠
 10
799.75561496699993
 20
-133.7473945866
 30
0.0
 11
799.75561496699993
 21
-123.7473945866
 31
0.0
  0
LINE
  5
11F
  8
図枠
 10
879.75561496699993
 20
-123.7473945866
 30
0.0
 11
589.75561496699993
 21
-123.7473945866
 31
0.0
  0
ENDBLK
  5
120
  8
0
  0
BLOCK
  8
0
  2
CLUMP3
 70
     0
 10
0.0
 20
0.0
 30
0.0
  3
CLUMP3
  1

  0
LINE
  5
127
  8
図枠
 10
707.75561496699993
 20
-143.7473945866
 30
0.0
 11
707.75561496699993
 21
-133.7473945866
 31
0.0
  0
LINE
  5
128
  8
図枠
 10
589.75561496699993
 20
-143.7473945866
 30
0.0
 11
589.75561496699993
 21
-133.7473945866
 31
0.0
  0
LINE
  5
129
  8
図枠
 10
607.75561496699993
 20
-143.7473945866
 30
0.0
 11
607.75561496699993
 21
-133.7473945866
 31
0.0
  0
LINE
  5
12A
  8
図枠
 10
817.75561496699993
 20
-143.7473945866
 30
0.0
 11
817.75561496699993
 21
-133.7473945866
 31
0.0
  0
LINE
  5
12B
  8
図枠
 10
799.75561496699993
 20
-143.7473945866
 30
0.0
 11
799.75561496699993
 21
-133.7473945866
 31
0.0
  0
LINE
  5
12C
  8
図枠
 10
879.75561496699993
 20
-133.7473945866
 30
0.0
 11
589.75561496699993
 21
-133.7473945866
 31
0.0
  0
ENDBLK
  5
12D
  8
0
  0
BLOCK
  8
0
  2
CLUMP4
 70
     0
 10
0.0
 20
0.0
 30
0.0
  3
CLUMP4
  1

  0
LINE
  5
134
  8
図枠
 10
707.75561496699993
 20
-153.7473945866
 30
0.0
 11
707.75561496699993
 21
-143.7473945866
 31
0.0
  0
LINE
  5
135
  8
図枠
 10
589.75561496699993
 20
-153.7473945866
 30
0.0
 11
589.75561496699993
 21
-143.7473945866
 31
0.0
  0
LINE
  5
136
  8
図枠
 10
607.75561496699993
 20
-153.7473945866
 30
0.0
 11
607.75561496699993
 21
-143.7473945866
 31
0.0
  0
LINE
  5
137
  8
図枠
 10
817.75561496699993
 20
-153.7473945866
 30
0.0
 11
817.75561496699993
 21
-143.7473945866
 31
0.0
  0
LINE
  5
138
  8
図枠
 10
799.75561496699993
 20
-153.7473945866
 30
0.0
 11
799.75561496699993
 21
-143.7473945866
 31
0.0
  0
LINE
  5
139
  8
図枠
 10
879.75561496699993
 20
-143.7473945866
 30
0.0
 11
589.75561496699993
 21
-143.7473945866
 31
0.0
  0
ENDBLK
  5
13A
  8
0
  0
BLOCK
  8
0
  2
CLUMP5
 70
     0
 10
0.0
 20
0.0
 30
0.0
  3
CLUMP5
  1

  0
LINE
  5
142
  8
図枠
 10
707.75561496699993
 20
-163.7473945866
 30
0.0
 11
707.75561496699993
 21
-153.7473945866
 31
0.0
  0
LINE
  5
143
  8
図枠
 10
589.75561496699993
 20
-163.7473945866
 30
0.0
 11
589.75561496699993
 21
-153.7473945866
 31
0.0
  0
LINE
  5
144
  8
図枠
 10
607.75561496699993
 20
-163.7473945866
 30
0.0
 11
607.75561496699993
 21
-153.7473945866
 31
0.0
  0
LINE
  5
145
  8
図枠
 10
817.75561496699993
 20
-163.7473945866
 30
0.0
 11
817.75561496699993
 21
-153.7473945866
 31
0.0
  0
LINE
  5
146
  8
図枠
 10
799.75561496699993
 20
-163.7473945866
 30
0.0
 11
799.75561496699993
 21
-153.7473945866
 31
0.0
  0
LINE
  5
147
  8
図枠
 10
879.75561496699993
 20
-153.7473945866
 30
0.0
 11
589.75561496699993
 21
-153.7473945866
 31
0.0
  0
ENDBLK
  5
148
  8
0
  0
BLOCK
  8
0
  2
CLUMP6
 70
     0
 10
0.0
 20
0.0
 30
0.0
  3
CLUMP6
  1

  0
LINE
  5
154
  8
図枠
 10
707.75561496699993
 20
-183.7473945866
 30
0.0
 11
707.75561496699993
 21
-173.7473945866
 31
0.0
  0
LINE
  5
155
  8
図枠
 10
589.75561496699993
 20
-183.7473945866
 30
0.0
 11
589.75561496699993
 21
-173.7473945866
 31
0.0
  0
LINE
  5
156
  8
図枠
 10
607.75561496699993
 20
-183.7473945866
 30
0.0
 11
607.75561496699993
 21
-173.7473945866
 31
0.0
  0
LINE
  5
157
  8
図枠
 10
817.75561496699993
 20
-183.7473945866
 30
0.0
 11
817.75561496699993
 21
-173.7473945866
 31
0.0
  0
LINE
  5
158
  8
図枠
 10
799.75561496699993
 20
-183.7473945866
 30
0.0
 11
799.75561496699993
 21
-173.7473945866
 31
0.0
  0
LINE
  5
159
  8
図枠
 10
879.75561496699993
 20
-173.7473945866
 30
0.0
 11
589.75561496699993
 21
-173.7473945866
 31
0.0
  0
ENDBLK
  5
15A
  8
0
  0
BLOCK
  8
0
  2
CLUMP7
 70
     0
 10
0.0
 20
0.0
 30
0.0
  3
CLUMP7
  1

  0
LINE
  5
162
  8
図枠
 10
707.75561496699993
 20
-193.7473945866
 30
0.0
 11
707.75561496699993
 21
-183.7473945866
 31
0.0
  0
LINE
  5
163
  8
図枠
 10
589.75561496699993
 20
-193.7473945866
 30
0.0
 11
589.75561496699993
 21
-183.7473945866
 31
0.0
  0
LINE
  5
164
  8
図枠
 10
607.75561496699993
 20
-193.7473945866
 30
0.0
 11
607.75561496699993
 21
-183.7473945866
 31
0.0
  0
LINE
  5
165
  8
図枠
 10
817.75561496699993
 20
-193.7473945866
 30
0.0
 11
817.75561496699993
 21
-183.7473945866
 31
0.0
  0
LINE
  5
166
  8
図枠
 10
799.75561496699993
 20
-193.7473945866
 30
0.0
 11
799.75561496699993
 21
-183.7473945866
 31
0.0
  0
LINE
  5
167
  8
図枠
 10
879.75561496699993
 20
-183.7473945866
 30
0.0
 11
589.75561496699993
 21
-183.7473945866
 31
0.0
  0
ENDBLK
  5
168
  8
0
  0
BLOCK
  8
0
  2
CLUMP8
 70
     0
 10
0.0
 20
0.0
 30
0.0
  3
CLUMP8
  1

  0
LINE
  5
170
  8
図枠
 10
707.75561496699993
 20
-203.7473945866
 30
0.0
 11
707.75561496699993
 21
-193.7473945866
 31
0.0
  0
LINE
  5
171
  8
図枠
 10
589.75561496699993
 20
-203.7473945866
 30
0.0
 11
589.75561496699993
 21
-193.7473945866
 31
0.0
  0
LINE
  5
172
  8
図枠
 10
607.75561496699993
 20
-203.7473945866
 30
0.0
 11
607.75561496699993
 21
-193.7473945866
 31
0.0
  0
LINE
  5
173
  8
図枠
 10
817.75561496699993
 20
-203.7473945866
 30
0.0
 11
817.75561496699993
 21
-193.7473945866
 31
0.0
  0
LINE
  5
174
  8
図枠
 10
799.75561496699993
 20
-203.7473945866
 30
0.0
 11
799.75561496699993
 21
-193.7473945866
 31
0.0
  0
LINE
  5
175
  8
図枠
 10
879.75561496699993
 20
-193.7473945866
 30
0.0
 11
589.75561496699993
 21
-193.7473945866
 31
0.0
  0
ENDBLK
  5
176
  8
0
  0
BLOCK
  8
0
  2
CLUMP9
 70
     0
 10
0.0
 20
0.0
 30
0.0
  3
CLUMP9
  1

  0
LINE
  5
17A
  8
図枠
 10
707.75561496699993
 20
-213.7473945866
 30
0.0
 11
707.75561496699993
 21
-203.7473945866
 31
0.0
  0
LINE
  5
17B
  8
図枠
 10
589.75561496699993
 20
-213.7473945866
 30
0.0
 11
589.75561496699993
 21
-203.7473945866
 31
0.0
  0
LINE
  5
17C
  8
図枠
 10
607.75561496699993
 20
-213.7473945866
 30
0.0
 11
607.75561496699993
 21
-203.7473945866
 31
0.0
  0
LINE
  5
17D
  8
図枠
 10
817.75561496699993
 20
-213.7473945866
 30
0.0
 11
817.75561496699993
 21
-203.7473945866
 31
0.0
  0
LINE
  5
17E
  8
図枠
 10
799.75561496699993
 20
-213.7473945866
 30
0.0
 11
799.75561496699993
 21
-203.7473945866
 31
0.0
  0
LINE
  5
17F
  8
図枠
 10
879.75561496699993
 20
-203.7473945866
 30
0.0
 11
589.75561496699993
 21
-203.7473945866
 31
0.0
  0
ENDBLK
  5
180
  8
0
  0
BLOCK
  8
0
  2
BALLON0
 70
     0
 10
0.0
 20
0.0
 30
0.0
  3
BALLON0
  1

  0
INSERT
  5
199
  8
0
  6
CONTINUOUS
  2
*U97
 10
0.0
 20
0.0
 30
0.0
  0
CIRCLE
  5
19A
  8
ﾚｲﾔ_1
 10
432.11311523319989
 20
-198.6436223284
 30
0.0
 40
8.0
  0
LINE
  5
19B
  8
寸法線
 10
418.77978189989989
 20
-198.6436223284
 30
0.0
 11
424.11311523320001
 21
-198.6436223284
 31
0.0
  0
LINE
  5
19C
  8
寸法線
 10
343.08530246700002
 20
-168.3564948392
 30
0.0
 11
418.77978189989989
 21
-198.6436223284
 31
0.0
  0
SOLID
  5
19D
  8
寸法線
 10
343.08530246700002
 20
-168.3564948392
 30
0.0
 11
351.10718308880001
 21
-169.8429104237
 31
0.0
 12
349.02730054769989
 22
-170.7340269229
 32
0.0
 13
349.02730054769989
 23
-170.7340269229
 33
0.0
  0
SOLID
  5
19E
  8
寸法線
 10
349.02730054769989
 20
-170.7340269229
 30
0.0
 11
349.9184170469
 21
-172.81390946400001
 31
0.0
 12
343.08530246700002
 22
-168.3564948392
 32
0.0
 13
343.08530246700002
 23
-168.3564948392
 33
0.0
  0
ENDBLK
  5
19F
  8
0
  0
BLOCK
  8
0
  2
CLUMP10
 70
     0
 10
0.0
 20
0.0
 30
0.0
  3
CLUMP10
  1

  0
LINE
  5
1D6
  8
UNASSIGNED
 10
370.83530246700002
 20
-79.435559366999996
 30
0.0
 11
380.83530246700002
 21
-79.435559366999996
 31
0.0
  0
LINE
  5
1D7
  8
UNASSIGNED
 10
246.3353026172
 20
-88.928631366999994
 30
0.0
 11
240.83530246699999
 21
-88.928631366999994
 31
0.0
  0
LINE
  5
1D8
  8
UNASSIGNED
 10
370.83530246700002
 20
-76.435559366999996
 30
0.0
 11
380.83530246700002
 21
-76.435559366999996
 31
0.0
  0
LINE
  5
1D9
  8
UNASSIGNED
 10
250.83530250609999
 20
-76.435559366999996
 30
0.0
 11
240.83530246699999
 21
-76.435559366999996
 31
0.0
  0
LINE
  5
1DA
  8
UNASSIGNED
 10
250.8353024859
 20
-79.435559366999996
 30
0.0
 11
240.83530246699999
 21
-79.435559366999996
 31
0.0
  0
LINE
  5
1DB
  8
UNASSIGNED
 10
329.87531146700002
 20
-45.724911366999997
 30
0.0
 11
341.590307467
 21
-41.46101136699999
 31
0.0
  0
LINE
  5
1DC
  8
UNASSIGNED
 10
341.93231846700002
 20
-42.400693366999988
 30
0.0
 11
341.590307467
 21
-41.46101136699999
 31
0.0
  0
LINE
  5
1DD
  8
UNASSIGNED
 10
318.15439446699997
 20
-9.5522583670000003
 30
0.0
 11
328.59354246700002
 21
-5.7526983669999998
 31
0.0
  0
LINE
  5
1DE
  8
UNASSIGNED
 10
375.33530246699991
 20
-88.928631366999994
 30
0.0
 11
379.735302467
 21
-88.928631366999994
 31
0.0
  0
LINE
  5
1DF
  8
UNASSIGNED
 10
380.83530246700002
 20
-82.435559366999996
 30
0.0
 11
380.83530246700002
 21
-88.958631366999995
 31
0.0
  0
LINE
  5
1E0
  8
UNASSIGNED
 10
328.25153146700001
 20
-4.813000366999999
 30
0.0
 11
378.9948634669999
 21
13.656054633
 31
0.0
  0
LINE
  5
1E1
  8
UNASSIGNED
 10
341.93233346699998
 20
-42.400693366999988
 30
0.0
 11
392.67572646699989
 21
-23.931592367
 31
0.0
  0
LINE
  5
1E2
  8
UNASSIGNED
 10
329.83530246700002
 20
-45.614987366999991
 30
0.0
 11
329.83530246700002
 21
-69.435559366999996
 31
0.0
  0
LINE
  5
1E3
  8
UNASSIGNED
 10
384.12518946699998
 20
-0.4392933670000001
 30
0.0
 11
378.99487846699998
 21
13.656054633
 31
0.0
  0
LINE
  5
1E4
  8
UNASSIGNED
 10
392.67572646699989
 20
-23.931592367
 30
0.0
 11
387.54540946700001
 21
-9.8362263670000001
 31
0.0
  0
ARC
  5
1E5
  8
UNASSIGNED
 10
372.45403146699999
 20
-10.008160367
 30
0.0
 40
5.0
 50
110.000045
 51
290.00000699999998
  0
LINE
  5
1E6
  8
UNASSIGNED
 10
370.74393246699998
 20
-5.3096743669999986
 30
0.0
 11
384.12521946700002
 21
-0.4392823670000001
 31
0.0
  0
LINE
  5
1E7
  8
UNASSIGNED
 10
374.16414446700003
 20
-14.706616367000001
 30
0.0
 11
387.54541546699988
 21
-9.8362243669999998
 31
0.0
  0
ARC
  5
1E8
  8
UNASSIGNED
 10
331.83530246700002
 20
-47.139935367
 30
0.0
 40
40.0
 50
110.000142
 51
180.0
  0
LINE
  5
1E9
  8
UNASSIGNED
 10
269.03530246700001
 20
-214.428635367
 30
0.0
 11
258.33530246700002
 21
-214.428635367
 31
0.0
  0
ARC
  5
1EA
  8
UNASSIGNED
 10
363.33530246700002
 20
-205.428635367
 30
0.0
 40
9.0
 50
270.0
 51
360.0
  0
LINE
  5
1EB
  8
UNASSIGNED
 10
379.735302467
 20
-88.928631366999994
 30
0.0
 11
380.83530246700002
 21
-88.928631366999994
 31
0.0
  0
ARC
  5
1EC
  8
UNASSIGNED
 10
258.33530246700002
 20
-205.428635367
 30
0.0
 40
9.0
 50
180.0
 51
270.0
  0
ARC
  5
1ED
  8
UNASSIGNED
 10
246.33530246699999
 20
-91.928631367000008
 30
0.0
 40
3.0
 50
0.0
 51
90.0
  0
ARC
  5
1EE
  8
UNASSIGNED
 10
353.235302467
 20
-218.428635367
 30
0.0
 40
4.0
 50
90.0
 51
180.0
  0
LINE
  5
1EF
  8
UNASSIGNED
 10
380.83530246700002
 20
-79.435559366999996
 30
0.0
 11
380.83530246700002
 21
-82.435559366999996
 31
0.0
  0
LINE
  5
1F0
  8
UNASSIGNED
 10
352.63530246699997
 20
-214.428635367
 30
0.0
 11
363.33530246700002
 21
-214.428635367
 31
0.0
  0
ARC
  5
1F1
  8
UNASSIGNED
 10
268.43530246699999
 20
-218.428635367
 30
0.0
 40
4.0
 50
360.0
 51
90.0
  0
LINE
  5
1F2
  8
UNASSIGNED
 10
240.83530246699999
 20
-69.435559366999996
 30
0.0
 11
240.83530246699999
 21
-76.435559366999996
 31
0.0
  0
LINE
  5
1F3
  8
UNASSIGNED
 10
291.83530246700002
 20
-47.139935367
 30
0.0
 11
291.83530246700002
 21
-69.435559366999996
 31
0.0
  0
LINE
  5
1F4
  8
UNASSIGNED
 10
272.43530246699999
 20
-218.428635367
 30
0.0
 11
272.43530246699999
 21
-229.435559367
 31
0.0
  0
LINE
  5
1F5
  8
UNASSIGNED
 10
240.83530246699999
 20
-79.435559366999996
 30
0.0
 11
240.83530246699999
 21
-88.928631366999994
 31
0.0
  0
LINE
  5
1F6
  8
UNASSIGNED
 10
249.33530246699999
 20
-91.928631367000008
 30
0.0
 11
249.33530246699999
 21
-205.428635367
 31
0.0
  0
LINE
  5
1F7
  8
UNASSIGNED
 10
380.83530246700002
 20
-69.435559366999996
 30
0.0
 11
380.83530246700002
 21
-76.435559366999996
 31
0.0
  0
LINE
  5
1F8
  8
UNASSIGNED
 10
349.235302467
 20
-218.428635367
 30
0.0
 11
349.235302467
 21
-229.435559367
 31
0.0
  0
LINE
  5
1F9
  8
UNASSIGNED
 10
272.43530246699999
 20
-229.435559367
 30
0.0
 11
349.235302467
 21
-229.435559367
 31
0.0
  0
LINE
  5
1FA
  8
UNASSIGNED
 10
329.83530246700002
 20
-69.435559366999996
 30
0.0
 11
380.83530246700002
 21
-69.435559366999996
 31
0.0
  0
LINE
  5
1FB
  8
UNASSIGNED
 10
372.33530246700002
 20
-91.928631367000008
 30
0.0
 11
372.33530246700002
 21
-205.428635367
 31
0.0
  0
ARC
  5
1FC
  8
UNASSIGNED
 10
375.33530246699991
 20
-91.928631367000008
 30
0.0
 40
3.0
 50
90.0
 51
180.0
  0
LINE
  5
1FD
  8
UNASSIGNED
 10
368.85692146700001
 20
9.9661336330000001
 30
0.0
 11
367.52541046699997
 21
13.624412633
 31
0.0
  0
LINE
  5
1FE
  8
UNASSIGNED
 10
361.53661746699999
 20
11.429837633
 30
0.0
 11
362.86336646699999
 21
7.7846636329999992
 31
0.0
  0
ARC
  5
1FF
  8
UNASSIGNED
 10
362.83200846699998
 20
17.163556632999999
 30
0.0
 40
5.8782290000000001
 50
322.98122499999999
 51
257.26918000000001
  0
LINE
  5
200
  8
UNASSIGNED
 10
291.83530246700002
 20
-69.435559366999996
 30
0.0
 11
240.83530246699999
 21
-69.435559366999996
 31
0.0
  0
LINE
  5
201
  8
ﾚｲﾔ_1
 10
269.03530246700001
 20
-214.428635367
 30
0.0
 11
310.83530246700002
 21
-214.428635367
 31
0.0
  0
LINE
  5
202
  8
UNASSIGNED
 10
328.59356692099999
 20
-5.7526894663999988
 30
0.0
 11
328.25157649380009
 21
-4.8130828647000001
 31
0.0
  0
ARC
  5
203
  8
UNASSIGNED
 10
250.83530246699999
 20
-77.935559366999996
 30
0.0
 40
1.5
 50
270.0
 51
90.0
  0
ARC
  5
204
  8
UNASSIGNED
 10
370.83530246700002
 20
-77.935559366999996
 30
0.0
 40
1.5
 50
90.0
 51
270.0
  0
ENDBLK
  5
205
  8
0
  0
BLOCK
  8
0
  2
*D14
 70
     1
 10
0.0
 20
0.0
 30
0.0
  3
*D14
  1

  0
TEXT
  5
209
  8
0
 62
     0
 10
300.25196945150009
 20
-259.74963790919998
 30
0.0
 40
5.9972220420999998
  1
Ｒｃ２
  0
LINE
  5
20A
  8
0
 62
     0
 10
340.64230246699998
 20
-231.435559367
 30
0.0
 11
340.64230246699998
 21
-262.80797121080002
 31
0.0
  0
LINE
  5
20B
  8
0
 62
     0
 10
281.028302467
 20
-231.435559367
 30
0.0
 11
281.028302467
 21
-262.80797121080002
 31
0.0
  0
LINE
  5
20C
  8
0
 62
     0
 10
340.64230246699998
 20
-261.80797121080002
 30
0.0
 11
324.9464131542
 21
-261.80797121080002
 31
0.0
  0
LINE
  5
20D
  8
0
 62
     0
 10
340.64230246699998
 20
-261.80797121080002
 30
0.0
 11
296.72419177969999
 21
-261.80797121080002
 31
0.0
  0
LINE
  5
20E
  8
0
 62
     0
 10
281.028302467
 20
-261.80797121080002
 30
0.0
 11
324.9464131542
 21
-261.80797121080002
 31
0.0
  0
LINE
  5
20F
  8
0
 62
     0
 10
281.028302467
 20
-261.80797121080002
 30
0.0
 11
296.72419177969999
 21
-261.80797121080002
 31
0.0
  0
LINE
  5
210
  8
0
 62
     0
 10
281.028302467
 20
-261.80797121080002
 30
0.0
 11
286.028302467
 21
-261.80797121080002
 31
0.0
  0
LINE
  5
211
  8
0
 62
     0
 10
284.89200571790002
 20
-260.77269503619999
 30
0.0
 11
281.028302467
 21
-261.80797121080002
 31
0.0
  0
LINE
  5
212
  8
0
 62
     0
 10
281.028302467
 20
-261.80797121080002
 30
0.0
 11
284.89200571790002
 21
-262.8432473853
 31
0.0
  0
LINE
  5
213
  8
0
 62
     0
 10
340.64230246699998
 20
-261.80797121080002
 30
0.0
 11
335.64230246700009
 21
-261.80797121080002
 31
0.0
  0
LINE
  5
214
  8
0
 62
     0
 10
336.77859921610002
 20
-262.8432473853
 30
0.0
 11
340.64230246699998
 21
-261.80797121080002
 31
0.0
  0
LINE
  5
215
  8
0
 62
     0
 10
340.64230246699998
 20
-261.80797121080002
 30
0.0
 11
336.77859921610002
 21
-260.77269503619999
 31
0.0
  0
ENDBLK
  5
216
  8
0
  0
BLOCK
  8
0
  2
BALLON1
 70
     0
 10
0.0
 20
0.0
 30
0.0
  3
BALLON1
  1

  0
INSERT
  5
248
  8
0
  6
CONTINUOUS
  2
*U98
 10
0.0
 20
0.0
 30
0.0
  0
CIRCLE
  5
249
  8
ﾚｲﾔ_1
 10
432.11311523319989
 20
-79.955091518399996
 30
0.0
 40
8.0
  0
LINE
  5
24A
  8
寸法線
 10
418.77978189989989
 20
-79.955091518399996
 30
0.0
 11
424.11311523320001
 21
-79.955091518399996
 31
0.0
  0
LINE
  5
24B
  8
寸法線
 10
299.79240924819999
 20
-106.7215285858
 30
0.0
 11
418.77978189989989
 21
-79.955091518399996
 31
0.0
  0
SOLID
  5
24C
  8
寸法線
 10
299.79240924819999
 20
-106.7215285858
 30
0.0
 11
307.2462196015
 21
-103.4047965773
 31
0.0
 12
306.0363759828
 22
-105.3169363259
 32
0.0
 13
306.0363759828
 23
-105.3169363259
 33
0.0
  0
SOLID
  5
24D
  8
寸法線
 10
306.0363759828
 20
-105.3169363259
 30
0.0
 11
307.94851573150009
 21
-106.52677994459999
 31
0.0
 12
299.79240924819999
 22
-106.7215285858
 32
0.0
 13
299.79240924819999
 23
-106.7215285858
 33
0.0
  0
ENDBLK
  5
24E
  8
0
  0
BLOCK
  8
0
  2
*D16
 70
     1
 10
0.0
 20
0.0
 30
0.0
  3
*D16
  1

  0
TEXT
  5
25C
  8
0
 62
     0
 10
404.15023004969999
 20
9.0366949017999971
 30
0.0
 40
5.9972220420999998
  1
%%c32
 50
289.99999432039999
  0
LINE
  5
25D
  8
0
 62
     0
 10
382.24238217070001
 20
10.5813716834
 30
0.0
 11
400.0965426098
 21
17.0797526367
 31
0.0
  0
LINE
  5
25E
  8
0
 62
     0
 10
393.1870237764
 20
-19.4887932667
 30
0.0
 11
411.04118421549998
 21
-12.9904123133
 31
0.0
  0
LINE
  5
25F
  8
0
 62
     0
 10
399.15684995509997
 20
16.7377325866
 30
0.0
 11
408.24888284690002
 21
-8.2424301851999981
 31
0.0
  0
LINE
  5
260
  8
0
 62
     0
 10
399.15684995509997
 20
16.7377325866
 30
0.0
 11
401.00945866900003
 21
11.647730408299999
 31
0.0
  0
LINE
  5
261
  8
0
 62
     0
 10
410.10149156080001
 20
-13.332432363500001
 30
0.0
 11
408.24888284690002
 21
-8.2424301851999981
 31
0.0
  0
LINE
  5
262
  8
0
 62
     0
 10
410.10149156080001
 20
-13.332432363500001
 30
0.0
 11
401.00945866900003
 21
11.647730408299999
 31
0.0
  0
LINE
  5
263
  8
0
 62
     0
 10
410.10149156080001
 20
-13.332432363500001
 30
0.0
 11
408.39139130989992
 21
-8.6339690900000008
 31
0.0
  0
LINE
  5
264
  8
0
 62
     0
 10
407.80718616419989
 20
-10.0558240079
 30
0.0
 11
410.10149156080001
 21
-13.332432363500001
 31
0.0
  0
LINE
  5
265
  8
0
 62
     0
 10
410.10149156080001
 20
-13.332432363500001
 30
0.0
 11
409.75286899779991
 21
-9.3476535896000001
 31
0.0
  0
LINE
  5
266
  8
0
 62
     0
 10
399.15684995509997
 20
16.7377325866
 30
0.0
 11
400.86695020600001
 21
12.0392693131
 31
0.0
  0
LINE
  5
267
  8
0
 62
     0
 10
401.45115535159999
 20
13.461124230999999
 30
0.0
 11
399.15684995509997
 21
16.7377325866
 31
0.0
  0
LINE
  5
268
  8
0
 62
     0
 10
399.15684995509997
 20
16.7377325866
 30
0.0
 11
399.50547251810002
 21
12.752953812599999
 31
0.0
  0
ENDBLK
  5
269
  8
0
  0
BLOCK
  8
0
  2
*D17
 70
     1
 10
0.0
 20
0.0
 30
0.0
  3
*D17
  1

  0
TEXT
  5
26D
  8
0
 62
     0
 10
427.10401732359998
 20
18.8327059326
 30
0.0
 40
5.9972220420999998
  1
%%c40
 50
290.00008522389999
  0
LINE
  5
26E
  8
0
 62
     0
 10
380.8742626911
 20
14.340097715100001
 30
0.0
 11
422.14551324050001
 21
29.3616739669
 31
0.0
  0
LINE
  5
26F
  8
0
 62
     0
 10
394.55511069110003
 20
-23.247549284899989
 30
0.0
 11
435.82636124049998
 21
-8.2259730330999972
 31
0.0
  0
LINE
  5
270
  8
0
 62
     0
 10
421.20582112850002
 20
29.019652425899999
 30
0.0
 11
431.20269753529988
 21
1.5535873483999989
 31
0.0
  0
LINE
  5
271
  8
0
 62
     0
 10
421.20582112850002
 20
29.019652425899999
 30
0.0
 11
423.96324180030001
 21
21.443736456
 31
0.0
  0
LINE
  5
272
  8
0
 62
     0
 10
434.88666912849999
 20
-8.5679945741000001
 30
0.0
 11
431.20269753529988
 21
1.5535873483999989
 31
0.0
  0
LINE
  5
273
  8
0
 62
     0
 10
434.88666912849999
 20
-8.5679945741000001
 30
0.0
 11
423.96324180030001
 21
21.443736456
 31
0.0
  0
LINE
  5
274
  8
0
 62
     0
 10
434.88666912849999
 20
-8.5679945741000001
 30
0.0
 11
433.17656142319998
 21
-3.8695340139000001
 31
0.0
  0
LINE
  5
275
  8
0
 62
     0
 10
432.59235853339999
 20
-5.2913898585999997
 30
0.0
 11
434.88666912849999
 21
-8.5679945741000001
 31
0.0
  0
LINE
  5
276
  8
0
 62
     0
 10
434.88666912849999
 20
-8.5679945741000001
 30
0.0
 11
434.53804024339991
 21
-4.5832163533000001
 31
0.0
  0
LINE
  5
277
  8
0
 62
     0
 10
421.20582112850002
 20
29.019652425899999
 30
0.0
 11
422.91592883379991
 21
24.321191865599999
 31
0.0
  0
LINE
  5
278
  8
0
 62
     0
 10
423.50013172360002
 20
25.743047710300001
 30
0.0
 11
421.20582112850002
 21
29.019652425899999
 31
0.0
  0
LINE
  5
279
  8
0
 62
     0
 10
421.20582112850002
 20
29.019652425899999
 30
0.0
 11
421.5544500135
 21
25.0348742051
 31
0.0
  0
ENDBLK
  5
27A
  8
0
  0
BLOCK
  8
0
  2
*D18
 70
     1
 10
0.0
 20
0.0
 30
0.0
  3
*D18
  1

  0
TEXT
  5
27E
  8
0
 62
     0
 10
280.40884025920002
 20
-182.27585721840001
 30
0.0
 40
5.9972220420999998
  1
封水 50
 50
90.0
  0
LINE
  5
27F
  8
0
 62
     0
 10
338.83530246700002
 20
-194.928635367
 30
0.0
 11
281.46717356070002
 21
-194.928635367
 31
0.0
  0
LINE
  5
280
  8
0
 62
     0
 10
308.83530246700002
 20
-144.928635367
 30
0.0
 11
281.46717356070002
 21
-144.928635367
 31
0.0
  0
LINE
  5
281
  8
0
 62
     0
 10
282.46717356070002
 20
-194.928635367
 30
0.0
 11
282.46717356070002
 21
-154.0536358439
 31
0.0
  0
LINE
  5
282
  8
0
 62
     0
 10
282.46717356070002
 20
-194.928635367
 30
0.0
 11
282.46717356070002
 21
-185.80363489019999
 31
0.0
  0
LINE
  5
283
  8
0
 62
     0
 10
282.46717356070002
 20
-144.928635367
 30
0.0
 11
282.46717356070002
 21
-154.0536358439
 31
0.0
  0
LINE
  5
284
  8
0
 62
     0
 10
282.46717356070002
 20
-144.928635367
 30
0.0
 11
282.46717356070002
 21
-185.80363489019999
 31
0.0
  0
LINE
  5
285
  8
0
 62
     0
 10
282.46717356070002
 20
-144.928635367
 30
0.0
 11
282.46717356070002
 21
-149.928635367
 31
0.0
  0
LINE
  5
286
  8
0
 62
     0
 10
283.50244973529999
 20
-148.79233861789999
 30
0.0
 11
282.46717356070002
 21
-144.928635367
 31
0.0
  0
LINE
  5
287
  8
0
 62
     0
 10
282.46717356070002
 20
-144.928635367
 30
0.0
 11
281.43189738619998
 21
-148.79233861789999
 31
0.0
  0
LINE
  5
288
  8
0
 62
     0
 10
282.46717356070002
 20
-194.928635367
 30
0.0
 11
282.46717356070002
 21
-189.928635367
 31
0.0
  0
LINE
  5
289
  8
0
 62
     0
 10
281.43189738619998
 20
-191.06493211610001
 30
0.0
 11
282.46717356070002
 21
-194.928635367
 31
0.0
  0
LINE
  5
28A
  8
0
 62
     0
 10
282.46717356070002
 20
-194.928635367
 30
0.0
 11
283.50244973529999
 21
-191.06493211610001
 31
0.0
  0
ENDBLK
  5
28B
  8
0
  0
BLOCK
  8
0
  2
*D19
 70
     1
 10
0.0
 20
0.0
 30
0.0
  3
*D19
  1

  0
TEXT
  5
28F
  8
0
 62
     0
 10
193.97010939859999
 20
-54.46332921989999
 30
0.0
 40
5.9972220420999998
  1
37
 50
90.0
  0
LINE
  5
290
  8
0
 62
     0
 10
236.83530246699999
 20
-69.435559366999996
 30
0.0
 11
195.02844270009999
 21
-69.435559366999996
 31
0.0
  0
LINE
  5
291
  8
0
 62
     0
 10
306.93530246699999
 20
-32.435543729099997
 30
0.0
 11
195.02844270009999
 21
-32.435543729099997
 31
0.0
  0
LINE
  5
292
  8
0
 62
     0
 10
197.02844270009999
 20
-69.435559366999996
 30
0.0
 11
197.02844270009999
 21
-43.879996204399987
 31
0.0
  0
LINE
  5
293
  8
0
 62
     0
 10
197.02844270009999
 20
-69.435559366999996
 30
0.0
 11
197.02844270009999
 21
-57.991106891699992
 31
0.0
  0
LINE
  5
294
  8
0
 62
     0
 10
197.02844270009999
 20
-32.435543729099997
 30
0.0
 11
197.02844270009999
 21
-43.879996204399987
 31
0.0
  0
LINE
  5
295
  8
0
 62
     0
 10
197.02844270009999
 20
-32.435543729099997
 30
0.0
 11
197.02844270009999
 21
-57.991106891699992
 31
0.0
  0
LINE
  5
296
  8
0
 62
     0
 10
197.02844270009999
 20
-32.435543729099997
 30
0.0
 11
197.02844270009999
 21
-42.435543729099997
 31
0.0
  0
LINE
  5
297
  8
0
 62
     0
 10
198.06371887469999
 20
-36.299246979999999
 30
0.0
 11
197.02844270009999
 21
-32.435543729099997
 31
0.0
  0
LINE
  5
298
  8
0
 62
     0
 10
197.02844270009999
 20
-32.435543729099997
 30
0.0
 11
195.9931665256
 21
-36.299246979999999
 31
0.0
  0
LINE
  5
299
  8
0
 62
     0
 10
197.02844270009999
 20
-69.435559366999996
 30
0.0
 11
197.02844270009999
 21
-59.435559367000003
 31
0.0
  0
LINE
  5
29A
  8
0
 62
     0
 10
195.9931665256
 20
-65.571856116099994
 30
0.0
 11
197.02844270009999
 21
-69.435559366999996
 31
0.0
  0
LINE
  5
29B
  8
0
 62
     0
 10
197.02844270009999
 20
-69.435559366999996
 30
0.0
 11
198.06371887469999
 21
-65.571856116099994
 31
0.0
  0
ENDBLK
  5
29C
  8
0
  0
BLOCK
  8
0
  2
*D20
 70
     1
 10
0.0
 20
0.0
 30
0.0
  3
*D20
  1

  0
TEXT
  5
2A0
  8
0
 62
     0
 10
302.01585828740002
 20
127.8425141111
 30
0.0
 40
5.9972220420999998
  1
%%c104
  0
LINE
  5
2A1
  8
0
 62
     0
 10
362.83530246699991
 20
141.91111640080001
 30
0.0
 11
362.83530246699991
 21
122.7841808096
 31
0.0
  0
LINE
  5
2A2
  8
0
 62
     0
 10
258.83530246700002
 20
141.91111640080001
 30
0.0
 11
258.83530246700002
 21
122.7841808096
 31
0.0
  0
LINE
  5
2A3
  8
0
 62
     0
 10
362.83530246699991
 20
124.7841808096
 30
0.0
 11
323.18252431830001
 21
124.7841808096
 31
0.0
  0
LINE
  5
2A4
  8
0
 62
     0
 10
362.83530246699991
 20
124.7841808096
 30
0.0
 11
298.4880806156001
 21
124.7841808096
 31
0.0
  0
LINE
  5
2A5
  8
0
 62
     0
 10
258.83530246700002
 20
124.7841808096
 30
0.0
 11
323.18252431830001
 21
124.7841808096
 31
0.0
  0
LINE
  5
2A6
  8
0
 62
     0
 10
258.83530246700002
 20
124.7841808096
 30
0.0
 11
298.4880806156001
 21
124.7841808096
 31
0.0
  0
LINE
  5
2A7
  8
0
 62
     0
 10
258.83530246700002
 20
124.7841808096
 30
0.0
 11
268.83530246700002
 21
124.7841808096
 31
0.0
  0
LINE
  5
2A8
  8
0
 62
     0
 10
262.69900571789998
 20
125.8194569841
 30
0.0
 11
258.83530246700002
 21
124.7841808096
 31
0.0
  0
LINE
  5
2A9
  8
0
 62
     0
 10
258.83530246700002
 20
124.7841808096
 30
0.0
 11
262.69900571789998
 21
123.748904635
 31
0.0
  0
LINE
  5
2AA
  8
0
 62
     0
 10
362.83530246699991
 20
124.7841808096
 30
0.0
 11
352.83530246700002
 21
124.7841808096
 31
0.0
  0
LINE
  5
2AB
  8
0
 62
     0
 10
358.9715992161
 20
123.748904635
 30
0.0
 11
362.83530246699991
 21
124.7841808096
 31
0.0
  0
LINE
  5
2AC
  8
0
 62
     0
 10
362.83530246699991
 20
124.7841808096
 30
0.0
 11
358.9715992161
 21
125.8194569841
 31
0.0
  0
ENDBLK
  5
2AD
  8
0
  0
BLOCK
  8
0
  2
*D21
 70
     1
 10
0.0
 20
0.0
 30
0.0
  3
*D21
  1

  0
TEXT
  5
2B1
  8
0
 62
     0
 10
344.80752329519999
 20
37.083418684999998
 30
0.0
 40
5.9972220420999998
  1
75
  0
LINE
  5
2B2
  8
0
 62
     0
 10
310.83530246700002
 20
-11.0958463059
 30
0.0
 11
310.83530246700002
 21
36.025085383399997
 31
0.0
  0
LINE
  5
2B3
  8
0
 62
     0
 10
385.83529946700003
 20
-3.1377598669999989
 30
0.0
 11
385.83529946700003
 21
36.025085383399997
 31
0.0
  0
LINE
  5
2B4
  8
0
 62
     0
 10
310.83530246700002
 20
34.025085383400011
 30
0.0
 11
355.39085631059999
 21
34.025085383400011
 31
0.0
  0
LINE
  5
2B5
  8
0
 62
     0
 10
310.83530246700002
 20
34.025085383400011
 30
0.0
 11
341.27974562330002
 21
34.025085383400011
 31
0.0
  0
LINE
  5
2B6
  8
0
 62
     0
 10
385.83529946700003
 20
34.025085383400011
 30
0.0
 11
355.39085631059999
 21
34.025085383400011
 31
0.0
  0
LINE
  5
2B7
  8
0
 62
     0
 10
385.83529946700003
 20
34.025085383400011
 30
0.0
 11
341.27974562330002
 21
34.025085383400011
 31
0.0
  0
LINE
  5
2B8
  8
0
 62
     0
 10
385.83529946700003
 20
34.025085383400011
 30
0.0
 11
375.83529946700003
 21
34.025085383400011
 31
0.0
  0
LINE
  5
2B9
  8
0
 62
     0
 10
381.97159621610001
 20
32.989809208899999
 30
0.0
 11
385.83529946700003
 21
34.025085383400011
 31
0.0
  0
LINE
  5
2BA
  8
0
 62
     0
 10
385.83529946700003
 20
34.025085383400011
 30
0.0
 11
381.97159621610001
 21
35.060361557999997
 31
0.0
  0
LINE
  5
2BB
  8
0
 62
     0
 10
310.83530246700002
 20
34.025085383400011
 30
0.0
 11
320.83530246700002
 21
34.025085383400011
 31
0.0
  0
LINE
  5
2BC
  8
0
 62
     0
 10
314.69900571789998
 20
35.060361557999997
 30
0.0
 11
310.83530246700002
 21
34.025085383400011
 31
0.0
  0
LINE
  5
2BD
  8
0
 62
     0
 10
310.83530246700002
 20
34.025085383400011
 30
0.0
 11
314.69900571789998
 21
32.989809208899999
 31
0.0
  0
ENDBLK
  5
2BE
  8
0
  0
BLOCK
  8
0
  2
*D22
 70
     1
 10
0.0
 20
0.0
 30
0.0
  3
*D22
  1

  0
TEXT
  5
2C2
  8
0
 62
     0
 10
302.01585828740002
 20
102.0456391111
 30
0.0
 40
5.9972220420999998
  1
%%c140
  0
LINE
  5
2C3
  8
0
 62
     0
 10
380.83530246700002
 20
141.91111640080001
 30
0.0
 11
380.83530246700002
 21
96.987305809599988
 31
0.0
  0
LINE
  5
2C4
  8
0
 62
     0
 10
240.83530246699999
 20
141.91111640080001
 30
0.0
 11
240.83530246699999
 21
96.987305809599988
 31
0.0
  0
LINE
  5
2C5
  8
0
 62
     0
 10
380.83530246700002
 20
98.987305809599974
 30
0.0
 11
323.18252431830001
 21
98.987305809599974
 31
0.0
  0
LINE
  5
2C6
  8
0
 62
     0
 10
380.83530246700002
 20
98.987305809599974
 30
0.0
 11
298.4880806156001
 21
98.987305809599974
 31
0.0
  0
LINE
  5
2C7
  8
0
 62
     0
 10
240.83530246699999
 20
98.987305809599974
 30
0.0
 11
323.18252431830001
 21
98.987305809599974
 31
0.0
  0
LINE
  5
2C8
  8
0
 62
     0
 10
240.83530246699999
 20
98.987305809599974
 30
0.0
 11
298.4880806156001
 21
98.987305809599974
 31
0.0
  0
LINE
  5
2C9
  8
0
 62
     0
 10
240.83530246699999
 20
98.987305809599974
 30
0.0
 11
250.83530246699999
 21
98.987305809599974
 31
0.0
  0
LINE
  5
2CA
  8
0
 62
     0
 10
244.69900571790001
 20
100.0225819841
 30
0.0
 11
240.83530246699999
 21
98.987305809599974
 31
0.0
  0
LINE
  5
2CB
  8
0
 62
     0
 10
240.83530246699999
 20
98.987305809599974
 30
0.0
 11
244.69900571790001
 21
97.952029635000017
 31
0.0
  0
LINE
  5
2CC
  8
0
 62
     0
 10
380.83530246700002
 20
98.987305809599974
 30
0.0
 11
370.83530246700002
 21
98.987305809599974
 31
0.0
  0
LINE
  5
2CD
  8
0
 62
     0
 10
376.9715992161
 20
97.952029635000017
 30
0.0
 11
380.83530246700002
 21
98.987305809599974
 31
0.0
  0
LINE
  5
2CE
  8
0
 62
     0
 10
380.83530246700002
 20
98.987305809599974
 30
0.0
 11
376.9715992161
 21
100.0225819841
 31
0.0
  0
ENDBLK
  5
2CF
  8
0
  0
BLOCK
  8
0
  2
BALLON2
 70
     0
 10
0.0
 20
0.0
 30
0.0
  3
BALLON2
  1

  0
INSERT
  5
2D4
  8
0
  6
CONTINUOUS
  2
*U99
 10
0.0
 20
0.0
 30
0.0
  0
CIRCLE
  5
2D5
  8
ﾚｲﾔ_1
 10
432.11311523319989
 20
-125.352283671
 30
0.0
 40
8.0
  0
LINE
  5
2D6
  8
寸法線
 10
418.77978189989989
 20
-125.352283671
 30
0.0
 11
424.11311523320001
 21
-125.352283671
 31
0.0
  0
LINE
  5
2D7
  8
寸法線
 10
325.58530246700002
 20
-151.928635367
 30
0.0
 11
418.77978189989989
 21
-125.352283671
 31
0.0
  0
SOLID
  5
2D8
  8
寸法線
 10
325.58530246700002
 20
-151.928635367
 30
0.0
 11
332.83981664570001
 21
-148.1960727044
 31
0.0
 12
331.73993839869991
 22
-150.1735124233
 32
0.0
 13
331.73993839869991
 23
-150.1735124233
 33
0.0
  0
SOLID
  5
2D9
  8
寸法線
 10
331.73993839869991
 20
-150.1735124233
 30
0.0
 11
333.71737811759999
 21
-151.27339067029999
 31
0.0
 12
325.58530246700002
 22
-151.928635367
 32
0.0
 13
325.58530246700002
 23
-151.928635367
 33
0.0
  0
ENDBLK
  5
2DA
  8
0
  0
BLOCK
  8
0
  2
*D24
 70
     1
 10
0.0
 20
0.0
 30
0.0
  3
*D24
  1

  0
TEXT
  5
2DE
  8
0
 62
     0
 10
348.08767416939997
 20
-31.012636821099999
 30
0.0
 40
5.9972220420999998
  1
20%%d
 50
100.3478756391
  0
ARC
  5
2DF
  8
0
 62
     0
 10
310.83530246700002
 20
-32.435543729099997
 30
0.0
 40
40.077061189899993
 50
347.88751543479998
 51
0.0
  0
ARC
  5
2E0
  8
0
 62
     0
 10
310.83530246700002
 20
-32.435543729099997
 30
0.0
 40
40.077061189899993
 50
19.999991506600001
 51
32.112476071800003
  0
LINE
  5
2E1
  8
0
 62
     0
 10
350.78972839739998
 20
-22.004995567800002
 30
0.0
 11
348.49542316179998
 21
-18.728387099500001
 31
0.0
  0
LINE
  5
2E2
  8
0
 62
     0
 10
348.49542316179998
 20
-18.728387099500001
 30
0.0
 11
348.84404552900003
 21
-22.713165890599999
 31
0.0
  0
LINE
  5
2E3
  8
0
 62
     0
 10
349.87708748230011
 20
-28.571840478199999
 30
0.0
 11
350.91236365679998
 21
-32.435543729099997
 31
0.0
  0
LINE
  5
2E4
  8
0
 62
     0
 10
350.91236365679998
 20
-32.435543729099997
 30
0.0
 11
351.94763983140001
 21
-28.571840478199999
 31
0.0
  0
LINE
  5
2E5
  8
0
 62
     0
 10
387.62725578099997
 20
-4.485571383099999
 30
0.0
 11
346.6160378187999
 21
-19.412427107599999
 31
0.0
  0
LINE
  5
2E6
  8
0
 62
     0
 10
363.9053024669999
 20
-32.435543729099997
 30
0.0
 11
348.91236365679998
 21
-32.435543729099997
 31
0.0
  0
ENDBLK
  5
2E7
  8
0
  0
BLOCK
  8
0
  2
BALLON3
 70
     0
 10
0.0
 20
0.0
 30
0.0
  3
BALLON3
  1

  0
INSERT
  5
2EC
  8
0
  6
CONTINUOUS
  2
*U101
 10
0.0
 20
0.0
 30
0.0
  0
CIRCLE
  5
2ED
  8
ﾚｲﾔ_1
 10
432.11311523319989
 20
-10.803028601699999
 30
0.0
 40
8.0
  0
LINE
  5
2EE
  8
寸法線
 10
418.77978189989989
 20
-10.803028601699999
 30
0.0
 11
424.11311523320001
 21
-10.803028601699999
 31
0.0
  0
LINE
  5
2EF
  8
寸法線
 10
347.57222637469999
 20
-53.935559367000003
 30
0.0
 11
418.77978189989989
 21
-10.803028601699999
 31
0.0
  0
SOLID
  5
2F0
  8
寸法線
 10
347.57222637469999
 20
-53.935559367000003
 30
0.0
 11
353.5858609622
 21
-48.422284564499989
 31
0.0
 12
353.04629525780001
 22
-50.619753301599999
 32
0.0
 13
353.04629525780001
 23
-50.619753301599999
 33
0.0
  0
SOLID
  5
2F1
  8
寸法線
 10
353.04629525780001
 20
-50.619753301599999
 30
0.0
 11
355.24376399489989
 21
-51.159319006099999
 31
0.0
 12
347.57222637469999
 22
-53.935559367000003
 32
0.0
 13
347.57222637469999
 23
-53.935559367000003
 33
0.0
  0
ENDBLK
  5
2F2
  8
0
  0
BLOCK
  8
0
  2
BALLON4
 70
     0
 10
0.0
 20
0.0
 30
0.0
  3
BALLON4
  1

  0
INSERT
  5
2F6
  8
0
  6
CONTINUOUS
  2
*U102
 10
0.0
 20
0.0
 30
0.0
  0
CIRCLE
  5
2F7
  8
ﾚｲﾔ_1
 10
432.11311523319989
 20
-33.453091880700001
 30
0.0
 40
8.0
  0
LINE
  5
2F8
  8
寸法線
 10
418.77978189989989
 20
-33.453091880700001
 30
0.0
 11
424.11311523320001
 21
-33.453091880700001
 31
0.0
  0
LINE
  5
2F9
  8
寸法線
 10
351.58530246700002
 20
-56.94224756069999
 30
0.0
 11
418.77978189989989
 21
-33.453091880700001
 31
0.0
  0
SOLID
  5
2FA
  8
寸法線
 10
351.58530246700002
 20
-56.94224756069999
 30
0.0
 11
358.60920024950002
 21
-52.791963240199998
 31
0.0
 12
357.62680604129997
 22
-54.830320819100002
 32
0.0
 13
357.62680604129997
 23
-54.830320819100002
 33
0.0
  0
SOLID
  5
2FB
  8
寸法線
 10
357.62680604129997
 20
-54.830320819100002
 30
0.0
 11
359.66516362020002
 21
-55.812715027299987
 31
0.0
 12
351.58530246700002
 22
-56.94224756069999
 32
0.0
 13
351.58530246700002
 23
-56.94224756069999
 33
0.0
  0
ENDBLK
  5
2FC
  8
0
  0
BLOCK
  8
0
  2
BALLON5
 70
     0
 10
0.0
 20
0.0
 30
0.0
  3
BALLON5
  1

  0
INSERT
  5
300
  8
0
  6
CONTINUOUS
  2
*U103
 10
0.0
 20
0.0
 30
0.0
  0
CIRCLE
  5
301
  8
ﾚｲﾔ_1
 10
208.64336797639999
 20
44.348194379399992
 30
0.0
 40
8.0
  0
LINE
  5
302
  8
寸法線
 10
221.97670130980001
 20
44.348194379399992
 30
0.0
 11
216.64336797639999
 21
44.348194379399992
 31
0.0
  0
LINE
  5
303
  8
寸法線
 10
272.08530246700002
 20
-5.7604067778000001
 30
0.0
 11
221.97670130980001
 21
44.348194379399992
 31
0.0
  0
SOLID
  5
304
  8
寸法線
 10
272.08530246700002
 20
-5.7604067778000001
 30
0.0
 11
265.29707736759991
 21
-1.2349233781999991
 31
0.0
 12
267.55981906739999
 22
-1.2349233781999991
 32
0.0
 13
267.55981906739999
 23
-1.2349233781999991
 33
0.0
  0
SOLID
  5
305
  8
寸法線
 10
267.55981906739999
 20
-1.2349233781999991
 30
0.0
 11
267.55981906739999
 21
1.027818321599999
 31
0.0
 12
272.08530246700002
 22
-5.7604067778000001
 32
0.0
 13
272.08530246700002
 23
-5.7604067778000001
 33
0.0
  0
ENDBLK
  5
306
  8
0
  0
BLOCK
  8
0
  2
BALLON6
 70
     0
 10
0.0
 20
0.0
 30
0.0
  3
BALLON6
  1

  0
INSERT
  5
30A
  8
0
  6
CONTINUOUS
  2
*U104
 10
0.0
 20
0.0
 30
0.0
  0
CIRCLE
  5
30B
  8
ﾚｲﾔ_1
 10
432.11311523319989
 20
-53.8480674447
 30
0.0
 40
8.0
  0
LINE
  5
30C
  8
寸法線
 10
418.77978189989989
 20
-53.8480674447
 30
0.0
 11
424.11311523320001
 21
-53.8480674447
 31
0.0
  0
LINE
  5
30D
  8
寸法線
 10
351.58530246700002
 20
-65.435559366999996
 30
0.0
 11
418.77978189989989
 21
-53.8480674447
 31
0.0
  0
SOLID
  5
30E
  8
寸法線
 10
351.58530246700002
 20
-65.435559366999996
 30
0.0
 11
359.19703740789998
 21
-62.4993217763
 31
0.0
 12
357.89221205090001
 22
-64.347951211199998
 32
0.0
 13
357.89221205090001
 23
-64.347951211199998
 33
0.0
  0
SOLID
  5
30F
  8
寸法線
 10
357.89221205090001
 20
-64.347951211199998
 30
0.0
 11
359.74084148579999
 21
-65.652776568199997
 31
0.0
 12
351.58530246700002
 22
-65.435559366999996
 32
0.0
 13
351.58530246700002
 23
-65.435559366999996
 33
0.0
  0
ENDBLK
  5
310
  8
0
  0
BLOCK
  8
0
  2
BALLON7
 70
     0
 10
0.0
 20
0.0
 30
0.0
  3
BALLON7
  1

  0
INSERT
  5
314
  8
0
  6
CONTINUOUS
  2
*U105
 10
0.0
 20
0.0
 30
0.0
  0
CIRCLE
  5
315
  8
ﾚｲﾔ_1
 10
378.3517998881
 20
88.635201033700014
 30
0.0
 40
8.0
  0
LINE
  5
316
  8
寸法線
 10
365.01846655480011
 20
88.635201033700014
 30
0.0
 11
370.3517998881
 21
88.635201033700014
 31
0.0
  0
LINE
  5
317
  8
寸法線
 10
335.83729625559999
 20
38.091931451199997
 30
0.0
 11
365.01846655480011
 21
88.635201033700014
 31
0.0
  0
SOLID
  5
318
  8
寸法線
 10
335.83729625559999
 20
38.091931451199997
 30
0.0
 11
338.45165560959998
 21
45.820134681499987
 31
0.0
 12
339.03729625559998
 22
43.634494035400003
 32
0.0
 13
339.03729625559998
 23
43.634494035400003
 33
0.0
  0
SOLID
  5
319
  8
寸法線
 10
339.03729625559998
 20
43.634494035400003
 30
0.0
 11
341.2229369017
 21
44.220134681499999
 31
0.0
 12
335.83729625559999
 22
38.091931451199997
 32
0.0
 13
335.83729625559999
 23
38.091931451199997
 33
0.0
  0
ENDBLK
  5
31A
  8
0
  0
BLOCK
  8
0
  2
*U30
 70
     1
 10
0.0
 20
0.0
 30
0.0
  3
*U30
  1

  0
TEXT
  5
33F
  8
図枠
  6
CONTINUOUS
 10
719.90327531819185
 20
-171.5210441435274
 30
0.0
 40
5.9972220420999998
  1
ステンレス(SUS304)
  0
ENDBLK
  5
341
  8
0
  0
BLOCK
  8
0
  2
*U31
 70
     1
 10
0.0
 20
0.0
 30
0.0
  3
*U31
  1

  0
TEXT
  5
343
  8
図枠
  6
CONTINUOUS
 10
639.38341444716559
 20
-171.82547165835479
 30
0.0
 40
5.9972220420999998
  1
リ　ン　グ
  0
ENDBLK
  5
345
  8
0
  0
BLOCK
  8
0
  2
*U32
 70
     1
 10
0.0
 20
0.0
 30
0.0
  3
*U32
  1

  0
TEXT
  5
347
  8
図枠
  6
CONTINUOUS
 10
807.18781326563874
 20
-181.2166166287
 30
0.0
 40
5.9972220420999998
  1
1
  0
ENDBLK
  5
349
  8
0
  0
BLOCK
  8
0
  2
*U33
 70
     1
 10
0.0
 20
0.0
 30
0.0
  3
*U33
  1

  0
TEXT
  5
34B
  8
図枠
  6
CONTINUOUS
 10
833.53423922562934
 20
-181.58192964649291
 30
0.0
 40
5.9972220420999998
  1
防錆塗装
  0
ENDBLK
  5
34D
  8
0
  0
BLOCK
  8
0
  2
*U34
 70
     1
 10
0.0
 20
0.0
 30
0.0
  3
*U34
  1

  0
TEXT
  5
34F
  8
図枠
  6
CONTINUOUS
 10
597.18781326563874
 20
-211.2166166287
 30
0.0
 40
5.9972220420999998
  1
1
  0
ENDBLK
  5
351
  8
0
  0
BLOCK
  8
0
  2
*U35
 70
     1
 10
0.0
 20
0.0
 30
0.0
  3
*U35
  1

  0
TEXT
  5
353
  8
図枠
  6
CONTINUOUS
 10
596.80727887210435
 20
-161.2166166287
 30
0.0
 40
5.9972220420999998
  1
6
  0
ENDBLK
  5
355
  8
0
  0
BLOCK
  8
0
  2
*U36
 70
     1
 10
0.0
 20
0.0
 30
0.0
  3
*U36
  1

  0
TEXT
  5
357
  8
図枠
  6
CONTINUOUS
 10
596.83772162358719
 20
-141.2166166287
 30
0.0
 40
5.9972220420999998
  1
8
  0
ENDBLK
  5
359
  8
0
  0
BLOCK
  8
0
  2
*U37
 70
     1
 10
0.0
 20
0.0
 30
0.0
  3
*U37
  1

  0
TEXT
  5
35B
  8
図枠
  6
CONTINUOUS
 10
596.82250024784594
 20
-151.2166166287
 30
0.0
 40
5.9972220420999998
  1
7
  0
ENDBLK
  5
35D
  8
0
  0
BLOCK
  8
0
  2
*U38
 70
     1
 10
0.0
 20
0.0
 30
0.0
  3
*U38
  1

  0
TEXT
  5
35F
  8
図枠
  6
CONTINUOUS
 10
596.83772162358719
 20
-201.2166166287
 30
0.0
 40
5.9972220420999998
  1
2
  0
ENDBLK
  5
361
  8
0
  0
BLOCK
  8
0
  2
*U39
 70
     1
 10
0.0
 20
0.0
 30
0.0
  3
*U39
  1

  0
TEXT
  5
363
  8
図枠
  6
CONTINUOUS
 10
710.19203759519735
 20
-211.82547165835479
 30
0.0
 40
5.9972220420999998
  1
ネズミ鋳鉄品２種(FC150)
  0
ENDBLK
  5
365
  8
0
  0
BLOCK
  8
0
  2
*U40
 70
     1
 10
0.0
 20
0.0
 30
0.0
  3
*U40
  1

  0
TEXT
  5
367
  8
図枠
  6
CONTINUOUS
 10
765.61755695405122
 20
252.75112072704309
 30
0.0
 40
5.3974999188999986
  1
改　訂　内　容
  0
ENDBLK
  5
369
  8
0
  0
BLOCK
  8
0
  2
*U41
 70
     1
 10
0.0
 20
0.0
 30
0.0
  3
*U41
  1

  0
TEXT
  5
36B
  8
図枠
  6
CONTINUOUS
 10
713.46748694899497
 20
252.80591768053449
 30
0.0
 40
5.3974999188999986
  1
改訂日
  0
ENDBLK
  5
36D
  8
0
  0
BLOCK
  8
0
  2
*U42
 70
     1
 10
0.0
 20
0.0
 30
0.0
  3
*U42
  1

  0
TEXT
  5
36F
  8
図枠
  6
CONTINUOUS
 10
693.00189044918852
 20
252.8607146340259
 30
0.0
 40
5.3974999188999986
  1
副番
  0
ENDBLK
  5
371
  8
0
  0
BLOCK
  8
0
  2
*U43
 70
     1
 10
0.0
 20
0.0
 30
0.0
  3
*U43
  1

  0
TEXT
  5
373
  8
図枠
  6
CONTINUOUS
 10
600.63528884050004
 20
-293.79549424621069
 30
0.0
 40
10.794999837900001
  1
株式会社
  0
ENDBLK
  5
375
  8
0
  0
BLOCK
  8
0
  2
*U44
 70
     1
 10
0.0
 20
0.0
 30
0.0
  3
*U44
  1

  0
TEXT
  5
377
  8
図枠
  6
CONTINUOUS
 10
859.67297552458786
 20
252.7237222502975
 30
0.0
 40
5.3974999188999986
  1
検認者
  0
ENDBLK
  5
379
  8
0
  0
BLOCK
  8
0
  2
*U45
 70
     1
 10
0.0
 20
0.0
 30
0.0
  3
*U45
  1

  0
TEXT
  5
37B
  8
図枠
  6
CONTINUOUS
 10
742.48579714050516
 20
-285.12727313759638
 30
0.0
 40
5.9972220420999998
  1
図 番
  0
ENDBLK
  5
37D
  8
0
  0
BLOCK
  8
0
  2
*U46
 70
     1
 10
0.0
 20
0.0
 30
0.0
  3
*U46
  1

  0
TEXT
  5
37F
  8
図枠
  6
CONTINUOUS
 10
740.40046866393754
 20
-241.24904414352741
 30
0.0
 40
5.9972220420999998
  1
製品名
  0
ENDBLK
  5
381
  8
0
  0
BLOCK
  8
0
  2
*U47
 70
     1
 10
0.0
 20
0.0
 30
0.0
  3
*U47
  1

  0
TEXT
  5
383
  8
図枠
  6
CONTINUOUS
 10
740.56790379709253
 20
-263.18815864056188
 30
0.0
 40
5.9972220420999998
  1
図面名
  0
ENDBLK
  5
385
  8
0
  0
BLOCK
  8
0
  2
*U48
 70
     1
 10
0.0
 20
0.0
 30
0.0
  3
*U48
  1

  0
TEXT
  5
387
  8
図枠
  6
CONTINUOUS
 10
600.15831563102552
 20
-241.8856612140309
 30
0.0
 40
5.9972220420999998
  1
日　　付
  0
ENDBLK
  5
389
  8
0
  0
BLOCK
  8
0
  2
*U49
 70
     1
 10
0.0
 20
0.0
 30
0.0
  3
*U49
  1

  0
TEXT
  5
38B
  8
図枠
  6
CONTINUOUS
 10
649.51901784988786
 20
-242.06831772292739
 30
0.0
 40
5.9972220420999998
  1
尺　　度
  0
ENDBLK
  5
38D
  8
0
  0
BLOCK
  8
0
  2
*U50
 70
     1
 10
0.0
 20
0.0
 30
0.0
  3
*U50
  1

  0
TEXT
  5
38F
  8
図枠
  6
CONTINUOUS
 10
839.75517095482485
 20
252.75112072704309
 30
0.0
 40
5.3974999188999986
  1
改訂者
  0
ENDBLK
  5
391
  8
0
  0
BLOCK
  8
0
  2
*U51
 70
     1
 10
0.0
 20
0.0
 30
0.0
  3
*U51
  1

  0
TEXT
  5
393
  8
図枠
  6
CONTINUOUS
 10
591.4493546111421
 20
-221.3992731375964
 30
0.0
 40
5.9972220420999998
  1
品番
  0
ENDBLK
  5
395
  8
0
  0
BLOCK
  8
0
  2
*U52
 70
     1
 10
0.0
 20
0.0
 30
0.0
  3
*U52
  1

  0
TEXT
  5
397
  8
図枠
  6
CONTINUOUS
 10
589.75561496699993
 20
-275.06831772292742
 30
0.0
 40
5.9972220420999998
  1
 製図
  0
ENDBLK
  5
399
  8
0
  0
BLOCK
  8
0
  2
*U53
 70
     1
 10
0.0
 20
0.0
 30
0.0
  3
*U53
  1

  0
TEXT
  5
39B
  8
図枠
  6
CONTINUOUS
 10
589.75561496699993
 20
-264.00743221996191
 30
0.0
 40
5.9972220420999998
  1
 設計
  0
ENDBLK
  5
39D
  8
0
  0
BLOCK
  8
0
  2
*U54
 70
     1
 10
0.0
 20
0.0
 30
0.0
  3
*U54
  1

  0
TEXT
  5
39F
  8
図枠
  6
CONTINUOUS
 10
664.75561496699993
 20
-275.09876047441008
 30
0.0
 40
5.9972220420999998
  1
 検図
  0
ENDBLK
  5
3A1
  8
0
  0
BLOCK
  8
0
  2
*U55
 70
     1
 10
0.0
 20
0.0
 30
0.0
  3
*U55
  1

  0
TEXT
  5
3A3
  8
図枠
  6
CONTINUOUS
 10
664.75561496699993
 20
-264.03787497144469
 30
0.0
 40
5.9972220420999998
  1
 照査
  0
ENDBLK
  5
3A5
  8
0
  0
BLOCK
  8
0
  2
*U56
 70
     1
 10
0.0
 20
0.0
 30
0.0
  3
*U56
  1

  0
TEXT
  5
3A7
  8
図枠
  6
CONTINUOUS
 10
801.25147672650417
 20
-221.5210441435274
 30
0.0
 40
5.9972220420999998
  1
数量
  0
ENDBLK
  5
3A9
  8
0
  0
BLOCK
  8
0
  2
*U57
 70
     1
 10
0.0
 20
0.0
 30
0.0
  3
*U57
  1

  0
TEXT
  5
3AB
  8
図枠
  6
CONTINUOUS
 10
830.27686481697594
 20
-221.61237239797561
 30
0.0
 40
5.9972220420999998
  1
備　　　考
  0
ENDBLK
  5
3AD
  8
0
  0
BLOCK
  8
0
  2
*U58
 70
     1
 10
0.0
 20
0.0
 30
0.0
  3
*U58
  1

  0
TEXT
  5
3AF
  8
図枠
  6
CONTINUOUS
 10
734.56146015713171
 20
-221.4297158890792
 30
0.0
 40
5.9972220420999998
  1
材　　　質
  0
ENDBLK
  5
3B1
  8
0
  0
BLOCK
  8
0
  2
*U59
 70
     1
 10
0.0
 20
0.0
 30
0.0
  3
*U59
  1

  0
TEXT
  5
3B3
  8
図枠
  6
CONTINUOUS
 10
638.78978079325225
 20
-221.4601586405619
 30
0.0
 40
5.9972220420999998
  1
品　　　名
  0
ENDBLK
  5
3B5
  8
0
  0
BLOCK
  8
0
  2
*U60
 70
     1
 10
0.0
 20
0.0
 30
0.0
  3
*U60
  1

  0
TEXT
  5
3B7
  8
図枠
  6
CONTINUOUS
 10
807.18781326563874
 20
-131.2166166287
 30
0.0
 40
5.9972220420999998
  1
1
  0
ENDBLK
  5
3B9
  8
0
  0
BLOCK
  8
0
  2
*U61
 70
     1
 10
0.0
 20
0.0
 30
0.0
  3
*U61
  1

  0
TEXT
  5
3BB
  8
図枠
  6
CONTINUOUS
 10
719.90327531819185
 20
-131.5210441435274
 30
0.0
 40
5.9972220420999998
  1
ステンレス(SUS304)
  0
ENDBLK
  5
3BD
  8
0
  0
BLOCK
  8
0
  2
*U62
 70
     1
 10
0.0
 20
0.0
 30
0.0
  3
*U62
  1

  0
TEXT
  5
3BF
  8
図枠
  6
CONTINUOUS
 10
630.79855852903256
 20
-131.5514868950101
 30
0.0
 40
5.9972220420999998
  1
ホース固定金具
  0
ENDBLK
  5
3C1
  8
0
  0
BLOCK
  8
0
  2
*U63
 70
     1
 10
0.0
 20
0.0
 30
0.0
  3
*U63
  1

  0
TEXT
  5
3C3
  8
図枠
  6
CONTINUOUS
 10
807.18781326563874
 20
-141.2166166287
 30
0.0
 40
5.9972220420999998
  1
1
  0
ENDBLK
  5
3C5
  8
0
  0
BLOCK
  8
0
  2
*U64
 70
     1
 10
0.0
 20
0.0
 30
0.0
  3
*U64
  1

  0
TEXT
  5
3C7
  8
図枠
  6
CONTINUOUS
 10
729.56884891396214
 20
-141.5514868950101
 30
0.0
 40
5.9972220420999998
  1
合成ゴム(NBR)
  0
ENDBLK
  5
3C9
  8
0
  0
BLOCK
  8
0
  2
*U65
 70
     1
 10
0.0
 20
0.0
 30
0.0
  3
*U65
  1

  0
TEXT
  5
3CB
  8
図枠
  6
CONTINUOUS
 10
627.79994750798255
 20
-141.73414340390659
 30
0.0
 40
5.9972220420999998
  1
２０°洗濯エルボ
  0
ENDBLK
  5
3CD
  8
0
  0
BLOCK
  8
0
  2
*U66
 70
     1
 10
0.0
 20
0.0
 30
0.0
  3
*U66
  1

  0
TEXT
  5
3CF
  8
図枠
  6
CONTINUOUS
 10
807.18781326563874
 20
-151.2166166287
 30
0.0
 40
5.9972220420999998
  1
1
  0
ENDBLK
  5
3D1
  8
0
  0
BLOCK
  8
0
  2
*U67
 70
     1
 10
0.0
 20
0.0
 30
0.0
  3
*U67
  1

  0
TEXT
  5
3D3
  8
図枠
  6
CONTINUOUS
 10
730.69523071882338
 20
-151.73414340390659
 30
0.0
 40
5.9972220420999998
  1
ポリエチレン
  0
ENDBLK
  5
3D5
  8
0
  0
BLOCK
  8
0
  2
*U68
 70
     1
 10
0.0
 20
0.0
 30
0.0
  3
*U68
  1

  0
TEXT
  5
3D7
  8
図枠
  6
CONTINUOUS
 10
623.20309203408874
 20
-151.85591440983751
 30
0.0
 40
5.9972220420999998
  1
スリップワッシャー
  0
ENDBLK
  5
3D9
  8
0
  0
BLOCK
  8
0
  2
*U69
 70
     1
 10
0.0
 20
0.0
 30
0.0
  3
*U69
  1

  0
TEXT
  5
3DB
  8
図枠
  6
CONTINUOUS
 10
807.18781326563874
 20
-161.2166166287
 30
0.0
 40
5.9972220420999998
  1
1
  0
ENDBLK
  5
3DD
  8
0
  0
BLOCK
  8
0
  2
*U70
 70
     1
 10
0.0
 20
0.0
 30
0.0
  3
*U70
  1

  0
TEXT
  5
3DF
  8
図枠
  6
CONTINUOUS
 10
729.56884891396214
 20
-161.5514868950101
 30
0.0
 40
5.9972220420999998
  1
合成ゴム(NBR)
  0
ENDBLK
  5
3E1
  8
0
  0
BLOCK
  8
0
  2
*U71
 70
     1
 10
0.0
 20
0.0
 30
0.0
  3
*U71
  1

  0
TEXT
  5
3E3
  8
図枠
  6
CONTINUOUS
 10
625.70259077929973
 20
-275.06831772292742
 30
0.0
 40
5.9972220420999998
  1
永　井
  0
ENDBLK
  5
3E5
  8
0
  0
BLOCK
  8
0
  2
*U72
 70
     1
 10
0.0
 20
0.0
 30
0.0
  3
*U72
  1

  0
TEXT
  5
3E7
  8
図枠
  6
CONTINUOUS
 10
639.0942083080796
 20
-161.3992731375964
 30
0.0
 40
5.9972220420999998
  1
Ｕパッキン
  0
ENDBLK
  5
3E9
  8
0
  0
BLOCK
  8
0
  2
*U73
 70
     1
 10
0.0
 20
0.0
 30
0.0
  3
*U73
  1

  0
TEXT
  5
3EB
  8
図枠
  6
CONTINUOUS
 10
807.18781326563874
 20
-171.2166166287
 30
0.0
 40
5.9972220420999998
  1
1
  0
ENDBLK
  5
3ED
  8
0
  0
BLOCK
  8
0
  2
*U74
 70
     1
 10
0.0
 20
0.0
 30
0.0
  3
*U74
  1

  0
TEXT
  5
3EF
  8
図枠
  6
CONTINUOUS
 10
710.19203759519735
 20
-181.82547165835479
 30
0.0
 40
5.9972220420999998
  1
ネズミ鋳鉄品２種(FC150)
  0
ENDBLK
  5
3F1
  8
0
  0
BLOCK
  8
0
  2
*U75
 70
     1
 10
0.0
 20
0.0
 30
0.0
  3
*U75
  1

  0
TEXT
  5
3F3
  8
図枠
  6
CONTINUOUS
 10
642.77778123749135
 20
-181.2166166287
 30
0.0
 40
5.9972220420999998
  1
ワ　　ン
  0
ENDBLK
  5
3F5
  8
0
  0
BLOCK
  8
0
  2
*U76
 70
     1
 10
0.0
 20
0.0
 30
0.0
  3
*U76
  1

  0
TEXT
  5
3F7
  8
図枠
  6
CONTINUOUS
 10
807.18781326563874
 20
-191.2166166287
 30
0.0
 40
5.9972220420999998
  1
1
  0
ENDBLK
  5
3F9
  8
0
  0
BLOCK
  8
0
  2
*U77
 70
     1
 10
0.0
 20
0.0
 30
0.0
  3
*U77
  1

  0
TEXT
  5
3FB
  8
図枠
  6
CONTINUOUS
 10
822.0725432923773
 20
-191.3992731375964
 30
0.0
 40
5.9972220420999998
  1
クロームメッキ
  0
ENDBLK
  5
3FD
  8
0
  0
BLOCK
  8
0
  2
*U78
 70
     1
 10
0.0
 20
0.0
 30
0.0
  3
*U78
  1

  0
TEXT
  5
3FF
  8
図枠
  6
CONTINUOUS
 10
715.90005349821126
 20
-191.6428151494583
 30
0.0
 40
5.9972220420999998
  1
黄銅鋳物２種(CAC202)
  0
ENDBLK
  5
401
  8
0
  0
BLOCK
  8
0
  2
*U79
 70
     1
 10
0.0
 20
0.0
 30
0.0
  3
*U79
  1

  0
TEXT
  5
403
  8
図枠
  6
CONTINUOUS
 10
643.08220875231859
 20
-191.2166166287
 30
0.0
 40
5.9972220420999998
  1
目　　皿
  0
ENDBLK
  5
405
  8
0
  0
BLOCK
  8
0
  2
*U80
 70
     1
 10
0.0
 20
0.0
 30
0.0
  3
*U80
  1

  0
TEXT
  5
407
  8
図枠
  6
CONTINUOUS
 10
807.18781326563874
 20
-201.2166166287
 30
0.0
 40
5.9972220420999998
  1
1
  0
ENDBLK
  5
409
  8
0
  0
BLOCK
  8
0
  2
*U81
 70
     1
 10
0.0
 20
0.0
 30
0.0
  3
*U81
  1

  0
TEXT
  5
40B
  8
図枠
  6
CONTINUOUS
 10
822.0725432923773
 20
-201.39927313759651
 30
0.0
 40
5.9972220420999998
  1
クロームメッキ
  0
ENDBLK
  5
40D
  8
0
  0
BLOCK
  8
0
  2
*U82
 70
     1
 10
0.0
 20
0.0
 30
0.0
  3
*U82
  1

  0
TEXT
  5
40F
  8
図枠
  6
CONTINUOUS
 10
715.90005349821126
 20
-201.64281514945839
 30
0.0
 40
5.9972220420999998
  1
黄銅鋳物２種(CAC202)
  0
ENDBLK
  5
411
  8
0
  0
BLOCK
  8
0
  2
*U83
 70
     1
 10
0.0
 20
0.0
 30
0.0
  3
*U83
  1

  0
TEXT
  5
413
  8
図枠
  6
CONTINUOUS
 10
654.19381304351907
 20
-201.5210441435274
 30
0.0
 40
5.9972220420999998
  1
枠
  0
ENDBLK
  5
415
  8
0
  0
BLOCK
  8
0
  2
*U84
 70
     1
 10
0.0
 20
0.0
 30
0.0
  3
*U84
  1

  0
TEXT
  5
417
  8
図枠
  6
CONTINUOUS
 10
642.56468197711195
 20
-211.55148689501021
 30
0.0
 40
5.9972220420999998
  1
本　　体
  0
ENDBLK
  5
419
  8
0
  0
BLOCK
  8
0
  2
*U85
 70
     1
 10
0.0
 20
0.0
 30
0.0
  3
*U85
  1

  0
TEXT
  5
41B
  8
図枠
  6
CONTINUOUS
 10
656.79483545426308
 20
-252.77822489549999
 30
0.0
 40
5.9972220420999998
  1
1：2
  0
ENDBLK
  5
41D
  8
0
  0
BLOCK
  8
0
  2
*U86
 70
     1
 10
0.0
 20
0.0
 30
0.0
  3
*U86
  1

  0
TEXT
  5
41F
  8
図枠
  6
CONTINUOUS
 10
596.82250024784594
 20
-181.2166166287
 30
0.0
 40
5.9972220420999998
  1
4
  0
ENDBLK
  5
421
  8
0
  0
BLOCK
  8
0
  2
*U87
 70
     1
 10
0.0
 20
0.0
 30
0.0
  3
*U87
  1

  0
TEXT
  5
423
  8
図枠
  6
CONTINUOUS
 10
596.86816437506991
 20
-191.2166166287
 30
0.0
 40
5.9972220420999998
  1
3
  0
ENDBLK
  5
425
  8
0
  0
BLOCK
  8
0
  2
*U88
 70
     1
 10
0.0
 20
0.0
 30
0.0
  3
*U88
  1

  0
TEXT
  5
427
  8
図枠
  6
CONTINUOUS
 10
833.53423922562934
 20
-211.58192964649291
 30
0.0
 40
5.9972220420999998
  1
防錆塗装
  0
ENDBLK
  5
429
  8
0
  0
BLOCK
  8
0
  2
*U89
 70
     1
 10
0.0
 20
0.0
 30
0.0
  3
*U89
  1

  0
TEXT
  5
42B
  8
図枠
  6
CONTINUOUS
 10
807.18781326563874
 20
-211.2166166287
 30
0.0
 40
5.9972220420999998
  1
1
  0
ENDBLK
  5
42D
  8
0
  0
BLOCK
  8
0
  2
*U90
 70
     1
 10
0.0
 20
0.0
 30
0.0
  3
*U90
  1

  0
TEXT
  5
42F
  8
図枠
  6
CONTINUOUS
 10
599.12326208061234
 20
-252.77822489549999
 30
0.0
 40
5.9972220420999998
  1
H17.9.14
  0
ENDBLK
  5
431
  8
0
  0
BLOCK
  8
0
  2
*U91
 70
     1
 10
0.0
 20
0.0
 30
0.0
  3
*U91
  1

  0
TEXT
  5
433
  8
図枠
  6
CONTINUOUS
 10
785.4252361659145
 20
-291.71106087499999
 30
0.0
 40
7.1966662884000003
  1
ＳＨＰ００００４
  0
ENDBLK
  5
435
  8
0
  0
BLOCK
  8
0
  2
*U92
 70
     1
 10
0.0
 20
0.0
 30
0.0
  3
*U92
  1

  0
TEXT
  5
437
  8
図枠
  6
CONTINUOUS
 10
773.1141877436263
 20
-248.4782181950832
 30
0.0
 40
7.1966662884000003
  1
鋳鉄製 縦排水トラップ
  0
ENDBLK
  5
439
  8
0
  0
BLOCK
  8
0
  2
*U93
 70
     1
 10
0.0
 20
0.0
 30
0.0
  3
*U93
  1

  0
TEXT
  5
43B
  8
図枠
  6
CONTINUOUS
 10
781.27893350736952
 20
-269.71106087499999
 30
0.0
 40
7.1966662884000003
  1
５０ＪＴ－３－ＯＳ
  0
ENDBLK
  5
43D
  8
0
  0
BLOCK
  8
0
  2
*U94
 70
     1
 10
0.0
 20
0.0
 30
0.0
  3
*U94
  1

  0
TEXT
  5
43F
  8
図枠
  6
CONTINUOUS
 10
596.86816437506991
 20
-171.2166166287
 30
0.0
 40
5.9972220420999998
  1
5
  0
ENDBLK
  5
441
  8
0
  0
BLOCK
  8
0
  2
*U95
 70
     1
 10
0.0
 20
0.0
 30
0.0
  3
*U95
  1

  0
TEXT
  5
443
  8
図枠
  6
CONTINUOUS
 10
596.83772162358719
 20
-131.2166166287
 30
0.0
 40
5.9972220420999998
  1
9
  0
ENDBLK
  5
445
  8
0
  0
BLOCK
  8
0
  2
*U96
 70
     1
 10
0.0
 20
0.0
 30
0.0
  3
*U96
  1

  0
TEXT
  5
447
  8
図枠
  6
CONTINUOUS
 10
701.05268242135116
 20
-274.91610396551368
 30
0.0
 40
5.9972220420999998
  1
園　原
  0
ENDBLK
  5
449
  8
0
  0
BLOCK
  8
0
  2
*U97
 70
     1
 10
0.0
 20
0.0
 30
0.0
  3
*U97
  1

  0
TEXT
  5
44B
  8
ﾚｲﾔ_1
  6
CONTINUOUS
 10
430.54531353183881
 20
-201.11306669870001
 30
0.0
 40
5.9972220420999998
  1
1
  0
ENDBLK
  5
44D
  8
0
  0
BLOCK
  8
0
  2
*U98
 70
     1
 10
0.0
 20
0.0
 30
0.0
  3
*U98
  1

  0
TEXT
  5
44F
  8
ﾚｲﾔ_1
  6
CONTINUOUS
 10
430.2256646412701
 20
-82.424535888700007
 30
0.0
 40
5.9972220420999998
  1
5
  0
ENDBLK
  5
451
  8
0
  0
BLOCK
  8
0
  2
*U99
 70
     1
 10
0.0
 20
0.0
 30
0.0
  3
*U99
  1

  0
TEXT
  5
453
  8
ﾚｲﾔ_1
  6
CONTINUOUS
 10
430.1800005140459
 20
-127.82172804130001
 30
0.0
 40
5.9972220420999998
  1
4
  0
ENDBLK
  5
455
  8
0
  0
BLOCK
  8
0
  2
*D100
 70
     1
 10
0.0
 20
0.0
 30
0.0
  3
*D100
  1

  0
LINE
  5
458
  8
寸法線
 62
     0
 10
427.12958502473208
 20
9.8920940142483005
 30
0.0
 11
309.66068662764212
 21
-32.863068734134217
 31
0.0
  0
LINE
  5
459
  8
寸法線
 62
     0
 10
457.82872216020007
 20
-32.435543729100011
 30
0.0
 11
309.58530246700008
 21
-32.435543729100019
 31
0.0
  0
SOLID
  5
45A
  8
寸法線
 62
     0
 10
306.98436487042579
 20
-33.151891925588529
 30
0.0
 11
307.42485280423688
 21
-34.362123135478093
 31
0.0
 12
310.83530246700002
 22
-32.435543729100011
 32
0.0
 13
310.83530246700002
 23
-32.435543729100011
 33
0.0
  0
SOLID
  5
45B
  8
寸法線
 62
     0
 10
306.97159921610012
 20
-31.79159318728335
 30
0.0
 11
306.97159921610012
 21
-33.079494270916669
 31
0.0
 12
310.83530246700002
 22
-32.435543729100011
 32
0.0
 13
310.83530246700002
 23
-32.435543729100011
 33
0.0
  0
TEXT
  8
寸法線
  40
5.99722
  5
69F
  62
0
  72
0
  71
0
 10
338.266
 20
-35.8518
 30
0.000000
  1
340°
  0
POINT
  5
45D
  8
Defpoints
 62
     0
 10
310.83530246700002
 20
-32.435543729100011
 30
0.0
  0
POINT
  5
45E
  8
Defpoints
 62
     0
 10
427.18831581670003
 20
9.9134702644999901
 30
0.0
  0
POINT
  5
45F
  8
Defpoints
 62
     0
 10
457.89122216020002
 20
-32.435543729100011
 30
0.0
  0
POINT
  5
460
  8
Defpoints
 62
     0
 10
310.83530246700002
 20
-32.435543729100011
 30
0.0
  0
ENDBLK
  5
462
  8
0
  0
BLOCK
  8
0
  2
*U101
 70
     1
 10
0.0
 20
0.0
 30
0.0
  3
*U101
  1

  0
TEXT
  5
464
  8
ﾚｲﾔ_1
  6
CONTINUOUS
 10
430.19522188978732
 20
-13.272472971999999
 30
0.0
 40
5.9972220420999998
  1
2
  0
ENDBLK
  5
466
  8
0
  0
BLOCK
  8
0
  2
*U102
 70
     1
 10
0.0
 20
0.0
 30
0.0
  3
*U102
  1

  0
TEXT
  5
468
  8
ﾚｲﾔ_1
  6
CONTINUOUS
 10
430.1800005140459
 20
-35.922536250999997
 30
0.0
 40
5.9972220420999998
  1
7
  0
ENDBLK
  5
46A
  8
0
  0
BLOCK
  8
0
  2
*U103
 70
     1
 10
0.0
 20
0.0
 30
0.0
  3
*U103
  1

  0
TEXT
  5
46C
  8
ﾚｲﾔ_1
  6
CONTINUOUS
 10
206.7254746329873
 20
41.878750009100003
 30
0.0
 40
5.9972220420999998
  1
8
  0
ENDBLK
  5
46E
  8
0
  0
BLOCK
  8
0
  2
*U104
 70
     1
 10
0.0
 20
0.0
 30
0.0
  3
*U104
  1

  0
TEXT
  5
470
  8
ﾚｲﾔ_1
  6
CONTINUOUS
 10
430.1647791383046
 20
-56.317511815000003
 30
0.0
 40
5.9972220420999998
  1
6
  0
ENDBLK
  5
472
  8
0
  0
BLOCK
  8
0
  2
*U105
 70
     1
 10
0.0
 20
0.0
 30
0.0
  3
*U105
  1

  0
TEXT
  5
474
  8
ﾚｲﾔ_1
  6
CONTINUOUS
 10
376.43390654468732
 20
86.165756663399989
 30
0.0
 40
5.9972220420999998
  1
9
  0
ENDBLK
  5
476
  8
0
  0
ENDSEC
  0
SECTION
  2
ENTITIES
  0
INSERT
  5
2F
  8
0
  6
CONTINUOUS
  2
*U30
 10
0.0
 20
0.0
 30
0.0
  0
INSERT
  5
30
  8
0
  6
CONTINUOUS
  2
*U31
 10
0.0
 20
0.0
 30
0.0
  0
INSERT
  5
32
  8
図枠
  2
CLUMP0
 10
0.0
 20
0.0
 30
0.0
  0
INSERT
  5
3B
  8
0
  6
CONTINUOUS
  2
*U32
 10
0.0
 20
0.0
 30
0.0
  0
INSERT
  5
3C
  8
0
  6
CONTINUOUS
  2
*U33
 10
0.0
 20
0.0
 30
0.0
  0
LINE
  5
3E
  8
ﾚｲﾔ_1
 62
     5
 10
340.64230246699998
 20
-229.435559367
 30
0.0
 11
340.170390467
 21
-214.334389367
 31
0.0
  0
LINE
  5
3F
  8
ﾚｲﾔ_1
 62
     5
 10
365.83530246700002
 20
-76.635556366999992
 30
0.0
 11
366.835287467
 21
-76.635556366999992
 31
0.0
  0
LINE
  5
40
  8
ﾚｲﾔ_1
 62
     5
 10
269.03530246700001
 20
-214.428635367
 30
0.0
 11
268.43530246699999
 21
-214.428635367
 31
0.0
  0
LINE
  5
41
  8
ﾚｲﾔ_1
 62
     5
 10
267.03530246700001
 20
-214.428635367
 30
0.0
 11
269.03530246700001
 21
-214.428635367
 31
0.0
  0
DIMENSION
  5
54
  8
寸法線
  2
*D1
 10
197.02844270009999
 20
-229.435559367
 30
0.0
 11
197.02844270009999
 21
-149.435559367
 31
0.0
 70
   128
  1
<>
 13
272.43530246699999
 23
-229.435559367
 33
0.0
 14
240.83530246699999
 24
-69.435559366999996
 34
0.0
 50
90.0
  0
DIMENSION
  5
65
  8
寸法線
  2
*D2
 10
220.83530246699999
 20
-82.435559366999996
 30
0.0
 11
220.83530246699999
 21
-155.935559367
 31
0.0
 70
   128
  1
<>
 13
240.83530246699999
 23
-82.435559366999996
 33
0.0
 14
272.43530246699999
 24
-229.435559367
 34
0.0
 50
90.0
  0
CIRCLE
  5
66
  8
ﾚｲﾔ_1
 10
271.10849646700001
 20
160.3664994008
 30
0.0
 40
4.0
  0
ARC
  5
67
  8
ﾚｲﾔ_1
 10
267.83531746699998
 20
143.91111640080001
 30
0.0
 40
4.0
 50
0.0
 51
180.0
  0
CIRCLE
  5
68
  8
ﾚｲﾔ_1
 10
280.42972446700003
 20
174.31672540080001
 30
0.0
 40
4.0
  0
INSERT
  5
69
  8
0
  6
CONTINUOUS
  2
*U34
 10
0.0
 20
0.0
 30
0.0
  0
INSERT
  5
6A
  8
0
  6
CONTINUOUS
  2
*U35
 10
0.0
 20
0.0
 30
0.0
  0
INSERT
  5
6B
  8
0
  6
CONTINUOUS
  2
*U36
 10
0.0
 20
0.0
 30
0.0
  0
INSERT
  5
6C
  8
0
  6
CONTINUOUS
  2
*U37
 10
0.0
 20
0.0
 30
0.0
  0
INSERT
  5
6D
  8
0
  6
CONTINUOUS
  2
*U38
 10
0.0
 20
0.0
 30
0.0
  0
INSERT
  5
6E
  8
0
  6
CONTINUOUS
  2
*U39
 10
0.0
 20
0.0
 30
0.0
  0
INSERT
  5
70
  8
図枠
  2
CLUMP1
 10
0.0
 20
0.0
 30
0.0
  0
INSERT
  5
114
  8
0
  6
CONTINUOUS
  2
*U60
 10
0.0
 20
0.0
 30
0.0
  0
INSERT
  5
115
  8
0
  6
CONTINUOUS
  2
*U61
 10
0.0
 20
0.0
 30
0.0
  0
INSERT
  5
116
  8
0
  6
CONTINUOUS
  2
*U62
 10
0.0
 20
0.0
 30
0.0
  0
INSERT
  5
118
  8
図枠
  2
CLUMP2
 10
0.0
 20
0.0
 30
0.0
  0
INSERT
  5
121
  8
0
  6
CONTINUOUS
  2
*U63
 10
0.0
 20
0.0
 30
0.0
  0
INSERT
  5
122
  8
0
  6
CONTINUOUS
  2
*U64
 10
0.0
 20
0.0
 30
0.0
  0
INSERT
  5
123
  8
0
  6
CONTINUOUS
  2
*U65
 10
0.0
 20
0.0
 30
0.0
  0
INSERT
  5
125
  8
図枠
  2
CLUMP3
 10
0.0
 20
0.0
 30
0.0
  0
INSERT
  5
12E
  8
0
  6
CONTINUOUS
  2
*U66
 10
0.0
 20
0.0
 30
0.0
  0
INSERT
  5
12F
  8
0
  6
CONTINUOUS
  2
*U67
 10
0.0
 20
0.0
 30
0.0
  0
INSERT
  5
130
  8
0
  6
CONTINUOUS
  2
*U68
 10
0.0
 20
0.0
 30
0.0
  0
INSERT
  5
132
  8
図枠
  2
CLUMP4
 10
0.0
 20
0.0
 30
0.0
  0
INSERT
  5
13B
  8
0
  6
CONTINUOUS
  2
*U69
 10
0.0
 20
0.0
 30
0.0
  0
INSERT
  5
13C
  8
0
  6
CONTINUOUS
  2
*U70
 10
0.0
 20
0.0
 30
0.0
  0
INSERT
  5
13D
  8
0
  6
CONTINUOUS
  2
*U71
 10
0.0
 20
0.0
 30
0.0
  0
INSERT
  5
13E
  8
0
  6
CONTINUOUS
  2
*U72
 10
0.0
 20
0.0
 30
0.0
  0
INSERT
  5
140
  8
図枠
  2
CLUMP5
 10
0.0
 20
0.0
 30
0.0
  0
INSERT
  5
149
  8
0
  6
CONTINUOUS
  2
*U73
 10
0.0
 20
0.0
 30
0.0
  0
LINE
  5
14A
  8
ﾚｲﾔ_1
 10
383.3239344669999
 20
160.9110854008
 30
0.0
 11
381.83530246699991
 21
163.9110854008
 31
0.0
  0
LINE
  5
14B
  8
ﾚｲﾔ_1
 10
383.3239344669999
 20
160.9110854008
 30
0.0
 11
385.34667046700002
 21
160.9110854008
 31
0.0
  0
LINE
  5
14C
  8
ﾚｲﾔ_1
 10
381.83530246699991
 20
163.9110854008
 30
0.0
 11
386.83530246700002
 21
163.9110854008
 31
0.0
  0
ARC
  5
14D
  8
ﾚｲﾔ_1
 10
357.90672946699999
 20
143.9110854008
 30
0.0
 40
32.071429999999999
 50
141.419904
 51
179.999945
  0
LINE
  5
14E
  8
ﾚｲﾔ_1
 10
331.708914467
 20
162.41111640080001
 30
0.0
 11
310.83530246700002
 21
162.41111640080001
 31
0.0
  0
INSERT
  5
14F
  8
0
  6
CONTINUOUS
  2
*U74
 10
0.0
 20
0.0
 30
0.0
  0
INSERT
  5
150
  8
0
  6
CONTINUOUS
  2
*U75
 10
0.0
 20
0.0
 30
0.0
  0
INSERT
  5
152
  8
図枠
  2
CLUMP6
 10
0.0
 20
0.0
 30
0.0
  0
INSERT
  5
15B
  8
0
  6
CONTINUOUS
  2
*U76
 10
0.0
 20
0.0
 30
0.0
  0
INSERT
  5
15C
  8
0
  6
CONTINUOUS
  2
*U77
 10
0.0
 20
0.0
 30
0.0
  0
INSERT
  5
15D
  8
0
  6
CONTINUOUS
  2
*U78
 10
0.0
 20
0.0
 30
0.0
  0
INSERT
  5
15E
  8
0
  6
CONTINUOUS
  2
*U79
 10
0.0
 20
0.0
 30
0.0
  0
INSERT
  5
160
  8
図枠
  2
CLUMP7
 10
0.0
 20
0.0
 30
0.0
  0
INSERT
  5
169
  8
0
  6
CONTINUOUS
  2
*U80
 10
0.0
 20
0.0
 30
0.0
  0
INSERT
  5
16A
  8
0
  6
CONTINUOUS
  2
*U81
 10
0.0
 20
0.0
 30
0.0
  0
INSERT
  5
16B
  8
0
  6
CONTINUOUS
  2
*U82
 10
0.0
 20
0.0
 30
0.0
  0
INSERT
  5
16C
  8
0
  6
CONTINUOUS
  2
*U83
 10
0.0
 20
0.0
 30
0.0
  0
INSERT
  5
16E
  8
図枠
  2
CLUMP8
 10
0.0
 20
0.0
 30
0.0
  0
INSERT
  5
178
  8
図枠
  2
CLUMP9
 10
0.0
 20
0.0
 30
0.0
  0
INSERT
  5
181
  8
0
  6
CONTINUOUS
  2
*U84
 10
0.0
 20
0.0
 30
0.0
  0
INSERT
  5
182
  8
0
  6
CONTINUOUS
  2
*U85
 10
0.0
 20
0.0
 30
0.0
  0
INSERT
  5
183
  8
0
  6
CONTINUOUS
  2
*U86
 10
0.0
 20
0.0
 30
0.0
  0
INSERT
  5
184
  8
0
  6
CONTINUOUS
  2
*U87
 10
0.0
 20
0.0
 30
0.0
  0
INSERT
  5
185
  8
0
  6
CONTINUOUS
  2
*U88
 10
0.0
 20
0.0
 30
0.0
  0
INSERT
  5
186
  8
0
  6
CONTINUOUS
  2
*U89
 10
0.0
 20
0.0
 30
0.0
  0
ARC
  5
187
  8
ﾚｲﾔ_1
 10
367.83530246700002
 20
163.32929840080001
 30
0.0
 40
1.1569199999999999
 50
30.189813999999998
 51
149.81016600000001
  0
ARC
  5
188
  8
ﾚｲﾔ_1
 10
310.83530246700002
 20
143.91111640080001
 30
0.0
 40
70.0
 50
16.601523121500001
 51
180.0
  0
ARC
  5
189
  8
ﾚｲﾔ_1
 10
310.83530246700002
 20
143.91111640080001
 30
0.0
 40
52.0
 50
22.619827944499999
 51
180.0
  0
ARC
  5
18A
  8
ﾚｲﾔ_1
 62
     5
 10
328.33530246700002
 20
-122.928635367
 30
0.0
 40
1.0
 50
0.0
 51
90.0
  0
ARC
  5
18B
  8
ﾚｲﾔ_1
 62
     5
 10
328.33530246700002
 20
-122.928635367
 30
0.0
 40
1.0
 50
270.0
 51
0.0
  0
LINE
  5
18C
  8
ﾚｲﾔ_1
 62
     5
 10
328.33530246700002
 20
-123.928635367
 30
0.0
 11
310.83530246700002
 21
-123.928635367
 31
0.0
  0
ARC
  5
18D
  8
ﾚｲﾔ_1
 62
     5
 10
314.97522546699997
 20
-120.428635367
 30
0.0
 40
2.5
 50
16.699244
 51
90.0
  0
LINE
  5
18E
  8
ﾚｲﾔ_1
 62
     5
 10
310.83530246700002
 20
-121.928635367
 30
0.0
 11
328.33530246700002
 21
-121.928635367
 31
0.0
  0
INSERT
  5
18F
  8
0
  6
CONTINUOUS
  2
*U90
 10
0.0
 20
0.0
 30
0.0
  0
INSERT
  5
190
  8
0
  6
CONTINUOUS
  2
*U91
 10
0.0
 20
0.0
 30
0.0
  0
INSERT
  5
191
  8
0
  6
CONTINUOUS
  2
*U92
 10
0.0
 20
0.0
 30
0.0
  0
INSERT
  5
192
  8
0
  6
CONTINUOUS
  2
*U93
 10
0.0
 20
0.0
 30
0.0
  0
INSERT
  5
193
  8
0
  6
CONTINUOUS
  2
*U94
 10
0.0
 20
0.0
 30
0.0
  0
INSERT
  5
194
  8
0
  6
CONTINUOUS
  2
*U95
 10
0.0
 20
0.0
 30
0.0
  0
INSERT
  5
195
  8
0
  6
CONTINUOUS
  2
*U96
 10
0.0
 20
0.0
 30
0.0
  0
INSERT
  5
197
  8
寸法線
  2
BALLON0
 10
0.0
 20
0.0
 30
0.0
  0
LINE
  5
1A0
  8
ﾚｲﾔ_1
  6
BORDER
 62
     3
 10
310.83530246700002
 20
-252.9719888942
 30
0.0
 11
310.83530246700002
 21
98.987305809599974
 31
0.0
  0
LINE
  5
1A1
  8
ﾚｲﾔ_1
  6
BORDER
 62
     3
 10
310.83530246700002
 20
-288.94604505749999
 30
0.0
 11
310.83530246700002
 21
-261.80797121080002
 31
0.0
  0
ARC
  5
1A2
  8
ﾚｲﾔ_1
 10
406.90672946699988
 20
143.9110854008
 30
0.0
 40
32.071429999999999
 50
141.419904
 51
179.999945
  0
ARC
  5
1A3
  8
ﾚｲﾔ_1
 10
399.90672946699999
 20
143.9110854008
 30
0.0
 40
32.071429999999999
 50
141.419904
 51
179.999945
  0
ARC
  5
1A4
  8
ﾚｲﾔ_1
 10
361.76387646699999
 20
143.9110854008
 30
0.0
 40
29.071429999999999
 50
0.000061
 51
35.786523000000003
  0
LINE
  5
1A5
  8
ﾚｲﾔ_1
 10
386.83530246700002
 20
163.9110854008
 30
0.0
 11
385.34667046700002
 21
160.9110854008
 31
0.0
  0
ARC
  5
1A6
  8
ﾚｲﾔ_1
 10
361.76387646699999
 20
143.9110854008
 30
0.0
 40
32.071429999999999
 50
0.000055
 51
38.580092999999998
  0
LINE
  5
1A7
  8
ﾚｲﾔ_1
 10
385.03540946700002
 20
163.9110854008
 30
0.0
 11
385.03540946700002
 21
170.41111640080001
 31
0.0
  0
ARC
  5
1A8
  8
ﾚｲﾔ_1
 10
406.90672946699988
 20
143.9110854008
 30
0.0
 40
29.071429999999999
 50
144.21347499999999
 51
179.99993900000001
  0
LINE
  5
1A9
  8
ﾚｲﾔ_1
 62
     5
 10
340.83530246700002
 20
-131.928635367
 30
0.0
 11
310.83530246700002
 21
-131.928635367
 31
0.0
  0
LINE
  5
1AA
  8
ﾚｲﾔ_1
 62
     5
 10
342.83530246700002
 20
-127.928635367
 30
0.0
 11
310.83530246700002
 21
-127.928635367
 31
0.0
  0
LINE
  5
1AB
  8
ﾚｲﾔ_1
 62
     5
 10
352.63530246699997
 20
-214.428635367
 30
0.0
 11
353.235302467
 21
-214.428635367
 31
0.0
  0
ARC
  5
1AC
  8
ﾚｲﾔ_1
 62
     5
 10
349.33530246700002
 20
-177.428635367
 30
0.0
 40
1.5
 50
0.0
 51
90.0
  0
LINE
  5
1AD
  8
ﾚｲﾔ_1
 62
     5
 10
349.33530246700002
 20
-175.928635367
 30
0.0
 11
347.03344746699997
 21
-175.928635367
 31
0.0
  0
ARC
  5
1AE
  8
ﾚｲﾔ_1
 62
     5
 10
347.03344746699997
 20
-173.428635367
 30
0.0
 40
2.5
 50
187.35237900000001
 51
270.0
  0
LINE
  5
1AF
  8
ﾚｲﾔ_1
 62
     5
 10
340.64230246699998
 20
-229.435559367
 30
0.0
 11
339.115592467
 21
-227.90884936699999
 31
0.0
  0
LINE
  5
1B0
  8
ﾚｲﾔ_1
 62
     5
 10
340.83530246700002
 20
-194.928635367
 30
0.0
 11
354.83530246700002
 21
-194.928635367
 31
0.0
  0
LINE
  5
1B1
  8
ﾚｲﾔ_1
 62
     5
 10
339.516415467
 20
-144.928635367
 30
0.0
 11
339.67217746699998
 21
-144.928635367
 31
0.0
  0
ARC
  5
1B2
  8
ﾚｲﾔ_1
 62
     5
 10
342.83530246700002
 20
-139.928635367
 30
0.0
 40
12.0
 50
0.0
 51
90.0
  0
ARC
  5
1B3
  8
ﾚｲﾔ_1
 62
     5
 10
339.516415467
 20
-146.428635367
 30
0.0
 40
1.5
 50
7.3523789999999991
 51
90.0
  0
CIRCLE
  5
1B4
  8
ﾚｲﾔ_1
 10
310.83530246700002
 20
186.91111640080001
 30
0.0
 40
4.0
  0
CIRCLE
  5
1B5
  8
ﾚｲﾔ_1
 10
294.379934467
 20
183.63792240079999
 30
0.0
 40
4.0
  0
CIRCLE
  5
1B6
  8
ﾚｲﾔ_1
 10
327.290686467
 20
183.63792240079999
 30
0.0
 40
4.0
  0
ARC
  5
1B7
  8
ﾚｲﾔ_1
 10
310.83530246700002
 20
143.91111640080001
 30
0.0
 40
18.5
 50
89.999979000000025
 51
180.0
  0
CIRCLE
  5
1B8
  8
ﾚｲﾔ_1
 10
341.24089646700003
 20
174.3166944008
 30
0.0
 40
4.0
  0
ARC
  5
1B9
  8
ﾚｲﾔ_1
 10
310.83530246700002
 20
143.91111640080001
 30
0.0
 40
34.5
 50
35.430104
 51
180.0
  0
LINE
  5
1BA
  8
ﾚｲﾔ_1
 10
366.83530246700002
 20
163.9110854008
 30
0.0
 11
332.83530246700002
 21
163.9110854008
 31
0.0
  0
LINE
  5
1BB
  8
ﾚｲﾔ_1
 10
385.03540946700002
 20
137.51111640080001
 30
0.0
 11
385.03540946700002
 21
163.9110854008
 31
0.0
  0
ARC
  5
1BC
  8
ﾚｲﾔ_1
 10
397.90672946699999
 20
143.9110854008
 30
0.0
 40
32.071429999999999
 50
141.419904
 51
179.999945
  0
ARC
  5
1BD
  8
ﾚｲﾔ_1
 10
393.90672946699999
 20
143.9110854008
 30
0.0
 40
32.071429999999999
 50
141.419904
 51
179.999945
  0
ARC
  5
1BE
  8
ﾚｲﾔ_1
 10
391.90672946699999
 20
143.9110854008
 30
0.0
 40
32.071429999999999
 50
141.419904
 51
179.999945
  0
LINE
  5
1BF
  8
ﾚｲﾔ_1
 10
372.83530246700002
 20
163.9110854008
 30
0.0
 11
368.83530246700002
 21
163.9110854008
 31
0.0
  0
LINE
  5
1C0
  8
ﾚｲﾔ_1
 10
374.83530246700002
 20
163.9110854008
 30
0.0
 11
381.83530246699991
 21
163.9110854008
 31
0.0
  0
ARC
  5
1C1
  8
ﾚｲﾔ_1
 10
373.83530246700002
 20
163.32929840080001
 30
0.0
 40
1.1569199999999999
 50
30.189813999999998
 51
149.81016600000001
  0
LINE
  5
1C2
  8
ﾚｲﾔ_1
 62
     5
 10
310.83530246700002
 20
-80.028631367000003
 30
0.0
 11
346.735302467
 21
-80.028631367000003
 31
0.0
  0
LINE
  5
1C3
  8
ﾚｲﾔ_1
 10
362.08038946699997
 20
7.4997126329999988
 30
0.0
 11
375.76125146700002
 21
-30.087979366999999
 31
0.0
  0
LINE
  5
1C4
  8
ﾚｲﾔ_1
 62
     5
 10
366.95996746700001
 20
13.716051632999999
 30
0.0
 11
368.38707546699999
 21
9.7951226330000001
 31
0.0
  0
LINE
  5
1C5
  8
ﾚｲﾔ_1
 62
     5
 10
365.83530246700002
 20
-76.635556366999992
 30
0.0
 11
366.83530246700002
 21
-73.435559366999996
 31
0.0
  0
ARC
  5
1C6
  8
ﾚｲﾔ_1
 62
     5
 10
371.33528746699989
 20
-77.935559366999996
 30
0.0
 40
4.5
 50
90.0
 51
270.0
  0
LINE
  5
1C7
  8
ﾚｲﾔ_1
 62
     5
 10
367.9053024669999
 20
-93.828631367000014
 30
0.0
 11
367.9053024669999
 21
-92.328631367000014
 31
0.0
  0
LINE
  5
1C8
  8
ﾚｲﾔ_1
 62
     5
 10
346.83530246700002
 20
-74.234007367000004
 30
0.0
 11
346.83530246700002
 21
-80.028631367000003
 31
0.0
  0
LINE
  5
1C9
  8
ﾚｲﾔ_1
 62
     5
 10
346.735302467
 20
-80.028631367000003
 30
0.0
 11
346.83530246700002
 21
-80.028631367000003
 31
0.0
  0
LINE
  5
1CA
  8
ﾚｲﾔ_1
 62
     5
 10
366.835287467
 20
-82.435559366999996
 30
0.0
 11
365.83529746699998
 21
-83.435549366999993
 31
0.0
  0
LINE
  5
1CB
  8
ﾚｲﾔ_1
 62
     5
 10
363.83530246700002
 20
-89.338772367000004
 30
0.0
 11
363.83530246700002
 21
-92.328631367000014
 31
0.0
  0
LINE
  5
1CC
  8
ﾚｲﾔ_1
 62
     5
 10
364.83529046699999
 20
-93.828631367000014
 30
0.0
 11
367.9053024669999
 21
-93.828631367000014
 31
0.0
  0
LINE
  5
1CD
  8
ﾚｲﾔ_1
 62
     5
 10
318.63530246699997
 20
-123.928635367
 30
0.0
 11
319.30081346700001
 21
-126.14700536700001
 31
0.0
  0
ARC
  5
1CE
  8
ﾚｲﾔ_1
 62
     5
 10
321.69537946700001
 20
-125.428635367
 30
0.0
 40
2.5
 50
196.69924399999999
 51
270.0
  0
LINE
  5
1CF
  8
ﾚｲﾔ_1
 62
     5
 10
310.83530246700002
 20
-117.928635367
 30
0.0
 11
314.97522546699997
 21
-117.928635367
 31
0.0
  0
ARC
  5
1D0
  8
ﾚｲﾔ_1
 62
     5
 10
310.83530246700002
 20
-122.928635367
 30
0.0
 40
2.0
 50
30.0
 51
90.0
  0
LINE
  5
1D1
  8
ﾚｲﾔ_1
 62
     5
 10
367.33530246700002
 20
-93.828631367000014
 30
0.0
 11
367.33530246700002
 21
-205.428635367
 31
0.0
  0
INSERT
  5
1D3
  8
ﾚｲﾔ_1
  2
CLUMP10
 10
0.0
 20
0.0
 30
0.0
  0
DIMENSION
  5
217
  8
寸法線
  2
*D14
 10
340.64230246699998
 20
-261.80797121080002
 30
0.0
 11
310.83530246700002
 21
-261.80797121080002
 31
0.0
 70
   128
  1
Ｒｃ２
 13
340.64230246699998
 23
-229.435559367
 33
0.0
 14
281.028302467
 24
-229.435559367
 34
0.0
 50
180.0
  0
LINE
  5
218
  8
ﾚｲﾔ_1
 62
     5
 10
335.83530246700002
 20
-147.428635367
 30
0.0
 11
335.83530246700002
 21
-207.428635367
 31
0.0
  0
ARC
  5
219
  8
ﾚｲﾔ_1
 62
     5
 10
342.83530246700002
 20
-207.428635367
 30
0.0
 40
7.0
 50
180.0
 51
208.12706800000001
  0
LINE
  5
21A
  8
ﾚｲﾔ_1
 62
     5
 10
339.115592467
 20
-227.90884936699999
 30
0.0
 11
338.69433646700003
 21
-214.428635367
 31
0.0
  0
LINE
  5
21B
  8
ﾚｲﾔ_1
 62
     5
 10
339.53530246700001
 20
-214.428635367
 30
0.0
 11
310.83530246700002
 21
-214.428635367
 31
0.0
  0
LINE
  5
21C
  8
ﾚｲﾔ_1
 62
     5
 10
310.83530246700002
 20
-210.72863536700001
 30
0.0
 11
339.63530246699997
 21
-210.72863536700001
 31
0.0
  0
LINE
  5
21D
  8
ﾚｲﾔ_1
 62
     5
 10
339.115592467
 20
-227.90884936699999
 30
0.0
 11
310.83530246700002
 21
-227.90884936699999
 31
0.0
  0
LINE
  5
21E
  8
ﾚｲﾔ_1
 62
     5
 10
335.43518946699999
 20
-143.60057136699999
 30
0.0
 11
334.24166546700002
 21
-133.25669936700001
 31
0.0
  0
LINE
  5
21F
  8
ﾚｲﾔ_1
 62
     5
 10
363.33530246700002
 20
-209.428635367
 30
0.0
 11
344.33530246699991
 21
-209.428635367
 31
0.0
  0
LINE
  5
220
  8
ﾚｲﾔ_1
 62
     5
 10
360.23787546699998
 20
-72.635556366999992
 30
0.0
 11
360.23787546699998
 21
-77.838284367
 31
0.0
  0
LINE
  5
221
  8
ﾚｲﾔ_1
 62
     5
 10
360.23787546699998
 20
-77.838284367
 30
0.0
 11
362.64183646700002
 21
-77.838284367
 31
0.0
  0
LINE
  5
222
  8
ﾚｲﾔ_1
 62
     5
 10
362.64183646700002
 20
-77.838284367
 30
0.0
 11
362.64183646700002
 21
-80.636456366999994
 31
0.0
  0
LINE
  5
223
  8
ﾚｲﾔ_1
 62
     5
 10
361.83530246700002
 20
-76.635556366999992
 30
0.0
 11
363.83530246700002
 21
-76.635556366999992
 31
0.0
  0
LINE
  5
224
  8
ﾚｲﾔ_1
 62
     5
 10
363.83530246700002
 20
-89.338772367000004
 30
0.0
 11
363.83530246700002
 21
-76.635556366999992
 31
0.0
  0
LINE
  5
225
  8
ﾚｲﾔ_1
 62
     5
 10
380.83530246700002
 20
-71.435559366999996
 30
0.0
 11
366.83530246700002
 21
-71.435559366999996
 31
0.0
  0
LINE
  5
226
  8
ﾚｲﾔ_1
 62
     5
 10
366.83530246700002
 20
-73.435559366999996
 30
0.0
 11
380.83530246700002
 21
-73.435559366999996
 31
0.0
  0
LINE
  5
227
  8
ﾚｲﾔ_1
 62
     5
 10
366.83530246700002
 20
-82.435559366999996
 30
0.0
 11
380.83530246700002
 21
-82.435559366999996
 31
0.0
  0
LINE
  5
228
  8
ﾚｲﾔ_1
 62
     5
 10
346.23531146699997
 20
-69.447385366999995
 30
0.0
 11
346.23531146699997
 21
-71.447537366999995
 31
0.0
  0
LINE
  5
229
  8
ﾚｲﾔ_1
 62
     5
 10
346.23531146699997
 20
-71.447537366999995
 30
0.0
 11
341.23666946700001
 21
-71.447537366999995
 31
0.0
  0
LINE
  5
22A
  8
ﾚｲﾔ_1
 62
     5
 10
341.23666946700001
 20
-71.447537366999995
 30
0.0
 11
341.23666946700001
 21
-75.450879366999985
 31
0.0
  0
ARC
  5
22B
  8
ﾚｲﾔ_1
 62
     5
 10
340.83530246700002
 20
-141.928635367
 30
0.0
 40
10.0
 50
0.0
 51
90.0
  0
LINE
  5
22C
  8
ﾚｲﾔ_1
 62
     5
 10
310.83530246700002
 20
-79.435559366999996
 30
0.0
 11
250.8353024859
 21
-79.435559366999996
 31
0.0
  0
LINE
  5
22D
  8
ﾚｲﾔ_1
 62
     5
 10
310.83530246700002
 20
-76.435559366999996
 30
0.0
 11
250.83530250609999
 21
-76.435559366999996
 31
0.0
  0
ARC
  5
22E
  8
ﾚｲﾔ_1
 62
     5
 10
338.33530246700002
 20
-147.428635367
 30
0.0
 40
2.5
 50
0.0
 51
180.0
  0
LINE
  5
22F
  8
ﾚｲﾔ_1
 62
     5
 10
339.67217746699998
 20
-144.928635367
 30
0.0
 11
310.83530246700002
 21
-144.928635367
 31
0.0
  0
ARC
  5
230
  8
ﾚｲﾔ_1
 62
     5
 10
332.75155146700001
 20
-133.428635367
 30
0.0
 40
1.5
 50
6.5819449999999993
 51
90.0
  0
ARC
  5
231
  8
ﾚｲﾔ_1
 62
     5
 10
336.92530246699999
 20
-143.428635367
 30
0.0
 40
1.5
 50
186.58194499999999
 51
270.0
  0
LINE
  5
232
  8
ﾚｲﾔ_1
 62
     5
 10
326.83530246700002
 20
-43.638837367000001
 30
0.0
 11
391.307638467
 21
-20.172833366999999
 31
0.0
  0
LINE
  5
233
  8
ﾚｲﾔ_1
  6
BORDER
 62
     3
 10
310.83530246700002
 20
-32.435543729099997
 30
0.0
 11
391.38602646700002
 21
-3.1174913669999991
 31
0.0
  0
LINE
  5
234
  8
ﾚｲﾔ_1
  6
BORDER
 62
     3
 10
310.93530246699999
 20
-32.435543729099997
 30
0.0
 11
367.9053024669999
 21
-32.435543729099997
 31
0.0
  0
LINE
  5
235
  8
ﾚｲﾔ_1
 10
335.0919766774
 20
-23.606840406300002
 30
0.0
 11
328.59356692099999
 21
-5.7526894663999988
 31
0.0
  0
LINE
  5
236
  8
ﾚｲﾔ_1
 62
     5
 10
310.93530246699999
 20
-92.328631367000014
 30
0.0
 11
367.9053024669999
 21
-92.328631367000014
 31
0.0
  0
LINE
  5
237
  8
ﾚｲﾔ_1
 62
     5
 10
310.93530246699999
 20
-93.828631367000014
 30
0.0
 11
364.83529046699999
 21
-93.828631367000014
 31
0.0
  0
LINE
  5
238
  8
ﾚｲﾔ_1
 62
     5
 10
361.91036046699998
 20
11.864886632999999
 30
0.0
 11
363.3332124669999
 21
7.9556756329999994
 31
0.0
  0
ARC
  5
239
  8
ﾚｲﾔ_1
 62
     5
 10
362.83200846699998
 20
17.163556632999999
 30
0.0
 40
5.3782290000000001
 50
320.13272699999999
 51
260.13272699999999
  0
LINE
  5
23A
  8
ﾚｲﾔ_1
 10
368.65826946700003
 20
9.8938166330000001
 30
0.0
 11
382.33910146699998
 21
-27.693829366999999
 31
0.0
  0
LINE
  5
23B
  8
ﾚｲﾔ_1
 10
363.02010146700002
 20
7.8416926329999992
 30
0.0
 11
376.70093346700003
 21
-29.745953366999998
 31
0.0
  0
LINE
  5
23C
  8
ﾚｲﾔ_1
 10
369.59795146699997
 20
10.235857633
 30
0.0
 11
383.27879946699989
 21
-27.351819367000001
 31
0.0
  0
LINE
  5
23D
  8
ﾚｲﾔ_1
 62
     5
 10
366.83530246700002
 20
-82.435559366999996
 30
0.0
 11
380.83530246700002
 21
-82.435559366999996
 31
0.0
  0
LINE
  5
23E
  8
ﾚｲﾔ_1
 62
     5
 10
362.64183646700002
 20
-80.636456366999994
 30
0.0
 11
358.243948467
 21
-80.636456366999994
 31
0.0
  0
LINE
  5
23F
  8
ﾚｲﾔ_1
 62
     5
 10
358.243948467
 20
-80.636456366999994
 30
0.0
 11
356.03774146699999
 21
-72.635556366999992
 31
0.0
  0
LINE
  5
240
  8
ﾚｲﾔ_1
 62
     5
 10
362.83530246699991
 20
-72.635556366999992
 30
0.0
 11
362.83530246699991
 21
-69.435559366999996
 31
0.0
  0
LINE
  5
241
  8
ﾚｲﾔ_1
 62
     5
 10
361.83530246700002
 20
-72.635556366999992
 30
0.0
 11
361.83530246700002
 21
-76.635556366999992
 31
0.0
  0
LINE
  5
242
  8
ﾚｲﾔ_1
 62
     5
 10
348.11760546699998
 20
-72.635556366999992
 30
0.0
 11
362.83530246699991
 21
-72.635556366999992
 31
0.0
  0
LINE
  5
243
  8
ﾚｲﾔ_1
 62
     5
 10
358.243948467
 20
-80.636456366999994
 30
0.0
 11
356.03774146699999
 21
-72.635556366999992
 31
0.0
  0
LINE
  5
244
  8
ﾚｲﾔ_1
 62
     5
 10
358.243948467
 20
-80.636456366999994
 30
0.0
 11
356.03774146699999
 21
-72.635556366999992
 31
0.0
  0
INSERT
  5
246
  8
寸法線
  2
BALLON1
 10
0.0
 20
0.0
 30
0.0
  0
LINE
  5
24F
  8
ﾚｲﾔ_1
 62
     5
 10
365.83530346700002
 20
-76.635556366999992
 30
0.0
 11
365.83529046699999
 21
-92.328631367000014
 31
0.0
  0
ARC
  5
250
  8
ﾚｲﾔ_1
 62
     5
 10
310.83530246700002
 20
-122.928635367
 30
0.0
 40
2.0
 50
270.0
 51
330.0
  0
LINE
  5
251
  8
ﾚｲﾔ_1
 62
     5
 10
317.36979146700003
 20
-119.71026536700001
 30
0.0
 11
318.03530246700001
 21
-121.928635367
 31
0.0
  0
LINE
  5
252
  8
ﾚｲﾔ_1
 62
     5
 10
340.83530246700002
 20
-147.428635367
 30
0.0
 11
340.83530246700002
 21
-205.928635367
 31
0.0
  0
LINE
  5
253
  8
ﾚｲﾔ_1
 62
     5
 10
350.83530246700002
 20
-194.928635367
 30
0.0
 11
350.83530246700002
 21
-141.928635367
 31
0.0
  0
LINE
  5
254
  8
ﾚｲﾔ_1
 62
     5
 10
354.83530246700002
 20
-194.928635367
 30
0.0
 11
354.83530246700002
 21
-139.928635367
 31
0.0
  0
LINE
  5
255
  8
ﾚｲﾔ_1
 62
     5
 10
341.00408246699999
 20
-146.236678367
 30
0.0
 11
344.55400246699998
 21
-173.748563367
 31
0.0
  0
ARC
  5
256
  8
ﾚｲﾔ_1
 62
     5
 10
344.33530246699991
 20
-205.928635367
 30
0.0
 40
3.5
 50
180.0
 51
270.0
  0
ARC
  5
257
  8
ﾚｲﾔ_1
 62
     5
 10
363.33530246700002
 20
-205.428635367
 30
0.0
 40
4.0
 50
270.0
 51
360.0
  0
ARC
  5
258
  8
ﾚｲﾔ_1
 62
     5
 10
339.58530246700002
 20
-212.578635367
 30
0.0
 40
1.8506759999999991
 50
268.451842
 51
88.451841999999999
  0
LINE
  5
259
  8
ﾚｲﾔ_1
 62
     5
 10
354.63530246699997
 20
-214.428635367
 30
0.0
 11
352.63530246699997
 21
-214.428635367
 31
0.0
  0
DIMENSION
  5
26A
  8
寸法線
  2
*D16
 10
399.15684995509997
 20
16.7377325866
 30
0.0
 11
404.62917075789989
 21
1.7026501114999999
 31
0.0
 70
   129
  1
%%c<>
 13
380.36299686130002
 23
9.8973315829999997
 33
0.0
 14
391.307638467
 24
-20.172833366999999
 34
0.0
  0
DIMENSION
  5
27B
  8
寸法線
  2
*D17
 10
421.20582112850002
 20
29.019652425899999
 30
0.0
 11
427.5829696678
 21
11.4986619022
 31
0.0
 70
   129
  1
%%c<>
 13
378.99487846699998
 23
13.656054633
 33
0.0
 14
392.67572646699989
 24
-23.931592367
 34
0.0
  0
DIMENSION
  5
28C
  8
寸法線
  2
*D18
 10
282.46717356070002
 20
-194.928635367
 30
0.0
 11
282.46717356070002
 21
-169.928635367
 31
0.0
 70
   128
  1
封水 <>
 13
340.83530246700002
 23
-194.928635367
 33
0.0
 14
310.83530246700002
 24
-144.928635367
 34
0.0
 50
90.0
  0
DIMENSION
  5
29D
  8
寸法線
  2
*D19
 10
197.02844270009999
 20
-69.435559366999996
 30
0.0
 11
197.02844270009999
 21
-50.935551548100001
 31
0.0
 70
   128
  1
<>
 13
240.83530246699999
 23
-69.435559366999996
 33
0.0
 14
310.93530246699999
 24
-32.435543729099997
 34
0.0
 50
90.0
  0
DIMENSION
  5
2AE
  8
寸法線
  2
*D20
 10
362.83530246699991
 20
124.7841808096
 30
0.0
 11
310.83530246700002
 21
124.7841808096
 31
0.0
 70
   128
  1
%%c<>
 13
362.83530246699991
 23
143.91111640080001
 33
0.0
 14
258.83530246700002
 24
143.91111640080001
 34
0.0
  0
DIMENSION
  5
2BF
  8
寸法線
  2
*D21
 10
310.83530246700002
 20
34.025085383400011
 30
0.0
 11
348.33530096700002
 21
34.025085383400011
 31
0.0
 70
   128
  1
<>
 13
310.83530246700002
 23
-13.0958463059
 33
0.0
 14
385.83529946700003
 24
-5.1377598669999989
 34
0.0
 50
180.0
  0
DIMENSION
  5
2D0
  8
寸法線
  2
*D22
 10
380.83530246700002
 20
98.987305809599974
 30
0.0
 11
310.83530246700002
 21
98.987305809599974
 31
0.0
 70
   128
  1
%%c<>
 13
380.83530246700002
 23
143.91111640080001
 33
0.0
 14
240.83530246699999
 24
143.91111640080001
 34
0.0
  0
INSERT
  5
2D2
  8
寸法線
  2
BALLON2
 10
0.0
 20
0.0
 30
0.0
  0
DIMENSION
  5
2E8
  8
寸法線
  2
*D100
 10
310.83530246700002
 20
-32.435543729100011
 30
0.0
 11
350.2605218618001
 21
-25.236730681899999
 31
0.0
 70
   133
  1
<>
 13
457.8912221601999
 23
-32.435543729099997
 33
0.0
 14
427.18831581669991
 24
9.9134702645000008
 34
0.0
 15
310.83530246700002
 25
-32.435543729099997
 35
0.0
1001
ACAD
1000
DSTYLE
1002
{
1070
   271
1070
     0
1002
}
  0
INSERT
  5
2EA
  8
寸法線
  2
BALLON3
 10
0.0
 20
0.0
 30
0.0
  0
INSERT
  5
2F4
  8
寸法線
  2
BALLON4
 10
0.0
 20
0.0
 30
0.0
  0
INSERT
  5
2FE
  8
寸法線
  2
BALLON5
 10
0.0
 20
0.0
 30
0.0
  0
INSERT
  5
308
  8
寸法線
  2
BALLON6
 10
0.0
 20
0.0
 30
0.0
  0
INSERT
  5
312
  8
寸法線
  2
BALLON7
 10
0.0
 20
0.0
 30
0.0
  0
LINE
  5
31B
  8
ﾚｲﾔ_1
  6
BORDER
 62
     3
 10
310.83530246700002
 20
110.25
 30
0.0
 11
310.83530246700002
 21
124.7841808096
 31
0.0
  0
LINE
  5
31C
  8
ﾚｲﾔ_1
  6
BORDER
 62
     3
 10
310.83530246700002
 20
135.67067496050001
 30
0.0
 11
310.83530246700002
 21
244.07485046490001
 31
0.0
  0
ARC
  5
31D
  8
ﾚｲﾔ_1
 62
     5
 10
342.93883346699999
 20
-69.794629366999999
 30
0.0
 40
5.906822
 50
253.251698
 51
331.25210900000002
  0
LINE
  5
31E
  8
ﾚｲﾔ_1
 62
     5
 10
358.243948467
 20
-80.636456366999994
 30
0.0
 11
356.03774146699999
 21
-72.635556366999992
 31
0.0
  0
LINE
  5
31F
  8
ﾚｲﾔ_1
 62
     5
 10
366.835287467
 20
-71.435559366999996
 30
0.0
 11
366.835287467
 21
-92.328631367000014
 31
0.0
  0
LINE
  5
320
  8
ﾚｲﾔ_1
 62
     5
 10
310.83530246700002
 20
-69.435559366999996
 30
0.0
 11
291.83530246700002
 21
-69.435559366999996
 31
0.0
  0
LINE
  5
321
  8
ﾚｲﾔ_1
 62
     5
 10
240.83530246699999
 20
-71.435559366999996
 30
0.0
 11
310.83530246700002
 21
-71.435559366999996
 31
0.0
  0
LINE
  5
322
  8
ﾚｲﾔ_1
 62
     5
 10
310.83530246700002
 20
-73.435559366999996
 30
0.0
 11
240.83530246699999
 21
-73.435559366999996
 31
0.0
  0
LINE
  5
323
  8
ﾚｲﾔ_1
 62
     5
 10
240.83530246699999
 20
-82.435559366999996
 30
0.0
 11
310.83530246700002
 21
-82.435559366999996
 31
0.0
  0
LINE
  5
324
  8
ﾚｲﾔ_1
 62
     5
 10
310.83530246700002
 20
-88.928631366999994
 30
0.0
 11
246.3353026172
 21
-88.928631366999994
 31
0.0
  0
LINE
  5
325
  8
ﾚｲﾔ_1
 62
     5
 10
326.83530246700002
 20
-80.028631367000003
 30
0.0
 11
326.83530246700002
 21
-43.638837367000001
 31
0.0
  0
ENDSEC
  0
EOF
