  0
SECTION
  2
HEADER
  9
$ACADVER
  1
AC1009
  9
$INSBASE
 10
0.0
 20
0.0
 30
0.0
  9
$EXTMIN
 10
-237.9339999748
 20
-515.69100003999995
 30
0.0
  9
$EXTMAX
 10
991.94600002519996
 20
349.68899995999999
 30
0.0
  9
$LIMMIN
 10
0.0
 20
0.0
  9
$LIMMAX
 10
0.0
 20
0.0
  9
$ORTHOMODE
 70
     0
  9
$REGENMODE
 70
     1
  9
$FILLMODE
 70
     1
  9
$QTEXTMODE
 70
     0
  9
$MIRRTEXT
 70
     1
  9
$DRAGMODE
 70
     2
  9
$LTSCALE
 40
1.0
  9
$OSMODE
 70
    31
  9
$ATTMODE
 70
     1
  9
$TEXTSIZE
 40
0.0
  9
$TRACEWID
 40
0.05
  9
$TEXTSTYLE
  7
STANDARD
  9
$CLAYER
  8
0
  9
$CELTYPE
  6
CONTINUOUS
  9
$CECOLOR
 62
   256
  9
$DIMSCALE
 40
1.0
  9
$DIMASZ
 40
0.18
  9
$DIMEXO
 40
0.0625
  9
$DIMDLI
 40
0.38
  9
$DIMRND
 40
0.0
  9
$DIMDLE
 40
0.0
  9
$DIMEXE
 40
0.18
  9
$DIMTP
 40
0.0
  9
$DIMTM
 40
0.0
  9
$DIMTXT
 40
0.18
  9
$DIMCEN
 40
0.09
  9
$DIMTSZ
 40
0.0
  9
$DIMTOL
 70
     0
  9
$DIMLIM
 70
     0
  9
$DIMTIH
 70
     1
  9
$DIMTOH
 70
     1
  9
$DIMSE1
 70
     0
  9
$DIMSE2
 70
     0
  9
$DIMTAD
 70
     0
  9
$DIMZIN
 70
     0
  9
$DIMBLK
  1

  9
$DIMASO
 70
     1
  9
$DIMSHO
 70
     1
  9
$DIMPOST
  1

  9
$DIMAPOST
  1

  9
$DIMALT
 70
     0
  9
$DIMALTD
 70
     2
  9
$DIMALTF
 40
25.399999999999999
  9
$DIMLFAC
 40
1.0
  9
$DIMTOFL
 70
     0
  9
$DIMTVP
 40
0.0
  9
$DIMTIX
 70
     0
  9
$DIMSOXD
 70
     0
  9
$DIMSAH
 70
     0
  9
$DIMBLK1
  1

  9
$DIMBLK2
  1

  9
$DIMSTYLE
  2
STANDARD
  9
$DIMCLRD
 70
     0
  9
$DIMCLRE
 70
     0
  9
$DIMCLRT
 70
     0
  9
$DIMTFAC
 40
1.0
  9
$DIMGAP
 40
0.09
  9
$LUNITS
 70
     2
  9
$LUPREC
 70
     4
  9
$SKETCHINC
 40
0.1
  9
$FILLETRAD
 40
0.0
  9
$AUNITS
 70
     0
  9
$AUPREC
 70
     0
  9
$MENU
  1
acad
  9
$ELEVATION
 40
0.0
  9
$PELEVATION
 40
0.0
  9
$THICKNESS
 40
0.0
  9
$LIMCHECK
 70
     0
  9
$BLIPMODE
 70
     0
  9
$CHAMFERA
 40
0.0
  9
$CHAMFERB
 40
0.0
  9
$SKPOLY
 70
     0
  9
$TDCREATE
 40
2454859.7989380788
  9
$TDUPDATE
 40
2454859.7991100582
  9
$TDINDWG
 40
0.0001895255
  9
$TDUSRTIMER
 40
0.0001891667
  9
$USRTIMER
 70
     1
  9
$ANGBASE
 50
0.0
  9
$ANGDIR
 70
     0
  9
$PDMODE
 70
     3
  9
$PDSIZE
 40
-1.0
  9
$PLINEWID
 40
0.0
  9
$COORDS
 70
     2
  9
$SPLFRAME
 70
     0
  9
$SPLINETYPE
 70
     6
  9
$SPLINESEGS
 70
     8
  9
$ATTDIA
 70
     0
  9
$ATTREQ
 70
     1
  9
$HANDLING
 70
     1
  9
$HANDSEED
  5
ADD
  9
$SURFTAB1
 70
     6
  9
$SURFTAB2
 70
     6
  9
$SURFTYPE
 70
     6
  9
$SURFU
 70
     6
  9
$SURFV
 70
     6
  9
$UCSNAME
  2

  9
$UCSORG
 10
0.0
 20
0.0
 30
0.0
  9
$UCSXDIR
 10
1.0
 20
0.0
 30
0.0
  9
$UCSYDIR
 10
0.0
 20
1.0
 30
0.0
  9
$PUCSNAME
  2

  9
$PUCSORG
 10
0.0
 20
0.0
 30
0.0
  9
$PUCSXDIR
 10
1.0
 20
0.0
 30
0.0
  9
$PUCSYDIR
 10
0.0
 20
1.0
 30
0.0
  9
$USERI1
 70
     0
  9
$USERI2
 70
     0
  9
$USERI3
 70
     0
  9
$USERI4
 70
     0
  9
$USERI5
 70
     0
  9
$USERR1
 40
0.0
  9
$USERR2
 40
0.0
  9
$USERR3
 40
0.0
  9
$USERR4
 40
0.0
  9
$USERR5
 40
0.0
  9
$WORLDVIEW
 70
     1
  9
$SHADEDGE
 70
     3
  9
$SHADEDIF
 70
    70
  9
$TILEMODE
 70
     1
  9
$MAXACTVP
 70
    16
  9
$PLIMCHECK
 70
     0
  9
$PEXTMIN
 10
1.0000000000000000E+020
 20
1.0000000000000000E+020
 30
1.0000000000000000E+020
  9
$PEXTMAX
 10
-1.0000000000000000E+020
 20
-1.0000000000000000E+020
 30
-1.0000000000000000E+020
  9
$PLIMMIN
 10
0.0
 20
0.0
  9
$PLIMMAX
 10
12.0
 20
9.0
  9
$UNITMODE
 70
     0
  9
$VISRETAIN
 70
     0
  9
$PLINEGEN
 70
     1
  9
$PSLTSCALE
 70
     0
  0
ENDSEC
  0
SECTION
  2
TABLES
  0
TABLE
  2
VPORT
 70
     2
  0
VPORT
  2
*ACTIVE
 70
     0
 10
0.0
 20
0.0
 11
1.0
 21
1.0
 12
377.00600002520002
 22
-83.001000039999994
 13
0.0
 23
0.0
 14
1.0
 24
1.0
 15
0.0
 25
0.0
 16
0.0
 26
0.0
 36
1.0
 17
0.0
 27
0.0
 37
0.0
 40
872.56157676348539
 41
1.6343490304709141
 42
50.0
 43
0.0
 44
0.0
 50
0.0
 51
0.0
 71
     0
 72
   100
 73
     1
 74
     1
 75
     0
 76
     0
 77
     0
 78
     0
  0
ENDTAB
  0
TABLE
  2
LTYPE
 70
    11
  0
LTYPE
  2
CONTINUOUS
 70
     0
  3
Solid line
 72
    65
 73
     0
 40
0.0
  0
LTYPE
  2
DOT
 70
     0
  3
. . . . . . . . 
 72
    65
 73
     2
 40
1.0
 49
0.0
 49
-1.0
  0
LTYPE
  2
DASHED
 70
     0
  3
___  ___  ___  ___  
 72
    65
 73
     2
 40
4.0
 49
3.0
 49
-1.0
  0
LTYPE
  2
HIDDEN
 70
     0
  3
__ __ __ __ 
 72
    65
 73
     2
 40
3.0
 49
2.0
 49
-1.0
  0
LTYPE
  2
STITCH
 70
     0
  3
_ _ _ _ 
 72
    65
 73
     2
 40
2.0
 49
1.0
 49
-1.0
  0
LTYPE
  2
CENTER
 70
     0
  3
______  __  ______  __  
 72
    65
 73
     4
 40
43.0
 49
40.0
 49
-1.0
 49
1.0
 49
-1.0
  0
LTYPE
  2
DASHDOT
 70
     0
  3
____ . ____ . 
 72
    65
 73
     4
 40
32.0
 49
30.0
 49
-1.0
 49
0.0
 49
-1.0
  0
LTYPE
  2
BORDER
 70
     0
  3
__ . __ . 
 72
    65
 73
     4
 40
22.0
 49
20.0
 49
-1.0
 49
0.0
 49
-1.0
  0
LTYPE
  2
CUTTING
 70
     0
  3
________   ___   ___   
 72
    65
 73
     6
 40
45.0
 49
40.0
 49
-1.0
 49
1.0
 49
-1.0
 49
1.0
 49
-1.0
  0
LTYPE
  2
PHANTOM
 70
     0
  3
______  __  __  
 72
    65
 73
     6
 40
35.0
 49
30.0
 49
-1.0
 49
1.0
 49
-1.0
 49
1.0
 49
-1.0
  0
LTYPE
  2
DIVIDE
 70
     0
  3
____ . . ____ . . 
 72
    65
 73
     6
 40
23.0
 49
20.0
 49
-1.0
 49
0.0
 49
-1.0
 49
0.0
 49
-1.0
  0
ENDTAB
  0
TABLE
  2
LAYER
 70
     5
  0
LAYER
  2
0
 70
     0
 62
     7
  6
CONTINUOUS
  0
LAYER
  2
┌▓È_1
 70
     0
 62
     7
  6
CONTINUOUS
  0
LAYER
  2
Éíû@É³
 70
     0
 62
     7
  6
CONTINUOUS
  0
LAYER
  2
É}ÿg
 70
     0
 62
     7
  6
CONTINUOUS
  0
LAYER
  2
ë³Æ¨
 70
     0
 62
     7
  6
CONTINUOUS
  0
ENDTAB
  0
TABLE
  2
STYLE
 70
     1
  0
STYLE
  2
STANDARD
 70
     0
 40
0.0
 41
1.0
 50
0.0
 71
     0
 42
0.0
  3
txt
  4
extfont
  0
ENDTAB
  0
TABLE
  2
VIEW
 70
     0
  0
ENDTAB
  0
TABLE
  2
UCS
 70
     0
  0
ENDTAB
  0
TABLE
  2
APPID
 70
     2
  0
APPID
  2
ACAD
 70
     0
  0
APPID
  2
DCO15
 70
     0
  0
ENDTAB
  0
TABLE
  2
DIMSTYLE
 70
     3
  0
DIMSTYLE
  2
STANDARD
 70
     0
  3

  4

  5

  6

  7

 40
1.0
 41
0.18
 42
0.0625
 43
0.38
 44
0.18
 45
0.0
 46
0.0
 47
0.0
 48
0.0
140
0.18
141
0.09
142
0.0
143
25.399999999999999
144
1.0
145
0.0
146
1.0
147
0.09
 71
     0
 72
     0
 73
     1
 74
     1
 75
     0
 76
     0
 77
     0
 78
     0
170
     0
171
     2
172
     0
173
     0
174
     0
175
     0
176
     0
177
     0
178
     0
  0
DIMSTYLE
  2
VELDIM0
 70
     0
  3

  4

  5

  6

  7

 40
1.0
 41
9.0
 42
0.0625
 43
0.38
 44
2.0
 45
0.0
 46
5.0
 47
0.0
 48
0.0
140
9.8954164504999991
141
0.09
142
0.0
143
25.399999999999999
144
1.0
145
0.0
146
1.0
147
0.09
 71
     0
 72
     0
 73
     0
 74
     0
 75
     0
 76
     0
 77
     0
 78
     8
170
     0
171
     2
172
     0
173
     0
174
     0
175
     0
176
     0
177
     0
178
     0
  0
DIMSTYLE
  2
VELDIM1
 70
     0
  3

  4

  5

  6

  7

 40
1.0
 41
9.0
 42
0.0625
 43
0.38
 44
1.25
 45
0.0
 46
5.0
 47
0.0
 48
0.0
140
9.8954164504999991
141
0.09
142
0.0
143
25.399999999999999
144
1.0
145
0.0
146
1.0
147
0.09
 71
     0
 72
     0
 73
     0
 74
     0
 75
     0
 76
     0
 77
     0
 78
     8
170
     0
171
     2
172
     0
173
     0
174
     0
175
     0
176
     0
177
     0
178
     0
  0
ENDTAB
  0
ENDSEC
  0
SECTION
  2
BLOCKS
  0
BLOCK
  8
0
  2
$MODEL_SPACE
 70
     0
 10
0.0
 20
0.0
 30
0.0
  3
$MODEL_SPACE
  1

  0
ENDBLK
  5
E
  8
0
  0
BLOCK
 67
     1
  8
0
  2
$PAPER_SPACE
 70
     0
 10
0.0
 20
0.0
 30
0.0
  3
$PAPER_SPACE
  1

  0
ENDBLK
  5
10
 67
     1
  8
0
  0
BLOCK
  8
0
  2
CLUMP0
 70
     0
 10
0.0
 20
0.0
 30
0.0
  3
CLUMP0
  1

  0
INSERT
  5
33
  8
┌▓È_1
  2
CLUMP1
 10
0.0
 20
0.0
 30
0.0
  0
INSERT
  5
3B
  8
┌▓È_1
  2
CLUMP2
 10
0.0
 20
0.0
 30
0.0
  0
INSERT
  5
43
  8
┌▓È_1
  2
CLUMP3
 10
0.0
 20
0.0
 30
0.0
  0
INSERT
  5
4B
  8
┌▓È_1
  2
CLUMP4
 10
0.0
 20
0.0
 30
0.0
  0
ENDBLK
  5
52
  8
0
  0
BLOCK
  8
0
  2
CLUMP1
 70
     0
 10
0.0
 20
0.0
 30
0.0
  3
CLUMP1
  1

  0
ARC
  5
35
  8
┌▓È_1
 10
251.1271871367
 20
90.464366721800005
 30
0.0
 40
3.5
 50
90.0
 51
270.0
  0
LINE
  5
36
  8
┌▓È_1
 10
266.1271871367
 20
86.964366721800005
 30
0.0
 11
251.1271871367
 21
86.964366721800005
 31
0.0
  0
ARC
  5
37
  8
┌▓È_1
 10
266.1271871367
 20
90.464366721800005
 30
0.0
 40
3.5
 50
270.0
 51
90.0
  0
LINE
  5
38
  8
┌▓È_1
 10
251.1271871367
 20
93.964366721800005
 30
0.0
 11
266.1271871367
 21
93.964366721800005
 31
0.0
  0
ENDBLK
  5
39
  8
0
  0
BLOCK
  8
0
  2
CLUMP2
 70
     0
 10
0.0
 20
0.0
 30
0.0
  3
CLUMP2
  1

  0
ARC
  5
3D
  8
┌▓È_1
 10
251.1271871367
 20
105.4643667218
 30
0.0
 40
3.5
 50
90.0
 51
270.0
  0
LINE
  5
3E
  8
┌▓È_1
 10
266.1271871367
 20
101.9643667218
 30
0.0
 11
251.1271871367
 21
101.9643667218
 31
0.0
  0
LINE
  5
3F
  8
┌▓È_1
 10
251.1271871367
 20
108.9643667218
 30
0.0
 11
266.1271871367
 21
108.9643667218
 31
0.0
  0
ARC
  5
40
  8
┌▓È_1
 10
266.1271871367
 20
105.4643667218
 30
0.0
 40
3.5
 50
270.0
 51
90.0
  0
ENDBLK
  5
41
  8
0
  0
BLOCK
  8
0
  2
CLUMP3
 70
     0
 10
0.0
 20
0.0
 30
0.0
  3
CLUMP3
  1

  0
ARC
  5
45
  8
┌▓È_1
 10
251.1271871367
 20
183.46436672179999
 30
0.0
 40
3.5
 50
90.0
 51
270.0
  0
LINE
  5
46
  8
┌▓È_1
 10
266.1271871367
 20
186.96436672179999
 30
0.0
 11
251.1271871367
 21
186.96436672179999
 31
0.0
  0
LINE
  5
47
  8
┌▓È_1
 10
251.1271871367
 20
179.96436672179999
 30
0.0
 11
266.1271871367
 21
179.96436672179999
 31
0.0
  0
ARC
  5
48
  8
┌▓È_1
 10
266.1271871367
 20
183.46436672179999
 30
0.0
 40
3.5
 50
270.0
 51
90.0
  0
ENDBLK
  5
49
  8
0
  0
BLOCK
  8
0
  2
CLUMP4
 70
     0
 10
0.0
 20
0.0
 30
0.0
  3
CLUMP4
  1

  0
ARC
  5
4D
  8
┌▓È_1
 10
251.1271871367
 20
168.46436672179999
 30
0.0
 40
3.5
 50
90.0
 51
270.0
  0
LINE
  5
4E
  8
┌▓È_1
 10
266.1271871367
 20
171.96436672179999
 30
0.0
 11
251.1271871367
 21
171.96436672179999
 31
0.0
  0
LINE
  5
4F
  8
┌▓È_1
 10
251.1271871367
 20
164.96436672179999
 30
0.0
 11
266.1271871367
 21
164.96436672179999
 31
0.0
  0
ARC
  5
50
  8
┌▓È_1
 10
266.1271871367
 20
168.46436672179999
 30
0.0
 40
3.5
 50
270.0
 51
90.0
  0
ENDBLK
  5
51
  8
0
  0
BLOCK
  8
0
  2
CLUMP5
 70
     0
 10
0.0
 20
0.0
 30
0.0
  3
CLUMP5
  1

  0
ARC
  5
56
  8
┌▓È_1
 10
138.6271871367
 20
136.96436672179999
 30
0.0
 40
3.5
 50
90.0
 51
270.0
  0
LINE
  5
57
  8
┌▓È_1
 10
153.6271871367
 20
140.46436672179999
 30
0.0
 11
138.6271871367
 21
140.46436672179999
 31
0.0
  0
LINE
  5
58
  8
┌▓È_1
 10
138.6271871367
 20
133.46436672179999
 30
0.0
 11
153.6271871367
 21
133.46436672179999
 31
0.0
  0
ARC
  5
59
  8
┌▓È_1
 10
153.6271871367
 20
136.96436672179999
 30
0.0
 40
3.5
 50
270.0
 51
90.0
  0
ENDBLK
  5
5A
  8
0
  0
BLOCK
  8
0
  2
CLUMP6
 70
     0
 10
0.0
 20
0.0
 30
0.0
  3
CLUMP6
  1

  0
ARC
  5
5E
  8
┌▓È_1
 10
63.627187136700002
 20
136.96436672179999
 30
0.0
 40
3.5
 50
90.0
 51
270.0
  0
LINE
  5
5F
  8
┌▓È_1
 10
78.627187136700002
 20
140.46436672179999
 30
0.0
 11
63.627187136700002
 21
140.46436672179999
 31
0.0
  0
LINE
  5
60
  8
┌▓È_1
 10
63.627187136700002
 20
133.46436672179999
 30
0.0
 11
78.627187136700002
 21
133.46436672179999
 31
0.0
  0
ARC
  5
61
  8
┌▓È_1
 10
78.627187136700002
 20
136.96436672179999
 30
0.0
 40
3.5
 50
270.0
 51
90.0
  0
ENDBLK
  5
62
  8
0
  0
BLOCK
  8
0
  2
*D7
 70
     1
 10
0.0
 20
0.0
 30
0.0
  3
*D7
  1

  0
TEXT
  5
66
  8
0
 62
     0
 10
-66.565559296399996
 20
-229.10528801039999
 30
0.0
 40
9.8954164504999991
  1
22
  0
LINE
  5
67
  8
0
 62
     0
 10
-49.744726090299999
 20
-244.59144714429999
 30
0.0
 11
-49.744726090299999
 21
-229.85153797230001
 31
0.0
  0
LINE
  5
68
  8
0
 62
     0
 10
-71.744726090299991
 20
-244.59144714429999
 30
0.0
 11
-71.744726090299991
 21
-229.85153797230001
 31
0.0
  0
LINE
  5
69
  8
0
 62
     0
 10
-49.744726090299999
 20
-231.85153797230001
 30
0.0
 11
-49.744726090299999
 21
-231.85153797230001
 31
0.0
  0
LINE
  5
6A
  8
0
 62
     0
 10
-49.744726090299999
 20
-231.85153797230001
 30
0.0
 11
-71.744726090299991
 21
-231.85153797230001
 31
0.0
  0
LINE
  5
6B
  8
0
 62
     0
 10
-71.744726090299991
 20
-231.85153797230001
 30
0.0
 11
-49.744726090299999
 21
-231.85153797230001
 31
0.0
  0
LINE
  5
6C
  8
0
 62
     0
 10
-71.744726090299991
 20
-231.85153797230001
 30
0.0
 11
-71.744726090299991
 21
-231.85153797230001
 31
0.0
  0
LINE
  5
6D
  8
0
 62
     0
 10
-71.744726090299991
 20
-231.85153797230001
 30
0.0
 11
-66.744726090299991
 21
-231.85153797230001
 31
0.0
  0
SOLID
  5
6E
  8
0
 62
     0
 10
-71.744726090299991
 20
-231.85153797230001
 30
0.0
 11
-62.744726090299999
 21
-229.60153797230001
 31
0.0
 12
-62.744726090299999
 22
-234.10153797230001
 32
0.0
 13
-64.994726090299991
 23
-231.85153797230001
 33
0.0
  0
LINE
  5
6F
  8
0
 62
     0
 10
-49.744726090299999
 20
-231.85153797230001
 30
0.0
 11
-54.744726090299999
 21
-231.85153797230001
 31
0.0
  0
SOLID
  5
70
  8
0
 62
     0
 10
-49.744726090299999
 20
-231.85153797230001
 30
0.0
 11
-58.744726090299999
 21
-234.10153797230001
 31
0.0
 12
-58.744726090299999
 22
-229.60153797230001
 32
0.0
 13
-56.494726090299999
 23
-231.85153797230001
 33
0.0
  0
ENDBLK
  5
71
  8
0
  0
BLOCK
  8
0
  2
*D8
 70
     1
 10
0.0
 20
0.0
 30
0.0
  3
*D8
  1

  0
TEXT
  5
76
  8
0
 62
     0
 10
-36.741262154399998
 20
-247.50186374739999
 30
0.0
 40
9.8954164504999991
  1
7
 50
90.0
  0
LINE
  5
77
  8
0
 62
     0
 10
-53.244726090299991
 20
-248.09144714429999
 30
0.0
 11
-31.995012192600001
 21
-248.09144714429999
 31
0.0
  0
LINE
  5
78
  8
0
 62
     0
 10
-53.244726090299991
 20
-241.09144714429999
 30
0.0
 11
-31.995012192600001
 21
-241.09144714429999
 31
0.0
  0
LINE
  5
79
  8
0
 62
     0
 10
-33.995012192600001
 20
-248.09144714429999
 30
0.0
 11
-33.995012192600001
 21
-248.09144714429999
 31
0.0
  0
LINE
  5
7A
  8
0
 62
     0
 10
-33.995012192600001
 20
-248.09144714429999
 30
0.0
 11
-33.995012192600001
 21
-241.09144714429999
 31
0.0
  0
LINE
  5
7B
  8
0
 62
     0
 10
-33.995012192600001
 20
-241.09144714429999
 30
0.0
 11
-33.995012192600001
 21
-248.09144714429999
 31
0.0
  0
LINE
  5
7C
  8
0
 62
     0
 10
-33.995012192600001
 20
-241.09144714429999
 30
0.0
 11
-33.995012192600001
 21
-241.09144714429999
 31
0.0
  0
LINE
  5
7D
  8
0
 62
     0
 10
-33.995012192600001
 20
-241.09144714429999
 30
0.0
 11
-33.995012192600001
 21
-236.09144714429999
 31
0.0
  0
SOLID
  5
7E
  8
0
 62
     0
 10
-33.995012192600001
 20
-241.09144714429999
 30
0.0
 11
-36.245012192600001
 21
-232.09144714429999
 31
0.0
 12
-31.745012192600001
 22
-232.09144714429999
 32
0.0
 13
-33.995012192600001
 23
-234.34144714429999
 33
0.0
  0
LINE
  5
7F
  8
0
 62
     0
 10
-33.995012192600001
 20
-248.09144714429999
 30
0.0
 11
-33.995012192600001
 21
-253.09144714429999
 31
0.0
  0
SOLID
  5
80
  8
0
 62
     0
 10
-33.995012192600001
 20
-248.09144714429999
 30
0.0
 11
-31.745012192600001
 21
-257.09144714429999
 31
0.0
 12
-36.245012192600001
 22
-257.09144714429999
 32
0.0
 13
-33.995012192600001
 23
-254.84144714429999
 33
0.0
  0
ENDBLK
  5
81
  8
0
  0
BLOCK
  8
0
  2
CLUMP7
 70
     0
 10
0.0
 20
0.0
 30
0.0
  3
CLUMP7
  1

  0
INSERT
  5
87
  8
┌▓È_1
  2
CLUMP8
 10
0.0
 20
0.0
 30
0.0
  0
INSERT
  5
8F
  8
┌▓È_1
  2
CLUMP9
 10
0.0
 20
0.0
 30
0.0
  0
INSERT
  5
97
  8
┌▓È_1
  2
CLUMP10
 10
0.0
 20
0.0
 30
0.0
  0
INSERT
  5
9F
  8
┌▓È_1
  2
CLUMP11
 10
0.0
 20
0.0
 30
0.0
  0
ENDBLK
  5
A6
  8
0
  0
BLOCK
  8
0
  2
CLUMP8
 70
     0
 10
0.0
 20
0.0
 30
0.0
  3
CLUMP8
  1

  0
ARC
  5
89
  8
┌▓È_1
 10
-123.8728128633
 20
90.464366721800005
 30
0.0
 40
3.5
 50
90.0
 51
270.0
  0
LINE
  5
8A
  8
┌▓È_1
 10
-108.8728128633
 20
86.964366721800005
 30
0.0
 11
-123.8728128633
 21
86.964366721800005
 31
0.0
  0
ARC
  5
8B
  8
┌▓È_1
 10
-108.8728128633
 20
90.464366721800005
 30
0.0
 40
3.5
 50
270.0
 51
90.0
  0
LINE
  5
8C
  8
┌▓È_1
 10
-123.8728128633
 20
93.964366721800005
 30
0.0
 11
-108.8728128633
 21
93.964366721800005
 31
0.0
  0
ENDBLK
  5
8D
  8
0
  0
BLOCK
  8
0
  2
CLUMP9
 70
     0
 10
0.0
 20
0.0
 30
0.0
  3
CLUMP9
  1

  0
ARC
  5
91
  8
┌▓È_1
 10
-123.8728128633
 20
105.4643667218
 30
0.0
 40
3.5
 50
90.0
 51
270.0
  0
LINE
  5
92
  8
┌▓È_1
 10
-108.8728128633
 20
101.9643667218
 30
0.0
 11
-123.8728128633
 21
101.9643667218
 31
0.0
  0
LINE
  5
93
  8
┌▓È_1
 10
-123.8728128633
 20
108.9643667218
 30
0.0
 11
-108.8728128633
 21
108.9643667218
 31
0.0
  0
ARC
  5
94
  8
┌▓È_1
 10
-108.8728128633
 20
105.4643667218
 30
0.0
 40
3.5
 50
270.0
 51
90.0
  0
ENDBLK
  5
95
  8
0
  0
BLOCK
  8
0
  2
CLUMP10
 70
     0
 10
0.0
 20
0.0
 30
0.0
  3
CLUMP10
  1

  0
ARC
  5
99
  8
┌▓È_1
 10
-123.8728128633
 20
183.46436672179999
 30
0.0
 40
3.5
 50
90.0
 51
270.0
  0
LINE
  5
9A
  8
┌▓È_1
 10
-108.8728128633
 20
186.96436672179999
 30
0.0
 11
-123.8728128633
 21
186.96436672179999
 31
0.0
  0
LINE
  5
9B
  8
┌▓È_1
 10
-123.8728128633
 20
179.96436672179999
 30
0.0
 11
-108.8728128633
 21
179.96436672179999
 31
0.0
  0
ARC
  5
9C
  8
┌▓È_1
 10
-108.8728128633
 20
183.46436672179999
 30
0.0
 40
3.5
 50
270.0
 51
90.0
  0
ENDBLK
  5
9D
  8
0
  0
BLOCK
  8
0
  2
CLUMP11
 70
     0
 10
0.0
 20
0.0
 30
0.0
  3
CLUMP11
  1

  0
ARC
  5
A1
  8
┌▓È_1
 10
-123.8728128633
 20
168.46436672179999
 30
0.0
 40
3.5
 50
90.0
 51
270.0
  0
LINE
  5
A2
  8
┌▓È_1
 10
-108.8728128633
 20
171.96436672179999
 30
0.0
 11
-123.8728128633
 21
171.96436672179999
 31
0.0
  0
LINE
  5
A3
  8
┌▓È_1
 10
-123.8728128633
 20
164.96436672179999
 30
0.0
 11
-108.8728128633
 21
164.96436672179999
 31
0.0
  0
ARC
  5
A4
  8
┌▓È_1
 10
-108.8728128633
 20
168.46436672179999
 30
0.0
 40
3.5
 50
270.0
 51
90.0
  0
ENDBLK
  5
A5
  8
0
  0
BLOCK
  8
0
  2
CLUMP12
 70
     0
 10
0.0
 20
0.0
 30
0.0
  3
CLUMP12
  1

  0
INSERT
  5
AD
  8
┌▓È_1
  2
CLUMP13
 10
0.0
 20
0.0
 30
0.0
  0
INSERT
  5
B5
  8
┌▓È_1
  2
CLUMP14
 10
0.0
 20
0.0
 30
0.0
  0
INSERT
  5
BD
  8
┌▓È_1
  2
CLUMP15
 10
0.0
 20
0.0
 30
0.0
  0
INSERT
  5
C5
  8
┌▓È_1
  2
CLUMP16
 10
0.0
 20
0.0
 30
0.0
  0
ENDBLK
  5
CC
  8
0
  0
BLOCK
  8
0
  2
CLUMP13
 70
     0
 10
0.0
 20
0.0
 30
0.0
  3
CLUMP13
  1

  0
ARC
  5
AF
  8
┌▓È_1
 10
-48.872812863299998
 20
90.464366721800005
 30
0.0
 40
3.5
 50
90.0
 51
270.0
  0
LINE
  5
B0
  8
┌▓È_1
 10
-33.872812863299998
 20
86.964366721800005
 30
0.0
 11
-48.872812863299998
 21
86.964366721800005
 31
0.0
  0
ARC
  5
B1
  8
┌▓È_1
 10
-33.872812863299998
 20
90.464366721800005
 30
0.0
 40
3.5
 50
270.0
 51
90.0
  0
LINE
  5
B2
  8
┌▓È_1
 10
-48.872812863299998
 20
93.964366721800005
 30
0.0
 11
-33.872812863299998
 21
93.964366721800005
 31
0.0
  0
ENDBLK
  5
B3
  8
0
  0
BLOCK
  8
0
  2
CLUMP14
 70
     0
 10
0.0
 20
0.0
 30
0.0
  3
CLUMP14
  1

  0
ARC
  5
B7
  8
┌▓È_1
 10
-48.872812863299998
 20
105.4643667218
 30
0.0
 40
3.5
 50
90.0
 51
270.0
  0
LINE
  5
B8
  8
┌▓È_1
 10
-33.872812863299998
 20
101.9643667218
 30
0.0
 11
-48.872812863299998
 21
101.9643667218
 31
0.0
  0
LINE
  5
B9
  8
┌▓È_1
 10
-48.872812863299998
 20
108.9643667218
 30
0.0
 11
-33.872812863299998
 21
108.9643667218
 31
0.0
  0
ARC
  5
BA
  8
┌▓È_1
 10
-33.872812863299998
 20
105.4643667218
 30
0.0
 40
3.5
 50
270.0
 51
90.0
  0
ENDBLK
  5
BB
  8
0
  0
BLOCK
  8
0
  2
CLUMP15
 70
     0
 10
0.0
 20
0.0
 30
0.0
  3
CLUMP15
  1

  0
ARC
  5
BF
  8
┌▓È_1
 10
-48.872812863299998
 20
183.46436672179999
 30
0.0
 40
3.5
 50
90.0
 51
270.0
  0
LINE
  5
C0
  8
┌▓È_1
 10
-33.872812863299998
 20
186.96436672179999
 30
0.0
 11
-48.872812863299998
 21
186.96436672179999
 31
0.0
  0
LINE
  5
C1
  8
┌▓È_1
 10
-48.872812863299998
 20
179.96436672179999
 30
0.0
 11
-33.872812863299998
 21
179.96436672179999
 31
0.0
  0
ARC
  5
C2
  8
┌▓È_1
 10
-33.872812863299998
 20
183.46436672179999
 30
0.0
 40
3.5
 50
270.0
 51
90.0
  0
ENDBLK
  5
C3
  8
0
  0
BLOCK
  8
0
  2
CLUMP16
 70
     0
 10
0.0
 20
0.0
 30
0.0
  3
CLUMP16
  1

  0
ARC
  5
C7
  8
┌▓È_1
 10
-48.872812863299998
 20
168.46436672179999
 30
0.0
 40
3.5
 50
90.0
 51
270.0
  0
LINE
  5
C8
  8
┌▓È_1
 10
-33.872812863299998
 20
171.96436672179999
 30
0.0
 11
-48.872812863299998
 21
171.96436672179999
 31
0.0
  0
LINE
  5
C9
  8
┌▓È_1
 10
-48.872812863299998
 20
164.96436672179999
 30
0.0
 11
-33.872812863299998
 21
164.96436672179999
 31
0.0
  0
ARC
  5
CA
  8
┌▓È_1
 10
-33.872812863299998
 20
168.46436672179999
 30
0.0
 40
3.5
 50
270.0
 51
90.0
  0
ENDBLK
  5
CB
  8
0
  0
BLOCK
  8
0
  2
CLUMP17
 70
     0
 10
0.0
 20
0.0
 30
0.0
  3
CLUMP17
  1

  0
ARC
  5
D3
  8
┌▓È_1
 10
-86.372812863299984
 20
136.96436672179999
 30
0.0
 40
3.5
 50
90.0
 51
270.0
  0
LINE
  5
D4
  8
┌▓È_1
 10
-71.372812863299998
 20
140.46436672179999
 30
0.0
 11
-86.372812863299984
 21
140.46436672179999
 31
0.0
  0
LINE
  5
D5
  8
┌▓È_1
 10
-86.372812863299984
 20
133.46436672179999
 30
0.0
 11
-71.372812863299998
 21
133.46436672179999
 31
0.0
  0
ARC
  5
D6
  8
┌▓È_1
 10
-71.372812863299998
 20
136.96436672179999
 30
0.0
 40
3.5
 50
270.0
 51
90.0
  0
ENDBLK
  5
D7
  8
0
  0
BLOCK
  8
0
  2
*D20
 70
     1
 10
0.0
 20
0.0
 30
0.0
  3
*D20
  1

  0
TEXT
  5
DB
  8
0
 62
     0
 10
-156.61032320050001
 20
261.43565733299999
 30
0.0
 40
9.8954164504999991
  1
9
  0
LINE
  5
DC
  8
0
 62
     0
 10
-149.2730836966
 20
201.9645385968
 30
0.0
 11
-149.2730836966
 21
260.68940737119999
 31
0.0
  0
LINE
  5
DD
  8
0
 62
     0
 10
-158.2730836966
 20
210.9645385968
 30
0.0
 11
-158.2730836966
 21
260.68940737119999
 31
0.0
  0
LINE
  5
DE
  8
0
 62
     0
 10
-149.2730836966
 20
258.68940737119999
 30
0.0
 11
-149.2730836966
 21
258.68940737119999
 31
0.0
  0
LINE
  5
DF
  8
0
 62
     0
 10
-149.2730836966
 20
258.68940737119999
 30
0.0
 11
-158.2730836966
 21
258.68940737119999
 31
0.0
  0
LINE
  5
E0
  8
0
 62
     0
 10
-158.2730836966
 20
258.68940737119999
 30
0.0
 11
-149.2730836966
 21
258.68940737119999
 31
0.0
  0
LINE
  5
E1
  8
0
 62
     0
 10
-158.2730836966
 20
258.68940737119999
 30
0.0
 11
-158.2730836966
 21
258.68940737119999
 31
0.0
  0
LINE
  5
E2
  8
0
 62
     0
 10
-158.2730836966
 20
258.68940737119999
 30
0.0
 11
-163.2730836966
 21
258.68940737119999
 31
0.0
  0
SOLID
  5
E3
  8
0
 62
     0
 10
-158.2730836966
 20
258.68940737119999
 30
0.0
 11
-167.2730836966
 21
256.43940737119999
 31
0.0
 12
-167.2730836966
 22
260.93940737119999
 32
0.0
 13
-165.0230836966
 23
258.68940737119999
 33
0.0
  0
LINE
  5
E4
  8
0
 62
     0
 10
-149.2730836966
 20
258.68940737119999
 30
0.0
 11
-144.2730836966
 21
258.68940737119999
 31
0.0
  0
SOLID
  5
E5
  8
0
 62
     0
 10
-149.2730836966
 20
258.68940737119999
 30
0.0
 11
-140.2730836966
 21
260.93940737119999
 31
0.0
 12
-140.2730836966
 22
256.43940737119999
 32
0.0
 13
-142.5230836966
 23
258.68940737119999
 33
0.0
  0
ENDBLK
  5
E6
  8
0
  0
BLOCK
  8
0
  2
CLUMP18
 70
     0
 10
0.0
 20
0.0
 30
0.0
  3
CLUMP18
  1

  0
INSERT
  5
ED
  8
┌▓È_1
  2
CLUMP19
 10
0.0
 20
0.0
 30
0.0
  0
INSERT
  5
F5
  8
┌▓È_1
  2
CLUMP20
 10
0.0
 20
0.0
 30
0.0
  0
INSERT
  5
FD
  8
┌▓È_1
  2
CLUMP21
 10
0.0
 20
0.0
 30
0.0
  0
INSERT
  5
105
  8
┌▓È_1
  2
CLUMP22
 10
0.0
 20
0.0
 30
0.0
  0
ENDBLK
  5
10C
  8
0
  0
BLOCK
  8
0
  2
CLUMP19
 70
     0
 10
0.0
 20
0.0
 30
0.0
  3
CLUMP19
  1

  0
ARC
  5
EF
  8
┌▓È_1
 10
231.75527390970001
 20
-259.59144714429999
 30
0.0
 40
3.5
 50
90.0
 51
270.0
  0
LINE
  5
F0
  8
┌▓È_1
 10
246.75527390970001
 20
-263.09144714429999
 30
0.0
 11
231.75527390970001
 21
-263.09144714429999
 31
0.0
  0
ARC
  5
F1
  8
┌▓È_1
 10
246.75527390970001
 20
-259.59144714429999
 30
0.0
 40
3.5
 50
270.0
 51
90.0
  0
LINE
  5
F2
  8
┌▓È_1
 10
231.75527390970001
 20
-256.09144714429999
 30
0.0
 11
246.75527390970001
 21
-256.09144714429999
 31
0.0
  0
ENDBLK
  5
F3
  8
0
  0
BLOCK
  8
0
  2
CLUMP20
 70
     0
 10
0.0
 20
0.0
 30
0.0
  3
CLUMP20
  1

  0
ARC
  5
F7
  8
┌▓È_1
 10
231.75527390970001
 20
-244.59144714429999
 30
0.0
 40
3.5
 50
90.0
 51
270.0
  0
LINE
  5
F8
  8
┌▓È_1
 10
246.75527390970001
 20
-248.09144714429999
 30
0.0
 11
231.75527390970001
 21
-248.09144714429999
 31
0.0
  0
LINE
  5
F9
  8
┌▓È_1
 10
231.75527390970001
 20
-241.09144714429999
 30
0.0
 11
246.75527390970001
 21
-241.09144714429999
 31
0.0
  0
ARC
  5
FA
  8
┌▓È_1
 10
246.75527390970001
 20
-244.59144714429999
 30
0.0
 40
3.5
 50
270.0
 51
90.0
  0
ENDBLK
  5
FB
  8
0
  0
BLOCK
  8
0
  2
CLUMP21
 70
     0
 10
0.0
 20
0.0
 30
0.0
  3
CLUMP21
  1

  0
ARC
  5
FF
  8
┌▓È_1
 10
231.75527390970001
 20
-166.59144714429999
 30
0.0
 40
3.5
 50
90.0
 51
270.0
  0
LINE
  5
100
  8
┌▓È_1
 10
246.75527390970001
 20
-163.09144714429999
 30
0.0
 11
231.75527390970001
 21
-163.09144714429999
 31
0.0
  0
LINE
  5
101
  8
┌▓È_1
 10
231.75527390970001
 20
-170.09144714429999
 30
0.0
 11
246.75527390970001
 21
-170.09144714429999
 31
0.0
  0
ARC
  5
102
  8
┌▓È_1
 10
246.75527390970001
 20
-166.59144714429999
 30
0.0
 40
3.5
 50
270.0
 51
90.0
  0
ENDBLK
  5
103
  8
0
  0
BLOCK
  8
0
  2
CLUMP22
 70
     0
 10
0.0
 20
0.0
 30
0.0
  3
CLUMP22
  1

  0
ARC
  5
107
  8
┌▓È_1
 10
231.75527390970001
 20
-181.59144714429999
 30
0.0
 40
3.5
 50
90.0
 51
270.0
  0
LINE
  5
108
  8
┌▓È_1
 10
246.75527390970001
 20
-178.09144714429999
 30
0.0
 11
231.75527390970001
 21
-178.09144714429999
 31
0.0
  0
LINE
  5
109
  8
┌▓È_1
 10
231.75527390970001
 20
-185.09144714429999
 30
0.0
 11
246.75527390970001
 21
-185.09144714429999
 31
0.0
  0
ARC
  5
10A
  8
┌▓È_1
 10
246.75527390970001
 20
-181.59144714429999
 30
0.0
 40
3.5
 50
270.0
 51
90.0
  0
ENDBLK
  5
10B
  8
0
  0
BLOCK
  8
0
  2
CLUMP23
 70
     0
 10
0.0
 20
0.0
 30
0.0
  3
CLUMP23
  1

  0
ARC
  5
110
  8
┌▓È_1
 10
194.25527390970001
 20
-213.09144714429999
 30
0.0
 40
3.5
 50
90.0
 51
270.0
  0
LINE
  5
111
  8
┌▓È_1
 10
209.25527390970001
 20
-209.59144714429999
 30
0.0
 11
194.25527390970001
 21
-209.59144714429999
 31
0.0
  0
LINE
  5
112
  8
┌▓È_1
 10
194.25527390970001
 20
-216.59144714429999
 30
0.0
 11
209.25527390970001
 21
-216.59144714429999
 31
0.0
  0
ARC
  5
113
  8
┌▓È_1
 10
209.25527390970001
 20
-213.09144714429999
 30
0.0
 40
3.5
 50
270.0
 51
90.0
  0
ENDBLK
  5
114
  8
0
  0
BLOCK
  8
0
  2
CLUMP24
 70
     0
 10
0.0
 20
0.0
 30
0.0
  3
CLUMP24
  1

  0
INSERT
  5
119
  8
┌▓È_1
  2
CLUMP25
 10
0.0
 20
0.0
 30
0.0
  0
INSERT
  5
121
  8
┌▓È_1
  2
CLUMP26
 10
0.0
 20
0.0
 30
0.0
  0
INSERT
  5
129
  8
┌▓È_1
  2
CLUMP27
 10
0.0
 20
0.0
 30
0.0
  0
INSERT
  5
131
  8
┌▓È_1
  2
CLUMP28
 10
0.0
 20
0.0
 30
0.0
  0
ENDBLK
  5
138
  8
0
  0
BLOCK
  8
0
  2
CLUMP25
 70
     0
 10
0.0
 20
0.0
 30
0.0
  3
CLUMP25
  1

  0
ARC
  5
11B
  8
┌▓È_1
 10
156.75527390970001
 20
-259.59144714429999
 30
0.0
 40
3.5
 50
90.0
 51
270.0
  0
LINE
  5
11C
  8
┌▓È_1
 10
171.75527390970001
 20
-263.09144714429999
 30
0.0
 11
156.75527390970001
 21
-263.09144714429999
 31
0.0
  0
ARC
  5
11D
  8
┌▓È_1
 10
171.75527390970001
 20
-259.59144714429999
 30
0.0
 40
3.5
 50
270.0
 51
90.0
  0
LINE
  5
11E
  8
┌▓È_1
 10
156.75527390970001
 20
-256.09144714429999
 30
0.0
 11
171.75527390970001
 21
-256.09144714429999
 31
0.0
  0
ENDBLK
  5
11F
  8
0
  0
BLOCK
  8
0
  2
CLUMP26
 70
     0
 10
0.0
 20
0.0
 30
0.0
  3
CLUMP26
  1

  0
ARC
  5
123
  8
┌▓È_1
 10
156.75527390970001
 20
-244.59144714429999
 30
0.0
 40
3.5
 50
90.0
 51
270.0
  0
LINE
  5
124
  8
┌▓È_1
 10
171.75527390970001
 20
-248.09144714429999
 30
0.0
 11
156.75527390970001
 21
-248.09144714429999
 31
0.0
  0
LINE
  5
125
  8
┌▓È_1
 10
156.75527390970001
 20
-241.09144714429999
 30
0.0
 11
171.75527390970001
 21
-241.09144714429999
 31
0.0
  0
ARC
  5
126
  8
┌▓È_1
 10
171.75527390970001
 20
-244.59144714429999
 30
0.0
 40
3.5
 50
270.0
 51
90.0
  0
ENDBLK
  5
127
  8
0
  0
BLOCK
  8
0
  2
CLUMP27
 70
     0
 10
0.0
 20
0.0
 30
0.0
  3
CLUMP27
  1

  0
ARC
  5
12B
  8
┌▓È_1
 10
156.75527390970001
 20
-166.59144714429999
 30
0.0
 40
3.5
 50
90.0
 51
270.0
  0
LINE
  5
12C
  8
┌▓È_1
 10
171.75527390970001
 20
-163.09144714429999
 30
0.0
 11
156.75527390970001
 21
-163.09144714429999
 31
0.0
  0
LINE
  5
12D
  8
┌▓È_1
 10
156.75527390970001
 20
-170.09144714429999
 30
0.0
 11
171.75527390970001
 21
-170.09144714429999
 31
0.0
  0
ARC
  5
12E
  8
┌▓È_1
 10
171.75527390970001
 20
-166.59144714429999
 30
0.0
 40
3.5
 50
270.0
 51
90.0
  0
ENDBLK
  5
12F
  8
0
  0
BLOCK
  8
0
  2
CLUMP28
 70
     0
 10
0.0
 20
0.0
 30
0.0
  3
CLUMP28
  1

  0
ARC
  5
133
  8
┌▓È_1
 10
156.75527390970001
 20
-181.59144714429999
 30
0.0
 40
3.5
 50
90.0
 51
270.0
  0
LINE
  5
134
  8
┌▓È_1
 10
171.75527390970001
 20
-178.09144714429999
 30
0.0
 11
156.75527390970001
 21
-178.09144714429999
 31
0.0
  0
LINE
  5
135
  8
┌▓È_1
 10
156.75527390970001
 20
-185.09144714429999
 30
0.0
 11
171.75527390970001
 21
-185.09144714429999
 31
0.0
  0
ARC
  5
136
  8
┌▓È_1
 10
171.75527390970001
 20
-181.59144714429999
 30
0.0
 40
3.5
 50
270.0
 51
90.0
  0
ENDBLK
  5
137
  8
0
  0
BLOCK
  8
0
  2
CLUMP29
 70
     0
 10
0.0
 20
0.0
 30
0.0
  3
CLUMP29
  1

  0
INSERT
  5
13D
  8
┌▓È_1
  2
CLUMP30
 10
0.0
 20
0.0
 30
0.0
  0
INSERT
  5
145
  8
┌▓È_1
  2
CLUMP31
 10
0.0
 20
0.0
 30
0.0
  0
INSERT
  5
14D
  8
┌▓È_1
  2
CLUMP32
 10
0.0
 20
0.0
 30
0.0
  0
INSERT
  5
155
  8
┌▓È_1
  2
CLUMP33
 10
0.0
 20
0.0
 30
0.0
  0
ENDBLK
  5
15C
  8
0
  0
BLOCK
  8
0
  2
CLUMP30
 70
     0
 10
0.0
 20
0.0
 30
0.0
  3
CLUMP30
  1

  0
ARC
  5
13F
  8
┌▓È_1
 10
81.755273909700009
 20
-259.59144714429999
 30
0.0
 40
3.5
 50
90.0
 51
270.0
  0
LINE
  5
140
  8
┌▓È_1
 10
96.755273909699994
 20
-263.09144714429999
 30
0.0
 11
81.755273909700009
 21
-263.09144714429999
 31
0.0
  0
ARC
  5
141
  8
┌▓È_1
 10
96.755273909699994
 20
-259.59144714429999
 30
0.0
 40
3.5
 50
270.0
 51
90.0
  0
LINE
  5
142
  8
┌▓È_1
 10
81.755273909700009
 20
-256.09144714429999
 30
0.0
 11
96.755273909699994
 21
-256.09144714429999
 31
0.0
  0
ENDBLK
  5
143
  8
0
  0
BLOCK
  8
0
  2
CLUMP31
 70
     0
 10
0.0
 20
0.0
 30
0.0
  3
CLUMP31
  1

  0
ARC
  5
147
  8
┌▓È_1
 10
81.755273909700009
 20
-244.59144714429999
 30
0.0
 40
3.5
 50
90.0
 51
270.0
  0
LINE
  5
148
  8
┌▓È_1
 10
96.755273909699994
 20
-248.09144714429999
 30
0.0
 11
81.755273909700009
 21
-248.09144714429999
 31
0.0
  0
LINE
  5
149
  8
┌▓È_1
 10
81.755273909700009
 20
-241.09144714429999
 30
0.0
 11
96.755273909699994
 21
-241.09144714429999
 31
0.0
  0
ARC
  5
14A
  8
┌▓È_1
 10
96.755273909699994
 20
-244.59144714429999
 30
0.0
 40
3.5
 50
270.0
 51
90.0
  0
ENDBLK
  5
14B
  8
0
  0
BLOCK
  8
0
  2
CLUMP32
 70
     0
 10
0.0
 20
0.0
 30
0.0
  3
CLUMP32
  1

  0
ARC
  5
14F
  8
┌▓È_1
 10
81.755273909700009
 20
-166.59144714429999
 30
0.0
 40
3.5
 50
90.0
 51
270.0
  0
LINE
  5
150
  8
┌▓È_1
 10
96.755273909699994
 20
-163.09144714429999
 30
0.0
 11
81.755273909700009
 21
-163.09144714429999
 31
0.0
  0
LINE
  5
151
  8
┌▓È_1
 10
81.755273909700009
 20
-170.09144714429999
 30
0.0
 11
96.755273909699994
 21
-170.09144714429999
 31
0.0
  0
ARC
  5
152
  8
┌▓È_1
 10
96.755273909699994
 20
-166.59144714429999
 30
0.0
 40
3.5
 50
270.0
 51
90.0
  0
ENDBLK
  5
153
  8
0
  0
BLOCK
  8
0
  2
CLUMP33
 70
     0
 10
0.0
 20
0.0
 30
0.0
  3
CLUMP33
  1

  0
ARC
  5
157
  8
┌▓È_1
 10
81.755273909700009
 20
-181.59144714429999
 30
0.0
 40
3.5
 50
90.0
 51
270.0
  0
LINE
  5
158
  8
┌▓È_1
 10
96.755273909699994
 20
-178.09144714429999
 30
0.0
 11
81.755273909700009
 21
-178.09144714429999
 31
0.0
  0
LINE
  5
159
  8
┌▓È_1
 10
81.755273909700009
 20
-185.09144714429999
 30
0.0
 11
96.755273909699994
 21
-185.09144714429999
 31
0.0
  0
ARC
  5
15A
  8
┌▓È_1
 10
96.755273909699994
 20
-181.59144714429999
 30
0.0
 40
3.5
 50
270.0
 51
90.0
  0
ENDBLK
  5
15B
  8
0
  0
BLOCK
  8
0
  2
CLUMP34
 70
     0
 10
0.0
 20
0.0
 30
0.0
  3
CLUMP34
  1

  0
INSERT
  5
161
  8
┌▓È_1
  2
CLUMP35
 10
0.0
 20
0.0
 30
0.0
  0
INSERT
  5
169
  8
┌▓È_1
  2
CLUMP36
 10
0.0
 20
0.0
 30
0.0
  0
INSERT
  5
171
  8
┌▓È_1
  2
CLUMP37
 10
0.0
 20
0.0
 30
0.0
  0
INSERT
  5
179
  8
┌▓È_1
  2
CLUMP38
 10
0.0
 20
0.0
 30
0.0
  0
ENDBLK
  5
180
  8
0
  0
BLOCK
  8
0
  2
CLUMP35
 70
     0
 10
0.0
 20
0.0
 30
0.0
  3
CLUMP35
  1

  0
ARC
  5
163
  8
┌▓È_1
 10
6.7552739096999996
 20
-244.59144714429999
 30
0.0
 40
3.5
 50
90.0
 51
270.0
  0
LINE
  5
164
  8
┌▓È_1
 10
21.755273909700001
 20
-248.09144714429999
 30
0.0
 11
6.7552739096999996
 21
-248.09144714429999
 31
0.0
  0
LINE
  5
165
  8
┌▓È_1
 10
6.7552739096999996
 20
-241.09144714429999
 30
0.0
 11
21.755273909700001
 21
-241.09144714429999
 31
0.0
  0
ARC
  5
166
  8
┌▓È_1
 10
21.755273909700001
 20
-244.59144714429999
 30
0.0
 40
3.5
 50
270.0
 51
90.0
  0
ENDBLK
  5
167
  8
0
  0
BLOCK
  8
0
  2
CLUMP36
 70
     0
 10
0.0
 20
0.0
 30
0.0
  3
CLUMP36
  1

  0
ARC
  5
16B
  8
┌▓È_1
 10
6.7552739096999996
 20
-259.59144714429999
 30
0.0
 40
3.5
 50
90.0
 51
270.0
  0
LINE
  5
16C
  8
┌▓È_1
 10
21.755273909700001
 20
-263.09144714429999
 30
0.0
 11
6.7552739096999996
 21
-263.09144714429999
 31
0.0
  0
ARC
  5
16D
  8
┌▓È_1
 10
21.755273909700001
 20
-259.59144714429999
 30
0.0
 40
3.5
 50
270.0
 51
90.0
  0
LINE
  5
16E
  8
┌▓È_1
 10
6.7552739096999996
 20
-256.09144714429999
 30
0.0
 11
21.755273909700001
 21
-256.09144714429999
 31
0.0
  0
ENDBLK
  5
16F
  8
0
  0
BLOCK
  8
0
  2
CLUMP37
 70
     0
 10
0.0
 20
0.0
 30
0.0
  3
CLUMP37
  1

  0
ARC
  5
173
  8
┌▓È_1
 10
6.7552739096999996
 20
-181.59144714429999
 30
0.0
 40
3.5
 50
90.0
 51
270.0
  0
LINE
  5
174
  8
┌▓È_1
 10
21.755273909700001
 20
-178.09144714429999
 30
0.0
 11
6.7552739096999996
 21
-178.09144714429999
 31
0.0
  0
LINE
  5
175
  8
┌▓È_1
 10
6.7552739096999996
 20
-185.09144714429999
 30
0.0
 11
21.755273909700001
 21
-185.09144714429999
 31
0.0
  0
ARC
  5
176
  8
┌▓È_1
 10
21.755273909700001
 20
-181.59144714429999
 30
0.0
 40
3.5
 50
270.0
 51
90.0
  0
ENDBLK
  5
177
  8
0
  0
BLOCK
  8
0
  2
CLUMP38
 70
     0
 10
0.0
 20
0.0
 30
0.0
  3
CLUMP38
  1

  0
ARC
  5
17B
  8
┌▓È_1
 10
6.7552739096999996
 20
-166.59144714429999
 30
0.0
 40
3.5
 50
90.0
 51
270.0
  0
LINE
  5
17C
  8
┌▓È_1
 10
21.755273909700001
 20
-163.09144714429999
 30
0.0
 11
6.7552739096999996
 21
-163.09144714429999
 31
0.0
  0
LINE
  5
17D
  8
┌▓È_1
 10
6.7552739096999996
 20
-170.09144714429999
 30
0.0
 11
21.755273909700001
 21
-170.09144714429999
 31
0.0
  0
ARC
  5
17E
  8
┌▓È_1
 10
21.755273909700001
 20
-166.59144714429999
 30
0.0
 40
3.5
 50
270.0
 51
90.0
  0
ENDBLK
  5
17F
  8
0
  0
BLOCK
  8
0
  2
CLUMP39
 70
     0
 10
0.0
 20
0.0
 30
0.0
  3
CLUMP39
  1

  0
ARC
  5
184
  8
┌▓È_1
 10
119.25527390969999
 20
-213.09144714429999
 30
0.0
 40
3.5
 50
90.0
 51
270.0
  0
LINE
  5
185
  8
┌▓È_1
 10
134.25527390970001
 20
-209.59144714429999
 30
0.0
 11
119.25527390969999
 21
-209.59144714429999
 31
0.0
  0
LINE
  5
186
  8
┌▓È_1
 10
119.25527390969999
 20
-216.59144714429999
 30
0.0
 11
134.25527390970001
 21
-216.59144714429999
 31
0.0
  0
ARC
  5
187
  8
┌▓È_1
 10
134.25527390970001
 20
-213.09144714429999
 30
0.0
 40
3.5
 50
270.0
 51
90.0
  0
ENDBLK
  5
188
  8
0
  0
BLOCK
  8
0
  2
CLUMP40
 70
     0
 10
0.0
 20
0.0
 30
0.0
  3
CLUMP40
  1

  0
ARC
  5
18C
  8
┌▓È_1
 10
44.255273909700001
 20
-213.09144714429999
 30
0.0
 40
3.5
 50
90.0
 51
270.0
  0
LINE
  5
18D
  8
┌▓È_1
 10
59.255273909700001
 20
-209.59144714429999
 30
0.0
 11
44.255273909700001
 21
-209.59144714429999
 31
0.0
  0
LINE
  5
18E
  8
┌▓È_1
 10
44.255273909700001
 20
-216.59144714429999
 30
0.0
 11
59.255273909700001
 21
-216.59144714429999
 31
0.0
  0
ARC
  5
18F
  8
┌▓È_1
 10
59.255273909700001
 20
-213.09144714429999
 30
0.0
 40
3.5
 50
270.0
 51
90.0
  0
ENDBLK
  5
190
  8
0
  0
BLOCK
  8
0
  2
CLUMP41
 70
     0
 10
0.0
 20
0.0
 30
0.0
  3
CLUMP41
  1

  0
ARC
  5
194
  8
┌▓È_1
 10
269.25527390970001
 20
-213.09144714429999
 30
0.0
 40
3.5
 50
90.0
 51
270.0
  0
LINE
  5
195
  8
┌▓È_1
 10
284.25527390970001
 20
-209.59144714429999
 30
0.0
 11
269.25527390970001
 21
-209.59144714429999
 31
0.0
  0
LINE
  5
196
  8
┌▓È_1
 10
269.25527390970001
 20
-216.59144714429999
 30
0.0
 11
284.25527390970001
 21
-216.59144714429999
 31
0.0
  0
ARC
  5
197
  8
┌▓È_1
 10
284.25527390970001
 20
-213.09144714429999
 30
0.0
 40
3.5
 50
270.0
 51
90.0
  0
ENDBLK
  5
198
  8
0
  0
BLOCK
  8
0
  2
CLUMP42
 70
     0
 10
0.0
 20
0.0
 30
0.0
  3
CLUMP42
  1

  0
ARC
  5
19C
  8
┌▓È_1
 10
213.6271871367
 20
136.96436672179999
 30
0.0
 40
3.5
 50
90.0
 51
270.0
  0
LINE
  5
19D
  8
┌▓È_1
 10
228.6271871367
 20
140.46436672179999
 30
0.0
 11
213.6271871367
 21
140.46436672179999
 31
0.0
  0
LINE
  5
19E
  8
┌▓È_1
 10
213.6271871367
 20
133.46436672179999
 30
0.0
 11
228.6271871367
 21
133.46436672179999
 31
0.0
  0
ARC
  5
19F
  8
┌▓È_1
 10
228.6271871367
 20
136.96436672179999
 30
0.0
 40
3.5
 50
270.0
 51
90.0
  0
ENDBLK
  5
1A0
  8
0
  0
BLOCK
  8
0
  2
CLUMP43
 70
     0
 10
0.0
 20
0.0
 30
0.0
  3
CLUMP43
  1

  0
INSERT
  5
1A5
  8
┌▓È_1
  2
CLUMP44
 10
0.0
 20
0.0
 30
0.0
  0
INSERT
  5
1AD
  8
┌▓È_1
  2
CLUMP45
 10
0.0
 20
0.0
 30
0.0
  0
INSERT
  5
1B5
  8
┌▓È_1
  2
CLUMP46
 10
0.0
 20
0.0
 30
0.0
  0
INSERT
  5
1BD
  8
┌▓È_1
  2
CLUMP47
 10
0.0
 20
0.0
 30
0.0
  0
ENDBLK
  5
1C4
  8
0
  0
BLOCK
  8
0
  2
CLUMP44
 70
     0
 10
0.0
 20
0.0
 30
0.0
  3
CLUMP44
  1

  0
ARC
  5
1A7
  8
┌▓È_1
 10
176.12718713669989
 20
90.464366721800005
 30
0.0
 40
3.5
 50
90.0
 51
270.0
  0
LINE
  5
1A8
  8
┌▓È_1
 10
191.1271871367
 20
86.964366721800005
 30
0.0
 11
176.12718713669989
 21
86.964366721800005
 31
0.0
  0
ARC
  5
1A9
  8
┌▓È_1
 10
191.1271871367
 20
90.464366721800005
 30
0.0
 40
3.5
 50
270.0
 51
90.0
  0
LINE
  5
1AA
  8
┌▓È_1
 10
176.12718713669989
 20
93.964366721800005
 30
0.0
 11
191.1271871367
 21
93.964366721800005
 31
0.0
  0
ENDBLK
  5
1AB
  8
0
  0
BLOCK
  8
0
  2
CLUMP45
 70
     0
 10
0.0
 20
0.0
 30
0.0
  3
CLUMP45
  1

  0
ARC
  5
1AF
  8
┌▓È_1
 10
176.12718713669989
 20
105.4643667218
 30
0.0
 40
3.5
 50
90.0
 51
270.0
  0
LINE
  5
1B0
  8
┌▓È_1
 10
191.1271871367
 20
101.9643667218
 30
0.0
 11
176.12718713669989
 21
101.9643667218
 31
0.0
  0
LINE
  5
1B1
  8
┌▓È_1
 10
176.12718713669989
 20
108.9643667218
 30
0.0
 11
191.1271871367
 21
108.9643667218
 31
0.0
  0
ARC
  5
1B2
  8
┌▓È_1
 10
191.1271871367
 20
105.4643667218
 30
0.0
 40
3.5
 50
270.0
 51
90.0
  0
ENDBLK
  5
1B3
  8
0
  0
BLOCK
  8
0
  2
CLUMP46
 70
     0
 10
0.0
 20
0.0
 30
0.0
  3
CLUMP46
  1

  0
ARC
  5
1B7
  8
┌▓È_1
 10
176.12718713669989
 20
183.46436672179999
 30
0.0
 40
3.5
 50
90.0
 51
270.0
  0
LINE
  5
1B8
  8
┌▓È_1
 10
191.1271871367
 20
186.96436672179999
 30
0.0
 11
176.12718713669989
 21
186.96436672179999
 31
0.0
  0
LINE
  5
1B9
  8
┌▓È_1
 10
176.12718713669989
 20
179.96436672179999
 30
0.0
 11
191.1271871367
 21
179.96436672179999
 31
0.0
  0
ARC
  5
1BA
  8
┌▓È_1
 10
191.1271871367
 20
183.46436672179999
 30
0.0
 40
3.5
 50
270.0
 51
90.0
  0
ENDBLK
  5
1BB
  8
0
  0
BLOCK
  8
0
  2
CLUMP47
 70
     0
 10
0.0
 20
0.0
 30
0.0
  3
CLUMP47
  1

  0
ARC
  5
1BF
  8
┌▓È_1
 10
176.12718713669989
 20
168.46436672179999
 30
0.0
 40
3.5
 50
90.0
 51
270.0
  0
LINE
  5
1C0
  8
┌▓È_1
 10
191.1271871367
 20
171.96436672179999
 30
0.0
 11
176.12718713669989
 21
171.96436672179999
 31
0.0
  0
LINE
  5
1C1
  8
┌▓È_1
 10
176.12718713669989
 20
164.96436672179999
 30
0.0
 11
191.1271871367
 21
164.96436672179999
 31
0.0
  0
ARC
  5
1C2
  8
┌▓È_1
 10
191.1271871367
 20
168.46436672179999
 30
0.0
 40
3.5
 50
270.0
 51
90.0
  0
ENDBLK
  5
1C3
  8
0
  0
BLOCK
  8
0
  2
CLUMP48
 70
     0
 10
0.0
 20
0.0
 30
0.0
  3
CLUMP48
  1

  0
INSERT
  5
1C9
  8
┌▓È_1
  2
CLUMP49
 10
0.0
 20
0.0
 30
0.0
  0
INSERT
  5
1D1
  8
┌▓È_1
  2
CLUMP50
 10
0.0
 20
0.0
 30
0.0
  0
INSERT
  5
1D9
  8
┌▓È_1
  2
CLUMP51
 10
0.0
 20
0.0
 30
0.0
  0
INSERT
  5
1E1
  8
┌▓È_1
  2
CLUMP52
 10
0.0
 20
0.0
 30
0.0
  0
ENDBLK
  5
1E8
  8
0
  0
BLOCK
  8
0
  2
CLUMP49
 70
     0
 10
0.0
 20
0.0
 30
0.0
  3
CLUMP49
  1

  0
ARC
  5
1CB
  8
┌▓È_1
 10
101.1271871367
 20
90.464366721800005
 30
0.0
 40
3.5
 50
90.0
 51
270.0
  0
LINE
  5
1CC
  8
┌▓È_1
 10
116.1271871367
 20
86.964366721800005
 30
0.0
 11
101.1271871367
 21
86.964366721800005
 31
0.0
  0
ARC
  5
1CD
  8
┌▓È_1
 10
116.1271871367
 20
90.464366721800005
 30
0.0
 40
3.5
 50
270.0
 51
90.0
  0
LINE
  5
1CE
  8
┌▓È_1
 10
101.1271871367
 20
93.964366721800005
 30
0.0
 11
116.1271871367
 21
93.964366721800005
 31
0.0
  0
ENDBLK
  5
1CF
  8
0
  0
BLOCK
  8
0
  2
CLUMP50
 70
     0
 10
0.0
 20
0.0
 30
0.0
  3
CLUMP50
  1

  0
ARC
  5
1D3
  8
┌▓È_1
 10
101.1271871367
 20
105.4643667218
 30
0.0
 40
3.5
 50
90.0
 51
270.0
  0
LINE
  5
1D4
  8
┌▓È_1
 10
116.1271871367
 20
101.9643667218
 30
0.0
 11
101.1271871367
 21
101.9643667218
 31
0.0
  0
LINE
  5
1D5
  8
┌▓È_1
 10
101.1271871367
 20
108.9643667218
 30
0.0
 11
116.1271871367
 21
108.9643667218
 31
0.0
  0
ARC
  5
1D6
  8
┌▓È_1
 10
116.1271871367
 20
105.4643667218
 30
0.0
 40
3.5
 50
270.0
 51
90.0
  0
ENDBLK
  5
1D7
  8
0
  0
BLOCK
  8
0
  2
CLUMP51
 70
     0
 10
0.0
 20
0.0
 30
0.0
  3
CLUMP51
  1

  0
ARC
  5
1DB
  8
┌▓È_1
 10
101.1271871367
 20
183.46436672179999
 30
0.0
 40
3.5
 50
90.0
 51
270.0
  0
LINE
  5
1DC
  8
┌▓È_1
 10
116.1271871367
 20
186.96436672179999
 30
0.0
 11
101.1271871367
 21
186.96436672179999
 31
0.0
  0
LINE
  5
1DD
  8
┌▓È_1
 10
101.1271871367
 20
179.96436672179999
 30
0.0
 11
116.1271871367
 21
179.96436672179999
 31
0.0
  0
ARC
  5
1DE
  8
┌▓È_1
 10
116.1271871367
 20
183.46436672179999
 30
0.0
 40
3.5
 50
270.0
 51
90.0
  0
ENDBLK
  5
1DF
  8
0
  0
BLOCK
  8
0
  2
CLUMP52
 70
     0
 10
0.0
 20
0.0
 30
0.0
  3
CLUMP52
  1

  0
ARC
  5
1E3
  8
┌▓È_1
 10
101.1271871367
 20
168.46436672179999
 30
0.0
 40
3.5
 50
90.0
 51
270.0
  0
LINE
  5
1E4
  8
┌▓È_1
 10
116.1271871367
 20
171.96436672179999
 30
0.0
 11
101.1271871367
 21
171.96436672179999
 31
0.0
  0
LINE
  5
1E5
  8
┌▓È_1
 10
101.1271871367
 20
164.96436672179999
 30
0.0
 11
116.1271871367
 21
164.96436672179999
 31
0.0
  0
ARC
  5
1E6
  8
┌▓È_1
 10
116.1271871367
 20
168.46436672179999
 30
0.0
 40
3.5
 50
270.0
 51
90.0
  0
ENDBLK
  5
1E7
  8
0
  0
BLOCK
  8
0
  2
CLUMP53
 70
     0
 10
0.0
 20
0.0
 30
0.0
  3
CLUMP53
  1

  0
INSERT
  5
1ED
  8
┌▓È_1
  2
CLUMP54
 10
0.0
 20
0.0
 30
0.0
  0
INSERT
  5
1F5
  8
┌▓È_1
  2
CLUMP55
 10
0.0
 20
0.0
 30
0.0
  0
INSERT
  5
1FD
  8
┌▓È_1
  2
CLUMP56
 10
0.0
 20
0.0
 30
0.0
  0
INSERT
  5
205
  8
┌▓È_1
  2
CLUMP57
 10
0.0
 20
0.0
 30
0.0
  0
ENDBLK
  5
20C
  8
0
  0
BLOCK
  8
0
  2
CLUMP54
 70
     0
 10
0.0
 20
0.0
 30
0.0
  3
CLUMP54
  1

  0
ARC
  5
1EF
  8
┌▓È_1
 10
26.127187136700002
 20
105.4643667218
 30
0.0
 40
3.5
 50
90.0
 51
270.0
  0
LINE
  5
1F0
  8
┌▓È_1
 10
41.127187136700002
 20
101.9643667218
 30
0.0
 11
26.127187136700002
 21
101.9643667218
 31
0.0
  0
LINE
  5
1F1
  8
┌▓È_1
 10
26.127187136700002
 20
108.9643667218
 30
0.0
 11
41.127187136700002
 21
108.9643667218
 31
0.0
  0
ARC
  5
1F2
  8
┌▓È_1
 10
41.127187136700002
 20
105.4643667218
 30
0.0
 40
3.5
 50
270.0
 51
90.0
  0
ENDBLK
  5
1F3
  8
0
  0
BLOCK
  8
0
  2
CLUMP55
 70
     0
 10
0.0
 20
0.0
 30
0.0
  3
CLUMP55
  1

  0
ARC
  5
1F7
  8
┌▓È_1
 10
26.127187136700002
 20
90.464366721800005
 30
0.0
 40
3.5
 50
90.0
 51
270.0
  0
LINE
  5
1F8
  8
┌▓È_1
 10
41.127187136700002
 20
86.964366721800005
 30
0.0
 11
26.127187136700002
 21
86.964366721800005
 31
0.0
  0
ARC
  5
1F9
  8
┌▓È_1
 10
41.127187136700002
 20
90.464366721800005
 30
0.0
 40
3.5
 50
270.0
 51
90.0
  0
LINE
  5
1FA
  8
┌▓È_1
 10
26.127187136700002
 20
93.964366721800005
 30
0.0
 11
41.127187136700002
 21
93.964366721800005
 31
0.0
  0
ENDBLK
  5
1FB
  8
0
  0
BLOCK
  8
0
  2
CLUMP56
 70
     0
 10
0.0
 20
0.0
 30
0.0
  3
CLUMP56
  1

  0
ARC
  5
1FF
  8
┌▓È_1
 10
26.127187136700002
 20
168.46436672179999
 30
0.0
 40
3.5
 50
90.0
 51
270.0
  0
LINE
  5
200
  8
┌▓È_1
 10
41.127187136700002
 20
171.96436672179999
 30
0.0
 11
26.127187136700002
 21
171.96436672179999
 31
0.0
  0
LINE
  5
201
  8
┌▓È_1
 10
26.127187136700002
 20
164.96436672179999
 30
0.0
 11
41.127187136700002
 21
164.96436672179999
 31
0.0
  0
ARC
  5
202
  8
┌▓È_1
 10
41.127187136700002
 20
168.46436672179999
 30
0.0
 40
3.5
 50
270.0
 51
90.0
  0
ENDBLK
  5
203
  8
0
  0
BLOCK
  8
0
  2
CLUMP57
 70
     0
 10
0.0
 20
0.0
 30
0.0
  3
CLUMP57
  1

  0
ARC
  5
207
  8
┌▓È_1
 10
26.127187136700002
 20
183.46436672179999
 30
0.0
 40
3.5
 50
90.0
 51
270.0
  0
LINE
  5
208
  8
┌▓È_1
 10
41.127187136700002
 20
186.96436672179999
 30
0.0
 11
26.127187136700002
 21
186.96436672179999
 31
0.0
  0
LINE
  5
209
  8
┌▓È_1
 10
26.127187136700002
 20
179.96436672179999
 30
0.0
 11
41.127187136700002
 21
179.96436672179999
 31
0.0
  0
ARC
  5
20A
  8
┌▓È_1
 10
41.127187136700002
 20
183.46436672179999
 30
0.0
 40
3.5
 50
270.0
 51
90.0
  0
ENDBLK
  5
20B
  8
0
  0
BLOCK
  8
0
  2
BALLON0
 70
     0
 10
0.0
 20
0.0
 30
0.0
  3
BALLON0
  1

  0
INSERT
  5
214
  8
0
  6
CONTINUOUS
  2
*U158
 10
0.0
 20
0.0
 30
0.0
  0
CIRCLE
  5
215
  8
┌▓È_1
 10
-201.41382064570001
 20
26.144759886900001
 30
0.0
 40
10.0
  0
LINE
  5
216
  8
Éíû@É³
 10
-184.74715397910001
 20
26.144759886900001
 30
0.0
 11
-191.41382064570001
 21
26.144759886900001
 31
0.0
  0
LINE
  5
217
  8
Éíû@É³
 10
-150.07308369660001
 20
-30.484176375400001
 30
0.0
 11
-184.74715397910001
 21
26.144759886900001
 31
0.0
  0
SOLID
  5
218
  8
Éíû@É³
 10
-150.07308369660001
 20
-30.484176375400001
 30
0.0
 11
-157.00064143719999
 21
-23.000264046200002
 31
0.0
 12
-154.2506031387
 22
-23.661542623599999
 32
0.0
 13
-154.2506031387
 23
-23.661542623599999
 33
0.0
  0
SOLID
  5
219
  8
Éíû@É³
 10
-154.2506031387
 20
-23.661542623599999
 30
0.0
 11
-153.5893245613
 21
-20.911504325199999
 31
0.0
 12
-150.07308369660001
 22
-30.484176375400001
 32
0.0
 13
-150.07308369660001
 23
-30.484176375400001
 33
0.0
  0
ENDBLK
  5
21A
  8
0
  0
BLOCK
  8
0
  2
BALLON1
 70
     0
 10
0.0
 20
0.0
 30
0.0
  3
BALLON1
  1

  0
INSERT
  5
21E
  8
0
  6
CONTINUOUS
  2
*U159
 10
0.0
 20
0.0
 30
0.0
  0
CIRCLE
  5
21F
  8
┌▓È_1
 10
-110.5448935925
 20
26.144759886900001
 30
0.0
 40
10.0
  0
LINE
  5
220
  8
Éíû@É³
 10
-93.878226925800007
 20
26.144759886900001
 30
0.0
 11
-100.5448935925
 21
26.144759886900001
 31
0.0
  0
LINE
  5
221
  8
Éíû@É³
 10
-74.333792886799998
 20
-7.5683586027
 30
0.0
 11
-93.878226925800007
 21
26.144759886900001
 31
0.0
  0
SOLID
  5
222
  8
Éíû@É³
 10
-74.333792886799998
 20
-7.5683586027
 30
0.0
 11
-81.079478655700001
 21
0.0798910995
 31
0.0
 12
-78.346128139499996
 22
-0.6472917904
 32
0.0
 13
-78.346128139499996
 23
-0.6472917904
 33
0.0
  0
SOLID
  5
223
  8
Éíû@É³
 10
-78.346128139499996
 20
-0.6472917904
 30
0.0
 11
-77.618945249600003
 21
2.0860587259000001
 31
0.0
 12
-74.333792886799998
 22
-7.5683586027
 32
0.0
 13
-74.333792886799998
 23
-7.5683586027
 33
0.0
  0
ENDBLK
  5
224
  8
0
  0
BLOCK
  8
0
  2
CLUMP58
 70
     0
 10
0.0
 20
0.0
 30
0.0
  3
CLUMP58
  1

  0
INSERT
  5
22D
  8
┌▓È_1
  2
CLUMP59
 10
0.0
 20
0.0
 30
0.0
  0
INSERT
  5
235
  8
┌▓È_1
  2
CLUMP60
 10
0.0
 20
0.0
 30
0.0
  0
INSERT
  5
23D
  8
┌▓È_1
  2
CLUMP61
 10
0.0
 20
0.0
 30
0.0
  0
INSERT
  5
245
  8
┌▓È_1
  2
CLUMP62
 10
0.0
 20
0.0
 30
0.0
  0
ENDBLK
  5
24C
  8
0
  0
BLOCK
  8
0
  2
CLUMP59
 70
     0
 10
0.0
 20
0.0
 30
0.0
  3
CLUMP59
  1

  0
ARC
  5
22F
  8
┌▓È_1
 10
-143.24472609029999
 20
-259.59144714429999
 30
0.0
 40
3.5
 50
90.0
 51
270.0
  0
LINE
  5
230
  8
┌▓È_1
 10
-128.24472609029999
 20
-263.09144714429999
 30
0.0
 11
-143.24472609029999
 21
-263.09144714429999
 31
0.0
  0
ARC
  5
231
  8
┌▓È_1
 10
-128.24472609029999
 20
-259.59144714429999
 30
0.0
 40
3.5
 50
270.0
 51
90.0
  0
LINE
  5
232
  8
┌▓È_1
 10
-143.24472609029999
 20
-256.09144714429999
 30
0.0
 11
-128.24472609029999
 21
-256.09144714429999
 31
0.0
  0
ENDBLK
  5
233
  8
0
  0
BLOCK
  8
0
  2
CLUMP60
 70
     0
 10
0.0
 20
0.0
 30
0.0
  3
CLUMP60
  1

  0
ARC
  5
237
  8
┌▓È_1
 10
-143.24472609029999
 20
-244.59144714429999
 30
0.0
 40
3.5
 50
90.0
 51
270.0
  0
LINE
  5
238
  8
┌▓È_1
 10
-128.24472609029999
 20
-248.09144714429999
 30
0.0
 11
-143.24472609029999
 21
-248.09144714429999
 31
0.0
  0
LINE
  5
239
  8
┌▓È_1
 10
-143.24472609029999
 20
-241.09144714429999
 30
0.0
 11
-128.24472609029999
 21
-241.09144714429999
 31
0.0
  0
ARC
  5
23A
  8
┌▓È_1
 10
-128.24472609029999
 20
-244.59144714429999
 30
0.0
 40
3.5
 50
270.0
 51
90.0
  0
ENDBLK
  5
23B
  8
0
  0
BLOCK
  8
0
  2
CLUMP61
 70
     0
 10
0.0
 20
0.0
 30
0.0
  3
CLUMP61
  1

  0
ARC
  5
23F
  8
┌▓È_1
 10
-143.24472609029999
 20
-166.59144714429999
 30
0.0
 40
3.5
 50
90.0
 51
270.0
  0
LINE
  5
240
  8
┌▓È_1
 10
-128.24472609029999
 20
-163.09144714429999
 30
0.0
 11
-143.24472609029999
 21
-163.09144714429999
 31
0.0
  0
LINE
  5
241
  8
┌▓È_1
 10
-143.24472609029999
 20
-170.09144714429999
 30
0.0
 11
-128.24472609029999
 21
-170.09144714429999
 31
0.0
  0
ARC
  5
242
  8
┌▓È_1
 10
-128.24472609029999
 20
-166.59144714429999
 30
0.0
 40
3.5
 50
270.0
 51
90.0
  0
ENDBLK
  5
243
  8
0
  0
BLOCK
  8
0
  2
CLUMP62
 70
     0
 10
0.0
 20
0.0
 30
0.0
  3
CLUMP62
  1

  0
ARC
  5
247
  8
┌▓È_1
 10
-143.24472609029999
 20
-181.59144714429999
 30
0.0
 40
3.5
 50
90.0
 51
270.0
  0
LINE
  5
248
  8
┌▓È_1
 10
-128.24472609029999
 20
-178.09144714429999
 30
0.0
 11
-143.24472609029999
 21
-178.09144714429999
 31
0.0
  0
LINE
  5
249
  8
┌▓È_1
 10
-143.24472609029999
 20
-185.09144714429999
 30
0.0
 11
-128.24472609029999
 21
-185.09144714429999
 31
0.0
  0
ARC
  5
24A
  8
┌▓È_1
 10
-128.24472609029999
 20
-181.59144714429999
 30
0.0
 40
3.5
 50
270.0
 51
90.0
  0
ENDBLK
  5
24B
  8
0
  0
BLOCK
  8
0
  2
CLUMP63
 70
     0
 10
0.0
 20
0.0
 30
0.0
  3
CLUMP63
  1

  0
INSERT
  5
251
  8
┌▓È_1
  2
CLUMP64
 10
0.0
 20
0.0
 30
0.0
  0
INSERT
  5
259
  8
┌▓È_1
  2
CLUMP65
 10
0.0
 20
0.0
 30
0.0
  0
INSERT
  5
261
  8
┌▓È_1
  2
CLUMP66
 10
0.0
 20
0.0
 30
0.0
  0
INSERT
  5
269
  8
┌▓È_1
  2
CLUMP67
 10
0.0
 20
0.0
 30
0.0
  0
ENDBLK
  5
270
  8
0
  0
BLOCK
  8
0
  2
CLUMP64
 70
     0
 10
0.0
 20
0.0
 30
0.0
  3
CLUMP64
  1

  0
ARC
  5
253
  8
┌▓È_1
 10
-68.244726090299991
 20
-259.59144714429999
 30
0.0
 40
3.5
 50
90.0
 51
270.0
  0
LINE
  5
254
  8
┌▓È_1
 10
-53.244726090299991
 20
-263.09144714429999
 30
0.0
 11
-68.244726090299991
 21
-263.09144714429999
 31
0.0
  0
ARC
  5
255
  8
┌▓È_1
 10
-53.244726090299991
 20
-259.59144714429999
 30
0.0
 40
3.5
 50
270.0
 51
90.0
  0
LINE
  5
256
  8
┌▓È_1
 10
-68.244726090299991
 20
-256.09144714429999
 30
0.0
 11
-53.244726090299991
 21
-256.09144714429999
 31
0.0
  0
ENDBLK
  5
257
  8
0
  0
BLOCK
  8
0
  2
CLUMP65
 70
     0
 10
0.0
 20
0.0
 30
0.0
  3
CLUMP65
  1

  0
ARC
  5
25B
  8
┌▓È_1
 10
-68.244726090299991
 20
-244.59144714429999
 30
0.0
 40
3.5
 50
90.0
 51
270.0
  0
LINE
  5
25C
  8
┌▓È_1
 10
-53.244726090299991
 20
-248.09144714429999
 30
0.0
 11
-68.244726090299991
 21
-248.09144714429999
 31
0.0
  0
LINE
  5
25D
  8
┌▓È_1
 10
-68.244726090299991
 20
-241.09144714429999
 30
0.0
 11
-53.244726090299991
 21
-241.09144714429999
 31
0.0
  0
ARC
  5
25E
  8
┌▓È_1
 10
-53.244726090299991
 20
-244.59144714429999
 30
0.0
 40
3.5
 50
270.0
 51
90.0
  0
ENDBLK
  5
25F
  8
0
  0
BLOCK
  8
0
  2
CLUMP66
 70
     0
 10
0.0
 20
0.0
 30
0.0
  3
CLUMP66
  1

  0
ARC
  5
263
  8
┌▓È_1
 10
-68.244726090299991
 20
-166.59144714429999
 30
0.0
 40
3.5
 50
90.0
 51
270.0
  0
LINE
  5
264
  8
┌▓È_1
 10
-53.244726090299991
 20
-163.09144714429999
 30
0.0
 11
-68.244726090299991
 21
-163.09144714429999
 31
0.0
  0
LINE
  5
265
  8
┌▓È_1
 10
-68.244726090299991
 20
-170.09144714429999
 30
0.0
 11
-53.244726090299991
 21
-170.09144714429999
 31
0.0
  0
ARC
  5
266
  8
┌▓È_1
 10
-53.244726090299991
 20
-166.59144714429999
 30
0.0
 40
3.5
 50
270.0
 51
90.0
  0
ENDBLK
  5
267
  8
0
  0
BLOCK
  8
0
  2
CLUMP67
 70
     0
 10
0.0
 20
0.0
 30
0.0
  3
CLUMP67
  1

  0
ARC
  5
26B
  8
┌▓È_1
 10
-68.244726090299991
 20
-181.59144714429999
 30
0.0
 40
3.5
 50
90.0
 51
270.0
  0
LINE
  5
26C
  8
┌▓È_1
 10
-53.244726090299991
 20
-178.09144714429999
 30
0.0
 11
-68.244726090299991
 21
-178.09144714429999
 31
0.0
  0
LINE
  5
26D
  8
┌▓È_1
 10
-68.244726090299991
 20
-185.09144714429999
 30
0.0
 11
-53.244726090299991
 21
-185.09144714429999
 31
0.0
  0
ARC
  5
26E
  8
┌▓È_1
 10
-53.244726090299991
 20
-181.59144714429999
 30
0.0
 40
3.5
 50
270.0
 51
90.0
  0
ENDBLK
  5
26F
  8
0
  0
BLOCK
  8
0
  2
CLUMP68
 70
     0
 10
0.0
 20
0.0
 30
0.0
  3
CLUMP68
  1

  0
ARC
  5
276
  8
┌▓È_1
 10
-105.74472609030001
 20
-213.09144714429999
 30
0.0
 40
3.5
 50
90.0
 51
270.0
  0
LINE
  5
277
  8
┌▓È_1
 10
-90.744726090300006
 20
-209.59144714429999
 30
0.0
 11
-105.74472609030001
 21
-209.59144714429999
 31
0.0
  0
LINE
  5
278
  8
┌▓È_1
 10
-105.74472609030001
 20
-216.59144714429999
 30
0.0
 11
-90.744726090300006
 21
-216.59144714429999
 31
0.0
  0
ARC
  5
279
  8
┌▓È_1
 10
-90.744726090300006
 20
-213.09144714429999
 30
0.0
 40
3.5
 50
270.0
 51
90.0
  0
ENDBLK
  5
27A
  8
0
  0
BLOCK
  8
0
  2
CLUMP69
 70
     0
 10
0.0
 20
0.0
 30
0.0
  3
CLUMP69
  1

  0
ARC
  5
27E
  8
┌▓È_1
 10
-30.744726090299999
 20
-213.09144714429999
 30
0.0
 40
3.5
 50
90.0
 51
270.0
  0
LINE
  5
27F
  8
┌▓È_1
 10
-15.7447260903
 20
-209.59144714429999
 30
0.0
 11
-30.744726090299999
 21
-209.59144714429999
 31
0.0
  0
LINE
  5
280
  8
┌▓È_1
 10
-30.744726090299999
 20
-216.59144714429999
 30
0.0
 11
-15.7447260903
 21
-216.59144714429999
 31
0.0
  0
ARC
  5
281
  8
┌▓È_1
 10
-15.7447260903
 20
-213.09144714429999
 30
0.0
 40
3.5
 50
270.0
 51
90.0
  0
ENDBLK
  5
282
  8
0
  0
BLOCK
  8
0
  2
*D75
 70
     1
 10
0.0
 20
0.0
 30
0.0
  3
*D75
  1

  0
TEXT
  5
291
  8
0
 62
     0
 10
-209.5256250418
 20
-245.67473600829999
 30
0.0
 40
9.8954164504999991
  1
2-â│15
 50
26.776143397399998
  0
LINE
  5
292
  8
0
 62
     0
 10
-142.47382454940001
 20
-216.40343052700001
 30
0.0
 11
-207.69000145359999
 21
-249.3124158537
 31
0.0
  0
SOLID
  5
293
  8
0
 62
     0
 10
-142.47382454940001
 20
-216.40343052700001
 30
0.0
 11
-149.4951476688
 21
-222.4667234982
 31
0.0
 12
-151.5224239941
 22
-218.44924285720001
 32
0.0
 13
-148.50004551090001
 23
-219.44434501500001
 33
0.0
  0
ENDBLK
  5
294
  8
0
  0
BLOCK
  8
0
  2
CLUMP70
 70
     0
 10
0.0
 20
0.0
 30
0.0
  3
CLUMP70
  1

  0
LINE
  5
29B
  8
É}ÿg
 10
719.00600002520002
 20
-344.00100004000001
 30
0.0
 11
719.00600002520002
 21
-329.00100004000001
 31
0.0
  0
LINE
  5
29C
  8
É}ÿg
 10
542.00600002519991
 20
-344.00100004000001
 30
0.0
 11
542.00600002519991
 21
-329.00100004000001
 31
0.0
  0
LINE
  5
29D
  8
É}ÿg
 10
569.00600002519991
 20
-344.00100004000001
 30
0.0
 11
569.00600002519991
 21
-329.00100004000001
 31
0.0
  0
LINE
  5
29E
  8
É}ÿg
 10
884.00600002520002
 20
-344.00100004000001
 30
0.0
 11
884.00600002520002
 21
-329.00100004000001
 31
0.0
  0
LINE
  5
29F
  8
É}ÿg
 10
857.00600002520002
 20
-344.00100004000001
 30
0.0
 11
857.00600002520002
 21
-329.00100004000001
 31
0.0
  0
LINE
  5
2A0
  8
É}ÿg
 10
977.00600002520002
 20
-329.00100004000001
 30
0.0
 11
542.00600002519991
 21
-329.00100004000001
 31
0.0
  0
ENDBLK
  5
2A1
  8
0
  0
BLOCK
  8
0
  2
CLUMP71
 70
     0
 10
0.0
 20
0.0
 30
0.0
  3
CLUMP71
  1

  0
LINE
  5
2A8
  8
É}ÿg
 10
716.96975767189986
 20
-480.27098113929998
 30
0.0
 11
719.96975767189997
 21
-475.77098113929998
 31
0.0
  0
LINE
  5
2A9
  8
É}ÿg
 10
672.98793949010008
 20
-475.77098113929998
 30
0.0
 11
672.98793949010008
 21
-481.77098113929992
 31
0.0
  0
LINE
  5
2AA
  8
É}ÿg
 10
744.16902842240006
 20
-486.27098113929992
 30
0.0
 11
753.62220561679976
 21
-486.27098113929992
 31
0.0
  0
LINE
  5
2AB
  8
É}ÿg
 10
692.96975767189986
 20
-496.77098113929998
 30
0.0
 11
700.46975767189986
 21
-496.77098113929998
 31
0.0
  0
LINE
  5
2AC
  8
É}ÿg
 10
692.96975767189986
 20
-482.73731194179987
 30
0.0
 11
704.96975767189986
 21
-482.73731194179987
 31
0.0
  0
INSERT
  5
2AD
  8
0
  6
CONTINUOUS
  2
*U165
 10
0.0
 20
0.0
 30
0.0
  0
LINE
  5
2AE
  8
É}ÿg
 62
     5
 10
767.00600002520002
 20
291.99899995999999
 30
0.0
 11
767.00600002520002
 21
336.99899995999999
 31
0.0
  0
LINE
  5
2AF
  8
É}ÿg
 62
     5
 10
917.00600002520002
 20
291.99899995999999
 30
0.0
 11
917.00600002520002
 21
336.99899995999999
 31
0.0
  0
LINE
  5
2B0
  8
É}ÿg
 62
     5
 10
719.00600002520002
 20
291.99899995999999
 30
0.0
 11
719.00600002520002
 21
336.99899995999999
 31
0.0
  0
LINE
  5
2B1
  8
É}ÿg
 62
     5
 10
698.72814386710002
 20
308.29137521299998
 30
0.0
 11
713.57814386710004
 21
308.29137521299998
 31
0.0
  0
LINE
  5
2B2
  8
É}ÿg
 62
     5
 10
706.15314386710008
 20
306.30185245920001
 30
0.0
 11
713.57814386710004
 21
293.44137521300001
 31
0.0
  0
LINE
  5
2B3
  8
É}ÿg
 62
     5
 10
695.00600002520002
 20
291.99899995999999
 30
0.0
 11
695.00600002520002
 21
336.99899995999999
 31
0.0
  0
LINE
  5
2B4
  8
É}ÿg
 62
     5
 10
947.00600002520014
 20
291.99899995999999
 30
0.0
 11
947.00600002520014
 21
336.99899995999999
 31
0.0
  0
LINE
  5
2B5
  8
É}ÿg
 62
     5
 10
695.00600002520002
 20
321.99899995999999
 30
0.0
 11
977.00600002520002
 21
321.99899995999999
 31
0.0
  0
LINE
  5
2B6
  8
É}ÿg
 62
     5
 10
695.00600002520002
 20
306.99899995999999
 30
0.0
 11
977.00600002520002
 21
306.99899995999999
 31
0.0
  0
LINE
  5
2B7
  8
É}ÿg
 62
     5
 10
695.00600002520002
 20
291.99899995999999
 30
0.0
 11
977.00600002520002
 21
291.99899995999999
 31
0.0
  0
INSERT
  5
2B8
  8
0
  6
CONTINUOUS
  2
*U166
 10
0.0
 20
0.0
 30
0.0
  0
LINE
  5
2B9
  8
É}ÿg
 62
     5
 10
-222.9939999748
 20
-503.00100003999989
 30
0.0
 11
-222.9939999748
 21
336.99899995999999
 31
0.0
  0
LINE
  5
2BA
  8
É}ÿg
 62
     5
 10
-222.9939999748
 20
-503.00100003999989
 30
0.0
 11
977.00600002520002
 21
-503.00100003999989
 31
0.0
  0
LINE
  5
2BB
  8
É}ÿg
 62
     5
 10
977.00600002520002
 20
336.99899995999999
 30
0.0
 11
-222.9939999748
 21
336.99899995999999
 31
0.0
  0
LINE
  5
2BC
  8
É}ÿg
 62
     5
 10
977.00600002520002
 20
-503.00100003999989
 30
0.0
 11
977.00600002520002
 21
336.99899995999999
 31
0.0
  0
LINE
  5
2BD
  8
É}ÿg
 10
692.96975767189986
 20
-483.7036427441999
 30
0.0
 11
692.96975767189986
 21
-482.73731194179987
 31
0.0
  0
LINE
  5
2BE
  8
É}ÿg
 10
656.03462805540005
 20
-481.77098113929992
 30
0.0
 11
656.03462805540005
 21
-486.27098113929992
 31
0.0
  0
LINE
  5
2BF
  8
É}ÿg
 62
     5
 10
706.15314386710008
 20
321.15185245919997
 30
0.0
 11
713.57814386710004
 21
308.29137521299998
 31
0.0
  0
LINE
  5
2C0
  8
É}ÿg
 62
     5
 10
706.15314386710008
 20
306.30185245920001
 30
0.0
 11
698.72814386710002
 21
293.44137521300001
 31
0.0
  0
INSERT
  5
2C1
  8
0
  6
CONTINUOUS
  2
*U167
 10
0.0
 20
0.0
 30
0.0
  0
LINE
  5
2C2
  8
É}ÿg
  6
DOT
 10
-237.9339999748
 20
-515.69100003999995
 30
0.0
 11
-237.9339999748
 21
349.68899995999999
 31
0.0
  0
LINE
  5
2C3
  8
É}ÿg
  6
DOT
 10
991.94600002519996
 20
-515.69100003999995
 30
0.0
 11
991.94600002519996
 21
349.68899995999999
 31
0.0
  0
LINE
  5
2C4
  8
É}ÿg
  6
DOT
 10
-237.9339999748
 20
-515.69100003999995
 30
0.0
 11
991.94600002519996
 21
-515.69100003999995
 31
0.0
  0
LINE
  5
2C5
  8
É}ÿg
 10
666.98793949009996
 20
-490.77098113929992
 30
0.0
 11
666.98793949009996
 21
-486.27098113929992
 31
0.0
  0
LINE
  5
2C6
  8
É}ÿg
  6
DOT
 10
991.94600002519996
 20
349.68899995999999
 30
0.0
 11
-237.9339999748
 21
349.68899995999999
 31
0.0
  0
LINE
  5
2C7
  8
É}ÿg
 10
659.48793949009996
 20
-486.27098113929992
 30
0.0
 11
659.48793949009996
 21
-490.77098113929992
 31
0.0
  0
LINE
  5
2C8
  8
É}ÿg
 10
680.48793949009996
 20
-480.27098113929998
 30
0.0
 11
684.98793949010008
 21
-475.77098113929998
 31
0.0
  0
LINE
  5
2C9
  8
É}ÿg
 10
736.40620561679987
 20
-488.67098113930001
 30
0.0
 11
735.7022056167998
 21
-486.27098113929992
 31
0.0
  0
LINE
  5
2CA
  8
É}ÿg
 10
666.98793949009996
 20
-481.77098113929992
 30
0.0
 11
666.98793949009996
 21
-480.27098113929998
 31
0.0
  0
LINE
  5
2CB
  8
É}ÿg
 10
713.5579157282001
 20
-490.31837476620001
 30
0.0
 11
713.0236095488001
 21
-490.8415091988
 31
0.0
  0
LINE
  5
2CC
  8
É}ÿg
 10
716.96975767189986
 20
-480.27098113929998
 30
0.0
 11
719.96975767189997
 21
-475.77098113929998
 31
0.0
  0
LINE
  5
2CD
  8
É}ÿg
 10
753.62220561679976
 20
-488.67098113930001
 30
0.0
 11
753.62220561679976
 21
-494.07098113929987
 31
0.0
  0
LINE
  5
2CE
  8
É}ÿg
 10
719.96975767189997
 20
-492.27098113929998
 30
0.0
 11
719.96975767189997
 21
-496.77098113929998
 31
0.0
  0
LINE
  5
2CF
  8
É}ÿg
 10
742.61509868490009
 20
-480.8709811393
 30
0.0
 11
753.62220561679976
 21
-480.8709811393
 31
0.0
  0
LINE
  5
2D0
  8
É}ÿg
 10
742.61509868490009
 20
-480.8709811393
 30
0.0
 11
742.17591593420002
 21
-479.34479446789999
 31
0.0
  0
LINE
  5
2D1
  8
É}ÿg
 10
719.96975767189997
 20
-475.77098113929998
 30
0.0
 11
692.96975767189986
 21
-475.77098113929998
 31
0.0
  0
INSERT
  5
2D2
  8
0
  6
CONTINUOUS
  2
*U168
 10
0.0
 20
0.0
 30
0.0
  0
LINE
  5
2D3
  8
É}ÿg
 10
739.2222056167999
 20
-498.27098113929992
 30
0.0
 11
737.99020561679993
 21
-494.07098113929987
 31
0.0
  0
LINE
  5
2D4
  8
É}ÿg
 10
668.48793949010008
 20
-492.27098113929998
 30
0.0
 11
659.48793949009996
 21
-492.27098113929998
 31
0.0
  0
LINE
  5
2D5
  8
É}ÿg
 10
692.96975767189986
 20
-481.17098113930001
 30
0.0
 11
707.96975767189997
 21
-481.17098113930001
 31
0.0
  0
LINE
  5
2D6
  8
É}ÿg
 10
733.66375256029994
 20
-416.90100003999999
 30
0.0
 11
748.06375256030003
 21
-413.30100004000002
 31
0.0
  0
CIRCLE
  5
2D7
  8
É}ÿg
 10
717.20600002520007
 20
-420.50100003999989
 30
0.0
 40
7.2000000000000002
  0
INSERT
  5
2D8
  8
0
  6
CONTINUOUS
  2
*U169
 10
0.0
 20
0.0
 30
0.0
  0
LINE
  5
2D9
  8
É}ÿg
 10
666.98793949009996
 20
-486.27098113929992
 30
0.0
 11
672.98793949010008
 21
-486.27098113929992
 31
0.0
  0
LINE
  5
2DA
  8
É}ÿg
 10
726.62220561679987
 20
-486.27098113929992
 30
0.0
 11
735.7022056167998
 21
-486.27098113929992
 31
0.0
  0
LINE
  5
2DB
  8
É}ÿg
 10
684.98793949010008
 20
-481.77098113929992
 30
0.0
 11
680.48793949009996
 21
-481.77098113929992
 31
0.0
  0
LINE
  5
2DC
  8
É}ÿg
 10
680.48793949009996
 20
-481.77098113929992
 30
0.0
 11
680.48793949009996
 21
-480.27098113929998
 31
0.0
  0
LINE
  5
2DD
  8
É}ÿg
 10
726.62220561679987
 20
-480.8709811393
 30
0.0
 11
734.11820561679986
 21
-480.8709811393
 31
0.0
  0
LINE
  5
2DE
  8
É}ÿg
 10
742.17591593420002
 20
-479.34479446789999
 30
0.0
 11
744.62220561679976
 21
-475.77098113929998
 31
0.0
  0
LINE
  5
2DF
  8
É}ÿg
 10
692.96975767189986
 20
-496.77098113929998
 30
0.0
 11
692.96975767189986
 21
-492.27098113929998
 31
0.0
  0
LINE
  5
2E0
  8
É}ÿg
 10
767.00600002520002
 20
-404.00100004000001
 30
0.0
 11
767.00600002520002
 21
-503.00100003999989
 31
0.0
  0
INSERT
  5
2E1
  8
0
  6
CONTINUOUS
  2
*U170
 10
0.0
 20
0.0
 30
0.0
  0
INSERT
  5
2E2
  8
0
  6
CONTINUOUS
  2
*U171
 10
0.0
 20
0.0
 30
0.0
  0
INSERT
  5
2E3
  8
0
  6
CONTINUOUS
  2
*U172
 10
0.0
 20
0.0
 30
0.0
  0
LINE
  5
2E4
  8
É}ÿg
 62
     5
 10
698.72814386710002
 20
293.44137521300001
 30
0.0
 11
713.57814386710004
 21
293.44137521300001
 31
0.0
  0
LINE
  5
2E5
  8
É}ÿg
 10
656.03462805540005
 20
-486.27098113929992
 30
0.0
 11
659.03462805540005
 21
-486.27098113929992
 31
0.0
  0
ARC
  5
2E6
  8
É}ÿg
 10
700.46975767189986
 20
-480.27098113929998
 30
0.0
 40
16.5
 50
322.48761197969998
 51
0.0
  0
LINE
  5
2E7
  8
É}ÿg
 10
659.48793949009996
 20
-496.77098113929998
 30
0.0
 11
671.48793949009996
 21
-496.77098113929998
 31
0.0
  0
LINE
  5
2E8
  8
É}ÿg
 10
726.62220561679987
 20
-494.07098113929987
 30
0.0
 11
737.99020561679993
 21
-494.07098113929987
 31
0.0
  0
ARC
  5
2E9
  8
É}ÿg
 10
668.48793949010008
 20
-487.77098113929998
 30
0.0
 40
4.5
 50
270.0
 51
0.0
  0
LINE
  5
2EA
  8
É}ÿg
 10
726.62220561679987
 20
-488.67098113930001
 30
0.0
 11
726.62220561679987
 21
-494.07098113929987
 31
0.0
  0
LINE
  5
2EB
  8
É}ÿg
 10
659.48793949009996
 20
-490.77098113929992
 30
0.0
 11
666.98793949009996
 21
-490.77098113929992
 31
0.0
  0
LINE
  5
2EC
  8
É}ÿg
 10
706.57869514699985
 20
-486.32819385469998
 30
0.0
 11
705.85690772800001
 21
-487.12540893629989
 31
0.0
  0
LINE
  5
2ED
  8
É}ÿg
 10
747.62220561679987
 20
-498.27098113929992
 30
0.0
 11
739.2222056167999
 21
-498.27098113929992
 31
0.0
  0
LINE
  5
2EE
  8
É}ÿg
 10
672.98793949010008
 20
-486.27098113929992
 30
0.0
 11
672.98793949010008
 21
-487.77098113929998
 31
0.0
  0
LINE
  5
2EF
  8
É}ÿg
 10
977.00600002520002
 20
-404.00100004000001
 30
0.0
 11
542.00600002519991
 21
-404.00100004000001
 31
0.0
  0
LINE
  5
2F0
  8
É}ÿg
 10
748.06375256030003
 20
-413.30100004000002
 30
0.0
 11
748.06375256030003
 21
-427.70100003999988
 31
0.0
  0
LINE
  5
2F1
  8
É}ÿg
 62
     5
 10
706.15314386710008
 20
321.15185245919997
 30
0.0
 11
698.72814386710002
 21
308.29137521299998
 31
0.0
  0
LINE
  5
2F2
  8
É}ÿg
 10
684.98793949010008
 20
-475.77098113929998
 30
0.0
 11
672.98793949010008
 21
-475.77098113929998
 31
0.0
  0
LINE
  5
2F3
  8
É}ÿg
 10
680.48793949009996
 20
-487.77098113929998
 30
0.0
 11
680.48793949009996
 21
-486.27098113929992
 31
0.0
  0
LINE
  5
2F4
  8
É}ÿg
 10
726.62220561679987
 20
-480.8709811393
 30
0.0
 11
726.62220561679987
 21
-486.27098113929992
 31
0.0
  0
LINE
  5
2F5
  8
É}ÿg
 10
672.98793949010008
 20
-481.77098113929992
 30
0.0
 11
666.98793949009996
 21
-481.77098113929992
 31
0.0
  0
LINE
  5
2F6
  8
É}ÿg
 10
671.48793949009996
 20
-475.77098113929998
 30
0.0
 11
659.48793949009996
 21
-475.77098113929998
 31
0.0
  0
LINE
  5
2F7
  8
É}ÿg
 10
666.98793949009996
 20
-480.27098113929998
 30
0.0
 11
671.48793949009996
 21
-475.77098113929998
 31
0.0
  0
LINE
  5
2F8
  8
É}ÿg
 10
659.48793949009996
 20
-475.77098113929998
 30
0.0
 11
659.48793949009996
 21
-481.77098113929992
 31
0.0
  0
LINE
  5
2F9
  8
É}ÿg
 10
746.4135935987
 20
-494.07098113929987
 30
0.0
 11
753.62220561679976
 21
-494.07098113929987
 31
0.0
  0
LINE
  5
2FA
  8
É}ÿg
 10
734.11820561679986
 20
-480.8709811393
 30
0.0
 11
732.62220561679976
 21
-475.77098113929998
 31
0.0
  0
LINE
  5
2FB
  8
É}ÿg
 10
726.62220561679987
 20
-488.67098113930001
 30
0.0
 11
736.40620561679987
 21
-488.67098113930001
 31
0.0
  0
LINE
  5
2FC
  8
É}ÿg
 10
744.85966386129996
 20
-488.67098113930001
 30
0.0
 11
744.16902842240006
 21
-486.27098113929992
 31
0.0
  0
ARC
  5
2FD
  8
É}ÿg
 10
696.56975767189999
 20
-480.8709811393
 30
0.0
 40
11.4
 50
270.0
 51
298.08590481520002
  0
INSERT
  5
2FE
  8
0
  6
CONTINUOUS
  2
*U173
 10
0.0
 20
0.0
 30
0.0
  0
LINE
  5
2FF
  8
É}ÿg
 10
549.5060000251998
 20
-420.50100003999989
 30
0.0
 11
609.50600002519991
 21
-420.50100003999989
 31
0.0
  0
LINE
  5
300
  8
É}ÿg
 10
617.00600002519991
 20
-404.00100004000001
 30
0.0
 11
617.00600002519991
 21
-437.00100003999989
 31
0.0
  0
LINE
  5
301
  8
É}ÿg
 10
542.00600002519991
 20
-437.00100003999989
 30
0.0
 11
977.00600002520002
 21
-437.00100003999989
 31
0.0
  0
LINE
  5
302
  8
É}ÿg
 10
692.00600002520002
 20
-404.00100004000001
 30
0.0
 11
692.00600002520002
 21
-437.00100003999989
 31
0.0
  0
LINE
  5
303
  8
É}ÿg
  6
BORDER
 10
717.20600002520007
 20
-409.70100004
 30
0.0
 11
717.20600002520007
 21
-431.30100004000002
 31
0.0
  0
LINE
  5
304
  8
É}ÿg
  6
BORDER
 10
717.20600002520007
 20
-409.70100004
 30
0.0
 11
717.20600002520007
 21
-431.30100004000002
 31
0.0
  0
LINE
  5
305
  8
É}ÿg
 10
753.62220561679976
 20
-480.8709811393
 30
0.0
 11
753.62220561679976
 21
-486.27098113929992
 31
0.0
  0
LINE
  5
306
  8
É}ÿg
 10
624.5060000251998
 20
-420.50100003999989
 30
0.0
 11
684.50600002519991
 21
-420.50100003999989
 31
0.0
  0
INSERT
  5
307
  8
0
  6
CONTINUOUS
  2
*U174
 10
0.0
 20
0.0
 30
0.0
  0
CIRCLE
  5
308
  8
É}ÿg
 10
717.20600002520007
 20
-420.50100003999989
 30
0.0
 40
7.2000000000000002
  0
LINE
  5
309
  8
É}ÿg
 10
733.66375256029994
 20
-416.90100003999999
 30
0.0
 11
748.06375256030003
 21
-413.30100004000002
 31
0.0
  0
INSERT
  5
30A
  8
0
  6
CONTINUOUS
  2
*U175
 10
0.0
 20
0.0
 30
0.0
  0
CIRCLE
  5
30B
  8
É}ÿg
 10
717.20600002520007
 20
-420.50100003999989
 30
0.0
 40
3.6000000000000001
  0
LINE
  5
30C
  8
É}ÿg
 10
747.62220561679987
 20
-498.27098113929992
 30
0.0
 11
746.4135935987
 21
-494.07098113929987
 31
0.0
  0
LINE
  5
30D
  8
É}ÿg
 10
744.85966386129996
 20
-488.67098113930001
 30
0.0
 11
753.62220561679976
 21
-488.67098113930001
 31
0.0
  0
LINE
  5
30E
  8
É}ÿg
 10
692.96975767189986
 20
-492.27098113929998
 30
0.0
 11
696.56975767189999
 21
-492.27098113929998
 31
0.0
  0
LINE
  5
30F
  8
É}ÿg
 10
732.62220561679976
 20
-475.77098113929998
 30
0.0
 11
744.62220561679976
 21
-475.77098113929998
 31
0.0
  0
LINE
  5
310
  8
É}ÿg
 10
659.48793949009996
 20
-481.77098113929992
 30
0.0
 11
656.03462805540005
 21
-481.77098113929992
 31
0.0
  0
LINE
  5
311
  8
É}ÿg
 10
692.96975767189986
 20
-492.27098113929998
 30
0.0
 11
692.96975767189986
 21
-496.77098113929998
 31
0.0
  0
LINE
  5
312
  8
É}ÿg
 10
659.48793949009996
 20
-486.27098113929992
 30
0.0
 11
659.03462805540005
 21
-486.27098113929992
 31
0.0
  0
LINE
  5
313
  8
É}ÿg
 10
659.48793949009996
 20
-492.27098113929998
 30
0.0
 11
659.48793949009996
 21
-496.77098113929998
 31
0.0
  0
ARC
  5
314
  8
É}ÿg
 10
696.56975767189999
 20
-480.8709811393
 30
0.0
 40
11.4
 50
331.39928138329998
 51
358.49204224580001
  0
LINE
  5
315
  8
É}ÿg
 10
680.48793949009996
 20
-486.27098113929992
 30
0.0
 11
684.98793949010008
 21
-486.27098113929992
 31
0.0
  0
ARC
  5
316
  8
É}ÿg
 10
700.46975767189986
 20
-480.27098113929998
 30
0.0
 40
16.5
 50
270.0
 51
302.54495885400001
  0
LINE
  5
317
  8
É}ÿg
 10
733.66375256029994
 20
-424.10100003999997
 30
0.0
 11
748.06375256030003
 21
-427.70100003999988
 31
0.0
  0
LINE
  5
318
  8
É}ÿg
 10
733.66375256029994
 20
-416.90100003999999
 30
0.0
 11
733.66375256029994
 21
-424.10100003999997
 31
0.0
  0
LINE
  5
319
  8
É}ÿg
 10
748.06375256030003
 20
-413.30100004000002
 30
0.0
 11
748.06375256030003
 21
-427.70100003999988
 31
0.0
  0
LINE
  5
31A
  8
É}ÿg
 10
704.96975767189986
 20
-482.73731194179987
 30
0.0
 11
703.27270139710004
 21
-484.43436821659998
 31
0.0
  0
LINE
  5
31B
  8
É}ÿg
  6
BORDER
 10
706.40600002519989
 20
-420.50100003999989
 30
0.0
 11
752.60600002520005
 21
-420.50100003999989
 31
0.0
  0
CIRCLE
  5
31C
  8
É}ÿg
 10
717.20600002520007
 20
-420.50100003999989
 30
0.0
 40
3.6000000000000001
  0
POLYLINE
  8
É}ÿg
  5
8B5
  66
     1
 10
0.000000
 20
0.000000
 30
0.000000
  70
     8
  0
VERTEX
  8
É}ÿg
  5
8B6
 10
713.024
 20
-490.842
 30
0.000000
  70
    32
  0
VERTEX
  8
É}ÿg
  5
8B7
 10
713.076
 20
-490.856
 30
0.000000
  70
    32
  0
VERTEX
  8
É}ÿg
  5
8B8
 10
713.129
 20
-490.871
 30
0.000000
  70
    32
  0
VERTEX
  8
É}ÿg
  5
8B9
 10
713.181
 20
-490.886
 30
0.000000
  70
    32
  0
VERTEX
  8
É}ÿg
  5
8BA
 10
713.234
 20
-490.900
 30
0.000000
  70
    32
  0
VERTEX
  8
É}ÿg
  5
8BB
 10
713.286
 20
-490.915
 30
0.000000
  70
    32
  0
VERTEX
  8
É}ÿg
  5
8BC
 10
713.339
 20
-490.929
 30
0.000000
  70
    32
  0
VERTEX
  8
É}ÿg
  5
8BD
 10
713.392
 20
-490.944
 30
0.000000
  70
    32
  0
VERTEX
  8
É}ÿg
  5
8BE
 10
713.445
 20
-490.958
 30
0.000000
  70
    32
  0
VERTEX
  8
É}ÿg
  5
8BF
 10
713.498
 20
-490.972
 30
0.000000
  70
    32
  0
VERTEX
  8
É}ÿg
  5
8C0
 10
713.550
 20
-490.986
 30
0.000000
  70
    32
  0
VERTEX
  8
É}ÿg
  5
8C1
 10
713.603
 20
-491.000
 30
0.000000
  70
    32
  0
VERTEX
  8
É}ÿg
  5
8C2
 10
713.656
 20
-491.014
 30
0.000000
  70
    32
  0
VERTEX
  8
É}ÿg
  5
8C3
 10
713.710
 20
-491.028
 30
0.000000
  70
    32
  0
VERTEX
  8
É}ÿg
  5
8C4
 10
713.763
 20
-491.042
 30
0.000000
  70
    32
  0
VERTEX
  8
É}ÿg
  5
8C5
 10
713.816
 20
-491.056
 30
0.000000
  70
    32
  0
VERTEX
  8
É}ÿg
  5
8C6
 10
713.869
 20
-491.069
 30
0.000000
  70
    32
  0
VERTEX
  8
É}ÿg
  5
8C7
 10
713.922
 20
-491.083
 30
0.000000
  70
    32
  0
VERTEX
  8
É}ÿg
  5
8C8
 10
713.976
 20
-491.097
 30
0.000000
  70
    32
  0
VERTEX
  8
É}ÿg
  5
8C9
 10
714.029
 20
-491.110
 30
0.000000
  70
    32
  0
VERTEX
  8
É}ÿg
  5
8CA
 10
714.082
 20
-491.123
 30
0.000000
  70
    32
  0
VERTEX
  8
É}ÿg
  5
8CB
 10
714.136
 20
-491.137
 30
0.000000
  70
    32
  0
VERTEX
  8
É}ÿg
  5
8CC
 10
714.189
 20
-491.150
 30
0.000000
  70
    32
  0
VERTEX
  8
É}ÿg
  5
8CD
 10
714.243
 20
-491.163
 30
0.000000
  70
    32
  0
VERTEX
  8
É}ÿg
  5
8CE
 10
714.296
 20
-491.176
 30
0.000000
  70
    32
  0
VERTEX
  8
É}ÿg
  5
8CF
 10
714.350
 20
-491.189
 30
0.000000
  70
    32
  0
VERTEX
  8
É}ÿg
  5
8D0
 10
714.404
 20
-491.202
 30
0.000000
  70
    32
  0
VERTEX
  8
É}ÿg
  5
8D1
 10
714.457
 20
-491.215
 30
0.000000
  70
    32
  0
VERTEX
  8
É}ÿg
  5
8D2
 10
714.511
 20
-491.228
 30
0.000000
  70
    32
  0
VERTEX
  8
É}ÿg
  5
8D3
 10
714.565
 20
-491.240
 30
0.000000
  70
    32
  0
VERTEX
  8
É}ÿg
  5
8D4
 10
714.619
 20
-491.253
 30
0.000000
  70
    32
  0
VERTEX
  8
É}ÿg
  5
8D5
 10
714.672
 20
-491.266
 30
0.000000
  70
    32
  0
VERTEX
  8
É}ÿg
  5
8D6
 10
714.726
 20
-491.278
 30
0.000000
  70
    32
  0
VERTEX
  8
É}ÿg
  5
8D7
 10
714.780
 20
-491.291
 30
0.000000
  70
    32
  0
VERTEX
  8
É}ÿg
  5
8D8
 10
714.834
 20
-491.303
 30
0.000000
  70
    32
  0
VERTEX
  8
É}ÿg
  5
8D9
 10
714.888
 20
-491.315
 30
0.000000
  70
    32
  0
VERTEX
  8
É}ÿg
  5
8DA
 10
714.942
 20
-491.328
 30
0.000000
  70
    32
  0
VERTEX
  8
É}ÿg
  5
8DB
 10
714.996
 20
-491.340
 30
0.000000
  70
    32
  0
VERTEX
  8
É}ÿg
  5
8DC
 10
715.051
 20
-491.352
 30
0.000000
  70
    32
  0
VERTEX
  8
É}ÿg
  5
8DD
 10
715.105
 20
-491.364
 30
0.000000
  70
    32
  0
VERTEX
  8
É}ÿg
  5
8DE
 10
715.159
 20
-491.376
 30
0.000000
  70
    32
  0
VERTEX
  8
É}ÿg
  5
8DF
 10
715.213
 20
-491.388
 30
0.000000
  70
    32
  0
VERTEX
  8
É}ÿg
  5
8E0
 10
715.268
 20
-491.400
 30
0.000000
  70
    32
  0
VERTEX
  8
É}ÿg
  5
8E1
 10
715.322
 20
-491.412
 30
0.000000
  70
    32
  0
VERTEX
  8
É}ÿg
  5
8E2
 10
715.376
 20
-491.424
 30
0.000000
  70
    32
  0
VERTEX
  8
É}ÿg
  5
8E3
 10
715.431
 20
-491.435
 30
0.000000
  70
    32
  0
VERTEX
  8
É}ÿg
  5
8E4
 10
715.485
 20
-491.447
 30
0.000000
  70
    32
  0
VERTEX
  8
É}ÿg
  5
8E5
 10
715.539
 20
-491.459
 30
0.000000
  70
    32
  0
VERTEX
  8
É}ÿg
  5
8E6
 10
715.594
 20
-491.470
 30
0.000000
  70
    32
  0
VERTEX
  8
É}ÿg
  5
8E7
 10
715.648
 20
-491.482
 30
0.000000
  70
    32
  0
VERTEX
  8
É}ÿg
  5
8E8
 10
715.703
 20
-491.493
 30
0.000000
  70
    32
  0
VERTEX
  8
É}ÿg
  5
8E9
 10
715.758
 20
-491.505
 30
0.000000
  70
    32
  0
VERTEX
  8
É}ÿg
  5
8EA
 10
715.812
 20
-491.516
 30
0.000000
  70
    32
  0
VERTEX
  8
É}ÿg
  5
8EB
 10
715.867
 20
-491.527
 30
0.000000
  70
    32
  0
VERTEX
  8
É}ÿg
  5
8EC
 10
715.922
 20
-491.539
 30
0.000000
  70
    32
  0
VERTEX
  8
É}ÿg
  5
8ED
 10
715.976
 20
-491.550
 30
0.000000
  70
    32
  0
VERTEX
  8
É}ÿg
  5
8EE
 10
716.031
 20
-491.561
 30
0.000000
  70
    32
  0
VERTEX
  8
É}ÿg
  5
8EF
 10
716.086
 20
-491.572
 30
0.000000
  70
    32
  0
VERTEX
  8
É}ÿg
  5
8F0
 10
716.141
 20
-491.583
 30
0.000000
  70
    32
  0
VERTEX
  8
É}ÿg
  5
8F1
 10
716.196
 20
-491.594
 30
0.000000
  70
    32
  0
VERTEX
  8
É}ÿg
  5
8F2
 10
716.250
 20
-491.605
 30
0.000000
  70
    32
  0
VERTEX
  8
É}ÿg
  5
8F3
 10
716.305
 20
-491.616
 30
0.000000
  70
    32
  0
VERTEX
  8
É}ÿg
  5
8F4
 10
716.360
 20
-491.627
 30
0.000000
  70
    32
  0
VERTEX
  8
É}ÿg
  5
8F5
 10
716.415
 20
-491.638
 30
0.000000
  70
    32
  0
VERTEX
  8
É}ÿg
  5
8F6
 10
716.470
 20
-491.649
 30
0.000000
  70
    32
  0
VERTEX
  8
É}ÿg
  5
8F7
 10
716.525
 20
-491.659
 30
0.000000
  70
    32
  0
VERTEX
  8
É}ÿg
  5
8F8
 10
716.580
 20
-491.670
 30
0.000000
  70
    32
  0
VERTEX
  8
É}ÿg
  5
8F9
 10
716.635
 20
-491.681
 30
0.000000
  70
    32
  0
VERTEX
  8
É}ÿg
  5
8FA
 10
716.690
 20
-491.691
 30
0.000000
  70
    32
  0
VERTEX
  8
É}ÿg
  5
8FB
 10
716.745
 20
-491.702
 30
0.000000
  70
    32
  0
VERTEX
  8
É}ÿg
  5
8FC
 10
716.801
 20
-491.713
 30
0.000000
  70
    32
  0
VERTEX
  8
É}ÿg
  5
8FD
 10
716.856
 20
-491.723
 30
0.000000
  70
    32
  0
VERTEX
  8
É}ÿg
  5
8FE
 10
716.911
 20
-491.734
 30
0.000000
  70
    32
  0
VERTEX
  8
É}ÿg
  5
8FF
 10
716.966
 20
-491.744
 30
0.000000
  70
    32
  0
VERTEX
  8
É}ÿg
  5
900
 10
717.021
 20
-491.754
 30
0.000000
  70
    32
  0
VERTEX
  8
É}ÿg
  5
901
 10
717.077
 20
-491.765
 30
0.000000
  70
    32
  0
VERTEX
  8
É}ÿg
  5
902
 10
717.132
 20
-491.775
 30
0.000000
  70
    32
  0
VERTEX
  8
É}ÿg
  5
903
 10
717.187
 20
-491.785
 30
0.000000
  70
    32
  0
VERTEX
  8
É}ÿg
  5
904
 10
717.242
 20
-491.796
 30
0.000000
  70
    32
  0
VERTEX
  8
É}ÿg
  5
905
 10
717.298
 20
-491.806
 30
0.000000
  70
    32
  0
VERTEX
  8
É}ÿg
  5
906
 10
717.353
 20
-491.816
 30
0.000000
  70
    32
  0
VERTEX
  8
É}ÿg
  5
907
 10
717.408
 20
-491.826
 30
0.000000
  70
    32
  0
VERTEX
  8
É}ÿg
  5
908
 10
717.464
 20
-491.836
 30
0.000000
  70
    32
  0
VERTEX
  8
É}ÿg
  5
909
 10
717.519
 20
-491.846
 30
0.000000
  70
    32
  0
VERTEX
  8
É}ÿg
  5
90A
 10
717.575
 20
-491.857
 30
0.000000
  70
    32
  0
VERTEX
  8
É}ÿg
  5
90B
 10
717.630
 20
-491.867
 30
0.000000
  70
    32
  0
VERTEX
  8
É}ÿg
  5
90C
 10
717.686
 20
-491.877
 30
0.000000
  70
    32
  0
VERTEX
  8
É}ÿg
  5
90D
 10
717.741
 20
-491.887
 30
0.000000
  70
    32
  0
VERTEX
  8
É}ÿg
  5
90E
 10
717.797
 20
-491.897
 30
0.000000
  70
    32
  0
VERTEX
  8
É}ÿg
  5
90F
 10
717.852
 20
-491.906
 30
0.000000
  70
    32
  0
VERTEX
  8
É}ÿg
  5
910
 10
717.908
 20
-491.916
 30
0.000000
  70
    32
  0
VERTEX
  8
É}ÿg
  5
911
 10
717.963
 20
-491.926
 30
0.000000
  70
    32
  0
VERTEX
  8
É}ÿg
  5
912
 10
718.019
 20
-491.936
 30
0.000000
  70
    32
  0
VERTEX
  8
É}ÿg
  5
913
 10
718.074
 20
-491.946
 30
0.000000
  70
    32
  0
VERTEX
  8
É}ÿg
  5
914
 10
718.130
 20
-491.956
 30
0.000000
  70
    32
  0
VERTEX
  8
É}ÿg
  5
915
 10
718.186
 20
-491.966
 30
0.000000
  70
    32
  0
VERTEX
  8
É}ÿg
  5
916
 10
718.241
 20
-491.975
 30
0.000000
  70
    32
  0
VERTEX
  8
É}ÿg
  5
917
 10
718.297
 20
-491.985
 30
0.000000
  70
    32
  0
VERTEX
  8
É}ÿg
  5
918
 10
718.352
 20
-491.995
 30
0.000000
  70
    32
  0
VERTEX
  8
É}ÿg
  5
919
 10
718.408
 20
-492.004
 30
0.000000
  70
    32
  0
VERTEX
  8
É}ÿg
  5
91A
 10
718.464
 20
-492.014
 30
0.000000
  70
    32
  0
VERTEX
  8
É}ÿg
  5
91B
 10
718.519
 20
-492.024
 30
0.000000
  70
    32
  0
VERTEX
  8
É}ÿg
  5
91C
 10
718.575
 20
-492.033
 30
0.000000
  70
    32
  0
VERTEX
  8
É}ÿg
  5
91D
 10
718.631
 20
-492.043
 30
0.000000
  70
    32
  0
VERTEX
  8
É}ÿg
  5
91E
 10
718.687
 20
-492.053
 30
0.000000
  70
    32
  0
VERTEX
  8
É}ÿg
  5
91F
 10
718.742
 20
-492.062
 30
0.000000
  70
    32
  0
VERTEX
  8
É}ÿg
  5
920
 10
718.798
 20
-492.072
 30
0.000000
  70
    32
  0
VERTEX
  8
É}ÿg
  5
921
 10
718.854
 20
-492.081
 30
0.000000
  70
    32
  0
VERTEX
  8
É}ÿg
  5
922
 10
718.909
 20
-492.091
 30
0.000000
  70
    32
  0
VERTEX
  8
É}ÿg
  5
923
 10
718.965
 20
-492.101
 30
0.000000
  70
    32
  0
VERTEX
  8
É}ÿg
  5
924
 10
719.021
 20
-492.110
 30
0.000000
  70
    32
  0
VERTEX
  8
É}ÿg
  5
925
 10
719.077
 20
-492.120
 30
0.000000
  70
    32
  0
VERTEX
  8
É}ÿg
  5
926
 10
719.133
 20
-492.129
 30
0.000000
  70
    32
  0
VERTEX
  8
É}ÿg
  5
927
 10
719.188
 20
-492.139
 30
0.000000
  70
    32
  0
VERTEX
  8
É}ÿg
  5
928
 10
719.244
 20
-492.148
 30
0.000000
  70
    32
  0
VERTEX
  8
É}ÿg
  5
929
 10
719.300
 20
-492.158
 30
0.000000
  70
    32
  0
VERTEX
  8
É}ÿg
  5
92A
 10
719.356
 20
-492.167
 30
0.000000
  70
    32
  0
VERTEX
  8
É}ÿg
  5
92B
 10
719.412
 20
-492.177
 30
0.000000
  70
    32
  0
VERTEX
  8
É}ÿg
  5
92C
 10
719.467
 20
-492.186
 30
0.000000
  70
    32
  0
VERTEX
  8
É}ÿg
  5
92D
 10
719.523
 20
-492.195
 30
0.000000
  70
    32
  0
VERTEX
  8
É}ÿg
  5
92E
 10
719.579
 20
-492.205
 30
0.000000
  70
    32
  0
VERTEX
  8
É}ÿg
  5
92F
 10
719.635
 20
-492.214
 30
0.000000
  70
    32
  0
VERTEX
  8
É}ÿg
  5
930
 10
719.691
 20
-492.224
 30
0.000000
  70
    32
  0
VERTEX
  8
É}ÿg
  5
931
 10
719.746
 20
-492.233
 30
0.000000
  70
    32
  0
VERTEX
  8
É}ÿg
  5
932
 10
719.802
 20
-492.243
 30
0.000000
  70
    32
  0
VERTEX
  8
É}ÿg
  5
933
 10
719.858
 20
-492.252
 30
0.000000
  70
    32
  0
VERTEX
  8
É}ÿg
  5
934
 10
719.914
 20
-492.262
 30
0.000000
  70
    32
  0
VERTEX
  8
É}ÿg
  5
935
 10
719.970
 20
-492.271
 30
0.000000
  70
    32
  0
SEQEND
  8
É}ÿg
  5
936
  0
POLYLINE
  8
É}ÿg
  5
937
  66
     1
 10
0.000000
 20
0.000000
 30
0.000000
  70
     8
  0
VERTEX
  8
É}ÿg
  5
938
 10
703.273
 20
-484.434
 30
0.000000
  70
    32
  0
VERTEX
  8
É}ÿg
  5
939
 10
703.292
 20
-484.456
 30
0.000000
  70
    32
  0
VERTEX
  8
É}ÿg
  5
93A
 10
703.312
 20
-484.479
 30
0.000000
  70
    32
  0
VERTEX
  8
É}ÿg
  5
93B
 10
703.332
 20
-484.501
 30
0.000000
  70
    32
  0
VERTEX
  8
É}ÿg
  5
93C
 10
703.352
 20
-484.523
 30
0.000000
  70
    32
  0
VERTEX
  8
É}ÿg
  5
93D
 10
703.372
 20
-484.545
 30
0.000000
  70
    32
  0
VERTEX
  8
É}ÿg
  5
93E
 10
703.391
 20
-484.567
 30
0.000000
  70
    32
  0
VERTEX
  8
É}ÿg
  5
93F
 10
703.411
 20
-484.589
 30
0.000000
  70
    32
  0
VERTEX
  8
É}ÿg
  5
940
 10
703.431
 20
-484.611
 30
0.000000
  70
    32
  0
VERTEX
  8
É}ÿg
  5
941
 10
703.451
 20
-484.633
 30
0.000000
  70
    32
  0
VERTEX
  8
É}ÿg
  5
942
 10
703.471
 20
-484.655
 30
0.000000
  70
    32
  0
VERTEX
  8
É}ÿg
  5
943
 10
703.491
 20
-484.677
 30
0.000000
  70
    32
  0
VERTEX
  8
É}ÿg
  5
944
 10
703.510
 20
-484.699
 30
0.000000
  70
    32
  0
VERTEX
  8
É}ÿg
  5
945
 10
703.530
 20
-484.721
 30
0.000000
  70
    32
  0
VERTEX
  8
É}ÿg
  5
946
 10
703.550
 20
-484.743
 30
0.000000
  70
    32
  0
VERTEX
  8
É}ÿg
  5
947
 10
703.570
 20
-484.765
 30
0.000000
  70
    32
  0
VERTEX
  8
É}ÿg
  5
948
 10
703.590
 20
-484.787
 30
0.000000
  70
    32
  0
VERTEX
  8
É}ÿg
  5
949
 10
703.609
 20
-484.809
 30
0.000000
  70
    32
  0
VERTEX
  8
É}ÿg
  5
94A
 10
703.629
 20
-484.831
 30
0.000000
  70
    32
  0
VERTEX
  8
É}ÿg
  5
94B
 10
703.649
 20
-484.853
 30
0.000000
  70
    32
  0
VERTEX
  8
É}ÿg
  5
94C
 10
703.669
 20
-484.875
 30
0.000000
  70
    32
  0
VERTEX
  8
É}ÿg
  5
94D
 10
703.689
 20
-484.897
 30
0.000000
  70
    32
  0
VERTEX
  8
É}ÿg
  5
94E
 10
703.709
 20
-484.919
 30
0.000000
  70
    32
  0
VERTEX
  8
É}ÿg
  5
94F
 10
703.728
 20
-484.941
 30
0.000000
  70
    32
  0
VERTEX
  8
É}ÿg
  5
950
 10
703.748
 20
-484.963
 30
0.000000
  70
    32
  0
VERTEX
  8
É}ÿg
  5
951
 10
703.768
 20
-484.985
 30
0.000000
  70
    32
  0
VERTEX
  8
É}ÿg
  5
952
 10
703.788
 20
-485.007
 30
0.000000
  70
    32
  0
VERTEX
  8
É}ÿg
  5
953
 10
703.808
 20
-485.029
 30
0.000000
  70
    32
  0
VERTEX
  8
É}ÿg
  5
954
 10
703.828
 20
-485.051
 30
0.000000
  70
    32
  0
VERTEX
  8
É}ÿg
  5
955
 10
703.848
 20
-485.073
 30
0.000000
  70
    32
  0
VERTEX
  8
É}ÿg
  5
956
 10
703.868
 20
-485.095
 30
0.000000
  70
    32
  0
VERTEX
  8
É}ÿg
  5
957
 10
703.887
 20
-485.117
 30
0.000000
  70
    32
  0
VERTEX
  8
É}ÿg
  5
958
 10
703.907
 20
-485.139
 30
0.000000
  70
    32
  0
VERTEX
  8
É}ÿg
  5
959
 10
703.927
 20
-485.161
 30
0.000000
  70
    32
  0
VERTEX
  8
É}ÿg
  5
95A
 10
703.947
 20
-485.183
 30
0.000000
  70
    32
  0
VERTEX
  8
É}ÿg
  5
95B
 10
703.967
 20
-485.205
 30
0.000000
  70
    32
  0
VERTEX
  8
É}ÿg
  5
95C
 10
703.987
 20
-485.227
 30
0.000000
  70
    32
  0
VERTEX
  8
É}ÿg
  5
95D
 10
704.007
 20
-485.248
 30
0.000000
  70
    32
  0
VERTEX
  8
É}ÿg
  5
95E
 10
704.027
 20
-485.270
 30
0.000000
  70
    32
  0
VERTEX
  8
É}ÿg
  5
95F
 10
704.047
 20
-485.292
 30
0.000000
  70
    32
  0
VERTEX
  8
É}ÿg
  5
960
 10
704.067
 20
-485.314
 30
0.000000
  70
    32
  0
VERTEX
  8
É}ÿg
  5
961
 10
704.087
 20
-485.336
 30
0.000000
  70
    32
  0
VERTEX
  8
É}ÿg
  5
962
 10
704.107
 20
-485.357
 30
0.000000
  70
    32
  0
VERTEX
  8
É}ÿg
  5
963
 10
704.127
 20
-485.379
 30
0.000000
  70
    32
  0
VERTEX
  8
É}ÿg
  5
964
 10
704.147
 20
-485.401
 30
0.000000
  70
    32
  0
VERTEX
  8
É}ÿg
  5
965
 10
704.167
 20
-485.423
 30
0.000000
  70
    32
  0
VERTEX
  8
É}ÿg
  5
966
 10
704.187
 20
-485.444
 30
0.000000
  70
    32
  0
VERTEX
  8
É}ÿg
  5
967
 10
704.207
 20
-485.466
 30
0.000000
  70
    32
  0
VERTEX
  8
É}ÿg
  5
968
 10
704.227
 20
-485.488
 30
0.000000
  70
    32
  0
VERTEX
  8
É}ÿg
  5
969
 10
704.247
 20
-485.510
 30
0.000000
  70
    32
  0
VERTEX
  8
É}ÿg
  5
96A
 10
704.267
 20
-485.531
 30
0.000000
  70
    32
  0
VERTEX
  8
É}ÿg
  5
96B
 10
704.287
 20
-485.553
 30
0.000000
  70
    32
  0
VERTEX
  8
É}ÿg
  5
96C
 10
704.307
 20
-485.575
 30
0.000000
  70
    32
  0
VERTEX
  8
É}ÿg
  5
96D
 10
704.327
 20
-485.596
 30
0.000000
  70
    32
  0
VERTEX
  8
É}ÿg
  5
96E
 10
704.347
 20
-485.618
 30
0.000000
  70
    32
  0
VERTEX
  8
É}ÿg
  5
96F
 10
704.367
 20
-485.639
 30
0.000000
  70
    32
  0
VERTEX
  8
É}ÿg
  5
970
 10
704.387
 20
-485.661
 30
0.000000
  70
    32
  0
VERTEX
  8
É}ÿg
  5
971
 10
704.408
 20
-485.682
 30
0.000000
  70
    32
  0
VERTEX
  8
É}ÿg
  5
972
 10
704.428
 20
-485.704
 30
0.000000
  70
    32
  0
VERTEX
  8
É}ÿg
  5
973
 10
704.448
 20
-485.726
 30
0.000000
  70
    32
  0
VERTEX
  8
É}ÿg
  5
974
 10
704.468
 20
-485.747
 30
0.000000
  70
    32
  0
VERTEX
  8
É}ÿg
  5
975
 10
704.488
 20
-485.768
 30
0.000000
  70
    32
  0
VERTEX
  8
É}ÿg
  5
976
 10
704.508
 20
-485.790
 30
0.000000
  70
    32
  0
VERTEX
  8
É}ÿg
  5
977
 10
704.529
 20
-485.811
 30
0.000000
  70
    32
  0
VERTEX
  8
É}ÿg
  5
978
 10
704.549
 20
-485.833
 30
0.000000
  70
    32
  0
VERTEX
  8
É}ÿg
  5
979
 10
704.569
 20
-485.854
 30
0.000000
  70
    32
  0
VERTEX
  8
É}ÿg
  5
97A
 10
704.589
 20
-485.876
 30
0.000000
  70
    32
  0
VERTEX
  8
É}ÿg
  5
97B
 10
704.609
 20
-485.897
 30
0.000000
  70
    32
  0
VERTEX
  8
É}ÿg
  5
97C
 10
704.630
 20
-485.918
 30
0.000000
  70
    32
  0
VERTEX
  8
É}ÿg
  5
97D
 10
704.650
 20
-485.939
 30
0.000000
  70
    32
  0
VERTEX
  8
É}ÿg
  5
97E
 10
704.670
 20
-485.961
 30
0.000000
  70
    32
  0
VERTEX
  8
É}ÿg
  5
97F
 10
704.691
 20
-485.982
 30
0.000000
  70
    32
  0
VERTEX
  8
É}ÿg
  5
980
 10
704.711
 20
-486.003
 30
0.000000
  70
    32
  0
VERTEX
  8
É}ÿg
  5
981
 10
704.731
 20
-486.024
 30
0.000000
  70
    32
  0
VERTEX
  8
É}ÿg
  5
982
 10
704.752
 20
-486.046
 30
0.000000
  70
    32
  0
VERTEX
  8
É}ÿg
  5
983
 10
704.772
 20
-486.067
 30
0.000000
  70
    32
  0
VERTEX
  8
É}ÿg
  5
984
 10
704.792
 20
-486.088
 30
0.000000
  70
    32
  0
VERTEX
  8
É}ÿg
  5
985
 10
704.813
 20
-486.109
 30
0.000000
  70
    32
  0
VERTEX
  8
É}ÿg
  5
986
 10
704.833
 20
-486.130
 30
0.000000
  70
    32
  0
VERTEX
  8
É}ÿg
  5
987
 10
704.854
 20
-486.151
 30
0.000000
  70
    32
  0
VERTEX
  8
É}ÿg
  5
988
 10
704.874
 20
-486.172
 30
0.000000
  70
    32
  0
VERTEX
  8
É}ÿg
  5
989
 10
704.894
 20
-486.193
 30
0.000000
  70
    32
  0
VERTEX
  8
É}ÿg
  5
98A
 10
704.915
 20
-486.214
 30
0.000000
  70
    32
  0
VERTEX
  8
É}ÿg
  5
98B
 10
704.935
 20
-486.235
 30
0.000000
  70
    32
  0
VERTEX
  8
É}ÿg
  5
98C
 10
704.956
 20
-486.256
 30
0.000000
  70
    32
  0
VERTEX
  8
É}ÿg
  5
98D
 10
704.976
 20
-486.277
 30
0.000000
  70
    32
  0
VERTEX
  8
É}ÿg
  5
98E
 10
704.997
 20
-486.298
 30
0.000000
  70
    32
  0
VERTEX
  8
É}ÿg
  5
98F
 10
705.018
 20
-486.319
 30
0.000000
  70
    32
  0
VERTEX
  8
É}ÿg
  5
990
 10
705.038
 20
-486.340
 30
0.000000
  70
    32
  0
VERTEX
  8
É}ÿg
  5
991
 10
705.059
 20
-486.360
 30
0.000000
  70
    32
  0
VERTEX
  8
É}ÿg
  5
992
 10
705.079
 20
-486.381
 30
0.000000
  70
    32
  0
VERTEX
  8
É}ÿg
  5
993
 10
705.100
 20
-486.402
 30
0.000000
  70
    32
  0
VERTEX
  8
É}ÿg
  5
994
 10
705.121
 20
-486.422
 30
0.000000
  70
    32
  0
VERTEX
  8
É}ÿg
  5
995
 10
705.141
 20
-486.443
 30
0.000000
  70
    32
  0
VERTEX
  8
É}ÿg
  5
996
 10
705.162
 20
-486.464
 30
0.000000
  70
    32
  0
VERTEX
  8
É}ÿg
  5
997
 10
705.183
 20
-486.484
 30
0.000000
  70
    32
  0
VERTEX
  8
É}ÿg
  5
998
 10
705.203
 20
-486.505
 30
0.000000
  70
    32
  0
VERTEX
  8
É}ÿg
  5
999
 10
705.224
 20
-486.526
 30
0.000000
  70
    32
  0
VERTEX
  8
É}ÿg
  5
99A
 10
705.245
 20
-486.546
 30
0.000000
  70
    32
  0
VERTEX
  8
É}ÿg
  5
99B
 10
705.266
 20
-486.567
 30
0.000000
  70
    32
  0
VERTEX
  8
É}ÿg
  5
99C
 10
705.287
 20
-486.587
 30
0.000000
  70
    32
  0
VERTEX
  8
É}ÿg
  5
99D
 10
705.307
 20
-486.607
 30
0.000000
  70
    32
  0
VERTEX
  8
É}ÿg
  5
99E
 10
705.328
 20
-486.628
 30
0.000000
  70
    32
  0
VERTEX
  8
É}ÿg
  5
99F
 10
705.349
 20
-486.648
 30
0.000000
  70
    32
  0
VERTEX
  8
É}ÿg
  5
9A0
 10
705.370
 20
-486.668
 30
0.000000
  70
    32
  0
VERTEX
  8
É}ÿg
  5
9A1
 10
705.391
 20
-486.689
 30
0.000000
  70
    32
  0
VERTEX
  8
É}ÿg
  5
9A2
 10
705.412
 20
-486.709
 30
0.000000
  70
    32
  0
VERTEX
  8
É}ÿg
  5
9A3
 10
705.433
 20
-486.729
 30
0.000000
  70
    32
  0
VERTEX
  8
É}ÿg
  5
9A4
 10
705.454
 20
-486.749
 30
0.000000
  70
    32
  0
VERTEX
  8
É}ÿg
  5
9A5
 10
705.475
 20
-486.769
 30
0.000000
  70
    32
  0
VERTEX
  8
É}ÿg
  5
9A6
 10
705.496
 20
-486.790
 30
0.000000
  70
    32
  0
VERTEX
  8
É}ÿg
  5
9A7
 10
705.517
 20
-486.810
 30
0.000000
  70
    32
  0
VERTEX
  8
É}ÿg
  5
9A8
 10
705.538
 20
-486.830
 30
0.000000
  70
    32
  0
VERTEX
  8
É}ÿg
  5
9A9
 10
705.559
 20
-486.850
 30
0.000000
  70
    32
  0
VERTEX
  8
É}ÿg
  5
9AA
 10
705.580
 20
-486.870
 30
0.000000
  70
    32
  0
VERTEX
  8
É}ÿg
  5
9AB
 10
705.601
 20
-486.889
 30
0.000000
  70
    32
  0
VERTEX
  8
É}ÿg
  5
9AC
 10
705.623
 20
-486.909
 30
0.000000
  70
    32
  0
VERTEX
  8
É}ÿg
  5
9AD
 10
705.644
 20
-486.929
 30
0.000000
  70
    32
  0
VERTEX
  8
É}ÿg
  5
9AE
 10
705.665
 20
-486.949
 30
0.000000
  70
    32
  0
VERTEX
  8
É}ÿg
  5
9AF
 10
705.686
 20
-486.969
 30
0.000000
  70
    32
  0
VERTEX
  8
É}ÿg
  5
9B0
 10
705.707
 20
-486.988
 30
0.000000
  70
    32
  0
VERTEX
  8
É}ÿg
  5
9B1
 10
705.729
 20
-487.008
 30
0.000000
  70
    32
  0
VERTEX
  8
É}ÿg
  5
9B2
 10
705.750
 20
-487.028
 30
0.000000
  70
    32
  0
VERTEX
  8
É}ÿg
  5
9B3
 10
705.771
 20
-487.047
 30
0.000000
  70
    32
  0
VERTEX
  8
É}ÿg
  5
9B4
 10
705.793
 20
-487.067
 30
0.000000
  70
    32
  0
VERTEX
  8
É}ÿg
  5
9B5
 10
705.814
 20
-487.086
 30
0.000000
  70
    32
  0
VERTEX
  8
É}ÿg
  5
9B6
 10
705.835
 20
-487.106
 30
0.000000
  70
    32
  0
VERTEX
  8
É}ÿg
  5
9B7
 10
705.857
 20
-487.125
 30
0.000000
  70
    32
  0
SEQEND
  8
É}ÿg
  5
9B8
  0
POLYLINE
  8
É}ÿg
  5
9B9
  66
     1
 10
0.000000
 20
0.000000
 30
0.000000
  70
     8
  0
VERTEX
  8
É}ÿg
  5
9BA
 10
709.346
 20
-494.180
 30
0.000000
  70
    32
  0
VERTEX
  8
É}ÿg
  5
9BB
 10
709.427
 20
-494.206
 30
0.000000
  70
    32
  0
VERTEX
  8
É}ÿg
  5
9BC
 10
709.508
 20
-494.231
 30
0.000000
  70
    32
  0
VERTEX
  8
É}ÿg
  5
9BD
 10
709.589
 20
-494.257
 30
0.000000
  70
    32
  0
VERTEX
  8
É}ÿg
  5
9BE
 10
709.670
 20
-494.282
 30
0.000000
  70
    32
  0
VERTEX
  8
É}ÿg
  5
9BF
 10
709.751
 20
-494.307
 30
0.000000
  70
    32
  0
VERTEX
  8
É}ÿg
  5
9C0
 10
709.832
 20
-494.333
 30
0.000000
  70
    32
  0
VERTEX
  8
É}ÿg
  5
9C1
 10
709.913
 20
-494.358
 30
0.000000
  70
    32
  0
VERTEX
  8
É}ÿg
  5
9C2
 10
709.994
 20
-494.382
 30
0.000000
  70
    32
  0
VERTEX
  8
É}ÿg
  5
9C3
 10
710.075
 20
-494.407
 30
0.000000
  70
    32
  0
VERTEX
  8
É}ÿg
  5
9C4
 10
710.157
 20
-494.432
 30
0.000000
  70
    32
  0
VERTEX
  8
É}ÿg
  5
9C5
 10
710.238
 20
-494.456
 30
0.000000
  70
    32
  0
VERTEX
  8
É}ÿg
  5
9C6
 10
710.320
 20
-494.481
 30
0.000000
  70
    32
  0
VERTEX
  8
É}ÿg
  5
9C7
 10
710.401
 20
-494.505
 30
0.000000
  70
    32
  0
VERTEX
  8
É}ÿg
  5
9C8
 10
710.483
 20
-494.529
 30
0.000000
  70
    32
  0
VERTEX
  8
É}ÿg
  5
9C9
 10
710.564
 20
-494.553
 30
0.000000
  70
    32
  0
VERTEX
  8
É}ÿg
  5
9CA
 10
710.646
 20
-494.577
 30
0.000000
  70
    32
  0
VERTEX
  8
É}ÿg
  5
9CB
 10
710.728
 20
-494.601
 30
0.000000
  70
    32
  0
VERTEX
  8
É}ÿg
  5
9CC
 10
710.810
 20
-494.625
 30
0.000000
  70
    32
  0
VERTEX
  8
É}ÿg
  5
9CD
 10
710.892
 20
-494.649
 30
0.000000
  70
    32
  0
VERTEX
  8
É}ÿg
  5
9CE
 10
710.974
 20
-494.672
 30
0.000000
  70
    32
  0
VERTEX
  8
É}ÿg
  5
9CF
 10
711.056
 20
-494.695
 30
0.000000
  70
    32
  0
VERTEX
  8
É}ÿg
  5
9D0
 10
711.138
 20
-494.719
 30
0.000000
  70
    32
  0
VERTEX
  8
É}ÿg
  5
9D1
 10
711.220
 20
-494.742
 30
0.000000
  70
    32
  0
VERTEX
  8
É}ÿg
  5
9D2
 10
711.302
 20
-494.765
 30
0.000000
  70
    32
  0
VERTEX
  8
É}ÿg
  5
9D3
 10
711.384
 20
-494.788
 30
0.000000
  70
    32
  0
VERTEX
  8
É}ÿg
  5
9D4
 10
711.467
 20
-494.811
 30
0.000000
  70
    32
  0
VERTEX
  8
É}ÿg
  5
9D5
 10
711.549
 20
-494.834
 30
0.000000
  70
    32
  0
VERTEX
  8
É}ÿg
  5
9D6
 10
711.631
 20
-494.856
 30
0.000000
  70
    32
  0
VERTEX
  8
É}ÿg
  5
9D7
 10
711.714
 20
-494.879
 30
0.000000
  70
    32
  0
VERTEX
  8
É}ÿg
  5
9D8
 10
711.796
 20
-494.901
 30
0.000000
  70
    32
  0
VERTEX
  8
É}ÿg
  5
9D9
 10
711.879
 20
-494.924
 30
0.000000
  70
    32
  0
VERTEX
  8
É}ÿg
  5
9DA
 10
711.962
 20
-494.946
 30
0.000000
  70
    32
  0
VERTEX
  8
É}ÿg
  5
9DB
 10
712.044
 20
-494.968
 30
0.000000
  70
    32
  0
VERTEX
  8
É}ÿg
  5
9DC
 10
712.127
 20
-494.990
 30
0.000000
  70
    32
  0
VERTEX
  8
É}ÿg
  5
9DD
 10
712.210
 20
-495.012
 30
0.000000
  70
    32
  0
VERTEX
  8
É}ÿg
  5
9DE
 10
712.293
 20
-495.034
 30
0.000000
  70
    32
  0
VERTEX
  8
É}ÿg
  5
9DF
 10
712.376
 20
-495.056
 30
0.000000
  70
    32
  0
VERTEX
  8
É}ÿg
  5
9E0
 10
712.459
 20
-495.078
 30
0.000000
  70
    32
  0
VERTEX
  8
É}ÿg
  5
9E1
 10
712.542
 20
-495.099
 30
0.000000
  70
    32
  0
VERTEX
  8
É}ÿg
  5
9E2
 10
712.625
 20
-495.121
 30
0.000000
  70
    32
  0
VERTEX
  8
É}ÿg
  5
9E3
 10
712.708
 20
-495.142
 30
0.000000
  70
    32
  0
VERTEX
  8
É}ÿg
  5
9E4
 10
712.791
 20
-495.164
 30
0.000000
  70
    32
  0
VERTEX
  8
É}ÿg
  5
9E5
 10
712.874
 20
-495.185
 30
0.000000
  70
    32
  0
VERTEX
  8
É}ÿg
  5
9E6
 10
712.957
 20
-495.206
 30
0.000000
  70
    32
  0
VERTEX
  8
É}ÿg
  5
9E7
 10
713.040
 20
-495.227
 30
0.000000
  70
    32
  0
VERTEX
  8
É}ÿg
  5
9E8
 10
713.124
 20
-495.249
 30
0.000000
  70
    32
  0
VERTEX
  8
É}ÿg
  5
9E9
 10
713.207
 20
-495.269
 30
0.000000
  70
    32
  0
VERTEX
  8
É}ÿg
  5
9EA
 10
713.290
 20
-495.290
 30
0.000000
  70
    32
  0
VERTEX
  8
É}ÿg
  5
9EB
 10
713.374
 20
-495.311
 30
0.000000
  70
    32
  0
VERTEX
  8
É}ÿg
  5
9EC
 10
713.457
 20
-495.332
 30
0.000000
  70
    32
  0
VERTEX
  8
É}ÿg
  5
9ED
 10
713.541
 20
-495.353
 30
0.000000
  70
    32
  0
VERTEX
  8
É}ÿg
  5
9EE
 10
713.624
 20
-495.373
 30
0.000000
  70
    32
  0
VERTEX
  8
É}ÿg
  5
9EF
 10
713.708
 20
-495.394
 30
0.000000
  70
    32
  0
VERTEX
  8
É}ÿg
  5
9F0
 10
713.792
 20
-495.414
 30
0.000000
  70
    32
  0
VERTEX
  8
É}ÿg
  5
9F1
 10
713.875
 20
-495.434
 30
0.000000
  70
    32
  0
VERTEX
  8
É}ÿg
  5
9F2
 10
713.959
 20
-495.455
 30
0.000000
  70
    32
  0
VERTEX
  8
É}ÿg
  5
9F3
 10
714.043
 20
-495.475
 30
0.000000
  70
    32
  0
VERTEX
  8
É}ÿg
  5
9F4
 10
714.127
 20
-495.495
 30
0.000000
  70
    32
  0
VERTEX
  8
É}ÿg
  5
9F5
 10
714.210
 20
-495.515
 30
0.000000
  70
    32
  0
VERTEX
  8
É}ÿg
  5
9F6
 10
714.294
 20
-495.535
 30
0.000000
  70
    32
  0
VERTEX
  8
É}ÿg
  5
9F7
 10
714.378
 20
-495.555
 30
0.000000
  70
    32
  0
VERTEX
  8
É}ÿg
  5
9F8
 10
714.462
 20
-495.575
 30
0.000000
  70
    32
  0
VERTEX
  8
É}ÿg
  5
9F9
 10
714.546
 20
-495.595
 30
0.000000
  70
    32
  0
VERTEX
  8
É}ÿg
  5
9FA
 10
714.630
 20
-495.614
 30
0.000000
  70
    32
  0
VERTEX
  8
É}ÿg
  5
9FB
 10
714.714
 20
-495.634
 30
0.000000
  70
    32
  0
VERTEX
  8
É}ÿg
  5
9FC
 10
714.798
 20
-495.654
 30
0.000000
  70
    32
  0
VERTEX
  8
É}ÿg
  5
9FD
 10
714.882
 20
-495.673
 30
0.000000
  70
    32
  0
VERTEX
  8
É}ÿg
  5
9FE
 10
714.967
 20
-495.693
 30
0.000000
  70
    32
  0
VERTEX
  8
É}ÿg
  5
9FF
 10
715.051
 20
-495.712
 30
0.000000
  70
    32
  0
VERTEX
  8
É}ÿg
  5
A00
 10
715.135
 20
-495.731
 30
0.000000
  70
    32
  0
VERTEX
  8
É}ÿg
  5
A01
 10
715.219
 20
-495.751
 30
0.000000
  70
    32
  0
VERTEX
  8
É}ÿg
  5
A02
 10
715.304
 20
-495.770
 30
0.000000
  70
    32
  0
VERTEX
  8
É}ÿg
  5
A03
 10
715.388
 20
-495.789
 30
0.000000
  70
    32
  0
VERTEX
  8
É}ÿg
  5
A04
 10
715.472
 20
-495.808
 30
0.000000
  70
    32
  0
VERTEX
  8
É}ÿg
  5
A05
 10
715.557
 20
-495.827
 30
0.000000
  70
    32
  0
VERTEX
  8
É}ÿg
  5
A06
 10
715.641
 20
-495.846
 30
0.000000
  70
    32
  0
VERTEX
  8
É}ÿg
  5
A07
 10
715.725
 20
-495.865
 30
0.000000
  70
    32
  0
VERTEX
  8
É}ÿg
  5
A08
 10
715.810
 20
-495.884
 30
0.000000
  70
    32
  0
VERTEX
  8
É}ÿg
  5
A09
 10
715.894
 20
-495.903
 30
0.000000
  70
    32
  0
VERTEX
  8
É}ÿg
  5
A0A
 10
715.979
 20
-495.922
 30
0.000000
  70
    32
  0
VERTEX
  8
É}ÿg
  5
A0B
 10
716.063
 20
-495.941
 30
0.000000
  70
    32
  0
VERTEX
  8
É}ÿg
  5
A0C
 10
716.148
 20
-495.959
 30
0.000000
  70
    32
  0
VERTEX
  8
É}ÿg
  5
A0D
 10
716.232
 20
-495.978
 30
0.000000
  70
    32
  0
VERTEX
  8
É}ÿg
  5
A0E
 10
716.317
 20
-495.997
 30
0.000000
  70
    32
  0
VERTEX
  8
É}ÿg
  5
A0F
 10
716.402
 20
-496.015
 30
0.000000
  70
    32
  0
VERTEX
  8
É}ÿg
  5
A10
 10
716.486
 20
-496.034
 30
0.000000
  70
    32
  0
VERTEX
  8
É}ÿg
  5
A11
 10
716.571
 20
-496.052
 30
0.000000
  70
    32
  0
VERTEX
  8
É}ÿg
  5
A12
 10
716.656
 20
-496.071
 30
0.000000
  70
    32
  0
VERTEX
  8
É}ÿg
  5
A13
 10
716.740
 20
-496.089
 30
0.000000
  70
    32
  0
VERTEX
  8
É}ÿg
  5
A14
 10
716.825
 20
-496.108
 30
0.000000
  70
    32
  0
VERTEX
  8
É}ÿg
  5
A15
 10
716.910
 20
-496.126
 30
0.000000
  70
    32
  0
VERTEX
  8
É}ÿg
  5
A16
 10
716.995
 20
-496.144
 30
0.000000
  70
    32
  0
VERTEX
  8
É}ÿg
  5
A17
 10
717.079
 20
-496.163
 30
0.000000
  70
    32
  0
VERTEX
  8
É}ÿg
  5
A18
 10
717.164
 20
-496.181
 30
0.000000
  70
    32
  0
VERTEX
  8
É}ÿg
  5
A19
 10
717.249
 20
-496.199
 30
0.000000
  70
    32
  0
VERTEX
  8
É}ÿg
  5
A1A
 10
717.334
 20
-496.217
 30
0.000000
  70
    32
  0
VERTEX
  8
É}ÿg
  5
A1B
 10
717.419
 20
-496.236
 30
0.000000
  70
    32
  0
VERTEX
  8
É}ÿg
  5
A1C
 10
717.504
 20
-496.254
 30
0.000000
  70
    32
  0
VERTEX
  8
É}ÿg
  5
A1D
 10
717.589
 20
-496.272
 30
0.000000
  70
    32
  0
VERTEX
  8
É}ÿg
  5
A1E
 10
717.673
 20
-496.290
 30
0.000000
  70
    32
  0
VERTEX
  8
É}ÿg
  5
A1F
 10
717.758
 20
-496.308
 30
0.000000
  70
    32
  0
VERTEX
  8
É}ÿg
  5
A20
 10
717.843
 20
-496.326
 30
0.000000
  70
    32
  0
VERTEX
  8
É}ÿg
  5
A21
 10
717.928
 20
-496.344
 30
0.000000
  70
    32
  0
VERTEX
  8
É}ÿg
  5
A22
 10
718.013
 20
-496.362
 30
0.000000
  70
    32
  0
VERTEX
  8
É}ÿg
  5
A23
 10
718.098
 20
-496.380
 30
0.000000
  70
    32
  0
VERTEX
  8
É}ÿg
  5
A24
 10
718.183
 20
-496.398
 30
0.000000
  70
    32
  0
VERTEX
  8
É}ÿg
  5
A25
 10
718.268
 20
-496.416
 30
0.000000
  70
    32
  0
VERTEX
  8
É}ÿg
  5
A26
 10
718.353
 20
-496.434
 30
0.000000
  70
    32
  0
VERTEX
  8
É}ÿg
  5
A27
 10
718.438
 20
-496.452
 30
0.000000
  70
    32
  0
VERTEX
  8
É}ÿg
  5
A28
 10
718.523
 20
-496.469
 30
0.000000
  70
    32
  0
VERTEX
  8
É}ÿg
  5
A29
 10
718.608
 20
-496.487
 30
0.000000
  70
    32
  0
VERTEX
  8
É}ÿg
  5
A2A
 10
718.693
 20
-496.505
 30
0.000000
  70
    32
  0
VERTEX
  8
É}ÿg
  5
A2B
 10
718.778
 20
-496.523
 30
0.000000
  70
    32
  0
VERTEX
  8
É}ÿg
  5
A2C
 10
718.863
 20
-496.541
 30
0.000000
  70
    32
  0
VERTEX
  8
É}ÿg
  5
A2D
 10
718.949
 20
-496.558
 30
0.000000
  70
    32
  0
VERTEX
  8
É}ÿg
  5
A2E
 10
719.034
 20
-496.576
 30
0.000000
  70
    32
  0
VERTEX
  8
É}ÿg
  5
A2F
 10
719.119
 20
-496.594
 30
0.000000
  70
    32
  0
VERTEX
  8
É}ÿg
  5
A30
 10
719.204
 20
-496.612
 30
0.000000
  70
    32
  0
VERTEX
  8
É}ÿg
  5
A31
 10
719.289
 20
-496.629
 30
0.000000
  70
    32
  0
VERTEX
  8
É}ÿg
  5
A32
 10
719.374
 20
-496.647
 30
0.000000
  70
    32
  0
VERTEX
  8
É}ÿg
  5
A33
 10
719.459
 20
-496.665
 30
0.000000
  70
    32
  0
VERTEX
  8
É}ÿg
  5
A34
 10
719.544
 20
-496.682
 30
0.000000
  70
    32
  0
VERTEX
  8
É}ÿg
  5
A35
 10
719.629
 20
-496.700
 30
0.000000
  70
    32
  0
VERTEX
  8
É}ÿg
  5
A36
 10
719.714
 20
-496.718
 30
0.000000
  70
    32
  0
VERTEX
  8
É}ÿg
  5
A37
 10
719.800
 20
-496.736
 30
0.000000
  70
    32
  0
VERTEX
  8
É}ÿg
  5
A38
 10
719.885
 20
-496.753
 30
0.000000
  70
    32
  0
VERTEX
  8
É}ÿg
  5
A39
 10
719.970
 20
-496.771
 30
0.000000
  70
    32
  0
SEQEND
  8
É}ÿg
  5
A3A
  0
POLYLINE
  8
É}ÿg
  5
A3B
  66
     1
 10
0.000000
 20
0.000000
 30
0.000000
  70
     8
  0
VERTEX
  8
É}ÿg
  5
A3C
 10
692.970
 20
-483.704
 30
0.000000
  70
    32
  0
VERTEX
  8
É}ÿg
  5
A3D
 10
693.024
 20
-483.753
 30
0.000000
  70
    32
  0
VERTEX
  8
É}ÿg
  5
A3E
 10
693.078
 20
-483.803
 30
0.000000
  70
    32
  0
VERTEX
  8
É}ÿg
  5
A3F
 10
693.132
 20
-483.853
 30
0.000000
  70
    32
  0
VERTEX
  8
É}ÿg
  5
A40
 10
693.186
 20
-483.903
 30
0.000000
  70
    32
  0
VERTEX
  8
É}ÿg
  5
A41
 10
693.240
 20
-483.953
 30
0.000000
  70
    32
  0
VERTEX
  8
É}ÿg
  5
A42
 10
693.294
 20
-484.002
 30
0.000000
  70
    32
  0
VERTEX
  8
É}ÿg
  5
A43
 10
693.348
 20
-484.052
 30
0.000000
  70
    32
  0
VERTEX
  8
É}ÿg
  5
A44
 10
693.402
 20
-484.102
 30
0.000000
  70
    32
  0
VERTEX
  8
É}ÿg
  5
A45
 10
693.456
 20
-484.152
 30
0.000000
  70
    32
  0
VERTEX
  8
É}ÿg
  5
A46
 10
693.510
 20
-484.202
 30
0.000000
  70
    32
  0
VERTEX
  8
É}ÿg
  5
A47
 10
693.564
 20
-484.251
 30
0.000000
  70
    32
  0
VERTEX
  8
É}ÿg
  5
A48
 10
693.618
 20
-484.301
 30
0.000000
  70
    32
  0
VERTEX
  8
É}ÿg
  5
A49
 10
693.672
 20
-484.351
 30
0.000000
  70
    32
  0
VERTEX
  8
É}ÿg
  5
A4A
 10
693.726
 20
-484.400
 30
0.000000
  70
    32
  0
VERTEX
  8
É}ÿg
  5
A4B
 10
693.781
 20
-484.450
 30
0.000000
  70
    32
  0
VERTEX
  8
É}ÿg
  5
A4C
 10
693.835
 20
-484.500
 30
0.000000
  70
    32
  0
VERTEX
  8
É}ÿg
  5
A4D
 10
693.889
 20
-484.550
 30
0.000000
  70
    32
  0
VERTEX
  8
É}ÿg
  5
A4E
 10
693.943
 20
-484.599
 30
0.000000
  70
    32
  0
VERTEX
  8
É}ÿg
  5
A4F
 10
693.997
 20
-484.649
 30
0.000000
  70
    32
  0
VERTEX
  8
É}ÿg
  5
A50
 10
694.051
 20
-484.698
 30
0.000000
  70
    32
  0
VERTEX
  8
É}ÿg
  5
A51
 10
694.105
 20
-484.748
 30
0.000000
  70
    32
  0
VERTEX
  8
É}ÿg
  5
A52
 10
694.160
 20
-484.798
 30
0.000000
  70
    32
  0
VERTEX
  8
É}ÿg
  5
A53
 10
694.214
 20
-484.847
 30
0.000000
  70
    32
  0
VERTEX
  8
É}ÿg
  5
A54
 10
694.268
 20
-484.897
 30
0.000000
  70
    32
  0
VERTEX
  8
É}ÿg
  5
A55
 10
694.322
 20
-484.946
 30
0.000000
  70
    32
  0
VERTEX
  8
É}ÿg
  5
A56
 10
694.376
 20
-484.996
 30
0.000000
  70
    32
  0
VERTEX
  8
É}ÿg
  5
A57
 10
694.431
 20
-485.045
 30
0.000000
  70
    32
  0
VERTEX
  8
É}ÿg
  5
A58
 10
694.485
 20
-485.094
 30
0.000000
  70
    32
  0
VERTEX
  8
É}ÿg
  5
A59
 10
694.539
 20
-485.144
 30
0.000000
  70
    32
  0
VERTEX
  8
É}ÿg
  5
A5A
 10
694.593
 20
-485.193
 30
0.000000
  70
    32
  0
VERTEX
  8
É}ÿg
  5
A5B
 10
694.648
 20
-485.243
 30
0.000000
  70
    32
  0
VERTEX
  8
É}ÿg
  5
A5C
 10
694.702
 20
-485.292
 30
0.000000
  70
    32
  0
VERTEX
  8
É}ÿg
  5
A5D
 10
694.756
 20
-485.341
 30
0.000000
  70
    32
  0
VERTEX
  8
É}ÿg
  5
A5E
 10
694.811
 20
-485.390
 30
0.000000
  70
    32
  0
VERTEX
  8
É}ÿg
  5
A5F
 10
694.865
 20
-485.440
 30
0.000000
  70
    32
  0
VERTEX
  8
É}ÿg
  5
A60
 10
694.919
 20
-485.489
 30
0.000000
  70
    32
  0
VERTEX
  8
É}ÿg
  5
A61
 10
694.974
 20
-485.538
 30
0.000000
  70
    32
  0
VERTEX
  8
É}ÿg
  5
A62
 10
695.028
 20
-485.587
 30
0.000000
  70
    32
  0
VERTEX
  8
É}ÿg
  5
A63
 10
695.083
 20
-485.636
 30
0.000000
  70
    32
  0
VERTEX
  8
É}ÿg
  5
A64
 10
695.137
 20
-485.685
 30
0.000000
  70
    32
  0
VERTEX
  8
É}ÿg
  5
A65
 10
695.192
 20
-485.734
 30
0.000000
  70
    32
  0
VERTEX
  8
É}ÿg
  5
A66
 10
695.246
 20
-485.783
 30
0.000000
  70
    32
  0
VERTEX
  8
É}ÿg
  5
A67
 10
695.301
 20
-485.832
 30
0.000000
  70
    32
  0
VERTEX
  8
É}ÿg
  5
A68
 10
695.355
 20
-485.880
 30
0.000000
  70
    32
  0
VERTEX
  8
É}ÿg
  5
A69
 10
695.410
 20
-485.929
 30
0.000000
  70
    32
  0
VERTEX
  8
É}ÿg
  5
A6A
 10
695.464
 20
-485.978
 30
0.000000
  70
    32
  0
VERTEX
  8
É}ÿg
  5
A6B
 10
695.519
 20
-486.027
 30
0.000000
  70
    32
  0
VERTEX
  8
É}ÿg
  5
A6C
 10
695.574
 20
-486.075
 30
0.000000
  70
    32
  0
VERTEX
  8
É}ÿg
  5
A6D
 10
695.628
 20
-486.124
 30
0.000000
  70
    32
  0
VERTEX
  8
É}ÿg
  5
A6E
 10
695.683
 20
-486.172
 30
0.000000
  70
    32
  0
VERTEX
  8
É}ÿg
  5
A6F
 10
695.738
 20
-486.221
 30
0.000000
  70
    32
  0
VERTEX
  8
É}ÿg
  5
A70
 10
695.793
 20
-486.269
 30
0.000000
  70
    32
  0
VERTEX
  8
É}ÿg
  5
A71
 10
695.847
 20
-486.318
 30
0.000000
  70
    32
  0
VERTEX
  8
É}ÿg
  5
A72
 10
695.902
 20
-486.366
 30
0.000000
  70
    32
  0
VERTEX
  8
É}ÿg
  5
A73
 10
695.957
 20
-486.414
 30
0.000000
  70
    32
  0
VERTEX
  8
É}ÿg
  5
A74
 10
696.012
 20
-486.463
 30
0.000000
  70
    32
  0
VERTEX
  8
É}ÿg
  5
A75
 10
696.067
 20
-486.511
 30
0.000000
  70
    32
  0
VERTEX
  8
É}ÿg
  5
A76
 10
696.122
 20
-486.559
 30
0.000000
  70
    32
  0
VERTEX
  8
É}ÿg
  5
A77
 10
696.177
 20
-486.607
 30
0.000000
  70
    32
  0
VERTEX
  8
É}ÿg
  5
A78
 10
696.232
 20
-486.655
 30
0.000000
  70
    32
  0
VERTEX
  8
É}ÿg
  5
A79
 10
696.287
 20
-486.703
 30
0.000000
  70
    32
  0
VERTEX
  8
É}ÿg
  5
A7A
 10
696.342
 20
-486.751
 30
0.000000
  70
    32
  0
VERTEX
  8
É}ÿg
  5
A7B
 10
696.397
 20
-486.798
 30
0.000000
  70
    32
  0
VERTEX
  8
É}ÿg
  5
A7C
 10
696.452
 20
-486.846
 30
0.000000
  70
    32
  0
VERTEX
  8
É}ÿg
  5
A7D
 10
696.508
 20
-486.894
 30
0.000000
  70
    32
  0
VERTEX
  8
É}ÿg
  5
A7E
 10
696.563
 20
-486.941
 30
0.000000
  70
    32
  0
VERTEX
  8
É}ÿg
  5
A7F
 10
696.618
 20
-486.989
 30
0.000000
  70
    32
  0
VERTEX
  8
É}ÿg
  5
A80
 10
696.673
 20
-487.036
 30
0.000000
  70
    32
  0
VERTEX
  8
É}ÿg
  5
A81
 10
696.729
 20
-487.084
 30
0.000000
  70
    32
  0
VERTEX
  8
É}ÿg
  5
A82
 10
696.784
 20
-487.131
 30
0.000000
  70
    32
  0
VERTEX
  8
É}ÿg
  5
A83
 10
696.840
 20
-487.178
 30
0.000000
  70
    32
  0
VERTEX
  8
É}ÿg
  5
A84
 10
696.895
 20
-487.225
 30
0.000000
  70
    32
  0
VERTEX
  8
É}ÿg
  5
A85
 10
696.951
 20
-487.272
 30
0.000000
  70
    32
  0
VERTEX
  8
É}ÿg
  5
A86
 10
697.006
 20
-487.319
 30
0.000000
  70
    32
  0
VERTEX
  8
É}ÿg
  5
A87
 10
697.062
 20
-487.366
 30
0.000000
  70
    32
  0
VERTEX
  8
É}ÿg
  5
A88
 10
697.117
 20
-487.413
 30
0.000000
  70
    32
  0
VERTEX
  8
É}ÿg
  5
A89
 10
697.173
 20
-487.460
 30
0.000000
  70
    32
  0
VERTEX
  8
É}ÿg
  5
A8A
 10
697.229
 20
-487.507
 30
0.000000
  70
    32
  0
VERTEX
  8
É}ÿg
  5
A8B
 10
697.285
 20
-487.553
 30
0.000000
  70
    32
  0
VERTEX
  8
É}ÿg
  5
A8C
 10
697.340
 20
-487.600
 30
0.000000
  70
    32
  0
VERTEX
  8
É}ÿg
  5
A8D
 10
697.396
 20
-487.646
 30
0.000000
  70
    32
  0
VERTEX
  8
É}ÿg
  5
A8E
 10
697.452
 20
-487.693
 30
0.000000
  70
    32
  0
VERTEX
  8
É}ÿg
  5
A8F
 10
697.508
 20
-487.739
 30
0.000000
  70
    32
  0
VERTEX
  8
É}ÿg
  5
A90
 10
697.564
 20
-487.785
 30
0.000000
  70
    32
  0
VERTEX
  8
É}ÿg
  5
A91
 10
697.620
 20
-487.831
 30
0.000000
  70
    32
  0
VERTEX
  8
É}ÿg
  5
A92
 10
697.676
 20
-487.877
 30
0.000000
  70
    32
  0
VERTEX
  8
É}ÿg
  5
A93
 10
697.732
 20
-487.923
 30
0.000000
  70
    32
  0
VERTEX
  8
É}ÿg
  5
A94
 10
697.788
 20
-487.969
 30
0.000000
  70
    32
  0
VERTEX
  8
É}ÿg
  5
A95
 10
697.845
 20
-488.015
 30
0.000000
  70
    32
  0
VERTEX
  8
É}ÿg
  5
A96
 10
697.901
 20
-488.060
 30
0.000000
  70
    32
  0
VERTEX
  8
É}ÿg
  5
A97
 10
697.957
 20
-488.106
 30
0.000000
  70
    32
  0
VERTEX
  8
É}ÿg
  5
A98
 10
698.014
 20
-488.151
 30
0.000000
  70
    32
  0
VERTEX
  8
É}ÿg
  5
A99
 10
698.070
 20
-488.197
 30
0.000000
  70
    32
  0
VERTEX
  8
É}ÿg
  5
A9A
 10
698.127
 20
-488.242
 30
0.000000
  70
    32
  0
VERTEX
  8
É}ÿg
  5
A9B
 10
698.183
 20
-488.287
 30
0.000000
  70
    32
  0
VERTEX
  8
É}ÿg
  5
A9C
 10
698.240
 20
-488.332
 30
0.000000
  70
    32
  0
VERTEX
  8
É}ÿg
  5
A9D
 10
698.296
 20
-488.377
 30
0.000000
  70
    32
  0
VERTEX
  8
É}ÿg
  5
A9E
 10
698.353
 20
-488.422
 30
0.000000
  70
    32
  0
VERTEX
  8
É}ÿg
  5
A9F
 10
698.410
 20
-488.467
 30
0.000000
  70
    32
  0
VERTEX
  8
É}ÿg
  5
AA0
 10
698.467
 20
-488.512
 30
0.000000
  70
    32
  0
VERTEX
  8
É}ÿg
  5
AA1
 10
698.523
 20
-488.556
 30
0.000000
  70
    32
  0
VERTEX
  8
É}ÿg
  5
AA2
 10
698.580
 20
-488.601
 30
0.000000
  70
    32
  0
VERTEX
  8
É}ÿg
  5
AA3
 10
698.637
 20
-488.645
 30
0.000000
  70
    32
  0
VERTEX
  8
É}ÿg
  5
AA4
 10
698.694
 20
-488.689
 30
0.000000
  70
    32
  0
VERTEX
  8
É}ÿg
  5
AA5
 10
698.752
 20
-488.733
 30
0.000000
  70
    32
  0
VERTEX
  8
É}ÿg
  5
AA6
 10
698.809
 20
-488.777
 30
0.000000
  70
    32
  0
VERTEX
  8
É}ÿg
  5
AA7
 10
698.866
 20
-488.821
 30
0.000000
  70
    32
  0
VERTEX
  8
É}ÿg
  5
AA8
 10
698.923
 20
-488.865
 30
0.000000
  70
    32
  0
VERTEX
  8
É}ÿg
  5
AA9
 10
698.981
 20
-488.909
 30
0.000000
  70
    32
  0
VERTEX
  8
É}ÿg
  5
AAA
 10
699.038
 20
-488.953
 30
0.000000
  70
    32
  0
VERTEX
  8
É}ÿg
  5
AAB
 10
699.095
 20
-488.996
 30
0.000000
  70
    32
  0
VERTEX
  8
É}ÿg
  5
AAC
 10
699.153
 20
-489.039
 30
0.000000
  70
    32
  0
VERTEX
  8
É}ÿg
  5
AAD
 10
699.210
 20
-489.083
 30
0.000000
  70
    32
  0
VERTEX
  8
É}ÿg
  5
AAE
 10
699.268
 20
-489.126
 30
0.000000
  70
    32
  0
VERTEX
  8
É}ÿg
  5
AAF
 10
699.326
 20
-489.169
 30
0.000000
  70
    32
  0
VERTEX
  8
É}ÿg
  5
AB0
 10
699.384
 20
-489.212
 30
0.000000
  70
    32
  0
VERTEX
  8
É}ÿg
  5
AB1
 10
699.441
 20
-489.254
 30
0.000000
  70
    32
  0
VERTEX
  8
É}ÿg
  5
AB2
 10
699.499
 20
-489.297
 30
0.000000
  70
    32
  0
VERTEX
  8
É}ÿg
  5
AB3
 10
699.557
 20
-489.340
 30
0.000000
  70
    32
  0
VERTEX
  8
É}ÿg
  5
AB4
 10
699.615
 20
-489.382
 30
0.000000
  70
    32
  0
VERTEX
  8
É}ÿg
  5
AB5
 10
699.673
 20
-489.424
 30
0.000000
  70
    32
  0
VERTEX
  8
É}ÿg
  5
AB6
 10
699.732
 20
-489.466
 30
0.000000
  70
    32
  0
VERTEX
  8
É}ÿg
  5
AB7
 10
699.790
 20
-489.508
 30
0.000000
  70
    32
  0
VERTEX
  8
É}ÿg
  5
AB8
 10
699.848
 20
-489.550
 30
0.000000
  70
    32
  0
VERTEX
  8
É}ÿg
  5
AB9
 10
699.907
 20
-489.592
 30
0.000000
  70
    32
  0
VERTEX
  8
É}ÿg
  5
ABA
 10
699.965
 20
-489.634
 30
0.000000
  70
    32
  0
VERTEX
  8
É}ÿg
  5
ABB
 10
700.024
 20
-489.675
 30
0.000000
  70
    32
  0
VERTEX
  8
É}ÿg
  5
ABC
 10
700.082
 20
-489.717
 30
0.000000
  70
    32
  0
VERTEX
  8
É}ÿg
  5
ABD
 10
700.141
 20
-489.758
 30
0.000000
  70
    32
  0
VERTEX
  8
É}ÿg
  5
ABE
 10
700.200
 20
-489.799
 30
0.000000
  70
    32
  0
VERTEX
  8
É}ÿg
  5
ABF
 10
700.258
 20
-489.840
 30
0.000000
  70
    32
  0
VERTEX
  8
É}ÿg
  5
AC0
 10
700.317
 20
-489.881
 30
0.000000
  70
    32
  0
VERTEX
  8
É}ÿg
  5
AC1
 10
700.376
 20
-489.922
 30
0.000000
  70
    32
  0
VERTEX
  8
É}ÿg
  5
AC2
 10
700.435
 20
-489.962
 30
0.000000
  70
    32
  0
VERTEX
  8
É}ÿg
  5
AC3
 10
700.494
 20
-490.003
 30
0.000000
  70
    32
  0
VERTEX
  8
É}ÿg
  5
AC4
 10
700.553
 20
-490.043
 30
0.000000
  70
    32
  0
VERTEX
  8
É}ÿg
  5
AC5
 10
700.613
 20
-490.083
 30
0.000000
  70
    32
  0
VERTEX
  8
É}ÿg
  5
AC6
 10
700.672
 20
-490.123
 30
0.000000
  70
    32
  0
VERTEX
  8
É}ÿg
  5
AC7
 10
700.731
 20
-490.163
 30
0.000000
  70
    32
  0
VERTEX
  8
É}ÿg
  5
AC8
 10
700.791
 20
-490.203
 30
0.000000
  70
    32
  0
VERTEX
  8
É}ÿg
  5
AC9
 10
700.851
 20
-490.242
 30
0.000000
  70
    32
  0
VERTEX
  8
É}ÿg
  5
ACA
 10
700.910
 20
-490.282
 30
0.000000
  70
    32
  0
VERTEX
  8
É}ÿg
  5
ACB
 10
700.970
 20
-490.321
 30
0.000000
  70
    32
  0
VERTEX
  8
É}ÿg
  5
ACC
 10
701.030
 20
-490.360
 30
0.000000
  70
    32
  0
VERTEX
  8
É}ÿg
  5
ACD
 10
701.090
 20
-490.399
 30
0.000000
  70
    32
  0
VERTEX
  8
É}ÿg
  5
ACE
 10
701.150
 20
-490.438
 30
0.000000
  70
    32
  0
VERTEX
  8
É}ÿg
  5
ACF
 10
701.210
 20
-490.477
 30
0.000000
  70
    32
  0
VERTEX
  8
É}ÿg
  5
AD0
 10
701.270
 20
-490.515
 30
0.000000
  70
    32
  0
VERTEX
  8
É}ÿg
  5
AD1
 10
701.330
 20
-490.553
 30
0.000000
  70
    32
  0
VERTEX
  8
É}ÿg
  5
AD2
 10
701.390
 20
-490.592
 30
0.000000
  70
    32
  0
VERTEX
  8
É}ÿg
  5
AD3
 10
701.451
 20
-490.630
 30
0.000000
  70
    32
  0
VERTEX
  8
É}ÿg
  5
AD4
 10
701.511
 20
-490.668
 30
0.000000
  70
    32
  0
VERTEX
  8
É}ÿg
  5
AD5
 10
701.572
 20
-490.705
 30
0.000000
  70
    32
  0
VERTEX
  8
É}ÿg
  5
AD6
 10
701.632
 20
-490.743
 30
0.000000
  70
    32
  0
VERTEX
  8
É}ÿg
  5
AD7
 10
701.693
 20
-490.780
 30
0.000000
  70
    32
  0
VERTEX
  8
É}ÿg
  5
AD8
 10
701.754
 20
-490.818
 30
0.000000
  70
    32
  0
VERTEX
  8
É}ÿg
  5
AD9
 10
701.815
 20
-490.855
 30
0.000000
  70
    32
  0
VERTEX
  8
É}ÿg
  5
ADA
 10
701.876
 20
-490.892
 30
0.000000
  70
    32
  0
VERTEX
  8
É}ÿg
  5
ADB
 10
701.937
 20
-490.929
 30
0.000000
  70
    32
  0
SEQEND
  8
É}ÿg
  5
ADC
  0
INSERT
  5
321
  8
0
  6
CONTINUOUS
  2
*U176
 10
0.0
 20
0.0
 30
0.0
  0
LINE
  5
322
  8
É}ÿg
 10
733.66375256029994
 20
-416.90100003999999
 30
0.0
 11
733.66375256029994
 21
-424.10100003999997
 31
0.0
  0
LINE
  5
323
  8
É}ÿg
 10
684.98793949010008
 20
-481.77098113929992
 30
0.0
 11
684.98793949010008
 21
-486.27098113929992
 31
0.0
  0
LINE
  5
324
  8
É}ÿg
 10
733.66375256029994
 20
-424.10100003999997
 30
0.0
 11
748.06375256030003
 21
-427.70100003999988
 31
0.0
  0
LINE
  5
325
  8
É}ÿg
 10
692.96975767189986
 20
-475.77098113929998
 30
0.0
 11
692.96975767189986
 21
-481.17098113930001
 31
0.0
  0
ARC
  5
326
  8
É}ÿg
 10
671.48793949009996
 20
-487.77098113929998
 30
0.0
 40
9.0
 50
270.0
 51
0.0
  0
LINE
  5
327
  8
É}ÿg
 10
542.00600002519991
 20
-404.00100004000001
 30
0.0
 11
542.00600002519991
 21
-503.00100003999989
 31
0.0
  0
INSERT
  5
328
  8
0
  6
CONTINUOUS
  2
*U177
 10
0.0
 20
0.0
 30
0.0
  0
INSERT
  5
329
  8
0
  6
CONTINUOUS
  2
*U178
 10
0.0
 20
0.0
 30
0.0
  0
INSERT
  5
32A
  8
0
  6
CONTINUOUS
  2
*U179
 10
0.0
 20
0.0
 30
0.0
  0
INSERT
  5
32B
  8
0
  6
CONTINUOUS
  2
*U180
 10
0.0
 20
0.0
 30
0.0
  0
LINE
  5
32C
  8
É}ÿg
 10
654.50600002519991
 20
-437.00100003999989
 30
0.0
 11
654.50600002519991
 21
-470.00100003999989
 31
0.0
  0
LINE
  5
32D
  8
É}ÿg
 10
542.00600002519991
 20
-470.00100003999989
 30
0.0
 11
977.00600002520002
 21
-470.00100003999989
 31
0.0
  0
LINE
  5
32E
  8
É}ÿg
 10
549.5060000251998
 20
-453.50100003999989
 30
0.0
 11
647.00600002519991
 21
-453.50100003999989
 31
0.0
  0
LINE
  5
32F
  8
É}ÿg
 10
662.0060000251998
 20
-453.50100003999989
 30
0.0
 11
759.50600002520002
 21
-453.50100003999989
 31
0.0
  0
INSERT
  5
330
  8
0
  6
CONTINUOUS
  2
*U181
 10
0.0
 20
0.0
 30
0.0
  0
INSERT
  5
331
  8
0
  6
CONTINUOUS
  2
*U182
 10
0.0
 20
0.0
 30
0.0
  0
LINE
  5
332
  8
É}ÿg
 10
569.00600002519991
 20
-389.00100004000001
 30
0.0
 11
569.00600002519991
 21
-374.00100004000001
 31
0.0
  0
LINE
  5
333
  8
É}ÿg
 10
542.00600002519991
 20
-389.00100004000001
 30
0.0
 11
542.00600002519991
 21
-374.00100004000001
 31
0.0
  0
LINE
  5
334
  8
É}ÿg
 10
884.00600002520002
 20
-389.00100004000001
 30
0.0
 11
884.00600002520002
 21
-374.00100004000001
 31
0.0
  0
LINE
  5
335
  8
É}ÿg
 10
857.00600002520002
 20
-389.00100004000001
 30
0.0
 11
857.00600002520002
 21
-374.00100004000001
 31
0.0
  0
LINE
  5
336
  8
É}ÿg
 10
977.00600002520002
 20
-374.00100004000001
 30
0.0
 11
542.00600002519991
 21
-374.00100004000001
 31
0.0
  0
LINE
  5
337
  8
É}ÿg
 10
542.00600002519991
 20
-389.00100004000001
 30
0.0
 11
977.00600002520002
 21
-389.00100004000001
 31
0.0
  0
LINE
  5
338
  8
É}ÿg
 10
719.00600002520002
 20
-389.00100004000001
 30
0.0
 11
719.00600002520002
 21
-374.00100004000001
 31
0.0
  0
INSERT
  5
339
  8
0
  6
CONTINUOUS
  2
*U183
 10
0.0
 20
0.0
 30
0.0
  0
INSERT
  5
33A
  8
0
  6
CONTINUOUS
  2
*U184
 10
0.0
 20
0.0
 30
0.0
  0
CIRCLE
  5
33B
  8
É}ÿg
 10
717.20600002520007
 20
-420.50100003999989
 30
0.0
 40
3.6000000000000001
  0
LINE
  5
33C
  8
É}ÿg
 10
733.66375256029994
 20
-424.10100003999997
 30
0.0
 11
748.06375256030003
 21
-427.70100003999988
 31
0.0
  0
LINE
  5
33D
  8
É}ÿg
 10
733.66375256029994
 20
-416.90100003999999
 30
0.0
 11
733.66375256029994
 21
-424.10100003999997
 31
0.0
  0
LINE
  5
33E
  8
É}ÿg
 10
748.06375256030003
 20
-413.30100004000002
 30
0.0
 11
748.06375256030003
 21
-427.70100003999988
 31
0.0
  0
LINE
  5
33F
  8
É}ÿg
  6
BORDER
 10
717.20600002520007
 20
-409.70100004
 30
0.0
 11
717.20600002520007
 21
-431.30100004000002
 31
0.0
  0
LINE
  5
340
  8
É}ÿg
  6
BORDER
 10
717.20600002520007
 20
-409.70100004
 30
0.0
 11
717.20600002520007
 21
-431.30100004000002
 31
0.0
  0
LINE
  5
341
  8
É}ÿg
 10
748.06375256030003
 20
-413.30100004000002
 30
0.0
 11
748.06375256030003
 21
-427.70100003999988
 31
0.0
  0
LINE
  5
342
  8
É}ÿg
 10
733.66375256029994
 20
-416.90100003999999
 30
0.0
 11
733.66375256029994
 21
-424.10100003999997
 31
0.0
  0
LINE
  5
343
  8
É}ÿg
 10
733.66375256029994
 20
-424.10100003999997
 30
0.0
 11
748.06375256030003
 21
-427.70100003999988
 31
0.0
  0
LINE
  5
344
  8
É}ÿg
 10
733.66375256029994
 20
-416.90100003999999
 30
0.0
 11
748.06375256030003
 21
-413.30100004000002
 31
0.0
  0
CIRCLE
  5
345
  8
É}ÿg
 10
717.20600002520007
 20
-420.50100003999989
 30
0.0
 40
7.2000000000000002
  0
CIRCLE
  5
346
  8
É}ÿg
 10
717.20600002520007
 20
-420.50100003999989
 30
0.0
 40
3.6000000000000001
  0
CIRCLE
  5
347
  8
É}ÿg
 10
717.20600002520007
 20
-420.50100003999989
 30
0.0
 40
7.2000000000000002
  0
LINE
  5
348
  8
É}ÿg
 10
733.66375256029994
 20
-416.90100003999999
 30
0.0
 11
748.06375256030003
 21
-413.30100004000002
 31
0.0
  0
ENDBLK
  5
349
  8
0
  0
BLOCK
  8
0
  2
CLUMP72
 70
     0
 10
0.0
 20
0.0
 30
0.0
  3
CLUMP72
  1

  0
LINE
  5
35E
  8
É}ÿg
 10
719.00600002520002
 20
-374.00100004000001
 30
0.0
 11
719.00600002520002
 21
-359.00100004000001
 31
0.0
  0
LINE
  5
35F
  8
É}ÿg
 10
542.00600002519991
 20
-374.00100004000001
 30
0.0
 11
542.00600002519991
 21
-359.00100004000001
 31
0.0
  0
LINE
  5
360
  8
É}ÿg
 10
569.00600002519991
 20
-374.00100004000001
 30
0.0
 11
569.00600002519991
 21
-359.00100004000001
 31
0.0
  0
LINE
  5
361
  8
É}ÿg
 10
884.00600002520002
 20
-374.00100004000001
 30
0.0
 11
884.00600002520002
 21
-359.00100004000001
 31
0.0
  0
LINE
  5
362
  8
É}ÿg
 10
857.00600002520002
 20
-374.00100004000001
 30
0.0
 11
857.00600002520002
 21
-359.00100004000001
 31
0.0
  0
LINE
  5
363
  8
É}ÿg
 10
977.00600002520002
 20
-359.00100004000001
 30
0.0
 11
542.00600002519991
 21
-359.00100004000001
 31
0.0
  0
ENDBLK
  5
364
  8
0
  0
BLOCK
  8
0
  2
CLUMP73
 70
     0
 10
0.0
 20
0.0
 30
0.0
  3
CLUMP73
  1

  0
LINE
  5
368
  8
É}ÿg
 10
719.00600002520002
 20
-359.00100004000001
 30
0.0
 11
719.00600002520002
 21
-344.00100004000001
 31
0.0
  0
LINE
  5
369
  8
É}ÿg
 10
542.00600002519991
 20
-359.00100004000001
 30
0.0
 11
542.00600002519991
 21
-344.00100004000001
 31
0.0
  0
LINE
  5
36A
  8
É}ÿg
 10
569.00600002519991
 20
-359.00100004000001
 30
0.0
 11
569.00600002519991
 21
-344.00100004000001
 31
0.0
  0
LINE
  5
36B
  8
É}ÿg
 10
884.00600002520002
 20
-359.00100004000001
 30
0.0
 11
884.00600002520002
 21
-344.00100004000001
 31
0.0
  0
LINE
  5
36C
  8
É}ÿg
 10
857.00600002520002
 20
-359.00100004000001
 30
0.0
 11
857.00600002520002
 21
-344.00100004000001
 31
0.0
  0
LINE
  5
36D
  8
É}ÿg
 10
977.00600002520002
 20
-344.00100004000001
 30
0.0
 11
542.00600002519991
 21
-344.00100004000001
 31
0.0
  0
ENDBLK
  5
36E
  8
0
  0
BLOCK
  8
0
  2
*D80
 70
     1
 10
0.0
 20
0.0
 30
0.0
  3
*D80
  1

  0
TEXT
  5
371
  8
0
 62
     0
 10
448.60909368710003
 20
-207.28528460070001
 30
0.0
 40
9.8954164504999991
  1
31.5
 50
90.0
  0
LINE
  5
372
  8
0
 62
     0
 10
426.35534364900002
 20
-213.09127526930001
 30
0.0
 11
453.35534364900002
 21
-213.09127526930001
 31
0.0
  0
LINE
  5
373
  8
0
 62
     0
 10
400.25527390970001
 20
-181.59144714429999
 30
0.0
 11
453.35534364900002
 21
-181.59144714429999
 31
0.0
  0
LINE
  5
374
  8
0
 62
     0
 10
451.35534364900002
 20
-213.09127526930001
 30
0.0
 11
451.35534364900002
 21
-213.09127526930001
 31
0.0
  0
LINE
  5
375
  8
0
 62
     0
 10
451.35534364900002
 20
-213.09127526930001
 30
0.0
 11
451.35534364900002
 21
-181.59144714429999
 31
0.0
  0
LINE
  5
376
  8
0
 62
     0
 10
451.35534364900002
 20
-181.59144714429999
 30
0.0
 11
451.35534364900002
 21
-213.09127526930001
 31
0.0
  0
LINE
  5
377
  8
0
 62
     0
 10
451.35534364900002
 20
-181.59144714429999
 30
0.0
 11
451.35534364900002
 21
-181.59144714429999
 31
0.0
  0
LINE
  5
378
  8
0
 62
     0
 10
451.35534364900002
 20
-181.59144714429999
 30
0.0
 11
451.35534364900002
 21
-186.59144714429999
 31
0.0
  0
SOLID
  5
379
  8
0
 62
     0
 10
451.35534364900002
 20
-181.59144714429999
 30
0.0
 11
453.60534364900002
 21
-190.59144714429999
 31
0.0
 12
449.10534364900002
 22
-190.59144714429999
 32
0.0
 13
451.35534364900002
 23
-188.34144714429999
 33
0.0
  0
LINE
  5
37A
  8
0
 62
     0
 10
451.35534364900002
 20
-213.09127526930001
 30
0.0
 11
451.35534364900002
 21
-208.09127526930001
 31
0.0
  0
SOLID
  5
37B
  8
0
 62
     0
 10
451.35534364900002
 20
-213.09127526930001
 30
0.0
 11
449.10534364900002
 21
-204.09127526930001
 31
0.0
 12
453.60534364900002
 22
-204.09127526930001
 32
0.0
 13
451.35534364900002
 23
-206.34127526930001
 33
0.0
  0
ENDBLK
  5
37C
  8
0
  0
BLOCK
  8
0
  2
*D81
 70
     1
 10
0.0
 20
0.0
 30
0.0
  3
*D81
  1

  0
TEXT
  5
380
  8
0
 62
     0
 10
448.60909368710003
 20
-238.78528460070001
 30
0.0
 40
9.8954164504999991
  1
31.5
 50
90.0
  0
LINE
  5
381
  8
0
 62
     0
 10
400.25527390970001
 20
-244.59144714429999
 30
0.0
 11
453.35534364900002
 21
-244.59144714429999
 31
0.0
  0
LINE
  5
382
  8
0
 62
     0
 10
426.35534364900002
 20
-213.09127526930001
 30
0.0
 11
453.35534364900002
 21
-213.09127526930001
 31
0.0
  0
LINE
  5
383
  8
0
 62
     0
 10
451.35534364900002
 20
-244.59144714429999
 30
0.0
 11
451.35534364900002
 21
-244.59144714429999
 31
0.0
  0
LINE
  5
384
  8
0
 62
     0
 10
451.35534364900002
 20
-244.59144714429999
 30
0.0
 11
451.35534364900002
 21
-213.09127526930001
 31
0.0
  0
LINE
  5
385
  8
0
 62
     0
 10
451.35534364900002
 20
-213.09127526930001
 30
0.0
 11
451.35534364900002
 21
-244.59144714429999
 31
0.0
  0
LINE
  5
386
  8
0
 62
     0
 10
451.35534364900002
 20
-213.09127526930001
 30
0.0
 11
451.35534364900002
 21
-213.09127526930001
 31
0.0
  0
LINE
  5
387
  8
0
 62
     0
 10
451.35534364900002
 20
-213.09127526930001
 30
0.0
 11
451.35534364900002
 21
-218.09127526930001
 31
0.0
  0
SOLID
  5
388
  8
0
 62
     0
 10
451.35534364900002
 20
-213.09127526930001
 30
0.0
 11
453.60534364900002
 21
-222.09127526930001
 31
0.0
 12
449.10534364900002
 22
-222.09127526930001
 32
0.0
 13
451.35534364900002
 23
-219.84127526930001
 33
0.0
  0
LINE
  5
389
  8
0
 62
     0
 10
451.35534364900002
 20
-244.59144714429999
 30
0.0
 11
451.35534364900002
 21
-239.59144714429999
 31
0.0
  0
SOLID
  5
38A
  8
0
 62
     0
 10
451.35534364900002
 20
-244.59144714429999
 30
0.0
 11
449.10534364900002
 21
-235.59144714429999
 31
0.0
 12
453.60534364900002
 22
-235.59144714429999
 32
0.0
 13
451.35534364900002
 23
-237.84144714429999
 33
0.0
  0
ENDBLK
  5
38B
  8
0
  0
BLOCK
  8
0
  2
BALLON2
 70
     0
 10
0.0
 20
0.0
 30
0.0
  3
BALLON2
  1

  0
INSERT
  5
390
  8
0
  6
CONTINUOUS
  2
*U201
 10
0.0
 20
0.0
 30
0.0
  0
CIRCLE
  5
391
  8
┌▓È_1
 10
-28.299509029799999
 20
26.144759886900001
 30
0.0
 40
10.0
  0
LINE
  5
392
  8
Éíû@É³
 10
-11.6328423631
 20
26.144759886900001
 30
0.0
 11
-18.299509029799999
 21
26.144759886900001
 31
0.0
  0
LINE
  5
393
  8
Éíû@É³
 10
0.5145376198000001
 20
91.629134886900005
 30
0.0
 11
-11.6328423631
 21
26.144759886900001
 31
0.0
  0
SOLID
  5
394
  8
Éíû@É³
 10
0.5145376198000001
 20
91.629134886900005
 30
0.0
 11
0.6571011896
 21
81.432092392699985
 31
0.0
 12
-0.9445738641
 22
83.763323188300006
 32
0.0
 13
-0.9445738641
 23
83.763323188300006
 33
0.0
  0
SOLID
  5
395
  8
Éíû@É³
 10
-0.9445738641
 20
83.763323188300006
 30
0.0
 11
-3.2758046596999999
 21
82.1616481346
 31
0.0
 12
0.5145376198000001
 22
91.629134886900005
 32
0.0
 13
0.5145376198000001
 23
91.629134886900005
 33
0.0
  0
ENDBLK
  5
396
  8
0
  0
BLOCK
  8
0
  2
*D83
 70
     1
 10
0.0
 20
0.0
 30
0.0
  3
*D83
  1

  0
TEXT
  5
399
  8
0
 62
     0
 10
429.02005970339991
 20
-351.186567443
 30
0.0
 40
9.8954164504999991
  1
R5
 50
315.0
  0
LINE
  5
39A
  8
0
 62
     0
 10
419.89087755489987
 20
-347.81971617969998
 30
0.0
 11
437.97225232849991
 21
-365.90109095330001
 31
0.0
  0
SOLID
  5
39B
  8
0
 62
     0
 10
419.89087755489987
 20
-347.81971617969998
 30
0.0
 11
427.8458288432999
 21
-352.59268695269998
 31
0.0
 12
424.66384832789993
 22
-355.77466746809989
 32
0.0
 13
424.66384832789993
 23
-352.59268695269998
 33
0.0
  0
ENDBLK
  5
39C
  8
0
  0
BLOCK
  8
0
  2
*D84
 70
     1
 10
0.0
 20
0.0
 30
0.0
  3
*D84
  1

  0
TEXT
  5
3A0
  8
0
 62
     0
 10
229.58524989099999
 20
261.43565733299999
 30
0.0
 40
9.8954164504999991
  1
1180
  0
LINE
  5
3A1
  8
0
 62
     0
 10
631.7269163034
 20
201.9645385968
 30
0.0
 11
631.7269163034
 21
260.68940737119999
 31
0.0
  0
LINE
  5
3A2
  8
0
 62
     0
 10
-149.2730836966
 20
201.9645385968
 30
0.0
 11
-149.2730836966
 21
260.68940737119999
 31
0.0
  0
LINE
  5
3A3
  8
0
 62
     0
 10
631.7269163034
 20
258.68940737119999
 30
0.0
 11
258.68941592189998
 21
258.68940737119999
 31
0.0
  0
LINE
  5
3A4
  8
0
 62
     0
 10
631.7269163034
 20
258.68940737119999
 30
0.0
 11
223.76441668480001
 21
258.68940737119999
 31
0.0
  0
LINE
  5
3A5
  8
0
 62
     0
 10
-149.2730836966
 20
258.68940737119999
 30
0.0
 11
258.68941592189998
 21
258.68940737119999
 31
0.0
  0
LINE
  5
3A6
  8
0
 62
     0
 10
-149.2730836966
 20
258.68940737119999
 30
0.0
 11
223.76441668480001
 21
258.68940737119999
 31
0.0
  0
LINE
  5
3A7
  8
0
 62
     0
 10
-149.2730836966
 20
258.68940737119999
 30
0.0
 11
-144.2730836966
 21
258.68940737119999
 31
0.0
  0
SOLID
  5
3A8
  8
0
 62
     0
 10
-149.2730836966
 20
258.68940737119999
 30
0.0
 11
-140.2730836966
 21
260.93940737119999
 31
0.0
 12
-140.2730836966
 22
256.43940737119999
 32
0.0
 13
-142.5230836966
 23
258.68940737119999
 33
0.0
  0
LINE
  5
3A9
  8
0
 62
     0
 10
631.7269163034
 20
258.68940737119999
 30
0.0
 11
626.7269163034
 21
258.68940737119999
 31
0.0
  0
SOLID
  5
3AA
  8
0
 62
     0
 10
631.7269163034
 20
258.68940737119999
 30
0.0
 11
622.7269163034
 21
256.43940737119999
 31
0.0
 12
622.7269163034
 22
260.93940737119999
 32
0.0
 13
624.9769163034
 23
258.68940737119999
 33
0.0
  0
ENDBLK
  5
3AB
  8
0
  0
BLOCK
  8
0
  2
*D85
 70
     1
 10
0.0
 20
0.0
 30
0.0
  3
*D85
  1

  0
TEXT
  5
3AF
  8
0
 62
     0
 10
448.60909368710003
 20
-274.41219441300001
 30
0.0
 40
9.8954164504999991
  1
18
 50
90.0
  0
LINE
  5
3B0
  8
0
 62
     0
 10
421.35534364900002
 20
-277.59127526930001
 30
0.0
 11
453.35534364900002
 21
-277.59127526930001
 31
0.0
  0
LINE
  5
3B1
  8
0
 62
     0
 10
400.25527390970001
 20
-259.59144714429999
 30
0.0
 11
453.35534364900002
 21
-259.59144714429999
 31
0.0
  0
LINE
  5
3B2
  8
0
 62
     0
 10
451.35534364900002
 20
-277.59127526930001
 30
0.0
 11
451.35534364900002
 21
-277.59127526930001
 31
0.0
  0
LINE
  5
3B3
  8
0
 62
     0
 10
451.35534364900002
 20
-277.59127526930001
 30
0.0
 11
451.35534364900002
 21
-259.59144714429999
 31
0.0
  0
LINE
  5
3B4
  8
0
 62
     0
 10
451.35534364900002
 20
-259.59144714429999
 30
0.0
 11
451.35534364900002
 21
-277.59127526930001
 31
0.0
  0
LINE
  5
3B5
  8
0
 62
     0
 10
451.35534364900002
 20
-259.59144714429999
 30
0.0
 11
451.35534364900002
 21
-259.59144714429999
 31
0.0
  0
LINE
  5
3B6
  8
0
 62
     0
 10
451.35534364900002
 20
-259.59144714429999
 30
0.0
 11
451.35534364900002
 21
-254.59144714429999
 31
0.0
  0
SOLID
  5
3B7
  8
0
 62
     0
 10
451.35534364900002
 20
-259.59144714429999
 30
0.0
 11
449.10534364900002
 21
-250.59144714429999
 31
0.0
 12
453.60534364900002
 22
-250.59144714429999
 32
0.0
 13
451.35534364900002
 23
-252.84144714429999
 33
0.0
  0
LINE
  5
3B8
  8
0
 62
     0
 10
451.35534364900002
 20
-277.59127526930001
 30
0.0
 11
451.35534364900002
 21
-282.59127526930001
 31
0.0
  0
SOLID
  5
3B9
  8
0
 62
     0
 10
451.35534364900002
 20
-277.59127526930001
 30
0.0
 11
453.60534364900002
 21
-286.59127526930001
 31
0.0
 12
449.10534364900002
 22
-286.59127526930001
 32
0.0
 13
451.35534364900002
 23
-284.34127526930001
 33
0.0
  0
ENDBLK
  5
3BA
  8
0
  0
BLOCK
  8
0
  2
*D86
 70
     1
 10
0.0
 20
0.0
 30
0.0
  3
*D86
  1

  0
TEXT
  5
3BE
  8
0
 62
     0
 10
395.36138538550011
 20
-304.84502530750001
 30
0.0
 40
9.8954164504999991
  1
32.1
  0
LINE
  5
3BF
  8
0
 62
     0
 10
389.25527390970001
 20
-263.09144714429999
 30
0.0
 11
389.25527390970001
 21
-309.59127526930001
 31
0.0
  0
LINE
  5
3C0
  8
0
 62
     0
 10
421.35534364900002
 20
-277.59127526930001
 30
0.0
 11
421.35534364900002
 21
-309.59127526930001
 31
0.0
  0
LINE
  5
3C1
  8
0
 62
     0
 10
389.25527390970001
 20
-307.59127526930001
 30
0.0
 11
421.07006537939998
 21
-307.59127526930001
 31
0.0
  0
LINE
  5
3C2
  8
0
 62
     0
 10
389.25527390970001
 20
-307.59127526930001
 30
0.0
 11
389.54055217929999
 21
-307.59127526930001
 31
0.0
  0
LINE
  5
3C3
  8
0
 62
     0
 10
421.35534364900002
 20
-307.59127526930001
 30
0.0
 11
421.07006537939998
 21
-307.59127526930001
 31
0.0
  0
LINE
  5
3C4
  8
0
 62
     0
 10
421.35534364900002
 20
-307.59127526930001
 30
0.0
 11
389.54055217929999
 21
-307.59127526930001
 31
0.0
  0
LINE
  5
3C5
  8
0
 62
     0
 10
421.35534364900002
 20
-307.59127526930001
 30
0.0
 11
426.35534364900002
 21
-307.59127526930001
 31
0.0
  0
SOLID
  5
3C6
  8
0
 62
     0
 10
421.35534364900002
 20
-307.59127526930001
 30
0.0
 11
430.35534364900002
 21
-305.34127526930001
 31
0.0
 12
430.35534364900002
 22
-309.84127526930001
 32
0.0
 13
428.10534364900002
 23
-307.59127526930001
 33
0.0
  0
LINE
  5
3C7
  8
0
 62
     0
 10
389.25527390970001
 20
-307.59127526930001
 30
0.0
 11
384.25527390970001
 21
-307.59127526930001
 31
0.0
  0
SOLID
  5
3C8
  8
0
 62
     0
 10
389.25527390970001
 20
-307.59127526930001
 30
0.0
 11
380.25527390970001
 21
-309.84127526930001
 31
0.0
 12
380.25527390970001
 22
-305.34127526930001
 32
0.0
 13
382.50527390970001
 23
-307.59127526930001
 33
0.0
  0
ENDBLK
  5
3C9
  8
0
  0
BLOCK
  8
0
  2
*D87
 70
     1
 10
0.0
 20
0.0
 30
0.0
  3
*D87
  1

  0
TEXT
  5
3CD
  8
0
 62
     0
 10
345.93444070359999
 20
-304.84502552110001
 30
0.0
 40
9.8954164504999991
  1
75
  0
LINE
  5
3CE
  8
0
 62
     0
 10
314.25527390970001
 20
-263.09144714429999
 30
0.0
 11
314.25527390970001
 21
-309.591275483
 31
0.0
  0
LINE
  5
3CF
  8
0
 62
     0
 10
389.25527390970001
 20
-263.09144714429999
 30
0.0
 11
389.25527390970001
 21
-309.591275483
 31
0.0
  0
LINE
  5
3D0
  8
0
 62
     0
 10
314.25527390970001
 20
-307.591275483
 30
0.0
 11
363.39694032210002
 21
-307.591275483
 31
0.0
  0
LINE
  5
3D1
  8
0
 62
     0
 10
314.25527390970001
 20
-307.591275483
 30
0.0
 11
340.11360749739998
 21
-307.591275483
 31
0.0
  0
LINE
  5
3D2
  8
0
 62
     0
 10
389.25527390970001
 20
-307.591275483
 30
0.0
 11
363.39694032210002
 21
-307.591275483
 31
0.0
  0
LINE
  5
3D3
  8
0
 62
     0
 10
389.25527390970001
 20
-307.591275483
 30
0.0
 11
340.11360749739998
 21
-307.591275483
 31
0.0
  0
LINE
  5
3D4
  8
0
 62
     0
 10
389.25527390970001
 20
-307.591275483
 30
0.0
 11
384.25527390970001
 21
-307.591275483
 31
0.0
  0
SOLID
  5
3D5
  8
0
 62
     0
 10
389.25527390970001
 20
-307.591275483
 30
0.0
 11
380.25527390970001
 21
-309.841275483
 31
0.0
 12
380.25527390970001
 22
-305.341275483
 32
0.0
 13
382.50527390970001
 23
-307.591275483
 33
0.0
  0
LINE
  5
3D6
  8
0
 62
     0
 10
314.25527390970001
 20
-307.591275483
 30
0.0
 11
319.25527390970001
 21
-307.591275483
 31
0.0
  0
SOLID
  5
3D7
  8
0
 62
     0
 10
314.25527390970001
 20
-307.591275483
 30
0.0
 11
323.25527390970001
 21
-305.341275483
 31
0.0
 12
323.25527390970001
 22
-309.841275483
 32
0.0
 13
321.00527390970001
 23
-307.591275483
 33
0.0
  0
ENDBLK
  5
3D8
  8
0
  0
BLOCK
  8
0
  2
*D88
 70
     1
 10
0.0
 20
0.0
 30
0.0
  3
*D88
  1

  0
TEXT
  5
3DC
  8
0
 62
     0
 10
270.93444070359999
 20
-304.84502552110001
 30
0.0
 40
9.8954164504999991
  1
75
  0
LINE
  5
3DD
  8
0
 62
     0
 10
239.25527390970001
 20
-263.09144714429999
 30
0.0
 11
239.25527390970001
 21
-309.591275483
 31
0.0
  0
LINE
  5
3DE
  8
0
 62
     0
 10
314.25527390970001
 20
-263.09144714429999
 30
0.0
 11
314.25527390970001
 21
-309.591275483
 31
0.0
  0
LINE
  5
3DF
  8
0
 62
     0
 10
239.25527390970001
 20
-307.591275483
 30
0.0
 11
288.39694032210002
 21
-307.591275483
 31
0.0
  0
LINE
  5
3E0
  8
0
 62
     0
 10
239.25527390970001
 20
-307.591275483
 30
0.0
 11
265.11360749739998
 21
-307.591275483
 31
0.0
  0
LINE
  5
3E1
  8
0
 62
     0
 10
314.25527390970001
 20
-307.591275483
 30
0.0
 11
288.39694032210002
 21
-307.591275483
 31
0.0
  0
LINE
  5
3E2
  8
0
 62
     0
 10
314.25527390970001
 20
-307.591275483
 30
0.0
 11
265.11360749739998
 21
-307.591275483
 31
0.0
  0
LINE
  5
3E3
  8
0
 62
     0
 10
314.25527390970001
 20
-307.591275483
 30
0.0
 11
309.25527390970001
 21
-307.591275483
 31
0.0
  0
SOLID
  5
3E4
  8
0
 62
     0
 10
314.25527390970001
 20
-307.591275483
 30
0.0
 11
305.25527390970001
 21
-309.841275483
 31
0.0
 12
305.25527390970001
 22
-305.341275483
 32
0.0
 13
307.50527390970001
 23
-307.591275483
 33
0.0
  0
LINE
  5
3E5
  8
0
 62
     0
 10
239.25527390970001
 20
-307.591275483
 30
0.0
 11
244.25527390970001
 21
-307.591275483
 31
0.0
  0
SOLID
  5
3E6
  8
0
 62
     0
 10
239.25527390970001
 20
-307.591275483
 30
0.0
 11
248.25527390970001
 21
-305.341275483
 31
0.0
 12
248.25527390970001
 22
-309.841275483
 32
0.0
 13
246.00527390970001
 23
-307.591275483
 33
0.0
  0
ENDBLK
  5
3E7
  8
0
  0
BLOCK
  8
0
  2
*D89
 70
     1
 10
0.0
 20
0.0
 30
0.0
  3
*D89
  1

  0
TEXT
  5
3EB
  8
0
 62
     0
 10
659.16155771729996
 20
-37.478775205799998
 30
0.0
 40
9.8954164504999991
  1
6
 50
90.0
  0
LINE
  5
3EC
  8
0
 62
     0
 10
639.92749456879994
 20
-37.568358602700002
 30
0.0
 11
663.90780767919989
 21
-37.568358602700002
 31
0.0
  0
LINE
  5
3ED
  8
0
 62
     0
 10
640.72749456880001
 20
-31.568358602699998
 30
0.0
 11
663.90780767919989
 21
-31.568358602699998
 31
0.0
  0
LINE
  5
3EE
  8
0
 62
     0
 10
661.9078076792
 20
-37.568358602700002
 30
0.0
 11
661.9078076792
 21
-37.568358602700002
 31
0.0
  0
LINE
  5
3EF
  8
0
 62
     0
 10
661.9078076792
 20
-37.568358602700002
 30
0.0
 11
661.9078076792
 21
-31.568358602699998
 31
0.0
  0
LINE
  5
3F0
  8
0
 62
     0
 10
661.9078076792
 20
-31.568358602699998
 30
0.0
 11
661.9078076792
 21
-37.568358602700002
 31
0.0
  0
LINE
  5
3F1
  8
0
 62
     0
 10
661.9078076792
 20
-31.568358602699998
 30
0.0
 11
661.9078076792
 21
-31.568358602699998
 31
0.0
  0
LINE
  5
3F2
  8
0
 62
     0
 10
661.9078076792
 20
-31.568358602699998
 30
0.0
 11
661.9078076792
 21
-26.568358602699998
 31
0.0
  0
SOLID
  5
3F3
  8
0
 62
     0
 10
661.9078076792
 20
-31.568358602699998
 30
0.0
 11
659.6578076792
 21
-22.568358602699998
 31
0.0
 12
664.1578076792
 22
-22.568358602699998
 32
0.0
 13
661.9078076792
 23
-24.818358602699998
 33
0.0
  0
LINE
  5
3F4
  8
0
 62
     0
 10
661.9078076792
 20
-37.568358602700002
 30
0.0
 11
661.9078076792
 21
-42.568358602700002
 31
0.0
  0
SOLID
  5
3F5
  8
0
 62
     0
 10
661.9078076792
 20
-37.568358602700002
 30
0.0
 11
664.1578076792
 21
-46.568358602700002
 31
0.0
 12
659.6578076792
 22
-46.568358602700002
 32
0.0
 13
661.9078076792
 23
-44.318358602700002
 33
0.0
  0
ENDBLK
  5
3F6
  8
0
  0
BLOCK
  8
0
  2
*D90
 70
     1
 10
0.0
 20
0.0
 30
0.0
  3
*D90
  1

  0
TEXT
  5
3FA
  8
0
 62
     0
 10
659.16155771729996
 20
-13.4787752058
 30
0.0
 40
9.8954164504999991
  1
6
 50
90.0
  0
LINE
  5
3FB
  8
0
 62
     0
 10
640.72749456880001
 20
-13.5683586027
 30
0.0
 11
663.90780767919989
 21
-13.5683586027
 31
0.0
  0
LINE
  5
3FC
  8
0
 62
     0
 10
639.92749456879994
 20
-7.5683586027
 30
0.0
 11
663.90780767919989
 21
-7.5683586027
 31
0.0
  0
LINE
  5
3FD
  8
0
 62
     0
 10
661.9078076792
 20
-13.5683586027
 30
0.0
 11
661.9078076792
 21
-13.5683586027
 31
0.0
  0
LINE
  5
3FE
  8
0
 62
     0
 10
661.9078076792
 20
-13.5683586027
 30
0.0
 11
661.9078076792
 21
-7.5683586027
 31
0.0
  0
LINE
  5
3FF
  8
0
 62
     0
 10
661.9078076792
 20
-7.5683586027
 30
0.0
 11
661.9078076792
 21
-13.5683586027
 31
0.0
  0
LINE
  5
400
  8
0
 62
     0
 10
661.9078076792
 20
-7.5683586027
 30
0.0
 11
661.9078076792
 21
-7.5683586027
 31
0.0
  0
LINE
  5
401
  8
0
 62
     0
 10
661.9078076792
 20
-7.5683586027
 30
0.0
 11
661.9078076792
 21
-2.5683586027
 31
0.0
  0
SOLID
  5
402
  8
0
 62
     0
 10
661.9078076792
 20
-7.5683586027
 30
0.0
 11
659.6578076792
 21
1.4316413972999991
 31
0.0
 12
664.1578076792
 22
1.4316413972999991
 32
0.0
 13
661.9078076792
 23
-0.8183586026999998
 33
0.0
  0
LINE
  5
403
  8
0
 62
     0
 10
661.9078076792
 20
-13.5683586027
 30
0.0
 11
661.9078076792
 21
-18.568358602699998
 31
0.0
  0
SOLID
  5
404
  8
0
 62
     0
 10
661.9078076792
 20
-13.5683586027
 30
0.0
 11
664.1578076792
 21
-22.568358602699998
 31
0.0
 12
659.6578076792
 22
-22.568358602699998
 32
0.0
 13
661.9078076792
 23
-20.318358602699998
 33
0.0
  0
ENDBLK
  5
405
  8
0
  0
BLOCK
  8
0
  2
*D91
 70
     1
 10
0.0
 20
0.0
 30
0.0
  3
*D91
  1

  0
TEXT
  5
409
  8
0
 62
     0
 10
667.83605116820002
 20
64.554121993699994
 30
0.0
 40
9.8954164504999991
  1
9
 50
90.0
  0
LINE
  5
40A
  8
0
 62
     0
 10
640.72691630339989
 20
62.964538596799997
 30
0.0
 11
672.58230113000002
 21
62.964538596799997
 31
0.0
  0
LINE
  5
40B
  8
0
 62
     0
 10
631.7269163034
 20
71.964538596799997
 30
0.0
 11
672.58230113000002
 21
71.964538596799997
 31
0.0
  0
LINE
  5
40C
  8
0
 62
     0
 10
670.58230113000002
 20
62.964538596799997
 30
0.0
 11
670.58230113000002
 21
62.964538596799997
 31
0.0
  0
LINE
  5
40D
  8
0
 62
     0
 10
670.58230113000002
 20
62.964538596799997
 30
0.0
 11
670.58230113000002
 21
71.964538596799997
 31
0.0
  0
LINE
  5
40E
  8
0
 62
     0
 10
670.58230113000002
 20
71.964538596799997
 30
0.0
 11
670.58230113000002
 21
62.964538596799997
 31
0.0
  0
LINE
  5
40F
  8
0
 62
     0
 10
670.58230113000002
 20
71.964538596799997
 30
0.0
 11
670.58230113000002
 21
71.964538596799997
 31
0.0
  0
LINE
  5
410
  8
0
 62
     0
 10
670.58230113000002
 20
71.964538596799997
 30
0.0
 11
670.58230113000002
 21
76.964538596799997
 31
0.0
  0
SOLID
  5
411
  8
0
 62
     0
 10
670.58230113000002
 20
71.964538596799997
 30
0.0
 11
668.33230113000002
 21
80.964538596799997
 31
0.0
 12
672.83230113000002
 22
80.964538596799997
 32
0.0
 13
670.58230113000002
 23
78.714538596799997
 33
0.0
  0
LINE
  5
412
  8
0
 62
     0
 10
670.58230113000002
 20
62.964538596799997
 30
0.0
 11
670.58230113000002
 21
57.964538596799997
 31
0.0
  0
SOLID
  5
413
  8
0
 62
     0
 10
670.58230113000002
 20
62.964538596799997
 30
0.0
 11
672.83230113000002
 21
53.964538596800011
 31
0.0
 12
668.33230113000002
 22
53.964538596800011
 32
0.0
 13
670.58230113000002
 23
56.214538596799997
 33
0.0
  0
ENDBLK
  5
414
  8
0
  0
BLOCK
  8
0
  2
*D92
 70
     1
 10
0.0
 20
0.0
 30
0.0
  3
*D92
  1

  0
TEXT
  5
418
  8
0
 62
     0
 10
667.83605116820002
 20
203.55412199369999
 30
0.0
 40
9.8954164504999991
  1
9
 50
90.0
  0
LINE
  5
419
  8
0
 62
     0
 10
631.7269163034
 20
201.9645385968
 30
0.0
 11
672.58230113000002
 21
201.9645385968
 31
0.0
  0
LINE
  5
41A
  8
0
 62
     0
 10
640.72691630339989
 20
210.9645385968
 30
0.0
 11
672.58230113000002
 21
210.9645385968
 31
0.0
  0
LINE
  5
41B
  8
0
 62
     0
 10
670.58230113000002
 20
201.9645385968
 30
0.0
 11
670.58230113000002
 21
201.9645385968
 31
0.0
  0
LINE
  5
41C
  8
0
 62
     0
 10
670.58230113000002
 20
201.9645385968
 30
0.0
 11
670.58230113000002
 21
210.9645385968
 31
0.0
  0
LINE
  5
41D
  8
0
 62
     0
 10
670.58230113000002
 20
210.9645385968
 30
0.0
 11
670.58230113000002
 21
201.9645385968
 31
0.0
  0
LINE
  5
41E
  8
0
 62
     0
 10
670.58230113000002
 20
210.9645385968
 30
0.0
 11
670.58230113000002
 21
210.9645385968
 31
0.0
  0
LINE
  5
41F
  8
0
 62
     0
 10
670.58230113000002
 20
210.9645385968
 30
0.0
 11
670.58230113000002
 21
215.9645385968
 31
0.0
  0
SOLID
  5
420
  8
0
 62
     0
 10
670.58230113000002
 20
210.9645385968
 30
0.0
 11
668.33230113000002
 21
219.9645385968
 31
0.0
 12
672.83230113000002
 22
219.9645385968
 32
0.0
 13
670.58230113000002
 23
217.7145385968
 33
0.0
  0
LINE
  5
421
  8
0
 62
     0
 10
670.58230113000002
 20
201.9645385968
 30
0.0
 11
670.58230113000002
 21
196.9645385968
 31
0.0
  0
SOLID
  5
422
  8
0
 62
     0
 10
670.58230113000002
 20
201.9645385968
 30
0.0
 11
672.83230113000002
 21
192.9645385968
 31
0.0
 12
668.33230113000002
 22
192.9645385968
 32
0.0
 13
670.58230113000002
 23
195.2145385968
 33
0.0
  0
ENDBLK
  5
423
  8
0
  0
BLOCK
  8
0
  2
*D93
 70
     1
 10
0.0
 20
0.0
 30
0.0
  3
*D93
  1

  0
TEXT
  5
427
  8
0
 62
     0
 10
633.31649970030003
 20
261.43565733299999
 30
0.0
 40
9.8954164504999991
  1
9
  0
LINE
  5
428
  8
0
 62
     0
 10
640.72691630339989
 20
210.9645385968
 30
0.0
 11
640.72691630339989
 21
260.68940737119999
 31
0.0
  0
LINE
  5
429
  8
0
 62
     0
 10
631.7269163034
 20
201.9645385968
 30
0.0
 11
631.7269163034
 21
260.68940737119999
 31
0.0
  0
LINE
  5
42A
  8
0
 62
     0
 10
640.72691630339989
 20
258.68940737119999
 30
0.0
 11
640.72691630339989
 21
258.68940737119999
 31
0.0
  0
LINE
  5
42B
  8
0
 62
     0
 10
640.72691630339989
 20
258.68940737119999
 30
0.0
 11
631.7269163034
 21
258.68940737119999
 31
0.0
  0
LINE
  5
42C
  8
0
 62
     0
 10
631.7269163034
 20
258.68940737119999
 30
0.0
 11
640.72691630339989
 21
258.68940737119999
 31
0.0
  0
LINE
  5
42D
  8
0
 62
     0
 10
631.7269163034
 20
258.68940737119999
 30
0.0
 11
631.7269163034
 21
258.68940737119999
 31
0.0
  0
LINE
  5
42E
  8
0
 62
     0
 10
631.7269163034
 20
258.68940737119999
 30
0.0
 11
626.7269163034
 21
258.68940737119999
 31
0.0
  0
SOLID
  5
42F
  8
0
 62
     0
 10
631.7269163034
 20
258.68940737119999
 30
0.0
 11
622.7269163034
 21
256.43940737119999
 31
0.0
 12
622.7269163034
 22
260.93940737119999
 32
0.0
 13
624.9769163034
 23
258.68940737119999
 33
0.0
  0
LINE
  5
430
  8
0
 62
     0
 10
640.72691630339989
 20
258.68940737119999
 30
0.0
 11
645.72691630339989
 21
258.68940737119999
 31
0.0
  0
SOLID
  5
431
  8
0
 62
     0
 10
640.72691630339989
 20
258.68940737119999
 30
0.0
 11
649.72691630339989
 21
260.93940737119999
 31
0.0
 12
649.72691630339989
 22
256.43940737119999
 32
0.0
 13
647.47691630339989
 23
258.68940737119999
 33
0.0
  0
ENDBLK
  5
432
  8
0
  0
BLOCK
  8
0
  2
*D94
 70
     1
 10
0.0
 20
0.0
 30
0.0
  3
*D94
  1

  0
TEXT
  5
436
  8
0
 62
     0
 10
785.81259306879997
 20
218.7285355164
 30
0.0
 40
9.8954164504999991
  1
15.5
 50
90.0
  0
LINE
  5
437
  8
0
 62
     0
 10
764.77340067839987
 20
195.4650099509
 30
0.0
 11
790.55884303070002
 21
195.4650099509
 31
0.0
  0
LINE
  5
438
  8
0
 62
     0
 10
764.77340067839987
 20
210.9650099509
 30
0.0
 11
790.55884303070002
 21
210.9650099509
 31
0.0
  0
LINE
  5
439
  8
0
 62
     0
 10
788.55884303070002
 20
195.4650099509
 30
0.0
 11
788.55884303070002
 21
244.43721551030001
 31
0.0
  0
LINE
  5
43A
  8
0
 62
     0
 10
788.55884303070002
 20
195.4650099509
 30
0.0
 11
788.55884303070002
 21
212.90770231019999
 31
0.0
  0
LINE
  5
43B
  8
0
 62
     0
 10
788.55884303070002
 20
210.9650099509
 30
0.0
 11
788.55884303070002
 21
244.43721551030001
 31
0.0
  0
LINE
  5
43C
  8
0
 62
     0
 10
788.55884303070002
 20
210.9650099509
 30
0.0
 11
788.55884303070002
 21
212.90770231019999
 31
0.0
  0
LINE
  5
43D
  8
0
 62
     0
 10
788.55884303070002
 20
210.9650099509
 30
0.0
 11
788.55884303070002
 21
215.9650099509
 31
0.0
  0
SOLID
  5
43E
  8
0
 62
     0
 10
788.55884303070002
 20
210.9650099509
 30
0.0
 11
786.30884303070002
 21
219.9650099509
 31
0.0
 12
790.80884303070002
 22
219.9650099509
 32
0.0
 13
788.55884303070002
 23
217.7150099509
 33
0.0
  0
LINE
  5
43F
  8
0
 62
     0
 10
788.55884303070002
 20
195.4650099509
 30
0.0
 11
788.55884303070002
 21
190.4650099509
 31
0.0
  0
SOLID
  5
440
  8
0
 62
     0
 10
788.55884303070002
 20
195.4650099509
 30
0.0
 11
790.80884303070002
 21
186.4650099509
 31
0.0
 12
786.30884303070002
 22
186.4650099509
 32
0.0
 13
788.55884303070002
 23
188.7150099509
 33
0.0
  0
ENDBLK
  5
441
  8
0
  0
BLOCK
  8
0
  2
*D95
 70
     1
 10
0.0
 20
0.0
 30
0.0
  3
*D95
  1

  0
TEXT
  5
445
  8
0
 62
     0
 10
906.56926812940014
 20
198.14370539059999
 30
0.0
 40
9.8954164504999991
  1
14
 50
90.0
  0
LINE
  5
446
  8
0
 62
     0
 10
887.90060682109993
 20
196.9645385968
 30
0.0
 11
911.31551809119992
 21
196.9645385968
 31
0.0
  0
LINE
  5
447
  8
0
 62
     0
 10
887.90060682109993
 20
210.9645385968
 30
0.0
 11
911.31551809119992
 21
210.9645385968
 31
0.0
  0
LINE
  5
448
  8
0
 62
     0
 10
909.31551809119992
 20
196.9645385968
 30
0.0
 11
909.31551809119992
 21
196.9645385968
 31
0.0
  0
LINE
  5
449
  8
0
 62
     0
 10
909.31551809119992
 20
196.9645385968
 30
0.0
 11
909.31551809119992
 21
210.9645385968
 31
0.0
  0
LINE
  5
44A
  8
0
 62
     0
 10
909.31551809119992
 20
210.9645385968
 30
0.0
 11
909.31551809119992
 21
196.9645385968
 31
0.0
  0
LINE
  5
44B
  8
0
 62
     0
 10
909.31551809119992
 20
210.9645385968
 30
0.0
 11
909.31551809119992
 21
210.9645385968
 31
0.0
  0
LINE
  5
44C
  8
0
 62
     0
 10
909.31551809119992
 20
210.9645385968
 30
0.0
 11
909.31551809119992
 21
215.9645385968
 31
0.0
  0
SOLID
  5
44D
  8
0
 62
     0
 10
909.31551809119992
 20
210.9645385968
 30
0.0
 11
907.06551809119981
 21
219.9645385968
 31
0.0
 12
911.56551809119981
 22
219.9645385968
 32
0.0
 13
909.31551809119992
 23
217.7145385968
 33
0.0
  0
LINE
  5
44E
  8
0
 62
     0
 10
909.31551809119992
 20
196.9645385968
 30
0.0
 11
909.31551809119992
 21
191.9645385968
 31
0.0
  0
SOLID
  5
44F
  8
0
 62
     0
 10
909.31551809119992
 20
196.9645385968
 30
0.0
 11
911.56551809119981
 21
187.9645385968
 31
0.0
 12
907.06551809119981
 22
187.9645385968
 32
0.0
 13
909.31551809119992
 23
190.2145385968
 33
0.0
  0
ENDBLK
  5
450
  8
0
  0
BLOCK
  8
0
  2
*D96
 70
     1
 10
0.0
 20
0.0
 30
0.0
  3
*D96
  1

  0
TEXT
  5
454
  8
0
 62
     0
 10
737.01209089369991
 20
250.71166350780001
 30
0.0
 40
9.8954164504999991
  1
15
  0
LINE
  5
455
  8
0
 62
     0
 10
750.57340067839993
 20
201.9650099509
 30
0.0
 11
750.57340067839993
 21
249.96541354589999
 31
0.0
  0
LINE
  5
456
  8
0
 62
     0
 10
735.57340067839993
 20
210.16500995089999
 30
0.0
 11
735.57340067839993
 21
249.96541354589999
 31
0.0
  0
LINE
  5
457
  8
0
 62
     0
 10
750.57340067839993
 20
247.96541354589999
 30
0.0
 11
750.57340067839993
 21
247.96541354589999
 31
0.0
  0
LINE
  5
458
  8
0
 62
     0
 10
750.57340067839993
 20
247.96541354589999
 30
0.0
 11
735.57340067839993
 21
247.96541354589999
 31
0.0
  0
LINE
  5
459
  8
0
 62
     0
 10
735.57340067839993
 20
247.96541354589999
 30
0.0
 11
750.57340067839993
 21
247.96541354589999
 31
0.0
  0
LINE
  5
45A
  8
0
 62
     0
 10
735.57340067839993
 20
247.96541354589999
 30
0.0
 11
735.57340067839993
 21
247.96541354589999
 31
0.0
  0
LINE
  5
45B
  8
0
 62
     0
 10
735.57340067839993
 20
247.96541354589999
 30
0.0
 11
730.57340067839993
 21
247.96541354589999
 31
0.0
  0
SOLID
  5
45C
  8
0
 62
     0
 10
735.57340067839993
 20
247.96541354589999
 30
0.0
 11
726.57340067839993
 21
245.71541354589999
 31
0.0
 12
726.57340067839993
 22
250.21541354589999
 32
0.0
 13
728.82340067839993
 23
247.96541354589999
 33
0.0
  0
LINE
  5
45D
  8
0
 62
     0
 10
750.57340067839993
 20
247.96541354589999
 30
0.0
 11
755.57340067839993
 21
247.96541354589999
 31
0.0
  0
SOLID
  5
45E
  8
0
 62
     0
 10
750.57340067839993
 20
247.96541354589999
 30
0.0
 11
759.57340067839993
 21
250.21541354589999
 31
0.0
 12
759.57340067839993
 22
245.71541354589999
 32
0.0
 13
757.32340067839993
 23
247.96541354589999
 33
0.0
  0
ENDBLK
  5
45F
  8
0
  0
BLOCK
  8
0
  2
*D97
 70
     1
 10
0.0
 20
0.0
 30
0.0
  3
*D97
  1

  0
TEXT
  5
463
  8
0
 62
     0
 10
752.1845712385001
 20
250.71166350780001
 30
0.0
 40
9.8954164504999991
  1
15
  0
LINE
  5
464
  8
0
 62
     0
 10
765.57340067839993
 20
210.16500995089999
 30
0.0
 11
765.57340067839993
 21
249.96541354589999
 31
0.0
  0
LINE
  5
465
  8
0
 62
     0
 10
750.57340067839993
 20
201.9650099509
 30
0.0
 11
750.57340067839993
 21
249.96541354589999
 31
0.0
  0
LINE
  5
466
  8
0
 62
     0
 10
765.57340067839993
 20
247.96541354589999
 30
0.0
 11
765.57340067839993
 21
247.96541354589999
 31
0.0
  0
LINE
  5
467
  8
0
 62
     0
 10
765.57340067839993
 20
247.96541354589999
 30
0.0
 11
750.57340067839993
 21
247.96541354589999
 31
0.0
  0
LINE
  5
468
  8
0
 62
     0
 10
750.57340067839993
 20
247.96541354589999
 30
0.0
 11
765.57340067839993
 21
247.96541354589999
 31
0.0
  0
LINE
  5
469
  8
0
 62
     0
 10
750.57340067839993
 20
247.96541354589999
 30
0.0
 11
750.57340067839993
 21
247.96541354589999
 31
0.0
  0
LINE
  5
46A
  8
0
 62
     0
 10
750.57340067839993
 20
247.96541354589999
 30
0.0
 11
745.57340067839993
 21
247.96541354589999
 31
0.0
  0
SOLID
  5
46B
  8
0
 62
     0
 10
750.57340067839993
 20
247.96541354589999
 30
0.0
 11
741.57340067839993
 21
245.71541354589999
 31
0.0
 12
741.57340067839993
 22
250.21541354589999
 32
0.0
 13
743.82340067839993
 23
247.96541354589999
 33
0.0
  0
LINE
  5
46C
  8
0
 62
     0
 10
765.57340067839993
 20
247.96541354589999
 30
0.0
 11
770.57340067839993
 21
247.96541354589999
 31
0.0
  0
SOLID
  5
46D
  8
0
 62
     0
 10
765.57340067839993
 20
247.96541354589999
 30
0.0
 11
774.57340067839993
 21
250.21541354589999
 31
0.0
 12
774.57340067839993
 22
245.71541354589999
 32
0.0
 13
772.32340067839993
 23
247.96541354589999
 33
0.0
  0
ENDBLK
  5
46E
  8
0
  0
BLOCK
  8
0
  2
*D98
 70
     1
 10
0.0
 20
0.0
 30
0.0
  3
*D98
  1

  0
TEXT
  5
472
  8
0
 62
     0
 10
744.75256747219987
 20
272.33182647159998
 30
0.0
 40
9.8954164504999991
  1
30
  0
LINE
  5
473
  8
0
 62
     0
 10
765.57340067839993
 20
210.16500995089999
 30
0.0
 11
765.57340067839993
 21
271.58557650979998
 31
0.0
  0
LINE
  5
474
  8
0
 62
     0
 10
735.57340067839993
 20
210.16500995089999
 30
0.0
 11
735.57340067839993
 21
271.58557650979998
 31
0.0
  0
LINE
  5
475
  8
0
 62
     0
 10
765.57340067839993
 20
269.58557650979998
 30
0.0
 11
762.21506709070002
 21
269.58557650979998
 31
0.0
  0
LINE
  5
476
  8
0
 62
     0
 10
765.57340067839993
 20
269.58557650979998
 30
0.0
 11
738.93173426600003
 21
269.58557650979998
 31
0.0
  0
LINE
  5
477
  8
0
 62
     0
 10
735.57340067839993
 20
269.58557650979998
 30
0.0
 11
762.21506709070002
 21
269.58557650979998
 31
0.0
  0
LINE
  5
478
  8
0
 62
     0
 10
735.57340067839993
 20
269.58557650979998
 30
0.0
 11
738.93173426600003
 21
269.58557650979998
 31
0.0
  0
LINE
  5
479
  8
0
 62
     0
 10
735.57340067839993
 20
269.58557650979998
 30
0.0
 11
730.57340067839993
 21
269.58557650979998
 31
0.0
  0
SOLID
  5
47A
  8
0
 62
     0
 10
735.57340067839993
 20
269.58557650979998
 30
0.0
 11
726.57340067839993
 21
267.33557650979998
 31
0.0
 12
726.57340067839993
 22
271.83557650979998
 32
0.0
 13
728.82340067839993
 23
269.58557650979998
 33
0.0
  0
LINE
  5
47B
  8
0
 62
     0
 10
765.57340067839993
 20
269.58557650979998
 30
0.0
 11
770.57340067839993
 21
269.58557650979998
 31
0.0
  0
SOLID
  5
47C
  8
0
 62
     0
 10
765.57340067839993
 20
269.58557650979998
 30
0.0
 11
774.57340067839993
 21
271.83557650979998
 31
0.0
 12
774.57340067839993
 22
267.33557650979998
 32
0.0
 13
772.32340067839993
 23
269.58557650979998
 33
0.0
  0
ENDBLK
  5
47D
  8
0
  0
BLOCK
  8
0
  2
*D99
 70
     1
 10
0.0
 20
0.0
 30
0.0
  3
*D99
  1

  0
TEXT
  5
481
  8
0
 62
     0
 10
854.57977361490009
 20
271.56051924100001
 30
0.0
 40
9.8954164504999991
  1
55
  0
LINE
  5
482
  8
0
 62
     0
 10
887.90060682109993
 20
210.16453859680001
 30
0.0
 11
887.90060682109993
 21
270.81426927910002
 31
0.0
  0
LINE
  5
483
  8
0
 62
     0
 10
832.90060682110004
 20
210.16453859680001
 30
0.0
 11
832.90060682110004
 21
270.81426927910002
 31
0.0
  0
LINE
  5
484
  8
0
 62
     0
 10
887.90060682109993
 20
268.81426927910002
 30
0.0
 11
872.04227323340001
 21
268.81426927910002
 31
0.0
  0
LINE
  5
485
  8
0
 62
     0
 10
887.90060682109993
 20
268.81426927910002
 30
0.0
 11
848.75894040870003
 21
268.81426927910002
 31
0.0
  0
LINE
  5
486
  8
0
 62
     0
 10
832.90060682110004
 20
268.81426927910002
 30
0.0
 11
872.04227323340001
 21
268.81426927910002
 31
0.0
  0
LINE
  5
487
  8
0
 62
     0
 10
832.90060682110004
 20
268.81426927910002
 30
0.0
 11
848.75894040870003
 21
268.81426927910002
 31
0.0
  0
LINE
  5
488
  8
0
 62
     0
 10
832.90060682110004
 20
268.81426927910002
 30
0.0
 11
837.90060682109993
 21
268.81426927910002
 31
0.0
  0
SOLID
  5
489
  8
0
 62
     0
 10
832.90060682110004
 20
268.81426927910002
 30
0.0
 11
841.90060682110004
 21
271.06426927910002
 31
0.0
 12
841.90060682110004
 22
266.56426927910002
 32
0.0
 13
839.65060682109993
 23
268.81426927910002
 33
0.0
  0
LINE
  5
48A
  8
0
 62
     0
 10
887.90060682109993
 20
268.81426927910002
 30
0.0
 11
882.90060682110004
 21
268.81426927910002
 31
0.0
  0
SOLID
  5
48B
  8
0
 62
     0
 10
887.90060682109993
 20
268.81426927910002
 30
0.0
 11
878.90060682110004
 21
266.56426927910002
 31
0.0
 12
878.90060682110004
 22
271.06426927910002
 32
0.0
 13
881.15060682110004
 23
268.81426927910002
 33
0.0
  0
ENDBLK
  5
48C
  8
0
  0
BLOCK
  8
0
  2
*D100
 70
     1
 10
0.0
 20
0.0
 30
0.0
  3
*D100
  1

  0
TEXT
  5
490
  8
0
 62
     0
 10
448.60909490120002
 20
-257.9122803505
 30
0.0
 40
9.8954164504999991
  1
15
 50
90.0
  0
LINE
  5
491
  8
0
 62
     0
 10
400.25527390970001
 20
-259.59144714429999
 30
0.0
 11
453.3553448630999
 21
-259.59144714429999
 31
0.0
  0
LINE
  5
492
  8
0
 62
     0
 10
400.25527390970001
 20
-244.59144714429999
 30
0.0
 11
453.3553448630999
 21
-244.59144714429999
 31
0.0
  0
LINE
  5
493
  8
0
 62
     0
 10
451.3553448630999
 20
-259.59144714429999
 30
0.0
 11
451.3553448630999
 21
-259.59144714429999
 31
0.0
  0
LINE
  5
494
  8
0
 62
     0
 10
451.3553448630999
 20
-259.59144714429999
 30
0.0
 11
451.3553448630999
 21
-244.59144714429999
 31
0.0
  0
LINE
  5
495
  8
0
 62
     0
 10
451.3553448630999
 20
-244.59144714429999
 30
0.0
 11
451.3553448630999
 21
-259.59144714429999
 31
0.0
  0
LINE
  5
496
  8
0
 62
     0
 10
451.3553448630999
 20
-244.59144714429999
 30
0.0
 11
451.3553448630999
 21
-244.59144714429999
 31
0.0
  0
LINE
  5
497
  8
0
 62
     0
 10
451.3553448630999
 20
-244.59144714429999
 30
0.0
 11
451.3553448630999
 21
-239.59144714429999
 31
0.0
  0
SOLID
  5
498
  8
0
 62
     0
 10
451.3553448630999
 20
-244.59144714429999
 30
0.0
 11
449.1053448630999
 21
-235.59144714429999
 31
0.0
 12
453.6053448630999
 22
-235.59144714429999
 32
0.0
 13
451.3553448630999
 23
-237.84144714429999
 33
0.0
  0
LINE
  5
499
  8
0
 62
     0
 10
451.3553448630999
 20
-259.59144714429999
 30
0.0
 11
451.3553448630999
 21
-264.59144714429999
 31
0.0
  0
SOLID
  5
49A
  8
0
 62
     0
 10
451.3553448630999
 20
-259.59144714429999
 30
0.0
 11
453.6053448630999
 21
-268.59144714429999
 31
0.0
 12
449.1053448630999
 22
-268.59144714429999
 32
0.0
 13
451.3553448630999
 23
-266.34144714429999
 33
0.0
  0
ENDBLK
  5
49B
  8
0
  0
BLOCK
  8
0
  2
*D101
 70
     1
 10
0.0
 20
0.0
 30
0.0
  3
*D101
  1

  0
TEXT
  5
49F
  8
0
 62
     0
 10
839.57977361490009
 20
250.88231260649999
 30
0.0
 40
9.8954164504999991
  1
25
  0
LINE
  5
4A0
  8
0
 62
     0
 10
857.90060682110004
 20
201.9645385968
 30
0.0
 11
857.90060682110004
 21
250.1360626446
 31
0.0
  0
LINE
  5
4A1
  8
0
 62
     0
 10
832.90060682110004
 20
210.9645385968
 30
0.0
 11
832.90060682110004
 21
250.1360626446
 31
0.0
  0
LINE
  5
4A2
  8
0
 62
     0
 10
857.90060682110004
 20
248.1360626446
 30
0.0
 11
857.04227323340001
 21
248.1360626446
 31
0.0
  0
LINE
  5
4A3
  8
0
 62
     0
 10
857.90060682110004
 20
248.1360626446
 30
0.0
 11
833.75894040869991
 21
248.1360626446
 31
0.0
  0
LINE
  5
4A4
  8
0
 62
     0
 10
832.90060682110004
 20
248.1360626446
 30
0.0
 11
857.04227323340001
 21
248.1360626446
 31
0.0
  0
LINE
  5
4A5
  8
0
 62
     0
 10
832.90060682110004
 20
248.1360626446
 30
0.0
 11
833.75894040869991
 21
248.1360626446
 31
0.0
  0
LINE
  5
4A6
  8
0
 62
     0
 10
832.90060682110004
 20
248.1360626446
 30
0.0
 11
827.90060682110004
 21
248.1360626446
 31
0.0
  0
SOLID
  5
4A7
  8
0
 62
     0
 10
832.90060682110004
 20
248.1360626446
 30
0.0
 11
823.90060682110015
 21
245.8860626446
 31
0.0
 12
823.90060682110015
 22
250.3860626446
 32
0.0
 13
826.15060682110004
 23
248.1360626446
 33
0.0
  0
LINE
  5
4A8
  8
0
 62
     0
 10
857.90060682110004
 20
248.1360626446
 30
0.0
 11
862.90060682109993
 21
248.1360626446
 31
0.0
  0
SOLID
  5
4A9
  8
0
 62
     0
 10
857.90060682110004
 20
248.1360626446
 30
0.0
 11
866.90060682110004
 21
250.3860626446
 31
0.0
 12
866.90060682110004
 22
245.8860626446
 32
0.0
 13
864.65060682109993
 23
248.1360626446
 33
0.0
  0
ENDBLK
  5
4AA
  8
0
  0
BLOCK
  8
0
  2
*D102
 70
     1
 10
0.0
 20
0.0
 30
0.0
  3
*D102
  1

  0
TEXT
  5
4AE
  8
0
 62
     0
 10
867.07977361490009
 20
250.88231260649999
 30
0.0
 40
9.8954164504999991
  1
30
  0
LINE
  5
4AF
  8
0
 62
     0
 10
887.90060682109993
 20
210.9645385968
 30
0.0
 11
887.90060682109993
 21
250.1360626446
 31
0.0
  0
LINE
  5
4B0
  8
0
 62
     0
 10
857.90060682110004
 20
201.9645385968
 30
0.0
 11
857.90060682110004
 21
250.1360626446
 31
0.0
  0
LINE
  5
4B1
  8
0
 62
     0
 10
887.90060682109993
 20
248.1360626446
 30
0.0
 11
884.54227323340001
 21
248.1360626446
 31
0.0
  0
LINE
  5
4B2
  8
0
 62
     0
 10
887.90060682109993
 20
248.1360626446
 30
0.0
 11
861.25894040870003
 21
248.1360626446
 31
0.0
  0
LINE
  5
4B3
  8
0
 62
     0
 10
857.90060682110004
 20
248.1360626446
 30
0.0
 11
884.54227323340001
 21
248.1360626446
 31
0.0
  0
LINE
  5
4B4
  8
0
 62
     0
 10
857.90060682110004
 20
248.1360626446
 30
0.0
 11
861.25894040870003
 21
248.1360626446
 31
0.0
  0
LINE
  5
4B5
  8
0
 62
     0
 10
857.90060682110004
 20
248.1360626446
 30
0.0
 11
852.90060682110004
 21
248.1360626446
 31
0.0
  0
SOLID
  5
4B6
  8
0
 62
     0
 10
857.90060682110004
 20
248.1360626446
 30
0.0
 11
848.90060682110015
 21
245.8860626446
 31
0.0
 12
848.90060682110015
 22
250.3860626446
 32
0.0
 13
851.15060682110004
 23
248.1360626446
 33
0.0
  0
LINE
  5
4B7
  8
0
 62
     0
 10
887.90060682109993
 20
248.1360626446
 30
0.0
 11
892.90060682110004
 21
248.1360626446
 31
0.0
  0
SOLID
  5
4B8
  8
0
 62
     0
 10
887.90060682109993
 20
248.1360626446
 30
0.0
 11
896.90060682109993
 21
250.3860626446
 31
0.0
 12
896.90060682109993
 22
245.8860626446
 32
0.0
 13
894.65060682110004
 23
248.1360626446
 33
0.0
  0
ENDBLK
  5
4B9
  8
0
  0
BLOCK
  8
0
  2
*D103
 70
     1
 10
0.0
 20
0.0
 30
0.0
  3
*D103
  1

  0
TEXT
  5
4BD
  8
0
 62
     0
 10
906.56926812940014
 20
64.143705390600005
 30
0.0
 40
9.8954164504999991
  1
14
 50
90.0
  0
LINE
  5
4BE
  8
0
 62
     0
 10
887.90060682109993
 20
62.964538596799997
 30
0.0
 11
911.31551809119992
 21
62.964538596799997
 31
0.0
  0
LINE
  5
4BF
  8
0
 62
     0
 10
887.90060682109993
 20
76.964538596799997
 30
0.0
 11
911.31551809119992
 21
76.964538596799997
 31
0.0
  0
LINE
  5
4C0
  8
0
 62
     0
 10
909.31551809119992
 20
62.964538596799997
 30
0.0
 11
909.31551809119992
 21
62.964538596799997
 31
0.0
  0
LINE
  5
4C1
  8
0
 62
     0
 10
909.31551809119992
 20
62.964538596799997
 30
0.0
 11
909.31551809119992
 21
76.964538596799997
 31
0.0
  0
LINE
  5
4C2
  8
0
 62
     0
 10
909.31551809119992
 20
76.964538596799997
 30
0.0
 11
909.31551809119992
 21
62.964538596799997
 31
0.0
  0
LINE
  5
4C3
  8
0
 62
     0
 10
909.31551809119992
 20
76.964538596799997
 30
0.0
 11
909.31551809119992
 21
76.964538596799997
 31
0.0
  0
LINE
  5
4C4
  8
0
 62
     0
 10
909.31551809119992
 20
76.964538596799997
 30
0.0
 11
909.31551809119992
 21
81.964538596799997
 31
0.0
  0
SOLID
  5
4C5
  8
0
 62
     0
 10
909.31551809119992
 20
76.964538596799997
 30
0.0
 11
907.06551809119981
 21
85.964538596799997
 31
0.0
 12
911.56551809119981
 22
85.964538596799997
 32
0.0
 13
909.31551809119992
 23
83.714538596799997
 33
0.0
  0
LINE
  5
4C6
  8
0
 62
     0
 10
909.31551809119992
 20
62.964538596799997
 30
0.0
 11
909.31551809119992
 21
57.964538596799997
 31
0.0
  0
SOLID
  5
4C7
  8
0
 62
     0
 10
909.31551809119992
 20
62.964538596799997
 30
0.0
 11
911.56551809119981
 21
53.964538596800011
 31
0.0
 12
907.06551809119981
 22
53.964538596800011
 32
0.0
 13
909.31551809119992
 23
56.214538596799997
 33
0.0
  0
ENDBLK
  5
4C8
  8
0
  0
BLOCK
  8
0
  2
CLUMP74
 70
     0
 10
0.0
 20
0.0
 30
0.0
  3
CLUMP74
  1

  0
LINE
  5
4D2
  8
┌▓È_1
 62
     5
 10
740.07340067839993
 20
203.56500995089999
 30
0.0
 11
764.77340067839987
 21
203.56500995089999
 31
0.0
  0
LINE
  5
4D3
  8
┌▓È_1
 62
     5
 10
740.07340067839993
 20
203.56500995089999
 30
0.0
 11
740.07340067839993
 21
202.76500995090001
 31
0.0
  0
LINE
  5
4D4
  8
┌▓È_1
 62
     5
 10
764.77340067839987
 20
196.26500995090001
 30
0.0
 11
751.3734006784
 21
196.26500995090001
 31
0.0
  0
LINE
  5
4D5
  8
┌▓È_1
 62
     5
 10
764.77340067839987
 20
210.16500995089999
 30
0.0
 11
764.77340067839987
 21
196.26500995090001
 31
0.0
  0
ARC
  5
4D6
  8
┌▓È_1
 62
     5
 10
764.77340067839987
 20
210.16500995089999
 30
0.0
 40
0.8
 50
0.0
 51
90.0
  0
LINE
  5
4D7
  8
┌▓È_1
 62
     5
 10
765.57340067839993
 20
196.26500995090001
 30
0.0
 11
765.57340067839993
 21
210.16500995089999
 31
0.0
  0
ARC
  5
4D8
  8
┌▓È_1
 62
     5
 10
764.77340067839987
 20
196.26500995090001
 30
0.0
 40
0.8
 50
270.0
 51
0.0
  0
LINE
  5
4D9
  8
┌▓È_1
 62
     5
 10
751.3734006784
 20
195.4650099509
 30
0.0
 11
764.77340067839987
 21
195.4650099509
 31
0.0
  0
LINE
  5
4DA
  8
┌▓È_1
 62
     5
 10
750.57340067839993
 20
201.9650099509
 30
0.0
 11
750.57340067839993
 21
196.26500995090001
 31
0.0
  0
ARC
  5
4DB
  8
┌▓È_1
 62
     5
 10
751.3734006784
 20
196.26500995090001
 30
0.0
 40
0.8
 50
180.0
 51
270.0
  0
LINE
  5
4DC
  8
┌▓È_1
 62
     5
 10
751.3734006784
 20
196.26500995090001
 30
0.0
 11
751.3734006784
 21
201.9650099509
 31
0.0
  0
LINE
  5
4DD
  8
┌▓È_1
 62
     5
 10
759.57340067839993
 20
210.16500995089999
 30
0.0
 11
764.77340067839987
 21
210.16500995089999
 31
0.0
  0
LINE
  5
4DE
  8
┌▓È_1
 62
     5
 10
759.57340067839993
 20
210.9650099509
 30
0.0
 11
759.57340067839993
 21
210.16500995089999
 31
0.0
  0
LINE
  5
4DF
  8
┌▓È_1
 62
     5
 10
741.57340067839993
 20
210.16500995089999
 30
0.0
 11
741.57340067839993
 21
203.56500995089999
 31
0.0
  0
LINE
  5
4E0
  8
┌▓È_1
 62
     5
 10
750.57340067839993
 20
202.76500995090001
 30
0.0
 11
764.77340067839987
 21
202.76500995090001
 31
0.0
  0
LINE
  5
4E1
  8
┌▓È_1
 62
     5
 10
741.57340067839993
 20
210.16500995089999
 30
0.0
 11
741.57340067839993
 21
210.9650099509
 31
0.0
  0
LINE
  5
4E2
  8
┌▓È_1
 62
     5
 10
764.77340067839987
 20
210.9650099509
 30
0.0
 11
759.57340067839993
 21
210.9650099509
 31
0.0
  0
ARC
  5
4E3
  8
┌▓È_1
 62
     5
 10
750.57340067839993
 20
201.9650099509
 30
0.0
 40
0.8
 50
0.0
 51
90.0
  0
ARC
  5
4E4
  8
┌▓È_1
 62
     5
 10
736.3734006784
 20
202.76500995090001
 30
0.0
 40
0.8
 50
180.0
 51
270.0
  0
LINE
  5
4E5
  8
┌▓È_1
 62
     5
 10
736.3734006784
 20
202.76500995090001
 30
0.0
 11
736.3734006784
 21
210.16500995089999
 31
0.0
  0
ARC
  5
4E6
  8
┌▓È_1
 62
     5
 10
736.3734006784
 20
210.16500995089999
 30
0.0
 40
0.8
 50
90.0
 51
180.0
  0
LINE
  5
4E7
  8
┌▓È_1
 62
     5
 10
735.57340067839993
 20
210.16500995089999
 30
0.0
 11
735.57340067839993
 21
202.76500995090001
 31
0.0
  0
LINE
  5
4E8
  8
┌▓È_1
 62
     5
 10
736.3734006784
 20
210.16500995089999
 30
0.0
 11
741.57340067839993
 21
210.16500995089999
 31
0.0
  0
LINE
  5
4E9
  8
┌▓È_1
 62
     5
 10
741.57340067839993
 20
210.9650099509
 30
0.0
 11
736.3734006784
 21
210.9650099509
 31
0.0
  0
LINE
  5
4EA
  8
┌▓È_1
 62
     5
 10
750.57340067839993
 20
202.76500995090001
 30
0.0
 11
736.3734006784
 21
202.76500995090001
 31
0.0
  0
LINE
  5
4EB
  8
┌▓È_1
 62
     5
 10
736.3734006784
 20
201.9650099509
 30
0.0
 11
750.57340067839993
 21
201.9650099509
 31
0.0
  0
ENDBLK
  5
4EC
  8
0
  0
BLOCK
  8
0
  2
*D105
 70
     1
 10
0.0
 20
0.0
 30
0.0
  3
*D105
  1

  0
TEXT
  5
4F1
  8
0
 62
     0
 10
785.81259306879997
 20
35.029154163699999
 30
0.0
 40
9.8954164504999991
  1
15.5
 50
90.0
  0
LINE
  5
4F2
  8
0
 62
     0
 10
764.77340067839987
 20
62.964067242600002
 30
0.0
 11
790.55884303070002
 21
62.964067242600002
 31
0.0
  0
LINE
  5
4F3
  8
0
 62
     0
 10
764.77340067839987
 20
78.464067242599995
 30
0.0
 11
790.55884303070002
 21
78.464067242599995
 31
0.0
  0
LINE
  5
4F4
  8
0
 62
     0
 10
788.55884303070002
 20
62.964067242600002
 30
0.0
 11
788.55884303070002
 21
60.737834157600012
 31
0.0
  0
LINE
  5
4F5
  8
0
 62
     0
 10
788.55884303070002
 20
62.964067242600002
 30
0.0
 11
788.55884303070002
 21
29.2083209575
 31
0.0
  0
LINE
  5
4F6
  8
0
 62
     0
 10
788.55884303070002
 20
78.464067242599995
 30
0.0
 11
788.55884303070002
 21
60.737834157600012
 31
0.0
  0
LINE
  5
4F7
  8
0
 62
     0
 10
788.55884303070002
 20
78.464067242599995
 30
0.0
 11
788.55884303070002
 21
29.2083209575
 31
0.0
  0
LINE
  5
4F8
  8
0
 62
     0
 10
788.55884303070002
 20
78.464067242599995
 30
0.0
 11
788.55884303070002
 21
83.464067242599995
 31
0.0
  0
SOLID
  5
4F9
  8
0
 62
     0
 10
788.55884303070002
 20
78.464067242599995
 30
0.0
 11
786.30884303070002
 21
87.464067242599995
 31
0.0
 12
790.80884303070002
 22
87.464067242599995
 32
0.0
 13
788.55884303070002
 23
85.214067242599995
 33
0.0
  0
LINE
  5
4FA
  8
0
 62
     0
 10
788.55884303070002
 20
62.964067242600002
 30
0.0
 11
788.55884303070002
 21
57.964067242600002
 31
0.0
  0
SOLID
  5
4FB
  8
0
 62
     0
 10
788.55884303070002
 20
62.964067242600002
 30
0.0
 11
790.80884303070002
 21
53.964067242600002
 31
0.0
 12
786.30884303070002
 22
53.964067242600002
 32
0.0
 13
788.55884303070002
 23
56.214067242600002
 33
0.0
  0
ENDBLK
  5
4FC
  8
0
  0
BLOCK
  8
0
  2
*D106
 70
     1
 10
0.0
 20
0.0
 30
0.0
  3
*D106
  1

  0
TEXT
  5
500
  8
0
 62
     0
 10
526.18108596609989
 20
-115.84502530749999
 30
0.0
 40
9.8954164504999991
  1
14
  0
LINE
  5
501
  8
0
 62
     0
 10
539.00191917229995
 20
-148.59127526930001
 30
0.0
 11
539.00191917229995
 21
-116.5912752693
 31
0.0
  0
LINE
  5
502
  8
0
 62
     0
 10
525.00191917230006
 20
-150.59127661869999
 30
0.0
 11
525.00191917230006
 21
-116.5912752693
 31
0.0
  0
LINE
  5
503
  8
0
 62
     0
 10
539.00191917229995
 20
-118.5912752693
 30
0.0
 11
539.00191917229995
 21
-118.5912752693
 31
0.0
  0
LINE
  5
504
  8
0
 62
     0
 10
539.00191917229995
 20
-118.5912752693
 30
0.0
 11
525.00191917230006
 21
-118.5912752693
 31
0.0
  0
LINE
  5
505
  8
0
 62
     0
 10
525.00191917230006
 20
-118.5912752693
 30
0.0
 11
539.00191917229995
 21
-118.5912752693
 31
0.0
  0
LINE
  5
506
  8
0
 62
     0
 10
525.00191917230006
 20
-118.5912752693
 30
0.0
 11
525.00191917230006
 21
-118.5912752693
 31
0.0
  0
LINE
  5
507
  8
0
 62
     0
 10
525.00191917230006
 20
-118.5912752693
 30
0.0
 11
520.00191917229995
 21
-118.5912752693
 31
0.0
  0
SOLID
  5
508
  8
0
 62
     0
 10
525.00191917230006
 20
-118.5912752693
 30
0.0
 11
516.00191917230006
 21
-120.8412752693
 31
0.0
 12
516.00191917230006
 22
-116.3412752693
 32
0.0
 13
518.25191917230006
 23
-118.5912752693
 33
0.0
  0
LINE
  5
509
  8
0
 62
     0
 10
539.00191917229995
 20
-118.5912752693
 30
0.0
 11
544.00191917229995
 21
-118.5912752693
 31
0.0
  0
SOLID
  5
50A
  8
0
 62
     0
 10
539.00191917229995
 20
-118.5912752693
 30
0.0
 11
548.00191917229995
 21
-116.3412752693
 31
0.0
 12
548.00191917229995
 22
-120.8412752693
 32
0.0
 13
545.75191917229995
 23
-118.5912752693
 33
0.0
  0
ENDBLK
  5
50B
  8
0
  0
BLOCK
  8
0
  2
*D107
 70
     1
 10
0.0
 20
0.0
 30
0.0
  3
*D107
  1

  0
TEXT
  5
50F
  8
0
 62
     0
 10
113.901003652
 20
-115.84502530749999
 30
0.0
 40
9.8954164504999991
  1
589.2
  0
LINE
  5
510
  8
0
 62
     0
 10
421.35534364900002
 20
-148.59127526930001
 30
0.0
 11
421.35534364900002
 21
-116.5912752693
 31
0.0
  0
LINE
  5
511
  8
0
 62
     0
 10
-167.844656351
 20
-148.59127526930001
 30
0.0
 11
-167.844656351
 21
-116.5912752693
 31
0.0
  0
LINE
  5
512
  8
0
 62
     0
 10
421.35534364900002
 20
-118.5912752693
 30
0.0
 11
145.4305168521
 21
-118.5912752693
 31
0.0
  0
LINE
  5
513
  8
0
 62
     0
 10
421.35534364900002
 20
-118.5912752693
 30
0.0
 11
108.08017044579999
 21
-118.5912752693
 31
0.0
  0
LINE
  5
514
  8
0
 62
     0
 10
-167.844656351
 20
-118.5912752693
 30
0.0
 11
145.4305168521
 21
-118.5912752693
 31
0.0
  0
LINE
  5
515
  8
0
 62
     0
 10
-167.844656351
 20
-118.5912752693
 30
0.0
 11
108.08017044579999
 21
-118.5912752693
 31
0.0
  0
LINE
  5
516
  8
0
 62
     0
 10
-167.844656351
 20
-118.5912752693
 30
0.0
 11
-162.844656351
 21
-118.5912752693
 31
0.0
  0
SOLID
  5
517
  8
0
 62
     0
 10
-167.844656351
 20
-118.5912752693
 30
0.0
 11
-158.844656351
 21
-116.3412752693
 31
0.0
 12
-158.844656351
 22
-120.8412752693
 32
0.0
 13
-161.094656351
 23
-118.5912752693
 33
0.0
  0
LINE
  5
518
  8
0
 62
     0
 10
421.35534364900002
 20
-118.5912752693
 30
0.0
 11
416.35534364899991
 21
-118.5912752693
 31
0.0
  0
SOLID
  5
519
  8
0
 62
     0
 10
421.35534364900002
 20
-118.5912752693
 30
0.0
 11
412.35534364899991
 21
-120.8412752693
 31
0.0
 12
412.35534364899991
 22
-116.3412752693
 32
0.0
 13
414.60534364899991
 23
-118.5912752693
 33
0.0
  0
ENDBLK
  5
51A
  8
0
  0
BLOCK
  8
0
  2
*D108
 70
     1
 10
0.0
 20
0.0
 30
0.0
  3
*D108
  1

  0
TEXT
  5
51E
  8
0
 62
     0
 10
594.09082246920002
 20
-115.84502530749999
 30
0.0
 40
9.8954164504999991
  1
23
  0
LINE
  5
51F
  8
0
 62
     0
 10
611.41165567539986
 20
-148.59127526930001
 30
0.0
 11
611.41165567539986
 21
-116.5912752693
 31
0.0
  0
LINE
  5
520
  8
0
 62
     0
 10
588.41165567539986
 20
-150.59127526930001
 30
0.0
 11
588.41165567539986
 21
-116.5912752693
 31
0.0
  0
LINE
  5
521
  8
0
 62
     0
 10
611.41165567539986
 20
-118.5912752693
 30
0.0
 11
611.41165567539986
 21
-118.5912752693
 31
0.0
  0
LINE
  5
522
  8
0
 62
     0
 10
611.41165567539986
 20
-118.5912752693
 30
0.0
 11
588.41165567539986
 21
-118.5912752693
 31
0.0
  0
LINE
  5
523
  8
0
 62
     0
 10
588.41165567539986
 20
-118.5912752693
 30
0.0
 11
611.41165567539986
 21
-118.5912752693
 31
0.0
  0
LINE
  5
524
  8
0
 62
     0
 10
588.41165567539986
 20
-118.5912752693
 30
0.0
 11
588.41165567539986
 21
-118.5912752693
 31
0.0
  0
LINE
  5
525
  8
0
 62
     0
 10
588.41165567539986
 20
-118.5912752693
 30
0.0
 11
593.41165567539986
 21
-118.5912752693
 31
0.0
  0
SOLID
  5
526
  8
0
 62
     0
 10
588.41165567539986
 20
-118.5912752693
 30
0.0
 11
597.41165567539986
 21
-116.3412752693
 31
0.0
 12
597.41165567539986
 22
-120.8412752693
 32
0.0
 13
595.16165567539986
 23
-118.5912752693
 33
0.0
  0
LINE
  5
527
  8
0
 62
     0
 10
611.41165567539986
 20
-118.5912752693
 30
0.0
 11
606.41165567539986
 21
-118.5912752693
 31
0.0
  0
SOLID
  5
528
  8
0
 62
     0
 10
611.41165567539986
 20
-118.5912752693
 30
0.0
 11
602.41165567539986
 21
-120.8412752693
 31
0.0
 12
602.41165567539986
 22
-116.3412752693
 32
0.0
 13
604.66165567539986
 23
-118.5912752693
 33
0.0
  0
ENDBLK
  5
529
  8
0
  0
BLOCK
  8
0
  2
*D109
 70
     1
 10
0.0
 20
0.0
 30
0.0
  3
*D109
  1

  0
TEXT
  5
52D
  8
0
 62
     0
 10
229.58524989099999
 20
283.34646208160001
 30
0.0
 40
9.8954164504999991
  1
1198
  0
LINE
  5
52E
  8
0
 62
     0
 10
640.72691630339989
 20
210.9645385968
 30
0.0
 11
640.72691630339989
 21
282.60021211970002
 31
0.0
  0
LINE
  5
52F
  8
0
 62
     0
 10
-158.2730836966
 20
210.9645385968
 30
0.0
 11
-158.2730836966
 21
282.60021211970002
 31
0.0
  0
LINE
  5
530
  8
0
 62
     0
 10
640.72691630339989
 20
280.60021211970002
 30
0.0
 11
258.68941592189998
 21
280.60021211970002
 31
0.0
  0
LINE
  5
531
  8
0
 62
     0
 10
640.72691630339989
 20
280.60021211970002
 30
0.0
 11
223.76441668480001
 21
280.60021211970002
 31
0.0
  0
LINE
  5
532
  8
0
 62
     0
 10
-158.2730836966
 20
280.60021211970002
 30
0.0
 11
258.68941592189998
 21
280.60021211970002
 31
0.0
  0
LINE
  5
533
  8
0
 62
     0
 10
-158.2730836966
 20
280.60021211970002
 30
0.0
 11
223.76441668480001
 21
280.60021211970002
 31
0.0
  0
LINE
  5
534
  8
0
 62
     0
 10
-158.2730836966
 20
280.60021211970002
 30
0.0
 11
-153.2730836966
 21
280.60021211970002
 31
0.0
  0
SOLID
  5
535
  8
0
 62
     0
 10
-158.2730836966
 20
280.60021211970002
 30
0.0
 11
-149.2730836966
 21
282.85021211970002
 31
0.0
 12
-149.2730836966
 22
278.35021211970002
 32
0.0
 13
-151.5230836966
 23
280.60021211970002
 33
0.0
  0
LINE
  5
536
  8
0
 62
     0
 10
640.72691630339989
 20
280.60021211970002
 30
0.0
 11
635.7269163034
 21
280.60021211970002
 31
0.0
  0
SOLID
  5
537
  8
0
 62
     0
 10
640.72691630339989
 20
280.60021211970002
 30
0.0
 11
631.7269163034
 21
278.35021211970002
 31
0.0
 12
631.7269163034
 22
282.85021211970002
 32
0.0
 13
633.9769163034
 23
280.60021211970002
 33
0.0
  0
ENDBLK
  5
538
  8
0
  0
BLOCK
  8
0
  2
*D110
 70
     1
 10
0.0
 20
0.0
 30
0.0
  3
*D110
  1

  0
TEXT
  5
53C
  8
0
 62
     0
 10
474.12896444519998
 20
-221.9138011878
 30
0.0
 40
9.8954164504999991
  1
129
 50
90.0
  0
LINE
  5
53D
  8
0
 62
     0
 10
421.35534364900002
 20
-277.59127526930001
 30
0.0
 11
478.87521440699999
 21
-277.59127526930001
 31
0.0
  0
LINE
  5
53E
  8
0
 62
     0
 10
421.35534364900002
 20
-148.59127526930001
 30
0.0
 11
478.87521440699999
 21
-148.59127526930001
 31
0.0
  0
LINE
  5
53F
  8
0
 62
     0
 10
476.87521440699987
 20
-277.59127526930001
 30
0.0
 11
476.87521440699987
 21
-198.63046836309999
 31
0.0
  0
LINE
  5
540
  8
0
 62
     0
 10
476.87521440699987
 20
-277.59127526930001
 30
0.0
 11
476.87521440699987
 21
-227.73463439400001
 31
0.0
  0
LINE
  5
541
  8
0
 62
     0
 10
476.87521440699987
 20
-148.59127526930001
 30
0.0
 11
476.87521440699987
 21
-198.63046836309999
 31
0.0
  0
LINE
  5
542
  8
0
 62
     0
 10
476.87521440699987
 20
-148.59127526930001
 30
0.0
 11
476.87521440699987
 21
-227.73463439400001
 31
0.0
  0
LINE
  5
543
  8
0
 62
     0
 10
476.87521440699987
 20
-148.59127526930001
 30
0.0
 11
476.87521440699987
 21
-153.59127526930001
 31
0.0
  0
SOLID
  5
544
  8
0
 62
     0
 10
476.87521440699987
 20
-148.59127526930001
 30
0.0
 11
479.12521440699987
 21
-157.59127526930001
 31
0.0
 12
474.62521440699987
 22
-157.59127526930001
 32
0.0
 13
476.87521440699987
 23
-155.34127526930001
 33
0.0
  0
LINE
  5
545
  8
0
 62
     0
 10
476.87521440699987
 20
-277.59127526930001
 30
0.0
 11
476.87521440699987
 21
-272.59127526930001
 31
0.0
  0
SOLID
  5
546
  8
0
 62
     0
 10
476.87521440699987
 20
-277.59127526930001
 30
0.0
 11
474.62521440699987
 21
-268.59127526930001
 31
0.0
 12
479.12521440699987
 22
-268.59127526930001
 32
0.0
 13
476.87521440699987
 23
-270.84127526930001
 33
0.0
  0
ENDBLK
  5
547
  8
0
  0
BLOCK
  8
0
  2
*D111
 70
     1
 10
0.0
 20
0.0
 30
0.0
  3
*D111
  1

  0
TEXT
  5
54B
  8
0
 62
     0
 10
195.93444070359999
 20
-304.84502552110001
 30
0.0
 40
9.8954164504999991
  1
75
  0
LINE
  5
54C
  8
0
 62
     0
 10
164.25527390970001
 20
-263.09144714429999
 30
0.0
 11
164.25527390970001
 21
-309.591275483
 31
0.0
  0
LINE
  5
54D
  8
0
 62
     0
 10
239.25527390970001
 20
-263.09144714429999
 30
0.0
 11
239.25527390970001
 21
-309.591275483
 31
0.0
  0
LINE
  5
54E
  8
0
 62
     0
 10
164.25527390970001
 20
-307.591275483
 30
0.0
 11
213.39694032209999
 21
-307.591275483
 31
0.0
  0
LINE
  5
54F
  8
0
 62
     0
 10
164.25527390970001
 20
-307.591275483
 30
0.0
 11
190.11360749740001
 21
-307.591275483
 31
0.0
  0
LINE
  5
550
  8
0
 62
     0
 10
239.25527390970001
 20
-307.591275483
 30
0.0
 11
213.39694032209999
 21
-307.591275483
 31
0.0
  0
LINE
  5
551
  8
0
 62
     0
 10
239.25527390970001
 20
-307.591275483
 30
0.0
 11
190.11360749740001
 21
-307.591275483
 31
0.0
  0
LINE
  5
552
  8
0
 62
     0
 10
239.25527390970001
 20
-307.591275483
 30
0.0
 11
234.25527390970001
 21
-307.591275483
 31
0.0
  0
SOLID
  5
553
  8
0
 62
     0
 10
239.25527390970001
 20
-307.591275483
 30
0.0
 11
230.25527390970001
 21
-309.841275483
 31
0.0
 12
230.25527390970001
 22
-305.341275483
 32
0.0
 13
232.50527390970001
 23
-307.591275483
 33
0.0
  0
LINE
  5
554
  8
0
 62
     0
 10
164.25527390970001
 20
-307.591275483
 30
0.0
 11
169.25527390970001
 21
-307.591275483
 31
0.0
  0
SOLID
  5
555
  8
0
 62
     0
 10
164.25527390970001
 20
-307.591275483
 30
0.0
 11
173.25527390970001
 21
-305.341275483
 31
0.0
 12
173.25527390970001
 22
-309.841275483
 32
0.0
 13
171.00527390969989
 23
-307.591275483
 33
0.0
  0
ENDBLK
  5
556
  8
0
  0
BLOCK
  8
0
  2
*D112
 70
     1
 10
0.0
 20
0.0
 30
0.0
  3
*D112
  1

  0
TEXT
  5
55A
  8
0
 62
     0
 10
667.83605116820002
 20
128.23328878749999
 30
0.0
 40
9.8954164504999991
  1
130
 50
90.0
  0
LINE
  5
55B
  8
0
 62
     0
 10
631.7269163034
 20
71.964538596799997
 30
0.0
 11
672.58230113000002
 21
71.964538596799997
 31
0.0
  0
LINE
  5
55C
  8
0
 62
     0
 10
631.7269163034
 20
201.9645385968
 30
0.0
 11
672.58230113000002
 21
201.9645385968
 31
0.0
  0
LINE
  5
55D
  8
0
 62
     0
 10
670.58230113000002
 20
71.964538596799997
 30
0.0
 11
670.58230113000002
 21
151.5166216122
 31
0.0
  0
LINE
  5
55E
  8
0
 62
     0
 10
670.58230113000002
 20
71.964538596799997
 30
0.0
 11
670.58230113000002
 21
122.41245558129999
 31
0.0
  0
LINE
  5
55F
  8
0
 62
     0
 10
670.58230113000002
 20
201.9645385968
 30
0.0
 11
670.58230113000002
 21
151.5166216122
 31
0.0
  0
LINE
  5
560
  8
0
 62
     0
 10
670.58230113000002
 20
201.9645385968
 30
0.0
 11
670.58230113000002
 21
122.41245558129999
 31
0.0
  0
LINE
  5
561
  8
0
 62
     0
 10
670.58230113000002
 20
201.9645385968
 30
0.0
 11
670.58230113000002
 21
196.9645385968
 31
0.0
  0
SOLID
  5
562
  8
0
 62
     0
 10
670.58230113000002
 20
201.9645385968
 30
0.0
 11
672.83230113000002
 21
192.9645385968
 31
0.0
 12
668.33230113000002
 22
192.9645385968
 32
0.0
 13
670.58230113000002
 23
195.2145385968
 33
0.0
  0
LINE
  5
563
  8
0
 62
     0
 10
670.58230113000002
 20
71.964538596799997
 30
0.0
 11
670.58230113000002
 21
76.964538596799997
 31
0.0
  0
SOLID
  5
564
  8
0
 62
     0
 10
670.58230113000002
 20
71.964538596799997
 30
0.0
 11
668.33230113000002
 21
80.964538596799997
 31
0.0
 12
672.83230113000002
 22
80.964538596799997
 32
0.0
 13
670.58230113000002
 23
78.714538596799997
 33
0.0
  0
ENDBLK
  5
565
  8
0
  0
BLOCK
  8
0
  2
*D113
 70
     1
 10
0.0
 20
0.0
 30
0.0
  3
*D113
  1

  0
TEXT
  5
569
  8
0
 62
     0
 10
687.02668684929995
 20
128.23328878749999
 30
0.0
 40
9.8954164504999991
  1
148
 50
90.0
  0
LINE
  5
56A
  8
0
 62
     0
 10
640.72691630339989
 20
62.964538596799997
 30
0.0
 11
691.7729368112
 21
62.964538596799997
 31
0.0
  0
LINE
  5
56B
  8
0
 62
     0
 10
640.72691630339989
 20
210.9645385968
 30
0.0
 11
691.7729368112
 21
210.9645385968
 31
0.0
  0
LINE
  5
56C
  8
0
 62
     0
 10
689.7729368112
 20
62.964538596799997
 30
0.0
 11
689.7729368112
 21
151.5166216122
 31
0.0
  0
LINE
  5
56D
  8
0
 62
     0
 10
689.7729368112
 20
62.964538596799997
 30
0.0
 11
689.7729368112
 21
122.41245558129999
 31
0.0
  0
LINE
  5
56E
  8
0
 62
     0
 10
689.7729368112
 20
210.9645385968
 30
0.0
 11
689.7729368112
 21
151.5166216122
 31
0.0
  0
LINE
  5
56F
  8
0
 62
     0
 10
689.7729368112
 20
210.9645385968
 30
0.0
 11
689.7729368112
 21
122.41245558129999
 31
0.0
  0
LINE
  5
570
  8
0
 62
     0
 10
689.7729368112
 20
210.9645385968
 30
0.0
 11
689.7729368112
 21
205.9645385968
 31
0.0
  0
SOLID
  5
571
  8
0
 62
     0
 10
689.7729368112
 20
210.9645385968
 30
0.0
 11
692.0229368112
 21
201.9645385968
 31
0.0
 12
687.5229368112
 22
201.9645385968
 32
0.0
 13
689.7729368112
 23
204.2145385968
 33
0.0
  0
LINE
  5
572
  8
0
 62
     0
 10
689.7729368112
 20
62.964538596799997
 30
0.0
 11
689.7729368112
 21
67.964538596799997
 31
0.0
  0
SOLID
  5
573
  8
0
 62
     0
 10
689.7729368112
 20
62.964538596799997
 30
0.0
 11
687.5229368112
 21
71.964538596799997
 31
0.0
 12
692.0229368112
 22
71.964538596799997
 32
0.0
 13
689.7729368112
 23
69.714538596799997
 33
0.0
  0
ENDBLK
  5
574
  8
0
  0
BLOCK
  8
0
  2
*D114
 70
     1
 10
0.0
 20
0.0
 30
0.0
  3
*D114
  1

  0
TEXT
  5
578
  8
0
 62
     0
 10
-104.0655592964
 20
-304.84502552110001
 30
0.0
 40
9.8954164504999991
  1
75
  0
LINE
  5
579
  8
0
 62
     0
 10
-135.74472609029999
 20
-263.09144714429999
 30
0.0
 11
-135.74472609029999
 21
-309.591275483
 31
0.0
  0
LINE
  5
57A
  8
0
 62
     0
 10
-60.744726090299991
 20
-263.09144714429999
 30
0.0
 11
-60.744726090299991
 21
-309.591275483
 31
0.0
  0
LINE
  5
57B
  8
0
 62
     0
 10
-135.74472609029999
 20
-307.591275483
 30
0.0
 11
-86.603059677900006
 21
-307.591275483
 31
0.0
  0
LINE
  5
57C
  8
0
 62
     0
 10
-135.74472609029999
 20
-307.591275483
 30
0.0
 11
-109.8863925026
 21
-307.591275483
 31
0.0
  0
LINE
  5
57D
  8
0
 62
     0
 10
-60.744726090299991
 20
-307.591275483
 30
0.0
 11
-86.603059677900006
 21
-307.591275483
 31
0.0
  0
LINE
  5
57E
  8
0
 62
     0
 10
-60.744726090299991
 20
-307.591275483
 30
0.0
 11
-109.8863925026
 21
-307.591275483
 31
0.0
  0
LINE
  5
57F
  8
0
 62
     0
 10
-60.744726090299991
 20
-307.591275483
 30
0.0
 11
-65.744726090299991
 21
-307.591275483
 31
0.0
  0
SOLID
  5
580
  8
0
 62
     0
 10
-60.744726090299991
 20
-307.591275483
 30
0.0
 11
-69.744726090299991
 21
-309.841275483
 31
0.0
 12
-69.744726090299991
 22
-305.341275483
 32
0.0
 13
-67.494726090299991
 23
-307.591275483
 33
0.0
  0
LINE
  5
581
  8
0
 62
     0
 10
-135.74472609029999
 20
-307.591275483
 30
0.0
 11
-130.74472609029999
 21
-307.591275483
 31
0.0
  0
SOLID
  5
582
  8
0
 62
     0
 10
-135.74472609029999
 20
-307.591275483
 30
0.0
 11
-126.74472609030001
 21
-305.341275483
 31
0.0
 12
-126.74472609030001
 22
-309.841275483
 32
0.0
 13
-128.99472609029999
 23
-307.591275483
 33
0.0
  0
ENDBLK
  5
583
  8
0
  0
BLOCK
  8
0
  2
*D115
 70
     1
 10
0.0
 20
0.0
 30
0.0
  3
*D115
  1

  0
TEXT
  5
587
  8
0
 62
     0
 10
-161.73861461449999
 20
-304.84502530750001
 30
0.0
 40
9.8954164504999991
  1
32.1
  0
LINE
  5
588
  8
0
 62
     0
 10
-167.844656351
 20
-277.59127526930001
 30
0.0
 11
-167.844656351
 21
-309.59127526930001
 31
0.0
  0
LINE
  5
589
  8
0
 62
     0
 10
-135.74472609029999
 20
-263.09144714429999
 30
0.0
 11
-135.74472609029999
 21
-309.59127526930001
 31
0.0
  0
LINE
  5
58A
  8
0
 62
     0
 10
-167.844656351
 20
-307.59127526930001
 30
0.0
 11
-136.02993462059999
 21
-307.59127526930001
 31
0.0
  0
LINE
  5
58B
  8
0
 62
     0
 10
-167.844656351
 20
-307.59127526930001
 30
0.0
 11
-167.5594478207
 21
-307.59127526930001
 31
0.0
  0
LINE
  5
58C
  8
0
 62
     0
 10
-135.74472609029999
 20
-307.59127526930001
 30
0.0
 11
-136.02993462059999
 21
-307.59127526930001
 31
0.0
  0
LINE
  5
58D
  8
0
 62
     0
 10
-135.74472609029999
 20
-307.59127526930001
 30
0.0
 11
-167.5594478207
 21
-307.59127526930001
 31
0.0
  0
LINE
  5
58E
  8
0
 62
     0
 10
-135.74472609029999
 20
-307.59127526930001
 30
0.0
 11
-130.74472609029999
 21
-307.59127526930001
 31
0.0
  0
SOLID
  5
58F
  8
0
 62
     0
 10
-135.74472609029999
 20
-307.59127526930001
 30
0.0
 11
-126.74472609030001
 21
-305.34127526930001
 31
0.0
 12
-126.74472609030001
 22
-309.84127526930001
 32
0.0
 13
-128.99472609029999
 23
-307.59127526930001
 33
0.0
  0
LINE
  5
590
  8
0
 62
     0
 10
-167.844656351
 20
-307.59127526930001
 30
0.0
 11
-172.844656351
 21
-307.59127526930001
 31
0.0
  0
SOLID
  5
591
  8
0
 62
     0
 10
-167.844656351
 20
-307.59127526930001
 30
0.0
 11
-176.844656351
 21
-309.84127526930001
 31
0.0
 12
-176.844656351
 22
-305.34127526930001
 32
0.0
 13
-174.594656351
 23
-307.59127526930001
 33
0.0
  0
ENDBLK
  5
592
  8
0
  0
BLOCK
  8
0
  2
*D116
 70
     1
 10
0.0
 20
0.0
 30
0.0
  3
*D116
  1

  0
TEXT
  5
596
  8
0
 62
     0
 10
120.9344407036
 20
-304.84502552110001
 30
0.0
 40
9.8954164504999991
  1
75
  0
LINE
  5
597
  8
0
 62
     0
 10
89.255273909699994
 20
-263.09144714429999
 30
0.0
 11
89.255273909699994
 21
-309.591275483
 31
0.0
  0
LINE
  5
598
  8
0
 62
     0
 10
164.25527390970001
 20
-263.09144714429999
 30
0.0
 11
164.25527390970001
 21
-309.591275483
 31
0.0
  0
LINE
  5
599
  8
0
 62
     0
 10
89.255273909699994
 20
-307.591275483
 30
0.0
 11
138.39694032209999
 21
-307.591275483
 31
0.0
  0
LINE
  5
59A
  8
0
 62
     0
 10
89.255273909699994
 20
-307.591275483
 30
0.0
 11
115.1136074974
 21
-307.591275483
 31
0.0
  0
LINE
  5
59B
  8
0
 62
     0
 10
164.25527390970001
 20
-307.591275483
 30
0.0
 11
138.39694032209999
 21
-307.591275483
 31
0.0
  0
LINE
  5
59C
  8
0
 62
     0
 10
164.25527390970001
 20
-307.591275483
 30
0.0
 11
115.1136074974
 21
-307.591275483
 31
0.0
  0
LINE
  5
59D
  8
0
 62
     0
 10
164.25527390970001
 20
-307.591275483
 30
0.0
 11
159.25527390970001
 21
-307.591275483
 31
0.0
  0
SOLID
  5
59E
  8
0
 62
     0
 10
164.25527390970001
 20
-307.591275483
 30
0.0
 11
155.25527390969989
 21
-309.841275483
 31
0.0
 12
155.25527390969989
 22
-305.341275483
 32
0.0
 13
157.50527390970001
 23
-307.591275483
 33
0.0
  0
LINE
  5
59F
  8
0
 62
     0
 10
89.255273909699994
 20
-307.591275483
 30
0.0
 11
94.255273909699994
 21
-307.591275483
 31
0.0
  0
SOLID
  5
5A0
  8
0
 62
     0
 10
89.255273909699994
 20
-307.591275483
 30
0.0
 11
98.255273909699994
 21
-305.341275483
 31
0.0
 12
98.255273909699994
 22
-309.841275483
 32
0.0
 13
96.005273909699994
 23
-307.591275483
 33
0.0
  0
ENDBLK
  5
5A1
  8
0
  0
BLOCK
  8
0
  2
*D117
 70
     1
 10
0.0
 20
0.0
 30
0.0
  3
*D117
  1

  0
TEXT
  5
5A5
  8
0
 62
     0
 10
45.934440703599989
 20
-304.84502552110001
 30
0.0
 40
9.8954164504999991
  1
75
  0
LINE
  5
5A6
  8
0
 62
     0
 10
14.2552739097
 20
-263.09144714429999
 30
0.0
 11
14.2552739097
 21
-309.591275483
 31
0.0
  0
LINE
  5
5A7
  8
0
 62
     0
 10
89.255273909699994
 20
-263.09144714429999
 30
0.0
 11
89.255273909699994
 21
-309.591275483
 31
0.0
  0
LINE
  5
5A8
  8
0
 62
     0
 10
14.2552739097
 20
-307.591275483
 30
0.0
 11
63.396940322100001
 21
-307.591275483
 31
0.0
  0
LINE
  5
5A9
  8
0
 62
     0
 10
14.2552739097
 20
-307.591275483
 30
0.0
 11
40.11360749739999
 21
-307.591275483
 31
0.0
  0
LINE
  5
5AA
  8
0
 62
     0
 10
89.255273909699994
 20
-307.591275483
 30
0.0
 11
63.396940322100001
 21
-307.591275483
 31
0.0
  0
LINE
  5
5AB
  8
0
 62
     0
 10
89.255273909699994
 20
-307.591275483
 30
0.0
 11
40.11360749739999
 21
-307.591275483
 31
0.0
  0
LINE
  5
5AC
  8
0
 62
     0
 10
89.255273909699994
 20
-307.591275483
 30
0.0
 11
84.255273909700009
 21
-307.591275483
 31
0.0
  0
SOLID
  5
5AD
  8
0
 62
     0
 10
89.255273909699994
 20
-307.591275483
 30
0.0
 11
80.255273909700009
 21
-309.841275483
 31
0.0
 12
80.255273909700009
 22
-305.341275483
 32
0.0
 13
82.505273909700009
 23
-307.591275483
 33
0.0
  0
LINE
  5
5AE
  8
0
 62
     0
 10
14.2552739097
 20
-307.591275483
 30
0.0
 11
19.255273909700001
 21
-307.591275483
 31
0.0
  0
SOLID
  5
5AF
  8
0
 62
     0
 10
14.2552739097
 20
-307.591275483
 30
0.0
 11
23.255273909700001
 21
-305.341275483
 31
0.0
 12
23.255273909700001
 22
-309.841275483
 32
0.0
 13
21.005273909700001
 23
-307.591275483
 33
0.0
  0
ENDBLK
  5
5B0
  8
0
  0
BLOCK
  8
0
  2
*D118
 70
     1
 10
0.0
 20
0.0
 30
0.0
  3
*D118
  1

  0
TEXT
  5
5B4
  8
0
 62
     0
 10
-29.0655592964
 20
-304.84502552110001
 30
0.0
 40
9.8954164504999991
  1
75
  0
LINE
  5
5B5
  8
0
 62
     0
 10
-60.744726090299991
 20
-263.09144714429999
 30
0.0
 11
-60.744726090299991
 21
-309.591275483
 31
0.0
  0
LINE
  5
5B6
  8
0
 62
     0
 10
14.2552739097
 20
-263.09144714429999
 30
0.0
 11
14.2552739097
 21
-309.591275483
 31
0.0
  0
LINE
  5
5B7
  8
0
 62
     0
 10
-60.744726090299991
 20
-307.591275483
 30
0.0
 11
-11.603059677899999
 21
-307.591275483
 31
0.0
  0
LINE
  5
5B8
  8
0
 62
     0
 10
-60.744726090299991
 20
-307.591275483
 30
0.0
 11
-34.886392502600003
 21
-307.591275483
 31
0.0
  0
LINE
  5
5B9
  8
0
 62
     0
 10
14.2552739097
 20
-307.591275483
 30
0.0
 11
-11.603059677899999
 21
-307.591275483
 31
0.0
  0
LINE
  5
5BA
  8
0
 62
     0
 10
14.2552739097
 20
-307.591275483
 30
0.0
 11
-34.886392502600003
 21
-307.591275483
 31
0.0
  0
LINE
  5
5BB
  8
0
 62
     0
 10
14.2552739097
 20
-307.591275483
 30
0.0
 11
9.2552739096999996
 21
-307.591275483
 31
0.0
  0
SOLID
  5
5BC
  8
0
 62
     0
 10
14.2552739097
 20
-307.591275483
 30
0.0
 11
5.2552739096999996
 21
-309.841275483
 31
0.0
 12
5.2552739096999996
 22
-305.341275483
 32
0.0
 13
7.5052739096999996
 23
-307.591275483
 33
0.0
  0
LINE
  5
5BD
  8
0
 62
     0
 10
-60.744726090299991
 20
-307.591275483
 30
0.0
 11
-55.744726090299991
 21
-307.591275483
 31
0.0
  0
SOLID
  5
5BE
  8
0
 62
     0
 10
-60.744726090299991
 20
-307.591275483
 30
0.0
 11
-51.744726090299999
 21
-305.341275483
 31
0.0
 12
-51.744726090299999
 22
-309.841275483
 32
0.0
 13
-53.994726090299999
 23
-307.591275483
 33
0.0
  0
ENDBLK
  5
5BF
  8
0
  0
BLOCK
  8
0
  2
*D119
 70
     1
 10
0.0
 20
0.0
 30
0.0
  3
*D119
  1

  0
TEXT
  5
5C3
  8
0
 62
     0
 10
785.75245245910003
 20
128.23328878749999
 30
0.0
 40
9.8954164504999991
  1
117
 50
90.0
  0
LINE
  5
5C4
  8
0
 62
     0
 10
764.77340067839987
 20
78.464067242599995
 30
0.0
 11
790.49870242089992
 21
78.464067242599995
 31
0.0
  0
LINE
  5
5C5
  8
0
 62
     0
 10
764.77340067839987
 20
195.4650099509
 30
0.0
 11
790.49870242089992
 21
195.4650099509
 31
0.0
  0
LINE
  5
5C6
  8
0
 62
     0
 10
788.4987024208998
 20
78.464067242599995
 30
0.0
 11
788.4987024208998
 21
151.5166216122
 31
0.0
  0
LINE
  5
5C7
  8
0
 62
     0
 10
788.4987024208998
 20
78.464067242599995
 30
0.0
 11
788.4987024208998
 21
122.41245558129999
 31
0.0
  0
LINE
  5
5C8
  8
0
 62
     0
 10
788.4987024208998
 20
195.4650099509
 30
0.0
 11
788.4987024208998
 21
151.5166216122
 31
0.0
  0
LINE
  5
5C9
  8
0
 62
     0
 10
788.4987024208998
 20
195.4650099509
 30
0.0
 11
788.4987024208998
 21
122.41245558129999
 31
0.0
  0
LINE
  5
5CA
  8
0
 62
     0
 10
788.4987024208998
 20
195.4650099509
 30
0.0
 11
788.4987024208998
 21
190.4650099509
 31
0.0
  0
SOLID
  5
5CB
  8
0
 62
     0
 10
788.4987024208998
 20
195.4650099509
 30
0.0
 11
790.7487024208998
 21
186.4650099509
 31
0.0
 12
786.24870242089992
 22
186.4650099509
 32
0.0
 13
788.4987024208998
 23
188.7150099509
 33
0.0
  0
LINE
  5
5CC
  8
0
 62
     0
 10
788.4987024208998
 20
78.464067242599995
 30
0.0
 11
788.4987024208998
 21
83.464067242599995
 31
0.0
  0
SOLID
  5
5CD
  8
0
 62
     0
 10
788.4987024208998
 20
78.464067242599995
 30
0.0
 11
786.24870242089992
 21
87.464067242599995
 31
0.0
 12
790.7487024208998
 22
87.464067242599995
 32
0.0
 13
788.4987024208998
 23
85.214067242599995
 33
0.0
  0
ENDBLK
  5
5CE
  8
0
  0
BLOCK
  8
0
  2
*D120
 70
     1
 10
0.0
 20
0.0
 30
0.0
  3
*D120
  1

  0
TEXT
  5
5D2
  8
0
 62
     0
 10
906.56926812940014
 20
128.23328878749999
 30
0.0
 40
9.8954164504999991
  1
120
 50
90.0
  0
LINE
  5
5D3
  8
0
 62
     0
 10
887.90060682109993
 20
76.964538596799997
 30
0.0
 11
911.31551809119992
 21
76.964538596799997
 31
0.0
  0
LINE
  5
5D4
  8
0
 62
     0
 10
887.90060682109993
 20
196.9645385968
 30
0.0
 11
911.31551809119992
 21
196.9645385968
 31
0.0
  0
LINE
  5
5D5
  8
0
 62
     0
 10
909.31551809119992
 20
76.964538596799997
 30
0.0
 11
909.31551809119992
 21
151.5166216122
 31
0.0
  0
LINE
  5
5D6
  8
0
 62
     0
 10
909.31551809119992
 20
76.964538596799997
 30
0.0
 11
909.31551809119992
 21
122.41245558129999
 31
0.0
  0
LINE
  5
5D7
  8
0
 62
     0
 10
909.31551809119992
 20
196.9645385968
 30
0.0
 11
909.31551809119992
 21
151.5166216122
 31
0.0
  0
LINE
  5
5D8
  8
0
 62
     0
 10
909.31551809119992
 20
196.9645385968
 30
0.0
 11
909.31551809119992
 21
122.41245558129999
 31
0.0
  0
LINE
  5
5D9
  8
0
 62
     0
 10
909.31551809119992
 20
196.9645385968
 30
0.0
 11
909.31551809119992
 21
191.9645385968
 31
0.0
  0
SOLID
  5
5DA
  8
0
 62
     0
 10
909.31551809119992
 20
196.9645385968
 30
0.0
 11
911.56551809119981
 21
187.9645385968
 31
0.0
 12
907.06551809119981
 22
187.9645385968
 32
0.0
 13
909.31551809119992
 23
190.2145385968
 33
0.0
  0
LINE
  5
5DB
  8
0
 62
     0
 10
909.31551809119992
 20
76.964538596799997
 30
0.0
 11
909.31551809119992
 21
81.964538596799997
 31
0.0
  0
SOLID
  5
5DC
  8
0
 62
     0
 10
909.31551809119992
 20
76.964538596799997
 30
0.0
 11
907.06551809119981
 21
85.964538596799997
 31
0.0
 12
911.56551809119981
 22
85.964538596799997
 32
0.0
 13
909.31551809119992
 23
83.714538596799997
 33
0.0
  0
ENDBLK
  5
5DD
  8
0
  0
BLOCK
  8
0
  2
*D121
 70
     1
 10
0.0
 20
0.0
 30
0.0
  3
*D121
  1

  0
TEXT
  5
5E1
  8
0
 62
     0
 10
448.60909368710003
 20
-163.41219441300001
 30
0.0
 40
9.8954164504999991
  1
18
 50
90.0
  0
LINE
  5
5E2
  8
0
 62
     0
 10
400.25527390970001
 20
-166.59144714429999
 30
0.0
 11
453.35534364900002
 21
-166.59144714429999
 31
0.0
  0
LINE
  5
5E3
  8
0
 62
     0
 10
421.35534364900002
 20
-148.59127526930001
 30
0.0
 11
453.35534364900002
 21
-148.59127526930001
 31
0.0
  0
LINE
  5
5E4
  8
0
 62
     0
 10
451.35534364900002
 20
-166.59144714429999
 30
0.0
 11
451.35534364900002
 21
-166.59144714429999
 31
0.0
  0
LINE
  5
5E5
  8
0
 62
     0
 10
451.35534364900002
 20
-166.59144714429999
 30
0.0
 11
451.35534364900002
 21
-148.59127526930001
 31
0.0
  0
LINE
  5
5E6
  8
0
 62
     0
 10
451.35534364900002
 20
-148.59127526930001
 30
0.0
 11
451.35534364900002
 21
-166.59144714429999
 31
0.0
  0
LINE
  5
5E7
  8
0
 62
     0
 10
451.35534364900002
 20
-148.59127526930001
 30
0.0
 11
451.35534364900002
 21
-148.59127526930001
 31
0.0
  0
LINE
  5
5E8
  8
0
 62
     0
 10
451.35534364900002
 20
-148.59127526930001
 30
0.0
 11
451.35534364900002
 21
-153.59127526930001
 31
0.0
  0
SOLID
  5
5E9
  8
0
 62
     0
 10
451.35534364900002
 20
-148.59127526930001
 30
0.0
 11
453.60534364900002
 21
-157.59127526930001
 31
0.0
 12
449.10534364900002
 22
-157.59127526930001
 32
0.0
 13
451.35534364900002
 23
-155.34127526930001
 33
0.0
  0
LINE
  5
5EA
  8
0
 62
     0
 10
451.35534364900002
 20
-166.59144714429999
 30
0.0
 11
451.35534364900002
 21
-161.59144714429999
 31
0.0
  0
SOLID
  5
5EB
  8
0
 62
     0
 10
451.35534364900002
 20
-166.59144714429999
 30
0.0
 11
449.10534364900002
 21
-157.59144714429999
 31
0.0
 12
453.60534364900002
 22
-157.59144714429999
 32
0.0
 13
451.35534364900002
 23
-159.84144714429999
 33
0.0
  0
ENDBLK
  5
5EC
  8
0
  0
BLOCK
  8
0
  2
*D122
 70
     1
 10
0.0
 20
0.0
 30
0.0
  3
*D122
  1

  0
TEXT
  5
5F0
  8
0
 62
     0
 10
448.60909490120002
 20
-179.9122803505
 30
0.0
 40
9.8954164504999991
  1
15
 50
90.0
  0
LINE
  5
5F1
  8
0
 62
     0
 10
400.25527390970001
 20
-181.59144714429999
 30
0.0
 11
453.3553448630999
 21
-181.59144714429999
 31
0.0
  0
LINE
  5
5F2
  8
0
 62
     0
 10
400.25527390970001
 20
-166.59144714429999
 30
0.0
 11
453.3553448630999
 21
-166.59144714429999
 31
0.0
  0
LINE
  5
5F3
  8
0
 62
     0
 10
451.3553448630999
 20
-181.59144714429999
 30
0.0
 11
451.3553448630999
 21
-181.59144714429999
 31
0.0
  0
LINE
  5
5F4
  8
0
 62
     0
 10
451.3553448630999
 20
-181.59144714429999
 30
0.0
 11
451.3553448630999
 21
-166.59144714429999
 31
0.0
  0
LINE
  5
5F5
  8
0
 62
     0
 10
451.3553448630999
 20
-166.59144714429999
 30
0.0
 11
451.3553448630999
 21
-181.59144714429999
 31
0.0
  0
LINE
  5
5F6
  8
0
 62
     0
 10
451.3553448630999
 20
-166.59144714429999
 30
0.0
 11
451.3553448630999
 21
-166.59144714429999
 31
0.0
  0
LINE
  5
5F7
  8
0
 62
     0
 10
451.3553448630999
 20
-166.59144714429999
 30
0.0
 11
451.3553448630999
 21
-161.59144714429999
 31
0.0
  0
SOLID
  5
5F8
  8
0
 62
     0
 10
451.3553448630999
 20
-166.59144714429999
 30
0.0
 11
449.1053448630999
 21
-157.59144714429999
 31
0.0
 12
453.6053448630999
 22
-157.59144714429999
 32
0.0
 13
451.3553448630999
 23
-159.84144714429999
 33
0.0
  0
LINE
  5
5F9
  8
0
 62
     0
 10
451.3553448630999
 20
-181.59144714429999
 30
0.0
 11
451.3553448630999
 21
-186.59144714429999
 31
0.0
  0
SOLID
  5
5FA
  8
0
 62
     0
 10
451.3553448630999
 20
-181.59144714429999
 30
0.0
 11
453.6053448630999
 21
-190.59144714429999
 31
0.0
 12
449.1053448630999
 22
-190.59144714429999
 32
0.0
 13
451.3553448630999
 23
-188.34144714429999
 33
0.0
  0
ENDBLK
  5
5FB
  8
0
  0
BLOCK
  8
0
  2
CLUMP75
 70
     0
 10
0.0
 20
0.0
 30
0.0
  3
CLUMP75
  1

  0
ARC
  5
600
  8
┌▓È_1
 10
465.32764229259999
 20
169.9645385968
 30
0.0
 40
3.5
 50
90.0
 51
270.0
  0
LINE
  5
601
  8
┌▓È_1
 10
480.32764229259999
 20
166.4645385968
 30
0.0
 11
465.32764229259999
 21
166.4645385968
 31
0.0
  0
LINE
  5
602
  8
┌▓È_1
 10
465.32764229259999
 20
173.4645385968
 30
0.0
 11
480.32764229259999
 21
173.4645385968
 31
0.0
  0
ARC
  5
603
  8
┌▓È_1
 10
480.32764229259999
 20
169.9645385968
 30
0.0
 40
3.5
 50
270.0
 51
90.0
  0
ARC
  5
604
  8
┌▓È_1
 10
465.32764229259999
 20
182.9645385968
 30
0.0
 40
3.5
 50
90.0
 51
270.0
  0
LINE
  5
605
  8
┌▓È_1
 10
480.32764229259999
 20
179.4645385968
 30
0.0
 11
465.32764229259999
 21
179.4645385968
 31
0.0
  0
LINE
  5
606
  8
┌▓È_1
 10
465.32764229259999
 20
186.4645385968
 30
0.0
 11
480.32764229259999
 21
186.4645385968
 31
0.0
  0
ARC
  5
607
  8
┌▓È_1
 10
480.32764229259999
 20
182.9645385968
 30
0.0
 40
3.5
 50
270.0
 51
90.0
  0
ENDBLK
  5
608
  8
0
  0
BLOCK
  8
0
  2
CLUMP76
 70
     0
 10
0.0
 20
0.0
 30
0.0
  3
CLUMP76
  1

  0
ARC
  5
611
  8
┌▓È_1
 10
606.32687145930004
 20
169.9645385968
 30
0.0
 40
3.5
 50
270.0
 51
90.0
  0
LINE
  5
612
  8
┌▓È_1
 10
591.32687145930004
 20
166.4645385968
 30
0.0
 11
606.32687145930004
 21
166.4645385968
 31
0.0
  0
LINE
  5
613
  8
┌▓È_1
 10
606.32687145930004
 20
173.4645385968
 30
0.0
 11
591.32687145930004
 21
173.4645385968
 31
0.0
  0
ARC
  5
614
  8
┌▓È_1
 10
591.32687145930004
 20
169.9645385968
 30
0.0
 40
3.5
 50
90.0
 51
270.0
  0
ARC
  5
615
  8
┌▓È_1
 10
606.32687145930004
 20
182.9645385968
 30
0.0
 40
3.5
 50
270.0
 51
90.0
  0
LINE
  5
616
  8
┌▓È_1
 10
591.32687145930004
 20
179.4645385968
 30
0.0
 11
606.32687145930004
 21
179.4645385968
 31
0.0
  0
LINE
  5
617
  8
┌▓È_1
 10
606.32687145930004
 20
186.4645385968
 30
0.0
 11
591.32687145930004
 21
186.4645385968
 31
0.0
  0
ARC
  5
618
  8
┌▓È_1
 10
591.32687145930004
 20
182.9645385968
 30
0.0
 40
3.5
 50
90.0
 51
270.0
  0
ENDBLK
  5
619
  8
0
  0
BLOCK
  8
0
  2
CLUMP77
 70
     0
 10
0.0
 20
0.0
 30
0.0
  3
CLUMP77
  1

  0
ARC
  5
61F
  8
┌▓È_1
 10
288.6271871367
 20
136.96436672179999
 30
0.0
 40
3.5
 50
90.0
 51
270.0
  0
LINE
  5
620
  8
┌▓È_1
 10
303.6271871367
 20
140.46436672179999
 30
0.0
 11
288.6271871367
 21
140.46436672179999
 31
0.0
  0
LINE
  5
621
  8
┌▓È_1
 10
288.6271871367
 20
133.46436672179999
 30
0.0
 11
303.6271871367
 21
133.46436672179999
 31
0.0
  0
ARC
  5
622
  8
┌▓È_1
 10
303.6271871367
 20
136.96436672179999
 30
0.0
 40
3.5
 50
270.0
 51
90.0
  0
ENDBLK
  5
623
  8
0
  0
BLOCK
  8
0
  2
CLUMP78
 70
     0
 10
0.0
 20
0.0
 30
0.0
  3
CLUMP78
  1

  0
LINE
  5
62D
  8
┌▓È_1
 62
     5
 10
839.60060682109986
 20
71.164538596799986
 30
0.0
 11
839.60060682109986
 21
70.364538596800003
 31
0.0
  0
LINE
  5
62E
  8
┌▓È_1
 62
     5
 10
833.7006068211
 20
63.764538596800001
 30
0.0
 11
833.7006068211
 21
71.164538596799986
 31
0.0
  0
LINE
  5
62F
  8
┌▓È_1
 62
     5
 10
838.90060682109993
 20
63.764538596800001
 30
0.0
 11
833.7006068211
 21
63.764538596800001
 31
0.0
  0
LINE
  5
630
  8
┌▓È_1
 62
     5
 10
838.90060682109993
 20
63.764538596800001
 30
0.0
 11
838.90060682109993
 21
62.964538596799997
 31
0.0
  0
LINE
  5
631
  8
┌▓È_1
 62
     5
 10
838.90060682109993
 20
62.964538596799997
 30
0.0
 11
833.7006068211
 21
62.964538596799997
 31
0.0
  0
ARC
  5
632
  8
┌▓È_1
 62
     5
 10
833.7006068211
 20
63.764538596800001
 30
0.0
 40
0.8
 50
180.0
 51
270.0
  0
LINE
  5
633
  8
┌▓È_1
 62
     5
 10
832.90060682110004
 20
63.764538596800001
 30
0.0
 11
832.90060682110004
 21
71.164538596799986
 31
0.0
  0
ARC
  5
634
  8
┌▓È_1
 62
     5
 10
833.7006068211
 20
71.164538596799986
 30
0.0
 40
0.8
 50
90.0
 51
180.0
  0
LINE
  5
635
  8
┌▓È_1
 62
     5
 10
881.90060682110015
 20
62.964538596799997
 30
0.0
 11
881.90060682110015
 21
63.764538596800001
 31
0.0
  0
LINE
  5
636
  8
┌▓È_1
 62
     5
 10
887.10060682109997
 20
63.764538596800001
 30
0.0
 11
881.90060682110015
 21
63.764538596800001
 31
0.0
  0
LINE
  5
637
  8
┌▓È_1
 62
     5
 10
887.10060682109997
 20
76.164538596799986
 30
0.0
 11
887.10060682109997
 21
63.764538596800001
 31
0.0
  0
LINE
  5
638
  8
┌▓È_1
 62
     5
 10
858.7006068211
 20
76.164538596799986
 30
0.0
 11
887.10060682109997
 21
76.164538596799986
 31
0.0
  0
LINE
  5
639
  8
┌▓È_1
 62
     5
 10
833.7006068211
 20
71.964538596799997
 30
0.0
 11
857.90060682110004
 21
71.964538596799997
 31
0.0
  0
LINE
  5
63A
  8
┌▓È_1
 62
     5
 10
833.7006068211
 20
71.164538596799986
 30
0.0
 11
857.90060682110004
 21
71.164538596799986
 31
0.0
  0
LINE
  5
63B
  8
┌▓È_1
 62
     5
 10
858.7006068211
 20
71.964538596799997
 30
0.0
 11
858.7006068211
 21
76.164538596799986
 31
0.0
  0
ARC
  5
63C
  8
┌▓È_1
 62
     5
 10
857.90060682110004
 20
71.964538596799997
 30
0.0
 40
0.8
 50
270.0
 51
0.0
  0
LINE
  5
63D
  8
┌▓È_1
 62
     5
 10
857.90060682110004
 20
71.964538596799997
 30
0.0
 11
857.90060682110004
 21
76.164538596799986
 31
0.0
  0
ARC
  5
63E
  8
┌▓È_1
 62
     5
 10
858.7006068211
 20
76.164538596799986
 30
0.0
 40
0.8
 50
90.0
 51
180.0
  0
LINE
  5
63F
  8
┌▓È_1
 62
     5
 10
858.7006068211
 20
76.964538596799997
 30
0.0
 11
887.10060682109997
 21
76.964538596799997
 31
0.0
  0
ARC
  5
640
  8
┌▓È_1
 62
     5
 10
887.10060682109997
 20
76.164538596799986
 30
0.0
 40
0.8
 50
0.0
 51
90.0
  0
LINE
  5
641
  8
┌▓È_1
 62
     5
 10
887.10060682109997
 20
62.964538596799997
 30
0.0
 11
881.90060682110015
 21
62.964538596799997
 31
0.0
  0
LINE
  5
642
  8
┌▓È_1
 62
     5
 10
887.90060682109993
 20
76.164538596799986
 30
0.0
 11
887.90060682109993
 21
63.764538596800001
 31
0.0
  0
ARC
  5
643
  8
┌▓È_1
 62
     5
 10
887.10060682109997
 20
63.764538596800001
 30
0.0
 40
0.8
 50
270.0
 51
0.0
  0
LINE
  5
644
  8
┌▓È_1
 62
     5
 10
839.60060682109986
 20
70.364538596800003
 30
0.0
 11
887.10060682109997
 21
70.364538596800003
 31
0.0
  0
LINE
  5
645
  8
┌▓È_1
 62
     5
 10
857.90060682110004
 20
71.164538596799986
 30
0.0
 11
887.10060682109997
 21
71.164538596799986
 31
0.0
  0
ENDBLK
  5
646
  8
0
  0
BLOCK
  8
0
  2
CLUMP79
 70
     0
 10
0.0
 20
0.0
 30
0.0
  3
CLUMP79
  1

  0
LINE
  5
64D
  8
┌▓È_1
 62
     5
 10
740.07340067839993
 20
70.364067242600001
 30
0.0
 11
764.77340067839987
 21
70.364067242600001
 31
0.0
  0
LINE
  5
64E
  8
┌▓È_1
 62
     5
 10
740.07340067839993
 20
70.364067242600001
 30
0.0
 11
740.07340067839993
 21
71.164067242599984
 31
0.0
  0
ARC
  5
64F
  8
┌▓È_1
 62
     5
 10
750.57340067839993
 20
71.964067242599995
 30
0.0
 40
0.8
 50
270.0
 51
0.0
  0
LINE
  5
650
  8
┌▓È_1
 62
     5
 10
759.57340067839993
 20
63.764067242599999
 30
0.0
 11
764.77340067839987
 21
63.764067242599999
 31
0.0
  0
LINE
  5
651
  8
┌▓È_1
 62
     5
 10
759.57340067839993
 20
62.964067242600002
 30
0.0
 11
759.57340067839993
 21
63.764067242599999
 31
0.0
  0
LINE
  5
652
  8
┌▓È_1
 62
     5
 10
741.57340067839993
 20
63.764067242599999
 30
0.0
 11
741.57340067839993
 21
62.964067242600002
 31
0.0
  0
LINE
  5
653
  8
┌▓È_1
 62
     5
 10
751.3734006784
 20
78.464067242599995
 30
0.0
 11
764.77340067839987
 21
78.464067242599995
 31
0.0
  0
LINE
  5
654
  8
┌▓È_1
 62
     5
 10
750.57340067839993
 20
71.964067242599995
 30
0.0
 11
750.57340067839993
 21
77.664067242599998
 31
0.0
  0
ARC
  5
655
  8
┌▓È_1
 62
     5
 10
751.3734006784
 20
77.664067242599998
 30
0.0
 40
0.8
 50
90.0
 51
180.0
  0
LINE
  5
656
  8
┌▓È_1
 62
     5
 10
751.3734006784
 20
77.664067242599998
 30
0.0
 11
751.3734006784
 21
71.964067242599995
 31
0.0
  0
LINE
  5
657
  8
┌▓È_1
 62
     5
 10
764.77340067839987
 20
63.764067242599999
 30
0.0
 11
764.77340067839987
 21
77.664067242599998
 31
0.0
  0
LINE
  5
658
  8
┌▓È_1
 62
     5
 10
764.77340067839987
 20
62.964067242600002
 30
0.0
 11
759.57340067839993
 21
62.964067242600002
 31
0.0
  0
ARC
  5
659
  8
┌▓È_1
 62
     5
 10
764.77340067839987
 20
63.764067242599999
 30
0.0
 40
0.8
 50
270.0
 51
0.0
  0
LINE
  5
65A
  8
┌▓È_1
 62
     5
 10
765.57340067839993
 20
77.664067242599998
 30
0.0
 11
765.57340067839993
 21
63.764067242599999
 31
0.0
  0
ARC
  5
65B
  8
┌▓È_1
 62
     5
 10
764.77340067839987
 20
77.664067242599998
 30
0.0
 40
0.8
 50
0.0
 51
90.0
  0
LINE
  5
65C
  8
┌▓È_1
 62
     5
 10
741.57340067839993
 20
63.764067242599999
 30
0.0
 11
741.57340067839993
 21
70.364067242600001
 31
0.0
  0
LINE
  5
65D
  8
┌▓È_1
 62
     5
 10
750.57340067839993
 20
71.164067242599984
 30
0.0
 11
764.77340067839987
 21
71.164067242599984
 31
0.0
  0
LINE
  5
65E
  8
┌▓È_1
 62
     5
 10
764.77340067839987
 20
77.664067242599998
 30
0.0
 11
751.3734006784
 21
77.664067242599998
 31
0.0
  0
LINE
  5
65F
  8
┌▓È_1
 62
     5
 10
736.3734006784
 20
71.164067242599984
 30
0.0
 11
736.3734006784
 21
63.764067242599999
 31
0.0
  0
ARC
  5
660
  8
┌▓È_1
 62
     5
 10
736.3734006784
 20
63.764067242599999
 30
0.0
 40
0.8
 50
180.0
 51
270.0
  0
LINE
  5
661
  8
┌▓È_1
 62
     5
 10
735.57340067839993
 20
63.764067242599999
 30
0.0
 11
735.57340067839993
 21
71.164067242599984
 31
0.0
  0
ARC
  5
662
  8
┌▓È_1
 62
     5
 10
736.3734006784
 20
71.164067242599984
 30
0.0
 40
0.8
 50
90.0
 51
180.0
  0
LINE
  5
663
  8
┌▓È_1
 62
     5
 10
736.3734006784
 20
71.964067242599995
 30
0.0
 11
750.57340067839993
 21
71.964067242599995
 31
0.0
  0
LINE
  5
664
  8
┌▓È_1
 62
     5
 10
736.3734006784
 20
63.764067242599999
 30
0.0
 11
741.57340067839993
 21
63.764067242599999
 31
0.0
  0
LINE
  5
665
  8
┌▓È_1
 62
     5
 10
741.57340067839993
 20
62.964067242600002
 30
0.0
 11
736.3734006784
 21
62.964067242600002
 31
0.0
  0
LINE
  5
666
  8
┌▓È_1
 62
     5
 10
750.57340067839993
 20
71.164067242599984
 30
0.0
 11
736.3734006784
 21
71.164067242599984
 31
0.0
  0
ENDBLK
  5
667
  8
0
  0
BLOCK
  8
0
  2
CLUMP80
 70
     0
 10
0.0
 20
0.0
 30
0.0
  3
CLUMP80
  1

  0
LINE
  5
66C
  8
┌▓È_1
 62
     5
 10
839.60060682109986
 20
202.76453859680001
 30
0.0
 11
839.60060682109986
 21
203.56453859679999
 31
0.0
  0
LINE
  5
66D
  8
┌▓È_1
 62
     5
 10
833.7006068211
 20
210.16453859680001
 30
0.0
 11
833.7006068211
 21
202.76453859680001
 31
0.0
  0
LINE
  5
66E
  8
┌▓È_1
 62
     5
 10
838.90060682109993
 20
210.16453859680001
 30
0.0
 11
833.7006068211
 21
210.16453859680001
 31
0.0
  0
LINE
  5
66F
  8
┌▓È_1
 62
     5
 10
838.90060682109993
 20
210.16453859680001
 30
0.0
 11
838.90060682109993
 21
210.9645385968
 31
0.0
  0
LINE
  5
670
  8
┌▓È_1
 62
     5
 10
838.90060682109993
 20
210.9645385968
 30
0.0
 11
833.7006068211
 21
210.9645385968
 31
0.0
  0
ARC
  5
671
  8
┌▓È_1
 62
     5
 10
833.7006068211
 20
210.16453859680001
 30
0.0
 40
0.8
 50
90.0
 51
180.0
  0
LINE
  5
672
  8
┌▓È_1
 62
     5
 10
832.90060682110004
 20
210.16453859680001
 30
0.0
 11
832.90060682110004
 21
202.76453859680001
 31
0.0
  0
ARC
  5
673
  8
┌▓È_1
 62
     5
 10
833.7006068211
 20
202.76453859680001
 30
0.0
 40
0.8
 50
180.0
 51
270.0
  0
LINE
  5
674
  8
┌▓È_1
 62
     5
 10
881.90060682110015
 20
210.9645385968
 30
0.0
 11
881.90060682110015
 21
210.16453859680001
 31
0.0
  0
LINE
  5
675
  8
┌▓È_1
 62
     5
 10
887.10060682109997
 20
210.16453859680001
 30
0.0
 11
881.90060682110015
 21
210.16453859680001
 31
0.0
  0
LINE
  5
676
  8
┌▓È_1
 62
     5
 10
887.10060682109997
 20
197.76453859680001
 30
0.0
 11
887.10060682109997
 21
210.16453859680001
 31
0.0
  0
LINE
  5
677
  8
┌▓È_1
 62
     5
 10
858.7006068211
 20
197.76453859680001
 30
0.0
 11
887.10060682109997
 21
197.76453859680001
 31
0.0
  0
LINE
  5
678
  8
┌▓È_1
 62
     5
 10
833.7006068211
 20
201.9645385968
 30
0.0
 11
857.90060682110004
 21
201.9645385968
 31
0.0
  0
LINE
  5
679
  8
┌▓È_1
 62
     5
 10
833.7006068211
 20
202.76453859680001
 30
0.0
 11
857.90060682110004
 21
202.76453859680001
 31
0.0
  0
LINE
  5
67A
  8
┌▓È_1
 62
     5
 10
858.7006068211
 20
201.9645385968
 30
0.0
 11
858.7006068211
 21
197.76453859680001
 31
0.0
  0
ARC
  5
67B
  8
┌▓È_1
 62
     5
 10
857.90060682110004
 20
201.9645385968
 30
0.0
 40
0.8
 50
0.0
 51
90.0
  0
LINE
  5
67C
  8
┌▓È_1
 62
     5
 10
857.90060682110004
 20
201.9645385968
 30
0.0
 11
857.90060682110004
 21
197.76453859680001
 31
0.0
  0
ARC
  5
67D
  8
┌▓È_1
 62
     5
 10
858.7006068211
 20
197.76453859680001
 30
0.0
 40
0.8
 50
180.0
 51
270.0
  0
LINE
  5
67E
  8
┌▓È_1
 62
     5
 10
858.7006068211
 20
196.9645385968
 30
0.0
 11
887.10060682109997
 21
196.9645385968
 31
0.0
  0
ARC
  5
67F
  8
┌▓È_1
 62
     5
 10
887.10060682109997
 20
197.76453859680001
 30
0.0
 40
0.8
 50
270.0
 51
0.0
  0
LINE
  5
680
  8
┌▓È_1
 62
     5
 10
887.10060682109997
 20
210.9645385968
 30
0.0
 11
881.90060682110015
 21
210.9645385968
 31
0.0
  0
LINE
  5
681
  8
┌▓È_1
 62
     5
 10
887.90060682109993
 20
197.76453859680001
 30
0.0
 11
887.90060682109993
 21
210.16453859680001
 31
0.0
  0
ARC
  5
682
  8
┌▓È_1
 62
     5
 10
887.10060682109997
 20
210.16453859680001
 30
0.0
 40
0.8
 50
0.0
 51
90.0
  0
LINE
  5
683
  8
┌▓È_1
 62
     5
 10
839.60060682109986
 20
203.56453859679999
 30
0.0
 11
887.10060682109997
 21
203.56453859679999
 31
0.0
  0
LINE
  5
684
  8
┌▓È_1
 62
     5
 10
857.90060682110004
 20
202.76453859680001
 30
0.0
 11
887.10060682109997
 21
202.76453859680001
 31
0.0
  0
ENDBLK
  5
685
  8
0
  0
BLOCK
  8
0
  2
CLUMP81
 70
     0
 10
0.0
 20
0.0
 30
0.0
  3
CLUMP81
  1

  0
ARC
  5
69D
  8
┌▓È_1
 10
363.6271871367
 20
136.96436672179999
 30
0.0
 40
3.5
 50
90.0
 51
270.0
  0
LINE
  5
69E
  8
┌▓È_1
 10
378.6271871367
 20
140.46436672179999
 30
0.0
 11
363.6271871367
 21
140.46436672179999
 31
0.0
  0
LINE
  5
69F
  8
┌▓È_1
 10
363.6271871367
 20
133.46436672179999
 30
0.0
 11
378.6271871367
 21
133.46436672179999
 31
0.0
  0
ARC
  5
6A0
  8
┌▓È_1
 10
378.6271871367
 20
136.96436672179999
 30
0.0
 40
3.5
 50
270.0
 51
90.0
  0
ENDBLK
  5
6A1
  8
0
  0
BLOCK
  8
0
  2
CLUMP82
 70
     0
 10
0.0
 20
0.0
 30
0.0
  3
CLUMP82
  1

  0
INSERT
  5
6AD
  8
┌▓È_1
  2
CLUMP83
 10
0.0
 20
0.0
 30
0.0
  0
INSERT
  5
6B5
  8
┌▓È_1
  2
CLUMP84
 10
0.0
 20
0.0
 30
0.0
  0
INSERT
  5
6BD
  8
┌▓È_1
  2
CLUMP85
 10
0.0
 20
0.0
 30
0.0
  0
INSERT
  5
6C5
  8
┌▓È_1
  2
CLUMP86
 10
0.0
 20
0.0
 30
0.0
  0
ENDBLK
  5
6CC
  8
0
  0
BLOCK
  8
0
  2
CLUMP83
 70
     0
 10
0.0
 20
0.0
 30
0.0
  3
CLUMP83
  1

  0
ARC
  5
6AF
  8
┌▓È_1
 10
381.75527390970001
 20
-259.59144714429999
 30
0.0
 40
3.5
 50
90.0
 51
270.0
  0
LINE
  5
6B0
  8
┌▓È_1
 10
396.75527390970001
 20
-263.09144714429999
 30
0.0
 11
381.75527390970001
 21
-263.09144714429999
 31
0.0
  0
ARC
  5
6B1
  8
┌▓È_1
 10
396.75527390970001
 20
-259.59144714429999
 30
0.0
 40
3.5
 50
270.0
 51
90.0
  0
LINE
  5
6B2
  8
┌▓È_1
 10
381.75527390970001
 20
-256.09144714429999
 30
0.0
 11
396.75527390970001
 21
-256.09144714429999
 31
0.0
  0
ENDBLK
  5
6B3
  8
0
  0
BLOCK
  8
0
  2
CLUMP84
 70
     0
 10
0.0
 20
0.0
 30
0.0
  3
CLUMP84
  1

  0
ARC
  5
6B7
  8
┌▓È_1
 10
381.75527390970001
 20
-244.59144714429999
 30
0.0
 40
3.5
 50
90.0
 51
270.0
  0
LINE
  5
6B8
  8
┌▓È_1
 10
396.75527390970001
 20
-248.09144714429999
 30
0.0
 11
381.75527390970001
 21
-248.09144714429999
 31
0.0
  0
LINE
  5
6B9
  8
┌▓È_1
 10
381.75527390970001
 20
-241.09144714429999
 30
0.0
 11
396.75527390970001
 21
-241.09144714429999
 31
0.0
  0
ARC
  5
6BA
  8
┌▓È_1
 10
396.75527390970001
 20
-244.59144714429999
 30
0.0
 40
3.5
 50
270.0
 51
90.0
  0
ENDBLK
  5
6BB
  8
0
  0
BLOCK
  8
0
  2
CLUMP85
 70
     0
 10
0.0
 20
0.0
 30
0.0
  3
CLUMP85
  1

  0
ARC
  5
6BF
  8
┌▓È_1
 10
381.75527390970001
 20
-166.59144714429999
 30
0.0
 40
3.5
 50
90.0
 51
270.0
  0
LINE
  5
6C0
  8
┌▓È_1
 10
396.75527390970001
 20
-163.09144714429999
 30
0.0
 11
381.75527390970001
 21
-163.09144714429999
 31
0.0
  0
LINE
  5
6C1
  8
┌▓È_1
 10
381.75527390970001
 20
-170.09144714429999
 30
0.0
 11
396.75527390970001
 21
-170.09144714429999
 31
0.0
  0
ARC
  5
6C2
  8
┌▓È_1
 10
396.75527390970001
 20
-166.59144714429999
 30
0.0
 40
3.5
 50
270.0
 51
90.0
  0
ENDBLK
  5
6C3
  8
0
  0
BLOCK
  8
0
  2
CLUMP86
 70
     0
 10
0.0
 20
0.0
 30
0.0
  3
CLUMP86
  1

  0
ARC
  5
6C7
  8
┌▓È_1
 10
381.75527390970001
 20
-181.59144714429999
 30
0.0
 40
3.5
 50
90.0
 51
270.0
  0
LINE
  5
6C8
  8
┌▓È_1
 10
396.75527390970001
 20
-178.09144714429999
 30
0.0
 11
381.75527390970001
 21
-178.09144714429999
 31
0.0
  0
LINE
  5
6C9
  8
┌▓È_1
 10
381.75527390970001
 20
-185.09144714429999
 30
0.0
 11
396.75527390970001
 21
-185.09144714429999
 31
0.0
  0
ARC
  5
6CA
  8
┌▓È_1
 10
396.75527390970001
 20
-181.59144714429999
 30
0.0
 40
3.5
 50
270.0
 51
90.0
  0
ENDBLK
  5
6CB
  8
0
  0
BLOCK
  8
0
  2
CLUMP87
 70
     0
 10
0.0
 20
0.0
 30
0.0
  3
CLUMP87
  1

  0
INSERT
  5
6D1
  8
┌▓È_1
  2
CLUMP88
 10
0.0
 20
0.0
 30
0.0
  0
INSERT
  5
6D9
  8
┌▓È_1
  2
CLUMP89
 10
0.0
 20
0.0
 30
0.0
  0
INSERT
  5
6E1
  8
┌▓È_1
  2
CLUMP90
 10
0.0
 20
0.0
 30
0.0
  0
INSERT
  5
6E9
  8
┌▓È_1
  2
CLUMP91
 10
0.0
 20
0.0
 30
0.0
  0
ENDBLK
  5
6F0
  8
0
  0
BLOCK
  8
0
  2
CLUMP88
 70
     0
 10
0.0
 20
0.0
 30
0.0
  3
CLUMP88
  1

  0
ARC
  5
6D3
  8
┌▓È_1
 10
306.75527390970001
 20
-259.59144714429999
 30
0.0
 40
3.5
 50
90.0
 51
270.0
  0
LINE
  5
6D4
  8
┌▓È_1
 10
321.75527390970001
 20
-263.09144714429999
 30
0.0
 11
306.75527390970001
 21
-263.09144714429999
 31
0.0
  0
ARC
  5
6D5
  8
┌▓È_1
 10
321.75527390970001
 20
-259.59144714429999
 30
0.0
 40
3.5
 50
270.0
 51
90.0
  0
LINE
  5
6D6
  8
┌▓È_1
 10
306.75527390970001
 20
-256.09144714429999
 30
0.0
 11
321.75527390970001
 21
-256.09144714429999
 31
0.0
  0
ENDBLK
  5
6D7
  8
0
  0
BLOCK
  8
0
  2
CLUMP89
 70
     0
 10
0.0
 20
0.0
 30
0.0
  3
CLUMP89
  1

  0
ARC
  5
6DB
  8
┌▓È_1
 10
306.75527390970001
 20
-244.59144714429999
 30
0.0
 40
3.5
 50
90.0
 51
270.0
  0
LINE
  5
6DC
  8
┌▓È_1
 10
321.75527390970001
 20
-248.09144714429999
 30
0.0
 11
306.75527390970001
 21
-248.09144714429999
 31
0.0
  0
LINE
  5
6DD
  8
┌▓È_1
 10
306.75527390970001
 20
-241.09144714429999
 30
0.0
 11
321.75527390970001
 21
-241.09144714429999
 31
0.0
  0
ARC
  5
6DE
  8
┌▓È_1
 10
321.75527390970001
 20
-244.59144714429999
 30
0.0
 40
3.5
 50
270.0
 51
90.0
  0
ENDBLK
  5
6DF
  8
0
  0
BLOCK
  8
0
  2
CLUMP90
 70
     0
 10
0.0
 20
0.0
 30
0.0
  3
CLUMP90
  1

  0
ARC
  5
6E3
  8
┌▓È_1
 10
306.75527390970001
 20
-166.59144714429999
 30
0.0
 40
3.5
 50
90.0
 51
270.0
  0
LINE
  5
6E4
  8
┌▓È_1
 10
321.75527390970001
 20
-163.09144714429999
 30
0.0
 11
306.75527390970001
 21
-163.09144714429999
 31
0.0
  0
LINE
  5
6E5
  8
┌▓È_1
 10
306.75527390970001
 20
-170.09144714429999
 30
0.0
 11
321.75527390970001
 21
-170.09144714429999
 31
0.0
  0
ARC
  5
6E6
  8
┌▓È_1
 10
321.75527390970001
 20
-166.59144714429999
 30
0.0
 40
3.5
 50
270.0
 51
90.0
  0
ENDBLK
  5
6E7
  8
0
  0
BLOCK
  8
0
  2
CLUMP91
 70
     0
 10
0.0
 20
0.0
 30
0.0
  3
CLUMP91
  1

  0
ARC
  5
6EB
  8
┌▓È_1
 10
306.75527390970001
 20
-181.59144714429999
 30
0.0
 40
3.5
 50
90.0
 51
270.0
  0
LINE
  5
6EC
  8
┌▓È_1
 10
321.75527390970001
 20
-178.09144714429999
 30
0.0
 11
306.75527390970001
 21
-178.09144714429999
 31
0.0
  0
LINE
  5
6ED
  8
┌▓È_1
 10
306.75527390970001
 20
-185.09144714429999
 30
0.0
 11
321.75527390970001
 21
-185.09144714429999
 31
0.0
  0
ARC
  5
6EE
  8
┌▓È_1
 10
321.75527390970001
 20
-181.59144714429999
 30
0.0
 40
3.5
 50
270.0
 51
90.0
  0
ENDBLK
  5
6EF
  8
0
  0
BLOCK
  8
0
  2
CLUMP92
 70
     0
 10
0.0
 20
0.0
 30
0.0
  3
CLUMP92
  1

  0
ARC
  5
6F5
  8
┌▓È_1
 10
-11.3728128633
 20
136.96436672179999
 30
0.0
 40
3.5
 50
90.0
 51
270.0
  0
LINE
  5
6F6
  8
┌▓È_1
 10
3.6271871366999999
 20
140.46436672179999
 30
0.0
 11
-11.3728128633
 21
140.46436672179999
 31
0.0
  0
LINE
  5
6F7
  8
┌▓È_1
 10
-11.3728128633
 20
133.46436672179999
 30
0.0
 11
3.6271871366999999
 21
133.46436672179999
 31
0.0
  0
ARC
  5
6F8
  8
┌▓È_1
 10
3.6271871366999999
 20
136.96436672179999
 30
0.0
 40
3.5
 50
270.0
 51
90.0
  0
ENDBLK
  5
6F9
  8
0
  0
BLOCK
  8
0
  2
CLUMP93
 70
     0
 10
0.0
 20
0.0
 30
0.0
  3
CLUMP93
  1

  0
ARC
  5
728
  8
┌▓È_1
 10
344.25527390970001
 20
-213.09144714429999
 30
0.0
 40
3.5
 50
90.0
 51
270.0
  0
LINE
  5
729
  8
┌▓È_1
 10
359.25527390970001
 20
-209.59144714429999
 30
0.0
 11
344.25527390970001
 21
-209.59144714429999
 31
0.0
  0
LINE
  5
72A
  8
┌▓È_1
 10
344.25527390970001
 20
-216.59144714429999
 30
0.0
 11
359.25527390970001
 21
-216.59144714429999
 31
0.0
  0
ARC
  5
72B
  8
┌▓È_1
 10
359.25527390970001
 20
-213.09144714429999
 30
0.0
 40
3.5
 50
270.0
 51
90.0
  0
ENDBLK
  5
72C
  8
0
  0
BLOCK
  8
0
  2
CLUMP94
 70
     0
 10
0.0
 20
0.0
 30
0.0
  3
CLUMP94
  1

  0
INSERT
  5
738
  8
┌▓È_1
  2
CLUMP95
 10
0.0
 20
0.0
 30
0.0
  0
INSERT
  5
740
  8
┌▓È_1
  2
CLUMP96
 10
0.0
 20
0.0
 30
0.0
  0
INSERT
  5
748
  8
┌▓È_1
  2
CLUMP97
 10
0.0
 20
0.0
 30
0.0
  0
INSERT
  5
750
  8
┌▓È_1
  2
CLUMP98
 10
0.0
 20
0.0
 30
0.0
  0
ENDBLK
  5
757
  8
0
  0
BLOCK
  8
0
  2
CLUMP95
 70
     0
 10
0.0
 20
0.0
 30
0.0
  3
CLUMP95
  1

  0
ARC
  5
73A
  8
┌▓È_1
 10
401.12718713669989
 20
90.464366721800005
 30
0.0
 40
3.5
 50
90.0
 51
270.0
  0
LINE
  5
73B
  8
┌▓È_1
 10
416.1271871367
 20
86.964366721800005
 30
0.0
 11
401.12718713669989
 21
86.964366721800005
 31
0.0
  0
ARC
  5
73C
  8
┌▓È_1
 10
416.1271871367
 20
90.464366721800005
 30
0.0
 40
3.5
 50
270.0
 51
90.0
  0
LINE
  5
73D
  8
┌▓È_1
 10
401.12718713669989
 20
93.964366721800005
 30
0.0
 11
416.1271871367
 21
93.964366721800005
 31
0.0
  0
ENDBLK
  5
73E
  8
0
  0
BLOCK
  8
0
  2
CLUMP96
 70
     0
 10
0.0
 20
0.0
 30
0.0
  3
CLUMP96
  1

  0
ARC
  5
742
  8
┌▓È_1
 10
401.12718713669989
 20
105.4643667218
 30
0.0
 40
3.5
 50
90.0
 51
270.0
  0
LINE
  5
743
  8
┌▓È_1
 10
416.1271871367
 20
101.9643667218
 30
0.0
 11
401.12718713669989
 21
101.9643667218
 31
0.0
  0
LINE
  5
744
  8
┌▓È_1
 10
401.12718713669989
 20
108.9643667218
 30
0.0
 11
416.1271871367
 21
108.9643667218
 31
0.0
  0
ARC
  5
745
  8
┌▓È_1
 10
416.1271871367
 20
105.4643667218
 30
0.0
 40
3.5
 50
270.0
 51
90.0
  0
ENDBLK
  5
746
  8
0
  0
BLOCK
  8
0
  2
CLUMP97
 70
     0
 10
0.0
 20
0.0
 30
0.0
  3
CLUMP97
  1

  0
ARC
  5
74A
  8
┌▓È_1
 10
401.12718713669989
 20
183.46436672179999
 30
0.0
 40
3.5
 50
90.0
 51
270.0
  0
LINE
  5
74B
  8
┌▓È_1
 10
416.1271871367
 20
186.96436672179999
 30
0.0
 11
401.12718713669989
 21
186.96436672179999
 31
0.0
  0
LINE
  5
74C
  8
┌▓È_1
 10
401.12718713669989
 20
179.96436672179999
 30
0.0
 11
416.1271871367
 21
179.96436672179999
 31
0.0
  0
ARC
  5
74D
  8
┌▓È_1
 10
416.1271871367
 20
183.46436672179999
 30
0.0
 40
3.5
 50
270.0
 51
90.0
  0
ENDBLK
  5
74E
  8
0
  0
BLOCK
  8
0
  2
CLUMP98
 70
     0
 10
0.0
 20
0.0
 30
0.0
  3
CLUMP98
  1

  0
ARC
  5
752
  8
┌▓È_1
 10
401.12718713669989
 20
168.46436672179999
 30
0.0
 40
3.5
 50
90.0
 51
270.0
  0
LINE
  5
753
  8
┌▓È_1
 10
416.1271871367
 20
171.96436672179999
 30
0.0
 11
401.12718713669989
 21
171.96436672179999
 31
0.0
  0
LINE
  5
754
  8
┌▓È_1
 10
401.12718713669989
 20
164.96436672179999
 30
0.0
 11
416.1271871367
 21
164.96436672179999
 31
0.0
  0
ARC
  5
755
  8
┌▓È_1
 10
416.1271871367
 20
168.46436672179999
 30
0.0
 40
3.5
 50
270.0
 51
90.0
  0
ENDBLK
  5
756
  8
0
  0
BLOCK
  8
0
  2
CLUMP99
 70
     0
 10
0.0
 20
0.0
 30
0.0
  3
CLUMP99
  1

  0
INSERT
  5
75C
  8
┌▓È_1
  2
CLUMP100
 10
0.0
 20
0.0
 30
0.0
  0
INSERT
  5
764
  8
┌▓È_1
  2
CLUMP101
 10
0.0
 20
0.0
 30
0.0
  0
INSERT
  5
76C
  8
┌▓È_1
  2
CLUMP102
 10
0.0
 20
0.0
 30
0.0
  0
INSERT
  5
774
  8
┌▓È_1
  2
CLUMP103
 10
0.0
 20
0.0
 30
0.0
  0
ENDBLK
  5
77B
  8
0
  0
BLOCK
  8
0
  2
CLUMP100
 70
     0
 10
0.0
 20
0.0
 30
0.0
  3
CLUMP100
  1

  0
ARC
  5
75E
  8
┌▓È_1
 10
326.1271871367
 20
90.464366721800005
 30
0.0
 40
3.5
 50
90.0
 51
270.0
  0
LINE
  5
75F
  8
┌▓È_1
 10
341.1271871367
 20
86.964366721800005
 30
0.0
 11
326.1271871367
 21
86.964366721800005
 31
0.0
  0
ARC
  5
760
  8
┌▓È_1
 10
341.1271871367
 20
90.464366721800005
 30
0.0
 40
3.5
 50
270.0
 51
90.0
  0
LINE
  5
761
  8
┌▓È_1
 10
326.1271871367
 20
93.964366721800005
 30
0.0
 11
341.1271871367
 21
93.964366721800005
 31
0.0
  0
ENDBLK
  5
762
  8
0
  0
BLOCK
  8
0
  2
CLUMP101
 70
     0
 10
0.0
 20
0.0
 30
0.0
  3
CLUMP101
  1

  0
ARC
  5
766
  8
┌▓È_1
 10
326.1271871367
 20
105.4643667218
 30
0.0
 40
3.5
 50
90.0
 51
270.0
  0
LINE
  5
767
  8
┌▓È_1
 10
341.1271871367
 20
101.9643667218
 30
0.0
 11
326.1271871367
 21
101.9643667218
 31
0.0
  0
LINE
  5
768
  8
┌▓È_1
 10
326.1271871367
 20
108.9643667218
 30
0.0
 11
341.1271871367
 21
108.9643667218
 31
0.0
  0
ARC
  5
769
  8
┌▓È_1
 10
341.1271871367
 20
105.4643667218
 30
0.0
 40
3.5
 50
270.0
 51
90.0
  0
ENDBLK
  5
76A
  8
0
  0
BLOCK
  8
0
  2
CLUMP102
 70
     0
 10
0.0
 20
0.0
 30
0.0
  3
CLUMP102
  1

  0
ARC
  5
76E
  8
┌▓È_1
 10
326.1271871367
 20
183.46436672179999
 30
0.0
 40
3.5
 50
90.0
 51
270.0
  0
LINE
  5
76F
  8
┌▓È_1
 10
341.1271871367
 20
186.96436672179999
 30
0.0
 11
326.1271871367
 21
186.96436672179999
 31
0.0
  0
LINE
  5
770
  8
┌▓È_1
 10
326.1271871367
 20
179.96436672179999
 30
0.0
 11
341.1271871367
 21
179.96436672179999
 31
0.0
  0
ARC
  5
771
  8
┌▓È_1
 10
341.1271871367
 20
183.46436672179999
 30
0.0
 40
3.5
 50
270.0
 51
90.0
  0
ENDBLK
  5
772
  8
0
  0
BLOCK
  8
0
  2
CLUMP103
 70
     0
 10
0.0
 20
0.0
 30
0.0
  3
CLUMP103
  1

  0
ARC
  5
776
  8
┌▓È_1
 10
326.1271871367
 20
168.46436672179999
 30
0.0
 40
3.5
 50
90.0
 51
270.0
  0
LINE
  5
777
  8
┌▓È_1
 10
341.1271871367
 20
171.96436672179999
 30
0.0
 11
326.1271871367
 21
171.96436672179999
 31
0.0
  0
LINE
  5
778
  8
┌▓È_1
 10
326.1271871367
 20
164.96436672179999
 30
0.0
 11
341.1271871367
 21
164.96436672179999
 31
0.0
  0
ARC
  5
779
  8
┌▓È_1
 10
341.1271871367
 20
168.46436672179999
 30
0.0
 40
3.5
 50
270.0
 51
90.0
  0
ENDBLK
  5
77A
  8
0
  0
BLOCK
  8
0
  2
CLUMP104
 70
     0
 10
0.0
 20
0.0
 30
0.0
  3
CLUMP104
  1

  0
ARC
  5
77F
  8
┌▓È_1
 10
465.32764229259999
 20
103.9645385968
 30
0.0
 40
3.5
 50
90.0
 51
270.0
  0
LINE
  5
780
  8
┌▓È_1
 10
480.32764229259999
 20
107.4645385968
 30
0.0
 11
465.32764229259999
 21
107.4645385968
 31
0.0
  0
LINE
  5
781
  8
┌▓È_1
 10
465.32764229259999
 20
100.4645385968
 30
0.0
 11
480.32764229259999
 21
100.4645385968
 31
0.0
  0
ARC
  5
782
  8
┌▓È_1
 10
480.32764229259999
 20
103.9645385968
 30
0.0
 40
3.5
 50
270.0
 51
90.0
  0
ARC
  5
783
  8
┌▓È_1
 10
465.32764229259999
 20
90.964538596799997
 30
0.0
 40
3.5
 50
90.0
 51
270.0
  0
LINE
  5
784
  8
┌▓È_1
 10
480.32764229259999
 20
94.464538596799997
 30
0.0
 11
465.32764229259999
 21
94.464538596799997
 31
0.0
  0
LINE
  5
785
  8
┌▓È_1
 10
465.32764229259999
 20
87.464538596799997
 30
0.0
 11
480.32764229259999
 21
87.464538596799997
 31
0.0
  0
ARC
  5
786
  8
┌▓È_1
 10
480.32764229259999
 20
90.964538596799997
 30
0.0
 40
3.5
 50
270.0
 51
90.0
  0
ENDBLK
  5
787
  8
0
  0
BLOCK
  8
0
  2
CLUMP105
 70
     0
 10
0.0
 20
0.0
 30
0.0
  3
CLUMP105
  1

  0
ARC
  5
78C
  8
┌▓È_1
 10
606.32687145930004
 20
103.9645385968
 30
0.0
 40
3.5
 50
270.0
 51
90.0
  0
LINE
  5
78D
  8
┌▓È_1
 10
591.32687145930004
 20
107.4645385968
 30
0.0
 11
606.32687145930004
 21
107.4645385968
 31
0.0
  0
LINE
  5
78E
  8
┌▓È_1
 10
606.32687145930004
 20
100.4645385968
 30
0.0
 11
591.32687145930004
 21
100.4645385968
 31
0.0
  0
ARC
  5
78F
  8
┌▓È_1
 10
591.32687145930004
 20
103.9645385968
 30
0.0
 40
3.5
 50
90.0
 51
270.0
  0
ARC
  5
790
  8
┌▓È_1
 10
606.32687145930004
 20
90.964538596799997
 30
0.0
 40
3.5
 50
270.0
 51
90.0
  0
LINE
  5
791
  8
┌▓È_1
 10
591.32687145930004
 20
94.464538596799997
 30
0.0
 11
606.32687145930004
 21
94.464538596799997
 31
0.0
  0
LINE
  5
792
  8
┌▓È_1
 10
606.32687145930004
 20
87.464538596799997
 30
0.0
 11
591.32687145930004
 21
87.464538596799997
 31
0.0
  0
ARC
  5
793
  8
┌▓È_1
 10
591.32687145930004
 20
90.964538596799997
 30
0.0
 40
3.5
 50
90.0
 51
270.0
  0
ENDBLK
  5
794
  8
0
  0
BLOCK
  8
0
  2
CLUMP106
 70
     0
 10
0.0
 20
0.0
 30
0.0
  3
CLUMP106
  1

  0
LINE
  5
7A0
  8
┌▓È_1
 62
     5
 10
738.57340103470005
 20
72.464538596799997
 30
0.0
 11
750.57340067839993
 21
72.464538596799997
 31
0.0
  0
ARC
  5
7A1
  8
┌▓È_1
 62
     5
 10
738.57340067839993
 20
74.464538596799997
 30
0.0
 40
2.0
 50
180.0
 51
270.00001020809998
  0
LINE
  5
7A2
  8
┌▓È_1
 62
     5
 10
738.57340067839993
 20
74.464538596799997
 30
0.0
 11
750.57340067839993
 21
74.464538596799997
 31
0.0
  0
LINE
  5
7A3
  8
┌▓È_1
 62
     5
 10
738.57340067839993
 20
74.464538596799997
 30
0.0
 11
738.57340067839993
 21
199.4645385968
 31
0.0
  0
LINE
  5
7A4
  8
┌▓È_1
 62
     5
 10
750.57340067839993
 20
72.464538596799997
 30
0.0
 11
750.57340067839993
 21
201.4645385968
 31
0.0
  0
LINE
  5
7A5
  8
┌▓È_1
 62
     5
 10
738.57340067839993
 20
201.4645385968
 30
0.0
 11
750.57340067839993
 21
201.4645385968
 31
0.0
  0
LINE
  5
7A6
  8
┌▓È_1
 62
     5
 10
736.57340067839993
 20
199.46453724739999
 30
0.0
 11
736.57340067839993
 21
74.464538596799997
 31
0.0
  0
ARC
  5
7A7
  8
┌▓È_1
 62
     5
 10
738.57340067839993
 20
199.4645385968
 30
0.0
 40
2.0
 50
90.0
 51
180.0000386554
  0
LINE
  5
7A8
  8
┌▓È_1
 62
     5
 10
738.57340067839993
 20
199.4645385968
 30
0.0
 11
750.57340067839993
 21
199.4645385968
 31
0.0
  0
ENDBLK
  5
7A9
  8
0
  0
BLOCK
  8
0
  2
*U155
 70
     1
 10
0.0
 20
0.0
 30
0.0
  3
*U155
  1

  0
TEXT
  5
7E2
  8
É}ÿg
  6
CONTINUOUS
 10
859.73068304599678
 20
-491.84608326529991
 30
0.0
 40
11.694583225300001
  1
SHF00036
  0
ENDBLK
  5
7E4
  8
0
  0
BLOCK
  8
0
  2
*U156
 70
     1
 10
0.0
 20
0.0
 30
0.0
  3
*U156
  1

  0
TEXT
  5
7E6
  8
É}ÿg
  6
CONTINUOUS
 10
849.60922903628295
 20
-459.43971693155879
 30
0.0
 40
11.694583225300001
  1
FM15-120(D)
  0
ENDBLK
  5
7E8
  8
0
  0
BLOCK
  8
0
  2
*U157
 70
     1
 10
0.0
 20
0.0
 30
0.0
  3
*U157
  1

  0
TEXT
  5
7EA
  8
É}ÿg
  6
CONTINUOUS
 10
800.99063176968036
 20
-426.43971693155879
 30
0.0
 40
11.694583225300001
  1
ânâCéãü[éÚ(É¾î^ üEÉ[î^ )
  0
ENDBLK
  5
7EC
  8
0
  0
BLOCK
  8
0
  2
*U158
 70
     1
 10
0.0
 20
0.0
 30
0.0
  3
*U158
  1

  0
TEXT
  5
7EE
  8
┌▓È_1
  6
CONTINUOUS
 10
-205.05514869116649
 20
22.0701766426
 30
0.0
 40
9.8954164504999991
  1
2
  0
ENDBLK
  5
7F0
  8
0
  0
BLOCK
  8
0
  2
*U159
 70
     1
 10
0.0
 20
0.0
 30
0.0
  3
*U159
  1

  0
TEXT
  5
7F2
  8
┌▓È_1
  6
CONTINUOUS
 10
-114.97335703743801
 20
22.0701766426
 30
0.0
 40
9.8954164504999991
  1
1
  0
ENDBLK
  5
7F4
  8
0
  0
BLOCK
  8
0
  2
*U160
 70
     1
 10
0.0
 20
0.0
 30
0.0
  3
*U160
  1

  0
TEXT
  5
7F6
  8
É}ÿg
  6
CONTINUOUS
 10
755.97261477766358
 20
-355.20483310309999
 30
0.0
 40
8.9958330630999992
  1
SUS304 0.8t
  0
ENDBLK
  5
7F8
  8
0
  0
BLOCK
  8
0
  2
*U161
 70
     1
 10
0.0
 20
0.0
 30
0.0
  3
*U161
  1

  0
TEXT
  5
7FA
  8
É}ÿg
  6
CONTINUOUS
 10
867.62916001009683
 20
-355.20483310309999
 30
0.0
 40
8.9958330630999992
  1
2
  0
ENDBLK
  5
7FC
  8
0
  0
BLOCK
  8
0
  2
*U162
 70
     1
 10
0.0
 20
0.0
 30
0.0
  3
*U162
  1

  0
TEXT
  5
7FE
  8
É}ÿg
  6
CONTINUOUS
 10
622.29270753025537
 20
-340.66147437533863
 30
0.0
 40
8.9958330630999992
  1
èW(û┌ÄM)
  0
ENDBLK
  5
800
  8
0
  0
BLOCK
  8
0
  2
*U163
 70
     1
 10
0.0
 20
0.0
 30
0.0
  3
*U163
  1

  0
TEXT
  5
802
  8
É}ÿg
  6
CONTINUOUS
 10
755.97261477766358
 20
-340.20483310309999
 30
0.0
 40
8.9958330630999992
  1
SUS304 2.0t
  0
ENDBLK
  5
804
  8
0
  0
BLOCK
  8
0
  2
*U164
 70
     1
 10
0.0
 20
0.0
 30
0.0
  3
*U164
  1

  0
TEXT
  5
806
  8
É}ÿg
  6
CONTINUOUS
 10
867.62916001009683
 20
-340.20483310309999
 30
0.0
 40
8.9958330630999992
  1
2
  0
ENDBLK
  5
808
  8
0
  0
BLOCK
  8
0
  2
*U165
 70
     1
 10
0.0
 20
0.0
 30
0.0
  3
*U165
  1

  0
TEXT
  5
80A
  8
É}ÿg
  6
CONTINUOUS
 10
805.79891300555335
 20
325.74677293041219
 30
0.0
 40
8.0962498784000001
  1
ë³ü@Æ¨ü@ôÓü@ùe
  0
ENDBLK
  5
80C
  8
0
  0
BLOCK
  8
0
  2
*U166
 70
     1
 10
0.0
 20
0.0
 30
0.0
  3
*U166
  1

  0
TEXT
  5
80E
  8
É}ÿg
  6
CONTINUOUS
 10
727.57380799809744
 20
325.82896836064981
 30
0.0
 40
8.0962498784000001
  1
ë³Æ¨ô·
  0
ENDBLK
  5
810
  8
0
  0
BLOCK
  8
0
  2
*U167
 70
     1
 10
0.0
 20
0.0
 30
0.0
  3
*U167
  1

  0
TEXT
  5
812
  8
É}ÿg
  6
CONTINUOUS
 10
696.87541324842016
 20
325.91116379088731
 30
0.0
 40
8.0962498784000001
  1
òøöÈ
  0
ENDBLK
  5
814
  8
0
  0
BLOCK
  8
0
  2
*U168
 70
     1
 10
0.0
 20
0.0
 30
0.0
  3
*U168
  1

  0
TEXT
  5
816
  8
É}ÿg
  6
CONTINUOUS
 10
558.32551083559997
 20
-494.07314952941317
 30
0.0
 40
16.1924997568
  1
èöÄ«ë´Äð
  0
ENDBLK
  5
818
  8
0
  0
BLOCK
  8
0
  2
*U169
 70
     1
 10
0.0
 20
0.0
 30
0.0
  3
*U169
  1

  0
TEXT
  5
81A
  8
É}ÿg
  6
CONTINUOUS
 10
946.88204086148835
 20
325.70567521529341
 30
0.0
 40
8.0962498784000001
  1
îƒöFÄÊ
  0
ENDBLK
  5
81C
  8
0
  0
BLOCK
  8
0
  2
*U170
 70
     1
 10
0.0
 20
0.0
 30
0.0
  3
*U170
  1

  0
TEXT
  5
81E
  8
É}ÿg
  6
CONTINUOUS
 10
771.10127328553517
 20
-481.07081786644312
 30
0.0
 40
8.9958330630999992
  1
É} öÈ
  0
ENDBLK
  5
820
  8
0
  0
BLOCK
  8
0
  2
*U171
 70
     1
 10
0.0
 20
0.0
 30
0.0
  3
*U171
  1

  0
TEXT
  5
822
  8
É}ÿg
  6
CONTINUOUS
 10
767.97328057070104
 20
-415.25347437533861
 30
0.0
 40
8.9958330630999992
  1
É╗òiû╝
  0
ENDBLK
  5
824
  8
0
  0
BLOCK
  8
0
  2
*U172
 70
     1
 10
0.0
 20
0.0
 30
0.0
  3
*U172
  1

  0
TEXT
  5
826
  8
É}ÿg
  6
CONTINUOUS
 10
768.22443327043231
 20
-448.16214612089078
 30
0.0
 40
8.9958330630999992
  1
É}û╩û╝
  0
ENDBLK
  5
828
  8
0
  0
BLOCK
  8
0
  2
*U173
 70
     1
 10
0.0
 20
0.0
 30
0.0
  3
*U173
  1

  0
TEXT
  5
82A
  8
É}ÿg
  6
CONTINUOUS
 10
557.61005102136005
 20
-416.2083999810954
 30
0.0
 40
8.9958330630999992
  1
ô·ü@ü@òt
  0
ENDBLK
  5
82C
  8
0
  0
BLOCK
  8
0
  2
*U174
 70
     1
 10
0.0
 20
0.0
 30
0.0
  3
*U174
  1

  0
TEXT
  5
82E
  8
É}ÿg
  6
CONTINUOUS
 10
631.65110434965902
 20
-416.48238474443849
 30
0.0
 40
8.9958330630999992
  1
Ä┌ü@ü@ôx
  0
ENDBLK
  5
830
  8
0
  0
BLOCK
  8
0
  2
*U175
 70
     1
 10
0.0
 20
0.0
 30
0.0
  3
*U175
  1

  0
TEXT
  5
832
  8
É}ÿg
  6
CONTINUOUS
 10
917.00533400684469
 20
325.74677293041219
 30
0.0
 40
8.0962498784000001
  1
ë³Æ¨ÄÊ
  0
ENDBLK
  5
834
  8
0
  0
BLOCK
  8
0
  2
*U176
 70
     1
 10
0.0
 20
0.0
 30
0.0
  3
*U176
  1

  0
TEXT
  5
836
  8
É}ÿg
  6
CONTINUOUS
 10
544.54660949147387
 20
-385.47881786644308
 30
0.0
 40
8.9958330630999992
  1
òiöÈ
  0
ENDBLK
  5
838
  8
0
  0
BLOCK
  8
0
  2
*U177
 70
     1
 10
0.0
 20
0.0
 30
0.0
  3
*U177
  1

  0
TEXT
  5
83A
  8
É}ÿg
  6
CONTINUOUS
 10
542.00600002519991
 20
-465.9823847444386
 30
0.0
 40
8.9958330630999992
  1
 É╗É}
  0
ENDBLK
  5
83C
  8
0
  0
BLOCK
  8
0
  2
*U178
 70
     1
 10
0.0
 20
0.0
 30
0.0
  3
*U178
  1

  0
TEXT
  5
83E
  8
É}ÿg
  6
CONTINUOUS
 10
542.00600002519991
 20
-449.39105648999077
 30
0.0
 40
8.9958330630999992
  1
 É¦îv
  0
ENDBLK
  5
840
  8
0
  0
BLOCK
  8
0
  2
*U179
 70
     1
 10
0.0
 20
0.0
 30
0.0
  3
*U179
  1

  0
TEXT
  5
842
  8
É}ÿg
  6
CONTINUOUS
 10
654.50600002519991
 20
-466.02804887166241
 30
0.0
 40
8.9958330630999992
  1
 îƒÉ}
  0
ENDBLK
  5
844
  8
0
  0
BLOCK
  8
0
  2
*U180
 70
     1
 10
0.0
 20
0.0
 30
0.0
  3
*U180
  1

  0
TEXT
  5
846
  8
É}ÿg
  6
CONTINUOUS
 10
654.50600002519991
 20
-449.43672061721469
 30
0.0
 40
8.9958330630999992
  1
 Åãì©
  0
ENDBLK
  5
848
  8
0
  0
BLOCK
  8
0
  2
*U181
 70
     1
 10
0.0
 20
0.0
 30
0.0
  3
*U181
  1

  0
TEXT
  5
84A
  8
É}ÿg
  6
CONTINUOUS
 10
859.24979266451896
 20
-385.66147437533863
 30
0.0
 40
8.9958330630999992
  1
Éöù╩
  0
ENDBLK
  5
84C
  8
0
  0
BLOCK
  8
0
  2
*U182
 70
     1
 10
0.0
 20
0.0
 30
0.0
  3
*U182
  1

  0
TEXT
  5
84E
  8
É}ÿg
  6
CONTINUOUS
 10
902.78787480031815
 20
-385.7984667570102
 30
0.0
 40
8.9958330630999992
  1
ö§ü@ü@ü@ìl
  0
ENDBLK
  5
850
  8
0
  0
BLOCK
  8
0
  2
*U183
 70
     1
 10
0.0
 20
0.0
 30
0.0
  3
*U183
  1

  0
TEXT
  5
852
  8
É}ÿg
  6
CONTINUOUS
 10
759.21476781055765
 20
-385.524481993667
 30
0.0
 40
8.9958330630999992
  1
ìÌü@ü@ü@Ä┐
  0
ENDBLK
  5
854
  8
0
  0
BLOCK
  8
0
  2
*U184
 70
     1
 10
0.0
 20
0.0
 30
0.0
  3
*U184
  1

  0
TEXT
  5
856
  8
É}ÿg
  6
CONTINUOUS
 10
615.55724876473641
 20
-385.57014612089091
 30
0.0
 40
8.9958330630999992
  1
òiü@ü@ü@û╝
  0
ENDBLK
  5
858
  8
0
  0
BLOCK
  8
0
  2
*U185
 70
     1
 10
0.0
 20
0.0
 30
0.0
  3
*U185
  1

  0
TEXT
  5
85A
  8
É}ÿg
  6
CONTINUOUS
 10
596.63425771571565
 20
-466.02804887166241
 30
0.0
 40
8.9958330630999992
  1
öÆÉ{ëÛ
  0
ENDBLK
  5
85C
  8
0
  0
BLOCK
  8
0
  2
*U186
 70
     1
 10
0.0
 20
0.0
 30
0.0
  3
*U186
  1

  0
TEXT
  5
85E
  8
É}ÿg
  6
CONTINUOUS
 10
596.63425771571565
 20
-449.52804887166241
 30
0.0
 40
8.9958330630999992
  1
öÆÉ{ëÛ
  0
ENDBLK
  5
860
  8
0
  0
BLOCK
  8
0
  2
*U187
 70
     1
 10
0.0
 20
0.0
 30
0.0
  3
*U187
  1

  0
TEXT
  5
862
  8
É}ÿg
  6
CONTINUOUS
 10
711.60012058580412
 20
-465.9823847444386
 30
0.0
 40
8.9958330630999992
  1
û÷ î┤
  0
ENDBLK
  5
864
  8
0
  0
BLOCK
  8
0
  2
*U188
 70
     1
 10
0.0
 20
0.0
 30
0.0
  3
*U188
  1

  0
TEXT
  5
866
  8
É}ÿg
  6
CONTINUOUS
 10
711.60012058580412
 20
-449.4823847444386
 30
0.0
 40
8.9958330630999992
  1
û÷ î┤
  0
ENDBLK
  5
868
  8
0
  0
BLOCK
  8
0
  2
*U189
 70
     1
 10
0.0
 20
0.0
 30
0.0
  3
*U189
  1

  0
TEXT
  5
86A
  8
É}ÿg
  6
CONTINUOUS
 10
562.08513548929807
 20
-432.54724550330002
 30
0.0
 40
8.9958330630999992
  1
H09.07
  0
ENDBLK
  5
86C
  8
0
  0
BLOCK
  8
0
  2
*U190
 70
     1
 10
0.0
 20
0.0
 30
0.0
  3
*U190
  1

  0
TEXT
  5
86E
  8
É}ÿg
  6
CONTINUOUS
 10
552.62916001009683
 20
-355.20483310309999
 30
0.0
 40
8.9958330630999992
  1
2
  0
ENDBLK
  5
870
  8
0
  0
BLOCK
  8
0
  2
*U191
 70
     1
 10
0.0
 20
0.0
 30
0.0
  3
*U191
  1

  0
TEXT
  5
872
  8
É}ÿg
  6
CONTINUOUS
 10
553.15429747317125
 20
-370.20483310309999
 30
0.0
 40
8.9958330630999992
  1
1
  0
ENDBLK
  5
874
  8
0
  0
BLOCK
  8
0
  2
*U192
 70
     1
 10
0.0
 20
0.0
 30
0.0
  3
*U192
  1

  0
TEXT
  5
876
  8
É}ÿg
  6
CONTINUOUS
 10
867.62916001009683
 20
-370.20483310309999
 30
0.0
 40
8.9958330630999992
  1
2
  0
ENDBLK
  5
878
  8
0
  0
BLOCK
  8
0
  2
*U193
 70
     1
 10
0.0
 20
0.0
 30
0.0
  3
*U193
  1

  0
TEXT
  5
87A
  8
É}ÿg
  6
CONTINUOUS
 10
552.67482413732068
 20
-340.20483310309999
 30
0.0
 40
8.9958330630999992
  1
3
  0
ENDBLK
  5
87C
  8
0
  0
BLOCK
  8
0
  2
*U194
 70
     1
 10
0.0
 20
0.0
 30
0.0
  3
*U194
  1

  0
TEXT
  5
87E
  8
ë³Æ¨
  6
CONTINUOUS
 10
922.84120955371156
 20
311.1577500816
 30
0.0
 40
8.0962498784000001
  1
üûüû
  0
ENDBLK
  5
880
  8
0
  0
BLOCK
  8
0
  2
*U195
 70
     1
 10
0.0
 20
0.0
 30
0.0
  3
*U195
  1

  0
TEXT
  5
882
  8
ë³Æ¨
  6
CONTINUOUS
 10
784.1404171379553
 20
311.16525008159999
 30
0.0
 40
8.0962498784000001
  1
**********************
  0
ENDBLK
  5
884
  8
0
  0
BLOCK
  8
0
  2
*U196
 70
     1
 10
0.0
 20
0.0
 30
0.0
  3
*U196
  1

  0
TEXT
  5
886
  8
ë³Æ¨
  6
CONTINUOUS
 10
704.03661153213034
 20
309.34457327979999
 30
0.0
 40
8.0962499027000003
  1
1
  0
ENDBLK
  5
888
  8
0
  0
BLOCK
  8
0
  2
*U197
 70
     1
 10
0.0
 20
0.0
 30
0.0
  3
*U197
  1

  0
TEXT
  5
88A
  8
ë³Æ¨
  6
CONTINUOUS
 10
719.18987411386604
 20
311.1577500816
 30
0.0
 40
8.0962498784000001
  1
H**.**.**
  0
ENDBLK
  5
88C
  8
0
  0
BLOCK
  8
0
  2
*U198
 70
     1
 10
0.0
 20
0.0
 30
0.0
  3
*U198
  1

  0
TEXT
  5
88E
  8
É}ÿg
  6
CONTINUOUS
 10
640.4642809038636
 20
-433.04955090276241
 30
0.0
 40
8.9958330630999992
  1
ù¬ Ä┌
  0
ENDBLK
  5
890
  8
0
  0
BLOCK
  8
0
  2
*U199
 70
     1
 10
0.0
 20
0.0
 30
0.0
  3
*U199
  1

  0
TEXT
  5
892
  8
É}ÿg
  6
CONTINUOUS
 10
755.97261477766358
 20
-370.20483310309999
 30
0.0
 40
8.9958330630999992
  1
SUS304 0.8t
  0
ENDBLK
  5
894
  8
0
  0
BLOCK
  8
0
  2
*U200
 70
     1
 10
0.0
 20
0.0
 30
0.0
  3
*U200
  1

  0
TEXT
  5
896
  8
É}ÿg
  6
CONTINUOUS
 10
624.14210468282158
 20
-370.70713850256237
 30
0.0
 40
8.9958330630999992
  1
û{   æ╠
  0
ENDBLK
  5
898
  8
0
  0
BLOCK
  8
0
  2
*U201
 70
     1
 10
0.0
 20
0.0
 30
0.0
  3
*U201
  1

  0
TEXT
  5
89A
  8
┌▓È_1
  6
CONTINUOUS
 10
-31.940837075266479
 20
22.0701766426
 30
0.0
 40
9.8954164504999991
  1
3
  0
ENDBLK
  5
89C
  8
0
  0
BLOCK
  8
0
  2
*U202
 70
     1
 10
0.0
 20
0.0
 30
0.0
  3
*U202
  1

  0
TEXT
  5
89E
  8
É}ÿg
  6
CONTINUOUS
 10
639.02861015779945
 20
-355.20483310309999
 30
0.0
 40
8.9958330630999992
  1
Ä¿
  0
ENDBLK
  5
8A0
  8
0
  0
BLOCK
  8
0
  2
*U203
 70
     1
 10
0.0
 20
0.0
 30
0.0
  3
*U203
  1

  0
TEXT
  5
8A2
  8
┌▓È_1
  6
CONTINUOUS
 10
-34.517175472573349
 20
-137.76865014631471
 30
0.0
 40
8.9958330630999992
  1
39-Å¼ö╗îè
  0
ENDBLK
  5
8A4
  8
0
  0
BLOCK
  8
0
  2
*U204
 70
     1
 10
0.0
 20
0.0
 30
0.0
  3
*U204
  1

  0
TEXT
  5
8A6
  8
┌▓È_1
  6
CONTINUOUS
 10
733.59219278039996
 20
10.793076925909141
 30
0.0
 40
8.9958330630999992
  1
üiÉ¾î^üj
  0
ENDBLK
  5
8A8
  8
0
  0
BLOCK
  8
0
  2
*U205
 70
     1
 10
0.0
 20
0.0
 30
0.0
  3
*U205
  1

  0
TEXT
  5
8AA
  8
┌▓È_1
  6
CONTINUOUS
 10
840.51744573159999
 20
10.975733434804569
 30
0.0
 40
8.9958330630999992
  1
üiÉ[î^üj
  0
ENDBLK
  5
8AC
  8
0
  0
BLOCK
  8
0
  2
*U206
 70
     1
 10
0.0
 20
0.0
 30
0.0
  3
*U206
  1

  0
TEXT
  5
8AE
  8
┌▓È_1
  6
CONTINUOUS
 10
582.1803149241
 20
-309.1397813648955
 30
0.0
 40
8.9958330630999992
  1
üiÉ[î^üj
  0
ENDBLK
  5
8B0
  8
0
  0
BLOCK
  8
0
  2
*U207
 70
     1
 10
0.0
 20
0.0
 30
0.0
  3
*U207
  1

  0
TEXT
  5
8B2
  8
┌▓È_1
  6
CONTINUOUS
 10
512.03973285959989
 20
-309.32243787379088
 30
0.0
 40
8.9958330630999992
  1
üiÉ¾î^üj
  0
ENDBLK
  5
8B4
  8
0
  0
ENDSEC
  0
SECTION
  2
ENTITIES
  0
INSERT
  5
30
  8
┌▓È_1
  2
CLUMP0
 10
0.0
 20
0.0
 30
0.0
  0
INSERT
  5
54
  8
┌▓È_1
  2
CLUMP5
 10
0.0
 20
0.0
 30
0.0
  0
INSERT
  5
5C
  8
┌▓È_1
  2
CLUMP6
 10
0.0
 20
0.0
 30
0.0
  0
DIMENSION
  5
73
  8
Éíû@É³
 62
     5
  2
*D7
 10
-49.744726090299999
 20
-231.85153797230001
 30
0.0
 11
-60.744726090299991
 21
-231.85153797230001
 31
0.0
 70
   128
  1
<>
 13
-49.744726090299999
 23
-244.59144714429999
 33
0.0
 14
-71.744726090299991
 24
-244.59144714429999
 34
0.0
  0
DIMENSION
  5
82
  8
Éíû@É³
 62
     5
  2
*D8
 10
-33.995012192600001
 20
-248.09144714429999
 30
0.0
 11
-33.995012192600001
 21
-244.59144714429999
 31
0.0
 70
   128
  1
<>
 13
-53.244726090299991
 23
-248.09144714429999
 33
0.0
 14
-53.244726090299991
 24
-241.09144714429999
 34
0.0
 50
90.0
  0
INSERT
  5
84
  8
┌▓È_1
  2
CLUMP7
 10
0.0
 20
0.0
 30
0.0
  0
LINE
  5
A7
  8
┌▓È_1
 10
-149.2730836966
 20
71.964538596799997
 30
0.0
 11
-149.2730836966
 21
201.9645385968
 31
0.0
  0
LINE
  5
A8
  8
┌▓È_1
 10
-158.2730836966
 20
62.964538596799997
 30
0.0
 11
-158.2730836966
 21
210.9645385968
 31
0.0
  0
INSERT
  5
AA
  8
┌▓È_1
  2
CLUMP12
 10
0.0
 20
0.0
 30
0.0
  0
LINE
  5
CD
  8
┌▓È_1
 10
-148.47274312409999
 20
201.4645385968
 30
0.0
 11
-148.47274312409999
 21
72.464538596799997
 31
0.0
  0
LINE
  5
CE
  8
┌▓È_1
  6
BORDER
 62
     3
 10
-116.3728128633
 20
149.46436672179999
 30
0.0
 11
-116.3728128633
 21
124.4643667218
 31
0.0
  0
CIRCLE
  5
CF
  8
┌▓È_1
 10
-116.3728128633
 20
136.96436672179999
 30
0.0
 40
7.5
  0
INSERT
  5
D1
  8
┌▓È_1
  2
CLUMP17
 10
0.0
 20
0.0
 30
0.0
  0
LINE
  5
D8
  8
┌▓È_1
  6
BORDER
 62
     3
 10
-154.5588056240999
 20
136.9645385968
 30
0.0
 11
-163.94587015499999
 21
136.9645385968
 31
0.0
  0
DIMENSION
  5
E7
  8
Éíû@É³
 62
     5
  2
*D20
 10
-149.2730836966
 20
258.68940737119999
 30
0.0
 11
-153.6999065974
 21
258.68940737119999
 31
0.0
 70
   128
  1
<>
 13
-149.2730836966
 23
201.9645385968
 33
0.0
 14
-158.2730836966
 24
210.9645385968
 34
0.0
  0
LINE
  5
E8
  8
┌▓È_1
  6
BORDER
 62
     3
 10
126.755343649
 20
-282.59127526930001
 30
0.0
 11
126.755343649
 21
-143.59127526930001
 31
0.0
  0
INSERT
  5
EA
  8
┌▓È_1
  2
CLUMP18
 10
0.0
 20
0.0
 30
0.0
  0
INSERT
  5
10E
  8
┌▓È_1
  2
CLUMP23
 10
0.0
 20
0.0
 30
0.0
  0
INSERT
  5
116
  8
┌▓È_1
  2
CLUMP24
 10
0.0
 20
0.0
 30
0.0
  0
INSERT
  5
13A
  8
┌▓È_1
  2
CLUMP29
 10
0.0
 20
0.0
 30
0.0
  0
INSERT
  5
15E
  8
┌▓È_1
  2
CLUMP34
 10
0.0
 20
0.0
 30
0.0
  0
INSERT
  5
182
  8
┌▓È_1
  2
CLUMP39
 10
0.0
 20
0.0
 30
0.0
  0
INSERT
  5
18A
  8
┌▓È_1
  2
CLUMP40
 10
0.0
 20
0.0
 30
0.0
  0
INSERT
  5
192
  8
┌▓È_1
  2
CLUMP41
 10
0.0
 20
0.0
 30
0.0
  0
INSERT
  5
19A
  8
┌▓È_1
  2
CLUMP42
 10
0.0
 20
0.0
 30
0.0
  0
INSERT
  5
1A2
  8
┌▓È_1
  2
CLUMP43
 10
0.0
 20
0.0
 30
0.0
  0
INSERT
  5
1C6
  8
┌▓È_1
  2
CLUMP48
 10
0.0
 20
0.0
 30
0.0
  0
INSERT
  5
1EA
  8
┌▓È_1
  2
CLUMP53
 10
0.0
 20
0.0
 30
0.0
  0
INSERT
  5
20E
  8
0
  6
CONTINUOUS
  2
*U155
 10
0.0
 20
0.0
 30
0.0
  0
INSERT
  5
20F
  8
0
  6
CONTINUOUS
  2
*U156
 10
0.0
 20
0.0
 30
0.0
  0
INSERT
  5
210
  8
0
  6
CONTINUOUS
  2
*U157
 10
0.0
 20
0.0
 30
0.0
  0
INSERT
  5
212
  8
Éíû@É³
  2
BALLON0
 10
0.0
 20
0.0
 30
0.0
  0
INSERT
  5
21C
  8
Éíû@É³
  2
BALLON1
 10
0.0
 20
0.0
 30
0.0
  0
LINE
  5
225
  8
┌▓È_1
 10
-60.744726090299991
 20
-163.09144714429999
 30
0.0
 11
-36.942589788399999
 21
-139.09143817099999
 31
0.0
  0
SOLID
  5
226
  8
┌▓È_1
 10
-60.744726090299991
 20
-163.09144714429999
 30
0.0
 11
-58.175114120699988
 21
-158.5978947001
 31
0.0
 12
-58.1672713022
 22
-160.4925653777
 32
0.0
 13
-58.1672713022
 23
-160.4925653777
 33
0.0
  0
SOLID
  5
227
  8
┌▓È_1
 10
-60.744726090299991
 20
-163.09144714429999
 30
0.0
 11
-56.272600624600003
 21
-160.48472255920001
 31
0.0
 12
-58.1672713022
 22
-160.4925653777
 32
0.0
 13
-58.1672713022
 23
-160.4925653777
 33
0.0
  0
LINE
  5
228
  8
┌▓È_1
 10
-167.844656351
 20
-148.59127526930001
 30
0.0
 11
-167.844656351
 21
-277.59127526930001
 31
0.0
  0
INSERT
  5
22A
  8
┌▓È_1
  2
CLUMP58
 10
0.0
 20
0.0
 30
0.0
  0
INSERT
  5
24E
  8
┌▓È_1
  2
CLUMP63
 10
0.0
 20
0.0
 30
0.0
  0
LINE
  5
271
  8
┌▓È_1
  6
BORDER
 62
     3
 10
-135.74472609029999
 20
-200.59144714429999
 30
0.0
 11
-135.74472609029999
 21
-225.59144714429999
 31
0.0
  0
CIRCLE
  5
272
  8
┌▓È_1
 10
-135.74472609029999
 20
-213.09144714429999
 30
0.0
 40
7.5
  0
INSERT
  5
274
  8
┌▓È_1
  2
CLUMP68
 10
0.0
 20
0.0
 30
0.0
  0
INSERT
  5
27C
  8
┌▓È_1
  2
CLUMP69
 10
0.0
 20
0.0
 30
0.0
  0
LINE
  5
283
  8
┌▓È_1
 10
-150.07308369660001
 20
-13.5683586027
 30
0.0
 11
-150.07308369660001
 21
-36.768358602699998
 31
0.0
  0
ARC
  5
284
  8
┌▓È_1
 10
-150.07308369660001
 20
-36.768358602699998
 30
0.0
 40
0.8
 50
270.0
 51
0.0
  0
LINE
  5
285
  8
┌▓È_1
 10
-142.07308369660001
 20
-13.5683586027
 30
0.0
 11
-142.07308369660001
 21
-36.768358602699998
 31
0.0
  0
ARC
  5
286
  8
┌▓È_1
 10
-157.47308369660001
 20
-36.768358602699998
 30
0.0
 40
0.8
 50
180.0
 51
270.0
  0
LINE
  5
287
  8
┌▓È_1
 10
-158.2730836966
 20
-36.768358602699998
 30
0.0
 11
-158.2730836966
 21
-31.568358602699998
 31
0.0
  0
ARC
  5
288
  8
┌▓È_1
 10
-157.47308369660001
 20
-8.3683586026999972
 30
0.0
 40
0.8
 50
90.0
 51
180.0
  0
LINE
  5
289
  8
┌▓È_1
 10
-157.47308369660001
 20
-36.768358602699998
 30
0.0
 11
-157.47308369660001
 21
-31.568358602699998
 31
0.0
  0
LINE
  5
28A
  8
┌▓È_1
 10
-157.47308369660001
 20
-31.568358602699998
 30
0.0
 11
-158.2730836966
 21
-31.568358602699998
 31
0.0
  0
LINE
  5
28B
  8
┌▓È_1
 10
-158.2730836966
 20
-13.5683586027
 30
0.0
 11
-158.2730836966
 21
-8.3683586026999972
 31
0.0
  0
LINE
  5
28C
  8
┌▓È_1
 10
-141.27311678140001
 20
-31.568358602699998
 30
0.0
 11
-141.27311678140001
 21
-37.568358602700002
 31
0.0
  0
LINE
  5
28D
  8
┌▓È_1
 10
-141.27311678140001
 20
-36.768358602699998
 30
0.0
 11
-157.47308369660001
 21
-36.768358602699998
 31
0.0
  0
DIMENSION
  5
295
  8
Éíû@É³
 62
     5
  2
*D75
 10
-155.86542668609999
 20
-223.16101827809999
 30
0.0
 11
-167.8597059734
 21
-240.1342979129
 31
0.0
 70
   131
  1
2-â│15
 15
-142.47382454940001
 25
-216.40343052700001
 35
0.0
 40
0.0
  0
INSERT
  5
296
  8
0
  6
CONTINUOUS
  2
*U160
 10
0.0
 20
0.0
 30
0.0
  0
INSERT
  5
297
  8
0
  6
CONTINUOUS
  2
*U161
 10
0.0
 20
0.0
 30
0.0
  0
INSERT
  5
299
  8
É}ÿg
  2
CLUMP70
 10
0.0
 20
0.0
 30
0.0
  0
INSERT
  5
2A2
  8
0
  6
CONTINUOUS
  2
*U162
 10
0.0
 20
0.0
 30
0.0
  0
INSERT
  5
2A3
  8
0
  6
CONTINUOUS
  2
*U163
 10
0.0
 20
0.0
 30
0.0
  0
INSERT
  5
2A4
  8
0
  6
CONTINUOUS
  2
*U164
 10
0.0
 20
0.0
 30
0.0
  0
INSERT
  5
2A6
  8
É}ÿg
  2
CLUMP71
 10
0.0
 20
0.0
 30
0.0
  0
INSERT
  5
34A
  8
0
  6
CONTINUOUS
  2
*U185
 10
0.0
 20
0.0
 30
0.0
  0
INSERT
  5
34B
  8
0
  6
CONTINUOUS
  2
*U186
 10
0.0
 20
0.0
 30
0.0
  0
INSERT
  5
34C
  8
0
  6
CONTINUOUS
  2
*U187
 10
0.0
 20
0.0
 30
0.0
  0
INSERT
  5
34D
  8
0
  6
CONTINUOUS
  2
*U188
 10
0.0
 20
0.0
 30
0.0
  0
INSERT
  5
34E
  8
0
  6
CONTINUOUS
  2
*U189
 10
0.0
 20
0.0
 30
0.0
  0
INSERT
  5
34F
  8
0
  6
CONTINUOUS
  2
*U190
 10
0.0
 20
0.0
 30
0.0
  0
INSERT
  5
350
  8
0
  6
CONTINUOUS
  2
*U191
 10
0.0
 20
0.0
 30
0.0
  0
INSERT
  5
351
  8
0
  6
CONTINUOUS
  2
*U192
 10
0.0
 20
0.0
 30
0.0
  0
INSERT
  5
352
  8
0
  6
CONTINUOUS
  2
*U193
 10
0.0
 20
0.0
 30
0.0
  0
INSERT
  5
354
  8
0
  6
CONTINUOUS
  2
*U194
 10
0.0
 20
0.0
 30
0.0
  0
INSERT
  5
355
  8
0
  6
CONTINUOUS
  2
*U195
 10
0.0
 20
0.0
 30
0.0
  0
INSERT
  5
356
  8
0
  6
CONTINUOUS
  2
*U196
 10
0.0
 20
0.0
 30
0.0
  0
INSERT
  5
357
  8
0
  6
CONTINUOUS
  2
*U197
 10
0.0
 20
0.0
 30
0.0
  0
INSERT
  5
358
  8
0
  6
CONTINUOUS
  2
*U198
 10
0.0
 20
0.0
 30
0.0
  0
INSERT
  5
359
  8
0
  6
CONTINUOUS
  2
*U199
 10
0.0
 20
0.0
 30
0.0
  0
INSERT
  5
35A
  8
0
  6
CONTINUOUS
  2
*U200
 10
0.0
 20
0.0
 30
0.0
  0
INSERT
  5
35C
  8
É}ÿg
  2
CLUMP72
 10
0.0
 20
0.0
 30
0.0
  0
INSERT
  5
366
  8
É}ÿg
  2
CLUMP73
 10
0.0
 20
0.0
 30
0.0
  0
DIMENSION
  5
37D
  8
Éíû@É³
 62
     5
  2
*D80
 10
451.35534364900002
 20
-213.09127526930001
 30
0.0
 11
451.35534364900002
 21
-197.3413612068
 31
0.0
 70
   128
  1
<>
 13
426.35534364900002
 23
-213.09127526930001
 33
0.0
 14
400.25527390970001
 24
-181.59144714429999
 34
0.0
 50
90.0
  0
DIMENSION
  5
38C
  8
Éíû@É³
 62
     5
  2
*D81
 10
451.35534364900002
 20
-244.59144714429999
 30
0.0
 11
451.35534364900002
 21
-228.8413612068
 31
0.0
 70
   128
  1
<>
 13
400.25527390970001
 23
-244.59144714429999
 33
0.0
 14
426.35534364900002
 24
-213.09127526930001
 34
0.0
 50
90.0
  0
INSERT
  5
38E
  8
Éíû@É³
  2
BALLON2
 10
0.0
 20
0.0
 30
0.0
  0
DIMENSION
  5
39D
  8
Éíû@É³
 62
     5
  2
*D83
 10
416.35534364899991
 20
-344.2841822737999
 30
0.0
 11
412.73439533519991
 21
-359.98441191950002
 31
0.0
 70
   132
  1
<>
 15
419.89087755489987
 25
-347.81971617969998
 35
0.0
 40
0.0
  0
DIMENSION
  5
3AC
  8
Éíû@É³
 62
     5
  2
*D84
 10
631.7269163034
 20
258.68940737119999
 30
0.0
 11
241.2269163034
 21
258.68940737119999
 31
0.0
 70
   128
  1
1180
 13
631.7269163034
 23
201.9645385968
 33
0.0
 14
-149.2730836966
 24
201.9645385968
 34
0.0
  0
DIMENSION
  5
3BB
  8
Éíû@É³
 62
     5
  2
*D85
 10
451.35534364900002
 20
-277.59127526930001
 30
0.0
 11
451.35534364900002
 21
-268.5913612068
 31
0.0
 70
   128
  1
<>
 13
421.35534364900002
 23
-277.59127526930001
 33
0.0
 14
400.25527390970001
 24
-259.59144714429999
 34
0.0
 50
90.0
  0
DIMENSION
  5
3CA
  8
Éíû@É³
 62
     5
  2
*D86
 10
389.25527390970001
 20
-307.59127526930001
 30
0.0
 11
405.30530877939998
 21
-307.59127526930001
 31
0.0
 70
   128
  1
<>
 13
389.25527390970001
 23
-263.09144714429999
 33
0.0
 14
421.35534364900002
 24
-277.59127526930001
 34
0.0
 50
180.0
  0
DIMENSION
  5
3D9
  8
Éíû@É³
 62
     5
  2
*D87
 10
314.25527390970001
 20
-307.591275483
 30
0.0
 11
351.75527390970001
 21
-307.591275483
 31
0.0
 70
   128
  1
<>
 13
314.25527390970001
 23
-263.09144714429999
 33
0.0
 14
389.25527390970001
 24
-263.09144714429999
 34
0.0
 50
180.0
  0
DIMENSION
  5
3E8
  8
Éíû@É³
 62
     5
  2
*D88
 10
239.25527390970001
 20
-307.591275483
 30
0.0
 11
276.75527390970001
 21
-307.591275483
 31
0.0
 70
   128
  1
<>
 13
239.25527390970001
 23
-263.09144714429999
 33
0.0
 14
314.25527390970001
 24
-263.09144714429999
 34
0.0
 50
180.0
  0
DIMENSION
  5
3F7
  8
Éíû@É³
 62
     5
  2
*D89
 10
661.9078076792
 20
-37.568358602700002
 30
0.0
 11
661.9078076792
 21
-34.568358602700002
 31
0.0
 70
   128
  1
<>
 13
639.92749456879994
 23
-37.568358602700002
 33
0.0
 14
640.72749456880001
 24
-31.568358602699998
 34
0.0
 50
90.0
  0
DIMENSION
  5
406
  8
Éíû@É³
 62
     5
  2
*D90
 10
661.9078076792
 20
-13.5683586027
 30
0.0
 11
661.9078076792
 21
-10.5683586027
 31
0.0
 70
   128
  1
<>
 13
640.72749456880001
 23
-13.5683586027
 33
0.0
 14
639.92749456879994
 24
-7.5683586027
 34
0.0
 50
90.0
  0
DIMENSION
  5
415
  8
Éíû@É³
 62
     5
  2
*D91
 10
670.58230113000002
 20
62.964538596799997
 30
0.0
 11
670.58230113000002
 21
67.464538596799997
 31
0.0
 70
   128
  1
<>
 13
640.72691630339989
 23
62.964538596799997
 33
0.0
 14
631.7269163034
 24
71.964538596799997
 34
0.0
 50
90.0
  0
DIMENSION
  5
424
  8
Éíû@É³
 62
     5
  2
*D92
 10
670.58230113000002
 20
201.9645385968
 30
0.0
 11
670.58230113000002
 21
206.4645385968
 31
0.0
 70
   128
  1
<>
 13
631.7269163034
 23
201.9645385968
 33
0.0
 14
640.72691630339989
 24
210.9645385968
 34
0.0
 50
90.0
  0
DIMENSION
  5
433
  8
Éíû@É³
 62
     5
  2
*D93
 10
640.72691630339989
 20
258.68940737119999
 30
0.0
 11
636.2269163034
 21
258.68940737119999
 31
0.0
 70
   128
  1
9
 13
640.72691630339989
 23
210.9645385968
 33
0.0
 14
631.7269163034
 24
201.9645385968
 34
0.0
  0
DIMENSION
  5
442
  8
Éíû@É³
 62
     5
  2
*D94
 10
788.55884303070002
 20
195.4650099509
 30
0.0
 11
788.55884303070002
 21
228.67245891030001
 31
0.0
 70
   128
  1
15.5
 13
764.77340067839987
 23
195.4650099509
 33
0.0
 14
764.77340067839987
 24
210.9650099509
 34
0.0
 50
90.0
  0
DIMENSION
  5
451
  8
Éíû@É³
 62
     5
  2
*D95
 10
909.31551809119992
 20
196.9645385968
 30
0.0
 11
909.31551809119992
 21
203.9645385968
 31
0.0
 70
   128
  1
14
 13
887.90060682109993
 23
196.9645385968
 33
0.0
 14
887.90060682109993
 24
210.9645385968
 34
0.0
 50
90.0
  0
DIMENSION
  5
460
  8
Éíû@É³
 62
     5
  2
*D96
 10
750.57340067839993
 20
247.96541354589999
 30
0.0
 11
742.83292409989997
 21
247.96541354589999
 31
0.0
 70
   128
  1
<>
 13
750.57340067839993
 23
201.9650099509
 33
0.0
 14
735.57340067839993
 24
210.16500995089999
 34
0.0
  0
DIMENSION
  5
46F
  8
Éíû@É³
 62
     5
  2
*D97
 10
765.57340067839993
 20
247.96541354589999
 30
0.0
 11
758.00540444470005
 21
247.96541354589999
 31
0.0
 70
   128
  1
<>
 13
765.57340067839993
 23
210.16500995089999
 33
0.0
 14
750.57340067839993
 24
201.9650099509
 34
0.0
  0
DIMENSION
  5
47E
  8
Éíû@É³
 62
     5
  2
*D98
 10
765.57340067839993
 20
269.58557650979998
 30
0.0
 11
750.57340067839993
 21
269.58557650979998
 31
0.0
 70
   128
  1
<>
 13
765.57340067839993
 23
210.16500995089999
 33
0.0
 14
735.57340067839993
 24
210.16500995089999
 34
0.0
  0
DIMENSION
  5
48D
  8
Éíû@É³
 62
     5
  2
*D99
 10
887.90060682109993
 20
268.81426927910002
 30
0.0
 11
860.40060682110015
 21
268.81426927910002
 31
0.0
 70
   128
  1
<>
 13
887.90060682109993
 23
210.16453859680001
 33
0.0
 14
832.90060682110004
 24
210.16453859680001
 34
0.0
  0
DIMENSION
  5
49C
  8
Éíû@É³
 62
     5
  2
*D100
 10
451.3553448630999
 20
-259.59144714429999
 30
0.0
 11
451.3553448630999
 21
-252.09144714429999
 31
0.0
 70
   128
  1
<>
 13
400.25527390970001
 23
-259.59144714429999
 33
0.0
 14
400.25527390970001
 24
-244.59144714429999
 34
0.0
 50
90.0
  0
DIMENSION
  5
4AB
  8
Éíû@É³
 62
     5
  2
*D101
 10
857.90060682110004
 20
248.1360626446
 30
0.0
 11
845.40060682110004
 21
248.1360626446
 31
0.0
 70
   128
  1
<>
 13
857.90060682110004
 23
201.9645385968
 33
0.0
 14
832.90060682110004
 24
210.9645385968
 34
0.0
  0
DIMENSION
  5
4BA
  8
Éíû@É³
 62
     5
  2
*D102
 10
887.90060682109993
 20
248.1360626446
 30
0.0
 11
872.90060682110015
 21
248.1360626446
 31
0.0
 70
   128
  1
<>
 13
887.90060682109993
 23
210.9645385968
 33
0.0
 14
857.90060682110004
 24
201.9645385968
 34
0.0
  0
DIMENSION
  5
4C9
  8
Éíû@É³
 62
     5
  2
*D103
 10
909.31551809119992
 20
62.964538596799997
 30
0.0
 11
909.31551809119992
 21
69.964538596799997
 31
0.0
 70
   128
  1
14
 13
887.90060682109993
 23
62.964538596799997
 33
0.0
 14
887.90060682109993
 24
76.964538596799997
 34
0.0
 50
90.0
  0
INSERT
  5
4CA
  8
0
  6
CONTINUOUS
  2
*U202
 10
0.0
 20
0.0
 30
0.0
  0
LINE
  5
4CB
  8
┌▓È_1
 62
     5
 10
836.90060682110004
 20
201.4645385968
 30
0.0
 11
857.90060682110004
 21
201.4645385968
 31
0.0
  0
LINE
  5
4CC
  8
┌▓È_1
 62
     5
 10
836.90060682110004
 20
199.4645385968
 30
0.0
 11
857.90060682110004
 21
199.4645385968
 31
0.0
  0
LINE
  5
4CD
  8
┌▓È_1
 62
     5
 10
857.90060682110004
 20
201.9645385968
 30
0.0
 11
857.90060682110004
 21
201.4645385968
 31
0.0
  0
LINE
  5
4CE
  8
┌▓È_1
 62
     5
 10
739.07340067839993
 20
199.4645385968
 30
0.0
 11
738.57340067839993
 21
199.4645385968
 31
0.0
  0
INSERT
  5
4D0
  8
┌▓È_1
  6
BORDER
 62
     5
  2
CLUMP74
 10
0.0
 20
0.0
 30
0.0
  0
LINE
  5
4ED
  8
┌▓È_1
 62
     5
 10
735.57340067839993
 20
202.76500995090001
 30
0.0
 11
735.57340067839993
 21
136.9645385968
 31
0.0
  0
LINE
  5
4EE
  8
┌▓È_1
  6
BORDER
 62
     3
 10
730.57340067839993
 20
136.9645385968
 30
0.0
 11
770.57340067839993
 21
136.9645385968
 31
0.0
  0
DIMENSION
  5
4FD
  8
Éíû@É³
 62
     5
  2
*D105
 10
788.55884303070002
 20
62.964067242600002
 30
0.0
 11
788.55884303070002
 21
44.973077557499991
 31
0.0
 70
   128
  1
15.5
 13
764.77340067839987
 23
62.964067242600002
 33
0.0
 14
764.77340067839987
 24
78.464067242599995
 34
0.0
 50
90.0
  0
DIMENSION
  5
50C
  8
Éíû@É³
 62
     5
  2
*D106
 10
539.00191917229995
 20
-118.5912752693
 30
0.0
 11
532.00191917229995
 21
-118.5912752693
 31
0.0
 70
   128
  1
<>
 13
539.00191917229995
 23
-148.59127526930001
 33
0.0
 14
525.00191917230006
 24
-150.59127661869999
 34
0.0
  0
DIMENSION
  5
51B
  8
Éíû@É³
 62
     5
  2
*D107
 10
421.35534364900002
 20
-118.5912752693
 30
0.0
 11
126.755343649
 21
-118.5912752693
 31
0.0
 70
   128
  1
<>
 13
421.35534364900002
 23
-148.59127526930001
 33
0.0
 14
-167.844656351
 24
-148.59127526930001
 34
0.0
  0
DIMENSION
  5
52A
  8
Éíû@É³
 62
     5
  2
*D108
 10
611.41165567539986
 20
-118.5912752693
 30
0.0
 11
599.91165567539997
 21
-118.5912752693
 31
0.0
 70
   128
  1
<>
 13
611.41165567539986
 23
-148.59127526930001
 33
0.0
 14
588.41165567539986
 24
-150.59127526930001
 34
0.0
  0
DIMENSION
  5
539
  8
Éíû@É³
 62
     5
  2
*D109
 10
640.72691630339989
 20
280.60021211970002
 30
0.0
 11
241.2269163034
 21
280.60021211970002
 31
0.0
 70
   128
  1
1198
 13
640.72691630339989
 23
210.9645385968
 33
0.0
 14
-158.2730836966
 24
210.9645385968
 34
0.0
  0
DIMENSION
  5
548
  8
Éíû@É³
 62
     5
  2
*D110
 10
476.87521440699987
 20
-277.59127526930001
 30
0.0
 11
476.87521440699987
 21
-213.18255137860001
 31
0.0
 70
   128
  1
<>
 13
421.35534364900002
 23
-277.59127526930001
 33
0.0
 14
421.35534364900002
 24
-148.59127526930001
 34
0.0
 50
90.0
  0
DIMENSION
  5
557
  8
Éíû@É³
 62
     5
  2
*D111
 10
164.25527390970001
 20
-307.591275483
 30
0.0
 11
201.75527390970001
 21
-307.591275483
 31
0.0
 70
   128
  1
<>
 13
164.25527390970001
 23
-263.09144714429999
 33
0.0
 14
239.25527390970001
 24
-263.09144714429999
 34
0.0
 50
180.0
  0
DIMENSION
  5
566
  8
Éíû@É³
 62
     5
  2
*D112
 10
670.58230113000002
 20
71.964538596799997
 30
0.0
 11
670.58230113000002
 21
136.9645385968
 31
0.0
 70
   128
  1
<>
 13
631.7269163034
 23
71.964538596799997
 33
0.0
 14
631.7269163034
 24
201.9645385968
 34
0.0
 50
90.0
  0
DIMENSION
  5
575
  8
Éíû@É³
 62
     5
  2
*D113
 10
689.7729368112
 20
62.964538596799997
 30
0.0
 11
689.7729368112
 21
136.9645385968
 31
0.0
 70
   128
  1
<>
 13
640.72691630339989
 23
62.964538596799997
 33
0.0
 14
640.72691630339989
 24
210.9645385968
 34
0.0
 50
90.0
  0
DIMENSION
  5
584
  8
Éíû@É³
 62
     5
  2
*D114
 10
-135.74472609029999
 20
-307.591275483
 30
0.0
 11
-98.244726090300006
 21
-307.591275483
 31
0.0
 70
   128
  1
<>
 13
-135.74472609029999
 23
-263.09144714429999
 33
0.0
 14
-60.744726090299991
 24
-263.09144714429999
 34
0.0
 50
180.0
  0
DIMENSION
  5
593
  8
Éíû@É³
 62
     5
  2
*D115
 10
-167.844656351
 20
-307.59127526930001
 30
0.0
 11
-151.79469122059999
 21
-307.59127526930001
 31
0.0
 70
   128
  1
<>
 13
-167.844656351
 23
-277.59127526930001
 33
0.0
 14
-135.74472609029999
 24
-263.09144714429999
 34
0.0
 50
180.0
  0
DIMENSION
  5
5A2
  8
Éíû@É³
 62
     5
  2
*D116
 10
89.255273909699994
 20
-307.591275483
 30
0.0
 11
126.75527390969999
 21
-307.591275483
 31
0.0
 70
   128
  1
<>
 13
89.255273909699994
 23
-263.09144714429999
 33
0.0
 14
164.25527390970001
 24
-263.09144714429999
 34
0.0
 50
180.0
  0
DIMENSION
  5
5B1
  8
Éíû@É³
 62
     5
  2
*D117
 10
14.2552739097
 20
-307.591275483
 30
0.0
 11
51.755273909700001
 21
-307.591275483
 31
0.0
 70
   128
  1
<>
 13
14.2552739097
 23
-263.09144714429999
 33
0.0
 14
89.255273909699994
 24
-263.09144714429999
 34
0.0
 50
180.0
  0
DIMENSION
  5
5C0
  8
Éíû@É³
 62
     5
  2
*D118
 10
-60.744726090299991
 20
-307.591275483
 30
0.0
 11
-23.244726090299999
 21
-307.591275483
 31
0.0
 70
   128
  1
<>
 13
-60.744726090299991
 23
-263.09144714429999
 33
0.0
 14
14.2552739097
 24
-263.09144714429999
 34
0.0
 50
180.0
  0
DIMENSION
  5
5CF
  8
Éíû@É³
 62
     5
  2
*D119
 10
788.4987024208998
 20
78.464067242599995
 30
0.0
 11
788.4987024208998
 21
136.9645385968
 31
0.0
 70
   128
  1
<>
 13
764.77340067839987
 23
78.464067242599995
 33
0.0
 14
764.77340067839987
 24
195.4650099509
 34
0.0
 50
90.0
  0
DIMENSION
  5
5DE
  8
Éíû@É³
 62
     5
  2
*D120
 10
909.31551809119992
 20
76.964538596799997
 30
0.0
 11
909.31551809119992
 21
136.9645385968
 31
0.0
 70
   128
  1
<>
 13
887.90060682109993
 23
76.964538596799997
 33
0.0
 14
887.90060682109993
 24
196.9645385968
 34
0.0
 50
90.0
  0
DIMENSION
  5
5ED
  8
Éíû@É³
 62
     5
  2
*D121
 10
451.35534364900002
 20
-166.59144714429999
 30
0.0
 11
451.35534364900002
 21
-157.5913612068
 31
0.0
 70
   128
  1
<>
 13
400.25527390970001
 23
-166.59144714429999
 33
0.0
 14
421.35534364900002
 24
-148.59127526930001
 34
0.0
 50
90.0
  0
DIMENSION
  5
5FC
  8
Éíû@É³
 62
     5
  2
*D122
 10
451.3553448630999
 20
-181.59144714429999
 30
0.0
 11
451.3553448630999
 21
-174.09144714429999
 31
0.0
 70
   128
  1
<>
 13
400.25527390970001
 23
-181.59144714429999
 33
0.0
 14
400.25527390970001
 24
-166.59144714429999
 34
0.0
 50
90.0
  0
INSERT
  5
5FE
  8
┌▓È_1
  2
CLUMP75
 10
0.0
 20
0.0
 30
0.0
  0
LINE
  5
609
  8
┌▓È_1
 10
537.49670029799995
 20
201.4645385968
 30
0.0
 11
630.92725687589984
 21
201.4645385968
 31
0.0
  0
LINE
  5
60A
  8
┌▓È_1
  6
HIDDEN
 62
     1
 10
537.49670029799995
 20
199.4645385968
 30
0.0
 11
630.92725687589984
 21
199.4645385968
 31
0.0
  0
LINE
  5
60B
  8
┌▓È_1
  6
BORDER
 62
     3
 10
598.82687145930004
 20
149.4645385968
 30
0.0
 11
598.82687145930004
 21
124.4645385968
 31
0.0
  0
ARC
  5
60C
  8
┌▓È_1
 10
568.82687145930004
 20
136.9645385968
 30
0.0
 40
3.5
 50
270.0
 51
90.0
  0
CIRCLE
  5
60D
  8
┌▓È_1
 10
598.82687145930004
 20
136.9645385968
 30
0.0
 40
7.5
  0
INSERT
  5
60F
  8
┌▓È_1
  2
CLUMP76
 10
0.0
 20
0.0
 30
0.0
  0
LINE
  5
61A
  8
┌▓È_1
 10
553.82687145930004
 20
133.4645385968
 30
0.0
 11
568.82687145930004
 21
133.4645385968
 31
0.0
  0
LINE
  5
61B
  8
┌▓È_1
 10
568.82687145930004
 20
140.4645385968
 30
0.0
 11
553.82687145930004
 21
140.4645385968
 31
0.0
  0
INSERT
  5
61D
  8
┌▓È_1
  2
CLUMP77
 10
0.0
 20
0.0
 30
0.0
  0
LINE
  5
624
  8
┌▓È_1
 10
537.49670029799995
 20
201.9645385968
 30
0.0
 11
631.7269163034
 21
201.9645385968
 31
0.0
  0
CIRCLE
  5
625
  8
┌▓È_1
 10
408.62687145929999
 20
136.9645385968
 30
0.0
 40
7.5
  0
LINE
  5
626
  8
┌▓È_1
  6
BORDER
 62
     3
 10
408.62687145929999
 20
149.4645385968
 30
0.0
 11
408.62687145929999
 21
124.4645385968
 31
0.0
  0
LINE
  5
627
  8
┌▓È_1
  6
BORDER
 62
     3
 10
472.82764229259999
 20
149.4645385968
 30
0.0
 11
472.82764229259999
 21
124.4645385968
 31
0.0
  0
LINE
  5
628
  8
┌▓È_1
 62
     5
 10
857.90060682110004
 20
73.964538596799997
 30
0.0
 11
857.90060682110004
 21
76.964538596799997
 31
0.0
  0
LINE
  5
629
  8
┌▓È_1
 62
     5
 10
836.90060682110004
 20
72.464538596799997
 30
0.0
 11
857.90060682110004
 21
72.464538596799997
 31
0.0
  0
INSERT
  5
62B
  8
┌▓È_1
 62
     5
  2
CLUMP78
 10
0.0
 20
0.0
 30
0.0
  0
ARC
  5
647
  8
┌▓È_1
 62
     5
 10
836.90060682110004
 20
74.464538596799997
 30
0.0
 40
2.0
 50
180.0
 51
270.0
  0
LINE
  5
648
  8
┌▓È_1
 62
     5
 10
836.90060682110004
 20
74.464538596799997
 30
0.0
 11
857.90060682110004
 21
74.464538596799997
 31
0.0
  0
LINE
  5
649
  8
┌▓È_1
 62
     5
 10
739.07340067839993
 20
74.464538596799997
 30
0.0
 11
738.57340067839993
 21
74.464538596799997
 31
0.0
  0
INSERT
  5
64B
  8
┌▓È_1
  6
BORDER
 62
     5
  2
CLUMP79
 10
0.0
 20
0.0
 30
0.0
  0
LINE
  5
668
  8
┌▓È_1
  6
BORDER
 62
     3
 10
827.90060682110004
 20
136.9645385968
 30
0.0
 11
892.90060682110004
 21
136.9645385968
 31
0.0
  0
INSERT
  5
66A
  8
┌▓È_1
 62
     5
  2
CLUMP80
 10
0.0
 20
0.0
 30
0.0
  0
LINE
  5
686
  8
┌▓È_1
 62
     5
 10
857.90060682110004
 20
199.9645385968
 30
0.0
 11
857.90060682110004
 21
196.9645385968
 31
0.0
  0
ARC
  5
687
  8
┌▓È_1
 62
     5
 10
836.90060682110004
 20
199.4645385968
 30
0.0
 40
2.0
 50
90.0
 51
180.0
  0
LINE
  5
688
  8
┌▓È_1
 62
     5
 10
630.9774945687999
 20
-11.0683586027
 30
0.0
 11
630.9774945687999
 21
-17.568358602699998
 31
0.0
  0
LINE
  5
689
  8
┌▓È_1
 62
     5
 10
628.47749456880001
 20
-8.5683586027
 30
0.0
 11
630.9774945687999
 21
-8.5683586027
 31
0.0
  0
LINE
  5
68A
  8
┌▓È_1
 62
     5
 10
630.9774945687999
 20
-11.0683586027
 30
0.0
 11
630.9774945687999
 21
-8.5683586027
 31
0.0
  0
LINE
  5
68B
  8
┌▓È_1
 62
     5
 10
632.52749456879997
 20
-22.568358602699998
 30
0.0
 11
632.52749456879997
 21
-8.3683586026999972
 31
0.0
  0
LINE
  5
68C
  8
┌▓È_1
  6
BORDER
 62
     3
 10
537.49670029799995
 20
-2.5683586027
 30
0.0
 11
537.49670029799995
 21
-42.568358602700002
 31
0.0
  0
ARC
  5
68D
  8
┌▓È_1
 62
     5
 10
639.92749456879994
 20
-8.3683586026999972
 30
0.0
 40
0.8
 50
0.0
 51
90.0
  0
LINE
  5
68E
  8
┌▓È_1
 62
     5
 10
640.72749456880001
 20
-13.5683586027
 30
0.0
 11
640.72749456880001
 21
-8.3683586026999972
 31
0.0
  0
LINE
  5
68F
  8
┌▓È_1
 62
     5
 10
632.52749456879997
 20
-36.768358602699998
 30
0.0
 11
639.92749456879994
 21
-36.768358602699998
 31
0.0
  0
LINE
  5
690
  8
┌▓È_1
 62
     5
 10
639.92749456879994
 20
-7.5683586027
 30
0.0
 11
632.52749456879997
 21
-7.5683586027
 31
0.0
  0
LINE
  5
691
  8
┌▓È_1
 62
     5
 10
639.92749456879994
 20
-13.5683586027
 30
0.0
 11
640.72749456880001
 21
-13.5683586027
 31
0.0
  0
ARC
  5
692
  8
┌▓È_1
 62
     5
 10
639.92749456879994
 20
-36.768358602699998
 30
0.0
 40
0.8
 50
270.0
 51
0.0
  0
LINE
  5
693
  8
┌▓È_1
 62
     5
 10
639.92749456879994
 20
-31.568358602699998
 30
0.0
 11
639.92749456879994
 21
-36.768358602699998
 31
0.0
  0
LINE
  5
694
  8
┌▓È_1
 62
     5
 10
632.52749456879997
 20
-7.5683586027
 30
0.0
 11
537.49670029799995
 21
-7.5683586027
 31
0.0
  0
LINE
  5
695
  8
┌▓È_1
 10
640.72691630339989
 20
62.964538596799997
 30
0.0
 11
537.49670029799995
 21
62.964538596799997
 31
0.0
  0
LINE
  5
696
  8
┌▓È_1
  6
HIDDEN
 62
     1
 10
537.49670029799995
 20
74.464538596799997
 30
0.0
 11
630.92725687589984
 21
74.464538596799997
 31
0.0
  0
LINE
  5
697
  8
┌▓È_1
 10
537.49670029799995
 20
72.464538596799997
 30
0.0
 11
630.92725687589984
 21
72.464538596799997
 31
0.0
  0
LINE
  5
698
  8
┌▓È_1
 10
631.7269163034
 20
71.964538596799997
 30
0.0
 11
537.49670029799995
 21
71.964538596799997
 31
0.0
  0
LINE
  5
699
  8
┌▓È_1
 10
537.49670029799995
 20
210.9645385968
 30
0.0
 11
640.72691630339989
 21
210.9645385968
 31
0.0
  0
INSERT
  5
69B
  8
┌▓È_1
  2
CLUMP81
 10
0.0
 20
0.0
 30
0.0
  0
ARC
  5
6A2
  8
┌▓È_1
 10
553.82687145930004
 20
136.9645385968
 30
0.0
 40
3.5
 50
90.0
 51
270.0
  0
ARC
  5
6A3
  8
┌▓È_1
 10
502.82764229259999
 20
136.9645385968
 30
0.0
 40
3.5
 50
90.0
 51
270.0
  0
LINE
  5
6A4
  8
┌▓È_1
 10
517.82764229259999
 20
133.4645385968
 30
0.0
 11
502.82764229259999
 21
133.4645385968
 31
0.0
  0
ARC
  5
6A5
  8
┌▓È_1
 10
517.82764229259999
 20
136.9645385968
 30
0.0
 40
3.5
 50
270.0
 51
90.0
  0
CIRCLE
  5
6A6
  8
┌▓È_1
 10
472.82764229259999
 20
136.9645385968
 30
0.0
 40
7.5
  0
LINE
  5
6A7
  8
┌▓È_1
 10
502.82764229259999
 20
140.4645385968
 30
0.0
 11
517.82764229259999
 21
140.4645385968
 31
0.0
  0
LINE
  5
6A8
  8
┌▓È_1
  6
BORDER
 62
     3
 10
389.25495823230011
 20
-200.59127526930001
 30
0.0
 11
389.25495823230011
 21
-225.59127526930001
 31
0.0
  0
INSERT
  5
6AA
  8
┌▓È_1
  2
CLUMP82
 10
0.0
 20
0.0
 30
0.0
  0
INSERT
  5
6CE
  8
┌▓È_1
  2
CLUMP87
 10
0.0
 20
0.0
 30
0.0
  0
LINE
  5
6F1
  8
┌▓È_1
 10
-36.942589788399999
 20
-139.09143817099999
 30
0.0
 11
16.4340953253
 21
-139.09143817099999
 31
0.0
  0
INSERT
  5
6F3
  8
┌▓È_1
  2
CLUMP92
 10
0.0
 20
0.0
 30
0.0
  0
LINE
  5
6FA
  8
┌▓È_1
 62
     5
 10
633.32749456879992
 20
-37.568358602700002
 30
0.0
 11
639.92749456879994
 21
-37.568358602700002
 31
0.0
  0
LINE
  5
6FB
  8
┌▓È_1
 62
     5
 10
632.52749456879997
 20
-8.3683586026999972
 30
0.0
 11
639.92749456879994
 21
-8.3683586026999972
 31
0.0
  0
LINE
  5
6FC
  8
┌▓È_1
 62
     5
 10
640.72749456880001
 20
-31.568358602699998
 30
0.0
 11
639.92749456879994
 21
-31.568358602699998
 31
0.0
  0
LINE
  5
6FD
  8
┌▓È_1
 62
     5
 10
640.72749456880001
 20
-36.768358602699998
 30
0.0
 11
640.72749456880001
 21
-31.568358602699998
 31
0.0
  0
LINE
  5
6FE
  8
┌▓È_1
 62
     5
 10
639.92749456879994
 20
-8.3683586026999972
 30
0.0
 11
639.92749456879994
 21
-13.5683586027
 31
0.0
  0
LINE
  5
6FF
  8
┌▓È_1
 62
     5
 10
639.92749456879994
 20
-13.5683586027
 30
0.0
 11
632.52749456879997
 21
-13.5683586027
 31
0.0
  0
LINE
  5
700
  8
┌▓È_1
  6
BORDER
 62
     3
 10
532.49670029800006
 20
-2.5683586027
 30
0.0
 11
532.49670029800006
 21
-42.568358602700002
 31
0.0
  0
LINE
  5
701
  8
┌▓È_1
 62
     5
 10
628.47749456880001
 20
-10.5683586027
 30
0.0
 11
537.49670029799995
 21
-10.5683586027
 31
0.0
  0
LINE
  5
702
  8
┌▓È_1
 62
     5
 10
537.49670029799995
 20
-8.5683586027
 30
0.0
 11
628.47749456880001
 21
-8.5683586027
 31
0.0
  0
LINE
  5
703
  8
┌▓È_1
 62
     5
 10
626.02749456879985
 20
-37.568358602700002
 30
0.0
 11
537.49670029799995
 21
-37.568358602700002
 31
0.0
  0
LINE
  5
704
  8
┌▓È_1
 62
     5
 10
625.97749456880001
 20
-22.568358602699998
 30
0.0
 11
537.49670029799995
 21
-22.568358602699998
 31
0.0
  0
LINE
  5
705
  8
┌▓È_1
 62
     5
 10
628.47749456880001
 20
-10.5683586027
 30
0.0
 11
630.9774945687999
 21
-10.5683586027
 31
0.0
  0
LINE
  5
706
  8
┌▓È_1
 62
     5
 10
631.72749456880001
 20
-8.3683586026999972
 30
0.0
 11
631.72749456880001
 21
-22.568358602699998
 31
0.0
  0
LINE
  5
707
  8
┌▓È_1
 62
     5
 10
631.72749456880001
 20
-22.568358602699998
 30
0.0
 11
626.02749456879985
 21
-22.568358602699998
 31
0.0
  0
LINE
  5
708
  8
┌▓È_1
 62
     5
 10
633.32749456879992
 20
-37.568358602700002
 30
0.0
 11
626.02749456879985
 21
-37.568358602700002
 31
0.0
  0
LINE
  5
709
  8
┌▓È_1
 62
     5
 10
631.72749456880001
 20
-22.568358602699998
 30
0.0
 11
631.72749456880001
 21
-36.768358602699998
 31
0.0
  0
ARC
  5
70A
  8
┌▓È_1
 62
     5
 10
632.52749456879997
 20
-36.768358602699998
 30
0.0
 40
0.8
 50
180.0
 51
270.0
  0
LINE
  5
70B
  8
┌▓È_1
 62
     5
 10
632.52749456879997
 20
-22.568358602699998
 30
0.0
 11
632.52749456879997
 21
-36.768358602699998
 31
0.0
  0
ARC
  5
70C
  8
┌▓È_1
 62
     5
 10
632.52749456879997
 20
-8.3683586026999972
 30
0.0
 40
0.8
 50
90.0
 51
180.0
  0
ARC
  5
70D
  8
┌▓È_1
 62
     5
 10
625.97749456880001
 20
-17.568358602699998
 30
0.0
 40
5.0
 50
270.0
 51
0.0
  0
ARC
  5
70E
  8
┌▓È_1
 62
     5
 10
416.35534364899991
 20
-344.2841822737999
 30
0.0
 40
5.0
 50
269.99999715709998
 51
0.0
  0
LINE
  5
70F
  8
┌▓È_1
 62
     5
 10
588.41165567539986
 20
-150.59127526930001
 30
0.0
 11
588.41165567539986
 21
-275.59127526930001
 31
0.0
  0
LINE
  5
710
  8
┌▓È_1
 62
     5
 10
590.41165567539986
 20
-150.59127526930001
 30
0.0
 11
590.41165567539986
 21
-275.59127526930001
 31
0.0
  0
LINE
  5
711
  8
┌▓È_1
 62
     5
 10
590.41165567539986
 20
-275.59127526930001
 30
0.0
 11
611.41165567539986
 21
-275.59127526930001
 31
0.0
  0
ARC
  5
712
  8
┌▓È_1
 62
     5
 10
590.41165567539986
 20
-275.59127526930001
 30
0.0
 40
2.0
 50
180.0
 51
270.0
  0
LINE
  5
713
  8
┌▓È_1
 62
     5
 10
590.41165567539986
 20
-277.59127526930001
 30
0.0
 11
611.41165567539986
 21
-277.59127526930001
 31
0.0
  0
LINE
  5
714
  8
┌▓È_1
 62
     5
 10
590.41165567539986
 20
-150.59127526930001
 30
0.0
 11
611.41165567539986
 21
-150.59127526930001
 31
0.0
  0
LINE
  5
715
  8
┌▓È_1
 62
     5
 10
590.41165567539986
 20
-148.59127526930001
 30
0.0
 11
611.41165567539986
 21
-148.59127526930001
 31
0.0
  0
ARC
  5
716
  8
┌▓È_1
 62
     5
 10
590.41165567539986
 20
-150.59127526930001
 30
0.0
 40
2.0
 50
90.0
 51
180.0
  0
LINE
  5
717
  8
┌▓È_1
  6
BORDER
 62
     3
 10
581.41165567539986
 20
-213.09127526930001
 30
0.0
 11
616.41165567539997
 21
-213.09127526930001
 31
0.0
  0
LINE
  5
718
  8
┌▓È_1
 62
     5
 10
611.41165567539986
 20
-275.59127526930001
 30
0.0
 11
611.41165567539986
 21
-277.59127526930001
 31
0.0
  0
LINE
  5
719
  8
┌▓È_1
 62
     5
 10
611.41165567539986
 20
-148.59127526930001
 30
0.0
 11
611.41165567539986
 21
-150.59127526930001
 31
0.0
  0
LINE
  5
71A
  8
┌▓È_1
  6
BORDER
 62
     3
 10
519.00191917229995
 20
-213.09127526930001
 30
0.0
 11
544.00191917229995
 21
-213.09127526930001
 31
0.0
  0
LINE
  5
71B
  8
┌▓È_1
 62
     5
 10
527.00191952859996
 20
-277.59127526930001
 30
0.0
 11
539.00191917229995
 21
-277.59127526930001
 31
0.0
  0
ARC
  5
71C
  8
┌▓È_1
 62
     5
 10
527.00191917229995
 20
-275.59127526930001
 30
0.0
 40
2.0
 50
180.0
 51
270.00001020809998
  0
LINE
  5
71D
  8
┌▓È_1
 62
     5
 10
527.00191917229995
 20
-275.59127526930001
 30
0.0
 11
539.00191917229995
 21
-275.59127526930001
 31
0.0
  0
LINE
  5
71E
  8
┌▓È_1
 62
     5
 10
527.00191917229995
 20
-275.59127526930001
 30
0.0
 11
527.00191917229995
 21
-150.59127526930001
 31
0.0
  0
LINE
  5
71F
  8
┌▓È_1
 62
     5
 10
527.00191917229995
 20
-148.59127526930001
 30
0.0
 11
539.00191917229995
 21
-148.59127526930001
 31
0.0
  0
LINE
  5
720
  8
┌▓È_1
 62
     5
 10
525.00191917230006
 20
-150.59127661869999
 30
0.0
 11
525.00191917230006
 21
-275.59127526930001
 31
0.0
  0
ARC
  5
721
  8
┌▓È_1
 62
     5
 10
527.00191917229995
 20
-150.59127526930001
 30
0.0
 40
2.0
 50
90.0
 51
180.0000386554
  0
LINE
  5
722
  8
┌▓È_1
 62
     5
 10
527.00191917229995
 20
-150.59127526930001
 30
0.0
 11
539.00191917229995
 21
-150.59127526930001
 31
0.0
  0
LINE
  5
723
  8
┌▓È_1
 62
     5
 10
539.00191917229995
 20
-277.59127526930001
 30
0.0
 11
539.00191917229995
 21
-275.59127526930001
 31
0.0
  0
LINE
  5
724
  8
┌▓È_1
 62
     5
 10
539.00191917229995
 20
-148.59127526930001
 30
0.0
 11
539.00191917229995
 21
-150.59127526930001
 31
0.0
  0
INSERT
  5
726
  8
┌▓È_1
  2
CLUMP93
 10
0.0
 20
0.0
 30
0.0
  0
CIRCLE
  5
72D
  8
┌▓È_1
 10
389.25495823230011
 20
-213.09127526930001
 30
0.0
 40
7.5
  0
LINE
  5
72E
  8
┌▓È_1
  6
HIDDEN
 62
     1
 10
-148.47274312409999
 20
74.464538596799997
 30
0.0
 11
532.49670029800006
 21
74.464538596799997
 31
0.0
  0
LINE
  5
72F
  8
┌▓È_1
  6
HIDDEN
 62
     1
 10
-148.47274312409999
 20
199.4645385968
 30
0.0
 11
532.49670029800006
 21
199.4645385968
 31
0.0
  0
LINE
  5
730
  8
┌▓È_1
 10
-148.47274312409999
 20
201.4645385968
 30
0.0
 11
532.49670029800006
 21
201.4645385968
 31
0.0
  0
LINE
  5
731
  8
┌▓È_1
 10
640.72691630339989
 20
210.9645385968
 30
0.0
 11
640.72691630339989
 21
62.964538596799997
 31
0.0
  0
LINE
  5
732
  8
┌▓È_1
  6
BORDER
 62
     3
 10
532.49670029800006
 20
57.964538596799997
 30
0.0
 11
532.49670029800006
 21
215.9645385968
 31
0.0
  0
LINE
  5
733
  8
┌▓È_1
  6
BORDER
 62
     3
 10
537.49670029799995
 20
57.964538596799997
 30
0.0
 11
537.49670029799995
 21
215.9645385968
 31
0.0
  0
INSERT
  5
735
  8
┌▓È_1
  2
CLUMP94
 10
0.0
 20
0.0
 30
0.0
  0
INSERT
  5
759
  8
┌▓È_1
  2
CLUMP99
 10
0.0
 20
0.0
 30
0.0
  0
INSERT
  5
77D
  8
┌▓È_1
  2
CLUMP104
 10
0.0
 20
0.0
 30
0.0
  0
LINE
  5
788
  8
┌▓È_1
 10
630.92725687589984
 20
201.4645385968
 30
0.0
 11
630.92725687589984
 21
72.464538596799997
 31
0.0
  0
INSERT
  5
78A
  8
┌▓È_1
  2
CLUMP105
 10
0.0
 20
0.0
 30
0.0
  0
LINE
  5
795
  8
┌▓È_1
 10
631.7269163034
 20
201.9645385968
 30
0.0
 11
631.7269163034
 21
71.964538596799997
 31
0.0
  0
LINE
  5
796
  8
┌▓È_1
 10
440.72725687589991
 20
201.21478859679999
 30
0.0
 11
440.72725687589991
 21
72.714788596800005
 31
0.0
  0
LINE
  5
797
  8
┌▓È_1
 62
     5
 10
836.90060682110004
 20
199.4645385968
 30
0.0
 11
836.90060682110004
 21
74.464538596799997
 31
0.0
  0
LINE
  5
798
  8
┌▓È_1
 62
     5
 10
834.90060682110004
 20
199.4645385968
 30
0.0
 11
834.90060682110004
 21
74.464538596799997
 31
0.0
  0
LINE
  5
799
  8
┌▓È_1
 62
     5
 10
857.90060682110004
 20
72.464538596799997
 30
0.0
 11
857.90060682110004
 21
201.4645385968
 31
0.0
  0
LINE
  5
79A
  8
┌▓È_1
 62
     5
 10
832.90060682110004
 20
71.164538596799986
 30
0.0
 11
832.90060682110004
 21
202.76453859680001
 31
0.0
  0
LINE
  5
79B
  8
┌▓È_1
 62
     5
 10
887.90060682109993
 20
197.76453859680001
 30
0.0
 11
887.90060682109993
 21
76.164538596799986
 31
0.0
  0
LINE
  5
79C
  8
┌▓È_1
 62
     5
 10
735.57340067839993
 20
71.164067242599984
 30
0.0
 11
735.57340067839993
 21
136.9645385968
 31
0.0
  0
INSERT
  5
79E
  8
┌▓È_1
  6
BORDER
 62
     5
  2
CLUMP106
 10
0.0
 20
0.0
 30
0.0
  0
LINE
  5
7AA
  8
┌▓È_1
 62
     5
 10
765.57340067839993
 20
77.664067242599998
 30
0.0
 11
765.57340067839993
 21
196.26500995090001
 31
0.0
  0
LINE
  5
7AB
  8
┌▓È_1
  6
BORDER
 62
     3
 10
126.755343649
 20
-330.28418227380001
 30
0.0
 11
126.755343649
 21
-354.28418227380001
 31
0.0
  0
ARC
  5
7AC
  8
┌▓È_1
 62
     5
 10
-162.844656351
 20
-344.2841822737999
 30
0.0
 40
5.0
 50
180.0
 51
269.99999957839998
  0
LINE
  5
7AD
  8
┌▓È_1
 62
     5
 10
-167.844656351
 20
-335.28418227380001
 30
0.0
 11
-167.844656351
 21
-344.2841822737999
 31
0.0
  0
LINE
  5
7AE
  8
┌▓È_1
 62
     5
 10
421.35534364900002
 20
-335.28418227380001
 30
0.0
 11
421.35534364900002
 21
-344.2841822737999
 31
0.0
  0
INSERT
  5
7AF
  8
0
  6
CONTINUOUS
  2
*U203
 10
0.0
 20
0.0
 30
0.0
  0
INSERT
  5
7B0
  8
0
  6
CONTINUOUS
  2
*U204
 10
0.0
 20
0.0
 30
0.0
  0
INSERT
  5
7B1
  8
0
  6
CONTINUOUS
  2
*U205
 10
0.0
 20
0.0
 30
0.0
  0
INSERT
  5
7B2
  8
0
  6
CONTINUOUS
  2
*U206
 10
0.0
 20
0.0
 30
0.0
  0
INSERT
  5
7B3
  8
0
  6
CONTINUOUS
  2
*U207
 10
0.0
 20
0.0
 30
0.0
  0
LINE
  5
7B4
  8
┌▓È_1
 10
-167.844656351
 20
-148.59127526930001
 30
0.0
 11
421.35534364900002
 21
-148.59127526930001
 31
0.0
  0
LINE
  5
7B5
  8
┌▓È_1
 10
421.35534364900002
 20
-148.59127526930001
 30
0.0
 11
421.35534364900002
 21
-277.59127526930001
 31
0.0
  0
LINE
  5
7B6
  8
┌▓È_1
  6
HIDDEN
 62
     1
 10
-167.844656351
 20
-337.28418227380001
 30
0.0
 11
421.35534364900002
 21
-337.28418227380001
 31
0.0
  0
LINE
  5
7B7
  8
┌▓È_1
 62
     5
 10
-167.844656351
 20
-335.28418227380001
 30
0.0
 11
421.35534364900002
 21
-335.28418227380001
 31
0.0
  0
LINE
  5
7B8
  8
┌▓È_1
 62
     5
 10
416.35534340089993
 20
-349.28418227380001
 30
0.0
 11
-162.8446563878
 21
-349.28418227380001
 31
0.0
  0
LINE
  5
7B9
  8
┌▓È_1
  6
HIDDEN
 62
     1
 10
-167.844656351
 20
-150.59127526930001
 30
0.0
 11
421.35534364900002
 21
-150.59127526930001
 31
0.0
  0
LINE
  5
7BA
  8
┌▓È_1
 10
-167.844656351
 20
-277.59127526930001
 30
0.0
 11
421.35534364900002
 21
-277.59127526930001
 31
0.0
  0
LINE
  5
7BB
  8
┌▓È_1
  6
HIDDEN
 62
     1
 10
-167.844656351
 20
-275.59127526930001
 30
0.0
 11
421.35534364900002
 21
-275.59127526930001
 31
0.0
  0
LINE
  5
7BC
  8
┌▓È_1
  6
BORDER
 62
     3
 10
-172.844656351
 20
-213.09127526930001
 30
0.0
 11
426.35534364900002
 21
-213.09127526930001
 31
0.0
  0
LINE
  5
7BD
  8
┌▓È_1
 10
-157.47308369660001
 20
-7.5683586027
 30
0.0
 11
532.49670029800006
 21
-7.5683586027
 31
0.0
  0
LINE
  5
7BE
  8
┌▓È_1
 10
-158.2730836966
 20
-13.5683586027
 30
0.0
 11
532.49670029800006
 21
-13.5683586027
 31
0.0
  0
LINE
  5
7BF
  8
┌▓È_1
 10
532.49670029800006
 20
-37.568358602700002
 30
0.0
 11
-157.47308369660001
 21
-37.568358602700002
 31
0.0
  0
LINE
  5
7C0
  8
┌▓È_1
 10
-141.27311678140001
 20
-31.568358602699998
 30
0.0
 11
532.49670029800006
 21
-31.568358602699998
 31
0.0
  0
LINE
  5
7C1
  8
┌▓È_1
 10
532.49670029800006
 20
-23.368358602699999
 30
0.0
 11
-142.07308369660001
 21
-23.368358602699999
 31
0.0
  0
LINE
  5
7C2
  8
┌▓È_1
  6
BORDER
 62
     3
 10
-163.2730836966
 20
136.9645385968
 30
0.0
 11
645.72691630339989
 21
136.9645385968
 31
0.0
  0
LINE
  5
7C3
  8
┌▓È_1
 10
-158.2730836966
 20
210.9645385968
 30
0.0
 11
532.49670029800006
 21
210.9645385968
 31
0.0
  0
LINE
  5
7C4
  8
┌▓È_1
 10
-149.2730836966
 20
201.9645385968
 30
0.0
 11
532.49670029800006
 21
201.9645385968
 31
0.0
  0
LINE
  5
7C5
  8
┌▓È_1
 10
532.49670029800006
 20
71.964538596799997
 30
0.0
 11
-149.2730836966
 21
71.964538596799997
 31
0.0
  0
LINE
  5
7C6
  8
┌▓È_1
 10
532.49670029800006
 20
62.964538596799997
 30
0.0
 11
-158.2730836966
 21
62.964538596799997
 31
0.0
  0
LINE
  5
7C7
  8
┌▓È_1
 10
-148.47274312409999
 20
72.464538596799997
 30
0.0
 11
532.49670029800006
 21
72.464538596799997
 31
0.0
  0
ENDSEC
  0
EOF
