  0
SECTION
  2
HEADER
  9
$ACADVER
  1
AC1009
  9
$INSBASE
 10
0.0
 20
0.0
 30
0.0
  9
$EXTMIN
 10
222.05914398503
 20
-653.33593620032286
 30
-0.0015258207003583
  9
$EXTMAX
 10
1451.991616669294
 20
212.0945499218669
 30
0.0000000349246037
  9
$LIMMIN
 10
0.0
 20
0.0
  9
$LIMMAX
 10
0.0
 20
0.0
  9
$ORTHOMODE
 70
     0
  9
$REGENMODE
 70
     1
  9
$FILLMODE
 70
     1
  9
$QTEXTMODE
 70
     0
  9
$MIRRTEXT
 70
     1
  9
$DRAGMODE
 70
     2
  9
$LTSCALE
 40
1.0
  9
$OSMODE
 70
    31
  9
$ATTMODE
 70
     1
  9
$TEXTSIZE
 40
0.0
  9
$TRACEWID
 40
0.05
  9
$TEXTSTYLE
  7
STANDARD
  9
$CLAYER
  8
0
  9
$CELTYPE
  6
CONTINUOUS
  9
$CECOLOR
 62
   256
  9
$DIMSCALE
 40
1.0
  9
$DIMASZ
 40
0.18
  9
$DIMEXO
 40
0.0625
  9
$DIMDLI
 40
0.38
  9
$DIMRND
 40
0.0
  9
$DIMDLE
 40
0.0
  9
$DIMEXE
 40
0.18
  9
$DIMTP
 40
0.0
  9
$DIMTM
 40
0.0
  9
$DIMTXT
 40
0.18
  9
$DIMCEN
 40
0.09
  9
$DIMTSZ
 40
0.0
  9
$DIMTOL
 70
     0
  9
$DIMLIM
 70
     0
  9
$DIMTIH
 70
     1
  9
$DIMTOH
 70
     1
  9
$DIMSE1
 70
     0
  9
$DIMSE2
 70
     0
  9
$DIMTAD
 70
     0
  9
$DIMZIN
 70
     0
  9
$DIMBLK
  1

  9
$DIMASO
 70
     1
  9
$DIMSHO
 70
     1
  9
$DIMPOST
  1

  9
$DIMAPOST
  1

  9
$DIMALT
 70
     0
  9
$DIMALTD
 70
     2
  9
$DIMALTF
 40
25.399999999999999
  9
$DIMLFAC
 40
1.0
  9
$DIMTOFL
 70
     0
  9
$DIMTVP
 40
0.0
  9
$DIMTIX
 70
     0
  9
$DIMSOXD
 70
     0
  9
$DIMSAH
 70
     0
  9
$DIMBLK1
  1

  9
$DIMBLK2
  1

  9
$DIMSTYLE
  2
STANDARD
  9
$DIMCLRD
 70
     0
  9
$DIMCLRE
 70
     0
  9
$DIMCLRT
 70
     0
  9
$DIMTFAC
 40
1.0
  9
$DIMGAP
 40
0.09
  9
$LUNITS
 70
     2
  9
$LUPREC
 70
     4
  9
$SKETCHINC
 40
0.1
  9
$FILLETRAD
 40
0.0
  9
$AUNITS
 70
     0
  9
$AUPREC
 70
     0
  9
$MENU
  1
acad
  9
$ELEVATION
 40
0.0
  9
$PELEVATION
 40
0.0
  9
$THICKNESS
 40
0.0
  9
$LIMCHECK
 70
     0
  9
$BLIPMODE
 70
     0
  9
$CHAMFERA
 40
0.0
  9
$CHAMFERB
 40
0.0
  9
$SKPOLY
 70
     0
  9
$TDCREATE
 40
2454859.734953878
  9
$TDUPDATE
 40
2454859.7351651038
  9
$TDINDWG
 40
0.0002278704
  9
$TDUSRTIMER
 40
0.0002275
  9
$USRTIMER
 70
     1
  9
$ANGBASE
 50
0.0
  9
$ANGDIR
 70
     0
  9
$PDMODE
 70
     3
  9
$PDSIZE
 40
-1.0
  9
$PLINEWID
 40
0.0
  9
$COORDS
 70
     2
  9
$SPLFRAME
 70
     0
  9
$SPLINETYPE
 70
     6
  9
$SPLINESEGS
 70
     8
  9
$ATTDIA
 70
     0
  9
$ATTREQ
 70
     1
  9
$HANDLING
 70
     1
  9
$HANDSEED
  5
FE1
  9
$SURFTAB1
 70
     6
  9
$SURFTAB2
 70
     6
  9
$SURFTYPE
 70
     6
  9
$SURFU
 70
     6
  9
$SURFV
 70
     6
  9
$UCSNAME
  2

  9
$UCSORG
 10
0.0
 20
0.0
 30
0.0
  9
$UCSXDIR
 10
1.0
 20
0.0
 30
0.0
  9
$UCSYDIR
 10
0.0
 20
1.0
 30
0.0
  9
$PUCSNAME
  2

  9
$PUCSORG
 10
0.0
 20
0.0
 30
0.0
  9
$PUCSXDIR
 10
1.0
 20
0.0
 30
0.0
  9
$PUCSYDIR
 10
0.0
 20
1.0
 30
0.0
  9
$USERI1
 70
     0
  9
$USERI2
 70
     0
  9
$USERI3
 70
     0
  9
$USERI4
 70
     0
  9
$USERI5
 70
     0
  9
$USERR1
 40
0.0
  9
$USERR2
 40
0.0
  9
$USERR3
 40
0.0
  9
$USERR4
 40
0.0
  9
$USERR5
 40
0.0
  9
$WORLDVIEW
 70
     1
  9
$SHADEDGE
 70
     3
  9
$SHADEDIF
 70
    70
  9
$TILEMODE
 70
     1
  9
$MAXACTVP
 70
    16
  9
$PLIMCHECK
 70
     0
  9
$PEXTMIN
 10
1.0000000000000000E+020
 20
1.0000000000000000E+020
 30
1.0000000000000000E+020
  9
$PEXTMAX
 10
-1.0000000000000000E+020
 20
-1.0000000000000000E+020
 30
-1.0000000000000000E+020
  9
$PLIMMIN
 10
0.0
 20
0.0
  9
$PLIMMAX
 10
12.0
 20
9.0
  9
$UNITMODE
 70
     0
  9
$VISRETAIN
 70
     0
  9
$PLINEGEN
 70
     1
  9
$PSLTSCALE
 70
     0
  0
ENDSEC
  0
SECTION
  2
TABLES
  0
TABLE
  2
VPORT
 70
     2
  0
VPORT
  2
*ACTIVE
 70
     0
 10
0.0
 20
0.0
 11
1.0
 21
1.0
 12
837.02538032716188
 22
-220.620693139228
 13
0.0
 23
0.0
 14
1.0
 24
1.0
 15
0.0
 25
0.0
 16
0.0
 26
0.0
 36
1.0
 17
0.0
 27
0.0
 37
0.0
 40
872.61248185764396
 41
1.6343490304709141
 42
50.0
 43
0.0
 44
0.0
 50
0.0
 51
0.0
 71
     0
 72
   100
 73
     1
 74
     1
 75
     0
 76
     0
 77
     0
 78
     0
  0
ENDTAB
  0
TABLE
  2
LTYPE
 70
    11
  0
LTYPE
  2
CONTINUOUS
 70
     0
  3
Solid line
 72
    65
 73
     0
 40
0.0
  0
LTYPE
  2
DOT
 70
     0
  3
. . . . . . . . 
 72
    65
 73
     2
 40
1.0
 49
0.0
 49
-1.0
  0
LTYPE
  2
DASHED
 70
     0
  3
___  ___  ___  ___  
 72
    65
 73
     2
 40
4.0
 49
3.0
 49
-1.0
  0
LTYPE
  2
HIDDEN
 70
     0
  3
__ __ __ __ 
 72
    65
 73
     2
 40
3.0
 49
2.0
 49
-1.0
  0
LTYPE
  2
STITCH
 70
     0
  3
_ _ _ _ 
 72
    65
 73
     2
 40
2.0
 49
1.0
 49
-1.0
  0
LTYPE
  2
CENTER
 70
     0
  3
______  __  ______  __  
 72
    65
 73
     4
 40
43.0
 49
40.0
 49
-1.0
 49
1.0
 49
-1.0
  0
LTYPE
  2
DASHDOT
 70
     0
  3
____ . ____ . 
 72
    65
 73
     4
 40
32.0
 49
30.0
 49
-1.0
 49
0.0
 49
-1.0
  0
LTYPE
  2
BORDER
 70
     0
  3
__ . __ . 
 72
    65
 73
     4
 40
22.0
 49
20.0
 49
-1.0
 49
0.0
 49
-1.0
  0
LTYPE
  2
CUTTING
 70
     0
  3
________   ___   ___   
 72
    65
 73
     6
 40
45.0
 49
40.0
 49
-1.0
 49
1.0
 49
-1.0
 49
1.0
 49
-1.0
  0
LTYPE
  2
PHANTOM
 70
     0
  3
______  __  __  
 72
    65
 73
     6
 40
35.0
 49
30.0
 49
-1.0
 49
1.0
 49
-1.0
 49
1.0
 49
-1.0
  0
LTYPE
  2
DIVIDE
 70
     0
  3
____ . . ____ . . 
 72
    65
 73
     6
 40
23.0
 49
20.0
 49
-1.0
 49
0.0
 49
-1.0
 49
0.0
 49
-1.0
  0
ENDTAB
  0
TABLE
  2
LAYER
 70
     5
  0
LAYER
  2
0
 70
     0
 62
     7
  6
CONTINUOUS
  0
LAYER
  2
ë³Æ¨
 70
     0
 62
     7
  6
CONTINUOUS
  0
LAYER
  2
É}ÿg
 70
     0
 62
     7
  6
CONTINUOUS
  0
LAYER
  2
Éíû@É³
 70
     0
 62
     7
  6
CONTINUOUS
  0
LAYER
  2
┌▓È_1
 70
     0
 62
     7
  6
CONTINUOUS
  0
ENDTAB
  0
TABLE
  2
STYLE
 70
     1
  0
STYLE
  2
STANDARD
 70
     0
 40
0.0
 41
1.0
 50
0.0
 71
     0
 42
0.0
  3
txt
  4
extfont
  0
ENDTAB
  0
TABLE
  2
VIEW
 70
     0
  0
ENDTAB
  0
TABLE
  2
UCS
 70
     0
  0
ENDTAB
  0
TABLE
  2
APPID
 70
     2
  0
APPID
  2
ACAD
 70
     0
  0
APPID
  2
DCO15
 70
     0
  0
ENDTAB
  0
TABLE
  2
DIMSTYLE
 70
     4
  0
DIMSTYLE
  2
STANDARD
 70
     0
  3

  4

  5

  6

  7

 40
1.0
 41
0.18
 42
0.0625
 43
0.38
 44
0.18
 45
0.0
 46
0.0
 47
0.0
 48
0.0
140
0.18
141
0.09
142
0.0
143
25.399999999999999
144
1.0
145
0.0
146
1.0
147
0.09
 71
     0
 72
     0
 73
     1
 74
     1
 75
     0
 76
     0
 77
     0
 78
     0
170
     0
171
     2
172
     0
173
     0
174
     0
175
     0
176
     0
177
     0
178
     0
  0
DIMSTYLE
  2
VELDIM0
 70
     0
  3

  4

  5

  6

  7

 40
1.0
 41
9.0
 42
0.0625
 43
0.38
 44
0.5
 45
0.0
 46
3.0
 47
0.0
 48
0.0
140
10.794999837900001
141
0.09
142
0.0
143
25.399999999999999
144
1.0
145
0.0
146
1.0
147
0.09
 71
     0
 72
     0
 73
     0
 74
     0
 75
     0
 76
     0
 77
     0
 78
     8
170
     0
171
     2
172
     0
173
     0
174
     0
175
     0
176
     0
177
     0
178
     0
  0
DIMSTYLE
  2
VELDIM1
 70
     0
  3

  4

  5

  6

  7

 40
1.0
 41
9.0
 42
0.0625
 43
0.38
 44
1.25
 45
0.0
 46
5.0
 47
0.0
 48
0.0
140
10.794999837900001
141
0.09
142
0.0
143
25.399999999999999
144
1.0
145
0.0
146
1.0
147
0.09
 71
     0
 72
     0
 73
     0
 74
     0
 75
     0
 76
     0
 77
     0
 78
     8
170
     0
171
     2
172
     0
173
     0
174
     0
175
     0
176
     0
177
     0
178
     0
  0
DIMSTYLE
  2
VELDIM2
 70
     0
  3

  4

  5

  6

  7

 40
1.0
 41
9.0
 42
0.0625
 43
0.38
 44
1.5
 45
0.0
 46
9.0
 47
0.0
 48
0.0
140
10.794999837900001
141
0.09
142
0.0
143
25.399999999999999
144
1.0
145
0.0
146
1.0
147
0.09
 71
     0
 72
     0
 73
     0
 74
     0
 75
     0
 76
     0
 77
     0
 78
     8
170
     0
171
     2
172
     0
173
     0
174
     0
175
     0
176
     0
177
     0
178
     0
  0
ENDTAB
  0
ENDSEC
  0
SECTION
  2
BLOCKS
  0
BLOCK
  8
0
  2
$MODEL_SPACE
 70
     0
 10
0.0
 20
0.0
 30
0.0
  3
$MODEL_SPACE
  1

  0
ENDBLK
  5
E
  8
0
  0
BLOCK
 67
     1
  8
0
  2
$PAPER_SPACE
 70
     0
 10
0.0
 20
0.0
 30
0.0
  3
$PAPER_SPACE
  1

  0
ENDBLK
  5
10
 67
     1
  8
0
  0
BLOCK
  8
0
  2
*D0
 70
     1
 10
0.0
 20
0.0
 30
0.0
  3
*D0
  1

  0
TEXT
  5
4C
  8
0
 62
     0
 10
1172.4214020303
 20
84.598155640399995
 30
0.0
 40
10.794999837900001
  1
(59)
  0
LINE
  5
4D
  8
0
 62
     0
 10
1212.2401518752999
 20
26.598871457600001
 30
0.0
 11
1212.2401518752999
 21
82.193155668999978
 31
0.0
  0
LINE
  5
4E
  8
0
 62
     0
 10
1153.2401518752999
 20
50.799034498899999
 30
0.0
 11
1153.2401518752999
 21
82.193155668999978
 31
0.0
  0
LINE
  5
4F
  8
0
 62
     0
 10
1212.2401518752999
 20
81.693155668999992
 30
0.0
 11
1199.408901625
 21
81.693155668999992
 31
0.0
  0
LINE
  5
50
  8
0
 62
     0
 10
1212.2401518752999
 20
81.693155668999992
 30
0.0
 11
1166.0714021256999
 21
81.693155668999992
 31
0.0
  0
LINE
  5
51
  8
0
 62
     0
 10
1153.2401518752999
 20
81.693155668999992
 30
0.0
 11
1199.408901625
 21
81.693155668999992
 31
0.0
  0
LINE
  5
52
  8
0
 62
     0
 10
1153.2401518752999
 20
81.693155668999992
 30
0.0
 11
1166.0714021256999
 21
81.693155668999992
 31
0.0
  0
LINE
  5
53
  8
0
 62
     0
 10
1153.2401518752999
 20
81.693155668999992
 30
0.0
 11
1156.2401518752999
 21
81.693155668999992
 31
0.0
  0
SOLID
  5
54
  8
0
 62
     0
 10
1153.2401518752999
 20
81.693155668999992
 30
0.0
 11
1162.2401518752999
 21
83.943155668999992
 31
0.0
 12
1162.2401518752999
 22
79.443155668999992
 32
0.0
 13
1159.9901518752999
 23
81.693155668999992
 33
0.0
  0
LINE
  5
55
  8
0
 62
     0
 10
1212.2401518752999
 20
81.693155668999992
 30
0.0
 11
1209.2401518752999
 21
81.693155668999992
 31
0.0
  0
SOLID
  5
56
  8
0
 62
     0
 10
1212.2401518752999
 20
81.693155668999992
 30
0.0
 11
1203.2401518752999
 21
79.443155668999992
 31
0.0
 12
1203.2401518752999
 22
83.943155668999992
 32
0.0
 13
1205.4901518752999
 23
81.693155668999992
 33
0.0
  0
ENDBLK
  5
57
  8
0
  0
BLOCK
  8
0
  2
*D1
 70
     1
 10
0.0
 20
0.0
 30
0.0
  3
*D1
  1

  0
TEXT
  5
5C
  8
0
 62
     0
 10
681.99982634169999
 20
111.8088977897
 30
0.0
 40
10.794999837900001
  1
598
  0
LINE
  5
5D
  8
0
 62
     0
 10
990.52482619859995
 20
49.799581106899993
 30
0.0
 11
990.52482619859995
 21
109.4038978183
 31
0.0
  0
LINE
  5
5E
  8
0
 62
     0
 10
392.52482619860001
 20
49.799581106899993
 30
0.0
 11
392.52482619860001
 21
109.4038978183
 31
0.0
  0
LINE
  5
5F
  8
0
 62
     0
 10
990.52482619859995
 20
108.9038978183
 30
0.0
 11
707.39982596019991
 21
108.9038978183
 31
0.0
  0
LINE
  5
60
  8
0
 62
     0
 10
990.52482619859995
 20
108.9038978183
 30
0.0
 11
675.649826437
 21
108.9038978183
 31
0.0
  0
LINE
  5
61
  8
0
 62
     0
 10
392.52482619860001
 20
108.9038978183
 30
0.0
 11
707.39982596019991
 21
108.9038978183
 31
0.0
  0
LINE
  5
62
  8
0
 62
     0
 10
392.52482619860001
 20
108.9038978183
 30
0.0
 11
675.649826437
 21
108.9038978183
 31
0.0
  0
LINE
  5
63
  8
0
 62
     0
 10
392.52482619860001
 20
108.9038978183
 30
0.0
 11
395.52482619860001
 21
108.9038978183
 31
0.0
  0
SOLID
  5
64
  8
0
 62
     0
 10
392.52482619860001
 20
108.9038978183
 30
0.0
 11
401.52482619860001
 21
111.1538978183
 31
0.0
 12
401.52482619860001
 22
106.6538978183
 32
0.0
 13
399.27482619860001
 23
108.9038978183
 33
0.0
  0
LINE
  5
65
  8
0
 62
     0
 10
990.52482619859995
 20
108.9038978183
 30
0.0
 11
987.52482619859995
 21
108.9038978183
 31
0.0
  0
SOLID
  5
66
  8
0
 62
     0
 10
990.52482619859995
 20
108.9038978183
 30
0.0
 11
981.52482619859995
 21
106.6538978183
 31
0.0
 12
981.52482619859995
 22
111.1538978183
 32
0.0
 13
983.77482619859995
 23
108.9038978183
 33
0.0
  0
ENDBLK
  5
67
  8
0
  0
BLOCK
  8
0
  2
*D2
 70
     1
 10
0.0
 20
0.0
 30
0.0
  3
*D2
  1

  0
TEXT
  5
6B
  8
0
 62
     0
 10
831.49982634169987
 20
89.704581078199979
 30
0.0
 40
10.794999837900001
  1
299
  0
LINE
  5
6C
  8
0
 62
     0
 10
990.52482619859995
 20
49.799581106899993
 30
0.0
 11
990.52482619859995
 21
87.299581106900007
 31
0.0
  0
LINE
  5
6D
  8
0
 62
     0
 10
691.52482619859995
 20
57.799581106899993
 30
0.0
 11
691.52482619859995
 21
87.299581106900007
 31
0.0
  0
LINE
  5
6E
  8
0
 62
     0
 10
990.52482619859995
 20
86.799581106900007
 30
0.0
 11
856.89982596020002
 21
86.799581106900007
 31
0.0
  0
LINE
  5
6F
  8
0
 62
     0
 10
990.52482619859995
 20
86.799581106900007
 30
0.0
 11
825.14982643699989
 21
86.799581106900007
 31
0.0
  0
LINE
  5
70
  8
0
 62
     0
 10
691.52482619859995
 20
86.799581106900007
 30
0.0
 11
856.89982596020002
 21
86.799581106900007
 31
0.0
  0
LINE
  5
71
  8
0
 62
     0
 10
691.52482619859995
 20
86.799581106900007
 30
0.0
 11
825.14982643699989
 21
86.799581106900007
 31
0.0
  0
LINE
  5
72
  8
0
 62
     0
 10
691.52482619859995
 20
86.799581106900007
 30
0.0
 11
694.52482619859995
 21
86.799581106900007
 31
0.0
  0
SOLID
  5
73
  8
0
 62
     0
 10
691.52482619859995
 20
86.799581106900007
 30
0.0
 11
700.52482619859995
 21
89.049581106900007
 31
0.0
 12
700.52482619859995
 22
84.549581106899979
 32
0.0
 13
698.27482619859995
 23
86.799581106900007
 33
0.0
  0
LINE
  5
74
  8
0
 62
     0
 10
990.52482619859995
 20
86.799581106900007
 30
0.0
 11
987.52482619859995
 21
86.799581106900007
 31
0.0
  0
SOLID
  5
75
  8
0
 62
     0
 10
990.52482619859995
 20
86.799581106900007
 30
0.0
 11
981.52482619859995
 21
84.549581106899979
 31
0.0
 12
981.52482619859995
 22
89.049581106900007
 32
0.0
 13
983.77482619859995
 23
86.799581106900007
 33
0.0
  0
ENDBLK
  5
76
  8
0
  0
BLOCK
  8
0
  2
*D3
 70
     1
 10
0.0
 20
0.0
 30
0.0
  3
*D3
  1

  0
TEXT
  5
7A
  8
0
 62
     0
 10
1231.9984909770999
 20
106.922372483
 30
0.0
 40
10.794999837900001
  1
(193.5)
  0
LINE
  5
7B
  8
0
 62
     0
 10
1346.7401628717
 20
18.899229808199991
 30
0.0
 11
1346.7401628717
 21
104.5173725116
 31
0.0
  0
LINE
  5
7C
  8
0
 62
     0
 10
1153.2401518752999
 20
50.799034498899999
 30
0.0
 11
1153.2401518752999
 21
104.5173725116
 31
0.0
  0
LINE
  5
7D
  8
0
 62
     0
 10
1346.7401628717
 20
104.0173725116
 30
0.0
 11
1274.3318236745999
 21
104.0173725116
 31
0.0
  0
LINE
  5
7E
  8
0
 62
     0
 10
1346.7401628717
 20
104.0173725116
 30
0.0
 11
1225.6484910724
 21
104.0173725116
 31
0.0
  0
LINE
  5
7F
  8
0
 62
     0
 10
1153.2401518752999
 20
104.0173725116
 30
0.0
 11
1274.3318236745999
 21
104.0173725116
 31
0.0
  0
LINE
  5
80
  8
0
 62
     0
 10
1153.2401518752999
 20
104.0173725116
 30
0.0
 11
1225.6484910724
 21
104.0173725116
 31
0.0
  0
LINE
  5
81
  8
0
 62
     0
 10
1153.2401518752999
 20
104.0173725116
 30
0.0
 11
1156.2401518752999
 21
104.0173725116
 31
0.0
  0
SOLID
  5
82
  8
0
 62
     0
 10
1153.2401518752999
 20
104.0173725116
 30
0.0
 11
1162.2401518752999
 21
106.2673725116
 31
0.0
 12
1162.2401518752999
 22
101.7673725116
 32
0.0
 13
1159.9901518752999
 23
104.0173725116
 33
0.0
  0
LINE
  5
83
  8
0
 62
     0
 10
1346.7401628717
 20
104.0173725116
 30
0.0
 11
1343.7401628717
 21
104.0173725116
 31
0.0
  0
SOLID
  5
84
  8
0
 62
     0
 10
1346.7401628717
 20
104.0173725116
 30
0.0
 11
1337.7401628717
 21
101.7673725116
 31
0.0
 12
1337.7401628717
 22
106.2673725116
 32
0.0
 13
1339.9901628717
 23
104.0173725116
 33
0.0
  0
ENDBLK
  5
85
  8
0
  0
BLOCK
  8
0
  2
*D4
 70
     1
 10
0.0
 20
0.0
 30
0.0
  3
*D4
  1

  0
TEXT
  5
89
  8
0
 62
     0
 10
1250.4218288554
 20
84.598155486599993
 30
0.0
 40
10.794999837900001
  1
104.5
  0
LINE
  5
8A
  8
0
 62
     0
 10
1316.6493387477001
 20
20.424467097000001
 30
0.0
 11
1316.6493387477001
 21
82.193155515200004
 31
0.0
  0
LINE
  5
8B
  8
0
 62
     0
 10
1212.2401518752999
 20
26.598871457600001
 30
0.0
 11
1212.2401518752999
 21
82.193155515200004
 31
0.0
  0
LINE
  5
8C
  8
0
 62
     0
 10
1316.6493387477001
 20
81.693155515200004
 30
0.0
 11
1284.8176616722001
 21
81.693155515200004
 31
0.0
  0
LINE
  5
8D
  8
0
 62
     0
 10
1316.6493387477001
 20
81.693155515200004
 30
0.0
 11
1244.0718289508
 21
81.693155515200004
 31
0.0
  0
LINE
  5
8E
  8
0
 62
     0
 10
1212.2401518752999
 20
81.693155515200004
 30
0.0
 11
1284.8176616722001
 21
81.693155515200004
 31
0.0
  0
LINE
  5
8F
  8
0
 62
     0
 10
1212.2401518752999
 20
81.693155515200004
 30
0.0
 11
1244.0718289508
 21
81.693155515200004
 31
0.0
  0
LINE
  5
90
  8
0
 62
     0
 10
1212.2401518752999
 20
81.693155515200004
 30
0.0
 11
1215.2401518752999
 21
81.693155515200004
 31
0.0
  0
SOLID
  5
91
  8
0
 62
     0
 10
1212.2401518752999
 20
81.693155515200004
 30
0.0
 11
1221.2401518752999
 21
83.943155515200004
 31
0.0
 12
1221.2401518752999
 22
79.443155515200004
 32
0.0
 13
1218.9901518752999
 23
81.693155515200004
 33
0.0
  0
LINE
  5
92
  8
0
 62
     0
 10
1316.6493387477001
 20
81.693155515200004
 30
0.0
 11
1313.6493387477001
 21
81.693155515200004
 31
0.0
  0
SOLID
  5
93
  8
0
 62
     0
 10
1316.6493387477001
 20
81.693155515200004
 30
0.0
 11
1307.6493387477001
 21
79.443155515200004
 31
0.0
 12
1307.6493387477001
 22
83.943155515200004
 32
0.0
 13
1309.8993387477001
 23
81.693155515200004
 33
0.0
  0
ENDBLK
  5
94
  8
0
  0
BLOCK
  8
0
  2
*D5
 70
     1
 10
0.0
 20
0.0
 30
0.0
  3
*D5
  1

  0
TEXT
  5
98
  8
0
 62
     0
 10
370.72828951460002
 20
-244.3071119491
 30
0.0
 40
10.794999837900001
  1
(45)
 50
90.0
  0
LINE
  5
99
  8
0
 62
     0
 10
393.52482619860001
 20
-211.6381979045
 30
0.0
 11
373.13328948599991
 21
-211.6381979045
 31
0.0
  0
LINE
  5
9A
  8
0
 62
     0
 10
409.5248261985999
 20
-256.33852630360002
 30
0.0
 11
373.13328948599991
 21
-256.33852630360002
 31
0.0
  0
LINE
  5
9B
  8
0
 62
     0
 10
373.63328948600002
 20
-211.6381979045
 30
0.0
 11
373.63328948600002
 21
-217.31961235439999
 31
0.0
  0
LINE
  5
9C
  8
0
 62
     0
 10
373.63328948600002
 20
-211.6381979045
 30
0.0
 11
373.63328948600002
 21
-250.6571118537
 31
0.0
  0
LINE
  5
9D
  8
0
 62
     0
 10
373.63328948600002
 20
-256.33852630360002
 30
0.0
 11
373.63328948600002
 21
-217.31961235439999
 31
0.0
  0
LINE
  5
9E
  8
0
 62
     0
 10
373.63328948600002
 20
-256.33852630360002
 30
0.0
 11
373.63328948600002
 21
-250.6571118537
 31
0.0
  0
LINE
  5
9F
  8
0
 62
     0
 10
373.63328948600002
 20
-256.33852630360002
 30
0.0
 11
373.63328948600002
 21
-259.33852630360002
 31
0.0
  0
SOLID
  5
A0
  8
0
 62
     0
 10
373.63328948600002
 20
-256.33852630360002
 30
0.0
 11
375.88328948600002
 21
-265.33852630360002
 31
0.0
 12
371.38328948600002
 22
-265.33852630360002
 32
0.0
 13
373.63328948600002
 23
-263.08852630360002
 33
0.0
  0
LINE
  5
A1
  8
0
 62
     0
 10
373.63328948600002
 20
-211.6381979045
 30
0.0
 11
373.63328948600002
 21
-208.6381979045
 31
0.0
  0
SOLID
  5
A2
  8
0
 62
     0
 10
373.63328948600002
 20
-211.6381979045
 30
0.0
 11
371.38328948600002
 21
-202.6381979045
 31
0.0
 12
375.88328948600002
 22
-202.6381979045
 32
0.0
 13
373.63328948600002
 23
-204.8881979045
 33
0.0
  0
ENDBLK
  5
A3
  8
0
  0
BLOCK
  8
0
  2
*D6
 70
     1
 10
0.0
 20
0.0
 30
0.0
  3
*D6
  1

  0
TEXT
  5
A7
  8
0
 62
     0
 10
1325.3447509051
 20
84.598155270299998
 30
0.0
 40
10.794999837900001
  1
30
  0
LINE
  5
A8
  8
0
 62
     0
 10
1346.7401628717
 20
18.899229808199991
 30
0.0
 11
1346.7401628717
 21
82.193155298900024
 31
0.0
  0
LINE
  5
A9
  8
0
 62
     0
 10
1316.6493387477001
 20
20.424467097000001
 30
0.0
 11
1316.6493387477001
 21
82.193155298900024
 31
0.0
  0
LINE
  5
AA
  8
0
 62
     0
 10
1346.7401628717
 20
81.69315529890001
 30
0.0
 11
1344.3947506188999
 21
81.69315529890001
 31
0.0
  0
LINE
  5
AB
  8
0
 62
     0
 10
1346.7401628717
 20
81.69315529890001
 30
0.0
 11
1318.9947510003999
 21
81.69315529890001
 31
0.0
  0
LINE
  5
AC
  8
0
 62
     0
 10
1316.6493387477001
 20
81.69315529890001
 30
0.0
 11
1344.3947506188999
 21
81.69315529890001
 31
0.0
  0
LINE
  5
AD
  8
0
 62
     0
 10
1316.6493387477001
 20
81.69315529890001
 30
0.0
 11
1318.9947510003999
 21
81.69315529890001
 31
0.0
  0
LINE
  5
AE
  8
0
 62
     0
 10
1316.6493387477001
 20
81.69315529890001
 30
0.0
 11
1313.6493387477001
 21
81.69315529890001
 31
0.0
  0
SOLID
  5
AF
  8
0
 62
     0
 10
1316.6493387477001
 20
81.69315529890001
 30
0.0
 11
1307.6493387477001
 21
79.44315529890001
 31
0.0
 12
1307.6493387477001
 22
83.943155298899995
 32
0.0
 13
1309.8993387477001
 23
81.69315529890001
 33
0.0
  0
LINE
  5
B0
  8
0
 62
     0
 10
1346.7401628717
 20
81.69315529890001
 30
0.0
 11
1349.7401628717
 21
81.69315529890001
 31
0.0
  0
SOLID
  5
B1
  8
0
 62
     0
 10
1346.7401628717
 20
81.69315529890001
 30
0.0
 11
1355.7401628717
 21
83.943155298899995
 31
0.0
 12
1355.7401628717
 22
79.44315529890001
 32
0.0
 13
1353.4901628717
 23
81.69315529890001
 33
0.0
  0
ENDBLK
  5
B2
  8
0
  0
BLOCK
  8
0
  2
*D7
 70
     1
 10
0.0
 20
0.0
 30
0.0
  3
*D7
  1

  0
TEXT
  5
B6
  8
0
 62
     0
 10
1207.0816709927001
 20
-114.14331791630001
 30
0.0
 40
10.794999837900001
  1
7
 50
90.0
  0
LINE
  5
B7
  8
0
 62
     0
 10
1191.2401518752999
 20
-101.5009231352
 30
0.0
 11
1210.4866709641001
 21
-101.5009231352
 31
0.0
  0
LINE
  5
B8
  8
0
 62
     0
 10
1190.5401518752999
 20
-94.500923135199997
 30
0.0
 11
1210.4866709641001
 21
-94.500923135199997
 31
0.0
  0
LINE
  5
B9
  8
0
 62
     0
 10
1209.9866709641001
 20
-101.5009231352
 30
0.0
 11
1209.9866709641001
 21
-101.443318107
 31
0.0
  0
LINE
  5
BA
  8
0
 62
     0
 10
1209.9866709641001
 20
-101.5009231352
 30
0.0
 11
1209.9866709641001
 21
-120.4933178209
 31
0.0
  0
LINE
  5
BB
  8
0
 62
     0
 10
1209.9866709641001
 20
-94.500923135199997
 30
0.0
 11
1209.9866709641001
 21
-101.443318107
 31
0.0
  0
LINE
  5
BC
  8
0
 62
     0
 10
1209.9866709641001
 20
-94.500923135199997
 30
0.0
 11
1209.9866709641001
 21
-120.4933178209
 31
0.0
  0
LINE
  5
BD
  8
0
 62
     0
 10
1209.9866709641001
 20
-94.500923135199997
 30
0.0
 11
1209.9866709641001
 21
-91.500923135200011
 31
0.0
  0
SOLID
  5
BE
  8
0
 62
     0
 10
1209.9866709641001
 20
-94.500923135199997
 30
0.0
 11
1207.7366709641001
 21
-85.500923135200026
 31
0.0
 12
1212.2366709641001
 22
-85.500923135200026
 32
0.0
 13
1209.9866709641001
 23
-87.750923135200011
 33
0.0
  0
LINE
  5
BF
  8
0
 62
     0
 10
1209.9866709641001
 20
-101.5009231352
 30
0.0
 11
1209.9866709641001
 21
-104.5009231352
 31
0.0
  0
SOLID
  5
C0
  8
0
 62
     0
 10
1209.9866709641001
 20
-101.5009231352
 30
0.0
 11
1212.2366709641001
 21
-110.5009231352
 31
0.0
 12
1207.7366709641001
 22
-110.5009231352
 32
0.0
 13
1209.9866709641001
 23
-108.2509231352
 33
0.0
  0
ENDBLK
  5
C1
  8
0
  0
BLOCK
  8
0
  2
*D8
 70
     1
 10
0.0
 20
0.0
 30
0.0
  3
*D8
  1

  0
TEXT
  5
C5
  8
0
 62
     0
 10
1166.3901519706999
 20
-118.5557009958
 30
0.0
 40
10.794999837900001
  1
35
  0
LINE
  5
C6
  8
0
 62
     0
 10
1155.2401518752999
 20
-96.2009231352
 30
0.0
 11
1155.2401518752999
 21
-121.9607009672
 31
0.0
  0
LINE
  5
C7
  8
0
 62
     0
 10
1190.2401518752999
 20
-102.5009231352
 30
0.0
 11
1190.2401518752999
 21
-121.9607009672
 31
0.0
  0
LINE
  5
C8
  8
0
 62
     0
 10
1155.2401518752999
 20
-121.4607009672
 30
0.0
 11
1185.4401516846001
 21
-121.4607009672
 31
0.0
  0
LINE
  5
C9
  8
0
 62
     0
 10
1155.2401518752999
 20
-121.4607009672
 30
0.0
 11
1160.0401520661001
 21
-121.4607009672
 31
0.0
  0
LINE
  5
CA
  8
0
 62
     0
 10
1190.2401518752999
 20
-121.4607009672
 30
0.0
 11
1185.4401516846001
 21
-121.4607009672
 31
0.0
  0
LINE
  5
CB
  8
0
 62
     0
 10
1190.2401518752999
 20
-121.4607009672
 30
0.0
 11
1160.0401520661001
 21
-121.4607009672
 31
0.0
  0
LINE
  5
CC
  8
0
 62
     0
 10
1190.2401518752999
 20
-121.4607009672
 30
0.0
 11
1193.2401518752999
 21
-121.4607009672
 31
0.0
  0
SOLID
  5
CD
  8
0
 62
     0
 10
1190.2401518752999
 20
-121.4607009672
 30
0.0
 11
1199.2401518752999
 21
-119.2107009672
 31
0.0
 12
1199.2401518752999
 22
-123.7107009672
 32
0.0
 13
1196.9901518752999
 23
-121.4607009672
 33
0.0
  0
LINE
  5
CE
  8
0
 62
     0
 10
1155.2401518752999
 20
-121.4607009672
 30
0.0
 11
1152.2401518752999
 21
-121.4607009672
 31
0.0
  0
SOLID
  5
CF
  8
0
 62
     0
 10
1155.2401518752999
 20
-121.4607009672
 30
0.0
 11
1146.2401518752999
 21
-123.7107009672
 31
0.0
 12
1146.2401518752999
 22
-119.2107009672
 32
0.0
 13
1148.4901518752999
 23
-121.4607009672
 33
0.0
  0
ENDBLK
  5
D0
  8
0
  0
BLOCK
  8
0
  2
*D9
 70
     1
 10
0.0
 20
0.0
 30
0.0
  3
*D9
  1

  0
TEXT
  5
D4
  8
0
 62
     0
 10
1171.1085212162
 20
-38.700353799600002
 30
0.0
 40
10.794999837900001
  1
3
  0
LINE
  5
D5
  8
0
 62
     0
 10
1158.2401518752999
 20
-37.801512657000004
 30
0.0
 11
1158.2401518752999
 21
-42.105353770999997
 31
0.0
  0
LINE
  5
D6
  8
0
 62
     0
 10
1155.2401518752999
 20
-37.801512657000004
 30
0.0
 11
1155.2401518752999
 21
-42.105353770999997
 31
0.0
  0
LINE
  5
D7
  8
0
 62
     0
 10
1158.2401518752999
 20
-41.60535377099999
 30
0.0
 11
1183.8085210255001
 21
-41.60535377099999
 31
0.0
  0
LINE
  5
D8
  8
0
 62
     0
 10
1158.2401518752999
 20
-41.60535377099999
 30
0.0
 11
1164.7585213115999
 21
-41.60535377099999
 31
0.0
  0
LINE
  5
D9
  8
0
 62
     0
 10
1155.2401518752999
 20
-41.60535377099999
 30
0.0
 11
1183.8085210255001
 21
-41.60535377099999
 31
0.0
  0
LINE
  5
DA
  8
0
 62
     0
 10
1155.2401518752999
 20
-41.60535377099999
 30
0.0
 11
1164.7585213115999
 21
-41.60535377099999
 31
0.0
  0
LINE
  5
DB
  8
0
 62
     0
 10
1155.2401518752999
 20
-41.60535377099999
 30
0.0
 11
1152.2401518752999
 21
-41.60535377099999
 31
0.0
  0
SOLID
  5
DC
  8
0
 62
     0
 10
1155.2401518752999
 20
-41.60535377099999
 30
0.0
 11
1146.2401518752999
 21
-43.855353770999997
 31
0.0
 12
1146.2401518752999
 22
-39.355353770999997
 32
0.0
 13
1148.4901518752999
 23
-41.60535377099999
 33
0.0
  0
LINE
  5
DD
  8
0
 62
     0
 10
1158.2401518752999
 20
-41.60535377099999
 30
0.0
 11
1161.2401518752999
 21
-41.60535377099999
 31
0.0
  0
SOLID
  5
DE
  8
0
 62
     0
 10
1158.2401518752999
 20
-41.60535377099999
 30
0.0
 11
1167.2401518752999
 21
-39.355353770999997
 31
0.0
 12
1167.2401518752999
 22
-43.855353770999997
 32
0.0
 13
1164.9901518752999
 23
-41.60535377099999
 33
0.0
  0
ENDBLK
  5
DF
  8
0
  0
BLOCK
  8
0
  2
*D10
 70
     1
 10
0.0
 20
0.0
 30
0.0
  3
*D10
  1

  0
TEXT
  5
E3
  8
0
 62
     0
 10
1020.3571309147
 20
-31.725418750100001
 30
0.0
 40
10.794999837900001
  1
148
 50
90.0
  0
LINE
  5
E4
  8
0
 62
     0
 10
988.52482619859995
 20
-96.200418893099993
 30
0.0
 11
1023.7621308861
 21
-96.200418893099993
 31
0.0
  0
LINE
  5
E5
  8
0
 62
     0
 10
988.52482619859995
 20
51.799581106899993
 30
0.0
 11
1023.7621308861
 21
51.799581106899993
 31
0.0
  0
LINE
  5
E6
  8
0
 62
     0
 10
1023.2621308861
 20
-96.200418893099993
 30
0.0
 11
1023.2621308861
 21
-6.3254191315999986
 31
0.0
  0
LINE
  5
E7
  8
0
 62
     0
 10
1023.2621308861
 20
-96.200418893099993
 30
0.0
 11
1023.2621308861
 21
-38.075418654700002
 31
0.0
  0
LINE
  5
E8
  8
0
 62
     0
 10
1023.2621308861
 20
51.799581106899993
 30
0.0
 11
1023.2621308861
 21
-6.3254191315999986
 31
0.0
  0
LINE
  5
E9
  8
0
 62
     0
 10
1023.2621308861
 20
51.799581106899993
 30
0.0
 11
1023.2621308861
 21
-38.075418654700002
 31
0.0
  0
LINE
  5
EA
  8
0
 62
     0
 10
1023.2621308861
 20
51.799581106899993
 30
0.0
 11
1023.2621308861
 21
48.799581106899993
 31
0.0
  0
SOLID
  5
EB
  8
0
 62
     0
 10
1023.2621308861
 20
51.799581106899993
 30
0.0
 11
1025.5121308861001
 21
42.799581106899993
 31
0.0
 12
1021.0121308861
 22
42.799581106899993
 32
0.0
 13
1023.2621308861
 23
45.049581106899993
 33
0.0
  0
LINE
  5
EC
  8
0
 62
     0
 10
1023.2621308861
 20
-96.200418893099993
 30
0.0
 11
1023.2621308861
 21
-93.200418893099993
 31
0.0
  0
SOLID
  5
ED
  8
0
 62
     0
 10
1023.2621308861
 20
-96.200418893099993
 30
0.0
 11
1021.0121308861
 21
-87.200418893099993
 31
0.0
 12
1025.5121308861001
 22
-87.200418893099993
 32
0.0
 13
1023.2621308861
 23
-89.450418893099993
 33
0.0
  0
ENDBLK
  5
EE
  8
0
  0
BLOCK
  8
0
  2
*D11
 70
     1
 10
0.0
 20
0.0
 30
0.0
  3
*D11
  1

  0
TEXT
  5
F2
  8
0
 62
     0
 10
548.11982622719995
 20
-65.375418845500008
 30
0.0
 40
10.794999837900001
  1
8
 50
90.0
  0
LINE
  5
F3
  8
0
 62
     0
 10
522.02482619859995
 20
-66.200418893100007
 30
0.0
 11
551.52482619859995
 21
-66.200418893100007
 31
0.0
  0
LINE
  5
F4
  8
0
 62
     0
 10
522.02482619859995
 20
-58.200418893100007
 30
0.0
 11
551.52482619859995
 21
-58.200418893100007
 31
0.0
  0
LINE
  5
F5
  8
0
 62
     0
 10
551.02482619859995
 20
-66.200418893100007
 30
0.0
 11
551.02482619859995
 21
-66.200418893100007
 31
0.0
  0
LINE
  5
F6
  8
0
 62
     0
 10
551.02482619859995
 20
-66.200418893100007
 30
0.0
 11
551.02482619859995
 21
-58.200418893100007
 31
0.0
  0
LINE
  5
F7
  8
0
 62
     0
 10
551.02482619859995
 20
-58.200418893100007
 30
0.0
 11
551.02482619859995
 21
-66.200418893100007
 31
0.0
  0
LINE
  5
F8
  8
0
 62
     0
 10
551.02482619859995
 20
-58.200418893100007
 30
0.0
 11
551.02482619859995
 21
-58.200418893100007
 31
0.0
  0
LINE
  5
F9
  8
0
 62
     0
 10
551.02482619859995
 20
-58.200418893100007
 30
0.0
 11
551.02482619859995
 21
-55.2004188931
 31
0.0
  0
SOLID
  5
FA
  8
0
 62
     0
 10
551.02482619859995
 20
-58.200418893100007
 30
0.0
 11
548.77482619859995
 21
-49.200418893100007
 31
0.0
 12
553.27482619859995
 22
-49.200418893100007
 32
0.0
 13
551.02482619859995
 23
-51.4504188931
 33
0.0
  0
LINE
  5
FB
  8
0
 62
     0
 10
551.02482619859995
 20
-66.200418893100007
 30
0.0
 11
551.02482619859995
 21
-69.200418893100007
 31
0.0
  0
SOLID
  5
FC
  8
0
 62
     0
 10
551.02482619859995
 20
-66.200418893100007
 30
0.0
 11
553.27482619859995
 21
-75.200418893099993
 31
0.0
 12
548.77482619859995
 22
-75.200418893099993
 32
0.0
 13
551.02482619859995
 23
-72.950418893100007
 33
0.0
  0
ENDBLK
  5
FD
  8
0
  0
BLOCK
  8
0
  2
CLUMP0
 70
     0
 10
0.0
 20
0.0
 30
0.0
  3
CLUMP0
  1

  0
LINE
  5
105
  8
É}ÿg
 10
1176.9710610201
 20
-617.89676136809999
 30
0.0
 11
1179.9710610201
 21
-613.39676136809999
 31
0.0
  0
LINE
  5
106
  8
É}ÿg
 10
1132.9892428383
 20
-613.39676136809999
 30
0.0
 11
1132.9892428383
 21
-619.39676136809999
 31
0.0
  0
LINE
  5
107
  8
É}ÿg
 10
1204.1703317705001
 20
-623.89676136809987
 30
0.0
 11
1213.6235089649001
 21
-623.89676136809987
 31
0.0
  0
LINE
  5
108
  8
É}ÿg
 10
1152.9710610201
 20
-634.39676136809999
 30
0.0
 11
1160.4710610201
 21
-634.39676136809999
 31
0.0
  0
LINE
  5
109
  8
É}ÿg
 10
1152.9710610201
 20
-620.36309217049995
 30
0.0
 11
1164.9710610201
 21
-620.36309217049995
 31
0.0
  0
INSERT
  5
10A
  8
0
  6
CONTINUOUS
  2
*U87
 10
0.0
 20
0.0
 30
0.0
  0
LINE
  5
10B
  8
É}ÿg
 62
     5
 10
1227.0073033734
 20
154.3732197313
 30
0.0
 11
1227.0073033734
 21
199.3732197313
 31
0.0
  0
LINE
  5
10C
  8
É}ÿg
 62
     5
 10
1377.0073033734
 20
154.3732197313
 30
0.0
 11
1377.0073033734
 21
199.3732197313
 31
0.0
  0
LINE
  5
10D
  8
É}ÿg
 62
     5
 10
1179.0073033734
 20
154.3732197313
 30
0.0
 11
1179.0073033734
 21
199.3732197313
 31
0.0
  0
LINE
  5
10E
  8
É}ÿg
 62
     5
 10
1158.7294472153001
 20
170.66559498429999
 30
0.0
 11
1173.5794472153
 21
170.66559498429999
 31
0.0
  0
LINE
  5
10F
  8
É}ÿg
 62
     5
 10
1166.1544472153
 20
168.67607223050001
 30
0.0
 11
1173.5794472153
 21
155.81559498429999
 31
0.0
  0
LINE
  5
110
  8
É}ÿg
 62
     5
 10
1155.0073033734
 20
154.3732197313
 30
0.0
 11
1155.0073033734
 21
199.3732197313
 31
0.0
  0
LINE
  5
111
  8
É}ÿg
 62
     5
 10
1407.0073033734
 20
154.3732197313
 30
0.0
 11
1407.0073033734
 21
199.3732197313
 31
0.0
  0
LINE
  5
112
  8
É}ÿg
 62
     5
 10
1155.0073033734
 20
184.3732197313
 30
0.0
 11
1437.0073033734
 21
184.3732197313
 31
0.0
  0
LINE
  5
113
  8
É}ÿg
 62
     5
 10
1155.0073033734
 20
169.3732197313
 30
0.0
 11
1437.0073033734
 21
169.3732197313
 31
0.0
  0
LINE
  5
114
  8
É}ÿg
 62
     5
 10
1155.0073033734
 20
154.3732197313
 30
0.0
 11
1437.0073033734
 21
154.3732197313
 31
0.0
  0
INSERT
  5
115
  8
0
  6
CONTINUOUS
  2
*U88
 10
0.0
 20
0.0
 30
0.0
  0
LINE
  5
116
  8
É}ÿg
 62
     5
 10
237.00730337339999
 20
-640.62678026870003
 30
0.0
 11
237.00730337339999
 21
199.3732197313
 31
0.0
  0
LINE
  5
117
  8
É}ÿg
 62
     5
 10
237.00730337339999
 20
-640.62678026870003
 30
0.0
 11
1437.0073033734
 21
-640.62678026870003
 31
0.0
  0
LINE
  5
118
  8
É}ÿg
 62
     5
 10
1437.0073033734
 20
199.3732197313
 30
0.0
 11
237.00730337339999
 21
199.3732197313
 31
0.0
  0
LINE
  5
119
  8
É}ÿg
 62
     5
 10
1437.0073033734
 20
-640.62678026870003
 30
0.0
 11
1437.0073033734
 21
199.3732197313
 31
0.0
  0
LINE
  5
11A
  8
É}ÿg
 10
1152.9710610201
 20
-621.32942297290003
 30
0.0
 11
1152.9710610201
 21
-620.36309217049995
 31
0.0
  0
LINE
  5
11B
  8
É}ÿg
 10
1116.0359314036
 20
-619.39676136809999
 30
0.0
 11
1116.0359314036
 21
-623.89676136809987
 31
0.0
  0
LINE
  5
11C
  8
É}ÿg
 62
     5
 10
1166.1544472153
 20
183.52607223050001
 30
0.0
 11
1173.5794472153
 21
170.66559498429999
 31
0.0
  0
LINE
  5
11D
  8
É}ÿg
 62
     5
 10
1166.1544472153
 20
168.67607223050001
 30
0.0
 11
1158.7294472153001
 21
155.81559498429999
 31
0.0
  0
INSERT
  5
11E
  8
0
  6
CONTINUOUS
  2
*U89
 10
0.0
 20
0.0
 30
0.0
  0
LINE
  5
11F
  8
É}ÿg
  6
DOT
 10
222.06730337339999
 20
-653.31678026869997
 30
0.0
 11
222.06730337339999
 21
212.06321973129999
 31
0.0
  0
LINE
  5
120
  8
É}ÿg
  6
DOT
 10
1451.9473033734
 20
-653.31678026869997
 30
0.0
 11
1451.9473033734
 21
212.06321973129999
 31
0.0
  0
LINE
  5
121
  8
É}ÿg
  6
DOT
 10
222.06730337339999
 20
-653.31678026869997
 30
0.0
 11
1451.9473033734
 21
-653.31678026869997
 31
0.0
  0
LINE
  5
122
  8
É}ÿg
 10
1126.9892428383
 20
-628.39676136809987
 30
0.0
 11
1126.9892428383
 21
-623.89676136809987
 31
0.0
  0
LINE
  5
123
  8
É}ÿg
  6
DOT
 10
1451.9473033734
 20
212.06321973129999
 30
0.0
 11
222.06730337339999
 21
212.06321973129999
 31
0.0
  0
LINE
  5
124
  8
É}ÿg
 10
1119.4892428383
 20
-623.89676136809987
 30
0.0
 11
1119.4892428383
 21
-628.39676136809987
 31
0.0
  0
LINE
  5
125
  8
É}ÿg
 10
1140.4892428383
 20
-617.89676136809999
 30
0.0
 11
1144.9892428383
 21
-613.39676136809999
 31
0.0
  0
LINE
  5
126
  8
É}ÿg
 10
1196.4075089649
 20
-626.29676136809985
 30
0.0
 11
1195.7035089649
 21
-623.89676136809987
 31
0.0
  0
LINE
  5
127
  8
É}ÿg
 10
1126.9892428383
 20
-619.39676136809999
 30
0.0
 11
1126.9892428383
 21
-617.89676136809999
 31
0.0
  0
LINE
  5
128
  8
É}ÿg
 10
1173.5592190763
 20
-627.94415499499985
 30
0.0
 11
1173.0249128969999
 21
-628.46728942749985
 31
0.0
  0
LINE
  5
129
  8
É}ÿg
 10
1176.9710610201
 20
-617.89676136809999
 30
0.0
 11
1179.9710610201
 21
-613.39676136809999
 31
0.0
  0
LINE
  5
12A
  8
É}ÿg
 10
1213.6235089649001
 20
-626.29676136809985
 30
0.0
 11
1213.6235089649001
 21
-631.69676136809994
 31
0.0
  0
LINE
  5
12B
  8
É}ÿg
 10
1179.9710610201
 20
-629.89676136809999
 30
0.0
 11
1179.9710610201
 21
-634.39676136809999
 31
0.0
  0
LINE
  5
12C
  8
É}ÿg
 10
1202.6164020331
 20
-618.49676136810001
 30
0.0
 11
1213.6235089649001
 21
-618.49676136810001
 31
0.0
  0
LINE
  5
12D
  8
É}ÿg
 10
1202.6164020331
 20
-618.49676136810001
 30
0.0
 11
1202.1772192824001
 21
-616.97057469669994
 31
0.0
  0
LINE
  5
12E
  8
É}ÿg
 10
1179.9710610201
 20
-613.39676136809999
 30
0.0
 11
1152.9710610201
 21
-613.39676136809999
 31
0.0
  0
INSERT
  5
12F
  8
0
  6
CONTINUOUS
  2
*U90
 10
0.0
 20
0.0
 30
0.0
  0
LINE
  5
130
  8
É}ÿg
 10
1199.2235089649
 20
-635.89676136809999
 30
0.0
 11
1197.9915089649
 21
-631.69676136809994
 31
0.0
  0
LINE
  5
131
  8
É}ÿg
 10
1128.4892428383
 20
-629.89676136809999
 30
0.0
 11
1119.4892428383
 21
-629.89676136809999
 31
0.0
  0
LINE
  5
132
  8
É}ÿg
 10
1152.9710610201
 20
-618.79676136809985
 30
0.0
 11
1167.9710610201
 21
-618.79676136809985
 31
0.0
  0
LINE
  5
133
  8
É}ÿg
 10
1193.6650559085001
 20
-554.52678026870001
 30
0.0
 11
1208.0650559085
 21
-550.92678026869987
 31
0.0
  0
CIRCLE
  5
134
  8
É}ÿg
 10
1177.2073033734
 20
-558.12678026870003
 30
0.0
 40
7.2000000000000002
  0
INSERT
  5
135
  8
0
  6
CONTINUOUS
  2
*U91
 10
0.0
 20
0.0
 30
0.0
  0
LINE
  5
136
  8
É}ÿg
 10
1126.9892428383
 20
-623.89676136809987
 30
0.0
 11
1132.9892428383
 21
-623.89676136809987
 31
0.0
  0
LINE
  5
137
  8
É}ÿg
 10
1186.6235089649001
 20
-623.89676136809987
 30
0.0
 11
1195.7035089649
 21
-623.89676136809987
 31
0.0
  0
LINE
  5
138
  8
É}ÿg
 10
1144.9892428383
 20
-619.39676136809999
 30
0.0
 11
1140.4892428383
 21
-619.39676136809999
 31
0.0
  0
LINE
  5
139
  8
É}ÿg
 10
1140.4892428383
 20
-619.39676136809999
 30
0.0
 11
1140.4892428383
 21
-617.89676136809999
 31
0.0
  0
LINE
  5
13A
  8
É}ÿg
 10
1186.6235089649001
 20
-618.49676136810001
 30
0.0
 11
1194.1195089649
 21
-618.49676136810001
 31
0.0
  0
LINE
  5
13B
  8
É}ÿg
 10
1202.1772192824001
 20
-616.97057469669994
 30
0.0
 11
1204.6235089649001
 21
-613.39676136809999
 31
0.0
  0
LINE
  5
13C
  8
É}ÿg
 10
1152.9710610201
 20
-634.39676136809999
 30
0.0
 11
1152.9710610201
 21
-629.89676136809999
 31
0.0
  0
LINE
  5
13D
  8
É}ÿg
 10
1227.0073033734
 20
-541.62678026870003
 30
0.0
 11
1227.0073033734
 21
-640.62678026870003
 31
0.0
  0
INSERT
  5
13E
  8
0
  6
CONTINUOUS
  2
*U92
 10
0.0
 20
0.0
 30
0.0
  0
INSERT
  5
13F
  8
0
  6
CONTINUOUS
  2
*U93
 10
0.0
 20
0.0
 30
0.0
  0
INSERT
  5
140
  8
0
  6
CONTINUOUS
  2
*U94
 10
0.0
 20
0.0
 30
0.0
  0
LINE
  5
141
  8
É}ÿg
 62
     5
 10
1158.7294472153001
 20
155.81559498429999
 30
0.0
 11
1173.5794472153
 21
155.81559498429999
 31
0.0
  0
LINE
  5
142
  8
É}ÿg
 10
1116.0359314036
 20
-623.89676136809987
 30
0.0
 11
1119.0359314036
 21
-623.89676136809987
 31
0.0
  0
ARC
  5
143
  8
É}ÿg
 10
1160.4710610201
 20
-617.89676136809999
 30
0.0
 40
16.5
 50
322.48761197969998
 51
0.0
  0
LINE
  5
144
  8
É}ÿg
 10
1119.4892428383
 20
-634.39676136809999
 30
0.0
 11
1131.4892428383
 21
-634.39676136809999
 31
0.0
  0
LINE
  5
145
  8
É}ÿg
 10
1186.6235089649001
 20
-631.69676136809994
 30
0.0
 11
1197.9915089649
 21
-631.69676136809994
 31
0.0
  0
ARC
  5
146
  8
É}ÿg
 10
1128.4892428383
 20
-625.39676136809987
 30
0.0
 40
4.5
 50
270.0
 51
0.0
  0
LINE
  5
147
  8
É}ÿg
 10
1186.6235089649001
 20
-626.29676136809985
 30
0.0
 11
1186.6235089649001
 21
-631.69676136809994
 31
0.0
  0
LINE
  5
148
  8
É}ÿg
 10
1119.4892428383
 20
-628.39676136809987
 30
0.0
 11
1126.9892428383
 21
-628.39676136809987
 31
0.0
  0
LINE
  5
149
  8
É}ÿg
 10
1166.5799984951
 20
-623.9539740834
 30
0.0
 11
1165.8582110762
 21
-624.75118916500003
 31
0.0
  0
LINE
  5
14A
  8
É}ÿg
 10
1207.6235089649001
 20
-635.89676136809999
 30
0.0
 11
1199.2235089649
 21
-635.89676136809999
 31
0.0
  0
LINE
  5
14B
  8
É}ÿg
 10
1132.9892428383
 20
-623.89676136809987
 30
0.0
 11
1132.9892428383
 21
-625.39676136809987
 31
0.0
  0
LINE
  5
14C
  8
É}ÿg
 10
1437.0073033734
 20
-541.62678026870003
 30
0.0
 11
1002.0073033734
 21
-541.62678026870003
 31
0.0
  0
LINE
  5
14D
  8
É}ÿg
 10
1208.0650559085
 20
-550.92678026869987
 30
0.0
 11
1208.0650559085
 21
-565.32678026869996
 31
0.0
  0
LINE
  5
14E
  8
É}ÿg
 62
     5
 10
1166.1544472153
 20
183.52607223050001
 30
0.0
 11
1158.7294472153001
 21
170.66559498429999
 31
0.0
  0
LINE
  5
14F
  8
É}ÿg
 10
1144.9892428383
 20
-613.39676136809999
 30
0.0
 11
1132.9892428383
 21
-613.39676136809999
 31
0.0
  0
LINE
  5
150
  8
É}ÿg
 10
1140.4892428383
 20
-625.39676136809987
 30
0.0
 11
1140.4892428383
 21
-623.89676136809987
 31
0.0
  0
LINE
  5
151
  8
É}ÿg
 10
1186.6235089649001
 20
-618.49676136810001
 30
0.0
 11
1186.6235089649001
 21
-623.89676136809987
 31
0.0
  0
LINE
  5
152
  8
É}ÿg
 10
1132.9892428383
 20
-619.39676136809999
 30
0.0
 11
1126.9892428383
 21
-619.39676136809999
 31
0.0
  0
LINE
  5
153
  8
É}ÿg
 10
1131.4892428383
 20
-613.39676136809999
 30
0.0
 11
1119.4892428383
 21
-613.39676136809999
 31
0.0
  0
LINE
  5
154
  8
É}ÿg
 10
1126.9892428383
 20
-617.89676136809999
 30
0.0
 11
1131.4892428383
 21
-613.39676136809999
 31
0.0
  0
LINE
  5
155
  8
É}ÿg
 10
1119.4892428383
 20
-613.39676136809999
 30
0.0
 11
1119.4892428383
 21
-619.39676136809999
 31
0.0
  0
LINE
  5
156
  8
É}ÿg
 10
1206.4148969468999
 20
-631.69676136809994
 30
0.0
 11
1213.6235089649001
 21
-631.69676136809994
 31
0.0
  0
LINE
  5
157
  8
É}ÿg
 10
1194.1195089649
 20
-618.49676136810001
 30
0.0
 11
1192.6235089649001
 21
-613.39676136809999
 31
0.0
  0
LINE
  5
158
  8
É}ÿg
 10
1186.6235089649001
 20
-626.29676136809985
 30
0.0
 11
1196.4075089649
 21
-626.29676136809985
 31
0.0
  0
LINE
  5
159
  8
É}ÿg
 10
1204.8609672094001
 20
-626.29676136809985
 30
0.0
 11
1204.1703317705001
 21
-623.89676136809987
 31
0.0
  0
ARC
  5
15A
  8
É}ÿg
 10
1156.5710610200999
 20
-618.49676136810001
 30
0.0
 40
11.4
 50
270.0
 51
298.08590481520002
  0
INSERT
  5
15B
  8
0
  6
CONTINUOUS
  2
*U95
 10
0.0
 20
0.0
 30
0.0
  0
LINE
  5
15C
  8
É}ÿg
 10
1009.5073033734
 20
-558.12678026870003
 30
0.0
 11
1069.5073033734
 21
-558.12678026870003
 31
0.0
  0
LINE
  5
15D
  8
É}ÿg
 10
1077.0073033734
 20
-541.62678026870003
 30
0.0
 11
1077.0073033734
 21
-574.62678026869992
 31
0.0
  0
LINE
  5
15E
  8
É}ÿg
 10
1002.0073033734
 20
-574.62678026869992
 30
0.0
 11
1437.0073033734
 21
-574.62678026869992
 31
0.0
  0
LINE
  5
15F
  8
É}ÿg
 10
1152.0073033734
 20
-541.62678026870003
 30
0.0
 11
1152.0073033734
 21
-574.62678026869992
 31
0.0
  0
LINE
  5
160
  8
É}ÿg
  6
BORDER
 10
1177.2073033734
 20
-547.32678026870008
 30
0.0
 11
1177.2073033734
 21
-568.92678026869987
 31
0.0
  0
LINE
  5
161
  8
É}ÿg
  6
BORDER
 10
1177.2073033734
 20
-547.32678026870008
 30
0.0
 11
1177.2073033734
 21
-568.92678026869987
 31
0.0
  0
LINE
  5
162
  8
É}ÿg
 10
1213.6235089649001
 20
-618.49676136810001
 30
0.0
 11
1213.6235089649001
 21
-623.89676136809987
 31
0.0
  0
LINE
  5
163
  8
É}ÿg
 10
1084.5073033734
 20
-558.12678026870003
 30
0.0
 11
1144.5073033734
 21
-558.12678026870003
 31
0.0
  0
INSERT
  5
164
  8
0
  6
CONTINUOUS
  2
*U96
 10
0.0
 20
0.0
 30
0.0
  0
CIRCLE
  5
165
  8
É}ÿg
 10
1177.2073033734
 20
-558.12678026870003
 30
0.0
 40
7.2000000000000002
  0
LINE
  5
166
  8
É}ÿg
 10
1193.6650559085001
 20
-554.52678026870001
 30
0.0
 11
1208.0650559085
 21
-550.92678026869987
 31
0.0
  0
INSERT
  5
167
  8
0
  6
CONTINUOUS
  2
*U97
 10
0.0
 20
0.0
 30
0.0
  0
CIRCLE
  5
168
  8
É}ÿg
 10
1177.2073033734
 20
-558.12678026870003
 30
0.0
 40
3.6000000000000001
  0
LINE
  5
169
  8
É}ÿg
 10
1207.6235089649001
 20
-635.89676136809999
 30
0.0
 11
1206.4148969468999
 21
-631.69676136809994
 31
0.0
  0
LINE
  5
16A
  8
É}ÿg
 10
1204.8609672094001
 20
-626.29676136809985
 30
0.0
 11
1213.6235089649001
 21
-626.29676136809985
 31
0.0
  0
LINE
  5
16B
  8
É}ÿg
 10
1152.9710610201
 20
-629.89676136809999
 30
0.0
 11
1156.5710610200999
 21
-629.89676136809999
 31
0.0
  0
LINE
  5
16C
  8
É}ÿg
 10
1192.6235089649001
 20
-613.39676136809999
 30
0.0
 11
1204.6235089649001
 21
-613.39676136809999
 31
0.0
  0
LINE
  5
16D
  8
É}ÿg
 10
1119.4892428383
 20
-619.39676136809999
 30
0.0
 11
1116.0359314036
 21
-619.39676136809999
 31
0.0
  0
LINE
  5
16E
  8
É}ÿg
 10
1152.9710610201
 20
-629.89676136809999
 30
0.0
 11
1152.9710610201
 21
-634.39676136809999
 31
0.0
  0
LINE
  5
16F
  8
É}ÿg
 10
1119.4892428383
 20
-623.89676136809987
 30
0.0
 11
1119.0359314036
 21
-623.89676136809987
 31
0.0
  0
LINE
  5
170
  8
É}ÿg
 10
1119.4892428383
 20
-629.89676136809999
 30
0.0
 11
1119.4892428383
 21
-634.39676136809999
 31
0.0
  0
ARC
  5
171
  8
É}ÿg
 10
1156.5710610200999
 20
-618.49676136810001
 30
0.0
 40
11.4
 50
331.39928138329998
 51
358.49204224580001
  0
LINE
  5
172
  8
É}ÿg
 10
1140.4892428383
 20
-623.89676136809987
 30
0.0
 11
1144.9892428383
 21
-623.89676136809987
 31
0.0
  0
ARC
  5
173
  8
É}ÿg
 10
1160.4710610201
 20
-617.89676136809999
 30
0.0
 40
16.5
 50
270.0
 51
302.54495885400001
  0
LINE
  5
174
  8
É}ÿg
 10
1193.6650559085001
 20
-561.72678026870005
 30
0.0
 11
1208.0650559085
 21
-565.32678026869996
 31
0.0
  0
LINE
  5
175
  8
É}ÿg
 10
1193.6650559085001
 20
-554.52678026870001
 30
0.0
 11
1193.6650559085001
 21
-561.72678026870005
 31
0.0
  0
LINE
  5
176
  8
É}ÿg
 10
1208.0650559085
 20
-550.92678026869987
 30
0.0
 11
1208.0650559085
 21
-565.32678026869996
 31
0.0
  0
LINE
  5
177
  8
É}ÿg
 10
1164.9710610201
 20
-620.36309217049995
 30
0.0
 11
1163.2740047452
 21
-622.06014844529989
 31
0.0
  0
LINE
  5
178
  8
É}ÿg
  6
BORDER
 10
1166.4073033734001
 20
-558.12678026870003
 30
0.0
 11
1212.6073033734001
 21
-558.12678026870003
 31
0.0
  0
CIRCLE
  5
179
  8
É}ÿg
 10
1177.2073033734
 20
-558.12678026870003
 30
0.0
 40
3.6000000000000001
  0
POLYLINE
  8
É}ÿg
  5
6C3
  66
     1
 10
0.000000
 20
0.000000
 30
0.000000
  70
     8
  0
VERTEX
  8
É}ÿg
  5
6C4
 10
1173.02
 20
-628.467
 30
0.000000
  70
    32
  0
VERTEX
  8
É}ÿg
  5
6C5
 10
1173.08
 20
-628.482
 30
0.000000
  70
    32
  0
VERTEX
  8
É}ÿg
  5
6C6
 10
1173.13
 20
-628.497
 30
0.000000
  70
    32
  0
VERTEX
  8
É}ÿg
  5
6C7
 10
1173.18
 20
-628.512
 30
0.000000
  70
    32
  0
VERTEX
  8
É}ÿg
  5
6C8
 10
1173.24
 20
-628.526
 30
0.000000
  70
    32
  0
VERTEX
  8
É}ÿg
  5
6C9
 10
1173.29
 20
-628.541
 30
0.000000
  70
    32
  0
VERTEX
  8
É}ÿg
  5
6CA
 10
1173.34
 20
-628.555
 30
0.000000
  70
    32
  0
VERTEX
  8
É}ÿg
  5
6CB
 10
1173.39
 20
-628.570
 30
0.000000
  70
    32
  0
VERTEX
  8
É}ÿg
  5
6CC
 10
1173.45
 20
-628.584
 30
0.000000
  70
    32
  0
VERTEX
  8
É}ÿg
  5
6CD
 10
1173.50
 20
-628.598
 30
0.000000
  70
    32
  0
VERTEX
  8
É}ÿg
  5
6CE
 10
1173.55
 20
-628.612
 30
0.000000
  70
    32
  0
VERTEX
  8
É}ÿg
  5
6CF
 10
1173.60
 20
-628.626
 30
0.000000
  70
    32
  0
VERTEX
  8
É}ÿg
  5
6D0
 10
1173.66
 20
-628.640
 30
0.000000
  70
    32
  0
VERTEX
  8
É}ÿg
  5
6D1
 10
1173.71
 20
-628.654
 30
0.000000
  70
    32
  0
VERTEX
  8
É}ÿg
  5
6D2
 10
1173.76
 20
-628.668
 30
0.000000
  70
    32
  0
VERTEX
  8
É}ÿg
  5
6D3
 10
1173.82
 20
-628.682
 30
0.000000
  70
    32
  0
VERTEX
  8
É}ÿg
  5
6D4
 10
1173.87
 20
-628.695
 30
0.000000
  70
    32
  0
VERTEX
  8
É}ÿg
  5
6D5
 10
1173.92
 20
-628.709
 30
0.000000
  70
    32
  0
VERTEX
  8
É}ÿg
  5
6D6
 10
1173.98
 20
-628.722
 30
0.000000
  70
    32
  0
VERTEX
  8
É}ÿg
  5
6D7
 10
1174.03
 20
-628.736
 30
0.000000
  70
    32
  0
VERTEX
  8
É}ÿg
  5
6D8
 10
1174.08
 20
-628.749
 30
0.000000
  70
    32
  0
VERTEX
  8
É}ÿg
  5
6D9
 10
1174.14
 20
-628.762
 30
0.000000
  70
    32
  0
VERTEX
  8
É}ÿg
  5
6DA
 10
1174.19
 20
-628.776
 30
0.000000
  70
    32
  0
VERTEX
  8
É}ÿg
  5
6DB
 10
1174.24
 20
-628.789
 30
0.000000
  70
    32
  0
VERTEX
  8
É}ÿg
  5
6DC
 10
1174.30
 20
-628.802
 30
0.000000
  70
    32
  0
VERTEX
  8
É}ÿg
  5
6DD
 10
1174.35
 20
-628.815
 30
0.000000
  70
    32
  0
VERTEX
  8
É}ÿg
  5
6DE
 10
1174.40
 20
-628.828
 30
0.000000
  70
    32
  0
VERTEX
  8
É}ÿg
  5
6DF
 10
1174.46
 20
-628.841
 30
0.000000
  70
    32
  0
VERTEX
  8
É}ÿg
  5
6E0
 10
1174.51
 20
-628.853
 30
0.000000
  70
    32
  0
VERTEX
  8
É}ÿg
  5
6E1
 10
1174.57
 20
-628.866
 30
0.000000
  70
    32
  0
VERTEX
  8
É}ÿg
  5
6E2
 10
1174.62
 20
-628.879
 30
0.000000
  70
    32
  0
VERTEX
  8
É}ÿg
  5
6E3
 10
1174.67
 20
-628.891
 30
0.000000
  70
    32
  0
VERTEX
  8
É}ÿg
  5
6E4
 10
1174.73
 20
-628.904
 30
0.000000
  70
    32
  0
VERTEX
  8
É}ÿg
  5
6E5
 10
1174.78
 20
-628.916
 30
0.000000
  70
    32
  0
VERTEX
  8
É}ÿg
  5
6E6
 10
1174.84
 20
-628.929
 30
0.000000
  70
    32
  0
VERTEX
  8
É}ÿg
  5
6E7
 10
1174.89
 20
-628.941
 30
0.000000
  70
    32
  0
VERTEX
  8
É}ÿg
  5
6E8
 10
1174.94
 20
-628.953
 30
0.000000
  70
    32
  0
VERTEX
  8
É}ÿg
  5
6E9
 10
1175.00
 20
-628.966
 30
0.000000
  70
    32
  0
VERTEX
  8
É}ÿg
  5
6EA
 10
1175.05
 20
-628.978
 30
0.000000
  70
    32
  0
VERTEX
  8
É}ÿg
  5
6EB
 10
1175.11
 20
-628.990
 30
0.000000
  70
    32
  0
VERTEX
  8
É}ÿg
  5
6EC
 10
1175.16
 20
-629.002
 30
0.000000
  70
    32
  0
VERTEX
  8
É}ÿg
  5
6ED
 10
1175.21
 20
-629.014
 30
0.000000
  70
    32
  0
VERTEX
  8
É}ÿg
  5
6EE
 10
1175.27
 20
-629.026
 30
0.000000
  70
    32
  0
VERTEX
  8
É}ÿg
  5
6EF
 10
1175.32
 20
-629.038
 30
0.000000
  70
    32
  0
VERTEX
  8
É}ÿg
  5
6F0
 10
1175.38
 20
-629.049
 30
0.000000
  70
    32
  0
VERTEX
  8
É}ÿg
  5
6F1
 10
1175.43
 20
-629.061
 30
0.000000
  70
    32
  0
VERTEX
  8
É}ÿg
  5
6F2
 10
1175.49
 20
-629.073
 30
0.000000
  70
    32
  0
VERTEX
  8
É}ÿg
  5
6F3
 10
1175.54
 20
-629.084
 30
0.000000
  70
    32
  0
VERTEX
  8
É}ÿg
  5
6F4
 10
1175.60
 20
-629.096
 30
0.000000
  70
    32
  0
VERTEX
  8
É}ÿg
  5
6F5
 10
1175.65
 20
-629.108
 30
0.000000
  70
    32
  0
VERTEX
  8
É}ÿg
  5
6F6
 10
1175.70
 20
-629.119
 30
0.000000
  70
    32
  0
VERTEX
  8
É}ÿg
  5
6F7
 10
1175.76
 20
-629.130
 30
0.000000
  70
    32
  0
VERTEX
  8
É}ÿg
  5
6F8
 10
1175.81
 20
-629.142
 30
0.000000
  70
    32
  0
VERTEX
  8
É}ÿg
  5
6F9
 10
1175.87
 20
-629.153
 30
0.000000
  70
    32
  0
VERTEX
  8
É}ÿg
  5
6FA
 10
1175.92
 20
-629.164
 30
0.000000
  70
    32
  0
VERTEX
  8
É}ÿg
  5
6FB
 10
1175.98
 20
-629.176
 30
0.000000
  70
    32
  0
VERTEX
  8
É}ÿg
  5
6FC
 10
1176.03
 20
-629.187
 30
0.000000
  70
    32
  0
VERTEX
  8
É}ÿg
  5
6FD
 10
1176.09
 20
-629.198
 30
0.000000
  70
    32
  0
VERTEX
  8
É}ÿg
  5
6FE
 10
1176.14
 20
-629.209
 30
0.000000
  70
    32
  0
VERTEX
  8
É}ÿg
  5
6FF
 10
1176.20
 20
-629.220
 30
0.000000
  70
    32
  0
VERTEX
  8
É}ÿg
  5
700
 10
1176.25
 20
-629.231
 30
0.000000
  70
    32
  0
VERTEX
  8
É}ÿg
  5
701
 10
1176.31
 20
-629.242
 30
0.000000
  70
    32
  0
VERTEX
  8
É}ÿg
  5
702
 10
1176.36
 20
-629.253
 30
0.000000
  70
    32
  0
VERTEX
  8
É}ÿg
  5
703
 10
1176.42
 20
-629.264
 30
0.000000
  70
    32
  0
VERTEX
  8
É}ÿg
  5
704
 10
1176.47
 20
-629.274
 30
0.000000
  70
    32
  0
VERTEX
  8
É}ÿg
  5
705
 10
1176.53
 20
-629.285
 30
0.000000
  70
    32
  0
VERTEX
  8
É}ÿg
  5
706
 10
1176.58
 20
-629.296
 30
0.000000
  70
    32
  0
VERTEX
  8
É}ÿg
  5
707
 10
1176.64
 20
-629.307
 30
0.000000
  70
    32
  0
VERTEX
  8
É}ÿg
  5
708
 10
1176.69
 20
-629.317
 30
0.000000
  70
    32
  0
VERTEX
  8
É}ÿg
  5
709
 10
1176.75
 20
-629.328
 30
0.000000
  70
    32
  0
VERTEX
  8
É}ÿg
  5
70A
 10
1176.80
 20
-629.338
 30
0.000000
  70
    32
  0
VERTEX
  8
É}ÿg
  5
70B
 10
1176.86
 20
-629.349
 30
0.000000
  70
    32
  0
VERTEX
  8
É}ÿg
  5
70C
 10
1176.91
 20
-629.359
 30
0.000000
  70
    32
  0
VERTEX
  8
É}ÿg
  5
70D
 10
1176.97
 20
-629.370
 30
0.000000
  70
    32
  0
VERTEX
  8
É}ÿg
  5
70E
 10
1177.02
 20
-629.380
 30
0.000000
  70
    32
  0
VERTEX
  8
É}ÿg
  5
70F
 10
1177.08
 20
-629.391
 30
0.000000
  70
    32
  0
VERTEX
  8
É}ÿg
  5
710
 10
1177.13
 20
-629.401
 30
0.000000
  70
    32
  0
VERTEX
  8
É}ÿg
  5
711
 10
1177.19
 20
-629.411
 30
0.000000
  70
    32
  0
VERTEX
  8
É}ÿg
  5
712
 10
1177.24
 20
-629.421
 30
0.000000
  70
    32
  0
VERTEX
  8
É}ÿg
  5
713
 10
1177.30
 20
-629.432
 30
0.000000
  70
    32
  0
VERTEX
  8
É}ÿg
  5
714
 10
1177.35
 20
-629.442
 30
0.000000
  70
    32
  0
VERTEX
  8
É}ÿg
  5
715
 10
1177.41
 20
-629.452
 30
0.000000
  70
    32
  0
VERTEX
  8
É}ÿg
  5
716
 10
1177.47
 20
-629.462
 30
0.000000
  70
    32
  0
VERTEX
  8
É}ÿg
  5
717
 10
1177.52
 20
-629.472
 30
0.000000
  70
    32
  0
VERTEX
  8
É}ÿg
  5
718
 10
1177.58
 20
-629.482
 30
0.000000
  70
    32
  0
VERTEX
  8
É}ÿg
  5
719
 10
1177.63
 20
-629.492
 30
0.000000
  70
    32
  0
VERTEX
  8
É}ÿg
  5
71A
 10
1177.69
 20
-629.502
 30
0.000000
  70
    32
  0
VERTEX
  8
É}ÿg
  5
71B
 10
1177.74
 20
-629.512
 30
0.000000
  70
    32
  0
VERTEX
  8
É}ÿg
  5
71C
 10
1177.80
 20
-629.522
 30
0.000000
  70
    32
  0
VERTEX
  8
É}ÿg
  5
71D
 10
1177.85
 20
-629.532
 30
0.000000
  70
    32
  0
VERTEX
  8
É}ÿg
  5
71E
 10
1177.91
 20
-629.542
 30
0.000000
  70
    32
  0
VERTEX
  8
É}ÿg
  5
71F
 10
1177.96
 20
-629.552
 30
0.000000
  70
    32
  0
VERTEX
  8
É}ÿg
  5
720
 10
1178.02
 20
-629.562
 30
0.000000
  70
    32
  0
VERTEX
  8
É}ÿg
  5
721
 10
1178.08
 20
-629.572
 30
0.000000
  70
    32
  0
VERTEX
  8
É}ÿg
  5
722
 10
1178.13
 20
-629.582
 30
0.000000
  70
    32
  0
VERTEX
  8
É}ÿg
  5
723
 10
1178.19
 20
-629.591
 30
0.000000
  70
    32
  0
VERTEX
  8
É}ÿg
  5
724
 10
1178.24
 20
-629.601
 30
0.000000
  70
    32
  0
VERTEX
  8
É}ÿg
  5
725
 10
1178.30
 20
-629.611
 30
0.000000
  70
    32
  0
VERTEX
  8
É}ÿg
  5
726
 10
1178.35
 20
-629.621
 30
0.000000
  70
    32
  0
VERTEX
  8
É}ÿg
  5
727
 10
1178.41
 20
-629.630
 30
0.000000
  70
    32
  0
VERTEX
  8
É}ÿg
  5
728
 10
1178.47
 20
-629.640
 30
0.000000
  70
    32
  0
VERTEX
  8
É}ÿg
  5
729
 10
1178.52
 20
-629.650
 30
0.000000
  70
    32
  0
VERTEX
  8
É}ÿg
  5
72A
 10
1178.58
 20
-629.659
 30
0.000000
  70
    32
  0
VERTEX
  8
É}ÿg
  5
72B
 10
1178.63
 20
-629.669
 30
0.000000
  70
    32
  0
VERTEX
  8
É}ÿg
  5
72C
 10
1178.69
 20
-629.679
 30
0.000000
  70
    32
  0
VERTEX
  8
É}ÿg
  5
72D
 10
1178.74
 20
-629.688
 30
0.000000
  70
    32
  0
VERTEX
  8
É}ÿg
  5
72E
 10
1178.80
 20
-629.698
 30
0.000000
  70
    32
  0
VERTEX
  8
É}ÿg
  5
72F
 10
1178.86
 20
-629.707
 30
0.000000
  70
    32
  0
VERTEX
  8
É}ÿg
  5
730
 10
1178.91
 20
-629.717
 30
0.000000
  70
    32
  0
VERTEX
  8
É}ÿg
  5
731
 10
1178.97
 20
-629.726
 30
0.000000
  70
    32
  0
VERTEX
  8
É}ÿg
  5
732
 10
1179.02
 20
-629.736
 30
0.000000
  70
    32
  0
VERTEX
  8
É}ÿg
  5
733
 10
1179.08
 20
-629.745
 30
0.000000
  70
    32
  0
VERTEX
  8
É}ÿg
  5
734
 10
1179.13
 20
-629.755
 30
0.000000
  70
    32
  0
VERTEX
  8
É}ÿg
  5
735
 10
1179.19
 20
-629.764
 30
0.000000
  70
    32
  0
VERTEX
  8
É}ÿg
  5
736
 10
1179.25
 20
-629.774
 30
0.000000
  70
    32
  0
VERTEX
  8
É}ÿg
  5
737
 10
1179.30
 20
-629.783
 30
0.000000
  70
    32
  0
VERTEX
  8
É}ÿg
  5
738
 10
1179.36
 20
-629.793
 30
0.000000
  70
    32
  0
VERTEX
  8
É}ÿg
  5
739
 10
1179.41
 20
-629.802
 30
0.000000
  70
    32
  0
VERTEX
  8
É}ÿg
  5
73A
 10
1179.47
 20
-629.812
 30
0.000000
  70
    32
  0
VERTEX
  8
É}ÿg
  5
73B
 10
1179.52
 20
-629.821
 30
0.000000
  70
    32
  0
VERTEX
  8
É}ÿg
  5
73C
 10
1179.58
 20
-629.831
 30
0.000000
  70
    32
  0
VERTEX
  8
É}ÿg
  5
73D
 10
1179.64
 20
-629.840
 30
0.000000
  70
    32
  0
VERTEX
  8
É}ÿg
  5
73E
 10
1179.69
 20
-629.850
 30
0.000000
  70
    32
  0
VERTEX
  8
É}ÿg
  5
73F
 10
1179.75
 20
-629.859
 30
0.000000
  70
    32
  0
VERTEX
  8
É}ÿg
  5
740
 10
1179.80
 20
-629.868
 30
0.000000
  70
    32
  0
VERTEX
  8
É}ÿg
  5
741
 10
1179.86
 20
-629.878
 30
0.000000
  70
    32
  0
VERTEX
  8
É}ÿg
  5
742
 10
1179.92
 20
-629.887
 30
0.000000
  70
    32
  0
VERTEX
  8
É}ÿg
  5
743
 10
1179.97
 20
-629.897
 30
0.000000
  70
    32
  0
SEQEND
  8
É}ÿg
  5
744
  0
POLYLINE
  8
É}ÿg
  5
745
  66
     1
 10
0.000000
 20
0.000000
 30
0.000000
  70
     8
  0
VERTEX
  8
É}ÿg
  5
746
 10
1163.27
 20
-622.060
 30
0.000000
  70
    32
  0
VERTEX
  8
É}ÿg
  5
747
 10
1163.29
 20
-622.082
 30
0.000000
  70
    32
  0
VERTEX
  8
É}ÿg
  5
748
 10
1163.31
 20
-622.104
 30
0.000000
  70
    32
  0
VERTEX
  8
É}ÿg
  5
749
 10
1163.33
 20
-622.126
 30
0.000000
  70
    32
  0
VERTEX
  8
É}ÿg
  5
74A
 10
1163.35
 20
-622.148
 30
0.000000
  70
    32
  0
VERTEX
  8
É}ÿg
  5
74B
 10
1163.37
 20
-622.171
 30
0.000000
  70
    32
  0
VERTEX
  8
É}ÿg
  5
74C
 10
1163.39
 20
-622.193
 30
0.000000
  70
    32
  0
VERTEX
  8
É}ÿg
  5
74D
 10
1163.41
 20
-622.215
 30
0.000000
  70
    32
  0
VERTEX
  8
É}ÿg
  5
74E
 10
1163.43
 20
-622.237
 30
0.000000
  70
    32
  0
VERTEX
  8
É}ÿg
  5
74F
 10
1163.45
 20
-622.259
 30
0.000000
  70
    32
  0
VERTEX
  8
É}ÿg
  5
750
 10
1163.47
 20
-622.281
 30
0.000000
  70
    32
  0
VERTEX
  8
É}ÿg
  5
751
 10
1163.49
 20
-622.303
 30
0.000000
  70
    32
  0
VERTEX
  8
É}ÿg
  5
752
 10
1163.51
 20
-622.325
 30
0.000000
  70
    32
  0
VERTEX
  8
É}ÿg
  5
753
 10
1163.53
 20
-622.347
 30
0.000000
  70
    32
  0
VERTEX
  8
É}ÿg
  5
754
 10
1163.55
 20
-622.369
 30
0.000000
  70
    32
  0
VERTEX
  8
É}ÿg
  5
755
 10
1163.57
 20
-622.391
 30
0.000000
  70
    32
  0
VERTEX
  8
É}ÿg
  5
756
 10
1163.59
 20
-622.413
 30
0.000000
  70
    32
  0
VERTEX
  8
É}ÿg
  5
757
 10
1163.61
 20
-622.435
 30
0.000000
  70
    32
  0
VERTEX
  8
É}ÿg
  5
758
 10
1163.63
 20
-622.457
 30
0.000000
  70
    32
  0
VERTEX
  8
É}ÿg
  5
759
 10
1163.65
 20
-622.479
 30
0.000000
  70
    32
  0
VERTEX
  8
É}ÿg
  5
75A
 10
1163.67
 20
-622.501
 30
0.000000
  70
    32
  0
VERTEX
  8
É}ÿg
  5
75B
 10
1163.69
 20
-622.523
 30
0.000000
  70
    32
  0
VERTEX
  8
É}ÿg
  5
75C
 10
1163.71
 20
-622.545
 30
0.000000
  70
    32
  0
VERTEX
  8
É}ÿg
  5
75D
 10
1163.73
 20
-622.567
 30
0.000000
  70
    32
  0
VERTEX
  8
É}ÿg
  5
75E
 10
1163.75
 20
-622.589
 30
0.000000
  70
    32
  0
VERTEX
  8
É}ÿg
  5
75F
 10
1163.77
 20
-622.611
 30
0.000000
  70
    32
  0
VERTEX
  8
É}ÿg
  5
760
 10
1163.79
 20
-622.633
 30
0.000000
  70
    32
  0
VERTEX
  8
É}ÿg
  5
761
 10
1163.81
 20
-622.655
 30
0.000000
  70
    32
  0
VERTEX
  8
É}ÿg
  5
762
 10
1163.83
 20
-622.677
 30
0.000000
  70
    32
  0
VERTEX
  8
É}ÿg
  5
763
 10
1163.85
 20
-622.699
 30
0.000000
  70
    32
  0
VERTEX
  8
É}ÿg
  5
764
 10
1163.87
 20
-622.721
 30
0.000000
  70
    32
  0
VERTEX
  8
É}ÿg
  5
765
 10
1163.89
 20
-622.743
 30
0.000000
  70
    32
  0
VERTEX
  8
É}ÿg
  5
766
 10
1163.91
 20
-622.765
 30
0.000000
  70
    32
  0
VERTEX
  8
É}ÿg
  5
767
 10
1163.93
 20
-622.787
 30
0.000000
  70
    32
  0
VERTEX
  8
É}ÿg
  5
768
 10
1163.95
 20
-622.809
 30
0.000000
  70
    32
  0
VERTEX
  8
É}ÿg
  5
769
 10
1163.97
 20
-622.830
 30
0.000000
  70
    32
  0
VERTEX
  8
É}ÿg
  5
76A
 10
1163.99
 20
-622.852
 30
0.000000
  70
    32
  0
VERTEX
  8
É}ÿg
  5
76B
 10
1164.01
 20
-622.874
 30
0.000000
  70
    32
  0
VERTEX
  8
É}ÿg
  5
76C
 10
1164.03
 20
-622.896
 30
0.000000
  70
    32
  0
VERTEX
  8
É}ÿg
  5
76D
 10
1164.05
 20
-622.918
 30
0.000000
  70
    32
  0
VERTEX
  8
É}ÿg
  5
76E
 10
1164.07
 20
-622.940
 30
0.000000
  70
    32
  0
VERTEX
  8
É}ÿg
  5
76F
 10
1164.09
 20
-622.961
 30
0.000000
  70
    32
  0
VERTEX
  8
É}ÿg
  5
770
 10
1164.11
 20
-622.983
 30
0.000000
  70
    32
  0
VERTEX
  8
É}ÿg
  5
771
 10
1164.13
 20
-623.005
 30
0.000000
  70
    32
  0
VERTEX
  8
É}ÿg
  5
772
 10
1164.15
 20
-623.027
 30
0.000000
  70
    32
  0
VERTEX
  8
É}ÿg
  5
773
 10
1164.17
 20
-623.049
 30
0.000000
  70
    32
  0
VERTEX
  8
É}ÿg
  5
774
 10
1164.19
 20
-623.070
 30
0.000000
  70
    32
  0
VERTEX
  8
É}ÿg
  5
775
 10
1164.21
 20
-623.092
 30
0.000000
  70
    32
  0
VERTEX
  8
É}ÿg
  5
776
 10
1164.23
 20
-623.114
 30
0.000000
  70
    32
  0
VERTEX
  8
É}ÿg
  5
777
 10
1164.25
 20
-623.135
 30
0.000000
  70
    32
  0
VERTEX
  8
É}ÿg
  5
778
 10
1164.27
 20
-623.157
 30
0.000000
  70
    32
  0
VERTEX
  8
É}ÿg
  5
779
 10
1164.29
 20
-623.179
 30
0.000000
  70
    32
  0
VERTEX
  8
É}ÿg
  5
77A
 10
1164.31
 20
-623.200
 30
0.000000
  70
    32
  0
VERTEX
  8
É}ÿg
  5
77B
 10
1164.33
 20
-623.222
 30
0.000000
  70
    32
  0
VERTEX
  8
É}ÿg
  5
77C
 10
1164.35
 20
-623.244
 30
0.000000
  70
    32
  0
VERTEX
  8
É}ÿg
  5
77D
 10
1164.37
 20
-623.265
 30
0.000000
  70
    32
  0
VERTEX
  8
É}ÿg
  5
77E
 10
1164.39
 20
-623.287
 30
0.000000
  70
    32
  0
VERTEX
  8
É}ÿg
  5
77F
 10
1164.41
 20
-623.308
 30
0.000000
  70
    32
  0
VERTEX
  8
É}ÿg
  5
780
 10
1164.43
 20
-623.330
 30
0.000000
  70
    32
  0
VERTEX
  8
É}ÿg
  5
781
 10
1164.45
 20
-623.351
 30
0.000000
  70
    32
  0
VERTEX
  8
É}ÿg
  5
782
 10
1164.47
 20
-623.373
 30
0.000000
  70
    32
  0
VERTEX
  8
É}ÿg
  5
783
 10
1164.49
 20
-623.394
 30
0.000000
  70
    32
  0
VERTEX
  8
É}ÿg
  5
784
 10
1164.51
 20
-623.416
 30
0.000000
  70
    32
  0
VERTEX
  8
É}ÿg
  5
785
 10
1164.53
 20
-623.437
 30
0.000000
  70
    32
  0
VERTEX
  8
É}ÿg
  5
786
 10
1164.55
 20
-623.459
 30
0.000000
  70
    32
  0
VERTEX
  8
É}ÿg
  5
787
 10
1164.57
 20
-623.480
 30
0.000000
  70
    32
  0
VERTEX
  8
É}ÿg
  5
788
 10
1164.59
 20
-623.501
 30
0.000000
  70
    32
  0
VERTEX
  8
É}ÿg
  5
789
 10
1164.61
 20
-623.523
 30
0.000000
  70
    32
  0
VERTEX
  8
É}ÿg
  5
78A
 10
1164.63
 20
-623.544
 30
0.000000
  70
    32
  0
VERTEX
  8
É}ÿg
  5
78B
 10
1164.65
 20
-623.565
 30
0.000000
  70
    32
  0
VERTEX
  8
É}ÿg
  5
78C
 10
1164.67
 20
-623.587
 30
0.000000
  70
    32
  0
VERTEX
  8
É}ÿg
  5
78D
 10
1164.69
 20
-623.608
 30
0.000000
  70
    32
  0
VERTEX
  8
É}ÿg
  5
78E
 10
1164.71
 20
-623.629
 30
0.000000
  70
    32
  0
VERTEX
  8
É}ÿg
  5
78F
 10
1164.73
 20
-623.650
 30
0.000000
  70
    32
  0
VERTEX
  8
É}ÿg
  5
790
 10
1164.75
 20
-623.671
 30
0.000000
  70
    32
  0
VERTEX
  8
É}ÿg
  5
791
 10
1164.77
 20
-623.693
 30
0.000000
  70
    32
  0
VERTEX
  8
É}ÿg
  5
792
 10
1164.79
 20
-623.714
 30
0.000000
  70
    32
  0
VERTEX
  8
É}ÿg
  5
793
 10
1164.81
 20
-623.735
 30
0.000000
  70
    32
  0
VERTEX
  8
É}ÿg
  5
794
 10
1164.83
 20
-623.756
 30
0.000000
  70
    32
  0
VERTEX
  8
É}ÿg
  5
795
 10
1164.85
 20
-623.777
 30
0.000000
  70
    32
  0
VERTEX
  8
É}ÿg
  5
796
 10
1164.88
 20
-623.798
 30
0.000000
  70
    32
  0
VERTEX
  8
É}ÿg
  5
797
 10
1164.90
 20
-623.819
 30
0.000000
  70
    32
  0
VERTEX
  8
É}ÿg
  5
798
 10
1164.92
 20
-623.840
 30
0.000000
  70
    32
  0
VERTEX
  8
É}ÿg
  5
799
 10
1164.94
 20
-623.861
 30
0.000000
  70
    32
  0
VERTEX
  8
É}ÿg
  5
79A
 10
1164.96
 20
-623.882
 30
0.000000
  70
    32
  0
VERTEX
  8
É}ÿg
  5
79B
 10
1164.98
 20
-623.903
 30
0.000000
  70
    32
  0
VERTEX
  8
É}ÿg
  5
79C
 10
1165.00
 20
-623.924
 30
0.000000
  70
    32
  0
VERTEX
  8
É}ÿg
  5
79D
 10
1165.02
 20
-623.945
 30
0.000000
  70
    32
  0
VERTEX
  8
É}ÿg
  5
79E
 10
1165.04
 20
-623.965
 30
0.000000
  70
    32
  0
VERTEX
  8
É}ÿg
  5
79F
 10
1165.06
 20
-623.986
 30
0.000000
  70
    32
  0
VERTEX
  8
É}ÿg
  5
7A0
 10
1165.08
 20
-624.007
 30
0.000000
  70
    32
  0
VERTEX
  8
É}ÿg
  5
7A1
 10
1165.10
 20
-624.028
 30
0.000000
  70
    32
  0
VERTEX
  8
É}ÿg
  5
7A2
 10
1165.12
 20
-624.048
 30
0.000000
  70
    32
  0
VERTEX
  8
É}ÿg
  5
7A3
 10
1165.14
 20
-624.069
 30
0.000000
  70
    32
  0
VERTEX
  8
É}ÿg
  5
7A4
 10
1165.16
 20
-624.090
 30
0.000000
  70
    32
  0
VERTEX
  8
É}ÿg
  5
7A5
 10
1165.18
 20
-624.110
 30
0.000000
  70
    32
  0
VERTEX
  8
É}ÿg
  5
7A6
 10
1165.20
 20
-624.131
 30
0.000000
  70
    32
  0
VERTEX
  8
É}ÿg
  5
7A7
 10
1165.23
 20
-624.151
 30
0.000000
  70
    32
  0
VERTEX
  8
É}ÿg
  5
7A8
 10
1165.25
 20
-624.172
 30
0.000000
  70
    32
  0
VERTEX
  8
É}ÿg
  5
7A9
 10
1165.27
 20
-624.192
 30
0.000000
  70
    32
  0
VERTEX
  8
É}ÿg
  5
7AA
 10
1165.29
 20
-624.213
 30
0.000000
  70
    32
  0
VERTEX
  8
É}ÿg
  5
7AB
 10
1165.31
 20
-624.233
 30
0.000000
  70
    32
  0
VERTEX
  8
É}ÿg
  5
7AC
 10
1165.33
 20
-624.254
 30
0.000000
  70
    32
  0
VERTEX
  8
É}ÿg
  5
7AD
 10
1165.35
 20
-624.274
 30
0.000000
  70
    32
  0
VERTEX
  8
É}ÿg
  5
7AE
 10
1165.37
 20
-624.294
 30
0.000000
  70
    32
  0
VERTEX
  8
É}ÿg
  5
7AF
 10
1165.39
 20
-624.314
 30
0.000000
  70
    32
  0
VERTEX
  8
É}ÿg
  5
7B0
 10
1165.41
 20
-624.335
 30
0.000000
  70
    32
  0
VERTEX
  8
É}ÿg
  5
7B1
 10
1165.43
 20
-624.355
 30
0.000000
  70
    32
  0
VERTEX
  8
É}ÿg
  5
7B2
 10
1165.46
 20
-624.375
 30
0.000000
  70
    32
  0
VERTEX
  8
É}ÿg
  5
7B3
 10
1165.48
 20
-624.395
 30
0.000000
  70
    32
  0
VERTEX
  8
É}ÿg
  5
7B4
 10
1165.50
 20
-624.415
 30
0.000000
  70
    32
  0
VERTEX
  8
É}ÿg
  5
7B5
 10
1165.52
 20
-624.435
 30
0.000000
  70
    32
  0
VERTEX
  8
É}ÿg
  5
7B6
 10
1165.54
 20
-624.455
 30
0.000000
  70
    32
  0
VERTEX
  8
É}ÿg
  5
7B7
 10
1165.56
 20
-624.475
 30
0.000000
  70
    32
  0
VERTEX
  8
É}ÿg
  5
7B8
 10
1165.58
 20
-624.495
 30
0.000000
  70
    32
  0
VERTEX
  8
É}ÿg
  5
7B9
 10
1165.60
 20
-624.515
 30
0.000000
  70
    32
  0
VERTEX
  8
É}ÿg
  5
7BA
 10
1165.62
 20
-624.535
 30
0.000000
  70
    32
  0
VERTEX
  8
É}ÿg
  5
7BB
 10
1165.64
 20
-624.555
 30
0.000000
  70
    32
  0
VERTEX
  8
É}ÿg
  5
7BC
 10
1165.67
 20
-624.575
 30
0.000000
  70
    32
  0
VERTEX
  8
É}ÿg
  5
7BD
 10
1165.69
 20
-624.595
 30
0.000000
  70
    32
  0
VERTEX
  8
É}ÿg
  5
7BE
 10
1165.71
 20
-624.614
 30
0.000000
  70
    32
  0
VERTEX
  8
É}ÿg
  5
7BF
 10
1165.73
 20
-624.634
 30
0.000000
  70
    32
  0
VERTEX
  8
É}ÿg
  5
7C0
 10
1165.75
 20
-624.654
 30
0.000000
  70
    32
  0
VERTEX
  8
É}ÿg
  5
7C1
 10
1165.77
 20
-624.673
 30
0.000000
  70
    32
  0
VERTEX
  8
É}ÿg
  5
7C2
 10
1165.79
 20
-624.693
 30
0.000000
  70
    32
  0
VERTEX
  8
É}ÿg
  5
7C3
 10
1165.82
 20
-624.712
 30
0.000000
  70
    32
  0
VERTEX
  8
É}ÿg
  5
7C4
 10
1165.84
 20
-624.732
 30
0.000000
  70
    32
  0
VERTEX
  8
É}ÿg
  5
7C5
 10
1165.86
 20
-624.751
 30
0.000000
  70
    32
  0
SEQEND
  8
É}ÿg
  5
7C6
  0
POLYLINE
  8
É}ÿg
  5
7C7
  66
     1
 10
0.000000
 20
0.000000
 30
0.000000
  70
     8
  0
VERTEX
  8
É}ÿg
  5
7C8
 10
1169.35
 20
-631.806
 30
0.000000
  70
    32
  0
VERTEX
  8
É}ÿg
  5
7C9
 10
1169.43
 20
-631.832
 30
0.000000
  70
    32
  0
VERTEX
  8
É}ÿg
  5
7CA
 10
1169.51
 20
-631.857
 30
0.000000
  70
    32
  0
VERTEX
  8
É}ÿg
  5
7CB
 10
1169.59
 20
-631.883
 30
0.000000
  70
    32
  0
VERTEX
  8
É}ÿg
  5
7CC
 10
1169.67
 20
-631.908
 30
0.000000
  70
    32
  0
VERTEX
  8
É}ÿg
  5
7CD
 10
1169.75
 20
-631.933
 30
0.000000
  70
    32
  0
VERTEX
  8
É}ÿg
  5
7CE
 10
1169.83
 20
-631.958
 30
0.000000
  70
    32
  0
VERTEX
  8
É}ÿg
  5
7CF
 10
1169.91
 20
-631.983
 30
0.000000
  70
    32
  0
VERTEX
  8
É}ÿg
  5
7D0
 10
1170.00
 20
-632.008
 30
0.000000
  70
    32
  0
VERTEX
  8
É}ÿg
  5
7D1
 10
1170.08
 20
-632.033
 30
0.000000
  70
    32
  0
VERTEX
  8
É}ÿg
  5
7D2
 10
1170.16
 20
-632.058
 30
0.000000
  70
    32
  0
VERTEX
  8
É}ÿg
  5
7D3
 10
1170.24
 20
-632.082
 30
0.000000
  70
    32
  0
VERTEX
  8
É}ÿg
  5
7D4
 10
1170.32
 20
-632.107
 30
0.000000
  70
    32
  0
VERTEX
  8
É}ÿg
  5
7D5
 10
1170.40
 20
-632.131
 30
0.000000
  70
    32
  0
VERTEX
  8
É}ÿg
  5
7D6
 10
1170.48
 20
-632.155
 30
0.000000
  70
    32
  0
VERTEX
  8
É}ÿg
  5
7D7
 10
1170.57
 20
-632.179
 30
0.000000
  70
    32
  0
VERTEX
  8
É}ÿg
  5
7D8
 10
1170.65
 20
-632.203
 30
0.000000
  70
    32
  0
VERTEX
  8
É}ÿg
  5
7D9
 10
1170.73
 20
-632.227
 30
0.000000
  70
    32
  0
VERTEX
  8
É}ÿg
  5
7DA
 10
1170.81
 20
-632.251
 30
0.000000
  70
    32
  0
VERTEX
  8
É}ÿg
  5
7DB
 10
1170.89
 20
-632.274
 30
0.000000
  70
    32
  0
VERTEX
  8
É}ÿg
  5
7DC
 10
1170.97
 20
-632.298
 30
0.000000
  70
    32
  0
VERTEX
  8
É}ÿg
  5
7DD
 10
1171.06
 20
-632.321
 30
0.000000
  70
    32
  0
VERTEX
  8
É}ÿg
  5
7DE
 10
1171.14
 20
-632.345
 30
0.000000
  70
    32
  0
VERTEX
  8
É}ÿg
  5
7DF
 10
1171.22
 20
-632.368
 30
0.000000
  70
    32
  0
VERTEX
  8
É}ÿg
  5
7E0
 10
1171.30
 20
-632.391
 30
0.000000
  70
    32
  0
VERTEX
  8
É}ÿg
  5
7E1
 10
1171.39
 20
-632.414
 30
0.000000
  70
    32
  0
VERTEX
  8
É}ÿg
  5
7E2
 10
1171.47
 20
-632.437
 30
0.000000
  70
    32
  0
VERTEX
  8
É}ÿg
  5
7E3
 10
1171.55
 20
-632.459
 30
0.000000
  70
    32
  0
VERTEX
  8
É}ÿg
  5
7E4
 10
1171.63
 20
-632.482
 30
0.000000
  70
    32
  0
VERTEX
  8
É}ÿg
  5
7E5
 10
1171.72
 20
-632.505
 30
0.000000
  70
    32
  0
VERTEX
  8
É}ÿg
  5
7E6
 10
1171.80
 20
-632.527
 30
0.000000
  70
    32
  0
VERTEX
  8
É}ÿg
  5
7E7
 10
1171.88
 20
-632.550
 30
0.000000
  70
    32
  0
VERTEX
  8
É}ÿg
  5
7E8
 10
1171.96
 20
-632.572
 30
0.000000
  70
    32
  0
VERTEX
  8
É}ÿg
  5
7E9
 10
1172.05
 20
-632.594
 30
0.000000
  70
    32
  0
VERTEX
  8
É}ÿg
  5
7EA
 10
1172.13
 20
-632.616
 30
0.000000
  70
    32
  0
VERTEX
  8
É}ÿg
  5
7EB
 10
1172.21
 20
-632.638
 30
0.000000
  70
    32
  0
VERTEX
  8
É}ÿg
  5
7EC
 10
1172.29
 20
-632.660
 30
0.000000
  70
    32
  0
VERTEX
  8
É}ÿg
  5
7ED
 10
1172.38
 20
-632.682
 30
0.000000
  70
    32
  0
VERTEX
  8
É}ÿg
  5
7EE
 10
1172.46
 20
-632.704
 30
0.000000
  70
    32
  0
VERTEX
  8
É}ÿg
  5
7EF
 10
1172.54
 20
-632.725
 30
0.000000
  70
    32
  0
VERTEX
  8
É}ÿg
  5
7F0
 10
1172.63
 20
-632.747
 30
0.000000
  70
    32
  0
VERTEX
  8
É}ÿg
  5
7F1
 10
1172.71
 20
-632.768
 30
0.000000
  70
    32
  0
VERTEX
  8
É}ÿg
  5
7F2
 10
1172.79
 20
-632.790
 30
0.000000
  70
    32
  0
VERTEX
  8
É}ÿg
  5
7F3
 10
1172.88
 20
-632.811
 30
0.000000
  70
    32
  0
VERTEX
  8
É}ÿg
  5
7F4
 10
1172.96
 20
-632.832
 30
0.000000
  70
    32
  0
VERTEX
  8
É}ÿg
  5
7F5
 10
1173.04
 20
-632.853
 30
0.000000
  70
    32
  0
VERTEX
  8
É}ÿg
  5
7F6
 10
1173.13
 20
-632.874
 30
0.000000
  70
    32
  0
VERTEX
  8
É}ÿg
  5
7F7
 10
1173.21
 20
-632.895
 30
0.000000
  70
    32
  0
VERTEX
  8
É}ÿg
  5
7F8
 10
1173.29
 20
-632.916
 30
0.000000
  70
    32
  0
VERTEX
  8
É}ÿg
  5
7F9
 10
1173.38
 20
-632.937
 30
0.000000
  70
    32
  0
VERTEX
  8
É}ÿg
  5
7FA
 10
1173.46
 20
-632.958
 30
0.000000
  70
    32
  0
VERTEX
  8
É}ÿg
  5
7FB
 10
1173.54
 20
-632.978
 30
0.000000
  70
    32
  0
VERTEX
  8
É}ÿg
  5
7FC
 10
1173.63
 20
-632.999
 30
0.000000
  70
    32
  0
VERTEX
  8
É}ÿg
  5
7FD
 10
1173.71
 20
-633.019
 30
0.000000
  70
    32
  0
VERTEX
  8
É}ÿg
  5
7FE
 10
1173.79
 20
-633.040
 30
0.000000
  70
    32
  0
VERTEX
  8
É}ÿg
  5
7FF
 10
1173.88
 20
-633.060
 30
0.000000
  70
    32
  0
VERTEX
  8
É}ÿg
  5
800
 10
1173.96
 20
-633.080
 30
0.000000
  70
    32
  0
VERTEX
  8
É}ÿg
  5
801
 10
1174.04
 20
-633.101
 30
0.000000
  70
    32
  0
VERTEX
  8
É}ÿg
  5
802
 10
1174.13
 20
-633.121
 30
0.000000
  70
    32
  0
VERTEX
  8
É}ÿg
  5
803
 10
1174.21
 20
-633.141
 30
0.000000
  70
    32
  0
VERTEX
  8
É}ÿg
  5
804
 10
1174.30
 20
-633.161
 30
0.000000
  70
    32
  0
VERTEX
  8
É}ÿg
  5
805
 10
1174.38
 20
-633.181
 30
0.000000
  70
    32
  0
VERTEX
  8
É}ÿg
  5
806
 10
1174.46
 20
-633.201
 30
0.000000
  70
    32
  0
VERTEX
  8
É}ÿg
  5
807
 10
1174.55
 20
-633.220
 30
0.000000
  70
    32
  0
VERTEX
  8
É}ÿg
  5
808
 10
1174.63
 20
-633.240
 30
0.000000
  70
    32
  0
VERTEX
  8
É}ÿg
  5
809
 10
1174.72
 20
-633.260
 30
0.000000
  70
    32
  0
VERTEX
  8
É}ÿg
  5
80A
 10
1174.80
 20
-633.279
 30
0.000000
  70
    32
  0
VERTEX
  8
É}ÿg
  5
80B
 10
1174.88
 20
-633.299
 30
0.000000
  70
    32
  0
VERTEX
  8
É}ÿg
  5
80C
 10
1174.97
 20
-633.318
 30
0.000000
  70
    32
  0
VERTEX
  8
É}ÿg
  5
80D
 10
1175.05
 20
-633.338
 30
0.000000
  70
    32
  0
VERTEX
  8
É}ÿg
  5
80E
 10
1175.14
 20
-633.357
 30
0.000000
  70
    32
  0
VERTEX
  8
É}ÿg
  5
80F
 10
1175.22
 20
-633.376
 30
0.000000
  70
    32
  0
VERTEX
  8
É}ÿg
  5
810
 10
1175.30
 20
-633.396
 30
0.000000
  70
    32
  0
VERTEX
  8
É}ÿg
  5
811
 10
1175.39
 20
-633.415
 30
0.000000
  70
    32
  0
VERTEX
  8
É}ÿg
  5
812
 10
1175.47
 20
-633.434
 30
0.000000
  70
    32
  0
VERTEX
  8
É}ÿg
  5
813
 10
1175.56
 20
-633.453
 30
0.000000
  70
    32
  0
VERTEX
  8
É}ÿg
  5
814
 10
1175.64
 20
-633.472
 30
0.000000
  70
    32
  0
VERTEX
  8
É}ÿg
  5
815
 10
1175.73
 20
-633.491
 30
0.000000
  70
    32
  0
VERTEX
  8
É}ÿg
  5
816
 10
1175.81
 20
-633.510
 30
0.000000
  70
    32
  0
VERTEX
  8
É}ÿg
  5
817
 10
1175.90
 20
-633.529
 30
0.000000
  70
    32
  0
VERTEX
  8
É}ÿg
  5
818
 10
1175.98
 20
-633.548
 30
0.000000
  70
    32
  0
VERTEX
  8
É}ÿg
  5
819
 10
1176.06
 20
-633.566
 30
0.000000
  70
    32
  0
VERTEX
  8
É}ÿg
  5
81A
 10
1176.15
 20
-633.585
 30
0.000000
  70
    32
  0
VERTEX
  8
É}ÿg
  5
81B
 10
1176.23
 20
-633.604
 30
0.000000
  70
    32
  0
VERTEX
  8
É}ÿg
  5
81C
 10
1176.32
 20
-633.623
 30
0.000000
  70
    32
  0
VERTEX
  8
É}ÿg
  5
81D
 10
1176.40
 20
-633.641
 30
0.000000
  70
    32
  0
VERTEX
  8
É}ÿg
  5
81E
 10
1176.49
 20
-633.660
 30
0.000000
  70
    32
  0
VERTEX
  8
É}ÿg
  5
81F
 10
1176.57
 20
-633.678
 30
0.000000
  70
    32
  0
VERTEX
  8
É}ÿg
  5
820
 10
1176.66
 20
-633.697
 30
0.000000
  70
    32
  0
VERTEX
  8
É}ÿg
  5
821
 10
1176.74
 20
-633.715
 30
0.000000
  70
    32
  0
VERTEX
  8
É}ÿg
  5
822
 10
1176.83
 20
-633.734
 30
0.000000
  70
    32
  0
VERTEX
  8
É}ÿg
  5
823
 10
1176.91
 20
-633.752
 30
0.000000
  70
    32
  0
VERTEX
  8
É}ÿg
  5
824
 10
1177.00
 20
-633.770
 30
0.000000
  70
    32
  0
VERTEX
  8
É}ÿg
  5
825
 10
1177.08
 20
-633.789
 30
0.000000
  70
    32
  0
VERTEX
  8
É}ÿg
  5
826
 10
1177.17
 20
-633.807
 30
0.000000
  70
    32
  0
VERTEX
  8
É}ÿg
  5
827
 10
1177.25
 20
-633.825
 30
0.000000
  70
    32
  0
VERTEX
  8
É}ÿg
  5
828
 10
1177.34
 20
-633.843
 30
0.000000
  70
    32
  0
VERTEX
  8
É}ÿg
  5
829
 10
1177.42
 20
-633.861
 30
0.000000
  70
    32
  0
VERTEX
  8
É}ÿg
  5
82A
 10
1177.50
 20
-633.880
 30
0.000000
  70
    32
  0
VERTEX
  8
É}ÿg
  5
82B
 10
1177.59
 20
-633.898
 30
0.000000
  70
    32
  0
VERTEX
  8
É}ÿg
  5
82C
 10
1177.67
 20
-633.916
 30
0.000000
  70
    32
  0
VERTEX
  8
É}ÿg
  5
82D
 10
1177.76
 20
-633.934
 30
0.000000
  70
    32
  0
VERTEX
  8
É}ÿg
  5
82E
 10
1177.84
 20
-633.952
 30
0.000000
  70
    32
  0
VERTEX
  8
É}ÿg
  5
82F
 10
1177.93
 20
-633.970
 30
0.000000
  70
    32
  0
VERTEX
  8
É}ÿg
  5
830
 10
1178.01
 20
-633.988
 30
0.000000
  70
    32
  0
VERTEX
  8
É}ÿg
  5
831
 10
1178.10
 20
-634.006
 30
0.000000
  70
    32
  0
VERTEX
  8
É}ÿg
  5
832
 10
1178.18
 20
-634.024
 30
0.000000
  70
    32
  0
VERTEX
  8
É}ÿg
  5
833
 10
1178.27
 20
-634.042
 30
0.000000
  70
    32
  0
VERTEX
  8
É}ÿg
  5
834
 10
1178.35
 20
-634.059
 30
0.000000
  70
    32
  0
VERTEX
  8
É}ÿg
  5
835
 10
1178.44
 20
-634.077
 30
0.000000
  70
    32
  0
VERTEX
  8
É}ÿg
  5
836
 10
1178.52
 20
-634.095
 30
0.000000
  70
    32
  0
VERTEX
  8
É}ÿg
  5
837
 10
1178.61
 20
-634.113
 30
0.000000
  70
    32
  0
VERTEX
  8
É}ÿg
  5
838
 10
1178.69
 20
-634.131
 30
0.000000
  70
    32
  0
VERTEX
  8
É}ÿg
  5
839
 10
1178.78
 20
-634.149
 30
0.000000
  70
    32
  0
VERTEX
  8
É}ÿg
  5
83A
 10
1178.86
 20
-634.166
 30
0.000000
  70
    32
  0
VERTEX
  8
É}ÿg
  5
83B
 10
1178.95
 20
-634.184
 30
0.000000
  70
    32
  0
VERTEX
  8
É}ÿg
  5
83C
 10
1179.03
 20
-634.202
 30
0.000000
  70
    32
  0
VERTEX
  8
É}ÿg
  5
83D
 10
1179.12
 20
-634.220
 30
0.000000
  70
    32
  0
VERTEX
  8
É}ÿg
  5
83E
 10
1179.21
 20
-634.237
 30
0.000000
  70
    32
  0
VERTEX
  8
É}ÿg
  5
83F
 10
1179.29
 20
-634.255
 30
0.000000
  70
    32
  0
VERTEX
  8
É}ÿg
  5
840
 10
1179.38
 20
-634.273
 30
0.000000
  70
    32
  0
VERTEX
  8
É}ÿg
  5
841
 10
1179.46
 20
-634.291
 30
0.000000
  70
    32
  0
VERTEX
  8
É}ÿg
  5
842
 10
1179.55
 20
-634.308
 30
0.000000
  70
    32
  0
VERTEX
  8
É}ÿg
  5
843
 10
1179.63
 20
-634.326
 30
0.000000
  70
    32
  0
VERTEX
  8
É}ÿg
  5
844
 10
1179.72
 20
-634.344
 30
0.000000
  70
    32
  0
VERTEX
  8
É}ÿg
  5
845
 10
1179.80
 20
-634.361
 30
0.000000
  70
    32
  0
VERTEX
  8
É}ÿg
  5
846
 10
1179.89
 20
-634.379
 30
0.000000
  70
    32
  0
VERTEX
  8
É}ÿg
  5
847
 10
1179.97
 20
-634.397
 30
0.000000
  70
    32
  0
SEQEND
  8
É}ÿg
  5
848
  0
POLYLINE
  8
É}ÿg
  5
849
  66
     1
 10
0.000000
 20
0.000000
 30
0.000000
  70
     8
  0
VERTEX
  8
É}ÿg
  5
84A
 10
1152.97
 20
-621.329
 30
0.000000
  70
    32
  0
VERTEX
  8
É}ÿg
  5
84B
 10
1153.03
 20
-621.379
 30
0.000000
  70
    32
  0
VERTEX
  8
É}ÿg
  5
84C
 10
1153.08
 20
-621.429
 30
0.000000
  70
    32
  0
VERTEX
  8
É}ÿg
  5
84D
 10
1153.13
 20
-621.479
 30
0.000000
  70
    32
  0
VERTEX
  8
É}ÿg
  5
84E
 10
1153.19
 20
-621.529
 30
0.000000
  70
    32
  0
VERTEX
  8
É}ÿg
  5
84F
 10
1153.24
 20
-621.578
 30
0.000000
  70
    32
  0
VERTEX
  8
É}ÿg
  5
850
 10
1153.30
 20
-621.628
 30
0.000000
  70
    32
  0
VERTEX
  8
É}ÿg
  5
851
 10
1153.35
 20
-621.678
 30
0.000000
  70
    32
  0
VERTEX
  8
É}ÿg
  5
852
 10
1153.40
 20
-621.728
 30
0.000000
  70
    32
  0
VERTEX
  8
É}ÿg
  5
853
 10
1153.46
 20
-621.778
 30
0.000000
  70
    32
  0
VERTEX
  8
É}ÿg
  5
854
 10
1153.51
 20
-621.827
 30
0.000000
  70
    32
  0
VERTEX
  8
É}ÿg
  5
855
 10
1153.57
 20
-621.877
 30
0.000000
  70
    32
  0
VERTEX
  8
É}ÿg
  5
856
 10
1153.62
 20
-621.927
 30
0.000000
  70
    32
  0
VERTEX
  8
É}ÿg
  5
857
 10
1153.67
 20
-621.977
 30
0.000000
  70
    32
  0
VERTEX
  8
É}ÿg
  5
858
 10
1153.73
 20
-622.026
 30
0.000000
  70
    32
  0
VERTEX
  8
É}ÿg
  5
859
 10
1153.78
 20
-622.076
 30
0.000000
  70
    32
  0
VERTEX
  8
É}ÿg
  5
85A
 10
1153.84
 20
-622.126
 30
0.000000
  70
    32
  0
VERTEX
  8
É}ÿg
  5
85B
 10
1153.89
 20
-622.175
 30
0.000000
  70
    32
  0
VERTEX
  8
É}ÿg
  5
85C
 10
1153.94
 20
-622.225
 30
0.000000
  70
    32
  0
VERTEX
  8
É}ÿg
  5
85D
 10
1154.00
 20
-622.275
 30
0.000000
  70
    32
  0
VERTEX
  8
É}ÿg
  5
85E
 10
1154.05
 20
-622.324
 30
0.000000
  70
    32
  0
VERTEX
  8
É}ÿg
  5
85F
 10
1154.11
 20
-622.374
 30
0.000000
  70
    32
  0
VERTEX
  8
É}ÿg
  5
860
 10
1154.16
 20
-622.423
 30
0.000000
  70
    32
  0
VERTEX
  8
É}ÿg
  5
861
 10
1154.21
 20
-622.473
 30
0.000000
  70
    32
  0
VERTEX
  8
É}ÿg
  5
862
 10
1154.27
 20
-622.522
 30
0.000000
  70
    32
  0
VERTEX
  8
É}ÿg
  5
863
 10
1154.32
 20
-622.572
 30
0.000000
  70
    32
  0
VERTEX
  8
É}ÿg
  5
864
 10
1154.38
 20
-622.621
 30
0.000000
  70
    32
  0
VERTEX
  8
É}ÿg
  5
865
 10
1154.43
 20
-622.671
 30
0.000000
  70
    32
  0
VERTEX
  8
É}ÿg
  5
866
 10
1154.49
 20
-622.720
 30
0.000000
  70
    32
  0
VERTEX
  8
É}ÿg
  5
867
 10
1154.54
 20
-622.770
 30
0.000000
  70
    32
  0
VERTEX
  8
É}ÿg
  5
868
 10
1154.59
 20
-622.819
 30
0.000000
  70
    32
  0
VERTEX
  8
É}ÿg
  5
869
 10
1154.65
 20
-622.868
 30
0.000000
  70
    32
  0
VERTEX
  8
É}ÿg
  5
86A
 10
1154.70
 20
-622.918
 30
0.000000
  70
    32
  0
VERTEX
  8
É}ÿg
  5
86B
 10
1154.76
 20
-622.967
 30
0.000000
  70
    32
  0
VERTEX
  8
É}ÿg
  5
86C
 10
1154.81
 20
-623.016
 30
0.000000
  70
    32
  0
VERTEX
  8
É}ÿg
  5
86D
 10
1154.87
 20
-623.065
 30
0.000000
  70
    32
  0
VERTEX
  8
É}ÿg
  5
86E
 10
1154.92
 20
-623.114
 30
0.000000
  70
    32
  0
VERTEX
  8
É}ÿg
  5
86F
 10
1154.98
 20
-623.164
 30
0.000000
  70
    32
  0
VERTEX
  8
É}ÿg
  5
870
 10
1155.03
 20
-623.213
 30
0.000000
  70
    32
  0
VERTEX
  8
É}ÿg
  5
871
 10
1155.08
 20
-623.262
 30
0.000000
  70
    32
  0
VERTEX
  8
É}ÿg
  5
872
 10
1155.14
 20
-623.311
 30
0.000000
  70
    32
  0
VERTEX
  8
É}ÿg
  5
873
 10
1155.19
 20
-623.360
 30
0.000000
  70
    32
  0
VERTEX
  8
É}ÿg
  5
874
 10
1155.25
 20
-623.409
 30
0.000000
  70
    32
  0
VERTEX
  8
É}ÿg
  5
875
 10
1155.30
 20
-623.457
 30
0.000000
  70
    32
  0
VERTEX
  8
É}ÿg
  5
876
 10
1155.36
 20
-623.506
 30
0.000000
  70
    32
  0
VERTEX
  8
É}ÿg
  5
877
 10
1155.41
 20
-623.555
 30
0.000000
  70
    32
  0
VERTEX
  8
É}ÿg
  5
878
 10
1155.47
 20
-623.604
 30
0.000000
  70
    32
  0
VERTEX
  8
É}ÿg
  5
879
 10
1155.52
 20
-623.652
 30
0.000000
  70
    32
  0
VERTEX
  8
É}ÿg
  5
87A
 10
1155.58
 20
-623.701
 30
0.000000
  70
    32
  0
VERTEX
  8
É}ÿg
  5
87B
 10
1155.63
 20
-623.750
 30
0.000000
  70
    32
  0
VERTEX
  8
É}ÿg
  5
87C
 10
1155.68
 20
-623.798
 30
0.000000
  70
    32
  0
VERTEX
  8
É}ÿg
  5
87D
 10
1155.74
 20
-623.847
 30
0.000000
  70
    32
  0
VERTEX
  8
É}ÿg
  5
87E
 10
1155.79
 20
-623.895
 30
0.000000
  70
    32
  0
VERTEX
  8
É}ÿg
  5
87F
 10
1155.85
 20
-623.944
 30
0.000000
  70
    32
  0
VERTEX
  8
É}ÿg
  5
880
 10
1155.90
 20
-623.992
 30
0.000000
  70
    32
  0
VERTEX
  8
É}ÿg
  5
881
 10
1155.96
 20
-624.040
 30
0.000000
  70
    32
  0
VERTEX
  8
É}ÿg
  5
882
 10
1156.01
 20
-624.088
 30
0.000000
  70
    32
  0
VERTEX
  8
É}ÿg
  5
883
 10
1156.07
 20
-624.136
 30
0.000000
  70
    32
  0
VERTEX
  8
É}ÿg
  5
884
 10
1156.12
 20
-624.185
 30
0.000000
  70
    32
  0
VERTEX
  8
É}ÿg
  5
885
 10
1156.18
 20
-624.233
 30
0.000000
  70
    32
  0
VERTEX
  8
É}ÿg
  5
886
 10
1156.23
 20
-624.281
 30
0.000000
  70
    32
  0
VERTEX
  8
É}ÿg
  5
887
 10
1156.29
 20
-624.328
 30
0.000000
  70
    32
  0
VERTEX
  8
É}ÿg
  5
888
 10
1156.34
 20
-624.376
 30
0.000000
  70
    32
  0
VERTEX
  8
É}ÿg
  5
889
 10
1156.40
 20
-624.424
 30
0.000000
  70
    32
  0
VERTEX
  8
É}ÿg
  5
88A
 10
1156.45
 20
-624.472
 30
0.000000
  70
    32
  0
VERTEX
  8
É}ÿg
  5
88B
 10
1156.51
 20
-624.519
 30
0.000000
  70
    32
  0
VERTEX
  8
É}ÿg
  5
88C
 10
1156.56
 20
-624.567
 30
0.000000
  70
    32
  0
VERTEX
  8
É}ÿg
  5
88D
 10
1156.62
 20
-624.615
 30
0.000000
  70
    32
  0
VERTEX
  8
É}ÿg
  5
88E
 10
1156.67
 20
-624.662
 30
0.000000
  70
    32
  0
VERTEX
  8
É}ÿg
  5
88F
 10
1156.73
 20
-624.709
 30
0.000000
  70
    32
  0
VERTEX
  8
É}ÿg
  5
890
 10
1156.79
 20
-624.757
 30
0.000000
  70
    32
  0
VERTEX
  8
É}ÿg
  5
891
 10
1156.84
 20
-624.804
 30
0.000000
  70
    32
  0
VERTEX
  8
É}ÿg
  5
892
 10
1156.90
 20
-624.851
 30
0.000000
  70
    32
  0
VERTEX
  8
É}ÿg
  5
893
 10
1156.95
 20
-624.898
 30
0.000000
  70
    32
  0
VERTEX
  8
É}ÿg
  5
894
 10
1157.01
 20
-624.945
 30
0.000000
  70
    32
  0
VERTEX
  8
É}ÿg
  5
895
 10
1157.06
 20
-624.992
 30
0.000000
  70
    32
  0
VERTEX
  8
É}ÿg
  5
896
 10
1157.12
 20
-625.039
 30
0.000000
  70
    32
  0
VERTEX
  8
É}ÿg
  5
897
 10
1157.17
 20
-625.086
 30
0.000000
  70
    32
  0
VERTEX
  8
É}ÿg
  5
898
 10
1157.23
 20
-625.132
 30
0.000000
  70
    32
  0
VERTEX
  8
É}ÿg
  5
899
 10
1157.29
 20
-625.179
 30
0.000000
  70
    32
  0
VERTEX
  8
É}ÿg
  5
89A
 10
1157.34
 20
-625.226
 30
0.000000
  70
    32
  0
VERTEX
  8
É}ÿg
  5
89B
 10
1157.40
 20
-625.272
 30
0.000000
  70
    32
  0
VERTEX
  8
É}ÿg
  5
89C
 10
1157.45
 20
-625.318
 30
0.000000
  70
    32
  0
VERTEX
  8
É}ÿg
  5
89D
 10
1157.51
 20
-625.365
 30
0.000000
  70
    32
  0
VERTEX
  8
É}ÿg
  5
89E
 10
1157.57
 20
-625.411
 30
0.000000
  70
    32
  0
VERTEX
  8
É}ÿg
  5
89F
 10
1157.62
 20
-625.457
 30
0.000000
  70
    32
  0
VERTEX
  8
É}ÿg
  5
8A0
 10
1157.68
 20
-625.503
 30
0.000000
  70
    32
  0
VERTEX
  8
É}ÿg
  5
8A1
 10
1157.73
 20
-625.549
 30
0.000000
  70
    32
  0
VERTEX
  8
É}ÿg
  5
8A2
 10
1157.79
 20
-625.595
 30
0.000000
  70
    32
  0
VERTEX
  8
É}ÿg
  5
8A3
 10
1157.85
 20
-625.641
 30
0.000000
  70
    32
  0
VERTEX
  8
É}ÿg
  5
8A4
 10
1157.90
 20
-625.686
 30
0.000000
  70
    32
  0
VERTEX
  8
É}ÿg
  5
8A5
 10
1157.96
 20
-625.732
 30
0.000000
  70
    32
  0
VERTEX
  8
É}ÿg
  5
8A6
 10
1158.01
 20
-625.777
 30
0.000000
  70
    32
  0
VERTEX
  8
É}ÿg
  5
8A7
 10
1158.07
 20
-625.823
 30
0.000000
  70
    32
  0
VERTEX
  8
É}ÿg
  5
8A8
 10
1158.13
 20
-625.868
 30
0.000000
  70
    32
  0
VERTEX
  8
É}ÿg
  5
8A9
 10
1158.18
 20
-625.913
 30
0.000000
  70
    32
  0
VERTEX
  8
É}ÿg
  5
8AA
 10
1158.24
 20
-625.958
 30
0.000000
  70
    32
  0
VERTEX
  8
É}ÿg
  5
8AB
 10
1158.30
 20
-626.003
 30
0.000000
  70
    32
  0
VERTEX
  8
É}ÿg
  5
8AC
 10
1158.35
 20
-626.048
 30
0.000000
  70
    32
  0
VERTEX
  8
É}ÿg
  5
8AD
 10
1158.41
 20
-626.093
 30
0.000000
  70
    32
  0
VERTEX
  8
É}ÿg
  5
8AE
 10
1158.47
 20
-626.137
 30
0.000000
  70
    32
  0
VERTEX
  8
É}ÿg
  5
8AF
 10
1158.52
 20
-626.182
 30
0.000000
  70
    32
  0
VERTEX
  8
É}ÿg
  5
8B0
 10
1158.58
 20
-626.226
 30
0.000000
  70
    32
  0
VERTEX
  8
É}ÿg
  5
8B1
 10
1158.64
 20
-626.271
 30
0.000000
  70
    32
  0
VERTEX
  8
É}ÿg
  5
8B2
 10
1158.70
 20
-626.315
 30
0.000000
  70
    32
  0
VERTEX
  8
É}ÿg
  5
8B3
 10
1158.75
 20
-626.359
 30
0.000000
  70
    32
  0
VERTEX
  8
É}ÿg
  5
8B4
 10
1158.81
 20
-626.403
 30
0.000000
  70
    32
  0
VERTEX
  8
É}ÿg
  5
8B5
 10
1158.87
 20
-626.447
 30
0.000000
  70
    32
  0
VERTEX
  8
É}ÿg
  5
8B6
 10
1158.92
 20
-626.491
 30
0.000000
  70
    32
  0
VERTEX
  8
É}ÿg
  5
8B7
 10
1158.98
 20
-626.535
 30
0.000000
  70
    32
  0
VERTEX
  8
É}ÿg
  5
8B8
 10
1159.04
 20
-626.578
 30
0.000000
  70
    32
  0
VERTEX
  8
É}ÿg
  5
8B9
 10
1159.10
 20
-626.622
 30
0.000000
  70
    32
  0
VERTEX
  8
É}ÿg
  5
8BA
 10
1159.15
 20
-626.665
 30
0.000000
  70
    32
  0
VERTEX
  8
É}ÿg
  5
8BB
 10
1159.21
 20
-626.708
 30
0.000000
  70
    32
  0
VERTEX
  8
É}ÿg
  5
8BC
 10
1159.27
 20
-626.752
 30
0.000000
  70
    32
  0
VERTEX
  8
É}ÿg
  5
8BD
 10
1159.33
 20
-626.795
 30
0.000000
  70
    32
  0
VERTEX
  8
É}ÿg
  5
8BE
 10
1159.38
 20
-626.837
 30
0.000000
  70
    32
  0
VERTEX
  8
É}ÿg
  5
8BF
 10
1159.44
 20
-626.880
 30
0.000000
  70
    32
  0
VERTEX
  8
É}ÿg
  5
8C0
 10
1159.50
 20
-626.923
 30
0.000000
  70
    32
  0
VERTEX
  8
É}ÿg
  5
8C1
 10
1159.56
 20
-626.965
 30
0.000000
  70
    32
  0
VERTEX
  8
É}ÿg
  5
8C2
 10
1159.62
 20
-627.008
 30
0.000000
  70
    32
  0
VERTEX
  8
É}ÿg
  5
8C3
 10
1159.67
 20
-627.050
 30
0.000000
  70
    32
  0
VERTEX
  8
É}ÿg
  5
8C4
 10
1159.73
 20
-627.092
 30
0.000000
  70
    32
  0
VERTEX
  8
É}ÿg
  5
8C5
 10
1159.79
 20
-627.134
 30
0.000000
  70
    32
  0
VERTEX
  8
É}ÿg
  5
8C6
 10
1159.85
 20
-627.176
 30
0.000000
  70
    32
  0
VERTEX
  8
É}ÿg
  5
8C7
 10
1159.91
 20
-627.218
 30
0.000000
  70
    32
  0
VERTEX
  8
É}ÿg
  5
8C8
 10
1159.97
 20
-627.260
 30
0.000000
  70
    32
  0
VERTEX
  8
É}ÿg
  5
8C9
 10
1160.02
 20
-627.301
 30
0.000000
  70
    32
  0
VERTEX
  8
É}ÿg
  5
8CA
 10
1160.08
 20
-627.342
 30
0.000000
  70
    32
  0
VERTEX
  8
É}ÿg
  5
8CB
 10
1160.14
 20
-627.384
 30
0.000000
  70
    32
  0
VERTEX
  8
É}ÿg
  5
8CC
 10
1160.20
 20
-627.425
 30
0.000000
  70
    32
  0
VERTEX
  8
É}ÿg
  5
8CD
 10
1160.26
 20
-627.466
 30
0.000000
  70
    32
  0
VERTEX
  8
É}ÿg
  5
8CE
 10
1160.32
 20
-627.507
 30
0.000000
  70
    32
  0
VERTEX
  8
É}ÿg
  5
8CF
 10
1160.38
 20
-627.547
 30
0.000000
  70
    32
  0
VERTEX
  8
É}ÿg
  5
8D0
 10
1160.44
 20
-627.588
 30
0.000000
  70
    32
  0
VERTEX
  8
É}ÿg
  5
8D1
 10
1160.50
 20
-627.628
 30
0.000000
  70
    32
  0
VERTEX
  8
É}ÿg
  5
8D2
 10
1160.55
 20
-627.669
 30
0.000000
  70
    32
  0
VERTEX
  8
É}ÿg
  5
8D3
 10
1160.61
 20
-627.709
 30
0.000000
  70
    32
  0
VERTEX
  8
É}ÿg
  5
8D4
 10
1160.67
 20
-627.749
 30
0.000000
  70
    32
  0
VERTEX
  8
É}ÿg
  5
8D5
 10
1160.73
 20
-627.789
 30
0.000000
  70
    32
  0
VERTEX
  8
É}ÿg
  5
8D6
 10
1160.79
 20
-627.828
 30
0.000000
  70
    32
  0
VERTEX
  8
É}ÿg
  5
8D7
 10
1160.85
 20
-627.868
 30
0.000000
  70
    32
  0
VERTEX
  8
É}ÿg
  5
8D8
 10
1160.91
 20
-627.907
 30
0.000000
  70
    32
  0
VERTEX
  8
É}ÿg
  5
8D9
 10
1160.97
 20
-627.947
 30
0.000000
  70
    32
  0
VERTEX
  8
É}ÿg
  5
8DA
 10
1161.03
 20
-627.986
 30
0.000000
  70
    32
  0
VERTEX
  8
É}ÿg
  5
8DB
 10
1161.09
 20
-628.025
 30
0.000000
  70
    32
  0
VERTEX
  8
É}ÿg
  5
8DC
 10
1161.15
 20
-628.064
 30
0.000000
  70
    32
  0
VERTEX
  8
É}ÿg
  5
8DD
 10
1161.21
 20
-628.102
 30
0.000000
  70
    32
  0
VERTEX
  8
É}ÿg
  5
8DE
 10
1161.27
 20
-628.141
 30
0.000000
  70
    32
  0
VERTEX
  8
É}ÿg
  5
8DF
 10
1161.33
 20
-628.179
 30
0.000000
  70
    32
  0
VERTEX
  8
É}ÿg
  5
8E0
 10
1161.39
 20
-628.217
 30
0.000000
  70
    32
  0
VERTEX
  8
É}ÿg
  5
8E1
 10
1161.45
 20
-628.256
 30
0.000000
  70
    32
  0
VERTEX
  8
É}ÿg
  5
8E2
 10
1161.51
 20
-628.293
 30
0.000000
  70
    32
  0
VERTEX
  8
É}ÿg
  5
8E3
 10
1161.57
 20
-628.331
 30
0.000000
  70
    32
  0
VERTEX
  8
É}ÿg
  5
8E4
 10
1161.63
 20
-628.369
 30
0.000000
  70
    32
  0
VERTEX
  8
É}ÿg
  5
8E5
 10
1161.69
 20
-628.406
 30
0.000000
  70
    32
  0
VERTEX
  8
É}ÿg
  5
8E6
 10
1161.76
 20
-628.443
 30
0.000000
  70
    32
  0
VERTEX
  8
É}ÿg
  5
8E7
 10
1161.82
 20
-628.481
 30
0.000000
  70
    32
  0
VERTEX
  8
É}ÿg
  5
8E8
 10
1161.88
 20
-628.518
 30
0.000000
  70
    32
  0
VERTEX
  8
É}ÿg
  5
8E9
 10
1161.94
 20
-628.554
 30
0.000000
  70
    32
  0
SEQEND
  8
É}ÿg
  5
8EA
  0
INSERT
  5
17E
  8
0
  6
CONTINUOUS
  2
*U98
 10
0.0
 20
0.0
 30
0.0
  0
LINE
  5
17F
  8
É}ÿg
 10
1193.6650559085001
 20
-554.52678026870001
 30
0.0
 11
1193.6650559085001
 21
-561.72678026870005
 31
0.0
  0
LINE
  5
180
  8
É}ÿg
 10
1144.9892428383
 20
-619.39676136809999
 30
0.0
 11
1144.9892428383
 21
-623.89676136809987
 31
0.0
  0
LINE
  5
181
  8
É}ÿg
 10
1193.6650559085001
 20
-561.72678026870005
 30
0.0
 11
1208.0650559085
 21
-565.32678026869996
 31
0.0
  0
LINE
  5
182
  8
É}ÿg
 10
1152.9710610201
 20
-613.39676136809999
 30
0.0
 11
1152.9710610201
 21
-618.79676136809985
 31
0.0
  0
ARC
  5
183
  8
É}ÿg
 10
1131.4892428383
 20
-625.39676136809987
 30
0.0
 40
9.0
 50
270.0
 51
0.0
  0
LINE
  5
184
  8
É}ÿg
 10
1002.0073033734
 20
-541.62678026870003
 30
0.0
 11
1002.0073033734
 21
-640.62678026870003
 31
0.0
  0
INSERT
  5
185
  8
0
  6
CONTINUOUS
  2
*U99
 10
0.0
 20
0.0
 30
0.0
  0
INSERT
  5
186
  8
0
  6
CONTINUOUS
  2
*U100
 10
0.0
 20
0.0
 30
0.0
  0
INSERT
  5
187
  8
0
  6
CONTINUOUS
  2
*U101
 10
0.0
 20
0.0
 30
0.0
  0
INSERT
  5
188
  8
0
  6
CONTINUOUS
  2
*U102
 10
0.0
 20
0.0
 30
0.0
  0
LINE
  5
189
  8
É}ÿg
 10
1114.5073033734
 20
-574.62678026869992
 30
0.0
 11
1114.5073033734
 21
-607.62678026870003
 31
0.0
  0
LINE
  5
18A
  8
É}ÿg
 10
1002.0073033734
 20
-607.62678026870003
 30
0.0
 11
1437.0073033734
 21
-607.62678026870003
 31
0.0
  0
LINE
  5
18B
  8
É}ÿg
 10
1009.5073033734
 20
-591.12678026870003
 30
0.0
 11
1107.0073033734
 21
-591.12678026870003
 31
0.0
  0
LINE
  5
18C
  8
É}ÿg
 10
1122.0073033734
 20
-591.12678026870003
 30
0.0
 11
1219.5073033734
 21
-591.12678026870003
 31
0.0
  0
INSERT
  5
18D
  8
0
  6
CONTINUOUS
  2
*U103
 10
0.0
 20
0.0
 30
0.0
  0
INSERT
  5
18E
  8
0
  6
CONTINUOUS
  2
*U104
 10
0.0
 20
0.0
 30
0.0
  0
LINE
  5
18F
  8
É}ÿg
 10
1029.0073033734
 20
-526.62678026870003
 30
0.0
 11
1029.0073033734
 21
-511.62678026869997
 31
0.0
  0
LINE
  5
190
  8
É}ÿg
 10
1002.0073033734
 20
-526.62678026870003
 30
0.0
 11
1002.0073033734
 21
-511.62678026869997
 31
0.0
  0
LINE
  5
191
  8
É}ÿg
 10
1344.0073033734
 20
-526.62678026870003
 30
0.0
 11
1344.0073033734
 21
-511.62678026869997
 31
0.0
  0
LINE
  5
192
  8
É}ÿg
 10
1317.0073033734
 20
-526.62678026870003
 30
0.0
 11
1317.0073033734
 21
-511.62678026869997
 31
0.0
  0
LINE
  5
193
  8
É}ÿg
 10
1437.0073033734
 20
-511.62678026869997
 30
0.0
 11
1002.0073033734
 21
-511.62678026869997
 31
0.0
  0
LINE
  5
194
  8
É}ÿg
 10
1002.0073033734
 20
-526.62678026870003
 30
0.0
 11
1437.0073033734
 21
-526.62678026870003
 31
0.0
  0
LINE
  5
195
  8
É}ÿg
 10
1179.0073033734
 20
-526.62678026870003
 30
0.0
 11
1179.0073033734
 21
-511.62678026869997
 31
0.0
  0
INSERT
  5
196
  8
0
  6
CONTINUOUS
  2
*U105
 10
0.0
 20
0.0
 30
0.0
  0
INSERT
  5
197
  8
0
  6
CONTINUOUS
  2
*U106
 10
0.0
 20
0.0
 30
0.0
  0
CIRCLE
  5
198
  8
É}ÿg
 10
1177.2073033734
 20
-558.12678026870003
 30
0.0
 40
3.6000000000000001
  0
LINE
  5
199
  8
É}ÿg
 10
1193.6650559085001
 20
-561.72678026870005
 30
0.0
 11
1208.0650559085
 21
-565.32678026869996
 31
0.0
  0
LINE
  5
19A
  8
É}ÿg
 10
1193.6650559085001
 20
-554.52678026870001
 30
0.0
 11
1193.6650559085001
 21
-561.72678026870005
 31
0.0
  0
LINE
  5
19B
  8
É}ÿg
 10
1208.0650559085
 20
-550.92678026869987
 30
0.0
 11
1208.0650559085
 21
-565.32678026869996
 31
0.0
  0
LINE
  5
19C
  8
É}ÿg
  6
BORDER
 10
1177.2073033734
 20
-547.32678026870008
 30
0.0
 11
1177.2073033734
 21
-568.92678026869987
 31
0.0
  0
LINE
  5
19D
  8
É}ÿg
  6
BORDER
 10
1177.2073033734
 20
-547.32678026870008
 30
0.0
 11
1177.2073033734
 21
-568.92678026869987
 31
0.0
  0
LINE
  5
19E
  8
É}ÿg
 10
1208.0650559085
 20
-550.92678026869987
 30
0.0
 11
1208.0650559085
 21
-565.32678026869996
 31
0.0
  0
LINE
  5
19F
  8
É}ÿg
 10
1193.6650559085001
 20
-554.52678026870001
 30
0.0
 11
1193.6650559085001
 21
-561.72678026870005
 31
0.0
  0
LINE
  5
1A0
  8
É}ÿg
 10
1193.6650559085001
 20
-561.72678026870005
 30
0.0
 11
1208.0650559085
 21
-565.32678026869996
 31
0.0
  0
LINE
  5
1A1
  8
É}ÿg
 10
1193.6650559085001
 20
-554.52678026870001
 30
0.0
 11
1208.0650559085
 21
-550.92678026869987
 31
0.0
  0
CIRCLE
  5
1A2
  8
É}ÿg
 10
1177.2073033734
 20
-558.12678026870003
 30
0.0
 40
7.2000000000000002
  0
CIRCLE
  5
1A3
  8
É}ÿg
 10
1177.2073033734
 20
-558.12678026870003
 30
0.0
 40
3.6000000000000001
  0
CIRCLE
  5
1A4
  8
É}ÿg
 10
1177.2073033734
 20
-558.12678026870003
 30
0.0
 40
7.2000000000000002
  0
LINE
  5
1A5
  8
É}ÿg
 10
1193.6650559085001
 20
-554.52678026870001
 30
0.0
 11
1208.0650559085
 21
-550.92678026869987
 31
0.0
  0
ENDBLK
  5
1A6
  8
0
  0
BLOCK
  8
0
  2
CLUMP1
 70
     0
 10
0.0
 20
0.0
 30
0.0
  3
CLUMP1
  1

  0
LINE
  5
1AA
  8
É}ÿg
 10
1179.0073033734
 20
-466.62678026869997
 30
0.0
 11
1179.0073033734
 21
-451.62678026869997
 31
0.0
  0
LINE
  5
1AB
  8
É}ÿg
 10
1002.0073033734
 20
-466.62678026869997
 30
0.0
 11
1002.0073033734
 21
-451.62678026869997
 31
0.0
  0
LINE
  5
1AC
  8
É}ÿg
 10
1029.0073033734
 20
-466.62678026869997
 30
0.0
 11
1029.0073033734
 21
-451.62678026869997
 31
0.0
  0
LINE
  5
1AD
  8
É}ÿg
 10
1344.0073033734
 20
-466.62678026869997
 30
0.0
 11
1344.0073033734
 21
-451.62678026869997
 31
0.0
  0
LINE
  5
1AE
  8
É}ÿg
 10
1317.0073033734
 20
-466.62678026869997
 30
0.0
 11
1317.0073033734
 21
-451.62678026869997
 31
0.0
  0
LINE
  5
1AF
  8
É}ÿg
 10
1437.0073033734
 20
-451.62678026869997
 30
0.0
 11
1002.0073033734
 21
-451.62678026869997
 31
0.0
  0
ENDBLK
  5
1B0
  8
0
  0
BLOCK
  8
0
  2
CLUMP2
 70
     0
 10
0.0
 20
0.0
 30
0.0
  3
CLUMP2
  1

  0
LINE
  5
1B4
  8
É}ÿg
 10
1179.0073033734
 20
-481.62678026869997
 30
0.0
 11
1179.0073033734
 21
-466.62678026869997
 31
0.0
  0
LINE
  5
1B5
  8
É}ÿg
 10
1002.0073033734
 20
-481.62678026869997
 30
0.0
 11
1002.0073033734
 21
-466.62678026869997
 31
0.0
  0
LINE
  5
1B6
  8
É}ÿg
 10
1029.0073033734
 20
-481.62678026869997
 30
0.0
 11
1029.0073033734
 21
-466.62678026869997
 31
0.0
  0
LINE
  5
1B7
  8
É}ÿg
 10
1344.0073033734
 20
-481.62678026869997
 30
0.0
 11
1344.0073033734
 21
-466.62678026869997
 31
0.0
  0
LINE
  5
1B8
  8
É}ÿg
 10
1317.0073033734
 20
-481.62678026869997
 30
0.0
 11
1317.0073033734
 21
-466.62678026869997
 31
0.0
  0
LINE
  5
1B9
  8
É}ÿg
 10
1437.0073033734
 20
-466.62678026869997
 30
0.0
 11
1002.0073033734
 21
-466.62678026869997
 31
0.0
  0
ENDBLK
  5
1BA
  8
0
  0
BLOCK
  8
0
  2
CLUMP3
 70
     0
 10
0.0
 20
0.0
 30
0.0
  3
CLUMP3
  1

  0
LINE
  5
1BE
  8
É}ÿg
 10
1179.0073033734
 20
-496.62678026869997
 30
0.0
 11
1179.0073033734
 21
-481.62678026869997
 31
0.0
  0
LINE
  5
1BF
  8
É}ÿg
 10
1002.0073033734
 20
-496.62678026869997
 30
0.0
 11
1002.0073033734
 21
-481.62678026869997
 31
0.0
  0
LINE
  5
1C0
  8
É}ÿg
 10
1029.0073033734
 20
-496.62678026869997
 30
0.0
 11
1029.0073033734
 21
-481.62678026869997
 31
0.0
  0
LINE
  5
1C1
  8
É}ÿg
 10
1344.0073033734
 20
-496.62678026869997
 30
0.0
 11
1344.0073033734
 21
-481.62678026869997
 31
0.0
  0
LINE
  5
1C2
  8
É}ÿg
 10
1317.0073033734
 20
-496.62678026869997
 30
0.0
 11
1317.0073033734
 21
-481.62678026869997
 31
0.0
  0
LINE
  5
1C3
  8
É}ÿg
 10
1437.0073033734
 20
-481.62678026869997
 30
0.0
 11
1002.0073033734
 21
-481.62678026869997
 31
0.0
  0
ENDBLK
  5
1C4
  8
0
  0
BLOCK
  8
0
  2
CLUMP4
 70
     0
 10
0.0
 20
0.0
 30
0.0
  3
CLUMP4
  1

  0
LINE
  5
1C8
  8
É}ÿg
 10
1179.0073033734
 20
-511.62678026869997
 30
0.0
 11
1179.0073033734
 21
-496.62678026869997
 31
0.0
  0
LINE
  5
1C9
  8
É}ÿg
 10
1002.0073033734
 20
-511.62678026869997
 30
0.0
 11
1002.0073033734
 21
-496.62678026869997
 31
0.0
  0
LINE
  5
1CA
  8
É}ÿg
 10
1029.0073033734
 20
-511.62678026869997
 30
0.0
 11
1029.0073033734
 21
-496.62678026869997
 31
0.0
  0
LINE
  5
1CB
  8
É}ÿg
 10
1344.0073033734
 20
-511.62678026869997
 30
0.0
 11
1344.0073033734
 21
-496.62678026869997
 31
0.0
  0
LINE
  5
1CC
  8
É}ÿg
 10
1317.0073033734
 20
-511.62678026869997
 30
0.0
 11
1317.0073033734
 21
-496.62678026869997
 31
0.0
  0
LINE
  5
1CD
  8
É}ÿg
 10
1437.0073033734
 20
-496.62678026869997
 30
0.0
 11
1002.0073033734
 21
-496.62678026869997
 31
0.0
  0
ENDBLK
  5
1CE
  8
0
  0
BLOCK
  8
0
  2
BALLON0
 70
     0
 10
0.0
 20
0.0
 30
0.0
  3
BALLON0
  1

  0
INSERT
  5
1E0
  8
0
  6
CONTINUOUS
  2
*U114
 10
0.0
 20
0.0
 30
0.0
  0
CIRCLE
  5
1E1
  8
┌▓È_1
 10
349.1011185699
 20
-63.7422217648
 30
0.0
 40
12.0
  0
LINE
  5
1E2
  8
Éíû@É³
 10
369.1011185699
 20
-63.7422217648
 30
0.0
 11
361.1011185699
 21
-63.7422217648
 31
0.0
  0
LINE
  5
1E3
  8
Éíû@É³
 10
419.4200569999
 20
-38.293009463200001
 30
0.0
 11
369.1011185699
 21
-63.7422217648
 31
0.0
  0
SOLID
  5
1E4
  8
Éíû@É³
 10
419.4200569999
 20
-38.293009463200001
 30
0.0
 11
409.79487500319988
 21
-45.850513782100002
 31
0.0
 12
410.85337787650002
 22
-42.625677093599997
 32
0.0
 13
410.85337787650002
 23
-42.625677093599997
 33
0.0
  0
SOLID
  5
1E5
  8
Éíû@É³
 10
410.85337787650002
 20
-42.625677093599997
 30
0.0
 11
407.62854118799999
 21
-41.567174220299997
 31
0.0
 12
419.4200569999
 22
-38.293009463200001
 32
0.0
 13
419.4200569999
 23
-38.293009463200001
 33
0.0
  0
ENDBLK
  5
1E6
  8
0
  0
BLOCK
  8
0
  2
BALLON1
 70
     0
 10
0.0
 20
0.0
 30
0.0
  3
BALLON1
  1

  0
INSERT
  5
1EA
  8
0
  6
CONTINUOUS
  2
*U115
 10
0.0
 20
0.0
 30
0.0
  0
CIRCLE
  5
1EB
  8
┌▓È_1
 10
349.1011185699
 20
25.5259289669
 30
0.0
 40
12.0
  0
LINE
  5
1EC
  8
Éíû@É³
 10
369.1011185699
 20
25.5259289669
 30
0.0
 11
361.1011185699
 21
25.5259289669
 31
0.0
  0
LINE
  5
1ED
  8
Éíû@É³
 10
398.4200569999
 20
-3.7930094631999989
 30
0.0
 11
369.1011185699
 21
25.5259289669
 31
0.0
  0
SOLID
  5
1EE
  8
Éíû@É³
 10
398.4200569999
 20
-3.7930094631999989
 30
0.0
 11
388.23771935079998
 21
2.9952156362000002
 31
0.0
 12
391.6318319005
 22
2.9952156362000002
 32
0.0
 13
391.6318319005
 23
2.9952156362000002
 33
0.0
  0
SOLID
  5
1EF
  8
Éíû@É³
 10
391.6318319005
 20
2.9952156362000002
 30
0.0
 11
391.6318319005
 21
6.3893281859000002
 31
0.0
 12
398.4200569999
 22
-3.7930094631999989
 32
0.0
 13
398.4200569999
 23
-3.7930094631999989
 33
0.0
  0
ENDBLK
  5
1F0
  8
0
  0
BLOCK
  8
0
  2
*D19
 70
     1
 10
0.0
 20
0.0
 30
0.0
  3
*D19
  1

  0
TEXT
  5
1F3
  8
0
 62
     0
 10
510.67482629400001
 20
-40.274077597899989
 30
0.0
 40
10.794999837900001
  1
16
  0
LINE
  5
1F4
  8
0
 62
     0
 10
525.02482619859995
 20
-61.200418893100007
 30
0.0
 11
525.02482619859995
 21
-42.679077569299992
 31
0.0
  0
LINE
  5
1F5
  8
0
 62
     0
 10
509.0248261985999
 20
-61.200418893100007
 30
0.0
 11
509.0248261985999
 21
-42.679077569299992
 31
0.0
  0
LINE
  5
1F6
  8
0
 62
     0
 10
525.02482619859995
 20
-43.179077569299999
 30
0.0
 11
525.02482619859995
 21
-43.179077569299999
 31
0.0
  0
LINE
  5
1F7
  8
0
 62
     0
 10
525.02482619859995
 20
-43.179077569299999
 30
0.0
 11
509.0248261985999
 21
-43.179077569299999
 31
0.0
  0
LINE
  5
1F8
  8
0
 62
     0
 10
509.0248261985999
 20
-43.179077569299999
 30
0.0
 11
525.02482619859995
 21
-43.179077569299999
 31
0.0
  0
LINE
  5
1F9
  8
0
 62
     0
 10
509.0248261985999
 20
-43.179077569299999
 30
0.0
 11
509.0248261985999
 21
-43.179077569299999
 31
0.0
  0
LINE
  5
1FA
  8
0
 62
     0
 10
509.0248261985999
 20
-43.179077569299999
 30
0.0
 11
506.02482619860001
 21
-43.179077569299999
 31
0.0
  0
SOLID
  5
1FB
  8
0
 62
     0
 10
509.0248261985999
 20
-43.179077569299999
 30
0.0
 11
500.02482619860001
 21
-45.429077569299999
 31
0.0
 12
500.02482619860001
 22
-40.929077569299992
 32
0.0
 13
502.2748261985999
 23
-43.179077569299999
 33
0.0
  0
LINE
  5
1FC
  8
0
 62
     0
 10
525.02482619859995
 20
-43.179077569299999
 30
0.0
 11
528.02482619859995
 21
-43.179077569299999
 31
0.0
  0
SOLID
  5
1FD
  8
0
 62
     0
 10
525.02482619859995
 20
-43.179077569299999
 30
0.0
 11
534.02482619859995
 21
-40.929077569299992
 31
0.0
 12
534.02482619859995
 22
-45.429077569299999
 32
0.0
 13
531.77482619859995
 23
-43.179077569299999
 33
0.0
  0
ENDBLK
  5
1FE
  8
0
  0
BLOCK
  8
0
  2
*D20
 70
     1
 10
0.0
 20
0.0
 30
0.0
  3
*D20
  1

  0
TEXT
  5
203
  8
0
 62
     0
 10
453.5569766262999
 20
-3.7833587343000001
 30
0.0
 40
10.794999837900001
  1
2-%%c 14
 50
30.4755870141
  0
LINE
  5
204
  8
0
 62
     0
 10
437.05774356260002
 20
-18.650220577599999
 30
0.0
 11
497.54082584140002
 21
16.942333383800001
 31
0.0
  0
SOLID
  5
205
  8
0
 62
     0
 10
437.05774356260002
 20
-18.650220577599999
 30
0.0
 11
443.67321642910002
 21
-12.1465278764
 31
0.0
 12
445.95548677480002
 22
-16.0248318961
 32
0.0
 13
442.87519959209988
 23
-15.2268150591
 33
0.0
  0
ENDBLK
  5
206
  8
0
  0
BLOCK
  8
0
  2
*D21
 70
     1
 10
0.0
 20
0.0
 30
0.0
  3
*D21
  1

  0
TEXT
  5
20A
  8
0
 62
     0
 10
538.03107640129997
 20
88.568873222999997
 30
0.0
 40
10.794999837900001
  1
P=70
  0
LINE
  5
20B
  8
0
 62
     0
 10
586.52482619859995
 20
22.7995811069
 30
0.0
 11
586.52482619859995
 21
86.163873251599995
 31
0.0
  0
LINE
  5
20C
  8
0
 62
     0
 10
516.52482619859995
 20
22.7995811069
 30
0.0
 11
516.52482619859995
 21
86.163873251599995
 31
0.0
  0
LINE
  5
20D
  8
0
 62
     0
 10
586.52482619859995
 20
85.663873251599995
 30
0.0
 11
571.36857590059992
 21
85.663873251599995
 31
0.0
  0
LINE
  5
20E
  8
0
 62
     0
 10
586.52482619859995
 20
85.663873251599995
 30
0.0
 11
531.68107649659999
 21
85.663873251599995
 31
0.0
  0
LINE
  5
20F
  8
0
 62
     0
 10
516.52482619859995
 20
85.663873251599995
 30
0.0
 11
571.36857590059992
 21
85.663873251599995
 31
0.0
  0
LINE
  5
210
  8
0
 62
     0
 10
516.52482619859995
 20
85.663873251599995
 30
0.0
 11
531.68107649659999
 21
85.663873251599995
 31
0.0
  0
LINE
  5
211
  8
0
 62
     0
 10
516.52482619859995
 20
85.663873251599995
 30
0.0
 11
519.52482619859995
 21
85.663873251599995
 31
0.0
  0
SOLID
  5
212
  8
0
 62
     0
 10
516.52482619859995
 20
85.663873251599995
 30
0.0
 11
525.52482619859995
 21
87.913873251599995
 31
0.0
 12
525.52482619859995
 22
83.413873251599995
 32
0.0
 13
523.27482619859995
 23
85.663873251599995
 33
0.0
  0
LINE
  5
213
  8
0
 62
     0
 10
586.52482619859995
 20
85.663873251599995
 30
0.0
 11
583.52482619859995
 21
85.663873251599995
 31
0.0
  0
SOLID
  5
214
  8
0
 62
     0
 10
586.52482619859995
 20
85.663873251599995
 30
0.0
 11
577.52482619859995
 21
83.413873251599995
 31
0.0
 12
577.52482619859995
 22
87.913873251599995
 32
0.0
 13
579.77482619859995
 23
85.663873251599995
 33
0.0
  0
ENDBLK
  5
215
  8
0
  0
BLOCK
  8
0
  2
*D22
 70
     1
 10
0.0
 20
0.0
 30
0.0
  3
*D22
  1

  0
TEXT
  5
219
  8
0
 62
     0
 10
1127.335151904
 20
-96.051291488299995
 30
0.0
 40
10.794999837900001
  1
13
 50
90.0
  0
LINE
  5
21A
  8
0
 62
     0
 10
1154.2401518752999
 20
-83.201291583699984
 30
0.0
 11
1129.7401518752999
 21
-83.201291583699984
 31
0.0
  0
LINE
  5
21B
  8
0
 62
     0
 10
1154.2401518752999
 20
-96.201291583700012
 30
0.0
 11
1129.7401518752999
 21
-96.201291583700012
 31
0.0
  0
LINE
  5
21C
  8
0
 62
     0
 10
1130.2401518752999
 20
-83.201291583699984
 30
0.0
 11
1130.2401518752999
 21
-83.201291583699984
 31
0.0
  0
LINE
  5
21D
  8
0
 62
     0
 10
1130.2401518752999
 20
-83.201291583699984
 30
0.0
 11
1130.2401518752999
 21
-96.201291583700012
 31
0.0
  0
LINE
  5
21E
  8
0
 62
     0
 10
1130.2401518752999
 20
-96.201291583700012
 30
0.0
 11
1130.2401518752999
 21
-83.201291583699984
 31
0.0
  0
LINE
  5
21F
  8
0
 62
     0
 10
1130.2401518752999
 20
-96.201291583700012
 30
0.0
 11
1130.2401518752999
 21
-96.201291583700012
 31
0.0
  0
LINE
  5
220
  8
0
 62
     0
 10
1130.2401518752999
 20
-96.201291583700012
 30
0.0
 11
1130.2401518752999
 21
-99.201291583700026
 31
0.0
  0
SOLID
  5
221
  8
0
 62
     0
 10
1130.2401518752999
 20
-96.201291583700012
 30
0.0
 11
1132.4901518752999
 21
-105.2012915837
 31
0.0
 12
1127.9901518752999
 22
-105.2012915837
 32
0.0
 13
1130.2401518752999
 23
-102.9512915837
 33
0.0
  0
LINE
  5
222
  8
0
 62
     0
 10
1130.2401518752999
 20
-83.201291583699984
 30
0.0
 11
1130.2401518752999
 21
-80.201291583699998
 31
0.0
  0
SOLID
  5
223
  8
0
 62
     0
 10
1130.2401518752999
 20
-83.201291583699984
 30
0.0
 11
1127.9901518752999
 21
-74.201291583699984
 31
0.0
 12
1132.4901518752999
 22
-74.201291583699984
 32
0.0
 13
1130.2401518752999
 23
-76.451291583699998
 33
0.0
  0
ENDBLK
  5
224
  8
0
  0
BLOCK
  8
0
  2
*D23
 70
     1
 10
0.0
 20
0.0
 30
0.0
  3
*D23
  1

  0
TEXT
  5
228
  8
0
 62
     0
 10
681.27579306610005
 20
-468.87157785089988
 30
0.0
 40
10.794999837900001
  1
%%c83.6
  0
LINE
  5
229
  8
0
 62
     0
 10
656.66418087449995
 20
-421.58211218510002
 30
0.0
 11
656.66418087449995
 21
-472.2765778223
 31
0.0
  0
LINE
  5
22A
  8
0
 62
     0
 10
740.28323807449999
 20
-421.58211218510002
 30
0.0
 11
740.28323807449999
 21
-472.2765778223
 31
0.0
  0
LINE
  5
22B
  8
0
 62
     0
 10
656.66418087449995
 20
-471.7765778223
 30
0.0
 11
722.02162578750006
 21
-471.7765778223
 31
0.0
  0
LINE
  5
22C
  8
0
 62
     0
 10
656.66418087449995
 20
-471.7765778223
 30
0.0
 11
674.9257931615
 21
-471.7765778223
 31
0.0
  0
LINE
  5
22D
  8
0
 62
     0
 10
740.28323807449999
 20
-471.7765778223
 30
0.0
 11
722.02162578750006
 21
-471.7765778223
 31
0.0
  0
LINE
  5
22E
  8
0
 62
     0
 10
740.28323807449999
 20
-471.7765778223
 30
0.0
 11
674.9257931615
 21
-471.7765778223
 31
0.0
  0
LINE
  5
22F
  8
0
 62
     0
 10
740.28323807449999
 20
-471.7765778223
 30
0.0
 11
737.28323807449988
 21
-471.7765778223
 31
0.0
  0
SOLID
  5
230
  8
0
 62
     0
 10
740.28323807449999
 20
-471.7765778223
 30
0.0
 11
731.28323807449999
 21
-474.0265778223
 31
0.0
 12
731.28323807449999
 22
-469.5265778223
 32
0.0
 13
733.53323807449999
 23
-471.7765778223
 33
0.0
  0
LINE
  5
231
  8
0
 62
     0
 10
656.66418087449995
 20
-471.7765778223
 30
0.0
 11
659.66418087449995
 21
-471.7765778223
 31
0.0
  0
SOLID
  5
232
  8
0
 62
     0
 10
656.66418087449995
 20
-471.7765778223
 30
0.0
 11
665.66418087449995
 21
-469.5265778223
 31
0.0
 12
665.66418087449995
 22
-474.0265778223
 32
0.0
 13
663.41418087449995
 23
-471.7765778223
 33
0.0
  0
ENDBLK
  5
233
  8
0
  0
BLOCK
  8
0
  2
*D24
 70
     1
 10
0.0
 20
0.0
 30
0.0
  3
*D24
  1

  0
TEXT
  5
237
  8
0
 62
     0
 10
681.46242054080005
 20
-328.23820880549999
 30
0.0
 40
10.794999837900001
  1
50
 50
90.0
  0
LINE
  5
238
  8
0
 62
     0
 10
668.26467927079989
 20
-347.63820890089988
 30
0.0
 11
684.86742051220006
 21
-347.63820890089988
 31
0.0
  0
LINE
  5
239
  8
0
 62
     0
 10
665.80406318279995
 20
-296.1382089009
 30
0.0
 11
684.86742051220006
 21
-296.1382089009
 31
0.0
  0
LINE
  5
23A
  8
0
 62
     0
 10
684.36742051220006
 20
-347.63820890089988
 30
0.0
 11
684.36742051220006
 21
-309.18820909160002
 31
0.0
  0
LINE
  5
23B
  8
0
 62
     0
 10
684.36742051220006
 20
-347.63820890089988
 30
0.0
 11
684.36742051220006
 21
-334.58820871009999
 31
0.0
  0
LINE
  5
23C
  8
0
 62
     0
 10
684.36742051220006
 20
-296.1382089009
 30
0.0
 11
684.36742051220006
 21
-309.18820909160002
 31
0.0
  0
LINE
  5
23D
  8
0
 62
     0
 10
684.36742051220006
 20
-296.1382089009
 30
0.0
 11
684.36742051220006
 21
-334.58820871009999
 31
0.0
  0
LINE
  5
23E
  8
0
 62
     0
 10
684.36742051220006
 20
-296.1382089009
 30
0.0
 11
684.36742051220006
 21
-299.1382089009
 31
0.0
  0
SOLID
  5
23F
  8
0
 62
     0
 10
684.36742051220006
 20
-296.1382089009
 30
0.0
 11
686.61742051220006
 21
-305.1382089009
 31
0.0
 12
682.11742051220006
 22
-305.1382089009
 32
0.0
 13
684.36742051220006
 23
-302.8882089009
 33
0.0
  0
LINE
  5
240
  8
0
 62
     0
 10
684.36742051220006
 20
-347.63820890089988
 30
0.0
 11
684.36742051220006
 21
-344.6382089009
 31
0.0
  0
SOLID
  5
241
  8
0
 62
     0
 10
684.36742051220006
 20
-347.63820890089988
 30
0.0
 11
682.11742051220006
 21
-338.6382089009
 31
0.0
 12
686.61742051220006
 22
-338.6382089009
 32
0.0
 13
684.36742051220006
 23
-340.8882089009
 33
0.0
  0
ENDBLK
  5
242
  8
0
  0
BLOCK
  8
0
  2
*D25
 70
     1
 10
0.0
 20
0.0
 30
0.0
  3
*D25
  1

  0
TEXT
  5
246
  8
0
 62
     0
 10
681.27579306610005
 20
-439.89048580230002
 30
0.0
 40
10.794999837900001
  1
%%c56.7
  0
LINE
  5
247
  8
0
 62
     0
 10
670.12472063450002
 20
-420.12302712500002
 30
0.0
 11
670.12472063450002
 21
-443.29548577370002
 31
0.0
  0
LINE
  5
248
  8
0
 62
     0
 10
726.82269831449992
 20
-420.12302712500002
 30
0.0
 11
726.82269831449992
 21
-443.29548577370002
 31
0.0
  0
LINE
  5
249
  8
0
 62
     0
 10
670.12472063450002
 20
-442.79548577370002
 30
0.0
 11
722.02162578750006
 21
-442.79548577370002
 31
0.0
  0
LINE
  5
24A
  8
0
 62
     0
 10
670.12472063450002
 20
-442.79548577370002
 30
0.0
 11
674.9257931615
 21
-442.79548577370002
 31
0.0
  0
LINE
  5
24B
  8
0
 62
     0
 10
726.82269831449992
 20
-442.79548577370002
 30
0.0
 11
722.02162578750006
 21
-442.79548577370002
 31
0.0
  0
LINE
  5
24C
  8
0
 62
     0
 10
726.82269831449992
 20
-442.79548577370002
 30
0.0
 11
674.9257931615
 21
-442.79548577370002
 31
0.0
  0
LINE
  5
24D
  8
0
 62
     0
 10
726.82269831449992
 20
-442.79548577370002
 30
0.0
 11
729.82269831449992
 21
-442.79548577370002
 31
0.0
  0
SOLID
  5
24E
  8
0
 62
     0
 10
726.82269831449992
 20
-442.79548577370002
 30
0.0
 11
735.82269831449992
 21
-440.54548577370002
 31
0.0
 12
735.82269831449992
 22
-445.04548577370002
 32
0.0
 13
733.57269831449992
 23
-442.79548577370002
 33
0.0
  0
LINE
  5
24F
  8
0
 62
     0
 10
670.12472063450002
 20
-442.79548577370002
 30
0.0
 11
667.12472063450002
 21
-442.79548577370002
 31
0.0
  0
SOLID
  5
250
  8
0
 62
     0
 10
670.12472063450002
 20
-442.79548577370002
 30
0.0
 11
661.12472063450002
 21
-445.04548577370002
 31
0.0
 12
661.12472063450002
 22
-440.54548577370002
 32
0.0
 13
663.37472063450002
 23
-442.79548577370002
 33
0.0
  0
ENDBLK
  5
251
  8
0
  0
BLOCK
  8
0
  2
*D26
 70
     1
 10
0.0
 20
0.0
 30
0.0
  3
*D26
  1

  0
TEXT
  5
255
  8
0
 62
     0
 10
1017.6198262272
 20
-217.8131978568
 30
0.0
 40
10.794999837900001
  1
6
 50
90.0
  0
LINE
  5
256
  8
0
 62
     0
 10
991.52482619859995
 20
-217.6381979045
 30
0.0
 11
1021.0248261986
 21
-217.6381979045
 31
0.0
  0
LINE
  5
257
  8
0
 62
     0
 10
989.52482619859995
 20
-211.6381979045
 30
0.0
 11
1021.0248261986
 21
-211.6381979045
 31
0.0
  0
LINE
  5
258
  8
0
 62
     0
 10
1020.5248261986
 20
-217.6381979045
 30
0.0
 11
1020.5248261986
 21
-217.6381979045
 31
0.0
  0
LINE
  5
259
  8
0
 62
     0
 10
1020.5248261986
 20
-217.6381979045
 30
0.0
 11
1020.5248261986
 21
-211.6381979045
 31
0.0
  0
LINE
  5
25A
  8
0
 62
     0
 10
1020.5248261986
 20
-211.6381979045
 30
0.0
 11
1020.5248261986
 21
-217.6381979045
 31
0.0
  0
LINE
  5
25B
  8
0
 62
     0
 10
1020.5248261986
 20
-211.6381979045
 30
0.0
 11
1020.5248261986
 21
-211.6381979045
 31
0.0
  0
LINE
  5
25C
  8
0
 62
     0
 10
1020.5248261986
 20
-211.6381979045
 30
0.0
 11
1020.5248261986
 21
-208.6381979045
 31
0.0
  0
SOLID
  5
25D
  8
0
 62
     0
 10
1020.5248261986
 20
-211.6381979045
 30
0.0
 11
1018.2748261986
 21
-202.6381979045
 31
0.0
 12
1022.7748261986
 22
-202.6381979045
 32
0.0
 13
1020.5248261986
 23
-204.8881979045
 33
0.0
  0
LINE
  5
25E
  8
0
 62
     0
 10
1020.5248261986
 20
-217.6381979045
 30
0.0
 11
1020.5248261986
 21
-220.6381979045
 31
0.0
  0
SOLID
  5
25F
  8
0
 62
     0
 10
1020.5248261986
 20
-217.6381979045
 30
0.0
 11
1022.7748261986
 21
-226.6381979045
 31
0.0
 12
1018.2748261986
 22
-226.6381979045
 32
0.0
 13
1020.5248261986
 23
-224.3881979045
 33
0.0
  0
ENDBLK
  5
260
  8
0
  0
BLOCK
  8
0
  2
*D27
 70
     1
 10
0.0
 20
0.0
 30
0.0
  3
*D27
  1

  0
TEXT
  5
265
  8
0
 62
     0
 10
927.03107640129997
 20
-154.0596177635
 30
0.0
 40
10.794999837900001
  1
(100)
  0
LINE
  5
266
  8
0
 62
     0
 10
990.52482619859995
 20
-212.6381979045
 30
0.0
 11
990.52482619859995
 21
-157.4646177349
 31
0.0
  0
LINE
  5
267
  8
0
 62
     0
 10
890.52482619859995
 20
-205.6381979045
 30
0.0
 11
890.52482619859995
 21
-157.4646177349
 31
0.0
  0
LINE
  5
268
  8
0
 62
     0
 10
990.52482619859995
 20
-158.9646177349
 30
0.0
 11
960.36857590059992
 21
-158.9646177349
 31
0.0
  0
LINE
  5
269
  8
0
 62
     0
 10
990.52482619859995
 20
-158.9646177349
 30
0.0
 11
920.68107649659999
 21
-158.9646177349
 31
0.0
  0
LINE
  5
26A
  8
0
 62
     0
 10
890.52482619859995
 20
-158.9646177349
 30
0.0
 11
960.36857590059992
 21
-158.9646177349
 31
0.0
  0
LINE
  5
26B
  8
0
 62
     0
 10
890.52482619859995
 20
-158.9646177349
 30
0.0
 11
920.68107649659999
 21
-158.9646177349
 31
0.0
  0
LINE
  5
26C
  8
0
 62
     0
 10
890.52482619859995
 20
-158.9646177349
 30
0.0
 11
899.52482619859995
 21
-158.9646177349
 31
0.0
  0
SOLID
  5
26D
  8
0
 62
     0
 10
890.52482619859995
 20
-158.9646177349
 30
0.0
 11
899.52482619859995
 21
-156.7146177349
 31
0.0
 12
899.52482619859995
 22
-161.2146177349
 32
0.0
 13
897.27482619859995
 23
-158.9646177349
 33
0.0
  0
LINE
  5
26E
  8
0
 62
     0
 10
990.52482619859995
 20
-158.9646177349
 30
0.0
 11
981.52482619859995
 21
-158.9646177349
 31
0.0
  0
SOLID
  5
26F
  8
0
 62
     0
 10
990.52482619859995
 20
-158.9646177349
 30
0.0
 11
981.52482619859995
 21
-161.2146177349
 31
0.0
 12
981.52482619859995
 22
-156.7146177349
 32
0.0
 13
983.77482619859995
 23
-158.9646177349
 33
0.0
  0
ENDBLK
  5
270
  8
0
  0
BLOCK
  8
0
  2
*D28
 70
     1
 10
0.0
 20
0.0
 30
0.0
  3
*D28
  1

  0
TEXT
  5
274
  8
0
 62
     0
 10
429.03119052019991
 20
-154.0596177635
 30
0.0
 40
10.794999837900001
  1
(100)
  0
LINE
  5
275
  8
0
 62
     0
 10
492.52505443659999
 20
-205.6381979045
 30
0.0
 11
492.52505443659999
 21
-157.4646177349
 31
0.0
  0
LINE
  5
276
  8
0
 62
     0
 10
392.52482619860001
 20
-212.6381979045
 30
0.0
 11
392.52482619860001
 21
-157.4646177349
 31
0.0
  0
LINE
  5
277
  8
0
 62
     0
 10
492.52505443659999
 20
-158.9646177349
 30
0.0
 11
462.36869001959991
 21
-158.9646177349
 31
0.0
  0
LINE
  5
278
  8
0
 62
     0
 10
492.52505443659999
 20
-158.9646177349
 30
0.0
 11
422.68119061559992
 21
-158.9646177349
 31
0.0
  0
LINE
  5
279
  8
0
 62
     0
 10
392.52482619860001
 20
-158.9646177349
 30
0.0
 11
462.36869001959991
 21
-158.9646177349
 31
0.0
  0
LINE
  5
27A
  8
0
 62
     0
 10
392.52482619860001
 20
-158.9646177349
 30
0.0
 11
422.68119061559992
 21
-158.9646177349
 31
0.0
  0
LINE
  5
27B
  8
0
 62
     0
 10
392.52482619860001
 20
-158.9646177349
 30
0.0
 11
401.52482619860001
 21
-158.9646177349
 31
0.0
  0
SOLID
  5
27C
  8
0
 62
     0
 10
392.52482619860001
 20
-158.9646177349
 30
0.0
 11
401.52482619860001
 21
-156.7146177349
 31
0.0
 12
401.52482619860001
 22
-161.2146177349
 32
0.0
 13
399.27482619860001
 23
-158.9646177349
 33
0.0
  0
LINE
  5
27D
  8
0
 62
     0
 10
492.52505443659999
 20
-158.9646177349
 30
0.0
 11
483.52505443659999
 21
-158.9646177349
 31
0.0
  0
SOLID
  5
27E
  8
0
 62
     0
 10
492.52505443659999
 20
-158.9646177349
 30
0.0
 11
483.52505443659999
 21
-161.2146177349
 31
0.0
 12
483.52505443659999
 22
-156.7146177349
 32
0.0
 13
485.77505443659999
 23
-158.9646177349
 33
0.0
  0
ENDBLK
  5
27F
  8
0
  0
BLOCK
  8
0
  2
*D29
 70
     1
 10
0.0
 20
0.0
 30
0.0
  3
*D29
  1

  0
TEXT
  5
283
  8
0
 62
     0
 10
513.88222164440003
 20
-178.73338515949999
 30
0.0
 40
10.794999837900001
  1
20
  0
LINE
  5
284
  8
0
 62
     0
 10
502.52486223509999
 20
-210.63838513089999
 30
0.0
 11
502.52486223509999
 21
-181.13838513089999
 31
0.0
  0
LINE
  5
285
  8
0
 62
     0
 10
482.52486223509999
 20
-210.63838513089999
 30
0.0
 11
482.52486223509999
 21
-181.13838513089999
 31
0.0
  0
LINE
  5
286
  8
0
 62
     0
 10
502.52486223509999
 20
-181.63838513089999
 30
0.0
 11
532.93222135830001
 21
-181.63838513089999
 31
0.0
  0
LINE
  5
287
  8
0
 62
     0
 10
502.52486223509999
 20
-181.63838513089999
 30
0.0
 11
507.53222173979998
 21
-181.63838513089999
 31
0.0
  0
LINE
  5
288
  8
0
 62
     0
 10
482.52486223509999
 20
-181.63838513089999
 30
0.0
 11
532.93222135830001
 21
-181.63838513089999
 31
0.0
  0
LINE
  5
289
  8
0
 62
     0
 10
482.52486223509999
 20
-181.63838513089999
 30
0.0
 11
507.53222173979998
 21
-181.63838513089999
 31
0.0
  0
LINE
  5
28A
  8
0
 62
     0
 10
482.52486223509999
 20
-181.63838513089999
 30
0.0
 11
485.52486223509999
 21
-181.63838513089999
 31
0.0
  0
SOLID
  5
28B
  8
0
 62
     0
 10
482.52486223509999
 20
-181.63838513089999
 30
0.0
 11
491.52486223509999
 21
-179.38838513089999
 31
0.0
 12
491.52486223509999
 22
-183.88838513089999
 32
0.0
 13
489.27486223509999
 23
-181.63838513089999
 33
0.0
  0
LINE
  5
28C
  8
0
 62
     0
 10
502.52486223509999
 20
-181.63838513089999
 30
0.0
 11
499.52486223509999
 21
-181.63838513089999
 31
0.0
  0
SOLID
  5
28D
  8
0
 62
     0
 10
502.52486223509999
 20
-181.63838513089999
 30
0.0
 11
493.52486223509999
 21
-183.88838513089999
 31
0.0
 12
493.52486223509999
 22
-179.38838513089999
 32
0.0
 13
495.77486223509999
 23
-181.63838513089999
 33
0.0
  0
ENDBLK
  5
28E
  8
0
  0
BLOCK
  8
0
  2
*D30
 70
     1
 10
0.0
 20
0.0
 30
0.0
  3
*D30
  1

  0
TEXT
  5
292
  8
0
 62
     0
 10
977.6748262939999
 20
-180.7331979331
 30
0.0
 40
10.794999837900001
  1
13
  0
LINE
  5
293
  8
0
 62
     0
 10
990.52482619859995
 20
-212.6381979045
 30
0.0
 11
990.52482619859995
 21
-183.1381979045
 31
0.0
  0
LINE
  5
294
  8
0
 62
     0
 10
977.52482619859995
 20
-212.6381979045
 30
0.0
 11
977.52482619859995
 21
-183.1381979045
 31
0.0
  0
LINE
  5
295
  8
0
 62
     0
 10
990.52482619859995
 20
-183.6381979045
 30
0.0
 11
990.52482619859995
 21
-183.6381979045
 31
0.0
  0
LINE
  5
296
  8
0
 62
     0
 10
990.52482619859995
 20
-183.6381979045
 30
0.0
 11
977.52482619859995
 21
-183.6381979045
 31
0.0
  0
LINE
  5
297
  8
0
 62
     0
 10
977.52482619859995
 20
-183.6381979045
 30
0.0
 11
990.52482619859995
 21
-183.6381979045
 31
0.0
  0
LINE
  5
298
  8
0
 62
     0
 10
977.52482619859995
 20
-183.6381979045
 30
0.0
 11
977.52482619859995
 21
-183.6381979045
 31
0.0
  0
LINE
  5
299
  8
0
 62
     0
 10
977.52482619859995
 20
-183.6381979045
 30
0.0
 11
974.52482619859995
 21
-183.6381979045
 31
0.0
  0
SOLID
  5
29A
  8
0
 62
     0
 10
977.52482619859995
 20
-183.6381979045
 30
0.0
 11
968.52482619859995
 21
-185.8881979045
 31
0.0
 12
968.52482619859995
 22
-181.3881979045
 32
0.0
 13
970.77482619859995
 23
-183.6381979045
 33
0.0
  0
LINE
  5
29B
  8
0
 62
     0
 10
990.52482619859995
 20
-183.6381979045
 30
0.0
 11
993.52482619859995
 21
-183.6381979045
 31
0.0
  0
SOLID
  5
29C
  8
0
 62
     0
 10
990.52482619859995
 20
-183.6381979045
 30
0.0
 11
999.52482619859995
 21
-181.3881979045
 31
0.0
 12
999.52482619859995
 22
-185.8881979045
 32
0.0
 13
997.27482619859995
 23
-183.6381979045
 33
0.0
  0
ENDBLK
  5
29D
  8
0
  0
BLOCK
  8
0
  2
*D31
 70
     1
 10
0.0
 20
0.0
 30
0.0
  3
*D31
  1

  0
TEXT
  5
2A1
  8
0
 62
     0
 10
392.67518175710001
 20
-180.7331979331
 30
0.0
 40
10.794999837900001
  1
13
  0
LINE
  5
2A2
  8
0
 62
     0
 10
405.5255371248
 20
-212.6381979045
 30
0.0
 11
405.5255371248
 21
-183.1381979045
 31
0.0
  0
LINE
  5
2A3
  8
0
 62
     0
 10
392.52482619860001
 20
-212.6381979045
 30
0.0
 11
392.52482619860001
 21
-183.1381979045
 31
0.0
  0
LINE
  5
2A4
  8
0
 62
     0
 10
405.5255371248
 20
-183.6381979045
 30
0.0
 11
405.5255371248
 21
-183.6381979045
 31
0.0
  0
LINE
  5
2A5
  8
0
 62
     0
 10
405.5255371248
 20
-183.6381979045
 30
0.0
 11
392.52482619860001
 21
-183.6381979045
 31
0.0
  0
LINE
  5
2A6
  8
0
 62
     0
 10
392.52482619860001
 20
-183.6381979045
 30
0.0
 11
405.5255371248
 21
-183.6381979045
 31
0.0
  0
LINE
  5
2A7
  8
0
 62
     0
 10
392.52482619860001
 20
-183.6381979045
 30
0.0
 11
392.52482619860001
 21
-183.6381979045
 31
0.0
  0
LINE
  5
2A8
  8
0
 62
     0
 10
392.52482619860001
 20
-183.6381979045
 30
0.0
 11
389.52482619860001
 21
-183.6381979045
 31
0.0
  0
SOLID
  5
2A9
  8
0
 62
     0
 10
392.52482619860001
 20
-183.6381979045
 30
0.0
 11
383.52482619860001
 21
-185.8881979045
 31
0.0
 12
383.52482619860001
 22
-181.3881979045
 32
0.0
 13
385.77482619860001
 23
-183.6381979045
 33
0.0
  0
LINE
  5
2AA
  8
0
 62
     0
 10
405.5255371248
 20
-183.6381979045
 30
0.0
 11
408.5255371248
 21
-183.6381979045
 31
0.0
  0
SOLID
  5
2AB
  8
0
 62
     0
 10
405.5255371248
 20
-183.6381979045
 30
0.0
 11
414.5255371248
 21
-181.3881979045
 31
0.0
 12
414.5255371248
 22
-185.8881979045
 32
0.0
 13
412.2755371248
 23
-183.6381979045
 33
0.0
  0
ENDBLK
  5
2AC
  8
0
  0
BLOCK
  8
0
  2
*D32
 70
     1
 10
0.0
 20
0.0
 30
0.0
  3
*D32
  1

  0
TEXT
  5
2B0
  8
0
 62
     0
 10
1127.335151904
 20
-31.726128399299999
 30
0.0
 40
10.794999837900001
  1
122
 50
90.0
  0
LINE
  5
2B1
  8
0
 62
     0
 10
1154.2401518752999
 20
38.799034498899999
 30
0.0
 11
1129.7401518752999
 21
38.799034498899999
 31
0.0
  0
LINE
  5
2B2
  8
0
 62
     0
 10
1154.2401518752999
 20
-83.201291583699984
 30
0.0
 11
1129.7401518752999
 21
-83.201291583699984
 31
0.0
  0
LINE
  5
2B3
  8
0
 62
     0
 10
1130.2401518752999
 20
38.799034498899999
 30
0.0
 11
1130.2401518752999
 21
-6.3261287808000004
 31
0.0
  0
LINE
  5
2B4
  8
0
 62
     0
 10
1130.2401518752999
 20
38.799034498899999
 30
0.0
 11
1130.2401518752999
 21
-38.076128304000001
 31
0.0
  0
LINE
  5
2B5
  8
0
 62
     0
 10
1130.2401518752999
 20
-83.201291583699984
 30
0.0
 11
1130.2401518752999
 21
-6.3261287808000004
 31
0.0
  0
LINE
  5
2B6
  8
0
 62
     0
 10
1130.2401518752999
 20
-83.201291583699984
 30
0.0
 11
1130.2401518752999
 21
-38.076128304000001
 31
0.0
  0
LINE
  5
2B7
  8
0
 62
     0
 10
1130.2401518752999
 20
-83.201291583699984
 30
0.0
 11
1130.2401518752999
 21
-80.201291583699998
 31
0.0
  0
SOLID
  5
2B8
  8
0
 62
     0
 10
1130.2401518752999
 20
-83.201291583699984
 30
0.0
 11
1127.9901518752999
 21
-74.201291583699984
 31
0.0
 12
1132.4901518752999
 22
-74.201291583699984
 32
0.0
 13
1130.2401518752999
 23
-76.451291583699998
 33
0.0
  0
LINE
  5
2B9
  8
0
 62
     0
 10
1130.2401518752999
 20
38.799034498899999
 30
0.0
 11
1130.2401518752999
 21
35.799034498899999
 31
0.0
  0
SOLID
  5
2BA
  8
0
 62
     0
 10
1130.2401518752999
 20
38.799034498899999
 30
0.0
 11
1132.4901518752999
 21
29.799034498899999
 31
0.0
 12
1127.9901518752999
 22
29.799034498899999
 32
0.0
 13
1130.2401518752999
 23
32.049034498899999
 33
0.0
  0
ENDBLK
  5
2BB
  8
0
  0
BLOCK
  8
0
  2
*D33
 70
     1
 10
0.0
 20
0.0
 30
0.0
  3
*D33
  1

  0
TEXT
  5
2BF
  8
0
 62
     0
 10
1127.335151904
 20
38.949034594300002
 30
0.0
 40
10.794999837900001
  1
13
 50
90.0
  0
LINE
  5
2C0
  8
0
 62
     0
 10
1154.2401518752999
 20
51.799034498900014
 30
0.0
 11
1129.7401518752999
 21
51.799034498900014
 31
0.0
  0
LINE
  5
2C1
  8
0
 62
     0
 10
1154.2401518752999
 20
38.799034498899999
 30
0.0
 11
1129.7401518752999
 21
38.799034498899999
 31
0.0
  0
LINE
  5
2C2
  8
0
 62
     0
 10
1130.2401518752999
 20
51.799034498900014
 30
0.0
 11
1130.2401518752999
 21
51.799034498900014
 31
0.0
  0
LINE
  5
2C3
  8
0
 62
     0
 10
1130.2401518752999
 20
51.799034498900014
 30
0.0
 11
1130.2401518752999
 21
38.799034498899999
 31
0.0
  0
LINE
  5
2C4
  8
0
 62
     0
 10
1130.2401518752999
 20
38.799034498899999
 30
0.0
 11
1130.2401518752999
 21
51.799034498900014
 31
0.0
  0
LINE
  5
2C5
  8
0
 62
     0
 10
1130.2401518752999
 20
38.799034498899999
 30
0.0
 11
1130.2401518752999
 21
38.799034498899999
 31
0.0
  0
LINE
  5
2C6
  8
0
 62
     0
 10
1130.2401518752999
 20
38.799034498899999
 30
0.0
 11
1130.2401518752999
 21
35.799034498899999
 31
0.0
  0
SOLID
  5
2C7
  8
0
 62
     0
 10
1130.2401518752999
 20
38.799034498899999
 30
0.0
 11
1132.4901518752999
 21
29.799034498899999
 31
0.0
 12
1127.9901518752999
 22
29.799034498899999
 32
0.0
 13
1130.2401518752999
 23
32.049034498899999
 33
0.0
  0
LINE
  5
2C8
  8
0
 62
     0
 10
1130.2401518752999
 20
51.799034498900014
 30
0.0
 11
1130.2401518752999
 21
54.799034498899999
 31
0.0
  0
SOLID
  5
2C9
  8
0
 62
     0
 10
1130.2401518752999
 20
51.799034498900014
 30
0.0
 11
1127.9901518752999
 21
60.799034498899999
 31
0.0
 12
1132.4901518752999
 22
60.799034498899999
 32
0.0
 13
1130.2401518752999
 23
58.549034498899999
 33
0.0
  0
ENDBLK
  5
2CA
  8
0
  0
BLOCK
  8
0
  2
*D34
 70
     1
 10
0.0
 20
0.0
 30
0.0
  3
*D34
  1

  0
TEXT
  5
2CE
  8
0
 62
     0
 10
812.40058508489994
 20
-48.550418797799992
 30
0.0
 40
10.794999837900001
  1
40
 50
90.0
  0
LINE
  5
2CF
  8
0
 62
     0
 10
806.02482619859995
 20
-62.2004188931
 30
0.0
 11
815.80558505629995
 21
-62.2004188931
 31
0.0
  0
LINE
  5
2D0
  8
0
 62
     0
 10
805.52482619859995
 20
-22.2004188931
 30
0.0
 11
815.80558505629995
 21
-22.2004188931
 31
0.0
  0
LINE
  5
2D1
  8
0
 62
     0
 10
815.30558505630006
 20
-62.2004188931
 30
0.0
 11
815.30558505630006
 21
-29.500419083899999
 31
0.0
  0
LINE
  5
2D2
  8
0
 62
     0
 10
815.30558505630006
 20
-62.2004188931
 30
0.0
 11
815.30558505630006
 21
-54.900418702399989
 31
0.0
  0
LINE
  5
2D3
  8
0
 62
     0
 10
815.30558505630006
 20
-22.2004188931
 30
0.0
 11
815.30558505630006
 21
-29.500419083899999
 31
0.0
  0
LINE
  5
2D4
  8
0
 62
     0
 10
815.30558505630006
 20
-22.2004188931
 30
0.0
 11
815.30558505630006
 21
-54.900418702399989
 31
0.0
  0
LINE
  5
2D5
  8
0
 62
     0
 10
815.30558505630006
 20
-22.2004188931
 30
0.0
 11
815.30558505630006
 21
-19.2004188931
 31
0.0
  0
SOLID
  5
2D6
  8
0
 62
     0
 10
815.30558505630006
 20
-22.2004188931
 30
0.0
 11
813.05558505629995
 21
-13.2004188931
 31
0.0
 12
817.55558505629995
 22
-13.2004188931
 32
0.0
 13
815.30558505630006
 23
-15.4504188931
 33
0.0
  0
LINE
  5
2D7
  8
0
 62
     0
 10
815.30558505630006
 20
-62.2004188931
 30
0.0
 11
815.30558505630006
 21
-65.200418893099993
 31
0.0
  0
SOLID
  5
2D8
  8
0
 62
     0
 10
815.30558505630006
 20
-62.2004188931
 30
0.0
 11
817.55558505629995
 21
-71.200418893100007
 31
0.0
 12
813.05558505629995
 22
-71.200418893100007
 32
0.0
 13
815.30558505630006
 23
-68.950418893099993
 33
0.0
  0
ENDBLK
  5
2D9
  8
0
  0
BLOCK
  8
0
  2
*D35
 70
     1
 10
0.0
 20
0.0
 30
0.0
  3
*D35
  1

  0
TEXT
  5
2DD
  8
0
 62
     0
 10
812.40058508489994
 20
-8.550418797799999
 30
0.0
 40
10.794999837900001
  1
40
 50
90.0
  0
LINE
  5
2DE
  8
0
 62
     0
 10
805.52482619859995
 20
-22.2004188931
 30
0.0
 11
815.80558505629995
 21
-22.2004188931
 31
0.0
  0
LINE
  5
2DF
  8
0
 62
     0
 10
805.52482619859995
 20
17.7995811069
 30
0.0
 11
815.80558505629995
 21
17.7995811069
 31
0.0
  0
LINE
  5
2E0
  8
0
 62
     0
 10
815.30558505630006
 20
-22.2004188931
 30
0.0
 11
815.30558505630006
 21
10.499580916099999
 31
0.0
  0
LINE
  5
2E1
  8
0
 62
     0
 10
815.30558505630006
 20
-22.2004188931
 30
0.0
 11
815.30558505630006
 21
-14.9004187024
 31
0.0
  0
LINE
  5
2E2
  8
0
 62
     0
 10
815.30558505630006
 20
17.7995811069
 30
0.0
 11
815.30558505630006
 21
10.499580916099999
 31
0.0
  0
LINE
  5
2E3
  8
0
 62
     0
 10
815.30558505630006
 20
17.7995811069
 30
0.0
 11
815.30558505630006
 21
-14.9004187024
 31
0.0
  0
LINE
  5
2E4
  8
0
 62
     0
 10
815.30558505630006
 20
17.7995811069
 30
0.0
 11
815.30558505630006
 21
20.7995811069
 31
0.0
  0
SOLID
  5
2E5
  8
0
 62
     0
 10
815.30558505630006
 20
17.7995811069
 30
0.0
 11
813.05558505629995
 21
26.7995811069
 31
0.0
 12
817.55558505629995
 22
26.7995811069
 32
0.0
 13
815.30558505630006
 23
24.5495811069
 33
0.0
  0
LINE
  5
2E6
  8
0
 62
     0
 10
815.30558505630006
 20
-22.2004188931
 30
0.0
 11
815.30558505630006
 21
-25.2004188931
 31
0.0
  0
SOLID
  5
2E7
  8
0
 62
     0
 10
815.30558505630006
 20
-22.2004188931
 30
0.0
 11
817.55558505629995
 21
-31.2004188931
 31
0.0
 12
813.05558505629995
 22
-31.2004188931
 32
0.0
 13
815.30558505630006
 23
-28.9504188931
 33
0.0
  0
ENDBLK
  5
2E8
  8
0
  0
BLOCK
  8
0
  2
CLUMP5
 70
     0
 10
0.0
 20
0.0
 30
0.0
  3
CLUMP5
  1

  0
LINE
  5
301
  8
┌▓È_1
 62
     5
 10
1155.2401518752999
 20
50.799382751599993
 30
0.0
 11
1155.2401518752999
 21
50.09938275159999
 31
0.0
  0
ARC
  5
302
  8
┌▓È_1
 62
     5
 10
1189.5401518752999
 20
50.799382751599993
 30
0.0
 40
0.7
 50
270.0
 51
0.0
  0
LINE
  5
303
  8
┌▓È_1
 62
     5
 10
1190.2401518752999
 20
50.799382751599993
 30
0.0
 11
1190.2401518752999
 21
57.09938275159999
 31
0.0
  0
LINE
  5
304
  8
┌▓È_1
 62
     5
 10
1189.5401518752999
 20
50.799382751599993
 30
0.0
 11
1189.5401518752999
 21
57.09938275159999
 31
0.0
  0
LINE
  5
305
  8
┌▓È_1
 62
     5
 10
1190.2401518752999
 20
57.09938275159999
 30
0.0
 11
1189.5401518752999
 21
57.09938275159999
 31
0.0
  0
LINE
  5
306
  8
┌▓È_1
 62
     5
 10
1155.2401518752999
 20
50.09938275159999
 30
0.0
 11
1189.5401518752999
 21
50.09938275159999
 31
0.0
  0
LINE
  5
307
  8
┌▓È_1
 62
     5
 10
1155.2401518752999
 20
50.799382751599993
 30
0.0
 11
1189.5401518752999
 21
50.799382751599993
 31
0.0
  0
ENDBLK
  5
308
  8
0
  0
BLOCK
  8
0
  2
CLUMP6
 70
     0
 10
0.0
 20
0.0
 30
0.0
  3
CLUMP6
  1

  0
ARC
  5
337
  8
┌▓È_1
 62
     5
 10
1240.4901628717
 20
-73.191631118399997
 30
0.0
 40
1.75
 50
90.299999999999983
 51
180.0
  0
LINE
  5
338
  8
┌▓È_1
 62
     5
 10
1224.7401628717
 20
28.899229808200001
 30
0.0
 11
1224.7401628717
 21
25.79922980820001
 31
0.0
  0
LINE
  5
339
  8
┌▓È_1
 62
     5
 10
1224.7401628717
 20
28.899229808200001
 30
0.0
 11
1224.7401628717
 21
25.79922980820001
 31
0.0
  0
LINE
  5
33A
  8
┌▓È_1
 62
     5
 10
1215.2401628717
 20
-69.550770191799984
 30
0.0
 11
1215.2401628717
 21
-66.200770191800004
 31
0.0
  0
LINE
  5
33B
  8
┌▓È_1
 62
     5
 10
1215.2401628717
 20
-69.550770191799984
 30
0.0
 11
1212.7401628717
 21
-69.550770191799984
 31
0.0
  0
LINE
  5
33C
  8
┌▓È_1
 62
     5
 10
1224.7401628717
 20
-70.200770191800004
 30
0.0
 11
1224.7401628717
 21
25.79922980820001
 31
0.0
  0
LINE
  5
33D
  8
┌▓È_1
 62
     5
 10
1238.7401628717
 20
28.7900907348
 30
0.0
 11
1238.7401628717
 21
-73.191631118399997
 31
0.0
  0
LINE
  5
33E
  8
┌▓È_1
 62
     5
 10
1215.2401628717
 20
-24.2007701918
 30
0.0
 11
1222.7401628717
 21
-24.2007701918
 31
0.0
  0
LINE
  5
33F
  8
┌▓È_1
 62
     5
 10
1215.2401628717
 20
-65.200770191800004
 30
0.0
 11
1222.7401628717
 21
-65.200770191800004
 31
0.0
  0
LINE
  5
340
  8
┌▓È_1
 62
     5
 10
1201.4401628717001
 20
-28.918284613099999
 30
0.0
 11
1201.4401628717001
 21
-32.100265128400011
 31
0.0
  0
LINE
  5
341
  8
┌▓È_1
 62
     5
 10
1206.7401628717
 20
25.649229808200001
 30
0.0
 11
1206.7401628717
 21
-70.050770191799984
 31
0.0
  0
LINE
  5
342
  8
┌▓È_1
 62
     5
 10
1205.2401628717
 20
-7.411591154199999
 30
0.0
 11
1205.2401628717
 21
25.649229808200001
 31
0.0
  0
LINE
  5
343
  8
┌▓È_1
 62
     5
 10
1209.2401628717
 20
25.2992298082
 30
0.0
 11
1209.2401628717
 21
19.2992298082
 31
0.0
  0
LINE
  5
344
  8
┌▓È_1
 62
     5
 10
1203.2401628717
 20
-18.520666751499999
 30
0.0
 11
1203.2401628717
 21
-20.7990248658
 31
0.0
  0
LINE
  5
345
  8
┌▓È_1
 62
     5
 10
1203.2401628717
 20
-7.8368091610999997
 30
0.0
 11
1203.2401628717
 21
-9.9709737853
 31
0.0
  0
CIRCLE
  5
346
  8
┌▓È_1
 62
     5
 10
1204.2868351108
 20
-12.8829195258
 30
0.0
 40
1.022842196899999
  0
ARC
  5
347
  8
┌▓È_1
 62
     5
 10
1204.2401628717
 20
-7.8368091610999997
 30
0.0
 40
1.0
 50
360.0
 51
180.0
  0
LINE
  5
348
  8
┌▓È_1
 62
     5
 10
1211.2401628717
 20
19.2992298082
 30
0.0
 11
1211.2401628717
 21
-63.700770191799997
 31
0.0
  0
LINE
  5
349
  8
┌▓È_1
 62
     5
 10
1222.7401628717
 20
28.899229808200001
 30
0.0
 11
1224.7401628717
 21
28.899229808200001
 31
0.0
  0
LINE
  5
34A
  8
┌▓È_1
 62
     5
 10
1224.7401628717
 20
28.899229808200001
 30
0.0
 11
1238.7401628717
 21
28.899229808200001
 31
0.0
  0
LINE
  5
34B
  8
┌▓È_1
 62
     5
 10
1215.2401628717
 20
20.7992298082
 30
0.0
 11
1222.7401628717
 21
20.7992298082
 31
0.0
  0
LINE
  5
34C
  8
┌▓È_1
 62
     5
 10
1215.2401628717
 20
15.7992298082
 30
0.0
 11
1222.7401628717
 21
15.7992298082
 31
0.0
  0
LINE
  5
34D
  8
┌▓È_1
 62
     5
 10
1238.7401628717
 20
28.7900907348
 30
0.0
 11
1238.7401628717
 21
28.899229808200001
 31
0.0
  0
ARC
  5
34E
  8
┌▓È_1
 62
     5
 10
1240.4901628717
 20
28.7900907348
 30
0.0
 40
1.75
 50
180.0
 51
269.69999999999999
  0
LINE
  5
34F
  8
┌▓È_1
 62
     5
 10
1215.2401628717
 20
21.7992298082
 30
0.0
 11
1215.2401628717
 21
25.149229808200001
 31
0.0
  0
LINE
  5
350
  8
┌▓È_1
 62
     5
 10
1224.7401628717
 20
-73.300770191799984
 30
0.0
 11
1224.7401628717
 21
-70.200770191800004
 31
0.0
  0
LINE
  5
351
  8
┌▓È_1
 62
     5
 10
1215.2401628717
 20
-20.2007701918
 30
0.0
 11
1222.7401628717
 21
-20.2007701918
 31
0.0
  0
LINE
  5
352
  8
┌▓È_1
 62
     5
 10
1222.7401628717
 20
-66.200770191800004
 30
0.0
 11
1222.7401628717
 21
-73.300770191799984
 31
0.0
  0
LINE
  5
353
  8
┌▓È_1
 62
     5
 10
1222.7401628717
 20
-73.300770191799984
 30
0.0
 11
1224.7401628717
 21
-73.300770191799984
 31
0.0
  0
LINE
  5
354
  8
┌▓È_1
 62
     5
 10
1222.7401628717
 20
-66.200770191800004
 30
0.0
 11
1215.2401628717
 21
-66.200770191800004
 31
0.0
  0
LINE
  5
355
  8
┌▓È_1
 62
     5
 10
1215.2401628717
 20
21.7992298082
 30
0.0
 11
1215.2401628717
 21
-66.200770191800004
 31
0.0
  0
LINE
  5
356
  8
┌▓È_1
 62
     5
 10
1212.7401628717
 20
-63.700770191799997
 30
0.0
 11
1212.7401628717
 21
19.2992298082
 31
0.0
  0
LINE
  5
357
  8
┌▓È_1
 62
     5
 10
1224.7401628717
 20
-73.300770191799984
 30
0.0
 11
1238.7401628717
 21
-73.300770191799984
 31
0.0
  0
LINE
  5
358
  8
┌▓È_1
 62
     5
 10
1238.7401628717
 20
-73.191631118399997
 30
0.0
 11
1238.7401628717
 21
-73.300770191799984
 31
0.0
  0
LINE
  5
359
  8
┌▓È_1
 62
     5
 10
1212.7401628717
 20
25.149229808200001
 30
0.0
 11
1212.7401628717
 21
19.2992298082
 31
0.0
  0
LINE
  5
35A
  8
┌▓È_1
 62
     5
 10
1212.7401628717
 20
19.2992298082
 30
0.0
 11
1211.2401628717
 21
19.2992298082
 31
0.0
  0
LINE
  5
35B
  8
┌▓È_1
 62
     5
 10
1211.2401628717
 20
25.149229808200001
 30
0.0
 11
1211.2401628717
 21
19.2992298082
 31
0.0
  0
LINE
  5
35C
  8
┌▓È_1
 62
     5
 10
1212.7401628717
 20
-63.700770191799997
 30
0.0
 11
1212.7401628717
 21
-69.550770191799984
 31
0.0
  0
LINE
  5
35D
  8
┌▓È_1
 62
     5
 10
1212.7401628717
 20
-63.700770191799997
 30
0.0
 11
1211.2401628717
 21
-63.700770191799997
 31
0.0
  0
LINE
  5
35E
  8
┌▓È_1
 62
     5
 10
1211.2401628717
 20
-63.700770191799997
 30
0.0
 11
1211.2401628717
 21
-69.550770191799984
 31
0.0
  0
LINE
  5
35F
  8
┌▓È_1
 62
     5
 10
1209.2401628717
 20
-69.550770191799984
 30
0.0
 11
1211.2401628717
 21
-69.550770191799984
 31
0.0
  0
LINE
  5
360
  8
┌▓È_1
 62
     5
 10
1211.2401628717
 20
25.149229808200001
 30
0.0
 11
1209.2401628717
 21
25.149229808200001
 31
0.0
  0
LINE
  5
361
  8
┌▓È_1
 62
     5
 10
1215.2401628717
 20
25.149229808200001
 30
0.0
 11
1212.7401628717
 21
25.149229808200001
 31
0.0
  0
LINE
  5
362
  8
┌▓È_1
 62
     5
 10
1215.2401628717
 20
-60.200770191799997
 30
0.0
 11
1222.7401628717
 21
-60.200770191799997
 31
0.0
  0
LINE
  5
363
  8
┌▓È_1
 62
     5
 10
1222.7401628717
 20
21.7992298082
 30
0.0
 11
1215.2401628717
 21
21.7992298082
 31
0.0
  0
LINE
  5
364
  8
┌▓È_1
 62
     5
 10
1222.7401628717
 20
28.899229808200001
 30
0.0
 11
1222.7401628717
 21
21.7992298082
 31
0.0
  0
LINE
  5
365
  8
┌▓È_1
 62
     5
 10
1222.7401628717
 20
21.7992298082
 30
0.0
 11
1222.7401628717
 21
-66.200770191800004
 31
0.0
  0
LINE
  5
366
  8
┌▓È_1
 62
     5
 10
1209.2401628717
 20
-63.700770191799997
 30
0.0
 11
1209.2401628717
 21
19.2992298082
 31
0.0
  0
ARC
  5
367
  8
┌▓È_1
 62
     5
 10
1203.2401628717
 20
-7.411591154199999
 30
0.0
 40
2.0
 50
307.20312659799998
 51
0.0
  0
LINE
  5
368
  8
┌▓È_1
 62
     5
 10
1209.2401628717
 20
-69.700770191800004
 30
0.0
 11
1209.2401628717
 21
-63.700770191799997
 31
0.0
  0
LINE
  5
369
  8
┌▓È_1
 62
     5
 10
1206.7401628717
 20
-69.700770191800004
 30
0.0
 11
1209.2401628717
 21
-69.700770191800004
 31
0.0
  0
ARC
  5
36A
  8
┌▓È_1
 62
     5
 10
1203.2401628717
 20
-34.161522104699998
 30
0.0
 40
2.0
 50
0.0
 51
52.797132081999997
  0
LINE
  5
36B
  8
┌▓È_1
 62
     5
 10
1205.2401628717
 20
-22.2007701918
 30
0.0
 11
1205.2401628717
 21
-70.050770191799984
 31
0.0
  0
ARC
  5
36C
  8
┌▓È_1
 62
     5
 10
1203.2401628717
 20
-37.343505349899999
 30
0.0
 40
2.0
 50
0.0
 51
52.797132081999997
  0
LINE
  5
36D
  8
┌▓È_1
 62
     5
 10
1201.4401628717001
 20
-12.6548286458
 30
0.0
 11
1201.4401628717001
 21
-15.8368091611
 31
0.0
  0
LINE
  5
36E
  8
┌▓È_1
 62
     5
 10
1205.2401628717
 20
-7.8368091610999997
 30
0.0
 11
1205.2401628717
 21
-17.929029890599999
 31
0.0
  0
ARC
  5
36F
  8
┌▓È_1
 62
     5
 10
1203.2401628717
 20
-17.898066137400001
 30
0.0
 40
2.0
 50
0.0
 51
52.797132081999997
  0
LINE
  5
370
  8
┌▓È_1
 62
     5
 10
1205.2401628717
 20
-17.898066137400001
 30
0.0
 11
1205.2401628717
 21
-22.2007701918
 31
0.0
  0
LINE
  5
371
  8
┌▓È_1
 62
     5
 10
1203.2401628717
 20
-23.602515517800001
 30
0.0
 11
1203.2401628717
 21
-29.932898003399998
 31
0.0
  0
LINE
  5
372
  8
┌▓È_1
 62
     5
 10
1205.2401628717
 20
25.649229808200001
 30
0.0
 11
1206.7401628717
 21
25.649229808200001
 31
0.0
  0
LINE
  5
373
  8
┌▓È_1
 62
     5
 10
1206.7401628717
 20
25.2992298082
 30
0.0
 11
1209.2401628717
 21
25.2992298082
 31
0.0
  0
POLYLINE
  8
┌▓È_1
  5
8EB
  62
5
  66
     1
 10
0.000000
 20
0.000000
 30
0.000000
  70
     8
  0
VERTEX
  8
┌▓È_1
  5
8EC
 10
1203.24
 20
-27.9037
 30
0.000000
  70
    32
  0
VERTEX
  8
┌▓È_1
  5
8ED
 10
1203.23
 20
-27.9295
 30
0.000000
  70
    32
  0
VERTEX
  8
┌▓È_1
  5
8EE
 10
1203.21
 20
-27.9554
 30
0.000000
  70
    32
  0
VERTEX
  8
┌▓È_1
  5
8EF
 10
1203.20
 20
-27.9813
 30
0.000000
  70
    32
  0
VERTEX
  8
┌▓È_1
  5
8F0
 10
1203.18
 20
-28.0072
 30
0.000000
  70
    32
  0
VERTEX
  8
┌▓È_1
  5
8F1
 10
1203.17
 20
-28.0330
 30
0.000000
  70
    32
  0
VERTEX
  8
┌▓È_1
  5
8F2
 10
1203.16
 20
-28.0589
 30
0.000000
  70
    32
  0
VERTEX
  8
┌▓È_1
  5
8F3
 10
1203.15
 20
-28.0848
 30
0.000000
  70
    32
  0
VERTEX
  8
┌▓È_1
  5
8F4
 10
1203.13
 20
-28.1106
 30
0.000000
  70
    32
  0
VERTEX
  8
┌▓È_1
  5
8F5
 10
1203.12
 20
-28.1365
 30
0.000000
  70
    32
  0
VERTEX
  8
┌▓È_1
  5
8F6
 10
1203.11
 20
-28.1624
 30
0.000000
  70
    32
  0
VERTEX
  8
┌▓È_1
  5
8F7
 10
1203.10
 20
-28.1882
 30
0.000000
  70
    32
  0
VERTEX
  8
┌▓È_1
  5
8F8
 10
1203.09
 20
-28.2141
 30
0.000000
  70
    32
  0
VERTEX
  8
┌▓È_1
  5
8F9
 10
1203.08
 20
-28.2400
 30
0.000000
  70
    32
  0
VERTEX
  8
┌▓È_1
  5
8FA
 10
1203.07
 20
-28.2658
 30
0.000000
  70
    32
  0
VERTEX
  8
┌▓È_1
  5
8FB
 10
1203.06
 20
-28.2917
 30
0.000000
  70
    32
  0
VERTEX
  8
┌▓È_1
  5
8FC
 10
1203.05
 20
-28.3176
 30
0.000000
  70
    32
  0
VERTEX
  8
┌▓È_1
  5
8FD
 10
1203.04
 20
-28.3434
 30
0.000000
  70
    32
  0
VERTEX
  8
┌▓È_1
  5
8FE
 10
1203.03
 20
-28.3693
 30
0.000000
  70
    32
  0
VERTEX
  8
┌▓È_1
  5
8FF
 10
1203.02
 20
-28.3952
 30
0.000000
  70
    32
  0
VERTEX
  8
┌▓È_1
  5
900
 10
1203.02
 20
-28.4210
 30
0.000000
  70
    32
  0
VERTEX
  8
┌▓È_1
  5
901
 10
1203.01
 20
-28.4469
 30
0.000000
  70
    32
  0
VERTEX
  8
┌▓È_1
  5
902
 10
1203.00
 20
-28.4728
 30
0.000000
  70
    32
  0
VERTEX
  8
┌▓È_1
  5
903
 10
1202.99
 20
-28.4986
 30
0.000000
  70
    32
  0
VERTEX
  8
┌▓È_1
  5
904
 10
1202.99
 20
-28.5245
 30
0.000000
  70
    32
  0
VERTEX
  8
┌▓È_1
  5
905
 10
1202.98
 20
-28.5504
 30
0.000000
  70
    32
  0
VERTEX
  8
┌▓È_1
  5
906
 10
1202.98
 20
-28.5763
 30
0.000000
  70
    32
  0
VERTEX
  8
┌▓È_1
  5
907
 10
1202.97
 20
-28.6021
 30
0.000000
  70
    32
  0
VERTEX
  8
┌▓È_1
  5
908
 10
1202.97
 20
-28.6280
 30
0.000000
  70
    32
  0
VERTEX
  8
┌▓È_1
  5
909
 10
1202.96
 20
-28.6539
 30
0.000000
  70
    32
  0
VERTEX
  8
┌▓È_1
  5
90A
 10
1202.96
 20
-28.6797
 30
0.000000
  70
    32
  0
VERTEX
  8
┌▓È_1
  5
90B
 10
1202.95
 20
-28.7056
 30
0.000000
  70
    32
  0
VERTEX
  8
┌▓È_1
  5
90C
 10
1202.95
 20
-28.7315
 30
0.000000
  70
    32
  0
VERTEX
  8
┌▓È_1
  5
90D
 10
1202.95
 20
-28.7573
 30
0.000000
  70
    32
  0
VERTEX
  8
┌▓È_1
  5
90E
 10
1202.95
 20
-28.7832
 30
0.000000
  70
    32
  0
VERTEX
  8
┌▓È_1
  5
90F
 10
1202.94
 20
-28.8091
 30
0.000000
  70
    32
  0
VERTEX
  8
┌▓È_1
  5
910
 10
1202.94
 20
-28.8349
 30
0.000000
  70
    32
  0
VERTEX
  8
┌▓È_1
  5
911
 10
1202.94
 20
-28.8608
 30
0.000000
  70
    32
  0
VERTEX
  8
┌▓È_1
  5
912
 10
1202.94
 20
-28.8867
 30
0.000000
  70
    32
  0
VERTEX
  8
┌▓È_1
  5
913
 10
1202.94
 20
-28.9125
 30
0.000000
  70
    32
  0
VERTEX
  8
┌▓È_1
  5
914
 10
1202.94
 20
-28.9384
 30
0.000000
  70
    32
  0
VERTEX
  8
┌▓È_1
  5
915
 10
1202.94
 20
-28.9643
 30
0.000000
  70
    32
  0
VERTEX
  8
┌▓È_1
  5
916
 10
1202.94
 20
-28.9901
 30
0.000000
  70
    32
  0
VERTEX
  8
┌▓È_1
  5
917
 10
1202.94
 20
-29.0160
 30
0.000000
  70
    32
  0
VERTEX
  8
┌▓È_1
  5
918
 10
1202.94
 20
-29.0419
 30
0.000000
  70
    32
  0
VERTEX
  8
┌▓È_1
  5
919
 10
1202.95
 20
-29.0677
 30
0.000000
  70
    32
  0
VERTEX
  8
┌▓È_1
  5
91A
 10
1202.95
 20
-29.0936
 30
0.000000
  70
    32
  0
VERTEX
  8
┌▓È_1
  5
91B
 10
1202.95
 20
-29.1195
 30
0.000000
  70
    32
  0
VERTEX
  8
┌▓È_1
  5
91C
 10
1202.96
 20
-29.1453
 30
0.000000
  70
    32
  0
VERTEX
  8
┌▓È_1
  5
91D
 10
1202.96
 20
-29.1712
 30
0.000000
  70
    32
  0
VERTEX
  8
┌▓È_1
  5
91E
 10
1202.96
 20
-29.1971
 30
0.000000
  70
    32
  0
VERTEX
  8
┌▓È_1
  5
91F
 10
1202.97
 20
-29.2230
 30
0.000000
  70
    32
  0
VERTEX
  8
┌▓È_1
  5
920
 10
1202.97
 20
-29.2488
 30
0.000000
  70
    32
  0
VERTEX
  8
┌▓È_1
  5
921
 10
1202.98
 20
-29.2747
 30
0.000000
  70
    32
  0
VERTEX
  8
┌▓È_1
  5
922
 10
1202.99
 20
-29.3006
 30
0.000000
  70
    32
  0
VERTEX
  8
┌▓È_1
  5
923
 10
1202.99
 20
-29.3264
 30
0.000000
  70
    32
  0
VERTEX
  8
┌▓È_1
  5
924
 10
1203.00
 20
-29.3523
 30
0.000000
  70
    32
  0
VERTEX
  8
┌▓È_1
  5
925
 10
1203.00
 20
-29.3782
 30
0.000000
  70
    32
  0
VERTEX
  8
┌▓È_1
  5
926
 10
1203.01
 20
-29.4040
 30
0.000000
  70
    32
  0
VERTEX
  8
┌▓È_1
  5
927
 10
1203.02
 20
-29.4299
 30
0.000000
  70
    32
  0
VERTEX
  8
┌▓È_1
  5
928
 10
1203.03
 20
-29.4558
 30
0.000000
  70
    32
  0
VERTEX
  8
┌▓È_1
  5
929
 10
1203.04
 20
-29.4816
 30
0.000000
  70
    32
  0
VERTEX
  8
┌▓È_1
  5
92A
 10
1203.05
 20
-29.5075
 30
0.000000
  70
    32
  0
VERTEX
  8
┌▓È_1
  5
92B
 10
1203.05
 20
-29.5334
 30
0.000000
  70
    32
  0
VERTEX
  8
┌▓È_1
  5
92C
 10
1203.06
 20
-29.5592
 30
0.000000
  70
    32
  0
VERTEX
  8
┌▓È_1
  5
92D
 10
1203.07
 20
-29.5851
 30
0.000000
  70
    32
  0
VERTEX
  8
┌▓È_1
  5
92E
 10
1203.08
 20
-29.6110
 30
0.000000
  70
    32
  0
VERTEX
  8
┌▓È_1
  5
92F
 10
1203.09
 20
-29.6368
 30
0.000000
  70
    32
  0
VERTEX
  8
┌▓È_1
  5
930
 10
1203.11
 20
-29.6627
 30
0.000000
  70
    32
  0
VERTEX
  8
┌▓È_1
  5
931
 10
1203.12
 20
-29.6886
 30
0.000000
  70
    32
  0
VERTEX
  8
┌▓È_1
  5
932
 10
1203.13
 20
-29.7144
 30
0.000000
  70
    32
  0
VERTEX
  8
┌▓È_1
  5
933
 10
1203.14
 20
-29.7403
 30
0.000000
  70
    32
  0
VERTEX
  8
┌▓È_1
  5
934
 10
1203.15
 20
-29.7662
 30
0.000000
  70
    32
  0
VERTEX
  8
┌▓È_1
  5
935
 10
1203.17
 20
-29.7921
 30
0.000000
  70
    32
  0
VERTEX
  8
┌▓È_1
  5
936
 10
1203.18
 20
-29.8179
 30
0.000000
  70
    32
  0
VERTEX
  8
┌▓È_1
  5
937
 10
1203.19
 20
-29.8438
 30
0.000000
  70
    32
  0
VERTEX
  8
┌▓È_1
  5
938
 10
1203.21
 20
-29.8697
 30
0.000000
  70
    32
  0
VERTEX
  8
┌▓È_1
  5
939
 10
1203.22
 20
-29.8955
 30
0.000000
  70
    32
  0
VERTEX
  8
┌▓È_1
  5
93A
 10
1203.23
 20
-29.9214
 30
0.000000
  70
    32
  0
VERTEX
  8
┌▓È_1
  5
93B
 10
1203.25
 20
-29.9473
 30
0.000000
  70
    32
  0
VERTEX
  8
┌▓È_1
  5
93C
 10
1203.26
 20
-29.9731
 30
0.000000
  70
    32
  0
VERTEX
  8
┌▓È_1
  5
93D
 10
1203.28
 20
-29.9990
 30
0.000000
  70
    32
  0
VERTEX
  8
┌▓È_1
  5
93E
 10
1203.29
 20
-30.0249
 30
0.000000
  70
    32
  0
VERTEX
  8
┌▓È_1
  5
93F
 10
1203.31
 20
-30.0507
 30
0.000000
  70
    32
  0
VERTEX
  8
┌▓È_1
  5
940
 10
1203.33
 20
-30.0766
 30
0.000000
  70
    32
  0
VERTEX
  8
┌▓È_1
  5
941
 10
1203.34
 20
-30.1025
 30
0.000000
  70
    32
  0
VERTEX
  8
┌▓È_1
  5
942
 10
1203.36
 20
-30.1283
 30
0.000000
  70
    32
  0
VERTEX
  8
┌▓È_1
  5
943
 10
1203.38
 20
-30.1542
 30
0.000000
  70
    32
  0
VERTEX
  8
┌▓È_1
  5
944
 10
1203.39
 20
-30.1801
 30
0.000000
  70
    32
  0
VERTEX
  8
┌▓È_1
  5
945
 10
1203.41
 20
-30.2059
 30
0.000000
  70
    32
  0
VERTEX
  8
┌▓È_1
  5
946
 10
1203.43
 20
-30.2318
 30
0.000000
  70
    32
  0
VERTEX
  8
┌▓È_1
  5
947
 10
1203.45
 20
-30.2577
 30
0.000000
  70
    32
  0
VERTEX
  8
┌▓È_1
  5
948
 10
1203.47
 20
-30.2835
 30
0.000000
  70
    32
  0
VERTEX
  8
┌▓È_1
  5
949
 10
1203.49
 20
-30.3094
 30
0.000000
  70
    32
  0
VERTEX
  8
┌▓È_1
  5
94A
 10
1203.51
 20
-30.3353
 30
0.000000
  70
    32
  0
VERTEX
  8
┌▓È_1
  5
94B
 10
1203.52
 20
-30.3611
 30
0.000000
  70
    32
  0
VERTEX
  8
┌▓È_1
  5
94C
 10
1203.54
 20
-30.3870
 30
0.000000
  70
    32
  0
VERTEX
  8
┌▓È_1
  5
94D
 10
1203.56
 20
-30.4129
 30
0.000000
  70
    32
  0
VERTEX
  8
┌▓È_1
  5
94E
 10
1203.58
 20
-30.4388
 30
0.000000
  70
    32
  0
VERTEX
  8
┌▓È_1
  5
94F
 10
1203.61
 20
-30.4646
 30
0.000000
  70
    32
  0
VERTEX
  8
┌▓È_1
  5
950
 10
1203.63
 20
-30.4905
 30
0.000000
  70
    32
  0
VERTEX
  8
┌▓È_1
  5
951
 10
1203.65
 20
-30.5164
 30
0.000000
  70
    32
  0
VERTEX
  8
┌▓È_1
  5
952
 10
1203.67
 20
-30.5422
 30
0.000000
  70
    32
  0
VERTEX
  8
┌▓È_1
  5
953
 10
1203.69
 20
-30.5681
 30
0.000000
  70
    32
  0
VERTEX
  8
┌▓È_1
  5
954
 10
1203.71
 20
-30.5940
 30
0.000000
  70
    32
  0
VERTEX
  8
┌▓È_1
  5
955
 10
1203.73
 20
-30.6198
 30
0.000000
  70
    32
  0
VERTEX
  8
┌▓È_1
  5
956
 10
1203.76
 20
-30.6457
 30
0.000000
  70
    32
  0
VERTEX
  8
┌▓È_1
  5
957
 10
1203.78
 20
-30.6716
 30
0.000000
  70
    32
  0
VERTEX
  8
┌▓È_1
  5
958
 10
1203.80
 20
-30.6974
 30
0.000000
  70
    32
  0
VERTEX
  8
┌▓È_1
  5
959
 10
1203.83
 20
-30.7233
 30
0.000000
  70
    32
  0
VERTEX
  8
┌▓È_1
  5
95A
 10
1203.85
 20
-30.7492
 30
0.000000
  70
    32
  0
VERTEX
  8
┌▓È_1
  5
95B
 10
1203.87
 20
-30.7750
 30
0.000000
  70
    32
  0
VERTEX
  8
┌▓È_1
  5
95C
 10
1203.90
 20
-30.8009
 30
0.000000
  70
    32
  0
VERTEX
  8
┌▓È_1
  5
95D
 10
1203.92
 20
-30.8268
 30
0.000000
  70
    32
  0
VERTEX
  8
┌▓È_1
  5
95E
 10
1203.94
 20
-30.8526
 30
0.000000
  70
    32
  0
VERTEX
  8
┌▓È_1
  5
95F
 10
1203.97
 20
-30.8785
 30
0.000000
  70
    32
  0
VERTEX
  8
┌▓È_1
  5
960
 10
1203.99
 20
-30.9044
 30
0.000000
  70
    32
  0
VERTEX
  8
┌▓È_1
  5
961
 10
1204.02
 20
-30.9302
 30
0.000000
  70
    32
  0
VERTEX
  8
┌▓È_1
  5
962
 10
1204.04
 20
-30.9561
 30
0.000000
  70
    32
  0
VERTEX
  8
┌▓È_1
  5
963
 10
1204.07
 20
-30.9820
 30
0.000000
  70
    32
  0
VERTEX
  8
┌▓È_1
  5
964
 10
1204.10
 20
-31.0078
 30
0.000000
  70
    32
  0
VERTEX
  8
┌▓È_1
  5
965
 10
1204.12
 20
-31.0337
 30
0.000000
  70
    32
  0
VERTEX
  8
┌▓È_1
  5
966
 10
1204.15
 20
-31.0596
 30
0.000000
  70
    32
  0
VERTEX
  8
┌▓È_1
  5
967
 10
1204.17
 20
-31.0855
 30
0.000000
  70
    32
  0
VERTEX
  8
┌▓È_1
  5
968
 10
1204.20
 20
-31.1113
 30
0.000000
  70
    32
  0
VERTEX
  8
┌▓È_1
  5
969
 10
1204.23
 20
-31.1372
 30
0.000000
  70
    32
  0
VERTEX
  8
┌▓È_1
  5
96A
 10
1204.25
 20
-31.1631
 30
0.000000
  70
    32
  0
VERTEX
  8
┌▓È_1
  5
96B
 10
1204.28
 20
-31.1889
 30
0.000000
  70
    32
  0
VERTEX
  8
┌▓È_1
  5
96C
 10
1204.31
 20
-31.2148
 30
0.000000
  70
    32
  0
VERTEX
  8
┌▓È_1
  5
96D
 10
1204.34
 20
-31.2407
 30
0.000000
  70
    32
  0
VERTEX
  8
┌▓È_1
  5
96E
 10
1204.36
 20
-31.2665
 30
0.000000
  70
    32
  0
VERTEX
  8
┌▓È_1
  5
96F
 10
1204.39
 20
-31.2924
 30
0.000000
  70
    32
  0
VERTEX
  8
┌▓È_1
  5
970
 10
1204.42
 20
-31.3183
 30
0.000000
  70
    32
  0
VERTEX
  8
┌▓È_1
  5
971
 10
1204.45
 20
-31.3441
 30
0.000000
  70
    32
  0
VERTEX
  8
┌▓È_1
  5
972
 10
1204.48
 20
-31.3700
 30
0.000000
  70
    32
  0
VERTEX
  8
┌▓È_1
  5
973
 10
1204.51
 20
-31.3959
 30
0.000000
  70
    32
  0
VERTEX
  8
┌▓È_1
  5
974
 10
1204.53
 20
-31.4217
 30
0.000000
  70
    32
  0
VERTEX
  8
┌▓È_1
  5
975
 10
1204.56
 20
-31.4476
 30
0.000000
  70
    32
  0
VERTEX
  8
┌▓È_1
  5
976
 10
1204.59
 20
-31.4735
 30
0.000000
  70
    32
  0
VERTEX
  8
┌▓È_1
  5
977
 10
1204.62
 20
-31.4993
 30
0.000000
  70
    32
  0
VERTEX
  8
┌▓È_1
  5
978
 10
1204.65
 20
-31.5252
 30
0.000000
  70
    32
  0
VERTEX
  8
┌▓È_1
  5
979
 10
1204.68
 20
-31.5511
 30
0.000000
  70
    32
  0
VERTEX
  8
┌▓È_1
  5
97A
 10
1204.71
 20
-31.5769
 30
0.000000
  70
    32
  0
VERTEX
  8
┌▓È_1
  5
97B
 10
1204.74
 20
-31.6028
 30
0.000000
  70
    32
  0
VERTEX
  8
┌▓È_1
  5
97C
 10
1204.77
 20
-31.6287
 30
0.000000
  70
    32
  0
VERTEX
  8
┌▓È_1
  5
97D
 10
1204.80
 20
-31.6546
 30
0.000000
  70
    32
  0
VERTEX
  8
┌▓È_1
  5
97E
 10
1204.83
 20
-31.6804
 30
0.000000
  70
    32
  0
VERTEX
  8
┌▓È_1
  5
97F
 10
1204.86
 20
-31.7063
 30
0.000000
  70
    32
  0
VERTEX
  8
┌▓È_1
  5
980
 10
1204.89
 20
-31.7322
 30
0.000000
  70
    32
  0
VERTEX
  8
┌▓È_1
  5
981
 10
1204.92
 20
-31.7580
 30
0.000000
  70
    32
  0
VERTEX
  8
┌▓È_1
  5
982
 10
1204.96
 20
-31.7839
 30
0.000000
  70
    32
  0
VERTEX
  8
┌▓È_1
  5
983
 10
1204.99
 20
-31.8098
 30
0.000000
  70
    32
  0
VERTEX
  8
┌▓È_1
  5
984
 10
1205.02
 20
-31.8356
 30
0.000000
  70
    32
  0
VERTEX
  8
┌▓È_1
  5
985
 10
1205.05
 20
-31.8615
 30
0.000000
  70
    32
  0
VERTEX
  8
┌▓È_1
  5
986
 10
1205.08
 20
-31.8874
 30
0.000000
  70
    32
  0
VERTEX
  8
┌▓È_1
  5
987
 10
1205.11
 20
-31.9132
 30
0.000000
  70
    32
  0
VERTEX
  8
┌▓È_1
  5
988
 10
1205.14
 20
-31.9391
 30
0.000000
  70
    32
  0
VERTEX
  8
┌▓È_1
  5
989
 10
1205.18
 20
-31.9650
 30
0.000000
  70
    32
  0
VERTEX
  8
┌▓È_1
  5
98A
 10
1205.21
 20
-31.9908
 30
0.000000
  70
    32
  0
VERTEX
  8
┌▓È_1
  5
98B
 10
1205.24
 20
-32.0167
 30
0.000000
  70
    32
  0
SEQEND
  8
┌▓È_1
  5
98C
  0
POLYLINE
  8
┌▓È_1
  5
98D
  62
5
  66
     1
 10
0.000000
 20
0.000000
 30
0.000000
  70
     8
  0
VERTEX
  8
┌▓È_1
  5
98E
 10
1201.44
 20
-32.1003
 30
0.000000
  70
    32
  0
VERTEX
  8
┌▓È_1
  5
98F
 10
1201.44
 20
-32.1232
 30
0.000000
  70
    32
  0
VERTEX
  8
┌▓È_1
  5
990
 10
1201.44
 20
-32.1462
 30
0.000000
  70
    32
  0
VERTEX
  8
┌▓È_1
  5
991
 10
1201.44
 20
-32.1691
 30
0.000000
  70
    32
  0
VERTEX
  8
┌▓È_1
  5
992
 10
1201.44
 20
-32.1921
 30
0.000000
  70
    32
  0
VERTEX
  8
┌▓È_1
  5
993
 10
1201.44
 20
-32.2151
 30
0.000000
  70
    32
  0
VERTEX
  8
┌▓È_1
  5
994
 10
1201.45
 20
-32.2380
 30
0.000000
  70
    32
  0
VERTEX
  8
┌▓È_1
  5
995
 10
1201.45
 20
-32.2610
 30
0.000000
  70
    32
  0
VERTEX
  8
┌▓È_1
  5
996
 10
1201.45
 20
-32.2839
 30
0.000000
  70
    32
  0
VERTEX
  8
┌▓È_1
  5
997
 10
1201.45
 20
-32.3069
 30
0.000000
  70
    32
  0
VERTEX
  8
┌▓È_1
  5
998
 10
1201.46
 20
-32.3298
 30
0.000000
  70
    32
  0
VERTEX
  8
┌▓È_1
  5
999
 10
1201.46
 20
-32.3528
 30
0.000000
  70
    32
  0
VERTEX
  8
┌▓È_1
  5
99A
 10
1201.46
 20
-32.3758
 30
0.000000
  70
    32
  0
VERTEX
  8
┌▓È_1
  5
99B
 10
1201.47
 20
-32.3987
 30
0.000000
  70
    32
  0
VERTEX
  8
┌▓È_1
  5
99C
 10
1201.47
 20
-32.4217
 30
0.000000
  70
    32
  0
VERTEX
  8
┌▓È_1
  5
99D
 10
1201.48
 20
-32.4446
 30
0.000000
  70
    32
  0
VERTEX
  8
┌▓È_1
  5
99E
 10
1201.48
 20
-32.4676
 30
0.000000
  70
    32
  0
VERTEX
  8
┌▓È_1
  5
99F
 10
1201.49
 20
-32.4905
 30
0.000000
  70
    32
  0
VERTEX
  8
┌▓È_1
  5
9A0
 10
1201.49
 20
-32.5135
 30
0.000000
  70
    32
  0
VERTEX
  8
┌▓È_1
  5
9A1
 10
1201.50
 20
-32.5365
 30
0.000000
  70
    32
  0
VERTEX
  8
┌▓È_1
  5
9A2
 10
1201.50
 20
-32.5594
 30
0.000000
  70
    32
  0
VERTEX
  8
┌▓È_1
  5
9A3
 10
1201.51
 20
-32.5824
 30
0.000000
  70
    32
  0
VERTEX
  8
┌▓È_1
  5
9A4
 10
1201.52
 20
-32.6053
 30
0.000000
  70
    32
  0
VERTEX
  8
┌▓È_1
  5
9A5
 10
1201.52
 20
-32.6283
 30
0.000000
  70
    32
  0
VERTEX
  8
┌▓È_1
  5
9A6
 10
1201.53
 20
-32.6512
 30
0.000000
  70
    32
  0
VERTEX
  8
┌▓È_1
  5
9A7
 10
1201.54
 20
-32.6742
 30
0.000000
  70
    32
  0
VERTEX
  8
┌▓È_1
  5
9A8
 10
1201.55
 20
-32.6972
 30
0.000000
  70
    32
  0
VERTEX
  8
┌▓È_1
  5
9A9
 10
1201.56
 20
-32.7201
 30
0.000000
  70
    32
  0
VERTEX
  8
┌▓È_1
  5
9AA
 10
1201.56
 20
-32.7431
 30
0.000000
  70
    32
  0
VERTEX
  8
┌▓È_1
  5
9AB
 10
1201.57
 20
-32.7660
 30
0.000000
  70
    32
  0
VERTEX
  8
┌▓È_1
  5
9AC
 10
1201.58
 20
-32.7890
 30
0.000000
  70
    32
  0
VERTEX
  8
┌▓È_1
  5
9AD
 10
1201.59
 20
-32.8119
 30
0.000000
  70
    32
  0
VERTEX
  8
┌▓È_1
  5
9AE
 10
1201.60
 20
-32.8349
 30
0.000000
  70
    32
  0
VERTEX
  8
┌▓È_1
  5
9AF
 10
1201.61
 20
-32.8579
 30
0.000000
  70
    32
  0
VERTEX
  8
┌▓È_1
  5
9B0
 10
1201.62
 20
-32.8808
 30
0.000000
  70
    32
  0
VERTEX
  8
┌▓È_1
  5
9B1
 10
1201.63
 20
-32.9038
 30
0.000000
  70
    32
  0
VERTEX
  8
┌▓È_1
  5
9B2
 10
1201.64
 20
-32.9267
 30
0.000000
  70
    32
  0
VERTEX
  8
┌▓È_1
  5
9B3
 10
1201.65
 20
-32.9497
 30
0.000000
  70
    32
  0
VERTEX
  8
┌▓È_1
  5
9B4
 10
1201.66
 20
-32.9726
 30
0.000000
  70
    32
  0
VERTEX
  8
┌▓È_1
  5
9B5
 10
1201.68
 20
-32.9956
 30
0.000000
  70
    32
  0
VERTEX
  8
┌▓È_1
  5
9B6
 10
1201.69
 20
-33.0186
 30
0.000000
  70
    32
  0
VERTEX
  8
┌▓È_1
  5
9B7
 10
1201.70
 20
-33.0415
 30
0.000000
  70
    32
  0
VERTEX
  8
┌▓È_1
  5
9B8
 10
1201.71
 20
-33.0645
 30
0.000000
  70
    32
  0
VERTEX
  8
┌▓È_1
  5
9B9
 10
1201.72
 20
-33.0874
 30
0.000000
  70
    32
  0
VERTEX
  8
┌▓È_1
  5
9BA
 10
1201.74
 20
-33.1104
 30
0.000000
  70
    32
  0
VERTEX
  8
┌▓È_1
  5
9BB
 10
1201.75
 20
-33.1334
 30
0.000000
  70
    32
  0
VERTEX
  8
┌▓È_1
  5
9BC
 10
1201.76
 20
-33.1563
 30
0.000000
  70
    32
  0
VERTEX
  8
┌▓È_1
  5
9BD
 10
1201.78
 20
-33.1793
 30
0.000000
  70
    32
  0
VERTEX
  8
┌▓È_1
  5
9BE
 10
1201.79
 20
-33.2022
 30
0.000000
  70
    32
  0
VERTEX
  8
┌▓È_1
  5
9BF
 10
1201.81
 20
-33.2252
 30
0.000000
  70
    32
  0
VERTEX
  8
┌▓È_1
  5
9C0
 10
1201.82
 20
-33.2481
 30
0.000000
  70
    32
  0
VERTEX
  8
┌▓È_1
  5
9C1
 10
1201.83
 20
-33.2711
 30
0.000000
  70
    32
  0
VERTEX
  8
┌▓È_1
  5
9C2
 10
1201.85
 20
-33.2941
 30
0.000000
  70
    32
  0
VERTEX
  8
┌▓È_1
  5
9C3
 10
1201.86
 20
-33.3170
 30
0.000000
  70
    32
  0
VERTEX
  8
┌▓È_1
  5
9C4
 10
1201.88
 20
-33.3400
 30
0.000000
  70
    32
  0
VERTEX
  8
┌▓È_1
  5
9C5
 10
1201.89
 20
-33.3629
 30
0.000000
  70
    32
  0
VERTEX
  8
┌▓È_1
  5
9C6
 10
1201.91
 20
-33.3859
 30
0.000000
  70
    32
  0
VERTEX
  8
┌▓È_1
  5
9C7
 10
1201.93
 20
-33.4088
 30
0.000000
  70
    32
  0
VERTEX
  8
┌▓È_1
  5
9C8
 10
1201.94
 20
-33.4318
 30
0.000000
  70
    32
  0
VERTEX
  8
┌▓È_1
  5
9C9
 10
1201.96
 20
-33.4548
 30
0.000000
  70
    32
  0
VERTEX
  8
┌▓È_1
  5
9CA
 10
1201.98
 20
-33.4777
 30
0.000000
  70
    32
  0
VERTEX
  8
┌▓È_1
  5
9CB
 10
1201.99
 20
-33.5007
 30
0.000000
  70
    32
  0
VERTEX
  8
┌▓È_1
  5
9CC
 10
1202.01
 20
-33.5236
 30
0.000000
  70
    32
  0
VERTEX
  8
┌▓È_1
  5
9CD
 10
1202.03
 20
-33.5466
 30
0.000000
  70
    32
  0
VERTEX
  8
┌▓È_1
  5
9CE
 10
1202.04
 20
-33.5695
 30
0.000000
  70
    32
  0
VERTEX
  8
┌▓È_1
  5
9CF
 10
1202.06
 20
-33.5925
 30
0.000000
  70
    32
  0
VERTEX
  8
┌▓È_1
  5
9D0
 10
1202.08
 20
-33.6155
 30
0.000000
  70
    32
  0
VERTEX
  8
┌▓È_1
  5
9D1
 10
1202.10
 20
-33.6384
 30
0.000000
  70
    32
  0
VERTEX
  8
┌▓È_1
  5
9D2
 10
1202.12
 20
-33.6614
 30
0.000000
  70
    32
  0
VERTEX
  8
┌▓È_1
  5
9D3
 10
1202.14
 20
-33.6843
 30
0.000000
  70
    32
  0
VERTEX
  8
┌▓È_1
  5
9D4
 10
1202.15
 20
-33.7073
 30
0.000000
  70
    32
  0
VERTEX
  8
┌▓È_1
  5
9D5
 10
1202.17
 20
-33.7302
 30
0.000000
  70
    32
  0
VERTEX
  8
┌▓È_1
  5
9D6
 10
1202.19
 20
-33.7532
 30
0.000000
  70
    32
  0
VERTEX
  8
┌▓È_1
  5
9D7
 10
1202.21
 20
-33.7762
 30
0.000000
  70
    32
  0
VERTEX
  8
┌▓È_1
  5
9D8
 10
1202.23
 20
-33.7991
 30
0.000000
  70
    32
  0
VERTEX
  8
┌▓È_1
  5
9D9
 10
1202.25
 20
-33.8221
 30
0.000000
  70
    32
  0
VERTEX
  8
┌▓È_1
  5
9DA
 10
1202.27
 20
-33.8450
 30
0.000000
  70
    32
  0
VERTEX
  8
┌▓È_1
  5
9DB
 10
1202.29
 20
-33.8680
 30
0.000000
  70
    32
  0
VERTEX
  8
┌▓È_1
  5
9DC
 10
1202.31
 20
-33.8909
 30
0.000000
  70
    32
  0
VERTEX
  8
┌▓È_1
  5
9DD
 10
1202.33
 20
-33.9139
 30
0.000000
  70
    32
  0
VERTEX
  8
┌▓È_1
  5
9DE
 10
1202.35
 20
-33.9369
 30
0.000000
  70
    32
  0
VERTEX
  8
┌▓È_1
  5
9DF
 10
1202.38
 20
-33.9598
 30
0.000000
  70
    32
  0
VERTEX
  8
┌▓È_1
  5
9E0
 10
1202.40
 20
-33.9828
 30
0.000000
  70
    32
  0
VERTEX
  8
┌▓È_1
  5
9E1
 10
1202.42
 20
-34.0057
 30
0.000000
  70
    32
  0
VERTEX
  8
┌▓È_1
  5
9E2
 10
1202.44
 20
-34.0287
 30
0.000000
  70
    32
  0
VERTEX
  8
┌▓È_1
  5
9E3
 10
1202.46
 20
-34.0517
 30
0.000000
  70
    32
  0
VERTEX
  8
┌▓È_1
  5
9E4
 10
1202.48
 20
-34.0746
 30
0.000000
  70
    32
  0
VERTEX
  8
┌▓È_1
  5
9E5
 10
1202.51
 20
-34.0976
 30
0.000000
  70
    32
  0
VERTEX
  8
┌▓È_1
  5
9E6
 10
1202.53
 20
-34.1205
 30
0.000000
  70
    32
  0
VERTEX
  8
┌▓È_1
  5
9E7
 10
1202.55
 20
-34.1435
 30
0.000000
  70
    32
  0
VERTEX
  8
┌▓È_1
  5
9E8
 10
1202.57
 20
-34.1664
 30
0.000000
  70
    32
  0
VERTEX
  8
┌▓È_1
  5
9E9
 10
1202.60
 20
-34.1894
 30
0.000000
  70
    32
  0
VERTEX
  8
┌▓È_1
  5
9EA
 10
1202.62
 20
-34.2124
 30
0.000000
  70
    32
  0
VERTEX
  8
┌▓È_1
  5
9EB
 10
1202.64
 20
-34.2353
 30
0.000000
  70
    32
  0
VERTEX
  8
┌▓È_1
  5
9EC
 10
1202.66
 20
-34.2583
 30
0.000000
  70
    32
  0
VERTEX
  8
┌▓È_1
  5
9ED
 10
1202.69
 20
-34.2812
 30
0.000000
  70
    32
  0
VERTEX
  8
┌▓È_1
  5
9EE
 10
1202.71
 20
-34.3042
 30
0.000000
  70
    32
  0
VERTEX
  8
┌▓È_1
  5
9EF
 10
1202.74
 20
-34.3271
 30
0.000000
  70
    32
  0
VERTEX
  8
┌▓È_1
  5
9F0
 10
1202.76
 20
-34.3501
 30
0.000000
  70
    32
  0
VERTEX
  8
┌▓È_1
  5
9F1
 10
1202.78
 20
-34.3731
 30
0.000000
  70
    32
  0
VERTEX
  8
┌▓È_1
  5
9F2
 10
1202.81
 20
-34.3960
 30
0.000000
  70
    32
  0
VERTEX
  8
┌▓È_1
  5
9F3
 10
1202.83
 20
-34.4190
 30
0.000000
  70
    32
  0
VERTEX
  8
┌▓È_1
  5
9F4
 10
1202.86
 20
-34.4419
 30
0.000000
  70
    32
  0
VERTEX
  8
┌▓È_1
  5
9F5
 10
1202.88
 20
-34.4649
 30
0.000000
  70
    32
  0
VERTEX
  8
┌▓È_1
  5
9F6
 10
1202.91
 20
-34.4878
 30
0.000000
  70
    32
  0
VERTEX
  8
┌▓È_1
  5
9F7
 10
1202.93
 20
-34.5108
 30
0.000000
  70
    32
  0
VERTEX
  8
┌▓È_1
  5
9F8
 10
1202.96
 20
-34.5338
 30
0.000000
  70
    32
  0
VERTEX
  8
┌▓È_1
  5
9F9
 10
1202.98
 20
-34.5567
 30
0.000000
  70
    32
  0
VERTEX
  8
┌▓È_1
  5
9FA
 10
1203.01
 20
-34.5797
 30
0.000000
  70
    32
  0
VERTEX
  8
┌▓È_1
  5
9FB
 10
1203.03
 20
-34.6026
 30
0.000000
  70
    32
  0
VERTEX
  8
┌▓È_1
  5
9FC
 10
1203.06
 20
-34.6256
 30
0.000000
  70
    32
  0
VERTEX
  8
┌▓È_1
  5
9FD
 10
1203.08
 20
-34.6485
 30
0.000000
  70
    32
  0
VERTEX
  8
┌▓È_1
  5
9FE
 10
1203.11
 20
-34.6715
 30
0.000000
  70
    32
  0
VERTEX
  8
┌▓È_1
  5
9FF
 10
1203.14
 20
-34.6945
 30
0.000000
  70
    32
  0
VERTEX
  8
┌▓È_1
  5
A00
 10
1203.16
 20
-34.7174
 30
0.000000
  70
    32
  0
VERTEX
  8
┌▓È_1
  5
A01
 10
1203.19
 20
-34.7404
 30
0.000000
  70
    32
  0
VERTEX
  8
┌▓È_1
  5
A02
 10
1203.22
 20
-34.7633
 30
0.000000
  70
    32
  0
VERTEX
  8
┌▓È_1
  5
A03
 10
1203.24
 20
-34.7863
 30
0.000000
  70
    32
  0
VERTEX
  8
┌▓È_1
  5
A04
 10
1203.27
 20
-34.8092
 30
0.000000
  70
    32
  0
VERTEX
  8
┌▓È_1
  5
A05
 10
1203.30
 20
-34.8322
 30
0.000000
  70
    32
  0
VERTEX
  8
┌▓È_1
  5
A06
 10
1203.32
 20
-34.8552
 30
0.000000
  70
    32
  0
VERTEX
  8
┌▓È_1
  5
A07
 10
1203.35
 20
-34.8781
 30
0.000000
  70
    32
  0
VERTEX
  8
┌▓È_1
  5
A08
 10
1203.38
 20
-34.9011
 30
0.000000
  70
    32
  0
VERTEX
  8
┌▓È_1
  5
A09
 10
1203.40
 20
-34.9240
 30
0.000000
  70
    32
  0
VERTEX
  8
┌▓È_1
  5
A0A
 10
1203.43
 20
-34.9470
 30
0.000000
  70
    32
  0
VERTEX
  8
┌▓È_1
  5
A0B
 10
1203.46
 20
-34.9700
 30
0.000000
  70
    32
  0
VERTEX
  8
┌▓È_1
  5
A0C
 10
1203.49
 20
-34.9929
 30
0.000000
  70
    32
  0
VERTEX
  8
┌▓È_1
  5
A0D
 10
1203.52
 20
-35.0159
 30
0.000000
  70
    32
  0
VERTEX
  8
┌▓È_1
  5
A0E
 10
1203.54
 20
-35.0388
 30
0.000000
  70
    32
  0
VERTEX
  8
┌▓È_1
  5
A0F
 10
1203.57
 20
-35.0618
 30
0.000000
  70
    32
  0
VERTEX
  8
┌▓È_1
  5
A10
 10
1203.60
 20
-35.0847
 30
0.000000
  70
    32
  0
VERTEX
  8
┌▓È_1
  5
A11
 10
1203.63
 20
-35.1077
 30
0.000000
  70
    32
  0
VERTEX
  8
┌▓È_1
  5
A12
 10
1203.66
 20
-35.1307
 30
0.000000
  70
    32
  0
VERTEX
  8
┌▓È_1
  5
A13
 10
1203.68
 20
-35.1536
 30
0.000000
  70
    32
  0
VERTEX
  8
┌▓È_1
  5
A14
 10
1203.71
 20
-35.1766
 30
0.000000
  70
    32
  0
VERTEX
  8
┌▓È_1
  5
A15
 10
1203.74
 20
-35.1995
 30
0.000000
  70
    32
  0
VERTEX
  8
┌▓È_1
  5
A16
 10
1203.77
 20
-35.2225
 30
0.000000
  70
    32
  0
VERTEX
  8
┌▓È_1
  5
A17
 10
1203.80
 20
-35.2454
 30
0.000000
  70
    32
  0
VERTEX
  8
┌▓È_1
  5
A18
 10
1203.83
 20
-35.2684
 30
0.000000
  70
    32
  0
VERTEX
  8
┌▓È_1
  5
A19
 10
1203.86
 20
-35.2914
 30
0.000000
  70
    32
  0
VERTEX
  8
┌▓È_1
  5
A1A
 10
1203.89
 20
-35.3143
 30
0.000000
  70
    32
  0
VERTEX
  8
┌▓È_1
  5
A1B
 10
1203.91
 20
-35.3373
 30
0.000000
  70
    32
  0
VERTEX
  8
┌▓È_1
  5
A1C
 10
1203.94
 20
-35.3602
 30
0.000000
  70
    32
  0
VERTEX
  8
┌▓È_1
  5
A1D
 10
1203.97
 20
-35.3832
 30
0.000000
  70
    32
  0
VERTEX
  8
┌▓È_1
  5
A1E
 10
1204.00
 20
-35.4061
 30
0.000000
  70
    32
  0
VERTEX
  8
┌▓È_1
  5
A1F
 10
1204.03
 20
-35.4291
 30
0.000000
  70
    32
  0
VERTEX
  8
┌▓È_1
  5
A20
 10
1204.06
 20
-35.4521
 30
0.000000
  70
    32
  0
VERTEX
  8
┌▓È_1
  5
A21
 10
1204.09
 20
-35.4750
 30
0.000000
  70
    32
  0
VERTEX
  8
┌▓È_1
  5
A22
 10
1204.12
 20
-35.4980
 30
0.000000
  70
    32
  0
VERTEX
  8
┌▓È_1
  5
A23
 10
1204.15
 20
-35.5209
 30
0.000000
  70
    32
  0
VERTEX
  8
┌▓È_1
  5
A24
 10
1204.18
 20
-35.5439
 30
0.000000
  70
    32
  0
VERTEX
  8
┌▓È_1
  5
A25
 10
1204.21
 20
-35.5668
 30
0.000000
  70
    32
  0
VERTEX
  8
┌▓È_1
  5
A26
 10
1204.24
 20
-35.5898
 30
0.000000
  70
    32
  0
VERTEX
  8
┌▓È_1
  5
A27
 10
1204.27
 20
-35.6128
 30
0.000000
  70
    32
  0
VERTEX
  8
┌▓È_1
  5
A28
 10
1204.30
 20
-35.6357
 30
0.000000
  70
    32
  0
VERTEX
  8
┌▓È_1
  5
A29
 10
1204.33
 20
-35.6587
 30
0.000000
  70
    32
  0
VERTEX
  8
┌▓È_1
  5
A2A
 10
1204.36
 20
-35.6816
 30
0.000000
  70
    32
  0
VERTEX
  8
┌▓È_1
  5
A2B
 10
1204.39
 20
-35.7046
 30
0.000000
  70
    32
  0
VERTEX
  8
┌▓È_1
  5
A2C
 10
1204.42
 20
-35.7275
 30
0.000000
  70
    32
  0
VERTEX
  8
┌▓È_1
  5
A2D
 10
1204.45
 20
-35.7505
 30
0.000000
  70
    32
  0
SEQEND
  8
┌▓È_1
  5
A2E
  0
POLYLINE
  8
┌▓È_1
  5
A2F
  62
5
  66
     1
 10
0.000000
 20
0.000000
 30
0.000000
  70
     8
  0
VERTEX
  8
┌▓È_1
  5
A30
 10
1203.24
 20
-26.2344
 30
0.000000
  70
    32
  0
VERTEX
  8
┌▓È_1
  5
A31
 10
1203.19
 20
-26.2743
 30
0.000000
  70
    32
  0
VERTEX
  8
┌▓È_1
  5
A32
 10
1203.15
 20
-26.3141
 30
0.000000
  70
    32
  0
VERTEX
  8
┌▓È_1
  5
A33
 10
1203.10
 20
-26.3539
 30
0.000000
  70
    32
  0
VERTEX
  8
┌▓È_1
  5
A34
 10
1203.06
 20
-26.3938
 30
0.000000
  70
    32
  0
VERTEX
  8
┌▓È_1
  5
A35
 10
1203.01
 20
-26.4336
 30
0.000000
  70
    32
  0
VERTEX
  8
┌▓È_1
  5
A36
 10
1202.97
 20
-26.4735
 30
0.000000
  70
    32
  0
VERTEX
  8
┌▓È_1
  5
A37
 10
1202.93
 20
-26.5133
 30
0.000000
  70
    32
  0
VERTEX
  8
┌▓È_1
  5
A38
 10
1202.88
 20
-26.5531
 30
0.000000
  70
    32
  0
VERTEX
  8
┌▓È_1
  5
A39
 10
1202.84
 20
-26.5930
 30
0.000000
  70
    32
  0
VERTEX
  8
┌▓È_1
  5
A3A
 10
1202.80
 20
-26.6328
 30
0.000000
  70
    32
  0
VERTEX
  8
┌▓È_1
  5
A3B
 10
1202.76
 20
-26.6726
 30
0.000000
  70
    32
  0
VERTEX
  8
┌▓È_1
  5
A3C
 10
1202.71
 20
-26.7125
 30
0.000000
  70
    32
  0
VERTEX
  8
┌▓È_1
  5
A3D
 10
1202.67
 20
-26.7523
 30
0.000000
  70
    32
  0
VERTEX
  8
┌▓È_1
  5
A3E
 10
1202.63
 20
-26.7921
 30
0.000000
  70
    32
  0
VERTEX
  8
┌▓È_1
  5
A3F
 10
1202.59
 20
-26.8320
 30
0.000000
  70
    32
  0
VERTEX
  8
┌▓È_1
  5
A40
 10
1202.55
 20
-26.8718
 30
0.000000
  70
    32
  0
VERTEX
  8
┌▓È_1
  5
A41
 10
1202.51
 20
-26.9117
 30
0.000000
  70
    32
  0
VERTEX
  8
┌▓È_1
  5
A42
 10
1202.48
 20
-26.9515
 30
0.000000
  70
    32
  0
VERTEX
  8
┌▓È_1
  5
A43
 10
1202.44
 20
-26.9913
 30
0.000000
  70
    32
  0
VERTEX
  8
┌▓È_1
  5
A44
 10
1202.40
 20
-27.0312
 30
0.000000
  70
    32
  0
VERTEX
  8
┌▓È_1
  5
A45
 10
1202.36
 20
-27.0710
 30
0.000000
  70
    32
  0
VERTEX
  8
┌▓È_1
  5
A46
 10
1202.33
 20
-27.1108
 30
0.000000
  70
    32
  0
VERTEX
  8
┌▓È_1
  5
A47
 10
1202.29
 20
-27.1507
 30
0.000000
  70
    32
  0
VERTEX
  8
┌▓È_1
  5
A48
 10
1202.26
 20
-27.1905
 30
0.000000
  70
    32
  0
VERTEX
  8
┌▓È_1
  5
A49
 10
1202.22
 20
-27.2304
 30
0.000000
  70
    32
  0
VERTEX
  8
┌▓È_1
  5
A4A
 10
1202.19
 20
-27.2702
 30
0.000000
  70
    32
  0
VERTEX
  8
┌▓È_1
  5
A4B
 10
1202.16
 20
-27.3100
 30
0.000000
  70
    32
  0
VERTEX
  8
┌▓È_1
  5
A4C
 10
1202.12
 20
-27.3499
 30
0.000000
  70
    32
  0
VERTEX
  8
┌▓È_1
  5
A4D
 10
1202.09
 20
-27.3897
 30
0.000000
  70
    32
  0
VERTEX
  8
┌▓È_1
  5
A4E
 10
1202.06
 20
-27.4295
 30
0.000000
  70
    32
  0
VERTEX
  8
┌▓È_1
  5
A4F
 10
1202.03
 20
-27.4694
 30
0.000000
  70
    32
  0
VERTEX
  8
┌▓È_1
  5
A50
 10
1202.00
 20
-27.5092
 30
0.000000
  70
    32
  0
VERTEX
  8
┌▓È_1
  5
A51
 10
1201.97
 20
-27.5491
 30
0.000000
  70
    32
  0
VERTEX
  8
┌▓È_1
  5
A52
 10
1201.94
 20
-27.5889
 30
0.000000
  70
    32
  0
VERTEX
  8
┌▓È_1
  5
A53
 10
1201.91
 20
-27.6287
 30
0.000000
  70
    32
  0
VERTEX
  8
┌▓È_1
  5
A54
 10
1201.89
 20
-27.6686
 30
0.000000
  70
    32
  0
VERTEX
  8
┌▓È_1
  5
A55
 10
1201.86
 20
-27.7084
 30
0.000000
  70
    32
  0
VERTEX
  8
┌▓È_1
  5
A56
 10
1201.83
 20
-27.7482
 30
0.000000
  70
    32
  0
VERTEX
  8
┌▓È_1
  5
A57
 10
1201.81
 20
-27.7881
 30
0.000000
  70
    32
  0
VERTEX
  8
┌▓È_1
  5
A58
 10
1201.78
 20
-27.8279
 30
0.000000
  70
    32
  0
VERTEX
  8
┌▓È_1
  5
A59
 10
1201.76
 20
-27.8677
 30
0.000000
  70
    32
  0
VERTEX
  8
┌▓È_1
  5
A5A
 10
1201.74
 20
-27.9076
 30
0.000000
  70
    32
  0
VERTEX
  8
┌▓È_1
  5
A5B
 10
1201.72
 20
-27.9474
 30
0.000000
  70
    32
  0
VERTEX
  8
┌▓È_1
  5
A5C
 10
1201.69
 20
-27.9873
 30
0.000000
  70
    32
  0
VERTEX
  8
┌▓È_1
  5
A5D
 10
1201.67
 20
-28.0271
 30
0.000000
  70
    32
  0
VERTEX
  8
┌▓È_1
  5
A5E
 10
1201.65
 20
-28.0669
 30
0.000000
  70
    32
  0
VERTEX
  8
┌▓È_1
  5
A5F
 10
1201.64
 20
-28.1068
 30
0.000000
  70
    32
  0
VERTEX
  8
┌▓È_1
  5
A60
 10
1201.62
 20
-28.1466
 30
0.000000
  70
    32
  0
VERTEX
  8
┌▓È_1
  5
A61
 10
1201.60
 20
-28.1864
 30
0.000000
  70
    32
  0
VERTEX
  8
┌▓È_1
  5
A62
 10
1201.58
 20
-28.2263
 30
0.000000
  70
    32
  0
VERTEX
  8
┌▓È_1
  5
A63
 10
1201.57
 20
-28.2661
 30
0.000000
  70
    32
  0
VERTEX
  8
┌▓È_1
  5
A64
 10
1201.55
 20
-28.3060
 30
0.000000
  70
    32
  0
VERTEX
  8
┌▓È_1
  5
A65
 10
1201.54
 20
-28.3458
 30
0.000000
  70
    32
  0
VERTEX
  8
┌▓È_1
  5
A66
 10
1201.53
 20
-28.3856
 30
0.000000
  70
    32
  0
VERTEX
  8
┌▓È_1
  5
A67
 10
1201.51
 20
-28.4255
 30
0.000000
  70
    32
  0
VERTEX
  8
┌▓È_1
  5
A68
 10
1201.50
 20
-28.4653
 30
0.000000
  70
    32
  0
VERTEX
  8
┌▓È_1
  5
A69
 10
1201.49
 20
-28.5051
 30
0.000000
  70
    32
  0
VERTEX
  8
┌▓È_1
  5
A6A
 10
1201.48
 20
-28.5450
 30
0.000000
  70
    32
  0
VERTEX
  8
┌▓È_1
  5
A6B
 10
1201.47
 20
-28.5848
 30
0.000000
  70
    32
  0
VERTEX
  8
┌▓È_1
  5
A6C
 10
1201.47
 20
-28.6247
 30
0.000000
  70
    32
  0
VERTEX
  8
┌▓È_1
  5
A6D
 10
1201.46
 20
-28.6645
 30
0.000000
  70
    32
  0
VERTEX
  8
┌▓È_1
  5
A6E
 10
1201.45
 20
-28.7043
 30
0.000000
  70
    32
  0
VERTEX
  8
┌▓È_1
  5
A6F
 10
1201.45
 20
-28.7442
 30
0.000000
  70
    32
  0
VERTEX
  8
┌▓È_1
  5
A70
 10
1201.45
 20
-28.7840
 30
0.000000
  70
    32
  0
VERTEX
  8
┌▓È_1
  5
A71
 10
1201.44
 20
-28.8238
 30
0.000000
  70
    32
  0
VERTEX
  8
┌▓È_1
  5
A72
 10
1201.44
 20
-28.8637
 30
0.000000
  70
    32
  0
VERTEX
  8
┌▓È_1
  5
A73
 10
1201.44
 20
-28.9035
 30
0.000000
  70
    32
  0
VERTEX
  8
┌▓È_1
  5
A74
 10
1201.44
 20
-28.9434
 30
0.000000
  70
    32
  0
VERTEX
  8
┌▓È_1
  5
A75
 10
1201.44
 20
-28.9832
 30
0.000000
  70
    32
  0
VERTEX
  8
┌▓È_1
  5
A76
 10
1201.44
 20
-29.0230
 30
0.000000
  70
    32
  0
VERTEX
  8
┌▓È_1
  5
A77
 10
1201.45
 20
-29.0629
 30
0.000000
  70
    32
  0
VERTEX
  8
┌▓È_1
  5
A78
 10
1201.45
 20
-29.1027
 30
0.000000
  70
    32
  0
VERTEX
  8
┌▓È_1
  5
A79
 10
1201.46
 20
-29.1425
 30
0.000000
  70
    32
  0
VERTEX
  8
┌▓È_1
  5
A7A
 10
1201.46
 20
-29.1824
 30
0.000000
  70
    32
  0
VERTEX
  8
┌▓È_1
  5
A7B
 10
1201.47
 20
-29.2222
 30
0.000000
  70
    32
  0
VERTEX
  8
┌▓È_1
  5
A7C
 10
1201.48
 20
-29.2620
 30
0.000000
  70
    32
  0
VERTEX
  8
┌▓È_1
  5
A7D
 10
1201.49
 20
-29.3019
 30
0.000000
  70
    32
  0
VERTEX
  8
┌▓È_1
  5
A7E
 10
1201.50
 20
-29.3417
 30
0.000000
  70
    32
  0
VERTEX
  8
┌▓È_1
  5
A7F
 10
1201.51
 20
-29.3816
 30
0.000000
  70
    32
  0
VERTEX
  8
┌▓È_1
  5
A80
 10
1201.52
 20
-29.4214
 30
0.000000
  70
    32
  0
VERTEX
  8
┌▓È_1
  5
A81
 10
1201.53
 20
-29.4612
 30
0.000000
  70
    32
  0
VERTEX
  8
┌▓È_1
  5
A82
 10
1201.54
 20
-29.5011
 30
0.000000
  70
    32
  0
VERTEX
  8
┌▓È_1
  5
A83
 10
1201.56
 20
-29.5409
 30
0.000000
  70
    32
  0
VERTEX
  8
┌▓È_1
  5
A84
 10
1201.57
 20
-29.5807
 30
0.000000
  70
    32
  0
VERTEX
  8
┌▓È_1
  5
A85
 10
1201.59
 20
-29.6206
 30
0.000000
  70
    32
  0
VERTEX
  8
┌▓È_1
  5
A86
 10
1201.60
 20
-29.6604
 30
0.000000
  70
    32
  0
VERTEX
  8
┌▓È_1
  5
A87
 10
1201.62
 20
-29.7003
 30
0.000000
  70
    32
  0
VERTEX
  8
┌▓È_1
  5
A88
 10
1201.64
 20
-29.7401
 30
0.000000
  70
    32
  0
VERTEX
  8
┌▓È_1
  5
A89
 10
1201.66
 20
-29.7799
 30
0.000000
  70
    32
  0
VERTEX
  8
┌▓È_1
  5
A8A
 10
1201.68
 20
-29.8198
 30
0.000000
  70
    32
  0
VERTEX
  8
┌▓È_1
  5
A8B
 10
1201.70
 20
-29.8596
 30
0.000000
  70
    32
  0
VERTEX
  8
┌▓È_1
  5
A8C
 10
1201.72
 20
-29.8994
 30
0.000000
  70
    32
  0
VERTEX
  8
┌▓È_1
  5
A8D
 10
1201.74
 20
-29.9393
 30
0.000000
  70
    32
  0
VERTEX
  8
┌▓È_1
  5
A8E
 10
1201.77
 20
-29.9791
 30
0.000000
  70
    32
  0
VERTEX
  8
┌▓È_1
  5
A8F
 10
1201.79
 20
-30.0190
 30
0.000000
  70
    32
  0
VERTEX
  8
┌▓È_1
  5
A90
 10
1201.82
 20
-30.0588
 30
0.000000
  70
    32
  0
VERTEX
  8
┌▓È_1
  5
A91
 10
1201.84
 20
-30.0986
 30
0.000000
  70
    32
  0
VERTEX
  8
┌▓È_1
  5
A92
 10
1201.87
 20
-30.1385
 30
0.000000
  70
    32
  0
VERTEX
  8
┌▓È_1
  5
A93
 10
1201.89
 20
-30.1783
 30
0.000000
  70
    32
  0
VERTEX
  8
┌▓È_1
  5
A94
 10
1201.92
 20
-30.2181
 30
0.000000
  70
    32
  0
VERTEX
  8
┌▓È_1
  5
A95
 10
1201.95
 20
-30.2580
 30
0.000000
  70
    32
  0
VERTEX
  8
┌▓È_1
  5
A96
 10
1201.98
 20
-30.2978
 30
0.000000
  70
    32
  0
VERTEX
  8
┌▓È_1
  5
A97
 10
1202.01
 20
-30.3376
 30
0.000000
  70
    32
  0
VERTEX
  8
┌▓È_1
  5
A98
 10
1202.04
 20
-30.3775
 30
0.000000
  70
    32
  0
VERTEX
  8
┌▓È_1
  5
A99
 10
1202.07
 20
-30.4173
 30
0.000000
  70
    32
  0
VERTEX
  8
┌▓È_1
  5
A9A
 10
1202.10
 20
-30.4572
 30
0.000000
  70
    32
  0
VERTEX
  8
┌▓È_1
  5
A9B
 10
1202.13
 20
-30.4970
 30
0.000000
  70
    32
  0
VERTEX
  8
┌▓È_1
  5
A9C
 10
1202.16
 20
-30.5368
 30
0.000000
  70
    32
  0
VERTEX
  8
┌▓È_1
  5
A9D
 10
1202.20
 20
-30.5767
 30
0.000000
  70
    32
  0
VERTEX
  8
┌▓È_1
  5
A9E
 10
1202.23
 20
-30.6165
 30
0.000000
  70
    32
  0
VERTEX
  8
┌▓È_1
  5
A9F
 10
1202.27
 20
-30.6563
 30
0.000000
  70
    32
  0
VERTEX
  8
┌▓È_1
  5
AA0
 10
1202.30
 20
-30.6962
 30
0.000000
  70
    32
  0
VERTEX
  8
┌▓È_1
  5
AA1
 10
1202.34
 20
-30.7360
 30
0.000000
  70
    32
  0
VERTEX
  8
┌▓È_1
  5
AA2
 10
1202.37
 20
-30.7759
 30
0.000000
  70
    32
  0
VERTEX
  8
┌▓È_1
  5
AA3
 10
1202.41
 20
-30.8157
 30
0.000000
  70
    32
  0
VERTEX
  8
┌▓È_1
  5
AA4
 10
1202.45
 20
-30.8555
 30
0.000000
  70
    32
  0
VERTEX
  8
┌▓È_1
  5
AA5
 10
1202.49
 20
-30.8954
 30
0.000000
  70
    32
  0
VERTEX
  8
┌▓È_1
  5
AA6
 10
1202.52
 20
-30.9352
 30
0.000000
  70
    32
  0
VERTEX
  8
┌▓È_1
  5
AA7
 10
1202.56
 20
-30.9750
 30
0.000000
  70
    32
  0
VERTEX
  8
┌▓È_1
  5
AA8
 10
1202.60
 20
-31.0149
 30
0.000000
  70
    32
  0
VERTEX
  8
┌▓È_1
  5
AA9
 10
1202.64
 20
-31.0547
 30
0.000000
  70
    32
  0
VERTEX
  8
┌▓È_1
  5
AAA
 10
1202.68
 20
-31.0946
 30
0.000000
  70
    32
  0
VERTEX
  8
┌▓È_1
  5
AAB
 10
1202.72
 20
-31.1344
 30
0.000000
  70
    32
  0
VERTEX
  8
┌▓È_1
  5
AAC
 10
1202.77
 20
-31.1742
 30
0.000000
  70
    32
  0
VERTEX
  8
┌▓È_1
  5
AAD
 10
1202.81
 20
-31.2141
 30
0.000000
  70
    32
  0
VERTEX
  8
┌▓È_1
  5
AAE
 10
1202.85
 20
-31.2539
 30
0.000000
  70
    32
  0
VERTEX
  8
┌▓È_1
  5
AAF
 10
1202.89
 20
-31.2937
 30
0.000000
  70
    32
  0
VERTEX
  8
┌▓È_1
  5
AB0
 10
1202.94
 20
-31.3336
 30
0.000000
  70
    32
  0
VERTEX
  8
┌▓È_1
  5
AB1
 10
1202.98
 20
-31.3734
 30
0.000000
  70
    32
  0
VERTEX
  8
┌▓È_1
  5
AB2
 10
1203.02
 20
-31.4132
 30
0.000000
  70
    32
  0
VERTEX
  8
┌▓È_1
  5
AB3
 10
1203.07
 20
-31.4531
 30
0.000000
  70
    32
  0
VERTEX
  8
┌▓È_1
  5
AB4
 10
1203.11
 20
-31.4929
 30
0.000000
  70
    32
  0
VERTEX
  8
┌▓È_1
  5
AB5
 10
1203.16
 20
-31.5328
 30
0.000000
  70
    32
  0
VERTEX
  8
┌▓È_1
  5
AB6
 10
1203.21
 20
-31.5726
 30
0.000000
  70
    32
  0
VERTEX
  8
┌▓È_1
  5
AB7
 10
1203.25
 20
-31.6124
 30
0.000000
  70
    32
  0
VERTEX
  8
┌▓È_1
  5
AB8
 10
1203.30
 20
-31.6523
 30
0.000000
  70
    32
  0
VERTEX
  8
┌▓È_1
  5
AB9
 10
1203.35
 20
-31.6921
 30
0.000000
  70
    32
  0
VERTEX
  8
┌▓È_1
  5
ABA
 10
1203.39
 20
-31.7319
 30
0.000000
  70
    32
  0
VERTEX
  8
┌▓È_1
  5
ABB
 10
1203.44
 20
-31.7718
 30
0.000000
  70
    32
  0
VERTEX
  8
┌▓È_1
  5
ABC
 10
1203.49
 20
-31.8116
 30
0.000000
  70
    32
  0
VERTEX
  8
┌▓È_1
  5
ABD
 10
1203.54
 20
-31.8515
 30
0.000000
  70
    32
  0
VERTEX
  8
┌▓È_1
  5
ABE
 10
1203.59
 20
-31.8913
 30
0.000000
  70
    32
  0
VERTEX
  8
┌▓È_1
  5
ABF
 10
1203.63
 20
-31.9311
 30
0.000000
  70
    32
  0
VERTEX
  8
┌▓È_1
  5
AC0
 10
1203.68
 20
-31.9710
 30
0.000000
  70
    32
  0
VERTEX
  8
┌▓È_1
  5
AC1
 10
1203.73
 20
-32.0108
 30
0.000000
  70
    32
  0
VERTEX
  8
┌▓È_1
  5
AC2
 10
1203.78
 20
-32.0506
 30
0.000000
  70
    32
  0
VERTEX
  8
┌▓È_1
  5
AC3
 10
1203.83
 20
-32.0905
 30
0.000000
  70
    32
  0
VERTEX
  8
┌▓È_1
  5
AC4
 10
1203.88
 20
-32.1303
 30
0.000000
  70
    32
  0
VERTEX
  8
┌▓È_1
  5
AC5
 10
1203.93
 20
-32.1702
 30
0.000000
  70
    32
  0
VERTEX
  8
┌▓È_1
  5
AC6
 10
1203.98
 20
-32.2100
 30
0.000000
  70
    32
  0
VERTEX
  8
┌▓È_1
  5
AC7
 10
1204.03
 20
-32.2498
 30
0.000000
  70
    32
  0
VERTEX
  8
┌▓È_1
  5
AC8
 10
1204.09
 20
-32.2897
 30
0.000000
  70
    32
  0
VERTEX
  8
┌▓È_1
  5
AC9
 10
1204.14
 20
-32.3295
 30
0.000000
  70
    32
  0
VERTEX
  8
┌▓È_1
  5
ACA
 10
1204.19
 20
-32.3693
 30
0.000000
  70
    32
  0
VERTEX
  8
┌▓È_1
  5
ACB
 10
1204.24
 20
-32.4092
 30
0.000000
  70
    32
  0
VERTEX
  8
┌▓È_1
  5
ACC
 10
1204.29
 20
-32.4490
 30
0.000000
  70
    32
  0
VERTEX
  8
┌▓È_1
  5
ACD
 10
1204.34
 20
-32.4888
 30
0.000000
  70
    32
  0
VERTEX
  8
┌▓È_1
  5
ACE
 10
1204.40
 20
-32.5287
 30
0.000000
  70
    32
  0
VERTEX
  8
┌▓È_1
  5
ACF
 10
1204.45
 20
-32.5685
 30
0.000000
  70
    32
  0
SEQEND
  8
┌▓È_1
  5
AD0
  0
POLYLINE
  8
┌▓È_1
  5
AD1
  62
5
  66
     1
 10
0.000000
 20
0.000000
 30
0.000000
  70
     8
  0
VERTEX
  8
┌▓È_1
  5
AD2
 10
1204.45
 20
-9.00459
 30
0.000000
  70
    32
  0
VERTEX
  8
┌▓È_1
  5
AD3
 10
1204.39
 20
-9.05050
 30
0.000000
  70
    32
  0
VERTEX
  8
┌▓È_1
  5
AD4
 10
1204.33
 20
-9.09641
 30
0.000000
  70
    32
  0
VERTEX
  8
┌▓È_1
  5
AD5
 10
1204.27
 20
-9.14233
 30
0.000000
  70
    32
  0
VERTEX
  8
┌▓È_1
  5
AD6
 10
1204.21
 20
-9.18824
 30
0.000000
  70
    32
  0
VERTEX
  8
┌▓È_1
  5
AD7
 10
1204.15
 20
-9.23416
 30
0.000000
  70
    32
  0
VERTEX
  8
┌▓È_1
  5
AD8
 10
1204.09
 20
-9.28007
 30
0.000000
  70
    32
  0
VERTEX
  8
┌▓È_1
  5
AD9
 10
1204.03
 20
-9.32599
 30
0.000000
  70
    32
  0
VERTEX
  8
┌▓È_1
  5
ADA
 10
1203.97
 20
-9.37190
 30
0.000000
  70
    32
  0
VERTEX
  8
┌▓È_1
  5
ADB
 10
1203.91
 20
-9.41782
 30
0.000000
  70
    32
  0
VERTEX
  8
┌▓È_1
  5
ADC
 10
1203.86
 20
-9.46373
 30
0.000000
  70
    32
  0
VERTEX
  8
┌▓È_1
  5
ADD
 10
1203.80
 20
-9.50965
 30
0.000000
  70
    32
  0
VERTEX
  8
┌▓È_1
  5
ADE
 10
1203.74
 20
-9.55556
 30
0.000000
  70
    32
  0
VERTEX
  8
┌▓È_1
  5
ADF
 10
1203.68
 20
-9.60148
 30
0.000000
  70
    32
  0
VERTEX
  8
┌▓È_1
  5
AE0
 10
1203.63
 20
-9.64739
 30
0.000000
  70
    32
  0
VERTEX
  8
┌▓È_1
  5
AE1
 10
1203.57
 20
-9.69331
 30
0.000000
  70
    32
  0
VERTEX
  8
┌▓È_1
  5
AE2
 10
1203.52
 20
-9.73922
 30
0.000000
  70
    32
  0
VERTEX
  8
┌▓È_1
  5
AE3
 10
1203.46
 20
-9.78514
 30
0.000000
  70
    32
  0
VERTEX
  8
┌▓È_1
  5
AE4
 10
1203.40
 20
-9.83105
 30
0.000000
  70
    32
  0
VERTEX
  8
┌▓È_1
  5
AE5
 10
1203.35
 20
-9.87697
 30
0.000000
  70
    32
  0
VERTEX
  8
┌▓È_1
  5
AE6
 10
1203.30
 20
-9.92288
 30
0.000000
  70
    32
  0
VERTEX
  8
┌▓È_1
  5
AE7
 10
1203.24
 20
-9.96880
 30
0.000000
  70
    32
  0
VERTEX
  8
┌▓È_1
  5
AE8
 10
1203.19
 20
-10.0147
 30
0.000000
  70
    32
  0
VERTEX
  8
┌▓È_1
  5
AE9
 10
1203.14
 20
-10.0606
 30
0.000000
  70
    32
  0
VERTEX
  8
┌▓È_1
  5
AEA
 10
1203.08
 20
-10.1065
 30
0.000000
  70
    32
  0
VERTEX
  8
┌▓È_1
  5
AEB
 10
1203.03
 20
-10.1525
 30
0.000000
  70
    32
  0
VERTEX
  8
┌▓È_1
  5
AEC
 10
1202.98
 20
-10.1984
 30
0.000000
  70
    32
  0
VERTEX
  8
┌▓È_1
  5
AED
 10
1202.93
 20
-10.2443
 30
0.000000
  70
    32
  0
VERTEX
  8
┌▓È_1
  5
AEE
 10
1202.88
 20
-10.2902
 30
0.000000
  70
    32
  0
VERTEX
  8
┌▓È_1
  5
AEF
 10
1202.83
 20
-10.3361
 30
0.000000
  70
    32
  0
VERTEX
  8
┌▓È_1
  5
AF0
 10
1202.78
 20
-10.3820
 30
0.000000
  70
    32
  0
VERTEX
  8
┌▓È_1
  5
AF1
 10
1202.74
 20
-10.4279
 30
0.000000
  70
    32
  0
VERTEX
  8
┌▓È_1
  5
AF2
 10
1202.69
 20
-10.4739
 30
0.000000
  70
    32
  0
VERTEX
  8
┌▓È_1
  5
AF3
 10
1202.64
 20
-10.5198
 30
0.000000
  70
    32
  0
VERTEX
  8
┌▓È_1
  5
AF4
 10
1202.60
 20
-10.5657
 30
0.000000
  70
    32
  0
VERTEX
  8
┌▓È_1
  5
AF5
 10
1202.55
 20
-10.6116
 30
0.000000
  70
    32
  0
VERTEX
  8
┌▓È_1
  5
AF6
 10
1202.51
 20
-10.6575
 30
0.000000
  70
    32
  0
VERTEX
  8
┌▓È_1
  5
AF7
 10
1202.46
 20
-10.7034
 30
0.000000
  70
    32
  0
VERTEX
  8
┌▓È_1
  5
AF8
 10
1202.42
 20
-10.7494
 30
0.000000
  70
    32
  0
VERTEX
  8
┌▓È_1
  5
AF9
 10
1202.38
 20
-10.7953
 30
0.000000
  70
    32
  0
VERTEX
  8
┌▓È_1
  5
AFA
 10
1202.33
 20
-10.8412
 30
0.000000
  70
    32
  0
VERTEX
  8
┌▓È_1
  5
AFB
 10
1202.29
 20
-10.8871
 30
0.000000
  70
    32
  0
VERTEX
  8
┌▓È_1
  5
AFC
 10
1202.25
 20
-10.9330
 30
0.000000
  70
    32
  0
VERTEX
  8
┌▓È_1
  5
AFD
 10
1202.21
 20
-10.9789
 30
0.000000
  70
    32
  0
VERTEX
  8
┌▓È_1
  5
AFE
 10
1202.17
 20
-11.0248
 30
0.000000
  70
    32
  0
VERTEX
  8
┌▓È_1
  5
AFF
 10
1202.14
 20
-11.0708
 30
0.000000
  70
    32
  0
VERTEX
  8
┌▓È_1
  5
B00
 10
1202.10
 20
-11.1167
 30
0.000000
  70
    32
  0
VERTEX
  8
┌▓È_1
  5
B01
 10
1202.06
 20
-11.1626
 30
0.000000
  70
    32
  0
VERTEX
  8
┌▓È_1
  5
B02
 10
1202.03
 20
-11.2085
 30
0.000000
  70
    32
  0
VERTEX
  8
┌▓È_1
  5
B03
 10
1201.99
 20
-11.2544
 30
0.000000
  70
    32
  0
VERTEX
  8
┌▓È_1
  5
B04
 10
1201.96
 20
-11.3003
 30
0.000000
  70
    32
  0
VERTEX
  8
┌▓È_1
  5
B05
 10
1201.93
 20
-11.3462
 30
0.000000
  70
    32
  0
VERTEX
  8
┌▓È_1
  5
B06
 10
1201.89
 20
-11.3922
 30
0.000000
  70
    32
  0
VERTEX
  8
┌▓È_1
  5
B07
 10
1201.86
 20
-11.4381
 30
0.000000
  70
    32
  0
VERTEX
  8
┌▓È_1
  5
B08
 10
1201.83
 20
-11.4840
 30
0.000000
  70
    32
  0
VERTEX
  8
┌▓È_1
  5
B09
 10
1201.81
 20
-11.5299
 30
0.000000
  70
    32
  0
VERTEX
  8
┌▓È_1
  5
B0A
 10
1201.78
 20
-11.5758
 30
0.000000
  70
    32
  0
VERTEX
  8
┌▓È_1
  5
B0B
 10
1201.75
 20
-11.6217
 30
0.000000
  70
    32
  0
VERTEX
  8
┌▓È_1
  5
B0C
 10
1201.72
 20
-11.6677
 30
0.000000
  70
    32
  0
VERTEX
  8
┌▓È_1
  5
B0D
 10
1201.70
 20
-11.7136
 30
0.000000
  70
    32
  0
VERTEX
  8
┌▓È_1
  5
B0E
 10
1201.68
 20
-11.7595
 30
0.000000
  70
    32
  0
VERTEX
  8
┌▓È_1
  5
B0F
 10
1201.65
 20
-11.8054
 30
0.000000
  70
    32
  0
VERTEX
  8
┌▓È_1
  5
B10
 10
1201.63
 20
-11.8513
 30
0.000000
  70
    32
  0
VERTEX
  8
┌▓È_1
  5
B11
 10
1201.61
 20
-11.8972
 30
0.000000
  70
    32
  0
VERTEX
  8
┌▓È_1
  5
B12
 10
1201.59
 20
-11.9431
 30
0.000000
  70
    32
  0
VERTEX
  8
┌▓È_1
  5
B13
 10
1201.57
 20
-11.9891
 30
0.000000
  70
    32
  0
VERTEX
  8
┌▓È_1
  5
B14
 10
1201.56
 20
-12.0350
 30
0.000000
  70
    32
  0
VERTEX
  8
┌▓È_1
  5
B15
 10
1201.54
 20
-12.0809
 30
0.000000
  70
    32
  0
VERTEX
  8
┌▓È_1
  5
B16
 10
1201.52
 20
-12.1268
 30
0.000000
  70
    32
  0
VERTEX
  8
┌▓È_1
  5
B17
 10
1201.51
 20
-12.1727
 30
0.000000
  70
    32
  0
VERTEX
  8
┌▓È_1
  5
B18
 10
1201.50
 20
-12.2186
 30
0.000000
  70
    32
  0
VERTEX
  8
┌▓È_1
  5
B19
 10
1201.49
 20
-12.2645
 30
0.000000
  70
    32
  0
VERTEX
  8
┌▓È_1
  5
B1A
 10
1201.48
 20
-12.3105
 30
0.000000
  70
    32
  0
VERTEX
  8
┌▓È_1
  5
B1B
 10
1201.47
 20
-12.3564
 30
0.000000
  70
    32
  0
VERTEX
  8
┌▓È_1
  5
B1C
 10
1201.46
 20
-12.4023
 30
0.000000
  70
    32
  0
VERTEX
  8
┌▓È_1
  5
B1D
 10
1201.45
 20
-12.4482
 30
0.000000
  70
    32
  0
VERTEX
  8
┌▓È_1
  5
B1E
 10
1201.45
 20
-12.4941
 30
0.000000
  70
    32
  0
VERTEX
  8
┌▓È_1
  5
B1F
 10
1201.44
 20
-12.5400
 30
0.000000
  70
    32
  0
VERTEX
  8
┌▓È_1
  5
B20
 10
1201.44
 20
-12.5860
 30
0.000000
  70
    32
  0
VERTEX
  8
┌▓È_1
  5
B21
 10
1201.44
 20
-12.6319
 30
0.000000
  70
    32
  0
VERTEX
  8
┌▓È_1
  5
B22
 10
1201.44
 20
-12.6778
 30
0.000000
  70
    32
  0
VERTEX
  8
┌▓È_1
  5
B23
 10
1201.44
 20
-12.7237
 30
0.000000
  70
    32
  0
VERTEX
  8
┌▓È_1
  5
B24
 10
1201.44
 20
-12.7696
 30
0.000000
  70
    32
  0
VERTEX
  8
┌▓È_1
  5
B25
 10
1201.45
 20
-12.8155
 30
0.000000
  70
    32
  0
VERTEX
  8
┌▓È_1
  5
B26
 10
1201.45
 20
-12.8614
 30
0.000000
  70
    32
  0
VERTEX
  8
┌▓È_1
  5
B27
 10
1201.46
 20
-12.9074
 30
0.000000
  70
    32
  0
VERTEX
  8
┌▓È_1
  5
B28
 10
1201.47
 20
-12.9533
 30
0.000000
  70
    32
  0
VERTEX
  8
┌▓È_1
  5
B29
 10
1201.48
 20
-12.9992
 30
0.000000
  70
    32
  0
VERTEX
  8
┌▓È_1
  5
B2A
 10
1201.49
 20
-13.0451
 30
0.000000
  70
    32
  0
VERTEX
  8
┌▓È_1
  5
B2B
 10
1201.50
 20
-13.0910
 30
0.000000
  70
    32
  0
VERTEX
  8
┌▓È_1
  5
B2C
 10
1201.51
 20
-13.1369
 30
0.000000
  70
    32
  0
VERTEX
  8
┌▓È_1
  5
B2D
 10
1201.52
 20
-13.1828
 30
0.000000
  70
    32
  0
VERTEX
  8
┌▓È_1
  5
B2E
 10
1201.54
 20
-13.2288
 30
0.000000
  70
    32
  0
VERTEX
  8
┌▓È_1
  5
B2F
 10
1201.56
 20
-13.2747
 30
0.000000
  70
    32
  0
VERTEX
  8
┌▓È_1
  5
B30
 10
1201.57
 20
-13.3206
 30
0.000000
  70
    32
  0
VERTEX
  8
┌▓È_1
  5
B31
 10
1201.59
 20
-13.3665
 30
0.000000
  70
    32
  0
VERTEX
  8
┌▓È_1
  5
B32
 10
1201.61
 20
-13.4124
 30
0.000000
  70
    32
  0
VERTEX
  8
┌▓È_1
  5
B33
 10
1201.63
 20
-13.4583
 30
0.000000
  70
    32
  0
VERTEX
  8
┌▓È_1
  5
B34
 10
1201.65
 20
-13.5043
 30
0.000000
  70
    32
  0
VERTEX
  8
┌▓È_1
  5
B35
 10
1201.68
 20
-13.5502
 30
0.000000
  70
    32
  0
VERTEX
  8
┌▓È_1
  5
B36
 10
1201.70
 20
-13.5961
 30
0.000000
  70
    32
  0
VERTEX
  8
┌▓È_1
  5
B37
 10
1201.72
 20
-13.6420
 30
0.000000
  70
    32
  0
VERTEX
  8
┌▓È_1
  5
B38
 10
1201.75
 20
-13.6879
 30
0.000000
  70
    32
  0
VERTEX
  8
┌▓È_1
  5
B39
 10
1201.78
 20
-13.7338
 30
0.000000
  70
    32
  0
VERTEX
  8
┌▓È_1
  5
B3A
 10
1201.81
 20
-13.7797
 30
0.000000
  70
    32
  0
VERTEX
  8
┌▓È_1
  5
B3B
 10
1201.83
 20
-13.8257
 30
0.000000
  70
    32
  0
VERTEX
  8
┌▓È_1
  5
B3C
 10
1201.86
 20
-13.8716
 30
0.000000
  70
    32
  0
VERTEX
  8
┌▓È_1
  5
B3D
 10
1201.89
 20
-13.9175
 30
0.000000
  70
    32
  0
VERTEX
  8
┌▓È_1
  5
B3E
 10
1201.93
 20
-13.9634
 30
0.000000
  70
    32
  0
VERTEX
  8
┌▓È_1
  5
B3F
 10
1201.96
 20
-14.0093
 30
0.000000
  70
    32
  0
VERTEX
  8
┌▓È_1
  5
B40
 10
1201.99
 20
-14.0552
 30
0.000000
  70
    32
  0
VERTEX
  8
┌▓È_1
  5
B41
 10
1202.03
 20
-14.1011
 30
0.000000
  70
    32
  0
VERTEX
  8
┌▓È_1
  5
B42
 10
1202.06
 20
-14.1471
 30
0.000000
  70
    32
  0
VERTEX
  8
┌▓È_1
  5
B43
 10
1202.10
 20
-14.1930
 30
0.000000
  70
    32
  0
VERTEX
  8
┌▓È_1
  5
B44
 10
1202.14
 20
-14.2389
 30
0.000000
  70
    32
  0
VERTEX
  8
┌▓È_1
  5
B45
 10
1202.17
 20
-14.2848
 30
0.000000
  70
    32
  0
VERTEX
  8
┌▓È_1
  5
B46
 10
1202.21
 20
-14.3307
 30
0.000000
  70
    32
  0
VERTEX
  8
┌▓È_1
  5
B47
 10
1202.25
 20
-14.3766
 30
0.000000
  70
    32
  0
VERTEX
  8
┌▓È_1
  5
B48
 10
1202.29
 20
-14.4226
 30
0.000000
  70
    32
  0
VERTEX
  8
┌▓È_1
  5
B49
 10
1202.33
 20
-14.4685
 30
0.000000
  70
    32
  0
VERTEX
  8
┌▓È_1
  5
B4A
 10
1202.38
 20
-14.5144
 30
0.000000
  70
    32
  0
VERTEX
  8
┌▓È_1
  5
B4B
 10
1202.42
 20
-14.5603
 30
0.000000
  70
    32
  0
VERTEX
  8
┌▓È_1
  5
B4C
 10
1202.46
 20
-14.6062
 30
0.000000
  70
    32
  0
VERTEX
  8
┌▓È_1
  5
B4D
 10
1202.51
 20
-14.6521
 30
0.000000
  70
    32
  0
VERTEX
  8
┌▓È_1
  5
B4E
 10
1202.55
 20
-14.6980
 30
0.000000
  70
    32
  0
VERTEX
  8
┌▓È_1
  5
B4F
 10
1202.60
 20
-14.7440
 30
0.000000
  70
    32
  0
VERTEX
  8
┌▓È_1
  5
B50
 10
1202.64
 20
-14.7899
 30
0.000000
  70
    32
  0
VERTEX
  8
┌▓È_1
  5
B51
 10
1202.69
 20
-14.8358
 30
0.000000
  70
    32
  0
VERTEX
  8
┌▓È_1
  5
B52
 10
1202.74
 20
-14.8817
 30
0.000000
  70
    32
  0
VERTEX
  8
┌▓È_1
  5
B53
 10
1202.78
 20
-14.9276
 30
0.000000
  70
    32
  0
VERTEX
  8
┌▓È_1
  5
B54
 10
1202.83
 20
-14.9735
 30
0.000000
  70
    32
  0
VERTEX
  8
┌▓È_1
  5
B55
 10
1202.88
 20
-15.0194
 30
0.000000
  70
    32
  0
VERTEX
  8
┌▓È_1
  5
B56
 10
1202.93
 20
-15.0654
 30
0.000000
  70
    32
  0
VERTEX
  8
┌▓È_1
  5
B57
 10
1202.98
 20
-15.1113
 30
0.000000
  70
    32
  0
VERTEX
  8
┌▓È_1
  5
B58
 10
1203.03
 20
-15.1572
 30
0.000000
  70
    32
  0
VERTEX
  8
┌▓È_1
  5
B59
 10
1203.08
 20
-15.2031
 30
0.000000
  70
    32
  0
VERTEX
  8
┌▓È_1
  5
B5A
 10
1203.14
 20
-15.2490
 30
0.000000
  70
    32
  0
VERTEX
  8
┌▓È_1
  5
B5B
 10
1203.19
 20
-15.2949
 30
0.000000
  70
    32
  0
VERTEX
  8
┌▓È_1
  5
B5C
 10
1203.24
 20
-15.3409
 30
0.000000
  70
    32
  0
VERTEX
  8
┌▓È_1
  5
B5D
 10
1203.30
 20
-15.3868
 30
0.000000
  70
    32
  0
VERTEX
  8
┌▓È_1
  5
B5E
 10
1203.35
 20
-15.4327
 30
0.000000
  70
    32
  0
VERTEX
  8
┌▓È_1
  5
B5F
 10
1203.40
 20
-15.4786
 30
0.000000
  70
    32
  0
VERTEX
  8
┌▓È_1
  5
B60
 10
1203.46
 20
-15.5245
 30
0.000000
  70
    32
  0
VERTEX
  8
┌▓È_1
  5
B61
 10
1203.52
 20
-15.5704
 30
0.000000
  70
    32
  0
VERTEX
  8
┌▓È_1
  5
B62
 10
1203.57
 20
-15.6163
 30
0.000000
  70
    32
  0
VERTEX
  8
┌▓È_1
  5
B63
 10
1203.63
 20
-15.6623
 30
0.000000
  70
    32
  0
VERTEX
  8
┌▓È_1
  5
B64
 10
1203.68
 20
-15.7082
 30
0.000000
  70
    32
  0
VERTEX
  8
┌▓È_1
  5
B65
 10
1203.74
 20
-15.7541
 30
0.000000
  70
    32
  0
VERTEX
  8
┌▓È_1
  5
B66
 10
1203.80
 20
-15.8000
 30
0.000000
  70
    32
  0
VERTEX
  8
┌▓È_1
  5
B67
 10
1203.86
 20
-15.8459
 30
0.000000
  70
    32
  0
VERTEX
  8
┌▓È_1
  5
B68
 10
1203.91
 20
-15.8918
 30
0.000000
  70
    32
  0
VERTEX
  8
┌▓È_1
  5
B69
 10
1203.97
 20
-15.9377
 30
0.000000
  70
    32
  0
VERTEX
  8
┌▓È_1
  5
B6A
 10
1204.03
 20
-15.9837
 30
0.000000
  70
    32
  0
VERTEX
  8
┌▓È_1
  5
B6B
 10
1204.09
 20
-16.0296
 30
0.000000
  70
    32
  0
VERTEX
  8
┌▓È_1
  5
B6C
 10
1204.15
 20
-16.0755
 30
0.000000
  70
    32
  0
VERTEX
  8
┌▓È_1
  5
B6D
 10
1204.21
 20
-16.1214
 30
0.000000
  70
    32
  0
VERTEX
  8
┌▓È_1
  5
B6E
 10
1204.27
 20
-16.1673
 30
0.000000
  70
    32
  0
VERTEX
  8
┌▓È_1
  5
B6F
 10
1204.33
 20
-16.2132
 30
0.000000
  70
    32
  0
VERTEX
  8
┌▓È_1
  5
B70
 10
1204.39
 20
-16.2592
 30
0.000000
  70
    32
  0
VERTEX
  8
┌▓È_1
  5
B71
 10
1204.45
 20
-16.3051
 30
0.000000
  70
    32
  0
SEQEND
  8
┌▓È_1
  5
B72
  0
POLYLINE
  8
┌▓È_1
  5
B73
  62
5
  66
     1
 10
0.000000
 20
0.000000
 30
0.000000
  70
     8
  0
VERTEX
  8
┌▓È_1
  5
B74
 10
1201.44
 20
-15.8368
 30
0.000000
  70
    32
  0
VERTEX
  8
┌▓È_1
  5
B75
 10
1201.44
 20
-15.8598
 30
0.000000
  70
    32
  0
VERTEX
  8
┌▓È_1
  5
B76
 10
1201.44
 20
-15.8827
 30
0.000000
  70
    32
  0
VERTEX
  8
┌▓È_1
  5
B77
 10
1201.44
 20
-15.9057
 30
0.000000
  70
    32
  0
VERTEX
  8
┌▓È_1
  5
B78
 10
1201.44
 20
-15.9286
 30
0.000000
  70
    32
  0
VERTEX
  8
┌▓È_1
  5
B79
 10
1201.44
 20
-15.9516
 30
0.000000
  70
    32
  0
VERTEX
  8
┌▓È_1
  5
B7A
 10
1201.45
 20
-15.9746
 30
0.000000
  70
    32
  0
VERTEX
  8
┌▓È_1
  5
B7B
 10
1201.45
 20
-15.9975
 30
0.000000
  70
    32
  0
VERTEX
  8
┌▓È_1
  5
B7C
 10
1201.45
 20
-16.0205
 30
0.000000
  70
    32
  0
VERTEX
  8
┌▓È_1
  5
B7D
 10
1201.45
 20
-16.0434
 30
0.000000
  70
    32
  0
VERTEX
  8
┌▓È_1
  5
B7E
 10
1201.46
 20
-16.0664
 30
0.000000
  70
    32
  0
VERTEX
  8
┌▓È_1
  5
B7F
 10
1201.46
 20
-16.0893
 30
0.000000
  70
    32
  0
VERTEX
  8
┌▓È_1
  5
B80
 10
1201.46
 20
-16.1123
 30
0.000000
  70
    32
  0
VERTEX
  8
┌▓È_1
  5
B81
 10
1201.47
 20
-16.1353
 30
0.000000
  70
    32
  0
VERTEX
  8
┌▓È_1
  5
B82
 10
1201.47
 20
-16.1582
 30
0.000000
  70
    32
  0
VERTEX
  8
┌▓È_1
  5
B83
 10
1201.48
 20
-16.1812
 30
0.000000
  70
    32
  0
VERTEX
  8
┌▓È_1
  5
B84
 10
1201.48
 20
-16.2041
 30
0.000000
  70
    32
  0
VERTEX
  8
┌▓È_1
  5
B85
 10
1201.49
 20
-16.2271
 30
0.000000
  70
    32
  0
VERTEX
  8
┌▓È_1
  5
B86
 10
1201.49
 20
-16.2500
 30
0.000000
  70
    32
  0
VERTEX
  8
┌▓È_1
  5
B87
 10
1201.50
 20
-16.2730
 30
0.000000
  70
    32
  0
VERTEX
  8
┌▓È_1
  5
B88
 10
1201.50
 20
-16.2960
 30
0.000000
  70
    32
  0
VERTEX
  8
┌▓È_1
  5
B89
 10
1201.51
 20
-16.3189
 30
0.000000
  70
    32
  0
VERTEX
  8
┌▓È_1
  5
B8A
 10
1201.52
 20
-16.3419
 30
0.000000
  70
    32
  0
VERTEX
  8
┌▓È_1
  5
B8B
 10
1201.52
 20
-16.3648
 30
0.000000
  70
    32
  0
VERTEX
  8
┌▓È_1
  5
B8C
 10
1201.53
 20
-16.3878
 30
0.000000
  70
    32
  0
VERTEX
  8
┌▓È_1
  5
B8D
 10
1201.54
 20
-16.4107
 30
0.000000
  70
    32
  0
VERTEX
  8
┌▓È_1
  5
B8E
 10
1201.55
 20
-16.4337
 30
0.000000
  70
    32
  0
VERTEX
  8
┌▓È_1
  5
B8F
 10
1201.56
 20
-16.4567
 30
0.000000
  70
    32
  0
VERTEX
  8
┌▓È_1
  5
B90
 10
1201.56
 20
-16.4796
 30
0.000000
  70
    32
  0
VERTEX
  8
┌▓È_1
  5
B91
 10
1201.57
 20
-16.5026
 30
0.000000
  70
    32
  0
VERTEX
  8
┌▓È_1
  5
B92
 10
1201.58
 20
-16.5255
 30
0.000000
  70
    32
  0
VERTEX
  8
┌▓È_1
  5
B93
 10
1201.59
 20
-16.5485
 30
0.000000
  70
    32
  0
VERTEX
  8
┌▓È_1
  5
B94
 10
1201.60
 20
-16.5714
 30
0.000000
  70
    32
  0
VERTEX
  8
┌▓È_1
  5
B95
 10
1201.61
 20
-16.5944
 30
0.000000
  70
    32
  0
VERTEX
  8
┌▓È_1
  5
B96
 10
1201.62
 20
-16.6174
 30
0.000000
  70
    32
  0
VERTEX
  8
┌▓È_1
  5
B97
 10
1201.63
 20
-16.6403
 30
0.000000
  70
    32
  0
VERTEX
  8
┌▓È_1
  5
B98
 10
1201.64
 20
-16.6633
 30
0.000000
  70
    32
  0
VERTEX
  8
┌▓È_1
  5
B99
 10
1201.65
 20
-16.6862
 30
0.000000
  70
    32
  0
VERTEX
  8
┌▓È_1
  5
B9A
 10
1201.66
 20
-16.7092
 30
0.000000
  70
    32
  0
VERTEX
  8
┌▓È_1
  5
B9B
 10
1201.68
 20
-16.7322
 30
0.000000
  70
    32
  0
VERTEX
  8
┌▓È_1
  5
B9C
 10
1201.69
 20
-16.7551
 30
0.000000
  70
    32
  0
VERTEX
  8
┌▓È_1
  5
B9D
 10
1201.70
 20
-16.7781
 30
0.000000
  70
    32
  0
VERTEX
  8
┌▓È_1
  5
B9E
 10
1201.71
 20
-16.8010
 30
0.000000
  70
    32
  0
VERTEX
  8
┌▓È_1
  5
B9F
 10
1201.72
 20
-16.8240
 30
0.000000
  70
    32
  0
VERTEX
  8
┌▓È_1
  5
BA0
 10
1201.74
 20
-16.8469
 30
0.000000
  70
    32
  0
VERTEX
  8
┌▓È_1
  5
BA1
 10
1201.75
 20
-16.8699
 30
0.000000
  70
    32
  0
VERTEX
  8
┌▓È_1
  5
BA2
 10
1201.76
 20
-16.8929
 30
0.000000
  70
    32
  0
VERTEX
  8
┌▓È_1
  5
BA3
 10
1201.78
 20
-16.9158
 30
0.000000
  70
    32
  0
VERTEX
  8
┌▓È_1
  5
BA4
 10
1201.79
 20
-16.9388
 30
0.000000
  70
    32
  0
VERTEX
  8
┌▓È_1
  5
BA5
 10
1201.81
 20
-16.9617
 30
0.000000
  70
    32
  0
VERTEX
  8
┌▓È_1
  5
BA6
 10
1201.82
 20
-16.9847
 30
0.000000
  70
    32
  0
VERTEX
  8
┌▓È_1
  5
BA7
 10
1201.83
 20
-17.0076
 30
0.000000
  70
    32
  0
VERTEX
  8
┌▓È_1
  5
BA8
 10
1201.85
 20
-17.0306
 30
0.000000
  70
    32
  0
VERTEX
  8
┌▓È_1
  5
BA9
 10
1201.86
 20
-17.0536
 30
0.000000
  70
    32
  0
VERTEX
  8
┌▓È_1
  5
BAA
 10
1201.88
 20
-17.0765
 30
0.000000
  70
    32
  0
VERTEX
  8
┌▓È_1
  5
BAB
 10
1201.89
 20
-17.0995
 30
0.000000
  70
    32
  0
VERTEX
  8
┌▓È_1
  5
BAC
 10
1201.91
 20
-17.1224
 30
0.000000
  70
    32
  0
VERTEX
  8
┌▓È_1
  5
BAD
 10
1201.93
 20
-17.1454
 30
0.000000
  70
    32
  0
VERTEX
  8
┌▓È_1
  5
BAE
 10
1201.94
 20
-17.1683
 30
0.000000
  70
    32
  0
VERTEX
  8
┌▓È_1
  5
BAF
 10
1201.96
 20
-17.1913
 30
0.000000
  70
    32
  0
VERTEX
  8
┌▓È_1
  5
BB0
 10
1201.98
 20
-17.2143
 30
0.000000
  70
    32
  0
VERTEX
  8
┌▓È_1
  5
BB1
 10
1201.99
 20
-17.2372
 30
0.000000
  70
    32
  0
VERTEX
  8
┌▓È_1
  5
BB2
 10
1202.01
 20
-17.2602
 30
0.000000
  70
    32
  0
VERTEX
  8
┌▓È_1
  5
BB3
 10
1202.03
 20
-17.2831
 30
0.000000
  70
    32
  0
VERTEX
  8
┌▓È_1
  5
BB4
 10
1202.04
 20
-17.3061
 30
0.000000
  70
    32
  0
VERTEX
  8
┌▓È_1
  5
BB5
 10
1202.06
 20
-17.3290
 30
0.000000
  70
    32
  0
VERTEX
  8
┌▓È_1
  5
BB6
 10
1202.08
 20
-17.3520
 30
0.000000
  70
    32
  0
VERTEX
  8
┌▓È_1
  5
BB7
 10
1202.10
 20
-17.3750
 30
0.000000
  70
    32
  0
VERTEX
  8
┌▓È_1
  5
BB8
 10
1202.12
 20
-17.3979
 30
0.000000
  70
    32
  0
VERTEX
  8
┌▓È_1
  5
BB9
 10
1202.14
 20
-17.4209
 30
0.000000
  70
    32
  0
VERTEX
  8
┌▓È_1
  5
BBA
 10
1202.15
 20
-17.4438
 30
0.000000
  70
    32
  0
VERTEX
  8
┌▓È_1
  5
BBB
 10
1202.17
 20
-17.4668
 30
0.000000
  70
    32
  0
VERTEX
  8
┌▓È_1
  5
BBC
 10
1202.19
 20
-17.4897
 30
0.000000
  70
    32
  0
VERTEX
  8
┌▓È_1
  5
BBD
 10
1202.21
 20
-17.5127
 30
0.000000
  70
    32
  0
VERTEX
  8
┌▓È_1
  5
BBE
 10
1202.23
 20
-17.5357
 30
0.000000
  70
    32
  0
VERTEX
  8
┌▓È_1
  5
BBF
 10
1202.25
 20
-17.5586
 30
0.000000
  70
    32
  0
VERTEX
  8
┌▓È_1
  5
BC0
 10
1202.27
 20
-17.5816
 30
0.000000
  70
    32
  0
VERTEX
  8
┌▓È_1
  5
BC1
 10
1202.29
 20
-17.6045
 30
0.000000
  70
    32
  0
VERTEX
  8
┌▓È_1
  5
BC2
 10
1202.31
 20
-17.6275
 30
0.000000
  70
    32
  0
VERTEX
  8
┌▓È_1
  5
BC3
 10
1202.33
 20
-17.6505
 30
0.000000
  70
    32
  0
VERTEX
  8
┌▓È_1
  5
BC4
 10
1202.35
 20
-17.6734
 30
0.000000
  70
    32
  0
VERTEX
  8
┌▓È_1
  5
BC5
 10
1202.38
 20
-17.6964
 30
0.000000
  70
    32
  0
VERTEX
  8
┌▓È_1
  5
BC6
 10
1202.40
 20
-17.7193
 30
0.000000
  70
    32
  0
VERTEX
  8
┌▓È_1
  5
BC7
 10
1202.42
 20
-17.7423
 30
0.000000
  70
    32
  0
VERTEX
  8
┌▓È_1
  5
BC8
 10
1202.44
 20
-17.7652
 30
0.000000
  70
    32
  0
VERTEX
  8
┌▓È_1
  5
BC9
 10
1202.46
 20
-17.7882
 30
0.000000
  70
    32
  0
VERTEX
  8
┌▓È_1
  5
BCA
 10
1202.48
 20
-17.8112
 30
0.000000
  70
    32
  0
VERTEX
  8
┌▓È_1
  5
BCB
 10
1202.51
 20
-17.8341
 30
0.000000
  70
    32
  0
VERTEX
  8
┌▓È_1
  5
BCC
 10
1202.53
 20
-17.8571
 30
0.000000
  70
    32
  0
VERTEX
  8
┌▓È_1
  5
BCD
 10
1202.55
 20
-17.8800
 30
0.000000
  70
    32
  0
VERTEX
  8
┌▓È_1
  5
BCE
 10
1202.57
 20
-17.9030
 30
0.000000
  70
    32
  0
VERTEX
  8
┌▓È_1
  5
BCF
 10
1202.60
 20
-17.9259
 30
0.000000
  70
    32
  0
VERTEX
  8
┌▓È_1
  5
BD0
 10
1202.62
 20
-17.9489
 30
0.000000
  70
    32
  0
VERTEX
  8
┌▓È_1
  5
BD1
 10
1202.64
 20
-17.9719
 30
0.000000
  70
    32
  0
VERTEX
  8
┌▓È_1
  5
BD2
 10
1202.66
 20
-17.9948
 30
0.000000
  70
    32
  0
VERTEX
  8
┌▓È_1
  5
BD3
 10
1202.69
 20
-18.0178
 30
0.000000
  70
    32
  0
VERTEX
  8
┌▓È_1
  5
BD4
 10
1202.71
 20
-18.0407
 30
0.000000
  70
    32
  0
VERTEX
  8
┌▓È_1
  5
BD5
 10
1202.74
 20
-18.0637
 30
0.000000
  70
    32
  0
VERTEX
  8
┌▓È_1
  5
BD6
 10
1202.76
 20
-18.0866
 30
0.000000
  70
    32
  0
VERTEX
  8
┌▓È_1
  5
BD7
 10
1202.78
 20
-18.1096
 30
0.000000
  70
    32
  0
VERTEX
  8
┌▓È_1
  5
BD8
 10
1202.81
 20
-18.1326
 30
0.000000
  70
    32
  0
VERTEX
  8
┌▓È_1
  5
BD9
 10
1202.83
 20
-18.1555
 30
0.000000
  70
    32
  0
VERTEX
  8
┌▓È_1
  5
BDA
 10
1202.86
 20
-18.1785
 30
0.000000
  70
    32
  0
VERTEX
  8
┌▓È_1
  5
BDB
 10
1202.88
 20
-18.2014
 30
0.000000
  70
    32
  0
VERTEX
  8
┌▓È_1
  5
BDC
 10
1202.91
 20
-18.2244
 30
0.000000
  70
    32
  0
VERTEX
  8
┌▓È_1
  5
BDD
 10
1202.93
 20
-18.2473
 30
0.000000
  70
    32
  0
VERTEX
  8
┌▓È_1
  5
BDE
 10
1202.96
 20
-18.2703
 30
0.000000
  70
    32
  0
VERTEX
  8
┌▓È_1
  5
BDF
 10
1202.98
 20
-18.2933
 30
0.000000
  70
    32
  0
VERTEX
  8
┌▓È_1
  5
BE0
 10
1203.01
 20
-18.3162
 30
0.000000
  70
    32
  0
VERTEX
  8
┌▓È_1
  5
BE1
 10
1203.03
 20
-18.3392
 30
0.000000
  70
    32
  0
VERTEX
  8
┌▓È_1
  5
BE2
 10
1203.06
 20
-18.3621
 30
0.000000
  70
    32
  0
VERTEX
  8
┌▓È_1
  5
BE3
 10
1203.08
 20
-18.3851
 30
0.000000
  70
    32
  0
VERTEX
  8
┌▓È_1
  5
BE4
 10
1203.11
 20
-18.4080
 30
0.000000
  70
    32
  0
VERTEX
  8
┌▓È_1
  5
BE5
 10
1203.14
 20
-18.4310
 30
0.000000
  70
    32
  0
VERTEX
  8
┌▓È_1
  5
BE6
 10
1203.16
 20
-18.4540
 30
0.000000
  70
    32
  0
VERTEX
  8
┌▓È_1
  5
BE7
 10
1203.19
 20
-18.4769
 30
0.000000
  70
    32
  0
VERTEX
  8
┌▓È_1
  5
BE8
 10
1203.22
 20
-18.4999
 30
0.000000
  70
    32
  0
VERTEX
  8
┌▓È_1
  5
BE9
 10
1203.24
 20
-18.5228
 30
0.000000
  70
    32
  0
VERTEX
  8
┌▓È_1
  5
BEA
 10
1203.27
 20
-18.5458
 30
0.000000
  70
    32
  0
VERTEX
  8
┌▓È_1
  5
BEB
 10
1203.30
 20
-18.5688
 30
0.000000
  70
    32
  0
VERTEX
  8
┌▓È_1
  5
BEC
 10
1203.32
 20
-18.5917
 30
0.000000
  70
    32
  0
VERTEX
  8
┌▓È_1
  5
BED
 10
1203.35
 20
-18.6147
 30
0.000000
  70
    32
  0
VERTEX
  8
┌▓È_1
  5
BEE
 10
1203.38
 20
-18.6376
 30
0.000000
  70
    32
  0
VERTEX
  8
┌▓È_1
  5
BEF
 10
1203.40
 20
-18.6606
 30
0.000000
  70
    32
  0
VERTEX
  8
┌▓È_1
  5
BF0
 10
1203.43
 20
-18.6835
 30
0.000000
  70
    32
  0
VERTEX
  8
┌▓È_1
  5
BF1
 10
1203.46
 20
-18.7065
 30
0.000000
  70
    32
  0
VERTEX
  8
┌▓È_1
  5
BF2
 10
1203.49
 20
-18.7295
 30
0.000000
  70
    32
  0
VERTEX
  8
┌▓È_1
  5
BF3
 10
1203.52
 20
-18.7524
 30
0.000000
  70
    32
  0
VERTEX
  8
┌▓È_1
  5
BF4
 10
1203.54
 20
-18.7754
 30
0.000000
  70
    32
  0
VERTEX
  8
┌▓È_1
  5
BF5
 10
1203.57
 20
-18.7983
 30
0.000000
  70
    32
  0
VERTEX
  8
┌▓È_1
  5
BF6
 10
1203.60
 20
-18.8213
 30
0.000000
  70
    32
  0
VERTEX
  8
┌▓È_1
  5
BF7
 10
1203.63
 20
-18.8442
 30
0.000000
  70
    32
  0
VERTEX
  8
┌▓È_1
  5
BF8
 10
1203.66
 20
-18.8672
 30
0.000000
  70
    32
  0
VERTEX
  8
┌▓È_1
  5
BF9
 10
1203.68
 20
-18.8902
 30
0.000000
  70
    32
  0
VERTEX
  8
┌▓È_1
  5
BFA
 10
1203.71
 20
-18.9131
 30
0.000000
  70
    32
  0
VERTEX
  8
┌▓È_1
  5
BFB
 10
1203.74
 20
-18.9361
 30
0.000000
  70
    32
  0
VERTEX
  8
┌▓È_1
  5
BFC
 10
1203.77
 20
-18.9590
 30
0.000000
  70
    32
  0
VERTEX
  8
┌▓È_1
  5
BFD
 10
1203.80
 20
-18.9820
 30
0.000000
  70
    32
  0
VERTEX
  8
┌▓È_1
  5
BFE
 10
1203.83
 20
-19.0049
 30
0.000000
  70
    32
  0
VERTEX
  8
┌▓È_1
  5
BFF
 10
1203.86
 20
-19.0279
 30
0.000000
  70
    32
  0
VERTEX
  8
┌▓È_1
  5
C00
 10
1203.89
 20
-19.0509
 30
0.000000
  70
    32
  0
VERTEX
  8
┌▓È_1
  5
C01
 10
1203.91
 20
-19.0738
 30
0.000000
  70
    32
  0
VERTEX
  8
┌▓È_1
  5
C02
 10
1203.94
 20
-19.0968
 30
0.000000
  70
    32
  0
VERTEX
  8
┌▓È_1
  5
C03
 10
1203.97
 20
-19.1197
 30
0.000000
  70
    32
  0
VERTEX
  8
┌▓È_1
  5
C04
 10
1204.00
 20
-19.1427
 30
0.000000
  70
    32
  0
VERTEX
  8
┌▓È_1
  5
C05
 10
1204.03
 20
-19.1656
 30
0.000000
  70
    32
  0
VERTEX
  8
┌▓È_1
  5
C06
 10
1204.06
 20
-19.1886
 30
0.000000
  70
    32
  0
VERTEX
  8
┌▓È_1
  5
C07
 10
1204.09
 20
-19.2116
 30
0.000000
  70
    32
  0
VERTEX
  8
┌▓È_1
  5
C08
 10
1204.12
 20
-19.2345
 30
0.000000
  70
    32
  0
VERTEX
  8
┌▓È_1
  5
C09
 10
1204.15
 20
-19.2575
 30
0.000000
  70
    32
  0
VERTEX
  8
┌▓È_1
  5
C0A
 10
1204.18
 20
-19.2804
 30
0.000000
  70
    32
  0
VERTEX
  8
┌▓È_1
  5
C0B
 10
1204.21
 20
-19.3034
 30
0.000000
  70
    32
  0
VERTEX
  8
┌▓È_1
  5
C0C
 10
1204.24
 20
-19.3263
 30
0.000000
  70
    32
  0
VERTEX
  8
┌▓È_1
  5
C0D
 10
1204.27
 20
-19.3493
 30
0.000000
  70
    32
  0
VERTEX
  8
┌▓È_1
  5
C0E
 10
1204.30
 20
-19.3723
 30
0.000000
  70
    32
  0
VERTEX
  8
┌▓È_1
  5
C0F
 10
1204.33
 20
-19.3952
 30
0.000000
  70
    32
  0
VERTEX
  8
┌▓È_1
  5
C10
 10
1204.36
 20
-19.4182
 30
0.000000
  70
    32
  0
VERTEX
  8
┌▓È_1
  5
C11
 10
1204.39
 20
-19.4411
 30
0.000000
  70
    32
  0
VERTEX
  8
┌▓È_1
  5
C12
 10
1204.42
 20
-19.4641
 30
0.000000
  70
    32
  0
VERTEX
  8
┌▓È_1
  5
C13
 10
1204.45
 20
-19.4871
 30
0.000000
  70
    32
  0
SEQEND
  8
┌▓È_1
  5
C14
  0
POLYLINE
  8
┌▓È_1
  5
C15
  62
5
  66
     1
 10
0.000000
 20
0.000000
 30
0.000000
  70
     8
  0
VERTEX
  8
┌▓È_1
  5
C16
 10
1204.11
 20
-19.2293
 30
0.000000
  70
    32
  0
VERTEX
  8
┌▓È_1
  5
C17
 10
1204.08
 20
-19.2763
 30
0.000000
  70
    32
  0
VERTEX
  8
┌▓È_1
  5
C18
 10
1204.05
 20
-19.3233
 30
0.000000
  70
    32
  0
VERTEX
  8
┌▓È_1
  5
C19
 10
1204.02
 20
-19.3703
 30
0.000000
  70
    32
  0
VERTEX
  8
┌▓È_1
  5
C1A
 10
1203.99
 20
-19.4173
 30
0.000000
  70
    32
  0
VERTEX
  8
┌▓È_1
  5
C1B
 10
1203.96
 20
-19.4643
 30
0.000000
  70
    32
  0
VERTEX
  8
┌▓È_1
  5
C1C
 10
1203.93
 20
-19.5113
 30
0.000000
  70
    32
  0
VERTEX
  8
┌▓È_1
  5
C1D
 10
1203.90
 20
-19.5583
 30
0.000000
  70
    32
  0
VERTEX
  8
┌▓È_1
  5
C1E
 10
1203.87
 20
-19.6053
 30
0.000000
  70
    32
  0
VERTEX
  8
┌▓È_1
  5
C1F
 10
1203.84
 20
-19.6523
 30
0.000000
  70
    32
  0
VERTEX
  8
┌▓È_1
  5
C20
 10
1203.81
 20
-19.6992
 30
0.000000
  70
    32
  0
VERTEX
  8
┌▓È_1
  5
C21
 10
1203.78
 20
-19.7462
 30
0.000000
  70
    32
  0
VERTEX
  8
┌▓È_1
  5
C22
 10
1203.75
 20
-19.7932
 30
0.000000
  70
    32
  0
VERTEX
  8
┌▓È_1
  5
C23
 10
1203.72
 20
-19.8402
 30
0.000000
  70
    32
  0
VERTEX
  8
┌▓È_1
  5
C24
 10
1203.70
 20
-19.8872
 30
0.000000
  70
    32
  0
VERTEX
  8
┌▓È_1
  5
C25
 10
1203.67
 20
-19.9342
 30
0.000000
  70
    32
  0
VERTEX
  8
┌▓È_1
  5
C26
 10
1203.64
 20
-19.9812
 30
0.000000
  70
    32
  0
VERTEX
  8
┌▓È_1
  5
C27
 10
1203.61
 20
-20.0282
 30
0.000000
  70
    32
  0
VERTEX
  8
┌▓È_1
  5
C28
 10
1203.59
 20
-20.0752
 30
0.000000
  70
    32
  0
VERTEX
  8
┌▓È_1
  5
C29
 10
1203.56
 20
-20.1222
 30
0.000000
  70
    32
  0
VERTEX
  8
┌▓È_1
  5
C2A
 10
1203.54
 20
-20.1691
 30
0.000000
  70
    32
  0
VERTEX
  8
┌▓È_1
  5
C2B
 10
1203.51
 20
-20.2161
 30
0.000000
  70
    32
  0
VERTEX
  8
┌▓È_1
  5
C2C
 10
1203.49
 20
-20.2631
 30
0.000000
  70
    32
  0
VERTEX
  8
┌▓È_1
  5
C2D
 10
1203.46
 20
-20.3101
 30
0.000000
  70
    32
  0
VERTEX
  8
┌▓È_1
  5
C2E
 10
1203.44
 20
-20.3571
 30
0.000000
  70
    32
  0
VERTEX
  8
┌▓È_1
  5
C2F
 10
1203.42
 20
-20.4041
 30
0.000000
  70
    32
  0
VERTEX
  8
┌▓È_1
  5
C30
 10
1203.39
 20
-20.4511
 30
0.000000
  70
    32
  0
VERTEX
  8
┌▓È_1
  5
C31
 10
1203.37
 20
-20.4981
 30
0.000000
  70
    32
  0
VERTEX
  8
┌▓È_1
  5
C32
 10
1203.35
 20
-20.5451
 30
0.000000
  70
    32
  0
VERTEX
  8
┌▓È_1
  5
C33
 10
1203.33
 20
-20.5921
 30
0.000000
  70
    32
  0
VERTEX
  8
┌▓È_1
  5
C34
 10
1203.31
 20
-20.6390
 30
0.000000
  70
    32
  0
VERTEX
  8
┌▓È_1
  5
C35
 10
1203.29
 20
-20.6860
 30
0.000000
  70
    32
  0
VERTEX
  8
┌▓È_1
  5
C36
 10
1203.27
 20
-20.7330
 30
0.000000
  70
    32
  0
VERTEX
  8
┌▓È_1
  5
C37
 10
1203.25
 20
-20.7800
 30
0.000000
  70
    32
  0
VERTEX
  8
┌▓È_1
  5
C38
 10
1203.23
 20
-20.8270
 30
0.000000
  70
    32
  0
VERTEX
  8
┌▓È_1
  5
C39
 10
1203.21
 20
-20.8740
 30
0.000000
  70
    32
  0
VERTEX
  8
┌▓È_1
  5
C3A
 10
1203.19
 20
-20.9210
 30
0.000000
  70
    32
  0
VERTEX
  8
┌▓È_1
  5
C3B
 10
1203.18
 20
-20.9680
 30
0.000000
  70
    32
  0
VERTEX
  8
┌▓È_1
  5
C3C
 10
1203.16
 20
-21.0150
 30
0.000000
  70
    32
  0
VERTEX
  8
┌▓È_1
  5
C3D
 10
1203.14
 20
-21.0620
 30
0.000000
  70
    32
  0
VERTEX
  8
┌▓È_1
  5
C3E
 10
1203.13
 20
-21.1089
 30
0.000000
  70
    32
  0
VERTEX
  8
┌▓È_1
  5
C3F
 10
1203.11
 20
-21.1559
 30
0.000000
  70
    32
  0
VERTEX
  8
┌▓È_1
  5
C40
 10
1203.10
 20
-21.2029
 30
0.000000
  70
    32
  0
VERTEX
  8
┌▓È_1
  5
C41
 10
1203.08
 20
-21.2499
 30
0.000000
  70
    32
  0
VERTEX
  8
┌▓È_1
  5
C42
 10
1203.07
 20
-21.2969
 30
0.000000
  70
    32
  0
VERTEX
  8
┌▓È_1
  5
C43
 10
1203.06
 20
-21.3439
 30
0.000000
  70
    32
  0
VERTEX
  8
┌▓È_1
  5
C44
 10
1203.05
 20
-21.3909
 30
0.000000
  70
    32
  0
VERTEX
  8
┌▓È_1
  5
C45
 10
1203.03
 20
-21.4379
 30
0.000000
  70
    32
  0
VERTEX
  8
┌▓È_1
  5
C46
 10
1203.02
 20
-21.4849
 30
0.000000
  70
    32
  0
VERTEX
  8
┌▓È_1
  5
C47
 10
1203.01
 20
-21.5319
 30
0.000000
  70
    32
  0
VERTEX
  8
┌▓È_1
  5
C48
 10
1203.00
 20
-21.5789
 30
0.000000
  70
    32
  0
VERTEX
  8
┌▓È_1
  5
C49
 10
1202.99
 20
-21.6258
 30
0.000000
  70
    32
  0
VERTEX
  8
┌▓È_1
  5
C4A
 10
1202.99
 20
-21.6728
 30
0.000000
  70
    32
  0
VERTEX
  8
┌▓È_1
  5
C4B
 10
1202.98
 20
-21.7198
 30
0.000000
  70
    32
  0
VERTEX
  8
┌▓È_1
  5
C4C
 10
1202.97
 20
-21.7668
 30
0.000000
  70
    32
  0
VERTEX
  8
┌▓È_1
  5
C4D
 10
1202.96
 20
-21.8138
 30
0.000000
  70
    32
  0
VERTEX
  8
┌▓È_1
  5
C4E
 10
1202.96
 20
-21.8608
 30
0.000000
  70
    32
  0
VERTEX
  8
┌▓È_1
  5
C4F
 10
1202.95
 20
-21.9078
 30
0.000000
  70
    32
  0
VERTEX
  8
┌▓È_1
  5
C50
 10
1202.95
 20
-21.9548
 30
0.000000
  70
    32
  0
VERTEX
  8
┌▓È_1
  5
C51
 10
1202.95
 20
-22.0018
 30
0.000000
  70
    32
  0
VERTEX
  8
┌▓È_1
  5
C52
 10
1202.94
 20
-22.0488
 30
0.000000
  70
    32
  0
VERTEX
  8
┌▓È_1
  5
C53
 10
1202.94
 20
-22.0957
 30
0.000000
  70
    32
  0
VERTEX
  8
┌▓È_1
  5
C54
 10
1202.94
 20
-22.1427
 30
0.000000
  70
    32
  0
VERTEX
  8
┌▓È_1
  5
C55
 10
1202.94
 20
-22.1897
 30
0.000000
  70
    32
  0
VERTEX
  8
┌▓È_1
  5
C56
 10
1202.94
 20
-22.2367
 30
0.000000
  70
    32
  0
VERTEX
  8
┌▓È_1
  5
C57
 10
1202.94
 20
-22.2837
 30
0.000000
  70
    32
  0
VERTEX
  8
┌▓È_1
  5
C58
 10
1202.94
 20
-22.3307
 30
0.000000
  70
    32
  0
VERTEX
  8
┌▓È_1
  5
C59
 10
1202.95
 20
-22.3777
 30
0.000000
  70
    32
  0
VERTEX
  8
┌▓È_1
  5
C5A
 10
1202.95
 20
-22.4247
 30
0.000000
  70
    32
  0
VERTEX
  8
┌▓È_1
  5
C5B
 10
1202.95
 20
-22.4717
 30
0.000000
  70
    32
  0
VERTEX
  8
┌▓È_1
  5
C5C
 10
1202.96
 20
-22.5187
 30
0.000000
  70
    32
  0
VERTEX
  8
┌▓È_1
  5
C5D
 10
1202.96
 20
-22.5656
 30
0.000000
  70
    32
  0
VERTEX
  8
┌▓È_1
  5
C5E
 10
1202.97
 20
-22.6126
 30
0.000000
  70
    32
  0
VERTEX
  8
┌▓È_1
  5
C5F
 10
1202.97
 20
-22.6596
 30
0.000000
  70
    32
  0
VERTEX
  8
┌▓È_1
  5
C60
 10
1202.98
 20
-22.7066
 30
0.000000
  70
    32
  0
VERTEX
  8
┌▓È_1
  5
C61
 10
1202.99
 20
-22.7536
 30
0.000000
  70
    32
  0
VERTEX
  8
┌▓È_1
  5
C62
 10
1203.00
 20
-22.8006
 30
0.000000
  70
    32
  0
VERTEX
  8
┌▓È_1
  5
C63
 10
1203.01
 20
-22.8476
 30
0.000000
  70
    32
  0
VERTEX
  8
┌▓È_1
  5
C64
 10
1203.02
 20
-22.8946
 30
0.000000
  70
    32
  0
VERTEX
  8
┌▓È_1
  5
C65
 10
1203.03
 20
-22.9416
 30
0.000000
  70
    32
  0
VERTEX
  8
┌▓È_1
  5
C66
 10
1203.04
 20
-22.9886
 30
0.000000
  70
    32
  0
VERTEX
  8
┌▓È_1
  5
C67
 10
1203.05
 20
-23.0355
 30
0.000000
  70
    32
  0
VERTEX
  8
┌▓È_1
  5
C68
 10
1203.06
 20
-23.0825
 30
0.000000
  70
    32
  0
VERTEX
  8
┌▓È_1
  5
C69
 10
1203.08
 20
-23.1295
 30
0.000000
  70
    32
  0
VERTEX
  8
┌▓È_1
  5
C6A
 10
1203.09
 20
-23.1765
 30
0.000000
  70
    32
  0
VERTEX
  8
┌▓È_1
  5
C6B
 10
1203.10
 20
-23.2235
 30
0.000000
  70
    32
  0
VERTEX
  8
┌▓È_1
  5
C6C
 10
1203.12
 20
-23.2705
 30
0.000000
  70
    32
  0
VERTEX
  8
┌▓È_1
  5
C6D
 10
1203.14
 20
-23.3175
 30
0.000000
  70
    32
  0
VERTEX
  8
┌▓È_1
  5
C6E
 10
1203.15
 20
-23.3645
 30
0.000000
  70
    32
  0
VERTEX
  8
┌▓È_1
  5
C6F
 10
1203.17
 20
-23.4115
 30
0.000000
  70
    32
  0
VERTEX
  8
┌▓È_1
  5
C70
 10
1203.18
 20
-23.4585
 30
0.000000
  70
    32
  0
VERTEX
  8
┌▓È_1
  5
C71
 10
1203.20
 20
-23.5054
 30
0.000000
  70
    32
  0
VERTEX
  8
┌▓È_1
  5
C72
 10
1203.22
 20
-23.5524
 30
0.000000
  70
    32
  0
VERTEX
  8
┌▓È_1
  5
C73
 10
1203.24
 20
-23.5994
 30
0.000000
  70
    32
  0
VERTEX
  8
┌▓È_1
  5
C74
 10
1203.26
 20
-23.6464
 30
0.000000
  70
    32
  0
VERTEX
  8
┌▓È_1
  5
C75
 10
1203.28
 20
-23.6934
 30
0.000000
  70
    32
  0
VERTEX
  8
┌▓È_1
  5
C76
 10
1203.30
 20
-23.7404
 30
0.000000
  70
    32
  0
VERTEX
  8
┌▓È_1
  5
C77
 10
1203.32
 20
-23.7874
 30
0.000000
  70
    32
  0
VERTEX
  8
┌▓È_1
  5
C78
 10
1203.34
 20
-23.8344
 30
0.000000
  70
    32
  0
VERTEX
  8
┌▓È_1
  5
C79
 10
1203.36
 20
-23.8814
 30
0.000000
  70
    32
  0
VERTEX
  8
┌▓È_1
  5
C7A
 10
1203.38
 20
-23.9284
 30
0.000000
  70
    32
  0
VERTEX
  8
┌▓È_1
  5
C7B
 10
1203.41
 20
-23.9753
 30
0.000000
  70
    32
  0
VERTEX
  8
┌▓È_1
  5
C7C
 10
1203.43
 20
-24.0223
 30
0.000000
  70
    32
  0
VERTEX
  8
┌▓È_1
  5
C7D
 10
1203.45
 20
-24.0693
 30
0.000000
  70
    32
  0
VERTEX
  8
┌▓È_1
  5
C7E
 10
1203.48
 20
-24.1163
 30
0.000000
  70
    32
  0
VERTEX
  8
┌▓È_1
  5
C7F
 10
1203.50
 20
-24.1633
 30
0.000000
  70
    32
  0
VERTEX
  8
┌▓È_1
  5
C80
 10
1203.53
 20
-24.2103
 30
0.000000
  70
    32
  0
VERTEX
  8
┌▓È_1
  5
C81
 10
1203.55
 20
-24.2573
 30
0.000000
  70
    32
  0
VERTEX
  8
┌▓È_1
  5
C82
 10
1203.58
 20
-24.3043
 30
0.000000
  70
    32
  0
VERTEX
  8
┌▓È_1
  5
C83
 10
1203.60
 20
-24.3513
 30
0.000000
  70
    32
  0
VERTEX
  8
┌▓È_1
  5
C84
 10
1203.63
 20
-24.3983
 30
0.000000
  70
    32
  0
VERTEX
  8
┌▓È_1
  5
C85
 10
1203.66
 20
-24.4452
 30
0.000000
  70
    32
  0
VERTEX
  8
┌▓È_1
  5
C86
 10
1203.68
 20
-24.4922
 30
0.000000
  70
    32
  0
VERTEX
  8
┌▓È_1
  5
C87
 10
1203.71
 20
-24.5392
 30
0.000000
  70
    32
  0
VERTEX
  8
┌▓È_1
  5
C88
 10
1203.74
 20
-24.5862
 30
0.000000
  70
    32
  0
VERTEX
  8
┌▓È_1
  5
C89
 10
1203.77
 20
-24.6332
 30
0.000000
  70
    32
  0
VERTEX
  8
┌▓È_1
  5
C8A
 10
1203.80
 20
-24.6802
 30
0.000000
  70
    32
  0
VERTEX
  8
┌▓È_1
  5
C8B
 10
1203.82
 20
-24.7272
 30
0.000000
  70
    32
  0
VERTEX
  8
┌▓È_1
  5
C8C
 10
1203.85
 20
-24.7742
 30
0.000000
  70
    32
  0
VERTEX
  8
┌▓È_1
  5
C8D
 10
1203.88
 20
-24.8212
 30
0.000000
  70
    32
  0
VERTEX
  8
┌▓È_1
  5
C8E
 10
1203.91
 20
-24.8682
 30
0.000000
  70
    32
  0
VERTEX
  8
┌▓È_1
  5
C8F
 10
1203.94
 20
-24.9151
 30
0.000000
  70
    32
  0
VERTEX
  8
┌▓È_1
  5
C90
 10
1203.97
 20
-24.9621
 30
0.000000
  70
    32
  0
VERTEX
  8
┌▓È_1
  5
C91
 10
1204.00
 20
-25.0091
 30
0.000000
  70
    32
  0
VERTEX
  8
┌▓È_1
  5
C92
 10
1204.04
 20
-25.0561
 30
0.000000
  70
    32
  0
VERTEX
  8
┌▓È_1
  5
C93
 10
1204.07
 20
-25.1031
 30
0.000000
  70
    32
  0
VERTEX
  8
┌▓È_1
  5
C94
 10
1204.10
 20
-25.1501
 30
0.000000
  70
    32
  0
VERTEX
  8
┌▓È_1
  5
C95
 10
1204.13
 20
-25.1971
 30
0.000000
  70
    32
  0
VERTEX
  8
┌▓È_1
  5
C96
 10
1204.16
 20
-25.2441
 30
0.000000
  70
    32
  0
VERTEX
  8
┌▓È_1
  5
C97
 10
1204.19
 20
-25.2911
 30
0.000000
  70
    32
  0
VERTEX
  8
┌▓È_1
  5
C98
 10
1204.23
 20
-25.3381
 30
0.000000
  70
    32
  0
VERTEX
  8
┌▓È_1
  5
C99
 10
1204.26
 20
-25.3850
 30
0.000000
  70
    32
  0
VERTEX
  8
┌▓È_1
  5
C9A
 10
1204.29
 20
-25.4320
 30
0.000000
  70
    32
  0
VERTEX
  8
┌▓È_1
  5
C9B
 10
1204.33
 20
-25.4790
 30
0.000000
  70
    32
  0
VERTEX
  8
┌▓È_1
  5
C9C
 10
1204.36
 20
-25.5260
 30
0.000000
  70
    32
  0
VERTEX
  8
┌▓È_1
  5
C9D
 10
1204.39
 20
-25.5730
 30
0.000000
  70
    32
  0
VERTEX
  8
┌▓È_1
  5
C9E
 10
1204.43
 20
-25.6200
 30
0.000000
  70
    32
  0
VERTEX
  8
┌▓È_1
  5
C9F
 10
1204.46
 20
-25.6670
 30
0.000000
  70
    32
  0
VERTEX
  8
┌▓È_1
  5
CA0
 10
1204.50
 20
-25.7140
 30
0.000000
  70
    32
  0
VERTEX
  8
┌▓È_1
  5
CA1
 10
1204.53
 20
-25.7610
 30
0.000000
  70
    32
  0
VERTEX
  8
┌▓È_1
  5
CA2
 10
1204.56
 20
-25.8080
 30
0.000000
  70
    32
  0
VERTEX
  8
┌▓È_1
  5
CA3
 10
1204.60
 20
-25.8549
 30
0.000000
  70
    32
  0
VERTEX
  8
┌▓È_1
  5
CA4
 10
1204.63
 20
-25.9019
 30
0.000000
  70
    32
  0
VERTEX
  8
┌▓È_1
  5
CA5
 10
1204.67
 20
-25.9489
 30
0.000000
  70
    32
  0
VERTEX
  8
┌▓È_1
  5
CA6
 10
1204.70
 20
-25.9959
 30
0.000000
  70
    32
  0
VERTEX
  8
┌▓È_1
  5
CA7
 10
1204.74
 20
-26.0429
 30
0.000000
  70
    32
  0
VERTEX
  8
┌▓È_1
  5
CA8
 10
1204.77
 20
-26.0899
 30
0.000000
  70
    32
  0
VERTEX
  8
┌▓È_1
  5
CA9
 10
1204.81
 20
-26.1369
 30
0.000000
  70
    32
  0
VERTEX
  8
┌▓È_1
  5
CAA
 10
1204.85
 20
-26.1839
 30
0.000000
  70
    32
  0
VERTEX
  8
┌▓È_1
  5
CAB
 10
1204.88
 20
-26.2309
 30
0.000000
  70
    32
  0
VERTEX
  8
┌▓È_1
  5
CAC
 10
1204.92
 20
-26.2779
 30
0.000000
  70
    32
  0
VERTEX
  8
┌▓È_1
  5
CAD
 10
1204.95
 20
-26.3248
 30
0.000000
  70
    32
  0
VERTEX
  8
┌▓È_1
  5
CAE
 10
1204.99
 20
-26.3718
 30
0.000000
  70
    32
  0
VERTEX
  8
┌▓È_1
  5
CAF
 10
1205.02
 20
-26.4188
 30
0.000000
  70
    32
  0
VERTEX
  8
┌▓È_1
  5
CB0
 10
1205.06
 20
-26.4658
 30
0.000000
  70
    32
  0
VERTEX
  8
┌▓È_1
  5
CB1
 10
1205.10
 20
-26.5128
 30
0.000000
  70
    32
  0
VERTEX
  8
┌▓È_1
  5
CB2
 10
1205.13
 20
-26.5598
 30
0.000000
  70
    32
  0
VERTEX
  8
┌▓È_1
  5
CB3
 10
1205.17
 20
-26.6068
 30
0.000000
  70
    32
  0
VERTEX
  8
┌▓È_1
  5
CB4
 10
1205.20
 20
-26.6538
 30
0.000000
  70
    32
  0
VERTEX
  8
┌▓È_1
  5
CB5
 10
1205.24
 20
-26.7008
 30
0.000000
  70
    32
  0
SEQEND
  8
┌▓È_1
  5
CB6
  0
POLYLINE
  8
┌▓È_1
  5
CB7
  62
5
  66
     1
 10
0.000000
 20
0.000000
 30
0.000000
  70
     8
  0
VERTEX
  8
┌▓È_1
  5
CB8
 10
1205.24
 20
-9.55642
 30
0.000000
  70
    32
  0
VERTEX
  8
┌▓È_1
  5
CB9
 10
1205.19
 20
-9.59539
 30
0.000000
  70
    32
  0
VERTEX
  8
┌▓È_1
  5
CBA
 10
1205.14
 20
-9.63437
 30
0.000000
  70
    32
  0
VERTEX
  8
┌▓È_1
  5
CBB
 10
1205.10
 20
-9.67334
 30
0.000000
  70
    32
  0
VERTEX
  8
┌▓È_1
  5
CBC
 10
1205.05
 20
-9.71232
 30
0.000000
  70
    32
  0
VERTEX
  8
┌▓È_1
  5
CBD
 10
1205.00
 20
-9.75129
 30
0.000000
  70
    32
  0
VERTEX
  8
┌▓È_1
  5
CBE
 10
1204.95
 20
-9.79026
 30
0.000000
  70
    32
  0
VERTEX
  8
┌▓È_1
  5
CBF
 10
1204.91
 20
-9.82924
 30
0.000000
  70
    32
  0
VERTEX
  8
┌▓È_1
  5
CC0
 10
1204.86
 20
-9.86821
 30
0.000000
  70
    32
  0
VERTEX
  8
┌▓È_1
  5
CC1
 10
1204.81
 20
-9.90718
 30
0.000000
  70
    32
  0
VERTEX
  8
┌▓È_1
  5
CC2
 10
1204.77
 20
-9.94616
 30
0.000000
  70
    32
  0
VERTEX
  8
┌▓È_1
  5
CC3
 10
1204.72
 20
-9.98513
 30
0.000000
  70
    32
  0
VERTEX
  8
┌▓È_1
  5
CC4
 10
1204.68
 20
-10.0241
 30
0.000000
  70
    32
  0
VERTEX
  8
┌▓È_1
  5
CC5
 10
1204.63
 20
-10.0631
 30
0.000000
  70
    32
  0
VERTEX
  8
┌▓È_1
  5
CC6
 10
1204.59
 20
-10.1021
 30
0.000000
  70
    32
  0
VERTEX
  8
┌▓È_1
  5
CC7
 10
1204.55
 20
-10.1410
 30
0.000000
  70
    32
  0
VERTEX
  8
┌▓È_1
  5
CC8
 10
1204.50
 20
-10.1800
 30
0.000000
  70
    32
  0
VERTEX
  8
┌▓È_1
  5
CC9
 10
1204.46
 20
-10.2190
 30
0.000000
  70
    32
  0
VERTEX
  8
┌▓È_1
  5
CCA
 10
1204.42
 20
-10.2579
 30
0.000000
  70
    32
  0
VERTEX
  8
┌▓È_1
  5
CCB
 10
1204.37
 20
-10.2969
 30
0.000000
  70
    32
  0
VERTEX
  8
┌▓È_1
  5
CCC
 10
1204.33
 20
-10.3359
 30
0.000000
  70
    32
  0
VERTEX
  8
┌▓È_1
  5
CCD
 10
1204.29
 20
-10.3749
 30
0.000000
  70
    32
  0
VERTEX
  8
┌▓È_1
  5
CCE
 10
1204.25
 20
-10.4138
 30
0.000000
  70
    32
  0
VERTEX
  8
┌▓È_1
  5
CCF
 10
1204.21
 20
-10.4528
 30
0.000000
  70
    32
  0
VERTEX
  8
┌▓È_1
  5
CD0
 10
1204.17
 20
-10.4918
 30
0.000000
  70
    32
  0
VERTEX
  8
┌▓È_1
  5
CD1
 10
1204.13
 20
-10.5308
 30
0.000000
  70
    32
  0
VERTEX
  8
┌▓È_1
  5
CD2
 10
1204.09
 20
-10.5697
 30
0.000000
  70
    32
  0
VERTEX
  8
┌▓È_1
  5
CD3
 10
1204.05
 20
-10.6087
 30
0.000000
  70
    32
  0
VERTEX
  8
┌▓È_1
  5
CD4
 10
1204.01
 20
-10.6477
 30
0.000000
  70
    32
  0
VERTEX
  8
┌▓È_1
  5
CD5
 10
1203.98
 20
-10.6867
 30
0.000000
  70
    32
  0
VERTEX
  8
┌▓È_1
  5
CD6
 10
1203.94
 20
-10.7256
 30
0.000000
  70
    32
  0
VERTEX
  8
┌▓È_1
  5
CD7
 10
1203.90
 20
-10.7646
 30
0.000000
  70
    32
  0
VERTEX
  8
┌▓È_1
  5
CD8
 10
1203.87
 20
-10.8036
 30
0.000000
  70
    32
  0
VERTEX
  8
┌▓È_1
  5
CD9
 10
1203.83
 20
-10.8426
 30
0.000000
  70
    32
  0
VERTEX
  8
┌▓È_1
  5
CDA
 10
1203.80
 20
-10.8815
 30
0.000000
  70
    32
  0
VERTEX
  8
┌▓È_1
  5
CDB
 10
1203.76
 20
-10.9205
 30
0.000000
  70
    32
  0
VERTEX
  8
┌▓È_1
  5
CDC
 10
1203.73
 20
-10.9595
 30
0.000000
  70
    32
  0
VERTEX
  8
┌▓È_1
  5
CDD
 10
1203.70
 20
-10.9984
 30
0.000000
  70
    32
  0
VERTEX
  8
┌▓È_1
  5
CDE
 10
1203.66
 20
-11.0374
 30
0.000000
  70
    32
  0
VERTEX
  8
┌▓È_1
  5
CDF
 10
1203.63
 20
-11.0764
 30
0.000000
  70
    32
  0
VERTEX
  8
┌▓È_1
  5
CE0
 10
1203.60
 20
-11.1154
 30
0.000000
  70
    32
  0
VERTEX
  8
┌▓È_1
  5
CE1
 10
1203.57
 20
-11.1543
 30
0.000000
  70
    32
  0
VERTEX
  8
┌▓È_1
  5
CE2
 10
1203.54
 20
-11.1933
 30
0.000000
  70
    32
  0
VERTEX
  8
┌▓È_1
  5
CE3
 10
1203.51
 20
-11.2323
 30
0.000000
  70
    32
  0
VERTEX
  8
┌▓È_1
  5
CE4
 10
1203.48
 20
-11.2713
 30
0.000000
  70
    32
  0
VERTEX
  8
┌▓È_1
  5
CE5
 10
1203.45
 20
-11.3102
 30
0.000000
  70
    32
  0
VERTEX
  8
┌▓È_1
  5
CE6
 10
1203.42
 20
-11.3492
 30
0.000000
  70
    32
  0
VERTEX
  8
┌▓È_1
  5
CE7
 10
1203.40
 20
-11.3882
 30
0.000000
  70
    32
  0
VERTEX
  8
┌▓È_1
  5
CE8
 10
1203.37
 20
-11.4272
 30
0.000000
  70
    32
  0
VERTEX
  8
┌▓È_1
  5
CE9
 10
1203.35
 20
-11.4661
 30
0.000000
  70
    32
  0
VERTEX
  8
┌▓È_1
  5
CEA
 10
1203.32
 20
-11.5051
 30
0.000000
  70
    32
  0
VERTEX
  8
┌▓È_1
  5
CEB
 10
1203.30
 20
-11.5441
 30
0.000000
  70
    32
  0
VERTEX
  8
┌▓È_1
  5
CEC
 10
1203.27
 20
-11.5831
 30
0.000000
  70
    32
  0
VERTEX
  8
┌▓È_1
  5
CED
 10
1203.25
 20
-11.6220
 30
0.000000
  70
    32
  0
VERTEX
  8
┌▓È_1
  5
CEE
 10
1203.23
 20
-11.6610
 30
0.000000
  70
    32
  0
VERTEX
  8
┌▓È_1
  5
CEF
 10
1203.21
 20
-11.7000
 30
0.000000
  70
    32
  0
VERTEX
  8
┌▓È_1
  5
CF0
 10
1203.19
 20
-11.7390
 30
0.000000
  70
    32
  0
VERTEX
  8
┌▓È_1
  5
CF1
 10
1203.17
 20
-11.7779
 30
0.000000
  70
    32
  0
VERTEX
  8
┌▓È_1
  5
CF2
 10
1203.15
 20
-11.8169
 30
0.000000
  70
    32
  0
VERTEX
  8
┌▓È_1
  5
CF3
 10
1203.13
 20
-11.8559
 30
0.000000
  70
    32
  0
VERTEX
  8
┌▓È_1
  5
CF4
 10
1203.11
 20
-11.8948
 30
0.000000
  70
    32
  0
VERTEX
  8
┌▓È_1
  5
CF5
 10
1203.10
 20
-11.9338
 30
0.000000
  70
    32
  0
VERTEX
  8
┌▓È_1
  5
CF6
 10
1203.08
 20
-11.9728
 30
0.000000
  70
    32
  0
VERTEX
  8
┌▓È_1
  5
CF7
 10
1203.06
 20
-12.0118
 30
0.000000
  70
    32
  0
VERTEX
  8
┌▓È_1
  5
CF8
 10
1203.05
 20
-12.0507
 30
0.000000
  70
    32
  0
VERTEX
  8
┌▓È_1
  5
CF9
 10
1203.04
 20
-12.0897
 30
0.000000
  70
    32
  0
VERTEX
  8
┌▓È_1
  5
CFA
 10
1203.02
 20
-12.1287
 30
0.000000
  70
    32
  0
VERTEX
  8
┌▓È_1
  5
CFB
 10
1203.01
 20
-12.1677
 30
0.000000
  70
    32
  0
VERTEX
  8
┌▓È_1
  5
CFC
 10
1203.00
 20
-12.2066
 30
0.000000
  70
    32
  0
VERTEX
  8
┌▓È_1
  5
CFD
 10
1202.99
 20
-12.2456
 30
0.000000
  70
    32
  0
VERTEX
  8
┌▓È_1
  5
CFE
 10
1202.98
 20
-12.2846
 30
0.000000
  70
    32
  0
VERTEX
  8
┌▓È_1
  5
CFF
 10
1202.97
 20
-12.3236
 30
0.000000
  70
    32
  0
VERTEX
  8
┌▓È_1
  5
D00
 10
1202.97
 20
-12.3625
 30
0.000000
  70
    32
  0
VERTEX
  8
┌▓È_1
  5
D01
 10
1202.96
 20
-12.4015
 30
0.000000
  70
    32
  0
VERTEX
  8
┌▓È_1
  5
D02
 10
1202.95
 20
-12.4405
 30
0.000000
  70
    32
  0
VERTEX
  8
┌▓È_1
  5
D03
 10
1202.95
 20
-12.4795
 30
0.000000
  70
    32
  0
VERTEX
  8
┌▓È_1
  5
D04
 10
1202.95
 20
-12.5184
 30
0.000000
  70
    32
  0
VERTEX
  8
┌▓È_1
  5
D05
 10
1202.94
 20
-12.5574
 30
0.000000
  70
    32
  0
VERTEX
  8
┌▓È_1
  5
D06
 10
1202.94
 20
-12.5964
 30
0.000000
  70
    32
  0
VERTEX
  8
┌▓È_1
  5
D07
 10
1202.94
 20
-12.6353
 30
0.000000
  70
    32
  0
VERTEX
  8
┌▓È_1
  5
D08
 10
1202.94
 20
-12.6743
 30
0.000000
  70
    32
  0
VERTEX
  8
┌▓È_1
  5
D09
 10
1202.94
 20
-12.7133
 30
0.000000
  70
    32
  0
VERTEX
  8
┌▓È_1
  5
D0A
 10
1202.94
 20
-12.7523
 30
0.000000
  70
    32
  0
VERTEX
  8
┌▓È_1
  5
D0B
 10
1202.95
 20
-12.7912
 30
0.000000
  70
    32
  0
VERTEX
  8
┌▓È_1
  5
D0C
 10
1202.95
 20
-12.8302
 30
0.000000
  70
    32
  0
VERTEX
  8
┌▓È_1
  5
D0D
 10
1202.95
 20
-12.8692
 30
0.000000
  70
    32
  0
VERTEX
  8
┌▓È_1
  5
D0E
 10
1202.96
 20
-12.9082
 30
0.000000
  70
    32
  0
VERTEX
  8
┌▓È_1
  5
D0F
 10
1202.97
 20
-12.9471
 30
0.000000
  70
    32
  0
VERTEX
  8
┌▓È_1
  5
D10
 10
1202.97
 20
-12.9861
 30
0.000000
  70
    32
  0
VERTEX
  8
┌▓È_1
  5
D11
 10
1202.98
 20
-13.0251
 30
0.000000
  70
    32
  0
VERTEX
  8
┌▓È_1
  5
D12
 10
1202.99
 20
-13.0641
 30
0.000000
  70
    32
  0
VERTEX
  8
┌▓È_1
  5
D13
 10
1203.00
 20
-13.1030
 30
0.000000
  70
    32
  0
VERTEX
  8
┌▓È_1
  5
D14
 10
1203.01
 20
-13.1420
 30
0.000000
  70
    32
  0
VERTEX
  8
┌▓È_1
  5
D15
 10
1203.02
 20
-13.1810
 30
0.000000
  70
    32
  0
VERTEX
  8
┌▓È_1
  5
D16
 10
1203.04
 20
-13.2200
 30
0.000000
  70
    32
  0
VERTEX
  8
┌▓È_1
  5
D17
 10
1203.05
 20
-13.2589
 30
0.000000
  70
    32
  0
VERTEX
  8
┌▓È_1
  5
D18
 10
1203.06
 20
-13.2979
 30
0.000000
  70
    32
  0
VERTEX
  8
┌▓È_1
  5
D19
 10
1203.08
 20
-13.3369
 30
0.000000
  70
    32
  0
VERTEX
  8
┌▓È_1
  5
D1A
 10
1203.10
 20
-13.3758
 30
0.000000
  70
    32
  0
VERTEX
  8
┌▓È_1
  5
D1B
 10
1203.11
 20
-13.4148
 30
0.000000
  70
    32
  0
VERTEX
  8
┌▓È_1
  5
D1C
 10
1203.13
 20
-13.4538
 30
0.000000
  70
    32
  0
VERTEX
  8
┌▓È_1
  5
D1D
 10
1203.15
 20
-13.4928
 30
0.000000
  70
    32
  0
VERTEX
  8
┌▓È_1
  5
D1E
 10
1203.17
 20
-13.5317
 30
0.000000
  70
    32
  0
VERTEX
  8
┌▓È_1
  5
D1F
 10
1203.19
 20
-13.5707
 30
0.000000
  70
    32
  0
VERTEX
  8
┌▓È_1
  5
D20
 10
1203.21
 20
-13.6097
 30
0.000000
  70
    32
  0
VERTEX
  8
┌▓È_1
  5
D21
 10
1203.23
 20
-13.6487
 30
0.000000
  70
    32
  0
VERTEX
  8
┌▓È_1
  5
D22
 10
1203.25
 20
-13.6876
 30
0.000000
  70
    32
  0
VERTEX
  8
┌▓È_1
  5
D23
 10
1203.27
 20
-13.7266
 30
0.000000
  70
    32
  0
VERTEX
  8
┌▓È_1
  5
D24
 10
1203.30
 20
-13.7656
 30
0.000000
  70
    32
  0
VERTEX
  8
┌▓È_1
  5
D25
 10
1203.32
 20
-13.8046
 30
0.000000
  70
    32
  0
VERTEX
  8
┌▓È_1
  5
D26
 10
1203.35
 20
-13.8435
 30
0.000000
  70
    32
  0
VERTEX
  8
┌▓È_1
  5
D27
 10
1203.37
 20
-13.8825
 30
0.000000
  70
    32
  0
VERTEX
  8
┌▓È_1
  5
D28
 10
1203.40
 20
-13.9215
 30
0.000000
  70
    32
  0
VERTEX
  8
┌▓È_1
  5
D29
 10
1203.42
 20
-13.9605
 30
0.000000
  70
    32
  0
VERTEX
  8
┌▓È_1
  5
D2A
 10
1203.45
 20
-13.9994
 30
0.000000
  70
    32
  0
VERTEX
  8
┌▓È_1
  5
D2B
 10
1203.48
 20
-14.0384
 30
0.000000
  70
    32
  0
VERTEX
  8
┌▓È_1
  5
D2C
 10
1203.51
 20
-14.0774
 30
0.000000
  70
    32
  0
VERTEX
  8
┌▓È_1
  5
D2D
 10
1203.54
 20
-14.1163
 30
0.000000
  70
    32
  0
VERTEX
  8
┌▓È_1
  5
D2E
 10
1203.57
 20
-14.1553
 30
0.000000
  70
    32
  0
VERTEX
  8
┌▓È_1
  5
D2F
 10
1203.60
 20
-14.1943
 30
0.000000
  70
    32
  0
VERTEX
  8
┌▓È_1
  5
D30
 10
1203.63
 20
-14.2333
 30
0.000000
  70
    32
  0
VERTEX
  8
┌▓È_1
  5
D31
 10
1203.66
 20
-14.2722
 30
0.000000
  70
    32
  0
VERTEX
  8
┌▓È_1
  5
D32
 10
1203.70
 20
-14.3112
 30
0.000000
  70
    32
  0
VERTEX
  8
┌▓È_1
  5
D33
 10
1203.73
 20
-14.3502
 30
0.000000
  70
    32
  0
VERTEX
  8
┌▓È_1
  5
D34
 10
1203.76
 20
-14.3892
 30
0.000000
  70
    32
  0
VERTEX
  8
┌▓È_1
  5
D35
 10
1203.80
 20
-14.4281
 30
0.000000
  70
    32
  0
VERTEX
  8
┌▓È_1
  5
D36
 10
1203.83
 20
-14.4671
 30
0.000000
  70
    32
  0
VERTEX
  8
┌▓È_1
  5
D37
 10
1203.87
 20
-14.5061
 30
0.000000
  70
    32
  0
VERTEX
  8
┌▓È_1
  5
D38
 10
1203.90
 20
-14.5451
 30
0.000000
  70
    32
  0
VERTEX
  8
┌▓È_1
  5
D39
 10
1203.94
 20
-14.5840
 30
0.000000
  70
    32
  0
VERTEX
  8
┌▓È_1
  5
D3A
 10
1203.98
 20
-14.6230
 30
0.000000
  70
    32
  0
VERTEX
  8
┌▓È_1
  5
D3B
 10
1204.01
 20
-14.6620
 30
0.000000
  70
    32
  0
VERTEX
  8
┌▓È_1
  5
D3C
 10
1204.05
 20
-14.7010
 30
0.000000
  70
    32
  0
VERTEX
  8
┌▓È_1
  5
D3D
 10
1204.09
 20
-14.7399
 30
0.000000
  70
    32
  0
VERTEX
  8
┌▓È_1
  5
D3E
 10
1204.13
 20
-14.7789
 30
0.000000
  70
    32
  0
VERTEX
  8
┌▓È_1
  5
D3F
 10
1204.17
 20
-14.8179
 30
0.000000
  70
    32
  0
VERTEX
  8
┌▓È_1
  5
D40
 10
1204.21
 20
-14.8569
 30
0.000000
  70
    32
  0
VERTEX
  8
┌▓È_1
  5
D41
 10
1204.25
 20
-14.8958
 30
0.000000
  70
    32
  0
VERTEX
  8
┌▓È_1
  5
D42
 10
1204.29
 20
-14.9348
 30
0.000000
  70
    32
  0
VERTEX
  8
┌▓È_1
  5
D43
 10
1204.33
 20
-14.9738
 30
0.000000
  70
    32
  0
VERTEX
  8
┌▓È_1
  5
D44
 10
1204.37
 20
-15.0127
 30
0.000000
  70
    32
  0
VERTEX
  8
┌▓È_1
  5
D45
 10
1204.42
 20
-15.0517
 30
0.000000
  70
    32
  0
VERTEX
  8
┌▓È_1
  5
D46
 10
1204.46
 20
-15.0907
 30
0.000000
  70
    32
  0
VERTEX
  8
┌▓È_1
  5
D47
 10
1204.50
 20
-15.1297
 30
0.000000
  70
    32
  0
VERTEX
  8
┌▓È_1
  5
D48
 10
1204.55
 20
-15.1686
 30
0.000000
  70
    32
  0
VERTEX
  8
┌▓È_1
  5
D49
 10
1204.59
 20
-15.2076
 30
0.000000
  70
    32
  0
VERTEX
  8
┌▓È_1
  5
D4A
 10
1204.63
 20
-15.2466
 30
0.000000
  70
    32
  0
VERTEX
  8
┌▓È_1
  5
D4B
 10
1204.68
 20
-15.2856
 30
0.000000
  70
    32
  0
VERTEX
  8
┌▓È_1
  5
D4C
 10
1204.72
 20
-15.3245
 30
0.000000
  70
    32
  0
VERTEX
  8
┌▓È_1
  5
D4D
 10
1204.77
 20
-15.3635
 30
0.000000
  70
    32
  0
VERTEX
  8
┌▓È_1
  5
D4E
 10
1204.81
 20
-15.4025
 30
0.000000
  70
    32
  0
VERTEX
  8
┌▓È_1
  5
D4F
 10
1204.86
 20
-15.4415
 30
0.000000
  70
    32
  0
VERTEX
  8
┌▓È_1
  5
D50
 10
1204.91
 20
-15.4804
 30
0.000000
  70
    32
  0
VERTEX
  8
┌▓È_1
  5
D51
 10
1204.95
 20
-15.5194
 30
0.000000
  70
    32
  0
VERTEX
  8
┌▓È_1
  5
D52
 10
1205.00
 20
-15.5584
 30
0.000000
  70
    32
  0
VERTEX
  8
┌▓È_1
  5
D53
 10
1205.05
 20
-15.5974
 30
0.000000
  70
    32
  0
VERTEX
  8
┌▓È_1
  5
D54
 10
1205.10
 20
-15.6363
 30
0.000000
  70
    32
  0
VERTEX
  8
┌▓È_1
  5
D55
 10
1205.14
 20
-15.6753
 30
0.000000
  70
    32
  0
VERTEX
  8
┌▓È_1
  5
D56
 10
1205.19
 20
-15.7143
 30
0.000000
  70
    32
  0
VERTEX
  8
┌▓È_1
  5
D57
 10
1205.24
 20
-15.7532
 30
0.000000
  70
    32
  0
SEQEND
  8
┌▓È_1
  5
D58
  0
LINE
  5
37B
  8
┌▓È_1
 62
     5
 10
1205.2401628717
 20
-70.050770191799984
 30
0.0
 11
1206.7401628717
 21
-70.050770191799984
 31
0.0
  0
ARC
  5
37C
  8
┌▓È_1
 62
     5
 10
1203.2401628717
 20
-21.080049382599999
 30
0.0
 40
2.0
 50
0.0
 51
52.797132081999997
  0
LINE
  5
37D
  8
┌▓È_1
 62
     5
 10
1240.480999935
 20
-71.441655107000003
 30
0.0
 11
1308.2846685643001
 21
-71.086632683800005
 31
0.0
  0
LINE
  5
37E
  8
┌▓È_1
 62
     5
 10
1240.480999935
 20
27.0401147233
 30
0.0
 11
1308.2846685643001
 21
26.685092300200001
 31
0.0
  0
LINE
  5
37F
  8
┌▓È_1
 62
     5
 10
1344.9541143532999
 20
18.930405401000002
 30
0.0
 11
1316.6493387477001
 21
19.424467097000001
 31
0.0
  0
ARC
  5
380
  8
┌▓È_1
 62
     5
 10
1308.2401628717
 20
-62.586749199700002
 30
0.0
 40
8.5
 50
270.30000000000001
 51
351.61667609839998
  0
LINE
  5
381
  8
┌▓È_1
 62
     5
 10
1346.7401628717
 20
-62.300770191800012
 30
0.0
 11
1344.9541143532999
 21
-63.331945784699997
 31
0.0
  0
LINE
  5
382
  8
┌▓È_1
 62
     5
 10
1346.7401628717
 20
-62.300770191800012
 30
0.0
 11
1346.7401628717
 21
-48.700770191799997
 31
0.0
  0
LINE
  5
383
  8
┌▓È_1
 62
     5
 10
1316.6493387477001
 20
19.424467097000001
 30
0.0
 11
1316.6493387477001
 21
-63.826007480599998
 31
0.0
  0
LINE
  5
384
  8
┌▓È_1
 62
     5
 10
1344.9541143532999
 20
18.930405401000002
 30
0.0
 11
1344.9541143532999
 21
-63.331945784699997
 31
0.0
  0
ARC
  5
385
  8
┌▓È_1
 62
     5
 10
1308.2401628717
 20
18.185208816100001
 30
0.0
 40
8.5
 50
8.3833239015999972
 51
89.700000000000003
  0
LINE
  5
386
  8
┌▓È_1
 62
     5
 10
1346.7401628717
 20
-22.2007701918
 30
0.0
 11
1346.7401628717
 21
4.2992298081999989
 31
0.0
  0
LINE
  5
387
  8
┌▓È_1
 62
     5
 10
1346.7401628717
 20
-22.2007701918
 30
0.0
 11
1346.7401628717
 21
-48.700770191799997
 31
0.0
  0
LINE
  5
388
  8
┌▓È_1
 62
     5
 10
1344.9541143532999
 20
-63.331945784699997
 30
0.0
 11
1316.6493387477001
 21
-63.826007480599998
 31
0.0
  0
LINE
  5
389
  8
┌▓È_1
 62
     5
 10
1346.7401628717
 20
17.899229808200001
 30
0.0
 11
1344.9541143532999
 21
18.930405401000002
 31
0.0
  0
LINE
  5
38A
  8
┌▓È_1
 62
     5
 10
1346.7401628717
 20
17.899229808200001
 30
0.0
 11
1346.7401628717
 21
4.2992298081999989
 31
0.0
  0
ENDBLK
  5
38B
  8
0
  0
BLOCK
  8
0
  2
CLUMP7
 70
     0
 10
0.0
 20
0.0
 30
0.0
  3
CLUMP7
  1

  0
LINE
  5
398
  8
┌▓È_1
 62
     5
 10
1155.2401518752999
 20
-95.200923135200014
 30
0.0
 11
1155.2401518752999
 21
-94.500923135199997
 31
0.0
  0
ARC
  5
399
  8
┌▓È_1
 62
     5
 10
1189.5401518752999
 20
-95.200923135200014
 30
0.0
 40
0.7
 50
0.0
 51
90.0
  0
LINE
  5
39A
  8
┌▓È_1
 62
     5
 10
1190.2401518752999
 20
-95.200923135200014
 30
0.0
 11
1190.2401518752999
 21
-101.5009231352
 31
0.0
  0
LINE
  5
39B
  8
┌▓È_1
 62
     5
 10
1189.5401518752999
 20
-95.200923135200014
 30
0.0
 11
1189.5401518752999
 21
-101.5009231352
 31
0.0
  0
LINE
  5
39C
  8
┌▓È_1
 62
     5
 10
1190.2401518752999
 20
-101.5009231352
 30
0.0
 11
1189.5401518752999
 21
-101.5009231352
 31
0.0
  0
LINE
  5
39D
  8
┌▓È_1
 62
     5
 10
1155.2401518752999
 20
-94.500923135199997
 30
0.0
 11
1189.5401518752999
 21
-94.500923135199997
 31
0.0
  0
LINE
  5
39E
  8
┌▓È_1
 62
     5
 10
1155.2401518752999
 20
-95.200923135200014
 30
0.0
 11
1189.5401518752999
 21
-95.200923135200014
 31
0.0
  0
ENDBLK
  5
39F
  8
0
  0
BLOCK
  8
0
  2
CLUMP8
 70
     0
 10
0.0
 20
0.0
 30
0.0
  3
CLUMP8
  1

  0
ARC
  5
3A3
  8
┌▓È_1
 62
     5
 10
800.52482619859995
 20
17.7995811069
 30
0.0
 40
4.0
 50
270.0
 51
90.0
  0
LINE
  5
3A4
  8
┌▓È_1
 62
     5
 10
792.52482619859995
 20
13.7995811069
 30
0.0
 11
800.52482619859995
 21
13.7995811069
 31
0.0
  0
LINE
  5
3A5
  8
┌▓È_1
 62
     5
 10
800.52482619859995
 20
21.7995811069
 30
0.0
 11
792.52482619859995
 21
21.7995811069
 31
0.0
  0
ARC
  5
3A6
  8
┌▓È_1
 62
     5
 10
792.52482619859995
 20
17.7995811069
 30
0.0
 40
4.0
 50
90.0
 51
270.0
  0
ENDBLK
  5
3A7
  8
0
  0
BLOCK
  8
0
  2
CLUMP9
 70
     0
 10
0.0
 20
0.0
 30
0.0
  3
CLUMP9
  1

  0
ARC
  5
3AB
  8
┌▓È_1
 62
     5
 10
730.52482619859995
 20
17.7995811069
 30
0.0
 40
4.0
 50
270.0
 51
90.0
  0
LINE
  5
3AC
  8
┌▓È_1
 62
     5
 10
722.52482619859995
 20
13.7995811069
 30
0.0
 11
730.52482619859995
 21
13.7995811069
 31
0.0
  0
LINE
  5
3AD
  8
┌▓È_1
 62
     5
 10
730.52482619859995
 20
21.7995811069
 30
0.0
 11
722.52482619859995
 21
21.7995811069
 31
0.0
  0
ARC
  5
3AE
  8
┌▓È_1
 62
     5
 10
722.52482619859995
 20
17.7995811069
 30
0.0
 40
4.0
 50
90.0
 51
270.0
  0
ENDBLK
  5
3AF
  8
0
  0
BLOCK
  8
0
  2
CLUMP10
 70
     0
 10
0.0
 20
0.0
 30
0.0
  3
CLUMP10
  1

  0
ARC
  5
3B3
  8
┌▓È_1
 62
     5
 10
660.52482619859995
 20
17.7995811069
 30
0.0
 40
4.0
 50
270.0
 51
90.0
  0
LINE
  5
3B4
  8
┌▓È_1
 62
     5
 10
652.52482619859995
 20
13.7995811069
 30
0.0
 11
660.52482619859995
 21
13.7995811069
 31
0.0
  0
LINE
  5
3B5
  8
┌▓È_1
 62
     5
 10
660.52482619859995
 20
21.7995811069
 30
0.0
 11
652.52482619859995
 21
21.7995811069
 31
0.0
  0
ARC
  5
3B6
  8
┌▓È_1
 62
     5
 10
652.52482619859995
 20
17.7995811069
 30
0.0
 40
4.0
 50
90.0
 51
270.0
  0
ENDBLK
  5
3B7
  8
0
  0
BLOCK
  8
0
  2
CLUMP11
 70
     0
 10
0.0
 20
0.0
 30
0.0
  3
CLUMP11
  1

  0
ARC
  5
3BB
  8
┌▓È_1
 62
     5
 10
801.02482619859995
 20
-62.2004188931
 30
0.0
 40
4.0
 50
270.0
 51
90.0
  0
LINE
  5
3BC
  8
┌▓È_1
 62
     5
 10
793.02482619859995
 20
-66.200418893100007
 30
0.0
 11
801.02482619859995
 21
-66.200418893100007
 31
0.0
  0
LINE
  5
3BD
  8
┌▓È_1
 62
     5
 10
801.02482619859995
 20
-58.200418893100007
 30
0.0
 11
793.02482619859995
 21
-58.200418893100007
 31
0.0
  0
ARC
  5
3BE
  8
┌▓È_1
 62
     5
 10
793.02482619859995
 20
-62.2004188931
 30
0.0
 40
4.0
 50
90.0
 51
270.0
  0
ENDBLK
  5
3BF
  8
0
  0
BLOCK
  8
0
  2
CLUMP12
 70
     0
 10
0.0
 20
0.0
 30
0.0
  3
CLUMP12
  1

  0
ARC
  5
3C3
  8
┌▓È_1
 62
     5
 10
695.52482619859995
 20
-22.2004188931
 30
0.0
 40
4.0
 50
270.0
 51
90.0
  0
LINE
  5
3C4
  8
┌▓È_1
 62
     5
 10
687.52482619859995
 20
-26.2004188931
 30
0.0
 11
695.52482619859995
 21
-26.2004188931
 31
0.0
  0
LINE
  5
3C5
  8
┌▓È_1
 62
     5
 10
695.52482619859995
 20
-18.2004188931
 30
0.0
 11
687.52482619859995
 21
-18.2004188931
 31
0.0
  0
ARC
  5
3C6
  8
┌▓È_1
 62
     5
 10
687.52482619859995
 20
-22.2004188931
 30
0.0
 40
4.0
 50
90.0
 51
270.0
  0
ENDBLK
  5
3C7
  8
0
  0
BLOCK
  8
0
  2
CLUMP13
 70
     0
 10
0.0
 20
0.0
 30
0.0
  3
CLUMP13
  1

  0
ARC
  5
3CB
  8
┌▓È_1
 62
     5
 10
731.02482619859995
 20
-62.2004188931
 30
0.0
 40
4.0
 50
270.0
 51
90.0
  0
LINE
  5
3CC
  8
┌▓È_1
 62
     5
 10
723.02482619859995
 20
-66.200418893100007
 30
0.0
 11
731.02482619859995
 21
-66.200418893100007
 31
0.0
  0
LINE
  5
3CD
  8
┌▓È_1
 62
     5
 10
731.02482619859995
 20
-58.200418893100007
 30
0.0
 11
723.02482619859995
 21
-58.200418893100007
 31
0.0
  0
ARC
  5
3CE
  8
┌▓È_1
 62
     5
 10
723.02482619859995
 20
-62.2004188931
 30
0.0
 40
4.0
 50
90.0
 51
270.0
  0
ENDBLK
  5
3CF
  8
0
  0
BLOCK
  8
0
  2
CLUMP14
 70
     0
 10
0.0
 20
0.0
 30
0.0
  3
CLUMP14
  1

  0
ARC
  5
3D3
  8
┌▓È_1
 62
     5
 10
661.02482619859995
 20
-62.2004188931
 30
0.0
 40
4.0
 50
270.0
 51
90.0
  0
LINE
  5
3D4
  8
┌▓È_1
 62
     5
 10
653.02482619859995
 20
-66.200418893100007
 30
0.0
 11
661.02482619859995
 21
-66.200418893100007
 31
0.0
  0
LINE
  5
3D5
  8
┌▓È_1
 62
     5
 10
661.02482619859995
 20
-58.200418893100007
 30
0.0
 11
653.02482619859995
 21
-58.200418893100007
 31
0.0
  0
ARC
  5
3D6
  8
┌▓È_1
 62
     5
 10
653.02482619859995
 20
-62.2004188931
 30
0.0
 40
4.0
 50
90.0
 51
270.0
  0
ENDBLK
  5
3D7
  8
0
  0
BLOCK
  8
0
  2
CLUMP15
 70
     0
 10
0.0
 20
0.0
 30
0.0
  3
CLUMP15
  1

  0
ARC
  5
3DB
  8
┌▓È_1
 62
     5
 10
591.02482619859995
 20
-62.2004188931
 30
0.0
 40
4.0
 50
270.0
 51
90.0
  0
LINE
  5
3DC
  8
┌▓È_1
 62
     5
 10
583.02482619859995
 20
-66.200418893100007
 30
0.0
 11
591.02482619859995
 21
-66.200418893100007
 31
0.0
  0
LINE
  5
3DD
  8
┌▓È_1
 62
     5
 10
591.02482619859995
 20
-58.200418893100007
 30
0.0
 11
583.02482619859995
 21
-58.200418893100007
 31
0.0
  0
ARC
  5
3DE
  8
┌▓È_1
 62
     5
 10
583.02482619859995
 20
-62.2004188931
 30
0.0
 40
4.0
 50
90.0
 51
270.0
  0
ENDBLK
  5
3DF
  8
0
  0
BLOCK
  8
0
  2
CLUMP16
 70
     0
 10
0.0
 20
0.0
 30
0.0
  3
CLUMP16
  1

  0
ARC
  5
3E8
  8
┌▓È_1
 62
     5
 10
905.52482619859995
 20
-22.2004188931
 30
0.0
 40
4.0
 50
270.0
 51
90.0
  0
LINE
  5
3E9
  8
┌▓È_1
 62
     5
 10
897.52482619859995
 20
-26.2004188931
 30
0.0
 11
905.52482619859995
 21
-26.2004188931
 31
0.0
  0
LINE
  5
3EA
  8
┌▓È_1
 62
     5
 10
905.52482619859995
 20
-18.2004188931
 30
0.0
 11
897.52482619859995
 21
-18.2004188931
 31
0.0
  0
ARC
  5
3EB
  8
┌▓È_1
 62
     5
 10
897.52482619859995
 20
-22.2004188931
 30
0.0
 40
4.0
 50
90.0
 51
270.0
  0
ENDBLK
  5
3EC
  8
0
  0
BLOCK
  8
0
  2
CLUMP17
 70
     0
 10
0.0
 20
0.0
 30
0.0
  3
CLUMP17
  1

  0
ARC
  5
3F1
  8
┌▓È_1
 62
     5
 10
765.52482619859995
 20
-22.2004188931
 30
0.0
 40
4.0
 50
270.0
 51
90.0
  0
LINE
  5
3F2
  8
┌▓È_1
 62
     5
 10
757.52482619859995
 20
-26.2004188931
 30
0.0
 11
765.52482619859995
 21
-26.2004188931
 31
0.0
  0
LINE
  5
3F3
  8
┌▓È_1
 62
     5
 10
765.52482619859995
 20
-18.2004188931
 30
0.0
 11
757.52482619859995
 21
-18.2004188931
 31
0.0
  0
ARC
  5
3F4
  8
┌▓È_1
 62
     5
 10
757.52482619859995
 20
-22.2004188931
 30
0.0
 40
4.0
 50
90.0
 51
270.0
  0
ENDBLK
  5
3F5
  8
0
  0
BLOCK
  8
0
  2
CLUMP18
 70
     0
 10
0.0
 20
0.0
 30
0.0
  3
CLUMP18
  1

  0
ARC
  5
3F9
  8
┌▓È_1
 62
     5
 10
450.5248261985999
 20
17.7995811069
 30
0.0
 40
4.0
 50
270.0
 51
90.0
  0
LINE
  5
3FA
  8
┌▓È_1
 62
     5
 10
442.5248261985999
 20
13.7995811069
 30
0.0
 11
450.5248261985999
 21
13.7995811069
 31
0.0
  0
LINE
  5
3FB
  8
┌▓È_1
 62
     5
 10
450.5248261985999
 20
21.7995811069
 30
0.0
 11
442.5248261985999
 21
21.7995811069
 31
0.0
  0
ARC
  5
3FC
  8
┌▓È_1
 62
     5
 10
442.5248261985999
 20
17.7995811069
 30
0.0
 40
4.0
 50
90.0
 51
270.0
  0
ENDBLK
  5
3FD
  8
0
  0
BLOCK
  8
0
  2
CLUMP19
 70
     0
 10
0.0
 20
0.0
 30
0.0
  3
CLUMP19
  1

  0
ARC
  5
401
  8
┌▓È_1
 62
     5
 10
625.52482619859995
 20
-22.2004188931
 30
0.0
 40
4.0
 50
270.0
 51
90.0
  0
LINE
  5
402
  8
┌▓È_1
 62
     5
 10
617.52482619859995
 20
-26.2004188931
 30
0.0
 11
625.52482619859995
 21
-26.2004188931
 31
0.0
  0
LINE
  5
403
  8
┌▓È_1
 62
     5
 10
625.52482619859995
 20
-18.2004188931
 30
0.0
 11
617.52482619859995
 21
-18.2004188931
 31
0.0
  0
ARC
  5
404
  8
┌▓È_1
 62
     5
 10
617.52482619859995
 20
-22.2004188931
 30
0.0
 40
4.0
 50
90.0
 51
270.0
  0
ENDBLK
  5
405
  8
0
  0
BLOCK
  8
0
  2
CLUMP20
 70
     0
 10
0.0
 20
0.0
 30
0.0
  3
CLUMP20
  1

  0
ARC
  5
413
  8
┌▓È_1
 62
     5
 10
520.52482619859995
 20
17.7995811069
 30
0.0
 40
4.0
 50
270.0
 51
90.0
  0
LINE
  5
414
  8
┌▓È_1
 62
     5
 10
512.52482619859995
 20
13.7995811069
 30
0.0
 11
520.52482619859995
 21
13.7995811069
 31
0.0
  0
LINE
  5
415
  8
┌▓È_1
 62
     5
 10
520.52482619859995
 20
21.7995811069
 30
0.0
 11
512.52482619859995
 21
21.7995811069
 31
0.0
  0
ARC
  5
416
  8
┌▓È_1
 62
     5
 10
512.52482619859995
 20
17.7995811069
 30
0.0
 40
4.0
 50
90.0
 51
270.0
  0
ENDBLK
  5
417
  8
0
  0
BLOCK
  8
0
  2
CLUMP21
 70
     0
 10
0.0
 20
0.0
 30
0.0
  3
CLUMP21
  1

  0
ARC
  5
41D
  8
┌▓È_1
 62
     5
 10
555.52482619859995
 20
-22.2004188931
 30
0.0
 40
4.0
 50
270.0
 51
90.0
  0
LINE
  5
41E
  8
┌▓È_1
 62
     5
 10
547.52482619859995
 20
-26.2004188931
 30
0.0
 11
555.52482619859995
 21
-26.2004188931
 31
0.0
  0
LINE
  5
41F
  8
┌▓È_1
 62
     5
 10
555.52482619859995
 20
-18.2004188931
 30
0.0
 11
547.52482619859995
 21
-18.2004188931
 31
0.0
  0
ARC
  5
420
  8
┌▓È_1
 62
     5
 10
547.52482619859995
 20
-22.2004188931
 30
0.0
 40
4.0
 50
90.0
 51
270.0
  0
ENDBLK
  5
421
  8
0
  0
BLOCK
  8
0
  2
CLUMP22
 70
     0
 10
0.0
 20
0.0
 30
0.0
  3
CLUMP22
  1

  0
ARC
  5
42B
  8
┌▓È_1
 62
     5
 10
870.52482619859995
 20
17.7995811069
 30
0.0
 40
4.0
 50
270.0
 51
90.0
  0
LINE
  5
42C
  8
┌▓È_1
 62
     5
 10
862.52482619859995
 20
13.7995811069
 30
0.0
 11
870.52482619859995
 21
13.7995811069
 31
0.0
  0
LINE
  5
42D
  8
┌▓È_1
 62
     5
 10
870.52482619859995
 20
21.7995811069
 30
0.0
 11
862.52482619859995
 21
21.7995811069
 31
0.0
  0
ARC
  5
42E
  8
┌▓È_1
 62
     5
 10
862.52482619859995
 20
17.7995811069
 30
0.0
 40
4.0
 50
90.0
 51
270.0
  0
ENDBLK
  5
42F
  8
0
  0
BLOCK
  8
0
  2
CLUMP23
 70
     0
 10
0.0
 20
0.0
 30
0.0
  3
CLUMP23
  1

  0
ARC
  5
434
  8
┌▓È_1
 62
     5
 10
590.52482619859995
 20
17.7995811069
 30
0.0
 40
4.0
 50
270.0
 51
90.0
  0
LINE
  5
435
  8
┌▓È_1
 62
     5
 10
582.52482619859995
 20
13.7995811069
 30
0.0
 11
590.52482619859995
 21
13.7995811069
 31
0.0
  0
LINE
  5
436
  8
┌▓È_1
 62
     5
 10
590.52482619859995
 20
21.7995811069
 30
0.0
 11
582.52482619859995
 21
21.7995811069
 31
0.0
  0
ARC
  5
437
  8
┌▓È_1
 62
     5
 10
582.52482619859995
 20
17.7995811069
 30
0.0
 40
4.0
 50
90.0
 51
270.0
  0
ENDBLK
  5
438
  8
0
  0
BLOCK
  8
0
  2
CLUMP24
 70
     0
 10
0.0
 20
0.0
 30
0.0
  3
CLUMP24
  1

  0
ARC
  5
43F
  8
┌▓È_1
 62
     5
 10
941.02482619859995
 20
-62.2004188931
 30
0.0
 40
4.0
 50
270.0
 51
90.0
  0
LINE
  5
440
  8
┌▓È_1
 62
     5
 10
933.02482619859995
 20
-66.200418893100007
 30
0.0
 11
941.02482619859995
 21
-66.200418893100007
 31
0.0
  0
LINE
  5
441
  8
┌▓È_1
 62
     5
 10
941.02482619859995
 20
-58.200418893100007
 30
0.0
 11
933.02482619859995
 21
-58.200418893100007
 31
0.0
  0
ARC
  5
442
  8
┌▓È_1
 62
     5
 10
933.02482619859995
 20
-62.2004188931
 30
0.0
 40
4.0
 50
90.0
 51
270.0
  0
ENDBLK
  5
443
  8
0
  0
BLOCK
  8
0
  2
CLUMP25
 70
     0
 10
0.0
 20
0.0
 30
0.0
  3
CLUMP25
  1

  0
ARC
  5
447
  8
┌▓È_1
 62
     5
 10
940.52482619859995
 20
17.7995811069
 30
0.0
 40
4.0
 50
270.0
 51
90.0
  0
LINE
  5
448
  8
┌▓È_1
 62
     5
 10
932.52482619859995
 20
13.7995811069
 30
0.0
 11
940.52482619859995
 21
13.7995811069
 31
0.0
  0
LINE
  5
449
  8
┌▓È_1
 62
     5
 10
940.52482619859995
 20
21.7995811069
 30
0.0
 11
932.52482619859995
 21
21.7995811069
 31
0.0
  0
ARC
  5
44A
  8
┌▓È_1
 62
     5
 10
932.52482619859995
 20
17.7995811069
 30
0.0
 40
4.0
 50
90.0
 51
270.0
  0
ENDBLK
  5
44B
  8
0
  0
BLOCK
  8
0
  2
CLUMP26
 70
     0
 10
0.0
 20
0.0
 30
0.0
  3
CLUMP26
  1

  0
ARC
  5
44F
  8
┌▓È_1
 62
     5
 10
871.02482619859995
 20
-62.2004188931
 30
0.0
 40
4.0
 50
270.0
 51
90.0
  0
LINE
  5
450
  8
┌▓È_1
 62
     5
 10
863.02482619859995
 20
-66.200418893100007
 30
0.0
 11
871.02482619859995
 21
-66.200418893100007
 31
0.0
  0
LINE
  5
451
  8
┌▓È_1
 62
     5
 10
871.02482619859995
 20
-58.200418893100007
 30
0.0
 11
863.02482619859995
 21
-58.200418893100007
 31
0.0
  0
ARC
  5
452
  8
┌▓È_1
 62
     5
 10
863.02482619859995
 20
-62.2004188931
 30
0.0
 40
4.0
 50
90.0
 51
270.0
  0
ENDBLK
  5
453
  8
0
  0
BLOCK
  8
0
  2
CLUMP27
 70
     0
 10
0.0
 20
0.0
 30
0.0
  3
CLUMP27
  1

  0
ARC
  5
458
  8
┌▓È_1
 62
     5
 10
451.0248261985999
 20
-62.2004188931
 30
0.0
 40
4.0
 50
270.0
 51
90.0
  0
LINE
  5
459
  8
┌▓È_1
 62
     5
 10
443.02482619860001
 20
-66.200418893100007
 30
0.0
 11
451.0248261985999
 21
-66.200418893100007
 31
0.0
  0
LINE
  5
45A
  8
┌▓È_1
 62
     5
 10
451.0248261985999
 20
-58.200418893100007
 30
0.0
 11
443.02482619860001
 21
-58.200418893100007
 31
0.0
  0
ARC
  5
45B
  8
┌▓È_1
 62
     5
 10
443.02482619860001
 20
-62.2004188931
 30
0.0
 40
4.0
 50
90.0
 51
270.0
  0
ENDBLK
  5
45C
  8
0
  0
BLOCK
  8
0
  2
CLUMP28
 70
     0
 10
0.0
 20
0.0
 30
0.0
  3
CLUMP28
  1

  0
ARC
  5
460
  8
┌▓È_1
 62
     5
 10
835.52482619859995
 20
-22.2004188931
 30
0.0
 40
4.0
 50
270.0
 51
90.0
  0
LINE
  5
461
  8
┌▓È_1
 62
     5
 10
827.52482619859995
 20
-26.2004188931
 30
0.0
 11
835.52482619859995
 21
-26.2004188931
 31
0.0
  0
LINE
  5
462
  8
┌▓È_1
 62
     5
 10
835.52482619859995
 20
-18.2004188931
 30
0.0
 11
827.52482619859995
 21
-18.2004188931
 31
0.0
  0
ARC
  5
463
  8
┌▓È_1
 62
     5
 10
827.52482619859995
 20
-22.2004188931
 30
0.0
 40
4.0
 50
90.0
 51
270.0
  0
ENDBLK
  5
464
  8
0
  0
BLOCK
  8
0
  2
CLUMP29
 70
     0
 10
0.0
 20
0.0
 30
0.0
  3
CLUMP29
  1

  0
ARC
  5
47F
  8
┌▓È_1
 62
     5
 10
485.52482619860001
 20
-22.2004188931
 30
0.0
 40
4.0
 50
270.0
 51
90.0
  0
LINE
  5
480
  8
┌▓È_1
 62
     5
 10
477.52482619860001
 20
-26.2004188931
 30
0.0
 11
485.52482619860001
 21
-26.2004188931
 31
0.0
  0
LINE
  5
481
  8
┌▓È_1
 62
     5
 10
485.52482619860001
 20
-18.2004188931
 30
0.0
 11
477.52482619860001
 21
-18.2004188931
 31
0.0
  0
ARC
  5
482
  8
┌▓È_1
 62
     5
 10
477.52482619860001
 20
-22.2004188931
 30
0.0
 40
4.0
 50
90.0
 51
270.0
  0
ENDBLK
  5
483
  8
0
  0
BLOCK
  8
0
  2
CLUMP30
 70
     0
 10
0.0
 20
0.0
 30
0.0
  3
CLUMP30
  1

  0
ARC
  5
487
  8
┌▓È_1
 62
     5
 10
521.02482619859995
 20
-62.2004188931
 30
0.0
 40
4.0
 50
270.0
 51
90.0
  0
LINE
  5
488
  8
┌▓È_1
 62
     5
 10
513.02482619859995
 20
-66.200418893100007
 30
0.0
 11
521.02482619859995
 21
-66.200418893100007
 31
0.0
  0
LINE
  5
489
  8
┌▓È_1
 62
     5
 10
521.02482619859995
 20
-58.200418893100007
 30
0.0
 11
513.02482619859995
 21
-58.200418893100007
 31
0.0
  0
ARC
  5
48A
  8
┌▓È_1
 62
     5
 10
513.02482619859995
 20
-62.2004188931
 30
0.0
 40
4.0
 50
90.0
 51
270.0
  0
ENDBLK
  5
48B
  8
0
  0
BLOCK
  8
0
  2
CLUMP31
 70
     0
 10
0.0
 20
0.0
 30
0.0
  3
CLUMP31
  1

  0
ARC
  5
4D6
  8
┌▓È_1
 62
     5
 10
650.7751816617
 20
-366.63820890089988
 30
0.0
 40
6.5
 50
180.0
 51
270.0
  0
LINE
  5
4D7
  8
┌▓È_1
 62
     5
 10
676.73600262410002
 20
-263.6382089009
 30
0.0
 11
643.67518166169987
 21
-263.6382089009
 31
0.0
  0
LINE
  5
4D8
  8
┌▓È_1
 62
     5
 10
644.02518166169989
 20
-265.1382089009
 30
0.0
 11
689.52518166169989
 21
-265.1382089009
 31
0.0
  0
LINE
  5
4D9
  8
┌▓È_1
 62
     5
 10
644.2751816617
 20
-293.1382089009
 30
0.0
 11
664.77774226349993
 21
-293.1382089009
 31
0.0
  0
LINE
  5
4DA
  8
┌▓È_1
 62
     5
 10
650.0251816617
 20
-280.1382089009
 30
0.0
 11
651.0251816617
 21
-281.1382089009
 31
0.0
  0
LINE
  5
4DB
  8
┌▓È_1
 62
     5
 10
643.52518166169989
 20
-295.1382089009
 30
0.0
 11
664.79528954300008
 21
-295.1382089009
 31
0.0
  0
LINE
  5
4DC
  8
┌▓È_1
 62
     5
 10
650.0251816617
 20
-269.1382089009
 30
0.0
 11
651.0251816617
 21
-269.1382089009
 31
0.0
  0
LINE
  5
4DD
  8
┌▓È_1
 62
     5
 10
648.2751816617
 20
-283.1382089009
 30
0.0
 11
664.69000586579989
 21
-283.1382089009
 31
0.0
  0
LINE
  5
4DE
  8
┌▓È_1
 62
     5
 10
642.28429674649988
 20
-298.87904596419997
 30
0.0
 11
642.6393191697
 21
-366.68271459340002
 31
0.0
  0
LINE
  5
4DF
  8
┌▓È_1
 62
     5
 10
644.2751816617
 20
-295.1382089009
 30
0.0
 11
644.2751816617
 21
-366.63820890089988
 31
0.0
  0
ARC
  5
4E0
  8
┌▓È_1
 62
     5
 10
651.1392026538
 20
-366.63820890089988
 30
0.0
 40
8.5
 50
180.30000000000001
 51
261.61667609839998
  0
LINE
  5
4E1
  8
┌▓È_1
 62
     5
 10
642.5251816617
 20
-294.1382089009
 30
0.0
 11
643.52518166169989
 21
-295.1382089009
 31
0.0
  0
LINE
  5
4E2
  8
┌▓È_1
 62
     5
 10
642.5251816617
 20
-292.1382089009
 30
0.0
 11
643.52518166169989
 21
-293.1382089009
 31
0.0
  0
LINE
  5
4E3
  8
┌▓È_1
 62
     5
 10
643.52518166169989
 20
-293.1382089009
 30
0.0
 11
644.2751816617
 21
-293.1382089009
 31
0.0
  0
ARC
  5
4E4
  8
┌▓È_1
 62
     5
 10
644.2751816617
 20
-291.1382089009
 30
0.0
 40
2.0
 50
270.0
 51
0.0
  0
ARC
  5
4E5
  8
┌▓È_1
 62
     5
 10
640.53432073509987
 20
-298.8882089009
 30
0.0
 40
1.75
 50
0.3
 51
90.0
  0
LINE
  5
4E6
  8
┌▓È_1
 62
     5
 10
643.67518166169987
 20
-263.6382089009
 30
0.0
 11
643.67518166169987
 21
-265.1382089009
 31
0.0
  0
ARC
  5
4E7
  8
┌▓È_1
 62
     5
 10
648.2751816617
 20
-285.1382089009
 30
0.0
 40
2.0
 50
90.0
 51
180.0
  0
LINE
  5
4E8
  8
┌▓È_1
 62
     5
 10
647.52518166169989
 20
-273.6382089009
 30
0.0
 11
644.17518166169987
 21
-273.6382089009
 31
0.0
  0
LINE
  5
4E9
  8
┌▓È_1
 62
     5
 10
640.42518166169998
 20
-283.1382089009
 30
0.0
 11
643.52518166169989
 21
-283.1382089009
 31
0.0
  0
LINE
  5
4EA
  8
┌▓È_1
 62
     5
 10
643.67518166169987
 20
-265.1382089009
 30
0.0
 11
644.02518166169989
 21
-265.1382089009
 31
0.0
  0
LINE
  5
4EB
  8
┌▓È_1
 62
     5
 10
644.02518166169989
 20
-267.6382089009
 30
0.0
 11
644.02518166169989
 21
-265.1382089009
 31
0.0
  0
LINE
  5
4EC
  8
┌▓È_1
 62
     5
 10
640.42518166169998
 20
-283.1382089009
 30
0.0
 11
643.52518166169989
 21
-283.1382089009
 31
0.0
  0
LINE
  5
4ED
  8
┌▓È_1
 62
     5
 10
646.2751816617
 20
-285.1382089009
 30
0.0
 11
646.2751816617
 21
-291.1382089009
 31
0.0
  0
LINE
  5
4EE
  8
┌▓È_1
 62
     5
 10
640.42518166169998
 20
-281.1382089009
 30
0.0
 11
647.52518166169989
 21
-281.1382089009
 31
0.0
  0
LINE
  5
4EF
  8
┌▓È_1
 62
     5
 10
647.52518166169989
 20
-281.1382089009
 30
0.0
 11
647.52518166169989
 21
-273.6382089009
 31
0.0
  0
LINE
  5
4F0
  8
┌▓È_1
 62
     5
 10
644.17518166169987
 20
-271.1382089009
 30
0.0
 11
650.0251816617
 21
-271.1382089009
 31
0.0
  0
ARC
  5
4F1
  8
┌▓È_1
 62
     5
 10
648.02518166169989
 20
-281.1382089009
 30
0.0
 40
2.0
 50
270.0
 51
0.0
  0
LINE
  5
4F2
  8
┌▓È_1
 62
     5
 10
642.5251816617
 20
-283.1382089009
 30
0.0
 11
642.5251816617
 21
-294.1382089009
 31
0.0
  0
LINE
  5
4F3
  8
┌▓È_1
 62
     5
 10
640.42518166169998
 20
-283.1382089009
 30
0.0
 11
640.42518166169998
 21
-297.1382089009
 31
0.0
  0
LINE
  5
4F4
  8
┌▓È_1
 62
     5
 10
648.2751816617
 20
-283.1382089009
 30
0.0
 11
648.02518166169989
 21
-283.1382089009
 31
0.0
  0
LINE
  5
4F5
  8
┌▓È_1
 62
     5
 10
640.42518166169998
 20
-281.1382089009
 30
0.0
 11
640.42518166169998
 21
-283.1382089009
 31
0.0
  0
LINE
  5
4F6
  8
┌▓È_1
 62
     5
 10
644.17518166169987
 20
-273.6382089009
 30
0.0
 11
644.17518166169987
 21
-271.1382089009
 31
0.0
  0
LINE
  5
4F7
  8
┌▓È_1
 62
     5
 10
640.53432073509987
 20
-297.1382089009
 30
0.0
 11
640.42518166169998
 21
-297.1382089009
 31
0.0
  0
LINE
  5
4F8
  8
┌▓È_1
 62
     5
 10
650.0251816617
 20
-269.1382089009
 30
0.0
 11
650.0251816617
 21
-280.1382089009
 31
0.0
  0
LINE
  5
4F9
  8
┌▓È_1
 62
     5
 10
644.02518166169989
 20
-267.6382089009
 30
0.0
 11
644.02518166169989
 21
-269.6382089009
 31
0.0
  0
LINE
  5
4FA
  8
┌▓È_1
 62
     5
 10
644.02518166169989
 20
-267.6382089009
 30
0.0
 11
650.0251816617
 21
-267.6382089009
 31
0.0
  0
LINE
  5
4FB
  8
┌▓È_1
 62
     5
 10
644.02518166169989
 20
-269.6382089009
 30
0.0
 11
650.0251816617
 21
-269.63819790449998
 31
0.0
  0
LINE
  5
4FC
  8
┌▓È_1
 62
     5
 10
698.11467927080002
 20
-285.1382089009
 30
0.0
 11
693.52518166169989
 21
-285.1382089009
 31
0.0
  0
LINE
  5
4FD
  8
┌▓È_1
 62
     5
 10
694.52518169689995
 20
-288.33820890089999
 30
0.0
 11
688.52518162670003
 21
-288.33820890089999
 31
0.0
  0
ARC
  5
4FE
  8
┌▓È_1
 62
     5
 10
694.5251816617
 20
-286.6660729459
 30
0.0
 40
1.5278640450000001
 50
49.117607890900011
 51
130.88239210910001
  0
LINE
  5
4FF
  8
┌▓È_1
 62
     5
 10
691.5251816617
 20
-263.6382089009
 30
0.0
 11
739.37518166170003
 21
-263.6382089009
 31
0.0
  0
LINE
  5
500
  8
┌▓È_1
 62
     5
 10
692.92692698770009
 20
-261.6382089009
 30
0.0
 11
699.25730947320005
 21
-261.6382089009
 31
0.0
  0
LINE
  5
501
  8
┌▓È_1
 62
     5
 10
693.52518166169989
 20
-265.1382089009
 30
0.0
 11
739.02518166169989
 21
-265.1382089009
 31
0.0
  0
ARC
  5
502
  8
┌▓È_1
 62
     5
 10
694.5251816617
 20
-286.81034485589998
 30
0.0
 40
1.5278640450000001
 50
229.11760789089999
 51
310.88239210910001
  0
LINE
  5
503
  8
┌▓È_1
 62
     5
 10
688.52518151029994
 20
-285.1382089009
 30
0.0
 11
694.52518188440001
 21
-285.1382089009
 31
0.0
  0
LINE
  5
504
  8
┌▓È_1
 62
     5
 10
650.39400606879985
 20
-403.35216038250002
 30
0.0
 11
649.89994437289988
 21
-375.0473847769
 31
0.0
  0
LINE
  5
505
  8
┌▓È_1
 62
     5
 10
644.2751816617
 20
-343.1382089009
 30
0.0
 11
654.0251816617
 21
-343.1382089009
 31
0.0
  0
LINE
  5
506
  8
┌▓È_1
 62
     5
 10
723.30727651559994
 20
-373.13820890089988
 30
0.0
 11
691.5251816617
 21
-373.13820890089988
 31
0.0
  0
LINE
  5
507
  8
┌▓È_1
 62
     5
 10
691.61467927080002
 20
-347.63820890089988
 30
0.0
 11
715.96467927080005
 21
-347.63820890089988
 31
0.0
  0
LINE
  5
508
  8
┌▓È_1
 62
     5
 10
663.52295583119997
 20
-362.13820890089988
 30
0.0
 11
719.52740749210011
 21
-362.13820890089988
 31
0.0
  0
LINE
  5
509
  8
┌▓È_1
 62
     5
 10
663.52287967450002
 20
-360.13820890089988
 30
0.0
 11
719.52748364889999
 21
-360.13820890089988
 31
0.0
  0
LINE
  5
50A
  8
┌▓È_1
 62
     5
 10
691.5251816617
 20
-405.13820890089988
 30
0.0
 11
665.0251816617
 21
-405.13820890089988
 31
0.0
  0
LINE
  5
50B
  8
┌▓È_1
 62
     5
 10
691.61467927080002
 20
-347.63820890089988
 30
0.0
 11
667.26467927079989
 21
-347.63820890089988
 31
0.0
  0
LINE
  5
50C
  8
┌▓È_1
 62
     5
 10
659.74308680779995
 20
-373.13820890089988
 30
0.0
 11
691.5251816617
 21
-373.13820890089988
 31
0.0
  0
LINE
  5
50D
  8
┌▓È_1
 62
     5
 10
690.62518166170003
 20
-373.13820890089988
 30
0.0
 11
690.62518166170003
 21
-362.13820890089988
 31
0.0
  0
LINE
  5
50E
  8
┌▓È_1
 62
     5
 10
692.42518166169987
 20
-373.13820890089988
 30
0.0
 11
692.42518166169987
 21
-362.13820890089988
 31
0.0
  0
ARC
  5
50F
  8
┌▓È_1
 62
     5
 10
691.5251816617
 20
-282.33820890089999
 30
0.0
 40
6.0
 50
250.52877936549999
 51
289.47122063450001
  0
ARC
  5
510
  8
┌▓È_1
 62
     5
 10
691.5251816617
 20
-291.1382089009
 30
0.0
 40
6.0
 50
70.5287793655
 51
109.4712206345
  0
LINE
  5
511
  8
┌▓È_1
 62
     5
 10
687.84507822139994
 20
-261.6382089009
 30
0.0
 11
690.12343633570003
 21
-261.6382089009
 31
0.0
  0
LINE
  5
512
  8
┌▓È_1
 62
     5
 10
687.22247760729988
 20
-263.6382089009
 30
0.0
 11
691.5251816617
 21
-263.6382089009
 31
0.0
  0
LINE
  5
513
  8
┌▓È_1
 62
     5
 10
693.52518166169989
 20
-285.51092423680001
 30
0.0
 11
693.52518166169989
 21
-287.99506315039997
 31
0.0
  0
LINE
  5
514
  8
┌▓È_1
 62
     5
 10
690.22518166169993
 20
-291.8165625259
 30
0.0
 11
690.22518166169993
 21
-288.33820890089999
 31
0.0
  0
LINE
  5
515
  8
┌▓È_1
 62
     5
 10
692.82518166169984
 20
-291.8165625259
 30
0.0
 11
692.82518166169984
 21
-288.33820890089999
 31
0.0
  0
LINE
  5
516
  8
┌▓È_1
 62
     5
 10
692.82518166169984
 20
-291.8165625259
 30
0.0
 11
693.52518166169989
 21
-291.11656252590001
 31
0.0
  0
LINE
  5
517
  8
┌▓È_1
 62
     5
 10
689.52518166169989
 20
-291.11656252590001
 30
0.0
 11
690.22518166169993
 21
-291.8165625259
 31
0.0
  0
LINE
  5
518
  8
┌▓È_1
 62
     5
 10
690.22518166169993
 20
-291.8165625259
 30
0.0
 11
692.82518166169984
 21
-291.8165625259
 31
0.0
  0
LINE
  5
519
  8
┌▓È_1
 62
     5
 10
692.82518166169984
 20
-285.1382089009
 30
0.0
 11
692.82518166169984
 21
-263.6382089009
 31
0.0
  0
LINE
  5
51A
  8
┌▓È_1
 62
     5
 10
693.52518166169989
 20
-263.6382089009
 30
0.0
 11
693.52518166169989
 21
-285.1382089009
 31
0.0
  0
LINE
  5
51B
  8
┌▓È_1
 62
     5
 10
693.52518166169989
 20
-288.33820890089999
 30
0.0
 11
693.52518166169989
 21
-291.11656252590001
 31
0.0
  0
LINE
  5
51C
  8
┌▓È_1
 62
     5
 10
690.22518166169993
 20
-285.1382089009
 30
0.0
 11
690.22518166169993
 21
-263.6382089009
 31
0.0
  0
LINE
  5
51D
  8
┌▓È_1
 62
     5
 10
643.52518166169989
 20
-295.1382089009
 30
0.0
 11
643.52518166169989
 21
-283.1382089009
 31
0.0
  0
LINE
  5
51E
  8
┌▓È_1
 62
     5
 10
650.0251816617
 20
-267.6382089009
 30
0.0
 11
650.0251816617
 21
-269.1382089009
 31
0.0
  0
ARC
  5
51F
  8
┌▓È_1
 62
     5
 10
703.11467927080002
 20
-271.6382089009
 30
0.0
 40
5.0
 50
180.0
 51
270.0
  0
LINE
  5
520
  8
┌▓È_1
 62
     5
 10
698.11467927080002
 20
-265.1382089009
 30
0.0
 11
698.11467927080002
 21
-271.6382089009
 31
0.0
  0
ARC
  5
521
  8
┌▓È_1
 62
     5
 10
699.61467927080002
 20
-285.1382089009
 30
0.0
 40
1.5
 50
180.0
 51
270.0
  0
LINE
  5
522
  8
┌▓È_1
 62
     5
 10
698.24269608300006
 20
-259.83820890089999
 30
0.0
 11
701.42467659830004
 21
-259.83820890089999
 31
0.0
  0
ARC
  5
523
  8
┌▓È_1
 62
     5
 10
698.43323271929989
 20
-285.1382089009
 30
0.0
 40
1.5
 50
180.0
 51
270.0
  0
LINE
  5
524
  8
┌▓È_1
 62
     5
 10
729.21467927080005
 20
-271.6382089009
 30
0.0
 11
698.11467927080002
 21
-271.6382089009
 31
0.0
  0
LINE
  5
525
  8
┌▓È_1
 62
     5
 10
695.61467927080002
 20
-266.6382089009
 30
0.0
 11
695.61467927080002
 21
-265.1382089009
 31
0.0
  0
LINE
  5
526
  8
┌▓È_1
 62
     5
 10
695.5251816617
 20
-285.51092423680001
 30
0.0
 11
695.5251816617
 21
-287.96549356489999
 31
0.0
  0
POLYLINE
  8
┌▓È_1
  5
D59
  62
5
  66
     1
 10
0.000000
 20
0.000000
 30
0.000000
  70
     8
  0
VERTEX
  8
┌▓È_1
  5
D5A
 10
696.025
 20
-263.638
 30
0.000000
  70
    32
  0
VERTEX
  8
┌▓È_1
  5
D5B
 10
695.970
 20
-263.595
 30
0.000000
  70
    32
  0
VERTEX
  8
┌▓È_1
  5
D5C
 10
695.914
 20
-263.552
 30
0.000000
  70
    32
  0
VERTEX
  8
┌▓È_1
  5
D5D
 10
695.858
 20
-263.509
 30
0.000000
  70
    32
  0
VERTEX
  8
┌▓È_1
  5
D5E
 10
695.803
 20
-263.466
 30
0.000000
  70
    32
  0
VERTEX
  8
┌▓È_1
  5
D5F
 10
695.747
 20
-263.423
 30
0.000000
  70
    32
  0
VERTEX
  8
┌▓È_1
  5
D60
 10
695.691
 20
-263.380
 30
0.000000
  70
    32
  0
VERTEX
  8
┌▓È_1
  5
D61
 10
695.636
 20
-263.337
 30
0.000000
  70
    32
  0
VERTEX
  8
┌▓È_1
  5
D62
 10
695.580
 20
-263.294
 30
0.000000
  70
    32
  0
VERTEX
  8
┌▓È_1
  5
D63
 10
695.525
 20
-263.252
 30
0.000000
  70
    32
  0
VERTEX
  8
┌▓È_1
  5
D64
 10
695.469
 20
-263.209
 30
0.000000
  70
    32
  0
VERTEX
  8
┌▓È_1
  5
D65
 10
695.413
 20
-263.167
 30
0.000000
  70
    32
  0
VERTEX
  8
┌▓È_1
  5
D66
 10
695.358
 20
-263.125
 30
0.000000
  70
    32
  0
VERTEX
  8
┌▓È_1
  5
D67
 10
695.302
 20
-263.083
 30
0.000000
  70
    32
  0
VERTEX
  8
┌▓È_1
  5
D68
 10
695.246
 20
-263.041
 30
0.000000
  70
    32
  0
VERTEX
  8
┌▓È_1
  5
D69
 10
695.191
 20
-262.999
 30
0.000000
  70
    32
  0
VERTEX
  8
┌▓È_1
  5
D6A
 10
695.135
 20
-262.957
 30
0.000000
  70
    32
  0
VERTEX
  8
┌▓È_1
  5
D6B
 10
695.080
 20
-262.916
 30
0.000000
  70
    32
  0
VERTEX
  8
┌▓È_1
  5
D6C
 10
695.024
 20
-262.875
 30
0.000000
  70
    32
  0
VERTEX
  8
┌▓È_1
  5
D6D
 10
694.968
 20
-262.834
 30
0.000000
  70
    32
  0
VERTEX
  8
┌▓È_1
  5
D6E
 10
694.913
 20
-262.794
 30
0.000000
  70
    32
  0
VERTEX
  8
┌▓È_1
  5
D6F
 10
694.857
 20
-262.753
 30
0.000000
  70
    32
  0
VERTEX
  8
┌▓È_1
  5
D70
 10
694.802
 20
-262.713
 30
0.000000
  70
    32
  0
VERTEX
  8
┌▓È_1
  5
D71
 10
694.746
 20
-262.674
 30
0.000000
  70
    32
  0
VERTEX
  8
┌▓È_1
  5
D72
 10
694.690
 20
-262.634
 30
0.000000
  70
    32
  0
VERTEX
  8
┌▓È_1
  5
D73
 10
694.635
 20
-262.595
 30
0.000000
  70
    32
  0
VERTEX
  8
┌▓È_1
  5
D74
 10
694.579
 20
-262.557
 30
0.000000
  70
    32
  0
VERTEX
  8
┌▓È_1
  5
D75
 10
694.524
 20
-262.518
 30
0.000000
  70
    32
  0
VERTEX
  8
┌▓È_1
  5
D76
 10
694.468
 20
-262.480
 30
0.000000
  70
    32
  0
VERTEX
  8
┌▓È_1
  5
D77
 10
694.413
 20
-262.442
 30
0.000000
  70
    32
  0
VERTEX
  8
┌▓È_1
  5
D78
 10
694.357
 20
-262.405
 30
0.000000
  70
    32
  0
VERTEX
  8
┌▓È_1
  5
D79
 10
694.301
 20
-262.368
 30
0.000000
  70
    32
  0
VERTEX
  8
┌▓È_1
  5
D7A
 10
694.246
 20
-262.332
 30
0.000000
  70
    32
  0
VERTEX
  8
┌▓È_1
  5
D7B
 10
694.190
 20
-262.296
 30
0.000000
  70
    32
  0
VERTEX
  8
┌▓È_1
  5
D7C
 10
694.135
 20
-262.260
 30
0.000000
  70
    32
  0
VERTEX
  8
┌▓È_1
  5
D7D
 10
694.079
 20
-262.225
 30
0.000000
  70
    32
  0
VERTEX
  8
┌▓È_1
  5
D7E
 10
694.024
 20
-262.191
 30
0.000000
  70
    32
  0
VERTEX
  8
┌▓È_1
  5
D7F
 10
693.968
 20
-262.156
 30
0.000000
  70
    32
  0
VERTEX
  8
┌▓È_1
  5
D80
 10
693.913
 20
-262.123
 30
0.000000
  70
    32
  0
VERTEX
  8
┌▓È_1
  5
D81
 10
693.857
 20
-262.090
 30
0.000000
  70
    32
  0
VERTEX
  8
┌▓È_1
  5
D82
 10
693.802
 20
-262.057
 30
0.000000
  70
    32
  0
VERTEX
  8
┌▓È_1
  5
D83
 10
693.746
 20
-262.025
 30
0.000000
  70
    32
  0
VERTEX
  8
┌▓È_1
  5
D84
 10
693.691
 20
-261.993
 30
0.000000
  70
    32
  0
VERTEX
  8
┌▓È_1
  5
D85
 10
693.635
 20
-261.962
 30
0.000000
  70
    32
  0
VERTEX
  8
┌▓È_1
  5
D86
 10
693.580
 20
-261.932
 30
0.000000
  70
    32
  0
VERTEX
  8
┌▓È_1
  5
D87
 10
693.524
 20
-261.902
 30
0.000000
  70
    32
  0
VERTEX
  8
┌▓È_1
  5
D88
 10
693.469
 20
-261.873
 30
0.000000
  70
    32
  0
VERTEX
  8
┌▓È_1
  5
D89
 10
693.413
 20
-261.845
 30
0.000000
  70
    32
  0
VERTEX
  8
┌▓È_1
  5
D8A
 10
693.358
 20
-261.817
 30
0.000000
  70
    32
  0
VERTEX
  8
┌▓È_1
  5
D8B
 10
693.302
 20
-261.789
 30
0.000000
  70
    32
  0
VERTEX
  8
┌▓È_1
  5
D8C
 10
693.247
 20
-261.763
 30
0.000000
  70
    32
  0
VERTEX
  8
┌▓È_1
  5
D8D
 10
693.191
 20
-261.737
 30
0.000000
  70
    32
  0
VERTEX
  8
┌▓È_1
  5
D8E
 10
693.136
 20
-261.712
 30
0.000000
  70
    32
  0
VERTEX
  8
┌▓È_1
  5
D8F
 10
693.080
 20
-261.687
 30
0.000000
  70
    32
  0
VERTEX
  8
┌▓È_1
  5
D90
 10
693.025
 20
-261.663
 30
0.000000
  70
    32
  0
VERTEX
  8
┌▓È_1
  5
D91
 10
692.970
 20
-261.640
 30
0.000000
  70
    32
  0
VERTEX
  8
┌▓È_1
  5
D92
 10
692.914
 20
-261.618
 30
0.000000
  70
    32
  0
VERTEX
  8
┌▓È_1
  5
D93
 10
692.859
 20
-261.596
 30
0.000000
  70
    32
  0
VERTEX
  8
┌▓È_1
  5
D94
 10
692.803
 20
-261.575
 30
0.000000
  70
    32
  0
VERTEX
  8
┌▓È_1
  5
D95
 10
692.748
 20
-261.555
 30
0.000000
  70
    32
  0
VERTEX
  8
┌▓È_1
  5
D96
 10
692.693
 20
-261.536
 30
0.000000
  70
    32
  0
VERTEX
  8
┌▓È_1
  5
D97
 10
692.637
 20
-261.517
 30
0.000000
  70
    32
  0
VERTEX
  8
┌▓È_1
  5
D98
 10
692.582
 20
-261.500
 30
0.000000
  70
    32
  0
VERTEX
  8
┌▓È_1
  5
D99
 10
692.527
 20
-261.483
 30
0.000000
  70
    32
  0
VERTEX
  8
┌▓È_1
  5
D9A
 10
692.471
 20
-261.467
 30
0.000000
  70
    32
  0
VERTEX
  8
┌▓È_1
  5
D9B
 10
692.416
 20
-261.452
 30
0.000000
  70
    32
  0
VERTEX
  8
┌▓È_1
  5
D9C
 10
692.361
 20
-261.437
 30
0.000000
  70
    32
  0
VERTEX
  8
┌▓È_1
  5
D9D
 10
692.305
 20
-261.424
 30
0.000000
  70
    32
  0
VERTEX
  8
┌▓È_1
  5
D9E
 10
692.250
 20
-261.412
 30
0.000000
  70
    32
  0
VERTEX
  8
┌▓È_1
  5
D9F
 10
692.195
 20
-261.400
 30
0.000000
  70
    32
  0
VERTEX
  8
┌▓È_1
  5
DA0
 10
692.139
 20
-261.390
 30
0.000000
  70
    32
  0
VERTEX
  8
┌▓È_1
  5
DA1
 10
692.084
 20
-261.380
 30
0.000000
  70
    32
  0
VERTEX
  8
┌▓È_1
  5
DA2
 10
692.029
 20
-261.371
 30
0.000000
  70
    32
  0
VERTEX
  8
┌▓È_1
  5
DA3
 10
691.974
 20
-261.363
 30
0.000000
  70
    32
  0
VERTEX
  8
┌▓È_1
  5
DA4
 10
691.918
 20
-261.357
 30
0.000000
  70
    32
  0
VERTEX
  8
┌▓È_1
  5
DA5
 10
691.863
 20
-261.351
 30
0.000000
  70
    32
  0
VERTEX
  8
┌▓È_1
  5
DA6
 10
691.808
 20
-261.346
 30
0.000000
  70
    32
  0
VERTEX
  8
┌▓È_1
  5
DA7
 10
691.753
 20
-261.342
 30
0.000000
  70
    32
  0
VERTEX
  8
┌▓È_1
  5
DA8
 10
691.697
 20
-261.340
 30
0.000000
  70
    32
  0
VERTEX
  8
┌▓È_1
  5
DA9
 10
691.642
 20
-261.338
 30
0.000000
  70
    32
  0
VERTEX
  8
┌▓È_1
  5
DAA
 10
691.587
 20
-261.338
 30
0.000000
  70
    32
  0
VERTEX
  8
┌▓È_1
  5
DAB
 10
691.532
 20
-261.338
 30
0.000000
  70
    32
  0
VERTEX
  8
┌▓È_1
  5
DAC
 10
691.477
 20
-261.340
 30
0.000000
  70
    32
  0
VERTEX
  8
┌▓È_1
  5
DAD
 10
691.422
 20
-261.342
 30
0.000000
  70
    32
  0
VERTEX
  8
┌▓È_1
  5
DAE
 10
691.367
 20
-261.346
 30
0.000000
  70
    32
  0
VERTEX
  8
┌▓È_1
  5
DAF
 10
691.311
 20
-261.351
 30
0.000000
  70
    32
  0
VERTEX
  8
┌▓È_1
  5
DB0
 10
691.256
 20
-261.357
 30
0.000000
  70
    32
  0
VERTEX
  8
┌▓È_1
  5
DB1
 10
691.201
 20
-261.364
 30
0.000000
  70
    32
  0
VERTEX
  8
┌▓È_1
  5
DB2
 10
691.146
 20
-261.371
 30
0.000000
  70
    32
  0
VERTEX
  8
┌▓È_1
  5
DB3
 10
691.091
 20
-261.380
 30
0.000000
  70
    32
  0
VERTEX
  8
┌▓È_1
  5
DB4
 10
691.036
 20
-261.390
 30
0.000000
  70
    32
  0
VERTEX
  8
┌▓È_1
  5
DB5
 10
690.981
 20
-261.401
 30
0.000000
  70
    32
  0
VERTEX
  8
┌▓È_1
  5
DB6
 10
690.926
 20
-261.413
 30
0.000000
  70
    32
  0
VERTEX
  8
┌▓È_1
  5
DB7
 10
690.871
 20
-261.425
 30
0.000000
  70
    32
  0
VERTEX
  8
┌▓È_1
  5
DB8
 10
690.816
 20
-261.439
 30
0.000000
  70
    32
  0
VERTEX
  8
┌▓È_1
  5
DB9
 10
690.761
 20
-261.454
 30
0.000000
  70
    32
  0
VERTEX
  8
┌▓È_1
  5
DBA
 10
690.706
 20
-261.469
 30
0.000000
  70
    32
  0
VERTEX
  8
┌▓È_1
  5
DBB
 10
690.651
 20
-261.485
 30
0.000000
  70
    32
  0
VERTEX
  8
┌▓È_1
  5
DBC
 10
690.596
 20
-261.502
 30
0.000000
  70
    32
  0
VERTEX
  8
┌▓È_1
  5
DBD
 10
690.541
 20
-261.521
 30
0.000000
  70
    32
  0
VERTEX
  8
┌▓È_1
  5
DBE
 10
690.486
 20
-261.539
 30
0.000000
  70
    32
  0
VERTEX
  8
┌▓È_1
  5
DBF
 10
690.431
 20
-261.559
 30
0.000000
  70
    32
  0
VERTEX
  8
┌▓È_1
  5
DC0
 10
690.376
 20
-261.580
 30
0.000000
  70
    32
  0
VERTEX
  8
┌▓È_1
  5
DC1
 10
690.321
 20
-261.601
 30
0.000000
  70
    32
  0
VERTEX
  8
┌▓È_1
  5
DC2
 10
690.266
 20
-261.623
 30
0.000000
  70
    32
  0
VERTEX
  8
┌▓È_1
  5
DC3
 10
690.211
 20
-261.646
 30
0.000000
  70
    32
  0
VERTEX
  8
┌▓È_1
  5
DC4
 10
690.156
 20
-261.670
 30
0.000000
  70
    32
  0
VERTEX
  8
┌▓È_1
  5
DC5
 10
690.101
 20
-261.694
 30
0.000000
  70
    32
  0
VERTEX
  8
┌▓È_1
  5
DC6
 10
690.046
 20
-261.719
 30
0.000000
  70
    32
  0
VERTEX
  8
┌▓È_1
  5
DC7
 10
689.992
 20
-261.745
 30
0.000000
  70
    32
  0
VERTEX
  8
┌▓È_1
  5
DC8
 10
689.937
 20
-261.771
 30
0.000000
  70
    32
  0
VERTEX
  8
┌▓È_1
  5
DC9
 10
689.882
 20
-261.799
 30
0.000000
  70
    32
  0
VERTEX
  8
┌▓È_1
  5
DCA
 10
689.827
 20
-261.827
 30
0.000000
  70
    32
  0
VERTEX
  8
┌▓È_1
  5
DCB
 10
689.772
 20
-261.855
 30
0.000000
  70
    32
  0
VERTEX
  8
┌▓È_1
  5
DCC
 10
689.717
 20
-261.884
 30
0.000000
  70
    32
  0
VERTEX
  8
┌▓È_1
  5
DCD
 10
689.662
 20
-261.914
 30
0.000000
  70
    32
  0
VERTEX
  8
┌▓È_1
  5
DCE
 10
689.608
 20
-261.945
 30
0.000000
  70
    32
  0
VERTEX
  8
┌▓È_1
  5
DCF
 10
689.553
 20
-261.976
 30
0.000000
  70
    32
  0
VERTEX
  8
┌▓È_1
  5
DD0
 10
689.498
 20
-262.007
 30
0.000000
  70
    32
  0
VERTEX
  8
┌▓È_1
  5
DD1
 10
689.443
 20
-262.039
 30
0.000000
  70
    32
  0
VERTEX
  8
┌▓È_1
  5
DD2
 10
689.388
 20
-262.072
 30
0.000000
  70
    32
  0
VERTEX
  8
┌▓È_1
  5
DD3
 10
689.333
 20
-262.106
 30
0.000000
  70
    32
  0
VERTEX
  8
┌▓È_1
  5
DD4
 10
689.279
 20
-262.139
 30
0.000000
  70
    32
  0
VERTEX
  8
┌▓È_1
  5
DD5
 10
689.224
 20
-262.174
 30
0.000000
  70
    32
  0
VERTEX
  8
┌▓È_1
  5
DD6
 10
689.169
 20
-262.209
 30
0.000000
  70
    32
  0
VERTEX
  8
┌▓È_1
  5
DD7
 10
689.114
 20
-262.244
 30
0.000000
  70
    32
  0
VERTEX
  8
┌▓È_1
  5
DD8
 10
689.059
 20
-262.280
 30
0.000000
  70
    32
  0
VERTEX
  8
┌▓È_1
  5
DD9
 10
689.005
 20
-262.316
 30
0.000000
  70
    32
  0
VERTEX
  8
┌▓È_1
  5
DDA
 10
688.950
 20
-262.353
 30
0.000000
  70
    32
  0
VERTEX
  8
┌▓È_1
  5
DDB
 10
688.895
 20
-262.390
 30
0.000000
  70
    32
  0
VERTEX
  8
┌▓È_1
  5
DDC
 10
688.840
 20
-262.428
 30
0.000000
  70
    32
  0
VERTEX
  8
┌▓È_1
  5
DDD
 10
688.786
 20
-262.466
 30
0.000000
  70
    32
  0
VERTEX
  8
┌▓È_1
  5
DDE
 10
688.731
 20
-262.504
 30
0.000000
  70
    32
  0
VERTEX
  8
┌▓È_1
  5
DDF
 10
688.676
 20
-262.543
 30
0.000000
  70
    32
  0
VERTEX
  8
┌▓È_1
  5
DE0
 10
688.621
 20
-262.582
 30
0.000000
  70
    32
  0
VERTEX
  8
┌▓È_1
  5
DE1
 10
688.567
 20
-262.621
 30
0.000000
  70
    32
  0
VERTEX
  8
┌▓È_1
  5
DE2
 10
688.512
 20
-262.661
 30
0.000000
  70
    32
  0
VERTEX
  8
┌▓È_1
  5
DE3
 10
688.457
 20
-262.701
 30
0.000000
  70
    32
  0
VERTEX
  8
┌▓È_1
  5
DE4
 10
688.402
 20
-262.742
 30
0.000000
  70
    32
  0
VERTEX
  8
┌▓È_1
  5
DE5
 10
688.348
 20
-262.783
 30
0.000000
  70
    32
  0
VERTEX
  8
┌▓È_1
  5
DE6
 10
688.293
 20
-262.824
 30
0.000000
  70
    32
  0
VERTEX
  8
┌▓È_1
  5
DE7
 10
688.238
 20
-262.865
 30
0.000000
  70
    32
  0
VERTEX
  8
┌▓È_1
  5
DE8
 10
688.183
 20
-262.907
 30
0.000000
  70
    32
  0
VERTEX
  8
┌▓È_1
  5
DE9
 10
688.129
 20
-262.948
 30
0.000000
  70
    32
  0
VERTEX
  8
┌▓È_1
  5
DEA
 10
688.074
 20
-262.990
 30
0.000000
  70
    32
  0
VERTEX
  8
┌▓È_1
  5
DEB
 10
688.019
 20
-263.033
 30
0.000000
  70
    32
  0
VERTEX
  8
┌▓È_1
  5
DEC
 10
687.965
 20
-263.075
 30
0.000000
  70
    32
  0
VERTEX
  8
┌▓È_1
  5
DED
 10
687.910
 20
-263.118
 30
0.000000
  70
    32
  0
VERTEX
  8
┌▓È_1
  5
DEE
 10
687.855
 20
-263.161
 30
0.000000
  70
    32
  0
VERTEX
  8
┌▓È_1
  5
DEF
 10
687.800
 20
-263.203
 30
0.000000
  70
    32
  0
VERTEX
  8
┌▓È_1
  5
DF0
 10
687.746
 20
-263.247
 30
0.000000
  70
    32
  0
VERTEX
  8
┌▓È_1
  5
DF1
 10
687.691
 20
-263.290
 30
0.000000
  70
    32
  0
VERTEX
  8
┌▓È_1
  5
DF2
 10
687.636
 20
-263.333
 30
0.000000
  70
    32
  0
VERTEX
  8
┌▓È_1
  5
DF3
 10
687.582
 20
-263.376
 30
0.000000
  70
    32
  0
VERTEX
  8
┌▓È_1
  5
DF4
 10
687.527
 20
-263.420
 30
0.000000
  70
    32
  0
VERTEX
  8
┌▓È_1
  5
DF5
 10
687.472
 20
-263.464
 30
0.000000
  70
    32
  0
VERTEX
  8
┌▓È_1
  5
DF6
 10
687.418
 20
-263.507
 30
0.000000
  70
    32
  0
VERTEX
  8
┌▓È_1
  5
DF7
 10
687.363
 20
-263.551
 30
0.000000
  70
    32
  0
VERTEX
  8
┌▓È_1
  5
DF8
 10
687.308
 20
-263.595
 30
0.000000
  70
    32
  0
VERTEX
  8
┌▓È_1
  5
DF9
 10
687.253
 20
-263.638
 30
0.000000
  70
    32
  0
SEQEND
  8
┌▓È_1
  5
DFA
  0
POLYLINE
  8
┌▓È_1
  5
DFB
  62
5
  66
     1
 10
0.000000
 20
0.000000
 30
0.000000
  70
     8
  0
VERTEX
  8
┌▓È_1
  5
DFC
 10
695.559
 20
-261.638
 30
0.000000
  70
    32
  0
VERTEX
  8
┌▓È_1
  5
DFD
 10
695.599
 20
-261.592
 30
0.000000
  70
    32
  0
VERTEX
  8
┌▓È_1
  5
DFE
 10
695.639
 20
-261.546
 30
0.000000
  70
    32
  0
VERTEX
  8
┌▓È_1
  5
DFF
 10
695.678
 20
-261.501
 30
0.000000
  70
    32
  0
VERTEX
  8
┌▓È_1
  5
E00
 10
695.718
 20
-261.456
 30
0.000000
  70
    32
  0
VERTEX
  8
┌▓È_1
  5
E01
 10
695.758
 20
-261.412
 30
0.000000
  70
    32
  0
VERTEX
  8
┌▓È_1
  5
E02
 10
695.798
 20
-261.367
 30
0.000000
  70
    32
  0
VERTEX
  8
┌▓È_1
  5
E03
 10
695.838
 20
-261.324
 30
0.000000
  70
    32
  0
VERTEX
  8
┌▓È_1
  5
E04
 10
695.878
 20
-261.280
 30
0.000000
  70
    32
  0
VERTEX
  8
┌▓È_1
  5
E05
 10
695.917
 20
-261.238
 30
0.000000
  70
    32
  0
VERTEX
  8
┌▓È_1
  5
E06
 10
695.957
 20
-261.195
 30
0.000000
  70
    32
  0
VERTEX
  8
┌▓È_1
  5
E07
 10
695.997
 20
-261.153
 30
0.000000
  70
    32
  0
VERTEX
  8
┌▓È_1
  5
E08
 10
696.037
 20
-261.112
 30
0.000000
  70
    32
  0
VERTEX
  8
┌▓È_1
  5
E09
 10
696.077
 20
-261.071
 30
0.000000
  70
    32
  0
VERTEX
  8
┌▓È_1
  5
E0A
 10
696.117
 20
-261.031
 30
0.000000
  70
    32
  0
VERTEX
  8
┌▓È_1
  5
E0B
 10
696.156
 20
-260.991
 30
0.000000
  70
    32
  0
VERTEX
  8
┌▓È_1
  5
E0C
 10
696.196
 20
-260.951
 30
0.000000
  70
    32
  0
VERTEX
  8
┌▓È_1
  5
E0D
 10
696.236
 20
-260.912
 30
0.000000
  70
    32
  0
VERTEX
  8
┌▓È_1
  5
E0E
 10
696.276
 20
-260.874
 30
0.000000
  70
    32
  0
VERTEX
  8
┌▓È_1
  5
E0F
 10
696.316
 20
-260.836
 30
0.000000
  70
    32
  0
VERTEX
  8
┌▓È_1
  5
E10
 10
696.356
 20
-260.799
 30
0.000000
  70
    32
  0
VERTEX
  8
┌▓È_1
  5
E11
 10
696.395
 20
-260.762
 30
0.000000
  70
    32
  0
VERTEX
  8
┌▓È_1
  5
E12
 10
696.435
 20
-260.726
 30
0.000000
  70
    32
  0
VERTEX
  8
┌▓È_1
  5
E13
 10
696.475
 20
-260.690
 30
0.000000
  70
    32
  0
VERTEX
  8
┌▓È_1
  5
E14
 10
696.515
 20
-260.655
 30
0.000000
  70
    32
  0
VERTEX
  8
┌▓È_1
  5
E15
 10
696.555
 20
-260.621
 30
0.000000
  70
    32
  0
VERTEX
  8
┌▓È_1
  5
E16
 10
696.595
 20
-260.587
 30
0.000000
  70
    32
  0
VERTEX
  8
┌▓È_1
  5
E17
 10
696.634
 20
-260.554
 30
0.000000
  70
    32
  0
VERTEX
  8
┌▓È_1
  5
E18
 10
696.674
 20
-260.521
 30
0.000000
  70
    32
  0
VERTEX
  8
┌▓È_1
  5
E19
 10
696.714
 20
-260.489
 30
0.000000
  70
    32
  0
VERTEX
  8
┌▓È_1
  5
E1A
 10
696.754
 20
-260.458
 30
0.000000
  70
    32
  0
VERTEX
  8
┌▓È_1
  5
E1B
 10
696.794
 20
-260.427
 30
0.000000
  70
    32
  0
VERTEX
  8
┌▓È_1
  5
E1C
 10
696.834
 20
-260.397
 30
0.000000
  70
    32
  0
VERTEX
  8
┌▓È_1
  5
E1D
 10
696.873
 20
-260.368
 30
0.000000
  70
    32
  0
VERTEX
  8
┌▓È_1
  5
E1E
 10
696.913
 20
-260.339
 30
0.000000
  70
    32
  0
VERTEX
  8
┌▓È_1
  5
E1F
 10
696.953
 20
-260.311
 30
0.000000
  70
    32
  0
VERTEX
  8
┌▓È_1
  5
E20
 10
696.993
 20
-260.284
 30
0.000000
  70
    32
  0
VERTEX
  8
┌▓È_1
  5
E21
 10
697.033
 20
-260.258
 30
0.000000
  70
    32
  0
VERTEX
  8
┌▓È_1
  5
E22
 10
697.073
 20
-260.232
 30
0.000000
  70
    32
  0
VERTEX
  8
┌▓È_1
  5
E23
 10
697.112
 20
-260.207
 30
0.000000
  70
    32
  0
VERTEX
  8
┌▓È_1
  5
E24
 10
697.152
 20
-260.182
 30
0.000000
  70
    32
  0
VERTEX
  8
┌▓È_1
  5
E25
 10
697.192
 20
-260.159
 30
0.000000
  70
    32
  0
VERTEX
  8
┌▓È_1
  5
E26
 10
697.232
 20
-260.136
 30
0.000000
  70
    32
  0
VERTEX
  8
┌▓È_1
  5
E27
 10
697.272
 20
-260.114
 30
0.000000
  70
    32
  0
VERTEX
  8
┌▓È_1
  5
E28
 10
697.312
 20
-260.093
 30
0.000000
  70
    32
  0
VERTEX
  8
┌▓È_1
  5
E29
 10
697.352
 20
-260.072
 30
0.000000
  70
    32
  0
VERTEX
  8
┌▓È_1
  5
E2A
 10
697.391
 20
-260.052
 30
0.000000
  70
    32
  0
VERTEX
  8
┌▓È_1
  5
E2B
 10
697.431
 20
-260.033
 30
0.000000
  70
    32
  0
VERTEX
  8
┌▓È_1
  5
E2C
 10
697.471
 20
-260.015
 30
0.000000
  70
    32
  0
VERTEX
  8
┌▓È_1
  5
E2D
 10
697.511
 20
-259.998
 30
0.000000
  70
    32
  0
VERTEX
  8
┌▓È_1
  5
E2E
 10
697.551
 20
-259.982
 30
0.000000
  70
    32
  0
VERTEX
  8
┌▓È_1
  5
E2F
 10
697.591
 20
-259.966
 30
0.000000
  70
    32
  0
VERTEX
  8
┌▓È_1
  5
E30
 10
697.630
 20
-259.951
 30
0.000000
  70
    32
  0
VERTEX
  8
┌▓È_1
  5
E31
 10
697.670
 20
-259.937
 30
0.000000
  70
    32
  0
VERTEX
  8
┌▓È_1
  5
E32
 10
697.710
 20
-259.924
 30
0.000000
  70
    32
  0
VERTEX
  8
┌▓È_1
  5
E33
 10
697.750
 20
-259.912
 30
0.000000
  70
    32
  0
VERTEX
  8
┌▓È_1
  5
E34
 10
697.790
 20
-259.901
 30
0.000000
  70
    32
  0
VERTEX
  8
┌▓È_1
  5
E35
 10
697.830
 20
-259.891
 30
0.000000
  70
    32
  0
VERTEX
  8
┌▓È_1
  5
E36
 10
697.869
 20
-259.881
 30
0.000000
  70
    32
  0
VERTEX
  8
┌▓È_1
  5
E37
 10
697.909
 20
-259.872
 30
0.000000
  70
    32
  0
VERTEX
  8
┌▓È_1
  5
E38
 10
697.949
 20
-259.865
 30
0.000000
  70
    32
  0
VERTEX
  8
┌▓È_1
  5
E39
 10
697.989
 20
-259.858
 30
0.000000
  70
    32
  0
VERTEX
  8
┌▓È_1
  5
E3A
 10
698.029
 20
-259.852
 30
0.000000
  70
    32
  0
VERTEX
  8
┌▓È_1
  5
E3B
 10
698.069
 20
-259.848
 30
0.000000
  70
    32
  0
VERTEX
  8
┌▓È_1
  5
E3C
 10
698.108
 20
-259.844
 30
0.000000
  70
    32
  0
VERTEX
  8
┌▓È_1
  5
E3D
 10
698.148
 20
-259.841
 30
0.000000
  70
    32
  0
VERTEX
  8
┌▓È_1
  5
E3E
 10
698.188
 20
-259.839
 30
0.000000
  70
    32
  0
VERTEX
  8
┌▓È_1
  5
E3F
 10
698.228
 20
-259.838
 30
0.000000
  70
    32
  0
VERTEX
  8
┌▓È_1
  5
E40
 10
698.268
 20
-259.838
 30
0.000000
  70
    32
  0
VERTEX
  8
┌▓È_1
  5
E41
 10
698.308
 20
-259.840
 30
0.000000
  70
    32
  0
VERTEX
  8
┌▓È_1
  5
E42
 10
698.347
 20
-259.842
 30
0.000000
  70
    32
  0
VERTEX
  8
┌▓È_1
  5
E43
 10
698.387
 20
-259.845
 30
0.000000
  70
    32
  0
VERTEX
  8
┌▓È_1
  5
E44
 10
698.427
 20
-259.849
 30
0.000000
  70
    32
  0
VERTEX
  8
┌▓È_1
  5
E45
 10
698.467
 20
-259.854
 30
0.000000
  70
    32
  0
VERTEX
  8
┌▓È_1
  5
E46
 10
698.507
 20
-259.860
 30
0.000000
  70
    32
  0
VERTEX
  8
┌▓È_1
  5
E47
 10
698.547
 20
-259.867
 30
0.000000
  70
    32
  0
VERTEX
  8
┌▓È_1
  5
E48
 10
698.586
 20
-259.875
 30
0.000000
  70
    32
  0
VERTEX
  8
┌▓È_1
  5
E49
 10
698.626
 20
-259.883
 30
0.000000
  70
    32
  0
VERTEX
  8
┌▓È_1
  5
E4A
 10
698.666
 20
-259.893
 30
0.000000
  70
    32
  0
VERTEX
  8
┌▓È_1
  5
E4B
 10
698.706
 20
-259.904
 30
0.000000
  70
    32
  0
VERTEX
  8
┌▓È_1
  5
E4C
 10
698.746
 20
-259.915
 30
0.000000
  70
    32
  0
VERTEX
  8
┌▓È_1
  5
E4D
 10
698.786
 20
-259.928
 30
0.000000
  70
    32
  0
VERTEX
  8
┌▓È_1
  5
E4E
 10
698.825
 20
-259.941
 30
0.000000
  70
    32
  0
VERTEX
  8
┌▓È_1
  5
E4F
 10
698.865
 20
-259.955
 30
0.000000
  70
    32
  0
VERTEX
  8
┌▓È_1
  5
E50
 10
698.905
 20
-259.970
 30
0.000000
  70
    32
  0
VERTEX
  8
┌▓È_1
  5
E51
 10
698.945
 20
-259.986
 30
0.000000
  70
    32
  0
VERTEX
  8
┌▓È_1
  5
E52
 10
698.985
 20
-260.002
 30
0.000000
  70
    32
  0
VERTEX
  8
┌▓È_1
  5
E53
 10
699.025
 20
-260.020
 30
0.000000
  70
    32
  0
VERTEX
  8
┌▓È_1
  5
E54
 10
699.065
 20
-260.038
 30
0.000000
  70
    32
  0
VERTEX
  8
┌▓È_1
  5
E55
 10
699.104
 20
-260.057
 30
0.000000
  70
    32
  0
VERTEX
  8
┌▓È_1
  5
E56
 10
699.144
 20
-260.077
 30
0.000000
  70
    32
  0
VERTEX
  8
┌▓È_1
  5
E57
 10
699.184
 20
-260.098
 30
0.000000
  70
    32
  0
VERTEX
  8
┌▓È_1
  5
E58
 10
699.224
 20
-260.120
 30
0.000000
  70
    32
  0
VERTEX
  8
┌▓È_1
  5
E59
 10
699.264
 20
-260.142
 30
0.000000
  70
    32
  0
VERTEX
  8
┌▓È_1
  5
E5A
 10
699.304
 20
-260.165
 30
0.000000
  70
    32
  0
VERTEX
  8
┌▓È_1
  5
E5B
 10
699.343
 20
-260.189
 30
0.000000
  70
    32
  0
VERTEX
  8
┌▓È_1
  5
E5C
 10
699.383
 20
-260.213
 30
0.000000
  70
    32
  0
VERTEX
  8
┌▓È_1
  5
E5D
 10
699.423
 20
-260.238
 30
0.000000
  70
    32
  0
VERTEX
  8
┌▓È_1
  5
E5E
 10
699.463
 20
-260.264
 30
0.000000
  70
    32
  0
VERTEX
  8
┌▓È_1
  5
E5F
 10
699.503
 20
-260.291
 30
0.000000
  70
    32
  0
VERTEX
  8
┌▓È_1
  5
E60
 10
699.543
 20
-260.319
 30
0.000000
  70
    32
  0
VERTEX
  8
┌▓È_1
  5
E61
 10
699.582
 20
-260.347
 30
0.000000
  70
    32
  0
VERTEX
  8
┌▓È_1
  5
E62
 10
699.622
 20
-260.376
 30
0.000000
  70
    32
  0
VERTEX
  8
┌▓È_1
  5
E63
 10
699.662
 20
-260.405
 30
0.000000
  70
    32
  0
VERTEX
  8
┌▓È_1
  5
E64
 10
699.702
 20
-260.435
 30
0.000000
  70
    32
  0
VERTEX
  8
┌▓È_1
  5
E65
 10
699.742
 20
-260.466
 30
0.000000
  70
    32
  0
VERTEX
  8
┌▓È_1
  5
E66
 10
699.782
 20
-260.497
 30
0.000000
  70
    32
  0
VERTEX
  8
┌▓È_1
  5
E67
 10
699.821
 20
-260.530
 30
0.000000
  70
    32
  0
VERTEX
  8
┌▓È_1
  5
E68
 10
699.861
 20
-260.562
 30
0.000000
  70
    32
  0
VERTEX
  8
┌▓È_1
  5
E69
 10
699.901
 20
-260.596
 30
0.000000
  70
    32
  0
VERTEX
  8
┌▓È_1
  5
E6A
 10
699.941
 20
-260.630
 30
0.000000
  70
    32
  0
VERTEX
  8
┌▓È_1
  5
E6B
 10
699.981
 20
-260.664
 30
0.000000
  70
    32
  0
VERTEX
  8
┌▓È_1
  5
E6C
 10
700.021
 20
-260.699
 30
0.000000
  70
    32
  0
VERTEX
  8
┌▓È_1
  5
E6D
 10
700.060
 20
-260.735
 30
0.000000
  70
    32
  0
VERTEX
  8
┌▓È_1
  5
E6E
 10
700.100
 20
-260.771
 30
0.000000
  70
    32
  0
VERTEX
  8
┌▓È_1
  5
E6F
 10
700.140
 20
-260.808
 30
0.000000
  70
    32
  0
VERTEX
  8
┌▓È_1
  5
E70
 10
700.180
 20
-260.846
 30
0.000000
  70
    32
  0
VERTEX
  8
┌▓È_1
  5
E71
 10
700.220
 20
-260.884
 30
0.000000
  70
    32
  0
VERTEX
  8
┌▓È_1
  5
E72
 10
700.260
 20
-260.922
 30
0.000000
  70
    32
  0
VERTEX
  8
┌▓È_1
  5
E73
 10
700.299
 20
-260.961
 30
0.000000
  70
    32
  0
VERTEX
  8
┌▓È_1
  5
E74
 10
700.339
 20
-261.001
 30
0.000000
  70
    32
  0
VERTEX
  8
┌▓È_1
  5
E75
 10
700.379
 20
-261.041
 30
0.000000
  70
    32
  0
VERTEX
  8
┌▓È_1
  5
E76
 10
700.419
 20
-261.082
 30
0.000000
  70
    32
  0
VERTEX
  8
┌▓È_1
  5
E77
 10
700.459
 20
-261.123
 30
0.000000
  70
    32
  0
VERTEX
  8
┌▓È_1
  5
E78
 10
700.499
 20
-261.164
 30
0.000000
  70
    32
  0
VERTEX
  8
┌▓È_1
  5
E79
 10
700.538
 20
-261.206
 30
0.000000
  70
    32
  0
VERTEX
  8
┌▓È_1
  5
E7A
 10
700.578
 20
-261.249
 30
0.000000
  70
    32
  0
VERTEX
  8
┌▓È_1
  5
E7B
 10
700.618
 20
-261.292
 30
0.000000
  70
    32
  0
VERTEX
  8
┌▓È_1
  5
E7C
 10
700.658
 20
-261.335
 30
0.000000
  70
    32
  0
VERTEX
  8
┌▓È_1
  5
E7D
 10
700.698
 20
-261.379
 30
0.000000
  70
    32
  0
VERTEX
  8
┌▓È_1
  5
E7E
 10
700.738
 20
-261.423
 30
0.000000
  70
    32
  0
VERTEX
  8
┌▓È_1
  5
E7F
 10
700.777
 20
-261.468
 30
0.000000
  70
    32
  0
VERTEX
  8
┌▓È_1
  5
E80
 10
700.817
 20
-261.513
 30
0.000000
  70
    32
  0
VERTEX
  8
┌▓È_1
  5
E81
 10
700.857
 20
-261.558
 30
0.000000
  70
    32
  0
VERTEX
  8
┌▓È_1
  5
E82
 10
700.897
 20
-261.604
 30
0.000000
  70
    32
  0
VERTEX
  8
┌▓È_1
  5
E83
 10
700.937
 20
-261.650
 30
0.000000
  70
    32
  0
VERTEX
  8
┌▓È_1
  5
E84
 10
700.977
 20
-261.697
 30
0.000000
  70
    32
  0
VERTEX
  8
┌▓È_1
  5
E85
 10
701.017
 20
-261.744
 30
0.000000
  70
    32
  0
VERTEX
  8
┌▓È_1
  5
E86
 10
701.056
 20
-261.791
 30
0.000000
  70
    32
  0
VERTEX
  8
┌▓È_1
  5
E87
 10
701.096
 20
-261.839
 30
0.000000
  70
    32
  0
VERTEX
  8
┌▓È_1
  5
E88
 10
701.136
 20
-261.887
 30
0.000000
  70
    32
  0
VERTEX
  8
┌▓È_1
  5
E89
 10
701.176
 20
-261.935
 30
0.000000
  70
    32
  0
VERTEX
  8
┌▓È_1
  5
E8A
 10
701.216
 20
-261.983
 30
0.000000
  70
    32
  0
VERTEX
  8
┌▓È_1
  5
E8B
 10
701.256
 20
-262.032
 30
0.000000
  70
    32
  0
VERTEX
  8
┌▓È_1
  5
E8C
 10
701.295
 20
-262.081
 30
0.000000
  70
    32
  0
VERTEX
  8
┌▓È_1
  5
E8D
 10
701.335
 20
-262.131
 30
0.000000
  70
    32
  0
VERTEX
  8
┌▓È_1
  5
E8E
 10
701.375
 20
-262.181
 30
0.000000
  70
    32
  0
VERTEX
  8
┌▓È_1
  5
E8F
 10
701.415
 20
-262.231
 30
0.000000
  70
    32
  0
VERTEX
  8
┌▓È_1
  5
E90
 10
701.455
 20
-262.281
 30
0.000000
  70
    32
  0
VERTEX
  8
┌▓È_1
  5
E91
 10
701.495
 20
-262.331
 30
0.000000
  70
    32
  0
VERTEX
  8
┌▓È_1
  5
E92
 10
701.534
 20
-262.382
 30
0.000000
  70
    32
  0
VERTEX
  8
┌▓È_1
  5
E93
 10
701.574
 20
-262.433
 30
0.000000
  70
    32
  0
VERTEX
  8
┌▓È_1
  5
E94
 10
701.614
 20
-262.484
 30
0.000000
  70
    32
  0
VERTEX
  8
┌▓È_1
  5
E95
 10
701.654
 20
-262.535
 30
0.000000
  70
    32
  0
VERTEX
  8
┌▓È_1
  5
E96
 10
701.694
 20
-262.587
 30
0.000000
  70
    32
  0
VERTEX
  8
┌▓È_1
  5
E97
 10
701.734
 20
-262.639
 30
0.000000
  70
    32
  0
VERTEX
  8
┌▓È_1
  5
E98
 10
701.773
 20
-262.691
 30
0.000000
  70
    32
  0
VERTEX
  8
┌▓È_1
  5
E99
 10
701.813
 20
-262.743
 30
0.000000
  70
    32
  0
VERTEX
  8
┌▓È_1
  5
E9A
 10
701.853
 20
-262.795
 30
0.000000
  70
    32
  0
VERTEX
  8
┌▓È_1
  5
E9B
 10
701.893
 20
-262.847
 30
0.000000
  70
    32
  0
SEQEND
  8
┌▓È_1
  5
E9C
  0
POLYLINE
  8
┌▓È_1
  5
E9D
  62
5
  66
     1
 10
0.000000
 20
0.000000
 30
0.000000
  70
     8
  0
VERTEX
  8
┌▓È_1
  5
E9E
 10
697.228
 20
-261.638
 30
0.000000
  70
    32
  0
VERTEX
  8
┌▓È_1
  5
E9F
 10
697.254
 20
-261.624
 30
0.000000
  70
    32
  0
VERTEX
  8
┌▓È_1
  5
EA0
 10
697.280
 20
-261.610
 30
0.000000
  70
    32
  0
VERTEX
  8
┌▓È_1
  5
EA1
 10
697.306
 20
-261.596
 30
0.000000
  70
    32
  0
VERTEX
  8
┌▓È_1
  5
EA2
 10
697.332
 20
-261.582
 30
0.000000
  70
    32
  0
VERTEX
  8
┌▓È_1
  5
EA3
 10
697.357
 20
-261.569
 30
0.000000
  70
    32
  0
VERTEX
  8
┌▓È_1
  5
EA4
 10
697.383
 20
-261.556
 30
0.000000
  70
    32
  0
VERTEX
  8
┌▓È_1
  5
EA5
 10
697.409
 20
-261.544
 30
0.000000
  70
    32
  0
VERTEX
  8
┌▓È_1
  5
EA6
 10
697.435
 20
-261.532
 30
0.000000
  70
    32
  0
VERTEX
  8
┌▓È_1
  5
EA7
 10
697.461
 20
-261.520
 30
0.000000
  70
    32
  0
VERTEX
  8
┌▓È_1
  5
EA8
 10
697.487
 20
-261.508
 30
0.000000
  70
    32
  0
VERTEX
  8
┌▓È_1
  5
EA9
 10
697.513
 20
-261.497
 30
0.000000
  70
    32
  0
VERTEX
  8
┌▓È_1
  5
EAA
 10
697.539
 20
-261.487
 30
0.000000
  70
    32
  0
VERTEX
  8
┌▓È_1
  5
EAB
 10
697.564
 20
-261.476
 30
0.000000
  70
    32
  0
VERTEX
  8
┌▓È_1
  5
EAC
 10
697.590
 20
-261.466
 30
0.000000
  70
    32
  0
VERTEX
  8
┌▓È_1
  5
EAD
 10
697.616
 20
-261.456
 30
0.000000
  70
    32
  0
VERTEX
  8
┌▓È_1
  5
EAE
 10
697.642
 20
-261.447
 30
0.000000
  70
    32
  0
VERTEX
  8
┌▓È_1
  5
EAF
 10
697.668
 20
-261.438
 30
0.000000
  70
    32
  0
VERTEX
  8
┌▓È_1
  5
EB0
 10
697.694
 20
-261.430
 30
0.000000
  70
    32
  0
VERTEX
  8
┌▓È_1
  5
EB1
 10
697.720
 20
-261.421
 30
0.000000
  70
    32
  0
VERTEX
  8
┌▓È_1
  5
EB2
 10
697.745
 20
-261.413
 30
0.000000
  70
    32
  0
VERTEX
  8
┌▓È_1
  5
EB3
 10
697.771
 20
-261.406
 30
0.000000
  70
    32
  0
VERTEX
  8
┌▓È_1
  5
EB4
 10
697.797
 20
-261.399
 30
0.000000
  70
    32
  0
VERTEX
  8
┌▓È_1
  5
EB5
 10
697.823
 20
-261.392
 30
0.000000
  70
    32
  0
VERTEX
  8
┌▓È_1
  5
EB6
 10
697.849
 20
-261.386
 30
0.000000
  70
    32
  0
VERTEX
  8
┌▓È_1
  5
EB7
 10
697.875
 20
-261.380
 30
0.000000
  70
    32
  0
VERTEX
  8
┌▓È_1
  5
EB8
 10
697.901
 20
-261.374
 30
0.000000
  70
    32
  0
VERTEX
  8
┌▓È_1
  5
EB9
 10
697.927
 20
-261.369
 30
0.000000
  70
    32
  0
VERTEX
  8
┌▓È_1
  5
EBA
 10
697.952
 20
-261.364
 30
0.000000
  70
    32
  0
VERTEX
  8
┌▓È_1
  5
EBB
 10
697.978
 20
-261.360
 30
0.000000
  70
    32
  0
VERTEX
  8
┌▓È_1
  5
EBC
 10
698.004
 20
-261.356
 30
0.000000
  70
    32
  0
VERTEX
  8
┌▓È_1
  5
EBD
 10
698.030
 20
-261.352
 30
0.000000
  70
    32
  0
VERTEX
  8
┌▓È_1
  5
EBE
 10
698.056
 20
-261.349
 30
0.000000
  70
    32
  0
VERTEX
  8
┌▓È_1
  5
EBF
 10
698.082
 20
-261.346
 30
0.000000
  70
    32
  0
VERTEX
  8
┌▓È_1
  5
EC0
 10
698.108
 20
-261.344
 30
0.000000
  70
    32
  0
VERTEX
  8
┌▓È_1
  5
EC1
 10
698.133
 20
-261.342
 30
0.000000
  70
    32
  0
VERTEX
  8
┌▓È_1
  5
EC2
 10
698.159
 20
-261.340
 30
0.000000
  70
    32
  0
VERTEX
  8
┌▓È_1
  5
EC3
 10
698.185
 20
-261.339
 30
0.000000
  70
    32
  0
VERTEX
  8
┌▓È_1
  5
EC4
 10
698.211
 20
-261.339
 30
0.000000
  70
    32
  0
VERTEX
  8
┌▓È_1
  5
EC5
 10
698.237
 20
-261.338
 30
0.000000
  70
    32
  0
VERTEX
  8
┌▓È_1
  5
EC6
 10
698.263
 20
-261.338
 30
0.000000
  70
    32
  0
VERTEX
  8
┌▓È_1
  5
EC7
 10
698.289
 20
-261.339
 30
0.000000
  70
    32
  0
VERTEX
  8
┌▓È_1
  5
EC8
 10
698.315
 20
-261.340
 30
0.000000
  70
    32
  0
VERTEX
  8
┌▓È_1
  5
EC9
 10
698.340
 20
-261.341
 30
0.000000
  70
    32
  0
VERTEX
  8
┌▓È_1
  5
ECA
 10
698.366
 20
-261.343
 30
0.000000
  70
    32
  0
VERTEX
  8
┌▓È_1
  5
ECB
 10
698.392
 20
-261.345
 30
0.000000
  70
    32
  0
VERTEX
  8
┌▓È_1
  5
ECC
 10
698.418
 20
-261.348
 30
0.000000
  70
    32
  0
VERTEX
  8
┌▓È_1
  5
ECD
 10
698.444
 20
-261.351
 30
0.000000
  70
    32
  0
VERTEX
  8
┌▓È_1
  5
ECE
 10
698.470
 20
-261.354
 30
0.000000
  70
    32
  0
VERTEX
  8
┌▓È_1
  5
ECF
 10
698.496
 20
-261.358
 30
0.000000
  70
    32
  0
VERTEX
  8
┌▓È_1
  5
ED0
 10
698.521
 20
-261.362
 30
0.000000
  70
    32
  0
VERTEX
  8
┌▓È_1
  5
ED1
 10
698.547
 20
-261.367
 30
0.000000
  70
    32
  0
VERTEX
  8
┌▓È_1
  5
ED2
 10
698.573
 20
-261.372
 30
0.000000
  70
    32
  0
VERTEX
  8
┌▓È_1
  5
ED3
 10
698.599
 20
-261.377
 30
0.000000
  70
    32
  0
VERTEX
  8
┌▓È_1
  5
ED4
 10
698.625
 20
-261.383
 30
0.000000
  70
    32
  0
VERTEX
  8
┌▓È_1
  5
ED5
 10
698.651
 20
-261.389
 30
0.000000
  70
    32
  0
VERTEX
  8
┌▓È_1
  5
ED6
 10
698.677
 20
-261.396
 30
0.000000
  70
    32
  0
VERTEX
  8
┌▓È_1
  5
ED7
 10
698.703
 20
-261.403
 30
0.000000
  70
    32
  0
VERTEX
  8
┌▓È_1
  5
ED8
 10
698.728
 20
-261.410
 30
0.000000
  70
    32
  0
VERTEX
  8
┌▓È_1
  5
ED9
 10
698.754
 20
-261.418
 30
0.000000
  70
    32
  0
VERTEX
  8
┌▓È_1
  5
EDA
 10
698.780
 20
-261.426
 30
0.000000
  70
    32
  0
VERTEX
  8
┌▓È_1
  5
EDB
 10
698.806
 20
-261.434
 30
0.000000
  70
    32
  0
VERTEX
  8
┌▓È_1
  5
EDC
 10
698.832
 20
-261.443
 30
0.000000
  70
    32
  0
VERTEX
  8
┌▓È_1
  5
EDD
 10
698.858
 20
-261.452
 30
0.000000
  70
    32
  0
VERTEX
  8
┌▓È_1
  5
EDE
 10
698.884
 20
-261.462
 30
0.000000
  70
    32
  0
VERTEX
  8
┌▓È_1
  5
EDF
 10
698.910
 20
-261.472
 30
0.000000
  70
    32
  0
VERTEX
  8
┌▓È_1
  5
EE0
 10
698.935
 20
-261.482
 30
0.000000
  70
    32
  0
VERTEX
  8
┌▓È_1
  5
EE1
 10
698.961
 20
-261.492
 30
0.000000
  70
    32
  0
VERTEX
  8
┌▓È_1
  5
EE2
 10
698.987
 20
-261.503
 30
0.000000
  70
    32
  0
VERTEX
  8
┌▓È_1
  5
EE3
 10
699.013
 20
-261.515
 30
0.000000
  70
    32
  0
VERTEX
  8
┌▓È_1
  5
EE4
 10
699.039
 20
-261.526
 30
0.000000
  70
    32
  0
VERTEX
  8
┌▓È_1
  5
EE5
 10
699.065
 20
-261.538
 30
0.000000
  70
    32
  0
VERTEX
  8
┌▓È_1
  5
EE6
 10
699.091
 20
-261.551
 30
0.000000
  70
    32
  0
VERTEX
  8
┌▓È_1
  5
EE7
 10
699.116
 20
-261.563
 30
0.000000
  70
    32
  0
VERTEX
  8
┌▓È_1
  5
EE8
 10
699.142
 20
-261.576
 30
0.000000
  70
    32
  0
VERTEX
  8
┌▓È_1
  5
EE9
 10
699.168
 20
-261.590
 30
0.000000
  70
    32
  0
VERTEX
  8
┌▓È_1
  5
EEA
 10
699.194
 20
-261.603
 30
0.000000
  70
    32
  0
VERTEX
  8
┌▓È_1
  5
EEB
 10
699.220
 20
-261.617
 30
0.000000
  70
    32
  0
VERTEX
  8
┌▓È_1
  5
EEC
 10
699.246
 20
-261.632
 30
0.000000
  70
    32
  0
VERTEX
  8
┌▓È_1
  5
EED
 10
699.272
 20
-261.646
 30
0.000000
  70
    32
  0
VERTEX
  8
┌▓È_1
  5
EEE
 10
699.298
 20
-261.661
 30
0.000000
  70
    32
  0
VERTEX
  8
┌▓È_1
  5
EEF
 10
699.323
 20
-261.677
 30
0.000000
  70
    32
  0
VERTEX
  8
┌▓È_1
  5
EF0
 10
699.349
 20
-261.692
 30
0.000000
  70
    32
  0
VERTEX
  8
┌▓È_1
  5
EF1
 10
699.375
 20
-261.708
 30
0.000000
  70
    32
  0
VERTEX
  8
┌▓È_1
  5
EF2
 10
699.401
 20
-261.724
 30
0.000000
  70
    32
  0
VERTEX
  8
┌▓È_1
  5
EF3
 10
699.427
 20
-261.741
 30
0.000000
  70
    32
  0
VERTEX
  8
┌▓È_1
  5
EF4
 10
699.453
 20
-261.758
 30
0.000000
  70
    32
  0
VERTEX
  8
┌▓È_1
  5
EF5
 10
699.479
 20
-261.775
 30
0.000000
  70
    32
  0
VERTEX
  8
┌▓È_1
  5
EF6
 10
699.504
 20
-261.792
 30
0.000000
  70
    32
  0
VERTEX
  8
┌▓È_1
  5
EF7
 10
699.530
 20
-261.810
 30
0.000000
  70
    32
  0
VERTEX
  8
┌▓È_1
  5
EF8
 10
699.556
 20
-261.828
 30
0.000000
  70
    32
  0
VERTEX
  8
┌▓È_1
  5
EF9
 10
699.582
 20
-261.847
 30
0.000000
  70
    32
  0
VERTEX
  8
┌▓È_1
  5
EFA
 10
699.608
 20
-261.865
 30
0.000000
  70
    32
  0
VERTEX
  8
┌▓È_1
  5
EFB
 10
699.634
 20
-261.884
 30
0.000000
  70
    32
  0
VERTEX
  8
┌▓È_1
  5
EFC
 10
699.660
 20
-261.903
 30
0.000000
  70
    32
  0
VERTEX
  8
┌▓È_1
  5
EFD
 10
699.686
 20
-261.923
 30
0.000000
  70
    32
  0
VERTEX
  8
┌▓È_1
  5
EFE
 10
699.711
 20
-261.942
 30
0.000000
  70
    32
  0
VERTEX
  8
┌▓È_1
  5
EFF
 10
699.737
 20
-261.963
 30
0.000000
  70
    32
  0
VERTEX
  8
┌▓È_1
  5
F00
 10
699.763
 20
-261.983
 30
0.000000
  70
    32
  0
VERTEX
  8
┌▓È_1
  5
F01
 10
699.789
 20
-262.003
 30
0.000000
  70
    32
  0
VERTEX
  8
┌▓È_1
  5
F02
 10
699.815
 20
-262.024
 30
0.000000
  70
    32
  0
VERTEX
  8
┌▓È_1
  5
F03
 10
699.841
 20
-262.045
 30
0.000000
  70
    32
  0
VERTEX
  8
┌▓È_1
  5
F04
 10
699.867
 20
-262.067
 30
0.000000
  70
    32
  0
VERTEX
  8
┌▓È_1
  5
F05
 10
699.893
 20
-262.088
 30
0.000000
  70
    32
  0
VERTEX
  8
┌▓È_1
  5
F06
 10
699.918
 20
-262.110
 30
0.000000
  70
    32
  0
VERTEX
  8
┌▓È_1
  5
F07
 10
699.944
 20
-262.132
 30
0.000000
  70
    32
  0
VERTEX
  8
┌▓È_1
  5
F08
 10
699.970
 20
-262.155
 30
0.000000
  70
    32
  0
VERTEX
  8
┌▓È_1
  5
F09
 10
699.996
 20
-262.178
 30
0.000000
  70
    32
  0
VERTEX
  8
┌▓È_1
  5
F0A
 10
700.022
 20
-262.200
 30
0.000000
  70
    32
  0
VERTEX
  8
┌▓È_1
  5
F0B
 10
700.048
 20
-262.224
 30
0.000000
  70
    32
  0
VERTEX
  8
┌▓È_1
  5
F0C
 10
700.074
 20
-262.247
 30
0.000000
  70
    32
  0
VERTEX
  8
┌▓È_1
  5
F0D
 10
700.099
 20
-262.271
 30
0.000000
  70
    32
  0
VERTEX
  8
┌▓È_1
  5
F0E
 10
700.125
 20
-262.295
 30
0.000000
  70
    32
  0
VERTEX
  8
┌▓È_1
  5
F0F
 10
700.151
 20
-262.319
 30
0.000000
  70
    32
  0
VERTEX
  8
┌▓È_1
  5
F10
 10
700.177
 20
-262.343
 30
0.000000
  70
    32
  0
VERTEX
  8
┌▓È_1
  5
F11
 10
700.203
 20
-262.368
 30
0.000000
  70
    32
  0
VERTEX
  8
┌▓È_1
  5
F12
 10
700.229
 20
-262.392
 30
0.000000
  70
    32
  0
VERTEX
  8
┌▓È_1
  5
F13
 10
700.255
 20
-262.417
 30
0.000000
  70
    32
  0
VERTEX
  8
┌▓È_1
  5
F14
 10
700.281
 20
-262.443
 30
0.000000
  70
    32
  0
VERTEX
  8
┌▓È_1
  5
F15
 10
700.306
 20
-262.468
 30
0.000000
  70
    32
  0
VERTEX
  8
┌▓È_1
  5
F16
 10
700.332
 20
-262.494
 30
0.000000
  70
    32
  0
VERTEX
  8
┌▓È_1
  5
F17
 10
700.358
 20
-262.520
 30
0.000000
  70
    32
  0
VERTEX
  8
┌▓È_1
  5
F18
 10
700.384
 20
-262.546
 30
0.000000
  70
    32
  0
VERTEX
  8
┌▓È_1
  5
F19
 10
700.410
 20
-262.572
 30
0.000000
  70
    32
  0
VERTEX
  8
┌▓È_1
  5
F1A
 10
700.436
 20
-262.599
 30
0.000000
  70
    32
  0
VERTEX
  8
┌▓È_1
  5
F1B
 10
700.462
 20
-262.626
 30
0.000000
  70
    32
  0
VERTEX
  8
┌▓È_1
  5
F1C
 10
700.487
 20
-262.652
 30
0.000000
  70
    32
  0
VERTEX
  8
┌▓È_1
  5
F1D
 10
700.513
 20
-262.680
 30
0.000000
  70
    32
  0
VERTEX
  8
┌▓È_1
  5
F1E
 10
700.539
 20
-262.707
 30
0.000000
  70
    32
  0
VERTEX
  8
┌▓È_1
  5
F1F
 10
700.565
 20
-262.734
 30
0.000000
  70
    32
  0
VERTEX
  8
┌▓È_1
  5
F20
 10
700.591
 20
-262.762
 30
0.000000
  70
    32
  0
VERTEX
  8
┌▓È_1
  5
F21
 10
700.617
 20
-262.790
 30
0.000000
  70
    32
  0
VERTEX
  8
┌▓È_1
  5
F22
 10
700.643
 20
-262.818
 30
0.000000
  70
    32
  0
VERTEX
  8
┌▓È_1
  5
F23
 10
700.669
 20
-262.847
 30
0.000000
  70
    32
  0
VERTEX
  8
┌▓È_1
  5
F24
 10
700.694
 20
-262.875
 30
0.000000
  70
    32
  0
VERTEX
  8
┌▓È_1
  5
F25
 10
700.720
 20
-262.904
 30
0.000000
  70
    32
  0
VERTEX
  8
┌▓È_1
  5
F26
 10
700.746
 20
-262.932
 30
0.000000
  70
    32
  0
VERTEX
  8
┌▓È_1
  5
F27
 10
700.772
 20
-262.961
 30
0.000000
  70
    32
  0
VERTEX
  8
┌▓È_1
  5
F28
 10
700.798
 20
-262.991
 30
0.000000
  70
    32
  0
VERTEX
  8
┌▓È_1
  5
F29
 10
700.824
 20
-263.020
 30
0.000000
  70
    32
  0
VERTEX
  8
┌▓È_1
  5
F2A
 10
700.850
 20
-263.050
 30
0.000000
  70
    32
  0
VERTEX
  8
┌▓È_1
  5
F2B
 10
700.875
 20
-263.079
 30
0.000000
  70
    32
  0
VERTEX
  8
┌▓È_1
  5
F2C
 10
700.901
 20
-263.109
 30
0.000000
  70
    32
  0
VERTEX
  8
┌▓È_1
  5
F2D
 10
700.927
 20
-263.139
 30
0.000000
  70
    32
  0
VERTEX
  8
┌▓È_1
  5
F2E
 10
700.953
 20
-263.169
 30
0.000000
  70
    32
  0
VERTEX
  8
┌▓È_1
  5
F2F
 10
700.979
 20
-263.199
 30
0.000000
  70
    32
  0
VERTEX
  8
┌▓È_1
  5
F30
 10
701.005
 20
-263.230
 30
0.000000
  70
    32
  0
VERTEX
  8
┌▓È_1
  5
F31
 10
701.031
 20
-263.260
 30
0.000000
  70
    32
  0
VERTEX
  8
┌▓È_1
  5
F32
 10
701.057
 20
-263.291
 30
0.000000
  70
    32
  0
VERTEX
  8
┌▓È_1
  5
F33
 10
701.082
 20
-263.322
 30
0.000000
  70
    32
  0
VERTEX
  8
┌▓È_1
  5
F34
 10
701.108
 20
-263.353
 30
0.000000
  70
    32
  0
VERTEX
  8
┌▓È_1
  5
F35
 10
701.134
 20
-263.384
 30
0.000000
  70
    32
  0
VERTEX
  8
┌▓È_1
  5
F36
 10
701.160
 20
-263.416
 30
0.000000
  70
    32
  0
VERTEX
  8
┌▓È_1
  5
F37
 10
701.186
 20
-263.447
 30
0.000000
  70
    32
  0
VERTEX
  8
┌▓È_1
  5
F38
 10
701.212
 20
-263.479
 30
0.000000
  70
    32
  0
VERTEX
  8
┌▓È_1
  5
F39
 10
701.238
 20
-263.510
 30
0.000000
  70
    32
  0
VERTEX
  8
┌▓È_1
  5
F3A
 10
701.264
 20
-263.542
 30
0.000000
  70
    32
  0
VERTEX
  8
┌▓È_1
  5
F3B
 10
701.289
 20
-263.574
 30
0.000000
  70
    32
  0
VERTEX
  8
┌▓È_1
  5
F3C
 10
701.315
 20
-263.606
 30
0.000000
  70
    32
  0
VERTEX
  8
┌▓È_1
  5
F3D
 10
701.341
 20
-263.638
 30
0.000000
  70
    32
  0
SEQEND
  8
┌▓È_1
  5
F3E
  0
LINE
  5
52A
  8
┌▓È_1
 62
     5
 10
666.5251816617
 20
-405.13820890089988
 30
0.0
 11
666.74282026920002
 21
-380.19929464939997
 31
0.0
  0
LINE
  5
52B
  8
┌▓È_1
 62
     5
 10
652.62518166170003
 20
-405.13820890089988
 30
0.0
 11
652.88698769539985
 21
-375.13820890089988
 31
0.0
  0
LINE
  5
52C
  8
┌▓È_1
 62
     5
 10
651.42518166169987
 20
-405.13820890089988
 30
0.0
 11
650.39400606879985
 21
-403.35216038250002
 31
0.0
  0
LINE
  5
52D
  8
┌▓È_1
 62
     5
 10
665.0251816617
 20
-405.13820890089988
 30
0.0
 11
663.99400606879988
 21
-403.35216038250002
 31
0.0
  0
LINE
  5
52E
  8
┌▓È_1
 62
     5
 10
663.99400606879988
 20
-403.35216038250002
 30
0.0
 11
663.58728187400004
 21
-380.05094686870001
 31
0.0
  0
LINE
  5
52F
  8
┌▓È_1
 62
     5
 10
716.5251816617
 20
-405.13820890089988
 30
0.0
 11
716.30754305419998
 21
-380.19929464939997
 31
0.0
  0
LINE
  5
530
  8
┌▓È_1
 62
     5
 10
719.05635725449986
 20
-403.35216038250002
 30
0.0
 11
719.46308144929992
 21
-380.05094686870001
 31
0.0
  0
LINE
  5
531
  8
┌▓È_1
 62
     5
 10
732.65635725449999
 20
-403.35216038250002
 30
0.0
 11
733.1504189504999
 21
-375.0473847769
 31
0.0
  0
LINE
  5
532
  8
┌▓È_1
 62
     5
 10
730.42518166169987
 20
-405.13820890089988
 30
0.0
 11
730.16337562800004
 21
-375.13820890089988
 31
0.0
  0
LINE
  5
533
  8
┌▓È_1
 62
     5
 10
718.02518166169989
 20
-405.13820890089988
 30
0.0
 11
719.05635725449986
 21
-403.35216038250002
 31
0.0
  0
LINE
  5
534
  8
┌▓È_1
 62
     5
 10
731.62518166170003
 20
-405.13820890089988
 30
0.0
 11
732.65635725449999
 21
-403.35216038250002
 31
0.0
  0
LINE
  5
535
  8
┌▓È_1
 62
     5
 10
651.42518166169987
 20
-405.13820890089988
 30
0.0
 11
665.0251816617
 21
-405.13820890089988
 31
0.0
  0
LINE
  5
536
  8
┌▓È_1
 62
     5
 10
693.52518166169989
 20
-266.6382089009
 30
0.0
 11
695.61467927080002
 21
-266.6382089009
 31
0.0
  0
LINE
  5
537
  8
┌▓È_1
 62
     5
 10
691.5251816617
 20
-405.13820890089988
 30
0.0
 11
718.02518166169989
 21
-405.13820890089988
 31
0.0
  0
LINE
  5
538
  8
┌▓È_1
 62
     5
 10
656.02518166169989
 20
-296.1382089009
 30
0.0
 11
656.52314621300002
 21
-353.19929464939997
 31
0.0
  0
LINE
  5
539
  8
┌▓È_1
 62
     5
 10
664.66453457839998
 20
-279.23504806599999
 30
0.0
 11
665.2646792708
 21
-347.63820890089988
 31
0.0
  0
LINE
  5
53A
  8
┌▓È_1
 62
     5
 10
659.74308680779995
 20
-373.13820890089988
 30
0.0
 11
650.7751816617
 21
-373.13820890089988
 31
0.0
  0
LINE
  5
53B
  8
┌▓È_1
 62
     5
 10
665.2646792708
 20
-347.63820890089988
 30
0.0
 11
667.26467927079989
 21
-347.63820890089988
 31
0.0
  0
LINE
  5
53C
  8
┌▓È_1
 62
     5
 10
654.52329852369996
 20
-353.21674772040001
 30
0.0
 11
654.68849976910008
 21
-372.14693543639999
 31
0.0
  0
LINE
  5
53D
  8
┌▓È_1
 62
     5
 10
663.69715048160003
 20
-372.13820890089988
 30
0.0
 11
663.69715048160003
 21
-362.13820890089988
 31
0.0
  0
LINE
  5
53E
  8
┌▓È_1
 62
     5
 10
654.0251816617
 20
-343.1382089009
 30
0.0
 11
654.28698769539994
 21
-373.13820890089988
 31
0.0
  0
ARC
  5
53F
  8
┌▓È_1
 62
     5
 10
659.74308680779995
 20
-380.13820890089988
 30
0.0
 40
7.0
 50
359.50000000000011
 51
90.0
  0
LINE
  5
540
  8
┌▓È_1
 62
     5
 10
668.85966572009988
 20
-276.6382089009
 30
0.0
 11
680.11467927080002
 21
-276.6382089009
 31
0.0
  0
LINE
  5
541
  8
┌▓È_1
 62
     5
 10
683.61467927079991
 20
-286.6382089009
 30
0.0
 11
670.27529623249995
 21
-286.6382089009
 31
0.0
  0
LINE
  5
542
  8
┌▓È_1
 62
     5
 10
654.0146792708
 20
-271.6382089009
 30
0.0
 11
685.11467927080002
 21
-271.6382089009
 31
0.0
  0
ARC
  5
543
  8
┌▓È_1
 62
     5
 10
662.69715048160003
 20
-372.13820890089988
 30
0.0
 40
1.0
 50
270.0
 51
0.0
  0
LINE
  5
544
  8
┌▓È_1
 62
     5
 10
652.88698769539985
 20
-375.13820890089988
 30
0.0
 11
658.58804339829999
 21
-375.13820890089988
 31
0.0
  0
ARC
  5
545
  8
┌▓È_1
 62
     5
 10
658.58804339829999
 20
-380.13820890089988
 30
0.0
 40
5.0
 50
1.0
 51
90.0
  0
ARC
  5
546
  8
┌▓È_1
 62
     5
 10
663.52295583119997
 20
-353.13820890089988
 30
0.0
 40
9.0
 50
180.5
 51
270.0
  0
ARC
  5
547
  8
┌▓È_1
 62
     5
 10
663.52287967450002
 20
-353.13820890089988
 30
0.0
 40
7.0
 50
180.5
 51
270.0
  0
ARC
  5
548
  8
┌▓È_1
 62
     5
 10
655.68846169219989
 20
-372.13820890089988
 30
0.0
 40
1.0
 50
180.5
 51
270.0
  0
ARC
  5
549
  8
┌▓È_1
 62
     5
 10
660.86467927080002
 20
-279.26820890089999
 30
0.0
 40
6.9993009869999998
 50
0.0
 51
32.698256466799997
  0
LINE
  5
54A
  8
┌▓È_1
 62
     5
 10
654.0251816617
 20
-296.1382089009
 30
0.0
 11
664.80406318279995
 21
-296.1382089009
 31
0.0
  0
LINE
  5
54B
  8
┌▓È_1
 62
     5
 10
654.0146792708
 20
-273.1382089009
 30
0.0
 11
656.21467927080005
 21
-273.1382089009
 31
0.0
  0
ARC
  5
54C
  8
┌▓È_1
 62
     5
 10
668.85966572009988
 20
-274.1382089009
 30
0.0
 40
2.5
 50
212.6530005255
 51
270.0
  0
LINE
  5
54D
  8
┌▓È_1
 62
     5
 10
651.0251816617
 20
-269.1382089009
 30
0.0
 11
651.0251816617
 21
-281.1382089009
 31
0.0
  0
LINE
  5
54E
  8
┌▓È_1
 62
     5
 10
667.86398025769995
 20
-279.26820890089999
 30
0.0
 11
667.77539142479998
 21
-289.11639256209997
 31
0.0
  0
LINE
  5
54F
  8
┌▓È_1
 62
     5
 10
698.43323271929989
 20
-286.6382089009
 30
0.0
 11
699.61467927080002
 21
-286.6382089009
 31
0.0
  0
LINE
  5
550
  8
┌▓È_1
 62
     5
 10
698.11467927080002
 20
-271.6382089009
 30
0.0
 11
698.11467927080002
 21
-285.1382089009
 31
0.0
  0
LINE
  5
551
  8
┌▓È_1
 62
     5
 10
658.01467927079989
 20
-277.73820890090002
 30
0.0
 11
658.01467927079989
 21
-275.20435082720002
 31
0.0
  0
LINE
  5
552
  8
┌▓È_1
 62
     5
 10
689.52518166169989
 20
-288.33820890089999
 30
0.0
 11
689.52518166169989
 21
-291.11656252590001
 31
0.0
  0
ARC
  5
553
  8
┌▓È_1
 62
     5
 10
670.27529623249995
 20
-289.1382089009
 30
0.0
 40
2.5
 50
90.0
 51
179.5
  0
ARC
  5
554
  8
┌▓È_1
 62
     5
 10
660.86110599259996
 20
-279.26393248750003
 30
0.0
 40
7.0
 50
32.653000525500012
 51
85.0
  0
LINE
  5
555
  8
┌▓È_1
 62
     5
 10
654.0146792708
 20
-271.6382089009
 30
0.0
 11
661.4711961918
 21
-272.29056960090003
 31
0.0
  0
LINE
  5
556
  8
┌▓È_1
 62
     5
 10
651.0251816617
 20
-281.1382089009
 30
0.0
 11
664.68123222600002
 21
-281.1382089009
 31
0.0
  0
LINE
  5
557
  8
┌▓È_1
 62
     5
 10
661.19587109320003
 20
-275.48266904809998
 30
0.0
 11
658.01467927079989
 21
-275.20435082720002
 31
0.0
  0
LINE
  5
558
  8
┌▓È_1
 62
     5
 10
687.61467927079991
 20
-266.6382089009
 30
0.0
 11
687.61467927079991
 21
-265.1382089009
 31
0.0
  0
LINE
  5
559
  8
┌▓È_1
 62
     5
 10
689.52518166169989
 20
-285.48135465140001
 30
0.0
 11
689.52518166169989
 21
-287.96549356489999
 31
0.0
  0
LINE
  5
55A
  8
┌▓È_1
 62
     5
 10
653.42518166169998
 20
-281.1382089009
 30
0.0
 11
653.42518166169998
 21
-265.1382089009
 31
0.0
  0
LINE
  5
55B
  8
┌▓È_1
 62
     5
 10
679.29538525520002
 20
-261.6382089009
 30
0.0
 11
687.84507822139994
 21
-261.6382089009
 31
0.0
  0
CIRCLE
  5
55C
  8
┌▓È_1
 62
     5
 10
682.20733099569998
 20
-262.68488114000002
 30
0.0
 40
1.022842196899999
  0
ARC
  5
55D
  8
┌▓È_1
 62
     5
 10
680.11467927080002
 20
-271.6382089009
 30
0.0
 40
5.0
 50
270.0
 51
0.0
  0
ARC
  5
55E
  8
┌▓È_1
 62
     5
 10
683.61467927079991
 20
-285.1382089009
 30
0.0
 40
1.5
 50
270.0
 51
0.0
  0
LINE
  5
55F
  8
┌▓È_1
 62
     5
 10
685.11467927080002
 20
-285.1382089009
 30
0.0
 11
689.52518166169989
 21
-285.1382089009
 31
0.0
  0
LINE
  5
560
  8
┌▓È_1
 62
     5
 10
654.0146792708
 20
-277.73820890090002
 30
0.0
 11
658.01467927079989
 21
-277.73820890090002
 31
0.0
  0
LINE
  5
561
  8
┌▓È_1
 62
     5
 10
654.0146792708
 20
-276.23820890090002
 30
0.0
 11
654.0146792708
 21
-277.73820890090002
 31
0.0
  0
LINE
  5
562
  8
┌▓È_1
 62
     5
 10
656.21467927080005
 20
-276.23820890090002
 30
0.0
 11
654.0146792708
 21
-276.23820890090002
 31
0.0
  0
LINE
  5
563
  8
┌▓È_1
 62
     5
 10
656.21467927080005
 20
-273.1382089009
 30
0.0
 11
656.21467927080005
 21
-276.23820890090002
 31
0.0
  0
ARC
  5
564
  8
┌▓È_1
 62
     5
 10
660.86467927080002
 20
-279.26820890089999
 30
0.0
 40
3.7999999999999989
 50
0.5
 51
85.0
  0
LINE
  5
565
  8
┌▓È_1
 62
     5
 10
653.42518166169998
 20
-270.1382089009
 30
0.0
 11
650.5384303157
 21
-265.1382089009
 31
0.0
  0
ARC
  5
566
  8
┌▓È_1
 62
     5
 10
688.5251816617
 20
-286.81034485589998
 30
0.0
 40
1.5278640450000001
 50
229.11760789089999
 51
310.88239210910001
  0
ARC
  5
567
  8
┌▓È_1
 62
     5
 10
688.5251816617
 20
-286.6660729459
 30
0.0
 40
1.5278640450000001
 50
49.117607890900011
 51
130.88239210910001
  0
LINE
  5
568
  8
┌▓È_1
 62
     5
 10
654.0251816617
 20
-296.1382089009
 30
0.0
 11
654.52329852369996
 21
-353.21674772040001
 31
0.0
  0
LINE
  5
569
  8
┌▓È_1
 62
     5
 10
667.26467927079989
 20
-347.63820890089988
 30
0.0
 11
667.77539142479998
 21
-289.11639256209997
 31
0.0
  0
LINE
  5
56A
  8
┌▓È_1
 62
     5
 10
689.52518166169989
 20
-263.6382089009
 30
0.0
 11
689.52518166169989
 21
-285.1382089009
 31
0.0
  0
LINE
  5
56B
  8
┌▓È_1
 62
     5
 10
685.11467927080002
 20
-265.1382089009
 30
0.0
 11
685.11467927080002
 21
-271.6382089009
 31
0.0
  0
ARC
  5
56C
  8
┌▓È_1
 62
     5
 10
677.16122063099999
 20
-262.6382089009
 30
0.0
 40
1.0
 50
90.0
 51
270.0
  0
LINE
  5
56D
  8
┌▓È_1
 62
     5
 10
677.16122063099999
 20
-263.6382089009
 30
0.0
 11
687.25344136039985
 21
-263.6382089009
 31
0.0
  0
LINE
  5
56E
  8
┌▓È_1
 62
     5
 10
677.16122063099999
 20
-261.6382089009
 30
0.0
 11
679.29538525520002
 21
-261.6382089009
 31
0.0
  0
LINE
  5
56F
  8
┌▓È_1
 62
     5
 10
689.52518166169989
 20
-266.6382089009
 30
0.0
 11
687.61467927079991
 21
-266.6382089009
 31
0.0
  0
LINE
  5
570
  8
┌▓È_1
 62
     5
 10
731.62518166170003
 20
-405.13820890089988
 30
0.0
 11
718.02518166169989
 21
-405.13820890089988
 31
0.0
  0
LINE
  5
571
  8
┌▓È_1
 62
     5
 10
729.0251816617
 20
-296.1382089009
 30
0.0
 11
728.52706479970004
 21
-353.21674772040001
 31
0.0
  0
LINE
  5
572
  8
┌▓È_1
 62
     5
 10
715.96467927080005
 20
-347.63820890089988
 30
0.0
 11
715.45396711670003
 21
-289.11639256209997
 31
0.0
  0
LINE
  5
573
  8
┌▓È_1
 62
     5
 10
727.02518166169989
 20
-296.1382089009
 30
0.0
 11
726.52721711039987
 21
-353.19929464939997
 31
0.0
  0
LINE
  5
574
  8
┌▓È_1
 62
     5
 10
740.76606657679986
 20
-298.87904596419997
 30
0.0
 11
740.4110441537
 21
-366.68271459340002
 31
0.0
  0
LINE
  5
575
  8
┌▓È_1
 62
     5
 10
738.7751816617
 20
-295.1382089009
 30
0.0
 11
738.7751816617
 21
-366.63820890089988
 31
0.0
  0
LINE
  5
576
  8
┌▓È_1
 62
     5
 10
718.56482396309991
 20
-279.23504806599999
 30
0.0
 11
717.96467927080005
 21
-347.63820890089988
 31
0.0
  0
ARC
  5
577
  8
┌▓È_1
 62
     5
 10
724.46231992509991
 20
-380.13820890089988
 30
0.0
 40
5.0
 50
90.0
 51
179.0
  0
LINE
  5
578
  8
┌▓È_1
 62
     5
 10
719.35321284179997
 20
-372.13820890089988
 30
0.0
 11
719.35321284179997
 21
-362.13820890089988
 31
0.0
  0
LINE
  5
579
  8
┌▓È_1
 62
     5
 10
728.52706479970004
 20
-353.21674772040001
 30
0.0
 11
728.36186355429993
 21
-372.14693543639999
 31
0.0
  0
ARC
  5
57A
  8
┌▓È_1
 62
     5
 10
731.91116066960012
 20
-366.63820890089988
 30
0.0
 40
8.5
 50
278.38332390160002
 51
359.69999999999999
  0
ARC
  5
57B
  8
┌▓È_1
 62
     5
 10
732.2751816617
 20
-366.63820890089988
 30
0.0
 40
6.5
 50
270.0
 51
0.0
  0
LINE
  5
57C
  8
┌▓È_1
 62
     5
 10
723.30727651559994
 20
-373.13820890089988
 30
0.0
 11
732.2751816617
 21
-373.13820890089988
 31
0.0
  0
ARC
  5
57D
  8
┌▓È_1
 62
     5
 10
723.30727651559994
 20
-380.13820890089988
 30
0.0
 40
7.0
 50
90.0
 51
180.5
  0
ARC
  5
57E
  8
┌▓È_1
 62
     5
 10
720.35321284179986
 20
-372.13820890089988
 30
0.0
 40
1.0
 50
180.0
 51
270.0
  0
LINE
  5
57F
  8
┌▓È_1
 62
     5
 10
729.0251816617
 20
-343.1382089009
 30
0.0
 11
728.76337562799995
 21
-373.13820890089988
 31
0.0
  0
LINE
  5
580
  8
┌▓È_1
 62
     5
 10
717.96467927080005
 20
-347.63820890089988
 30
0.0
 11
715.96467927080005
 21
-347.63820890089988
 31
0.0
  0
LINE
  5
581
  8
┌▓È_1
 62
     5
 10
654.0146792708
 20
-271.6382089009
 30
0.0
 11
654.0146792708
 21
-273.1382089009
 31
0.0
  0
LINE
  5
582
  8
┌▓È_1
 62
     5
 10
658.01467927079989
 20
-277.73820890090002
 30
0.0
 11
664.34305532860003
 21
-277.73820890090002
 31
0.0
  0
ARC
  5
583
  8
┌▓È_1
 62
     5
 10
719.52748364889999
 20
-353.13820890089988
 30
0.0
 40
7.0
 50
270.0
 51
359.50000000000011
  0
ARC
  5
584
  8
┌▓È_1
 62
     5
 10
727.36190163119988
 20
-372.13820890089988
 30
0.0
 40
1.0
 50
270.0
 51
359.50000000000011
  0
LINE
  5
585
  8
┌▓È_1
 62
     5
 10
730.16337562800004
 20
-375.13820890089988
 30
0.0
 11
724.46231992509991
 21
-375.13820890089988
 31
0.0
  0
LINE
  5
586
  8
┌▓È_1
 62
     5
 10
739.52518166169989
 20
-293.1382089009
 30
0.0
 11
740.5251816617
 21
-292.1382089009
 31
0.0
  0
ARC
  5
587
  8
┌▓È_1
 62
     5
 10
742.51604258829991
 20
-298.8882089009
 30
0.0
 40
1.75
 50
90.0
 51
179.69999999999999
  0
LINE
  5
588
  8
┌▓È_1
 62
     5
 10
739.52518166169989
 20
-295.1382089009
 30
0.0
 11
739.52518166169989
 21
-283.1382089009
 31
0.0
  0
LINE
  5
589
  8
┌▓È_1
 62
     5
 10
742.62518166170003
 20
-283.1382089009
 30
0.0
 11
739.52518166169989
 21
-283.1382089009
 31
0.0
  0
LINE
  5
58A
  8
┌▓È_1
 62
     5
 10
742.62518166170003
 20
-283.1382089009
 30
0.0
 11
742.62518166170003
 21
-297.1382089009
 31
0.0
  0
LINE
  5
58B
  8
┌▓È_1
 62
     5
 10
718.53935267580005
 20
-283.1382089009
 30
0.0
 11
734.7751816617
 21
-283.1382089009
 31
0.0
  0
LINE
  5
58C
  8
┌▓È_1
 62
     5
 10
740.5251816617
 20
-294.1382089009
 30
0.0
 11
739.52518166169989
 21
-295.1382089009
 31
0.0
  0
LINE
  5
58D
  8
┌▓È_1
 62
     5
 10
739.52518166169989
 20
-293.1382089009
 30
0.0
 11
738.7751816617
 21
-293.1382089009
 31
0.0
  0
LINE
  5
58E
  8
┌▓È_1
 62
     5
 10
742.62518166170003
 20
-283.1382089009
 30
0.0
 11
739.52518166169989
 21
-283.1382089009
 31
0.0
  0
LINE
  5
58F
  8
┌▓È_1
 62
     5
 10
729.21467927080005
 20
-271.6382089009
 30
0.0
 11
721.75816234969989
 21
-272.29056960090003
 31
0.0
  0
LINE
  5
590
  8
┌▓È_1
 62
     5
 10
739.02518166169989
 20
-265.1382089009
 30
0.0
 11
739.37518166170003
 21
-265.1382089009
 31
0.0
  0
LINE
  5
591
  8
┌▓È_1
 62
     5
 10
707.84729521929978
 20
-274.75887688120002
 30
0.0
 11
707.84729521929978
 21
-288.3882089009
 31
0.0
  0
ARC
  5
592
  8
┌▓È_1
 62
     5
 10
722.36467927080002
 20
-279.26820890089999
 30
0.0
 40
3.7999999999999989
 50
95.0
 51
179.5
  0
LINE
  5
593
  8
┌▓È_1
 62
     5
 10
722.03348744829998
 20
-275.48266904809998
 30
0.0
 11
725.21467927080005
 21
-275.20435082720002
 31
0.0
  0
LINE
  5
594
  8
┌▓È_1
 62
     5
 10
740.5251816617
 20
-283.1382089009
 30
0.0
 11
740.5251816617
 21
-294.1382089009
 31
0.0
  0
ARC
  5
595
  8
┌▓È_1
 62
     5
 10
722.36467927080002
 20
-279.26820890089999
 30
0.0
 40
6.9993009869999998
 50
147.30174353320001
 51
180.0
  0
ARC
  5
596
  8
┌▓È_1
 62
     5
 10
706.09729521929978
 20
-274.8882089009
 30
0.0
 40
1.75
 50
270.0
 51
0.0
  0
LINE
  5
597
  8
┌▓È_1
 62
     5
 10
704.53437078989998
 20
-276.6382089009
 30
0.0
 11
703.11467927080002
 21
-276.6382089009
 31
0.0
  0
LINE
  5
598
  8
┌▓È_1
 62
     5
 10
727.0146792708
 20
-273.1382089009
 30
0.0
 11
727.0146792708
 21
-276.23820890090002
 31
0.0
  0
LINE
  5
599
  8
┌▓È_1
 62
     5
 10
733.0251816617
 20
-267.6382089009
 30
0.0
 11
733.0251816617
 21
-269.1382089009
 31
0.0
  0
LINE
  5
59A
  8
┌▓È_1
 62
     5
 10
687.5251816617
 20
-287.96549356489999
 30
0.0
 11
687.5251816617
 21
-285.51092423680001
 31
0.0
  0
LINE
  5
59B
  8
┌▓È_1
 62
     5
 10
685.11467927080002
 20
-271.6382089009
 30
0.0
 11
685.11467927080002
 21
-285.1382089009
 31
0.0
  0
LINE
  5
59C
  8
┌▓È_1
 62
     5
 10
739.02518166169989
 20
-267.6382089009
 30
0.0
 11
733.0251816617
 21
-267.6382089009
 31
0.0
  0
LINE
  5
59D
  8
┌▓È_1
 62
     5
 10
739.02518166169989
 20
-265.1382089009
 30
0.0
 11
739.02518166169989
 21
-267.6382089009
 31
0.0
  0
LINE
  5
59E
  8
┌▓È_1
 62
     5
 10
742.51604258829991
 20
-297.1382089009
 30
0.0
 11
742.62518166170003
 21
-297.1382089009
 31
0.0
  0
ARC
  5
59F
  8
┌▓È_1
 62
     5
 10
738.7751816617
 20
-291.1382089009
 30
0.0
 40
2.0
 50
180.0
 51
270.0
  0
LINE
  5
5A0
  8
┌▓È_1
 62
     5
 10
729.21467927080005
 20
-276.23820890090002
 30
0.0
 11
729.21467927080005
 21
-277.73820890090002
 31
0.0
  0
LINE
  5
5A1
  8
┌▓È_1
 62
     5
 10
727.0146792708
 20
-276.23820890090002
 30
0.0
 11
729.21467927080005
 21
-276.23820890090002
 31
0.0
  0
LINE
  5
5A2
  8
┌▓È_1
 62
     5
 10
735.02518166169989
 20
-283.1382089009
 30
0.0
 11
734.7751816617
 21
-283.1382089009
 31
0.0
  0
ARC
  5
5A3
  8
┌▓È_1
 62
     5
 10
734.7751816617
 20
-285.1382089009
 30
0.0
 40
2.0
 50
0.0
 51
90.0
  0
LINE
  5
5A4
  8
┌▓È_1
 62
     5
 10
718.45161627799996
 20
-293.1382089009
 30
0.0
 11
738.7751816617
 21
-293.1382089009
 31
0.0
  0
LINE
  5
5A5
  8
┌▓È_1
 62
     5
 10
706.28437078989998
 20
-288.3882089009
 30
0.0
 11
706.28437078989998
 21
-288.99486508170003
 31
0.0
  0
LINE
  5
5A6
  8
┌▓È_1
 62
     5
 10
733.0251816617
 20
-269.1382089009
 30
0.0
 11
732.0251816617
 21
-269.1382089009
 31
0.0
  0
LINE
  5
5A7
  8
┌▓È_1
 62
     5
 10
725.21467927080005
 20
-277.73820890090002
 30
0.0
 11
725.21467927080005
 21
-275.20435082720002
 31
0.0
  0
ARC
  5
5A8
  8
┌▓È_1
 62
     5
 10
706.09729521929978
 20
-288.3882089009
 30
0.0
 40
1.75
 50
0.0
 51
90.0
  0
LINE
  5
5A9
  8
┌▓È_1
 62
     5
 10
718.54812631549999
 20
-281.1382089009
 30
0.0
 11
732.0251816617
 21
-281.1382089009
 31
0.0
  0
LINE
  5
5AA
  8
┌▓È_1
 62
     5
 10
729.21467927080005
 20
-273.1382089009
 30
0.0
 11
727.0146792708
 21
-273.1382089009
 31
0.0
  0
LINE
  5
5AB
  8
┌▓È_1
 62
     5
 10
729.21467927080005
 20
-271.6382089009
 30
0.0
 11
729.21467927080005
 21
-273.1382089009
 31
0.0
  0
LINE
  5
5AC
  8
┌▓È_1
 62
     5
 10
707.84729521929978
 20
-288.3882089009
 30
0.0
 11
707.84729521929978
 21
-288.99486508170003
 31
0.0
  0
ARC
  5
5AD
  8
┌▓È_1
 62
     5
 10
706.66791681979998
 20
-261.6382089009
 30
0.0
 40
2.0
 50
217.20286791800001
 51
270.0
  0
ARC
  5
5AE
  8
┌▓È_1
 62
     5
 10
703.48593357460004
 20
-261.6382089009
 30
0.0
 40
2.0
 50
217.20286791800001
 51
270.0
  0
ARC
  5
5AF
  8
┌▓È_1
 62
     5
 10
735.02518166169989
 20
-281.1382089009
 30
0.0
 40
2.0
 50
180.0
 51
270.0
  0
LINE
  5
5B0
  8
┌▓È_1
 62
     5
 10
732.0251816617
 20
-281.1382089009
 30
0.0
 11
733.0251816617
 21
-280.1382089009
 31
0.0
  0
LINE
  5
5B1
  8
┌▓È_1
 62
     5
 10
732.0251816617
 20
-269.1382089009
 30
0.0
 11
732.0251816617
 21
-281.1382089009
 31
0.0
  0
LINE
  5
5B2
  8
┌▓È_1
 62
     5
 10
729.62518166170003
 20
-281.1382089009
 30
0.0
 11
729.62518166170003
 21
-265.1382089009
 31
0.0
  0
LINE
  5
5B3
  8
┌▓È_1
 62
     5
 10
738.7751816617
 20
-343.1382089009
 30
0.0
 11
729.0251816617
 21
-343.1382089009
 31
0.0
  0
ARC
  5
5B4
  8
┌▓È_1
 62
     5
 10
719.52740749210011
 20
-353.13820890089988
 30
0.0
 40
9.0
 50
270.0
 51
359.50000000000011
  0
ARC
  5
5B5
  8
┌▓È_1
 62
     5
 10
704.53437078989998
 20
-288.3882089009
 30
0.0
 40
1.75
 50
0.0
 51
90.0
  0
ARC
  5
5B6
  8
┌▓È_1
 62
     5
 10
722.36825254890005
 20
-279.26393248750003
 30
0.0
 40
7.0
 50
95.0
 51
147.3469994745
  0
LINE
  5
5B7
  8
┌▓È_1
 62
     5
 10
742.62518166170003
 20
-281.1382089009
 30
0.0
 11
742.62518166170003
 21
-283.1382089009
 31
0.0
  0
LINE
  5
5B8
  8
┌▓È_1
 62
     5
 10
736.77518166169989
 20
-285.1382089009
 30
0.0
 11
736.77518166169989
 21
-291.1382089009
 31
0.0
  0
LINE
  5
5B9
  8
┌▓È_1
 62
     5
 10
725.21467927080005
 20
-277.73820890090002
 30
0.0
 11
718.88630321289986
 21
-277.73820890090002
 31
0.0
  0
LINE
  5
5BA
  8
┌▓È_1
 62
     5
 10
706.09729521929978
 20
-286.6382089009
 30
0.0
 11
704.53437078989998
 21
-286.6382089009
 31
0.0
  0
LINE
  5
5BB
  8
┌▓È_1
 62
     5
 10
729.21467927080005
 20
-277.73820890090002
 30
0.0
 11
725.21467927080005
 21
-277.73820890090002
 31
0.0
  0
LINE
  5
5BC
  8
┌▓È_1
 62
     5
 10
735.52518166169989
 20
-281.1382089009
 30
0.0
 11
742.62518166170003
 21
-281.1382089009
 31
0.0
  0
LINE
  5
5BD
  8
┌▓È_1
 62
     5
 10
735.52518166169989
 20
-281.1382089009
 30
0.0
 11
735.52518166169989
 21
-273.6382089009
 31
0.0
  0
ARC
  5
5BE
  8
┌▓È_1
 62
     5
 10
704.53437078989998
 20
-274.8882089009
 30
0.0
 40
1.75
 50
270.0
 51
0.0
  0
LINE
  5
5BF
  8
┌▓È_1
 62
     5
 10
739.37518166170003
 20
-263.6382089009
 30
0.0
 11
739.37518166170003
 21
-265.1382089009
 31
0.0
  0
LINE
  5
5C0
  8
┌▓È_1
 62
     5
 10
699.61467927080002
 20
-286.6382089009
 30
0.0
 11
704.53437078989998
 21
-286.6382089009
 31
0.0
  0
LINE
  5
5C1
  8
┌▓È_1
 62
     5
 10
735.52518166169989
 20
-273.6382089009
 30
0.0
 11
738.87518166170003
 21
-273.6382089009
 31
0.0
  0
LINE
  5
5C2
  8
┌▓È_1
 62
     5
 10
738.87518166170003
 20
-271.1382089009
 30
0.0
 11
733.0251816617
 21
-271.1382089009
 31
0.0
  0
LINE
  5
5C3
  8
┌▓È_1
 62
     5
 10
738.87518166170003
 20
-269.6382089009
 30
0.0
 11
733.0251816617
 21
-269.63819790449998
 31
0.0
  0
LINE
  5
5C4
  8
┌▓È_1
 62
     5
 10
738.87518166170003
 20
-273.6382089009
 30
0.0
 11
735.52518166169989
 21
-273.6382089009
 31
0.0
  0
LINE
  5
5C5
  8
┌▓È_1
 62
     5
 10
738.87518166170003
 20
-273.6382089009
 30
0.0
 11
738.87518166170003
 21
-271.1382089009
 31
0.0
  0
LINE
  5
5C6
  8
┌▓È_1
 62
     5
 10
718.42529535869994
 20
-296.1382089009
 30
0.0
 11
729.0251816617
 21
-296.1382089009
 31
0.0
  0
LINE
  5
5C7
  8
┌▓È_1
 62
     5
 10
739.52518166169989
 20
-295.1382089009
 30
0.0
 11
718.43406899850004
 21
-295.1382089009
 31
0.0
  0
LINE
  5
5C8
  8
┌▓È_1
 62
     5
 10
733.0251816617
 20
-280.1382089009
 30
0.0
 11
733.0251816617
 21
-269.1382089009
 31
0.0
  0
LINE
  5
5C9
  8
┌▓È_1
 62
     5
 10
715.36537828380006
 20
-279.26820890089999
 30
0.0
 11
715.45396711670003
 21
-289.11639256209997
 31
0.0
  0
LINE
  5
5CA
  8
┌▓È_1
 62
     5
 10
729.62518166170003
 20
-270.1382089009
 30
0.0
 11
732.51193300759985
 21
-265.1382089009
 31
0.0
  0
POLYLINE
  8
┌▓È_1
  5
F3F
  62
5
  66
     1
 10
0.000000
 20
0.000000
 30
0.000000
  70
     8
  0
VERTEX
  8
┌▓È_1
  5
F40
 10
701.425
 20
-259.838
 30
0.000000
  70
    32
  0
VERTEX
  8
┌▓È_1
  5
F41
 10
701.448
 20
-259.838
 30
0.000000
  70
    32
  0
VERTEX
  8
┌▓È_1
  5
F42
 10
701.471
 20
-259.839
 30
0.000000
  70
    32
  0
VERTEX
  8
┌▓È_1
  5
F43
 10
701.494
 20
-259.840
 30
0.000000
  70
    32
  0
VERTEX
  8
┌▓È_1
  5
F44
 10
701.517
 20
-259.841
 30
0.000000
  70
    32
  0
VERTEX
  8
┌▓È_1
  5
F45
 10
701.539
 20
-259.842
 30
0.000000
  70
    32
  0
VERTEX
  8
┌▓È_1
  5
F46
 10
701.562
 20
-259.844
 30
0.000000
  70
    32
  0
VERTEX
  8
┌▓È_1
  5
F47
 10
701.585
 20
-259.846
 30
0.000000
  70
    32
  0
VERTEX
  8
┌▓È_1
  5
F48
 10
701.608
 20
-259.849
 30
0.000000
  70
    32
  0
VERTEX
  8
┌▓È_1
  5
F49
 10
701.631
 20
-259.852
 30
0.000000
  70
    32
  0
VERTEX
  8
┌▓È_1
  5
F4A
 10
701.654
 20
-259.855
 30
0.000000
  70
    32
  0
VERTEX
  8
┌▓È_1
  5
F4B
 10
701.677
 20
-259.858
 30
0.000000
  70
    32
  0
VERTEX
  8
┌▓È_1
  5
F4C
 10
701.700
 20
-259.862
 30
0.000000
  70
    32
  0
VERTEX
  8
┌▓È_1
  5
F4D
 10
701.723
 20
-259.866
 30
0.000000
  70
    32
  0
VERTEX
  8
┌▓È_1
  5
F4E
 10
701.746
 20
-259.870
 30
0.000000
  70
    32
  0
VERTEX
  8
┌▓È_1
  5
F4F
 10
701.769
 20
-259.875
 30
0.000000
  70
    32
  0
VERTEX
  8
┌▓È_1
  5
F50
 10
701.792
 20
-259.880
 30
0.000000
  70
    32
  0
VERTEX
  8
┌▓È_1
  5
F51
 10
701.815
 20
-259.885
 30
0.000000
  70
    32
  0
VERTEX
  8
┌▓È_1
  5
F52
 10
701.838
 20
-259.891
 30
0.000000
  70
    32
  0
VERTEX
  8
┌▓È_1
  5
F53
 10
701.861
 20
-259.896
 30
0.000000
  70
    32
  0
VERTEX
  8
┌▓È_1
  5
F54
 10
701.884
 20
-259.903
 30
0.000000
  70
    32
  0
VERTEX
  8
┌▓È_1
  5
F55
 10
701.907
 20
-259.909
 30
0.000000
  70
    32
  0
VERTEX
  8
┌▓È_1
  5
F56
 10
701.930
 20
-259.916
 30
0.000000
  70
    32
  0
VERTEX
  8
┌▓È_1
  5
F57
 10
701.953
 20
-259.923
 30
0.000000
  70
    32
  0
VERTEX
  8
┌▓È_1
  5
F58
 10
701.976
 20
-259.930
 30
0.000000
  70
    32
  0
VERTEX
  8
┌▓È_1
  5
F59
 10
701.999
 20
-259.938
 30
0.000000
  70
    32
  0
VERTEX
  8
┌▓È_1
  5
F5A
 10
702.022
 20
-259.946
 30
0.000000
  70
    32
  0
VERTEX
  8
┌▓È_1
  5
F5B
 10
702.045
 20
-259.954
 30
0.000000
  70
    32
  0
VERTEX
  8
┌▓È_1
  5
F5C
 10
702.067
 20
-259.962
 30
0.000000
  70
    32
  0
VERTEX
  8
┌▓È_1
  5
F5D
 10
702.090
 20
-259.971
 30
0.000000
  70
    32
  0
VERTEX
  8
┌▓È_1
  5
F5E
 10
702.113
 20
-259.980
 30
0.000000
  70
    32
  0
VERTEX
  8
┌▓È_1
  5
F5F
 10
702.136
 20
-259.990
 30
0.000000
  70
    32
  0
VERTEX
  8
┌▓È_1
  5
F60
 10
702.159
 20
-259.999
 30
0.000000
  70
    32
  0
VERTEX
  8
┌▓È_1
  5
F61
 10
702.182
 20
-260.009
 30
0.000000
  70
    32
  0
VERTEX
  8
┌▓È_1
  5
F62
 10
702.205
 20
-260.019
 30
0.000000
  70
    32
  0
VERTEX
  8
┌▓È_1
  5
F63
 10
702.228
 20
-260.030
 30
0.000000
  70
    32
  0
VERTEX
  8
┌▓È_1
  5
F64
 10
702.251
 20
-260.040
 30
0.000000
  70
    32
  0
VERTEX
  8
┌▓È_1
  5
F65
 10
702.274
 20
-260.051
 30
0.000000
  70
    32
  0
VERTEX
  8
┌▓È_1
  5
F66
 10
702.297
 20
-260.063
 30
0.000000
  70
    32
  0
VERTEX
  8
┌▓È_1
  5
F67
 10
702.320
 20
-260.074
 30
0.000000
  70
    32
  0
VERTEX
  8
┌▓È_1
  5
F68
 10
702.343
 20
-260.086
 30
0.000000
  70
    32
  0
VERTEX
  8
┌▓È_1
  5
F69
 10
702.366
 20
-260.098
 30
0.000000
  70
    32
  0
VERTEX
  8
┌▓È_1
  5
F6A
 10
702.389
 20
-260.110
 30
0.000000
  70
    32
  0
VERTEX
  8
┌▓È_1
  5
F6B
 10
702.412
 20
-260.123
 30
0.000000
  70
    32
  0
VERTEX
  8
┌▓È_1
  5
F6C
 10
702.435
 20
-260.136
 30
0.000000
  70
    32
  0
VERTEX
  8
┌▓È_1
  5
F6D
 10
702.458
 20
-260.149
 30
0.000000
  70
    32
  0
VERTEX
  8
┌▓È_1
  5
F6E
 10
702.481
 20
-260.162
 30
0.000000
  70
    32
  0
VERTEX
  8
┌▓È_1
  5
F6F
 10
702.504
 20
-260.176
 30
0.000000
  70
    32
  0
VERTEX
  8
┌▓È_1
  5
F70
 10
702.527
 20
-260.189
 30
0.000000
  70
    32
  0
VERTEX
  8
┌▓È_1
  5
F71
 10
702.550
 20
-260.204
 30
0.000000
  70
    32
  0
VERTEX
  8
┌▓È_1
  5
F72
 10
702.573
 20
-260.218
 30
0.000000
  70
    32
  0
VERTEX
  8
┌▓È_1
  5
F73
 10
702.596
 20
-260.232
 30
0.000000
  70
    32
  0
VERTEX
  8
┌▓È_1
  5
F74
 10
702.618
 20
-260.247
 30
0.000000
  70
    32
  0
VERTEX
  8
┌▓È_1
  5
F75
 10
702.641
 20
-260.262
 30
0.000000
  70
    32
  0
VERTEX
  8
┌▓È_1
  5
F76
 10
702.664
 20
-260.277
 30
0.000000
  70
    32
  0
VERTEX
  8
┌▓È_1
  5
F77
 10
702.687
 20
-260.293
 30
0.000000
  70
    32
  0
VERTEX
  8
┌▓È_1
  5
F78
 10
702.710
 20
-260.309
 30
0.000000
  70
    32
  0
VERTEX
  8
┌▓È_1
  5
F79
 10
702.733
 20
-260.325
 30
0.000000
  70
    32
  0
VERTEX
  8
┌▓È_1
  5
F7A
 10
702.756
 20
-260.341
 30
0.000000
  70
    32
  0
VERTEX
  8
┌▓È_1
  5
F7B
 10
702.779
 20
-260.357
 30
0.000000
  70
    32
  0
VERTEX
  8
┌▓È_1
  5
F7C
 10
702.802
 20
-260.374
 30
0.000000
  70
    32
  0
VERTEX
  8
┌▓È_1
  5
F7D
 10
702.825
 20
-260.391
 30
0.000000
  70
    32
  0
VERTEX
  8
┌▓È_1
  5
F7E
 10
702.848
 20
-260.408
 30
0.000000
  70
    32
  0
VERTEX
  8
┌▓È_1
  5
F7F
 10
702.871
 20
-260.425
 30
0.000000
  70
    32
  0
VERTEX
  8
┌▓È_1
  5
F80
 10
702.894
 20
-260.443
 30
0.000000
  70
    32
  0
VERTEX
  8
┌▓È_1
  5
F81
 10
702.917
 20
-260.461
 30
0.000000
  70
    32
  0
VERTEX
  8
┌▓È_1
  5
F82
 10
702.940
 20
-260.479
 30
0.000000
  70
    32
  0
VERTEX
  8
┌▓È_1
  5
F83
 10
702.963
 20
-260.497
 30
0.000000
  70
    32
  0
VERTEX
  8
┌▓È_1
  5
F84
 10
702.986
 20
-260.515
 30
0.000000
  70
    32
  0
VERTEX
  8
┌▓È_1
  5
F85
 10
703.009
 20
-260.534
 30
0.000000
  70
    32
  0
VERTEX
  8
┌▓È_1
  5
F86
 10
703.032
 20
-260.553
 30
0.000000
  70
    32
  0
VERTEX
  8
┌▓È_1
  5
F87
 10
703.055
 20
-260.572
 30
0.000000
  70
    32
  0
VERTEX
  8
┌▓È_1
  5
F88
 10
703.078
 20
-260.591
 30
0.000000
  70
    32
  0
VERTEX
  8
┌▓È_1
  5
F89
 10
703.101
 20
-260.610
 30
0.000000
  70
    32
  0
VERTEX
  8
┌▓È_1
  5
F8A
 10
703.124
 20
-260.630
 30
0.000000
  70
    32
  0
VERTEX
  8
┌▓È_1
  5
F8B
 10
703.146
 20
-260.650
 30
0.000000
  70
    32
  0
VERTEX
  8
┌▓È_1
  5
F8C
 10
703.169
 20
-260.670
 30
0.000000
  70
    32
  0
VERTEX
  8
┌▓È_1
  5
F8D
 10
703.192
 20
-260.690
 30
0.000000
  70
    32
  0
VERTEX
  8
┌▓È_1
  5
F8E
 10
703.215
 20
-260.711
 30
0.000000
  70
    32
  0
VERTEX
  8
┌▓È_1
  5
F8F
 10
703.238
 20
-260.731
 30
0.000000
  70
    32
  0
VERTEX
  8
┌▓È_1
  5
F90
 10
703.261
 20
-260.752
 30
0.000000
  70
    32
  0
VERTEX
  8
┌▓È_1
  5
F91
 10
703.284
 20
-260.773
 30
0.000000
  70
    32
  0
VERTEX
  8
┌▓È_1
  5
F92
 10
703.307
 20
-260.794
 30
0.000000
  70
    32
  0
VERTEX
  8
┌▓È_1
  5
F93
 10
703.330
 20
-260.816
 30
0.000000
  70
    32
  0
VERTEX
  8
┌▓È_1
  5
F94
 10
703.353
 20
-260.837
 30
0.000000
  70
    32
  0
VERTEX
  8
┌▓È_1
  5
F95
 10
703.376
 20
-260.859
 30
0.000000
  70
    32
  0
VERTEX
  8
┌▓È_1
  5
F96
 10
703.399
 20
-260.881
 30
0.000000
  70
    32
  0
VERTEX
  8
┌▓È_1
  5
F97
 10
703.422
 20
-260.903
 30
0.000000
  70
    32
  0
VERTEX
  8
┌▓È_1
  5
F98
 10
703.445
 20
-260.926
 30
0.000000
  70
    32
  0
VERTEX
  8
┌▓È_1
  5
F99
 10
703.468
 20
-260.948
 30
0.000000
  70
    32
  0
VERTEX
  8
┌▓È_1
  5
F9A
 10
703.491
 20
-260.971
 30
0.000000
  70
    32
  0
VERTEX
  8
┌▓È_1
  5
F9B
 10
703.514
 20
-260.993
 30
0.000000
  70
    32
  0
VERTEX
  8
┌▓È_1
  5
F9C
 10
703.537
 20
-261.016
 30
0.000000
  70
    32
  0
VERTEX
  8
┌▓È_1
  5
F9D
 10
703.560
 20
-261.040
 30
0.000000
  70
    32
  0
VERTEX
  8
┌▓È_1
  5
F9E
 10
703.583
 20
-261.063
 30
0.000000
  70
    32
  0
VERTEX
  8
┌▓È_1
  5
F9F
 10
703.606
 20
-261.086
 30
0.000000
  70
    32
  0
VERTEX
  8
┌▓È_1
  5
FA0
 10
703.629
 20
-261.110
 30
0.000000
  70
    32
  0
VERTEX
  8
┌▓È_1
  5
FA1
 10
703.652
 20
-261.134
 30
0.000000
  70
    32
  0
VERTEX
  8
┌▓È_1
  5
FA2
 10
703.675
 20
-261.158
 30
0.000000
  70
    32
  0
VERTEX
  8
┌▓È_1
  5
FA3
 10
703.697
 20
-261.182
 30
0.000000
  70
    32
  0
VERTEX
  8
┌▓È_1
  5
FA4
 10
703.720
 20
-261.206
 30
0.000000
  70
    32
  0
VERTEX
  8
┌▓È_1
  5
FA5
 10
703.743
 20
-261.231
 30
0.000000
  70
    32
  0
VERTEX
  8
┌▓È_1
  5
FA6
 10
703.766
 20
-261.255
 30
0.000000
  70
    32
  0
VERTEX
  8
┌▓È_1
  5
FA7
 10
703.789
 20
-261.280
 30
0.000000
  70
    32
  0
VERTEX
  8
┌▓È_1
  5
FA8
 10
703.812
 20
-261.305
 30
0.000000
  70
    32
  0
VERTEX
  8
┌▓È_1
  5
FA9
 10
703.835
 20
-261.330
 30
0.000000
  70
    32
  0
VERTEX
  8
┌▓È_1
  5
FAA
 10
703.858
 20
-261.355
 30
0.000000
  70
    32
  0
VERTEX
  8
┌▓È_1
  5
FAB
 10
703.881
 20
-261.380
 30
0.000000
  70
    32
  0
VERTEX
  8
┌▓È_1
  5
FAC
 10
703.904
 20
-261.406
 30
0.000000
  70
    32
  0
VERTEX
  8
┌▓È_1
  5
FAD
 10
703.927
 20
-261.431
 30
0.000000
  70
    32
  0
VERTEX
  8
┌▓È_1
  5
FAE
 10
703.950
 20
-261.457
 30
0.000000
  70
    32
  0
VERTEX
  8
┌▓È_1
  5
FAF
 10
703.973
 20
-261.483
 30
0.000000
  70
    32
  0
VERTEX
  8
┌▓È_1
  5
FB0
 10
703.996
 20
-261.509
 30
0.000000
  70
    32
  0
VERTEX
  8
┌▓È_1
  5
FB1
 10
704.019
 20
-261.535
 30
0.000000
  70
    32
  0
VERTEX
  8
┌▓È_1
  5
FB2
 10
704.042
 20
-261.561
 30
0.000000
  70
    32
  0
VERTEX
  8
┌▓È_1
  5
FB3
 10
704.065
 20
-261.588
 30
0.000000
  70
    32
  0
VERTEX
  8
┌▓È_1
  5
FB4
 10
704.088
 20
-261.614
 30
0.000000
  70
    32
  0
VERTEX
  8
┌▓È_1
  5
FB5
 10
704.111
 20
-261.641
 30
0.000000
  70
    32
  0
VERTEX
  8
┌▓È_1
  5
FB6
 10
704.134
 20
-261.667
 30
0.000000
  70
    32
  0
VERTEX
  8
┌▓È_1
  5
FB7
 10
704.157
 20
-261.694
 30
0.000000
  70
    32
  0
VERTEX
  8
┌▓È_1
  5
FB8
 10
704.180
 20
-261.721
 30
0.000000
  70
    32
  0
VERTEX
  8
┌▓È_1
  5
FB9
 10
704.203
 20
-261.748
 30
0.000000
  70
    32
  0
VERTEX
  8
┌▓È_1
  5
FBA
 10
704.225
 20
-261.776
 30
0.000000
  70
    32
  0
VERTEX
  8
┌▓È_1
  5
FBB
 10
704.248
 20
-261.803
 30
0.000000
  70
    32
  0
VERTEX
  8
┌▓È_1
  5
FBC
 10
704.271
 20
-261.830
 30
0.000000
  70
    32
  0
VERTEX
  8
┌▓È_1
  5
FBD
 10
704.294
 20
-261.858
 30
0.000000
  70
    32
  0
VERTEX
  8
┌▓È_1
  5
FBE
 10
704.317
 20
-261.886
 30
0.000000
  70
    32
  0
VERTEX
  8
┌▓È_1
  5
FBF
 10
704.340
 20
-261.913
 30
0.000000
  70
    32
  0
VERTEX
  8
┌▓È_1
  5
FC0
 10
704.363
 20
-261.941
 30
0.000000
  70
    32
  0
VERTEX
  8
┌▓È_1
  5
FC1
 10
704.386
 20
-261.969
 30
0.000000
  70
    32
  0
VERTEX
  8
┌▓È_1
  5
FC2
 10
704.409
 20
-261.997
 30
0.000000
  70
    32
  0
VERTEX
  8
┌▓È_1
  5
FC3
 10
704.432
 20
-262.026
 30
0.000000
  70
    32
  0
VERTEX
  8
┌▓È_1
  5
FC4
 10
704.455
 20
-262.054
 30
0.000000
  70
    32
  0
VERTEX
  8
┌▓È_1
  5
FC5
 10
704.478
 20
-262.082
 30
0.000000
  70
    32
  0
VERTEX
  8
┌▓È_1
  5
FC6
 10
704.501
 20
-262.111
 30
0.000000
  70
    32
  0
VERTEX
  8
┌▓È_1
  5
FC7
 10
704.524
 20
-262.139
 30
0.000000
  70
    32
  0
VERTEX
  8
┌▓È_1
  5
FC8
 10
704.547
 20
-262.168
 30
0.000000
  70
    32
  0
VERTEX
  8
┌▓È_1
  5
FC9
 10
704.570
 20
-262.197
 30
0.000000
  70
    32
  0
VERTEX
  8
┌▓È_1
  5
FCA
 10
704.593
 20
-262.225
 30
0.000000
  70
    32
  0
VERTEX
  8
┌▓È_1
  5
FCB
 10
704.616
 20
-262.254
 30
0.000000
  70
    32
  0
VERTEX
  8
┌▓È_1
  5
FCC
 10
704.639
 20
-262.283
 30
0.000000
  70
    32
  0
VERTEX
  8
┌▓È_1
  5
FCD
 10
704.662
 20
-262.312
 30
0.000000
  70
    32
  0
VERTEX
  8
┌▓È_1
  5
FCE
 10
704.685
 20
-262.342
 30
0.000000
  70
    32
  0
VERTEX
  8
┌▓È_1
  5
FCF
 10
704.708
 20
-262.371
 30
0.000000
  70
    32
  0
VERTEX
  8
┌▓È_1
  5
FD0
 10
704.731
 20
-262.400
 30
0.000000
  70
    32
  0
VERTEX
  8
┌▓È_1
  5
FD1
 10
704.754
 20
-262.429
 30
0.000000
  70
    32
  0
VERTEX
  8
┌▓È_1
  5
FD2
 10
704.776
 20
-262.459
 30
0.000000
  70
    32
  0
VERTEX
  8
┌▓È_1
  5
FD3
 10
704.799
 20
-262.488
 30
0.000000
  70
    32
  0
VERTEX
  8
┌▓È_1
  5
FD4
 10
704.822
 20
-262.518
 30
0.000000
  70
    32
  0
VERTEX
  8
┌▓È_1
  5
FD5
 10
704.845
 20
-262.548
 30
0.000000
  70
    32
  0
VERTEX
  8
┌▓È_1
  5
FD6
 10
704.868
 20
-262.577
 30
0.000000
  70
    32
  0
VERTEX
  8
┌▓È_1
  5
FD7
 10
704.891
 20
-262.607
 30
0.000000
  70
    32
  0
VERTEX
  8
┌▓È_1
  5
FD8
 10
704.914
 20
-262.637
 30
0.000000
  70
    32
  0
VERTEX
  8
┌▓È_1
  5
FD9
 10
704.937
 20
-262.667
 30
0.000000
  70
    32
  0
VERTEX
  8
┌▓È_1
  5
FDA
 10
704.960
 20
-262.697
 30
0.000000
  70
    32
  0
VERTEX
  8
┌▓È_1
  5
FDB
 10
704.983
 20
-262.727
 30
0.000000
  70
    32
  0
VERTEX
  8
┌▓È_1
  5
FDC
 10
705.006
 20
-262.757
 30
0.000000
  70
    32
  0
VERTEX
  8
┌▓È_1
  5
FDD
 10
705.029
 20
-262.787
 30
0.000000
  70
    32
  0
VERTEX
  8
┌▓È_1
  5
FDE
 10
705.052
 20
-262.817
 30
0.000000
  70
    32
  0
VERTEX
  8
┌▓È_1
  5
FDF
 10
705.075
 20
-262.847
 30
0.000000
  70
    32
  0
SEQEND
  8
┌▓È_1
  5
FE0
  0
LINE
  5
5CC
  8
┌▓È_1
 62
     5
 10
704.53437078989998
 20
-276.6382089009
 30
0.0
 11
706.09729521929978
 21
-276.6382089009
 31
0.0
  0
LINE
  5
5CD
  8
┌▓È_1
 62
     5
 10
738.87518166170003
 20
-269.6382089009
 30
0.0
 11
738.87518166170003
 21
-267.6382089009
 31
0.0
  0
ENDBLK
  5
5CE
  8
0
  0
BLOCK
  8
0
  2
*U63
 70
     1
 10
0.0
 20
0.0
 30
0.0
  3
*U63
  1

  0
TEXT
  5
5EC
  8
É}ÿg
  6
CONTINUOUS
 10
1317.435079537765
 20
-630.37144728659985
 30
0.0
 40
12.5941670179
  1
SHT00129
  0
ENDBLK
  5
5EE
  8
0
  0
BLOCK
  8
0
  2
*U64
 70
     1
 10
0.0
 20
0.0
 30
0.0
  3
*U64
  1

  0
TEXT
  5
5F0
  8
É}ÿg
  6
CONTINUOUS
 10
1059.329744570123
 20
-603.69949322758634
 30
0.0
 40
8.9958330630999992
  1
è¦ û{
  0
ENDBLK
  5
5F2
  8
0
  0
BLOCK
  8
0
  2
*U65
 70
     1
 10
0.0
 20
0.0
 30
0.0
  3
*U65
  1

  0
TEXT
  5
5F4
  8
ë³Æ¨
  6
CONTINUOUS
 10
1164.0379148803299
 20
171.71879305099989
 30
0.0
 40
8.0962499027000003
  1
1
  0
ENDBLK
  5
5F6
  8
0
  0
BLOCK
  8
0
  2
*U66
 70
     1
 10
0.0
 20
0.0
 30
0.0
  3
*U66
  1

  0
TEXT
  5
5F8
  8
ë³Æ¨
  6
CONTINUOUS
 10
1244.141720486155
 20
173.5394698529
 30
0.0
 40
8.0962498784000001
  1
**********************
  0
ENDBLK
  5
5FA
  8
0
  0
BLOCK
  8
0
  2
*U67
 70
     1
 10
0.0
 20
0.0
 30
0.0
  3
*U67
  1

  0
TEXT
  5
5FC
  8
ë³Æ¨
  6
CONTINUOUS
 10
1382.842512901912
 20
173.5319698529
 30
0.0
 40
8.0962498784000001
  1
üûüû
  0
ENDBLK
  5
5FE
  8
0
  0
BLOCK
  8
0
  2
*U68
 70
     1
 10
0.0
 20
0.0
 30
0.0
  3
*U68
  1

  0
TEXT
  5
600
  8
É}ÿg
  6
CONTINUOUS
 10
1327.584799231073
 20
-462.83061333180001
 30
0.0
 40
8.9958330630999992
  1
6
  0
ENDBLK
  5
602
  8
0
  0
BLOCK
  8
0
  2
*U69
 70
     1
 10
0.0
 20
0.0
 30
0.0
  3
*U69
  1

  0
TEXT
  5
604
  8
É}ÿg
  6
CONTINUOUS
 10
1215.973918125864
 20
-462.83061333180001
 30
0.0
 40
8.9958330630999992
  1
SUS304 0.7t
  0
ENDBLK
  5
606
  8
0
  0
BLOCK
  8
0
  2
*U70
 70
     1
 10
0.0
 20
0.0
 30
0.0
  3
*U70
  1

  0
TEXT
  5
608
  8
É}ÿg
  6
CONTINUOUS
 10
1081.540552779262
 20
-462.96760571347153
 30
0.0
 40
8.9958330630999992
  1
âAâôâJü[
  0
ENDBLK
  5
60A
  8
0
  0
BLOCK
  8
0
  2
*U71
 70
     1
 10
0.0
 20
0.0
 30
0.0
  3
*U71
  1

  0
TEXT
  5
60C
  8
É}ÿg
  6
CONTINUOUS
 10
1328.1556008213711
 20
-477.8306133317999
 30
0.0
 40
8.9958330630999992
  1
1
  0
ENDBLK
  5
60E
  8
0
  0
BLOCK
  8
0
  2
*U72
 70
     1
 10
0.0
 20
0.0
 30
0.0
  3
*U72
  1

  0
TEXT
  5
610
  8
É}ÿg
  6
CONTINUOUS
 10
1219.6955444946079
 20
-478.24159047681468
 30
0.0
 40
8.9958330630999992
  1
é`éaérÄ¸Äë
  0
ENDBLK
  5
612
  8
0
  0
BLOCK
  8
0
  2
*U73
 70
     1
 10
0.0
 20
0.0
 30
0.0
  3
*U73
  1

  0
TEXT
  5
614
  8
É}ÿg
  6
CONTINUOUS
 10
1083.115965168485
 20
-478.78956000350098
 30
0.0
 40
8.9958330630999992
  1
âgâëâbâv
  0
ENDBLK
  5
616
  8
0
  0
BLOCK
  8
0
  2
*U74
 70
     1
 10
0.0
 20
0.0
 30
0.0
  3
*U74
  1

  0
TEXT
  5
618
  8
É}ÿg
  6
CONTINUOUS
 10
1328.1556008213711
 20
-492.83061333180001
 30
0.0
 40
8.9958330630999992
  1
1
  0
ENDBLK
  5
61A
  8
0
  0
BLOCK
  8
0
  2
*U75
 70
     1
 10
0.0
 20
0.0
 30
0.0
  3
*U75
  1

  0
TEXT
  5
61C
  8
É}ÿg
  6
CONTINUOUS
 10
1215.973918125864
 20
-492.83061333180001
 30
0.0
 40
8.9958330630999992
  1
SUS304 3.0t
  0
ENDBLK
  5
61E
  8
0
  0
BLOCK
  8
0
  2
*U76
 70
     1
 10
0.0
 20
0.0
 30
0.0
  3
*U76
  1

  0
TEXT
  5
620
  8
É}ÿg
  6
CONTINUOUS
 10
1079.3715067361279
 20
-493.28725460403848
 30
0.0
 40
8.9958330630999992
  1
èWüiû┌ÄM)
  0
ENDBLK
  5
622
  8
0
  0
BLOCK
  8
0
  2
*U77
 70
     1
 10
0.0
 20
0.0
 30
0.0
  3
*U77
  1

  0
TEXT
  5
624
  8
É}ÿg
  6
CONTINUOUS
 10
1081.2209038886949
 20
-508.3329187312624
 30
0.0
 40
8.9958330630999992
  1
û{ü@ü@æ╠
  0
ENDBLK
  5
626
  8
0
  0
BLOCK
  8
0
  2
*U78
 70
     1
 10
0.0
 20
0.0
 30
0.0
  3
*U78
  1

  0
TEXT
  5
628
  8
É}ÿg
  6
CONTINUOUS
 10
1215.973918125864
 20
-507.83061333180001
 30
0.0
 40
8.9958330630999992
  1
SUS304 0.7t
  0
ENDBLK
  5
62A
  8
0
  0
BLOCK
  8
0
  2
*U79
 70
     1
 10
0.0
 20
0.0
 30
0.0
  3
*U79
  1

  0
TEXT
  5
62C
  8
É}ÿg
  6
CONTINUOUS
 10
1102.588966167973
 20
-570.17302573200004
 30
0.0
 40
8.9958330630999992
  1
1üF3
  0
ENDBLK
  5
62E
  8
0
  0
BLOCK
  8
0
  2
*U80
 70
     1
 10
0.0
 20
0.0
 30
0.0
  3
*U80
  1

  0
TEXT
  5
630
  8
É}ÿg
  6
CONTINUOUS
 10
1328.1556008213711
 20
-507.83061333180001
 30
0.0
 40
8.9958330630999992
  1
1
  0
ENDBLK
  5
632
  8
0
  0
BLOCK
  8
0
  2
*U81
 70
     1
 10
0.0
 20
0.0
 30
0.0
  3
*U81
  1

  0
TEXT
  5
634
  8
É}ÿg
  6
CONTINUOUS
 10
1171.6014239340041
 20
-587.10816497313863
 30
0.0
 40
8.9958330630999992
  1
û÷ î┤
  0
ENDBLK
  5
636
  8
0
  0
BLOCK
  8
0
  2
*U82
 70
     1
 10
0.0
 20
0.0
 30
0.0
  3
*U82
  1

  0
TEXT
  5
638
  8
É}ÿg
  6
CONTINUOUS
 10
1171.6014239340041
 20
-603.60816497313863
 30
0.0
 40
8.9958330630999992
  1
û÷ î┤
  0
ENDBLK
  5
63A
  8
0
  0
BLOCK
  8
0
  2
*U83
 70
     1
 10
0.0
 20
0.0
 30
0.0
  3
*U83
  1

  0
TEXT
  5
63C
  8
É}ÿg
  6
CONTINUOUS
 10
1056.635561063915
 20
-587.15382910036237
 30
0.0
 40
8.9958330630999992
  1
öÆÉ{ëÛ
  0
ENDBLK
  5
63E
  8
0
  0
BLOCK
  8
0
  2
*U84
 70
     1
 10
0.0
 20
0.0
 30
0.0
  3
*U84
  1

  0
TEXT
  5
640
  8
É}ÿg
  6
CONTINUOUS
 10
1294.2924985201009
 20
-597.62716641386703
 30
0.0
 40
12.5941670179
  1
SP-600C Å│öFÉ}
  0
ENDBLK
  5
642
  8
0
  0
BLOCK
  8
0
  2
*U85
 70
     1
 10
0.0
 20
0.0
 30
0.0
  3
*U85
  1

  0
TEXT
  5
644
  8
É}ÿg
  6
CONTINUOUS
 10
1312.6403459015089
 20
-565.39432379566802
 30
0.0
 40
12.5941670179
  1
âgâëâbâsü[
  0
ENDBLK
  5
646
  8
0
  0
BLOCK
  8
0
  2
*U86
 70
     1
 10
0.0
 20
0.0
 30
0.0
  3
*U86
  1

  0
TEXT
  5
648
  8
ë³Æ¨
  6
CONTINUOUS
 10
1179.191177462066
 20
173.5319698529
 30
0.0
 40
8.0962498784000001
  1
H**.**.**
  0
ENDBLK
  5
64A
  8
0
  0
BLOCK
  8
0
  2
*U87
 70
     1
 10
0.0
 20
0.0
 30
0.0
  3
*U87
  1

  0
TEXT
  5
64C
  8
É}ÿg
  6
CONTINUOUS
 10
1265.8002163537531
 20
188.1209927017122
 30
0.0
 40
8.0962498784000001
  1
ë³ü@Æ¨ü@ôÓü@ùe
  0
ENDBLK
  5
64E
  8
0
  0
BLOCK
  8
0
  2
*U88
 70
     1
 10
0.0
 20
0.0
 30
0.0
  3
*U88
  1

  0
TEXT
  5
650
  8
É}ÿg
  6
CONTINUOUS
 10
1187.575111346297
 20
188.2031881319497
 30
0.0
 40
8.0962498784000001
  1
ë³Æ¨ô·
  0
ENDBLK
  5
652
  8
0
  0
BLOCK
  8
0
  2
*U89
 70
     1
 10
0.0
 20
0.0
 30
0.0
  3
*U89
  1

  0
TEXT
  5
654
  8
É}ÿg
  6
CONTINUOUS
 10
1156.8767165966201
 20
188.28538356218729
 30
0.0
 40
8.0962498784000001
  1
òøöÈ
  0
ENDBLK
  5
656
  8
0
  0
BLOCK
  8
0
  2
*U90
 70
     1
 10
0.0
 20
0.0
 30
0.0
  3
*U90
  1

  0
TEXT
  5
658
  8
É}ÿg
  6
CONTINUOUS
 10
1018.3268141837
 20
-631.69892975811308
 30
0.0
 40
16.1924997568
  1
èöÄ«ë´Äð
  0
ENDBLK
  5
65A
  8
0
  0
BLOCK
  8
0
  2
*U91
 70
     1
 10
0.0
 20
0.0
 30
0.0
  3
*U91
  1

  0
TEXT
  5
65C
  8
É}ÿg
  6
CONTINUOUS
 10
1406.8833442096879
 20
188.07989498659339
 30
0.0
 40
8.0962498784000001
  1
îƒöFÄÊ
  0
ENDBLK
  5
65E
  8
0
  0
BLOCK
  8
0
  2
*U92
 70
     1
 10
0.0
 20
0.0
 30
0.0
  3
*U92
  1

  0
TEXT
  5
660
  8
É}ÿg
  6
CONTINUOUS
 10
1231.102576633735
 20
-618.69659809514314
 30
0.0
 40
8.9958330630999992
  1
É} öÈ
  0
ENDBLK
  5
662
  8
0
  0
BLOCK
  8
0
  2
*U93
 70
     1
 10
0.0
 20
0.0
 30
0.0
  3
*U93
  1

  0
TEXT
  5
664
  8
É}ÿg
  6
CONTINUOUS
 10
1227.9745839189011
 20
-552.87925460403847
 30
0.0
 40
8.9958330630999992
  1
É╗òiû╝
  0
ENDBLK
  5
666
  8
0
  0
BLOCK
  8
0
  2
*U94
 70
     1
 10
0.0
 20
0.0
 30
0.0
  3
*U94
  1

  0
TEXT
  5
668
  8
É}ÿg
  6
CONTINUOUS
 10
1228.225736618632
 20
-585.78792634959086
 30
0.0
 40
8.9958330630999992
  1
É}û╩û╝
  0
ENDBLK
  5
66A
  8
0
  0
BLOCK
  8
0
  2
*U95
 70
     1
 10
0.0
 20
0.0
 30
0.0
  3
*U95
  1

  0
TEXT
  5
66C
  8
É}ÿg
  6
CONTINUOUS
 10
1017.61135436956
 20
-553.83418020979548
 30
0.0
 40
8.9958330630999992
  1
ô·ü@ü@òt
  0
ENDBLK
  5
66E
  8
0
  0
BLOCK
  8
0
  2
*U96
 70
     1
 10
0.0
 20
0.0
 30
0.0
  3
*U96
  1

  0
TEXT
  5
670
  8
É}ÿg
  6
CONTINUOUS
 10
1091.652407697859
 20
-554.10816497313863
 30
0.0
 40
8.9958330630999992
  1
Ä┌ü@ü@ôx
  0
ENDBLK
  5
672
  8
0
  0
BLOCK
  8
0
  2
*U97
 70
     1
 10
0.0
 20
0.0
 30
0.0
  3
*U97
  1

  0
TEXT
  5
674
  8
É}ÿg
  6
CONTINUOUS
 10
1377.0066373550451
 20
188.1209927017122
 30
0.0
 40
8.0962498784000001
  1
ë³Æ¨ÄÊ
  0
ENDBLK
  5
676
  8
0
  0
BLOCK
  8
0
  2
*U98
 70
     1
 10
0.0
 20
0.0
 30
0.0
  3
*U98
  1

  0
TEXT
  5
678
  8
É}ÿg
  6
CONTINUOUS
 10
1004.547912839674
 20
-523.10459809514316
 30
0.0
 40
8.9958330630999992
  1
òiöÈ
  0
ENDBLK
  5
67A
  8
0
  0
BLOCK
  8
0
  2
*U99
 70
     1
 10
0.0
 20
0.0
 30
0.0
  3
*U99
  1

  0
TEXT
  5
67C
  8
É}ÿg
  6
CONTINUOUS
 10
1002.0073033734
 20
-603.60816497313863
 30
0.0
 40
8.9958330630999992
  1
 É╗É}
  0
ENDBLK
  5
67E
  8
0
  0
BLOCK
  8
0
  2
*U100
 70
     1
 10
0.0
 20
0.0
 30
0.0
  3
*U100
  1

  0
TEXT
  5
680
  8
É}ÿg
  6
CONTINUOUS
 10
1002.0073033734
 20
-587.0168367186908
 30
0.0
 40
8.9958330630999992
  1
 É¦îv
  0
ENDBLK
  5
682
  8
0
  0
BLOCK
  8
0
  2
*U101
 70
     1
 10
0.0
 20
0.0
 30
0.0
  3
*U101
  1

  0
TEXT
  5
684
  8
É}ÿg
  6
CONTINUOUS
 10
1114.5073033734
 20
-603.65382910036237
 30
0.0
 40
8.9958330630999992
  1
 îƒÉ}
  0
ENDBLK
  5
686
  8
0
  0
BLOCK
  8
0
  2
*U102
 70
     1
 10
0.0
 20
0.0
 30
0.0
  3
*U102
  1

  0
TEXT
  5
688
  8
É}ÿg
  6
CONTINUOUS
 10
1114.5073033734
 20
-587.06250084591466
 30
0.0
 40
8.9958330630999992
  1
 Åãì©
  0
ENDBLK
  5
68A
  8
0
  0
BLOCK
  8
0
  2
*U103
 70
     1
 10
0.0
 20
0.0
 30
0.0
  3
*U103
  1

  0
TEXT
  5
68C
  8
É}ÿg
  6
CONTINUOUS
 10
1319.251096012719
 20
-523.28725460403848
 30
0.0
 40
8.9958330630999992
  1
Éöù╩
  0
ENDBLK
  5
68E
  8
0
  0
BLOCK
  8
0
  2
*U104
 70
     1
 10
0.0
 20
0.0
 30
0.0
  3
*U104
  1

  0
TEXT
  5
690
  8
É}ÿg
  6
CONTINUOUS
 10
1362.789178148518
 20
-523.42424698571006
 30
0.0
 40
8.9958330630999992
  1
ö§ü@ü@ü@ìl
  0
ENDBLK
  5
692
  8
0
  0
BLOCK
  8
0
  2
*U105
 70
     1
 10
0.0
 20
0.0
 30
0.0
  3
*U105
  1

  0
TEXT
  5
694
  8
É}ÿg
  6
CONTINUOUS
 10
1219.2160711587569
 20
-523.15026222236702
 30
0.0
 40
8.9958330630999992
  1
ìÌü@ü@ü@Ä┐
  0
ENDBLK
  5
696
  8
0
  0
BLOCK
  8
0
  2
*U106
 70
     1
 10
0.0
 20
0.0
 30
0.0
  3
*U106
  1

  0
TEXT
  5
698
  8
É}ÿg
  6
CONTINUOUS
 10
1075.558552112936
 20
-523.19592634959076
 30
0.0
 40
8.9958330630999992
  1
òiü@ü@ü@û╝
  0
ENDBLK
  5
69A
  8
0
  0
BLOCK
  8
0
  2
*U107
 70
     1
 10
0.0
 20
0.0
 30
0.0
  3
*U107
  1

  0
TEXT
  5
69C
  8
É}ÿg
  6
CONTINUOUS
 10
1012.607631294685
 20
-462.83061333180001
 30
0.0
 40
8.9958330630999992
  1
4
  0
ENDBLK
  5
69E
  8
0
  0
BLOCK
  8
0
  2
*U108
 70
     1
 10
0.0
 20
0.0
 30
0.0
  3
*U108
  1

  0
TEXT
  5
6A0
  8
É}ÿg
  6
CONTINUOUS
 10
1012.6761274855201
 20
-477.8306133317999
 30
0.0
 40
8.9958330630999992
  1
3
  0
ENDBLK
  5
6A2
  8
0
  0
BLOCK
  8
0
  2
*U109
 70
     1
 10
0.0
 20
0.0
 30
0.0
  3
*U109
  1

  0
TEXT
  5
6A4
  8
É}ÿg
  6
CONTINUOUS
 10
1013.155600821371
 20
-507.83061333180001
 30
0.0
 40
8.9958330630999992
  1
1
  0
ENDBLK
  5
6A6
  8
0
  0
BLOCK
  8
0
  2
*U110
 70
     1
 10
0.0
 20
0.0
 30
0.0
  3
*U110
  1

  0
TEXT
  5
6A8
  8
É}ÿg
  6
CONTINUOUS
 10
1012.630463358297
 20
-492.83061333180001
 30
0.0
 40
8.9958330630999992
  1
2
  0
ENDBLK
  5
6AA
  8
0
  0
BLOCK
  8
0
  2
*U111
 70
     1
 10
0.0
 20
0.0
 30
0.0
  3
*U111
  1

  0
TEXT
  5
6AC
  8
É}ÿg
  6
CONTINUOUS
 10
1024.82628647093
 20
-570.17302573200004
 30
0.0
 40
8.9958330630999992
  1
H16.4
  0
ENDBLK
  5
6AE
  8
0
  0
BLOCK
  8
0
  2
*U112
 70
     1
 10
0.0
 20
0.0
 30
0.0
  3
*U112
  1

  0
TEXT
  5
6B0
  8
┌▓È_1
  6
CONTINUOUS
 10
571.08789096361363
 20
-124.9429810835147
 30
0.0
 40
8.9958330630999992
  1
23-Å¼ö╗îè
  0
ENDBLK
  5
6B2
  8
0
  0
BLOCK
  8
0
  2
*U113
 70
     1
 10
0.0
 20
0.0
 30
0.0
  3
*U113
  1

  0
TEXT
  5
6B4
  8
┌▓È_1
  6
CONTINUOUS
 10
689.67541841538059
 20
-483.54734147110003
 30
0.0
 40
8.9958330630999992
  1
VU75
  0
ENDBLK
  5
6B6
  8
0
  0
BLOCK
  8
0
  2
*U114
 70
     1
 10
0.0
 20
0.0
 30
0.0
  3
*U114
  1

  0
TEXT
  5
6B8
  8
┌▓È_1
  6
CONTINUOUS
 10
345.12876067492789
 20
-68.187221698000002
 30
0.0
 40
10.794999837900001
  1
2
  0
ENDBLK
  5
6BA
  8
0
  0
BLOCK
  8
0
  2
*U115
 70
     1
 10
0.0
 20
0.0
 30
0.0
  3
*U115
  1

  0
TEXT
  5
6BC
  8
┌▓È_1
  6
CONTINUOUS
 10
344.27006750600401
 20
21.0809290336
 30
0.0
 40
10.794999837900001
  1
1
  0
ENDBLK
  5
6BE
  8
0
  0
BLOCK
  8
0
  2
*U116
 70
     1
 10
0.0
 20
0.0
 30
0.0
  3
*U116
  1

  0
TEXT
  5
6C0
  8
┌▓È_1
  6
CONTINUOUS
 10
690.20495484798073
 20
-454.3960176757999
 30
0.0
 40
8.9958330630999992
  1
VU50
  0
ENDBLK
  5
6C2
  8
0
  0
ENDSEC
  0
SECTION
  2
ENTITIES
  0
INSERT
  5
34
  8
0
  6
CONTINUOUS
  2
*U63
 10
0.0
 20
0.0
 30
0.0
  0
INSERT
  5
35
  8
0
  6
CONTINUOUS
  2
*U64
 10
0.0
 20
0.0
 30
0.0
  0
INSERT
  5
36
  8
0
  6
CONTINUOUS
  2
*U65
 10
0.0
 20
0.0
 30
0.0
  0
INSERT
  5
37
  8
0
  6
CONTINUOUS
  2
*U66
 10
0.0
 20
0.0
 30
0.0
  0
INSERT
  5
38
  8
0
  6
CONTINUOUS
  2
*U67
 10
0.0
 20
0.0
 30
0.0
  0
INSERT
  5
39
  8
0
  6
CONTINUOUS
  2
*U68
 10
0.0
 20
0.0
 30
0.0
  0
INSERT
  5
3A
  8
0
  6
CONTINUOUS
  2
*U69
 10
0.0
 20
0.0
 30
0.0
  0
INSERT
  5
3B
  8
0
  6
CONTINUOUS
  2
*U70
 10
0.0
 20
0.0
 30
0.0
  0
INSERT
  5
3C
  8
0
  6
CONTINUOUS
  2
*U71
 10
0.0
 20
0.0
 30
0.0
  0
INSERT
  5
3D
  8
0
  6
CONTINUOUS
  2
*U72
 10
0.0
 20
0.0
 30
0.0
  0
INSERT
  5
3E
  8
0
  6
CONTINUOUS
  2
*U73
 10
0.0
 20
0.0
 30
0.0
  0
INSERT
  5
3F
  8
0
  6
CONTINUOUS
  2
*U74
 10
0.0
 20
0.0
 30
0.0
  0
INSERT
  5
40
  8
0
  6
CONTINUOUS
  2
*U75
 10
0.0
 20
0.0
 30
0.0
  0
INSERT
  5
41
  8
0
  6
CONTINUOUS
  2
*U76
 10
0.0
 20
0.0
 30
0.0
  0
INSERT
  5
42
  8
0
  6
CONTINUOUS
  2
*U77
 10
0.0
 20
0.0
 30
0.0
  0
INSERT
  5
43
  8
0
  6
CONTINUOUS
  2
*U78
 10
0.0
 20
0.0
 30
0.0
  0
INSERT
  5
44
  8
0
  6
CONTINUOUS
  2
*U79
 10
0.0
 20
0.0
 30
0.0
  0
INSERT
  5
45
  8
0
  6
CONTINUOUS
  2
*U80
 10
0.0
 20
0.0
 30
0.0
  0
INSERT
  5
46
  8
0
  6
CONTINUOUS
  2
*U81
 10
0.0
 20
0.0
 30
0.0
  0
INSERT
  5
47
  8
0
  6
CONTINUOUS
  2
*U82
 10
0.0
 20
0.0
 30
0.0
  0
INSERT
  5
48
  8
0
  6
CONTINUOUS
  2
*U83
 10
0.0
 20
0.0
 30
0.0
  0
DIMENSION
  5
59
  8
Éíû@É³
  2
*D0
 10
1212.2401518752999
 20
81.693155668999992
 30
0.0
 11
1182.7401518752999
 21
81.693155668999992
 31
0.0
 70
   128
  1
(<>)
 13
1212.2401518752999
 23
25.598871457600001
 33
0.0
 14
1153.2401518752999
 24
49.799034498899999
 34
0.0
  0
DIMENSION
  5
68
  8
Éíû@É³
  2
*D1
 10
990.52482619859995
 20
108.9038978183
 30
0.0
 11
691.52482619859995
 21
108.9038978183
 31
0.0
 70
   128
  1
<>
 13
990.52482619859995
 23
48.799581106899993
 33
0.0
 14
392.52482619860001
 24
48.799581106899993
 34
0.0
  0
DIMENSION
  5
77
  8
Éíû@É³
  2
*D2
 10
990.52482619859995
 20
86.799581106900007
 30
0.0
 11
841.02482619859995
 21
86.799581106900007
 31
0.0
 70
   128
  1
<>
 13
990.52482619859995
 23
48.799581106899993
 33
0.0
 14
691.52482619859995
 24
56.799581106899993
 34
0.0
  0
DIMENSION
  5
86
  8
Éíû@É³
  2
*D3
 10
1346.7401628717
 20
104.0173725116
 30
0.0
 11
1249.9901573735001
 21
104.0173725116
 31
0.0
 70
   128
  1
(193.5)
 13
1346.7401628717
 23
17.899229808200001
 33
0.0
 14
1153.2401518752999
 24
49.799034498899999
 34
0.0
  0
DIMENSION
  5
95
  8
Éíû@É³
  2
*D4
 10
1316.6493387477001
 20
81.693155515200004
 30
0.0
 11
1264.4447453114999
 21
81.693155515200004
 31
0.0
 70
   128
  1
104.5
 13
1316.6493387477001
 23
19.424467097000001
 33
0.0
 14
1212.2401518752999
 24
25.598871457600001
 34
0.0
  0
DIMENSION
  5
A4
  8
Éíû@É³
  2
*D5
 10
373.63328948600002
 20
-211.6381979045
 30
0.0
 11
373.63328948600002
 21
-233.98836210409999
 31
0.0
 70
   128
  1
(45)
 13
394.52482619860001
 23
-211.6381979045
 33
0.0
 14
410.52482619860001
 24
-256.33852630360002
 34
0.0
 50
90.0
  0
DIMENSION
  5
B3
  8
Éíû@É³
  2
*D6
 10
1346.7401628717
 20
81.69315529890001
 30
0.0
 11
1331.6947508097001
 21
81.69315529890001
 31
0.0
 70
   128
  1
30
 13
1346.7401628717
 23
17.899229808200001
 33
0.0
 14
1316.6493387477001
 24
19.424467097000001
 34
0.0
  0
DIMENSION
  5
C2
  8
Éíû@É³
  2
*D7
 10
1209.9866709641001
 20
-101.5009231352
 30
0.0
 11
1209.9866709641001
 21
-110.96831796399999
 31
0.0
 70
   128
  1
<>
 13
1190.2401518752999
 23
-101.5009231352
 33
0.0
 14
1189.5401518752999
 24
-94.500923135199997
 34
0.0
 50
90.0
  0
DIMENSION
  5
D1
  8
Éíû@É³
  2
*D8
 10
1155.2401518752999
 20
-121.4607009672
 30
0.0
 11
1172.7401518752999
 21
-121.4607009672
 31
0.0
 70
   128
  1
<>
 13
1155.2401518752999
 23
-95.200923135200014
 33
0.0
 14
1190.2401518752999
 24
-101.5009231352
 34
0.0
 50
180.0
  0
DIMENSION
  5
E0
  8
Éíû@É³
  2
*D9
 10
1158.2401518752999
 20
-41.60535377099999
 30
0.0
 11
1174.2835211685999
 21
-41.60535377099999
 31
0.0
 70
   128
  1
<>
 13
1158.2401518752999
 23
-36.801512657000004
 33
0.0
 14
1155.2401518752999
 24
-36.801512657000004
 34
0.0
  0
DIMENSION
  5
EF
  8
Éíû@É³
  2
*D10
 10
1023.2621308861
 20
-96.200418893099993
 30
0.0
 11
1023.2621308861
 21
-22.2004188931
 31
0.0
 70
   128
  1
<>
 13
987.52482619859995
 23
-96.200418893099993
 33
0.0
 14
987.52482619859995
 24
51.799581106899993
 34
0.0
 50
90.0
  0
DIMENSION
  5
FE
  8
Éíû@É³
  2
*D11
 10
551.02482619859995
 20
-66.200418893100007
 30
0.0
 11
551.02482619859995
 21
-62.2004188931
 31
0.0
 70
   128
  1
<>
 13
521.02482619859995
 23
-66.200418893100007
 33
0.0
 14
521.02482619859995
 24
-58.200418893100007
 34
0.0
 50
90.0
  0
INSERT
  5
FF
  8
0
  6
CONTINUOUS
  2
*U84
 10
0.0
 20
0.0
 30
0.0
  0
INSERT
  5
100
  8
0
  6
CONTINUOUS
  2
*U85
 10
0.0
 20
0.0
 30
0.0
  0
INSERT
  5
101
  8
0
  6
CONTINUOUS
  2
*U86
 10
0.0
 20
0.0
 30
0.0
  0
INSERT
  5
103
  8
É}ÿg
  2
CLUMP0
 10
0.0
 20
0.0
 30
0.0
  0
INSERT
  5
1A8
  8
É}ÿg
  2
CLUMP1
 10
0.0
 20
0.0
 30
0.0
  0
INSERT
  5
1B2
  8
É}ÿg
  2
CLUMP2
 10
0.0
 20
0.0
 30
0.0
  0
INSERT
  5
1BC
  8
É}ÿg
  2
CLUMP3
 10
0.0
 20
0.0
 30
0.0
  0
INSERT
  5
1C6
  8
É}ÿg
  2
CLUMP4
 10
0.0
 20
0.0
 30
0.0
  0
INSERT
  5
1CF
  8
0
  6
CONTINUOUS
  2
*U107
 10
0.0
 20
0.0
 30
0.0
  0
INSERT
  5
1D0
  8
0
  6
CONTINUOUS
  2
*U108
 10
0.0
 20
0.0
 30
0.0
  0
INSERT
  5
1D1
  8
0
  6
CONTINUOUS
  2
*U109
 10
0.0
 20
0.0
 30
0.0
  0
INSERT
  5
1D2
  8
0
  6
CONTINUOUS
  2
*U110
 10
0.0
 20
0.0
 30
0.0
  0
INSERT
  5
1D3
  8
0
  6
CONTINUOUS
  2
*U111
 10
0.0
 20
0.0
 30
0.0
  0
ARC
  5
1D5
  8
┌▓È_1
 62
     5
 10
1157.2401518752999
 20
37.799034498899999
 30
0.0
 40
1.0
 50
0.0
 51
90.0
  0
LINE
  5
1D6
  8
┌▓È_1
 62
     5
 10
1159.2401518752999
 20
50.799034498899999
 30
0.0
 11
1155.2401518752999
 21
50.799034498899999
 31
0.0
  0
LINE
  5
1D7
  8
┌▓È_1
 10
547.00411265689991
 20
-128.39668638099999
 30
0.0
 11
625.20961256850001
 21
-128.39668638099999
 31
0.0
  0
LINE
  5
1D8
  8
┌▓È_1
 10
517.02482619859995
 20
-66.200418893100007
 30
0.0
 11
547.00411265689991
 21
-128.39668638099999
 31
0.0
  0
SOLID
  5
1D9
  8
┌▓È_1
 10
517.02482619859995
 20
-66.200418893100007
 30
0.0
 11
519.40810640519987
 21
-68.967857603500008
 31
0.0
 12
518.14616041620002
 22
-68.526785234000002
 32
0.0
 13
518.14616041620002
 23
-68.526785234000002
 33
0.0
  0
SOLID
  5
1DA
  8
┌▓È_1
 10
517.02482619859995
 20
-66.200418893100007
 30
0.0
 11
517.70508804669998
 21
-69.788731223100001
 31
0.0
 12
518.14616041620002
 22
-68.526785234000002
 32
0.0
 13
518.14616041620002
 23
-68.526785234000002
 33
0.0
  0
INSERT
  5
1DB
  8
0
  6
CONTINUOUS
  2
*U112
 10
0.0
 20
0.0
 30
0.0
  0
INSERT
  5
1DC
  8
0
  6
CONTINUOUS
  2
*U113
 10
0.0
 20
0.0
 30
0.0
  0
INSERT
  5
1DE
  8
Éíû@É³
  2
BALLON0
 10
0.0
 20
0.0
 30
0.0
  0
INSERT
  5
1E8
  8
Éíû@É³
  2
BALLON1
 10
0.0
 20
0.0
 30
0.0
  0
DIMENSION
  5
1FF
  8
Éíû@É³
  2
*D19
 10
525.02482619859995
 20
-43.179077569299999
 30
0.0
 11
517.02482619859995
 21
-43.179077569299999
 31
0.0
 70
   128
  1
<>
 13
525.02482619859995
 23
-62.2004188931
 33
0.0
 14
509.0248261985999
 24
-62.2004188931
 34
0.0
  0
DIMENSION
  5
207
  8
Éíû@É³
  2
*D20
 10
424.9919088346
 20
-25.750617208600001
 30
0.0
 11
519.427647127
 21
4.6640360903999989
 31
0.0
 70
   131
  1
2-%%c <>
 15
437.05774356260002
 25
-18.650220577599999
 35
0.0
 40
0.0
  0
DIMENSION
  5
216
  8
Éíû@É³
  2
*D21
 10
586.52482619859995
 20
85.663873251599995
 30
0.0
 11
551.52482619859995
 21
85.663873251599995
 31
0.0
 70
   128
  1
P=<>
 13
586.52482619859995
 23
21.7995811069
 33
0.0
 14
516.52482619859995
 24
21.7995811069
 34
0.0
  0
DIMENSION
  5
225
  8
Éíû@É³
  2
*D22
 10
1130.2401518752999
 20
-83.201291583699984
 30
0.0
 11
1130.2401518752999
 21
-89.701291583700012
 31
0.0
 70
   128
  1
<>
 13
1155.2401518752999
 23
-83.201291583699984
 33
0.0
 14
1155.2401518752999
 24
-96.201291583700012
 34
0.0
 50
90.0
  0
DIMENSION
  5
234
  8
Éíû@É³
  2
*D23
 10
656.66418087449995
 20
-471.7765778223
 30
0.0
 11
698.47370947449997
 21
-471.7765778223
 31
0.0
 70
   128
  1
%%c83.6
 13
656.66418087449995
 23
-420.58211218510002
 33
0.0
 14
740.28323807449999
 24
-420.58211218510002
 34
0.0
 50
180.0
  0
DIMENSION
  5
243
  8
Éíû@É³
  2
*D24
 10
684.36742051220006
 20
-347.63820890089988
 30
0.0
 11
684.36742051220006
 21
-321.8882089009
 31
0.0
 70
   128
  1
50
 13
667.26467927079989
 23
-347.63820890089988
 33
0.0
 14
664.80406318279995
 24
-296.1382089009
 34
0.0
 50
90.0
  0
DIMENSION
  5
252
  8
Éíû@É³
  2
*D25
 10
670.12472063450002
 20
-442.79548577370002
 30
0.0
 11
698.47370947449997
 21
-442.79548577370002
 31
0.0
 70
   128
  1
%%c56.7
 13
670.12472063450002
 23
-419.12302712500002
 33
0.0
 14
726.82269831449992
 24
-419.12302712500002
 34
0.0
 50
180.0
  0
DIMENSION
  5
261
  8
Éíû@É³
  2
*D26
 10
1020.5248261986
 20
-217.6381979045
 30
0.0
 11
1020.5248261986
 21
-214.6381979045
 31
0.0
 70
   128
  1
<>
 13
990.52482619859995
 23
-217.6381979045
 33
0.0
 14
988.52482619859995
 24
-211.6381979045
 34
0.0
 50
90.0
  0
DIMENSION
  5
271
  8
Éíû@É³
  2
*D27
 10
990.52482619859995
 20
-158.9646177349
 30
0.0
 11
940.52482619859995
 21
-158.9646177349
 31
0.0
 70
   128
  1
(<>)
 13
990.52482619859995
 23
-213.6381979045
 33
0.0
 14
890.52482619859995
 24
-206.6381979045
 34
0.0
  0
DIMENSION
  5
280
  8
Éíû@É³
  2
*D28
 10
492.52505443659999
 20
-158.9646177349
 30
0.0
 11
442.5249403176
 21
-158.9646177349
 31
0.0
 70
   128
  1
(<>)
 13
492.52505443659999
 23
-206.6381979045
 33
0.0
 14
392.52482619860001
 24
-213.6381979045
 34
0.0
  0
DIMENSION
  5
28F
  8
Éíû@É³
  2
*D29
 10
502.52486223509999
 20
-181.63838513089999
 30
0.0
 11
520.23222154910002
 21
-181.63838513089999
 31
0.0
 70
   128
  1
<>
 13
502.52486223509999
 23
-211.63838513089999
 33
0.0
 14
482.52486223509999
 24
-211.63838513089999
 34
0.0
  0
DIMENSION
  5
29E
  8
Éíû@É³
  2
*D30
 10
990.52482619859995
 20
-183.6381979045
 30
0.0
 11
984.02482619859995
 21
-183.6381979045
 31
0.0
 70
   128
  1
<>
 13
990.52482619859995
 23
-213.6381979045
 33
0.0
 14
977.52482619859995
 24
-213.6381979045
 34
0.0
  0
DIMENSION
  5
2AD
  8
Éíû@É³
  2
*D31
 10
405.5255371248
 20
-183.6381979045
 30
0.0
 11
399.0251816617
 21
-183.6381979045
 31
0.0
 70
   128
  1
13
 13
405.5255371248
 23
-213.6381979045
 33
0.0
 14
392.52482619860001
 24
-213.6381979045
 34
0.0
  0
DIMENSION
  5
2BC
  8
Éíû@É³
  2
*D32
 10
1130.2401518752999
 20
38.799034498899999
 30
0.0
 11
1130.2401518752999
 21
-22.201128542399999
 31
0.0
 70
   128
  1
<>
 13
1155.2401518752999
 23
38.799034498899999
 33
0.0
 14
1155.2401518752999
 24
-83.201291583699984
 34
0.0
 50
90.0
  0
DIMENSION
  5
2CB
  8
Éíû@É³
  2
*D33
 10
1130.2401518752999
 20
51.799034498900014
 30
0.0
 11
1130.2401518752999
 21
45.299034498899999
 31
0.0
 70
   128
  1
<>
 13
1155.2401518752999
 23
51.799034498900014
 33
0.0
 14
1155.2401518752999
 24
38.799034498899999
 34
0.0
 50
90.0
  0
DIMENSION
  5
2DA
  8
Éíû@É³
  2
*D34
 10
815.30558505630006
 20
-62.2004188931
 30
0.0
 11
815.30558505630006
 21
-42.2004188931
 31
0.0
 70
   128
  1
<>
 13
805.02482619859984
 23
-62.2004188931
 33
0.0
 14
804.52482619859995
 24
-22.2004188931
 34
0.0
 50
90.0
  0
DIMENSION
  5
2E9
  8
Éíû@É³
  2
*D35
 10
815.30558505630006
 20
-22.2004188931
 30
0.0
 11
815.30558505630006
 21
-2.2004188931000002
 31
0.0
 70
   128
  1
<>
 13
804.52482619859995
 23
-22.2004188931
 33
0.0
 14
804.52482619859995
 24
17.7995811069
 34
0.0
 50
90.0
  0
LINE
  5
2EA
  8
┌▓È_1
 62
     5
 10
1155.2401518752999
 20
37.799034498899999
 30
0.0
 11
1155.2401518752999
 21
-22.201128542399999
 31
0.0
  0
LINE
  5
2EB
  8
┌▓È_1
 62
     5
 10
1158.2401518752999
 20
34.799034498899999
 30
0.0
 11
1158.2401518752999
 21
-22.201128542399999
 31
0.0
  0
LINE
  5
2EC
  8
┌▓È_1
 62
     5
 10
1153.2401518752999
 20
40.799034498899992
 30
0.0
 11
1153.2401518752999
 21
-22.201128542399999
 31
0.0
  0
ARC
  5
2ED
  8
┌▓È_1
 62
     5
 10
1205.0401518752999
 20
-72.701128542399999
 30
0.0
 40
2.5
 50
90.0
 51
180.0
  0
LINE
  5
2EE
  8
┌▓È_1
 62
     5
 10
1155.2401518752999
 20
-82.201291583699984
 30
0.0
 11
1158.2401518752999
 21
-82.201291583699984
 31
0.0
  0
ARC
  5
2EF
  8
┌▓È_1
 62
     5
 10
1157.2401518752999
 20
-82.201291583699984
 30
0.0
 40
2.0
 50
270.0
 51
0.0
  0
LINE
  5
2F0
  8
┌▓È_1
 62
     5
 10
1159.2401518752999
 20
-82.201291583699984
 30
0.0
 11
1159.2401518752999
 21
-79.201291583699984
 31
0.0
  0
LINE
  5
2F1
  8
┌▓È_1
 62
     5
 10
1158.2401518752999
 20
-82.201291583699984
 30
0.0
 11
1158.2401518752999
 21
-79.201291583699984
 31
0.0
  0
ARC
  5
2F2
  8
┌▓È_1
 62
     5
 10
1160.2401518752999
 20
-79.201291583699984
 30
0.0
 40
2.0
 50
90.0
 51
180.0
  0
ARC
  5
2F3
  8
┌▓È_1
 62
     5
 10
1205.0401518752999
 20
28.298871457600001
 30
0.0
 40
2.5
 50
180.0
 51
270.0
  0
LINE
  5
2F4
  8
┌▓È_1
 62
     5
 10
1205.0401518752999
 20
25.798871457600001
 30
0.0
 11
1211.0401518752999
 21
25.798871457600001
 31
0.0
  0
LINE
  5
2F5
  8
┌▓È_1
 62
     5
 10
1160.2401518752999
 20
32.799034498899999
 30
0.0
 11
1198.5401518752999
 21
32.799034498899999
 31
0.0
  0
ARC
  5
2F6
  8
┌▓È_1
 62
     5
 10
1155.2401518752999
 20
49.799034498899999
 30
0.0
 40
1.0
 50
90.0
 51
180.0
  0
LINE
  5
2F7
  8
┌▓È_1
 62
     5
 10
1155.2401518752999
 20
-94.501046092800024
 30
0.0
 11
1155.2401518752999
 21
-95.201291583700026
 31
0.0
  0
LINE
  5
2F8
  8
┌▓È_1
 62
     5
 10
1159.2401518752999
 20
-94.500923135199997
 30
0.0
 11
1159.2401518752999
 21
-82.201291583699984
 31
0.0
  0
LINE
  5
2F9
  8
┌▓È_1
 62
     5
 10
1158.2401518752999
 20
-79.201291583699984
 30
0.0
 11
1158.2401518752999
 21
-22.201128542399999
 31
0.0
  0
LINE
  5
2FA
  8
┌▓È_1
 62
     5
 10
1153.2401518752999
 20
-85.201291583699998
 30
0.0
 11
1153.2401518752999
 21
-22.201128542399999
 31
0.0
  0
LINE
  5
2FB
  8
┌▓È_1
 62
     5
 10
1155.2401518752999
 20
-82.201291583699984
 30
0.0
 11
1155.2401518752999
 21
-22.201128542399999
 31
0.0
  0
LINE
  5
2FC
  8
┌▓È_1
 62
     5
 10
1160.2401518752999
 20
-78.201291583699998
 30
0.0
 11
1198.5401518752999
 21
-78.201291583699998
 31
0.0
  0
LINE
  5
2FD
  8
┌▓È_1
 62
     5
 10
1159.2401518752999
 20
50.09938275159999
 30
0.0
 11
1159.2401518752999
 21
37.799034498899999
 31
0.0
  0
INSERT
  5
2FF
  8
┌▓È_1
 62
     5
  2
CLUMP5
 10
0.0
 20
0.0
 30
0.0
  0
ARC
  5
309
  8
┌▓È_1
 62
     5
 10
1160.2401518752999
 20
34.799034498899999
 30
0.0
 40
2.0
 50
180.0
 51
270.0
  0
ARC
  5
30A
  8
┌▓È_1
 62
     5
 10
1157.2401518752999
 20
37.799034498899999
 30
0.0
 40
2.0
 50
0.0
 51
90.0
  0
ARC
  5
30B
  8
┌▓È_1
 62
     5
 10
1155.2401518752999
 20
40.799034498899992
 30
0.0
 40
2.0
 50
180.0
 51
270.0
  0
LINE
  5
30C
  8
┌▓È_1
 62
     5
 10
1159.2401518752999
 20
51.799034498900014
 30
0.0
 11
1155.2401518752999
 21
51.799034498900014
 31
0.0
  0
LINE
  5
30D
  8
┌▓È_1
 62
     5
 10
1154.2401518752999
 20
-94.201291583699998
 30
0.0
 11
1154.2401518752999
 21
-85.201291583699998
 31
0.0
  0
ARC
  5
30E
  8
┌▓È_1
 62
     5
 10
1155.2401518752999
 20
-85.201291583699998
 30
0.0
 40
1.0
 50
90.0
 51
180.0
  0
LINE
  5
30F
  8
┌▓È_1
 62
     5
 10
1155.2401518752999
 20
-84.201291583699998
 30
0.0
 11
1157.2401518752999
 21
-84.201291583699998
 31
0.0
  0
ARC
  5
310
  8
┌▓È_1
 62
     5
 10
1205.0401518752999
 20
28.298871457600001
 30
0.0
 40
1.5
 50
180.0
 51
270.0
  0
ARC
  5
311
  8
┌▓È_1
 62
     5
 10
1211.0401518752999
 20
-70.001128542399996
 30
0.0
 40
0.2
 50
270.0
 51
0.0
  0
ARC
  5
312
  8
┌▓È_1
 62
     5
 10
1155.2401518752999
 20
49.799034498899999
 30
0.0
 40
2.0
 50
90.0
 51
180.0
  0
LINE
  5
313
  8
┌▓È_1
 62
     5
 10
1155.2401518752999
 20
39.799034498899999
 30
0.0
 11
1157.2401518752999
 21
39.799034498899999
 31
0.0
  0
ARC
  5
314
  8
┌▓È_1
 62
     5
 10
1155.2401518752999
 20
40.799034498899992
 30
0.0
 40
1.0
 50
180.0
 51
270.0
  0
LINE
  5
315
  8
┌▓È_1
 62
     5
 10
1155.2401518752999
 20
37.799034498899999
 30
0.0
 11
1158.2401518752999
 21
37.799034498899999
 31
0.0
  0
LINE
  5
316
  8
┌▓È_1
 62
     5
 10
1159.2401518752999
 20
50.799034498899999
 30
0.0
 11
1159.2401518752999
 21
50.798831373900001
 31
0.0
  0
LINE
  5
317
  8
┌▓È_1
 62
     5
 10
1155.2401518752999
 20
50.099585876599988
 30
0.0
 11
1155.2401518752999
 21
50.799034498899999
 31
0.0
  0
LINE
  5
318
  8
┌▓È_1
 62
     5
 10
1155.2401518752999
 20
38.799034498899999
 30
0.0
 11
1157.2401518752999
 21
38.799034498899999
 31
0.0
  0
ARC
  5
319
  8
┌▓È_1
 62
     5
 10
1157.2401518752999
 20
-82.201291583699984
 30
0.0
 40
1.0
 50
270.0
 51
0.0
  0
LINE
  5
31A
  8
┌▓È_1
 62
     5
 10
1159.2401518752999
 20
-96.201291583700012
 30
0.0
 11
1155.2401518752999
 21
-96.201291583700012
 31
0.0
  0
ARC
  5
31B
  8
┌▓È_1
 62
     5
 10
1155.2401518752999
 20
-85.201291583699998
 30
0.0
 40
2.0
 50
90.0
 51
180.0
  0
LINE
  5
31C
  8
┌▓È_1
 62
     5
 10
1155.2401518752999
 20
-83.201291583699984
 30
0.0
 11
1157.2401518752999
 21
-83.201291583699984
 31
0.0
  0
LINE
  5
31D
  8
┌▓È_1
 62
     5
 10
1159.2401518752999
 20
-95.201291583700026
 30
0.0
 11
1159.2401518752999
 21
-95.201168626100014
 31
0.0
  0
LINE
  5
31E
  8
┌▓È_1
 62
     5
 10
1203.5401518752999
 20
28.799034498899999
 30
0.0
 11
1203.5401518752999
 21
28.298871457600001
 31
0.0
  0
LINE
  5
31F
  8
┌▓È_1
 62
     5
 10
1202.5401518752999
 20
28.799034498899999
 30
0.0
 11
1202.5401518752999
 21
28.298871457600001
 31
0.0
  0
ARC
  5
320
  8
┌▓È_1
 62
     5
 10
1160.2401518752999
 20
-79.201291583699984
 30
0.0
 40
1.0
 50
90.0
 51
180.0
  0
LINE
  5
321
  8
┌▓È_1
 62
     5
 10
1212.2401518752999
 20
25.598871457600001
 30
0.0
 11
1212.2401518752999
 21
19.2992298082
 31
0.0
  0
LINE
  5
322
  8
┌▓È_1
 62
     5
 10
1211.2401518752999
 20
19.2992298082
 30
0.0
 11
1212.2401518752999
 21
19.2992298082
 31
0.0
  0
ARC
  5
323
  8
┌▓È_1
 62
     5
 10
1198.5401518752999
 20
28.799034498899999
 30
0.0
 40
5.0
 50
0.0
 51
90.0
  0
ARC
  5
324
  8
┌▓È_1
 62
     5
 10
1198.5401518752999
 20
28.799034498899999
 30
0.0
 40
4.0
 50
0.0
 51
90.0
  0
LINE
  5
325
  8
┌▓È_1
 62
     5
 10
1159.2400187523001
 20
50.09938275159999
 30
0.0
 11
1155.2401518752999
 21
50.099585876599988
 31
0.0
  0
ARC
  5
326
  8
┌▓È_1
 62
     5
 10
1198.5401518752999
 20
-73.201291583699998
 30
0.0
 40
4.0
 50
270.0
 51
0.0
  0
LINE
  5
327
  8
┌▓È_1
 62
     5
 10
1211.2401518752999
 20
-70.001128542399996
 30
0.0
 11
1211.2401518752999
 21
-63.700770191799997
 31
0.0
  0
LINE
  5
328
  8
┌▓È_1
 62
     5
 10
1212.2401518752999
 20
-70.001128542399996
 30
0.0
 11
1212.2401518752999
 21
-63.700770191799997
 31
0.0
  0
LINE
  5
329
  8
┌▓È_1
 62
     5
 10
1159.2401518752999
 20
-96.201291583700012
 30
0.0
 11
1159.2401518752999
 21
-95.201291583700026
 31
0.0
  0
LINE
  5
32A
  8
┌▓È_1
 62
     5
 10
1153.2401518752999
 20
-94.201291583699998
 30
0.0
 11
1153.2401518752999
 21
-85.201291583699998
 31
0.0
  0
ARC
  5
32B
  8
┌▓È_1
 62
     5
 10
1155.2401518752999
 20
-94.201291583699998
 30
0.0
 40
1.0
 50
180.0
 51
270.0
  0
LINE
  5
32C
  8
┌▓È_1
 62
     5
 10
1159.2401518752999
 20
-95.201291583700026
 30
0.0
 11
1155.2401518752999
 21
-95.201291583700026
 31
0.0
  0
LINE
  5
32D
  8
┌▓È_1
 62
     5
 10
1159.2400187523001
 20
-94.500923135199997
 30
0.0
 11
1155.2401518752999
 21
-94.501046092800024
 31
0.0
  0
LINE
  5
32E
  8
┌▓È_1
 62
     5
 10
1158.2401518752999
 20
37.799034498899999
 30
0.0
 11
1158.2401518752999
 21
34.799034498899999
 31
0.0
  0
LINE
  5
32F
  8
┌▓È_1
 62
     5
 10
1159.2401518752999
 20
51.799034498900014
 30
0.0
 11
1159.2401518752999
 21
50.799034498899999
 31
0.0
  0
LINE
  5
330
  8
┌▓È_1
 62
     5
 10
1160.2401518752999
 20
33.799034498899999
 30
0.0
 11
1198.5401518752999
 21
33.799034498899999
 31
0.0
  0
ARC
  5
331
  8
┌▓È_1
 62
     5
 10
1155.2401518752999
 20
-94.201291583699998
 30
0.0
 40
2.0
 50
180.0
 51
270.0
  0
LINE
  5
332
  8
┌▓È_1
 62
     5
 10
1202.5401518752999
 20
-73.201291583699998
 30
0.0
 11
1202.5401518752999
 21
-72.701128542399999
 31
0.0
  0
LINE
  5
333
  8
┌▓È_1
 62
     5
 10
1203.5401518752999
 20
-73.201291583699998
 30
0.0
 11
1203.5401518752999
 21
-72.701128542399999
 31
0.0
  0
INSERT
  5
335
  8
┌▓È_1
 62
     5
  2
CLUMP6
 10
0.0
 20
0.0
 30
0.0
  0
LINE
  5
38C
  8
┌▓È_1
 62
     5
 10
1154.2401518752999
 20
49.799034498899999
 30
0.0
 11
1154.2401518752999
 21
40.799034498899992
 31
0.0
  0
LINE
  5
38D
  8
┌▓È_1
 62
     5
 10
1159.2401518752999
 20
37.799034498899999
 30
0.0
 11
1159.2401518752999
 21
34.799034498899999
 31
0.0
  0
ARC
  5
38E
  8
┌▓È_1
 62
     5
 10
1160.2401518752999
 20
34.799034498899999
 30
0.0
 40
1.0
 50
180.0
 51
270.0
  0
LINE
  5
38F
  8
┌▓È_1
 62
     5
 10
1153.2401518752999
 20
49.799034498899999
 30
0.0
 11
1153.2401518752999
 21
40.799034498899992
 31
0.0
  0
LINE
  5
390
  8
┌▓È_1
 62
     5
 10
1205.0401518752999
 20
-70.201128542399999
 30
0.0
 11
1211.0401518752999
 21
-70.201128542399999
 31
0.0
  0
LINE
  5
391
  8
┌▓È_1
 62
     5
 10
1211.2401518752999
 20
-63.700770191799997
 30
0.0
 11
1212.2401518752999
 21
-63.700770191799997
 31
0.0
  0
ARC
  5
392
  8
┌▓È_1
 62
     5
 10
1211.0401518752999
 20
-70.001128542399996
 30
0.0
 40
1.1999999999999991
 50
270.0
 51
0.0
  0
LINE
  5
393
  8
┌▓È_1
 62
     5
 10
1205.0401518752999
 20
-71.201128542399999
 30
0.0
 11
1211.0401518752999
 21
-71.201128542399999
 31
0.0
  0
ARC
  5
394
  8
┌▓È_1
 62
     5
 10
1205.0401518752999
 20
-72.701128542399999
 30
0.0
 40
1.5
 50
90.0
 51
180.0
  0
INSERT
  5
396
  8
┌▓È_1
 62
     5
  2
CLUMP7
 10
0.0
 20
0.0
 30
0.0
  0
INSERT
  5
3A1
  8
┌▓È_1
 62
     5
  2
CLUMP8
 10
0.0
 20
0.0
 30
0.0
  0
INSERT
  5
3A9
  8
┌▓È_1
 62
     5
  2
CLUMP9
 10
0.0
 20
0.0
 30
0.0
  0
INSERT
  5
3B1
  8
┌▓È_1
 62
     5
  2
CLUMP10
 10
0.0
 20
0.0
 30
0.0
  0
INSERT
  5
3B9
  8
┌▓È_1
 62
     5
  2
CLUMP11
 10
0.0
 20
0.0
 30
0.0
  0
INSERT
  5
3C1
  8
┌▓È_1
 62
     5
  2
CLUMP12
 10
0.0
 20
0.0
 30
0.0
  0
INSERT
  5
3C9
  8
┌▓È_1
 62
     5
  2
CLUMP13
 10
0.0
 20
0.0
 30
0.0
  0
INSERT
  5
3D1
  8
┌▓È_1
 62
     5
  2
CLUMP14
 10
0.0
 20
0.0
 30
0.0
  0
INSERT
  5
3D9
  8
┌▓È_1
 62
     5
  2
CLUMP15
 10
0.0
 20
0.0
 30
0.0
  0
LINE
  5
3E0
  8
┌▓È_1
 62
     5
 10
990.52482619859995
 20
-93.200418893099993
 30
0.0
 11
990.52482619859995
 21
48.799581106899993
 31
0.0
  0
LINE
  5
3E1
  8
┌▓È_1
 62
     5
 10
977.52482619859995
 20
-75.40041889310001
 30
0.0
 11
977.52482619859995
 21
30.999581106899999
 31
0.0
  0
ARC
  5
3E2
  8
┌▓È_1
 62
     5
 10
969.7248261986
 20
30.999581106899999
 30
0.0
 40
7.7999999999999989
 50
0.0
 51
90.0
  0
ARC
  5
3E3
  8
┌▓È_1
 62
     5
 10
969.7248261986
 20
-75.40041889310001
 30
0.0
 40
7.7999999999999989
 50
270.0
 51
0.0
  0
ARC
  5
3E4
  8
┌▓È_1
 62
     5
 10
987.52482619859995
 20
-93.200418893099993
 30
0.0
 40
3.0
 50
270.0
 51
0.0
  0
INSERT
  5
3E6
  8
┌▓È_1
 62
     5
  2
CLUMP16
 10
0.0
 20
0.0
 30
0.0
  0
ARC
  5
3ED
  8
┌▓È_1
 62
     5
 10
969.02482619859995
 20
-74.700418893099993
 30
0.0
 40
8.0
 50
270.0
 51
0.0
  0
INSERT
  5
3EF
  8
┌▓È_1
 62
     5
  2
CLUMP17
 10
0.0
 20
0.0
 30
0.0
  0
INSERT
  5
3F7
  8
┌▓È_1
 62
     5
  2
CLUMP18
 10
0.0
 20
0.0
 30
0.0
  0
INSERT
  5
3FF
  8
┌▓È_1
 62
     5
  2
CLUMP19
 10
0.0
 20
0.0
 30
0.0
  0
LINE
  5
406
  8
┌▓È_1
  6
BORDER
 62
     3
 10
1148.2401518752999
 20
-22.2007701918
 30
0.0
 11
1351.5544537791
 21
-22.2007701918
 31
0.0
  0
LINE
  5
407
  8
┌▓È_1
 62
     5
 10
1205.0401518752999
 20
26.798871457600001
 30
0.0
 11
1211.0401518752999
 21
26.798871457600001
 31
0.0
  0
LINE
  5
408
  8
┌▓È_1
 62
     5
 10
1160.2401518752999
 20
-77.201291583699984
 30
0.0
 11
1198.5401518752999
 21
-77.201291583699984
 31
0.0
  0
ARC
  5
409
  8
┌▓È_1
 62
     5
 10
1211.0401518752999
 20
25.598871457600001
 30
0.0
 40
1.1999999999999991
 50
0.0
 51
90.0
  0
ARC
  5
40A
  8
┌▓È_1
 62
     5
 10
1211.0401518752999
 20
25.598871457600001
 30
0.0
 40
0.2
 50
0.0
 51
90.0
  0
LINE
  5
40B
  8
┌▓È_1
 62
     5
 10
1211.2401518752999
 20
25.598871457600001
 30
0.0
 11
1211.2401518752999
 21
19.2992298082
 31
0.0
  0
ARC
  5
40C
  8
┌▓È_1
 62
     5
 10
1198.5401518752999
 20
-73.201291583699998
 30
0.0
 40
5.0
 50
270.0
 51
0.0
  0
ARC
  5
40D
  8
┌▓È_1
 62
     5
 10
395.52482619860001
 20
48.799581106899993
 30
0.0
 40
3.0
 50
89.999914845799978
 51
180.0
  0
ARC
  5
40E
  8
┌▓È_1
 62
     5
 10
395.52482619860001
 20
-93.200418893099993
 30
0.0
 40
3.0
 50
180.0
 51
269.99999359930001
  0
LINE
  5
40F
  8
┌▓È_1
 62
     5
 10
406.02482619860001
 20
-74.700418893099993
 30
0.0
 11
406.02482619860001
 21
30.2995811069
 31
0.0
  0
INSERT
  5
411
  8
┌▓È_1
 62
     5
  2
CLUMP20
 10
0.0
 20
0.0
 30
0.0
  0
LINE
  5
418
  8
┌▓È_1
 62
     5
 10
413.32482619860002
 20
-83.200418893100007
 30
0.0
 11
707.52482619859995
 21
-83.200418893100007
 31
0.0
  0
LINE
  5
419
  8
┌▓È_1
 62
     5
 10
707.52482619859995
 20
38.7995811069
 30
0.0
 11
413.32482619860002
 21
38.7995811069
 31
0.0
  0
INSERT
  5
41B
  8
┌▓È_1
 62
     5
  2
CLUMP21
 10
0.0
 20
0.0
 30
0.0
  0
LINE
  5
422
  8
┌▓È_1
 62
     5
 10
987.52482619859995
 20
51.799581106899993
 30
0.0
 11
395.52483065730001
 21
51.799581106899993
 31
0.0
  0
LINE
  5
423
  8
┌▓È_1
 62
     5
 10
395.52482586349998
 20
-96.200418893099993
 30
0.0
 11
987.52482619859995
 21
-96.200418893099993
 31
0.0
  0
LINE
  5
424
  8
┌▓È_1
 62
     5
 10
969.7248261986
 20
38.7995811069
 30
0.0
 11
707.52482619859995
 21
38.7995811069
 31
0.0
  0
LINE
  5
425
  8
┌▓È_1
 62
     5
 10
969.02482619859995
 20
-82.700418893099993
 30
0.0
 11
414.02482619860001
 21
-82.700418893099993
 31
0.0
  0
LINE
  5
426
  8
┌▓È_1
 62
     5
 10
707.52482619859995
 20
-83.200418893100007
 30
0.0
 11
969.7248261986
 21
-83.200418893100007
 31
0.0
  0
LINE
  5
427
  8
┌▓È_1
 62
     5
 10
414.02482619860001
 20
38.2995811069
 30
0.0
 11
969.02482619859995
 21
38.2995811069
 31
0.0
  0
INSERT
  5
429
  8
┌▓È_1
 62
     5
  2
CLUMP22
 10
0.0
 20
0.0
 30
0.0
  0
ARC
  5
430
  8
┌▓È_1
 62
     5
 10
987.52482619859995
 20
48.799581106899993
 30
0.0
 40
3.0
 50
0.0
 51
90.0
  0
INSERT
  5
432
  8
┌▓È_1
 62
     5
  2
CLUMP23
 10
0.0
 20
0.0
 30
0.0
  0
ARC
  5
439
  8
┌▓È_1
 62
     5
 10
969.02482619859995
 20
30.2995811069
 30
0.0
 40
8.0
 50
0.0
 51
90.0
  0
LINE
  5
43A
  8
┌▓È_1
 62
     5
 10
977.02482619859995
 20
30.2995811069
 30
0.0
 11
977.02482619859995
 21
-74.700418893099993
 31
0.0
  0
CIRCLE
  5
43B
  8
┌▓È_1
 62
     5
 10
952.02482619859995
 20
-22.2004188931
 30
0.0
 40
7.0
  0
INSERT
  5
43D
  8
┌▓È_1
 62
     5
  2
CLUMP24
 10
0.0
 20
0.0
 30
0.0
  0
INSERT
  5
445
  8
┌▓È_1
 62
     5
  2
CLUMP25
 10
0.0
 20
0.0
 30
0.0
  0
INSERT
  5
44D
  8
┌▓È_1
 62
     5
  2
CLUMP26
 10
0.0
 20
0.0
 30
0.0
  0
CIRCLE
  5
454
  8
┌▓È_1
 62
     5
 10
431.02482619860001
 20
-22.2004188931
 30
0.0
 40
7.0
  0
INSERT
  5
456
  8
┌▓È_1
 62
     5
  2
CLUMP27
 10
0.0
 20
0.0
 30
0.0
  0
INSERT
  5
45E
  8
┌▓È_1
 62
     5
  2
CLUMP28
 10
0.0
 20
0.0
 30
0.0
  0
LINE
  5
465
  8
┌▓È_1
 62
     5
 10
973.52482619859995
 20
-216.6381979045
 30
0.0
 11
976.52482619859995
 21
-216.6381979045
 31
0.0
  0
ARC
  5
466
  8
┌▓È_1
 62
     5
 10
988.52482619859995
 20
-213.6381979045
 30
0.0
 40
2.0
 50
0.0
 51
90.0
  0
LINE
  5
467
  8
┌▓È_1
 62
     5
 10
394.52482619860001
 20
-211.6381979045
 30
0.0
 11
405.5248261985999
 21
-211.6381979045
 31
0.0
  0
LINE
  5
468
  8
┌▓È_1
 62
     5
 10
977.02518166169989
 20
-213.6381979045
 30
0.0
 11
977.02518166169989
 21
-216.50401798429999
 31
0.0
  0
ARC
  5
469
  8
┌▓È_1
 62
     5
 10
976.52482619859995
 20
-215.6381979045
 30
0.0
 40
1.0
 50
270.0
 51
0.0
  0
LINE
  5
46A
  8
┌▓È_1
 62
     5
 10
988.52482619859995
 20
-211.6381979045
 30
0.0
 11
977.52482619859995
 21
-211.6381979045
 31
0.0
  0
LINE
  5
46B
  8
┌▓È_1
 10
663.17879352779994
 20
-379.73071700460002
 30
0.0
 11
670.12472063450002
 21
-419.12302712500002
 31
0.0
  0
LINE
  5
46C
  8
┌▓È_1
 10
649.71825376779998
 20
-381.18980206459997
 30
0.0
 11
656.66418087449995
 21
-420.58211218510002
 31
0.0
  0
LINE
  5
46D
  8
┌▓È_1
 10
719.87677120779995
 20
-379.73071700460002
 30
0.0
 11
726.82269831449992
 21
-419.12302712500002
 31
0.0
  0
LINE
  5
46E
  8
┌▓È_1
 10
733.33731096779991
 20
-381.18980206459997
 30
0.0
 11
740.28323807449999
 21
-420.58211218510002
 31
0.0
  0
INSERT
  5
46F
  8
0
  6
CONTINUOUS
  2
*U116
 10
0.0
 20
0.0
 30
0.0
  0
CIRCLE
  5
470
  8
┌▓È_1
  6
STITCH
 10
691.52482619859995
 20
-22.2004188931
 30
0.0
 40
49.0
  0
CIRCLE
  5
471
  8
┌▓È_1
  6
STITCH
 10
691.52482619859995
 20
-22.2004188931
 30
0.0
 40
41.5
  0
LINE
  5
472
  8
┌▓È_1
  6
BORDER
 62
     3
 10
952.02482619859995
 20
-9.7004188931000002
 30
0.0
 11
952.02482619859995
 21
-34.7004188931
 31
0.0
  0
LINE
  5
473
  8
┌▓È_1
  6
BORDER
 62
     3
 10
691.52482619859995
 20
-101.20041889309999
 30
0.0
 11
691.52482619859995
 21
56.799581106899993
 31
0.0
  0
LINE
  5
474
  8
┌▓È_1
  6
BORDER
 62
     3
 10
431.02482619860001
 20
-9.7004188931000002
 30
0.0
 11
431.02482619860001
 21
-34.7004188931
 31
0.0
  0
LINE
  5
475
  8
┌▓È_1
  6
BORDER
 62
     3
 10
387.52482619860001
 20
-22.2004188931
 30
0.0
 11
995.52482619859995
 21
-22.2004188931
 31
0.0
  0
LINE
  5
476
  8
┌▓È_1
 62
     5
 10
392.52482619860001
 20
48.799581106899993
 30
0.0
 11
392.52482619860001
 21
-93.200418893099993
 31
0.0
  0
LINE
  5
477
  8
┌▓È_1
 62
     5
 10
405.5248261985999
 20
30.999581106899999
 30
0.0
 11
405.5248261985999
 21
-75.40041889310001
 31
0.0
  0
ARC
  5
478
  8
┌▓È_1
 62
     5
 10
413.32482619860002
 20
30.999581106899999
 30
0.0
 40
7.7999999999999989
 50
90.0
 51
180.0
  0
ARC
  5
479
  8
┌▓È_1
 62
     5
 10
414.02482619860001
 20
30.2995811069
 30
0.0
 40
8.0
 50
90.0
 51
180.0
  0
ARC
  5
47A
  8
┌▓È_1
 62
     5
 10
414.02482619860001
 20
-74.700418893099993
 30
0.0
 40
8.0
 50
180.0
 51
270.0
  0
ARC
  5
47B
  8
┌▓È_1
 62
     5
 10
413.32482619860002
 20
-75.40041889310001
 30
0.0
 40
7.7999999999999989
 50
180.0
 51
270.0
  0
INSERT
  5
47D
  8
┌▓È_1
 62
     5
  2
CLUMP29
 10
0.0
 20
0.0
 30
0.0
  0
INSERT
  5
485
  8
┌▓È_1
 62
     5
  2
CLUMP30
 10
0.0
 20
0.0
 30
0.0
  0
LINE
  5
48C
  8
┌▓È_1
 62
     5
 10
409.5255371248
 20
-216.6381979045
 30
0.0
 11
406.5255371248
 21
-216.6381979045
 31
0.0
  0
LINE
  5
48D
  8
┌▓È_1
 62
     5
 10
394.52553712480011
 20
-212.6381979045
 30
0.0
 11
403.5255371248
 21
-212.6381979045
 31
0.0
  0
ARC
  5
48E
  8
┌▓È_1
 62
     5
 10
403.5255371248
 20
-213.6381979045
 30
0.0
 40
1.0
 50
0.0
 51
90.0
  0
ARC
  5
48F
  8
┌▓È_1
 62
     5
 10
403.5255371248
 20
-213.6381979045
 30
0.0
 40
2.0
 50
0.0
 51
90.0
  0
ARC
  5
490
  8
┌▓È_1
 62
     5
 10
415.5255371248
 20
-251.45775266480001
 30
0.0
 40
4.0
 50
180.0
 51
268.61734798459997
  0
LINE
  5
491
  8
┌▓È_1
 62
     5
 10
405.5255371248
 20
-213.6381979045
 30
0.0
 11
405.5255371248
 21
-215.6381979045
 31
0.0
  0
ARC
  5
492
  8
┌▓È_1
 62
     5
 10
406.5255371248
 20
-215.6381979045
 30
0.0
 40
1.0
 50
180.0
 51
270.0
  0
ARC
  5
493
  8
┌▓È_1
 62
     5
 10
394.52553712480011
 20
-213.6381979045
 30
0.0
 40
1.0
 50
90.0
 51
180.0
  0
ARC
  5
494
  8
┌▓È_1
 62
     5
 10
394.52482619860001
 20
-213.6381979045
 30
0.0
 40
2.0
 50
90.0
 51
180.0
  0
LINE
  5
495
  8
┌▓È_1
 62
     5
 10
641.08514991849995
 20
-260.90315789239997
 30
0.0
 11
415.42830824669988
 21
-255.45658803090001
 31
0.0
  0
LINE
  5
496
  8
┌▓È_1
 62
     5
 10
989.52482619859995
 20
-217.6381979045
 30
0.0
 11
989.52482619859995
 21
-213.6381979045
 31
0.0
  0
ARC
  5
497
  8
┌▓È_1
 62
     5
 10
973.52482619859995
 20
-218.6381979045
 30
0.0
 40
2.0
 50
90.0
 51
180.0
  0
LINE
  5
498
  8
┌▓È_1
 62
     5
 10
740.52482619859995
 20
-269.43819790449999
 30
0.0
 11
740.52482619859995
 21
-263.4024299962
 31
0.0
  0
ARC
  5
499
  8
┌▓È_1
 62
     5
 10
967.52482619859984
 20
-251.45775266480001
 30
0.0
 40
4.0
 50
271.38265201540003
 51
0.0
  0
ARC
  5
49A
  8
┌▓È_1
 62
     5
 10
967.52482619859984
 20
-251.45775266480001
 30
0.0
 40
5.0
 50
271.38265201540003
 51
0.0
  0
ARC
  5
49B
  8
┌▓È_1
 62
     5
 10
643.7248261986
 20
-269.43819790449999
 30
0.0
 40
0.2
 50
180.0
 51
270.0
  0
LINE
  5
49C
  8
┌▓È_1
 62
     5
 10
739.52482619859995
 20
-269.43819790449999
 30
0.0
 11
739.52482619859995
 21
-263.4024299962
 31
0.0
  0
ARC
  5
49D
  8
┌▓È_1
 62
     5
 10
739.32482619860002
 20
-269.43819790449999
 30
0.0
 40
0.2
 50
270.0
 51
0.0
  0
LINE
  5
49E
  8
┌▓È_1
 62
     5
 10
404.5255371248
 20
-213.6381979045
 30
0.0
 11
404.5255371248
 21
-215.6381979045
 31
0.0
  0
LINE
  5
49F
  8
┌▓È_1
 62
     5
 10
977.52482619859995
 20
-213.6381979045
 30
0.0
 11
977.52482619859995
 21
-215.6381979045
 31
0.0
  0
LINE
  5
4A0
  8
┌▓È_1
 62
     5
 10
978.52482619859995
 20
-213.6381979045
 30
0.0
 11
978.52482619859995
 21
-215.6381979045
 31
0.0
  0
ARC
  5
4A1
  8
┌▓È_1
 62
     5
 10
979.52482619859995
 20
-213.6381979045
 30
0.0
 40
2.0
 50
90.0
 51
180.0
  0
ARC
  5
4A2
  8
┌▓È_1
 62
     5
 10
979.52482619859995
 20
-213.6381979045
 30
0.0
 40
1.0
 50
90.0
 51
180.0
  0
LINE
  5
4A3
  8
┌▓È_1
 62
     5
 10
988.52482619859995
 20
-212.6381979045
 30
0.0
 11
979.52482619859995
 21
-212.6381979045
 31
0.0
  0
ARC
  5
4A4
  8
┌▓È_1
 62
     5
 10
988.52482619859995
 20
-213.6381979045
 30
0.0
 40
1.0
 50
0.0
 51
90.0
  0
LINE
  5
4A5
  8
┌▓È_1
 62
     5
 10
641.06102043060002
 20
-261.9028667339
 30
0.0
 11
415.4041787587999
 21
-256.4562968724
 31
0.0
  0
LINE
  5
4A6
  8
┌▓È_1
 62
     5
 10
741.96450247869996
 20
-260.90315789239997
 30
0.0
 11
967.62134415050002
 21
-255.45658803090001
 31
0.0
  0
LINE
  5
4A7
  8
┌▓È_1
 62
     5
 10
973.52482619859995
 20
-216.6381979045
 30
0.0
 11
409.5255371248
 21
-216.6381979045
 31
0.0
  0
LINE
  5
4A8
  8
┌▓È_1
 62
     5
 10
977.02518166169989
 20
-213.6381979045
 30
0.0
 11
406.02518166169989
 21
-213.6381979045
 31
0.0
  0
ARC
  5
4A9
  8
┌▓È_1
 62
     5
 10
976.52482619859995
 20
-215.6381979045
 30
0.0
 40
2.0
 50
270.0
 51
0.0
  0
LINE
  5
4AA
  8
┌▓È_1
 62
     5
 10
990.52482619859995
 20
-217.6381979045
 30
0.0
 11
973.52482619859995
 21
-217.6381979045
 31
0.0
  0
ARC
  5
4AB
  8
┌▓È_1
 62
     5
 10
973.52482619859995
 20
-218.6381979045
 30
0.0
 40
1.0
 50
90.0
 51
180.0
  0
LINE
  5
4AC
  8
┌▓È_1
 62
     5
 10
972.52482619859995
 20
-218.6381979045
 30
0.0
 11
972.52482619859995
 21
-251.45775266480001
 31
0.0
  0
LINE
  5
4AD
  8
┌▓È_1
 62
     5
 10
971.52482619859995
 20
-218.6381979045
 30
0.0
 11
971.52482619859995
 21
-251.45775266480001
 31
0.0
  0
LINE
  5
4AE
  8
┌▓È_1
 62
     5
 10
406.02518166169989
 20
-216.50401798429999
 30
0.0
 11
406.02518166169989
 21
-213.6381979045
 31
0.0
  0
ARC
  5
4AF
  8
┌▓È_1
 62
     5
 10
409.5248261985999
 20
-218.6381979045
 30
0.0
 40
1.0
 50
0.0
 51
90.0
  0
ARC
  5
4B0
  8
┌▓È_1
 62
     5
 10
742.02482619859995
 20
-263.4024299962
 30
0.0
 40
1.5
 50
91.382652015400012
 51
180.0
  0
LINE
  5
4B1
  8
┌▓È_1
 62
     5
 10
642.52482619859995
 20
-269.43819790449999
 30
0.0
 11
642.52482619859995
 21
-263.4024299962
 31
0.0
  0
ARC
  5
4B2
  8
┌▓È_1
 62
     5
 10
641.02482619859995
 20
-263.4024299962
 30
0.0
 40
1.5
 50
0.0
 51
88.617347984599974
  0
ARC
  5
4B3
  8
┌▓È_1
 62
     5
 10
739.32482619860002
 20
-269.43819790449999
 30
0.0
 40
1.1999999999999991
 50
270.0
 51
0.0
  0
ARC
  5
4B4
  8
┌▓È_1
 62
     5
 10
643.7248261986
 20
-269.43819790449999
 30
0.0
 40
1.1999999999999991
 50
180.0
 51
270.0
  0
ARC
  5
4B5
  8
┌▓È_1
 62
     5
 10
742.02482619859995
 20
-263.4024299962
 30
0.0
 40
2.5
 50
91.382652015400012
 51
180.0
  0
ARC
  5
4B6
  8
┌▓È_1
 62
     5
 10
641.02482619859995
 20
-263.4024299962
 30
0.0
 40
2.5
 50
0.0
 51
88.617347984599974
  0
LINE
  5
4B7
  8
┌▓È_1
 62
     5
 10
643.52482619859995
 20
-269.43819790449999
 30
0.0
 11
643.52482619859995
 21
-263.4024299962
 31
0.0
  0
LINE
  5
4B8
  8
┌▓È_1
 62
     5
 10
392.52482619860001
 20
-217.6381979045
 30
0.0
 11
392.52482619860001
 21
-213.6381979045
 31
0.0
  0
LINE
  5
4B9
  8
┌▓È_1
 62
     5
 10
733.0251816617
 20
-269.63819790449998
 30
0.0
 11
739.32482619860002
 21
-269.63819790449998
 31
0.0
  0
LINE
  5
4BA
  8
┌▓È_1
 62
     5
 10
733.0251816617
 20
-270.63819790449998
 30
0.0
 11
739.32482619860002
 21
-270.63819790449998
 31
0.0
  0
LINE
  5
4BB
  8
┌▓È_1
 62
     5
 10
650.0251816617
 20
-270.63819790449998
 30
0.0
 11
643.7248261986
 21
-270.63819790449998
 31
0.0
  0
LINE
  5
4BC
  8
┌▓È_1
 62
     5
 10
643.7248261986
 20
-269.63819790449998
 30
0.0
 11
650.0251816617
 21
-269.63819790449998
 31
0.0
  0
LINE
  5
4BD
  8
┌▓È_1
 62
     5
 10
733.0251816617
 20
-270.63819790449998
 30
0.0
 11
733.0251816617
 21
-269.63819790449998
 31
0.0
  0
LINE
  5
4BE
  8
┌▓È_1
  6
STITCH
 10
880.52482619859995
 20
-246.6381979045
 30
0.0
 11
900.52482619859995
 21
-246.6381979045
 31
0.0
  0
LINE
  5
4BF
  8
┌▓È_1
  6
STITCH
 10
701.52463399709995
 20
-246.6381979045
 30
0.0
 11
681.52482619859995
 21
-246.6381979045
 31
0.0
  0
LINE
  5
4C0
  8
┌▓È_1
  6
STITCH
 10
482.52486223509999
 20
-246.63838513089999
 30
0.0
 11
502.52486223509999
 21
-246.63838513089999
 31
0.0
  0
LINE
  5
4C1
  8
┌▓È_1
  6
STITCH
 10
880.52463399710007
 20
-211.63838513089999
 30
0.0
 11
880.52463399710007
 21
-246.63838513089999
 31
0.0
  0
LINE
  5
4C2
  8
┌▓È_1
  6
STITCH
 10
900.52463399709995
 20
-246.63838513089999
 30
0.0
 11
900.52463399709995
 21
-211.63838513089999
 31
0.0
  0
LINE
  5
4C3
  8
┌▓È_1
  6
STITCH
 10
701.52463399709995
 20
-246.6381979045
 30
0.0
 11
701.52463399709995
 21
-211.63838513089999
 31
0.0
  0
LINE
  5
4C4
  8
┌▓È_1
  6
STITCH
 10
681.52463399709995
 20
-211.63838513089999
 30
0.0
 11
681.52463399709995
 21
-246.63838513089999
 31
0.0
  0
LINE
  5
4C5
  8
┌▓È_1
  6
STITCH
 10
482.52486223509999
 20
-211.63838513089999
 30
0.0
 11
482.52486223509999
 21
-246.63838513089999
 31
0.0
  0
LINE
  5
4C6
  8
┌▓È_1
  6
STITCH
 10
502.52486223509999
 20
-246.63838513089999
 30
0.0
 11
502.52486223509999
 21
-211.63838513089999
 31
0.0
  0
LINE
  5
4C7
  8
┌▓È_1
  6
BORDER
 62
     3
 10
890.52482619859995
 20
-206.6381979045
 30
0.0
 11
890.52482619859995
 21
-251.63838513089999
 31
0.0
  0
LINE
  5
4C8
  8
┌▓È_1
  6
BORDER
 62
     3
 10
492.52505443659999
 20
-206.6381979045
 30
0.0
 11
492.52505443659999
 21
-251.63838513089999
 31
0.0
  0
LINE
  5
4C9
  8
┌▓È_1
  6
BORDER
 62
     3
 10
691.5251816617
 20
-206.6381979045
 30
0.0
 11
691.5251816617
 21
-409.95249980819989
 31
0.0
  0
LINE
  5
4CA
  8
┌▓È_1
 62
     5
 10
741.98863196669993
 20
-261.9028667339
 30
0.0
 11
967.64547363849999
 21
-256.4562968724
 31
0.0
  0
LINE
  5
4CB
  8
┌▓È_1
 62
     5
 10
411.5255371248
 20
-218.6381979045
 30
0.0
 11
411.5255371248
 21
-251.45775266480001
 31
0.0
  0
LINE
  5
4CC
  8
┌▓È_1
 62
     5
 10
410.52482619860001
 20
-218.6381979045
 30
0.0
 11
410.52482619860001
 21
-251.45775266480001
 31
0.0
  0
LINE
  5
4CD
  8
┌▓È_1
 62
     5
 10
990.52482619859995
 20
-217.6381979045
 30
0.0
 11
990.52482619859995
 21
-213.6381979045
 31
0.0
  0
ARC
  5
4CE
  8
┌▓È_1
 62
     5
 10
406.5255371248
 20
-215.6381979045
 30
0.0
 40
2.0
 50
180.0
 51
270.0
  0
ARC
  5
4CF
  8
┌▓È_1
 62
     5
 10
409.5255371248
 20
-218.6381979045
 30
0.0
 40
2.0
 50
0.0
 51
90.0
  0
LINE
  5
4D0
  8
┌▓È_1
 62
     5
 10
393.5255371248
 20
-217.6381979045
 30
0.0
 11
393.5255371248
 21
-213.6381979045
 31
0.0
  0
LINE
  5
4D1
  8
┌▓È_1
 62
     5
 10
392.52482619860001
 20
-217.6381979045
 30
0.0
 11
409.5248261985999
 21
-217.6381979045
 31
0.0
  0
LINE
  5
4D2
  8
┌▓È_1
 62
     5
 10
650.0251816617
 20
-270.63819790449998
 30
0.0
 11
650.0251816617
 21
-269.63819790449998
 31
0.0
  0
INSERT
  5
4D4
  8
┌▓È_1
 62
     5
  2
CLUMP31
 10
0.0
 20
0.0
 30
0.0
  0
LINE
  5
5CF
  8
┌▓È_1
 62
     5
 10
977.52482619859995
 20
-211.6381979045
 30
0.0
 11
691.52482619859995
 21
-211.6381979045
 31
0.0
  0
ARC
  5
5D0
  8
┌▓È_1
 62
     5
 10
415.52482619860001
 20
-251.45775266480001
 30
0.0
 40
5.0
 50
180.0
 51
268.61734798459997
  0
LINE
  5
5D1
  8
┌▓È_1
 62
     5
 10
405.5248261985999
 20
-211.6381979045
 30
0.0
 11
691.52482619859995
 21
-211.6381979045
 31
0.0
  0
ENDSEC
  0
EOF
