  0
SECTION
  2
HEADER
  9
$ACADVER
  1
AC1015
  9
$ACADMAINTVER
 70
               6
  9
$DWGCODEPAGE
  3
ANSI_932
  9
$INSBASE
 10
0.0
 20
0.0
 30
0.0
  9
$EXTMIN
 10
-113.96952380952382
 20
64.345059523809525
 30
0.0
  9
$EXTMAX
 10
110.63904761904763
 20
-46.447321428571442
 30
0.0
  9
$LIMMIN
 10
0.0
 20
0.0
  9
$LIMMAX
 10
0.0
 20
0.0
  9
$ORTHOMODE
 70
               0
  9
$REGENMODE
 70
               1
  9
$FILLMODE
 70
               1
  9
$QTEXTMODE
 70
               0
  9
$MIRRTEXT
 70
               1
  9
$LTSCALE
 40
1.0
  9
$ATTMODE
 70
               1
  9
$TEXTSIZE
 40
0.2
  9
$TRACEWID
 40
0.05
  9
$TEXTSTYLE
  7
Standard
  9
$CLAYER
  8
0
  9
$CELTYPE
  6
Continuous
  9
$CECOLOR
 62
             256
  9
$CELTSCALE
 40
1.0
  9
$DISPSILH
 70
               0
  9
$DIMSCALE
 40
1.0
  9
$DIMASZ
 40
2.4148145657226707
  9
$DIMEXO
 40
1.0
  9
$DIMDLI
 40
0.38
  9
$DIMRND
 40
0.0
  9
$DIMDLE
 40
0.0
  9
$DIMEXE
 40
2.0
  9
$DIMTP
 40
0.0
  9
$DIMTM
 40
0.0
  9
$DIMTXT
 40
3.5277777777777777
  9
$DIMCEN
 40
0.09
  9
$DIMTSZ
 40
0.0
  9
$DIMTOL
 70
               0
  9
$DIMLIM
 70
               0
  9
$DIMTIH
 70
               0
  9
$DIMTOH
 70
               0
  9
$DIMSE1
 70
               0
  9
$DIMSE2
 70
               0
  9
$DIMTAD
 70
               1
  9
$DIMZIN
 70
               0
  9
$DIMBLK
  1

  9
$DIMASO
 70
               1
  9
$DIMSHO
 70
               1
  9
$DIMPOST
  1

  9
$DIMAPOST
  1

  9
$DIMALT
 70
               0
  9
$DIMALTD
 70
               1
  9
$DIMALTF
 40
25.399999999999999
  9
$DIMLFAC
 40
1.0
  9
$DIMTOFL
 70
               0
  9
$DIMTVP
 40
0.0
  9
$DIMTIX
 70
               0
  9
$DIMSOXD
 70
               0
  9
$DIMSAH
 70
               0
  9
$DIMBLK1
  1

  9
$DIMBLK2
  1

  9
$DIMSTYLE
  2
Standard
  9
$DIMCLRD
 70
               7
  9
$DIMCLRE
 70
               7
  9
$DIMCLRT
 70
               7
  9
$DIMTFAC
 40
1.0
  9
$DIMGAP
 40
1.0
  9
$DIMJUST
 70
               0
  9
$DIMSD1
 70
               0
  9
$DIMSD2
 70
               0
  9
$DIMTOLJ
 70
               1
  9
$DIMTZIN
 70
               0
  9
$DIMALTZ
 70
               0
  9
$DIMALTTZ
 70
               0
  9
$DIMUPT
 70
               0
  9
$DIMDEC
 70
               1
  9
$DIMTDEC
 70
               4
  9
$DIMALTU
 70
               2
  9
$DIMALTTD
 70
               2
  9
$DIMTXSTY
  7
Standard
  9
$DIMAUNIT
 70
               0
  9
$DIMADEC
 70
               0
  9
$DIMALTRND
 40
0.0
  9
$DIMAZIN
 70
               0
  9
$DIMDSEP
 70
               0
  9
$DIMATFIT
 70
               3
  9
$DIMFRAC
 70
               0
  9
$DIMLDRBLK
  1

  9
$DIMLUNIT
 70
               2
  9
$DIMLWD
 70
               0
  9
$DIMLWE
 70
               0
  9
$DIMTMOVE
 70
               0
  9
$LUNITS
 70
               2
  9
$LUPREC
 70
               4
  9
$SKETCHINC
 40
0.1
  9
$FILLETRAD
 40
0.0
  9
$AUNITS
 70
               0
  9
$AUPREC
 70
               0
  9
$MENU
  1
acad
  9
$ELEVATION
 40
0.0
  9
$PELEVATION
 40
0.0
  9
$THICKNESS
 40
0.0
  9
$LIMCHECK
 70
               0
  9
$CHAMFERA
 40
0.0
  9
$CHAMFERB
 40
0.0
  9
$CHAMFERC
 40
0.0
  9
$CHAMFERD
 40
0.0
  9
$SKPOLY
 70
               0
  9
$TDCREATE
 40
2457418.493078704
  9
$TDUCREATE
 40
0.000000000
  9
$TDUPDATE
 40
2457418.493078704
  9
$TDUUPDATE
 40
0.000000000
  9
$TDINDWG
 40
0.0000000000
  9
$TDUSRTIMER
 40
0.0000000000
  9
$USRTIMER
 70
               1
  9
$ANGBASE
 50
0.0
  9
$ANGDIR
 70
               0
  9
$PDMODE
 70
               0
  9
$PDSIZE
 40
0.0
  9
$PLINEWID
 40
0.0
  9
$SPLFRAME
 70
               0
  9
$SPLINETYPE
 70
               6
  9
$SPLINESEGS
 70
               8
  9
$HANDSEED
  5
1B8
  9
$SURFTAB1
 70
               6
  9
$SURFTAB2
 70
               6
  9
$SURFTYPE
 70
               6
  9
$SURFU
 70
               6
  9
$SURFV
 70
               6
  9
$UCSBASE
  2

  9
$UCSNAME
  2

  9
$UCSORG
 10
0.0
 20
0.0
 30
0.0
  9
$UCSXDIR
 10
1.0
 20
0.0
 30
0.0
  9
$UCSYDIR
 10
0.0
 20
1.0
 30
0.0
  9
$UCSORTHOREF
  2

  9
$UCSORTHOVIEW
 70
               0
  9
$UCSORGTOP
 10
0.0
 20
0.0
 30
0.0
  9
$UCSORGBOTTOM
 10
0.0
 20
0.0
 30
0.0
  9
$UCSORGLEFT
 10
0.0
 20
0.0
 30
0.0
  9
$UCSORGRIGHT
 10
0.0
 20
0.0
 30
0.0
  9
$UCSORGFRONT
 10
0.0
 20
0.0
 30
0.0
  9
$UCSORGBACK
 10
0.0
 20
0.0
 30
0.0
  9
$PUCSBASE
  2

  9
$PUCSNAME
  2

  9
$PUCSORG
 10
0.0
 20
0.0
 30
0.0
  9
$PUCSXDIR
 10
1.0
 20
0.0
 30
0.0
  9
$PUCSYDIR
 10
0.0
 20
1.0
 30
0.0
  9
$PUCSORTHOREF
  2

  9
$PUCSORTHOVIEW
 70
               0
  9
$PUCSORGTOP
 10
0.0
 20
0.0
 30
0.0
  9
$PUCSORGBOTTOM
 10
0.0
 20
0.0
 30
0.0
  9
$PUCSORGLEFT
 10
0.0
 20
0.0
 30
0.0
  9
$PUCSORGRIGHT
 10
0.0
 20
0.0
 30
0.0
  9
$PUCSORGFRONT
 10
0.0
 20
0.0
 30
0.0
  9
$PUCSORGBACK
 10
0.0
 20
0.0
 30
0.0
  9
$USERI1
 70
               0
  9
$USERI2
 70
               0
  9
$USERI3
 70
               0
  9
$USERI4
 70
               0
  9
$USERI5
 70
               0
  9
$USERR1
 40
0.0
  9
$USERR2
 40
0.0
  9
$USERR3
 40
0.0
  9
$USERR4
 40
0.0
  9
$USERR5
 40
0.0
  9
$WORLDVIEW
 70
               1
  9
$SHADEDGE
 70
               3
  9
$SHADEDIF
 70
              70
  9
$TILEMODE
 70
               1
  9
$MAXACTVP
 70
              16
  9
$PINSBASE
 10
0.0
 20
0.0
 30
0.0
  9
$PLIMCHECK
 70
               0
  9
$PEXTMIN
 10
1.0000000000000000E+20
 20
1.0000000000000000E+20
 30
1.0000000000000000E+20
  9
$PEXTMAX
 10
-1.0000000000000000E+20
 20
-1.0000000000000000E+20
 30
-1.0000000000000000E+20
  9
$PLIMMIN
 10
0.0
 20
0.0
  9
$PLIMMAX
 10
12.0
 20
9.0
  9
$UNITMODE
 70
               0
  9
$VISRETAIN
 70
               0
  9
$PLINEGEN
 70
               1
  9
$PSLTSCALE
 70
               0
  9
$TREEDEPTH
 70
            3020
  9
$CMLSTYLE
  2
Standard
  9
$CMLJUST
 70
               0
  9
$CMLSCALE
 40
1.0
  9
$PROXYGRAPHICS
 70
               0
  9
$MEASUREMENT
 70
               0
  9
$CELWEIGHT
370
               0
  9
$ENDCAPS
280
               0
  9
$JOINSTYLE
280
               0
  9
$LWDISPLAY
290
               0
  9
$INSUNITS
 70
               0
  9
$HYPERLINKBASE
  1

  9
$STYLESHEET
  1

  9
$XEDIT
290
               1
  9
$CEPSNTYPE
380
               0
  9
$PSTYLEMODE
290
               1
  9
$FINGERPRINTGUID
  2

  9
$VERSIONGUID
  2

  9
$EXTNAMES
290
               1
  9
$PSVPSCALE
 40
0.0
  0
ENDSEC
  0
SECTION
  2
CLASSES
  0
CLASS
  1
LWPOLYLINE
  2
AcDbPolyline
  3
AutoCAD 2000
 90
        0
280
               0
281
               1
  0
CLASS
  1
IMAGE
  2
AcDbRasterImage
  3
ISM
 90
      127
280
               0
281
               1
  0
CLASS
  1
OLE2FRAME
  2
AcDbOle2Frame
  3
AutoCAD 2000
 90
        0
280
               0
281
               1
  0
CLASS
  1
HATCH
  2
AcDbHatch
  3
AutoCAD 2000
 90
        0
280
               0
281
               1
  0
CLASS
  1
DICTIONARYVAR
  2
AcDbDictionaryVar
  3
AutoCAD 2000
 90
        0
280
               0
281
               0
  0
CLASS
  1
RASTERVARIABLES
  2
AcDbRasterVariables
  3
ISM
 90
        0
280
               0
281
               0
  0
CLASS
  1
IMAGEDEF
  2
AcDbRasterImageDef
  3
ISM
 90
        0
280
               0
281
               0
  0
CLASS
  1
IMAGEDEF_REACTOR
  2
AcDbRasterImageDefReactor
  3
ISM
 90
        1
280
               0
281
               0
  0
CLASS
  1
IDBUFFER
  2
AcDbIdBuffer
  3
AutoCAD 2000
 90
        0
280
               0
281
               0
  0
CLASS
  1
SPATIAL_FILTER
  2
AcDbSpatialFilter
  3
AutoCAD 2000
 90
        0
280
               0
281
               0
  0
CLASS
  1
XRECORD
  2
AcDbXrecord
  3
AutoCAD 2000
 90
        0
280
               0
281
               0
  0
CLASS
  1
SORTENTSTABLE
  2
AcDbSortentsTable
  3
AutoCAD 2000
 90
        0
280
               0
281
               0
  0
CLASS
  1
LAYER_INDEX
  2
AcDbLayerIndex
  3
AutoCAD 2000
 90
        0
280
               0
281
               0
  0
CLASS
  1
SPATIAL_INDEX
  2
AcDbSpatialIndex
  3
AutoCAD 2000
 90
        0
280
               0
281
               0
  0
CLASS
  1
OBJECT_PTR
  2
CAseDLPNTableRecord
  3
"ASE-LPNTableRecord"
 90
        1
280
               0
281
               0
  0
CLASS
  1
LAYOUT
  2
AcDbLayout
  3
AutoCAD 2000
 90
        0
280
               0
281
               0
  0
CLASS
  1
PLOTSETTINGS
  2
AcDbPlotSettings
  3
AutoCAD 2000
 90
        0
280
               0
281
               0
  0
CLASS
  1
ACDBDICTIONARYWDFLT
  2
AcDbDictionaryWithDefault
  3
AutoCAD 2000
 90
        0
280
               0
281
               0
  0
CLASS
  1
ACDBPLACEHOLDER
  2
AcDbPlaceHolder
  3
AutoCAD 2000
 90
        0
280
               0
281
               0
  0
CLASS
  1
VBA_PROJECT
  2
AcDbVbaProject
  3
acadvba
 90
        0
280
               0
281
               0
  0
CLASS
  1
WIPEOUT
  2
AcDbWipeout
  3
WipeOut|AutoCAD Express Tool|expresstools@autodesk.com
 90
      127
280
               0
281
               1
  0
CLASS
  1
WIPEOUTVARIABLES
  2
AcDbWipeoutVariables
  3
WipeOut|AutoCAD Express Tool|expresstools@autodesk.com
 90
        0
280
               0
281
               0
  0
CLASS
  1
RTEXT
  2
RText
  3
RText|AutoCAD Express Tool|expresstools@autodesk.com
 90
        0
280
               0
281
               1
  0
CLASS
  1
ARCALIGNEDTEXT
  2
AcDbArcAlignedText
  3
ATEXT|AutoCAD Express Tool|expresstools@autodesk.com
 90
        0
280
               0
281
               1
  0
ENDSEC
  0
SECTION
  2
TABLES
  0
TABLE
  2
VPORT
  5
7
100
AcDbSymbolTable
 70
               1
  0
VPORT
  5
15
100
AcDbSymbolTableRecord
100
AcDbViewportTableRecord
  2
*ACTIVE
 70
               0
 10
0.0
 20
0.0
 11
1.0
 21
1.0
 12
6.5912879999999996
 22
4.5791839999999997
 13
0.0
 23
0.0
 14
1.0
 24
1.0
 15
0.0
 25
0.0
 16
0.0
 26
0.0
 36
1.0
 17
0.0
 27
0.0
 37
0.0
 40
9.1583690000000004
 41
0.688564
 42
50.0
 43
0.0
 44
0.0
 50
0.0
 51
0.0
 71
               0
 72
             100
 73
               1
 74
               1
 75
               0
 76
               0
 77
               0
 78
               0
281
               0
 65
               0
110
0.0
120
0.0
130
0.0
111
1.0
121
0.0
131
0.0
112
0.0
122
1.0
132
0.0
345
0
346
0
 79
               0
146
0.0
  0
ENDTAB
  0
TABLE
  2
LTYPE
  5
4
100
AcDbSymbolTable
 70
              13
  0
LTYPE
  5
11
100
AcDbSymbolTableRecord
100
AcDbLinetypeTableRecord
  2
ByBlock
 70
              64
  3

 72
              65
 73
               0
 40
0.0
  0
LTYPE
  5
12
100
AcDbSymbolTableRecord
100
AcDbLinetypeTableRecord
  2
ByLayer
 70
              64
  3

 72
              65
 73
               0
 40
0.0
  0
LTYPE
  5
13
100
AcDbSymbolTableRecord
100
AcDbLinetypeTableRecord
  2
Continuous
 70
              64
  3
Solid line
 72
              65
 73
               0
 40
0.0
  0
LTYPE
  5
24
100
AcDbSymbolTableRecord
100
AcDbLinetypeTableRecord
  2
DOT
 70
              64
  3

 72
              65
 73
               2
 40
1.0
 49
0.0
 74
               0
 49
-1.0
 74
               0
  0
LTYPE
  5
25
100
AcDbSymbolTableRecord
100
AcDbLinetypeTableRecord
  2
DASHEDX2
 70
              64
  3

 72
              65
 73
               2
 40
4.0
 49
3.0
 74
               0
 49
-1.0
 74
               0
  0
LTYPE
  5
26
100
AcDbSymbolTableRecord
100
AcDbLinetypeTableRecord
  2
DASHED
 70
              64
  3

 72
              65
 73
               2
 40
3.0
 49
2.0
 74
               0
 49
-1.0
 74
               0
  0
LTYPE
  5
27
100
AcDbSymbolTableRecord
100
AcDbLinetypeTableRecord
  2
DASHED2
 70
              64
  3

 72
              65
 73
               2
 40
2.0
 49
1.0
 74
               0
 49
-1.0
 74
               0
  0
LTYPE
  5
28
100
AcDbSymbolTableRecord
100
AcDbLinetypeTableRecord
  2
CENTERX2
 70
              64
  3

 72
              65
 73
               4
 40
43.0
 49
40.0
 74
               0
 49
-1.0
 74
               0
 49
1.0
 74
               0
 49
-1.0
 74
               0
  0
LTYPE
  5
29
100
AcDbSymbolTableRecord
100
AcDbLinetypeTableRecord
  2
CENTER
 70
              64
  3

 72
              65
 73
               4
 40
33.0
 49
30.0
 74
               0
 49
-1.0
 74
               0
 49
1.0
 74
               0
 49
-1.0
 74
               0
  0
LTYPE
  5
2A
100
AcDbSymbolTableRecord
100
AcDbLinetypeTableRecord
  2
CENTER2
 70
              64
  3

 72
              65
 73
               4
 40
23.0
 49
20.0
 74
               0
 49
-1.0
 74
               0
 49
1.0
 74
               0
 49
-1.0
 74
               0
  0
LTYPE
  5
2B
100
AcDbSymbolTableRecord
100
AcDbLinetypeTableRecord
  2
PHANTOMX2
 70
              64
  3

 72
              65
 73
               6
 40
45.0
 49
40.0
 74
               0
 49
-1.0
 74
               0
 49
1.0
 74
               0
 49
-1.0
 74
               0
 49
1.0
 74
               0
 49
-1.0
 74
               0
  0
LTYPE
  5
2C
100
AcDbSymbolTableRecord
100
AcDbLinetypeTableRecord
  2
PHANTOM
 70
              64
  3

 72
              65
 73
               6
 40
35.0
 49
30.0
 74
               0
 49
-1.0
 74
               0
 49
1.0
 74
               0
 49
-1.0
 74
               0
 49
1.0
 74
               0
 49
-1.0
 74
               0
  0
LTYPE
  5
2D
100
AcDbSymbolTableRecord
100
AcDbLinetypeTableRecord
  2
PHANTOM2
 70
              64
  3

 72
              65
 73
               6
 40
25.0
 49
20.0
 74
               0
 49
-1.0
 74
               0
 49
1.0
 74
               0
 49
-1.0
 74
               0
 49
1.0
 74
               0
 49
-1.0
 74
               0
  0
ENDTAB
  0
TABLE
  2
LAYER
  5
2
100
AcDbSymbolTable
 70
              16
  0
LAYER
  5
14
100
AcDbSymbolTableRecord
100
AcDbLayerTableRecord
  2
0
 70
               0
 62
               7
  6
Continuous
290
               1
370
              -3
390
1D
  0
LAYER
  5
2E
100
AcDbSymbolTableRecord
100
AcDbLayerTableRecord
  2
DEFPOINTS
 70
               0
 62
               7
  6
Continuous
290
               0
370
              -3
390
1D
  0
LAYER
  5
2F
100
AcDbSymbolTableRecord
100
AcDbLayerTableRecord
  2
____1
 70
               0
 62
               7
  6
CENTER2
290
               1
370
              -3
390
1D
  0
LAYER
  5
30
100
AcDbSymbolTableRecord
100
AcDbLayerTableRecord
  2
______
 70
               0
 62
               7
  6
Continuous
290
               1
370
              -3
390
1D
  0
LAYER
  5
31
100
AcDbSymbolTableRecord
100
AcDbLayerTableRecord
  2
寸法線_1
 70
               0
 62
               7
  6
Continuous
290
               1
370
              -3
390
1D
  0
LAYER
  5
32
100
AcDbSymbolTableRecord
100
AcDbLayerTableRecord
  2
CONSTRUCTION
 70
               0
 62
               7
  6
Continuous
290
               1
370
              -3
390
1D
  0
LAYER
  5
33
100
AcDbSymbolTableRecord
100
AcDbLayerTableRecord
  2
DIMENSION
 70
               0
 62
               7
  6
Continuous
290
               1
370
              -3
390
1D
  0
LAYER
  5
34
100
AcDbSymbolTableRecord
100
AcDbLayerTableRecord
  2
FORMAT
 70
               0
 62
               7
  6
Continuous
290
               1
370
              -3
390
1D
  0
LAYER
  5
35
100
AcDbSymbolTableRecord
100
AcDbLayerTableRecord
  2
____
 70
               0
 62
               7
  6
DOT
290
               1
370
              -3
390
1D
  0
LAYER
  5
36
100
AcDbSymbolTableRecord
100
AcDbLayerTableRecord
  2
___G
 70
               0
 62
               7
  6
DOT
290
               1
370
              -3
390
1D
  0
LAYER
  5
37
100
AcDbSymbolTableRecord
100
AcDbLayerTableRecord
  2
0_1
 70
               0
 62
               7
  6
Continuous
290
               1
370
              -3
390
1D
  0
LAYER
  5
38
100
AcDbSymbolTableRecord
100
AcDbLayerTableRecord
  2
____1_1
 70
               0
 62
              -7
  6
Continuous
290
               1
370
              -3
390
1D
  0
LAYER
  5
39
100
AcDbSymbolTableRecord
100
AcDbLayerTableRecord
  2
________1
 70
               0
 62
               7
  6
Continuous
290
               1
370
              -3
390
1D
  0
LAYER
  5
3A
100
AcDbSymbolTableRecord
100
AcDbLayerTableRecord
  2
________1_____1
 70
               0
 62
               7
  6
Continuous
290
               1
370
              -3
390
1D
  0
LAYER
  5
3B
100
AcDbSymbolTableRecord
100
AcDbLayerTableRecord
  2
________1________1
 70
               0
 62
               7
  6
Continuous
290
               1
370
              -3
390
1D
  0
LAYER
  5
3C
100
AcDbSymbolTableRecord
100
AcDbLayerTableRecord
  2
________1_____1_0
 70
               0
 62
               7
  6
Continuous
290
               1
370
              -3
390
1D
  0
ENDTAB
  0
TABLE
  2
STYLE
  5
3
100
AcDbSymbolTable
 70
               2
  0
STYLE
  5
17
100
AcDbSymbolTableRecord
100
AcDbTextStyleTableRecord
  2
Standard
 70
               0
 40
0.0
 41
1.0
 50
0.0
 71
               0
 42
0.35
  3
txt
  4

  0
STYLE
  5
3E
100
AcDbSymbolTableRecord
100
AcDbTextStyleTableRecord
  2
Style1
 70
               0
 40
0.0
 41
1.0
 50
0.0
 71
               0
 42
0.35
  3
ＭＳ ゴシック
  4

  0
ENDTAB
  0
TABLE
  2
VIEW
  5
5
100
AcDbSymbolTable
 70
               0
  0
ENDTAB
  0
TABLE
  2
UCS
  5
6
100
AcDbSymbolTable
 70
               0
  0
ENDTAB
  0
TABLE
  2
APPID
  5
8
100
AcDbSymbolTable
 70
               1
  0
APPID
  5
16
100
AcDbSymbolTableRecord
100
AcDbRegAppTableRecord
  2
ACAD
 70
               0
  0
ENDTAB
  0
TABLE
  2
DIMSTYLE
  5
9
100
AcDbSymbolTable
 70
               3
100
AcDbDimStyleTable
 71
               0
  0
DIMSTYLE
105
18
100
AcDbSymbolTableRecord
100
AcDbDimStyleTableRecord
  2
Standard
 70
               0
  3

  4

 40
1.0
 41
2.4148145657226707
 42
1.0
 43
0.38
 44
2.0
 45
0.0
 46
0.0
 47
0.0
 48
0.0
 71
               0
 72
               0
 73
               0
 74
               0
 75
               0
 76
               0
 77
               1
 78
               0
 79
               0
140
3.5277777777777777
141
0.09
142
0.0
143
25.399999999999999
144
1.0
145
0.0
146
1.0
147
1.0
148
0.0
170
               0
171
               1
172
               0
173
               0
174
               0
175
               0
176
               7
177
               7
178
               7
179
               0
271
               1
272
               4
273
               2
274
               2
275
               0
276
               0
277
               2
278
              46
279
               0
280
               0
281
               0
282
               0
283
               1
284
               0
285
               0
286
               0
288
               0
289
               0
340
17
341
0
342
0
343
0
344
0
371
              -2
372
              -2
  0
DIMSTYLE
105
135
100
AcDbSymbolTableRecord
100
AcDbDimStyleTableRecord
  2
DS1
 70
               0
  3

  4

 40
1.0
 41
2.4148145657226707
 42
1.0
 43
0.38
 44
2.0
 45
0.0
 46
0.0
 47
0.0
 48
0.0
 71
               0
 72
               0
 73
               0
 74
               0
 75
               0
 76
               0
 77
               1
 78
               8
 79
               0
140
1.7638888359069824
141
0.09
142
0.0
143
25.399999999999999
144
1.0
145
0.0
146
1.0
147
1.0
148
0.0
170
               0
171
               1
172
               0
173
               0
174
               0
175
               0
176
               7
177
               7
178
               7
179
               0
271
               1
272
               4
273
               2
274
               2
275
               0
276
               0
277
               2
278
              46
279
               0
280
               0
281
               0
282
               0
283
               1
284
               0
285
               0
286
               0
288
               0
289
               3
340
17
341
0
342
0
343
0
344
0
371
              -2
372
              -2
  0
DIMSTYLE
105
178
100
AcDbSymbolTableRecord
100
AcDbDimStyleTableRecord
  2
DS2
 70
               0
  3

  4

 40
1.0
 41
2.4148145657226707
 42
1.0
 43
0.38
 44
2.0
 45
0.0
 46
0.0
 47
0.0
 48
0.0
 71
               0
 72
               0
 73
               0
 74
               0
 75
               0
 76
               0
 77
               1
 78
               8
 79
               0
140
1.7638888359069824
141
0.09
142
0.0
143
25.399999999999999
144
1.0
145
0.0
146
1.0
147
1.0
148
0.0
170
               0
171
               2
172
               0
173
               0
174
               0
175
               0
176
               7
177
               7
178
               7
179
               0
271
               2
272
               4
273
               2
274
               2
275
               0
276
               0
277
               2
278
              46
279
               0
280
               0
281
               0
282
               0
283
               1
284
               0
285
               0
286
               0
288
               0
289
               3
340
17
341
0
342
0
343
0
344
0
371
              -2
372
              -2
  0
ENDTAB
  0
TABLE
  2
BLOCK_RECORD
  5
1
100
AcDbSymbolTable
 70
               6
  0
BLOCK_RECORD
  5
A
100
AcDbSymbolTableRecord
100
AcDbBlockTableRecord
  2
*MODEL_SPACE
340
20
  0
BLOCK_RECORD
  5
B
100
AcDbSymbolTableRecord
100
AcDbBlockTableRecord
  2
*PAPER_SPACE
340
21
  0
BLOCK_RECORD
  5
12C
100
AcDbSymbolTableRecord
100
AcDbBlockTableRecord
  2
*D0
340
0
  0
BLOCK_RECORD
  5
136
100
AcDbSymbolTableRecord
100
AcDbBlockTableRecord
  2
*D1
340
0
  0
BLOCK_RECORD
  5
16A
100
AcDbSymbolTableRecord
100
AcDbBlockTableRecord
  2
*D2
340
0
  0
BLOCK_RECORD
  5
181
100
AcDbSymbolTableRecord
100
AcDbBlockTableRecord
  2
*D3
340
0
  0
BLOCK_RECORD
  5
18E
100
AcDbSymbolTableRecord
100
AcDbBlockTableRecord
  2
*D4
340
0
  0
BLOCK_RECORD
  5
19E
100
AcDbSymbolTableRecord
100
AcDbBlockTableRecord
  2
*D5
340
0
  0
ENDTAB
  0
ENDSEC
  0
SECTION
  2
BLOCKS
  0
BLOCK
  5
D
100
AcDbEntity
  8
0
390
0
100
AcDbBlockBegin
  2
*MODEL_SPACE
 70
               0
 10
0.0
 20
0.0
 30
0.0
  3
*MODEL_SPACE
  1

  0
ENDBLK
  5
E
100
AcDbEntity
  8
0
390
0
100
AcDbBlockEnd
  0
BLOCK
  5
F
100
AcDbEntity
 67
               1
  8
0
390
0
100
AcDbBlockBegin
  2
*PAPER_SPACE
 70
               0
 10
0.0
 20
0.0
 30
0.0
  3
*PAPER_SPACE
  1

  0
ENDBLK
  5
10
100
AcDbEntity
 67
               1
  8
0
390
0
100
AcDbBlockEnd
  0
BLOCK
  5
12D
100
AcDbEntity
  8
0
390
0
100
AcDbBlockBegin
  2
*D0
 70
              65
 10
0.0
 20
0.0
 30
0.0
  3
*D0
  1

  0
SOLID
  5
12E
100
AcDbEntity
  8
____1
370
               5
390
0
  6
Continuous
 62
               7
100
AcDbTrace
 10
-40.672420772880514
 20
18.766365854181124
 30
0.0
 11
-40.672420772880514
 21
18.766365854181124
 31
0.0
 12
-40.595470245598065
 22
19.20209603756506
 32
0.0
 13
-40.280087569145827
 23
19.20209603756506
 33
0.0
  0
SOLID
  5
12F
100
AcDbEntity
  8
____1
370
               5
390
0
  6
Continuous
 62
               7
100
AcDbTrace
 10
-40.595470245598065
 20
19.20209603756506
 30
0.0
 11
-40.280087569145827
 21
19.20209603756506
 31
0.0
 12
-41.024828174536012
 22
19.309025664979366
 32
0.0
 13
-40.183807703996699
 23
19.309025664979366
 33
0.0
  0
SOLID
  5
130
100
AcDbEntity
  8
____1
370
               5
390
0
  6
Continuous
 62
               7
100
AcDbTrace
 10
-41.024828174536012
 20
19.309025664979366
 30
0.0
 11
-40.183807703996699
 21
19.309025664979366
 31
0.0
 12
-39.836007561267493
 22
19.695296871519499
 32
0.0
 13
-39.836007561267493
 23
19.695296871519499
 33
0.0
  0
LINE
  5
131
100
AcDbEntity
  8
____1
370
               5
390
0
  6
Continuous
 62
               7
100
AcDbLine
 10
-39.836007561267493
 20
19.695296871519499
 30
0.0
 11
-50.19125909200789
 21
12.970517897986539
 31
0.0
  0
MTEXT
  5
132
100
AcDbEntity
  8
寸法線_1
370
               5
390
0
  6
CENTER2
 62
               7
100
AcDbMText
 10
-51.344078348162476
 20
14.745703880149783
 30
0.0
 40
1.7638888359069824
 41
3.5415580533444881
 71
               1
 72
               1
  1
R2.4
  7
Style1
 11
0.8386705679454243
 21
0.5446390350150269
 31
0.0
 73
               1
 44
1.0
  0
ENDBLK
  5
133
100
AcDbEntity
  8
0
390
0
100
AcDbBlockEnd
  0
BLOCK
  5
137
100
AcDbEntity
  8
0
390
0
100
AcDbBlockBegin
  2
*D1
 70
              65
 10
0.0
 20
0.0
 30
0.0
  3
*D1
  1

  0
SOLID
  5
138
100
AcDbEntity
  8
____1
370
               5
390
0
  6
Continuous
 62
               7
100
AcDbTrace
 10
-24.660853799664022
 20
18.91854709113576
 30
0.0
 11
-24.660853799664022
 21
18.91854709113576
 31
0.0
 12
-25.091959533491259
 22
19.349652842018259
 32
0.0
 13
-24.760503224734514
 23
19.349652842018259
 33
0.0
  0
SOLID
  5
139
100
AcDbEntity
  8
____1
370
               5
390
0
  6
Continuous
 62
               7
100
AcDbTrace
 10
-25.091959533491259
 20
19.349652842018259
 30
0.0
 11
-24.760503224734514
 21
19.349652842018259
 31
0.0
 12
-25.221213470235448
 22
19.478906783875946
 32
0.0
 13
-24.337329980217458
 23
19.478906783875946
 33
0.0
  0
SOLID
  5
13A
100
AcDbEntity
  8
____1
370
               5
390
0
  6
Continuous
 62
               7
100
AcDbTrace
 10
-25.221213470235448
 20
19.478906783875946
 30
0.0
 11
-24.337329980217458
 21
19.478906783875946
 31
0.0
 12
-25.544737229115839
 22
19.802430555555475
 32
0.0
 13
-25.544737229115839
 23
19.802430555555475
 33
0.0
  0
LINE
  5
13B
100
AcDbEntity
  8
____1
370
               5
390
0
  6
Continuous
 62
               7
100
AcDbLine
 10
-25.544737229115839
 20
19.802430555555475
 30
0.0
 11
-14.851729439685368
 21
13.628819629881038
 31
0.0
  0
MTEXT
  5
13C
100
AcDbEntity
  8
寸法線_1
370
               5
390
0
  6
CENTER2
 62
               7
100
AcDbMText
 10
-16.848541220835596
 20
17.22579551540467
 30
0.0
 40
1.7638888359069824
 41
3.5415580533444881
 71
               1
 72
               1
  1
R2.4
  7
Style1
 11
0.8660254037844392
 21
-0.4999999999999991
 31
0.0
 73
               1
 44
1.0
  0
ENDBLK
  5
13D
100
AcDbEntity
  8
0
390
0
100
AcDbBlockEnd
  0
BLOCK
  5
16B
100
AcDbEntity
  8
0
390
0
100
AcDbBlockBegin
  2
*D2
 70
              65
 10
0.0
 20
0.0
 30
0.0
  3
*D2
  1

  0
LINE
  5
16C
100
AcDbEntity
  8
____1
370
               5
390
0
  6
Continuous
 62
               7
100
AcDbLine
 10
0.8995740790293141
 20
4.605070819581897
 30
0.0
 11
4.4995740790280863
 21
4.605070819581897
 31
0.0
  0
LINE
  5
16D
100
AcDbEntity
  8
____1
370
               5
390
0
  6
Continuous
 62
               7
100
AcDbLine
 10
4.4995740790280863
 20
-1.4230644939494574
 30
0.0
 11
4.4995740790280863
 21
5.605070819581897
 31
0.0
  0
LINE
  5
16E
100
AcDbEntity
  8
____1
370
               5
390
0
  6
Continuous
 62
               7
100
AcDbLine
 10
0.8995740790293141
 20
-1.7230644939518562
 30
0.0
 11
0.8995740790293141
 21
5.605070819581897
 31
0.0
  0
SOLID
  5
16F
100
AcDbEntity
  8
____1
370
               5
390
0
  6
Continuous
 62
               7
100
AcDbTrace
 10
-0.3078331570699291
 20
4.2815470001353333
 30
0.0
 11
-0.3078331570699291
 21
4.2815470001353333
 31
0.0
 12
-0.0059813480451183
 22
4.605070819581897
 32
0.0
 13
0.8995740790293141
 23
4.605070819581897
 33
0.0
  0
SOLID
  5
170
100
AcDbEntity
  8
____1
370
               5
390
0
  6
Continuous
 62
               7
100
AcDbTrace
 10
-0.0059813480451183
 20
4.605070819581897
 30
0.0
 11
0.8995740790293141
 21
4.605070819581897
 31
0.0
 12
-0.3078331570699291
 22
4.9285946390284607
 32
0.0
 13
-0.3078331570699291
 23
4.9285946390284607
 33
0.0
  0
LINE
  5
171
100
AcDbEntity
  8
____1
370
               5
390
0
  6
Continuous
 62
               7
100
AcDbLine
 10
0.8995740790293141
 20
4.605070819581897
 30
0.0
 11
-1.6004259209706859
 21
4.605070819581897
 31
0.0
  0
SOLID
  5
172
100
AcDbEntity
  8
____1
370
               5
390
0
  6
Continuous
 62
               7
100
AcDbTrace
 10
5.7069813151273294
 20
4.2815470001353333
 30
0.0
 11
5.7069813151273294
 21
4.2815470001353333
 31
0.0
 12
4.4995740790280863
 22
4.605070819581897
 32
0.0
 13
5.4051295061025186
 23
4.605070819581897
 33
0.0
  0
SOLID
  5
173
100
AcDbEntity
  8
____1
370
               5
390
0
  6
Continuous
 62
               7
100
AcDbTrace
 10
4.4995740790280863
 20
4.605070819581897
 30
0.0
 11
5.4051295061025186
 21
4.605070819581897
 31
0.0
 12
5.7069813151273294
 22
4.9285946390284607
 32
0.0
 13
5.7069813151273294
 23
4.9285946390284607
 33
0.0
  0
LINE
  5
174
100
AcDbEntity
  8
____1
370
               5
390
0
  6
Continuous
 62
               7
100
AcDbLine
 10
4.4995740790280863
 20
4.605070819581897
 30
0.0
 11
6.9995740790280863
 21
4.605070819581897
 31
0.0
  0
MTEXT
  5
175
100
AcDbEntity
  8
寸法線_1
370
               5
390
0
  6
CENTER2
 62
               7
100
AcDbMText
 10
1.3766574520984634
 20
6.8689596554888794
 30
0.0
 40
1.7638888359069824
 41
2.6561685400083661
 71
               1
 72
               1
  1
3.6
  7
Style1
 73
               1
 44
1.0
  0
ENDBLK
  5
176
100
AcDbEntity
  8
0
390
0
100
AcDbBlockEnd
  0
BLOCK
  5
182
100
AcDbEntity
  8
0
390
0
100
AcDbBlockBegin
  2
*D3
 70
              65
 10
0.0
 20
0.0
 30
0.0
  3
*D3
  1

  0
LINE
  5
183
100
AcDbEntity
  8
____1
370
               5
390
0
  6
Continuous
 62
               7
100
AcDbLine
 10
-25.223198091655043
 20
-1.7230646004978531
 30
0.0
 11
-25.223198091655043
 21
5.605070819581897
 31
0.0
  0
LINE
  5
184
100
AcDbEntity
  8
____1
370
               5
390
0
  6
Continuous
 62
               7
100
AcDbLine
 10
-40.223198198198482
 20
-1.7230644984248649
 30
0.0
 11
-40.223198198198482
 21
5.605070819581897
 31
0.0
  0
SOLID
  5
185
100
AcDbEntity
  8
____1
370
               5
390
0
  6
Continuous
 62
               7
100
AcDbTrace
 10
-39.015790962099238
 20
4.2815470001353333
 30
0.0
 11
-39.015790962099238
 21
4.2815470001353333
 31
0.0
 12
-40.223198198198482
 22
4.605070819581897
 32
0.0
 13
-39.317642771124049
 23
4.605070819581897
 33
0.0
  0
SOLID
  5
186
100
AcDbEntity
  8
____1
370
               5
390
0
  6
Continuous
 62
               7
100
AcDbTrace
 10
-40.223198198198482
 20
4.605070819581897
 30
0.0
 11
-39.317642771124049
 21
4.605070819581897
 31
0.0
 12
-39.015790962099238
 22
4.9285946390284607
 32
0.0
 13
-39.015790962099238
 23
4.9285946390284607
 33
0.0
  0
LINE
  5
187
100
AcDbEntity
  8
____1
370
               5
390
0
  6
Continuous
 62
               7
100
AcDbLine
 10
-40.223198198198482
 20
4.605070819581897
 30
0.0
 11
-32.723198144926762
 21
4.605070819581897
 31
0.0
  0
SOLID
  5
188
100
AcDbEntity
  8
____1
370
               5
390
0
  6
Continuous
 62
               7
100
AcDbTrace
 10
-26.430605327754286
 20
4.2815470001353333
 30
0.0
 11
-26.430605327754286
 21
4.2815470001353333
 31
0.0
 12
-26.128753518729475
 22
4.605070819581897
 32
0.0
 13
-25.223198091655043
 23
4.605070819581897
 33
0.0
  0
SOLID
  5
189
100
AcDbEntity
  8
____1
370
               5
390
0
  6
Continuous
 62
               7
100
AcDbTrace
 10
-26.128753518729475
 20
4.605070819581897
 30
0.0
 11
-25.223198091655043
 21
4.605070819581897
 31
0.0
 12
-26.430605327754286
 22
4.9285946390284607
 32
0.0
 13
-26.430605327754286
 23
4.9285946390284607
 33
0.0
  0
LINE
  5
18A
100
AcDbEntity
  8
____1
370
               5
390
0
  6
Continuous
 62
               7
100
AcDbLine
 10
-25.223198091655043
 20
4.605070819581897
 30
0.0
 11
-32.723198144926762
 21
4.605070819581897
 31
0.0
  0
MTEXT
  5
18B
100
AcDbEntity
  8
寸法線_1
370
               5
390
0
  6
CENTER2
 62
               7
100
AcDbMText
 10
-33.605142562880253
 20
6.8689596554888794
 30
0.0
 40
1.7638888359069824
 41
1.7707790266722441
 71
               1
 72
               1
  1
15
  7
Style1
 73
               1
 44
1.0
  0
ENDBLK
  5
18C
100
AcDbEntity
  8
0
390
0
100
AcDbBlockEnd
  0
BLOCK
  5
18F
100
AcDbEntity
  8
0
390
0
100
AcDbBlockBegin
  2
*D4
 70
              65
 10
0.0
 20
0.0
 30
0.0
  3
*D4
  1

  0
LINE
  5
190
100
AcDbEntity
  8
____1
370
               5
390
0
  6
Continuous
 62
               7
100
AcDbLine
 10
-17.161482026581314
 20
-1.9230644939544597
 30
0.0
 11
-17.161482026581314
 21
-6.4230644939545165
 31
0.0
  0
LINE
  5
191
100
AcDbEntity
  8
____1
370
               5
390
0
  6
Continuous
 62
               7
100
AcDbLine
 10
-24.924292130723764
 20
-6.4230644939545165
 30
0.0
 11
-16.161482026581314
 21
-6.4230644939545165
 31
0.0
  0
LINE
  5
192
100
AcDbEntity
  8
____1
370
               5
390
0
  6
Continuous
 62
               7
100
AcDbLine
 10
-24.924292130723764
 20
-1.9230644939544597
 30
0.0
 11
-16.161482026581314
 21
-1.9230644939544597
 31
0.0
  0
SOLID
  5
193
100
AcDbEntity
  8
____1
370
               5
390
0
  6
Continuous
 62
               7
100
AcDbTrace
 10
-17.161482026581314
 20
-1.9230644939544597
 30
0.0
 11
-17.161482026581314
 21
-1.9230644939544597
 31
0.0
 12
-17.404124891166237
 22
-1.0175090668800273
 32
0.0
 13
-16.918839161996392
 23
-1.0175090668800273
 33
0.0
  0
SOLID
  5
194
100
AcDbEntity
  8
____1
370
               5
390
0
  6
Continuous
 62
               7
100
AcDbTrace
 10
-17.404124891166237
 20
-1.0175090668800273
 30
0.0
 11
-17.161482026581314
 21
-1.0175090668800273
 31
0.0
 12
-17.485005846027878
 22
-0.7156572578552165
 32
0.0
 13
-17.485005846027878
 23
-0.7156572578552165
 33
0.0
  0
SOLID
  5
195
100
AcDbEntity
  8
____1
370
               5
390
0
  6
Continuous
 62
               7
100
AcDbTrace
 10
-17.161482026581314
 20
-1.0175090668800273
 30
0.0
 11
-16.918839161996392
 21
-1.0175090668800273
 31
0.0
 12
-16.837958207134751
 22
-0.7156572578552165
 32
0.0
 13
-16.837958207134751
 23
-0.7156572578552165
 33
0.0
  0
LINE
  5
196
100
AcDbEntity
  8
____1
370
               5
390
0
  6
Continuous
 62
               7
100
AcDbLine
 10
-17.161482026581314
 20
-1.9230644939544597
 30
0.0
 11
-17.161482026581314
 21
0.5769355060455403
 31
0.0
  0
SOLID
  5
197
100
AcDbEntity
  8
____1
370
               5
390
0
  6
Continuous
 62
               7
100
AcDbTrace
 10
-17.485005846027878
 20
-7.6304717300537597
 30
0.0
 11
-17.485005846027878
 21
-7.6304717300537597
 31
0.0
 12
-17.404124891166237
 22
-7.3286199210289489
 32
0.0
 13
-17.161482026581314
 23
-7.3286199210289489
 33
0.0
  0
SOLID
  5
198
100
AcDbEntity
  8
____1
370
               5
390
0
  6
Continuous
 62
               7
100
AcDbTrace
 10
-16.837958207134751
 20
-7.6304717300537597
 30
0.0
 11
-16.837958207134751
 21
-7.6304717300537597
 31
0.0
 12
-17.161482026581314
 22
-7.3286199210289489
 32
0.0
 13
-16.918839161996392
 23
-7.3286199210289489
 33
0.0
  0
SOLID
  5
199
100
AcDbEntity
  8
____1
370
               5
390
0
  6
Continuous
 62
               7
100
AcDbTrace
 10
-17.404124891166237
 20
-7.3286199210289489
 30
0.0
 11
-16.918839161996392
 21
-7.3286199210289489
 31
0.0
 12
-17.161482026581314
 22
-6.4230644939545165
 32
0.0
 13
-17.161482026581314
 23
-6.4230644939545165
 33
0.0
  0
LINE
  5
19A
100
AcDbEntity
  8
____1
370
               5
390
0
  6
Continuous
 62
               7
100
AcDbLine
 10
-17.161482026581314
 20
-6.4230644939545165
 30
0.0
 11
-17.161482026581314
 21
-8.9230644939545165
 31
0.0
  0
MTEXT
  5
19B
100
AcDbEntity
  8
寸法線_1
370
               5
390
0
  6
CENTER2
 62
               7
100
AcDbMText
 10
-19.425370862488297
 20
-5.4959811208847249
 30
0.0
 40
1.7638888359069824
 41
2.6561685400083661
 71
               1
 72
               1
  1
4.5
  7
Style1
 11
0.0
 21
1.0
 31
0.0
 73
               1
 44
1.0
  0
ENDBLK
  5
19C
100
AcDbEntity
  8
0
390
0
100
AcDbBlockEnd
  0
BLOCK
  5
19F
100
AcDbEntity
  8
0
390
0
100
AcDbBlockBegin
  2
*D5
 70
              65
 10
0.0
 20
0.0
 30
0.0
  3
*D5
  1

  0
LINE
  5
1A0
100
AcDbEntity
  8
____1
370
               5
390
0
  6
Continuous
 62
               7
100
AcDbLine
 10
-13.137719650343698
 20
-1.9230644939544597
 30
0.0
 11
-13.137719650343698
 21
-8.423064493954687
 31
0.0
  0
LINE
  5
1A1
100
AcDbEntity
  8
____1
370
               5
390
0
  6
Continuous
 62
               7
100
AcDbLine
 10
-28.943246949977386
 20
-8.423064493954687
 30
0.0
 11
-12.137719650343698
 21
-8.423064493954687
 31
0.0
  0
LINE
  5
1A2
100
AcDbEntity
  8
____1
370
               5
390
0
  6
Continuous
 62
               7
100
AcDbLine
 10
-25.015512423005369
 20
-1.9230644939544597
 30
0.0
 11
-12.137719650343698
 21
-1.9230644939544597
 31
0.0
  0
SOLID
  5
1A3
100
AcDbEntity
  8
____1
370
               5
390
0
  6
Continuous
 62
               7
100
AcDbTrace
 10
-13.137719650343698
 20
-1.9230644939544597
 30
0.0
 11
-13.137719650343698
 21
-1.9230644939544597
 31
0.0
 12
-13.38036251492862
 22
-1.0175090668800273
 32
0.0
 13
-12.895076785758775
 23
-1.0175090668800273
 33
0.0
  0
SOLID
  5
1A4
100
AcDbEntity
  8
____1
370
               5
390
0
  6
Continuous
 62
               7
100
AcDbTrace
 10
-13.38036251492862
 20
-1.0175090668800273
 30
0.0
 11
-13.137719650343698
 21
-1.0175090668800273
 31
0.0
 12
-13.461243469790261
 22
-0.7156572578552165
 32
0.0
 13
-13.461243469790261
 23
-0.7156572578552165
 33
0.0
  0
SOLID
  5
1A5
100
AcDbEntity
  8
____1
370
               5
390
0
  6
Continuous
 62
               7
100
AcDbTrace
 10
-13.137719650343698
 20
-1.0175090668800273
 30
0.0
 11
-12.895076785758775
 21
-1.0175090668800273
 31
0.0
 12
-12.814195830897134
 22
-0.7156572578552165
 32
0.0
 13
-12.814195830897134
 23
-0.7156572578552165
 33
0.0
  0
LINE
  5
1A6
100
AcDbEntity
  8
____1
370
               5
390
0
  6
Continuous
 62
               7
100
AcDbLine
 10
-13.137719650343698
 20
-1.9230644939544597
 30
0.0
 11
-13.137719650343698
 21
0.5769355060455403
 31
0.0
  0
SOLID
  5
1A7
100
AcDbEntity
  8
____1
370
               5
390
0
  6
Continuous
 62
               7
100
AcDbTrace
 10
-13.461243469790261
 20
-9.6304717300539302
 30
0.0
 11
-13.461243469790261
 21
-9.6304717300539302
 31
0.0
 12
-13.38036251492862
 22
-9.3286199210291194
 32
0.0
 13
-13.137719650343698
 23
-9.3286199210291194
 33
0.0
  0
SOLID
  5
1A8
100
AcDbEntity
  8
____1
370
               5
390
0
  6
Continuous
 62
               7
100
AcDbTrace
 10
-12.814195830897134
 20
-9.6304717300539302
 30
0.0
 11
-12.814195830897134
 21
-9.6304717300539302
 31
0.0
 12
-13.137719650343698
 22
-9.3286199210291194
 32
0.0
 13
-12.895076785758775
 23
-9.3286199210291194
 33
0.0
  0
SOLID
  5
1A9
100
AcDbEntity
  8
____1
370
               5
390
0
  6
Continuous
 62
               7
100
AcDbTrace
 10
-13.38036251492862
 20
-9.3286199210291194
 30
0.0
 11
-12.895076785758775
 21
-9.3286199210291194
 31
0.0
 12
-13.137719650343698
 22
-8.423064493954687
 32
0.0
 13
-13.137719650343698
 23
-8.423064493954687
 33
0.0
  0
LINE
  5
1AA
100
AcDbEntity
  8
____1
370
               5
390
0
  6
Continuous
 62
               7
100
AcDbLine
 10
-13.137719650343698
 20
-8.423064493954687
 30
0.0
 11
-13.137719650343698
 21
-10.923064493954687
 31
0.0
  0
MTEXT
  5
1AB
100
AcDbEntity
  8
寸法線_1
370
               5
390
0
  6
CENTER2
 62
               7
100
AcDbMText
 10
-15.40160848625068
 20
-6.4959811208848102
 30
0.0
 40
1.7638888359069824
 41
2.6561685400083661
 71
               1
 72
               1
  1
6.5
  7
Style1
 11
0.0
 21
1.0
 31
0.0
 73
               1
 44
1.0
  0
ENDBLK
  5
1AC
100
AcDbEntity
  8
0
390
0
100
AcDbBlockEnd
  0
ENDSEC
  0
SECTION
  2
ENTITIES
  0
MTEXT
  5
3D
100
AcDbEntity
  8
___G
370
               5
390
0
  6
DOT
 62
               7
100
AcDbMText
 10
57.70556506826189
 20
46.221047854785468
 30
0.0
 40
1.5874999761581421
 41
5.0
 71
               1
 72
               1
  1
改訂者
  7
Style1
 73
               1
 44
1.0
  0
MTEXT
  5
3F
100
AcDbEntity
  8
___G
370
               5
390
0
  6
DOT
 62
               7
100
AcDbMText
 10
62.70556506826189
 20
46.221047854785468
 30
0.0
 40
1.5874999761581421
 41
5.0000000000000142
 71
               1
 72
               1
  1
検認者
  7
Style1
 73
               1
 44
1.0
  0
MTEXT
  5
40
100
AcDbEntity
  8
___G
370
               5
390
0
  6
Continuous
 62
               7
100
AcDbMText
 10
32.70556506826189
 20
46.221047854785468
 30
0.0
 40
1.5874999761581421
 41
25.0
 71
               1
 72
               1
  1
改　訂　内　容
  7
Style1
 73
               1
 44
1.0
  0
MTEXT
  5
41
100
AcDbEntity
  8
___G
370
               5
390
0
  6
Continuous
 62
               7
100
AcDbMText
 10
24.70556506826189
 20
46.221047854785468
 30
0.0
 40
1.5874999761581421
 41
8.0
 71
               1
 72
               1
  1
改訂日
  7
Style1
 73
               1
 44
1.0
  0
LINE
  5
42
100
AcDbEntity
  8
___G
370
              18
390
0
  6
Continuous
 62
               7
100
AcDbLine
 10
20.70556506826189
 20
39.178547854785478
 30
0.0
 11
67.705565068261961
 21
39.178547854785478
 31
0.0
  0
LINE
  5
43
100
AcDbEntity
  8
___G
370
              18
390
0
  6
Continuous
 62
               7
100
AcDbLine
 10
32.968408175500983
 20
-45.357382958459425
 30
0.0
 11
33.368408175500988
 21
-44.757382958459402
 31
0.0
  0
LINE
  5
44
100
AcDbEntity
  8
___G
370
              18
390
0
  6
Continuous
 62
               7
100
AcDbLine
 10
28.7041657512586
 20
-45.557382958459399
 30
0.0
 11
28.7041657512586
 21
-46.157382958459422
 31
0.0
  0
LINE
  5
45
100
AcDbEntity
  8
___G
370
              18
390
0
  6
Continuous
 62
               7
100
AcDbLine
 10
35.935401234814421
 20
-47.757382958459388
 30
0.0
 11
37.055401234814369
 21
-47.757382958459388
 31
0.0
  0
LINE
  5
46
100
AcDbEntity
  8
___G
370
              18
390
0
  6
Continuous
 62
               7
100
AcDbLine
 10
26.304165751258623
 20
-45.557382958459399
 30
0.0
 11
26.304165751258623
 21
-45.357382958459425
 31
0.0
  0
LINE
  5
47
100
AcDbEntity
  8
___G
370
              18
390
0
  6
Continuous
 62
               7
100
AcDbLine
 10
31.582933172175544
 20
-46.16501132050341
 30
0.0
 11
31.486694849648913
 21
-46.271306664724975
 31
0.0
  0
LINE
  5
48
100
AcDbEntity
  8
___G
370
              18
390
0
  6
Continuous
 62
               7
100
AcDbLine
 10
32.513495916336026
 20
-46.697035442048886
 30
0.0
 11
32.442255092419103
 21
-46.766786699724648
 31
0.0
  0
LINE
  5
49
100
AcDbEntity
  8
___G
370
              18
390
0
  6
Continuous
 62
               7
100
AcDbLine
 10
36.687062334079243
 20
-46.477382958459415
 30
0.0
 11
36.594977608895519
 21
-46.157382958459422
 31
0.0
  0
LINE
  5
4A
100
AcDbEntity
  8
___G
370
              18
390
0
  6
Continuous
 62
               7
100
AcDbLine
 10
24.843724226637349
 20
-45.557382958459399
 30
0.0
 11
24.843724226637349
 21
-46.157382958459422
 31
0.0
  0
LINE
  5
4B
100
AcDbEntity
  8
___G
370
              18
390
0
  6
Continuous
 62
               7
100
AcDbLine
 10
29.768408175500966
 20
-46.957382958459434
 30
0.0
 11
29.768408175500966
 21
-47.557382958459399
 31
0.0
  0
SPLINE
  5
4C
100
AcDbEntity
  8
___G
370
              18
390
0
  6
Continuous
 62
               7
100
AcDbSpline
210
0.0
220
0.0
230
1.0
 70
               0
 71
               3
 72
               8
 73
               4
 74
               0
 42
0.0000001
 43
0.0000001
 12
0.9618578240638687
 22
-0.2735498606965832
 32
0.0
 13
0.9860364361537908
 23
-0.1665297167989279
 33
0.0
 40
0.0
 40
0.0
 40
0.0
 40
0.0
 40
1.0
 40
1.0
 40
1.0
 40
1.0
 10
32.442255092419103
 20
-46.766786699724648
 30
0.0
 10
32.738162793830966
 20
-46.850942079527314
 30
0.0
 10
33.053285484665921
 20
-46.904162518993346
 30
0.0
 10
33.368408175500988
 20
-46.957382958459434
 30
0.0
  0
MTEXT
  5
4D
100
AcDbEntity
  8
____
370
               5
390
0
  6
Continuous
 62
               7
100
AcDbMText
 10
21.772050862845575
 20
43.418851725195253
 30
0.0
 40
1.587499980926514
 41
1.5827430247899381
 71
               1
 72
               1
  1
1
  7
Style1
 73
               1
 44
1.0
  0
LINE
  5
4E
100
AcDbEntity
  8
___G
370
              18
390
0
  6
Continuous
 62
               7
100
AcDbLine
 10
20.70556506826189
 20
41.678547854785478
 30
0.0
 11
67.705565068261961
 21
41.678547854785478
 31
0.0
  0
LINE
  5
4F
100
AcDbEntity
  8
___G
370
              18
390
0
  6
Continuous
 62
               7
100
AcDbLine
 10
20.70556506826189
 20
44.178547854785478
 30
0.0
 11
67.705565068261961
 21
44.178547854785478
 31
0.0
  0
LINE
  5
50
100
AcDbEntity
  8
___G
370
              18
390
0
  6
Continuous
 62
               7
100
AcDbLine
 10
62.70556506826189
 20
39.178547854785478
 30
0.0
 11
62.70556506826189
 21
46.678547854785478
 31
0.0
  0
LINE
  5
51
100
AcDbEntity
  8
___G
370
              18
390
0
  6
Continuous
 62
               7
100
AcDbLine
 10
20.70556506826189
 20
39.178547854785478
 30
0.0
 11
20.70556506826189
 21
46.678547854785478
 31
0.0
  0
LINE
  5
52
100
AcDbEntity
  8
___G
370
              18
390
0
  6
Continuous
 62
               7
100
AcDbLine
 10
21.325922375240523
 20
39.418943730287168
 30
0.0
 11
23.800922375240603
 21
39.418943730287168
 31
0.0
  0
LINE
  5
53
100
AcDbEntity
  8
___G
370
              18
390
0
  6
Continuous
 62
               7
100
AcDbLine
 10
22.563422375240535
 20
41.562356604653615
 30
0.0
 11
23.800922375240603
 21
39.418943730287168
 31
0.0
  0
LINE
  5
54
100
AcDbEntity
  8
___G
370
              18
390
0
  6
Continuous
 62
               7
100
AcDbLine
 10
22.563422375240535
 20
41.562356604653615
 30
0.0
 11
21.325922375240523
 21
39.418943730287168
 31
0.0
  0
LINE
  5
55
100
AcDbEntity
  8
___G
370
              18
390
0
  6
Continuous
 62
               7
100
AcDbLine
 10
22.563422375240535
 20
44.037356604653581
 30
0.0
 11
21.325922375240523
 21
41.893943730287077
 31
0.0
  0
LINE
  5
56
100
AcDbEntity
  8
___G
370
              18
390
0
  6
Continuous
 62
               7
100
AcDbLine
 10
22.563422375240535
 20
44.037356604653581
 30
0.0
 11
23.800922375240603
 21
41.893943730287077
 31
0.0
  0
LINE
  5
57
100
AcDbEntity
  8
___G
370
              18
390
0
  6
Continuous
 62
               7
100
AcDbLine
 10
21.325922375240523
 20
41.893943730287077
 30
0.0
 11
23.800922375240603
 21
41.893943730287077
 31
0.0
  0
LINE
  5
58
100
AcDbEntity
  8
___G
370
              18
390
0
  6
Continuous
 62
               7
100
AcDbLine
 10
24.70556506826189
 20
39.178547854785478
 30
0.0
 11
24.70556506826189
 21
46.678547854785478
 31
0.0
  0
LINE
  5
59
100
AcDbEntity
  8
___G
370
              18
390
0
  6
Continuous
 62
               7
100
AcDbLine
 10
57.70556506826189
 20
39.178547854785478
 30
0.0
 11
57.70556506826189
 21
46.678547854785478
 31
0.0
  0
LINE
  5
5A
100
AcDbEntity
  8
___G
370
              18
390
0
  6
Continuous
 62
               7
100
AcDbLine
 10
32.70556506826189
 20
39.178547854785478
 30
0.0
 11
32.70556506826189
 21
46.678547854785478
 31
0.0
  0
MTEXT
  5
5B
100
AcDbEntity
  8
___G
370
               5
390
0
  6
DOT
 62
               7
100
AcDbMText
 10
20.70556506826189
 20
46.221047854785468
 30
0.0
 40
1.5874999761581421
 41
4.0
 71
               1
 72
               1
  1
副番
  7
Style1
 73
               1
 44
1.0
  0
LINE
  5
5C
100
AcDbEntity
  8
___G
370
              18
390
0
  6
Continuous
 62
               7
100
AcDbLine
 10
28.104165751258606
 20
-45.357382958459425
 30
0.0
 11
28.7041657512586
 21
-44.757382958459402
 31
0.0
  0
ARC
  5
5D
100
AcDbEntity
  8
___G
370
              18
390
0
  6
Continuous
 62
               7
100
AcDbCircle
 10
30.768408175500966
 20
-45.357382958459425
 30
0.0
 40
2.2000000000000268
210
-0.0
220
0.0
230
1.0
100
AcDbArc
 50
-90.0
 51
-57.455041145954418
  0
LINE
  5
5E
100
AcDbEntity
  8
___G
370
              18
390
0
  6
Continuous
 62
               7
100
AcDbLine
 10
24.843724226637349
 20
-46.157382958459422
 30
0.0
 11
25.243724226637326
 21
-46.157382958459422
 31
0.0
  0
LINE
  5
5F
100
AcDbEntity
  8
___G
370
              18
390
0
  6
Continuous
 62
               7
100
AcDbLine
 10
34.255401234814386
 20
-46.477382958459415
 30
0.0
 11
35.559934568147739
 21
-46.477382958459415
 31
0.0
  0
SPLINE
  5
60
100
AcDbEntity
  8
___G
370
              18
390
0
  6
Continuous
 62
               7
100
AcDbSpline
210
0.0
220
0.0
230
1.0
 70
               0
 71
               3
 72
               9
 73
               5
 74
               0
 42
0.0000001
 43
0.0000001
 12
0.7352773642102963
 22
-0.6777663297036517
 32
0.0
 13
0.8573032032596274
 23
-0.5148118274484203
 33
0.0
 40
0.0
 40
0.0
 40
0.0
 40
0.0
 40
0.9999999993702069
 40
1.0
 40
1.0
 40
1.0
 40
1.0
 10
29.768408175500966
 20
-45.81507117244449
 30
0.0
 10
30.150250016847778
 20
-46.167046571027399
 30
0.0
 10
30.532091858435038
 20
-46.51902196983194
 30
0.0
 10
30.964016359060182
 20
-46.778391880606463
 30
0.0
 10
30.964016359332234
 20
-46.778391880769831
 30
0.0
  0
SPLINE
  5
61
100
AcDbEntity
  8
___G
370
              18
390
0
  6
Continuous
 62
               7
100
AcDbSpline
210
0.0
220
0.0
230
1.0
 70
               0
 71
               3
 72
               8
 73
               4
 74
               0
 42
0.0000001
 43
0.0000001
 12
0.9524773181045245
 22
-0.3046095180660189
 32
0.0
 13
0.979066943480174
 23
-0.2035384980400263
 33
0.0
 40
0.0
 40
0.0
 40
0.0
 40
0.0
 40
1.0
 40
1.0
 40
1.0
 40
1.0
 10
31.951922893141145
 20
-47.211916029916821
 30
0.0
 10
32.407557407600919
 20
-47.357631426205771
 30
0.0
 10
32.887982791550954
 20
-47.457507192332613
 30
0.0
 10
33.368408175500988
 20
-47.557382958459399
 30
0.0
  0
SPLINE
  5
62
100
AcDbEntity
  8
___G
370
              18
390
0
  6
Continuous
 62
               7
100
AcDbSpline
210
0.0
220
0.0
230
1.0
 70
               0
 71
               3
 72
               8
 73
               4
 74
               0
 42
0.0000001
 43
0.0000001
 12
0.6676726695720104
 22
-0.7444549726521982
 32
0.0
 13
0.741315969719885
 23
-0.6711561912388697
 33
0.0
 40
0.0
 40
0.0
 40
0.0
 40
0.0
 40
1.0
 40
1.0
 40
1.0
 40
1.0
 10
31.142134005521271
 20
-45.912501235431634
 30
0.0
 10
31.253882976446832
 20
-46.037101328988896
 30
0.0
 10
31.365631947372421
 20
-46.161701422546102
 30
0.0
 10
31.486694849648913
 20
-46.271306664724975
 30
0.0
  0
LINE
  5
63
100
AcDbEntity
  8
___G
370
              18
390
0
  6
Continuous
 62
               7
100
AcDbLine
 10
29.768408175500966
 20
-45.477382958459415
 30
0.0
 11
31.768408175500966
 21
-45.477382958459415
 31
0.0
  0
LINE
  5
64
100
AcDbEntity
  8
___G
370
              18
390
0
  6
Continuous
 62
               7
100
AcDbLine
 10
37.85540123481438
 20
-45.437382958459466
 30
0.0
 11
37.85540123481438
 21
-46.157382958459422
 31
0.0
  0
LINE
  5
65
100
AcDbEntity
  8
___G
370
              18
390
0
  6
Continuous
 62
               7
100
AcDbLine
 10
36.329229277142403
 20
-45.233891402272548
 30
0.0
 11
36.655401234814391
 21
-44.757382958459402
 31
0.0
  0
LINE
  5
66
100
AcDbEntity
  8
___G
370
              18
390
0
  6
Continuous
 62
               7
100
AcDbLine
 10
27.104165751258606
 20
-45.557382958459399
 30
0.0
 11
26.304165751258623
 21
-45.557382958459399
 31
0.0
  0
LINE
  5
67
100
AcDbEntity
  8
___G
370
              18
390
0
  6
Continuous
 62
               7
100
AcDbLine
 10
26.904165751258617
 20
-44.757382958459402
 30
0.0
 11
25.304165751258623
 21
-44.757382958459402
 31
0.0
  0
LINE
  5
68
100
AcDbEntity
  8
___G
370
              18
390
0
  6
Continuous
 62
               7
100
AcDbLine
 10
26.304165751258623
 20
-45.357382958459425
 30
0.0
 11
26.904165751258617
 21
-44.757382958459402
 31
0.0
  0
LINE
  5
69
100
AcDbEntity
  8
___G
370
              18
390
0
  6
Continuous
 62
               7
100
AcDbLine
 10
25.304165751258623
 20
-45.557382958459399
 30
0.0
 11
24.843724226637349
 21
-45.557382958459399
 31
0.0
  0
ARC
  5
6A
100
AcDbEntity
  8
___G
370
              18
390
0
  6
Continuous
 62
               7
100
AcDbCircle
 10
26.904165751258617
 20
-46.357382958459411
 30
0.0
 40
1.1999999999999886
210
-0.0
220
-0.0
230
1.0
100
AcDbArc
 50
-90.0
 51
0.0
  0
ARC
  5
6B
100
AcDbEntity
  8
___G
370
              18
390
0
  6
Continuous
 62
               7
100
AcDbCircle
 10
30.248408175500984
 20
-45.437382958459466
 30
0.0
 40
1.5199999999999287
210
-0.0
220
0.0
230
1.0
100
AcDbArc
 50
-90.0
 51
-61.914095184791336
  0
LINE
  5
6C
100
AcDbEntity
  8
___G
370
              18
390
0
  6
Continuous
 62
               7
100
AcDbLine
 10
36.594977608895519
 20
-46.157382958459422
 30
0.0
 11
37.85540123481438
 21
-46.157382958459422
 31
0.0
  0
LINE
  5
6D
100
AcDbEntity
  8
___G
370
              18
390
0
  6
Continuous
 62
               7
100
AcDbLine
 10
27.104165751258606
 20
-44.757382958459402
 30
0.0
 11
27.104165751258606
 21
-45.557382958459399
 31
0.0
  0
LINE
  5
6E
100
AcDbEntity
  8
___G
370
              18
390
0
  6
Continuous
 62
               7
100
AcDbLine
 10
37.85540123481438
 20
-46.477382958459415
 30
0.0
 11
37.85540123481438
 21
-47.197382958459443
 31
0.0
  0
LINE
  5
6F
100
AcDbEntity
  8
___G
370
              18
390
0
  6
Continuous
 62
               7
100
AcDbLine
 10
33.368408175500988
 20
-46.957382958459434
 30
0.0
 11
33.368408175500988
 21
-47.557382958459399
 31
0.0
  0
LINE
  5
70
100
AcDbEntity
  8
___G
370
              18
390
0
  6
Continuous
 62
               7
100
AcDbLine
 10
25.304165751258623
 20
-46.157382958459422
 30
0.0
 11
25.243724226637326
 21
-46.157382958459422
 31
0.0
  0
LINE
  5
71
100
AcDbEntity
  8
___G
370
              18
390
0
  6
Continuous
 62
               7
100
AcDbLine
 10
28.104165751258606
 20
-45.557382958459399
 30
0.0
 11
28.104165751258606
 21
-45.357382958459425
 31
0.0
  0
LINE
  5
72
100
AcDbEntity
  8
___G
370
              18
390
0
  6
Continuous
 62
               7
100
AcDbLine
 10
36.387786977232039
 20
-45.437382958459409
 30
0.0
 11
36.329229277142403
 21
-45.233891402272548
 31
0.0
  0
LINE
  5
73
100
AcDbEntity
  8
___G
370
              18
390
0
  6
Continuous
 62
               7
100
AcDbLine
 10
28.7041657512586
 20
-44.757382958459402
 30
0.0
 11
27.104165751258606
 21
-44.757382958459402
 31
0.0
  0
LINE
  5
74
100
AcDbEntity
  8
___G
370
              18
390
0
  6
Continuous
 62
               7
100
AcDbLine
 10
35.559934568147739
 20
-46.477382958459415
 30
0.0
 11
35.466067901481026
 21
-46.157382958459422
 31
0.0
  0
LINE
  5
75
100
AcDbEntity
  8
___G
370
               5
390
0
  6
Continuous
 62
               7
100
AcDbLine
 10
29.705565068261905
 20
-35.571452145214536
 30
0.0
 11
29.705565068261905
 21
-39.821452145214536
 31
0.0
  0
LINE
  5
76
100
AcDbEntity
  8
___G
370
               5
390
0
  6
Continuous
 62
               7
100
AcDbLine
 10
19.705565068261905
 20
-35.571452145214536
 30
0.0
 11
19.705565068261905
 21
-39.821452145214536
 31
0.0
  0
LINE
  5
77
100
AcDbEntity
  8
___G
370
               5
390
0
  6
Continuous
 62
               7
100
AcDbLine
 10
19.705565068261905
 20
-35.571452145214536
 30
0.0
 11
19.705565068261905
 21
-27.32145214521455
 31
0.0
  0
LINE
  5
78
100
AcDbEntity
  8
___G
370
               5
390
0
  6
Continuous
 62
               7
100
AcDbLine
 10
24.705565068261905
 20
-39.821452145214543
 30
0.0
 11
24.705565068261905
 21
-44.07145214521455
 31
0.0
  0
LINE
  5
79
100
AcDbEntity
  8
___G
370
              18
390
0
  6
Continuous
 62
               7
100
AcDbLine
 10
25.304165751258623
 20
-46.957382958459434
 30
0.0
 11
25.304165751258623
 21
-47.557382958459399
 31
0.0
  0
ARC
  5
7A
100
AcDbEntity
  8
___G
370
              18
390
0
  6
Continuous
 62
               7
100
AcDbCircle
 10
26.504165751258611
 20
-46.357382958459411
 30
0.0
 40
0.5999999999999943
210
-0.0
220
-0.0
230
1.0
100
AcDbArc
 50
-90.0
 51
0.0
  0
LINE
  5
7B
100
AcDbEntity
  8
___G
370
              18
390
0
  6
Continuous
 62
               7
100
AcDbLine
 10
29.768408175500966
 20
-45.686227065451916
 30
0.0
 11
31.368408175500988
 21
-45.686227065451916
 31
0.0
  0
LINE
  5
7C
100
AcDbEntity
  8
___G
370
              18
390
0
  6
Continuous
 62
               7
100
AcDbLine
 10
28.104165751258606
 20
-46.357382958459411
 30
0.0
 11
28.104165751258606
 21
-46.157382958459422
 31
0.0
  0
LINE
  5
7D
100
AcDbEntity
  8
___G
370
              18
390
0
  6
Continuous
 62
               7
100
AcDbLine
 10
29.768408175500966
 20
-46.957382958459434
 30
0.0
 11
30.248408175500984
 21
-46.957382958459434
 31
0.0
  0
LINE
  5
7E
100
AcDbEntity
  8
___G
370
              18
390
0
  6
Continuous
 62
               7
100
AcDbLine
 10
35.055401234814369
 20
-44.757382958459402
 30
0.0
 11
36.655401234814391
 21
-44.757382958459402
 31
0.0
  0
LINE
  5
7F
100
AcDbEntity
  8
___G
370
              18
390
0
  6
Continuous
 62
               7
100
AcDbLine
 10
32.968408175500983
 20
-45.357382958459425
 30
0.0
 11
33.368408175500988
 21
-44.757382958459402
 31
0.0
  0
LINE
  5
80
100
AcDbEntity
  8
___G
370
              18
390
0
  6
Continuous
 62
               7
100
AcDbLine
 10
25.304165751258623
 20
-47.557382958459399
 30
0.0
 11
26.904165751258617
 21
-47.557382958459399
 31
0.0
  0
LINE
  5
81
100
AcDbEntity
  8
___G
370
              18
390
0
  6
Continuous
 62
               7
100
AcDbLine
 10
29.768408175500966
 20
-47.557382958459399
 30
0.0
 11
30.768408175501023
 21
-47.557382958459399
 31
0.0
  0
ARC
  5
82
100
AcDbEntity
  8
___G
370
              18
390
0
  6
Continuous
 62
               7
100
AcDbCircle
 10
30.248408175500984
 20
-45.437382958459466
 30
0.0
 40
1.5199999999999887
210
-0.0
220
0.0
230
1.0
100
AcDbArc
 50
-28.600718616739268
 51
-1.5079577542369229
  0
LINE
  5
83
100
AcDbEntity
  8
___G
370
              18
390
0
  6
Continuous
 62
               7
100
AcDbLine
 10
28.7041657512586
 20
-45.557382958459399
 30
0.0
 11
28.104165751258606
 21
-45.557382958459399
 31
0.0
  0
LINE
  5
84
100
AcDbEntity
  8
___G
370
              18
390
0
  6
Continuous
 62
               7
100
AcDbLine
 10
27.104165751258606
 20
-46.157382958459422
 30
0.0
 11
27.104165751258606
 21
-46.357382958459411
 31
0.0
  0
LINE
  5
85
100
AcDbEntity
  8
___G
370
              18
390
0
  6
Continuous
 62
               7
100
AcDbLine
 10
26.304165751258623
 20
-46.157382958459422
 30
0.0
 11
27.104165751258606
 21
-46.157382958459422
 31
0.0
  0
ARC
  5
86
100
AcDbEntity
  8
___G
370
              18
390
0
  6
Continuous
 62
               7
100
AcDbCircle
 10
30.768408175500966
 20
-45.357382958459425
 30
0.0
 40
2.2000000000000171
210
-0.0
220
-0.0
230
1.0
100
AcDbArc
 50
-37.512388020300442
 51
0.0
  0
LINE
  5
87
100
AcDbEntity
  8
___G
370
              18
390
0
  6
Continuous
 62
               7
100
AcDbLine
 10
29.768408175500966
 20
-47.557382958459399
 30
0.0
 11
29.768408175500966
 21
-46.957382958459434
 31
0.0
  0
LINE
  5
88
100
AcDbEntity
  8
___G
370
              18
390
0
  6
Continuous
 62
               7
100
AcDbLine
 10
37.055401234814369
 20
-47.757382958459388
 30
0.0
 11
36.89425296574278
 21
-47.197382958459443
 31
0.0
  0
LINE
  5
89
100
AcDbEntity
  8
___G
370
              18
390
0
  6
Continuous
 62
               7
100
AcDbLine
 10
36.687062334079243
 20
-46.477382958459415
 30
0.0
 11
37.85540123481438
 21
-46.477382958459415
 31
0.0
  0
LINE
  5
8A
100
AcDbEntity
  8
___G
370
              18
390
0
  6
Continuous
 62
               7
100
AcDbLine
 10
34.255401234814386
 20
-45.437382958459466
 30
0.0
 11
35.254867901481006
 21
-45.437382958459466
 31
0.0
  0
LINE
  5
8B
100
AcDbEntity
  8
___G
370
              18
390
0
  6
Continuous
 62
               7
100
AcDbLine
 10
34.255401234814386
 20
-47.197382958459443
 30
0.0
 11
35.771134568147758
 21
-47.197382958459443
 31
0.0
  0
LINE
  5
8C
100
AcDbEntity
  8
___G
370
              18
390
0
  6
Continuous
 62
               7
100
AcDbLine
 10
33.368408175500988
 20
-44.757382958459402
 30
0.0
 11
29.768408175500966
 21
-44.757382958459402
 31
0.0
  0
LINE
  5
8D
100
AcDbEntity
  8
___G
370
              18
390
0
  6
Continuous
 62
               7
100
AcDbLine
 10
25.304165751258623
 20
-46.757382958459388
 30
0.0
 11
26.304165751258623
 21
-46.757382958459388
 31
0.0
  0
LINE
  5
8E
100
AcDbEntity
  8
___G
370
              18
390
0
  6
Continuous
 62
               7
100
AcDbLine
 10
35.370805473872977
 20
-37.120452145214564
 30
0.0
 11
37.674805473872951
 21
-36.544452145214542
 31
0.0
  0
CIRCLE
  5
8F
100
AcDbEntity
  8
___G
370
              18
390
0
  6
Continuous
 62
               7
100
AcDbCircle
 10
32.737565068261944
 20
-37.696452145214536
 30
0.0
 40
1.15199999999993
  0
CIRCLE
  5
90
100
AcDbEntity
  8
___G
370
              18
390
0
  6
Continuous
 62
               7
100
AcDbCircle
 10
32.737565068261944
 20
-37.696452145214536
 30
0.0
 40
0.5760000000000218
  0
LINE
  5
91
100
AcDbEntity
  8
___G
370
              18
390
0
  6
CENTER2
 62
               7
100
AcDbLine
 10
31.009565068261878
 20
-37.696452145214536
 30
0.0
 11
38.401565068261924
 21
-37.696452145214536
 31
0.0
  0
LINE
  5
92
100
AcDbEntity
  8
___G
370
              18
390
0
  6
Continuous
 62
               7
100
AcDbLine
 10
29.768408175500966
 20
-44.757382958459402
 30
0.0
 11
29.768408175500966
 21
-45.477382958459415
 31
0.0
  0
LINE
  5
93
100
AcDbEntity
  8
___G
370
               5
390
0
  6
Continuous
 62
               7
100
AcDbLine
 10
39.705565068261905
 20
-35.571452145214522
 30
0.0
 11
39.705565068261905
 21
-48.321452145214536
 31
0.0
  0
CIRCLE
  5
94
100
AcDbEntity
  8
___G
370
              18
390
0
  6
Continuous
 62
               7
100
AcDbCircle
 10
32.737565068261944
 20
-37.696452145214536
 30
0.0
 40
1.15199999999993
  0
LINE
  5
95
100
AcDbEntity
  8
___G
370
              18
390
0
  6
Continuous
 62
               7
100
AcDbLine
 10
35.370805473872977
 20
-37.120452145214564
 30
0.0
 11
37.674805473872951
 21
-36.544452145214542
 31
0.0
  0
LINE
  5
96
100
AcDbEntity
  8
___G
370
              18
390
0
  6
Continuous
 62
               7
100
AcDbLine
 10
34.255401234814386
 20
-46.477382958459415
 30
0.0
 11
34.255401234814386
 21
-47.197382958459443
 31
0.0
  0
LINE
  5
97
100
AcDbEntity
  8
___G
370
              18
390
0
  6
Continuous
 62
               7
100
AcDbLine
 10
26.304165751258623
 20
-46.757382958459388
 30
0.0
 11
26.304165751258623
 21
-46.157382958459422
 31
0.0
  0
LINE
  5
98
100
AcDbEntity
  8
___G
370
              18
390
0
  6
Continuous
 62
               7
100
AcDbLine
 10
36.89425296574278
 20
-47.197382958459443
 30
0.0
 11
37.85540123481438
 21
-47.197382958459443
 31
0.0
  0
LINE
  5
99
100
AcDbEntity
  8
___G
370
              18
390
0
  6
Continuous
 62
               7
100
AcDbLine
 10
34.255401234814386
 20
-45.437382958459466
 30
0.0
 11
34.255401234814386
 21
-46.157382958459422
 31
0.0
  0
LINE
  5
9A
100
AcDbEntity
  8
___G
370
              18
390
0
  6
Continuous
 62
               7
100
AcDbLine
 10
28.104165751258606
 20
-46.157382958459422
 30
0.0
 11
28.7041657512586
 21
-46.157382958459422
 31
0.0
  0
LINE
  5
9B
100
AcDbEntity
  8
___G
370
              18
390
0
  6
Continuous
 62
               7
100
AcDbLine
 10
35.935401234814421
 20
-47.757382958459388
 30
0.0
 11
35.771134568147758
 21
-47.197382958459443
 31
0.0
  0
LINE
  5
9C
100
AcDbEntity
  8
___G
370
              18
390
0
  6
Continuous
 62
               7
100
AcDbLine
 10
26.504165751258611
 20
-46.957382958459434
 30
0.0
 11
25.304165751258623
 21
-46.957382958459434
 31
0.0
  0
LINE
  5
9D
100
AcDbEntity
  8
___G
370
              18
390
0
  6
Continuous
 62
               7
100
AcDbLine
 10
37.674805473872951
 20
-36.544452145214542
 30
0.0
 11
37.674805473872951
 21
-38.848452145214587
 31
0.0
  0
LINE
  5
9E
100
AcDbEntity
  8
___G
370
              18
390
0
  6
Continuous
 62
               7
100
AcDbLine
 10
35.370805473872977
 20
-38.272452145214558
 30
0.0
 11
37.674805473872951
 21
-38.848452145214587
 31
0.0
  0
LINE
  5
9F
100
AcDbEntity
  8
___G
370
              18
390
0
  6
Continuous
 62
               7
100
AcDbLine
 10
35.370805473872977
 20
-37.120452145214564
 30
0.0
 11
35.370805473872977
 21
-38.272452145214558
 31
0.0
  0
LINE
  5
A0
100
AcDbEntity
  8
___G
370
              18
390
0
  6
CENTER2
 62
               7
100
AcDbLine
 10
32.737565068261944
 20
-35.968452145214577
 30
0.0
 11
32.737565068261944
 21
-39.424452145214559
 31
0.0
  0
LINE
  5
A1
100
AcDbEntity
  8
___G
370
              18
390
0
  6
Continuous
 62
               7
100
AcDbLine
 10
35.370805473872977
 20
-37.120452145214564
 30
0.0
 11
35.370805473872977
 21
-38.272452145214558
 31
0.0
  0
LINE
  5
A2
100
AcDbEntity
  8
___G
370
              18
390
0
  6
Continuous
 62
               7
100
AcDbLine
 10
37.674805473872951
 20
-36.544452145214542
 30
0.0
 11
37.674805473872951
 21
-38.848452145214587
 31
0.0
  0
MTEXT
  5
A3
100
AcDbEntity
  8
___G
370
               5
390
0
  6
Continuous
 62
               7
100
AcDbMText
 10
19.705565068261905
 20
-35.924218848892949
 30
0.0
 40
1.375
 41
10.0
 71
               1
 72
               1
  1
尺 　度
  7
Style1
 73
               1
 44
1.0
  0
LINE
  5
A4
100
AcDbEntity
  8
___G
370
               5
390
0
  6
Continuous
 62
               7
100
AcDbLine
 10
20.705565068261905
 20
-37.696452145214536
 30
0.0
 11
27.705565068261905
 21
-37.696452145214536
 31
0.0
  0
LINE
  5
A5
100
AcDbEntity
  8
___G
370
               5
390
0
  6
Continuous
 62
               7
100
AcDbLine
 10
25.705565068261912
 20
-41.946452145214536
 30
0.0
 11
38.705565068261905
 21
-41.946452145214536
 31
0.0
  0
LINE
  5
A6
100
AcDbEntity
  8
___G
370
               5
390
0
  6
Continuous
 62
               7
100
AcDbLine
 10
10.705565068261905
 20
-41.946452145214536
 30
0.0
 11
23.705565068261905
 21
-41.946452145214536
 31
0.0
  0
MTEXT
  5
A7
100
AcDbEntity
  8
___G
370
              18
390
0
  6
Continuous
 62
               7
100
AcDbMText
 10
38.705565068261905
 20
-27.871452145214533
 30
0.0
 40
1.6499999761581421
 41
9.0
 71
               1
 72
               1
  1
色
  7
Style1
 73
               1
 44
1.0
  0
CIRCLE
  5
A8
100
AcDbEntity
  8
___G
370
              18
390
0
  6
Continuous
 62
               7
100
AcDbCircle
 10
32.737565068261944
 20
-37.696452145214536
 30
0.0
 40
1.15199999999993
  0
LINE
  5
A9
100
AcDbEntity
  8
___G
370
              18
390
0
  6
Continuous
 62
               7
100
AcDbLine
 10
35.370805473872977
 20
-37.120452145214564
 30
0.0
 11
37.674805473872951
 21
-36.544452145214542
 31
0.0
  0
LINE
  5
AA
100
AcDbEntity
  8
___G
370
              18
390
0
  6
Continuous
 62
               7
100
AcDbLine
 10
35.370805473872977
 20
-38.272452145214558
 30
0.0
 11
37.674805473872951
 21
-38.848452145214587
 31
0.0
  0
MTEXT
  5
AB
100
AcDbEntity
  8
___G
370
               5
390
0
  6
Continuous
 62
               7
100
AcDbMText
 10
11.815841930653237
 20
-44.934785605704441
 30
0.0
 40
2.5399999618530273
 41
12.498155526620373
 71
               1
 72
               1
  1
株式会社
  7
Style1
 73
               1
 44
1.0
  0
LINE
  5
AC
100
AcDbEntity
  8
___G
370
               5
390
0
  6
Continuous
 62
               7
100
AcDbLine
 10
9.7055650682618548
 20
-39.821452145214536
 30
0.0
 11
67.705565068261905
 21
-39.821452145214536
 31
0.0
  0
LINE
  5
AD
100
AcDbEntity
  8
___G
370
               5
390
0
  6
Continuous
 62
               7
100
AcDbLine
 10
9.7055650682619579
 20
-35.571452145214536
 30
0.0
 11
67.705565068261905
 21
-35.571452145214536
 31
0.0
  0
LINE
  5
AE
100
AcDbEntity
  8
___G
370
               5
390
0
  6
Continuous
 62
               7
100
AcDbLine
 10
10.705565068261876
 20
-37.696452145214536
 30
0.0
 11
18.705565068261905
 21
-37.696452145214536
 31
0.0
  0
LINE
  5
AF
100
AcDbEntity
  8
___G
370
              18
390
0
  6
Continuous
 62
               7
100
AcDbLine
 10
34.255401234814386
 20
-46.157382958459422
 30
0.0
 11
35.466067901481026
 21
-46.157382958459422
 31
0.0
  0
LINE
  5
B0
100
AcDbEntity
  8
___G
370
              18
390
0
  6
Continuous
 62
               7
100
AcDbLine
 10
25.304165751258623
 20
-46.157382958459422
 30
0.0
 11
25.304165751258623
 21
-46.757382958459388
 31
0.0
  0
LINE
  5
B1
100
AcDbEntity
  8
___G
370
              18
390
0
  6
Continuous
 62
               7
100
AcDbLine
 10
25.304165751258623
 20
-44.757382958459402
 30
0.0
 11
25.304165751258623
 21
-45.557382958459399
 31
0.0
  0
LINE
  5
B2
100
AcDbEntity
  8
___G
370
              18
390
0
  6
Continuous
 62
               7
100
AcDbLine
 10
35.254867901481006
 20
-45.437382958459409
 30
0.0
 11
35.055401234814369
 21
-44.757382958459402
 31
0.0
  0
LINE
  5
B3
100
AcDbEntity
  8
___G
370
              18
390
0
  6
Continuous
 62
               7
100
AcDbLine
 10
36.387786977232039
 20
-45.437382958459466
 30
0.0
 11
37.85540123481438
 21
-45.437382958459466
 31
0.0
  0
LINE
  5
B4
100
AcDbEntity
  8
___G
370
              18
390
0
  6
Continuous
 62
               7
100
AcDbLine
 10
31.368408175500988
 20
-45.686227065451916
 30
0.0
 11
31.142134005521271
 21
-45.912501235431634
 31
0.0
  0
LINE
  5
B5
100
AcDbEntity
  8
___G
370
              18
390
0
  6
Continuous
 62
               7
100
AcDbLine
 10
29.768408175500966
 20
-45.81507117244449
 30
0.0
 11
29.768408175500966
 21
-45.686227065451916
 31
0.0
  0
MTEXT
  5
B6
100
AcDbEntity
  8
___G
370
              18
390
0
  6
Continuous
 62
               7
100
AcDbMText
 10
9.7055650682618477
 20
-27.871452145214533
 30
0.0
 40
1.6499999761581421
 41
10.000000000000057
 71
               1
 72
               1
  1
材　　質
  7
Style1
 73
               1
 44
1.0
  0
MTEXT
  5
B7
100
AcDbEntity
  8
___G
370
              18
390
0
  6
Continuous
 62
               7
100
AcDbMText
 10
9.7055650682618477
 20
-30.621452145214533
 30
0.0
 40
1.6499999761581421
 41
10.000000000000057
 71
               1
 72
               1
  1
表面処理
  7
Style1
 73
               1
 44
1.0
  0
MTEXT
  5
B8
100
AcDbEntity
  8
___G
370
              18
390
0
  6
Continuous
 62
               7
100
AcDbMText
 10
9.7055650682618477
 20
-33.371452145214533
 30
0.0
 40
1.6499999761581421
 41
10.000000000000057
 71
               1
 72
               1
  1
一般公差
  7
Style1
 73
               1
 44
1.0
  0
LINE
  5
B9
100
AcDbEntity
  8
___G
370
               5
390
0
  6
Continuous
 62
               7
100
AcDbLine
 10
9.7055650682618584
 20
-32.821452145214536
 30
0.0
 11
67.705565068261905
 21
-32.821452145214536
 31
0.0
  0
LINE
  5
BA
100
AcDbEntity
  8
___G
370
               5
390
0
  6
Continuous
 62
               7
100
AcDbLine
 10
9.7055650682618584
 20
-30.071452145214536
 30
0.0
 11
67.705565068261905
 21
-30.071452145214536
 31
0.0
  0
LINE
  5
BB
100
AcDbEntity
  8
___G
370
               5
390
0
  6
Continuous
 62
               7
100
AcDbLine
 10
9.7055650682618584
 20
-27.321452145214536
 30
0.0
 11
67.705565068261905
 21
-27.321452145214536
 31
0.0
  0
LINE
  5
BC
100
AcDbEntity
  8
___G
370
              18
390
0
  6
CENTER2
 62
               7
100
AcDbLine
 10
32.737565068261944
 20
-35.968452145214577
 30
0.0
 11
32.737565068261944
 21
-39.424452145214559
 31
0.0
  0
LINE
  5
BD
100
AcDbEntity
  8
___G
370
              18
390
0
  6
Continuous
 62
               7
100
AcDbLine
 10
37.674805473872951
 20
-36.544452145214542
 30
0.0
 11
37.674805473872951
 21
-38.848452145214587
 31
0.0
  0
LINE
  5
BE
100
AcDbEntity
  8
___G
370
              18
390
0
  6
Continuous
 62
               7
100
AcDbLine
 10
35.370805473872977
 20
-37.120452145214564
 30
0.0
 11
35.370805473872977
 21
-38.272452145214558
 31
0.0
  0
LINE
  5
BF
100
AcDbEntity
  8
___G
370
              18
390
0
  6
Continuous
 62
               7
100
AcDbLine
 10
35.370805473872977
 20
-38.272452145214558
 30
0.0
 11
37.674805473872951
 21
-38.848452145214587
 31
0.0
  0
MTEXT
  5
C0
100
AcDbEntity
  8
___G
370
               5
390
0
  6
DOT
 62
               7
100
AcDbMText
 10
43.650814795116005
 20
-45.313952145214529
 30
0.0
 40
1.7638888359069824
 41
23.554750273145899
 71
               1
 72
               1
  1
SLZ00169
  7
Style1
 73
               1
 44
1.0
  0
LINE
  5
C1
100
AcDbEntity
  8
___G
370
              18
390
0
  6
Continuous
 62
               7
100
AcDbLine
 10
35.370805473872977
 20
-37.120452145214564
 30
0.0
 11
35.370805473872977
 21
-38.272452145214558
 31
0.0
  0
CIRCLE
  5
C2
100
AcDbEntity
  8
___G
370
              18
390
0
  6
Continuous
 62
               7
100
AcDbCircle
 10
32.737565068261944
 20
-37.696452145214536
 30
0.0
 40
1.15199999999993
  0
CIRCLE
  5
C3
100
AcDbEntity
  8
___G
370
              18
390
0
  6
Continuous
 62
               7
100
AcDbCircle
 10
32.737565068261944
 20
-37.696452145214536
 30
0.0
 40
0.5760000000000218
  0
LINE
  5
C4
100
AcDbEntity
  8
___G
370
              18
390
0
  6
Continuous
 62
               7
100
AcDbLine
 10
35.370805473872977
 20
-38.272452145214558
 30
0.0
 11
37.674805473872951
 21
-38.848452145214587
 31
0.0
  0
LINE
  5
C5
100
AcDbEntity
  8
___G
370
              18
390
0
  6
Continuous
 62
               7
100
AcDbLine
 10
35.370805473872977
 20
-37.120452145214564
 30
0.0
 11
37.674805473872951
 21
-36.544452145214542
 31
0.0
  0
CIRCLE
  5
C6
100
AcDbEntity
  8
___G
370
              18
390
0
  6
Continuous
 62
               7
100
AcDbCircle
 10
32.737565068261944
 20
-37.696452145214536
 30
0.0
 40
0.5760000000000218
  0
MTEXT
  5
C7
100
AcDbEntity
  8
___G
370
               5
390
0
  6
Continuous
 62
               7
100
AcDbMText
 10
24.705565068261919
 20
-42.299218848892949
 30
0.0
 40
1.375
 41
3.9999999999999858
 71
               1
 72
               1
  1
 検図
  7
Style1
 73
               1
 44
1.0
  0
MTEXT
  5
C8
100
AcDbEntity
  8
___G
370
               5
390
0
  6
Continuous
 62
               7
100
AcDbMText
 10
24.705565068261905
 20
-40.174218848892949
 30
0.0
 40
1.375
 41
4.0
 71
               1
 72
               1
  1
 照査
  7
Style1
 73
               1
 44
1.0
  0
MTEXT
  5
C9
100
AcDbEntity
  8
___G
370
               5
390
0
  6
Continuous
 62
               7
100
AcDbMText
 10
9.7055650682619188
 20
-42.299218848892963
 30
0.0
 40
1.375
 41
3.9999999999999858
 71
               1
 72
               1
  1
製図
  7
Style1
 73
               1
 44
1.0
  0
MTEXT
  5
CA
100
AcDbEntity
  8
___G
370
               5
390
0
  6
Continuous
 62
               7
100
AcDbMText
 10
9.7055650682619046
 20
-40.174218848892963
 30
0.0
 40
1.375
 41
4.0
 71
               1
 72
               1
  1
 設計
  7
Style1
 73
               1
 44
1.0
  0
LINE
  5
CB
100
AcDbEntity
  8
___G
370
               5
390
0
  6
Continuous
 62
               7
100
AcDbLine
 10
9.7055650682619579
 20
-44.071452145214536
 30
0.0
 11
67.705565068261905
 21
-44.071452145214536
 31
0.0
  0
CIRCLE
  5
CC
100
AcDbEntity
  8
___G
370
              18
390
0
  6
Continuous
 62
               7
100
AcDbCircle
 10
32.737565068261944
 20
-37.696452145214536
 30
0.0
 40
0.5760000000000218
  0
MTEXT
  5
CD
100
AcDbEntity
  8
___G
370
               5
390
0
  6
Continuous
 62
               7
100
AcDbMText
 10
9.7055650682619046
 20
-35.924218848892949
 30
0.0
 40
1.375
 41
10.0
 71
               1
 72
               1
  1
日 　付
  7
Style1
 73
               1
 44
1.0
  0
LINE
  5
CE
100
AcDbEntity
  8
___G
370
               5
390
0
  6
Continuous
 62
               7
100
AcDbLine
 10
9.7055650682619046
 20
-27.321452145214536
 30
0.0
 11
9.7055650682619046
 21
-35.571452145214536
 31
0.0
  0
LINE
  5
CF
100
AcDbEntity
  8
___G
370
               5
390
0
  6
Continuous
 62
               7
100
AcDbLine
 10
9.7055650682619046
 20
-35.571452145214536
 30
0.0
 11
9.7055650682619046
 21
-48.321452145214536
 31
0.0
  0
LINE
  5
D0
100
AcDbEntity
  8
___G
370
               5
390
0
  6
Continuous
 62
               7
100
AcDbLine
 10
9.7055650682619046
 20
-27.321452145214536
 30
0.0
 11
9.7055650682619046
 21
-35.571452145214536
 31
0.0
  0
MTEXT
  5
D1
100
AcDbEntity
  8
___G
370
               5
390
0
  6
Continuous
 62
               7
100
AcDbMText
 10
39.955565068261905
 20
-40.071452145214536
 30
0.0
 40
1.375
 41
4.6500000000000004
 71
               1
 72
               1
  1
図面名
  7
Style1
 73
               1
 44
1.0
  0
MTEXT
  5
D2
100
AcDbEntity
  8
___G
370
               5
390
0
  6
Continuous
 62
               7
100
AcDbMText
 10
39.955565068261905
 20
-44.321452145214522
 30
0.0
 40
1.375
 41
4.6500000000000004
 71
               1
 72
               1
  1
図　番
  7
Style1
 73
               1
 44
1.0
  0
MTEXT
  5
D3
100
AcDbEntity
  8
___G
370
               5
390
0
  6
Continuous
 62
               7
100
AcDbMText
 10
39.955565068261905
 20
-35.821452145214522
 30
0.0
 40
1.375
 41
4.6500000000000004
 71
               1
 72
               1
  1
製品名
  7
Style1
 73
               1
 44
1.0
  0
LINE
  5
D4
100
AcDbEntity
  8
___G
370
              18
390
0
  6
Continuous
 62
               7
100
AcDbLine
 10
37.674805473872951
 20
-36.544452145214542
 30
0.0
 11
37.674805473872951
 21
-38.848452145214587
 31
0.0
  0
LINE
  5
D5
100
AcDbEntity
  8
___G
370
              18
390
0
  6
CENTER2
 62
               7
100
AcDbLine
 10
32.737565068261944
 20
-35.968452145214577
 30
0.0
 11
32.737565068261944
 21
-39.424452145214559
 31
0.0
  0
LINE
  5
D6
100
AcDbEntity
  8
___G
370
              18
390
0
  6
CENTER2
 62
               7
100
AcDbLine
 10
32.737565068261944
 20
-35.968452145214577
 30
0.0
 11
32.737565068261944
 21
-39.424452145214559
 31
0.0
  0
LINE
  5
D7
100
AcDbEntity
  8
___G
370
               5
390
0
  6
Continuous
 62
               7
100
AcDbLine
 10
38.705565068261905
 20
-30.071452145214536
 30
0.0
 11
38.705565068261905
 21
-27.32145214521455
 31
0.0
  0
LINE
  5
D8
100
AcDbEntity
  8
___G
370
               5
390
0
  6
Continuous
 62
               7
100
AcDbLine
 10
47.705565068261905
 20
-30.071452145214536
 30
0.0
 11
47.705565068261905
 21
-27.32145214521455
 31
0.0
  0
LINE
  5
D9
100
AcDbEntity
  8
________1________1
370
              18
390
0
  6
Continuous
 62
               7
100
AcDbLine
 10
3.3696953448746179
 20
-7.4405170712705822
 30
0.0
 11
3.3817042697570976
 21
-8.1283001689292469
 31
0.0
  0
ARC
  5
DA
100
AcDbEntity
  8
________1________1
370
              18
390
0
  6
Continuous
 62
               7
100
AcDbCircle
 10
2.7995740790292345
 20
-6.9230644939519017
 30
0.0
 40
1.9999999999999747
210
-0.0
220
-0.0
230
1.0
100
AcDbArc
 50
-31.788332975377081
 51
31.788331306247407
  0
LINE
  5
DB
100
AcDbEntity
  8
________1________1
370
              18
390
0
  6
Continuous
 62
               7
100
AcDbLine
 10
3.6696532801765258
 20
-7.4405169003891043
 30
0.0
 11
4.49957407902928
 21
-7.4405169003891043
 31
0.0
  0
ARC
  5
DC
100
AcDbEntity
  8
________1________1
370
              18
390
0
  6
Continuous
 62
               7
100
AcDbCircle
 10
28.139754844009239
 20
-7.423064493949628
 30
0.0
 40
0.9999999999999935
100
AcDbArc
 50
-179.00000000001776
 51
-134.5000000000004
  0
LINE
  5
DD
100
AcDbEntity
  8
____1
370
               5
390
0
  6
CENTER2
 62
               7
100
AcDbLine
 10
30.169706092230513
 20
-6.9230644939494006
 30
0.0
 11
32.669706092230513
 21
-6.9230644939494006
 31
0.0
  0
LINE
  5
DE
100
AcDbEntity
  8
________1________1
370
              18
390
0
  6
Continuous
 62
               7
100
AcDbLine
 10
4.4995740790263241
 20
-6.4230644939512622
 30
0.0
 11
2.2495740790283705
 21
-6.4230644939512622
 31
0.0
  0
LINE
  5
DF
100
AcDbEntity
  8
________1________1
370
              18
390
0
  6
Continuous
 62
               7
100
AcDbLine
 10
4.4995740790240504
 20
-6.1230644939542209
 30
0.0
 11
4.4995740790240504
 21
-6.4230644939512622
 31
0.0
  0
LINE
  5
E0
100
AcDbEntity
  8
________1________1
370
              18
390
0
  6
Continuous
 62
               7
100
AcDbLine
 10
2.2495740790283705
 20
-1.9230644939494432
 30
0.0
 11
4.4995740790263241
 21
-1.9230644939494432
 31
0.0
  0
LINE
  5
E1
100
AcDbEntity
  8
________1________1
370
              18
390
0
  6
Continuous
 62
               7
100
AcDbLine
 10
38.919706198773774
 20
-2.2230646004926378
 30
0.0
 11
38.619706247202522
 21
-1.9230646489214429
 31
0.0
  0
SPLINE
  5
E2
100
AcDbEntity
  8
________1________1
370
              18
390
0
  6
Continuous
 62
               7
100
AcDbSpline
210
0.0
220
0.0
230
1.0
 70
               0
 71
               2
 72
               6
 73
               3
 74
               0
 42
0.0000001
 43
0.0000001
 12
0.9694264636201597
 22
-0.2453820116327012
 32
-0.0
 13
-0.9676360898780561
 23
0.2523497524577874
 33
0.0
 40
0.8762171670531416
 40
0.8762171670531416
 40
0.8762171670531416
 40
1.0
 40
1.0
 40
1.0
 10
24.241245123147849
 20
-6.1230644939495571
 30
-0.0000000000000004
 10
24.430627616545888
 20
-6.2870745442642111
 30
-0.0000000000000004
 10
24.596337298269113
 20
-6.4230644939494779
 30
-0.0000000000000004
  0
SPLINE
  5
E3
100
AcDbEntity
  8
________1________1
370
              18
390
0
  6
Continuous
 62
               7
100
AcDbSpline
210
0.0
220
0.0
230
1.0
 70
               0
 71
               2
 72
               6
 73
               3
 74
               0
 42
0.0000001
 43
0.0000001
 12
0.9862511092301362
 22
-0.1652535916170234
 32
-0.0000000000000046
 13
-0.9875643273720757
 23
0.1572154550358839
 33
0.0000000000000046
 40
0.9643220790653997
 40
0.9643220790653997
 40
0.9643220790653997
 40
1.0
 40
1.0
 40
1.0
 10
38.243074886191955
 20
-6.4230644939494805
 30
-0.0000000000001801
 10
38.408784567916875
 20
-6.2870745442629685
 30
-0.00000000000018
 10
38.598167061313148
 20
-6.1230644939495775
 30
-0.00000000000018
  0
SPLINE
  5
E4
100
AcDbEntity
  8
________1________1
370
              18
390
0
  6
Continuous
 62
               7
100
AcDbSpline
210
0.0
220
0.0
230
1.0
 70
               0
 71
               2
 72
               6
 73
               3
 74
               0
 42
0.0000001
 43
0.0000001
 12
0.998370698584239
 22
-0.0570609166454426
 32
-0.0000000000000047
 13
-0.998722567964536
 23
0.0505295184849675
 33
0.0000000000000047
 40
0.876217167053081
 40
0.876217167053081
 40
0.876217167053081
 40
1.0
 40
1.0
 40
1.0
 10
38.59816706131317
 20
-2.2230644939493485
 30
-0.00000000000018
 10
38.408784567915028
 20
-2.0590544436346283
 30
-0.00000000000018
 10
38.243074886191977
 20
-1.9230644939490387
 30
-0.0000000000001801
  0
SPLINE
  5
E5
100
AcDbEntity
  8
________1________1
370
              18
390
0
  6
Continuous
 62
               7
100
AcDbSpline
210
0.0
220
0.0
230
1.0
 70
               0
 71
               2
 72
               6
 73
               3
 74
               0
 42
0.0000001
 43
0.0000001
 12
0.9969138900574764
 22
-0.0785028395057769
 32
-0.0000000000000005
 13
-0.9958962576208228
 23
0.0905021770834264
 33
0.0000000000000005
 40
0.9643220790653788
 40
0.9643220790653788
 40
0.9643220790653788
 40
1.0
 40
1.0
 40
1.0
 10
24.59633729826907
 20
-1.9230644939490202
 30
-0.0000000000000117
 10
24.430627616544097
 20
-2.0590544436356444
 30
-0.0000000000000117
 10
24.241245123147884
 20
-2.2230644939493449
 30
-0.0000000000000117
  0
SPLINE
  5
E6
100
AcDbEntity
  8
________1________1
370
              18
390
0
  6
Continuous
 62
               7
100
AcDbSpline
210
0.0
220
0.0
230
1.0
 70
               0
 71
               3
 72
              15
 73
              11
 74
               0
 42
0.0000001
 43
0.0000001
 12
-1.0
 22
0.0
 32
0.0
 13
-0.0174034763361848
 23
0.9998485480368594
 33
0.0
 40
0.0
 40
0.0
 40
0.0
 40
0.0
 40
0.2246179903685621
 40
0.423879349704899
 40
0.5958705525006174
 40
0.7389432951192795
 40
0.851733362051504
 40
0.9331826550518784
 40
0.9825873882947491
 40
1.0
 40
1.0
 40
1.0
 40
1.0
 10
3.4575858485354054
 20
-7.4426844800348899
 30
0.0
 10
3.4509965678727674
 20
-7.4426844800348899
 30
0.0
 10
3.4385645948065537
 20
-7.4426634063344235
 30
0.0
 10
3.4210739148525597
 20
-7.4425671956418338
 30
0.0
 10
3.4060182940756256
 20
-7.4423855164866577
 30
0.0
 10
3.3933798832533064
 20
-7.4421911679307922
 30
0.0
 10
3.3837214214029707
 20
-7.4418007391775998
 30
0.0
 10
3.3760470475648852
 20
-7.4416905014962023
 30
0.0
 10
3.3726647645981309
 20
-7.4409252246424042
 30
0.0
 10
3.3697078613803804
 20
-7.4410276261968189
 30
0.0
 10
3.3696989715517027
 20
-7.4405168959194921
 30
0.0
  0
SPLINE
  5
E7
100
AcDbEntity
  8
________1________1
370
              18
390
0
  6
Continuous
 62
               7
100
AcDbSpline
210
0.0
220
0.0
230
1.0
 70
               0
 71
               3
 72
              15
 73
              11
 74
               0
 42
0.0000001
 43
0.0000001
 12
-0.9998477879010811
 22
-0.0174470922882484
 32
0.0
 13
-1.0
 23
0.0
 33
0.0
 40
0.0
 40
0.0
 40
0.0
 40
0.0
 40
0.1386217736366838
 40
0.275905323915584
 40
0.4105294689650429
 40
0.5411986541682705
 40
0.6666554407286108
 40
0.7856926327176044
 40
0.8971649297547472
 40
1.0
 40
1.0
 40
1.0
 40
1.0
 10
3.6696532801765258
 20
-7.4405169003891611
 30
0.0
 10
3.6598550956937785
 20
-7.4406878762426825
 30
0.0
 10
3.6403530217392515
 20
-7.4410115431988455
 30
0.0
 10
3.6113343998139769
 20
-7.4414431582479121
 30
0.0
 10
3.5828772056907425
 20
-7.4418159646738555
 30
0.0
 10
3.555255389784115
 20
-7.4421264125429811
 30
0.0
 10
3.528734858803027
 20
-7.4423715723479713
 30
0.0
 10
3.5035709149935244
 20
-7.4425491778820483
 30
0.0
 10
3.4800058038510358
 20
-7.4426576380805098
 30
0.0
 10
3.4648556327469358
 20
-7.4426844800348899
 30
0.0
 10
3.4575858485354054
 20
-7.4426844800348899
 30
0.0
  0
MTEXT
  5
E8
100
AcDbEntity
  8
___G
370
               5
390
0
  6
DOT
 62
               7
100
AcDbMText
 10
28.705565068261905
 20
-40.174218848892949
 30
0.0
 40
1.375
 41
11.0
 71
               1
 72
               1
  1
＊＊＊
  7
Style1
 73
               1
 44
1.0
  0
MTEXT
  5
E9
100
AcDbEntity
  8
___G
370
              18
390
0
  6
Continuous
 62
               7
100
AcDbMText
 10
19.705565068261905
 20
-30.621452145214533
 30
0.0
 40
1.6499999761581421
 41
44.0
 71
               1
 72
               1
  1
梨地仕上げ
  7
Style1
 73
               1
 44
1.0
  0
MTEXT
  5
EA
100
AcDbEntity
  8
___G
370
              18
390
0
  6
Continuous
 62
               7
100
AcDbMText
 10
47.705565068261905
 20
-27.746452145214533
 30
0.0
 40
1.8999999761581421
 41
20.0
 71
               1
 72
               1
  1
ホワイト・ブラック
  7
Style1
 73
               1
 44
1.0
  0
MTEXT
  5
EB
100
AcDbEntity
  8
___G
370
              18
390
0
  6
Continuous
 62
               7
100
AcDbMText
 10
19.705565068261905
 20
-38.049218848892949
 30
0.0
 40
1.375
 41
10.0
 71
               1
 72
               1
  1
2：1
  7
Style1
 73
               1
 44
1.0
  0
MTEXT
  5
EC
100
AcDbEntity
  8
___G
370
               5
390
0
  6
DOT
 62
               7
100
AcDbMText
 10
13.705565068261905
 20
-42.299218848892963
 30
0.0
 40
1.375
 41
11.000000000000014
 71
               1
 72
               1
  1
園原
  7
Style1
 73
               1
 44
1.0
  0
MTEXT
  5
ED
100
AcDbEntity
  8
___G
370
              18
390
0
  6
Continuous
 62
               7
100
AcDbMText
 10
9.7055650682618904
 20
-38.049218848892949
 30
0.0
 40
1.375
 41
10.000000000000014
 71
               1
 72
               1
  1
H28.1
  7
Style1
 73
               1
 44
1.0
  0
MTEXT
  5
EE
100
AcDbEntity
  8
___G
370
               5
390
0
  6
DOT
 62
               7
100
AcDbMText
 10
28.705565068261905
 20
-42.299218848892949
 30
0.0
 40
1.375
 41
11.0
 71
               1
 72
               1
  1
＊＊＊
  7
Style1
 73
               1
 44
1.0
  0
MTEXT
  5
EF
100
AcDbEntity
  8
___G
370
               5
390
0
  6
DOT
 62
               7
100
AcDbMText
 10
13.705565068261905
 20
-40.174218848892963
 30
0.0
 40
1.375
 41
11.0
 71
               1
 72
               1
  1
園原
  7
Style1
 73
               1
 44
1.0
  0
MTEXT
  5
F0
100
AcDbEntity
  8
___G
370
              18
390
0
  6
Continuous
 62
               7
100
AcDbMText
 10
19.705565068261905
 20
-33.371452145214533
 30
0.0
 40
1.6499999761581421
 41
48.0
 71
               1
 72
               1
  1
指定無き公差はJIS 0408-Bによること
  7
Style1
 73
               1
 44
1.0
  0
MTEXT
  5
F1
100
AcDbEntity
  8
___G
370
               5
390
0
  6
DOT
 62
               7
100
AcDbMText
 10
43.650814795116005
 20
-36.813952145214529
 30
0.0
 40
1.7638888359069824
 41
23.554750273145899
 71
               1
 72
               1
  1
リーフ棚柱
  7
Style1
 73
               1
 44
1.0
  0
ARC
  5
F2
100
AcDbEntity
  8
________1________1
370
              18
390
0
  6
Continuous
 62
               7
100
AcDbCircle
 10
-12911.915876383891
 20
-269.83147867539645
 30
0.0
 40
12952.617880202633
100
AcDbArc
 50
1.1652648925522497
 51
1.1785381397861145
  0
LINE
  5
F3
100
AcDbEntity
  8
________1________1
370
              18
390
0
  6
Continuous
 62
               7
100
AcDbLine
 10
38.023349646600487
 20
-6.4230644939494859
 30
0.0
 11
38.243074886191927
 21
-6.4230644939494859
 31
0.0
  0
LINE
  5
F4
100
AcDbEntity
  8
________1________1
370
              18
390
0
  6
Continuous
 62
               7
100
AcDbLine
 10
24.241245123146363
 20
-6.1230644939517198
 30
0.0
 11
23.919706092229156
 21
-6.1230644939517198
 31
0.0
  0
LINE
  5
F5
100
AcDbEntity
  8
________1________1
370
              18
390
0
  6
Continuous
 62
               7
100
AcDbLine
 10
24.21970609223775
 20
-6.4230644939487611
 30
0.0
 11
24.596337298269169
 21
-6.4230644939487611
 31
0.0
  0
LINE
  5
F6
100
AcDbEntity
  8
________1________1
370
              18
390
0
  6
Continuous
 62
               7
100
AcDbLine
 10
23.919706092229156
 20
-2.2230644939498383
 30
0.0
 11
24.241245123146363
 21
-2.2230644939498383
 31
0.0
  0
LINE
  5
F7
100
AcDbEntity
  8
________1________1
370
              18
390
0
  6
Continuous
 62
               7
100
AcDbLine
 10
25.106172356416003
 20
-6.4230644939487611
 30
0.0
 11
26.319706092228607
 21
-6.4230644939487611
 31
0.0
  0
LINE
  5
F8
100
AcDbEntity
  8
________1________1
370
              18
390
0
  6
Continuous
 62
               7
100
AcDbLine
 10
38.023349312893409
 20
-6.4230645773959516
 30
0.0
 11
37.723287762156978
 21
-6.4230645773959516
 31
0.0
  0
LINE
  5
F9
100
AcDbEntity
  8
________1________1
370
              18
390
0
  6
Continuous
 62
               7
100
AcDbLine
 10
36.519706092232063
 20
-6.4230644939487611
 30
0.0
 11
37.723300865628907
 21
-6.4230644939487611
 31
0.0
  0
LINE
  5
FA
100
AcDbEntity
  8
________1________1
370
              18
390
0
  6
Continuous
 62
               7
100
AcDbLine
 10
23.919706092230506
 20
-2.2230644984198342
 30
0.0
 11
23.919706092230506
 21
-6.1230645312023491
 31
0.0
  0
LINE
  5
FB
100
AcDbEntity
  8
________1________1
370
              18
390
0
  6
Continuous
 62
               7
100
AcDbLine
 10
38.91970609223052
 20
-6.1230645312023491
 30
0.0
 11
38.91970609223052
 21
-2.2230644984198342
 31
0.0
  0
LINE
  5
FC
100
AcDbEntity
  8
________1________1
370
              18
390
0
  6
Continuous
 62
               7
100
AcDbLine
 10
27.122145679663497
 20
-6.4230644939494859
 30
0.0
 11
26.319706092230327
 21
-6.4230644939494859
 31
0.0
  0
LINE
  5
FD
100
AcDbEntity
  8
________1________1
370
              18
390
0
  6
Continuous
 62
               7
100
AcDbLine
 10
23.919706006548687
 20
-6.1230644082677408
 30
0.0
 11
24.219705958119953
 21
-6.4230643598389356
 31
0.0
  0
LINE
  5
FE
100
AcDbEntity
  8
________1________1
370
              18
390
0
  6
Continuous
 62
               7
100
AcDbLine
 10
38.619706226340902
 20
-6.4230643598391062
 30
0.0
 11
38.919706177912154
 21
-6.1230644082679255
 31
0.0
  0
LINE
  5
FF
100
AcDbEntity
  8
________1________1
370
              18
390
0
  6
Continuous
 62
               7
100
AcDbLine
 10
24.596337298269113
 20
-1.9230644939494432
 30
0.0
 11
38.243074886191927
 21
-1.9230644939494432
 31
0.0
  0
LINE
  5
100
100
AcDbEntity
  8
________1________1
370
              18
390
0
  6
Continuous
 62
               7
100
AcDbLine
 10
24.596337298269169
 20
-1.9230644939469421
 30
0.0
 11
24.21970609223775
 21
-1.9230644939469421
 31
0.0
  0
LINE
  5
101
100
AcDbEntity
  8
________1________1
370
              18
390
0
  6
Continuous
 62
               7
100
AcDbLine
 10
4.4995740790280294
 20
-1.9230644939494432
 30
0.0
 11
4.4995740790280294
 21
-2.2230644939522399
 31
0.0
  0
LINE
  5
102
100
AcDbEntity
  8
________1________1
370
              18
390
0
  6
Continuous
 62
               7
100
AcDbLine
 10
2.0995740790269153
 20
-6.1230644939553436
 30
0.0
 11
4.4995740790263241
 21
-6.1230644939553436
 31
0.0
  0
LINE
  5
103
100
AcDbEntity
  8
________1________1
370
              18
390
0
  6
Continuous
 62
               7
100
AcDbLine
 10
27.069782256252459
 20
-3.4230644939494432
 30
0.0
 11
27.139907148852849
 21
-7.4405169003866014
 31
0.0
  0
ARC
  5
104
100
AcDbEntity
  8
________1________1
370
              18
390
0
  6
Continuous
 62
               7
100
AcDbCircle
 10
34.699657340451772
 20
-7.423064493949628
 30
0.0
 40
1.0000000000000053
100
AcDbArc
 50
-45.499999999999048
 51
-0.9999999999814093
  0
LINE
  5
105
100
AcDbEntity
  8
________1________1
370
              18
390
0
  6
Continuous
 62
               7
100
AcDbLine
 10
3.3696989716295782
 20
-7.4405169003892464
 30
0.0
 11
3.3519392331992783
 21
-6.4230621671421524
 31
0.0
  0
LINE
  5
106
100
AcDbEntity
  8
________1________1
370
              18
390
0
  6
Continuous
 62
               7
100
AcDbLine
 10
4.4995740790263241
 20
-7.4405169003912643
 30
0.0
 11
4.4995740790263241
 21
-8.136314943108875
 31
0.0
  0
LINE
  5
107
100
AcDbEntity
  8
________1________1
370
              18
390
0
  6
Continuous
 62
               7
100
AcDbLine
 10
35.699505035608176
 20
-7.4405169003866014
 30
0.0
 11
35.769629928208552
 21
-3.4230644939494432
 31
0.0
  0
CIRCLE
  5
108
100
AcDbEntity
  8
________1________1
370
              18
390
0
  6
Continuous
 62
               7
100
AcDbCircle
 10
31.41970609223052
 20
-6.9230644939494006
 30
-0.0000000000000019
 40
1.0535653752852738
210
-0.0000000000000001
220
-0.0
230
1.0
  0
LINE
  5
109
100
AcDbEntity
  8
________1________1
370
              18
390
0
  6
Continuous
 62
               7
100
AcDbLine
 10
4.49957407902928
 20
-7.4405169003891043
 30
0.0
 11
4.49957407902928
 21
-6.4230626578056196
 31
0.0
  0
LINE
  5
10A
100
AcDbEntity
  8
________1________1
370
              18
390
0
  6
Continuous
 62
               7
100
AcDbLine
 10
3.6518935459208066
 20
-6.4230624063027371
 30
0.0
 11
3.6696532801765258
 21
-7.4405169003891043
 31
0.0
  0
MTEXT
  5
10B
100
AcDbEntity
  8
___G
370
               5
390
0
  6
DOT
 62
               7
100
AcDbMText
 10
43.650814795116005
 20
-40.244716644573522
 30
0.0
 40
1.7638888359069824
 41
23.554750273145899
 71
               1
 72
               1
  1
エンドキャップ\PLA-322・LA-323
  7
Style1
 73
               1
 44
1.0
  0
ARC
  5
10C
100
AcDbEntity
  8
________1________1
370
              18
390
0
  6
Continuous
 62
               7
100
AcDbCircle
 10
28.139754844009239
 20
-7.423064493949628
 30
0.0
 40
0.9999999999999955
100
AcDbArc
 50
-134.5000000000004
 51
-90.0
  0
ARC
  5
10D
100
AcDbEntity
  8
________1________1
370
              18
390
0
  6
Continuous
 62
               7
100
AcDbCircle
 10
3.6816585826050456
 20
-8.1230644939519614
 30
0.0
 40
0.3000000000000235
210
0.0
220
-0.0
230
1.0
100
AcDbArc
 50
-178.99999999999997
 51
-134.500000000006
  0
LINE
  5
10E
100
AcDbEntity
  8
________1________1
370
              18
390
0
  6
Continuous
 62
               7
100
AcDbLine
 10
4.4995740790263241
 20
-8.136314943108875
 30
0.0
 11
4.4995740790263241
 21
-8.4230644939508075
 31
0.0
  0
LINE
  5
10F
100
AcDbEntity
  8
________1________1
370
              18
390
0
  6
Continuous
 62
               7
100
AcDbLine
 10
3.6816585826033403
 20
-8.4230644939565913
 30
0.0
 11
3.6781549201836512
 21
-8.1363149431146589
 31
0.0
  0
LINE
  5
110
100
AcDbEntity
  8
________1________1
370
              18
390
0
  6
Continuous
 62
               7
100
AcDbLine
 10
4.49957407902928
 20
-8.4230644939519017
 30
0.0
 11
3.6816585826050456
 21
-8.4230644939519017
 31
0.0
  0
ARC
  5
111
100
AcDbEntity
  8
________1________1
370
              18
390
0
  6
Continuous
 62
               7
100
AcDbCircle
 10
34.699657340451772
 20
-7.423064493949628
 30
0.0
 40
0.9999999999999858
100
AcDbArc
 50
-90.0
 51
-45.500000000000206
  0
LINE
  5
112
100
AcDbEntity
  8
________1________1
370
              18
390
0
  6
Continuous
 62
               7
100
AcDbLine
 10
34.699657340451786
 20
-8.4230644939494006
 30
0.0
 11
28.139754844009239
 21
-8.4230644939494006
 31
0.0
  0
ARC
  5
113
100
AcDbEntity
  8
________1________1
370
              18
390
0
  6
Continuous
 62
               7
100
AcDbCircle
 10
3.6816585826050456
 20
-8.1230644939519614
 30
0.0
 40
0.2999999999999972
210
-0.0
220
0.0
230
1.0
100
AcDbArc
 50
-134.50000000000406
 51
-90.0
  0
LINE
  5
114
100
AcDbEntity
  8
________1________1
370
              18
390
0
  6
Continuous
 62
               7
100
AcDbLine
 10
3.6783681632066916
 20
-8.1537673495458627
 30
0.0
 11
3.6698665231979746
 21
-7.4579693068282378
 31
0.0
  0
LINE
  5
115
100
AcDbEntity
  8
________1________1
370
              18
390
0
  6
Continuous
 62
               7
100
AcDbLine
 10
38.243074886191501
 20
-6.4230644939487611
 30
0.0
 11
38.61970609222292
 21
-6.4230644939487611
 31
0.0
  0
LINE
  5
116
100
AcDbEntity
  8
________1________1
370
              18
390
0
  6
Continuous
 62
               7
100
AcDbLine
 10
38.919706092231515
 20
-6.1230644939517198
 30
0.0
 11
38.598167061314307
 21
-6.1230644939517198
 31
0.0
  0
LINE
  5
117
100
AcDbEntity
  8
________1________1
370
              18
390
0
  6
Continuous
 62
               7
100
AcDbLine
 10
35.769629928208552
 20
-3.4230644939494432
 30
0.0
 11
37.961980468586596
 21
-3.4230644939494432
 31
0.0
  0
LINE
  5
118
100
AcDbEntity
  8
________1________1
370
              18
390
0
  6
Continuous
 62
               7
100
AcDbLine
 10
24.877431715874273
 20
-3.4230644939494432
 30
0.0
 11
27.069782256252459
 21
-3.4230644939494432
 31
0.0
  0
LINE
  5
119
100
AcDbEntity
  8
________1________1
370
              18
390
0
  6
Continuous
 62
               7
100
AcDbLine
 10
38.598167061313184
 20
-6.1230644939495598
 30
0.0
 11
38.598167061313184
 21
-2.2230644939493409
 31
0.0
  0
LINE
  5
11A
100
AcDbEntity
  8
________1________1
370
              18
390
0
  6
Continuous
 62
               7
100
AcDbLine
 10
25.116124422303692
 20
-6.4230645773959516
 30
0.0
 11
24.816062871567262
 21
-6.4230645773959516
 31
0.0
  0
LINE
  5
11B
100
AcDbEntity
  8
________1________1
370
              18
390
0
  6
Continuous
 62
               7
100
AcDbLine
 10
36.519706092230329
 20
-6.4230644939494859
 30
0.0
 11
35.717262894213484
 21
-6.4230644939494859
 31
0.0
  0
LINE
  5
11C
100
AcDbEntity
  8
________1________1
370
              18
390
0
  6
Continuous
 62
               7
100
AcDbLine
 10
38.61970609222292
 20
-1.9230644939469421
 30
0.0
 11
38.243074886191501
 21
-1.9230644939469421
 31
0.0
  0
LINE
  5
11D
100
AcDbEntity
  8
________1________1
370
              18
390
0
  6
Continuous
 62
               7
100
AcDbLine
 10
24.241245123147856
 20
-2.2230644939493409
 30
0.0
 11
24.241245123147856
 21
-6.1230644939495598
 31
0.0
  0
LINE
  5
11E
100
AcDbEntity
  8
________1________1
370
              18
390
0
  6
Continuous
 62
               7
100
AcDbLine
 10
24.596337298269113
 20
-6.4230644939494859
 30
0.0
 11
24.816062537860539
 21
-6.4230644939494859
 31
0.0
  0
ARC
  5
11F
100
AcDbEntity
  8
________1________1
370
              18
390
0
  6
Continuous
 62
               7
100
AcDbCircle
 10
12976.815208957409
 20
-269.87361721575422
 30
0.0
 40
12954.678231534057
100
AcDbArc
 50
178.82146291570152
 51
178.8347340519426
  0
LINE
  5
120
100
AcDbEntity
  8
________1________1
370
              18
390
0
  6
Continuous
 62
               7
100
AcDbLine
 10
24.219705937258333
 20
-1.9230646489216419
 30
0.0
 11
23.919705985687081
 21
-2.2230646004928367
 31
0.0
  0
LINE
  5
121
100
AcDbEntity
  8
________1________1
370
              18
390
0
  6
Continuous
 62
               7
100
AcDbLine
 10
4.49957407902928
 20
-6.1230644939520609
 30
0.0
 11
4.49957407902928
 21
-2.223064493951842
 31
0.0
  0
LINE
  5
122
100
AcDbEntity
  8
________1________1
370
              18
390
0
  6
Continuous
 62
               7
100
AcDbLine
 10
4.4995740790263241
 20
-2.2230644939522399
 30
0.0
 11
2.0995740790269153
 21
-2.2230644939522399
 31
0.0
  0
LINE
  5
123
100
AcDbEntity
  8
________1________1
370
              18
390
0
  6
Continuous
 62
               7
100
AcDbLine
 10
38.598167061314307
 20
-2.2230644939497388
 30
0.0
 11
38.919706092231515
 21
-2.2230644939497388
 31
0.0
  0
ARC
  5
124
100
AcDbEntity
  8
________1________1
370
              18
390
0
  6
Continuous
 62
               7
100
AcDbCircle
 10
-36.003149446419791
 20
-7.4230644939546728
 30
0.0
 40
0.9999999999999516
100
AcDbArc
 50
-179.00000000001529
 51
-134.49999999999864
  0
LINE
  5
125
100
AcDbEntity
  8
________1________1
370
              18
390
0
  6
Continuous
 62
               7
100
AcDbLine
 10
-36.703042833029194
 20
-7.4405169003917884
 30
0.0
 11
-36.720802503320606
 21
-6.4230660708266676
 31
0.0
  0
LINE
  5
126
100
AcDbEntity
  8
________1________1
370
              18
390
0
  6
Continuous
 62
               7
100
AcDbLine
 10
-29.443246949977162
 20
-8.1283002158856341
 30
0.0
 11
-36.003149446419791
 21
-8.1283002158856341
 31
0.0
  0
ARC
  5
127
100
AcDbEntity
  8
________1________1
370
              18
390
0
  6
Continuous
 62
               7
100
AcDbCircle
 10
-29.443246949977162
 20
-7.4283002158858018
 30
0.0
 40
0.7000000000000028
100
AcDbArc
 50
-90.000000000006978
 51
-0.9999999999989624
  0
SPLINE
  5
128
100
AcDbEntity
  8
________1________1
370
              18
390
0
  6
Continuous
 62
               7
100
AcDbSpline
210
0.0
220
0.0
230
1.0
 70
               0
 71
               3
 72
              15
 73
              11
 74
               0
 42
0.0000001
 43
0.0000001
 12
1.0
 22
0.0
 32
0.0
 13
-1.0
 23
0.0
 33
0.0
 40
0.0
 40
0.0
 40
0.0
 40
0.0
 40
0.107388097017997
 40
0.2073389101767486
 40
0.3221052668445079
 40
0.4739399943885705
 40
0.6702705393001579
 40
0.8592228245620787
 40
0.9740973922802051
 40
1.0
 40
1.0
 40
1.0
 40
1.0
 10
-25.804544850251045
 20
-1.9230644939544455
 30
0.0
 10
-25.793923515880646
 20
-1.9230644939544455
 30
0.0
 10
-25.773405740723842
 20
-1.9230644939544455
 30
0.0
 10
-25.741595136209451
 20
-1.9230644939545449
 30
0.0
 10
-25.705121880946262
 20
-1.9230644939544455
 30
0.0
 10
-25.660558051760557
 20
-1.9230644939544455
 30
0.0
 10
-25.601364129647163
 20
-1.9230644939544455
 30
0.0
 10
-25.571801888128544
 20
-1.9230644939544455
 30
0.0
 10
-25.50229506117476
 20
-1.9230644939544455
 30
0.0
 10
-25.520636273139456
 20
-1.9230644939544455
 30
0.0
 10
-25.523198198206568
 20
-1.9230644939544455
 30
0.0
  0
SPLINE
  5
129
100
AcDbEntity
  8
________1________1
370
              18
390
0
  6
Continuous
 62
               7
100
AcDbSpline
210
0.0
220
0.0
230
1.0
 70
               0
 71
               3
 72
              15
 73
              11
 74
               0
 42
0.0000001
 43
0.0000001
 12
-1.0
 22
0.0
 32
0.0
 13
1.0
 23
0.0
 33
0.0
 40
0.0
 40
0.0
 40
0.0
 40
0.0
 40
0.0259026077197874
 40
0.140777175437881
 40
0.3297294606998431
 40
0.5260600056114697
 40
0.6778947331556805
 40
0.7926610898232153
 40
0.8926119029821297
 40
1.0
 40
1.0
 40
1.0
 40
1.0
 10
-39.923198198190271
 20
-1.9230644939544455
 30
0.0
 10
-39.925760123257355
 20
-1.9230644939544455
 30
0.0
 10
-39.944101335222108
 20
-1.9230644939544455
 30
0.0
 10
-39.87459450826838
 20
-1.9230644939544455
 30
0.0
 10
-39.84503226674979
 20
-1.9230644939544455
 30
0.0
 10
-39.785838344636254
 20
-1.9230644939544455
 30
0.0
 10
-39.741274515450577
 20
-1.9230644939544455
 30
0.0
 10
-39.704801260187359
 20
-1.9230644939544455
 30
0.0
 10
-39.672990655672997
 20
-1.9230644939544455
 30
0.0
 10
-39.652472880516193
 20
-1.9230644939544455
 30
0.0
 10
-39.641851546145794
 20
-1.9230644939544455
 30
0.0
  0
SPLINE
  5
12A
100
AcDbEntity
  8
________1________1
370
              18
390
0
  6
Continuous
 62
               7
100
AcDbSpline
210
0.0
220
0.0
230
1.0
 70
               0
 71
               3
 72
              15
 73
              11
 74
               0
 42
0.0000001
 43
0.0000001
 12
-1.0
 22
0.0
 32
0.0
 13
1.0
 23
0.0
 33
0.0
 40
0.0
 40
0.0
 40
0.0
 40
0.0
 40
0.1073880970178701
 40
0.2073389101767847
 40
0.3221052668443196
 40
0.47393999438853
 40
0.6702705393001569
 40
0.8592228245621191
 40
0.9740973922802126
 40
1.0
 40
1.0
 40
1.0
 40
1.0
 10
-39.641851546145794
 20
-6.4230644939545307
 30
0.0
 10
-39.652472880516193
 20
-6.4230644939545307
 30
0.0
 10
-39.672990655672997
 20
-6.4230644939545449
 30
0.0
 10
-39.704801260187359
 20
-6.4230644939545307
 30
0.0
 10
-39.741274515450577
 20
-6.4230644939545449
 30
0.0
 10
-39.785838344636254
 20
-6.4230644939545307
 30
0.0
 10
-39.845032266749676
 20
-6.4230644939545307
 30
0.0
 10
-39.87459450826838
 20
-6.4230644939545307
 30
0.0
 10
-39.944101335222165
 20
-6.4230644939545165
 30
0.0
 10
-39.925760123257355
 20
-6.4230644939545307
 30
0.0
 10
-39.923198198190271
 20
-6.4230644939545307
 30
0.0
  0
SPLINE
  5
12B
100
AcDbEntity
  8
________1________1
370
              18
390
0
  6
Continuous
 62
               7
100
AcDbSpline
210
0.0
220
0.0
230
1.0
 70
               0
 71
               3
 72
              15
 73
              11
 74
               0
 42
0.0000001
 43
0.0000001
 12
1.0
 22
0.0
 32
0.0
 13
-0.9999999999999999
 23
0.0
 33
0.0
 40
0.0
 40
0.0
 40
0.0
 40
0.0
 40
0.0259026077197949
 40
0.1407771754379215
 40
0.3297294606998419
 40
0.5260600056114296
 40
0.6778947331554922
 40
0.7926610898232516
 40
0.8926119029820031
 40
1.0
 40
1.0
 40
1.0
 40
1.0
 10
-25.523198198206568
 20
-6.4230644939545307
 30
0.0
 10
-25.520636273139456
 20
-6.4230644939545307
 30
0.0
 10
-25.502295061174646
 20
-6.4230644939545307
 30
0.0
 10
-25.571801888128544
 20
-6.4230644939545307
 30
0.0
 10
-25.601364129647163
 20
-6.4230644939545449
 30
0.0
 10
-25.660558051760557
 20
-6.4230644939545165
 30
0.0
 10
-25.705121880946262
 20
-6.4230644939545165
 30
0.0
 10
-25.741595136209451
 20
-6.4230644939545734
 30
0.0
 10
-25.773405740723842
 20
-6.4230644939545023
 30
0.0
 10
-25.793923515880646
 20
-6.4230644939545307
 30
0.0
 10
-25.804544850251045
 20
-6.4230644939545307
 30
0.0
  0
DIMENSION
  5
134
100
AcDbEntity
  8
寸法線_1
370
               5
390
0
  6
Continuous
 62
               7
100
AcDbDimension
  2
*D0
 10
-37.823198198198462
 20
21.002430555555573
 30
0.0
 11
-54.003604378284095
 21
13.931200611448698
 31
0.0
 70
             132
 71
               5
 72
               1
 41
1.0
 42
0.0
  3
DS1
100
AcDbRadialDimension
 15
-39.836007561267493
 25
19.695296871519499
 35
0.0
 40
0.0
  0
DIMENSION
  5
13E
100
AcDbEntity
  8
寸法線_1
370
               5
390
0
  6
Continuous
 62
               7
100
AcDbDimension
  2
*D1
 10
-27.62319819819847
 20
21.00243055555546
 30
0.0
 11
-11.087635407216425
 21
14.510764047834527
 31
0.0
 70
             132
 71
               5
 72
               1
 41
1.0
 42
0.0
  3
DS1
100
AcDbRadialDimension
 15
-25.544737229115839
 25
19.802430555555475
 35
0.0
 40
0.0
  0
LINE
  5
13F
100
AcDbEntity
  8
________1________1
370
              18
390
0
  6
Continuous
 62
               7
100
AcDbLine
 10
-37.823198198198149
 20
18.902430555554872
 30
0.0
 11
-27.623198198198157
 21
18.902430555556236
 31
0.0
  0
ARC
  5
140
100
AcDbEntity
  8
________1________1
370
              18
390
0
  6
Continuous
 62
               7
100
AcDbCircle
 10
-27.62319819819847
 20
21.00243055555546
 30
0.0
 40
2.3999999999999737
100
AcDbArc
 50
-90.0
 51
-29.999999999995286
  0
ARC
  5
141
100
AcDbEntity
  8
________1________1
370
              18
390
0
  6
Continuous
 62
               7
100
AcDbCircle
 10
-27.62319819819847
 20
21.00243055555546
 30
0.0
 40
2.0999999999999779
100
AcDbArc
 50
-29.999999999995225
 51
34.84990457904788
  0
LINE
  5
142
100
AcDbEntity
  8
________1________1
370
              18
390
0
  6
Continuous
 62
               7
100
AcDbLine
 10
-27.623198198198157
 20
18.602430555556168
 30
0.0
 11
-37.823198198198149
 21
18.602430555554918
 31
0.0
  0
ARC
  5
143
100
AcDbEntity
  8
________1________1
370
              18
390
0
  6
Continuous
 62
               7
100
AcDbCircle
 10
-27.62319819819847
 20
21.00243055555546
 30
0.0
 40
2.3999999999999959
100
AcDbArc
 50
-29.999999999994948
 51
30.00000000000108
  0
LINE
  5
144
100
AcDbEntity
  8
________1________1
370
              18
390
0
  6
Continuous
 62
               7
100
AcDbLine
 10
-25.544737229114265
 20
22.202430555552208
 30
0.0
 11
-25.899829404237057
 21
22.202430555552208
 31
0.0
  0
LINE
  5
145
100
AcDbEntity
  8
________1________1
370
              18
390
0
  6
Continuous
 62
               7
100
AcDbLine
 10
-39.546566992159477
 20
22.202430555553573
 30
0.0
 11
-39.901659167282155
 21
22.202430555553573
 31
0.0
  0
ARC
  5
146
100
AcDbEntity
  8
________1________1
370
              18
390
0
  6
Continuous
 62
               7
100
AcDbCircle
 10
-27.62319819819847
 20
21.00243055555546
 30
0.0
 40
2.0999999999999055
100
AcDbArc
 50
-90.0
 51
-29.999999999995225
  0
ARC
  5
147
100
AcDbEntity
  8
________1________1
370
              18
390
0
  6
Continuous
 62
               7
100
AcDbCircle
 10
-37.823198198198462
 20
21.002430555555573
 30
0.0
 40
2.1000000000000254
100
AcDbArc
 50
-149.9999999999948
 51
-90.0
  0
ARC
  5
148
100
AcDbEntity
  8
________1________1
370
              18
390
0
  6
Continuous
 62
               7
100
AcDbCircle
 10
-37.823198198198462
 20
21.002430555555573
 30
0.0
 40
2.3999999999999559
100
AcDbArc
 50
150.00000000000128
 51
-149.99999999999562
  0
ARC
  5
149
100
AcDbEntity
  8
________1________1
370
              18
390
0
  6
Continuous
 62
               7
100
AcDbCircle
 10
-37.823198198198462
 20
21.002430555555573
 30
0.0
 40
2.400000000000019
100
AcDbArc
 50
-149.99999999999596
 51
-90.0
  0
ARC
  5
14A
100
AcDbEntity
  8
________1________1
370
              18
390
0
  6
Continuous
 62
               7
100
AcDbCircle
 10
-37.823198198198462
 20
21.002430555555573
 30
0.0
 40
2.099999999999941
100
AcDbArc
 50
145.15009542095467
 51
-149.9999999999948
  0
LINE
  5
14B
100
AcDbEntity
  8
________1________1
370
              18
390
0
  6
Continuous
 62
               7
100
AcDbLine
 10
-25.899829404237057
 20
22.202430555555505
 30
0.0
 11
-39.546566992159875
 21
22.202430555555505
 31
0.0
  0
ARC
  5
14C
100
AcDbEntity
  8
________1________1
370
              18
390
0
  6
Continuous
 62
               7
100
AcDbCircle
 10
-32.723198198198475
 20
20.502430555555573
 30
0.0
 40
1.9999999999999267
100
AcDbArc
 50
58.211670163303793
 51
121.78832983668543
  0
MTEXT
  5
14D
100
AcDbEntity
  8
___G
370
              18
390
0
  6
Continuous
 62
               7
100
AcDbMText
 10
19.705565068261905
 20
-27.814507727261052
 30
0.0
 40
1.7638888359069824
 41
19.0
 71
               1
 72
               1
  1
エラストマー
  7
Style1
 73
               1
 44
1.0
  0
LINE
  5
14E
100
AcDbEntity
  8
________1________1
370
              18
390
0
  6
Continuous
 62
               7
100
AcDbLine
 10
-25.544737229114258
 20
-6.1230644939571626
 30
0.0
 11
-27.623198198196558
 21
-6.1230644939571626
 31
0.0
  0
LINE
  5
14F
100
AcDbEntity
  8
________1________1
370
              18
390
0
  6
Continuous
 62
               7
100
AcDbLine
 10
-27.623198198196558
 20
-6.4230644939538202
 30
0.0
 11
-25.804544850251045
 21
-6.4230644939538202
 31
0.0
  0
LINE
  5
150
100
AcDbEntity
  8
________1________1
370
              18
390
0
  6
Continuous
 62
               7
100
AcDbLine
 10
-39.923198353170498
 20
-1.9230646489264451
 30
0.0
 11
-40.223198304741736
 21
-2.22306460049764
 31
0.0
  0
LINE
  5
151
100
AcDbEntity
  8
________1________1
370
              18
390
0
  6
Continuous
 62
               7
100
AcDbLine
 10
-40.223198198198524
 20
-2.2230644984248507
 30
0.0
 11
-40.223198198198524
 21
-6.1230645312073939
 31
0.0
  0
LINE
  5
152
100
AcDbEntity
  8
________1________1
370
              18
390
0
  6
Continuous
 62
               7
100
AcDbLine
 10
-39.901659167282268
 20
-2.223064493954741
 30
0.0
 11
-37.823198198199968
 21
-2.223064493954741
 31
0.0
  0
LINE
  5
153
100
AcDbEntity
  8
________1________1
370
              18
390
0
  6
Continuous
 62
               7
100
AcDbLine
 10
-37.823198198198206
 20
-1.9230644939544455
 30
0.0
 11
-27.62319819819815
 21
-1.9230644939544455
 31
0.0
  0
LINE
  5
154
100
AcDbEntity
  8
________1________1
370
              18
390
0
  6
Continuous
 62
               7
100
AcDbLine
 10
-39.641851546145567
 20
-6.4230644939538202
 30
0.0
 11
-37.823198198199968
 21
-6.4230644939538202
 31
0.0
  0
LINE
  5
155
100
AcDbEntity
  8
________1________1
370
              18
390
0
  6
Continuous
 62
               7
100
AcDbLine
 10
-37.823198198199968
 20
-6.123064493956381
 30
0.0
 11
-39.901659167282268
 21
-6.123064493956381
 31
0.0
  0
LINE
  5
156
100
AcDbEntity
  8
________1________1
370
              18
390
0
  6
Continuous
 62
               7
100
AcDbLine
 10
-28.725593893076347
 20
-6.4230660708268239
 30
0.0
 11
-28.743353563367645
 21
-7.4405169003919447
 31
0.0
  0
LINE
  5
157
100
AcDbEntity
  8
________1________1
370
              18
390
0
  6
Continuous
 62
               7
100
AcDbLine
 10
-28.443399254820758
 20
-7.4405169003919447
 30
0.0
 11
-28.425639588365254
 21
-6.4230662905802127
 31
0.0
  0
ARC
  5
158
100
AcDbEntity
  8
________1________1
370
              18
390
0
  6
Continuous
 62
               7
100
AcDbCircle
 10
-29.443246949977162
 20
-7.4230644939546728
 30
0.0
 40
1.0000000000000058
100
AcDbArc
 50
-45.50000000000135
 51
-0.9999999999993194
  0
LINE
  5
159
100
AcDbEntity
  8
________1________1
370
              18
390
0
  6
Continuous
 62
               7
100
AcDbLine
 10
-37.823198198199968
 20
-1.9230644939519443
 30
0.0
 11
-39.641851546145567
 21
-1.9230644939519443
 31
0.0
  0
LINE
  5
15A
100
AcDbEntity
  8
________1________1
370
              18
390
0
  6
Continuous
 62
               7
100
AcDbLine
 10
-40.223198198199491
 20
-2.223064493954741
 30
0.0
 11
-39.901659167282268
 21
-2.223064493954741
 31
0.0
  0
LINE
  5
15B
100
AcDbEntity
  8
________1________1
370
              18
390
0
  6
Continuous
 62
               7
100
AcDbLine
 10
-27.62319819819815
 20
-2.2230644939540447
 30
0.0
 11
-37.823198198198206
 21
-2.2230644939540447
 31
0.0
  0
LINE
  5
15C
100
AcDbEntity
  8
________1________1
370
              18
390
0
  6
Continuous
 62
               7
100
AcDbLine
 10
-25.544737229114258
 20
-2.223064493954741
 30
0.0
 11
-25.223198198197064
 21
-2.223064493954741
 31
0.0
  0
LINE
  5
15D
100
AcDbEntity
  8
________1________1
370
              18
390
0
  6
Continuous
 62
               7
100
AcDbLine
 10
-25.223198198197064
 20
-6.1230644939567647
 30
0.0
 11
-25.544737229114258
 21
-6.1230644939567647
 31
0.0
  0
LINE
  5
15E
100
AcDbEntity
  8
________1________1
370
              18
390
0
  6
Continuous
 62
               7
100
AcDbLine
 10
-39.901659167282268
 20
-6.1230644939567647
 30
0.0
 11
-40.223198198199491
 21
-6.1230644939567647
 31
0.0
  0
LINE
  5
15F
100
AcDbEntity
  8
________1________1
370
              18
390
0
  6
Continuous
 62
               7
100
AcDbLine
 10
-27.623198198196558
 20
-2.223064493954741
 30
0.0
 11
-25.544737229114258
 21
-2.223064493954741
 31
0.0
  0
LINE
  5
160
100
AcDbEntity
  8
________1________1
370
              18
390
0
  6
Continuous
 62
               7
100
AcDbLine
 10
-25.804544850251045
 20
-1.9230644939519443
 30
0.0
 11
-27.623198198196558
 21
-1.9230644939519443
 31
0.0
  0
LINE
  5
161
100
AcDbEntity
  8
________1________1
370
              18
390
0
  6
Continuous
 62
               7
100
AcDbLine
 10
-25.223198091655046
 20
-2.2230646004978531
 30
0.0
 11
-25.523198043226255
 21
-1.9230646489266441
 31
0.0
  0
LINE
  5
162
100
AcDbEntity
  8
________1________1
370
              18
390
0
  6
Continuous
 62
               7
100
AcDbLine
 10
-37.823198198198206
 20
-6.1230644939546046
 30
0.0
 11
-27.62319819819815
 21
-6.1230644939546046
 31
0.0
  0
LINE
  5
163
100
AcDbEntity
  8
________1________1
370
              18
390
0
  6
Continuous
 62
               7
100
AcDbLine
 10
-27.62319819819815
 20
-6.4230644939545307
 30
0.0
 11
-37.823198198198206
 21
-6.4230644939545307
 31
0.0
  0
LINE
  5
164
100
AcDbEntity
  8
________1________1
370
              18
390
0
  6
Continuous
 62
               7
100
AcDbLine
 10
-25.223198198198457
 20
-6.1230645312073939
 30
0.0
 11
-25.223198198198457
 21
-2.2230644984248507
 31
0.0
  0
ARC
  5
165
100
AcDbEntity
  8
________1________1
370
              18
390
0
  6
Continuous
 62
               7
100
AcDbCircle
 10
-36.003149446419791
 20
-7.4283002158858018
 30
0.0
 40
0.6999999999999862
100
AcDbArc
 50
-179.00000000000099
 51
-89.999999999995353
  0
LINE
  5
166
100
AcDbEntity
  8
________1________1
370
              18
390
0
  6
Continuous
 62
               7
100
AcDbLine
 10
-37.020756808031699
 20
-6.4230662905799001
 30
0.0
 11
-37.002997141576081
 21
-7.4405169003916463
 31
0.0
  0
LINE
  5
167
100
AcDbEntity
  8
________1________1
370
              18
390
0
  6
Continuous
 62
               7
100
AcDbLine
 10
0.8995740790292572
 20
-6.1230644939520609
 30
0.0
 11
0.8995740790292572
 21
-2.2230644939515436
 31
0.0
  0
LINE
  5
168
100
AcDbEntity
  8
________1________1
370
              18
390
0
  6
Continuous
 62
               7
100
AcDbLine
 10
2.0995740790269153
 20
-2.2230644939522399
 30
0.0
 11
0.8995740790272109
 21
-2.2230644939522399
 31
0.0
  0
LINE
  5
169
100
AcDbEntity
  8
________1________1
370
              18
390
0
  6
Continuous
 62
               7
100
AcDbLine
 10
1.1995740790292118
 20
-1.9230644939519443
 30
0.0
 11
0.8995740790292572
 21
-2.223064493951842
 31
0.0
  0
DIMENSION
  5
177
100
AcDbEntity
  8
寸法線_1
370
               5
390
0
  6
Continuous
 62
               7
100
AcDbDimension
  2
*D2
 10
4.4995740790280863
 20
4.605070819581897
 30
0.0
 11
2.6995740790287002
 21
4.605070819581897
 31
0.0
 71
               5
 72
               1
 41
1.0
 42
0.0
  3
DS2
100
AcDbAlignedDimension
 13
0.8995740790293141
 23
-2.2230644939518562
 33
0.0
 14
4.4995740790280863
 24
-1.9230644939494574
 34
0.0
 50
0.0000008537736463
100
AcDbRotatedDimension
  0
LINE
  5
179
100
AcDbEntity
  8
________1________1
370
              18
390
0
  6
Continuous
 62
               7
100
AcDbLine
 10
2.2495740790283705
 20
-6.4230644939512622
 30
0.0
 11
1.1995740790300076
 21
-6.4230644939512622
 31
0.0
  0
LINE
  5
17A
100
AcDbEntity
  8
________1________1
370
              18
390
0
  6
Continuous
 62
               7
100
AcDbLine
 10
0.8995740790292572
 20
-6.1230644939520609
 30
0.0
 11
1.1995740790292118
 21
-6.423064493951987
 31
0.0
  0
LINE
  5
17B
100
AcDbEntity
  8
________1________1
370
              18
390
0
  6
Continuous
 62
               7
100
AcDbLine
 10
1.1995740790300076
 20
-1.9230644939494432
 30
0.0
 11
2.2495740790283705
 21
-1.9230644939494432
 31
0.0
  0
LINE
  5
17C
100
AcDbEntity
  8
________1________1
370
              18
390
0
  6
Continuous
 62
               7
100
AcDbLine
 10
0.8995740790272109
 20
-6.123064493952004
 30
0.0
 11
2.0995740790269153
 21
-6.123064493952004
 31
0.0
  0
LINE
  5
17D
100
AcDbEntity
  8
___G
370
              18
390
0
  6
Continuous
 62
               7
100
AcDbLine
 10
-69.794434931738095
 20
46.678547854785478
 30
0.0
 11
67.705565068261905
 21
46.678547854785478
 31
0.0
  0
LINE
  5
17E
100
AcDbEntity
  8
___G
370
               5
390
0
  6
DOT
 62
               7
100
AcDbLine
 10
-72.794434931738095
 20
-51.196452145214536
 30
0.0
 11
70.705565068261905
 21
-51.196452145214536
 31
0.0
  0
LINE
  5
17F
100
AcDbEntity
  8
___G
370
               5
390
0
  6
DOT
 62
               7
100
AcDbLine
 10
-72.794434931738095
 20
49.553547854785478
 30
0.0
 11
70.705565068261905
 21
49.553547854785478
 31
0.0
  0
LINE
  5
180
100
AcDbEntity
  8
___G
370
              18
390
0
  6
Continuous
 62
               7
100
AcDbLine
 10
-69.794434931738095
 20
-48.321452145214536
 30
0.0
 11
67.705565068261905
 21
-48.321452145214536
 31
0.0
  0
DIMENSION
  5
18D
100
AcDbEntity
  8
寸法線_1
370
               5
390
0
  6
Continuous
 62
               7
100
AcDbDimension
  2
*D3
 10
-25.223198091655043
 20
4.605070819581897
 30
0.0
 11
-32.723198144926762
 21
4.605070819581897
 31
0.0
 71
               5
 72
               1
 41
1.0
 42
0.0
  3
DS2
100
AcDbAlignedDimension
 13
-40.223198198198482
 23
-2.2230644984248649
 33
0.0
 14
-25.223198091655043
 24
-2.2230646004978531
 34
0.0
100
AcDbRotatedDimension
  0
DIMENSION
  5
19D
100
AcDbEntity
  8
寸法線_1
370
               5
390
0
  6
Continuous
 62
               7
100
AcDbDimension
  2
*D4
 10
-17.161482026581314
 20
-6.4230644939545165
 30
0.0
 11
-17.161482026581314
 21
-4.1730644939544881
 31
0.0
 71
               5
 72
               1
 41
1.0
 42
0.0
  3
DS2
100
AcDbAlignedDimension
 13
-25.424292130723764
 23
-1.9230644939544597
 33
0.0
 14
-25.424292130723764
 24
-6.4230644939545165
 34
0.0
 50
90.0
100
AcDbRotatedDimension
  0
DIMENSION
  5
1AD
100
AcDbEntity
  8
寸法線_1
370
               5
390
0
  6
Continuous
 62
               7
100
AcDbDimension
  2
*D5
 10
-13.137719650343698
 20
-8.423064493954687
 30
0.0
 11
-13.137719650343698
 21
-5.1730644939545734
 31
0.0
 71
               5
 72
               1
 41
1.0
 42
0.0
  3
DS2
100
AcDbAlignedDimension
 13
-25.515512423005369
 23
-1.9230644939544597
 33
0.0
 14
-29.443246949977386
 24
-8.423064493954687
 34
0.0
 50
90.0
100
AcDbRotatedDimension
  0
LINE
  5
1AE
100
AcDbEntity
  8
___G
370
               5
390
0
  6
DOT
 62
               7
100
AcDbLine
 10
-72.792934931738088
 20
-51.196452145214536
 30
0.0
 11
-72.792934931738088
 21
49.553547854785478
 31
0.0
  0
LINE
  5
1AF
100
AcDbEntity
  8
___G
370
              18
390
0
  6
Continuous
 62
               7
100
AcDbLine
 10
-69.794434931738095
 20
-48.321452145214536
 30
0.0
 11
-69.794434931738095
 21
46.67854785478545
 31
0.0
  0
LINE
  5
1B0
100
AcDbEntity
  8
____1
370
               5
390
0
  6
CENTER2
 62
               7
100
AcDbLine
 10
31.419706092230513
 20
0.8956648789878159
 30
0.0
 11
31.419706092230513
 21
-11.888163503850469
 31
0.0
  0
LINE
  5
1B1
100
AcDbEntity
  8
___G
370
               5
390
0
  6
DOT
 62
               7
100
AcDbLine
 10
70.705565068261905
 20
-51.196452145214536
 30
0.0
 11
70.705565068261905
 21
49.553547854785478
 31
0.0
  0
LINE
  5
1B2
100
AcDbEntity
  8
___G
370
              18
390
0
  6
Continuous
 62
               7
100
AcDbLine
 10
67.705565068261905
 20
-48.321452145214536
 30
0.0
 11
67.705565068261905
 21
46.67854785478545
 31
0.0
  0
LINE
  5
1B3
100
AcDbEntity
  8
________1________1
370
              18
390
0
  6
Continuous
 62
               7
100
AcDbLine
 10
-36.003149446419791
 20
-8.4230644939544455
 30
0.0
 11
-29.443246949977162
 21
-8.4230644939544455
 31
0.0
  0
ARC
  5
1B4
100
AcDbEntity
  8
________1________1
370
              18
390
0
  6
Continuous
 62
               7
100
AcDbCircle
 10
-36.003149446419791
 20
-7.4230644939546728
 30
0.0
 40
0.9999999999999953
100
AcDbArc
 50
-134.50000000000153
 51
-89.999999999990223
  0
ARC
  5
1B5
100
AcDbEntity
  8
________1________1
370
              18
390
0
  6
Continuous
 62
               7
100
AcDbCircle
 10
-29.443246949977162
 20
-7.4230644939546728
 30
0.0
 40
1.0000000000000142
100
AcDbArc
 50
-90.000000000008143
 51
-45.499999999999609
  0
LINE
  5
1B6
100
AcDbEntity
  8
________1________1
370
              18
390
0
  6
Continuous
 62
               7
100
AcDbLine
 10
-25.523198064087847
 20
-6.4230643598439805
 30
0.0
 11
-25.223198112516666
 21
-6.1230644082727856
 31
0.0
  0
LINE
  5
1B7
100
AcDbEntity
  8
________1________1
370
              18
390
0
  6
Continuous
 62
               7
100
AcDbLine
 10
-40.223198283880087
 20
-6.1230644082729704
 30
0.0
 11
-39.923198332308907
 21
-6.4230643598441652
 31
0.0
  0
ENDSEC
  0
SECTION
  2
OBJECTS
  0
DICTIONARY
  5
19
100
AcDbDictionary
280
               0
281
               1
  3
ACAD_GROUP
350
1A
  3
ACAD_MLINESTYLE
350
1B
  3
ACAD_LAYOUT
350
1E
  3
ACAD_PLOTSETTINGS
350
22
  3
ACAD_PLOTSTYLENAME
350
1F
  3
ACAD_WIPEOUT_VARS
350
23
  0
DICTIONARY
  5
1A
102
{ACAD_REACTORS
330
19
102
}
100
AcDbDictionary
280
               0
281
               1
  0
DICTIONARY
  5
1B
102
{ACAD_REACTORS
330
19
102
}
100
AcDbDictionary
280
               0
281
               1
  3
Standard
350
1C
  0
MLINESTYLE
  5
1C
102
{ACAD_REACTORS
330
1B
102
}
100
AcDbMlineStyle
  2
Standard
 70
               0
  3

 62
               0
 51
90.0
 52
90.0
 71
               2
 49
0.5
 62
             256
  6
ByLayer
 49
-0.5
 62
             256
  6
ByLayer
  0
ACDBDICTIONARYWDFLT
  5
1F
102
{ACAD_REACTORS
330
19
102
}
100
AcDbDictionary
281
               1
  3
Normal
350
1D
100
AcDbDictionaryWithDefault
340
1D
  0
ACDBPLACEHOLDER
  5
1D
102
{ACAD_REACTORS
330
1F
102
}
  0
LAYOUT
  5
20
102
{ACAD_REACTORS
330
1E
102
}
100
AcDbPlotSettings
  1

  2

  4

  6

 40
0.0
 41
0.0
 42
0.0
 43
0.0
 44
0.0
 45
0.0
 46
0.0
 47
0.0
 48
0.0
 49
0.0
140
0.0
141
0.0
142
1.0
143
1.0
 70
            1024
 72
               0
 73
               0
 74
               0
  7

 75
               0
147
1.0
148
0.0
149
0.0
100
AcDbLayout
  1
Model
 70
               0
 71
               0
 10
0.0
 20
0.0
 11
0.0
 21
0.0
 12
0.0
 22
0.0
 32
0.0
 14
0.0
 24
0.0
 34
0.0
 15
0.0
 25
0.0
 35
0.0
146
0.0
 13
0.0
 23
0.0
 33
0.0
 16
0.0
 26
0.0
 36
0.0
 17
0.0
 27
0.0
 37
0.0
 76
               0
330
A
331
0
345
0
346
0
  0
LAYOUT
  5
21
102
{ACAD_REACTORS
330
1E
102
}
100
AcDbPlotSettings
  1

  2

  4

  6

 40
0.0
 41
0.0
 42
0.0
 43
0.0
 44
0.0
 45
0.0
 46
0.0
 47
0.0
 48
0.0
 49
0.0
140
0.0
141
0.0
142
1.0
143
1.0
 70
               0
 72
               0
 73
               0
 74
               0
  7

 75
               0
147
1.0
148
0.0
149
0.0
100
AcDbLayout
  1
Layout1
 70
               0
 71
               0
 10
0.0
 20
0.0
 11
0.0
 21
0.0
 12
0.0
 22
0.0
 32
0.0
 14
0.0
 24
0.0
 34
0.0
 15
0.0
 25
0.0
 35
0.0
146
0.0
 13
0.0
 23
0.0
 33
0.0
 16
0.0
 26
0.0
 36
0.0
 17
0.0
 27
0.0
 37
0.0
 76
               0
330
B
331
0
345
0
346
0
  0
DICTIONARY
  5
1E
102
{ACAD_REACTORS
330
19
102
}
100
AcDbDictionary
280
               0
281
               1
  3
Layout1
350
21
  3
Model
350
20
  0
DICTIONARY
  5
22
102
{ACAD_REACTORS
330
19
102
}
100
AcDbDictionary
280
               0
281
               1
  0
WIPEOUTVARIABLES
  5
23
100
AcDbWipeoutVariables
 70
               1
  0
ENDSEC
  0
EOF
