  0
SECTION
  2
HEADER
  9
$ACADVER
  1
AC1015
  9
$ACADMAINTVER
 70
               6
  9
$DWGCODEPAGE
  3
ANSI_932
  9
$INSBASE
 10
0.0
 20
0.0
 30
0.0
  9
$EXTMIN
 10
-234.72565512139425
 20
127.34581107565936
 30
0.0
  9
$EXTMAX
 10
196.03050926216736
 20
-85.132727737126032
 30
0.0
  9
$LIMMIN
 10
0.0
 20
0.0
  9
$LIMMAX
 10
0.0
 20
0.0
  9
$ORTHOMODE
 70
               0
  9
$REGENMODE
 70
               1
  9
$FILLMODE
 70
               1
  9
$QTEXTMODE
 70
               0
  9
$MIRRTEXT
 70
               1
  9
$LTSCALE
 40
1.0
  9
$ATTMODE
 70
               1
  9
$TEXTSIZE
 40
0.2
  9
$TRACEWID
 40
0.05
  9
$TEXTSTYLE
  7
Standard
  9
$CLAYER
  8
0
  9
$CELTYPE
  6
Continuous
  9
$CECOLOR
 62
             256
  9
$CELTSCALE
 40
1.0
  9
$DISPSILH
 70
               0
  9
$DIMSCALE
 40
1.0
  9
$DIMASZ
 40
2.4148145657226707
  9
$DIMEXO
 40
1.0
  9
$DIMDLI
 40
0.38
  9
$DIMRND
 40
0.0
  9
$DIMDLE
 40
0.0
  9
$DIMEXE
 40
2.0
  9
$DIMTP
 40
0.0
  9
$DIMTM
 40
0.0
  9
$DIMTXT
 40
3.5277777777777777
  9
$DIMCEN
 40
0.09
  9
$DIMTSZ
 40
0.0
  9
$DIMTOL
 70
               0
  9
$DIMLIM
 70
               0
  9
$DIMTIH
 70
               0
  9
$DIMTOH
 70
               0
  9
$DIMSE1
 70
               0
  9
$DIMSE2
 70
               0
  9
$DIMTAD
 70
               1
  9
$DIMZIN
 70
               0
  9
$DIMBLK
  1

  9
$DIMASO
 70
               1
  9
$DIMSHO
 70
               1
  9
$DIMPOST
  1

  9
$DIMAPOST
  1

  9
$DIMALT
 70
               0
  9
$DIMALTD
 70
               2
  9
$DIMALTF
 40
25.399999999999999
  9
$DIMLFAC
 40
1.0
  9
$DIMTOFL
 70
               0
  9
$DIMTVP
 40
0.0
  9
$DIMTIX
 70
               0
  9
$DIMSOXD
 70
               0
  9
$DIMSAH
 70
               0
  9
$DIMBLK1
  1

  9
$DIMBLK2
  1

  9
$DIMSTYLE
  2
Standard
  9
$DIMCLRD
 70
               7
  9
$DIMCLRE
 70
               7
  9
$DIMCLRT
 70
               7
  9
$DIMTFAC
 40
1.0
  9
$DIMGAP
 40
1.0
  9
$DIMJUST
 70
               0
  9
$DIMSD1
 70
               0
  9
$DIMSD2
 70
               0
  9
$DIMTOLJ
 70
               1
  9
$DIMTZIN
 70
               0
  9
$DIMALTZ
 70
               0
  9
$DIMALTTZ
 70
               0
  9
$DIMUPT
 70
               0
  9
$DIMDEC
 70
               2
  9
$DIMTDEC
 70
               4
  9
$DIMALTU
 70
               2
  9
$DIMALTTD
 70
               2
  9
$DIMTXSTY
  7
Standard
  9
$DIMAUNIT
 70
               0
  9
$DIMADEC
 70
               0
  9
$DIMALTRND
 40
0.0
  9
$DIMAZIN
 70
               0
  9
$DIMDSEP
 70
               0
  9
$DIMATFIT
 70
               3
  9
$DIMFRAC
 70
               0
  9
$DIMLDRBLK
  1

  9
$DIMLUNIT
 70
               2
  9
$DIMLWD
 70
               0
  9
$DIMLWE
 70
               0
  9
$DIMTMOVE
 70
               0
  9
$LUNITS
 70
               2
  9
$LUPREC
 70
               4
  9
$SKETCHINC
 40
0.1
  9
$FILLETRAD
 40
0.0
  9
$AUNITS
 70
               0
  9
$AUPREC
 70
               0
  9
$MENU
  1
acad
  9
$ELEVATION
 40
0.0
  9
$PELEVATION
 40
0.0
  9
$THICKNESS
 40
0.0
  9
$LIMCHECK
 70
               0
  9
$CHAMFERA
 40
0.0
  9
$CHAMFERB
 40
0.0
  9
$CHAMFERC
 40
0.0
  9
$CHAMFERD
 40
0.0
  9
$SKPOLY
 70
               0
  9
$TDCREATE
 40
2457418.710347222
  9
$TDUCREATE
 40
0.000000000
  9
$TDUPDATE
 40
2457418.710347222
  9
$TDUUPDATE
 40
0.000000000
  9
$TDINDWG
 40
0.0000000000
  9
$TDUSRTIMER
 40
0.0000000000
  9
$USRTIMER
 70
               1
  9
$ANGBASE
 50
0.0
  9
$ANGDIR
 70
               0
  9
$PDMODE
 70
               0
  9
$PDSIZE
 40
0.0
  9
$PLINEWID
 40
0.0
  9
$SPLFRAME
 70
               0
  9
$SPLINETYPE
 70
               6
  9
$SPLINESEGS
 70
               8
  9
$HANDSEED
  5
24F
  9
$SURFTAB1
 70
               6
  9
$SURFTAB2
 70
               6
  9
$SURFTYPE
 70
               6
  9
$SURFU
 70
               6
  9
$SURFV
 70
               6
  9
$UCSBASE
  2

  9
$UCSNAME
  2

  9
$UCSORG
 10
0.0
 20
0.0
 30
0.0
  9
$UCSXDIR
 10
1.0
 20
0.0
 30
0.0
  9
$UCSYDIR
 10
0.0
 20
1.0
 30
0.0
  9
$UCSORTHOREF
  2

  9
$UCSORTHOVIEW
 70
               0
  9
$UCSORGTOP
 10
0.0
 20
0.0
 30
0.0
  9
$UCSORGBOTTOM
 10
0.0
 20
0.0
 30
0.0
  9
$UCSORGLEFT
 10
0.0
 20
0.0
 30
0.0
  9
$UCSORGRIGHT
 10
0.0
 20
0.0
 30
0.0
  9
$UCSORGFRONT
 10
0.0
 20
0.0
 30
0.0
  9
$UCSORGBACK
 10
0.0
 20
0.0
 30
0.0
  9
$PUCSBASE
  2

  9
$PUCSNAME
  2

  9
$PUCSORG
 10
0.0
 20
0.0
 30
0.0
  9
$PUCSXDIR
 10
1.0
 20
0.0
 30
0.0
  9
$PUCSYDIR
 10
0.0
 20
1.0
 30
0.0
  9
$PUCSORTHOREF
  2

  9
$PUCSORTHOVIEW
 70
               0
  9
$PUCSORGTOP
 10
0.0
 20
0.0
 30
0.0
  9
$PUCSORGBOTTOM
 10
0.0
 20
0.0
 30
0.0
  9
$PUCSORGLEFT
 10
0.0
 20
0.0
 30
0.0
  9
$PUCSORGRIGHT
 10
0.0
 20
0.0
 30
0.0
  9
$PUCSORGFRONT
 10
0.0
 20
0.0
 30
0.0
  9
$PUCSORGBACK
 10
0.0
 20
0.0
 30
0.0
  9
$USERI1
 70
               0
  9
$USERI2
 70
               0
  9
$USERI3
 70
               0
  9
$USERI4
 70
               0
  9
$USERI5
 70
               0
  9
$USERR1
 40
0.0
  9
$USERR2
 40
0.0
  9
$USERR3
 40
0.0
  9
$USERR4
 40
0.0
  9
$USERR5
 40
0.0
  9
$WORLDVIEW
 70
               1
  9
$SHADEDGE
 70
               3
  9
$SHADEDIF
 70
              70
  9
$TILEMODE
 70
               1
  9
$MAXACTVP
 70
              16
  9
$PINSBASE
 10
0.0
 20
0.0
 30
0.0
  9
$PLIMCHECK
 70
               0
  9
$PEXTMIN
 10
1.0000000000000000E+20
 20
1.0000000000000000E+20
 30
1.0000000000000000E+20
  9
$PEXTMAX
 10
-1.0000000000000000E+20
 20
-1.0000000000000000E+20
 30
-1.0000000000000000E+20
  9
$PLIMMIN
 10
0.0
 20
0.0
  9
$PLIMMAX
 10
12.0
 20
9.0
  9
$UNITMODE
 70
               0
  9
$VISRETAIN
 70
               0
  9
$PLINEGEN
 70
               1
  9
$PSLTSCALE
 70
               0
  9
$TREEDEPTH
 70
            3020
  9
$CMLSTYLE
  2
Standard
  9
$CMLJUST
 70
               0
  9
$CMLSCALE
 40
1.0
  9
$PROXYGRAPHICS
 70
               0
  9
$MEASUREMENT
 70
               0
  9
$CELWEIGHT
370
               0
  9
$ENDCAPS
280
               0
  9
$JOINSTYLE
280
               0
  9
$LWDISPLAY
290
               0
  9
$INSUNITS
 70
               0
  9
$HYPERLINKBASE
  1

  9
$STYLESHEET
  1

  9
$XEDIT
290
               1
  9
$CEPSNTYPE
380
               0
  9
$PSTYLEMODE
290
               1
  9
$FINGERPRINTGUID
  2

  9
$VERSIONGUID
  2

  9
$EXTNAMES
290
               1
  9
$PSVPSCALE
 40
0.0
  0
ENDSEC
  0
SECTION
  2
CLASSES
  0
CLASS
  1
LWPOLYLINE
  2
AcDbPolyline
  3
AutoCAD 2000
 90
        0
280
               0
281
               1
  0
CLASS
  1
IMAGE
  2
AcDbRasterImage
  3
ISM
 90
      127
280
               0
281
               1
  0
CLASS
  1
OLE2FRAME
  2
AcDbOle2Frame
  3
AutoCAD 2000
 90
        0
280
               0
281
               1
  0
CLASS
  1
HATCH
  2
AcDbHatch
  3
AutoCAD 2000
 90
        0
280
               0
281
               1
  0
CLASS
  1
DICTIONARYVAR
  2
AcDbDictionaryVar
  3
AutoCAD 2000
 90
        0
280
               0
281
               0
  0
CLASS
  1
RASTERVARIABLES
  2
AcDbRasterVariables
  3
ISM
 90
        0
280
               0
281
               0
  0
CLASS
  1
IMAGEDEF
  2
AcDbRasterImageDef
  3
ISM
 90
        0
280
               0
281
               0
  0
CLASS
  1
IMAGEDEF_REACTOR
  2
AcDbRasterImageDefReactor
  3
ISM
 90
        1
280
               0
281
               0
  0
CLASS
  1
IDBUFFER
  2
AcDbIdBuffer
  3
AutoCAD 2000
 90
        0
280
               0
281
               0
  0
CLASS
  1
SPATIAL_FILTER
  2
AcDbSpatialFilter
  3
AutoCAD 2000
 90
        0
280
               0
281
               0
  0
CLASS
  1
XRECORD
  2
AcDbXrecord
  3
AutoCAD 2000
 90
        0
280
               0
281
               0
  0
CLASS
  1
SORTENTSTABLE
  2
AcDbSortentsTable
  3
AutoCAD 2000
 90
        0
280
               0
281
               0
  0
CLASS
  1
LAYER_INDEX
  2
AcDbLayerIndex
  3
AutoCAD 2000
 90
        0
280
               0
281
               0
  0
CLASS
  1
SPATIAL_INDEX
  2
AcDbSpatialIndex
  3
AutoCAD 2000
 90
        0
280
               0
281
               0
  0
CLASS
  1
OBJECT_PTR
  2
CAseDLPNTableRecord
  3
"ASE-LPNTableRecord"
 90
        1
280
               0
281
               0
  0
CLASS
  1
LAYOUT
  2
AcDbLayout
  3
AutoCAD 2000
 90
        0
280
               0
281
               0
  0
CLASS
  1
PLOTSETTINGS
  2
AcDbPlotSettings
  3
AutoCAD 2000
 90
        0
280
               0
281
               0
  0
CLASS
  1
ACDBDICTIONARYWDFLT
  2
AcDbDictionaryWithDefault
  3
AutoCAD 2000
 90
        0
280
               0
281
               0
  0
CLASS
  1
ACDBPLACEHOLDER
  2
AcDbPlaceHolder
  3
AutoCAD 2000
 90
        0
280
               0
281
               0
  0
CLASS
  1
VBA_PROJECT
  2
AcDbVbaProject
  3
acadvba
 90
        0
280
               0
281
               0
  0
CLASS
  1
WIPEOUT
  2
AcDbWipeout
  3
WipeOut|AutoCAD Express Tool|expresstools@autodesk.com
 90
      127
280
               0
281
               1
  0
CLASS
  1
WIPEOUTVARIABLES
  2
AcDbWipeoutVariables
  3
WipeOut|AutoCAD Express Tool|expresstools@autodesk.com
 90
        0
280
               0
281
               0
  0
CLASS
  1
RTEXT
  2
RText
  3
RText|AutoCAD Express Tool|expresstools@autodesk.com
 90
        0
280
               0
281
               1
  0
CLASS
  1
ARCALIGNEDTEXT
  2
AcDbArcAlignedText
  3
ATEXT|AutoCAD Express Tool|expresstools@autodesk.com
 90
        0
280
               0
281
               1
  0
ENDSEC
  0
SECTION
  2
TABLES
  0
TABLE
  2
VPORT
  5
7
100
AcDbSymbolTable
 70
               1
  0
VPORT
  5
15
100
AcDbSymbolTableRecord
100
AcDbViewportTableRecord
  2
*ACTIVE
 70
               0
 10
0.0
 20
0.0
 11
1.0
 21
1.0
 12
6.5912879999999996
 22
4.5791839999999997
 13
0.0
 23
0.0
 14
1.0
 24
1.0
 15
0.0
 25
0.0
 16
0.0
 26
0.0
 36
1.0
 17
0.0
 27
0.0
 37
0.0
 40
9.1583690000000004
 41
0.688564
 42
50.0
 43
0.0
 44
0.0
 50
0.0
 51
0.0
 71
               0
 72
             100
 73
               1
 74
               1
 75
               0
 76
               0
 77
               0
 78
               0
281
               0
 65
               0
110
0.0
120
0.0
130
0.0
111
1.0
121
0.0
131
0.0
112
0.0
122
1.0
132
0.0
345
0
346
0
 79
               0
146
0.0
  0
ENDTAB
  0
TABLE
  2
LTYPE
  5
4
100
AcDbSymbolTable
 70
              13
  0
LTYPE
  5
11
100
AcDbSymbolTableRecord
100
AcDbLinetypeTableRecord
  2
ByBlock
 70
              64
  3

 72
              65
 73
               0
 40
0.0
  0
LTYPE
  5
12
100
AcDbSymbolTableRecord
100
AcDbLinetypeTableRecord
  2
ByLayer
 70
              64
  3

 72
              65
 73
               0
 40
0.0
  0
LTYPE
  5
13
100
AcDbSymbolTableRecord
100
AcDbLinetypeTableRecord
  2
Continuous
 70
              64
  3
Solid line
 72
              65
 73
               0
 40
0.0
  0
LTYPE
  5
24
100
AcDbSymbolTableRecord
100
AcDbLinetypeTableRecord
  2
DOT
 70
              64
  3

 72
              65
 73
               2
 40
1.0
 49
0.0
 74
               0
 49
-1.0
 74
               0
  0
LTYPE
  5
25
100
AcDbSymbolTableRecord
100
AcDbLinetypeTableRecord
  2
DASHEDX2
 70
              64
  3

 72
              65
 73
               2
 40
4.0
 49
3.0
 74
               0
 49
-1.0
 74
               0
  0
LTYPE
  5
26
100
AcDbSymbolTableRecord
100
AcDbLinetypeTableRecord
  2
DASHED
 70
              64
  3

 72
              65
 73
               2
 40
3.0
 49
2.0
 74
               0
 49
-1.0
 74
               0
  0
LTYPE
  5
27
100
AcDbSymbolTableRecord
100
AcDbLinetypeTableRecord
  2
DASHED2
 70
              64
  3

 72
              65
 73
               2
 40
2.0
 49
1.0
 74
               0
 49
-1.0
 74
               0
  0
LTYPE
  5
28
100
AcDbSymbolTableRecord
100
AcDbLinetypeTableRecord
  2
CENTERX2
 70
              64
  3

 72
              65
 73
               4
 40
43.0
 49
40.0
 74
               0
 49
-1.0
 74
               0
 49
1.0
 74
               0
 49
-1.0
 74
               0
  0
LTYPE
  5
29
100
AcDbSymbolTableRecord
100
AcDbLinetypeTableRecord
  2
CENTER
 70
              64
  3

 72
              65
 73
               4
 40
33.0
 49
30.0
 74
               0
 49
-1.0
 74
               0
 49
1.0
 74
               0
 49
-1.0
 74
               0
  0
LTYPE
  5
2A
100
AcDbSymbolTableRecord
100
AcDbLinetypeTableRecord
  2
CENTER2
 70
              64
  3

 72
              65
 73
               4
 40
23.0
 49
20.0
 74
               0
 49
-1.0
 74
               0
 49
1.0
 74
               0
 49
-1.0
 74
               0
  0
LTYPE
  5
2B
100
AcDbSymbolTableRecord
100
AcDbLinetypeTableRecord
  2
PHANTOMX2
 70
              64
  3

 72
              65
 73
               6
 40
45.0
 49
40.0
 74
               0
 49
-1.0
 74
               0
 49
1.0
 74
               0
 49
-1.0
 74
               0
 49
1.0
 74
               0
 49
-1.0
 74
               0
  0
LTYPE
  5
2C
100
AcDbSymbolTableRecord
100
AcDbLinetypeTableRecord
  2
PHANTOM
 70
              64
  3

 72
              65
 73
               6
 40
35.0
 49
30.0
 74
               0
 49
-1.0
 74
               0
 49
1.0
 74
               0
 49
-1.0
 74
               0
 49
1.0
 74
               0
 49
-1.0
 74
               0
  0
LTYPE
  5
2D
100
AcDbSymbolTableRecord
100
AcDbLinetypeTableRecord
  2
PHANTOM2
 70
              64
  3

 72
              65
 73
               6
 40
25.0
 49
20.0
 74
               0
 49
-1.0
 74
               0
 49
1.0
 74
               0
 49
-1.0
 74
               0
 49
1.0
 74
               0
 49
-1.0
 74
               0
  0
ENDTAB
  0
TABLE
  2
LAYER
  5
2
100
AcDbSymbolTable
 70
              17
  0
LAYER
  5
14
100
AcDbSymbolTableRecord
100
AcDbLayerTableRecord
  2
0
 70
               0
 62
               7
  6
Continuous
290
               1
370
              -3
390
1D
  0
LAYER
  5
2E
100
AcDbSymbolTableRecord
100
AcDbLayerTableRecord
  2
DEFPOINTS
 70
               0
 62
               7
  6
Continuous
290
               0
370
              -3
390
1D
  0
LAYER
  5
2F
100
AcDbSymbolTableRecord
100
AcDbLayerTableRecord
  2
____1
 70
               0
 62
               7
  6
Continuous
290
               1
370
              -3
390
1D
  0
LAYER
  5
30
100
AcDbSymbolTableRecord
100
AcDbLayerTableRecord
  2
______
 70
               0
 62
               7
  6
Continuous
290
               1
370
              -3
390
1D
  0
LAYER
  5
31
100
AcDbSymbolTableRecord
100
AcDbLayerTableRecord
  2
寸法線_1
 70
               0
 62
               7
  6
Continuous
290
               1
370
              -3
390
1D
  0
LAYER
  5
32
100
AcDbSymbolTableRecord
100
AcDbLayerTableRecord
  2
CONSTRUCTION
 70
               0
 62
               7
  6
Continuous
290
               1
370
              -3
390
1D
  0
LAYER
  5
33
100
AcDbSymbolTableRecord
100
AcDbLayerTableRecord
  2
DIMENSION
 70
               0
 62
               7
  6
Continuous
290
               1
370
              -3
390
1D
  0
LAYER
  5
34
100
AcDbSymbolTableRecord
100
AcDbLayerTableRecord
  2
FORMAT
 70
               0
 62
               7
  6
Continuous
290
               1
370
              -3
390
1D
  0
LAYER
  5
35
100
AcDbSymbolTableRecord
100
AcDbLayerTableRecord
  2
____
 70
               0
 62
               7
  6
DOT
290
               1
370
              -3
390
1D
  0
LAYER
  5
36
100
AcDbSymbolTableRecord
100
AcDbLayerTableRecord
  2
___G
 70
               0
 62
               7
  6
DOT
290
               1
370
              -3
390
1D
  0
LAYER
  5
37
100
AcDbSymbolTableRecord
100
AcDbLayerTableRecord
  2
0_1
 70
               0
 62
               7
  6
Continuous
290
               1
370
              -3
390
1D
  0
LAYER
  5
38
100
AcDbSymbolTableRecord
100
AcDbLayerTableRecord
  2
____1_1
 70
               0
 62
              -7
  6
Continuous
290
               1
370
              -3
390
1D
  0
LAYER
  5
39
100
AcDbSymbolTableRecord
100
AcDbLayerTableRecord
  2
________1
 70
               0
 62
               7
  6
Continuous
290
               1
370
              -3
390
1D
  0
LAYER
  5
3A
100
AcDbSymbolTableRecord
100
AcDbLayerTableRecord
  2
________1_____1
 70
               0
 62
               7
  6
Continuous
290
               1
370
              -3
390
1D
  0
LAYER
  5
3B
100
AcDbSymbolTableRecord
100
AcDbLayerTableRecord
  2
________1________1
 70
               0
 62
               7
  6
Continuous
290
               1
370
              -3
390
1D
  0
LAYER
  5
3C
100
AcDbSymbolTableRecord
100
AcDbLayerTableRecord
  2
_____
 70
               0
 62
              -7
  6
Continuous
290
               1
370
              -3
390
1D
  0
LAYER
  5
3D
100
AcDbSymbolTableRecord
100
AcDbLayerTableRecord
  2
__________1
 70
               0
 62
              -7
  6
Continuous
290
               1
370
              -3
390
1D
  0
ENDTAB
  0
TABLE
  2
STYLE
  5
3
100
AcDbSymbolTable
 70
               2
  0
STYLE
  5
17
100
AcDbSymbolTableRecord
100
AcDbTextStyleTableRecord
  2
Standard
 70
               0
 40
0.0
 41
1.0
 50
0.0
 71
               0
 42
0.35
  3
txt
  4

  0
STYLE
  5
42
100
AcDbSymbolTableRecord
100
AcDbTextStyleTableRecord
  2
Style1
 70
               0
 40
0.0
 41
1.0
 50
0.0
 71
               0
 42
0.35
  3
ＭＳ ゴシック
  4

  0
ENDTAB
  0
TABLE
  2
VIEW
  5
5
100
AcDbSymbolTable
 70
               0
  0
ENDTAB
  0
TABLE
  2
UCS
  5
6
100
AcDbSymbolTable
 70
               0
  0
ENDTAB
  0
TABLE
  2
APPID
  5
8
100
AcDbSymbolTable
 70
               1
  0
APPID
  5
16
100
AcDbSymbolTableRecord
100
AcDbRegAppTableRecord
  2
ACAD
 70
               0
  0
ENDTAB
  0
TABLE
  2
DIMSTYLE
  5
9
100
AcDbSymbolTable
 70
               2
100
AcDbDimStyleTable
 71
               0
  0
DIMSTYLE
105
18
100
AcDbSymbolTableRecord
100
AcDbDimStyleTableRecord
  2
Standard
 70
               0
  3

  4

 40
1.0
 41
2.4148145657226707
 42
1.0
 43
0.38
 44
2.0
 45
0.0
 46
0.0
 47
0.0
 48
0.0
 71
               0
 72
               0
 73
               0
 74
               0
 75
               0
 76
               0
 77
               1
 78
               0
 79
               0
140
3.5277777777777777
141
0.09
142
0.0
143
25.399999999999999
144
1.0
145
0.0
146
1.0
147
1.0
148
0.0
170
               0
171
               2
172
               0
173
               0
174
               0
175
               0
176
               7
177
               7
178
               7
179
               0
271
               2
272
               4
273
               2
274
               2
275
               0
276
               0
277
               2
278
              46
279
               0
280
               0
281
               0
282
               0
283
               1
284
               0
285
               0
286
               0
288
               0
289
               0
340
17
341
0
342
0
343
0
344
0
371
              -2
372
              -2
  0
DIMSTYLE
105
1AA
100
AcDbSymbolTableRecord
100
AcDbDimStyleTableRecord
  2
DS1
 70
               0
  3

  4

 40
1.0
 41
2.4148145657226707
 42
1.0
 43
0.38
 44
2.0
 45
0.0
 46
0.0
 47
0.0
 48
0.0
 71
               0
 72
               0
 73
               0
 74
               0
 75
               0
 76
               0
 77
               1
 78
               8
 79
               0
140
3.5277776718139648
141
0.09
142
0.0
143
25.399999999999999
144
1.0
145
0.0
146
1.0
147
1.0
148
0.0
170
               0
171
               2
172
               0
173
               0
174
               0
175
               0
176
               7
177
               7
178
               7
179
               0
271
               2
272
               4
273
               2
274
               2
275
               0
276
               0
277
               2
278
              46
279
               0
280
               0
281
               0
282
               0
283
               1
284
               0
285
               0
286
               0
288
               0
289
               3
340
17
341
0
342
0
343
0
344
0
371
              -2
372
              -2
  0
ENDTAB
  0
TABLE
  2
BLOCK_RECORD
  5
1
100
AcDbSymbolTable
 70
              10
  0
BLOCK_RECORD
  5
A
100
AcDbSymbolTableRecord
100
AcDbBlockTableRecord
  2
*MODEL_SPACE
340
20
  0
BLOCK_RECORD
  5
B
100
AcDbSymbolTableRecord
100
AcDbBlockTableRecord
  2
*PAPER_SPACE
340
21
  0
BLOCK_RECORD
  5
12D
100
AcDbSymbolTableRecord
100
AcDbBlockTableRecord
  2
C0
340
0
102
{BLKREFS
331
146
102
}
  0
BLOCK_RECORD
  5
149
100
AcDbSymbolTableRecord
100
AcDbBlockTableRecord
  2
C1
340
0
102
{BLKREFS
331
16B
102
}
  0
BLOCK_RECORD
  5
19A
100
AcDbSymbolTableRecord
100
AcDbBlockTableRecord
  2
*D2
340
0
  0
BLOCK_RECORD
  5
1BE
100
AcDbSymbolTableRecord
100
AcDbBlockTableRecord
  2
C2
340
0
102
{BLKREFS
331
1C7
102
}
  0
BLOCK_RECORD
  5
1C8
100
AcDbSymbolTableRecord
100
AcDbBlockTableRecord
  2
*D4
340
0
  0
BLOCK_RECORD
  5
1FB
100
AcDbSymbolTableRecord
100
AcDbBlockTableRecord
  2
*D5
340
0
  0
BLOCK_RECORD
  5
208
100
AcDbSymbolTableRecord
100
AcDbBlockTableRecord
  2
*D6
340
0
  0
BLOCK_RECORD
  5
219
100
AcDbSymbolTableRecord
100
AcDbBlockTableRecord
  2
*D7
340
0
  0
BLOCK_RECORD
  5
229
100
AcDbSymbolTableRecord
100
AcDbBlockTableRecord
  2
*D8
340
0
  0
BLOCK_RECORD
  5
239
100
AcDbSymbolTableRecord
100
AcDbBlockTableRecord
  2
C3
340
0
102
{BLKREFS
331
242
102
}
  0
ENDTAB
  0
ENDSEC
  0
SECTION
  2
BLOCKS
  0
BLOCK
  5
D
100
AcDbEntity
  8
0
390
0
100
AcDbBlockBegin
  2
*MODEL_SPACE
 70
               0
 10
0.0
 20
0.0
 30
0.0
  3
*MODEL_SPACE
  1

  0
ENDBLK
  5
E
100
AcDbEntity
  8
0
390
0
100
AcDbBlockEnd
  0
BLOCK
  5
F
100
AcDbEntity
 67
               1
  8
0
390
0
100
AcDbBlockBegin
  2
*PAPER_SPACE
 70
               0
 10
0.0
 20
0.0
 30
0.0
  3
*PAPER_SPACE
  1

  0
ENDBLK
  5
10
100
AcDbEntity
 67
               1
  8
0
390
0
100
AcDbBlockEnd
  0
BLOCK
  5
12E
100
AcDbEntity
  8
0
390
0
100
AcDbBlockBegin
  2
C0
 70
              64
 10
0.0
 20
0.0
 30
0.0
  3
C0
  1

  0
LINE
  5
12F
100
AcDbEntity
  8
________1________1
370
              18
390
0
  6
Continuous
 62
               7
100
AcDbLine
 10
21.237411641592082
 20
-14.178991781716256
 30
0.0
 11
21.237411641592082
 21
-13.329601447156179
 31
0.0
  0
LINE
  5
130
100
AcDbEntity
  8
________1________1
370
              18
390
0
  6
Continuous
 62
               7
100
AcDbLine
 10
31.737411641591741
 20
-14.178991781714664
 30
0.0
 11
21.237411641591741
 21
-14.178991781714664
 31
0.0
  0
LINE
  5
131
100
AcDbEntity
  8
________1________1
370
              18
390
0
  6
Continuous
 62
               7
100
AcDbLine
 10
31.737411641591741
 20
-8.3789917817147028
 30
0.0
 11
32.237411641591741
 21
-8.8789917817146033
 31
0.0
  0
LINE
  5
132
100
AcDbEntity
  8
________1________1
370
              18
390
0
  6
Continuous
 62
               7
100
AcDbLine
 10
31.737411641592537
 20
-9.2283821162719022
 30
0.0
 11
31.737411641592537
 21
-8.3789917817176018
 31
0.0
  0
LINE
  5
133
100
AcDbEntity
  8
________1________1
370
              18
390
0
  6
Continuous
 62
               7
100
AcDbLine
 10
31.737411641592537
 20
-11.278991781714026
 30
0.0
 11
31.737411641592537
 21
-13.329601447156179
 31
0.0
  0
LINE
  5
134
100
AcDbEntity
  8
________1________1
370
              18
390
0
  6
Continuous
 62
               7
100
AcDbLine
 10
21.237411641591741
 20
-8.3789917817147028
 30
0.0
 11
20.737411641591741
 21
-8.8789917817147028
 31
0.0
  0
LINE
  5
135
100
AcDbEntity
  8
________1________1
370
              18
390
0
  6
Continuous
 62
               7
100
AcDbLine
 10
31.737411641592537
 20
-8.3789917817176018
 30
0.0
 11
31.737411641592537
 21
-11.278991781714026
 31
0.0
  0
LINE
  5
136
100
AcDbEntity
  8
________1________1
370
              18
390
0
  6
Continuous
 62
               7
100
AcDbLine
 10
31.737411641592537
 20
-14.178991781716256
 30
0.0
 11
31.737411641592537
 21
-11.278991781714026
 31
0.0
  0
LINE
  5
137
100
AcDbEntity
  8
________1________1
370
              18
390
0
  6
Continuous
 62
               7
100
AcDbLine
 10
32.237411641591741
 20
-13.678991781714743
 30
0.0
 11
31.737411641591741
 21
-14.178991781714664
 31
0.0
  0
LINE
  5
138
100
AcDbEntity
  8
________1________1
370
              18
390
0
  6
Continuous
 62
               7
100
AcDbLine
 10
32.237411641589581
 20
-11.278991781714026
 30
0.0
 11
32.237411641589581
 21
-13.678991781713478
 31
0.0
  0
LINE
  5
139
100
AcDbEntity
  8
________1________1
370
              18
390
0
  6
Continuous
 62
               7
100
AcDbLine
 10
31.737411641592537
 20
-11.278991781714026
 30
0.0
 11
31.737411641592537
 21
-9.2283821162719022
 31
0.0
  0
LINE
  5
13A
100
AcDbEntity
  8
________1________1
370
              18
390
0
  6
Continuous
 62
               7
100
AcDbLine
 10
32.237411641589581
 20
-8.8789917817146033
 30
0.0
 11
32.237411641589581
 21
-11.278991781714026
 31
0.0
  0
LINE
  5
13B
100
AcDbEntity
  8
________1________1
370
              18
390
0
  6
Continuous
 62
               7
100
AcDbLine
 10
21.237411641592082
 20
-11.278991781714026
 30
0.0
 11
21.237411641592082
 21
-14.178991781716256
 31
0.0
  0
LINE
  5
13C
100
AcDbEntity
  8
________1________1
370
              18
390
0
  6
Continuous
 62
               7
100
AcDbLine
 10
21.237411641592082
 20
-9.2283821162719022
 30
0.0
 11
21.237411641592082
 21
-11.278991781714026
 31
0.0
  0
LINE
  5
13D
100
AcDbEntity
  8
________1________1
370
              18
390
0
  6
Continuous
 62
               7
100
AcDbLine
 10
20.73741164158924
 20
-13.678991781713478
 30
0.0
 11
20.73741164158924
 21
-11.278991781714026
 31
0.0
  0
LINE
  5
13E
100
AcDbEntity
  8
________1________1
370
              18
390
0
  6
Continuous
 62
               7
100
AcDbLine
 10
21.237411641592082
 20
-11.278991781714026
 30
0.0
 11
21.237411641592082
 21
-8.3789917817176018
 31
0.0
  0
LINE
  5
13F
100
AcDbEntity
  8
________1________1
370
              18
390
0
  6
Continuous
 62
               7
100
AcDbLine
 10
21.237411641592082
 20
-13.329601447156179
 30
0.0
 11
21.237411641592082
 21
-11.278991781714026
 31
0.0
  0
LINE
  5
140
100
AcDbEntity
  8
________1________1
370
              18
390
0
  6
Continuous
 62
               7
100
AcDbLine
 10
21.237411641591741
 20
-8.3789917817147028
 30
0.0
 11
31.737411641591741
 21
-8.3789917817147028
 31
0.0
  0
LINE
  5
141
100
AcDbEntity
  8
________1________1
370
              18
390
0
  6
Continuous
 62
               7
100
AcDbLine
 10
31.737411641592537
 20
-13.329601447156179
 30
0.0
 11
31.737411641592537
 21
-14.178991781716256
 31
0.0
  0
LINE
  5
142
100
AcDbEntity
  8
________1________1
370
              18
390
0
  6
Continuous
 62
               7
100
AcDbLine
 10
20.737411641591741
 20
-13.678991781714672
 30
0.0
 11
21.237411641591741
 21
-14.178991781714664
 31
0.0
  0
LINE
  5
143
100
AcDbEntity
  8
________1________1
370
              18
390
0
  6
Continuous
 62
               7
100
AcDbLine
 10
20.73741164158924
 20
-11.278991781714026
 30
0.0
 11
20.73741164158924
 21
-8.8789917817146033
 31
0.0
  0
LINE
  5
144
100
AcDbEntity
  8
________1________1
370
              18
390
0
  6
Continuous
 62
               7
100
AcDbLine
 10
21.237411641592082
 20
-8.3789917817118038
 30
0.0
 11
21.237411641592082
 21
-9.2283821162719022
 31
0.0
  0
ENDBLK
  5
145
100
AcDbEntity
  8
0
390
0
100
AcDbBlockEnd
  0
BLOCK
  5
14A
100
AcDbEntity
  8
0
390
0
100
AcDbBlockBegin
  2
C1
 70
              64
 10
0.0
 20
0.0
 30
0.0
  3
C1
  1

  0
LINE
  5
14B
100
AcDbEntity
  8
________1________1
370
               5
390
0
  6
DASHED
 62
               7
100
AcDbLine
 10
-28.643786219591703
 20
40.432987461026613
 30
0.0
 11
-31.543786219593855
 21
40.432987461026613
 31
0.0
  0
LINE
  5
14C
100
AcDbEntity
  8
________1________1
370
              18
390
0
  6
Continuous
 62
               7
100
AcDbLine
 10
-31.543786219593855
 20
40.432987461026613
 30
0.0
 11
-29.493176554151816
 21
40.432987461026613
 31
0.0
  0
SPLINE
  5
14D
100
AcDbEntity
  8
________1________1
370
              50
390
0
  6
Continuous
 62
               7
100
AcDbSpline
210
0.0
220
0.0
230
1.0
 70
               0
 71
               3
 72
              16
 73
              12
 74
               0
 42
0.0000001
 43
0.0000001
 12
0.5552189879763414
 22
-0.8317041994546662
 32
0.0
 13
0.9998514537054106
 23
0.017235733903061
 33
0.0
 40
0.0
 40
0.0
 40
0.0
 40
0.0
 40
0.0046066758491906
 40
0.0161534128541438
 40
0.0644359842892615
 40
0.1445636654473263
 40
0.2560648949434166
 40
0.3982834638368379
 40
0.5703823822802605
 40
0.7713488065006769
 40
1.0
 40
1.0
 40
1.0
 40
1.0
 10
-52.393786204943318
 20
41.571665824754795
 30
0.0
 10
-52.393334582610542
 20
41.570989305761621
 30
0.0
 10
-52.389695968669763
 20
41.572503309080609
 30
0.0
 10
-52.379441163830016
 20
41.570572510446702
 30
0.0
 10
-52.353567672344262
 20
41.573162629735712
 30
0.0
 10
-52.311893746464044
 20
41.57259019764691
 30
0.0
 10
-52.252654693417945
 20
41.574149431873899
 30
0.0
 10
-52.177593065209031
 20
41.575213820605505
 30
0.0
 10
-52.08658012952818
 20
41.576848759941917
 30
0.0
 10
-51.980363332782154
 20
41.578646930670907
 30
0.0
 10
-51.904512176357422
 20
41.579960085379319
 30
0.0
 10
-51.864144625551113
 20
41.580655953111908
 30
0.0
  0
SPLINE
  5
14E
100
AcDbEntity
  8
________1________1
370
              50
390
0
  6
Continuous
 62
               7
100
AcDbSpline
210
0.0
220
0.0
230
1.0
 70
               0
 71
               3
 72
              16
 73
              12
 74
               0
 42
0.0000001
 43
0.0000001
 12
-0.5552189881074541
 22
-0.8317041993671397
 32
0.0
 13
0.9998439131614383
 23
-0.0176677478480579
 33
0.0
 40
0.0
 40
0.0
 40
0.0
 40
0.0
 40
0.0025643359097893
 40
0.0160815473375245
 40
0.064313154333588
 40
0.1444109034246475
 40
0.2559031007309222
 40
0.3981331608000742
 40
0.5702634780235854
 40
0.7712803604730603
 40
1.0
 40
1.0
 40
1.0
 40
1.0
 10
-52.393786204943318
 20
49.794309097297713
 30
0.0
 10
-52.394037607680239
 20
49.793932502266728
 30
0.0
 10
-52.388701495112251
 20
49.795143958535704
 30
0.0
 10
-52.381907615061856
 20
49.792593372005825
 30
0.0
 10
-52.352283495190441
 20
49.794468229504929
 30
0.0
 10
-52.312591784451534
 20
49.792345908062117
 30
0.0
 10
-52.252494765316293
 20
49.791879350611424
 30
0.0
 10
-52.177759947845139
 20
49.790307016769418
 30
0.0
 10
-52.086611092992563
 20
49.788770329755607
 30
0.0
 10
-51.980408025125449
 20
49.786858098584418
 30
0.0
 10
-51.904524586896251
 20
49.785523518925203
 30
0.0
 10
-51.864144575054716
 20
49.784809983684426
 30
0.0
  0
SPLINE
  5
14F
100
AcDbEntity
  8
________1________1
370
              18
390
0
  6
Continuous
 62
               7
100
AcDbSpline
210
0.0
220
0.0
230
1.0
 70
               0
 71
               3
 72
              16
 73
              12
 74
               0
 42
0.0000001
 43
0.0000001
 12
-0.9998439131609944
 22
-0.0176677478731709
 32
0.0
 13
0.5552189879680678
 23
-0.8317041994601896
 33
0.0
 40
0.0
 40
0.0
 40
0.0
 40
0.0
 40
0.2287196405488066
 40
0.4297365233860022
 40
0.6018668405706723
 40
0.7440969003543685
 40
0.8555890972787414
 40
0.9356868460101024
 40
0.9839184527544167
 40
0.9974356641059161
 40
1.0
 40
1.0
 40
1.0
 40
1.0
 10
-51.864144666042044
 20
41.581164936760295
 30
0.0
 10
-51.904524671127056
 20
41.580451401637895
 30
0.0
 10
-51.980408096569214
 20
41.57911682220162
 30
0.0
 10
-52.086611146433448
 20
41.577204591351396
 30
0.0
 10
-52.177759985639078
 20
41.575667904598411
 30
0.0
 10
-52.25249479014709
 20
41.574095571026412
 30
0.0
 10
-52.312591798773916
 20
41.57362901365331
 30
0.0
 10
-52.352283502529382
 20
41.571506692583817
 30
0.0
 10
-52.381907617167677
 20
41.573381549744106
 30
0.0
 10
-52.388701496015152
 20
41.570830963669117
 30
0.0
 10
-52.394037607635447
 20
41.572042419718819
 30
0.0
 10
-52.393786204943318
 20
41.571665824754795
 30
0.0
  0
SPLINE
  5
150
100
AcDbEntity
  8
________1________1
370
              18
390
0
  6
Continuous
 62
               7
100
AcDbSpline
210
0.0
220
0.0
230
1.0
 70
               0
 71
               3
 72
              17
 73
              13
 74
               0
 42
0.0000001
 43
0.0000001
 12
-0.9998514537054103
 22
0.0172357339030817
 32
0.0
 13
-0.5552189880568967
 23
-0.83170419940089
 33
0.0
 40
0.0
 40
0.0
 40
0.0
 40
0.0
 40
0.2286511932501817
 40
0.4296176172516107
 40
0.6017165355074989
 40
0.7439351042459403
 40
0.8554363336205227
 40
0.9355640146912718
 40
0.9587185895563957
 40
0.9838465871634519
 40
0.9953933241558242
 40
1.0
 40
1.0
 40
1.0
 40
1.0
 10
-51.864144625552818
 20
49.785318968940715
 30
0.0
 10
-51.904512176359013
 20
49.786014836673303
 30
0.0
 10
-51.980358635667777
 20
49.787319168476813
 30
0.0
 10
-52.086593575477274
 20
49.789151418529201
 30
0.0
 10
-52.177553905712976
 20
49.790687545559905
 30
0.0
 10
-52.252762806591896
 20
49.79202856634231
 30
0.0
 10
-52.311620072050765
 20
49.792870663554226
 30
0.0
 10
-52.349708299500627
 20
49.793821755693301
 30
0.0
 10
-52.372161407970417
 20
49.793784897365413
 30
0.0
 10
-52.383187729585153
 20
49.794824265376604
 30
0.0
 10
-52.389691682359363
 20
49.793463561700605
 30
0.0
 10
-52.393334582610429
 20
49.794985616290916
 30
0.0
 10
-52.393786204943318
 20
49.794309097297713
 30
0.0
  0
LINE
  5
151
100
AcDbEntity
  8
________1________1
370
              18
390
0
  6
Continuous
 62
               7
100
AcDbLine
 10
-28.64378621959284
 20
40.432987475476324
 30
0.0
 11
-28.64378621959284
 21
50.932987294427193
 31
0.0
  0
LINE
  5
152
100
AcDbEntity
  8
________1________1
370
              18
390
0
  6
Continuous
 62
               7
100
AcDbLine
 10
-28.643787219831694
 20
50.932987294427193
 30
0.0
 11
-29.143786981413115
 21
51.432987812987591
 31
0.0
  0
LINE
  5
153
100
AcDbEntity
  8
________1________1
370
              18
390
0
  6
Continuous
 62
               7
100
AcDbLine
 10
-29.493176554151816
 20
40.432987461026613
 30
0.0
 11
-28.643786219591703
 21
40.432987461026613
 31
0.0
  0
LINE
  5
154
100
AcDbEntity
  8
________1________1
370
              18
390
0
  6
Continuous
 62
               7
100
AcDbLine
 10
-28.643787219831694
 20
40.432987475476324
 30
0.0
 11
-29.143786981413115
 21
39.932987477339026
 31
0.0
  0
LINE
  5
155
100
AcDbEntity
  8
________1________1
370
              18
390
0
  6
Continuous
 62
               7
100
AcDbLine
 10
-29.143786219594432
 20
39.932987461023828
 30
0.0
 11
-31.543786219593855
 21
39.932987461023828
 31
0.0
  0
LINE
  5
156
100
AcDbEntity
  8
________1________1
370
              18
390
0
  6
Continuous
 62
               7
100
AcDbLine
 10
-49.493786219592799
 20
39.932987461026329
 30
0.0
 11
-31.543786219592832
 21
39.932987461026329
 31
0.0
  0
LINE
  5
157
100
AcDbEntity
  8
________1________1
370
              18
390
0
  6
Continuous
 62
               7
100
AcDbLine
 10
-31.543786219592832
 20
40.432987461026329
 30
0.0
 11
-49.493786219592799
 21
40.432987461026329
 31
0.0
  0
LINE
  5
158
100
AcDbEntity
  8
________1________1
370
              18
390
0
  6
Continuous
 62
               7
100
AcDbLine
 10
-49.493786219592799
 20
50.9329874610263
 30
0.0
 11
-31.543786219592832
 21
50.9329874610263
 31
0.0
  0
LINE
  5
159
100
AcDbEntity
  8
________1________1
370
               5
390
0
  6
DASHED
 62
               7
100
AcDbLine
 10
-31.543786219592832
 20
50.9329874610263
 30
0.0
 11
-49.493786219592799
 21
50.9329874610263
 31
0.0
  0
LINE
  5
15A
100
AcDbEntity
  8
________1________1
370
               5
390
0
  6
DASHED
 62
               7
100
AcDbLine
 10
-49.493786219592799
 20
40.432987461026329
 30
0.0
 11
-31.543786219592832
 21
40.432987461026329
 31
0.0
  0
LINE
  5
15B
100
AcDbEntity
  8
________1________1
370
              18
390
0
  6
Continuous
 62
               7
100
AcDbLine
 10
-31.543786219592832
 20
51.4329874610263
 30
0.0
 11
-49.493786219592799
 21
51.4329874610263
 31
0.0
  0
LINE
  5
15C
100
AcDbEntity
  8
________1________1
370
              18
390
0
  6
Continuous
 62
               7
100
AcDbLine
 10
-51.544395885033474
 20
50.932987461027096
 30
0.0
 11
-49.493786219591321
 21
50.932987461027096
 31
0.0
  0
LINE
  5
15D
100
AcDbEntity
  8
________1________1
370
              18
390
0
  6
Continuous
 62
               7
100
AcDbLine
 10
-52.39378630341033
 20
41.583353399566498
 30
0.0
 11
-52.39378630341033
 21
40.432987475476324
 31
0.0
  0
LINE
  5
15E
100
AcDbEntity
  8
________1________1
370
              18
390
0
  6
Continuous
 62
               7
100
AcDbLine
 10
-52.39378630341033
 20
40.432987475476324
 30
0.0
 11
-51.893786163339392
 21
39.932987477339026
 31
0.0
  0
LINE
  5
15F
100
AcDbEntity
  8
________1________1
370
              18
390
0
  6
Continuous
 62
               7
100
AcDbLine
 10
-52.393786219593572
 20
40.432987461026613
 30
0.0
 11
-49.493786219591321
 21
40.432987461026613
 31
0.0
  0
LINE
  5
160
100
AcDbEntity
  8
________1________1
370
               5
390
0
  6
DASHED
 62
               7
100
AcDbLine
 10
-52.393786219593572
 20
50.932987461027096
 30
0.0
 11
-51.544395885033474
 21
50.932987461027096
 31
0.0
  0
LINE
  5
161
100
AcDbEntity
  8
________1________1
370
              18
390
0
  6
Continuous
 62
               7
100
AcDbLine
 10
-28.643786219591703
 20
50.932987461027096
 30
0.0
 11
-29.493176554151816
 21
50.932987461027096
 31
0.0
  0
LINE
  5
162
100
AcDbEntity
  8
________1________1
370
              18
390
0
  6
Continuous
 62
               7
100
AcDbLine
 10
-29.493176554151816
 20
50.932987461027096
 30
0.0
 11
-31.543786219593855
 21
50.932987461027096
 31
0.0
  0
LINE
  5
163
100
AcDbEntity
  8
________1________1
370
              18
390
0
  6
Continuous
 62
               7
100
AcDbLine
 10
-51.89378621959073
 20
51.432987461023998
 30
0.0
 11
-49.493786219591321
 21
51.432987461023998
 31
0.0
  0
LINE
  5
164
100
AcDbEntity
  8
________1________1
370
              18
390
0
  6
Continuous
 62
               7
100
AcDbLine
 10
-49.493786219591321
 20
39.932987461023828
 30
0.0
 11
-51.89378621959073
 21
39.932987461023828
 31
0.0
  0
LINE
  5
165
100
AcDbEntity
  8
________1________1
370
              18
390
0
  6
Continuous
 62
               7
100
AcDbLine
 10
-51.864144631858458
 20
49.785318969049428
 30
0.0
 11
-51.864144631858458
 21
41.580655953003195
 31
0.0
  0
LINE
  5
166
100
AcDbEntity
  8
________1________1
370
              18
390
0
  6
Continuous
 62
               7
100
AcDbLine
 10
-49.493786219591321
 20
50.932987461027096
 30
0.0
 11
-52.393786219593572
 21
50.932987461027096
 31
0.0
  0
LINE
  5
167
100
AcDbEntity
  8
________1________1
370
              18
390
0
  6
Continuous
 62
               7
100
AcDbLine
 10
-52.39378630341033
 20
50.932987294427193
 30
0.0
 11
-51.893786163339392
 21
51.432987812987591
 31
0.0
  0
LINE
  5
168
100
AcDbEntity
  8
________1________1
370
              18
390
0
  6
Continuous
 62
               7
100
AcDbLine
 10
-52.39378630341033
 20
50.932987294427193
 30
0.0
 11
-52.39378630341033
 21
49.782621464959504
 31
0.0
  0
LINE
  5
169
100
AcDbEntity
  8
________1________1
370
              18
390
0
  6
Continuous
 62
               7
100
AcDbLine
 10
-31.543786219593855
 20
51.432987461023998
 30
0.0
 11
-29.143786219594432
 21
51.432987461023998
 31
0.0
  0
ENDBLK
  5
16A
100
AcDbEntity
  8
0
390
0
100
AcDbBlockEnd
  0
BLOCK
  5
19B
100
AcDbEntity
  8
0
390
0
100
AcDbBlockBegin
  2
*D2
 70
              65
 10
0.0
 20
0.0
 30
0.0
  3
*D2
  1

  0
LINE
  5
19C
100
AcDbEntity
  8
____1
370
              18
390
0
  6
Continuous
 62
               7
100
AcDbLine
 10
-19.143786981413214
 20
51.432987812987591
 30
0.0
 11
-19.143786981413214
 21
39.932987477338997
 31
0.0
  0
LINE
  5
19D
100
AcDbEntity
  8
____1
370
              18
390
0
  6
Continuous
 62
               7
100
AcDbLine
 10
-28.1437869814132
 20
39.932987477338997
 30
0.0
 11
-17.143786981413214
 21
39.932987477338997
 31
0.0
  0
LINE
  5
19E
100
AcDbEntity
  8
____1
370
              18
390
0
  6
Continuous
 62
               7
100
AcDbLine
 10
-28.1437869814132
 20
51.432987812987591
 30
0.0
 11
-17.143786981413214
 21
51.432987812987591
 31
0.0
  0
SOLID
  5
19F
100
AcDbEntity
  8
____1
370
               5
390
0
  6
Continuous
 62
               7
100
AcDbTrace
 10
-19.143786981413214
 20
51.432987812987591
 30
0.0
 11
-19.143786981413214
 21
51.432987812987591
 31
0.0
 12
-19.62907271058306
 22
53.244098667136456
 32
0.0
 13
-18.658501252243369
 23
53.244098667136456
 33
0.0
  0
SOLID
  5
1A0
100
AcDbEntity
  8
____1
370
               5
390
0
  6
Continuous
 62
               7
100
AcDbTrace
 10
-19.62907271058306
 20
53.244098667136456
 30
0.0
 11
-19.143786981413214
 21
53.244098667136456
 31
0.0
 12
-19.790834620306342
 22
53.847802285186077
 32
0.0
 13
-19.790834620306342
 23
53.847802285186077
 33
0.0
  0
SOLID
  5
1A1
100
AcDbEntity
  8
____1
370
               5
390
0
  6
Continuous
 62
               7
100
AcDbTrace
 10
-19.143786981413214
 20
53.244098667136456
 30
0.0
 11
-18.658501252243369
 21
53.244098667136456
 31
0.0
 12
-18.496739342520087
 22
53.847802285186077
 32
0.0
 13
-18.496739342520087
 23
53.847802285186077
 33
0.0
  0
LINE
  5
1A2
100
AcDbEntity
  8
____1
370
              18
390
0
  6
Continuous
 62
               7
100
AcDbLine
 10
-19.143786981413214
 20
51.432987812987591
 30
0.0
 11
-19.143786981413214
 21
56.432987812987591
 31
0.0
  0
SOLID
  5
1A3
100
AcDbEntity
  8
____1
370
               5
390
0
  6
Continuous
 62
               7
100
AcDbTrace
 10
-19.790834620306342
 20
37.518173005140511
 30
0.0
 11
-19.790834620306342
 21
37.518173005140511
 31
0.0
 12
-19.62907271058306
 22
38.121876623190133
 32
0.0
 13
-19.143786981413214
 23
38.121876623190133
 33
0.0
  0
SOLID
  5
1A4
100
AcDbEntity
  8
____1
370
               5
390
0
  6
Continuous
 62
               7
100
AcDbTrace
 10
-18.496739342520087
 20
37.518173005140511
 30
0.0
 11
-18.496739342520087
 21
37.518173005140511
 31
0.0
 12
-19.143786981413214
 22
38.121876623190133
 32
0.0
 13
-18.658501252243369
 23
38.121876623190133
 33
0.0
  0
SOLID
  5
1A5
100
AcDbEntity
  8
____1
370
               5
390
0
  6
Continuous
 62
               7
100
AcDbTrace
 10
-19.62907271058306
 20
38.121876623190133
 30
0.0
 11
-18.658501252243369
 21
38.121876623190133
 31
0.0
 12
-19.143786981413214
 22
39.932987477338997
 32
0.0
 13
-19.143786981413214
 23
39.932987477338997
 33
0.0
  0
LINE
  5
1A6
100
AcDbEntity
  8
____1
370
              18
390
0
  6
Continuous
 62
               7
100
AcDbLine
 10
-19.143786981413214
 20
39.932987477338997
 30
0.0
 11
-19.143786981413214
 21
34.932987477338997
 31
0.0
  0
MTEXT
  5
1A7
100
AcDbEntity
  8
寸法線_1
370
              18
390
0
  6
Continuous
 62
               7
100
AcDbMText
 10
-23.671564653227179
 20
42.155209973349329
 30
0.0
 40
3.5277776718139648
 41
7.0831161066889763
 71
               1
 72
               1
  1
11.5
  7
Style1
 11
0.0
 21
1.0
 31
0.0
 73
               1
 44
1.0
  0
ENDBLK
  5
1A8
100
AcDbEntity
  8
0
390
0
100
AcDbBlockEnd
  0
BLOCK
  5
1BF
100
AcDbEntity
  8
0
390
0
100
AcDbBlockBegin
  2
C2
 70
               0
 10
0.0
 20
0.0
 30
0.0
  3
C2
  1

  0
CIRCLE
  5
1C0
100
AcDbEntity
  8
____1
370
               5
390
0
  6
Continuous
 62
               7
100
AcDbCircle
 10
1251.9031207038718
 20
-337.60833333333335
 30
0.0
 40
4.0
  0
MTEXT
  5
1C1
100
AcDbEntity
  8
____1
370
               5
390
0
  6
Continuous
 62
               7
100
AcDbMText
 10
-76.710464339081909
 20
-34.736111164093018
 30
0.0
 40
3.5277776718139648
 41
1.7638888359069824
 71
               1
 72
               1
  1
1
  7
Style1
 73
               1
 44
1.0
  0
LINE
  5
1C2
100
AcDbEntity
  8
寸法線_1
370
               5
390
0
  6
Continuous
 62
               7
100
AcDbLine
 10
-69.161853254461676
 20
-36.5
 30
0.0
 11
-71.828519921128418
 21
-36.5
 31
0.0
  0
LINE
  5
1C3
100
AcDbEntity
  8
寸法線_1
370
               5
390
0
  6
Continuous
 62
               7
100
AcDbLine
 10
-52.576881317374273
 20
-19.91502806291254
 30
0.0
 11
-69.161853254461676
 21
-36.5
 31
0.0
  0
SOLID
  5
1C4
100
AcDbEntity
  8
寸法線_1
390
0
 62
               7
100
AcDbTrace
 10
-52.576881317374273
 20
-19.91502806291254
 30
0.0
 11
-53.720710704200641
 21
-20.601325695008367
 31
0.0
 12
-52.576881317374273
 22
-19.91502806291254
 32
0.0
 13
-53.263178949470095
 23
-20.601325695008363
 33
0.0
  0
SOLID
  5
1C5
100
AcDbEntity
  8
寸法線_1
390
0
 62
               7
100
AcDbTrace
 10
-53.263178949470095
 20
-20.601325695008363
 30
0.0
 11
-53.263178949470088
 21
-21.058857449738912
 31
0.0
 12
-52.576881317374273
 22
-19.91502806291254
 32
0.0
 13
-52.576881317374273
 23
-19.91502806291254
 33
0.0
  0
ENDBLK
  5
1C6
100
AcDbEntity
  8
0
390
0
100
AcDbBlockEnd
  0
BLOCK
  5
1C9
100
AcDbEntity
  8
0
390
0
100
AcDbBlockBegin
  2
*D4
 70
              65
 10
0.0
 20
0.0
 30
0.0
  3
*D4
  1

  0
LINE
  5
1CA
100
AcDbEntity
  8
____1
370
              18
390
0
  6
Continuous
 62
               7
100
AcDbLine
 10
-62.576878029749196
 20
40.682987461039716
 30
0.0
 11
-62.576878029749196
 21
50.682987461008111
 31
0.0
  0
LINE
  5
1CB
100
AcDbEntity
  8
____1
370
              18
390
0
  6
Continuous
 62
               7
100
AcDbLine
 10
-53.576878029749196
 20
50.682987461008111
 30
0.0
 11
-64.576878029749196
 21
50.682987461008111
 31
0.0
  0
LINE
  5
1CC
100
AcDbEntity
  8
____1
370
              18
390
0
  6
Continuous
 62
               7
100
AcDbLine
 10
-53.576878029749196
 20
40.682987461039716
 30
0.0
 11
-64.576878029749196
 21
40.682987461039716
 31
0.0
  0
SOLID
  5
1CD
100
AcDbEntity
  8
____1
370
               5
390
0
  6
Continuous
 62
               7
100
AcDbTrace
 10
-63.223925668642323
 20
38.268172988841229
 30
0.0
 11
-63.223925668642323
 21
38.268172988841229
 31
0.0
 12
-63.062163758919041
 22
38.871876606890851
 32
0.0
 13
-62.576878029749196
 23
38.871876606890851
 33
0.0
  0
SOLID
  5
1CE
100
AcDbEntity
  8
____1
370
               5
390
0
  6
Continuous
 62
               7
100
AcDbTrace
 10
-61.929830390856068
 20
38.268172988841229
 30
0.0
 11
-61.929830390856068
 21
38.268172988841229
 31
0.0
 12
-62.576878029749196
 22
38.871876606890851
 32
0.0
 13
-62.09159230057935
 23
38.871876606890851
 33
0.0
  0
SOLID
  5
1CF
100
AcDbEntity
  8
____1
370
               5
390
0
  6
Continuous
 62
               7
100
AcDbTrace
 10
-63.062163758919041
 20
38.871876606890851
 30
0.0
 11
-62.09159230057935
 21
38.871876606890851
 31
0.0
 12
-62.576878029749196
 22
40.682987461039716
 32
0.0
 13
-62.576878029749196
 23
40.682987461039716
 33
0.0
  0
LINE
  5
1D0
100
AcDbEntity
  8
____1
370
              18
390
0
  6
Continuous
 62
               7
100
AcDbLine
 10
-62.576878029749196
 20
40.682987461039716
 30
0.0
 11
-62.576878029749196
 21
35.682987461039716
 31
0.0
  0
SOLID
  5
1D1
100
AcDbEntity
  8
____1
370
               5
390
0
  6
Continuous
 62
               7
100
AcDbTrace
 10
-62.576878029749196
 20
50.682987461008111
 30
0.0
 11
-62.576878029749196
 21
50.682987461008111
 31
0.0
 12
-63.062163758919041
 22
52.494098315156975
 32
0.0
 13
-62.09159230057935
 23
52.494098315156975
 33
0.0
  0
SOLID
  5
1D2
100
AcDbEntity
  8
____1
370
               5
390
0
  6
Continuous
 62
               7
100
AcDbTrace
 10
-63.062163758919041
 20
52.494098315156975
 30
0.0
 11
-62.576878029749196
 21
52.494098315156975
 31
0.0
 12
-63.223925668642323
 22
53.097801933206597
 32
0.0
 13
-63.223925668642323
 23
53.097801933206597
 33
0.0
  0
SOLID
  5
1D3
100
AcDbEntity
  8
____1
370
               5
390
0
  6
Continuous
 62
               7
100
AcDbTrace
 10
-62.576878029749196
 20
52.494098315156975
 30
0.0
 11
-62.09159230057935
 21
52.494098315156975
 31
0.0
 12
-61.929830390856068
 22
53.097801933206597
 32
0.0
 13
-61.929830390856068
 23
53.097801933206597
 33
0.0
  0
LINE
  5
1D4
100
AcDbEntity
  8
____1
370
              18
390
0
  6
Continuous
 62
               7
100
AcDbLine
 10
-62.576878029749196
 20
50.682987461008111
 30
0.0
 11
-62.576878029749196
 21
55.682987461008111
 31
0.0
  0
MTEXT
  5
1D5
100
AcDbEntity
  8
____1
370
              18
390
0
  6
Continuous
 62
               7
100
AcDbMText
 10
-67.104655701563161
 20
43.919098625116931
 30
0.0
 40
3.5277776718139648
 41
3.5415580533444881
 71
               1
 72
               1
  1
10
  7
Style1
 11
0.0
 21
1.0
 31
0.0
 73
               1
 44
1.0
  0
ENDBLK
  5
1D6
100
AcDbEntity
  8
0
390
0
100
AcDbBlockEnd
  0
BLOCK
  5
1FC
100
AcDbEntity
  8
0
390
0
100
AcDbBlockBegin
  2
*D5
 70
              65
 10
0.0
 20
0.0
 30
0.0
  3
*D5
  1

  0
LINE
  5
1FD
100
AcDbEntity
  8
____1
370
              18
390
0
  6
Continuous
 62
               7
100
AcDbLine
 10
-28.741624169729334
 20
-10.278991781714808
 30
0.0
 11
-28.741624169729334
 21
8.5329222807851473
 31
0.0
  0
LINE
  5
1FE
100
AcDbEntity
  8
____1
370
              18
390
0
  6
Continuous
 62
               7
100
AcDbLine
 10
-54.87690439865235
 20
-9.9650280629126087
 30
0.0
 11
-54.87690439865235
 21
8.5329222807851473
 31
0.0
  0
SOLID
  5
1FF
100
AcDbEntity
  8
____1
370
               5
390
0
  6
Continuous
 62
               7
100
AcDbTrace
 10
-52.462089926453864
 20
5.8858746418920198
 30
0.0
 11
-52.462089926453864
 21
5.8858746418920198
 31
0.0
 12
-54.87690439865235
 22
6.5329222807851473
 32
0.0
 13
-53.065793544503485
 23
6.5329222807851473
 33
0.0
  0
SOLID
  5
200
100
AcDbEntity
  8
____1
370
               5
390
0
  6
Continuous
 62
               7
100
AcDbTrace
 10
-54.87690439865235
 20
6.5329222807851473
 30
0.0
 11
-53.065793544503485
 21
6.5329222807851473
 31
0.0
 12
-52.462089926453864
 22
7.1799699196782747
 32
0.0
 13
-52.462089926453864
 23
7.1799699196782747
 33
0.0
  0
LINE
  5
201
100
AcDbEntity
  8
____1
370
              18
390
0
  6
Continuous
 62
               7
100
AcDbLine
 10
-54.87690439865235
 20
6.5329222807851473
 30
0.0
 11
-41.809264284190867
 21
6.5329222807851473
 31
0.0
  0
SOLID
  5
202
100
AcDbEntity
  8
____1
370
               5
390
0
  6
Continuous
 62
               7
100
AcDbTrace
 10
-31.156438641927821
 20
5.8858746418920198
 30
0.0
 11
-31.156438641927821
 21
5.8858746418920198
 31
0.0
 12
-30.552735023878199
 22
6.5329222807851473
 32
0.0
 13
-28.741624169729334
 23
6.5329222807851473
 33
0.0
  0
SOLID
  5
203
100
AcDbEntity
  8
____1
370
               5
390
0
  6
Continuous
 62
               7
100
AcDbTrace
 10
-30.552735023878199
 20
6.5329222807851473
 30
0.0
 11
-28.741624169729334
 21
6.5329222807851473
 31
0.0
 12
-31.156438641927821
 22
7.1799699196782747
 32
0.0
 13
-31.156438641927821
 23
7.1799699196782747
 33
0.0
  0
LINE
  5
204
100
AcDbEntity
  8
____1
370
              18
390
0
  6
Continuous
 62
               7
100
AcDbLine
 10
-28.741624169729334
 20
6.5329222807851473
 30
0.0
 11
-41.809264284190867
 21
6.5329222807851473
 31
0.0
  0
MTEXT
  5
205
100
AcDbEntity
  8
寸法線_1
370
              18
390
0
  6
Continuous
 62
               7
100
AcDbMText
 10
-45.337041956004832
 20
11.060699952599112
 30
0.0
 40
3.5277776718139648
 41
7.0831161066889763
 71
               1
 72
               1
  1
23.1
  7
Style1
 73
               1
 44
1.0
  0
ENDBLK
  5
206
100
AcDbEntity
  8
0
390
0
100
AcDbBlockEnd
  0
BLOCK
  5
209
100
AcDbEntity
  8
0
390
0
100
AcDbBlockBegin
  2
*D6
 70
              65
 10
0.0
 20
0.0
 30
0.0
  3
*D6
  1

  0
LINE
  5
20A
100
AcDbEntity
  8
____1
370
              18
390
0
  6
Continuous
 62
               7
100
AcDbLine
 10
-28.741624169729334
 20
-10.278991781714808
 30
0.0
 11
-28.741624169729334
 21
0.721008218285192
 31
0.0
  0
LINE
  5
20B
100
AcDbEntity
  8
____1
370
              18
390
0
  6
Continuous
 62
               7
100
AcDbLine
 10
-52.491624169729384
 20
-10.278991781714808
 30
0.0
 11
-52.491624169729384
 21
0.721008218285192
 31
0.0
  0
SOLID
  5
20C
100
AcDbEntity
  8
____1
370
               5
390
0
  6
Continuous
 62
               7
100
AcDbTrace
 10
-50.076809697530898
 20
-1.9260394206079354
 30
0.0
 11
-50.076809697530898
 21
-1.9260394206079354
 31
0.0
 12
-52.491624169729384
 22
-1.278991781714808
 32
0.0
 13
-50.680513315580519
 23
-1.278991781714808
 33
0.0
  0
SOLID
  5
20D
100
AcDbEntity
  8
____1
370
               5
390
0
  6
Continuous
 62
               7
100
AcDbTrace
 10
-52.491624169729384
 20
-1.278991781714808
 30
0.0
 11
-50.680513315580519
 21
-1.278991781714808
 31
0.0
 12
-50.076809697530898
 22
-0.6319441428216805
 32
0.0
 13
-50.076809697530898
 23
-0.6319441428216805
 33
0.0
  0
LINE
  5
20E
100
AcDbEntity
  8
____1
370
              18
390
0
  6
Continuous
 62
               7
100
AcDbLine
 10
-52.491624169729384
 20
-1.278991781714808
 30
0.0
 11
-40.616624169729384
 21
-1.278991781714808
 31
0.0
  0
SOLID
  5
20F
100
AcDbEntity
  8
____1
370
               5
390
0
  6
Continuous
 62
               7
100
AcDbTrace
 10
-31.156438641927821
 20
-1.9260394206079354
 30
0.0
 11
-31.156438641927821
 21
-1.9260394206079354
 31
0.0
 12
-30.552735023878199
 22
-1.278991781714808
 32
0.0
 13
-28.741624169729334
 23
-1.278991781714808
 33
0.0
  0
SOLID
  5
210
100
AcDbEntity
  8
____1
370
               5
390
0
  6
Continuous
 62
               7
100
AcDbTrace
 10
-30.552735023878199
 20
-1.278991781714808
 30
0.0
 11
-28.741624169729334
 21
-1.278991781714808
 31
0.0
 12
-31.156438641927821
 22
-0.6319441428216805
 32
0.0
 13
-31.156438641927821
 23
-0.6319441428216805
 33
0.0
  0
LINE
  5
211
100
AcDbEntity
  8
____1
370
              18
390
0
  6
Continuous
 62
               7
100
AcDbLine
 10
-28.741624169729334
 20
-1.278991781714808
 30
0.0
 11
-40.616624169729384
 21
-1.278991781714808
 31
0.0
  0
MTEXT
  5
212
100
AcDbEntity
  8
寸法線_1
370
              18
390
0
  6
Continuous
 62
               7
100
AcDbMText
 10
-44.144401841543349
 20
3.2487858900991564
 30
0.0
 40
3.5277776718139648
 41
7.0831161066889763
 71
               1
 72
               1
  1
23.8
  7
Style1
 73
               1
 44
1.0
  0
ENDBLK
  5
213
100
AcDbEntity
  8
0
390
0
100
AcDbBlockEnd
  0
BLOCK
  5
21A
100
AcDbEntity
  8
0
390
0
100
AcDbBlockBegin
  2
*D7
 70
              65
 10
0.0
 20
0.0
 30
0.0
  3
*D7
  1

  0
LINE
  5
21B
100
AcDbEntity
  8
____1
370
              18
390
0
  6
Continuous
 62
               7
100
AcDbLine
 10
-62.576885406858764
 20
-22.465028062912552
 30
0.0
 11
-62.576885406858764
 21
-8.3789917817148307
 31
0.0
  0
LINE
  5
21C
100
AcDbEntity
  8
____1
370
              18
390
0
  6
Continuous
 62
               7
100
AcDbLine
 10
-50.591624169729357
 20
-8.3789917817148307
 30
0.0
 11
-64.576885406858764
 21
-8.3789917817148307
 31
0.0
  0
LINE
  5
21D
100
AcDbEntity
  8
____1
370
              18
390
0
  6
Continuous
 62
               7
100
AcDbLine
 10
-53.576885406858764
 20
-22.465028062912552
 30
0.0
 11
-64.576885406858764
 21
-22.465028062912552
 31
0.0
  0
SOLID
  5
21E
100
AcDbEntity
  8
____1
370
               5
390
0
  6
Continuous
 62
               7
100
AcDbTrace
 10
-63.223933045751892
 20
-24.879842535111038
 30
0.0
 11
-63.223933045751892
 21
-24.879842535111038
 31
0.0
 12
-63.06217113602861
 22
-24.276138917061417
 32
0.0
 13
-62.576885406858764
 23
-24.276138917061417
 33
0.0
  0
SOLID
  5
21F
100
AcDbEntity
  8
____1
370
               5
390
0
  6
Continuous
 62
               7
100
AcDbTrace
 10
-61.929837767965637
 20
-24.879842535111038
 30
0.0
 11
-61.929837767965637
 21
-24.879842535111038
 31
0.0
 12
-62.576885406858764
 22
-24.276138917061417
 32
0.0
 13
-62.091599677688919
 23
-24.276138917061417
 33
0.0
  0
SOLID
  5
220
100
AcDbEntity
  8
____1
370
               5
390
0
  6
Continuous
 62
               7
100
AcDbTrace
 10
-63.06217113602861
 20
-24.276138917061417
 30
0.0
 11
-62.091599677688919
 21
-24.276138917061417
 31
0.0
 12
-62.576885406858764
 22
-22.465028062912552
 32
0.0
 13
-62.576885406858764
 23
-22.465028062912552
 33
0.0
  0
LINE
  5
221
100
AcDbEntity
  8
____1
370
              18
390
0
  6
Continuous
 62
               7
100
AcDbLine
 10
-62.576885406858764
 20
-22.465028062912552
 30
0.0
 11
-62.576885406858764
 21
-27.465028062912552
 31
0.0
  0
SOLID
  5
222
100
AcDbEntity
  8
____1
370
               5
390
0
  6
Continuous
 62
               7
100
AcDbTrace
 10
-62.576885406858764
 20
-8.3789917817148307
 30
0.0
 11
-62.576885406858764
 21
-8.3789917817148307
 31
0.0
 12
-63.06217113602861
 22
-6.567880927565966
 32
0.0
 13
-62.091599677688919
 23
-6.567880927565966
 33
0.0
  0
SOLID
  5
223
100
AcDbEntity
  8
____1
370
               5
390
0
  6
Continuous
 62
               7
100
AcDbTrace
 10
-63.06217113602861
 20
-6.567880927565966
 30
0.0
 11
-62.576885406858764
 21
-6.567880927565966
 31
0.0
 12
-63.223933045751892
 22
-5.9641773095163444
 32
0.0
 13
-63.223933045751892
 23
-5.9641773095163444
 33
0.0
  0
SOLID
  5
224
100
AcDbEntity
  8
____1
370
               5
390
0
  6
Continuous
 62
               7
100
AcDbTrace
 10
-62.576885406858764
 20
-6.567880927565966
 30
0.0
 11
-62.091599677688919
 21
-6.567880927565966
 31
0.0
 12
-61.929837767965637
 22
-5.9641773095163444
 32
0.0
 13
-61.929837767965637
 23
-5.9641773095163444
 33
0.0
  0
LINE
  5
225
100
AcDbEntity
  8
____1
370
              18
390
0
  6
Continuous
 62
               7
100
AcDbLine
 10
-62.576885406858764
 20
-8.3789917817148307
 30
0.0
 11
-62.576885406858764
 21
-3.3789917817148307
 31
0.0
  0
MTEXT
  5
226
100
AcDbEntity
  8
____1
370
              18
390
0
  6
Continuous
 62
               7
100
AcDbMText
 10
-67.104663078672729
 20
-18.949787594127656
 30
0.0
 40
3.5277776718139648
 41
7.0831161066889763
 71
               1
 72
               1
  1
13.7
  7
Style1
 11
0.0
 21
1.0
 31
0.0
 73
               1
 44
1.0
  0
ENDBLK
  5
227
100
AcDbEntity
  8
0
390
0
100
AcDbBlockEnd
  0
BLOCK
  5
22A
100
AcDbEntity
  8
0
390
0
100
AcDbBlockBegin
  2
*D8
 70
              65
 10
0.0
 20
0.0
 30
0.0
  3
*D8
  1

  0
LINE
  5
22B
100
AcDbEntity
  8
____1
370
              18
390
0
  6
Continuous
 62
               7
100
AcDbLine
 10
-18.933193180145977
 20
-8.378991781714717
 30
0.0
 11
-18.933193180145977
 21
-14.178991781714899
 31
0.0
  0
LINE
  5
22C
100
AcDbEntity
  8
____1
370
              18
390
0
  6
Continuous
 62
               7
100
AcDbLine
 10
-30.64162416972944
 20
-14.178991781714899
 30
0.0
 11
-16.933193180145977
 21
-14.178991781714899
 31
0.0
  0
LINE
  5
22D
100
AcDbEntity
  8
____1
370
              18
390
0
  6
Continuous
 62
               7
100
AcDbLine
 10
-30.64162416972944
 20
-8.378991781714717
 30
0.0
 11
-16.933193180145977
 21
-8.378991781714717
 31
0.0
  0
SOLID
  5
22E
100
AcDbEntity
  8
____1
370
               5
390
0
  6
Continuous
 62
               7
100
AcDbTrace
 10
-18.933193180145977
 20
-8.378991781714717
 30
0.0
 11
-18.933193180145977
 21
-8.378991781714717
 31
0.0
 12
-19.418478909315823
 22
-6.5678809275658523
 32
0.0
 13
-18.447907450976132
 23
-6.5678809275658523
 33
0.0
  0
SOLID
  5
22F
100
AcDbEntity
  8
____1
370
               5
390
0
  6
Continuous
 62
               7
100
AcDbTrace
 10
-19.418478909315823
 20
-6.5678809275658523
 30
0.0
 11
-18.933193180145977
 21
-6.5678809275658523
 31
0.0
 12
-19.580240819039105
 22
-5.9641773095162307
 32
0.0
 13
-19.580240819039105
 23
-5.9641773095162307
 33
0.0
  0
SOLID
  5
230
100
AcDbEntity
  8
____1
370
               5
390
0
  6
Continuous
 62
               7
100
AcDbTrace
 10
-18.933193180145977
 20
-6.5678809275658523
 30
0.0
 11
-18.447907450976132
 21
-6.5678809275658523
 31
0.0
 12
-18.28614554125285
 22
-5.9641773095162307
 32
0.0
 13
-18.28614554125285
 23
-5.9641773095162307
 33
0.0
  0
LINE
  5
231
100
AcDbEntity
  8
____1
370
              18
390
0
  6
Continuous
 62
               7
100
AcDbLine
 10
-18.933193180145977
 20
-8.378991781714717
 30
0.0
 11
-18.933193180145977
 21
-3.378991781714717
 31
0.0
  0
SOLID
  5
232
100
AcDbEntity
  8
____1
370
               5
390
0
  6
Continuous
 62
               7
100
AcDbTrace
 10
-19.580240819039105
 20
-16.593806253913385
 30
0.0
 11
-19.580240819039105
 21
-16.593806253913385
 31
0.0
 12
-19.418478909315823
 22
-15.990102635863764
 32
0.0
 13
-18.933193180145977
 23
-15.990102635863764
 33
0.0
  0
SOLID
  5
233
100
AcDbEntity
  8
____1
370
               5
390
0
  6
Continuous
 62
               7
100
AcDbTrace
 10
-18.28614554125285
 20
-16.593806253913385
 30
0.0
 11
-18.28614554125285
 21
-16.593806253913385
 31
0.0
 12
-18.933193180145977
 22
-15.990102635863764
 32
0.0
 13
-18.447907450976132
 23
-15.990102635863764
 33
0.0
  0
SOLID
  5
234
100
AcDbEntity
  8
____1
370
               5
390
0
  6
Continuous
 62
               7
100
AcDbTrace
 10
-19.418478909315823
 20
-15.990102635863764
 30
0.0
 11
-18.447907450976132
 21
-15.990102635863764
 31
0.0
 12
-18.933193180145977
 22
-14.178991781714899
 32
0.0
 13
-18.933193180145977
 23
-14.178991781714899
 33
0.0
  0
LINE
  5
235
100
AcDbEntity
  8
____1
370
              18
390
0
  6
Continuous
 62
               7
100
AcDbLine
 10
-18.933193180145977
 20
-14.178991781714899
 30
0.0
 11
-18.933193180145977
 21
-19.178991781714899
 31
0.0
  0
MTEXT
  5
236
100
AcDbEntity
  8
寸法線_1
370
              18
390
0
  6
Continuous
 62
               7
100
AcDbMText
 10
-23.460970851959942
 20
-13.924825035575282
 30
0.0
 40
3.5277776718139648
 41
5.3123370800167322
 71
               1
 72
               1
  1
5.8
  7
Style1
 11
0.0
 21
1.0
 31
0.0
 73
               1
 44
1.0
  0
ENDBLK
  5
237
100
AcDbEntity
  8
0
390
0
100
AcDbBlockEnd
  0
BLOCK
  5
23A
100
AcDbEntity
  8
0
390
0
100
AcDbBlockBegin
  2
C3
 70
               0
 10
0.0
 20
0.0
 30
0.0
  3
C3
  1

  0
CIRCLE
  5
23B
100
AcDbEntity
  8
____1
370
               5
390
0
  6
Continuous
 62
               7
100
AcDbCircle
 10
1318.6483072916669
 20
-337.60833333333335
 30
0.0
 40
4.0
  0
MTEXT
  5
23C
100
AcDbEntity
  8
____1
370
               5
390
0
  6
Continuous
 62
               7
100
AcDbMText
 10
-9.9652777512867488
 20
-34.736111164093018
 30
0.0
 40
3.5277776718139648
 41
1.7638888359069824
 71
               1
 72
               1
  1
2
  7
Style1
 73
               1
 44
1.0
  0
LINE
  5
23D
100
AcDbEntity
  8
寸法線_1
370
               5
390
0
  6
Continuous
 62
               7
100
AcDbLine
 10
-15.75
 20
-36.5
 30
0.0
 11
-13.083333333333258
 21
-36.5
 31
0.0
  0
LINE
  5
23E
100
AcDbEntity
  8
寸法線_1
370
               5
390
0
  6
Continuous
 62
               7
100
AcDbLine
 10
-34.239150858408266
 20
-14.178991781714899
 30
0.0
 11
-15.75
 21
-36.5
 31
0.0
  0
SOLID
  5
23F
100
AcDbEntity
  8
寸法線_1
390
0
 62
               7
100
AcDbTrace
 10
-34.239150858408266
 20
-14.178991781714899
 30
0.0
 11
-33.662787829991402
 21
-15.381969655768314
 31
0.0
 12
-34.239150858408266
 22
-14.178991781714899
 32
0.0
 13
-33.62001615469282
 23
-14.926441511326098
 33
0.0
  0
SOLID
  5
240
100
AcDbEntity
  8
寸法線_1
390
0
 62
               7
100
AcDbTrace
 10
-33.62001615469282
 20
-14.926441511326098
 30
0.0
 11
-33.164488010250608
 21
-14.969213186624684
 31
0.0
 12
-34.239150858408266
 22
-14.178991781714899
 32
0.0
 13
-34.239150858408266
 23
-14.178991781714899
 33
0.0
  0
ENDBLK
  5
241
100
AcDbEntity
  8
0
390
0
100
AcDbBlockEnd
  0
ENDSEC
  0
SECTION
  2
ENTITIES
  0
LINE
  5
3E
100
AcDbEntity
  8
____1
370
              18
390
0
  6
Continuous
 62
               7
100
AcDbLine
 10
51.093751255549023
 20
81.480064520104804
 30
0.0
 11
53.568751255549159
 21
77.193238771371909
 31
0.0
  0
LINE
  5
3F
100
AcDbEntity
  8
____1
370
              18
390
0
  6
Continuous
 62
               7
100
AcDbLine
 10
48.618751255549
 20
77.193238771371909
 30
0.0
 11
53.568751255549159
 21
77.193238771371909
 31
0.0
  0
LINE
  5
40
100
AcDbEntity
  8
____1
370
              18
390
0
  6
Continuous
 62
               7
100
AcDbLine
 10
47.378036641591734
 20
76.712447020368529
 30
0.0
 11
47.378036641591734
 21
91.712447020368529
 31
0.0
  0
MTEXT
  5
41
100
AcDbEntity
  8
____1
370
               5
390
0
  6
Continuous
 62
               7
100
AcDbMText
 10
55.378036641591734
 20
90.797447020368494
 30
0.0
 40
3.1749999523162842
 41
16.0
 71
               1
 72
               1
  1
改訂日
  7
Style1
 73
               1
 44
1.0
  0
MTEXT
  5
43
100
AcDbEntity
  8
____1
370
               5
390
0
  6
DOT
 62
               7
100
AcDbMText
 10
47.378036641591734
 20
90.797447020368494
 30
0.0
 40
3.1749999523162842
 41
8.0
 71
               1
 72
               1
  1
副番
  7
Style1
 73
               1
 44
1.0
  0
MTEXT
  5
44
100
AcDbEntity
  8
____
370
               5
390
0
  6
Continuous
 62
               7
100
AcDbMText
 10
49.511008230759103
 20
85.19305476118808
 30
0.0
 40
3.174999961853028
 41
3.1654860495798762
 71
               1
 72
               1
  1
1
  7
Style1
 73
               1
 44
1.0
  0
LINE
  5
45
100
AcDbEntity
  8
____1
370
              18
390
0
  6
Continuous
 62
               7
100
AcDbLine
 10
51.093751255549023
 20
86.430064520104736
 30
0.0
 11
53.568751255549159
 21
82.143238771371728
 31
0.0
  0
LINE
  5
46
100
AcDbEntity
  8
____1
370
              18
390
0
  6
Continuous
 62
               7
100
AcDbLine
 10
51.093751255549023
 20
86.430064520104736
 30
0.0
 11
48.618751255549
 21
82.143238771371728
 31
0.0
  0
LINE
  5
47
100
AcDbEntity
  8
____1
370
              18
390
0
  6
Continuous
 62
               7
100
AcDbLine
 10
51.093751255549023
 20
81.480064520104804
 30
0.0
 11
48.618751255549
 21
77.193238771371909
 31
0.0
  0
LINE
  5
48
100
AcDbEntity
  8
____1
370
              18
390
0
  6
Continuous
 62
               7
100
AcDbLine
 10
71.378036641591734
 20
76.712447020368529
 30
0.0
 11
71.378036641591734
 21
91.712447020368529
 31
0.0
  0
LINE
  5
49
100
AcDbEntity
  8
____1
370
              18
390
0
  6
Continuous
 62
               7
100
AcDbLine
 10
55.378036641591734
 20
76.712447020368529
 30
0.0
 11
55.378036641591734
 21
91.712447020368529
 31
0.0
  0
LINE
  5
4A
100
AcDbEntity
  8
____1
370
              18
390
0
  6
Continuous
 62
               7
100
AcDbLine
 10
48.618751255549
 20
82.143238771371728
 30
0.0
 11
53.568751255549159
 21
82.143238771371728
 31
0.0
  0
LINE
  5
4B
100
AcDbEntity
  8
____1
370
              18
390
0
  6
Continuous
 62
               7
100
AcDbLine
 10
47.378036641591734
 20
86.712447020368529
 30
0.0
 11
141.37803664159188
 21
86.712447020368529
 31
0.0
  0
LINE
  5
4C
100
AcDbEntity
  8
____1
370
              18
390
0
  6
Continuous
 62
               7
100
AcDbLine
 10
47.378036641591734
 20
81.712447020368529
 30
0.0
 11
141.37803664159188
 21
81.712447020368529
 31
0.0
  0
LINE
  5
4D
100
AcDbEntity
  8
____1
370
              18
390
0
  6
Continuous
 62
               7
100
AcDbLine
 10
47.378036641591734
 20
76.712447020368529
 30
0.0
 11
141.37803664159188
 21
76.712447020368529
 31
0.0
  0
MTEXT
  5
4E
100
AcDbEntity
  8
____1
370
               5
390
0
  6
Continuous
 62
               7
100
AcDbMText
 10
71.378036641591734
 20
90.797447020368494
 30
0.0
 40
3.1749999523162842
 41
50.0
 71
               1
 72
               1
  1
改　訂　内　容
  7
Style1
 73
               1
 44
1.0
  0
MTEXT
  5
4F
100
AcDbEntity
  8
____1
370
               5
390
0
  6
Continuous
 62
               7
100
AcDbMText
 10
33.878036641591763
 20
-51.772552979631499
 30
0.0
 40
3.2999999523162842
 41
39.999999999999972
 71
               1
 72
               1
  1
品　　　名
  7
Style1
 73
               1
 44
1.0
  0
MTEXT
  5
50
100
AcDbEntity
  8
____1
370
               5
390
0
  6
Continuous
 62
               7
100
AcDbMText
 10
25.378036641591763
 20
-51.772552979631499
 30
0.0
 40
3.2999999523162842
 41
8.5
 71
               1
 72
               1
  1
品番
  7
Style1
 73
               1
 44
1.0
  0
LINE
  5
51
100
AcDbEntity
  8
____1
370
               5
390
0
  6
Continuous
 62
               7
100
AcDbLine
 10
25.378036641591734
 20
-39.787552979631499
 30
0.0
 11
25.378036641591734
 21
-56.287552979631499
 31
0.0
  0
MTEXT
  5
52
100
AcDbEntity
  8
____1
370
               5
390
0
  6
Continuous
 62
               7
100
AcDbMText
 10
73.878036641591706
 20
-40.772552979631499
 30
0.0
 40
3.5277776718139648
 41
32.608072916666643
 71
               1
 72
               1
  1
エラストマー
  7
Style1
 73
               1
 44
1.0
  0
MTEXT
  5
53
100
AcDbEntity
  8
____1
370
               5
390
0
  6
Continuous
 62
               7
100
AcDbMText
 10
73.878036641591734
 20
-51.772552979631499
 30
0.0
 40
3.2999999523162842
 41
32.608072916666643
 71
               1
 72
               1
  1
材　　　質
  7
Style1
 73
               1
 44
1.0
  0
LINE
  5
54
100
AcDbEntity
  8
____1
370
               5
390
0
  6
Continuous
 62
               7
100
AcDbLine
 10
25.378036641591734
 20
-56.287552979631499
 30
0.0
 11
141.37803664159176
 21
-56.287552979631499
 31
0.0
  0
LINE
  5
55
100
AcDbEntity
  8
___G
370
               5
390
0
  6
Continuous
 62
               7
100
AcDbLine
 10
25.378036641591507
 20
-67.287552979631499
 30
0.0
 11
141.37803664159173
 21
-67.287552979631499
 31
0.0
  0
LINE
  5
56
100
AcDbEntity
  8
____1
370
               5
390
0
  6
Continuous
 62
               7
100
AcDbLine
 10
25.378036641591734
 20
-50.787552979631499
 30
0.0
 11
141.37803664159173
 21
-50.787552979631499
 31
0.0
  0
LINE
  5
57
100
AcDbEntity
  8
____1
370
               5
390
0
  6
Continuous
 62
               7
100
AcDbLine
 10
25.378036641591734
 20
-45.287552979631499
 30
0.0
 11
141.37803664159173
 21
-45.287552979631499
 31
0.0
  0
LINE
  5
58
100
AcDbEntity
  8
____1
370
               5
390
0
  6
Continuous
 62
               7
100
AcDbLine
 10
25.378036641591734
 20
-39.787552979631499
 30
0.0
 11
141.37803664159173
 21
-39.787552979631499
 31
0.0
  0
LINE
  5
59
100
AcDbEntity
  8
___G
370
               5
390
0
  6
Continuous
 62
               7
100
AcDbLine
 10
25.378036641591734
 20
-72.787552979631499
 30
0.0
 11
141.37803664159173
 21
-72.787552979631499
 31
0.0
  0
LINE
  5
5A
100
AcDbEntity
  8
____1
370
               5
390
0
  6
Continuous
 62
               7
100
AcDbLine
 10
25.378036641591734
 20
-61.787552979631499
 30
0.0
 11
141.37803664159173
 21
-61.787552979631499
 31
0.0
  0
LINE
  5
5B
100
AcDbEntity
  8
___G
370
               5
390
0
  6
Continuous
 62
               7
100
AcDbLine
 10
25.378036641591734
 20
-89.787552979631499
 30
0.0
 11
141.37803664159173
 21
-89.787552979631499
 31
0.0
  0
LINE
  5
5C
100
AcDbEntity
  8
___G
370
               5
390
0
  6
Continuous
 62
               7
100
AcDbLine
 10
25.378036641591507
 20
-81.287552979631499
 30
0.0
 11
141.37803664159173
 21
-81.287552979631499
 31
0.0
  0
LINE
  5
5D
100
AcDbEntity
  8
___G
370
               5
390
0
  6
Continuous
 62
               7
100
AcDbLine
 10
57.378036641591677
 20
-85.537552979631499
 30
0.0
 11
83.378036641591621
 21
-85.537552979631499
 31
0.0
  0
LINE
  5
5E
100
AcDbEntity
  8
___G
370
              18
390
0
  6
CENTER2
 62
               7
100
AcDbLine
 10
67.986036641591568
 20
-77.037552979631499
 30
0.0
 11
82.770036641591673
 21
-77.037552979631499
 31
0.0
  0
LINE
  5
5F
100
AcDbEntity
  8
___G
370
               5
390
0
  6
Continuous
 62
               7
100
AcDbLine
 10
25.378036641591507
 20
-61.787552979631499
 30
0.0
 11
141.37803664159173
 21
-61.787552979631499
 31
0.0
  0
MTEXT
  5
60
100
AcDbEntity
  8
____1
370
               5
390
0
  6
Continuous
 62
               7
100
AcDbMText
 10
73.878036641591734
 20
-46.162552979631499
 30
0.0
 40
3.5277776718139648
 41
32.608072916666643
 71
               1
 72
               1
  1
SUS304　0.8ｔ
  7
Style1
 73
               1
 44
1.0
  0
MTEXT
  5
61
100
AcDbEntity
  8
___G
370
              18
390
0
  6
Continuous
 62
               7
100
AcDbMText
 10
45.378036641591621
 20
-68.387552979631494
 30
0.0
 40
3.2999999523162842
 41
96.0
 71
               1
 72
               1
  1
指定無き公差はJIS 0408-Bによること
  7
Style1
 73
               1
 44
1.0
  0
MTEXT
  5
62
100
AcDbEntity
  8
___G
370
               5
390
0
  6
DOT
 62
               7
100
AcDbMText
 10
63.378036641591621
 20
-81.993086386988324
 30
0.0
 40
2.75
 41
22.0
 71
               1
 72
               1
  1
＊＊＊
  7
Style1
 73
               1
 44
1.0
  0
MTEXT
  5
63
100
AcDbEntity
  8
___G
370
               5
390
0
  6
DOT
 62
               7
100
AcDbMText
 10
63.378036641591621
 20
-86.243086386988324
 30
0.0
 40
2.75
 41
22.0
 71
               1
 72
               1
  1
＊＊＊
  7
Style1
 73
               1
 44
1.0
  0
LINE
  5
64
100
AcDbEntity
  8
____1
370
              18
390
0
  6
Continuous
 62
               7
100
AcDbLine
 10
121.37803664159173
 20
76.712447020368529
 30
0.0
 11
121.37803664159173
 21
91.712447020368529
 31
0.0
  0
LINE
  5
65
100
AcDbEntity
  8
____1
370
              18
390
0
  6
Continuous
 62
               7
100
AcDbLine
 10
131.37803664159173
 20
76.712447020368529
 30
0.0
 11
131.37803664159173
 21
91.712447020368529
 31
0.0
  0
MTEXT
  5
66
100
AcDbEntity
  8
____1
370
               5
390
0
  6
DOT
 62
               7
100
AcDbMText
 10
131.37803664159173
 20
90.797447020368494
 30
0.0
 40
3.1749999523162842
 41
10.000000000000028
 71
               1
 72
               1
  1
検認者
  7
Style1
 73
               1
 44
1.0
  0
MTEXT
  5
67
100
AcDbEntity
  8
____1
370
               5
390
0
  6
DOT
 62
               7
100
AcDbMText
 10
121.37803664159173
 20
90.797447020368494
 30
0.0
 40
3.1749999523162842
 41
10.0
 71
               1
 72
               1
  1
改訂者
  7
Style1
 73
               1
 44
1.0
  0
LINE
  5
68
100
AcDbEntity
  8
___G
370
              18
390
0
  6
Continuous
 62
               7
100
AcDbLine
 10
74.477708974696554
 20
-94.599414606121258
 30
0.0
 11
77.086775641363261
 21
-94.599414606121258
 31
0.0
  0
LINE
  5
69
100
AcDbEntity
  8
___G
370
              18
390
0
  6
Continuous
 62
               7
100
AcDbLine
 10
55.654354958342481
 20
-93.959414606121271
 30
0.0
 11
56.454354958342435
 21
-93.959414606121271
 31
0.0
  0
ARC
  5
6A
100
AcDbEntity
  8
___G
370
              18
390
0
  6
Continuous
 62
               7
100
AcDbCircle
 10
67.503722856069714
 20
-92.359414606121277
 30
0.0
 40
4.4000000000000838
210
-0.0
220
0.0
230
1.0
100
AcDbArc
 50
-90.0
 51
-57.455041145953793
  0
CIRCLE
  5
6B
100
AcDbEntity
  8
___G
370
              18
390
0
  6
Continuous
 62
               7
100
AcDbCircle
 10
71.442036641591699
 20
-77.037552979631499
 30
0.0
 40
2.3039999999998599
  0
LINE
  5
6C
100
AcDbEntity
  8
___G
370
              18
390
0
  6
Continuous
 62
               7
100
AcDbLine
 10
76.708517452813737
 20
-75.885552979631555
 30
0.0
 11
76.708517452813737
 21
-78.189552979631543
 31
0.0
  0
LINE
  5
6D
100
AcDbEntity
  8
___G
370
              18
390
0
  6
CENTER2
 62
               7
100
AcDbLine
 10
71.442036641591699
 20
-73.581552979631581
 30
0.0
 11
71.442036641591699
 21
-80.493552979631545
 31
0.0
  0
MTEXT
  5
6E
100
AcDbEntity
  8
___G
370
               5
390
0
  6
Continuous
 62
               7
100
AcDbMText
 10
29.598590366374257
 20
-91.514219900611309
 30
0.0
 40
5.0799999237060547
 41
24.996311053240746
 71
               1
 72
               1
  1
株式会社
  7
Style1
 73
               1
 44
1.0
  0
LINE
  5
6F
100
AcDbEntity
  8
___G
370
               5
390
0
  6
Continuous
 62
               7
100
AcDbLine
 10
55.378036641591621
 20
-81.287552979631513
 30
0.0
 11
55.378036641591621
 21
-89.787552979631528
 31
0.0
  0
LINE
  5
70
100
AcDbEntity
  8
___G
370
               5
390
0
  6
Continuous
 62
               7
100
AcDbLine
 10
45.378036641591621
 20
-72.787552979631499
 30
0.0
 11
45.378036641591621
 21
-81.287552979631499
 31
0.0
  0
LINE
  5
71
100
AcDbEntity
  8
___G
370
               5
390
0
  6
Continuous
 62
               7
100
AcDbLine
 10
65.378036641591621
 20
-72.787552979631499
 30
0.0
 11
65.378036641591621
 21
-81.287552979631499
 31
0.0
  0
LINE
  5
72
100
AcDbEntity
  8
___G
370
               5
390
0
  6
Continuous
 62
               7
100
AcDbLine
 10
27.378036641591621
 20
-85.537552979631499
 30
0.0
 11
53.378036641591621
 21
-85.537552979631499
 31
0.0
  0
LINE
  5
73
100
AcDbEntity
  8
___G
370
               5
390
0
  6
Continuous
 62
               7
100
AcDbLine
 10
47.378036641591621
 20
-77.037552979631499
 30
0.0
 11
61.378036641591621
 21
-77.037552979631499
 31
0.0
  0
MTEXT
  5
74
100
AcDbEntity
  8
___G
370
               5
390
0
  6
Continuous
 62
               7
100
AcDbMText
 10
45.378036641591621
 20
-73.493086386988324
 30
0.0
 40
2.75
 41
20.0
 71
               1
 72
               1
  1
尺 　度
  7
Style1
 73
               1
 44
1.0
  0
LINE
  5
75
100
AcDbEntity
  8
___G
370
              18
390
0
  6
Continuous
 62
               7
100
AcDbLine
 10
65.503722856069714
 20
-93.274791034091407
 30
0.0
 11
65.503722856069714
 21
-93.01710282010626
 31
0.0
  0
LINE
  5
76
100
AcDbEntity
  8
___G
370
              18
390
0
  6
Continuous
 62
               7
100
AcDbLine
 10
68.70372285606976
 20
-93.01710282010626
 30
0.0
 11
68.251174516110325
 21
-93.469651160065695
 31
0.0
  0
LINE
  5
77
100
AcDbEntity
  8
___G
370
              18
390
0
  6
Continuous
 62
               7
100
AcDbLine
 10
78.742480459531862
 20
-92.519414606121359
 30
0.0
 11
81.677708974696543
 21
-92.519414606121359
 31
0.0
  0
LINE
  5
78
100
AcDbEntity
  8
___G
370
              18
390
0
  6
Continuous
 62
               7
100
AcDbLine
 10
76.476642308029852
 20
-92.519414606121245
 30
0.0
 11
76.077708974696577
 21
-91.159414606121231
 31
0.0
  0
CIRCLE
  5
79
100
AcDbEntity
  8
___G
370
              18
390
0
  6
Continuous
 62
               7
100
AcDbCircle
 10
71.442036641591699
 20
-77.037552979631499
 30
0.0
 40
1.1520000000000437
  0
LINE
  5
7A
100
AcDbEntity
  8
___G
370
              18
390
0
  6
Continuous
 62
               7
100
AcDbLine
 10
76.708517452813737
 20
-78.189552979631543
 30
0.0
 11
81.316517452813741
 21
-79.341552979631601
 31
0.0
  0
LINE
  5
7B
100
AcDbEntity
  8
___G
370
              18
390
0
  6
Continuous
 62
               7
100
AcDbLine
 10
76.708517452813737
 20
-75.885552979631555
 30
0.0
 11
81.316517452813741
 21
-74.733552979631511
 31
0.0
  0
LINE
  5
7C
100
AcDbEntity
  8
____1
370
               5
390
0
  6
Continuous
 62
               7
100
AcDbLine
 10
116.48610955825838
 20
-56.287552979631499
 30
0.0
 11
116.48610955825838
 21
-39.787552979631499
 31
0.0
  0
LINE
  5
7D
100
AcDbEntity
  8
____1
370
               5
390
0
  6
Continuous
 62
               7
100
AcDbLine
 10
106.48610955825838
 20
-56.287552979631499
 30
0.0
 11
106.48610955825838
 21
-39.787552979631499
 31
0.0
  0
MTEXT
  5
7E
100
AcDbEntity
  8
____1
370
               5
390
0
  6
Continuous
 62
               7
100
AcDbMText
 10
106.48610955825838
 20
-51.772552979631499
 30
0.0
 40
3.2999999523162842
 41
10.0
 71
               1
 72
               1
  1
数量
  7
Style1
 73
               1
 44
1.0
  0
LINE
  5
7F
100
AcDbEntity
  8
____1
370
               5
390
0
  6
Continuous
 62
               7
100
AcDbLine
 10
33.878036641591734
 20
-56.287552979631499
 30
0.0
 11
33.878036641591734
 21
-39.787552979631499
 31
0.0
  0
LINE
  5
80
100
AcDbEntity
  8
____1
370
               5
390
0
  6
Continuous
 62
               7
100
AcDbLine
 10
73.878036641591734
 20
-56.287552979631499
 30
0.0
 11
73.878036641591734
 21
-39.787552979631499
 31
0.0
  0
LINE
  5
81
100
AcDbEntity
  8
___G
370
              18
390
0
  6
Continuous
 62
               7
100
AcDbLine
 10
62.175238007585051
 20
-92.359414606121277
 30
0.0
 11
63.375238007584983
 21
-91.159414606121231
 31
0.0
  0
LINE
  5
82
100
AcDbEntity
  8
___G
370
              18
390
0
  6
Continuous
 62
               7
100
AcDbLine
 10
56.575238007585028
 20
-95.159414606121203
 30
0.0
 11
58.575238007585028
 21
-95.159414606121203
 31
0.0
  0
LINE
  5
83
100
AcDbEntity
  8
___G
370
              18
390
0
  6
Continuous
 62
               7
100
AcDbLine
 10
72.70372285606976
 20
-91.159414606121231
 30
0.0
 11
65.503722856069714
 21
-91.159414606121231
 31
0.0
  0
LINE
  5
84
100
AcDbEntity
  8
___G
370
              18
390
0
  6
Continuous
 62
               7
100
AcDbLine
 10
76.708517452813737
 20
-75.885552979631555
 30
0.0
 11
76.708517452813737
 21
-78.189552979631543
 31
0.0
  0
LINE
  5
85
100
AcDbEntity
  8
___G
370
              18
390
0
  6
Continuous
 62
               7
100
AcDbLine
 10
76.708517452813737
 20
-78.189552979631543
 30
0.0
 11
81.316517452813741
 21
-79.341552979631601
 31
0.0
  0
LINE
  5
86
100
AcDbEntity
  8
___G
370
              18
390
0
  6
Continuous
 62
               7
100
AcDbLine
 10
81.316517452813741
 20
-74.733552979631511
 30
0.0
 11
81.316517452813741
 21
-79.341552979631601
 31
0.0
  0
MTEXT
  5
87
100
AcDbEntity
  8
___G
370
               5
390
0
  6
DOT
 62
               7
100
AcDbMText
 10
33.378036641591621
 20
-81.993086386988352
 30
0.0
 40
2.75
 41
22.0
 71
               1
 72
               1
  1
園原
  7
Style1
 73
               1
 44
1.0
  0
MTEXT
  5
88
100
AcDbEntity
  8
___G
370
               5
390
0
  6
DOT
 62
               7
100
AcDbMText
 10
33.378036641591621
 20
-86.243086386988352
 30
0.0
 40
2.75
 41
22.000000000000028
 71
               1
 72
               1
  1
園原
  7
Style1
 73
               1
 44
1.0
  0
MTEXT
  5
89
100
AcDbEntity
  8
___G
370
              18
390
0
  6
Continuous
 62
               7
100
AcDbMText
 10
25.378036641591621
 20
-77.743086386988324
 30
0.0
 40
2.75
 41
20.000000000000028
 71
               1
 72
               1
  1
H28.1
  7
Style1
 73
               1
 44
1.0
  0
MTEXT
  5
8A
100
AcDbEntity
  8
___G
370
               5
390
0
  6
Continuous
 62
               7
100
AcDbMText
 10
25.378036641591621
 20
-81.993086386988352
 30
0.0
 40
2.75
 41
8.0
 71
               1
 72
               1
  1
 設計
  7
Style1
 73
               1
 44
1.0
  0
LINE
  5
8B
100
AcDbEntity
  8
___G
370
              18
390
0
  6
Continuous
 62
               7
100
AcDbLine
 10
56.575238007585028
 20
-96.759414606121226
 30
0.0
 11
59.775238007585074
 21
-96.759414606121226
 31
0.0
  0
LINE
  5
8C
100
AcDbEntity
  8
___G
370
              18
390
0
  6
Continuous
 62
               7
100
AcDbLine
 10
71.903722856069805
 20
-92.359414606121277
 30
0.0
 11
72.70372285606976
 21
-91.159414606121231
 31
0.0
  0
LINE
  5
8D
100
AcDbEntity
  8
___G
370
              18
390
0
  6
Continuous
 62
               7
100
AcDbLine
 10
71.903722856069805
 20
-92.359414606121277
 30
0.0
 11
72.70372285606976
 21
-91.159414606121231
 31
0.0
  0
LINE
  5
8E
100
AcDbEntity
  8
___G
370
              18
390
0
  6
Continuous
 62
               7
100
AcDbLine
 10
77.086775641363261
 20
-94.599414606121258
 30
0.0
 11
76.899042308029834
 21
-93.959414606121271
 31
0.0
  0
LINE
  5
8F
100
AcDbEntity
  8
___G
370
              18
390
0
  6
Continuous
 62
               7
100
AcDbLine
 10
63.375238007584983
 20
-91.159414606121231
 30
0.0
 11
60.175238007585051
 21
-91.159414606121231
 31
0.0
  0
LINE
  5
90
100
AcDbEntity
  8
___G
370
              18
390
0
  6
Continuous
 62
               7
100
AcDbLine
 10
78.742480459531862
 20
-92.519414606121245
 30
0.0
 11
78.625365059352589
 21
-92.112431493747522
 31
0.0
  0
LINE
  5
91
100
AcDbEntity
  8
___G
370
              18
390
0
  6
Continuous
 62
               7
100
AcDbLine
 10
62.175238007585051
 20
-92.759414606121226
 30
0.0
 11
62.175238007585051
 21
-92.359414606121277
 31
0.0
  0
LINE
  5
92
100
AcDbEntity
  8
___G
370
              18
390
0
  6
Continuous
 62
               7
100
AcDbLine
 10
81.316517452813741
 20
-74.733552979631511
 30
0.0
 11
81.316517452813741
 21
-79.341552979631601
 31
0.0
  0
LINE
  5
93
100
AcDbEntity
  8
___G
370
              18
390
0
  6
Continuous
 62
               7
100
AcDbLine
 10
78.625365059352589
 20
-92.112431493747522
 30
0.0
 11
79.277708974696566
 21
-91.159414606121231
 31
0.0
  0
LINE
  5
94
100
AcDbEntity
  8
___G
370
              18
390
0
  6
Continuous
 62
               7
100
AcDbLine
 10
81.677708974696543
 20
-92.519414606121359
 30
0.0
 11
81.677708974696543
 21
-93.959414606121271
 31
0.0
  0
LINE
  5
95
100
AcDbEntity
  8
___G
370
              18
390
0
  6
Continuous
 62
               7
100
AcDbLine
 10
60.175238007585051
 20
-93.959414606121271
 30
0.0
 11
60.175238007585051
 21
-94.359414606121248
 31
0.0
  0
LINE
  5
96
100
AcDbEntity
  8
___G
370
              18
390
0
  6
Continuous
 62
               7
100
AcDbLine
 10
79.755412436553343
 20
-96.039414606121312
 30
0.0
 11
81.677708974696543
 21
-96.039414606121312
 31
0.0
  0
LINE
  5
97
100
AcDbEntity
  8
___G
370
              18
390
0
  6
Continuous
 62
               7
100
AcDbLine
 10
58.575238007585028
 20
-95.159414606121203
 30
0.0
 11
58.575238007585028
 21
-93.959414606121271
 31
0.0
  0
LINE
  5
98
100
AcDbEntity
  8
___G
370
              18
390
0
  6
Continuous
 62
               7
100
AcDbLine
 10
81.316517452813741
 20
-74.733552979631511
 30
0.0
 11
81.316517452813741
 21
-79.341552979631601
 31
0.0
  0
LINE
  5
99
100
AcDbEntity
  8
___G
370
              18
390
0
  6
Continuous
 62
               7
100
AcDbLine
 10
65.503722856069714
 20
-91.159414606121231
 30
0.0
 11
65.503722856069714
 21
-92.599414606121258
 31
0.0
  0
MTEXT
  5
9A
100
AcDbEntity
  8
___G
370
              18
390
0
  6
Continuous
 62
               7
100
AcDbMText
 10
25.378036641591507
 20
-68.387552979631494
 30
0.0
 40
3.2999999523162842
 41
20.000000000000114
 71
               1
 72
               1
  1
一般公差
  7
Style1
 73
               1
 44
1.0
  0
MTEXT
  5
9B
100
AcDbEntity
  8
___G
370
              18
390
0
  6
Continuous
 62
               7
100
AcDbMText
 10
25.378036641591507
 20
-62.887552979631494
 30
0.0
 40
3.2999999523162842
 41
20.000000000000114
 71
               1
 72
               1
  1
表面処理
  7
Style1
 73
               1
 44
1.0
  0
MTEXT
  5
9C
100
AcDbEntity
  8
___G
370
               5
390
0
  6
Continuous
 62
               7
100
AcDbMText
 10
25.378036641591621
 20
-86.243086386988352
 30
0.0
 40
2.75
 41
7.9999999999999716
 71
               1
 72
               1
  1
製図
  7
Style1
 73
               1
 44
1.0
  0
MTEXT
  5
9D
100
AcDbEntity
  8
___G
370
               5
390
0
  6
Continuous
 62
               7
100
AcDbMText
 10
55.378036641591621
 20
-81.993086386988324
 30
0.0
 40
2.75
 41
8.0
 71
               1
 72
               1
  1
 照査
  7
Style1
 73
               1
 44
1.0
  0
MTEXT
  5
9E
100
AcDbEntity
  8
___G
370
               5
390
0
  6
Continuous
 62
               7
100
AcDbMText
 10
55.378036641591677
 20
-86.243086386988324
 30
0.0
 40
2.75
 41
7.9999999999999716
 71
               1
 72
               1
  1
 検図
  7
Style1
 73
               1
 44
1.0
  0
MTEXT
  5
9F
100
AcDbEntity
  8
___G
370
              18
390
0
  6
Continuous
 62
               7
100
AcDbMText
 10
45.378036641591621
 20
-77.743086386988324
 30
0.0
 40
2.75
 41
20.0
 71
               1
 72
               1
  1
1：1
  7
Style1
 73
               1
 44
1.0
  0
LINE
  5
A0
100
AcDbEntity
  8
___G
370
              18
390
0
  6
Continuous
 62
               7
100
AcDbLine
 10
65.503722856069714
 20
-95.559414606121294
 30
0.0
 11
66.463722856069751
 21
-95.559414606121294
 31
0.0
  0
LINE
  5
A1
100
AcDbEntity
  8
___G
370
              18
390
0
  6
Continuous
 62
               7
100
AcDbLine
 10
56.575238007585028
 20
-91.159414606121231
 30
0.0
 11
56.575238007585028
 21
-92.759414606121226
 31
0.0
  0
LINE
  5
A2
100
AcDbEntity
  8
___G
370
              18
390
0
  6
Continuous
 62
               7
100
AcDbLine
 10
56.575238007585028
 20
-93.959414606121271
 30
0.0
 11
56.575238007585028
 21
-95.159414606121203
 31
0.0
  0
LINE
  5
A3
100
AcDbEntity
  8
___G
370
              18
390
0
  6
Continuous
 62
               7
100
AcDbLine
 10
65.503722856069714
 20
-96.759414606121226
 30
0.0
 11
67.503722856069828
 21
-96.759414606121226
 31
0.0
  0
LINE
  5
A4
100
AcDbEntity
  8
___G
370
              18
390
0
  6
Continuous
 62
               7
100
AcDbLine
 10
62.175238007585051
 20
-94.359414606121248
 30
0.0
 11
62.175238007585051
 21
-93.959414606121271
 31
0.0
  0
LINE
  5
A5
100
AcDbEntity
  8
___G
370
              18
390
0
  6
Continuous
 62
               7
100
AcDbLine
 10
65.503722856069714
 20
-93.01710282010626
 30
0.0
 11
68.70372285606976
 21
-93.01710282010626
 31
0.0
  0
LINE
  5
A6
100
AcDbEntity
  8
___G
370
              18
390
0
  6
Continuous
 62
               7
100
AcDbLine
 10
74.477708974696554
 20
-93.959414606121271
 30
0.0
 11
76.899042308029834
 21
-93.959414606121271
 31
0.0
  0
LINE
  5
A7
100
AcDbEntity
  8
___G
370
              18
390
0
  6
Continuous
 62
               7
100
AcDbLine
 10
65.503722856069714
 20
-92.599414606121258
 30
0.0
 11
69.503722856069714
 21
-92.599414606121258
 31
0.0
  0
LINE
  5
A8
100
AcDbEntity
  8
___G
370
              18
390
0
  6
Continuous
 62
               7
100
AcDbLine
 10
58.975238007585006
 20
-95.559414606121294
 30
0.0
 11
56.575238007585028
 21
-95.559414606121294
 31
0.0
  0
LINE
  5
A9
100
AcDbEntity
  8
___G
370
               5
390
0
  6
Continuous
 62
               7
100
AcDbLine
 10
25.378036641591621
 20
-72.787552979631499
 30
0.0
 11
25.378036641591621
 21
-98.287552979631499
 31
0.0
  0
LINE
  5
AA
100
AcDbEntity
  8
___G
370
              18
390
0
  6
CENTER2
 62
               7
100
AcDbLine
 10
71.442036641591699
 20
-73.581552979631581
 30
0.0
 11
71.442036641591699
 21
-80.493552979631545
 31
0.0
  0
ARC
  5
AB
100
AcDbEntity
  8
___G
370
              18
390
0
  6
Continuous
 62
               7
100
AcDbCircle
 10
67.503722856069714
 20
-92.359414606121277
 30
0.0
 40
4.4000000000000909
210
-0.0
220
-0.0
230
1.0
100
AcDbArc
 50
-37.512388020300442
 51
0.0
  0
LINE
  5
AC
100
AcDbEntity
  8
___G
370
              18
390
0
  6
Continuous
 62
               7
100
AcDbLine
 10
58.575238007585028
 20
-93.959414606121271
 30
0.0
 11
60.175238007585051
 21
-93.959414606121271
 31
0.0
  0
LINE
  5
AD
100
AcDbEntity
  8
___G
370
               5
390
0
  6
Continuous
 62
               7
100
AcDbLine
 10
45.378036641591621
 20
-72.787552979631499
 30
0.0
 11
45.378036641591621
 21
-61.787552979631499
 31
0.0
  0
LINE
  5
AE
100
AcDbEntity
  8
___G
370
              18
390
0
  6
Continuous
 62
               7
100
AcDbLine
 10
70.993898337739836
 20
-95.038719573300199
 30
0.0
 11
70.851416689905989
 21
-95.178222088651722
 31
0.0
  0
LINE
  5
AF
100
AcDbEntity
  8
___G
370
              18
390
0
  6
Continuous
 62
               7
100
AcDbLine
 10
69.132772849418927
 20
-93.974671330209247
 30
0.0
 11
68.940296204365666
 21
-94.187262018652376
 31
0.0
  0
LINE
  5
B0
100
AcDbEntity
  8
___G
370
              18
390
0
  6
Continuous
 62
               7
100
AcDbLine
 10
58.575238007585028
 20
-92.759414606121226
 30
0.0
 11
58.575238007585028
 21
-92.359414606121277
 31
0.0
  0
LINE
  5
B1
100
AcDbEntity
  8
___G
370
              18
390
0
  6
Continuous
 62
               7
100
AcDbLine
 10
77.837708974696625
 20
-97.159414606121203
 30
0.0
 11
80.07770897469652
 21
-97.159414606121203
 31
0.0
  0
LINE
  5
B2
100
AcDbEntity
  8
___G
370
              18
390
0
  6
Continuous
 62
               7
100
AcDbLine
 10
63.375238007584983
 20
-92.759414606121226
 30
0.0
 11
63.375238007584983
 21
-93.959414606121271
 31
0.0
  0
LINE
  5
B3
100
AcDbEntity
  8
___G
370
              18
390
0
  6
Continuous
 62
               7
100
AcDbLine
 10
76.077708974696577
 20
-91.159414606121231
 30
0.0
 11
79.277708974696566
 21
-91.159414606121231
 31
0.0
  0
LINE
  5
B4
100
AcDbEntity
  8
___G
370
              18
390
0
  6
Continuous
 62
               7
100
AcDbLine
 10
79.34103117322627
 20
-94.599414606121258
 30
0.0
 11
79.156861722858821
 21
-93.959414606121271
 31
0.0
  0
LINE
  5
B5
100
AcDbEntity
  8
___G
370
              18
390
0
  6
Continuous
 62
               7
100
AcDbLine
 10
63.375238007584983
 20
-92.759414606121226
 30
0.0
 11
62.175238007585051
 21
-92.759414606121226
 31
0.0
  0
ARC
  5
B6
100
AcDbEntity
  8
___G
370
              18
390
0
  6
Continuous
 62
               7
100
AcDbCircle
 10
66.463722856069751
 20
-92.519414606121359
 30
0.0
 40
3.0399999999999774
210
-0.0
220
0.0
230
1.0
100
AcDbArc
 50
-28.600718616738757
 51
-1.5079577542369229
  0
LINE
  5
B7
100
AcDbEntity
  8
___G
370
               5
390
0
  6
Continuous
 62
               7
100
AcDbLine
 10
27.378036641591564
 20
-77.037552979631499
 30
0.0
 11
43.378036641591621
 21
-77.037552979631499
 31
0.0
  0
ARC
  5
B8
100
AcDbEntity
  8
___G
370
              18
390
0
  6
Continuous
 62
               7
100
AcDbCircle
 10
58.975238007585006
 20
-94.359414606121248
 30
0.0
 40
1.2000000000000455
210
-0.0
220
-0.0
230
1.0
100
AcDbArc
 50
-90.0
 51
0.0
  0
LINE
  5
B9
100
AcDbEntity
  8
___G
370
              18
390
0
  6
Continuous
 62
               7
100
AcDbLine
 10
56.575238007585028
 20
-95.559414606121294
 30
0.0
 11
56.575238007585028
 21
-96.759414606121226
 31
0.0
  0
MTEXT
  5
BA
100
AcDbEntity
  8
___G
370
               5
390
0
  6
Continuous
 62
               7
100
AcDbMText
 10
25.378036641591621
 20
-73.493086386988324
 30
0.0
 40
2.75
 41
20.0
 71
               1
 72
               1
  1
日 　付
  7
Style1
 73
               1
 44
1.0
  0
CIRCLE
  5
BB
100
AcDbEntity
  8
___G
370
              18
390
0
  6
Continuous
 62
               7
100
AcDbCircle
 10
71.442036641591699
 20
-77.037552979631499
 30
0.0
 40
1.1520000000000437
  0
CIRCLE
  5
BC
100
AcDbEntity
  8
___G
370
              18
390
0
  6
Continuous
 62
               7
100
AcDbCircle
 10
71.442036641591699
 20
-77.037552979631499
 30
0.0
 40
1.1520000000000437
  0
CIRCLE
  5
BD
100
AcDbEntity
  8
___G
370
              18
390
0
  6
Continuous
 62
               7
100
AcDbCircle
 10
71.442036641591699
 20
-77.037552979631499
 30
0.0
 40
2.3039999999998599
  0
LINE
  5
BE
100
AcDbEntity
  8
___G
370
              18
390
0
  6
Continuous
 62
               7
100
AcDbLine
 10
76.708517452813737
 20
-75.885552979631555
 30
0.0
 11
81.316517452813741
 21
-74.733552979631511
 31
0.0
  0
LINE
  5
BF
100
AcDbEntity
  8
___G
370
              18
390
0
  6
Continuous
 62
               7
100
AcDbLine
 10
76.708517452813737
 20
-78.189552979631543
 30
0.0
 11
81.316517452813741
 21
-79.341552979631601
 31
0.0
  0
LINE
  5
C0
100
AcDbEntity
  8
___G
370
              18
390
0
  6
Continuous
 62
               7
100
AcDbLine
 10
76.708517452813737
 20
-75.885552979631555
 30
0.0
 11
76.708517452813737
 21
-78.189552979631543
 31
0.0
  0
LINE
  5
C1
100
AcDbEntity
  8
___G
370
              18
390
0
  6
Continuous
 62
               7
100
AcDbLine
 10
81.316517452813741
 20
-74.733552979631511
 30
0.0
 11
81.316517452813741
 21
-79.341552979631601
 31
0.0
  0
LINE
  5
C2
100
AcDbEntity
  8
___G
370
              18
390
0
  6
Continuous
 62
               7
100
AcDbLine
 10
77.837708974696625
 20
-97.159414606121203
 30
0.0
 11
77.509175641363299
 21
-96.039414606121312
 31
0.0
  0
LINE
  5
C3
100
AcDbEntity
  8
___G
370
              18
390
0
  6
Continuous
 62
               7
100
AcDbLine
 10
62.175238007585051
 20
-93.959414606121271
 30
0.0
 11
63.375238007584983
 21
-93.959414606121271
 31
0.0
  0
LINE
  5
C4
100
AcDbEntity
  8
___G
370
              18
390
0
  6
Continuous
 62
               7
100
AcDbLine
 10
74.477708974696554
 20
-92.519414606121359
 30
0.0
 11
74.477708974696554
 21
-93.959414606121271
 31
0.0
  0
LINE
  5
C5
100
AcDbEntity
  8
___G
370
              18
390
0
  6
Continuous
 62
               7
100
AcDbLine
 10
58.575238007585028
 20
-92.359414606121277
 30
0.0
 11
59.775238007585074
 21
-91.159414606121231
 31
0.0
  0
LINE
  5
C6
100
AcDbEntity
  8
___G
370
              18
390
0
  6
Continuous
 62
               7
100
AcDbLine
 10
59.775238007585074
 20
-91.159414606121231
 30
0.0
 11
56.575238007585028
 21
-91.159414606121231
 31
0.0
  0
LINE
  5
C7
100
AcDbEntity
  8
___G
370
              18
390
0
  6
Continuous
 62
               7
100
AcDbLine
 10
74.477708974696554
 20
-96.039414606121312
 30
0.0
 11
77.509175641363299
 21
-96.039414606121312
 31
0.0
  0
LINE
  5
C8
100
AcDbEntity
  8
___G
370
              18
390
0
  6
Continuous
 62
               7
100
AcDbLine
 10
74.477708974696554
 20
-92.519414606121359
 30
0.0
 11
76.476642308029852
 21
-92.519414606121359
 31
0.0
  0
LINE
  5
C9
100
AcDbEntity
  8
___G
370
              18
390
0
  6
Continuous
 62
               7
100
AcDbLine
 10
79.34103117322627
 20
-94.599414606121258
 30
0.0
 11
81.677708974696543
 21
-94.599414606121258
 31
0.0
  0
LINE
  5
CA
100
AcDbEntity
  8
___G
370
              18
390
0
  6
CENTER2
 62
               7
100
AcDbLine
 10
71.442036641591699
 20
-73.581552979631581
 30
0.0
 11
71.442036641591699
 21
-80.493552979631545
 31
0.0
  0
LINE
  5
CB
100
AcDbEntity
  8
___G
370
              18
390
0
  6
CENTER2
 62
               7
100
AcDbLine
 10
71.442036641591699
 20
-73.581552979631581
 30
0.0
 11
71.442036641591699
 21
-80.493552979631545
 31
0.0
  0
SPLINE
  5
CC
100
AcDbEntity
  8
___G
370
              18
390
0
  6
Continuous
 62
               7
100
AcDbSpline
210
0.0
220
0.0
230
1.0
 70
               0
 71
               3
 72
               9
 73
               5
 74
               0
 42
0.0000001
 43
0.0000001
 12
0.7352773642103246
 22
-0.6777663297036209
 32
0.0
 13
0.8573032032596254
 23
-0.5148118274484234
 33
0.0
 40
0.0
 40
0.0
 40
0.0
 40
0.0
 40
0.9999999993702069
 40
1.0
 40
1.0
 40
1.0
 40
1.0
 10
65.503722856069714
 20
-93.274791034091407
 30
0.0
 10
66.267406538763396
 20
-93.978741831257224
 30
0.0
 10
67.031090221937859
 20
-94.682692628866306
 30
0.0
 10
67.894939223188146
 20
-95.201432450415354
 30
0.0
 10
67.894939223732251
 20
-95.201432450742089
 30
0.0
  0
SPLINE
  5
CD
100
AcDbEntity
  8
___G
370
              18
390
0
  6
Continuous
 62
               7
100
AcDbSpline
210
0.0
220
0.0
230
1.0
 70
               0
 71
               3
 72
               8
 73
               4
 74
               0
 42
0.0000001
 43
0.0000001
 12
0.9618578240638687
 22
-0.2735498606965832
 32
0.0
 13
0.9860364361537883
 23
-0.1665297167989425
 33
0.0
 40
0.0
 40
0.0
 40
0.0
 40
0.0
 40
1.0
 40
1.0
 40
1.0
 40
1.0
 10
70.851416689905989
 20
-95.178222088651722
 30
0.0
 10
71.443232092729716
 20
-95.346532848257056
 30
0.0
 10
72.073477474399681
 20
-95.452973727189118
 30
0.0
 10
72.70372285606976
 20
-95.559414606121294
 30
0.0
  0
LINE
  5
CE
100
AcDbEntity
  8
___G
370
               5
390
0
  6
Continuous
 62
               7
100
AcDbLine
 10
25.378036641591621
 20
-61.787552979631499
 30
0.0
 11
25.378036641591621
 21
-72.787552979631499
 31
0.0
  0
LINE
  5
CF
100
AcDbEntity
  8
___G
370
               5
390
0
  6
Continuous
 62
               7
100
AcDbLine
 10
25.378036641591621
 20
-61.787552979631499
 30
0.0
 11
25.378036641591621
 21
-72.787552979631499
 31
0.0
  0
LINE
  5
D0
100
AcDbEntity
  8
___G
370
              18
390
0
  6
Continuous
 62
               7
100
AcDbLine
 10
74.477708974696554
 20
-94.599414606121258
 30
0.0
 11
74.477708974696554
 21
-96.039414606121312
 31
0.0
  0
LINE
  5
D1
100
AcDbEntity
  8
___G
370
              18
390
0
  6
Continuous
 62
               7
100
AcDbLine
 10
76.708517452813737
 20
-75.885552979631555
 30
0.0
 11
81.316517452813741
 21
-74.733552979631511
 31
0.0
  0
CIRCLE
  5
D2
100
AcDbEntity
  8
___G
370
              18
390
0
  6
Continuous
 62
               7
100
AcDbCircle
 10
71.442036641591699
 20
-77.037552979631499
 30
0.0
 40
2.3039999999998599
  0
LINE
  5
D3
100
AcDbEntity
  8
___G
370
              18
390
0
  6
Continuous
 62
               7
100
AcDbLine
 10
65.503722856069714
 20
-95.559414606121294
 30
0.0
 11
65.503722856069714
 21
-96.759414606121226
 31
0.0
  0
LINE
  5
D4
100
AcDbEntity
  8
___G
370
              18
390
0
  6
Continuous
 62
               7
100
AcDbLine
 10
55.654354958342481
 20
-92.759414606121226
 30
0.0
 11
55.654354958342481
 21
-93.959414606121271
 31
0.0
  0
LINE
  5
D5
100
AcDbEntity
  8
___G
370
              18
390
0
  6
Continuous
 62
               7
100
AcDbLine
 10
56.575238007585028
 20
-93.959414606121271
 30
0.0
 11
56.454354958342435
 21
-93.959414606121271
 31
0.0
  0
LINE
  5
D6
100
AcDbEntity
  8
___G
370
              18
390
0
  6
Continuous
 62
               7
100
AcDbLine
 10
72.70372285606976
 20
-95.559414606121294
 30
0.0
 11
72.70372285606976
 21
-96.759414606121226
 31
0.0
  0
LINE
  5
D7
100
AcDbEntity
  8
___G
370
              18
390
0
  6
Continuous
 62
               7
100
AcDbLine
 10
81.677708974696543
 20
-94.599414606121258
 30
0.0
 11
81.677708974696543
 21
-96.039414606121312
 31
0.0
  0
LINE
  5
D8
100
AcDbEntity
  8
___G
370
              18
390
0
  6
Continuous
 62
               7
100
AcDbLine
 10
60.175238007585051
 20
-91.159414606121231
 30
0.0
 11
60.175238007585051
 21
-92.759414606121226
 31
0.0
  0
LINE
  5
D9
100
AcDbEntity
  8
___G
370
              18
390
0
  6
Continuous
 62
               7
100
AcDbLine
 10
79.156861722858821
 20
-93.959414606121271
 30
0.0
 11
81.677708974696543
 21
-93.959414606121271
 31
0.0
  0
ARC
  5
DA
100
AcDbEntity
  8
___G
370
              18
390
0
  6
Continuous
 62
               7
100
AcDbCircle
 10
66.463722856069751
 20
-92.519414606121359
 30
0.0
 40
3.0399999999998575
210
-0.0
220
0.0
230
1.0
100
AcDbArc
 50
-90.0
 51
-61.914095184791336
  0
ARC
  5
DB
100
AcDbEntity
  8
___G
370
              18
390
0
  6
Continuous
 62
               7
100
AcDbCircle
 10
59.775238007585074
 20
-94.359414606121248
 30
0.0
 40
2.3999999999999773
210
-0.0
220
-0.0
230
1.0
100
AcDbArc
 50
-90.0
 51
0.0
  0
LINE
  5
DC
100
AcDbEntity
  8
___G
370
              18
390
0
  6
Continuous
 62
               7
100
AcDbLine
 10
56.575238007585028
 20
-92.759414606121226
 30
0.0
 11
55.654354958342481
 21
-92.759414606121226
 31
0.0
  0
LINE
  5
DD
100
AcDbEntity
  8
___G
370
              18
390
0
  6
Continuous
 62
               7
100
AcDbLine
 10
60.175238007585051
 20
-92.759414606121226
 30
0.0
 11
58.575238007585028
 21
-92.759414606121226
 31
0.0
  0
LINE
  5
DE
100
AcDbEntity
  8
___G
370
              18
390
0
  6
Continuous
 62
               7
100
AcDbLine
 10
80.07770897469652
 20
-97.159414606121203
 30
0.0
 11
79.755412436553343
 21
-96.039414606121312
 31
0.0
  0
LINE
  5
DF
100
AcDbEntity
  8
___G
370
              18
390
0
  6
Continuous
 62
               7
100
AcDbLine
 10
65.503722856069714
 20
-96.759414606121226
 30
0.0
 11
65.503722856069714
 21
-95.559414606121294
 31
0.0
  0
LINE
  5
E0
100
AcDbEntity
  8
___G
370
              18
390
0
  6
Continuous
 62
               7
100
AcDbLine
 10
76.708517452813737
 20
-75.885552979631555
 30
0.0
 11
81.316517452813741
 21
-74.733552979631511
 31
0.0
  0
LINE
  5
E1
100
AcDbEntity
  8
___G
370
              18
390
0
  6
Continuous
 62
               7
100
AcDbLine
 10
76.708517452813737
 20
-78.189552979631543
 30
0.0
 11
81.316517452813741
 21
-79.341552979631601
 31
0.0
  0
CIRCLE
  5
E2
100
AcDbEntity
  8
___G
370
              18
390
0
  6
Continuous
 62
               7
100
AcDbCircle
 10
71.442036641591699
 20
-77.037552979631499
 30
0.0
 40
1.1520000000000437
  0
CIRCLE
  5
E3
100
AcDbEntity
  8
___G
370
              18
390
0
  6
Continuous
 62
               7
100
AcDbCircle
 10
71.442036641591699
 20
-77.037552979631499
 30
0.0
 40
2.3039999999998599
  0
LINE
  5
E4
100
AcDbEntity
  8
___G
370
              18
390
0
  6
Continuous
 62
               7
100
AcDbLine
 10
76.708517452813737
 20
-75.885552979631555
 30
0.0
 11
76.708517452813737
 21
-78.189552979631543
 31
0.0
  0
LINE
  5
E5
100
AcDbEntity
  8
________1________1
370
              18
390
0
  6
Continuous
 62
               7
100
AcDbLine
 10
23.787411641590957
 20
-21.522116310946497
 30
0.0
 11
23.787411641590957
 21
-22.207129582936503
 31
0.0
  0
LINE
  5
E6
100
AcDbEntity
  8
________1________1
370
              18
390
0
  6
Continuous
 62
               7
100
AcDbLine
 10
29.18741164159173
 20
-14.191278015850084
 30
0.0
 11
29.18741164159173
 21
-16.37011486703204
 31
0.0
  0
LINE
  5
E7
100
AcDbEntity
  8
________1________1
370
              18
390
0
  6
Continuous
 62
               7
100
AcDbLine
 10
23.787411641590957
 20
-16.369950419674776
 30
0.0
 11
23.787411641590957
 21
-16.937272896325776
 31
0.0
  0
LINE
  5
E8
100
AcDbEntity
  8
________1________1
370
              18
390
0
  6
Continuous
 62
               7
100
AcDbLine
 10
22.987411641591741
 20
-16.369950419452874
 30
0.0
 11
22.987411641591741
 21
-14.19127405774999
 31
0.0
  0
LINE
  5
E9
100
AcDbEntity
  8
________1________1
370
              18
390
0
  6
Continuous
 62
               7
100
AcDbLine
 10
29.987411641589524
 20
-16.937486071489342
 30
0.0
 11
29.987411641589524
 21
-17.484335281863675
 31
0.0
  0
LINE
  5
EA
100
AcDbEntity
  8
________1________1
370
              18
390
0
  6
Continuous
 62
               7
100
AcDbLine
 10
30.587411641591707
 20
-16.165028062912608
 30
0.0
 11
29.987411641591741
 21
-16.165028062912608
 31
0.0
  0
ARC
  5
EB
100
AcDbEntity
  8
________1________1
370
              18
390
0
  6
Continuous
 62
               7
100
AcDbCircle
 10
30.987411641591798
 20
-21.965028062912623
 30
0.0
 40
0.4999999999817558
100
AcDbArc
 50
-44.999999998470834
 51
0.0
  0
LINE
  5
EC
100
AcDbEntity
  8
________1________1
370
              18
390
0
  6
Continuous
 62
               7
100
AcDbLine
 10
31.487411641591741
 20
-21.965028062912623
 30
0.0
 11
31.487411641591741
 21
-17.865028062912611
 31
0.0
  0
ARC
  5
ED
100
AcDbEntity
  8
________1________1
370
              18
390
0
  6
Continuous
 62
               7
100
AcDbCircle
 10
30.987411641591798
 20
-17.865028062912611
 30
0.0
 40
0.5000000000182523
100
AcDbArc
 50
44.999999998470834
 51
90.0
  0
LINE
  5
EE
100
AcDbEntity
  8
________1________1
370
              18
390
0
  6
Continuous
 62
               7
100
AcDbLine
 10
30.987411641591798
 20
-22.465028062912623
 30
0.0
 11
30.087412859737647
 21
-22.465028062912623
 31
0.0
  0
ARC
  5
EF
100
AcDbEntity
  8
________1________1
370
              18
390
0
  6
Continuous
 62
               7
100
AcDbCircle
 10
30.987411641591798
 20
-21.965028062912623
 30
0.0
 40
0.4999999999999716
100
AcDbArc
 50
-90.000000002644597
 51
-44.999999999998849
  0
LINE
  5
F0
100
AcDbEntity
  8
________1________1
370
              18
390
0
  6
Continuous
 62
               7
100
AcDbLine
 10
22.987411641591116
 20
-16.937272896106318
 30
0.0
 11
22.987411641591116
 21
-16.369950419455318
 31
0.0
  0
LINE
  5
F1
100
AcDbEntity
  8
________1________1
370
              18
390
0
  6
Continuous
 62
               7
100
AcDbLine
 10
22.987411641591116
 20
-17.365028062912312
 30
0.0
 11
22.95812188903205
 21
-17.365028062912312
 31
0.0
  0
LINE
  5
F2
100
AcDbEntity
  8
________1________1
370
              18
390
0
  6
Continuous
 62
               7
100
AcDbLine
 10
30.016701394154218
 20
-22.46502806291403
 30
0.0
 11
29.987411641589524
 21
-22.46502806291403
 31
0.0
  0
LINE
  5
F3
100
AcDbEntity
  8
________1________1
370
              18
390
0
  6
Continuous
 62
               7
100
AcDbLine
 10
30.016701394154218
 20
-17.365028062912312
 30
0.0
 11
29.987411641589524
 21
-17.365028062912312
 31
0.0
  0
LINE
  5
F4
100
AcDbEntity
  8
________1________1
370
              18
390
0
  6
Continuous
 62
               7
100
AcDbLine
 10
23.787411641590957
 20
-22.207129582948056
 30
0.0
 11
23.787411641590957
 21
-22.465028062960243
 31
0.0
  0
LINE
  5
F5
100
AcDbEntity
  8
________1________1
370
              18
390
0
  6
Continuous
 62
               7
100
AcDbLine
 10
30.987411641591798
 20
-17.365028062912611
 30
0.0
 11
30.087412859737647
 21
-17.365028062912611
 31
0.0
  0
LINE
  5
F6
100
AcDbEntity
  8
________1________1
370
              18
390
0
  6
Continuous
 62
               7
100
AcDbLine
 10
22.987411641591116
 20
-22.46502806294869
 30
0.0
 11
22.987411641591116
 21
-22.207129582936503
 31
0.0
  0
LINE
  5
F7
100
AcDbEntity
  8
________1________1
370
              18
390
0
  6
Continuous
 62
               7
100
AcDbLine
 10
22.987411641591741
 20
-22.465028062912609
 30
0.0
 11
23.787411641591753
 21
-22.465028062912609
 31
0.0
  0
LINE
  5
F8
100
AcDbEntity
  8
________1________1
370
              18
390
0
  6
Continuous
 62
               7
100
AcDbLine
 10
29.18741164158974
 20
-22.207129582948056
 30
0.0
 11
29.18741164158974
 21
-21.522116310952267
 31
0.0
  0
ARC
  5
F9
100
AcDbEntity
  8
________1________1
370
              18
390
0
  6
Continuous
 62
               7
100
AcDbCircle
 10
30.587411641591707
 20
-15.665028062912608
 30
0.0
 40
0.5000000000000543
100
AcDbArc
 50
-44.999999999996547
 51
0.0
  0
ARC
  5
FA
100
AcDbEntity
  8
________1________1
370
              18
390
0
  6
Continuous
 62
               7
100
AcDbCircle
 10
22.387411641591719
 20
-15.665028062912608
 30
0.0
 40
0.4999999999999432
100
AcDbArc
 50
180.0
 51
-135.0
  0
ARC
  5
FB
100
AcDbEntity
  8
________1________1
370
              18
390
0
  6
Continuous
 62
               7
100
AcDbCircle
 10
21.987411641591741
 20
-21.965028062912623
 30
0.0
 40
0.4999999999999432
100
AcDbArc
 50
180.0
 51
-135.00000000000114
  0
SPLINE
  5
FC
100
AcDbEntity
  8
___G
370
              18
390
0
  6
Continuous
 62
               7
100
AcDbSpline
210
0.0
220
0.0
230
1.0
 70
               0
 71
               3
 72
               8
 73
               4
 74
               0
 42
0.0000001
 43
0.0000001
 12
0.6676726695721045
 22
-0.7444549726521138
 32
0.0
 13
0.741315969719885
 23
-0.6711561912388697
 33
0.0
 40
0.0
 40
0.0
 40
0.0
 40
0.0
 40
1.0
 40
1.0
 40
1.0
 40
1.0
 10
68.251174516110325
 20
-93.469651160065695
 30
0.0
 10
68.474672457961503
 20
-93.71885134718022
 30
0.0
 10
68.698170399812682
 20
-93.968051534294631
 30
0.0
 10
68.940296204365666
 20
-94.187262018652376
 30
0.0
  0
SPLINE
  5
FD
100
AcDbEntity
  8
___G
370
              18
390
0
  6
Continuous
 62
               7
100
AcDbSpline
210
0.0
220
0.0
230
1.0
 70
               0
 71
               3
 72
               8
 73
               4
 74
               0
 42
0.0000001
 43
0.0000001
 12
0.952477318104519
 22
-0.3046095180660361
 32
0.0
 13
0.979066943480174
 23
-0.2035384980400263
 33
0.0
 40
0.0
 40
0.0
 40
0.0
 40
0.0
 40
1.0
 40
1.0
 40
1.0
 40
1.0
 10
69.870752291350129
 20
-96.06848074903607
 30
0.0
 10
70.782021320269621
 20
-96.359911541613968
 30
0.0
 10
71.74287208816969
 20
-96.559663073867654
 30
0.0
 10
72.70372285606976
 20
-96.759414606121226
 30
0.0
  0
ARC
  5
FE
100
AcDbEntity
  8
________1________1
370
              18
390
0
  6
Continuous
 62
               7
100
AcDbCircle
 10
30.587411641591707
 20
-15.665028062912608
 30
0.0
 40
0.5000000000000284
100
AcDbArc
 50
-90.0
 51
-44.999999999995396
  0
ARC
  5
FF
100
AcDbEntity
  8
________1________1
370
              18
390
0
  6
Continuous
 62
               7
100
AcDbCircle
 10
30.987411641591798
 20
-17.865028062912611
 30
0.0
 40
0.5
100
AcDbArc
 50
0.0
 51
45.0
  0
MTEXT
  5
100
100
AcDbEntity
  8
____1
370
               5
390
0
  6
Continuous
 62
               7
100
AcDbMText
 10
25.378036641591763
 20
-46.162552979631499
 30
0.0
 40
3.5277776718139648
 41
8.4999999999999716
 71
               1
 72
               1
  1
1
  7
Style1
 73
               1
 44
1.0
  0
LINE
  5
101
100
AcDbEntity
  8
________1________1
370
              18
390
0
  6
Continuous
 62
               7
100
AcDbLine
 10
29.18741164159173
 20
-22.465028062912609
 30
0.0
 11
29.987411641591741
 21
-22.465028062912609
 31
0.0
  0
LINE
  5
102
100
AcDbEntity
  8
________1________1
370
              18
390
0
  6
Continuous
 62
               7
100
AcDbLine
 10
30.087412859739921
 20
-22.46502806291403
 30
0.0
 11
30.016701394154218
 21
-22.46502806291403
 31
0.0
  0
LINE
  5
103
100
AcDbEntity
  8
________1________1
370
              18
390
0
  6
Continuous
 62
               7
100
AcDbLine
 10
22.987411641591741
 20
-16.165028062912608
 30
0.0
 11
22.387411641591719
 21
-16.165028062912608
 31
0.0
  0
LINE
  5
104
100
AcDbEntity
  8
________1________1
370
              18
390
0
  6
Continuous
 62
               7
100
AcDbLine
 10
29.18741164158974
 20
-17.484286556204079
 30
0.0
 11
29.18741164158974
 21
-16.937437345870176
 31
0.0
  0
LINE
  5
105
100
AcDbEntity
  8
________1________1
370
              18
390
0
  6
Continuous
 62
               7
100
AcDbLine
 10
29.987411641591741
 20
-14.191278526572685
 30
0.0
 11
29.987411641591741
 21
-16.370163592613022
 31
0.0
  0
LINE
  5
106
100
AcDbEntity
  8
________1________1
370
              18
390
0
  6
Continuous
 62
               7
100
AcDbLine
 10
29.987411641589524
 20
-16.370163592614869
 30
0.0
 11
29.987411641589524
 21
-16.937486071448927
 31
0.0
  0
LINE
  5
107
100
AcDbEntity
  8
________1________1
370
              18
390
0
  6
Continuous
 62
               7
100
AcDbLine
 10
22.887410423445949
 20
-22.465028062912623
 30
0.0
 11
21.987411641591741
 21
-22.465028062912623
 31
0.0
  0
LINE
  5
108
100
AcDbEntity
  8
________1________1
370
              18
390
0
  6
Continuous
 62
               7
100
AcDbLine
 10
30.087412859739921
 20
-17.365028062912312
 30
0.0
 11
30.016701394154218
 21
-17.365028062912312
 31
0.0
  0
LINE
  5
109
100
AcDbEntity
  8
________1________1
370
              18
390
0
  6
Continuous
 62
               7
100
AcDbLine
 10
22.887410423445949
 20
-17.365028062912611
 30
0.0
 11
21.987411641591741
 21
-17.365028062912611
 31
0.0
  0
LINE
  5
10A
100
AcDbEntity
  8
________1________1
370
              18
390
0
  6
Continuous
 62
               7
100
AcDbLine
 10
29.987411641589524
 20
-22.207129582948056
 30
0.0
 11
29.987411641589524
 21
-22.465028062960243
 31
0.0
  0
LINE
  5
10B
100
AcDbEntity
  8
________1________1
370
              18
390
0
  6
Continuous
 62
               7
100
AcDbLine
 10
29.987411641589524
 20
-21.522116310946497
 30
0.0
 11
29.987411641589524
 21
-22.207129582936503
 31
0.0
  0
ARC
  5
10C
100
AcDbEntity
  8
________1________1
370
              18
390
0
  6
Continuous
 62
               7
100
AcDbCircle
 10
21.987411641591741
 20
-17.865028062912611
 30
0.0
 40
0.4999999999817558
100
AcDbArc
 50
135.00000000265302
 51
180.0
  0
ARC
  5
10D
100
AcDbEntity
  8
________1________1
370
              18
390
0
  6
Continuous
 62
               7
100
AcDbCircle
 10
21.987411641591741
 20
-21.965028062912623
 30
0.0
 40
0.5000000000182121
100
AcDbArc
 50
-135.00000000264842
 51
-90.0
  0
MTEXT
  5
10E
100
AcDbEntity
  8
____1
370
               5
390
0
  6
Continuous
 62
               7
100
AcDbMText
 10
33.878036641591734
 20
-46.162552979631499
 30
0.0
 40
3.5277776718139648
 41
40.000000000000014
 71
               1
 72
               1
  1
受け本体
  7
Style1
 73
               1
 44
1.0
  0
MTEXT
  5
10F
100
AcDbEntity
  8
____1
370
               5
390
0
  6
Continuous
 62
               7
100
AcDbMText
 10
33.878036641591706
 20
-40.772552979631499
 30
0.0
 40
3.5277776718139648
 41
40.000000000000007
 71
               1
 72
               1
  1
受けラバー
  7
Style1
 73
               1
 44
1.0
  0
MTEXT
  5
110
100
AcDbEntity
  8
____1
370
               5
390
0
  6
Continuous
 62
               7
100
AcDbMText
 10
25.378036641591734
 20
-40.772552979631499
 30
0.0
 40
3.5277776718139648
 41
8.4999999999999716
 71
               1
 72
               1
  1
2
  7
Style1
 73
               1
 44
1.0
  0
LINE
  5
111
100
AcDbEntity
  8
________1________1
370
              18
390
0
  6
Continuous
 62
               7
100
AcDbLine
 10
29.18741164158974
 20
-22.46502806294869
 30
0.0
 11
29.18741164158974
 21
-22.207129582936503
 31
0.0
  0
LINE
  5
112
100
AcDbEntity
  8
________1________1
370
              18
390
0
  6
Continuous
 62
               7
100
AcDbLine
 10
29.18741164159173
 20
-17.484286556275361
 30
0.0
 11
29.18741164159173
 21
-21.522116310967217
 31
0.0
  0
LINE
  5
113
100
AcDbEntity
  8
________1________1
370
              18
390
0
  6
Continuous
 62
               7
100
AcDbLine
 10
29.18741164158974
 20
-16.937437345910606
 30
0.0
 11
29.18741164158974
 21
-16.370114867030349
 31
0.0
  0
LINE
  5
114
100
AcDbEntity
  8
________1________1
370
              18
390
0
  6
Continuous
 62
               7
100
AcDbLine
 10
23.787411641591753
 20
-16.369950419674378
 30
0.0
 11
23.787411641591753
 21
-14.19127456847259
 31
0.0
  0
LINE
  5
115
100
AcDbEntity
  8
________1________1
370
              18
390
0
  6
Continuous
 62
               7
100
AcDbLine
 10
23.787411641590957
 20
-16.937272896325776
 30
0.0
 11
23.787411641590957
 21
-17.484122104632558
 31
0.0
  0
LINE
  5
116
100
AcDbEntity
  8
________1________1
370
              18
390
0
  6
Continuous
 62
               7
100
AcDbLine
 10
23.787411641591753
 20
-21.522116310967217
 30
0.0
 11
23.787411641591753
 21
-17.48412210462531
 31
0.0
  0
MTEXT
  5
117
100
AcDbEntity
  8
____1
370
               5
390
0
  6
Continuous
 62
               7
100
AcDbMText
 10
106.48610955825835
 20
-40.772552979631499
 30
0.0
 40
3.5277776718139648
 41
10.0
 71
               1
 72
               1
  1
1
  7
Style1
 73
               1
 44
1.0
  0
MTEXT
  5
118
100
AcDbEntity
  8
___G
370
               5
390
0
  6
Continuous
 62
               7
100
AcDbMText
 10
85.878036641591621
 20
-73.287552979631471
 30
0.0
 40
2.75
 41
9.3000000000000007
 71
               1
 72
               1
  1
製品名
  7
Style1
 73
               1
 44
1.0
  0
MTEXT
  5
119
100
AcDbEntity
  8
___G
370
               5
390
0
  6
Continuous
 62
               7
100
AcDbMText
 10
85.878036641591621
 20
-90.287552979631471
 30
0.0
 40
2.75
 41
9.3000000000000007
 71
               1
 72
               1
  1
図　番
  7
Style1
 73
               1
 44
1.0
  0
LINE
  5
11A
100
AcDbEntity
  8
___G
370
               5
390
0
  6
Continuous
 62
               7
100
AcDbLine
 10
85.378036641591621
 20
-72.787552979631471
 30
0.0
 11
85.378036641591621
 21
-98.287552979631499
 31
0.0
  0
MTEXT
  5
11B
100
AcDbEntity
  8
___G
370
               5
390
0
  6
Continuous
 62
               7
100
AcDbMText
 10
85.878036641591621
 20
-81.787552979631499
 30
0.0
 40
2.75
 41
9.3000000000000007
 71
               1
 72
               1
  1
図面名
  7
Style1
 73
               1
 44
1.0
  0
MTEXT
  5
11C
100
AcDbEntity
  8
___G
370
               5
390
0
  6
DOT
 62
               7
100
AcDbMText
 10
93.268536095299851
 20
-75.272552979631485
 30
0.0
 40
3.5277776718139648
 41
47.109500546291798
 71
               1
 72
               1
  1
リーフ棚柱
  7
Style1
 73
               1
 44
1.0
  0
MTEXT
  5
11D
100
AcDbEntity
  8
___G
370
               5
390
0
  6
DOT
 62
               7
100
AcDbMText
 10
93.268536095299851
 20
-83.772552979631485
 30
0.0
 40
3.5277776718139648
 41
47.109500546291798
 71
               1
 72
               1
  1
LA-312・313 リーフ棚受け
  7
Style1
 73
               1
 44
1.0
  0
MTEXT
  5
11E
100
AcDbEntity
  8
___G
370
               5
390
0
  6
DOT
 62
               7
100
AcDbMText
 10
93.268536095299851
 20
-92.272552979631485
 30
0.0
 40
3.5277776718139648
 41
47.109500546291798
 71
               1
 72
               1
  1
SLZ00168
  7
Style1
 73
               1
 44
1.0
  0
LINE
  5
11F
100
AcDbEntity
  8
________1________1
370
              18
390
0
  6
Continuous
 62
               7
100
AcDbLine
 10
21.887411641591832
 20
-14.178991781714664
 30
0.0
 11
21.887411641591832
 21
-15.665028062912608
 31
0.0
  0
LINE
  5
120
100
AcDbEntity
  8
________1________1
370
              18
390
0
  6
Continuous
 62
               7
100
AcDbLine
 10
21.487411641591798
 20
-17.865028062912611
 30
0.0
 11
21.487411641591798
 21
-21.965028062912623
 31
0.0
  0
LINE
  5
121
100
AcDbEntity
  8
________1________1
370
              18
390
0
  6
Continuous
 62
               7
100
AcDbLine
 10
22.987411641591116
 20
-14.191274057748881
 30
0.0
 11
22.987411641591116
 21
-14.178991781714664
 31
0.0
  0
LINE
  5
122
100
AcDbEntity
  8
________1________1
370
              18
390
0
  6
Continuous
 62
               7
100
AcDbLine
 10
23.787411641590957
 20
-14.178991781714664
 30
0.0
 11
23.787411641590957
 21
-14.19127456847519
 31
0.0
  0
LINE
  5
123
100
AcDbEntity
  8
________1________1
370
              18
390
0
  6
Continuous
 62
               7
100
AcDbLine
 10
29.18741164158974
 20
-14.191278015850582
 30
0.0
 11
29.18741164158974
 21
-14.178991781714666
 31
0.0
  0
LINE
  5
124
100
AcDbEntity
  8
________1________1
370
              18
390
0
  6
Continuous
 62
               7
100
AcDbLine
 10
29.987411641589524
 20
-14.178991781714664
 30
0.0
 11
29.987411641589524
 21
-14.191278526571178
 31
0.0
  0
LINE
  5
125
100
AcDbEntity
  8
________1________1
370
              18
390
0
  6
Continuous
 62
               7
100
AcDbLine
 10
31.087411641591707
 20
-14.178991781714664
 30
0.0
 11
31.087411641591707
 21
-15.665028062912608
 31
0.0
  0
ARC
  5
126
100
AcDbEntity
  8
________1________1
370
              18
390
0
  6
Continuous
 62
               7
100
AcDbCircle
 10
21.987411641591741
 20
-17.865028062912611
 30
0.0
 40
0.4999999999999858
100
AcDbArc
 50
89.999999998469264
 51
135.0
  0
LINE
  5
127
100
AcDbEntity
  8
________1________1
370
              18
390
0
  6
Continuous
 62
               7
100
AcDbLine
 10
29.987411641591741
 20
-21.522116310967217
 30
0.0
 11
29.987411641591741
 21
-17.484335281856342
 31
0.0
  0
LINE
  5
128
100
AcDbEntity
  8
________1________1
370
              18
390
0
  6
Continuous
 62
               7
100
AcDbLine
 10
22.987411641591116
 20
-22.207129582948056
 30
0.0
 11
22.987411641591116
 21
-21.522116310952267
 31
0.0
  0
LINE
  5
129
100
AcDbEntity
  8
________1________1
370
              18
390
0
  6
Continuous
 62
               7
100
AcDbLine
 10
22.987411641591741
 20
-21.522116310967217
 30
0.0
 11
22.987411641591741
 21
-17.484122104403792
 31
0.0
  0
LINE
  5
12A
100
AcDbEntity
  8
________1________1
370
              18
390
0
  6
Continuous
 62
               7
100
AcDbLine
 10
22.987411641591116
 20
-17.484122104413085
 30
0.0
 11
22.987411641591116
 21
-16.937272896106318
 31
0.0
  0
LINE
  5
12B
100
AcDbEntity
  8
________1________1
370
              18
390
0
  6
Continuous
 62
               7
100
AcDbLine
 10
22.95812188903205
 20
-22.46502806291403
 30
0.0
 11
22.887410423446404
 21
-22.46502806291403
 31
0.0
  0
LINE
  5
12C
100
AcDbEntity
  8
________1________1
370
              18
390
0
  6
Continuous
 62
               7
100
AcDbLine
 10
22.95812188903205
 20
-17.365028062912312
 30
0.0
 11
22.887410423446404
 21
-17.365028062912312
 31
0.0
  0
INSERT
  5
146
100
AcDbEntity
  8
____1
370
              18
390
0
  6
Continuous
 62
               7
100
AcDbBlockReference
  2
C0
 10
0.0
 20
0.0
 30
0.0
  0
LINE
  5
147
100
AcDbEntity
  8
________1________1
370
              18
390
0
  6
Continuous
 62
               7
100
AcDbLine
 10
22.987411641591116
 20
-22.46502806291403
 30
0.0
 11
22.95812188903205
 21
-22.46502806291403
 31
0.0
  0
ARC
  5
148
100
AcDbEntity
  8
________1________1
370
              18
390
0
  6
Continuous
 62
               7
100
AcDbCircle
 10
22.387411641591719
 20
-15.665028062912608
 30
0.0
 40
0.500000000000004
100
AcDbArc
 50
-135.0
 51
-90.0
  0
INSERT
  5
16B
100
AcDbEntity
  8
____1
370
              18
390
0
  6
Continuous
 62
               7
100
AcDbBlockReference
  2
C1
 10
0.0
 20
0.0
 30
0.0
  0
ARC
  5
16C
100
AcDbEntity
  8
________1________1
370
               5
390
0
  6
DASHED
 62
               7
100
AcDbCircle
 10
-51.676902460832558
 20
49.282987461026309
 30
0.0
 40
0.9000000000005718
100
AcDbArc
 50
-173.62058213760326
 51
-135.00034897311536
  0
LINE
  5
16D
100
AcDbEntity
  8
________1________1
370
              18
390
0
  6
Continuous
 62
               7
100
AcDbLine
 10
-54.076904398652253
 20
49.782987461026309
 30
0.0
 11
-54.076904398652253
 21
49.182987461026315
 31
0.0
  0
LINE
  5
16E
100
AcDbEntity
  8
________1________1
370
              18
390
0
  6
Continuous
 62
               7
100
AcDbLine
 10
-54.076904398652253
 20
50.282987461026309
 30
0.0
 11
-54.876904398652208
 21
50.282987461026309
 31
0.0
  0
LINE
  5
16F
100
AcDbEntity
  8
________1________1
370
              18
390
0
  6
Continuous
 62
               7
100
AcDbLine
 10
-54.876904398652208
 20
49.782987461026309
 30
0.0
 11
-54.876904398652208
 21
49.270487461026207
 31
0.0
  0
LINE
  5
170
100
AcDbEntity
  8
________1________1
370
              18
390
0
  6
Continuous
 62
               7
100
AcDbLine
 10
-54.876904398650389
 20
50.136540851618307
 30
0.0
 11
-54.876904398650389
 21
50.282987461026707
 31
0.0
  0
ARC
  5
171
100
AcDbEntity
  8
________1________1
370
              18
390
0
  6
Continuous
 62
               7
100
AcDbCircle
 10
-51.676894281863461
 20
49.282987461026309
 30
0.0
 40
0.9000000000005861
100
AcDbArc
 50
179.99930205375205
 51
-173.62057928974593
  0
LINE
  5
172
100
AcDbEntity
  8
________1________1
370
              18
390
0
  6
Continuous
 62
               7
100
AcDbLine
 10
-54.076904398650605
 20
50.136540851618307
 30
0.0
 11
-54.076904398650605
 21
49.782987461023922
 31
0.0
  0
LINE
  5
173
100
AcDbEntity
  8
________1________1
370
              18
390
0
  6
Continuous
 62
               7
100
AcDbLine
 10
-54.876904398650389
 20
49.782987461023922
 30
0.0
 11
-54.876904398650389
 21
50.136540851618307
 31
0.0
  0
LINE
  5
174
100
AcDbEntity
  8
________1________1
370
              18
390
0
  6
Continuous
 62
               7
100
AcDbLine
 10
-53.989404398652276
 20
48.382987461026346
 30
0.0
 11
-52.476904398652231
 21
48.382987461026346
 31
0.0
  0
ARC
  5
175
100
AcDbEntity
  8
________1________1
370
              18
390
0
  6
Continuous
 62
               7
100
AcDbCircle
 10
-51.676894281863461
 20
49.282987461026309
 30
0.0
 40
0.9000000000005785
100
AcDbArc
 50
-152.74246133904305
 51
-152.73891430624801
  0
ARC
  5
176
100
AcDbEntity
  8
________1________1
370
               5
390
0
  6
DASHED
 62
               7
100
AcDbCircle
 10
-51.676894281863461
 20
49.282987461026309
 30
0.0
 40
0.9000000000005531
100
AcDbArc
 50
-173.62057928974772
 51
-152.74246133899126
  0
ARC
  5
177
100
AcDbEntity
  8
________1________1
370
               5
390
0
  6
DASHED
 62
               7
100
AcDbCircle
 10
-51.676894281863461
 20
49.282987461026309
 30
0.0
 40
0.9000000000005716
100
AcDbArc
 50
-152.7389143062496
 51
-135.00034897311536
  0
ARC
  5
178
100
AcDbEntity
  8
________1________1
370
              18
390
0
  6
Continuous
 62
               7
100
AcDbCircle
 10
-53.989404398652219
 20
49.270487461026207
 30
0.0
 40
0.8874999999999886
100
AcDbArc
 50
180.0
 51
-135.0
  0
ARC
  5
179
100
AcDbEntity
  8
____1
370
              18
390
0
  6
Continuous
 62
               7
100
AcDbCircle
 10
-51.476904398652231
 20
47.733271967484313
 30
0.0
 40
0.9999999999999998
210
0.0
220
-0.0
230
1.0
100
AcDbArc
 50
180.0
 51
-112.78288727697493
  0
LINE
  5
17A
100
AcDbEntity
  8
________1________1
370
              18
390
0
  6
Continuous
 62
               7
100
AcDbLine
 10
-54.076904398650605
 20
50.282987461026707
 30
0.0
 11
-54.076904398650605
 21
50.136540851618307
 31
0.0
  0
ARC
  5
17B
100
AcDbEntity
  8
________1________1
370
              18
390
0
  6
Continuous
 62
               7
100
AcDbCircle
 10
-51.676902460832558
 20
49.282987461026309
 30
0.0
 40
0.9000000000005861
100
AcDbArc
 50
179.99930205375205
 51
-173.62058213760326
  0
LINE
  5
17C
100
AcDbEntity
  8
________1________1
370
              18
390
0
  6
Continuous
 62
               7
100
AcDbLine
 10
-52.576883318618819
 20
50.182987461026315
 30
0.0
 11
-52.576894281797841
 21
49.282998424338913
 31
0.0
  0
LINE
  5
17D
100
AcDbEntity
  8
________1________1
370
              18
390
0
  6
Continuous
 62
               7
100
AcDbLine
 10
-52.476904398652231
 20
48.870680658407423
 30
0.0
 11
-52.476904398652231
 21
47.733271967484313
 31
0.0
  0
LINE
  5
17E
100
AcDbEntity
  8
________1________1
370
              18
390
0
  6
Continuous
 62
               7
100
AcDbLine
 10
-54.076904398652253
 20
49.182987461026315
 30
0.0
 11
-52.571329651833047
 21
49.182987461026315
 31
0.0
  0
ARC
  5
17F
100
AcDbEntity
  8
________1________1
370
               5
390
0
  6
DASHED
 62
               7
100
AcDbCircle
 10
-51.676894281863461
 20
49.282987461026309
 30
0.0
 40
0.9000000000005588
100
AcDbArc
 50
-135.00034897311536
 51
-102.00844990391445
  0
ARC
  5
180
100
AcDbEntity
  8
________1________1
370
               5
390
0
  6
DASHED
 62
               7
100
AcDbCircle
 10
-51.676902460832558
 20
49.282987461026309
 30
0.0
 40
0.9000000000005588
100
AcDbArc
 50
-135.00034897311536
 51
-102.0079175658929
  0
MTEXT
  5
181
100
AcDbEntity
  8
____1
370
               5
390
0
  6
Continuous
 62
               7
100
AcDbMText
 10
116.48610955825835
 20
-40.886441839380339
 30
0.0
 40
3.2999999523162842
 41
24.891927083333385
 71
               1
 72
               1
  1
ﾎﾜｲﾄ・ﾌﾞﾗｯｸ
  7
Style1
 73
               1
 44
1.0
  0
MTEXT
  5
182
100
AcDbEntity
  8
____1
370
               5
390
0
  6
Continuous
 62
               7
100
AcDbMText
 10
116.48610955825838
 20
-46.387553003473357
 30
0.0
 40
3.2999999523162842
 41
24.891927083333385
 71
               1
 72
               1
  1
研磨
  7
Style1
 73
               1
 44
1.0
  0
MTEXT
  5
183
100
AcDbEntity
  8
____1
370
               5
390
0
  6
Continuous
 62
               7
100
AcDbMText
 10
106.48610955825838
 20
-46.387553003473357
 30
0.0
 40
3.2999999523162842
 41
10.0
 71
               1
 72
               1
  1
1
  7
Style1
 73
               1
 44
1.0
  0
ARC
  5
184
100
AcDbEntity
  8
________1________1
370
               5
390
0
  6
DASHED
 62
               7
100
AcDbCircle
 10
-51.676902460832558
 20
42.082987461026335
 30
0.0
 40
0.900000000000579
100
AcDbArc
 50
135.00034897311409
 51
152.74125114186268
  0
ARC
  5
185
100
AcDbEntity
  8
________1________1
370
               5
390
0
  6
DASHED
 62
               7
100
AcDbCircle
 10
-51.676902460832558
 20
42.082987461026335
 30
0.0
 40
0.900000000000545
100
AcDbArc
 50
152.73439185197336
 51
173.62056929189256
  0
LINE
  5
186
100
AcDbEntity
  8
________1________1
370
              18
390
0
  6
Continuous
 62
               7
100
AcDbLine
 10
-52.571329651833018
 20
42.182987461026329
 30
0.0
 11
-54.076904398652253
 21
42.182987461026329
 31
0.0
  0
LINE
  5
187
100
AcDbEntity
  8
________1________1
370
              18
390
0
  6
Continuous
 62
               7
100
AcDbLine
 10
-52.47690439865098
 20
42.49529426364758
 30
0.0
 11
-52.47690439865098
 21
43.082987461028324
 31
0.0
  0
ARC
  5
188
100
AcDbEntity
  8
________1________1
370
               5
390
0
  6
DASHED
 62
               7
100
AcDbCircle
 10
-51.676902460832558
 20
42.082987461026335
 30
0.0
 40
0.9000000000005658
100
AcDbArc
 50
102.0079175658929
 51
135.00034897311474
  0
ARC
  5
189
100
AcDbEntity
  8
________1________1
370
              18
390
0
  6
Continuous
 62
               7
100
AcDbCircle
 10
-51.676902460832558
 20
42.082987461026335
 30
0.0
 40
0.9000000000005777
100
AcDbArc
 50
173.62056929189075
 51
179.99930205375205
  0
LINE
  5
18A
100
AcDbEntity
  8
________1________1
370
              18
390
0
  6
Continuous
 62
               7
100
AcDbLine
 10
-54.076904398650605
 20
41.229434070431317
 30
0.0
 11
-54.076904398650605
 21
41.082987461028715
 31
0.0
  0
LINE
  5
18B
100
AcDbEntity
  8
________1________1
370
              18
390
0
  6
Continuous
 62
               7
100
AcDbLine
 10
-54.876904398650389
 20
41.082987461028715
 30
0.0
 11
-54.876904398650389
 21
41.229434070431317
 31
0.0
  0
ARC
  5
18C
100
AcDbEntity
  8
________1________1
370
               5
390
0
  6
DASHED
 62
               7
100
AcDbCircle
 10
-51.676894281863461
 20
42.082987461026335
 30
0.0
 40
0.9000000000005696
100
AcDbArc
 50
102.00844990391427
 51
135.00034897311474
  0
LINE
  5
18D
100
AcDbEntity
  8
________1________1
370
              18
390
0
  6
Continuous
 62
               7
100
AcDbLine
 10
-52.576878029749274
 20
40.682987461026329
 30
0.0
 11
-52.39378630341033
 21
40.682987461026329
 31
0.0
  0
ARC
  5
18E
100
AcDbEntity
  8
____1
370
              18
390
0
  6
Continuous
 62
               7
100
AcDbCircle
 10
-51.476904398652231
 20
43.631069488915841
 30
0.0
 40
1.0
210
-0.0
220
-0.0
230
1.0
100
AcDbArc
 50
112.78288727697493
 51
180.0
  0
LINE
  5
18F
100
AcDbEntity
  8
________1________1
370
              18
390
0
  6
Continuous
 62
               7
100
AcDbLine
 10
-54.076904398650605
 20
41.582987461025816
 30
0.0
 11
-54.076904398650605
 21
41.229434070431317
 31
0.0
  0
ARC
  5
190
100
AcDbEntity
  8
________1________1
370
              18
390
0
  6
Continuous
 62
               7
100
AcDbCircle
 10
-51.676894281863461
 20
42.082987461026335
 30
0.0
 40
0.9000000000005769
100
AcDbArc
 50
173.6205721408277
 51
179.99930205427316
  0
ARC
  5
191
100
AcDbEntity
  8
________1________1
370
               5
390
0
  6
DASHED
 62
               7
100
AcDbCircle
 10
-51.676894281863461
 20
42.082987461026335
 30
0.0
 40
0.9000000000005588
100
AcDbArc
 50
135.00034897311536
 51
173.6205721408277
  0
LINE
  5
192
100
AcDbEntity
  8
________1________1
370
              18
390
0
  6
Continuous
 62
               7
100
AcDbLine
 10
-52.576883318619785
 20
41.182987461031637
 30
0.0
 11
-52.576879246683141
 21
40.829434070431432
 31
0.0
  0
ARC
  5
193
100
AcDbEntity
  8
________1________1
370
              18
390
0
  6
Continuous
 62
               7
100
AcDbCircle
 10
-53.989404398652219
 20
42.095487461026323
 30
0.0
 40
0.8875000000000171
100
AcDbArc
 50
90.0
 51
135.0
  0
LINE
  5
194
100
AcDbEntity
  8
________1________1
370
              18
390
0
  6
Continuous
 62
               7
100
AcDbLine
 10
-54.876904398652208
 20
42.095487461026323
 30
0.0
 11
-54.876904398652208
 21
41.582987461026327
 31
0.0
  0
LINE
  5
195
100
AcDbEntity
  8
________1________1
370
              18
390
0
  6
Continuous
 62
               7
100
AcDbLine
 10
-52.476904398652231
 20
42.98298746102634
 30
0.0
 11
-53.989404398652276
 21
42.98298746102634
 31
0.0
  0
LINE
  5
196
100
AcDbEntity
  8
________1________1
370
              18
390
0
  6
Continuous
 62
               7
100
AcDbLine
 10
-54.876904398652208
 20
41.082987461026327
 30
0.0
 11
-54.076904398652253
 21
41.082987461026327
 31
0.0
  0
LINE
  5
197
100
AcDbEntity
  8
________1________1
370
              18
390
0
  6
Continuous
 62
               7
100
AcDbLine
 10
-54.076904398652253
 20
42.182987461026329
 30
0.0
 11
-54.076904398652253
 21
41.582987461026327
 31
0.0
  0
LINE
  5
198
100
AcDbEntity
  8
________1________1
370
              18
390
0
  6
Continuous
 62
               7
100
AcDbLine
 10
-54.876904398650389
 20
41.229434070431317
 30
0.0
 11
-54.876904398650389
 21
41.582987461025816
 31
0.0
  0
LINE
  5
199
100
AcDbEntity
  8
________1________1
370
              18
390
0
  6
Continuous
 62
               7
100
AcDbLine
 10
-52.576894281797841
 20
42.08297649771373
 30
0.0
 11
-52.576883318618819
 21
41.182987461026322
 31
0.0
  0
DIMENSION
  5
1A9
100
AcDbEntity
  8
寸法線_1
370
               5
390
0
  6
Continuous
 62
               7
100
AcDbDimension
  2
*D2
 10
-19.143786981413214
 20
39.932987477338997
 30
0.0
 11
-19.143786981413214
 21
45.682987645163294
 31
0.0
 71
               5
 72
               1
 41
1.0
 42
0.0
  3
DS1
100
AcDbAlignedDimension
 13
-29.1437869814132
 23
51.432987812987591
 33
0.0
 14
-29.1437869814132
 24
39.932987477338997
 34
0.0
 50
90.0
100
AcDbRotatedDimension
  0
SPLINE
  5
1AB
100
AcDbEntity
  8
________1________1
370
              18
390
0
  6
Continuous
 62
               7
100
AcDbSpline
210
0.0
220
0.0
230
1.0
 70
               0
 71
               3
 72
              15
 73
              11
 74
               0
 42
0.0000001
 43
0.0000001
 12
0.0000121814593113
 22
0.999999999925806
 32
0.0
 13
0.0000105777427174
 23
0.9999999999440558
 33
0.0
 40
0.0
 40
0.0
 40
0.0
 40
0.0
 40
0.1386171692007637
 40
0.2758993792861143
 40
0.4105245275267054
 40
0.5411961001512677
 40
0.6666556584827998
 40
0.7856949583913568
 40
0.8971675863452662
 40
1.0
 40
1.0
 40
1.0
 40
1.0
 10
-52.576883318618819
 20
50.182987461016509
 30
0.0
 10
-52.576883119620184
 20
50.199323651072021
 30
0.0
 10
-52.576882726088819
 20
50.231838704742515
 30
0.0
 10
-52.576882148193384
 20
50.280219484286434
 30
0.0
 10
-52.576881589213563
 20
50.327663866293832
 30
0.0
 10
-52.576881054526915
 20
50.373714935430414
 30
0.0
 10
-52.576880549273504
 20
50.417929194725829
 30
0.0
 10
-52.57688007830486
 20
50.45988083669333
 30
0.0
 10
-52.576879646138558
 20
50.499165844087415
 30
0.0
 10
-52.576879374872895
 20
50.524421935449013
 30
0.0
 10
-52.576879246682118
 20
50.53654085161962
 30
0.0
  0
ARC
  5
1AC
100
AcDbEntity
  8
________1________1
370
              18
390
0
  6
Continuous
 62
               7
100
AcDbCircle
 10
-53.989404398652219
 20
49.270487461026207
 30
0.0
 40
0.8875000000000052
100
AcDbArc
 50
-135.0
 51
-90.0
  0
LINE
  5
1AD
100
AcDbEntity
  8
________1________1
370
              18
390
0
  6
Continuous
 62
               7
100
AcDbLine
 10
-54.076904398650662
 20
-16.018581453504208
 30
0.0
 11
-54.076904398650662
 21
-16.165028062912508
 31
0.0
  0
LINE
  5
1AE
100
AcDbEntity
  8
________1________1
370
              18
390
0
  6
Continuous
 62
               7
100
AcDbLine
 10
-49.713630123726311
 20
-21.539514507470894
 30
0.0
 11
-48.091461282298177
 21
-17.484111265027533
 31
0.0
  0
LINE
  5
1AF
100
AcDbEntity
  8
________1________1
370
              18
390
0
  6
Continuous
 62
               7
100
AcDbLine
 10
-51.676894281865451
 20
-17.365028062912241
 30
0.0
 11
-51.747605390659338
 21
-17.365028062912241
 31
0.0
  0
ARC
  5
1B0
100
AcDbEntity
  8
________1________1
370
              18
390
0
  6
Continuous
 62
               7
100
AcDbCircle
 10
-31.641624169729241
 20
-11.278991781714822
 30
0.0
 40
2.3999999999999915
100
AcDbArc
 50
0.0
 51
90.0
  0
ARC
  5
1B1
100
AcDbEntity
  8
________1________1
370
              18
390
0
  6
Continuous
 62
               7
100
AcDbCircle
 10
-31.641624169729241
 20
-11.278991781714822
 30
0.0
 40
2.9000000000000057
100
AcDbArc
 50
-90.0
 51
0.0
  0
ARC
  5
1B2
100
AcDbEntity
  8
________1________1
370
              18
390
0
  6
Continuous
 62
               7
100
AcDbCircle
 10
-31.641624169729241
 20
-11.278991781714822
 30
0.0
 40
2.3999999999999915
100
AcDbArc
 50
0.0
 51
90.0
  0
LINE
  5
1B3
100
AcDbEntity
  8
________1________1
370
              18
390
0
  6
Continuous
 62
               7
100
AcDbLine
 10
-54.07690439865231
 20
-11.465028062912587
 30
0.0
 11
-54.07690439865231
 21
-15.665028062912551
 31
0.0
  0
LINE
  5
1B4
100
AcDbEntity
  8
________1________1
370
               5
390
0
  6
DASHED
 62
               7
100
AcDbLine
 10
-52.469923170253587
 20
-10.764997601363824
 30
0.0
 11
-52.445672589596136
 21
-10.764785969752577
 31
0.0
  0
LINE
  5
1B5
100
AcDbEntity
  8
________1________1
370
              18
390
0
  6
Continuous
 62
               7
100
AcDbLine
 10
-52.175532234534352
 20
-9.9623980278805213
 30
0.0
 11
-52.476904398652287
 21
-9.9650280629125945
 31
0.0
  0
LINE
  5
1B6
100
AcDbEntity
  8
________1________1
370
              18
390
0
  6
Continuous
 62
               7
100
AcDbLine
 10
-49.591624169729322
 20
-14.178991781714899
 30
0.0
 11
-31.641624169729354
 21
-14.178991781714899
 31
0.0
  0
LINE
  5
1B7
100
AcDbEntity
  8
________1________1
370
              18
390
0
  6
Continuous
 62
               7
100
AcDbLine
 10
-54.876904398652322
 20
-16.165028062912551
 30
0.0
 11
-54.07690439865231
 21
-16.165028062912551
 31
0.0
  0
LINE
  5
1B8
100
AcDbEntity
  8
________1________1
370
              18
390
0
  6
Continuous
 62
               7
100
AcDbLine
 10
-54.076904398650662
 20
-15.665028062909737
 30
0.0
 11
-54.076904398650662
 21
-16.018581453504208
 31
0.0
  0
LINE
  5
1B9
100
AcDbEntity
  8
________1________1
370
              18
390
0
  6
Continuous
 62
               7
100
AcDbLine
 10
-52.601904398651946
 20
-16.165028062912551
 30
0.0
 11
-54.07690439865231
 21
-16.165028062912551
 31
0.0
  0
ARC
  5
1BA
100
AcDbEntity
  8
________1________1
370
              18
390
0
  6
Continuous
 62
               7
100
AcDbCircle
 10
-51.099394700856145
 20
-20.965028062912552
 30
0.0
 40
1.5000000000349729
100
AcDbArc
 50
-90.0
 51
-22.517077406088696
  0
LINE
  5
1BB
100
AcDbEntity
  8
________1________1
370
              18
390
0
  6
Continuous
 62
               7
100
AcDbLine
 10
-51.099384955777985
 20
-22.465028062912552
 30
0.0
 11
-52.576885406858729
 21
-22.465028062912552
 31
0.0
  0
LINE
  5
1BC
100
AcDbEntity
  8
________1________1
370
              18
390
0
  6
Continuous
 62
               7
100
AcDbLine
 10
-52.474604049888136
 20
-10.228621922617855
 30
0.0
 11
-52.469050516703724
 21
-10.864993793668475
 31
0.0
  0
LINE
  5
1BD
100
AcDbEntity
  8
________1________1
370
              18
390
0
  6
Continuous
 62
               7
100
AcDbLine
 10
-54.076904398650662
 20
-11.111474672321982
 30
0.0
 11
-54.076904398650662
 21
-11.465028062910683
 31
0.0
  0
INSERT
  5
1C7
100
AcDbEntity
  8
寸法線_1
370
               5
390
0
  6
Continuous
 62
               7
100
AcDbBlockReference
  2
C2
 10
0.0
 20
0.0
 30
0.0
  0
DIMENSION
  5
1D7
100
AcDbEntity
  8
寸法線_1
370
               5
390
0
  6
Continuous
 62
               7
100
AcDbDimension
  2
*D4
 10
-62.576878029749196
 20
50.682987461008111
 30
0.0
 11
-62.576878029749196
 21
45.682987461023913
 31
0.0
 71
               5
 72
               1
 41
1.0
 42
0.0
  3
DS1
100
AcDbAlignedDimension
 13
-52.576878029749196
 23
40.682987461039716
 33
0.0
 14
-52.576878029749196
 24
50.682987461008111
 34
0.0
 50
90.0
100
AcDbRotatedDimension
  0
SPLINE
  5
1D8
100
AcDbEntity
  8
________1________1
370
              18
390
0
  6
Continuous
 62
               7
100
AcDbSpline
210
0.0
220
0.0
230
1.0
 70
               0
 71
               3
 72
              15
 73
              11
 74
               0
 42
0.0000001
 43
0.0000001
 12
0.000010577736153
 22
0.9999999999440558
 32
0.0
 13
-0.9999999985448621
 23
-0.0000539469734527
 33
0.0
 40
0.0
 40
0.0
 40
0.0
 40
0.0
 40
0.2250092113805746
 40
0.4246012646970186
 40
0.5968539793671451
 40
0.7401084675861722
 40
0.852985110321356
 40
0.9343968437980952
 40
0.9835596285201671
 40
1.0
 40
1.0
 40
1.0
 40
1.0
 10
-52.576879246682118
 20
50.536540851616124
 30
0.0
 10
-52.576879130496842
 20
50.547524796978919
 30
0.0
 10
-52.576884408757927
 20
50.568246440450608
 30
0.0
 10
-52.57686269053314
 20
50.597403615419026
 30
0.0
 10
-52.57692527490601
 20
50.622485630638025
 30
0.0
 10
-52.576747615766429
 20
50.643574910433628
 30
0.0
 10
-52.577210778211359
 20
50.659588904648231
 30
0.0
 10
-52.576149377368345
 20
50.672534544312711
 30
0.0
 10
-52.578025932648949
 20
50.677834377227313
 30
0.0
 10
-52.576075484196984
 20
50.682987504303028
 30
0.0
 10
-52.576878029749274
 20
50.682987461008125
 30
0.0
  0
LINE
  5
1D9
100
AcDbEntity
  8
________1________1
370
              18
390
0
  6
Continuous
 62
               7
100
AcDbLine
 10
-52.39378630341033
 20
50.682987461026315
 30
0.0
 11
-52.576878029749274
 21
50.682987461026315
 31
0.0
  0
SPLINE
  5
1DA
100
AcDbEntity
  8
________1________1
370
              18
390
0
  6
Continuous
 62
               7
100
AcDbSpline
210
0.0
220
0.0
230
1.0
 70
               0
 71
               3
 72
              15
 73
              11
 74
               0
 42
0.0000001
 43
0.0000001
 12
0.9999999848746463
 22
0.0001739273043222
 32
0.0
 13
-0.000010577736153
 23
0.9999999999440559
 33
0.0
 40
0.0
 40
0.0
 40
0.0
 40
0.0
 40
0.0164403715866093
 40
0.0656031563842817
 40
0.1470148899050622
 40
0.2598915326525426
 40
0.4031460208532942
 40
0.5753987354763354
 40
0.7749907887182584
 40
1.0
 40
1.0
 40
1.0
 40
1.0
 10
-52.576878029749274
 20
40.682987461039744
 30
0.0
 10
-52.576075484202725
 20
40.68298760062433
 30
0.0
 10
-52.578025932634851
 20
40.688140283231348
 30
0.0
 10
-52.576149377378691
 20
40.693440543802041
 30
0.0
 10
-52.577210778206414
 20
40.706385941610421
 30
0.0
 10
-52.576747615768419
 20
40.722400041405621
 30
0.0
 10
-52.576925274905214
 20
40.743489280754829
 30
0.0
 10
-52.576862690533424
 20
40.768571310284244
 30
0.0
 10
-52.576884408757813
 20
40.797728480359439
 30
0.0
 10
-52.576879130496842
 20
40.818450125075032
 30
0.0
 10
-52.576879246682118
 20
40.829434070433024
 30
0.0
  0
ARC
  5
1DB
100
AcDbEntity
  8
________1________1
370
              18
390
0
  6
Continuous
 62
               7
100
AcDbCircle
 10
-53.989404398652219
 20
42.095487461026323
 30
0.0
 40
0.8875000000000052
100
AcDbArc
 50
135.0
 51
180.0
  0
LINE
  5
1DC
100
AcDbEntity
  8
________1________1
370
              18
390
0
  6
Continuous
 62
               7
100
AcDbLine
 10
-52.476904398652231
 20
43.631069488915841
 30
0.0
 11
-52.476904398652231
 21
43.082987461026335
 31
0.0
  0
ARC
  5
1DD
100
AcDbEntity
  8
________1________1
370
              18
390
0
  6
Continuous
 62
               7
100
AcDbCircle
 10
-51.676902460832558
 20
42.082987461026335
 30
0.0
 40
0.9000000000005878
100
AcDbArc
 50
152.73439185201545
 51
152.74125114186268
  0
ARC
  5
1DE
100
AcDbEntity
  8
________1________1
370
              18
390
0
  6
Continuous
 62
               7
100
AcDbCircle
 10
-52.601904398651946
 20
-17.165028062912537
 30
0.0
 40
1.0
100
AcDbArc
 50
0.0
 51
45.0
  0
ARC
  5
1DF
100
AcDbEntity
  8
________1________1
370
              18
390
0
  6
Continuous
 62
               7
100
AcDbCircle
 10
-52.601904398651946
 20
-17.165028062912537
 30
0.0
 40
0.999999999999998
100
AcDbArc
 50
44.999999999999424
 51
89.999999999996746
  0
LINE
  5
1E0
100
AcDbEntity
  8
________1________1
370
              18
390
0
  6
Continuous
 62
               7
100
AcDbLine
 10
-54.876904398652322
 20
-16.165028062912551
 30
0.0
 11
-54.876904398652322
 21
-10.965028062912587
 31
0.0
  0
LINE
  5
1E1
100
AcDbEntity
  8
________1________1
370
              18
390
0
  6
Continuous
 62
               7
100
AcDbLine
 10
-52.476904398652287
 20
-10.865028062912494
 30
0.0
 11
-52.476904398652287
 21
-10.965028062912587
 31
0.0
  0
LINE
  5
1E2
100
AcDbEntity
  8
________1________1
370
              18
390
0
  6
Continuous
 62
               7
100
AcDbLine
 10
-52.476904398652287
 20
-10.965028062912587
 30
0.0
 11
-54.07690439865231
 21
-10.965028062912587
 31
0.0
  0
LINE
  5
1E3
100
AcDbEntity
  8
________1________1
370
              18
390
0
  6
Continuous
 62
               7
100
AcDbLine
 10
-52.476904398651037
 20
-10.228631959846588
 30
0.0
 11
-52.476904398651037
 21
-9.9650280629138948
 31
0.0
  0
LINE
  5
1E4
100
AcDbEntity
  8
________1________1
370
              18
390
0
  6
Continuous
 62
               7
100
AcDbLine
 10
-54.076904398650662
 20
-10.965028062913682
 30
0.0
 11
-54.076904398650662
 21
-11.111474672321982
 31
0.0
  0
LINE
  5
1E5
100
AcDbEntity
  8
________1________1
370
              18
390
0
  6
Continuous
 62
               7
100
AcDbLine
 10
-51.776878029684575
 20
-17.865028062920782
 30
0.0
 11
-51.776879246617419
 21
-17.511474672314773
 31
0.0
  0
ARC
  5
1E6
100
AcDbEntity
  8
________1________1
370
              18
390
0
  6
Continuous
 62
               7
100
AcDbCircle
 10
-31.641624169729241
 20
-11.278991781714822
 30
0.0
 40
2.4000000000000057
100
AcDbArc
 50
-90.0
 51
0.0
  0
ARC
  5
1E7
100
AcDbEntity
  8
________1________1
370
              18
390
0
  6
Continuous
 62
               7
100
AcDbCircle
 10
-31.641624169729241
 20
-11.278991781714822
 30
0.0
 40
2.8999999999999915
100
AcDbArc
 50
0.0
 51
45.000000000000995
  0
LINE
  5
1E8
100
AcDbEntity
  8
________1________1
370
              18
390
0
  6
Continuous
 62
               7
100
AcDbLine
 10
-49.591624169729322
 20
-8.8789917817147028
 30
0.0
 11
-31.641624169729354
 21
-8.8789917817147028
 31
0.0
  0
LINE
  5
1E9
100
AcDbEntity
  8
________1________1
370
              18
390
0
  6
Continuous
 62
               7
100
AcDbLine
 10
-31.641624169729354
 20
-8.8789917817147028
 30
0.0
 11
-49.591624169729322
 21
-8.8789917817147028
 31
0.0
  0
ARC
  5
1EA
100
AcDbEntity
  8
________1________1
370
              18
390
0
  6
Continuous
 62
               7
100
AcDbCircle
 10
-49.591624169729322
 20
-11.278991781714822
 30
0.0
 40
2.3999999999999773
100
AcDbArc
 50
180.0
 51
-90.0
  0
LINE
  5
1EB
100
AcDbEntity
  8
________1________1
370
              18
390
0
  6
Continuous
 62
               7
100
AcDbLine
 10
-52.476904398651037
 20
-10.865028062910788
 30
0.0
 11
-52.476904398651037
 21
-10.228631959846588
 31
0.0
  0
LINE
  5
1EC
100
AcDbEntity
  8
________1________1
370
              18
390
0
  6
Continuous
 62
               7
100
AcDbLine
 10
-54.07690439865231
 20
-10.965028062912587
 30
0.0
 11
-54.876904398652322
 21
-10.965028062912587
 31
0.0
  0
ARC
  5
1ED
100
AcDbEntity
  8
________1________1
370
              18
390
0
  6
Continuous
 62
               7
100
AcDbCircle
 10
-50.87689390410835
 20
-16.369945608294525
 30
0.0
 40
3.0000000002146034
100
AcDbArc
 50
-21.801278407141808
 51
0.0000835001623671
  0
LINE
  5
1EE
100
AcDbEntity
  8
________1________1
370
              18
390
0
  6
Continuous
 62
               7
100
AcDbLine
 10
-51.601904398651946
 20
-17.165028062912537
 30
0.0
 11
-51.601904398651946
 21
-17.36502806291254
 31
0.0
  0
LINE
  5
1EF
100
AcDbEntity
  8
________1________1
370
              18
390
0
  6
Continuous
 62
               7
100
AcDbLine
 10
-51.601904398651946
 20
-17.36502806291254
 30
0.0
 11
-51.676894281863518
 21
-17.36502806291254
 31
0.0
  0
LINE
  5
1F0
100
AcDbEntity
  8
________1________1
370
              18
390
0
  6
Continuous
 62
               7
100
AcDbLine
 10
-51.747605390659338
 20
-17.365028062912241
 30
0.0
 11
-51.77689422725134
 21
-17.365028062912241
 31
0.0
  0
LINE
  5
1F1
100
AcDbEntity
  8
________1________1
370
              18
390
0
  6
Continuous
 62
               7
100
AcDbLine
 10
-52.576877227889604
 20
-17.36502806291254
 30
0.0
 11
-52.576885406858729
 21
-22.465028062912552
 31
0.0
  0
LINE
  5
1F2
100
AcDbEntity
  8
________1________1
370
              18
390
0
  6
Continuous
 62
               7
100
AcDbLine
 10
-51.776878029689009
 20
-17.86502806291254
 30
0.0
 11
-51.776884604938651
 21
-21.965028062912552
 31
0.0
  0
ARC
  5
1F3
100
AcDbEntity
  8
________1________1
370
              18
390
0
  6
Continuous
 62
               7
100
AcDbCircle
 10
-49.591624169729322
 20
-11.278991781714822
 30
0.0
 40
2.3999999999999915
100
AcDbArc
 50
90.0
 51
180.0
  0
ARC
  5
1F4
100
AcDbEntity
  8
________1________1
370
              18
390
0
  6
Continuous
 62
               7
100
AcDbCircle
 10
-49.591624169729322
 20
-11.278991781714822
 30
0.0
 40
2.9000000000000195
100
AcDbArc
 50
-135.0000000000004
 51
-90.0
  0
LINE
  5
1F5
100
AcDbEntity
  8
________1________1
370
              18
390
0
  6
Continuous
 62
               7
100
AcDbLine
 10
-31.641624169729354
 20
-8.3789917817147028
 30
0.0
 11
-49.591624169729322
 21
-8.3789917817147028
 31
0.0
  0
LINE
  5
1F6
100
AcDbEntity
  8
________1________1
370
              18
390
0
  6
Continuous
 62
               7
100
AcDbLine
 10
-51.776883318558497
 20
-17.36502806291254
 30
0.0
 11
-52.576877227889604
 21
-17.36502806291254
 31
0.0
  0
LINE
  5
1F7
100
AcDbEntity
  8
____1
370
              18
390
0
  6
Continuous
 62
               7
100
AcDbLine
 10
-133.62196335840824
 20
-98.287552979631499
 30
0.0
 11
141.37803664159176
 21
-98.287552979631499
 31
0.0
  0
LINE
  5
1F8
100
AcDbEntity
  8
____1
370
               5
390
0
  6
DOT
 62
               7
100
AcDbLine
 10
-139.62196335840824
 20
97.462447020368501
 30
0.0
 11
147.37803664159176
 21
97.462447020368501
 31
0.0
  0
LINE
  5
1F9
100
AcDbEntity
  8
____1
370
               5
390
0
  6
DOT
 62
               7
100
AcDbLine
 10
-139.62196335840824
 20
-104.0375529796315
 30
0.0
 11
147.37803664159176
 21
-104.0375529796315
 31
0.0
  0
LINE
  5
1FA
100
AcDbEntity
  8
____1
370
              18
390
0
  6
Continuous
 62
               7
100
AcDbLine
 10
-133.62196335840824
 20
91.712447020368501
 30
0.0
 11
141.37803664159176
 21
91.712447020368501
 31
0.0
  0
DIMENSION
  5
207
100
AcDbEntity
  8
寸法線_1
370
               5
390
0
  6
Continuous
 62
               7
100
AcDbDimension
  2
*D5
 10
-28.741624169729334
 20
6.5329222807851473
 30
0.0
 11
-41.809264284190867
 21
6.5329222807851473
 31
0.0
 71
               5
 72
               1
 41
1.0
 42
0.0
  3
DS1
100
AcDbAlignedDimension
 13
-54.87690439865235
 23
-10.965028062912609
 33
0.0
 14
-28.741624169729334
 24
-11.278991781714808
 34
0.0
100
AcDbRotatedDimension
  0
DIMENSION
  5
214
100
AcDbEntity
  8
寸法線_1
370
               5
390
0
  6
Continuous
 62
               7
100
AcDbDimension
  2
*D6
 10
-28.741624169729334
 20
-1.278991781714808
 30
0.0
 11
-40.616624169729384
 21
-1.278991781714808
 31
0.0
 71
               5
 72
               1
 41
1.0
 42
0.0
  3
DS1
100
AcDbAlignedDimension
 13
-52.491624169729384
 23
-11.278991781714808
 33
0.0
 14
-28.741624169729334
 24
-11.278991781714808
 34
0.0
 50
0.0000008537736463
100
AcDbRotatedDimension
  0
LINE
  5
215
100
AcDbEntity
  8
____1
370
               5
390
0
  6
DOT
 62
               7
100
AcDbLine
 10
-139.61896335840825
 20
-104.0375529796315
 30
0.0
 11
-139.61896335840825
 21
97.462447020368501
 31
0.0
  0
LINE
  5
216
100
AcDbEntity
  8
____1
370
              18
390
0
  6
Continuous
 62
               7
100
AcDbLine
 10
-133.62196335840824
 20
-98.287552979631499
 30
0.0
 11
-133.62196335840824
 21
91.712447020368472
 31
0.0
  0
LINE
  5
217
100
AcDbEntity
  8
____1
370
               5
390
0
  6
DOT
 62
               7
100
AcDbLine
 10
147.37803664159176
 20
-104.0375529796315
 30
0.0
 11
147.37803664159176
 21
97.462447020368501
 31
0.0
  0
LINE
  5
218
100
AcDbEntity
  8
____1
370
              18
390
0
  6
Continuous
 62
               7
100
AcDbLine
 10
141.37803664159176
 20
-98.287552979631499
 30
0.0
 11
141.37803664159176
 21
91.712447020368472
 31
0.0
  0
DIMENSION
  5
228
100
AcDbEntity
  8
寸法線_1
370
               5
390
0
  6
Continuous
 62
               7
100
AcDbDimension
  2
*D7
 10
-62.576885406858764
 20
-8.3789917817148307
 30
0.0
 11
-62.576885406858764
 21
-15.422009922313691
 31
0.0
 71
               5
 72
               1
 41
1.0
 42
0.0
  3
DS1
100
AcDbAlignedDimension
 13
-52.576885406858764
 23
-22.465028062912552
 33
0.0
 14
-49.591624169729357
 24
-8.3789917817148307
 34
0.0
 50
90.0
100
AcDbRotatedDimension
  0
DIMENSION
  5
238
100
AcDbEntity
  8
寸法線_1
370
               5
390
0
  6
Continuous
 62
               7
100
AcDbDimension
  2
*D8
 10
-18.933193180145977
 20
-14.178991781714899
 30
0.0
 11
-18.933193180145977
 21
-11.278991781714808
 31
0.0
 71
               5
 72
               1
 41
1.0
 42
0.0
  3
DS1
100
AcDbAlignedDimension
 13
-31.64162416972944
 23
-8.378991781714717
 33
0.0
 14
-31.64162416972944
 24
-14.178991781714899
 34
0.0
 50
90.0
100
AcDbRotatedDimension
  0
INSERT
  5
242
100
AcDbEntity
  8
寸法線_1
370
               5
390
0
  6
Continuous
 62
               7
100
AcDbBlockReference
  2
C3
 10
0.0
 20
0.0
 30
0.0
  0
SPLINE
  5
243
100
AcDbEntity
  8
________1________1
370
              18
390
0
  6
Continuous
 62
               7
100
AcDbSpline
210
0.0
220
0.0
230
1.0
 70
               0
 71
               3
 72
              15
 73
              11
 74
               0
 42
0.0000001
 43
0.0000001
 12
-0.0000137851772587
 22
-0.9999999999049845
 32
0.0
 13
-0.9999999999999976
 23
0.0000000723340275
 33
0.0
 40
0.0
 40
0.0
 40
0.0
 40
0.0
 40
0.2250092111515618
 40
0.4246012642792294
 40
0.5968539788054106
 40
0.7401084669299244
 40
0.8529851096274865
 40
0.9343968431379393
 40
0.9835596280026306
 40
1.0
 40
1.0
 40
1.0
 40
1.0
 10
-51.776886955872349
 20
-22.318581453509282
 30
0.0
 10
-51.776887107287983
 20
-22.329565398873271
 30
0.0
 10
-51.77689290818514
 20
-22.350287042644226
 30
0.0
 10
-51.77687201119786
 20
-22.379444216459888
 30
0.0
 10
-51.776935350220604
 20
-22.404526235073064
 30
0.0
 10
-51.776758514360345
 20
-22.42561550529615
 30
0.0
 10
-51.777222166147645
 20
-22.441629524516728
 30
0.0
 10
-51.776161868717416
 20
-22.454575106918725
 30
0.0
 10
-51.778038123018142
 20
-22.459875041111758
 30
0.0
 10
-51.776088951947848
 20
-22.465028062988821
 30
0.0
 10
-51.776891497527593
 20
-22.46502806293077
 30
0.0
  0
SPLINE
  5
244
100
AcDbEntity
  8
________1________1
370
              18
390
0
  6
Continuous
 62
               7
100
AcDbSpline
210
0.0
220
0.0
230
1.0
 70
               0
 71
               3
 72
              15
 73
              11
 74
               0
 42
0.0000001
 43
0.0000001
 12
-0.0000016037166544
 22
-0.999999999998714
 32
0.0
 13
-0.0000137851755449
 23
-0.9999999999049846
 33
0.0
 40
0.0
 40
0.0
 40
0.0
 40
0.0
 40
0.1386171691948701
 40
0.2758993792749037
 40
0.4105245275112801
 40
0.5411961001333001
 40
0.6666556584646227
 40
0.7856949583757418
 40
0.8971675863354955
 40
1.0
 40
1.0
 40
1.0
 40
1.0
 10
-51.776884604938651
 20
-21.965028062922315
 30
0.0
 10
-51.776884631137271
 20
-21.981364252976718
 30
0.0
 10
-51.776884702647145
 20
-22.01387930664508
 30
0.0
 10
-51.776884867230159
 20
-22.062260086185844
 30
0.0
 10
-51.776885087348511
 20
-22.109704468190301
 30
0.0
 10
-51.776885360836751
 20
-22.155755537323856
 30
0.0
 10
-51.776885684992315
 20
-22.199969796616855
 30
0.0
 10
-51.776886056583997
 20
-22.241921438582324
 30
0.0
 10
-51.776886471894748
 20
-22.28120644597513
 30
0.0
 10
-51.776886788810963
 20
-22.306462537335662
 30
0.0
 10
-51.776886955872349
 20
-22.318581453505828
 30
0.0
  0
SPLINE
  5
245
100
AcDbEntity
  8
________1________1
370
              18
390
0
  6
Continuous
 62
               7
100
AcDbSpline
210
0.0
220
0.0
230
1.0
 70
               0
 71
               3
 72
              15
 73
              11
 74
               0
 42
0.0000001
 43
0.0000001
 12
0.9999999999888605
 22
-0.0000047200554229
 32
0.0
 13
0.0000105777413812
 23
-0.9999999999440556
 33
0.0
 40
0.0
 40
0.0
 40
0.0
 40
0.0
 40
0.0164403720030544
 40
0.0656031568716744
 40
0.1470148903841148
 40
0.2598915330821088
 40
0.4031460212055751
 40
0.575398735729293
 40
0.7749907888532246
 40
1.0
 40
1.0
 40
1.0
 40
1.0
 10
-51.776883318558497
 20
-17.365028062889433
 30
0.0
 10
-51.776080772978524
 20
-17.365028066677493
 30
0.0
 10
-51.778029960577008
 20
-17.370181079211772
 30
0.0
 10
-51.776153723275591
 20
-17.375481022397448
 30
0.0
 10
-51.777214062227891
 20
-17.388426599716151
 30
0.0
 10
-51.776750461804646
 20
-17.40444062115753
 30
0.0
 10
-51.77692736530738
 20
-17.425529890531148
 30
0.0
 10
-51.776864106733761
 20
-17.450611909445609
 30
0.0
 10
-51.7768850972408
 20
-17.479769083158526
 30
0.0
 10
-51.776879362807129
 20
-17.500490726955487
 30
0.0
 10
-51.776879246621796
 20
-17.511474672319263
 30
0.0
  0
ARC
  5
246
100
AcDbEntity
  8
________1________1
370
              18
390
0
  6
Continuous
 62
               7
100
AcDbCircle
 10
-31.641624169729241
 20
-11.278991781714822
 30
0.0
 40
2.4000000000000057
100
AcDbArc
 50
-90.0
 51
0.0
  0
LINE
  5
247
100
AcDbEntity
  8
________1________1
370
              18
390
0
  6
Continuous
 62
               7
100
AcDbLine
 10
-49.591624169729322
 20
-13.678991781714885
 30
0.0
 11
-31.641624169729354
 21
-13.678991781714885
 31
0.0
  0
ARC
  5
248
100
AcDbEntity
  8
________1________1
370
              18
390
0
  6
Continuous
 62
               7
100
AcDbCircle
 10
-49.591624169729322
 20
-11.278991781714822
 30
0.0
 40
2.8999999999999915
100
AcDbArc
 50
90.0
 51
180.0
  0
ARC
  5
249
100
AcDbEntity
  8
________1________1
370
              18
390
0
  6
Continuous
 62
               7
100
AcDbCircle
 10
-31.641624169729241
 20
-11.278991781714822
 30
0.0
 40
2.8999999999999289
100
AcDbArc
 50
45.000000000000995
 51
90.0
  0
ARC
  5
24A
100
AcDbEntity
  8
________1________1
370
              18
390
0
  6
Continuous
 62
               7
100
AcDbCircle
 10
-49.591624169729322
 20
-11.278991781714822
 30
0.0
 40
2.3999999999999915
100
AcDbArc
 50
90.0
 51
180.0
  0
ARC
  5
24B
100
AcDbEntity
  8
________1________1
370
              18
390
0
  6
Continuous
 62
               7
100
AcDbCircle
 10
-49.591624169729322
 20
-11.278991781714822
 30
0.0
 40
2.8999999999999773
100
AcDbArc
 50
180.0
 51
-135.0000000000004
  0
LINE
  5
24C
100
AcDbEntity
  8
________1________1
370
              18
390
0
  6
Continuous
 62
               7
100
AcDbLine
 10
-31.641624169729354
 20
-13.678991781714885
 30
0.0
 11
-49.591624169729322
 21
-13.678991781714885
 31
0.0
  0
ARC
  5
24D
100
AcDbEntity
  8
________1________1
370
              18
390
0
  6
Continuous
 62
               7
100
AcDbCircle
 10
-49.591624169729322
 20
-11.278991781714822
 30
0.0
 40
2.3999999999999773
100
AcDbArc
 50
180.0
 51
-90.0
  0
LINE
  5
24E
100
AcDbEntity
  8
________1________1
370
              18
390
0
  6
Continuous
 62
               7
100
AcDbLine
 10
-47.876893903874922
 20
-16.369941236236247
 30
0.0
 11
-47.876890390206732
 21
-14.178991781714901
 31
0.0
  0
ENDSEC
  0
SECTION
  2
OBJECTS
  0
DICTIONARY
  5
19
100
AcDbDictionary
280
               0
281
               1
  3
ACAD_GROUP
350
1A
  3
ACAD_MLINESTYLE
350
1B
  3
ACAD_LAYOUT
350
1E
  3
ACAD_PLOTSETTINGS
350
22
  3
ACAD_PLOTSTYLENAME
350
1F
  3
ACAD_WIPEOUT_VARS
350
23
  0
DICTIONARY
  5
1A
102
{ACAD_REACTORS
330
19
102
}
100
AcDbDictionary
280
               0
281
               1
  0
DICTIONARY
  5
1B
102
{ACAD_REACTORS
330
19
102
}
100
AcDbDictionary
280
               0
281
               1
  3
Standard
350
1C
  0
MLINESTYLE
  5
1C
102
{ACAD_REACTORS
330
1B
102
}
100
AcDbMlineStyle
  2
Standard
 70
               0
  3

 62
               0
 51
90.0
 52
90.0
 71
               2
 49
0.5
 62
             256
  6
ByLayer
 49
-0.5
 62
             256
  6
ByLayer
  0
ACDBDICTIONARYWDFLT
  5
1F
102
{ACAD_REACTORS
330
19
102
}
100
AcDbDictionary
281
               1
  3
Normal
350
1D
100
AcDbDictionaryWithDefault
340
1D
  0
ACDBPLACEHOLDER
  5
1D
102
{ACAD_REACTORS
330
1F
102
}
  0
LAYOUT
  5
20
102
{ACAD_REACTORS
330
1E
102
}
100
AcDbPlotSettings
  1

  2

  4

  6

 40
0.0
 41
0.0
 42
0.0
 43
0.0
 44
0.0
 45
0.0
 46
0.0
 47
0.0
 48
0.0
 49
0.0
140
0.0
141
0.0
142
1.0
143
1.0
 70
            1024
 72
               0
 73
               0
 74
               0
  7

 75
               0
147
1.0
148
0.0
149
0.0
100
AcDbLayout
  1
Model
 70
               0
 71
               0
 10
0.0
 20
0.0
 11
0.0
 21
0.0
 12
0.0
 22
0.0
 32
0.0
 14
0.0
 24
0.0
 34
0.0
 15
0.0
 25
0.0
 35
0.0
146
0.0
 13
0.0
 23
0.0
 33
0.0
 16
0.0
 26
0.0
 36
0.0
 17
0.0
 27
0.0
 37
0.0
 76
               0
330
A
331
0
345
0
346
0
  0
LAYOUT
  5
21
102
{ACAD_REACTORS
330
1E
102
}
100
AcDbPlotSettings
  1

  2

  4

  6

 40
0.0
 41
0.0
 42
0.0
 43
0.0
 44
0.0
 45
0.0
 46
0.0
 47
0.0
 48
0.0
 49
0.0
140
0.0
141
0.0
142
1.0
143
1.0
 70
               0
 72
               0
 73
               0
 74
               0
  7

 75
               0
147
1.0
148
0.0
149
0.0
100
AcDbLayout
  1
Layout1
 70
               0
 71
               0
 10
0.0
 20
0.0
 11
0.0
 21
0.0
 12
0.0
 22
0.0
 32
0.0
 14
0.0
 24
0.0
 34
0.0
 15
0.0
 25
0.0
 35
0.0
146
0.0
 13
0.0
 23
0.0
 33
0.0
 16
0.0
 26
0.0
 36
0.0
 17
0.0
 27
0.0
 37
0.0
 76
               0
330
B
331
0
345
0
346
0
  0
DICTIONARY
  5
1E
102
{ACAD_REACTORS
330
19
102
}
100
AcDbDictionary
280
               0
281
               1
  3
Layout1
350
21
  3
Model
350
20
  0
DICTIONARY
  5
22
102
{ACAD_REACTORS
330
19
102
}
100
AcDbDictionary
280
               0
281
               1
  0
WIPEOUTVARIABLES
  5
23
100
AcDbWipeoutVariables
 70
               1
  0
ENDSEC
  0
EOF
