  0
SECTION
  2
HEADER
  9
$ACADVER
  1
AC1015
  9
$ACADMAINTVER
 70
    20
  9
$DWGCODEPAGE
  3
ANSI_932
  9
$INSBASE
 10
0.0
 20
0.0
 30
0.0
  9
$EXTMIN
 10
793.678937007805
 20
355.3647656771707
 30
-0.0000000349181948
  9
$EXTMAX
 10
998.7160893531177
 20
499.6437895827987
 30
0.0000000814935746
  9
$LIMMIN
 10
0.0
 20
0.0
  9
$LIMMAX
 10
420.0
 20
297.0
  9
$ORTHOMODE
 70
     0
  9
$REGENMODE
 70
     1
  9
$FILLMODE
 70
     1
  9
$QTEXTMODE
 70
     0
  9
$MIRRTEXT
 70
     0
  9
$LTSCALE
 40
1.0
  9
$ATTMODE
 70
     1
  9
$TEXTSIZE
 40
2.5
  9
$TRACEWID
 40
1.0
  9
$TEXTSTYLE
  7
Standard
  9
$CLAYER
  8
0
  9
$CELTYPE
  6
ByLayer
  9
$CECOLOR
 62
   256
  9
$CELTSCALE
 40
1.0
  9
$DISPSILH
 70
     0
  9
$DIMSCALE
 40
1.0
  9
$DIMASZ
 40
2.5
  9
$DIMEXO
 40
0.625
  9
$DIMDLI
 40
3.75
  9
$DIMRND
 40
0.0
  9
$DIMDLE
 40
0.0
  9
$DIMEXE
 40
1.25
  9
$DIMTP
 40
0.0
  9
$DIMTM
 40
0.0
  9
$DIMTXT
 40
2.5
  9
$DIMCEN
 40
2.5
  9
$DIMTSZ
 40
0.0
  9
$DIMTOL
 70
     0
  9
$DIMLIM
 70
     0
  9
$DIMTIH
 70
     0
  9
$DIMTOH
 70
     0
  9
$DIMSE1
 70
     0
  9
$DIMSE2
 70
     0
  9
$DIMTAD
 70
     1
  9
$DIMZIN
 70
     8
  9
$DIMBLK
  1

  9
$DIMASO
 70
     1
  9
$DIMSHO
 70
     1
  9
$DIMPOST
  1

  9
$DIMAPOST
  1

  9
$DIMALT
 70
     0
  9
$DIMALTD
 70
     3
  9
$DIMALTF
 40
0.03937007874016
  9
$DIMLFAC
 40
1.0
  9
$DIMTOFL
 70
     1
  9
$DIMTVP
 40
0.0
  9
$DIMTIX
 70
     0
  9
$DIMSOXD
 70
     0
  9
$DIMSAH
 70
     0
  9
$DIMBLK1
  1

  9
$DIMBLK2
  1

  9
$DIMSTYLE
  2
ISO-25
  9
$DIMCLRD
 70
     0
  9
$DIMCLRE
 70
     0
  9
$DIMCLRT
 70
     0
  9
$DIMTFAC
 40
1.0
  9
$DIMGAP
 40
0.625
  9
$DIMJUST
 70
     0
  9
$DIMSD1
 70
     0
  9
$DIMSD2
 70
     0
  9
$DIMTOLJ
 70
     0
  9
$DIMTZIN
 70
     8
  9
$DIMALTZ
 70
     0
  9
$DIMALTTZ
 70
     0
  9
$DIMUPT
 70
     0
  9
$DIMDEC
 70
     2
  9
$DIMTDEC
 70
     2
  9
$DIMALTU
 70
     2
  9
$DIMALTTD
 70
     3
  9
$DIMTXSTY
  7
Standard
  9
$DIMAUNIT
 70
     0
  9
$DIMADEC
 70
     0
  9
$DIMALTRND
 40
0.0
  9
$DIMAZIN
 70
     0
  9
$DIMDSEP
 70
    44
  9
$DIMATFIT
 70
     3
  9
$DIMFRAC
 70
     0
  9
$DIMLDRBLK
  1

  9
$DIMLUNIT
 70
     2
  9
$DIMLWD
 70
    -2
  9
$DIMLWE
 70
    -2
  9
$DIMTMOVE
 70
     0
  9
$LUNITS
 70
     2
  9
$LUPREC
 70
     4
  9
$SKETCHINC
 40
1.0
  9
$FILLETRAD
 40
0.0
  9
$AUNITS
 70
     0
  9
$AUPREC
 70
     0
  9
$MENU
  1
.
  9
$ELEVATION
 40
0.0
  9
$PELEVATION
 40
0.0
  9
$THICKNESS
 40
0.0
  9
$LIMCHECK
 70
     0
  9
$CHAMFERA
 40
0.0
  9
$CHAMFERB
 40
0.0
  9
$CHAMFERC
 40
0.0
  9
$CHAMFERD
 40
0.0
  9
$SKPOLY
 70
     0
  9
$TDCREATE
 40
2455419.549782801
  9
$TDUCREATE
 40
2455419.174782801
  9
$TDUPDATE
 40
2455419.550725000
  9
$TDUUPDATE
 40
2455419.175725000
  9
$TDINDWG
 40
0.0004041782
  9
$TDUSRTIMER
 40
0.0004041782
  9
$USRTIMER
 70
     1
  9
$ANGBASE
 50
0.0
  9
$ANGDIR
 70
     0
  9
$PDMODE
 70
     0
  9
$PDSIZE
 40
0.0
  9
$PLINEWID
 40
0.0
  9
$SPLFRAME
 70
     0
  9
$SPLINETYPE
 70
     6
  9
$SPLINESEGS
 70
     8
  9
$HANDSEED
  5
60E
  9
$SURFTAB1
 70
     6
  9
$SURFTAB2
 70
     6
  9
$SURFTYPE
 70
     6
  9
$SURFU
 70
     6
  9
$SURFV
 70
     6
  9
$UCSBASE
  2

  9
$UCSNAME
  2

  9
$UCSORG
 10
0.0
 20
0.0
 30
0.0
  9
$UCSXDIR
 10
1.0
 20
0.0
 30
0.0
  9
$UCSYDIR
 10
0.0
 20
1.0
 30
0.0
  9
$UCSORTHOREF
  2

  9
$UCSORTHOVIEW
 70
     0
  9
$UCSORGTOP
 10
0.0
 20
0.0
 30
0.0
  9
$UCSORGBOTTOM
 10
0.0
 20
0.0
 30
0.0
  9
$UCSORGLEFT
 10
0.0
 20
0.0
 30
0.0
  9
$UCSORGRIGHT
 10
0.0
 20
0.0
 30
0.0
  9
$UCSORGFRONT
 10
0.0
 20
0.0
 30
0.0
  9
$UCSORGBACK
 10
0.0
 20
0.0
 30
0.0
  9
$PUCSBASE
  2

  9
$PUCSNAME
  2

  9
$PUCSORG
 10
0.0
 20
0.0
 30
0.0
  9
$PUCSXDIR
 10
1.0
 20
0.0
 30
0.0
  9
$PUCSYDIR
 10
0.0
 20
1.0
 30
0.0
  9
$PUCSORTHOREF
  2

  9
$PUCSORTHOVIEW
 70
     0
  9
$PUCSORGTOP
 10
0.0
 20
0.0
 30
0.0
  9
$PUCSORGBOTTOM
 10
0.0
 20
0.0
 30
0.0
  9
$PUCSORGLEFT
 10
0.0
 20
0.0
 30
0.0
  9
$PUCSORGRIGHT
 10
0.0
 20
0.0
 30
0.0
  9
$PUCSORGFRONT
 10
0.0
 20
0.0
 30
0.0
  9
$PUCSORGBACK
 10
0.0
 20
0.0
 30
0.0
  9
$USERI1
 70
     0
  9
$USERI2
 70
     0
  9
$USERI3
 70
     0
  9
$USERI4
 70
     0
  9
$USERI5
 70
     0
  9
$USERR1
 40
0.0
  9
$USERR2
 40
0.0
  9
$USERR3
 40
0.0
  9
$USERR4
 40
0.0
  9
$USERR5
 40
0.0
  9
$WORLDVIEW
 70
     1
  9
$SHADEDGE
 70
     3
  9
$SHADEDIF
 70
    70
  9
$TILEMODE
 70
     1
  9
$MAXACTVP
 70
    64
  9
$PINSBASE
 10
0.0
 20
0.0
 30
0.0
  9
$PLIMCHECK
 70
     0
  9
$PEXTMIN
 10
0.0
 20
0.0
 30
0.0
  9
$PEXTMAX
 10
0.0
 20
0.0
 30
0.0
  9
$PLIMMIN
 10
0.0
 20
0.0
  9
$PLIMMAX
 10
12.0
 20
9.0
  9
$UNITMODE
 70
     0
  9
$VISRETAIN
 70
     1
  9
$PLINEGEN
 70
     0
  9
$PSLTSCALE
 70
     1
  9
$TREEDEPTH
 70
  3020
  9
$CMLSTYLE
  2
Standard
  9
$CMLJUST
 70
     0
  9
$CMLSCALE
 40
20.0
  9
$PROXYGRAPHICS
 70
     1
  9
$MEASUREMENT
 70
     1
  9
$CELWEIGHT
370
    -1
  9
$ENDCAPS
280
     0
  9
$JOINSTYLE
280
     0
  9
$LWDISPLAY
290
     0
  9
$INSUNITS
 70
     4
  9
$HYPERLINKBASE
  1

  9
$STYLESHEET
  1

  9
$XEDIT
290
     1
  9
$CEPSNTYPE
380
     0
  9
$PSTYLEMODE
290
     1
  9
$FINGERPRINTGUID
  2
{FDEAD578-A652-11D2-9A35-0060089B3A3F}
  9
$VERSIONGUID
  2
{B1734A86-4874-4D94-95F7-615491FA9D26}
  9
$EXTNAMES
290
     1
  9
$PSVPSCALE
 40
0.0
  9
$OLESTARTUP
290
     0
  0
ENDSEC
  0
SECTION
  2
CLASSES
  0
CLASS
  1
ACDBDICTIONARYWDFLT
  2
AcDbDictionaryWithDefault
  3
ObjectDBX Classes
 90
        0
280
     0
281
     0
  0
CLASS
  1
ACDBPLACEHOLDER
  2
AcDbPlaceHolder
  3
ObjectDBX Classes
 90
        0
280
     0
281
     0
  0
CLASS
  1
LAYOUT
  2
AcDbLayout
  3
ObjectDBX Classes
 90
        0
280
     0
281
     0
  0
CLASS
  1
DICTIONARYVAR
  2
AcDbDictionaryVar
  3
ObjectDBX Classes
 90
        0
280
     0
281
     0
  0
CLASS
  1
DIMASSOC
  2
AcDbDimAssoc
  3
"AcDbDimAssoc|Product Desc:     AcDim ARX App For Dimension|Company:          Autodesk, Inc.|WEB Address:      www.autodesk.com"
 90
        0
280
     0
281
     0
  0
ENDSEC
  0
SECTION
  2
TABLES
  0
TABLE
  2
VPORT
  5
8
330
0
100
AcDbSymbolTable
 70
     2
  0
VPORT
  5
604
330
8
100
AcDbSymbolTableRecord
100
AcDbViewportTableRecord
  2
*Active
 70
     0
 10
0.0
 20
0.0
 11
1.0
 21
1.0
 12
896.1975131804614
 22
427.5042776299847
 13
0.0
 23
0.0
 14
10.0
 24
10.0
 15
10.0
 25
10.0
 16
0.0
 26
0.0
 36
1.0
 17
0.0
 27
0.0
 37
0.0
 40
146.0069164074919
 41
2.302
 42
50.0
 43
0.0
 44
0.0
 50
0.0
 51
0.0
 71
     0
 72
  1000
 73
     1
 74
     3
 75
     0
 76
     0
 77
     0
 78
     0
281
     0
 65
     1
110
0.0
120
0.0
130
0.0
111
1.0
121
0.0
131
0.0
112
0.0
122
1.0
132
0.0
 79
     0
146
0.0
  0
ENDTAB
  0
TABLE
  2
LTYPE
  5
5
330
0
100
AcDbSymbolTable
 70
     3
  0
LTYPE
  5
14
330
5
100
AcDbSymbolTableRecord
100
AcDbLinetypeTableRecord
  2
ByBlock
 70
     0
  3

 72
    65
 73
     0
 40
0.0
  0
LTYPE
  5
15
330
5
100
AcDbSymbolTableRecord
100
AcDbLinetypeTableRecord
  2
ByLayer
 70
     0
  3

 72
    65
 73
     0
 40
0.0
  0
LTYPE
  5
16
330
5
100
AcDbSymbolTableRecord
100
AcDbLinetypeTableRecord
  2
Continuous
 70
     0
  3
Solid line
 72
    65
 73
     0
 40
0.0
  0
LTYPE
  5
15D
330
5
100
AcDbSymbolTableRecord
100
AcDbLinetypeTableRecord
  2
BORDER
 70
     0
  3
__ . __ . 
 72
    65
 73
     4
 40
22.0
 49
20.0
 74
     0
 49
-1.0
 74
     0
 49
0.0
 74
     0
 49
-1.0
 74
     0
  0
LTYPE
  5
15E
330
5
100
AcDbSymbolTableRecord
100
AcDbLinetypeTableRecord
  2
DOT
 70
     0
  3

 72
    65
 73
     2
 40
1.0
 49
0.0
 74
     0
 49
-1.0
 74
     0
  0
ENDTAB
  0
TABLE
  2
LAYER
  5
2
102
{ACAD_XDICTIONARY
360
168
102
}
330
0
100
AcDbSymbolTable
 70
     6
  0
LAYER
  5
10
330
2
100
AcDbSymbolTableRecord
100
AcDbLayerTableRecord
  2
0
 70
     0
 62
     7
  6
Continuous
370
    -3
390
F
  0
LAYER
  5
15F
330
2
100
AcDbSymbolTableRecord
100
AcDbLayerTableRecord
  2
Defpoints
 70
     0
 62
     7
  6
Continuous
290
     0
370
    -3
390
F
  0
LAYER
  5
160
330
2
100
AcDbSymbolTableRecord
100
AcDbLayerTableRecord
  2
図枠
 70
     0
 62
     7
  6
Continuous
370
    50
390
F
  0
LAYER
  5
161
330
2
100
AcDbSymbolTableRecord
100
AcDbLayerTableRecord
  2
寸法線・引き出し線
 70
     0
 62
     4
  6
Continuous
370
     0
390
F
  0
LAYER
  5
162
330
2
100
AcDbSymbolTableRecord
100
AcDbLayerTableRecord
  2
レイヤー 1
 70
     0
 62
     7
  6
Continuous
370
    -3
390
F
  0
LAYER
  5
163
330
2
100
AcDbSymbolTableRecord
100
AcDbLayerTableRecord
  2
改訂
 70
     0
 62
     7
  6
Continuous
370
    -3
390
F
  0
ENDTAB
  0
TABLE
  2
STYLE
  5
3
330
0
100
AcDbSymbolTable
 70
     2
  0
STYLE
  5
11
330
3
100
AcDbSymbolTableRecord
100
AcDbTextStyleTableRecord
  2
Standard
 70
     0
 40
0.0
 41
1.0
 50
0.0
 71
     0
 42
2.5
  3
txt
  4

  0
STYLE
  5
164
330
3
100
AcDbSymbolTableRecord
100
AcDbTextStyleTableRecord
  2
ゴシック
 70
     0
 40
0.0
 41
1.0
 50
0.0
 71
     0
 42
1.767676767676765
  3
MS PGothic.ttf
  4

1001
ACAD
1000
MS PGothic
1071
    32818
  0
ENDTAB
  0
TABLE
  2
VIEW
  5
6
330
0
100
AcDbSymbolTable
 70
     0
  0
ENDTAB
  0
TABLE
  2
UCS
  5
7
330
0
100
AcDbSymbolTable
 70
     0
  0
ENDTAB
  0
TABLE
  2
APPID
  5
9
330
0
100
AcDbSymbolTable
 70
     1
  0
APPID
  5
12
330
9
100
AcDbSymbolTableRecord
100
AcDbRegAppTableRecord
  2
ACAD
 70
     0
  0
ENDTAB
  0
TABLE
  2
DIMSTYLE
  5
A
330
0
100
AcDbSymbolTable
 70
     4
100
AcDbDimStyleTable
 71
     0
  0
DIMSTYLE
105
27
330
A
100
AcDbSymbolTableRecord
100
AcDbDimStyleTableRecord
  2
ISO-25
 70
     0
 41
2.5
 42
0.625
 43
3.75
 44
1.25
 73
     0
 74
     0
 77
     1
 78
     8
140
2.5
141
2.5
143
0.03937007874016
147
0.625
171
     3
172
     1
271
     2
272
     2
274
     3
278
    44
283
     0
284
     8
340
11
  0
DIMSTYLE
105
165
102
{ACAD_REACTORS
330
3D7
330
3DA
330
3DD
330
3E0
330
3E3
330
3EE
330
3FB
330
420
330
423
330
440
330
443
330
44F
330
459
102
}
330
A
100
AcDbSymbolTableRecord
100
AcDbDimStyleTableRecord
  2
基本（１：１）
 70
     0
 40
0.0
 41
1.5
 42
1.0
 43
7.0
 44
0.1
 73
     0
 74
     0
 77
     1
 78
     8
140
2.5
141
1.0
143
0.0394
147
0.5
171
     4
172
     1
176
     4
177
     4
178
     4
273
     8
274
     4
340
164
371
     0
372
     0
  0
DIMSTYLE
105
166
330
A
100
AcDbSymbolTableRecord
100
AcDbDimStyleTableRecord
  2
基本（２：１）
 70
     0
 40
0.0
 41
1.0
 42
0.5
 43
3.5
 44
0.5
 73
     0
 74
     0
 77
     1
 78
     8
140
1.25
141
0.5
143
0.0394
147
0.5
171
     4
172
     1
176
     4
177
     4
178
     4
271
     2
272
     2
273
     8
274
     4
340
164
371
    13
372
    13
  0
DIMSTYLE
105
167
330
A
100
AcDbSymbolTableRecord
100
AcDbDimStyleTableRecord
  2
基本（1：8）
 70
     0
 40
0.0
 41
10.0
 42
10.0
 43
28.0
 44
4.0
 73
     0
 74
     0
 77
     1
 78
     8
140
20.0
141
4.0
143
0.0394
147
5.0
171
     4
172
     1
176
     4
177
     4
178
     4
271
     1
272
     1
273
     8
274
     4
340
164
371
     0
372
     0
  0
ENDTAB
  0
TABLE
  2
BLOCK_RECORD
  5
1
330
0
100
AcDbSymbolTable
 70
    31
  0
BLOCK_RECORD
  5
1F
330
1
100
AcDbSymbolTableRecord
100
AcDbBlockTableRecord
  2
*Model_Space
340
22
  0
BLOCK_RECORD
  5
50
330
1
100
AcDbSymbolTableRecord
100
AcDbBlockTableRecord
  2
*Paper_Space
340
51
  0
BLOCK_RECORD
  5
55
330
1
100
AcDbSymbolTableRecord
100
AcDbBlockTableRecord
  2
*Paper_Space0
340
56
  0
BLOCK_RECORD
  5
87
102
{ACAD_XDICTIONARY
360
88
102
}
330
1
100
AcDbSymbolTableRecord
100
AcDbBlockTableRecord
  2
A$C66767C9E
340
0
102
{BLKREFS
331
C1
102
}
  0
BLOCK_RECORD
  5
9A
102
{ACAD_XDICTIONARY
360
9B
102
}
330
1
100
AcDbSymbolTableRecord
100
AcDbBlockTableRecord
  2
A$C4D0D3DBA
340
0
102
{BLKREFS
331
C0
102
}
  0
BLOCK_RECORD
  5
A9
102
{ACAD_XDICTIONARY
360
AA
102
}
330
1
100
AcDbSymbolTableRecord
100
AcDbBlockTableRecord
  2
A$C35B26000
340
0
102
{BLKREFS
331
BF
102
}
  0
BLOCK_RECORD
  5
BC
102
{ACAD_XDICTIONARY
360
BD
102
}
330
1
100
AcDbSymbolTableRecord
100
AcDbBlockTableRecord
  2
A$C33767BF9
340
0
102
{BLKREFS
331
426
102
}
  0
BLOCK_RECORD
  5
528
330
1
100
AcDbSymbolTableRecord
100
AcDbBlockTableRecord
  2
*D18
340
0
  0
BLOCK_RECORD
  5
534
330
1
100
AcDbSymbolTableRecord
100
AcDbBlockTableRecord
  2
*D19
340
0
  0
BLOCK_RECORD
  5
53C
330
1
100
AcDbSymbolTableRecord
100
AcDbBlockTableRecord
  2
*D20
340
0
  0
BLOCK_RECORD
  5
548
330
1
100
AcDbSymbolTableRecord
100
AcDbBlockTableRecord
  2
*D21
340
0
  0
BLOCK_RECORD
  5
550
330
1
100
AcDbSymbolTableRecord
100
AcDbBlockTableRecord
  2
*D22
340
0
  0
BLOCK_RECORD
  5
55C
330
1
100
AcDbSymbolTableRecord
100
AcDbBlockTableRecord
  2
*D23
340
0
  0
BLOCK_RECORD
  5
568
330
1
100
AcDbSymbolTableRecord
100
AcDbBlockTableRecord
  2
*D24
340
0
  0
BLOCK_RECORD
  5
574
330
1
100
AcDbSymbolTableRecord
100
AcDbBlockTableRecord
  2
*D25
340
0
  0
BLOCK_RECORD
  5
599
330
1
100
AcDbSymbolTableRecord
100
AcDbBlockTableRecord
  2
*D26
340
0
  0
BLOCK_RECORD
  5
5A5
330
1
100
AcDbSymbolTableRecord
100
AcDbBlockTableRecord
  2
*D27
340
0
  0
BLOCK_RECORD
  5
5B1
330
1
100
AcDbSymbolTableRecord
100
AcDbBlockTableRecord
  2
*D28
340
0
  0
BLOCK_RECORD
  5
5BF
330
1
100
AcDbSymbolTableRecord
100
AcDbBlockTableRecord
  2
*D29
340
0
  0
BLOCK_RECORD
  5
5CB
330
1
100
AcDbSymbolTableRecord
100
AcDbBlockTableRecord
  2
*D30
340
0
  0
ENDTAB
  0
ENDSEC
  0
SECTION
  2
BLOCKS
  0
BLOCK
  5
20
330
1F
100
AcDbEntity
  8
0
100
AcDbBlockBegin
  2
*Model_Space
 70
     0
 10
0.0
 20
0.0
 30
0.0
  3
*Model_Space
  1

  0
ENDBLK
  5
21
330
1F
100
AcDbEntity
  8
0
100
AcDbBlockEnd
  0
BLOCK
  5
52
330
50
100
AcDbEntity
 67
     1
  8
0
100
AcDbBlockBegin
  2
*Paper_Space
 70
     0
 10
0.0
 20
0.0
 30
0.0
  3
*Paper_Space
  1

  0
ENDBLK
  5
53
330
50
100
AcDbEntity
 67
     1
  8
0
100
AcDbBlockEnd
  0
BLOCK
  5
57
330
55
100
AcDbEntity
  8
0
100
AcDbBlockBegin
  2
*Paper_Space0
 70
     0
 10
0.0
 20
0.0
 30
0.0
  3
*Paper_Space0
  1

  0
ENDBLK
  5
58
330
55
100
AcDbEntity
  8
0
100
AcDbBlockEnd
  0
BLOCK
  5
89
330
87
100
AcDbEntity
  8
0
 62
     2
100
AcDbBlockBegin
  2
A$C66767C9E
 70
     0
 10
0.0
 20
0.0
 30
0.0
  3
A$C66767C9E
  1

  0
SPLINE
  5
8A
330
87
100
AcDbEntity
  8
レイヤー 1
 62
     4
370
    35
100
AcDbSpline
210
0.0
220
0.0
230
1.0
 70
     8
 71
     3
 72
     8
 73
     4
 74
     0
 42
0.0000000001
 43
0.0000000001
 40
0.0
 40
0.0
 40
0.0
 40
0.0
 40
1.0
 40
1.0
 40
1.0
 40
1.0
 10
2.318927029915357
 20
2.662690465992426
 30
0.0
 10
1.730364955174081
 20
2.781828803488593
 30
0.0
 10
1.579715983509231
 20
2.842134202007002
 30
0.0
 10
1.610124999799154
 20
2.995513586301655
 30
0.0
  0
SPLINE
  5
8B
330
87
100
AcDbEntity
  8
レイヤー 1
 62
     4
370
    35
100
AcDbSpline
210
0.0
220
0.0
230
1.0
 70
     8
 71
     3
 72
     8
 73
     4
 74
     0
 42
0.0000000001
 43
0.0000000001
 40
0.0
 40
0.0
 40
0.0
 40
0.0
 40
1.0
 40
1.0
 40
1.0
 40
1.0
 10
1.610124999799154
 20
2.995513586301655
 30
0.0
 10
1.639915946651854
 20
3.145435417452858
 30
0.0
 10
1.797789059322894
 20
3.25120527660141
 30
0.0
 10
2.127576367986875
 20
3.25120527660141
 30
0.0
  0
SPLINE
  5
8C
330
87
100
AcDbEntity
  8
レイヤー 1
 62
     4
370
    35
100
AcDbSpline
210
0.0
220
0.0
230
1.0
 70
     8
 71
     3
 72
     8
 73
     4
 74
     0
 42
0.0000000001
 43
0.0000000001
 40
0.0
 40
0.0
 40
0.0
 40
0.0
 40
1.0
 40
1.0
 40
1.0
 40
1.0
 10
0.4230390252741927
 20
3.028747543488435
 30
0.0
 10
0.2280635678826002
 20
1.979632845769145
 30
0.0
 10
1.11412427677078
 20
1.812136028397588
 30
0.0
 10
1.589303331184055
 20
1.681868805336534
 30
0.0
  0
SPLINE
  5
8D
330
87
100
AcDbEntity
  8
レイヤー 1
 62
     4
370
    35
100
AcDbSpline
210
0.0
220
0.0
230
1.0
 70
     8
 71
     3
 72
     8
 73
     4
 74
     0
 42
0.0000000001
 43
0.0000000001
 40
0.0
 40
0.0
 40
0.0
 40
0.0
 40
1.0
 40
1.0
 40
1.0
 40
1.0
 10
2.305260423958316
 20
4.191852423865611
 30
0.0
 10
1.098836147466499
 20
4.191408868152137
 30
0.0
 10
0.5389961230221161
 20
3.652943139113318
 30
0.0
 10
0.4230390252741927
 20
3.028747543488435
 30
0.0
  0
LINE
  5
8E
330
87
100
AcDbEntity
  8
レイヤー 1
 62
     4
370
    35
100
AcDbLine
 10
2.555727609665154
 20
2.861254361818623
 30
0.0
 11
3.816436561219234
 21
2.861254361818623
 31
0.0
  0
SPLINE
  5
8F
330
87
100
AcDbEntity
  8
レイヤー 1
 62
     4
370
    35
100
AcDbSpline
210
0.0
220
0.0
230
1.0
 70
     8
 71
     3
 72
     8
 73
     4
 74
     0
 42
0.0000000001
 43
0.0000000001
 40
0.0
 40
0.0
 40
0.0
 40
0.0
 40
1.0
 40
1.0
 40
1.0
 40
1.0
 10
2.127576367986875
 20
3.25120527660141
 30
0.0
 10
2.524678709722138
 20
3.25120527660141
 30
0.0
 10
2.555727609665154
 20
3.004799170663886
 30
0.0
 10
2.555727609665154
 20
2.861254361819391
 30
0.0
  0
SPLINE
  5
90
330
87
100
AcDbEntity
  8
レイヤー 1
 62
     4
370
    35
100
AcDbSpline
210
0.0
220
0.0
230
1.0
 70
     8
 71
     3
 72
     8
 73
     4
 74
     0
 42
0.0000000001
 43
0.0000000001
 40
0.0
 40
0.0
 40
0.0
 40
0.0
 40
1.0
 40
1.0
 40
1.0
 40
1.0
 10
1.589303331184055
 20
1.681868805336534
 30
0.0
 10
2.034302418568586
 20
1.559803727271969
 30
0.0
 10
2.392353679007101
 20
1.502355990973114
 30
0.0
 10
2.347634537404701
 20
1.263264918605187
 30
0.0
  0
SPLINE
  5
91
330
87
100
AcDbEntity
  8
レイヤー 1
 62
     4
370
    35
100
AcDbSpline
210
0.0
220
0.0
230
1.0
 70
     8
 71
     3
 72
     8
 73
     4
 74
     0
 42
0.0000000001
 43
0.0000000001
 40
0.0
 40
0.0
 40
0.0
 40
0.0
 40
1.0
 40
1.0
 40
1.0
 40
1.0
 10
2.347634537404701
 20
1.263264918605187
 30
0.0
 10
2.292582729098285
 20
0.9689293456954999
 30
0.0
 10
2.024645992545629
 20
0.9546592131106592
 30
0.0
 10
1.702082824886929
 20
0.9519578861015816
 30
0.0
  0
SPLINE
  5
92
330
87
100
AcDbEntity
  8
レイヤー 1
 62
     4
370
    35
100
AcDbSpline
210
0.0
220
0.0
230
1.0
 70
     8
 71
     3
 72
     8
 73
     4
 74
     0
 42
0.0000000001
 43
0.0000000001
 40
0.0
 40
0.0
 40
0.0
 40
0.0
 40
1.0
 40
1.0
 40
1.0
 40
1.0
 10
1.702082824886929
 20
0.9519578861015816
 30
0.0
 10
1.460119547488829
 20
0.9498273643959294
 30
0.0
 10
1.213677084525443
 20
1.059538325129693
 30
0.0
 10
1.213677084525443
 20
1.315779006517402
 30
0.0
  0
SPLINE
  5
93
330
87
100
AcDbEntity
  8
レイヤー 1
 62
     4
370
    35
100
AcDbSpline
210
0.0
220
0.0
230
1.0
 70
    24
 71
     3
 72
     8
 73
     4
 74
     0
 42
0.0000000001
 43
0.0000000001
 40
0.0
 40
0.0
 40
0.0
 40
0.0
 40
1.0
 40
1.0
 40
1.0
 40
1.0
 10
1.213677084525443
 20
1.315779006517402
 30
0.0
 10
1.213677084525443
 20
1.509671024542711
 30
0.0
 10
1.213677084525443
 20
1.559803727271969
 30
0.0
 10
1.213677084525443
 20
1.559803727271969
 30
0.0
  0
SPLINE
  5
94
330
87
100
AcDbEntity
  8
レイヤー 1
 62
     4
370
    35
100
AcDbSpline
210
0.0
220
0.0
230
1.0
 70
     8
 71
     3
 72
     8
 73
     4
 74
     0
 42
0.0000000001
 43
0.0000000001
 40
0.0
 40
0.0
 40
0.0
 40
0.0
 40
1.0
 40
1.0
 40
1.0
 40
1.0
 10
3.816436561220143
 20
2.861254361819391
 30
0.0
 10
3.81885066772611
 20
3.547845884940102
 30
0.0
 10
3.684875028044189
 20
4.192546843056362
 30
0.0
 10
2.305260423958316
 20
4.191852423865611
 30
0.0
  0
SPLINE
  5
95
330
87
100
AcDbEntity
  8
レイヤー 1
 62
     4
370
    35
100
AcDbSpline
210
0.0
220
0.0
230
1.0
 70
     8
 71
     3
 72
     8
 73
     4
 74
     0
 42
0.0000000001
 43
0.0000000001
 40
0.0
 40
0.0
 40
0.0
 40
0.0
 40
1.0
 40
1.0
 40
1.0
 40
1.0
 10
1.522428218122513
 20
0.0000000681440042
 30
0.0
 10
2.27827623948724
 20
0.0000000681440042
 30
0.0
 10
3.408663432443063
 20
0.1148955407417418
 30
0.0
 10
3.630655795626807
 20
1.315779006517402
 30
0.0
  0
SPLINE
  5
96
330
87
100
AcDbEntity
  8
レイヤー 1
 62
     4
370
    35
100
AcDbSpline
210
0.0
220
0.0
230
1.0
 70
     8
 71
     3
 72
     8
 73
     4
 74
     0
 42
0.0000000001
 43
0.0000000001
 40
0.0
 40
0.0
 40
0.0
 40
0.0
 40
1.0
 40
1.0
 40
1.0
 40
1.0
 10
3.630655795626807
 20
1.315779006517402
 30
0.0
 10
3.814520545965933
 20
2.30995096700812
 30
0.0
 10
2.92180286567418
 20
2.540698101979273
 30
0.0
 10
2.318927029915357
 20
2.662690465992426
 30
0.0
  0
LINE
  5
97
330
87
100
AcDbEntity
  8
レイヤー 1
 62
     4
370
    35
100
AcDbLine
 10
1.213677084526352
 20
1.559803727269866
 30
0.0
 11
0.0271219225769528
 21
1.559803727269866
 31
0.0
  0
SPLINE
  5
98
330
87
100
AcDbEntity
  8
レイヤー 1
 62
     4
370
    35
100
AcDbSpline
210
0.0
220
0.0
230
1.0
 70
     8
 71
     3
 72
     8
 73
     4
 74
     0
 42
0.0000000001
 43
0.0000000001
 40
0.0
 40
0.0
 40
0.0
 40
0.0
 40
1.0
 40
1.0
 40
1.0
 40
1.0
 10
0.0271219225751338
 20
1.559803727271969
 30
0.0
 10
-0.1236506629766154
 20
0.7129395277850393
 30
0.0
 10
0.3500559318954401
 20
0.0000727821954172
 30
0.0
 10
1.522428218122513
 20
0.0000000681440042
 30
0.0
  0
ENDBLK
  5
99
330
87
100
AcDbEntity
  8
0
 62
     2
100
AcDbBlockEnd
  0
BLOCK
  5
9C
330
9A
100
AcDbEntity
  8
0
 62
     2
100
AcDbBlockBegin
  2
A$C4D0D3DBA
 70
     0
 10
0.0
 20
0.0
 30
0.0
  3
A$C4D0D3DBA
  1

  0
SPLINE
  5
9D
330
9A
100
AcDbEntity
  8
レイヤー 1
 62
     4
370
    35
100
AcDbSpline
210
0.0
220
0.0
230
1.0
 70
     8
 71
     3
 72
     8
 73
     4
 74
     0
 42
0.0000000001
 43
0.0000000001
 40
0.0
 40
0.0
 40
0.0
 40
0.0
 40
1.0
 40
1.0
 40
1.0
 40
1.0
 10
4.025155020377496
 20
2.60236697576559
 30
0.0
 10
4.09801086416428
 20
2.994004856539788
 30
0.0
 10
4.047841804410381
 20
4.000000121786115
 30
0.0
 10
2.626794733841961
 20
4.000000121786115
 30
0.0
  0
LINE
  5
9E
330
9A
100
AcDbEntity
  8
レイヤー 1
 62
     4
370
    35
100
AcDbLine
 10
1.234451535062362
 20
0.0000001549466901
 30
0.0
 11
1.459341553191734
 21
1.224882893386933
 31
0.0
  0
LINE
  5
9F
330
9A
100
AcDbEntity
  8
レイヤー 1
 62
     4
370
    35
100
AcDbLine
 10
1.459341553191734
 20
1.224882893386933
 30
0.0
 11
2.112451891353885
 21
1.224882893386933
 31
0.0
  0
LINE
  5
A0
330
9A
100
AcDbEntity
  8
レイヤー 1
 62
     4
370
    35
100
AcDbLine
 10
2.626794733841052
 20
4.000000121787479
 30
0.0
 11
0.7368692814125098
 21
4.000000121787479
 31
0.0
  0
LINE
  5
A1
330
9A
100
AcDbEntity
  8
レイヤー 1
 62
     4
370
    35
100
AcDbLine
 10
0.7368692814125098
 20
4.000000121787479
 30
0.0
 11
-0.0000003725399438
 21
0.0000001549466901
 31
0.0
  0
LINE
  5
A2
330
9A
100
AcDbEntity
  8
レイヤー 1
 62
     4
370
    35
100
AcDbLine
 10
2.296705661868145
 20
2.200930876565394
 30
0.0
 11
1.639937806923626
 21
2.200930876565394
 31
0.0
  0
LINE
  5
A3
330
9A
100
AcDbEntity
  8
レイヤー 1
 62
     4
370
    35
100
AcDbLine
 10
1.639937806923626
 20
2.200930876565394
 30
0.0
 11
1.789499703515502
 21
3.023915781579859
 31
0.0
  0
LINE
  5
A4
330
9A
100
AcDbEntity
  8
レイヤー 1
 62
     4
370
    35
100
AcDbLine
 10
1.789499703515502
 20
3.023915781579859
 30
0.0
 11
2.443820730633888
 21
3.023915781579859
 31
0.0
  0
SPLINE
  5
A5
330
9A
100
AcDbEntity
  8
レイヤー 1
 62
     4
370
    35
100
AcDbSpline
210
0.0
220
0.0
230
1.0
 70
     8
 71
     3
 72
     8
 73
     4
 74
     0
 42
0.0000000001
 43
0.0000000001
 40
0.0
 40
0.0
 40
0.0
 40
0.0
 40
1.0
 40
1.0
 40
1.0
 40
1.0
 10
2.443820730632978
 20
3.023915781578125
 30
0.0
 10
2.882751830430606
 20
3.023915781578125
 30
0.0
 10
2.858854357440577
 20
2.200930876566928
 30
0.0
 10
2.296705661865416
 20
2.200930876566928
 30
0.0
  0
SPLINE
  5
A6
330
9A
100
AcDbEntity
  8
レイヤー 1
 62
     4
370
    35
100
AcDbSpline
210
0.0
220
0.0
230
1.0
 70
     8
 71
     3
 72
     8
 73
     4
 74
     0
 42
0.0000000001
 43
0.0000000001
 40
0.0
 40
0.0
 40
0.0
 40
0.0
 40
1.0
 40
1.0
 40
1.0
 40
1.0
 10
2.112451891351156
 20
1.224882893384602
 30
0.0
 10
3.710510412914118
 20
1.224882893384602
 30
0.0
 10
3.889775999502489
 20
1.874462964348992
 30
0.0
 10
4.025155020377496
 20
2.60236697576559
 30
0.0
  0
LINE
  5
A7
330
9A
100
AcDbEntity
  8
レイヤー 1
 62
     4
370
    35
100
AcDbLine
 10
-0.0000003725399438
 20
0.0000001549466901
 30
0.0
 11
1.234451535062362
 21
0.0000001549466901
 31
0.0
  0
ENDBLK
  5
A8
330
9A
100
AcDbEntity
  8
0
 62
     2
100
AcDbBlockEnd
  0
BLOCK
  5
AB
330
A9
100
AcDbEntity
  8
0
 62
     2
100
AcDbBlockBegin
  2
A$C35B26000
 70
     0
 10
0.0
 20
0.0
 30
0.0
  3
A$C35B26000
  1

  0
SPLINE
  5
AC
330
A9
100
AcDbEntity
  8
レイヤー 1
 62
     4
370
    35
100
AcDbSpline
210
0.0
220
0.0
230
1.0
 70
     8
 71
     3
 72
     8
 73
     4
 74
     0
 42
0.0000000001
 43
0.0000000001
 40
0.0
 40
0.0
 40
0.0
 40
0.0
 40
1.0
 40
1.0
 40
1.0
 40
1.0
 10
3.935556335454748
 20
2.80492248928715
 30
0.0
 10
3.935556335454748
 20
3.608754513162807
 30
0.0
 10
3.421162593128428
 20
4.190092446899797
 30
0.0
 10
2.392513265172055
 20
4.190092446899797
 30
0.0
  0
SPLINE
  5
AD
330
A9
100
AcDbEntity
  8
レイヤー 1
 62
     4
370
    35
100
AcDbSpline
210
0.0
220
0.0
230
1.0
 70
     8
 71
     3
 72
     8
 73
     4
 74
     0
 42
0.0000000001
 43
0.0000000001
 40
0.0
 40
0.0
 40
0.0
 40
0.0
 40
1.0
 40
1.0
 40
1.0
 40
1.0
 10
2.392513265172055
 20
4.190092446899797
 30
0.0
 10
1.373414927865269
 20
4.190092446899797
 30
0.0
 10
0.3590066468732402
 20
3.821639441410582
 30
0.0
 10
0.0554036681151047
 20
2.190099734886103
 30
0.0
  0
LINE
  5
AE
330
A9
100
AcDbEntity
  8
レイヤー 1
 62
     4
370
    35
100
AcDbLine
 10
2.121006268697783
 20
1.517832879886157
 30
0.0
 11
2.670019170888735
 21
1.520246986395108
 31
0.0
  0
LINE
  5
AF
330
A9
100
AcDbEntity
  8
レイヤー 1
 62
     4
370
    35
100
AcDbLine
 10
2.799824659725345
 20
2.803075552384257
 30
0.0
 11
3.935556335454748
 21
2.804922489284621
 31
0.0
  0
LINE
  5
B0
330
A9
100
AcDbEntity
  8
レイヤー 1
 62
     4
370
    35
100
AcDbLine
 10
3.547950448827577
 20
0.1422320914391264
 30
0.0
 11
3.959911906966226
 21
2.371921220382375
 31
0.0
  0
LINE
  5
B1
330
A9
100
AcDbEntity
  8
レイヤー 1
 62
     4
370
    35
100
AcDbLine
 10
3.959911906966226
 20
2.371921220382375
 30
0.0
 11
2.279322937077267
 21
2.371921220382375
 31
0.0
  0
LINE
  5
B2
330
A9
100
AcDbEntity
  8
レイヤー 1
 62
     4
370
    35
100
AcDbLine
 10
2.279322937077267
 20
2.371921220382375
 30
0.0
 11
2.121006268697783
 21
1.517832879886157
 31
0.0
  0
SPLINE
  5
B3
330
A9
100
AcDbEntity
  8
レイヤー 1
 62
     4
370
    35
100
AcDbSpline
210
0.0
220
0.0
230
1.0
 70
     8
 71
     3
 72
     8
 73
     4
 74
     0
 42
0.0000000001
 43
0.0000000001
 40
0.0
 40
0.0
 40
0.0
 40
0.0
 40
1.0
 40
1.0
 40
1.0
 40
1.0
 10
2.670019170888735
 20
1.520246986394852
 30
0.0
 10
2.622122425239467
 20
1.233262804080396
 30
0.0
 10
2.220173691977834
 20
1.013095563586148
 30
0.0
 10
1.904427466637571
 20
1.013095563586148
 30
0.0
  0
SPLINE
  5
B4
330
A9
100
AcDbEntity
  8
レイヤー 1
 62
     4
370
    35
100
AcDbSpline
210
0.0
220
0.0
230
1.0
 70
     8
 71
     3
 72
     8
 73
     4
 74
     0
 42
0.0000000001
 43
0.0000000001
 40
0.0
 40
0.0
 40
0.0
 40
0.0
 40
1.0
 40
1.0
 40
1.0
 40
1.0
 10
1.904427466637571
 20
1.013095563586148
 30
0.0
 10
1.588644884271161
 20
1.013095563586148
 30
0.0
 10
1.086997915152096
 20
1.163886327651397
 30
0.0
 10
1.27528004411215
 20
2.178101916407115
 30
0.0
  0
SPLINE
  5
B5
330
A9
100
AcDbEntity
  8
レイヤー 1
 62
     4
370
    35
100
AcDbSpline
210
0.0
220
0.0
230
1.0
 70
     8
 71
     3
 72
     8
 73
     4
 74
     0
 42
0.0000000001
 43
0.0000000001
 40
0.0
 40
0.0
 40
0.0
 40
0.0
 40
1.0
 40
1.0
 40
1.0
 40
1.0
 10
1.27528004411215
 20
2.178101916407115
 30
0.0
 10
1.427205147379936
 20
2.996276786918997
 30
0.0
 10
1.924805579538769
 20
3.21399356388153
 30
0.0
 10
2.21193518995642
 20
3.21399356388153
 30
0.0
  0
SPLINE
  5
B6
330
A9
100
AcDbEntity
  8
レイヤー 1
 62
     4
370
    35
100
AcDbSpline
210
0.0
220
0.0
230
1.0
 70
     8
 71
     3
 72
     8
 73
     4
 74
     0
 42
0.0000000001
 43
0.0000000001
 40
0.0
 40
0.0
 40
0.0
 40
0.0
 40
1.0
 40
1.0
 40
1.0
 40
1.0
 10
2.21193518995642
 20
3.21399356388153
 30
0.0
 10
2.681915189695246
 20
3.21399356388153
 30
0.0
 10
2.799824659723526
 20
2.900679623559597
 30
0.0
 10
2.799824659723526
 20
2.803075552381869
 30
0.0
  0
SPLINE
  5
B7
330
A9
100
AcDbEntity
  8
レイヤー 1
 62
     4
370
    35
100
AcDbSpline
210
0.0
220
0.0
230
1.0
 70
     8
 71
     3
 72
     8
 73
     4
 74
     0
 42
0.0000000001
 43
0.0000000001
 40
0.0
 40
0.0
 40
0.0
 40
0.0
 40
1.0
 40
1.0
 40
1.0
 40
1.0
 10
0.0554036681151047
 20
2.190099734886103
 30
0.0
 10
-0.1731765881249885
 20
0.962359334230399
 30
0.0
 10
0.2967997759114951
 20
0.0020212218503843
 30
0.0
 10
1.617370570271305
 20
-0.0000002287782195
 30
0.0
  0
LINE
  5
B8
330
A9
100
AcDbEntity
  8
レイヤー 1
 62
     4
370
    35
100
AcDbLine
 10
2.760911735123954
 20
0.536938505183116
 30
0.0
 11
2.760911735123954
 21
0.1422320914391264
 31
0.0
  0
LINE
  5
B9
330
A9
100
AcDbEntity
  8
レイヤー 1
 62
     4
370
    35
100
AcDbLine
 10
2.760911735123954
 20
0.1422320914391264
 30
0.0
 11
3.547950448827577
 21
0.1422320914391264
 31
0.0
  0
SPLINE
  5
BA
330
A9
100
AcDbEntity
  8
レイヤー 1
 62
     4
370
    35
100
AcDbSpline
210
0.0
220
0.0
230
1.0
 70
     8
 71
     3
 72
     8
 73
     4
 74
     0
 42
0.0000000001
 43
0.0000000001
 40
0.0
 40
0.0
 40
0.0
 40
0.0
 40
1.0
 40
1.0
 40
1.0
 40
1.0
 10
1.617370570271305
 20
-0.0000002287782195
 30
0.0
 10
2.417970454563146
 20
-0.0013163531083364
 30
0.0
 10
2.760911735122135
 20
0.5083946043092169
 30
0.0
 10
2.760911735122135
 20
0.5369385051814675
 30
0.0
  0
ENDBLK
  5
BB
330
A9
100
AcDbEntity
  8
0
 62
     2
100
AcDbBlockEnd
  0
BLOCK
  5
BE
330
BC
100
AcDbEntity
  8
0
 62
     4
100
AcDbBlockBegin
  2
A$C33767BF9
 70
     0
 10
0.0
 20
0.0
 30
0.0
  3
A$C33767BF9
  1

  0
INSERT
  5
BF
330
BC
100
AcDbEntity
  8
0
 62
     2
100
AcDbBlockReference
  2
A$C35B26000
 10
7.915339911141018
 20
0.0013162186374984
 30
0.0
  0
INSERT
  5
C0
330
BC
100
AcDbEntity
  8
0
 62
     2
100
AcDbBlockReference
  2
A$C4D0D3DBA
 10
3.690696723144355
 20
0.0957241235300899
 30
0.0
  0
INSERT
  5
C1
330
BC
100
AcDbEntity
  8
0
 62
     2
100
AcDbBlockReference
  2
A$C66767C9E
 10
0.0000005627498467
 20
-0.0000002026169454
 30
0.0
  0
ENDBLK
  5
C2
330
BC
100
AcDbEntity
  8
0
 62
     4
100
AcDbBlockEnd
  0
BLOCK
  5
532
330
528
100
AcDbEntity
  8
0
100
AcDbBlockBegin
  2
*D18
 70
     1
 10
0.0
 20
0.0
 30
0.0
  3
*D18
  1

  0
LINE
  5
582
330
528
100
AcDbEntity
  8
0
 62
     4
370
     0
100
AcDbLine
 10
820.0313951543758
 20
450.5747313933714
 30
0.0
 11
814.9793407416714
 21
450.5747313933714
 31
0.0
  0
LINE
  5
583
330
528
100
AcDbEntity
  8
0
 62
     4
370
     0
100
AcDbLine
 10
820.5404986200047
 20
431.6747313933737
 30
0.0
 11
814.9793407416714
 21
431.6747313933737
 31
0.0
  0
LINE
  5
584
330
528
100
AcDbEntity
  8
0
 62
     4
370
     0
100
AcDbLine
 10
815.0793407416713
 20
449.0747313933714
 30
0.0
 11
815.0793407416713
 21
433.1747313933736
 31
0.0
  0
SOLID
  5
585
330
528
100
AcDbEntity
  8
0
 62
     4
100
AcDbTrace
 10
814.8293407416714
 20
449.0747313933714
 30
0.0
 11
815.3293407416715
 21
449.0747313933714
 31
0.0
 12
815.0793407416713
 22
450.5747313933714
 32
0.0
 13
815.0793407416713
 23
450.5747313933714
 33
0.0
  0
SOLID
  5
586
330
528
100
AcDbEntity
  8
0
 62
     4
100
AcDbTrace
 10
814.8293407416714
 20
433.1747313933736
 30
0.0
 11
815.3293407416715
 21
433.1747313933736
 31
0.0
 12
815.0793407416713
 22
431.6747313933737
 32
0.0
 13
815.0793407416713
 23
431.6747313933737
 33
0.0
  0
MTEXT
  5
587
330
528
100
AcDbEntity
  8
0
 62
     4
100
AcDbMText
 10
813.3293407416713
 20
441.1247313933738
 30
0.0
 40
2.5
 41
0.0
 71
     5
 72
     1
  1
\A1;19
  7
ゴシック
 11
0.0000000000000001
 21
1.0
 31
0.0
 73
     1
 44
1.0
1001
ACAD
1000
MTEXTBEGIN
1070
    73
1070
     1
1070
    44
1040
1.0
1070
    74
1070
     0
1000
MTEXTEND
  0
POINT
  5
588
330
528
100
AcDbEntity
  8
Defpoints
 62
     0
100
AcDbPoint
 10
821.0313951543758
 20
450.5747313933714
 30
0.0
  0
POINT
  5
589
330
528
100
AcDbEntity
  8
Defpoints
 62
     0
100
AcDbPoint
 10
821.5404986200047
 20
431.6747313933737
 30
0.0
  0
POINT
  5
58A
330
528
100
AcDbEntity
  8
Defpoints
 62
     0
100
AcDbPoint
 10
815.0793407416713
 20
431.6747313933737
 30
0.0
  0
ENDBLK
  5
533
330
528
100
AcDbEntity
  8
0
100
AcDbBlockEnd
  0
BLOCK
  5
53A
330
534
100
AcDbEntity
  8
0
100
AcDbBlockBegin
  2
*D19
 70
     1
 10
0.0
 20
0.0
 30
0.0
  3
*D19
  1

  0
LINE
  5
58B
330
534
100
AcDbEntity
  8
0
 62
     4
370
     0
100
AcDbLine
 10
832.6445740029638
 20
440.690870930645
 30
0.0
 11
827.5178228462145
 21
444.6569136924932
 31
0.0
  0
MTEXT
  5
58C
330
534
100
AcDbEntity
  8
0
 62
     4
100
AcDbMText
 10
831.7712858120774
 20
443.6328697613303
 30
0.0
 40
2.5
 41
0.0
 71
     5
 72
     1
  1
\A1;{\fArial|b0|i0|c0|p32;C}3
  7
ゴシック
 11
0.7909517945572273
 21
-0.6118784672520371
 31
0.0
 73
     1
 44
1.0
1001
ACAD
1000
MTEXTBEGIN
1070
    73
1070
     1
1070
    44
1040
1.0
1070
    74
1070
     0
1000
MTEXTEND
  0
SOLID
  5
58D
330
534
100
AcDbEntity
  8
0
 62
     4
100
AcDbTrace
 10
827.6707924630274
 20
444.8546516411324
 30
0.0
 11
827.3648532294014
 21
444.4591757438538
 31
0.0
 12
826.3313951543787
 22
445.5747313933712
 32
0.0
 13
826.3313951543787
 23
445.5747313933712
 33
0.0
  0
POINT
  5
58E
330
534
100
AcDbEntity
  8
Defpoints
 62
     0
100
AcDbPoint
 10
826.3313951543787
 20
445.5747313933712
 30
0.0
  0
POINT
  5
58F
330
534
100
AcDbEntity
  8
Defpoints
 62
     0
100
AcDbPoint
 10
829.4952023326041
 20
443.1272175243658
 30
0.0
  0
ENDBLK
  5
53B
330
534
100
AcDbEntity
  8
0
100
AcDbBlockEnd
  0
BLOCK
  5
546
330
53C
100
AcDbEntity
  8
0
100
AcDbBlockBegin
  2
*D20
 70
     1
 10
0.0
 20
0.0
 30
0.0
  3
*D20
  1

  0
LINE
  5
590
330
53C
100
AcDbEntity
  8
0
 62
     4
370
     0
100
AcDbLine
 10
912.6128674995817
 20
450.5747313933714
 30
0.0
 11
907.560813086879
 21
450.5747313933714
 31
0.0
  0
LINE
  5
591
330
53C
100
AcDbEntity
  8
0
 62
     4
370
     0
100
AcDbLine
 10
913.1219709652105
 20
431.6747313933736
 30
0.0
 11
907.560813086879
 21
431.6747313933736
 31
0.0
  0
LINE
  5
592
330
53C
100
AcDbEntity
  8
0
 62
     4
370
     0
100
AcDbLine
 10
907.6608130868791
 20
449.0747313933714
 30
0.0
 11
907.6608130868791
 21
433.1747313933736
 31
0.0
  0
SOLID
  5
593
330
53C
100
AcDbEntity
  8
0
 62
     4
100
AcDbTrace
 10
907.4108130868792
 20
449.0747313933714
 30
0.0
 11
907.9108130868791
 21
449.0747313933714
 31
0.0
 12
907.6608130868791
 22
450.5747313933714
 32
0.0
 13
907.6608130868791
 23
450.5747313933714
 33
0.0
  0
SOLID
  5
594
330
53C
100
AcDbEntity
  8
0
 62
     4
100
AcDbTrace
 10
907.4108130868792
 20
433.1747313933736
 30
0.0
 11
907.9108130868791
 21
433.1747313933736
 31
0.0
 12
907.6608130868791
 22
431.6747313933736
 32
0.0
 13
907.6608130868791
 23
431.6747313933736
 33
0.0
  0
MTEXT
  5
595
330
53C
100
AcDbEntity
  8
0
 62
     4
100
AcDbMText
 10
905.9108130868789
 20
441.1247313933738
 30
0.0
 40
2.5
 41
0.0
 71
     5
 72
     1
  1
\A1;19
  7
ゴシック
 11
0.0000000000000001
 21
1.0
 31
0.0
 73
     1
 44
1.0
1001
ACAD
1000
MTEXTBEGIN
1070
    73
1070
     1
1070
    44
1040
1.0
1070
    74
1070
     0
1000
MTEXTEND
  0
POINT
  5
596
330
53C
100
AcDbEntity
  8
Defpoints
 62
     0
100
AcDbPoint
 10
913.6128674995816
 20
450.5747313933714
 30
0.0
  0
POINT
  5
597
330
53C
100
AcDbEntity
  8
Defpoints
 62
     0
100
AcDbPoint
 10
914.1219709652105
 20
431.6747313933736
 30
0.0
  0
POINT
  5
598
330
53C
100
AcDbEntity
  8
Defpoints
 62
     0
100
AcDbPoint
 10
907.6608130868791
 20
431.6747313933736
 30
0.0
  0
ENDBLK
  5
547
330
53C
100
AcDbEntity
  8
0
100
AcDbBlockEnd
  0
BLOCK
  5
54E
330
548
100
AcDbEntity
  8
0
100
AcDbBlockBegin
  2
*D21
 70
     1
 10
0.0
 20
0.0
 30
0.0
  3
*D21
  1

  0
LINE
  5
5D9
330
548
100
AcDbEntity
  8
0
 62
     4
370
     0
100
AcDbLine
 10
925.2260463481743
 20
440.6908709306485
 30
0.0
 11
920.0992951914209
 21
444.6569136924944
 31
0.0
  0
MTEXT
  5
5DA
330
548
100
AcDbEntity
  8
0
 62
     4
100
AcDbMText
 10
924.3527581572859
 20
443.6328697613332
 30
0.0
 40
2.5
 41
0.0
 71
     5
 72
     1
  1
\A1;{\fArial|b0|i0|c0|p32;C}3
  7
ゴシック
 11
0.7909517945576221
 21
-0.6118784672515263
 31
0.0
 73
     1
 44
1.0
1001
ACAD
1000
MTEXTBEGIN
1070
    73
1070
     1
1070
    44
1040
1.0
1070
    74
1070
     0
1000
MTEXTEND
  0
SOLID
  5
5DB
330
548
100
AcDbEntity
  8
0
 62
     4
100
AcDbTrace
 10
920.2522648082338
 20
444.8546516411338
 30
0.0
 11
919.946325574608
 21
444.459175743855
 31
0.0
 12
918.9128674995844
 22
445.5747313933716
 32
0.0
 13
918.9128674995844
 23
445.5747313933716
 33
0.0
  0
POINT
  5
5DC
330
548
100
AcDbEntity
  8
Defpoints
 62
     0
100
AcDbPoint
 10
918.9128674995844
 20
445.5747313933716
 30
0.0
  0
POINT
  5
5DD
330
548
100
AcDbEntity
  8
Defpoints
 62
     0
100
AcDbPoint
 10
922.0766746778135
 20
443.1272175243667
 30
0.0
  0
ENDBLK
  5
54F
330
548
100
AcDbEntity
  8
0
100
AcDbBlockEnd
  0
BLOCK
  5
55A
330
550
100
AcDbEntity
  8
0
100
AcDbBlockBegin
  2
*D22
 70
     1
 10
0.0
 20
0.0
 30
0.0
  3
*D22
  1

  0
LINE
  5
5DE
330
550
100
AcDbEntity
  8
0
 62
     4
370
     0
100
AcDbLine
 10
821.0313951543742
 20
469.9584928594825
 30
0.0
 11
821.0313951543742
 21
480.1241331666703
 31
0.0
  0
LINE
  5
5DF
330
550
100
AcDbEntity
  8
0
 62
     4
370
     0
100
AcDbLine
 10
843.8313951543772
 20
471.9584928594834
 30
0.0
 11
843.8313951543772
 21
480.1241331666703
 31
0.0
  0
LINE
  5
5E0
330
550
100
AcDbEntity
  8
0
 62
     4
370
     0
100
AcDbLine
 10
822.5313951543743
 20
480.0241331666702
 30
0.0
 11
842.3313951543772
 21
480.0241331666702
 31
0.0
  0
SOLID
  5
5E1
330
550
100
AcDbEntity
  8
0
 62
     4
100
AcDbTrace
 10
822.5313951543743
 20
480.2741331666702
 30
0.0
 11
822.5313951543743
 21
479.7741331666702
 31
0.0
 12
821.0313951543742
 22
480.0241331666702
 32
0.0
 13
821.0313951543742
 23
480.0241331666702
 33
0.0
  0
SOLID
  5
5E2
330
550
100
AcDbEntity
  8
0
 62
     4
100
AcDbTrace
 10
842.3313951543772
 20
480.2741331666702
 30
0.0
 11
842.3313951543772
 21
479.7741331666702
 31
0.0
 12
843.8313951543772
 22
480.0241331666702
 32
0.0
 13
843.8313951543772
 23
480.0241331666702
 33
0.0
  0
MTEXT
  5
5E3
330
550
100
AcDbEntity
  8
0
 62
     4
100
AcDbMText
 10
833.9313951543758
 20
481.7741331666702
 30
0.0
 40
2.5
 41
0.0
 71
     5
 72
     1
  1
\A1;23
  7
ゴシック
 73
     1
 44
1.0
1001
ACAD
1000
MTEXTBEGIN
1070
    73
1070
     1
1070
    44
1040
1.0
1070
    74
1070
     0
1000
MTEXTEND
  0
POINT
  5
5E4
330
550
100
AcDbEntity
  8
Defpoints
 62
     0
100
AcDbPoint
 10
821.0313951543742
 20
468.9584928594825
 30
0.0
  0
POINT
  5
5E5
330
550
100
AcDbEntity
  8
Defpoints
 62
     0
100
AcDbPoint
 10
843.8313951543772
 20
470.9584928594834
 30
0.0
  0
POINT
  5
5E6
330
550
100
AcDbEntity
  8
Defpoints
 62
     0
100
AcDbPoint
 10
843.8313951543772
 20
480.0241331666702
 30
0.0
  0
ENDBLK
  5
55B
330
550
100
AcDbEntity
  8
0
100
AcDbBlockEnd
  0
BLOCK
  5
566
330
55C
100
AcDbEntity
  8
0
100
AcDbBlockBegin
  2
*D23
 70
     1
 10
0.0
 20
0.0
 30
0.0
  3
*D23
  1

  0
LINE
  5
55D
330
55C
100
AcDbEntity
  8
0
 62
     4
370
     0
100
AcDbLine
 10
844.8313951543751
 20
470.9584928594834
 30
0.0
 11
851.0629776618023
 21
470.9584928594834
 31
0.0
  0
LINE
  5
55E
330
55C
100
AcDbEntity
  8
0
 62
     4
370
     0
100
AcDbLine
 10
844.8313951543768
 20
462.9584928594832
 30
0.0
 11
851.0629776618023
 21
462.9584928594832
 31
0.0
  0
LINE
  5
55F
330
55C
100
AcDbEntity
  8
0
 62
     4
370
     0
100
AcDbLine
 10
850.9629776618023
 20
469.4584928594833
 30
0.0
 11
850.9629776618023
 21
464.4584928594833
 31
0.0
  0
SOLID
  5
560
330
55C
100
AcDbEntity
  8
0
 62
     4
100
AcDbTrace
 10
850.7129776618022
 20
469.4584928594833
 30
0.0
 11
851.2129776618023
 21
469.4584928594833
 31
0.0
 12
850.9629776618023
 22
470.9584928594834
 32
0.0
 13
850.9629776618023
 23
470.9584928594834
 33
0.0
  0
SOLID
  5
561
330
55C
100
AcDbEntity
  8
0
 62
     4
100
AcDbTrace
 10
850.7129776618022
 20
464.4584928594833
 30
0.0
 11
851.2129776618023
 21
464.4584928594833
 31
0.0
 12
850.9629776618023
 22
462.9584928594832
 32
0.0
 13
850.9629776618023
 23
462.9584928594832
 33
0.0
  0
MTEXT
  5
562
330
55C
100
AcDbEntity
  8
0
 62
     4
100
AcDbMText
 10
849.2129776618021
 20
466.9584928594846
 30
0.0
 40
2.5
 41
0.0
 71
     5
 72
     1
  1
\A1;8
  7
ゴシック
 11
0.0000000000000001
 21
1.0
 31
0.0
 73
     1
 44
1.0
1001
ACAD
1000
MTEXTBEGIN
1070
    73
1070
     1
1070
    44
1040
1.0
1070
    74
1070
     0
1000
MTEXTEND
  0
POINT
  5
563
330
55C
100
AcDbEntity
  8
Defpoints
 62
     0
100
AcDbPoint
 10
843.8313951543751
 20
470.9584928594834
 30
0.0
  0
POINT
  5
564
330
55C
100
AcDbEntity
  8
Defpoints
 62
     0
100
AcDbPoint
 10
843.8313951543769
 20
462.9584928594832
 30
0.0
  0
POINT
  5
565
330
55C
100
AcDbEntity
  8
Defpoints
 62
     0
100
AcDbPoint
 10
850.9629776618023
 20
462.9584928594832
 30
0.0
  0
ENDBLK
  5
567
330
55C
100
AcDbEntity
  8
0
100
AcDbBlockEnd
  0
BLOCK
  5
572
330
568
100
AcDbEntity
  8
0
100
AcDbBlockBegin
  2
*D24
 70
     1
 10
0.0
 20
0.0
 30
0.0
  3
*D24
  1

  0
LINE
  5
5E7
330
568
100
AcDbEntity
  8
0
 62
     4
370
     0
100
AcDbLine
 10
824.031395154374
 20
471.3584928594845
 30
0.0
 11
824.031395154374
 21
475.5028753056034
 31
0.0
  0
LINE
  5
5E8
330
568
100
AcDbEntity
  8
0
 62
     4
370
     0
100
AcDbLine
 10
843.8313951543751
 20
471.9584928594834
 30
0.0
 11
843.8313951543751
 21
475.5028753056034
 31
0.0
  0
LINE
  5
5E9
330
568
100
AcDbEntity
  8
0
 62
     4
370
     0
100
AcDbLine
 10
825.5313951543739
 20
475.4028753056034
 30
0.0
 11
842.331395154375
 21
475.4028753056034
 31
0.0
  0
SOLID
  5
5EA
330
568
100
AcDbEntity
  8
0
 62
     4
100
AcDbTrace
 10
825.5313951543739
 20
475.6528753056033
 30
0.0
 11
825.5313951543739
 21
475.1528753056033
 31
0.0
 12
824.031395154374
 22
475.4028753056034
 32
0.0
 13
824.031395154374
 23
475.4028753056034
 33
0.0
  0
SOLID
  5
5EB
330
568
100
AcDbEntity
  8
0
 62
     4
100
AcDbTrace
 10
842.331395154375
 20
475.6528753056033
 30
0.0
 11
842.331395154375
 21
475.1528753056033
 31
0.0
 12
843.8313951543751
 22
475.4028753056034
 32
0.0
 13
843.8313951543751
 23
475.4028753056034
 33
0.0
  0
MTEXT
  5
5EC
330
568
100
AcDbEntity
  8
0
 62
     4
100
AcDbMText
 10
833.931395154374
 20
477.1528753056034
 30
0.0
 40
2.5
 41
0.0
 71
     5
 72
     1
  1
\A1;20
  7
ゴシック
 73
     1
 44
1.0
1001
ACAD
1000
MTEXTBEGIN
1070
    73
1070
     1
1070
    44
1040
1.0
1070
    74
1070
     0
1000
MTEXTEND
  0
POINT
  5
5ED
330
568
100
AcDbEntity
  8
Defpoints
 62
     0
100
AcDbPoint
 10
824.031395154374
 20
470.3584928594844
 30
0.0
  0
POINT
  5
5EE
330
568
100
AcDbEntity
  8
Defpoints
 62
     0
100
AcDbPoint
 10
843.8313951543751
 20
470.9584928594834
 30
0.0
  0
POINT
  5
5EF
330
568
100
AcDbEntity
  8
Defpoints
 62
     0
100
AcDbPoint
 10
843.8313951543751
 20
475.4028753056034
 30
0.0
  0
ENDBLK
  5
573
330
568
100
AcDbEntity
  8
0
100
AcDbBlockEnd
  0
BLOCK
  5
580
330
574
100
AcDbEntity
  8
0
100
AcDbBlockBegin
  2
*D25
 70
     1
 10
0.0
 20
0.0
 30
0.0
  3
*D25
  1

  0
LINE
  5
575
330
574
100
AcDbEntity
  8
0
 62
     4
370
     0
100
AcDbLine
 10
843.0813951543751
 20
450.5747313933722
 30
0.0
 11
851.0629776618021
 21
450.5747313933722
 31
0.0
  0
LINE
  5
576
330
574
100
AcDbEntity
  8
0
 62
     4
370
     0
100
AcDbLine
 10
843.0813951543751
 20
447.0747313933722
 30
0.0
 11
851.0629776618021
 21
447.0747313933722
 31
0.0
  0
LINE
  5
577
330
574
100
AcDbEntity
  8
0
 62
     4
370
     0
100
AcDbLine
 10
850.9629776618021
 20
452.0747313933723
 30
0.0
 11
850.9629776618021
 21
453.5747313933723
 31
0.0
  0
LINE
  5
578
330
574
100
AcDbEntity
  8
0
 62
     4
370
     0
100
AcDbLine
 10
850.9629776618021
 20
445.5747313933723
 30
0.0
 11
850.9629776618021
 21
439.0690495751904
 31
0.0
  0
LINE
  5
579
330
574
100
AcDbEntity
  8
0
 62
     4
370
     0
100
AcDbLine
 10
850.9629776618021
 20
450.5747313933722
 30
0.0
 11
850.9629776618021
 21
447.0747313933722
 31
0.0
  0
SOLID
  5
57A
330
574
100
AcDbEntity
  8
0
 62
     4
100
AcDbTrace
 10
850.7129776618022
 20
452.0747313933723
 30
0.0
 11
851.2129776618021
 21
452.0747313933723
 31
0.0
 12
850.9629776618021
 22
450.5747313933722
 32
0.0
 13
850.9629776618021
 23
450.5747313933722
 33
0.0
  0
SOLID
  5
57B
330
574
100
AcDbEntity
  8
0
 62
     4
100
AcDbTrace
 10
850.7129776618022
 20
445.5747313933723
 30
0.0
 11
851.2129776618021
 21
445.5747313933723
 31
0.0
 12
850.9629776618021
 22
447.0747313933722
 32
0.0
 13
850.9629776618021
 23
447.0747313933722
 33
0.0
  0
MTEXT
  5
57C
330
574
100
AcDbEntity
  8
0
 62
     4
100
AcDbMText
 10
849.2129776618019
 20
441.5718904842814
 30
0.0
 40
2.5
 41
0.0
 71
     5
 72
     1
  1
\A1;3.5
  7
ゴシック
 11
0.0000000000000001
 21
1.0
 31
0.0
 73
     1
 44
1.0
1001
ACAD
1000
MTEXTBEGIN
1070
    73
1070
     1
1070
    44
1040
1.0
1070
    74
1070
     0
1000
MTEXTEND
  0
POINT
  5
57D
330
574
100
AcDbEntity
  8
Defpoints
 62
     0
100
AcDbPoint
 10
842.0813951543751
 20
450.5747313933722
 30
0.0
  0
POINT
  5
57E
330
574
100
AcDbEntity
  8
Defpoints
 62
     0
100
AcDbPoint
 10
842.0813951543751
 20
447.0747313933722
 30
0.0
  0
POINT
  5
57F
330
574
100
AcDbEntity
  8
Defpoints
 62
     0
100
AcDbPoint
 10
850.9629776618021
 20
447.0747313933722
 30
0.0
  0
ENDBLK
  5
581
330
574
100
AcDbEntity
  8
0
100
AcDbBlockEnd
  0
BLOCK
  5
5A3
330
599
100
AcDbEntity
  8
0
100
AcDbBlockBegin
  2
*D26
 70
     1
 10
0.0
 20
0.0
 30
0.0
  3
*D26
  1

  0
LINE
  5
59A
330
599
100
AcDbEntity
  8
0
 62
     4
370
     0
100
AcDbLine
 10
940.3128674995805
 20
472.9584928594833
 30
0.0
 11
946.4634237305487
 21
472.9584928594833
 31
0.0
  0
LINE
  5
59B
330
599
100
AcDbEntity
  8
0
 62
     4
370
     0
100
AcDbLine
 10
940.3128674995805
 20
460.9584928594833
 30
0.0
 11
946.4634237305487
 21
460.9584928594833
 31
0.0
  0
LINE
  5
59C
330
599
100
AcDbEntity
  8
0
 62
     4
370
     0
100
AcDbLine
 10
946.3634237305486
 20
471.4584928594833
 30
0.0
 11
946.3634237305486
 21
462.4584928594833
 31
0.0
  0
SOLID
  5
59D
330
599
100
AcDbEntity
  8
0
 62
     4
100
AcDbTrace
 10
946.1134237305486
 20
471.4584928594833
 30
0.0
 11
946.6134237305487
 21
471.4584928594833
 31
0.0
 12
946.3634237305486
 22
472.9584928594833
 32
0.0
 13
946.3634237305486
 23
472.9584928594833
 33
0.0
  0
SOLID
  5
59E
330
599
100
AcDbEntity
  8
0
 62
     4
100
AcDbTrace
 10
946.1134237305486
 20
462.4584928594833
 30
0.0
 11
946.6134237305487
 21
462.4584928594833
 31
0.0
 12
946.3634237305486
 22
460.9584928594833
 32
0.0
 13
946.3634237305486
 23
460.9584928594833
 33
0.0
  0
MTEXT
  5
59F
330
599
100
AcDbEntity
  8
0
 62
     4
100
AcDbMText
 10
944.6134237305486
 20
466.9584928594835
 30
0.0
 40
2.5
 41
0.0
 71
     5
 72
     1
  1
\A1;12
  7
ゴシック
 11
0.0000000000000001
 21
1.0
 31
0.0
 73
     1
 44
1.0
1001
ACAD
1000
MTEXTBEGIN
1070
    73
1070
     1
1070
    44
1040
1.0
1070
    74
1070
     0
1000
MTEXTEND
  0
POINT
  5
5A0
330
599
100
AcDbEntity
  8
Defpoints
 62
     0
100
AcDbPoint
 10
939.3128674995805
 20
472.9584928594833
 30
0.0
  0
POINT
  5
5A1
330
599
100
AcDbEntity
  8
Defpoints
 62
     0
100
AcDbPoint
 10
939.3128674995805
 20
460.9584928594833
 30
0.0
  0
POINT
  5
5A2
330
599
100
AcDbEntity
  8
Defpoints
 62
     0
100
AcDbPoint
 10
946.3634237305486
 20
460.9584928594833
 30
0.0
  0
ENDBLK
  5
5A4
330
599
100
AcDbEntity
  8
0
100
AcDbBlockEnd
  0
BLOCK
  5
5AF
330
5A5
100
AcDbEntity
  8
0
100
AcDbBlockBegin
  2
*D27
 70
     1
 10
0.0
 20
0.0
 30
0.0
  3
*D27
  1

  0
LINE
  5
5F0
330
5A5
100
AcDbEntity
  8
0
 62
     4
370
     0
100
AcDbLine
 10
916.6128674995798
 20
473.658492859483
 30
0.0
 11
916.6128674995798
 21
479.4438853909223
 31
0.0
  0
LINE
  5
5F1
330
5A5
100
AcDbEntity
  8
0
 62
     4
370
     0
100
AcDbLine
 10
939.6128674995816
 20
473.6584928594833
 30
0.0
 11
939.6128674995816
 21
479.4438853909223
 31
0.0
  0
LINE
  5
5F2
330
5A5
100
AcDbEntity
  8
0
 62
     4
370
     0
100
AcDbLine
 10
918.1128674995798
 20
479.3438853909223
 30
0.0
 11
938.1128674995816
 21
479.3438853909223
 31
0.0
  0
SOLID
  5
5F3
330
5A5
100
AcDbEntity
  8
0
 62
     4
100
AcDbTrace
 10
918.1128674995798
 20
479.5938853909222
 30
0.0
 11
918.1128674995798
 21
479.0938853909223
 31
0.0
 12
916.6128674995798
 22
479.3438853909223
 32
0.0
 13
916.6128674995798
 23
479.3438853909223
 33
0.0
  0
SOLID
  5
5F4
330
5A5
100
AcDbEntity
  8
0
 62
     4
100
AcDbTrace
 10
938.1128674995816
 20
479.5938853909222
 30
0.0
 11
938.1128674995816
 21
479.0938853909223
 31
0.0
 12
939.6128674995816
 22
479.3438853909223
 32
0.0
 13
939.6128674995816
 23
479.3438853909223
 33
0.0
  0
MTEXT
  5
5F5
330
5A5
100
AcDbEntity
  8
0
 62
     4
100
AcDbMText
 10
928.1128674995807
 20
481.0938853909223
 30
0.0
 40
2.5
 41
0.0
 71
     5
 72
     1
  1
\A1;23
  7
ゴシック
 73
     1
 44
1.0
1001
ACAD
1000
MTEXTBEGIN
1070
    73
1070
     1
1070
    44
1040
1.0
1070
    74
1070
     0
1000
MTEXTEND
  0
POINT
  5
5F6
330
5A5
100
AcDbEntity
  8
Defpoints
 62
     0
100
AcDbPoint
 10
916.6128674995798
 20
472.6584928594831
 30
0.0
  0
POINT
  5
5F7
330
5A5
100
AcDbEntity
  8
Defpoints
 62
     0
100
AcDbPoint
 10
939.6128674995816
 20
472.6584928594832
 30
0.0
  0
POINT
  5
5F8
330
5A5
100
AcDbEntity
  8
Defpoints
 62
     0
100
AcDbPoint
 10
939.6128674995816
 20
479.3438853909223
 30
0.0
  0
ENDBLK
  5
5B0
330
5A5
100
AcDbEntity
  8
0
100
AcDbBlockEnd
  0
BLOCK
  5
5BD
330
5B1
100
AcDbEntity
  8
0
100
AcDbBlockBegin
  2
*D28
 70
     1
 10
0.0
 20
0.0
 30
0.0
  3
*D28
  1

  0
LINE
  5
5B2
330
5B1
100
AcDbEntity
  8
0
 62
     4
370
     0
100
AcDbLine
 10
916.6128674995798
 20
474.6584928594832
 30
0.0
 11
916.6128674995798
 21
479.4438853909224
 31
0.0
  0
LINE
  5
5B3
330
5B1
100
AcDbEntity
  8
0
 62
     4
370
     0
100
AcDbLine
 10
913.6128674995816
 20
469.6717309352789
 30
0.0
 11
913.6128674995816
 21
479.4438853909224
 31
0.0
  0
LINE
  5
5B4
330
5B1
100
AcDbEntity
  8
0
 62
     4
370
     0
100
AcDbLine
 10
918.1128674995798
 20
479.3438853909224
 30
0.0
 11
919.6128674995797
 21
479.3438853909224
 31
0.0
  0
LINE
  5
5B5
330
5B1
100
AcDbEntity
  8
0
 62
     4
370
     0
100
AcDbLine
 10
912.1128674995816
 20
479.3438853909224
 30
0.0
 11
910.6128674995815
 21
479.3438853909224
 31
0.0
  0
LINE
  5
5B6
330
5B1
100
AcDbEntity
  8
0
 62
     4
370
     0
100
AcDbLine
 10
916.6128674995798
 20
479.3438853909224
 30
0.0
 11
913.6128674995816
 21
479.3438853909224
 31
0.0
  0
SOLID
  5
5B7
330
5B1
100
AcDbEntity
  8
0
 62
     4
100
AcDbTrace
 10
918.1128674995798
 20
479.5938853909224
 30
0.0
 11
918.1128674995798
 21
479.0938853909223
 31
0.0
 12
916.6128674995798
 22
479.3438853909224
 32
0.0
 13
916.6128674995798
 23
479.3438853909224
 33
0.0
  0
SOLID
  5
5B8
330
5B1
100
AcDbEntity
  8
0
 62
     4
100
AcDbTrace
 10
912.1128674995816
 20
479.5938853909224
 30
0.0
 11
912.1128674995816
 21
479.0938853909223
 31
0.0
 12
913.6128674995816
 22
479.3438853909224
 32
0.0
 13
913.6128674995816
 23
479.3438853909224
 33
0.0
  0
MTEXT
  5
5B9
330
5B1
100
AcDbEntity
  8
0
 62
     4
100
AcDbMText
 10
915.1128674995806
 20
481.0938853909224
 30
0.0
 40
2.5
 41
0.0
 71
     5
 72
     1
  1
\A1;3
  7
ゴシック
 73
     1
 44
1.0
1001
ACAD
1000
MTEXTBEGIN
1070
    73
1070
     1
1070
    44
1040
1.0
1070
    74
1070
     0
1000
MTEXTEND
  0
POINT
  5
5BA
330
5B1
100
AcDbEntity
  8
Defpoints
 62
     0
100
AcDbPoint
 10
916.6128674995798
 20
473.6584928594831
 30
0.0
  0
POINT
  5
5BB
330
5B1
100
AcDbEntity
  8
Defpoints
 62
     0
100
AcDbPoint
 10
913.6128674995816
 20
468.6717309352789
 30
0.0
  0
POINT
  5
5BC
330
5B1
100
AcDbEntity
  8
Defpoints
 62
     0
100
AcDbPoint
 10
913.6128674995816
 20
479.3438853909224
 30
0.0
  0
ENDBLK
  5
5BE
330
5B1
100
AcDbEntity
  8
0
100
AcDbBlockEnd
  0
BLOCK
  5
5C9
330
5BF
100
AcDbEntity
  8
0
100
AcDbBlockBegin
  2
*D29
 70
     1
 10
0.0
 20
0.0
 30
0.0
  3
*D29
  1

  0
LINE
  5
5C0
330
5BF
100
AcDbEntity
  8
0
 62
     4
370
     0
100
AcDbLine
 10
939.1128674995835
 20
452.574731393372
 30
0.0
 11
946.563423730549
 21
452.574731393372
 31
0.0
  0
LINE
  5
5C1
330
5BF
100
AcDbEntity
  8
0
 62
     4
370
     0
100
AcDbLine
 10
936.3798743908974
 20
447.074731393372
 30
0.0
 11
946.563423730549
 21
447.074731393372
 31
0.0
  0
LINE
  5
5C2
330
5BF
100
AcDbEntity
  8
0
 62
     4
370
     0
100
AcDbLine
 10
946.4634237305491
 20
451.0747313933721
 30
0.0
 11
946.4634237305491
 21
448.5747313933719
 31
0.0
  0
SOLID
  5
5C3
330
5BF
100
AcDbEntity
  8
0
 62
     4
100
AcDbTrace
 10
946.2134237305489
 20
451.0747313933721
 30
0.0
 11
946.713423730549
 21
451.0747313933721
 31
0.0
 12
946.4634237305491
 22
452.574731393372
 32
0.0
 13
946.4634237305491
 23
452.574731393372
 33
0.0
  0
SOLID
  5
5C4
330
5BF
100
AcDbEntity
  8
0
 62
     4
100
AcDbTrace
 10
946.2134237305489
 20
448.5747313933719
 30
0.0
 11
946.713423730549
 21
448.5747313933719
 31
0.0
 12
946.4634237305491
 22
447.074731393372
 32
0.0
 13
946.4634237305491
 23
447.074731393372
 33
0.0
  0
MTEXT
  5
5C5
330
5BF
100
AcDbEntity
  8
0
 62
     4
100
AcDbMText
 10
944.7134237305489
 20
449.8247313933721
 30
0.0
 40
2.5
 41
0.0
 71
     5
 72
     1
  1
\A1;5.5
  7
ゴシック
 11
0.0000000000000001
 21
1.0
 31
0.0
 73
     1
 44
1.0
1001
ACAD
1000
MTEXTBEGIN
1070
    73
1070
     1
1070
    44
1040
1.0
1070
    74
1070
     0
1000
MTEXTEND
  0
POINT
  5
5C6
330
5BF
100
AcDbEntity
  8
Defpoints
 62
     0
100
AcDbPoint
 10
938.1128674995833
 20
452.574731393372
 30
0.0
  0
POINT
  5
5C7
330
5BF
100
AcDbEntity
  8
Defpoints
 62
     0
100
AcDbPoint
 10
935.3798743908974
 20
447.074731393372
 30
0.0
  0
POINT
  5
5C8
330
5BF
100
AcDbEntity
  8
Defpoints
 62
     0
100
AcDbPoint
 10
946.4634237305491
 20
447.074731393372
 30
0.0
  0
ENDBLK
  5
5CA
330
5BF
100
AcDbEntity
  8
0
100
AcDbBlockEnd
  0
BLOCK
  5
5D7
330
5CB
100
AcDbEntity
  8
0
100
AcDbBlockBegin
  2
*D30
 70
     1
 10
0.0
 20
0.0
 30
0.0
  3
*D30
  1

  0
LINE
  5
5CC
330
5CB
100
AcDbEntity
  8
0
 62
     4
370
     0
100
AcDbLine
 10
912.6128674995817
 20
450.5747313933714
 30
0.0
 11
907.560813086879
 21
450.5747313933714
 31
0.0
  0
LINE
  5
5CD
330
5CB
100
AcDbEntity
  8
0
 62
     4
370
     0
100
AcDbLine
 10
916.6128674995798
 20
452.574731393372
 30
0.0
 11
907.560813086879
 21
452.574731393372
 31
0.0
  0
LINE
  5
5CE
330
5CB
100
AcDbEntity
  8
0
 62
     4
370
     0
100
AcDbLine
 10
907.6608130868789
 20
449.0747313933714
 30
0.0
 11
907.6608130868789
 21
447.5747313933713
 31
0.0
  0
LINE
  5
5CF
330
5CB
100
AcDbEntity
  8
0
 62
     4
370
     0
100
AcDbLine
 10
907.6608130868789
 20
454.074731393372
 30
0.0
 11
907.6608130868789
 21
458.0235950297357
 31
0.0
  0
LINE
  5
5D0
330
5CB
100
AcDbEntity
  8
0
 62
     4
370
     0
100
AcDbLine
 10
907.6608130868789
 20
450.5747313933714
 30
0.0
 11
907.6608130868789
 21
452.574731393372
 31
0.0
  0
SOLID
  5
5D1
330
5CB
100
AcDbEntity
  8
0
 62
     4
100
AcDbTrace
 10
907.410813086879
 20
449.0747313933714
 30
0.0
 11
907.9108130868789
 21
449.0747313933714
 31
0.0
 12
907.6608130868789
 22
450.5747313933714
 32
0.0
 13
907.6608130868789
 23
450.5747313933714
 33
0.0
  0
SOLID
  5
5D2
330
5CB
100
AcDbEntity
  8
0
 62
     4
100
AcDbTrace
 10
907.410813086879
 20
454.074731393372
 30
0.0
 11
907.9108130868789
 21
454.074731393372
 31
0.0
 12
907.6608130868789
 22
452.574731393372
 32
0.0
 13
907.6608130868789
 23
452.574731393372
 33
0.0
  0
MTEXT
  5
5D3
330
5CB
100
AcDbEntity
  8
0
 62
     4
100
AcDbMText
 10
905.9108130868789
 20
456.799163211554
 30
0.0
 40
2.5
 41
0.0
 71
     5
 72
     1
  1
\A1;2
  7
ゴシック
 11
0.0000000000000001
 21
1.0
 31
0.0
 73
     1
 44
1.0
1001
ACAD
1000
MTEXTBEGIN
1070
    73
1070
     1
1070
    44
1040
1.0
1070
    74
1070
     0
1000
MTEXTEND
  0
POINT
  5
5D4
330
5CB
100
AcDbEntity
  8
Defpoints
 62
     0
100
AcDbPoint
 10
913.6128674995816
 20
450.5747313933714
 30
0.0
  0
POINT
  5
5D5
330
5CB
100
AcDbEntity
  8
Defpoints
 62
     0
100
AcDbPoint
 10
917.6128674995798
 20
452.574731393372
 30
0.0
  0
POINT
  5
5D6
330
5CB
100
AcDbEntity
  8
Defpoints
 62
     0
100
AcDbPoint
 10
907.6608130868789
 20
452.574731393372
 30
0.0
  0
ENDBLK
  5
5D8
330
5CB
100
AcDbEntity
  8
0
100
AcDbBlockEnd
  0
ENDSEC
  0
SECTION
  2
ENTITIES
  0
MTEXT
  5
34E
330
1F
100
AcDbEntity
  8
0
  6
Continuous
370
     0
100
AcDbMText
 10
886.5249889886326
 20
366.1600356897039
 30
-0.0000000000000036
 40
1.75
 41
12.5
 71
     6
 72
     5
  1
{\fMS Gothic|b0|i0|c128|p48;3.8ｇ}
  7
ゴシック
 73
     1
 44
1.0
1001
ACAD
1000
MTEXTBEGIN
1070
    73
1070
     1
1070
    44
1040
1.0
1070
    74
1070
     0
1000
MTEXTEND
  0
MTEXT
  5
34F
330
1F
100
AcDbEntity
  8
0
  6
Continuous
370
     0
100
AcDbMText
 10
886.5249889886326
 20
370.3080874575779
 30
-0.0000000000000036
 40
1.75
 41
12.5
 71
     6
 72
     5
  1
{\fMS Gothic|b0|i0|c128|p48;3.8ｇ}
  7
ゴシック
 73
     1
 44
1.0
1001
ACAD
1000
MTEXTBEGIN
1070
    73
1070
     1
1070
    44
1040
1.0
1070
    74
1070
     0
1000
MTEXTEND
  0
MTEXT
  5
350
330
1F
100
AcDbEntity
  8
0
  6
Continuous
370
     0
100
AcDbMText
 10
886.5249889886326
 20
378.6041909933262
 30
-0.0000000000000036
 40
1.75
 41
12.5
 71
     6
 72
     5
  1
{\fMS Gothic|b0|i0|c128|p48;3.8ｇ}
  7
ゴシック
 73
     1
 44
1.0
1001
ACAD
1000
MTEXTBEGIN
1070
    73
1070
     1
1070
    44
1040
1.0
1070
    74
1070
     0
1000
MTEXTEND
  0
MTEXT
  5
351
330
1F
100
AcDbEntity
  8
0
  6
Continuous
370
     0
100
AcDbMText
 10
886.5249889886326
 20
382.7522427612003
 30
-0.0000000000000036
 40
1.75
 41
12.5
 71
     6
 72
     5
  1
{\fMS Gothic|b0|i0|c128|p48;3.8ｇ}
  7
ゴシック
 73
     1
 44
1.0
1001
ACAD
1000
MTEXTBEGIN
1070
    73
1070
     1
1070
    44
1040
1.0
1070
    74
1070
     0
1000
MTEXTEND
  0
MTEXT
  5
352
330
1F
100
AcDbEntity
  8
0
  6
Continuous
370
     0
100
AcDbMText
 10
886.5249889886326
 20
386.9002945290743
 30
-0.0000000000000036
 40
1.75
 41
12.5
 71
     6
 72
     5
  1
{\fMS Gothic|b0|i0|c128|p48;3.8ｇ}
  7
ゴシック
 73
     1
 44
1.0
1001
ACAD
1000
MTEXTBEGIN
1070
    73
1070
     1
1070
    44
1040
1.0
1070
    74
1070
     0
1000
MTEXTEND
  0
LINE
  5
353
330
1F
100
AcDbEntity
  8
図枠
370
     5
100
AcDbLine
 10
993.2840976897168
 20
385.4476006721567
 30
0.0
 11
902.6364378849885
 21
385.4476006721567
 31
0.0
  0
MTEXT
  5
354
330
1F
100
AcDbEntity
  8
0
  6
Continuous
370
     0
100
AcDbMText
 10
903.2048160617014
 20
387.1976006721567
 30
0.0
 40
1.75
 41
77.59085317460317
 71
     4
 72
     5
  1
{\fMS Gothic|b0|i0|c128|p48;【棚　受】材質：\fArial|b0|i0|c0|p32;SUS\fMS Gothic|b0|i0|c128|p48;304 \fArial|b0|i0|c0|p32;t\fMS Gothic|b0|i0|c128|p48;=1.0  表面仕上：\U+21164仕上/ホワイト焼付仕上}
  7
ゴシック
 73
     1
 44
1.0
1001
ACAD
1000
MTEXTBEGIN
1070
    73
1070
     1
1070
    44
1040
1.0
1070
    74
1070
     0
1000
MTEXTEND
  0
LINE
  5
355
330
1F
100
AcDbEntity
  8
図枠
370
     5
100
AcDbLine
 10
933.6805917194469
 20
429.1280079664331
 30
0.0
 11
933.6805917194469
 21
423.9549470670028
 31
0.0
  0
LINE
  5
356
330
1F
100
AcDbEntity
  8
図枠
370
     5
100
AcDbLine
 10
959.0385501345226
 20
429.1280079664331
 30
0.0
 11
959.0385501345226
 21
423.9549470670028
 31
0.0
  0
LINE
  5
357
330
1F
100
AcDbEntity
  8
図枠
370
     5
100
AcDbLine
 10
866.7330006867377
 20
429.1280079664331
 30
0.0
 11
866.7330006867377
 21
423.9549470670028
 31
0.0
  0
LINE
  5
358
330
1F
100
AcDbEntity
  8
図枠
370
     5
100
AcDbLine
 10
841.3750422716621
 20
429.1280079664331
 30
0.0
 11
841.3750422716621
 21
423.9549470670028
 31
0.0
  0
LINE
  5
359
330
1F
100
AcDbEntity
  8
図枠
370
     5
100
AcDbLine
 10
933.6805917194469
 20
429.1280079664331
 30
0.0
 11
959.0385501345226
 21
429.1280079664331
 31
0.0
  0
LINE
  5
35A
330
1F
100
AcDbEntity
  8
図枠
370
     5
100
AcDbLine
 10
841.3750422716621
 20
429.1280079664331
 30
0.0
 11
866.7330006867377
 21
429.1280079664331
 31
0.0
  0
MTEXT
  5
35B
330
1F
100
AcDbEntity
  8
0
  6
Continuous
370
     0
100
AcDbMText
 10
946.2112381268925
 20
426.5740496384472
 30
0.0
 40
2.1
 41
42.0
 71
     5
 72
     5
  1
{\fMS Gothic|b0|i0|c128|p48;ラバー付タイプ}
  7
ゴシック
 73
     1
 44
1.0
1001
ACAD
1000
MTEXTBEGIN
1070
    73
1070
     1
1070
    44
1040
1.0
1070
    74
1070
     0
1000
MTEXTEND
  0
LINE
  5
35C
330
1F
100
AcDbEntity
  8
図枠
370
     5
100
AcDbLine
 10
933.6805917194469
 20
423.9549470670028
 30
0.0
 11
959.0385501345226
 21
423.9549470670028
 31
0.0
  0
LINE
  5
35D
330
1F
100
AcDbEntity
  8
図枠
370
     5
100
AcDbLine
 10
841.3750422716621
 20
423.9549470670028
 30
0.0
 11
866.7330006867377
 21
423.9549470670028
 31
0.0
  0
MTEXT
  5
35E
330
1F
100
AcDbEntity
  8
0
  6
Continuous
370
     0
100
AcDbMText
 10
853.9056886791076
 20
426.5740496384472
 30
0.0
 40
2.1
 41
42.0
 71
     5
 72
     5
  1
{\fMS Gothic|b0|i0|c128|p48;ラバーなしタイプ}
  7
ゴシック
 73
     1
 44
1.0
1001
ACAD
1000
MTEXTBEGIN
1070
    73
1070
     1
1070
    44
1040
1.0
1070
    74
1070
     0
1000
MTEXTEND
  0
MTEXT
  5
35F
330
1F
100
AcDbEntity
  8
0
  6
Continuous
370
     0
100
AcDbMText
 10
886.5249889886326
 20
374.4561392254519
 30
-0.0000000000000036
 40
1.75
 41
12.5
 71
     6
 72
     5
  1
{\fMS Gothic|b0|i0|c128|p48;3.1ｇ}
  7
ゴシック
 73
     1
 44
1.0
1001
ACAD
1000
MTEXTBEGIN
1070
    73
1070
     1
1070
    44
1040
1.0
1070
    74
1070
     0
1000
MTEXTEND
  0
MTEXT
  5
360
330
1F
100
AcDbEntity
  8
0
  6
Continuous
370
     0
100
AcDbMText
 10
903.2048160617014
 20
382.7577731654472
 30
0.0
 40
1.75
 41
102.0901960784313
 71
     4
 72
     5
  1
{\fMS Gothic|b0|i0|c128|p48;【化粧ﾗﾊﾞｰ】材質：エラストマー(軟質樹脂)　色：ブラック/ホワイト/ライムグリーン}
  7
ゴシック
 73
     1
 44
1.0
1001
ACAD
1000
MTEXTBEGIN
1070
    73
1070
     1
1070
    44
1040
1.0
1070
    74
1070
     0
1000
MTEXTEND
  0
MTEXT
  5
361
330
1F
100
AcDbEntity
  8
0
  6
Continuous
370
     0
100
AcDbMText
 10
871.693230066705
 20
370.3590853137821
 30
-0.0000000000000036
 40
1.75
 41
17.98222222222222
 71
     5
 72
     5
  1
{\fMS Gothic|b0|i0|c128|p48;ﾎﾜｲﾄ}
  7
ゴシック
 73
     1
 44
1.0
1001
ACAD
1000
MTEXTBEGIN
1070
    73
1070
     1
1070
    44
1040
1.0
1070
    74
1070
     0
1000
MTEXTEND
  0
MTEXT
  5
362
330
1F
100
AcDbEntity
  8
0
  6
Continuous
370
     0
100
AcDbMText
 10
871.693230066705
 20
366.211033545908
 30
-0.0000000000000036
 40
1.75
 41
17.98222222222222
 71
     5
 72
     5
  1
{\fMS Gothic|b0|i0|c128|p48;ﾗｲﾑｸﾞﾘｰﾝ}
  7
ゴシック
 73
     1
 44
1.0
1001
ACAD
1000
MTEXTBEGIN
1070
    73
1070
     1
1070
    44
1040
1.0
1070
    74
1070
     0
1000
MTEXTEND
  0
MTEXT
  5
363
330
1F
100
AcDbEntity
  8
0
  6
Continuous
370
     0
100
AcDbMText
 10
871.693230066705
 20
378.6551888495303
 30
-0.0000000000000036
 40
1.75
 41
17.98222222222222
 71
     5
 72
     5
  1
{\fMS Gothic|b0|i0|c128|p48;ﾗｲﾑｸﾞﾘｰﾝ}
  7
ゴシック
 73
     1
 44
1.0
1001
ACAD
1000
MTEXTBEGIN
1070
    73
1070
     1
1070
    44
1040
1.0
1070
    74
1070
     0
1000
MTEXTEND
  0
MTEXT
  5
364
330
1F
100
AcDbEntity
  8
0
  6
Continuous
370
     0
100
AcDbMText
 10
871.693230066705
 20
382.8032406174044
 30
-0.0000000000000036
 40
1.75
 41
17.98222222222222
 71
     5
 72
     5
  1
{\fMS Gothic|b0|i0|c128|p48;ﾎﾜｲﾄ}
  7
ゴシック
 73
     1
 44
1.0
1001
ACAD
1000
MTEXTBEGIN
1070
    73
1070
     1
1070
    44
1040
1.0
1070
    74
1070
     0
1000
MTEXTEND
  0
MTEXT
  5
365
330
1F
100
AcDbEntity
  8
0
  6
Continuous
370
     0
100
AcDbMText
 10
871.693230066705
 20
386.9512923852785
 30
-0.0000000000000036
 40
1.75
 41
17.98222222222222
 71
     5
 72
     5
  1
{\fMS Gothic|b0|i0|c128|p48;ﾌﾞﾗｯｸ}
  7
ゴシック
 73
     1
 44
1.0
1001
ACAD
1000
MTEXTBEGIN
1070
    73
1070
     1
1070
    44
1040
1.0
1070
    74
1070
     0
1000
MTEXTEND
  0
MTEXT
  5
366
330
1F
100
AcDbEntity
  8
0
  6
Continuous
370
     0
100
AcDbMText
 10
871.7766172077881
 20
374.4561392254519
 30
-0.0000000000000036
 40
1.75
 41
12.5
 71
     5
 72
     5
  1
{\fArial|b0|i0|c128|p32;\U+2015}
  7
ゴシック
 73
     1
 44
1.0
1001
ACAD
1000
MTEXTBEGIN
1070
    73
1070
     1
1070
    44
1040
1.0
1070
    74
1070
     0
1000
MTEXTEND
  0
MTEXT
  5
367
330
1F
100
AcDbEntity
  8
0
  6
Continuous
370
     0
100
AcDbMText
 10
871.7766172077881
 20
391.0483462969484
 30
-0.0000000000000036
 40
1.75
 41
12.5
 71
     5
 72
     5
  1
{\fArial|b0|i0|c128|p32;\U+2015}
  7
ゴシック
 73
     1
 44
1.0
1001
ACAD
1000
MTEXTBEGIN
1070
    73
1070
     1
1070
    44
1040
1.0
1070
    74
1070
     0
1000
MTEXTEND
  0
MTEXT
  5
368
330
1F
100
AcDbEntity
  8
0
  6
Continuous
370
     0
100
AcDbMText
 10
871.693230066705
 20
395.2473959210268
 30
-0.0000000000000036
 40
1.75
 41
17.98222222222222
 71
     5
 72
     5
  1
{\fMS Gothic|b0|i0|c128|p48;化粧ﾗﾊﾞｰ色}
  7
ゴシック
 73
     1
 44
1.0
1001
ACAD
1000
MTEXTBEGIN
1070
    73
1070
     1
1070
    44
1040
1.0
1070
    74
1070
     0
1000
MTEXTEND
  0
MTEXT
  5
369
330
1F
100
AcDbEntity
  8
0
  6
Continuous
370
     0
100
AcDbMText
 10
856.710135035979
 20
366.1600356897038
 30
-0.0000000000000036
 40
1.75
 41
15.8463768115942
 71
     5
 72
     5
  1
{\fArial|b0|i0|c128|p32;ﾎﾜｲﾄ焼付塗装}
  7
ゴシック
 73
     1
 44
1.0
1001
ACAD
1000
MTEXTBEGIN
1070
    73
1070
     1
1070
    44
1040
1.0
1070
    74
1070
     0
1000
MTEXTEND
  0
MTEXT
  5
36A
330
1F
100
AcDbEntity
  8
0
  6
Continuous
370
     0
100
AcDbMText
 10
856.710135035979
 20
370.3080874575779
 30
-0.0000000000000036
 40
1.75
 41
15.8463768115942
 71
     5
 72
     5
  1
{\fArial|b0|i0|c128|p32;ﾎﾜｲﾄ焼付塗装}
  7
ゴシック
 73
     1
 44
1.0
1001
ACAD
1000
MTEXTBEGIN
1070
    73
1070
     1
1070
    44
1040
1.0
1070
    74
1070
     0
1000
MTEXTEND
  0
MTEXT
  5
36B
330
1F
100
AcDbEntity
  8
0
  6
Continuous
370
     0
100
AcDbMText
 10
856.227733711532
 20
382.7522427612002
 30
-0.0000000000000036
 40
1.75
 41
12.5
 71
     5
 72
     5
  1
{\fArial|b0|i0|c128|p32;No\fMS Gothic|b0|i0|c128|p48;.4仕上}
  7
ゴシック
 73
     1
 44
1.0
1001
ACAD
1000
MTEXTBEGIN
1070
    73
1070
     1
1070
    44
1040
1.0
1070
    74
1070
     0
1000
MTEXTEND
  0
MTEXT
  5
36C
330
1F
100
AcDbEntity
  8
0
  6
Continuous
370
     0
100
AcDbMText
 10
856.227733711532
 20
378.6041909933262
 30
-0.0000000000000036
 40
1.75
 41
12.5
 71
     5
 72
     5
  1
{\fArial|b0|i0|c128|p32;No\fMS Gothic|b0|i0|c128|p48;.4仕上}
  7
ゴシック
 73
     1
 44
1.0
1001
ACAD
1000
MTEXTBEGIN
1070
    73
1070
     1
1070
    44
1040
1.0
1070
    74
1070
     0
1000
MTEXTEND
  0
MTEXT
  5
36D
330
1F
100
AcDbEntity
  8
0
  6
Continuous
370
     0
100
AcDbMText
 10
856.227733711532
 20
386.9002945290743
 30
-0.0000000000000036
 40
1.75
 41
12.5
 71
     5
 72
     5
  1
{\fArial|b0|i0|c128|p32;No\fMS Gothic|b0|i0|c128|p48;.4仕上}
  7
ゴシック
 73
     1
 44
1.0
1001
ACAD
1000
MTEXTBEGIN
1070
    73
1070
     1
1070
    44
1040
1.0
1070
    74
1070
     0
1000
MTEXTEND
  0
MTEXT
  5
36E
330
1F
100
AcDbEntity
  8
0
  6
Continuous
370
     0
100
AcDbMText
 10
856.710135035979
 20
374.456139225452
 30
-0.0000000000000036
 40
1.75
 41
15.8463768115942
 71
     5
 72
     5
  1
{\fArial|b0|i0|c128|p32;ﾎﾜｲﾄ焼付塗装}
  7
ゴシック
 73
     1
 44
1.0
1001
ACAD
1000
MTEXTBEGIN
1070
    73
1070
     1
1070
    44
1040
1.0
1070
    74
1070
     0
1000
MTEXTEND
  0
MTEXT
  5
36F
330
1F
100
AcDbEntity
  8
0
  6
Continuous
370
     0
100
AcDbMText
 10
840.8516422759221
 20
370.3080874575785
 30
-0.0000000000000036
 40
1.75
 41
12.5
 71
     5
 72
     5
  1
付
  7
ゴシック
 73
     1
 44
1.0
1001
ACAD
1000
MTEXTBEGIN
1070
    73
1070
     1
1070
    44
1040
1.0
1070
    74
1070
     0
1000
MTEXTEND
  0
MTEXT
  5
370
330
1F
100
AcDbEntity
  8
0
  6
Continuous
370
     0
100
AcDbMText
 10
840.8516422759221
 20
366.1600356897043
 30
-0.0000000000000036
 40
1.75
 41
12.5
 71
     5
 72
     5
  1
付
  7
ゴシック
 73
     1
 44
1.0
1001
ACAD
1000
MTEXTBEGIN
1070
    73
1070
     1
1070
    44
1040
1.0
1070
    74
1070
     0
1000
MTEXTEND
  0
MTEXT
  5
371
330
1F
100
AcDbEntity
  8
0
  6
Continuous
370
     0
100
AcDbMText
 10
840.8516422759221
 20
378.6041909933266
 30
-0.0000000000000036
 40
1.75
 41
12.5
 71
     5
 72
     5
  1
付
  7
ゴシック
 73
     1
 44
1.0
1001
ACAD
1000
MTEXTBEGIN
1070
    73
1070
     1
1070
    44
1040
1.0
1070
    74
1070
     0
1000
MTEXTEND
  0
MTEXT
  5
372
330
1F
100
AcDbEntity
  8
0
  6
Continuous
370
     0
100
AcDbMText
 10
840.8516422759221
 20
382.7522427612008
 30
-0.0000000000000036
 40
1.75
 41
12.5
 71
     5
 72
     5
  1
付
  7
ゴシック
 73
     1
 44
1.0
1001
ACAD
1000
MTEXTBEGIN
1070
    73
1070
     1
1070
    44
1040
1.0
1070
    74
1070
     0
1000
MTEXTEND
  0
MTEXT
  5
373
330
1F
100
AcDbEntity
  8
0
  6
Continuous
370
     0
100
AcDbMText
 10
840.8516422759221
 20
386.9002945290749
 30
-0.0000000000000036
 40
1.75
 41
12.5
 71
     5
 72
     5
  1
付
  7
ゴシック
 73
     1
 44
1.0
1001
ACAD
1000
MTEXTBEGIN
1070
    73
1070
     1
1070
    44
1040
1.0
1070
    74
1070
     0
1000
MTEXTEND
  0
MTEXT
  5
374
330
1F
100
AcDbEntity
  8
0
  6
Continuous
370
     0
100
AcDbMText
 10
840.8516422759221
 20
374.4561392254525
 30
-0.0000000000000036
 40
1.75
 41
12.5
 71
     5
 72
     5
  1
なし
  7
ゴシック
 73
     1
 44
1.0
1001
ACAD
1000
MTEXTBEGIN
1070
    73
1070
     1
1070
    44
1040
1.0
1070
    74
1070
     0
1000
MTEXTEND
  0
MTEXT
  5
375
330
1F
100
AcDbEntity
  8
0
  6
Continuous
370
     0
100
AcDbMText
 10
818.9867078629923
 20
366.1898788002091
 30
-0.0000000000000036
 40
1.75
 41
16.2575
 71
     4
 72
     5
  1
{\fArial|b0|i0|c0|p32;LS}-911{\fArial|b0|i0|c0|p32;GRW}
  7
ゴシック
 73
     1
 44
1.0
1001
ACAD
1000
MTEXTBEGIN
1070
    73
1070
     1
1070
    44
1040
1.0
1070
    74
1070
     0
1000
MTEXTEND
  0
LINE
  5
376
330
1F
100
AcDbEntity
  8
0
  6
Continuous
370
     0
100
AcDbLine
 10
887.0712307211597
 20
372.5475469212396
 30
0.0
 11
817.7631394254476
 21
372.5475469212398
 31
0.0
  0
MTEXT
  5
377
330
1F
100
AcDbEntity
  8
0
  6
Continuous
370
     0
100
AcDbMText
 10
818.9867078629923
 20
374.4859823359573
 30
-0.0000000000000036
 40
1.75
 41
12.5
 71
     4
 72
     5
  1
{\fArial|b0|i0|c0|p32;LS}-911{\fArial|b0|i0|c0|p32;W}
  7
ゴシック
 73
     1
 44
1.0
1001
ACAD
1000
MTEXTBEGIN
1070
    73
1070
     1
1070
    44
1040
1.0
1070
    74
1070
     0
1000
MTEXTEND
  0
LINE
  5
378
330
1F
100
AcDbEntity
  8
0
  6
Continuous
370
     0
100
AcDbLine
 10
887.0712307211597
 20
368.3994951533656
 30
0.0
 11
817.7631394254476
 21
368.3994951533656
 31
0.0
  0
LINE
  5
379
330
1F
100
AcDbEntity
  8
0
  6
Continuous
370
     0
100
AcDbLine
 10
887.0712307211597
 20
364.2514433854914
 30
0.0
 11
817.7631394254476
 21
364.2514433854915
 31
0.0
  0
MTEXT
  5
37A
330
1F
100
AcDbEntity
  8
0
  6
Continuous
370
     0
100
AcDbMText
 10
818.9867078629923
 20
370.3379305680832
 30
-0.0000000000000036
 40
1.75
 41
16.2575
 71
     4
 72
     5
  1
{\fArial|b0|i0|c0|p32;LS}-911{\fArial|b0|i0|c0|p32;HRW}
  7
ゴシック
 73
     1
 44
1.0
1001
ACAD
1000
MTEXTBEGIN
1070
    73
1070
     1
1070
    44
1040
1.0
1070
    74
1070
     0
1000
MTEXTEND
  0
LINE
  5
37B
330
1F
100
AcDbEntity
  8
0
  6
Continuous
370
     0
100
AcDbLine
 10
887.0712307211597
 20
376.6955986891138
 30
0.0
 11
817.7631394254476
 21
376.6955986891139
 31
0.0
  0
MTEXT
  5
37C
330
1F
100
AcDbEntity
  8
0
  6
Continuous
370
     0
100
AcDbMText
 10
818.9867078629923
 20
378.6340341038314
 30
-0.0000000000000036
 40
1.75
 41
12.5
 71
     4
 72
     5
  1
{\fArial|b0|i0|c0|p32;LS}-911{\fArial|b0|i0|c0|p32;GR}
  7
ゴシック
 73
     1
 44
1.0
1001
ACAD
1000
MTEXTBEGIN
1070
    73
1070
     1
1070
    44
1040
1.0
1070
    74
1070
     0
1000
MTEXTEND
  0
MTEXT
  5
37D
330
1F
100
AcDbEntity
  8
0
  6
Continuous
370
     0
100
AcDbMText
 10
818.9867078629923
 20
382.7820858717055
 30
-0.0000000000000036
 40
1.75
 41
12.5
 71
     4
 72
     5
  1
{\fArial|b0|i0|c0|p32;LS}-911{\fArial|b0|i0|c0|p32;HR}
  7
ゴシック
 73
     1
 44
1.0
1001
ACAD
1000
MTEXTBEGIN
1070
    73
1070
     1
1070
    44
1040
1.0
1070
    74
1070
     0
1000
MTEXTEND
  0
LINE
  5
37E
330
1F
100
AcDbEntity
  8
0
  6
Continuous
370
     0
100
AcDbLine
 10
887.0712307211597
 20
380.8436504569879
 30
0.0
 11
817.7631394254476
 21
380.8436504569879
 31
0.0
  0
LINE
  5
37F
330
1F
100
AcDbEntity
  8
0
  6
Continuous
370
     0
100
AcDbLine
 10
887.0712307211597
 20
384.991702224862
 30
0.0
 11
817.7631394254476
 21
384.9917022248621
 31
0.0
  0
MTEXT
  5
380
330
1F
100
AcDbEntity
  8
0
  6
Continuous
370
     0
100
AcDbMText
 10
818.9867078629923
 20
386.9301376395796
 30
-0.0000000000000036
 40
1.75
 41
12.5
 71
     4
 72
     5
  1
{\fArial|b0|i0|c0|p32;LS}-911{\fArial|b0|i0|c0|p32;BR}
  7
ゴシック
 73
     1
 44
1.0
1001
ACAD
1000
MTEXTBEGIN
1070
    73
1070
     1
1070
    44
1040
1.0
1070
    74
1070
     0
1000
MTEXTEND
  0
LINE
  5
381
330
1F
100
AcDbEntity
  8
0
  6
Continuous
370
     0
100
AcDbLine
 10
887.0712307211597
 20
397.4358575284844
 30
0.0
 11
817.7631394254476
 21
397.4358575284844
 31
0.0
  0
LINE
  5
382
330
1F
100
AcDbEntity
  8
0
  6
Continuous
370
     0
100
AcDbLine
 10
878.4912736407987
 20
364.2514433854915
 30
0.0
 11
878.4912736407987
 21
397.4358575284844
 31
0.0
  0
LINE
  5
383
330
1F
100
AcDbEntity
  8
0
  6
Continuous
370
     0
100
AcDbLine
 10
865.3872319828987
 20
364.2514433854915
 30
0.0
 11
865.3872319829005
 21
397.4358575284844
 31
0.0
  0
LINE
  5
384
330
1F
100
AcDbEntity
  8
0
  6
Continuous
370
     0
100
AcDbLine
 10
847.6578091791997
 20
364.2514433854915
 30
0.0
 11
847.6578091791997
 21
397.4358575284844
 31
0.0
  0
LINE
  5
385
330
1F
100
AcDbEntity
  8
0
  6
Continuous
370
     0
100
AcDbLine
 10
834.5126358198067
 20
364.2514433854915
 30
0.0
 11
834.5126358198067
 21
397.4358575284844
 31
0.0
  0
LINE
  5
386
330
1F
100
AcDbEntity
  8
0
  6
Continuous
370
     0
100
AcDbLine
 10
817.7631394254476
 20
364.2514433854916
 30
0.0
 11
817.7631394254476
 21
397.4358575284844
 31
0.0
  0
MTEXT
  5
387
330
1F
100
AcDbEntity
  8
0
  6
Continuous
370
     0
100
AcDbMText
 10
818.9867078629923
 20
391.0781894074538
 30
-0.0000000000000036
 40
1.75
 41
12.5
 71
     4
 72
     5
  1
{\fArial|b0|i0|c0|p32;LS}-911
  7
ゴシック
 73
     1
 44
1.0
1001
ACAD
1000
MTEXTBEGIN
1070
    73
1070
     1
1070
    44
1040
1.0
1070
    74
1070
     0
1000
MTEXTEND
  0
MTEXT
  5
388
330
1F
100
AcDbEntity
  8
0
  6
Continuous
370
     0
100
AcDbMText
 10
856.227733711532
 20
391.0483462969484
 30
-0.0000000000000036
 40
1.75
 41
12.5
 71
     5
 72
     5
  1
{\fArial|b0|i0|c128|p32;No\fMS Gothic|b0|i0|c128|p48;.4仕上}
  7
ゴシック
 73
     1
 44
1.0
1001
ACAD
1000
MTEXTBEGIN
1070
    73
1070
     1
1070
    44
1040
1.0
1070
    74
1070
     0
1000
MTEXTEND
  0
MTEXT
  5
389
330
1F
100
AcDbEntity
  8
0
  6
Continuous
370
     0
100
AcDbMText
 10
856.2654858668338
 20
395.2473959210268
 30
-0.0000000000000036
 40
1.75
 41
17.98222222222222
 71
     5
 72
     5
  1
{\fMS Gothic|b0|i0|c128|p48;棚受仕上／色}
  7
ゴシック
 73
     1
 44
1.0
1001
ACAD
1000
MTEXTBEGIN
1070
    73
1070
     1
1070
    44
1040
1.0
1070
    74
1070
     0
1000
MTEXTEND
  0
LINE
  5
38A
330
1F
100
AcDbEntity
  8
0
  6
Continuous
370
     0
100
AcDbLine
 10
887.0712307211597
 20
389.1397539927361
 30
0.0
 11
817.7631394254476
 21
389.1397539927362
 31
0.0
  0
MTEXT
  5
38B
330
1F
100
AcDbEntity
  8
0
  6
Continuous
370
     0
100
AcDbMText
 10
840.8516422759221
 20
391.048346296949
 30
-0.0000000000000036
 40
1.75
 41
12.5
 71
     5
 72
     5
  1
なし
  7
ゴシック
 73
     1
 44
1.0
1001
ACAD
1000
MTEXTBEGIN
1070
    73
1070
     1
1070
    44
1040
1.0
1070
    74
1070
     0
1000
MTEXTEND
  0
MTEXT
  5
38C
330
1F
100
AcDbEntity
  8
0
  6
Continuous
370
     0
100
AcDbMText
 10
840.8516422759221
 20
395.2473959210274
 30
-0.0000000000000036
 40
1.75
 41
12.5
 71
     5
 72
     5
  1
化粧ﾗﾊﾞｰ
  7
ゴシック
 73
     1
 44
1.0
1001
ACAD
1000
MTEXTBEGIN
1070
    73
1070
     1
1070
    44
1040
1.0
1070
    74
1070
     0
1000
MTEXTEND
  0
MTEXT
  5
38D
330
1F
100
AcDbEntity
  8
0
  6
Continuous
370
     0
100
AcDbMText
 10
825.8877506106909
 20
395.1629608356074
 30
0.0
 40
1.75
 41
12.5
 71
     5
 72
     5
  1
{\fMS Gothic|b0|i0|c128|p48;品　番}
  7
ゴシック
 73
     1
 44
1.0
1001
ACAD
1000
MTEXTBEGIN
1070
    73
1070
     1
1070
    44
1040
1.0
1070
    74
1070
     0
1000
MTEXTEND
  0
LINE
  5
38E
330
1F
100
AcDbEntity
  8
0
  6
Continuous
370
     0
100
AcDbLine
 10
887.0712307211597
 20
393.2878057606103
 30
0.0
 11
817.7631394254476
 21
393.2878057606103
 31
0.0
  0
MTEXT
  5
38F
330
1F
100
AcDbEntity
  8
0
  6
Continuous
370
     0
100
AcDbMText
 10
886.5249889886326
 20
391.0483462969484
 30
-0.0000000000000036
 40
1.75
 41
12.5
 71
     6
 72
     5
  1
{\fMS Gothic|b0|i0|c128|p48;3.1ｇ}
  7
ゴシック
 73
     1
 44
1.0
1001
ACAD
1000
MTEXTBEGIN
1070
    73
1070
     1
1070
    44
1040
1.0
1070
    74
1070
     0
1000
MTEXTEND
  0
LINE
  5
390
330
1F
100
AcDbEntity
  8
0
  6
Continuous
370
     0
100
AcDbLine
 10
878.4912736407987
 20
364.2514433854915
 30
0.0
 11
878.4912736407987
 21
397.4358575284844
 31
0.0
  0
LINE
  5
391
330
1F
100
AcDbEntity
  8
0
  6
Continuous
370
     0
100
AcDbLine
 10
887.0712307211597
 20
364.2514433854914
 30
0.0
 11
887.0712307211597
 21
397.4358575284844
 31
0.0
  0
MTEXT
  5
392
330
1F
100
AcDbEntity
  8
0
  6
Continuous
370
     0
100
AcDbMText
 10
882.3537623945576
 20
395.2473959210268
 30
-0.0000000000000036
 40
1.75
 41
12.5
 71
     5
 72
     5
  1
{\fMS Gothic|b0|i0|c128|p48;質量}
  7
ゴシック
 73
     1
 44
1.0
1001
ACAD
1000
MTEXTBEGIN
1070
    73
1070
     1
1070
    44
1040
1.0
1070
    74
1070
     0
1000
MTEXTEND
  0
LINE
  5
393
330
1F
100
AcDbEntity
  8
0
 62
     0
100
AcDbLine
 10
859.5718749872794
 20
462.9584928594832
 30
0.0
 11
859.5718749872794
 21
470.9584928594832
 31
0.0
  0
ARC
  5
394
330
1F
100
AcDbEntity
  8
0
 62
     0
100
AcDbCircle
 10
874.5718749872777
 20
463.9584928594827
 30
0.0
 40
1.0
100
AcDbArc
 50
270.0
 51
0.0
  0
ARC
  5
395
330
1F
100
AcDbEntity
  8
0
 62
     0
100
AcDbCircle
 10
874.5718749872777
 20
469.9584928594828
 30
0.0
 40
1.0
100
AcDbArc
 50
0.0
 51
90.0
  0
ARC
  5
396
330
1F
100
AcDbEntity
  8
0
 62
     0
100
AcDbCircle
 10
876.1718749872798
 20
469.058492859485
 30
0.0
 40
0.6
100
AcDbArc
 50
180.0
 51
270.0
  0
ARC
  5
397
330
1F
100
AcDbEntity
  8
0
 62
     0
100
AcDbCircle
 10
876.1718749872798
 20
464.8584928594824
 30
0.0
 40
0.6
100
AcDbArc
 50
90.0
 51
180.0
  0
LINE
  5
398
330
1F
100
AcDbEntity
  8
0
 62
     0
100
AcDbLine
 10
876.5718749872776
 20
465.4584928594832
 30
0.0
 11
876.5718749872776
 21
468.4584928594869
 31
0.0
  0
LINE
  5
399
330
1F
100
AcDbEntity
  8
0
 62
     0
100
AcDbLine
 10
878.4718749872791
 20
467.3739347953925
 30
0.0
 11
878.4718749872791
 21
466.5430509235758
 31
0.0
  0
LINE
  5
39A
330
1F
100
AcDbEntity
  8
0
 62
     0
100
AcDbLine
 10
878.0915212176424
 20
465.625997581994
 30
0.0
 11
878.2483551527256
 21
465.845565091111
 31
0.0
  0
LINE
  5
39B
330
1F
100
AcDbEntity
  8
0
 62
     0
100
AcDbLine
 10
878.2483551527256
 20
468.0714206278554
 30
0.0
 11
878.0915212176424
 21
468.2909881369725
 31
0.0
  0
ARC
  5
39C
330
1F
100
AcDbEntity
  8
0
 62
     0
100
AcDbCircle
 10
877.2718749872783
 20
467.3739347953921
 30
0.0
 40
1.199999999999999
100
AcDbArc
 50
0.0
 51
35.53767779200127
  0
ARC
  5
39D
330
1F
100
AcDbEntity
  8
0
 62
     0
100
AcDbCircle
 10
877.2718749872783
 20
466.5430509235753
 30
0.0
 40
1.199999999999999
100
AcDbArc
 50
324.4623222079987
 51
0.0
  0
ARC
  5
39E
330
1F
100
AcDbEntity
  8
0
 62
     0
100
AcDbCircle
 10
877.7660278291605
 20
468.058492859485
 30
0.0
 40
0.4
100
AcDbArc
 50
35.53767779200127
 51
90.0
  0
ARC
  5
39F
330
1F
100
AcDbEntity
  8
0
 62
     0
100
AcDbCircle
 10
877.7660278291605
 20
465.8584928594806
 30
0.0
 40
0.4
100
AcDbArc
 50
270.0
 51
324.4623222079987
  0
LINE
  5
3A0
330
1F
100
AcDbEntity
  8
0
 62
     0
100
AcDbLine
 10
859.5718749872794
 20
470.9584928594832
 30
0.0
 11
874.5718749872777
 21
470.9584928594832
 31
0.0
  0
LINE
  5
3A1
330
1F
100
AcDbEntity
  8
0
 62
     0
100
AcDbLine
 10
859.5718749872794
 20
462.9584928594832
 30
0.0
 11
874.5718749872777
 21
462.9584928594796
 31
0.0
  0
LINE
  5
3A2
330
1F
100
AcDbEntity
  8
0
 62
     0
100
AcDbLine
 10
875.5718749872777
 20
469.9584928594832
 30
0.0
 11
875.5718749872777
 21
469.0584928594854
 31
0.0
  0
LINE
  5
3A3
330
1F
100
AcDbEntity
  8
0
 62
     0
100
AcDbLine
 10
876.171874987278
 20
468.4584928594869
 30
0.0
 11
877.7660278291605
 21
468.4584928594869
 31
0.0
  0
LINE
  5
3A4
330
1F
100
AcDbEntity
  8
0
 62
     0
100
AcDbLine
 10
876.171874987278
 20
465.4584928594832
 30
0.0
 11
877.7660278291605
 21
465.4584928594832
 31
0.0
  0
LINE
  5
3A5
330
1F
100
AcDbEntity
  8
0
 62
     0
100
AcDbLine
 10
875.5718749872777
 20
464.8584928594829
 30
0.0
 11
875.5718749872777
 21
463.9584928594833
 31
0.0
  0
LINE
  5
3A6
330
1F
100
AcDbEntity
  8
0
 62
     0
100
AcDbLine
 10
863.0718749872794
 20
462.9584928594832
 30
0.0
 11
863.0718749872794
 21
470.9584928594832
 31
0.0
  0
LINE
  5
3A7
330
1F
100
AcDbEntity
  8
0
 62
     0
100
AcDbLine
 10
866.0781810132867
 20
462.9584928594832
 30
0.0
 11
866.0781810132867
 21
470.9584928594832
 31
0.0
  0
LINE
  5
3A8
330
1F
100
AcDbEntity
  8
0
 62
     0
100
AcDbLine
 10
821.0313951543758
 20
450.5747313933722
 30
0.0
 11
821.0313951543739
 21
448.5747313933723
 31
0.0
  0
ARC
  5
3A9
330
1F
100
AcDbEntity
  8
0
 62
     0
100
AcDbCircle
 10
823.031395154374
 20
465.6364933616676
 30
0.0
 40
0.2
100
AcDbArc
 50
90.0
 51
180.0000000001042
  0
ARC
  5
3AA
330
1F
100
AcDbEntity
  8
0
 62
     0
100
AcDbCircle
 10
823.8313951543714
 20
465.6364933616677
 30
0.0
 40
0.2
100
AcDbArc
 50
0.0000000000846791
 51
90.0
  0
ARC
  5
3AB
330
1F
100
AcDbEntity
  8
0
 62
     0
100
AcDbCircle
 10
823.8313951543714
 20
465.1584928594838
 30
0.0
 40
0.2
100
AcDbArc
 50
0.0000000000716515
 51
90.0
  0
ARC
  5
3AC
330
1F
100
AcDbEntity
  8
0
 62
     0
100
AcDbCircle
 10
823.0313951543758
 20
465.1584928594836
 30
0.0
 40
0.2
100
AcDbArc
 50
90.0
 51
180.0000000001172
  0
ARC
  5
3AD
330
1F
100
AcDbEntity
  8
0
 62
     0
100
AcDbCircle
 10
823.0313951543685
 20
468.2804923572988
 30
0.0
 40
0.2
100
AcDbArc
 50
179.9999999996873
 51
270.0
  0
ARC
  5
3AE
330
1F
100
AcDbEntity
  8
0
 62
     0
100
AcDbCircle
 10
823.8313951543714
 20
468.2804923572986
 30
0.0
 40
0.2
100
AcDbArc
 50
270.0
 51
359.9999999998893
  0
ARC
  5
3AF
330
1F
100
AcDbEntity
  8
0
 62
     0
100
AcDbCircle
 10
823.8313951543714
 20
468.7584928594827
 30
0.0
 40
0.2
100
AcDbArc
 50
270.0
 51
359.9999999999283
  0
ARC
  5
3B0
330
1F
100
AcDbEntity
  8
0
 62
     0
100
AcDbCircle
 10
823.031395154372
 20
468.7584928594827
 30
0.0
 40
0.2
100
AcDbArc
 50
179.9999999997003
 51
270.0
  0
LINE
  5
3B1
330
1F
100
AcDbEntity
  8
0
 62
     0
100
AcDbLine
 10
823.0313951543685
 20
468.0804923572988
 30
0.0
 11
823.8313951543714
 21
468.0804923572987
 31
0.0
  0
LINE
  5
3B2
330
1F
100
AcDbEntity
  8
0
 62
     0
100
AcDbLine
 10
823.031395154374
 20
465.8364933616676
 30
0.0
 11
823.8313951543714
 21
465.8364933616676
 31
0.0
  0
LINE
  5
3B3
330
1F
100
AcDbEntity
  8
0
 62
     0
100
AcDbLine
 10
823.1327445327478
 20
468.0804923572988
 30
0.0
 11
823.7327445327446
 21
468.0804923572988
 31
0.0
  0
LINE
  5
3B4
330
1F
100
AcDbEntity
  8
0
 62
     0
100
AcDbLine
 10
821.0313951543739
 20
465.2452547836873
 30
0.0
 11
822.831395154375
 21
465.2452547836873
 31
0.0
  0
LINE
  5
3B5
330
1F
100
AcDbEntity
  8
0
 62
     0
100
AcDbLine
 10
821.0313951543758
 20
468.6717309352789
 30
0.0
 11
822.8313951543732
 21
468.6717309352787
 31
0.0
  0
LINE
  5
3B6
330
1F
100
AcDbEntity
  8
0
 62
     0
100
AcDbLine
 10
821.0313951543721
 20
468.9584928594825
 30
0.0
 11
821.0313951543721
 21
464.9584928594837
 31
0.0
  0
LINE
  5
3B7
330
1F
100
AcDbEntity
  8
0
 62
     0
100
AcDbLine
 10
822.831395154375
 20
469.2584928594831
 30
0.0
 11
822.8313951543695
 21
468.2804923572998
 31
0.0
  0
LINE
  5
3B8
330
1F
100
AcDbEntity
  8
0
 62
     0
100
AcDbLine
 10
824.031395154374
 20
470.3584928594844
 30
0.0
 11
824.0313951543702
 21
468.2804923572982
 31
0.0
  0
LINE
  5
3B9
330
1F
100
AcDbEntity
  8
0
 62
     0
100
AcDbLine
 10
823.031395154372
 20
468.5584928594828
 30
0.0
 11
823.8313951543714
 21
468.5584928594827
 31
0.0
  0
LINE
  5
3BA
330
1F
100
AcDbEntity
  8
0
 62
     0
100
AcDbLine
 10
821.6313951543742
 20
469.5584928594826
 30
0.0
 11
822.5313951543757
 21
469.5584928594826
 31
0.0
  0
LINE
  5
3BB
330
1F
100
AcDbEntity
  8
0
 62
     0
100
AcDbLine
 10
821.6313951543742
 20
464.3584928594837
 30
0.0
 11
822.5313951543721
 21
464.3584928594837
 31
0.0
  0
ARC
  5
3BC
330
1F
100
AcDbEntity
  8
0
 62
     0
100
AcDbCircle
 10
822.5313951543757
 20
469.2584928594825
 30
0.0
 40
0.3
100
AcDbArc
 50
0.000000000117248
 51
90.0
  0
ARC
  5
3BD
330
1F
100
AcDbEntity
  8
0
 62
     0
100
AcDbCircle
 10
822.5313951543721
 20
464.6584928594836
 30
0.0
 40
0.3
100
AcDbArc
 50
270.0
 51
0.000000000117248
  0
LINE
  5
3BE
330
1F
100
AcDbEntity
  8
0
 62
     0
100
AcDbLine
 10
823.0313951543758
 20
465.3584928594836
 30
0.0
 11
823.8313951543714
 21
465.3584928594836
 31
0.0
  0
LINE
  5
3BF
330
1F
100
AcDbEntity
  8
0
 62
     0
100
AcDbLine
 10
824.031395154374
 20
463.5584928594822
 30
0.0
 11
824.0313951543722
 21
465.636493361668
 31
0.0
  0
LINE
  5
3C0
330
1F
100
AcDbEntity
  8
0
 62
     0
100
AcDbLine
 10
822.831395154375
 20
464.6584928594831
 30
0.0
 11
822.831395154375
 21
465.6364933616673
 31
0.0
  0
LINE
  5
3C1
330
1F
100
AcDbEntity
  8
0
 62
     0
100
AcDbLine
 10
824.031395154374
 20
450.5747313933722
 30
0.0
 11
827.614237866841
 21
450.5747313933722
 31
0.0
  0
LINE
  5
3C2
330
1F
100
AcDbEntity
  8
0
 62
     0
100
AcDbLine
 10
822.8313951543732
 20
450.4189712814767
 30
0.0
 11
824.0313951543722
 21
450.4189712814768
 31
0.0
  0
LINE
  5
3C3
330
1F
100
AcDbEntity
  8
0
 62
     0
100
AcDbLine
 10
821.0313951543758
 20
450.5747313933722
 30
0.0
 11
822.831395154375
 21
450.5747313933722
 31
0.0
  0
LINE
  5
3C4
330
1F
100
AcDbEntity
  8
0
 62
     0
100
AcDbLine
 10
824.031395154374
 20
450.5747313933723
 30
0.0
 11
824.0313951543793
 21
449.5747313933727
 31
0.0
  0
LINE
  5
3C5
330
1F
100
AcDbEntity
  8
0
 62
     0
100
AcDbLine
 10
822.831395154375
 20
450.5747313933723
 30
0.0
 11
822.8313951543841
 21
449.5747313933728
 31
0.0
  0
LINE
  5
3C6
330
1F
100
AcDbEntity
  8
0
 62
     0
100
AcDbLine
 10
824.6313951543744
 20
470.9584928594834
 30
0.0
 11
843.8313951543731
 21
470.9584928594834
 31
0.0
  0
LINE
  5
3C7
102
{ACAD_REACTORS
330
3DC
102
}
330
1F
100
AcDbEntity
  8
0
 62
     0
100
AcDbLine
 10
824.6313951543744
 20
462.958492859483
 30
0.0
 11
843.8313951543769
 21
462.9584928594832
 31
0.0
  0
LINE
  5
3C8
102
{ACAD_REACTORS
330
3D9
102
}
330
1F
100
AcDbEntity
  8
0
 62
     0
100
AcDbLine
 10
843.8313951543751
 20
470.9584928594834
 30
0.0
 11
843.8313951543751
 21
462.9584928594831
 31
0.0
  0
LINE
  5
3C9
330
1F
100
AcDbEntity
  8
0
 62
     0
100
AcDbLine
 10
827.6446332301675
 20
450.5747313933722
 30
0.0
 11
842.0813951543751
 21
450.5747313933723
 31
0.0
  0
ARC
  5
3CA
102
{ACAD_REACTORS
330
3E2
102
}
330
1F
100
AcDbEntity
  8
0
 62
     0
100
AcDbCircle
 10
842.0813951543751
 20
448.8247313933722
 30
0.0
 40
1.75
100
AcDbArc
 50
270.0
 51
90.0
  0
ARC
  5
3CB
330
1F
100
AcDbEntity
  8
0
 62
     0
100
AcDbCircle
 10
842.0813951543751
 20
448.8247313933722
 30
0.0
 40
0.75
100
AcDbArc
 50
270.0
 51
90.0
  0
LINE
  5
3CC
330
1F
100
AcDbEntity
  8
0
 62
     0
100
AcDbLine
 10
821.0313951543721
 20
449.574731393373
 30
0.0
 11
842.0813951543751
 21
449.5747313933715
 31
0.0
  0
ARC
  5
3CD
330
1F
100
AcDbEntity
  8
0
 62
     0
100
AcDbCircle
 10
821.6313951543742
 20
464.9584928594837
 30
0.0
 40
0.6
100
AcDbArc
 50
180.0
 51
270.0
  0
ARC
  5
3CE
102
{ACAD_REACTORS
330
3D9
102
}
330
1F
100
AcDbEntity
  8
0
 62
     0
100
AcDbCircle
 10
821.6313951543742
 20
468.9584928594825
 30
0.0
 40
0.6
100
AcDbArc
 50
90.0
 51
180.0
  0
ARC
  5
3CF
330
1F
100
AcDbEntity
  8
0
 62
     0
100
AcDbCircle
 10
824.6313951543744
 20
463.558492859483
 30
0.0
 40
0.6
100
AcDbArc
 50
180.0000000000846
 51
270.0
  0
ARC
  5
3D0
102
{ACAD_REACTORS
330
3DF
102
}
330
1F
100
AcDbEntity
  8
0
 62
     0
100
AcDbCircle
 10
824.6313951543744
 20
470.3584928594834
 30
0.0
 40
0.6
100
AcDbArc
 50
90.0
 51
179.9999999998892
  0
LINE
  5
3D1
330
1F
100
AcDbEntity
  8
0
 62
     0
100
AcDbLine
 10
821.0404986200064
 20
432.5407567971593
 30
0.0
 11
823.7313951543875
 21
434.0943466356477
 31
0.0
  0
LINE
  5
3D2
330
1F
100
AcDbEntity
  8
0
 62
     0
100
AcDbLine
 10
821.5404986200047
 20
431.6747313933744
 30
0.0
 11
824.2313951543874
 21
433.2283212318604
 31
0.0
  0
LINE
  5
3D3
330
1F
100
AcDbEntity
  8
0
 62
     0
100
AcDbLine
 10
821.5404986200047
 20
431.6747313933745
 30
0.0
 11
821.0404986200046
 21
432.5407567971601
 31
0.0
  0
ARC
  5
3D4
330
1F
100
AcDbEntity
  8
0
 62
     0
100
AcDbCircle
 10
823.631395154387
 20
434.2675517164045
 30
0.0
 40
0.2
100
AcDbArc
 50
300.0000000000078
 51
359.9999999999935
  0
ARC
  5
3D5
330
1F
100
AcDbEntity
  8
0
 62
     0
100
AcDbCircle
 10
823.6313951543888
 20
434.2675517164021
 30
0.0
 40
1.199999999999999
100
AcDbArc
 50
299.9999999999916
 51
0.0000000000097707
  0
LINE
  5
3D6
330
1F
100
AcDbEntity
  8
0
 62
     0
100
AcDbLine
 10
824.8313951543877
 20
434.5747313933741
 30
0.0
 11
823.831395154386
 21
434.5747313933741
 31
0.0
  0
DIMENSION
  5
3D7
102
{ACAD_XDICTIONARY
360
3D8
102
}
102
{ACAD_REACTORS
330
3D9
102
}
330
1F
100
AcDbEntity
  8
0
 62
     4
100
AcDbDimension
  2
*D22
 10
843.8313951543772
 20
480.0241331666702
 30
0.0
 11
833.9313951543758
 21
480.0241331666702
 31
0.0
 70
   160
  1
23
 71
     5
 42
22.80000000000291
  3
基本（１：１）
100
AcDbAlignedDimension
 13
821.0313951543742
 23
468.9584928594825
 33
0.0
 14
843.8313951543772
 24
470.9584928594834
 34
0.0
100
AcDbRotatedDimension
1001
ACAD
1000
DSTYLE
1002
{
1070
    40
1040
1.0
1002
}
  0
DIMENSION
  5
3DA
102
{ACAD_XDICTIONARY
360
3DB
102
}
102
{ACAD_REACTORS
330
3DC
102
}
330
1F
100
AcDbEntity
  8
0
 62
     4
100
AcDbDimension
  2
*D23
 10
850.9629776618023
 20
462.9584928594832
 30
0.0
 11
850.9629776618021
 21
466.9584928594846
 31
0.0
 70
   160
 71
     5
 42
8.000000000000113
  3
基本（１：１）
100
AcDbAlignedDimension
 13
843.8313951543751
 23
470.9584928594834
 33
0.0
 14
843.8313951543769
 24
462.9584928594832
 34
0.0
 50
90.0
100
AcDbRotatedDimension
1001
ACAD
1000
DSTYLE
1002
{
1070
    40
1040
1.0
1002
}
  0
DIMENSION
  5
3DD
102
{ACAD_XDICTIONARY
360
3DE
102
}
102
{ACAD_REACTORS
330
3DF
102
}
330
1F
100
AcDbEntity
  8
0
 62
     4
100
AcDbDimension
  2
*D24
 10
843.8313951543751
 20
475.4028753056034
 30
0.0
 11
833.931395154374
 21
475.4028753056034
 31
0.0
 70
   160
  1
20
 71
     5
 42
19.80000000000109
  3
基本（１：１）
100
AcDbAlignedDimension
 13
824.031395154374
 23
470.3584928594844
 33
0.0
 14
843.8313951543751
 24
470.9584928594834
 34
0.0
100
AcDbRotatedDimension
1001
ACAD
1000
DSTYLE
1002
{
1070
    40
1040
1.0
1002
}
  0
DIMENSION
  5
3E0
102
{ACAD_XDICTIONARY
360
3E1
102
}
102
{ACAD_REACTORS
330
3E2
102
}
330
1F
100
AcDbEntity
  8
0
 62
     4
100
AcDbDimension
  2
*D25
 10
850.9629776618021
 20
447.0747313933722
 30
0.0
 11
849.2129776618019
 21
441.5718904842814
 31
0.0
 70
    32
 71
     5
 42
3.5
  3
基本（１：１）
100
AcDbAlignedDimension
 13
842.0813951543751
 23
450.5747313933722
 33
0.0
 14
842.0813951543751
 24
447.0747313933722
 34
0.0
 50
90.0
100
AcDbRotatedDimension
1001
ACAD
1000
DSTYLE
1002
{
1070
    40
1040
1.0
1002
}
  0
DIMENSION
  5
3E3
330
1F
100
AcDbEntity
  8
0
 62
     4
100
AcDbDimension
  2
*D18
 10
815.0793407416713
 20
431.6747313933737
 30
0.0
 11
815.0793407416713
 21
441.1247313933738
 31
0.0
 70
   160
  1
19
 71
     5
 42
18.89999999999776
  3
基本（１：１）
100
AcDbAlignedDimension
 13
821.0313951543758
 23
450.5747313933714
 33
0.0
 14
821.5404986200047
 24
431.6747313933737
 34
0.0
 50
90.0
100
AcDbRotatedDimension
1001
ACAD
1000
DSTYLE
1002
{
1070
    40
1040
1.0
1002
}
  0
ARC
  5
3E4
330
1F
100
AcDbEntity
  8
0
 62
     0
100
AcDbCircle
 10
827.9142378668549
 20
446.8747313933724
 30
0.0
 40
0.2
100
AcDbArc
 50
90.0
 51
135.0000000000115
  0
LINE
  5
3E5
330
1F
100
AcDbEntity
  8
0
 62
     0
100
AcDbLine
 10
824.1828670169615
 20
444.8404168183258
 30
0.0
 11
827.0657097294279
 21
447.7232595307968
 31
0.0
  0
LINE
  5
3E6
330
1F
100
AcDbEntity
  8
0
 62
     0
100
AcDbLine
 10
824.8899737981446
 20
444.1333100371302
 30
0.0
 11
827.77281651062
 21
447.0161527496089
 31
0.0
  0
LINE
  5
3E7
330
1F
100
AcDbEntity
  8
0
 62
     0
100
AcDbLine
 10
827.9142378668549
 20
447.0747313933724
 30
0.0
 11
842.0813951543751
 21
447.0747313933724
 31
0.0
  0
ARC
  5
3E8
330
1F
100
AcDbEntity
  8
0
 62
     0
100
AcDbCircle
 10
827.9142378668549
 20
446.8747313933721
 30
0.0
 40
1.199999999999999
100
AcDbArc
 50
90.0
 51
135.0000000000115
  0
LINE
  5
3E9
330
1F
100
AcDbEntity
  8
0
 62
     0
100
AcDbLine
 10
827.9142378668549
 20
448.0747313933721
 30
0.0
 11
842.0813951543751
 21
448.0747313933724
 31
0.0
  0
ARC
  5
3EA
330
1F
100
AcDbEntity
  8
0
 62
     0
100
AcDbCircle
 10
825.0313951543867
 20
443.9918886809016
 30
0.0
 40
1.199999999999999
100
AcDbArc
 50
135.0000000000115
 51
179.999999999987
  0
LINE
  5
3EB
330
1F
100
AcDbEntity
  8
0
 62
     0
100
AcDbLine
 10
823.831395154386
 20
443.9918886809017
 30
0.0
 11
823.831395154386
 21
434.2675517164045
 31
0.0
  0
LINE
  5
3EC
330
1F
100
AcDbEntity
  8
0
 62
     0
100
AcDbLine
 10
824.8313951543822
 20
434.2675517164023
 30
0.0
 11
824.8313951543822
 21
443.9918886808929
 31
0.0
  0
ARC
  5
3ED
330
1F
100
AcDbEntity
  8
0
 62
     0
100
AcDbCircle
 10
825.031395154383
 20
443.9918886808929
 30
0.0
 40
0.2
100
AcDbArc
 50
135.0000000000115
 51
180.0000000000032
  0
DIMENSION
  5
3EE
330
1F
100
AcDbEntity
  8
0
 62
     3
100
AcDbDimension
  2
*D19
 10
829.4952023326041
 20
443.1272175243658
 30
0.0
 11
830.6744122705097
 21
442.2149834611281
 31
0.0
 70
   164
  1
{\fArial|b0|i0|c0|p32;C}3
 71
     5
 42
3.999999999995566
  3
基本（１：１）
100
AcDbRadialDimension
 15
826.3313951543787
 25
445.5747313933712
 35
0.0
 40
0.0
1001
ACAD
1000
DSTYLE
1002
{
1070
    40
1040
1.0
1070
   288
1070
     1
1002
}
  0
LINE
  5
3EF
330
1F
100
AcDbEntity
  8
0
 62
     0
100
AcDbLine
 10
821.0313951543739
 20
448.5747313933723
 30
0.0
 11
831.7519666996085
 21
448.5747313933718
 31
0.0
  0
LINE
  5
3F0
330
1F
100
AcDbEntity
  8
0
 62
     0
100
AcDbLine
 10
832.9731346450243
 20
449.4776305444581
 30
0.0
 11
832.7809582104636
 21
449.1573364868583
 31
0.0
  0
ARC
  5
3F1
330
1F
100
AcDbEntity
  8
0
 62
     0
100
AcDbCircle
 10
833.1446332301675
 20
449.3747313933725
 30
0.0
 40
0.2
100
AcDbArc
 50
90.0
 51
149.0362434678639
  0
ARC
  5
3F2
330
1F
100
AcDbEntity
  8
0
 62
     0
100
AcDbCircle
 10
831.7519666996085
 20
449.7747313933721
 30
0.0
 40
1.199999999999999
100
AcDbArc
 50
270.0
 51
329.0362434678695
  0
LINE
  5
3F3
330
1F
100
AcDbEntity
  8
0
 62
     0
100
AcDbLine
 10
821.0313951543721
 20
466.5393815512477
 30
0.0
 11
831.4313951543699
 21
466.5393815512477
 31
0.0
  0
LINE
  5
3F4
330
1F
100
AcDbEntity
  8
0
 62
     0
100
AcDbLine
 10
821.0313951543721
 20
467.3776041677192
 30
0.0
 11
831.4313951543699
 21
467.3776041677192
 31
0.0
  0
ARC
  5
3F5
330
1F
100
AcDbEntity
  8
0
 62
     0
100
AcDbCircle
 10
831.4313951543699
 20
466.9584928594831
 30
0.0
 40
0.4191113082360971
100
AcDbArc
 50
270.0
 51
90.0
  0
ARC
  5
3F6
330
1F
100
AcDbEntity
  8
0
 62
     0
100
AcDbCircle
 10
831.4313951543699
 20
466.9584928594831
 30
0.0
 40
1.713238075795629
100
AcDbArc
 50
270.0
 51
90.0
  0
LINE
  5
3F7
330
1F
100
AcDbEntity
  8
0
 62
     0
100
AcDbLine
 10
824.0313951543722
 20
468.6717309352787
 30
0.0
 11
831.4313951543699
 21
468.6717309352792
 31
0.0
  0
LINE
  5
3F8
330
1F
100
AcDbEntity
  8
0
 62
     0
100
AcDbLine
 10
824.0313951543722
 20
465.2452547836873
 30
0.0
 11
831.4313951543699
 21
465.2452547836877
 31
0.0
  0
LINE
  5
3F9
330
1F
100
AcDbEntity
  8
0
 62
     0
100
AcDbLine
 10
913.6128674995816
 20
467.3776041677192
 30
0.0
 11
916.6128674995816
 21
467.3776041677192
 31
0.0
  0
LINE
  5
3FA
330
1F
100
AcDbEntity
  8
0
 62
     0
100
AcDbLine
 10
913.6128674995816
 20
466.5393815512477
 30
0.0
 11
916.6128674995816
 21
466.5393815512477
 31
0.0
  0
DIMENSION
  5
3FB
330
1F
100
AcDbEntity
  8
0
 62
     4
100
AcDbDimension
  2
*D20
 10
907.6608130868791
 20
431.6747313933736
 30
0.0
 11
907.6608130868789
 21
441.1247313933738
 31
0.0
 70
   160
  1
19
 71
     5
 42
18.89999999999776
  3
基本（１：１）
100
AcDbAlignedDimension
 13
913.6128674995816
 23
450.5747313933714
 33
0.0
 14
914.1219709652105
 24
431.6747313933736
 34
0.0
 50
90.0
100
AcDbRotatedDimension
1001
ACAD
1000
DSTYLE
1002
{
1070
    40
1040
1.0
1002
}
  0
LINE
  5
3FC
330
1F
100
AcDbEntity
  8
0
 62
     0
100
AcDbLine
 10
917.4128674995953
 20
434.5747313933741
 30
0.0
 11
916.4128674995936
 21
434.5747313933741
 31
0.0
  0
ARC
  5
3FD
330
1F
100
AcDbEntity
  8
0
 62
     0
100
AcDbCircle
 10
916.2128674995948
 20
434.267551716402
 30
0.0
 40
1.199999999999999
100
AcDbArc
 50
299.9999999999916
 51
0.0000000000097707
  0
ARC
  5
3FE
330
1F
100
AcDbEntity
  8
0
 62
     0
100
AcDbCircle
 10
916.2128674995948
 20
434.2675517164045
 30
0.0
 40
0.2
100
AcDbArc
 50
300.0000000000078
 51
359.9999999999935
  0
LINE
  5
3FF
330
1F
100
AcDbEntity
  8
0
 62
     0
100
AcDbLine
 10
914.1219709652141
 20
431.6747313933745
 30
0.0
 11
913.6219709652142
 21
432.5407567971601
 31
0.0
  0
LINE
  5
400
330
1F
100
AcDbEntity
  8
0
 62
     0
100
AcDbLine
 10
914.1219709652105
 20
431.6747313933744
 30
0.0
 11
916.8128674995951
 21
433.2283212318604
 31
0.0
  0
LINE
  5
401
330
1F
100
AcDbEntity
  8
0
 62
     0
100
AcDbLine
 10
913.6219709652142
 20
432.5407567971593
 30
0.0
 11
916.3128674995951
 21
434.0943466356476
 31
0.0
  0
ARC
  5
402
330
1F
100
AcDbEntity
  8
0
 62
     0
100
AcDbCircle
 10
914.2128674995801
 20
468.9584928594825
 30
0.0
 40
0.6
100
AcDbArc
 50
90.0
 51
180.0
  0
ARC
  5
403
330
1F
100
AcDbEntity
  8
0
 62
     0
100
AcDbCircle
 10
914.2128674995801
 20
464.9584928594836
 30
0.0
 40
0.6
100
AcDbArc
 50
180.0
 51
270.0
  0
LINE
  5
404
330
1F
100
AcDbEntity
  8
0
 62
     0
100
AcDbLine
 10
913.6128674995816
 20
449.574731393373
 30
0.0
 11
916.6128674995889
 21
449.5747313933727
 31
0.0
  0
LINE
  5
405
330
1F
100
AcDbEntity
  8
0
 62
     0
100
AcDbLine
 10
915.4128674995808
 20
450.5747313933723
 30
0.0
 11
915.4128674995918
 21
449.5747313933728
 31
0.0
  0
LINE
  5
406
330
1F
100
AcDbEntity
  8
0
 62
     0
100
AcDbLine
 10
913.6128674995816
 20
448.5747313933722
 30
0.0
 11
916.6128674995816
 21
448.574731393372
 31
0.0
  0
LINE
  5
407
330
1F
100
AcDbEntity
  8
0
 62
     0
100
AcDbLine
 10
913.6128674995816
 20
450.5747313933721
 30
0.0
 11
915.4128674995828
 21
450.5747313933722
 31
0.0
  0
LINE
  5
408
330
1F
100
AcDbEntity
  8
0
 62
     0
100
AcDbLine
 10
915.4128674995808
 20
450.4189712814766
 30
0.0
 11
916.6128674995816
 21
450.4189712814768
 31
0.0
  0
LINE
  5
409
330
1F
100
AcDbEntity
  8
0
 62
     0
100
AcDbLine
 10
915.4128674995845
 20
464.6584928594831
 30
0.0
 11
915.4128674995808
 21
465.6364933616673
 31
0.0
  0
LINE
  5
40A
330
1F
100
AcDbEntity
  8
0
 62
     0
100
AcDbLine
 10
915.6128674995816
 20
465.3584928594836
 30
0.0
 11
916.4128674995808
 21
465.3584928594836
 31
0.0
  0
ARC
  5
40B
330
1F
100
AcDbEntity
  8
0
 62
     0
100
AcDbCircle
 10
915.1128674995815
 20
464.6584928594836
 30
0.0
 40
0.3
100
AcDbArc
 50
270.0
 51
0.000000000117248
  0
ARC
  5
40C
330
1F
100
AcDbEntity
  8
0
 62
     0
100
AcDbCircle
 10
915.1128674995835
 20
469.2584928594825
 30
0.0
 40
0.3
100
AcDbArc
 50
0.000000000117248
 51
90.0
  0
LINE
  5
40D
330
1F
100
AcDbEntity
  8
0
 62
     0
100
AcDbLine
 10
914.2128674995801
 20
464.3584928594836
 30
0.0
 11
915.1128674995815
 21
464.3584928594837
 31
0.0
  0
LINE
  5
40E
330
1F
100
AcDbEntity
  8
0
 62
     0
100
AcDbLine
 10
914.2128674995801
 20
469.5584928594826
 30
0.0
 11
915.1128674995835
 21
469.5584928594826
 31
0.0
  0
LINE
  5
40F
330
1F
100
AcDbEntity
  8
0
 62
     0
100
AcDbLine
 10
915.6128674995816
 20
468.5584928594828
 30
0.0
 11
916.412867499579
 21
468.5584928594827
 31
0.0
  0
LINE
  5
410
330
1F
100
AcDbEntity
  8
0
 62
     0
100
AcDbLine
 10
915.4128674995845
 20
469.2584928594831
 30
0.0
 11
915.4128674995773
 21
468.2804923572998
 31
0.0
  0
LINE
  5
411
102
{ACAD_REACTORS
330
442
102
}
330
1F
100
AcDbEntity
  8
0
 62
     0
100
AcDbLine
 10
913.6128674995816
 20
468.9584928594825
 30
0.0
 11
913.6128674995816
 21
464.9584928594836
 31
0.0
  0
LINE
  5
412
102
{ACAD_REACTORS
330
442
102
}
330
1F
100
AcDbEntity
  8
0
 62
     0
100
AcDbLine
 10
913.6128674995816
 20
468.6717309352789
 30
0.0
 11
915.4128674995808
 21
468.6717309352787
 31
0.0
  0
LINE
  5
413
330
1F
100
AcDbEntity
  8
0
 62
     0
100
AcDbLine
 10
913.6128674995816
 20
465.2452547836873
 30
0.0
 11
915.4128674995808
 21
465.2452547836873
 31
0.0
  0
LINE
  5
414
330
1F
100
AcDbEntity
  8
0
 62
     0
100
AcDbLine
 10
915.7142168779538
 20
468.0804923572988
 30
0.0
 11
916.3142168779522
 21
468.0804923572988
 31
0.0
  0
LINE
  5
415
330
1F
100
AcDbEntity
  8
0
 62
     0
100
AcDbLine
 10
915.6128674995816
 20
465.8364933616676
 30
0.0
 11
916.412867499579
 21
465.8364933616676
 31
0.0
  0
LINE
  5
416
330
1F
100
AcDbEntity
  8
0
 62
     0
100
AcDbLine
 10
915.612867499578
 20
468.0804923572988
 30
0.0
 11
916.4128674995772
 21
468.0804923572987
 31
0.0
  0
ARC
  5
417
330
1F
100
AcDbEntity
  8
0
 62
     0
100
AcDbCircle
 10
915.6128674995816
 20
468.7584928594827
 30
0.0
 40
0.2
100
AcDbArc
 50
179.9999999997003
 51
270.0
  0
ARC
  5
418
330
1F
100
AcDbEntity
  8
0
 62
     0
100
AcDbCircle
 10
916.412867499579
 20
468.7584928594827
 30
0.0
 40
0.2
100
AcDbArc
 50
270.0
 51
359.9999999999283
  0
ARC
  5
419
330
1F
100
AcDbEntity
  8
0
 62
     0
100
AcDbCircle
 10
916.4128674995772
 20
468.2804923572986
 30
0.0
 40
0.2
100
AcDbArc
 50
270.0
 51
359.9999999998893
  0
ARC
  5
41A
330
1F
100
AcDbEntity
  8
0
 62
     0
100
AcDbCircle
 10
915.612867499578
 20
468.2804923572988
 30
0.0
 40
0.2
100
AcDbArc
 50
179.9999999996873
 51
270.0
  0
ARC
  5
41B
330
1F
100
AcDbEntity
  8
0
 62
     0
100
AcDbCircle
 10
915.6128674995816
 20
465.1584928594836
 30
0.0
 40
0.2
100
AcDbArc
 50
90.0
 51
180.0000000001172
  0
ARC
  5
41C
330
1F
100
AcDbEntity
  8
0
 62
     0
100
AcDbCircle
 10
916.4128674995808
 20
465.1584928594838
 30
0.0
 40
0.2
100
AcDbArc
 50
0.0000000000716515
 51
90.0
  0
ARC
  5
41D
330
1F
100
AcDbEntity
  8
0
 62
     0
100
AcDbCircle
 10
916.412867499579
 20
465.6364933616677
 30
0.0
 40
0.2
100
AcDbArc
 50
0.0000000000846791
 51
90.0
  0
ARC
  5
41E
330
1F
100
AcDbEntity
  8
0
 62
     0
100
AcDbCircle
 10
915.6128674995816
 20
465.6364933616676
 30
0.0
 40
0.2
100
AcDbArc
 50
90.0
 51
180.0000000001042
  0
LINE
  5
41F
330
1F
100
AcDbEntity
  8
0
 62
     0
100
AcDbLine
 10
913.6128674995816
 20
450.5747313933721
 30
0.0
 11
913.6128674995816
 21
448.5747313933722
 31
0.0
  0
DIMENSION
  5
420
102
{ACAD_XDICTIONARY
360
421
102
}
102
{ACAD_REACTORS
330
422
102
}
330
1F
100
AcDbEntity
  8
0
 62
     4
100
AcDbDimension
  2
*D26
 10
946.3634237305486
 20
460.9584928594833
 30
0.0
 11
944.6134237305486
 21
466.9584928594835
 31
0.0
 70
    32
 71
     5
 42
12.0
  3
基本（１：１）
100
AcDbAlignedDimension
 13
939.3128674995805
 23
472.9584928594833
 33
0.0
 14
939.3128674995805
 24
460.9584928594833
 34
0.0
 50
90.0
100
AcDbRotatedDimension
1001
ACAD
1000
DSTYLE
1002
{
1070
    40
1040
1.0
1002
}
  0
DIMENSION
  5
423
102
{ACAD_XDICTIONARY
360
424
102
}
102
{ACAD_REACTORS
330
425
102
}
330
1F
100
AcDbEntity
  8
0
 62
     4
100
AcDbDimension
  2
*D27
 10
939.6128674995816
 20
479.3438853909223
 30
0.0
 11
928.1128674995807
 21
481.0938853909223
 31
0.0
 70
    32
 71
     5
 42
23.00000000000182
  3
基本（１：１）
100
AcDbAlignedDimension
 13
916.6128674995798
 23
472.6584928594831
 33
0.0
 14
939.6128674995816
 24
472.6584928594832
 34
0.0
100
AcDbRotatedDimension
1001
ACAD
1000
DSTYLE
1002
{
1070
    40
1040
1.0
1002
}
  0
INSERT
  5
426
330
1F
100
AcDbEntity
  8
寸法線・引き出し線
 62
     2
370
    25
100
AcDbBlockReference
  2
A$C33767BF9
 10
919.4221711489772
 20
464.8627683419348
 30
0.0
  0
ARC
  5
427
330
1F
100
AcDbEntity
  8
寸法線・引き出し線
 62
     2
370
    25
100
AcDbCircle
 10
934.7128674995856
 20
464.8054110201614
 30
0.0
 40
0.4
100
AcDbArc
 50
278.1301023541154
 51
0.0
  0
ARC
  5
428
330
1F
100
AcDbEntity
  8
寸法線・引き出し線
 62
     2
370
    25
100
AcDbCircle
 10
934.7128674995856
 20
469.1115746988051
 30
0.0
 40
0.4
100
AcDbArc
 50
359.9999999999902
 51
81.86989764577955
  0
ARC
  5
429
330
1F
100
AcDbEntity
  8
寸法線・引き出し線
 62
     2
370
    25
100
AcDbCircle
 10
934.7128674995838
 20
464.8054110201615
 30
0.0
 40
0.2
100
AcDbArc
 50
278.1301023541154
 51
0.0
  0
ARC
  5
42A
330
1F
100
AcDbEntity
  8
寸法線・引き出し線
 62
     2
370
    25
100
AcDbCircle
 10
934.7128674995856
 20
469.1115746988051
 30
0.0
 40
0.2
100
AcDbArc
 50
359.9999999999902
 51
81.86989764577955
  0
LINE
  5
42B
330
1F
100
AcDbEntity
  8
寸法線・引き出し線
 62
     2
370
    25
100
AcDbLine
 10
917.4167675281841
 20
462.132509086766
 30
0.0
 11
934.7411517708314
 21
464.6074211214292
 31
0.0
  0
LINE
  5
42C
330
1F
100
AcDbEntity
  8
寸法線・引き出し線
 62
     2
370
    25
100
AcDbLine
 10
934.9128674995846
 20
469.1115746988051
 30
0.0
 11
934.9128674995826
 21
464.8054110201615
 31
0.0
  0
LINE
  5
42D
330
1F
100
AcDbEntity
  8
寸法線・引き出し線
 62
     2
370
    25
100
AcDbLine
 10
917.4167675281861
 20
471.7844766322006
 30
0.0
 11
934.7411517708334
 21
469.3095645975374
 31
0.0
  0
LINE
  5
42E
330
1F
100
AcDbEntity
  8
寸法線・引き出し線
 62
     2
370
    25
100
AcDbLine
 10
917.6128674995815
 20
461.9584928594837
 30
0.0
 11
934.769436042081
 21
464.4094312226967
 31
0.0
  0
LINE
  5
42F
330
1F
100
AcDbEntity
  8
寸法線・引き出し線
 62
     2
370
    25
100
AcDbLine
 10
917.6128674995798
 20
471.9584928594834
 30
0.0
 11
934.769436042081
 21
469.5075544962698
 31
0.0
  0
LINE
  5
430
330
1F
100
AcDbEntity
  8
寸法線・引き出し線
 62
     2
370
    25
100
AcDbLine
 10
935.1128674995834
 20
469.1115746988053
 30
0.0
 11
935.1128674995852
 21
464.8054110201615
 31
0.0
  0
LINE
  5
431
330
1F
100
AcDbEntity
  8
寸法線・引き出し線
 62
     2
370
    25
100
AcDbLine
 10
917.4128674995827
 20
471.7810158042377
 30
0.0
 11
917.412867499579
 21
462.1359699147259
 31
0.0
  0
LINE
  5
432
330
1F
100
AcDbEntity
  8
寸法線・引き出し線
 62
     2
370
    25
100
AcDbLine
 10
917.6128674995798
 20
461.2584928594834
 30
0.0
 11
917.6128674995815
 21
461.9584928594837
 31
0.0
  0
LINE
  5
433
102
{ACAD_REACTORS
330
425
102
}
330
1F
100
AcDbEntity
  8
寸法線・引き出し線
 62
     2
370
    25
100
AcDbLine
 10
916.6128674995833
 20
461.2584928594831
 30
0.0
 11
916.6128674995798
 21
472.6584928594832
 31
0.0
  0
LINE
  5
434
102
{ACAD_REACTORS
330
425
102
}
330
1F
100
AcDbEntity
  8
寸法線・引き出し線
 62
     2
370
    25
100
AcDbLine
 10
939.6128674995816
 20
472.6584928594832
 30
0.0
 11
939.6128674995816
 21
461.2584928594833
 31
0.0
  0
LINE
  5
435
330
1F
100
AcDbEntity
  8
寸法線・引き出し線
 62
     2
370
    25
100
AcDbLine
 10
916.9128674995809
 20
472.9584928594833
 30
0.0
 11
939.3128674995805
 21
472.9584928594833
 31
0.0
  0
LINE
  5
436
102
{ACAD_REACTORS
330
422
102
}
330
1F
100
AcDbEntity
  8
寸法線・引き出し線
 62
     2
370
    25
100
AcDbLine
 10
916.9128674995826
 20
460.9584928594832
 30
0.0
 11
939.3128674995805
 21
460.9584928594832
 31
0.0
  0
LINE
  5
437
330
1F
100
AcDbEntity
  8
寸法線・引き出し線
 62
     2
370
    25
100
AcDbLine
 10
917.6128674995798
 20
471.9584928594835
 30
0.0
 11
917.6128674995815
 21
472.6584928594831
 31
0.0
  0
LINE
  5
438
330
1F
100
AcDbEntity
  8
寸法線・引き出し線
 62
     2
370
    25
100
AcDbLine
 10
917.412867499579
 20
462.135969914727
 30
0.0
 11
917.6128674995815
 21
461.9584928594832
 31
0.0
  0
LINE
  5
439
330
1F
100
AcDbEntity
  8
寸法線・引き出し線
 62
     2
370
    25
100
AcDbLine
 10
917.4128674995827
 20
471.7810158042391
 30
0.0
 11
917.6128674995798
 21
471.9584928594834
 31
0.0
  0
ARC
  5
43A
102
{ACAD_REACTORS
330
422
102
}
330
1F
100
AcDbEntity
  8
寸法線・引き出し線
 62
     2
370
    25
100
AcDbCircle
 10
939.3128674995805
 20
472.6584928594832
 30
0.0
 40
0.3
100
AcDbArc
 50
0.0
 51
90.0
  0
ARC
  5
43B
330
1F
100
AcDbEntity
  8
寸法線・引き出し線
 62
     2
370
    25
100
AcDbCircle
 10
939.3128674995805
 20
461.2584928594833
 30
0.0
 40
0.3
100
AcDbArc
 50
270.0
 51
0.0
  0
ARC
  5
43C
330
1F
100
AcDbEntity
  8
寸法線・引き出し線
 62
     2
370
    25
100
AcDbCircle
 10
917.9128674995791
 20
461.2584928594832
 30
0.0
 40
0.3
100
AcDbArc
 50
179.9999999999641
 51
270.0
  0
ARC
  5
43D
330
1F
100
AcDbEntity
  8
寸法線・引き出し線
 62
     2
370
    25
100
AcDbCircle
 10
917.9128674995826
 20
472.6584928594832
 30
0.0
 40
0.3
100
AcDbArc
 50
90.0
 51
180.0000000000358
  0
ARC
  5
43E
102
{ACAD_REACTORS
330
425
102
}
330
1F
100
AcDbEntity
  8
寸法線・引き出し線
 62
     2
370
    25
100
AcDbCircle
 10
916.9128674995809
 20
472.6584928594832
 30
0.0
 40
0.3
100
AcDbArc
 50
90.0
 51
180.0000000000098
  0
ARC
  5
43F
330
1F
100
AcDbEntity
  8
寸法線・引き出し線
 62
     2
370
    25
100
AcDbCircle
 10
916.9128674995826
 20
461.2584928594832
 30
0.0
 40
0.3
100
AcDbArc
 50
180.0000000000098
 51
270.0
  0
DIMENSION
  5
440
102
{ACAD_XDICTIONARY
360
441
102
}
102
{ACAD_REACTORS
330
442
102
}
330
1F
100
AcDbEntity
  8
0
 62
     4
100
AcDbDimension
  2
*D28
 10
913.6128674995816
 20
479.3438853909224
 30
0.0
 11
915.1128674995806
 21
481.0938853909224
 31
0.0
 70
    32
 71
     5
 42
2.999999999998181
  3
基本（１：１）
100
AcDbAlignedDimension
 13
916.6128674995798
 23
473.6584928594831
 33
0.0
 14
913.6128674995816
 24
468.6717309352789
 34
0.0
100
AcDbRotatedDimension
1001
ACAD
1000
DSTYLE
1002
{
1070
    40
1040
1.0
1002
}
  0
DIMENSION
  5
443
102
{ACAD_XDICTIONARY
360
444
102
}
102
{ACAD_REACTORS
330
445
102
}
330
1F
100
AcDbEntity
  8
0
 62
     4
100
AcDbDimension
  2
*D29
 10
946.4634237305491
 20
447.074731393372
 30
0.0
 11
944.7134237305489
 21
449.8247313933721
 31
0.0
 70
    32
 71
     5
 42
5.500000000000113
  3
基本（１：１）
100
AcDbAlignedDimension
 13
938.1128674995833
 23
452.574731393372
 33
0.0
 14
935.3798743908974
 24
447.074731393372
 34
0.0
 50
90.0
100
AcDbRotatedDimension
1001
ACAD
1000
DSTYLE
1002
{
1070
    40
1040
1.0
1002
}
  0
ARC
  5
446
330
1F
100
AcDbEntity
  8
寸法線・引き出し線
 62
     2
370
    25
100
AcDbCircle
 10
935.3798743908974
 20
447.574731393372
 30
0.0
 40
0.5
100
AcDbArc
 50
270.0
 51
319.9697407282078
  0
LINE
  5
447
102
{ACAD_REACTORS
330
445
102
}
330
1F
100
AcDbEntity
  8
寸法線・引き出し線
 62
     2
370
    25
100
AcDbLine
 10
935.3798743908974
 20
447.074731393372
 30
0.0
 11
917.6128674995798
 21
447.0747313933717
 31
0.0
  0
LINE
  5
448
102
{ACAD_REACTORS
330
445
102
}
330
1F
100
AcDbEntity
  8
寸法線・引き出し線
 62
     2
370
    25
100
AcDbLine
 10
917.6128674995798
 20
452.5747313933717
 30
0.0
 11
938.1128674995833
 21
452.574731393372
 31
0.0
  0
LINE
  5
449
330
1F
100
AcDbEntity
  8
寸法線・引き出し線
 62
     2
370
    25
100
AcDbLine
 10
935.7627268232917
 20
447.2531353501606
 30
0.0
 11
937.712867499582
 21
449.5747313933719
 31
0.0
  0
ARC
  5
44A
330
1F
100
AcDbEntity
  8
寸法線・引き出し線
 62
     2
370
    25
100
AcDbCircle
 10
938.1128674995833
 20
451.0747313933719
 30
0.0
 40
1.5
100
AcDbArc
 50
270.0
 51
90.0
  0
LINE
  5
44B
102
{ACAD_REACTORS
330
451
102
}
330
1F
100
AcDbEntity
  8
寸法線・引き出し線
 62
     2
370
    25
100
AcDbLine
 10
916.6128674995816
 20
451.5747313933724
 30
0.0
 11
917.6128674995798
 21
452.574731393372
 31
0.0
  0
LINE
  5
44C
330
1F
100
AcDbEntity
  8
寸法線・引き出し線
 62
     2
370
    25
100
AcDbLine
 10
916.6128674995833
 20
451.5747313933736
 30
0.0
 11
916.6128674995798
 21
448.0747313933727
 31
0.0
  0
ARC
  5
44D
330
1F
100
AcDbEntity
  8
寸法線・引き出し線
 62
     2
370
    25
100
AcDbCircle
 10
917.6128674995798
 20
448.0747313933717
 30
0.0
 40
1.0
100
AcDbArc
 50
179.9999999999348
 51
270.0
  0
LINE
  5
44E
330
1F
100
AcDbEntity
  8
0
 62
     2
100
AcDbLine
 10
938.1128674995833
 20
449.5747313933719
 30
0.0
 11
916.6128674995889
 21
449.5747313933727
 31
0.0
  0
DIMENSION
  5
44F
102
{ACAD_XDICTIONARY
360
450
102
}
102
{ACAD_REACTORS
330
451
102
}
330
1F
100
AcDbEntity
  8
0
 62
     4
100
AcDbDimension
  2
*D30
 10
907.6608130868789
 20
452.574731393372
 30
0.0
 11
905.9108130868789
 21
456.799163211554
 31
0.0
 70
    32
 71
     5
 42
2.000000000000682
  3
基本（１：１）
100
AcDbAlignedDimension
 13
913.6128674995816
 23
450.5747313933714
 33
0.0
 14
917.6128674995798
 24
452.574731393372
 34
0.0
 50
90.0
100
AcDbRotatedDimension
1001
ACAD
1000
DSTYLE
1002
{
1070
    40
1040
1.0
1002
}
  0
LINE
  5
452
330
1F
100
AcDbEntity
  8
0
 62
     0
100
AcDbLine
 10
916.7643393621693
 20
444.8404168183258
 30
0.0
 11
918.9986539372112
 21
447.0747313933717
 31
0.0
  0
LINE
  5
453
330
1F
100
AcDbEntity
  8
0
 62
     0
100
AcDbLine
 10
917.4714461433522
 20
444.1333100371302
 30
0.0
 11
920.3542888558258
 21
447.0161527496089
 31
0.0
  0
ARC
  5
454
330
1F
100
AcDbEntity
  8
0
 62
     0
100
AcDbCircle
 10
917.6128674995961
 20
443.9918886809016
 30
0.0
 40
1.199999999999999
100
AcDbArc
 50
135.0000000000115
 51
179.999999999987
  0
LINE
  5
455
330
1F
100
AcDbEntity
  8
0
 62
     0
100
AcDbLine
 10
916.4128674995954
 20
443.9918886809016
 30
0.0
 11
916.4128674995936
 21
434.2675517164044
 31
0.0
  0
LINE
  5
456
330
1F
100
AcDbEntity
  8
0
 62
     0
100
AcDbLine
 10
917.41286749959
 20
434.2675517164023
 30
0.0
 11
917.41286749959
 21
443.9918886808929
 31
0.0
  0
ARC
  5
457
330
1F
100
AcDbEntity
  8
0
 62
     0
100
AcDbCircle
 10
917.6128674995888
 20
443.9918886808929
 30
0.0
 40
0.2
100
AcDbArc
 50
135.0000000000115
 51
180.0000000000032
  0
ARC
  5
458
330
1F
100
AcDbEntity
  8
0
 62
     6
100
AcDbCircle
 10
920.4957102120642
 20
446.8747313933724
 30
0.0
 40
0.2
100
AcDbArc
 50
90.0
 51
135.0000000000115
  0
DIMENSION
  5
459
330
1F
100
AcDbEntity
  8
0
 62
     3
100
AcDbDimension
  2
*D21
 10
922.0766746778135
 20
443.1272175243667
 30
0.0
 11
923.2558846157189
 21
442.2149834611302
 31
0.0
 70
   164
  1
{\fArial|b0|i0|c0|p32;C}3
 71
     5
 42
3.999999999998237
  3
基本（１：１）
100
AcDbRadialDimension
 15
918.9128674995844
 25
445.5747313933716
 35
0.0
 40
0.0
1001
ACAD
1000
DSTYLE
1002
{
1070
    40
1040
1.0
1070
   288
1070
     1
1002
}
  0
LINE
  5
45A
330
1F
100
AcDbEntity
  8
0
 62
     0
100
AcDbLine
 10
961.998771574048
 20
462.9584928594832
 30
0.0
 11
961.998771574048
 21
470.9584928594832
 31
0.0
  0
LINE
  5
45B
330
1F
100
AcDbEntity
  8
0
 62
     0
100
AcDbLine
 10
958.9924655480409
 20
462.9584928594832
 30
0.0
 11
958.9924655480409
 21
470.9584928594832
 31
0.0
  0
LINE
  5
45C
330
1F
100
AcDbEntity
  8
0
 62
     0
100
AcDbLine
 10
971.4924655480389
 20
464.8584928594829
 30
0.0
 11
971.4924655480389
 21
463.9584928594833
 31
0.0
  0
LINE
  5
45D
330
1F
100
AcDbEntity
  8
0
 62
     0
100
AcDbLine
 10
972.0924655480393
 20
465.4584928594832
 30
0.0
 11
973.686618389922
 21
465.4584928594832
 31
0.0
  0
LINE
  5
45E
330
1F
100
AcDbEntity
  8
0
 62
     0
100
AcDbLine
 10
972.0924655480393
 20
468.4584928594869
 30
0.0
 11
973.686618389922
 21
468.4584928594869
 31
0.0
  0
LINE
  5
45F
330
1F
100
AcDbEntity
  8
0
 62
     0
100
AcDbLine
 10
971.4924655480389
 20
469.9584928594832
 30
0.0
 11
971.4924655480389
 21
469.0584928594854
 31
0.0
  0
LINE
  5
460
330
1F
100
AcDbEntity
  8
0
 62
     0
100
AcDbLine
 10
957.4924655480463
 20
462.9584928594828
 30
0.0
 11
970.492465548039
 21
462.9584928594796
 31
0.0
  0
LINE
  5
461
330
1F
100
AcDbEntity
  8
0
 62
     0
100
AcDbLine
 10
957.4924655480426
 20
470.9584928594832
 30
0.0
 11
970.492465548039
 21
470.9584928594832
 31
0.0
  0
ARC
  5
462
330
1F
100
AcDbEntity
  8
0
 62
     0
100
AcDbCircle
 10
973.686618389922
 20
465.8584928594806
 30
0.0
 40
0.4
100
AcDbArc
 50
270.0
 51
324.4623222079987
  0
ARC
  5
463
330
1F
100
AcDbEntity
  8
0
 62
     0
100
AcDbCircle
 10
973.686618389922
 20
468.058492859485
 30
0.0
 40
0.4
100
AcDbArc
 50
35.53767779200127
 51
90.0
  0
ARC
  5
464
330
1F
100
AcDbEntity
  8
0
 62
     0
100
AcDbCircle
 10
973.1924655480398
 20
466.5430509235753
 30
0.0
 40
1.199999999999999
100
AcDbArc
 50
324.4623222079987
 51
0.0
  0
ARC
  5
465
330
1F
100
AcDbEntity
  8
0
 62
     0
100
AcDbCircle
 10
973.1924655480398
 20
467.3739347953921
 30
0.0
 40
1.199999999999999
100
AcDbArc
 50
0.0
 51
35.53767779200127
  0
LINE
  5
466
330
1F
100
AcDbEntity
  8
0
 62
     0
100
AcDbLine
 10
974.1689457134871
 20
468.0714206278554
 30
0.0
 11
974.0121117784038
 21
468.2909881369725
 31
0.0
  0
LINE
  5
467
330
1F
100
AcDbEntity
  8
0
 62
     0
100
AcDbLine
 10
974.0121117784038
 20
465.625997581994
 30
0.0
 11
974.1689457134871
 21
465.845565091111
 31
0.0
  0
LINE
  5
468
330
1F
100
AcDbEntity
  8
0
 62
     0
100
AcDbLine
 10
974.3924655480405
 20
467.3739347953925
 30
0.0
 11
974.3924655480405
 21
466.5430509235758
 31
0.0
  0
LINE
  5
469
330
1F
100
AcDbEntity
  8
0
 62
     0
100
AcDbLine
 10
972.4924655480391
 20
465.4584928594832
 30
0.0
 11
972.4924655480391
 21
468.4584928594869
 31
0.0
  0
ARC
  5
46A
330
1F
100
AcDbEntity
  8
0
 62
     0
100
AcDbCircle
 10
972.0924655480413
 20
464.8584928594824
 30
0.0
 40
0.6
100
AcDbArc
 50
90.0
 51
180.0
  0
ARC
  5
46B
330
1F
100
AcDbEntity
  8
0
 62
     0
100
AcDbCircle
 10
972.0924655480413
 20
469.058492859485
 30
0.0
 40
0.6
100
AcDbArc
 50
180.0
 51
270.0
  0
ARC
  5
46C
330
1F
100
AcDbEntity
  8
0
 62
     0
100
AcDbCircle
 10
970.492465548039
 20
469.9584928594828
 30
0.0
 40
1.0
100
AcDbArc
 50
0.0
 51
90.0
  0
ARC
  5
46D
330
1F
100
AcDbEntity
  8
0
 62
     0
100
AcDbCircle
 10
970.492465548039
 20
463.9584928594827
 30
0.0
 40
1.0
100
AcDbArc
 50
270.0
 51
0.0
  0
LINE
  5
46E
330
1F
100
AcDbEntity
  8
寸法線・引き出し線
 62
     2
370
    25
100
AcDbLine
 10
957.4924655480426
 20
471.0584928594805
 30
0.0
 11
958.6924655480434
 21
471.0584928594805
 31
0.0
  0
LINE
  5
46F
330
1F
100
AcDbEntity
  8
寸法線・引き出し線
 62
     2
370
    25
100
AcDbLine
 10
957.4924655480444
 20
462.8584928594864
 30
0.0
 11
958.6924655480451
 21
462.8584928594854
 31
0.0
  0
LINE
  5
470
330
1F
100
AcDbEntity
  8
寸法線・引き出し線
 62
     2
370
    25
100
AcDbLine
 10
956.4924655480426
 20
461.2584928594828
 30
0.0
 11
956.4924655480444
 21
472.6584928594838
 31
0.0
  0
LINE
  5
471
330
1F
100
AcDbEntity
  8
寸法線・引き出し線
 62
     2
370
    25
100
AcDbLine
 10
953.7924655480438
 20
460.9584928594828
 30
0.0
 11
956.1924655480433
 21
460.9584928594828
 31
0.0
  0
LINE
  5
472
330
1F
100
AcDbEntity
  8
寸法線・引き出し線
 62
     2
370
    25
100
AcDbLine
 10
953.7924655480438
 20
472.9584928594838
 30
0.0
 11
956.1924655480433
 21
472.9584928594838
 31
0.0
  0
LINE
  5
473
330
1F
100
AcDbEntity
  8
寸法線・引き出し線
 62
     2
370
    25
100
AcDbLine
 10
953.4924655480427
 20
461.2584928594828
 30
0.0
 11
953.4924655480427
 21
472.6584928594838
 31
0.0
  0
ARC
  5
474
330
1F
100
AcDbEntity
  8
寸法線・引き出し線
 62
     2
370
    25
100
AcDbCircle
 10
953.7924655480438
 20
461.2584928594828
 30
0.0
 40
0.3
100
AcDbArc
 50
180.0
 51
270.0
  0
ARC
  5
475
330
1F
100
AcDbEntity
  8
寸法線・引き出し線
 62
     2
370
    25
100
AcDbCircle
 10
953.7924655480438
 20
472.6584928594838
 30
0.0
 40
0.3
100
AcDbArc
 50
90.0
 51
180.0
  0
ARC
  5
476
330
1F
100
AcDbEntity
  8
寸法線・引き出し線
 62
     2
370
    25
100
AcDbCircle
 10
956.1924655480433
 20
472.6584928594838
 30
0.0
 40
0.3
100
AcDbArc
 50
0.0
 51
90.0
  0
ARC
  5
477
330
1F
100
AcDbEntity
  8
寸法線・引き出し線
 62
     2
370
    25
100
AcDbCircle
 10
956.1924655480433
 20
461.2584928594828
 30
0.0
 40
0.3
100
AcDbArc
 50
270.0
 51
359.9999999999935
  0
LINE
  5
478
330
1F
100
AcDbEntity
  8
寸法線・引き出し線
 62
     2
370
    25
100
AcDbLine
 10
956.4924655480444
 20
471.9584928594845
 30
0.0
 11
958.9924655480444
 21
471.7584928594848
 31
0.0
  0
LINE
  5
479
330
1F
100
AcDbEntity
  8
寸法線・引き出し線
 62
     2
370
    25
100
AcDbLine
 10
958.9924655480444
 20
462.1584928594863
 30
0.0
 11
956.4924655480426
 21
461.9584928594838
 31
0.0
  0
LINE
  5
47A
330
1F
100
AcDbEntity
  8
寸法線・引き出し線
 62
     2
370
    25
100
AcDbLine
 10
958.9924655480444
 20
471.7584928594848
 30
0.0
 11
958.9924655480427
 21
471.3584928594804
 31
0.0
  0
LINE
  5
47B
330
1F
100
AcDbEntity
  8
寸法線・引き出し線
 62
     2
370
    25
100
AcDbLine
 10
958.9924655480462
 20
462.5584928594851
 30
0.0
 11
958.9924655480444
 21
462.1584928594863
 31
0.0
  0
LINE
  5
47C
330
1F
100
AcDbEntity
  8
寸法線・引き出し線
 62
     2
370
    25
100
AcDbLine
 10
958.6924655480434
 20
471.0584928594805
 30
0.0
 11
958.6924655480416
 21
471.0584928594805
 31
0.0
  0
LINE
  5
47D
330
1F
100
AcDbEntity
  8
寸法線・引き出し線
 62
     2
370
    25
100
AcDbLine
 10
958.6924655480416
 20
471.0584928594805
 30
0.0
 11
958.9924655480427
 21
471.3584928594804
 31
0.0
  0
LINE
  5
47E
330
1F
100
AcDbEntity
  8
寸法線・引き出し線
 62
     2
370
    25
100
AcDbLine
 10
958.6924655480451
 20
462.8584928594854
 30
0.0
 11
958.9924655480462
 21
462.5584928594851
 31
0.0
  0
LINE
  5
47F
330
1F
100
AcDbEntity
  8
寸法線・引き出し線
 62
     2
370
    25
100
AcDbLine
 10
957.4924655480444
 20
462.8584928594864
 30
0.0
 11
957.4924655480426
 21
471.0584928594805
 31
0.0
  0
LINE
  5
480
330
1F
100
AcDbEntity
  8
図枠
 62
     5
370
    18
100
AcDbLine
 10
996.1852871437804
 20
497.5077731654472
 30
0.0
 11
796.1852871437804
 21
497.5077731654472
 31
0.0
  0
LINE
  5
481
330
1F
100
AcDbEntity
  8
図枠
  6
DOT
370
     5
100
AcDbLine
 10
998.6752871437785
 20
355.3927731654472
 30
0.0
 11
998.6752871437785
 21
499.6227731654472
 31
0.0
  0
LINE
  5
482
330
1F
100
AcDbEntity
  8
図枠
  6
DOT
370
     5
100
AcDbLine
 10
998.6752871437785
 20
499.6227731654472
 30
0.0
 11
793.6952871437788
 21
499.6227731654472
 31
0.0
  0
LINE
  5
483
330
1F
100
AcDbEntity
  8
図枠
  6
DOT
370
     5
100
AcDbLine
 10
793.6952871437788
 20
355.3927731654472
 30
0.0
 11
998.6752871437785
 21
355.3927731654472
 31
0.0
  0
LINE
  5
484
330
1F
100
AcDbEntity
  8
図枠
  6
DOT
370
     5
100
AcDbLine
 10
793.6952871437788
 20
355.3927731654472
 30
0.0
 11
793.6952871437788
 21
499.6227731654472
 31
0.0
  0
LINE
  5
485
330
1F
100
AcDbEntity
  8
図枠
 62
     5
370
    18
100
AcDbLine
 10
796.1852871437804
 20
357.5077731654472
 30
0.0
 11
796.1852871437804
 21
497.5077731654472
 31
0.0
  0
LINE
  5
486
330
1F
100
AcDbEntity
  8
図枠
 62
     5
370
    18
100
AcDbLine
 10
996.1852871437804
 20
357.5077731654472
 30
0.0
 11
796.1852871437804
 21
357.5077731654472
 31
0.0
  0
LINE
  5
487
330
1F
100
AcDbEntity
  8
図枠
 62
     5
370
    18
100
AcDbLine
 10
996.1852871437804
 20
357.5077731654472
 30
0.0
 11
996.1852871437804
 21
497.5077731654472
 31
0.0
  0
MTEXT
  5
488
330
1F
100
AcDbEntity
  8
0
  6
Continuous
370
     0
100
AcDbMText
 10
966.1852871437805
 20
375.7577731654472
 30
0.0
 40
1.75
 41
60.0
 71
     5
 72
     5
  1
{\fMS Gothic|b0|i0|c128|p48;指定無き公差はJIS B0408-Bによること}
  7
ゴシック
 73
     1
 44
1.0
1001
ACAD
1000
MTEXTBEGIN
1070
    73
1070
     1
1070
    44
1040
1.0
1070
    74
1070
     0
1000
MTEXTEND
  0
MTEXT
  5
489
330
1F
100
AcDbEntity
  8
0
  6
Continuous
370
     0
100
AcDbMText
 10
929.9352871437804
 20
375.7577731654472
 30
0.0
 40
1.75
 41
12.5
 71
     5
 72
     5
  1
{\fMS Gothic|b0|i0|c128|p48;一般公差}
  7
ゴシック
 73
     1
 44
1.0
1001
ACAD
1000
MTEXTBEGIN
1070
    73
1070
     1
1070
    44
1040
1.0
1070
    74
1070
     0
1000
MTEXTEND
  0
LINE
  5
48A
330
1F
100
AcDbEntity
  8
図枠
370
     5
100
AcDbLine
 10
996.1852871437804
 20
377.5077731654473
 30
0.0
 11
923.6852871437804
 21
377.5077731654473
 31
0.0
  0
LINE
  5
48B
330
1F
100
AcDbEntity
  8
図枠
370
     5
100
AcDbLine
 10
996.1852871437804
 20
374.0077731654472
 30
0.0
 11
923.6852871437804
 21
374.0077731654472
 31
0.0
  0
LINE
  5
48C
330
1F
100
AcDbEntity
  8
図枠
370
     5
100
AcDbLine
 10
923.6852871437804
 20
377.5077731654473
 30
0.0
 11
923.6852871437804
 21
374.0077731654472
 31
0.0
  0
LINE
  5
48D
330
1F
100
AcDbEntity
  8
図枠
370
     5
100
AcDbLine
 10
993.2840976897168
 20
381.0077731654473
 30
0.0
 11
902.6364378849885
 21
381.0077731654473
 31
0.0
  0
LINE
  5
48E
330
1F
100
AcDbEntity
  8
図枠
370
    18
100
AcDbLine
 10
948.8459134182267
 20
360.8850545151505
 30
0.0
 11
950.8459134182267
 21
360.8850545151505
 31
0.0
  0
LINE
  5
48F
330
1F
100
AcDbEntity
  8
図枠
370
    18
100
AcDbLine
 10
948.8459134182267
 20
358.5461096488911
 30
0.0
 11
950.0959134182267
 21
358.5461096488911
 31
0.0
  0
LINE
  5
490
330
1F
100
AcDbEntity
  8
図枠
370
    18
100
AcDbLine
 10
957.379125209969
 20
360.2961096488912
 30
0.0
 11
958.9546547423669
 21
360.2961096488912
 31
0.0
  0
LINE
  5
491
330
1F
100
AcDbEntity
  8
図枠
370
    18
100
AcDbLine
 10
945.5156103879234
 20
362.0461096488912
 30
0.0
 11
945.5156103879234
 21
361.0461096488912
 31
0.0
  0
LINE
  5
492
330
1F
100
AcDbEntity
  8
図枠
370
    18
100
AcDbLine
 10
952.8459134182266
 20
361.2961096488912
 30
0.0
 11
953.3459134182267
 21
362.0461096488912
 31
0.0
  0
LINE
  5
493
330
1F
100
AcDbEntity
  8
図枠
370
    18
100
AcDbLine
 10
952.2772730942689
 20
359.6215440444043
 30
0.0
 11
952.1882220643728
 21
359.5343549723096
 31
0.0
  0
LINE
  5
494
330
1F
100
AcDbEntity
  8
図枠
370
    18
100
AcDbLine
 10
944.5156103879234
 20
361.0461096488912
 30
0.0
 11
944.5156103879234
 21
361.2961096488912
 31
0.0
  0
LINE
  5
495
330
1F
100
AcDbEntity
  8
図枠
370
    18
100
AcDbLine
 10
956.0853214090348
 20
359.8961096488912
 30
0.0
 11
955.9679880756993
 21
360.2961096488912
 31
0.0
  0
LINE
  5
496
330
1F
100
AcDbEntity
  8
図枠
370
    18
100
AcDbLine
 10
946.7656103879235
 20
361.2961096488912
 30
0.0
 11
947.5156103879236
 21
362.0461096488912
 31
0.0
  0
LINE
  5
497
330
1F
100
AcDbEntity
  8
図枠
370
    18
100
AcDbLine
 10
943.2656103879235
 20
360.2961096488912
 30
0.0
 11
943.2656103879235
 21
359.5461096488912
 31
0.0
  0
SPLINE
  5
498
330
1F
100
AcDbEntity
  8
図枠
370
    18
100
AcDbSpline
210
0.0
220
0.0
230
1.0
 70
     8
 71
     3
 72
     9
 73
     5
 74
     0
 42
0.0000000001
 43
0.0000000001
 40
0.0
 40
0.0
 40
0.0
 40
0.0
 40
0.9999999993702068
 40
1.0
 40
1.0
 40
1.0
 40
1.0
 10
948.8459134182267
 20
360.7239993814098
 30
0.0
 10
949.323215719909
 20
360.2840301331812
 30
0.0
 10
949.8005180218934
 20
359.8440608846755
 30
0.0
 10
950.3404236476745
 20
359.5198484962073
 30
0.0
 10
950.3404236480147
 20
359.5198484960032
 30
0.0
  0
SPLINE
  5
499
330
1F
100
AcDbEntity
  8
図枠
370
    18
100
AcDbSpline
210
0.0
220
0.0
230
1.0
 70
     8
 71
     3
 72
     8
 73
     4
 74
     0
 42
0.0000000001
 43
0.0000000001
 40
0.0
 40
0.0
 40
0.0
 40
0.0
 40
1.0
 40
1.0
 40
1.0
 40
1.0
 10
951.5753068152752
 20
358.9779433095694
 30
0.0
 10
952.1448499583494
 20
358.7957990642081
 30
0.0
 10
952.745381688288
 20
358.6709543565496
 30
0.0
 10
953.3459134182267
 20
358.5461096488911
 30
0.0
  0
SPLINE
  5
49A
330
1F
100
AcDbEntity
  8
図枠
370
    18
100
AcDbSpline
210
0.0
220
0.0
230
1.0
 70
     8
 71
     3
 72
     8
 73
     4
 74
     0
 42
0.0000000001
 43
0.0000000001
 40
0.0
 40
0.0
 40
0.0
 40
0.0
 40
1.0
 40
1.0
 40
1.0
 40
1.0
 10
950.5630707057498
 20
360.6022118026759
 30
0.0
 10
950.702756919407
 20
360.4464616857293
 30
0.0
 10
950.842443133064
 20
360.2907115687827
 30
0.0
 10
950.99377176091
 20
360.1537050160592
 30
0.0
  0
SPLINE
  5
49B
330
1F
100
AcDbEntity
  8
図枠
370
    18
100
AcDbSpline
210
0.0
220
0.0
230
1.0
 70
     8
 71
     3
 72
     8
 73
     4
 74
     0
 42
0.0000000001
 43
0.0000000001
 40
0.0
 40
0.0
 40
0.0
 40
0.0
 40
1.0
 40
1.0
 40
1.0
 40
1.0
 10
952.1882220643728
 20
359.5343549723096
 30
0.0
 10
952.5581066911382
 20
359.4291607475563
 30
0.0
 10
952.9520100546815
 20
359.3626351982238
 30
0.0
 10
953.3459134182267
 20
359.2961096488912
 30
0.0
  0
LINE
  5
49C
330
1F
100
AcDbEntity
  8
図枠
370
    18
100
AcDbLine
 10
944.5156103879234
 20
359.5461096488912
 30
0.0
 11
944.5156103879234
 21
360.2961096488912
 31
0.0
  0
LINE
  5
49D
330
1F
100
AcDbEntity
  8
図枠
370
     5
100
AcDbLine
 10
961.1852871437804
 20
374.0077731654472
 30
0.0
 11
961.1852871437804
 21
357.5077731654472
 31
0.0
  0
LINE
  5
49E
330
1F
100
AcDbEntity
  8
図枠
370
    18
100
AcDbLine
 10
948.8459134182267
 20
358.5461096488911
 30
0.0
 11
948.8459134182267
 21
359.2961096488912
 31
0.0
  0
LINE
  5
49F
330
1F
100
AcDbEntity
  8
図枠
370
    18
100
AcDbLine
 10
957.0469397952765
 20
361.4504740941247
 30
0.0
 11
957.454654742367
 21
362.0461096488912
 31
0.0
  0
LINE
  5
4A0
330
1F
100
AcDbEntity
  8
図枠
370
    18
100
AcDbLine
 10
954.4546547423669
 20
361.1961096488911
 30
0.0
 11
955.7039880757001
 21
361.1961096488911
 31
0.0
  0
LINE
  5
4A1
330
1F
100
AcDbEntity
  8
図枠
370
    18
100
AcDbLine
 10
946.7656103879235
 20
361.0461096488912
 30
0.0
 11
946.7656103879235
 21
361.2961096488912
 31
0.0
  0
LINE
  5
4A2
330
1F
100
AcDbEntity
  8
図枠
370
    18
100
AcDbLine
 10
947.5156103879236
 20
361.0461096488912
 30
0.0
 11
946.7656103879235
 21
361.0461096488912
 31
0.0
  0
LINE
  5
4A3
330
1F
100
AcDbEntity
  8
図枠
370
    18
100
AcDbLine
 10
954.4546547423669
 20
360.2961096488912
 30
0.0
 11
955.9679880756993
 21
360.2961096488912
 31
0.0
  0
LINE
  5
4A4
330
1F
100
AcDbEntity
  8
図枠
370
    18
100
AcDbLine
 10
944.5156103879234
 20
360.2961096488912
 30
0.0
 11
945.5156103879234
 21
360.2961096488912
 31
0.0
  0
LINE
  5
4A5
330
1F
100
AcDbEntity
  8
図枠
370
    18
100
AcDbLine
 10
948.8459134182267
 20
361.1461096488912
 30
0.0
 11
951.3459134182268
 21
361.1461096488912
 31
0.0
  0
LINE
  5
4A6
330
1F
100
AcDbEntity
  8
図枠
370
    18
100
AcDbLine
 10
944.7656103879236
 20
359.2961096488912
 30
0.0
 11
943.2656103879235
 21
359.2961096488912
 31
0.0
  0
LINE
  5
4A7
330
1F
100
AcDbEntity
  8
図枠
370
    18
100
AcDbLine
 10
956.5546547423673
 20
358.2961096488912
 30
0.0
 11
956.3493214090341
 21
358.9961096488912
 31
0.0
  0
LINE
  5
4A8
330
1F
100
AcDbEntity
  8
図枠
370
    18
100
AcDbLine
 10
953.3459134182267
 20
362.0461096488912
 30
0.0
 11
948.8459134182267
 21
362.0461096488912
 31
0.0
  0
LINE
  5
4A9
330
1F
100
AcDbEntity
  8
図枠
370
    18
100
AcDbLine
 10
957.1201369203881
 20
361.1961096488911
 30
0.0
 11
957.0469397952765
 21
361.4504740941247
 31
0.0
  0
LINE
  5
4AA
330
1F
100
AcDbEntity
  8
図枠
370
    18
100
AcDbLine
 10
957.1201369203881
 20
361.1961096488911
 30
0.0
 11
958.9546547423669
 21
361.1961096488911
 31
0.0
  0
LINE
  5
4AB
330
1F
100
AcDbEntity
  8
図枠
370
    18
100
AcDbLine
 10
953.3459134182267
 20
359.2961096488912
 30
0.0
 11
953.3459134182267
 21
358.5461096488911
 31
0.0
  0
LINE
  5
4AC
330
1F
100
AcDbEntity
  8
図枠
370
    18
100
AcDbLine
 10
958.9546547423669
 20
359.8961096488912
 30
0.0
 11
958.9546547423669
 21
358.9961096488912
 31
0.0
  0
LINE
  5
4AD
330
1F
100
AcDbEntity
  8
図枠
370
    18
100
AcDbLine
 10
952.8459134182266
 20
361.2961096488912
 30
0.0
 11
953.3459134182267
 21
362.0461096488912
 31
0.0
  0
ARC
  5
4AE
330
1F
100
AcDbEntity
  8
図枠
370
    18
100
AcDbCircle
 10
949.4459134182251
 20
361.1961096488911
 30
0.0
 40
1.899999999999995
100
AcDbArc
 50
270.0
 51
298.0859048152069
  0
LINE
  5
4AF
330
1F
100
AcDbEntity
  8
図枠
370
    18
100
AcDbLine
 10
957.4942311164486
 20
359.8961096488912
 30
0.0
 11
957.379125209969
 21
360.2961096488912
 31
0.0
  0
LINE
  5
4B0
330
1F
100
AcDbEntity
  8
図枠
370
    18
100
AcDbLine
 10
954.4546547423669
 20
359.8961096488912
 30
0.0
 11
956.0853214090348
 21
359.8961096488912
 31
0.0
  0
LINE
  5
4B1
330
1F
100
AcDbEntity
  8
図枠
370
    18
100
AcDbLine
 10
955.7039880757001
 20
361.1961096488911
 30
0.0
 11
955.4546547423669
 21
362.0461096488912
 31
0.0
  0
LINE
  5
4B2
330
1F
100
AcDbEntity
  8
図枠
370
    18
100
AcDbLine
 10
957.7532194060276
 20
358.9961096488912
 30
0.0
 11
958.9546547423669
 21
358.9961096488912
 31
0.0
  0
LINE
  5
4B3
330
1F
100
AcDbEntity
  8
図枠
370
    18
100
AcDbLine
 10
943.2656103879235
 20
362.0461096488912
 30
0.0
 11
943.2656103879235
 21
361.0461096488912
 31
0.0
  0
LINE
  5
4B4
330
1F
100
AcDbEntity
  8
図枠
370
    18
100
AcDbLine
 10
944.5156103879234
 20
361.2961096488912
 30
0.0
 11
945.2656103879235
 21
362.0461096488912
 31
0.0
  0
LINE
  5
4B5
330
1F
100
AcDbEntity
  8
図枠
370
    18
100
AcDbLine
 10
945.2656103879235
 20
362.0461096488912
 30
0.0
 11
943.2656103879235
 21
362.0461096488912
 31
0.0
  0
LINE
  5
4B6
330
1F
100
AcDbEntity
  8
図枠
370
    18
100
AcDbLine
 10
945.5156103879234
 20
361.0461096488912
 30
0.0
 11
944.5156103879234
 21
361.0461096488912
 31
0.0
  0
LINE
  5
4B7
330
1F
100
AcDbEntity
  8
図枠
370
    18
100
AcDbLine
 10
954.4546547423669
 20
361.1961096488911
 30
0.0
 11
954.4546547423669
 21
360.2961096488912
 31
0.0
  0
LINE
  5
4B8
330
1F
100
AcDbEntity
  8
図枠
370
    18
100
AcDbLine
 10
946.7656103879235
 20
360.0461096488912
 30
0.0
 11
946.7656103879235
 21
360.2961096488912
 31
0.0
  0
LINE
  5
4B9
330
1F
100
AcDbEntity
  8
図枠
370
    18
100
AcDbLine
 10
947.5156103879236
 20
362.0461096488912
 30
0.0
 11
945.5156103879234
 21
362.0461096488912
 31
0.0
  0
LINE
  5
4BA
330
1F
100
AcDbEntity
  8
図枠
370
    18
100
AcDbLine
 10
947.5156103879236
 20
361.0461096488912
 30
0.0
 11
947.5156103879236
 21
360.2961096488912
 31
0.0
  0
LINE
  5
4BB
330
1F
100
AcDbEntity
  8
図枠
370
    18
100
AcDbLine
 10
942.6900584821451
 20
361.0461096488912
 30
0.0
 11
942.6900584821451
 21
360.2961096488912
 31
0.0
  0
LINE
  5
4BC
330
1F
100
AcDbEntity
  8
図枠
370
    18
100
AcDbLine
 10
948.8459134182267
 20
360.7239993814098
 30
0.0
 11
948.8459134182267
 21
360.8850545151505
 31
0.0
  0
LINE
  5
4BD
330
1F
100
AcDbEntity
  8
図枠
370
    18
100
AcDbLine
 10
945.5156103879234
 20
360.2961096488912
 30
0.0
 11
945.5156103879234
 21
360.0461096488912
 31
0.0
  0
LINE
  5
4BE
330
1F
100
AcDbEntity
  8
図枠
370
    18
100
AcDbLine
 10
957.9546547423669
 20
358.2961096488912
 30
0.0
 11
956.5546547423673
 21
358.2961096488912
 31
0.0
  0
LINE
  5
4BF
330
1F
100
AcDbEntity
  8
図枠
370
    18
100
AcDbLine
 10
951.1140696640687
 20
360.2865741963362
 30
0.0
 11
950.99377176091
 21
360.1537050160593
 31
0.0
  0
LINE
  5
4C0
330
1F
100
AcDbEntity
  8
図枠
370
    18
100
AcDbLine
 10
943.2656103879235
 20
359.5461096488912
 30
0.0
 11
944.5156103879234
 21
359.5461096488912
 31
0.0
  0
LINE
  5
4C1
330
1F
100
AcDbEntity
  8
図枠
370
    18
100
AcDbLine
 10
954.4546547423669
 20
359.8961096488912
 30
0.0
 11
954.4546547423669
 21
358.9961096488912
 31
0.0
  0
ARC
  5
4C2
330
1F
100
AcDbEntity
  8
図枠
370
    18
100
AcDbCircle
 10
944.7656103879236
 20
360.0461096488912
 30
0.0
 40
0.75
100
AcDbArc
 50
270.0
 51
0.0
  0
LINE
  5
4C3
330
1F
100
AcDbEntity
  8
図枠
370
    18
100
AcDbLine
 10
954.4546547423669
 20
358.9961096488912
 30
0.0
 11
956.3493214090341
 21
358.9961096488912
 31
0.0
  0
LINE
  5
4C4
330
1F
100
AcDbEntity
  8
図枠
370
    18
100
AcDbLine
 10
943.2656103879235
 20
358.5461096488911
 30
0.0
 11
945.2656103879235
 21
358.5461096488911
 31
0.0
  0
ARC
  5
4C5
330
1F
100
AcDbEntity
  8
図枠
370
    18
100
AcDbCircle
 10
950.0959134182267
 20
361.2961096488912
 30
0.0
 40
2.75
100
AcDbArc
 50
322.4876119797228
 51
0.0
  0
LINE
  5
4C6
330
1F
100
AcDbEntity
  8
図枠
370
    18
100
AcDbLine
 10
942.6900584821451
 20
360.2961096488912
 30
0.0
 11
943.190058482145
 21
360.2961096488912
 31
0.0
  0
ARC
  5
4C7
330
1F
100
AcDbEntity
  8
図枠
370
    18
100
AcDbCircle
 10
950.0959134182267
 20
361.2961096488912
 30
0.0
 40
2.750000000000032
100
AcDbArc
 50
270.0
 51
302.5449588540891
  0
LINE
  5
4C8
330
1F
100
AcDbEntity
  8
図枠
370
    18
100
AcDbLine
 10
946.7656103879235
 20
360.2961096488912
 30
0.0
 11
947.5156103879236
 21
360.2961096488912
 31
0.0
  0
ARC
  5
4C9
330
1F
100
AcDbEntity
  8
図枠
370
    18
100
AcDbCircle
 10
949.4459134182251
 20
361.1961096488911
 30
0.0
 40
1.900000000000015
100
AcDbArc
 50
331.3992813832665
 51
358.4920422457636
  0
LINE
  5
4CA
330
1F
100
AcDbEntity
  8
図枠
370
    18
100
AcDbLine
 10
943.2656103879235
 20
359.2961096488912
 30
0.0
 11
943.2656103879235
 21
358.5461096488911
 31
0.0
  0
LINE
  5
4CB
330
1F
100
AcDbEntity
  8
図枠
370
    18
100
AcDbLine
 10
943.2656103879235
 20
360.2961096488912
 30
0.0
 11
943.190058482145
 21
360.2961096488912
 31
0.0
  0
LINE
  5
4CC
330
1F
100
AcDbEntity
  8
図枠
370
    18
100
AcDbLine
 10
948.8459134182267
 20
359.2961096488912
 30
0.0
 11
948.8459134182267
 21
358.5461096488911
 31
0.0
  0
LINE
  5
4CD
330
1F
100
AcDbEntity
  8
図枠
370
    18
100
AcDbLine
 10
943.2656103879235
 20
361.0461096488912
 30
0.0
 11
942.6900584821451
 21
361.0461096488912
 31
0.0
  0
LINE
  5
4CE
330
1F
100
AcDbEntity
  8
図枠
370
    18
100
AcDbLine
 10
955.4546547423669
 20
362.0461096488912
 30
0.0
 11
957.454654742367
 21
362.0461096488912
 31
0.0
  0
LINE
  5
4CF
330
1F
100
AcDbEntity
  8
図枠
370
    18
100
AcDbLine
 10
948.8459134182267
 20
359.2961096488912
 30
0.0
 11
949.4459134182251
 21
359.2961096488912
 31
0.0
  0
LINE
  5
4D0
330
1F
100
AcDbEntity
  8
図枠
370
    18
100
AcDbLine
 10
957.4942311164486
 20
359.8961096488912
 30
0.0
 11
958.9546547423669
 21
359.8961096488912
 31
0.0
  0
LINE
  5
4D1
330
1F
100
AcDbEntity
  8
図枠
370
    18
100
AcDbLine
 10
957.9546547423669
 20
358.2961096488912
 30
0.0
 11
957.7532194060276
 21
358.9961096488912
 31
0.0
  0
CIRCLE
  5
4D2
330
1F
100
AcDbEntity
  8
図枠
370
    18
100
AcDbCircle
 10
952.8852871437793
 20
371.2577731654473
 30
0.0
 40
0.5999999999999944
  0
CIRCLE
  5
4D3
330
1F
100
AcDbEntity
  8
図枠
370
    18
100
AcDbCircle
 10
952.8852871437793
 20
371.2577731654473
 30
0.0
 40
0.5999999999999944
  0
CIRCLE
  5
4D4
330
1F
100
AcDbEntity
  8
図枠
370
    18
100
AcDbCircle
 10
952.8852871437793
 20
371.2577731654473
 30
0.0
 40
1.199999999999988
  0
LINE
  5
4D5
330
1F
100
AcDbEntity
  8
図枠
370
    18
100
AcDbLine
 10
955.6282458996248
 20
371.8577731654471
 30
0.0
 11
958.0282458996244
 21
372.4577731654472
 31
0.0
  0
LINE
  5
4D6
330
1F
100
AcDbEntity
  8
図枠
370
     5
100
AcDbLine
 10
937.4352871437805
 20
371.2577731654473
 30
0.0
 11
947.4352871437805
 21
371.2577731654473
 31
0.0
  0
LINE
  5
4D7
330
1F
100
AcDbEntity
  8
図枠
370
    18
100
AcDbLine
 10
958.9546547423669
 20
361.1961096488911
 30
0.0
 11
958.9546547423669
 21
360.2961096488912
 31
0.0
  0
LINE
  5
4D8
330
1F
100
AcDbEntity
  8
図枠
  6
BORDER
370
    18
100
AcDbLine
 10
952.8852871437793
 20
373.0577731654472
 30
0.0
 11
952.8852871437793
 21
369.4577731654472
 31
0.0
  0
LINE
  5
4D9
330
1F
100
AcDbEntity
  8
図枠
  6
BORDER
370
    18
100
AcDbLine
 10
952.8852871437793
 20
373.0577731654472
 30
0.0
 11
952.8852871437793
 21
369.4577731654472
 31
0.0
  0
LINE
  5
4DA
330
1F
100
AcDbEntity
  8
図枠
370
     5
100
AcDbLine
 10
948.6852871437804
 20
374.0077731654472
 30
0.0
 11
948.6852871437804
 21
368.5077731654471
 31
0.0
  0
LINE
  5
4DB
330
1F
100
AcDbEntity
  8
図枠
370
     5
100
AcDbLine
 10
923.6852871437804
 20
368.5077731654473
 30
0.0
 11
996.1852871437804
 21
368.5077731654473
 31
0.0
  0
LINE
  5
4DC
330
1F
100
AcDbEntity
  8
図枠
370
     5
100
AcDbLine
 10
936.1852871437822
 20
377.5077731654473
 30
0.0
 11
936.1852871437804
 21
368.5077731654471
 31
0.0
  0
LINE
  5
4DD
330
1F
100
AcDbEntity
  8
図枠
370
     5
100
AcDbLine
 10
924.9352871437805
 20
371.2577731654473
 30
0.0
 11
934.9352871437805
 21
371.2577731654473
 31
0.0
  0
LINE
  5
4DE
330
1F
100
AcDbEntity
  8
図枠
370
     5
100
AcDbLine
 10
943.6852871437805
 20
365.7577731654472
 30
0.0
 11
959.9352871437805
 21
365.7577731654472
 31
0.0
  0
LINE
  5
4DF
330
1F
100
AcDbEntity
  8
図枠
370
     5
100
AcDbLine
 10
924.9352871437805
 20
365.7577731654472
 30
0.0
 11
941.1852871437805
 21
365.7577731654472
 31
0.0
  0
LINE
  5
4E0
330
1F
100
AcDbEntity
  8
図枠
370
     5
100
AcDbLine
 10
923.6852871437804
 20
363.0077731654473
 30
0.0
 11
996.1852871437804
 21
363.0077731654473
 31
0.0
  0
LINE
  5
4E1
330
1F
100
AcDbEntity
  8
図枠
370
     5
100
AcDbLine
 10
942.4352871437804
 20
368.5077731654473
 30
0.0
 11
942.4352871437804
 21
363.0077731654473
 31
0.0
  0
LINE
  5
4E2
330
1F
100
AcDbEntity
  8
図枠
370
     5
100
AcDbLine
 10
923.6852871437804
 20
374.0077731654472
 30
0.0
 11
923.6852871437804
 21
357.5077731654472
 31
0.0
  0
ARC
  5
4E3
330
1F
100
AcDbEntity
  8
図枠
370
    18
100
AcDbCircle
 10
945.2656103879235
 20
360.0461096488912
 30
0.0
 40
1.5
100
AcDbArc
 50
270.0
 51
0.0
  0
LINE
  5
4E4
330
1F
100
AcDbEntity
  8
図枠
370
    18
100
AcDbLine
 10
948.8459134182267
 20
362.0461096488912
 30
0.0
 11
948.8459134182267
 21
361.1461096488912
 31
0.0
  0
LINE
  5
4E5
330
1F
100
AcDbEntity
  8
図枠
370
    18
100
AcDbLine
 10
955.6282458996248
 20
370.6577731654472
 30
0.0
 11
958.0282458996244
 21
370.0577731654472
 31
0.0
  0
LINE
  5
4E6
330
1F
100
AcDbEntity
  8
図枠
370
    18
100
AcDbLine
 10
955.6282458996248
 20
371.8577731654471
 30
0.0
 11
955.6282458996248
 21
370.6577731654472
 31
0.0
  0
LINE
  5
4E7
330
1F
100
AcDbEntity
  8
図枠
370
    18
100
AcDbLine
 10
958.0282458996244
 20
372.4577731654472
 30
0.0
 11
958.0282458996244
 21
370.0577731654472
 31
0.0
  0
LINE
  5
4E8
330
1F
100
AcDbEntity
  8
図枠
370
     5
100
AcDbLine
 10
996.1852871437804
 20
374.0077731654472
 30
0.0
 11
923.6852871437804
 21
374.0077731654472
 31
0.0
  0
CIRCLE
  5
4E9
330
1F
100
AcDbEntity
  8
図枠
370
    18
100
AcDbCircle
 10
952.8852871437793
 20
371.2577731654473
 30
0.0
 40
0.5999999999999944
  0
LINE
  5
4EA
330
1F
100
AcDbEntity
  8
図枠
  6
BORDER
370
    18
100
AcDbLine
 10
951.0852871437782
 20
371.2577731654473
 30
0.0
 11
958.7852871437789
 21
371.2577731654473
 31
0.0
  0
LINE
  5
4EB
330
1F
100
AcDbEntity
  8
図枠
370
    18
100
AcDbLine
 10
950.8459134182267
 20
360.8850545151505
 30
0.0
 11
950.5630707057498
 21
360.6022118026759
 31
0.0
  0
LINE
  5
4EC
330
1F
100
AcDbEntity
  8
図枠
370
    18
100
AcDbLine
 10
958.0282458996244
 20
372.4577731654472
 30
0.0
 11
958.0282458996244
 21
370.0577731654472
 31
0.0
  0
LINE
  5
4ED
330
1F
100
AcDbEntity
  8
図枠
370
    18
100
AcDbLine
 10
955.6282458996248
 20
371.8577731654471
 30
0.0
 11
955.6282458996248
 21
370.6577731654472
 31
0.0
  0
LINE
  5
4EE
330
1F
100
AcDbEntity
  8
図枠
370
    18
100
AcDbLine
 10
955.6282458996248
 20
370.6577731654472
 30
0.0
 11
958.0282458996244
 21
370.0577731654472
 31
0.0
  0
LINE
  5
4EF
330
1F
100
AcDbEntity
  8
図枠
370
    18
100
AcDbLine
 10
955.6282458996248
 20
371.8577731654471
 30
0.0
 11
958.0282458996244
 21
372.4577731654472
 31
0.0
  0
CIRCLE
  5
4F0
330
1F
100
AcDbEntity
  8
図枠
370
    18
100
AcDbCircle
 10
952.8852871437793
 20
371.2577731654473
 30
0.0
 40
1.199999999999988
  0
CIRCLE
  5
4F1
330
1F
100
AcDbEntity
  8
図枠
370
    18
100
AcDbCircle
 10
952.8852871437793
 20
371.2577731654473
 30
0.0
 40
0.5999999999999944
  0
CIRCLE
  5
4F2
330
1F
100
AcDbEntity
  8
図枠
370
    18
100
AcDbCircle
 10
952.8852871437793
 20
371.2577731654473
 30
0.0
 40
1.199999999999988
  0
LINE
  5
4F3
330
1F
100
AcDbEntity
  8
図枠
370
    18
100
AcDbLine
 10
955.6282458996248
 20
371.8577731654471
 30
0.0
 11
958.0282458996244
 21
372.4577731654472
 31
0.0
  0
LINE
  5
4F4
330
1F
100
AcDbEntity
  8
図枠
370
    18
100
AcDbLine
 10
955.6282458996248
 20
370.6577731654472
 30
0.0
 11
958.0282458996244
 21
370.0577731654472
 31
0.0
  0
LINE
  5
4F5
330
1F
100
AcDbEntity
  8
図枠
370
    18
100
AcDbLine
 10
955.6282458996248
 20
371.8577731654471
 30
0.0
 11
955.6282458996248
 21
370.6577731654472
 31
0.0
  0
LINE
  5
4F6
330
1F
100
AcDbEntity
  8
図枠
370
    18
100
AcDbLine
 10
958.0282458996244
 20
372.4577731654472
 30
0.0
 11
958.0282458996244
 21
370.0577731654472
 31
0.0
  0
LINE
  5
4F7
330
1F
100
AcDbEntity
  8
図枠
  6
BORDER
370
    18
100
AcDbLine
 10
952.8852871437793
 20
373.0577731654472
 30
0.0
 11
952.8852871437793
 21
369.4577731654472
 31
0.0
  0
LINE
  5
4F8
330
1F
100
AcDbEntity
  8
図枠
  6
BORDER
370
    18
100
AcDbLine
 10
952.8852871437793
 20
373.0577731654472
 30
0.0
 11
952.8852871437793
 21
369.4577731654472
 31
0.0
  0
LINE
  5
4F9
330
1F
100
AcDbEntity
  8
図枠
370
    18
100
AcDbLine
 10
958.0282458996244
 20
372.4577731654472
 30
0.0
 11
958.0282458996244
 21
370.0577731654472
 31
0.0
  0
LINE
  5
4FA
330
1F
100
AcDbEntity
  8
図枠
370
    18
100
AcDbLine
 10
955.6282458996248
 20
371.8577731654471
 30
0.0
 11
955.6282458996248
 21
370.6577731654472
 31
0.0
  0
LINE
  5
4FB
330
1F
100
AcDbEntity
  8
図枠
370
    18
100
AcDbLine
 10
955.6282458996248
 20
370.6577731654472
 30
0.0
 11
958.0282458996244
 21
370.0577731654472
 31
0.0
  0
LINE
  5
4FC
330
1F
100
AcDbEntity
  8
図枠
370
    18
100
AcDbLine
 10
955.6282458996248
 20
371.8577731654471
 30
0.0
 11
958.0282458996244
 21
372.4577731654472
 31
0.0
  0
CIRCLE
  5
4FD
330
1F
100
AcDbEntity
  8
図枠
370
    18
100
AcDbCircle
 10
952.8852871437793
 20
371.2577731654473
 30
0.0
 40
1.199999999999988
  0
MTEXT
  5
4FE
330
1F
100
AcDbEntity
  8
0
  6
Continuous
370
     0
100
AcDbMText
 10
929.9352871437804
 20
372.6327731654472
 30
0.0
 40
1.5
 41
12.5
 71
     5
 72
     5
  1
{\fMS Gothic|b0|i0|c128|p48;日　　付}
  7
ゴシック
 73
     1
 44
1.0
1001
ACAD
1000
MTEXTBEGIN
1070
    73
1070
     1
1070
    44
1040
1.0
1070
    74
1070
     0
1000
MTEXTEND
  0
MTEXT
  5
4FF
330
1F
100
AcDbEntity
  8
0
  6
Continuous
370
     0
100
AcDbMText
 10
942.4352871437804
 20
372.6327731654472
 30
0.0
 40
1.5
 41
12.5
 71
     5
 72
     5
  1
{\fMS Gothic|b0|i0|c128|p48;尺　　度}
  7
ゴシック
 73
     1
 44
1.0
1001
ACAD
1000
MTEXTBEGIN
1070
    73
1070
     1
1070
    44
1040
1.0
1070
    74
1070
     0
1000
MTEXTEND
  0
MTEXT
  5
500
330
1F
100
AcDbEntity
  8
0
  6
Continuous
370
     0
100
AcDbMText
 10
929.9352871437804
 20
369.8827731654473
 30
0.0
 40
1.5
 41
12.5
 71
     5
 72
     5
  1
{\fMS Gothic|b0|i0|c128|p48;H22.02.05}
  7
ゴシック
 73
     1
 44
1.0
1001
ACAD
1000
MTEXTBEGIN
1070
    73
1070
     1
1070
    44
1040
1.0
1070
    74
1070
     0
1000
MTEXTEND
  0
MTEXT
  5
501
330
1F
100
AcDbEntity
  8
0
  6
Continuous
370
     0
100
AcDbMText
 10
942.4352871437804
 20
369.8827731654473
 30
0.0
 40
1.5
 41
12.5
 71
     5
 72
     5
  1
{\fMS Gothic|b0|i0|c128|p48;2：1}
  7
ゴシック
 73
     1
 44
1.0
1001
ACAD
1000
MTEXTBEGIN
1070
    73
1070
     1
1070
    44
1040
1.0
1070
    74
1070
     0
1000
MTEXTEND
  0
MTEXT
  5
502
330
1F
100
AcDbEntity
  8
0
  6
Continuous
370
     0
100
AcDbMText
 10
926.5466859879598
 20
367.1327731654472
 30
0.0
 40
1.5
 41
12.5
 71
     5
 72
     5
  1
{\fMS Gothic|b0|i0|c128|p48;設計}
  7
ゴシック
 73
     1
 44
1.0
1001
ACAD
1000
MTEXTBEGIN
1070
    73
1070
     1
1070
    44
1040
1.0
1070
    74
1070
     0
1000
MTEXTEND
  0
MTEXT
  5
503
330
1F
100
AcDbEntity
  8
0
  6
Continuous
370
     0
100
AcDbMText
 10
926.5466859879598
 20
364.3827731654472
 30
0.0
 40
1.5
 41
12.5
 71
     5
 72
     5
  1
{\fMS Gothic|b0|i0|c128|p48;製図}
  7
ゴシック
 73
     1
 44
1.0
1001
ACAD
1000
MTEXTBEGIN
1070
    73
1070
     1
1070
    44
1040
1.0
1070
    74
1070
     0
1000
MTEXTEND
  0
MTEXT
  5
504
330
1F
100
AcDbEntity
  8
0
  6
Continuous
370
     0
100
AcDbMText
 10
935.2931260304394
 20
367.1327731654472
 30
0.0
 40
1.5
 41
12.5
 71
     5
 72
     5
  1
{\fMS Gothic|b0|i0|c128|p48;＊＊＊}
  7
ゴシック
 73
     1
 44
1.0
1001
ACAD
1000
MTEXTBEGIN
1070
    73
1070
     1
1070
    44
1040
1.0
1070
    74
1070
     0
1000
MTEXTEND
  0
MTEXT
  5
505
330
1F
100
AcDbEntity
  8
0
  6
Continuous
370
     0
100
AcDbMText
 10
935.2931260304394
 20
364.3827731654472
 30
0.0
 40
1.5
 41
12.5
 71
     5
 72
     5
  1
{\fMS Gothic|b0|i0|c128|p48;＊＊＊}
  7
ゴシック
 73
     1
 44
1.0
1001
ACAD
1000
MTEXTBEGIN
1070
    73
1070
     1
1070
    44
1040
1.0
1070
    74
1070
     0
1000
MTEXTEND
  0
MTEXT
  5
506
330
1F
100
AcDbEntity
  8
0
  6
Continuous
370
     0
100
AcDbMText
 10
945.2966859879598
 20
367.1327731654472
 30
0.0
 40
1.5
 41
12.5
 71
     5
 72
     5
  1
{\fMS Gothic|b0|i0|c128|p48;照査}
  7
ゴシック
 73
     1
 44
1.0
1001
ACAD
1000
MTEXTBEGIN
1070
    73
1070
     1
1070
    44
1040
1.0
1070
    74
1070
     0
1000
MTEXTEND
  0
MTEXT
  5
507
330
1F
100
AcDbEntity
  8
0
  6
Continuous
370
     0
100
AcDbMText
 10
945.2966859879598
 20
364.3827731654472
 30
0.0
 40
1.5
 41
12.5
 71
     5
 72
     5
  1
{\fMS Gothic|b0|i0|c128|p48;検図}
  7
ゴシック
 73
     1
 44
1.0
1001
ACAD
1000
MTEXTBEGIN
1070
    73
1070
     1
1070
    44
1040
1.0
1070
    74
1070
     0
1000
MTEXTEND
  0
MTEXT
  5
508
330
1F
100
AcDbEntity
  8
0
  6
Continuous
370
     0
100
AcDbMText
 10
954.0431260304394
 20
367.1327731654472
 30
0.0
 40
1.5
 41
12.5
 71
     5
 72
     5
  1
{\fMS Gothic|b0|i0|c128|p48;＊＊＊}
  7
ゴシック
 73
     1
 44
1.0
1001
ACAD
1000
MTEXTBEGIN
1070
    73
1070
     1
1070
    44
1040
1.0
1070
    74
1070
     0
1000
MTEXTEND
  0
MTEXT
  5
509
330
1F
100
AcDbEntity
  8
0
  6
Continuous
370
     0
100
AcDbMText
 10
954.0431260304394
 20
364.3827731654472
 30
0.0
 40
1.5
 41
12.5
 71
     5
 72
     5
  1
{\fMS Gothic|b0|i0|c128|p48;＊＊＊}
  7
ゴシック
 73
     1
 44
1.0
1001
ACAD
1000
MTEXTBEGIN
1070
    73
1070
     1
1070
    44
1040
1.0
1070
    74
1070
     0
1000
MTEXTEND
  0
MTEXT
  5
50A
330
1F
100
AcDbEntity
  8
0
  6
Continuous
370
     0
100
AcDbMText
 10
964.2095646142042
 20
372.8142774070629
 30
0.0
 40
1.5
 41
12.5
 71
     5
 72
     5
  1
{\fMS Gothic|b0|i0|c128|p48;製品名}
  7
ゴシック
 73
     1
 44
1.0
1001
ACAD
1000
MTEXTBEGIN
1070
    73
1070
     1
1070
    44
1040
1.0
1070
    74
1070
     0
1000
MTEXTEND
  0
MTEXT
  5
50B
330
1F
100
AcDbEntity
  8
0
  6
Continuous
370
     0
100
AcDbMText
 10
964.2095646142042
 20
367.314277407063
 30
0.0
 40
1.5
 41
12.5
 71
     5
 72
     5
  1
{\fMS Gothic|b0|i0|c128|p48;図面名}
  7
ゴシック
 73
     1
 44
1.0
1001
ACAD
1000
MTEXTBEGIN
1070
    73
1070
     1
1070
    44
1040
1.0
1070
    74
1070
     0
1000
MTEXTEND
  0
MTEXT
  5
50C
330
1F
100
AcDbEntity
  8
0
  6
Continuous
370
     0
100
AcDbMText
 10
964.2095646142042
 20
361.814277407063
 30
0.0
 40
1.5
 41
12.5
 71
     5
 72
     5
  1
{\fMS Gothic|b0|i0|c128|p48;図 番}
  7
ゴシック
 73
     1
 44
1.0
1001
ACAD
1000
MTEXTBEGIN
1070
    73
1070
     1
1070
    44
1040
1.0
1070
    74
1070
     0
1000
MTEXTEND
  0
MTEXT
  5
50D
330
1F
100
AcDbEntity
  8
0
  6
Continuous
370
     0
100
AcDbMText
 10
978.6852871437805
 20
370.3313537006576
 30
0.0
 40
1.75
 41
35.0
 71
     5
 72
     5
  1
{\fMS Gothic|b0|i0|c128|p48;フィット棚柱}
  7
ゴシック
 73
     1
 44
1.0
1001
ACAD
1000
MTEXTBEGIN
1070
    73
1070
     1
1070
    44
1040
1.0
1070
    74
1070
     0
1000
MTEXTEND
  0
MTEXT
  5
50E
330
1F
100
AcDbEntity
  8
0
  6
Continuous
370
     0
100
AcDbMText
 10
978.6852871437805
 20
364.8313537006576
 30
0.0
 40
1.75
 41
35.0
 71
     5
 72
     5
  1
{\fMS Gothic|b0|i0|c128|p48;棚受(Ｌ型)：承認図}
  7
ゴシック
 73
     1
 44
1.0
1001
ACAD
1000
MTEXTBEGIN
1070
    73
1070
     1
1070
    44
1040
1.0
1070
    74
1070
     0
1000
MTEXTEND
  0
MTEXT
  5
50F
330
1F
100
AcDbEntity
  8
0
  6
Continuous
370
     0
100
AcDbMText
 10
978.6852871437805
 20
359.3313537006576
 30
0.0
 40
1.75
 41
35.0
 71
     5
 72
     5
  1
{\fMS Gothic|b0|i0|c128|p48;ＳＬＳ００４２３}
  7
ゴシック
 73
     1
 44
1.0
1001
ACAD
1000
MTEXTBEGIN
1070
    73
1070
     1
1070
    44
1040
1.0
1070
    74
1070
     0
1000
MTEXTEND
  0
MTEXT
  5
510
330
1F
100
AcDbEntity
  8
0
  6
Continuous
370
     0
100
AcDbMText
 10
926.1081895784409
 20
360.2577731654473
 30
0.0
 40
2.75
 41
37.5
 71
     4
 72
     5
  1
{\fMS Gothic|b0|i0|c128|p48;株式会社}
  7
ゴシック
 73
     1
 44
1.0
1001
ACAD
1000
MTEXTBEGIN
1070
    73
1070
     1
1070
    44
1040
1.0
1070
    74
1070
     0
1000
MTEXTEND
  0
MTEXT
  5
511
330
1F
100
AcDbEntity
  8
改訂
370
     5
100
AcDbMText
 10
951.0431444507576
 20
494.248077035857
 30
0.0
 40
1.349374983787536
 41
1.820154478508428
 71
     2
 72
     1
  1
\W0.8;\fＭＳ ゴシック;\W1.0;1
 73
     1
 44
1.0
1001
ACAD
1000
MTEXTBEGIN
1070
    73
1070
     1
1070
    44
1040
1.0
1070
    74
1070
     0
1000
MTEXTEND
  0
LINE
  5
512
330
1F
100
AcDbEntity
  8
図枠
 62
     5
370
    18
100
AcDbLine
 10
951.0431444507576
 20
492.3915819153154
 30
0.0
 11
949.8056444507565
 21
490.2481690409489
 31
0.0
  0
LINE
  5
513
330
1F
100
AcDbEntity
  8
図枠
 62
     5
370
    18
100
AcDbLine
 10
951.0431444507576
 20
494.8665819153153
 30
0.0
 11
949.8056444507565
 21
492.7231690409488
 31
0.0
  0
LINE
  5
514
330
1F
100
AcDbEntity
  8
図枠
 62
     5
370
    18
100
AcDbLine
 10
951.0431444507576
 20
494.8665819153153
 30
0.0
 11
952.2806444507587
 21
492.7231690409488
 31
0.0
  0
LINE
  5
515
330
1F
100
AcDbEntity
  8
図枠
 62
     5
370
    18
100
AcDbLine
 10
949.8056444507565
 20
492.7231690409488
 30
0.0
 11
952.2806444507587
 21
492.7231690409488
 31
0.0
  0
LINE
  5
516
330
1F
100
AcDbEntity
  8
図枠
 62
     5
370
    18
100
AcDbLine
 10
953.1852871437804
 20
490.0077731654472
 30
0.0
 11
953.1852871437804
 21
497.5077731654472
 31
0.0
  0
LINE
  5
517
330
1F
100
AcDbEntity
  8
図枠
 62
     5
370
    18
100
AcDbLine
 10
986.1852871437804
 20
490.0077731654472
 30
0.0
 11
986.1852871437804
 21
497.5077731654472
 31
0.0
  0
LINE
  5
518
330
1F
100
AcDbEntity
  8
図枠
 62
     5
370
    18
100
AcDbLine
 10
961.1852871437804
 20
490.0077731654472
 30
0.0
 11
961.1852871437804
 21
497.5077731654472
 31
0.0
  0
LINE
  5
519
330
1F
100
AcDbEntity
  8
図枠
 62
     5
370
    18
100
AcDbLine
 10
949.1852871437805
 20
490.0077731654472
 30
0.0
 11
996.1852871437804
 21
490.0077731654472
 31
0.0
  0
LINE
  5
51A
330
1F
100
AcDbEntity
  8
図枠
 62
     5
370
    18
100
AcDbLine
 10
949.1852871437805
 20
492.5077731654472
 30
0.0
 11
996.1852871437804
 21
492.5077731654472
 31
0.0
  0
LINE
  5
51B
330
1F
100
AcDbEntity
  8
図枠
 62
     5
370
    18
100
AcDbLine
 10
949.1852871437805
 20
495.0077731654472
 30
0.0
 11
996.1852871437804
 21
495.0077731654472
 31
0.0
  0
LINE
  5
51C
330
1F
100
AcDbEntity
  8
図枠
 62
     5
370
    18
100
AcDbLine
 10
991.1852871437805
 20
490.0077731654472
 30
0.0
 11
991.1852871437805
 21
497.5077731654472
 31
0.0
  0
LINE
  5
51D
330
1F
100
AcDbEntity
  8
図枠
 62
     5
370
    18
100
AcDbLine
 10
949.1852871437805
 20
490.0077731654472
 30
0.0
 11
949.1852871437805
 21
497.5077731654472
 31
0.0
  0
LINE
  5
51E
330
1F
100
AcDbEntity
  8
図枠
 62
     5
370
    18
100
AcDbLine
 10
949.8056444507565
 20
490.2481690409489
 30
0.0
 11
952.2806444507587
 21
490.2481690409489
 31
0.0
  0
LINE
  5
51F
330
1F
100
AcDbEntity
  8
図枠
 62
     5
370
    18
100
AcDbLine
 10
951.0431444507576
 20
492.3915819153154
 30
0.0
 11
952.2806444507587
 21
490.2481690409489
 31
0.0
  0
MTEXT
  5
520
330
1F
100
AcDbEntity
  8
0
  6
Continuous
370
     0
100
AcDbMText
 10
993.6852871437805
 20
496.2577731654472
 30
0.0
 40
1.25
 41
5.000000000000056
 71
     5
 72
     5
  1
{\fMS Gothic|b0|i0|c128|p48;検認者}
  7
ゴシック
 73
     1
 44
1.0
1001
ACAD
1000
MTEXTBEGIN
1070
    73
1070
     1
1070
    44
1040
1.0
1070
    74
1070
     0
1000
MTEXTEND
  0
MTEXT
  5
521
330
1F
100
AcDbEntity
  8
0
  6
Continuous
370
     0
100
AcDbMText
 10
988.6852871437804
 20
496.2577731654472
 30
0.0
 40
1.25
 41
5.000000000000056
 71
     5
 72
     5
  1
{\fMS Gothic|b0|i0|c128|p48;改訂者}
  7
ゴシック
 73
     1
 44
1.0
1001
ACAD
1000
MTEXTBEGIN
1070
    73
1070
     1
1070
    44
1040
1.0
1070
    74
1070
     0
1000
MTEXTEND
  0
MTEXT
  5
522
330
1F
100
AcDbEntity
  8
0
  6
Continuous
370
     0
100
AcDbMText
 10
988.6852871437804
 20
493.7577731654472
 30
0.0
 40
1.25
 41
5.000000000000056
 71
     5
 72
     5
  1
{\fMS Gothic|b0|i0|c128|p48;＊＊}
  7
ゴシック
 73
     1
 44
1.0
1001
ACAD
1000
MTEXTBEGIN
1070
    73
1070
     1
1070
    44
1040
1.0
1070
    74
1070
     0
1000
MTEXTEND
  0
MTEXT
  5
523
330
1F
100
AcDbEntity
  8
0
  6
Continuous
370
     0
100
AcDbMText
 10
973.6852871437804
 20
496.2577731654472
 30
0.0
 40
1.25
 41
25.0
 71
     5
 72
     5
  1
{\fMS Gothic|b0|i0|c128|p48;改　訂　内　容\fArial|b0|i0|c0|p32;}
  7
ゴシック
 73
     1
 44
1.0
1001
ACAD
1000
MTEXTBEGIN
1070
    73
1070
     1
1070
    44
1040
1.0
1070
    74
1070
     0
1000
MTEXTEND
  0
MTEXT
  5
524
330
1F
100
AcDbEntity
  8
0
  6
Continuous
370
     0
100
AcDbMText
 10
973.6852871437804
 20
493.7577731654472
 30
0.0
 40
1.25
 41
25.0
 71
     5
 72
     5
  1
{\fMS Gothic|b0|i0|c128|p48;**********************}
  7
ゴシック
 73
     1
 44
1.0
1001
ACAD
1000
MTEXTBEGIN
1070
    73
1070
     1
1070
    44
1040
1.0
1070
    74
1070
     0
1000
MTEXTEND
  0
MTEXT
  5
525
330
1F
100
AcDbEntity
  8
0
  6
Continuous
370
     0
100
AcDbMText
 10
951.1852871437804
 20
496.2577731654472
 30
0.0
 40
1.25
 41
4.0
 71
     5
 72
     5
  1
{\fMS Gothic|b0|i0|c128|p48;副番\fArial|b0|i0|c0|p32;}
  7
ゴシック
 73
     1
 44
1.0
1001
ACAD
1000
MTEXTBEGIN
1070
    73
1070
     1
1070
    44
1040
1.0
1070
    74
1070
     0
1000
MTEXTEND
  0
MTEXT
  5
526
330
1F
100
AcDbEntity
  8
0
  6
Continuous
370
     0
100
AcDbMText
 10
957.1852871437805
 20
496.2577731654472
 30
0.0
 40
1.25
 41
8.0
 71
     5
 72
     5
  1
{\fMS Gothic|b0|i0|c128|p48;改訂日\fArial|b0|i0|c0|p32;}
  7
ゴシック
 73
     1
 44
1.0
1001
ACAD
1000
MTEXTBEGIN
1070
    73
1070
     1
1070
    44
1040
1.0
1070
    74
1070
     0
1000
MTEXTEND
  0
MTEXT
  5
527
330
1F
100
AcDbEntity
  8
0
  6
Continuous
370
     0
100
AcDbMText
 10
957.1852871437805
 20
493.7577731654472
 30
0.0
 40
1.25
 41
8.0
 71
     5
 72
     5
  1
{\fMS Gothic|b0|i0|c128|p48;H**.**.**}
  7
ゴシック
 73
     1
 44
1.0
1001
ACAD
1000
MTEXTBEGIN
1070
    73
1070
     1
1070
    44
1040
1.0
1070
    74
1070
     0
1000
MTEXTEND
  0
ENDSEC
  0
SECTION
  2
OBJECTS
  0
DICTIONARY
  5
C
330
0
100
AcDbDictionary
281
     1
  3
ACAD_COLOR
350
6B
  3
ACAD_GROUP
350
D
  3
ACAD_LAYOUT
350
1A
  3
ACAD_MATERIAL
350
6A
  3
ACAD_MLINESTYLE
350
17
  3
ACAD_PLOTSETTINGS
350
19
  3
ACAD_PLOTSTYLENAME
350
E
  3
ACDBHEADERROUNDTRIPXREC
350
605
  3
AcDbVariableDictionary
350
5E
  0
DICTIONARY
  5
168
330
2
100
AcDbDictionary
280
     1
281
     1
  3
ACAD_LAYERSTATES
360
169
  0
DICTIONARY
  5
88
330
87
100
AcDbDictionary
280
     1
281
     1
  0
DICTIONARY
  5
9B
330
9A
100
AcDbDictionary
280
     1
281
     1
  0
DICTIONARY
  5
AA
330
A9
100
AcDbDictionary
280
     1
281
     1
  0
DICTIONARY
  5
BD
330
BC
100
AcDbDictionary
280
     1
281
     1
  0
DICTIONARY
  5
3D8
330
3D7
100
AcDbDictionary
280
     1
281
     1
  3
ACAD_DIMASSOC
360
3D9
  0
DICTIONARY
  5
3DB
330
3DA
100
AcDbDictionary
280
     1
281
     1
  3
ACAD_DIMASSOC
360
3DC
  0
DICTIONARY
  5
3DE
330
3DD
100
AcDbDictionary
280
     1
281
     1
  3
ACAD_DIMASSOC
360
3DF
  0
DICTIONARY
  5
3E1
330
3E0
100
AcDbDictionary
280
     1
281
     1
  3
ACAD_DIMASSOC
360
3E2
  0
DICTIONARY
  5
421
330
420
100
AcDbDictionary
280
     1
281
     1
  3
ACAD_DIMASSOC
360
422
  0
DICTIONARY
  5
424
330
423
100
AcDbDictionary
280
     1
281
     1
  3
ACAD_DIMASSOC
360
425
  0
DICTIONARY
  5
441
330
440
100
AcDbDictionary
280
     1
281
     1
  3
ACAD_DIMASSOC
360
442
  0
DICTIONARY
  5
444
330
443
100
AcDbDictionary
280
     1
281
     1
  3
ACAD_DIMASSOC
360
445
  0
DICTIONARY
  5
450
330
44F
100
AcDbDictionary
280
     1
281
     1
  3
ACAD_DIMASSOC
360
451
  0
DICTIONARY
  5
6B
102
{ACAD_REACTORS
330
C
102
}
330
C
100
AcDbDictionary
281
     1
  0
DICTIONARY
  5
D
102
{ACAD_REACTORS
330
C
102
}
330
C
100
AcDbDictionary
281
     1
  0
DICTIONARY
  5
1A
102
{ACAD_REACTORS
330
C
102
}
330
C
100
AcDbDictionary
281
     1
  3
Model
350
22
  3
レイアウト1
350
51
  3
レイアウト2
350
56
  0
DICTIONARY
  5
6A
102
{ACAD_REACTORS
330
C
102
}
330
C
100
AcDbDictionary
281
     1
  0
DICTIONARY
  5
17
102
{ACAD_REACTORS
330
C
102
}
330
C
100
AcDbDictionary
281
     1
  3
Standard
350
18
  0
DICTIONARY
  5
19
102
{ACAD_REACTORS
330
C
102
}
330
C
100
AcDbDictionary
281
     1
  0
ACDBDICTIONARYWDFLT
  5
E
102
{ACAD_REACTORS
330
C
102
}
330
C
100
AcDbDictionary
281
     1
  3
Normal
350
F
100
AcDbDictionaryWithDefault
340
F
  0
DICTIONARY
  5
605
102
{ACAD_REACTORS
330
C
102
}
330
C
100
AcDbDictionary
281
     1
  3
COLORDICT
350
607
  3
MATERIALDICT
350
606
  0
DICTIONARY
  5
5E
102
{ACAD_REACTORS
330
C
102
}
330
C
100
AcDbDictionary
281
     1
  3
DIMASSOC
350
5F
  3
HIDETEXT
350
63
  3
PROJECTNAME
350
603
  0
DICTIONARY
  5
169
102
{ACAD_REACTORS
330
168
102
}
330
168
100
AcDbDictionary
281
     1
  0
DIMASSOC
  5
3D9
102
{ACAD_REACTORS
330
3D8
102
}
330
3D8
100
AcDbDimAssoc
330
3D7
 90
        3
 70
     0
 71
     0
  1
AcDbOsnapPointRef
 72
     1
331
3CE
 73
     2
 91
        0
 40
3.141592653589793
 10
0.0
 20
0.0
 30
2.000000000000000E+50
 75
     0
  1
AcDbOsnapPointRef
 72
    13
331
3C8
 73
     2
 91
        0
 40
0.0
 10
0.0
 20
0.0
 30
2.000000000000000E+50
 75
     0
  0
DIMASSOC
  5
3DC
102
{ACAD_REACTORS
330
3DB
102
}
330
3DB
100
AcDbDimAssoc
330
3DA
 90
        2
 70
     0
 71
     0
  1
AcDbOsnapPointRef
 72
     1
331
3C7
 73
     2
 91
        0
 40
1.0
 10
0.0
 20
0.0
 30
2.000000000000000E+50
 75
     0
  0
DIMASSOC
  5
3DF
102
{ACAD_REACTORS
330
3DE
102
}
330
3DE
100
AcDbDimAssoc
330
3DD
 90
        1
 70
     0
 71
     0
  1
AcDbOsnapPointRef
 72
     1
331
3D0
 73
     2
 91
        0
 40
3.141592653587863
 10
0.0
 20
0.0
 30
2.000000000000000E+50
 75
     0
  0
DIMASSOC
  5
3E2
102
{ACAD_REACTORS
330
3E1
102
}
330
3E1
100
AcDbDimAssoc
330
3E0
 90
        3
 70
     0
 71
     0
  1
AcDbOsnapPointRef
 72
     1
331
3CA
 73
     2
 91
        0
 40
7.853981633974482
 10
0.0
 20
0.0
 30
2.000000000000000E+50
 75
     0
  1
AcDbOsnapPointRef
 72
    13
331
3CA
 73
     2
 91
        0
 40
4.712388980384689
 10
0.0
 20
0.0
 30
2.000000000000000E+50
 75
     0
  0
DIMASSOC
  5
422
102
{ACAD_REACTORS
330
421
102
}
330
421
100
AcDbDimAssoc
330
420
 90
        3
 70
     0
 71
     0
  1
AcDbOsnapPointRef
 72
     1
331
43A
 73
     2
 91
        0
 40
1.570796326794896
 10
0.0
 20
0.0
 30
2.000000000000000E+50
 75
     0
  1
AcDbOsnapPointRef
 72
     1
331
436
 73
     2
 91
        0
 40
1.0
 10
0.0
 20
0.0
 30
2.000000000000000E+50
 75
     0
  0
DIMASSOC
  5
425
102
{ACAD_REACTORS
330
424
102
}
330
424
100
AcDbDimAssoc
330
423
 90
        3
 70
     0
 71
     0
  1
AcDbOsnapPointRef
 72
    11
331
433
 73
     2
 91
        0
 40
0.999999999999998
 10
0.0
 20
0.0
 30
0.0
332
43E
 74
     2
 92
        0
 75
     0
  1
AcDbOsnapPointRef
 72
    13
331
434
 73
     2
 91
        0
 40
0.0
 10
0.0
 20
0.0
 30
2.000000000000000E+50
 75
     0
  0
DIMASSOC
  5
442
102
{ACAD_REACTORS
330
441
102
}
330
441
100
AcDbDimAssoc
330
440
 90
        2
 70
     0
 71
     0
  1
AcDbOsnapPointRef
 72
    11
331
412
 73
     2
 91
        0
 40
-0.0000000000010105
 10
0.0
 20
0.0
 30
0.0
332
411
 74
     2
 92
        0
 75
     0
  0
DIMASSOC
  5
445
102
{ACAD_REACTORS
330
444
102
}
330
444
100
AcDbDimAssoc
330
443
 90
        3
 70
     0
 71
     0
  1
AcDbOsnapPointRef
 72
     1
331
448
 73
     2
 91
        0
 40
1.0
 10
0.0
 20
0.0
 30
2.000000000000000E+50
 75
     0
  1
AcDbOsnapPointRef
 72
    13
331
447
 73
     2
 91
        0
 40
0.0
 10
0.0
 20
0.0
 30
2.000000000000000E+50
 75
     0
  0
DIMASSOC
  5
451
102
{ACAD_REACTORS
330
450
102
}
330
450
100
AcDbDimAssoc
330
44F
 90
        2
 70
     0
 71
     0
  1
AcDbOsnapPointRef
 72
     1
331
44B
 73
     2
 91
        0
 40
1.0
 10
0.0
 20
0.0
 30
2.000000000000000E+50
 75
     0
  0
LAYOUT
  5
22
102
{ACAD_XDICTIONARY
360
608
102
}
102
{ACAD_REACTORS
330
1A
102
}
330
1A
100
AcDbPlotSettings
  1

  2
none_device
  4
ANSI_A_(8.50_x_11.00_Inches)
  6

 40
6.349999904632568
 41
19.04999923706055
 42
6.350006103515625
 43
19.04998779296875
 44
215.8999938964844
 45
279.3999938964844
 46
0.0
 47
0.0
 48
0.0
 49
0.0
140
0.0
141
0.0
142
1.0
143
78.436453180766
 70
 11952
 72
     0
 73
     1
 74
     0
  7

 75
     0
147
0.0127491741332998
148
0.0
149
0.0
100
AcDbLayout
  1
Model
 70
     1
 71
     0
 10
0.0
 20
0.0
 11
12.0
 21
9.0
 12
0.0
 22
0.0
 32
0.0
 14
0.0
 24
0.0
 34
0.0
 15
0.0
 25
0.0
 35
0.0
146
0.0
 13
0.0
 23
0.0
 33
0.0
 16
1.0
 26
0.0
 36
0.0
 17
0.0
 27
1.0
 37
0.0
 76
     0
330
1F
  0
LAYOUT
  5
51
102
{ACAD_XDICTIONARY
360
60A
102
}
102
{ACAD_REACTORS
330
1A
102
}
330
1A
100
AcDbPlotSettings
  1

  2
None
  4

  6

 40
0.0
 41
0.0
 42
0.0
 43
0.0
 44
0.0
 45
0.0
 46
0.0
 47
0.0
 48
0.0
 49
0.0
140
0.0
141
0.0
142
1.0
143
1.0
 70
   688
 72
     0
 73
     0
 74
     5
  7

 75
    16
147
1.0
148
0.0
149
0.0
100
AcDbLayout
  1
レイアウト1
 70
     1
 71
     1
 10
0.0
 20
0.0
 11
12.0
 21
9.0
 12
0.0
 22
0.0
 32
0.0
 14
0.0
 24
0.0
 34
0.0
 15
0.0
 25
0.0
 35
0.0
146
0.0
 13
0.0
 23
0.0
 33
0.0
 16
1.0
 26
0.0
 36
0.0
 17
0.0
 27
1.0
 37
0.0
 76
     0
330
50
  0
LAYOUT
  5
56
102
{ACAD_XDICTIONARY
360
60C
102
}
102
{ACAD_REACTORS
330
1A
102
}
330
1A
100
AcDbPlotSettings
  1

  2
None
  4

  6

 40
0.0
 41
0.0
 42
0.0
 43
0.0
 44
0.0
 45
0.0
 46
0.0
 47
0.0
 48
0.0
 49
0.0
140
0.0
141
0.0
142
1.0
143
1.0
 70
   688
 72
     0
 73
     0
 74
     5
  7

 75
    16
147
1.0
148
0.0
149
0.0
100
AcDbLayout
  1
レイアウト2
 70
     1
 71
     2
 10
0.0
 20
0.0
 11
12.0
 21
9.0
 12
0.0
 22
0.0
 32
0.0
 14
0.0
 24
0.0
 34
0.0
 15
0.0
 25
0.0
 35
0.0
146
0.0
 13
0.0
 23
0.0
 33
0.0
 16
1.0
 26
0.0
 36
0.0
 17
0.0
 27
1.0
 37
0.0
 76
     0
330
55
  0
MLINESTYLE
  5
18
102
{ACAD_REACTORS
330
17
102
}
330
17
100
AcDbMlineStyle
  2
STANDARD
 70
     0
  3

 62
   256
 51
90.0
 52
90.0
 71
     2
 49
0.5
 62
   256
  6
BYLAYER
 49
-0.5
 62
   256
  6
BYLAYER
  0
ACDBPLACEHOLDER
  5
F
102
{ACAD_REACTORS
330
E
102
}
330
E
  0
XRECORD
  5
607
102
{ACAD_REACTORS
330
605
102
}
330
605
100
AcDbXrecord
280
     1
340
6B
  0
XRECORD
  5
606
102
{ACAD_REACTORS
330
605
102
}
330
605
100
AcDbXrecord
280
     1
340
6A
  0
DICTIONARYVAR
  5
5F
102
{ACAD_REACTORS
330
5E
102
}
330
5E
100
DictionaryVariables
280
     0
  1
2
  0
DICTIONARYVAR
  5
63
102
{ACAD_REACTORS
330
5E
102
}
330
5E
100
DictionaryVariables
280
     0
  1
1
  0
DICTIONARYVAR
  5
603
102
{ACAD_REACTORS
330
5E
102
}
330
5E
100
DictionaryVariables
280
     0
  1

  0
DICTIONARY
  5
608
330
22
100
AcDbDictionary
280
     1
281
     1
  3
ACAD_XREC_ROUNDTRIP
360
609
  0
DICTIONARY
  5
60A
330
51
100
AcDbDictionary
280
     1
281
     1
  3
ACAD_XREC_ROUNDTRIP
360
60B
  0
DICTIONARY
  5
60C
330
56
100
AcDbDictionary
280
     1
281
     1
  3
ACAD_XREC_ROUNDTRIP
360
60D
  0
XRECORD
  5
609
102
{ACAD_REACTORS
330
608
102
}
330
608
100
AcDbXrecord
280
     1
102
SHADEPLOT
 70
     0
102
SHADEPLOTRESLEVEL
 70
     2
102
SHADEPLOTCUSTOMDPI
 70
   300
  0
XRECORD
  5
60B
102
{ACAD_REACTORS
330
60A
102
}
330
60A
100
AcDbXrecord
280
     1
102
SHADEPLOT
 70
     0
102
SHADEPLOTRESLEVEL
 70
     2
102
SHADEPLOTCUSTOMDPI
 70
   300
  0
XRECORD
  5
60D
102
{ACAD_REACTORS
330
60C
102
}
330
60C
100
AcDbXrecord
280
     1
102
SHADEPLOT
 70
     0
102
SHADEPLOTRESLEVEL
 70
     2
102
SHADEPLOTCUSTOMDPI
 70
   300
  0
ENDSEC
  0
EOF
