  0
SECTION
  2
HEADER
  9
$ACADVER
  1
AC1015
  9
$ACADMAINTVER
 70
    20
  9
$DWGCODEPAGE
  3
ANSI_932
  9
$INSBASE
 10
0.0
 20
0.0
 30
0.0
  9
$EXTMIN
 10
-187.7493470341505
 20
-942.1848389574911
 30
-0.0015258207003583
  9
$EXTMAX
 10
1862.175762829274
 20
500.2507114348941
 30
0.0000000349246037
  9
$LIMMIN
 10
0.0
 20
0.0
  9
$LIMMAX
 10
0.0
 20
0.0
  9
$ORTHOMODE
 70
     1
  9
$REGENMODE
 70
     1
  9
$FILLMODE
 70
     1
  9
$QTEXTMODE
 70
     0
  9
$MIRRTEXT
 70
     1
  9
$LTSCALE
 40
1.0
  9
$ATTMODE
 70
     1
  9
$TEXTSIZE
 40
0.35
  9
$TRACEWID
 40
0.05
  9
$TEXTSTYLE
  7
Standard
  9
$CLAYER
  8
0
  9
$CELTYPE
  6
Continuous
  9
$CECOLOR
 62
   256
  9
$CELTSCALE
 40
1.0
  9
$DISPSILH
 70
     0
  9
$DIMSCALE
 40
1.0
  9
$DIMASZ
 40
3.0
  9
$DIMEXO
 40
1.0
  9
$DIMDLI
 40
0.38
  9
$DIMRND
 40
0.0
  9
$DIMDLE
 40
0.0
  9
$DIMEXE
 40
0.5
  9
$DIMTP
 40
0.0
  9
$DIMTM
 40
0.0
  9
$DIMTXT
 40
3.527777777777777
  9
$DIMCEN
 40
0.09
  9
$DIMTSZ
 40
0.0
  9
$DIMTOL
 70
     0
  9
$DIMLIM
 70
     0
  9
$DIMTIH
 70
     0
  9
$DIMTOH
 70
     0
  9
$DIMSE1
 70
     0
  9
$DIMSE2
 70
     0
  9
$DIMTAD
 70
     1
  9
$DIMZIN
 70
     0
  9
$DIMBLK
  1

  9
$DIMASO
 70
     1
  9
$DIMSHO
 70
     1
  9
$DIMPOST
  1

  9
$DIMAPOST
  1

  9
$DIMALT
 70
     0
  9
$DIMALTD
 70
     3
  9
$DIMALTF
 40
25.4
  9
$DIMLFAC
 40
1.0
  9
$DIMTOFL
 70
     0
  9
$DIMTVP
 40
0.0
  9
$DIMTIX
 70
     0
  9
$DIMSOXD
 70
     0
  9
$DIMSAH
 70
     0
  9
$DIMBLK1
  1

  9
$DIMBLK2
  1

  9
$DIMSTYLE
  2
Standard
  9
$DIMCLRD
 70
     7
  9
$DIMCLRE
 70
     7
  9
$DIMCLRT
 70
     7
  9
$DIMTFAC
 40
1.0
  9
$DIMGAP
 40
1.0
  9
$DIMJUST
 70
     0
  9
$DIMSD1
 70
     0
  9
$DIMSD2
 70
     0
  9
$DIMTOLJ
 70
     1
  9
$DIMTZIN
 70
     0
  9
$DIMALTZ
 70
     0
  9
$DIMALTTZ
 70
     0
  9
$DIMUPT
 70
     0
  9
$DIMDEC
 70
     3
  9
$DIMTDEC
 70
     4
  9
$DIMALTU
 70
     2
  9
$DIMALTTD
 70
     2
  9
$DIMTXSTY
  7
Standard
  9
$DIMAUNIT
 70
     0
  9
$DIMADEC
 70
     0
  9
$DIMALTRND
 40
0.0
  9
$DIMAZIN
 70
     0
  9
$DIMDSEP
 70
     0
  9
$DIMATFIT
 70
     3
  9
$DIMFRAC
 70
     0
  9
$DIMLDRBLK
  1

  9
$DIMLUNIT
 70
     2
  9
$DIMLWD
 70
     0
  9
$DIMLWE
 70
     0
  9
$DIMTMOVE
 70
     0
  9
$LUNITS
 70
     2
  9
$LUPREC
 70
     4
  9
$SKETCHINC
 40
0.1
  9
$FILLETRAD
 40
0.0
  9
$AUNITS
 70
     0
  9
$AUPREC
 70
     0
  9
$MENU
  1
acad
  9
$ELEVATION
 40
0.0
  9
$PELEVATION
 40
0.0
  9
$THICKNESS
 40
0.0
  9
$LIMCHECK
 70
     0
  9
$CHAMFERA
 40
0.0
  9
$CHAMFERB
 40
0.0
  9
$CHAMFERC
 40
0.0
  9
$CHAMFERD
 40
0.0
  9
$SKPOLY
 70
     0
  9
$TDCREATE
 40
2456937.952199074
  9
$TDUCREATE
 40
2456937.577199074
  9
$TDUPDATE
 40
2456937.605559167
  9
$TDUUPDATE
 40
2456937.230559167
  9
$TDINDWG
 40
0.0041570833
  9
$TDUSRTIMER
 40
0.0041570833
  9
$USRTIMER
 70
     1
  9
$ANGBASE
 50
0.0
  9
$ANGDIR
 70
     0
  9
$PDMODE
 70
     0
  9
$PDSIZE
 40
0.0
  9
$PLINEWID
 40
0.0
  9
$SPLFRAME
 70
     0
  9
$SPLINETYPE
 70
     6
  9
$SPLINESEGS
 70
     8
  9
$HANDSEED
  5
467
  9
$SURFTAB1
 70
     6
  9
$SURFTAB2
 70
     6
  9
$SURFTYPE
 70
     6
  9
$SURFU
 70
     6
  9
$SURFV
 70
     6
  9
$UCSBASE
  2

  9
$UCSNAME
  2

  9
$UCSORG
 10
0.0
 20
0.0
 30
0.0
  9
$UCSXDIR
 10
1.0
 20
0.0
 30
0.0
  9
$UCSYDIR
 10
0.0
 20
1.0
 30
0.0
  9
$UCSORTHOREF
  2

  9
$UCSORTHOVIEW
 70
     0
  9
$UCSORGTOP
 10
0.0
 20
0.0
 30
0.0
  9
$UCSORGBOTTOM
 10
0.0
 20
0.0
 30
0.0
  9
$UCSORGLEFT
 10
0.0
 20
0.0
 30
0.0
  9
$UCSORGRIGHT
 10
0.0
 20
0.0
 30
0.0
  9
$UCSORGFRONT
 10
0.0
 20
0.0
 30
0.0
  9
$UCSORGBACK
 10
0.0
 20
0.0
 30
0.0
  9
$PUCSBASE
  2

  9
$PUCSNAME
  2

  9
$PUCSORG
 10
0.0
 20
0.0
 30
0.0
  9
$PUCSXDIR
 10
1.0
 20
0.0
 30
0.0
  9
$PUCSYDIR
 10
0.0
 20
1.0
 30
0.0
  9
$PUCSORTHOREF
  2

  9
$PUCSORTHOVIEW
 70
     0
  9
$PUCSORGTOP
 10
0.0
 20
0.0
 30
0.0
  9
$PUCSORGBOTTOM
 10
0.0
 20
0.0
 30
0.0
  9
$PUCSORGLEFT
 10
0.0
 20
0.0
 30
0.0
  9
$PUCSORGRIGHT
 10
0.0
 20
0.0
 30
0.0
  9
$PUCSORGFRONT
 10
0.0
 20
0.0
 30
0.0
  9
$PUCSORGBACK
 10
0.0
 20
0.0
 30
0.0
  9
$USERI1
 70
     0
  9
$USERI2
 70
     0
  9
$USERI3
 70
     0
  9
$USERI4
 70
     0
  9
$USERI5
 70
     0
  9
$USERR1
 40
0.0
  9
$USERR2
 40
0.0
  9
$USERR3
 40
0.0
  9
$USERR4
 40
0.0
  9
$USERR5
 40
0.0
  9
$WORLDVIEW
 70
     1
  9
$SHADEDGE
 70
     3
  9
$SHADEDIF
 70
    70
  9
$TILEMODE
 70
     1
  9
$MAXACTVP
 70
    16
  9
$PINSBASE
 10
0.0
 20
0.0
 30
0.0
  9
$PLIMCHECK
 70
     0
  9
$PEXTMIN
 10
1.000000000000000E+20
 20
1.000000000000000E+20
 30
1.000000000000000E+20
  9
$PEXTMAX
 10
-1.000000000000000E+20
 20
-1.000000000000000E+20
 30
-1.000000000000000E+20
  9
$PLIMMIN
 10
0.0
 20
0.0
  9
$PLIMMAX
 10
12.0
 20
9.0
  9
$UNITMODE
 70
     0
  9
$VISRETAIN
 70
     0
  9
$PLINEGEN
 70
     1
  9
$PSLTSCALE
 70
     0
  9
$TREEDEPTH
 70
  3020
  9
$CMLSTYLE
  2
Standard
  9
$CMLJUST
 70
     0
  9
$CMLSCALE
 40
1.0
  9
$PROXYGRAPHICS
 70
     0
  9
$MEASUREMENT
 70
     0
  9
$CELWEIGHT
370
     0
  9
$ENDCAPS
280
     0
  9
$JOINSTYLE
280
     0
  9
$LWDISPLAY
290
     0
  9
$INSUNITS
 70
     0
  9
$HYPERLINKBASE
  1

  9
$STYLESHEET
  1

  9
$XEDIT
290
     1
  9
$CEPSNTYPE
380
     0
  9
$PSTYLEMODE
290
     1
  9
$FINGERPRINTGUID
  2

  9
$VERSIONGUID
  2
{D3548335-8FF2-469A-A89D-D2DE4E476144}
  9
$EXTNAMES
290
     1
  9
$PSVPSCALE
 40
0.0
  9
$OLESTARTUP
290
     0
  0
ENDSEC
  0
SECTION
  2
CLASSES
  0
CLASS
  1
IMAGE
  2
AcDbRasterImage
  3
ISM
 90
    32895
280
     0
281
     1
  0
CLASS
  1
DICTIONARYVAR
  2
AcDbDictionaryVar
  3
ObjectDBX Classes
 90
        0
280
     0
281
     0
  0
CLASS
  1
RASTERVARIABLES
  2
AcDbRasterVariables
  3
ISM
 90
    32768
280
     0
281
     0
  0
CLASS
  1
IMAGEDEF
  2
AcDbRasterImageDef
  3
ISM
 90
    32768
280
     0
281
     0
  0
CLASS
  1
IMAGEDEF_REACTOR
  2
AcDbRasterImageDefReactor
  3
ISM
 90
    32769
280
     0
281
     0
  0
CLASS
  1
IDBUFFER
  2
AcDbIdBuffer
  3
ObjectDBX Classes
 90
    32768
280
     0
281
     0
  0
CLASS
  1
SPATIAL_FILTER
  2
AcDbSpatialFilter
  3
ObjectDBX Classes
 90
    32768
280
     0
281
     0
  0
CLASS
  1
SORTENTSTABLE
  2
AcDbSortentsTable
  3
ObjectDBX Classes
 90
    32768
280
     0
281
     0
  0
CLASS
  1
LAYER_INDEX
  2
AcDbLayerIndex
  3
ObjectDBX Classes
 90
    32768
280
     0
281
     0
  0
CLASS
  1
SPATIAL_INDEX
  2
AcDbSpatialIndex
  3
ObjectDBX Classes
 90
    32768
280
     0
281
     0
  0
CLASS
  1
OBJECT_PTR
  2
CAseDLPNTableRecord
  3
ASE-LPNTableRecord
 90
    32769
280
     0
281
     0
  0
CLASS
  1
LAYOUT
  2
AcDbLayout
  3
ObjectDBX Classes
 90
        0
280
     0
281
     0
  0
CLASS
  1
PLOTSETTINGS
  2
AcDbPlotSettings
  3
ObjectDBX Classes
 90
    32768
280
     0
281
     0
  0
CLASS
  1
ACDBDICTIONARYWDFLT
  2
AcDbDictionaryWithDefault
  3
ObjectDBX Classes
 90
        0
280
     0
281
     0
  0
CLASS
  1
ACDBPLACEHOLDER
  2
AcDbPlaceHolder
  3
ObjectDBX Classes
 90
        0
280
     0
281
     0
  0
CLASS
  1
VBA_PROJECT
  2
AcDbVbaProject
  3
acad
 90
    32768
280
     0
281
     0
  0
CLASS
  1
WIPEOUT
  2
AcDbWipeout
  3
"WipeOut|Product Desc: Object Enabler for WipeOut entity^I^I^I^I^I^I|Company: Autodesk, Inc.^I^I^I^I^I^I|WEB Address: www.autodesk.com"
 90
    32895
280
     0
281
     1
  0
CLASS
  1
WIPEOUTVARIABLES
  2
AcDbWipeoutVariables
  3
"WipeOut|Product Desc:     WipeOut Dbx Application|Company:          Autodesk, Inc.|WEB Address:      www.autodesk.com"
 90
        0
280
     0
281
     0
  0
CLASS
  1
RTEXT
  2
RText
  3
RText|AutoCAD Express Tool|expresstools@autodesk.com
 90
    32768
280
     0
281
     1
  0
CLASS
  1
ARCALIGNEDTEXT
  2
AcDbArcAlignedText
  3
ATEXT|AutoCAD Express Tool|expresstools@autodesk.com
 90
    32768
280
     0
281
     1
  0
ENDSEC
  0
SECTION
  2
TABLES
  0
TABLE
  2
VPORT
  5
7
330
0
100
AcDbSymbolTable
 70
     5
  0
VPORT
  5
45F
330
7
100
AcDbSymbolTableRecord
100
AcDbViewportTableRecord
  2
*Active
 70
     0
 10
0.0
 20
0.0
 11
1.0
 21
1.0
 12
837.2132078975621
 22
-220.9670637612985
 13
0.0
 23
0.0
 14
1.0
 24
1.0
 15
0.0
 25
0.0
 16
0.0
 26
0.0
 36
1.0
 17
0.0
 27
0.0
 37
0.0
 40
1455.430465260785
 41
2.530827067669172
 42
50.0
 43
0.0
 44
0.0
 50
0.0
 51
0.0
 71
     0
 72
   100
 73
     1
 74
     1
 75
     0
 76
     0
 77
     0
 78
     0
281
     0
 65
     0
110
0.0
120
0.0
130
0.0
111
1.0
121
0.0
131
0.0
112
0.0
122
1.0
132
0.0
 79
     0
146
0.0
  0
ENDTAB
  0
TABLE
  2
LTYPE
  5
4
330
0
100
AcDbSymbolTable
 70
    11
  0
LTYPE
  5
11
330
4
100
AcDbSymbolTableRecord
100
AcDbLinetypeTableRecord
  2
ByBlock
 70
     0
  3

 72
    65
 73
     0
 40
0.0
  0
LTYPE
  5
12
330
4
100
AcDbSymbolTableRecord
100
AcDbLinetypeTableRecord
  2
ByLayer
 70
     0
  3

 72
    65
 73
     0
 40
0.0
  0
LTYPE
  5
13
330
4
100
AcDbSymbolTableRecord
100
AcDbLinetypeTableRecord
  2
Continuous
 70
     0
  3
Solid line
 72
    65
 73
     0
 40
0.0
  0
LTYPE
  5
24
330
4
100
AcDbSymbolTableRecord
100
AcDbLinetypeTableRecord
  2
DOT
 70
     0
  3

 72
    65
 73
     2
 40
1.0
 49
0.0
 74
     0
 49
-1.0
 74
     0
  0
LTYPE
  5
25
330
4
100
AcDbSymbolTableRecord
100
AcDbLinetypeTableRecord
  2
DASHEDX2
 70
     0
  3

 72
    65
 73
     2
 40
4.0
 49
3.0
 74
     0
 49
-1.0
 74
     0
  0
LTYPE
  5
26
330
4
100
AcDbSymbolTableRecord
100
AcDbLinetypeTableRecord
  2
DASHED
 70
     0
  3

 72
    65
 73
     2
 40
3.0
 49
2.0
 74
     0
 49
-1.0
 74
     0
  0
LTYPE
  5
27
330
4
100
AcDbSymbolTableRecord
100
AcDbLinetypeTableRecord
  2
DASHED2
 70
     0
  3

 72
    65
 73
     2
 40
2.0
 49
1.0
 74
     0
 49
-1.0
 74
     0
  0
LTYPE
  5
28
330
4
100
AcDbSymbolTableRecord
100
AcDbLinetypeTableRecord
  2
CENTERX2
 70
     0
  3

 72
    65
 73
     4
 40
43.0
 49
40.0
 74
     0
 49
-1.0
 74
     0
 49
1.0
 74
     0
 49
-1.0
 74
     0
  0
LTYPE
  5
29
330
4
100
AcDbSymbolTableRecord
100
AcDbLinetypeTableRecord
  2
CENTER
 70
     0
  3

 72
    65
 73
     4
 40
33.0
 49
30.0
 74
     0
 49
-1.0
 74
     0
 49
1.0
 74
     0
 49
-1.0
 74
     0
  0
LTYPE
  5
2A
330
4
100
AcDbSymbolTableRecord
100
AcDbLinetypeTableRecord
  2
CENTER2
 70
     0
  3

 72
    65
 73
     4
 40
23.0
 49
20.0
 74
     0
 49
-1.0
 74
     0
 49
1.0
 74
     0
 49
-1.0
 74
     0
  0
LTYPE
  5
2B
330
4
100
AcDbSymbolTableRecord
100
AcDbLinetypeTableRecord
  2
PHANTOMX2
 70
     0
  3

 72
    65
 73
     6
 40
45.0
 49
40.0
 74
     0
 49
-1.0
 74
     0
 49
1.0
 74
     0
 49
-1.0
 74
     0
 49
1.0
 74
     0
 49
-1.0
 74
     0
  0
LTYPE
  5
2C
330
4
100
AcDbSymbolTableRecord
100
AcDbLinetypeTableRecord
  2
PHANTOM
 70
     0
  3

 72
    65
 73
     6
 40
35.0
 49
30.0
 74
     0
 49
-1.0
 74
     0
 49
1.0
 74
     0
 49
-1.0
 74
     0
 49
1.0
 74
     0
 49
-1.0
 74
     0
  0
LTYPE
  5
2D
330
4
100
AcDbSymbolTableRecord
100
AcDbLinetypeTableRecord
  2
PHANTOM2
 70
     0
  3

 72
    65
 73
     6
 40
25.0
 49
20.0
 74
     0
 49
-1.0
 74
     0
 49
1.0
 74
     0
 49
-1.0
 74
     0
 49
1.0
 74
     0
 49
-1.0
 74
     0
  0
ENDTAB
  0
TABLE
  2
LAYER
  5
2
330
0
100
AcDbSymbolTable
 70
    13
  0
LAYER
  5
14
330
2
100
AcDbSymbolTableRecord
100
AcDbLayerTableRecord
  2
0
 70
     0
 62
     7
  6
Continuous
370
    -3
390
1D
  0
LAYER
  5
2E
330
2
100
AcDbSymbolTableRecord
100
AcDbLayerTableRecord
  2
DEFPOINTS
 70
     0
 62
     7
  6
Continuous
290
     0
370
    -3
390
1D
  0
LAYER
  5
2F
330
2
100
AcDbSymbolTableRecord
100
AcDbLayerTableRecord
  2
____1
 70
     0
 62
     7
  6
DASHED2
370
    -3
390
1D
  0
LAYER
  5
30
330
2
100
AcDbSymbolTableRecord
100
AcDbLayerTableRecord
  2
______
 70
     0
 62
     7
  6
Continuous
370
    -3
390
1D
  0
LAYER
  5
31
330
2
100
AcDbSymbolTableRecord
100
AcDbLayerTableRecord
  2
寸法線_1
 70
     0
 62
     7
  6
Continuous
370
    -3
390
1D
  0
LAYER
  5
32
330
2
100
AcDbSymbolTableRecord
100
AcDbLayerTableRecord
  2
CONSTRUCTION
 70
     0
 62
     7
  6
Continuous
370
    -3
390
1D
  0
LAYER
  5
33
330
2
100
AcDbSymbolTableRecord
100
AcDbLayerTableRecord
  2
DIMENSION
 70
     0
 62
     7
  6
Continuous
370
    -3
390
1D
  0
LAYER
  5
34
330
2
100
AcDbSymbolTableRecord
100
AcDbLayerTableRecord
  2
FORMAT
 70
     0
 62
     7
  6
Continuous
370
    -3
390
1D
  0
LAYER
  5
35
330
2
100
AcDbSymbolTableRecord
100
AcDbLayerTableRecord
  2
____2
 70
     0
 62
     5
  6
Continuous
370
    -3
390
1D
  0
LAYER
  5
36
330
2
100
AcDbSymbolTableRecord
100
AcDbLayerTableRecord
  2
0_1
 70
     0
 62
     5
  6
Continuous
370
    -3
390
1D
  0
LAYER
  5
37
330
2
100
AcDbSymbolTableRecord
100
AcDbLayerTableRecord
  2
DEFPOINTS_1
 70
     0
 62
     5
  6
Continuous
370
    -3
390
1D
  0
LAYER
  5
38
330
2
100
AcDbSymbolTableRecord
100
AcDbLayerTableRecord
  2
____
 70
     0
 62
    -7
  6
DOT
370
    -3
390
1D
  0
LAYER
  5
39
330
2
100
AcDbSymbolTableRecord
100
AcDbLayerTableRecord
  2
___G
 70
     0
 62
     7
  6
DOT
370
    -3
390
1D
  0
ENDTAB
  0
TABLE
  2
STYLE
  5
3
330
0
100
AcDbSymbolTable
 70
     2
  0
STYLE
  5
17
330
3
100
AcDbSymbolTableRecord
100
AcDbTextStyleTableRecord
  2
Standard
 70
     0
 40
0.0
 41
1.0
 50
0.0
 71
     0
 42
0.35
  3
txt
  4

  0
STYLE
  5
4D
330
3
100
AcDbSymbolTableRecord
100
AcDbTextStyleTableRecord
  2
Style1
 70
     0
 40
0.0
 41
1.0
 50
0.0
 71
     0
 42
0.35
  3
ＭＳ ゴシック
  4

  0
ENDTAB
  0
TABLE
  2
VIEW
  5
5
330
0
100
AcDbSymbolTable
 70
     0
  0
ENDTAB
  0
TABLE
  2
UCS
  5
6
330
0
100
AcDbSymbolTable
 70
     0
  0
ENDTAB
  0
TABLE
  2
APPID
  5
8
330
0
100
AcDbSymbolTable
 70
     2
  0
APPID
  5
16
330
8
100
AcDbSymbolTableRecord
100
AcDbRegAppTableRecord
  2
ACAD
 70
     0
  0
APPID
  5
458
330
8
100
AcDbSymbolTableRecord
100
AcDbRegAppTableRecord
  2
DCO15
 70
     0
  0
ENDTAB
  0
TABLE
  2
DIMSTYLE
  5
9
330
0
100
AcDbSymbolTable
 70
     2
100
AcDbDimStyleTable
 71
     0
  0
DIMSTYLE
105
18
330
9
100
AcDbSymbolTableRecord
100
AcDbDimStyleTableRecord
  2
Standard
 70
     0
 41
3.0
 42
1.0
 44
0.5
 73
     0
 74
     0
 77
     1
140
3.527777777777777
147
1.0
171
     3
176
     7
177
     7
178
     7
271
     3
289
     0
340
17
  0
DIMSTYLE
105
50
102
{ACAD_REACTORS
330
4F
330
159
330
167
330
176
330
183
330
190
330
19D
330
1AA
330
1B7
330
1C4
330
1D2
330
1E0
330
1ED
330
1FA
330
207
330
214
102
}
330
9
100
AcDbSymbolTableRecord
100
AcDbDimStyleTableRecord
  2
DS1
 70
     0
 41
3.0
 42
1.0
 44
0.5
 73
     0
 74
     0
 77
     1
 78
     8
140
17.63888931274414
147
1.0
171
     3
176
     7
177
     7
178
     7
271
     3
340
17
  0
ENDTAB
  0
TABLE
  2
BLOCK_RECORD
  5
1
330
0
100
AcDbSymbolTable
 70
    57
  0
BLOCK_RECORD
  5
A
330
1
100
AcDbSymbolTableRecord
100
AcDbBlockTableRecord
  2
*MODEL_SPACE
340
20
  0
BLOCK_RECORD
  5
B
330
1
100
AcDbSymbolTableRecord
100
AcDbBlockTableRecord
  2
*PAPER_SPACE
340
21
  0
BLOCK_RECORD
  5
42
330
1
100
AcDbSymbolTableRecord
100
AcDbBlockTableRecord
  2
*D0
340
0
  0
BLOCK_RECORD
  5
54
330
1
100
AcDbSymbolTableRecord
100
AcDbBlockTableRecord
  2
C0
340
0
  0
BLOCK_RECORD
  5
107
330
1
100
AcDbSymbolTableRecord
100
AcDbBlockTableRecord
  2
C1
340
0
102
{BLKREFS
331
10E
102
}
  0
BLOCK_RECORD
  5
10F
330
1
100
AcDbSymbolTableRecord
100
AcDbBlockTableRecord
  2
C2
340
0
102
{BLKREFS
331
116
102
}
  0
BLOCK_RECORD
  5
117
330
1
100
AcDbSymbolTableRecord
100
AcDbBlockTableRecord
  2
C3
340
0
102
{BLKREFS
331
11E
102
}
  0
BLOCK_RECORD
  5
11F
330
1
100
AcDbSymbolTableRecord
100
AcDbBlockTableRecord
  2
C4
340
0
102
{BLKREFS
331
126
102
}
  0
BLOCK_RECORD
  5
127
330
1
100
AcDbSymbolTableRecord
100
AcDbBlockTableRecord
  2
C5
340
0
102
{BLKREFS
331
12E
102
}
  0
BLOCK_RECORD
  5
12F
330
1
100
AcDbSymbolTableRecord
100
AcDbBlockTableRecord
  2
C6
340
0
102
{BLKREFS
331
136
102
}
  0
BLOCK_RECORD
  5
137
330
1
100
AcDbSymbolTableRecord
100
AcDbBlockTableRecord
  2
C7
340
0
102
{BLKREFS
331
13E
102
}
  0
BLOCK_RECORD
  5
13F
330
1
100
AcDbSymbolTableRecord
100
AcDbBlockTableRecord
  2
C8
340
0
102
{BLKREFS
331
146
102
}
  0
BLOCK_RECORD
  5
14B
330
1
100
AcDbSymbolTableRecord
100
AcDbBlockTableRecord
  2
*D10
340
0
  0
BLOCK_RECORD
  5
15A
330
1
100
AcDbSymbolTableRecord
100
AcDbBlockTableRecord
  2
*D11
340
0
  0
BLOCK_RECORD
  5
168
330
1
100
AcDbSymbolTableRecord
100
AcDbBlockTableRecord
  2
*D12
340
0
  0
BLOCK_RECORD
  5
177
330
1
100
AcDbSymbolTableRecord
100
AcDbBlockTableRecord
  2
*D13
340
0
  0
BLOCK_RECORD
  5
184
330
1
100
AcDbSymbolTableRecord
100
AcDbBlockTableRecord
  2
*D14
340
0
  0
BLOCK_RECORD
  5
191
330
1
100
AcDbSymbolTableRecord
100
AcDbBlockTableRecord
  2
*D15
340
0
  0
BLOCK_RECORD
  5
19E
330
1
100
AcDbSymbolTableRecord
100
AcDbBlockTableRecord
  2
*D16
340
0
  0
BLOCK_RECORD
  5
1AB
330
1
100
AcDbSymbolTableRecord
100
AcDbBlockTableRecord
  2
*D17
340
0
  0
BLOCK_RECORD
  5
1B8
330
1
100
AcDbSymbolTableRecord
100
AcDbBlockTableRecord
  2
*D18
340
0
  0
BLOCK_RECORD
  5
1C5
330
1
100
AcDbSymbolTableRecord
100
AcDbBlockTableRecord
  2
*D19
340
0
  0
BLOCK_RECORD
  5
1D3
330
1
100
AcDbSymbolTableRecord
100
AcDbBlockTableRecord
  2
*D20
340
0
  0
BLOCK_RECORD
  5
1E1
330
1
100
AcDbSymbolTableRecord
100
AcDbBlockTableRecord
  2
*D21
340
0
  0
BLOCK_RECORD
  5
1EE
330
1
100
AcDbSymbolTableRecord
100
AcDbBlockTableRecord
  2
*D22
340
0
  0
BLOCK_RECORD
  5
1FB
330
1
100
AcDbSymbolTableRecord
100
AcDbBlockTableRecord
  2
*D23
340
0
  0
BLOCK_RECORD
  5
208
330
1
100
AcDbSymbolTableRecord
100
AcDbBlockTableRecord
  2
*D24
340
0
  0
BLOCK_RECORD
  5
234
330
1
100
AcDbSymbolTableRecord
100
AcDbBlockTableRecord
  2
C9
340
0
102
{BLKREFS
331
23B
102
}
  0
BLOCK_RECORD
  5
23C
330
1
100
AcDbSymbolTableRecord
100
AcDbBlockTableRecord
  2
C10
340
0
102
{BLKREFS
331
243
102
}
  0
BLOCK_RECORD
  5
244
330
1
100
AcDbSymbolTableRecord
100
AcDbBlockTableRecord
  2
C11
340
0
102
{BLKREFS
331
24B
102
}
  0
BLOCK_RECORD
  5
24C
330
1
100
AcDbSymbolTableRecord
100
AcDbBlockTableRecord
  2
C12
340
0
102
{BLKREFS
331
253
102
}
  0
BLOCK_RECORD
  5
254
330
1
100
AcDbSymbolTableRecord
100
AcDbBlockTableRecord
  2
C13
340
0
102
{BLKREFS
331
25B
102
}
  0
BLOCK_RECORD
  5
25C
330
1
100
AcDbSymbolTableRecord
100
AcDbBlockTableRecord
  2
C14
340
0
102
{BLKREFS
331
263
102
}
  0
BLOCK_RECORD
  5
264
330
1
100
AcDbSymbolTableRecord
100
AcDbBlockTableRecord
  2
C15
340
0
102
{BLKREFS
331
26B
102
}
  0
BLOCK_RECORD
  5
26C
330
1
100
AcDbSymbolTableRecord
100
AcDbBlockTableRecord
  2
C16
340
0
102
{BLKREFS
331
273
102
}
  0
BLOCK_RECORD
  5
274
330
1
100
AcDbSymbolTableRecord
100
AcDbBlockTableRecord
  2
C17
340
0
102
{BLKREFS
331
27B
102
}
  0
BLOCK_RECORD
  5
27C
330
1
100
AcDbSymbolTableRecord
100
AcDbBlockTableRecord
  2
C18
340
0
102
{BLKREFS
331
283
102
}
  0
BLOCK_RECORD
  5
284
330
1
100
AcDbSymbolTableRecord
100
AcDbBlockTableRecord
  2
C19
340
0
102
{BLKREFS
331
28B
102
}
  0
BLOCK_RECORD
  5
28C
330
1
100
AcDbSymbolTableRecord
100
AcDbBlockTableRecord
  2
C20
340
0
102
{BLKREFS
331
293
102
}
  0
BLOCK_RECORD
  5
294
330
1
100
AcDbSymbolTableRecord
100
AcDbBlockTableRecord
  2
C21
340
0
102
{BLKREFS
331
29B
102
}
  0
BLOCK_RECORD
  5
29C
330
1
100
AcDbSymbolTableRecord
100
AcDbBlockTableRecord
  2
C22
340
0
102
{BLKREFS
331
2A3
102
}
  0
BLOCK_RECORD
  5
2A4
330
1
100
AcDbSymbolTableRecord
100
AcDbBlockTableRecord
  2
C23
340
0
102
{BLKREFS
331
2AB
102
}
  0
BLOCK_RECORD
  5
2AC
330
1
100
AcDbSymbolTableRecord
100
AcDbBlockTableRecord
  2
C24
340
0
102
{BLKREFS
331
2B3
102
}
  0
BLOCK_RECORD
  5
2B4
330
1
100
AcDbSymbolTableRecord
100
AcDbBlockTableRecord
  2
C25
340
0
102
{BLKREFS
331
2BB
102
}
  0
BLOCK_RECORD
  5
2BC
330
1
100
AcDbSymbolTableRecord
100
AcDbBlockTableRecord
  2
C26
340
0
102
{BLKREFS
331
2C3
102
}
  0
BLOCK_RECORD
  5
2CB
330
1
100
AcDbSymbolTableRecord
100
AcDbBlockTableRecord
  2
C27
340
0
102
{BLKREFS
331
2D2
102
}
  0
BLOCK_RECORD
  5
2D3
330
1
100
AcDbSymbolTableRecord
100
AcDbBlockTableRecord
  2
C28
340
0
102
{BLKREFS
331
2DA
102
}
  0
BLOCK_RECORD
  5
2EC
330
1
100
AcDbSymbolTableRecord
100
AcDbBlockTableRecord
  2
C29
340
0
102
{BLKREFS
331
2F3
102
}
  0
BLOCK_RECORD
  5
2F4
330
1
100
AcDbSymbolTableRecord
100
AcDbBlockTableRecord
  2
C30
340
0
102
{BLKREFS
331
2FB
102
}
  0
BLOCK_RECORD
  5
2FC
330
1
100
AcDbSymbolTableRecord
100
AcDbBlockTableRecord
  2
C31
340
0
102
{BLKREFS
331
303
102
}
  0
BLOCK_RECORD
  5
304
330
1
100
AcDbSymbolTableRecord
100
AcDbBlockTableRecord
  2
C32
340
0
102
{BLKREFS
331
30B
102
}
  0
BLOCK_RECORD
  5
30C
330
1
100
AcDbSymbolTableRecord
100
AcDbBlockTableRecord
  2
C33
340
0
102
{BLKREFS
331
313
102
}
  0
BLOCK_RECORD
  5
314
330
1
100
AcDbSymbolTableRecord
100
AcDbBlockTableRecord
  2
C34
340
0
102
{BLKREFS
331
31B
102
}
  0
BLOCK_RECORD
  5
331
330
1
100
AcDbSymbolTableRecord
100
AcDbBlockTableRecord
  2
C35
340
0
102
{BLKREFS
331
338
102
}
  0
BLOCK_RECORD
  5
339
330
1
100
AcDbSymbolTableRecord
100
AcDbBlockTableRecord
  2
C36
340
0
102
{BLKREFS
331
340
102
}
  0
BLOCK_RECORD
  5
341
330
1
100
AcDbSymbolTableRecord
100
AcDbBlockTableRecord
  2
C37
340
0
102
{BLKREFS
331
348
102
}
  0
BLOCK_RECORD
  5
349
330
1
100
AcDbSymbolTableRecord
100
AcDbBlockTableRecord
  2
C38
340
0
102
{BLKREFS
331
350
102
}
  0
BLOCK_RECORD
  5
351
330
1
100
AcDbSymbolTableRecord
100
AcDbBlockTableRecord
  2
C39
340
0
102
{BLKREFS
331
358
102
}
  0
BLOCK_RECORD
  5
359
330
1
100
AcDbSymbolTableRecord
100
AcDbBlockTableRecord
  2
C40
340
0
102
{BLKREFS
331
360
102
}
  0
ENDTAB
  0
ENDSEC
  0
SECTION
  2
BLOCKS
  0
BLOCK
  5
D
330
A
100
AcDbEntity
  8
0
100
AcDbBlockBegin
  2
*MODEL_SPACE
 70
     0
 10
0.0
 20
0.0
 30
0.0
  3
*MODEL_SPACE
  1

  0
ENDBLK
  5
E
330
A
100
AcDbEntity
  8
0
100
AcDbBlockEnd
  0
BLOCK
  5
F
330
B
100
AcDbEntity
 67
     1
  8
0
100
AcDbBlockBegin
  2
*PAPER_SPACE
 70
     0
 10
0.0
 20
0.0
 30
0.0
  3
*PAPER_SPACE
  1

  0
ENDBLK
  5
10
330
B
100
AcDbEntity
 67
     1
  8
0
100
AcDbBlockEnd
  0
BLOCK
  5
43
330
42
100
AcDbEntity
  8
0
100
AcDbBlockBegin
  2
*D0
 70
     1
 10
0.0
 20
0.0
 30
0.0
  3
*D0
  1

  0
LINE
  5
44
330
42
100
AcDbEntity
  8
____1
  6
Continuous
 62
     7
370
     5
100
AcDbLine
 10
227.6674926859362
 20
31.27254387096423
 30
0.0
 11
227.6674926859362
 21
123.3684437951283
 31
0.0
  0
LINE
  5
45
330
42
100
AcDbEntity
  8
____1
  6
Continuous
 62
     7
370
     5
100
AcDbLine
 10
27.66749268593617
 20
31.27254387096434
 30
0.0
 11
27.66749268593617
 21
123.3684437951283
 31
0.0
  0
SOLID
  5
46
330
42
100
AcDbEntity
  8
____1
  6
Continuous
 62
     7
370
     5
100
AcDbTrace
 10
42.66749268593616
 20
119.1184437951283
 30
0.0
 11
42.66749268593616
 21
119.1184437951283
 31
0.0
 12
27.66749268593617
 22
122.8684437951283
 32
0.0
 13
38.91749268593617
 23
122.8684437951283
 33
0.0
  0
SOLID
  5
47
330
42
100
AcDbEntity
  8
____1
  6
Continuous
 62
     7
370
     5
100
AcDbTrace
 10
27.66749268593617
 20
122.8684437951283
 30
0.0
 11
38.91749268593617
 21
122.8684437951283
 31
0.0
 12
42.66749268593616
 22
126.6184437951283
 32
0.0
 13
42.66749268593616
 23
126.6184437951283
 33
0.0
  0
LINE
  5
48
330
42
100
AcDbEntity
  8
____1
  6
Continuous
 62
     7
370
     5
100
AcDbLine
 10
27.66749268593617
 20
122.8684437951283
 30
0.0
 11
127.6674926859362
 21
122.8684437951283
 31
0.0
  0
SOLID
  5
49
330
42
100
AcDbEntity
  8
____1
  6
Continuous
 62
     7
370
     5
100
AcDbTrace
 10
212.6674926859362
 20
119.1184437951283
 30
0.0
 11
212.6674926859362
 21
119.1184437951283
 31
0.0
 12
216.4174926859362
 22
122.8684437951283
 32
0.0
 13
227.6674926859362
 23
122.8684437951283
 33
0.0
  0
SOLID
  5
4A
330
42
100
AcDbEntity
  8
____1
  6
Continuous
 62
     7
370
     5
100
AcDbTrace
 10
216.4174926859362
 20
122.8684437951283
 30
0.0
 11
227.6674926859362
 21
122.8684437951283
 31
0.0
 12
212.6674926859362
 22
126.6184437951283
 32
0.0
 13
212.6674926859362
 23
126.6184437951283
 33
0.0
  0
LINE
  5
4B
330
42
100
AcDbEntity
  8
____1
  6
Continuous
 62
     7
370
     5
100
AcDbLine
 10
227.6674926859362
 20
122.8684437951283
 30
0.0
 11
127.6674926859362
 21
122.8684437951283
 31
0.0
  0
MTEXT
  5
4C
330
42
100
AcDbEntity
  8
寸法線_1
  6
Continuous
 62
     7
370
     5
100
AcDbMText
 10
114.438325701378
 20
141.5073331078724
 30
0.0
 40
17.63888931274414
 41
26.56168683618307
 71
     1
 72
     1
  1
200
  7
Style1
 73
     1
 44
1.0
1001
ACAD
1000
MTEXTBEGIN
1070
    73
1070
     1
1070
    44
1040
1.0
1070
    74
1070
     0
1000
MTEXTEND
  0
ENDBLK
  5
4E
330
42
100
AcDbEntity
  8
0
100
AcDbBlockEnd
  0
BLOCK
  5
55
330
54
100
AcDbEntity
  8
0
100
AcDbBlockBegin
  2
C0
 70
     0
 10
0.0
 20
0.0
 30
0.0
  3
C0
  1

  0
LINE
  5
56
330
54
100
AcDbEntity
  8
___G
  6
Continuous
 62
     7
370
    18
100
AcDbLine
 10
1320.516435566433
 20
-893.0608278738953
 30
0.0
 11
1330.516435566433
 21
-893.0608278738953
 31
0.0
  0
LINE
  5
57
330
54
100
AcDbEntity
  8
___G
  6
Continuous
 62
     7
370
     5
100
AcDbLine
 10
1112.213203125
 20
-755.9441927083346
 30
0.0
 11
1112.213203125
 21
-920.9441927083341
 31
0.0
  0
LINE
  5
58
330
54
100
AcDbEntity
  8
___G
  6
Continuous
 62
     7
370
     5
100
AcDbLine
 10
1112.213203125
 20
-865.9441927083342
 30
0.0
 11
1837.213203124999
 21
-865.9441927083342
 31
0.0
  0
LINE
  5
59
330
54
100
AcDbEntity
  8
___G
  6
Continuous
 62
     7
370
     5
100
AcDbLine
 10
1124.713203125
 20
-838.4441927083342
 30
0.0
 11
1287.213203125
 21
-838.4441927083342
 31
0.0
  0
LINE
  5
5A
330
54
100
AcDbEntity
  8
___G
  6
Continuous
 62
     7
370
     5
100
AcDbLine
 10
1312.213203125
 20
-838.4441927083342
 30
0.0
 11
1474.713203125
 21
-838.4441927083342
 31
0.0
  0
MTEXT
  5
5B
330
54
100
AcDbEntity
  8
___G
  6
Continuous
 62
     7
370
     5
100
AcDbMText
 10
1112.213203125
 20
-760.9923766568229
 30
0.0
 40
17.63888835906982
 41
125.0
 71
     1
 72
     1
  1
日　　付
  7
Style1
 73
     1
 44
1.0
1001
ACAD
1000
MTEXTBEGIN
1070
    73
1070
     1
1070
    44
1040
1.0
1070
    74
1070
     0
1000
MTEXTEND
  0
LINE
  5
5C
330
54
100
AcDbEntity
  8
___G
  6
Continuous
 62
     7
370
     5
100
AcDbLine
 10
1124.713203125
 20
-783.4441927083351
 30
0.0
 11
1224.713203125
 21
-783.4441927083351
 31
0.0
  0
LINE
  5
5D
330
54
100
AcDbEntity
  8
___G
  6
Continuous
 62
     7
370
     5
100
AcDbLine
 10
1237.213203125
 20
-755.9441927083346
 30
0.0
 11
1237.213203125
 21
-810.944192708335
 31
0.0
  0
LINE
  5
5E
330
54
100
AcDbEntity
  8
___G
  6
DOT
 62
     7
370
     5
100
AcDbLine
 10
-187.6867968749995
 20
-942.0941927083347
 30
0.0
 11
-187.6867968749995
 21
500.2058072916666
 31
0.0
  0
LINE
  5
5F
330
54
100
AcDbEntity
  8
___G
  6
Continuous
 62
     5
370
    18
100
AcDbLine
 10
-162.7867968749995
 20
-920.9441927083341
 30
0.0
 11
-162.7867968749995
 21
479.0558072916665
 31
0.0
  0
MTEXT
  5
60
330
54
100
AcDbEntity
  8
___G
  6
Continuous
 62
     7
370
     5
100
AcDbMText
 10
1299.713203125
 20
-843.4923766568234
 30
0.0
 40
17.63888835906982
 41
50.0
 71
     1
 72
     1
  1
 検図
  7
Style1
 73
     1
 44
1.0
1001
ACAD
1000
MTEXTBEGIN
1070
    73
1070
     1
1070
    44
1040
1.0
1070
    74
1070
     0
1000
MTEXTEND
  0
LINE
  5
61
330
54
100
AcDbEntity
  8
___G
  6
Continuous
 62
     7
370
     5
100
AcDbLine
 10
1362.213203125
 20
-755.9441927083346
 30
0.0
 11
1362.213203125
 21
-810.944192708335
 31
0.0
  0
LINE
  5
62
330
54
100
AcDbEntity
  8
___G
  6
Continuous
 62
     7
370
     5
100
AcDbLine
 10
1249.713203125
 20
-783.4441927083351
 30
0.0
 11
1349.713203125
 21
-783.4441927083351
 31
0.0
  0
MTEXT
  5
63
330
54
100
AcDbEntity
  8
___G
  6
Continuous
 62
     7
370
     5
100
AcDbMText
 10
1237.213203125
 20
-760.9923766568229
 30
0.0
 40
17.63888835906982
 41
125.0
 71
     1
 72
     1
  1
尺　　度
  7
Style1
 73
     1
 44
1.0
1001
ACAD
1000
MTEXTBEGIN
1070
    73
1070
     1
1070
    44
1040
1.0
1070
    74
1070
     0
1000
MTEXTEND
  0
LINE
  5
64
330
54
100
AcDbEntity
  8
___G
  6
Continuous
 62
     7
370
     5
100
AcDbLine
 10
1299.713203125
 20
-810.9441927083341
 30
0.0
 11
1299.713203125
 21
-865.9441927083342
 31
0.0
  0
LINE
  5
65
330
54
100
AcDbEntity
  8
___G
  6
Continuous
 62
     5
370
    18
100
AcDbLine
 10
1837.213203124999
 20
-920.9441927083341
 30
0.0
 11
1837.213203124999
 21
479.0558072916665
 31
0.0
  0
ARC
  5
66
330
54
100
AcDbEntity
  8
___G
  6
Continuous
 62
     7
370
    18
100
AcDbCircle
 10
1376.319465869462
 20
-883.0608278738953
 30
0.0
 40
27.5
100
AcDbArc
 50
-37.51238802029998
 51
0.0
  0
LINE
  5
67
330
54
100
AcDbEntity
  8
___G
  6
Continuous
 62
     7
370
    18
100
AcDbLine
 10
1302.260916508667
 20
-893.0608278738953
 30
0.0
 11
1307.260916508667
 21
-893.0608278738953
 31
0.0
  0
MTEXT
  5
68
330
54
100
AcDbEntity
  8
___G
  6
Continuous
 62
     7
370
     5
100
AcDbMText
 10
1407.213203125
 20
474.4808072916667
 30
0.0
 40
15.87499976158142
 41
80.0
 71
     1
 72
     1
  1
改訂日
  7
Style1
 73
     1
 44
1.0
1001
ACAD
1000
MTEXTBEGIN
1070
    73
1070
     1
1070
    44
1040
1.0
1070
    74
1070
     0
1000
MTEXTEND
  0
LINE
  5
69
330
54
100
AcDbEntity
  8
___G
  6
Continuous
 62
     5
370
    18
100
AcDbLine
 10
1367.213203125
 20
404.0558072916665
 30
0.0
 11
1837.213203124999
 21
404.0558072916665
 31
0.0
  0
LINE
  5
6A
330
54
100
AcDbEntity
  8
___G
  6
Continuous
 62
     5
370
    18
100
AcDbLine
 10
1367.213203125
 20
429.0558072916665
 30
0.0
 11
1837.213203124999
 21
429.0558072916665
 31
0.0
  0
LINE
  5
6B
330
54
100
AcDbEntity
  8
___G
  6
Continuous
 62
     5
370
    18
100
AcDbLine
 10
1367.213203125
 20
454.0558072916665
 30
0.0
 11
1837.213203124999
 21
454.0558072916665
 31
0.0
  0
LINE
  5
6C
330
54
100
AcDbEntity
  8
___G
  6
Continuous
 62
     5
370
    18
100
AcDbLine
 10
1787.213203124999
 20
404.0558072916665
 30
0.0
 11
1787.213203124999
 21
479.0558072916665
 31
0.0
  0
LINE
  5
6D
330
54
100
AcDbEntity
  8
___G
  6
Continuous
 62
     5
370
    18
100
AcDbLine
 10
1367.213203125
 20
404.0558072916665
 30
0.0
 11
1367.213203125
 21
479.0558072916665
 31
0.0
  0
LINE
  5
6E
330
54
100
AcDbEntity
  8
___G
  6
Continuous
 62
     5
370
    18
100
AcDbLine
 10
1373.416776194786
 20
406.4597660466834
 30
0.0
 11
1398.166776194787
 21
406.4597660466834
 31
0.0
  0
LINE
  5
6F
330
54
100
AcDbEntity
  8
___G
  6
Continuous
 62
     5
370
    18
100
AcDbLine
 10
1385.791776194786
 20
427.893894790348
 30
0.0
 11
1398.166776194787
 21
406.4597660466834
 31
0.0
  0
LINE
  5
70
330
54
100
AcDbEntity
  8
___G
  6
Continuous
 62
     5
370
    18
100
AcDbLine
 10
1385.791776194786
 20
427.893894790348
 30
0.0
 11
1373.416776194786
 21
406.4597660466834
 31
0.0
  0
LINE
  5
71
330
54
100
AcDbEntity
  8
___G
  6
Continuous
 62
     5
370
    18
100
AcDbLine
 10
1385.791776194786
 20
452.6438947903475
 30
0.0
 11
1373.416776194786
 21
431.2097660466824
 31
0.0
  0
LINE
  5
72
330
54
100
AcDbEntity
  8
___G
  6
Continuous
 62
     5
370
    18
100
AcDbLine
 10
1385.791776194786
 20
452.6438947903475
 30
0.0
 11
1398.166776194787
 21
431.2097660466824
 31
0.0
  0
LINE
  5
73
330
54
100
AcDbEntity
  8
___G
  6
Continuous
 62
     5
370
    18
100
AcDbLine
 10
1373.416776194786
 20
431.2097660466824
 30
0.0
 11
1398.166776194787
 21
431.2097660466824
 31
0.0
  0
LINE
  5
74
330
54
100
AcDbEntity
  8
___G
  6
Continuous
 62
     5
370
    18
100
AcDbLine
 10
1407.213203125
 20
404.0558072916665
 30
0.0
 11
1407.213203125
 21
479.0558072916665
 31
0.0
  0
LINE
  5
75
330
54
100
AcDbEntity
  8
___G
  6
Continuous
 62
     5
370
    18
100
AcDbLine
 10
1737.213203124999
 20
404.0558072916665
 30
0.0
 11
1737.213203124999
 21
479.0558072916665
 31
0.0
  0
LINE
  5
76
330
54
100
AcDbEntity
  8
___G
  6
Continuous
 62
     5
370
    18
100
AcDbLine
 10
1487.213203125
 20
404.0558072916665
 30
0.0
 11
1487.213203125
 21
479.0558072916665
 31
0.0
  0
MTEXT
  5
77
330
54
100
AcDbEntity
  8
___G
  6
DOT
 62
     7
370
     5
100
AcDbMText
 10
1367.213203125
 20
474.4808072916667
 30
0.0
 40
15.87499976158142
 41
40.0
 71
     1
 72
     1
  1
副番
  7
Style1
 73
     1
 44
1.0
1001
ACAD
1000
MTEXTBEGIN
1070
    73
1070
     1
1070
    44
1040
1.0
1070
    74
1070
     0
1000
MTEXTEND
  0
MTEXT
  5
78
330
54
100
AcDbEntity
  8
___G
  6
DOT
 62
     7
370
     5
100
AcDbMText
 10
1737.213203124999
 20
474.4808072916667
 30
0.0
 40
15.87499976158142
 41
50.0
 71
     1
 72
     1
  1
改訂者
  7
Style1
 73
     1
 44
1.0
1001
ACAD
1000
MTEXTBEGIN
1070
    73
1070
     1
1070
    44
1040
1.0
1070
    74
1070
     0
1000
MTEXTEND
  0
LINE
  5
79
330
54
100
AcDbEntity
  8
___G
  6
Continuous
 62
     7
370
    18
100
AcDbLine
 10
1383.819465869462
 20
-887.1713792113022
 30
0.0
 11
1380.991038744716
 21
-889.9998063360479
 31
0.0
  0
MTEXT
  5
7A
330
54
100
AcDbEntity
  8
___G
  6
DOT
 62
     7
370
     5
100
AcDbMText
 10
1787.213203124999
 20
474.4808072916667
 30
0.0
 40
15.87499976158142
 41
50.00000000000014
 71
     1
 72
     1
  1
検認者
  7
Style1
 73
     1
 44
1.0
1001
ACAD
1000
MTEXTBEGIN
1070
    73
1070
     1
1070
    44
1040
1.0
1070
    74
1070
     0
1000
MTEXTEND
  0
MTEXT
  5
7B
330
54
100
AcDbEntity
  8
___G
  6
Continuous
 62
     7
370
     5
100
AcDbMText
 10
1487.213203125
 20
474.4808072916667
 30
0.0
 40
15.87499976158142
 41
250.0
 71
     1
 72
     1
  1
改　訂　内　容
  7
Style1
 73
     1
 44
1.0
1001
ACAD
1000
MTEXTBEGIN
1070
    73
1070
     1
1070
    44
1040
1.0
1070
    74
1070
     0
1000
MTEXTEND
  0
LINE
  5
7C
330
54
100
AcDbEntity
  8
___G
  6
Continuous
 62
     5
370
    18
100
AcDbLine
 10
1837.213203124999
 20
479.0558072916665
 30
0.0
 11
-162.7867968749997
 21
479.0558072916665
 31
0.0
  0
LINE
  5
7D
330
54
100
AcDbEntity
  8
___G
  6
DOT
 62
     7
370
     5
100
AcDbLine
 10
1862.113203124998
 20
-942.0941927083347
 30
0.0
 11
1862.113203124998
 21
500.2058072916666
 31
0.0
  0
LINE
  5
7E
330
54
100
AcDbEntity
  8
___G
  6
Continuous
 62
     7
370
    18
100
AcDbLine
 10
1386.501028327895
 20
-893.1561823994449
 30
0.0
 11
1385.298049296311
 21
-894.4848742022147
 31
0.0
  0
LINE
  5
7F
330
54
100
AcDbEntity
  8
___G
  6
Continuous
 62
     7
370
    18
100
AcDbLine
 10
1308.016435566433
 20
-900.5608278738952
 30
0.0
 11
1320.516435566433
 21
-900.5608278738952
 31
0.0
  0
MTEXT
  5
80
330
54
100
AcDbEntity
  8
___G
  6
DOT
 62
     7
370
     5
100
AcDbMText
 10
1112.213203125
 20
-727.8466927083343
 30
0.0
 40
21.16666555404663
 41
125.0
 71
     1
 72
     1
  1
一般公差
  7
Style1
 73
     1
 44
1.0
1001
ACAD
1000
MTEXTBEGIN
1070
    73
1070
     1
1070
    44
1040
1.0
1070
    74
1070
     0
1000
MTEXTEND
  0
MTEXT
  5
81
330
54
100
AcDbEntity
  8
___G
  6
DOT
 62
     7
370
     5
100
AcDbMText
 10
1112.213203125
 20
-692.8466927083343
 30
0.0
 40
21.16666555404663
 41
125.0
 71
     1
 72
     1
  1
表面処理
  7
Style1
 73
     1
 44
1.0
1001
ACAD
1000
MTEXTBEGIN
1070
    73
1070
     1
1070
    44
1040
1.0
1070
    74
1070
     0
1000
MTEXTEND
  0
MTEXT
  5
82
330
54
100
AcDbEntity
  8
___G
  6
DOT
 62
     7
370
     5
100
AcDbMText
 10
1474.713203125
 20
-657.8466927083347
 30
0.0
 40
21.16666555404663
 41
125.0
 71
     1
 72
     1
  1
板　　厚
  7
Style1
 73
     1
 44
1.0
1001
ACAD
1000
MTEXTBEGIN
1070
    73
1070
     1
1070
    44
1040
1.0
1070
    74
1070
     0
1000
MTEXTEND
  0
MTEXT
  5
83
330
54
100
AcDbEntity
  8
___G
  6
DOT
 62
     7
370
     5
100
AcDbMText
 10
1112.213203125
 20
-657.8466927083343
 30
0.0
 40
21.16666555404663
 41
125.0
 71
     1
 72
     1
  1
材　　質
  7
Style1
 73
     1
 44
1.0
1001
ACAD
1000
MTEXTBEGIN
1070
    73
1070
     1
1070
    44
1040
1.0
1070
    74
1070
     0
1000
MTEXTEND
  0
LINE
  5
84
330
54
100
AcDbEntity
  8
___G
  6
Continuous
 62
     7
370
     5
100
AcDbLine
 10
1599.713203125
 20
-650.9441927083342
 30
0.0
 11
1599.713203125
 21
-685.9441927083346
 31
0.0
  0
LINE
  5
85
330
54
100
AcDbEntity
  8
___G
  6
Continuous
 62
     7
370
     5
100
AcDbLine
 10
1474.713203125
 20
-650.9441927083342
 30
0.0
 11
1474.713203125
 21
-685.9441927083346
 31
0.0
  0
LINE
  5
86
330
54
100
AcDbEntity
  8
___G
  6
Continuous
 62
     7
370
     5
100
AcDbLine
 10
1237.213203125
 20
-755.9441927083346
 30
0.0
 11
1237.213203125
 21
-650.9441927083342
 31
0.0
  0
LINE
  5
87
330
54
100
AcDbEntity
  8
___G
  6
Continuous
 62
     7
370
     5
100
AcDbLine
 10
1112.213203125
 20
-650.9441927083342
 30
0.0
 11
1112.213203125
 21
-755.9441927083346
 31
0.0
  0
LINE
  5
88
330
54
100
AcDbEntity
  8
___G
  6
Continuous
 62
     7
370
     5
100
AcDbLine
 10
1837.213203124999
 20
-650.9441927083342
 30
0.0
 11
1112.213203125
 21
-650.9441927083342
 31
0.0
  0
LINE
  5
89
330
54
100
AcDbEntity
  8
___G
  6
Continuous
 62
     7
370
     5
100
AcDbLine
 10
1837.213203124999
 20
-685.9441927083341
 30
0.0
 11
1112.213203125
 21
-685.9441927083341
 31
0.0
  0
LINE
  5
8A
330
54
100
AcDbEntity
  8
___G
  6
Continuous
 62
     7
370
     5
100
AcDbLine
 10
1837.213203124999
 20
-720.9441927083341
 30
0.0
 11
1112.213203125
 21
-720.9441927083341
 31
0.0
  0
LINE
  5
8B
330
54
100
AcDbEntity
  8
___G
  6
Continuous
 62
     7
370
     5
100
AcDbLine
 10
1837.213203124999
 20
-755.9441927083346
 30
0.0
 11
1112.213203125
 21
-755.9441927083346
 31
0.0
  0
LINE
  5
8C
330
54
100
AcDbEntity
  8
___G
  6
Continuous
 62
     7
370
    18
100
AcDbLine
 10
1350.516435566433
 20
-875.5608278738952
 30
0.0
 11
1330.516435566433
 21
-875.5608278738952
 31
0.0
  0
LINE
  5
8D
330
54
100
AcDbEntity
  8
___G
  6
Continuous
 62
     7
370
    18
100
AcDbLine
 10
1350.516435566433
 20
-885.5608278738953
 30
0.0
 11
1350.516435566433
 21
-893.0608278738953
 31
0.0
  0
LINE
  5
8E
330
54
100
AcDbEntity
  8
___G
  6
Continuous
 62
     7
370
    18
100
AcDbLine
 10
1302.260916508667
 20
-885.5608278738953
 30
0.0
 11
1302.260916508667
 21
-893.0608278738953
 31
0.0
  0
LINE
  5
8F
330
54
100
AcDbEntity
  8
___G
  6
Continuous
 62
     7
370
    18
100
AcDbLine
 10
1419.90687911088
 20
-884.0608278738953
 30
0.0
 11
1432.400212444213
 21
-884.0608278738953
 31
0.0
  0
LINE
  5
90
330
54
100
AcDbEntity
  8
___G
  6
Continuous
 62
     5
370
    18
100
AcDbLine
 10
1837.213203124999
 20
-920.9441927083341
 30
0.0
 11
-162.7867968749995
 21
-920.9441927083341
 31
0.0
  0
MTEXT
  5
91
330
54
100
AcDbEntity
  8
___G
  6
Continuous
 62
     7
370
     5
100
AcDbMText
 10
1299.713203125
 20
-815.9923766568233
 30
0.0
 40
17.63888835906982
 41
50.0
 71
     1
 72
     1
  1
 照査
  7
Style1
 73
     1
 44
1.0
1001
ACAD
1000
MTEXTBEGIN
1070
    73
1070
     1
1070
    44
1040
1.0
1070
    74
1070
     0
1000
MTEXTEND
  0
LINE
  5
92
330
54
100
AcDbEntity
  8
___G
  6
Continuous
 62
     7
370
    18
100
AcDbLine
 10
1464.90687911088
 20
-884.0608278738953
 30
0.0
 11
1464.90687911088
 21
-893.0608278738953
 31
0.0
  0
MTEXT
  5
93
330
54
100
AcDbEntity
  8
___G
  6
Continuous
 62
     7
370
     5
100
AcDbMText
 10
1112.213203125
 20
-815.9923766568233
 30
0.0
 40
17.63888835906982
 41
50.0
 71
     1
 72
     1
  1
 設計
  7
Style1
 73
     1
 44
1.0
1001
ACAD
1000
MTEXTBEGIN
1070
    73
1070
     1
1070
    44
1040
1.0
1070
    74
1070
     0
1000
MTEXTEND
  0
MTEXT
  5
94
330
54
100
AcDbEntity
  8
___G
  6
Continuous
 62
     7
370
     5
100
AcDbMText
 10
1112.213203125
 20
-843.4923766568234
 30
0.0
 40
17.63888835906982
 41
50.0
 71
     1
 72
     1
  1
 製図
  7
Style1
 73
     1
 44
1.0
1001
ACAD
1000
MTEXTBEGIN
1070
    73
1070
     1
1070
    44
1040
1.0
1070
    74
1070
     0
1000
MTEXTEND
  0
LINE
  5
95
330
54
100
AcDbEntity
  8
___G
  6
Continuous
 62
     7
370
    18
100
AcDbLine
 10
1440.90687911088
 20
-913.0608278738952
 30
0.0
 11
1438.853545777547
 21
-906.0608278738952
 31
0.0
  0
MTEXT
  5
96
330
54
100
AcDbEntity
  8
___G
  6
Continuous
 62
     7
370
     5
100
AcDbMText
 10
1139.412387808866
 20
-877.570026041668
 30
0.0
 40
31.74999952316284
 41
156.2269440827546
 71
     1
 72
     1
  1
株式会社
  7
Style1
 73
     1
 44
1.0
1001
ACAD
1000
MTEXTBEGIN
1070
    73
1070
     1
1070
    44
1040
1.0
1070
    74
1070
     0
1000
MTEXTEND
  0
ARC
  5
97
330
54
100
AcDbEntity
  8
___G
  6
Continuous
 62
     7
370
    18
100
AcDbCircle
 10
1376.319465869462
 20
-883.0608278738953
 30
0.0
 40
27.50000000000043
100
AcDbArc
 50
-90.0
 51
-57.45504114595471
  0
LINE
  5
98
330
54
100
AcDbEntity
  8
___G
  6
Continuous
 62
     7
370
    18
100
AcDbLine
 10
1343.016435566433
 20
-893.0608278738953
 30
0.0
 11
1350.516435566433
 21
-893.0608278738953
 31
0.0
  0
ARC
  5
99
330
54
100
AcDbEntity
  8
___G
  6
Continuous
 62
     7
370
    18
100
AcDbCircle
 10
1369.819465869462
 20
-884.0608278738953
 30
0.0
 40
18.99999999999959
100
AcDbArc
 50
-28.60071861673987
 51
-1.507957754238851
  0
LINE
  5
9A
330
54
100
AcDbEntity
  8
___G
  6
Continuous
 62
     7
370
    18
100
AcDbLine
 10
1308.016435566433
 20
-903.0608278738952
 30
0.0
 11
1308.016435566433
 21
-910.5608278738953
 31
0.0
  0
LINE
  5
9B
330
54
100
AcDbEntity
  8
___G
  6
Continuous
 62
     7
370
    18
100
AcDbLine
 10
1308.016435566433
 20
-893.0608278738953
 30
0.0
 11
1307.260916508667
 21
-893.0608278738953
 31
0.0
  0
LINE
  5
9C
330
54
100
AcDbEntity
  8
___G
  6
Continuous
 62
     7
370
    18
100
AcDbLine
 10
1363.819465869462
 20
-903.0608278738952
 30
0.0
 11
1363.819465869462
 21
-910.5608278738953
 31
0.0
  0
LINE
  5
9D
330
54
100
AcDbEntity
  8
___G
  6
Continuous
 62
     7
370
    18
100
AcDbLine
 10
1408.819465869462
 20
-875.5608278738952
 30
0.0
 11
1363.819465869462
 21
-875.5608278738952
 31
0.0
  0
LINE
  5
9E
330
54
100
AcDbEntity
  8
___G
  6
Continuous
 62
     7
370
    18
100
AcDbLine
 10
1446.561700891101
 20
-884.0608278738953
 30
0.0
 11
1445.82972963998
 21
-881.5171834215595
 31
0.0
  0
LINE
  5
9F
330
54
100
AcDbEntity
  8
___G
  6
Continuous
 62
     7
370
    18
100
AcDbLine
 10
1446.561700891101
 20
-884.0608278738953
 30
0.0
 11
1464.90687911088
 21
-884.0608278738953
 31
0.0
  0
LINE
  5
A0
330
54
100
AcDbEntity
  8
___G
  6
Continuous
 62
     7
370
    18
100
AcDbLine
 10
1450.302642851692
 20
-897.0608278738952
 30
0.0
 11
1449.151583786894
 21
-893.0608278738953
 31
0.0
  0
LINE
  5
A1
330
54
100
AcDbEntity
  8
___G
  6
Continuous
 62
     7
370
    18
100
AcDbLine
 10
1419.90687911088
 20
-897.0608278738952
 30
0.0
 11
1436.213545777547
 21
-897.0608278738952
 31
0.0
  0
LINE
  5
A2
330
54
100
AcDbEntity
  8
___G
  6
Continuous
 62
     7
370
    18
100
AcDbLine
 10
1432.400212444213
 20
-884.0608278738953
 30
0.0
 11
1429.90687911088
 21
-875.5608278738952
 31
0.0
  0
LINE
  5
A3
330
54
100
AcDbEntity
  8
___G
  6
Continuous
 62
     7
370
    18
100
AcDbLine
 10
1452.892525747485
 20
-906.0608278738952
 30
0.0
 11
1464.90687911088
 21
-906.0608278738952
 31
0.0
  0
LINE
  5
A4
330
54
100
AcDbEntity
  8
___G
  6
Continuous
 62
     7
370
    18
100
AcDbLine
 10
1308.016435566433
 20
-875.5608278738952
 30
0.0
 11
1308.016435566433
 21
-885.5608278738953
 31
0.0
  0
ARC
  5
A5
330
54
100
AcDbEntity
  8
___G
  6
Continuous
 62
     7
370
    18
100
AcDbCircle
 10
1328.016435566433
 20
-895.5608278738953
 30
0.0
 40
15.0
100
AcDbArc
 50
-90.0
 51
0.0
  0
LINE
  5
A6
330
54
100
AcDbEntity
  8
___G
  6
Continuous
 62
     7
370
    18
100
AcDbLine
 10
1363.819465869462
 20
-875.5608278738952
 30
0.0
 11
1363.819465869462
 21
-884.5608278738952
 31
0.0
  0
LINE
  5
A7
330
54
100
AcDbEntity
  8
___G
  6
Continuous
 62
     7
370
    18
100
AcDbLine
 10
1363.819465869462
 20
-910.5608278738953
 30
0.0
 11
1376.319465869462
 21
-910.5608278738953
 31
0.0
  0
LINE
  5
A8
330
54
100
AcDbEntity
  8
___G
  6
DOT
 62
     7
370
     5
100
AcDbLine
 10
1862.113203124998
 20
500.2058072916666
 30
0.0
 11
-187.6867968749995
 21
500.2058072916666
 31
0.0
  0
LINE
  5
A9
330
54
100
AcDbEntity
  8
___G
  6
DOT
 62
     7
370
     5
100
AcDbLine
 10
-187.6867968749995
 20
-942.0941927083347
 30
0.0
 11
1862.113203124998
 21
-942.0941927083347
 31
0.0
  0
LINE
  5
AA
330
54
100
AcDbEntity
  8
___G
  6
Continuous
 62
     7
370
    18
100
AcDbLine
 10
1363.819465869462
 20
-888.781930548709
 30
0.0
 11
1363.819465869462
 21
-887.1713792113022
 31
0.0
  0
LINE
  5
AB
330
54
100
AcDbEntity
  8
___G
  6
Continuous
 62
     7
370
    18
100
AcDbLine
 10
1431.642790683448
 20
-777.444192708335
 30
0.0
 11
1431.642790683448
 21
-789.4441927083351
 31
0.0
  0
LINE
  5
AC
330
54
100
AcDbEntity
  8
___G
  6
Continuous
 62
     7
370
    18
100
AcDbLine
 10
1330.516435566433
 20
-893.0608278738953
 30
0.0
 11
1330.516435566433
 21
-895.5608278738953
 31
0.0
  0
LINE
  5
AD
330
54
100
AcDbEntity
  8
___G
  6
Continuous
 62
     7
370
    18
100
AcDbLine
 10
1454.90687911088
 20
-913.0608278738952
 30
0.0
 11
1440.90687911088
 21
-913.0608278738952
 31
0.0
  0
CIRCLE
  5
AE
330
54
100
AcDbEntity
  8
___G
  6
Continuous
 62
     7
370
    18
100
AcDbCircle
 10
1404.213203125
 20
-783.4441927083351
 30
0.0
 40
11.99999999999954
  0
CIRCLE
  5
AF
330
54
100
AcDbEntity
  8
___G
  6
Continuous
 62
     7
370
    18
100
AcDbCircle
 10
1404.213203125
 20
-783.4441927083351
 30
0.0
 40
6.000000000000454
  0
LINE
  5
B0
330
54
100
AcDbEntity
  8
___G
  6
Continuous
 62
     7
370
    18
100
AcDbLine
 10
1419.90687911088
 20
-897.0608278738952
 30
0.0
 11
1419.90687911088
 21
-906.0608278738952
 31
0.0
  0
ARC
  5
B1
330
54
100
AcDbEntity
  8
___G
  6
Continuous
 62
     7
370
    18
100
AcDbCircle
 10
1323.016435566433
 20
-895.5608278738953
 30
0.0
 40
7.5
100
AcDbArc
 50
-90.0
 51
0.0
  0
LINE
  5
B2
330
54
100
AcDbEntity
  8
___G
  6
Continuous
 62
     7
370
    18
100
AcDbLine
 10
1419.90687911088
 20
-906.0608278738952
 30
0.0
 11
1438.853545777547
 21
-906.0608278738952
 31
0.0
  0
LINE
  5
B3
330
54
100
AcDbEntity
  8
___G
  6
Continuous
 62
     7
370
    18
100
AcDbLine
 10
1308.016435566433
 20
-910.5608278738953
 30
0.0
 11
1328.016435566433
 21
-910.5608278738953
 31
0.0
  0
LINE
  5
B4
330
54
100
AcDbEntity
  8
___G
  6
Continuous
 62
     7
370
    18
100
AcDbLine
 10
1436.213545777547
 20
-897.0608278738952
 30
0.0
 11
1435.040212444213
 21
-893.0608278738953
 31
0.0
  0
LINE
  5
B5
330
54
100
AcDbEntity
  8
___G
  6
Continuous
 62
     7
370
    18
100
AcDbLine
 10
1343.016435566433
 20
-883.0608278738953
 30
0.0
 11
1350.516435566433
 21
-875.5608278738952
 31
0.0
  0
LINE
  5
B6
330
54
100
AcDbEntity
  8
___G
  6
Continuous
 62
     7
370
    18
100
AcDbLine
 10
1308.016435566433
 20
-893.0608278738953
 30
0.0
 11
1308.016435566433
 21
-900.5608278738952
 31
0.0
  0
MTEXT
  5
B7
330
54
100
AcDbEntity
  8
___G
  6
Continuous
 62
     7
370
     5
100
AcDbMText
 10
1490.213203125
 20
-813.9441927083341
 30
0.0
 40
17.63888835906982
 41
60.0
 71
     1
 72
     1
  1
図面名
  7
Style1
 73
     1
 44
1.0
1001
ACAD
1000
MTEXTBEGIN
1070
    73
1070
     1
1070
    44
1040
1.0
1070
    74
1070
     0
1000
MTEXTEND
  0
MTEXT
  5
B8
330
54
100
AcDbEntity
  8
___G
  6
Continuous
 62
     7
370
     5
100
AcDbMText
 10
1490.213203125
 20
-758.9441927083346
 30
0.0
 40
17.63888835906982
 41
60.0
 71
     1
 72
     1
  1
製品名
  7
Style1
 73
     1
 44
1.0
1001
ACAD
1000
MTEXTBEGIN
1070
    73
1070
     1
1070
    44
1040
1.0
1070
    74
1070
     0
1000
MTEXTEND
  0
LINE
  5
B9
330
54
100
AcDbEntity
  8
___G
  6
Continuous
 62
     7
370
    18
100
AcDbLine
 10
1308.016435566433
 20
-885.5608278738953
 30
0.0
 11
1302.260916508667
 21
-885.5608278738953
 31
0.0
  0
LINE
  5
BA
330
54
100
AcDbEntity
  8
___G
  6
Continuous
 62
     7
370
    18
100
AcDbLine
 10
1429.90687911088
 20
-875.5608278738952
 30
0.0
 11
1449.90687911088
 21
-875.5608278738952
 31
0.0
  0
LINE
  5
BB
330
54
100
AcDbEntity
  8
___G
  6
Continuous
 62
     7
370
    18
100
AcDbLine
 10
1363.819465869462
 20
-903.0608278738952
 30
0.0
 11
1369.819465869462
 21
-903.0608278738952
 31
0.0
  0
LINE
  5
BC
330
54
100
AcDbEntity
  8
___G
  6
Continuous
 62
     7
370
    18
100
AcDbLine
 10
1450.302642851692
 20
-897.0608278738952
 30
0.0
 11
1464.90687911088
 21
-897.0608278738952
 31
0.0
  0
LINE
  5
BD
330
54
100
AcDbEntity
  8
___G
  6
Continuous
 62
     7
370
    18
100
AcDbLine
 10
1454.90687911088
 20
-913.0608278738952
 30
0.0
 11
1452.892525747485
 21
-906.0608278738952
 31
0.0
  0
LINE
  5
BE
330
54
100
AcDbEntity
  8
___G
  6
Continuous
 62
     7
370
    18
100
AcDbLine
 10
1363.819465869462
 20
-910.5608278738953
 30
0.0
 11
1363.819465869462
 21
-903.0608278738952
 31
0.0
  0
LINE
  5
BF
330
54
100
AcDbEntity
  8
___G
  6
Continuous
 62
     7
370
    18
100
AcDbLine
 10
1445.82972963998
 20
-881.5171834215595
 30
0.0
 11
1449.90687911088
 21
-875.5608278738952
 31
0.0
  0
LINE
  5
C0
330
54
100
AcDbEntity
  8
___G
  6
Continuous
 62
     7
370
    18
100
AcDbLine
 10
1403.819465869462
 20
-883.0608278738953
 30
0.0
 11
1408.819465869462
 21
-875.5608278738952
 31
0.0
  0
LINE
  5
C1
330
54
100
AcDbEntity
  8
___G
  6
Continuous
 62
     7
370
    18
100
AcDbLine
 10
1343.016435566433
 20
-885.5608278738953
 30
0.0
 11
1343.016435566433
 21
-883.0608278738953
 31
0.0
  0
LINE
  5
C2
330
54
100
AcDbEntity
  8
___G
  6
Continuous
 62
     7
370
    18
100
AcDbLine
 10
1350.516435566433
 20
-885.5608278738953
 30
0.0
 11
1343.016435566433
 21
-885.5608278738953
 31
0.0
  0
LINE
  5
C3
330
54
100
AcDbEntity
  8
___G
  6
Continuous
 62
     7
370
    18
100
AcDbLine
 10
1419.90687911088
 20
-893.0608278738953
 30
0.0
 11
1435.040212444213
 21
-893.0608278738953
 31
0.0
  0
SPLINE
  5
C4
330
54
100
AcDbEntity
  8
___G
  6
Continuous
 62
     7
370
    18
100
AcDbSpline
210
0.0
220
0.0
230
1.0
 70
     8
 71
     3
 72
     8
 73
     4
 74
     0
 42
0.0000000001
 43
0.0000000001
 40
0.0
 40
0.0
 40
0.0
 40
0.0
 40
1.0
 40
1.0
 40
1.0
 40
1.0
 10
1391.113399839964
 20
-906.2424912671129
 30
0.0
 10
1396.808831270712
 20
-908.0639337207246
 30
0.0
 10
1402.814148570087
 20
-909.3123807973103
 30
0.0
 10
1408.819465869462
 20
-910.5608278738953
 30
0.0
  0
LINE
  5
C5
330
54
100
AcDbEntity
  8
___G
  6
Continuous
 62
     7
370
    18
100
AcDbLine
 10
1363.819465869462
 20
-884.5608278738952
 30
0.0
 11
1388.819465869462
 21
-884.5608278738952
 31
0.0
  0
LINE
  5
C6
330
54
100
AcDbEntity
  8
___G
  6
Continuous
 62
     7
370
    18
100
AcDbLine
 10
1323.016435566433
 20
-903.0608278738952
 30
0.0
 11
1308.016435566433
 21
-903.0608278738952
 31
0.0
  0
SPLINE
  5
C7
330
54
100
AcDbEntity
  8
___G
  6
Continuous
 62
     7
370
    18
100
AcDbSpline
210
0.0
220
0.0
230
1.0
 70
     8
 71
     3
 72
     8
 73
     4
 74
     0
 42
0.0000000001
 43
0.0000000001
 40
0.0
 40
0.0
 40
0.0
 40
0.0
 40
1.0
 40
1.0
 40
1.0
 40
1.0
 10
1380.991038744716
 20
-889.9998063360479
 30
0.0
 10
1382.387900881287
 20
-891.5573075055133
 30
0.0
 10
1383.784763017855
 20
-893.1148086749788
 30
0.0
 10
1385.298049296311
 20
-894.4848742022147
 30
0.0
  0
SPLINE
  5
C8
330
54
100
AcDbEntity
  8
___G
  6
Continuous
 62
     7
370
    18
100
AcDbSpline
210
0.0
220
0.0
230
1.0
 70
     8
 71
     3
 72
     8
 73
     4
 74
     0
 42
0.0000000001
 43
0.0000000001
 40
0.0
 40
0.0
 40
0.0
 40
0.0
 40
1.0
 40
1.0
 40
1.0
 40
1.0
 10
1397.242552330939
 20
-900.6783746397102
 30
0.0
 10
1400.941398598587
 20
-901.7303168872437
 30
0.0
 10
1404.880432234025
 20
-902.3955723805691
 30
0.0
 10
1408.819465869462
 20
-903.0608278738952
 30
0.0
  0
MTEXT
  5
C9
330
54
100
AcDbEntity
  8
___G
  6
Continuous
 62
     7
370
     5
100
AcDbMText
 10
1490.213203125
 20
-868.9441927083342
 30
0.0
 40
17.63888835906982
 41
60.0
 71
     1
 72
     1
  1
図 番
  7
Style1
 73
     1
 44
1.0
1001
ACAD
1000
MTEXTBEGIN
1070
    73
1070
     1
1070
    44
1040
1.0
1070
    74
1070
     0
1000
MTEXTEND
  0
LINE
  5
CA
330
54
100
AcDbEntity
  8
___G
  6
Continuous
 62
     7
370
    18
100
AcDbLine
 10
1320.516435566433
 20
-883.0608278738953
 30
0.0
 11
1328.016435566433
 21
-875.5608278738952
 31
0.0
  0
LINE
  5
CB
330
54
100
AcDbEntity
  8
___G
  6
Continuous
 62
     7
370
    18
100
AcDbLine
 10
1328.016435566433
 20
-875.5608278738952
 30
0.0
 11
1308.016435566433
 21
-875.5608278738952
 31
0.0
  0
LINE
  5
CC
330
54
100
AcDbEntity
  8
___G
  6
Continuous
 62
     7
370
    18
100
AcDbLine
 10
1330.516435566433
 20
-885.5608278738953
 30
0.0
 11
1320.516435566433
 21
-885.5608278738953
 31
0.0
  0
LINE
  5
CD
330
54
100
AcDbEntity
  8
___G
  6
Continuous
 62
     7
370
    18
100
AcDbLine
 10
1419.90687911088
 20
-884.0608278738953
 30
0.0
 11
1419.90687911088
 21
-893.0608278738953
 31
0.0
  0
LINE
  5
CE
330
54
100
AcDbEntity
  8
___G
  6
Continuous
 62
     7
370
    18
100
AcDbLine
 10
1343.016435566433
 20
-895.5608278738953
 30
0.0
 11
1343.016435566433
 21
-893.0608278738953
 31
0.0
  0
LINE
  5
CF
330
54
100
AcDbEntity
  8
___G
  6
Continuous
 62
     7
370
    18
100
AcDbLine
 10
1320.516435566433
 20
-900.5608278738952
 30
0.0
 11
1320.516435566433
 21
-893.0608278738953
 31
0.0
  0
LINE
  5
D0
330
54
100
AcDbEntity
  8
___G
  6
Continuous
 62
     7
370
    18
100
AcDbLine
 10
1408.819465869462
 20
-903.0608278738952
 30
0.0
 11
1408.819465869462
 21
-910.5608278738953
 31
0.0
  0
LINE
  5
D1
330
54
100
AcDbEntity
  8
___G
  6
Continuous
 62
     7
370
    18
100
AcDbLine
 10
1464.90687911088
 20
-897.0608278738952
 30
0.0
 11
1464.90687911088
 21
-906.0608278738952
 31
0.0
  0
LINE
  5
D2
330
54
100
AcDbEntity
  8
___G
  6
Continuous
 62
     7
370
    18
100
AcDbLine
 10
1403.819465869462
 20
-883.0608278738953
 30
0.0
 11
1408.819465869462
 21
-875.5608278738952
 31
0.0
  0
ARC
  5
D3
330
54
100
AcDbEntity
  8
___G
  6
Continuous
 62
     7
370
    18
100
AcDbCircle
 10
1369.819465869462
 20
-884.0608278738953
 30
0.0
 40
18.9999999999997
100
AcDbArc
 50
-90.0
 51
-61.91409518479277
  0
LINE
  5
D4
330
54
100
AcDbEntity
  8
___G
  6
Continuous
 62
     7
370
    18
100
AcDbLine
 10
1363.819465869462
 20
-887.1713792113022
 30
0.0
 11
1383.819465869462
 21
-887.1713792113022
 31
0.0
  0
LINE
  5
D5
330
54
100
AcDbEntity
  8
___G
  6
CENTER2
 62
     7
370
    18
100
AcDbLine
 10
1404.213203125
 20
-765.4441927083346
 30
0.0
 11
1404.213203125
 21
-801.444192708335
 31
0.0
  0
LINE
  5
D6
330
54
100
AcDbEntity
  8
___G
  6
CENTER2
 62
     7
370
    18
100
AcDbLine
 10
1404.213203125
 20
-765.4441927083346
 30
0.0
 11
1404.213203125
 21
-801.444192708335
 31
0.0
  0
LINE
  5
D7
330
54
100
AcDbEntity
  8
___G
  6
Continuous
 62
     7
370
    18
100
AcDbLine
 10
1455.642790683448
 20
-771.4441927083346
 30
0.0
 11
1455.642790683448
 21
-795.4441927083351
 31
0.0
  0
LINE
  5
D8
330
54
100
AcDbEntity
  8
___G
  6
Continuous
 62
     7
370
    18
100
AcDbLine
 10
1431.642790683448
 20
-789.4441927083351
 30
0.0
 11
1455.642790683448
 21
-795.4441927083351
 31
0.0
  0
LINE
  5
D9
330
54
100
AcDbEntity
  8
___G
  6
Continuous
 62
     7
370
    18
100
AcDbLine
 10
1431.642790683448
 20
-777.444192708335
 30
0.0
 11
1431.642790683448
 21
-789.4441927083351
 31
0.0
  0
LINE
  5
DA
330
54
100
AcDbEntity
  8
___G
  6
Continuous
 62
     7
370
    18
100
AcDbLine
 10
1449.151583786894
 20
-893.0608278738953
 30
0.0
 11
1464.90687911088
 21
-893.0608278738953
 31
0.0
  0
LINE
  5
DB
330
54
100
AcDbEntity
  8
___G
  6
Continuous
 62
     7
370
    18
100
AcDbLine
 10
1330.516435566433
 20
-875.5608278738952
 30
0.0
 11
1330.516435566433
 21
-885.5608278738953
 31
0.0
  0
LINE
  5
DC
330
54
100
AcDbEntity
  8
___G
  6
CENTER2
 62
     7
370
    18
100
AcDbLine
 10
1404.213203125
 20
-765.4441927083346
 30
0.0
 11
1404.213203125
 21
-801.444192708335
 31
0.0
  0
LINE
  5
DD
330
54
100
AcDbEntity
  8
___G
  6
Continuous
 62
     7
370
     5
100
AcDbLine
 10
1112.213203125
 20
-810.9441927083341
 30
0.0
 11
1837.213203124999
 21
-810.9441927083341
 31
0.0
  0
LINE
  5
DE
330
54
100
AcDbEntity
  8
___G
  6
Continuous
 62
     7
370
    18
100
AcDbLine
 10
1431.642790683448
 20
-789.4441927083351
 30
0.0
 11
1455.642790683448
 21
-795.4441927083351
 31
0.0
  0
LINE
  5
DF
330
54
100
AcDbEntity
  8
___G
  6
Continuous
 62
     7
370
    18
100
AcDbLine
 10
1431.642790683448
 20
-777.444192708335
 30
0.0
 11
1455.642790683448
 21
-771.4441927083346
 31
0.0
  0
CIRCLE
  5
E0
330
54
100
AcDbEntity
  8
___G
  6
Continuous
 62
     7
370
    18
100
AcDbCircle
 10
1404.213203125
 20
-783.4441927083351
 30
0.0
 40
6.000000000000454
  0
CIRCLE
  5
E1
330
54
100
AcDbEntity
  8
___G
  6
Continuous
 62
     7
370
    18
100
AcDbCircle
 10
1404.213203125
 20
-783.4441927083351
 30
0.0
 40
11.99999999999954
  0
LINE
  5
E2
330
54
100
AcDbEntity
  8
___G
  6
Continuous
 62
     7
370
    18
100
AcDbLine
 10
1431.642790683448
 20
-777.444192708335
 30
0.0
 11
1455.642790683448
 21
-771.4441927083346
 31
0.0
  0
LINE
  5
E3
330
54
100
AcDbEntity
  8
___G
  6
Continuous
 62
     7
370
    18
100
AcDbLine
 10
1455.642790683448
 20
-771.4441927083346
 30
0.0
 11
1455.642790683448
 21
-795.4441927083351
 31
0.0
  0
LINE
  5
E4
330
54
100
AcDbEntity
  8
___G
  6
Continuous
 62
     7
370
    18
100
AcDbLine
 10
1431.642790683448
 20
-777.444192708335
 30
0.0
 11
1431.642790683448
 21
-789.4441927083351
 31
0.0
  0
LINE
  5
E5
330
54
100
AcDbEntity
  8
___G
  6
Continuous
 62
     7
370
    18
100
AcDbLine
 10
1431.642790683448
 20
-789.4441927083351
 30
0.0
 11
1455.642790683448
 21
-795.4441927083351
 31
0.0
  0
LINE
  5
E6
330
54
100
AcDbEntity
  8
___G
  6
Continuous
 62
     7
370
    18
100
AcDbLine
 10
1431.642790683448
 20
-777.444192708335
 30
0.0
 11
1455.642790683448
 21
-771.4441927083346
 31
0.0
  0
CIRCLE
  5
E7
330
54
100
AcDbEntity
  8
___G
  6
Continuous
 62
     7
370
    18
100
AcDbCircle
 10
1404.213203125
 20
-783.4441927083351
 30
0.0
 40
11.99999999999954
  0
CIRCLE
  5
E8
330
54
100
AcDbEntity
  8
___G
  6
Continuous
 62
     7
370
    18
100
AcDbCircle
 10
1404.213203125
 20
-783.4441927083351
 30
0.0
 40
6.000000000000454
  0
LINE
  5
E9
330
54
100
AcDbEntity
  8
___G
  6
CENTER2
 62
     7
370
    18
100
AcDbLine
 10
1386.213203125
 20
-783.4441927083351
 30
0.0
 11
1463.213203125
 21
-783.4441927083351
 31
0.0
  0
CIRCLE
  5
EA
330
54
100
AcDbEntity
  8
___G
  6
Continuous
 62
     7
370
    18
100
AcDbCircle
 10
1404.213203125
 20
-783.4441927083351
 30
0.0
 40
6.000000000000454
  0
CIRCLE
  5
EB
330
54
100
AcDbEntity
  8
___G
  6
Continuous
 62
     7
370
    18
100
AcDbCircle
 10
1404.213203125
 20
-783.4441927083351
 30
0.0
 40
11.99999999999954
  0
LINE
  5
EC
330
54
100
AcDbEntity
  8
___G
  6
Continuous
 62
     7
370
    18
100
AcDbLine
 10
1431.642790683448
 20
-777.444192708335
 30
0.0
 11
1455.642790683448
 21
-771.4441927083346
 31
0.0
  0
LINE
  5
ED
330
54
100
AcDbEntity
  8
___G
  6
Continuous
 62
     7
370
    18
100
AcDbLine
 10
1431.642790683448
 20
-789.4441927083351
 30
0.0
 11
1455.642790683448
 21
-795.4441927083351
 31
0.0
  0
LINE
  5
EE
330
54
100
AcDbEntity
  8
___G
  6
Continuous
 62
     7
370
    18
100
AcDbLine
 10
1431.642790683448
 20
-777.444192708335
 30
0.0
 11
1431.642790683448
 21
-789.4441927083351
 31
0.0
  0
LINE
  5
EF
330
54
100
AcDbEntity
  8
___G
  6
Continuous
 62
     7
370
    18
100
AcDbLine
 10
1455.642790683448
 20
-771.4441927083346
 30
0.0
 11
1455.642790683448
 21
-795.4441927083351
 31
0.0
  0
LINE
  5
F0
330
54
100
AcDbEntity
  8
___G
  6
Continuous
 62
     7
370
     5
100
AcDbLine
 10
1487.213203125
 20
-755.9441927083346
 30
0.0
 11
1487.213203125
 21
-920.9441927083341
 31
0.0
  0
LINE
  5
F1
330
54
100
AcDbEntity
  8
___G
  6
Continuous
 62
     7
370
    18
100
AcDbLine
 10
1398.133062629901
 20
-899.8064839187634
 30
0.0
 11
1397.242552330939
 21
-900.6783746397102
 31
0.0
  0
LINE
  5
F2
330
54
100
AcDbEntity
  8
___G
  6
Continuous
 62
     7
370
    18
100
AcDbLine
 10
1320.516435566433
 20
-885.5608278738953
 30
0.0
 11
1320.516435566433
 21
-883.0608278738953
 31
0.0
  0
LINE
  5
F3
330
54
100
AcDbEntity
  8
___G
  6
Continuous
 62
     7
370
    18
100
AcDbLine
 10
1455.642790683448
 20
-771.4441927083346
 30
0.0
 11
1455.642790683448
 21
-795.4441927083351
 31
0.0
  0
LINE
  5
F4
330
54
100
AcDbEntity
  8
___G
  6
CENTER2
 62
     7
370
    18
100
AcDbLine
 10
1404.213203125
 20
-765.4441927083346
 30
0.0
 11
1404.213203125
 21
-801.444192708335
 31
0.0
  0
SPLINE
  5
F5
330
54
100
AcDbEntity
  8
___G
  6
Continuous
 62
     7
370
    18
100
AcDbSpline
210
0.0
220
0.0
230
1.0
 70
     8
 71
     3
 72
     9
 73
     5
 74
     0
 42
0.0000000001
 43
0.0000000001
 40
0.0
 40
0.0
 40
0.0
 40
0.0
 40
0.9999999993702068
 40
1.0
 40
1.0
 40
1.0
 40
1.0
 10
1363.819465869462
 20
-888.781930548709
 30
0.0
 10
1368.592488886297
 20
-893.1816230309948
 30
0.0
 10
1373.365511906138
 20
-897.5813155160519
 30
0.0
 10
1378.764568163953
 20
-900.8234394007338
 30
0.0
 10
1378.764568167353
 20
-900.8234394027756
 30
0.0
  0
ENDBLK
  5
F6
330
54
100
AcDbEntity
  8
0
100
AcDbBlockEnd
  0
BLOCK
  5
108
330
107
100
AcDbEntity
  8
0
100
AcDbBlockBegin
  2
C1
 70
     0
 10
0.0
 20
0.0
 30
0.0
  3
C1
  1

  0
LINE
  5
109
330
107
100
AcDbEntity
  8
____1
  6
Continuous
 62
     5
370
    18
100
AcDbLine
 10
290.1674926859362
 20
16.27254387096423
 30
0.0
 11
290.1674926859362
 21
32.27254387096434
 31
0.0
  0
LINE
  5
10A
330
107
100
AcDbEntity
  8
____1
  6
Continuous
 62
     5
370
    18
100
AcDbLine
 10
285.1674926859362
 20
16.27254387096423
 30
0.0
 11
285.1674926859362
 21
32.27254387096434
 31
0.0
  0
LINE
  5
10B
330
107
100
AcDbEntity
  8
____1
  6
Continuous
 62
     5
370
    18
100
AcDbLine
 10
285.1674926859362
 20
16.27254387096423
 30
0.0
 11
290.1674926859362
 21
16.27254387096423
 31
0.0
  0
LINE
  5
10C
330
107
100
AcDbEntity
  8
____1
  6
Continuous
 62
     5
370
    18
100
AcDbLine
 10
285.1674926859362
 20
32.27254387096434
 30
0.0
 11
290.1674926859362
 21
32.27254387096434
 31
0.0
  0
ENDBLK
  5
10D
330
107
100
AcDbEntity
  8
0
100
AcDbBlockEnd
  0
BLOCK
  5
110
330
10F
100
AcDbEntity
  8
0
100
AcDbBlockBegin
  2
C2
 70
     0
 10
0.0
 20
0.0
 30
0.0
  3
C2
  1

  0
LINE
  5
111
330
10F
100
AcDbEntity
  8
____1
  6
Continuous
 62
     5
370
    18
100
AcDbLine
 10
90.16749268593617
 20
16.27254387096423
 30
0.0
 11
90.16749268593617
 21
32.27254387096434
 31
0.0
  0
LINE
  5
112
330
10F
100
AcDbEntity
  8
____1
  6
Continuous
 62
     5
370
    18
100
AcDbLine
 10
85.16749268593617
 20
16.27254387096423
 30
0.0
 11
85.16749268593617
 21
32.27254387096434
 31
0.0
  0
LINE
  5
113
330
10F
100
AcDbEntity
  8
____1
  6
Continuous
 62
     5
370
    18
100
AcDbLine
 10
85.16749268593617
 20
16.27254387096423
 30
0.0
 11
90.16749268593617
 21
16.27254387096423
 31
0.0
  0
LINE
  5
114
330
10F
100
AcDbEntity
  8
____1
  6
Continuous
 62
     5
370
    18
100
AcDbLine
 10
85.16749268593617
 20
32.27254387096434
 30
0.0
 11
90.16749268593617
 21
32.27254387096434
 31
0.0
  0
ENDBLK
  5
115
330
10F
100
AcDbEntity
  8
0
100
AcDbBlockEnd
  0
BLOCK
  5
118
330
117
100
AcDbEntity
  8
0
100
AcDbBlockBegin
  2
C3
 70
     0
 10
0.0
 20
0.0
 30
0.0
  3
C3
  1

  0
LINE
  5
119
330
117
100
AcDbEntity
  8
____1
  6
Continuous
 62
     5
370
    18
100
AcDbLine
 10
130.1674926859361
 20
16.27254387096423
 30
0.0
 11
130.1674926859361
 21
32.27254387096434
 31
0.0
  0
LINE
  5
11A
330
117
100
AcDbEntity
  8
____1
  6
Continuous
 62
     5
370
    18
100
AcDbLine
 10
125.1674926859361
 20
16.27254387096423
 30
0.0
 11
125.1674926859361
 21
32.27254387096434
 31
0.0
  0
LINE
  5
11B
330
117
100
AcDbEntity
  8
____1
  6
Continuous
 62
     5
370
    18
100
AcDbLine
 10
125.1674926859361
 20
16.27254387096423
 30
0.0
 11
130.1674926859361
 21
16.27254387096423
 31
0.0
  0
LINE
  5
11C
330
117
100
AcDbEntity
  8
____1
  6
Continuous
 62
     5
370
    18
100
AcDbLine
 10
125.1674926859361
 20
32.27254387096434
 30
0.0
 11
130.1674926859361
 21
32.27254387096434
 31
0.0
  0
ENDBLK
  5
11D
330
117
100
AcDbEntity
  8
0
100
AcDbBlockEnd
  0
BLOCK
  5
120
330
11F
100
AcDbEntity
  8
0
100
AcDbBlockBegin
  2
C4
 70
     0
 10
0.0
 20
0.0
 30
0.0
  3
C4
  1

  0
LINE
  5
121
330
11F
100
AcDbEntity
  8
____1
  6
Continuous
 62
     5
370
    18
100
AcDbLine
 10
170.1674926859361
 20
16.27254387096423
 30
0.0
 11
170.1674926859361
 21
32.27254387096434
 31
0.0
  0
LINE
  5
122
330
11F
100
AcDbEntity
  8
____1
  6
Continuous
 62
     5
370
    18
100
AcDbLine
 10
165.1674926859362
 20
16.27254387096423
 30
0.0
 11
165.1674926859362
 21
32.27254387096434
 31
0.0
  0
LINE
  5
123
330
11F
100
AcDbEntity
  8
____1
  6
Continuous
 62
     5
370
    18
100
AcDbLine
 10
165.1674926859362
 20
16.27254387096423
 30
0.0
 11
170.1674926859361
 21
16.27254387096423
 31
0.0
  0
LINE
  5
124
330
11F
100
AcDbEntity
  8
____1
  6
Continuous
 62
     5
370
    18
100
AcDbLine
 10
165.1674926859362
 20
32.27254387096434
 30
0.0
 11
170.1674926859361
 21
32.27254387096434
 31
0.0
  0
ENDBLK
  5
125
330
11F
100
AcDbEntity
  8
0
100
AcDbBlockEnd
  0
BLOCK
  5
128
330
127
100
AcDbEntity
  8
0
100
AcDbBlockBegin
  2
C5
 70
     0
 10
0.0
 20
0.0
 30
0.0
  3
C5
  1

  0
LINE
  5
129
330
127
100
AcDbEntity
  8
____1
  6
Continuous
 62
     5
370
    18
100
AcDbLine
 10
210.1674926859362
 20
16.27254387096423
 30
0.0
 11
210.1674926859362
 21
32.27254387096434
 31
0.0
  0
LINE
  5
12A
330
127
100
AcDbEntity
  8
____1
  6
Continuous
 62
     5
370
    18
100
AcDbLine
 10
205.1674926859362
 20
16.27254387096423
 30
0.0
 11
205.1674926859362
 21
32.27254387096434
 31
0.0
  0
LINE
  5
12B
330
127
100
AcDbEntity
  8
____1
  6
Continuous
 62
     5
370
    18
100
AcDbLine
 10
205.1674926859362
 20
16.27254387096423
 30
0.0
 11
210.1674926859362
 21
16.27254387096423
 31
0.0
  0
LINE
  5
12C
330
127
100
AcDbEntity
  8
____1
  6
Continuous
 62
     5
370
    18
100
AcDbLine
 10
205.1674926859362
 20
32.27254387096434
 30
0.0
 11
210.1674926859362
 21
32.27254387096434
 31
0.0
  0
ENDBLK
  5
12D
330
127
100
AcDbEntity
  8
0
100
AcDbBlockEnd
  0
BLOCK
  5
130
330
12F
100
AcDbEntity
  8
0
100
AcDbBlockBegin
  2
C6
 70
     0
 10
0.0
 20
0.0
 30
0.0
  3
C6
  1

  0
LINE
  5
131
330
12F
100
AcDbEntity
  8
____1
  6
Continuous
 62
     5
370
    18
100
AcDbLine
 10
250.1674926859362
 20
16.27254387096423
 30
0.0
 11
250.1674926859362
 21
32.27254387096434
 31
0.0
  0
LINE
  5
132
330
12F
100
AcDbEntity
  8
____1
  6
Continuous
 62
     5
370
    18
100
AcDbLine
 10
245.1674926859362
 20
16.27254387096423
 30
0.0
 11
245.1674926859362
 21
32.27254387096434
 31
0.0
  0
LINE
  5
133
330
12F
100
AcDbEntity
  8
____1
  6
Continuous
 62
     5
370
    18
100
AcDbLine
 10
245.1674926859362
 20
16.27254387096423
 30
0.0
 11
250.1674926859362
 21
16.27254387096423
 31
0.0
  0
LINE
  5
134
330
12F
100
AcDbEntity
  8
____1
  6
Continuous
 62
     5
370
    18
100
AcDbLine
 10
245.1674926859362
 20
32.27254387096434
 30
0.0
 11
250.1674926859362
 21
32.27254387096434
 31
0.0
  0
ENDBLK
  5
135
330
12F
100
AcDbEntity
  8
0
100
AcDbBlockEnd
  0
BLOCK
  5
138
330
137
100
AcDbEntity
  8
0
100
AcDbBlockBegin
  2
C7
 70
     0
 10
0.0
 20
0.0
 30
0.0
  3
C7
  1

  0
LINE
  5
139
330
137
100
AcDbEntity
  8
____1
  6
Continuous
 62
     5
370
    18
100
AcDbLine
 10
50.16749268593617
 20
16.27254387096423
 30
0.0
 11
50.16749268593617
 21
32.27254387096434
 31
0.0
  0
LINE
  5
13A
330
137
100
AcDbEntity
  8
____1
  6
Continuous
 62
     5
370
    18
100
AcDbLine
 10
45.16749268593616
 20
16.27254387096423
 30
0.0
 11
45.16749268593616
 21
32.27254387096434
 31
0.0
  0
LINE
  5
13B
330
137
100
AcDbEntity
  8
____1
  6
Continuous
 62
     5
370
    18
100
AcDbLine
 10
45.16749268593616
 20
16.27254387096423
 30
0.0
 11
50.16749268593617
 21
16.27254387096423
 31
0.0
  0
LINE
  5
13C
330
137
100
AcDbEntity
  8
____1
  6
Continuous
 62
     5
370
    18
100
AcDbLine
 10
45.16749268593616
 20
32.27254387096434
 30
0.0
 11
50.16749268593617
 21
32.27254387096434
 31
0.0
  0
ENDBLK
  5
13D
330
137
100
AcDbEntity
  8
0
100
AcDbBlockEnd
  0
BLOCK
  5
140
330
13F
100
AcDbEntity
  8
0
100
AcDbBlockBegin
  2
C8
 70
     0
 10
0.0
 20
0.0
 30
0.0
  3
C8
  1

  0
LINE
  5
141
330
13F
100
AcDbEntity
  8
____1
  6
Continuous
 62
     5
370
    18
100
AcDbLine
 10
10.16749268593617
 20
16.27254387096423
 30
0.0
 11
10.16749268593617
 21
32.27254387096434
 31
0.0
  0
LINE
  5
142
330
13F
100
AcDbEntity
  8
____1
  6
Continuous
 62
     5
370
    18
100
AcDbLine
 10
5.167492685936167
 20
16.27254387096423
 30
0.0
 11
5.167492685936167
 21
32.27254387096434
 31
0.0
  0
LINE
  5
143
330
13F
100
AcDbEntity
  8
____1
  6
Continuous
 62
     5
370
    18
100
AcDbLine
 10
5.167492685936167
 20
16.27254387096423
 30
0.0
 11
10.16749268593617
 21
16.27254387096423
 31
0.0
  0
LINE
  5
144
330
13F
100
AcDbEntity
  8
____1
  6
Continuous
 62
     5
370
    18
100
AcDbLine
 10
5.167492685936167
 20
32.27254387096434
 30
0.0
 11
10.16749268593617
 21
32.27254387096434
 31
0.0
  0
ENDBLK
  5
145
330
13F
100
AcDbEntity
  8
0
100
AcDbBlockEnd
  0
BLOCK
  5
14C
330
14B
100
AcDbEntity
  8
0
100
AcDbBlockBegin
  2
*D10
 70
     1
 10
0.0
 20
0.0
 30
0.0
  3
*D10
  1

  0
LINE
  5
14D
330
14B
100
AcDbEntity
  8
____1
  6
Continuous
 62
     7
370
     5
100
AcDbLine
 10
1189.724487704918
 20
-471.7328573258207
 30
0.0
 11
1263.493953850751
 21
-471.7328573258207
 31
0.0
  0
LINE
  5
14E
330
14B
100
AcDbEntity
  8
____1
  6
Continuous
 62
     7
370
     5
100
AcDbLine
 10
1189.724487704918
 20
-216.7328573258217
 30
0.0
 11
1263.493953850751
 21
-216.7328573258217
 31
0.0
  0
SOLID
  5
14F
330
14B
100
AcDbEntity
  8
____1
  6
Continuous
 62
     7
370
     5
100
AcDbTrace
 10
1257.243953850752
 20
-231.7328573258217
 30
0.0
 11
1257.243953850752
 21
-231.7328573258217
 31
0.0
 12
1258.181453850752
 22
-227.9828573258217
 32
0.0
 13
1260.993953850752
 23
-227.9828573258217
 33
0.0
  0
SOLID
  5
150
330
14B
100
AcDbEntity
  8
____1
  6
Continuous
 62
     7
370
     5
100
AcDbTrace
 10
1264.743953850752
 20
-231.7328573258217
 30
0.0
 11
1264.743953850752
 21
-231.7328573258217
 31
0.0
 12
1260.993953850752
 22
-227.9828573258217
 32
0.0
 13
1263.806453850752
 23
-227.9828573258217
 33
0.0
  0
SOLID
  5
151
330
14B
100
AcDbEntity
  8
____1
  6
Continuous
 62
     7
370
     5
100
AcDbTrace
 10
1258.181453850752
 20
-227.9828573258217
 30
0.0
 11
1263.806453850752
 21
-227.9828573258217
 31
0.0
 12
1260.993953850752
 22
-216.7328573258217
 32
0.0
 13
1260.993953850752
 23
-216.7328573258217
 33
0.0
  0
LINE
  5
152
330
14B
100
AcDbEntity
  8
____1
  6
Continuous
 62
     7
370
     5
100
AcDbLine
 10
1260.993953850752
 20
-216.7328573258217
 30
0.0
 11
1260.993953850752
 21
-344.2328573258212
 31
0.0
  0
SOLID
  5
153
330
14B
100
AcDbEntity
  8
____1
  6
Continuous
 62
     7
370
     5
100
AcDbTrace
 10
1260.993953850752
 20
-471.7328573258207
 30
0.0
 11
1260.993953850752
 21
-471.7328573258207
 31
0.0
 12
1258.181453850752
 22
-460.4828573258207
 32
0.0
 13
1263.806453850752
 23
-460.4828573258207
 33
0.0
  0
SOLID
  5
154
330
14B
100
AcDbEntity
  8
____1
  6
Continuous
 62
     7
370
     5
100
AcDbTrace
 10
1258.181453850752
 20
-460.4828573258207
 30
0.0
 11
1260.993953850752
 21
-460.4828573258207
 31
0.0
 12
1257.243953850752
 22
-456.7328573258207
 32
0.0
 13
1257.243953850752
 23
-456.7328573258207
 33
0.0
  0
SOLID
  5
155
330
14B
100
AcDbEntity
  8
____1
  6
Continuous
 62
     7
370
     5
100
AcDbTrace
 10
1260.993953850752
 20
-460.4828573258207
 30
0.0
 11
1263.806453850752
 21
-460.4828573258207
 31
0.0
 12
1264.743953850752
 22
-456.7328573258207
 32
0.0
 13
1264.743953850752
 23
-456.7328573258207
 33
0.0
  0
LINE
  5
156
330
14B
100
AcDbEntity
  8
____1
  6
Continuous
 62
     7
370
     5
100
AcDbLine
 10
1260.993953850752
 20
-471.7328573258207
 30
0.0
 11
1260.993953850752
 21
-344.2328573258212
 31
0.0
  0
MTEXT
  5
157
330
14B
100
AcDbEntity
  8
寸法線_1
  6
DASHED2
 62
     7
370
     5
100
AcDbMText
 10
1238.355064538007
 20
-353.0523019821933
 30
0.0
 40
17.63888931274414
 41
17.70779122412205
 71
     1
 72
     1
  1
51
  7
Style1
 11
0.0
 21
1.0
 31
0.0
 73
     1
 44
1.0
1001
ACAD
1000
MTEXTBEGIN
1070
    73
1070
     1
1070
    44
1040
1.0
1070
    74
1070
     0
1000
MTEXTEND
  0
ENDBLK
  5
158
330
14B
100
AcDbEntity
  8
0
100
AcDbBlockEnd
  0
BLOCK
  5
15B
330
15A
100
AcDbEntity
  8
0
100
AcDbBlockBegin
  2
*D11
 70
     1
 10
0.0
 20
0.0
 30
0.0
  3
*D11
  1

  0
LINE
  5
15C
330
15A
100
AcDbEntity
  8
____1
  6
Continuous
 62
     7
370
     5
100
AcDbLine
 10
1143.724487704918
 20
-166.7328573258217
 30
0.0
 11
1188.724487704918
 21
-166.7328573258217
 31
0.0
  0
LINE
  5
15D
330
15A
100
AcDbEntity
  8
____1
  6
Continuous
 62
     7
370
     5
100
AcDbLine
 10
1188.724487704918
 20
-215.7328573258217
 30
0.0
 11
1188.724487704918
 21
-164.2328573258216
 31
0.0
  0
LINE
  5
15E
330
15A
100
AcDbEntity
  8
____1
  6
Continuous
 62
     7
370
     5
100
AcDbLine
 10
1143.724487704918
 20
-273.2328573258194
 30
0.0
 11
1143.724487704918
 21
-164.2328573258216
 31
0.0
  0
SOLID
  5
15F
330
15A
100
AcDbEntity
  8
____1
  6
Continuous
 62
     7
370
     5
100
AcDbTrace
 10
1128.724487704918
 20
-170.4828573258216
 30
0.0
 11
1128.724487704918
 21
-170.4828573258216
 31
0.0
 12
1132.474487704918
 22
-166.7328573258217
 32
0.0
 13
1143.724487704918
 23
-166.7328573258217
 33
0.0
  0
SOLID
  5
160
330
15A
100
AcDbEntity
  8
____1
  6
Continuous
 62
     7
370
     5
100
AcDbTrace
 10
1132.474487704918
 20
-166.7328573258217
 30
0.0
 11
1143.724487704918
 21
-166.7328573258217
 31
0.0
 12
1128.724487704918
 22
-162.9828573258216
 32
0.0
 13
1128.724487704918
 23
-162.9828573258216
 33
0.0
  0
LINE
  5
161
330
15A
100
AcDbEntity
  8
____1
  6
Continuous
 62
     7
370
     5
100
AcDbLine
 10
1143.724487704918
 20
-166.7328573258217
 30
0.0
 11
1128.724487704918
 21
-166.7328573258217
 31
0.0
  0
SOLID
  5
162
330
15A
100
AcDbEntity
  8
____1
  6
Continuous
 62
     7
370
     5
100
AcDbTrace
 10
1203.724487704918
 20
-170.4828573258216
 30
0.0
 11
1203.724487704918
 21
-170.4828573258216
 31
0.0
 12
1188.724487704918
 22
-166.7328573258217
 32
0.0
 13
1199.974487704918
 23
-166.7328573258217
 33
0.0
  0
SOLID
  5
163
330
15A
100
AcDbEntity
  8
____1
  6
Continuous
 62
     7
370
     5
100
AcDbTrace
 10
1188.724487704918
 20
-166.7328573258217
 30
0.0
 11
1199.974487704918
 21
-166.7328573258217
 31
0.0
 12
1203.724487704918
 22
-162.9828573258216
 32
0.0
 13
1203.724487704918
 23
-162.9828573258216
 33
0.0
  0
LINE
  5
164
330
15A
100
AcDbEntity
  8
____1
  6
Continuous
 62
     7
370
     5
100
AcDbLine
 10
1188.724487704918
 20
-166.7328573258217
 30
0.0
 11
1203.724487704918
 21
-166.7328573258217
 31
0.0
  0
MTEXT
  5
165
330
15A
100
AcDbEntity
  8
寸法線_1
  6
DASHED2
 62
     7
370
     5
100
AcDbMText
 10
1161.814765376732
 20
-144.0939680130775
 30
0.0
 40
17.63888931274414
 41
8.853895612061023
 71
     1
 72
     1
  1
9
  7
Style1
 73
     1
 44
1.0
1001
ACAD
1000
MTEXTBEGIN
1070
    73
1070
     1
1070
    44
1040
1.0
1070
    74
1070
     0
1000
MTEXTEND
  0
ENDBLK
  5
166
330
15A
100
AcDbEntity
  8
0
100
AcDbBlockEnd
  0
BLOCK
  5
169
330
168
100
AcDbEntity
  8
0
100
AcDbBlockBegin
  2
*D12
 70
     1
 10
0.0
 20
0.0
 30
0.0
  3
*D12
  1

  0
LINE
  5
16A
330
168
100
AcDbEntity
  8
____1
  6
Continuous
 62
     7
370
     5
100
AcDbLine
 10
1147.724487704918
 20
-269.2328573258194
 30
0.0
 11
1086.779370517418
 21
-269.2328573258194
 31
0.0
  0
LINE
  5
16B
330
168
100
AcDbEntity
  8
____1
  6
Continuous
 62
     7
370
     5
100
AcDbLine
 10
1147.724487704918
 20
-419.2328573258209
 30
0.0
 11
1086.779370517418
 21
-419.2328573258209
 31
0.0
  0
SOLID
  5
16C
330
168
100
AcDbEntity
  8
____1
  6
Continuous
 62
     7
370
     5
100
AcDbTrace
 10
1089.279370517418
 20
-419.2328573258209
 30
0.0
 11
1089.279370517418
 21
-419.2328573258209
 31
0.0
 12
1086.466870517418
 22
-407.9828573258209
 32
0.0
 13
1092.091870517418
 23
-407.9828573258209
 33
0.0
  0
SOLID
  5
16D
330
168
100
AcDbEntity
  8
____1
  6
Continuous
 62
     7
370
     5
100
AcDbTrace
 10
1086.466870517418
 20
-407.9828573258209
 30
0.0
 11
1089.279370517418
 21
-407.9828573258209
 31
0.0
 12
1085.529370517418
 22
-404.2328573258209
 32
0.0
 13
1085.529370517418
 23
-404.2328573258209
 33
0.0
  0
SOLID
  5
16E
330
168
100
AcDbEntity
  8
____1
  6
Continuous
 62
     7
370
     5
100
AcDbTrace
 10
1089.279370517418
 20
-407.9828573258209
 30
0.0
 11
1092.091870517418
 21
-407.9828573258209
 31
0.0
 12
1093.029370517418
 22
-404.2328573258209
 32
0.0
 13
1093.029370517418
 23
-404.2328573258209
 33
0.0
  0
LINE
  5
16F
330
168
100
AcDbEntity
  8
____1
  6
Continuous
 62
     7
370
     5
100
AcDbLine
 10
1089.279370517418
 20
-419.2328573258209
 30
0.0
 11
1089.279370517418
 21
-344.2328573258202
 31
0.0
  0
SOLID
  5
170
330
168
100
AcDbEntity
  8
____1
  6
Continuous
 62
     7
370
     5
100
AcDbTrace
 10
1085.529370517418
 20
-284.2328573258194
 30
0.0
 11
1085.529370517418
 21
-284.2328573258194
 31
0.0
 12
1086.466870517418
 22
-280.4828573258194
 32
0.0
 13
1089.279370517418
 23
-280.4828573258194
 33
0.0
  0
SOLID
  5
171
330
168
100
AcDbEntity
  8
____1
  6
Continuous
 62
     7
370
     5
100
AcDbTrace
 10
1093.029370517418
 20
-284.2328573258194
 30
0.0
 11
1093.029370517418
 21
-284.2328573258194
 31
0.0
 12
1089.279370517418
 22
-280.4828573258194
 32
0.0
 13
1092.091870517418
 23
-280.4828573258194
 33
0.0
  0
SOLID
  5
172
330
168
100
AcDbEntity
  8
____1
  6
Continuous
 62
     7
370
     5
100
AcDbTrace
 10
1086.466870517418
 20
-280.4828573258194
 30
0.0
 11
1092.091870517418
 21
-280.4828573258194
 31
0.0
 12
1089.279370517418
 22
-269.2328573258194
 32
0.0
 13
1089.279370517418
 23
-269.2328573258194
 33
0.0
  0
LINE
  5
173
330
168
100
AcDbEntity
  8
____1
  6
Continuous
 62
     7
370
     5
100
AcDbLine
 10
1089.279370517418
 20
-269.2328573258194
 30
0.0
 11
1089.279370517418
 21
-344.2328573258202
 31
0.0
  0
MTEXT
  5
174
330
168
100
AcDbEntity
  8
寸法線_1
  6
DASHED2
 62
     7
370
     5
100
AcDbMText
 10
1066.640481204674
 20
-353.0523019821923
 30
0.0
 40
17.63888931274414
 41
17.70779122412205
 71
     1
 72
     1
  1
30
  7
Style1
 11
0.0
 21
1.0
 31
0.0
 73
     1
 44
1.0
1001
ACAD
1000
MTEXTBEGIN
1070
    73
1070
     1
1070
    44
1040
1.0
1070
    74
1070
     0
1000
MTEXTEND
  0
ENDBLK
  5
175
330
168
100
AcDbEntity
  8
0
100
AcDbBlockEnd
  0
BLOCK
  5
178
330
177
100
AcDbEntity
  8
0
100
AcDbBlockBegin
  2
*D13
 70
     1
 10
0.0
 20
0.0
 30
0.0
  3
*D13
  1

  0
LINE
  5
179
330
177
100
AcDbEntity
  8
____1
  6
Continuous
 62
     7
370
     5
100
AcDbLine
 10
1427.667492685936
 20
31.27254387096389
 30
0.0
 11
1427.667492685936
 21
123.3684437951283
 31
0.0
  0
LINE
  5
17A
330
177
100
AcDbEntity
  8
____1
  6
Continuous
 62
     7
370
     5
100
AcDbLine
 10
1227.667492685936
 20
31.272543870964
 30
0.0
 11
1227.667492685936
 21
123.3684437951283
 31
0.0
  0
SOLID
  5
17B
330
177
100
AcDbEntity
  8
____1
  6
Continuous
 62
     7
370
     5
100
AcDbTrace
 10
1242.667492685936
 20
119.1184437951283
 30
0.0
 11
1242.667492685936
 21
119.1184437951283
 31
0.0
 12
1227.667492685936
 22
122.8684437951283
 32
0.0
 13
1238.917492685936
 23
122.8684437951283
 33
0.0
  0
SOLID
  5
17C
330
177
100
AcDbEntity
  8
____1
  6
Continuous
 62
     7
370
     5
100
AcDbTrace
 10
1227.667492685936
 20
122.8684437951283
 30
0.0
 11
1238.917492685936
 21
122.8684437951283
 31
0.0
 12
1242.667492685936
 22
126.6184437951283
 32
0.0
 13
1242.667492685936
 23
126.6184437951283
 33
0.0
  0
LINE
  5
17D
330
177
100
AcDbEntity
  8
____1
  6
Continuous
 62
     7
370
     5
100
AcDbLine
 10
1227.667492685936
 20
122.8684437951283
 30
0.0
 11
1327.667492685936
 21
122.8684437951283
 31
0.0
  0
SOLID
  5
17E
330
177
100
AcDbEntity
  8
____1
  6
Continuous
 62
     7
370
     5
100
AcDbTrace
 10
1412.667492685936
 20
119.1184437951283
 30
0.0
 11
1412.667492685936
 21
119.1184437951283
 31
0.0
 12
1416.417492685936
 22
122.8684437951283
 32
0.0
 13
1427.667492685936
 23
122.8684437951283
 33
0.0
  0
SOLID
  5
17F
330
177
100
AcDbEntity
  8
____1
  6
Continuous
 62
     7
370
     5
100
AcDbTrace
 10
1416.417492685936
 20
122.8684437951283
 30
0.0
 11
1427.667492685936
 21
122.8684437951283
 31
0.0
 12
1412.667492685936
 22
126.6184437951283
 32
0.0
 13
1412.667492685936
 23
126.6184437951283
 33
0.0
  0
LINE
  5
180
330
177
100
AcDbEntity
  8
____1
  6
Continuous
 62
     7
370
     5
100
AcDbLine
 10
1427.667492685936
 20
122.8684437951283
 30
0.0
 11
1327.667492685936
 21
122.8684437951283
 31
0.0
  0
MTEXT
  5
181
330
177
100
AcDbEntity
  8
寸法線_1
  6
Continuous
 62
     7
370
     5
100
AcDbMText
 10
1314.438325701378
 20
141.5073331078724
 30
0.0
 40
17.63888931274414
 41
26.56168683618307
 71
     1
 72
     1
  1
200
  7
Style1
 73
     1
 44
1.0
1001
ACAD
1000
MTEXTBEGIN
1070
    73
1070
     1
1070
    44
1040
1.0
1070
    74
1070
     0
1000
MTEXTEND
  0
ENDBLK
  5
182
330
177
100
AcDbEntity
  8
0
100
AcDbBlockEnd
  0
BLOCK
  5
185
330
184
100
AcDbEntity
  8
0
100
AcDbBlockBegin
  2
*D14
 70
     1
 10
0.0
 20
0.0
 30
0.0
  3
*D14
  1

  0
LINE
  5
186
330
184
100
AcDbEntity
  8
____1
  6
Continuous
 62
     7
370
     5
100
AcDbLine
 10
1587.667492685935
 20
40.27254387096468
 30
0.0
 11
1587.667492685935
 21
123.3684437951283
 31
0.0
  0
LINE
  5
187
330
184
100
AcDbEntity
  8
____1
  6
Continuous
 62
     7
370
     5
100
AcDbLine
 10
1427.667492685936
 20
31.27254387096389
 30
0.0
 11
1427.667492685936
 21
123.3684437951283
 31
0.0
  0
SOLID
  5
188
330
184
100
AcDbEntity
  8
____1
  6
Continuous
 62
     7
370
     5
100
AcDbTrace
 10
1442.667492685936
 20
119.1184437951283
 30
0.0
 11
1442.667492685936
 21
119.1184437951283
 31
0.0
 12
1427.667492685936
 22
122.8684437951283
 32
0.0
 13
1438.917492685936
 23
122.8684437951283
 33
0.0
  0
SOLID
  5
189
330
184
100
AcDbEntity
  8
____1
  6
Continuous
 62
     7
370
     5
100
AcDbTrace
 10
1427.667492685936
 20
122.8684437951283
 30
0.0
 11
1438.917492685936
 21
122.8684437951283
 31
0.0
 12
1442.667492685936
 22
126.6184437951283
 32
0.0
 13
1442.667492685936
 23
126.6184437951283
 33
0.0
  0
LINE
  5
18A
330
184
100
AcDbEntity
  8
____1
  6
Continuous
 62
     7
370
     5
100
AcDbLine
 10
1427.667492685936
 20
122.8684437951283
 30
0.0
 11
1507.667492685936
 21
122.8684437951283
 31
0.0
  0
SOLID
  5
18B
330
184
100
AcDbEntity
  8
____1
  6
Continuous
 62
     7
370
     5
100
AcDbTrace
 10
1572.667492685935
 20
119.1184437951283
 30
0.0
 11
1572.667492685935
 21
119.1184437951283
 31
0.0
 12
1576.417492685935
 22
122.8684437951283
 32
0.0
 13
1587.667492685935
 23
122.8684437951283
 33
0.0
  0
SOLID
  5
18C
330
184
100
AcDbEntity
  8
____1
  6
Continuous
 62
     7
370
     5
100
AcDbTrace
 10
1576.417492685935
 20
122.8684437951283
 30
0.0
 11
1587.667492685935
 21
122.8684437951283
 31
0.0
 12
1572.667492685935
 22
126.6184437951283
 32
0.0
 13
1572.667492685935
 23
126.6184437951283
 33
0.0
  0
LINE
  5
18D
330
184
100
AcDbEntity
  8
____1
  6
Continuous
 62
     7
370
     5
100
AcDbLine
 10
1587.667492685935
 20
122.8684437951283
 30
0.0
 11
1507.667492685936
 21
122.8684437951283
 31
0.0
  0
MTEXT
  5
18E
330
184
100
AcDbEntity
  8
寸法線_1
  6
Continuous
 62
     7
370
     5
100
AcDbMText
 10
1494.438325701378
 20
141.5073331078724
 30
0.0
 40
17.63888931274414
 41
26.56168683618307
 71
     1
 72
     1
  1
160
  7
Style1
 73
     1
 44
1.0
1001
ACAD
1000
MTEXTBEGIN
1070
    73
1070
     1
1070
    44
1040
1.0
1070
    74
1070
     0
1000
MTEXTEND
  0
ENDBLK
  5
18F
330
184
100
AcDbEntity
  8
0
100
AcDbBlockEnd
  0
BLOCK
  5
192
330
191
100
AcDbEntity
  8
0
100
AcDbBlockBegin
  2
*D15
 70
     1
 10
0.0
 20
0.0
 30
0.0
  3
*D15
  1

  0
LINE
  5
193
330
191
100
AcDbEntity
  8
____1
  6
Continuous
 62
     7
370
     5
100
AcDbLine
 10
827.6674926859362
 20
31.27254387096412
 30
0.0
 11
827.6674926859362
 21
123.3684437951283
 31
0.0
  0
LINE
  5
194
330
191
100
AcDbEntity
  8
____1
  6
Continuous
 62
     7
370
     5
100
AcDbLine
 10
627.6674926859361
 20
31.27254387096412
 30
0.0
 11
627.6674926859361
 21
123.3684437951283
 31
0.0
  0
SOLID
  5
195
330
191
100
AcDbEntity
  8
____1
  6
Continuous
 62
     7
370
     5
100
AcDbTrace
 10
642.6674926859361
 20
119.1184437951283
 30
0.0
 11
642.6674926859361
 21
119.1184437951283
 31
0.0
 12
627.6674926859361
 22
122.8684437951283
 32
0.0
 13
638.9174926859361
 23
122.8684437951283
 33
0.0
  0
SOLID
  5
196
330
191
100
AcDbEntity
  8
____1
  6
Continuous
 62
     7
370
     5
100
AcDbTrace
 10
627.6674926859361
 20
122.8684437951283
 30
0.0
 11
638.9174926859361
 21
122.8684437951283
 31
0.0
 12
642.6674926859361
 22
126.6184437951283
 32
0.0
 13
642.6674926859361
 23
126.6184437951283
 33
0.0
  0
LINE
  5
197
330
191
100
AcDbEntity
  8
____1
  6
Continuous
 62
     7
370
     5
100
AcDbLine
 10
627.6674926859361
 20
122.8684437951283
 30
0.0
 11
727.6674926859361
 21
122.8684437951283
 31
0.0
  0
SOLID
  5
198
330
191
100
AcDbEntity
  8
____1
  6
Continuous
 62
     7
370
     5
100
AcDbTrace
 10
812.6674926859362
 20
119.1184437951283
 30
0.0
 11
812.6674926859362
 21
119.1184437951283
 31
0.0
 12
816.4174926859361
 22
122.8684437951283
 32
0.0
 13
827.6674926859362
 23
122.8684437951283
 33
0.0
  0
SOLID
  5
199
330
191
100
AcDbEntity
  8
____1
  6
Continuous
 62
     7
370
     5
100
AcDbTrace
 10
816.4174926859361
 20
122.8684437951283
 30
0.0
 11
827.6674926859362
 21
122.8684437951283
 31
0.0
 12
812.6674926859362
 22
126.6184437951283
 32
0.0
 13
812.6674926859362
 23
126.6184437951283
 33
0.0
  0
LINE
  5
19A
330
191
100
AcDbEntity
  8
____1
  6
Continuous
 62
     7
370
     5
100
AcDbLine
 10
827.6674926859362
 20
122.8684437951283
 30
0.0
 11
727.6674926859361
 21
122.8684437951283
 31
0.0
  0
MTEXT
  5
19B
330
191
100
AcDbEntity
  8
寸法線_1
  6
Continuous
 62
     7
370
     5
100
AcDbMText
 10
714.438325701378
 20
141.5073331078724
 30
0.0
 40
17.63888931274414
 41
26.56168683618307
 71
     1
 72
     1
  1
200
  7
Style1
 73
     1
 44
1.0
1001
ACAD
1000
MTEXTBEGIN
1070
    73
1070
     1
1070
    44
1040
1.0
1070
    74
1070
     0
1000
MTEXTEND
  0
ENDBLK
  5
19C
330
191
100
AcDbEntity
  8
0
100
AcDbBlockEnd
  0
BLOCK
  5
19F
330
19E
100
AcDbEntity
  8
0
100
AcDbBlockBegin
  2
*D16
 70
     1
 10
0.0
 20
0.0
 30
0.0
  3
*D16
  1

  0
LINE
  5
1A0
330
19E
100
AcDbEntity
  8
____1
  6
Continuous
 62
     7
370
     5
100
AcDbLine
 10
1027.667492685936
 20
31.272543870964
 30
0.0
 11
1027.667492685936
 21
123.3684437951283
 31
0.0
  0
LINE
  5
1A1
330
19E
100
AcDbEntity
  8
____1
  6
Continuous
 62
     7
370
     5
100
AcDbLine
 10
827.6674926859362
 20
31.27254387096412
 30
0.0
 11
827.6674926859362
 21
123.3684437951283
 31
0.0
  0
SOLID
  5
1A2
330
19E
100
AcDbEntity
  8
____1
  6
Continuous
 62
     7
370
     5
100
AcDbTrace
 10
842.6674926859361
 20
119.1184437951283
 30
0.0
 11
842.6674926859361
 21
119.1184437951283
 31
0.0
 12
827.6674926859362
 22
122.8684437951283
 32
0.0
 13
838.9174926859361
 23
122.8684437951283
 33
0.0
  0
SOLID
  5
1A3
330
19E
100
AcDbEntity
  8
____1
  6
Continuous
 62
     7
370
     5
100
AcDbTrace
 10
827.6674926859362
 20
122.8684437951283
 30
0.0
 11
838.9174926859361
 21
122.8684437951283
 31
0.0
 12
842.6674926859361
 22
126.6184437951283
 32
0.0
 13
842.6674926859361
 23
126.6184437951283
 33
0.0
  0
LINE
  5
1A4
330
19E
100
AcDbEntity
  8
____1
  6
Continuous
 62
     7
370
     5
100
AcDbLine
 10
827.6674926859362
 20
122.8684437951283
 30
0.0
 11
927.6674926859362
 21
122.8684437951283
 31
0.0
  0
SOLID
  5
1A5
330
19E
100
AcDbEntity
  8
____1
  6
Continuous
 62
     7
370
     5
100
AcDbTrace
 10
1012.667492685936
 20
119.1184437951283
 30
0.0
 11
1012.667492685936
 21
119.1184437951283
 31
0.0
 12
1016.417492685936
 22
122.8684437951283
 32
0.0
 13
1027.667492685936
 23
122.8684437951283
 33
0.0
  0
SOLID
  5
1A6
330
19E
100
AcDbEntity
  8
____1
  6
Continuous
 62
     7
370
     5
100
AcDbTrace
 10
1016.417492685936
 20
122.8684437951283
 30
0.0
 11
1027.667492685936
 21
122.8684437951283
 31
0.0
 12
1012.667492685936
 22
126.6184437951283
 32
0.0
 13
1012.667492685936
 23
126.6184437951283
 33
0.0
  0
LINE
  5
1A7
330
19E
100
AcDbEntity
  8
____1
  6
Continuous
 62
     7
370
     5
100
AcDbLine
 10
1027.667492685936
 20
122.8684437951283
 30
0.0
 11
927.6674926859362
 21
122.8684437951283
 31
0.0
  0
MTEXT
  5
1A8
330
19E
100
AcDbEntity
  8
寸法線_1
  6
Continuous
 62
     7
370
     5
100
AcDbMText
 10
914.438325701378
 20
141.5073331078724
 30
0.0
 40
17.63888931274414
 41
26.56168683618307
 71
     1
 72
     1
  1
200
  7
Style1
 73
     1
 44
1.0
1001
ACAD
1000
MTEXTBEGIN
1070
    73
1070
     1
1070
    44
1040
1.0
1070
    74
1070
     0
1000
MTEXTEND
  0
ENDBLK
  5
1A9
330
19E
100
AcDbEntity
  8
0
100
AcDbBlockEnd
  0
BLOCK
  5
1AC
330
1AB
100
AcDbEntity
  8
0
100
AcDbBlockBegin
  2
*D17
 70
     1
 10
0.0
 20
0.0
 30
0.0
  3
*D17
  1

  0
LINE
  5
1AD
330
1AB
100
AcDbEntity
  8
____1
  6
Continuous
 62
     7
370
     5
100
AcDbLine
 10
427.6674926859361
 20
31.27254387096423
 30
0.0
 11
427.6674926859361
 21
123.3684437951283
 31
0.0
  0
LINE
  5
1AE
330
1AB
100
AcDbEntity
  8
____1
  6
Continuous
 62
     7
370
     5
100
AcDbLine
 10
227.6674926859362
 20
31.27254387096423
 30
0.0
 11
227.6674926859362
 21
123.3684437951283
 31
0.0
  0
SOLID
  5
1AF
330
1AB
100
AcDbEntity
  8
____1
  6
Continuous
 62
     7
370
     5
100
AcDbTrace
 10
242.6674926859362
 20
119.1184437951283
 30
0.0
 11
242.6674926859362
 21
119.1184437951283
 31
0.0
 12
227.6674926859362
 22
122.8684437951283
 32
0.0
 13
238.9174926859362
 23
122.8684437951283
 33
0.0
  0
SOLID
  5
1B0
330
1AB
100
AcDbEntity
  8
____1
  6
Continuous
 62
     7
370
     5
100
AcDbTrace
 10
227.6674926859362
 20
122.8684437951283
 30
0.0
 11
238.9174926859362
 21
122.8684437951283
 31
0.0
 12
242.6674926859362
 22
126.6184437951283
 32
0.0
 13
242.6674926859362
 23
126.6184437951283
 33
0.0
  0
LINE
  5
1B1
330
1AB
100
AcDbEntity
  8
____1
  6
Continuous
 62
     7
370
     5
100
AcDbLine
 10
227.6674926859362
 20
122.8684437951283
 30
0.0
 11
327.6674926859362
 21
122.8684437951283
 31
0.0
  0
SOLID
  5
1B2
330
1AB
100
AcDbEntity
  8
____1
  6
Continuous
 62
     7
370
     5
100
AcDbTrace
 10
412.6674926859362
 20
119.1184437951283
 30
0.0
 11
412.6674926859362
 21
119.1184437951283
 31
0.0
 12
416.4174926859361
 22
122.8684437951283
 32
0.0
 13
427.6674926859361
 23
122.8684437951283
 33
0.0
  0
SOLID
  5
1B3
330
1AB
100
AcDbEntity
  8
____1
  6
Continuous
 62
     7
370
     5
100
AcDbTrace
 10
416.4174926859361
 20
122.8684437951283
 30
0.0
 11
427.6674926859361
 21
122.8684437951283
 31
0.0
 12
412.6674926859362
 22
126.6184437951283
 32
0.0
 13
412.6674926859362
 23
126.6184437951283
 33
0.0
  0
LINE
  5
1B4
330
1AB
100
AcDbEntity
  8
____1
  6
Continuous
 62
     7
370
     5
100
AcDbLine
 10
427.6674926859361
 20
122.8684437951283
 30
0.0
 11
327.6674926859362
 21
122.8684437951283
 31
0.0
  0
MTEXT
  5
1B5
330
1AB
100
AcDbEntity
  8
寸法線_1
  6
Continuous
 62
     7
370
     5
100
AcDbMText
 10
314.4383257013781
 20
141.5073331078724
 30
0.0
 40
17.63888931274414
 41
26.56168683618307
 71
     1
 72
     1
  1
200
  7
Style1
 73
     1
 44
1.0
1001
ACAD
1000
MTEXTBEGIN
1070
    73
1070
     1
1070
    44
1040
1.0
1070
    74
1070
     0
1000
MTEXTEND
  0
ENDBLK
  5
1B6
330
1AB
100
AcDbEntity
  8
0
100
AcDbBlockEnd
  0
BLOCK
  5
1B9
330
1B8
100
AcDbEntity
  8
0
100
AcDbBlockBegin
  2
*D18
 70
     1
 10
0.0
 20
0.0
 30
0.0
  3
*D18
  1

  0
LINE
  5
1BA
330
1B8
100
AcDbEntity
  8
____1
  6
Continuous
 62
     7
370
     5
100
AcDbLine
 10
27.66749268593617
 20
31.27254387096434
 30
0.0
 11
27.66749268593617
 21
123.3684437951283
 31
0.0
  0
LINE
  5
1BB
330
1B8
100
AcDbEntity
  8
____1
  6
Continuous
 62
     7
370
     5
100
AcDbLine
 10
-12.33250731406383
 20
40.27254387096468
 30
0.0
 11
-12.33250731406383
 21
123.3684437951283
 31
0.0
  0
SOLID
  5
1BC
330
1B8
100
AcDbEntity
  8
____1
  6
Continuous
 62
     7
370
     5
100
AcDbTrace
 10
2.667492685936167
 20
119.1184437951283
 30
0.0
 11
2.667492685936167
 21
119.1184437951283
 31
0.0
 12
-12.33250731406383
 22
122.8684437951283
 32
0.0
 13
-1.082507314063832
 23
122.8684437951283
 33
0.0
  0
SOLID
  5
1BD
330
1B8
100
AcDbEntity
  8
____1
  6
Continuous
 62
     7
370
     5
100
AcDbTrace
 10
-12.33250731406383
 20
122.8684437951283
 30
0.0
 11
-1.082507314063832
 21
122.8684437951283
 31
0.0
 12
2.667492685936167
 22
126.6184437951283
 32
0.0
 13
2.667492685936167
 23
126.6184437951283
 33
0.0
  0
LINE
  5
1BE
330
1B8
100
AcDbEntity
  8
____1
  6
Continuous
 62
     7
370
     5
100
AcDbLine
 10
-12.33250731406383
 20
122.8684437951283
 30
0.0
 11
27.66749268593617
 21
122.8684437951283
 31
0.0
  0
SOLID
  5
1BF
330
1B8
100
AcDbEntity
  8
____1
  6
Continuous
 62
     7
370
     5
100
AcDbTrace
 10
12.66749268593617
 20
119.1184437951283
 30
0.0
 11
12.66749268593617
 21
119.1184437951283
 31
0.0
 12
16.41749268593617
 22
122.8684437951283
 32
0.0
 13
27.66749268593617
 23
122.8684437951283
 33
0.0
  0
SOLID
  5
1C0
330
1B8
100
AcDbEntity
  8
____1
  6
Continuous
 62
     7
370
     5
100
AcDbTrace
 10
16.41749268593617
 20
122.8684437951283
 30
0.0
 11
27.66749268593617
 21
122.8684437951283
 31
0.0
 12
12.66749268593617
 22
126.6184437951283
 32
0.0
 13
12.66749268593617
 23
126.6184437951283
 33
0.0
  0
LINE
  5
1C1
330
1B8
100
AcDbEntity
  8
____1
  6
Continuous
 62
     7
370
     5
100
AcDbLine
 10
27.66749268593617
 20
122.8684437951283
 30
0.0
 11
-69.14106433296355
 21
122.8684437951283
 31
0.0
  0
MTEXT
  5
1C2
330
1B8
100
AcDbEntity
  8
寸法線_1
  6
Continuous
 62
     7
370
     5
100
AcDbMText
 10
-60.32161967659148
 20
141.5073331078724
 30
0.0
 40
17.63888931274414
 41
17.70779122412205
 71
     1
 72
     1
  1
40
  7
Style1
 73
     1
 44
1.0
1001
ACAD
1000
MTEXTBEGIN
1070
    73
1070
     1
1070
    44
1040
1.0
1070
    74
1070
     0
1000
MTEXTEND
  0
ENDBLK
  5
1C3
330
1B8
100
AcDbEntity
  8
0
100
AcDbBlockEnd
  0
BLOCK
  5
1C6
330
1C5
100
AcDbEntity
  8
0
100
AcDbBlockBegin
  2
*D19
 70
     1
 10
0.0
 20
0.0
 30
0.0
  3
*D19
  1

  0
LINE
  5
1C7
330
1C5
100
AcDbEntity
  8
____1
  6
Continuous
 62
     7
370
     5
100
AcDbLine
 10
1567.667492685935
 20
180.9373396929855
 30
0.0
 11
1587.667492685935
 21
180.9373396929855
 31
0.0
  0
LINE
  5
1C8
330
1C5
100
AcDbEntity
  8
____1
  6
Continuous
 62
     7
370
     5
100
AcDbLine
 10
1587.667492685935
 20
40.27254387096468
 30
0.0
 11
1587.667492685935
 21
181.4373396929855
 31
0.0
  0
LINE
  5
1C9
330
1C5
100
AcDbEntity
  8
____1
  6
Continuous
 62
     7
370
     5
100
AcDbLine
 10
1567.667492685935
 20
33.27254387096434
 30
0.0
 11
1567.667492685935
 21
181.4373396929855
 31
0.0
  0
SOLID
  5
1CA
330
1C5
100
AcDbEntity
  8
____1
  6
Continuous
 62
     7
370
     5
100
AcDbTrace
 10
1552.667492685935
 20
177.1873396929855
 30
0.0
 11
1552.667492685935
 21
177.1873396929855
 31
0.0
 12
1556.417492685935
 22
180.9373396929855
 32
0.0
 13
1567.667492685935
 23
180.9373396929855
 33
0.0
  0
SOLID
  5
1CB
330
1C5
100
AcDbEntity
  8
____1
  6
Continuous
 62
     7
370
     5
100
AcDbTrace
 10
1556.417492685935
 20
180.9373396929855
 30
0.0
 11
1567.667492685935
 21
180.9373396929855
 31
0.0
 12
1552.667492685935
 22
184.6873396929855
 32
0.0
 13
1552.667492685935
 23
184.6873396929855
 33
0.0
  0
LINE
  5
1CC
330
1C5
100
AcDbEntity
  8
____1
  6
Continuous
 62
     7
370
     5
100
AcDbLine
 10
1567.667492685935
 20
180.9373396929855
 30
0.0
 11
1564.667492685935
 21
180.9373396929855
 31
0.0
  0
SOLID
  5
1CD
330
1C5
100
AcDbEntity
  8
____1
  6
Continuous
 62
     7
370
     5
100
AcDbTrace
 10
1602.667492685935
 20
177.1873396929855
 30
0.0
 11
1602.667492685935
 21
177.1873396929855
 31
0.0
 12
1587.667492685935
 22
180.9373396929855
 32
0.0
 13
1598.917492685935
 23
180.9373396929855
 33
0.0
  0
SOLID
  5
1CE
330
1C5
100
AcDbEntity
  8
____1
  6
Continuous
 62
     7
370
     5
100
AcDbTrace
 10
1587.667492685935
 20
180.9373396929855
 30
0.0
 11
1598.917492685935
 21
180.9373396929855
 31
0.0
 12
1602.667492685935
 22
184.6873396929855
 32
0.0
 13
1602.667492685935
 23
184.6873396929855
 33
0.0
  0
LINE
  5
1CF
330
1C5
100
AcDbEntity
  8
____1
  6
Continuous
 62
     7
370
     5
100
AcDbLine
 10
1587.667492685935
 20
180.9373396929855
 30
0.0
 11
1590.667492685935
 21
180.9373396929855
 31
0.0
  0
MTEXT
  5
1D0
330
1C5
100
AcDbEntity
  8
寸法線_1
  6
Continuous
 62
     7
370
     5
100
AcDbMText
 10
1568.848048029563
 20
199.5762290057296
 30
0.0
 40
17.63888931274414
 41
17.70779122412205
 71
     1
 72
     1
  1
20
  7
Style1
 73
     1
 44
1.0
1001
ACAD
1000
MTEXTBEGIN
1070
    73
1070
     1
1070
    44
1040
1.0
1070
    74
1070
     0
1000
MTEXTEND
  0
ENDBLK
  5
1D1
330
1C5
100
AcDbEntity
  8
0
100
AcDbBlockEnd
  0
BLOCK
  5
1D4
330
1D3
100
AcDbEntity
  8
0
100
AcDbBlockBegin
  2
*D20
 70
     1
 10
0.0
 20
0.0
 30
0.0
  3
*D20
  1

  0
LINE
  5
1D5
330
1D3
100
AcDbEntity
  8
____1
  6
Continuous
 62
     7
370
     5
100
AcDbLine
 10
-12.33250731406383
 20
180.9373396929855
 30
0.0
 11
7.667492685936167
 21
180.9373396929855
 31
0.0
  0
LINE
  5
1D6
330
1D3
100
AcDbEntity
  8
____1
  6
Continuous
 62
     7
370
     5
100
AcDbLine
 10
7.667492685936167
 20
33.27254387096434
 30
0.0
 11
7.667492685936167
 21
181.4373396929855
 31
0.0
  0
LINE
  5
1D7
330
1D3
100
AcDbEntity
  8
____1
  6
Continuous
 62
     7
370
     5
100
AcDbLine
 10
-12.33250731406383
 20
40.27254387096468
 30
0.0
 11
-12.33250731406383
 21
181.4373396929855
 31
0.0
  0
SOLID
  5
1D8
330
1D3
100
AcDbEntity
  8
____1
  6
Continuous
 62
     7
370
     5
100
AcDbTrace
 10
-27.33250731406383
 20
177.1873396929855
 30
0.0
 11
-27.33250731406383
 21
177.1873396929855
 31
0.0
 12
-23.58250731406383
 22
180.9373396929855
 32
0.0
 13
-12.33250731406383
 23
180.9373396929855
 33
0.0
  0
SOLID
  5
1D9
330
1D3
100
AcDbEntity
  8
____1
  6
Continuous
 62
     7
370
     5
100
AcDbTrace
 10
-23.58250731406383
 20
180.9373396929855
 30
0.0
 11
-12.33250731406383
 21
180.9373396929855
 31
0.0
 12
-27.33250731406383
 22
184.6873396929855
 32
0.0
 13
-27.33250731406383
 23
184.6873396929855
 33
0.0
  0
LINE
  5
1DA
330
1D3
100
AcDbEntity
  8
____1
  6
Continuous
 62
     7
370
     5
100
AcDbLine
 10
-12.33250731406383
 20
180.9373396929855
 30
0.0
 11
-15.33250731406383
 21
180.9373396929855
 31
0.0
  0
SOLID
  5
1DB
330
1D3
100
AcDbEntity
  8
____1
  6
Continuous
 62
     7
370
     5
100
AcDbTrace
 10
22.66749268593617
 20
177.1873396929855
 30
0.0
 11
22.66749268593617
 21
177.1873396929855
 31
0.0
 12
7.667492685936167
 22
180.9373396929855
 32
0.0
 13
18.91749268593617
 23
180.9373396929855
 33
0.0
  0
SOLID
  5
1DC
330
1D3
100
AcDbEntity
  8
____1
  6
Continuous
 62
     7
370
     5
100
AcDbTrace
 10
7.667492685936167
 20
180.9373396929855
 30
0.0
 11
18.91749268593617
 21
180.9373396929855
 31
0.0
 12
22.66749268593617
 22
184.6873396929855
 32
0.0
 13
22.66749268593617
 23
184.6873396929855
 33
0.0
  0
LINE
  5
1DD
330
1D3
100
AcDbEntity
  8
____1
  6
Continuous
 62
     7
370
     5
100
AcDbLine
 10
7.667492685936167
 20
180.9373396929855
 30
0.0
 11
10.66749268593617
 21
180.9373396929855
 31
0.0
  0
MTEXT
  5
1DE
330
1D3
100
AcDbEntity
  8
寸法線_1
  6
Continuous
 62
     7
370
     5
100
AcDbMText
 10
-11.1519519704359
 20
199.5762290057296
 30
0.0
 40
17.63888931274414
 41
17.70779122412205
 71
     1
 72
     1
  1
20
  7
Style1
 73
     1
 44
1.0
1001
ACAD
1000
MTEXTBEGIN
1070
    73
1070
     1
1070
    44
1040
1.0
1070
    74
1070
     0
1000
MTEXTEND
  0
ENDBLK
  5
1DF
330
1D3
100
AcDbEntity
  8
0
100
AcDbBlockEnd
  0
BLOCK
  5
1E2
330
1E1
100
AcDbEntity
  8
0
100
AcDbBlockBegin
  2
*D21
 70
     1
 10
0.0
 20
0.0
 30
0.0
  3
*D21
  1

  0
LINE
  5
1E3
330
1E1
100
AcDbEntity
  8
____1
  6
Continuous
 62
     7
370
     5
100
AcDbLine
 10
1227.667492685936
 20
31.272543870964
 30
0.0
 11
1227.667492685936
 21
123.3684437951283
 31
0.0
  0
LINE
  5
1E4
330
1E1
100
AcDbEntity
  8
____1
  6
Continuous
 62
     7
370
     5
100
AcDbLine
 10
1027.667492685936
 20
31.272543870964
 30
0.0
 11
1027.667492685936
 21
123.3684437951283
 31
0.0
  0
SOLID
  5
1E5
330
1E1
100
AcDbEntity
  8
____1
  6
Continuous
 62
     7
370
     5
100
AcDbTrace
 10
1042.667492685936
 20
119.1184437951283
 30
0.0
 11
1042.667492685936
 21
119.1184437951283
 31
0.0
 12
1027.667492685936
 22
122.8684437951283
 32
0.0
 13
1038.917492685936
 23
122.8684437951283
 33
0.0
  0
SOLID
  5
1E6
330
1E1
100
AcDbEntity
  8
____1
  6
Continuous
 62
     7
370
     5
100
AcDbTrace
 10
1027.667492685936
 20
122.8684437951283
 30
0.0
 11
1038.917492685936
 21
122.8684437951283
 31
0.0
 12
1042.667492685936
 22
126.6184437951283
 32
0.0
 13
1042.667492685936
 23
126.6184437951283
 33
0.0
  0
LINE
  5
1E7
330
1E1
100
AcDbEntity
  8
____1
  6
Continuous
 62
     7
370
     5
100
AcDbLine
 10
1027.667492685936
 20
122.8684437951283
 30
0.0
 11
1127.667492685936
 21
122.8684437951283
 31
0.0
  0
SOLID
  5
1E8
330
1E1
100
AcDbEntity
  8
____1
  6
Continuous
 62
     7
370
     5
100
AcDbTrace
 10
1212.667492685936
 20
119.1184437951283
 30
0.0
 11
1212.667492685936
 21
119.1184437951283
 31
0.0
 12
1216.417492685936
 22
122.8684437951283
 32
0.0
 13
1227.667492685936
 23
122.8684437951283
 33
0.0
  0
SOLID
  5
1E9
330
1E1
100
AcDbEntity
  8
____1
  6
Continuous
 62
     7
370
     5
100
AcDbTrace
 10
1216.417492685936
 20
122.8684437951283
 30
0.0
 11
1227.667492685936
 21
122.8684437951283
 31
0.0
 12
1212.667492685936
 22
126.6184437951283
 32
0.0
 13
1212.667492685936
 23
126.6184437951283
 33
0.0
  0
LINE
  5
1EA
330
1E1
100
AcDbEntity
  8
____1
  6
Continuous
 62
     7
370
     5
100
AcDbLine
 10
1227.667492685936
 20
122.8684437951283
 30
0.0
 11
1127.667492685936
 21
122.8684437951283
 31
0.0
  0
MTEXT
  5
1EB
330
1E1
100
AcDbEntity
  8
寸法線_1
  6
Continuous
 62
     7
370
     5
100
AcDbMText
 10
1114.438325701378
 20
141.5073331078724
 30
0.0
 40
17.63888931274414
 41
26.56168683618307
 71
     1
 72
     1
  1
200
  7
Style1
 73
     1
 44
1.0
1001
ACAD
1000
MTEXTBEGIN
1070
    73
1070
     1
1070
    44
1040
1.0
1070
    74
1070
     0
1000
MTEXTEND
  0
ENDBLK
  5
1EC
330
1E1
100
AcDbEntity
  8
0
100
AcDbBlockEnd
  0
BLOCK
  5
1EF
330
1EE
100
AcDbEntity
  8
0
100
AcDbBlockBegin
  2
*D22
 70
     1
 10
0.0
 20
0.0
 30
0.0
  3
*D22
  1

  0
LINE
  5
1F0
330
1EE
100
AcDbEntity
  8
____1
  6
Continuous
 62
     7
370
     5
100
AcDbLine
 10
627.6674926859361
 20
31.27254387096412
 30
0.0
 11
627.6674926859361
 21
123.3684437951283
 31
0.0
  0
LINE
  5
1F1
330
1EE
100
AcDbEntity
  8
____1
  6
Continuous
 62
     7
370
     5
100
AcDbLine
 10
427.6674926859361
 20
31.27254387096423
 30
0.0
 11
427.6674926859361
 21
123.3684437951283
 31
0.0
  0
SOLID
  5
1F2
330
1EE
100
AcDbEntity
  8
____1
  6
Continuous
 62
     7
370
     5
100
AcDbTrace
 10
442.6674926859361
 20
119.1184437951283
 30
0.0
 11
442.6674926859361
 21
119.1184437951283
 31
0.0
 12
427.6674926859361
 22
122.8684437951283
 32
0.0
 13
438.9174926859361
 23
122.8684437951283
 33
0.0
  0
SOLID
  5
1F3
330
1EE
100
AcDbEntity
  8
____1
  6
Continuous
 62
     7
370
     5
100
AcDbTrace
 10
427.6674926859361
 20
122.8684437951283
 30
0.0
 11
438.9174926859361
 21
122.8684437951283
 31
0.0
 12
442.6674926859361
 22
126.6184437951283
 32
0.0
 13
442.6674926859361
 23
126.6184437951283
 33
0.0
  0
LINE
  5
1F4
330
1EE
100
AcDbEntity
  8
____1
  6
Continuous
 62
     7
370
     5
100
AcDbLine
 10
427.6674926859361
 20
122.8684437951283
 30
0.0
 11
527.6674926859361
 21
122.8684437951283
 31
0.0
  0
SOLID
  5
1F5
330
1EE
100
AcDbEntity
  8
____1
  6
Continuous
 62
     7
370
     5
100
AcDbTrace
 10
612.6674926859362
 20
119.1184437951283
 30
0.0
 11
612.6674926859362
 21
119.1184437951283
 31
0.0
 12
616.4174926859361
 22
122.8684437951283
 32
0.0
 13
627.6674926859361
 23
122.8684437951283
 33
0.0
  0
SOLID
  5
1F6
330
1EE
100
AcDbEntity
  8
____1
  6
Continuous
 62
     7
370
     5
100
AcDbTrace
 10
616.4174926859361
 20
122.8684437951283
 30
0.0
 11
627.6674926859361
 21
122.8684437951283
 31
0.0
 12
612.6674926859362
 22
126.6184437951283
 32
0.0
 13
612.6674926859362
 23
126.6184437951283
 33
0.0
  0
LINE
  5
1F7
330
1EE
100
AcDbEntity
  8
____1
  6
Continuous
 62
     7
370
     5
100
AcDbLine
 10
627.6674926859361
 20
122.8684437951283
 30
0.0
 11
527.6674926859361
 21
122.8684437951283
 31
0.0
  0
MTEXT
  5
1F8
330
1EE
100
AcDbEntity
  8
寸法線_1
  6
Continuous
 62
     7
370
     5
100
AcDbMText
 10
514.438325701378
 20
141.5073331078724
 30
0.0
 40
17.63888931274414
 41
26.56168683618307
 71
     1
 72
     1
  1
200
  7
Style1
 73
     1
 44
1.0
1001
ACAD
1000
MTEXTBEGIN
1070
    73
1070
     1
1070
    44
1040
1.0
1070
    74
1070
     0
1000
MTEXTEND
  0
ENDBLK
  5
1F9
330
1EE
100
AcDbEntity
  8
0
100
AcDbBlockEnd
  0
BLOCK
  5
1FC
330
1FB
100
AcDbEntity
  8
0
100
AcDbBlockBegin
  2
*D23
 70
     1
 10
0.0
 20
0.0
 30
0.0
  3
*D23
  1

  0
LINE
  5
1FD
330
1FB
100
AcDbEntity
  8
____1
  6
Continuous
 62
     7
370
     5
100
AcDbLine
 10
1587.667492685935
 20
40.27254387096468
 30
0.0
 11
1587.667492685935
 21
230.0131860471521
 31
0.0
  0
LINE
  5
1FE
330
1FB
100
AcDbEntity
  8
____1
  6
Continuous
 62
     7
370
     5
100
AcDbLine
 10
-12.33250731406383
 20
40.27254387096468
 30
0.0
 11
-12.33250731406383
 21
230.0131860471521
 31
0.0
  0
SOLID
  5
1FF
330
1FB
100
AcDbEntity
  8
____1
  6
Continuous
 62
     7
370
     5
100
AcDbTrace
 10
2.667492685936169
 20
225.7631860471521
 30
0.0
 11
2.667492685936169
 21
225.7631860471521
 31
0.0
 12
-12.33250731406383
 22
229.5131860471522
 32
0.0
 13
-1.08250731406383
 23
229.5131860471522
 33
0.0
  0
SOLID
  5
200
330
1FB
100
AcDbEntity
  8
____1
  6
Continuous
 62
     7
370
     5
100
AcDbTrace
 10
-12.33250731406383
 20
229.5131860471522
 30
0.0
 11
-1.08250731406383
 21
229.5131860471522
 31
0.0
 12
2.667492685936169
 22
233.2631860471522
 32
0.0
 13
2.667492685936169
 23
233.2631860471522
 33
0.0
  0
LINE
  5
201
330
1FB
100
AcDbEntity
  8
____1
  6
Continuous
 62
     7
370
     5
100
AcDbLine
 10
-12.33250731406383
 20
229.5131860471522
 30
0.0
 11
787.6674926859358
 21
229.5131860471522
 31
0.0
  0
SOLID
  5
202
330
1FB
100
AcDbEntity
  8
____1
  6
Continuous
 62
     7
370
     5
100
AcDbTrace
 10
1572.667492685935
 20
225.7631860471521
 30
0.0
 11
1572.667492685935
 21
225.7631860471521
 31
0.0
 12
1576.417492685935
 22
229.5131860471522
 32
0.0
 13
1587.667492685935
 23
229.5131860471522
 33
0.0
  0
SOLID
  5
203
330
1FB
100
AcDbEntity
  8
____1
  6
Continuous
 62
     7
370
     5
100
AcDbTrace
 10
1576.417492685935
 20
229.5131860471522
 30
0.0
 11
1587.667492685935
 21
229.5131860471522
 31
0.0
 12
1572.667492685935
 22
233.2631860471522
 32
0.0
 13
1572.667492685935
 23
233.2631860471522
 33
0.0
  0
LINE
  5
204
330
1FB
100
AcDbEntity
  8
____1
  6
Continuous
 62
     7
370
     5
100
AcDbLine
 10
1587.667492685935
 20
229.5131860471522
 30
0.0
 11
787.6674926859358
 21
229.5131860471522
 31
0.0
  0
MTEXT
  5
205
330
1FB
100
AcDbEntity
  8
寸法線_1
  6
Continuous
 62
     7
370
     5
100
AcDbMText
 10
770.0286033731917
 20
248.1520753598963
 30
0.0
 40
17.63888931274414
 41
35.4155824482441
 71
     1
 72
     1
  1
1600
  7
Style1
 73
     1
 44
1.0
1001
ACAD
1000
MTEXTBEGIN
1070
    73
1070
     1
1070
    44
1040
1.0
1070
    74
1070
     0
1000
MTEXTEND
  0
ENDBLK
  5
206
330
1FB
100
AcDbEntity
  8
0
100
AcDbBlockEnd
  0
BLOCK
  5
209
330
208
100
AcDbEntity
  8
0
100
AcDbBlockBegin
  2
*D24
 70
     1
 10
0.0
 20
0.0
 30
0.0
  3
*D24
  1

  0
LINE
  5
20A
330
208
100
AcDbEntity
  8
____1
  6
Continuous
 62
     7
370
     5
100
AcDbLine
 10
1567.667492685935
 20
33.27254387096434
 30
0.0
 11
1567.667492685935
 21
181.4373396929855
 31
0.0
  0
LINE
  5
20B
330
208
100
AcDbEntity
  8
____1
  6
Continuous
 62
     7
370
     5
100
AcDbLine
 10
7.667492685936167
 20
33.27254387096434
 30
0.0
 11
7.667492685936167
 21
181.4373396929855
 31
0.0
  0
SOLID
  5
20C
330
208
100
AcDbEntity
  8
____1
  6
Continuous
 62
     7
370
     5
100
AcDbTrace
 10
22.66749268593617
 20
177.1873396929855
 30
0.0
 11
22.66749268593617
 21
177.1873396929855
 31
0.0
 12
7.667492685936167
 22
180.9373396929855
 32
0.0
 13
18.91749268593617
 23
180.9373396929855
 33
0.0
  0
SOLID
  5
20D
330
208
100
AcDbEntity
  8
____1
  6
Continuous
 62
     7
370
     5
100
AcDbTrace
 10
7.667492685936167
 20
180.9373396929855
 30
0.0
 11
18.91749268593617
 21
180.9373396929855
 31
0.0
 12
22.66749268593617
 22
184.6873396929855
 32
0.0
 13
22.66749268593617
 23
184.6873396929855
 33
0.0
  0
LINE
  5
20E
330
208
100
AcDbEntity
  8
____1
  6
Continuous
 62
     7
370
     5
100
AcDbLine
 10
7.667492685936167
 20
180.9373396929855
 30
0.0
 11
787.6674926859358
 21
180.9373396929855
 31
0.0
  0
SOLID
  5
20F
330
208
100
AcDbEntity
  8
____1
  6
Continuous
 62
     7
370
     5
100
AcDbTrace
 10
1552.667492685935
 20
177.1873396929855
 30
0.0
 11
1552.667492685935
 21
177.1873396929855
 31
0.0
 12
1556.417492685935
 22
180.9373396929855
 32
0.0
 13
1567.667492685935
 23
180.9373396929855
 33
0.0
  0
SOLID
  5
210
330
208
100
AcDbEntity
  8
____1
  6
Continuous
 62
     7
370
     5
100
AcDbTrace
 10
1556.417492685935
 20
180.9373396929855
 30
0.0
 11
1567.667492685935
 21
180.9373396929855
 31
0.0
 12
1552.667492685935
 22
184.6873396929855
 32
0.0
 13
1552.667492685935
 23
184.6873396929855
 33
0.0
  0
LINE
  5
211
330
208
100
AcDbEntity
  8
____1
  6
Continuous
 62
     7
370
     5
100
AcDbLine
 10
1567.667492685935
 20
180.9373396929855
 30
0.0
 11
787.6674926859358
 21
180.9373396929855
 31
0.0
  0
MTEXT
  5
212
330
208
100
AcDbEntity
  8
寸法線_1
  6
Continuous
 62
     7
370
     5
100
AcDbMText
 10
756.7994363886335
 20
199.5762290057296
 30
0.0
 40
17.63888931274414
 41
61.97727119922638
 71
     1
 72
     1
  1
P=40x39
  7
Style1
 73
     1
 44
1.0
1001
ACAD
1000
MTEXTBEGIN
1070
    73
1070
     1
1070
    44
1040
1.0
1070
    74
1070
     0
1000
MTEXTEND
  0
ENDBLK
  5
213
330
208
100
AcDbEntity
  8
0
100
AcDbBlockEnd
  0
BLOCK
  5
235
330
234
100
AcDbEntity
  8
0
100
AcDbBlockBegin
  2
C9
 70
     0
 10
0.0
 20
0.0
 30
0.0
  3
C9
  1

  0
LINE
  5
236
330
234
100
AcDbEntity
  8
____1
  6
Continuous
 62
     5
370
    18
100
AcDbLine
 10
570.1674926859361
 20
16.27254387096423
 30
0.0
 11
570.1674926859361
 21
32.27254387096434
 31
0.0
  0
LINE
  5
237
330
234
100
AcDbEntity
  8
____1
  6
Continuous
 62
     5
370
    18
100
AcDbLine
 10
565.1674926859361
 20
16.27254387096423
 30
0.0
 11
565.1674926859361
 21
32.27254387096434
 31
0.0
  0
LINE
  5
238
330
234
100
AcDbEntity
  8
____1
  6
Continuous
 62
     5
370
    18
100
AcDbLine
 10
565.1674926859361
 20
16.27254387096423
 30
0.0
 11
570.1674926859361
 21
16.27254387096423
 31
0.0
  0
LINE
  5
239
330
234
100
AcDbEntity
  8
____1
  6
Continuous
 62
     5
370
    18
100
AcDbLine
 10
565.1674926859361
 20
32.27254387096434
 30
0.0
 11
570.1674926859361
 21
32.27254387096434
 31
0.0
  0
ENDBLK
  5
23A
330
234
100
AcDbEntity
  8
0
100
AcDbBlockEnd
  0
BLOCK
  5
23D
330
23C
100
AcDbEntity
  8
0
100
AcDbBlockBegin
  2
C10
 70
     0
 10
0.0
 20
0.0
 30
0.0
  3
C10
  1

  0
LINE
  5
23E
330
23C
100
AcDbEntity
  8
____1
  6
Continuous
 62
     5
370
    18
100
AcDbLine
 10
530.1674926859361
 20
16.27254387096423
 30
0.0
 11
530.1674926859361
 21
32.27254387096434
 31
0.0
  0
LINE
  5
23F
330
23C
100
AcDbEntity
  8
____1
  6
Continuous
 62
     5
370
    18
100
AcDbLine
 10
525.1674926859362
 20
16.27254387096423
 30
0.0
 11
525.1674926859362
 21
32.27254387096434
 31
0.0
  0
LINE
  5
240
330
23C
100
AcDbEntity
  8
____1
  6
Continuous
 62
     5
370
    18
100
AcDbLine
 10
525.1674926859362
 20
16.27254387096423
 30
0.0
 11
530.1674926859361
 21
16.27254387096423
 31
0.0
  0
LINE
  5
241
330
23C
100
AcDbEntity
  8
____1
  6
Continuous
 62
     5
370
    18
100
AcDbLine
 10
525.1674926859362
 20
32.27254387096434
 30
0.0
 11
530.1674926859361
 21
32.27254387096434
 31
0.0
  0
ENDBLK
  5
242
330
23C
100
AcDbEntity
  8
0
100
AcDbBlockEnd
  0
BLOCK
  5
245
330
244
100
AcDbEntity
  8
0
100
AcDbBlockBegin
  2
C11
 70
     0
 10
0.0
 20
0.0
 30
0.0
  3
C11
  1

  0
LINE
  5
246
330
244
100
AcDbEntity
  8
____1
  6
Continuous
 62
     5
370
    18
100
AcDbLine
 10
650.1674926859362
 20
16.27254387096423
 30
0.0
 11
650.1674926859362
 21
32.27254387096434
 31
0.0
  0
LINE
  5
247
330
244
100
AcDbEntity
  8
____1
  6
Continuous
 62
     5
370
    18
100
AcDbLine
 10
645.1674926859361
 20
16.27254387096423
 30
0.0
 11
645.1674926859361
 21
32.27254387096434
 31
0.0
  0
LINE
  5
248
330
244
100
AcDbEntity
  8
____1
  6
Continuous
 62
     5
370
    18
100
AcDbLine
 10
645.1674926859361
 20
16.27254387096423
 30
0.0
 11
650.1674926859362
 21
16.27254387096423
 31
0.0
  0
LINE
  5
249
330
244
100
AcDbEntity
  8
____1
  6
Continuous
 62
     5
370
    18
100
AcDbLine
 10
645.1674926859361
 20
32.27254387096434
 30
0.0
 11
650.1674926859362
 21
32.27254387096434
 31
0.0
  0
ENDBLK
  5
24A
330
244
100
AcDbEntity
  8
0
100
AcDbBlockEnd
  0
BLOCK
  5
24D
330
24C
100
AcDbEntity
  8
0
100
AcDbBlockBegin
  2
C12
 70
     0
 10
0.0
 20
0.0
 30
0.0
  3
C12
  1

  0
LINE
  5
24E
330
24C
100
AcDbEntity
  8
____1
  6
Continuous
 62
     5
370
    18
100
AcDbLine
 10
690.1674926859361
 20
16.27254387096423
 30
0.0
 11
690.1674926859361
 21
32.27254387096434
 31
0.0
  0
LINE
  5
24F
330
24C
100
AcDbEntity
  8
____1
  6
Continuous
 62
     5
370
    18
100
AcDbLine
 10
685.1674926859361
 20
16.27254387096423
 30
0.0
 11
685.1674926859361
 21
32.27254387096434
 31
0.0
  0
LINE
  5
250
330
24C
100
AcDbEntity
  8
____1
  6
Continuous
 62
     5
370
    18
100
AcDbLine
 10
685.1674926859361
 20
16.27254387096423
 30
0.0
 11
690.1674926859361
 21
16.27254387096423
 31
0.0
  0
LINE
  5
251
330
24C
100
AcDbEntity
  8
____1
  6
Continuous
 62
     5
370
    18
100
AcDbLine
 10
685.1674926859361
 20
32.27254387096434
 30
0.0
 11
690.1674926859361
 21
32.27254387096434
 31
0.0
  0
ENDBLK
  5
252
330
24C
100
AcDbEntity
  8
0
100
AcDbBlockEnd
  0
BLOCK
  5
255
330
254
100
AcDbEntity
  8
0
100
AcDbBlockBegin
  2
C13
 70
     0
 10
0.0
 20
0.0
 30
0.0
  3
C13
  1

  0
LINE
  5
256
330
254
100
AcDbEntity
  8
____1
  6
Continuous
 62
     5
370
    18
100
AcDbLine
 10
730.1674926859361
 20
16.27254387096423
 30
0.0
 11
730.1674926859361
 21
32.27254387096434
 31
0.0
  0
LINE
  5
257
330
254
100
AcDbEntity
  8
____1
  6
Continuous
 62
     5
370
    18
100
AcDbLine
 10
725.1674926859362
 20
16.27254387096423
 30
0.0
 11
725.1674926859362
 21
32.27254387096434
 31
0.0
  0
LINE
  5
258
330
254
100
AcDbEntity
  8
____1
  6
Continuous
 62
     5
370
    18
100
AcDbLine
 10
725.1674926859362
 20
16.27254387096423
 30
0.0
 11
730.1674926859361
 21
16.27254387096423
 31
0.0
  0
LINE
  5
259
330
254
100
AcDbEntity
  8
____1
  6
Continuous
 62
     5
370
    18
100
AcDbLine
 10
725.1674926859362
 20
32.27254387096434
 30
0.0
 11
730.1674926859361
 21
32.27254387096434
 31
0.0
  0
ENDBLK
  5
25A
330
254
100
AcDbEntity
  8
0
100
AcDbBlockEnd
  0
BLOCK
  5
25D
330
25C
100
AcDbEntity
  8
0
100
AcDbBlockBegin
  2
C14
 70
     0
 10
0.0
 20
0.0
 30
0.0
  3
C14
  1

  0
LINE
  5
25E
330
25C
100
AcDbEntity
  8
____1
  6
Continuous
 62
     5
370
    18
100
AcDbLine
 10
850.1674926859362
 20
16.27254387096423
 30
0.0
 11
850.1674926859362
 21
32.27254387096434
 31
0.0
  0
LINE
  5
25F
330
25C
100
AcDbEntity
  8
____1
  6
Continuous
 62
     5
370
    18
100
AcDbLine
 10
845.1674926859361
 20
16.27254387096423
 30
0.0
 11
845.1674926859361
 21
32.27254387096434
 31
0.0
  0
LINE
  5
260
330
25C
100
AcDbEntity
  8
____1
  6
Continuous
 62
     5
370
    18
100
AcDbLine
 10
845.1674926859361
 20
16.27254387096423
 30
0.0
 11
850.1674926859362
 21
16.27254387096423
 31
0.0
  0
LINE
  5
261
330
25C
100
AcDbEntity
  8
____1
  6
Continuous
 62
     5
370
    18
100
AcDbLine
 10
845.1674926859361
 20
32.27254387096434
 30
0.0
 11
850.1674926859362
 21
32.27254387096434
 31
0.0
  0
ENDBLK
  5
262
330
25C
100
AcDbEntity
  8
0
100
AcDbBlockEnd
  0
BLOCK
  5
265
330
264
100
AcDbEntity
  8
0
100
AcDbBlockBegin
  2
C15
 70
     0
 10
0.0
 20
0.0
 30
0.0
  3
C15
  1

  0
LINE
  5
266
330
264
100
AcDbEntity
  8
____1
  6
Continuous
 62
     5
370
    18
100
AcDbLine
 10
810.1674926859361
 20
16.27254387096423
 30
0.0
 11
810.1674926859361
 21
32.27254387096434
 31
0.0
  0
LINE
  5
267
330
264
100
AcDbEntity
  8
____1
  6
Continuous
 62
     5
370
    18
100
AcDbLine
 10
805.1674926859361
 20
16.27254387096423
 30
0.0
 11
805.1674926859361
 21
32.27254387096434
 31
0.0
  0
LINE
  5
268
330
264
100
AcDbEntity
  8
____1
  6
Continuous
 62
     5
370
    18
100
AcDbLine
 10
805.1674926859361
 20
16.27254387096423
 30
0.0
 11
810.1674926859361
 21
16.27254387096423
 31
0.0
  0
LINE
  5
269
330
264
100
AcDbEntity
  8
____1
  6
Continuous
 62
     5
370
    18
100
AcDbLine
 10
805.1674926859361
 20
32.27254387096434
 30
0.0
 11
810.1674926859361
 21
32.27254387096434
 31
0.0
  0
ENDBLK
  5
26A
330
264
100
AcDbEntity
  8
0
100
AcDbBlockEnd
  0
BLOCK
  5
26D
330
26C
100
AcDbEntity
  8
0
100
AcDbBlockBegin
  2
C16
 70
     0
 10
0.0
 20
0.0
 30
0.0
  3
C16
  1

  0
LINE
  5
26E
330
26C
100
AcDbEntity
  8
____1
  6
Continuous
 62
     5
370
    18
100
AcDbLine
 10
770.1674926859362
 20
16.27254387096423
 30
0.0
 11
770.1674926859362
 21
32.27254387096434
 31
0.0
  0
LINE
  5
26F
330
26C
100
AcDbEntity
  8
____1
  6
Continuous
 62
     5
370
    18
100
AcDbLine
 10
765.1674926859361
 20
16.27254387096423
 30
0.0
 11
765.1674926859361
 21
32.27254387096434
 31
0.0
  0
LINE
  5
270
330
26C
100
AcDbEntity
  8
____1
  6
Continuous
 62
     5
370
    18
100
AcDbLine
 10
765.1674926859361
 20
16.27254387096423
 30
0.0
 11
770.1674926859362
 21
16.27254387096423
 31
0.0
  0
LINE
  5
271
330
26C
100
AcDbEntity
  8
____1
  6
Continuous
 62
     5
370
    18
100
AcDbLine
 10
765.1674926859361
 20
32.27254387096434
 30
0.0
 11
770.1674926859362
 21
32.27254387096434
 31
0.0
  0
ENDBLK
  5
272
330
26C
100
AcDbEntity
  8
0
100
AcDbBlockEnd
  0
BLOCK
  5
275
330
274
100
AcDbEntity
  8
0
100
AcDbBlockBegin
  2
C17
 70
     0
 10
0.0
 20
0.0
 30
0.0
  3
C17
  1

  0
LINE
  5
276
330
274
100
AcDbEntity
  8
____1
  6
Continuous
 62
     5
370
    18
100
AcDbLine
 10
890.1674926859362
 20
16.27254387096423
 30
0.0
 11
890.1674926859362
 21
32.27254387096434
 31
0.0
  0
LINE
  5
277
330
274
100
AcDbEntity
  8
____1
  6
Continuous
 62
     5
370
    18
100
AcDbLine
 10
885.1674926859361
 20
16.27254387096423
 30
0.0
 11
885.1674926859361
 21
32.27254387096434
 31
0.0
  0
LINE
  5
278
330
274
100
AcDbEntity
  8
____1
  6
Continuous
 62
     5
370
    18
100
AcDbLine
 10
885.1674926859361
 20
16.27254387096423
 30
0.0
 11
890.1674926859362
 21
16.27254387096423
 31
0.0
  0
LINE
  5
279
330
274
100
AcDbEntity
  8
____1
  6
Continuous
 62
     5
370
    18
100
AcDbLine
 10
885.1674926859361
 20
32.27254387096434
 30
0.0
 11
890.1674926859362
 21
32.27254387096434
 31
0.0
  0
ENDBLK
  5
27A
330
274
100
AcDbEntity
  8
0
100
AcDbBlockEnd
  0
BLOCK
  5
27D
330
27C
100
AcDbEntity
  8
0
100
AcDbBlockBegin
  2
C18
 70
     0
 10
0.0
 20
0.0
 30
0.0
  3
C18
  1

  0
LINE
  5
27E
330
27C
100
AcDbEntity
  8
____1
  6
Continuous
 62
     5
370
    18
100
AcDbLine
 10
930.1674926859361
 20
16.27254387096423
 30
0.0
 11
930.1674926859361
 21
32.27254387096434
 31
0.0
  0
LINE
  5
27F
330
27C
100
AcDbEntity
  8
____1
  6
Continuous
 62
     5
370
    18
100
AcDbLine
 10
925.1674926859362
 20
16.27254387096423
 30
0.0
 11
925.1674926859362
 21
32.27254387096434
 31
0.0
  0
LINE
  5
280
330
27C
100
AcDbEntity
  8
____1
  6
Continuous
 62
     5
370
    18
100
AcDbLine
 10
925.1674926859362
 20
16.27254387096423
 30
0.0
 11
930.1674926859361
 21
16.27254387096423
 31
0.0
  0
LINE
  5
281
330
27C
100
AcDbEntity
  8
____1
  6
Continuous
 62
     5
370
    18
100
AcDbLine
 10
925.1674926859362
 20
32.27254387096434
 30
0.0
 11
930.1674926859361
 21
32.27254387096434
 31
0.0
  0
ENDBLK
  5
282
330
27C
100
AcDbEntity
  8
0
100
AcDbBlockEnd
  0
BLOCK
  5
285
330
284
100
AcDbEntity
  8
0
100
AcDbBlockBegin
  2
C19
 70
     0
 10
0.0
 20
0.0
 30
0.0
  3
C19
  1

  0
LINE
  5
286
330
284
100
AcDbEntity
  8
____1
  6
Continuous
 62
     5
370
    18
100
AcDbLine
 10
970.1674926859361
 20
16.27254387096423
 30
0.0
 11
970.1674926859361
 21
32.27254387096434
 31
0.0
  0
LINE
  5
287
330
284
100
AcDbEntity
  8
____1
  6
Continuous
 62
     5
370
    18
100
AcDbLine
 10
965.1674926859362
 20
16.27254387096423
 30
0.0
 11
965.1674926859362
 21
32.27254387096434
 31
0.0
  0
LINE
  5
288
330
284
100
AcDbEntity
  8
____1
  6
Continuous
 62
     5
370
    18
100
AcDbLine
 10
965.1674926859362
 20
16.27254387096423
 30
0.0
 11
970.1674926859361
 21
16.27254387096423
 31
0.0
  0
LINE
  5
289
330
284
100
AcDbEntity
  8
____1
  6
Continuous
 62
     5
370
    18
100
AcDbLine
 10
965.1674926859362
 20
32.27254387096434
 30
0.0
 11
970.1674926859361
 21
32.27254387096434
 31
0.0
  0
ENDBLK
  5
28A
330
284
100
AcDbEntity
  8
0
100
AcDbBlockEnd
  0
BLOCK
  5
28D
330
28C
100
AcDbEntity
  8
0
100
AcDbBlockBegin
  2
C20
 70
     0
 10
0.0
 20
0.0
 30
0.0
  3
C20
  1

  0
LINE
  5
28E
330
28C
100
AcDbEntity
  8
____1
  6
Continuous
 62
     5
370
    18
100
AcDbLine
 10
1090.167492685936
 20
16.27254387096423
 30
0.0
 11
1090.167492685936
 21
32.27254387096434
 31
0.0
  0
LINE
  5
28F
330
28C
100
AcDbEntity
  8
____1
  6
Continuous
 62
     5
370
    18
100
AcDbLine
 10
1085.167492685936
 20
16.27254387096423
 30
0.0
 11
1085.167492685936
 21
32.27254387096434
 31
0.0
  0
LINE
  5
290
330
28C
100
AcDbEntity
  8
____1
  6
Continuous
 62
     5
370
    18
100
AcDbLine
 10
1085.167492685936
 20
16.27254387096423
 30
0.0
 11
1090.167492685936
 21
16.27254387096423
 31
0.0
  0
LINE
  5
291
330
28C
100
AcDbEntity
  8
____1
  6
Continuous
 62
     5
370
    18
100
AcDbLine
 10
1085.167492685936
 20
32.27254387096434
 30
0.0
 11
1090.167492685936
 21
32.27254387096434
 31
0.0
  0
ENDBLK
  5
292
330
28C
100
AcDbEntity
  8
0
100
AcDbBlockEnd
  0
BLOCK
  5
295
330
294
100
AcDbEntity
  8
0
100
AcDbBlockBegin
  2
C21
 70
     0
 10
0.0
 20
0.0
 30
0.0
  3
C21
  1

  0
LINE
  5
296
330
294
100
AcDbEntity
  8
____1
  6
Continuous
 62
     5
370
    18
100
AcDbLine
 10
1050.167492685936
 20
16.27254387096423
 30
0.0
 11
1050.167492685936
 21
32.27254387096434
 31
0.0
  0
LINE
  5
297
330
294
100
AcDbEntity
  8
____1
  6
Continuous
 62
     5
370
    18
100
AcDbLine
 10
1045.167492685936
 20
16.27254387096423
 30
0.0
 11
1045.167492685936
 21
32.27254387096434
 31
0.0
  0
LINE
  5
298
330
294
100
AcDbEntity
  8
____1
  6
Continuous
 62
     5
370
    18
100
AcDbLine
 10
1045.167492685936
 20
16.27254387096423
 30
0.0
 11
1050.167492685936
 21
16.27254387096423
 31
0.0
  0
LINE
  5
299
330
294
100
AcDbEntity
  8
____1
  6
Continuous
 62
     5
370
    18
100
AcDbLine
 10
1045.167492685936
 20
32.27254387096434
 30
0.0
 11
1050.167492685936
 21
32.27254387096434
 31
0.0
  0
ENDBLK
  5
29A
330
294
100
AcDbEntity
  8
0
100
AcDbBlockEnd
  0
BLOCK
  5
29D
330
29C
100
AcDbEntity
  8
0
100
AcDbBlockBegin
  2
C22
 70
     0
 10
0.0
 20
0.0
 30
0.0
  3
C22
  1

  0
LINE
  5
29E
330
29C
100
AcDbEntity
  8
____1
  6
Continuous
 62
     5
370
    18
100
AcDbLine
 10
1010.167492685936
 20
16.27254387096423
 30
0.0
 11
1010.167492685936
 21
32.27254387096434
 31
0.0
  0
LINE
  5
29F
330
29C
100
AcDbEntity
  8
____1
  6
Continuous
 62
     5
370
    18
100
AcDbLine
 10
1005.167492685936
 20
16.27254387096423
 30
0.0
 11
1005.167492685936
 21
32.27254387096434
 31
0.0
  0
LINE
  5
2A0
330
29C
100
AcDbEntity
  8
____1
  6
Continuous
 62
     5
370
    18
100
AcDbLine
 10
1005.167492685936
 20
16.27254387096423
 30
0.0
 11
1010.167492685936
 21
16.27254387096423
 31
0.0
  0
LINE
  5
2A1
330
29C
100
AcDbEntity
  8
____1
  6
Continuous
 62
     5
370
    18
100
AcDbLine
 10
1005.167492685936
 20
32.27254387096434
 30
0.0
 11
1010.167492685936
 21
32.27254387096434
 31
0.0
  0
ENDBLK
  5
2A2
330
29C
100
AcDbEntity
  8
0
100
AcDbBlockEnd
  0
BLOCK
  5
2A5
330
2A4
100
AcDbEntity
  8
0
100
AcDbBlockBegin
  2
C23
 70
     0
 10
0.0
 20
0.0
 30
0.0
  3
C23
  1

  0
LINE
  5
2A6
330
2A4
100
AcDbEntity
  8
____1
  6
Continuous
 62
     5
370
    18
100
AcDbLine
 10
1130.167492685936
 20
16.27254387096423
 30
0.0
 11
1130.167492685936
 21
32.27254387096434
 31
0.0
  0
LINE
  5
2A7
330
2A4
100
AcDbEntity
  8
____1
  6
Continuous
 62
     5
370
    18
100
AcDbLine
 10
1125.167492685936
 20
16.27254387096423
 30
0.0
 11
1125.167492685936
 21
32.27254387096434
 31
0.0
  0
LINE
  5
2A8
330
2A4
100
AcDbEntity
  8
____1
  6
Continuous
 62
     5
370
    18
100
AcDbLine
 10
1125.167492685936
 20
16.27254387096423
 30
0.0
 11
1130.167492685936
 21
16.27254387096423
 31
0.0
  0
LINE
  5
2A9
330
2A4
100
AcDbEntity
  8
____1
  6
Continuous
 62
     5
370
    18
100
AcDbLine
 10
1125.167492685936
 20
32.27254387096434
 30
0.0
 11
1130.167492685936
 21
32.27254387096434
 31
0.0
  0
ENDBLK
  5
2AA
330
2A4
100
AcDbEntity
  8
0
100
AcDbBlockEnd
  0
BLOCK
  5
2AD
330
2AC
100
AcDbEntity
  8
0
100
AcDbBlockBegin
  2
C24
 70
     0
 10
0.0
 20
0.0
 30
0.0
  3
C24
  1

  0
LINE
  5
2AE
330
2AC
100
AcDbEntity
  8
____1
  6
Continuous
 62
     5
370
    18
100
AcDbLine
 10
1170.167492685936
 20
16.27254387096423
 30
0.0
 11
1170.167492685936
 21
32.27254387096434
 31
0.0
  0
LINE
  5
2AF
330
2AC
100
AcDbEntity
  8
____1
  6
Continuous
 62
     5
370
    18
100
AcDbLine
 10
1165.167492685936
 20
16.27254387096423
 30
0.0
 11
1165.167492685936
 21
32.27254387096434
 31
0.0
  0
LINE
  5
2B0
330
2AC
100
AcDbEntity
  8
____1
  6
Continuous
 62
     5
370
    18
100
AcDbLine
 10
1165.167492685936
 20
16.27254387096423
 30
0.0
 11
1170.167492685936
 21
16.27254387096423
 31
0.0
  0
LINE
  5
2B1
330
2AC
100
AcDbEntity
  8
____1
  6
Continuous
 62
     5
370
    18
100
AcDbLine
 10
1165.167492685936
 20
32.27254387096434
 30
0.0
 11
1170.167492685936
 21
32.27254387096434
 31
0.0
  0
ENDBLK
  5
2B2
330
2AC
100
AcDbEntity
  8
0
100
AcDbBlockEnd
  0
BLOCK
  5
2B5
330
2B4
100
AcDbEntity
  8
0
100
AcDbBlockBegin
  2
C25
 70
     0
 10
0.0
 20
0.0
 30
0.0
  3
C25
  1

  0
LINE
  5
2B6
330
2B4
100
AcDbEntity
  8
____1
  6
Continuous
 62
     5
370
    18
100
AcDbLine
 10
1210.167492685936
 20
16.27254387096423
 30
0.0
 11
1210.167492685936
 21
32.27254387096434
 31
0.0
  0
LINE
  5
2B7
330
2B4
100
AcDbEntity
  8
____1
  6
Continuous
 62
     5
370
    18
100
AcDbLine
 10
1205.167492685936
 20
16.27254387096423
 30
0.0
 11
1205.167492685936
 21
32.27254387096434
 31
0.0
  0
LINE
  5
2B8
330
2B4
100
AcDbEntity
  8
____1
  6
Continuous
 62
     5
370
    18
100
AcDbLine
 10
1205.167492685936
 20
16.27254387096423
 30
0.0
 11
1210.167492685936
 21
16.27254387096423
 31
0.0
  0
LINE
  5
2B9
330
2B4
100
AcDbEntity
  8
____1
  6
Continuous
 62
     5
370
    18
100
AcDbLine
 10
1205.167492685936
 20
32.27254387096434
 30
0.0
 11
1210.167492685936
 21
32.27254387096434
 31
0.0
  0
ENDBLK
  5
2BA
330
2B4
100
AcDbEntity
  8
0
100
AcDbBlockEnd
  0
BLOCK
  5
2BD
330
2BC
100
AcDbEntity
  8
0
100
AcDbBlockBegin
  2
C26
 70
     0
 10
0.0
 20
0.0
 30
0.0
  3
C26
  1

  0
LINE
  5
2BE
330
2BC
100
AcDbEntity
  8
____1
  6
Continuous
 62
     5
370
    18
100
AcDbLine
 10
1330.167492685936
 20
16.27254387096423
 30
0.0
 11
1330.167492685936
 21
32.27254387096434
 31
0.0
  0
LINE
  5
2BF
330
2BC
100
AcDbEntity
  8
____1
  6
Continuous
 62
     5
370
    18
100
AcDbLine
 10
1325.167492685936
 20
16.27254387096423
 30
0.0
 11
1325.167492685936
 21
32.27254387096434
 31
0.0
  0
LINE
  5
2C0
330
2BC
100
AcDbEntity
  8
____1
  6
Continuous
 62
     5
370
    18
100
AcDbLine
 10
1325.167492685936
 20
16.27254387096423
 30
0.0
 11
1330.167492685936
 21
16.27254387096423
 31
0.0
  0
LINE
  5
2C1
330
2BC
100
AcDbEntity
  8
____1
  6
Continuous
 62
     5
370
    18
100
AcDbLine
 10
1325.167492685936
 20
32.27254387096434
 30
0.0
 11
1330.167492685936
 21
32.27254387096434
 31
0.0
  0
ENDBLK
  5
2C2
330
2BC
100
AcDbEntity
  8
0
100
AcDbBlockEnd
  0
BLOCK
  5
2CC
330
2CB
100
AcDbEntity
  8
0
100
AcDbBlockBegin
  2
C27
 70
     0
 10
0.0
 20
0.0
 30
0.0
  3
C27
  1

  0
LINE
  5
2CD
330
2CB
100
AcDbEntity
  8
____1
  6
Continuous
 62
     5
370
    18
100
AcDbLine
 10
1530.167492685936
 20
16.27254387096423
 30
0.0
 11
1530.167492685936
 21
32.27254387096434
 31
0.0
  0
LINE
  5
2CE
330
2CB
100
AcDbEntity
  8
____1
  6
Continuous
 62
     5
370
    18
100
AcDbLine
 10
1525.167492685936
 20
16.27254387096423
 30
0.0
 11
1525.167492685936
 21
32.27254387096434
 31
0.0
  0
LINE
  5
2CF
330
2CB
100
AcDbEntity
  8
____1
  6
Continuous
 62
     5
370
    18
100
AcDbLine
 10
1525.167492685936
 20
16.27254387096423
 30
0.0
 11
1530.167492685936
 21
16.27254387096423
 31
0.0
  0
LINE
  5
2D0
330
2CB
100
AcDbEntity
  8
____1
  6
Continuous
 62
     5
370
    18
100
AcDbLine
 10
1525.167492685936
 20
32.27254387096434
 30
0.0
 11
1530.167492685936
 21
32.27254387096434
 31
0.0
  0
ENDBLK
  5
2D1
330
2CB
100
AcDbEntity
  8
0
100
AcDbBlockEnd
  0
BLOCK
  5
2D4
330
2D3
100
AcDbEntity
  8
0
100
AcDbBlockBegin
  2
C28
 70
     0
 10
0.0
 20
0.0
 30
0.0
  3
C28
  1

  0
LINE
  5
2D5
330
2D3
100
AcDbEntity
  8
____1
  6
Continuous
 62
     5
370
    18
100
AcDbLine
 10
1490.167492685936
 20
16.27254387096423
 30
0.0
 11
1490.167492685936
 21
32.27254387096434
 31
0.0
  0
LINE
  5
2D6
330
2D3
100
AcDbEntity
  8
____1
  6
Continuous
 62
     5
370
    18
100
AcDbLine
 10
1485.167492685936
 20
16.27254387096423
 30
0.0
 11
1485.167492685936
 21
32.27254387096434
 31
0.0
  0
LINE
  5
2D7
330
2D3
100
AcDbEntity
  8
____1
  6
Continuous
 62
     5
370
    18
100
AcDbLine
 10
1485.167492685936
 20
16.27254387096423
 30
0.0
 11
1490.167492685936
 21
16.27254387096423
 31
0.0
  0
LINE
  5
2D8
330
2D3
100
AcDbEntity
  8
____1
  6
Continuous
 62
     5
370
    18
100
AcDbLine
 10
1485.167492685936
 20
32.27254387096434
 30
0.0
 11
1490.167492685936
 21
32.27254387096434
 31
0.0
  0
ENDBLK
  5
2D9
330
2D3
100
AcDbEntity
  8
0
100
AcDbBlockEnd
  0
BLOCK
  5
2ED
330
2EC
100
AcDbEntity
  8
0
100
AcDbBlockBegin
  2
C29
 70
     0
 10
0.0
 20
0.0
 30
0.0
  3
C29
  1

  0
LINE
  5
2EE
330
2EC
100
AcDbEntity
  8
____1
  6
Continuous
 62
     5
370
    18
100
AcDbLine
 10
370.1674926859362
 20
16.27254387096423
 30
0.0
 11
370.1674926859362
 21
32.27254387096434
 31
0.0
  0
LINE
  5
2EF
330
2EC
100
AcDbEntity
  8
____1
  6
Continuous
 62
     5
370
    18
100
AcDbLine
 10
365.1674926859362
 20
16.27254387096423
 30
0.0
 11
365.1674926859362
 21
32.27254387096434
 31
0.0
  0
LINE
  5
2F0
330
2EC
100
AcDbEntity
  8
____1
  6
Continuous
 62
     5
370
    18
100
AcDbLine
 10
365.1674926859362
 20
16.27254387096423
 30
0.0
 11
370.1674926859362
 21
16.27254387096423
 31
0.0
  0
LINE
  5
2F1
330
2EC
100
AcDbEntity
  8
____1
  6
Continuous
 62
     5
370
    18
100
AcDbLine
 10
365.1674926859362
 20
32.27254387096434
 30
0.0
 11
370.1674926859362
 21
32.27254387096434
 31
0.0
  0
ENDBLK
  5
2F2
330
2EC
100
AcDbEntity
  8
0
100
AcDbBlockEnd
  0
BLOCK
  5
2F5
330
2F4
100
AcDbEntity
  8
0
100
AcDbBlockBegin
  2
C30
 70
     0
 10
0.0
 20
0.0
 30
0.0
  3
C30
  1

  0
LINE
  5
2F6
330
2F4
100
AcDbEntity
  8
____1
  6
Continuous
 62
     5
370
    18
100
AcDbLine
 10
330.1674926859362
 20
16.27254387096423
 30
0.0
 11
330.1674926859362
 21
32.27254387096434
 31
0.0
  0
LINE
  5
2F7
330
2F4
100
AcDbEntity
  8
____1
  6
Continuous
 62
     5
370
    18
100
AcDbLine
 10
325.1674926859362
 20
16.27254387096423
 30
0.0
 11
325.1674926859362
 21
32.27254387096434
 31
0.0
  0
LINE
  5
2F8
330
2F4
100
AcDbEntity
  8
____1
  6
Continuous
 62
     5
370
    18
100
AcDbLine
 10
325.1674926859362
 20
16.27254387096423
 30
0.0
 11
330.1674926859362
 21
16.27254387096423
 31
0.0
  0
LINE
  5
2F9
330
2F4
100
AcDbEntity
  8
____1
  6
Continuous
 62
     5
370
    18
100
AcDbLine
 10
325.1674926859362
 20
32.27254387096434
 30
0.0
 11
330.1674926859362
 21
32.27254387096434
 31
0.0
  0
ENDBLK
  5
2FA
330
2F4
100
AcDbEntity
  8
0
100
AcDbBlockEnd
  0
BLOCK
  5
2FD
330
2FC
100
AcDbEntity
  8
0
100
AcDbBlockBegin
  2
C31
 70
     0
 10
0.0
 20
0.0
 30
0.0
  3
C31
  1

  0
LINE
  5
2FE
330
2FC
100
AcDbEntity
  8
____1
  6
Continuous
 62
     5
370
    18
100
AcDbLine
 10
410.1674926859361
 20
16.27254387096423
 30
0.0
 11
410.1674926859361
 21
32.27254387096434
 31
0.0
  0
LINE
  5
2FF
330
2FC
100
AcDbEntity
  8
____1
  6
Continuous
 62
     5
370
    18
100
AcDbLine
 10
405.1674926859361
 20
16.27254387096423
 30
0.0
 11
405.1674926859361
 21
32.27254387096434
 31
0.0
  0
LINE
  5
300
330
2FC
100
AcDbEntity
  8
____1
  6
Continuous
 62
     5
370
    18
100
AcDbLine
 10
405.1674926859361
 20
16.27254387096423
 30
0.0
 11
410.1674926859361
 21
16.27254387096423
 31
0.0
  0
LINE
  5
301
330
2FC
100
AcDbEntity
  8
____1
  6
Continuous
 62
     5
370
    18
100
AcDbLine
 10
405.1674926859361
 20
32.27254387096434
 30
0.0
 11
410.1674926859361
 21
32.27254387096434
 31
0.0
  0
ENDBLK
  5
302
330
2FC
100
AcDbEntity
  8
0
100
AcDbBlockEnd
  0
BLOCK
  5
305
330
304
100
AcDbEntity
  8
0
100
AcDbBlockBegin
  2
C32
 70
     0
 10
0.0
 20
0.0
 30
0.0
  3
C32
  1

  0
LINE
  5
306
330
304
100
AcDbEntity
  8
____1
  6
Continuous
 62
     5
370
    18
100
AcDbLine
 10
450.1674926859362
 20
16.27254387096423
 30
0.0
 11
450.1674926859362
 21
32.27254387096434
 31
0.0
  0
LINE
  5
307
330
304
100
AcDbEntity
  8
____1
  6
Continuous
 62
     5
370
    18
100
AcDbLine
 10
445.1674926859361
 20
16.27254387096423
 30
0.0
 11
445.1674926859361
 21
32.27254387096434
 31
0.0
  0
LINE
  5
308
330
304
100
AcDbEntity
  8
____1
  6
Continuous
 62
     5
370
    18
100
AcDbLine
 10
445.1674926859361
 20
16.27254387096423
 30
0.0
 11
450.1674926859362
 21
16.27254387096423
 31
0.0
  0
LINE
  5
309
330
304
100
AcDbEntity
  8
____1
  6
Continuous
 62
     5
370
    18
100
AcDbLine
 10
445.1674926859361
 20
32.27254387096434
 30
0.0
 11
450.1674926859362
 21
32.27254387096434
 31
0.0
  0
ENDBLK
  5
30A
330
304
100
AcDbEntity
  8
0
100
AcDbBlockEnd
  0
BLOCK
  5
30D
330
30C
100
AcDbEntity
  8
0
100
AcDbBlockBegin
  2
C33
 70
     0
 10
0.0
 20
0.0
 30
0.0
  3
C33
  1

  0
LINE
  5
30E
330
30C
100
AcDbEntity
  8
____1
  6
Continuous
 62
     5
370
    18
100
AcDbLine
 10
490.1674926859361
 20
16.27254387096423
 30
0.0
 11
490.1674926859361
 21
32.27254387096434
 31
0.0
  0
LINE
  5
30F
330
30C
100
AcDbEntity
  8
____1
  6
Continuous
 62
     5
370
    18
100
AcDbLine
 10
485.1674926859361
 20
16.27254387096423
 30
0.0
 11
485.1674926859361
 21
32.27254387096434
 31
0.0
  0
LINE
  5
310
330
30C
100
AcDbEntity
  8
____1
  6
Continuous
 62
     5
370
    18
100
AcDbLine
 10
485.1674926859361
 20
16.27254387096423
 30
0.0
 11
490.1674926859361
 21
16.27254387096423
 31
0.0
  0
LINE
  5
311
330
30C
100
AcDbEntity
  8
____1
  6
Continuous
 62
     5
370
    18
100
AcDbLine
 10
485.1674926859361
 20
32.27254387096434
 30
0.0
 11
490.1674926859361
 21
32.27254387096434
 31
0.0
  0
ENDBLK
  5
312
330
30C
100
AcDbEntity
  8
0
100
AcDbBlockEnd
  0
BLOCK
  5
315
330
314
100
AcDbEntity
  8
0
100
AcDbBlockBegin
  2
C34
 70
     0
 10
0.0
 20
0.0
 30
0.0
  3
C34
  1

  0
LINE
  5
316
330
314
100
AcDbEntity
  8
____1
  6
Continuous
 62
     5
370
    18
100
AcDbLine
 10
610.1674926859361
 20
16.27254387096423
 30
0.0
 11
610.1674926859361
 21
32.27254387096434
 31
0.0
  0
LINE
  5
317
330
314
100
AcDbEntity
  8
____1
  6
Continuous
 62
     5
370
    18
100
AcDbLine
 10
605.1674926859361
 20
16.27254387096423
 30
0.0
 11
605.1674926859361
 21
32.27254387096434
 31
0.0
  0
LINE
  5
318
330
314
100
AcDbEntity
  8
____1
  6
Continuous
 62
     5
370
    18
100
AcDbLine
 10
605.1674926859361
 20
16.27254387096423
 30
0.0
 11
610.1674926859361
 21
16.27254387096423
 31
0.0
  0
LINE
  5
319
330
314
100
AcDbEntity
  8
____1
  6
Continuous
 62
     5
370
    18
100
AcDbLine
 10
605.1674926859361
 20
32.27254387096434
 30
0.0
 11
610.1674926859361
 21
32.27254387096434
 31
0.0
  0
ENDBLK
  5
31A
330
314
100
AcDbEntity
  8
0
100
AcDbBlockEnd
  0
BLOCK
  5
332
330
331
100
AcDbEntity
  8
0
100
AcDbBlockBegin
  2
C35
 70
     0
 10
0.0
 20
0.0
 30
0.0
  3
C35
  1

  0
LINE
  5
333
330
331
100
AcDbEntity
  8
____1
  6
Continuous
 62
     5
370
    18
100
AcDbLine
 10
1290.167492685936
 20
16.27254387096423
 30
0.0
 11
1290.167492685936
 21
32.27254387096434
 31
0.0
  0
LINE
  5
334
330
331
100
AcDbEntity
  8
____1
  6
Continuous
 62
     5
370
    18
100
AcDbLine
 10
1285.167492685936
 20
16.27254387096423
 30
0.0
 11
1285.167492685936
 21
32.27254387096434
 31
0.0
  0
LINE
  5
335
330
331
100
AcDbEntity
  8
____1
  6
Continuous
 62
     5
370
    18
100
AcDbLine
 10
1285.167492685936
 20
16.27254387096423
 30
0.0
 11
1290.167492685936
 21
16.27254387096423
 31
0.0
  0
LINE
  5
336
330
331
100
AcDbEntity
  8
____1
  6
Continuous
 62
     5
370
    18
100
AcDbLine
 10
1285.167492685936
 20
32.27254387096434
 30
0.0
 11
1290.167492685936
 21
32.27254387096434
 31
0.0
  0
ENDBLK
  5
337
330
331
100
AcDbEntity
  8
0
100
AcDbBlockEnd
  0
BLOCK
  5
33A
330
339
100
AcDbEntity
  8
0
100
AcDbBlockBegin
  2
C36
 70
     0
 10
0.0
 20
0.0
 30
0.0
  3
C36
  1

  0
LINE
  5
33B
330
339
100
AcDbEntity
  8
____1
  6
Continuous
 62
     5
370
    18
100
AcDbLine
 10
1250.167492685936
 20
16.27254387096423
 30
0.0
 11
1250.167492685936
 21
32.27254387096434
 31
0.0
  0
LINE
  5
33C
330
339
100
AcDbEntity
  8
____1
  6
Continuous
 62
     5
370
    18
100
AcDbLine
 10
1245.167492685936
 20
16.27254387096423
 30
0.0
 11
1245.167492685936
 21
32.27254387096434
 31
0.0
  0
LINE
  5
33D
330
339
100
AcDbEntity
  8
____1
  6
Continuous
 62
     5
370
    18
100
AcDbLine
 10
1245.167492685936
 20
16.27254387096423
 30
0.0
 11
1250.167492685936
 21
16.27254387096423
 31
0.0
  0
LINE
  5
33E
330
339
100
AcDbEntity
  8
____1
  6
Continuous
 62
     5
370
    18
100
AcDbLine
 10
1245.167492685936
 20
32.27254387096434
 30
0.0
 11
1250.167492685936
 21
32.27254387096434
 31
0.0
  0
ENDBLK
  5
33F
330
339
100
AcDbEntity
  8
0
100
AcDbBlockEnd
  0
BLOCK
  5
342
330
341
100
AcDbEntity
  8
0
100
AcDbBlockBegin
  2
C37
 70
     0
 10
0.0
 20
0.0
 30
0.0
  3
C37
  1

  0
LINE
  5
343
330
341
100
AcDbEntity
  8
____1
  6
Continuous
 62
     5
370
    18
100
AcDbLine
 10
1370.167492685936
 20
16.27254387096423
 30
0.0
 11
1370.167492685936
 21
32.27254387096434
 31
0.0
  0
LINE
  5
344
330
341
100
AcDbEntity
  8
____1
  6
Continuous
 62
     5
370
    18
100
AcDbLine
 10
1365.167492685936
 20
16.27254387096423
 30
0.0
 11
1365.167492685936
 21
32.27254387096434
 31
0.0
  0
LINE
  5
345
330
341
100
AcDbEntity
  8
____1
  6
Continuous
 62
     5
370
    18
100
AcDbLine
 10
1365.167492685936
 20
16.27254387096423
 30
0.0
 11
1370.167492685936
 21
16.27254387096423
 31
0.0
  0
LINE
  5
346
330
341
100
AcDbEntity
  8
____1
  6
Continuous
 62
     5
370
    18
100
AcDbLine
 10
1365.167492685936
 20
32.27254387096434
 30
0.0
 11
1370.167492685936
 21
32.27254387096434
 31
0.0
  0
ENDBLK
  5
347
330
341
100
AcDbEntity
  8
0
100
AcDbBlockEnd
  0
BLOCK
  5
34A
330
349
100
AcDbEntity
  8
0
100
AcDbBlockBegin
  2
C38
 70
     0
 10
0.0
 20
0.0
 30
0.0
  3
C38
  1

  0
LINE
  5
34B
330
349
100
AcDbEntity
  8
____1
  6
Continuous
 62
     5
370
    18
100
AcDbLine
 10
1410.167492685936
 20
16.27254387096423
 30
0.0
 11
1410.167492685936
 21
32.27254387096434
 31
0.0
  0
LINE
  5
34C
330
349
100
AcDbEntity
  8
____1
  6
Continuous
 62
     5
370
    18
100
AcDbLine
 10
1405.167492685936
 20
16.27254387096423
 30
0.0
 11
1405.167492685936
 21
32.27254387096434
 31
0.0
  0
LINE
  5
34D
330
349
100
AcDbEntity
  8
____1
  6
Continuous
 62
     5
370
    18
100
AcDbLine
 10
1405.167492685936
 20
16.27254387096423
 30
0.0
 11
1410.167492685936
 21
16.27254387096423
 31
0.0
  0
LINE
  5
34E
330
349
100
AcDbEntity
  8
____1
  6
Continuous
 62
     5
370
    18
100
AcDbLine
 10
1405.167492685936
 20
32.27254387096434
 30
0.0
 11
1410.167492685936
 21
32.27254387096434
 31
0.0
  0
ENDBLK
  5
34F
330
349
100
AcDbEntity
  8
0
100
AcDbBlockEnd
  0
BLOCK
  5
352
330
351
100
AcDbEntity
  8
0
100
AcDbBlockBegin
  2
C39
 70
     0
 10
0.0
 20
0.0
 30
0.0
  3
C39
  1

  0
LINE
  5
353
330
351
100
AcDbEntity
  8
____1
  6
Continuous
 62
     5
370
    18
100
AcDbLine
 10
1450.167492685936
 20
16.27254387096423
 30
0.0
 11
1450.167492685936
 21
32.27254387096434
 31
0.0
  0
LINE
  5
354
330
351
100
AcDbEntity
  8
____1
  6
Continuous
 62
     5
370
    18
100
AcDbLine
 10
1445.167492685936
 20
16.27254387096423
 30
0.0
 11
1445.167492685936
 21
32.27254387096434
 31
0.0
  0
LINE
  5
355
330
351
100
AcDbEntity
  8
____1
  6
Continuous
 62
     5
370
    18
100
AcDbLine
 10
1445.167492685936
 20
16.27254387096423
 30
0.0
 11
1450.167492685936
 21
16.27254387096423
 31
0.0
  0
LINE
  5
356
330
351
100
AcDbEntity
  8
____1
  6
Continuous
 62
     5
370
    18
100
AcDbLine
 10
1445.167492685936
 20
32.27254387096434
 30
0.0
 11
1450.167492685936
 21
32.27254387096434
 31
0.0
  0
ENDBLK
  5
357
330
351
100
AcDbEntity
  8
0
100
AcDbBlockEnd
  0
BLOCK
  5
35A
330
359
100
AcDbEntity
  8
0
100
AcDbBlockBegin
  2
C40
 70
     0
 10
0.0
 20
0.0
 30
0.0
  3
C40
  1

  0
LINE
  5
35B
330
359
100
AcDbEntity
  8
____1
  6
Continuous
 62
     5
370
    18
100
AcDbLine
 10
1570.167492685936
 20
16.27254387096423
 30
0.0
 11
1570.167492685936
 21
32.27254387096434
 31
0.0
  0
LINE
  5
35C
330
359
100
AcDbEntity
  8
____1
  6
Continuous
 62
     5
370
    18
100
AcDbLine
 10
1565.167492685936
 20
16.27254387096423
 30
0.0
 11
1565.167492685936
 21
32.27254387096434
 31
0.0
  0
LINE
  5
35D
330
359
100
AcDbEntity
  8
____1
  6
Continuous
 62
     5
370
    18
100
AcDbLine
 10
1565.167492685936
 20
16.27254387096423
 30
0.0
 11
1570.167492685936
 21
16.27254387096423
 31
0.0
  0
LINE
  5
35E
330
359
100
AcDbEntity
  8
____1
  6
Continuous
 62
     5
370
    18
100
AcDbLine
 10
1565.167492685936
 20
32.27254387096434
 30
0.0
 11
1570.167492685936
 21
32.27254387096434
 31
0.0
  0
ENDBLK
  5
35F
330
359
100
AcDbEntity
  8
0
100
AcDbBlockEnd
  0
ENDSEC
  0
SECTION
  2
ENTITIES
  0
CIRCLE
  5
3A
330
A
100
AcDbEntity
  8
____1
  6
Continuous
 62
     5
370
    18
100
AcDbCircle
 10
27.66749268593617
 20
24.27254387096434
 30
0.0
 40
1.900000000000545
  0
CIRCLE
  5
3B
330
A
100
AcDbEntity
  8
____1
  6
Continuous
 62
     5
370
    18
100
AcDbCircle
 10
27.66749268593617
 20
24.27254387096434
 30
0.0
 40
3.0
  0
LINE
  5
3C
330
A
100
AcDbEntity
  8
____1
  6
CENTER2
 62
     3
370
     5
100
AcDbLine
 10
21.66749268593617
 20
24.27254387096434
 30
0.0
 11
33.66749268593617
 21
24.27254387096434
 31
0.0
  0
LINE
  5
3D
330
A
100
AcDbEntity
  8
____1
  6
CENTER2
 62
     3
370
     5
100
AcDbLine
 10
27.66749268593617
 20
30.27254387096434
 30
0.0
 11
27.66749268593617
 21
18.27254387096428
 31
0.0
  0
LINE
  5
3E
330
A
100
AcDbEntity
  8
____1
  6
CENTER2
 62
     3
370
     5
100
AcDbLine
 10
227.6674926859362
 20
30.27254387096434
 30
0.0
 11
227.6674926859362
 21
18.27254387096428
 31
0.0
  0
LINE
  5
3F
330
A
100
AcDbEntity
  8
____1
  6
CENTER2
 62
     3
370
     5
100
AcDbLine
 10
221.6674926859361
 20
24.27254387096434
 30
0.0
 11
233.6674926859362
 21
24.27254387096434
 31
0.0
  0
CIRCLE
  5
40
330
A
100
AcDbEntity
  8
____1
  6
Continuous
 62
     5
370
    18
100
AcDbCircle
 10
227.6674926859362
 20
24.27254387096434
 30
0.0
 40
3.0
  0
CIRCLE
  5
41
330
A
100
AcDbEntity
  8
____1
  6
Continuous
 62
     5
370
    18
100
AcDbCircle
 10
227.6674926859362
 20
24.27254387096434
 30
0.0
 40
1.900000000000545
  0
DIMENSION
  5
4F
330
A
100
AcDbEntity
  8
寸法線_1
  6
Continuous
 62
     7
370
     5
100
AcDbDimension
  2
*D0
 10
227.6674926859362
 20
122.8684437951283
 30
0.0
 11
127.6674926859362
 21
122.8684437951283
 31
0.0
 70
    32
 71
     5
 42
0.0
  3
DS1
100
AcDbAlignedDimension
 13
27.66749268593617
 23
30.27254387096434
 33
0.0
 14
227.6674926859362
 24
30.27254387096423
 34
0.0
100
AcDbRotatedDimension
  0
MTEXT
  5
F8
330
A
100
AcDbEntity
  8
____
  6
Continuous
 62
     7
370
     5
100
AcDbMText
 10
147.2932031250005
 20
490.0608072916666
 30
0.0
 40
3.174999952316284
 41
50.0
 71
     1
 72
     1
  1
********************
  7
Style1
 73
     1
 44
1.0
1001
ACAD
1000
MTEXTBEGIN
1070
    73
1070
     1
1070
    44
1040
1.0
1070
    74
1070
     0
1000
MTEXTEND
  0
MTEXT
  5
F9
330
A
100
AcDbEntity
  8
____
  6
Continuous
 62
     7
370
     5
100
AcDbMText
 10
125.4261747141679
 20
489.456415032486
 30
0.0
 40
3.174999961853028
 41
3.165486049579876
 71
     1
 72
     1
  1
1
  7
Style1
 73
     1
 44
1.0
1001
ACAD
1000
MTEXTBEGIN
1070
    73
1070
     1
1070
    44
1040
1.0
1070
    74
1070
     0
1000
MTEXTEND
  0
MTEXT
  5
FA
330
A
100
AcDbEntity
  8
____
  6
DOT
 62
     7
370
     5
100
AcDbMText
 10
197.2932031250006
 20
490.0608072916666
 30
0.0
 40
3.174999952316284
 41
10.0
 71
     1
 72
     1
  1
***
  7
Style1
 73
     1
 44
1.0
1001
ACAD
1000
MTEXTBEGIN
1070
    73
1070
     1
1070
    44
1040
1.0
1070
    74
1070
     0
1000
MTEXTEND
  0
MTEXT
  5
FB
330
A
100
AcDbEntity
  8
____
  6
Continuous
 62
     7
370
     5
100
AcDbMText
 10
131.2932031250005
 20
490.0608072916666
 30
0.0
 40
3.174999952316284
 41
16.0
 71
     1
 72
     1
  1
H**.**.**
  7
Style1
 73
     1
 44
1.0
1001
ACAD
1000
MTEXTBEGIN
1070
    73
1070
     1
1070
    44
1040
1.0
1070
    74
1070
     0
1000
MTEXTEND
  0
LINE
  5
101
330
A
100
AcDbEntity
  8
____1
  6
Continuous
 62
     5
370
    18
100
AcDbLine
 10
-12.33250731406383
 20
9.272543870964227
 30
0.0
 11
-12.33250731406383
 21
-1.227456129035772
 31
0.0
  0
LINE
  5
102
330
A
100
AcDbEntity
  8
____1
  6
Continuous
 62
     7
370
     5
100
AcDbLine
 10
229.5023220773972
 20
21.89906517836346
 30
0.0
 11
285.2107774035471
 21
-78.00745529263378
 31
0.0
  0
SOLID
  5
103
330
A
100
AcDbEntity
  8
____1
 62
     7
100
AcDbTrace
 10
229.5023220773972
 20
21.89906517836346
 30
0.0
 11
235.1889941257372
 21
0.835085347701491
 31
0.0
 12
229.5023220773972
 22
21.89906517836346
 32
0.0
 13
237.2336164345776
 23
8.033903894662064
 33
0.0
  0
SOLID
  5
104
330
A
100
AcDbEntity
  8
____1
 62
     7
100
AcDbTrace
 10
237.2336164345776
 20
8.033903894662064
 30
0.0
 11
244.4324349815381
 21
5.98928158582171
 31
0.0
 12
229.5023220773972
 22
21.89906517836346
 32
0.0
 13
229.5023220773972
 23
21.89906517836346
 33
0.0
  0
LINE
  5
105
330
A
100
AcDbEntity
  8
____1
  6
Continuous
 62
     5
370
    18
100
AcDbLine
 10
-12.33250731406383
 20
39.27254387096457
 30
0.0
 11
-12.33250731406383
 21
49.77254387096412
 31
0.0
  0
LINE
  5
106
330
A
100
AcDbEntity
  8
____1
  6
Continuous
 62
     5
370
    18
100
AcDbLine
 10
-12.33250731406383
 20
9.272543870964227
 30
0.0
 11
-12.33250731406383
 21
39.27254387096457
 31
0.0
  0
INSERT
  5
10E
330
A
100
AcDbEntity
  8
____1
  6
Continuous
 62
     5
370
    18
100
AcDbBlockReference
  2
C1
 10
0.0
 20
0.0
 30
0.0
  0
INSERT
  5
116
330
A
100
AcDbEntity
  8
____1
  6
Continuous
 62
     5
370
    18
100
AcDbBlockReference
  2
C2
 10
0.0
 20
0.0
 30
0.0
  0
INSERT
  5
11E
330
A
100
AcDbEntity
  8
____1
  6
Continuous
 62
     5
370
    18
100
AcDbBlockReference
  2
C3
 10
0.0
 20
0.0
 30
0.0
  0
INSERT
  5
126
330
A
100
AcDbEntity
  8
____1
  6
Continuous
 62
     5
370
    18
100
AcDbBlockReference
  2
C4
 10
0.0
 20
0.0
 30
0.0
  0
INSERT
  5
12E
330
A
100
AcDbEntity
  8
____1
  6
Continuous
 62
     5
370
    18
100
AcDbBlockReference
  2
C5
 10
0.0
 20
0.0
 30
0.0
  0
INSERT
  5
136
330
A
100
AcDbEntity
  8
____1
  6
Continuous
 62
     5
370
    18
100
AcDbBlockReference
  2
C6
 10
0.0
 20
0.0
 30
0.0
  0
INSERT
  5
13E
330
A
100
AcDbEntity
  8
____1
  6
Continuous
 62
     5
370
    18
100
AcDbBlockReference
  2
C7
 10
0.0
 20
0.0
 30
0.0
  0
INSERT
  5
146
330
A
100
AcDbEntity
  8
____1
  6
Continuous
 62
     5
370
    18
100
AcDbBlockReference
  2
C8
 10
0.0
 20
0.0
 30
0.0
  0
LINE
  5
147
330
A
100
AcDbEntity
  8
____1
  6
Continuous
 62
     5
370
    18
100
AcDbLine
 10
1679.979429244108
 20
27.68675743333734
 30
0.0
 11
1679.979429244108
 21
38.27254387096457
 31
0.0
  0
LINE
  5
148
330
A
100
AcDbEntity
  8
____1
  6
Continuous
 62
     5
370
    18
100
AcDbLine
 10
1678.979429244108
 20
38.27254387096457
 30
0.0
 11
1678.979429244108
 21
10.27254387096423
 31
0.0
  0
LINE
  5
149
330
A
100
AcDbEntity
  8
____1
  6
Continuous
 62
     5
370
    18
100
AcDbLine
 10
1686.979429244107
 20
39.27254387096457
 30
0.0
 11
1686.979429244107
 21
49.77254387096412
 31
0.0
  0
LINE
  5
14A
330
A
100
AcDbEntity
  8
____1
  6
Continuous
 62
     5
370
    18
100
AcDbLine
 10
1679.979429244108
 20
39.27254387096457
 30
0.0
 11
1686.979429244107
 21
39.27254387096457
 31
0.0
  0
DIMENSION
  5
159
330
A
100
AcDbEntity
  8
寸法線_1
  6
Continuous
 62
     7
370
     5
100
AcDbDimension
  2
*D10
 10
1260.993953850752
 20
-471.7328573258207
 30
0.0
 11
1260.993953850752
 21
-344.2328573258212
 31
0.0
 70
    32
 71
     5
 42
0.0
  3
DS1
100
AcDbAlignedDimension
 13
1188.724487704918
 23
-216.7328573258217
 33
0.0
 14
1188.724487704918
 24
-471.7328573258207
 34
0.0
 50
90.0
100
AcDbRotatedDimension
  0
DIMENSION
  5
167
330
A
100
AcDbEntity
  8
寸法線_1
  6
Continuous
 62
     7
370
     5
100
AcDbDimension
  2
*D11
 10
1188.724487704918
 20
-166.7328573258217
 30
0.0
 11
1166.224487704918
 21
-166.7328573258217
 31
0.0
 70
    32
 71
     5
 42
0.0
  3
DS1
100
AcDbAlignedDimension
 13
1143.724487704918
 23
-274.2328573258194
 33
0.0
 14
1188.724487704918
 24
-216.7328573258217
 34
0.0
100
AcDbRotatedDimension
  0
DIMENSION
  5
176
330
A
100
AcDbEntity
  8
寸法線_1
  6
Continuous
 62
     7
370
     5
100
AcDbDimension
  2
*D12
 10
1089.279370517418
 20
-269.2328573258194
 30
0.0
 11
1089.279370517418
 21
-344.2328573258202
 31
0.0
 70
    32
 71
     5
 42
0.0
  3
DS1
100
AcDbAlignedDimension
 13
1148.724487704918
 23
-419.2328573258209
 33
0.0
 14
1148.724487704918
 24
-269.2328573258194
 34
0.0
 50
90.0
100
AcDbRotatedDimension
  0
DIMENSION
  5
183
330
A
100
AcDbEntity
  8
寸法線_1
  6
Continuous
 62
     7
370
     5
100
AcDbDimension
  2
*D13
 10
1427.667492685936
 20
122.8684437951283
 30
0.0
 11
1327.667492685936
 21
122.8684437951283
 31
0.0
 70
    32
 71
     5
 42
0.0
  3
DS1
100
AcDbAlignedDimension
 13
1227.667492685936
 23
30.272543870964
 33
0.0
 14
1427.667492685936
 24
30.27254387096389
 34
0.0
100
AcDbRotatedDimension
  0
DIMENSION
  5
190
330
A
100
AcDbEntity
  8
寸法線_1
  6
Continuous
 62
     7
370
     5
100
AcDbDimension
  2
*D14
 10
1587.667492685935
 20
122.8684437951283
 30
0.0
 11
1507.667492685936
 21
122.8684437951283
 31
0.0
 70
    32
 71
     5
 42
0.0
  3
DS1
100
AcDbAlignedDimension
 13
1427.667492685936
 23
30.27254387096389
 33
0.0
 14
1587.667492685935
 24
39.27254387096468
 34
0.0
100
AcDbRotatedDimension
  0
DIMENSION
  5
19D
330
A
100
AcDbEntity
  8
寸法線_1
  6
Continuous
 62
     7
370
     5
100
AcDbDimension
  2
*D15
 10
827.6674926859362
 20
122.8684437951283
 30
0.0
 11
727.6674926859361
 21
122.8684437951283
 31
0.0
 70
    32
 71
     5
 42
0.0
  3
DS1
100
AcDbAlignedDimension
 13
627.6674926859361
 23
30.27254387096411
 33
0.0
 14
827.6674926859362
 24
30.27254387096411
 34
0.0
100
AcDbRotatedDimension
  0
DIMENSION
  5
1AA
330
A
100
AcDbEntity
  8
寸法線_1
  6
Continuous
 62
     7
370
     5
100
AcDbDimension
  2
*D16
 10
1027.667492685936
 20
122.8684437951283
 30
0.0
 11
927.6674926859362
 21
122.8684437951283
 31
0.0
 70
    32
 71
     5
 42
0.0
  3
DS1
100
AcDbAlignedDimension
 13
827.6674926859362
 23
30.27254387096411
 33
0.0
 14
1027.667492685936
 24
30.272543870964
 34
0.0
100
AcDbRotatedDimension
  0
DIMENSION
  5
1B7
330
A
100
AcDbEntity
  8
寸法線_1
  6
Continuous
 62
     7
370
     5
100
AcDbDimension
  2
*D17
 10
427.6674926859361
 20
122.8684437951283
 30
0.0
 11
327.6674926859362
 21
122.8684437951283
 31
0.0
 70
    32
 71
     5
 42
0.0
  3
DS1
100
AcDbAlignedDimension
 13
227.6674926859362
 23
30.27254387096423
 33
0.0
 14
427.6674926859361
 24
30.27254387096423
 34
0.0
100
AcDbRotatedDimension
  0
DIMENSION
  5
1C4
330
A
100
AcDbEntity
  8
寸法線_1
  6
Continuous
 62
     7
370
     5
100
AcDbDimension
  2
*D18
 10
27.66749268593617
 20
122.8684437951283
 30
0.0
 11
-51.50217502021941
 21
122.8684437951283
 31
0.0
 70
    32
 71
     5
 42
0.0
  3
DS1
100
AcDbAlignedDimension
 13
-12.33250731406383
 23
39.27254387096468
 33
0.0
 14
27.66749268593617
 24
30.27254387096434
 34
0.0
100
AcDbRotatedDimension
  0
DIMENSION
  5
1D2
330
A
100
AcDbEntity
  8
寸法線_1
  6
Continuous
 62
     7
370
     5
100
AcDbDimension
  2
*D19
 10
1587.667492685935
 20
180.9373396929855
 30
0.0
 11
1577.667492685935
 21
180.9373396929855
 31
0.0
 70
    32
 71
     5
 42
0.0
  3
DS1
100
AcDbAlignedDimension
 13
1567.667492685935
 23
32.27254387096434
 33
0.0
 14
1587.667492685935
 24
39.27254387096468
 34
0.0
100
AcDbRotatedDimension
  0
DIMENSION
  5
1E0
330
A
100
AcDbEntity
  8
寸法線_1
  6
Continuous
 62
     7
370
     5
100
AcDbDimension
  2
*D20
 10
7.667492685936167
 20
180.9373396929855
 30
0.0
 11
-2.332507314063832
 21
180.9373396929855
 31
0.0
 70
    32
 71
     5
 42
0.0
  3
DS1
100
AcDbAlignedDimension
 13
-12.33250731406383
 23
39.27254387096468
 33
0.0
 14
7.667492685936167
 24
32.27254387096434
 34
0.0
100
AcDbRotatedDimension
  0
DIMENSION
  5
1ED
330
A
100
AcDbEntity
  8
寸法線_1
  6
Continuous
 62
     7
370
     5
100
AcDbDimension
  2
*D21
 10
1227.667492685936
 20
122.8684437951283
 30
0.0
 11
1127.667492685936
 21
122.8684437951283
 31
0.0
 70
    32
 71
     5
 42
0.0
  3
DS1
100
AcDbAlignedDimension
 13
1027.667492685936
 23
30.272543870964
 33
0.0
 14
1227.667492685936
 24
30.272543870964
 34
0.0
100
AcDbRotatedDimension
  0
DIMENSION
  5
1FA
330
A
100
AcDbEntity
  8
寸法線_1
  6
Continuous
 62
     7
370
     5
100
AcDbDimension
  2
*D22
 10
627.6674926859361
 20
122.8684437951283
 30
0.0
 11
527.6674926859361
 21
122.8684437951283
 31
0.0
 70
    32
 71
     5
 42
0.0
  3
DS1
100
AcDbAlignedDimension
 13
427.6674926859361
 23
30.27254387096423
 33
0.0
 14
627.6674926859361
 24
30.27254387096411
 34
0.0
100
AcDbRotatedDimension
  0
DIMENSION
  5
207
330
A
100
AcDbEntity
  8
寸法線_1
  6
Continuous
 62
     7
370
     5
100
AcDbDimension
  2
*D23
 10
1587.667492685935
 20
229.5131860471522
 30
0.0
 11
787.6674926859358
 21
229.5131860471522
 31
0.0
 70
    32
 71
     5
 42
0.0
  3
DS1
100
AcDbAlignedDimension
 13
-12.33250731406383
 23
39.27254387096468
 33
0.0
 14
1587.667492685935
 24
39.27254387096468
 34
0.0
 50
0.0000008537736463
100
AcDbRotatedDimension
  0
DIMENSION
  5
214
330
A
100
AcDbEntity
  8
寸法線_1
  6
Continuous
 62
     7
370
     5
100
AcDbDimension
  2
*D24
 10
1567.667492685935
 20
180.9373396929855
 30
0.0
 11
787.6674926859358
 21
180.9373396929855
 31
0.0
 70
    32
 71
     5
 42
0.0
  3
DS1
100
AcDbAlignedDimension
 13
7.667492685936167
 23
32.27254387096434
 33
0.0
 14
1567.667492685935
 24
32.27254387096434
 34
0.0
100
AcDbRotatedDimension
  0
LINE
  5
21B
330
A
100
AcDbEntity
  8
____1
  6
Continuous
 62
     5
370
    18
100
AcDbLine
 10
1687.979429244108
 20
9.272543870964227
 30
0.0
 11
1687.979429244108
 21
-1.227456129035772
 31
0.0
  0
LINE
  5
21C
330
A
100
AcDbEntity
  8
____1
  6
Continuous
 62
     5
370
    18
100
AcDbLine
 10
1679.979429244108
 20
20.85833030859135
 30
0.0
 11
1679.979429244108
 21
10.27254387096423
 31
0.0
  0
LINE
  5
21D
330
A
100
AcDbEntity
  8
____1
  6
Continuous
 62
     5
370
    18
100
AcDbLine
 10
1680.079429244108
 20
26.17254387096443
 30
0.0
 11
1681.493642806481
 21
26.17254387096432
 31
0.0
  0
LINE
  5
21E
330
A
100
AcDbEntity
  8
____1
  6
Continuous
 62
     5
370
    18
100
AcDbLine
 10
1680.079429244108
 20
22.37254387096436
 30
0.0
 11
1681.493642806481
 21
22.37254387096436
 31
0.0
  0
LINE
  5
21F
330
A
100
AcDbEntity
  8
____1
  6
Continuous
 62
     5
370
    18
100
AcDbLine
 10
1679.979429244108
 20
9.272543870964227
 30
0.0
 11
1686.979429244107
 21
9.272543870964227
 31
0.0
  0
LINE
  5
220
330
A
100
AcDbEntity
  8
____1
  6
CENTER2
 62
     3
370
     5
100
AcDbLine
 10
1673.979429244108
 20
24.27254387096446
 30
0.0
 11
1692.979429244108
 21
24.27254387096446
 31
0.0
  0
LINE
  5
221
330
A
100
AcDbEntity
  8
____1
  6
Continuous
 62
     5
370
    18
100
AcDbLine
 10
1686.979429244107
 20
-1.227456129035772
 30
0.0
 11
1687.979429244108
 21
-1.227456129035772
 31
0.0
  0
LINE
  5
222
330
A
100
AcDbEntity
  8
____1
  6
Continuous
 62
     5
370
    18
100
AcDbLine
 10
1686.979429244107
 20
49.77254387096412
 30
0.0
 11
1687.979429244108
 21
49.77254387096412
 31
0.0
  0
LINE
  5
223
330
A
100
AcDbEntity
  8
____1
  6
Continuous
 62
     5
370
    18
100
AcDbLine
 10
1687.979429244108
 20
39.27254387096457
 30
0.0
 11
1687.979429244108
 21
49.77254387096412
 31
0.0
  0
ARC
  5
224
330
A
100
AcDbEntity
  8
____1
  6
Continuous
 62
     5
370
    18
100
AcDbCircle
 10
1679.979429244108
 20
10.27254387096423
 30
0.0
 40
1.0
100
AcDbArc
 50
180.0
 51
-90.0
  0
LINE
  5
225
330
A
100
AcDbEntity
  8
____1
  6
Continuous
 62
     5
370
    18
100
AcDbLine
 10
1678.979429244108
 20
27.68675743333745
 30
0.0
 11
1678.979429244108
 21
20.85833030859135
 31
0.0
  0
ARC
  5
226
330
A
100
AcDbEntity
  8
____1
  6
Continuous
 62
     5
370
    18
100
AcDbCircle
 10
1679.979429244108
 20
20.85833030859135
 30
0.0
 40
1.000000000000007
100
AcDbArc
 50
135.0000000000092
 51
180.0
  0
LINE
  5
227
330
A
100
AcDbEntity
  8
____1
  6
Continuous
 62
     5
370
    18
100
AcDbLine
 10
1679.272322462921
 20
21.56543708977779
 30
0.0
 11
1680.079429244108
 21
22.37254387096436
 31
0.0
  0
LINE
  5
228
330
A
100
AcDbEntity
  8
____1
  6
Continuous
 62
     5
370
    18
100
AcDbLine
 10
1587.667492685936
 20
-1.227456129035772
 30
0.0
 11
1587.667492685936
 21
49.77254387096412
 31
0.0
  0
LINE
  5
229
330
A
100
AcDbEntity
  8
____1
  6
Continuous
 62
     5
370
    18
100
AcDbLine
 10
-12.33250731406393
 20
49.77254387096412
 30
0.0
 11
1587.667492685936
 21
49.77254387096412
 31
0.0
  0
LINE
  5
22A
330
A
100
AcDbEntity
  8
____1
  6
Continuous
 62
     5
370
    18
100
AcDbLine
 10
-12.33250731406384
 20
39.27254387096457
 30
0.0
 11
1587.667492685936
 21
39.27254387096457
 31
0.0
  0
LINE
  5
22B
330
A
100
AcDbEntity
  8
____1
  6
DASHED2
 62
     7
370
     5
100
AcDbLine
 10
-12.33250731406389
 20
38.27254387096457
 30
0.0
 11
1587.667492685935
 21
38.27254387096457
 31
0.0
  0
LINE
  5
22C
330
A
100
AcDbEntity
  8
____1
  6
DASHED2
 62
     7
370
     5
100
AcDbLine
 10
1587.667492685937
 20
10.27254387096423
 30
0.0
 11
-12.33250731406417
 21
10.27254387096423
 31
0.0
  0
LINE
  5
22D
330
A
100
AcDbEntity
  8
____1
  6
Continuous
 62
     5
370
    18
100
AcDbLine
 10
1587.667492685936
 20
9.272543870964227
 30
0.0
 11
-12.33250731406394
 21
9.272543870964227
 31
0.0
  0
LINE
  5
22E
330
A
100
AcDbEntity
  8
____1
  6
Continuous
 62
     5
370
    18
100
AcDbLine
 10
1587.667492685935
 20
-1.227456129035772
 30
0.0
 11
-12.33250731406412
 21
-1.227456129035772
 31
0.0
  0
ARC
  5
22F
330
A
100
AcDbEntity
  8
____1
  6
Continuous
 62
     5
370
    18
100
AcDbCircle
 10
1679.979429244108
 20
27.68675743333745
 30
0.0
 40
1.0
100
AcDbArc
 50
180.0
 51
-135.0000000000046
  0
LINE
  5
230
330
A
100
AcDbEntity
  8
____1
  6
Continuous
 62
     5
370
    18
100
AcDbLine
 10
1679.272322462921
 20
26.9796506521509
 30
0.0
 11
1680.079429244108
 21
26.17254387096443
 31
0.0
  0
LINE
  5
231
330
A
100
AcDbEntity
  8
____1
  6
Continuous
 62
     5
370
    18
100
AcDbLine
 10
1680.079429244108
 20
26.17254387096443
 30
0.0
 11
1680.079429244108
 21
22.37254387096436
 31
0.0
  0
LINE
  5
232
330
A
100
AcDbEntity
  8
____1
  6
Continuous
 62
     5
370
    18
100
AcDbLine
 10
1681.493642806481
 20
26.17254387096432
 30
0.0
 11
1681.493642806481
 21
22.37254387096436
 31
0.0
  0
LINE
  5
233
330
A
100
AcDbEntity
  8
____1
  6
Continuous
 62
     5
370
    18
100
AcDbLine
 10
1679.979429244108
 20
27.68675743333734
 30
0.0
 11
1681.493642806481
 21
26.17254387096432
 31
0.0
  0
INSERT
  5
23B
330
A
100
AcDbEntity
  8
____1
  6
Continuous
 62
     5
370
    18
100
AcDbBlockReference
  2
C9
 10
0.0
 20
0.0
 30
0.0
  0
INSERT
  5
243
330
A
100
AcDbEntity
  8
____1
  6
Continuous
 62
     5
370
    18
100
AcDbBlockReference
  2
C10
 10
0.0
 20
0.0
 30
0.0
  0
INSERT
  5
24B
330
A
100
AcDbEntity
  8
____1
  6
Continuous
 62
     5
370
    18
100
AcDbBlockReference
  2
C11
 10
0.0
 20
0.0
 30
0.0
  0
INSERT
  5
253
330
A
100
AcDbEntity
  8
____1
  6
Continuous
 62
     5
370
    18
100
AcDbBlockReference
  2
C12
 10
0.0
 20
0.0
 30
0.0
  0
INSERT
  5
25B
330
A
100
AcDbEntity
  8
____1
  6
Continuous
 62
     5
370
    18
100
AcDbBlockReference
  2
C13
 10
0.0
 20
0.0
 30
0.0
  0
INSERT
  5
263
330
A
100
AcDbEntity
  8
____1
  6
Continuous
 62
     5
370
    18
100
AcDbBlockReference
  2
C14
 10
0.0
 20
0.0
 30
0.0
  0
INSERT
  5
26B
330
A
100
AcDbEntity
  8
____1
  6
Continuous
 62
     5
370
    18
100
AcDbBlockReference
  2
C15
 10
0.0
 20
0.0
 30
0.0
  0
INSERT
  5
273
330
A
100
AcDbEntity
  8
____1
  6
Continuous
 62
     5
370
    18
100
AcDbBlockReference
  2
C16
 10
0.0
 20
0.0
 30
0.0
  0
INSERT
  5
27B
330
A
100
AcDbEntity
  8
____1
  6
Continuous
 62
     5
370
    18
100
AcDbBlockReference
  2
C17
 10
0.0
 20
0.0
 30
0.0
  0
INSERT
  5
283
330
A
100
AcDbEntity
  8
____1
  6
Continuous
 62
     5
370
    18
100
AcDbBlockReference
  2
C18
 10
0.0
 20
0.0
 30
0.0
  0
INSERT
  5
28B
330
A
100
AcDbEntity
  8
____1
  6
Continuous
 62
     5
370
    18
100
AcDbBlockReference
  2
C19
 10
0.0
 20
0.0
 30
0.0
  0
INSERT
  5
293
330
A
100
AcDbEntity
  8
____1
  6
Continuous
 62
     5
370
    18
100
AcDbBlockReference
  2
C20
 10
0.0
 20
0.0
 30
0.0
  0
INSERT
  5
29B
330
A
100
AcDbEntity
  8
____1
  6
Continuous
 62
     5
370
    18
100
AcDbBlockReference
  2
C21
 10
0.0
 20
0.0
 30
0.0
  0
INSERT
  5
2A3
330
A
100
AcDbEntity
  8
____1
  6
Continuous
 62
     5
370
    18
100
AcDbBlockReference
  2
C22
 10
0.0
 20
0.0
 30
0.0
  0
INSERT
  5
2AB
330
A
100
AcDbEntity
  8
____1
  6
Continuous
 62
     5
370
    18
100
AcDbBlockReference
  2
C23
 10
0.0
 20
0.0
 30
0.0
  0
INSERT
  5
2B3
330
A
100
AcDbEntity
  8
____1
  6
Continuous
 62
     5
370
    18
100
AcDbBlockReference
  2
C24
 10
0.0
 20
0.0
 30
0.0
  0
INSERT
  5
2BB
330
A
100
AcDbEntity
  8
____1
  6
Continuous
 62
     5
370
    18
100
AcDbBlockReference
  2
C25
 10
0.0
 20
0.0
 30
0.0
  0
INSERT
  5
2C3
330
A
100
AcDbEntity
  8
____1
  6
Continuous
 62
     5
370
    18
100
AcDbBlockReference
  2
C26
 10
0.0
 20
0.0
 30
0.0
  0
LINE
  5
2C4
330
A
100
AcDbEntity
  8
____1
  6
Continuous
 62
     5
370
    18
100
AcDbLine
 10
1679.979429244108
 20
20.85833030859135
 30
0.0
 11
1681.493642806481
 21
22.37254387096436
 31
0.0
  0
ARC
  5
2C5
330
A
100
AcDbEntity
  8
____1
  6
Continuous
 62
     5
370
    18
100
AcDbCircle
 10
1679.979429244108
 20
38.27254387096457
 30
0.0
 40
1.0
100
AcDbArc
 50
90.0
 51
180.0
  0
ARC
  5
2C6
330
A
100
AcDbEntity
  8
____1
  6
Continuous
 62
     5
370
    18
100
AcDbCircle
 10
1686.979429244107
 20
39.27254387096457
 30
0.0
 40
1.0
100
AcDbArc
 50
-90.0
 51
0.0
  0
LINE
  5
2C7
330
A
100
AcDbEntity
  8
____1
  6
Continuous
 62
     5
370
    18
100
AcDbLine
 10
1679.979429244108
 20
38.27254387096457
 30
0.0
 11
1686.979429244107
 21
38.27254387096457
 31
0.0
  0
LINE
  5
2C8
330
A
100
AcDbEntity
  8
____1
  6
Continuous
 62
     5
370
    18
100
AcDbLine
 10
1686.979429244107
 20
9.272543870964227
 30
0.0
 11
1686.979429244107
 21
-1.227456129035772
 31
0.0
  0
ARC
  5
2C9
330
A
100
AcDbEntity
  8
____1
  6
Continuous
 62
     5
370
    18
100
AcDbCircle
 10
1686.979429244107
 20
9.272543870964227
 30
0.0
 40
1.0
100
AcDbArc
 50
0.0
 51
90.0
  0
LINE
  5
2CA
330
A
100
AcDbEntity
  8
____1
  6
Continuous
 62
     5
370
    18
100
AcDbLine
 10
1679.979429244108
 20
10.27254387096423
 30
0.0
 11
1686.979429244107
 21
10.27254387096423
 31
0.0
  0
INSERT
  5
2D2
330
A
100
AcDbEntity
  8
____1
  6
Continuous
 62
     5
370
    18
100
AcDbBlockReference
  2
C27
 10
0.0
 20
0.0
 30
0.0
  0
INSERT
  5
2DA
330
A
100
AcDbEntity
  8
____1
  6
Continuous
 62
     5
370
    18
100
AcDbBlockReference
  2
C28
 10
0.0
 20
0.0
 30
0.0
  0
CIRCLE
  5
2DB
330
A
100
AcDbEntity
  8
____1
  6
Continuous
 62
     5
370
    18
100
AcDbCircle
 10
427.6674926859361
 20
24.27254387096434
 30
0.0
 40
1.900000000000545
  0
CIRCLE
  5
2DC
330
A
100
AcDbEntity
  8
____1
  6
Continuous
 62
     5
370
    18
100
AcDbCircle
 10
427.6674926859361
 20
24.27254387096434
 30
0.0
 40
3.0
  0
LINE
  5
2DD
330
A
100
AcDbEntity
  8
____1
  6
CENTER2
 62
     3
370
     5
100
AcDbLine
 10
421.6674926859361
 20
24.27254387096434
 30
0.0
 11
433.6674926859362
 21
24.27254387096434
 31
0.0
  0
LINE
  5
2DE
330
A
100
AcDbEntity
  8
____1
  6
CENTER2
 62
     3
370
     5
100
AcDbLine
 10
427.6674926859361
 20
30.27254387096434
 30
0.0
 11
427.6674926859361
 21
18.27254387096428
 31
0.0
  0
LINE
  5
2DF
330
A
100
AcDbEntity
  8
____1
  6
CENTER2
 62
     3
370
     5
100
AcDbLine
 10
627.6674926859361
 20
30.27254387096434
 30
0.0
 11
627.6674926859361
 21
18.27254387096428
 31
0.0
  0
LINE
  5
2E0
330
A
100
AcDbEntity
  8
____1
  6
CENTER2
 62
     3
370
     5
100
AcDbLine
 10
621.6674926859361
 20
24.27254387096434
 30
0.0
 11
633.6674926859362
 21
24.27254387096434
 31
0.0
  0
CIRCLE
  5
2E1
330
A
100
AcDbEntity
  8
____1
  6
Continuous
 62
     5
370
    18
100
AcDbCircle
 10
627.6674926859361
 20
24.27254387096434
 30
0.0
 40
3.0
  0
CIRCLE
  5
2E2
330
A
100
AcDbEntity
  8
____1
  6
Continuous
 62
     5
370
    18
100
AcDbCircle
 10
627.6674926859361
 20
24.27254387096434
 30
0.0
 40
1.900000000000545
  0
CIRCLE
  5
2E3
330
A
100
AcDbEntity
  8
____1
  6
Continuous
 62
     5
370
    18
100
AcDbCircle
 10
827.6674926859362
 20
24.27254387096434
 30
0.0
 40
1.900000000000545
  0
CIRCLE
  5
2E4
330
A
100
AcDbEntity
  8
____1
  6
Continuous
 62
     5
370
    18
100
AcDbCircle
 10
827.6674926859362
 20
24.27254387096434
 30
0.0
 40
3.0
  0
LINE
  5
2E5
330
A
100
AcDbEntity
  8
____1
  6
CENTER2
 62
     3
370
     5
100
AcDbLine
 10
821.6674926859361
 20
24.27254387096434
 30
0.0
 11
833.6674926859361
 21
24.27254387096434
 31
0.0
  0
LINE
  5
2E6
330
A
100
AcDbEntity
  8
____1
  6
CENTER2
 62
     3
370
     5
100
AcDbLine
 10
827.6674926859362
 20
30.27254387096434
 30
0.0
 11
827.6674926859362
 21
18.27254387096428
 31
0.0
  0
LINE
  5
2E7
330
A
100
AcDbEntity
  8
____1
  6
CENTER2
 62
     3
370
     5
100
AcDbLine
 10
1027.667492685936
 20
30.27254387096434
 30
0.0
 11
1027.667492685936
 21
18.27254387096428
 31
0.0
  0
LINE
  5
2E8
330
A
100
AcDbEntity
  8
____1
  6
CENTER2
 62
     3
370
     5
100
AcDbLine
 10
1021.667492685936
 20
24.27254387096434
 30
0.0
 11
1033.667492685936
 21
24.27254387096434
 31
0.0
  0
CIRCLE
  5
2E9
330
A
100
AcDbEntity
  8
____1
  6
Continuous
 62
     5
370
    18
100
AcDbCircle
 10
1027.667492685936
 20
24.27254387096434
 30
0.0
 40
3.0
  0
CIRCLE
  5
2EA
330
A
100
AcDbEntity
  8
____1
  6
Continuous
 62
     5
370
    18
100
AcDbCircle
 10
1027.667492685936
 20
24.27254387096434
 30
0.0
 40
1.900000000000545
  0
CIRCLE
  5
2EB
330
A
100
AcDbEntity
  8
____1
  6
Continuous
 62
     5
370
    18
100
AcDbCircle
 10
1227.667492685936
 20
24.27254387096434
 30
0.0
 40
1.900000000000545
  0
INSERT
  5
2F3
330
A
100
AcDbEntity
  8
____1
  6
Continuous
 62
     5
370
    18
100
AcDbBlockReference
  2
C29
 10
0.0
 20
0.0
 30
0.0
  0
INSERT
  5
2FB
330
A
100
AcDbEntity
  8
____1
  6
Continuous
 62
     5
370
    18
100
AcDbBlockReference
  2
C30
 10
0.0
 20
0.0
 30
0.0
  0
INSERT
  5
303
330
A
100
AcDbEntity
  8
____1
  6
Continuous
 62
     5
370
    18
100
AcDbBlockReference
  2
C31
 10
0.0
 20
0.0
 30
0.0
  0
INSERT
  5
30B
330
A
100
AcDbEntity
  8
____1
  6
Continuous
 62
     5
370
    18
100
AcDbBlockReference
  2
C32
 10
0.0
 20
0.0
 30
0.0
  0
INSERT
  5
313
330
A
100
AcDbEntity
  8
____1
  6
Continuous
 62
     5
370
    18
100
AcDbBlockReference
  2
C33
 10
0.0
 20
0.0
 30
0.0
  0
INSERT
  5
31B
330
A
100
AcDbEntity
  8
____1
  6
Continuous
 62
     5
370
    18
100
AcDbBlockReference
  2
C34
 10
0.0
 20
0.0
 30
0.0
  0
ARC
  5
31C
330
A
100
AcDbEntity
  8
____1
  6
Continuous
 62
     5
370
    18
100
AcDbCircle
 10
1148.724487704918
 20
-414.2328573258209
 30
0.0
 40
5.0
100
AcDbArc
 50
180.0
 51
-90.0
  0
LINE
  5
31D
330
A
100
AcDbEntity
  8
____1
  6
Continuous
 62
     5
370
    18
100
AcDbLine
 10
1143.724487704918
 20
-327.161789513955
 30
0.0
 11
1143.724487704918
 21
-361.3039251376854
 31
0.0
  0
ARC
  5
31E
330
A
100
AcDbEntity
  8
____1
  6
Continuous
 62
     5
370
    18
100
AcDbCircle
 10
1148.724487704918
 20
-361.3039251376854
 30
0.0
 40
5.00000000000004
100
AcDbArc
 50
135.0000000000092
 51
180.0
  0
LINE
  5
31F
330
A
100
AcDbEntity
  8
____1
  6
Continuous
 62
     5
370
    18
100
AcDbLine
 10
1145.188953798984
 20
-357.7683912317533
 30
0.0
 11
1149.224487704918
 21
-353.7328573258204
 31
0.0
  0
ARC
  5
320
330
A
100
AcDbEntity
  8
____1
  6
Continuous
 62
     5
370
    18
100
AcDbCircle
 10
1148.724487704918
 20
-327.161789513955
 30
0.0
 40
5.0
100
AcDbArc
 50
180.0
 51
-135.0000000000055
  0
MTEXT
  5
321
330
A
100
AcDbEntity
  8
____1
  6
Continuous
 62
     7
370
     5
100
AcDbMText
 10
1722.0961205484
 20
1.5
 30
0.0
 40
17.63888931274414
 41
29.73463566487999
 71
     1
 72
     1
  1
Ａ
  7
Style1
 73
     1
 44
1.0
1001
ACAD
1000
MTEXTBEGIN
1070
    73
1070
     1
1070
    44
1040
1.0
1070
    74
1070
     0
1000
MTEXTEND
  0
CIRCLE
  5
322
330
A
100
AcDbEntity
  8
____1
  6
DASHED2
 62
     7
370
     5
100
AcDbCircle
 10
1683.729429244108
 20
24.27254387096443
 30
0.0
 40
40.0
  0
CIRCLE
  5
323
330
A
100
AcDbEntity
  8
____1
  6
Continuous
 62
     5
370
    18
100
AcDbCircle
 10
1227.667492685936
 20
24.27254387096434
 30
0.0
 40
3.0
  0
LINE
  5
324
330
A
100
AcDbEntity
  8
____1
  6
CENTER2
 62
     3
370
     5
100
AcDbLine
 10
1221.667492685936
 20
24.27254387096434
 30
0.0
 11
1233.667492685936
 21
24.27254387096434
 31
0.0
  0
LINE
  5
325
330
A
100
AcDbEntity
  8
____1
  6
CENTER2
 62
     3
370
     5
100
AcDbLine
 10
1227.667492685936
 20
30.27254387096434
 30
0.0
 11
1227.667492685936
 21
18.27254387096428
 31
0.0
  0
LINE
  5
326
330
A
100
AcDbEntity
  8
____1
  6
CENTER2
 62
     3
370
     5
100
AcDbLine
 10
1427.667492685936
 20
30.27254387096434
 30
0.0
 11
1427.667492685936
 21
18.27254387096428
 31
0.0
  0
LINE
  5
327
330
A
100
AcDbEntity
  8
____1
  6
CENTER2
 62
     3
370
     5
100
AcDbLine
 10
1421.667492685936
 20
24.27254387096434
 30
0.0
 11
1433.667492685936
 21
24.27254387096434
 31
0.0
  0
CIRCLE
  5
328
330
A
100
AcDbEntity
  8
____1
  6
Continuous
 62
     5
370
    18
100
AcDbCircle
 10
1427.667492685936
 20
24.27254387096434
 30
0.0
 40
3.0
  0
CIRCLE
  5
329
330
A
100
AcDbEntity
  8
____1
  6
Continuous
 62
     5
370
    18
100
AcDbCircle
 10
1427.667492685936
 20
24.27254387096434
 30
0.0
 40
1.900000000000545
  0
LINE
  5
32A
330
A
100
AcDbEntity
  8
____1
  6
Continuous
 62
     7
370
     5
100
AcDbLine
 10
687.6674926859354
 20
16.27254387096451
 30
0.0
 11
743.3759480120853
 21
-83.6339766000327
 31
0.0
  0
SOLID
  5
32B
330
A
100
AcDbEntity
  8
____1
 62
     7
100
AcDbTrace
 10
687.6674926859354
 20
16.27254387096451
 30
0.0
 11
693.3541647342755
 21
-4.791435959697455
 31
0.0
 12
687.6674926859354
 22
16.27254387096451
 32
0.0
 13
695.3987870431157
 23
2.407382587263118
 33
0.0
  0
SOLID
  5
32C
330
A
100
AcDbEntity
  8
____1
 62
     7
100
AcDbTrace
 10
695.3987870431157
 20
2.407382587263118
 30
0.0
 11
702.5976055900763
 21
0.362760278422765
 31
0.0
 12
687.6674926859354
 22
16.27254387096451
 32
0.0
 13
687.6674926859354
 23
16.27254387096451
 33
0.0
  0
LINE
  5
32D
330
A
100
AcDbEntity
  8
____1
  6
Continuous
 62
     7
370
     5
100
AcDbLine
 10
743.3759480120853
 20
-83.6339766000327
 30
0.0
 11
743.3759480120853
 21
-83.6339766000327
 31
0.0
  0
LINE
  5
330
330
A
100
AcDbEntity
  8
____1
  6
Continuous
 62
     7
370
     5
100
AcDbLine
 10
285.2107774035471
 20
-78.00745529263378
 30
0.0
 11
573.5268154032619
 21
-78.00745529263378
 31
0.0
  0
INSERT
  5
338
330
A
100
AcDbEntity
  8
____1
  6
Continuous
 62
     5
370
    18
100
AcDbBlockReference
  2
C35
 10
0.0
 20
0.0
 30
0.0
  0
INSERT
  5
340
330
A
100
AcDbEntity
  8
____1
  6
Continuous
 62
     5
370
    18
100
AcDbBlockReference
  2
C36
 10
0.0
 20
0.0
 30
0.0
  0
INSERT
  5
348
330
A
100
AcDbEntity
  8
____1
  6
Continuous
 62
     5
370
    18
100
AcDbBlockReference
  2
C37
 10
0.0
 20
0.0
 30
0.0
  0
INSERT
  5
350
330
A
100
AcDbEntity
  8
____1
  6
Continuous
 62
     5
370
    18
100
AcDbBlockReference
  2
C38
 10
0.0
 20
0.0
 30
0.0
  0
INSERT
  5
358
330
A
100
AcDbEntity
  8
____1
  6
Continuous
 62
     5
370
    18
100
AcDbBlockReference
  2
C39
 10
0.0
 20
0.0
 30
0.0
  0
INSERT
  5
360
330
A
100
AcDbEntity
  8
____1
  6
Continuous
 62
     5
370
    18
100
AcDbBlockReference
  2
C40
 10
0.0
 20
0.0
 30
0.0
  0
LINE
  5
362
330
A
100
AcDbEntity
  8
____1
  6
Continuous
 62
     5
370
    18
100
AcDbLine
 10
1145.188953798984
 20
-330.6973234198876
 30
0.0
 11
1149.224487704918
 21
-334.7328573258199
 31
0.0
  0
LINE
  5
363
330
A
100
AcDbEntity
  8
____1
  6
Continuous
 62
     5
370
    18
100
AcDbLine
 10
1149.224487704918
 20
-334.7328573258199
 30
0.0
 11
1149.224487704918
 21
-353.7328573258204
 31
0.0
  0
LINE
  5
364
330
A
100
AcDbEntity
  8
____1
  6
Continuous
 62
     5
370
    18
100
AcDbLine
 10
1156.295555516782
 20
-334.7328573258205
 30
0.0
 11
1156.295555516782
 21
-353.7328573258204
 31
0.0
  0
LINE
  5
365
330
A
100
AcDbEntity
  8
____1
  6
Continuous
 62
     5
370
    18
100
AcDbLine
 10
1148.724487704918
 20
-327.1617895139554
 30
0.0
 11
1156.295555516782
 21
-334.7328573258205
 31
0.0
  0
LINE
  5
366
330
A
100
AcDbEntity
  8
____1
  6
Continuous
 62
     5
370
    18
100
AcDbLine
 10
1148.724487704918
 20
-327.1617895139554
 30
0.0
 11
1148.724487704918
 21
-274.2328573258194
 31
0.0
  0
LINE
  5
367
330
A
100
AcDbEntity
  8
____1
  6
Continuous
 62
     5
370
    18
100
AcDbLine
 10
1143.724487704918
 20
-274.2328573258194
 30
0.0
 11
1143.724487704918
 21
-414.2328573258209
 31
0.0
  0
LINE
  5
368
330
A
100
AcDbEntity
  8
____1
  6
Continuous
 62
     5
370
    18
100
AcDbLine
 10
1183.724487704918
 20
-269.2328573258194
 30
0.0
 11
1183.724487704918
 21
-216.7328573258217
 31
0.0
  0
LINE
  5
369
330
A
100
AcDbEntity
  8
____1
  6
Continuous
 62
     5
370
    18
100
AcDbLine
 10
1148.724487704918
 20
-269.2328573258194
 30
0.0
 11
1183.724487704918
 21
-269.2328573258194
 31
0.0
  0
LINE
  5
36A
330
A
100
AcDbEntity
  8
____1
  6
Continuous
 62
     5
370
    18
100
AcDbLine
 10
1148.724487704918
 20
-361.3039251376854
 30
0.0
 11
1156.295555516782
 21
-353.7328573258204
 31
0.0
  0
ARC
  5
36B
330
A
100
AcDbEntity
  8
____1
  6
Continuous
 62
     5
370
    18
100
AcDbCircle
 10
1148.724487704918
 20
-274.2328573258194
 30
0.0
 40
5.0
100
AcDbArc
 50
90.0
 51
180.0
  0
ARC
  5
36C
330
A
100
AcDbEntity
  8
____1
  6
Continuous
 62
     5
370
    18
100
AcDbCircle
 10
1183.724487704918
 20
-269.2328573258194
 30
0.0
 40
5.0
100
AcDbArc
 50
-90.0
 51
0.0
  0
LINE
  5
36D
330
A
100
AcDbEntity
  8
____1
  6
Continuous
 62
     5
370
    18
100
AcDbLine
 10
1148.724487704918
 20
-274.2328573258194
 30
0.0
 11
1183.724487704918
 21
-274.2328573258194
 31
0.0
  0
LINE
  5
36E
330
A
100
AcDbEntity
  8
____1
  6
Continuous
 62
     5
370
    18
100
AcDbLine
 10
1183.724487704918
 20
-419.2328573258209
 30
0.0
 11
1183.724487704918
 21
-471.7328573258207
 31
0.0
  0
ARC
  5
36F
330
A
100
AcDbEntity
  8
____1
  6
Continuous
 62
     5
370
    18
100
AcDbCircle
 10
1183.724487704918
 20
-419.2328573258209
 30
0.0
 40
5.0
100
AcDbArc
 50
0.0
 51
90.0
  0
LINE
  5
370
330
A
100
AcDbEntity
  8
____1
  6
Continuous
 62
     5
370
    18
100
AcDbLine
 10
1148.724487704918
 20
-414.2328573258209
 30
0.0
 11
1183.724487704918
 21
-414.2328573258209
 31
0.0
  0
LINE
  5
371
330
A
100
AcDbEntity
  8
____1
  6
Continuous
 62
     5
370
    18
100
AcDbLine
 10
1188.724487704918
 20
-419.2328573258209
 30
0.0
 11
1188.724487704918
 21
-471.7328573258207
 31
0.0
  0
LINE
  5
372
330
A
100
AcDbEntity
  8
____1
  6
Continuous
 62
     5
370
    18
100
AcDbLine
 10
1148.724487704918
 20
-361.3039251376854
 30
0.0
 11
1148.724487704918
 21
-414.2328573258209
 31
0.0
  0
LINE
  5
373
330
A
100
AcDbEntity
  8
____1
  6
Continuous
 62
     5
370
    18
100
AcDbLine
 10
1149.224487704918
 20
-334.7328573258199
 30
0.0
 11
1156.295555516782
 21
-334.7328573258205
 31
0.0
  0
LINE
  5
374
330
A
100
AcDbEntity
  8
____1
  6
Continuous
 62
     5
370
    18
100
AcDbLine
 10
1149.224487704918
 20
-353.7328573258204
 30
0.0
 11
1156.295555516782
 21
-353.7328573258204
 31
0.0
  0
LINE
  5
375
330
A
100
AcDbEntity
  8
____1
  6
Continuous
 62
     5
370
    18
100
AcDbLine
 10
1148.724487704918
 20
-419.2328573258209
 30
0.0
 11
1183.724487704918
 21
-419.2328573258209
 31
0.0
  0
LINE
  5
376
330
A
100
AcDbEntity
  8
____1
  6
CENTER2
 62
     3
370
     5
100
AcDbLine
 10
1118.724487704918
 20
-344.2328573258198
 30
0.0
 11
1213.724487704918
 21
-344.2328573258198
 31
0.0
  0
LINE
  5
377
330
A
100
AcDbEntity
  8
____1
  6
Continuous
 62
     5
370
    18
100
AcDbLine
 10
1183.724487704918
 20
-471.7328573258207
 30
0.0
 11
1188.724487704918
 21
-471.7328573258207
 31
0.0
  0
LINE
  5
378
330
A
100
AcDbEntity
  8
____1
  6
Continuous
 62
     5
370
    18
100
AcDbLine
 10
1183.724487704918
 20
-216.7328573258217
 30
0.0
 11
1188.724487704918
 21
-216.7328573258217
 31
0.0
  0
LINE
  5
379
330
A
100
AcDbEntity
  8
____1
  6
Continuous
 62
     5
370
    18
100
AcDbLine
 10
1188.724487704918
 20
-269.2328573258194
 30
0.0
 11
1188.724487704918
 21
-216.7328573258217
 31
0.0
  0
LINE
  5
380
330
A
100
AcDbEntity
  8
___G
  6
Continuous
 62
     7
370
    18
100
AcDbLine
 10
1320.516435566433
 20
-893.0608278738953
 30
0.0
 11
1330.516435566433
 21
-893.0608278738953
 31
0.0
  0
LINE
  5
381
330
A
100
AcDbEntity
  8
___G
  6
Continuous
 62
     7
370
     5
100
AcDbLine
 10
1112.213203125
 20
-755.9441927083346
 30
0.0
 11
1112.213203125
 21
-920.9441927083341
 31
0.0
  0
LINE
  5
382
330
A
100
AcDbEntity
  8
___G
  6
Continuous
 62
     7
370
     5
100
AcDbLine
 10
1112.213203125
 20
-865.9441927083342
 30
0.0
 11
1837.213203124999
 21
-865.9441927083342
 31
0.0
  0
LINE
  5
383
330
A
100
AcDbEntity
  8
___G
  6
Continuous
 62
     7
370
     5
100
AcDbLine
 10
1124.713203125
 20
-838.4441927083342
 30
0.0
 11
1287.213203125
 21
-838.4441927083342
 31
0.0
  0
LINE
  5
384
330
A
100
AcDbEntity
  8
___G
  6
Continuous
 62
     7
370
     5
100
AcDbLine
 10
1312.213203125
 20
-838.4441927083342
 30
0.0
 11
1474.713203125
 21
-838.4441927083342
 31
0.0
  0
LINE
  5
386
330
A
100
AcDbEntity
  8
___G
  6
Continuous
 62
     7
370
     5
100
AcDbLine
 10
1124.713203125
 20
-783.4441927083351
 30
0.0
 11
1224.713203125
 21
-783.4441927083351
 31
0.0
  0
LINE
  5
387
330
A
100
AcDbEntity
  8
___G
  6
Continuous
 62
     7
370
     5
100
AcDbLine
 10
1237.213203125
 20
-755.9441927083346
 30
0.0
 11
1237.213203125
 21
-810.944192708335
 31
0.0
  0
LINE
  5
388
330
A
100
AcDbEntity
  8
___G
  6
DOT
 62
     7
370
     5
100
AcDbLine
 10
-187.6867968749995
 20
-942.0941927083347
 30
0.0
 11
-187.6867968749995
 21
500.2058072916666
 31
0.0
  0
LINE
  5
389
330
A
100
AcDbEntity
  8
___G
  6
Continuous
 62
     5
370
    18
100
AcDbLine
 10
-162.7867968749995
 20
-920.9441927083341
 30
0.0
 11
-162.7867968749995
 21
479.0558072916665
 31
0.0
  0
LINE
  5
38B
330
A
100
AcDbEntity
  8
___G
  6
Continuous
 62
     7
370
     5
100
AcDbLine
 10
1362.213203125
 20
-755.9441927083346
 30
0.0
 11
1362.213203125
 21
-810.944192708335
 31
0.0
  0
LINE
  5
38C
330
A
100
AcDbEntity
  8
___G
  6
Continuous
 62
     7
370
     5
100
AcDbLine
 10
1249.713203125
 20
-783.4441927083351
 30
0.0
 11
1349.713203125
 21
-783.4441927083351
 31
0.0
  0
LINE
  5
38E
330
A
100
AcDbEntity
  8
___G
  6
Continuous
 62
     7
370
     5
100
AcDbLine
 10
1299.713203125
 20
-810.9441927083341
 30
0.0
 11
1299.713203125
 21
-865.9441927083342
 31
0.0
  0
LINE
  5
38F
330
A
100
AcDbEntity
  8
___G
  6
Continuous
 62
     5
370
    18
100
AcDbLine
 10
1837.213203124999
 20
-920.9441927083341
 30
0.0
 11
1837.213203124999
 21
479.0558072916665
 31
0.0
  0
ARC
  5
390
330
A
100
AcDbEntity
  8
___G
  6
Continuous
 62
     7
370
    18
100
AcDbCircle
 10
1376.319465869462
 20
-883.0608278738953
 30
0.0
 40
27.5
100
AcDbArc
 50
322.4876119797
 51
0.0
  0
LINE
  5
391
330
A
100
AcDbEntity
  8
___G
  6
Continuous
 62
     7
370
    18
100
AcDbLine
 10
1302.260916508667
 20
-893.0608278738953
 30
0.0
 11
1307.260916508667
 21
-893.0608278738953
 31
0.0
  0
LINE
  5
393
330
A
100
AcDbEntity
  8
___G
  6
Continuous
 62
     5
370
    18
100
AcDbLine
 10
1367.213203125
 20
404.0558072916665
 30
0.0
 11
1837.213203124999
 21
404.0558072916665
 31
0.0
  0
LINE
  5
394
330
A
100
AcDbEntity
  8
___G
  6
Continuous
 62
     5
370
    18
100
AcDbLine
 10
1367.213203125
 20
429.0558072916665
 30
0.0
 11
1837.213203124999
 21
429.0558072916665
 31
0.0
  0
LINE
  5
395
330
A
100
AcDbEntity
  8
___G
  6
Continuous
 62
     5
370
    18
100
AcDbLine
 10
1367.213203125
 20
454.0558072916665
 30
0.0
 11
1837.213203124999
 21
454.0558072916665
 31
0.0
  0
LINE
  5
396
330
A
100
AcDbEntity
  8
___G
  6
Continuous
 62
     5
370
    18
100
AcDbLine
 10
1787.213203124999
 20
404.0558072916665
 30
0.0
 11
1787.213203124999
 21
479.0558072916665
 31
0.0
  0
LINE
  5
397
330
A
100
AcDbEntity
  8
___G
  6
Continuous
 62
     5
370
    18
100
AcDbLine
 10
1367.213203125
 20
404.0558072916665
 30
0.0
 11
1367.213203125
 21
479.0558072916665
 31
0.0
  0
LINE
  5
398
330
A
100
AcDbEntity
  8
___G
  6
Continuous
 62
     5
370
    18
100
AcDbLine
 10
1373.416776194786
 20
406.4597660466834
 30
0.0
 11
1398.166776194787
 21
406.4597660466834
 31
0.0
  0
LINE
  5
399
330
A
100
AcDbEntity
  8
___G
  6
Continuous
 62
     5
370
    18
100
AcDbLine
 10
1385.791776194786
 20
427.893894790348
 30
0.0
 11
1398.166776194787
 21
406.4597660466834
 31
0.0
  0
LINE
  5
39A
330
A
100
AcDbEntity
  8
___G
  6
Continuous
 62
     5
370
    18
100
AcDbLine
 10
1385.791776194786
 20
427.893894790348
 30
0.0
 11
1373.416776194786
 21
406.4597660466834
 31
0.0
  0
LINE
  5
39B
330
A
100
AcDbEntity
  8
___G
  6
Continuous
 62
     5
370
    18
100
AcDbLine
 10
1385.791776194786
 20
452.6438947903475
 30
0.0
 11
1373.416776194786
 21
431.2097660466824
 31
0.0
  0
LINE
  5
39C
330
A
100
AcDbEntity
  8
___G
  6
Continuous
 62
     5
370
    18
100
AcDbLine
 10
1385.791776194786
 20
452.6438947903475
 30
0.0
 11
1398.166776194787
 21
431.2097660466824
 31
0.0
  0
LINE
  5
39D
330
A
100
AcDbEntity
  8
___G
  6
Continuous
 62
     5
370
    18
100
AcDbLine
 10
1373.416776194786
 20
431.2097660466824
 30
0.0
 11
1398.166776194787
 21
431.2097660466824
 31
0.0
  0
LINE
  5
39E
330
A
100
AcDbEntity
  8
___G
  6
Continuous
 62
     5
370
    18
100
AcDbLine
 10
1407.213203125
 20
404.0558072916665
 30
0.0
 11
1407.213203125
 21
479.0558072916665
 31
0.0
  0
LINE
  5
39F
330
A
100
AcDbEntity
  8
___G
  6
Continuous
 62
     5
370
    18
100
AcDbLine
 10
1737.213203124999
 20
404.0558072916665
 30
0.0
 11
1737.213203124999
 21
479.0558072916665
 31
0.0
  0
LINE
  5
3A0
330
A
100
AcDbEntity
  8
___G
  6
Continuous
 62
     5
370
    18
100
AcDbLine
 10
1487.213203125
 20
404.0558072916665
 30
0.0
 11
1487.213203125
 21
479.0558072916665
 31
0.0
  0
LINE
  5
3A3
330
A
100
AcDbEntity
  8
___G
  6
Continuous
 62
     7
370
    18
100
AcDbLine
 10
1383.819465869462
 20
-887.1713792113022
 30
0.0
 11
1380.991038744716
 21
-889.9998063360479
 31
0.0
  0
LINE
  5
3A6
330
A
100
AcDbEntity
  8
___G
  6
Continuous
 62
     5
370
    18
100
AcDbLine
 10
1837.213203124999
 20
479.0558072916665
 30
0.0
 11
-162.7867968749997
 21
479.0558072916665
 31
0.0
  0
LINE
  5
3A7
330
A
100
AcDbEntity
  8
___G
  6
DOT
 62
     7
370
     5
100
AcDbLine
 10
1862.113203124998
 20
-942.0941927083347
 30
0.0
 11
1862.113203124998
 21
500.2058072916666
 31
0.0
  0
LINE
  5
3A8
330
A
100
AcDbEntity
  8
___G
  6
Continuous
 62
     7
370
    18
100
AcDbLine
 10
1386.501028327895
 20
-893.1561823994449
 30
0.0
 11
1385.298049296311
 21
-894.4848742022147
 31
0.0
  0
LINE
  5
3A9
330
A
100
AcDbEntity
  8
___G
  6
Continuous
 62
     7
370
    18
100
AcDbLine
 10
1308.016435566433
 20
-900.5608278738952
 30
0.0
 11
1320.516435566433
 21
-900.5608278738952
 31
0.0
  0
LINE
  5
3AE
330
A
100
AcDbEntity
  8
___G
  6
Continuous
 62
     7
370
     5
100
AcDbLine
 10
1599.713203125
 20
-650.9441927083342
 30
0.0
 11
1599.713203125
 21
-685.9441927083346
 31
0.0
  0
LINE
  5
3AF
330
A
100
AcDbEntity
  8
___G
  6
Continuous
 62
     7
370
     5
100
AcDbLine
 10
1474.713203125
 20
-650.9441927083342
 30
0.0
 11
1474.713203125
 21
-685.9441927083346
 31
0.0
  0
LINE
  5
3B0
330
A
100
AcDbEntity
  8
___G
  6
Continuous
 62
     7
370
     5
100
AcDbLine
 10
1237.213203125
 20
-755.9441927083346
 30
0.0
 11
1237.213203125
 21
-650.9441927083342
 31
0.0
  0
LINE
  5
3B1
330
A
100
AcDbEntity
  8
___G
  6
Continuous
 62
     7
370
     5
100
AcDbLine
 10
1112.213203125
 20
-650.9441927083342
 30
0.0
 11
1112.213203125
 21
-755.9441927083346
 31
0.0
  0
LINE
  5
3B2
330
A
100
AcDbEntity
  8
___G
  6
Continuous
 62
     7
370
     5
100
AcDbLine
 10
1837.213203124999
 20
-650.9441927083342
 30
0.0
 11
1112.213203125
 21
-650.9441927083342
 31
0.0
  0
LINE
  5
3B3
330
A
100
AcDbEntity
  8
___G
  6
Continuous
 62
     7
370
     5
100
AcDbLine
 10
1837.213203124999
 20
-685.9441927083341
 30
0.0
 11
1112.213203125
 21
-685.9441927083341
 31
0.0
  0
LINE
  5
3B4
330
A
100
AcDbEntity
  8
___G
  6
Continuous
 62
     7
370
     5
100
AcDbLine
 10
1837.213203124999
 20
-720.9441927083341
 30
0.0
 11
1112.213203125
 21
-720.9441927083341
 31
0.0
  0
LINE
  5
3B5
330
A
100
AcDbEntity
  8
___G
  6
Continuous
 62
     7
370
     5
100
AcDbLine
 10
1837.213203124999
 20
-755.9441927083346
 30
0.0
 11
1112.213203125
 21
-755.9441927083346
 31
0.0
  0
LINE
  5
3B6
330
A
100
AcDbEntity
  8
___G
  6
Continuous
 62
     7
370
    18
100
AcDbLine
 10
1350.516435566433
 20
-875.5608278738952
 30
0.0
 11
1330.516435566433
 21
-875.5608278738952
 31
0.0
  0
LINE
  5
3B7
330
A
100
AcDbEntity
  8
___G
  6
Continuous
 62
     7
370
    18
100
AcDbLine
 10
1350.516435566433
 20
-885.5608278738953
 30
0.0
 11
1350.516435566433
 21
-893.0608278738953
 31
0.0
  0
LINE
  5
3B8
330
A
100
AcDbEntity
  8
___G
  6
Continuous
 62
     7
370
    18
100
AcDbLine
 10
1302.260916508667
 20
-885.5608278738953
 30
0.0
 11
1302.260916508667
 21
-893.0608278738953
 31
0.0
  0
LINE
  5
3B9
330
A
100
AcDbEntity
  8
___G
  6
Continuous
 62
     7
370
    18
100
AcDbLine
 10
1419.90687911088
 20
-884.0608278738953
 30
0.0
 11
1432.400212444213
 21
-884.0608278738953
 31
0.0
  0
LINE
  5
3BA
330
A
100
AcDbEntity
  8
___G
  6
Continuous
 62
     5
370
    18
100
AcDbLine
 10
1837.213203124999
 20
-920.9441927083341
 30
0.0
 11
-162.7867968749995
 21
-920.9441927083341
 31
0.0
  0
LINE
  5
3BC
330
A
100
AcDbEntity
  8
___G
  6
Continuous
 62
     7
370
    18
100
AcDbLine
 10
1464.90687911088
 20
-884.0608278738953
 30
0.0
 11
1464.90687911088
 21
-893.0608278738953
 31
0.0
  0
LINE
  5
3BF
330
A
100
AcDbEntity
  8
___G
  6
Continuous
 62
     7
370
    18
100
AcDbLine
 10
1440.90687911088
 20
-913.0608278738952
 30
0.0
 11
1438.853545777547
 21
-906.0608278738952
 31
0.0
  0
ARC
  5
3C1
330
A
100
AcDbEntity
  8
___G
  6
Continuous
 62
     7
370
    18
100
AcDbCircle
 10
1376.319465869462
 20
-883.0608278738953
 30
0.0
 40
27.50000000000043
100
AcDbArc
 50
270.0
 51
302.5449588540453
  0
LINE
  5
3C2
330
A
100
AcDbEntity
  8
___G
  6
Continuous
 62
     7
370
    18
100
AcDbLine
 10
1343.016435566433
 20
-893.0608278738953
 30
0.0
 11
1350.516435566433
 21
-893.0608278738953
 31
0.0
  0
ARC
  5
3C3
330
A
100
AcDbEntity
  8
___G
  6
Continuous
 62
     7
370
    18
100
AcDbCircle
 10
1369.819465869462
 20
-884.0608278738953
 30
0.0
 40
18.99999999999959
100
AcDbArc
 50
331.3992813832602
 51
358.4920422457611
  0
LINE
  5
3C4
330
A
100
AcDbEntity
  8
___G
  6
Continuous
 62
     7
370
    18
100
AcDbLine
 10
1308.016435566433
 20
-903.0608278738952
 30
0.0
 11
1308.016435566433
 21
-910.5608278738953
 31
0.0
  0
LINE
  5
3C5
330
A
100
AcDbEntity
  8
___G
  6
Continuous
 62
     7
370
    18
100
AcDbLine
 10
1308.016435566433
 20
-893.0608278738953
 30
0.0
 11
1307.260916508667
 21
-893.0608278738953
 31
0.0
  0
LINE
  5
3C6
330
A
100
AcDbEntity
  8
___G
  6
Continuous
 62
     7
370
    18
100
AcDbLine
 10
1363.819465869462
 20
-903.0608278738952
 30
0.0
 11
1363.819465869462
 21
-910.5608278738953
 31
0.0
  0
LINE
  5
3C7
330
A
100
AcDbEntity
  8
___G
  6
Continuous
 62
     7
370
    18
100
AcDbLine
 10
1408.819465869462
 20
-875.5608278738952
 30
0.0
 11
1363.819465869462
 21
-875.5608278738952
 31
0.0
  0
LINE
  5
3C8
330
A
100
AcDbEntity
  8
___G
  6
Continuous
 62
     7
370
    18
100
AcDbLine
 10
1446.561700891101
 20
-884.0608278738953
 30
0.0
 11
1445.82972963998
 21
-881.5171834215595
 31
0.0
  0
LINE
  5
3C9
330
A
100
AcDbEntity
  8
___G
  6
Continuous
 62
     7
370
    18
100
AcDbLine
 10
1446.561700891101
 20
-884.0608278738953
 30
0.0
 11
1464.90687911088
 21
-884.0608278738953
 31
0.0
  0
LINE
  5
3CA
330
A
100
AcDbEntity
  8
___G
  6
Continuous
 62
     7
370
    18
100
AcDbLine
 10
1450.302642851692
 20
-897.0608278738952
 30
0.0
 11
1449.151583786894
 21
-893.0608278738953
 31
0.0
  0
LINE
  5
3CB
330
A
100
AcDbEntity
  8
___G
  6
Continuous
 62
     7
370
    18
100
AcDbLine
 10
1419.90687911088
 20
-897.0608278738952
 30
0.0
 11
1436.213545777547
 21
-897.0608278738952
 31
0.0
  0
LINE
  5
3CC
330
A
100
AcDbEntity
  8
___G
  6
Continuous
 62
     7
370
    18
100
AcDbLine
 10
1432.400212444213
 20
-884.0608278738953
 30
0.0
 11
1429.90687911088
 21
-875.5608278738952
 31
0.0
  0
LINE
  5
3CD
330
A
100
AcDbEntity
  8
___G
  6
Continuous
 62
     7
370
    18
100
AcDbLine
 10
1452.892525747485
 20
-906.0608278738952
 30
0.0
 11
1464.90687911088
 21
-906.0608278738952
 31
0.0
  0
LINE
  5
3CE
330
A
100
AcDbEntity
  8
___G
  6
Continuous
 62
     7
370
    18
100
AcDbLine
 10
1308.016435566433
 20
-875.5608278738952
 30
0.0
 11
1308.016435566433
 21
-885.5608278738953
 31
0.0
  0
ARC
  5
3CF
330
A
100
AcDbEntity
  8
___G
  6
Continuous
 62
     7
370
    18
100
AcDbCircle
 10
1328.016435566433
 20
-895.5608278738953
 30
0.0
 40
15.0
100
AcDbArc
 50
270.0
 51
0.0
  0
LINE
  5
3D0
330
A
100
AcDbEntity
  8
___G
  6
Continuous
 62
     7
370
    18
100
AcDbLine
 10
1363.819465869462
 20
-875.5608278738952
 30
0.0
 11
1363.819465869462
 21
-884.5608278738952
 31
0.0
  0
LINE
  5
3D1
330
A
100
AcDbEntity
  8
___G
  6
Continuous
 62
     7
370
    18
100
AcDbLine
 10
1363.819465869462
 20
-910.5608278738953
 30
0.0
 11
1376.319465869462
 21
-910.5608278738953
 31
0.0
  0
LINE
  5
3D2
330
A
100
AcDbEntity
  8
___G
  6
DOT
 62
     7
370
     5
100
AcDbLine
 10
1862.113203124998
 20
500.2058072916666
 30
0.0
 11
-187.6867968749995
 21
500.2058072916666
 31
0.0
  0
LINE
  5
3D3
330
A
100
AcDbEntity
  8
___G
  6
DOT
 62
     7
370
     5
100
AcDbLine
 10
-187.6867968749995
 20
-942.0941927083347
 30
0.0
 11
1862.113203124998
 21
-942.0941927083347
 31
0.0
  0
LINE
  5
3D4
330
A
100
AcDbEntity
  8
___G
  6
Continuous
 62
     7
370
    18
100
AcDbLine
 10
1363.819465869462
 20
-888.781930548709
 30
0.0
 11
1363.819465869462
 21
-887.1713792113022
 31
0.0
  0
LINE
  5
3D5
330
A
100
AcDbEntity
  8
___G
  6
Continuous
 62
     7
370
    18
100
AcDbLine
 10
1431.642790683448
 20
-777.444192708335
 30
0.0
 11
1431.642790683448
 21
-789.4441927083351
 31
0.0
  0
LINE
  5
3D6
330
A
100
AcDbEntity
  8
___G
  6
Continuous
 62
     7
370
    18
100
AcDbLine
 10
1330.516435566433
 20
-893.0608278738953
 30
0.0
 11
1330.516435566433
 21
-895.5608278738953
 31
0.0
  0
LINE
  5
3D7
330
A
100
AcDbEntity
  8
___G
  6
Continuous
 62
     7
370
    18
100
AcDbLine
 10
1454.90687911088
 20
-913.0608278738952
 30
0.0
 11
1440.90687911088
 21
-913.0608278738952
 31
0.0
  0
CIRCLE
  5
3D8
330
A
100
AcDbEntity
  8
___G
  6
Continuous
 62
     7
370
    18
100
AcDbCircle
 10
1404.213203125
 20
-783.4441927083351
 30
0.0
 40
11.99999999999954
  0
CIRCLE
  5
3D9
330
A
100
AcDbEntity
  8
___G
  6
Continuous
 62
     7
370
    18
100
AcDbCircle
 10
1404.213203125
 20
-783.4441927083351
 30
0.0
 40
6.000000000000454
  0
LINE
  5
3DA
330
A
100
AcDbEntity
  8
___G
  6
Continuous
 62
     7
370
    18
100
AcDbLine
 10
1419.90687911088
 20
-897.0608278738952
 30
0.0
 11
1419.90687911088
 21
-906.0608278738952
 31
0.0
  0
ARC
  5
3DB
330
A
100
AcDbEntity
  8
___G
  6
Continuous
 62
     7
370
    18
100
AcDbCircle
 10
1323.016435566433
 20
-895.5608278738953
 30
0.0
 40
7.5
100
AcDbArc
 50
270.0
 51
0.0
  0
LINE
  5
3DC
330
A
100
AcDbEntity
  8
___G
  6
Continuous
 62
     7
370
    18
100
AcDbLine
 10
1419.90687911088
 20
-906.0608278738952
 30
0.0
 11
1438.853545777547
 21
-906.0608278738952
 31
0.0
  0
LINE
  5
3DD
330
A
100
AcDbEntity
  8
___G
  6
Continuous
 62
     7
370
    18
100
AcDbLine
 10
1308.016435566433
 20
-910.5608278738953
 30
0.0
 11
1328.016435566433
 21
-910.5608278738953
 31
0.0
  0
LINE
  5
3DE
330
A
100
AcDbEntity
  8
___G
  6
Continuous
 62
     7
370
    18
100
AcDbLine
 10
1436.213545777547
 20
-897.0608278738952
 30
0.0
 11
1435.040212444213
 21
-893.0608278738953
 31
0.0
  0
LINE
  5
3DF
330
A
100
AcDbEntity
  8
___G
  6
Continuous
 62
     7
370
    18
100
AcDbLine
 10
1343.016435566433
 20
-883.0608278738953
 30
0.0
 11
1350.516435566433
 21
-875.5608278738952
 31
0.0
  0
LINE
  5
3E0
330
A
100
AcDbEntity
  8
___G
  6
Continuous
 62
     7
370
    18
100
AcDbLine
 10
1308.016435566433
 20
-893.0608278738953
 30
0.0
 11
1308.016435566433
 21
-900.5608278738952
 31
0.0
  0
LINE
  5
3E3
330
A
100
AcDbEntity
  8
___G
  6
Continuous
 62
     7
370
    18
100
AcDbLine
 10
1308.016435566433
 20
-885.5608278738953
 30
0.0
 11
1302.260916508667
 21
-885.5608278738953
 31
0.0
  0
LINE
  5
3E4
330
A
100
AcDbEntity
  8
___G
  6
Continuous
 62
     7
370
    18
100
AcDbLine
 10
1429.90687911088
 20
-875.5608278738952
 30
0.0
 11
1449.90687911088
 21
-875.5608278738952
 31
0.0
  0
LINE
  5
3E5
330
A
100
AcDbEntity
  8
___G
  6
Continuous
 62
     7
370
    18
100
AcDbLine
 10
1363.819465869462
 20
-903.0608278738952
 30
0.0
 11
1369.819465869462
 21
-903.0608278738952
 31
0.0
  0
LINE
  5
3E6
330
A
100
AcDbEntity
  8
___G
  6
Continuous
 62
     7
370
    18
100
AcDbLine
 10
1450.302642851692
 20
-897.0608278738952
 30
0.0
 11
1464.90687911088
 21
-897.0608278738952
 31
0.0
  0
LINE
  5
3E7
330
A
100
AcDbEntity
  8
___G
  6
Continuous
 62
     7
370
    18
100
AcDbLine
 10
1454.90687911088
 20
-913.0608278738952
 30
0.0
 11
1452.892525747485
 21
-906.0608278738952
 31
0.0
  0
LINE
  5
3E8
330
A
100
AcDbEntity
  8
___G
  6
Continuous
 62
     7
370
    18
100
AcDbLine
 10
1363.819465869462
 20
-910.5608278738953
 30
0.0
 11
1363.819465869462
 21
-903.0608278738952
 31
0.0
  0
LINE
  5
3E9
330
A
100
AcDbEntity
  8
___G
  6
Continuous
 62
     7
370
    18
100
AcDbLine
 10
1445.82972963998
 20
-881.5171834215595
 30
0.0
 11
1449.90687911088
 21
-875.5608278738952
 31
0.0
  0
LINE
  5
3EA
330
A
100
AcDbEntity
  8
___G
  6
Continuous
 62
     7
370
    18
100
AcDbLine
 10
1403.819465869462
 20
-883.0608278738953
 30
0.0
 11
1408.819465869462
 21
-875.5608278738952
 31
0.0
  0
LINE
  5
3EB
330
A
100
AcDbEntity
  8
___G
  6
Continuous
 62
     7
370
    18
100
AcDbLine
 10
1343.016435566433
 20
-885.5608278738953
 30
0.0
 11
1343.016435566433
 21
-883.0608278738953
 31
0.0
  0
LINE
  5
3EC
330
A
100
AcDbEntity
  8
___G
  6
Continuous
 62
     7
370
    18
100
AcDbLine
 10
1350.516435566433
 20
-885.5608278738953
 30
0.0
 11
1343.016435566433
 21
-885.5608278738953
 31
0.0
  0
LINE
  5
3ED
330
A
100
AcDbEntity
  8
___G
  6
Continuous
 62
     7
370
    18
100
AcDbLine
 10
1419.90687911088
 20
-893.0608278738953
 30
0.0
 11
1435.040212444213
 21
-893.0608278738953
 31
0.0
  0
SPLINE
  5
3EE
330
A
100
AcDbEntity
  8
___G
  6
Continuous
 62
     7
370
    18
100
AcDbSpline
210
0.0
220
0.0
230
1.0
 70
     8
 71
     3
 72
     8
 73
     4
 74
     0
 42
0.0000000001
 43
0.0000000001
 40
0.0
 40
0.0
 40
0.0
 40
0.0
 40
1.0
 40
1.0
 40
1.0
 40
1.0
 10
1391.113399839964
 20
-906.2424912671129
 30
0.0
 10
1396.808831270712
 20
-908.0639337207246
 30
0.0
 10
1402.814148570087
 20
-909.3123807973103
 30
0.0
 10
1408.819465869462
 20
-910.5608278738953
 30
0.0
  0
LINE
  5
3EF
330
A
100
AcDbEntity
  8
___G
  6
Continuous
 62
     7
370
    18
100
AcDbLine
 10
1363.819465869462
 20
-884.5608278738952
 30
0.0
 11
1388.819465869462
 21
-884.5608278738952
 31
0.0
  0
LINE
  5
3F0
330
A
100
AcDbEntity
  8
___G
  6
Continuous
 62
     7
370
    18
100
AcDbLine
 10
1323.016435566433
 20
-903.0608278738952
 30
0.0
 11
1308.016435566433
 21
-903.0608278738952
 31
0.0
  0
SPLINE
  5
3F1
330
A
100
AcDbEntity
  8
___G
  6
Continuous
 62
     7
370
    18
100
AcDbSpline
210
0.0
220
0.0
230
1.0
 70
     8
 71
     3
 72
     8
 73
     4
 74
     0
 42
0.0000000001
 43
0.0000000001
 40
0.0
 40
0.0
 40
0.0
 40
0.0
 40
1.0
 40
1.0
 40
1.0
 40
1.0
 10
1380.991038744716
 20
-889.9998063360479
 30
0.0
 10
1382.387900881287
 20
-891.5573075055133
 30
0.0
 10
1383.784763017855
 20
-893.1148086749788
 30
0.0
 10
1385.298049296311
 20
-894.4848742022147
 30
0.0
  0
SPLINE
  5
3F2
330
A
100
AcDbEntity
  8
___G
  6
Continuous
 62
     7
370
    18
100
AcDbSpline
210
0.0
220
0.0
230
1.0
 70
     8
 71
     3
 72
     8
 73
     4
 74
     0
 42
0.0000000001
 43
0.0000000001
 40
0.0
 40
0.0
 40
0.0
 40
0.0
 40
1.0
 40
1.0
 40
1.0
 40
1.0
 10
1397.242552330939
 20
-900.6783746397102
 30
0.0
 10
1400.941398598587
 20
-901.7303168872437
 30
0.0
 10
1404.880432234025
 20
-902.3955723805691
 30
0.0
 10
1408.819465869462
 20
-903.0608278738952
 30
0.0
  0
LINE
  5
3F4
330
A
100
AcDbEntity
  8
___G
  6
Continuous
 62
     7
370
    18
100
AcDbLine
 10
1320.516435566433
 20
-883.0608278738953
 30
0.0
 11
1328.016435566433
 21
-875.5608278738952
 31
0.0
  0
LINE
  5
3F5
330
A
100
AcDbEntity
  8
___G
  6
Continuous
 62
     7
370
    18
100
AcDbLine
 10
1328.016435566433
 20
-875.5608278738952
 30
0.0
 11
1308.016435566433
 21
-875.5608278738952
 31
0.0
  0
LINE
  5
3F6
330
A
100
AcDbEntity
  8
___G
  6
Continuous
 62
     7
370
    18
100
AcDbLine
 10
1330.516435566433
 20
-885.5608278738953
 30
0.0
 11
1320.516435566433
 21
-885.5608278738953
 31
0.0
  0
LINE
  5
3F7
330
A
100
AcDbEntity
  8
___G
  6
Continuous
 62
     7
370
    18
100
AcDbLine
 10
1419.90687911088
 20
-884.0608278738953
 30
0.0
 11
1419.90687911088
 21
-893.0608278738953
 31
0.0
  0
LINE
  5
3F8
330
A
100
AcDbEntity
  8
___G
  6
Continuous
 62
     7
370
    18
100
AcDbLine
 10
1343.016435566433
 20
-895.5608278738953
 30
0.0
 11
1343.016435566433
 21
-893.0608278738953
 31
0.0
  0
LINE
  5
3F9
330
A
100
AcDbEntity
  8
___G
  6
Continuous
 62
     7
370
    18
100
AcDbLine
 10
1320.516435566433
 20
-900.5608278738952
 30
0.0
 11
1320.516435566433
 21
-893.0608278738953
 31
0.0
  0
LINE
  5
3FA
330
A
100
AcDbEntity
  8
___G
  6
Continuous
 62
     7
370
    18
100
AcDbLine
 10
1408.819465869462
 20
-903.0608278738952
 30
0.0
 11
1408.819465869462
 21
-910.5608278738953
 31
0.0
  0
LINE
  5
3FB
330
A
100
AcDbEntity
  8
___G
  6
Continuous
 62
     7
370
    18
100
AcDbLine
 10
1464.90687911088
 20
-897.0608278738952
 30
0.0
 11
1464.90687911088
 21
-906.0608278738952
 31
0.0
  0
LINE
  5
3FC
330
A
100
AcDbEntity
  8
___G
  6
Continuous
 62
     7
370
    18
100
AcDbLine
 10
1403.819465869462
 20
-883.0608278738953
 30
0.0
 11
1408.819465869462
 21
-875.5608278738952
 31
0.0
  0
ARC
  5
3FD
330
A
100
AcDbEntity
  8
___G
  6
Continuous
 62
     7
370
    18
100
AcDbCircle
 10
1369.819465869462
 20
-884.0608278738953
 30
0.0
 40
18.9999999999997
100
AcDbArc
 50
270.0
 51
298.0859048152073
  0
LINE
  5
3FE
330
A
100
AcDbEntity
  8
___G
  6
Continuous
 62
     7
370
    18
100
AcDbLine
 10
1363.819465869462
 20
-887.1713792113022
 30
0.0
 11
1383.819465869462
 21
-887.1713792113022
 31
0.0
  0
LINE
  5
3FF
330
A
100
AcDbEntity
  8
___G
  6
CENTER2
 62
     7
370
    18
100
AcDbLine
 10
1404.213203125
 20
-765.4441927083346
 30
0.0
 11
1404.213203125
 21
-801.444192708335
 31
0.0
  0
LINE
  5
400
330
A
100
AcDbEntity
  8
___G
  6
CENTER2
 62
     7
370
    18
100
AcDbLine
 10
1404.213203125
 20
-765.4441927083346
 30
0.0
 11
1404.213203125
 21
-801.444192708335
 31
0.0
  0
LINE
  5
401
330
A
100
AcDbEntity
  8
___G
  6
Continuous
 62
     7
370
    18
100
AcDbLine
 10
1455.642790683448
 20
-771.4441927083346
 30
0.0
 11
1455.642790683448
 21
-795.4441927083351
 31
0.0
  0
LINE
  5
402
330
A
100
AcDbEntity
  8
___G
  6
Continuous
 62
     7
370
    18
100
AcDbLine
 10
1431.642790683448
 20
-789.4441927083351
 30
0.0
 11
1455.642790683448
 21
-795.4441927083351
 31
0.0
  0
LINE
  5
403
330
A
100
AcDbEntity
  8
___G
  6
Continuous
 62
     7
370
    18
100
AcDbLine
 10
1431.642790683448
 20
-777.444192708335
 30
0.0
 11
1431.642790683448
 21
-789.4441927083351
 31
0.0
  0
LINE
  5
404
330
A
100
AcDbEntity
  8
___G
  6
Continuous
 62
     7
370
    18
100
AcDbLine
 10
1449.151583786894
 20
-893.0608278738953
 30
0.0
 11
1464.90687911088
 21
-893.0608278738953
 31
0.0
  0
LINE
  5
405
330
A
100
AcDbEntity
  8
___G
  6
Continuous
 62
     7
370
    18
100
AcDbLine
 10
1330.516435566433
 20
-875.5608278738952
 30
0.0
 11
1330.516435566433
 21
-885.5608278738953
 31
0.0
  0
LINE
  5
406
330
A
100
AcDbEntity
  8
___G
  6
CENTER2
 62
     7
370
    18
100
AcDbLine
 10
1404.213203125
 20
-765.4441927083346
 30
0.0
 11
1404.213203125
 21
-801.444192708335
 31
0.0
  0
LINE
  5
407
330
A
100
AcDbEntity
  8
___G
  6
Continuous
 62
     7
370
     5
100
AcDbLine
 10
1112.213203125
 20
-810.9441927083341
 30
0.0
 11
1837.213203124999
 21
-810.9441927083341
 31
0.0
  0
LINE
  5
408
330
A
100
AcDbEntity
  8
___G
  6
Continuous
 62
     7
370
    18
100
AcDbLine
 10
1431.642790683448
 20
-789.4441927083351
 30
0.0
 11
1455.642790683448
 21
-795.4441927083351
 31
0.0
  0
LINE
  5
409
330
A
100
AcDbEntity
  8
___G
  6
Continuous
 62
     7
370
    18
100
AcDbLine
 10
1431.642790683448
 20
-777.444192708335
 30
0.0
 11
1455.642790683448
 21
-771.4441927083346
 31
0.0
  0
CIRCLE
  5
40A
330
A
100
AcDbEntity
  8
___G
  6
Continuous
 62
     7
370
    18
100
AcDbCircle
 10
1404.213203125
 20
-783.4441927083351
 30
0.0
 40
6.000000000000454
  0
CIRCLE
  5
40B
330
A
100
AcDbEntity
  8
___G
  6
Continuous
 62
     7
370
    18
100
AcDbCircle
 10
1404.213203125
 20
-783.4441927083351
 30
0.0
 40
11.99999999999954
  0
LINE
  5
40C
330
A
100
AcDbEntity
  8
___G
  6
Continuous
 62
     7
370
    18
100
AcDbLine
 10
1431.642790683448
 20
-777.444192708335
 30
0.0
 11
1455.642790683448
 21
-771.4441927083346
 31
0.0
  0
LINE
  5
40D
330
A
100
AcDbEntity
  8
___G
  6
Continuous
 62
     7
370
    18
100
AcDbLine
 10
1455.642790683448
 20
-771.4441927083346
 30
0.0
 11
1455.642790683448
 21
-795.4441927083351
 31
0.0
  0
LINE
  5
40E
330
A
100
AcDbEntity
  8
___G
  6
Continuous
 62
     7
370
    18
100
AcDbLine
 10
1431.642790683448
 20
-777.444192708335
 30
0.0
 11
1431.642790683448
 21
-789.4441927083351
 31
0.0
  0
LINE
  5
40F
330
A
100
AcDbEntity
  8
___G
  6
Continuous
 62
     7
370
    18
100
AcDbLine
 10
1431.642790683448
 20
-789.4441927083351
 30
0.0
 11
1455.642790683448
 21
-795.4441927083351
 31
0.0
  0
LINE
  5
410
330
A
100
AcDbEntity
  8
___G
  6
Continuous
 62
     7
370
    18
100
AcDbLine
 10
1431.642790683448
 20
-777.444192708335
 30
0.0
 11
1455.642790683448
 21
-771.4441927083346
 31
0.0
  0
CIRCLE
  5
411
330
A
100
AcDbEntity
  8
___G
  6
Continuous
 62
     7
370
    18
100
AcDbCircle
 10
1404.213203125
 20
-783.4441927083351
 30
0.0
 40
11.99999999999954
  0
CIRCLE
  5
412
330
A
100
AcDbEntity
  8
___G
  6
Continuous
 62
     7
370
    18
100
AcDbCircle
 10
1404.213203125
 20
-783.4441927083351
 30
0.0
 40
6.000000000000454
  0
LINE
  5
413
330
A
100
AcDbEntity
  8
___G
  6
CENTER2
 62
     7
370
    18
100
AcDbLine
 10
1386.213203125
 20
-783.4441927083351
 30
0.0
 11
1463.213203125
 21
-783.4441927083351
 31
0.0
  0
CIRCLE
  5
414
330
A
100
AcDbEntity
  8
___G
  6
Continuous
 62
     7
370
    18
100
AcDbCircle
 10
1404.213203125
 20
-783.4441927083351
 30
0.0
 40
6.000000000000454
  0
CIRCLE
  5
415
330
A
100
AcDbEntity
  8
___G
  6
Continuous
 62
     7
370
    18
100
AcDbCircle
 10
1404.213203125
 20
-783.4441927083351
 30
0.0
 40
11.99999999999954
  0
LINE
  5
416
330
A
100
AcDbEntity
  8
___G
  6
Continuous
 62
     7
370
    18
100
AcDbLine
 10
1431.642790683448
 20
-777.444192708335
 30
0.0
 11
1455.642790683448
 21
-771.4441927083346
 31
0.0
  0
LINE
  5
417
330
A
100
AcDbEntity
  8
___G
  6
Continuous
 62
     7
370
    18
100
AcDbLine
 10
1431.642790683448
 20
-789.4441927083351
 30
0.0
 11
1455.642790683448
 21
-795.4441927083351
 31
0.0
  0
LINE
  5
418
330
A
100
AcDbEntity
  8
___G
  6
Continuous
 62
     7
370
    18
100
AcDbLine
 10
1431.642790683448
 20
-777.444192708335
 30
0.0
 11
1431.642790683448
 21
-789.4441927083351
 31
0.0
  0
LINE
  5
419
330
A
100
AcDbEntity
  8
___G
  6
Continuous
 62
     7
370
    18
100
AcDbLine
 10
1455.642790683448
 20
-771.4441927083346
 30
0.0
 11
1455.642790683448
 21
-795.4441927083351
 31
0.0
  0
LINE
  5
41A
330
A
100
AcDbEntity
  8
___G
  6
Continuous
 62
     7
370
     5
100
AcDbLine
 10
1487.213203125
 20
-755.9441927083346
 30
0.0
 11
1487.213203125
 21
-920.9441927083341
 31
0.0
  0
LINE
  5
41B
330
A
100
AcDbEntity
  8
___G
  6
Continuous
 62
     7
370
    18
100
AcDbLine
 10
1398.133062629901
 20
-899.8064839187634
 30
0.0
 11
1397.242552330939
 21
-900.6783746397102
 31
0.0
  0
LINE
  5
41C
330
A
100
AcDbEntity
  8
___G
  6
Continuous
 62
     7
370
    18
100
AcDbLine
 10
1320.516435566433
 20
-885.5608278738953
 30
0.0
 11
1320.516435566433
 21
-883.0608278738953
 31
0.0
  0
LINE
  5
41D
330
A
100
AcDbEntity
  8
___G
  6
Continuous
 62
     7
370
    18
100
AcDbLine
 10
1455.642790683448
 20
-771.4441927083346
 30
0.0
 11
1455.642790683448
 21
-795.4441927083351
 31
0.0
  0
LINE
  5
41E
330
A
100
AcDbEntity
  8
___G
  6
CENTER2
 62
     7
370
    18
100
AcDbLine
 10
1404.213203125
 20
-765.4441927083346
 30
0.0
 11
1404.213203125
 21
-801.444192708335
 31
0.0
  0
SPLINE
  5
41F
330
A
100
AcDbEntity
  8
___G
  6
Continuous
 62
     7
370
    18
100
AcDbSpline
210
0.0
220
0.0
230
1.0
 70
     8
 71
     3
 72
     9
 73
     5
 74
     0
 42
0.0000000001
 43
0.0000000001
 40
0.0
 40
0.0
 40
0.0
 40
0.0
 40
0.9999999993702068
 40
1.0
 40
1.0
 40
1.0
 40
1.0
 10
1363.819465869462
 20
-888.781930548709
 30
0.0
 10
1368.592488886297
 20
-893.1816230309948
 30
0.0
 10
1373.365511906138
 20
-897.5813155160519
 30
0.0
 10
1378.764568163953
 20
-900.8234394007338
 30
0.0
 10
1378.764568167353
 20
-900.8234394027756
 30
0.0
  0
TEXT
  5
420
330
A
100
AcDbEntity
  8
0
  6
Continuous
 62
     7
370
     0
100
AcDbText
 10
318.0039563008037
 20
-68.86865563278127
 30
0.0
 40
17.63888931274414
  1
８-φ３.８穴　φ６皿
  7
Style1
100
AcDbText
  0
TEXT
  5
422
330
A
100
AcDbEntity
  8
0
  6
Continuous
 62
     7
370
     0
100
AcDbText
 10
776.1691269093419
 20
-74.85332697698715
 30
0.0
 40
17.63888931274414
  1
５ｘ１６角穴
  7
Style1
100
AcDbText
  0
TEXT
  5
424
330
A
100
AcDbEntity
  8
0
  6
Continuous
 62
     7
370
     0
100
AcDbText
 10
1140.933624911343
 20
-526.5690111474186
 30
0.0
 40
17.63888931274414
  1
Ａ部拡大図
  7
Style1
100
AcDbText
  0
TEXT
  5
426
330
A
100
AcDbEntity
  8
0
  6
Continuous
 62
     7
370
     0
100
AcDbText
 10
1490.213203125
 20
-887.1203060935686
 30
0.0
 40
16.9333324432373
  1
図 番
  7
Style1
100
AcDbText
  0
TEXT
  5
427
330
A
100
AcDbEntity
  8
0
  6
Continuous
 62
     7
370
     0
100
AcDbText
 10
1490.213203125
 20
-777.478456111012
 30
0.0
 40
16.9333324432373
  1
製品名
  7
Style1
100
AcDbText
  0
TEXT
  5
429
330
A
100
AcDbEntity
  8
0
  6
Continuous
 62
     7
370
     0
100
AcDbText
 10
1490.213203125
 20
-831.5830810674039
 30
0.0
 40
16.9333324432373
  1
図面名
  7
Style1
100
AcDbText
  0
TEXT
  5
42B
330
A
100
AcDbEntity
  8
0
  6
Continuous
 62
     7
370
     0
100
AcDbText
 10
1139.412387808866
 20
-911.0928681777993
 30
0.0
 40
25.39999961853027
  1
株式会社
  7
Style1
100
AcDbText
  0
TEXT
  5
42D
330
A
100
AcDbEntity
  8
0
  6
Continuous
 62
     7
370
     0
100
AcDbText
 10
1147.532164137082
 20
-862.0266400595008
 30
0.0
 40
12.34722185134887
  1
製図
  7
Style1
100
AcDbText
  0
TEXT
  5
42F
330
A
100
AcDbEntity
  8
0
  6
Continuous
 62
     7
370
     0
100
AcDbText
 10
1147.532164137082
 20
-833.9894150333361
 30
0.0
 40
12.34722185134887
  1
設計
  7
Style1
100
AcDbText
  0
TEXT
  5
431
330
A
100
AcDbEntity
  8
0
  6
Continuous
 62
     7
370
     0
100
AcDbText
 10
1335.032164137082
 20
-833.6312650158932
 30
0.0
 40
12.34722185134887
  1
照査
  7
Style1
100
AcDbText
  0
TEXT
  5
433
330
A
100
AcDbEntity
  8
0
  6
Continuous
 62
     7
370
     0
100
AcDbText
 10
1129.677934825662
 20
-679.7654732820679
 30
0.0
 40
16.9333324432373
  1
材　　質
  7
Style1
100
AcDbText
  0
TEXT
  5
434
330
A
100
AcDbEntity
  8
0
  6
Continuous
 62
     7
370
     0
100
AcDbText
 10
1492.177934825662
 20
-680.195253293318
 30
0.0
 40
16.9333324432373
  1
板　　厚
  7
Style1
100
AcDbText
  0
TEXT
  5
435
330
A
100
AcDbEntity
  8
0
  6
Continuous
 62
     7
370
     0
100
AcDbText
 10
1129.677934825662
 20
-714.9803632876927
 30
0.0
 40
16.9333324432373
  1
表面処理
  7
Style1
100
AcDbText
  0
TEXT
  5
436
330
A
100
AcDbEntity
  8
0
  6
Continuous
 62
     7
370
     0
100
AcDbText
 10
1129.677934825662
 20
-750.4101432989424
 30
0.0
 40
16.9333324432373
  1
一般公差
  7
Style1
100
AcDbText
  0
TEXT
  5
437
330
A
100
AcDbEntity
  8
0
  6
Continuous
 62
     7
370
     0
100
AcDbText
 10
1272.532164137082
 20
-779.5266400595003
 30
0.0
 40
12.34722185134887
  1
尺　　度
  7
Style1
100
AcDbText
  0
TEXT
  5
438
330
A
100
AcDbEntity
  8
0
  6
Continuous
 62
     7
370
     0
100
AcDbText
 10
1335.032164137082
 20
-862.1161775638615
 30
0.0
 40
12.34722185134887
  1
検図
  7
Style1
100
AcDbText
  0
TEXT
  5
43A
330
A
100
AcDbEntity
  8
0
  6
Continuous
 62
     7
370
     0
100
AcDbText
 10
1147.532164137082
 20
-778.9894150333357
 30
0.0
 40
12.34722185134887
  1
日　　付
  7
Style1
100
AcDbText
  0
TEXT
  5
43B
330
A
100
AcDbEntity
  8
0
  6
Continuous
 62
     7
370
     0
100
AcDbText
 10
1270.293726528063
 20
-806.1671017343822
 30
0.0
 40
12.34722185134887
  1
1：5
  7
Style1
100
AcDbText
  0
TEXT
  5
43C
330
A
100
AcDbEntity
  8
0
  6
Continuous
 62
     7
370
     0
100
AcDbText
 10
1614.044121991498
 20
-680.7911378415435
 30
0.0
 40
16.9333324432373
  1
1.0t
  7
Style1
100
AcDbText
  0
TEXT
  5
43D
330
A
100
AcDbEntity
  8
0
  6
Continuous
 62
     7
370
     0
100
AcDbText
 10
1253.424409691996
 20
-680.791137841544
 30
0.0
 40
16.9333324432373
  1
SUS304・430
  7
Style1
100
AcDbText
  0
TEXT
  5
43E
330
A
100
AcDbEntity
  8
0
  6
Continuous
 62
     7
370
     0
100
AcDbText
 10
1254.677934825662
 20
-714.013358262381
 30
0.0
 40
16.9333324432373
  1
ＢＡ
  7
Style1
100
AcDbText
  0
TEXT
  5
43F
330
A
100
AcDbEntity
  8
0
  6
Continuous
 62
     7
370
     0
100
AcDbText
 10
1254.677934825662
 20
-750.1952532933175
 30
0.0
 40
16.9333324432373
  1
指定無き公差はJIS B0408-Bによること
  7
Style1
100
AcDbText
  0
TEXT
  5
440
330
A
100
AcDbEntity
  8
0
  6
Continuous
 62
     7
370
     0
100
AcDbText
 10
1385.032164137082
 20
-834.5266400595008
 30
0.0
 40
12.34722185134887
  1
柳原
  7
Style1
100
AcDbText
  0
TEXT
  5
441
330
A
100
AcDbEntity
  8
0
  6
Continuous
 62
     7
370
     0
100
AcDbText
 10
1112.690014114711
 20
-638.0340750323386
 30
0.0
 40
21.16666603088379
  1
Ｌ＝1000,1200,2000は受注生産
  7
Style1
100
AcDbText
  0
TEXT
  5
443
330
A
100
AcDbEntity
  8
0
  6
Continuous
 62
     7
370
     0
100
AcDbText
 10
1197.532164137082
 20
-862.2057150682222
 30
0.0
 40
12.34722185134887
  1
岸本
  7
Style1
100
AcDbText
  0
TEXT
  5
444
330
A
100
AcDbEntity
  8
0
  6
Continuous
 62
     7
370
     0
100
AcDbText
 10
1197.532164137082
 20
-834.6161775638616
 30
0.0
 40
12.34722185134887
  1
白須賀
  7
Style1
100
AcDbText
  0
TEXT
  5
445
330
A
100
AcDbEntity
  8
0
  6
Continuous
 62
     7
370
     0
100
AcDbText
 10
1633.045996883344
 20
-917.1120784108
 30
0.0
 40
21.16666555404663
  1
SLW00007
  7
Style1
100
AcDbText
  0
TEXT
  5
446
330
A
100
AcDbEntity
  8
0
  6
Continuous
 62
     7
370
     0
100
AcDbText
 10
1585.540408913218
 20
-838.1498569516507
 30
0.0
 40
16.9333324432373
  1
ＷＴＭ-１６-３０４
  7
Style1
100
AcDbText
  0
TEXT
  5
448
330
A
100
AcDbEntity
  8
0
  6
Continuous
 62
     7
370
     0
100
AcDbText
 10
1585.540408913218
 20
-861.7229634350051
 30
0.0
 40
16.9333324432373
  1
ＷＴＭ-１６-４３０
  7
Style1
100
AcDbText
  0
TEXT
  5
44A
330
A
100
AcDbEntity
  8
0
  6
Continuous
 62
     7
370
     0
100
AcDbText
 10
1612.691263751734
 20
-795.3176982961298
 30
0.0
 40
21.16666555404663
  1
ワイド棚柱
  7
Style1
100
AcDbText
  0
TEXT
  5
44B
330
A
100
AcDbEntity
  8
0
  6
Continuous
 62
     7
370
     0
100
AcDbText
 10
1385.032164137082
 20
-862.0266400595008
 30
0.0
 40
12.34722185134887
  1
柳原
  7
Style1
100
AcDbText
  0
TEXT
  5
44C
330
A
100
AcDbEntity
  8
0
  6
Continuous
 62
     7
370
     0
100
AcDbText
 10
1146.457714084753
 20
-806.1671017343822
 30
0.0
 40
12.34722185134887
  1
H16.4
  7
Style1
100
AcDbText
  0
TEXT
  5
44D
330
A
100
AcDbEntity
  8
0
  6
Continuous
 62
     7
370
     0
100
AcDbText
 10
1487.213203125
 20
457.7999699787359
 30
0.0
 40
15.87499976158142
  1
改　訂　内　容
  7
Style1
100
AcDbText
  0
TEXT
  5
44E
330
A
100
AcDbEntity
  8
0
  6
Continuous
 62
     7
370
     0
100
AcDbText
 10
1787.213203124999
 20
457.7193862236009
 30
0.0
 40
15.87499976158142
  1
検認
  7
Style1
100
AcDbText
  0
TEXT
  5
44F
330
A
100
AcDbEntity
  8
0
  6
Continuous
 62
     7
370
     0
100
AcDbText
 10
1787.213203124999
 20
430.4552157362826
 30
0.0
 40
15.87499976158142
  1
者
  7
Style1
100
AcDbText
  0
TEXT
  5
450
330
A
100
AcDbEntity
  8
0
  6
Continuous
 62
     7
370
     0
100
AcDbText
 10
1737.213203124999
 20
457.9611374890058
 30
0.0
 40
15.87499976158142
  1
改訂
  7
Style1
100
AcDbText
  0
TEXT
  5
451
330
A
100
AcDbEntity
  8
0
  6
Continuous
 62
     7
370
     0
100
AcDbText
 10
1737.213203124999
 20
430.6969670016875
 30
0.0
 40
15.87499976158142
  1
者
  7
Style1
100
AcDbText
  0
TEXT
  5
452
330
A
100
AcDbEntity
  8
0
  6
Continuous
 62
     7
370
     0
100
AcDbText
 10
1367.213203125
 20
458.1223049992757
 30
0.0
 40
15.87499976158142
  1
副番
  7
Style1
100
AcDbText
  0
TEXT
  5
453
330
A
100
AcDbEntity
  8
0
  6
Continuous
 62
     7
370
     0
100
AcDbText
 10
1407.213203125
 20
457.9611374890058
 30
0.0
 40
15.87499976158142
  1
改訂日
  7
Style1
100
AcDbText
  0
LINE
  5
454
330
A
100
AcDbEntity
  8
0
  6
Continuous
370
     0
100
AcDbLine
 10
743.3759480120853
 20
-83.6339766000327
 30
0.0
 11
932.6884539552921
 21
-83.6339766000327
 31
0.0
  0
ENDSEC
  0
SECTION
  2
OBJECTS
  0
DICTIONARY
  5
19
330
0
100
AcDbDictionary
281
     1
  3
ACAD_COLOR
350
37C
  3
ACAD_GROUP
350
1A
  3
ACAD_LAYOUT
350
1E
  3
ACAD_MATERIAL
350
37B
  3
ACAD_MLINESTYLE
350
1B
  3
ACAD_PLOTSETTINGS
350
22
  3
ACAD_PLOTSTYLENAME
350
1F
  3
ACAD_WIPEOUT_VARS
350
23
  3
ACDBHEADERROUNDTRIPXREC
350
460
  3
AcDbVariableDictionary
350
45C
  3
ASE_INDEX_DICTIONARY
350
457
  0
DICTIONARY
  5
37C
102
{ACAD_REACTORS
330
19
102
}
330
19
100
AcDbDictionary
281
     1
  0
DICTIONARY
  5
1A
102
{ACAD_REACTORS
330
19
102
}
330
19
100
AcDbDictionary
281
     1
  0
DICTIONARY
  5
1E
102
{ACAD_REACTORS
330
19
102
}
330
19
100
AcDbDictionary
281
     1
  3
Layout1
350
21
  3
Model
350
20
  0
DICTIONARY
  5
37B
102
{ACAD_REACTORS
330
19
102
}
330
19
100
AcDbDictionary
281
     1
  0
DICTIONARY
  5
1B
102
{ACAD_REACTORS
330
19
102
}
330
19
100
AcDbDictionary
281
     1
  3
Standard
350
1C
  0
DICTIONARY
  5
22
102
{ACAD_REACTORS
330
19
102
}
330
19
100
AcDbDictionary
281
     1
  0
ACDBDICTIONARYWDFLT
  5
1F
102
{ACAD_REACTORS
330
19
102
}
330
19
100
AcDbDictionary
281
     1
  3
Normal
350
1D
100
AcDbDictionaryWithDefault
340
1D
  0
WIPEOUTVARIABLES
  5
23
330
19
100
AcDbWipeoutVariables
 70
     1
  0
DICTIONARY
  5
460
102
{ACAD_REACTORS
330
19
102
}
330
19
100
AcDbDictionary
281
     1
  3
COLORDICT
350
462
  3
MATERIALDICT
350
461
  0
DICTIONARY
  5
45C
102
{ACAD_REACTORS
330
19
102
}
330
19
100
AcDbDictionary
281
     1
  3
DIMASSOC
350
45D
  3
PROJECTNAME
350
45E
  0
DICTIONARY
  5
457
102
{ACAD_REACTORS
330
19
102
}
330
19
100
AcDbDictionary
281
     1
  3
ASEBlockHierarchyIndexRecord
350
459
1001
DCO15
1040
1826011616.312
  0
LAYOUT
  5
21
102
{ACAD_XDICTIONARY
360
465
102
}
102
{ACAD_REACTORS
330
1E
102
}
330
1E
100
AcDbPlotSettings
  1

  2

  4

  6

 40
0.0
 41
0.0
 42
0.0
 43
0.0
 44
0.0
 45
0.0
 46
0.0
 47
0.0
 48
0.0
 49
0.0
140
0.0
141
0.0
142
1.0
143
1.0
 70
     0
 72
     0
 73
     0
 74
     0
  7

 75
     0
147
1.0
148
0.0
149
0.0
100
AcDbLayout
  1
Layout1
 70
     0
 71
     1
 10
0.0
 20
0.0
 11
12.0
 21
9.0
 12
0.0
 22
0.0
 32
0.0
 14
1.000000000000000E+20
 24
1.000000000000000E+20
 34
1.000000000000000E+20
 15
-1.000000000000000E+20
 25
-1.000000000000000E+20
 35
-1.000000000000000E+20
146
0.0
 13
0.0
 23
0.0
 33
0.0
 16
1.0
 26
0.0
 36
0.0
 17
0.0
 27
1.0
 37
0.0
 76
     0
330
B
  0
LAYOUT
  5
20
102
{ACAD_XDICTIONARY
360
463
102
}
102
{ACAD_REACTORS
330
1E
102
}
330
1E
100
AcDbPlotSettings
  1

  2

  4

  6

 40
0.0
 41
0.0
 42
0.0
 43
0.0
 44
0.0
 45
0.0
 46
0.0
 47
0.0
 48
0.0
 49
0.0
140
0.0
141
0.0
142
1.0
143
1.0
 70
  1024
 72
     0
 73
     0
 74
     0
  7

 75
     0
147
1.0
148
0.0
149
0.0
100
AcDbLayout
  1
Model
 70
     0
 71
     0
 10
0.0
 20
0.0
 11
0.0
 21
0.0
 12
0.0
 22
0.0
 32
0.0
 14
0.0
 24
0.0
 34
0.0
 15
0.0
 25
0.0
 35
0.0
146
0.0
 13
0.0
 23
0.0
 33
0.0
 16
0.0
 26
0.0
 36
0.0
 17
0.0
 27
0.0
 37
0.0
 76
     0
330
A
  0
MLINESTYLE
  5
1C
102
{ACAD_REACTORS
330
1B
102
}
330
1B
100
AcDbMlineStyle
  2
STANDARD
 70
     0
  3

 62
     0
 51
90.0
 52
90.0
 71
     2
 49
0.5
 62
   256
  6
BYLAYER
 49
-0.5
 62
   256
  6
BYLAYER
  0
ACDBPLACEHOLDER
  5
1D
102
{ACAD_REACTORS
330
1F
102
}
330
1F
  0
XRECORD
  5
462
102
{ACAD_REACTORS
330
460
102
}
330
460
100
AcDbXrecord
280
     1
340
37C
  0
XRECORD
  5
461
102
{ACAD_REACTORS
330
460
102
}
330
460
100
AcDbXrecord
280
     1
340
37B
  0
DICTIONARYVAR
  5
45D
102
{ACAD_REACTORS
330
45C
102
}
330
45C
100
DictionaryVariables
280
     0
  1
1
  0
DICTIONARYVAR
  5
45E
102
{ACAD_REACTORS
330
45C
102
}
330
45C
100
DictionaryVariables
280
     0
  1

  0
XRECORD
  5
459
102
{ACAD_REACTORS
330
457
102
}
330
457
100
AcDbXrecord
280
     1
330
10E
330
116
330
11E
330
126
330
12E
330
136
330
13E
330
146
330
23B
330
243
330
24B
330
253
330
25B
330
263
330
26B
330
273
330
27B
330
283
330
28B
330
293
330
29B
330
2A3
330
2AB
330
2B3
330
2BB
330
2C3
330
2D2
330
2DA
330
2F3
330
2FB
330
303
330
30B
330
313
330
31B
330
338
330
340
330
348
330
350
330
358
330
360
  0
DICTIONARY
  5
465
330
21
100
AcDbDictionary
280
     1
281
     1
  3
ACAD_XREC_ROUNDTRIP
360
466
  0
DICTIONARY
  5
463
330
20
100
AcDbDictionary
280
     1
281
     1
  3
ACAD_XREC_ROUNDTRIP
360
464
  0
XRECORD
  5
466
102
{ACAD_REACTORS
330
465
102
}
330
465
100
AcDbXrecord
280
     1
102
SHADEPLOT
 70
     0
102
SHADEPLOTRESLEVEL
 70
     2
102
SHADEPLOTCUSTOMDPI
 70
   300
  0
XRECORD
  5
464
102
{ACAD_REACTORS
330
463
102
}
330
463
100
AcDbXrecord
280
     1
102
SHADEPLOT
 70
     0
102
SHADEPLOTRESLEVEL
 70
     2
102
SHADEPLOTCUSTOMDPI
 70
   300
  0
ENDSEC
  0
EOF

