  0
SECTION
  2
HEADER
  9
$ACADVER
  1
AC1015
  9
$ACADMAINTVER
 70
         6
  9
$DWGCODEPAGE
  3
ANSI_932
  9
$INSBASE
 10
0.0
 20
0.0
 30
0.0
  9
$EXTMIN
 10
1.0000000000E+20
 20
1.0000000000E+20
 30
1.0000000000E+20
  9
$EXTMAX
 10
-1.0000000000E+20
 20
-1.0000000000E+20
 30
-1.0000000000E+20
  9
$LIMMIN
 10
0.0
 20
0.0
  9
$LIMMAX
 10
0.0
 20
0.0
  9
$ORTHOMODE
 70
         0
  9
$REGENMODE
 70
         1
  9
$FILLMODE
 70
         1
  9
$QTEXTMODE
 70
         0
  9
$MIRRTEXT
 70
         1
  9
$LTSCALE
 40
1.0
  9
$ATTMODE
 70
         1
  9
$TEXTSIZE
 40
0.2
  9
$TRACEWID
 40
0.05
  9
$TEXTSTYLE
  7
Standard
  9
$CLAYER
  8
0
  9
$CELTYPE
  6
Continuous
  9
$CECOLOR
 62
       256
  9
$CELTSCALE
 40
1.0
  9
$DISPSILH
 70
         0
  9
$DIMSCALE
 40
1.0
  9
$DIMASZ
 40
0.18
  9
$DIMEXO
 40
0.0625
  9
$DIMDLI
 40
0.38
  9
$DIMRND
 40
0.0
  9
$DIMDLE
 40
0.0
  9
$DIMEXE
 40
0.18
  9
$DIMTP
 40
0.0
  9
$DIMTM
 40
0.0
  9
$DIMTXT
 40
0.18
  9
$DIMCEN
 40
0.09
  9
$DIMTSZ
 40
0.0
  9
$DIMTOL
 70
         0
  9
$DIMLIM
 70
         0
  9
$DIMTIH
 70
         1
  9
$DIMTOH
 70
         1
  9
$DIMSE1
 70
         0
  9
$DIMSE2
 70
         0
  9
$DIMTAD
 70
         0
  9
$DIMZIN
 70
         0
  9
$DIMBLK
  1

  9
$DIMASO
 70
         1
  9
$DIMSHO
 70
         1
  9
$DIMPOST
  1

  9
$DIMAPOST
  1

  9
$DIMALT
 70
         0
  9
$DIMALTD
 70
         2
  9
$DIMALTF
 40
25.4
  9
$DIMLFAC
 40
1.0
  9
$DIMTOFL
 70
         0
  9
$DIMTVP
 40
0.0
  9
$DIMTIX
 70
         0
  9
$DIMSOXD
 70
         0
  9
$DIMSAH
 70
         0
  9
$DIMBLK1
  1

  9
$DIMBLK2
  1

  9
$DIMSTYLE
  2
Standard
  9
$DIMCLRD
 70
         0
  9
$DIMCLRE
 70
         0
  9
$DIMCLRT
 70
         0
  9
$DIMTFAC
 40
1.0
  9
$DIMGAP
 40
0.09
  9
$DIMJUST
 70
         0
  9
$DIMSD1
 70
         0
  9
$DIMSD2
 70
         0
  9
$DIMTOLJ
 70
         1
  9
$DIMTZIN
 70
         0
  9
$DIMALTZ
 70
         0
  9
$DIMALTTZ
 70
         0
  9
$DIMUPT
 70
         0
  9
$DIMDEC
 70
         4
  9
$DIMTDEC
 70
         4
  9
$DIMALTU
 70
         2
  9
$DIMALTTD
 70
         2
  9
$DIMTXSTY
  7
Standard
  9
$DIMAUNIT
 70
         0
  9
$DIMADEC
 70
         0
  9
$DIMALTRND
 40
0.0
  9
$DIMAZIN
 70
         0
  9
$DIMDSEP
 70
         0
  9
$DIMATFIT
 70
         3
  9
$DIMFRAC
 70
         0
  9
$DIMLDRBLK
  1

  9
$DIMLUNIT
 70
         2
  9
$DIMLWD
 70
         0
  9
$DIMLWE
 70
         0
  9
$DIMTMOVE
 70
         0
  9
$LUNITS
 70
         2
  9
$LUPREC
 70
         4
  9
$SKETCHINC
 40
0.1
  9
$FILLETRAD
 40
0.0
  9
$AUNITS
 70
         0
  9
$AUPREC
 70
         0
  9
$MENU
  1
acad
  9
$ELEVATION
 40
0.0
  9
$PELEVATION
 40
0.0
  9
$THICKNESS
 40
0.0
  9
$LIMCHECK
 70
         0
  9
$CHAMFERA
 40
0.0
  9
$CHAMFERB
 40
0.0
  9
$CHAMFERC
 40
0.0
  9
$CHAMFERD
 40
0.0
  9
$SKPOLY
 70
         0
  9
$TDCREATE
 40
0.000000000
  9
$TDUCREATE
 40
0.000000000
  9
$TDUPDATE
 40
0.000000000
  9
$TDUUPDATE
 40
0.000000000
  9
$TDINDWG
 40
0.0000000000
  9
$TDUSRTIMER
 40
0.0000000000
  9
$USRTIMER
 70
         1
  9
$ANGBASE
 50
0.0
  9
$ANGDIR
 70
         0
  9
$PDMODE
 70
         3
  9
$PDSIZE
 40
-1.0
  9
$PLINEWID
 40
0.0
  9
$SPLFRAME
 70
         0
  9
$SPLINETYPE
 70
         6
  9
$SPLINESEGS
 70
         8
  9
$HANDSEED
  5
16C
  9
$SURFTAB1
 70
         6
  9
$SURFTAB2
 70
         6
  9
$SURFTYPE
 70
         6
  9
$SURFU
 70
         6
  9
$SURFV
 70
         6
  9
$UCSBASE
  2

  9
$UCSNAME
  2

  9
$UCSORG
 10
0.0
 20
0.0
 30
0.0
  9
$UCSXDIR
 10
1.0
 20
0.0
 30
0.0
  9
$UCSYDIR
 10
0.0
 20
1.0
 30
0.0
  9
$UCSORTHOREF
  2

  9
$UCSORTHOVIEW
 70
         0
  9
$UCSORGTOP
 10
0.0
 20
0.0
 30
0.0
  9
$UCSORGBOTTOM
 10
0.0
 20
0.0
 30
0.0
  9
$UCSORGLEFT
 10
0.0
 20
0.0
 30
0.0
  9
$UCSORGRIGHT
 10
0.0
 20
0.0
 30
0.0
  9
$UCSORGFRONT
 10
0.0
 20
0.0
 30
0.0
  9
$UCSORGBACK
 10
0.0
 20
0.0
 30
0.0
  9
$PUCSBASE
  2

  9
$PUCSNAME
  2

  9
$PUCSORG
 10
0.0
 20
0.0
 30
0.0
  9
$PUCSXDIR
 10
1.0
 20
0.0
 30
0.0
  9
$PUCSYDIR
 10
0.0
 20
1.0
 30
0.0
  9
$PUCSORTHOREF
  2

  9
$PUCSORTHOVIEW
 70
         0
  9
$PUCSORGTOP
 10
0.0
 20
0.0
 30
0.0
  9
$PUCSORGBOTTOM
 10
0.0
 20
0.0
 30
0.0
  9
$PUCSORGLEFT
 10
0.0
 20
0.0
 30
0.0
  9
$PUCSORGRIGHT
 10
0.0
 20
0.0
 30
0.0
  9
$PUCSORGFRONT
 10
0.0
 20
0.0
 30
0.0
  9
$PUCSORGBACK
 10
0.0
 20
0.0
 30
0.0
  9
$USERI1
 70
         0
  9
$USERI2
 70
         0
  9
$USERI3
 70
         0
  9
$USERI4
 70
         0
  9
$USERI5
 70
         0
  9
$USERR1
 40
0.0
  9
$USERR2
 40
0.0
  9
$USERR3
 40
0.0
  9
$USERR4
 40
0.0
  9
$USERR5
 40
0.0
  9
$WORLDVIEW
 70
         1
  9
$SHADEDGE
 70
         3
  9
$SHADEDIF
 70
        70
  9
$TILEMODE
 70
         1
  9
$MAXACTVP
 70
        16
  9
$PINSBASE
 10
0.0
 20
0.0
 30
0.0
  9
$PLIMCHECK
 70
         0
  9
$PEXTMIN
 10
1.0000000000E+20
 20
1.0000000000E+20
 30
1.0000000000E+20
  9
$PEXTMAX
 10
-1.0000000000E+20
 20
-1.0000000000E+20
 30
-1.0000000000E+20
  9
$PLIMMIN
 10
0.0
 20
0.0
  9
$PLIMMAX
 10
12.0
 20
9.0
  9
$UNITMODE
 70
         0
  9
$VISRETAIN
 70
         0
  9
$PLINEGEN
 70
         1
  9
$PSLTSCALE
 70
         0
  9
$TREEDEPTH
 70
      3020
  9
$CMLSTYLE
  2
Standard
  9
$CMLJUST
 70
         0
  9
$CMLSCALE
 40
1.0
  9
$PROXYGRAPHICS
 70
         0
  9
$MEASUREMENT
 70
         0
  9
$CELWEIGHT
370
         0
  9
$ENDCAPS
280
         0
  9
$JOINSTYLE
280
         0
  9
$LWDISPLAY
290
         0
  9
$INSUNITS
 70
         0
  9
$HYPERLINKBASE
  1

  9
$XEDIT
290
         1
  9
$CEPSNTYPE
380
         0
  9
$PSTYLEMODE
290
         0
  9
$FINGERPRINTGUID
  2

  9
$VERSIONGUID
  2

  9
$EXTNAMES
290
         1
  9
$PSVPSCALE
 40
0.0
  0
ENDSEC
  0
SECTION
  2
CLASSES
  0
CLASS
  1
LWPOLYLINE
  2
AcDbPolyline
  3
"AutoCAD"
 90
        0
280
         0
281
         1
  0
CLASS
  1
IMAGE
  2
AcDbRasterImage
  3
ISM
 90
      127
280
         0
281
         1
  0
CLASS
  1
OLE2FRAME
  2
AcDbOle2Frame
  3
""
 90
        0
280
         0
281
         1
  0
CLASS
  1
HATCH
  2
AcDbHatch
  3
"ACAD_SEDONA"
 90
        0
280
         0
281
         1
  0
CLASS
  1
DICTIONARYVAR
  2
AcDbDictionaryVar
  3
"AutoCAD"
 90
        0
280
         0
281
         0
  0
CLASS
  1
RASTERVARIABLES
  2
AcDbRasterVariables
  3
ISM
 90
        0
280
         0
281
         0
  0
CLASS
  1
IMAGEDEF
  2
AcDbRasterImageDef
  3
ISM
 90
        0
280
         0
281
         0
  0
CLASS
  1
IMAGEDEF_REACTOR
  2
AcDbRasterImageDefReactor
  3
ISM
 90
        1
280
         0
281
         0
  0
CLASS
  1
IDBUFFER
  2
AcDbIdBuffer
  3
"Acad"
 90
        0
280
         0
281
         0
  0
CLASS
  1
SPATIAL_FILTER
  2
AcDbSpatialFilter
  3
"Acad"
 90
        0
280
         0
281
         0
  0
CLASS
  1
XRECORD
  2
AcDbXrecord
  3
"<Built In>"
 90
        0
280
         0
281
         0
  0
CLASS
  1
SORTENTSTABLE
  2
AcDbSortentsTable
  3
"AutoCAD"
 90
        0
280
         0
281
         0
  0
CLASS
  1
LAYER_INDEX
  2
AcDbLayerIndex
  3
"Acad"
 90
        0
280
         0
281
         0
  0
CLASS
  1
SPATIAL_INDEX
  2
AcDbSpatialIndex
  3
"Acad"
 90
        0
280
         0
281
         0
  0
CLASS
  1
OBJECT_PTR
  2
CAseDLPNTableRecord
  3
"ASE-LPNTableRecord"
 90
        1
280
         0
281
         0
  0
CLASS
  1
LAYOUT
  2
AcDbLayout
  3
"AutoCAD 2000"
 90
        1
280
         0
281
         0
  0
CLASS
  1
PLOTSETTINGS
  2
AcDbPlotSettings
  3
"AutoCAD 2000"
 90
        1
280
         0
281
         0
  0
CLASS
  1
ACDBDICTIONARYWDFLT
  2
AcDbDictionaryWithDefault
  3
"AutoCAD 2000"
 90
        1
280
         0
281
         0
  0
CLASS
  1
ACDBPLACEHOLDER
  2
AcDbPlaceHolder
  3
"AutoCAD 2000"
 90
        1
280
         0
281
         0
  0
CLASS
  1
VBA_PROJECT
  2
AcDbVbaProject
  3
"acadvba"
 90
        1
280
         0
281
         0
  0
CLASS
  1
WIPEOUT
  2
AcDbWipeout
  3
WipeOut|AutoCAD Express Tool|expresstools@autodesk.com
 90
      127
280
         0
281
         1
  0
CLASS
  1
WIPEOUTVARIABLES
  2
AcDbWipeoutVariables
  3
WipeOut|AutoCAD Express Tool|expresstools@autodesk.com
 90
        0
280
         0
281
         0
  0
CLASS
  1
RTEXT
  2
RText
  3
RText|AutoCAD Express Tool|expresstools@autodesk.com
 90
        0
280
         0
281
         1
  0
CLASS
  1
ARCALIGNEDTEXT
  2
AcDbArcAlignedText
  3
ATEXT|AutoCAD Express Tool|expresstools@autodesk.com
 90
        0
280
         0
281
         1
  0
ENDSEC
  0
SECTION
  2
TABLES
  0
TABLE
  2
VPORT
  5
7
100
AcDbSymbolTable
 70
         1
  0
VPORT
  5
15
100
AcDbSymbolTableRecord
100
AcDbViewportTableRecord
  2
*ACTIVE
 70
         0
 10
0.0
 20
0.0
 11
1.0
 21
1.0
 12
6.591288
 22
4.579184
 13
0.0
 23
0.0
 14
1.0
 24
1.0
 15
0.0
 25
0.0
 16
0.0
 26
0.0
 36
1.0
 17
0.0
 27
0.0
 37
0.0
 40
9.158369
 41
0.688564
 42
50.0
 43
0.0
 44
0.0
 50
0.0
 51
0.0
 71
         0
 72
       100
 73
         1
 74
         1
 75
         0
 76
         0
 77
         0
 78
         0
281
         0
 65
         0
110
0.0
120
0.0
130
0.0
111
1.0
121
0.0
131
0.0
112
0.0
122
1.0
132
0.0
345
0
346
0
 79
         0
146
0.0
  0
ENDTAB
  0
TABLE
  2
LTYPE
  5
4
100
AcDbSymbolTable
 70
        13
  0
LTYPE
  5
11
100
AcDbSymbolTableRecord
100
AcDbLinetypeTableRecord
  2
ByBlock
 70
        64
  3

 72
        65
 73
         0
 40
0.0
  0
LTYPE
  5
12
100
AcDbSymbolTableRecord
100
AcDbLinetypeTableRecord
  2
ByLayer
 70
        64
  3

 72
        65
 73
         0
 40
0.0
  0
LTYPE
  5
13
100
AcDbSymbolTableRecord
100
AcDbLinetypeTableRecord
  2
Continuous
 70
        64
  3
Solid line
 72
        65
 73
         0
 40
0.0
  0
LTYPE
  5
24
100
AcDbSymbolTableRecord
100
AcDbLinetypeTableRecord
  2
DOT
 70
        64
  3
. . . . . . . . 
 72
        65
 73
         2
 40
1.0
 49
0.0
 74
         0
 49
-1.0
 74
         0
  0
LTYPE
  5
25
100
AcDbSymbolTableRecord
100
AcDbLinetypeTableRecord
  2
DASHED
 70
        64
  3
___  ___  ___  ___  
 72
        65
 73
         2
 40
4.0
 49
3.0
 74
         0
 49
-1.0
 74
         0
  0
LTYPE
  5
26
100
AcDbSymbolTableRecord
100
AcDbLinetypeTableRecord
  2
HIDDEN
 70
        64
  3
__ __ __ __ 
 72
        65
 73
         2
 40
3.0
 49
2.0
 74
         0
 49
-1.0
 74
         0
  0
LTYPE
  5
27
100
AcDbSymbolTableRecord
100
AcDbLinetypeTableRecord
  2
STITCH
 70
        64
  3
_ _ _ _ 
 72
        65
 73
         2
 40
2.0
 49
1.0
 74
         0
 49
-1.0
 74
         0
  0
LTYPE
  5
28
100
AcDbSymbolTableRecord
100
AcDbLinetypeTableRecord
  2
CENTER
 70
        64
  3
______  __  ______  __  
 72
        65
 73
         4
 40
43.0
 49
40.0
 74
         0
 49
-1.0
 74
         0
 49
1.0
 74
         0
 49
-1.0
 74
         0
  0
LTYPE
  5
29
100
AcDbSymbolTableRecord
100
AcDbLinetypeTableRecord
  2
DASHDOT
 70
        64
  3
____ . ____ . 
 72
        65
 73
         4
 40
32.0
 49
30.0
 74
         0
 49
-1.0
 74
         0
 49
0.0
 74
         0
 49
-1.0
 74
         0
  0
LTYPE
  5
2A
100
AcDbSymbolTableRecord
100
AcDbLinetypeTableRecord
  2
BORDER
 70
        64
  3
__ . __ . 
 72
        65
 73
         4
 40
22.0
 49
20.0
 74
         0
 49
-1.0
 74
         0
 49
0.0
 74
         0
 49
-1.0
 74
         0
  0
LTYPE
  5
2B
100
AcDbSymbolTableRecord
100
AcDbLinetypeTableRecord
  2
CUTTING
 70
        64
  3
________   ___   ___   
 72
        65
 73
         6
 40
45.0
 49
40.0
 74
         0
 49
-1.0
 74
         0
 49
1.0
 74
         0
 49
-1.0
 74
         0
 49
1.0
 74
         0
 49
-1.0
 74
         0
  0
LTYPE
  5
2C
100
AcDbSymbolTableRecord
100
AcDbLinetypeTableRecord
  2
PHANTOM
 70
        64
  3
______  __  __  
 72
        65
 73
         6
 40
35.0
 49
30.0
 74
         0
 49
-1.0
 74
         0
 49
1.0
 74
         0
 49
-1.0
 74
         0
 49
1.0
 74
         0
 49
-1.0
 74
         0
  0
LTYPE
  5
2D
100
AcDbSymbolTableRecord
100
AcDbLinetypeTableRecord
  2
DIVIDE
 70
        64
  3
____ . . ____ . . 
 72
        65
 73
         6
 40
23.0
 49
20.0
 74
         0
 49
-1.0
 74
         0
 49
0.0
 74
         0
 49
-1.0
 74
         0
 49
0.0
 74
         0
 49
-1.0
 74
         0
  0
ENDTAB
  0
TABLE
  2
LAYER
  5
2
100
AcDbSymbolTable
 70
         5
  0
LAYER
  5
14
100
AcDbSymbolTableRecord
100
AcDbLayerTableRecord
  2
0
 70
         0
 62
         7
  6
Continuous
290
         1
370
        -3
390
1D
  0
LAYER
  5
2E
100
AcDbSymbolTableRecord
100
AcDbLayerTableRecord
  2
ﾚｲﾔｰ1
 70
         0
 62
         7
  6
Continuous
290
         1
370
        -3
390
1F
  0
LAYER
  5
67
100
AcDbSymbolTableRecord
100
AcDbLayerTableRecord
  2
図枠
 70
         0
 62
         7
  6
Continuous
290
         1
370
        -3
390
1F
  0
LAYER
  5
6D
100
AcDbSymbolTableRecord
100
AcDbLayerTableRecord
  2
改訂
 70
         0
 62
         7
  6
Continuous
290
         1
370
        -3
390
1F
  0
LAYER
  5
12D
100
AcDbSymbolTableRecord
100
AcDbLayerTableRecord
  2
寸法線
 70
         0
 62
         7
  6
Continuous
290
         1
370
        -3
390
1F
  0
ENDTAB
  0
TABLE
  2
STYLE
  5
3
100
AcDbSymbolTable
 70
         1
  0
STYLE
  5
17
100
AcDbSymbolTableRecord
100
AcDbTextStyleTableRecord
  2
Standard
 70
         0
 40
0.0
 41
1.0
 50
0.0
 71
         0
 42
0.0
  3
txt
  4
extfont
  0
ENDTAB
  0
TABLE
  2
VIEW
  5
5
100
AcDbSymbolTable
 70
         0
  0
ENDTAB
  0
TABLE
  2
UCS
  5
6
100
AcDbSymbolTable
 70
         0
  0
ENDTAB
  0
TABLE
  2
APPID
  5
8
100
AcDbSymbolTable
 70
         1
  0
APPID
  5
16
100
AcDbSymbolTableRecord
100
AcDbRegAppTableRecord
  2
ACAD
 70
         0
  0
ENDTAB
  0
TABLE
  2
DIMSTYLE
  5
9
100
AcDbSymbolTable
 70
         3
100
AcDbDimStyleTable
 71
         0
  0
DIMSTYLE
105
18
100
AcDbSymbolTableRecord
100
AcDbDimStyleTableRecord
  2
Standard
 70
         0
  3

  4

 40
1.0
 41
0.18
 42
0.0625
 43
0.38
 44
0.18
 45
0.0
 46
0.0
 47
0.0
 48
0.0
 71
         0
 72
         0
 73
         1
 74
         1
 75
         0
 76
         0
 77
         0
 78
         0
 79
         0
140
0.18
141
0.09
142
0.0
143
25.4
144
1.0
145
0.0
146
1.0
147
0.09
148
0.0
170
         0
171
         2
172
         0
173
         0
174
         0
175
         0
176
         0
177
         0
178
         0
179
         0
271
         4
272
         4
273
         2
274
         2
275
         0
276
         0
277
         2
278
        46
279
         0
280
         0
281
         0
282
         0
283
         1
284
         0
285
         0
286
         0
288
         0
340
17
341
0
342
0
343
0
344
0
371
        -2
372
        -2
  0
DIMSTYLE
105
11E
100
AcDbSymbolTableRecord
100
AcDbDimStyleTableRecord
  2
VELDIM0
 70
         0
  3

  4

 40
1.0
 41
2.0
 42
0.0625
 43
0.38
 44
0.5
 45
0.0
 46
3.0
 47
0.0
 48
0.0
 71
         0
 72
         0
 73
         0
 74
         0
 75
         0
 76
         0
 77
         0
 78
         8
 79
         0
140
1.9990741491
141
0.09
142
0.0
143
25.4
144
1.0
145
0.0
146
1.0
147
0.09
148
0.0
170
         0
171
         2
172
         0
173
         0
174
         0
175
         0
176
         0
177
         0
178
         0
179
         0
271
         3
272
         4
273
         2
274
         2
275
         0
276
         0
277
         2
278
        46
279
         0
280
         0
281
         0
282
         0
283
         1
284
         0
285
         0
286
         0
288
         0
340
17
341
0
342
0
343
0
344
0
371
        -2
372
        -2
  0
DIMSTYLE
105
12F
100
AcDbSymbolTableRecord
100
AcDbDimStyleTableRecord
  2
VELDIM1
 70
         0
  3

  4

 40
1.0
 41
2.0
 42
0.0625
 43
0.38
 44
0.3333333433
 45
0.0
 46
2.0
 47
0.0
 48
0.0
 71
         0
 72
         0
 73
         0
 74
         0
 75
         0
 76
         0
 77
         0
 78
         8
 79
         0
140
1.9990741491
141
0.09
142
0.0
143
25.4
144
1.0
145
0.0
146
1.0
147
0.09
148
0.0
170
         0
171
         2
172
         0
173
         0
174
         0
175
         0
176
         0
177
         0
178
         0
179
         0
271
         3
272
         4
273
         2
274
         2
275
         0
276
         0
277
         2
278
        46
279
         0
280
         0
281
         0
282
         0
283
         1
284
         0
285
         0
286
         0
288
         0
340
17
341
0
342
0
343
0
344
0
371
        -2
372
        -2
  0
ENDTAB
  0
TABLE
  2
BLOCK_RECORD
  5
1
100
AcDbSymbolTable
 70
         6
  0
BLOCK_RECORD
  5
A
100
AcDbSymbolTableRecord
100
AcDbBlockTableRecord
  2
*MODEL_SPACE
340
20
  0
BLOCK_RECORD
  5
B
100
AcDbSymbolTableRecord
100
AcDbBlockTableRecord
  2
*PAPER_SPACE
340
21
  0
BLOCK_RECORD
  5
7C
100
AcDbSymbolTableRecord
100
AcDbBlockTableRecord
  2
CLUMP0
340
0
  0
BLOCK_RECORD
  5
11F
100
AcDbSymbolTableRecord
100
AcDbBlockTableRecord
  2
*D1
340
0
  0
BLOCK_RECORD
  5
130
100
AcDbSymbolTableRecord
100
AcDbBlockTableRecord
  2
*D2
340
0
  0
BLOCK_RECORD
  5
13F
100
AcDbSymbolTableRecord
100
AcDbBlockTableRecord
  2
*D3
340
0
  0
BLOCK_RECORD
  5
14E
100
AcDbSymbolTableRecord
100
AcDbBlockTableRecord
  2
*D4
340
0
  0
BLOCK_RECORD
  5
15D
100
AcDbSymbolTableRecord
100
AcDbBlockTableRecord
  2
*D5
340
0
  0
ENDTAB
  0
ENDSEC
  0
SECTION
  2
BLOCKS
  0
BLOCK
  5
D
100
AcDbEntity
  8
0
100
AcDbBlockBegin
  2
*MODEL_SPACE
 70
         0
 10
0.0
 20
0.0
 30
0.0
  3
*MODEL_SPACE
  1

  0
ENDBLK
  5
E
100
AcDbEntity
  8
0
100
AcDbBlockEnd
  0
BLOCK
  5
F
100
AcDbEntity
 67
         1
  8
0
100
AcDbBlockBegin
  2
*PAPER_SPACE
 70
         0
 10
0.0
 20
0.0
 30
0.0
  3
*PAPER_SPACE
  1

  0
ENDBLK
  5
10
100
AcDbEntity
 67
         1
  8
0
100
AcDbBlockEnd
  0
BLOCK
  5
7E
100
AcDbEntity
  8
0
100
AcDbBlockBegin
  2
CLUMP0
 70
         0
 10
0.0
 20
0.0
 30
0.0
  3

  1

  0
CIRCLE
  5
7F
100
AcDbEntity
  8
図枠
370
        18
100
AcDbCircle
 10
852.5206465819
 20
-298.2812199189
 30
0.0
 40
1.536
210
0.0
220
0.0
230
1.0
  0
CIRCLE
  5
80
100
AcDbEntity
  8
図枠
370
        18
100
AcDbCircle
 10
852.5206465819
 20
-298.2812199189
 30
0.0
 40
0.768
210
0.0
220
0.0
230
1.0
  0
LINE
  5
81
100
AcDbEntity
  8
図枠
370
        18
100
AcDbLine
 10
856.0316337894
 20
-299.0492199189
 30
0.0
 11
859.1036337894
 21
-299.8172199189
 31
0.0
  0
LINE
  5
82
100
AcDbEntity
  8
図枠
370
        18
100
AcDbLine
 10
856.0316337894
 20
-297.5132199189
 30
0.0
 11
859.1036337894
 21
-296.7452199189
 31
0.0
  0
LINE
  5
83
100
AcDbEntity
  8
図枠
370
        18
100
AcDbLine
 10
856.0316337894
 20
-299.0492199189
 30
0.0
 11
859.1036337894
 21
-299.8172199189
 31
0.0
  0
LINE
  5
84
100
AcDbEntity
  8
図枠
370
         5
100
AcDbLine
 10
841.8113132486
 20
-301.1145532523
 30
0.0
 11
841.8113132486
 21
-306.7812199189
 31
0.0
  0
MTEXT
  5
85
100
AcDbEntity
  8
図枠
370
         5
100
AcDbMText
 10
824.6250157318
 20
-307.9323311996
 30
0.0
 40
2.8786666234
 41
19.1638384742
 71
         1
 72
         1
  1
\W0.8;\fＭＳ ゴシック;\W1.0;株式会社
  0
ARC
  5
86
100
AcDbEntity
  8
図枠
370
        18
100
AcDbCircle
 10
844.2094474926
 20
-309.8291276699
 30
0.0
 40
0.8
210
0.0
220
0.0
230
1.0
100
AcDbArc
 50
270.0
 51
0.0
  0
LINE
  5
87
100
AcDbEntity
  8
図枠
370
        18
100
AcDbLine
 10
854.5444281373
 20
-308.6024610033
 30
0.0
 11
854.5444281373
 21
-309.5624610033
 31
0.0
  0
LINE
  5
88
100
AcDbEntity
  8
図枠
370
        18
100
AcDbLine
 10
846.3427808259
 20
-309.5624610033
 30
0.0
 11
847.1427808259
 21
-309.5624610033
 31
0.0
  0
LINE
  5
89
100
AcDbEntity
  8
図枠
370
        18
100
AcDbLine
 10
856.7844281373
 20
-311.6957943366
 30
0.0
 11
856.5654059151
 21
-310.9491276699
 31
0.0
  0
LINE
  5
8A
100
AcDbEntity
  8
図枠
370
        18
100
AcDbLine
 10
844.2094474926
 20
-310.6291276699
 30
0.0
 11
842.6094474926
 21
-310.6291276699
 31
0.0
  0
LINE
  5
8B
100
AcDbEntity
  8
図枠
370
        18
100
AcDbLine
 10
856.0316337894
 20
-297.5132199189
 30
0.0
 11
856.0316337894
 21
-299.0492199189
 31
0.0
  0
LINE
  5
8C
100
AcDbEntity
  8
図枠
370
        18
  6
BORDER
100
AcDbLine
 10
852.5206465819
 20
-295.9772199189
 30
0.0
 11
852.5206465819
 21
-300.5852199189
 31
0.0
  0
LINE
  5
8D
100
AcDbEntity
  8
図枠
370
        18
100
AcDbLine
 10
856.0316337894
 20
-297.5132199189
 30
0.0
 11
856.0316337894
 21
-299.0492199189
 31
0.0
  0
LINE
  5
8E
100
AcDbEntity
  8
図枠
370
        18
100
AcDbLine
 10
859.3444281373
 20
-308.6024610033
 30
0.0
 11
859.3444281373
 21
-309.5624610033
 31
0.0
  0
LINE
  5
8F
100
AcDbEntity
  8
図枠
370
        18
 62
         5
100
AcDbLine
 10
899.1446465819
 20
-312.4478865856
 30
0.0
 11
775.8113132486
 21
-312.4478865856
 31
0.0
  0
LINE
  5
90
100
AcDbEntity
  8
図枠
370
         5
  6
DOT
100
AcDbLine
 10
903.4613132486
 20
-317.1792199189
 30
0.0
 11
771.4946465819
 21
-317.1792199189
 31
0.0
  0
LINE
  5
91
100
AcDbEntity
  8
図枠
370
         5
  6
DOT
100
AcDbLine
 10
903.4613132486
 20
-124.8678865856
 30
0.0
 11
771.4946465819
 21
-124.8678865856
 31
0.0
  0
LINE
  5
92
100
AcDbEntity
  8
図枠
370
        18
 62
         5
100
AcDbLine
 10
899.1446465819
 20
-129.1145532523
 30
0.0
 11
775.8113132486
 21
-129.1145532523
 31
0.0
  0
LINE
  5
93
100
AcDbEntity
  8
図枠
370
        18
 62
         5
100
AcDbLine
 10
775.8113132486
 20
-312.4478865856
 30
0.0
 11
775.8113132486
 21
-129.1145532523
 31
0.0
  0
LINE
  5
94
100
AcDbEntity
  8
図枠
370
         5
  6
DOT
100
AcDbLine
 10
771.4946465819
 20
-317.1792199189
 30
0.0
 11
771.4946465819
 21
-124.8678865856
 31
0.0
  0
LINE
  5
95
100
AcDbEntity
  8
図枠
370
         5
  6
DOT
100
AcDbLine
 10
903.4613132486
 20
-317.1792199189
 30
0.0
 11
903.4613132486
 21
-124.8678865856
 31
0.0
  0
LINE
  5
96
100
AcDbEntity
  8
図枠
370
        18
 62
         5
100
AcDbLine
 10
899.1446465819
 20
-312.4478865856
 30
0.0
 11
899.1446465819
 21
-129.1145532523
 31
0.0
  0
SPLINE
  5
97
100
AcDbEntity
  8
図枠
370
        18
100
AcDbSpline
210
0.0
220
0.0
230
1.0
 70
         0
 71
         3
 72
         8
 73
         4
 74
         0
 42
0.00000001
 43
0.00000001
 40
0.0
 40
0.0
 40
0.0
 40
0.0
 40
1.0
 40
1.0
 40
1.0
 40
1.0
 10
850.39340516491814
 20
-309.23595203921366
 30
0.0
 10
850.54240379281885
 20
-309.40208549729005
 30
0.0
 10
850.69140242071956
 20
-309.56821895536632
 30
0.0
 10
850.85281962375495
 20
-309.71435927827144
 30
0.0
  0
LINE
  5
98
100
AcDbEntity
  8
図枠
370
        18
100
AcDbLine
 10
856.0316337894
 20
-297.5132199189
 30
0.0
 11
856.0316337894
 21
-299.0492199189
 31
0.0
  0
LINE
  5
99
100
AcDbEntity
  8
図枠
370
        18
100
AcDbLine
 10
859.1036337894
 20
-296.7452199189
 30
0.0
 11
859.1036337894
 21
-299.8172199189
 31
0.0
  0
CIRCLE
  5
9A
100
AcDbEntity
  8
図枠
370
        18
100
AcDbCircle
 10
852.5206465819
 20
-298.2812199189
 30
0.0
 40
0.768
210
0.0
220
0.0
230
1.0
  0
LINE
  5
9B
100
AcDbEntity
  8
図枠
370
        18
  6
BORDER
100
AcDbLine
 10
850.2166465819
 20
-298.2812199189
 30
0.0
 11
860.0726465819
 21
-298.2812199189
 31
0.0
  0
CIRCLE
  5
9C
100
AcDbEntity
  8
図枠
370
        18
100
AcDbCircle
 10
852.5206465819
 20
-298.2812199189
 30
0.0
 40
0.768
210
0.0
220
0.0
230
1.0
  0
LINE
  5
9D
100
AcDbEntity
  8
図枠
370
        18
100
AcDbLine
 10
856.0316337894
 20
-297.5132199189
 30
0.0
 11
859.1036337894
 21
-296.7452199189
 31
0.0
  0
LINE
  5
9E
100
AcDbEntity
  8
図枠
370
        18
100
AcDbLine
 10
856.0316337894
 20
-299.0492199189
 30
0.0
 11
859.1036337894
 21
-299.8172199189
 31
0.0
  0
LINE
  5
9F
100
AcDbEntity
  8
図枠
370
        18
100
AcDbLine
 10
856.0316337894
 20
-297.5132199189
 30
0.0
 11
856.0316337894
 21
-299.0492199189
 31
0.0
  0
LINE
  5
A0
100
AcDbEntity
  8
図枠
370
        18
100
AcDbLine
 10
842.6094474926
 20
-311.4291276699
 30
0.0
 11
844.7427808259
 21
-311.4291276699
 31
0.0
  0
LINE
  5
A1
100
AcDbEntity
  8
図枠
370
        18
100
AcDbLine
 10
848.5617707249
 20
-311.4291276699
 30
0.0
 11
849.8951040582
 21
-311.4291276699
 31
0.0
  0
LINE
  5
A2
100
AcDbEntity
  8
図枠
370
        18
100
AcDbLine
 10
850.6951040582
 20
-308.9342531459
 30
0.0
 11
850.3934051649
 21
-309.2359520392
 31
0.0
  0
LINE
  5
A3
100
AcDbEntity
  8
図枠
370
        18
100
AcDbLine
 10
848.5617707249
 20
-309.1060452886
 30
0.0
 11
848.5617707249
 21
-308.9342531459
 31
0.0
  0
LINE
  5
A4
100
AcDbEntity
  8
図枠
370
        18
100
AcDbLine
 10
845.0094474926
 20
-309.5624610033
 30
0.0
 11
845.0094474926
 21
-309.8291276699
 31
0.0
  0
ARC
  5
A5
100
AcDbEntity
  8
図枠
370
        18
100
AcDbCircle
 10
849.2017707249
 20
-308.6024610033
 30
0.0
 40
2.0266666667
210
0.0
220
0.0
230
1.0
100
AcDbArc
 50
331.3992813833
 51
358.4920422458
  0
ARC
  5
A6
100
AcDbEntity
  8
図枠
370
        18
100
AcDbCircle
 10
849.8951040582
 20
-308.4957943366
 30
0.0
 40
2.9333333333
210
0.0
220
0.0
230
1.0
100
AcDbArc
 50
322.4876119797
 51
0.0
  0
LINE
  5
A7
100
AcDbEntity
  8
図枠
370
        18
100
AcDbLine
 10
848.5617707249
 20
-311.4291276699
 30
0.0
 11
848.5617707249
 21
-310.6291276699
 31
0.0
  0
CIRCLE
  5
A8
100
AcDbEntity
  8
図枠
370
        18
100
AcDbCircle
 10
852.5206465819
 20
-298.2812199189
 30
0.0
 40
1.536
210
0.0
220
0.0
230
1.0
  0
MTEXT
  5
A9
100
AcDbEntity
  8
図枠
370
         5
100
AcDbMText
 10
821.8113132486
 20
-301.5849088572
 30
0.0
 40
1.5583333333
 41
6.1333333333
 71
         1
 72
         1
  1
\W0.8;\fＭＳ ゴシック;\W1.0; 設計
  0
MTEXT
  5
AA
100
AcDbEntity
  8
図枠
370
        18
100
AcDbMText
 10
828.4779799152
 20
-285.1812199189
 30
0.0
 40
1.869999973
 41
15.3333333333
 71
         2
 72
         1
  1
\W0.8;\fＭＳ ゴシック;\W1.0;材　　質
  0
LINE
  5
AB
100
AcDbEntity
  8
図枠
370
        18
100
AcDbLine
 10
842.6094474926
 20
-309.5624610033
 30
0.0
 11
842.6094474926
 21
-310.3624610033
 31
0.0
  0
LINE
  5
AC
100
AcDbEntity
  8
図枠
370
        18
100
AcDbLine
 10
842.6094474926
 20
-307.6957943366
 30
0.0
 11
842.6094474926
 21
-308.7624610033
 31
0.0
  0
LINE
  5
AD
100
AcDbEntity
  8
図枠
370
        18
100
AcDbLine
 10
855.8770503595
 20
-308.6024610033
 30
0.0
 11
855.611094804
 21
-307.6957943366
 31
0.0
  0
LINE
  5
AE
100
AcDbEntity
  8
図枠
370
        18
100
AcDbLine
 10
857.3876091272
 20
-308.6024610033
 30
0.0
 11
859.3444281373
 21
-308.6024610033
 31
0.0
  0
MTEXT
  5
AF
100
AcDbEntity
  8
図枠
370
        18
100
AcDbMText
 10
828.4779799152
 20
-288.8478865856
 30
0.0
 40
1.869999973
 41
15.3333333333
 71
         2
 72
         1
  1
\W0.8;\fＭＳ ゴシック;\W1.0;表面処理
  0
SPLINE
  5
B0
100
AcDbEntity
  8
図枠
370
        18
100
AcDbSpline
210
0.0
220
0.0
230
1.0
 70
         0
 71
         3
 72
         8
 73
         4
 74
         0
 42
0.00000001
 43
0.00000001
 40
0.0
 40
0.0
 40
0.0
 40
0.0
 40
1.0
 40
1.0
 40
1.0
 40
1.0
 10
852.12689994744858
 20
-310.37499932493756
 30
0.0
 10
852.52144354933114
 20
-310.48720649800782
 30
0.0
 10
852.94160713711096
 20
-310.55816708396253
 30
0.0
 10
853.36177072489102
 20
-310.62912766991735
 30
0.0
  0
SPLINE
  5
B1
100
AcDbEntity
  8
図枠
370
        18
100
AcDbSpline
210
0.0
220
0.0
230
1.0
 70
         0
 71
         3
 72
         9
 73
         5
 74
         0
 42
0.00000001
 43
0.00000001
 40
0.0
 40
0.0
 40
0.0
 40
0.0
 40
0.9999999993702069
 40
1.0
 40
1.0
 40
1.0
 40
1.0
 10
848.56177072489095
 20
-309.10604528856413
 30
0.0
 10
849.07089318001999
 20
-309.57534582000801
 30
0.0
 10
849.58001563546986
 20
-310.04464635174736
 30
0.0
 10
850.15591496963657
 20
-310.39047289944665
 30
0.0
 10
850.15591496999946
 20
-310.39047289966447
 30
0.0
  0
SPLINE
  5
B2
100
AcDbEntity
  8
図枠
370
        18
100
AcDbSpline
210
0.0
220
0.0
230
1.0
 70
         0
 71
         3
 72
         8
 73
         4
 74
         0
 42
0.00000001
 43
0.00000001
 40
0.0
 40
0.0
 40
0.0
 40
0.0
 40
1.0
 40
1.0
 40
1.0
 40
1.0
 10
851.4731236817446
 20
-310.9685050985272
 30
0.0
 10
852.080636367691
 20
-311.16279229357906
 30
0.0
 10
852.72120354629112
 20
-311.29595998174818
 30
0.0
 10
853.36177072489102
 20
-311.42912766991731
 30
0.0
  0
LINE
  5
B3
100
AcDbEntity
  8
図枠
370
        18
100
AcDbLine
 10
854.5444281373
 20
-309.9891276699
 30
0.0
 11
856.2838059151
 21
-309.9891276699
 31
0.0
  0
LINE
  5
B4
100
AcDbEntity
  8
図枠
370
        18
100
AcDbLine
 10
848.5617707249
 20
-307.6957943366
 30
0.0
 11
848.5617707249
 21
-308.6557943366
 31
0.0
  0
LINE
  5
B5
100
AcDbEntity
  8
図枠
370
         5
100
AcDbLine
 10
861.8113132486
 20
-295.4478865856
 30
0.0
 11
861.8113132486
 21
-312.4478865856
 31
0.0
  0
LINE
  5
B6
100
AcDbEntity
  8
図枠
370
        18
100
AcDbLine
 10
859.1036337894
 20
-296.7452199189
 30
0.0
 11
859.1036337894
 21
-299.8172199189
 31
0.0
  0
LINE
  5
B7
100
AcDbEntity
  8
図枠
370
        18
100
AcDbLine
 10
843.9427808259
 20
-310.3624610033
 30
0.0
 11
843.9427808259
 21
-309.5624610033
 31
0.0
  0
LINE
  5
B8
100
AcDbEntity
  8
図枠
370
        18
100
AcDbLine
 10
858.0628971119
 20
-310.9491276699
 30
0.0
 11
859.3444281373
 21
-310.9491276699
 31
0.0
  0
LINE
  5
B9
100
AcDbEntity
  8
図枠
370
        18
100
AcDbLine
 10
845.0094474926
 20
-307.6957943366
 30
0.0
 11
845.0094474926
 21
-308.7624610033
 31
0.0
  0
LINE
  5
BA
100
AcDbEntity
  8
図枠
370
        18
100
AcDbLine
 10
859.3444281373
 20
-309.9891276699
 30
0.0
 11
859.3444281373
 21
-310.9491276699
 31
0.0
  0
LINE
  5
BB
100
AcDbEntity
  8
図枠
370
        18
100
AcDbLine
 10
853.3617707249
 20
-310.6291276699
 30
0.0
 11
853.3617707249
 21
-311.4291276699
 31
0.0
  0
LINE
  5
BC
100
AcDbEntity
  8
図枠
370
        18
100
AcDbLine
 10
842.6094474926
 20
-309.5624610033
 30
0.0
 11
842.5288587931
 21
-309.5624610033
 31
0.0
  0
LINE
  5
BD
100
AcDbEntity
  8
図枠
370
        18
100
AcDbLine
 10
842.6094474926
 20
-310.6291276699
 30
0.0
 11
842.6094474926
 21
-311.4291276699
 31
0.0
  0
LINE
  5
BE
100
AcDbEntity
  8
図枠
370
        18
100
AcDbLine
 10
847.1427808259
 20
-308.7624610033
 30
0.0
 11
846.3427808259
 21
-308.7624610033
 31
0.0
  0
LINE
  5
BF
100
AcDbEntity
  8
図枠
370
        18
100
AcDbLine
 10
846.3427808259
 20
-308.7624610033
 30
0.0
 11
846.3427808259
 21
-308.4957943366
 31
0.0
  0
LINE
  5
C0
100
AcDbEntity
  8
図枠
370
        18
100
AcDbLine
 10
857.3876091272
 20
-308.6024610033
 30
0.0
 11
857.3095321937
 21
-308.3311389283
 31
0.0
  0
CIRCLE
  5
C1
100
AcDbEntity
  8
図枠
370
        18
100
AcDbCircle
 10
852.5206465819
 20
-298.2812199189
 30
0.0
 40
0.768
210
0.0
220
0.0
230
1.0
  0
MTEXT
  5
C2
100
AcDbEntity
  8
図枠
370
         5
100
AcDbMText
 10
841.8113132486
 20
-304.4182421905
 30
0.0
 40
1.5583333333
 41
6.1333333333
 71
         1
 72
         1
  1
\W0.8;\fＭＳ ゴシック;\W1.0; 検図
  0
MTEXT
  5
C3
100
AcDbEntity
  8
図枠
370
         5
100
AcDbMText
 10
841.8113132486
 20
-301.5849088572
 30
0.0
 40
1.5583333333
 41
6.1333333333
 71
         1
 72
         1
  1
\W0.8;\fＭＳ ゴシック;\W1.0; 照査
  0
MTEXT
  5
C4
100
AcDbEntity
  8
図枠
370
         5
100
AcDbMText
 10
824.4779799152
 20
-304.4182421905
 30
0.0
 40
1.5583333333
 41
6.1333333333
 71
         2
 72
         1
  1
\W0.8;\fＭＳ ゴシック;\W1.0;製図
  0
MTEXT
  5
C5
100
AcDbEntity
  8
図枠
370
         5
100
AcDbMText
 10
828.4779799152
 20
-295.9182421905
 30
0.0
 40
1.5583333333
 41
15.3333333333
 71
         2
 72
         1
  1
\W0.8;\fＭＳ ゴシック;\W1.0;日 　付
  0
MTEXT
  5
C6
100
AcDbEntity
  8
図枠
370
         5
100
AcDbMText
 10
864.9113132486
 20
-301.4478865856
 30
0.0
 40
1.5583333333
 41
7.13
 71
         2
 72
         1
  1
\W0.8;\fＭＳ ゴシック;\W1.0;図面名
  0
MTEXT
  5
C7
100
AcDbEntity
  8
図枠
370
         5
100
AcDbMText
 10
864.9113132486
 20
-307.1145532523
 30
0.0
 40
1.5583333333
 41
7.13
 71
         2
 72
         1
  1
\W0.8;\fＭＳ ゴシック;\W1.0;図　番
  0
MTEXT
  5
C8
100
AcDbEntity
  8
図枠
370
         5
100
AcDbMText
 10
864.9113132486
 20
-295.7812199189
 30
0.0
 40
1.5583333333
 41
7.13
 71
         2
 72
         1
  1
\W0.8;\fＭＳ ゴシック;\W1.0;製品名
  0
LINE
  5
C9
100
AcDbEntity
  8
図枠
370
        18
  6
BORDER
100
AcDbLine
 10
852.5206465819
 20
-295.9772199189
 30
0.0
 11
852.5206465819
 21
-300.5852199189
 31
0.0
  0
LINE
  5
CA
100
AcDbEntity
  8
図枠
370
        18
  6
BORDER
100
AcDbLine
 10
852.5206465819
 20
-295.9772199189
 30
0.0
 11
852.5206465819
 21
-300.5852199189
 31
0.0
  0
LINE
  5
CB
100
AcDbEntity
  8
図枠
370
        18
100
AcDbLine
 10
859.1036337894
 20
-296.7452199189
 30
0.0
 11
859.1036337894
 21
-299.8172199189
 31
0.0
  0
LINE
  5
CC
100
AcDbEntity
  8
図枠
370
        18
100
AcDbLine
 10
854.5444281373
 20
-309.5624610033
 30
0.0
 11
856.1586503595
 21
-309.5624610033
 31
0.0
  0
LINE
  5
CD
100
AcDbEntity
  8
図枠
370
        18
100
AcDbLine
 10
848.5617707249
 20
-308.9342531459
 30
0.0
 11
850.6951040582
 21
-308.9342531459
 31
0.0
  0
LINE
  5
CE
100
AcDbEntity
  8
図枠
370
        18
100
AcDbLine
 10
846.3427808259
 20
-309.8291276699
 30
0.0
 11
846.3427808259
 21
-309.5624610033
 31
0.0
  0
LINE
  5
CF
100
AcDbEntity
  8
図枠
370
        18
100
AcDbLine
 10
848.5617707249
 20
-310.6291276699
 30
0.0
 11
849.2017707249
 21
-310.6291276699
 31
0.0
  0
LINE
  5
D0
100
AcDbEntity
  8
図枠
370
        18
100
AcDbLine
 10
855.611094804
 20
-307.6957943366
 30
0.0
 11
857.7444281373
 21
-307.6957943366
 31
0.0
  0
LINE
  5
D1
100
AcDbEntity
  8
図枠
370
        18
100
AcDbLine
 10
852.8284373916
 20
-308.4957943366
 30
0.0
 11
853.3617707249
 21
-307.6957943366
 31
0.0
  0
LINE
  5
D2
100
AcDbEntity
  8
図枠
370
         5
100
AcDbLine
 10
821.8113132486
 20
-288.1145532523
 30
0.0
 11
899.1446465819
 21
-288.1145532523
 31
0.0
  0
LINE
  5
D3
100
AcDbEntity
  8
図枠
370
         5
100
AcDbLine
 10
821.8113132486
 20
-284.4478865856
 30
0.0
 11
899.1446465819
 21
-284.4478865856
 31
0.0
  0
LINE
  5
D4
100
AcDbEntity
  8
図枠
370
         5
100
AcDbLine
 10
821.8113132486
 20
-295.4478865856
 30
0.0
 11
899.1446465819
 21
-295.4478865856
 31
0.0
  0
LINE
  5
D5
100
AcDbEntity
  8
図枠
370
        18
100
AcDbLine
 10
858.2777614706
 20
-311.6957943366
 30
0.0
 11
858.0628971119
 21
-310.9491276699
 31
0.0
  0
LINE
  5
D6
100
AcDbEntity
  8
図枠
370
        18
100
AcDbLine
 10
857.7866429363
 20
-309.9891276699
 30
0.0
 11
859.3444281373
 21
-309.9891276699
 31
0.0
  0
LINE
  5
D7
100
AcDbEntity
  8
図枠
370
        18
100
AcDbLine
 10
854.5444281373
 20
-308.6024610033
 30
0.0
 11
855.8770503595
 21
-308.6024610033
 31
0.0
  0
LINE
  5
D8
100
AcDbEntity
  8
図枠
370
        18
100
AcDbLine
 10
854.5444281373
 20
-310.9491276699
 30
0.0
 11
856.5654059151
 21
-310.9491276699
 31
0.0
  0
LINE
  5
D9
100
AcDbEntity
  8
図枠
370
        18
100
AcDbLine
 10
853.3617707249
 20
-307.6957943366
 30
0.0
 11
848.5617707249
 21
-307.6957943366
 31
0.0
  0
MTEXT
  5
DA
100
AcDbEntity
  8
図枠
370
        18
100
AcDbMText
 10
828.4779799152
 20
-292.5145532523
 30
0.0
 40
1.869999973
 41
15.3333333333
 71
         2
 72
         1
  1
\W0.8;\fＭＳ ゴシック;\W1.0;一般公差
  0
LINE
  5
DB
100
AcDbEntity
  8
図枠
370
        18
  6
BORDER
100
AcDbLine
 10
852.5206465819
 20
-295.9772199189
 30
0.0
 11
852.5206465819
 21
-300.5852199189
 31
0.0
  0
LINE
  5
DC
100
AcDbEntity
  8
図枠
370
        18
100
AcDbLine
 10
859.1036337894
 20
-296.7452199189
 30
0.0
 11
859.1036337894
 21
-299.8172199189
 31
0.0
  0
LINE
  5
DD
100
AcDbEntity
  8
図枠
370
        18
100
AcDbLine
 10
843.9427808259
 20
-309.5624610033
 30
0.0
 11
845.0094474926
 21
-309.5624610033
 31
0.0
  0
LINE
  5
DE
100
AcDbEntity
  8
図枠
370
        18
100
AcDbLine
 10
856.0316337894
 20
-299.0492199189
 30
0.0
 11
859.1036337894
 21
-299.8172199189
 31
0.0
  0
LINE
  5
DF
100
AcDbEntity
  8
図枠
370
        18
100
AcDbLine
 10
856.0316337894
 20
-297.5132199189
 30
0.0
 11
859.1036337894
 21
-296.7452199189
 31
0.0
  0
CIRCLE
  5
E0
100
AcDbEntity
  8
図枠
370
        18
100
AcDbCircle
 10
852.5206465819
 20
-298.2812199189
 30
0.0
 40
1.536
210
0.0
220
0.0
230
1.0
  0
LINE
  5
E1
100
AcDbEntity
  8
図枠
370
        18
100
AcDbLine
 10
846.3427808259
 20
-308.4957943366
 30
0.0
 11
847.1427808259
 21
-307.6957943366
 31
0.0
  0
ARC
  5
E2
100
AcDbEntity
  8
図枠
370
        18
100
AcDbCircle
 10
849.8951040582
 20
-308.4957943366
 30
0.0
 40
2.9333333333
210
0.0
220
0.0
230
1.0
100
AcDbArc
 50
270.0
 51
302.544958854
  0
CIRCLE
  5
E3
100
AcDbEntity
  8
図枠
370
        18
100
AcDbCircle
 10
852.5206465819
 20
-298.2812199189
 30
0.0
 40
1.536
210
0.0
220
0.0
230
1.0
  0
LINE
  5
E4
100
AcDbEntity
  8
図枠
370
        18
100
AcDbLine
 10
841.9955254597
 20
-309.5624610033
 30
0.0
 11
842.5288587931
 21
-309.5624610033
 31
0.0
  0
LINE
  5
E5
100
AcDbEntity
  8
図枠
370
        18
100
AcDbLine
 10
844.7427808259
 20
-307.6957943366
 30
0.0
 11
842.6094474926
 21
-307.6957943366
 31
0.0
  0
LINE
  5
E6
100
AcDbEntity
  8
図枠
370
        18
100
AcDbLine
 10
843.9427808259
 20
-308.4957943366
 30
0.0
 11
844.7427808259
 21
-307.6957943366
 31
0.0
  0
LINE
  5
E7
100
AcDbEntity
  8
図枠
370
        18
100
AcDbLine
 10
842.6094474926
 20
-308.7624610033
 30
0.0
 11
841.9955254597
 21
-308.7624610033
 31
0.0
  0
ARC
  5
E8
100
AcDbEntity
  8
図枠
370
        18
100
AcDbCircle
 10
844.7427808259
 20
-309.8291276699
 30
0.0
 40
1.6
210
0.0
220
0.0
230
1.0
100
AcDbArc
 50
270.0
 51
0.0
  0
ARC
  5
E9
100
AcDbEntity
  8
図枠
370
        18
100
AcDbCircle
 10
849.2017707249
 20
-308.6024610033
 30
0.0
 40
2.0266666667
210
0.0
220
0.0
230
1.0
100
AcDbArc
 50
270.0
 51
298.0859048152
  0
LINE
  5
EA
100
AcDbEntity
  8
図枠
370
        18
100
AcDbLine
 10
857.6638633028
 20
-309.5624610033
 30
0.0
 11
859.3444281373
 21
-309.5624610033
 31
0.0
  0
MTEXT
  5
EB
100
AcDbEntity
  8
図枠
370
         5
  6
DOT
100
AcDbMText
 10
895.8113132486
 20
-129.7245532523
 30
0.0
 40
1.7991666396
 41
7.6666666667
 71
         2
 72
         1
  1
\W0.8;\fＭＳ ゴシック;\W1.0;検認者
  0
MTEXT
  5
EC
100
AcDbEntity
  8
図枠
370
         5
  6
DOT
100
AcDbMText
 10
889.1446465819
 20
-129.7245532523
 30
0.0
 40
1.7991666396
 41
7.6666666667
 71
         2
 72
         1
  1
\W0.8;\fＭＳ ゴシック;\W1.0;改訂者
  0
MTEXT
  5
ED
100
AcDbEntity
  8
図枠
370
         5
  6
DOT
100
AcDbMText
 10
839.1446465819
 20
-129.7245532523
 30
0.0
 40
1.7991666396
 41
6.1333333333
 71
         2
 72
         1
  1
\W0.8;\fＭＳ ゴシック;\W1.0;副番
  0
LINE
  5
EE
100
AcDbEntity
  8
図枠
370
        18
 62
         5
100
AcDbLine
 10
852.4779799152
 20
-139.1145532523
 30
0.0
 11
852.4779799152
 21
-129.1145532523
 31
0.0
  0
LINE
  5
EF
100
AcDbEntity
  8
図枠
370
        18
 62
         5
100
AcDbLine
 10
885.8113132486
 20
-139.1145532523
 30
0.0
 11
885.8113132486
 21
-129.1145532523
 31
0.0
  0
LINE
  5
F0
100
AcDbEntity
  8
図枠
370
        18
 62
         5
100
AcDbLine
 10
841.8113132486
 20
-139.1145532523
 30
0.0
 11
841.8113132486
 21
-129.1145532523
 31
0.0
  0
LINE
  5
F1
100
AcDbEntity
  8
図枠
370
        18
 62
         5
100
AcDbLine
 10
837.3051229912
 20
-135.4940254183
 30
0.0
 11
840.6051229912
 21
-135.4940254183
 31
0.0
  0
LINE
  5
F2
100
AcDbEntity
  8
図枠
370
        18
 62
         5
100
AcDbLine
 10
838.9551229912
 20
-132.6361415858
 30
0.0
 11
840.6051229912
 21
-135.4940254183
 31
0.0
  0
MTEXT
  5
F3
100
AcDbEntity
  8
図枠
370
         5
100
AcDbMText
 10
841.8113132486
 20
-295.9182421905
 30
0.0
 40
1.5583333333
 41
15.3333333333
 71
         2
 72
         1
  1
\W0.8;\fＭＳ ゴシック;\W1.0;尺 　度
  0
LINE
  5
F4
100
AcDbEntity
  8
図枠
370
         5
100
AcDbLine
 10
836.4779799152
 20
-298.2812199189
 30
0.0
 11
845.8113132486
 21
-298.2812199189
 31
0.0
  0
LINE
  5
F5
100
AcDbEntity
  8
図枠
370
         5
100
AcDbLine
 10
843.1446465819
 20
-303.9478865856
 30
0.0
 11
860.4779799152
 21
-303.9478865856
 31
0.0
  0
LINE
  5
F6
100
AcDbEntity
  8
図枠
370
         5
100
AcDbLine
 10
823.1446465819
 20
-303.9478865856
 30
0.0
 11
840.4779799152
 21
-303.9478865856
 31
0.0
  0
LINE
  5
F7
100
AcDbEntity
  8
図枠
370
         5
100
AcDbLine
 10
848.4779799152
 20
-295.4478865856
 30
0.0
 11
848.4779799152
 21
-301.1145532523
 31
0.0
  0
LINE
  5
F8
100
AcDbEntity
  8
図枠
370
         5
100
AcDbLine
 10
835.1446465819
 20
-295.4478865856
 30
0.0
 11
835.1446465819
 21
-301.1145532523
 31
0.0
  0
LINE
  5
F9
100
AcDbEntity
  8
図枠
370
         5
100
AcDbLine
 10
835.1446465819
 20
-295.4478865856
 30
0.0
 11
835.1446465819
 21
-284.4478865856
 31
0.0
  0
LINE
  5
FA
100
AcDbEntity
  8
図枠
370
        18
100
AcDbLine
 10
847.1427808259
 20
-308.7624610033
 30
0.0
 11
847.1427808259
 21
-309.5624610033
 31
0.0
  0
LINE
  5
FB
100
AcDbEntity
  8
図枠
370
        18
100
AcDbLine
 10
856.7844281373
 20
-311.6957943366
 30
0.0
 11
858.2777614706
 21
-311.6957943366
 31
0.0
  0
LINE
  5
FC
100
AcDbEntity
  8
図枠
370
        18
100
AcDbLine
 10
843.9427808259
 20
-308.7624610033
 30
0.0
 11
843.9427808259
 21
-308.4957943366
 31
0.0
  0
LINE
  5
FD
100
AcDbEntity
  8
図枠
370
         5
100
AcDbLine
 10
823.1446465819
 20
-298.2812199189
 30
0.0
 11
833.8113132486
 21
-298.2812199189
 31
0.0
  0
LINE
  5
FE
100
AcDbEntity
  8
図枠
370
         5
100
AcDbLine
 10
821.8113132486
 20
-284.4478865856
 30
0.0
 11
821.8113132486
 21
-295.4478865856
 31
0.0
  0
LINE
  5
FF
100
AcDbEntity
  8
図枠
370
         5
100
AcDbLine
 10
821.8113132486
 20
-295.4478865856
 30
0.0
 11
821.8113132486
 21
-312.4478865856
 31
0.0
  0
LINE
  5
100
100
AcDbEntity
  8
図枠
370
         5
100
AcDbLine
 10
821.8113132486
 20
-284.4478865856
 30
0.0
 11
821.8113132486
 21
-295.4478865856
 31
0.0
  0
LINE
  5
101
100
AcDbEntity
  8
図枠
370
         5
100
AcDbLine
 10
821.8113132486
 20
-301.1145532523
 30
0.0
 11
899.1446465819
 21
-301.1145532523
 31
0.0
  0
LINE
  5
102
100
AcDbEntity
  8
図枠
370
         5
100
AcDbLine
 10
821.8113132486
 20
-306.7812199189
 30
0.0
 11
899.1446465819
 21
-306.7812199189
 31
0.0
  0
LINE
  5
103
100
AcDbEntity
  8
図枠
370
         5
100
AcDbLine
 10
821.8113132486
 20
-291.7812199189
 30
0.0
 11
899.1446465819
 21
-291.7812199189
 31
0.0
  0
LINE
  5
104
100
AcDbEntity
  8
図枠
370
        18
 62
         5
100
AcDbLine
 10
838.9551229912
 20
-132.6361415858
 30
0.0
 11
837.3051229912
 21
-135.4940254183
 31
0.0
  0
LINE
  5
105
100
AcDbEntity
  8
図枠
370
        18
 62
         5
100
AcDbLine
 10
838.9551229912
 20
-135.9361415858
 30
0.0
 11
837.3051229912
 21
-138.7940254183
 31
0.0
  0
LINE
  5
106
100
AcDbEntity
  8
図枠
370
        18
 62
         5
100
AcDbLine
 10
838.9551229912
 20
-135.9361415858
 30
0.0
 11
840.6051229912
 21
-138.7940254183
 31
0.0
  0
LINE
  5
107
100
AcDbEntity
  8
図枠
370
        18
 62
         5
100
AcDbLine
 10
837.3051229912
 20
-138.7940254183
 30
0.0
 11
840.6051229912
 21
-138.7940254183
 31
0.0
  0
LINE
  5
108
100
AcDbEntity
  8
図枠
370
        18
 62
         5
100
AcDbLine
 10
836.4779799152
 20
-139.1145532523
 30
0.0
 11
836.4779799152
 21
-129.1145532523
 31
0.0
  0
LINE
  5
109
100
AcDbEntity
  8
図枠
370
        18
 62
         5
100
AcDbLine
 10
892.4779799152
 20
-139.1145532523
 30
0.0
 11
892.4779799152
 21
-129.1145532523
 31
0.0
  0
LINE
  5
10A
100
AcDbEntity
  8
図枠
370
        18
 62
         5
100
AcDbLine
 10
836.4779799152
 20
-132.4478865856
 30
0.0
 11
899.1446465819
 21
-132.4478865856
 31
0.0
  0
LINE
  5
10B
100
AcDbEntity
  8
図枠
370
        18
 62
         5
100
AcDbLine
 10
836.4779799152
 20
-135.7812199189
 30
0.0
 11
899.1446465819
 21
-135.7812199189
 31
0.0
  0
LINE
  5
10C
100
AcDbEntity
  8
図枠
370
        18
100
AcDbLine
 10
842.6094474926
 20
-310.3624610033
 30
0.0
 11
843.9427808259
 21
-310.3624610033
 31
0.0
  0
LINE
  5
10D
100
AcDbEntity
  8
図枠
370
        18
100
AcDbLine
 10
856.0316337894
 20
-297.5132199189
 30
0.0
 11
859.1036337894
 21
-296.7452199189
 31
0.0
  0
LINE
  5
10E
100
AcDbEntity
  8
図枠
370
        18
100
AcDbLine
 10
854.5444281373
 20
-309.9891276699
 30
0.0
 11
854.5444281373
 21
-310.9491276699
 31
0.0
  0
LINE
  5
10F
100
AcDbEntity
  8
図枠
370
        18
100
AcDbLine
 10
848.5617707249
 20
-308.6557943366
 30
0.0
 11
851.2284373916
 21
-308.6557943366
 31
0.0
  0
LINE
  5
110
100
AcDbEntity
  8
図枠
370
        18
100
AcDbLine
 10
857.3095321937
 20
-308.3311389283
 30
0.0
 11
857.7444281373
 21
-307.6957943366
 31
0.0
  0
LINE
  5
111
100
AcDbEntity
  8
図枠
370
        18
100
AcDbLine
 10
845.0094474926
 20
-308.7624610033
 30
0.0
 11
843.9427808259
 21
-308.7624610033
 31
0.0
  0
LINE
  5
112
100
AcDbEntity
  8
図枠
370
        18
100
AcDbLine
 10
847.1427808259
 20
-307.6957943366
 30
0.0
 11
845.0094474926
 21
-307.6957943366
 31
0.0
  0
LINE
  5
113
100
AcDbEntity
  8
図枠
370
        18
100
AcDbLine
 10
856.2838059151
 20
-309.9891276699
 30
0.0
 11
856.1586503595
 21
-309.5624610033
 31
0.0
  0
LINE
  5
114
100
AcDbEntity
  8
図枠
370
        18
100
AcDbLine
 10
852.8284373916
 20
-308.4957943366
 30
0.0
 11
853.3617707249
 21
-307.6957943366
 31
0.0
  0
LINE
  5
115
100
AcDbEntity
  8
図枠
370
        18
100
AcDbLine
 10
850.9811373871
 20
-309.5726321526
 30
0.0
 11
850.8528196238
 21
-309.7143592783
 31
0.0
  0
LINE
  5
116
100
AcDbEntity
  8
図枠
370
        18
100
AcDbLine
 10
852.2218877127
 20
-310.281997648
 30
0.0
 11
852.1268999474
 21
-310.3749993249
 31
0.0
  0
LINE
  5
117
100
AcDbEntity
  8
図枠
370
        18
100
AcDbLine
 10
857.7866429363
 20
-309.9891276699
 30
0.0
 11
857.6638633028
 21
-309.5624610033
 31
0.0
  0
LINE
  5
118
100
AcDbEntity
  8
図枠
370
        18
100
AcDbLine
 10
841.9955254597
 20
-308.7624610033
 30
0.0
 11
841.9955254597
 21
-309.5624610033
 31
0.0
  0
LINE
  5
119
100
AcDbEntity
  8
図枠
370
        18
100
AcDbLine
 10
848.5617707249
 20
-310.6291276699
 30
0.0
 11
848.5617707249
 21
-311.4291276699
 31
0.0
  0
LINE
  5
11A
100
AcDbEntity
  8
図枠
370
        18
 62
         5
100
AcDbLine
 10
836.4779799152
 20
-139.1145532523
 30
0.0
 11
899.1446465819
 21
-139.1145532523
 31
0.0
  0
MTEXT
  5
11B
100
AcDbEntity
  8
図枠
370
         5
100
AcDbMText
 10
847.1446465819
 20
-129.7245532523
 30
0.0
 40
1.7991666396
 41
12.2666666667
 71
         2
 72
         1
  1
\W0.8;\fＭＳ ゴシック;\W1.0;改訂日
  0
MTEXT
  5
11C
100
AcDbEntity
  8
図枠
370
         5
100
AcDbMText
 10
869.1446465819
 20
-129.7245532523
 30
0.0
 40
1.7991666396
 41
38.3333333333
 71
         2
 72
         1
  1
\W0.8;\fＭＳ ゴシック;\W1.0;改　訂　内　容
  0
ENDBLK
  5
11D
100
AcDbEntity
  8
0
100
AcDbBlockEnd
  0
BLOCK
  5
120
100
AcDbEntity
  8
0
100
AcDbBlockBegin
  2
*D1
 70
         1
 10
0.0
 20
0.0
 30
0.0
  3

  1

  0
TEXT
  5
121
100
AcDbEntity
  8
0
 62
         0
100
AcDbText
 10
800.9757464332
 20
-174.4183982078
 30
0.0
 40
1.9990741491
  1
33
100
AcDbText
  0
LINE
  5
122
100
AcDbEntity
  8
0
 62
         0
100
AcDbLine
 10
818.6516724033
 20
-190.5185448114
 30
0.0
 11
818.6516724033
 21
-175.2711759989
 31
0.0
  0
LINE
  5
123
100
AcDbEntity
  8
0
 62
         0
100
AcDbLine
 10
785.6516724033
 20
-190.5185448114
 30
0.0
 11
785.6516724033
 21
-175.2711759989
 31
0.0
  0
LINE
  5
124
100
AcDbEntity
  8
0
 62
         0
100
AcDbLine
 10
818.6516724033
 20
-175.7711759989
 30
0.0
 11
804.5035243435
 21
-175.7711759989
 31
0.0
  0
LINE
  5
125
100
AcDbEntity
  8
0
 62
         0
100
AcDbLine
 10
818.6516724033
 20
-175.7711759989
 30
0.0
 11
799.7998204632
 21
-175.7711759989
 31
0.0
  0
LINE
  5
126
100
AcDbEntity
  8
0
 62
         0
100
AcDbLine
 10
785.6516724033
 20
-175.7711759989
 30
0.0
 11
804.5035243435
 21
-175.7711759989
 31
0.0
  0
LINE
  5
127
100
AcDbEntity
  8
0
 62
         0
100
AcDbLine
 10
785.6516724033
 20
-175.7711759989
 30
0.0
 11
799.7998204632
 21
-175.7711759989
 31
0.0
  0
LINE
  5
128
100
AcDbEntity
  8
0
 62
         0
100
AcDbLine
 10
785.6516724033
 20
-175.7711759989
 30
0.0
 11
788.6516724033
 21
-175.7711759989
 31
0.0
  0
SOLID
  5
129
100
AcDbEntity
  8
0
 62
         0
100
AcDbTrace
 10
785.6516724033
 20
-175.7711759989
 30
0.0
 11
787.6516724033
 21
-175.2711759989
 31
0.0
 12
787.6516724033
 22
-176.2711759989
 32
0.0
 13
787.1516724033
 23
-175.7711759989
 33
0.0
  0
LINE
  5
12A
100
AcDbEntity
  8
0
 62
         0
100
AcDbLine
 10
818.6516724033
 20
-175.7711759989
 30
0.0
 11
815.6516724033
 21
-175.7711759989
 31
0.0
  0
SOLID
  5
12B
100
AcDbEntity
  8
0
 62
         0
100
AcDbTrace
 10
818.6516724033
 20
-175.7711759989
 30
0.0
 11
816.6516724033
 21
-176.2711759989
 31
0.0
 12
816.6516724033
 22
-175.2711759989
 32
0.0
 13
817.1516724033
 23
-175.7711759989
 33
0.0
  0
ENDBLK
  5
12C
100
AcDbEntity
  8
0
100
AcDbBlockEnd
  0
BLOCK
  5
131
100
AcDbEntity
  8
0
100
AcDbBlockBegin
  2
*D2
 70
         1
 10
0.0
 20
0.0
 30
0.0
  3

  1

  0
TEXT
  5
132
100
AcDbEntity
  8
0
 62
         0
100
AcDbText
 10
800.9757464332
 20
-180.1986576382
 30
0.0
 40
1.9990741491
  1
12
100
AcDbText
  0
LINE
  5
133
100
AcDbEntity
  8
0
 62
         0
100
AcDbLine
 10
808.1516724033
 20
-192.5185448114
 30
0.0
 11
808.1516724033
 21
-180.8847687725
 31
0.0
  0
LINE
  5
134
100
AcDbEntity
  8
0
 62
         0
100
AcDbLine
 10
796.1516724033
 20
-192.5185448114
 30
0.0
 11
796.1516724033
 21
-180.8847687725
 31
0.0
  0
LINE
  5
135
100
AcDbEntity
  8
0
 62
         0
100
AcDbLine
 10
808.1516724033
 20
-181.2181021158
 30
0.0
 11
804.5035243435
 21
-181.2181021158
 31
0.0
  0
LINE
  5
136
100
AcDbEntity
  8
0
 62
         0
100
AcDbLine
 10
808.1516724033
 20
-181.2181021158
 30
0.0
 11
799.7998204632
 21
-181.2181021158
 31
0.0
  0
LINE
  5
137
100
AcDbEntity
  8
0
 62
         0
100
AcDbLine
 10
796.1516724033
 20
-181.2181021158
 30
0.0
 11
804.5035243435
 21
-181.2181021158
 31
0.0
  0
LINE
  5
138
100
AcDbEntity
  8
0
 62
         0
100
AcDbLine
 10
796.1516724033
 20
-181.2181021158
 30
0.0
 11
799.7998204632
 21
-181.2181021158
 31
0.0
  0
LINE
  5
139
100
AcDbEntity
  8
0
 62
         0
100
AcDbLine
 10
796.1516724033
 20
-181.2181021158
 30
0.0
 11
798.1516724033
 21
-181.2181021158
 31
0.0
  0
SOLID
  5
13A
100
AcDbEntity
  8
0
 62
         0
100
AcDbTrace
 10
796.1516724033
 20
-181.2181021158
 30
0.0
 11
798.1516724033
 21
-180.7181021158
 31
0.0
 12
798.1516724033
 22
-181.7181021158
 32
0.0
 13
797.6516724033
 23
-181.2181021158
 33
0.0
  0
LINE
  5
13B
100
AcDbEntity
  8
0
 62
         0
100
AcDbLine
 10
808.1516724033
 20
-181.2181021158
 30
0.0
 11
806.1516724033
 21
-181.2181021158
 31
0.0
  0
SOLID
  5
13C
100
AcDbEntity
  8
0
 62
         0
100
AcDbTrace
 10
808.1516724033
 20
-181.2181021158
 30
0.0
 11
806.1516724033
 21
-181.7181021158
 31
0.0
 12
806.1516724033
 22
-180.7181021158
 32
0.0
 13
806.6516724033
 23
-181.2181021158
 33
0.0
  0
ENDBLK
  5
13D
100
AcDbEntity
  8
0
100
AcDbBlockEnd
  0
BLOCK
  5
140
100
AcDbEntity
  8
0
100
AcDbBlockBegin
  2
*D3
 70
         1
 10
0.0
 20
0.0
 30
0.0
  3

  1

  0
TEXT
  5
141
100
AcDbEntity
  8
0
 62
         0
100
AcDbText
 10
866.599506809
 20
-179.1141453481
 30
0.0
 40
1.9990741491
  1
39.5
100
AcDbText
  0
LINE
  5
142
100
AcDbEntity
  8
0
 62
         0
100
AcDbLine
 10
888.7013587491
 20
-191.9879303789
 30
0.0
 11
888.7013587491
 21
-179.8002564824
 31
0.0
  0
LINE
  5
143
100
AcDbEntity
  8
0
 62
         0
100
AcDbLine
 10
849.2013587491
 20
-192.5185448114
 30
0.0
 11
849.2013587491
 21
-179.8002564824
 31
0.0
  0
LINE
  5
144
100
AcDbEntity
  8
0
 62
         0
100
AcDbLine
 10
888.7013587491
 20
-180.1335898257
 30
0.0
 11
872.4791366593
 21
-180.1335898257
 31
0.0
  0
LINE
  5
145
100
AcDbEntity
  8
0
 62
         0
100
AcDbLine
 10
888.7013587491
 20
-180.1335898257
 30
0.0
 11
865.4235808389
 21
-180.1335898257
 31
0.0
  0
LINE
  5
146
100
AcDbEntity
  8
0
 62
         0
100
AcDbLine
 10
849.2013587491
 20
-180.1335898257
 30
0.0
 11
872.4791366593
 21
-180.1335898257
 31
0.0
  0
LINE
  5
147
100
AcDbEntity
  8
0
 62
         0
100
AcDbLine
 10
849.2013587491
 20
-180.1335898257
 30
0.0
 11
865.4235808389
 21
-180.1335898257
 31
0.0
  0
LINE
  5
148
100
AcDbEntity
  8
0
 62
         0
100
AcDbLine
 10
849.2013587491
 20
-180.1335898257
 30
0.0
 11
851.2013587491
 21
-180.1335898257
 31
0.0
  0
SOLID
  5
149
100
AcDbEntity
  8
0
 62
         0
100
AcDbTrace
 10
849.2013587491
 20
-180.1335898257
 30
0.0
 11
851.2013587491
 21
-179.6335898257
 31
0.0
 12
851.2013587491
 22
-180.6335898257
 32
0.0
 13
850.7013587491
 23
-180.1335898257
 33
0.0
  0
LINE
  5
14A
100
AcDbEntity
  8
0
 62
         0
100
AcDbLine
 10
888.7013587491
 20
-180.1335898257
 30
0.0
 11
886.7013587491
 21
-180.1335898257
 31
0.0
  0
SOLID
  5
14B
100
AcDbEntity
  8
0
 62
         0
100
AcDbTrace
 10
888.7013587491
 20
-180.1335898257
 30
0.0
 11
886.7013587491
 21
-180.6335898257
 31
0.0
 12
886.7013587491
 22
-179.6335898257
 32
0.0
 13
887.2013587491
 23
-180.1335898257
 33
0.0
  0
ENDBLK
  5
14C
100
AcDbEntity
  8
0
100
AcDbBlockEnd
  0
BLOCK
  5
14F
100
AcDbEntity
  8
0
100
AcDbBlockBegin
  2
*D4
 70
         1
 10
0.0
 20
0.0
 30
0.0
  3

  1

  0
TEXT
  5
150
100
AcDbEntity
  8
0
 62
         0
100
AcDbText
 10
860.9235658796
 20
-173.2892792419
 30
0.0
 40
1.9990741491
  1
(48.5)
100
AcDbText
  0
LINE
  5
151
100
AcDbEntity
  8
0
 62
         0
100
AcDbLine
 10
888.7013288306
 20
-191.9859736279
 30
0.0
 11
888.7013288306
 21
-173.9753903762
 31
0.0
  0
LINE
  5
152
100
AcDbEntity
  8
0
 62
         0
100
AcDbLine
 10
840.2013587491
 20
-207.9076157514
 30
0.0
 11
840.2013587491
 21
-173.9753903762
 31
0.0
  0
LINE
  5
153
100
AcDbEntity
  8
0
 62
         0
100
AcDbLine
 10
888.7013288306
 20
-174.3087237194
 30
0.0
 11
869.1550476702
 21
-174.3087237194
 31
0.0
  0
LINE
  5
154
100
AcDbEntity
  8
0
 62
         0
100
AcDbLine
 10
888.7013288306
 20
-174.3087237194
 30
0.0
 11
859.7476399096
 21
-174.3087237194
 31
0.0
  0
LINE
  5
155
100
AcDbEntity
  8
0
 62
         0
100
AcDbLine
 10
840.2013587491
 20
-174.3087237194
 30
0.0
 11
869.1550476702
 21
-174.3087237194
 31
0.0
  0
LINE
  5
156
100
AcDbEntity
  8
0
 62
         0
100
AcDbLine
 10
840.2013587491
 20
-174.3087237194
 30
0.0
 11
859.7476399096
 21
-174.3087237194
 31
0.0
  0
LINE
  5
157
100
AcDbEntity
  8
0
 62
         0
100
AcDbLine
 10
840.2013587491
 20
-174.3087237194
 30
0.0
 11
842.2013587491
 21
-174.3087237194
 31
0.0
  0
SOLID
  5
158
100
AcDbEntity
  8
0
 62
         0
100
AcDbTrace
 10
840.2013587491
 20
-174.3087237194
 30
0.0
 11
842.2013587491
 21
-173.8087237194
 31
0.0
 12
842.2013587491
 22
-174.8087237194
 32
0.0
 13
841.7013587491
 23
-174.3087237194
 33
0.0
  0
LINE
  5
159
100
AcDbEntity
  8
0
 62
         0
100
AcDbLine
 10
888.7013288306
 20
-174.3087237194
 30
0.0
 11
886.7013288306
 21
-174.3087237194
 31
0.0
  0
SOLID
  5
15A
100
AcDbEntity
  8
0
 62
         0
100
AcDbTrace
 10
888.7013288306
 20
-174.3087237194
 30
0.0
 11
886.7013288306
 21
-174.8087237194
 31
0.0
 12
886.7013288306
 22
-173.8087237194
 32
0.0
 13
887.2013288306
 23
-174.3087237194
 33
0.0
  0
ENDBLK
  5
15B
100
AcDbEntity
  8
0
100
AcDbBlockEnd
  0
BLOCK
  5
15E
100
AcDbEntity
  8
0
100
AcDbBlockBegin
  2
*D5
 70
         1
 10
0.0
 20
0.0
 30
0.0
  3

  1

  0
TEXT
  5
15F
100
AcDbEntity
  8
0
 62
         0
100
AcDbText
 10
833.9469626404
 20
-209.1944707815
 30
0.0
 40
1.9990741491
  1
37
 50
90.0
100
AcDbText
  0
LINE
  5
160
100
AcDbEntity
  8
0
 62
         0
100
AcDbLine
 10
852.2013587491
 20
-189.5185448114
 30
0.0
 11
834.6330737747
 21
-189.5185448114
 31
0.0
  0
LINE
  5
161
100
AcDbEntity
  8
0
 62
         0
100
AcDbLine
 10
846.7013587491
 20
-226.5185448114
 30
0.0
 11
834.6330737747
 21
-226.5185448114
 31
0.0
  0
LINE
  5
162
100
AcDbEntity
  8
0
 62
         0
100
AcDbLine
 10
834.9664071179
 20
-189.5185448114
 30
0.0
 11
834.9664071179
 21
-205.6666928713
 31
0.0
  0
LINE
  5
163
100
AcDbEntity
  8
0
 62
         0
100
AcDbLine
 10
834.9664071179
 20
-189.5185448114
 30
0.0
 11
834.9664071179
 21
-210.3703967516
 31
0.0
  0
LINE
  5
164
100
AcDbEntity
  8
0
 62
         0
100
AcDbLine
 10
834.9664071179
 20
-226.5185448114
 30
0.0
 11
834.9664071179
 21
-205.6666928713
 31
0.0
  0
LINE
  5
165
100
AcDbEntity
  8
0
 62
         0
100
AcDbLine
 10
834.9664071179
 20
-226.5185448114
 30
0.0
 11
834.9664071179
 21
-210.3703967516
 31
0.0
  0
LINE
  5
166
100
AcDbEntity
  8
0
 62
         0
100
AcDbLine
 10
834.9664071179
 20
-226.5185448114
 30
0.0
 11
834.9664071179
 21
-224.5185448114
 31
0.0
  0
SOLID
  5
167
100
AcDbEntity
  8
0
 62
         0
100
AcDbTrace
 10
834.9664071179
 20
-226.5185448114
 30
0.0
 11
834.4664071179
 21
-224.5185448114
 31
0.0
 12
835.4664071179
 22
-224.5185448114
 32
0.0
 13
834.9664071179
 23
-225.0185448114
 33
0.0
  0
LINE
  5
168
100
AcDbEntity
  8
0
 62
         0
100
AcDbLine
 10
834.9664071179
 20
-189.5185448114
 30
0.0
 11
834.9664071179
 21
-191.5185448114
 31
0.0
  0
SOLID
  5
169
100
AcDbEntity
  8
0
 62
         0
100
AcDbTrace
 10
834.9664071179
 20
-189.5185448114
 30
0.0
 11
835.4664071179
 21
-191.5185448114
 31
0.0
 12
834.4664071179
 22
-191.5185448114
 32
0.0
 13
834.9664071179
 23
-191.0185448114
 33
0.0
  0
ENDBLK
  5
16A
100
AcDbEntity
  8
0
100
AcDbBlockEnd
  0
ENDSEC
  0
SECTION
  2
ENTITIES
  0
ARC
  5
2F
100
AcDbEntity
  8
ﾚｲﾔｰ1
370
        18
 62
         5
100
AcDbCircle
 10
848.7013587491
 20
-222.5185448114
 30
0.0
 40
3.0
210
0.0
220
0.0
230
1.0
100
AcDbArc
 50
90.0
 51
180.0
  0
LINE
  5
30
100
AcDbEntity
  8
ﾚｲﾔｰ1
370
        18
 62
         5
100
AcDbLine
 10
845.7013587491
 20
-222.5185448114
 30
0.0
 11
845.7013587491
 21
-224.5185448114
 31
0.0
  0
LINE
  5
31
100
AcDbEntity
  8
ﾚｲﾔｰ1
370
        18
 62
         5
100
AcDbLine
 10
850.7013587491
 20
-219.5185448114
 30
0.0
 11
848.7013587491
 21
-219.5185448114
 31
0.0
  0
ARC
  5
32
100
AcDbEntity
  8
ﾚｲﾔｰ1
370
        18
 62
         5
100
AcDbCircle
 10
847.7013587491
 20
-224.5185448114
 30
0.0
 40
2.0
210
0.0
220
0.0
230
1.0
100
AcDbArc
 50
180.0
 51
270.0
  0
ARC
  5
33
100
AcDbEntity
  8
ﾚｲﾔｰ1
370
        18
 62
         5
100
AcDbCircle
 10
853.2013587491
 20
-193.5185448114
 30
0.0
 40
4.0
210
0.0
220
0.0
230
1.0
100
AcDbArc
 50
87.5
 51
179.9999945796
  0
LINE
  5
34
100
AcDbEntity
  8
ﾚｲﾔｰ1
370
        18
 62
         5
100
AcDbLine
 10
849.2013587491
 20
-193.518544433
 30
0.0
 11
849.2013587491
 21
-219.5185448114
 31
0.0
  0
LINE
  5
35
100
AcDbEntity
  8
ﾚｲﾔｰ1
370
        18
 62
         5
100
AcDbLine
 10
785.6516724033
 20
-219.5185448114
 30
0.0
 11
785.6516724033
 21
-226.5185448114
 31
0.0
  0
LINE
  5
36
100
AcDbEntity
  8
ﾚｲﾔｰ1
370
        18
 62
         5
100
AcDbLine
 10
818.6516724033
 20
-219.5185448114
 30
0.0
 11
818.6516724033
 21
-226.5185448114
 31
0.0
  0
LINE
  5
37
100
AcDbEntity
  8
ﾚｲﾔｰ1
370
        18
 62
         5
100
AcDbLine
 10
785.6516724033
 20
-226.5185448114
 30
0.0
 11
818.6516724033
 21
-226.5185448114
 31
0.0
  0
ARC
  5
38
100
AcDbEntity
  8
ﾚｲﾔｰ1
370
        18
 62
         5
100
AcDbCircle
 10
802.1516724033
 20
-203.5185448114
 30
0.0
 40
6.0
210
0.0
220
0.0
230
1.0
100
AcDbArc
 50
180.0000093105
 51
359.999998189
  0
ARC
  5
39
100
AcDbEntity
  8
ﾚｲﾔｰ1
370
        18
 62
         5
100
AcDbCircle
 10
802.1516724033
 20
-206.5185448114
 30
0.0
 40
6.0
210
0.0
220
0.0
230
1.0
100
AcDbArc
 50
180.0000093105
 51
359.999998189
  0
LINE
  5
3A
100
AcDbEntity
  8
ﾚｲﾔｰ1
370
        18
 62
         5
100
AcDbLine
 10
796.1516724033
 20
-193.5185448114
 30
0.0
 11
796.1516724033
 21
-206.5185457864
 31
0.0
  0
LINE
  5
3B
100
AcDbEntity
  8
ﾚｲﾔｰ1
370
        18
 62
         5
100
AcDbLine
 10
808.1516724033
 20
-193.5185448114
 30
0.0
 11
808.1516724033
 21
-206.5185450011
 31
0.0
  0
LINE
  5
3C
100
AcDbEntity
  8
ﾚｲﾔｰ1
370
         5
  6
BORDER
 62
         3
100
AcDbLine
 10
802.1516724033
 20
-184.5185448114
 30
0.0
 11
802.1516724033
 21
-231.5185448114
 31
0.0
  0
LINE
  5
3D
100
AcDbEntity
  8
ﾚｲﾔｰ1
370
        18
 62
         5
100
AcDbLine
 10
888.7005342121
 20
-193.0993914991
 30
0.0
 11
888.6411019735
 21
-195.1004227096
 31
0.0
  0
LINE
  5
3E
100
AcDbEntity
  8
ﾚｲﾔｰ1
370
         5
  6
STITCH
100
AcDbLine
 10
887.201195378
 20
-193.0548599282
 30
0.0
 11
887.1417972025
 21
-195.0547442691
 31
0.0
  0
LINE
  5
3F
100
AcDbEntity
  8
ﾚｲﾔｰ1
370
        18
 62
         5
100
AcDbLine
 10
855.7901258756
 20
-194.1340512331
 30
0.0
 11
888.6411019735
 21
-195.1004227096
 31
0.0
  0
ARC
  5
40
100
AcDbEntity
  8
ﾚｲﾔｰ1
370
         5
  6
STITCH
100
AcDbCircle
 10
886.2016361554
 20
-193.0251722142
 30
0.0
 40
1.0
210
0.0
220
0.0
230
1.0
100
AcDbArc
 50
358.298769326
 51
88.298769326
  0
ARC
  5
41
100
AcDbEntity
  8
ﾚｲﾔｰ1
370
        18
 62
         5
100
AcDbCircle
 10
886.2016361554
 20
-193.0251722142
 30
0.0
 40
2.5
210
0.0
220
0.0
230
1.0
100
AcDbArc
 50
358.298769326
 51
88.298769326
  0
LINE
  5
42
100
AcDbEntity
  8
ﾚｲﾔｰ1
370
         5
  6
STITCH
100
AcDbLine
 10
853.3104072175
 20
-191.0209242575
 30
0.0
 11
886.2313238693
 21
-192.0256129915
 31
0.0
  0
LINE
  5
43
100
AcDbEntity
  8
ﾚｲﾔｰ1
370
        18
 62
         5
100
AcDbLine
 10
853.3560915427
 20
-189.5216201047
 30
0.0
 11
886.2770081944
 21
-190.5263088388
 31
0.0
  0
LINE
  5
44
100
AcDbEntity
  8
ﾚｲﾔｰ1
370
        18
 62
         5
100
AcDbLine
 10
841.5713097277
 20
-209.5185448114
 30
0.0
 11
840.2013587491
 21
-208.9076157514
 31
0.0
  0
LINE
  5
45
100
AcDbEntity
  8
ﾚｲﾔｰ1
370
        18
 62
         5
100
AcDbLine
 10
845.9133100646
 20
-196.4754425631
 30
0.0
 11
840.2013587491
 21
-208.9076157514
 31
0.0
  0
LINE
  5
46
100
AcDbEntity
  8
ﾚｲﾔｰ1
370
        18
 62
         5
100
AcDbLine
 10
847.2762271166
 20
-197.1016811012
 30
0.0
 11
841.5713097277
 21
-209.5185448114
 31
0.0
  0
ARC
  5
47
100
AcDbEntity
  8
ﾚｲﾔｰ1
370
        18
 62
         5
100
AcDbCircle
 10
850.4567120664
 20
-198.5629047186
 30
0.0
 40
5.0
210
0.0
220
0.0
230
1.0
100
AcDbArc
 50
104.5408775701
 51
155.323624896
  0
ARC
  5
48
100
AcDbEntity
  8
ﾚｲﾔｰ1
370
        18
 62
         5
100
AcDbCircle
 10
850.4566085178
 20
-198.56290461
 30
0.0
 40
3.5
210
0.0
220
0.0
230
1.0
100
AcDbArc
 50
111.016868551
 51
155.323624896
  0
ARC
  5
49
100
AcDbEntity
  8
ﾚｲﾔｰ1
370
         5
  6
STITCH
100
AcDbCircle
 10
850.4566085178
 20
-198.56290461
 30
0.0
 40
3.5
210
0.0
220
0.0
230
1.0
100
AcDbArc
 50
104.5396517292
 51
111.016868551
  0
LINE
  5
4A
100
AcDbEntity
  8
ﾚｲﾔｰ1
370
         5
  6
STITCH
100
AcDbLine
 10
850.7013587491
 20
-193.7230343356
 30
0.0
 11
850.7013587491
 21
-216.5185448114
 31
0.0
  0
ARC
  5
4B
100
AcDbEntity
  8
ﾚｲﾔｰ1
370
         5
  6
STITCH
100
AcDbCircle
 10
849.2013587491
 20
-193.7230339487
 30
0.0
 40
1.5
210
0.0
220
0.0
230
1.0
100
AcDbArc
 50
284.5396517292
 51
0.0
  0
LINE
  5
4C
100
AcDbEntity
  8
ﾚｲﾔｰ1
370
         5
  6
STITCH
100
AcDbLine
 10
808.1516724033
 20
-195.0185448114
 30
0.0
 11
796.1516724033
 21
-195.0185448114
 31
0.0
  0
LINE
  5
4D
100
AcDbEntity
  8
ﾚｲﾔｰ1
370
         5
  6
STITCH
100
AcDbLine
 10
849.2013587491
 20
-212.5185448114
 30
0.0
 11
850.7013587491
 21
-212.5185448114
 31
0.0
  0
LINE
  5
4E
100
AcDbEntity
  8
ﾚｲﾔｰ1
370
        18
 62
         5
100
AcDbLine
 10
808.1516724033
 20
-193.5185448114
 30
0.0
 11
796.1516724033
 21
-193.5185448114
 31
0.0
  0
ARC
  5
4F
100
AcDbEntity
  8
ﾚｲﾔｰ1
370
        18
 62
         5
100
AcDbCircle
 10
787.6516724033
 20
-191.5185448114
 30
0.0
 40
2.0
210
0.0
220
0.0
230
1.0
100
AcDbArc
 50
90.0
 51
180.0
  0
ARC
  5
50
100
AcDbEntity
  8
ﾚｲﾔｰ1
370
         5
  6
STITCH
100
AcDbCircle
 10
787.6516724033
 20
-191.5185448114
 30
0.0
 40
0.5
210
0.0
220
0.0
230
1.0
100
AcDbArc
 50
90.0
 51
180.0
  0
LINE
  5
51
100
AcDbEntity
  8
ﾚｲﾔｰ1
370
         5
  6
STITCH
100
AcDbLine
 10
816.6516724033
 20
-191.0185448114
 30
0.0
 11
787.6516724033
 21
-191.0185448114
 31
0.0
  0
LINE
  5
52
100
AcDbEntity
  8
ﾚｲﾔｰ1
370
        18
 62
         5
100
AcDbLine
 10
816.6516724033
 20
-189.5185448114
 30
0.0
 11
787.6516724033
 21
-189.5185448114
 31
0.0
  0
ARC
  5
53
100
AcDbEntity
  8
ﾚｲﾔｰ1
370
        18
 62
         5
100
AcDbCircle
 10
816.6516724033
 20
-191.5185448114
 30
0.0
 40
2.0
210
0.0
220
0.0
230
1.0
100
AcDbArc
 50
0.0
 51
90.0
  0
ARC
  5
54
100
AcDbEntity
  8
ﾚｲﾔｰ1
370
         5
  6
STITCH
100
AcDbCircle
 10
816.6516724033
 20
-191.5185448114
 30
0.0
 40
0.5
210
0.0
220
0.0
230
1.0
100
AcDbArc
 50
0.0
 51
90.0
  0
ARC
  5
55
100
AcDbEntity
  8
ﾚｲﾔｰ1
370
         5
  6
STITCH
100
AcDbCircle
 10
853.2013587491
 20
-193.5185448114
 30
0.0
 40
2.5
210
0.0
220
0.0
230
1.0
100
AcDbArc
 50
87.5
 51
180.0
  0
LINE
  5
56
100
AcDbEntity
  8
ﾚｲﾔｰ1
370
        18
 62
         5
100
AcDbLine
 10
850.7013587491
 20
-226.5185448114
 30
0.0
 11
847.7013587491
 21
-226.5185448114
 31
0.0
  0
LINE
  5
57
100
AcDbEntity
  8
ﾚｲﾔｰ1
370
         5
  6
STITCH
100
AcDbLine
 10
849.2013587491
 20
-219.5185448114
 30
0.0
 11
849.2013587491
 21
-226.5185448114
 31
0.0
  0
LINE
  5
58
100
AcDbEntity
  8
ﾚｲﾔｰ1
370
        18
 62
         5
100
AcDbLine
 10
850.7013587491
 20
-216.5185448114
 30
0.0
 11
850.7013587491
 21
-226.5185448114
 31
0.0
  0
ARC
  5
59
100
AcDbEntity
  8
ﾚｲﾔｰ1
370
        18
 62
         5
100
AcDbCircle
 10
851.2013587491
 20
-214.0185448114
 30
0.0
 40
2.5
210
0.0
220
0.0
230
1.0
100
AcDbArc
 50
270.0
 51
0.0
  0
LINE
  5
5A
100
AcDbEntity
  8
ﾚｲﾔｰ1
370
        18
 62
         5
100
AcDbLine
 10
851.2013587491
 20
-216.5185448114
 30
0.0
 11
849.2013587491
 21
-216.5185448114
 31
0.0
  0
LINE
  5
5B
100
AcDbEntity
  8
ﾚｲﾔｰ1
370
        18
 62
         5
100
AcDbLine
 10
853.7013587491
 20
-196.1320803614
 30
0.0
 11
853.7013587491
 21
-214.0185448114
 31
0.0
  0
ARC
  5
5C
100
AcDbEntity
  8
ﾚｲﾔｰ1
370
        18
 62
         5
100
AcDbCircle
 10
855.7013587491
 20
-196.1320803614
 30
0.0
 40
2.0
210
0.0
220
0.0
230
1.0
100
AcDbArc
 50
87.4561735002
 51
180.0
  0
LINE
  5
5D
100
AcDbEntity
  8
ﾚｲﾔｰ1
370
        18
 62
         5
100
AcDbLine
 10
817.1516724033
 20
-216.5185448114
 30
0.0
 11
817.1516724033
 21
-226.5185448114
 31
0.0
  0
LINE
  5
5E
100
AcDbEntity
  8
ﾚｲﾔｰ1
370
        18
 62
         5
100
AcDbLine
 10
818.6516724033
 20
-216.5185448114
 30
0.0
 11
817.1516724033
 21
-216.5185448114
 31
0.0
  0
LINE
  5
5F
100
AcDbEntity
  8
ﾚｲﾔｰ1
370
        18
 62
         5
100
AcDbLine
 10
787.1516724033
 20
-216.5185448114
 30
0.0
 11
787.1516724033
 21
-226.5185448114
 31
0.0
  0
LINE
  5
60
100
AcDbEntity
  8
ﾚｲﾔｰ1
370
        18
 62
         5
100
AcDbLine
 10
785.6516724033
 20
-216.5185448114
 30
0.0
 11
787.1516724033
 21
-216.5185448114
 31
0.0
  0
LINE
  5
61
100
AcDbEntity
  8
ﾚｲﾔｰ1
370
        18
 62
         5
100
AcDbLine
 10
785.6516724033
 20
-191.5185448114
 30
0.0
 11
785.6516724033
 21
-216.5185448114
 31
0.0
  0
LINE
  5
62
100
AcDbEntity
  8
ﾚｲﾔｰ1
370
         5
  6
STITCH
100
AcDbLine
 10
787.1516724033
 20
-191.5185448114
 30
0.0
 11
787.1516724033
 21
-216.5185448114
 31
0.0
  0
LINE
  5
63
100
AcDbEntity
  8
ﾚｲﾔｰ1
370
         5
  6
STITCH
100
AcDbLine
 10
817.1516724033
 20
-191.5185448114
 30
0.0
 11
817.1516724033
 21
-216.5185448114
 31
0.0
  0
LINE
  5
64
100
AcDbEntity
  8
ﾚｲﾔｰ1
370
        18
 62
         5
100
AcDbLine
 10
818.6516724033
 20
-191.5185448114
 30
0.0
 11
818.6516724033
 21
-216.5185448114
 31
0.0
  0
LINE
  5
65
100
AcDbEntity
  8
ﾚｲﾔｰ1
370
        18
 62
         5
100
AcDbLine
 10
787.1516724033
 20
-219.5185448114
 30
0.0
 11
785.6516724033
 21
-219.5185448114
 31
0.0
  0
LINE
  5
66
100
AcDbEntity
  8
ﾚｲﾔｰ1
370
        18
 62
         5
100
AcDbLine
 10
817.1516724033
 20
-219.5185448114
 30
0.0
 11
818.6516724033
 21
-219.5185448114
 31
0.0
  0
MTEXT
  5
68
100
AcDbEntity
  8
図枠
370
         5
  6
DOT
100
AcDbMText
 10
883.4414797331
 20
-308.4378865856
 30
0.0
 40
1.7991666396
 41
36.1172837522
 71
         2
 72
         1
  1
\W0.8;\fＭＳ ゴシック;\W1.0;SLW00004
  0
MTEXT
  5
69
100
AcDbEntity
  8
図枠
370
         5
  6
DOT
100
AcDbMText
 10
883.4414797331
 20
-297.1045532523
 30
0.0
 40
1.7991666396
 41
36.1172837522
 71
         2
 72
         1
  1
\W0.8;\fＭＳ ゴシック;\W1.0;ワイド棚柱用フック
  0
MTEXT
  5
6A
100
AcDbEntity
  8
図枠
370
         5
  6
DOT
100
AcDbMText
 10
883.4414797331
 20
-302.7712199189
 30
0.0
 40
1.7991666396
 41
36.1172837522
 71
         2
 72
         1
  1
\W0.8;\fＭＳ ゴシック;\W1.0;ＷＴ-００１
  0
MTEXT
  5
6B
100
AcDbEntity
  8
図枠
370
        18
100
AcDbMText
 10
867.1446465819
 20
-288.8478865856
 30
0.0
 40
1.7991666396
 41
73.6
 71
         2
 72
         1
  1
\W0.8;\fＭＳ ゴシック;\W1.0;バレル・電解研磨仕上げ
  0
MTEXT
  5
6C
100
AcDbEntity
  8
図枠
370
         5
  6
DOT
100
AcDbMText
 10
854.4779799152
 20
-304.4182421905
 30
0.0
 40
1.5583333333
 41
16.8666666667
 71
         2
 72
         1
  1
\W0.8;\fＭＳ ゴシック;\W1.0;柳原
  0
MTEXT
  5
6E
100
AcDbEntity
  8
改訂
370
         5
100
AcDbMText
 10
869.1446465819
 20
-133.0555341425
 30
0.0
 40
1.7991666396
 41
38.3333333333
 71
         2
 72
         1
  1
\W0.8;\fＭＳ ゴシック;\W1.0;XXXXXXXXXXXXXXXXXXXXXXXX
  0
MTEXT
  5
6F
100
AcDbEntity
  8
改訂
370
         5
100
AcDbMText
 10
838.9551229912
 20
-133.4608147584
 30
0.0
 40
1.7991666451
 41
2.426872638
 71
         2
 72
         1
  1
\W0.8;\fＭＳ ゴシック;\W1.0;1
  0
MTEXT
  5
70
100
AcDbEntity
  8
改訂
370
         5
100
AcDbMText
 10
847.1446465819
 20
-133.0578865856
 30
0.0
 40
1.7991666396
 41
12.2666666667
 71
         2
 72
         1
  1
\W0.8;\fＭＳ ゴシック;\W1.0;HXX.XX.XX
  0
MTEXT
  5
71
100
AcDbEntity
  8
改訂
370
         5
  6
DOT
100
AcDbMText
 10
889.1446465819
 20
-133.0578865856
 30
0.0
 40
1.7991666396
 41
7.6666666667
 71
         2
 72
         1
  1
\W0.8;\fＭＳ ゴシック;\W1.0;＊＊
  0
MTEXT
  5
72
100
AcDbEntity
  8
図枠
370
        18
100
AcDbMText
 10
847.4779799152
 20
-285.0145532523
 30
0.0
 40
2.1533333063
 41
28.3666666667
 71
         2
 72
         1
  1
\W0.8;\fＭＳ ゴシック;\W1.0;SUS304
  0
MTEXT
  5
73
100
AcDbEntity
  8
図枠
370
        18
100
AcDbMText
 10
865.8113132486
 20
-285.1812199189
 30
0.0
 40
1.869999973
 41
13.8
 71
         2
 72
         1
  1
\W0.8;\fＭＳ ゴシック;\W1.0;板　　厚
  0
LINE
  5
74
100
AcDbEntity
  8
図枠
370
         5
100
AcDbLine
 10
871.8113132486
 20
-288.1145532523
 30
0.0
 11
871.8113132486
 21
-284.4478865856
 31
0.0
  0
LINE
  5
75
100
AcDbEntity
  8
図枠
370
         5
100
AcDbLine
 10
859.8113132486
 20
-288.1145532523
 30
0.0
 11
859.8113132486
 21
-284.4478865856
 31
0.0
  0
MTEXT
  5
76
100
AcDbEntity
  8
図枠
370
         5
  6
DOT
100
AcDbMText
 10
854.4779799152
 20
-301.5849088572
 30
0.0
 40
1.5583333333
 41
16.8666666667
 71
         2
 72
         1
  1
\W0.8;\fＭＳ ゴシック;\W1.0;柳原
  0
MTEXT
  5
77
100
AcDbEntity
  8
図枠
370
        18
100
AcDbMText
 10
867.1446465819
 20
-292.5145532523
 30
0.0
 40
1.869999973
 41
73.6
 71
         2
 72
         1
  1
\W0.8;\fＭＳ ゴシック;\W1.0;指定無き公差はJIS 0408-Bによること
  0
MTEXT
  5
78
100
AcDbEntity
  8
図枠
370
        18
100
AcDbMText
 10
885.8113132486
 20
-285.0145532523
 30
0.0
 40
2.1533333063
 41
30.6666666667
 71
         2
 72
         1
  1
\W0.8;\fＭＳ ゴシック;\W1.0;1.5t
  0
MTEXT
  5
79
100
AcDbEntity
  8
図枠
370
        18
100
AcDbMText
 10
841.8113132486
 20
-298.7515755238
 30
0.0
 40
1.5583333333
 41
15.3333333333
 71
         2
 72
         1
  1
\W0.8;\fＭＳ ゴシック;\W1.0;1.5：1
  0
MTEXT
  5
7A
100
AcDbEntity
  8
図枠
370
         5
  6
DOT
100
AcDbMText
 10
834.4779799152
 20
-304.4182421905
 30
0.0
 40
1.5583333333
 41
16.8666666667
 71
         2
 72
         1
  1
\W0.8;\fＭＳ ゴシック;\W1.0;岸本
  0
MTEXT
  5
7B
100
AcDbEntity
  8
図枠
370
        18
100
AcDbMText
 10
828.4779799152
 20
-298.7515755238
 30
0.0
 40
1.5583333333
 41
15.3333333333
 71
         2
 72
         1
  1
\W0.8;\fＭＳ ゴシック;\W1.0;H16.4
  0
INSERT
  5
7D
100
AcDbEntity
  8
ﾚｲﾔｰ1
370
        18
100
AcDbBlockReference
  2
CLUMP0
 10
0.0
 20
0.0
 30
0.0
  0
DIMENSION
  5
12E
100
AcDbEntity
  8
寸法線
370
         5
100
AcDbDimension
  2
*D1
 10
818.6516724033
 20
-175.7711759989
 30
0.0
 11
802.1516724033
 21
-175.7711759989
 31
0.0
 70
       128
210
0.0
220
0.0
230
1.0
  1
<>
  3
VELDIM0
100
AcDbAlignedDimension
 13
818.6516724033
 23
-191.5185448114
 33
0.0
 14
785.6516724033
 24
-191.5185448114
 34
0.0
100
AcDbRotatedDimension
  0
DIMENSION
  5
13E
100
AcDbEntity
  8
寸法線
370
         5
100
AcDbDimension
  2
*D2
 10
808.1516724033
 20
-181.2181021158
 30
0.0
 11
802.1516724033
 21
-181.2181021158
 31
0.0
 70
       128
210
0.0
220
0.0
230
1.0
  1
<>
  3
VELDIM1
100
AcDbAlignedDimension
 13
808.1516724033
 23
-193.5185448114
 33
0.0
 14
796.1516724033
 24
-193.5185448114
 34
0.0
100
AcDbRotatedDimension
  0
DIMENSION
  5
14D
100
AcDbEntity
  8
寸法線
370
         5
100
AcDbDimension
  2
*D3
 10
888.7013587491
 20
-180.1335898257
 30
0.0
 11
868.9513587491
 21
-180.1335898257
 31
0.0
 70
       128
210
0.0
220
0.0
230
1.0
  1
<>
  3
VELDIM1
100
AcDbAlignedDimension
 13
888.7013587491
 23
-192.9879303789
 33
0.0
 14
849.2013587491
 24
-193.5185448114
 34
0.0
100
AcDbRotatedDimension
  0
DIMENSION
  5
15C
100
AcDbEntity
  8
寸法線
370
         5
100
AcDbDimension
  2
*D4
 10
888.7013288306
 20
-174.3087237194
 30
0.0
 11
864.4513437899
 21
-174.3087237194
 31
0.0
 70
       128
210
0.0
220
0.0
230
1.0
  1
(<>)
  3
VELDIM1
100
AcDbAlignedDimension
 13
888.7013288306
 23
-192.9859736279
 33
0.0
 14
840.2013587491
 24
-208.9076157514
 34
0.0
100
AcDbRotatedDimension
  0
DIMENSION
  5
16B
100
AcDbEntity
  8
寸法線
370
         5
100
AcDbDimension
  2
*D5
 10
834.9664071179
 20
-189.5185448114
 30
0.0
 11
834.9664071179
 21
-208.0185448114
 31
0.0
 70
       128
210
0.0
220
0.0
230
1.0
  1
<>
  3
VELDIM1
100
AcDbAlignedDimension
 13
853.2013587491
 23
-189.5185448114
 33
0.0
 14
847.7013587491
 24
-226.5185448114
 34
0.0
 50
90.0
100
AcDbRotatedDimension
  0
ENDSEC
  0
SECTION
  2
OBJECTS
  0
DICTIONARY
  5
19
100
AcDbDictionary
280
         0
281
         1
  3
ACAD_GROUP
350
1A
  3
ACAD_MLINESTYLE
350
1B
  3
ACAD_LAYOUT
350
1E
  3
ACAD_PLOTSETTINGS
350
22
  3
ACAD_PLOTSTYLENAME
350
1F
  3
ACAD_WIPEOUT_VARS
350
23
  0
DICTIONARY
  5
1A
102
{ACAD_REACTORS
330
19
102
}
100
AcDbDictionary
280
         0
281
         1
  0
DICTIONARY
  5
1B
102
{ACAD_REACTORS
330
19
102
}
100
AcDbDictionary
280
         0
281
         1
  3
Standard
350
1C
  0
MLINESTYLE
  5
1C
102
{ACAD_REACTORS
330
1B
102
}
100
AcDbMlineStyle
  2
Standard
 70
         0
  3

 62
         0
 51
90.0
 52
90.0
 71
         2
 49
0.5
 62
       256
  6
BYLAYER
 49
-0.5
 62
       256
  6
BYLAYER
  0
ACDBDICTIONARYWDFLT
  5
1F
102
{ACAD_REACTORS
330
19
102
}
100
AcDbDictionary
281
         1
  3
Normal
350
1D
100
AcDbDictionaryWithDefault
340
1D
  0
ACDBPLACEHOLDER
  5
1D
102
{ACAD_REACTORS
330
1F
102
}
  0
LAYOUT
  5
20
102
{ACAD_REACTORS
330
1E
102
}
100
AcDbPlotSettings
  1

  2

  4

  6

 40
0.0
 41
0.0
 42
0.0
 43
0.0
 44
0.0
 45
0.0
 46
0.0
 47
0.0
 48
0.0
 49
0.0
140
0.0
141
0.0
142
1.0
143
1.0
 70
         0
 72
         0
 73
         0
 74
         0
  7

 75
         0
147
1.0
148
0.0
149
0.0
100
AcDbLayout
  1
Model
 70
         0
 71
         0
 10
0.0
 20
0.0
 11
0.0
 21
0.0
 12
0.0
 22
0.0
 32
0.0
 14
0.0
 24
0.0
 34
0.0
 15
0.0
 25
0.0
 35
0.0
146
0.0
 13
0.0
 23
0.0
 33
0.0
 16
0.0
 26
0.0
 36
0.0
 17
0.0
 27
0.0
 37
0.0
 76
         0
330
A
331
0
345
0
346
0
  0
LAYOUT
  5
21
102
{ACAD_REACTORS
330
1E
102
}
100
AcDbPlotSettings
  1

  2

  4

  6

 40
0.0
 41
0.0
 42
0.0
 43
0.0
 44
0.0
 45
0.0
 46
0.0
 47
0.0
 48
0.0
 49
0.0
140
0.0
141
0.0
142
1.0
143
1.0
 70
         0
 72
         0
 73
         0
 74
         0
  7

 75
         0
147
1.0
148
0.0
149
0.0
100
AcDbLayout
  1
Layout1
 70
         0
 71
         0
 10
0.0
 20
0.0
 11
0.0
 21
0.0
 12
0.0
 22
0.0
 32
0.0
 14
0.0
 24
0.0
 34
0.0
 15
0.0
 25
0.0
 35
0.0
146
0.0
 13
0.0
 23
0.0
 33
0.0
 16
0.0
 26
0.0
 36
0.0
 17
0.0
 27
0.0
 37
0.0
 76
         0
330
B
331
0
345
0
346
0
  0
DICTIONARY
  5
1E
102
{ACAD_REACTORS
330
19
102
}
100
AcDbDictionary
280
         0
281
         1
  3
Layout1
350
21
  3
Model
350
20
  0
DICTIONARY
  5
22
102
{ACAD_REACTORS
330
19
102
}
100
AcDbDictionary
280
         0
281
         1
  0
WIPEOUTVARIABLES
  5
23
100
AcDbWipeoutVariables
 70
         1
  0
ENDSEC
  0
EOF
