  0
SECTION
  2
HEADER
  9
$ACADVER
  1
AC1009
  9
$INSBASE
 10
0.0
 20
0.0
 30
0.0
  9
$EXTMIN
 10
1176.5631367670001
 20
-598.65504832969998
 30
0.0
  9
$EXTMAX
 10
1314.0631367670001
 20
-503.65504832969998
 30
0.0
  9
$LIMMIN
 10
0.0
 20
0.0
  9
$LIMMAX
 10
0.0
 20
0.0
  9
$ORTHOMODE
 70
     1
  9
$REGENMODE
 70
     1
  9
$FILLMODE
 70
     1
  9
$QTEXTMODE
 70
     0
  9
$MIRRTEXT
 70
     1
  9
$DRAGMODE
 70
     2
  9
$LTSCALE
 40
1.0
  9
$OSMODE
 70
    31
  9
$ATTMODE
 70
     1
  9
$TEXTSIZE
 40
1.7676767676767651
  9
$TRACEWID
 40
0.05
  9
$TEXTSTYLE
  7
âSâVâbâN
  9
$CLAYER
  8
0
  9
$CELTYPE
  6
CONTINUOUS
  9
$CECOLOR
 62
   256
  9
$DIMSCALE
 40
1.0
  9
$DIMASZ
 40
0.18
  9
$DIMEXO
 40
0.0625
  9
$DIMDLI
 40
0.38
  9
$DIMRND
 40
0.0
  9
$DIMDLE
 40
0.0
  9
$DIMEXE
 40
0.18
  9
$DIMTP
 40
0.0
  9
$DIMTM
 40
0.0
  9
$DIMTXT
 40
0.18
  9
$DIMCEN
 40
0.09
  9
$DIMTSZ
 40
0.0
  9
$DIMTOL
 70
     0
  9
$DIMLIM
 70
     0
  9
$DIMTIH
 70
     1
  9
$DIMTOH
 70
     1
  9
$DIMSE1
 70
     0
  9
$DIMSE2
 70
     0
  9
$DIMTAD
 70
     0
  9
$DIMZIN
 70
     0
  9
$DIMBLK
  1

  9
$DIMASO
 70
     1
  9
$DIMSHO
 70
     1
  9
$DIMPOST
  1

  9
$DIMAPOST
  1

  9
$DIMALT
 70
     0
  9
$DIMALTD
 70
     2
  9
$DIMALTF
 40
25.399999999999999
  9
$DIMLFAC
 40
1.0
  9
$DIMTOFL
 70
     0
  9
$DIMTVP
 40
0.0
  9
$DIMTIX
 70
     0
  9
$DIMSOXD
 70
     0
  9
$DIMSAH
 70
     0
  9
$DIMBLK1
  1

  9
$DIMBLK2
  1

  9
$DIMSTYLE
  2
STANDARD
  9
$DIMCLRD
 70
     0
  9
$DIMCLRE
 70
     0
  9
$DIMCLRT
 70
     0
  9
$DIMTFAC
 40
1.0
  9
$DIMGAP
 40
0.09
  9
$LUNITS
 70
     2
  9
$LUPREC
 70
     4
  9
$SKETCHINC
 40
0.1
  9
$FILLETRAD
 40
0.0
  9
$AUNITS
 70
     0
  9
$AUPREC
 70
     0
  9
$MENU
  1
acad
  9
$ELEVATION
 40
0.0
  9
$PELEVATION
 40
0.0
  9
$THICKNESS
 40
0.0
  9
$LIMCHECK
 70
     0
  9
$BLIPMODE
 70
     0
  9
$CHAMFERA
 40
0.0
  9
$CHAMFERB
 40
0.0
  9
$SKPOLY
 70
     0
  9
$TDCREATE
 40
2454858.7017480442
  9
$TDUPDATE
 40
2454866.6740906248
  9
$TDINDWG
 40
0.0049099421
  9
$TDUSRTIMER
 40
0.0049068634
  9
$USRTIMER
 70
     1
  9
$ANGBASE
 50
0.0
  9
$ANGDIR
 70
     0
  9
$PDMODE
 70
     3
  9
$PDSIZE
 40
-1.0
  9
$PLINEWID
 40
0.0
  9
$COORDS
 70
     2
  9
$SPLFRAME
 70
     0
  9
$SPLINETYPE
 70
     6
  9
$SPLINESEGS
 70
     8
  9
$ATTDIA
 70
     0
  9
$ATTREQ
 70
     1
  9
$HANDLING
 70
     1
  9
$HANDSEED
  5
5A8
  9
$SURFTAB1
 70
     6
  9
$SURFTAB2
 70
     6
  9
$SURFTYPE
 70
     6
  9
$SURFU
 70
     6
  9
$SURFV
 70
     6
  9
$UCSNAME
  2

  9
$UCSORG
 10
0.0
 20
0.0
 30
0.0
  9
$UCSXDIR
 10
1.0
 20
0.0
 30
0.0
  9
$UCSYDIR
 10
0.0
 20
1.0
 30
0.0
  9
$PUCSNAME
  2

  9
$PUCSORG
 10
0.0
 20
0.0
 30
0.0
  9
$PUCSXDIR
 10
1.0
 20
0.0
 30
0.0
  9
$PUCSYDIR
 10
0.0
 20
1.0
 30
0.0
  9
$USERI1
 70
     0
  9
$USERI2
 70
     0
  9
$USERI3
 70
     0
  9
$USERI4
 70
     0
  9
$USERI5
 70
     0
  9
$USERR1
 40
0.0
  9
$USERR2
 40
0.0
  9
$USERR3
 40
0.0
  9
$USERR4
 40
0.0
  9
$USERR5
 40
0.0
  9
$WORLDVIEW
 70
     1
  9
$SHADEDGE
 70
     3
  9
$SHADEDIF
 70
    70
  9
$TILEMODE
 70
     1
  9
$MAXACTVP
 70
    16
  9
$PLIMCHECK
 70
     0
  9
$PEXTMIN
 10
1.0000000000000000E+020
 20
1.0000000000000000E+020
 30
1.0000000000000000E+020
  9
$PEXTMAX
 10
-1.0000000000000000E+020
 20
-1.0000000000000000E+020
 30
-1.0000000000000000E+020
  9
$PLIMMIN
 10
0.0
 20
0.0
  9
$PLIMMAX
 10
12.0
 20
9.0
  9
$UNITMODE
 70
     0
  9
$VISRETAIN
 70
     0
  9
$PLINEGEN
 70
     1
  9
$PSLTSCALE
 70
     0
  0
ENDSEC
  0
SECTION
  2
TABLES
  0
TABLE
  2
VPORT
 70
     3
  0
VPORT
  2
*ACTIVE
 70
     0
 10
0.0
 20
0.0
 11
1.0
 21
1.0
 12
1247.8141786708991
 22
-545.26226178308571
 13
0.0
 23
0.0
 14
1.0
 24
1.0
 15
0.0
 25
0.0
 16
0.0
 26
0.0
 36
1.0
 17
0.0
 27
0.0
 37
0.0
 40
119.91794395641119
 41
1.5459688826025451
 42
50.0
 43
0.0
 44
0.0
 50
0.0
 51
0.0
 71
     0
 72
   100
 73
     1
 74
     1
 75
     0
 76
     0
 77
     0
 78
     0
  0
ENDTAB
  0
TABLE
  2
LTYPE
 70
    11
  0
LTYPE
  2
CONTINUOUS
 70
     0
  3
Solid line
 72
    65
 73
     0
 40
0.0
  0
LTYPE
  2
DOT
 70
     0
  3
. . . . . . . . 
 72
    65
 73
     2
 40
1.0
 49
0.0
 49
-1.0
  0
LTYPE
  2
DASHED
 70
     0
  3
___  ___  ___  ___  
 72
    65
 73
     2
 40
4.0
 49
3.0
 49
-1.0
  0
LTYPE
  2
HIDDEN
 70
     0
  3
__ __ __ __ 
 72
    65
 73
     2
 40
3.0
 49
2.0
 49
-1.0
  0
LTYPE
  2
STITCH
 70
     0
  3
_ _ _ _ 
 72
    65
 73
     2
 40
2.0
 49
1.0
 49
-1.0
  0
LTYPE
  2
CENTER
 70
     0
  3
______  __  ______  __  
 72
    65
 73
     4
 40
43.0
 49
40.0
 49
-1.0
 49
1.0
 49
-1.0
  0
LTYPE
  2
DASHDOT
 70
     0
  3
____ . ____ . 
 72
    65
 73
     4
 40
32.0
 49
30.0
 49
-1.0
 49
0.0
 49
-1.0
  0
LTYPE
  2
BORDER
 70
     0
  3
__ . __ . 
 72
    65
 73
     4
 40
22.0
 49
20.0
 49
-1.0
 49
0.0
 49
-1.0
  0
LTYPE
  2
CUTTING
 70
     0
  3
________   ___   ___   
 72
    65
 73
     6
 40
45.0
 49
40.0
 49
-1.0
 49
1.0
 49
-1.0
 49
1.0
 49
-1.0
  0
LTYPE
  2
PHANTOM
 70
     0
  3
______  __  __  
 72
    65
 73
     6
 40
35.0
 49
30.0
 49
-1.0
 49
1.0
 49
-1.0
 49
1.0
 49
-1.0
  0
LTYPE
  2
DIVIDE
 70
     0
  3
____ . . ____ . . 
 72
    65
 73
     6
 40
23.0
 49
20.0
 49
-1.0
 49
0.0
 49
-1.0
 49
0.0
 49
-1.0
  0
ENDTAB
  0
TABLE
  2
LAYER
 70
     4
  0
LAYER
  2
0
 70
     0
 62
     7
  6
CONTINUOUS
  0
LAYER
  2
┌▓È_1
 70
     0
 62
     7
  6
CONTINUOUS
  0
LAYER
  2
Éíû@É³
 70
     0
 62
     7
  6
CONTINUOUS
  0
LAYER
  2
Éíû@É³_ê°é½ÅoéÁÉ³
 70
     0
 62
   251
  6
CONTINUOUS
  0
ENDTAB
  0
TABLE
  2
STYLE
 70
     2
  0
STYLE
  2
STANDARD
 70
     0
 40
0.0
 41
1.0
 50
0.0
 71
     0
 42
0.0
  3
txt
  4
extfont
  0
STYLE
  2
âSâVâbâN
 70
     0
 40
0.0
 41
1.0
 50
0.0
 71
     0
 42
1.7676767676767651
  3
txt
  4

  0
ENDTAB
  0
TABLE
  2
VIEW
 70
     0
  0
ENDTAB
  0
TABLE
  2
UCS
 70
     0
  0
ENDTAB
  0
TABLE
  2
APPID
 70
     2
  0
APPID
  2
ACAD
 70
     0
  0
APPID
  2
DCO15
 70
     0
  0
ENDTAB
  0
TABLE
  2
DIMSTYLE
 70
     6
  0
DIMSTYLE
  2
STANDARD
 70
     0
  3

  4

  5

  6

  7

 40
1.0
 41
0.18
 42
0.0625
 43
0.38
 44
0.18
 45
0.0
 46
0.0
 47
0.0
 48
0.0
140
0.18
141
0.09
142
0.0
143
25.399999999999999
144
1.0
145
0.0
146
1.0
147
0.09
 71
     0
 72
     0
 73
     1
 74
     1
 75
     0
 76
     0
 77
     0
 78
     0
170
     0
171
     2
172
     0
173
     0
174
     0
175
     0
176
     0
177
     0
178
     0
  0
DIMSTYLE
  2
VELDIM0
 70
     0
  3

  4

  5

  6

  7

 40
1.0
 41
1.5
 42
0.0625
 43
0.38
 44
0.5
 45
0.0
 46
3.0
 47
0.0
 48
0.0
140
1.4993055104999991
141
0.09
142
0.0
143
25.399999999999999
144
1.0
145
0.0
146
1.0
147
0.09
 71
     0
 72
     0
 73
     0
 74
     0
 75
     0
 76
     0
 77
     0
 78
     8
170
     0
171
     2
172
     0
173
     0
174
     0
175
     0
176
     0
177
     0
178
     0
  0
DIMSTYLE
  2
è¯û{_éP_éP_
 70
     0
  3

  4

  5

  6

  7

 40
0.0
 41
3.5
 42
5.0
 43
7.0
 44
3.0
 45
0.0
 46
0.0
 47
0.0
 48
0.0
140
5.0
141
1.0
142
0.0
143
0.0394
144
1.0
145
0.0
146
1.0
147
1.0
 71
     0
 72
     0
 73
     0
 74
     0
 75
     0
 76
     0
 77
     1
 78
     8
170
     0
171
     4
172
     1
173
     0
174
     0
175
     0
176
     4
177
     4
178
     4
  0
DIMSTYLE
  2
è¯û{_éP_éS_
 70
     0
  3

  4

  5

  6

  7

 40
0.0
 41
8.0
 42
5.0
 43
28.0
 44
4.0
 45
0.0
 46
0.0
 47
0.0
 48
0.0
140
12.5
141
4.0
142
0.0
143
0.0394
144
1.0
145
0.0
146
1.0
147
5.0
 71
     0
 72
     0
 73
     0
 74
     0
 75
     0
 76
     0
 77
     1
 78
     8
170
     0
171
     4
172
     1
173
     0
174
     0
175
     0
176
     4
177
     4
178
     4
  0
DIMSTYLE
  2
è¯û{_éP_éQ_
 70
     0
  3

  4

  5

  6

  7

 40
0.0
 41
2.5
 42
5.0
 43
14.0
 44
2.0
 45
0.0
 46
0.0
 47
0.0
 48
0.0
140
5.0
141
2.0
142
0.0
143
0.0394
144
1.0
145
0.0
146
1.0
147
1.0
 71
     0
 72
     0
 73
     0
 74
     0
 75
     0
 76
     0
 77
     1
 78
     8
170
     0
171
     4
172
     1
173
     0
174
     0
175
     0
176
     4
177
     4
178
     4
  0
DIMSTYLE
  2
è¯û{_éQ_éP_
 70
     0
  3

  4

  5

  6

  7

 40
0.0
 41
1.0
 42
0.5
 43
3.5
 44
0.5
 45
0.0
 46
0.0
 47
0.0
 48
0.0
140
1.0
141
0.5
142
0.0
143
0.0394
144
1.0
145
0.0
146
1.0
147
0.25
 71
     0
 72
     0
 73
     0
 74
     0
 75
     0
 76
     0
 77
     1
 78
     8
170
     0
171
     4
172
     1
173
     0
174
     0
175
     0
176
     4
177
     4
178
     4
  0
ENDTAB
  0
ENDSEC
  0
SECTION
  2
BLOCKS
  0
BLOCK
  8
0
  2
$MODEL_SPACE
 70
     0
 10
0.0
 20
0.0
 30
0.0
  3
$MODEL_SPACE
  1

  0
ENDBLK
  5
543
  8
0
  0
BLOCK
 67
     1
  8
0
  2
$PAPER_SPACE
 70
     0
 10
0.0
 20
0.0
 30
0.0
  3
$PAPER_SPACE
  1

  0
ENDBLK
  5
53F
 67
     1
  8
0
  0
BLOCK
  8
0
  2
*D2
 70
     1
 10
0.0
 20
0.0
 30
0.0
  3
*D2
  1

  0
TEXT
  5
E4
  8
0
 62
     0
 10
1225.3267635643999
 20
-529.9711628629999
 30
0.0
 40
1.4993055104999991
  1
6
 50
90.0
  0
LINE
  5
E5
  8
0
 62
     0
 10
1222.5913468898
 20
-532.53019065399997
 30
0.0
 11
1227.0913468898
 21
-532.53019065399997
 31
0.0
  0
LINE
  5
E6
  8
0
 62
     0
 10
1222.5913468898
 20
-526.53019065399985
 30
0.0
 11
1227.0913468898
 21
-526.53019065399985
 31
0.0
  0
LINE
  5
E7
  8
0
 62
     0
 10
1226.5913468898
 20
-532.53019065399997
 30
0.0
 11
1226.5913468898
 21
-528.20727402709986
 31
0.0
  0
LINE
  5
E8
  8
0
 62
     0
 10
1226.5913468898
 20
-532.53019065399997
 30
0.0
 11
1226.5913468898
 21
-530.85310728089996
 31
0.0
  0
LINE
  5
E9
  8
0
 62
     0
 10
1226.5913468898
 20
-526.53019065399985
 30
0.0
 11
1226.5913468898
 21
-528.20727402709986
 31
0.0
  0
LINE
  5
EA
  8
0
 62
     0
 10
1226.5913468898
 20
-526.53019065399985
 30
0.0
 11
1226.5913468898
 21
-530.85310728089996
 31
0.0
  0
LINE
  5
EB
  8
0
 62
     0
 10
1226.5913468898
 20
-526.53019065399985
 30
0.0
 11
1226.5913468898
 21
-529.53019065399985
 31
0.0
  0
SOLID
  5
EC
  8
0
 62
     0
 10
1226.5913468898
 20
-526.53019065399985
 30
0.0
 11
1226.9663468898
 21
-528.03019065399997
 31
0.0
 12
1226.2163468898
 22
-528.03019065399997
 32
0.0
 13
1226.5913468898
 23
-527.65519065399985
 33
0.0
  0
LINE
  5
ED
  8
0
 62
     0
 10
1226.5913468898
 20
-532.53019065399997
 30
0.0
 11
1226.5913468898
 21
-529.53019065399985
 31
0.0
  0
SOLID
  5
EE
  8
0
 62
     0
 10
1226.5913468898
 20
-532.53019065399997
 30
0.0
 11
1226.2163468898
 21
-531.03019065399985
 31
0.0
 12
1226.9663468898
 22
-531.03019065399985
 32
0.0
 13
1226.5913468898
 23
-531.40519065399985
 33
0.0
  0
ENDBLK
  5
EF
  8
0
  0
BLOCK
  8
0
  2
*D3
 70
     1
 10
0.0
 20
0.0
 30
0.0
  3
*D3
  1

  0
TEXT
  5
F4
  8
0
 62
     0
 10
1225.3267635643999
 20
-534.47116286300002
 30
0.0
 40
1.4993055104999991
  1
3
 50
90.0
  0
LINE
  5
F5
  8
0
 62
     0
 10
1219.7913470021999
 20
-535.53019065399985
 30
0.0
 11
1227.0913468898
 21
-535.53019065399985
 31
0.0
  0
LINE
  5
F6
  8
0
 62
     0
 10
1222.5913468898
 20
-532.53019065399997
 30
0.0
 11
1227.0913468898
 21
-532.53019065399997
 31
0.0
  0
LINE
  5
F7
  8
0
 62
     0
 10
1226.5913468898
 20
-535.53019065399985
 30
0.0
 11
1226.5913468898
 21
-532.70727402709986
 31
0.0
  0
LINE
  5
F8
  8
0
 62
     0
 10
1226.5913468898
 20
-535.53019065399985
 30
0.0
 11
1226.5913468898
 21
-535.35310728089985
 31
0.0
  0
LINE
  5
F9
  8
0
 62
     0
 10
1226.5913468898
 20
-532.53019065399997
 30
0.0
 11
1226.5913468898
 21
-532.70727402709986
 31
0.0
  0
LINE
  5
FA
  8
0
 62
     0
 10
1226.5913468898
 20
-532.53019065399997
 30
0.0
 11
1226.5913468898
 21
-535.35310728089985
 31
0.0
  0
LINE
  5
FB
  8
0
 62
     0
 10
1226.5913468898
 20
-532.53019065399997
 30
0.0
 11
1226.5913468898
 21
-529.53019065399985
 31
0.0
  0
SOLID
  5
FC
  8
0
 62
     0
 10
1226.5913468898
 20
-532.53019065399997
 30
0.0
 11
1226.2163468898
 21
-531.03019065399985
 31
0.0
 12
1226.9663468898
 22
-531.03019065399985
 32
0.0
 13
1226.5913468898
 23
-531.40519065399985
 33
0.0
  0
LINE
  5
FD
  8
0
 62
     0
 10
1226.5913468898
 20
-535.53019065399985
 30
0.0
 11
1226.5913468898
 21
-538.53019065399985
 31
0.0
  0
SOLID
  5
FE
  8
0
 62
     0
 10
1226.5913468898
 20
-535.53019065399985
 30
0.0
 11
1226.9663468898
 21
-537.03019065399985
 31
0.0
 12
1226.2163468898
 22
-537.03019065399985
 32
0.0
 13
1226.5913468898
 23
-536.65519065399985
 33
0.0
  0
ENDBLK
  5
FF
  8
0
  0
BLOCK
  8
0
  2
*D4
 70
     1
 10
0.0
 20
0.0
 30
0.0
  3
*D4
  1

  0
TEXT
  5
103
  8
0
 62
     0
 10
1229.4348444011
 20
-530.41213507199996
 30
0.0
 40
1.4993055104999991
  1
12
 50
90.0
  0
LINE
  5
104
  8
0
 62
     0
 10
1219.7913470021999
 20
-535.53019065399985
 30
0.0
 11
1231.1994277265001
 21
-535.53019065399985
 31
0.0
  0
LINE
  5
105
  8
0
 62
     0
 10
1219.7913466923001
 20
-523.53019065399997
 30
0.0
 11
1231.1994277265001
 21
-523.53019065399997
 31
0.0
  0
LINE
  5
106
  8
0
 62
     0
 10
1230.6994277265001
 20
-535.53019065399985
 30
0.0
 11
1230.6994277265001
 21
-527.76630181809992
 31
0.0
  0
LINE
  5
107
  8
0
 62
     0
 10
1230.6994277265001
 20
-535.53019065399985
 30
0.0
 11
1230.6994277265001
 21
-531.29407948990001
 31
0.0
  0
LINE
  5
108
  8
0
 62
     0
 10
1230.6994277265001
 20
-523.53019065399997
 30
0.0
 11
1230.6994277265001
 21
-527.76630181809992
 31
0.0
  0
LINE
  5
109
  8
0
 62
     0
 10
1230.6994277265001
 20
-523.53019065399997
 30
0.0
 11
1230.6994277265001
 21
-531.29407948990001
 31
0.0
  0
LINE
  5
10A
  8
0
 62
     0
 10
1230.6994277265001
 20
-523.53019065399997
 30
0.0
 11
1230.6994277265001
 21
-526.53019065399985
 31
0.0
  0
SOLID
  5
10B
  8
0
 62
     0
 10
1230.6994277265001
 20
-523.53019065399997
 30
0.0
 11
1231.0744277265001
 21
-525.03019065399985
 31
0.0
 12
1230.3244277265001
 22
-525.03019065399985
 32
0.0
 13
1230.6994277265001
 23
-524.65519065399985
 33
0.0
  0
LINE
  5
10C
  8
0
 62
     0
 10
1230.6994277265001
 20
-535.53019065399985
 30
0.0
 11
1230.6994277265001
 21
-532.53019065399997
 31
0.0
  0
SOLID
  5
10D
  8
0
 62
     0
 10
1230.6994277265001
 20
-535.53019065399985
 30
0.0
 11
1230.3244277265001
 21
-534.03019065399985
 31
0.0
 12
1231.0744277265001
 22
-534.03019065399985
 32
0.0
 13
1230.6994277265001
 23
-534.40519065399985
 33
0.0
  0
ENDBLK
  5
10E
  8
0
  0
BLOCK
  8
0
  2
*D5
 70
     1
 10
0.0
 20
0.0
 30
0.0
  3
*D5
  1

  0
TEXT
  5
112
  8
0
 62
     0
 10
1226.3869544229001
 20
-568.98093447799999
 30
0.0
 40
1.4993055104999991
  1
23.5
 50
90.0
  0
LINE
  5
113
  8
0
 62
     0
 10
1223.6515377482999
 20
-578.96704564209995
 30
0.0
 11
1228.1515377482999
 21
-578.96704564209995
 31
0.0
  0
LINE
  5
114
  8
0
 62
     0
 10
1222.5913468898
 20
-555.46704564209995
 30
0.0
 11
1228.1515377482999
 21
-555.46704564209995
 31
0.0
  0
LINE
  5
115
  8
0
 62
     0
 10
1227.6515377482999
 20
-578.96704564209995
 30
0.0
 11
1227.6515377482999
 21
-564.57121238820002
 31
0.0
  0
LINE
  5
116
  8
0
 62
     0
 10
1227.6515377482999
 20
-578.96704564209995
 30
0.0
 11
1227.6515377482999
 21
-569.86287889589994
 31
0.0
  0
LINE
  5
117
  8
0
 62
     0
 10
1227.6515377482999
 20
-555.46704564209995
 30
0.0
 11
1227.6515377482999
 21
-564.57121238820002
 31
0.0
  0
LINE
  5
118
  8
0
 62
     0
 10
1227.6515377482999
 20
-555.46704564209995
 30
0.0
 11
1227.6515377482999
 21
-569.86287889589994
 31
0.0
  0
LINE
  5
119
  8
0
 62
     0
 10
1227.6515377482999
 20
-555.46704564209995
 30
0.0
 11
1227.6515377482999
 21
-558.46704564209995
 31
0.0
  0
SOLID
  5
11A
  8
0
 62
     0
 10
1227.6515377482999
 20
-555.46704564209995
 30
0.0
 11
1228.0265377482999
 21
-556.96704564209995
 31
0.0
 12
1227.2765377482999
 22
-556.96704564209995
 32
0.0
 13
1227.6515377482999
 23
-556.59204564209995
 33
0.0
  0
LINE
  5
11B
  8
0
 62
     0
 10
1227.6515377482999
 20
-578.96704564209995
 30
0.0
 11
1227.6515377482999
 21
-575.96704564209995
 31
0.0
  0
SOLID
  5
11C
  8
0
 62
     0
 10
1227.6515377482999
 20
-578.96704564209995
 30
0.0
 11
1227.2765377482999
 21
-577.46704564209995
 31
0.0
 12
1228.0265377482999
 22
-577.46704564209995
 32
0.0
 13
1227.6515377482999
 23
-577.84204564209995
 33
0.0
  0
ENDBLK
  5
11D
  8
0
  0
BLOCK
  8
0
  2
*D6
 70
     1
 10
0.0
 20
0.0
 30
0.0
  3
*D6
  1

  0
TEXT
  5
121
  8
0
 62
     0
 10
1194.7287122452999
 20
-557.90801785099995
 30
0.0
 40
1.4993055104999991
  1
4
 50
90.0
  0
LINE
  5
122
  8
0
 62
     0
 10
1219.7913468898
 20
-555.46704564209995
 30
0.0
 11
1195.4932955707
 21
-555.46704564209995
 31
0.0
  0
LINE
  5
123
  8
0
 62
     0
 10
1202.4913468187999
 20
-559.46704564209995
 30
0.0
 11
1195.4932955707
 21
-559.46704564209995
 31
0.0
  0
LINE
  5
124
  8
0
 62
     0
 10
1195.9932955707
 20
-555.46704564209995
 30
0.0
 11
1195.9932955707
 21
-556.14412901510002
 31
0.0
  0
LINE
  5
125
  8
0
 62
     0
 10
1195.9932955707
 20
-555.46704564209995
 30
0.0
 11
1195.9932955707
 21
-558.78996226900006
 31
0.0
  0
LINE
  5
126
  8
0
 62
     0
 10
1195.9932955707
 20
-559.46704564209995
 30
0.0
 11
1195.9932955707
 21
-556.14412901510002
 31
0.0
  0
LINE
  5
127
  8
0
 62
     0
 10
1195.9932955707
 20
-559.46704564209995
 30
0.0
 11
1195.9932955707
 21
-558.78996226900006
 31
0.0
  0
LINE
  5
128
  8
0
 62
     0
 10
1195.9932955707
 20
-559.46704564209995
 30
0.0
 11
1195.9932955707
 21
-562.46704564209995
 31
0.0
  0
SOLID
  5
129
  8
0
 62
     0
 10
1195.9932955707
 20
-559.46704564209995
 30
0.0
 11
1196.3682955707
 21
-560.96704564209995
 31
0.0
 12
1195.6182955707
 22
-560.96704564209995
 32
0.0
 13
1195.9932955707
 23
-560.59204564209995
 33
0.0
  0
LINE
  5
12A
  8
0
 62
     0
 10
1195.9932955707
 20
-555.46704564209995
 30
0.0
 11
1195.9932955707
 21
-552.46704564209995
 31
0.0
  0
SOLID
  5
12B
  8
0
 62
     0
 10
1195.9932955707
 20
-555.46704564209995
 30
0.0
 11
1195.6182955707
 21
-553.96704564209995
 31
0.0
 12
1196.3682955707
 22
-553.96704564209995
 32
0.0
 13
1195.9932955707
 23
-554.34204564209995
 33
0.0
  0
ENDBLK
  5
12C
  8
0
  0
BLOCK
  8
0
  2
*D7
 70
     1
 10
0.0
 20
0.0
 30
0.0
  3
*D7
  1

  0
TEXT
  5
130
  8
0
 62
     0
 10
1194.7287122452999
 20
-569.98093447799999
 30
0.0
 40
1.4993055104999991
  1
17.5
 50
90.0
  0
LINE
  5
131
  8
0
 62
     0
 10
1202.4913468187999
 20
-559.46704564209995
 30
0.0
 11
1195.4932955707
 21
-559.46704564209995
 31
0.0
  0
LINE
  5
132
  8
0
 62
     0
 10
1218.2858277777
 20
-576.96704564209995
 30
0.0
 11
1195.4932955707
 21
-576.96704564209995
 31
0.0
  0
LINE
  5
133
  8
0
 62
     0
 10
1195.9932955707
 20
-559.46704564209995
 30
0.0
 11
1195.9932955707
 21
-565.57121238820002
 31
0.0
  0
LINE
  5
134
  8
0
 62
     0
 10
1195.9932955707
 20
-559.46704564209995
 30
0.0
 11
1195.9932955707
 21
-570.86287889589994
 31
0.0
  0
LINE
  5
135
  8
0
 62
     0
 10
1195.9932955707
 20
-576.96704564209995
 30
0.0
 11
1195.9932955707
 21
-565.57121238820002
 31
0.0
  0
LINE
  5
136
  8
0
 62
     0
 10
1195.9932955707
 20
-576.96704564209995
 30
0.0
 11
1195.9932955707
 21
-570.86287889589994
 31
0.0
  0
LINE
  5
137
  8
0
 62
     0
 10
1195.9932955707
 20
-576.96704564209995
 30
0.0
 11
1195.9932955707
 21
-573.96704564209995
 31
0.0
  0
SOLID
  5
138
  8
0
 62
     0
 10
1195.9932955707
 20
-576.96704564209995
 30
0.0
 11
1195.6182955707
 21
-575.46704564209995
 31
0.0
 12
1196.3682955707
 22
-575.46704564209995
 32
0.0
 13
1195.9932955707
 23
-575.84204564209995
 33
0.0
  0
LINE
  5
139
  8
0
 62
     0
 10
1195.9932955707
 20
-559.46704564209995
 30
0.0
 11
1195.9932955707
 21
-562.46704564209995
 31
0.0
  0
SOLID
  5
13A
  8
0
 62
     0
 10
1195.9932955707
 20
-559.46704564209995
 30
0.0
 11
1196.3682955707
 21
-560.96704564209995
 31
0.0
 12
1195.6182955707
 22
-560.96704564209995
 32
0.0
 13
1195.9932955707
 23
-560.59204564209995
 33
0.0
  0
ENDBLK
  5
13B
  8
0
  0
BLOCK
  8
0
  2
*D8
 70
     1
 10
0.0
 20
0.0
 30
0.0
  3
*D8
  1

  0
TEXT
  5
13F
  8
0
 62
     0
 10
1194.7287122452999
 20
-578.40801785099995
 30
0.0
 40
1.4993055104999991
  1
2
 50
90.0
  0
LINE
  5
140
  8
0
 62
     0
 10
1218.2858277777
 20
-576.96704564209995
 30
0.0
 11
1195.4932955707
 21
-576.96704564209995
 31
0.0
  0
LINE
  5
141
  8
0
 62
     0
 10
1220.8515377483
 20
-578.96704564209995
 30
0.0
 11
1195.4932955707
 21
-578.96704564209995
 31
0.0
  0
LINE
  5
142
  8
0
 62
     0
 10
1195.9932955707
 20
-576.96704564209995
 30
0.0
 11
1195.9932955707
 21
-576.96704564209995
 31
0.0
  0
LINE
  5
143
  8
0
 62
     0
 10
1195.9932955707
 20
-576.96704564209995
 30
0.0
 11
1195.9932955707
 21
-578.96704564209995
 31
0.0
  0
LINE
  5
144
  8
0
 62
     0
 10
1195.9932955707
 20
-578.96704564209995
 30
0.0
 11
1195.9932955707
 21
-576.96704564209995
 31
0.0
  0
LINE
  5
145
  8
0
 62
     0
 10
1195.9932955707
 20
-578.96704564209995
 30
0.0
 11
1195.9932955707
 21
-578.96704564209995
 31
0.0
  0
LINE
  5
146
  8
0
 62
     0
 10
1195.9932955707
 20
-578.96704564209995
 30
0.0
 11
1195.9932955707
 21
-581.96704564209995
 31
0.0
  0
SOLID
  5
147
  8
0
 62
     0
 10
1195.9932955707
 20
-578.96704564209995
 30
0.0
 11
1196.3682955707
 21
-580.46704564209995
 31
0.0
 12
1195.6182955707
 22
-580.46704564209995
 32
0.0
 13
1195.9932955707
 23
-580.09204564209995
 33
0.0
  0
LINE
  5
148
  8
0
 62
     0
 10
1195.9932955707
 20
-576.96704564209995
 30
0.0
 11
1195.9932955707
 21
-573.96704564209995
 31
0.0
  0
SOLID
  5
149
  8
0
 62
     0
 10
1195.9932955707
 20
-576.96704564209995
 30
0.0
 11
1195.6182955707
 21
-575.46704564209995
 31
0.0
 12
1196.3682955707
 22
-575.46704564209995
 32
0.0
 13
1195.9932955707
 23
-575.84204564209995
 33
0.0
  0
ENDBLK
  5
14A
  8
0
  0
BLOCK
  8
0
  2
*D9
 70
     1
 10
0.0
 20
0.0
 30
0.0
  3
*D9
  1

  0
TEXT
  5
14E
  8
0
 62
     0
 10
1209.7774580539001
 20
-517.26560732860003
 30
0.0
 40
1.4993055104999991
  1
20.1
  0
LINE
  5
14F
  8
0
 62
     0
 10
1221.5913468898
 20
-525.53019065399985
 30
0.0
 11
1221.5913468898
 21
-518.03019065399985
 31
0.0
  0
LINE
  5
150
  8
0
 62
     0
 10
1201.4913468898001
 20
-522.53019065399985
 30
0.0
 11
1201.4913468898001
 21
-518.03019065399985
 31
0.0
  0
LINE
  5
151
  8
0
 62
     0
 10
1221.5913468898
 20
-518.53019065399985
 30
0.0
 11
1214.1871801436
 21
-518.53019065399985
 31
0.0
  0
LINE
  5
152
  8
0
 62
     0
 10
1221.5913468898
 20
-518.53019065399985
 30
0.0
 11
1208.8955136359
 21
-518.53019065399985
 31
0.0
  0
LINE
  5
153
  8
0
 62
     0
 10
1201.4913468898001
 20
-518.53019065399985
 30
0.0
 11
1214.1871801436
 21
-518.53019065399985
 31
0.0
  0
LINE
  5
154
  8
0
 62
     0
 10
1201.4913468898001
 20
-518.53019065399985
 30
0.0
 11
1208.8955136359
 21
-518.53019065399985
 31
0.0
  0
LINE
  5
155
  8
0
 62
     0
 10
1201.4913468898001
 20
-518.53019065399985
 30
0.0
 11
1204.4913468898001
 21
-518.53019065399985
 31
0.0
  0
SOLID
  5
156
  8
0
 62
     0
 10
1201.4913468898001
 20
-518.53019065399985
 30
0.0
 11
1202.9913468898001
 21
-518.15519065399997
 31
0.0
 12
1202.9913468898001
 22
-518.90519065399985
 32
0.0
 13
1202.6163468898001
 23
-518.53019065399985
 33
0.0
  0
LINE
  5
157
  8
0
 62
     0
 10
1221.5913468898
 20
-518.53019065399985
 30
0.0
 11
1218.5913468898
 21
-518.53019065399985
 31
0.0
  0
SOLID
  5
158
  8
0
 62
     0
 10
1221.5913468898
 20
-518.53019065399985
 30
0.0
 11
1220.0913468898
 21
-518.90519065399985
 31
0.0
 12
1220.0913468898
 22
-518.15519065399997
 32
0.0
 13
1220.4663468898
 23
-518.53019065399985
 33
0.0
  0
ENDBLK
  5
159
  8
0
  0
BLOCK
  8
0
  2
*D10
 70
     1
 10
0.0
 20
0.0
 30
0.0
  3
*D10
  1

  0
TEXT
  5
15D
  8
0
 62
     0
 10
1225.3267635643999
 20
-525.4711628629999
 30
0.0
 40
1.4993055104999991
  1
3
 50
90.0
  0
LINE
  5
15E
  8
0
 62
     0
 10
1222.5913468898
 20
-526.53019065399985
 30
0.0
 11
1227.0913468898
 21
-526.53019065399985
 31
0.0
  0
LINE
  5
15F
  8
0
 62
     0
 10
1219.7913466923001
 20
-523.53019065399997
 30
0.0
 11
1227.0913468898
 21
-523.53019065399997
 31
0.0
  0
LINE
  5
160
  8
0
 62
     0
 10
1226.5913468898
 20
-526.53019065399985
 30
0.0
 11
1226.5913468898
 21
-523.70727402709986
 31
0.0
  0
LINE
  5
161
  8
0
 62
     0
 10
1226.5913468898
 20
-526.53019065399985
 30
0.0
 11
1226.5913468898
 21
-526.35310728089996
 31
0.0
  0
LINE
  5
162
  8
0
 62
     0
 10
1226.5913468898
 20
-523.53019065399997
 30
0.0
 11
1226.5913468898
 21
-523.70727402709986
 31
0.0
  0
LINE
  5
163
  8
0
 62
     0
 10
1226.5913468898
 20
-523.53019065399997
 30
0.0
 11
1226.5913468898
 21
-526.35310728089996
 31
0.0
  0
LINE
  5
164
  8
0
 62
     0
 10
1226.5913468898
 20
-523.53019065399997
 30
0.0
 11
1226.5913468898
 21
-520.53019065399985
 31
0.0
  0
SOLID
  5
165
  8
0
 62
     0
 10
1226.5913468898
 20
-523.53019065399997
 30
0.0
 11
1226.2163468898
 21
-522.03019065399985
 31
0.0
 12
1226.9663468898
 22
-522.03019065399985
 32
0.0
 13
1226.5913468898
 23
-522.40519065399985
 33
0.0
  0
LINE
  5
166
  8
0
 62
     0
 10
1226.5913468898
 20
-526.53019065399985
 30
0.0
 11
1226.5913468898
 21
-529.53019065399985
 31
0.0
  0
SOLID
  5
167
  8
0
 62
     0
 10
1226.5913468898
 20
-526.53019065399985
 30
0.0
 11
1226.9663468898
 21
-528.03019065399997
 31
0.0
 12
1226.2163468898
 22
-528.03019065399997
 32
0.0
 13
1226.5913468898
 23
-527.65519065399985
 33
0.0
  0
ENDBLK
  5
168
  8
0
  0
BLOCK
  8
0
  2
*U11
 70
     1
 10
0.0
 20
0.0
 30
0.0
  3
*U11
  1

  0
TEXT
  5
193
  8
┌▓È_1
  6
CONTINUOUS
 10
1254.0631367670001
 20
-591.72402696233405
 30
0.0
 40
1.1687499999999991
  1
 É¦îvü@ü@ ëÇî┤
  0
ENDBLK
  5
195
  8
0
  0
BLOCK
  8
0
  2
*U12
 70
     1
 10
0.0
 20
0.0
 30
0.0
  3
*U12
  1

  0
TEXT
  5
197
  8
┌▓È_1
  6
CONTINUOUS
 10
1254.0631367670001
 20
-593.86089244456753
 30
0.0
 40
1.1687499999999991
  1
 É╗É}ü@ü@ ëÇî┤
  0
ENDBLK
  5
199
  8
0
  0
BLOCK
  8
0
  2
*U13
 70
     1
 10
0.0
 20
0.0
 30
0.0
  3
*U13
  1

  0
TEXT
  5
19B
  8
┌▓È_1
  6
CONTINUOUS
 10
1257.6734136294001
 20
-597.53126826168329
 30
0.0
 40
2.158999967599998
  1
èöÄ«ë´Äð
  0
ENDBLK
  5
19D
  8
0
  0
BLOCK
  8
0
  2
*U14
 70
     1
 10
0.0
 20
0.0
 30
0.0
  3
*U14
  1

  0
TEXT
  5
19F
  8
┌▓È_1
  6
CONTINUOUS
 10
1270.2958296725999
 20
-591.73589244456753
 30
0.0
 40
1.1687499999999991
  1
ü@Ä┌ ü@ôx
  0
ENDBLK
  5
1A1
  8
0
  0
BLOCK
  8
0
  2
*U15
 70
     1
 10
0.0
 20
0.0
 30
0.0
  3
*U15
  1

  0
TEXT
  5
1A3
  8
┌▓È_1
  6
CONTINUOUS
 10
1278.2958296725999
 20
-587.49182518568409
 30
0.0
 40
1.1687499999999991
  1
ü@îƒ ü@ê¾
  0
ENDBLK
  5
1A5
  8
0
  0
BLOCK
  8
0
  2
*U16
 70
     1
 10
0.0
 20
0.0
 30
0.0
  3
*U16
  1

  0
TEXT
  5
1A7
  8
┌▓È_1
  6
CONTINUOUS
 10
1294.7300968617001
 20
-588.66763734749975
 30
0.0
 40
1.7991665721000001
  1
ékér-éVéPéX
  0
ENDBLK
  5
1A9
  8
0
  0
BLOCK
  8
0
  2
*U17
 70
     1
 10
0.0
 20
0.0
 30
0.0
  3
*U17
  1

  0
TEXT
  5
1AB
  8
┌▓È_1
  6
CONTINUOUS
 10
1291.3795956382
 20
-593.11002281039077
 30
0.0
 40
1.7991665721000001
  1
érétérÆIÆîùpâtâbâN
  0
ENDBLK
  5
1AD
  8
0
  0
BLOCK
  8
0
  2
*U18
 70
     1
 10
0.0
 20
0.0
 30
0.0
  3
*U18
  1

  0
TEXT
  5
1AF
  8
┌▓È_1
  6
CONTINUOUS
 10
1254.2958296725999
 20
-587.45029599786665
 30
0.0
 40
1.1687499999999991
  1
ü@ô· ü@òt
  0
ENDBLK
  5
1B1
  8
0
  0
BLOCK
  8
0
  2
*U19
 70
     1
 10
0.0
 20
0.0
 30
0.0
  3
*U19
  1

  0
TEXT
  5
1B3
  8
┌▓È_1
  6
CONTINUOUS
 10
1286.5083864937999
 20
-587.4536449138003
 30
0.0
 40
1.1687499999999991
  1
î^öÈ
  0
ENDBLK
  5
1B5
  8
0
  0
BLOCK
  8
0
  2
*U20
 70
     1
 10
0.0
 20
0.0
 30
0.0
  3
*U20
  1

  0
TEXT
  5
1B7
  8
┌▓È_1
  6
CONTINUOUS
 10
1286.5083864937999
 20
-591.71551039603401
 30
0.0
 40
1.1687499999999991
  1
òiû╝
  0
ENDBLK
  5
1B9
  8
0
  0
BLOCK
  8
0
  2
*U21
 70
     1
 10
0.0
 20
0.0
 30
0.0
  3
*U21
  1

  0
TEXT
  5
1BB
  8
┌▓È_1
  6
CONTINUOUS
 10
1286.5083864937999
 20
-595.9536449138003
 30
0.0
 40
1.1687499999999991
  1
É}öÈ
  0
ENDBLK
  5
1BD
  8
0
  0
BLOCK
  8
0
  2
*U22
 70
     1
 10
0.0
 20
0.0
 30
0.0
  3
*U22
  1

  0
TEXT
  5
1BF
  8
┌▓È_1
  6
CONTINUOUS
 62
     5
 10
1256.173558721315
 20
-589.55156503339992
 30
0.0
 40
1.1687499999999991
  1
H13.3
  0
ENDBLK
  5
1C1
  8
0
  0
BLOCK
  8
0
  2
*U23
 70
     1
 10
0.0
 20
0.0
 30
0.0
  3
*U23
  1

  0
TEXT
  5
1C3
  8
┌▓È_1
  6
CONTINUOUS
 62
     5
 10
1262.64884425431
 20
-589.55156503339992
 30
0.0
 40
1.1687499999999991
  1
SUS304 HL
  0
ENDBLK
  5
1C5
  8
0
  0
BLOCK
  8
0
  2
*U24
 70
     1
 10
0.0
 20
0.0
 30
0.0
  3
*U24
  1

  0
TEXT
  5
1C7
  8
┌▓È_1
  6
CONTINUOUS
 62
     5
 10
1272.56511963502
 20
-589.55156503339992
 30
0.0
 40
1.1687499999999991
  1
0.8t
  0
ENDBLK
  5
1C9
  8
0
  0
BLOCK
  8
0
  2
*U25
 70
     1
 10
0.0
 20
0.0
 30
0.0
  3
*U25
  1

  0
TEXT
  5
1CB
  8
┌▓È_1
  6
CONTINUOUS
 62
     5
 10
1272.6570771223301
 20
-593.80156503339992
 30
0.0
 40
1.1687499999999991
  1
2üF1
  0
ENDBLK
  5
1CD
  8
0
  0
BLOCK
  8
0
  2
*U26
 70
     1
 10
0.0
 20
0.0
 30
0.0
  3
*U26
  1

  0
TEXT
  5
1CF
  8
┌▓È_1
  6
CONTINUOUS
 10
1262.2958296725999
 20
-587.46809422121726
 30
0.0
 40
1.1687499999999991
  1
ü@ìÌ ü@Ä┐
  0
ENDBLK
  5
1D1
  8
0
  0
BLOCK
  8
0
  2
*U27
 70
     1
 10
0.0
 20
0.0
 30
0.0
  3
*U27
  1

  0
TEXT
  5
1D3
  8
┌▓È_1
  6
CONTINUOUS
 10
1270.2958296725999
 20
-587.49182518568409
 30
0.0
 40
1.1687499999999991
  1
ü@ö┬ ü@î·
  0
ENDBLK
  5
1D5
  8
0
  0
BLOCK
  8
0
  2
*U28
 70
     1
 10
0.0
 20
0.0
 30
0.0
  3
*U28
  1

  0
TEXT
  5
489
  8
0
  6
CONTINUOUS
 10
0.2681303364527759
 20
4.01127195727436
 30
0.0
 40
0.984375
  1
\U+25A0òiü@öÈ
  7
âSâVâbâN
  0
TEXT
  5
48A
  8
0
  6
CONTINUOUS
 10
0.2849094557709577
 20
2.2084488038652701
 30
0.0
 40
0.984375
  1
ü@ ékér-744  üEüEüE\U+21164ÉÂÆn
  7
âSâVâbâN
  0
TEXT
  5
48B
  8
0
  6
CONTINUOUS
 10
0.2849094557709577
 20
0.3832534913652701
 30
0.0
 40
0.984375
  1
ü@ ékér-744évüEüEüEöÆôhæò
  7
âSâVâbâN
  0
ENDBLK
  5
48D
  8
0
  0
BLOCK
  8
0
  2
*U29
 70
     1
 10
0.0
 20
0.0
 30
0.0
  3
*U29
  1

  0
TEXT
  5
48F
  8
0
  6
CONTINUOUS
 10
1254.388847087331
 20
-580.7427481215301
 30
0.0
 40
0.984375
  1
\U+25A0òiü@öÈ
  7
âSâVâbâN
  0
TEXT
  5
490
  8
0
  6
CONTINUOUS
 10
1254.405626206649
 20
-582.54557127493922
 30
0.0
 40
0.984375
  1
ü@ ékér-719 üEüEüE\U+21164ÉÂÆn
  7
âSâVâbâN
  0
TEXT
  5
491
  8
0
  6
CONTINUOUS
 10
1254.405626206649
 20
-584.37076658743922
 30
0.0
 40
0.984375
  1
ü@ ékér-719évüEüEüEöÆôhæò
  7
âSâVâbâN
  0
ENDBLK
  5
493
  8
0
  0
ENDSEC
  0
SECTION
  2
ENTITIES
  0
ARC
  5
2F
  8
┌▓È_1
  6
STITCH
 10
1269.4506118223001
 20
-530.93019065399994
 30
0.0
 40
0.8
 50
120.5102374061
 51
180.0
  0
ARC
  5
30
  8
┌▓È_1
  6
STITCH
 10
1269.4506118223001
 20
-528.13019065399999
 30
0.0
 40
0.8
 50
180.0
 51
239.4897625939
  0
LINE
  5
31
  8
┌▓È_1
 62
     5
 10
1269.4506118223001
 20
-532.53019065399997
 30
0.0
 11
1265.6506118223001
 21
-532.53019065399997
 31
0.0
  0
LINE
  5
32
  8
┌▓È_1
 10
1270.6506118223001
 20
-524.53019065399985
 30
0.0
 11
1270.6506118223001
 21
-534.53019065399985
 31
0.0
  0
LINE
  5
33
  8
┌▓È_1
 62
     5
 10
1285.3506118222999
 20
-527.13019065399988
 30
0.0
 11
1287.1506118223001
 21
-527.13019065399988
 31
0.0
  0
LINE
  5
34
  8
┌▓È_1
 62
     5
 10
1269.4506118223001
 20
-526.53019065399985
 30
0.0
 11
1265.6506118223001
 21
-526.53019065399985
 31
0.0
  0
ARC
  5
35
  8
┌▓È_1
 62
     5
 10
1265.6506118223001
 20
-531.53019065399985
 30
0.0
 40
1.0
 50
180.0
 51
270.0
  0
LINE
  5
36
  8
┌▓È_1
 62
     5
 10
1264.6506118223001
 20
-531.53019065399985
 30
0.0
 11
1264.6506118223001
 21
-527.53019065399997
 31
0.0
  0
ARC
  5
37
  8
┌▓È_1
 62
     5
 10
1265.6506118223001
 20
-527.53019065399997
 30
0.0
 40
1.0
 50
90.0
 51
180.0
  0
ARC
  5
38
  8
┌▓È_1
  6
STITCH
 10
1266.2506118223
 20
-529.53019065399985
 30
0.0
 40
0.7107692308
 50
90.000005140799985
 51
270.00000654730002
  0
LINE
  5
39
  8
┌▓È_1
  6
STITCH
 10
1266.2506117742
 20
-530.24095988479996
 30
0.0
 11
1269.0444579762
 21
-530.24095988479996
 31
0.0
  0
LINE
  5
3A
  8
┌▓È_1
  6
STITCH
 10
1266.2506117585999
 20
-528.81942142319986
 30
0.0
 11
1269.0444579762
 21
-528.81942142319986
 31
0.0
  0
ARC
  5
3B
  8
┌▓È_1
 62
     5
 10
1266.2506118223
 20
-529.53019065399985
 30
0.0
 40
1.399999999999999
 50
90.000002035799994
 51
270.00001135069999
  0
LINE
  5
3C
  8
┌▓È_1
 62
     5
 10
1266.2506116318
 20
-530.93019065399994
 30
0.0
 11
1269.4506118223001
 21
-530.93019065399994
 31
0.0
  0
LINE
  5
3D
  8
┌▓È_1
 62
     5
 10
1266.2506117726
 20
-528.13019065399999
 30
0.0
 11
1269.4506118223001
 21
-528.13019065399999
 31
0.0
  0
LINE
  5
3E
  8
┌▓È_1
 62
     5
 10
1285.3506118222999
 20
-531.93019065399994
 30
0.0
 11
1285.3506118222999
 21
-527.13019065399988
 31
0.0
  0
ARC
  5
3F
  8
┌▓È_1
 62
     5
 10
1287.1506118223001
 20
-530.93019065399994
 30
0.0
 40
1.0
 50
270.0
 51
0.0
  0
LINE
  5
40
  8
┌▓È_1
 62
     5
 10
1285.3506118222999
 20
-531.93019065399994
 30
0.0
 11
1287.1506118223001
 21
-531.93019065399994
 31
0.0
  0
LINE
  5
41
  8
┌▓È_1
 62
     5
 10
1288.1506118223001
 20
-530.93019065399994
 30
0.0
 11
1288.1506118223001
 21
-528.13019065399999
 31
0.0
  0
ARC
  5
42
  8
┌▓È_1
 62
     5
 10
1287.1506118223001
 20
-528.13019065399999
 30
0.0
 40
1.0
 50
0.0
 51
90.0
  0
LINE
  5
43
  8
┌▓È_1
  6
STITCH
 10
1286.1506118223001
 20
-531.93019065399994
 30
0.0
 11
1286.1506118223001
 21
-527.13019065399988
 31
0.0
  0
LINE
  5
44
  8
┌▓È_1
 62
     5
 10
1286.1506118223001
 20
-527.13019065399988
 30
0.0
 11
1286.1506118223001
 21
-523.53019065399997
 31
0.0
  0
LINE
  5
45
  8
┌▓È_1
 62
     5
 10
1286.1506118223001
 20
-535.53019065399985
 30
0.0
 11
1286.1506118223001
 21
-531.93019065399994
 31
0.0
  0
LINE
  5
46
  8
┌▓È_1
 62
     5
 10
1285.6253526333001
 20
-527.13019065399988
 30
0.0
 11
1285.6253526333001
 21
-523.53019065399997
 31
0.0
  0
LINE
  5
47
  8
┌▓È_1
 62
     5
 10
1285.6253526333001
 20
-535.53019065399985
 30
0.0
 11
1285.6253526333001
 21
-531.93019065399994
 31
0.0
  0
LINE
  5
48
  8
┌▓È_1
 62
     5
 10
1269.4506118223001
 20
-530.93019065399994
 30
0.0
 11
1269.4506118223001
 21
-535.53019065399985
 31
0.0
  0
LINE
  5
49
  8
┌▓È_1
 62
     5
 10
1269.4506118223001
 20
-523.53019065399997
 30
0.0
 11
1269.4506118223001
 21
-528.13019065399999
 31
0.0
  0
ARC
  5
4A
  8
┌▓È_1
 62
     5
 10
1268.6256118223
 20
-529.53019065399985
 30
0.0
 40
1.625
 50
300.51023740609998
 51
59.489762593900011
  0
ARC
  5
4B
  8
┌▓È_1
  6
STITCH
 10
1221.5913468898
 20
-528.13019065399999
 30
0.0
 40
0.8
 50
180.0
 51
239.4897625939
  0
ARC
  5
4C
  8
┌▓È_1
  6
STITCH
 10
1220.7663468897999
 20
-529.53019065399985
 30
0.0
 40
0.825
 50
300.51023740609998
 51
59.489762593900011
  0
ARC
  5
4D
  8
┌▓È_1
  6
STITCH
 10
1221.5913468898
 20
-530.93019065399994
 30
0.0
 40
0.8
 50
120.5102374061
 51
180.0
  0
LINE
  5
4E
  8
┌▓È_1
 62
     5
 10
1221.5913468898
 20
-528.13019065399999
 30
0.0
 11
1221.5913468898
 21
-530.93019065399994
 31
0.0
  0
LINE
  5
4F
  8
┌▓È_1
 62
     5
 10
1220.7913468898
 20
-528.13019065399999
 30
0.0
 11
1220.7913468898
 21
-530.93019065399994
 31
0.0
  0
ARC
  5
50
  8
┌▓È_1
 62
     5
 10
1220.7913468898
 20
-559.46704564209995
 30
0.0
 40
1.6000000000000001
 50
270.0
 51
0.0
  0
ARC
  5
51
  8
┌▓È_1
 62
     5
 10
1216.8913468897999
 20
-559.26079564209999
 30
0.0
 40
1.8062499999999999
 50
213.85502612830001
 51
270.0
  0
LINE
  5
52
  8
┌▓È_1
 62
     5
 10
1216.8913468897999
 20
-561.06704564209986
 30
0.0
 11
1220.7913468898
 21
-561.06704564209986
 31
0.0
  0
LINE
  5
53
  8
┌▓È_1
 62
     5
 10
1203.4913468187999
 20
-559.46704564209995
 30
0.0
 11
1220.7913468898
 21
-559.46704564209995
 31
0.0
  0
ARC
  5
54
  8
┌▓È_1
  6
STITCH
 10
1215.2882249356001
 20
-560.46704564209995
 30
0.0
 40
1.0
 50
36.959195635
 51
90.0
  0
ARC
  5
55
  8
┌▓È_1
  6
STITCH
 10
1216.8913468897999
 20
-559.26079564209999
 30
0.0
 40
1.0062500000000001
 50
216.95919563499999
 51
270.0
  0
ARC
  5
56
  8
┌▓È_1
 62
     5
 10
1203.4913468898001
 20
-561.46704564209995
 30
0.0
 40
1.1999999999999991
 50
90.000004264400005
 51
240.2637716806
  0
ARC
  5
57
  8
┌▓È_1
 62
     5
 10
1203.4913468898001
 20
-561.46704564209995
 30
0.0
 40
2.0
 50
90.00000187900001
 51
240.26376985120001
  0
LINE
  5
58
  8
┌▓È_1
  6
STITCH
 10
1221.5913468898
 20
-530.93019065399994
 30
0.0
 11
1216.7913470405001
 21
-530.93019065399994
 31
0.0
  0
ARC
  5
59
  8
┌▓È_1
  6
STITCH
 10
1216.7913468898
 20
-529.53019065399985
 30
0.0
 40
1.399999999999999
 50
90.000001670299994
 51
270.0000953398
  0
LINE
  5
5A
  8
┌▓È_1
 62
     5
 10
1221.5913468898
 20
-528.13019065399999
 30
0.0
 11
1221.5913468898
 21
-526.53019065399985
 31
0.0
  0
LINE
  5
5B
  8
┌▓È_1
 62
     5
 10
1221.5913468898
 20
-532.53019065399997
 30
0.0
 11
1221.5913468898
 21
-530.93019065399994
 31
0.0
  0
ARC
  5
5C
  8
┌▓È_1
 62
     5
 10
1220.7663468897999
 20
-529.53019065399985
 30
0.0
 40
1.625
 50
300.51023740609998
 51
59.489762593900011
  0
LINE
  5
5D
  8
┌▓È_1
  6
STITCH
 10
1268.6506118223001
 20
-528.13019066870004
 30
0.0
 11
1268.6506118223001
 21
-526.53019065399985
 31
0.0
  0
LINE
  5
5E
  8
┌▓È_1
  6
STITCH
 10
1268.6506118223001
 20
-532.53019065399997
 30
0.0
 11
1268.6506118223001
 21
-530.93019059089988
 31
0.0
  0
LINE
  5
5F
  8
┌▓È_1
 62
     5
 10
1268.6506118223001
 20
-535.53019065399985
 30
0.0
 11
1268.6506118223001
 21
-532.53019065399997
 31
0.0
  0
LINE
  5
60
  8
┌▓È_1
 62
     5
 10
1268.6506118223001
 20
-526.53019065399985
 30
0.0
 11
1268.6506118223001
 21
-523.53019065399997
 31
0.0
  0
LINE
  5
61
  8
┌▓È_1
 62
     5
 10
1268.6506118223001
 20
-535.53019065399985
 30
0.0
 11
1286.1506118223001
 21
-535.53019065399985
 31
0.0
  0
LINE
  5
62
  8
┌▓È_1
 62
     5
 10
1286.1506118223001
 20
-523.53019065399997
 30
0.0
 11
1268.6506118223001
 21
-523.53019065399997
 31
0.0
  0
ARC
  5
63
  8
┌▓È_1
  6
STITCH
 10
1268.6256118223
 20
-529.53019065399985
 30
0.0
 40
0.825
 50
300.51023740609998
 51
59.489762593900011
  0
LINE
  5
64
  8
┌▓È_1
 62
     5
 10
1221.8515377483
 20
-577.96704564209995
 30
0.0
 11
1221.8515377483
 21
-578.96704564209995
 31
0.0
  0
LINE
  5
65
  8
┌▓È_1
 62
     5
 10
1222.6515377482999
 20
-577.96704564209995
 30
0.0
 11
1222.6515377482999
 21
-578.96704564209995
 31
0.0
  0
LINE
  5
66
  8
┌▓È_1
 62
     5
 10
1221.8515377483
 20
-578.96704564209995
 30
0.0
 11
1222.6515377482999
 21
-578.96704564209995
 31
0.0
  0
ARC
  5
67
  8
┌▓È_1
 62
     5
 10
1220.8515377483
 20
-577.96704564209995
 30
0.0
 40
1.0
 50
0.0
 51
90.0
  0
ARC
  5
68
  8
┌▓È_1
 62
     5
 10
1220.8515377483
 20
-577.96704564209995
 30
0.0
 40
1.8
 50
0.0
 51
90.0
  0
LINE
  5
69
  8
┌▓È_1
 62
     5
 10
1219.2858277777
 20
-576.96704564209995
 30
0.0
 11
1220.8515377483
 21
-576.96704564209995
 31
0.0
  0
LINE
  5
6A
  8
┌▓È_1
 62
     5
 10
1219.2858277777
 20
-576.96704564209995
 30
0.0
 11
1219.8892370784999
 21
-576.44178645300008
 31
0.0
  0
LINE
  5
6B
  8
┌▓È_1
 62
     5
 10
1219.6487359604
 20
-576.16704564209999
 30
0.0
 11
1220.8515377483
 21
-576.16704564209999
 31
0.0
  0
LINE
  5
6C
  8
┌▓È_1
 62
     5
 10
1201.4913468898001
 20
-535.53019065399985
 30
0.0
 11
1201.4913468898001
 21
-523.53019065399997
 31
0.0
  0
LINE
  5
6D
  8
┌▓È_1
 62
     5
 10
1219.7913468898
 20
-526.53019065399985
 30
0.0
 11
1221.5913468898
 21
-526.53019065399985
 31
0.0
  0
LINE
  5
6E
  8
┌▓È_1
 62
     5
 10
1219.7913468898
 20
-532.53019065399997
 30
0.0
 11
1221.5913468898
 21
-532.53019065399997
 31
0.0
  0
LINE
  5
6F
  8
┌▓È_1
 62
     5
 10
1220.7913468898
 20
-532.53019065399997
 30
0.0
 11
1220.7913468898
 21
-530.93019059089988
 31
0.0
  0
LINE
  5
70
  8
┌▓È_1
 62
     5
 10
1220.7913468898
 20
-528.13019066870004
 30
0.0
 11
1220.7913468898
 21
-526.53019065399985
 31
0.0
  0
LINE
  5
71
  8
┌▓È_1
 62
     5
 10
1219.7913468898
 20
-526.53019065399985
 30
0.0
 11
1219.7913468898
 21
-524.53019065399985
 31
0.0
  0
LINE
  5
72
  8
┌▓È_1
 62
     5
 10
1219.7913468898
 20
-534.53019065399985
 30
0.0
 11
1219.7913468898
 21
-532.53019065399997
 31
0.0
  0
LINE
  5
73
  8
┌▓È_1
 62
     5
 10
1220.7913468898
 20
-555.46704564209995
 30
0.0
 11
1221.5913468898
 21
-555.46704564209995
 31
0.0
  0
LINE
  5
74
  8
┌▓È_1
 62
     5
 10
1222.3913468897999
 20
-559.46704564209995
 30
0.0
 11
1222.3913468897999
 21
-556.86704564210004
 31
0.0
  0
ARC
  5
75
  8
┌▓È_1
 62
     5
 10
1221.0913468898
 20
-556.86704564210004
 30
0.0
 40
1.3
 50
0.0
 51
67.380135052
  0
LINE
  5
76
  8
┌▓È_1
 62
     5
 10
1221.5913468898
 20
-559.46704564209995
 30
0.0
 11
1221.5913468898
 21
-555.46704564209995
 31
0.0
  0
LINE
  5
77
  8
┌▓È_1
 62
     5
 10
1220.7913468898
 20
-559.46704564209995
 30
0.0
 11
1220.7913468898
 21
-555.46704564209995
 31
0.0
  0
LINE
  5
78
  8
┌▓È_1
 62
     5
 10
1201.4913468898001
 20
-523.53019065399997
 30
0.0
 11
1218.7913466923001
 21
-523.53019065399997
 31
0.0
  0
LINE
  5
79
  8
┌▓È_1
 62
     5
 10
1201.4913468898001
 20
-535.53019065399985
 30
0.0
 11
1218.7913470021999
 21
-535.53019065399985
 31
0.0
  0
ARC
  5
7A
  8
┌▓È_1
 62
     5
 10
1218.7913468898
 20
-534.53019065399985
 30
0.0
 40
1.0
 50
270.0
 51
0.0
  0
ARC
  5
7B
  8
┌▓È_1
 62
     5
 10
1218.7913468898
 20
-524.53019065399985
 30
0.0
 40
1.0
 50
0.0
 51
90.0
  0
LINE
  5
7C
  8
┌▓È_1
  6
STITCH
 10
1202.2913468898
 20
-535.53019065399985
 30
0.0
 11
1202.2913468898
 21
-523.53019065399997
 31
0.0
  0
LINE
  5
7D
  8
┌▓È_1
 62
     5
 10
1274.56173745
 20
-595.89097914299987
 30
0.0
 11
1273.9617374500001
 21
-595.89097914299987
 31
0.0
  0
LINE
  5
7E
  8
┌▓È_1
 62
     5
 10
1280.1129729335
 20
-596.81097914300005
 30
0.0
 11
1281.4175062669001
 21
-596.81097914300005
 31
0.0
  0
LINE
  5
7F
  8
┌▓È_1
 62
     5
 10
1270.7012959254
 20
-596.490979143
 30
0.0
 11
1271.1012959254001
 21
-596.490979143
 31
0.0
  0
ARC
  5
80
  8
┌▓È_1
 62
     5
 10
1276.6259798742001
 20
-595.69097914300005
 30
0.0
 40
2.2000000000000002
 50
270.0
 51
302.54495885400001
  0
LINE
  5
81
  8
┌▓È_1
 62
     5
 10
1273.9617374500001
 20
-596.490979143
 30
0.0
 11
1274.56173745
 21
-596.490979143
 31
0.0
  0
LINE
  5
82
  8
┌▓È_1
 10
1254.0631367670001
 20
-585.90504832969975
 30
0.0
 11
1254.0631367670001
 21
-598.65504832969998
 31
0.0
  0
LINE
  5
83
  8
┌▓È_1
 10
1286.0631367670001
 20
-585.90504832969975
 30
0.0
 11
1286.0631367670001
 21
-598.65504832969998
 31
0.0
  0
LINE
  5
84
  8
┌▓È_1
 10
1254.0631367670001
 20
-585.90504832969975
 30
0.0
 11
1314.0631367670001
 21
-585.90504832969975
 31
0.0
  0
LINE
  5
85
  8
┌▓È_1
 10
1254.0631367670001
 20
-594.40504832969975
 30
0.0
 11
1314.0631367670001
 21
-594.40504832969975
 31
0.0
  0
LINE
  5
86
  8
┌▓È_1
 10
1262.0631367670001
 20
-585.90504832969975
 30
0.0
 11
1262.0631367670001
 21
-590.15504832969998
 31
0.0
  0
LINE
  5
87
  8
┌▓È_1
 10
1278.0631367670001
 20
-585.90504832969975
 30
0.0
 11
1278.0631367670001
 21
-594.40504832969975
 31
0.0
  0
LINE
  5
88
  8
┌▓È_1
 62
     5
 10
1280.1129729335
 20
-595.77097914299998
 30
0.0
 11
1280.1129729335
 21
-596.490979143
 31
0.0
  0
POLYLINE
  5
1D6
  8
┌▓È_1
 62
     5
 66
     1
 10
0.0
 20
0.0
 30
0.0
 70
     8
  0
VERTEX
  5
1D7
  8
┌▓È_1
 62
     5
 10
1277.0
 20
-596.24599999999998
 30
0.0
 70
    32
  0
VERTEX
  5
1D8
  8
┌▓È_1
 62
     5
 10
1277.0
 20
-596.24900000000002
 30
0.0
 70
    32
  0
VERTEX
  5
1D9
  8
┌▓È_1
 62
     5
 10
1277.0
 20
-596.25199999999995
 30
0.0
 70
    32
  0
VERTEX
  5
1DA
  8
┌▓È_1
 62
     5
 10
1277.01
 20
-596.255
 30
0.0
 70
    32
  0
VERTEX
  5
1DB
  8
┌▓È_1
 62
     5
 10
1277.01
 20
-596.25800000000004
 30
0.0
 70
    32
  0
VERTEX
  5
1DC
  8
┌▓È_1
 62
     5
 10
1277.01
 20
-596.26099999999985
 30
0.0
 70
    32
  0
VERTEX
  5
1DD
  8
┌▓È_1
 62
     5
 10
1277.02
 20
-596.26400000000001
 30
0.0
 70
    32
  0
VERTEX
  5
1DE
  8
┌▓È_1
 62
     5
 10
1277.02
 20
-596.26700000000005
 30
0.0
 70
    32
  0
VERTEX
  5
1DF
  8
┌▓È_1
 62
     5
 10
1277.02
 20
-596.26999999999987
 30
0.0
 70
    32
  0
VERTEX
  5
1E0
  8
┌▓È_1
 62
     5
 10
1277.02
 20
-596.27300000000002
 30
0.0
 70
    32
  0
VERTEX
  5
1E1
  8
┌▓È_1
 62
     5
 10
1277.03
 20
-596.27599999999995
 30
0.0
 70
    32
  0
VERTEX
  5
1E2
  8
┌▓È_1
 62
     5
 10
1277.03
 20
-596.27800000000002
 30
0.0
 70
    32
  0
VERTEX
  5
1E3
  8
┌▓È_1
 62
     5
 10
1277.03
 20
-596.28099999999995
 30
0.0
 70
    32
  0
VERTEX
  5
1E4
  8
┌▓È_1
 62
     5
 10
1277.03
 20
-596.28399999999988
 30
0.0
 70
    32
  0
VERTEX
  5
1E5
  8
┌▓È_1
 62
     5
 10
1277.04
 20
-596.28699999999958
 30
0.0
 70
    32
  0
VERTEX
  5
1E6
  8
┌▓È_1
 62
     5
 10
1277.04
 20
-596.28999999999985
 30
0.0
 70
    32
  0
VERTEX
  5
1E7
  8
┌▓È_1
 62
     5
 10
1277.04
 20
-596.29300000000001
 30
0.0
 70
    32
  0
VERTEX
  5
1E8
  8
┌▓È_1
 62
     5
 10
1277.04
 20
-596.29600000000005
 30
0.0
 70
    32
  0
VERTEX
  5
1E9
  8
┌▓È_1
 62
     5
 10
1277.05
 20
-596.29899999999975
 30
0.0
 70
    32
  0
VERTEX
  5
1EA
  8
┌▓È_1
 62
     5
 10
1277.05
 20
-596.30200000000002
 30
0.0
 70
    32
  0
VERTEX
  5
1EB
  8
┌▓È_1
 62
     5
 10
1277.05
 20
-596.30499999999995
 30
0.0
 70
    32
  0
VERTEX
  5
1EC
  8
┌▓È_1
 62
     5
 10
1277.0599999999999
 20
-596.30799999999965
 30
0.0
 70
    32
  0
VERTEX
  5
1ED
  8
┌▓È_1
 62
     5
 10
1277.0599999999999
 20
-596.31100000000004
 30
0.0
 70
    32
  0
VERTEX
  5
1EE
  8
┌▓È_1
 62
     5
 10
1277.0599999999999
 20
-596.31399999999996
 30
0.0
 70
    32
  0
VERTEX
  5
1EF
  8
┌▓È_1
 62
     5
 10
1277.0599999999999
 20
-596.31699999999978
 30
0.0
 70
    32
  0
VERTEX
  5
1F0
  8
┌▓È_1
 62
     5
 10
1277.0699999999999
 20
-596.32000000000005
 30
0.0
 70
    32
  0
VERTEX
  5
1F1
  8
┌▓È_1
 62
     5
 10
1277.0699999999999
 20
-596.32199999999966
 30
0.0
 70
    32
  0
VERTEX
  5
1F2
  8
┌▓È_1
 62
     5
 10
1277.0699999999999
 20
-596.32500000000005
 30
0.0
 70
    32
  0
VERTEX
  5
1F3
  8
┌▓È_1
 62
     5
 10
1277.0699999999999
 20
-596.32799999999997
 30
0.0
 70
    32
  0
VERTEX
  5
1F4
  8
┌▓È_1
 62
     5
 10
1277.0799999999999
 20
-596.3309999999999
 30
0.0
 70
    32
  0
VERTEX
  5
1F5
  8
┌▓È_1
 62
     5
 10
1277.0799999999999
 20
-596.33399999999995
 30
0.0
 70
    32
  0
VERTEX
  5
1F6
  8
┌▓È_1
 62
     5
 10
1277.0799999999999
 20
-596.33699999999999
 30
0.0
 70
    32
  0
VERTEX
  5
1F7
  8
┌▓È_1
 62
     5
 10
1277.0799999999999
 20
-596.34000000000003
 30
0.0
 70
    32
  0
VERTEX
  5
1F8
  8
┌▓È_1
 62
     5
 10
1277.0899999999999
 20
-596.34299999999985
 30
0.0
 70
    32
  0
VERTEX
  5
1F9
  8
┌▓È_1
 62
     5
 10
1277.0899999999999
 20
-596.346
 30
0.0
 70
    32
  0
VERTEX
  5
1FA
  8
┌▓È_1
 62
     5
 10
1277.0899999999999
 20
-596.34900000000005
 30
0.0
 70
    32
  0
VERTEX
  5
1FB
  8
┌▓È_1
 62
     5
 10
1277.0899999999999
 20
-596.35199999999986
 30
0.0
 70
    32
  0
VERTEX
  5
1FC
  8
┌▓È_1
 62
     5
 10
1277.0999999999999
 20
-596.35500000000002
 30
0.0
 70
    32
  0
VERTEX
  5
1FD
  8
┌▓È_1
 62
     5
 10
1277.0999999999999
 20
-596.35799999999995
 30
0.0
 70
    32
  0
VERTEX
  5
1FE
  8
┌▓È_1
 62
     5
 10
1277.0999999999999
 20
-596.36000000000001
 30
0.0
 70
    32
  0
VERTEX
  5
1FF
  8
┌▓È_1
 62
     5
 10
1277.1099999999999
 20
-596.36300000000006
 30
0.0
 70
    32
  0
VERTEX
  5
200
  8
┌▓È_1
 62
     5
 10
1277.1099999999999
 20
-596.36599999999987
 30
0.0
 70
    32
  0
VERTEX
  5
201
  8
┌▓È_1
 62
     5
 10
1277.1099999999999
 20
-596.36900000000003
 30
0.0
 70
    32
  0
VERTEX
  5
202
  8
┌▓È_1
 62
     5
 10
1277.1099999999999
 20
-596.37199999999984
 30
0.0
 70
    32
  0
VERTEX
  5
203
  8
┌▓È_1
 62
     5
 10
1277.1199999999999
 20
-596.375
 30
0.0
 70
    32
  0
VERTEX
  5
204
  8
┌▓È_1
 62
     5
 10
1277.1199999999999
 20
-596.37800000000004
 30
0.0
 70
    32
  0
VERTEX
  5
205
  8
┌▓È_1
 62
     5
 10
1277.1199999999999
 20
-596.38099999999963
 30
0.0
 70
    32
  0
VERTEX
  5
206
  8
┌▓È_1
 62
     5
 10
1277.1199999999999
 20
-596.38400000000001
 30
0.0
 70
    32
  0
VERTEX
  5
207
  8
┌▓È_1
 62
     5
 10
1277.1300000000001
 20
-596.38699999999994
 30
0.0
 70
    32
  0
VERTEX
  5
208
  8
┌▓È_1
 62
     5
 10
1277.1300000000001
 20
-596.38900000000001
 30
0.0
 70
    32
  0
VERTEX
  5
209
  8
┌▓È_1
 62
     5
 10
1277.1300000000001
 20
-596.39200000000005
 30
0.0
 70
    32
  0
VERTEX
  5
20A
  8
┌▓È_1
 62
     5
 10
1277.1300000000001
 20
-596.39499999999975
 30
0.0
 70
    32
  0
VERTEX
  5
20B
  8
┌▓È_1
 62
     5
 10
1277.1400000000001
 20
-596.39800000000002
 30
0.0
 70
    32
  0
VERTEX
  5
20C
  8
┌▓È_1
 62
     5
 10
1277.1400000000001
 20
-596.40099999999995
 30
0.0
 70
    32
  0
VERTEX
  5
20D
  8
┌▓È_1
 62
     5
 10
1277.1400000000001
 20
-596.40399999999977
 30
0.0
 70
    32
  0
VERTEX
  5
20E
  8
┌▓È_1
 62
     5
 10
1277.1500000000001
 20
-596.40699999999981
 30
0.0
 70
    32
  0
VERTEX
  5
20F
  8
┌▓È_1
 62
     5
 10
1277.1500000000001
 20
-596.40999999999997
 30
0.0
 70
    32
  0
VERTEX
  5
210
  8
┌▓È_1
 62
     5
 10
1277.1500000000001
 20
-596.4129999999999
 30
0.0
 70
    32
  0
VERTEX
  5
211
  8
┌▓È_1
 62
     5
 10
1277.1500000000001
 20
-596.41499999999996
 30
0.0
 70
    32
  0
VERTEX
  5
212
  8
┌▓È_1
 62
     5
 10
1277.1600000000001
 20
-596.41799999999978
 30
0.0
 70
    32
  0
VERTEX
  5
213
  8
┌▓È_1
 62
     5
 10
1277.1600000000001
 20
-596.42100000000005
 30
0.0
 70
    32
  0
VERTEX
  5
214
  8
┌▓È_1
 62
     5
 10
1277.1600000000001
 20
-596.42399999999998
 30
0.0
 70
    32
  0
VERTEX
  5
215
  8
┌▓È_1
 62
     5
 10
1277.1600000000001
 20
-596.42699999999979
 30
0.0
 70
    32
  0
VERTEX
  5
216
  8
┌▓È_1
 62
     5
 10
1277.1700000000001
 20
-596.42999999999995
 30
0.0
 70
    32
  0
VERTEX
  5
217
  8
┌▓È_1
 62
     5
 10
1277.1700000000001
 20
-596.43299999999999
 30
0.0
 70
    32
  0
VERTEX
  5
218
  8
┌▓È_1
 62
     5
 10
1277.1700000000001
 20
-596.43499999999995
 30
0.0
 70
    32
  0
VERTEX
  5
219
  8
┌▓È_1
 62
     5
 10
1277.1800000000001
 20
-596.43799999999999
 30
0.0
 70
    32
  0
VERTEX
  5
21A
  8
┌▓È_1
 62
     5
 10
1277.1800000000001
 20
-596.4409999999998
 30
0.0
 70
    32
  0
VERTEX
  5
21B
  8
┌▓È_1
 62
     5
 10
1277.1800000000001
 20
-596.44399999999985
 30
0.0
 70
    32
  0
VERTEX
  5
21C
  8
┌▓È_1
 62
     5
 10
1277.1800000000001
 20
-596.447
 30
0.0
 70
    32
  0
VERTEX
  5
21D
  8
┌▓È_1
 62
     5
 10
1277.1900000000001
 20
-596.45000000000005
 30
0.0
 70
    32
  0
VERTEX
  5
21E
  8
┌▓È_1
 62
     5
 10
1277.1900000000001
 20
-596.452
 30
0.0
 70
    32
  0
VERTEX
  5
21F
  8
┌▓È_1
 62
     5
 10
1277.1900000000001
 20
-596.45500000000004
 30
0.0
 70
    32
  0
VERTEX
  5
220
  8
┌▓È_1
 62
     5
 10
1277.1900000000001
 20
-596.45799999999986
 30
0.0
 70
    32
  0
VERTEX
  5
221
  8
┌▓È_1
 62
     5
 10
1277.2
 20
-596.46100000000001
 30
0.0
 70
    32
  0
VERTEX
  5
222
  8
┌▓È_1
 62
     5
 10
1277.2
 20
-596.46400000000006
 30
0.0
 70
    32
  0
VERTEX
  5
223
  8
┌▓È_1
 62
     5
 10
1277.2
 20
-596.46699999999987
 30
0.0
 70
    32
  0
VERTEX
  5
224
  8
┌▓È_1
 62
     5
 10
1277.21
 20
-596.46900000000005
 30
0.0
 70
    32
  0
VERTEX
  5
225
  8
┌▓È_1
 62
     5
 10
1277.21
 20
-596.47199999999975
 30
0.0
 70
    32
  0
VERTEX
  5
226
  8
┌▓È_1
 62
     5
 10
1277.21
 20
-596.47500000000002
 30
0.0
 70
    32
  0
VERTEX
  5
227
  8
┌▓È_1
 62
     5
 10
1277.21
 20
-596.47800000000007
 30
0.0
 70
    32
  0
VERTEX
  5
228
  8
┌▓È_1
 62
     5
 10
1277.22
 20
-596.48099999999988
 30
0.0
 70
    32
  0
VERTEX
  5
229
  8
┌▓È_1
 62
     5
 10
1277.22
 20
-596.48299999999995
 30
0.0
 70
    32
  0
VERTEX
  5
22A
  8
┌▓È_1
 62
     5
 10
1277.22
 20
-596.48599999999976
 30
0.0
 70
    32
  0
VERTEX
  5
22B
  8
┌▓È_1
 62
     5
 10
1277.22
 20
-596.48900000000003
 30
0.0
 70
    32
  0
VERTEX
  5
22C
  8
┌▓È_1
 62
     5
 10
1277.23
 20
-596.49199999999985
 30
0.0
 70
    32
  0
VERTEX
  5
22D
  8
┌▓È_1
 62
     5
 10
1277.23
 20
-596.49499999999989
 30
0.0
 70
    32
  0
VERTEX
  5
22E
  8
┌▓È_1
 62
     5
 10
1277.23
 20
-596.49699999999996
 30
0.0
 70
    32
  0
VERTEX
  5
22F
  8
┌▓È_1
 62
     5
 10
1277.24
 20
-596.49999999999977
 30
0.0
 70
    32
  0
VERTEX
  5
230
  8
┌▓È_1
 62
     5
 10
1277.24
 20
-596.50300000000004
 30
0.0
 70
    32
  0
VERTEX
  5
231
  8
┌▓È_1
 62
     5
 10
1277.24
 20
-596.50599999999997
 30
0.0
 70
    32
  0
VERTEX
  5
232
  8
┌▓È_1
 62
     5
 10
1277.24
 20
-596.50800000000004
 30
0.0
 70
    32
  0
VERTEX
  5
233
  8
┌▓È_1
 62
     5
 10
1277.25
 20
-596.51099999999997
 30
0.0
 70
    32
  0
VERTEX
  5
234
  8
┌▓È_1
 62
     5
 10
1277.25
 20
-596.51399999999978
 30
0.0
 70
    32
  0
VERTEX
  5
235
  8
┌▓È_1
 62
     5
 10
1277.25
 20
-596.51700000000005
 30
0.0
 70
    32
  0
VERTEX
  5
236
  8
┌▓È_1
 62
     5
 10
1277.25
 20
-596.51899999999966
 30
0.0
 70
    32
  0
VERTEX
  5
237
  8
┌▓È_1
 62
     5
 10
1277.26
 20
-596.52199999999982
 30
0.0
 70
    32
  0
VERTEX
  5
238
  8
┌▓È_1
 62
     5
 10
1277.26
 20
-596.52499999999998
 30
0.0
 70
    32
  0
VERTEX
  5
239
  8
┌▓È_1
 62
     5
 10
1277.26
 20
-596.52799999999979
 30
0.0
 70
    32
  0
VERTEX
  5
23A
  8
┌▓È_1
 62
     5
 10
1277.27
 20
-596.52999999999997
 30
0.0
 70
    32
  0
VERTEX
  5
23B
  8
┌▓È_1
 62
     5
 10
1277.27
 20
-596.53300000000002
 30
0.0
 70
    32
  0
VERTEX
  5
23C
  8
┌▓È_1
 62
     5
 10
1277.27
 20
-596.53599999999994
 30
0.0
 70
    32
  0
VERTEX
  5
23D
  8
┌▓È_1
 62
     5
 10
1277.27
 20
-596.53899999999999
 30
0.0
 70
    32
  0
VERTEX
  5
23E
  8
┌▓È_1
 62
     5
 10
1277.28
 20
-596.54100000000017
 30
0.0
 70
    32
  0
VERTEX
  5
23F
  8
┌▓È_1
 62
     5
 10
1277.28
 20
-596.54399999999998
 30
0.0
 70
    32
  0
VERTEX
  5
240
  8
┌▓È_1
 62
     5
 10
1277.28
 20
-596.54700000000003
 30
0.0
 70
    32
  0
VERTEX
  5
241
  8
┌▓È_1
 62
     5
 10
1277.28
 20
-596.54899999999986
 30
0.0
 70
    32
  0
VERTEX
  5
242
  8
┌▓È_1
 62
     5
 10
1277.29
 20
-596.55200000000002
 30
0.0
 70
    32
  0
VERTEX
  5
243
  8
┌▓È_1
 62
     5
 10
1277.29
 20
-596.55499999999995
 30
0.0
 70
    32
  0
VERTEX
  5
244
  8
┌▓È_1
 62
     5
 10
1277.29
 20
-596.55700000000002
 30
0.0
 70
    32
  0
VERTEX
  5
245
  8
┌▓È_1
 62
     5
 10
1277.3
 20
-596.55999999999995
 30
0.0
 70
    32
  0
VERTEX
  5
246
  8
┌▓È_1
 62
     5
 10
1277.3
 20
-596.56299999999987
 30
0.0
 70
    32
  0
VERTEX
  5
247
  8
┌▓È_1
 62
     5
 10
1277.3
 20
-596.56500000000005
 30
0.0
 70
    32
  0
VERTEX
  5
248
  8
┌▓È_1
 62
     5
 10
1277.3
 20
-596.56799999999976
 30
0.0
 70
    32
  0
VERTEX
  5
249
  8
┌▓È_1
 62
     5
 10
1277.3099999999999
 20
-596.57100000000003
 30
0.0
 70
    32
  0
VERTEX
  5
24A
  8
┌▓È_1
 62
     5
 10
1277.3099999999999
 20
-596.57299999999975
 30
0.0
 70
    32
  0
VERTEX
  5
24B
  8
┌▓È_1
 62
     5
 10
1277.3099999999999
 20
-596.57600000000002
 30
0.0
 70
    32
  0
VERTEX
  5
24C
  8
┌▓È_1
 62
     5
 10
1277.3199999999999
 20
-596.57900000000006
 30
0.0
 70
    32
  0
VERTEX
  5
24D
  8
┌▓È_1
 62
     5
 10
1277.3199999999999
 20
-596.58100000000002
 30
0.0
 70
    32
  0
VERTEX
  5
24E
  8
┌▓È_1
 62
     5
 10
1277.3199999999999
 20
-596.58399999999995
 30
0.0
 70
    32
  0
VERTEX
  5
24F
  8
┌▓È_1
 62
     5
 10
1277.3199999999999
 20
-596.58699999999976
 30
0.0
 70
    32
  0
VERTEX
  5
250
  8
┌▓È_1
 62
     5
 10
1277.3299999999999
 20
-596.58900000000006
 30
0.0
 70
    32
  0
VERTEX
  5
251
  8
┌▓È_1
 62
     5
 10
1277.3299999999999
 20
-596.59199999999964
 30
0.0
 70
    32
  0
VERTEX
  5
252
  8
┌▓È_1
 62
     5
 10
1277.3299999999999
 20
-596.59500000000003
 30
0.0
 70
    32
  0
VERTEX
  5
253
  8
┌▓È_1
 62
     5
 10
1277.3399999999999
 20
-596.59699999999975
 30
0.0
 70
    32
  0
VERTEX
  5
254
  8
┌▓È_1
 62
     5
 10
1277.3399999999999
 20
-596.60000000000002
 30
0.0
 70
    32
  0
VERTEX
  5
255
  8
┌▓È_1
 62
     5
 10
1277.3399999999999
 20
-596.60199999999975
 30
0.0
 70
    32
  0
VERTEX
  5
256
  8
┌▓È_1
 62
     5
 10
1277.3399999999999
 20
-596.60500000000002
 30
0.0
 70
    32
  0
SEQEND
  5
257
  8
┌▓È_1
 62
     5
  0
POLYLINE
  5
258
  8
┌▓È_1
 62
     5
 66
     1
 10
0.0
 20
0.0
 30
0.0
 70
     8
  0
VERTEX
  5
259
  8
┌▓È_1
 62
     5
 10
1277.8099999999999
 20
-597.54600000000005
 30
0.0
 70
    32
  0
VERTEX
  5
25A
  8
┌▓È_1
 62
     5
 10
1277.8199999999999
 20
-597.54899999999975
 30
0.0
 70
    32
  0
VERTEX
  5
25B
  8
┌▓È_1
 62
     5
 10
1277.8299999999999
 20
-597.55200000000002
 30
0.0
 70
    32
  0
VERTEX
  5
25C
  8
┌▓È_1
 62
     5
 10
1277.8399999999999
 20
-597.55600000000004
 30
0.0
 70
    32
  0
VERTEX
  5
25D
  8
┌▓È_1
 62
     5
 10
1277.8499999999999
 20
-597.55899999999986
 30
0.0
 70
    32
  0
VERTEX
  5
25E
  8
┌▓È_1
 62
     5
 10
1277.8599999999999
 20
-597.56299999999965
 30
0.0
 70
    32
  0
VERTEX
  5
25F
  8
┌▓È_1
 62
     5
 10
1277.8699999999999
 20
-597.56600000000003
 30
0.0
 70
    32
  0
VERTEX
  5
260
  8
┌▓È_1
 62
     5
 10
1277.8900000000001
 20
-597.56899999999996
 30
0.0
 70
    32
  0
VERTEX
  5
261
  8
┌▓È_1
 62
     5
 10
1277.9000000000001
 20
-597.57299999999975
 30
0.0
 70
    32
  0
VERTEX
  5
262
  8
┌▓È_1
 62
     5
 10
1277.9100000000001
 20
-597.57600000000002
 30
0.0
 70
    32
  0
VERTEX
  5
263
  8
┌▓È_1
 62
     5
 10
1277.9200000000001
 20
-597.57899999999995
 30
0.0
 70
    32
  0
VERTEX
  5
264
  8
┌▓È_1
 62
     5
 10
1277.9300000000001
 20
-597.58199999999965
 30
0.0
 70
    32
  0
VERTEX
  5
265
  8
┌▓È_1
 62
     5
 10
1277.9400000000001
 20
-597.5859999999999
 30
0.0
 70
    32
  0
VERTEX
  5
266
  8
┌▓È_1
 62
     5
 10
1277.95
 20
-597.58900000000006
 30
0.0
 70
    32
  0
VERTEX
  5
267
  8
┌▓È_1
 62
     5
 10
1277.96
 20
-597.59199999999998
 30
0.0
 70
    32
  0
VERTEX
  5
268
  8
┌▓È_1
 62
     5
 10
1277.97
 20
-597.59500000000003
 30
0.0
 70
    32
  0
VERTEX
  5
269
  8
┌▓È_1
 62
     5
 10
1277.98
 20
-597.59799999999996
 30
0.0
 70
    32
  0
VERTEX
  5
26A
  8
┌▓È_1
 62
     5
 10
1277.99
 20
-597.60199999999998
 30
0.0
 70
    32
  0
VERTEX
  5
26B
  8
┌▓È_1
 62
     5
 10
1278.0
 20
-597.60500000000002
 30
0.0
 70
    32
  0
VERTEX
  5
26C
  8
┌▓È_1
 62
     5
 10
1278.02
 20
-597.60799999999995
 30
0.0
 70
    32
  0
VERTEX
  5
26D
  8
┌▓È_1
 62
     5
 10
1278.03
 20
-597.61099999999999
 30
0.0
 70
    32
  0
VERTEX
  5
26E
  8
┌▓È_1
 62
     5
 10
1278.04
 20
-597.61400000000003
 30
0.0
 70
    32
  0
VERTEX
  5
26F
  8
┌▓È_1
 62
     5
 10
1278.05
 20
-597.61699999999985
 30
0.0
 70
    32
  0
VERTEX
  5
270
  8
┌▓È_1
 62
     5
 10
1278.0599999999999
 20
-597.62
 30
0.0
 70
    32
  0
VERTEX
  5
271
  8
┌▓È_1
 62
     5
 10
1278.0699999999999
 20
-597.62400000000002
 30
0.0
 70
    32
  0
VERTEX
  5
272
  8
┌▓È_1
 62
     5
 10
1278.0799999999999
 20
-597.62699999999995
 30
0.0
 70
    32
  0
VERTEX
  5
273
  8
┌▓È_1
 62
     5
 10
1278.0899999999999
 20
-597.63
 30
0.0
 70
    32
  0
VERTEX
  5
274
  8
┌▓È_1
 62
     5
 10
1278.0999999999999
 20
-597.63300000000004
 30
0.0
 70
    32
  0
VERTEX
  5
275
  8
┌▓È_1
 62
     5
 10
1278.1099999999999
 20
-597.63599999999985
 30
0.0
 70
    32
  0
VERTEX
  5
276
  8
┌▓È_1
 62
     5
 10
1278.1300000000001
 20
-597.63900000000001
 30
0.0
 70
    32
  0
VERTEX
  5
277
  8
┌▓È_1
 62
     5
 10
1278.1400000000001
 20
-597.64200000000005
 30
0.0
 70
    32
  0
VERTEX
  5
278
  8
┌▓È_1
 62
     5
 10
1278.1500000000001
 20
-597.64499999999975
 30
0.0
 70
    32
  0
VERTEX
  5
279
  8
┌▓È_1
 62
     5
 10
1278.1600000000001
 20
-597.64800000000002
 30
0.0
 70
    32
  0
VERTEX
  5
27A
  8
┌▓È_1
 62
     5
 10
1278.1700000000001
 20
-597.65099999999995
 30
0.0
 70
    32
  0
VERTEX
  5
27B
  8
┌▓È_1
 62
     5
 10
1278.1800000000001
 20
-597.65399999999988
 30
0.0
 70
    32
  0
VERTEX
  5
27C
  8
┌▓È_1
 62
     5
 10
1278.1900000000001
 20
-597.6569999999997
 30
0.0
 70
    32
  0
VERTEX
  5
27D
  8
┌▓È_1
 62
     5
 10
1278.2
 20
-597.65899999999976
 30
0.0
 70
    32
  0
VERTEX
  5
27E
  8
┌▓È_1
 62
     5
 10
1278.21
 20
-597.66199999999958
 30
0.0
 70
    32
  0
VERTEX
  5
27F
  8
┌▓È_1
 62
     5
 10
1278.22
 20
-597.66499999999985
 30
0.0
 70
    32
  0
VERTEX
  5
280
  8
┌▓È_1
 62
     5
 10
1278.24
 20
-597.66799999999989
 30
0.0
 70
    32
  0
VERTEX
  5
281
  8
┌▓È_1
 62
     5
 10
1278.25
 20
-597.67100000000005
 30
0.0
 70
    32
  0
VERTEX
  5
282
  8
┌▓È_1
 62
     5
 10
1278.26
 20
-597.67399999999975
 30
0.0
 70
    32
  0
VERTEX
  5
283
  8
┌▓È_1
 62
     5
 10
1278.27
 20
-597.67700000000002
 30
0.0
 70
    32
  0
VERTEX
  5
284
  8
┌▓È_1
 62
     5
 10
1278.28
 20
-597.67999999999995
 30
0.0
 70
    32
  0
VERTEX
  5
285
  8
┌▓È_1
 62
     5
 10
1278.29
 20
-597.68200000000002
 30
0.0
 70
    32
  0
VERTEX
  5
286
  8
┌▓È_1
 62
     5
 10
1278.3
 20
-597.68499999999995
 30
0.0
 70
    32
  0
VERTEX
  5
287
  8
┌▓È_1
 62
     5
 10
1278.3099999999999
 20
-597.68799999999999
 30
0.0
 70
    32
  0
VERTEX
  5
288
  8
┌▓È_1
 62
     5
 10
1278.3199999999999
 20
-597.69100000000003
 30
0.0
 70
    32
  0
VERTEX
  5
289
  8
┌▓È_1
 62
     5
 10
1278.3399999999999
 20
-597.69399999999985
 30
0.0
 70
    32
  0
VERTEX
  5
28A
  8
┌▓È_1
 62
     5
 10
1278.3499999999999
 20
-597.69600000000003
 30
0.0
 70
    32
  0
VERTEX
  5
28B
  8
┌▓È_1
 62
     5
 10
1278.3599999999999
 20
-597.69899999999996
 30
0.0
 70
    32
  0
VERTEX
  5
28C
  8
┌▓È_1
 62
     5
 10
1278.3699999999999
 20
-597.702
 30
0.0
 70
    32
  0
VERTEX
  5
28D
  8
┌▓È_1
 62
     5
 10
1278.3800000000001
 20
-597.70500000000004
 30
0.0
 70
    32
  0
VERTEX
  5
28E
  8
┌▓È_1
 62
     5
 10
1278.3900000000001
 20
-597.70699999999999
 30
0.0
 70
    32
  0
VERTEX
  5
28F
  8
┌▓È_1
 62
     5
 10
1278.4000000000001
 20
-597.71000000000004
 30
0.0
 70
    32
  0
VERTEX
  5
290
  8
┌▓È_1
 62
     5
 10
1278.4100000000001
 20
-597.71299999999985
 30
0.0
 70
    32
  0
VERTEX
  5
291
  8
┌▓È_1
 62
     5
 10
1278.4200000000001
 20
-597.71500000000003
 30
0.0
 70
    32
  0
VERTEX
  5
292
  8
┌▓È_1
 62
     5
 10
1278.4400000000001
 20
-597.71799999999985
 30
0.0
 70
    32
  0
VERTEX
  5
293
  8
┌▓È_1
 62
     5
 10
1278.45
 20
-597.721
 30
0.0
 70
    32
  0
VERTEX
  5
294
  8
┌▓È_1
 62
     5
 10
1278.46
 20
-597.72400000000005
 30
0.0
 70
    32
  0
VERTEX
  5
295
  8
┌▓È_1
 62
     5
 10
1278.47
 20
-597.726
 30
0.0
 70
    32
  0
VERTEX
  5
296
  8
┌▓È_1
 62
     5
 10
1278.48
 20
-597.72900000000004
 30
0.0
 70
    32
  0
VERTEX
  5
297
  8
┌▓È_1
 62
     5
 10
1278.49
 20
-597.73099999999999
 30
0.0
 70
    32
  0
VERTEX
  5
298
  8
┌▓È_1
 62
     5
 10
1278.5
 20
-597.73400000000004
 30
0.0
 70
    32
  0
VERTEX
  5
299
  8
┌▓È_1
 62
     5
 10
1278.51
 20
-597.73699999999985
 30
0.0
 70
    32
  0
VERTEX
  5
29A
  8
┌▓È_1
 62
     5
 10
1278.53
 20
-597.73900000000003
 30
0.0
 70
    32
  0
VERTEX
  5
29B
  8
┌▓È_1
 62
     5
 10
1278.54
 20
-597.74199999999985
 30
0.0
 70
    32
  0
VERTEX
  5
29C
  8
┌▓È_1
 62
     5
 10
1278.55
 20
-597.745
 30
0.0
 70
    32
  0
VERTEX
  5
29D
  8
┌▓È_1
 62
     5
 10
1278.5599999999999
 20
-597.74699999999984
 30
0.0
 70
    32
  0
VERTEX
  5
29E
  8
┌▓È_1
 62
     5
 10
1278.5699999999999
 20
-597.75
 30
0.0
 70
    32
  0
VERTEX
  5
29F
  8
┌▓È_1
 62
     5
 10
1278.5799999999999
 20
-597.75199999999995
 30
0.0
 70
    32
  0
VERTEX
  5
2A0
  8
┌▓È_1
 62
     5
 10
1278.5899999999999
 20
-597.75499999999988
 30
0.0
 70
    32
  0
VERTEX
  5
2A1
  8
┌▓È_1
 62
     5
 10
1278.5999999999999
 20
-597.75699999999995
 30
0.0
 70
    32
  0
VERTEX
  5
2A2
  8
┌▓È_1
 62
     5
 10
1278.6199999999999
 20
-597.75999999999976
 30
0.0
 70
    32
  0
VERTEX
  5
2A3
  8
┌▓È_1
 62
     5
 10
1278.6300000000001
 20
-597.76300000000003
 30
0.0
 70
    32
  0
VERTEX
  5
2A4
  8
┌▓È_1
 62
     5
 10
1278.6400000000001
 20
-597.76499999999965
 30
0.0
 70
    32
  0
VERTEX
  5
2A5
  8
┌▓È_1
 62
     5
 10
1278.6500000000001
 20
-597.76800000000003
 30
0.0
 70
    32
  0
VERTEX
  5
2A6
  8
┌▓È_1
 62
     5
 10
1278.6600000000001
 20
-597.76999999999975
 30
0.0
 70
    32
  0
VERTEX
  5
2A7
  8
┌▓È_1
 62
     5
 10
1278.6700000000001
 20
-597.77300000000002
 30
0.0
 70
    32
  0
VERTEX
  5
2A8
  8
┌▓È_1
 62
     5
 10
1278.6800000000001
 20
-597.77499999999998
 30
0.0
 70
    32
  0
VERTEX
  5
2A9
  8
┌▓È_1
 62
     5
 10
1278.6900000000001
 20
-597.77800000000002
 30
0.0
 70
    32
  0
VERTEX
  5
2AA
  8
┌▓È_1
 62
     5
 10
1278.71
 20
-597.77999999999997
 30
0.0
 70
    32
  0
VERTEX
  5
2AB
  8
┌▓È_1
 62
     5
 10
1278.72
 20
-597.7829999999999
 30
0.0
 70
    32
  0
VERTEX
  5
2AC
  8
┌▓È_1
 62
     5
 10
1278.73
 20
-597.78499999999997
 30
0.0
 70
    32
  0
VERTEX
  5
2AD
  8
┌▓È_1
 62
     5
 10
1278.74
 20
-597.78799999999978
 30
0.0
 70
    32
  0
VERTEX
  5
2AE
  8
┌▓È_1
 62
     5
 10
1278.75
 20
-597.78999999999985
 30
0.0
 70
    32
  0
VERTEX
  5
2AF
  8
┌▓È_1
 62
     5
 10
1278.76
 20
-597.79300000000001
 30
0.0
 70
    32
  0
VERTEX
  5
2B0
  8
┌▓È_1
 62
     5
 10
1278.77
 20
-597.79499999999985
 30
0.0
 70
    32
  0
VERTEX
  5
2B1
  8
┌▓È_1
 62
     5
 10
1278.78
 20
-597.798
 30
0.0
 70
    32
  0
VERTEX
  5
2B2
  8
┌▓È_1
 62
     5
 10
1278.8
 20
-597.79999999999995
 30
0.0
 70
    32
  0
VERTEX
  5
2B3
  8
┌▓È_1
 62
     5
 10
1278.8099999999999
 20
-597.803
 30
0.0
 70
    32
  0
VERTEX
  5
2B4
  8
┌▓È_1
 62
     5
 10
1278.8199999999999
 20
-597.80499999999995
 30
0.0
 70
    32
  0
VERTEX
  5
2B5
  8
┌▓È_1
 62
     5
 10
1278.8299999999999
 20
-597.80700000000002
 30
0.0
 70
    32
  0
VERTEX
  5
2B6
  8
┌▓È_1
 62
     5
 10
1278.8399999999999
 20
-597.80999999999995
 30
0.0
 70
    32
  0
VERTEX
  5
2B7
  8
┌▓È_1
 62
     5
 10
1278.8499999999999
 20
-597.81200000000001
 30
0.0
 70
    32
  0
VERTEX
  5
2B8
  8
┌▓È_1
 62
     5
 10
1278.8599999999999
 20
-597.81500000000017
 30
0.0
 70
    32
  0
VERTEX
  5
2B9
  8
┌▓È_1
 62
     5
 10
1278.8699999999999
 20
-597.81700000000001
 30
0.0
 70
    32
  0
VERTEX
  5
2BA
  8
┌▓È_1
 62
     5
 10
1278.8900000000001
 20
-597.82000000000005
 30
0.0
 70
    32
  0
VERTEX
  5
2BB
  8
┌▓È_1
 62
     5
 10
1278.9000000000001
 20
-597.822
 30
0.0
 70
    32
  0
VERTEX
  5
2BC
  8
┌▓È_1
 62
     5
 10
1278.9100000000001
 20
-597.82399999999996
 30
0.0
 70
    32
  0
VERTEX
  5
2BD
  8
┌▓È_1
 62
     5
 10
1278.9200000000001
 20
-597.827
 30
0.0
 70
    32
  0
VERTEX
  5
2BE
  8
┌▓È_1
 62
     5
 10
1278.9300000000001
 20
-597.82900000000018
 30
0.0
 70
    32
  0
VERTEX
  5
2BF
  8
┌▓È_1
 62
     5
 10
1278.9400000000001
 20
-597.83199999999999
 30
0.0
 70
    32
  0
VERTEX
  5
2C0
  8
┌▓È_1
 62
     5
 10
1278.95
 20
-597.83400000000006
 30
0.0
 70
    32
  0
VERTEX
  5
2C1
  8
┌▓È_1
 62
     5
 10
1278.97
 20
-597.83600000000001
 30
0.0
 70
    32
  0
VERTEX
  5
2C2
  8
┌▓È_1
 62
     5
 10
1278.98
 20
-597.83900000000006
 30
0.0
 70
    32
  0
VERTEX
  5
2C3
  8
┌▓È_1
 62
     5
 10
1278.99
 20
-597.84100000000001
 30
0.0
 70
    32
  0
VERTEX
  5
2C4
  8
┌▓È_1
 62
     5
 10
1279.0
 20
-597.84400000000005
 30
0.0
 70
    32
  0
VERTEX
  5
2C5
  8
┌▓È_1
 62
     5
 10
1279.01
 20
-597.846
 30
0.0
 70
    32
  0
VERTEX
  5
2C6
  8
┌▓È_1
 62
     5
 10
1279.02
 20
-597.84800000000018
 30
0.0
 70
    32
  0
VERTEX
  5
2C7
  8
┌▓È_1
 62
     5
 10
1279.03
 20
-597.85099999999989
 30
0.0
 70
    32
  0
VERTEX
  5
2C8
  8
┌▓È_1
 62
     5
 10
1279.04
 20
-597.85300000000007
 30
0.0
 70
    32
  0
VERTEX
  5
2C9
  8
┌▓È_1
 62
     5
 10
1279.0599999999999
 20
-597.85599999999977
 30
0.0
 70
    32
  0
VERTEX
  5
2CA
  8
┌▓È_1
 62
     5
 10
1279.0699999999999
 20
-597.85799999999995
 30
0.0
 70
    32
  0
VERTEX
  5
2CB
  8
┌▓È_1
 62
     5
 10
1279.0799999999999
 20
-597.86000000000001
 30
0.0
 70
    32
  0
VERTEX
  5
2CC
  8
┌▓È_1
 62
     5
 10
1279.0899999999999
 20
-597.86300000000006
 30
0.0
 70
    32
  0
VERTEX
  5
2CD
  8
┌▓È_1
 62
     5
 10
1279.0999999999999
 20
-597.86500000000001
 30
0.0
 70
    32
  0
VERTEX
  5
2CE
  8
┌▓È_1
 62
     5
 10
1279.1099999999999
 20
-597.86699999999996
 30
0.0
 70
    32
  0
VERTEX
  5
2CF
  8
┌▓È_1
 62
     5
 10
1279.1199999999999
 20
-597.86999999999989
 30
0.0
 70
    32
  0
VERTEX
  5
2D0
  8
┌▓È_1
 62
     5
 10
1279.1400000000001
 20
-597.87199999999996
 30
0.0
 70
    32
  0
VERTEX
  5
2D1
  8
┌▓È_1
 62
     5
 10
1279.1500000000001
 20
-597.87400000000002
 30
0.0
 70
    32
  0
VERTEX
  5
2D2
  8
┌▓È_1
 62
     5
 10
1279.1600000000001
 20
-597.87699999999995
 30
0.0
 70
    32
  0
VERTEX
  5
2D3
  8
┌▓È_1
 62
     5
 10
1279.1700000000001
 20
-597.87900000000002
 30
0.0
 70
    32
  0
VERTEX
  5
2D4
  8
┌▓È_1
 62
     5
 10
1279.1800000000001
 20
-597.88199999999995
 30
0.0
 70
    32
  0
VERTEX
  5
2D5
  8
┌▓È_1
 62
     5
 10
1279.1900000000001
 20
-597.8839999999999
 30
0.0
 70
    32
  0
VERTEX
  5
2D6
  8
┌▓È_1
 62
     5
 10
1279.2
 20
-597.88599999999997
 30
0.0
 70
    32
  0
VERTEX
  5
2D7
  8
┌▓È_1
 62
     5
 10
1279.21
 20
-597.88899999999978
 30
0.0
 70
    32
  0
VERTEX
  5
2D8
  8
┌▓È_1
 62
     5
 10
1279.23
 20
-597.89099999999985
 30
0.0
 70
    32
  0
SEQEND
  5
2D9
  8
┌▓È_1
 62
     5
  0
POLYLINE
  5
2DA
  8
┌▓È_1
 62
     5
 66
     1
 10
0.0
 20
0.0
 30
0.0
 70
     8
  0
VERTEX
  5
2DB
  8
┌▓È_1
 62
     5
 10
1275.6300000000001
 20
-596.149
 30
0.0
 70
    32
  0
VERTEX
  5
2DC
  8
┌▓È_1
 62
     5
 10
1275.6300000000001
 20
-596.15499999999986
 30
0.0
 70
    32
  0
VERTEX
  5
2DD
  8
┌▓È_1
 62
     5
 10
1275.6400000000001
 20
-596.16199999999981
 30
0.0
 70
    32
  0
VERTEX
  5
2DE
  8
┌▓È_1
 62
     5
 10
1275.6500000000001
 20
-596.16899999999987
 30
0.0
 70
    32
  0
VERTEX
  5
2DF
  8
┌▓È_1
 62
     5
 10
1275.6500000000001
 20
-596.17499999999995
 30
0.0
 70
    32
  0
VERTEX
  5
2E0
  8
┌▓È_1
 62
     5
 10
1275.6600000000001
 20
-596.18200000000002
 30
0.0
 70
    32
  0
VERTEX
  5
2E1
  8
┌▓È_1
 62
     5
 10
1275.6700000000001
 20
-596.18899999999985
 30
0.0
 70
    32
  0
VERTEX
  5
2E2
  8
┌▓È_1
 62
     5
 10
1275.6800000000001
 20
-596.19500000000005
 30
0.0
 70
    32
  0
VERTEX
  5
2E3
  8
┌▓È_1
 62
     5
 10
1275.6800000000001
 20
-596.20199999999977
 30
0.0
 70
    32
  0
VERTEX
  5
2E4
  8
┌▓È_1
 62
     5
 10
1275.6900000000001
 20
-596.2080000000002
 30
0.0
 70
    32
  0
VERTEX
  5
2E5
  8
┌▓È_1
 62
     5
 10
1275.7
 20
-596.21500000000003
 30
0.0
 70
    32
  0
VERTEX
  5
2E6
  8
┌▓È_1
 62
     5
 10
1275.71
 20
-596.22199999999998
 30
0.0
 70
    32
  0
VERTEX
  5
2E7
  8
┌▓È_1
 62
     5
 10
1275.71
 20
-596.22799999999995
 30
0.0
 70
    32
  0
VERTEX
  5
2E8
  8
┌▓È_1
 62
     5
 10
1275.72
 20
-596.23499999999979
 30
0.0
 70
    32
  0
VERTEX
  5
2E9
  8
┌▓È_1
 62
     5
 10
1275.73
 20
-596.24199999999985
 30
0.0
 70
    32
  0
VERTEX
  5
2EA
  8
┌▓È_1
 62
     5
 10
1275.73
 20
-596.24800000000016
 30
0.0
 70
    32
  0
VERTEX
  5
2EB
  8
┌▓È_1
 62
     5
 10
1275.74
 20
-596.255
 30
0.0
 70
    32
  0
VERTEX
  5
2EC
  8
┌▓È_1
 62
     5
 10
1275.75
 20
-596.26099999999985
 30
0.0
 70
    32
  0
VERTEX
  5
2ED
  8
┌▓È_1
 62
     5
 10
1275.76
 20
-596.26800000000003
 30
0.0
 70
    32
  0
VERTEX
  5
2EE
  8
┌▓È_1
 62
     5
 10
1275.76
 20
-596.27499999999975
 30
0.0
 70
    32
  0
VERTEX
  5
2EF
  8
┌▓È_1
 62
     5
 10
1275.77
 20
-596.28099999999995
 30
0.0
 70
    32
  0
VERTEX
  5
2F0
  8
┌▓È_1
 62
     5
 10
1275.78
 20
-596.28800000000001
 30
0.0
 70
    32
  0
VERTEX
  5
2F1
  8
┌▓È_1
 62
     5
 10
1275.78
 20
-596.29499999999985
 30
0.0
 70
    32
  0
VERTEX
  5
2F2
  8
┌▓È_1
 62
     5
 10
1275.79
 20
-596.3009999999997
 30
0.0
 70
    32
  0
VERTEX
  5
2F3
  8
┌▓È_1
 62
     5
 10
1275.8
 20
-596.30799999999965
 30
0.0
 70
    32
  0
VERTEX
  5
2F4
  8
┌▓È_1
 62
     5
 10
1275.8099999999999
 20
-596.31399999999996
 30
0.0
 70
    32
  0
VERTEX
  5
2F5
  8
┌▓È_1
 62
     5
 10
1275.8099999999999
 20
-596.32100000000003
 30
0.0
 70
    32
  0
VERTEX
  5
2F6
  8
┌▓È_1
 62
     5
 10
1275.8199999999999
 20
-596.32799999999997
 30
0.0
 70
    32
  0
VERTEX
  5
2F7
  8
┌▓È_1
 62
     5
 10
1275.8299999999999
 20
-596.33399999999995
 30
0.0
 70
    32
  0
VERTEX
  5
2F8
  8
┌▓È_1
 62
     5
 10
1275.8399999999999
 20
-596.34100000000001
 30
0.0
 70
    32
  0
VERTEX
  5
2F9
  8
┌▓È_1
 62
     5
 10
1275.8399999999999
 20
-596.34699999999998
 30
0.0
 70
    32
  0
VERTEX
  5
2FA
  8
┌▓È_1
 62
     5
 10
1275.8499999999999
 20
-596.35400000000004
 30
0.0
 70
    32
  0
VERTEX
  5
2FB
  8
┌▓È_1
 62
     5
 10
1275.8599999999999
 20
-596.36000000000001
 30
0.0
 70
    32
  0
VERTEX
  5
2FC
  8
┌▓È_1
 62
     5
 10
1275.8599999999999
 20
-596.36699999999985
 30
0.0
 70
    32
  0
VERTEX
  5
2FD
  8
┌▓È_1
 62
     5
 10
1275.8699999999999
 20
-596.37400000000002
 30
0.0
 70
    32
  0
VERTEX
  5
2FE
  8
┌▓È_1
 62
     5
 10
1275.8800000000001
 20
-596.37999999999988
 30
0.0
 70
    32
  0
VERTEX
  5
2FF
  8
┌▓È_1
 62
     5
 10
1275.8900000000001
 20
-596.38699999999994
 30
0.0
 70
    32
  0
VERTEX
  5
300
  8
┌▓È_1
 62
     5
 10
1275.8900000000001
 20
-596.39300000000003
 30
0.0
 70
    32
  0
VERTEX
  5
301
  8
┌▓È_1
 62
     5
 10
1275.9000000000001
 20
-596.39999999999975
 30
0.0
 70
    32
  0
VERTEX
  5
302
  8
┌▓È_1
 62
     5
 10
1275.9100000000001
 20
-596.40599999999995
 30
0.0
 70
    32
  0
VERTEX
  5
303
  8
┌▓È_1
 62
     5
 10
1275.9100000000001
 20
-596.4129999999999
 30
0.0
 70
    32
  0
VERTEX
  5
304
  8
┌▓È_1
 62
     5
 10
1275.9200000000001
 20
-596.41899999999998
 30
0.0
 70
    32
  0
VERTEX
  5
305
  8
┌▓È_1
 62
     5
 10
1275.9300000000001
 20
-596.42599999999982
 30
0.0
 70
    32
  0
VERTEX
  5
306
  8
┌▓È_1
 62
     5
 10
1275.9400000000001
 20
-596.43199999999979
 30
0.0
 70
    32
  0
VERTEX
  5
307
  8
┌▓È_1
 62
     5
 10
1275.9400000000001
 20
-596.43899999999985
 30
0.0
 70
    32
  0
VERTEX
  5
308
  8
┌▓È_1
 62
     5
 10
1275.95
 20
-596.44500000000016
 30
0.0
 70
    32
  0
VERTEX
  5
309
  8
┌▓È_1
 62
     5
 10
1275.96
 20
-596.452
 30
0.0
 70
    32
  0
VERTEX
  5
30A
  8
┌▓È_1
 62
     5
 10
1275.97
 20
-596.45799999999986
 30
0.0
 70
    32
  0
VERTEX
  5
30B
  8
┌▓È_1
 62
     5
 10
1275.97
 20
-596.46500000000003
 30
0.0
 70
    32
  0
VERTEX
  5
30C
  8
┌▓È_1
 62
     5
 10
1275.98
 20
-596.471
 30
0.0
 70
    32
  0
VERTEX
  5
30D
  8
┌▓È_1
 62
     5
 10
1275.99
 20
-596.47800000000007
 30
0.0
 70
    32
  0
VERTEX
  5
30E
  8
┌▓È_1
 62
     5
 10
1276.0
 20
-596.48400000000004
 30
0.0
 70
    32
  0
VERTEX
  5
30F
  8
┌▓È_1
 62
     5
 10
1276.0
 20
-596.49099999999964
 30
0.0
 70
    32
  0
VERTEX
  5
310
  8
┌▓È_1
 62
     5
 10
1276.01
 20
-596.49699999999996
 30
0.0
 70
    32
  0
VERTEX
  5
311
  8
┌▓È_1
 62
     5
 10
1276.02
 20
-596.50400000000002
 30
0.0
 70
    32
  0
VERTEX
  5
312
  8
┌▓È_1
 62
     5
 10
1276.02
 20
-596.50999999999965
 30
0.0
 70
    32
  0
VERTEX
  5
313
  8
┌▓È_1
 62
     5
 10
1276.03
 20
-596.51700000000005
 30
0.0
 70
    32
  0
VERTEX
  5
314
  8
┌▓È_1
 62
     5
 10
1276.04
 20
-596.52300000000002
 30
0.0
 70
    32
  0
VERTEX
  5
315
  8
┌▓È_1
 62
     5
 10
1276.05
 20
-596.529
 30
0.0
 70
    32
  0
VERTEX
  5
316
  8
┌▓È_1
 62
     5
 10
1276.05
 20
-596.53599999999994
 30
0.0
 70
    32
  0
VERTEX
  5
317
  8
┌▓È_1
 62
     5
 10
1276.0599999999999
 20
-596.5419999999998
 30
0.0
 70
    32
  0
VERTEX
  5
318
  8
┌▓È_1
 62
     5
 10
1276.0699999999999
 20
-596.54899999999986
 30
0.0
 70
    32
  0
VERTEX
  5
319
  8
┌▓È_1
 62
     5
 10
1276.0799999999999
 20
-596.55499999999995
 30
0.0
 70
    32
  0
VERTEX
  5
31A
  8
┌▓È_1
 62
     5
 10
1276.0799999999999
 20
-596.56100000000004
 30
0.0
 70
    32
  0
VERTEX
  5
31B
  8
┌▓È_1
 62
     5
 10
1276.0899999999999
 20
-596.56799999999976
 30
0.0
 70
    32
  0
VERTEX
  5
31C
  8
┌▓È_1
 62
     5
 10
1276.0999999999999
 20
-596.57400000000018
 30
0.0
 70
    32
  0
VERTEX
  5
31D
  8
┌▓È_1
 62
     5
 10
1276.1099999999999
 20
-596.58000000000004
 30
0.0
 70
    32
  0
VERTEX
  5
31E
  8
┌▓È_1
 62
     5
 10
1276.1099999999999
 20
-596.58699999999976
 30
0.0
 70
    32
  0
VERTEX
  5
31F
  8
┌▓È_1
 62
     5
 10
1276.1199999999999
 20
-596.59300000000007
 30
0.0
 70
    32
  0
VERTEX
  5
320
  8
┌▓È_1
 62
     5
 10
1276.1300000000001
 20
-596.59900000000005
 30
0.0
 70
    32
  0
VERTEX
  5
321
  8
┌▓È_1
 62
     5
 10
1276.1300000000001
 20
-596.60599999999965
 30
0.0
 70
    32
  0
VERTEX
  5
322
  8
┌▓È_1
 62
     5
 10
1276.1400000000001
 20
-596.61199999999997
 30
0.0
 70
    32
  0
VERTEX
  5
323
  8
┌▓È_1
 62
     5
 10
1276.1500000000001
 20
-596.61800000000005
 30
0.0
 70
    32
  0
VERTEX
  5
324
  8
┌▓È_1
 62
     5
 10
1276.1600000000001
 20
-596.625
 30
0.0
 70
    32
  0
VERTEX
  5
325
  8
┌▓È_1
 62
     5
 10
1276.1600000000001
 20
-596.63099999999997
 30
0.0
 70
    32
  0
VERTEX
  5
326
  8
┌▓È_1
 62
     5
 10
1276.1700000000001
 20
-596.63699999999994
 30
0.0
 70
    32
  0
VERTEX
  5
327
  8
┌▓È_1
 62
     5
 10
1276.1800000000001
 20
-596.64300000000003
 30
0.0
 70
    32
  0
VERTEX
  5
328
  8
┌▓È_1
 62
     5
 10
1276.1900000000001
 20
-596.64999999999986
 30
0.0
 70
    32
  0
VERTEX
  5
329
  8
┌▓È_1
 62
     5
 10
1276.1900000000001
 20
-596.65599999999995
 30
0.0
 70
    32
  0
VERTEX
  5
32A
  8
┌▓È_1
 62
     5
 10
1276.2
 20
-596.66199999999981
 30
0.0
 70
    32
  0
VERTEX
  5
32B
  8
┌▓È_1
 62
     5
 10
1276.21
 20
-596.66800000000001
 30
0.0
 70
    32
  0
VERTEX
  5
32C
  8
┌▓È_1
 62
     5
 10
1276.22
 20
-596.67399999999975
 30
0.0
 70
    32
  0
VERTEX
  5
32D
  8
┌▓È_1
 62
     5
 10
1276.22
 20
-596.68100000000004
 30
0.0
 70
    32
  0
VERTEX
  5
32E
  8
┌▓È_1
 62
     5
 10
1276.23
 20
-596.68700000000001
 30
0.0
 70
    32
  0
VERTEX
  5
32F
  8
┌▓È_1
 62
     5
 10
1276.24
 20
-596.69299999999976
 30
0.0
 70
    32
  0
VERTEX
  5
330
  8
┌▓È_1
 62
     5
 10
1276.25
 20
-596.69899999999996
 30
0.0
 70
    32
  0
VERTEX
  5
331
  8
┌▓È_1
 62
     5
 10
1276.25
 20
-596.70500000000004
 30
0.0
 70
    32
  0
VERTEX
  5
332
  8
┌▓È_1
 62
     5
 10
1276.26
 20
-596.7109999999999
 30
0.0
 70
    32
  0
VERTEX
  5
333
  8
┌▓È_1
 62
     5
 10
1276.27
 20
-596.71699999999998
 30
0.0
 70
    32
  0
VERTEX
  5
334
  8
┌▓È_1
 62
     5
 10
1276.28
 20
-596.72299999999996
 30
0.0
 70
    32
  0
VERTEX
  5
335
  8
┌▓È_1
 62
     5
 10
1276.28
 20
-596.73000000000002
 30
0.0
 70
    32
  0
VERTEX
  5
336
  8
┌▓È_1
 62
     5
 10
1276.29
 20
-596.73599999999999
 30
0.0
 70
    32
  0
VERTEX
  5
337
  8
┌▓È_1
 62
     5
 10
1276.3
 20
-596.74199999999985
 30
0.0
 70
    32
  0
VERTEX
  5
338
  8
┌▓È_1
 62
     5
 10
1276.3099999999999
 20
-596.74800000000005
 30
0.0
 70
    32
  0
VERTEX
  5
339
  8
┌▓È_1
 62
     5
 10
1276.3099999999999
 20
-596.75400000000002
 30
0.0
 70
    32
  0
VERTEX
  5
33A
  8
┌▓È_1
 62
     5
 10
1276.3199999999999
 20
-596.75999999999999
 30
0.0
 70
    32
  0
VERTEX
  5
33B
  8
┌▓È_1
 62
     5
 10
1276.3299999999999
 20
-596.76599999999985
 30
0.0
 70
    32
  0
VERTEX
  5
33C
  8
┌▓È_1
 62
     5
 10
1276.3399999999999
 20
-596.77199999999982
 30
0.0
 70
    32
  0
VERTEX
  5
33D
  8
┌▓È_1
 62
     5
 10
1276.3399999999999
 20
-596.77800000000002
 30
0.0
 70
    32
  0
VERTEX
  5
33E
  8
┌▓È_1
 62
     5
 10
1276.3499999999999
 20
-596.78399999999976
 30
0.0
 70
    32
  0
VERTEX
  5
33F
  8
┌▓È_1
 62
     5
 10
1276.3599999999999
 20
-596.78999999999985
 30
0.0
 70
    32
  0
VERTEX
  5
340
  8
┌▓È_1
 62
     5
 10
1276.3699999999999
 20
-596.79600000000005
 30
0.0
 70
    32
  0
VERTEX
  5
341
  8
┌▓È_1
 62
     5
 10
1276.3699999999999
 20
-596.80200000000002
 30
0.0
 70
    32
  0
VERTEX
  5
342
  8
┌▓È_1
 62
     5
 10
1276.3800000000001
 20
-596.80799999999965
 30
0.0
 70
    32
  0
VERTEX
  5
343
  8
┌▓È_1
 62
     5
 10
1276.3900000000001
 20
-596.81299999999999
 30
0.0
 70
    32
  0
VERTEX
  5
344
  8
┌▓È_1
 62
     5
 10
1276.4000000000001
 20
-596.81899999999985
 30
0.0
 70
    32
  0
VERTEX
  5
345
  8
┌▓È_1
 62
     5
 10
1276.4000000000001
 20
-596.82500000000016
 30
0.0
 70
    32
  0
VERTEX
  5
346
  8
┌▓È_1
 62
     5
 10
1276.4100000000001
 20
-596.83100000000002
 30
0.0
 70
    32
  0
VERTEX
  5
347
  8
┌▓È_1
 62
     5
 10
1276.4200000000001
 20
-596.83699999999999
 30
0.0
 70
    32
  0
VERTEX
  5
348
  8
┌▓È_1
 62
     5
 10
1276.4300000000001
 20
-596.84299999999985
 30
0.0
 70
    32
  0
VERTEX
  5
349
  8
┌▓È_1
 62
     5
 10
1276.4400000000001
 20
-596.84900000000005
 30
0.0
 70
    32
  0
VERTEX
  5
34A
  8
┌▓È_1
 62
     5
 10
1276.4400000000001
 20
-596.85400000000004
 30
0.0
 70
    32
  0
VERTEX
  5
34B
  8
┌▓È_1
 62
     5
 10
1276.45
 20
-596.86000000000001
 30
0.0
 70
    32
  0
VERTEX
  5
34C
  8
┌▓È_1
 62
     5
 10
1276.46
 20
-596.86599999999976
 30
0.0
 70
    32
  0
VERTEX
  5
34D
  8
┌▓È_1
 62
     5
 10
1276.47
 20
-596.87199999999984
 30
0.0
 70
    32
  0
VERTEX
  5
34E
  8
┌▓È_1
 62
     5
 10
1276.47
 20
-596.87699999999995
 30
0.0
 70
    32
  0
VERTEX
  5
34F
  8
┌▓È_1
 62
     5
 10
1276.48
 20
-596.88300000000004
 30
0.0
 70
    32
  0
VERTEX
  5
350
  8
┌▓È_1
 62
     5
 10
1276.49
 20
-596.88900000000001
 30
0.0
 70
    32
  0
VERTEX
  5
351
  8
┌▓È_1
 62
     5
 10
1276.5
 20
-596.89399999999989
 30
0.0
 70
    32
  0
VERTEX
  5
352
  8
┌▓È_1
 62
     5
 10
1276.5
 20
-596.89999999999998
 30
0.0
 70
    32
  0
VERTEX
  5
353
  8
┌▓È_1
 62
     5
 10
1276.51
 20
-596.90599999999995
 30
0.0
 70
    32
  0
VERTEX
  5
354
  8
┌▓È_1
 62
     5
 10
1276.52
 20
-596.91099999999994
 30
0.0
 70
    32
  0
VERTEX
  5
355
  8
┌▓È_1
 62
     5
 10
1276.53
 20
-596.9169999999998
 30
0.0
 70
    32
  0
VERTEX
  5
356
  8
┌▓È_1
 62
     5
 10
1276.54
 20
-596.923
 30
0.0
 70
    32
  0
VERTEX
  5
357
  8
┌▓È_1
 62
     5
 10
1276.54
 20
-596.928
 30
0.0
 70
    32
  0
VERTEX
  5
358
  8
┌▓È_1
 62
     5
 10
1276.55
 20
-596.93399999999986
 30
0.0
 70
    32
  0
VERTEX
  5
359
  8
┌▓È_1
 62
     5
 10
1276.5599999999999
 20
-596.93899999999985
 30
0.0
 70
    32
  0
VERTEX
  5
35A
  8
┌▓È_1
 62
     5
 10
1276.5699999999999
 20
-596.94500000000005
 30
0.0
 70
    32
  0
VERTEX
  5
35B
  8
┌▓È_1
 62
     5
 10
1276.5699999999999
 20
-596.95000000000005
 30
0.0
 70
    32
  0
VERTEX
  5
35C
  8
┌▓È_1
 62
     5
 10
1276.5799999999999
 20
-596.95600000000002
 30
0.0
 70
    32
  0
VERTEX
  5
35D
  8
┌▓È_1
 62
     5
 10
1276.5899999999999
 20
-596.96100000000001
 30
0.0
 70
    32
  0
VERTEX
  5
35E
  8
┌▓È_1
 62
     5
 10
1276.5999999999999
 20
-596.96699999999976
 30
0.0
 70
    32
  0
VERTEX
  5
35F
  8
┌▓È_1
 62
     5
 10
1276.6099999999999
 20
-596.97199999999975
 30
0.0
 70
    32
  0
VERTEX
  5
360
  8
┌▓È_1
 62
     5
 10
1276.6099999999999
 20
-596.97799999999995
 30
0.0
 70
    32
  0
VERTEX
  5
361
  8
┌▓È_1
 62
     5
 10
1276.6199999999999
 20
-596.98299999999995
 30
0.0
 70
    32
  0
VERTEX
  5
362
  8
┌▓È_1
 62
     5
 10
1276.6300000000001
 20
-596.98900000000003
 30
0.0
 70
    32
  0
VERTEX
  5
363
  8
┌▓È_1
 62
     5
 10
1276.6400000000001
 20
-596.99400000000003
 30
0.0
 70
    32
  0
VERTEX
  5
364
  8
┌▓È_1
 62
     5
 10
1276.6500000000001
 20
-596.99900000000002
 30
0.0
 70
    32
  0
VERTEX
  5
365
  8
┌▓È_1
 62
     5
 10
1276.6500000000001
 20
-597.00499999999965
 30
0.0
 70
    32
  0
VERTEX
  5
366
  8
┌▓È_1
 62
     5
 10
1276.6600000000001
 20
-597.00999999999999
 30
0.0
 70
    32
  0
VERTEX
  5
367
  8
┌▓È_1
 62
     5
 10
1276.6700000000001
 20
-597.01499999999999
 30
0.0
 70
    32
  0
VERTEX
  5
368
  8
┌▓È_1
 62
     5
 10
1276.6800000000001
 20
-597.01999999999998
 30
0.0
 70
    32
  0
VERTEX
  5
369
  8
┌▓È_1
 62
     5
 10
1276.6800000000001
 20
-597.02599999999995
 30
0.0
 70
    32
  0
VERTEX
  5
36A
  8
┌▓È_1
 62
     5
 10
1276.6900000000001
 20
-597.03099999999995
 30
0.0
 70
    32
  0
VERTEX
  5
36B
  8
┌▓È_1
 62
     5
 10
1276.7
 20
-597.03599999999994
 30
0.0
 70
    32
  0
VERTEX
  5
36C
  8
┌▓È_1
 62
     5
 10
1276.71
 20
-597.04100000000005
 30
0.0
 70
    32
  0
VERTEX
  5
36D
  8
┌▓È_1
 62
     5
 10
1276.72
 20
-597.04700000000003
 30
0.0
 70
    32
  0
VERTEX
  5
36E
  8
┌▓È_1
 62
     5
 10
1276.72
 20
-597.05200000000002
 30
0.0
 70
    32
  0
VERTEX
  5
36F
  8
┌▓È_1
 62
     5
 10
1276.73
 20
-597.05700000000002
 30
0.0
 70
    32
  0
VERTEX
  5
370
  8
┌▓È_1
 62
     5
 10
1276.74
 20
-597.06200000000001
 30
0.0
 70
    32
  0
VERTEX
  5
371
  8
┌▓È_1
 62
     5
 10
1276.75
 20
-597.06700000000001
 30
0.0
 70
    32
  0
VERTEX
  5
372
  8
┌▓È_1
 62
     5
 10
1276.76
 20
-597.072
 30
0.0
 70
    32
  0
VERTEX
  5
373
  8
┌▓È_1
 62
     5
 10
1276.76
 20
-597.07699999999988
 30
0.0
 70
    32
  0
VERTEX
  5
374
  8
┌▓È_1
 62
     5
 10
1276.77
 20
-597.08199999999977
 30
0.0
 70
    32
  0
VERTEX
  5
375
  8
┌▓È_1
 62
     5
 10
1276.78
 20
-597.08699999999965
 30
0.0
 70
    32
  0
VERTEX
  5
376
  8
┌▓È_1
 62
     5
 10
1276.79
 20
-597.09199999999964
 30
0.0
 70
    32
  0
VERTEX
  5
377
  8
┌▓È_1
 62
     5
 10
1276.8
 20
-597.09699999999998
 30
0.0
 70
    32
  0
VERTEX
  5
378
  8
┌▓È_1
 62
     5
 10
1276.8099999999999
 20
-597.10199999999998
 30
0.0
 70
    32
  0
VERTEX
  5
379
  8
┌▓È_1
 62
     5
 10
1276.8099999999999
 20
-597.10699999999997
 30
0.0
 70
    32
  0
VERTEX
  5
37A
  8
┌▓È_1
 62
     5
 10
1276.8199999999999
 20
-597.11199999999985
 30
0.0
 70
    32
  0
SEQEND
  5
37B
  8
┌▓È_1
 62
     5
  0
POLYLINE
  5
37C
  8
┌▓È_1
 62
     5
 66
     1
 10
0.0
 20
0.0
 30
0.0
 70
     8
  0
VERTEX
  5
37D
  8
┌▓È_1
 62
     5
 10
1278.3
 20
-597.10000000000002
 30
0.0
 70
    32
  0
VERTEX
  5
37E
  8
┌▓È_1
 62
     5
 10
1278.3099999999999
 20
-597.10199999999998
 30
0.0
 70
    32
  0
VERTEX
  5
37F
  8
┌▓È_1
 62
     5
 10
1278.3099999999999
 20
-597.10400000000004
 30
0.0
 70
    32
  0
VERTEX
  5
380
  8
┌▓È_1
 62
     5
 10
1278.3199999999999
 20
-597.10599999999999
 30
0.0
 70
    32
  0
VERTEX
  5
381
  8
┌▓È_1
 62
     5
 10
1278.3299999999999
 20
-597.10799999999995
 30
0.0
 70
    32
  0
VERTEX
  5
382
  8
┌▓È_1
 62
     5
 10
1278.3299999999999
 20
-597.10999999999979
 30
0.0
 70
    32
  0
VERTEX
  5
383
  8
┌▓È_1
 62
     5
 10
1278.3399999999999
 20
-597.11199999999985
 30
0.0
 70
    32
  0
VERTEX
  5
384
  8
┌▓È_1
 62
     5
 10
1278.3499999999999
 20
-597.11400000000003
 30
0.0
 70
    32
  0
VERTEX
  5
385
  8
┌▓È_1
 62
     5
 10
1278.3599999999999
 20
-597.11599999999999
 30
0.0
 70
    32
  0
VERTEX
  5
386
  8
┌▓È_1
 62
     5
 10
1278.3599999999999
 20
-597.11800000000017
 30
0.0
 70
    32
  0
VERTEX
  5
387
  8
┌▓È_1
 62
     5
 10
1278.3699999999999
 20
-597.12
 30
0.0
 70
    32
  0
VERTEX
  5
388
  8
┌▓È_1
 62
     5
 10
1278.3800000000001
 20
-597.12199999999984
 30
0.0
 70
    32
  0
VERTEX
  5
389
  8
┌▓È_1
 62
     5
 10
1278.3800000000001
 20
-597.12300000000016
 30
0.0
 70
    32
  0
VERTEX
  5
38A
  8
┌▓È_1
 62
     5
 10
1278.3900000000001
 20
-597.125
 30
0.0
 70
    32
  0
VERTEX
  5
38B
  8
┌▓È_1
 62
     5
 10
1278.4000000000001
 20
-597.12699999999995
 30
0.0
 70
    32
  0
VERTEX
  5
38C
  8
┌▓È_1
 62
     5
 10
1278.4100000000001
 20
-597.12900000000002
 30
0.0
 70
    32
  0
VERTEX
  5
38D
  8
┌▓È_1
 62
     5
 10
1278.4100000000001
 20
-597.13099999999986
 30
0.0
 70
    32
  0
VERTEX
  5
38E
  8
┌▓È_1
 62
     5
 10
1278.4200000000001
 20
-597.13300000000004
 30
0.0
 70
    32
  0
VERTEX
  5
38F
  8
┌▓È_1
 62
     5
 10
1278.4300000000001
 20
-597.13400000000001
 30
0.0
 70
    32
  0
VERTEX
  5
390
  8
┌▓È_1
 62
     5
 10
1278.4300000000001
 20
-597.13599999999985
 30
0.0
 70
    32
  0
VERTEX
  5
391
  8
┌▓È_1
 62
     5
 10
1278.4400000000001
 20
-597.13800000000003
 30
0.0
 70
    32
  0
VERTEX
  5
392
  8
┌▓È_1
 62
     5
 10
1278.45
 20
-597.13999999999999
 30
0.0
 70
    32
  0
VERTEX
  5
393
  8
┌▓È_1
 62
     5
 10
1278.46
 20
-597.14099999999985
 30
0.0
 70
    32
  0
VERTEX
  5
394
  8
┌▓È_1
 62
     5
 10
1278.46
 20
-597.14300000000003
 30
0.0
 70
    32
  0
VERTEX
  5
395
  8
┌▓È_1
 62
     5
 10
1278.47
 20
-597.14499999999987
 30
0.0
 70
    32
  0
VERTEX
  5
396
  8
┌▓È_1
 62
     5
 10
1278.48
 20
-597.14699999999982
 30
0.0
 70
    32
  0
VERTEX
  5
397
  8
┌▓È_1
 62
     5
 10
1278.48
 20
-597.14800000000002
 30
0.0
 70
    32
  0
VERTEX
  5
398
  8
┌▓È_1
 62
     5
 10
1278.49
 20
-597.14999999999975
 30
0.0
 70
    32
  0
VERTEX
  5
399
  8
┌▓È_1
 62
     5
 10
1278.5
 20
-597.15199999999982
 30
0.0
 70
    32
  0
VERTEX
  5
39A
  8
┌▓È_1
 62
     5
 10
1278.51
 20
-597.154
 30
0.0
 70
    32
  0
VERTEX
  5
39B
  8
┌▓È_1
 62
     5
 10
1278.51
 20
-597.15499999999975
 30
0.0
 70
    32
  0
VERTEX
  5
39C
  8
┌▓È_1
 62
     5
 10
1278.52
 20
-597.15699999999981
 30
0.0
 70
    32
  0
VERTEX
  5
39D
  8
┌▓È_1
 62
     5
 10
1278.53
 20
-597.15899999999988
 30
0.0
 70
    32
  0
VERTEX
  5
39E
  8
┌▓È_1
 62
     5
 10
1278.53
 20
-597.15999999999985
 30
0.0
 70
    32
  0
VERTEX
  5
39F
  8
┌▓È_1
 62
     5
 10
1278.54
 20
-597.16199999999958
 30
0.0
 70
    32
  0
VERTEX
  5
3A0
  8
┌▓È_1
 62
     5
 10
1278.55
 20
-597.16399999999976
 30
0.0
 70
    32
  0
VERTEX
  5
3A1
  8
┌▓È_1
 62
     5
 10
1278.5599999999999
 20
-597.16499999999985
 30
0.0
 70
    32
  0
VERTEX
  5
3A2
  8
┌▓È_1
 62
     5
 10
1278.5599999999999
 20
-597.16699999999958
 30
0.0
 70
    32
  0
VERTEX
  5
3A3
  8
┌▓È_1
 62
     5
 10
1278.5699999999999
 20
-597.16800000000001
 30
0.0
 70
    32
  0
VERTEX
  5
3A4
  8
┌▓È_1
 62
     5
 10
1278.5799999999999
 20
-597.16999999999985
 30
0.0
 70
    32
  0
VERTEX
  5
3A5
  8
┌▓È_1
 62
     5
 10
1278.5799999999999
 20
-597.17200000000003
 30
0.0
 70
    32
  0
VERTEX
  5
3A6
  8
┌▓È_1
 62
     5
 10
1278.5899999999999
 20
-597.17299999999989
 30
0.0
 70
    32
  0
VERTEX
  5
3A7
  8
┌▓È_1
 62
     5
 10
1278.5999999999999
 20
-597.17499999999995
 30
0.0
 70
    32
  0
VERTEX
  5
3A8
  8
┌▓È_1
 62
     5
 10
1278.6099999999999
 20
-597.1759999999997
 30
0.0
 70
    32
  0
VERTEX
  5
3A9
  8
┌▓È_1
 62
     5
 10
1278.6099999999999
 20
-597.17799999999977
 30
0.0
 70
    32
  0
VERTEX
  5
3AA
  8
┌▓È_1
 62
     5
 10
1278.6199999999999
 20
-597.17999999999995
 30
0.0
 70
    32
  0
VERTEX
  5
3AB
  8
┌▓È_1
 62
     5
 10
1278.6300000000001
 20
-597.18100000000004
 30
0.0
 70
    32
  0
VERTEX
  5
3AC
  8
┌▓È_1
 62
     5
 10
1278.6400000000001
 20
-597.18299999999965
 30
0.0
 70
    32
  0
VERTEX
  5
3AD
  8
┌▓È_1
 62
     5
 10
1278.6400000000001
 20
-597.18399999999986
 30
0.0
 70
    32
  0
VERTEX
  5
3AE
  8
┌▓È_1
 62
     5
 10
1278.6500000000001
 20
-597.18600000000004
 30
0.0
 70
    32
  0
VERTEX
  5
3AF
  8
┌▓È_1
 62
     5
 10
1278.6600000000001
 20
-597.18700000000001
 30
0.0
 70
    32
  0
VERTEX
  5
3B0
  8
┌▓È_1
 62
     5
 10
1278.6600000000001
 20
-597.18899999999996
 30
0.0
 70
    32
  0
VERTEX
  5
3B1
  8
┌▓È_1
 62
     5
 10
1278.6700000000001
 20
-597.19000000000005
 30
0.0
 70
    32
  0
VERTEX
  5
3B2
  8
┌▓È_1
 62
     5
 10
1278.6800000000001
 20
-597.19199999999989
 30
0.0
 70
    32
  0
VERTEX
  5
3B3
  8
┌▓È_1
 62
     5
 10
1278.6900000000001
 20
-597.19299999999976
 30
0.0
 70
    32
  0
VERTEX
  5
3B4
  8
┌▓È_1
 62
     5
 10
1278.6900000000001
 20
-597.19500000000005
 30
0.0
 70
    32
  0
VERTEX
  5
3B5
  8
┌▓È_1
 62
     5
 10
1278.7
 20
-597.19600000000003
 30
0.0
 70
    32
  0
VERTEX
  5
3B6
  8
┌▓È_1
 62
     5
 10
1278.71
 20
-597.19799999999998
 30
0.0
 70
    32
  0
VERTEX
  5
3B7
  8
┌▓È_1
 62
     5
 10
1278.72
 20
-597.19899999999996
 30
0.0
 70
    32
  0
VERTEX
  5
3B8
  8
┌▓È_1
 62
     5
 10
1278.72
 20
-597.20100000000002
 30
0.0
 70
    32
  0
VERTEX
  5
3B9
  8
┌▓È_1
 62
     5
 10
1278.73
 20
-597.20199999999966
 30
0.0
 70
    32
  0
VERTEX
  5
3BA
  8
┌▓È_1
 62
     5
 10
1278.74
 20
-597.20399999999995
 30
0.0
 70
    32
  0
VERTEX
  5
3BB
  8
┌▓È_1
 62
     5
 10
1278.74
 20
-597.20500000000004
 30
0.0
 70
    32
  0
VERTEX
  5
3BC
  8
┌▓È_1
 62
     5
 10
1278.75
 20
-597.20699999999999
 30
0.0
 70
    32
  0
VERTEX
  5
3BD
  8
┌▓È_1
 62
     5
 10
1278.76
 20
-597.20799999999997
 30
0.0
 70
    32
  0
VERTEX
  5
3BE
  8
┌▓È_1
 62
     5
 10
1278.77
 20
-597.20899999999995
 30
0.0
 70
    32
  0
VERTEX
  5
3BF
  8
┌▓È_1
 62
     5
 10
1278.77
 20
-597.21099999999979
 30
0.0
 70
    32
  0
VERTEX
  5
3C0
  8
┌▓È_1
 62
     5
 10
1278.78
 20
-597.21199999999999
 30
0.0
 70
    32
  0
VERTEX
  5
3C1
  8
┌▓È_1
 62
     5
 10
1278.79
 20
-597.21400000000017
 30
0.0
 70
    32
  0
VERTEX
  5
3C2
  8
┌▓È_1
 62
     5
 10
1278.8
 20
-597.21500000000003
 30
0.0
 70
    32
  0
VERTEX
  5
3C3
  8
┌▓È_1
 62
     5
 10
1278.8
 20
-597.21699999999998
 30
0.0
 70
    32
  0
VERTEX
  5
3C4
  8
┌▓È_1
 62
     5
 10
1278.8099999999999
 20
-597.21799999999985
 30
0.0
 70
    32
  0
VERTEX
  5
3C5
  8
┌▓È_1
 62
     5
 10
1278.8199999999999
 20
-597.21900000000016
 30
0.0
 70
    32
  0
VERTEX
  5
3C6
  8
┌▓È_1
 62
     5
 10
1278.8299999999999
 20
-597.221
 30
0.0
 70
    32
  0
VERTEX
  5
3C7
  8
┌▓È_1
 62
     5
 10
1278.8299999999999
 20
-597.22199999999998
 30
0.0
 70
    32
  0
VERTEX
  5
3C8
  8
┌▓È_1
 62
     5
 10
1278.8399999999999
 20
-597.22299999999996
 30
0.0
 70
    32
  0
VERTEX
  5
3C9
  8
┌▓È_1
 62
     5
 10
1278.8499999999999
 20
-597.22500000000002
 30
0.0
 70
    32
  0
VERTEX
  5
3CA
  8
┌▓È_1
 62
     5
 10
1278.8499999999999
 20
-597.226
 30
0.0
 70
    32
  0
VERTEX
  5
3CB
  8
┌▓È_1
 62
     5
 10
1278.8599999999999
 20
-597.22799999999995
 30
0.0
 70
    32
  0
VERTEX
  5
3CC
  8
┌▓È_1
 62
     5
 10
1278.8699999999999
 20
-597.22900000000004
 30
0.0
 70
    32
  0
VERTEX
  5
3CD
  8
┌▓È_1
 62
     5
 10
1278.8800000000001
 20
-597.23000000000002
 30
0.0
 70
    32
  0
VERTEX
  5
3CE
  8
┌▓È_1
 62
     5
 10
1278.8800000000001
 20
-597.23199999999963
 30
0.0
 70
    32
  0
VERTEX
  5
3CF
  8
┌▓È_1
 62
     5
 10
1278.8900000000001
 20
-597.23299999999995
 30
0.0
 70
    32
  0
VERTEX
  5
3D0
  8
┌▓È_1
 62
     5
 10
1278.9000000000001
 20
-597.23400000000004
 30
0.0
 70
    32
  0
VERTEX
  5
3D1
  8
┌▓È_1
 62
     5
 10
1278.9100000000001
 20
-597.23599999999999
 30
0.0
 70
    32
  0
VERTEX
  5
3D2
  8
┌▓È_1
 62
     5
 10
1278.9100000000001
 20
-597.23699999999985
 30
0.0
 70
    32
  0
VERTEX
  5
3D3
  8
┌▓È_1
 62
     5
 10
1278.9200000000001
 20
-597.23800000000017
 30
0.0
 70
    32
  0
VERTEX
  5
3D4
  8
┌▓È_1
 62
     5
 10
1278.9300000000001
 20
-597.24000000000001
 30
0.0
 70
    32
  0
VERTEX
  5
3D5
  8
┌▓È_1
 62
     5
 10
1278.9400000000001
 20
-597.24099999999987
 30
0.0
 70
    32
  0
VERTEX
  5
3D6
  8
┌▓È_1
 62
     5
 10
1278.9400000000001
 20
-597.24199999999985
 30
0.0
 70
    32
  0
VERTEX
  5
3D7
  8
┌▓È_1
 62
     5
 10
1278.95
 20
-597.24400000000003
 30
0.0
 70
    32
  0
VERTEX
  5
3D8
  8
┌▓È_1
 62
     5
 10
1278.96
 20
-597.245
 30
0.0
 70
    32
  0
VERTEX
  5
3D9
  8
┌▓È_1
 62
     5
 10
1278.97
 20
-597.24599999999975
 30
0.0
 70
    32
  0
VERTEX
  5
3DA
  8
┌▓È_1
 62
     5
 10
1278.97
 20
-597.24800000000005
 30
0.0
 70
    32
  0
VERTEX
  5
3DB
  8
┌▓È_1
 62
     5
 10
1278.98
 20
-597.24900000000002
 30
0.0
 70
    32
  0
VERTEX
  5
3DC
  8
┌▓È_1
 62
     5
 10
1278.99
 20
-597.25
 30
0.0
 70
    32
  0
VERTEX
  5
3DD
  8
┌▓È_1
 62
     5
 10
1279.0
 20
-597.25199999999995
 30
0.0
 70
    32
  0
VERTEX
  5
3DE
  8
┌▓È_1
 62
     5
 10
1279.0
 20
-597.25300000000004
 30
0.0
 70
    32
  0
VERTEX
  5
3DF
  8
┌▓È_1
 62
     5
 10
1279.01
 20
-597.25400000000002
 30
0.0
 70
    32
  0
VERTEX
  5
3E0
  8
┌▓È_1
 62
     5
 10
1279.02
 20
-597.255
 30
0.0
 70
    32
  0
VERTEX
  5
3E1
  8
┌▓È_1
 62
     5
 10
1279.03
 20
-597.25699999999995
 30
0.0
 70
    32
  0
VERTEX
  5
3E2
  8
┌▓È_1
 62
     5
 10
1279.03
 20
-597.25800000000004
 30
0.0
 70
    32
  0
VERTEX
  5
3E3
  8
┌▓È_1
 62
     5
 10
1279.04
 20
-597.25900000000001
 30
0.0
 70
    32
  0
VERTEX
  5
3E4
  8
┌▓È_1
 62
     5
 10
1279.05
 20
-597.26099999999985
 30
0.0
 70
    32
  0
VERTEX
  5
3E5
  8
┌▓È_1
 62
     5
 10
1279.05
 20
-597.26199999999994
 30
0.0
 70
    32
  0
VERTEX
  5
3E6
  8
┌▓È_1
 62
     5
 10
1279.0599999999999
 20
-597.26300000000003
 30
0.0
 70
    32
  0
VERTEX
  5
3E7
  8
┌▓È_1
 62
     5
 10
1279.0699999999999
 20
-597.26400000000001
 30
0.0
 70
    32
  0
VERTEX
  5
3E8
  8
┌▓È_1
 62
     5
 10
1279.0799999999999
 20
-597.26599999999985
 30
0.0
 70
    32
  0
VERTEX
  5
3E9
  8
┌▓È_1
 62
     5
 10
1279.0799999999999
 20
-597.26700000000005
 30
0.0
 70
    32
  0
VERTEX
  5
3EA
  8
┌▓È_1
 62
     5
 10
1279.0899999999999
 20
-597.26800000000003
 30
0.0
 70
    32
  0
VERTEX
  5
3EB
  8
┌▓È_1
 62
     5
 10
1279.0999999999999
 20
-597.26999999999975
 30
0.0
 70
    32
  0
VERTEX
  5
3EC
  8
┌▓È_1
 62
     5
 10
1279.1099999999999
 20
-597.27099999999984
 30
0.0
 70
    32
  0
VERTEX
  5
3ED
  8
┌▓È_1
 62
     5
 10
1279.1099999999999
 20
-597.27199999999982
 30
0.0
 70
    32
  0
VERTEX
  5
3EE
  8
┌▓È_1
 62
     5
 10
1279.1199999999999
 20
-597.27300000000002
 30
0.0
 70
    32
  0
VERTEX
  5
3EF
  8
┌▓È_1
 62
     5
 10
1279.1300000000001
 20
-597.27499999999975
 30
0.0
 70
    32
  0
VERTEX
  5
3F0
  8
┌▓È_1
 62
     5
 10
1279.1400000000001
 20
-597.27599999999995
 30
0.0
 70
    32
  0
VERTEX
  5
3F1
  8
┌▓È_1
 62
     5
 10
1279.1400000000001
 20
-597.2769999999997
 30
0.0
 70
    32
  0
VERTEX
  5
3F2
  8
┌▓È_1
 62
     5
 10
1279.1500000000001
 20
-597.27800000000002
 30
0.0
 70
    32
  0
VERTEX
  5
3F3
  8
┌▓È_1
 62
     5
 10
1279.1600000000001
 20
-597.27999999999975
 30
0.0
 70
    32
  0
VERTEX
  5
3F4
  8
┌▓È_1
 62
     5
 10
1279.1700000000001
 20
-597.28099999999995
 30
0.0
 70
    32
  0
VERTEX
  5
3F5
  8
┌▓È_1
 62
     5
 10
1279.1700000000001
 20
-597.2819999999997
 30
0.0
 70
    32
  0
VERTEX
  5
3F6
  8
┌▓È_1
 62
     5
 10
1279.1800000000001
 20
-597.28300000000002
 30
0.0
 70
    32
  0
VERTEX
  5
3F7
  8
┌▓È_1
 62
     5
 10
1279.1900000000001
 20
-597.28499999999997
 30
0.0
 70
    32
  0
VERTEX
  5
3F8
  8
┌▓È_1
 62
     5
 10
1279.2
 20
-597.28599999999994
 30
0.0
 70
    32
  0
VERTEX
  5
3F9
  8
┌▓È_1
 62
     5
 10
1279.2
 20
-597.28699999999981
 30
0.0
 70
    32
  0
VERTEX
  5
3FA
  8
┌▓È_1
 62
     5
 10
1279.21
 20
-597.2879999999999
 30
0.0
 70
    32
  0
VERTEX
  5
3FB
  8
┌▓È_1
 62
     5
 10
1279.22
 20
-597.28999999999996
 30
0.0
 70
    32
  0
VERTEX
  5
3FC
  8
┌▓È_1
 62
     5
 10
1279.23
 20
-597.29100000000005
 30
0.0
 70
    32
  0
SEQEND
  5
3FD
  8
┌▓È_1
 62
     5
  0
ARC
  5
8D
  8
┌▓È_1
 62
     5
 10
1170.2588220835
 20
-619.64435474970003
 30
0.0
 40
65.799999999999997
 50
41.039105951799989
 51
60.263770039700013
  0
ARC
  5
8E
  8
┌▓È_1
 62
     5
 10
1170.2588220835
 20
-619.64435474970003
 30
0.0
 40
65.0
 50
41.039105951799989
 51
60.263770039700013
  0
ARC
  5
8F
  8
┌▓È_1
 10
1216.7913487968999
 20
-529.53019065399985
 30
0.0
 40
0.7107692308
 50
90.000004244100026
 51
270.00003405450002
  0
LINE
  5
90
  8
┌▓È_1
 10
1221.1851930436001
 20
-530.24095988479996
 30
0.0
 11
1216.7913487899
 21
-530.24095988479996
 31
0.0
  0
LINE
  5
91
  8
┌▓È_1
 10
1221.1851930436001
 20
-528.81942142319986
 30
0.0
 11
1216.7913487443
 21
-528.81942142319986
 31
0.0
  0
LINE
  5
92
  8
┌▓È_1
  6
STITCH
 10
1221.5913468898
 20
-528.13019065399999
 30
0.0
 11
1216.7913468490001
 21
-528.13019065399999
 31
0.0
  0
ARC
  5
93
  8
┌▓È_1
 62
     5
 10
1220.7913468898
 20
-559.46704564209995
 30
0.0
 40
0.8
 50
270.0
 51
0.0
  0
LINE
  5
94
  8
┌▓È_1
 62
     5
 10
1219.7913468898
 20
-559.46704564209995
 30
0.0
 11
1219.7913468898
 21
-560.26704564210002
 31
0.0
  0
LINE
  5
95
  8
┌▓È_1
 62
     5
 10
1203.4913467823001
 20
-560.26704564210002
 30
0.0
 11
1220.7913468898
 21
-560.26704564210002
 31
0.0
  0
LINE
  5
96
  8
┌▓È_1
 62
     5
 10
1274.56173745
 20
-595.09097914299991
 30
0.0
 11
1272.9617374500001
 21
-595.09097914299991
 31
0.0
  0
LINE
  5
97
  8
┌▓È_1
 62
     5
 10
1282.7518246645
 20
-597.53097914299997
 30
0.0
 11
1283.7129729334999
 21
-597.53097914299997
 31
0.0
  0
LINE
  5
98
  8
┌▓È_1
 62
     5
 10
1272.1617374499999
 20
-597.09097914300003
 30
0.0
 11
1272.1617374499999
 21
-596.490979143
 31
0.0
  0
LINE
  5
99
  8
┌▓È_1
 62
     5
 10
1280.1129729335
 20
-596.81097914300005
 30
0.0
 11
1280.1129729335
 21
-597.53097914299997
 31
0.0
  0
LINE
  5
9A
  8
┌▓È_1
 62
     5
 10
1280.1129729335
 20
-596.490979143
 30
0.0
 11
1281.3236396002001
 21
-596.490979143
 31
0.0
  0
LINE
  5
9B
  8
┌▓È_1
 62
     5
 10
1273.9617374500001
 20
-596.69097914300005
 30
0.0
 11
1273.9617374500001
 21
-596.490979143
 31
0.0
  0
LINE
  5
9C
  8
┌▓È_1
 62
     5
 10
1275.6259798742001
 20
-596.01982324999994
 30
0.0
 11
1277.2259798742
 21
-596.01982324999994
 31
0.0
  0
LINE
  5
9D
  8
┌▓È_1
 62
     5
 10
1277.4405048709
 20
-596.49860750499965
 30
0.0
 11
1277.3442665483999
 21
-596.60490284920002
 31
0.0
  0
ARC
  5
9E
  8
┌▓È_1
 62
     5
 10
1272.36173745
 20
-596.69097914300005
 30
0.0
 40
0.6
 50
270.0
 51
0.0
  0
LINE
  5
9F
  8
┌▓È_1
 62
     5
 10
1272.9617374500001
 20
-595.09097914299991
 30
0.0
 11
1272.9617374500001
 21
-595.89097914299987
 31
0.0
  0
LINE
  5
A0
  8
┌▓È_1
 62
     5
 10
1282.4525493076001
 20
-596.490979143
 30
0.0
 11
1283.7129729334999
 21
-596.490979143
 31
0.0
  0
LINE
  5
A1
  8
┌▓È_1
 62
     5
 10
1278.8259798741999
 20
-595.69097914300005
 30
0.0
 11
1279.2259798742
 21
-595.09097914299991
 31
0.0
  0
LINE
  5
A2
  8
┌▓È_1
 62
     5
 10
1281.4175062669001
 20
-596.81097914300005
 30
0.0
 11
1281.3236396002001
 21
-596.490979143
 31
0.0
  0
LINE
  5
A3
  8
┌▓È_1
 62
     5
 10
1273.9617374500001
 20
-595.69097914300005
 30
0.0
 11
1274.56173745
 21
-595.09097914299991
 31
0.0
  0
LINE
  5
A4
  8
┌▓È_1
 62
     5
 10
1271.1617374499999
 20
-597.09097914300003
 30
0.0
 11
1272.1617374499999
 21
-597.09097914300003
 31
0.0
  0
LINE
  5
A5
  8
┌▓È_1
 62
     5
 10
1279.2259798742
 20
-595.09097914299991
 30
0.0
 11
1275.6259798742001
 21
-595.09097914299991
 31
0.0
  0
LINE
  5
A6
  8
┌▓È_1
 62
     5
 10
1282.245358676
 20
-595.77097914299998
 30
0.0
 11
1282.1868009759
 21
-595.56748758679964
 31
0.0
  0
LINE
  5
A7
  8
┌▓È_1
 62
     5
 10
1280.1129729335
 20
-597.53097914299997
 30
0.0
 11
1281.6287062669001
 21
-597.53097914299997
 31
0.0
  0
ARC
  5
A8
  8
┌▓È_1
 62
     5
 10
1276.6259798742001
 20
-595.69097914300005
 30
0.0
 40
2.2000000000000002
 50
322.48761197969998
 51
0.0
  0
LINE
  5
A9
  8
┌▓È_1
 62
     5
 10
1282.5446340328001
 20
-596.81097914300005
 30
0.0
 11
1283.7129729334999
 21
-596.81097914300005
 31
0.0
  0
LINE
  5
AA
  8
┌▓È_1
 62
     5
 10
1282.9129729335
 20
-598.09097914300003
 30
0.0
 11
1282.7518246645
 21
-597.53097914299997
 31
0.0
  0
LINE
  5
AB
  8
┌▓È_1
 62
     5
 10
1272.1617374499999
 20
-596.490979143
 30
0.0
 11
1272.9617374500001
 21
-596.490979143
 31
0.0
  0
LINE
  5
AC
  8
┌▓È_1
 62
     5
 10
1272.9617374500001
 20
-596.490979143
 30
0.0
 11
1272.9617374500001
 21
-596.69097914300005
 31
0.0
  0
LINE
  5
AD
  8
┌▓È_1
 62
     5
 10
1280.1129729335
 20
-595.77097914299998
 30
0.0
 11
1281.1124396002001
 21
-595.77097914299998
 31
0.0
  0
LINE
  5
AE
  8
┌▓È_1
 62
     5
 10
1273.9617374500001
 20
-595.89097914299987
 30
0.0
 11
1273.9617374500001
 21
-595.69097914300005
 31
0.0
  0
LINE
  5
AF
  8
┌▓È_1
 10
1255.0631367670001
 20
-592.28004832969998
 30
0.0
 11
1269.0631367670001
 21
-592.28004832969998
 31
0.0
  0
LINE
  5
B0
  8
┌▓È_1
 10
1271.0631367670001
 20
-588.03004832969975
 30
0.0
 11
1277.0631367670001
 21
-588.03004832969975
 31
0.0
  0
LINE
  5
B1
  8
┌▓È_1
 10
1271.0631367670001
 20
-592.28004832969998
 30
0.0
 11
1277.0631367670001
 21
-592.28004832969998
 31
0.0
  0
INSERT
  5
B2
  8
0
  6
CONTINUOUS
  2
*U11
 10
0.0
 20
0.0
 30
0.0
  0
INSERT
  5
B3
  8
0
  6
CONTINUOUS
  2
*U12
 10
0.0
 20
0.0
 30
0.0
  0
ARC
  5
B4
  8
┌▓È_1
 62
     5
 10
1276.1059798742001
 20
-595.77097914299998
 30
0.0
 40
1.52
 50
331.39928138329998
 51
358.49204224580001
  0
LINE
  5
B5
  8
┌▓È_1
 62
     5
 10
1275.6259798742001
 20
-597.89097914299975
 30
0.0
 11
1276.6259798742001
 21
-597.89097914299975
 31
0.0
  0
LINE
  5
B6
  8
┌▓È_1
 62
     5
 10
1271.1617374499999
 20
-597.89097914299975
 30
0.0
 11
1272.7617374500001
 21
-597.89097914299975
 31
0.0
  0
LINE
  5
B7
  8
┌▓È_1
 62
     5
 10
1278.8259798741999
 20
-595.69097914300005
 30
0.0
 11
1279.2259798742
 21
-595.09097914299991
 31
0.0
  0
LINE
  5
B8
  8
┌▓È_1
 62
     5
 10
1280.9129729335
 20
-595.09097914299991
 30
0.0
 11
1282.5129729334999
 21
-595.09097914299991
 31
0.0
  0
LINE
  5
B9
  8
┌▓È_1
 62
     5
 10
1275.6259798742001
 20
-597.29097914300007
 30
0.0
 11
1276.1059798742001
 21
-597.29097914300007
 31
0.0
  0
LINE
  5
BA
  8
┌▓È_1
 62
     5
 10
1275.6259798742001
 20
-597.29097914300007
 30
0.0
 11
1275.6259798742001
 21
-597.89097914299975
 31
0.0
  0
ARC
  5
BB
  8
┌▓È_1
 62
     5
 10
1276.1059798742001
 20
-595.77097914299998
 30
0.0
 40
1.52
 50
270.0
 51
298.08590481520002
  0
LINE
  5
BC
  8
┌▓È_1
 62
     5
 10
1278.3710676150999
 20
-597.03063162659987
 30
0.0
 11
1278.2998267911
 21
-597.10038288419992
 31
0.0
  0
LINE
  5
BD
  8
┌▓È_1
 62
     5
 10
1271.1617374499999
 20
-596.490979143
 30
0.0
 11
1271.1617374499999
 21
-597.09097914300003
 31
0.0
  0
INSERT
  5
BE
  8
0
  6
CONTINUOUS
  2
*U13
 10
0.0
 20
0.0
 30
0.0
  0
LINE
  5
BF
  8
┌▓È_1
 62
     5
 10
1282.245358676
 20
-595.77097914299998
 30
0.0
 11
1283.7129729334999
 21
-595.77097914299998
 31
0.0
  0
LINE
  5
C0
  8
┌▓È_1
 62
     5
 10
1281.1124396002001
 20
-595.77097914299998
 30
0.0
 11
1280.9129729335
 21
-595.09097914299991
 31
0.0
  0
LINE
  5
C1
  8
┌▓È_1
 62
     5
 10
1271.1617374499999
 20
-595.09097914299991
 30
0.0
 11
1271.1617374499999
 21
-595.89097914299987
 31
0.0
  0
LINE
  5
C2
  8
┌▓È_1
 62
     5
 10
1272.1617374499999
 20
-595.69097914300005
 30
0.0
 11
1272.7617374500001
 21
-595.09097914299991
 31
0.0
  0
LINE
  5
C3
  8
┌▓È_1
 62
     5
 10
1272.7617374500001
 20
-595.09097914299991
 30
0.0
 11
1271.1617374499999
 21
-595.09097914299991
 31
0.0
  0
LINE
  5
C4
  8
┌▓È_1
 62
     5
 10
1272.9617374500001
 20
-595.89097914299987
 30
0.0
 11
1272.1617374499999
 21
-595.89097914299987
 31
0.0
  0
LINE
  5
C5
  8
┌▓È_1
 62
     5
 10
1282.1868009759
 20
-595.56748758679964
 30
0.0
 11
1282.5129729334999
 21
-595.09097914299991
 31
0.0
  0
ARC
  5
C6
  8
┌▓È_1
 62
     5
 10
1272.7617374500001
 20
-596.69097914300005
 30
0.0
 40
1.1999999999999991
 50
270.0
 51
0.0
  0
LINE
  5
C7
  8
┌▓È_1
 62
     5
 10
1275.6259798742001
 20
-595.09097914299991
 30
0.0
 11
1275.6259798742001
 21
-595.81097914300005
 31
0.0
  0
INSERT
  5
C8
  8
0
  6
CONTINUOUS
  2
*U14
 10
0.0
 20
0.0
 30
0.0
  0
INSERT
  5
C9
  8
0
  6
CONTINUOUS
  2
*U15
 10
0.0
 20
0.0
 30
0.0
  0
LINE
  5
CA
  8
┌▓È_1
 10
1254.0631367670001
 20
-590.15504832969998
 30
0.0
 11
1278.0631367670001
 21
-590.15504832969998
 31
0.0
  0
LINE
  5
CB
  8
┌▓È_1
 10
1286.0631367670001
 20
-590.15504832969998
 30
0.0
 11
1314.0631367670001
 21
-590.15504832969998
 31
0.0
  0
LINE
  5
CC
  8
┌▓È_1
 10
1278.0631367670001
 20
-588.03004832969975
 30
0.0
 11
1286.0631367670001
 21
-588.03004832969975
 31
0.0
  0
LINE
  5
CD
  8
┌▓È_1
 62
     5
 10
1283.7129729334999
 20
-595.77097914299998
 30
0.0
 11
1283.7129729334999
 21
-596.490979143
 31
0.0
  0
LINE
  5
CE
  8
┌▓È_1
 62
     5
 10
1275.6259798742001
 20
-595.81097914300005
 30
0.0
 11
1277.6259798742001
 21
-595.81097914300005
 31
0.0
  0
LINE
  5
CF
  8
┌▓È_1
 62
     5
 10
1272.36173745
 20
-597.29097914300007
 30
0.0
 11
1271.1617374499999
 21
-597.29097914300007
 31
0.0
  0
LINE
  5
D0
  8
┌▓È_1
 62
     5
 10
1281.7929729335001
 20
-598.09097914300003
 30
0.0
 11
1281.6287062669001
 21
-597.53097914299997
 31
0.0
  0
LINE
  5
D1
  8
┌▓È_1
 62
     5
 10
1282.5446340328001
 20
-596.81097914300005
 30
0.0
 11
1282.4525493076001
 21
-596.490979143
 31
0.0
  0
LINE
  5
D2
  8
┌▓È_1
 62
     5
 10
1271.1617374499999
 20
-597.29097914300007
 30
0.0
 11
1271.1617374499999
 21
-597.89097914299975
 31
0.0
  0
LINE
  5
D3
  8
┌▓È_1
 62
     5
 10
1271.1617374499999
 20
-596.490979143
 30
0.0
 11
1271.1012959254001
 21
-596.490979143
 31
0.0
  0
LINE
  5
D4
  8
┌▓È_1
 62
     5
 10
1279.2259798742
 20
-597.29097914300007
 30
0.0
 11
1279.2259798742
 21
-597.89097914299975
 31
0.0
  0
LINE
  5
D5
  8
┌▓È_1
 62
     5
 10
1283.7129729334999
 20
-596.81097914300005
 30
0.0
 11
1283.7129729334999
 21
-597.53097914299997
 31
0.0
  0
LINE
  5
D6
  8
┌▓È_1
 62
     5
 10
1271.1617374499999
 20
-595.89097914299987
 30
0.0
 11
1270.7012959254
 21
-595.89097914299987
 31
0.0
  0
LINE
  5
D7
  8
┌▓È_1
 62
     5
 10
1275.6259798742001
 20
-597.89097914299975
 30
0.0
 11
1275.6259798742001
 21
-597.29097914300007
 31
0.0
  0
LINE
  5
D8
  8
┌▓È_1
 62
     5
 10
1272.1617374499999
 20
-595.89097914299987
 30
0.0
 11
1272.1617374499999
 21
-595.69097914300005
 31
0.0
  0
LINE
  5
D9
  8
┌▓È_1
 62
     5
 10
1281.7929729335001
 20
-598.09097914300003
 30
0.0
 11
1282.9129729335
 21
-598.09097914300003
 31
0.0
  0
LINE
  5
DA
  8
┌▓È_1
 62
     5
 10
1274.56173745
 20
-595.89097914299987
 30
0.0
 11
1274.56173745
 21
-596.490979143
 31
0.0
  0
LINE
  5
DB
  8
┌▓È_1
 62
     5
 10
1270.7012959254
 20
-595.89097914299987
 30
0.0
 11
1270.7012959254
 21
-596.490979143
 31
0.0
  0
LINE
  5
DC
  8
┌▓È_1
 62
     5
 10
1275.6259798742001
 20
-596.14866735700002
 30
0.0
 11
1275.6259798742001
 21
-596.01982324999994
 31
0.0
  0
LINE
  5
DD
  8
┌▓È_1
 62
     5
 10
1277.2259798742
 20
-596.01982324999994
 30
0.0
 11
1276.9997057042001
 21
-596.24609741990002
 31
0.0
  0
LINE
  5
DE
  8
┌▓È_1
 10
1270.0631367670001
 20
-585.90504832969975
 30
0.0
 11
1270.0631367670001
 21
-594.40504832969975
 31
0.0
  0
LINE
  5
DF
  8
┌▓È_1
 10
1255.0631367670001
 20
-588.03004832969975
 30
0.0
 11
1261.0631367670001
 21
-588.03004832969975
 31
0.0
  0
LINE
  5
E0
  8
┌▓È_1
 10
1263.0631367670001
 20
-588.03004832969975
 30
0.0
 11
1269.0631367670001
 21
-588.03004832969975
 31
0.0
  0
DIMENSION
  5
F1
  8
Éíû@É³
  2
*D2
 10
1226.5913468898
 20
-532.53019065399997
 30
0.0
 11
1226.5913468898
 21
-529.53019065399985
 31
0.0
 70
   128
  1
<>
 13
1221.5913468898
 23
-532.53019065399997
 33
0.0
 14
1221.5913468898
 24
-526.53019065399985
 34
0.0
 50
90.0
  0
DIMENSION
  5
100
  8
Éíû@É³
  2
*D3
 10
1226.5913468898
 20
-535.53019065399985
 30
0.0
 11
1226.5913468898
 21
-534.03019065399985
 31
0.0
 70
   128
  1
<>
 13
1218.7913470021999
 23
-535.53019065399985
 33
0.0
 14
1221.5913468898
 24
-532.53019065399997
 34
0.0
 50
90.0
  0
DIMENSION
  5
10F
  8
Éíû@É³
  2
*D4
 10
1230.6994277265001
 20
-535.53019065399985
 30
0.0
 11
1230.6994277265001
 21
-529.53019065399985
 31
0.0
 70
   128
  1
<>
 13
1218.7913470021999
 23
-535.53019065399985
 33
0.0
 14
1218.7913466923001
 24
-523.53019065399997
 34
0.0
 50
90.0
  0
DIMENSION
  5
11E
  8
Éíû@É³
  2
*D5
 10
1227.6515377482999
 20
-578.96704564209995
 30
0.0
 11
1227.6515377482999
 21
-567.21704564209995
 31
0.0
 70
   128
  1
<>
 13
1222.6515377482999
 23
-578.96704564209995
 33
0.0
 14
1221.5913468898
 24
-555.46704564209995
 34
0.0
 50
90.0
  0
DIMENSION
  5
12D
  8
Éíû@É³
  2
*D6
 10
1195.9932955707
 20
-555.46704564209995
 30
0.0
 11
1195.9932955707
 21
-557.46704564209995
 31
0.0
 70
   128
  1
<>
 13
1220.7913468898
 23
-555.46704564209995
 33
0.0
 14
1203.4913468187999
 24
-559.46704564209995
 34
0.0
 50
90.0
  0
DIMENSION
  5
13C
  8
Éíû@É³
  2
*D7
 10
1195.9932955707
 20
-559.46704564209995
 30
0.0
 11
1195.9932955707
 21
-568.21704564209995
 31
0.0
 70
   128
  1
<>
 13
1203.4913468187999
 23
-559.46704564209995
 33
0.0
 14
1219.2858277777
 24
-576.96704564209995
 34
0.0
 50
90.0
  0
DIMENSION
  5
14B
  8
Éíû@É³
  2
*D8
 10
1195.9932955707
 20
-576.96704564209995
 30
0.0
 11
1195.9932955707
 21
-577.96704564209995
 31
0.0
 70
   128
  1
<>
 13
1219.2858277777
 23
-576.96704564209995
 33
0.0
 14
1221.8515377483
 24
-578.96704564209995
 34
0.0
 50
90.0
  0
DIMENSION
  5
15A
  8
Éíû@É³
  2
*D9
 10
1221.5913468898
 20
-518.53019065399985
 30
0.0
 11
1211.5413468898
 21
-518.53019065399985
 31
0.0
 70
   128
  1
<>
 13
1221.5913468898
 23
-526.53019065399985
 33
0.0
 14
1201.4913468898001
 24
-523.53019065399997
 34
0.0
  0
DIMENSION
  5
169
  8
Éíû@É³
  2
*D10
 10
1226.5913468898
 20
-526.53019065399985
 30
0.0
 11
1226.5913468898
 21
-525.03019065399985
 31
0.0
 70
   128
  1
<>
 13
1221.5913468898
 23
-526.53019065399985
 33
0.0
 14
1218.7913466923001
 24
-523.53019065399997
 34
0.0
 50
90.0
  0
INSERT
  5
16B
  8
0
  6
CONTINUOUS
  2
*U17
 10
0.0
 20
0.0
 30
0.0
  0
LINE
  5
16C
  8
┌▓È_1
 62
     5
 10
1176.5631367670001
 20
-503.65504832969998
 30
0.0
 11
1314.0631367670001
 21
-503.65504832969998
 31
0.0
  0
LINE
  5
16D
  8
┌▓È_1
 62
     5
 10
1176.5631367670001
 20
-598.65504832969998
 30
0.0
 11
1314.0631367670001
 21
-598.65504832969998
 31
0.0
  0
LINE
  5
16E
  8
┌▓È_1
 62
     5
 10
1176.5631367670001
 20
-598.65504832969998
 30
0.0
 11
1176.5631367670001
 21
-503.65504832969998
 31
0.0
  0
LINE
  5
16F
  8
┌▓È_1
 62
     5
 10
1314.0631367670001
 20
-598.65504832969998
 30
0.0
 11
1314.0631367670001
 21
-503.65504832969998
 31
0.0
  0
INSERT
  5
170
  8
0
  6
CONTINUOUS
  2
*U18
 10
0.0
 20
0.0
 30
0.0
  0
INSERT
  5
171
  8
0
  6
CONTINUOUS
  2
*U19
 10
0.0
 20
0.0
 30
0.0
  0
INSERT
  5
172
  8
0
  6
CONTINUOUS
  2
*U20
 10
0.0
 20
0.0
 30
0.0
  0
INSERT
  5
173
  8
0
  6
CONTINUOUS
  2
*U21
 10
0.0
 20
0.0
 30
0.0
  0
INSERT
  5
174
  8
0
  6
CONTINUOUS
  2
*U22
 10
0.0
 20
0.0
 30
0.0
  0
INSERT
  5
175
  8
0
  6
CONTINUOUS
  2
*U23
 10
0.0
 20
0.0
 30
0.0
  0
INSERT
  5
176
  8
0
  6
CONTINUOUS
  2
*U24
 10
0.0
 20
0.0
 30
0.0
  0
INSERT
  5
177
  8
0
  6
CONTINUOUS
  2
*U25
 10
0.0
 20
0.0
 30
0.0
  0
INSERT
  5
178
  8
0
  6
CONTINUOUS
  2
*U26
 10
0.0
 20
0.0
 30
0.0
  0
INSERT
  5
179
  8
0
  6
CONTINUOUS
  2
*U27
 10
0.0
 20
0.0
 30
0.0
  0
INSERT
  5
47A
  8
0
  6
CONTINUOUS
  2
*U29
 10
0.0
 20
0.0
 30
0.0
  0
TEXT
  5
47B
  8
┌▓È_1
  6
CONTINUOUS
 10
1291.4211921608769
 20
-588.66763734749975
 30
0.0
 40
1.7991665721000001
  1
LS-719üA719W
  0
ENDSEC
  0
EOF
