  0
SECTION
  2
HEADER
  9
$ACADVER
  1
AC1009
  9
$INSBASE
 10
0.0
 20
0.0
 30
0.0
  9
$EXTMIN
 10
868.36874516140006
 20
-536.67331451610005
 30
0.0
  9
$EXTMAX
 10
955.56471088440003
 20
-402.06803252549997
 30
0.0
  9
$LIMMIN
 10
0.0
 20
0.0
  9
$LIMMAX
 10
0.0
 20
0.0
  9
$ORTHOMODE
 70
     0
  9
$REGENMODE
 70
     1
  9
$FILLMODE
 70
     1
  9
$QTEXTMODE
 70
     0
  9
$MIRRTEXT
 70
     1
  9
$DRAGMODE
 70
     2
  9
$LTSCALE
 40
1.0
  9
$OSMODE
 70
    31
  9
$ATTMODE
 70
     1
  9
$TEXTSIZE
 40
0.0
  9
$TRACEWID
 40
0.05
  9
$TEXTSTYLE
  7
STANDARD
  9
$CLAYER
  8
0
  9
$CELTYPE
  6
CONTINUOUS
  9
$CECOLOR
 62
   256
  9
$DIMSCALE
 40
1.0
  9
$DIMASZ
 40
0.18
  9
$DIMEXO
 40
0.0625
  9
$DIMDLI
 40
0.38
  9
$DIMRND
 40
0.0
  9
$DIMDLE
 40
0.0
  9
$DIMEXE
 40
0.18
  9
$DIMTP
 40
0.0
  9
$DIMTM
 40
0.0
  9
$DIMTXT
 40
0.18
  9
$DIMCEN
 40
0.09
  9
$DIMTSZ
 40
0.0
  9
$DIMTOL
 70
     0
  9
$DIMLIM
 70
     0
  9
$DIMTIH
 70
     1
  9
$DIMTOH
 70
     1
  9
$DIMSE1
 70
     0
  9
$DIMSE2
 70
     0
  9
$DIMTAD
 70
     0
  9
$DIMZIN
 70
     0
  9
$DIMBLK
  1

  9
$DIMASO
 70
     1
  9
$DIMSHO
 70
     1
  9
$DIMPOST
  1

  9
$DIMAPOST
  1

  9
$DIMALT
 70
     0
  9
$DIMALTD
 70
     2
  9
$DIMALTF
 40
25.399999999999999
  9
$DIMLFAC
 40
1.0
  9
$DIMTOFL
 70
     0
  9
$DIMTVP
 40
0.0
  9
$DIMTIX
 70
     0
  9
$DIMSOXD
 70
     0
  9
$DIMSAH
 70
     0
  9
$DIMBLK1
  1

  9
$DIMBLK2
  1

  9
$DIMSTYLE
  2
STANDARD
  9
$DIMCLRD
 70
     0
  9
$DIMCLRE
 70
     0
  9
$DIMCLRT
 70
     0
  9
$DIMTFAC
 40
1.0
  9
$DIMGAP
 40
0.09
  9
$LUNITS
 70
     2
  9
$LUPREC
 70
     4
  9
$SKETCHINC
 40
0.1
  9
$FILLETRAD
 40
0.0
  9
$AUNITS
 70
     0
  9
$AUPREC
 70
     0
  9
$MENU
  1
acad
  9
$ELEVATION
 40
0.0
  9
$PELEVATION
 40
0.0
  9
$THICKNESS
 40
0.0
  9
$LIMCHECK
 70
     0
  9
$BLIPMODE
 70
     0
  9
$CHAMFERA
 40
0.0
  9
$CHAMFERB
 40
0.0
  9
$SKPOLY
 70
     0
  9
$TDCREATE
 40
2454858.5747889471
  9
$TDUPDATE
 40
2454858.5808604509
  9
$TDINDWG
 40
0.0048996296
  9
$TDUSRTIMER
 40
0.0048992708
  9
$USRTIMER
 70
     1
  9
$ANGBASE
 50
0.0
  9
$ANGDIR
 70
     0
  9
$PDMODE
 70
     3
  9
$PDSIZE
 40
-1.0
  9
$PLINEWID
 40
0.0
  9
$COORDS
 70
     2
  9
$SPLFRAME
 70
     0
  9
$SPLINETYPE
 70
     6
  9
$SPLINESEGS
 70
     8
  9
$ATTDIA
 70
     0
  9
$ATTREQ
 70
     1
  9
$HANDLING
 70
     1
  9
$HANDSEED
  5
556
  9
$SURFTAB1
 70
     6
  9
$SURFTAB2
 70
     6
  9
$SURFTYPE
 70
     6
  9
$SURFU
 70
     6
  9
$SURFV
 70
     6
  9
$UCSNAME
  2

  9
$UCSORG
 10
0.0
 20
0.0
 30
0.0
  9
$UCSXDIR
 10
1.0
 20
0.0
 30
0.0
  9
$UCSYDIR
 10
0.0
 20
1.0
 30
0.0
  9
$PUCSNAME
  2

  9
$PUCSORG
 10
0.0
 20
0.0
 30
0.0
  9
$PUCSXDIR
 10
1.0
 20
0.0
 30
0.0
  9
$PUCSYDIR
 10
0.0
 20
1.0
 30
0.0
  9
$USERI1
 70
     0
  9
$USERI2
 70
     0
  9
$USERI3
 70
     0
  9
$USERI4
 70
     0
  9
$USERI5
 70
     0
  9
$USERR1
 40
0.0
  9
$USERR2
 40
0.0
  9
$USERR3
 40
0.0
  9
$USERR4
 40
0.0
  9
$USERR5
 40
0.0
  9
$WORLDVIEW
 70
     1
  9
$SHADEDGE
 70
     3
  9
$SHADEDIF
 70
    70
  9
$TILEMODE
 70
     1
  9
$MAXACTVP
 70
    16
  9
$PLIMCHECK
 70
     0
  9
$PEXTMIN
 10
1.0000000000000000E+020
 20
1.0000000000000000E+020
 30
1.0000000000000000E+020
  9
$PEXTMAX
 10
-1.0000000000000000E+020
 20
-1.0000000000000000E+020
 30
-1.0000000000000000E+020
  9
$PLIMMIN
 10
0.0
 20
0.0
  9
$PLIMMAX
 10
12.0
 20
9.0
  9
$UNITMODE
 70
     0
  9
$VISRETAIN
 70
     0
  9
$PLINEGEN
 70
     1
  9
$PSLTSCALE
 70
     0
  0
ENDSEC
  0
SECTION
  2
TABLES
  0
TABLE
  2
VPORT
 70
     2
  0
VPORT
  2
*ACTIVE
 70
     0
 10
0.0
 20
0.0
 11
1.0
 21
1.0
 12
911.96094976124675
 22
-469.37623557864492
 13
0.0
 23
0.0
 14
1.0
 24
1.0
 15
0.0
 25
0.0
 16
0.0
 26
0.0
 36
1.0
 17
0.0
 27
0.0
 37
0.0
 40
136.04902657584989
 41
1.897707231040564
 42
50.0
 43
0.0
 44
0.0
 50
0.0
 51
0.0
 71
     0
 72
   100
 73
     1
 74
     1
 75
     0
 76
     0
 77
     0
 78
     0
  0
ENDTAB
  0
TABLE
  2
LTYPE
 70
    11
  0
LTYPE
  2
CONTINUOUS
 70
     0
  3
Solid line
 72
    65
 73
     0
 40
0.0
  0
LTYPE
  2
DOT
 70
     0
  3
. . . . . . . . 
 72
    65
 73
     2
 40
1.0
 49
0.0
 49
-1.0
  0
LTYPE
  2
DASHED
 70
     0
  3
___  ___  ___  ___  
 72
    65
 73
     2
 40
4.0
 49
3.0
 49
-1.0
  0
LTYPE
  2
HIDDEN
 70
     0
  3
__ __ __ __ 
 72
    65
 73
     2
 40
3.0
 49
2.0
 49
-1.0
  0
LTYPE
  2
STITCH
 70
     0
  3
_ _ _ _ 
 72
    65
 73
     2
 40
2.0
 49
1.0
 49
-1.0
  0
LTYPE
  2
CENTER
 70
     0
  3
______  __  ______  __  
 72
    65
 73
     4
 40
43.0
 49
40.0
 49
-1.0
 49
1.0
 49
-1.0
  0
LTYPE
  2
DASHDOT
 70
     0
  3
____ . ____ . 
 72
    65
 73
     4
 40
32.0
 49
30.0
 49
-1.0
 49
0.0
 49
-1.0
  0
LTYPE
  2
BORDER
 70
     0
  3
__ . __ . 
 72
    65
 73
     4
 40
22.0
 49
20.0
 49
-1.0
 49
0.0
 49
-1.0
  0
LTYPE
  2
CUTTING
 70
     0
  3
________   ___   ___   
 72
    65
 73
     6
 40
45.0
 49
40.0
 49
-1.0
 49
1.0
 49
-1.0
 49
1.0
 49
-1.0
  0
LTYPE
  2
PHANTOM
 70
     0
  3
______  __  __  
 72
    65
 73
     6
 40
35.0
 49
30.0
 49
-1.0
 49
1.0
 49
-1.0
 49
1.0
 49
-1.0
  0
LTYPE
  2
DIVIDE
 70
     0
  3
____ . . ____ . . 
 72
    65
 73
     6
 40
23.0
 49
20.0
 49
-1.0
 49
0.0
 49
-1.0
 49
0.0
 49
-1.0
  0
ENDTAB
  0
TABLE
  2
LAYER
 70
     3
  0
LAYER
  2
0
 70
     0
 62
     7
  6
CONTINUOUS
  0
LAYER
  2
┌▓È_1
 70
     0
 62
     7
  6
CONTINUOUS
  0
LAYER
  2
Éíû@É³
 70
     0
 62
     7
  6
CONTINUOUS
  0
ENDTAB
  0
TABLE
  2
STYLE
 70
     1
  0
STYLE
  2
STANDARD
 70
     0
 40
0.0
 41
1.0
 50
0.0
 71
     0
 42
0.0
  3
txt
  4
extfont
  0
ENDTAB
  0
TABLE
  2
VIEW
 70
     0
  0
ENDTAB
  0
TABLE
  2
UCS
 70
     0
  0
ENDTAB
  0
TABLE
  2
APPID
 70
     2
  0
APPID
  2
ACAD
 70
     0
  0
APPID
  2
DCO15
 70
     0
  0
ENDTAB
  0
TABLE
  2
DIMSTYLE
 70
     3
  0
DIMSTYLE
  2
STANDARD
 70
     0
  3

  4

  5

  6

  7

 40
1.0
 41
0.18
 42
0.0625
 43
0.38
 44
0.18
 45
0.0
 46
0.0
 47
0.0
 48
0.0
140
0.18
141
0.09
142
0.0
143
25.399999999999999
144
1.0
145
0.0
146
1.0
147
0.09
 71
     0
 72
     0
 73
     1
 74
     1
 75
     0
 76
     0
 77
     0
 78
     0
170
     0
171
     2
172
     0
173
     0
174
     0
175
     0
176
     0
177
     0
178
     0
  0
DIMSTYLE
  2
VELDIM0
 70
     0
  3

  4

  5

  6

  7

 40
1.0
 41
1.5000828504999999
 42
0.0625
 43
0.38
 44
1.25
 45
0.0
 46
5.0
 47
0.0
 48
0.0
140
1.3493749797000001
141
0.09
142
0.0
143
25.399999999999999
144
1.0
145
0.0
146
1.0
147
0.09
 71
     0
 72
     0
 73
     0
 74
     0
 75
     0
 76
     0
 77
     0
 78
     8
170
     0
171
     2
172
     0
173
     0
174
     0
175
     0
176
     0
177
     0
178
     0
  0
DIMSTYLE
  2
VELDIM1
 70
     0
  3

  4

  5

  6

  7

 40
1.0
 41
1.5000828504999999
 42
0.0625
 43
0.38
 44
1.0
 45
0.0
 46
2.5
 47
0.0
 48
0.0
140
1.3493749797000001
141
0.09
142
0.0
143
25.399999999999999
144
1.0
145
0.0
146
1.0
147
0.09
 71
     0
 72
     0
 73
     0
 74
     0
 75
     0
 76
     0
 77
     0
 78
     8
170
     0
171
     2
172
     0
173
     0
174
     0
175
     0
176
     0
177
     0
178
     0
  0
ENDTAB
  0
ENDSEC
  0
SECTION
  2
BLOCKS
  0
BLOCK
  8
0
  2
$MODEL_SPACE
 70
     0
 10
0.0
 20
0.0
 30
0.0
  3
$MODEL_SPACE
  1

  0
ENDBLK
  5
E
  8
0
  0
BLOCK
 67
     1
  8
0
  2
$PAPER_SPACE
 70
     0
 10
0.0
 20
0.0
 30
0.0
  3
$PAPER_SPACE
  1

  0
ENDBLK
  5
10
 67
     1
  8
0
  0
BLOCK
  8
0
  2
CLUMP0
 70
     0
 10
0.0
 20
0.0
 30
0.0
  3
CLUMP0
  1

  0
ARC
  5
3E
  8
┌▓È_1
 62
     5
 10
889.95919531250001
 20
-508.32279177300001
 30
0.0
 40
0.5
 50
0.0
 51
90.0
  0
LINE
  5
3F
  8
┌▓È_1
 62
     5
 10
889.95919531250001
 20
-507.82279177300001
 30
0.0
 11
889.4591953124999
 21
-507.82279177300001
 31
0.0
  0
LINE
  5
40
  8
┌▓È_1
 62
     5
 10
890.45919531250013
 20
-508.82279177300001
 30
0.0
 11
890.45919531250013
 21
-508.32279177300001
 31
0.0
  0
ARC
  5
41
  8
┌▓È_1
 62
     5
 10
889.95919531250001
 20
-508.82279177300001
 30
0.0
 40
0.5
 50
270.0
 51
0.0
  0
LINE
  5
42
  8
┌▓È_1
 62
     5
 10
889.95919531250001
 20
-509.32279177300001
 30
0.0
 11
888.20919531250001
 21
-509.32279177300001
 31
0.0
  0
LINE
  5
43
  8
┌▓È_1
 62
     5
 10
889.4591953124999
 20
-507.82279177300001
 30
0.0
 11
889.4591953124999
 21
-499.32279177300001
 31
0.0
  0
LINE
  5
44
  8
┌▓È_1
 62
     5
 10
884.9591953124999
 20
-500.94779177299989
 30
0.0
 11
882.45919531250001
 21
-500.94779177299989
 31
0.0
  0
LINE
  5
45
  8
┌▓È_1
 62
     5
 10
878.95919531250001
 20
-497.69779177300001
 30
0.0
 11
878.95919531250001
 21
-498.44779177300001
 31
0.0
  0
ARC
  5
46
  8
┌▓È_1
 62
     5
 10
882.45919531250001
 20
-497.24779177300002
 30
0.0
 40
3.7000000000000002
 50
198.92464441599989
 51
270.0
  0
LINE
  5
47
  8
┌▓È_1
 62
     5
 10
887.4591953124999
 20
-503.44779177300001
 30
0.0
 11
887.4591953124999
 21
-506.82279177299989
 31
0.0
  0
ARC
  5
48
  8
┌▓È_1
 62
     5
 10
892.00086197919995
 20
-506.82279177299989
 30
0.0
 40
4.5416666667000003
 50
180.0
 51
213.39848846800001
  0
ARC
  5
49
  8
┌▓È_1
 62
     5
 10
884.9591953124999
 20
-503.44779177300001
 30
0.0
 40
2.5
 50
0.0
 51
90.0
  0
LINE
  5
4A
  8
┌▓È_1
 62
     5
 10
889.70919531250001
 20
-499.32279177300001
 30
0.0
 11
889.4591953124999
 21
-499.32279177300001
 31
0.0
  0
ARC
  5
4B
  8
┌▓È_1
 62
     5
 10
889.70919531250001
 20
-497.44779177299989
 30
0.0
 40
1.875
 50
270.0
 51
76.591980468299994
  0
ARC
  5
4C
  8
┌▓È_1
 62
     5
 10
890.10919531249999
 20
-495.76980935349991
 30
0.0
 40
0.15
 50
76.591980468299994
 51
180.0
  0
LINE
  5
4D
  8
┌▓È_1
 62
     5
 10
889.95919531250001
 20
-497.06056364059992
 30
0.0
 11
889.95919531250001
 21
-495.76980935349991
 31
0.0
  0
LINE
  5
4E
  8
┌▓È_1
 62
     5
 10
889.75919535920002
 20
-497.69779177300001
 30
0.0
 11
878.95919531250001
 21
-497.69779177300001
 31
0.0
  0
ARC
  5
4F
  8
┌▓È_1
 62
     5
 10
889.75919531249986
 20
-497.34779177299998
 30
0.0
 40
0.35
 50
270.00000763719999
 51
55.150095421000003
  0
ENDBLK
  5
50
  8
0
  0
BLOCK
  8
0
  2
*D1
 70
     1
 10
0.0
 20
0.0
 30
0.0
  3
*D1
  1

  0
TEXT
  5
BA
  8
0
 62
     0
 10
914.1425620425
 20
-449.08000322369998
 30
0.0
 40
1.3493749797000001
  1
R5
 50
45.0
  0
LINE
  5
BB
  8
0
 62
     0
 10
922.11253906270008
 20
-441.89579860229998
 30
0.0
 11
914.53544824189999
 21
-449.4728894230999
 31
0.0
  0
SOLID
  5
BC
  8
0
 62
     0
 10
922.11253906270008
 20
-441.89579860229998
 30
0.0
 11
921.33603903379992
 21
-443.2407360851999
 31
0.0
 12
920.76760157979982
 22
-442.67229863119991
 32
0.0
 13
921.31699999580007
 23
-442.69133766919998
 33
0.0
  0
ENDBLK
  5
BD
  8
0
  0
BLOCK
  8
0
  2
*D2
 70
     1
 10
0.0
 20
0.0
 30
0.0
  3
*D2
  1

  0
TEXT
  5
C3
  8
0
 62
     0
 10
928.11450518059985
 20
-441.44320751179993
 30
0.0
 40
1.3493749797000001
  1
4.25
  0
LINE
  5
C4
  8
0
 62
     0
 10
927.57700515679994
 20
-437.68133250829999
 30
0.0
 11
927.57700515679994
 21
-443.18133250829999
 31
0.0
  0
LINE
  5
C5
  8
0
 62
     0
 10
931.82700515679994
 20
-433.93133250829999
 30
0.0
 11
931.82700515679994
 21
-443.18133250829999
 31
0.0
  0
LINE
  5
C6
  8
0
 62
     0
 10
927.57700515679994
 20
-442.18133250829999
 30
0.0
 11
927.57700515679994
 21
-442.18133250829999
 31
0.0
  0
LINE
  5
C7
  8
0
 62
     0
 10
927.57700515679994
 20
-442.18133250829999
 30
0.0
 11
931.82700515679994
 21
-442.18133250829999
 31
0.0
  0
LINE
  5
C8
  8
0
 62
     0
 10
931.82700515679994
 20
-442.18133250829999
 30
0.0
 11
927.57700515679994
 21
-442.18133250829999
 31
0.0
  0
LINE
  5
C9
  8
0
 62
     0
 10
931.82700515679994
 20
-442.18133250829999
 30
0.0
 11
931.82700515679994
 21
-442.18133250829999
 31
0.0
  0
LINE
  5
CA
  8
0
 62
     0
 10
931.82700515679994
 20
-442.18133250829999
 30
0.0
 11
929.32700515679994
 21
-442.18133250829999
 31
0.0
  0
SOLID
  5
CB
  8
0
 62
     0
 10
931.82700515679994
 20
-442.18133250829999
 30
0.0
 11
930.32692230630005
 21
-442.58327848670001
 31
0.0
 12
930.32692230630005
 22
-441.77938652979998
 32
0.0
 13
930.7019430188999
 23
-442.18133250829999
 33
0.0
  0
LINE
  5
CC
  8
0
 62
     0
 10
927.57700515679994
 20
-442.18133250829999
 30
0.0
 11
930.07700515679994
 21
-442.18133250829999
 31
0.0
  0
SOLID
  5
CD
  8
0
 62
     0
 10
927.57700515679994
 20
-442.18133250829999
 30
0.0
 11
929.07708800720013
 21
-441.77938652979998
 31
0.0
 12
929.07708800720013
 22
-442.58327848670001
 32
0.0
 13
928.70206729460006
 23
-442.18133250829999
 33
0.0
  0
ENDBLK
  5
CE
  8
0
  0
BLOCK
  8
0
  2
*D3
 70
     1
 10
0.0
 20
0.0
 30
0.0
  3
*D3
  1

  0
TEXT
  5
E0
  8
0
 62
     0
 10
914.28325516869995
 20
-469.6533901112
 30
0.0
 40
1.3493749797000001
  1
17
  0
LINE
  5
E1
  8
0
 62
     0
 10
906.57700515680006
 20
-435.93133250829999
 30
0.0
 11
906.57700515680006
 21
-471.39151510760001
 31
0.0
  0
LINE
  5
E2
  8
0
 62
     0
 10
923.57700515680006
 20
-452.68133250829999
 30
0.0
 11
923.57700515680006
 21
-471.39151510760001
 31
0.0
  0
LINE
  5
E3
  8
0
 62
     0
 10
906.57700515680006
 20
-470.39151510760001
 30
0.0
 11
916.66450513289976
 21
-470.39151510760001
 31
0.0
  0
LINE
  5
E4
  8
0
 62
     0
 10
906.57700515680006
 20
-470.39151510760001
 30
0.0
 11
913.48950518059985
 21
-470.39151510760001
 31
0.0
  0
LINE
  5
E5
  8
0
 62
     0
 10
923.57700515680006
 20
-470.39151510760001
 30
0.0
 11
916.66450513289976
 21
-470.39151510760001
 31
0.0
  0
LINE
  5
E6
  8
0
 62
     0
 10
923.57700515680006
 20
-470.39151510760001
 30
0.0
 11
913.48950518059985
 21
-470.39151510760001
 31
0.0
  0
LINE
  5
E7
  8
0
 62
     0
 10
923.57700515680006
 20
-470.39151510760001
 30
0.0
 11
921.07700515679994
 21
-470.39151510760001
 31
0.0
  0
SOLID
  5
E8
  8
0
 62
     0
 10
923.57700515680006
 20
-470.39151510760001
 30
0.0
 11
922.07692230629993
 21
-470.79346108599992
 31
0.0
 12
922.07692230629993
 22
-469.98956912919999
 32
0.0
 13
922.4519430188999
 23
-470.39151510760001
 33
0.0
  0
LINE
  5
E9
  8
0
 62
     0
 10
906.57700515680006
 20
-470.39151510760001
 30
0.0
 11
909.07700515679983
 21
-470.39151510760001
 31
0.0
  0
SOLID
  5
EA
  8
0
 62
     0
 10
906.57700515680006
 20
-470.39151510760001
 30
0.0
 11
908.07708800720002
 21
-469.98956912919999
 31
0.0
 12
908.07708800720002
 22
-470.79346108599992
 32
0.0
 13
907.70206729460006
 23
-470.39151510760001
 33
0.0
  0
ENDBLK
  5
EB
  8
0
  0
BLOCK
  8
0
  2
*D4
 70
     1
 10
0.0
 20
0.0
 30
0.0
  3
*D4
  1

  0
TEXT
  5
EF
  8
0
 62
     0
 10
926.18013016270004
 20
-469.6533901112
 30
0.0
 40
1.3493749797000001
  1
6
  0
LINE
  5
F0
  8
0
 62
     0
 10
923.57700515680006
 20
-452.68133250829999
 30
0.0
 11
923.57700515680006
 21
-471.39151510760001
 31
0.0
  0
LINE
  5
F1
  8
0
 62
     0
 10
929.57700515679983
 20
-456.68133250829999
 30
0.0
 11
929.57700515679983
 21
-471.39151510760001
 31
0.0
  0
LINE
  5
F2
  8
0
 62
     0
 10
923.57700515680006
 20
-470.39151510760001
 30
0.0
 11
927.76763013890002
 21
-470.39151510760001
 31
0.0
  0
LINE
  5
F3
  8
0
 62
     0
 10
923.57700515680006
 20
-470.39151510760001
 30
0.0
 11
925.38638017460005
 21
-470.39151510760001
 31
0.0
  0
LINE
  5
F4
  8
0
 62
     0
 10
929.57700515679983
 20
-470.39151510760001
 30
0.0
 11
927.76763013890002
 21
-470.39151510760001
 31
0.0
  0
LINE
  5
F5
  8
0
 62
     0
 10
929.57700515679983
 20
-470.39151510760001
 30
0.0
 11
925.38638017460005
 21
-470.39151510760001
 31
0.0
  0
LINE
  5
F6
  8
0
 62
     0
 10
929.57700515679983
 20
-470.39151510760001
 30
0.0
 11
927.07700515680006
 21
-470.39151510760001
 31
0.0
  0
SOLID
  5
F7
  8
0
 62
     0
 10
929.57700515679983
 20
-470.39151510760001
 30
0.0
 11
928.07692230630005
 21
-470.79346108599992
 31
0.0
 12
928.07692230630005
 22
-469.98956912919999
 32
0.0
 13
928.45194301890001
 23
-470.39151510760001
 33
0.0
  0
LINE
  5
F8
  8
0
 62
     0
 10
923.57700515680006
 20
-470.39151510760001
 30
0.0
 11
926.07700515680006
 21
-470.39151510760001
 31
0.0
  0
SOLID
  5
F9
  8
0
 62
     0
 10
923.57700515680006
 20
-470.39151510760001
 30
0.0
 11
925.07708800720002
 21
-469.98956912919999
 31
0.0
 12
925.07708800720002
 22
-470.79346108599992
 32
0.0
 13
924.70206729460006
 23
-470.39151510760001
 33
0.0
  0
ENDBLK
  5
FA
  8
0
  0
BLOCK
  8
0
  2
*D5
 70
     1
 10
0.0
 20
0.0
 30
0.0
  3
*D5
  1

  0
TEXT
  5
103
  8
0
 62
     0
 10
944.06512222579988
 20
-447.07726075649998
 30
0.0
 40
1.3493749797000001
  1
üi27.35üj
 50
90.0
  0
LINE
  5
104
  8
0
 62
     0
 10
929.07700515679994
 20
-457.18133250829999
 30
0.0
 11
945.80324722219984
 21
-457.18133250829999
 31
0.0
  0
LINE
  5
105
  8
0
 62
     0
 10
929.57700515679983
 20
-429.82943911199987
 30
0.0
 11
945.80324722219984
 21
-429.82943911199987
 31
0.0
  0
LINE
  5
106
  8
0
 62
     0
 10
944.80324722219984
 20
-457.18133250829999
 30
0.0
 11
944.80324722219984
 21
-439.13976087569989
 31
0.0
  0
LINE
  5
107
  8
0
 62
     0
 10
944.80324722219984
 20
-457.18133250829999
 30
0.0
 11
944.80324722219984
 21
-447.87101074460003
 31
0.0
  0
LINE
  5
108
  8
0
 62
     0
 10
944.80324722219984
 20
-429.82943911199987
 30
0.0
 11
944.80324722219984
 21
-439.13976087569989
 31
0.0
  0
LINE
  5
109
  8
0
 62
     0
 10
944.80324722219984
 20
-429.82943911199987
 30
0.0
 11
944.80324722219984
 21
-447.87101074460003
 31
0.0
  0
LINE
  5
10A
  8
0
 62
     0
 10
944.80324722219984
 20
-429.82943911199987
 30
0.0
 11
944.80324722219984
 21
-432.32943911199999
 31
0.0
  0
SOLID
  5
10B
  8
0
 62
     0
 10
944.80324722219984
 20
-429.82943911199987
 30
0.0
 11
945.20519320059998
 21
-431.3295219625
 31
0.0
 12
944.40130124380005
 22
-431.3295219625
 32
0.0
 13
944.80324722219984
 23
-430.95450124989998
 33
0.0
  0
LINE
  5
10C
  8
0
 62
     0
 10
944.80324722219984
 20
-457.18133250829999
 30
0.0
 11
944.80324722219984
 21
-454.68133250829999
 31
0.0
  0
SOLID
  5
10D
  8
0
 62
     0
 10
944.80324722219984
 20
-457.18133250829999
 30
0.0
 11
944.40130124380005
 21
-455.68124965779992
 31
0.0
 12
945.20519320059998
 22
-455.68124965779992
 32
0.0
 13
944.80324722219984
 23
-456.05627037039989
 33
0.0
  0
ENDBLK
  5
10E
  8
0
  0
BLOCK
  8
0
  2
*D6
 70
     1
 10
0.0
 20
0.0
 30
0.0
  3
*D6
  1

  0
TEXT
  5
112
  8
0
 62
     0
 10
895.43214706509991
 20
-433.07101079230011
 30
0.0
 40
1.3493749797000001
  1
4.1
 50
90.0
  0
LINE
  5
113
  8
0
 62
     0
 10
928.57700515679994
 20
-429.82943911199987
 30
0.0
 11
895.17027206159992
 21
-429.82943911199987
 31
0.0
  0
LINE
  5
114
  8
0
 62
     0
 10
906.07700515679994
 20
-433.93133250829999
 30
0.0
 11
895.17027206159992
 21
-433.93133250829999
 31
0.0
  0
LINE
  5
115
  8
0
 62
     0
 10
896.17027206160014
 20
-429.82943911199987
 30
0.0
 11
896.17027206160014
 21
-429.89601083989999
 31
0.0
  0
LINE
  5
116
  8
0
 62
     0
 10
896.17027206160014
 20
-429.82943911199987
 30
0.0
 11
896.17027206160014
 21
-433.86476078029989
 31
0.0
  0
LINE
  5
117
  8
0
 62
     0
 10
896.17027206160014
 20
-433.93133250829999
 30
0.0
 11
896.17027206160014
 21
-429.89601083989999
 31
0.0
  0
LINE
  5
118
  8
0
 62
     0
 10
896.17027206160014
 20
-433.93133250829999
 30
0.0
 11
896.17027206160014
 21
-433.86476078029989
 31
0.0
  0
LINE
  5
119
  8
0
 62
     0
 10
896.17027206160014
 20
-433.93133250829999
 30
0.0
 11
896.17027206160014
 21
-436.43133250829999
 31
0.0
  0
SOLID
  5
11A
  8
0
 62
     0
 10
896.17027206160014
 20
-433.93133250829999
 30
0.0
 11
896.57221804000005
 21
-435.43141535870001
 31
0.0
 12
895.76832608320001
 22
-435.43141535870001
 32
0.0
 13
896.17027206160014
 23
-435.05639464609999
 33
0.0
  0
LINE
  5
11B
  8
0
 62
     0
 10
896.17027206160014
 20
-429.82943911199987
 30
0.0
 11
896.17027206160014
 21
-427.32943911199999
 31
0.0
  0
SOLID
  5
11C
  8
0
 62
     0
 10
896.17027206160014
 20
-429.82943911199987
 30
0.0
 11
895.76832608320001
 21
-428.32935626160003
 31
0.0
 12
896.57221804000005
 22
-428.32935626160003
 32
0.0
 13
896.17027206160014
 23
-428.70437697419987
 33
0.0
  0
ENDBLK
  5
11D
  8
0
  0
BLOCK
  8
0
  2
*D7
 70
     1
 10
0.0
 20
0.0
 30
0.0
  3
*D7
  1

  0
TEXT
  5
121
  8
0
 62
     0
 10
895.43214706509991
 20
-447.54070747840001
 30
0.0
 40
1.3493749797000001
  1
23.25
 50
90.0
  0
LINE
  5
122
  8
0
 62
     0
 10
906.07700515679994
 20
-433.93133250829999
 30
0.0
 11
895.17027206159992
 21
-433.93133250829999
 31
0.0
  0
LINE
  5
123
  8
0
 62
     0
 10
924.57700515679994
 20
-457.18133250829999
 30
0.0
 11
895.17027206159992
 21
-457.18133250829999
 31
0.0
  0
LINE
  5
124
  8
0
 62
     0
 10
896.17027206160014
 20
-433.93133250829999
 30
0.0
 11
896.17027206160014
 21
-442.77820754999988
 31
0.0
  0
LINE
  5
125
  8
0
 62
     0
 10
896.17027206160014
 20
-433.93133250829999
 30
0.0
 11
896.17027206160014
 21
-448.33445746649988
 31
0.0
  0
LINE
  5
126
  8
0
 62
     0
 10
896.17027206160014
 20
-457.18133250829999
 30
0.0
 11
896.17027206160014
 21
-442.77820754999988
 31
0.0
  0
LINE
  5
127
  8
0
 62
     0
 10
896.17027206160014
 20
-457.18133250829999
 30
0.0
 11
896.17027206160014
 21
-448.33445746649988
 31
0.0
  0
LINE
  5
128
  8
0
 62
     0
 10
896.17027206160014
 20
-457.18133250829999
 30
0.0
 11
896.17027206160014
 21
-454.68133250829999
 31
0.0
  0
SOLID
  5
129
  8
0
 62
     0
 10
896.17027206160014
 20
-457.18133250829999
 30
0.0
 11
895.76832608320001
 21
-455.68124965779992
 31
0.0
 12
896.57221804000005
 22
-455.68124965779992
 32
0.0
 13
896.17027206160014
 23
-456.05627037039989
 33
0.0
  0
LINE
  5
12A
  8
0
 62
     0
 10
896.17027206160014
 20
-433.93133250829999
 30
0.0
 11
896.17027206160014
 21
-436.43133250829999
 31
0.0
  0
SOLID
  5
12B
  8
0
 62
     0
 10
896.17027206160014
 20
-433.93133250829999
 30
0.0
 11
896.57221804000005
 21
-435.43141535870001
 31
0.0
 12
895.76832608320001
 22
-435.43141535870001
 32
0.0
 13
896.17027206160014
 23
-435.05639464609999
 33
0.0
  0
ENDBLK
  5
12C
  8
0
  0
BLOCK
  8
0
  2
*D8
 70
     1
 10
0.0
 20
0.0
 30
0.0
  3
*D8
  1

  0
TEXT
  5
130
  8
0
 62
     0
 10
915.6301302103999
 20
-416.62531993570002
 30
0.0
 40
1.3493749797000001
  1
üi25.25üj
  0
LINE
  5
131
  8
0
 62
     0
 10
931.82700515679994
 20
-432.93133250829999
 30
0.0
 11
931.82700515679994
 21
-416.36344493220003
 31
0.0
  0
LINE
  5
132
  8
0
 62
     0
 10
906.57700515680006
 20
-433.43133250829999
 30
0.0
 11
906.57700515680006
 21
-416.36344493220003
 31
0.0
  0
LINE
  5
133
  8
0
 62
     0
 10
931.82700515679994
 20
-417.36344493219991
 30
0.0
 11
923.56763009119993
 21
-417.36344493219991
 31
0.0
  0
LINE
  5
134
  8
0
 62
     0
 10
931.82700515679994
 20
-417.36344493219991
 30
0.0
 11
914.83638022229979
 21
-417.36344493219991
 31
0.0
  0
LINE
  5
135
  8
0
 62
     0
 10
906.57700515680006
 20
-417.36344493219991
 30
0.0
 11
923.56763009119993
 21
-417.36344493219991
 31
0.0
  0
LINE
  5
136
  8
0
 62
     0
 10
906.57700515680006
 20
-417.36344493219991
 30
0.0
 11
914.83638022229979
 21
-417.36344493219991
 31
0.0
  0
LINE
  5
137
  8
0
 62
     0
 10
906.57700515680006
 20
-417.36344493219991
 30
0.0
 11
909.07700515679983
 21
-417.36344493219991
 31
0.0
  0
SOLID
  5
138
  8
0
 62
     0
 10
906.57700515680006
 20
-417.36344493219991
 30
0.0
 11
908.07708800720002
 21
-416.96149895379989
 31
0.0
 12
908.07708800720002
 22
-417.76539091059988
 32
0.0
 13
907.70206729460006
 23
-417.36344493219991
 33
0.0
  0
LINE
  5
139
  8
0
 62
     0
 10
931.82700515679994
 20
-417.36344493219991
 30
0.0
 11
929.32700515679994
 21
-417.36344493219991
 31
0.0
  0
SOLID
  5
13A
  8
0
 62
     0
 10
931.82700515679994
 20
-417.36344493219991
 30
0.0
 11
930.32692230630005
 21
-417.76539091059988
 31
0.0
 12
930.32692230630005
 22
-416.96149895379989
 32
0.0
 13
930.7019430188999
 23
-417.36344493219991
 33
0.0
  0
ENDBLK
  5
13B
  8
0
  0
BLOCK
  8
0
  2
*D9
 70
     1
 10
0.0
 20
0.0
 30
0.0
  3
*D9
  1

  0
TEXT
  5
13F
  8
0
 62
     0
 10
925.18013016270015
 20
-463.7085314711
 30
0.0
 40
1.3493749797000001
  1
4
  0
LINE
  5
140
  8
0
 62
     0
 10
923.57700515680006
 20
-452.68133250829999
 30
0.0
 11
923.57700515680006
 21
-465.44665646760001
 31
0.0
  0
LINE
  5
141
  8
0
 62
     0
 10
927.57700515679994
 20
-454.68133250829999
 30
0.0
 11
927.57700515679994
 21
-465.44665646760001
 31
0.0
  0
LINE
  5
142
  8
0
 62
     0
 10
923.57700515680006
 20
-464.44665646760001
 30
0.0
 11
926.76763013890002
 21
-464.44665646760001
 31
0.0
  0
LINE
  5
143
  8
0
 62
     0
 10
923.57700515680006
 20
-464.44665646760001
 30
0.0
 11
924.38638017460005
 21
-464.44665646760001
 31
0.0
  0
LINE
  5
144
  8
0
 62
     0
 10
927.57700515679994
 20
-464.44665646760001
 30
0.0
 11
926.76763013890002
 21
-464.44665646760001
 31
0.0
  0
LINE
  5
145
  8
0
 62
     0
 10
927.57700515679994
 20
-464.44665646760001
 30
0.0
 11
924.38638017460005
 21
-464.44665646760001
 31
0.0
  0
LINE
  5
146
  8
0
 62
     0
 10
927.57700515679994
 20
-464.44665646760001
 30
0.0
 11
930.07700515679994
 21
-464.44665646760001
 31
0.0
  0
SOLID
  5
147
  8
0
 62
     0
 10
927.57700515679994
 20
-464.44665646760001
 30
0.0
 11
929.07708800720013
 21
-464.04471048919987
 31
0.0
 12
929.07708800720013
 22
-464.84860244599992
 32
0.0
 13
928.70206729460006
 23
-464.44665646760001
 33
0.0
  0
LINE
  5
148
  8
0
 62
     0
 10
923.57700515680006
 20
-464.44665646760001
 30
0.0
 11
921.07700515679994
 21
-464.44665646760001
 31
0.0
  0
SOLID
  5
149
  8
0
 62
     0
 10
923.57700515680006
 20
-464.44665646760001
 30
0.0
 11
922.07692230629993
 21
-464.84860244599992
 31
0.0
 12
922.07692230629993
 22
-464.04471048919987
 32
0.0
 13
922.4519430188999
 23
-464.44665646760001
 33
0.0
  0
ENDBLK
  5
14A
  8
0
  0
BLOCK
  8
0
  2
*D10
 70
     1
 10
0.0
 20
0.0
 30
0.0
  3
*D10
  1

  0
TEXT
  5
14E
  8
0
 62
     0
 10
928.18013016270004
 20
-463.7085314711
 30
0.0
 40
1.3493749797000001
  1
2
  0
LINE
  5
14F
  8
0
 62
     0
 10
927.57700515679994
 20
-454.68133250829999
 30
0.0
 11
927.57700515679994
 21
-465.44665646760001
 31
0.0
  0
LINE
  5
150
  8
0
 62
     0
 10
929.57700515679983
 20
-456.68133250829999
 30
0.0
 11
929.57700515679983
 21
-465.44665646760001
 31
0.0
  0
LINE
  5
151
  8
0
 62
     0
 10
927.57700515679994
 20
-464.44665646760001
 30
0.0
 11
927.57700515679994
 21
-464.44665646760001
 31
0.0
  0
LINE
  5
152
  8
0
 62
     0
 10
927.57700515679994
 20
-464.44665646760001
 30
0.0
 11
929.57700515679983
 21
-464.44665646760001
 31
0.0
  0
LINE
  5
153
  8
0
 62
     0
 10
929.57700515679983
 20
-464.44665646760001
 30
0.0
 11
927.57700515679994
 21
-464.44665646760001
 31
0.0
  0
LINE
  5
154
  8
0
 62
     0
 10
929.57700515679983
 20
-464.44665646760001
 30
0.0
 11
929.57700515679983
 21
-464.44665646760001
 31
0.0
  0
LINE
  5
155
  8
0
 62
     0
 10
929.57700515679983
 20
-464.44665646760001
 30
0.0
 11
932.07700515679994
 21
-464.44665646760001
 31
0.0
  0
SOLID
  5
156
  8
0
 62
     0
 10
929.57700515679983
 20
-464.44665646760001
 30
0.0
 11
931.07708800720002
 21
-464.04471048919987
 31
0.0
 12
931.07708800720002
 22
-464.84860244599992
 32
0.0
 13
930.70206729460006
 23
-464.44665646760001
 33
0.0
  0
LINE
  5
157
  8
0
 62
     0
 10
927.57700515679994
 20
-464.44665646760001
 30
0.0
 11
925.07700515679983
 21
-464.44665646760001
 31
0.0
  0
SOLID
  5
158
  8
0
 62
     0
 10
927.57700515679994
 20
-464.44665646760001
 30
0.0
 11
926.07692230630005
 21
-464.84860244599992
 31
0.0
 12
926.07692230630005
 22
-464.04471048919987
 32
0.0
 13
926.45194301890001
 23
-464.44665646760001
 33
0.0
  0
ENDBLK
  5
159
  8
0
  0
BLOCK
  8
0
  2
*D11
 70
     1
 10
0.0
 20
0.0
 30
0.0
  3
*D11
  1

  0
TEXT
  5
15D
  8
0
 62
     0
 10
937.12820441279985
 20
-450.3563324605999
 30
0.0
 40
1.3493749797000001
  1
20
 50
90.0
  0
LINE
  5
15E
  8
0
 62
     0
 10
929.07700515679994
 20
-457.18133250829999
 30
0.0
 11
938.86632940919992
 21
-457.18133250829999
 31
0.0
  0
LINE
  5
15F
  8
0
 62
     0
 10
928.57700515679994
 20
-437.18133250829999
 30
0.0
 11
938.86632940919992
 21
-437.18133250829999
 31
0.0
  0
LINE
  5
160
  8
0
 62
     0
 10
937.86632940920003
 20
-457.18133250829999
 30
0.0
 11
937.86632940920003
 21
-443.21258256789997
 31
0.0
  0
LINE
  5
161
  8
0
 62
     0
 10
937.86632940920003
 20
-457.18133250829999
 30
0.0
 11
937.86632940920003
 21
-451.15008244860002
 31
0.0
  0
LINE
  5
162
  8
0
 62
     0
 10
937.86632940920003
 20
-437.18133250829999
 30
0.0
 11
937.86632940920003
 21
-443.21258256789997
 31
0.0
  0
LINE
  5
163
  8
0
 62
     0
 10
937.86632940920003
 20
-437.18133250829999
 30
0.0
 11
937.86632940920003
 21
-451.15008244860002
 31
0.0
  0
LINE
  5
164
  8
0
 62
     0
 10
937.86632940920003
 20
-437.18133250829999
 30
0.0
 11
937.86632940920003
 21
-439.68133250829999
 31
0.0
  0
SOLID
  5
165
  8
0
 62
     0
 10
937.86632940920003
 20
-437.18133250829999
 30
0.0
 11
938.26827538759983
 21
-438.68141535870001
 31
0.0
 12
937.46438343080013
 22
-438.68141535870001
 32
0.0
 13
937.86632940920003
 23
-438.30639464609999
 33
0.0
  0
LINE
  5
166
  8
0
 62
     0
 10
937.86632940920003
 20
-457.18133250829999
 30
0.0
 11
937.86632940920003
 21
-454.68133250829999
 31
0.0
  0
SOLID
  5
167
  8
0
 62
     0
 10
937.86632940920003
 20
-457.18133250829999
 30
0.0
 11
937.46438343080013
 21
-455.68124965779992
 31
0.0
 12
938.26827538759983
 22
-455.68124965779992
 32
0.0
 13
937.86632940920003
 23
-456.05627037039989
 33
0.0
  0
ENDBLK
  5
168
  8
0
  0
BLOCK
  8
0
  2
*D12
 70
     1
 10
0.0
 20
0.0
 30
0.0
  3
*D12
  1

  0
TEXT
  5
16C
  8
0
 62
     0
 10
899.80203953830005
 20
-452.37820745459999
 30
0.0
 40
1.3493749797000001
  1
üi16.75üj
 50
90.0
  0
LINE
  5
16D
  8
0
 62
     0
 10
913.07700515679994
 20
-440.43133250829999
 30
0.0
 11
899.54016453470001
 21
-440.43133250829999
 31
0.0
  0
LINE
  5
16E
  8
0
 62
     0
 10
924.57700515679994
 20
-457.18133250829999
 30
0.0
 11
899.54016453470001
 21
-457.18133250829999
 31
0.0
  0
LINE
  5
16F
  8
0
 62
     0
 10
900.5401645346999
 20
-440.43133250829999
 30
0.0
 11
900.5401645346999
 21
-444.4407075737999
 31
0.0
  0
LINE
  5
170
  8
0
 62
     0
 10
900.5401645346999
 20
-440.43133250829999
 30
0.0
 11
900.5401645346999
 21
-453.17195744269998
 31
0.0
  0
LINE
  5
171
  8
0
 62
     0
 10
900.5401645346999
 20
-457.18133250829999
 30
0.0
 11
900.5401645346999
 21
-444.4407075737999
 31
0.0
  0
LINE
  5
172
  8
0
 62
     0
 10
900.5401645346999
 20
-457.18133250829999
 30
0.0
 11
900.5401645346999
 21
-453.17195744269998
 31
0.0
  0
LINE
  5
173
  8
0
 62
     0
 10
900.5401645346999
 20
-457.18133250829999
 30
0.0
 11
900.5401645346999
 21
-454.68133250829999
 31
0.0
  0
SOLID
  5
174
  8
0
 62
     0
 10
900.5401645346999
 20
-457.18133250829999
 30
0.0
 11
900.13821855629999
 21
-455.68124965779992
 31
0.0
 12
900.94211051309981
 22
-455.68124965779992
 32
0.0
 13
900.5401645346999
 23
-456.05627037039989
 33
0.0
  0
LINE
  5
175
  8
0
 62
     0
 10
900.5401645346999
 20
-440.43133250829999
 30
0.0
 11
900.5401645346999
 21
-442.93133250829999
 31
0.0
  0
SOLID
  5
176
  8
0
 62
     0
 10
900.5401645346999
 20
-440.43133250829999
 30
0.0
 11
900.94211051309981
 21
-441.93141535869989
 31
0.0
 12
900.13821855629999
 22
-441.93141535869989
 32
0.0
 13
900.5401645346999
 23
-441.55639464609987
 33
0.0
  0
ENDBLK
  5
177
  8
0
  0
BLOCK
  8
0
  2
*D13
 70
     1
 10
0.0
 20
0.0
 30
0.0
  3
*D13
  1

  0
TEXT
  5
17B
  8
0
 62
     0
 10
899.80203953830005
 20
-438.37195749040001
 30
0.0
 40
1.3493749797000001
  1
6.5
 50
90.0
  0
LINE
  5
17C
  8
0
 62
     0
 10
906.07700515679994
 20
-433.93133250829999
 30
0.0
 11
899.54016453470001
 21
-433.93133250829999
 31
0.0
  0
LINE
  5
17D
  8
0
 62
     0
 10
913.07700515679994
 20
-440.43133250829999
 30
0.0
 11
899.54016453470001
 21
-440.43133250829999
 31
0.0
  0
LINE
  5
17E
  8
0
 62
     0
 10
900.5401645346999
 20
-433.93133250829999
 30
0.0
 11
900.5401645346999
 21
-435.19695753809998
 31
0.0
  0
LINE
  5
17F
  8
0
 62
     0
 10
900.5401645346999
 20
-433.93133250829999
 30
0.0
 11
900.5401645346999
 21
-439.1657074783999
 31
0.0
  0
LINE
  5
180
  8
0
 62
     0
 10
900.5401645346999
 20
-440.43133250829999
 30
0.0
 11
900.5401645346999
 21
-435.19695753809998
 31
0.0
  0
LINE
  5
181
  8
0
 62
     0
 10
900.5401645346999
 20
-440.43133250829999
 30
0.0
 11
900.5401645346999
 21
-439.1657074783999
 31
0.0
  0
LINE
  5
182
  8
0
 62
     0
 10
900.5401645346999
 20
-440.43133250829999
 30
0.0
 11
900.5401645346999
 21
-442.93133250829999
 31
0.0
  0
SOLID
  5
183
  8
0
 62
     0
 10
900.5401645346999
 20
-440.43133250829999
 30
0.0
 11
900.94211051309981
 21
-441.93141535869989
 31
0.0
 12
900.13821855629999
 22
-441.93141535869989
 32
0.0
 13
900.5401645346999
 23
-441.55639464609987
 33
0.0
  0
LINE
  5
184
  8
0
 62
     0
 10
900.5401645346999
 20
-433.93133250829999
 30
0.0
 11
900.5401645346999
 21
-431.43133250829999
 31
0.0
  0
SOLID
  5
185
  8
0
 62
     0
 10
900.5401645346999
 20
-433.93133250829999
 30
0.0
 11
900.13821855629999
 21
-432.43124965779992
 31
0.0
 12
900.94211051309981
 22
-432.43124965779992
 32
0.0
 13
900.5401645346999
 23
-432.8062703704
 33
0.0
  0
ENDBLK
  5
186
  8
0
  0
BLOCK
  8
0
  2
*D14
 70
     1
 10
0.0
 20
0.0
 30
0.0
  3
*D14
  1

  0
TEXT
  5
18A
  8
0
 62
     0
 10
902.3165727592999
 20
-443.50599250689999
 30
0.0
 40
1.3493749797000001
  1
R7.4
 50
45.0
  0
LINE
  5
18B
  8
0
 62
     0
 10
908.34441497600005
 20
-438.26392268900003
 30
0.0
 11
902.70945895869988
 21
-443.89887870629991
 31
0.0
  0
SOLID
  5
18C
  8
0
 62
     0
 10
908.34441497600005
 20
-438.26392268900003
 30
0.0
 11
907.56791494710012
 21
-439.60886017189989
 31
0.0
 12
906.99947749310002
 22
-439.04042271790001
 32
0.0
 13
907.54887590909993
 23
-439.05946175599991
 33
0.0
  0
ENDBLK
  5
18D
  8
0
  0
BLOCK
  8
0
  2
*D15
 70
     1
 10
0.0
 20
0.0
 30
0.0
  3
*D15
  1

  0
TEXT
  5
191
  8
0
 62
     0
 10
884.50900359699995
 20
-421.58114604000002
 30
0.0
 40
1.3493749797000001
  1
3.4
  0
LINE
  5
192
  8
0
 62
     0
 10
887.39962857919988
 20
-429.32943911199987
 30
0.0
 11
887.39962857919988
 21
-421.31927103649991
 31
0.0
  0
LINE
  5
193
  8
0
 62
     0
 10
883.99962857920002
 20
-429.32943911199987
 30
0.0
 11
883.99962857920002
 21
-421.31927103649991
 31
0.0
  0
LINE
  5
194
  8
0
 62
     0
 10
887.39962857919988
 20
-422.31927103650003
 30
0.0
 11
887.39962857919988
 21
-422.31927103650003
 31
0.0
  0
LINE
  5
195
  8
0
 62
     0
 10
887.39962857919988
 20
-422.31927103650003
 30
0.0
 11
883.99962857920002
 21
-422.31927103650003
 31
0.0
  0
LINE
  5
196
  8
0
 62
     0
 10
883.99962857920002
 20
-422.31927103650003
 30
0.0
 11
887.39962857919988
 21
-422.31927103650003
 31
0.0
  0
LINE
  5
197
  8
0
 62
     0
 10
883.99962857920002
 20
-422.31927103650003
 30
0.0
 11
883.99962857920002
 21
-422.31927103650003
 31
0.0
  0
LINE
  5
198
  8
0
 62
     0
 10
883.99962857920002
 20
-422.31927103650003
 30
0.0
 11
886.49962857920013
 21
-422.31927103650003
 31
0.0
  0
SOLID
  5
199
  8
0
 62
     0
 10
883.99962857920002
 20
-422.31927103650003
 30
0.0
 11
885.4997114296001
 21
-421.91732505809989
 31
0.0
 12
885.4997114296001
 22
-422.72121701489999
 32
0.0
 13
885.12469071700014
 23
-422.31927103650003
 33
0.0
  0
LINE
  5
19A
  8
0
 62
     0
 10
887.39962857919988
 20
-422.31927103650003
 30
0.0
 11
884.89962857919988
 21
-422.31927103650003
 31
0.0
  0
SOLID
  5
19B
  8
0
 62
     0
 10
887.39962857919988
 20
-422.31927103650003
 30
0.0
 11
885.89954572869988
 21
-422.72121701489999
 31
0.0
 12
885.89954572869988
 22
-421.91732505809989
 32
0.0
 13
886.27456644130007
 23
-422.31927103650003
 33
0.0
  0
ENDBLK
  5
19C
  8
0
  0
BLOCK
  8
0
  2
*D16
 70
     1
 10
0.0
 20
0.0
 30
0.0
  3
*D16
  1

  0
TEXT
  5
1AA
  8
0
 62
     0
 10
928.71450518059999
 20
-421.58114584930001
 30
0.0
 40
1.3493749797000001
  1
3.05
  0
LINE
  5
1AB
  8
0
 62
     0
 10
931.82700515679994
 20
-432.93133250829999
 30
0.0
 11
931.82700515679994
 21
-421.31927084569998
 31
0.0
  0
LINE
  5
1AC
  8
0
 62
     0
 10
928.77700515679987
 20
-429.62943911199989
 30
0.0
 11
928.77700515679987
 21
-421.31927084569998
 31
0.0
  0
LINE
  5
1AD
  8
0
 62
     0
 10
931.82700515679994
 20
-422.31927084569992
 30
0.0
 11
931.82700515679994
 21
-422.31927084569992
 31
0.0
  0
LINE
  5
1AE
  8
0
 62
     0
 10
931.82700515679994
 20
-422.31927084569992
 30
0.0
 11
928.77700515679987
 21
-422.31927084569992
 31
0.0
  0
LINE
  5
1AF
  8
0
 62
     0
 10
928.77700515679987
 20
-422.31927084569992
 30
0.0
 11
931.82700515679994
 21
-422.31927084569992
 31
0.0
  0
LINE
  5
1B0
  8
0
 62
     0
 10
928.77700515679987
 20
-422.31927084569992
 30
0.0
 11
928.77700515679987
 21
-422.31927084569992
 31
0.0
  0
LINE
  5
1B1
  8
0
 62
     0
 10
928.77700515679987
 20
-422.31927084569992
 30
0.0
 11
931.27700515679976
 21
-422.31927084569992
 31
0.0
  0
SOLID
  5
1B2
  8
0
 62
     0
 10
928.77700515679987
 20
-422.31927084569992
 30
0.0
 11
930.27708800720006
 21
-421.91732486730001
 31
0.0
 12
930.27708800720006
 22
-422.7212168241
 32
0.0
 13
929.9020672946001
 23
-422.31927084569992
 33
0.0
  0
LINE
  5
1B3
  8
0
 62
     0
 10
931.82700515679994
 20
-422.31927084569992
 30
0.0
 11
929.32700515679994
 21
-422.31927084569992
 31
0.0
  0
SOLID
  5
1B4
  8
0
 62
     0
 10
931.82700515679994
 20
-422.31927084569992
 30
0.0
 11
930.32692230630005
 21
-422.7212168241
 31
0.0
 12
930.32692230630005
 22
-421.91732486730001
 32
0.0
 13
930.7019430188999
 23
-422.31927084569992
 33
0.0
  0
ENDBLK
  5
1B5
  8
0
  0
BLOCK
  8
0
  2
*D17
 70
     1
 10
0.0
 20
0.0
 30
0.0
  3
*D17
  1

  0
TEXT
  5
1B9
  8
0
 62
     0
 10
916.08950518059987
 20
-421.58114584930001
 30
0.0
 40
1.3493749797000001
  1
22.2
  0
LINE
  5
1BA
  8
0
 62
     0
 10
928.77700515679987
 20
-429.62943911199989
 30
0.0
 11
928.77700515679987
 21
-421.31927084569998
 31
0.0
  0
LINE
  5
1BB
  8
0
 62
     0
 10
906.57700515680006
 20
-433.43133250829999
 30
0.0
 11
906.57700515680006
 21
-421.31927084569998
 31
0.0
  0
LINE
  5
1BC
  8
0
 62
     0
 10
928.77700515679987
 20
-422.31927084569992
 30
0.0
 11
920.05825512100012
 21
-422.31927084569992
 31
0.0
  0
LINE
  5
1BD
  8
0
 62
     0
 10
928.77700515679987
 20
-422.31927084569992
 30
0.0
 11
915.2957551925
 21
-422.31927084569992
 31
0.0
  0
LINE
  5
1BE
  8
0
 62
     0
 10
906.57700515680006
 20
-422.31927084569992
 30
0.0
 11
920.05825512100012
 21
-422.31927084569992
 31
0.0
  0
LINE
  5
1BF
  8
0
 62
     0
 10
906.57700515680006
 20
-422.31927084569992
 30
0.0
 11
915.2957551925
 21
-422.31927084569992
 31
0.0
  0
LINE
  5
1C0
  8
0
 62
     0
 10
906.57700515680006
 20
-422.31927084569992
 30
0.0
 11
909.07700515679983
 21
-422.31927084569992
 31
0.0
  0
SOLID
  5
1C1
  8
0
 62
     0
 10
906.57700515680006
 20
-422.31927084569992
 30
0.0
 11
908.07708800720002
 21
-421.91732486730001
 31
0.0
 12
908.07708800720002
 22
-422.7212168241
 32
0.0
 13
907.70206729460006
 23
-422.31927084569992
 33
0.0
  0
LINE
  5
1C2
  8
0
 62
     0
 10
928.77700515679987
 20
-422.31927084569992
 30
0.0
 11
926.27700515679987
 21
-422.31927084569992
 31
0.0
  0
SOLID
  5
1C3
  8
0
 62
     0
 10
928.77700515679987
 20
-422.31927084569992
 30
0.0
 11
927.27692230630009
 21
-422.7212168241
 31
0.0
 12
927.27692230630009
 22
-421.91732486730001
 32
0.0
 13
927.65194301889994
 23
-422.31927084569992
 33
0.0
  0
ENDBLK
  5
1C4
  8
0
  0
BLOCK
  8
0
  2
*U18
 70
     1
 10
0.0
 20
0.0
 30
0.0
  3
*U18
  1

  0
TEXT
  5
2E4
  8
┌▓È_1
  6
CONTINUOUS
 62
     5
 10
899.3257491423999
 20
-522.15907957449394
 30
0.0
 40
1.4993055104999999
  1
ìÌ   Ä┐
  0
ENDBLK
  5
2E6
  8
0
  0
BLOCK
  8
0
  2
*U19
 70
     1
 10
0.0
 20
0.0
 30
0.0
  3
*U19
  1

  0
TEXT
  5
2E8
  8
┌▓È_1
  6
CONTINUOUS
 62
     5
 10
912.5997510208
 20
-527.94634299370546
 30
0.0
 40
1.4993055104999999
  1
Ä┌   ôx
  0
ENDBLK
  5
2EA
  8
0
  0
BLOCK
  8
0
  2
*U20
 70
     1
 10
0.0
 20
0.0
 30
0.0
  3
*U20
  1

  0
TEXT
  5
2EC
  8
┌▓È_1
  6
CONTINUOUS
 62
     5
 10
913.11432057099989
 20
-522.2273625338762
 30
0.0
 40
1.4993055104999999
  1
ö┬   î·
  0
ENDBLK
  5
2EE
  8
0
  0
BLOCK
  8
0
  2
*U21
 70
     1
 10
0.0
 20
0.0
 30
0.0
  3
*U21
  1

  0
TEXT
  5
2F0
  8
┌▓È_1
  6
CONTINUOUS
 62
     5
 10
923.87532680939989
 20
-533.09175838422345
 30
0.0
 40
1.4993055104999999
  1
É}öÈ
  0
ENDBLK
  5
2F2
  8
0
  0
BLOCK
  8
0
  2
*U22
 70
     1
 10
0.0
 20
0.0
 30
0.0
  3
*U22
  1

  0
TEXT
  5
2F4
  8
┌▓È_1
  6
CONTINUOUS
 62
     5
 10
923.87532680939989
 20
-527.6051318066643
 30
0.0
 40
1.4993055104999999
  1
òiû╝
  0
ENDBLK
  5
2F6
  8
0
  0
BLOCK
  8
0
  2
*U23
 70
     1
 10
0.0
 20
0.0
 30
0.0
  3
*U23
  1

  0
TEXT
  5
2F8
  8
┌▓È_1
  6
CONTINUOUS
 62
     5
 10
924.06774861079987
 20
-522.15146888662343
 30
0.0
 40
1.4993055104999999
  1
òiöÈ
  0
ENDBLK
  5
2FA
  8
0
  0
BLOCK
  8
0
  2
*U24
 70
     1
 10
0.0
 20
0.0
 30
0.0
  3
*U24
  1

  0
TEXT
  5
2FC
  8
┌▓È_1
  6
CONTINUOUS
 62
     5
 10
898.95675582009994
 20
-527.65941449937623
 30
0.0
 40
1.4993055104999999
  1
îƒ   É}
  0
ENDBLK
  5
2FE
  8
0
  0
BLOCK
  8
0
  2
*U25
 70
     1
 10
0.0
 20
0.0
 30
0.0
  3
*U25
  1

  0
TEXT
  5
300
  8
┌▓È_1
  6
CONTINUOUS
 62
     5
 10
879.92707849479984
 20
-535.0810894310041
 30
0.0
 40
2.6987499594999989
  1
èöÄ«ë´Äð
  0
ENDBLK
  5
302
  8
0
  0
BLOCK
  8
0
  2
*U26
 70
     1
 10
0.0
 20
0.0
 30
0.0
  3
*U26
  1

  0
TEXT
  5
304
  8
┌▓È_1
  6
CONTINUOUS
 62
     5
 10
869.42707849479984
 20
-530.49603825620557
 30
0.0
 40
1.4993055104999999
  1
É╗É}
  0
ENDBLK
  5
306
  8
0
  0
BLOCK
  8
0
  2
*U27
 70
     1
 10
0.0
 20
0.0
 30
0.0
  3
*U27
  1

  0
TEXT
  5
308
  8
┌▓È_1
  6
CONTINUOUS
 62
     5
 10
869.42707849479984
 20
-527.57783415936433
 30
0.0
 40
1.4993055104999999
  1
É¦îv
  0
ENDBLK
  5
30A
  8
0
  0
BLOCK
  8
0
  2
*U28
 70
     1
 10
0.0
 20
0.0
 30
0.0
  3
*U28
  1

  0
TEXT
  5
30C
  8
┌▓È_1
  6
CONTINUOUS
 62
     5
 10
871.93003485669988
 20
-522.1362475108823
 30
0.0
 40
1.4993055104999999
  1
ô·   òt
  0
ENDBLK
  5
30E
  8
0
  0
BLOCK
  8
0
  2
*U29
 70
     1
 10
0.0
 20
0.0
 30
0.0
  3
*U29
  1

  0
TEXT
  5
310
  8
┌▓È_1
  6
CONTINUOUS
 62
     5
 10
885.77908247570008
 20
-522.18191163810548
 30
0.0
 40
1.4993055104999999
  1
ê§   Éö
  0
ENDBLK
  5
312
  8
0
  0
BLOCK
  8
0
  2
*U30
 70
     1
 10
0.0
 20
0.0
 30
0.0
  3
*U30
  1

  0
TEXT
  5
314
  8
┌▓È_1
  6
CONTINUOUS
 62
     5
 10
883.59249940420011
 20
-530.45798481685267
 30
0.0
 40
1.4993055104999999
  1
ëÇî┤
  0
ENDBLK
  5
316
  8
0
  0
BLOCK
  8
0
  2
*U31
 70
     1
 10
0.0
 20
0.0
 30
0.0
  3
*U31
  1

  0
TEXT
  5
318
  8
┌▓È_1
  6
CONTINUOUS
 62
     5
 10
871.85774160482276
 20
-524.96184143990001
 30
0.0
 40
1.3002781689
  1
H15.6.20
  0
ENDBLK
  5
31A
  8
0
  0
BLOCK
  8
0
  2
*U32
 70
     1
 10
0.0
 20
0.0
 30
0.0
  3
*U32
  1

  0
TEXT
  5
31C
  8
┌▓È_1
  6
CONTINUOUS
 62
     5
 10
914.74978617864235
 20
-530.55564746059986
 30
0.0
 40
1.3002781689
  1
2üF1
  0
ENDBLK
  5
31E
  8
0
  0
BLOCK
  8
0
  2
*U33
 70
     1
 10
0.0
 20
0.0
 30
0.0
  3
*U33
  1

  0
TEXT
  5
320
  8
┌▓È_1
  6
CONTINUOUS
 10
906.34585778875567
 20
-497.3626922600132
 30
0.0
 40
1.7991665721000001
  1
ìÌü@ü@Ä┐ü@üFZDC-2üiêƒëöìçïÓâ_âCâJâXâgüj
  0
TEXT
  5
321
  8
┌▓È_1
  6
CONTINUOUS
 10
906.34585778875567
 20
-503.44210959416512
 30
0.0
 40
1.7991665721000001
  1
ò\ü@û╩ü@ÉFüFLA-611ü@ü@âVâïâoü[
  0
TEXT
  5
322
  8
┌▓È_1
  6
CONTINUOUS
 10
906.34585778875567
 20
-509.62198800594672
 30
0.0
 40
1.7991665721000001
  1
ü@ü@ü@ü@ü@ü@LA-612ü@ü@âuâëâbâN
  0
TEXT
  5
323
  8
┌▓È_1
  6
CONTINUOUS
 10
906.34585778875567
 20
-515.80186641772843
 30
0.0
 40
1.7991665721000001
  1
ü@ü@ü@ü@ü@ü@LA-613ü@ü@âuâìâôâY
  0
ENDBLK
  5
325
  8
0
  0
BLOCK
  8
0
  2
*U34
 70
     1
 10
0.0
 20
0.0
 30
0.0
  3
*U34
  1

  0
TEXT
  5
327
  8
┌▓È_1
  6
CONTINUOUS
 10
928.30437962439987
 20
-529.20673757465624
 30
0.0
 40
1.7991665721000001
  1
éhî^ü@âtâbâN
  0
ENDBLK
  5
329
  8
0
  0
BLOCK
  8
0
  2
*U35
 70
     1
 10
0.0
 20
0.0
 30
0.0
  3
*U35
  1

  0
TEXT
  5
32B
  8
┌▓È_1
  6
CONTINUOUS
 10
880.7951619861999
 20
-514.01054101859995
 30
0.0
 40
2.099027836299999
  1
érü@1üF1
  0
ENDBLK
  5
32D
  8
0
  0
ENDSEC
  0
SECTION
  2
ENTITIES
  0
LINE
  5
2F
  8
┌▓È_1
 62
     5
 10
906.7541546125999
 20
-534.4552936371
 30
0.0
 11
906.6651035827
 21
-534.54248270919993
 31
0.0
  0
LINE
  5
30
  8
┌▓È_1
 62
     5
 10
905.59095118240009
 20
-533.79026348519994
 30
0.0
 11
905.47065327919995
 21
-533.92313266550002
 31
0.0
  0
ARC
  5
31
  8
┌▓È_1
 62
     5
 10
904.57279493650003
 20
-532.78072803259988
 30
0.0
 40
2.75
 50
322.48761197969998
 51
0.0
  0
LINE
  5
32
  8
┌▓È_1
 62
     5
 10
907.32279493650003
 20
-532.78072803259988
 30
0.0
 11
907.82279493649992
 21
-532.0307280326
 31
0.0
  0
LINE
  5
33
  8
┌▓È_1
 62
     5
 10
912.43153626070011
 20
-535.78072803259988
 30
0.0
 11
911.03153626070002
 21
-535.78072803259988
 31
0.0
  0
LINE
  5
34
  8
┌▓È_1
 62
     5
 10
911.97111263470003
 20
-534.18072803259986
 30
0.0
 11
913.43153626070011
 21
-534.18072803259986
 31
0.0
  0
LINE
  5
35
  8
┌▓È_1
 62
     5
 10
907.82279493649992
 20
-532.0307280326
 30
0.0
 11
903.32279493649992
 21
-532.0307280326
 31
0.0
  0
LINE
  5
36
  8
┌▓È_1
 62
     5
 10
913.00940419309995
 20
-523.10463878989992
 30
0.0
 11
920.14335481039996
 21
-523.10463878989992
 31
0.0
  0
POLYLINE
  8
┌▓È_1
  5
32E
  62
5
  66
     1
 10
0.000000
 20
0.000000
 30
0.000000
  70
     8
  0
VERTEX
  8
┌▓È_1
  5
32F
 10
905.040
 20
-533.475
 30
0.000000
  70
    32
  0
VERTEX
  8
┌▓È_1
  5
330
 10
905.043
 20
-533.478
 30
0.000000
  70
    32
  0
VERTEX
  8
┌▓È_1
  5
331
 10
905.047
 20
-533.482
 30
0.000000
  70
    32
  0
VERTEX
  8
┌▓È_1
  5
332
 10
905.050
 20
-533.486
 30
0.000000
  70
    32
  0
VERTEX
  8
┌▓È_1
  5
333
 10
905.053
 20
-533.489
 30
0.000000
  70
    32
  0
VERTEX
  8
┌▓È_1
  5
334
 10
905.056
 20
-533.493
 30
0.000000
  70
    32
  0
VERTEX
  8
┌▓È_1
  5
335
 10
905.060
 20
-533.497
 30
0.000000
  70
    32
  0
VERTEX
  8
┌▓È_1
  5
336
 10
905.063
 20
-533.500
 30
0.000000
  70
    32
  0
VERTEX
  8
┌▓È_1
  5
337
 10
905.066
 20
-533.504
 30
0.000000
  70
    32
  0
VERTEX
  8
┌▓È_1
  5
338
 10
905.070
 20
-533.508
 30
0.000000
  70
    32
  0
VERTEX
  8
┌▓È_1
  5
339
 10
905.073
 20
-533.511
 30
0.000000
  70
    32
  0
VERTEX
  8
┌▓È_1
  5
33A
 10
905.076
 20
-533.515
 30
0.000000
  70
    32
  0
VERTEX
  8
┌▓È_1
  5
33B
 10
905.080
 20
-533.519
 30
0.000000
  70
    32
  0
VERTEX
  8
┌▓È_1
  5
33C
 10
905.083
 20
-533.522
 30
0.000000
  70
    32
  0
VERTEX
  8
┌▓È_1
  5
33D
 10
905.086
 20
-533.526
 30
0.000000
  70
    32
  0
VERTEX
  8
┌▓È_1
  5
33E
 10
905.089
 20
-533.530
 30
0.000000
  70
    32
  0
VERTEX
  8
┌▓È_1
  5
33F
 10
905.093
 20
-533.533
 30
0.000000
  70
    32
  0
VERTEX
  8
┌▓È_1
  5
340
 10
905.096
 20
-533.537
 30
0.000000
  70
    32
  0
VERTEX
  8
┌▓È_1
  5
341
 10
905.099
 20
-533.541
 30
0.000000
  70
    32
  0
VERTEX
  8
┌▓È_1
  5
342
 10
905.103
 20
-533.544
 30
0.000000
  70
    32
  0
VERTEX
  8
┌▓È_1
  5
343
 10
905.106
 20
-533.548
 30
0.000000
  70
    32
  0
VERTEX
  8
┌▓È_1
  5
344
 10
905.109
 20
-533.552
 30
0.000000
  70
    32
  0
VERTEX
  8
┌▓È_1
  5
345
 10
905.113
 20
-533.555
 30
0.000000
  70
    32
  0
VERTEX
  8
┌▓È_1
  5
346
 10
905.116
 20
-533.559
 30
0.000000
  70
    32
  0
VERTEX
  8
┌▓È_1
  5
347
 10
905.119
 20
-533.563
 30
0.000000
  70
    32
  0
VERTEX
  8
┌▓È_1
  5
348
 10
905.123
 20
-533.566
 30
0.000000
  70
    32
  0
VERTEX
  8
┌▓È_1
  5
349
 10
905.126
 20
-533.570
 30
0.000000
  70
    32
  0
VERTEX
  8
┌▓È_1
  5
34A
 10
905.129
 20
-533.574
 30
0.000000
  70
    32
  0
VERTEX
  8
┌▓È_1
  5
34B
 10
905.132
 20
-533.577
 30
0.000000
  70
    32
  0
VERTEX
  8
┌▓È_1
  5
34C
 10
905.136
 20
-533.581
 30
0.000000
  70
    32
  0
VERTEX
  8
┌▓È_1
  5
34D
 10
905.139
 20
-533.585
 30
0.000000
  70
    32
  0
VERTEX
  8
┌▓È_1
  5
34E
 10
905.142
 20
-533.588
 30
0.000000
  70
    32
  0
VERTEX
  8
┌▓È_1
  5
34F
 10
905.146
 20
-533.592
 30
0.000000
  70
    32
  0
VERTEX
  8
┌▓È_1
  5
350
 10
905.149
 20
-533.596
 30
0.000000
  70
    32
  0
VERTEX
  8
┌▓È_1
  5
351
 10
905.152
 20
-533.599
 30
0.000000
  70
    32
  0
VERTEX
  8
┌▓È_1
  5
352
 10
905.156
 20
-533.603
 30
0.000000
  70
    32
  0
VERTEX
  8
┌▓È_1
  5
353
 10
905.159
 20
-533.607
 30
0.000000
  70
    32
  0
VERTEX
  8
┌▓È_1
  5
354
 10
905.162
 20
-533.610
 30
0.000000
  70
    32
  0
VERTEX
  8
┌▓È_1
  5
355
 10
905.166
 20
-533.614
 30
0.000000
  70
    32
  0
VERTEX
  8
┌▓È_1
  5
356
 10
905.169
 20
-533.618
 30
0.000000
  70
    32
  0
VERTEX
  8
┌▓È_1
  5
357
 10
905.172
 20
-533.621
 30
0.000000
  70
    32
  0
VERTEX
  8
┌▓È_1
  5
358
 10
905.176
 20
-533.625
 30
0.000000
  70
    32
  0
VERTEX
  8
┌▓È_1
  5
359
 10
905.179
 20
-533.628
 30
0.000000
  70
    32
  0
VERTEX
  8
┌▓È_1
  5
35A
 10
905.182
 20
-533.632
 30
0.000000
  70
    32
  0
VERTEX
  8
┌▓È_1
  5
35B
 10
905.186
 20
-533.636
 30
0.000000
  70
    32
  0
VERTEX
  8
┌▓È_1
  5
35C
 10
905.189
 20
-533.639
 30
0.000000
  70
    32
  0
VERTEX
  8
┌▓È_1
  5
35D
 10
905.192
 20
-533.643
 30
0.000000
  70
    32
  0
VERTEX
  8
┌▓È_1
  5
35E
 10
905.196
 20
-533.647
 30
0.000000
  70
    32
  0
VERTEX
  8
┌▓È_1
  5
35F
 10
905.199
 20
-533.650
 30
0.000000
  70
    32
  0
VERTEX
  8
┌▓È_1
  5
360
 10
905.202
 20
-533.654
 30
0.000000
  70
    32
  0
VERTEX
  8
┌▓È_1
  5
361
 10
905.206
 20
-533.657
 30
0.000000
  70
    32
  0
VERTEX
  8
┌▓È_1
  5
362
 10
905.209
 20
-533.661
 30
0.000000
  70
    32
  0
VERTEX
  8
┌▓È_1
  5
363
 10
905.212
 20
-533.665
 30
0.000000
  70
    32
  0
VERTEX
  8
┌▓È_1
  5
364
 10
905.216
 20
-533.668
 30
0.000000
  70
    32
  0
VERTEX
  8
┌▓È_1
  5
365
 10
905.219
 20
-533.672
 30
0.000000
  70
    32
  0
VERTEX
  8
┌▓È_1
  5
366
 10
905.222
 20
-533.675
 30
0.000000
  70
    32
  0
VERTEX
  8
┌▓È_1
  5
367
 10
905.226
 20
-533.679
 30
0.000000
  70
    32
  0
VERTEX
  8
┌▓È_1
  5
368
 10
905.229
 20
-533.683
 30
0.000000
  70
    32
  0
VERTEX
  8
┌▓È_1
  5
369
 10
905.232
 20
-533.686
 30
0.000000
  70
    32
  0
VERTEX
  8
┌▓È_1
  5
36A
 10
905.236
 20
-533.690
 30
0.000000
  70
    32
  0
VERTEX
  8
┌▓È_1
  5
36B
 10
905.239
 20
-533.693
 30
0.000000
  70
    32
  0
VERTEX
  8
┌▓È_1
  5
36C
 10
905.243
 20
-533.697
 30
0.000000
  70
    32
  0
VERTEX
  8
┌▓È_1
  5
36D
 10
905.246
 20
-533.701
 30
0.000000
  70
    32
  0
VERTEX
  8
┌▓È_1
  5
36E
 10
905.249
 20
-533.704
 30
0.000000
  70
    32
  0
VERTEX
  8
┌▓È_1
  5
36F
 10
905.253
 20
-533.708
 30
0.000000
  70
    32
  0
VERTEX
  8
┌▓È_1
  5
370
 10
905.256
 20
-533.711
 30
0.000000
  70
    32
  0
VERTEX
  8
┌▓È_1
  5
371
 10
905.259
 20
-533.715
 30
0.000000
  70
    32
  0
VERTEX
  8
┌▓È_1
  5
372
 10
905.263
 20
-533.718
 30
0.000000
  70
    32
  0
VERTEX
  8
┌▓È_1
  5
373
 10
905.266
 20
-533.722
 30
0.000000
  70
    32
  0
VERTEX
  8
┌▓È_1
  5
374
 10
905.269
 20
-533.725
 30
0.000000
  70
    32
  0
VERTEX
  8
┌▓È_1
  5
375
 10
905.273
 20
-533.729
 30
0.000000
  70
    32
  0
VERTEX
  8
┌▓È_1
  5
376
 10
905.276
 20
-533.733
 30
0.000000
  70
    32
  0
VERTEX
  8
┌▓È_1
  5
377
 10
905.280
 20
-533.736
 30
0.000000
  70
    32
  0
VERTEX
  8
┌▓È_1
  5
378
 10
905.283
 20
-533.740
 30
0.000000
  70
    32
  0
VERTEX
  8
┌▓È_1
  5
379
 10
905.286
 20
-533.743
 30
0.000000
  70
    32
  0
VERTEX
  8
┌▓È_1
  5
37A
 10
905.290
 20
-533.747
 30
0.000000
  70
    32
  0
VERTEX
  8
┌▓È_1
  5
37B
 10
905.293
 20
-533.750
 30
0.000000
  70
    32
  0
VERTEX
  8
┌▓È_1
  5
37C
 10
905.297
 20
-533.754
 30
0.000000
  70
    32
  0
VERTEX
  8
┌▓È_1
  5
37D
 10
905.300
 20
-533.757
 30
0.000000
  70
    32
  0
VERTEX
  8
┌▓È_1
  5
37E
 10
905.303
 20
-533.761
 30
0.000000
  70
    32
  0
VERTEX
  8
┌▓È_1
  5
37F
 10
905.307
 20
-533.764
 30
0.000000
  70
    32
  0
VERTEX
  8
┌▓È_1
  5
380
 10
905.310
 20
-533.768
 30
0.000000
  70
    32
  0
VERTEX
  8
┌▓È_1
  5
381
 10
905.314
 20
-533.771
 30
0.000000
  70
    32
  0
VERTEX
  8
┌▓È_1
  5
382
 10
905.317
 20
-533.775
 30
0.000000
  70
    32
  0
VERTEX
  8
┌▓È_1
  5
383
 10
905.320
 20
-533.778
 30
0.000000
  70
    32
  0
VERTEX
  8
┌▓È_1
  5
384
 10
905.324
 20
-533.782
 30
0.000000
  70
    32
  0
VERTEX
  8
┌▓È_1
  5
385
 10
905.327
 20
-533.785
 30
0.000000
  70
    32
  0
VERTEX
  8
┌▓È_1
  5
386
 10
905.331
 20
-533.789
 30
0.000000
  70
    32
  0
VERTEX
  8
┌▓È_1
  5
387
 10
905.334
 20
-533.792
 30
0.000000
  70
    32
  0
VERTEX
  8
┌▓È_1
  5
388
 10
905.338
 20
-533.796
 30
0.000000
  70
    32
  0
VERTEX
  8
┌▓È_1
  5
389
 10
905.341
 20
-533.799
 30
0.000000
  70
    32
  0
VERTEX
  8
┌▓È_1
  5
38A
 10
905.345
 20
-533.803
 30
0.000000
  70
    32
  0
VERTEX
  8
┌▓È_1
  5
38B
 10
905.348
 20
-533.806
 30
0.000000
  70
    32
  0
VERTEX
  8
┌▓È_1
  5
38C
 10
905.351
 20
-533.809
 30
0.000000
  70
    32
  0
VERTEX
  8
┌▓È_1
  5
38D
 10
905.355
 20
-533.813
 30
0.000000
  70
    32
  0
VERTEX
  8
┌▓È_1
  5
38E
 10
905.358
 20
-533.816
 30
0.000000
  70
    32
  0
VERTEX
  8
┌▓È_1
  5
38F
 10
905.362
 20
-533.820
 30
0.000000
  70
    32
  0
VERTEX
  8
┌▓È_1
  5
390
 10
905.365
 20
-533.823
 30
0.000000
  70
    32
  0
VERTEX
  8
┌▓È_1
  5
391
 10
905.369
 20
-533.827
 30
0.000000
  70
    32
  0
VERTEX
  8
┌▓È_1
  5
392
 10
905.372
 20
-533.830
 30
0.000000
  70
    32
  0
VERTEX
  8
┌▓È_1
  5
393
 10
905.376
 20
-533.833
 30
0.000000
  70
    32
  0
VERTEX
  8
┌▓È_1
  5
394
 10
905.379
 20
-533.837
 30
0.000000
  70
    32
  0
VERTEX
  8
┌▓È_1
  5
395
 10
905.383
 20
-533.840
 30
0.000000
  70
    32
  0
VERTEX
  8
┌▓È_1
  5
396
 10
905.386
 20
-533.844
 30
0.000000
  70
    32
  0
VERTEX
  8
┌▓È_1
  5
397
 10
905.390
 20
-533.847
 30
0.000000
  70
    32
  0
VERTEX
  8
┌▓È_1
  5
398
 10
905.393
 20
-533.850
 30
0.000000
  70
    32
  0
VERTEX
  8
┌▓È_1
  5
399
 10
905.396
 20
-533.854
 30
0.000000
  70
    32
  0
VERTEX
  8
┌▓È_1
  5
39A
 10
905.400
 20
-533.857
 30
0.000000
  70
    32
  0
VERTEX
  8
┌▓È_1
  5
39B
 10
905.403
 20
-533.860
 30
0.000000
  70
    32
  0
VERTEX
  8
┌▓È_1
  5
39C
 10
905.407
 20
-533.864
 30
0.000000
  70
    32
  0
VERTEX
  8
┌▓È_1
  5
39D
 10
905.410
 20
-533.867
 30
0.000000
  70
    32
  0
VERTEX
  8
┌▓È_1
  5
39E
 10
905.414
 20
-533.870
 30
0.000000
  70
    32
  0
VERTEX
  8
┌▓È_1
  5
39F
 10
905.418
 20
-533.874
 30
0.000000
  70
    32
  0
VERTEX
  8
┌▓È_1
  5
3A0
 10
905.421
 20
-533.877
 30
0.000000
  70
    32
  0
VERTEX
  8
┌▓È_1
  5
3A1
 10
905.425
 20
-533.880
 30
0.000000
  70
    32
  0
VERTEX
  8
┌▓È_1
  5
3A2
 10
905.428
 20
-533.884
 30
0.000000
  70
    32
  0
VERTEX
  8
┌▓È_1
  5
3A3
 10
905.432
 20
-533.887
 30
0.000000
  70
    32
  0
VERTEX
  8
┌▓È_1
  5
3A4
 10
905.435
 20
-533.890
 30
0.000000
  70
    32
  0
VERTEX
  8
┌▓È_1
  5
3A5
 10
905.439
 20
-533.894
 30
0.000000
  70
    32
  0
VERTEX
  8
┌▓È_1
  5
3A6
 10
905.442
 20
-533.897
 30
0.000000
  70
    32
  0
VERTEX
  8
┌▓È_1
  5
3A7
 10
905.446
 20
-533.900
 30
0.000000
  70
    32
  0
VERTEX
  8
┌▓È_1
  5
3A8
 10
905.449
 20
-533.904
 30
0.000000
  70
    32
  0
VERTEX
  8
┌▓È_1
  5
3A9
 10
905.453
 20
-533.907
 30
0.000000
  70
    32
  0
VERTEX
  8
┌▓È_1
  5
3AA
 10
905.456
 20
-533.910
 30
0.000000
  70
    32
  0
VERTEX
  8
┌▓È_1
  5
3AB
 10
905.460
 20
-533.913
 30
0.000000
  70
    32
  0
VERTEX
  8
┌▓È_1
  5
3AC
 10
905.464
 20
-533.917
 30
0.000000
  70
    32
  0
VERTEX
  8
┌▓È_1
  5
3AD
 10
905.467
 20
-533.920
 30
0.000000
  70
    32
  0
VERTEX
  8
┌▓È_1
  5
3AE
 10
905.471
 20
-533.923
 30
0.000000
  70
    32
  0
SEQEND
  8
┌▓È_1
  5
3AF
  0
POLYLINE
  8
┌▓È_1
  5
3B0
  62
5
  66
     1
 10
0.000000
 20
0.000000
 30
0.000000
  70
     8
  0
VERTEX
  8
┌▓È_1
  5
3B1
 10
906.052
 20
-535.099
 30
0.000000
  70
    32
  0
VERTEX
  8
┌▓È_1
  5
3B2
 10
906.066
 20
-535.103
 30
0.000000
  70
    32
  0
VERTEX
  8
┌▓È_1
  5
3B3
 10
906.079
 20
-535.107
 30
0.000000
  70
    32
  0
VERTEX
  8
┌▓È_1
  5
3B4
 10
906.093
 20
-535.112
 30
0.000000
  70
    32
  0
VERTEX
  8
┌▓È_1
  5
3B5
 10
906.106
 20
-535.116
 30
0.000000
  70
    32
  0
VERTEX
  8
┌▓È_1
  5
3B6
 10
906.120
 20
-535.120
 30
0.000000
  70
    32
  0
VERTEX
  8
┌▓È_1
  5
3B7
 10
906.133
 20
-535.124
 30
0.000000
  70
    32
  0
VERTEX
  8
┌▓È_1
  5
3B8
 10
906.147
 20
-535.129
 30
0.000000
  70
    32
  0
VERTEX
  8
┌▓È_1
  5
3B9
 10
906.160
 20
-535.133
 30
0.000000
  70
    32
  0
VERTEX
  8
┌▓È_1
  5
3BA
 10
906.174
 20
-535.137
 30
0.000000
  70
    32
  0
VERTEX
  8
┌▓È_1
  5
3BB
 10
906.187
 20
-535.141
 30
0.000000
  70
    32
  0
VERTEX
  8
┌▓È_1
  5
3BC
 10
906.201
 20
-535.145
 30
0.000000
  70
    32
  0
VERTEX
  8
┌▓È_1
  5
3BD
 10
906.214
 20
-535.149
 30
0.000000
  70
    32
  0
VERTEX
  8
┌▓È_1
  5
3BE
 10
906.228
 20
-535.153
 30
0.000000
  70
    32
  0
VERTEX
  8
┌▓È_1
  5
3BF
 10
906.242
 20
-535.157
 30
0.000000
  70
    32
  0
VERTEX
  8
┌▓È_1
  5
3C0
 10
906.255
 20
-535.161
 30
0.000000
  70
    32
  0
VERTEX
  8
┌▓È_1
  5
3C1
 10
906.269
 20
-535.165
 30
0.000000
  70
    32
  0
VERTEX
  8
┌▓È_1
  5
3C2
 10
906.282
 20
-535.169
 30
0.000000
  70
    32
  0
VERTEX
  8
┌▓È_1
  5
3C3
 10
906.296
 20
-535.173
 30
0.000000
  70
    32
  0
VERTEX
  8
┌▓È_1
  5
3C4
 10
906.310
 20
-535.177
 30
0.000000
  70
    32
  0
VERTEX
  8
┌▓È_1
  5
3C5
 10
906.323
 20
-535.181
 30
0.000000
  70
    32
  0
VERTEX
  8
┌▓È_1
  5
3C6
 10
906.337
 20
-535.185
 30
0.000000
  70
    32
  0
VERTEX
  8
┌▓È_1
  5
3C7
 10
906.351
 20
-535.189
 30
0.000000
  70
    32
  0
VERTEX
  8
┌▓È_1
  5
3C8
 10
906.364
 20
-535.193
 30
0.000000
  70
    32
  0
VERTEX
  8
┌▓È_1
  5
3C9
 10
906.378
 20
-535.196
 30
0.000000
  70
    32
  0
VERTEX
  8
┌▓È_1
  5
3CA
 10
906.392
 20
-535.200
 30
0.000000
  70
    32
  0
VERTEX
  8
┌▓È_1
  5
3CB
 10
906.406
 20
-535.204
 30
0.000000
  70
    32
  0
VERTEX
  8
┌▓È_1
  5
3CC
 10
906.419
 20
-535.208
 30
0.000000
  70
    32
  0
VERTEX
  8
┌▓È_1
  5
3CD
 10
906.433
 20
-535.212
 30
0.000000
  70
    32
  0
VERTEX
  8
┌▓È_1
  5
3CE
 10
906.447
 20
-535.215
 30
0.000000
  70
    32
  0
VERTEX
  8
┌▓È_1
  5
3CF
 10
906.461
 20
-535.219
 30
0.000000
  70
    32
  0
VERTEX
  8
┌▓È_1
  5
3D0
 10
906.474
 20
-535.223
 30
0.000000
  70
    32
  0
VERTEX
  8
┌▓È_1
  5
3D1
 10
906.488
 20
-535.227
 30
0.000000
  70
    32
  0
VERTEX
  8
┌▓È_1
  5
3D2
 10
906.502
 20
-535.230
 30
0.000000
  70
    32
  0
VERTEX
  8
┌▓È_1
  5
3D3
 10
906.516
 20
-535.234
 30
0.000000
  70
    32
  0
VERTEX
  8
┌▓È_1
  5
3D4
 10
906.529
 20
-535.238
 30
0.000000
  70
    32
  0
VERTEX
  8
┌▓È_1
  5
3D5
 10
906.543
 20
-535.241
 30
0.000000
  70
    32
  0
VERTEX
  8
┌▓È_1
  5
3D6
 10
906.557
 20
-535.245
 30
0.000000
  70
    32
  0
VERTEX
  8
┌▓È_1
  5
3D7
 10
906.571
 20
-535.249
 30
0.000000
  70
    32
  0
VERTEX
  8
┌▓È_1
  5
3D8
 10
906.585
 20
-535.252
 30
0.000000
  70
    32
  0
VERTEX
  8
┌▓È_1
  5
3D9
 10
906.599
 20
-535.256
 30
0.000000
  70
    32
  0
VERTEX
  8
┌▓È_1
  5
3DA
 10
906.612
 20
-535.259
 30
0.000000
  70
    32
  0
VERTEX
  8
┌▓È_1
  5
3DB
 10
906.626
 20
-535.263
 30
0.000000
  70
    32
  0
VERTEX
  8
┌▓È_1
  5
3DC
 10
906.640
 20
-535.266
 30
0.000000
  70
    32
  0
VERTEX
  8
┌▓È_1
  5
3DD
 10
906.654
 20
-535.270
 30
0.000000
  70
    32
  0
VERTEX
  8
┌▓È_1
  5
3DE
 10
906.668
 20
-535.273
 30
0.000000
  70
    32
  0
VERTEX
  8
┌▓È_1
  5
3DF
 10
906.682
 20
-535.277
 30
0.000000
  70
    32
  0
VERTEX
  8
┌▓È_1
  5
3E0
 10
906.696
 20
-535.280
 30
0.000000
  70
    32
  0
VERTEX
  8
┌▓È_1
  5
3E1
 10
906.710
 20
-535.284
 30
0.000000
  70
    32
  0
VERTEX
  8
┌▓È_1
  5
3E2
 10
906.723
 20
-535.287
 30
0.000000
  70
    32
  0
VERTEX
  8
┌▓È_1
  5
3E3
 10
906.737
 20
-535.291
 30
0.000000
  70
    32
  0
VERTEX
  8
┌▓È_1
  5
3E4
 10
906.751
 20
-535.294
 30
0.000000
  70
    32
  0
VERTEX
  8
┌▓È_1
  5
3E5
 10
906.765
 20
-535.298
 30
0.000000
  70
    32
  0
VERTEX
  8
┌▓È_1
  5
3E6
 10
906.779
 20
-535.301
 30
0.000000
  70
    32
  0
VERTEX
  8
┌▓È_1
  5
3E7
 10
906.793
 20
-535.305
 30
0.000000
  70
    32
  0
VERTEX
  8
┌▓È_1
  5
3E8
 10
906.807
 20
-535.308
 30
0.000000
  70
    32
  0
VERTEX
  8
┌▓È_1
  5
3E9
 10
906.821
 20
-535.311
 30
0.000000
  70
    32
  0
VERTEX
  8
┌▓È_1
  5
3EA
 10
906.835
 20
-535.315
 30
0.000000
  70
    32
  0
VERTEX
  8
┌▓È_1
  5
3EB
 10
906.849
 20
-535.318
 30
0.000000
  70
    32
  0
VERTEX
  8
┌▓È_1
  5
3EC
 10
906.863
 20
-535.321
 30
0.000000
  70
    32
  0
VERTEX
  8
┌▓È_1
  5
3ED
 10
906.877
 20
-535.325
 30
0.000000
  70
    32
  0
VERTEX
  8
┌▓È_1
  5
3EE
 10
906.891
 20
-535.328
 30
0.000000
  70
    32
  0
VERTEX
  8
┌▓È_1
  5
3EF
 10
906.905
 20
-535.331
 30
0.000000
  70
    32
  0
VERTEX
  8
┌▓È_1
  5
3F0
 10
906.919
 20
-535.335
 30
0.000000
  70
    32
  0
VERTEX
  8
┌▓È_1
  5
3F1
 10
906.933
 20
-535.338
 30
0.000000
  70
    32
  0
VERTEX
  8
┌▓È_1
  5
3F2
 10
906.947
 20
-535.341
 30
0.000000
  70
    32
  0
VERTEX
  8
┌▓È_1
  5
3F3
 10
906.961
 20
-535.344
 30
0.000000
  70
    32
  0
VERTEX
  8
┌▓È_1
  5
3F4
 10
906.975
 20
-535.348
 30
0.000000
  70
    32
  0
VERTEX
  8
┌▓È_1
  5
3F5
 10
906.989
 20
-535.351
 30
0.000000
  70
    32
  0
VERTEX
  8
┌▓È_1
  5
3F6
 10
907.003
 20
-535.354
 30
0.000000
  70
    32
  0
VERTEX
  8
┌▓È_1
  5
3F7
 10
907.017
 20
-535.357
 30
0.000000
  70
    32
  0
VERTEX
  8
┌▓È_1
  5
3F8
 10
907.031
 20
-535.361
 30
0.000000
  70
    32
  0
VERTEX
  8
┌▓È_1
  5
3F9
 10
907.045
 20
-535.364
 30
0.000000
  70
    32
  0
VERTEX
  8
┌▓È_1
  5
3FA
 10
907.059
 20
-535.367
 30
0.000000
  70
    32
  0
VERTEX
  8
┌▓È_1
  5
3FB
 10
907.073
 20
-535.370
 30
0.000000
  70
    32
  0
VERTEX
  8
┌▓È_1
  5
3FC
 10
907.087
 20
-535.373
 30
0.000000
  70
    32
  0
VERTEX
  8
┌▓È_1
  5
3FD
 10
907.101
 20
-535.377
 30
0.000000
  70
    32
  0
VERTEX
  8
┌▓È_1
  5
3FE
 10
907.115
 20
-535.380
 30
0.000000
  70
    32
  0
VERTEX
  8
┌▓È_1
  5
3FF
 10
907.129
 20
-535.383
 30
0.000000
  70
    32
  0
VERTEX
  8
┌▓È_1
  5
400
 10
907.144
 20
-535.386
 30
0.000000
  70
    32
  0
VERTEX
  8
┌▓È_1
  5
401
 10
907.158
 20
-535.389
 30
0.000000
  70
    32
  0
VERTEX
  8
┌▓È_1
  5
402
 10
907.172
 20
-535.392
 30
0.000000
  70
    32
  0
VERTEX
  8
┌▓È_1
  5
403
 10
907.186
 20
-535.395
 30
0.000000
  70
    32
  0
VERTEX
  8
┌▓È_1
  5
404
 10
907.200
 20
-535.399
 30
0.000000
  70
    32
  0
VERTEX
  8
┌▓È_1
  5
405
 10
907.214
 20
-535.402
 30
0.000000
  70
    32
  0
VERTEX
  8
┌▓È_1
  5
406
 10
907.228
 20
-535.405
 30
0.000000
  70
    32
  0
VERTEX
  8
┌▓È_1
  5
407
 10
907.242
 20
-535.408
 30
0.000000
  70
    32
  0
VERTEX
  8
┌▓È_1
  5
408
 10
907.256
 20
-535.411
 30
0.000000
  70
    32
  0
VERTEX
  8
┌▓È_1
  5
409
 10
907.270
 20
-535.414
 30
0.000000
  70
    32
  0
VERTEX
  8
┌▓È_1
  5
40A
 10
907.285
 20
-535.417
 30
0.000000
  70
    32
  0
VERTEX
  8
┌▓È_1
  5
40B
 10
907.299
 20
-535.420
 30
0.000000
  70
    32
  0
VERTEX
  8
┌▓È_1
  5
40C
 10
907.313
 20
-535.423
 30
0.000000
  70
    32
  0
VERTEX
  8
┌▓È_1
  5
40D
 10
907.327
 20
-535.426
 30
0.000000
  70
    32
  0
VERTEX
  8
┌▓È_1
  5
40E
 10
907.341
 20
-535.429
 30
0.000000
  70
    32
  0
VERTEX
  8
┌▓È_1
  5
40F
 10
907.355
 20
-535.432
 30
0.000000
  70
    32
  0
VERTEX
  8
┌▓È_1
  5
410
 10
907.369
 20
-535.435
 30
0.000000
  70
    32
  0
VERTEX
  8
┌▓È_1
  5
411
 10
907.383
 20
-535.438
 30
0.000000
  70
    32
  0
VERTEX
  8
┌▓È_1
  5
412
 10
907.398
 20
-535.442
 30
0.000000
  70
    32
  0
VERTEX
  8
┌▓È_1
  5
413
 10
907.412
 20
-535.445
 30
0.000000
  70
    32
  0
VERTEX
  8
┌▓È_1
  5
414
 10
907.426
 20
-535.448
 30
0.000000
  70
    32
  0
VERTEX
  8
┌▓È_1
  5
415
 10
907.440
 20
-535.451
 30
0.000000
  70
    32
  0
VERTEX
  8
┌▓È_1
  5
416
 10
907.454
 20
-535.454
 30
0.000000
  70
    32
  0
VERTEX
  8
┌▓È_1
  5
417
 10
907.468
 20
-535.457
 30
0.000000
  70
    32
  0
VERTEX
  8
┌▓È_1
  5
418
 10
907.483
 20
-535.460
 30
0.000000
  70
    32
  0
VERTEX
  8
┌▓È_1
  5
419
 10
907.497
 20
-535.463
 30
0.000000
  70
    32
  0
VERTEX
  8
┌▓È_1
  5
41A
 10
907.511
 20
-535.466
 30
0.000000
  70
    32
  0
VERTEX
  8
┌▓È_1
  5
41B
 10
907.525
 20
-535.469
 30
0.000000
  70
    32
  0
VERTEX
  8
┌▓È_1
  5
41C
 10
907.539
 20
-535.472
 30
0.000000
  70
    32
  0
VERTEX
  8
┌▓È_1
  5
41D
 10
907.553
 20
-535.475
 30
0.000000
  70
    32
  0
VERTEX
  8
┌▓È_1
  5
41E
 10
907.568
 20
-535.477
 30
0.000000
  70
    32
  0
VERTEX
  8
┌▓È_1
  5
41F
 10
907.582
 20
-535.480
 30
0.000000
  70
    32
  0
VERTEX
  8
┌▓È_1
  5
420
 10
907.596
 20
-535.483
 30
0.000000
  70
    32
  0
VERTEX
  8
┌▓È_1
  5
421
 10
907.610
 20
-535.486
 30
0.000000
  70
    32
  0
VERTEX
  8
┌▓È_1
  5
422
 10
907.624
 20
-535.489
 30
0.000000
  70
    32
  0
VERTEX
  8
┌▓È_1
  5
423
 10
907.638
 20
-535.492
 30
0.000000
  70
    32
  0
VERTEX
  8
┌▓È_1
  5
424
 10
907.653
 20
-535.495
 30
0.000000
  70
    32
  0
VERTEX
  8
┌▓È_1
  5
425
 10
907.667
 20
-535.498
 30
0.000000
  70
    32
  0
VERTEX
  8
┌▓È_1
  5
426
 10
907.681
 20
-535.501
 30
0.000000
  70
    32
  0
VERTEX
  8
┌▓È_1
  5
427
 10
907.695
 20
-535.504
 30
0.000000
  70
    32
  0
VERTEX
  8
┌▓È_1
  5
428
 10
907.709
 20
-535.507
 30
0.000000
  70
    32
  0
VERTEX
  8
┌▓È_1
  5
429
 10
907.723
 20
-535.510
 30
0.000000
  70
    32
  0
VERTEX
  8
┌▓È_1
  5
42A
 10
907.738
 20
-535.513
 30
0.000000
  70
    32
  0
VERTEX
  8
┌▓È_1
  5
42B
 10
907.752
 20
-535.516
 30
0.000000
  70
    32
  0
VERTEX
  8
┌▓È_1
  5
42C
 10
907.766
 20
-535.519
 30
0.000000
  70
    32
  0
VERTEX
  8
┌▓È_1
  5
42D
 10
907.780
 20
-535.522
 30
0.000000
  70
    32
  0
VERTEX
  8
┌▓È_1
  5
42E
 10
907.794
 20
-535.525
 30
0.000000
  70
    32
  0
VERTEX
  8
┌▓È_1
  5
42F
 10
907.809
 20
-535.528
 30
0.000000
  70
    32
  0
VERTEX
  8
┌▓È_1
  5
430
 10
907.823
 20
-535.531
 30
0.000000
  70
    32
  0
SEQEND
  8
┌▓È_1
  5
431
  0
POLYLINE
  8
┌▓È_1
  5
432
  62
5
  66
     1
 10
0.000000
 20
0.000000
 30
0.000000
  70
     8
  0
VERTEX
  8
┌▓È_1
  5
433
 10
906.665
 20
-534.542
 30
0.000000
  70
    32
  0
VERTEX
  8
┌▓È_1
  5
434
 10
906.674
 20
-534.545
 30
0.000000
  70
    32
  0
VERTEX
  8
┌▓È_1
  5
435
 10
906.683
 20
-534.547
 30
0.000000
  70
    32
  0
VERTEX
  8
┌▓È_1
  5
436
 10
906.691
 20
-534.550
 30
0.000000
  70
    32
  0
VERTEX
  8
┌▓È_1
  5
437
 10
906.700
 20
-534.552
 30
0.000000
  70
    32
  0
VERTEX
  8
┌▓È_1
  5
438
 10
906.709
 20
-534.555
 30
0.000000
  70
    32
  0
VERTEX
  8
┌▓È_1
  5
439
 10
906.718
 20
-534.557
 30
0.000000
  70
    32
  0
VERTEX
  8
┌▓È_1
  5
43A
 10
906.726
 20
-534.560
 30
0.000000
  70
    32
  0
VERTEX
  8
┌▓È_1
  5
43B
 10
906.735
 20
-534.562
 30
0.000000
  70
    32
  0
VERTEX
  8
┌▓È_1
  5
43C
 10
906.744
 20
-534.564
 30
0.000000
  70
    32
  0
VERTEX
  8
┌▓È_1
  5
43D
 10
906.753
 20
-534.567
 30
0.000000
  70
    32
  0
VERTEX
  8
┌▓È_1
  5
43E
 10
906.762
 20
-534.569
 30
0.000000
  70
    32
  0
VERTEX
  8
┌▓È_1
  5
43F
 10
906.771
 20
-534.571
 30
0.000000
  70
    32
  0
VERTEX
  8
┌▓È_1
  5
440
 10
906.779
 20
-534.574
 30
0.000000
  70
    32
  0
VERTEX
  8
┌▓È_1
  5
441
 10
906.788
 20
-534.576
 30
0.000000
  70
    32
  0
VERTEX
  8
┌▓È_1
  5
442
 10
906.797
 20
-534.578
 30
0.000000
  70
    32
  0
VERTEX
  8
┌▓È_1
  5
443
 10
906.806
 20
-534.580
 30
0.000000
  70
    32
  0
VERTEX
  8
┌▓È_1
  5
444
 10
906.815
 20
-534.583
 30
0.000000
  70
    32
  0
VERTEX
  8
┌▓È_1
  5
445
 10
906.824
 20
-534.585
 30
0.000000
  70
    32
  0
VERTEX
  8
┌▓È_1
  5
446
 10
906.833
 20
-534.587
 30
0.000000
  70
    32
  0
VERTEX
  8
┌▓È_1
  5
447
 10
906.842
 20
-534.589
 30
0.000000
  70
    32
  0
VERTEX
  8
┌▓È_1
  5
448
 10
906.850
 20
-534.592
 30
0.000000
  70
    32
  0
VERTEX
  8
┌▓È_1
  5
449
 10
906.859
 20
-534.594
 30
0.000000
  70
    32
  0
VERTEX
  8
┌▓È_1
  5
44A
 10
906.868
 20
-534.596
 30
0.000000
  70
    32
  0
VERTEX
  8
┌▓È_1
  5
44B
 10
906.877
 20
-534.598
 30
0.000000
  70
    32
  0
VERTEX
  8
┌▓È_1
  5
44C
 10
906.886
 20
-534.600
 30
0.000000
  70
    32
  0
VERTEX
  8
┌▓È_1
  5
44D
 10
906.895
 20
-534.603
 30
0.000000
  70
    32
  0
VERTEX
  8
┌▓È_1
  5
44E
 10
906.904
 20
-534.605
 30
0.000000
  70
    32
  0
VERTEX
  8
┌▓È_1
  5
44F
 10
906.913
 20
-534.607
 30
0.000000
  70
    32
  0
VERTEX
  8
┌▓È_1
  5
450
 10
906.922
 20
-534.609
 30
0.000000
  70
    32
  0
VERTEX
  8
┌▓È_1
  5
451
 10
906.931
 20
-534.611
 30
0.000000
  70
    32
  0
VERTEX
  8
┌▓È_1
  5
452
 10
906.940
 20
-534.613
 30
0.000000
  70
    32
  0
VERTEX
  8
┌▓È_1
  5
453
 10
906.949
 20
-534.615
 30
0.000000
  70
    32
  0
VERTEX
  8
┌▓È_1
  5
454
 10
906.958
 20
-534.617
 30
0.000000
  70
    32
  0
VERTEX
  8
┌▓È_1
  5
455
 10
906.967
 20
-534.619
 30
0.000000
  70
    32
  0
VERTEX
  8
┌▓È_1
  5
456
 10
906.976
 20
-534.621
 30
0.000000
  70
    32
  0
VERTEX
  8
┌▓È_1
  5
457
 10
906.985
 20
-534.623
 30
0.000000
  70
    32
  0
VERTEX
  8
┌▓È_1
  5
458
 10
906.994
 20
-534.626
 30
0.000000
  70
    32
  0
VERTEX
  8
┌▓È_1
  5
459
 10
907.003
 20
-534.628
 30
0.000000
  70
    32
  0
VERTEX
  8
┌▓È_1
  5
45A
 10
907.012
 20
-534.630
 30
0.000000
  70
    32
  0
VERTEX
  8
┌▓È_1
  5
45B
 10
907.021
 20
-534.632
 30
0.000000
  70
    32
  0
VERTEX
  8
┌▓È_1
  5
45C
 10
907.030
 20
-534.634
 30
0.000000
  70
    32
  0
VERTEX
  8
┌▓È_1
  5
45D
 10
907.039
 20
-534.636
 30
0.000000
  70
    32
  0
VERTEX
  8
┌▓È_1
  5
45E
 10
907.048
 20
-534.638
 30
0.000000
  70
    32
  0
VERTEX
  8
┌▓È_1
  5
45F
 10
907.057
 20
-534.640
 30
0.000000
  70
    32
  0
VERTEX
  8
┌▓È_1
  5
460
 10
907.066
 20
-534.641
 30
0.000000
  70
    32
  0
VERTEX
  8
┌▓È_1
  5
461
 10
907.075
 20
-534.643
 30
0.000000
  70
    32
  0
VERTEX
  8
┌▓È_1
  5
462
 10
907.084
 20
-534.645
 30
0.000000
  70
    32
  0
VERTEX
  8
┌▓È_1
  5
463
 10
907.093
 20
-534.647
 30
0.000000
  70
    32
  0
VERTEX
  8
┌▓È_1
  5
464
 10
907.103
 20
-534.649
 30
0.000000
  70
    32
  0
VERTEX
  8
┌▓È_1
  5
465
 10
907.112
 20
-534.651
 30
0.000000
  70
    32
  0
VERTEX
  8
┌▓È_1
  5
466
 10
907.121
 20
-534.653
 30
0.000000
  70
    32
  0
VERTEX
  8
┌▓È_1
  5
467
 10
907.130
 20
-534.655
 30
0.000000
  70
    32
  0
VERTEX
  8
┌▓È_1
  5
468
 10
907.139
 20
-534.657
 30
0.000000
  70
    32
  0
VERTEX
  8
┌▓È_1
  5
469
 10
907.148
 20
-534.659
 30
0.000000
  70
    32
  0
VERTEX
  8
┌▓È_1
  5
46A
 10
907.157
 20
-534.661
 30
0.000000
  70
    32
  0
VERTEX
  8
┌▓È_1
  5
46B
 10
907.166
 20
-534.662
 30
0.000000
  70
    32
  0
VERTEX
  8
┌▓È_1
  5
46C
 10
907.175
 20
-534.664
 30
0.000000
  70
    32
  0
VERTEX
  8
┌▓È_1
  5
46D
 10
907.185
 20
-534.666
 30
0.000000
  70
    32
  0
VERTEX
  8
┌▓È_1
  5
46E
 10
907.194
 20
-534.668
 30
0.000000
  70
    32
  0
VERTEX
  8
┌▓È_1
  5
46F
 10
907.203
 20
-534.670
 30
0.000000
  70
    32
  0
VERTEX
  8
┌▓È_1
  5
470
 10
907.212
 20
-534.672
 30
0.000000
  70
    32
  0
VERTEX
  8
┌▓È_1
  5
471
 10
907.221
 20
-534.673
 30
0.000000
  70
    32
  0
VERTEX
  8
┌▓È_1
  5
472
 10
907.230
 20
-534.675
 30
0.000000
  70
    32
  0
VERTEX
  8
┌▓È_1
  5
473
 10
907.240
 20
-534.677
 30
0.000000
  70
    32
  0
VERTEX
  8
┌▓È_1
  5
474
 10
907.249
 20
-534.679
 30
0.000000
  70
    32
  0
VERTEX
  8
┌▓È_1
  5
475
 10
907.258
 20
-534.681
 30
0.000000
  70
    32
  0
VERTEX
  8
┌▓È_1
  5
476
 10
907.267
 20
-534.682
 30
0.000000
  70
    32
  0
VERTEX
  8
┌▓È_1
  5
477
 10
907.276
 20
-534.684
 30
0.000000
  70
    32
  0
VERTEX
  8
┌▓È_1
  5
478
 10
907.285
 20
-534.686
 30
0.000000
  70
    32
  0
VERTEX
  8
┌▓È_1
  5
479
 10
907.295
 20
-534.688
 30
0.000000
  70
    32
  0
VERTEX
  8
┌▓È_1
  5
47A
 10
907.304
 20
-534.689
 30
0.000000
  70
    32
  0
VERTEX
  8
┌▓È_1
  5
47B
 10
907.313
 20
-534.691
 30
0.000000
  70
    32
  0
VERTEX
  8
┌▓È_1
  5
47C
 10
907.322
 20
-534.693
 30
0.000000
  70
    32
  0
VERTEX
  8
┌▓È_1
  5
47D
 10
907.331
 20
-534.695
 30
0.000000
  70
    32
  0
VERTEX
  8
┌▓È_1
  5
47E
 10
907.341
 20
-534.696
 30
0.000000
  70
    32
  0
VERTEX
  8
┌▓È_1
  5
47F
 10
907.350
 20
-534.698
 30
0.000000
  70
    32
  0
VERTEX
  8
┌▓È_1
  5
480
 10
907.359
 20
-534.700
 30
0.000000
  70
    32
  0
VERTEX
  8
┌▓È_1
  5
481
 10
907.368
 20
-534.702
 30
0.000000
  70
    32
  0
VERTEX
  8
┌▓È_1
  5
482
 10
907.377
 20
-534.703
 30
0.000000
  70
    32
  0
VERTEX
  8
┌▓È_1
  5
483
 10
907.387
 20
-534.705
 30
0.000000
  70
    32
  0
VERTEX
  8
┌▓È_1
  5
484
 10
907.396
 20
-534.707
 30
0.000000
  70
    32
  0
VERTEX
  8
┌▓È_1
  5
485
 10
907.405
 20
-534.708
 30
0.000000
  70
    32
  0
VERTEX
  8
┌▓È_1
  5
486
 10
907.414
 20
-534.710
 30
0.000000
  70
    32
  0
VERTEX
  8
┌▓È_1
  5
487
 10
907.424
 20
-534.712
 30
0.000000
  70
    32
  0
VERTEX
  8
┌▓È_1
  5
488
 10
907.433
 20
-534.713
 30
0.000000
  70
    32
  0
VERTEX
  8
┌▓È_1
  5
489
 10
907.442
 20
-534.715
 30
0.000000
  70
    32
  0
VERTEX
  8
┌▓È_1
  5
48A
 10
907.451
 20
-534.717
 30
0.000000
  70
    32
  0
VERTEX
  8
┌▓È_1
  5
48B
 10
907.461
 20
-534.718
 30
0.000000
  70
    32
  0
VERTEX
  8
┌▓È_1
  5
48C
 10
907.470
 20
-534.720
 30
0.000000
  70
    32
  0
VERTEX
  8
┌▓È_1
  5
48D
 10
907.479
 20
-534.722
 30
0.000000
  70
    32
  0
VERTEX
  8
┌▓È_1
  5
48E
 10
907.488
 20
-534.723
 30
0.000000
  70
    32
  0
VERTEX
  8
┌▓È_1
  5
48F
 10
907.498
 20
-534.725
 30
0.000000
  70
    32
  0
VERTEX
  8
┌▓È_1
  5
490
 10
907.507
 20
-534.727
 30
0.000000
  70
    32
  0
VERTEX
  8
┌▓È_1
  5
491
 10
907.516
 20
-534.728
 30
0.000000
  70
    32
  0
VERTEX
  8
┌▓È_1
  5
492
 10
907.525
 20
-534.730
 30
0.000000
  70
    32
  0
VERTEX
  8
┌▓È_1
  5
493
 10
907.535
 20
-534.731
 30
0.000000
  70
    32
  0
VERTEX
  8
┌▓È_1
  5
494
 10
907.544
 20
-534.733
 30
0.000000
  70
    32
  0
VERTEX
  8
┌▓È_1
  5
495
 10
907.553
 20
-534.735
 30
0.000000
  70
    32
  0
VERTEX
  8
┌▓È_1
  5
496
 10
907.563
 20
-534.736
 30
0.000000
  70
    32
  0
VERTEX
  8
┌▓È_1
  5
497
 10
907.572
 20
-534.738
 30
0.000000
  70
    32
  0
VERTEX
  8
┌▓È_1
  5
498
 10
907.581
 20
-534.740
 30
0.000000
  70
    32
  0
VERTEX
  8
┌▓È_1
  5
499
 10
907.590
 20
-534.741
 30
0.000000
  70
    32
  0
VERTEX
  8
┌▓È_1
  5
49A
 10
907.600
 20
-534.743
 30
0.000000
  70
    32
  0
VERTEX
  8
┌▓È_1
  5
49B
 10
907.609
 20
-534.744
 30
0.000000
  70
    32
  0
VERTEX
  8
┌▓È_1
  5
49C
 10
907.618
 20
-534.746
 30
0.000000
  70
    32
  0
VERTEX
  8
┌▓È_1
  5
49D
 10
907.628
 20
-534.748
 30
0.000000
  70
    32
  0
VERTEX
  8
┌▓È_1
  5
49E
 10
907.637
 20
-534.749
 30
0.000000
  70
    32
  0
VERTEX
  8
┌▓È_1
  5
49F
 10
907.646
 20
-534.751
 30
0.000000
  70
    32
  0
VERTEX
  8
┌▓È_1
  5
4A0
 10
907.655
 20
-534.752
 30
0.000000
  70
    32
  0
VERTEX
  8
┌▓È_1
  5
4A1
 10
907.665
 20
-534.754
 30
0.000000
  70
    32
  0
VERTEX
  8
┌▓È_1
  5
4A2
 10
907.674
 20
-534.756
 30
0.000000
  70
    32
  0
VERTEX
  8
┌▓È_1
  5
4A3
 10
907.683
 20
-534.757
 30
0.000000
  70
    32
  0
VERTEX
  8
┌▓È_1
  5
4A4
 10
907.693
 20
-534.759
 30
0.000000
  70
    32
  0
VERTEX
  8
┌▓È_1
  5
4A5
 10
907.702
 20
-534.760
 30
0.000000
  70
    32
  0
VERTEX
  8
┌▓È_1
  5
4A6
 10
907.711
 20
-534.762
 30
0.000000
  70
    32
  0
VERTEX
  8
┌▓È_1
  5
4A7
 10
907.720
 20
-534.763
 30
0.000000
  70
    32
  0
VERTEX
  8
┌▓È_1
  5
4A8
 10
907.730
 20
-534.765
 30
0.000000
  70
    32
  0
VERTEX
  8
┌▓È_1
  5
4A9
 10
907.739
 20
-534.767
 30
0.000000
  70
    32
  0
VERTEX
  8
┌▓È_1
  5
4AA
 10
907.748
 20
-534.768
 30
0.000000
  70
    32
  0
VERTEX
  8
┌▓È_1
  5
4AB
 10
907.758
 20
-534.770
 30
0.000000
  70
    32
  0
VERTEX
  8
┌▓È_1
  5
4AC
 10
907.767
 20
-534.771
 30
0.000000
  70
    32
  0
VERTEX
  8
┌▓È_1
  5
4AD
 10
907.776
 20
-534.773
 30
0.000000
  70
    32
  0
VERTEX
  8
┌▓È_1
  5
4AE
 10
907.786
 20
-534.774
 30
0.000000
  70
    32
  0
VERTEX
  8
┌▓È_1
  5
4AF
 10
907.795
 20
-534.776
 30
0.000000
  70
    32
  0
VERTEX
  8
┌▓È_1
  5
4B0
 10
907.804
 20
-534.778
 30
0.000000
  70
    32
  0
VERTEX
  8
┌▓È_1
  5
4B1
 10
907.813
 20
-534.779
 30
0.000000
  70
    32
  0
VERTEX
  8
┌▓È_1
  5
4B2
 10
907.823
 20
-534.781
 30
0.000000
  70
    32
  0
SEQEND
  8
┌▓È_1
  5
4B3
  0
POLYLINE
  8
┌▓È_1
  5
4B4
  62
5
  66
     1
 10
0.000000
 20
0.000000
 30
0.000000
  70
     8
  0
VERTEX
  8
┌▓È_1
  5
4B5
 10
903.323
 20
-533.353
 30
0.000000
  70
    32
  0
VERTEX
  8
┌▓È_1
  5
4B6
 10
903.332
 20
-533.361
 30
0.000000
  70
    32
  0
VERTEX
  8
┌▓È_1
  5
4B7
 10
903.341
 20
-533.369
 30
0.000000
  70
    32
  0
VERTEX
  8
┌▓È_1
  5
4B8
 10
903.350
 20
-533.378
 30
0.000000
  70
    32
  0
VERTEX
  8
┌▓È_1
  5
4B9
 10
903.359
 20
-533.386
 30
0.000000
  70
    32
  0
VERTEX
  8
┌▓È_1
  5
4BA
 10
903.368
 20
-533.394
 30
0.000000
  70
    32
  0
VERTEX
  8
┌▓È_1
  5
4BB
 10
903.377
 20
-533.403
 30
0.000000
  70
    32
  0
VERTEX
  8
┌▓È_1
  5
4BC
 10
903.386
 20
-533.411
 30
0.000000
  70
    32
  0
VERTEX
  8
┌▓È_1
  5
4BD
 10
903.395
 20
-533.419
 30
0.000000
  70
    32
  0
VERTEX
  8
┌▓È_1
  5
4BE
 10
903.404
 20
-533.428
 30
0.000000
  70
    32
  0
VERTEX
  8
┌▓È_1
  5
4BF
 10
903.413
 20
-533.436
 30
0.000000
  70
    32
  0
VERTEX
  8
┌▓È_1
  5
4C0
 10
903.422
 20
-533.444
 30
0.000000
  70
    32
  0
VERTEX
  8
┌▓È_1
  5
4C1
 10
903.431
 20
-533.452
 30
0.000000
  70
    32
  0
VERTEX
  8
┌▓È_1
  5
4C2
 10
903.440
 20
-533.461
 30
0.000000
  70
    32
  0
VERTEX
  8
┌▓È_1
  5
4C3
 10
903.449
 20
-533.469
 30
0.000000
  70
    32
  0
VERTEX
  8
┌▓È_1
  5
4C4
 10
903.458
 20
-533.477
 30
0.000000
  70
    32
  0
VERTEX
  8
┌▓È_1
  5
4C5
 10
903.467
 20
-533.486
 30
0.000000
  70
    32
  0
VERTEX
  8
┌▓È_1
  5
4C6
 10
903.476
 20
-533.494
 30
0.000000
  70
    32
  0
VERTEX
  8
┌▓È_1
  5
4C7
 10
903.485
 20
-533.502
 30
0.000000
  70
    32
  0
VERTEX
  8
┌▓È_1
  5
4C8
 10
903.494
 20
-533.510
 30
0.000000
  70
    32
  0
VERTEX
  8
┌▓È_1
  5
4C9
 10
903.503
 20
-533.519
 30
0.000000
  70
    32
  0
VERTEX
  8
┌▓È_1
  5
4CA
 10
903.512
 20
-533.527
 30
0.000000
  70
    32
  0
VERTEX
  8
┌▓È_1
  5
4CB
 10
903.521
 20
-533.535
 30
0.000000
  70
    32
  0
VERTEX
  8
┌▓È_1
  5
4CC
 10
903.530
 20
-533.543
 30
0.000000
  70
    32
  0
VERTEX
  8
┌▓È_1
  5
4CD
 10
903.539
 20
-533.552
 30
0.000000
  70
    32
  0
VERTEX
  8
┌▓È_1
  5
4CE
 10
903.548
 20
-533.560
 30
0.000000
  70
    32
  0
VERTEX
  8
┌▓È_1
  5
4CF
 10
903.557
 20
-533.568
 30
0.000000
  70
    32
  0
VERTEX
  8
┌▓È_1
  5
4D0
 10
903.566
 20
-533.576
 30
0.000000
  70
    32
  0
VERTEX
  8
┌▓È_1
  5
4D1
 10
903.575
 20
-533.585
 30
0.000000
  70
    32
  0
VERTEX
  8
┌▓È_1
  5
4D2
 10
903.584
 20
-533.593
 30
0.000000
  70
    32
  0
VERTEX
  8
┌▓È_1
  5
4D3
 10
903.593
 20
-533.601
 30
0.000000
  70
    32
  0
VERTEX
  8
┌▓È_1
  5
4D4
 10
903.602
 20
-533.609
 30
0.000000
  70
    32
  0
VERTEX
  8
┌▓È_1
  5
4D5
 10
903.611
 20
-533.618
 30
0.000000
  70
    32
  0
VERTEX
  8
┌▓È_1
  5
4D6
 10
903.621
 20
-533.626
 30
0.000000
  70
    32
  0
VERTEX
  8
┌▓È_1
  5
4D7
 10
903.630
 20
-533.634
 30
0.000000
  70
    32
  0
VERTEX
  8
┌▓È_1
  5
4D8
 10
903.639
 20
-533.642
 30
0.000000
  70
    32
  0
VERTEX
  8
┌▓È_1
  5
4D9
 10
903.648
 20
-533.650
 30
0.000000
  70
    32
  0
VERTEX
  8
┌▓È_1
  5
4DA
 10
903.657
 20
-533.659
 30
0.000000
  70
    32
  0
VERTEX
  8
┌▓È_1
  5
4DB
 10
903.666
 20
-533.667
 30
0.000000
  70
    32
  0
VERTEX
  8
┌▓È_1
  5
4DC
 10
903.675
 20
-533.675
 30
0.000000
  70
    32
  0
VERTEX
  8
┌▓È_1
  5
4DD
 10
903.684
 20
-533.683
 30
0.000000
  70
    32
  0
VERTEX
  8
┌▓È_1
  5
4DE
 10
903.693
 20
-533.691
 30
0.000000
  70
    32
  0
VERTEX
  8
┌▓È_1
  5
4DF
 10
903.702
 20
-533.699
 30
0.000000
  70
    32
  0
VERTEX
  8
┌▓È_1
  5
4E0
 10
903.711
 20
-533.708
 30
0.000000
  70
    32
  0
VERTEX
  8
┌▓È_1
  5
4E1
 10
903.720
 20
-533.716
 30
0.000000
  70
    32
  0
VERTEX
  8
┌▓È_1
  5
4E2
 10
903.729
 20
-533.724
 30
0.000000
  70
    32
  0
VERTEX
  8
┌▓È_1
  5
4E3
 10
903.739
 20
-533.732
 30
0.000000
  70
    32
  0
VERTEX
  8
┌▓È_1
  5
4E4
 10
903.748
 20
-533.740
 30
0.000000
  70
    32
  0
VERTEX
  8
┌▓È_1
  5
4E5
 10
903.757
 20
-533.748
 30
0.000000
  70
    32
  0
VERTEX
  8
┌▓È_1
  5
4E6
 10
903.766
 20
-533.756
 30
0.000000
  70
    32
  0
VERTEX
  8
┌▓È_1
  5
4E7
 10
903.775
 20
-533.764
 30
0.000000
  70
    32
  0
VERTEX
  8
┌▓È_1
  5
4E8
 10
903.784
 20
-533.772
 30
0.000000
  70
    32
  0
VERTEX
  8
┌▓È_1
  5
4E9
 10
903.793
 20
-533.780
 30
0.000000
  70
    32
  0
VERTEX
  8
┌▓È_1
  5
4EA
 10
903.802
 20
-533.789
 30
0.000000
  70
    32
  0
VERTEX
  8
┌▓È_1
  5
4EB
 10
903.812
 20
-533.797
 30
0.000000
  70
    32
  0
VERTEX
  8
┌▓È_1
  5
4EC
 10
903.821
 20
-533.805
 30
0.000000
  70
    32
  0
VERTEX
  8
┌▓È_1
  5
4ED
 10
903.830
 20
-533.813
 30
0.000000
  70
    32
  0
VERTEX
  8
┌▓È_1
  5
4EE
 10
903.839
 20
-533.821
 30
0.000000
  70
    32
  0
VERTEX
  8
┌▓È_1
  5
4EF
 10
903.848
 20
-533.829
 30
0.000000
  70
    32
  0
VERTEX
  8
┌▓È_1
  5
4F0
 10
903.857
 20
-533.837
 30
0.000000
  70
    32
  0
VERTEX
  8
┌▓È_1
  5
4F1
 10
903.867
 20
-533.845
 30
0.000000
  70
    32
  0
VERTEX
  8
┌▓È_1
  5
4F2
 10
903.876
 20
-533.853
 30
0.000000
  70
    32
  0
VERTEX
  8
┌▓È_1
  5
4F3
 10
903.885
 20
-533.861
 30
0.000000
  70
    32
  0
VERTEX
  8
┌▓È_1
  5
4F4
 10
903.894
 20
-533.869
 30
0.000000
  70
    32
  0
VERTEX
  8
┌▓È_1
  5
4F5
 10
903.903
 20
-533.877
 30
0.000000
  70
    32
  0
VERTEX
  8
┌▓È_1
  5
4F6
 10
903.912
 20
-533.885
 30
0.000000
  70
    32
  0
VERTEX
  8
┌▓È_1
  5
4F7
 10
903.922
 20
-533.892
 30
0.000000
  70
    32
  0
VERTEX
  8
┌▓È_1
  5
4F8
 10
903.931
 20
-533.900
 30
0.000000
  70
    32
  0
VERTEX
  8
┌▓È_1
  5
4F9
 10
903.940
 20
-533.908
 30
0.000000
  70
    32
  0
VERTEX
  8
┌▓È_1
  5
4FA
 10
903.949
 20
-533.916
 30
0.000000
  70
    32
  0
VERTEX
  8
┌▓È_1
  5
4FB
 10
903.959
 20
-533.924
 30
0.000000
  70
    32
  0
VERTEX
  8
┌▓È_1
  5
4FC
 10
903.968
 20
-533.932
 30
0.000000
  70
    32
  0
VERTEX
  8
┌▓È_1
  5
4FD
 10
903.977
 20
-533.940
 30
0.000000
  70
    32
  0
VERTEX
  8
┌▓È_1
  5
4FE
 10
903.986
 20
-533.948
 30
0.000000
  70
    32
  0
VERTEX
  8
┌▓È_1
  5
4FF
 10
903.996
 20
-533.955
 30
0.000000
  70
    32
  0
VERTEX
  8
┌▓È_1
  5
500
 10
904.005
 20
-533.963
 30
0.000000
  70
    32
  0
VERTEX
  8
┌▓È_1
  5
501
 10
904.014
 20
-533.971
 30
0.000000
  70
    32
  0
VERTEX
  8
┌▓È_1
  5
502
 10
904.023
 20
-533.979
 30
0.000000
  70
    32
  0
VERTEX
  8
┌▓È_1
  5
503
 10
904.033
 20
-533.987
 30
0.000000
  70
    32
  0
VERTEX
  8
┌▓È_1
  5
504
 10
904.042
 20
-533.994
 30
0.000000
  70
    32
  0
VERTEX
  8
┌▓È_1
  5
505
 10
904.051
 20
-534.002
 30
0.000000
  70
    32
  0
VERTEX
  8
┌▓È_1
  5
506
 10
904.061
 20
-534.010
 30
0.000000
  70
    32
  0
VERTEX
  8
┌▓È_1
  5
507
 10
904.070
 20
-534.018
 30
0.000000
  70
    32
  0
VERTEX
  8
┌▓È_1
  5
508
 10
904.079
 20
-534.025
 30
0.000000
  70
    32
  0
VERTEX
  8
┌▓È_1
  5
509
 10
904.089
 20
-534.033
 30
0.000000
  70
    32
  0
VERTEX
  8
┌▓È_1
  5
50A
 10
904.098
 20
-534.041
 30
0.000000
  70
    32
  0
VERTEX
  8
┌▓È_1
  5
50B
 10
904.107
 20
-534.048
 30
0.000000
  70
    32
  0
VERTEX
  8
┌▓È_1
  5
50C
 10
904.117
 20
-534.056
 30
0.000000
  70
    32
  0
VERTEX
  8
┌▓È_1
  5
50D
 10
904.126
 20
-534.064
 30
0.000000
  70
    32
  0
VERTEX
  8
┌▓È_1
  5
50E
 10
904.135
 20
-534.071
 30
0.000000
  70
    32
  0
VERTEX
  8
┌▓È_1
  5
50F
 10
904.145
 20
-534.079
 30
0.000000
  70
    32
  0
VERTEX
  8
┌▓È_1
  5
510
 10
904.154
 20
-534.087
 30
0.000000
  70
    32
  0
VERTEX
  8
┌▓È_1
  5
511
 10
904.163
 20
-534.094
 30
0.000000
  70
    32
  0
VERTEX
  8
┌▓È_1
  5
512
 10
904.173
 20
-534.102
 30
0.000000
  70
    32
  0
VERTEX
  8
┌▓È_1
  5
513
 10
904.182
 20
-534.109
 30
0.000000
  70
    32
  0
VERTEX
  8
┌▓È_1
  5
514
 10
904.192
 20
-534.117
 30
0.000000
  70
    32
  0
VERTEX
  8
┌▓È_1
  5
515
 10
904.201
 20
-534.124
 30
0.000000
  70
    32
  0
VERTEX
  8
┌▓È_1
  5
516
 10
904.211
 20
-534.132
 30
0.000000
  70
    32
  0
VERTEX
  8
┌▓È_1
  5
517
 10
904.220
 20
-534.139
 30
0.000000
  70
    32
  0
VERTEX
  8
┌▓È_1
  5
518
 10
904.229
 20
-534.147
 30
0.000000
  70
    32
  0
VERTEX
  8
┌▓È_1
  5
519
 10
904.239
 20
-534.154
 30
0.000000
  70
    32
  0
VERTEX
  8
┌▓È_1
  5
51A
 10
904.248
 20
-534.162
 30
0.000000
  70
    32
  0
VERTEX
  8
┌▓È_1
  5
51B
 10
904.258
 20
-534.169
 30
0.000000
  70
    32
  0
VERTEX
  8
┌▓È_1
  5
51C
 10
904.267
 20
-534.176
 30
0.000000
  70
    32
  0
VERTEX
  8
┌▓È_1
  5
51D
 10
904.277
 20
-534.184
 30
0.000000
  70
    32
  0
VERTEX
  8
┌▓È_1
  5
51E
 10
904.286
 20
-534.191
 30
0.000000
  70
    32
  0
VERTEX
  8
┌▓È_1
  5
51F
 10
904.296
 20
-534.198
 30
0.000000
  70
    32
  0
VERTEX
  8
┌▓È_1
  5
520
 10
904.305
 20
-534.206
 30
0.000000
  70
    32
  0
VERTEX
  8
┌▓È_1
  5
521
 10
904.315
 20
-534.213
 30
0.000000
  70
    32
  0
VERTEX
  8
┌▓È_1
  5
522
 10
904.325
 20
-534.220
 30
0.000000
  70
    32
  0
VERTEX
  8
┌▓È_1
  5
523
 10
904.334
 20
-534.228
 30
0.000000
  70
    32
  0
VERTEX
  8
┌▓È_1
  5
524
 10
904.344
 20
-534.235
 30
0.000000
  70
    32
  0
VERTEX
  8
┌▓È_1
  5
525
 10
904.353
 20
-534.242
 30
0.000000
  70
    32
  0
VERTEX
  8
┌▓È_1
  5
526
 10
904.363
 20
-534.249
 30
0.000000
  70
    32
  0
VERTEX
  8
┌▓È_1
  5
527
 10
904.373
 20
-534.257
 30
0.000000
  70
    32
  0
VERTEX
  8
┌▓È_1
  5
528
 10
904.382
 20
-534.264
 30
0.000000
  70
    32
  0
VERTEX
  8
┌▓È_1
  5
529
 10
904.392
 20
-534.271
 30
0.000000
  70
    32
  0
VERTEX
  8
┌▓È_1
  5
52A
 10
904.401
 20
-534.278
 30
0.000000
  70
    32
  0
VERTEX
  8
┌▓È_1
  5
52B
 10
904.411
 20
-534.285
 30
0.000000
  70
    32
  0
VERTEX
  8
┌▓È_1
  5
52C
 10
904.421
 20
-534.292
 30
0.000000
  70
    32
  0
VERTEX
  8
┌▓È_1
  5
52D
 10
904.430
 20
-534.299
 30
0.000000
  70
    32
  0
VERTEX
  8
┌▓È_1
  5
52E
 10
904.440
 20
-534.306
 30
0.000000
  70
    32
  0
VERTEX
  8
┌▓È_1
  5
52F
 10
904.450
 20
-534.313
 30
0.000000
  70
    32
  0
VERTEX
  8
┌▓È_1
  5
530
 10
904.459
 20
-534.320
 30
0.000000
  70
    32
  0
VERTEX
  8
┌▓È_1
  5
531
 10
904.469
 20
-534.327
 30
0.000000
  70
    32
  0
VERTEX
  8
┌▓È_1
  5
532
 10
904.479
 20
-534.334
 30
0.000000
  70
    32
  0
VERTEX
  8
┌▓È_1
  5
533
 10
904.489
 20
-534.341
 30
0.000000
  70
    32
  0
VERTEX
  8
┌▓È_1
  5
534
 10
904.498
 20
-534.348
 30
0.000000
  70
    32
  0
VERTEX
  8
┌▓È_1
  5
535
 10
904.508
 20
-534.355
 30
0.000000
  70
    32
  0
VERTEX
  8
┌▓È_1
  5
536
 10
904.518
 20
-534.362
 30
0.000000
  70
    32
  0
VERTEX
  8
┌▓È_1
  5
537
 10
904.528
 20
-534.369
 30
0.000000
  70
    32
  0
VERTEX
  8
┌▓È_1
  5
538
 10
904.538
 20
-534.376
 30
0.000000
  70
    32
  0
VERTEX
  8
┌▓È_1
  5
539
 10
904.547
 20
-534.382
 30
0.000000
  70
    32
  0
VERTEX
  8
┌▓È_1
  5
53A
 10
904.557
 20
-534.389
 30
0.000000
  70
    32
  0
VERTEX
  8
┌▓È_1
  5
53B
 10
904.567
 20
-534.396
 30
0.000000
  70
    32
  0
VERTEX
  8
┌▓È_1
  5
53C
 10
904.577
 20
-534.403
 30
0.000000
  70
    32
  0
VERTEX
  8
┌▓È_1
  5
53D
 10
904.587
 20
-534.409
 30
0.000000
  70
    32
  0
VERTEX
  8
┌▓È_1
  5
53E
 10
904.597
 20
-534.416
 30
0.000000
  70
    32
  0
VERTEX
  8
┌▓È_1
  5
53F
 10
904.607
 20
-534.423
 30
0.000000
  70
    32
  0
VERTEX
  8
┌▓È_1
  5
540
 10
904.616
 20
-534.429
 30
0.000000
  70
    32
  0
VERTEX
  8
┌▓È_1
  5
541
 10
904.626
 20
-534.436
 30
0.000000
  70
    32
  0
VERTEX
  8
┌▓È_1
  5
542
 10
904.636
 20
-534.443
 30
0.000000
  70
    32
  0
VERTEX
  8
┌▓È_1
  5
543
 10
904.646
 20
-534.449
 30
0.000000
  70
    32
  0
VERTEX
  8
┌▓È_1
  5
544
 10
904.656
 20
-534.456
 30
0.000000
  70
    32
  0
VERTEX
  8
┌▓È_1
  5
545
 10
904.666
 20
-534.462
 30
0.000000
  70
    32
  0
VERTEX
  8
┌▓È_1
  5
546
 10
904.676
 20
-534.469
 30
0.000000
  70
    32
  0
VERTEX
  8
┌▓È_1
  5
547
 10
904.686
 20
-534.475
 30
0.000000
  70
    32
  0
VERTEX
  8
┌▓È_1
  5
548
 10
904.696
 20
-534.482
 30
0.000000
  70
    32
  0
VERTEX
  8
┌▓È_1
  5
549
 10
904.706
 20
-534.488
 30
0.000000
  70
    32
  0
VERTEX
  8
┌▓È_1
  5
54A
 10
904.716
 20
-534.494
 30
0.000000
  70
    32
  0
VERTEX
  8
┌▓È_1
  5
54B
 10
904.726
 20
-534.501
 30
0.000000
  70
    32
  0
VERTEX
  8
┌▓È_1
  5
54C
 10
904.736
 20
-534.507
 30
0.000000
  70
    32
  0
VERTEX
  8
┌▓È_1
  5
54D
 10
904.746
 20
-534.514
 30
0.000000
  70
    32
  0
VERTEX
  8
┌▓È_1
  5
54E
 10
904.756
 20
-534.520
 30
0.000000
  70
    32
  0
VERTEX
  8
┌▓È_1
  5
54F
 10
904.767
 20
-534.526
 30
0.000000
  70
    32
  0
VERTEX
  8
┌▓È_1
  5
550
 10
904.777
 20
-534.532
 30
0.000000
  70
    32
  0
VERTEX
  8
┌▓È_1
  5
551
 10
904.787
 20
-534.539
 30
0.000000
  70
    32
  0
VERTEX
  8
┌▓È_1
  5
552
 10
904.797
 20
-534.545
 30
0.000000
  70
    32
  0
VERTEX
  8
┌▓È_1
  5
553
 10
904.807
 20
-534.551
 30
0.000000
  70
    32
  0
VERTEX
  8
┌▓È_1
  5
554
 10
904.817
 20
-534.557
 30
0.000000
  70
    32
  0
SEQEND
  8
┌▓È_1
  5
555
  0
INSERT
  5
3C
  8
┌▓È_1
 62
     5
  2
CLUMP0
 10
0.0
 20
0.0
 30
0.0
  0
LINE
  5
51
  8
┌▓È_1
 62
     5
 10
908.93153626070011
 20
-534.18072803259986
 30
0.0
 11
908.93153626070011
 21
-535.08072803260006
 31
0.0
  0
LINE
  5
52
  8
┌▓È_1
 62
     5
 10
903.32279493649992
 20
-535.5307280326
 30
0.0
 11
903.32279493649992
 21
-534.7807280326
 31
0.0
  0
LINE
  5
53
  8
┌▓È_1
 62
     5
 10
903.32279493649992
 20
-534.7807280326
 30
0.0
 11
903.32279493649992
 21
-535.5307280326
 31
0.0
  0
ARC
  5
54
  8
┌▓È_1
 62
     5
 10
904.57279493650003
 20
-532.78072803259988
 30
0.0
 40
2.75
 50
270.0
 51
302.54495885400001
  0
LINE
  5
55
  8
┌▓È_1
 62
     5
 10
913.43153626070011
 20
-532.88072803260002
 30
0.0
 11
913.43153626070011
 21
-533.7807280326
 31
0.0
  0
LINE
  5
56
  8
┌▓È_1
 62
     5
 10
910.56220292729995
 20
-534.18072803259986
 30
0.0
 11
910.44486959399978
 21
-533.7807280326
 31
0.0
  0
LINE
  5
57
  8
┌▓È_1
 62
     5
 10
911.03153626070002
 20
-535.78072803259988
 30
0.0
 11
910.82620292729985
 21
-535.08072803260006
 31
0.0
  0
LINE
  5
58
  8
┌▓È_1
 62
     5
 10
901.99249190619992
 20
-533.0307280326
 30
0.0
 11
901.99249190619992
 21
-533.7807280326
 31
0.0
  0
LINE
  5
59
  8
┌▓È_1
 62
     5
 10
908.93153626070011
 20
-533.7807280326
 30
0.0
 11
910.44486959399978
 21
-533.7807280326
 31
0.0
  0
LINE
  5
5A
  8
┌▓È_1
 62
     5
 10
908.93153626070011
 20
-535.08072803260006
 30
0.0
 11
910.82620292729985
 21
-535.08072803260006
 31
0.0
  0
LINE
  5
5B
  8
┌▓È_1
 62
     5
 10
903.32279493649992
 20
-534.7807280326
 30
0.0
 11
903.92279493649994
 21
-534.7807280326
 31
0.0
  0
LINE
  5
5C
  8
┌▓È_1
 62
     5
 10
907.32279493650003
 20
-532.78072803259988
 30
0.0
 11
907.82279493649992
 21
-532.0307280326
 31
0.0
  0
LINE
  5
5D
  8
┌▓È_1
 62
     5
 10
905.3227949364998
 20
-533.19178316639989
 30
0.0
 11
905.03995222399988
 21
-533.47462587890004
 31
0.0
  0
LINE
  5
5E
  8
┌▓È_1
 62
     5
 10
901.24249190619992
 20
-533.7807280326
 30
0.0
 11
901.99249190619992
 21
-533.7807280326
 31
0.0
  0
LINE
  5
5F
  8
┌▓È_1
 62
     5
 10
943.36874516140006
 20
-531.17331451610005
 30
0.0
 11
955.56471088440003
 21
-531.17331451610005
 31
0.0
  0
ARC
  5
60
  8
┌▓È_1
 62
     5
 10
903.92279493649994
 20
-532.88072803260002
 30
0.0
 40
1.8999999999999999
 50
331.39928138329998
 51
358.49204224580001
  0
LINE
  5
61
  8
┌▓È_1
 62
     5
 10
912.2301009242999
 20
-535.08072803260006
 30
0.0
 11
913.43153626070011
 21
-535.08072803260006
 31
0.0
  0
LINE
  5
62
  8
┌▓È_1
 62
     5
 10
903.32279493649992
 20
-532.0307280326
 30
0.0
 11
903.32279493649992
 21
-532.93072803259986
 31
0.0
  0
LINE
  5
63
  8
┌▓È_1
 62
     5
 10
912.43153626070011
 20
-535.78072803259988
 30
0.0
 11
912.2301009242999
 21
-535.08072803260006
 31
0.0
  0
INSERT
  5
64
  8
0
  6
CONTINUOUS
  2
*U18
 10
0.0
 20
0.0
 30
0.0
  0
INSERT
  5
65
  8
0
  6
CONTINUOUS
  2
*U19
 10
0.0
 20
0.0
 30
0.0
  0
INSERT
  5
66
  8
0
  6
CONTINUOUS
  2
*U20
 10
0.0
 20
0.0
 30
0.0
  0
INSERT
  5
67
  8
0
  6
CONTINUOUS
  2
*U21
 10
0.0
 20
0.0
 30
0.0
  0
INSERT
  5
68
  8
0
  6
CONTINUOUS
  2
*U22
 10
0.0
 20
0.0
 30
0.0
  0
INSERT
  5
69
  8
0
  6
CONTINUOUS
  2
*U23
 10
0.0
 20
0.0
 30
0.0
  0
LINE
  5
6A
  8
┌▓È_1
 62
     5
 10
903.32279493649992
 20
-533.35283830009996
 30
0.0
 11
903.32279493649992
 21
-533.19178316639989
 31
0.0
  0
LINE
  5
6B
  8
┌▓È_1
 62
     5
 10
908.93153626070011
 20
-532.88072803260002
 30
0.0
 11
910.18086959399989
 21
-532.88072803260002
 31
0.0
  0
LINE
  5
6C
  8
┌▓È_1
 62
     5
 10
943.36874516140006
 20
-525.67331451610005
 30
0.0
 11
955.56471088440003
 21
-525.67331451610005
 31
0.0
  0
LINE
  5
6D
  8
┌▓È_1
 62
     5
 10
909.61874516139994
 20
-520.17331451610005
 30
0.0
 11
909.61874516139994
 21
-531.17331451610005
 31
0.0
  0
LINE
  5
6E
  8
┌▓È_1
 62
     5
 10
903.32279493649992
 20
-532.93072803259986
 30
0.0
 11
905.82279493649992
 21
-532.93072803259986
 31
0.0
  0
LINE
  5
6F
  8
┌▓È_1
 62
     5
 10
903.32279493649992
 20
-533.19178316639989
 30
0.0
 11
905.3227949364998
 21
-533.19178316639989
 31
0.0
  0
LINE
  5
70
  8
┌▓È_1
 62
     5
 10
911.52382131360014
 20
-532.62636358739985
 30
0.0
 11
911.9315362607
 21
-532.0307280326
 31
0.0
  0
LINE
  5
71
  8
┌▓È_1
 62
     5
 10
901.24249190619992
 20
-532.78072803259988
 30
0.0
 11
901.99249190619992
 21
-532.0307280326
 31
0.0
  0
LINE
  5
72
  8
┌▓È_1
 62
     5
 10
908.93153626070011
 20
-532.88072803260002
 30
0.0
 11
908.93153626070011
 21
-533.7807280326
 31
0.0
  0
LINE
  5
73
  8
┌▓È_1
 62
     5
 10
911.97111263470003
 20
-534.18072803259986
 30
0.0
 11
911.85600672830003
 21
-533.7807280326
 31
0.0
  0
LINE
  5
74
  8
┌▓È_1
 62
     5
 10
908.93153626070011
 20
-534.18072803259986
 30
0.0
 11
910.56220292729995
 21
-534.18072803259986
 31
0.0
  0
LINE
  5
75
  8
┌▓È_1
 62
     5
 10
903.32279493649992
 20
-535.5307280326
 30
0.0
 11
904.57279493650003
 21
-535.5307280326
 31
0.0
  0
LINE
  5
76
  8
┌▓È_1
 62
     5
 10
911.59701843869982
 20
-532.88072803260002
 30
0.0
 11
913.43153626070011
 21
-532.88072803260002
 31
0.0
  0
LINE
  5
77
  8
┌▓È_1
 62
     5
 10
943.36874516140006
 20
-536.67331451610005
 30
0.0
 11
955.56471088440003
 21
-536.67331451610005
 31
0.0
  0
LINE
  5
78
  8
┌▓È_1
 62
     5
 10
911.85600672830003
 20
-533.7807280326
 30
0.0
 11
913.43153626070011
 21
-533.7807280326
 31
0.0
  0
LINE
  5
79
  8
┌▓È_1
 62
     5
 10
901.24249190619992
 20
-534.03072803259988
 30
0.0
 11
901.24249190619992
 21
-533.7807280326
 31
0.0
  0
LINE
  5
7A
  8
┌▓È_1
 62
     5
 10
901.24249190619992
 20
-533.0307280326
 30
0.0
 11
901.24249190619992
 21
-532.78072803259988
 31
0.0
  0
LINE
  5
7B
  8
┌▓È_1
 62
     5
 10
901.99249190619992
 20
-533.0307280326
 30
0.0
 11
901.24249190619992
 21
-533.0307280326
 31
0.0
  0
LINE
  5
7C
  8
┌▓È_1
 62
     5
 10
923.00941527750001
 20
-520.17331451610005
 30
0.0
 11
923.00941527750001
 21
-536.67331451610005
 31
0.0
  0
LINE
  5
7D
  8
┌▓È_1
 62
     5
 10
911.59701843869982
 20
-532.88072803260002
 30
0.0
 11
911.52382131360014
 21
-532.62636358739985
 31
0.0
  0
LINE
  5
7E
  8
┌▓È_1
 62
     5
 10
910.18086959399989
 20
-532.88072803260002
 30
0.0
 11
909.93153626070011
 21
-532.0307280326
 31
0.0
  0
LINE
  5
7F
  8
┌▓È_1
 62
     5
 10
913.43153626070011
 20
-534.18072803259986
 30
0.0
 11
913.43153626070011
 21
-535.08072803260006
 31
0.0
  0
LINE
  5
80
  8
┌▓È_1
 62
     5
 10
907.82279493649992
 20
-534.7807280326
 30
0.0
 11
907.82279493649992
 21
-535.5307280326
 31
0.0
  0
LINE
  5
81
  8
┌▓È_1
 62
     5
 10
912.47555665749996
 20
-528.85463878989992
 30
0.0
 11
919.35940419309998
 21
-528.85463878989992
 31
0.0
  0
LINE
  5
82
  8
┌▓È_1
 62
     5
 10
943.36874516140006
 20
-520.17331451610005
 30
0.0
 11
955.56471088440003
 21
-520.17331451610005
 31
0.0
  0
LINE
  5
83
  8
┌▓È_1
 62
     5
 10
895.86874516139983
 20
-520.17331451610005
 30
0.0
 11
895.86874516139983
 21
-525.67331451610005
 31
0.0
  0
INSERT
  5
84
  8
0
  6
CONTINUOUS
  2
*U24
 10
0.0
 20
0.0
 30
0.0
  0
LINE
  5
85
  8
┌▓È_1
 62
     5
 10
898.99249190620003
 20
-533.7807280326
 30
0.0
 11
899.99249190619992
 21
-533.7807280326
 31
0.0
  0
LINE
  5
86
  8
┌▓È_1
 62
     5
 10
899.99249190619992
 20
-533.7807280326
 30
0.0
 11
899.99249190619992
 21
-534.03072803259988
 31
0.0
  0
LINE
  5
87
  8
┌▓È_1
 62
     5
 10
899.99249190619992
 20
-532.0307280326
 30
0.0
 11
899.99249190619992
 21
-533.0307280326
 31
0.0
  0
LINE
  5
88
  8
┌▓È_1
 62
     5
 10
901.99249190619992
 20
-532.0307280326
 30
0.0
 11
899.99249190619992
 21
-532.0307280326
 31
0.0
  0
LINE
  5
89
  8
┌▓È_1
 62
     5
 10
899.63591934470003
 20
-523.10463878989992
 30
0.0
 11
906.22110452979985
 21
-523.10463878989992
 31
0.0
  0
ARC
  5
8A
  8
┌▓È_1
 62
     5
 10
899.7424919061998
 20
-534.03072803259988
 30
0.0
 40
1.5
 50
270.0
 51
0.0
  0
LINE
  5
8B
  8
┌▓È_1
 62
     5
 10
868.36874516140006
 20
-402.06803252549997
 30
0.0
 11
868.36874516140006
 21
-520.17331451610005
 31
0.0
  0
LINE
  5
8C
  8
┌▓È_1
 62
     5
 10
955.56471088440003
 20
-536.67331451610005
 30
0.0
 11
955.56471088440003
 21
-402.06803252549997
 31
0.0
  0
INSERT
  5
8D
  8
0
  6
CONTINUOUS
  2
*U25
 10
0.0
 20
0.0
 30
0.0
  0
INSERT
  5
8E
  8
0
  6
CONTINUOUS
  2
*U26
 10
0.0
 20
0.0
 30
0.0
  0
INSERT
  5
8F
  8
0
  6
CONTINUOUS
  2
*U27
 10
0.0
 20
0.0
 30
0.0
  0
INSERT
  5
90
  8
0
  6
CONTINUOUS
  2
*U28
 10
0.0
 20
0.0
 30
0.0
  0
INSERT
  5
91
  8
0
  6
CONTINUOUS
  2
*U29
 10
0.0
 20
0.0
 30
0.0
  0
LINE
  5
92
  8
┌▓È_1
 62
     5
 10
868.36874516140006
 20
-520.17331451610005
 30
0.0
 11
868.36874516140006
 21
-536.67331451610005
 31
0.0
  0
LINE
  5
93
  8
┌▓È_1
 62
     5
 10
882.11874516139994
 20
-520.17331451610005
 30
0.0
 11
882.11874516139994
 21
-525.67331451610005
 31
0.0
  0
LINE
  5
94
  8
┌▓È_1
 62
     5
 10
871.36952410979995
 20
-523.10463878989992
 30
0.0
 11
878.27682843560001
 21
-523.10463878989992
 31
0.0
  0
LINE
  5
95
  8
┌▓È_1
 62
     5
 10
869.94303222500002
 20
-528.42331451610005
 30
0.0
 11
893.28935786399995
 21
-528.42331451610005
 31
0.0
  0
LINE
  5
96
  8
┌▓È_1
 62
     5
 10
885.74930318300005
 20
-523.10463878989992
 30
0.0
 11
892.80485873859993
 21
-523.10463878989992
 31
0.0
  0
INSERT
  5
97
  8
0
  6
CONTINUOUS
  2
*U30
 10
0.0
 20
0.0
 30
0.0
  0
INSERT
  5
98
  8
0
  6
CONTINUOUS
  2
*U31
 10
0.0
 20
0.0
 30
0.0
  0
LINE
  5
99
  8
┌▓È_1
 62
     5
 10
909.93153626070011
 20
-532.0307280326
 30
0.0
 11
911.9315362607
 21
-532.0307280326
 31
0.0
  0
ARC
  5
9A
  8
┌▓È_1
 62
     5
 10
903.92279493649994
 20
-532.88072803260002
 30
0.0
 40
1.8999999999999999
 50
270.0
 51
298.08590481520002
  0
INSERT
  5
9B
  8
0
  6
CONTINUOUS
  2
*U32
 10
0.0
 20
0.0
 30
0.0
  0
LINE
  5
9C
  8
┌▓È_1
  6
STITCH
 10
902.0
 20
-517.14558354589985
 30
0.0
 11
902.0
 21
-490.0
 31
0.0
  0
LINE
  5
9D
  8
┌▓È_1
  6
STITCH
 10
870.87170152329998
 20
-517.14558354589985
 30
0.0
 11
902.0
 21
-517.14558354589985
 31
0.0
  0
LINE
  5
9E
  8
┌▓È_1
 62
     5
 10
898.99249190620003
 20
-534.53072803259988
 30
0.0
 11
898.99249190620003
 21
-533.7807280326
 31
0.0
  0
ARC
  5
9F
  8
┌▓È_1
 62
     5
 10
899.24249190619992
 20
-534.03072803259988
 30
0.0
 40
0.75
 50
270.0
 51
0.0
  0
LINE
  5
A0
  8
┌▓È_1
 62
     5
 10
897.16694000040002
 20
-533.0307280326
 30
0.0
 11
897.16694000040002
 21
-533.7807280326
 31
0.0
  0
LINE
  5
A1
  8
┌▓È_1
 62
     5
 10
898.67724125519987
 20
-528.30895904730005
 30
0.0
 11
906.04423440720007
 21
-528.30895904730005
 31
0.0
  0
LINE
  5
A2
  8
┌▓È_1
 62
     5
 10
897.74249190619992
 20
-533.7807280326
 30
0.0
 11
897.74249190619992
 21
-534.53072803259988
 31
0.0
  0
LINE
  5
A3
  8
┌▓È_1
 62
     5
 10
898.99249190620003
 20
-532.78072803259988
 30
0.0
 11
899.7424919061998
 21
-532.0307280326
 31
0.0
  0
LINE
  5
A4
  8
┌▓È_1
 62
     5
 10
898.99249190620003
 20
-533.0307280326
 30
0.0
 11
898.99249190620003
 21
-532.78072803259988
 31
0.0
  0
LINE
  5
A5
  8
┌▓È_1
 62
     5
 10
899.99249190619992
 20
-533.0307280326
 30
0.0
 11
898.99249190620003
 21
-533.0307280326
 31
0.0
  0
LINE
  5
A6
  8
┌▓È_1
 62
     5
 10
899.24249190619992
 20
-534.7807280326
 30
0.0
 11
897.74249190619992
 21
-534.7807280326
 31
0.0
  0
LINE
  5
A7
  8
┌▓È_1
 62
     5
 10
897.74249190619992
 20
-532.0307280326
 30
0.0
 11
897.74249190619992
 21
-533.0307280326
 31
0.0
  0
LINE
  5
A8
  8
┌▓È_1
 62
     5
 10
897.74249190619992
 20
-533.7807280326
 30
0.0
 11
897.6669400003999
 21
-533.7807280326
 31
0.0
  0
LINE
  5
A9
  8
┌▓È_1
 62
     5
 10
897.74249190619992
 20
-534.53072803259988
 30
0.0
 11
898.99249190620003
 21
-534.53072803259988
 31
0.0
  0
LINE
  5
AA
  8
┌▓È_1
 62
     5
 10
897.16694000040002
 20
-533.7807280326
 30
0.0
 11
897.6669400003999
 21
-533.7807280326
 31
0.0
  0
LINE
  5
AB
  8
┌▓È_1
 62
     5
 10
868.36874516140006
 20
-525.67331451610005
 30
0.0
 11
943.36874516140006
 21
-525.67331451610005
 31
0.0
  0
LINE
  5
AC
  8
┌▓È_1
 62
     5
 10
868.36874516140006
 20
-531.17331451610005
 30
0.0
 11
943.36874516140006
 21
-531.17331451610005
 31
0.0
  0
LINE
  5
AD
  8
┌▓È_1
 62
     5
 10
868.36874516140006
 20
-536.67331451610005
 30
0.0
 11
943.36874516140006
 21
-536.67331451610005
 31
0.0
  0
LINE
  5
AE
  8
┌▓È_1
 62
     5
 10
943.36874516140006
 20
-520.17331451610005
 30
0.0
 11
868.36874516140006
 21
-520.17331451610005
 31
0.0
  0
LINE
  5
AF
  8
┌▓È_1
 62
     5
 10
897.74249190619992
 20
-535.5307280326
 30
0.0
 11
899.7424919061998
 21
-535.5307280326
 31
0.0
  0
LINE
  5
B0
  8
┌▓È_1
 62
     5
 10
897.74249190619992
 20
-534.7807280326
 30
0.0
 11
897.74249190619992
 21
-535.5307280326
 31
0.0
  0
LINE
  5
B1
  8
┌▓È_1
 62
     5
 10
899.7424919061998
 20
-532.0307280326
 30
0.0
 11
897.74249190619992
 21
-532.0307280326
 31
0.0
  0
LINE
  5
B2
  8
┌▓È_1
 62
     5
 10
897.74249190619992
 20
-533.0307280326
 30
0.0
 11
897.16694000040002
 21
-533.0307280326
 31
0.0
  0
LINE
  5
B3
  8
┌▓È_1
 62
     5
 10
955.56471088440003
 20
-402.06803252549997
 30
0.0
 11
868.36874516140006
 21
-402.06803252549997
 31
0.0
  0
LINE
  5
B4
  8
┌▓È_1
 62
     5
 10
895.86874516139983
 20
-525.67331451610005
 30
0.0
 11
895.86874516139983
 21
-531.17331451610005
 31
0.0
  0
ARC
  5
B5
  8
┌▓È_1
 62
     5
 10
928.07700515680006
 20
-433.43133250829999
 30
0.0
 40
3.75
 50
270.0
 51
73.150720377200003
  0
LINE
  5
B6
  8
┌▓È_1
 62
     5
 10
928.77700515679987
 20
-432.87077738070002
 30
0.0
 11
928.77700515679987
 21
-430.12943911199989
 31
0.0
  0
DIMENSION
  5
BF
  8
Éíû@É³
  2
*D1
 10
918.57700515679994
 20
-445.43133250829999
 30
0.0
 11
910.61484695449985
 21
-448.63099042440001
 31
0.0
 70
   132
  1
<>
 15
922.11253906270008
 25
-441.89579860229998
 35
0.0
 40
0.0
  0
DIMENSION
  5
CF
  8
Éíû@É³
  2
*D2
 10
927.57700515679994
 20
-442.18133250829999
 30
0.0
 11
929.70200515679994
 21
-442.18133250829999
 31
0.0
 70
   128
  1
<>
 13
927.57700515679994
 23
-437.18133250829999
 33
0.0
 14
931.82700515679994
 24
-433.43133250829999
 34
0.0
 50
180.0
  0
ARC
  5
D0
  8
┌▓È_1
 62
     5
 10
928.57700515679994
 20
-455.18133250829999
 30
0.0
 40
1.0
 50
0.0
 51
90.0
  0
LINE
  5
D1
  8
┌▓È_1
 62
     5
 10
928.57700515679994
 20
-454.18133250829999
 30
0.0
 11
927.57700515679994
 21
-454.18133250829999
 31
0.0
  0
LINE
  5
D2
  8
┌▓È_1
 62
     5
 10
929.57700515679983
 20
-456.18133250829999
 30
0.0
 11
929.57700515679983
 21
-455.18133250829999
 31
0.0
  0
ARC
  5
D3
  8
┌▓È_1
 62
     5
 10
928.57700515679994
 20
-456.18133250829999
 30
0.0
 40
1.0
 50
270.0
 51
0.0
  0
LINE
  5
D4
  8
┌▓È_1
 62
     5
 10
928.57700515679994
 20
-457.18133250829999
 30
0.0
 11
925.07700515679983
 21
-457.18133250829999
 31
0.0
  0
LINE
  5
D5
  8
┌▓È_1
 62
     5
 10
927.57700515679994
 20
-454.18133250829999
 30
0.0
 11
927.57700515679994
 21
-437.18133250829999
 31
0.0
  0
LINE
  5
D6
  8
┌▓È_1
 62
     5
 10
918.57700515679994
 20
-440.43133250829999
 30
0.0
 11
913.57700515680006
 21
-440.43133250829999
 31
0.0
  0
LINE
  5
D7
  8
┌▓È_1
 62
     5
 10
906.57700515680006
 20
-433.93133250829999
 30
0.0
 11
906.57700515680006
 21
-435.43133250829999
 31
0.0
  0
ARC
  5
D8
  8
┌▓È_1
 62
     5
 10
913.57700515680006
 20
-433.0313325082999
 30
0.0
 40
7.4000000000000004
 50
198.92464441609999
 51
270.0
  0
LINE
  5
D9
  8
┌▓È_1
 62
     5
 10
923.57700515680006
 20
-445.43133250829999
 30
0.0
 11
923.57700515680006
 21
-452.18133250829999
 31
0.0
  0
ARC
  5
DA
  8
┌▓È_1
 62
     5
 10
932.66033849009978
 20
-452.18133250829999
 30
0.0
 40
9.0833333333000006
 50
180.0
 51
213.39848846800001
  0
ARC
  5
DB
  8
┌▓È_1
 62
     5
 10
918.57700515679994
 20
-445.43133250829999
 30
0.0
 40
5.0
 50
0.0
 51
90.0
  0
LINE
  5
DC
  8
┌▓È_1
 62
     5
 10
928.07700515680006
 20
-437.18133250829999
 30
0.0
 11
927.57700515679994
 21
-437.18133250829999
 31
0.0
  0
LINE
  5
DD
  8
┌▓È_1
 62
     5
 10
928.1770052500998
 20
-433.93133250829999
 30
0.0
 11
906.57700515680006
 21
-433.93133250829999
 31
0.0
  0
DIMENSION
  5
EC
  8
Éíû@É³
  2
*D3
 10
906.57700515680006
 20
-470.39151510760001
 30
0.0
 11
915.07700515679994
 21
-470.39151510760001
 31
0.0
 70
   128
  1
<>
 13
906.57700515680006
 23
-435.43133250829999
 33
0.0
 14
923.57700515680006
 24
-452.18133250829999
 34
0.0
 50
180.0
  0
DIMENSION
  5
FB
  8
Éíû@É³
  2
*D4
 10
923.57700515680006
 20
-470.39151510760001
 30
0.0
 11
926.57700515679994
 21
-470.39151510760001
 31
0.0
 70
   128
  1
<>
 13
923.57700515680006
 23
-452.18133250829999
 33
0.0
 14
929.57700515679983
 24
-456.18133250829999
 34
0.0
 50
180.0
  0
INSERT
  5
FC
  8
0
  6
CONTINUOUS
  2
*U33
 10
0.0
 20
0.0
 30
0.0
  0
INSERT
  5
FD
  8
0
  6
CONTINUOUS
  2
*U34
 10
0.0
 20
0.0
 30
0.0
  0
INSERT
  5
FE
  8
0
  6
CONTINUOUS
  2
*U35
 10
0.0
 20
0.0
 30
0.0
  0
LINE
  5
FF
  8
┌▓È_1
  6
STITCH
 10
870.87170152329998
 20
-490.0
 30
0.0
 11
870.87170152329998
 21
-517.14558354589985
 31
0.0
  0
LINE
  5
100
  8
┌▓È_1
  6
STITCH
 10
902.0
 20
-490.0
 30
0.0
 11
870.87170152329998
 21
-490.0
 31
0.0
  0
DIMENSION
  5
10F
  8
Éíû@É³
  2
*D5
 10
944.80324722219984
 20
-457.18133250829999
 30
0.0
 11
944.80324722219984
 21
-443.50538581009988
 31
0.0
 70
   128
  1
üi<>üj
 13
928.57700515679994
 23
-457.18133250829999
 33
0.0
 14
929.07700515679994
 24
-429.82943911199987
 34
0.0
 50
90.0
  0
DIMENSION
  5
11E
  8
Éíû@É³
  2
*D6
 10
896.17027206160014
 20
-429.82943911199987
 30
0.0
 11
896.17027206160014
 21
-431.88038581009988
 31
0.0
 70
   128
  1
<>
 13
929.07700515679994
 23
-429.82943911199987
 33
0.0
 14
906.57700515680006
 24
-433.93133250829999
 34
0.0
 50
90.0
  0
DIMENSION
  5
12D
  8
Éíû@É³
  2
*D7
 10
896.17027206160014
 20
-433.93133250829999
 30
0.0
 11
896.17027206160014
 21
-445.55633250829999
 31
0.0
 70
   128
  1
<>
 13
906.57700515680006
 23
-433.93133250829999
 33
0.0
 14
925.07700515679983
 24
-457.18133250829999
 34
0.0
 50
90.0
  0
DIMENSION
  5
13C
  8
Éíû@É³
  2
*D8
 10
931.82700515679994
 20
-417.36344493219991
 30
0.0
 11
919.20200515679994
 21
-417.36344493219991
 31
0.0
 70
   128
  1
üi<>üj
 13
931.82700515679994
 23
-433.43133250829999
 33
0.0
 14
906.57700515680006
 24
-433.93133250829999
 34
0.0
  0
DIMENSION
  5
14B
  8
Éíû@É³
  2
*D9
 10
923.57700515680006
 20
-464.44665646760001
 30
0.0
 11
925.57700515679994
 21
-464.44665646760001
 31
0.0
 70
   128
  1
<>
 13
923.57700515680006
 23
-452.18133250829999
 33
0.0
 14
927.57700515679994
 24
-454.18133250829999
 34
0.0
 50
180.0
  0
DIMENSION
  5
15A
  8
Éíû@É³
  2
*D10
 10
927.57700515679994
 20
-464.44665646760001
 30
0.0
 11
928.57700515679994
 21
-464.44665646760001
 31
0.0
 70
   128
  1
<>
 13
927.57700515679994
 23
-454.18133250829999
 33
0.0
 14
929.57700515679983
 24
-456.18133250829999
 34
0.0
 50
180.0
  0
DIMENSION
  5
169
  8
Éíû@É³
  2
*D11
 10
937.86632940920003
 20
-457.18133250829999
 30
0.0
 11
937.86632940920003
 21
-447.18133250829999
 31
0.0
 70
   128
  1
<>
 13
928.57700515679994
 23
-457.18133250829999
 33
0.0
 14
928.07700515680006
 24
-437.18133250829999
 34
0.0
 50
90.0
  0
DIMENSION
  5
178
  8
Éíû@É³
  2
*D12
 10
900.5401645346999
 20
-440.43133250829999
 30
0.0
 11
900.5401645346999
 21
-448.80633250829999
 31
0.0
 70
   128
  1
üi<>üj
 13
913.57700515680006
 23
-440.43133250829999
 33
0.0
 14
925.07700515679983
 24
-457.18133250829999
 34
0.0
 50
90.0
  0
DIMENSION
  5
187
  8
Éíû@É³
  2
*D13
 10
900.5401645346999
 20
-433.93133250829999
 30
0.0
 11
900.5401645346999
 21
-437.18133250829999
 31
0.0
 70
   128
  1
<>
 13
906.57700515680006
 23
-433.93133250829999
 33
0.0
 14
913.57700515680006
 24
-440.43133250829999
 34
0.0
 50
90.0
  0
DIMENSION
  5
18E
  8
Éíû@É³
  2
*D14
 10
913.57700515680006
 20
-433.0313325082999
 30
0.0
 11
901.28479554929993
 21
-442.49571370849998
 31
0.0
 70
   132
  1
<>
 15
908.34441497600005
 25
-438.26392268900003
 35
0.0
 40
0.0
  0
DIMENSION
  5
19D
  8
Éíû@É³
  2
*D15
 10
887.39962857919988
 20
-422.31927103650003
 30
0.0
 11
885.69962857919995
 21
-422.31927103650003
 31
0.0
 70
   128
  1
<>
 13
887.39962857919988
 23
-429.82943911199987
 33
0.0
 14
883.99962857920002
 24
-429.82943911199987
 34
0.0
  0
LINE
  5
19E
  8
┌▓È_1
 62
     5
 10
883.99962857920002
 20
-457.18133250829999
 30
0.0
 11
887.39962857919988
 21
-457.18133250829999
 31
0.0
  0
LINE
  5
19F
  8
┌▓È_1
 62
     5
 10
887.39962857919988
 20
-429.82943911199987
 30
0.0
 11
883.99962857920002
 21
-429.82943911199987
 31
0.0
  0
LINE
  5
1A0
  8
┌▓È_1
 62
     5
 10
887.39962857919988
 20
-433.93133250829999
 30
0.0
 11
883.99962857920002
 21
-433.93133250829999
 31
0.0
  0
LINE
  5
1A1
  8
┌▓È_1
 62
     5
 10
887.39962857919988
 20
-432.87077738070002
 30
0.0
 11
883.99962857920002
 21
-432.87077738070002
 31
0.0
  0
LINE
  5
1A2
  8
┌▓È_1
 62
     5
 10
887.39962857919988
 20
-440.43133250829999
 30
0.0
 11
883.99962857920002
 21
-440.43133250829999
 31
0.0
  0
LINE
  5
1A3
  8
┌▓È_1
  6
STITCH
 10
887.39962857919988
 20
-437.18133250829999
 30
0.0
 11
883.99962857920002
 21
-437.18133250829999
 31
0.0
  0
LINE
  5
1A4
  8
┌▓È_1
  6
STITCH
 10
887.39962857919988
 20
-454.18133250829999
 30
0.0
 11
883.99962857920002
 21
-454.18133250829999
 31
0.0
  0
LINE
  5
1A5
  8
┌▓È_1
 62
     5
 10
887.39962857919988
 20
-435.43133250829999
 30
0.0
 11
883.99962857920002
 21
-435.43133250829999
 31
0.0
  0
LINE
  5
1A6
  8
┌▓È_1
 62
     5
 10
887.39962857919988
 20
-429.82943911199987
 30
0.0
 11
887.39962857919988
 21
-457.18133250829999
 31
0.0
  0
LINE
  5
1A7
  8
┌▓È_1
 62
     5
 10
883.99962857920002
 20
-429.82943911199987
 30
0.0
 11
883.99962857920002
 21
-457.18133250829999
 31
0.0
  0
DIMENSION
  5
1B6
  8
Éíû@É³
  2
*D16
 10
931.82700515679994
 20
-422.31927084569992
 30
0.0
 11
930.30200515679985
 21
-422.31927084569992
 31
0.0
 70
   128
  1
<>
 13
931.82700515679994
 23
-433.43133250829999
 33
0.0
 14
928.77700515679987
 24
-430.12943911199989
 34
0.0
  0
DIMENSION
  5
1C5
  8
Éíû@É³
  2
*D17
 10
928.77700515679987
 20
-422.31927084569992
 30
0.0
 11
917.67700515679985
 21
-422.31927084569992
 31
0.0
 70
   128
  1
<>
 13
928.77700515679987
 23
-430.12943911199989
 33
0.0
 14
906.57700515680006
 24
-433.93133250829999
 34
0.0
  0
ARC
  5
1C6
  8
┌▓È_1
 62
     5
 10
928.17700515679985
 20
-433.23133250829989
 30
0.0
 40
0.7
 50
270.00000763719999
 51
31.002719133900001
  0
ARC
  5
1C7
  8
┌▓È_1
 62
     5
 10
929.07700515679994
 20
-430.12943911199989
 30
0.0
 40
0.3
 50
73.150720377200003
 51
180.0
  0
ENDSEC
  0
EOF
