  0
SECTION
  2
HEADER
  9
$ACADVER
  1
AC1009
  9
$INSBASE
 10
0.0
 20
0.0
 30
0.0
  9
$EXTMIN
 10
717.75858072919993
 20
-609.68600000000004
 30
0.0
  9
$EXTMAX
 10
1109.3005729167
 20
-327.6401666667
 30
0.0
  9
$LIMMIN
 10
0.0
 20
0.0
  9
$LIMMAX
 10
0.0
 20
0.0
  9
$ORTHOMODE
 70
     0
  9
$REGENMODE
 70
     1
  9
$FILLMODE
 70
     1
  9
$QTEXTMODE
 70
     0
  9
$MIRRTEXT
 70
     1
  9
$DRAGMODE
 70
     2
  9
$LTSCALE
 40
1.0
  9
$OSMODE
 70
    31
  9
$ATTMODE
 70
     1
  9
$TEXTSIZE
 40
0.0
  9
$TRACEWID
 40
0.05
  9
$TEXTSTYLE
  7
STANDARD
  9
$CLAYER
  8
0
  9
$CELTYPE
  6
CONTINUOUS
  9
$CECOLOR
 62
   256
  9
$DIMSCALE
 40
1.0
  9
$DIMASZ
 40
0.18
  9
$DIMEXO
 40
0.0625
  9
$DIMDLI
 40
0.38
  9
$DIMRND
 40
0.0
  9
$DIMDLE
 40
0.0
  9
$DIMEXE
 40
0.18
  9
$DIMTP
 40
0.0
  9
$DIMTM
 40
0.0
  9
$DIMTXT
 40
0.18
  9
$DIMCEN
 40
0.09
  9
$DIMTSZ
 40
0.0
  9
$DIMTOL
 70
     0
  9
$DIMLIM
 70
     0
  9
$DIMTIH
 70
     1
  9
$DIMTOH
 70
     1
  9
$DIMSE1
 70
     0
  9
$DIMSE2
 70
     0
  9
$DIMTAD
 70
     0
  9
$DIMZIN
 70
     0
  9
$DIMBLK
  1

  9
$DIMASO
 70
     1
  9
$DIMSHO
 70
     1
  9
$DIMPOST
  1

  9
$DIMAPOST
  1

  9
$DIMALT
 70
     0
  9
$DIMALTD
 70
     2
  9
$DIMALTF
 40
25.399999999999999
  9
$DIMLFAC
 40
1.0
  9
$DIMTOFL
 70
     0
  9
$DIMTVP
 40
0.0
  9
$DIMTIX
 70
     0
  9
$DIMSOXD
 70
     0
  9
$DIMSAH
 70
     0
  9
$DIMBLK1
  1

  9
$DIMBLK2
  1

  9
$DIMSTYLE
  2
STANDARD
  9
$DIMCLRD
 70
     0
  9
$DIMCLRE
 70
     0
  9
$DIMCLRT
 70
     0
  9
$DIMTFAC
 40
1.0
  9
$DIMGAP
 40
0.09
  9
$LUNITS
 70
     2
  9
$LUPREC
 70
     4
  9
$SKETCHINC
 40
0.1
  9
$FILLETRAD
 40
0.0
  9
$AUNITS
 70
     0
  9
$AUPREC
 70
     0
  9
$MENU
  1
acad
  9
$ELEVATION
 40
0.0
  9
$PELEVATION
 40
0.0
  9
$THICKNESS
 40
0.0
  9
$LIMCHECK
 70
     0
  9
$BLIPMODE
 70
     0
  9
$CHAMFERA
 40
0.0
  9
$CHAMFERB
 40
0.0
  9
$SKPOLY
 70
     0
  9
$TDCREATE
 40
2454858.5737089468
  9
$TDUPDATE
 40
2454858.5805653119
  9
$TDINDWG
 40
0.0057253704
  9
$TDUSRTIMER
 40
0.0057141551
  9
$USRTIMER
 70
     1
  9
$ANGBASE
 50
0.0
  9
$ANGDIR
 70
     0
  9
$PDMODE
 70
     3
  9
$PDSIZE
 40
-1.0
  9
$PLINEWID
 40
0.0
  9
$COORDS
 70
     2
  9
$SPLFRAME
 70
     0
  9
$SPLINETYPE
 70
     6
  9
$SPLINESEGS
 70
     8
  9
$ATTDIA
 70
     0
  9
$ATTREQ
 70
     1
  9
$HANDLING
 70
     1
  9
$HANDSEED
  5
749
  9
$SURFTAB1
 70
     6
  9
$SURFTAB2
 70
     6
  9
$SURFTYPE
 70
     6
  9
$SURFU
 70
     6
  9
$SURFV
 70
     6
  9
$UCSNAME
  2

  9
$UCSORG
 10
0.0
 20
0.0
 30
0.0
  9
$UCSXDIR
 10
1.0
 20
0.0
 30
0.0
  9
$UCSYDIR
 10
0.0
 20
1.0
 30
0.0
  9
$PUCSNAME
  2

  9
$PUCSORG
 10
0.0
 20
0.0
 30
0.0
  9
$PUCSXDIR
 10
1.0
 20
0.0
 30
0.0
  9
$PUCSYDIR
 10
0.0
 20
1.0
 30
0.0
  9
$USERI1
 70
     0
  9
$USERI2
 70
     0
  9
$USERI3
 70
     0
  9
$USERI4
 70
     0
  9
$USERI5
 70
     0
  9
$USERR1
 40
0.0
  9
$USERR2
 40
0.0
  9
$USERR3
 40
0.0
  9
$USERR4
 40
0.0
  9
$USERR5
 40
0.0
  9
$WORLDVIEW
 70
     1
  9
$SHADEDGE
 70
     3
  9
$SHADEDIF
 70
    70
  9
$TILEMODE
 70
     1
  9
$MAXACTVP
 70
    16
  9
$PLIMCHECK
 70
     0
  9
$PEXTMIN
 10
1.0000000000000000E+020
 20
1.0000000000000000E+020
 30
1.0000000000000000E+020
  9
$PEXTMAX
 10
-1.0000000000000000E+020
 20
-1.0000000000000000E+020
 30
-1.0000000000000000E+020
  9
$PLIMMIN
 10
0.0
 20
0.0
  9
$PLIMMAX
 10
12.0
 20
9.0
  9
$UNITMODE
 70
     0
  9
$VISRETAIN
 70
     0
  9
$PLINEGEN
 70
     1
  9
$PSLTSCALE
 70
     0
  0
ENDSEC
  0
SECTION
  2
TABLES
  0
TABLE
  2
VPORT
 70
     2
  0
VPORT
  2
*ACTIVE
 70
     0
 10
0.0
 20
0.0
 11
1.0
 21
1.0
 12
913.53617503734426
 22
-468.67006267499238
 13
0.0
 23
0.0
 14
1.0
 24
1.0
 15
0.0
 25
0.0
 16
0.0
 26
0.0
 36
1.0
 17
0.0
 27
0.0
 37
0.0
 40
285.0486870922241
 41
1.897707231040564
 42
50.0
 43
0.0
 44
0.0
 50
0.0
 51
0.0
 71
     0
 72
   100
 73
     1
 74
     1
 75
     0
 76
     0
 77
     0
 78
     0
  0
ENDTAB
  0
TABLE
  2
LTYPE
 70
    11
  0
LTYPE
  2
CONTINUOUS
 70
     0
  3
Solid line
 72
    65
 73
     0
 40
0.0
  0
LTYPE
  2
DOT
 70
     0
  3
. . . . . . . . 
 72
    65
 73
     2
 40
1.0
 49
0.0
 49
-1.0
  0
LTYPE
  2
DASHED
 70
     0
  3
___  ___  ___  ___  
 72
    65
 73
     2
 40
4.0
 49
3.0
 49
-1.0
  0
LTYPE
  2
HIDDEN
 70
     0
  3
__ __ __ __ 
 72
    65
 73
     2
 40
3.0
 49
2.0
 49
-1.0
  0
LTYPE
  2
STITCH
 70
     0
  3
_ _ _ _ 
 72
    65
 73
     2
 40
2.0
 49
1.0
 49
-1.0
  0
LTYPE
  2
CENTER
 70
     0
  3
______  __  ______  __  
 72
    65
 73
     4
 40
43.0
 49
40.0
 49
-1.0
 49
1.0
 49
-1.0
  0
LTYPE
  2
DASHDOT
 70
     0
  3
____ . ____ . 
 72
    65
 73
     4
 40
32.0
 49
30.0
 49
-1.0
 49
0.0
 49
-1.0
  0
LTYPE
  2
BORDER
 70
     0
  3
__ . __ . 
 72
    65
 73
     4
 40
22.0
 49
20.0
 49
-1.0
 49
0.0
 49
-1.0
  0
LTYPE
  2
CUTTING
 70
     0
  3
________   ___   ___   
 72
    65
 73
     6
 40
45.0
 49
40.0
 49
-1.0
 49
1.0
 49
-1.0
 49
1.0
 49
-1.0
  0
LTYPE
  2
PHANTOM
 70
     0
  3
______  __  __  
 72
    65
 73
     6
 40
35.0
 49
30.0
 49
-1.0
 49
1.0
 49
-1.0
 49
1.0
 49
-1.0
  0
LTYPE
  2
DIVIDE
 70
     0
  3
____ . . ____ . . 
 72
    65
 73
     6
 40
23.0
 49
20.0
 49
-1.0
 49
0.0
 49
-1.0
 49
0.0
 49
-1.0
  0
ENDTAB
  0
TABLE
  2
LAYER
 70
     3
  0
LAYER
  2
0
 70
     0
 62
     7
  6
CONTINUOUS
  0
LAYER
  2
┌▓È_1
 70
     0
 62
     7
  6
CONTINUOUS
  0
LAYER
  2
Éíû@É³
 70
     0
 62
     7
  6
CONTINUOUS
  0
ENDTAB
  0
TABLE
  2
STYLE
 70
     1
  0
STYLE
  2
STANDARD
 70
     0
 40
0.0
 41
1.0
 50
0.0
 71
     0
 42
0.0
  3
txt
  4
extfont
  0
ENDTAB
  0
TABLE
  2
VIEW
 70
     0
  0
ENDTAB
  0
TABLE
  2
UCS
 70
     0
  0
ENDTAB
  0
TABLE
  2
APPID
 70
     2
  0
APPID
  2
ACAD
 70
     0
  0
APPID
  2
DCO15
 70
     0
  0
ENDTAB
  0
TABLE
  2
DIMSTYLE
 70
     4
  0
DIMSTYLE
  2
STANDARD
 70
     0
  3

  4

  5

  6

  7

 40
1.0
 41
0.18
 42
0.0625
 43
0.38
 44
0.18
 45
0.0
 46
0.0
 47
0.0
 48
0.0
140
0.18
141
0.09
142
0.0
143
25.399999999999999
144
1.0
145
0.0
146
1.0
147
0.09
 71
     0
 72
     0
 73
     1
 74
     1
 75
     0
 76
     0
 77
     0
 78
     0
170
     0
171
     2
172
     0
173
     0
174
     0
175
     0
176
     0
177
     0
178
     0
  0
DIMSTYLE
  2
VELDIM0
 70
     0
  3

  4

  5

  6

  7

 40
1.0
 41
3.0001657008999989
 42
0.0625
 43
0.38
 44
2.0
 45
0.0
 46
5.0
 47
0.0
 48
0.0
140
2.6987499594999989
141
0.09
142
0.0
143
25.399999999999999
144
1.0
145
0.0
146
1.0
147
0.09
 71
     0
 72
     0
 73
     0
 74
     0
 75
     0
 76
     0
 77
     0
 78
     8
170
     0
171
     2
172
     0
173
     0
174
     0
175
     0
176
     0
177
     0
178
     0
  0
DIMSTYLE
  2
VELDIM1
 70
     0
  3

  4

  5

  6

  7

 40
1.0
 41
0.6000331044000001
 42
0.0625
 43
0.38
 44
0.4000000060000001
 45
0.0
 46
1.0
 47
0.0
 48
0.0
140
0.5397499919
141
0.09
142
0.0
143
25.399999999999999
144
1.0
145
0.0
146
1.0
147
0.09
 71
     0
 72
     0
 73
     0
 74
     0
 75
     0
 76
     0
 77
     0
 78
     8
170
     0
171
     2
172
     0
173
     0
174
     0
175
     0
176
     0
177
     0
178
     0
  0
DIMSTYLE
  2
VELDIM2
 70
     0
  3

  4

  5

  6

  7

 40
1.0
 41
1.0000551938999991
 42
0.0625
 43
0.38
 44
0.6666666865000001
 45
0.0
 46
1.666666626899999
 47
0.0
 48
0.0
140
0.899583286
141
0.09
142
0.0
143
25.399999999999999
144
1.0
145
0.0
146
1.0
147
0.09
 71
     0
 72
     0
 73
     0
 74
     0
 75
     0
 76
     0
 77
     0
 78
     8
170
     0
171
     2
172
     0
173
     0
174
     0
175
     0
176
     0
177
     0
178
     0
  0
ENDTAB
  0
ENDSEC
  0
SECTION
  2
BLOCKS
  0
BLOCK
  8
0
  2
$MODEL_SPACE
 70
     0
 10
0.0
 20
0.0
 30
0.0
  3
$MODEL_SPACE
  1

  0
ENDBLK
  5
E
  8
0
  0
BLOCK
 67
     1
  8
0
  2
$PAPER_SPACE
 70
     0
 10
0.0
 20
0.0
 30
0.0
  3
$PAPER_SPACE
  1

  0
ENDBLK
  5
10
 67
     1
  8
0
  0
BLOCK
  8
0
  2
*D0
 70
     1
 10
0.0
 20
0.0
 30
0.0
  3
*D0
  1

  0
TEXT
  5
3D
  8
0
 62
     0
 10
758.72879777879996
 20
-418.65106370910001
 30
0.0
 40
2.6987499594999989
  1
3.5
  0
LINE
  5
3E
  8
0
 62
     0
 10
751.77890624999998
 20
-406.9297526041999
 30
0.0
 11
751.77890624999998
 21
-422.12731370189999
 31
0.0
  0
LINE
  5
3F
  8
0
 62
     0
 10
755.27890624999986
 20
-406.9297526041999
 30
0.0
 11
755.27890624999986
 21
-422.12731370189999
 31
0.0
  0
LINE
  5
40
  8
0
 62
     0
 10
751.77890624999998
 20
-420.12731370189999
 30
0.0
 11
765.07879768350006
 21
-420.12731370189999
 31
0.0
  0
LINE
  5
41
  8
0
 62
     0
 10
751.77890624999998
 20
-420.12731370189999
 30
0.0
 11
757.14129780270002
 21
-420.12731370189999
 31
0.0
  0
LINE
  5
42
  8
0
 62
     0
 10
755.27890624999986
 20
-420.12731370189999
 30
0.0
 11
765.07879768350006
 21
-420.12731370189999
 31
0.0
  0
LINE
  5
43
  8
0
 62
     0
 10
755.27890624999986
 20
-420.12731370189999
 30
0.0
 11
757.14129780270002
 21
-420.12731370189999
 31
0.0
  0
LINE
  5
44
  8
0
 62
     0
 10
755.27890624999986
 20
-420.12731370189999
 30
0.0
 11
760.27890624999998
 21
-420.12731370189999
 31
0.0
  0
SOLID
  5
45
  8
0
 62
     0
 10
755.27890624999986
 20
-420.12731370189999
 30
0.0
 11
758.27907195089995
 21
-419.32342174509989
 31
0.0
 12
758.27907195089995
 22
-420.93120565869998
 32
0.0
 13
757.52903052569991
 23
-420.12731370189999
 33
0.0
  0
LINE
  5
46
  8
0
 62
     0
 10
751.77890624999998
 20
-420.12731370189999
 30
0.0
 11
746.77890624999986
 21
-420.12731370189999
 31
0.0
  0
SOLID
  5
47
  8
0
 62
     0
 10
751.77890624999998
 20
-420.12731370189999
 30
0.0
 11
748.77874054909989
 21
-420.93120565869998
 31
0.0
 12
748.77874054909989
 22
-419.32342174509989
 32
0.0
 13
749.52878197429993
 23
-420.12731370189999
 33
0.0
  0
ENDBLK
  5
48
  8
0
  0
BLOCK
  8
0
  2
*D1
 70
     1
 10
0.0
 20
0.0
 30
0.0
  3
*D1
  1

  0
TEXT
  5
5A
  8
0
 62
     0
 10
1067.1759416125001
 20
-405.6585025826999
 30
0.0
 40
0.5397499919
  1
8.7
 50
90.0
  0
LINE
  5
5B
  8
0
 62
     0
 10
1058.2598783664
 20
-408.57975260419988
 30
0.0
 11
1067.87119162
 21
-408.57975260419988
 31
0.0
  0
LINE
  5
5C
  8
0
 62
     0
 10
1058.2598783664
 20
-399.87975260420001
 30
0.0
 11
1067.87119162
 21
-399.87975260420001
 31
0.0
  0
LINE
  5
5D
  8
0
 62
     0
 10
1067.471191614
 20
-408.57975260419988
 30
0.0
 11
1067.471191614
 21
-402.48350263039998
 31
0.0
  0
LINE
  5
5E
  8
0
 62
     0
 10
1067.471191614
 20
-408.57975260419988
 30
0.0
 11
1067.471191614
 21
-405.97600257789998
 31
0.0
  0
LINE
  5
5F
  8
0
 62
     0
 10
1067.471191614
 20
-399.87975260420001
 30
0.0
 11
1067.471191614
 21
-402.48350263039998
 31
0.0
  0
LINE
  5
60
  8
0
 62
     0
 10
1067.471191614
 20
-399.87975260420001
 30
0.0
 11
1067.471191614
 21
-405.97600257789998
 31
0.0
  0
LINE
  5
61
  8
0
 62
     0
 10
1067.471191614
 20
-399.87975260420001
 30
0.0
 11
1067.471191614
 21
-400.87975260420001
 31
0.0
  0
SOLID
  5
62
  8
0
 62
     0
 10
1067.471191614
 20
-399.87975260420001
 30
0.0
 11
1067.6319700024001
 21
-400.47978570859999
 31
0.0
 12
1067.3104132256999
 22
-400.47978570859999
 32
0.0
 13
1067.471191614
 23
-400.32977743250001
 33
0.0
  0
LINE
  5
63
  8
0
 62
     0
 10
1067.471191614
 20
-408.57975260419988
 30
0.0
 11
1067.471191614
 21
-407.57975260419988
 31
0.0
  0
SOLID
  5
64
  8
0
 62
     0
 10
1067.471191614
 20
-408.57975260419988
 30
0.0
 11
1067.3104132256999
 21
-407.97971949969991
 31
0.0
 12
1067.6319700024001
 22
-407.97971949969991
 32
0.0
 13
1067.471191614
 23
-408.12972777589988
 33
0.0
  0
ENDBLK
  5
65
  8
0
  0
BLOCK
  8
0
  2
*D2
 70
     1
 10
0.0
 20
0.0
 30
0.0
  3
*D2
  1

  0
TEXT
  5
69
  8
0
 62
     0
 10
1065.6129358013
 20
-405.6585025826999
 30
0.0
 40
0.5397499919
  1
6.3
 50
90.0
  0
LINE
  5
6A
  8
0
 62
     0
 10
1062.4598783693
 20
-407.37975260420001
 30
0.0
 11
1066.3081858088001
 21
-407.37975260420001
 31
0.0
  0
LINE
  5
6B
  8
0
 62
     0
 10
1062.4598783693
 20
-401.0797526042
 30
0.0
 11
1066.3081858088001
 21
-401.0797526042
 31
0.0
  0
LINE
  5
6C
  8
0
 62
     0
 10
1065.9081858029001
 20
-407.37975260420001
 30
0.0
 11
1065.9081858029001
 21
-402.48350263039998
 31
0.0
  0
LINE
  5
6D
  8
0
 62
     0
 10
1065.9081858029001
 20
-407.37975260420001
 30
0.0
 11
1065.9081858029001
 21
-405.97600257789998
 31
0.0
  0
LINE
  5
6E
  8
0
 62
     0
 10
1065.9081858029001
 20
-401.0797526042
 30
0.0
 11
1065.9081858029001
 21
-402.48350263039998
 31
0.0
  0
LINE
  5
6F
  8
0
 62
     0
 10
1065.9081858029001
 20
-401.0797526042
 30
0.0
 11
1065.9081858029001
 21
-405.97600257789998
 31
0.0
  0
LINE
  5
70
  8
0
 62
     0
 10
1065.9081858029001
 20
-401.0797526042
 30
0.0
 11
1065.9081858029001
 21
-402.0797526042
 31
0.0
  0
SOLID
  5
71
  8
0
 62
     0
 10
1065.9081858029001
 20
-401.0797526042
 30
0.0
 11
1066.0689641913
 21
-401.67978570859992
 31
0.0
 12
1065.7474074145
 22
-401.67978570859992
 32
0.0
 13
1065.9081858029001
 23
-401.5297774325
 33
0.0
  0
LINE
  5
72
  8
0
 62
     0
 10
1065.9081858029001
 20
-407.37975260420001
 30
0.0
 11
1065.9081858029001
 21
-406.37975260420001
 31
0.0
  0
SOLID
  5
73
  8
0
 62
     0
 10
1065.9081858029001
 20
-407.37975260420001
 30
0.0
 11
1065.7474074145
 21
-406.77971949969998
 31
0.0
 12
1066.0689641913
 22
-406.77971949969998
 32
0.0
 13
1065.9081858029001
 23
-406.92972777589989
 33
0.0
  0
ENDBLK
  5
74
  8
0
  0
BLOCK
  8
0
  2
*D3
 70
     1
 10
0.0
 20
0.0
 30
0.0
  3
*D3
  1

  0
TEXT
  5
85
  8
0
 62
     0
 10
1056.6011283687001
 20
-397.00390334839989
 30
0.0
 40
0.5397499919
  1
1
  0
LINE
  5
86
  8
0
 62
     0
 10
1057.2598783664
 20
-398.87975260420001
 30
0.0
 11
1057.2598783664
 21
-396.89915334390002
 31
0.0
  0
LINE
  5
87
  8
0
 62
     0
 10
1056.2598783664
 20
-400.72316909440002
 30
0.0
 11
1056.2598783664
 21
-396.89915334390002
 31
0.0
  0
LINE
  5
88
  8
0
 62
     0
 10
1057.2598783664
 20
-397.2991533499
 30
0.0
 11
1057.2361283591999
 21
-397.2991533499
 31
0.0
  0
LINE
  5
89
  8
0
 62
     0
 10
1057.2598783664
 20
-397.2991533499
 30
0.0
 11
1056.2836283735001
 21
-397.2991533499
 31
0.0
  0
LINE
  5
8A
  8
0
 62
     0
 10
1056.2598783664
 20
-397.2991533499
 30
0.0
 11
1057.2361283591999
 21
-397.2991533499
 31
0.0
  0
LINE
  5
8B
  8
0
 62
     0
 10
1056.2598783664
 20
-397.2991533499
 30
0.0
 11
1056.2836283735001
 21
-397.2991533499
 31
0.0
  0
LINE
  5
8C
  8
0
 62
     0
 10
1056.2598783664
 20
-397.2991533499
 30
0.0
 11
1055.2598783664
 21
-397.2991533499
 31
0.0
  0
SOLID
  5
8D
  8
0
 62
     0
 10
1056.2598783664
 20
-397.2991533499
 30
0.0
 11
1055.6598452619
 21
-397.45993173829999
 31
0.0
 12
1055.6598452619
 22
-397.13837496150001
 32
0.0
 13
1055.809853538
 23
-397.2991533499
 33
0.0
  0
LINE
  5
8E
  8
0
 62
     0
 10
1057.2598783664
 20
-397.2991533499
 30
0.0
 11
1058.2598783664
 21
-397.2991533499
 31
0.0
  0
SOLID
  5
8F
  8
0
 62
     0
 10
1057.2598783664
 20
-397.2991533499
 30
0.0
 11
1057.8599114707999
 21
-397.13837496150001
 31
0.0
 12
1057.8599114707999
 22
-397.45993173829999
 32
0.0
 13
1057.7099031947
 23
-397.2991533499
 33
0.0
  0
ENDBLK
  5
90
  8
0
  0
BLOCK
  8
0
  2
*D4
 70
     1
 10
0.0
 20
0.0
 30
0.0
  3
*D4
  1

  0
TEXT
  5
94
  8
0
 62
     0
 10
1060.0336283735001
 20
-397.00390334839989
 30
0.0
 40
0.5397499919
  1
6.5
  0
LINE
  5
95
  8
0
 62
     0
 10
1063.7598783664
 20
-401.27975260419998
 30
0.0
 11
1063.7598783664
 21
-396.89915334390002
 31
0.0
  0
LINE
  5
96
  8
0
 62
     0
 10
1057.2598783664
 20
-398.87975260420001
 30
0.0
 11
1057.2598783664
 21
-396.89915334390002
 31
0.0
  0
LINE
  5
97
  8
0
 62
     0
 10
1063.7598783664
 20
-397.2991533499
 30
0.0
 11
1061.3036283544
 21
-397.2991533499
 31
0.0
  0
LINE
  5
98
  8
0
 62
     0
 10
1063.7598783664
 20
-397.2991533499
 30
0.0
 11
1059.7161283783
 21
-397.2991533499
 31
0.0
  0
LINE
  5
99
  8
0
 62
     0
 10
1057.2598783664
 20
-397.2991533499
 30
0.0
 11
1061.3036283544
 21
-397.2991533499
 31
0.0
  0
LINE
  5
9A
  8
0
 62
     0
 10
1057.2598783664
 20
-397.2991533499
 30
0.0
 11
1059.7161283783
 21
-397.2991533499
 31
0.0
  0
LINE
  5
9B
  8
0
 62
     0
 10
1057.2598783664
 20
-397.2991533499
 30
0.0
 11
1058.2598783664
 21
-397.2991533499
 31
0.0
  0
SOLID
  5
9C
  8
0
 62
     0
 10
1057.2598783664
 20
-397.2991533499
 30
0.0
 11
1057.8599114707999
 21
-397.13837496150001
 31
0.0
 12
1057.8599114707999
 22
-397.45993173829999
 32
0.0
 13
1057.7099031947
 23
-397.2991533499
 33
0.0
  0
LINE
  5
9D
  8
0
 62
     0
 10
1063.7598783664
 20
-397.2991533499
 30
0.0
 11
1062.7598783664
 21
-397.2991533499
 31
0.0
  0
SOLID
  5
9E
  8
0
 62
     0
 10
1063.7598783664
 20
-397.2991533499
 30
0.0
 11
1063.1598452619
 21
-397.45993173829999
 31
0.0
 12
1063.1598452619
 22
-397.13837496150001
 32
0.0
 13
1063.309853538
 23
-397.2991533499
 33
0.0
  0
ENDBLK
  5
9F
  8
0
  0
BLOCK
  8
0
  2
*D5
 70
     1
 10
0.0
 20
0.0
 30
0.0
  3
*D5
  1

  0
TEXT
  5
A3
  8
0
 62
     0
 10
1053.2023776618
 20
-401.60600259699987
 30
0.0
 40
0.5397499919
  1
2.5
 50
90.0
  0
LINE
  5
A4
  8
0
 62
     0
 10
1055.9761061324
 20
-399.87975260420001
 30
0.0
 11
1053.0976276573999
 21
-399.87975260420001
 31
0.0
  0
LINE
  5
A5
  8
0
 62
     0
 10
1055.5598783664
 20
-402.37975260420001
 30
0.0
 11
1053.0976276573999
 21
-402.37975260420001
 31
0.0
  0
LINE
  5
A6
  8
0
 62
     0
 10
1053.4976276634
 20
-399.87975260420001
 30
0.0
 11
1053.4976276634
 21
-400.33600261610002
 31
0.0
  0
LINE
  5
A7
  8
0
 62
     0
 10
1053.4976276634
 20
-399.87975260420001
 30
0.0
 11
1053.4976276634
 21
-401.9235025921999
 31
0.0
  0
LINE
  5
A8
  8
0
 62
     0
 10
1053.4976276634
 20
-402.37975260420001
 30
0.0
 11
1053.4976276634
 21
-400.33600261610002
 31
0.0
  0
LINE
  5
A9
  8
0
 62
     0
 10
1053.4976276634
 20
-402.37975260420001
 30
0.0
 11
1053.4976276634
 21
-401.9235025921999
 31
0.0
  0
LINE
  5
AA
  8
0
 62
     0
 10
1053.4976276634
 20
-402.37975260420001
 30
0.0
 11
1053.4976276634
 21
-403.37975260420001
 31
0.0
  0
SOLID
  5
AB
  8
0
 62
     0
 10
1053.4976276634
 20
-402.37975260420001
 30
0.0
 11
1053.6584060517
 21
-402.97978570859988
 31
0.0
 12
1053.3368492750001
 22
-402.97978570859988
 32
0.0
 13
1053.4976276634
 23
-402.8297774324999
 33
0.0
  0
LINE
  5
AC
  8
0
 62
     0
 10
1053.4976276634
 20
-399.87975260420001
 30
0.0
 11
1053.4976276634
 21
-398.87975260420001
 31
0.0
  0
SOLID
  5
AD
  8
0
 62
     0
 10
1053.4976276634
 20
-399.87975260420001
 30
0.0
 11
1053.3368492750001
 21
-399.27971949969998
 31
0.0
 12
1053.6584060517
 22
-399.27971949969998
 32
0.0
 13
1053.4976276634
 23
-399.42972777590001
 33
0.0
  0
ENDBLK
  5
AE
  8
0
  0
BLOCK
  8
0
  2
*D6
 70
     1
 10
0.0
 20
0.0
 30
0.0
  3
*D6
  1

  0
TEXT
  5
B2
  8
0
 62
     0
 10
1053.2023776618
 20
-407.80600259699997
 30
0.0
 40
0.5397499919
  1
2.5
 50
90.0
  0
LINE
  5
B3
  8
0
 62
     0
 10
1055.5598783664
 20
-406.0797526042
 30
0.0
 11
1053.0976276573999
 21
-406.0797526042
 31
0.0
  0
LINE
  5
B4
  8
0
 62
     0
 10
1055.9761061324
 20
-408.57975260419988
 30
0.0
 11
1053.0976276573999
 21
-408.57975260419988
 31
0.0
  0
LINE
  5
B5
  8
0
 62
     0
 10
1053.4976276634
 20
-406.0797526042
 30
0.0
 11
1053.4976276634
 21
-406.53600261610001
 31
0.0
  0
LINE
  5
B6
  8
0
 62
     0
 10
1053.4976276634
 20
-406.0797526042
 30
0.0
 11
1053.4976276634
 21
-408.1235025922
 31
0.0
  0
LINE
  5
B7
  8
0
 62
     0
 10
1053.4976276634
 20
-408.57975260419988
 30
0.0
 11
1053.4976276634
 21
-406.53600261610001
 31
0.0
  0
LINE
  5
B8
  8
0
 62
     0
 10
1053.4976276634
 20
-408.57975260419988
 30
0.0
 11
1053.4976276634
 21
-408.1235025922
 31
0.0
  0
LINE
  5
B9
  8
0
 62
     0
 10
1053.4976276634
 20
-408.57975260419988
 30
0.0
 11
1053.4976276634
 21
-409.5797526042
 31
0.0
  0
SOLID
  5
BA
  8
0
 62
     0
 10
1053.4976276634
 20
-408.57975260419988
 30
0.0
 11
1053.6584060517
 21
-409.17978570859998
 31
0.0
 12
1053.3368492750001
 22
-409.17978570859998
 32
0.0
 13
1053.4976276634
 23
-409.0297774325
 33
0.0
  0
LINE
  5
BB
  8
0
 62
     0
 10
1053.4976276634
 20
-406.0797526042
 30
0.0
 11
1053.4976276634
 21
-405.0797526042
 31
0.0
  0
SOLID
  5
BC
  8
0
 62
     0
 10
1053.4976276634
 20
-406.0797526042
 30
0.0
 11
1053.3368492750001
 21
-405.47971949970002
 31
0.0
 12
1053.6584060517
 22
-405.47971949970002
 32
0.0
 13
1053.4976276634
 23
-405.62972777589988
 33
0.0
  0
ENDBLK
  5
BD
  8
0
  0
BLOCK
  8
0
  2
*D7
 70
     1
 10
0.0
 20
0.0
 30
0.0
  3
*D7
  1

  0
TEXT
  5
C1
  8
0
 62
     0
 10
1053.2023776618
 20
-404.70600259699989
 30
0.0
 40
0.5397499919
  1
3.7
 50
90.0
  0
LINE
  5
C2
  8
0
 62
     0
 10
1055.5598783664
 20
-402.37975260420001
 30
0.0
 11
1053.0976276573999
 21
-402.37975260420001
 31
0.0
  0
LINE
  5
C3
  8
0
 62
     0
 10
1055.5598783664
 20
-406.0797526042
 30
0.0
 11
1053.0976276573999
 21
-406.0797526042
 31
0.0
  0
LINE
  5
C4
  8
0
 62
     0
 10
1053.4976276634
 20
-402.37975260420001
 30
0.0
 11
1053.4976276634
 21
-403.43600261609993
 31
0.0
  0
LINE
  5
C5
  8
0
 62
     0
 10
1053.4976276634
 20
-402.37975260420001
 30
0.0
 11
1053.4976276634
 21
-405.02350259219997
 31
0.0
  0
LINE
  5
C6
  8
0
 62
     0
 10
1053.4976276634
 20
-406.0797526042
 30
0.0
 11
1053.4976276634
 21
-403.43600261609993
 31
0.0
  0
LINE
  5
C7
  8
0
 62
     0
 10
1053.4976276634
 20
-406.0797526042
 30
0.0
 11
1053.4976276634
 21
-405.02350259219997
 31
0.0
  0
LINE
  5
C8
  8
0
 62
     0
 10
1053.4976276634
 20
-406.0797526042
 30
0.0
 11
1053.4976276634
 21
-405.0797526042
 31
0.0
  0
SOLID
  5
C9
  8
0
 62
     0
 10
1053.4976276634
 20
-406.0797526042
 30
0.0
 11
1053.3368492750001
 21
-405.47971949970002
 31
0.0
 12
1053.6584060517
 22
-405.47971949970002
 32
0.0
 13
1053.4976276634
 23
-405.62972777589988
 33
0.0
  0
LINE
  5
CA
  8
0
 62
     0
 10
1053.4976276634
 20
-402.37975260420001
 30
0.0
 11
1053.4976276634
 21
-403.37975260420001
 31
0.0
  0
SOLID
  5
CB
  8
0
 62
     0
 10
1053.4976276634
 20
-402.37975260420001
 30
0.0
 11
1053.6584060517
 21
-402.97978570859988
 31
0.0
 12
1053.3368492750001
 22
-402.97978570859988
 32
0.0
 13
1053.4976276634
 23
-402.8297774324999
 33
0.0
  0
ENDBLK
  5
CC
  8
0
  0
BLOCK
  8
0
  2
*D8
 70
     1
 10
0.0
 20
0.0
 30
0.0
  3
*D8
  1

  0
TEXT
  5
123
  8
0
 62
     0
 10
729.7034896611998
 20
-405.02350256239993
 30
0.0
 40
0.899583286
  1
8.5
 50
90.0
  0
LINE
  5
124
  8
0
 62
     0
 10
732.52890624999986
 20
-399.97975260419997
 30
0.0
 11
729.52890630959996
 21
-399.97975260419997
 31
0.0
  0
LINE
  5
125
  8
0
 62
     0
 10
732.52890624999986
 20
-408.47975260419997
 30
0.0
 11
729.52890630959996
 21
-408.47975260419997
 31
0.0
  0
LINE
  5
126
  8
0
 62
     0
 10
730.19557299610005
 20
-399.97975260419997
 30
0.0
 11
730.19557299610005
 21
-402.90683600699998
 31
0.0
  0
LINE
  5
127
  8
0
 62
     0
 10
730.19557299610005
 20
-399.97975260419997
 30
0.0
 11
730.19557299610005
 21
-405.55266920129998
 31
0.0
  0
LINE
  5
128
  8
0
 62
     0
 10
730.19557299610005
 20
-408.47975260419997
 30
0.0
 11
730.19557299610005
 21
-402.90683600699998
 31
0.0
  0
LINE
  5
129
  8
0
 62
     0
 10
730.19557299610005
 20
-408.47975260419997
 30
0.0
 11
730.19557299610005
 21
-405.55266920129998
 31
0.0
  0
LINE
  5
12A
  8
0
 62
     0
 10
730.19557299610005
 20
-408.47975260419997
 30
0.0
 11
730.19557299610005
 21
-406.81308597719999
 31
0.0
  0
SOLID
  5
12B
  8
0
 62
     0
 10
730.19557299610005
 20
-408.47975260419997
 30
0.0
 11
729.92760902049997
 21
-407.47969741029999
 31
0.0
 12
730.46353697179995
 22
-407.47969741029999
 32
0.0
 13
730.19557299610005
 23
-407.7297112087
 33
0.0
  0
LINE
  5
12C
  8
0
 62
     0
 10
730.19557299610005
 20
-399.97975260419997
 30
0.0
 11
730.19557299610005
 21
-401.64641923110003
 31
0.0
  0
SOLID
  5
12D
  8
0
 62
     0
 10
730.19557299610005
 20
-399.97975260419997
 30
0.0
 11
730.46353697179995
 21
-400.9798077980999
 31
0.0
 12
729.92760902049997
 22
-400.9798077980999
 32
0.0
 13
730.19557299610005
 23
-400.72979399959991
 33
0.0
  0
ENDBLK
  5
12E
  8
0
  0
BLOCK
  8
0
  2
*D9
 70
     1
 10
0.0
 20
0.0
 30
0.0
  3
*D9
  1

  0
TEXT
  5
132
  8
0
 62
     0
 10
1059.5336283735001
 20
-411.76580315720003
 30
0.0
 40
0.5397499919
  1
7.5
  0
LINE
  5
133
  8
0
 62
     0
 10
1056.2598783664
 20
-407.73633611389988
 30
0.0
 11
1056.2598783664
 21
-412.46105316469988
 31
0.0
  0
LINE
  5
134
  8
0
 62
     0
 10
1063.7598783664
 20
-407.1797526041999
 30
0.0
 11
1063.7598783664
 21
-412.46105316469988
 31
0.0
  0
LINE
  5
135
  8
0
 62
     0
 10
1056.2598783664
 20
-412.06105315870002
 30
0.0
 11
1060.8036283544
 21
-412.06105315870002
 31
0.0
  0
LINE
  5
136
  8
0
 62
     0
 10
1056.2598783664
 20
-412.06105315870002
 30
0.0
 11
1059.2161283783
 21
-412.06105315870002
 31
0.0
  0
LINE
  5
137
  8
0
 62
     0
 10
1063.7598783664
 20
-412.06105315870002
 30
0.0
 11
1060.8036283544
 21
-412.06105315870002
 31
0.0
  0
LINE
  5
138
  8
0
 62
     0
 10
1063.7598783664
 20
-412.06105315870002
 30
0.0
 11
1059.2161283783
 21
-412.06105315870002
 31
0.0
  0
LINE
  5
139
  8
0
 62
     0
 10
1063.7598783664
 20
-412.06105315870002
 30
0.0
 11
1062.7598783664
 21
-412.06105315870002
 31
0.0
  0
SOLID
  5
13A
  8
0
 62
     0
 10
1063.7598783664
 20
-412.06105315870002
 30
0.0
 11
1063.1598452619
 21
-412.22183154710001
 31
0.0
 12
1063.1598452619
 22
-411.90027477040002
 32
0.0
 13
1063.309853538
 23
-412.06105315870002
 33
0.0
  0
LINE
  5
13B
  8
0
 62
     0
 10
1056.2598783664
 20
-412.06105315870002
 30
0.0
 11
1057.2598783664
 21
-412.06105315870002
 31
0.0
  0
SOLID
  5
13C
  8
0
 62
     0
 10
1056.2598783664
 20
-412.06105315870002
 30
0.0
 11
1056.8599114707999
 21
-411.90027477040002
 31
0.0
 12
1056.8599114707999
 22
-412.22183154710001
 32
0.0
 13
1056.7099031947
 23
-412.06105315870002
 33
0.0
  0
ENDBLK
  5
13D
  8
0
  0
BLOCK
  8
0
  2
*D10
 70
     1
 10
0.0
 20
0.0
 30
0.0
  3
*D10
  1

  0
TEXT
  5
141
  8
0
 62
     0
 10
1061.5336283735001
 20
-409.8612317571999
 30
0.0
 40
0.5397499919
  1
3.5
  0
LINE
  5
142
  8
0
 62
     0
 10
1060.2598783664
 20
-407.1797526041999
 30
0.0
 11
1060.2598783664
 21
-410.55648176469998
 31
0.0
  0
LINE
  5
143
  8
0
 62
     0
 10
1063.7598783664
 20
-407.1797526041999
 30
0.0
 11
1063.7598783664
 21
-410.55648176469998
 31
0.0
  0
LINE
  5
144
  8
0
 62
     0
 10
1060.2598783664
 20
-410.15648175879988
 30
0.0
 11
1062.8036283544
 21
-410.15648175879988
 31
0.0
  0
LINE
  5
145
  8
0
 62
     0
 10
1060.2598783664
 20
-410.15648175879988
 30
0.0
 11
1061.2161283783
 21
-410.15648175879988
 31
0.0
  0
LINE
  5
146
  8
0
 62
     0
 10
1063.7598783664
 20
-410.15648175879988
 30
0.0
 11
1062.8036283544
 21
-410.15648175879988
 31
0.0
  0
LINE
  5
147
  8
0
 62
     0
 10
1063.7598783664
 20
-410.15648175879988
 30
0.0
 11
1061.2161283783
 21
-410.15648175879988
 31
0.0
  0
LINE
  5
148
  8
0
 62
     0
 10
1063.7598783664
 20
-410.15648175879988
 30
0.0
 11
1062.7598783664
 21
-410.15648175879988
 31
0.0
  0
SOLID
  5
149
  8
0
 62
     0
 10
1063.7598783664
 20
-410.15648175879988
 30
0.0
 11
1063.1598452619
 21
-410.31726014709989
 31
0.0
 12
1063.1598452619
 22
-409.99570337040001
 32
0.0
 13
1063.309853538
 23
-410.15648175879988
 33
0.0
  0
LINE
  5
14A
  8
0
 62
     0
 10
1060.2598783664
 20
-410.15648175879988
 30
0.0
 11
1061.2598783664
 21
-410.15648175879988
 31
0.0
  0
SOLID
  5
14B
  8
0
 62
     0
 10
1060.2598783664
 20
-410.15648175879988
 30
0.0
 11
1060.8599114707999
 21
-409.99570337040001
 31
0.0
 12
1060.8599114707999
 22
-410.31726014709989
 32
0.0
 13
1060.7099031947
 23
-410.15648175879988
 33
0.0
  0
ENDBLK
  5
14C
  8
0
  0
BLOCK
  8
0
  2
*D11
 70
     1
 10
0.0
 20
0.0
 30
0.0
  3
*D11
  1

  0
TEXT
  5
150
  8
0
 62
     0
 10
1057.6011283687001
 20
-409.8612317571999
 30
0.0
 40
0.5397499919
  1
3
  0
LINE
  5
151
  8
0
 62
     0
 10
1056.2598783664
 20
-407.73633611389988
 30
0.0
 11
1056.2598783664
 21
-410.55648176469998
 31
0.0
  0
LINE
  5
152
  8
0
 62
     0
 10
1059.2598783664
 20
-407.07975260419988
 30
0.0
 11
1059.2598783664
 21
-410.55648176469998
 31
0.0
  0
LINE
  5
153
  8
0
 62
     0
 10
1056.2598783664
 20
-410.15648175879988
 30
0.0
 11
1058.2361283591999
 21
-410.15648175879988
 31
0.0
  0
LINE
  5
154
  8
0
 62
     0
 10
1056.2598783664
 20
-410.15648175879988
 30
0.0
 11
1057.2836283735001
 21
-410.15648175879988
 31
0.0
  0
LINE
  5
155
  8
0
 62
     0
 10
1059.2598783664
 20
-410.15648175879988
 30
0.0
 11
1058.2361283591999
 21
-410.15648175879988
 31
0.0
  0
LINE
  5
156
  8
0
 62
     0
 10
1059.2598783664
 20
-410.15648175879988
 30
0.0
 11
1057.2836283735001
 21
-410.15648175879988
 31
0.0
  0
LINE
  5
157
  8
0
 62
     0
 10
1059.2598783664
 20
-410.15648175879988
 30
0.0
 11
1058.2598783664
 21
-410.15648175879988
 31
0.0
  0
SOLID
  5
158
  8
0
 62
     0
 10
1059.2598783664
 20
-410.15648175879988
 30
0.0
 11
1058.6598452619
 21
-410.31726014709989
 31
0.0
 12
1058.6598452619
 22
-409.99570337040001
 32
0.0
 13
1058.809853538
 23
-410.15648175879988
 33
0.0
  0
LINE
  5
159
  8
0
 62
     0
 10
1056.2598783664
 20
-410.15648175879988
 30
0.0
 11
1057.2598783664
 21
-410.15648175879988
 31
0.0
  0
SOLID
  5
15A
  8
0
 62
     0
 10
1056.2598783664
 20
-410.15648175879988
 30
0.0
 11
1056.8599114707999
 21
-409.99570337040001
 31
0.0
 12
1056.8599114707999
 22
-410.31726014709989
 32
0.0
 13
1056.7099031947
 23
-410.15648175879988
 33
0.0
  0
ENDBLK
  5
15B
  8
0
  0
BLOCK
  8
0
  2
*D12
 70
     1
 10
0.0
 20
0.0
 30
0.0
  3
*D12
  1

  0
TEXT
  5
18A
  8
0
 62
     0
 10
880.35390629769995
 20
-431.90727865299999
 30
0.0
 40
2.6987499594999989
  1
1820
  0
LINE
  5
18B
  8
0
 62
     0
 10
733.52890624999998
 20
-409.47975260419992
 30
0.0
 11
733.52890624999998
 21
-435.38352864580003
 31
0.0
  0
LINE
  5
18C
  8
0
 62
     0
 10
1033.5289062500001
 20
-409.47975260419992
 30
0.0
 11
1033.5289062500001
 21
-435.38352864580003
 31
0.0
  0
LINE
  5
18D
  8
0
 62
     0
 10
733.52890624999998
 20
-433.38352864580003
 30
0.0
 11
888.2914061785001
 21
-433.38352864580003
 31
0.0
  0
LINE
  5
18E
  8
0
 62
     0
 10
733.52890624999998
 20
-433.38352864580003
 30
0.0
 11
878.76640632149997
 21
-433.38352864580003
 31
0.0
  0
LINE
  5
18F
  8
0
 62
     0
 10
1033.5289062500001
 20
-433.38352864580003
 30
0.0
 11
888.2914061785001
 21
-433.38352864580003
 31
0.0
  0
LINE
  5
190
  8
0
 62
     0
 10
1033.5289062500001
 20
-433.38352864580003
 30
0.0
 11
878.76640632149997
 21
-433.38352864580003
 31
0.0
  0
LINE
  5
191
  8
0
 62
     0
 10
1033.5289062500001
 20
-433.38352864580003
 30
0.0
 11
1028.5289062500001
 21
-433.38352864580003
 31
0.0
  0
SOLID
  5
192
  8
0
 62
     0
 10
1033.5289062500001
 20
-433.38352864580003
 30
0.0
 11
1030.5287405490999
 21
-434.18742060260001
 31
0.0
 12
1030.5287405490999
 22
-432.57963668899998
 32
0.0
 13
1031.2787819743
 23
-433.38352864580003
 33
0.0
  0
LINE
  5
193
  8
0
 62
     0
 10
733.52890624999998
 20
-433.38352864580003
 30
0.0
 11
738.52890624999998
 21
-433.38352864580003
 31
0.0
  0
SOLID
  5
194
  8
0
 62
     0
 10
733.52890624999998
 20
-433.38352864580003
 30
0.0
 11
736.52907195089995
 21
-432.57963668899998
 31
0.0
 12
736.52907195089995
 22
-434.18742060260001
 32
0.0
 13
735.77903052570002
 23
-433.38352864580003
 33
0.0
  0
ENDBLK
  5
195
  8
0
  0
BLOCK
  8
0
  2
*D13
 70
     1
 10
0.0
 20
0.0
 30
0.0
  3
*D13
  1

  0
TEXT
  5
199
  8
0
 62
     0
 10
1045.4998561395
 20
-406.6110025683999
 30
0.0
 40
2.6987499594999989
  1
8.7
 50
90.0
  0
LINE
  5
19A
  8
0
 62
     0
 10
1055.9761061324
 20
-399.87975260420001
 30
0.0
 11
1044.9761061324
 21
-399.87975260420001
 31
0.0
  0
LINE
  5
19B
  8
0
 62
     0
 10
1055.9761061324
 20
-408.57975260419988
 30
0.0
 11
1044.9761061324
 21
-408.57975260419988
 31
0.0
  0
LINE
  5
19C
  8
0
 62
     0
 10
1046.9761061324
 20
-399.87975260420001
 30
0.0
 11
1046.9761061324
 21
-400.26100266380001
 31
0.0
  0
LINE
  5
19D
  8
0
 62
     0
 10
1046.9761061324
 20
-399.87975260420001
 30
0.0
 11
1046.9761061324
 21
-408.19850254459999
 31
0.0
  0
LINE
  5
19E
  8
0
 62
     0
 10
1046.9761061324
 20
-408.57975260419988
 30
0.0
 11
1046.9761061324
 21
-400.26100266380001
 31
0.0
  0
LINE
  5
19F
  8
0
 62
     0
 10
1046.9761061324
 20
-408.57975260419988
 30
0.0
 11
1046.9761061324
 21
-408.19850254459999
 31
0.0
  0
LINE
  5
1A0
  8
0
 62
     0
 10
1046.9761061324
 20
-408.57975260419988
 30
0.0
 11
1046.9761061324
 21
-413.5797526042
 31
0.0
  0
SOLID
  5
1A1
  8
0
 62
     0
 10
1046.9761061324
 20
-408.57975260419988
 30
0.0
 11
1047.7799980892
 21
-411.57991830510002
 31
0.0
 12
1046.1722141755999
 22
-411.57991830510002
 32
0.0
 13
1046.9761061324
 23
-410.82987687989998
 33
0.0
  0
LINE
  5
1A2
  8
0
 62
     0
 10
1046.9761061324
 20
-399.87975260420001
 30
0.0
 11
1046.9761061324
 21
-394.87975260420001
 31
0.0
  0
SOLID
  5
1A3
  8
0
 62
     0
 10
1046.9761061324
 20
-399.87975260420001
 30
0.0
 11
1046.1722141755999
 21
-396.87958690329998
 31
0.0
 12
1047.7799980892
 22
-396.87958690329998
 32
0.0
 13
1046.9761061324
 23
-397.62962832850002
 33
0.0
  0
ENDBLK
  5
1A4
  8
0
  0
BLOCK
  8
0
  2
*D14
 70
     1
 10
0.0
 20
0.0
 30
0.0
  3
*D14
  1

  0
TEXT
  5
1A8
  8
0
 62
     0
 10
1059.6011283687001
 20
-409.8612317571999
 30
0.0
 40
0.5397499919
  1
1
  0
LINE
  5
1A9
  8
0
 62
     0
 10
1059.2598783664
 20
-407.07975260419988
 30
0.0
 11
1059.2598783664
 21
-410.55648176469998
 31
0.0
  0
LINE
  5
1AA
  8
0
 62
     0
 10
1060.2598783664
 20
-407.1797526041999
 30
0.0
 11
1060.2598783664
 21
-410.55648176469998
 31
0.0
  0
LINE
  5
1AB
  8
0
 62
     0
 10
1059.2598783664
 20
-410.15648175879988
 30
0.0
 11
1060.2361283591999
 21
-410.15648175879988
 31
0.0
  0
LINE
  5
1AC
  8
0
 62
     0
 10
1059.2598783664
 20
-410.15648175879988
 30
0.0
 11
1059.2836283735001
 21
-410.15648175879988
 31
0.0
  0
LINE
  5
1AD
  8
0
 62
     0
 10
1060.2598783664
 20
-410.15648175879988
 30
0.0
 11
1060.2361283591999
 21
-410.15648175879988
 31
0.0
  0
LINE
  5
1AE
  8
0
 62
     0
 10
1060.2598783664
 20
-410.15648175879988
 30
0.0
 11
1059.2836283735001
 21
-410.15648175879988
 31
0.0
  0
LINE
  5
1AF
  8
0
 62
     0
 10
1060.2598783664
 20
-410.15648175879988
 30
0.0
 11
1061.2598783664
 21
-410.15648175879988
 31
0.0
  0
SOLID
  5
1B0
  8
0
 62
     0
 10
1060.2598783664
 20
-410.15648175879988
 30
0.0
 11
1060.8599114707999
 21
-409.99570337040001
 31
0.0
 12
1060.8599114707999
 22
-410.31726014709989
 32
0.0
 13
1060.7099031947
 23
-410.15648175879988
 33
0.0
  0
LINE
  5
1B1
  8
0
 62
     0
 10
1059.2598783664
 20
-410.15648175879988
 30
0.0
 11
1058.2598783664
 21
-410.15648175879988
 31
0.0
  0
SOLID
  5
1B2
  8
0
 62
     0
 10
1059.2598783664
 20
-410.15648175879988
 30
0.0
 11
1058.6598452619
 21
-410.31726014709989
 31
0.0
 12
1058.6598452619
 22
-409.99570337040001
 32
0.0
 13
1058.809853538
 23
-410.15648175879988
 33
0.0
  0
ENDBLK
  5
1B3
  8
0
  0
BLOCK
  8
0
  2
*D15
 70
     1
 10
0.0
 20
0.0
 30
0.0
  3
*D15
  1

  0
TEXT
  5
1D5
  8
0
 62
     0
 10
741.9414062738
 20
-373.85141985349998
 30
0.0
 40
2.6987499594999989
  1
20
  0
LINE
  5
1D6
  8
0
 62
     0
 10
753.52890624999986
 20
-397.23735116649999
 30
0.0
 11
753.52890624999986
 21
-373.3276698462999
 31
0.0
  0
LINE
  5
1D7
  8
0
 62
     0
 10
733.52890624999998
 20
-398.77975260419998
 30
0.0
 11
733.52890624999998
 21
-373.3276698462999
 31
0.0
  0
LINE
  5
1D8
  8
0
 62
     0
 10
753.52890624999986
 20
-375.3276698462999
 30
0.0
 11
746.70390620229989
 21
-375.3276698462999
 31
0.0
  0
LINE
  5
1D9
  8
0
 62
     0
 10
753.52890624999986
 20
-375.3276698462999
 30
0.0
 11
740.35390629769995
 21
-375.3276698462999
 31
0.0
  0
LINE
  5
1DA
  8
0
 62
     0
 10
733.52890624999998
 20
-375.3276698462999
 30
0.0
 11
746.70390620229989
 21
-375.3276698462999
 31
0.0
  0
LINE
  5
1DB
  8
0
 62
     0
 10
733.52890624999998
 20
-375.3276698462999
 30
0.0
 11
740.35390629769995
 21
-375.3276698462999
 31
0.0
  0
LINE
  5
1DC
  8
0
 62
     0
 10
733.52890624999998
 20
-375.3276698462999
 30
0.0
 11
738.52890624999998
 21
-375.3276698462999
 31
0.0
  0
SOLID
  5
1DD
  8
0
 62
     0
 10
733.52890624999998
 20
-375.3276698462999
 30
0.0
 11
736.52907195089995
 21
-374.52377788949991
 31
0.0
 12
736.52907195089995
 22
-376.1315618031
 32
0.0
 13
735.77903052570002
 23
-375.3276698462999
 33
0.0
  0
LINE
  5
1DE
  8
0
 62
     0
 10
753.52890624999986
 20
-375.3276698462999
 30
0.0
 11
748.52890624999986
 21
-375.3276698462999
 31
0.0
  0
SOLID
  5
1DF
  8
0
 62
     0
 10
753.52890624999986
 20
-375.3276698462999
 30
0.0
 11
750.52874054909989
 21
-376.1315618031
 31
0.0
 12
750.52874054909989
 22
-374.52377788949991
 32
0.0
 13
751.27878197429993
 23
-375.3276698462999
 33
0.0
  0
ENDBLK
  5
1E0
  8
0
  0
BLOCK
  8
0
  2
*D16
 70
     1
 10
0.0
 20
0.0
 30
0.0
  3
*D16
  1

  0
TEXT
  5
1FB
  8
0
 62
     0
 10
1021.9414062738
 20
-373.85141985349998
 30
0.0
 40
2.6987499594999989
  1
20
  0
LINE
  5
1FC
  8
0
 62
     0
 10
1033.5289062500001
 20
-398.77975260419998
 30
0.0
 11
1033.5289062500001
 21
-373.3276698462999
 31
0.0
  0
LINE
  5
1FD
  8
0
 62
     0
 10
1013.52890625
 20
-397.23735116649999
 30
0.0
 11
1013.52890625
 21
-373.3276698462999
 31
0.0
  0
LINE
  5
1FE
  8
0
 62
     0
 10
1033.5289062500001
 20
-375.3276698462999
 30
0.0
 11
1026.7039062023
 21
-375.3276698462999
 31
0.0
  0
LINE
  5
1FF
  8
0
 62
     0
 10
1033.5289062500001
 20
-375.3276698462999
 30
0.0
 11
1020.3539062977
 21
-375.3276698462999
 31
0.0
  0
LINE
  5
200
  8
0
 62
     0
 10
1013.52890625
 20
-375.3276698462999
 30
0.0
 11
1026.7039062023
 21
-375.3276698462999
 31
0.0
  0
LINE
  5
201
  8
0
 62
     0
 10
1013.52890625
 20
-375.3276698462999
 30
0.0
 11
1020.3539062977
 21
-375.3276698462999
 31
0.0
  0
LINE
  5
202
  8
0
 62
     0
 10
1013.52890625
 20
-375.3276698462999
 30
0.0
 11
1018.52890625
 21
-375.3276698462999
 31
0.0
  0
SOLID
  5
203
  8
0
 62
     0
 10
1013.52890625
 20
-375.3276698462999
 30
0.0
 11
1016.5290719508999
 21
-374.52377788949991
 31
0.0
 12
1016.5290719508999
 22
-376.1315618031
 32
0.0
 13
1015.7790305257
 23
-375.3276698462999
 33
0.0
  0
LINE
  5
204
  8
0
 62
     0
 10
1033.5289062500001
 20
-375.3276698462999
 30
0.0
 11
1028.5289062500001
 21
-375.3276698462999
 31
0.0
  0
SOLID
  5
205
  8
0
 62
     0
 10
1033.5289062500001
 20
-375.3276698462999
 30
0.0
 11
1030.5287405490999
 21
-376.1315618031
 31
0.0
 12
1030.5287405490999
 22
-374.52377788949991
 32
0.0
 13
1031.2787819743
 23
-375.3276698462999
 33
0.0
  0
ENDBLK
  5
206
  8
0
  0
BLOCK
  8
0
  2
*D17
 70
     1
 10
0.0
 20
0.0
 30
0.0
  3
*D17
  1

  0
TEXT
  5
21F
  8
0
 62
     0
 10
877.97265633339998
 20
-373.85141985349998
 30
0.0
 40
2.6987499594999989
  1
P=20x89
  0
LINE
  5
220
  8
0
 62
     0
 10
1013.52890625
 20
-397.23735116649999
 30
0.0
 11
1013.52890625
 21
-373.3276698462999
 31
0.0
  0
LINE
  5
221
  8
0
 62
     0
 10
753.52890624999986
 20
-397.23735116649999
 30
0.0
 11
753.52890624999986
 21
-373.3276698462999
 31
0.0
  0
LINE
  5
222
  8
0
 62
     0
 10
1013.52890625
 20
-375.3276698462999
 30
0.0
 11
890.67265614269991
 21
-375.3276698462999
 31
0.0
  0
LINE
  5
223
  8
0
 62
     0
 10
1013.52890625
 20
-375.3276698462999
 30
0.0
 11
876.38515635729982
 21
-375.3276698462999
 31
0.0
  0
LINE
  5
224
  8
0
 62
     0
 10
753.52890624999986
 20
-375.3276698462999
 30
0.0
 11
890.67265614269991
 21
-375.3276698462999
 31
0.0
  0
LINE
  5
225
  8
0
 62
     0
 10
753.52890624999986
 20
-375.3276698462999
 30
0.0
 11
876.38515635729982
 21
-375.3276698462999
 31
0.0
  0
LINE
  5
226
  8
0
 62
     0
 10
753.52890624999986
 20
-375.3276698462999
 30
0.0
 11
758.52890624999998
 21
-375.3276698462999
 31
0.0
  0
SOLID
  5
227
  8
0
 62
     0
 10
753.52890624999986
 20
-375.3276698462999
 30
0.0
 11
756.52907195089995
 21
-374.52377788949991
 31
0.0
 12
756.52907195089995
 22
-376.1315618031
 32
0.0
 13
755.77903052570002
 23
-375.3276698462999
 33
0.0
  0
LINE
  5
228
  8
0
 62
     0
 10
1013.52890625
 20
-375.3276698462999
 30
0.0
 11
1008.52890625
 21
-375.3276698462999
 31
0.0
  0
SOLID
  5
229
  8
0
 62
     0
 10
1013.52890625
 20
-375.3276698462999
 30
0.0
 11
1010.5287405491
 21
-376.1315618031
 31
0.0
 12
1010.5287405491
 22
-374.52377788949991
 32
0.0
 13
1011.2787819743
 23
-375.3276698462999
 33
0.0
  0
ENDBLK
  5
22A
  8
0
  0
BLOCK
  8
0
  2
*D18
 70
     1
 10
0.0
 20
0.0
 30
0.0
  3
*D18
  1

  0
TEXT
  5
22E
  8
0
 62
     0
 10
779.14818272460002
 20
-412.86340396079999
 30
0.0
 40
0.899583286
  1
20
  0
LINE
  5
22F
  8
0
 62
     0
 10
773.52890624999986
 20
-411.02215404179998
 30
0.0
 11
773.52890624999986
 21
-414.02215398219988
 31
0.0
  0
LINE
  5
230
  8
0
 62
     0
 10
783.52890624999998
 20
-411.02215404179998
 30
0.0
 11
783.52890624999998
 21
-414.02215398219988
 31
0.0
  0
LINE
  5
231
  8
0
 62
     0
 10
773.52890624999986
 20
-413.35548729570002
 30
0.0
 11
780.73568264119979
 21
-413.35548729570002
 31
0.0
  0
LINE
  5
232
  8
0
 62
     0
 10
773.52890624999986
 20
-413.35548729570002
 30
0.0
 11
778.61901608580001
 21
-413.35548729570002
 31
0.0
  0
LINE
  5
233
  8
0
 62
     0
 10
783.52890624999998
 20
-413.35548729570002
 30
0.0
 11
780.73568264119979
 21
-413.35548729570002
 31
0.0
  0
LINE
  5
234
  8
0
 62
     0
 10
783.52890624999998
 20
-413.35548729570002
 30
0.0
 11
778.61901608580001
 21
-413.35548729570002
 31
0.0
  0
LINE
  5
235
  8
0
 62
     0
 10
783.52890624999998
 20
-413.35548729570002
 30
0.0
 11
781.86223962309998
 21
-413.35548729570002
 31
0.0
  0
SOLID
  5
236
  8
0
 62
     0
 10
783.52890624999998
 20
-413.35548729570002
 30
0.0
 11
782.52885105610005
 21
-413.62345127139997
 31
0.0
 12
782.52885105610005
 22
-413.08752332
 32
0.0
 13
782.77886485459999
 23
-413.35548729570002
 33
0.0
  0
LINE
  5
237
  8
0
 62
     0
 10
773.52890624999986
 20
-413.35548729570002
 30
0.0
 11
775.19557287689986
 21
-413.35548729570002
 31
0.0
  0
SOLID
  5
238
  8
0
 62
     0
 10
773.52890624999986
 20
-413.35548729570002
 30
0.0
 11
774.52896144390002
 21
-413.08752332
 31
0.0
 12
774.52896144390002
 22
-413.62345127139997
 32
0.0
 13
774.27894764539985
 23
-413.35548729570002
 33
0.0
  0
ENDBLK
  5
239
  8
0
  0
BLOCK
  8
0
  2
*D19
 70
     1
 10
0.0
 20
0.0
 30
0.0
  3
*D19
  1

  0
TEXT
  5
23D
  8
0
 62
     0
 10
772.73515629170004
 20
-392.42030133409997
 30
0.0
 40
0.899583286
  1
3.5
  0
LINE
  5
23E
  8
0
 62
     0
 10
775.27890624999986
 20
-401.32975260419988
 30
0.0
 11
775.27890624999986
 21
-392.24571798250003
 31
0.0
  0
LINE
  5
23F
  8
0
 62
     0
 10
771.77890624999986
 20
-401.32975260419988
 30
0.0
 11
771.77890624999986
 21
-392.24571798250003
 31
0.0
  0
LINE
  5
240
  8
0
 62
     0
 10
775.27890624999986
 20
-392.91238466900001
 30
0.0
 11
774.85182284710004
 21
-392.91238466900001
 31
0.0
  0
LINE
  5
241
  8
0
 62
     0
 10
775.27890624999986
 20
-392.91238466900001
 30
0.0
 11
772.20598965289992
 21
-392.91238466900001
 31
0.0
  0
LINE
  5
242
  8
0
 62
     0
 10
771.77890624999986
 20
-392.91238466900001
 30
0.0
 11
774.85182284710004
 21
-392.91238466900001
 31
0.0
  0
LINE
  5
243
  8
0
 62
     0
 10
771.77890624999986
 20
-392.91238466900001
 30
0.0
 11
772.20598965289992
 21
-392.91238466900001
 31
0.0
  0
LINE
  5
244
  8
0
 62
     0
 10
771.77890624999986
 20
-392.91238466900001
 30
0.0
 11
770.11223962309987
 21
-392.91238466900001
 31
0.0
  0
SOLID
  5
245
  8
0
 62
     0
 10
771.77890624999986
 20
-392.91238466900001
 30
0.0
 11
770.77885105610005
 21
-393.18034864470002
 31
0.0
 12
770.77885105610005
 22
-392.64442069329999
 32
0.0
 13
771.0288648546001
 23
-392.91238466900001
 33
0.0
  0
LINE
  5
246
  8
0
 62
     0
 10
775.27890624999986
 20
-392.91238466900001
 30
0.0
 11
776.94557287689986
 21
-392.91238466900001
 31
0.0
  0
SOLID
  5
247
  8
0
 62
     0
 10
775.27890624999986
 20
-392.91238466900001
 30
0.0
 11
776.27896144390002
 21
-392.64442069329999
 31
0.0
 12
776.27896144390002
 22
-393.18034864470002
 32
0.0
 13
776.02894764539997
 23
-392.91238466900001
 33
0.0
  0
ENDBLK
  5
248
  8
0
  0
BLOCK
  8
0
  2
*D20
 70
     1
 10
0.0
 20
0.0
 30
0.0
  3
*D20
  1

  0
TEXT
  5
24C
  8
0
 62
     0
 10
762.99973961110004
 20
-412.86340396079999
 30
0.0
 40
0.899583286
  1
20
  0
LINE
  5
24D
  8
0
 62
     0
 10
753.52890624999986
 20
-411.02215404179998
 30
0.0
 11
753.52890624999986
 21
-414.02215398219988
 31
0.0
  0
LINE
  5
24E
  8
0
 62
     0
 10
773.52890624999986
 20
-411.02215404179998
 30
0.0
 11
773.52890624999986
 21
-414.02215398219988
 31
0.0
  0
LINE
  5
24F
  8
0
 62
     0
 10
753.52890624999986
 20
-413.35548729570002
 30
0.0
 11
764.58723952770004
 21
-413.35548729570002
 31
0.0
  0
LINE
  5
250
  8
0
 62
     0
 10
753.52890624999986
 20
-413.35548729570002
 30
0.0
 11
762.47057297229981
 21
-413.35548729570002
 31
0.0
  0
LINE
  5
251
  8
0
 62
     0
 10
773.52890624999986
 20
-413.35548729570002
 30
0.0
 11
764.58723952770004
 21
-413.35548729570002
 31
0.0
  0
LINE
  5
252
  8
0
 62
     0
 10
773.52890624999986
 20
-413.35548729570002
 30
0.0
 11
762.47057297229981
 21
-413.35548729570002
 31
0.0
  0
LINE
  5
253
  8
0
 62
     0
 10
773.52890624999986
 20
-413.35548729570002
 30
0.0
 11
771.86223962309987
 21
-413.35548729570002
 31
0.0
  0
SOLID
  5
254
  8
0
 62
     0
 10
773.52890624999986
 20
-413.35548729570002
 30
0.0
 11
772.52885105610005
 21
-413.62345127139997
 31
0.0
 12
772.52885105610005
 22
-413.08752332
 32
0.0
 13
772.7788648546001
 23
-413.35548729570002
 33
0.0
  0
LINE
  5
255
  8
0
 62
     0
 10
753.52890624999986
 20
-413.35548729570002
 30
0.0
 11
755.19557287689997
 21
-413.35548729570002
 31
0.0
  0
SOLID
  5
256
  8
0
 62
     0
 10
753.52890624999986
 20
-413.35548729570002
 30
0.0
 11
754.52896144390002
 21
-413.08752332
 31
0.0
 12
754.52896144390002
 22
-413.62345127139997
 32
0.0
 13
754.27894764539985
 23
-413.35548729570002
 33
0.0
  0
ENDBLK
  5
257
  8
0
  0
BLOCK
  8
0
  2
*D21
 70
     1
 10
0.0
 20
0.0
 30
0.0
  3
*D21
  1

  0
TEXT
  5
25B
  8
0
 62
     0
 10
742.99973961110004
 20
-412.86340396079999
 30
0.0
 40
0.899583286
  1
20
  0
LINE
  5
25C
  8
0
 62
     0
 10
733.52890624999998
 20
-409.47975260419992
 30
0.0
 11
733.52890624999998
 21
-414.02215398219988
 31
0.0
  0
LINE
  5
25D
  8
0
 62
     0
 10
753.52890624999986
 20
-411.02215404179998
 30
0.0
 11
753.52890624999986
 21
-414.02215398219988
 31
0.0
  0
LINE
  5
25E
  8
0
 62
     0
 10
733.52890624999998
 20
-413.35548729570002
 30
0.0
 11
744.58723952770004
 21
-413.35548729570002
 31
0.0
  0
LINE
  5
25F
  8
0
 62
     0
 10
733.52890624999998
 20
-413.35548729570002
 30
0.0
 11
742.47057297229992
 21
-413.35548729570002
 31
0.0
  0
LINE
  5
260
  8
0
 62
     0
 10
753.52890624999986
 20
-413.35548729570002
 30
0.0
 11
744.58723952770004
 21
-413.35548729570002
 31
0.0
  0
LINE
  5
261
  8
0
 62
     0
 10
753.52890624999986
 20
-413.35548729570002
 30
0.0
 11
742.47057297229992
 21
-413.35548729570002
 31
0.0
  0
LINE
  5
262
  8
0
 62
     0
 10
753.52890624999986
 20
-413.35548729570002
 30
0.0
 11
751.86223962309987
 21
-413.35548729570002
 31
0.0
  0
SOLID
  5
263
  8
0
 62
     0
 10
753.52890624999986
 20
-413.35548729570002
 30
0.0
 11
752.52885105610005
 21
-413.62345127139997
 31
0.0
 12
752.52885105610005
 22
-413.08752332
 32
0.0
 13
752.7788648546001
 23
-413.35548729570002
 33
0.0
  0
LINE
  5
264
  8
0
 62
     0
 10
733.52890624999998
 20
-413.35548729570002
 30
0.0
 11
735.19557287689997
 21
-413.35548729570002
 31
0.0
  0
SOLID
  5
265
  8
0
 62
     0
 10
733.52890624999998
 20
-413.35548729570002
 30
0.0
 11
734.52896144390002
 21
-413.08752332
 31
0.0
 12
734.52896144390002
 22
-413.62345127139997
 32
0.0
 13
734.27894764539985
 23
-413.35548729570002
 33
0.0
  0
ENDBLK
  5
266
  8
0
  0
BLOCK
  8
0
  2
*D22
 70
     1
 10
0.0
 20
0.0
 30
0.0
  3
*D22
  1

  0
TEXT
  5
26A
  8
0
 62
     0
 10
752.73515629170004
 20
-392.42030133409997
 30
0.0
 40
0.899583286
  1
3.5
  0
LINE
  5
26B
  8
0
 62
     0
 10
755.27890624999986
 20
-401.32975260419988
 30
0.0
 11
755.27890624999986
 21
-392.24571798250003
 31
0.0
  0
LINE
  5
26C
  8
0
 62
     0
 10
751.77890624999998
 20
-401.32975260419988
 30
0.0
 11
751.77890624999998
 21
-392.24571798250003
 31
0.0
  0
LINE
  5
26D
  8
0
 62
     0
 10
755.27890624999986
 20
-392.91238466900001
 30
0.0
 11
754.85182284710004
 21
-392.91238466900001
 31
0.0
  0
LINE
  5
26E
  8
0
 62
     0
 10
755.27890624999986
 20
-392.91238466900001
 30
0.0
 11
752.20598965289992
 21
-392.91238466900001
 31
0.0
  0
LINE
  5
26F
  8
0
 62
     0
 10
751.77890624999998
 20
-392.91238466900001
 30
0.0
 11
754.85182284710004
 21
-392.91238466900001
 31
0.0
  0
LINE
  5
270
  8
0
 62
     0
 10
751.77890624999998
 20
-392.91238466900001
 30
0.0
 11
752.20598965289992
 21
-392.91238466900001
 31
0.0
  0
LINE
  5
271
  8
0
 62
     0
 10
751.77890624999998
 20
-392.91238466900001
 30
0.0
 11
750.11223962309987
 21
-392.91238466900001
 31
0.0
  0
SOLID
  5
272
  8
0
 62
     0
 10
751.77890624999998
 20
-392.91238466900001
 30
0.0
 11
750.77885105610005
 21
-393.18034864470002
 31
0.0
 12
750.77885105610005
 22
-392.64442069329999
 32
0.0
 13
751.02886485459999
 23
-392.91238466900001
 33
0.0
  0
LINE
  5
273
  8
0
 62
     0
 10
755.27890624999986
 20
-392.91238466900001
 30
0.0
 11
756.94557287689997
 21
-392.91238466900001
 31
0.0
  0
SOLID
  5
274
  8
0
 62
     0
 10
755.27890624999986
 20
-392.91238466900001
 30
0.0
 11
756.27896144390002
 21
-392.64442069329999
 31
0.0
 12
756.27896144390002
 22
-393.18034864470002
 32
0.0
 13
756.02894764539985
 23
-392.91238466900001
 33
0.0
  0
ENDBLK
  5
275
  8
0
  0
BLOCK
  8
0
  2
*U23
 70
     1
 10
0.0
 20
0.0
 30
0.0
  3
*U23
  1

  0
TEXT
  5
307
  8
┌▓È_1
  6
CONTINUOUS
 10
775.04339192709995
 20
-386.37430336469998
 30
0.0
 40
4.1980556725999989
  1
é`
  0
ENDBLK
  5
309
  8
0
  0
BLOCK
  8
0
  2
*U24
 70
     1
 10
0.0
 20
0.0
 30
0.0
  3
*U24
  1

  0
TEXT
  5
30B
  8
┌▓È_1
  6
CONTINUOUS
 10
775.04339192709995
 20
-426.0369986771999
 30
0.0
 40
4.1980556725999989
  1
é`
  0
ENDBLK
  5
30D
  8
0
  0
BLOCK
  8
0
  2
*U25
 70
     1
 10
0.0
 20
0.0
 30
0.0
  3
*U25
  1

  0
TEXT
  5
30F
  8
┌▓È_1
  6
CONTINUOUS
 62
     5
 10
961.6971857237794
 20
-487.48892383671779
 30
0.0
 40
4.1980556725999989
  1
ìÌü@ü@Ä┐ü@üFâAâïâ~ëƒÅoéÁìÌü@é`6063ér-és5
  0
TEXT
  5
310
  8
┌▓È_1
  6
CONTINUOUS
 62
     5
 10
961.6971857237794
 20
-501.67423209083319
 30
0.0
 40
4.1980556725999989
  1
ò\ü@û╩ü@ÉFüFLA-601ü@ü@ü@âVâïâoü[
  0
TEXT
  5
311
  8
┌▓È_1
  6
CONTINUOUS
 62
     5
 10
961.6971857237794
 20
-516.09394954494155
 30
0.0
 40
4.1980556725999989
  1
ü@ü@ü@ü@ü@ü@LA-602ü@ü@ü@âuâëâbâN
  0
TEXT
  5
312
  8
┌▓È_1
  6
CONTINUOUS
 62
     5
 10
961.6971857237794
 20
-530.51366699904975
 30
0.0
 40
4.1980556725999989
  1
ü@ü@ü@ü@ü@ü@LA-603ü@ü@ü@âuâìâôâY
  0
TEXT
  5
313
  8
┌▓È_1
  6
CONTINUOUS
 62
     5
 10
961.6971857237794
 20
-544.5924256168048
 30
0.0
 40
4.1980556725999989
  1
ü@ü@ü@ü@ü@ü@LA-604ü@ü@ü@âzâÅâCâg
  0
TEXT
  5
314
  8
┌▓È_1
  6
CONTINUOUS
 62
     5
 10
961.6971857237794
 20
-558.84166365273643
 30
0.0
 40
4.1980556725999989
  1
ü@ü@ü@ü@ü@ü@LA-605ü@ü@ü@âVâââôâpâôâSü[âïâh
  0
ENDBLK
  5
316
  8
0
  0
BLOCK
  8
0
  2
*U26
 70
     1
 10
0.0
 20
0.0
 30
0.0
  3
*U26
  1

  0
TEXT
  5
318
  8
┌▓È_1
  6
CONTINUOUS
 10
803.95945638020009
 20
-573.69265521014859
 30
0.0
 40
4.1980556725999989
  1
é`-é`ègæÕÆfû╩
  0
ENDBLK
  5
31A
  8
0
  0
BLOCK
  8
0
  2
*U27
 70
     1
 10
0.0
 20
0.0
 30
0.0
  3
*U27
  1

  0
TEXT
  5
31C
  8
┌▓È_1
  6
CONTINUOUS
 62
     5
 10
1025.9648083728509
 20
-597.81708836819996
 30
0.0
 40
2.6987499594999989
  1
1üF1
  0
ENDBLK
  5
31E
  8
0
  0
BLOCK
  8
0
  2
*U28
 70
     1
 10
0.0
 20
0.0
 30
0.0
  3
*U28
  1

  0
TEXT
  5
320
  8
┌▓È_1
  6
CONTINUOUS
 10
1040.3832858869
 20
-591.54963458122893
 30
0.0
 40
2.9986110209999999
  1
òiû╝
  0
ENDBLK
  5
322
  8
0
  0
BLOCK
  8
0
  2
*U29
 70
     1
 10
0.0
 20
0.0
 30
0.0
  3
*U29
  1

  0
TEXT
  5
324
  8
┌▓È_1
  6
CONTINUOUS
 10
1040.3832858869
 20
-602.52288773614669
 30
0.0
 40
2.9986110209999999
  1
É}öÈ
  0
ENDBLK
  5
326
  8
0
  0
BLOCK
  8
0
  2
*U30
 70
     1
 10
0.0
 20
0.0
 30
0.0
  3
*U30
  1

  0
TEXT
  5
328
  8
┌▓È_1
  6
CONTINUOUS
 10
1022.1587544897
 20
-581.02232618045207
 30
0.0
 40
2.9986110209999999
  1
ö┬   î·
  0
ENDBLK
  5
32A
  8
0
  0
BLOCK
  8
0
  2
*U31
 70
     1
 10
0.0
 20
0.0
 30
0.0
  3
*U31
  1

  0
TEXT
  5
32C
  8
┌▓È_1
  6
CONTINUOUS
 10
1022.4511932797
 20
-592.23205695531124
 30
0.0
 40
2.9986110209999999
  1
Ä┌   ôx
  0
ENDBLK
  5
32E
  8
0
  0
BLOCK
  8
0
  2
*U32
 70
     1
 10
0.0
 20
0.0
 30
0.0
  3
*U32
  1

  0
TEXT
  5
330
  8
┌▓È_1
  6
CONTINUOUS
 10
1040.6892950665999
 20
-580.64230874114673
 30
0.0
 40
2.9986110209999999
  1
òiöÈ
  0
ENDBLK
  5
332
  8
0
  0
BLOCK
  8
0
  2
*U33
 70
     1
 10
0.0
 20
0.0
 30
0.0
  3
*U33
  1

  0
TEXT
  5
334
  8
┌▓È_1
  6
CONTINUOUS
 62
     5
 10
962.27286363130145
 20
-586.67220601559995
 30
0.0
 40
2.6987499594999989
  1
H15.6.20
  0
ENDBLK
  5
336
  8
0
  0
BLOCK
  8
0
  2
*U34
 70
     1
 10
0.0
 20
0.0
 30
0.0
  3
*U34
  1

  0
TEXT
  5
338
  8
┌▓È_1
  6
CONTINUOUS
 10
984.38026041670014
 20
-597.25534060140546
 30
0.0
 40
2.9986110209999999
  1
ëÇî┤
  0
ENDBLK
  5
33A
  8
0
  0
BLOCK
  8
0
  2
*U35
 70
     1
 10
0.0
 20
0.0
 30
0.0
  3
*U35
  1

  0
TEXT
  5
33C
  8
┌▓È_1
  6
CONTINUOUS
 10
982.41833782299989
 20
-580.86101828021106
 30
0.0
 40
2.9986110209999999
  1
ê§   Éö
  0
ENDBLK
  5
33E
  8
0
  0
BLOCK
  8
0
  2
*U36
 70
     1
 10
0.0
 20
0.0
 30
0.0
  3
*U36
  1

  0
TEXT
  5
340
  8
┌▓È_1
  6
CONTINUOUS
 10
962.31000448969985
 20
-580.61205694386445
 30
0.0
 40
2.9986110209999999
  1
ô·   òt
  0
ENDBLK
  5
342
  8
0
  0
BLOCK
  8
0
  2
*U37
 70
     1
 10
0.0
 20
0.0
 30
0.0
  3
*U37
  1

  0
TEXT
  5
344
  8
┌▓È_1
  6
CONTINUOUS
 10
961.41723958329999
 20
-591.82852740812893
 30
0.0
 40
2.9986110209999999
  1
É¦îv
  0
ENDBLK
  5
346
  8
0
  0
BLOCK
  8
0
  2
*U38
 70
     1
 10
0.0
 20
0.0
 30
0.0
  3
*U38
  1

  0
TEXT
  5
348
  8
┌▓È_1
  6
CONTINUOUS
 10
961.41723958329999
 20
-597.33144748011125
 30
0.0
 40
2.9986110209999999
  1
É╗É}
  0
ENDBLK
  5
34A
  8
0
  0
BLOCK
  8
0
  2
*U39
 70
     1
 10
0.0
 20
0.0
 30
0.0
  3
*U39
  1

  0
TEXT
  5
34C
  8
┌▓È_1
  6
CONTINUOUS
 10
964.7404098533998
 20
-606.50154982980246
 30
0.0
 40
5.3974999188999986
  1
èöÄ«ë´Äð
  0
ENDBLK
  5
34E
  8
0
  0
BLOCK
  8
0
  2
*U40
 70
     1
 10
0.0
 20
0.0
 30
0.0
  3
*U40
  1

  0
TEXT
  5
350
  8
┌▓È_1
  6
CONTINUOUS
 10
1003.1087544897
 20
-580.65753011688776
 30
0.0
 40
2.9986110209999999
  1
ìÌ   Ä┐
  0
ENDBLK
  5
352
  8
0
  0
BLOCK
  8
0
  2
*U41
 70
     1
 10
0.0
 20
0.0
 30
0.0
  3
*U41
  1

  0
TEXT
  5
354
  8
┌▓È_1
  6
CONTINUOUS
 10
1004.3399221032
 20
-591.41909603565216
 30
0.0
 40
2.9986110209999999
  1
îƒ  É}
  0
ENDBLK
  5
356
  8
0
  0
BLOCK
  8
0
  2
*U42
 70
     1
 10
0.0
 20
0.0
 30
0.0
  3
*U42
  1

  0
TEXT
  5
358
  8
┌▓È_1
  6
CONTINUOUS
 62
     5
 10
1066.343939069488
 20
-594.77611124832083
 30
0.0
 40
4.1980556725999989
  1
âXâèâÇÆIÆî
  0
ENDBLK
  5
35A
  8
0
  0
ENDSEC
  0
SECTION
  2
ENTITIES
  0
LINE
  5
2F
  8
┌▓È_1
 62
     5
 10
1062.9598783664001
 20
-401.37975260420001
 30
0.0
 11
1062.6521283054001
 21
-401.37975260420001
 31
0.0
  0
LINE
  5
30
  8
┌▓È_1
 62
     5
 10
1062.3985865668001
 20
-401.135669173
 30
0.0
 11
1062.6521283054001
 21
-401.37975260420001
 31
0.0
  0
ARC
  5
31
  8
┌▓È_1
 62
     5
 10
1062.2598783664
 20
-407.1797526041999
 30
0.0
 40
0.2
 50
180.0000282455
 51
313.91105323369999
  0
ARC
  5
32
  8
┌▓È_1
 62
     5
 10
1061.2598783664
 20
-407.1797526041999
 30
0.0
 40
0.2
 50
180.0000282455
 51
313.91105323369999
  0
LINE
  5
33
  8
┌▓È_1
 62
     5
 10
1061.0598783664
 20
-407.07975260419988
 30
0.0
 11
1058.4598783664001
 21
-407.07975260419988
 31
0.0
  0
LINE
  5
34
  8
┌▓È_1
 62
     5
 10
1061.0598783664
 20
-407.07975260419988
 30
0.0
 11
1061.0598783664
 21
-407.17975270279999
 31
0.0
  0
LINE
  5
35
  8
┌▓È_1
 62
     5
 10
1061.398586563
 20
-407.32383603900001
 30
0.0
 11
1061.7040658205999
 21
-407.02975260419998
 31
0.0
  0
LINE
  5
36
  8
┌▓È_1
 62
     5
 10
1062.0598783664
 20
-407.02975260419998
 30
0.0
 11
1061.7040658205999
 21
-407.02975260419998
 31
0.0
  0
LINE
  5
37
  8
┌▓È_1
 62
     5
 10
1062.0598783664
 20
-407.02975260419998
 30
0.0
 11
1062.0598783664
 21
-407.17975270279999
 31
0.0
  0
LINE
  5
38
  8
┌▓È_1
 62
     5
 10
1062.3985865668001
 20
-407.32383603529991
 30
0.0
 11
1062.6521283054001
 21
-407.07975260419988
 31
0.0
  0
LINE
  5
39
  8
┌▓È_1
 62
     5
 10
1062.9598783664001
 20
-407.07975260419988
 30
0.0
 11
1062.6521283054001
 21
-407.07975260419988
 31
0.0
  0
DIMENSION
  5
4A
  8
Éíû@É³
  2
*D0
 10
751.77890624999998
 20
-420.12731370189999
 30
0.0
 11
761.11004774309993
 21
-420.12731370189999
 31
0.0
 70
   128
  1
<>
 13
751.77890624999998
 23
-405.92975260420002
 33
0.0
 14
755.27890624999986
 24
-405.92975260420002
 34
0.0
 50
180.0
  0
LINE
  5
4B
  8
┌▓È_1
 10
783.0
 20
-395.0
 30
0.0
 11
783.0
 21
-390.0
 31
0.0
  0
LINE
  5
4C
  8
┌▓È_1
 10
783.0
 20
-390.0
 30
0.0
 11
778.0
 21
-390.0
 31
0.0
  0
SOLID
  5
4D
  8
┌▓È_1
 10
778.0
 20
-390.0
 30
0.0
 11
780.82222223279985
 21
-389.24378783190002
 31
0.0
 12
780.06601006469987
 22
-390.0
 32
0.0
 13
780.06601006469987
 23
-390.0
 33
0.0
  0
SOLID
  5
4E
  8
┌▓È_1
 10
778.0
 20
-390.0
 30
0.0
 11
780.82222223279985
 21
-390.75621216809998
 31
0.0
 12
780.06601006469987
 22
-390.0
 32
0.0
 13
780.06601006469987
 23
-390.0
 33
0.0
  0
LINE
  5
4F
  8
┌▓È_1
 10
783.0
 20
-418.25950520830003
 30
0.0
 11
778.0
 21
-418.25950520830003
 31
0.0
  0
SOLID
  5
50
  8
┌▓È_1
 10
778.0
 20
-418.25950520830003
 30
0.0
 11
780.82222223279985
 21
-417.50329304019988
 31
0.0
 12
780.06601006469987
 22
-418.25950520830003
 32
0.0
 13
780.06601006469987
 23
-418.25950520830003
 33
0.0
  0
SOLID
  5
51
  8
┌▓È_1
 10
778.0
 20
-418.25950520830003
 30
0.0
 11
780.82222223279985
 21
-419.01571737649988
 31
0.0
 12
780.06601006469987
 22
-418.25950520830003
 32
0.0
 13
780.06601006469987
 23
-418.25950520830003
 33
0.0
  0
LINE
  5
52
  8
┌▓È_1
 10
783.0
 20
-413.25950520830003
 30
0.0
 11
783.0
 21
-418.25950520830003
 31
0.0
  0
INSERT
  5
53
  8
0
  6
CONTINUOUS
  2
*U23
 10
0.0
 20
0.0
 30
0.0
  0
INSERT
  5
54
  8
0
  6
CONTINUOUS
  2
*U24
 10
0.0
 20
0.0
 30
0.0
  0
INSERT
  5
55
  8
0
  6
CONTINUOUS
  2
*U25
 10
0.0
 20
0.0
 30
0.0
  0
INSERT
  5
56
  8
0
  6
CONTINUOUS
  2
*U26
 10
0.0
 20
0.0
 30
0.0
  0
DIMENSION
  5
66
  8
Éíû@É³
  2
*D1
 10
1067.471191614
 20
-408.57975260419988
 30
0.0
 11
1067.471191614
 21
-404.22975260419992
 31
0.0
 70
   128
  1
<>
 13
1057.2598783664
 23
-408.57975260419988
 33
0.0
 14
1057.2598783664
 24
-399.87975260420001
 34
0.0
 50
90.0
  0
DIMENSION
  5
75
  8
Éíû@É³
  2
*D2
 10
1065.9081858029001
 20
-407.37975260420001
 30
0.0
 11
1065.9081858029001
 21
-404.22975260419992
 31
0.0
 70
   128
  1
<>
 13
1062.2598783664
 23
-407.37975260420001
 33
0.0
 14
1062.2598783664
 24
-401.0797526042
 34
0.0
 50
90.0
  0
LINE
  5
76
  8
┌▓È_1
 62
     5
 10
1026.688249049
 20
-603.90082703309997
 30
0.0
 11
1029.8393081137999
 21
-603.90082703309997
 31
0.0
  0
LINE
  5
77
  8
┌▓È_1
 62
     5
 10
1017.6218254656
 20
-601.90082703309986
 30
0.0
 11
1018.6218254656
 21
-600.40082703309997
 31
0.0
  0
LINE
  5
78
  8
┌▓È_1
 62
     5
 10
1016.4845448176
 20
-605.24995824209986
 30
0.0
 11
1016.3064427579
 21
-605.42433638629996
 31
0.0
  0
LINE
  5
79
  8
┌▓È_1
 62
     5
 10
1026.0238782197
 20
-601.59209814259987
 30
0.0
 11
1026.8393081137999
 21
-600.40082703309997
 31
0.0
  0
INSERT
  5
7A
  8
0
  6
CONTINUOUS
  2
*U27
 10
0.0
 20
0.0
 30
0.0
  0
LINE
  5
7B
  8
┌▓È_1
 62
     5
 10
1020.8393081138
 20
-602.10082703310002
 30
0.0
 11
1023.3379747805
 21
-602.10082703310002
 31
0.0
  0
LINE
  5
7C
  8
┌▓È_1
 62
     5
 10
1020.8393081138
 20
-604.70082703309993
 30
0.0
 11
1020.8393081138
 21
-606.50082703309988
 31
0.0
  0
LINE
  5
7D
  8
┌▓È_1
 62
     5
 10
1020.8393081138
 20
-603.90082703309997
 30
0.0
 11
1023.8659747805
 21
-603.90082703309997
 31
0.0
  0
LINE
  5
7E
  8
┌▓È_1
 62
     5
 10
1029.8393081137999
 20
-602.10082703310002
 30
0.0
 11
1029.8393081137999
 21
-603.90082703309997
 31
0.0
  0
LINE
  5
7F
  8
┌▓È_1
 62
     5
 10
1025.0393081138
 20
-607.90082703309997
 30
0.0
 11
1024.6286414471999
 21
-606.50082703309988
 31
0.0
  0
LINE
  5
80
  8
┌▓È_1
 62
     5
 10
1026.9184608620001
 20
-604.70082703309993
 30
0.0
 11
1026.688249049
 21
-603.90082703309997
 31
0.0
  0
POLYLINE
  8
┌▓È_1
  5
35B
  62
5
  66
     1
 10
0.000000
 20
0.000000
 30
0.000000
  70
     8
  0
VERTEX
  8
┌▓È_1
  5
35C
 10
1015.08
 20
-606.537
 30
0.000000
  70
    32
  0
VERTEX
  8
┌▓È_1
  5
35D
 10
1015.11
 20
-606.546
 30
0.000000
  70
    32
  0
VERTEX
  8
┌▓È_1
  5
35E
 10
1015.13
 20
-606.554
 30
0.000000
  70
    32
  0
VERTEX
  8
┌▓È_1
  5
35F
 10
1015.16
 20
-606.563
 30
0.000000
  70
    32
  0
VERTEX
  8
┌▓È_1
  5
360
 10
1015.19
 20
-606.571
 30
0.000000
  70
    32
  0
VERTEX
  8
┌▓È_1
  5
361
 10
1015.22
 20
-606.580
 30
0.000000
  70
    32
  0
VERTEX
  8
┌▓È_1
  5
362
 10
1015.24
 20
-606.588
 30
0.000000
  70
    32
  0
VERTEX
  8
┌▓È_1
  5
363
 10
1015.27
 20
-606.596
 30
0.000000
  70
    32
  0
VERTEX
  8
┌▓È_1
  5
364
 10
1015.30
 20
-606.605
 30
0.000000
  70
    32
  0
VERTEX
  8
┌▓È_1
  5
365
 10
1015.32
 20
-606.613
 30
0.000000
  70
    32
  0
VERTEX
  8
┌▓È_1
  5
366
 10
1015.35
 20
-606.621
 30
0.000000
  70
    32
  0
VERTEX
  8
┌▓È_1
  5
367
 10
1015.38
 20
-606.629
 30
0.000000
  70
    32
  0
VERTEX
  8
┌▓È_1
  5
368
 10
1015.41
 20
-606.637
 30
0.000000
  70
    32
  0
VERTEX
  8
┌▓È_1
  5
369
 10
1015.43
 20
-606.646
 30
0.000000
  70
    32
  0
VERTEX
  8
┌▓È_1
  5
36A
 10
1015.46
 20
-606.654
 30
0.000000
  70
    32
  0
VERTEX
  8
┌▓È_1
  5
36B
 10
1015.49
 20
-606.662
 30
0.000000
  70
    32
  0
VERTEX
  8
┌▓È_1
  5
36C
 10
1015.51
 20
-606.670
 30
0.000000
  70
    32
  0
VERTEX
  8
┌▓È_1
  5
36D
 10
1015.54
 20
-606.678
 30
0.000000
  70
    32
  0
VERTEX
  8
┌▓È_1
  5
36E
 10
1015.57
 20
-606.685
 30
0.000000
  70
    32
  0
VERTEX
  8
┌▓È_1
  5
36F
 10
1015.60
 20
-606.693
 30
0.000000
  70
    32
  0
VERTEX
  8
┌▓È_1
  5
370
 10
1015.62
 20
-606.701
 30
0.000000
  70
    32
  0
VERTEX
  8
┌▓È_1
  5
371
 10
1015.65
 20
-606.709
 30
0.000000
  70
    32
  0
VERTEX
  8
┌▓È_1
  5
372
 10
1015.68
 20
-606.717
 30
0.000000
  70
    32
  0
VERTEX
  8
┌▓È_1
  5
373
 10
1015.71
 20
-606.724
 30
0.000000
  70
    32
  0
VERTEX
  8
┌▓È_1
  5
374
 10
1015.73
 20
-606.732
 30
0.000000
  70
    32
  0
VERTEX
  8
┌▓È_1
  5
375
 10
1015.76
 20
-606.740
 30
0.000000
  70
    32
  0
VERTEX
  8
┌▓È_1
  5
376
 10
1015.79
 20
-606.747
 30
0.000000
  70
    32
  0
VERTEX
  8
┌▓È_1
  5
377
 10
1015.81
 20
-606.755
 30
0.000000
  70
    32
  0
VERTEX
  8
┌▓È_1
  5
378
 10
1015.84
 20
-606.763
 30
0.000000
  70
    32
  0
VERTEX
  8
┌▓È_1
  5
379
 10
1015.87
 20
-606.770
 30
0.000000
  70
    32
  0
VERTEX
  8
┌▓È_1
  5
37A
 10
1015.90
 20
-606.778
 30
0.000000
  70
    32
  0
VERTEX
  8
┌▓È_1
  5
37B
 10
1015.92
 20
-606.785
 30
0.000000
  70
    32
  0
VERTEX
  8
┌▓È_1
  5
37C
 10
1015.95
 20
-606.793
 30
0.000000
  70
    32
  0
VERTEX
  8
┌▓È_1
  5
37D
 10
1015.98
 20
-606.800
 30
0.000000
  70
    32
  0
VERTEX
  8
┌▓È_1
  5
37E
 10
1016.01
 20
-606.807
 30
0.000000
  70
    32
  0
VERTEX
  8
┌▓È_1
  5
37F
 10
1016.04
 20
-606.815
 30
0.000000
  70
    32
  0
VERTEX
  8
┌▓È_1
  5
380
 10
1016.06
 20
-606.822
 30
0.000000
  70
    32
  0
VERTEX
  8
┌▓È_1
  5
381
 10
1016.09
 20
-606.829
 30
0.000000
  70
    32
  0
VERTEX
  8
┌▓È_1
  5
382
 10
1016.12
 20
-606.836
 30
0.000000
  70
    32
  0
VERTEX
  8
┌▓È_1
  5
383
 10
1016.15
 20
-606.844
 30
0.000000
  70
    32
  0
VERTEX
  8
┌▓È_1
  5
384
 10
1016.17
 20
-606.851
 30
0.000000
  70
    32
  0
VERTEX
  8
┌▓È_1
  5
385
 10
1016.20
 20
-606.858
 30
0.000000
  70
    32
  0
VERTEX
  8
┌▓È_1
  5
386
 10
1016.23
 20
-606.865
 30
0.000000
  70
    32
  0
VERTEX
  8
┌▓È_1
  5
387
 10
1016.26
 20
-606.872
 30
0.000000
  70
    32
  0
VERTEX
  8
┌▓È_1
  5
388
 10
1016.28
 20
-606.879
 30
0.000000
  70
    32
  0
VERTEX
  8
┌▓È_1
  5
389
 10
1016.31
 20
-606.886
 30
0.000000
  70
    32
  0
VERTEX
  8
┌▓È_1
  5
38A
 10
1016.34
 20
-606.893
 30
0.000000
  70
    32
  0
VERTEX
  8
┌▓È_1
  5
38B
 10
1016.37
 20
-606.900
 30
0.000000
  70
    32
  0
VERTEX
  8
┌▓È_1
  5
38C
 10
1016.40
 20
-606.907
 30
0.000000
  70
    32
  0
VERTEX
  8
┌▓È_1
  5
38D
 10
1016.42
 20
-606.914
 30
0.000000
  70
    32
  0
VERTEX
  8
┌▓È_1
  5
38E
 10
1016.45
 20
-606.921
 30
0.000000
  70
    32
  0
VERTEX
  8
┌▓È_1
  5
38F
 10
1016.48
 20
-606.928
 30
0.000000
  70
    32
  0
VERTEX
  8
┌▓È_1
  5
390
 10
1016.51
 20
-606.935
 30
0.000000
  70
    32
  0
VERTEX
  8
┌▓È_1
  5
391
 10
1016.53
 20
-606.942
 30
0.000000
  70
    32
  0
VERTEX
  8
┌▓È_1
  5
392
 10
1016.56
 20
-606.948
 30
0.000000
  70
    32
  0
VERTEX
  8
┌▓È_1
  5
393
 10
1016.59
 20
-606.955
 30
0.000000
  70
    32
  0
VERTEX
  8
┌▓È_1
  5
394
 10
1016.62
 20
-606.962
 30
0.000000
  70
    32
  0
VERTEX
  8
┌▓È_1
  5
395
 10
1016.65
 20
-606.969
 30
0.000000
  70
    32
  0
VERTEX
  8
┌▓È_1
  5
396
 10
1016.67
 20
-606.975
 30
0.000000
  70
    32
  0
VERTEX
  8
┌▓È_1
  5
397
 10
1016.70
 20
-606.982
 30
0.000000
  70
    32
  0
VERTEX
  8
┌▓È_1
  5
398
 10
1016.73
 20
-606.989
 30
0.000000
  70
    32
  0
VERTEX
  8
┌▓È_1
  5
399
 10
1016.76
 20
-606.995
 30
0.000000
  70
    32
  0
VERTEX
  8
┌▓È_1
  5
39A
 10
1016.79
 20
-607.002
 30
0.000000
  70
    32
  0
VERTEX
  8
┌▓È_1
  5
39B
 10
1016.81
 20
-607.009
 30
0.000000
  70
    32
  0
VERTEX
  8
┌▓È_1
  5
39C
 10
1016.84
 20
-607.015
 30
0.000000
  70
    32
  0
VERTEX
  8
┌▓È_1
  5
39D
 10
1016.87
 20
-607.022
 30
0.000000
  70
    32
  0
VERTEX
  8
┌▓È_1
  5
39E
 10
1016.90
 20
-607.028
 30
0.000000
  70
    32
  0
VERTEX
  8
┌▓È_1
  5
39F
 10
1016.93
 20
-607.035
 30
0.000000
  70
    32
  0
VERTEX
  8
┌▓È_1
  5
3A0
 10
1016.95
 20
-607.041
 30
0.000000
  70
    32
  0
VERTEX
  8
┌▓È_1
  5
3A1
 10
1016.98
 20
-607.048
 30
0.000000
  70
    32
  0
VERTEX
  8
┌▓È_1
  5
3A2
 10
1017.01
 20
-607.054
 30
0.000000
  70
    32
  0
VERTEX
  8
┌▓È_1
  5
3A3
 10
1017.04
 20
-607.061
 30
0.000000
  70
    32
  0
VERTEX
  8
┌▓È_1
  5
3A4
 10
1017.07
 20
-607.067
 30
0.000000
  70
    32
  0
VERTEX
  8
┌▓È_1
  5
3A5
 10
1017.09
 20
-607.074
 30
0.000000
  70
    32
  0
VERTEX
  8
┌▓È_1
  5
3A6
 10
1017.12
 20
-607.080
 30
0.000000
  70
    32
  0
VERTEX
  8
┌▓È_1
  5
3A7
 10
1017.15
 20
-607.086
 30
0.000000
  70
    32
  0
VERTEX
  8
┌▓È_1
  5
3A8
 10
1017.18
 20
-607.093
 30
0.000000
  70
    32
  0
VERTEX
  8
┌▓È_1
  5
3A9
 10
1017.21
 20
-607.099
 30
0.000000
  70
    32
  0
VERTEX
  8
┌▓È_1
  5
3AA
 10
1017.24
 20
-607.105
 30
0.000000
  70
    32
  0
VERTEX
  8
┌▓È_1
  5
3AB
 10
1017.26
 20
-607.112
 30
0.000000
  70
    32
  0
VERTEX
  8
┌▓È_1
  5
3AC
 10
1017.29
 20
-607.118
 30
0.000000
  70
    32
  0
VERTEX
  8
┌▓È_1
  5
3AD
 10
1017.32
 20
-607.124
 30
0.000000
  70
    32
  0
VERTEX
  8
┌▓È_1
  5
3AE
 10
1017.35
 20
-607.130
 30
0.000000
  70
    32
  0
VERTEX
  8
┌▓È_1
  5
3AF
 10
1017.38
 20
-607.137
 30
0.000000
  70
    32
  0
VERTEX
  8
┌▓È_1
  5
3B0
 10
1017.40
 20
-607.143
 30
0.000000
  70
    32
  0
VERTEX
  8
┌▓È_1
  5
3B1
 10
1017.43
 20
-607.149
 30
0.000000
  70
    32
  0
VERTEX
  8
┌▓È_1
  5
3B2
 10
1017.46
 20
-607.155
 30
0.000000
  70
    32
  0
VERTEX
  8
┌▓È_1
  5
3B3
 10
1017.49
 20
-607.161
 30
0.000000
  70
    32
  0
VERTEX
  8
┌▓È_1
  5
3B4
 10
1017.52
 20
-607.167
 30
0.000000
  70
    32
  0
VERTEX
  8
┌▓È_1
  5
3B5
 10
1017.55
 20
-607.174
 30
0.000000
  70
    32
  0
VERTEX
  8
┌▓È_1
  5
3B6
 10
1017.57
 20
-607.180
 30
0.000000
  70
    32
  0
VERTEX
  8
┌▓È_1
  5
3B7
 10
1017.60
 20
-607.186
 30
0.000000
  70
    32
  0
VERTEX
  8
┌▓È_1
  5
3B8
 10
1017.63
 20
-607.192
 30
0.000000
  70
    32
  0
VERTEX
  8
┌▓È_1
  5
3B9
 10
1017.66
 20
-607.198
 30
0.000000
  70
    32
  0
VERTEX
  8
┌▓È_1
  5
3BA
 10
1017.69
 20
-607.204
 30
0.000000
  70
    32
  0
VERTEX
  8
┌▓È_1
  5
3BB
 10
1017.71
 20
-607.210
 30
0.000000
  70
    32
  0
VERTEX
  8
┌▓È_1
  5
3BC
 10
1017.74
 20
-607.216
 30
0.000000
  70
    32
  0
VERTEX
  8
┌▓È_1
  5
3BD
 10
1017.77
 20
-607.222
 30
0.000000
  70
    32
  0
VERTEX
  8
┌▓È_1
  5
3BE
 10
1017.80
 20
-607.228
 30
0.000000
  70
    32
  0
VERTEX
  8
┌▓È_1
  5
3BF
 10
1017.83
 20
-607.234
 30
0.000000
  70
    32
  0
VERTEX
  8
┌▓È_1
  5
3C0
 10
1017.86
 20
-607.240
 30
0.000000
  70
    32
  0
VERTEX
  8
┌▓È_1
  5
3C1
 10
1017.88
 20
-607.246
 30
0.000000
  70
    32
  0
VERTEX
  8
┌▓È_1
  5
3C2
 10
1017.91
 20
-607.252
 30
0.000000
  70
    32
  0
VERTEX
  8
┌▓È_1
  5
3C3
 10
1017.94
 20
-607.258
 30
0.000000
  70
    32
  0
VERTEX
  8
┌▓È_1
  5
3C4
 10
1017.97
 20
-607.264
 30
0.000000
  70
    32
  0
VERTEX
  8
┌▓È_1
  5
3C5
 10
1018.00
 20
-607.270
 30
0.000000
  70
    32
  0
VERTEX
  8
┌▓È_1
  5
3C6
 10
1018.03
 20
-607.276
 30
0.000000
  70
    32
  0
VERTEX
  8
┌▓È_1
  5
3C7
 10
1018.05
 20
-607.282
 30
0.000000
  70
    32
  0
VERTEX
  8
┌▓È_1
  5
3C8
 10
1018.08
 20
-607.288
 30
0.000000
  70
    32
  0
VERTEX
  8
┌▓È_1
  5
3C9
 10
1018.11
 20
-607.294
 30
0.000000
  70
    32
  0
VERTEX
  8
┌▓È_1
  5
3CA
 10
1018.14
 20
-607.300
 30
0.000000
  70
    32
  0
VERTEX
  8
┌▓È_1
  5
3CB
 10
1018.17
 20
-607.306
 30
0.000000
  70
    32
  0
VERTEX
  8
┌▓È_1
  5
3CC
 10
1018.20
 20
-607.312
 30
0.000000
  70
    32
  0
VERTEX
  8
┌▓È_1
  5
3CD
 10
1018.22
 20
-607.318
 30
0.000000
  70
    32
  0
VERTEX
  8
┌▓È_1
  5
3CE
 10
1018.25
 20
-607.324
 30
0.000000
  70
    32
  0
VERTEX
  8
┌▓È_1
  5
3CF
 10
1018.28
 20
-607.330
 30
0.000000
  70
    32
  0
VERTEX
  8
┌▓È_1
  5
3D0
 10
1018.31
 20
-607.336
 30
0.000000
  70
    32
  0
VERTEX
  8
┌▓È_1
  5
3D1
 10
1018.34
 20
-607.342
 30
0.000000
  70
    32
  0
VERTEX
  8
┌▓È_1
  5
3D2
 10
1018.37
 20
-607.348
 30
0.000000
  70
    32
  0
VERTEX
  8
┌▓È_1
  5
3D3
 10
1018.39
 20
-607.354
 30
0.000000
  70
    32
  0
VERTEX
  8
┌▓È_1
  5
3D4
 10
1018.42
 20
-607.360
 30
0.000000
  70
    32
  0
VERTEX
  8
┌▓È_1
  5
3D5
 10
1018.45
 20
-607.365
 30
0.000000
  70
    32
  0
VERTEX
  8
┌▓È_1
  5
3D6
 10
1018.48
 20
-607.371
 30
0.000000
  70
    32
  0
VERTEX
  8
┌▓È_1
  5
3D7
 10
1018.51
 20
-607.377
 30
0.000000
  70
    32
  0
VERTEX
  8
┌▓È_1
  5
3D8
 10
1018.54
 20
-607.383
 30
0.000000
  70
    32
  0
VERTEX
  8
┌▓È_1
  5
3D9
 10
1018.57
 20
-607.389
 30
0.000000
  70
    32
  0
VERTEX
  8
┌▓È_1
  5
3DA
 10
1018.59
 20
-607.395
 30
0.000000
  70
    32
  0
VERTEX
  8
┌▓È_1
  5
3DB
 10
1018.62
 20
-607.401
 30
0.000000
  70
    32
  0
SEQEND
  8
┌▓È_1
  5
3DC
  0
POLYLINE
  8
┌▓È_1
  5
3DD
  62
5
  66
     1
 10
0.000000
 20
0.000000
 30
0.000000
  70
     8
  0
VERTEX
  8
┌▓È_1
  5
3DE
 10
1016.31
 20
-605.424
 30
0.000000
  70
    32
  0
VERTEX
  8
┌▓È_1
  5
3DF
 10
1016.32
 20
-605.429
 30
0.000000
  70
    32
  0
VERTEX
  8
┌▓È_1
  5
3E0
 10
1016.34
 20
-605.434
 30
0.000000
  70
    32
  0
VERTEX
  8
┌▓È_1
  5
3E1
 10
1016.36
 20
-605.439
 30
0.000000
  70
    32
  0
VERTEX
  8
┌▓È_1
  5
3E2
 10
1016.38
 20
-605.444
 30
0.000000
  70
    32
  0
VERTEX
  8
┌▓È_1
  5
3E3
 10
1016.39
 20
-605.449
 30
0.000000
  70
    32
  0
VERTEX
  8
┌▓È_1
  5
3E4
 10
1016.41
 20
-605.454
 30
0.000000
  70
    32
  0
VERTEX
  8
┌▓È_1
  5
3E5
 10
1016.43
 20
-605.458
 30
0.000000
  70
    32
  0
VERTEX
  8
┌▓È_1
  5
3E6
 10
1016.45
 20
-605.463
 30
0.000000
  70
    32
  0
VERTEX
  8
┌▓È_1
  5
3E7
 10
1016.46
 20
-605.468
 30
0.000000
  70
    32
  0
VERTEX
  8
┌▓È_1
  5
3E8
 10
1016.48
 20
-605.473
 30
0.000000
  70
    32
  0
VERTEX
  8
┌▓È_1
  5
3E9
 10
1016.50
 20
-605.477
 30
0.000000
  70
    32
  0
VERTEX
  8
┌▓È_1
  5
3EA
 10
1016.52
 20
-605.482
 30
0.000000
  70
    32
  0
VERTEX
  8
┌▓È_1
  5
3EB
 10
1016.54
 20
-605.487
 30
0.000000
  70
    32
  0
VERTEX
  8
┌▓È_1
  5
3EC
 10
1016.55
 20
-605.491
 30
0.000000
  70
    32
  0
VERTEX
  8
┌▓È_1
  5
3ED
 10
1016.57
 20
-605.496
 30
0.000000
  70
    32
  0
VERTEX
  8
┌▓È_1
  5
3EE
 10
1016.59
 20
-605.500
 30
0.000000
  70
    32
  0
VERTEX
  8
┌▓È_1
  5
3EF
 10
1016.61
 20
-605.505
 30
0.000000
  70
    32
  0
VERTEX
  8
┌▓È_1
  5
3F0
 10
1016.62
 20
-605.509
 30
0.000000
  70
    32
  0
VERTEX
  8
┌▓È_1
  5
3F1
 10
1016.64
 20
-605.514
 30
0.000000
  70
    32
  0
VERTEX
  8
┌▓È_1
  5
3F2
 10
1016.66
 20
-605.518
 30
0.000000
  70
    32
  0
VERTEX
  8
┌▓È_1
  5
3F3
 10
1016.68
 20
-605.523
 30
0.000000
  70
    32
  0
VERTEX
  8
┌▓È_1
  5
3F4
 10
1016.69
 20
-605.527
 30
0.000000
  70
    32
  0
VERTEX
  8
┌▓È_1
  5
3F5
 10
1016.71
 20
-605.531
 30
0.000000
  70
    32
  0
VERTEX
  8
┌▓È_1
  5
3F6
 10
1016.73
 20
-605.536
 30
0.000000
  70
    32
  0
VERTEX
  8
┌▓È_1
  5
3F7
 10
1016.75
 20
-605.540
 30
0.000000
  70
    32
  0
VERTEX
  8
┌▓È_1
  5
3F8
 10
1016.77
 20
-605.544
 30
0.000000
  70
    32
  0
VERTEX
  8
┌▓È_1
  5
3F9
 10
1016.78
 20
-605.549
 30
0.000000
  70
    32
  0
VERTEX
  8
┌▓È_1
  5
3FA
 10
1016.80
 20
-605.553
 30
0.000000
  70
    32
  0
VERTEX
  8
┌▓È_1
  5
3FB
 10
1016.82
 20
-605.557
 30
0.000000
  70
    32
  0
VERTEX
  8
┌▓È_1
  5
3FC
 10
1016.84
 20
-605.562
 30
0.000000
  70
    32
  0
VERTEX
  8
┌▓È_1
  5
3FD
 10
1016.86
 20
-605.566
 30
0.000000
  70
    32
  0
VERTEX
  8
┌▓È_1
  5
3FE
 10
1016.87
 20
-605.570
 30
0.000000
  70
    32
  0
VERTEX
  8
┌▓È_1
  5
3FF
 10
1016.89
 20
-605.574
 30
0.000000
  70
    32
  0
VERTEX
  8
┌▓È_1
  5
400
 10
1016.91
 20
-605.578
 30
0.000000
  70
    32
  0
VERTEX
  8
┌▓È_1
  5
401
 10
1016.93
 20
-605.582
 30
0.000000
  70
    32
  0
VERTEX
  8
┌▓È_1
  5
402
 10
1016.95
 20
-605.586
 30
0.000000
  70
    32
  0
VERTEX
  8
┌▓È_1
  5
403
 10
1016.96
 20
-605.590
 30
0.000000
  70
    32
  0
VERTEX
  8
┌▓È_1
  5
404
 10
1016.98
 20
-605.594
 30
0.000000
  70
    32
  0
VERTEX
  8
┌▓È_1
  5
405
 10
1017.00
 20
-605.599
 30
0.000000
  70
    32
  0
VERTEX
  8
┌▓È_1
  5
406
 10
1017.02
 20
-605.603
 30
0.000000
  70
    32
  0
VERTEX
  8
┌▓È_1
  5
407
 10
1017.04
 20
-605.607
 30
0.000000
  70
    32
  0
VERTEX
  8
┌▓È_1
  5
408
 10
1017.05
 20
-605.610
 30
0.000000
  70
    32
  0
VERTEX
  8
┌▓È_1
  5
409
 10
1017.07
 20
-605.614
 30
0.000000
  70
    32
  0
VERTEX
  8
┌▓È_1
  5
40A
 10
1017.09
 20
-605.618
 30
0.000000
  70
    32
  0
VERTEX
  8
┌▓È_1
  5
40B
 10
1017.11
 20
-605.622
 30
0.000000
  70
    32
  0
VERTEX
  8
┌▓È_1
  5
40C
 10
1017.13
 20
-605.626
 30
0.000000
  70
    32
  0
VERTEX
  8
┌▓È_1
  5
40D
 10
1017.15
 20
-605.630
 30
0.000000
  70
    32
  0
VERTEX
  8
┌▓È_1
  5
40E
 10
1017.16
 20
-605.634
 30
0.000000
  70
    32
  0
VERTEX
  8
┌▓È_1
  5
40F
 10
1017.18
 20
-605.638
 30
0.000000
  70
    32
  0
VERTEX
  8
┌▓È_1
  5
410
 10
1017.20
 20
-605.642
 30
0.000000
  70
    32
  0
VERTEX
  8
┌▓È_1
  5
411
 10
1017.22
 20
-605.645
 30
0.000000
  70
    32
  0
VERTEX
  8
┌▓È_1
  5
412
 10
1017.24
 20
-605.649
 30
0.000000
  70
    32
  0
VERTEX
  8
┌▓È_1
  5
413
 10
1017.25
 20
-605.653
 30
0.000000
  70
    32
  0
VERTEX
  8
┌▓È_1
  5
414
 10
1017.27
 20
-605.657
 30
0.000000
  70
    32
  0
VERTEX
  8
┌▓È_1
  5
415
 10
1017.29
 20
-605.660
 30
0.000000
  70
    32
  0
VERTEX
  8
┌▓È_1
  5
416
 10
1017.31
 20
-605.664
 30
0.000000
  70
    32
  0
VERTEX
  8
┌▓È_1
  5
417
 10
1017.33
 20
-605.668
 30
0.000000
  70
    32
  0
VERTEX
  8
┌▓È_1
  5
418
 10
1017.35
 20
-605.672
 30
0.000000
  70
    32
  0
VERTEX
  8
┌▓È_1
  5
419
 10
1017.36
 20
-605.675
 30
0.000000
  70
    32
  0
VERTEX
  8
┌▓È_1
  5
41A
 10
1017.38
 20
-605.679
 30
0.000000
  70
    32
  0
VERTEX
  8
┌▓È_1
  5
41B
 10
1017.40
 20
-605.683
 30
0.000000
  70
    32
  0
VERTEX
  8
┌▓È_1
  5
41C
 10
1017.42
 20
-605.686
 30
0.000000
  70
    32
  0
VERTEX
  8
┌▓È_1
  5
41D
 10
1017.44
 20
-605.690
 30
0.000000
  70
    32
  0
VERTEX
  8
┌▓È_1
  5
41E
 10
1017.46
 20
-605.693
 30
0.000000
  70
    32
  0
VERTEX
  8
┌▓È_1
  5
41F
 10
1017.47
 20
-605.697
 30
0.000000
  70
    32
  0
VERTEX
  8
┌▓È_1
  5
420
 10
1017.49
 20
-605.701
 30
0.000000
  70
    32
  0
VERTEX
  8
┌▓È_1
  5
421
 10
1017.51
 20
-605.704
 30
0.000000
  70
    32
  0
VERTEX
  8
┌▓È_1
  5
422
 10
1017.53
 20
-605.708
 30
0.000000
  70
    32
  0
VERTEX
  8
┌▓È_1
  5
423
 10
1017.55
 20
-605.711
 30
0.000000
  70
    32
  0
VERTEX
  8
┌▓È_1
  5
424
 10
1017.57
 20
-605.715
 30
0.000000
  70
    32
  0
VERTEX
  8
┌▓È_1
  5
425
 10
1017.58
 20
-605.718
 30
0.000000
  70
    32
  0
VERTEX
  8
┌▓È_1
  5
426
 10
1017.60
 20
-605.722
 30
0.000000
  70
    32
  0
VERTEX
  8
┌▓È_1
  5
427
 10
1017.62
 20
-605.725
 30
0.000000
  70
    32
  0
VERTEX
  8
┌▓È_1
  5
428
 10
1017.64
 20
-605.729
 30
0.000000
  70
    32
  0
VERTEX
  8
┌▓È_1
  5
429
 10
1017.66
 20
-605.732
 30
0.000000
  70
    32
  0
VERTEX
  8
┌▓È_1
  5
42A
 10
1017.68
 20
-605.736
 30
0.000000
  70
    32
  0
VERTEX
  8
┌▓È_1
  5
42B
 10
1017.69
 20
-605.739
 30
0.000000
  70
    32
  0
VERTEX
  8
┌▓È_1
  5
42C
 10
1017.71
 20
-605.742
 30
0.000000
  70
    32
  0
VERTEX
  8
┌▓È_1
  5
42D
 10
1017.73
 20
-605.746
 30
0.000000
  70
    32
  0
VERTEX
  8
┌▓È_1
  5
42E
 10
1017.75
 20
-605.749
 30
0.000000
  70
    32
  0
VERTEX
  8
┌▓È_1
  5
42F
 10
1017.77
 20
-605.753
 30
0.000000
  70
    32
  0
VERTEX
  8
┌▓È_1
  5
430
 10
1017.79
 20
-605.756
 30
0.000000
  70
    32
  0
VERTEX
  8
┌▓È_1
  5
431
 10
1017.81
 20
-605.759
 30
0.000000
  70
    32
  0
VERTEX
  8
┌▓È_1
  5
432
 10
1017.82
 20
-605.763
 30
0.000000
  70
    32
  0
VERTEX
  8
┌▓È_1
  5
433
 10
1017.84
 20
-605.766
 30
0.000000
  70
    32
  0
VERTEX
  8
┌▓È_1
  5
434
 10
1017.86
 20
-605.769
 30
0.000000
  70
    32
  0
VERTEX
  8
┌▓È_1
  5
435
 10
1017.88
 20
-605.773
 30
0.000000
  70
    32
  0
VERTEX
  8
┌▓È_1
  5
436
 10
1017.90
 20
-605.776
 30
0.000000
  70
    32
  0
VERTEX
  8
┌▓È_1
  5
437
 10
1017.92
 20
-605.779
 30
0.000000
  70
    32
  0
VERTEX
  8
┌▓È_1
  5
438
 10
1017.93
 20
-605.783
 30
0.000000
  70
    32
  0
VERTEX
  8
┌▓È_1
  5
439
 10
1017.95
 20
-605.786
 30
0.000000
  70
    32
  0
VERTEX
  8
┌▓È_1
  5
43A
 10
1017.97
 20
-605.789
 30
0.000000
  70
    32
  0
VERTEX
  8
┌▓È_1
  5
43B
 10
1017.99
 20
-605.792
 30
0.000000
  70
    32
  0
VERTEX
  8
┌▓È_1
  5
43C
 10
1018.01
 20
-605.796
 30
0.000000
  70
    32
  0
VERTEX
  8
┌▓È_1
  5
43D
 10
1018.03
 20
-605.799
 30
0.000000
  70
    32
  0
VERTEX
  8
┌▓È_1
  5
43E
 10
1018.05
 20
-605.802
 30
0.000000
  70
    32
  0
VERTEX
  8
┌▓È_1
  5
43F
 10
1018.06
 20
-605.806
 30
0.000000
  70
    32
  0
VERTEX
  8
┌▓È_1
  5
440
 10
1018.08
 20
-605.809
 30
0.000000
  70
    32
  0
VERTEX
  8
┌▓È_1
  5
441
 10
1018.10
 20
-605.812
 30
0.000000
  70
    32
  0
VERTEX
  8
┌▓È_1
  5
442
 10
1018.12
 20
-605.815
 30
0.000000
  70
    32
  0
VERTEX
  8
┌▓È_1
  5
443
 10
1018.14
 20
-605.818
 30
0.000000
  70
    32
  0
VERTEX
  8
┌▓È_1
  5
444
 10
1018.16
 20
-605.822
 30
0.000000
  70
    32
  0
VERTEX
  8
┌▓È_1
  5
445
 10
1018.18
 20
-605.825
 30
0.000000
  70
    32
  0
VERTEX
  8
┌▓È_1
  5
446
 10
1018.19
 20
-605.828
 30
0.000000
  70
    32
  0
VERTEX
  8
┌▓È_1
  5
447
 10
1018.21
 20
-605.831
 30
0.000000
  70
    32
  0
VERTEX
  8
┌▓È_1
  5
448
 10
1018.23
 20
-605.834
 30
0.000000
  70
    32
  0
VERTEX
  8
┌▓È_1
  5
449
 10
1018.25
 20
-605.838
 30
0.000000
  70
    32
  0
VERTEX
  8
┌▓È_1
  5
44A
 10
1018.27
 20
-605.841
 30
0.000000
  70
    32
  0
VERTEX
  8
┌▓È_1
  5
44B
 10
1018.29
 20
-605.844
 30
0.000000
  70
    32
  0
VERTEX
  8
┌▓È_1
  5
44C
 10
1018.31
 20
-605.847
 30
0.000000
  70
    32
  0
VERTEX
  8
┌▓È_1
  5
44D
 10
1018.32
 20
-605.850
 30
0.000000
  70
    32
  0
VERTEX
  8
┌▓È_1
  5
44E
 10
1018.34
 20
-605.854
 30
0.000000
  70
    32
  0
VERTEX
  8
┌▓È_1
  5
44F
 10
1018.36
 20
-605.857
 30
0.000000
  70
    32
  0
VERTEX
  8
┌▓È_1
  5
450
 10
1018.38
 20
-605.860
 30
0.000000
  70
    32
  0
VERTEX
  8
┌▓È_1
  5
451
 10
1018.40
 20
-605.863
 30
0.000000
  70
    32
  0
VERTEX
  8
┌▓È_1
  5
452
 10
1018.42
 20
-605.866
 30
0.000000
  70
    32
  0
VERTEX
  8
┌▓È_1
  5
453
 10
1018.44
 20
-605.869
 30
0.000000
  70
    32
  0
VERTEX
  8
┌▓È_1
  5
454
 10
1018.45
 20
-605.873
 30
0.000000
  70
    32
  0
VERTEX
  8
┌▓È_1
  5
455
 10
1018.47
 20
-605.876
 30
0.000000
  70
    32
  0
VERTEX
  8
┌▓È_1
  5
456
 10
1018.49
 20
-605.879
 30
0.000000
  70
    32
  0
VERTEX
  8
┌▓È_1
  5
457
 10
1018.51
 20
-605.882
 30
0.000000
  70
    32
  0
VERTEX
  8
┌▓È_1
  5
458
 10
1018.53
 20
-605.885
 30
0.000000
  70
    32
  0
VERTEX
  8
┌▓È_1
  5
459
 10
1018.55
 20
-605.888
 30
0.000000
  70
    32
  0
VERTEX
  8
┌▓È_1
  5
45A
 10
1018.57
 20
-605.891
 30
0.000000
  70
    32
  0
VERTEX
  8
┌▓È_1
  5
45B
 10
1018.58
 20
-605.895
 30
0.000000
  70
    32
  0
VERTEX
  8
┌▓È_1
  5
45C
 10
1018.60
 20
-605.898
 30
0.000000
  70
    32
  0
VERTEX
  8
┌▓È_1
  5
45D
 10
1018.62
 20
-605.901
 30
0.000000
  70
    32
  0
SEQEND
  8
┌▓È_1
  5
45E
  0
DIMENSION
  5
91
  8
Éíû@É³
  2
*D3
 10
1057.2598783664
 20
-397.2991533499
 30
0.0
 11
1056.7598783664
 21
-397.2991533499
 31
0.0
 70
   128
  1
<>
 13
1057.2598783664
 23
-399.87975260420001
 33
0.0
 14
1056.2598783664
 24
-401.72316909440002
 34
0.0
  0
DIMENSION
  5
A0
  8
Éíû@É³
  2
*D4
 10
1063.7598783664
 20
-397.2991533499
 30
0.0
 11
1060.5098783664
 21
-397.2991533499
 31
0.0
 70
   128
  1
<>
 13
1063.7598783664
 23
-402.27975260419993
 33
0.0
 14
1057.2598783664
 24
-399.87975260420001
 34
0.0
  0
DIMENSION
  5
AF
  8
Éíû@É³
  2
*D5
 10
1053.4976276634
 20
-399.87975260420001
 30
0.0
 11
1053.4976276634
 21
-401.12975260420001
 31
0.0
 70
   128
  1
<>
 13
1056.9761061324
 23
-399.87975260420001
 33
0.0
 14
1056.5598783664
 24
-402.37975260420001
 34
0.0
 50
90.0
  0
DIMENSION
  5
BE
  8
Éíû@É³
  2
*D6
 10
1053.4976276634
 20
-406.0797526042
 30
0.0
 11
1053.4976276634
 21
-407.3297526042
 31
0.0
 70
   128
  1
<>
 13
1056.5598783664
 23
-406.0797526042
 33
0.0
 14
1056.9761061324
 24
-408.57975260419988
 34
0.0
 50
90.0
  0
DIMENSION
  5
CD
  8
Éíû@É³
  2
*D7
 10
1053.4976276634
 20
-402.37975260420001
 30
0.0
 11
1053.4976276634
 21
-404.22975260419992
 31
0.0
 70
   128
  1
<>
 13
1056.5598783664
 23
-402.37975260420001
 33
0.0
 14
1056.5598783664
 24
-406.0797526042
 34
0.0
 50
90.0
  0
ARC
  5
CE
  8
┌▓È_1
 62
     5
 10
1062.2598783664
 20
-401.27975260419998
 30
0.0
 40
0.2
 50
46.088946766299998
 51
179.99997175460001
  0
ARC
  5
CF
  8
┌▓È_1
 62
     5
 10
1061.2598783664
 20
-401.27975260419998
 30
0.0
 40
0.2
 50
46.088946766299998
 51
179.99997175460001
  0
LINE
  5
D0
  8
┌▓È_1
 62
     5
 10
1061.0598783664
 20
-401.37975260420001
 30
0.0
 11
1058.4598783664001
 21
-401.37975260420001
 31
0.0
  0
LINE
  5
D1
  8
┌▓È_1
 62
     5
 10
1061.0598783664
 20
-401.37975260420001
 30
0.0
 11
1061.0598783664
 21
-401.2797525055999
 31
0.0
  0
LINE
  5
D2
  8
┌▓È_1
 62
     5
 10
1061.398586563
 20
-401.13566916939999
 30
0.0
 11
1061.6521283054001
 21
-401.37975260420001
 31
0.0
  0
LINE
  5
D3
  8
┌▓È_1
 62
     5
 10
1062.0598783664
 20
-401.37975260420001
 30
0.0
 11
1061.6521283054001
 21
-401.37975260420001
 31
0.0
  0
LINE
  5
D4
  8
┌▓È_1
 62
     5
 10
1062.0598783664
 20
-401.37975260420001
 30
0.0
 11
1062.0598783664
 21
-401.2797525055999
 31
0.0
  0
LINE
  5
D5
  8
┌▓È_1
 62
     5
 10
1027.8393081137999
 20
-607.90082703309997
 30
0.0
 11
1025.0393081138
 21
-607.90082703309997
 31
0.0
  0
INSERT
  5
D6
  8
0
  6
CONTINUOUS
  2
*U28
 10
0.0
 20
0.0
 30
0.0
  0
INSERT
  5
D7
  8
0
  6
CONTINUOUS
  2
*U29
 10
0.0
 20
0.0
 30
0.0
  0
INSERT
  5
D8
  8
0
  6
CONTINUOUS
  2
*U30
 10
0.0
 20
0.0
 30
0.0
  0
INSERT
  5
D9
  8
0
  6
CONTINUOUS
  2
*U31
 10
0.0
 20
0.0
 30
0.0
  0
INSERT
  5
DA
  8
0
  6
CONTINUOUS
  2
*U32
 10
0.0
 20
0.0
 30
0.0
  0
LINE
  5
DB
  8
┌▓È_1
 10
1019.3005729167
 20
-576.68600000000004
 30
0.0
 11
1019.3005729167
 21
-598.68600000000004
 31
0.0
  0
LINE
  5
DC
  8
┌▓È_1
 10
1039.3005729167
 20
-576.68600000000004
 30
0.0
 11
1039.3005729167
 21
-609.68600000000004
 31
0.0
  0
LINE
  5
DD
  8
┌▓È_1
 62
     5
 10
1020.8393081138
 20
-606.50082703309988
 30
0.0
 11
1024.6286414471999
 21
-606.50082703309988
 31
0.0
  0
ARC
  5
DE
  8
┌▓È_1
 62
     5
 10
1012.1218254656
 20
-601.90082703309986
 30
0.0
 40
5.5
 50
322.48761197969998
 51
0.0
  0
LINE
  5
DF
  8
┌▓È_1
 62
     5
 10
1026.9184608620001
 20
-604.70082703309993
 30
0.0
 11
1029.8393081137999
 21
-604.70082703309993
 31
0.0
  0
LINE
  5
E0
  8
┌▓È_1
 62
     5
 10
1027.8393081137999
 20
-607.90082703309997
 30
0.0
 11
1027.4364374412
 21
-606.50082703309988
 31
0.0
  0
LINE
  5
E1
  8
┌▓È_1
 62
     5
 10
1024.1006414471999
 20
-604.70082703309993
 30
0.0
 11
1023.8659747805
 21
-603.90082703309997
 31
0.0
  0
LINE
  5
E2
  8
┌▓È_1
 62
     5
 10
1026.1702724699001
 20
-602.10082703310002
 30
0.0
 11
1026.0238782197
 21
-601.59209814259987
 31
0.0
  0
LINE
  5
E3
  8
┌▓È_1
 62
     5
 10
1026.1702724699001
 20
-602.10082703310002
 30
0.0
 11
1029.8393081137999
 21
-602.10082703310002
 31
0.0
  0
LINE
  5
E4
  8
┌▓È_1
 62
     5
 10
1023.3379747805
 20
-602.10082703310002
 30
0.0
 11
1022.8393081138
 21
-600.40082703309997
 31
0.0
  0
LINE
  5
E5
  8
┌▓È_1
 62
     5
 10
1027.4364374412
 20
-606.50082703309988
 30
0.0
 11
1029.8393081137999
 21
-606.50082703309988
 31
0.0
  0
LINE
  5
E6
  8
┌▓È_1
 62
     5
 10
1020.8393081138
 20
-602.10082703310002
 30
0.0
 11
1020.8393081138
 21
-603.90082703309997
 31
0.0
  0
LINE
  5
E7
  8
┌▓È_1
 62
     5
 10
1020.8393081138
 20
-604.70082703309993
 30
0.0
 11
1024.1006414471999
 21
-604.70082703309993
 31
0.0
  0
LINE
  5
E8
  8
┌▓È_1
 10
1021.4491470437
 20
-594.04864854749985
 30
0.0
 11
1035.2168421151
 21
-594.04864854749985
 31
0.0
  0
LINE
  5
E9
  8
┌▓È_1
 10
1022.0464717447001
 20
-582.54864854749985
 30
0.0
 11
1036.3143729793001
 21
-582.54864854749985
 31
0.0
  0
LINE
  5
EA
  8
┌▓È_1
 62
     5
 10
1018.6218254656
 20
-605.90082703309986
 30
0.0
 11
1018.6218254656
 21
-607.40082703309986
 31
0.0
  0
LINE
  5
EB
  8
┌▓È_1
 62
     5
 10
1029.8393081137999
 20
-604.70082703309993
 30
0.0
 11
1029.8393081137999
 21
-606.50082703309988
 31
0.0
  0
LINE
  5
EC
  8
┌▓È_1
 62
     5
 10
1022.8393081138
 20
-600.40082703309997
 30
0.0
 11
1026.8393081137999
 21
-600.40082703309997
 31
0.0
  0
LINE
  5
ED
  8
┌▓È_1
 62
     5
 10
1017.6218254656
 20
-601.90082703309986
 30
0.0
 11
1018.6218254656
 21
-600.40082703309997
 31
0.0
  0
LINE
  5
EE
  8
┌▓È_1
 62
     5
 10
1005.461219405
 20
-601.90082703309986
 30
0.0
 11
1006.961219405
 21
-600.40082703309997
 31
0.0
  0
LINE
  5
EF
  8
┌▓È_1
 62
     5
 10
998.46121940499995
 20
-605.40082703309986
 30
0.0
 11
1000.961219405
 21
-605.40082703309986
 31
0.0
  0
LINE
  5
F0
  8
┌▓È_1
 10
982.37857051020001
 20
-582.54864854749985
 30
0.0
 11
996.48968162129995
 21
-582.54864854749985
 31
0.0
  0
LINE
  5
F1
  8
┌▓È_1
 10
979.30057291669993
 20
-576.68600000000004
 30
0.0
 11
979.30057291669993
 21
-587.68600000000004
 31
0.0
  0
LINE
  5
F2
  8
┌▓È_1
 10
959.30057291670005
 20
-576.68600000000004
 30
0.0
 11
959.30057291670005
 21
-609.68600000000004
 31
0.0
  0
LINE
  5
F3
  8
┌▓È_1
 10
999.30057291669982
 20
-587.68600000000004
 30
0.0
 11
999.30057291669982
 21
-598.68600000000004
 31
0.0
  0
LINE
  5
F4
  8
┌▓È_1
 10
962.44914704369978
 20
-593.18600000000004
 30
0.0
 11
998.04635021100012
 21
-593.18600000000004
 31
0.0
  0
LINE
  5
F5
  8
┌▓È_1
 62
     5
 10
998.46121940499995
 20
-600.40082703309997
 30
0.0
 11
998.46121940499995
 21
-602.40082703309986
 31
0.0
  0
LINE
  5
F6
  8
┌▓È_1
 62
     5
 10
1000.961219405
 20
-601.90082703309986
 30
0.0
 11
1002.461219405
 21
-600.40082703309997
 31
0.0
  0
LINE
  5
F7
  8
┌▓È_1
 62
     5
 10
1002.461219405
 20
-600.40082703309997
 30
0.0
 11
998.46121940499995
 21
-600.40082703309997
 31
0.0
  0
LINE
  5
F8
  8
┌▓È_1
 62
     5
 10
1002.961219405
 20
-602.40082703309986
 30
0.0
 11
1000.961219405
 21
-602.40082703309986
 31
0.0
  0
LINE
  5
F9
  8
┌▓È_1
 62
     5
 10
997.31011559339993
 20
-603.90082703309997
 30
0.0
 11
998.31011559339993
 21
-603.90082703309997
 31
0.0
  0
LINE
  5
FA
  8
┌▓È_1
 62
     5
 10
1005.461219405
 20
-603.90082703309997
 30
0.0
 11
1006.961219405
 21
-603.90082703309997
 31
0.0
  0
LINE
  5
FB
  8
┌▓È_1
 62
     5
 10
998.46121940499995
 20
-605.90082703309986
 30
0.0
 11
998.46121940499995
 21
-607.40082703309986
 31
0.0
  0
LINE
  5
FC
  8
┌▓È_1
 62
     5
 10
998.46121940499995
 20
-603.90082703309997
 30
0.0
 11
998.31011559339993
 21
-603.90082703309997
 31
0.0
  0
LINE
  5
FD
  8
┌▓È_1
 62
     5
 10
998.46121940499995
 20
-602.40082703309986
 30
0.0
 11
997.31011559339993
 21
-602.40082703309986
 31
0.0
  0
LINE
  5
FE
  8
┌▓È_1
 62
     5
 10
1002.961219405
 20
-600.40082703309997
 30
0.0
 11
1002.961219405
 21
-602.40082703309986
 31
0.0
  0
LINE
  5
FF
  8
┌▓È_1
 62
     5
 10
998.46121940499995
 20
-603.90082703309997
 30
0.0
 11
998.46121940499995
 21
-605.40082703309986
 31
0.0
  0
INSERT
  5
100
  8
0
  6
CONTINUOUS
  2
*U33
 10
0.0
 20
0.0
 30
0.0
  0
INSERT
  5
101
  8
0
  6
CONTINUOUS
  2
*U34
 10
0.0
 20
0.0
 30
0.0
  0
LINE
  5
102
  8
┌▓È_1
 62
     5
 10
1005.461219405
 20
-602.40082703309986
 30
0.0
 11
1005.461219405
 21
-601.90082703309986
 31
0.0
  0
LINE
  5
103
  8
┌▓È_1
 62
     5
 10
1006.961219405
 20
-602.40082703309986
 30
0.0
 11
1005.461219405
 21
-602.40082703309986
 31
0.0
  0
LINE
  5
104
  8
┌▓È_1
 62
     5
 10
1000.961219405
 20
-605.40082703309986
 30
0.0
 11
1000.961219405
 21
-603.90082703309997
 31
0.0
  0
LINE
  5
105
  8
┌▓È_1
 62
     5
 10
1001.461219405
 20
-605.90082703309986
 30
0.0
 11
998.46121940499995
 21
-605.90082703309986
 31
0.0
  0
LINE
  5
106
  8
┌▓È_1
 62
     5
 10
1109.3005729167
 20
-609.68600000000004
 30
0.0
 11
1109.3005729167
 21
-576.68600000000004
 31
0.0
  0
LINE
  5
107
  8
┌▓È_1
 62
     5
 10
1009.6218254656
 20
-602.72293730059994
 30
0.0
 11
1013.6218254656
 21
-602.72293730059994
 31
0.0
  0
LINE
  5
108
  8
┌▓È_1
 62
     5
 10
1014.1581379572
 20
-603.91989793820005
 30
0.0
 11
1013.9175421509
 21
-604.18563629879986
 31
0.0
  0
LINE
  5
109
  8
┌▓È_1
 62
     5
 10
959.30057291670005
 20
-609.68600000000004
 30
0.0
 11
1109.3005729167
 21
-609.68600000000004
 31
0.0
  0
LINE
  5
10A
  8
┌▓È_1
 62
     5
 10
1009.6218254656
 20
-607.40082703309986
 30
0.0
 11
1012.1218254656
 21
-607.40082703309986
 31
0.0
  0
LINE
  5
10B
  8
┌▓È_1
 62
     5
 10
1009.6218254656
 20
-602.20082703309993
 30
0.0
 11
1014.6218254656
 21
-602.20082703309993
 31
0.0
  0
POLYLINE
  8
┌▓È_1
  5
45F
  62
5
  66
     1
 10
0.000000
 20
0.000000
 30
0.000000
  70
     8
  0
VERTEX
  8
┌▓È_1
  5
460
 10
1009.62
 20
-603.045
 30
0.000000
  70
    32
  0
VERTEX
  8
┌▓È_1
  5
461
 10
1009.64
 20
-603.062
 30
0.000000
  70
    32
  0
VERTEX
  8
┌▓È_1
  5
462
 10
1009.66
 20
-603.078
 30
0.000000
  70
    32
  0
VERTEX
  8
┌▓È_1
  5
463
 10
1009.68
 20
-603.095
 30
0.000000
  70
    32
  0
VERTEX
  8
┌▓È_1
  5
464
 10
1009.69
 20
-603.111
 30
0.000000
  70
    32
  0
VERTEX
  8
┌▓È_1
  5
465
 10
1009.71
 20
-603.128
 30
0.000000
  70
    32
  0
VERTEX
  8
┌▓È_1
  5
466
 10
1009.73
 20
-603.145
 30
0.000000
  70
    32
  0
VERTEX
  8
┌▓È_1
  5
467
 10
1009.75
 20
-603.161
 30
0.000000
  70
    32
  0
VERTEX
  8
┌▓È_1
  5
468
 10
1009.77
 20
-603.178
 30
0.000000
  70
    32
  0
VERTEX
  8
┌▓È_1
  5
469
 10
1009.78
 20
-603.194
 30
0.000000
  70
    32
  0
VERTEX
  8
┌▓È_1
  5
46A
 10
1009.80
 20
-603.211
 30
0.000000
  70
    32
  0
VERTEX
  8
┌▓È_1
  5
46B
 10
1009.82
 20
-603.228
 30
0.000000
  70
    32
  0
VERTEX
  8
┌▓È_1
  5
46C
 10
1009.84
 20
-603.244
 30
0.000000
  70
    32
  0
VERTEX
  8
┌▓È_1
  5
46D
 10
1009.86
 20
-603.261
 30
0.000000
  70
    32
  0
VERTEX
  8
┌▓È_1
  5
46E
 10
1009.87
 20
-603.277
 30
0.000000
  70
    32
  0
VERTEX
  8
┌▓È_1
  5
46F
 10
1009.89
 20
-603.294
 30
0.000000
  70
    32
  0
VERTEX
  8
┌▓È_1
  5
470
 10
1009.91
 20
-603.310
 30
0.000000
  70
    32
  0
VERTEX
  8
┌▓È_1
  5
471
 10
1009.93
 20
-603.327
 30
0.000000
  70
    32
  0
VERTEX
  8
┌▓È_1
  5
472
 10
1009.95
 20
-603.344
 30
0.000000
  70
    32
  0
VERTEX
  8
┌▓È_1
  5
473
 10
1009.96
 20
-603.360
 30
0.000000
  70
    32
  0
VERTEX
  8
┌▓È_1
  5
474
 10
1009.98
 20
-603.377
 30
0.000000
  70
    32
  0
VERTEX
  8
┌▓È_1
  5
475
 10
1010.00
 20
-603.393
 30
0.000000
  70
    32
  0
VERTEX
  8
┌▓È_1
  5
476
 10
1010.02
 20
-603.410
 30
0.000000
  70
    32
  0
VERTEX
  8
┌▓È_1
  5
477
 10
1010.04
 20
-603.426
 30
0.000000
  70
    32
  0
VERTEX
  8
┌▓È_1
  5
478
 10
1010.05
 20
-603.443
 30
0.000000
  70
    32
  0
VERTEX
  8
┌▓È_1
  5
479
 10
1010.07
 20
-603.459
 30
0.000000
  70
    32
  0
VERTEX
  8
┌▓È_1
  5
47A
 10
1010.09
 20
-603.476
 30
0.000000
  70
    32
  0
VERTEX
  8
┌▓È_1
  5
47B
 10
1010.11
 20
-603.492
 30
0.000000
  70
    32
  0
VERTEX
  8
┌▓È_1
  5
47C
 10
1010.13
 20
-603.509
 30
0.000000
  70
    32
  0
VERTEX
  8
┌▓È_1
  5
47D
 10
1010.14
 20
-603.525
 30
0.000000
  70
    32
  0
VERTEX
  8
┌▓È_1
  5
47E
 10
1010.16
 20
-603.542
 30
0.000000
  70
    32
  0
VERTEX
  8
┌▓È_1
  5
47F
 10
1010.18
 20
-603.558
 30
0.000000
  70
    32
  0
VERTEX
  8
┌▓È_1
  5
480
 10
1010.20
 20
-603.574
 30
0.000000
  70
    32
  0
VERTEX
  8
┌▓È_1
  5
481
 10
1010.22
 20
-603.591
 30
0.000000
  70
    32
  0
VERTEX
  8
┌▓È_1
  5
482
 10
1010.24
 20
-603.607
 30
0.000000
  70
    32
  0
VERTEX
  8
┌▓È_1
  5
483
 10
1010.25
 20
-603.624
 30
0.000000
  70
    32
  0
VERTEX
  8
┌▓È_1
  5
484
 10
1010.27
 20
-603.640
 30
0.000000
  70
    32
  0
VERTEX
  8
┌▓È_1
  5
485
 10
1010.29
 20
-603.656
 30
0.000000
  70
    32
  0
VERTEX
  8
┌▓È_1
  5
486
 10
1010.31
 20
-603.673
 30
0.000000
  70
    32
  0
VERTEX
  8
┌▓È_1
  5
487
 10
1010.33
 20
-603.689
 30
0.000000
  70
    32
  0
VERTEX
  8
┌▓È_1
  5
488
 10
1010.34
 20
-603.705
 30
0.000000
  70
    32
  0
VERTEX
  8
┌▓È_1
  5
489
 10
1010.36
 20
-603.722
 30
0.000000
  70
    32
  0
VERTEX
  8
┌▓È_1
  5
48A
 10
1010.38
 20
-603.738
 30
0.000000
  70
    32
  0
VERTEX
  8
┌▓È_1
  5
48B
 10
1010.40
 20
-603.754
 30
0.000000
  70
    32
  0
VERTEX
  8
┌▓È_1
  5
48C
 10
1010.42
 20
-603.771
 30
0.000000
  70
    32
  0
VERTEX
  8
┌▓È_1
  5
48D
 10
1010.44
 20
-603.787
 30
0.000000
  70
    32
  0
VERTEX
  8
┌▓È_1
  5
48E
 10
1010.45
 20
-603.803
 30
0.000000
  70
    32
  0
VERTEX
  8
┌▓È_1
  5
48F
 10
1010.47
 20
-603.819
 30
0.000000
  70
    32
  0
VERTEX
  8
┌▓È_1
  5
490
 10
1010.49
 20
-603.836
 30
0.000000
  70
    32
  0
VERTEX
  8
┌▓È_1
  5
491
 10
1010.51
 20
-603.852
 30
0.000000
  70
    32
  0
VERTEX
  8
┌▓È_1
  5
492
 10
1010.53
 20
-603.868
 30
0.000000
  70
    32
  0
VERTEX
  8
┌▓È_1
  5
493
 10
1010.54
 20
-603.884
 30
0.000000
  70
    32
  0
VERTEX
  8
┌▓È_1
  5
494
 10
1010.56
 20
-603.900
 30
0.000000
  70
    32
  0
VERTEX
  8
┌▓È_1
  5
495
 10
1010.58
 20
-603.916
 30
0.000000
  70
    32
  0
VERTEX
  8
┌▓È_1
  5
496
 10
1010.60
 20
-603.933
 30
0.000000
  70
    32
  0
VERTEX
  8
┌▓È_1
  5
497
 10
1010.62
 20
-603.949
 30
0.000000
  70
    32
  0
VERTEX
  8
┌▓È_1
  5
498
 10
1010.64
 20
-603.965
 30
0.000000
  70
    32
  0
VERTEX
  8
┌▓È_1
  5
499
 10
1010.65
 20
-603.981
 30
0.000000
  70
    32
  0
VERTEX
  8
┌▓È_1
  5
49A
 10
1010.67
 20
-603.997
 30
0.000000
  70
    32
  0
VERTEX
  8
┌▓È_1
  5
49B
 10
1010.69
 20
-604.013
 30
0.000000
  70
    32
  0
VERTEX
  8
┌▓È_1
  5
49C
 10
1010.71
 20
-604.029
 30
0.000000
  70
    32
  0
VERTEX
  8
┌▓È_1
  5
49D
 10
1010.73
 20
-604.045
 30
0.000000
  70
    32
  0
VERTEX
  8
┌▓È_1
  5
49E
 10
1010.75
 20
-604.061
 30
0.000000
  70
    32
  0
VERTEX
  8
┌▓È_1
  5
49F
 10
1010.76
 20
-604.077
 30
0.000000
  70
    32
  0
VERTEX
  8
┌▓È_1
  5
4A0
 10
1010.78
 20
-604.093
 30
0.000000
  70
    32
  0
VERTEX
  8
┌▓È_1
  5
4A1
 10
1010.80
 20
-604.108
 30
0.000000
  70
    32
  0
VERTEX
  8
┌▓È_1
  5
4A2
 10
1010.82
 20
-604.124
 30
0.000000
  70
    32
  0
VERTEX
  8
┌▓È_1
  5
4A3
 10
1010.84
 20
-604.140
 30
0.000000
  70
    32
  0
VERTEX
  8
┌▓È_1
  5
4A4
 10
1010.86
 20
-604.156
 30
0.000000
  70
    32
  0
VERTEX
  8
┌▓È_1
  5
4A5
 10
1010.87
 20
-604.172
 30
0.000000
  70
    32
  0
VERTEX
  8
┌▓È_1
  5
4A6
 10
1010.89
 20
-604.187
 30
0.000000
  70
    32
  0
VERTEX
  8
┌▓È_1
  5
4A7
 10
1010.91
 20
-604.203
 30
0.000000
  70
    32
  0
VERTEX
  8
┌▓È_1
  5
4A8
 10
1010.93
 20
-604.219
 30
0.000000
  70
    32
  0
VERTEX
  8
┌▓È_1
  5
4A9
 10
1010.95
 20
-604.235
 30
0.000000
  70
    32
  0
VERTEX
  8
┌▓È_1
  5
4AA
 10
1010.97
 20
-604.250
 30
0.000000
  70
    32
  0
VERTEX
  8
┌▓È_1
  5
4AB
 10
1010.99
 20
-604.266
 30
0.000000
  70
    32
  0
VERTEX
  8
┌▓È_1
  5
4AC
 10
1011.00
 20
-604.282
 30
0.000000
  70
    32
  0
VERTEX
  8
┌▓È_1
  5
4AD
 10
1011.02
 20
-604.297
 30
0.000000
  70
    32
  0
VERTEX
  8
┌▓È_1
  5
4AE
 10
1011.04
 20
-604.313
 30
0.000000
  70
    32
  0
VERTEX
  8
┌▓È_1
  5
4AF
 10
1011.06
 20
-604.328
 30
0.000000
  70
    32
  0
VERTEX
  8
┌▓È_1
  5
4B0
 10
1011.08
 20
-604.344
 30
0.000000
  70
    32
  0
VERTEX
  8
┌▓È_1
  5
4B1
 10
1011.10
 20
-604.359
 30
0.000000
  70
    32
  0
VERTEX
  8
┌▓È_1
  5
4B2
 10
1011.12
 20
-604.375
 30
0.000000
  70
    32
  0
VERTEX
  8
┌▓È_1
  5
4B3
 10
1011.13
 20
-604.390
 30
0.000000
  70
    32
  0
VERTEX
  8
┌▓È_1
  5
4B4
 10
1011.15
 20
-604.406
 30
0.000000
  70
    32
  0
VERTEX
  8
┌▓È_1
  5
4B5
 10
1011.17
 20
-604.421
 30
0.000000
  70
    32
  0
VERTEX
  8
┌▓È_1
  5
4B6
 10
1011.19
 20
-604.436
 30
0.000000
  70
    32
  0
VERTEX
  8
┌▓È_1
  5
4B7
 10
1011.21
 20
-604.452
 30
0.000000
  70
    32
  0
VERTEX
  8
┌▓È_1
  5
4B8
 10
1011.23
 20
-604.467
 30
0.000000
  70
    32
  0
VERTEX
  8
┌▓È_1
  5
4B9
 10
1011.25
 20
-604.482
 30
0.000000
  70
    32
  0
VERTEX
  8
┌▓È_1
  5
4BA
 10
1011.27
 20
-604.497
 30
0.000000
  70
    32
  0
VERTEX
  8
┌▓È_1
  5
4BB
 10
1011.28
 20
-604.512
 30
0.000000
  70
    32
  0
VERTEX
  8
┌▓È_1
  5
4BC
 10
1011.30
 20
-604.528
 30
0.000000
  70
    32
  0
VERTEX
  8
┌▓È_1
  5
4BD
 10
1011.32
 20
-604.543
 30
0.000000
  70
    32
  0
VERTEX
  8
┌▓È_1
  5
4BE
 10
1011.34
 20
-604.558
 30
0.000000
  70
    32
  0
VERTEX
  8
┌▓È_1
  5
4BF
 10
1011.36
 20
-604.573
 30
0.000000
  70
    32
  0
VERTEX
  8
┌▓È_1
  5
4C0
 10
1011.38
 20
-604.588
 30
0.000000
  70
    32
  0
VERTEX
  8
┌▓È_1
  5
4C1
 10
1011.40
 20
-604.603
 30
0.000000
  70
    32
  0
VERTEX
  8
┌▓È_1
  5
4C2
 10
1011.42
 20
-604.618
 30
0.000000
  70
    32
  0
VERTEX
  8
┌▓È_1
  5
4C3
 10
1011.44
 20
-604.633
 30
0.000000
  70
    32
  0
VERTEX
  8
┌▓È_1
  5
4C4
 10
1011.45
 20
-604.648
 30
0.000000
  70
    32
  0
VERTEX
  8
┌▓È_1
  5
4C5
 10
1011.47
 20
-604.663
 30
0.000000
  70
    32
  0
VERTEX
  8
┌▓È_1
  5
4C6
 10
1011.49
 20
-604.677
 30
0.000000
  70
    32
  0
VERTEX
  8
┌▓È_1
  5
4C7
 10
1011.51
 20
-604.692
 30
0.000000
  70
    32
  0
VERTEX
  8
┌▓È_1
  5
4C8
 10
1011.53
 20
-604.707
 30
0.000000
  70
    32
  0
VERTEX
  8
┌▓È_1
  5
4C9
 10
1011.55
 20
-604.722
 30
0.000000
  70
    32
  0
VERTEX
  8
┌▓È_1
  5
4CA
 10
1011.57
 20
-604.736
 30
0.000000
  70
    32
  0
VERTEX
  8
┌▓È_1
  5
4CB
 10
1011.59
 20
-604.751
 30
0.000000
  70
    32
  0
VERTEX
  8
┌▓È_1
  5
4CC
 10
1011.61
 20
-604.766
 30
0.000000
  70
    32
  0
VERTEX
  8
┌▓È_1
  5
4CD
 10
1011.63
 20
-604.780
 30
0.000000
  70
    32
  0
VERTEX
  8
┌▓È_1
  5
4CE
 10
1011.64
 20
-604.795
 30
0.000000
  70
    32
  0
VERTEX
  8
┌▓È_1
  5
4CF
 10
1011.66
 20
-604.809
 30
0.000000
  70
    32
  0
VERTEX
  8
┌▓È_1
  5
4D0
 10
1011.68
 20
-604.824
 30
0.000000
  70
    32
  0
VERTEX
  8
┌▓È_1
  5
4D1
 10
1011.70
 20
-604.838
 30
0.000000
  70
    32
  0
VERTEX
  8
┌▓È_1
  5
4D2
 10
1011.72
 20
-604.852
 30
0.000000
  70
    32
  0
VERTEX
  8
┌▓È_1
  5
4D3
 10
1011.74
 20
-604.867
 30
0.000000
  70
    32
  0
VERTEX
  8
┌▓È_1
  5
4D4
 10
1011.76
 20
-604.881
 30
0.000000
  70
    32
  0
VERTEX
  8
┌▓È_1
  5
4D5
 10
1011.78
 20
-604.895
 30
0.000000
  70
    32
  0
VERTEX
  8
┌▓È_1
  5
4D6
 10
1011.80
 20
-604.910
 30
0.000000
  70
    32
  0
VERTEX
  8
┌▓È_1
  5
4D7
 10
1011.82
 20
-604.924
 30
0.000000
  70
    32
  0
VERTEX
  8
┌▓È_1
  5
4D8
 10
1011.84
 20
-604.938
 30
0.000000
  70
    32
  0
VERTEX
  8
┌▓È_1
  5
4D9
 10
1011.86
 20
-604.952
 30
0.000000
  70
    32
  0
VERTEX
  8
┌▓È_1
  5
4DA
 10
1011.88
 20
-604.966
 30
0.000000
  70
    32
  0
VERTEX
  8
┌▓È_1
  5
4DB
 10
1011.90
 20
-604.980
 30
0.000000
  70
    32
  0
VERTEX
  8
┌▓È_1
  5
4DC
 10
1011.91
 20
-604.994
 30
0.000000
  70
    32
  0
VERTEX
  8
┌▓È_1
  5
4DD
 10
1011.93
 20
-605.008
 30
0.000000
  70
    32
  0
VERTEX
  8
┌▓È_1
  5
4DE
 10
1011.95
 20
-605.022
 30
0.000000
  70
    32
  0
VERTEX
  8
┌▓È_1
  5
4DF
 10
1011.97
 20
-605.036
 30
0.000000
  70
    32
  0
VERTEX
  8
┌▓È_1
  5
4E0
 10
1011.99
 20
-605.049
 30
0.000000
  70
    32
  0
VERTEX
  8
┌▓È_1
  5
4E1
 10
1012.01
 20
-605.063
 30
0.000000
  70
    32
  0
VERTEX
  8
┌▓È_1
  5
4E2
 10
1012.03
 20
-605.077
 30
0.000000
  70
    32
  0
VERTEX
  8
┌▓È_1
  5
4E3
 10
1012.05
 20
-605.091
 30
0.000000
  70
    32
  0
VERTEX
  8
┌▓È_1
  5
4E4
 10
1012.07
 20
-605.104
 30
0.000000
  70
    32
  0
VERTEX
  8
┌▓È_1
  5
4E5
 10
1012.09
 20
-605.118
 30
0.000000
  70
    32
  0
VERTEX
  8
┌▓È_1
  5
4E6
 10
1012.11
 20
-605.131
 30
0.000000
  70
    32
  0
VERTEX
  8
┌▓È_1
  5
4E7
 10
1012.13
 20
-605.145
 30
0.000000
  70
    32
  0
VERTEX
  8
┌▓È_1
  5
4E8
 10
1012.15
 20
-605.158
 30
0.000000
  70
    32
  0
VERTEX
  8
┌▓È_1
  5
4E9
 10
1012.17
 20
-605.172
 30
0.000000
  70
    32
  0
VERTEX
  8
┌▓È_1
  5
4EA
 10
1012.19
 20
-605.185
 30
0.000000
  70
    32
  0
VERTEX
  8
┌▓È_1
  5
4EB
 10
1012.21
 20
-605.198
 30
0.000000
  70
    32
  0
VERTEX
  8
┌▓È_1
  5
4EC
 10
1012.23
 20
-605.211
 30
0.000000
  70
    32
  0
VERTEX
  8
┌▓È_1
  5
4ED
 10
1012.25
 20
-605.225
 30
0.000000
  70
    32
  0
VERTEX
  8
┌▓È_1
  5
4EE
 10
1012.27
 20
-605.238
 30
0.000000
  70
    32
  0
VERTEX
  8
┌▓È_1
  5
4EF
 10
1012.29
 20
-605.251
 30
0.000000
  70
    32
  0
VERTEX
  8
┌▓È_1
  5
4F0
 10
1012.31
 20
-605.264
 30
0.000000
  70
    32
  0
VERTEX
  8
┌▓È_1
  5
4F1
 10
1012.33
 20
-605.277
 30
0.000000
  70
    32
  0
VERTEX
  8
┌▓È_1
  5
4F2
 10
1012.35
 20
-605.290
 30
0.000000
  70
    32
  0
VERTEX
  8
┌▓È_1
  5
4F3
 10
1012.37
 20
-605.303
 30
0.000000
  70
    32
  0
VERTEX
  8
┌▓È_1
  5
4F4
 10
1012.39
 20
-605.316
 30
0.000000
  70
    32
  0
VERTEX
  8
┌▓È_1
  5
4F5
 10
1012.41
 20
-605.328
 30
0.000000
  70
    32
  0
VERTEX
  8
┌▓È_1
  5
4F6
 10
1012.43
 20
-605.341
 30
0.000000
  70
    32
  0
VERTEX
  8
┌▓È_1
  5
4F7
 10
1012.45
 20
-605.354
 30
0.000000
  70
    32
  0
VERTEX
  8
┌▓È_1
  5
4F8
 10
1012.47
 20
-605.366
 30
0.000000
  70
    32
  0
VERTEX
  8
┌▓È_1
  5
4F9
 10
1012.49
 20
-605.379
 30
0.000000
  70
    32
  0
VERTEX
  8
┌▓È_1
  5
4FA
 10
1012.51
 20
-605.391
 30
0.000000
  70
    32
  0
VERTEX
  8
┌▓È_1
  5
4FB
 10
1012.53
 20
-605.404
 30
0.000000
  70
    32
  0
VERTEX
  8
┌▓È_1
  5
4FC
 10
1012.55
 20
-605.416
 30
0.000000
  70
    32
  0
VERTEX
  8
┌▓È_1
  5
4FD
 10
1012.57
 20
-605.429
 30
0.000000
  70
    32
  0
VERTEX
  8
┌▓È_1
  5
4FE
 10
1012.59
 20
-605.441
 30
0.000000
  70
    32
  0
VERTEX
  8
┌▓È_1
  5
4FF
 10
1012.61
 20
-605.453
 30
0.000000
  70
    32
  0
SEQEND
  8
┌▓È_1
  5
500
  0
POLYLINE
  8
┌▓È_1
  5
501
  62
5
  66
     1
 10
0.000000
 20
0.000000
 30
0.000000
  70
     8
  0
VERTEX
  8
┌▓È_1
  5
502
 10
1013.06
 20
-603.289
 30
0.000000
  70
    32
  0
VERTEX
  8
┌▓È_1
  5
503
 10
1013.06
 20
-603.296
 30
0.000000
  70
    32
  0
VERTEX
  8
┌▓È_1
  5
504
 10
1013.07
 20
-603.303
 30
0.000000
  70
    32
  0
VERTEX
  8
┌▓È_1
  5
505
 10
1013.08
 20
-603.311
 30
0.000000
  70
    32
  0
VERTEX
  8
┌▓È_1
  5
506
 10
1013.08
 20
-603.318
 30
0.000000
  70
    32
  0
VERTEX
  8
┌▓È_1
  5
507
 10
1013.09
 20
-603.325
 30
0.000000
  70
    32
  0
VERTEX
  8
┌▓È_1
  5
508
 10
1013.10
 20
-603.333
 30
0.000000
  70
    32
  0
VERTEX
  8
┌▓È_1
  5
509
 10
1013.10
 20
-603.340
 30
0.000000
  70
    32
  0
VERTEX
  8
┌▓È_1
  5
50A
 10
1013.11
 20
-603.347
 30
0.000000
  70
    32
  0
VERTEX
  8
┌▓È_1
  5
50B
 10
1013.12
 20
-603.355
 30
0.000000
  70
    32
  0
VERTEX
  8
┌▓È_1
  5
50C
 10
1013.12
 20
-603.362
 30
0.000000
  70
    32
  0
VERTEX
  8
┌▓È_1
  5
50D
 10
1013.13
 20
-603.370
 30
0.000000
  70
    32
  0
VERTEX
  8
┌▓È_1
  5
50E
 10
1013.14
 20
-603.377
 30
0.000000
  70
    32
  0
VERTEX
  8
┌▓È_1
  5
50F
 10
1013.14
 20
-603.384
 30
0.000000
  70
    32
  0
VERTEX
  8
┌▓È_1
  5
510
 10
1013.15
 20
-603.392
 30
0.000000
  70
    32
  0
VERTEX
  8
┌▓È_1
  5
511
 10
1013.16
 20
-603.399
 30
0.000000
  70
    32
  0
VERTEX
  8
┌▓È_1
  5
512
 10
1013.16
 20
-603.406
 30
0.000000
  70
    32
  0
VERTEX
  8
┌▓È_1
  5
513
 10
1013.17
 20
-603.414
 30
0.000000
  70
    32
  0
VERTEX
  8
┌▓È_1
  5
514
 10
1013.17
 20
-603.421
 30
0.000000
  70
    32
  0
VERTEX
  8
┌▓È_1
  5
515
 10
1013.18
 20
-603.428
 30
0.000000
  70
    32
  0
VERTEX
  8
┌▓È_1
  5
516
 10
1013.19
 20
-603.436
 30
0.000000
  70
    32
  0
VERTEX
  8
┌▓È_1
  5
517
 10
1013.19
 20
-603.443
 30
0.000000
  70
    32
  0
VERTEX
  8
┌▓È_1
  5
518
 10
1013.20
 20
-603.450
 30
0.000000
  70
    32
  0
VERTEX
  8
┌▓È_1
  5
519
 10
1013.21
 20
-603.458
 30
0.000000
  70
    32
  0
VERTEX
  8
┌▓È_1
  5
51A
 10
1013.21
 20
-603.465
 30
0.000000
  70
    32
  0
VERTEX
  8
┌▓È_1
  5
51B
 10
1013.22
 20
-603.472
 30
0.000000
  70
    32
  0
VERTEX
  8
┌▓È_1
  5
51C
 10
1013.23
 20
-603.480
 30
0.000000
  70
    32
  0
VERTEX
  8
┌▓È_1
  5
51D
 10
1013.23
 20
-603.487
 30
0.000000
  70
    32
  0
VERTEX
  8
┌▓È_1
  5
51E
 10
1013.24
 20
-603.494
 30
0.000000
  70
    32
  0
VERTEX
  8
┌▓È_1
  5
51F
 10
1013.25
 20
-603.502
 30
0.000000
  70
    32
  0
VERTEX
  8
┌▓È_1
  5
520
 10
1013.25
 20
-603.509
 30
0.000000
  70
    32
  0
VERTEX
  8
┌▓È_1
  5
521
 10
1013.26
 20
-603.516
 30
0.000000
  70
    32
  0
VERTEX
  8
┌▓È_1
  5
522
 10
1013.27
 20
-603.523
 30
0.000000
  70
    32
  0
VERTEX
  8
┌▓È_1
  5
523
 10
1013.27
 20
-603.531
 30
0.000000
  70
    32
  0
VERTEX
  8
┌▓È_1
  5
524
 10
1013.28
 20
-603.538
 30
0.000000
  70
    32
  0
VERTEX
  8
┌▓È_1
  5
525
 10
1013.29
 20
-603.545
 30
0.000000
  70
    32
  0
VERTEX
  8
┌▓È_1
  5
526
 10
1013.29
 20
-603.553
 30
0.000000
  70
    32
  0
VERTEX
  8
┌▓È_1
  5
527
 10
1013.30
 20
-603.560
 30
0.000000
  70
    32
  0
VERTEX
  8
┌▓È_1
  5
528
 10
1013.31
 20
-603.567
 30
0.000000
  70
    32
  0
VERTEX
  8
┌▓È_1
  5
529
 10
1013.31
 20
-603.575
 30
0.000000
  70
    32
  0
VERTEX
  8
┌▓È_1
  5
52A
 10
1013.32
 20
-603.582
 30
0.000000
  70
    32
  0
VERTEX
  8
┌▓È_1
  5
52B
 10
1013.33
 20
-603.589
 30
0.000000
  70
    32
  0
VERTEX
  8
┌▓È_1
  5
52C
 10
1013.33
 20
-603.596
 30
0.000000
  70
    32
  0
VERTEX
  8
┌▓È_1
  5
52D
 10
1013.34
 20
-603.604
 30
0.000000
  70
    32
  0
VERTEX
  8
┌▓È_1
  5
52E
 10
1013.35
 20
-603.611
 30
0.000000
  70
    32
  0
VERTEX
  8
┌▓È_1
  5
52F
 10
1013.35
 20
-603.618
 30
0.000000
  70
    32
  0
VERTEX
  8
┌▓È_1
  5
530
 10
1013.36
 20
-603.625
 30
0.000000
  70
    32
  0
VERTEX
  8
┌▓È_1
  5
531
 10
1013.37
 20
-603.633
 30
0.000000
  70
    32
  0
VERTEX
  8
┌▓È_1
  5
532
 10
1013.37
 20
-603.640
 30
0.000000
  70
    32
  0
VERTEX
  8
┌▓È_1
  5
533
 10
1013.38
 20
-603.647
 30
0.000000
  70
    32
  0
VERTEX
  8
┌▓È_1
  5
534
 10
1013.39
 20
-603.654
 30
0.000000
  70
    32
  0
VERTEX
  8
┌▓È_1
  5
535
 10
1013.39
 20
-603.661
 30
0.000000
  70
    32
  0
VERTEX
  8
┌▓È_1
  5
536
 10
1013.40
 20
-603.669
 30
0.000000
  70
    32
  0
VERTEX
  8
┌▓È_1
  5
537
 10
1013.41
 20
-603.676
 30
0.000000
  70
    32
  0
VERTEX
  8
┌▓È_1
  5
538
 10
1013.41
 20
-603.683
 30
0.000000
  70
    32
  0
VERTEX
  8
┌▓È_1
  5
539
 10
1013.42
 20
-603.690
 30
0.000000
  70
    32
  0
VERTEX
  8
┌▓È_1
  5
53A
 10
1013.43
 20
-603.697
 30
0.000000
  70
    32
  0
VERTEX
  8
┌▓È_1
  5
53B
 10
1013.43
 20
-603.705
 30
0.000000
  70
    32
  0
VERTEX
  8
┌▓È_1
  5
53C
 10
1013.44
 20
-603.712
 30
0.000000
  70
    32
  0
VERTEX
  8
┌▓È_1
  5
53D
 10
1013.45
 20
-603.719
 30
0.000000
  70
    32
  0
VERTEX
  8
┌▓È_1
  5
53E
 10
1013.45
 20
-603.726
 30
0.000000
  70
    32
  0
VERTEX
  8
┌▓È_1
  5
53F
 10
1013.46
 20
-603.733
 30
0.000000
  70
    32
  0
VERTEX
  8
┌▓È_1
  5
540
 10
1013.47
 20
-603.740
 30
0.000000
  70
    32
  0
VERTEX
  8
┌▓È_1
  5
541
 10
1013.47
 20
-603.748
 30
0.000000
  70
    32
  0
VERTEX
  8
┌▓È_1
  5
542
 10
1013.48
 20
-603.755
 30
0.000000
  70
    32
  0
VERTEX
  8
┌▓È_1
  5
543
 10
1013.49
 20
-603.762
 30
0.000000
  70
    32
  0
VERTEX
  8
┌▓È_1
  5
544
 10
1013.49
 20
-603.769
 30
0.000000
  70
    32
  0
VERTEX
  8
┌▓È_1
  5
545
 10
1013.50
 20
-603.776
 30
0.000000
  70
    32
  0
VERTEX
  8
┌▓È_1
  5
546
 10
1013.51
 20
-603.783
 30
0.000000
  70
    32
  0
VERTEX
  8
┌▓È_1
  5
547
 10
1013.52
 20
-603.790
 30
0.000000
  70
    32
  0
VERTEX
  8
┌▓È_1
  5
548
 10
1013.52
 20
-603.797
 30
0.000000
  70
    32
  0
VERTEX
  8
┌▓È_1
  5
549
 10
1013.53
 20
-603.805
 30
0.000000
  70
    32
  0
VERTEX
  8
┌▓È_1
  5
54A
 10
1013.54
 20
-603.812
 30
0.000000
  70
    32
  0
VERTEX
  8
┌▓È_1
  5
54B
 10
1013.54
 20
-603.819
 30
0.000000
  70
    32
  0
VERTEX
  8
┌▓È_1
  5
54C
 10
1013.55
 20
-603.826
 30
0.000000
  70
    32
  0
VERTEX
  8
┌▓È_1
  5
54D
 10
1013.56
 20
-603.833
 30
0.000000
  70
    32
  0
VERTEX
  8
┌▓È_1
  5
54E
 10
1013.56
 20
-603.840
 30
0.000000
  70
    32
  0
VERTEX
  8
┌▓È_1
  5
54F
 10
1013.57
 20
-603.847
 30
0.000000
  70
    32
  0
VERTEX
  8
┌▓È_1
  5
550
 10
1013.58
 20
-603.854
 30
0.000000
  70
    32
  0
VERTEX
  8
┌▓È_1
  5
551
 10
1013.58
 20
-603.861
 30
0.000000
  70
    32
  0
VERTEX
  8
┌▓È_1
  5
552
 10
1013.59
 20
-603.868
 30
0.000000
  70
    32
  0
VERTEX
  8
┌▓È_1
  5
553
 10
1013.60
 20
-603.875
 30
0.000000
  70
    32
  0
VERTEX
  8
┌▓È_1
  5
554
 10
1013.60
 20
-603.882
 30
0.000000
  70
    32
  0
VERTEX
  8
┌▓È_1
  5
555
 10
1013.61
 20
-603.889
 30
0.000000
  70
    32
  0
VERTEX
  8
┌▓È_1
  5
556
 10
1013.62
 20
-603.896
 30
0.000000
  70
    32
  0
VERTEX
  8
┌▓È_1
  5
557
 10
1013.62
 20
-603.903
 30
0.000000
  70
    32
  0
VERTEX
  8
┌▓È_1
  5
558
 10
1013.63
 20
-603.910
 30
0.000000
  70
    32
  0
VERTEX
  8
┌▓È_1
  5
559
 10
1013.64
 20
-603.917
 30
0.000000
  70
    32
  0
VERTEX
  8
┌▓È_1
  5
55A
 10
1013.64
 20
-603.924
 30
0.000000
  70
    32
  0
VERTEX
  8
┌▓È_1
  5
55B
 10
1013.65
 20
-603.931
 30
0.000000
  70
    32
  0
VERTEX
  8
┌▓È_1
  5
55C
 10
1013.66
 20
-603.938
 30
0.000000
  70
    32
  0
VERTEX
  8
┌▓È_1
  5
55D
 10
1013.67
 20
-603.944
 30
0.000000
  70
    32
  0
VERTEX
  8
┌▓È_1
  5
55E
 10
1013.67
 20
-603.951
 30
0.000000
  70
    32
  0
VERTEX
  8
┌▓È_1
  5
55F
 10
1013.68
 20
-603.958
 30
0.000000
  70
    32
  0
VERTEX
  8
┌▓È_1
  5
560
 10
1013.69
 20
-603.965
 30
0.000000
  70
    32
  0
VERTEX
  8
┌▓È_1
  5
561
 10
1013.69
 20
-603.972
 30
0.000000
  70
    32
  0
VERTEX
  8
┌▓È_1
  5
562
 10
1013.70
 20
-603.979
 30
0.000000
  70
    32
  0
VERTEX
  8
┌▓È_1
  5
563
 10
1013.71
 20
-603.986
 30
0.000000
  70
    32
  0
VERTEX
  8
┌▓È_1
  5
564
 10
1013.71
 20
-603.993
 30
0.000000
  70
    32
  0
VERTEX
  8
┌▓È_1
  5
565
 10
1013.72
 20
-603.999
 30
0.000000
  70
    32
  0
VERTEX
  8
┌▓È_1
  5
566
 10
1013.73
 20
-604.006
 30
0.000000
  70
    32
  0
VERTEX
  8
┌▓È_1
  5
567
 10
1013.73
 20
-604.013
 30
0.000000
  70
    32
  0
VERTEX
  8
┌▓È_1
  5
568
 10
1013.74
 20
-604.020
 30
0.000000
  70
    32
  0
VERTEX
  8
┌▓È_1
  5
569
 10
1013.75
 20
-604.027
 30
0.000000
  70
    32
  0
VERTEX
  8
┌▓È_1
  5
56A
 10
1013.76
 20
-604.033
 30
0.000000
  70
    32
  0
VERTEX
  8
┌▓È_1
  5
56B
 10
1013.76
 20
-604.040
 30
0.000000
  70
    32
  0
VERTEX
  8
┌▓È_1
  5
56C
 10
1013.77
 20
-604.047
 30
0.000000
  70
    32
  0
VERTEX
  8
┌▓È_1
  5
56D
 10
1013.78
 20
-604.054
 30
0.000000
  70
    32
  0
VERTEX
  8
┌▓È_1
  5
56E
 10
1013.78
 20
-604.060
 30
0.000000
  70
    32
  0
VERTEX
  8
┌▓È_1
  5
56F
 10
1013.79
 20
-604.067
 30
0.000000
  70
    32
  0
VERTEX
  8
┌▓È_1
  5
570
 10
1013.80
 20
-604.074
 30
0.000000
  70
    32
  0
VERTEX
  8
┌▓È_1
  5
571
 10
1013.80
 20
-604.080
 30
0.000000
  70
    32
  0
VERTEX
  8
┌▓È_1
  5
572
 10
1013.81
 20
-604.087
 30
0.000000
  70
    32
  0
VERTEX
  8
┌▓È_1
  5
573
 10
1013.82
 20
-604.094
 30
0.000000
  70
    32
  0
VERTEX
  8
┌▓È_1
  5
574
 10
1013.83
 20
-604.100
 30
0.000000
  70
    32
  0
VERTEX
  8
┌▓È_1
  5
575
 10
1013.83
 20
-604.107
 30
0.000000
  70
    32
  0
VERTEX
  8
┌▓È_1
  5
576
 10
1013.84
 20
-604.114
 30
0.000000
  70
    32
  0
VERTEX
  8
┌▓È_1
  5
577
 10
1013.85
 20
-604.120
 30
0.000000
  70
    32
  0
VERTEX
  8
┌▓È_1
  5
578
 10
1013.85
 20
-604.127
 30
0.000000
  70
    32
  0
VERTEX
  8
┌▓È_1
  5
579
 10
1013.86
 20
-604.133
 30
0.000000
  70
    32
  0
VERTEX
  8
┌▓È_1
  5
57A
 10
1013.87
 20
-604.140
 30
0.000000
  70
    32
  0
VERTEX
  8
┌▓È_1
  5
57B
 10
1013.87
 20
-604.147
 30
0.000000
  70
    32
  0
VERTEX
  8
┌▓È_1
  5
57C
 10
1013.88
 20
-604.153
 30
0.000000
  70
    32
  0
VERTEX
  8
┌▓È_1
  5
57D
 10
1013.89
 20
-604.160
 30
0.000000
  70
    32
  0
VERTEX
  8
┌▓È_1
  5
57E
 10
1013.90
 20
-604.166
 30
0.000000
  70
    32
  0
VERTEX
  8
┌▓È_1
  5
57F
 10
1013.90
 20
-604.173
 30
0.000000
  70
    32
  0
VERTEX
  8
┌▓È_1
  5
580
 10
1013.91
 20
-604.179
 30
0.000000
  70
    32
  0
VERTEX
  8
┌▓È_1
  5
581
 10
1013.92
 20
-604.186
 30
0.000000
  70
    32
  0
SEQEND
  8
┌▓È_1
  5
582
  0
LINE
  5
10E
  8
┌▓È_1
 62
     5
 10
733.52890624999998
 20
-399.77975260419998
 30
0.0
 11
733.52890624999998
 21
-408.47975260419997
 31
0.0
  0
ARC
  5
10F
  8
┌▓È_1
 62
     5
 10
1002.461219405
 20
-604.40082703309997
 30
0.0
 40
3.0
 50
270.0
 51
0.0
  0
LINE
  5
110
  8
┌▓È_1
 62
     5
 10
1006.961219405
 20
-600.40082703309997
 30
0.0
 11
1002.961219405
 21
-600.40082703309997
 31
0.0
  0
LINE
  5
111
  8
┌▓È_1
 62
     5
 10
1006.961219405
 20
-602.40082703309986
 30
0.0
 11
1006.961219405
 21
-603.90082703309997
 31
0.0
  0
LINE
  5
112
  8
┌▓È_1
 62
     5
 10
997.31011559339993
 20
-602.40082703309986
 30
0.0
 11
997.31011559339993
 21
-603.90082703309997
 31
0.0
  0
LINE
  5
113
  8
┌▓È_1
 62
     5
 10
1002.961219405
 20
-603.90082703309997
 30
0.0
 11
1002.961219405
 21
-604.40082703309997
 31
0.0
  0
INSERT
  5
114
  8
0
  6
CONTINUOUS
  2
*U35
 10
0.0
 20
0.0
 30
0.0
  0
INSERT
  5
115
  8
0
  6
CONTINUOUS
  2
*U36
 10
0.0
 20
0.0
 30
0.0
  0
INSERT
  5
116
  8
0
  6
CONTINUOUS
  2
*U37
 10
0.0
 20
0.0
 30
0.0
  0
INSERT
  5
117
  8
0
  6
CONTINUOUS
  2
*U38
 10
0.0
 20
0.0
 30
0.0
  0
INSERT
  5
118
  8
0
  6
CONTINUOUS
  2
*U39
 10
0.0
 20
0.0
 30
0.0
  0
LINE
  5
119
  8
┌▓È_1
 10
962.44914704369978
 20
-582.54864854749985
 30
0.0
 11
976.26375569530001
 21
-582.54864854749985
 31
0.0
  0
LINE
  5
11A
  8
┌▓È_1
 10
999.30057291669982
 20
-576.68600000000004
 30
0.0
 11
999.30057291669982
 21
-587.68600000000004
 31
0.0
  0
LINE
  5
11B
  8
┌▓È_1
 62
     5
 10
1005.461219405
 20
-604.40082703309997
 30
0.0
 11
1005.461219405
 21
-603.90082703309997
 31
0.0
  0
ARC
  5
11C
  8
┌▓È_1
 62
     5
 10
1001.461219405
 20
-604.40082703309997
 30
0.0
 40
1.5
 50
270.0
 51
0.0
  0
LINE
  5
11D
  8
┌▓È_1
 62
     5
 10
998.46121940499995
 20
-607.40082703309986
 30
0.0
 11
1002.461219405
 21
-607.40082703309986
 31
0.0
  0
LINE
  5
11E
  8
┌▓È_1
 62
     5
 10
1000.961219405
 20
-603.90082703309997
 30
0.0
 11
1002.961219405
 21
-603.90082703309997
 31
0.0
  0
LINE
  5
11F
  8
┌▓È_1
 62
     5
 10
1000.961219405
 20
-602.40082703309986
 30
0.0
 11
1000.961219405
 21
-601.90082703309986
 31
0.0
  0
DIMENSION
  5
12F
  8
Éíû@É³
  2
*D8
 10
730.19557299610005
 20
-399.97975260419997
 30
0.0
 11
730.19557299610005
 21
-404.22975260419992
 31
0.0
 70
   128
  1
<>
 13
733.52890624999998
 23
-399.97975260419997
 33
0.0
 14
733.52890624999998
 24
-408.47975260419997
 34
0.0
 50
90.0
  0
DIMENSION
  5
13E
  8
Éíû@É³
  2
*D9
 10
1056.2598783664
 20
-412.06105315870002
 30
0.0
 11
1060.0098783664
 21
-412.06105315870002
 31
0.0
 70
   128
  1
<>
 13
1056.2598783664
 23
-406.73633611389988
 33
0.0
 14
1063.7598783664
 24
-406.1797526041999
 34
0.0
 50
180.0
  0
DIMENSION
  5
14D
  8
Éíû@É³
  2
*D10
 10
1060.2598783664
 20
-410.15648175879988
 30
0.0
 11
1062.0098783664
 21
-410.15648175879988
 31
0.0
 70
   128
  1
<>
 13
1060.2598783664
 23
-406.1797526041999
 33
0.0
 14
1063.7598783664
 24
-406.1797526041999
 34
0.0
 50
180.0
  0
DIMENSION
  5
15C
  8
Éíû@É³
  2
*D11
 10
1056.2598783664
 20
-410.15648175879988
 30
0.0
 11
1057.7598783664
 21
-410.15648175879988
 31
0.0
 70
   128
  1
<>
 13
1056.2598783664
 23
-406.73633611389988
 33
0.0
 14
1059.2598783664
 24
-406.0797526042
 34
0.0
 50
180.0
  0
LINE
  5
15D
  8
┌▓È_1
 62
     5
 10
959.30057291670005
 20
-609.68600000000004
 30
0.0
 11
717.75858072919993
 21
-609.68600000000004
 31
0.0
  0
LINE
  5
15E
  8
┌▓È_1
 62
     5
 10
1109.3005729167
 20
-327.6401666667
 30
0.0
 11
717.75858072919993
 21
-327.6401666667
 31
0.0
  0
LINE
  5
15F
  8
┌▓È_1
 62
     5
 10
717.75858072919993
 20
-609.68600000000004
 30
0.0
 11
717.75858072919993
 21
-327.6401666667
 31
0.0
  0
LINE
  5
160
  8
┌▓È_1
 62
     5
 10
1109.3005729167
 20
-576.68600000000004
 30
0.0
 11
1109.3005729167
 21
-327.6401666667
 31
0.0
  0
LINE
  5
161
  8
┌▓È_1
 62
     5
 10
1009.6218254656
 20
-600.40082703309997
 30
0.0
 11
1009.6218254656
 21
-602.20082703309993
 31
0.0
  0
LINE
  5
162
  8
┌▓È_1
 62
     5
 10
1009.6218254656
 20
-603.04504756810002
 30
0.0
 11
1009.6218254656
 21
-602.72293730059994
 31
0.0
  0
LINE
  5
163
  8
┌▓È_1
 62
     5
 10
1013.6218254656
 20
-602.72293730059994
 30
0.0
 11
1013.0561400406
 21
-603.28862272549998
 31
0.0
  0
INSERT
  5
164
  8
0
  6
CONTINUOUS
  2
*U40
 10
0.0
 20
0.0
 30
0.0
  0
INSERT
  5
165
  8
0
  6
CONTINUOUS
  2
*U41
 10
0.0
 20
0.0
 30
0.0
  0
LINE
  5
166
  8
┌▓È_1
 10
959.30057291670005
 20
-598.68600000000004
 30
0.0
 11
1109.3005729167
 21
-598.68600000000004
 31
0.0
  0
LINE
  5
167
  8
┌▓È_1
 10
959.30057291670005
 20
-587.68600000000004
 30
0.0
 11
1109.3005729167
 21
-587.68600000000004
 31
0.0
  0
LINE
  5
168
  8
┌▓È_1
 10
1109.3005729167
 20
-576.68600000000004
 30
0.0
 11
959.30057291670005
 21
-576.68600000000004
 31
0.0
  0
LINE
  5
169
  8
┌▓È_1
 62
     5
 10
1009.6218254656
 20
-607.40082703309986
 30
0.0
 11
1009.6218254656
 21
-605.90082703309986
 31
0.0
  0
LINE
  5
16A
  8
┌▓È_1
 62
     5
 10
1018.6218254656
 20
-600.40082703309997
 30
0.0
 11
1009.6218254656
 21
-600.40082703309997
 31
0.0
  0
LINE
  5
16B
  8
┌▓È_1
 10
1004.0092908147
 20
-593.18600000000004
 30
0.0
 11
1016.2533933788
 21
-593.18600000000004
 31
0.0
  0
LINE
  5
16C
  8
┌▓È_1
 10
1003.0748668065
 20
-582.54864854749985
 30
0.0
 11
1016.2452371767999
 21
-582.54864854749985
 31
0.0
  0
ARC
  5
16D
  8
┌▓È_1
 62
     5
 10
1012.1218254656
 20
-601.90082703309986
 30
0.0
 40
5.5
 50
270.0
 51
302.54495885400001
  0
ARC
  5
16E
  8
┌▓È_1
 62
     5
 10
1010.8218254656
 20
-602.10082703310002
 30
0.0
 40
3.7999999999999989
 50
331.39928138329998
 51
358.49204224580001
  0
LINE
  5
16F
  8
┌▓È_1
 62
     5
 10
1009.6218254656
 20
-605.90082703309986
 30
0.0
 11
1010.8218254656
 21
-605.90082703309986
 31
0.0
  0
LINE
  5
170
  8
┌▓È_1
 62
     5
 10
1009.6218254656
 20
-605.90082703309986
 30
0.0
 11
1009.6218254656
 21
-607.40082703309986
 31
0.0
  0
ARC
  5
171
  8
┌▓È_1
 62
     5
 10
1010.8218254656
 20
-602.10082703310002
 30
0.0
 40
3.7999999999999989
 50
270.0
 51
298.08590481520002
  0
LINE
  5
172
  8
┌▓È_1
 62
     5
 10
1056.6915011430001
 20
-408.37462093400001
 30
0.0
 11
1056.3368533258999
 21
-407.31067748279997
 31
0.0
  0
LINE
  5
173
  8
┌▓È_1
 62
     5
 10
1059.2598783664
 20
-402.37975260420001
 30
0.0
 11
1059.2598783664
 21
-406.0797526042
 31
0.0
  0
LINE
  5
174
  8
┌▓È_1
 62
     5
 10
1057.2598783664
 20
-408.57975260419988
 30
0.0
 11
1056.9761061324
 21
-408.57975260419988
 31
0.0
  0
ARC
  5
175
  8
┌▓È_1
 62
     5
 10
1056.9761061324
 20
-408.27975260419993
 30
0.0
 40
0.3
 50
198.4349488229
 51
270.0
  0
ARC
  5
176
  8
┌▓È_1
 62
     5
 10
1057.7598783664
 20
-406.83633611390002
 30
0.0
 40
1.5
 50
180.0
 51
198.4349488229
  0
ARC
  5
177
  8
┌▓È_1
 62
     5
 10
1062.9598783664001
 20
-406.27975260419993
 30
0.0
 40
0.8
 50
270.0
 51
0.0
  0
ARC
  5
178
  8
┌▓È_1
 62
     5
 10
1062.9598783664001
 20
-402.1797526041999
 30
0.0
 40
0.8
 50
0.0
 51
90.0
  0
LINE
  5
179
  8
┌▓È_1
 62
     5
 10
1063.7598783664
 20
-402.27975260419993
 30
0.0
 11
1060.2598783664
 21
-402.27975260419993
 31
0.0
  0
LINE
  5
17A
  8
┌▓È_1
 62
     5
 10
1063.7598783664
 20
-402.27975260419993
 30
0.0
 11
1063.7598783664
 21
-402.1797526041999
 31
0.0
  0
LINE
  5
17B
  8
┌▓È_1
 62
     5
 10
1060.2598783664
 20
-402.27975260419993
 30
0.0
 11
1060.2598783664
 21
-406.1797526041999
 31
0.0
  0
LINE
  5
17C
  8
┌▓È_1
 62
     5
 10
1063.7598783664
 20
-406.27975260419993
 30
0.0
 11
1063.7598783664
 21
-406.1797526041999
 31
0.0
  0
LINE
  5
17D
  8
┌▓È_1
 62
     5
 10
1063.7598783664
 20
-406.1797526041999
 30
0.0
 11
1060.2598783664
 21
-406.1797526041999
 31
0.0
  0
ARC
  5
17E
  8
┌▓È_1
 62
     5
 10
1057.3598783663999
 20
-407.3297526042
 30
0.0
 40
0.1
 50
90.0
 51
180.0
  0
LINE
  5
17F
  8
┌▓È_1
  6
STITCH
 10
867.0782583242999
 20
-401.27975260419998
 30
0.0
 11
733.52890624999998
 21
-401.27975260419998
 31
0.0
  0
LINE
  5
180
  8
┌▓È_1
  6
STITCH
 10
733.52890624999998
 20
-406.97975260419992
 30
0.0
 11
873.42536995679984
 21
-406.97975260419992
 31
0.0
  0
POLYLINE
  8
┌▓È_1
  5
583
  62
4
  66
     1
 10
0.000000
 20
0.000000
 30
0.000000
  70
     8
  0
VERTEX
  8
┌▓È_1
  5
584
 10
873.839
 20
-391.495
 30
0.000000
  70
    32
  0
VERTEX
  8
┌▓È_1
  5
585
 10
873.622
 20
-391.632
 30
0.000000
  70
    32
  0
VERTEX
  8
┌▓È_1
  5
586
 10
873.405
 20
-391.769
 30
0.000000
  70
    32
  0
VERTEX
  8
┌▓È_1
  5
587
 10
873.188
 20
-391.906
 30
0.000000
  70
    32
  0
VERTEX
  8
┌▓È_1
  5
588
 10
872.972
 20
-392.043
 30
0.000000
  70
    32
  0
VERTEX
  8
┌▓È_1
  5
589
 10
872.757
 20
-392.179
 30
0.000000
  70
    32
  0
VERTEX
  8
┌▓È_1
  5
58A
 10
872.542
 20
-392.316
 30
0.000000
  70
    32
  0
VERTEX
  8
┌▓È_1
  5
58B
 10
872.328
 20
-392.453
 30
0.000000
  70
    32
  0
VERTEX
  8
┌▓È_1
  5
58C
 10
872.115
 20
-392.589
 30
0.000000
  70
    32
  0
VERTEX
  8
┌▓È_1
  5
58D
 10
871.903
 20
-392.726
 30
0.000000
  70
    32
  0
VERTEX
  8
┌▓È_1
  5
58E
 10
871.692
 20
-392.862
 30
0.000000
  70
    32
  0
VERTEX
  8
┌▓È_1
  5
58F
 10
871.483
 20
-392.999
 30
0.000000
  70
    32
  0
VERTEX
  8
┌▓È_1
  5
590
 10
871.275
 20
-393.135
 30
0.000000
  70
    32
  0
VERTEX
  8
┌▓È_1
  5
591
 10
871.069
 20
-393.272
 30
0.000000
  70
    32
  0
VERTEX
  8
┌▓È_1
  5
592
 10
870.865
 20
-393.408
 30
0.000000
  70
    32
  0
VERTEX
  8
┌▓È_1
  5
593
 10
870.662
 20
-393.544
 30
0.000000
  70
    32
  0
VERTEX
  8
┌▓È_1
  5
594
 10
870.462
 20
-393.680
 30
0.000000
  70
    32
  0
VERTEX
  8
┌▓È_1
  5
595
 10
870.264
 20
-393.816
 30
0.000000
  70
    32
  0
VERTEX
  8
┌▓È_1
  5
596
 10
870.068
 20
-393.952
 30
0.000000
  70
    32
  0
VERTEX
  8
┌▓È_1
  5
597
 10
869.875
 20
-394.088
 30
0.000000
  70
    32
  0
VERTEX
  8
┌▓È_1
  5
598
 10
869.685
 20
-394.224
 30
0.000000
  70
    32
  0
VERTEX
  8
┌▓È_1
  5
599
 10
869.497
 20
-394.360
 30
0.000000
  70
    32
  0
VERTEX
  8
┌▓È_1
  5
59A
 10
869.312
 20
-394.495
 30
0.000000
  70
    32
  0
VERTEX
  8
┌▓È_1
  5
59B
 10
869.131
 20
-394.631
 30
0.000000
  70
    32
  0
VERTEX
  8
┌▓È_1
  5
59C
 10
868.952
 20
-394.767
 30
0.000000
  70
    32
  0
VERTEX
  8
┌▓È_1
  5
59D
 10
868.777
 20
-394.902
 30
0.000000
  70
    32
  0
VERTEX
  8
┌▓È_1
  5
59E
 10
868.606
 20
-395.037
 30
0.000000
  70
    32
  0
VERTEX
  8
┌▓È_1
  5
59F
 10
868.438
 20
-395.173
 30
0.000000
  70
    32
  0
VERTEX
  8
┌▓È_1
  5
5A0
 10
868.273
 20
-395.308
 30
0.000000
  70
    32
  0
VERTEX
  8
┌▓È_1
  5
5A1
 10
868.113
 20
-395.443
 30
0.000000
  70
    32
  0
VERTEX
  8
┌▓È_1
  5
5A2
 10
867.957
 20
-395.578
 30
0.000000
  70
    32
  0
VERTEX
  8
┌▓È_1
  5
5A3
 10
867.805
 20
-395.713
 30
0.000000
  70
    32
  0
VERTEX
  8
┌▓È_1
  5
5A4
 10
867.657
 20
-395.847
 30
0.000000
  70
    32
  0
VERTEX
  8
┌▓È_1
  5
5A5
 10
867.514
 20
-395.982
 30
0.000000
  70
    32
  0
VERTEX
  8
┌▓È_1
  5
5A6
 10
867.375
 20
-396.117
 30
0.000000
  70
    32
  0
VERTEX
  8
┌▓È_1
  5
5A7
 10
867.241
 20
-396.251
 30
0.000000
  70
    32
  0
VERTEX
  8
┌▓È_1
  5
5A8
 10
867.112
 20
-396.386
 30
0.000000
  70
    32
  0
VERTEX
  8
┌▓È_1
  5
5A9
 10
866.988
 20
-396.520
 30
0.000000
  70
    32
  0
VERTEX
  8
┌▓È_1
  5
5AA
 10
866.869
 20
-396.654
 30
0.000000
  70
    32
  0
VERTEX
  8
┌▓È_1
  5
5AB
 10
866.756
 20
-396.788
 30
0.000000
  70
    32
  0
VERTEX
  8
┌▓È_1
  5
5AC
 10
866.648
 20
-396.922
 30
0.000000
  70
    32
  0
VERTEX
  8
┌▓È_1
  5
5AD
 10
866.545
 20
-397.056
 30
0.000000
  70
    32
  0
VERTEX
  8
┌▓È_1
  5
5AE
 10
866.449
 20
-397.189
 30
0.000000
  70
    32
  0
VERTEX
  8
┌▓È_1
  5
5AF
 10
866.358
 20
-397.323
 30
0.000000
  70
    32
  0
VERTEX
  8
┌▓È_1
  5
5B0
 10
866.273
 20
-397.456
 30
0.000000
  70
    32
  0
VERTEX
  8
┌▓È_1
  5
5B1
 10
866.194
 20
-397.589
 30
0.000000
  70
    32
  0
VERTEX
  8
┌▓È_1
  5
5B2
 10
866.122
 20
-397.723
 30
0.000000
  70
    32
  0
VERTEX
  8
┌▓È_1
  5
5B3
 10
866.056
 20
-397.856
 30
0.000000
  70
    32
  0
VERTEX
  8
┌▓È_1
  5
5B4
 10
865.996
 20
-397.989
 30
0.000000
  70
    32
  0
VERTEX
  8
┌▓È_1
  5
5B5
 10
865.943
 20
-398.121
 30
0.000000
  70
    32
  0
VERTEX
  8
┌▓È_1
  5
5B6
 10
865.897
 20
-398.254
 30
0.000000
  70
    32
  0
VERTEX
  8
┌▓È_1
  5
5B7
 10
865.858
 20
-398.386
 30
0.000000
  70
    32
  0
VERTEX
  8
┌▓È_1
  5
5B8
 10
865.826
 20
-398.519
 30
0.000000
  70
    32
  0
VERTEX
  8
┌▓È_1
  5
5B9
 10
865.802
 20
-398.651
 30
0.000000
  70
    32
  0
VERTEX
  8
┌▓È_1
  5
5BA
 10
865.785
 20
-398.783
 30
0.000000
  70
    32
  0
VERTEX
  8
┌▓È_1
  5
5BB
 10
865.775
 20
-398.915
 30
0.000000
  70
    32
  0
VERTEX
  8
┌▓È_1
  5
5BC
 10
865.773
 20
-399.046
 30
0.000000
  70
    32
  0
VERTEX
  8
┌▓È_1
  5
5BD
 10
865.779
 20
-399.178
 30
0.000000
  70
    32
  0
VERTEX
  8
┌▓È_1
  5
5BE
 10
865.793
 20
-399.309
 30
0.000000
  70
    32
  0
VERTEX
  8
┌▓È_1
  5
5BF
 10
865.815
 20
-399.441
 30
0.000000
  70
    32
  0
VERTEX
  8
┌▓È_1
  5
5C0
 10
865.845
 20
-399.572
 30
0.000000
  70
    32
  0
VERTEX
  8
┌▓È_1
  5
5C1
 10
865.883
 20
-399.703
 30
0.000000
  70
    32
  0
VERTEX
  8
┌▓È_1
  5
5C2
 10
865.930
 20
-399.833
 30
0.000000
  70
    32
  0
VERTEX
  8
┌▓È_1
  5
5C3
 10
865.985
 20
-399.964
 30
0.000000
  70
    32
  0
VERTEX
  8
┌▓È_1
  5
5C4
 10
866.047
 20
-400.094
 30
0.000000
  70
    32
  0
VERTEX
  8
┌▓È_1
  5
5C5
 10
866.117
 20
-400.225
 30
0.000000
  70
    32
  0
VERTEX
  8
┌▓È_1
  5
5C6
 10
866.194
 20
-400.355
 30
0.000000
  70
    32
  0
VERTEX
  8
┌▓È_1
  5
5C7
 10
866.278
 20
-400.485
 30
0.000000
  70
    32
  0
VERTEX
  8
┌▓È_1
  5
5C8
 10
866.369
 20
-400.615
 30
0.000000
  70
    32
  0
VERTEX
  8
┌▓È_1
  5
5C9
 10
866.466
 20
-400.745
 30
0.000000
  70
    32
  0
VERTEX
  8
┌▓È_1
  5
5CA
 10
866.570
 20
-400.875
 30
0.000000
  70
    32
  0
VERTEX
  8
┌▓È_1
  5
5CB
 10
866.679
 20
-401.005
 30
0.000000
  70
    32
  0
VERTEX
  8
┌▓È_1
  5
5CC
 10
866.793
 20
-401.135
 30
0.000000
  70
    32
  0
VERTEX
  8
┌▓È_1
  5
5CD
 10
866.914
 20
-401.265
 30
0.000000
  70
    32
  0
VERTEX
  8
┌▓È_1
  5
5CE
 10
867.039
 20
-401.394
 30
0.000000
  70
    32
  0
VERTEX
  8
┌▓È_1
  5
5CF
 10
867.169
 20
-401.524
 30
0.000000
  70
    32
  0
VERTEX
  8
┌▓È_1
  5
5D0
 10
867.304
 20
-401.654
 30
0.000000
  70
    32
  0
VERTEX
  8
┌▓È_1
  5
5D1
 10
867.443
 20
-401.784
 30
0.000000
  70
    32
  0
VERTEX
  8
┌▓È_1
  5
5D2
 10
867.586
 20
-401.914
 30
0.000000
  70
    32
  0
VERTEX
  8
┌▓È_1
  5
5D3
 10
867.733
 20
-402.044
 30
0.000000
  70
    32
  0
VERTEX
  8
┌▓È_1
  5
5D4
 10
867.883
 20
-402.174
 30
0.000000
  70
    32
  0
VERTEX
  8
┌▓È_1
  5
5D5
 10
868.037
 20
-402.304
 30
0.000000
  70
    32
  0
VERTEX
  8
┌▓È_1
  5
5D6
 10
868.194
 20
-402.434
 30
0.000000
  70
    32
  0
VERTEX
  8
┌▓È_1
  5
5D7
 10
868.353
 20
-402.564
 30
0.000000
  70
    32
  0
VERTEX
  8
┌▓È_1
  5
5D8
 10
868.515
 20
-402.694
 30
0.000000
  70
    32
  0
VERTEX
  8
┌▓È_1
  5
5D9
 10
868.679
 20
-402.825
 30
0.000000
  70
    32
  0
VERTEX
  8
┌▓È_1
  5
5DA
 10
868.845
 20
-402.955
 30
0.000000
  70
    32
  0
VERTEX
  8
┌▓È_1
  5
5DB
 10
869.013
 20
-403.086
 30
0.000000
  70
    32
  0
VERTEX
  8
┌▓È_1
  5
5DC
 10
869.182
 20
-403.217
 30
0.000000
  70
    32
  0
VERTEX
  8
┌▓È_1
  5
5DD
 10
869.353
 20
-403.348
 30
0.000000
  70
    32
  0
VERTEX
  8
┌▓È_1
  5
5DE
 10
869.524
 20
-403.479
 30
0.000000
  70
    32
  0
VERTEX
  8
┌▓È_1
  5
5DF
 10
869.696
 20
-403.611
 30
0.000000
  70
    32
  0
VERTEX
  8
┌▓È_1
  5
5E0
 10
869.868
 20
-403.742
 30
0.000000
  70
    32
  0
VERTEX
  8
┌▓È_1
  5
5E1
 10
870.041
 20
-403.874
 30
0.000000
  70
    32
  0
VERTEX
  8
┌▓È_1
  5
5E2
 10
870.213
 20
-404.006
 30
0.000000
  70
    32
  0
VERTEX
  8
┌▓È_1
  5
5E3
 10
870.385
 20
-404.139
 30
0.000000
  70
    32
  0
VERTEX
  8
┌▓È_1
  5
5E4
 10
870.557
 20
-404.271
 30
0.000000
  70
    32
  0
VERTEX
  8
┌▓È_1
  5
5E5
 10
870.727
 20
-404.404
 30
0.000000
  70
    32
  0
VERTEX
  8
┌▓È_1
  5
5E6
 10
870.896
 20
-404.537
 30
0.000000
  70
    32
  0
VERTEX
  8
┌▓È_1
  5
5E7
 10
871.064
 20
-404.670
 30
0.000000
  70
    32
  0
VERTEX
  8
┌▓È_1
  5
5E8
 10
871.230
 20
-404.804
 30
0.000000
  70
    32
  0
VERTEX
  8
┌▓È_1
  5
5E9
 10
871.395
 20
-404.938
 30
0.000000
  70
    32
  0
VERTEX
  8
┌▓È_1
  5
5EA
 10
871.557
 20
-405.072
 30
0.000000
  70
    32
  0
VERTEX
  8
┌▓È_1
  5
5EB
 10
871.716
 20
-405.207
 30
0.000000
  70
    32
  0
VERTEX
  8
┌▓È_1
  5
5EC
 10
871.873
 20
-405.342
 30
0.000000
  70
    32
  0
VERTEX
  8
┌▓È_1
  5
5ED
 10
872.026
 20
-405.477
 30
0.000000
  70
    32
  0
VERTEX
  8
┌▓È_1
  5
5EE
 10
872.177
 20
-405.613
 30
0.000000
  70
    32
  0
VERTEX
  8
┌▓È_1
  5
5EF
 10
872.324
 20
-405.749
 30
0.000000
  70
    32
  0
VERTEX
  8
┌▓È_1
  5
5F0
 10
872.467
 20
-405.886
 30
0.000000
  70
    32
  0
VERTEX
  8
┌▓È_1
  5
5F1
 10
872.606
 20
-406.022
 30
0.000000
  70
    32
  0
VERTEX
  8
┌▓È_1
  5
5F2
 10
872.741
 20
-406.160
 30
0.000000
  70
    32
  0
VERTEX
  8
┌▓È_1
  5
5F3
 10
872.871
 20
-406.297
 30
0.000000
  70
    32
  0
VERTEX
  8
┌▓È_1
  5
5F4
 10
872.996
 20
-406.436
 30
0.000000
  70
    32
  0
VERTEX
  8
┌▓È_1
  5
5F5
 10
873.116
 20
-406.574
 30
0.000000
  70
    32
  0
VERTEX
  8
┌▓È_1
  5
5F6
 10
873.231
 20
-406.713
 30
0.000000
  70
    32
  0
VERTEX
  8
┌▓È_1
  5
5F7
 10
873.340
 20
-406.853
 30
0.000000
  70
    32
  0
VERTEX
  8
┌▓È_1
  5
5F8
 10
873.444
 20
-406.993
 30
0.000000
  70
    32
  0
VERTEX
  8
┌▓È_1
  5
5F9
 10
873.541
 20
-407.134
 30
0.000000
  70
    32
  0
VERTEX
  8
┌▓È_1
  5
5FA
 10
873.632
 20
-407.275
 30
0.000000
  70
    32
  0
VERTEX
  8
┌▓È_1
  5
5FB
 10
873.716
 20
-407.416
 30
0.000000
  70
    32
  0
VERTEX
  8
┌▓È_1
  5
5FC
 10
873.793
 20
-407.558
 30
0.000000
  70
    32
  0
VERTEX
  8
┌▓È_1
  5
5FD
 10
873.863
 20
-407.701
 30
0.000000
  70
    32
  0
VERTEX
  8
┌▓È_1
  5
5FE
 10
873.926
 20
-407.844
 30
0.000000
  70
    32
  0
VERTEX
  8
┌▓È_1
  5
5FF
 10
873.981
 20
-407.988
 30
0.000000
  70
    32
  0
VERTEX
  8
┌▓È_1
  5
600
 10
874.029
 20
-408.133
 30
0.000000
  70
    32
  0
VERTEX
  8
┌▓È_1
  5
601
 10
874.071
 20
-408.277
 30
0.000000
  70
    32
  0
VERTEX
  8
┌▓È_1
  5
602
 10
874.105
 20
-408.423
 30
0.000000
  70
    32
  0
VERTEX
  8
┌▓È_1
  5
603
 10
874.133
 20
-408.569
 30
0.000000
  70
    32
  0
VERTEX
  8
┌▓È_1
  5
604
 10
874.153
 20
-408.715
 30
0.000000
  70
    32
  0
VERTEX
  8
┌▓È_1
  5
605
 10
874.168
 20
-408.862
 30
0.000000
  70
    32
  0
VERTEX
  8
┌▓È_1
  5
606
 10
874.176
 20
-409.009
 30
0.000000
  70
    32
  0
VERTEX
  8
┌▓È_1
  5
607
 10
874.177
 20
-409.157
 30
0.000000
  70
    32
  0
VERTEX
  8
┌▓È_1
  5
608
 10
874.172
 20
-409.306
 30
0.000000
  70
    32
  0
VERTEX
  8
┌▓È_1
  5
609
 10
874.161
 20
-409.455
 30
0.000000
  70
    32
  0
VERTEX
  8
┌▓È_1
  5
60A
 10
874.144
 20
-409.604
 30
0.000000
  70
    32
  0
VERTEX
  8
┌▓È_1
  5
60B
 10
874.121
 20
-409.754
 30
0.000000
  70
    32
  0
VERTEX
  8
┌▓È_1
  5
60C
 10
874.092
 20
-409.904
 30
0.000000
  70
    32
  0
VERTEX
  8
┌▓È_1
  5
60D
 10
874.057
 20
-410.054
 30
0.000000
  70
    32
  0
VERTEX
  8
┌▓È_1
  5
60E
 10
874.017
 20
-410.205
 30
0.000000
  70
    32
  0
VERTEX
  8
┌▓È_1
  5
60F
 10
873.971
 20
-410.357
 30
0.000000
  70
    32
  0
VERTEX
  8
┌▓È_1
  5
610
 10
873.920
 20
-410.509
 30
0.000000
  70
    32
  0
VERTEX
  8
┌▓È_1
  5
611
 10
873.863
 20
-410.661
 30
0.000000
  70
    32
  0
VERTEX
  8
┌▓È_1
  5
612
 10
873.801
 20
-410.814
 30
0.000000
  70
    32
  0
VERTEX
  8
┌▓È_1
  5
613
 10
873.734
 20
-410.967
 30
0.000000
  70
    32
  0
VERTEX
  8
┌▓È_1
  5
614
 10
873.662
 20
-411.120
 30
0.000000
  70
    32
  0
VERTEX
  8
┌▓È_1
  5
615
 10
873.585
 20
-411.274
 30
0.000000
  70
    32
  0
VERTEX
  8
┌▓È_1
  5
616
 10
873.503
 20
-411.428
 30
0.000000
  70
    32
  0
VERTEX
  8
┌▓È_1
  5
617
 10
873.417
 20
-411.583
 30
0.000000
  70
    32
  0
VERTEX
  8
┌▓È_1
  5
618
 10
873.326
 20
-411.738
 30
0.000000
  70
    32
  0
VERTEX
  8
┌▓È_1
  5
619
 10
873.230
 20
-411.893
 30
0.000000
  70
    32
  0
VERTEX
  8
┌▓È_1
  5
61A
 10
873.130
 20
-412.049
 30
0.000000
  70
    32
  0
VERTEX
  8
┌▓È_1
  5
61B
 10
873.026
 20
-412.204
 30
0.000000
  70
    32
  0
VERTEX
  8
┌▓È_1
  5
61C
 10
872.917
 20
-412.361
 30
0.000000
  70
    32
  0
VERTEX
  8
┌▓È_1
  5
61D
 10
872.804
 20
-412.517
 30
0.000000
  70
    32
  0
VERTEX
  8
┌▓È_1
  5
61E
 10
872.688
 20
-412.674
 30
0.000000
  70
    32
  0
VERTEX
  8
┌▓È_1
  5
61F
 10
872.567
 20
-412.831
 30
0.000000
  70
    32
  0
VERTEX
  8
┌▓È_1
  5
620
 10
872.443
 20
-412.989
 30
0.000000
  70
    32
  0
VERTEX
  8
┌▓È_1
  5
621
 10
872.315
 20
-413.146
 30
0.000000
  70
    32
  0
VERTEX
  8
┌▓È_1
  5
622
 10
872.184
 20
-413.304
 30
0.000000
  70
    32
  0
VERTEX
  8
┌▓È_1
  5
623
 10
872.049
 20
-413.462
 30
0.000000
  70
    32
  0
VERTEX
  8
┌▓È_1
  5
624
 10
871.911
 20
-413.621
 30
0.000000
  70
    32
  0
VERTEX
  8
┌▓È_1
  5
625
 10
871.769
 20
-413.780
 30
0.000000
  70
    32
  0
VERTEX
  8
┌▓È_1
  5
626
 10
871.625
 20
-413.938
 30
0.000000
  70
    32
  0
VERTEX
  8
┌▓È_1
  5
627
 10
871.477
 20
-414.098
 30
0.000000
  70
    32
  0
VERTEX
  8
┌▓È_1
  5
628
 10
871.327
 20
-414.257
 30
0.000000
  70
    32
  0
VERTEX
  8
┌▓È_1
  5
629
 10
871.173
 20
-414.417
 30
0.000000
  70
    32
  0
VERTEX
  8
┌▓È_1
  5
62A
 10
871.017
 20
-414.576
 30
0.000000
  70
    32
  0
VERTEX
  8
┌▓È_1
  5
62B
 10
870.858
 20
-414.736
 30
0.000000
  70
    32
  0
VERTEX
  8
┌▓È_1
  5
62C
 10
870.697
 20
-414.897
 30
0.000000
  70
    32
  0
VERTEX
  8
┌▓È_1
  5
62D
 10
870.533
 20
-415.057
 30
0.000000
  70
    32
  0
VERTEX
  8
┌▓È_1
  5
62E
 10
870.367
 20
-415.218
 30
0.000000
  70
    32
  0
VERTEX
  8
┌▓È_1
  5
62F
 10
870.199
 20
-415.378
 30
0.000000
  70
    32
  0
VERTEX
  8
┌▓È_1
  5
630
 10
870.029
 20
-415.539
 30
0.000000
  70
    32
  0
VERTEX
  8
┌▓È_1
  5
631
 10
869.857
 20
-415.700
 30
0.000000
  70
    32
  0
VERTEX
  8
┌▓È_1
  5
632
 10
869.683
 20
-415.861
 30
0.000000
  70
    32
  0
VERTEX
  8
┌▓È_1
  5
633
 10
869.507
 20
-416.023
 30
0.000000
  70
    32
  0
VERTEX
  8
┌▓È_1
  5
634
 10
869.329
 20
-416.184
 30
0.000000
  70
    32
  0
VERTEX
  8
┌▓È_1
  5
635
 10
869.150
 20
-416.346
 30
0.000000
  70
    32
  0
VERTEX
  8
┌▓È_1
  5
636
 10
868.969
 20
-416.507
 30
0.000000
  70
    32
  0
VERTEX
  8
┌▓È_1
  5
637
 10
868.787
 20
-416.669
 30
0.000000
  70
    32
  0
VERTEX
  8
┌▓È_1
  5
638
 10
868.604
 20
-416.831
 30
0.000000
  70
    32
  0
VERTEX
  8
┌▓È_1
  5
639
 10
868.420
 20
-416.993
 30
0.000000
  70
    32
  0
VERTEX
  8
┌▓È_1
  5
63A
 10
868.234
 20
-417.155
 30
0.000000
  70
    32
  0
VERTEX
  8
┌▓È_1
  5
63B
 10
868.048
 20
-417.317
 30
0.000000
  70
    32
  0
VERTEX
  8
┌▓È_1
  5
63C
 10
867.861
 20
-417.479
 30
0.000000
  70
    32
  0
VERTEX
  8
┌▓È_1
  5
63D
 10
867.673
 20
-417.642
 30
0.000000
  70
    32
  0
VERTEX
  8
┌▓È_1
  5
63E
 10
867.484
 20
-417.804
 30
0.000000
  70
    32
  0
VERTEX
  8
┌▓È_1
  5
63F
 10
867.295
 20
-417.966
 30
0.000000
  70
    32
  0
VERTEX
  8
┌▓È_1
  5
640
 10
867.105
 20
-418.129
 30
0.000000
  70
    32
  0
VERTEX
  8
┌▓È_1
  5
641
 10
866.916
 20
-418.291
 30
0.000000
  70
    32
  0
VERTEX
  8
┌▓È_1
  5
642
 10
866.725
 20
-418.453
 30
0.000000
  70
    32
  0
VERTEX
  8
┌▓È_1
  5
643
 10
866.535
 20
-418.616
 30
0.000000
  70
    32
  0
SEQEND
  8
┌▓È_1
  5
644
  0
POLYLINE
  8
┌▓È_1
  5
645
  62
4
  66
     1
 10
0.000000
 20
0.000000
 30
0.000000
  70
     8
  0
VERTEX
  8
┌▓È_1
  5
646
 10
879.945
 20
-391.495
 30
0.000000
  70
    32
  0
VERTEX
  8
┌▓È_1
  5
647
 10
879.728
 20
-391.632
 30
0.000000
  70
    32
  0
VERTEX
  8
┌▓È_1
  5
648
 10
879.511
 20
-391.769
 30
0.000000
  70
    32
  0
VERTEX
  8
┌▓È_1
  5
649
 10
879.295
 20
-391.906
 30
0.000000
  70
    32
  0
VERTEX
  8
┌▓È_1
  5
64A
 10
879.079
 20
-392.043
 30
0.000000
  70
    32
  0
VERTEX
  8
┌▓È_1
  5
64B
 10
878.863
 20
-392.179
 30
0.000000
  70
    32
  0
VERTEX
  8
┌▓È_1
  5
64C
 10
878.648
 20
-392.316
 30
0.000000
  70
    32
  0
VERTEX
  8
┌▓È_1
  5
64D
 10
878.434
 20
-392.453
 30
0.000000
  70
    32
  0
VERTEX
  8
┌▓È_1
  5
64E
 10
878.221
 20
-392.589
 30
0.000000
  70
    32
  0
VERTEX
  8
┌▓È_1
  5
64F
 10
878.009
 20
-392.726
 30
0.000000
  70
    32
  0
VERTEX
  8
┌▓È_1
  5
650
 10
877.798
 20
-392.862
 30
0.000000
  70
    32
  0
VERTEX
  8
┌▓È_1
  5
651
 10
877.589
 20
-392.999
 30
0.000000
  70
    32
  0
VERTEX
  8
┌▓È_1
  5
652
 10
877.381
 20
-393.135
 30
0.000000
  70
    32
  0
VERTEX
  8
┌▓È_1
  5
653
 10
877.175
 20
-393.272
 30
0.000000
  70
    32
  0
VERTEX
  8
┌▓È_1
  5
654
 10
876.971
 20
-393.408
 30
0.000000
  70
    32
  0
VERTEX
  8
┌▓È_1
  5
655
 10
876.769
 20
-393.544
 30
0.000000
  70
    32
  0
VERTEX
  8
┌▓È_1
  5
656
 10
876.568
 20
-393.680
 30
0.000000
  70
    32
  0
VERTEX
  8
┌▓È_1
  5
657
 10
876.370
 20
-393.816
 30
0.000000
  70
    32
  0
VERTEX
  8
┌▓È_1
  5
658
 10
876.175
 20
-393.952
 30
0.000000
  70
    32
  0
VERTEX
  8
┌▓È_1
  5
659
 10
875.982
 20
-394.088
 30
0.000000
  70
    32
  0
VERTEX
  8
┌▓È_1
  5
65A
 10
875.791
 20
-394.224
 30
0.000000
  70
    32
  0
VERTEX
  8
┌▓È_1
  5
65B
 10
875.603
 20
-394.360
 30
0.000000
  70
    32
  0
VERTEX
  8
┌▓È_1
  5
65C
 10
875.419
 20
-394.495
 30
0.000000
  70
    32
  0
VERTEX
  8
┌▓È_1
  5
65D
 10
875.237
 20
-394.631
 30
0.000000
  70
    32
  0
VERTEX
  8
┌▓È_1
  5
65E
 10
875.059
 20
-394.767
 30
0.000000
  70
    32
  0
VERTEX
  8
┌▓È_1
  5
65F
 10
874.884
 20
-394.902
 30
0.000000
  70
    32
  0
VERTEX
  8
┌▓È_1
  5
660
 10
874.712
 20
-395.037
 30
0.000000
  70
    32
  0
VERTEX
  8
┌▓È_1
  5
661
 10
874.544
 20
-395.173
 30
0.000000
  70
    32
  0
VERTEX
  8
┌▓È_1
  5
662
 10
874.380
 20
-395.308
 30
0.000000
  70
    32
  0
VERTEX
  8
┌▓È_1
  5
663
 10
874.219
 20
-395.443
 30
0.000000
  70
    32
  0
VERTEX
  8
┌▓È_1
  5
664
 10
874.063
 20
-395.578
 30
0.000000
  70
    32
  0
VERTEX
  8
┌▓È_1
  5
665
 10
873.911
 20
-395.713
 30
0.000000
  70
    32
  0
VERTEX
  8
┌▓È_1
  5
666
 10
873.763
 20
-395.847
 30
0.000000
  70
    32
  0
VERTEX
  8
┌▓È_1
  5
667
 10
873.620
 20
-395.982
 30
0.000000
  70
    32
  0
VERTEX
  8
┌▓È_1
  5
668
 10
873.481
 20
-396.117
 30
0.000000
  70
    32
  0
VERTEX
  8
┌▓È_1
  5
669
 10
873.348
 20
-396.251
 30
0.000000
  70
    32
  0
VERTEX
  8
┌▓È_1
  5
66A
 10
873.219
 20
-396.386
 30
0.000000
  70
    32
  0
VERTEX
  8
┌▓È_1
  5
66B
 10
873.095
 20
-396.520
 30
0.000000
  70
    32
  0
VERTEX
  8
┌▓È_1
  5
66C
 10
872.976
 20
-396.654
 30
0.000000
  70
    32
  0
VERTEX
  8
┌▓È_1
  5
66D
 10
872.862
 20
-396.788
 30
0.000000
  70
    32
  0
VERTEX
  8
┌▓È_1
  5
66E
 10
872.754
 20
-396.922
 30
0.000000
  70
    32
  0
VERTEX
  8
┌▓È_1
  5
66F
 10
872.652
 20
-397.056
 30
0.000000
  70
    32
  0
VERTEX
  8
┌▓È_1
  5
670
 10
872.555
 20
-397.189
 30
0.000000
  70
    32
  0
VERTEX
  8
┌▓È_1
  5
671
 10
872.464
 20
-397.323
 30
0.000000
  70
    32
  0
VERTEX
  8
┌▓È_1
  5
672
 10
872.379
 20
-397.456
 30
0.000000
  70
    32
  0
VERTEX
  8
┌▓È_1
  5
673
 10
872.300
 20
-397.589
 30
0.000000
  70
    32
  0
VERTEX
  8
┌▓È_1
  5
674
 10
872.228
 20
-397.723
 30
0.000000
  70
    32
  0
VERTEX
  8
┌▓È_1
  5
675
 10
872.162
 20
-397.856
 30
0.000000
  70
    32
  0
VERTEX
  8
┌▓È_1
  5
676
 10
872.102
 20
-397.989
 30
0.000000
  70
    32
  0
VERTEX
  8
┌▓È_1
  5
677
 10
872.049
 20
-398.121
 30
0.000000
  70
    32
  0
VERTEX
  8
┌▓È_1
  5
678
 10
872.004
 20
-398.254
 30
0.000000
  70
    32
  0
VERTEX
  8
┌▓È_1
  5
679
 10
871.965
 20
-398.386
 30
0.000000
  70
    32
  0
VERTEX
  8
┌▓È_1
  5
67A
 10
871.933
 20
-398.519
 30
0.000000
  70
    32
  0
VERTEX
  8
┌▓È_1
  5
67B
 10
871.908
 20
-398.651
 30
0.000000
  70
    32
  0
VERTEX
  8
┌▓È_1
  5
67C
 10
871.891
 20
-398.783
 30
0.000000
  70
    32
  0
VERTEX
  8
┌▓È_1
  5
67D
 10
871.881
 20
-398.915
 30
0.000000
  70
    32
  0
VERTEX
  8
┌▓È_1
  5
67E
 10
871.879
 20
-399.046
 30
0.000000
  70
    32
  0
VERTEX
  8
┌▓È_1
  5
67F
 10
871.885
 20
-399.178
 30
0.000000
  70
    32
  0
VERTEX
  8
┌▓È_1
  5
680
 10
871.899
 20
-399.309
 30
0.000000
  70
    32
  0
VERTEX
  8
┌▓È_1
  5
681
 10
871.921
 20
-399.441
 30
0.000000
  70
    32
  0
VERTEX
  8
┌▓È_1
  5
682
 10
871.951
 20
-399.572
 30
0.000000
  70
    32
  0
VERTEX
  8
┌▓È_1
  5
683
 10
871.990
 20
-399.703
 30
0.000000
  70
    32
  0
VERTEX
  8
┌▓È_1
  5
684
 10
872.036
 20
-399.833
 30
0.000000
  70
    32
  0
VERTEX
  8
┌▓È_1
  5
685
 10
872.091
 20
-399.964
 30
0.000000
  70
    32
  0
VERTEX
  8
┌▓È_1
  5
686
 10
872.154
 20
-400.094
 30
0.000000
  70
    32
  0
VERTEX
  8
┌▓È_1
  5
687
 10
872.223
 20
-400.225
 30
0.000000
  70
    32
  0
VERTEX
  8
┌▓È_1
  5
688
 10
872.301
 20
-400.355
 30
0.000000
  70
    32
  0
VERTEX
  8
┌▓È_1
  5
689
 10
872.385
 20
-400.485
 30
0.000000
  70
    32
  0
VERTEX
  8
┌▓È_1
  5
68A
 10
872.475
 20
-400.615
 30
0.000000
  70
    32
  0
VERTEX
  8
┌▓È_1
  5
68B
 10
872.572
 20
-400.745
 30
0.000000
  70
    32
  0
VERTEX
  8
┌▓È_1
  5
68C
 10
872.676
 20
-400.875
 30
0.000000
  70
    32
  0
VERTEX
  8
┌▓È_1
  5
68D
 10
872.785
 20
-401.005
 30
0.000000
  70
    32
  0
VERTEX
  8
┌▓È_1
  5
68E
 10
872.900
 20
-401.135
 30
0.000000
  70
    32
  0
VERTEX
  8
┌▓È_1
  5
68F
 10
873.020
 20
-401.265
 30
0.000000
  70
    32
  0
VERTEX
  8
┌▓È_1
  5
690
 10
873.145
 20
-401.394
 30
0.000000
  70
    32
  0
VERTEX
  8
┌▓È_1
  5
691
 10
873.275
 20
-401.524
 30
0.000000
  70
    32
  0
VERTEX
  8
┌▓È_1
  5
692
 10
873.410
 20
-401.654
 30
0.000000
  70
    32
  0
VERTEX
  8
┌▓È_1
  5
693
 10
873.549
 20
-401.784
 30
0.000000
  70
    32
  0
VERTEX
  8
┌▓È_1
  5
694
 10
873.692
 20
-401.914
 30
0.000000
  70
    32
  0
VERTEX
  8
┌▓È_1
  5
695
 10
873.839
 20
-402.044
 30
0.000000
  70
    32
  0
VERTEX
  8
┌▓È_1
  5
696
 10
873.989
 20
-402.174
 30
0.000000
  70
    32
  0
VERTEX
  8
┌▓È_1
  5
697
 10
874.143
 20
-402.304
 30
0.000000
  70
    32
  0
VERTEX
  8
┌▓È_1
  5
698
 10
874.300
 20
-402.434
 30
0.000000
  70
    32
  0
VERTEX
  8
┌▓È_1
  5
699
 10
874.459
 20
-402.564
 30
0.000000
  70
    32
  0
VERTEX
  8
┌▓È_1
  5
69A
 10
874.621
 20
-402.694
 30
0.000000
  70
    32
  0
VERTEX
  8
┌▓È_1
  5
69B
 10
874.785
 20
-402.825
 30
0.000000
  70
    32
  0
VERTEX
  8
┌▓È_1
  5
69C
 10
874.951
 20
-402.955
 30
0.000000
  70
    32
  0
VERTEX
  8
┌▓È_1
  5
69D
 10
875.119
 20
-403.086
 30
0.000000
  70
    32
  0
VERTEX
  8
┌▓È_1
  5
69E
 10
875.288
 20
-403.217
 30
0.000000
  70
    32
  0
VERTEX
  8
┌▓È_1
  5
69F
 10
875.459
 20
-403.348
 30
0.000000
  70
    32
  0
VERTEX
  8
┌▓È_1
  5
6A0
 10
875.630
 20
-403.479
 30
0.000000
  70
    32
  0
VERTEX
  8
┌▓È_1
  5
6A1
 10
875.802
 20
-403.611
 30
0.000000
  70
    32
  0
VERTEX
  8
┌▓È_1
  5
6A2
 10
875.975
 20
-403.742
 30
0.000000
  70
    32
  0
VERTEX
  8
┌▓È_1
  5
6A3
 10
876.147
 20
-403.874
 30
0.000000
  70
    32
  0
VERTEX
  8
┌▓È_1
  5
6A4
 10
876.320
 20
-404.006
 30
0.000000
  70
    32
  0
VERTEX
  8
┌▓È_1
  5
6A5
 10
876.492
 20
-404.139
 30
0.000000
  70
    32
  0
VERTEX
  8
┌▓È_1
  5
6A6
 10
876.663
 20
-404.271
 30
0.000000
  70
    32
  0
VERTEX
  8
┌▓È_1
  5
6A7
 10
876.833
 20
-404.404
 30
0.000000
  70
    32
  0
VERTEX
  8
┌▓È_1
  5
6A8
 10
877.003
 20
-404.537
 30
0.000000
  70
    32
  0
VERTEX
  8
┌▓È_1
  5
6A9
 10
877.171
 20
-404.670
 30
0.000000
  70
    32
  0
VERTEX
  8
┌▓È_1
  5
6AA
 10
877.337
 20
-404.804
 30
0.000000
  70
    32
  0
VERTEX
  8
┌▓È_1
  5
6AB
 10
877.501
 20
-404.938
 30
0.000000
  70
    32
  0
VERTEX
  8
┌▓È_1
  5
6AC
 10
877.663
 20
-405.072
 30
0.000000
  70
    32
  0
VERTEX
  8
┌▓È_1
  5
6AD
 10
877.822
 20
-405.207
 30
0.000000
  70
    32
  0
VERTEX
  8
┌▓È_1
  5
6AE
 10
877.979
 20
-405.342
 30
0.000000
  70
    32
  0
VERTEX
  8
┌▓È_1
  5
6AF
 10
878.133
 20
-405.477
 30
0.000000
  70
    32
  0
VERTEX
  8
┌▓È_1
  5
6B0
 10
878.283
 20
-405.613
 30
0.000000
  70
    32
  0
VERTEX
  8
┌▓È_1
  5
6B1
 10
878.430
 20
-405.749
 30
0.000000
  70
    32
  0
VERTEX
  8
┌▓È_1
  5
6B2
 10
878.573
 20
-405.886
 30
0.000000
  70
    32
  0
VERTEX
  8
┌▓È_1
  5
6B3
 10
878.712
 20
-406.022
 30
0.000000
  70
    32
  0
VERTEX
  8
┌▓È_1
  5
6B4
 10
878.847
 20
-406.160
 30
0.000000
  70
    32
  0
VERTEX
  8
┌▓È_1
  5
6B5
 10
878.977
 20
-406.297
 30
0.000000
  70
    32
  0
VERTEX
  8
┌▓È_1
  5
6B6
 10
879.102
 20
-406.436
 30
0.000000
  70
    32
  0
VERTEX
  8
┌▓È_1
  5
6B7
 10
879.223
 20
-406.574
 30
0.000000
  70
    32
  0
VERTEX
  8
┌▓È_1
  5
6B8
 10
879.337
 20
-406.713
 30
0.000000
  70
    32
  0
VERTEX
  8
┌▓È_1
  5
6B9
 10
879.447
 20
-406.853
 30
0.000000
  70
    32
  0
VERTEX
  8
┌▓È_1
  5
6BA
 10
879.550
 20
-406.993
 30
0.000000
  70
    32
  0
VERTEX
  8
┌▓È_1
  5
6BB
 10
879.647
 20
-407.134
 30
0.000000
  70
    32
  0
VERTEX
  8
┌▓È_1
  5
6BC
 10
879.738
 20
-407.275
 30
0.000000
  70
    32
  0
VERTEX
  8
┌▓È_1
  5
6BD
 10
879.822
 20
-407.416
 30
0.000000
  70
    32
  0
VERTEX
  8
┌▓È_1
  5
6BE
 10
879.899
 20
-407.558
 30
0.000000
  70
    32
  0
VERTEX
  8
┌▓È_1
  5
6BF
 10
879.969
 20
-407.701
 30
0.000000
  70
    32
  0
VERTEX
  8
┌▓È_1
  5
6C0
 10
880.032
 20
-407.844
 30
0.000000
  70
    32
  0
VERTEX
  8
┌▓È_1
  5
6C1
 10
880.087
 20
-407.988
 30
0.000000
  70
    32
  0
VERTEX
  8
┌▓È_1
  5
6C2
 10
880.136
 20
-408.133
 30
0.000000
  70
    32
  0
VERTEX
  8
┌▓È_1
  5
6C3
 10
880.177
 20
-408.277
 30
0.000000
  70
    32
  0
VERTEX
  8
┌▓È_1
  5
6C4
 10
880.211
 20
-408.423
 30
0.000000
  70
    32
  0
VERTEX
  8
┌▓È_1
  5
6C5
 10
880.239
 20
-408.569
 30
0.000000
  70
    32
  0
VERTEX
  8
┌▓È_1
  5
6C6
 10
880.260
 20
-408.715
 30
0.000000
  70
    32
  0
VERTEX
  8
┌▓È_1
  5
6C7
 10
880.274
 20
-408.862
 30
0.000000
  70
    32
  0
VERTEX
  8
┌▓È_1
  5
6C8
 10
880.282
 20
-409.009
 30
0.000000
  70
    32
  0
VERTEX
  8
┌▓È_1
  5
6C9
 10
880.283
 20
-409.157
 30
0.000000
  70
    32
  0
VERTEX
  8
┌▓È_1
  5
6CA
 10
880.278
 20
-409.306
 30
0.000000
  70
    32
  0
VERTEX
  8
┌▓È_1
  5
6CB
 10
880.267
 20
-409.455
 30
0.000000
  70
    32
  0
VERTEX
  8
┌▓È_1
  5
6CC
 10
880.250
 20
-409.604
 30
0.000000
  70
    32
  0
VERTEX
  8
┌▓È_1
  5
6CD
 10
880.227
 20
-409.754
 30
0.000000
  70
    32
  0
VERTEX
  8
┌▓È_1
  5
6CE
 10
880.198
 20
-409.904
 30
0.000000
  70
    32
  0
VERTEX
  8
┌▓È_1
  5
6CF
 10
880.164
 20
-410.054
 30
0.000000
  70
    32
  0
VERTEX
  8
┌▓È_1
  5
6D0
 10
880.123
 20
-410.205
 30
0.000000
  70
    32
  0
VERTEX
  8
┌▓È_1
  5
6D1
 10
880.077
 20
-410.357
 30
0.000000
  70
    32
  0
VERTEX
  8
┌▓È_1
  5
6D2
 10
880.026
 20
-410.509
 30
0.000000
  70
    32
  0
VERTEX
  8
┌▓È_1
  5
6D3
 10
879.969
 20
-410.661
 30
0.000000
  70
    32
  0
VERTEX
  8
┌▓È_1
  5
6D4
 10
879.907
 20
-410.814
 30
0.000000
  70
    32
  0
VERTEX
  8
┌▓È_1
  5
6D5
 10
879.840
 20
-410.967
 30
0.000000
  70
    32
  0
VERTEX
  8
┌▓È_1
  5
6D6
 10
879.768
 20
-411.120
 30
0.000000
  70
    32
  0
VERTEX
  8
┌▓È_1
  5
6D7
 10
879.691
 20
-411.274
 30
0.000000
  70
    32
  0
VERTEX
  8
┌▓È_1
  5
6D8
 10
879.609
 20
-411.428
 30
0.000000
  70
    32
  0
VERTEX
  8
┌▓È_1
  5
6D9
 10
879.523
 20
-411.583
 30
0.000000
  70
    32
  0
VERTEX
  8
┌▓È_1
  5
6DA
 10
879.432
 20
-411.738
 30
0.000000
  70
    32
  0
VERTEX
  8
┌▓È_1
  5
6DB
 10
879.336
 20
-411.893
 30
0.000000
  70
    32
  0
VERTEX
  8
┌▓È_1
  5
6DC
 10
879.236
 20
-412.049
 30
0.000000
  70
    32
  0
VERTEX
  8
┌▓È_1
  5
6DD
 10
879.132
 20
-412.204
 30
0.000000
  70
    32
  0
VERTEX
  8
┌▓È_1
  5
6DE
 10
879.023
 20
-412.361
 30
0.000000
  70
    32
  0
VERTEX
  8
┌▓È_1
  5
6DF
 10
878.911
 20
-412.517
 30
0.000000
  70
    32
  0
VERTEX
  8
┌▓È_1
  5
6E0
 10
878.794
 20
-412.674
 30
0.000000
  70
    32
  0
VERTEX
  8
┌▓È_1
  5
6E1
 10
878.674
 20
-412.831
 30
0.000000
  70
    32
  0
VERTEX
  8
┌▓È_1
  5
6E2
 10
878.550
 20
-412.989
 30
0.000000
  70
    32
  0
VERTEX
  8
┌▓È_1
  5
6E3
 10
878.422
 20
-413.146
 30
0.000000
  70
    32
  0
VERTEX
  8
┌▓È_1
  5
6E4
 10
878.290
 20
-413.304
 30
0.000000
  70
    32
  0
VERTEX
  8
┌▓È_1
  5
6E5
 10
878.155
 20
-413.462
 30
0.000000
  70
    32
  0
VERTEX
  8
┌▓È_1
  5
6E6
 10
878.017
 20
-413.621
 30
0.000000
  70
    32
  0
VERTEX
  8
┌▓È_1
  5
6E7
 10
877.876
 20
-413.780
 30
0.000000
  70
    32
  0
VERTEX
  8
┌▓È_1
  5
6E8
 10
877.731
 20
-413.938
 30
0.000000
  70
    32
  0
VERTEX
  8
┌▓È_1
  5
6E9
 10
877.583
 20
-414.098
 30
0.000000
  70
    32
  0
VERTEX
  8
┌▓È_1
  5
6EA
 10
877.433
 20
-414.257
 30
0.000000
  70
    32
  0
VERTEX
  8
┌▓È_1
  5
6EB
 10
877.279
 20
-414.417
 30
0.000000
  70
    32
  0
VERTEX
  8
┌▓È_1
  5
6EC
 10
877.123
 20
-414.576
 30
0.000000
  70
    32
  0
VERTEX
  8
┌▓È_1
  5
6ED
 10
876.965
 20
-414.736
 30
0.000000
  70
    32
  0
VERTEX
  8
┌▓È_1
  5
6EE
 10
876.803
 20
-414.897
 30
0.000000
  70
    32
  0
VERTEX
  8
┌▓È_1
  5
6EF
 10
876.640
 20
-415.057
 30
0.000000
  70
    32
  0
VERTEX
  8
┌▓È_1
  5
6F0
 10
876.474
 20
-415.218
 30
0.000000
  70
    32
  0
VERTEX
  8
┌▓È_1
  5
6F1
 10
876.305
 20
-415.378
 30
0.000000
  70
    32
  0
VERTEX
  8
┌▓È_1
  5
6F2
 10
876.135
 20
-415.539
 30
0.000000
  70
    32
  0
VERTEX
  8
┌▓È_1
  5
6F3
 10
875.963
 20
-415.700
 30
0.000000
  70
    32
  0
VERTEX
  8
┌▓È_1
  5
6F4
 10
875.789
 20
-415.861
 30
0.000000
  70
    32
  0
VERTEX
  8
┌▓È_1
  5
6F5
 10
875.613
 20
-416.023
 30
0.000000
  70
    32
  0
VERTEX
  8
┌▓È_1
  5
6F6
 10
875.435
 20
-416.184
 30
0.000000
  70
    32
  0
VERTEX
  8
┌▓È_1
  5
6F7
 10
875.256
 20
-416.346
 30
0.000000
  70
    32
  0
VERTEX
  8
┌▓È_1
  5
6F8
 10
875.075
 20
-416.507
 30
0.000000
  70
    32
  0
VERTEX
  8
┌▓È_1
  5
6F9
 10
874.893
 20
-416.669
 30
0.000000
  70
    32
  0
VERTEX
  8
┌▓È_1
  5
6FA
 10
874.710
 20
-416.831
 30
0.000000
  70
    32
  0
VERTEX
  8
┌▓È_1
  5
6FB
 10
874.526
 20
-416.993
 30
0.000000
  70
    32
  0
VERTEX
  8
┌▓È_1
  5
6FC
 10
874.340
 20
-417.155
 30
0.000000
  70
    32
  0
VERTEX
  8
┌▓È_1
  5
6FD
 10
874.154
 20
-417.317
 30
0.000000
  70
    32
  0
VERTEX
  8
┌▓È_1
  5
6FE
 10
873.967
 20
-417.479
 30
0.000000
  70
    32
  0
VERTEX
  8
┌▓È_1
  5
6FF
 10
873.779
 20
-417.642
 30
0.000000
  70
    32
  0
VERTEX
  8
┌▓È_1
  5
700
 10
873.590
 20
-417.804
 30
0.000000
  70
    32
  0
VERTEX
  8
┌▓È_1
  5
701
 10
873.401
 20
-417.966
 30
0.000000
  70
    32
  0
VERTEX
  8
┌▓È_1
  5
702
 10
873.212
 20
-418.129
 30
0.000000
  70
    32
  0
VERTEX
  8
┌▓È_1
  5
703
 10
873.022
 20
-418.291
 30
0.000000
  70
    32
  0
VERTEX
  8
┌▓È_1
  5
704
 10
872.832
 20
-418.453
 30
0.000000
  70
    32
  0
VERTEX
  8
┌▓È_1
  5
705
 10
872.642
 20
-418.616
 30
0.000000
  70
    32
  0
SEQEND
  8
┌▓È_1
  5
706
  0
POLYLINE
  8
┌▓È_1
  5
707
  66
     1
 10
0.000000
 20
0.000000
 30
0.000000
  70
     8
  0
VERTEX
  8
┌▓È_1
  5
708
 10
874.500
 20
-389.800
 30
0.000000
  70
    32
  0
VERTEX
  8
┌▓È_1
  5
709
 10
874.500
 20
-389.800
 30
0.000000
  70
    32
  0
VERTEX
  8
┌▓È_1
  5
70A
 10
874.500
 20
-389.800
 30
0.000000
  70
    32
  0
VERTEX
  8
┌▓È_1
  5
70B
 10
874.500
 20
-389.800
 30
0.000000
  70
    32
  0
VERTEX
  8
┌▓È_1
  5
70C
 10
874.500
 20
-389.800
 30
0.000000
  70
    32
  0
VERTEX
  8
┌▓È_1
  5
70D
 10
874.500
 20
-389.800
 30
0.000000
  70
    32
  0
VERTEX
  8
┌▓È_1
  5
70E
 10
874.500
 20
-389.800
 30
0.000000
  70
    32
  0
VERTEX
  8
┌▓È_1
  5
70F
 10
874.500
 20
-389.800
 30
0.000000
  70
    32
  0
VERTEX
  8
┌▓È_1
  5
710
 10
874.500
 20
-389.800
 30
0.000000
  70
    32
  0
VERTEX
  8
┌▓È_1
  5
711
 10
874.500
 20
-389.800
 30
0.000000
  70
    32
  0
VERTEX
  8
┌▓È_1
  5
712
 10
874.500
 20
-389.800
 30
0.000000
  70
    32
  0
VERTEX
  8
┌▓È_1
  5
713
 10
874.500
 20
-389.800
 30
0.000000
  70
    32
  0
VERTEX
  8
┌▓È_1
  5
714
 10
874.500
 20
-389.800
 30
0.000000
  70
    32
  0
VERTEX
  8
┌▓È_1
  5
715
 10
874.500
 20
-389.800
 30
0.000000
  70
    32
  0
VERTEX
  8
┌▓È_1
  5
716
 10
874.500
 20
-389.800
 30
0.000000
  70
    32
  0
VERTEX
  8
┌▓È_1
  5
717
 10
874.500
 20
-389.800
 30
0.000000
  70
    32
  0
VERTEX
  8
┌▓È_1
  5
718
 10
874.500
 20
-389.800
 30
0.000000
  70
    32
  0
VERTEX
  8
┌▓È_1
  5
719
 10
874.500
 20
-389.800
 30
0.000000
  70
    32
  0
VERTEX
  8
┌▓È_1
  5
71A
 10
874.500
 20
-389.800
 30
0.000000
  70
    32
  0
VERTEX
  8
┌▓È_1
  5
71B
 10
874.500
 20
-389.800
 30
0.000000
  70
    32
  0
VERTEX
  8
┌▓È_1
  5
71C
 10
874.500
 20
-389.800
 30
0.000000
  70
    32
  0
VERTEX
  8
┌▓È_1
  5
71D
 10
874.500
 20
-389.800
 30
0.000000
  70
    32
  0
VERTEX
  8
┌▓È_1
  5
71E
 10
874.500
 20
-389.800
 30
0.000000
  70
    32
  0
VERTEX
  8
┌▓È_1
  5
71F
 10
874.500
 20
-389.800
 30
0.000000
  70
    32
  0
VERTEX
  8
┌▓È_1
  5
720
 10
874.500
 20
-389.800
 30
0.000000
  70
    32
  0
VERTEX
  8
┌▓È_1
  5
721
 10
874.500
 20
-389.800
 30
0.000000
  70
    32
  0
VERTEX
  8
┌▓È_1
  5
722
 10
874.500
 20
-389.800
 30
0.000000
  70
    32
  0
VERTEX
  8
┌▓È_1
  5
723
 10
874.500
 20
-389.800
 30
0.000000
  70
    32
  0
VERTEX
  8
┌▓È_1
  5
724
 10
874.500
 20
-389.800
 30
0.000000
  70
    32
  0
VERTEX
  8
┌▓È_1
  5
725
 10
874.500
 20
-389.800
 30
0.000000
  70
    32
  0
VERTEX
  8
┌▓È_1
  5
726
 10
874.500
 20
-389.800
 30
0.000000
  70
    32
  0
VERTEX
  8
┌▓È_1
  5
727
 10
874.500
 20
-389.800
 30
0.000000
  70
    32
  0
VERTEX
  8
┌▓È_1
  5
728
 10
874.500
 20
-389.800
 30
0.000000
  70
    32
  0
VERTEX
  8
┌▓È_1
  5
729
 10
874.500
 20
-389.800
 30
0.000000
  70
    32
  0
VERTEX
  8
┌▓È_1
  5
72A
 10
874.500
 20
-389.800
 30
0.000000
  70
    32
  0
VERTEX
  8
┌▓È_1
  5
72B
 10
874.500
 20
-389.800
 30
0.000000
  70
    32
  0
VERTEX
  8
┌▓È_1
  5
72C
 10
874.500
 20
-389.800
 30
0.000000
  70
    32
  0
VERTEX
  8
┌▓È_1
  5
72D
 10
874.500
 20
-389.800
 30
0.000000
  70
    32
  0
VERTEX
  8
┌▓È_1
  5
72E
 10
874.500
 20
-389.800
 30
0.000000
  70
    32
  0
VERTEX
  8
┌▓È_1
  5
72F
 10
874.500
 20
-389.800
 30
0.000000
  70
    32
  0
VERTEX
  8
┌▓È_1
  5
730
 10
874.500
 20
-389.800
 30
0.000000
  70
    32
  0
VERTEX
  8
┌▓È_1
  5
731
 10
874.500
 20
-389.800
 30
0.000000
  70
    32
  0
VERTEX
  8
┌▓È_1
  5
732
 10
874.500
 20
-389.800
 30
0.000000
  70
    32
  0
VERTEX
  8
┌▓È_1
  5
733
 10
874.500
 20
-389.800
 30
0.000000
  70
    32
  0
VERTEX
  8
┌▓È_1
  5
734
 10
874.500
 20
-389.800
 30
0.000000
  70
    32
  0
VERTEX
  8
┌▓È_1
  5
735
 10
874.500
 20
-389.800
 30
0.000000
  70
    32
  0
VERTEX
  8
┌▓È_1
  5
736
 10
874.500
 20
-389.800
 30
0.000000
  70
    32
  0
VERTEX
  8
┌▓È_1
  5
737
 10
874.500
 20
-389.800
 30
0.000000
  70
    32
  0
VERTEX
  8
┌▓È_1
  5
738
 10
874.500
 20
-389.800
 30
0.000000
  70
    32
  0
VERTEX
  8
┌▓È_1
  5
739
 10
874.500
 20
-389.800
 30
0.000000
  70
    32
  0
VERTEX
  8
┌▓È_1
  5
73A
 10
874.500
 20
-389.800
 30
0.000000
  70
    32
  0
VERTEX
  8
┌▓È_1
  5
73B
 10
874.500
 20
-389.800
 30
0.000000
  70
    32
  0
VERTEX
  8
┌▓È_1
  5
73C
 10
874.500
 20
-389.800
 30
0.000000
  70
    32
  0
VERTEX
  8
┌▓È_1
  5
73D
 10
874.500
 20
-389.800
 30
0.000000
  70
    32
  0
VERTEX
  8
┌▓È_1
  5
73E
 10
874.500
 20
-389.800
 30
0.000000
  70
    32
  0
VERTEX
  8
┌▓È_1
  5
73F
 10
874.500
 20
-389.800
 30
0.000000
  70
    32
  0
VERTEX
  8
┌▓È_1
  5
740
 10
874.500
 20
-389.800
 30
0.000000
  70
    32
  0
VERTEX
  8
┌▓È_1
  5
741
 10
874.500
 20
-389.800
 30
0.000000
  70
    32
  0
VERTEX
  8
┌▓È_1
  5
742
 10
874.500
 20
-389.800
 30
0.000000
  70
    32
  0
VERTEX
  8
┌▓È_1
  5
743
 10
874.500
 20
-389.800
 30
0.000000
  70
    32
  0
VERTEX
  8
┌▓È_1
  5
744
 10
874.500
 20
-389.800
 30
0.000000
  70
    32
  0
VERTEX
  8
┌▓È_1
  5
745
 10
874.500
 20
-389.800
 30
0.000000
  70
    32
  0
VERTEX
  8
┌▓È_1
  5
746
 10
874.500
 20
-389.800
 30
0.000000
  70
    32
  0
VERTEX
  8
┌▓È_1
  5
747
 10
874.500
 20
-389.800
 30
0.000000
  70
    32
  0
SEQEND
  8
┌▓È_1
  5
748
  0
LINE
  5
184
  8
┌▓È_1
 62
     5
 10
1033.5289062500001
 20
-408.47975260419997
 30
0.0
 11
1033.5289062500001
 21
-399.77975260419998
 31
0.0
  0
LINE
  5
185
  8
┌▓È_1
 62
     5
 10
1059.2598783664
 20
-402.37975260420001
 30
0.0
 11
1056.5598783664
 21
-402.37975260420001
 31
0.0
  0
ARC
  5
186
  8
┌▓È_1
 62
     5
 10
1056.9761061324
 20
-400.17975260420002
 30
0.0
 40
0.3
 50
90.0
 51
161.5650511771
  0
LINE
  5
187
  8
┌▓È_1
 62
     5
 10
1057.2598783664
 20
-399.87975260420001
 30
0.0
 11
1056.9761061324
 21
-399.87975260420001
 31
0.0
  0
DIMENSION
  5
196
  8
Éíû@É³
  2
*D12
 10
733.52890624999998
 20
-433.38352864580003
 30
0.0
 11
883.52890624999986
 21
-433.38352864580003
 31
0.0
 70
   128
  1
1820
 13
733.52890624999998
 23
-408.47975260419997
 33
0.0
 14
1033.5289062500001
 24
-408.47975260419997
 34
0.0
 50
180.0
  0
DIMENSION
  5
1A5
  8
Éíû@É³
  2
*D13
 10
1046.9761061324
 20
-399.87975260420001
 30
0.0
 11
1046.9761061324
 21
-404.22975260419992
 31
0.0
 70
   128
  1
<>
 13
1056.9761061324
 23
-399.87975260420001
 33
0.0
 14
1056.9761061324
 24
-408.57975260419988
 34
0.0
 50
90.0
  0
DIMENSION
  5
1B4
  8
Éíû@É³
  2
*D14
 10
1059.2598783664
 20
-410.15648175879988
 30
0.0
 11
1059.7598783664
 21
-410.15648175879988
 31
0.0
 70
   128
  1
<>
 13
1059.2598783664
 23
-406.0797526042
 33
0.0
 14
1060.2598783664
 24
-406.1797526041999
 34
0.0
 50
180.0
  0
LINE
  5
1B5
  8
┌▓È_1
 62
     5
 10
775.27890624999986
 20
-402.32975260419988
 30
0.0
 11
775.27890624999986
 21
-405.92975260420002
 31
0.0
  0
LINE
  5
1B6
  8
┌▓È_1
 62
     5
 10
755.27890624999986
 20
-402.32975260419988
 30
0.0
 11
755.27890624999986
 21
-405.92975260420002
 31
0.0
  0
LINE
  5
1B7
  8
┌▓È_1
 62
     5
 10
771.77890624999986
 20
-405.92975260420002
 30
0.0
 11
775.27890624999986
 21
-405.92975260420002
 31
0.0
  0
LINE
  5
1B8
  8
┌▓È_1
 62
     5
 10
751.77890624999998
 20
-405.92975260420002
 30
0.0
 11
755.27890624999986
 21
-405.92975260420002
 31
0.0
  0
LINE
  5
1B9
  8
┌▓È_1
 62
     5
 10
851.77890624999998
 20
-405.92975260420002
 30
0.0
 11
855.27890624999998
 21
-405.92975260420002
 31
0.0
  0
LINE
  5
1BA
  8
┌▓È_1
 62
     5
 10
855.27890624999998
 20
-402.32975260419988
 30
0.0
 11
855.27890624999998
 21
-405.92975260420002
 31
0.0
  0
LINE
  5
1BB
  8
┌▓È_1
  6
BORDER
 62
     3
 10
853.52890624999998
 20
-398.23735116649999
 30
0.0
 11
853.52890624999998
 21
-410.02215404179992
 31
0.0
  0
LINE
  5
1BC
  8
┌▓È_1
 62
     5
 10
775.27890624999986
 20
-402.32975260419988
 30
0.0
 11
771.77890624999986
 21
-402.32975260419988
 31
0.0
  0
LINE
  5
1BD
  8
┌▓È_1
 62
     5
 10
755.27890624999986
 20
-402.32975260419988
 30
0.0
 11
751.77890624999998
 21
-402.32975260419988
 31
0.0
  0
LINE
  5
1BE
  8
┌▓È_1
 62
     5
 10
771.77890624999986
 20
-402.32975260419988
 30
0.0
 11
771.77890624999986
 21
-405.92975260420002
 31
0.0
  0
LINE
  5
1BF
  8
┌▓È_1
 62
     5
 10
751.77890624999998
 20
-402.32975260419988
 30
0.0
 11
751.77890624999998
 21
-405.92975260420002
 31
0.0
  0
ARC
  5
1C0
  8
┌▓È_1
 62
     5
 10
1056.5598783664
 20
-402.0797526042
 30
0.0
 40
0.3
 50
180.0
 51
270.0
  0
LINE
  5
1C1
  8
┌▓È_1
 62
     5
 10
1056.2598783664
 20
-401.6231690944
 30
0.0
 11
1056.2598783664
 21
-402.0797526042
 31
0.0
  0
LINE
  5
1C2
  8
┌▓È_1
 62
     5
 10
1056.6915011430001
 20
-400.0848842744
 30
0.0
 11
1056.3368534193
 21
-401.14882744539989
 31
0.0
  0
ARC
  5
1C3
  8
┌▓È_1
 62
     5
 10
1057.7598783664
 20
-401.6231690944
 30
0.0
 40
1.5
 50
161.5650511771
 51
180.0
  0
LINE
  5
1C4
  8
┌▓È_1
 62
     5
 10
1057.2598783664
 20
-408.57975260419988
 30
0.0
 11
1057.2598783664
 21
-407.3297526042
 31
0.0
  0
ARC
  5
1C5
  8
┌▓È_1
 62
     5
 10
1057.3598783663999
 20
-401.12975260420001
 30
0.0
 40
0.1
 50
180.0
 51
270.0
  0
LINE
  5
1C6
  8
┌▓È_1
 62
     5
 10
1057.2598783664
 20
-399.87975260420001
 30
0.0
 11
1057.2598783664
 21
-401.12975260420001
 31
0.0
  0
ARC
  5
1C7
  8
┌▓È_1
 62
     5
 10
1058.0598783664
 20
-406.6214192708
 30
0.0
 40
0.6083333333
 50
270.0
 51
311.11209043909997
  0
ARC
  5
1C8
  8
┌▓È_1
 62
     5
 10
1058.0598783664
 20
-401.83808593750001
 30
0.0
 40
0.6083333333
 50
48.887909560799997
 51
90.0
  0
LINE
  5
1C9
  8
┌▓È_1
 62
     5
 10
1058.0598783664
 20
-407.22975260419997
 30
0.0
 11
1057.359878303
 21
-407.22975260419997
 31
0.0
  0
LINE
  5
1CA
  8
┌▓È_1
 62
     5
 10
1058.0598783664
 20
-401.22975260419992
 30
0.0
 11
1057.3598783663999
 21
-401.22975260419992
 31
0.0
  0
LINE
  5
1CB
  8
┌▓È_1
 62
     5
 10
1056.2598783664
 20
-406.83633632390001
 30
0.0
 11
1056.2598783664
 21
-406.37975260420001
 31
0.0
  0
LINE
  5
1CC
  8
┌▓È_1
 62
     5
 10
1059.2598783664
 20
-406.0797526042
 30
0.0
 11
1056.5598783664
 21
-406.0797526042
 31
0.0
  0
ARC
  5
1CD
  8
┌▓È_1
 62
     5
 10
1056.5598783664
 20
-406.37975260420001
 30
0.0
 40
0.3
 50
90.0
 51
180.0
  0
LINE
  5
1CE
  8
┌▓È_1
 62
     5
 10
733.52890624999998
 20
-405.97975260419992
 30
0.0
 11
872.5630504177999
 21
-405.97975260419992
 31
0.0
  0
LINE
  5
1CF
  8
┌▓È_1
 62
     5
 10
865.90997446389997
 20
-399.77975260419998
 30
0.0
 11
733.52890624999998
 21
-399.77975260419998
 31
0.0
  0
LINE
  5
1D0
  8
┌▓È_1
 62
     5
 10
868.00830190820011
 20
-402.27975260419993
 30
0.0
 11
733.52890624999998
 21
-402.27975260419993
 31
0.0
  0
LINE
  5
1D1
  8
┌▓È_1
 62
     5
 10
871.77890624999986
 20
-405.92975260420002
 30
0.0
 11
872.51226904029988
 21
-405.92975260420002
 31
0.0
  0
LINE
  5
1D2
  8
┌▓È_1
 62
     5
 10
871.77890624999986
 20
-405.26076632389987
 30
0.0
 11
871.77890624999986
 21
-405.92975260420002
 31
0.0
  0
DIMENSION
  5
1E1
  8
Éíû@É³
  2
*D15
 10
753.52890624999986
 20
-375.3276698462999
 30
0.0
 11
743.52890624999986
 21
-375.3276698462999
 31
0.0
 70
   128
  1
<>
 13
753.52890624999986
 23
-398.23735116649999
 33
0.0
 14
733.52890624999998
 24
-399.77975260419998
 34
0.0
  0
LINE
  5
1E2
  8
┌▓È_1
 62
     5
 10
791.77890624999986
 20
-402.32975260419988
 30
0.0
 11
791.77890624999986
 21
-405.92975260420002
 31
0.0
  0
LINE
  5
1E3
  8
┌▓È_1
 62
     5
 10
795.27890624999986
 20
-402.32975260419988
 30
0.0
 11
791.77890624999986
 21
-402.32975260419988
 31
0.0
  0
LINE
  5
1E4
  8
┌▓È_1
 62
     5
 10
791.77890624999986
 20
-405.92975260420002
 30
0.0
 11
795.27890624999986
 21
-405.92975260420002
 31
0.0
  0
LINE
  5
1E5
  8
┌▓È_1
 62
     5
 10
795.27890624999986
 20
-402.32975260419988
 30
0.0
 11
795.27890624999986
 21
-405.92975260420002
 31
0.0
  0
LINE
  5
1E6
  8
┌▓È_1
  6
BORDER
 62
     3
 10
793.52890624999986
 20
-398.23735116649999
 30
0.0
 11
793.52890624999986
 21
-410.02215404179992
 31
0.0
  0
LINE
  5
1E7
  8
┌▓È_1
 62
     5
 10
811.77890624999986
 20
-402.32975260419988
 30
0.0
 11
811.77890624999986
 21
-405.92975260420002
 31
0.0
  0
LINE
  5
1E8
  8
┌▓È_1
 62
     5
 10
815.27890624999998
 20
-402.32975260419988
 30
0.0
 11
811.77890624999986
 21
-402.32975260419988
 31
0.0
  0
LINE
  5
1E9
  8
┌▓È_1
 62
     5
 10
811.77890624999986
 20
-405.92975260420002
 30
0.0
 11
815.27890624999998
 21
-405.92975260420002
 31
0.0
  0
LINE
  5
1EA
  8
┌▓È_1
 62
     5
 10
815.27890624999998
 20
-402.32975260419988
 30
0.0
 11
815.27890624999998
 21
-405.92975260420002
 31
0.0
  0
LINE
  5
1EB
  8
┌▓È_1
  6
BORDER
 62
     3
 10
813.52890624999998
 20
-398.23735116649999
 30
0.0
 11
813.52890624999998
 21
-410.02215404179992
 31
0.0
  0
LINE
  5
1EC
  8
┌▓È_1
 62
     5
 10
831.77890624999986
 20
-402.32975260419988
 30
0.0
 11
831.77890624999986
 21
-405.92975260420002
 31
0.0
  0
LINE
  5
1ED
  8
┌▓È_1
 62
     5
 10
835.27890624999986
 20
-402.32975260419988
 30
0.0
 11
831.77890624999986
 21
-402.32975260419988
 31
0.0
  0
LINE
  5
1EE
  8
┌▓È_1
 62
     5
 10
831.77890624999986
 20
-405.92975260420002
 30
0.0
 11
835.27890624999986
 21
-405.92975260420002
 31
0.0
  0
LINE
  5
1EF
  8
┌▓È_1
 62
     5
 10
835.27890624999986
 20
-402.32975260419988
 30
0.0
 11
835.27890624999986
 21
-405.92975260420002
 31
0.0
  0
LINE
  5
1F0
  8
┌▓È_1
  6
BORDER
 62
     3
 10
833.52890624999986
 20
-398.23735116649999
 30
0.0
 11
833.52890624999986
 21
-410.02215404179992
 31
0.0
  0
LINE
  5
1F1
  8
┌▓È_1
 62
     5
 10
851.77890624999998
 20
-402.32975260419988
 30
0.0
 11
851.77890624999998
 21
-405.92975260420002
 31
0.0
  0
LINE
  5
1F2
  8
┌▓È_1
 62
     5
 10
855.27890624999998
 20
-402.32975260419988
 30
0.0
 11
851.77890624999998
 21
-402.32975260419988
 31
0.0
  0
LINE
  5
1F3
  8
┌▓È_1
  6
BORDER
 62
     3
 10
773.52890624999986
 20
-398.23735116649999
 30
0.0
 11
773.52890624999986
 21
-410.02215404179992
 31
0.0
  0
LINE
  5
1F4
  8
┌▓È_1
  6
BORDER
 62
     3
 10
753.52890624999986
 20
-398.23735116649999
 30
0.0
 11
753.52890624999986
 21
-410.02215404179992
 31
0.0
  0
LINE
  5
1F5
  8
┌▓È_1
 62
     5
 10
915.27890624999998
 20
-402.32975260419988
 30
0.0
 11
915.27890624999998
 21
-405.92975260420002
 31
0.0
  0
LINE
  5
1F6
  8
┌▓È_1
  6
BORDER
 62
     3
 10
913.52890624999998
 20
-398.23735116649999
 30
0.0
 11
913.52890624999998
 21
-410.02215404179992
 31
0.0
  0
LINE
  5
1F7
  8
┌▓È_1
 62
     5
 10
931.77890624999986
 20
-402.32975260419988
 30
0.0
 11
931.77890624999986
 21
-405.92975260420002
 31
0.0
  0
LINE
  5
1F8
  8
┌▓È_1
 62
     5
 10
935.27890624999986
 20
-402.32975260419988
 30
0.0
 11
931.77890624999986
 21
-402.32975260419988
 31
0.0
  0
DIMENSION
  5
207
  8
Éíû@É³
  2
*D16
 10
1033.5289062500001
 20
-375.3276698462999
 30
0.0
 11
1023.52890625
 21
-375.3276698462999
 31
0.0
 70
   128
  1
<>
 13
1033.5289062500001
 23
-399.77975260419998
 33
0.0
 14
1013.52890625
 24
-398.23735116649999
 34
0.0
  0
LINE
  5
208
  8
┌▓È_1
 62
     5
 10
931.77890624999986
 20
-405.92975260420002
 30
0.0
 11
935.27890624999986
 21
-405.92975260420002
 31
0.0
  0
LINE
  5
209
  8
┌▓È_1
 62
     5
 10
935.27890624999986
 20
-402.32975260419988
 30
0.0
 11
935.27890624999986
 21
-405.92975260420002
 31
0.0
  0
LINE
  5
20A
  8
┌▓È_1
  6
BORDER
 62
     3
 10
933.52890624999986
 20
-398.23735116649999
 30
0.0
 11
933.52890624999986
 21
-410.02215404179992
 31
0.0
  0
LINE
  5
20B
  8
┌▓È_1
 62
     5
 10
951.77890624999998
 20
-402.32975260419988
 30
0.0
 11
951.77890624999998
 21
-405.92975260420002
 31
0.0
  0
LINE
  5
20C
  8
┌▓È_1
 62
     5
 10
955.27890624999998
 20
-402.32975260419988
 30
0.0
 11
951.77890624999998
 21
-402.32975260419988
 31
0.0
  0
LINE
  5
20D
  8
┌▓È_1
 62
     5
 10
951.77890624999998
 20
-405.92975260420002
 30
0.0
 11
955.27890624999998
 21
-405.92975260420002
 31
0.0
  0
LINE
  5
20E
  8
┌▓È_1
 62
     5
 10
955.27890624999998
 20
-402.32975260419988
 30
0.0
 11
955.27890624999998
 21
-405.92975260420002
 31
0.0
  0
LINE
  5
20F
  8
┌▓È_1
  6
BORDER
 62
     3
 10
953.52890624999998
 20
-398.23735116649999
 30
0.0
 11
953.52890624999998
 21
-410.02215404179992
 31
0.0
  0
LINE
  5
210
  8
┌▓È_1
 62
     5
 10
971.77890624999986
 20
-402.32975260419988
 30
0.0
 11
971.77890624999986
 21
-405.92975260420002
 31
0.0
  0
LINE
  5
211
  8
┌▓È_1
 62
     5
 10
975.27890624999986
 20
-402.32975260419988
 30
0.0
 11
971.77890624999986
 21
-402.32975260419988
 31
0.0
  0
LINE
  5
212
  8
┌▓È_1
 62
     5
 10
971.77890624999986
 20
-405.92975260420002
 30
0.0
 11
975.27890624999986
 21
-405.92975260420002
 31
0.0
  0
LINE
  5
213
  8
┌▓È_1
 62
     5
 10
975.27890624999986
 20
-402.32975260419988
 30
0.0
 11
975.27890624999986
 21
-405.92975260420002
 31
0.0
  0
LINE
  5
214
  8
┌▓È_1
  6
BORDER
 62
     3
 10
973.52890624999986
 20
-398.23735116649999
 30
0.0
 11
973.52890624999986
 21
-410.02215404179992
 31
0.0
  0
LINE
  5
215
  8
┌▓È_1
 62
     5
 10
872.01622706809985
 20
-399.77975260419998
 30
0.0
 11
1033.5289062500001
 21
-399.77975260419998
 31
0.0
  0
LINE
  5
216
  8
┌▓È_1
  6
STITCH
 10
1033.5289062500001
 20
-401.27975260419998
 30
0.0
 11
873.03426926570023
 21
-401.27975260419998
 31
0.0
  0
LINE
  5
217
  8
┌▓È_1
 62
     5
 10
1033.5289062500001
 20
-402.27975260419993
 30
0.0
 11
874.11455451239999
 21
-402.27975260419993
 31
0.0
  0
LINE
  5
218
  8
┌▓È_1
 62
     5
 10
878.66930302200001
 20
-405.97975260419992
 30
0.0
 11
1033.5289062500001
 21
-405.97975260419992
 31
0.0
  0
LINE
  5
219
  8
┌▓È_1
  6
STITCH
 10
879.54041920739996
 20
-406.97975260419992
 30
0.0
 11
1033.5289062500001
 21
-406.97975260419992
 31
0.0
  0
LINE
  5
21A
  8
┌▓È_1
 62
     5
 10
880.22281633969999
 20
-408.47975260419997
 30
0.0
 11
1033.5289062500001
 21
-408.47975260419997
 31
0.0
  0
LINE
  5
21B
  8
┌▓È_1
 62
     5
 10
733.52890624999998
 20
-408.47975260419997
 30
0.0
 11
874.11656373559993
 21
-408.47975260419997
 31
0.0
  0
INSERT
  5
21C
  8
0
  6
CONTINUOUS
  2
*U42
 10
0.0
 20
0.0
 30
0.0
  0
DIMENSION
  5
22B
  8
Éíû@É³
  2
*D17
 10
1013.52890625
 20
-375.3276698462999
 30
0.0
 11
883.52890624999986
 21
-375.3276698462999
 31
0.0
 70
   128
  1
P=20x89
 13
1013.52890625
 23
-398.23735116649999
 33
0.0
 14
753.52890624999986
 24
-398.23735116649999
 34
0.0
  0
DIMENSION
  5
23A
  8
Éíû@É³
  2
*D18
 10
773.52890624999986
 20
-413.35548729570002
 30
0.0
 11
779.67734936350007
 21
-413.35548729570002
 31
0.0
 70
   128
  1
20
 13
773.52890624999986
 23
-410.02215404179992
 33
0.0
 14
783.52890624999998
 24
-410.02215404179992
 34
0.0
 50
180.0
  0
DIMENSION
  5
249
  8
Éíû@É³
  2
*D19
 10
775.27890624999986
 20
-392.91238466900001
 30
0.0
 11
773.52890624999986
 21
-392.91238466900001
 31
0.0
 70
   128
  1
<>
 13
775.27890624999986
 23
-402.32975260419988
 33
0.0
 14
771.77890624999986
 24
-402.32975260419988
 34
0.0
  0
DIMENSION
  5
258
  8
Éíû@É³
  2
*D20
 10
753.52890624999986
 20
-413.35548729570002
 30
0.0
 11
763.52890624999998
 21
-413.35548729570002
 31
0.0
 70
   128
  1
<>
 13
753.52890624999986
 23
-410.02215404179992
 33
0.0
 14
773.52890624999986
 24
-410.02215404179992
 34
0.0
 50
180.0
  0
DIMENSION
  5
267
  8
Éíû@É³
  2
*D21
 10
733.52890624999998
 20
-413.35548729570002
 30
0.0
 11
743.52890624999986
 21
-413.35548729570002
 31
0.0
 70
   128
  1
<>
 13
733.52890624999998
 23
-408.47975260419997
 33
0.0
 14
753.52890624999986
 24
-410.02215404179992
 34
0.0
 50
180.0
  0
DIMENSION
  5
276
  8
Éíû@É³
  2
*D22
 10
755.27890624999986
 20
-392.91238466900001
 30
0.0
 11
753.52890624999986
 21
-392.91238466900001
 31
0.0
 70
   128
  1
<>
 13
755.27890624999986
 23
-402.32975260419988
 33
0.0
 14
751.77890624999998
 24
-402.32975260419988
 34
0.0
  0
LINE
  5
277
  8
┌▓È_1
 62
     5
 10
991.77890624999998
 20
-402.32975260419988
 30
0.0
 11
991.77890624999998
 21
-405.92975260420002
 31
0.0
  0
LINE
  5
278
  8
┌▓È_1
 62
     5
 10
995.27890624999998
 20
-402.32975260419988
 30
0.0
 11
991.77890624999998
 21
-402.32975260419988
 31
0.0
  0
LINE
  5
279
  8
┌▓È_1
 62
     5
 10
991.77890624999998
 20
-405.92975260420002
 30
0.0
 11
995.27890624999998
 21
-405.92975260420002
 31
0.0
  0
LINE
  5
27A
  8
┌▓È_1
 62
     5
 10
995.27890624999998
 20
-402.32975260419988
 30
0.0
 11
995.27890624999998
 21
-405.92975260420002
 31
0.0
  0
LINE
  5
27B
  8
┌▓È_1
  6
BORDER
 62
     3
 10
993.52890624999998
 20
-398.23735116649999
 30
0.0
 11
993.52890624999998
 21
-410.02215404179992
 31
0.0
  0
LINE
  5
27C
  8
┌▓È_1
 62
     5
 10
1011.77890625
 20
-402.32975260419988
 30
0.0
 11
1011.77890625
 21
-405.92975260420002
 31
0.0
  0
LINE
  5
27D
  8
┌▓È_1
 62
     5
 10
1015.27890625
 20
-402.32975260419988
 30
0.0
 11
1011.77890625
 21
-402.32975260419988
 31
0.0
  0
LINE
  5
27E
  8
┌▓È_1
 62
     5
 10
1011.77890625
 20
-405.92975260420002
 30
0.0
 11
1015.27890625
 21
-405.92975260420002
 31
0.0
  0
LINE
  5
27F
  8
┌▓È_1
 62
     5
 10
1015.27890625
 20
-402.32975260419988
 30
0.0
 11
1015.27890625
 21
-405.92975260420002
 31
0.0
  0
LINE
  5
280
  8
┌▓È_1
  6
BORDER
 62
     3
 10
1013.52890625
 20
-398.23735116649999
 30
0.0
 11
1013.52890625
 21
-410.02215404179992
 31
0.0
  0
LINE
  5
281
  8
┌▓È_1
 62
     5
 10
891.77890624999998
 20
-402.32975260419988
 30
0.0
 11
891.77890624999998
 21
-405.92975260420002
 31
0.0
  0
LINE
  5
282
  8
┌▓È_1
 62
     5
 10
895.27890624999998
 20
-402.32975260419988
 30
0.0
 11
891.77890624999998
 21
-402.32975260419988
 31
0.0
  0
LINE
  5
283
  8
┌▓È_1
 62
     5
 10
891.77890624999998
 20
-405.92975260420002
 30
0.0
 11
895.27890624999998
 21
-405.92975260420002
 31
0.0
  0
LINE
  5
284
  8
┌▓È_1
 62
     5
 10
895.27890624999998
 20
-402.32975260419988
 30
0.0
 11
895.27890624999998
 21
-405.92975260420002
 31
0.0
  0
LINE
  5
285
  8
┌▓È_1
  6
BORDER
 62
     3
 10
893.52890624999998
 20
-398.23735116649999
 30
0.0
 11
893.52890624999998
 21
-410.02215404179992
 31
0.0
  0
LINE
  5
286
  8
┌▓È_1
 62
     5
 10
911.77890624999986
 20
-402.32975260419988
 30
0.0
 11
911.77890624999986
 21
-405.92975260420002
 31
0.0
  0
LINE
  5
287
  8
┌▓È_1
 62
     5
 10
915.27890624999998
 20
-402.32975260419988
 30
0.0
 11
911.77890624999986
 21
-402.32975260419988
 31
0.0
  0
LINE
  5
288
  8
┌▓È_1
 62
     5
 10
911.77890624999986
 20
-405.92975260420002
 30
0.0
 11
915.27890624999998
 21
-405.92975260420002
 31
0.0
  0
ENDSEC
  0
EOF
