  0
SECTION
  2
HEADER
  9
$ACADVER
  1
AC1009
  9
$INSBASE
 10
0.0
 20
0.0
 30
0.0
  9
$EXTMIN
 10
-39.739436619700001
 20
-69.886267605600011
 30
0.0
  9
$EXTMAX
 10
103.7605633803
 20
30.863732394399999
 30
0.0
  9
$LIMMIN
 10
0.0
 20
0.0
  9
$LIMMAX
 10
0.0
 20
0.0
  9
$ORTHOMODE
 70
     0
  9
$REGENMODE
 70
     1
  9
$FILLMODE
 70
     1
  9
$QTEXTMODE
 70
     0
  9
$MIRRTEXT
 70
     1
  9
$DRAGMODE
 70
     2
  9
$LTSCALE
 40
1.0
  9
$OSMODE
 70
    31
  9
$ATTMODE
 70
     1
  9
$TEXTSIZE
 40
0.0
  9
$TRACEWID
 40
0.05
  9
$TEXTSTYLE
  7
STANDARD
  9
$CLAYER
  8
0
  9
$CELTYPE
  6
CONTINUOUS
  9
$CECOLOR
 62
   256
  9
$DIMSCALE
 40
1.0
  9
$DIMASZ
 40
0.18
  9
$DIMEXO
 40
0.0625
  9
$DIMDLI
 40
0.38
  9
$DIMRND
 40
0.0
  9
$DIMDLE
 40
0.0
  9
$DIMEXE
 40
0.18
  9
$DIMTP
 40
0.0
  9
$DIMTM
 40
0.0
  9
$DIMTXT
 40
0.18
  9
$DIMCEN
 40
0.09
  9
$DIMTSZ
 40
0.0
  9
$DIMTOL
 70
     0
  9
$DIMLIM
 70
     0
  9
$DIMTIH
 70
     1
  9
$DIMTOH
 70
     1
  9
$DIMSE1
 70
     0
  9
$DIMSE2
 70
     0
  9
$DIMTAD
 70
     0
  9
$DIMZIN
 70
     0
  9
$DIMBLK
  1

  9
$DIMASO
 70
     1
  9
$DIMSHO
 70
     1
  9
$DIMPOST
  1

  9
$DIMAPOST
  1

  9
$DIMALT
 70
     0
  9
$DIMALTD
 70
     2
  9
$DIMALTF
 40
25.399999999999999
  9
$DIMLFAC
 40
1.0
  9
$DIMTOFL
 70
     0
  9
$DIMTVP
 40
0.0
  9
$DIMTIX
 70
     0
  9
$DIMSOXD
 70
     0
  9
$DIMSAH
 70
     0
  9
$DIMBLK1
  1

  9
$DIMBLK2
  1

  9
$DIMSTYLE
  2
STANDARD
  9
$DIMCLRD
 70
     0
  9
$DIMCLRE
 70
     0
  9
$DIMCLRT
 70
     0
  9
$DIMTFAC
 40
1.0
  9
$DIMGAP
 40
0.09
  9
$LUNITS
 70
     2
  9
$LUPREC
 70
     4
  9
$SKETCHINC
 40
0.1
  9
$FILLETRAD
 40
0.0
  9
$AUNITS
 70
     0
  9
$AUPREC
 70
     0
  9
$MENU
  1
acad
  9
$ELEVATION
 40
0.0
  9
$PELEVATION
 40
0.0
  9
$THICKNESS
 40
0.0
  9
$LIMCHECK
 70
     0
  9
$BLIPMODE
 70
     0
  9
$CHAMFERA
 40
0.0
  9
$CHAMFERB
 40
0.0
  9
$SKPOLY
 70
     0
  9
$TDCREATE
 40
2454866.4999879859
  9
$TDUPDATE
 40
2454866.500147488
  9
$TDINDWG
 40
0.0001712616
  9
$TDUSRTIMER
 40
0.0001709028
  9
$USRTIMER
 70
     1
  9
$ANGBASE
 50
0.0
  9
$ANGDIR
 70
     0
  9
$PDMODE
 70
     3
  9
$PDSIZE
 40
-1.0
  9
$PLINEWID
 40
0.0
  9
$COORDS
 70
     2
  9
$SPLFRAME
 70
     0
  9
$SPLINETYPE
 70
     6
  9
$SPLINESEGS
 70
     8
  9
$ATTDIA
 70
     0
  9
$ATTREQ
 70
     1
  9
$HANDLING
 70
     1
  9
$HANDSEED
  5
1128
  9
$SURFTAB1
 70
     6
  9
$SURFTAB2
 70
     6
  9
$SURFTYPE
 70
     6
  9
$SURFU
 70
     6
  9
$SURFV
 70
     6
  9
$UCSNAME
  2

  9
$UCSORG
 10
0.0
 20
0.0
 30
0.0
  9
$UCSXDIR
 10
1.0
 20
0.0
 30
0.0
  9
$UCSYDIR
 10
0.0
 20
1.0
 30
0.0
  9
$PUCSNAME
  2

  9
$PUCSORG
 10
0.0
 20
0.0
 30
0.0
  9
$PUCSXDIR
 10
1.0
 20
0.0
 30
0.0
  9
$PUCSYDIR
 10
0.0
 20
1.0
 30
0.0
  9
$USERI1
 70
     0
  9
$USERI2
 70
     0
  9
$USERI3
 70
     0
  9
$USERI4
 70
     0
  9
$USERI5
 70
     0
  9
$USERR1
 40
0.0
  9
$USERR2
 40
0.0
  9
$USERR3
 40
0.0
  9
$USERR4
 40
0.0
  9
$USERR5
 40
0.0
  9
$WORLDVIEW
 70
     1
  9
$SHADEDGE
 70
     3
  9
$SHADEDIF
 70
    70
  9
$TILEMODE
 70
     1
  9
$MAXACTVP
 70
    16
  9
$PLIMCHECK
 70
     0
  9
$PEXTMIN
 10
1.0000000000000000E+020
 20
1.0000000000000000E+020
 30
1.0000000000000000E+020
  9
$PEXTMAX
 10
-1.0000000000000000E+020
 20
-1.0000000000000000E+020
 30
-1.0000000000000000E+020
  9
$PLIMMIN
 10
0.0
 20
0.0
  9
$PLIMMAX
 10
12.0
 20
9.0
  9
$UNITMODE
 70
     0
  9
$VISRETAIN
 70
     0
  9
$PLINEGEN
 70
     1
  9
$PSLTSCALE
 70
     0
  0
ENDSEC
  0
SECTION
  2
TABLES
  0
TABLE
  2
VPORT
 70
     2
  0
VPORT
  2
*ACTIVE
 70
     0
 10
0.0
 20
0.0
 11
1.0
 21
1.0
 12
32.010563380299992
 22
-19.511267605600001
 13
0.0
 23
0.0
 14
1.0
 24
1.0
 15
0.0
 25
0.0
 16
0.0
 26
0.0
 36
1.0
 17
0.0
 27
0.0
 37
0.0
 40
101.60381355932201
 41
1.5459688826025451
 42
50.0
 43
0.0
 44
0.0
 50
0.0
 51
0.0
 71
     0
 72
   100
 73
     1
 74
     1
 75
     0
 76
     0
 77
     0
 78
     0
  0
ENDTAB
  0
TABLE
  2
LTYPE
 70
    11
  0
LTYPE
  2
CONTINUOUS
 70
     0
  3
Solid line
 72
    65
 73
     0
 40
0.0
  0
LTYPE
  2
DOT
 70
     0
  3
. . . . . . . . 
 72
    65
 73
     2
 40
1.0
 49
0.0
 49
-1.0
  0
LTYPE
  2
DASHED
 70
     0
  3
___  ___  ___  ___  
 72
    65
 73
     2
 40
4.0
 49
3.0
 49
-1.0
  0
LTYPE
  2
HIDDEN
 70
     0
  3
__ __ __ __ 
 72
    65
 73
     2
 40
3.0
 49
2.0
 49
-1.0
  0
LTYPE
  2
STITCH
 70
     0
  3
_ _ _ _ 
 72
    65
 73
     2
 40
2.0
 49
1.0
 49
-1.0
  0
LTYPE
  2
CENTER
 70
     0
  3
______  __  ______  __  
 72
    65
 73
     4
 40
43.0
 49
40.0
 49
-1.0
 49
1.0
 49
-1.0
  0
LTYPE
  2
DASHDOT
 70
     0
  3
____ . ____ . 
 72
    65
 73
     4
 40
32.0
 49
30.0
 49
-1.0
 49
0.0
 49
-1.0
  0
LTYPE
  2
BORDER
 70
     0
  3
__ . __ . 
 72
    65
 73
     4
 40
22.0
 49
20.0
 49
-1.0
 49
0.0
 49
-1.0
  0
LTYPE
  2
CUTTING
 70
     0
  3
________   ___   ___   
 72
    65
 73
     6
 40
45.0
 49
40.0
 49
-1.0
 49
1.0
 49
-1.0
 49
1.0
 49
-1.0
  0
LTYPE
  2
PHANTOM
 70
     0
  3
______  __  __  
 72
    65
 73
     6
 40
35.0
 49
30.0
 49
-1.0
 49
1.0
 49
-1.0
 49
1.0
 49
-1.0
  0
LTYPE
  2
DIVIDE
 70
     0
  3
____ . . ____ . . 
 72
    65
 73
     6
 40
23.0
 49
20.0
 49
-1.0
 49
0.0
 49
-1.0
 49
0.0
 49
-1.0
  0
ENDTAB
  0
TABLE
  2
LAYER
 70
     6
  0
LAYER
  2
0
 70
     0
 62
     7
  6
CONTINUOUS
  0
LAYER
  2
図枠
 70
     0
 62
     7
  6
CONTINUOUS
  0
LAYER
  2
ﾚｲﾔ_1
 70
     0
 62
     7
  6
CONTINUOUS
  0
LAYER
  2
寸法線
 70
     0
 62
     7
  6
CONTINUOUS
  0
LAYER
  2
改訂
 70
     0
 62
     7
  6
CONTINUOUS
  0
LAYER
  2
レイヤ__1
 70
     0
 62
     7
  6
CONTINUOUS
  0
ENDTAB
  0
TABLE
  2
STYLE
 70
     1
  0
STYLE
  2
STANDARD
 70
     0
 40
0.0
 41
1.0
 50
0.0
 71
     0
 42
0.0
  3
txt
  4
extfont
  0
ENDTAB
  0
TABLE
  2
VIEW
 70
     0
  0
ENDTAB
  0
TABLE
  2
UCS
 70
     0
  0
ENDTAB
  0
TABLE
  2
APPID
 70
     2
  0
APPID
  2
ACAD
 70
     0
  0
APPID
  2
DCO15
 70
     0
  0
ENDTAB
  0
TABLE
  2
DIMSTYLE
 70
     3
  0
DIMSTYLE
  2
STANDARD
 70
     0
  3

  4

  5

  6

  7

 40
1.0
 41
0.18
 42
0.0625
 43
0.38
 44
0.18
 45
0.0
 46
0.0
 47
0.0
 48
0.0
140
0.18
141
0.09
142
0.0
143
25.399999999999999
144
1.0
145
0.0
146
1.0
147
0.09
 71
     0
 72
     0
 73
     1
 74
     1
 75
     0
 76
     0
 77
     0
 78
     0
170
     0
171
     2
172
     0
173
     0
174
     0
175
     0
176
     0
177
     0
178
     0
  0
DIMSTYLE
  2
VELDIM0
 70
     0
  3

  4

  5

  6

  7

 40
1.0
 41
0.9659258126999999
 42
0.0625
 43
0.38
 44
0.5
 45
0.0
 46
2.5
 47
0.0
 48
0.0
140
1.7991665721000001
141
0.09
142
0.0
143
25.399999999999999
144
1.0
145
0.0
146
1.0
147
0.09
 71
     0
 72
     0
 73
     0
 74
     0
 75
     0
 76
     0
 77
     0
 78
     8
170
     0
171
     2
172
     0
173
     0
174
     0
175
     0
176
     0
177
     0
178
     0
  0
DIMSTYLE
  2
VELDIM1
 70
     0
  3

  4

  5

  6

  7

 40
1.0
 41
0.9659258126999999
 42
0.0625
 43
0.38
 44
1.25
 45
0.0
 46
5.0
 47
0.0
 48
0.0
140
1.7991665721000001
141
0.09
142
0.0
143
25.399999999999999
144
1.0
145
0.0
146
1.0
147
0.09
 71
     0
 72
     0
 73
     0
 74
     0
 75
     0
 76
     0
 77
     0
 78
     8
170
     0
171
     2
172
     0
173
     0
174
     0
175
     0
176
     0
177
     0
178
     0
  0
ENDTAB
  0
ENDSEC
  0
SECTION
  2
BLOCKS
  0
BLOCK
  8
0
  2
$MODEL_SPACE
 70
     0
 10
0.0
 20
0.0
 30
0.0
  3
$MODEL_SPACE
  1

  0
ENDBLK
  5
E
  8
0
  0
BLOCK
 67
     1
  8
0
  2
$PAPER_SPACE
 70
     0
 10
0.0
 20
0.0
 30
0.0
  3
$PAPER_SPACE
  1

  0
ENDBLK
  5
10
 67
     1
  8
0
  0
BLOCK
  8
0
  2
*D0
 70
     1
 10
0.0
 20
0.0
 30
0.0
  3
*D0
  1

  0
TEXT
  5
3B
  8
0
 62
     0
 10
35.133473004400003
 20
4.6893982008999986
 30
0.0
 40
1.7991665721000001
  1
4.5
 50
90.0
  0
LINE
  5
3C
  8
0
 62
     0
 10
30.950973211099999
 20
4.0268981174
 30
0.0
 11
36.450972987699998
 21
4.0268981174
 31
0.0
  0
LINE
  5
3D
  8
0
 62
     0
 10
32.950972987699998
 20
8.5268981174
 30
0.0
 11
36.450972987699998
 21
8.5268981174
 31
0.0
  0
LINE
  5
3E
  8
0
 62
     0
 10
35.950972987699998
 20
4.0268981174
 30
0.0
 11
35.950972987699998
 21
4.0268981174
 31
0.0
  0
LINE
  5
3F
  8
0
 62
     0
 10
35.950972987699998
 20
4.0268981174
 30
0.0
 11
35.950972987699998
 21
8.5268981174
 31
0.0
  0
LINE
  5
40
  8
0
 62
     0
 10
35.950972987699998
 20
8.5268981174
 30
0.0
 11
35.950972987699998
 21
4.0268981174
 31
0.0
  0
LINE
  5
41
  8
0
 62
     0
 10
35.950972987699998
 20
8.5268981174
 30
0.0
 11
35.950972987699998
 21
8.5268981174
 31
0.0
  0
LINE
  5
42
  8
0
 62
     0
 10
35.950972987699998
 20
8.5268981174
 30
0.0
 11
35.950972987699998
 21
6.0268981174
 31
0.0
  0
SOLID
  5
43
  8
0
 62
     0
 10
35.950972987699998
 20
8.5268981174
 30
0.0
 11
36.209792031299997
 21
7.560972304699999
 31
0.0
 12
35.692153943999998
 22
7.560972304699999
 32
0.0
 13
35.950972987699998
 23
7.8024537578999986
 33
0.0
  0
LINE
  5
44
  8
0
 62
     0
 10
35.950972987699998
 20
4.0268981174
 30
0.0
 11
35.950972987699998
 21
6.5268981174
 31
0.0
  0
SOLID
  5
45
  8
0
 62
     0
 10
35.950972987699998
 20
4.0268981174
 30
0.0
 11
35.692153943999998
 21
4.9928239301000001
 31
0.0
 12
36.209792031299997
 22
4.9928239301000001
 32
0.0
 13
35.950972987699998
 23
4.7513424769999988
 33
0.0
  0
ENDBLK
  5
46
  8
0
  0
BLOCK
  8
0
  2
CLUMP0
 70
     0
 10
0.0
 20
0.0
 30
0.0
  3
CLUMP0
  1

  0
INSERT
  5
58
  8
0
  6
CONTINUOUS
  2
*U12
 10
0.0
 20
0.0
 30
0.0
  0
LINE
  5
59
  8
図枠
 62
     5
 10
55.618420687299988
 20
25.347541144200001
 30
0.0
 11
54.380920687299998
 21
23.2041282699
 31
0.0
  0
LINE
  5
5A
  8
図枠
 62
     5
 10
55.618420687299988
 20
25.347541144200001
 30
0.0
 11
56.855920687299992
 21
23.2041282699
 31
0.0
  0
LINE
  5
5B
  8
図枠
 62
     5
 10
54.380920687299998
 20
23.2041282699
 30
0.0
 11
56.855920687299992
 21
23.2041282699
 31
0.0
  0
ENDBLK
  5
5C
  8
0
  0
BLOCK
  8
0
  2
*D2
 70
     1
 10
0.0
 20
0.0
 30
0.0
  3
*D2
  1

  0
TEXT
  5
10A
  8
0
 62
     0
 10
34.633473101699998
 20
-14.003925092999999
 30
0.0
 40
1.7991665721000001
  1
7
 50
90.0
  0
LINE
  5
10B
  8
0
 62
     0
 10
32.450973085100003
 20
-16.974758454100002
 30
0.0
 11
35.95097308510001
 21
-16.974758454100002
 31
0.0
  0
LINE
  5
10C
  8
0
 62
     0
 10
31.641955993300002
 20
-9.9747584540999998
 30
0.0
 11
35.95097308510001
 21
-9.9747584540999998
 31
0.0
  0
LINE
  5
10D
  8
0
 62
     0
 10
35.450973085100003
 20
-16.974758454100002
 30
0.0
 11
35.450973085100003
 21
-11.887258537599999
 31
0.0
  0
LINE
  5
10E
  8
0
 62
     0
 10
35.450973085100003
 20
-16.974758454100002
 30
0.0
 11
35.450973085100003
 21
-15.0622583707
 31
0.0
  0
LINE
  5
10F
  8
0
 62
     0
 10
35.450973085100003
 20
-9.9747584540999998
 30
0.0
 11
35.450973085100003
 21
-11.887258537599999
 31
0.0
  0
LINE
  5
110
  8
0
 62
     0
 10
35.450973085100003
 20
-9.9747584540999998
 30
0.0
 11
35.450973085100003
 21
-15.0622583707
 31
0.0
  0
LINE
  5
111
  8
0
 62
     0
 10
35.450973085100003
 20
-9.9747584540999998
 30
0.0
 11
35.450973085100003
 21
-12.4747584541
 31
0.0
  0
SOLID
  5
112
  8
0
 62
     0
 10
35.450973085100003
 20
-9.9747584540999998
 30
0.0
 11
35.709792128700002
 21
-10.9406842668
 31
0.0
 12
35.192154041400009
 22
-10.9406842668
 32
0.0
 13
35.450973085100003
 23
-10.699202813599999
 33
0.0
  0
LINE
  5
113
  8
0
 62
     0
 10
35.450973085100003
 20
-16.974758454100002
 30
0.0
 11
35.450973085100003
 21
-14.4747584541
 31
0.0
  0
SOLID
  5
114
  8
0
 62
     0
 10
35.450973085100003
 20
-16.974758454100002
 30
0.0
 11
35.192154041400009
 21
-16.008832641400002
 31
0.0
 12
35.709792128700002
 22
-16.008832641400002
 32
0.0
 13
35.450973085100003
 23
-16.2503140946
 33
0.0
  0
ENDBLK
  5
115
  8
0
  0
BLOCK
  8
0
  2
*D3
 70
     1
 10
0.0
 20
0.0
 30
0.0
  3
*D3
  1

  0
TEXT
  5
11A
  8
0
 62
     0
 10
31.0796945538
 20
-28.717811740100011
 30
0.0
 40
1.7991665721000001
  1
R2
 50
45.0
  0
LINE
  5
11B
  8
0
 62
     0
 10
30.365187705499999
 20
-30.480015080800001
 30
0.0
 11
33.848606712200002
 21
-26.996596073999999
 31
0.0
  0
SOLID
  5
11C
  8
0
 62
     0
 10
30.365187705499999
 20
-30.480015080800001
 30
0.0
 11
30.865187696900001
 21
-29.613989687600011
 31
0.0
 12
31.231213098600001
 22
-29.9800150893
 32
0.0
 13
30.877447224699999
 23
-29.967755561499999
 33
0.0
  0
ENDBLK
  5
11D
  8
0
  0
BLOCK
  8
0
  2
*D4
 70
     1
 10
0.0
 20
0.0
 30
0.0
  3
*D4
  1

  0
TEXT
  5
164
  8
0
 62
     0
 10
20.5843064323
 20
-3.2959771107999991
 30
0.0
 40
1.7991665721000001
  1
16.5
  0
LINE
  5
165
  8
0
 62
     0
 10
30.950972987699998
 20
-10.0927924429
 30
0.0
 11
30.950972987699998
 21
-3.6134770940999998
 31
0.0
  0
LINE
  5
166
  8
0
 62
     0
 10
14.4509729877
 20
-10.0927924429
 30
0.0
 11
14.4509729877
 21
-3.6134770940999998
 31
0.0
  0
LINE
  5
167
  8
0
 62
     0
 10
30.950972987699998
 20
-4.1134770941000003
 30
0.0
 11
25.875972820800001
 21
-4.1134770941000003
 31
0.0
  0
LINE
  5
168
  8
0
 62
     0
 10
30.950972987699998
 20
-4.1134770941000003
 30
0.0
 11
19.525973154599999
 21
-4.1134770941000003
 31
0.0
  0
LINE
  5
169
  8
0
 62
     0
 10
14.4509729877
 20
-4.1134770941000003
 30
0.0
 11
25.875972820800001
 21
-4.1134770941000003
 31
0.0
  0
LINE
  5
16A
  8
0
 62
     0
 10
14.4509729877
 20
-4.1134770941000003
 30
0.0
 11
19.525973154599999
 21
-4.1134770941000003
 31
0.0
  0
LINE
  5
16B
  8
0
 62
     0
 10
14.4509729877
 20
-4.1134770941000003
 30
0.0
 11
16.950972987699998
 21
-4.1134770941000003
 31
0.0
  0
SOLID
  5
16C
  8
0
 62
     0
 10
14.4509729877
 20
-4.1134770941000003
 30
0.0
 11
15.4168988004
 21
-3.8546580503999999
 31
0.0
 12
15.4168988004
 22
-4.3722961377000003
 32
0.0
 13
15.1754173472
 23
-4.1134770941000003
 33
0.0
  0
LINE
  5
16D
  8
0
 62
     0
 10
30.950972987699998
 20
-4.1134770941000003
 30
0.0
 11
28.450972987699998
 21
-4.1134770941000003
 31
0.0
  0
SOLID
  5
16E
  8
0
 62
     0
 10
30.950972987699998
 20
-4.1134770941000003
 30
0.0
 11
29.985047174999998
 21
-4.3722961377000003
 31
0.0
 12
29.985047174999998
 22
-3.8546580503999999
 32
0.0
 13
30.226528628099999
 23
-4.1134770941000003
 33
0.0
  0
ENDBLK
  5
16F
  8
0
  0
BLOCK
  8
0
  2
*D5
 70
     1
 10
0.0
 20
0.0
 30
0.0
  3
*D5
  1

  0
TEXT
  5
173
  8
0
 62
     0
 10
12.2455815247
 20
-26.641141766699999
 30
0.0
 40
1.7991665721000001
  1
R2
 50
315.0
  0
LINE
  5
174
  8
0
 62
     0
 10
15.036760580699999
 20
-30.4800173151
 30
0.0
 11
11.7217332785
 21
-27.164990012899999
 31
0.0
  0
SOLID
  5
175
  8
0
 62
     0
 10
15.036760580699999
 20
-30.4800173151
 30
0.0
 11
14.1707351876
 21
-29.980017323599998
 31
0.0
 12
14.5367605893
 22
-29.613991921899999
 32
0.0
 13
14.524501061500001
 23
-29.967757795800001
 33
0.0
  0
ENDBLK
  5
176
  8
0
  0
BLOCK
  8
0
  2
*D6
 70
     1
 10
0.0
 20
0.0
 30
0.0
  3
*D6
  1

  0
TEXT
  5
194
  8
0
 62
     0
 10
58.39160636359999
 20
-28.9783649564
 30
0.0
 40
1.7991665721000001
  1
8.3
  0
LINE
  5
195
  8
0
 62
     0
 10
55.828798183500012
 20
-20.474758454100002
 30
0.0
 11
55.828798183500012
 21
-30.295864939699999
 31
0.0
  0
LINE
  5
196
  8
0
 62
     0
 10
64.129414376900002
 20
-20.474758454100002
 30
0.0
 11
64.129414376900002
 21
-30.295864939699999
 31
0.0
  0
LINE
  5
197
  8
0
 62
     0
 10
55.828798183500012
 20
-29.795864939699999
 30
0.0
 11
62.624939474399987
 21
-29.795864939699999
 31
0.0
  0
LINE
  5
198
  8
0
 62
     0
 10
55.828798183500012
 20
-29.795864939699999
 30
0.0
 11
57.333273085899997
 21
-29.795864939699999
 31
0.0
  0
LINE
  5
199
  8
0
 62
     0
 10
64.129414376900002
 20
-29.795864939699999
 30
0.0
 11
62.624939474399987
 21
-29.795864939699999
 31
0.0
  0
LINE
  5
19A
  8
0
 62
     0
 10
64.129414376900002
 20
-29.795864939699999
 30
0.0
 11
57.333273085899997
 21
-29.795864939699999
 31
0.0
  0
LINE
  5
19B
  8
0
 62
     0
 10
64.129414376900002
 20
-29.795864939699999
 30
0.0
 11
61.629414376899987
 21
-29.795864939699999
 31
0.0
  0
SOLID
  5
19C
  8
0
 62
     0
 10
64.129414376900002
 20
-29.795864939699999
 30
0.0
 11
63.163488564200001
 21
-30.054683983299999
 31
0.0
 12
63.163488564200001
 22
-29.537045895999999
 32
0.0
 13
63.404970017399997
 23
-29.795864939699999
 33
0.0
  0
LINE
  5
19D
  8
0
 62
     0
 10
55.828798183500012
 20
-29.795864939699999
 30
0.0
 11
58.328798183500012
 21
-29.795864939699999
 31
0.0
  0
SOLID
  5
19E
  8
0
 62
     0
 10
55.828798183500012
 20
-29.795864939699999
 30
0.0
 11
56.794723996199991
 21
-29.537045895999999
 31
0.0
 12
56.794723996199991
 22
-30.054683983299999
 32
0.0
 13
56.553242543000003
 23
-29.795864939699999
 33
0.0
  0
ENDBLK
  5
19F
  8
0
  0
BLOCK
  8
0
  2
*D7
 70
     1
 10
0.0
 20
0.0
 30
0.0
  3
*D7
  1

  0
TEXT
  5
1A3
  8
0
 62
     0
 10
59.104287710600012
 20
-24.589933917700002
 30
0.0
 40
1.7991665721000001
  1
R0.5
 50
75.0
  0
LINE
  5
1A4
  8
0
 62
     0
 10
62.3496967576
 20
-15.340262511000001
 30
0.0
 11
59.819877722700006
 21
-24.781675683500001
 31
0.0
  0
SOLID
  5
1A5
  8
0
 62
     0
 10
62.3496967576
 20
-15.340262511000001
 30
0.0
 11
62.349696759700002
 21
-16.340262497499999
 31
0.0
 12
61.849696762599997
 22
-16.206287902100001
 32
0.0
 13
62.162196760299999
 23
-16.040022027599999
 33
0.0
  0
ENDBLK
  5
1A6
  8
0
  0
BLOCK
  8
0
  2
CLUMP1
 70
     0
 10
0.0
 20
0.0
 30
0.0
  3
CLUMP1
  1

  0
LINE
  5
1BF
  8
レイヤ__1
 62
     5
 10
-6.5979517842999993
 20
-16.146994071600002
 30
0.0
 11
-5.8468547176000003
 21
-16.146994071600002
 31
0.0
  0
LINE
  5
1C0
  8
レイヤ__1
 62
     5
 10
-5.8468547176000003
 20
-16.146994071600002
 30
0.0
 11
-5.4537062773000002
 21
-14.0191280148
 31
0.0
  0
LINE
  5
1C1
  8
レイヤ__1
 62
     5
 10
-5.4537062773000002
 20
-14.0191280148
 30
0.0
 11
-7.0575478972000001
 21
-14.0191280148
 31
0.0
  0
LINE
  5
1C2
  8
レイヤ__1
 62
     5
 10
-12.086419898400001
 20
-16.192634126200002
 30
0.0
 11
-11.871799918500001
 21
-15.023688030100001
 31
0.0
  0
LINE
  5
1C3
  8
レイヤ__1
 62
     5
 10
-11.871799918500001
 20
-15.023688030100001
 30
0.0
 11
-11.248515128799999
 21
-15.023688030100001
 31
0.0
  0
LINE
  5
1C4
  8
レイヤ__1
 62
     5
 10
-11.0726756635
 20
-14.092213168300001
 30
0.0
 11
-11.6994509424
 21
-14.092213168300001
 31
0.0
  0
LINE
  5
1C5
  8
レイヤ__1
 62
     5
 10
-7.0575478972000001
 20
-14.0191280148
 30
0.0
 11
-7.2086347282999998
 21
-14.8342127572
 31
0.0
  0
LINE
  5
1C6
  8
レイヤ__1
 62
     5
 10
-15.628399016199999
 20
-14.7954148941
 30
0.0
 11
-16.7607678388
 21
-14.7954148941
 31
0.0
  0
POLYLINE
  8
レイヤ__1
  5
2D0
  62
5
  66
     1
 10
0.000000
 20
0.000000
 30
0.000000
  70
     8
  0
VERTEX
  8
レイヤ__1
  5
2D1
 10
-11.2485
 20
-15.0237
 30
0.000000
  70
    32
  0
VERTEX
  8
レイヤ__1
  5
2D2
 10
-11.2127
 20
-15.0236
 30
0.000000
  70
    32
  0
VERTEX
  8
レイヤ__1
  5
2D3
 10
-11.1775
 20
-15.0232
 30
0.000000
  70
    32
  0
VERTEX
  8
レイヤ__1
  5
2D4
 10
-11.1427
 20
-15.0227
 30
0.000000
  70
    32
  0
VERTEX
  8
レイヤ__1
  5
2D5
 10
-11.1084
 20
-15.0219
 30
0.000000
  70
    32
  0
VERTEX
  8
レイヤ__1
  5
2D6
 10
-11.0746
 20
-15.0208
 30
0.000000
  70
    32
  0
VERTEX
  8
レイヤ__1
  5
2D7
 10
-11.0413
 20
-15.0196
 30
0.000000
  70
    32
  0
VERTEX
  8
レイヤ__1
  5
2D8
 10
-11.0085
 20
-15.0181
 30
0.000000
  70
    32
  0
VERTEX
  8
レイヤ__1
  5
2D9
 10
-10.9761
 20
-15.0164
 30
0.000000
  70
    32
  0
VERTEX
  8
レイヤ__1
  5
2DA
 10
-10.9442
 20
-15.0145
 30
0.000000
  70
    32
  0
VERTEX
  8
レイヤ__1
  5
2DB
 10
-10.9128
 20
-15.0124
 30
0.000000
  70
    32
  0
VERTEX
  8
レイヤ__1
  5
2DC
 10
-10.8819
 20
-15.0101
 30
0.000000
  70
    32
  0
VERTEX
  8
レイヤ__1
  5
2DD
 10
-10.8514
 20
-15.0075
 30
0.000000
  70
    32
  0
VERTEX
  8
レイヤ__1
  5
2DE
 10
-10.8213
 20
-15.0048
 30
0.000000
  70
    32
  0
VERTEX
  8
レイヤ__1
  5
2DF
 10
-10.7918
 20
-15.0018
 30
0.000000
  70
    32
  0
VERTEX
  8
レイヤ__1
  5
2E0
 10
-10.7626
 20
-14.9986
 30
0.000000
  70
    32
  0
VERTEX
  8
レイヤ__1
  5
2E1
 10
-10.7340
 20
-14.9953
 30
0.000000
  70
    32
  0
VERTEX
  8
レイヤ__1
  5
2E2
 10
-10.7057
 20
-14.9917
 30
0.000000
  70
    32
  0
VERTEX
  8
レイヤ__1
  5
2E3
 10
-10.6779
 20
-14.9879
 30
0.000000
  70
    32
  0
VERTEX
  8
レイヤ__1
  5
2E4
 10
-10.6506
 20
-14.9839
 30
0.000000
  70
    32
  0
VERTEX
  8
レイヤ__1
  5
2E5
 10
-10.6236
 20
-14.9797
 30
0.000000
  70
    32
  0
VERTEX
  8
レイヤ__1
  5
2E6
 10
-10.5971
 20
-14.9753
 30
0.000000
  70
    32
  0
VERTEX
  8
レイヤ__1
  5
2E7
 10
-10.5710
 20
-14.9707
 30
0.000000
  70
    32
  0
VERTEX
  8
レイヤ__1
  5
2E8
 10
-10.5454
 20
-14.9659
 30
0.000000
  70
    32
  0
VERTEX
  8
レイヤ__1
  5
2E9
 10
-10.5201
 20
-14.9610
 30
0.000000
  70
    32
  0
VERTEX
  8
レイヤ__1
  5
2EA
 10
-10.4953
 20
-14.9558
 30
0.000000
  70
    32
  0
VERTEX
  8
レイヤ__1
  5
2EB
 10
-10.4708
 20
-14.9504
 30
0.000000
  70
    32
  0
VERTEX
  8
レイヤ__1
  5
2EC
 10
-10.4468
 20
-14.9449
 30
0.000000
  70
    32
  0
VERTEX
  8
レイヤ__1
  5
2ED
 10
-10.4232
 20
-14.9391
 30
0.000000
  70
    32
  0
VERTEX
  8
レイヤ__1
  5
2EE
 10
-10.4000
 20
-14.9332
 30
0.000000
  70
    32
  0
VERTEX
  8
レイヤ__1
  5
2EF
 10
-10.3771
 20
-14.9271
 30
0.000000
  70
    32
  0
VERTEX
  8
レイヤ__1
  5
2F0
 10
-10.3547
 20
-14.9208
 30
0.000000
  70
    32
  0
VERTEX
  8
レイヤ__1
  5
2F1
 10
-10.3326
 20
-14.9143
 30
0.000000
  70
    32
  0
VERTEX
  8
レイヤ__1
  5
2F2
 10
-10.3109
 20
-14.9077
 30
0.000000
  70
    32
  0
VERTEX
  8
レイヤ__1
  5
2F3
 10
-10.2896
 20
-14.9009
 30
0.000000
  70
    32
  0
VERTEX
  8
レイヤ__1
  5
2F4
 10
-10.2687
 20
-14.8939
 30
0.000000
  70
    32
  0
VERTEX
  8
レイヤ__1
  5
2F5
 10
-10.2481
 20
-14.8867
 30
0.000000
  70
    32
  0
VERTEX
  8
レイヤ__1
  5
2F6
 10
-10.2279
 20
-14.8793
 30
0.000000
  70
    32
  0
VERTEX
  8
レイヤ__1
  5
2F7
 10
-10.2081
 20
-14.8718
 30
0.000000
  70
    32
  0
VERTEX
  8
レイヤ__1
  5
2F8
 10
-10.1886
 20
-14.8641
 30
0.000000
  70
    32
  0
VERTEX
  8
レイヤ__1
  5
2F9
 10
-10.1695
 20
-14.8562
 30
0.000000
  70
    32
  0
VERTEX
  8
レイヤ__1
  5
2FA
 10
-10.1507
 20
-14.8482
 30
0.000000
  70
    32
  0
VERTEX
  8
レイヤ__1
  5
2FB
 10
-10.1322
 20
-14.8400
 30
0.000000
  70
    32
  0
VERTEX
  8
レイヤ__1
  5
2FC
 10
-10.1141
 20
-14.8317
 30
0.000000
  70
    32
  0
VERTEX
  8
レイヤ__1
  5
2FD
 10
-10.0964
 20
-14.8231
 30
0.000000
  70
    32
  0
VERTEX
  8
レイヤ__1
  5
2FE
 10
-10.0790
 20
-14.8144
 30
0.000000
  70
    32
  0
VERTEX
  8
レイヤ__1
  5
2FF
 10
-10.0619
 20
-14.8056
 30
0.000000
  70
    32
  0
VERTEX
  8
レイヤ__1
  5
300
 10
-10.0451
 20
-14.7966
 30
0.000000
  70
    32
  0
VERTEX
  8
レイヤ__1
  5
301
 10
-10.0287
 20
-14.7875
 30
0.000000
  70
    32
  0
VERTEX
  8
レイヤ__1
  5
302
 10
-10.0126
 20
-14.7782
 30
0.000000
  70
    32
  0
VERTEX
  8
レイヤ__1
  5
303
 10
-9.99678
 20
-14.7687
 30
0.000000
  70
    32
  0
VERTEX
  8
レイヤ__1
  5
304
 10
-9.98129
 20
-14.7591
 30
0.000000
  70
    32
  0
VERTEX
  8
レイヤ__1
  5
305
 10
-9.96611
 20
-14.7493
 30
0.000000
  70
    32
  0
VERTEX
  8
レイヤ__1
  5
306
 10
-9.95123
 20
-14.7394
 30
0.000000
  70
    32
  0
VERTEX
  8
レイヤ__1
  5
307
 10
-9.93665
 20
-14.7294
 30
0.000000
  70
    32
  0
VERTEX
  8
レイヤ__1
  5
308
 10
-9.92237
 20
-14.7192
 30
0.000000
  70
    32
  0
VERTEX
  8
レイヤ__1
  5
309
 10
-9.90838
 20
-14.7088
 30
0.000000
  70
    32
  0
VERTEX
  8
レイヤ__1
  5
30A
 10
-9.89468
 20
-14.6984
 30
0.000000
  70
    32
  0
VERTEX
  8
レイヤ__1
  5
30B
 10
-9.88126
 20
-14.6877
 30
0.000000
  70
    32
  0
VERTEX
  8
レイヤ__1
  5
30C
 10
-9.86812
 20
-14.6770
 30
0.000000
  70
    32
  0
VERTEX
  8
レイヤ__1
  5
30D
 10
-9.85526
 20
-14.6661
 30
0.000000
  70
    32
  0
VERTEX
  8
レイヤ__1
  5
30E
 10
-9.84268
 20
-14.6550
 30
0.000000
  70
    32
  0
VERTEX
  8
レイヤ__1
  5
30F
 10
-9.83036
 20
-14.6439
 30
0.000000
  70
    32
  0
VERTEX
  8
レイヤ__1
  5
310
 10
-9.81831
 20
-14.6326
 30
0.000000
  70
    32
  0
VERTEX
  8
レイヤ__1
  5
311
 10
-9.80652
 20
-14.6212
 30
0.000000
  70
    32
  0
VERTEX
  8
レイヤ__1
  5
312
 10
-9.79499
 20
-14.6096
 30
0.000000
  70
    32
  0
VERTEX
  8
レイヤ__1
  5
313
 10
-9.78371
 20
-14.5979
 30
0.000000
  70
    32
  0
VERTEX
  8
レイヤ__1
  5
314
 10
-9.77268
 20
-14.5861
 30
0.000000
  70
    32
  0
VERTEX
  8
レイヤ__1
  5
315
 10
-9.76190
 20
-14.5742
 30
0.000000
  70
    32
  0
VERTEX
  8
レイヤ__1
  5
316
 10
-9.75136
 20
-14.5622
 30
0.000000
  70
    32
  0
VERTEX
  8
レイヤ__1
  5
317
 10
-9.74105
 20
-14.5500
 30
0.000000
  70
    32
  0
VERTEX
  8
レイヤ__1
  5
318
 10
-9.73099
 20
-14.5377
 30
0.000000
  70
    32
  0
VERTEX
  8
レイヤ__1
  5
319
 10
-9.72115
 20
-14.5253
 30
0.000000
  70
    32
  0
VERTEX
  8
レイヤ__1
  5
31A
 10
-9.71154
 20
-14.5128
 30
0.000000
  70
    32
  0
VERTEX
  8
レイヤ__1
  5
31B
 10
-9.70216
 20
-14.5001
 30
0.000000
  70
    32
  0
VERTEX
  8
レイヤ__1
  5
31C
 10
-9.69299
 20
-14.4874
 30
0.000000
  70
    32
  0
VERTEX
  8
レイヤ__1
  5
31D
 10
-9.68404
 20
-14.4745
 30
0.000000
  70
    32
  0
VERTEX
  8
レイヤ__1
  5
31E
 10
-9.67530
 20
-14.4616
 30
0.000000
  70
    32
  0
VERTEX
  8
レイヤ__1
  5
31F
 10
-9.66677
 20
-14.4485
 30
0.000000
  70
    32
  0
VERTEX
  8
レイヤ__1
  5
320
 10
-9.65844
 20
-14.4353
 30
0.000000
  70
    32
  0
VERTEX
  8
レイヤ__1
  5
321
 10
-9.65031
 20
-14.4220
 30
0.000000
  70
    32
  0
VERTEX
  8
レイヤ__1
  5
322
 10
-9.64238
 20
-14.4086
 30
0.000000
  70
    32
  0
VERTEX
  8
レイヤ__1
  5
323
 10
-9.63464
 20
-14.3951
 30
0.000000
  70
    32
  0
VERTEX
  8
レイヤ__1
  5
324
 10
-9.62709
 20
-14.3815
 30
0.000000
  70
    32
  0
VERTEX
  8
レイヤ__1
  5
325
 10
-9.61972
 20
-14.3678
 30
0.000000
  70
    32
  0
VERTEX
  8
レイヤ__1
  5
326
 10
-9.61254
 20
-14.3541
 30
0.000000
  70
    32
  0
VERTEX
  8
レイヤ__1
  5
327
 10
-9.60553
 20
-14.3402
 30
0.000000
  70
    32
  0
VERTEX
  8
レイヤ__1
  5
328
 10
-9.59870
 20
-14.3262
 30
0.000000
  70
    32
  0
VERTEX
  8
レイヤ__1
  5
329
 10
-9.59203
 20
-14.3121
 30
0.000000
  70
    32
  0
VERTEX
  8
レイヤ__1
  5
32A
 10
-9.58553
 20
-14.2980
 30
0.000000
  70
    32
  0
VERTEX
  8
レイヤ__1
  5
32B
 10
-9.57919
 20
-14.2837
 30
0.000000
  70
    32
  0
VERTEX
  8
レイヤ__1
  5
32C
 10
-9.57301
 20
-14.2694
 30
0.000000
  70
    32
  0
VERTEX
  8
レイヤ__1
  5
32D
 10
-9.56698
 20
-14.2550
 30
0.000000
  70
    32
  0
VERTEX
  8
レイヤ__1
  5
32E
 10
-9.56111
 20
-14.2405
 30
0.000000
  70
    32
  0
VERTEX
  8
レイヤ__1
  5
32F
 10
-9.55538
 20
-14.2259
 30
0.000000
  70
    32
  0
VERTEX
  8
レイヤ__1
  5
330
 10
-9.54979
 20
-14.2113
 30
0.000000
  70
    32
  0
VERTEX
  8
レイヤ__1
  5
331
 10
-9.54434
 20
-14.1965
 30
0.000000
  70
    32
  0
VERTEX
  8
レイヤ__1
  5
332
 10
-9.53902
 20
-14.1817
 30
0.000000
  70
    32
  0
VERTEX
  8
レイヤ__1
  5
333
 10
-9.53384
 20
-14.1668
 30
0.000000
  70
    32
  0
VERTEX
  8
レイヤ__1
  5
334
 10
-9.52878
 20
-14.1518
 30
0.000000
  70
    32
  0
VERTEX
  8
レイヤ__1
  5
335
 10
-9.52385
 20
-14.1368
 30
0.000000
  70
    32
  0
VERTEX
  8
レイヤ__1
  5
336
 10
-9.51903
 20
-14.1217
 30
0.000000
  70
    32
  0
VERTEX
  8
レイヤ__1
  5
337
 10
-9.51433
 20
-14.1065
 30
0.000000
  70
    32
  0
VERTEX
  8
レイヤ__1
  5
338
 10
-9.50975
 20
-14.0912
 30
0.000000
  70
    32
  0
VERTEX
  8
レイヤ__1
  5
339
 10
-9.50527
 20
-14.0759
 30
0.000000
  70
    32
  0
VERTEX
  8
レイヤ__1
  5
33A
 10
-9.50089
 20
-14.0606
 30
0.000000
  70
    32
  0
VERTEX
  8
レイヤ__1
  5
33B
 10
-9.49662
 20
-14.0451
 30
0.000000
  70
    32
  0
VERTEX
  8
レイヤ__1
  5
33C
 10
-9.49244
 20
-14.0296
 30
0.000000
  70
    32
  0
VERTEX
  8
レイヤ__1
  5
33D
 10
-9.48835
 20
-14.0140
 30
0.000000
  70
    32
  0
VERTEX
  8
レイヤ__1
  5
33E
 10
-9.48435
 20
-13.9984
 30
0.000000
  70
    32
  0
VERTEX
  8
レイヤ__1
  5
33F
 10
-9.48044
 20
-13.9827
 30
0.000000
  70
    32
  0
VERTEX
  8
レイヤ__1
  5
340
 10
-9.47661
 20
-13.9670
 30
0.000000
  70
    32
  0
VERTEX
  8
レイヤ__1
  5
341
 10
-9.47285
 20
-13.9512
 30
0.000000
  70
    32
  0
VERTEX
  8
レイヤ__1
  5
342
 10
-9.46917
 20
-13.9354
 30
0.000000
  70
    32
  0
VERTEX
  8
レイヤ__1
  5
343
 10
-9.46556
 20
-13.9195
 30
0.000000
  70
    32
  0
VERTEX
  8
レイヤ__1
  5
344
 10
-9.46201
 20
-13.9036
 30
0.000000
  70
    32
  0
VERTEX
  8
レイヤ__1
  5
345
 10
-9.45853
 20
-13.8876
 30
0.000000
  70
    32
  0
VERTEX
  8
レイヤ__1
  5
346
 10
-9.45510
 20
-13.8715
 30
0.000000
  70
    32
  0
VERTEX
  8
レイヤ__1
  5
347
 10
-9.45172
 20
-13.8555
 30
0.000000
  70
    32
  0
VERTEX
  8
レイヤ__1
  5
348
 10
-9.44840
 20
-13.8394
 30
0.000000
  70
    32
  0
VERTEX
  8
レイヤ__1
  5
349
 10
-9.44512
 20
-13.8232
 30
0.000000
  70
    32
  0
VERTEX
  8
レイヤ__1
  5
34A
 10
-9.44189
 20
-13.8070
 30
0.000000
  70
    32
  0
VERTEX
  8
レイヤ__1
  5
34B
 10
-9.43869
 20
-13.7908
 30
0.000000
  70
    32
  0
VERTEX
  8
レイヤ__1
  5
34C
 10
-9.43553
 20
-13.7745
 30
0.000000
  70
    32
  0
VERTEX
  8
レイヤ__1
  5
34D
 10
-9.43240
 20
-13.7582
 30
0.000000
  70
    32
  0
VERTEX
  8
レイヤ__1
  5
34E
 10
-9.42930
 20
-13.7419
 30
0.000000
  70
    32
  0
VERTEX
  8
レイヤ__1
  5
34F
 10
-9.42622
 20
-13.7255
 30
0.000000
  70
    32
  0
VERTEX
  8
レイヤ__1
  5
350
 10
-9.42316
 20
-13.7091
 30
0.000000
  70
    32
  0
SEQEND
  8
レイヤ__1
  5
351
  0
POLYLINE
  8
レイヤ__1
  5
352
  62
5
  66
     1
 10
0.000000
 20
0.000000
 30
0.000000
  70
     8
  0
VERTEX
  8
レイヤ__1
  5
353
 10
-16.7608
 20
-14.7954
 30
0.000000
  70
    32
  0
VERTEX
  8
レイヤ__1
  5
354
 10
-16.7641
 20
-14.8145
 30
0.000000
  70
    32
  0
VERTEX
  8
レイヤ__1
  5
355
 10
-16.7671
 20
-14.8335
 30
0.000000
  70
    32
  0
VERTEX
  8
レイヤ__1
  5
356
 10
-16.7700
 20
-14.8525
 30
0.000000
  70
    32
  0
VERTEX
  8
レイヤ__1
  5
357
 10
-16.7726
 20
-14.8714
 30
0.000000
  70
    32
  0
VERTEX
  8
レイヤ__1
  5
358
 10
-16.7750
 20
-14.8902
 30
0.000000
  70
    32
  0
VERTEX
  8
レイヤ__1
  5
359
 10
-16.7772
 20
-14.9090
 30
0.000000
  70
    32
  0
VERTEX
  8
レイヤ__1
  5
35A
 10
-16.7791
 20
-14.9278
 30
0.000000
  70
    32
  0
VERTEX
  8
レイヤ__1
  5
35B
 10
-16.7808
 20
-14.9465
 30
0.000000
  70
    32
  0
VERTEX
  8
レイヤ__1
  5
35C
 10
-16.7824
 20
-14.9651
 30
0.000000
  70
    32
  0
VERTEX
  8
レイヤ__1
  5
35D
 10
-16.7836
 20
-14.9837
 30
0.000000
  70
    32
  0
VERTEX
  8
レイヤ__1
  5
35E
 10
-16.7847
 20
-15.0022
 30
0.000000
  70
    32
  0
VERTEX
  8
レイヤ__1
  5
35F
 10
-16.7855
 20
-15.0206
 30
0.000000
  70
    32
  0
VERTEX
  8
レイヤ__1
  5
360
 10
-16.7861
 20
-15.0390
 30
0.000000
  70
    32
  0
VERTEX
  8
レイヤ__1
  5
361
 10
-16.7865
 20
-15.0573
 30
0.000000
  70
    32
  0
VERTEX
  8
レイヤ__1
  5
362
 10
-16.7867
 20
-15.0755
 30
0.000000
  70
    32
  0
VERTEX
  8
レイヤ__1
  5
363
 10
-16.7866
 20
-15.0937
 30
0.000000
  70
    32
  0
VERTEX
  8
レイヤ__1
  5
364
 10
-16.7863
 20
-15.1118
 30
0.000000
  70
    32
  0
VERTEX
  8
レイヤ__1
  5
365
 10
-16.7858
 20
-15.1298
 30
0.000000
  70
    32
  0
VERTEX
  8
レイヤ__1
  5
366
 10
-16.7851
 20
-15.1477
 30
0.000000
  70
    32
  0
VERTEX
  8
レイヤ__1
  5
367
 10
-16.7841
 20
-15.1656
 30
0.000000
  70
    32
  0
VERTEX
  8
レイヤ__1
  5
368
 10
-16.7829
 20
-15.1833
 30
0.000000
  70
    32
  0
VERTEX
  8
レイヤ__1
  5
369
 10
-16.7815
 20
-15.2010
 30
0.000000
  70
    32
  0
VERTEX
  8
レイヤ__1
  5
36A
 10
-16.7799
 20
-15.2186
 30
0.000000
  70
    32
  0
VERTEX
  8
レイヤ__1
  5
36B
 10
-16.7780
 20
-15.2362
 30
0.000000
  70
    32
  0
VERTEX
  8
レイヤ__1
  5
36C
 10
-16.7759
 20
-15.2536
 30
0.000000
  70
    32
  0
VERTEX
  8
レイヤ__1
  5
36D
 10
-16.7736
 20
-15.2710
 30
0.000000
  70
    32
  0
VERTEX
  8
レイヤ__1
  5
36E
 10
-16.7710
 20
-15.2882
 30
0.000000
  70
    32
  0
VERTEX
  8
レイヤ__1
  5
36F
 10
-16.7683
 20
-15.3054
 30
0.000000
  70
    32
  0
VERTEX
  8
レイヤ__1
  5
370
 10
-16.7653
 20
-15.3225
 30
0.000000
  70
    32
  0
VERTEX
  8
レイヤ__1
  5
371
 10
-16.7620
 20
-15.3395
 30
0.000000
  70
    32
  0
VERTEX
  8
レイヤ__1
  5
372
 10
-16.7586
 20
-15.3563
 30
0.000000
  70
    32
  0
VERTEX
  8
レイヤ__1
  5
373
 10
-16.7549
 20
-15.3731
 30
0.000000
  70
    32
  0
VERTEX
  8
レイヤ__1
  5
374
 10
-16.7510
 20
-15.3898
 30
0.000000
  70
    32
  0
VERTEX
  8
レイヤ__1
  5
375
 10
-16.7468
 20
-15.4064
 30
0.000000
  70
    32
  0
VERTEX
  8
レイヤ__1
  5
376
 10
-16.7425
 20
-15.4229
 30
0.000000
  70
    32
  0
VERTEX
  8
レイヤ__1
  5
377
 10
-16.7379
 20
-15.4393
 30
0.000000
  70
    32
  0
VERTEX
  8
レイヤ__1
  5
378
 10
-16.7330
 20
-15.4556
 30
0.000000
  70
    32
  0
VERTEX
  8
レイヤ__1
  5
379
 10
-16.7280
 20
-15.4717
 30
0.000000
  70
    32
  0
VERTEX
  8
レイヤ__1
  5
37A
 10
-16.7227
 20
-15.4878
 30
0.000000
  70
    32
  0
VERTEX
  8
レイヤ__1
  5
37B
 10
-16.7172
 20
-15.5037
 30
0.000000
  70
    32
  0
VERTEX
  8
レイヤ__1
  5
37C
 10
-16.7114
 20
-15.5196
 30
0.000000
  70
    32
  0
VERTEX
  8
レイヤ__1
  5
37D
 10
-16.7054
 20
-15.5353
 30
0.000000
  70
    32
  0
VERTEX
  8
レイヤ__1
  5
37E
 10
-16.6992
 20
-15.5509
 30
0.000000
  70
    32
  0
VERTEX
  8
レイヤ__1
  5
37F
 10
-16.6928
 20
-15.5664
 30
0.000000
  70
    32
  0
VERTEX
  8
レイヤ__1
  5
380
 10
-16.6861
 20
-15.5818
 30
0.000000
  70
    32
  0
VERTEX
  8
レイヤ__1
  5
381
 10
-16.6792
 20
-15.5970
 30
0.000000
  70
    32
  0
VERTEX
  8
レイヤ__1
  5
382
 10
-16.6721
 20
-15.6122
 30
0.000000
  70
    32
  0
VERTEX
  8
レイヤ__1
  5
383
 10
-16.6647
 20
-15.6272
 30
0.000000
  70
    32
  0
VERTEX
  8
レイヤ__1
  5
384
 10
-16.6571
 20
-15.6420
 30
0.000000
  70
    32
  0
VERTEX
  8
レイヤ__1
  5
385
 10
-16.6493
 20
-15.6568
 30
0.000000
  70
    32
  0
VERTEX
  8
レイヤ__1
  5
386
 10
-16.6412
 20
-15.6714
 30
0.000000
  70
    32
  0
VERTEX
  8
レイヤ__1
  5
387
 10
-16.6329
 20
-15.6859
 30
0.000000
  70
    32
  0
VERTEX
  8
レイヤ__1
  5
388
 10
-16.6244
 20
-15.7003
 30
0.000000
  70
    32
  0
VERTEX
  8
レイヤ__1
  5
389
 10
-16.6156
 20
-15.7145
 30
0.000000
  70
    32
  0
VERTEX
  8
レイヤ__1
  5
38A
 10
-16.6066
 20
-15.7286
 30
0.000000
  70
    32
  0
VERTEX
  8
レイヤ__1
  5
38B
 10
-16.5974
 20
-15.7426
 30
0.000000
  70
    32
  0
VERTEX
  8
レイヤ__1
  5
38C
 10
-16.5880
 20
-15.7564
 30
0.000000
  70
    32
  0
VERTEX
  8
レイヤ__1
  5
38D
 10
-16.5783
 20
-15.7701
 30
0.000000
  70
    32
  0
VERTEX
  8
レイヤ__1
  5
38E
 10
-16.5683
 20
-15.7836
 30
0.000000
  70
    32
  0
VERTEX
  8
レイヤ__1
  5
38F
 10
-16.5582
 20
-15.7970
 30
0.000000
  70
    32
  0
VERTEX
  8
レイヤ__1
  5
390
 10
-16.5478
 20
-15.8103
 30
0.000000
  70
    32
  0
VERTEX
  8
レイヤ__1
  5
391
 10
-16.5372
 20
-15.8234
 30
0.000000
  70
    32
  0
VERTEX
  8
レイヤ__1
  5
392
 10
-16.5263
 20
-15.8363
 30
0.000000
  70
    32
  0
VERTEX
  8
レイヤ__1
  5
393
 10
-16.5152
 20
-15.8491
 30
0.000000
  70
    32
  0
VERTEX
  8
レイヤ__1
  5
394
 10
-16.5039
 20
-15.8618
 30
0.000000
  70
    32
  0
VERTEX
  8
レイヤ__1
  5
395
 10
-16.4923
 20
-15.8743
 30
0.000000
  70
    32
  0
VERTEX
  8
レイヤ__1
  5
396
 10
-16.4805
 20
-15.8866
 30
0.000000
  70
    32
  0
VERTEX
  8
レイヤ__1
  5
397
 10
-16.4685
 20
-15.8988
 30
0.000000
  70
    32
  0
VERTEX
  8
レイヤ__1
  5
398
 10
-16.4562
 20
-15.9109
 30
0.000000
  70
    32
  0
VERTEX
  8
レイヤ__1
  5
399
 10
-16.4437
 20
-15.9228
 30
0.000000
  70
    32
  0
VERTEX
  8
レイヤ__1
  5
39A
 10
-16.4309
 20
-15.9345
 30
0.000000
  70
    32
  0
VERTEX
  8
レイヤ__1
  5
39B
 10
-16.4179
 20
-15.9460
 30
0.000000
  70
    32
  0
VERTEX
  8
レイヤ__1
  5
39C
 10
-16.4047
 20
-15.9574
 30
0.000000
  70
    32
  0
VERTEX
  8
レイヤ__1
  5
39D
 10
-16.3913
 20
-15.9686
 30
0.000000
  70
    32
  0
VERTEX
  8
レイヤ__1
  5
39E
 10
-16.3776
 20
-15.9797
 30
0.000000
  70
    32
  0
VERTEX
  8
レイヤ__1
  5
39F
 10
-16.3636
 20
-15.9906
 30
0.000000
  70
    32
  0
VERTEX
  8
レイヤ__1
  5
3A0
 10
-16.3495
 20
-16.0013
 30
0.000000
  70
    32
  0
VERTEX
  8
レイヤ__1
  5
3A1
 10
-16.3351
 20
-16.0118
 30
0.000000
  70
    32
  0
VERTEX
  8
レイヤ__1
  5
3A2
 10
-16.3204
 20
-16.0222
 30
0.000000
  70
    32
  0
VERTEX
  8
レイヤ__1
  5
3A3
 10
-16.3056
 20
-16.0324
 30
0.000000
  70
    32
  0
VERTEX
  8
レイヤ__1
  5
3A4
 10
-16.2904
 20
-16.0424
 30
0.000000
  70
    32
  0
VERTEX
  8
レイヤ__1
  5
3A5
 10
-16.2751
 20
-16.0523
 30
0.000000
  70
    32
  0
VERTEX
  8
レイヤ__1
  5
3A6
 10
-16.2595
 20
-16.0619
 30
0.000000
  70
    32
  0
VERTEX
  8
レイヤ__1
  5
3A7
 10
-16.2436
 20
-16.0714
 30
0.000000
  70
    32
  0
VERTEX
  8
レイヤ__1
  5
3A8
 10
-16.2276
 20
-16.0807
 30
0.000000
  70
    32
  0
VERTEX
  8
レイヤ__1
  5
3A9
 10
-16.2113
 20
-16.0898
 30
0.000000
  70
    32
  0
VERTEX
  8
レイヤ__1
  5
3AA
 10
-16.1947
 20
-16.0987
 30
0.000000
  70
    32
  0
VERTEX
  8
レイヤ__1
  5
3AB
 10
-16.1779
 20
-16.1075
 30
0.000000
  70
    32
  0
VERTEX
  8
レイヤ__1
  5
3AC
 10
-16.1609
 20
-16.1160
 30
0.000000
  70
    32
  0
VERTEX
  8
レイヤ__1
  5
3AD
 10
-16.1436
 20
-16.1244
 30
0.000000
  70
    32
  0
VERTEX
  8
レイヤ__1
  5
3AE
 10
-16.1261
 20
-16.1325
 30
0.000000
  70
    32
  0
VERTEX
  8
レイヤ__1
  5
3AF
 10
-16.1083
 20
-16.1405
 30
0.000000
  70
    32
  0
VERTEX
  8
レイヤ__1
  5
3B0
 10
-16.0903
 20
-16.1483
 30
0.000000
  70
    32
  0
VERTEX
  8
レイヤ__1
  5
3B1
 10
-16.0721
 20
-16.1558
 30
0.000000
  70
    32
  0
VERTEX
  8
レイヤ__1
  5
3B2
 10
-16.0536
 20
-16.1632
 30
0.000000
  70
    32
  0
VERTEX
  8
レイヤ__1
  5
3B3
 10
-16.0349
 20
-16.1704
 30
0.000000
  70
    32
  0
VERTEX
  8
レイヤ__1
  5
3B4
 10
-16.0159
 20
-16.1773
 30
0.000000
  70
    32
  0
VERTEX
  8
レイヤ__1
  5
3B5
 10
-15.9967
 20
-16.1841
 30
0.000000
  70
    32
  0
VERTEX
  8
レイヤ__1
  5
3B6
 10
-15.9773
 20
-16.1907
 30
0.000000
  70
    32
  0
VERTEX
  8
レイヤ__1
  5
3B7
 10
-15.9576
 20
-16.1970
 30
0.000000
  70
    32
  0
VERTEX
  8
レイヤ__1
  5
3B8
 10
-15.9377
 20
-16.2032
 30
0.000000
  70
    32
  0
VERTEX
  8
レイヤ__1
  5
3B9
 10
-15.9175
 20
-16.2091
 30
0.000000
  70
    32
  0
VERTEX
  8
レイヤ__1
  5
3BA
 10
-15.8971
 20
-16.2148
 30
0.000000
  70
    32
  0
VERTEX
  8
レイヤ__1
  5
3BB
 10
-15.8764
 20
-16.2203
 30
0.000000
  70
    32
  0
VERTEX
  8
レイヤ__1
  5
3BC
 10
-15.8555
 20
-16.2256
 30
0.000000
  70
    32
  0
VERTEX
  8
レイヤ__1
  5
3BD
 10
-15.8344
 20
-16.2307
 30
0.000000
  70
    32
  0
VERTEX
  8
レイヤ__1
  5
3BE
 10
-15.8130
 20
-16.2355
 30
0.000000
  70
    32
  0
VERTEX
  8
レイヤ__1
  5
3BF
 10
-15.7914
 20
-16.2401
 30
0.000000
  70
    32
  0
VERTEX
  8
レイヤ__1
  5
3C0
 10
-15.7695
 20
-16.2445
 30
0.000000
  70
    32
  0
VERTEX
  8
レイヤ__1
  5
3C1
 10
-15.7474
 20
-16.2487
 30
0.000000
  70
    32
  0
VERTEX
  8
レイヤ__1
  5
3C2
 10
-15.7250
 20
-16.2527
 30
0.000000
  70
    32
  0
VERTEX
  8
レイヤ__1
  5
3C3
 10
-15.7024
 20
-16.2564
 30
0.000000
  70
    32
  0
VERTEX
  8
レイヤ__1
  5
3C4
 10
-15.6795
 20
-16.2599
 30
0.000000
  70
    32
  0
VERTEX
  8
レイヤ__1
  5
3C5
 10
-15.6564
 20
-16.2632
 30
0.000000
  70
    32
  0
VERTEX
  8
レイヤ__1
  5
3C6
 10
-15.6331
 20
-16.2662
 30
0.000000
  70
    32
  0
VERTEX
  8
レイヤ__1
  5
3C7
 10
-15.6095
 20
-16.2690
 30
0.000000
  70
    32
  0
VERTEX
  8
レイヤ__1
  5
3C8
 10
-15.5857
 20
-16.2716
 30
0.000000
  70
    32
  0
VERTEX
  8
レイヤ__1
  5
3C9
 10
-15.5616
 20
-16.2739
 30
0.000000
  70
    32
  0
VERTEX
  8
レイヤ__1
  5
3CA
 10
-15.5373
 20
-16.2760
 30
0.000000
  70
    32
  0
VERTEX
  8
レイヤ__1
  5
3CB
 10
-15.5127
 20
-16.2779
 30
0.000000
  70
    32
  0
VERTEX
  8
レイヤ__1
  5
3CC
 10
-15.4879
 20
-16.2795
 30
0.000000
  70
    32
  0
VERTEX
  8
レイヤ__1
  5
3CD
 10
-15.4628
 20
-16.2808
 30
0.000000
  70
    32
  0
VERTEX
  8
レイヤ__1
  5
3CE
 10
-15.4375
 20
-16.2820
 30
0.000000
  70
    32
  0
VERTEX
  8
レイヤ__1
  5
3CF
 10
-15.4119
 20
-16.2829
 30
0.000000
  70
    32
  0
VERTEX
  8
レイヤ__1
  5
3D0
 10
-15.3861
 20
-16.2835
 30
0.000000
  70
    32
  0
VERTEX
  8
レイヤ__1
  5
3D1
 10
-15.3601
 20
-16.2839
 30
0.000000
  70
    32
  0
VERTEX
  8
レイヤ__1
  5
3D2
 10
-15.3337
 20
-16.2840
 30
0.000000
  70
    32
  0
SEQEND
  8
レイヤ__1
  5
3D3
  0
POLYLINE
  8
レイヤ__1
  5
3D4
  62
5
  66
     1
 10
0.000000
 20
0.000000
 30
0.000000
  70
     8
  0
VERTEX
  8
レイヤ__1
  5
3D5
 10
-15.2699
 20
-14.6789
 30
0.000000
  70
    32
  0
VERTEX
  8
レイヤ__1
  5
3D6
 10
-15.2599
 20
-14.6817
 30
0.000000
  70
    32
  0
VERTEX
  8
レイヤ__1
  5
3D7
 10
-15.2499
 20
-14.6844
 30
0.000000
  70
    32
  0
VERTEX
  8
レイヤ__1
  5
3D8
 10
-15.2400
 20
-14.6871
 30
0.000000
  70
    32
  0
VERTEX
  8
レイヤ__1
  5
3D9
 10
-15.2301
 20
-14.6898
 30
0.000000
  70
    32
  0
VERTEX
  8
レイヤ__1
  5
3DA
 10
-15.2202
 20
-14.6924
 30
0.000000
  70
    32
  0
VERTEX
  8
レイヤ__1
  5
3DB
 10
-15.2103
 20
-14.6950
 30
0.000000
  70
    32
  0
VERTEX
  8
レイヤ__1
  5
3DC
 10
-15.2005
 20
-14.6977
 30
0.000000
  70
    32
  0
VERTEX
  8
レイヤ__1
  5
3DD
 10
-15.1907
 20
-14.7003
 30
0.000000
  70
    32
  0
VERTEX
  8
レイヤ__1
  5
3DE
 10
-15.1810
 20
-14.7028
 30
0.000000
  70
    32
  0
VERTEX
  8
レイヤ__1
  5
3DF
 10
-15.1713
 20
-14.7054
 30
0.000000
  70
    32
  0
VERTEX
  8
レイヤ__1
  5
3E0
 10
-15.1616
 20
-14.7080
 30
0.000000
  70
    32
  0
VERTEX
  8
レイヤ__1
  5
3E1
 10
-15.1520
 20
-14.7105
 30
0.000000
  70
    32
  0
VERTEX
  8
レイヤ__1
  5
3E2
 10
-15.1424
 20
-14.7130
 30
0.000000
  70
    32
  0
VERTEX
  8
レイヤ__1
  5
3E3
 10
-15.1329
 20
-14.7155
 30
0.000000
  70
    32
  0
VERTEX
  8
レイヤ__1
  5
3E4
 10
-15.1234
 20
-14.7180
 30
0.000000
  70
    32
  0
VERTEX
  8
レイヤ__1
  5
3E5
 10
-15.1140
 20
-14.7205
 30
0.000000
  70
    32
  0
VERTEX
  8
レイヤ__1
  5
3E6
 10
-15.1046
 20
-14.7230
 30
0.000000
  70
    32
  0
VERTEX
  8
レイヤ__1
  5
3E7
 10
-15.0952
 20
-14.7254
 30
0.000000
  70
    32
  0
VERTEX
  8
レイヤ__1
  5
3E8
 10
-15.0859
 20
-14.7279
 30
0.000000
  70
    32
  0
VERTEX
  8
レイヤ__1
  5
3E9
 10
-15.0766
 20
-14.7303
 30
0.000000
  70
    32
  0
VERTEX
  8
レイヤ__1
  5
3EA
 10
-15.0674
 20
-14.7327
 30
0.000000
  70
    32
  0
VERTEX
  8
レイヤ__1
  5
3EB
 10
-15.0583
 20
-14.7351
 30
0.000000
  70
    32
  0
VERTEX
  8
レイヤ__1
  5
3EC
 10
-15.0492
 20
-14.7375
 30
0.000000
  70
    32
  0
VERTEX
  8
レイヤ__1
  5
3ED
 10
-15.0401
 20
-14.7399
 30
0.000000
  70
    32
  0
VERTEX
  8
レイヤ__1
  5
3EE
 10
-15.0311
 20
-14.7423
 30
0.000000
  70
    32
  0
VERTEX
  8
レイヤ__1
  5
3EF
 10
-15.0221
 20
-14.7447
 30
0.000000
  70
    32
  0
VERTEX
  8
レイヤ__1
  5
3F0
 10
-15.0132
 20
-14.7471
 30
0.000000
  70
    32
  0
VERTEX
  8
レイヤ__1
  5
3F1
 10
-15.0044
 20
-14.7495
 30
0.000000
  70
    32
  0
VERTEX
  8
レイヤ__1
  5
3F2
 10
-14.9956
 20
-14.7519
 30
0.000000
  70
    32
  0
VERTEX
  8
レイヤ__1
  5
3F3
 10
-14.9868
 20
-14.7543
 30
0.000000
  70
    32
  0
VERTEX
  8
レイヤ__1
  5
3F4
 10
-14.9782
 20
-14.7566
 30
0.000000
  70
    32
  0
VERTEX
  8
レイヤ__1
  5
3F5
 10
-14.9695
 20
-14.7590
 30
0.000000
  70
    32
  0
VERTEX
  8
レイヤ__1
  5
3F6
 10
-14.9610
 20
-14.7614
 30
0.000000
  70
    32
  0
VERTEX
  8
レイヤ__1
  5
3F7
 10
-14.9525
 20
-14.7637
 30
0.000000
  70
    32
  0
VERTEX
  8
レイヤ__1
  5
3F8
 10
-14.9440
 20
-14.7661
 30
0.000000
  70
    32
  0
VERTEX
  8
レイヤ__1
  5
3F9
 10
-14.9357
 20
-14.7685
 30
0.000000
  70
    32
  0
VERTEX
  8
レイヤ__1
  5
3FA
 10
-14.9273
 20
-14.7708
 30
0.000000
  70
    32
  0
VERTEX
  8
レイヤ__1
  5
3FB
 10
-14.9191
 20
-14.7732
 30
0.000000
  70
    32
  0
VERTEX
  8
レイヤ__1
  5
3FC
 10
-14.9109
 20
-14.7756
 30
0.000000
  70
    32
  0
VERTEX
  8
レイヤ__1
  5
3FD
 10
-14.9028
 20
-14.7780
 30
0.000000
  70
    32
  0
VERTEX
  8
レイヤ__1
  5
3FE
 10
-14.8947
 20
-14.7804
 30
0.000000
  70
    32
  0
VERTEX
  8
レイヤ__1
  5
3FF
 10
-14.8867
 20
-14.7828
 30
0.000000
  70
    32
  0
VERTEX
  8
レイヤ__1
  5
400
 10
-14.8788
 20
-14.7852
 30
0.000000
  70
    32
  0
VERTEX
  8
レイヤ__1
  5
401
 10
-14.8709
 20
-14.7876
 30
0.000000
  70
    32
  0
VERTEX
  8
レイヤ__1
  5
402
 10
-14.8632
 20
-14.7900
 30
0.000000
  70
    32
  0
VERTEX
  8
レイヤ__1
  5
403
 10
-14.8554
 20
-14.7924
 30
0.000000
  70
    32
  0
VERTEX
  8
レイヤ__1
  5
404
 10
-14.8478
 20
-14.7948
 30
0.000000
  70
    32
  0
VERTEX
  8
レイヤ__1
  5
405
 10
-14.8402
 20
-14.7973
 30
0.000000
  70
    32
  0
VERTEX
  8
レイヤ__1
  5
406
 10
-14.8327
 20
-14.7997
 30
0.000000
  70
    32
  0
VERTEX
  8
レイヤ__1
  5
407
 10
-14.8253
 20
-14.8022
 30
0.000000
  70
    32
  0
VERTEX
  8
レイヤ__1
  5
408
 10
-14.8180
 20
-14.8046
 30
0.000000
  70
    32
  0
VERTEX
  8
レイヤ__1
  5
409
 10
-14.8107
 20
-14.8071
 30
0.000000
  70
    32
  0
VERTEX
  8
レイヤ__1
  5
40A
 10
-14.8035
 20
-14.8096
 30
0.000000
  70
    32
  0
VERTEX
  8
レイヤ__1
  5
40B
 10
-14.7964
 20
-14.8121
 30
0.000000
  70
    32
  0
VERTEX
  8
レイヤ__1
  5
40C
 10
-14.7893
 20
-14.8147
 30
0.000000
  70
    32
  0
VERTEX
  8
レイヤ__1
  5
40D
 10
-14.7824
 20
-14.8172
 30
0.000000
  70
    32
  0
VERTEX
  8
レイヤ__1
  5
40E
 10
-14.7755
 20
-14.8198
 30
0.000000
  70
    32
  0
VERTEX
  8
レイヤ__1
  5
40F
 10
-14.7687
 20
-14.8223
 30
0.000000
  70
    32
  0
VERTEX
  8
レイヤ__1
  5
410
 10
-14.7620
 20
-14.8249
 30
0.000000
  70
    32
  0
VERTEX
  8
レイヤ__1
  5
411
 10
-14.7554
 20
-14.8275
 30
0.000000
  70
    32
  0
VERTEX
  8
レイヤ__1
  5
412
 10
-14.7488
 20
-14.8301
 30
0.000000
  70
    32
  0
VERTEX
  8
レイヤ__1
  5
413
 10
-14.7424
 20
-14.8328
 30
0.000000
  70
    32
  0
VERTEX
  8
レイヤ__1
  5
414
 10
-14.7360
 20
-14.8354
 30
0.000000
  70
    32
  0
VERTEX
  8
レイヤ__1
  5
415
 10
-14.7297
 20
-14.8381
 30
0.000000
  70
    32
  0
VERTEX
  8
レイヤ__1
  5
416
 10
-14.7235
 20
-14.8408
 30
0.000000
  70
    32
  0
VERTEX
  8
レイヤ__1
  5
417
 10
-14.7174
 20
-14.8436
 30
0.000000
  70
    32
  0
VERTEX
  8
レイヤ__1
  5
418
 10
-14.7113
 20
-14.8463
 30
0.000000
  70
    32
  0
VERTEX
  8
レイヤ__1
  5
419
 10
-14.7054
 20
-14.8491
 30
0.000000
  70
    32
  0
VERTEX
  8
レイヤ__1
  5
41A
 10
-14.6996
 20
-14.8519
 30
0.000000
  70
    32
  0
VERTEX
  8
レイヤ__1
  5
41B
 10
-14.6938
 20
-14.8547
 30
0.000000
  70
    32
  0
VERTEX
  8
レイヤ__1
  5
41C
 10
-14.6881
 20
-14.8575
 30
0.000000
  70
    32
  0
VERTEX
  8
レイヤ__1
  5
41D
 10
-14.6826
 20
-14.8604
 30
0.000000
  70
    32
  0
VERTEX
  8
レイヤ__1
  5
41E
 10
-14.6771
 20
-14.8633
 30
0.000000
  70
    32
  0
VERTEX
  8
レイヤ__1
  5
41F
 10
-14.6717
 20
-14.8662
 30
0.000000
  70
    32
  0
VERTEX
  8
レイヤ__1
  5
420
 10
-14.6664
 20
-14.8692
 30
0.000000
  70
    32
  0
VERTEX
  8
レイヤ__1
  5
421
 10
-14.6613
 20
-14.8722
 30
0.000000
  70
    32
  0
VERTEX
  8
レイヤ__1
  5
422
 10
-14.6562
 20
-14.8752
 30
0.000000
  70
    32
  0
VERTEX
  8
レイヤ__1
  5
423
 10
-14.6512
 20
-14.8782
 30
0.000000
  70
    32
  0
VERTEX
  8
レイヤ__1
  5
424
 10
-14.6463
 20
-14.8813
 30
0.000000
  70
    32
  0
VERTEX
  8
レイヤ__1
  5
425
 10
-14.6415
 20
-14.8844
 30
0.000000
  70
    32
  0
VERTEX
  8
レイヤ__1
  5
426
 10
-14.6368
 20
-14.8875
 30
0.000000
  70
    32
  0
VERTEX
  8
レイヤ__1
  5
427
 10
-14.6322
 20
-14.8907
 30
0.000000
  70
    32
  0
VERTEX
  8
レイヤ__1
  5
428
 10
-14.6277
 20
-14.8939
 30
0.000000
  70
    32
  0
VERTEX
  8
レイヤ__1
  5
429
 10
-14.6234
 20
-14.8971
 30
0.000000
  70
    32
  0
VERTEX
  8
レイヤ__1
  5
42A
 10
-14.6191
 20
-14.9004
 30
0.000000
  70
    32
  0
VERTEX
  8
レイヤ__1
  5
42B
 10
-14.6149
 20
-14.9037
 30
0.000000
  70
    32
  0
VERTEX
  8
レイヤ__1
  5
42C
 10
-14.6109
 20
-14.9071
 30
0.000000
  70
    32
  0
VERTEX
  8
レイヤ__1
  5
42D
 10
-14.6069
 20
-14.9104
 30
0.000000
  70
    32
  0
VERTEX
  8
レイヤ__1
  5
42E
 10
-14.6031
 20
-14.9139
 30
0.000000
  70
    32
  0
VERTEX
  8
レイヤ__1
  5
42F
 10
-14.5993
 20
-14.9173
 30
0.000000
  70
    32
  0
VERTEX
  8
レイヤ__1
  5
430
 10
-14.5957
 20
-14.9208
 30
0.000000
  70
    32
  0
VERTEX
  8
レイヤ__1
  5
431
 10
-14.5922
 20
-14.9243
 30
0.000000
  70
    32
  0
VERTEX
  8
レイヤ__1
  5
432
 10
-14.5888
 20
-14.9279
 30
0.000000
  70
    32
  0
VERTEX
  8
レイヤ__1
  5
433
 10
-14.5855
 20
-14.9315
 30
0.000000
  70
    32
  0
VERTEX
  8
レイヤ__1
  5
434
 10
-14.5824
 20
-14.9352
 30
0.000000
  70
    32
  0
VERTEX
  8
レイヤ__1
  5
435
 10
-14.5793
 20
-14.9389
 30
0.000000
  70
    32
  0
VERTEX
  8
レイヤ__1
  5
436
 10
-14.5764
 20
-14.9426
 30
0.000000
  70
    32
  0
VERTEX
  8
レイヤ__1
  5
437
 10
-14.5735
 20
-14.9464
 30
0.000000
  70
    32
  0
VERTEX
  8
レイヤ__1
  5
438
 10
-14.5708
 20
-14.9503
 30
0.000000
  70
    32
  0
VERTEX
  8
レイヤ__1
  5
439
 10
-14.5682
 20
-14.9541
 30
0.000000
  70
    32
  0
VERTEX
  8
レイヤ__1
  5
43A
 10
-14.5658
 20
-14.9581
 30
0.000000
  70
    32
  0
VERTEX
  8
レイヤ__1
  5
43B
 10
-14.5634
 20
-14.9620
 30
0.000000
  70
    32
  0
VERTEX
  8
レイヤ__1
  5
43C
 10
-14.5612
 20
-14.9660
 30
0.000000
  70
    32
  0
VERTEX
  8
レイヤ__1
  5
43D
 10
-14.5591
 20
-14.9701
 30
0.000000
  70
    32
  0
VERTEX
  8
レイヤ__1
  5
43E
 10
-14.5571
 20
-14.9742
 30
0.000000
  70
    32
  0
VERTEX
  8
レイヤ__1
  5
43F
 10
-14.5552
 20
-14.9784
 30
0.000000
  70
    32
  0
VERTEX
  8
レイヤ__1
  5
440
 10
-14.5535
 20
-14.9826
 30
0.000000
  70
    32
  0
VERTEX
  8
レイヤ__1
  5
441
 10
-14.5519
 20
-14.9869
 30
0.000000
  70
    32
  0
VERTEX
  8
レイヤ__1
  5
442
 10
-14.5504
 20
-14.9912
 30
0.000000
  70
    32
  0
VERTEX
  8
レイヤ__1
  5
443
 10
-14.5490
 20
-14.9955
 30
0.000000
  70
    32
  0
VERTEX
  8
レイヤ__1
  5
444
 10
-14.5478
 20
-15.0000
 30
0.000000
  70
    32
  0
VERTEX
  8
レイヤ__1
  5
445
 10
-14.5467
 20
-15.0044
 30
0.000000
  70
    32
  0
VERTEX
  8
レイヤ__1
  5
446
 10
-14.5457
 20
-15.0090
 30
0.000000
  70
    32
  0
VERTEX
  8
レイヤ__1
  5
447
 10
-14.5449
 20
-15.0135
 30
0.000000
  70
    32
  0
VERTEX
  8
レイヤ__1
  5
448
 10
-14.5442
 20
-15.0182
 30
0.000000
  70
    32
  0
VERTEX
  8
レイヤ__1
  5
449
 10
-14.5436
 20
-15.0229
 30
0.000000
  70
    32
  0
VERTEX
  8
レイヤ__1
  5
44A
 10
-14.5431
 20
-15.0276
 30
0.000000
  70
    32
  0
VERTEX
  8
レイヤ__1
  5
44B
 10
-14.5428
 20
-15.0324
 30
0.000000
  70
    32
  0
VERTEX
  8
レイヤ__1
  5
44C
 10
-14.5427
 20
-15.0373
 30
0.000000
  70
    32
  0
VERTEX
  8
レイヤ__1
  5
44D
 10
-14.5426
 20
-15.0422
 30
0.000000
  70
    32
  0
VERTEX
  8
レイヤ__1
  5
44E
 10
-14.5427
 20
-15.0472
 30
0.000000
  70
    32
  0
VERTEX
  8
レイヤ__1
  5
44F
 10
-14.5430
 20
-15.0523
 30
0.000000
  70
    32
  0
VERTEX
  8
レイヤ__1
  5
450
 10
-14.5433
 20
-15.0574
 30
0.000000
  70
    32
  0
VERTEX
  8
レイヤ__1
  5
451
 10
-14.5438
 20
-15.0625
 30
0.000000
  70
    32
  0
VERTEX
  8
レイヤ__1
  5
452
 10
-14.5445
 20
-15.0678
 30
0.000000
  70
    32
  0
VERTEX
  8
レイヤ__1
  5
453
 10
-14.5453
 20
-15.0731
 30
0.000000
  70
    32
  0
VERTEX
  8
レイヤ__1
  5
454
 10
-14.5462
 20
-15.0784
 30
0.000000
  70
    32
  0
SEQEND
  8
レイヤ__1
  5
455
  0
POLYLINE
  8
レイヤ__1
  5
456
  62
5
  66
     1
 10
0.000000
 20
0.000000
 30
0.000000
  70
     8
  0
VERTEX
  8
レイヤ__1
  5
457
 10
-14.5462
 20
-15.0784
 30
0.000000
  70
    32
  0
VERTEX
  8
レイヤ__1
  5
458
 10
-14.5475
 20
-15.0850
 30
0.000000
  70
    32
  0
VERTEX
  8
レイヤ__1
  5
459
 10
-14.5489
 20
-15.0915
 30
0.000000
  70
    32
  0
VERTEX
  8
レイヤ__1
  5
45A
 10
-14.5503
 20
-15.0979
 30
0.000000
  70
    32
  0
VERTEX
  8
レイヤ__1
  5
45B
 10
-14.5518
 20
-15.1042
 30
0.000000
  70
    32
  0
VERTEX
  8
レイヤ__1
  5
45C
 10
-14.5534
 20
-15.1104
 30
0.000000
  70
    32
  0
VERTEX
  8
レイヤ__1
  5
45D
 10
-14.5550
 20
-15.1165
 30
0.000000
  70
    32
  0
VERTEX
  8
レイヤ__1
  5
45E
 10
-14.5567
 20
-15.1225
 30
0.000000
  70
    32
  0
VERTEX
  8
レイヤ__1
  5
45F
 10
-14.5585
 20
-15.1284
 30
0.000000
  70
    32
  0
VERTEX
  8
レイヤ__1
  5
460
 10
-14.5604
 20
-15.1342
 30
0.000000
  70
    32
  0
VERTEX
  8
レイヤ__1
  5
461
 10
-14.5623
 20
-15.1399
 30
0.000000
  70
    32
  0
VERTEX
  8
レイヤ__1
  5
462
 10
-14.5644
 20
-15.1456
 30
0.000000
  70
    32
  0
VERTEX
  8
レイヤ__1
  5
463
 10
-14.5664
 20
-15.1511
 30
0.000000
  70
    32
  0
VERTEX
  8
レイヤ__1
  5
464
 10
-14.5686
 20
-15.1565
 30
0.000000
  70
    32
  0
VERTEX
  8
レイヤ__1
  5
465
 10
-14.5708
 20
-15.1619
 30
0.000000
  70
    32
  0
VERTEX
  8
レイヤ__1
  5
466
 10
-14.5731
 20
-15.1672
 30
0.000000
  70
    32
  0
VERTEX
  8
レイヤ__1
  5
467
 10
-14.5755
 20
-15.1724
 30
0.000000
  70
    32
  0
VERTEX
  8
レイヤ__1
  5
468
 10
-14.5779
 20
-15.1775
 30
0.000000
  70
    32
  0
VERTEX
  8
レイヤ__1
  5
469
 10
-14.5804
 20
-15.1825
 30
0.000000
  70
    32
  0
VERTEX
  8
レイヤ__1
  5
46A
 10
-14.5829
 20
-15.1874
 30
0.000000
  70
    32
  0
VERTEX
  8
レイヤ__1
  5
46B
 10
-14.5856
 20
-15.1922
 30
0.000000
  70
    32
  0
VERTEX
  8
レイヤ__1
  5
46C
 10
-14.5883
 20
-15.1970
 30
0.000000
  70
    32
  0
VERTEX
  8
レイヤ__1
  5
46D
 10
-14.5910
 20
-15.2017
 30
0.000000
  70
    32
  0
VERTEX
  8
レイヤ__1
  5
46E
 10
-14.5939
 20
-15.2062
 30
0.000000
  70
    32
  0
VERTEX
  8
レイヤ__1
  5
46F
 10
-14.5968
 20
-15.2108
 30
0.000000
  70
    32
  0
VERTEX
  8
レイヤ__1
  5
470
 10
-14.5997
 20
-15.2152
 30
0.000000
  70
    32
  0
VERTEX
  8
レイヤ__1
  5
471
 10
-14.6027
 20
-15.2195
 30
0.000000
  70
    32
  0
VERTEX
  8
レイヤ__1
  5
472
 10
-14.6058
 20
-15.2238
 30
0.000000
  70
    32
  0
VERTEX
  8
レイヤ__1
  5
473
 10
-14.6090
 20
-15.2280
 30
0.000000
  70
    32
  0
VERTEX
  8
レイヤ__1
  5
474
 10
-14.6122
 20
-15.2321
 30
0.000000
  70
    32
  0
VERTEX
  8
レイヤ__1
  5
475
 10
-14.6155
 20
-15.2361
 30
0.000000
  70
    32
  0
VERTEX
  8
レイヤ__1
  5
476
 10
-14.6188
 20
-15.2401
 30
0.000000
  70
    32
  0
VERTEX
  8
レイヤ__1
  5
477
 10
-14.6222
 20
-15.2439
 30
0.000000
  70
    32
  0
VERTEX
  8
レイヤ__1
  5
478
 10
-14.6257
 20
-15.2477
 30
0.000000
  70
    32
  0
VERTEX
  8
レイヤ__1
  5
479
 10
-14.6292
 20
-15.2515
 30
0.000000
  70
    32
  0
VERTEX
  8
レイヤ__1
  5
47A
 10
-14.6328
 20
-15.2551
 30
0.000000
  70
    32
  0
VERTEX
  8
レイヤ__1
  5
47B
 10
-14.6364
 20
-15.2587
 30
0.000000
  70
    32
  0
VERTEX
  8
レイヤ__1
  5
47C
 10
-14.6401
 20
-15.2622
 30
0.000000
  70
    32
  0
VERTEX
  8
レイヤ__1
  5
47D
 10
-14.6439
 20
-15.2656
 30
0.000000
  70
    32
  0
VERTEX
  8
レイヤ__1
  5
47E
 10
-14.6477
 20
-15.2690
 30
0.000000
  70
    32
  0
VERTEX
  8
レイヤ__1
  5
47F
 10
-14.6516
 20
-15.2723
 30
0.000000
  70
    32
  0
VERTEX
  8
レイヤ__1
  5
480
 10
-14.6555
 20
-15.2755
 30
0.000000
  70
    32
  0
VERTEX
  8
レイヤ__1
  5
481
 10
-14.6595
 20
-15.2787
 30
0.000000
  70
    32
  0
VERTEX
  8
レイヤ__1
  5
482
 10
-14.6636
 20
-15.2818
 30
0.000000
  70
    32
  0
VERTEX
  8
レイヤ__1
  5
483
 10
-14.6677
 20
-15.2848
 30
0.000000
  70
    32
  0
VERTEX
  8
レイヤ__1
  5
484
 10
-14.6719
 20
-15.2877
 30
0.000000
  70
    32
  0
VERTEX
  8
レイヤ__1
  5
485
 10
-14.6761
 20
-15.2906
 30
0.000000
  70
    32
  0
VERTEX
  8
レイヤ__1
  5
486
 10
-14.6804
 20
-15.2934
 30
0.000000
  70
    32
  0
VERTEX
  8
レイヤ__1
  5
487
 10
-14.6847
 20
-15.2962
 30
0.000000
  70
    32
  0
VERTEX
  8
レイヤ__1
  5
488
 10
-14.6891
 20
-15.2989
 30
0.000000
  70
    32
  0
VERTEX
  8
レイヤ__1
  5
489
 10
-14.6935
 20
-15.3015
 30
0.000000
  70
    32
  0
VERTEX
  8
レイヤ__1
  5
48A
 10
-14.6980
 20
-15.3041
 30
0.000000
  70
    32
  0
VERTEX
  8
レイヤ__1
  5
48B
 10
-14.7026
 20
-15.3066
 30
0.000000
  70
    32
  0
VERTEX
  8
レイヤ__1
  5
48C
 10
-14.7072
 20
-15.3091
 30
0.000000
  70
    32
  0
VERTEX
  8
レイヤ__1
  5
48D
 10
-14.7118
 20
-15.3115
 30
0.000000
  70
    32
  0
VERTEX
  8
レイヤ__1
  5
48E
 10
-14.7165
 20
-15.3138
 30
0.000000
  70
    32
  0
VERTEX
  8
レイヤ__1
  5
48F
 10
-14.7213
 20
-15.3161
 30
0.000000
  70
    32
  0
VERTEX
  8
レイヤ__1
  5
490
 10
-14.7261
 20
-15.3183
 30
0.000000
  70
    32
  0
VERTEX
  8
レイヤ__1
  5
491
 10
-14.7309
 20
-15.3204
 30
0.000000
  70
    32
  0
VERTEX
  8
レイヤ__1
  5
492
 10
-14.7358
 20
-15.3225
 30
0.000000
  70
    32
  0
VERTEX
  8
レイヤ__1
  5
493
 10
-14.7408
 20
-15.3246
 30
0.000000
  70
    32
  0
VERTEX
  8
レイヤ__1
  5
494
 10
-14.7458
 20
-15.3266
 30
0.000000
  70
    32
  0
VERTEX
  8
レイヤ__1
  5
495
 10
-14.7509
 20
-15.3285
 30
0.000000
  70
    32
  0
VERTEX
  8
レイヤ__1
  5
496
 10
-14.7560
 20
-15.3304
 30
0.000000
  70
    32
  0
VERTEX
  8
レイヤ__1
  5
497
 10
-14.7611
 20
-15.3322
 30
0.000000
  70
    32
  0
VERTEX
  8
レイヤ__1
  5
498
 10
-14.7663
 20
-15.3340
 30
0.000000
  70
    32
  0
VERTEX
  8
レイヤ__1
  5
499
 10
-14.7715
 20
-15.3358
 30
0.000000
  70
    32
  0
VERTEX
  8
レイヤ__1
  5
49A
 10
-14.7768
 20
-15.3374
 30
0.000000
  70
    32
  0
VERTEX
  8
レイヤ__1
  5
49B
 10
-14.7822
 20
-15.3391
 30
0.000000
  70
    32
  0
VERTEX
  8
レイヤ__1
  5
49C
 10
-14.7875
 20
-15.3407
 30
0.000000
  70
    32
  0
VERTEX
  8
レイヤ__1
  5
49D
 10
-14.7930
 20
-15.3422
 30
0.000000
  70
    32
  0
VERTEX
  8
レイヤ__1
  5
49E
 10
-14.7984
 20
-15.3437
 30
0.000000
  70
    32
  0
VERTEX
  8
レイヤ__1
  5
49F
 10
-14.8040
 20
-15.3451
 30
0.000000
  70
    32
  0
VERTEX
  8
レイヤ__1
  5
4A0
 10
-14.8095
 20
-15.3465
 30
0.000000
  70
    32
  0
VERTEX
  8
レイヤ__1
  5
4A1
 10
-14.8151
 20
-15.3479
 30
0.000000
  70
    32
  0
VERTEX
  8
レイヤ__1
  5
4A2
 10
-14.8208
 20
-15.3492
 30
0.000000
  70
    32
  0
VERTEX
  8
レイヤ__1
  5
4A3
 10
-14.8264
 20
-15.3505
 30
0.000000
  70
    32
  0
VERTEX
  8
レイヤ__1
  5
4A4
 10
-14.8322
 20
-15.3517
 30
0.000000
  70
    32
  0
VERTEX
  8
レイヤ__1
  5
4A5
 10
-14.8379
 20
-15.3529
 30
0.000000
  70
    32
  0
VERTEX
  8
レイヤ__1
  5
4A6
 10
-14.8438
 20
-15.3540
 30
0.000000
  70
    32
  0
VERTEX
  8
レイヤ__1
  5
4A7
 10
-14.8496
 20
-15.3551
 30
0.000000
  70
    32
  0
VERTEX
  8
レイヤ__1
  5
4A8
 10
-14.8555
 20
-15.3562
 30
0.000000
  70
    32
  0
VERTEX
  8
レイヤ__1
  5
4A9
 10
-14.8614
 20
-15.3572
 30
0.000000
  70
    32
  0
VERTEX
  8
レイヤ__1
  5
4AA
 10
-14.8674
 20
-15.3582
 30
0.000000
  70
    32
  0
VERTEX
  8
レイヤ__1
  5
4AB
 10
-14.8734
 20
-15.3591
 30
0.000000
  70
    32
  0
VERTEX
  8
レイヤ__1
  5
4AC
 10
-14.8795
 20
-15.3601
 30
0.000000
  70
    32
  0
VERTEX
  8
レイヤ__1
  5
4AD
 10
-14.8855
 20
-15.3609
 30
0.000000
  70
    32
  0
VERTEX
  8
レイヤ__1
  5
4AE
 10
-14.8917
 20
-15.3618
 30
0.000000
  70
    32
  0
VERTEX
  8
レイヤ__1
  5
4AF
 10
-14.8978
 20
-15.3626
 30
0.000000
  70
    32
  0
VERTEX
  8
レイヤ__1
  5
4B0
 10
-14.9040
 20
-15.3634
 30
0.000000
  70
    32
  0
VERTEX
  8
レイヤ__1
  5
4B1
 10
-14.9103
 20
-15.3641
 30
0.000000
  70
    32
  0
VERTEX
  8
レイヤ__1
  5
4B2
 10
-14.9165
 20
-15.3648
 30
0.000000
  70
    32
  0
VERTEX
  8
レイヤ__1
  5
4B3
 10
-14.9228
 20
-15.3655
 30
0.000000
  70
    32
  0
VERTEX
  8
レイヤ__1
  5
4B4
 10
-14.9292
 20
-15.3661
 30
0.000000
  70
    32
  0
VERTEX
  8
レイヤ__1
  5
4B5
 10
-14.9355
 20
-15.3668
 30
0.000000
  70
    32
  0
VERTEX
  8
レイヤ__1
  5
4B6
 10
-14.9420
 20
-15.3674
 30
0.000000
  70
    32
  0
VERTEX
  8
レイヤ__1
  5
4B7
 10
-14.9484
 20
-15.3679
 30
0.000000
  70
    32
  0
VERTEX
  8
レイヤ__1
  5
4B8
 10
-14.9549
 20
-15.3684
 30
0.000000
  70
    32
  0
VERTEX
  8
レイヤ__1
  5
4B9
 10
-14.9614
 20
-15.3690
 30
0.000000
  70
    32
  0
VERTEX
  8
レイヤ__1
  5
4BA
 10
-14.9679
 20
-15.3694
 30
0.000000
  70
    32
  0
VERTEX
  8
レイヤ__1
  5
4BB
 10
-14.9745
 20
-15.3699
 30
0.000000
  70
    32
  0
VERTEX
  8
レイヤ__1
  5
4BC
 10
-14.9811
 20
-15.3703
 30
0.000000
  70
    32
  0
VERTEX
  8
レイヤ__1
  5
4BD
 10
-14.9877
 20
-15.3707
 30
0.000000
  70
    32
  0
VERTEX
  8
レイヤ__1
  5
4BE
 10
-14.9944
 20
-15.3711
 30
0.000000
  70
    32
  0
VERTEX
  8
レイヤ__1
  5
4BF
 10
-15.0011
 20
-15.3715
 30
0.000000
  70
    32
  0
VERTEX
  8
レイヤ__1
  5
4C0
 10
-15.0078
 20
-15.3718
 30
0.000000
  70
    32
  0
VERTEX
  8
レイヤ__1
  5
4C1
 10
-15.0146
 20
-15.3722
 30
0.000000
  70
    32
  0
VERTEX
  8
レイヤ__1
  5
4C2
 10
-15.0213
 20
-15.3725
 30
0.000000
  70
    32
  0
VERTEX
  8
レイヤ__1
  5
4C3
 10
-15.0281
 20
-15.3727
 30
0.000000
  70
    32
  0
VERTEX
  8
レイヤ__1
  5
4C4
 10
-15.0350
 20
-15.3730
 30
0.000000
  70
    32
  0
VERTEX
  8
レイヤ__1
  5
4C5
 10
-15.0418
 20
-15.3733
 30
0.000000
  70
    32
  0
VERTEX
  8
レイヤ__1
  5
4C6
 10
-15.0487
 20
-15.3735
 30
0.000000
  70
    32
  0
VERTEX
  8
レイヤ__1
  5
4C7
 10
-15.0557
 20
-15.3737
 30
0.000000
  70
    32
  0
VERTEX
  8
レイヤ__1
  5
4C8
 10
-15.0626
 20
-15.3739
 30
0.000000
  70
    32
  0
VERTEX
  8
レイヤ__1
  5
4C9
 10
-15.0696
 20
-15.3741
 30
0.000000
  70
    32
  0
VERTEX
  8
レイヤ__1
  5
4CA
 10
-15.0766
 20
-15.3743
 30
0.000000
  70
    32
  0
VERTEX
  8
レイヤ__1
  5
4CB
 10
-15.0836
 20
-15.3744
 30
0.000000
  70
    32
  0
VERTEX
  8
レイヤ__1
  5
4CC
 10
-15.0906
 20
-15.3746
 30
0.000000
  70
    32
  0
VERTEX
  8
レイヤ__1
  5
4CD
 10
-15.0977
 20
-15.3747
 30
0.000000
  70
    32
  0
VERTEX
  8
レイヤ__1
  5
4CE
 10
-15.1048
 20
-15.3748
 30
0.000000
  70
    32
  0
VERTEX
  8
レイヤ__1
  5
4CF
 10
-15.1119
 20
-15.3749
 30
0.000000
  70
    32
  0
VERTEX
  8
レイヤ__1
  5
4D0
 10
-15.1190
 20
-15.3750
 30
0.000000
  70
    32
  0
VERTEX
  8
レイヤ__1
  5
4D1
 10
-15.1262
 20
-15.3751
 30
0.000000
  70
    32
  0
VERTEX
  8
レイヤ__1
  5
4D2
 10
-15.1334
 20
-15.3752
 30
0.000000
  70
    32
  0
VERTEX
  8
レイヤ__1
  5
4D3
 10
-15.1406
 20
-15.3753
 30
0.000000
  70
    32
  0
VERTEX
  8
レイヤ__1
  5
4D4
 10
-15.1478
 20
-15.3754
 30
0.000000
  70
    32
  0
VERTEX
  8
レイヤ__1
  5
4D5
 10
-15.1550
 20
-15.3754
 30
0.000000
  70
    32
  0
VERTEX
  8
レイヤ__1
  5
4D6
 10
-15.1623
 20
-15.3755
 30
0.000000
  70
    32
  0
SEQEND
  8
レイヤ__1
  5
4D7
  0
POLYLINE
  8
レイヤ__1
  5
4D8
  62
5
  66
     1
 10
0.000000
 20
0.000000
 30
0.000000
  70
     8
  0
VERTEX
  8
レイヤ__1
  5
4D9
 10
-15.1623
 20
-15.3755
 30
0.000000
  70
    32
  0
VERTEX
  8
レイヤ__1
  5
4DA
 10
-15.1678
 20
-15.3755
 30
0.000000
  70
    32
  0
VERTEX
  8
レイヤ__1
  5
4DB
 10
-15.1732
 20
-15.3755
 30
0.000000
  70
    32
  0
VERTEX
  8
レイヤ__1
  5
4DC
 10
-15.1787
 20
-15.3755
 30
0.000000
  70
    32
  0
VERTEX
  8
レイヤ__1
  5
4DD
 10
-15.1841
 20
-15.3754
 30
0.000000
  70
    32
  0
VERTEX
  8
レイヤ__1
  5
4DE
 10
-15.1896
 20
-15.3752
 30
0.000000
  70
    32
  0
VERTEX
  8
レイヤ__1
  5
4DF
 10
-15.1950
 20
-15.3751
 30
0.000000
  70
    32
  0
VERTEX
  8
レイヤ__1
  5
4E0
 10
-15.2005
 20
-15.3749
 30
0.000000
  70
    32
  0
VERTEX
  8
レイヤ__1
  5
4E1
 10
-15.2059
 20
-15.3746
 30
0.000000
  70
    32
  0
VERTEX
  8
レイヤ__1
  5
4E2
 10
-15.2114
 20
-15.3743
 30
0.000000
  70
    32
  0
VERTEX
  8
レイヤ__1
  5
4E3
 10
-15.2168
 20
-15.3740
 30
0.000000
  70
    32
  0
VERTEX
  8
レイヤ__1
  5
4E4
 10
-15.2222
 20
-15.3736
 30
0.000000
  70
    32
  0
VERTEX
  8
レイヤ__1
  5
4E5
 10
-15.2277
 20
-15.3732
 30
0.000000
  70
    32
  0
VERTEX
  8
レイヤ__1
  5
4E6
 10
-15.2331
 20
-15.3727
 30
0.000000
  70
    32
  0
VERTEX
  8
レイヤ__1
  5
4E7
 10
-15.2385
 20
-15.3722
 30
0.000000
  70
    32
  0
VERTEX
  8
レイヤ__1
  5
4E8
 10
-15.2439
 20
-15.3717
 30
0.000000
  70
    32
  0
VERTEX
  8
レイヤ__1
  5
4E9
 10
-15.2493
 20
-15.3711
 30
0.000000
  70
    32
  0
VERTEX
  8
レイヤ__1
  5
4EA
 10
-15.2547
 20
-15.3705
 30
0.000000
  70
    32
  0
VERTEX
  8
レイヤ__1
  5
4EB
 10
-15.2601
 20
-15.3698
 30
0.000000
  70
    32
  0
VERTEX
  8
レイヤ__1
  5
4EC
 10
-15.2654
 20
-15.3691
 30
0.000000
  70
    32
  0
VERTEX
  8
レイヤ__1
  5
4ED
 10
-15.2708
 20
-15.3684
 30
0.000000
  70
    32
  0
VERTEX
  8
レイヤ__1
  5
4EE
 10
-15.2761
 20
-15.3676
 30
0.000000
  70
    32
  0
VERTEX
  8
レイヤ__1
  5
4EF
 10
-15.2814
 20
-15.3668
 30
0.000000
  70
    32
  0
VERTEX
  8
レイヤ__1
  5
4F0
 10
-15.2868
 20
-15.3659
 30
0.000000
  70
    32
  0
VERTEX
  8
レイヤ__1
  5
4F1
 10
-15.2921
 20
-15.3650
 30
0.000000
  70
    32
  0
VERTEX
  8
レイヤ__1
  5
4F2
 10
-15.2973
 20
-15.3640
 30
0.000000
  70
    32
  0
VERTEX
  8
レイヤ__1
  5
4F3
 10
-15.3026
 20
-15.3630
 30
0.000000
  70
    32
  0
VERTEX
  8
レイヤ__1
  5
4F4
 10
-15.3079
 20
-15.3620
 30
0.000000
  70
    32
  0
VERTEX
  8
レイヤ__1
  5
4F5
 10
-15.3131
 20
-15.3609
 30
0.000000
  70
    32
  0
VERTEX
  8
レイヤ__1
  5
4F6
 10
-15.3183
 20
-15.3598
 30
0.000000
  70
    32
  0
VERTEX
  8
レイヤ__1
  5
4F7
 10
-15.3235
 20
-15.3586
 30
0.000000
  70
    32
  0
VERTEX
  8
レイヤ__1
  5
4F8
 10
-15.3287
 20
-15.3574
 30
0.000000
  70
    32
  0
VERTEX
  8
レイヤ__1
  5
4F9
 10
-15.3338
 20
-15.3562
 30
0.000000
  70
    32
  0
VERTEX
  8
レイヤ__1
  5
4FA
 10
-15.3390
 20
-15.3549
 30
0.000000
  70
    32
  0
VERTEX
  8
レイヤ__1
  5
4FB
 10
-15.3441
 20
-15.3536
 30
0.000000
  70
    32
  0
VERTEX
  8
レイヤ__1
  5
4FC
 10
-15.3492
 20
-15.3522
 30
0.000000
  70
    32
  0
VERTEX
  8
レイヤ__1
  5
4FD
 10
-15.3542
 20
-15.3507
 30
0.000000
  70
    32
  0
VERTEX
  8
レイヤ__1
  5
4FE
 10
-15.3593
 20
-15.3493
 30
0.000000
  70
    32
  0
VERTEX
  8
レイヤ__1
  5
4FF
 10
-15.3643
 20
-15.3478
 30
0.000000
  70
    32
  0
VERTEX
  8
レイヤ__1
  5
500
 10
-15.3693
 20
-15.3462
 30
0.000000
  70
    32
  0
VERTEX
  8
レイヤ__1
  5
501
 10
-15.3743
 20
-15.3446
 30
0.000000
  70
    32
  0
VERTEX
  8
レイヤ__1
  5
502
 10
-15.3792
 20
-15.3430
 30
0.000000
  70
    32
  0
VERTEX
  8
レイヤ__1
  5
503
 10
-15.3841
 20
-15.3413
 30
0.000000
  70
    32
  0
VERTEX
  8
レイヤ__1
  5
504
 10
-15.3890
 20
-15.3396
 30
0.000000
  70
    32
  0
VERTEX
  8
レイヤ__1
  5
505
 10
-15.3939
 20
-15.3378
 30
0.000000
  70
    32
  0
VERTEX
  8
レイヤ__1
  5
506
 10
-15.3987
 20
-15.3360
 30
0.000000
  70
    32
  0
VERTEX
  8
レイヤ__1
  5
507
 10
-15.4035
 20
-15.3341
 30
0.000000
  70
    32
  0
VERTEX
  8
レイヤ__1
  5
508
 10
-15.4083
 20
-15.3322
 30
0.000000
  70
    32
  0
VERTEX
  8
レイヤ__1
  5
509
 10
-15.4130
 20
-15.3303
 30
0.000000
  70
    32
  0
VERTEX
  8
レイヤ__1
  5
50A
 10
-15.4177
 20
-15.3283
 30
0.000000
  70
    32
  0
VERTEX
  8
レイヤ__1
  5
50B
 10
-15.4224
 20
-15.3263
 30
0.000000
  70
    32
  0
VERTEX
  8
レイヤ__1
  5
50C
 10
-15.4270
 20
-15.3242
 30
0.000000
  70
    32
  0
VERTEX
  8
レイヤ__1
  5
50D
 10
-15.4317
 20
-15.3220
 30
0.000000
  70
    32
  0
VERTEX
  8
レイヤ__1
  5
50E
 10
-15.4362
 20
-15.3199
 30
0.000000
  70
    32
  0
VERTEX
  8
レイヤ__1
  5
50F
 10
-15.4408
 20
-15.3177
 30
0.000000
  70
    32
  0
VERTEX
  8
レイヤ__1
  5
510
 10
-15.4453
 20
-15.3154
 30
0.000000
  70
    32
  0
VERTEX
  8
レイヤ__1
  5
511
 10
-15.4497
 20
-15.3131
 30
0.000000
  70
    32
  0
VERTEX
  8
レイヤ__1
  5
512
 10
-15.4541
 20
-15.3107
 30
0.000000
  70
    32
  0
VERTEX
  8
レイヤ__1
  5
513
 10
-15.4585
 20
-15.3084
 30
0.000000
  70
    32
  0
VERTEX
  8
レイヤ__1
  5
514
 10
-15.4629
 20
-15.3059
 30
0.000000
  70
    32
  0
VERTEX
  8
レイヤ__1
  5
515
 10
-15.4672
 20
-15.3034
 30
0.000000
  70
    32
  0
VERTEX
  8
レイヤ__1
  5
516
 10
-15.4715
 20
-15.3009
 30
0.000000
  70
    32
  0
VERTEX
  8
レイヤ__1
  5
517
 10
-15.4757
 20
-15.2983
 30
0.000000
  70
    32
  0
VERTEX
  8
レイヤ__1
  5
518
 10
-15.4799
 20
-15.2957
 30
0.000000
  70
    32
  0
VERTEX
  8
レイヤ__1
  5
519
 10
-15.4840
 20
-15.2930
 30
0.000000
  70
    32
  0
VERTEX
  8
レイヤ__1
  5
51A
 10
-15.4881
 20
-15.2903
 30
0.000000
  70
    32
  0
VERTEX
  8
レイヤ__1
  5
51B
 10
-15.4922
 20
-15.2875
 30
0.000000
  70
    32
  0
VERTEX
  8
レイヤ__1
  5
51C
 10
-15.4962
 20
-15.2847
 30
0.000000
  70
    32
  0
VERTEX
  8
レイヤ__1
  5
51D
 10
-15.5001
 20
-15.2819
 30
0.000000
  70
    32
  0
VERTEX
  8
レイヤ__1
  5
51E
 10
-15.5040
 20
-15.2790
 30
0.000000
  70
    32
  0
VERTEX
  8
レイヤ__1
  5
51F
 10
-15.5079
 20
-15.2760
 30
0.000000
  70
    32
  0
VERTEX
  8
レイヤ__1
  5
520
 10
-15.5117
 20
-15.2731
 30
0.000000
  70
    32
  0
VERTEX
  8
レイヤ__1
  5
521
 10
-15.5155
 20
-15.2700
 30
0.000000
  70
    32
  0
VERTEX
  8
レイヤ__1
  5
522
 10
-15.5192
 20
-15.2669
 30
0.000000
  70
    32
  0
VERTEX
  8
レイヤ__1
  5
523
 10
-15.5229
 20
-15.2638
 30
0.000000
  70
    32
  0
VERTEX
  8
レイヤ__1
  5
524
 10
-15.5265
 20
-15.2606
 30
0.000000
  70
    32
  0
VERTEX
  8
レイヤ__1
  5
525
 10
-15.5301
 20
-15.2574
 30
0.000000
  70
    32
  0
VERTEX
  8
レイヤ__1
  5
526
 10
-15.5336
 20
-15.2541
 30
0.000000
  70
    32
  0
VERTEX
  8
レイヤ__1
  5
527
 10
-15.5371
 20
-15.2508
 30
0.000000
  70
    32
  0
VERTEX
  8
レイヤ__1
  5
528
 10
-15.5405
 20
-15.2474
 30
0.000000
  70
    32
  0
VERTEX
  8
レイヤ__1
  5
529
 10
-15.5439
 20
-15.2440
 30
0.000000
  70
    32
  0
VERTEX
  8
レイヤ__1
  5
52A
 10
-15.5472
 20
-15.2406
 30
0.000000
  70
    32
  0
VERTEX
  8
レイヤ__1
  5
52B
 10
-15.5505
 20
-15.2370
 30
0.000000
  70
    32
  0
VERTEX
  8
レイヤ__1
  5
52C
 10
-15.5537
 20
-15.2335
 30
0.000000
  70
    32
  0
VERTEX
  8
レイヤ__1
  5
52D
 10
-15.5568
 20
-15.2299
 30
0.000000
  70
    32
  0
VERTEX
  8
レイヤ__1
  5
52E
 10
-15.5599
 20
-15.2262
 30
0.000000
  70
    32
  0
VERTEX
  8
レイヤ__1
  5
52F
 10
-15.5629
 20
-15.2225
 30
0.000000
  70
    32
  0
VERTEX
  8
レイヤ__1
  5
530
 10
-15.5659
 20
-15.2188
 30
0.000000
  70
    32
  0
VERTEX
  8
レイヤ__1
  5
531
 10
-15.5688
 20
-15.2150
 30
0.000000
  70
    32
  0
VERTEX
  8
レイヤ__1
  5
532
 10
-15.5716
 20
-15.2111
 30
0.000000
  70
    32
  0
VERTEX
  8
レイヤ__1
  5
533
 10
-15.5744
 20
-15.2072
 30
0.000000
  70
    32
  0
VERTEX
  8
レイヤ__1
  5
534
 10
-15.5772
 20
-15.2033
 30
0.000000
  70
    32
  0
VERTEX
  8
レイヤ__1
  5
535
 10
-15.5798
 20
-15.1993
 30
0.000000
  70
    32
  0
VERTEX
  8
レイヤ__1
  5
536
 10
-15.5824
 20
-15.1953
 30
0.000000
  70
    32
  0
VERTEX
  8
レイヤ__1
  5
537
 10
-15.5850
 20
-15.1912
 30
0.000000
  70
    32
  0
VERTEX
  8
レイヤ__1
  5
538
 10
-15.5874
 20
-15.1870
 30
0.000000
  70
    32
  0
VERTEX
  8
レイヤ__1
  5
539
 10
-15.5898
 20
-15.1829
 30
0.000000
  70
    32
  0
VERTEX
  8
レイヤ__1
  5
53A
 10
-15.5922
 20
-15.1786
 30
0.000000
  70
    32
  0
VERTEX
  8
レイヤ__1
  5
53B
 10
-15.5945
 20
-15.1743
 30
0.000000
  70
    32
  0
VERTEX
  8
レイヤ__1
  5
53C
 10
-15.5967
 20
-15.1700
 30
0.000000
  70
    32
  0
VERTEX
  8
レイヤ__1
  5
53D
 10
-15.5988
 20
-15.1656
 30
0.000000
  70
    32
  0
VERTEX
  8
レイヤ__1
  5
53E
 10
-15.6009
 20
-15.1612
 30
0.000000
  70
    32
  0
VERTEX
  8
レイヤ__1
  5
53F
 10
-15.6029
 20
-15.1567
 30
0.000000
  70
    32
  0
VERTEX
  8
レイヤ__1
  5
540
 10
-15.6048
 20
-15.1522
 30
0.000000
  70
    32
  0
VERTEX
  8
レイヤ__1
  5
541
 10
-15.6067
 20
-15.1476
 30
0.000000
  70
    32
  0
VERTEX
  8
レイヤ__1
  5
542
 10
-15.6085
 20
-15.1430
 30
0.000000
  70
    32
  0
VERTEX
  8
レイヤ__1
  5
543
 10
-15.6102
 20
-15.1383
 30
0.000000
  70
    32
  0
VERTEX
  8
レイヤ__1
  5
544
 10
-15.6118
 20
-15.1336
 30
0.000000
  70
    32
  0
VERTEX
  8
レイヤ__1
  5
545
 10
-15.6134
 20
-15.1288
 30
0.000000
  70
    32
  0
VERTEX
  8
レイヤ__1
  5
546
 10
-15.6149
 20
-15.1239
 30
0.000000
  70
    32
  0
VERTEX
  8
レイヤ__1
  5
547
 10
-15.6163
 20
-15.1191
 30
0.000000
  70
    32
  0
VERTEX
  8
レイヤ__1
  5
548
 10
-15.6177
 20
-15.1141
 30
0.000000
  70
    32
  0
VERTEX
  8
レイヤ__1
  5
549
 10
-15.6190
 20
-15.1091
 30
0.000000
  70
    32
  0
VERTEX
  8
レイヤ__1
  5
54A
 10
-15.6201
 20
-15.1041
 30
0.000000
  70
    32
  0
VERTEX
  8
レイヤ__1
  5
54B
 10
-15.6213
 20
-15.0990
 30
0.000000
  70
    32
  0
VERTEX
  8
レイヤ__1
  5
54C
 10
-15.6223
 20
-15.0939
 30
0.000000
  70
    32
  0
VERTEX
  8
レイヤ__1
  5
54D
 10
-15.6233
 20
-15.0887
 30
0.000000
  70
    32
  0
VERTEX
  8
レイヤ__1
  5
54E
 10
-15.6241
 20
-15.0835
 30
0.000000
  70
    32
  0
VERTEX
  8
レイヤ__1
  5
54F
 10
-15.6249
 20
-15.0782
 30
0.000000
  70
    32
  0
VERTEX
  8
レイヤ__1
  5
550
 10
-15.6257
 20
-15.0729
 30
0.000000
  70
    32
  0
VERTEX
  8
レイヤ__1
  5
551
 10
-15.6263
 20
-15.0675
 30
0.000000
  70
    32
  0
VERTEX
  8
レイヤ__1
  5
552
 10
-15.6268
 20
-15.0620
 30
0.000000
  70
    32
  0
VERTEX
  8
レイヤ__1
  5
553
 10
-15.6273
 20
-15.0565
 30
0.000000
  70
    32
  0
VERTEX
  8
レイヤ__1
  5
554
 10
-15.6277
 20
-15.0510
 30
0.000000
  70
    32
  0
VERTEX
  8
レイヤ__1
  5
555
 10
-15.6280
 20
-15.0454
 30
0.000000
  70
    32
  0
VERTEX
  8
レイヤ__1
  5
556
 10
-15.6282
 20
-15.0397
 30
0.000000
  70
    32
  0
VERTEX
  8
レイヤ__1
  5
557
 10
-15.6284
 20
-15.0340
 30
0.000000
  70
    32
  0
VERTEX
  8
レイヤ__1
  5
558
 10
-15.6284
 20
-15.0283
 30
0.000000
  70
    32
  0
SEQEND
  8
レイヤ__1
  5
559
  0
POLYLINE
  8
レイヤ__1
  5
55A
  62
5
  66
     1
 10
0.000000
 20
0.000000
 30
0.000000
  70
     8
  0
VERTEX
  8
レイヤ__1
  5
55B
 10
-15.3337
 20
-16.2840
 30
0.000000
  70
    32
  0
VERTEX
  8
レイヤ__1
  5
55C
 10
-15.3166
 20
-16.2840
 30
0.000000
  70
    32
  0
VERTEX
  8
レイヤ__1
  5
55D
 10
-15.2994
 20
-16.2839
 30
0.000000
  70
    32
  0
VERTEX
  8
レイヤ__1
  5
55E
 10
-15.2820
 20
-16.2838
 30
0.000000
  70
    32
  0
VERTEX
  8
レイヤ__1
  5
55F
 10
-15.2646
 20
-16.2836
 30
0.000000
  70
    32
  0
VERTEX
  8
レイヤ__1
  5
560
 10
-15.2470
 20
-16.2834
 30
0.000000
  70
    32
  0
VERTEX
  8
レイヤ__1
  5
561
 10
-15.2292
 20
-16.2832
 30
0.000000
  70
    32
  0
VERTEX
  8
レイヤ__1
  5
562
 10
-15.2114
 20
-16.2828
 30
0.000000
  70
    32
  0
VERTEX
  8
レイヤ__1
  5
563
 10
-15.1935
 20
-16.2825
 30
0.000000
  70
    32
  0
VERTEX
  8
レイヤ__1
  5
564
 10
-15.1754
 20
-16.2820
 30
0.000000
  70
    32
  0
VERTEX
  8
レイヤ__1
  5
565
 10
-15.1573
 20
-16.2815
 30
0.000000
  70
    32
  0
VERTEX
  8
レイヤ__1
  5
566
 10
-15.1391
 20
-16.2809
 30
0.000000
  70
    32
  0
VERTEX
  8
レイヤ__1
  5
567
 10
-15.1207
 20
-16.2803
 30
0.000000
  70
    32
  0
VERTEX
  8
レイヤ__1
  5
568
 10
-15.1023
 20
-16.2795
 30
0.000000
  70
    32
  0
VERTEX
  8
レイヤ__1
  5
569
 10
-15.0838
 20
-16.2787
 30
0.000000
  70
    32
  0
VERTEX
  8
レイヤ__1
  5
56A
 10
-15.0652
 20
-16.2779
 30
0.000000
  70
    32
  0
VERTEX
  8
レイヤ__1
  5
56B
 10
-15.0465
 20
-16.2769
 30
0.000000
  70
    32
  0
VERTEX
  8
レイヤ__1
  5
56C
 10
-15.0278
 20
-16.2759
 30
0.000000
  70
    32
  0
VERTEX
  8
レイヤ__1
  5
56D
 10
-15.0090
 20
-16.2747
 30
0.000000
  70
    32
  0
VERTEX
  8
レイヤ__1
  5
56E
 10
-14.9901
 20
-16.2735
 30
0.000000
  70
    32
  0
VERTEX
  8
レイヤ__1
  5
56F
 10
-14.9711
 20
-16.2722
 30
0.000000
  70
    32
  0
VERTEX
  8
レイヤ__1
  5
570
 10
-14.9521
 20
-16.2708
 30
0.000000
  70
    32
  0
VERTEX
  8
レイヤ__1
  5
571
 10
-14.9331
 20
-16.2693
 30
0.000000
  70
    32
  0
VERTEX
  8
レイヤ__1
  5
572
 10
-14.9139
 20
-16.2677
 30
0.000000
  70
    32
  0
VERTEX
  8
レイヤ__1
  5
573
 10
-14.8948
 20
-16.2660
 30
0.000000
  70
    32
  0
VERTEX
  8
レイヤ__1
  5
574
 10
-14.8756
 20
-16.2642
 30
0.000000
  70
    32
  0
VERTEX
  8
レイヤ__1
  5
575
 10
-14.8563
 20
-16.2622
 30
0.000000
  70
    32
  0
VERTEX
  8
レイヤ__1
  5
576
 10
-14.8370
 20
-16.2602
 30
0.000000
  70
    32
  0
VERTEX
  8
レイヤ__1
  5
577
 10
-14.8176
 20
-16.2581
 30
0.000000
  70
    32
  0
VERTEX
  8
レイヤ__1
  5
578
 10
-14.7983
 20
-16.2558
 30
0.000000
  70
    32
  0
VERTEX
  8
レイヤ__1
  5
579
 10
-14.7789
 20
-16.2534
 30
0.000000
  70
    32
  0
VERTEX
  8
レイヤ__1
  5
57A
 10
-14.7594
 20
-16.2509
 30
0.000000
  70
    32
  0
VERTEX
  8
レイヤ__1
  5
57B
 10
-14.7400
 20
-16.2483
 30
0.000000
  70
    32
  0
VERTEX
  8
レイヤ__1
  5
57C
 10
-14.7205
 20
-16.2455
 30
0.000000
  70
    32
  0
VERTEX
  8
レイヤ__1
  5
57D
 10
-14.7010
 20
-16.2426
 30
0.000000
  70
    32
  0
VERTEX
  8
レイヤ__1
  5
57E
 10
-14.6816
 20
-16.2396
 30
0.000000
  70
    32
  0
VERTEX
  8
レイヤ__1
  5
57F
 10
-14.6621
 20
-16.2364
 30
0.000000
  70
    32
  0
VERTEX
  8
レイヤ__1
  5
580
 10
-14.6426
 20
-16.2331
 30
0.000000
  70
    32
  0
VERTEX
  8
レイヤ__1
  5
581
 10
-14.6231
 20
-16.2297
 30
0.000000
  70
    32
  0
VERTEX
  8
レイヤ__1
  5
582
 10
-14.6035
 20
-16.2261
 30
0.000000
  70
    32
  0
VERTEX
  8
レイヤ__1
  5
583
 10
-14.5841
 20
-16.2224
 30
0.000000
  70
    32
  0
VERTEX
  8
レイヤ__1
  5
584
 10
-14.5646
 20
-16.2185
 30
0.000000
  70
    32
  0
VERTEX
  8
レイヤ__1
  5
585
 10
-14.5451
 20
-16.2145
 30
0.000000
  70
    32
  0
VERTEX
  8
レイヤ__1
  5
586
 10
-14.5257
 20
-16.2103
 30
0.000000
  70
    32
  0
VERTEX
  8
レイヤ__1
  5
587
 10
-14.5062
 20
-16.2060
 30
0.000000
  70
    32
  0
VERTEX
  8
レイヤ__1
  5
588
 10
-14.4868
 20
-16.2015
 30
0.000000
  70
    32
  0
VERTEX
  8
レイヤ__1
  5
589
 10
-14.4674
 20
-16.1968
 30
0.000000
  70
    32
  0
VERTEX
  8
レイヤ__1
  5
58A
 10
-14.4481
 20
-16.1920
 30
0.000000
  70
    32
  0
VERTEX
  8
レイヤ__1
  5
58B
 10
-14.4288
 20
-16.1870
 30
0.000000
  70
    32
  0
VERTEX
  8
レイヤ__1
  5
58C
 10
-14.4095
 20
-16.1818
 30
0.000000
  70
    32
  0
VERTEX
  8
レイヤ__1
  5
58D
 10
-14.3903
 20
-16.1764
 30
0.000000
  70
    32
  0
VERTEX
  8
レイヤ__1
  5
58E
 10
-14.3711
 20
-16.1709
 30
0.000000
  70
    32
  0
VERTEX
  8
レイヤ__1
  5
58F
 10
-14.3520
 20
-16.1652
 30
0.000000
  70
    32
  0
VERTEX
  8
レイヤ__1
  5
590
 10
-14.3329
 20
-16.1593
 30
0.000000
  70
    32
  0
VERTEX
  8
レイヤ__1
  5
591
 10
-14.3139
 20
-16.1533
 30
0.000000
  70
    32
  0
VERTEX
  8
レイヤ__1
  5
592
 10
-14.2949
 20
-16.1470
 30
0.000000
  70
    32
  0
VERTEX
  8
レイヤ__1
  5
593
 10
-14.2760
 20
-16.1406
 30
0.000000
  70
    32
  0
VERTEX
  8
レイヤ__1
  5
594
 10
-14.2572
 20
-16.1339
 30
0.000000
  70
    32
  0
VERTEX
  8
レイヤ__1
  5
595
 10
-14.2384
 20
-16.1271
 30
0.000000
  70
    32
  0
VERTEX
  8
レイヤ__1
  5
596
 10
-14.2198
 20
-16.1201
 30
0.000000
  70
    32
  0
VERTEX
  8
レイヤ__1
  5
597
 10
-14.2012
 20
-16.1128
 30
0.000000
  70
    32
  0
VERTEX
  8
レイヤ__1
  5
598
 10
-14.1826
 20
-16.1054
 30
0.000000
  70
    32
  0
VERTEX
  8
レイヤ__1
  5
599
 10
-14.1642
 20
-16.0978
 30
0.000000
  70
    32
  0
VERTEX
  8
レイヤ__1
  5
59A
 10
-14.1459
 20
-16.0899
 30
0.000000
  70
    32
  0
VERTEX
  8
レイヤ__1
  5
59B
 10
-14.1276
 20
-16.0818
 30
0.000000
  70
    32
  0
VERTEX
  8
レイヤ__1
  5
59C
 10
-14.1094
 20
-16.0736
 30
0.000000
  70
    32
  0
VERTEX
  8
レイヤ__1
  5
59D
 10
-14.0914
 20
-16.0651
 30
0.000000
  70
    32
  0
VERTEX
  8
レイヤ__1
  5
59E
 10
-14.0734
 20
-16.0564
 30
0.000000
  70
    32
  0
VERTEX
  8
レイヤ__1
  5
59F
 10
-14.0556
 20
-16.0474
 30
0.000000
  70
    32
  0
VERTEX
  8
レイヤ__1
  5
5A0
 10
-14.0379
 20
-16.0383
 30
0.000000
  70
    32
  0
VERTEX
  8
レイヤ__1
  5
5A1
 10
-14.0202
 20
-16.0289
 30
0.000000
  70
    32
  0
VERTEX
  8
レイヤ__1
  5
5A2
 10
-14.0027
 20
-16.0192
 30
0.000000
  70
    32
  0
VERTEX
  8
レイヤ__1
  5
5A3
 10
-13.9854
 20
-16.0094
 30
0.000000
  70
    32
  0
VERTEX
  8
レイヤ__1
  5
5A4
 10
-13.9681
 20
-15.9993
 30
0.000000
  70
    32
  0
VERTEX
  8
レイヤ__1
  5
5A5
 10
-13.9510
 20
-15.9890
 30
0.000000
  70
    32
  0
VERTEX
  8
レイヤ__1
  5
5A6
 10
-13.9340
 20
-15.9784
 30
0.000000
  70
    32
  0
VERTEX
  8
レイヤ__1
  5
5A7
 10
-13.9171
 20
-15.9676
 30
0.000000
  70
    32
  0
VERTEX
  8
レイヤ__1
  5
5A8
 10
-13.9004
 20
-15.9565
 30
0.000000
  70
    32
  0
VERTEX
  8
レイヤ__1
  5
5A9
 10
-13.8838
 20
-15.9452
 30
0.000000
  70
    32
  0
VERTEX
  8
レイヤ__1
  5
5AA
 10
-13.8674
 20
-15.9336
 30
0.000000
  70
    32
  0
VERTEX
  8
レイヤ__1
  5
5AB
 10
-13.8511
 20
-15.9218
 30
0.000000
  70
    32
  0
VERTEX
  8
レイヤ__1
  5
5AC
 10
-13.8350
 20
-15.9097
 30
0.000000
  70
    32
  0
VERTEX
  8
レイヤ__1
  5
5AD
 10
-13.8191
 20
-15.8974
 30
0.000000
  70
    32
  0
VERTEX
  8
レイヤ__1
  5
5AE
 10
-13.8032
 20
-15.8848
 30
0.000000
  70
    32
  0
VERTEX
  8
レイヤ__1
  5
5AF
 10
-13.7876
 20
-15.8719
 30
0.000000
  70
    32
  0
VERTEX
  8
レイヤ__1
  5
5B0
 10
-13.7721
 20
-15.8588
 30
0.000000
  70
    32
  0
VERTEX
  8
レイヤ__1
  5
5B1
 10
-13.7568
 20
-15.8454
 30
0.000000
  70
    32
  0
VERTEX
  8
レイヤ__1
  5
5B2
 10
-13.7417
 20
-15.8317
 30
0.000000
  70
    32
  0
VERTEX
  8
レイヤ__1
  5
5B3
 10
-13.7268
 20
-15.8177
 30
0.000000
  70
    32
  0
VERTEX
  8
レイヤ__1
  5
5B4
 10
-13.7120
 20
-15.8035
 30
0.000000
  70
    32
  0
VERTEX
  8
レイヤ__1
  5
5B5
 10
-13.6974
 20
-15.7890
 30
0.000000
  70
    32
  0
VERTEX
  8
レイヤ__1
  5
5B6
 10
-13.6830
 20
-15.7742
 30
0.000000
  70
    32
  0
VERTEX
  8
レイヤ__1
  5
5B7
 10
-13.6689
 20
-15.7591
 30
0.000000
  70
    32
  0
VERTEX
  8
レイヤ__1
  5
5B8
 10
-13.6549
 20
-15.7437
 30
0.000000
  70
    32
  0
VERTEX
  8
レイヤ__1
  5
5B9
 10
-13.6411
 20
-15.7280
 30
0.000000
  70
    32
  0
VERTEX
  8
レイヤ__1
  5
5BA
 10
-13.6275
 20
-15.7120
 30
0.000000
  70
    32
  0
VERTEX
  8
レイヤ__1
  5
5BB
 10
-13.6141
 20
-15.6958
 30
0.000000
  70
    32
  0
VERTEX
  8
レイヤ__1
  5
5BC
 10
-13.6009
 20
-15.6792
 30
0.000000
  70
    32
  0
VERTEX
  8
レイヤ__1
  5
5BD
 10
-13.5880
 20
-15.6623
 30
0.000000
  70
    32
  0
VERTEX
  8
レイヤ__1
  5
5BE
 10
-13.5752
 20
-15.6451
 30
0.000000
  70
    32
  0
VERTEX
  8
レイヤ__1
  5
5BF
 10
-13.5627
 20
-15.6276
 30
0.000000
  70
    32
  0
VERTEX
  8
レイヤ__1
  5
5C0
 10
-13.5504
 20
-15.6098
 30
0.000000
  70
    32
  0
VERTEX
  8
レイヤ__1
  5
5C1
 10
-13.5383
 20
-15.5917
 30
0.000000
  70
    32
  0
VERTEX
  8
レイヤ__1
  5
5C2
 10
-13.5265
 20
-15.5732
 30
0.000000
  70
    32
  0
VERTEX
  8
レイヤ__1
  5
5C3
 10
-13.5149
 20
-15.5545
 30
0.000000
  70
    32
  0
VERTEX
  8
レイヤ__1
  5
5C4
 10
-13.5036
 20
-15.5354
 30
0.000000
  70
    32
  0
VERTEX
  8
レイヤ__1
  5
5C5
 10
-13.4925
 20
-15.5160
 30
0.000000
  70
    32
  0
VERTEX
  8
レイヤ__1
  5
5C6
 10
-13.4816
 20
-15.4962
 30
0.000000
  70
    32
  0
VERTEX
  8
レイヤ__1
  5
5C7
 10
-13.4710
 20
-15.4762
 30
0.000000
  70
    32
  0
VERTEX
  8
レイヤ__1
  5
5C8
 10
-13.4606
 20
-15.4558
 30
0.000000
  70
    32
  0
VERTEX
  8
レイヤ__1
  5
5C9
 10
-13.4505
 20
-15.4350
 30
0.000000
  70
    32
  0
VERTEX
  8
レイヤ__1
  5
5CA
 10
-13.4407
 20
-15.4139
 30
0.000000
  70
    32
  0
VERTEX
  8
レイヤ__1
  5
5CB
 10
-13.4311
 20
-15.3925
 30
0.000000
  70
    32
  0
VERTEX
  8
レイヤ__1
  5
5CC
 10
-13.4218
 20
-15.3708
 30
0.000000
  70
    32
  0
VERTEX
  8
レイヤ__1
  5
5CD
 10
-13.4128
 20
-15.3486
 30
0.000000
  70
    32
  0
VERTEX
  8
レイヤ__1
  5
5CE
 10
-13.4040
 20
-15.3262
 30
0.000000
  70
    32
  0
VERTEX
  8
レイヤ__1
  5
5CF
 10
-13.3956
 20
-15.3034
 30
0.000000
  70
    32
  0
VERTEX
  8
レイヤ__1
  5
5D0
 10
-13.3874
 20
-15.2802
 30
0.000000
  70
    32
  0
VERTEX
  8
レイヤ__1
  5
5D1
 10
-13.3795
 20
-15.2567
 30
0.000000
  70
    32
  0
VERTEX
  8
レイヤ__1
  5
5D2
 10
-13.3718
 20
-15.2328
 30
0.000000
  70
    32
  0
VERTEX
  8
レイヤ__1
  5
5D3
 10
-13.3645
 20
-15.2085
 30
0.000000
  70
    32
  0
VERTEX
  8
レイヤ__1
  5
5D4
 10
-13.3575
 20
-15.1839
 30
0.000000
  70
    32
  0
VERTEX
  8
レイヤ__1
  5
5D5
 10
-13.3508
 20
-15.1589
 30
0.000000
  70
    32
  0
VERTEX
  8
レイヤ__1
  5
5D6
 10
-13.3444
 20
-15.1335
 30
0.000000
  70
    32
  0
VERTEX
  8
レイヤ__1
  5
5D7
 10
-13.3382
 20
-15.1078
 30
0.000000
  70
    32
  0
VERTEX
  8
レイヤ__1
  5
5D8
 10
-13.3324
 20
-15.0817
 30
0.000000
  70
    32
  0
VERTEX
  8
レイヤ__1
  5
5D9
 10
-13.3270
 20
-15.0552
 30
0.000000
  70
    32
  0
VERTEX
  8
レイヤ__1
  5
5DA
 10
-13.3218
 20
-15.0283
 30
0.000000
  70
    32
  0
SEQEND
  8
レイヤ__1
  5
5DB
  0
POLYLINE
  8
レイヤ__1
  5
5DC
  62
5
  66
     1
 10
0.000000
 20
0.000000
 30
0.000000
  70
     8
  0
VERTEX
  8
レイヤ__1
  5
5DD
 10
-13.3218
 20
-15.0283
 30
0.000000
  70
    32
  0
VERTEX
  8
レイヤ__1
  5
5DE
 10
-13.3178
 20
-15.0060
 30
0.000000
  70
    32
  0
VERTEX
  8
レイヤ__1
  5
5DF
 10
-13.3143
 20
-14.9840
 30
0.000000
  70
    32
  0
VERTEX
  8
レイヤ__1
  5
5E0
 10
-13.3111
 20
-14.9623
 30
0.000000
  70
    32
  0
VERTEX
  8
レイヤ__1
  5
5E1
 10
-13.3082
 20
-14.9408
 30
0.000000
  70
    32
  0
VERTEX
  8
レイヤ__1
  5
5E2
 10
-13.3058
 20
-14.9196
 30
0.000000
  70
    32
  0
VERTEX
  8
レイヤ__1
  5
5E3
 10
-13.3037
 20
-14.8986
 30
0.000000
  70
    32
  0
VERTEX
  8
レイヤ__1
  5
5E4
 10
-13.3019
 20
-14.8779
 30
0.000000
  70
    32
  0
VERTEX
  8
レイヤ__1
  5
5E5
 10
-13.3005
 20
-14.8575
 30
0.000000
  70
    32
  0
VERTEX
  8
レイヤ__1
  5
5E6
 10
-13.2995
 20
-14.8373
 30
0.000000
  70
    32
  0
VERTEX
  8
レイヤ__1
  5
5E7
 10
-13.2988
 20
-14.8174
 30
0.000000
  70
    32
  0
VERTEX
  8
レイヤ__1
  5
5E8
 10
-13.2985
 20
-14.7978
 30
0.000000
  70
    32
  0
VERTEX
  8
レイヤ__1
  5
5E9
 10
-13.2985
 20
-14.7783
 30
0.000000
  70
    32
  0
VERTEX
  8
レイヤ__1
  5
5EA
 10
-13.2988
 20
-14.7592
 30
0.000000
  70
    32
  0
VERTEX
  8
レイヤ__1
  5
5EB
 10
-13.2995
 20
-14.7403
 30
0.000000
  70
    32
  0
VERTEX
  8
レイヤ__1
  5
5EC
 10
-13.3005
 20
-14.7216
 30
0.000000
  70
    32
  0
VERTEX
  8
レイヤ__1
  5
5ED
 10
-13.3018
 20
-14.7031
 30
0.000000
  70
    32
  0
VERTEX
  8
レイヤ__1
  5
5EE
 10
-13.3034
 20
-14.6850
 30
0.000000
  70
    32
  0
VERTEX
  8
レイヤ__1
  5
5EF
 10
-13.3054
 20
-14.6670
 30
0.000000
  70
    32
  0
VERTEX
  8
レイヤ__1
  5
5F0
 10
-13.3077
 20
-14.6493
 30
0.000000
  70
    32
  0
VERTEX
  8
レイヤ__1
  5
5F1
 10
-13.3102
 20
-14.6318
 30
0.000000
  70
    32
  0
VERTEX
  8
レイヤ__1
  5
5F2
 10
-13.3131
 20
-14.6146
 30
0.000000
  70
    32
  0
VERTEX
  8
レイヤ__1
  5
5F3
 10
-13.3163
 20
-14.5976
 30
0.000000
  70
    32
  0
VERTEX
  8
レイヤ__1
  5
5F4
 10
-13.3198
 20
-14.5808
 30
0.000000
  70
    32
  0
VERTEX
  8
レイヤ__1
  5
5F5
 10
-13.3236
 20
-14.5642
 30
0.000000
  70
    32
  0
VERTEX
  8
レイヤ__1
  5
5F6
 10
-13.3277
 20
-14.5479
 30
0.000000
  70
    32
  0
VERTEX
  8
レイヤ__1
  5
5F7
 10
-13.3320
 20
-14.5318
 30
0.000000
  70
    32
  0
VERTEX
  8
レイヤ__1
  5
5F8
 10
-13.3367
 20
-14.5160
 30
0.000000
  70
    32
  0
VERTEX
  8
レイヤ__1
  5
5F9
 10
-13.3416
 20
-14.5003
 30
0.000000
  70
    32
  0
VERTEX
  8
レイヤ__1
  5
5FA
 10
-13.3468
 20
-14.4849
 30
0.000000
  70
    32
  0
VERTEX
  8
レイヤ__1
  5
5FB
 10
-13.3523
 20
-14.4697
 30
0.000000
  70
    32
  0
VERTEX
  8
レイヤ__1
  5
5FC
 10
-13.3580
 20
-14.4547
 30
0.000000
  70
    32
  0
VERTEX
  8
レイヤ__1
  5
5FD
 10
-13.3640
 20
-14.4399
 30
0.000000
  70
    32
  0
VERTEX
  8
レイヤ__1
  5
5FE
 10
-13.3702
 20
-14.4253
 30
0.000000
  70
    32
  0
VERTEX
  8
レイヤ__1
  5
5FF
 10
-13.3768
 20
-14.4110
 30
0.000000
  70
    32
  0
VERTEX
  8
レイヤ__1
  5
600
 10
-13.3835
 20
-14.3968
 30
0.000000
  70
    32
  0
VERTEX
  8
レイヤ__1
  5
601
 10
-13.3905
 20
-14.3829
 30
0.000000
  70
    32
  0
VERTEX
  8
レイヤ__1
  5
602
 10
-13.3978
 20
-14.3691
 30
0.000000
  70
    32
  0
VERTEX
  8
レイヤ__1
  5
603
 10
-13.4053
 20
-14.3556
 30
0.000000
  70
    32
  0
VERTEX
  8
レイヤ__1
  5
604
 10
-13.4130
 20
-14.3423
 30
0.000000
  70
    32
  0
VERTEX
  8
レイヤ__1
  5
605
 10
-13.4210
 20
-14.3291
 30
0.000000
  70
    32
  0
VERTEX
  8
レイヤ__1
  5
606
 10
-13.4292
 20
-14.3162
 30
0.000000
  70
    32
  0
VERTEX
  8
レイヤ__1
  5
607
 10
-13.4376
 20
-14.3034
 30
0.000000
  70
    32
  0
VERTEX
  8
レイヤ__1
  5
608
 10
-13.4463
 20
-14.2909
 30
0.000000
  70
    32
  0
VERTEX
  8
レイヤ__1
  5
609
 10
-13.4552
 20
-14.2785
 30
0.000000
  70
    32
  0
VERTEX
  8
レイヤ__1
  5
60A
 10
-13.4642
 20
-14.2664
 30
0.000000
  70
    32
  0
VERTEX
  8
レイヤ__1
  5
60B
 10
-13.4735
 20
-14.2544
 30
0.000000
  70
    32
  0
VERTEX
  8
レイヤ__1
  5
60C
 10
-13.4830
 20
-14.2426
 30
0.000000
  70
    32
  0
VERTEX
  8
レイヤ__1
  5
60D
 10
-13.4927
 20
-14.2310
 30
0.000000
  70
    32
  0
VERTEX
  8
レイヤ__1
  5
60E
 10
-13.5026
 20
-14.2196
 30
0.000000
  70
    32
  0
VERTEX
  8
レイヤ__1
  5
60F
 10
-13.5127
 20
-14.2084
 30
0.000000
  70
    32
  0
VERTEX
  8
レイヤ__1
  5
610
 10
-13.5230
 20
-14.1973
 30
0.000000
  70
    32
  0
VERTEX
  8
レイヤ__1
  5
611
 10
-13.5335
 20
-14.1864
 30
0.000000
  70
    32
  0
VERTEX
  8
レイヤ__1
  5
612
 10
-13.5441
 20
-14.1757
 30
0.000000
  70
    32
  0
VERTEX
  8
レイヤ__1
  5
613
 10
-13.5550
 20
-14.1652
 30
0.000000
  70
    32
  0
VERTEX
  8
レイヤ__1
  5
614
 10
-13.5660
 20
-14.1548
 30
0.000000
  70
    32
  0
VERTEX
  8
レイヤ__1
  5
615
 10
-13.5772
 20
-14.1446
 30
0.000000
  70
    32
  0
VERTEX
  8
レイヤ__1
  5
616
 10
-13.5885
 20
-14.1346
 30
0.000000
  70
    32
  0
VERTEX
  8
レイヤ__1
  5
617
 10
-13.6000
 20
-14.1248
 30
0.000000
  70
    32
  0
VERTEX
  8
レイヤ__1
  5
618
 10
-13.6117
 20
-14.1151
 30
0.000000
  70
    32
  0
VERTEX
  8
レイヤ__1
  5
619
 10
-13.6236
 20
-14.1055
 30
0.000000
  70
    32
  0
VERTEX
  8
レイヤ__1
  5
61A
 10
-13.6355
 20
-14.0962
 30
0.000000
  70
    32
  0
VERTEX
  8
レイヤ__1
  5
61B
 10
-13.6477
 20
-14.0870
 30
0.000000
  70
    32
  0
VERTEX
  8
レイヤ__1
  5
61C
 10
-13.6600
 20
-14.0779
 30
0.000000
  70
    32
  0
VERTEX
  8
レイヤ__1
  5
61D
 10
-13.6724
 20
-14.0690
 30
0.000000
  70
    32
  0
VERTEX
  8
レイヤ__1
  5
61E
 10
-13.6849
 20
-14.0603
 30
0.000000
  70
    32
  0
VERTEX
  8
レイヤ__1
  5
61F
 10
-13.6976
 20
-14.0517
 30
0.000000
  70
    32
  0
VERTEX
  8
レイヤ__1
  5
620
 10
-13.7105
 20
-14.0433
 30
0.000000
  70
    32
  0
VERTEX
  8
レイヤ__1
  5
621
 10
-13.7234
 20
-14.0350
 30
0.000000
  70
    32
  0
VERTEX
  8
レイヤ__1
  5
622
 10
-13.7365
 20
-14.0269
 30
0.000000
  70
    32
  0
VERTEX
  8
レイヤ__1
  5
623
 10
-13.7497
 20
-14.0189
 30
0.000000
  70
    32
  0
VERTEX
  8
レイヤ__1
  5
624
 10
-13.7630
 20
-14.0110
 30
0.000000
  70
    32
  0
VERTEX
  8
レイヤ__1
  5
625
 10
-13.7764
 20
-14.0033
 30
0.000000
  70
    32
  0
VERTEX
  8
レイヤ__1
  5
626
 10
-13.7899
 20
-13.9957
 30
0.000000
  70
    32
  0
VERTEX
  8
レイヤ__1
  5
627
 10
-13.8036
 20
-13.9883
 30
0.000000
  70
    32
  0
VERTEX
  8
レイヤ__1
  5
628
 10
-13.8173
 20
-13.9810
 30
0.000000
  70
    32
  0
VERTEX
  8
レイヤ__1
  5
629
 10
-13.8311
 20
-13.9738
 30
0.000000
  70
    32
  0
VERTEX
  8
レイヤ__1
  5
62A
 10
-13.8450
 20
-13.9668
 30
0.000000
  70
    32
  0
VERTEX
  8
レイヤ__1
  5
62B
 10
-13.8590
 20
-13.9599
 30
0.000000
  70
    32
  0
VERTEX
  8
レイヤ__1
  5
62C
 10
-13.8731
 20
-13.9531
 30
0.000000
  70
    32
  0
VERTEX
  8
レイヤ__1
  5
62D
 10
-13.8873
 20
-13.9465
 30
0.000000
  70
    32
  0
VERTEX
  8
レイヤ__1
  5
62E
 10
-13.9015
 20
-13.9399
 30
0.000000
  70
    32
  0
VERTEX
  8
レイヤ__1
  5
62F
 10
-13.9159
 20
-13.9335
 30
0.000000
  70
    32
  0
VERTEX
  8
レイヤ__1
  5
630
 10
-13.9303
 20
-13.9273
 30
0.000000
  70
    32
  0
VERTEX
  8
レイヤ__1
  5
631
 10
-13.9447
 20
-13.9211
 30
0.000000
  70
    32
  0
VERTEX
  8
レイヤ__1
  5
632
 10
-13.9592
 20
-13.9150
 30
0.000000
  70
    32
  0
VERTEX
  8
レイヤ__1
  5
633
 10
-13.9738
 20
-13.9091
 30
0.000000
  70
    32
  0
VERTEX
  8
レイヤ__1
  5
634
 10
-13.9884
 20
-13.9033
 30
0.000000
  70
    32
  0
VERTEX
  8
レイヤ__1
  5
635
 10
-14.0031
 20
-13.8976
 30
0.000000
  70
    32
  0
VERTEX
  8
レイヤ__1
  5
636
 10
-14.0178
 20
-13.8920
 30
0.000000
  70
    32
  0
VERTEX
  8
レイヤ__1
  5
637
 10
-14.0326
 20
-13.8865
 30
0.000000
  70
    32
  0
VERTEX
  8
レイヤ__1
  5
638
 10
-14.0474
 20
-13.8811
 30
0.000000
  70
    32
  0
VERTEX
  8
レイヤ__1
  5
639
 10
-14.0622
 20
-13.8759
 30
0.000000
  70
    32
  0
VERTEX
  8
レイヤ__1
  5
63A
 10
-14.0771
 20
-13.8707
 30
0.000000
  70
    32
  0
VERTEX
  8
レイヤ__1
  5
63B
 10
-14.0920
 20
-13.8656
 30
0.000000
  70
    32
  0
VERTEX
  8
レイヤ__1
  5
63C
 10
-14.1069
 20
-13.8607
 30
0.000000
  70
    32
  0
VERTEX
  8
レイヤ__1
  5
63D
 10
-14.1218
 20
-13.8558
 30
0.000000
  70
    32
  0
VERTEX
  8
レイヤ__1
  5
63E
 10
-14.1368
 20
-13.8510
 30
0.000000
  70
    32
  0
VERTEX
  8
レイヤ__1
  5
63F
 10
-14.1517
 20
-13.8463
 30
0.000000
  70
    32
  0
VERTEX
  8
レイヤ__1
  5
640
 10
-14.1667
 20
-13.8417
 30
0.000000
  70
    32
  0
VERTEX
  8
レイヤ__1
  5
641
 10
-14.1817
 20
-13.8372
 30
0.000000
  70
    32
  0
VERTEX
  8
レイヤ__1
  5
642
 10
-14.1967
 20
-13.8328
 30
0.000000
  70
    32
  0
VERTEX
  8
レイヤ__1
  5
643
 10
-14.2116
 20
-13.8285
 30
0.000000
  70
    32
  0
VERTEX
  8
レイヤ__1
  5
644
 10
-14.2266
 20
-13.8242
 30
0.000000
  70
    32
  0
VERTEX
  8
レイヤ__1
  5
645
 10
-14.2416
 20
-13.8201
 30
0.000000
  70
    32
  0
VERTEX
  8
レイヤ__1
  5
646
 10
-14.2565
 20
-13.8160
 30
0.000000
  70
    32
  0
VERTEX
  8
レイヤ__1
  5
647
 10
-14.2714
 20
-13.8120
 30
0.000000
  70
    32
  0
VERTEX
  8
レイヤ__1
  5
648
 10
-14.2863
 20
-13.8081
 30
0.000000
  70
    32
  0
VERTEX
  8
レイヤ__1
  5
649
 10
-14.3012
 20
-13.8042
 30
0.000000
  70
    32
  0
VERTEX
  8
レイヤ__1
  5
64A
 10
-14.3160
 20
-13.8004
 30
0.000000
  70
    32
  0
VERTEX
  8
レイヤ__1
  5
64B
 10
-14.3308
 20
-13.7967
 30
0.000000
  70
    32
  0
VERTEX
  8
レイヤ__1
  5
64C
 10
-14.3456
 20
-13.7931
 30
0.000000
  70
    32
  0
VERTEX
  8
レイヤ__1
  5
64D
 10
-14.3603
 20
-13.7895
 30
0.000000
  70
    32
  0
VERTEX
  8
レイヤ__1
  5
64E
 10
-14.3750
 20
-13.7860
 30
0.000000
  70
    32
  0
VERTEX
  8
レイヤ__1
  5
64F
 10
-14.3896
 20
-13.7826
 30
0.000000
  70
    32
  0
VERTEX
  8
レイヤ__1
  5
650
 10
-14.4042
 20
-13.7792
 30
0.000000
  70
    32
  0
VERTEX
  8
レイヤ__1
  5
651
 10
-14.4187
 20
-13.7759
 30
0.000000
  70
    32
  0
VERTEX
  8
レイヤ__1
  5
652
 10
-14.4332
 20
-13.7726
 30
0.000000
  70
    32
  0
VERTEX
  8
レイヤ__1
  5
653
 10
-14.4476
 20
-13.7694
 30
0.000000
  70
    32
  0
VERTEX
  8
レイヤ__1
  5
654
 10
-14.4619
 20
-13.7663
 30
0.000000
  70
    32
  0
VERTEX
  8
レイヤ__1
  5
655
 10
-14.4762
 20
-13.7632
 30
0.000000
  70
    32
  0
VERTEX
  8
レイヤ__1
  5
656
 10
-14.4904
 20
-13.7602
 30
0.000000
  70
    32
  0
VERTEX
  8
レイヤ__1
  5
657
 10
-14.5045
 20
-13.7572
 30
0.000000
  70
    32
  0
VERTEX
  8
レイヤ__1
  5
658
 10
-14.5185
 20
-13.7542
 30
0.000000
  70
    32
  0
VERTEX
  8
レイヤ__1
  5
659
 10
-14.5324
 20
-13.7513
 30
0.000000
  70
    32
  0
VERTEX
  8
レイヤ__1
  5
65A
 10
-14.5462
 20
-13.7485
 30
0.000000
  70
    32
  0
VERTEX
  8
レイヤ__1
  5
65B
 10
-14.5600
 20
-13.7457
 30
0.000000
  70
    32
  0
VERTEX
  8
レイヤ__1
  5
65C
 10
-14.5736
 20
-13.7429
 30
0.000000
  70
    32
  0
SEQEND
  8
レイヤ__1
  5
65D
  0
POLYLINE
  8
レイヤ__1
  5
65E
  62
5
  66
     1
 10
0.000000
 20
0.000000
 30
0.000000
  70
     8
  0
VERTEX
  8
レイヤ__1
  5
65F
 10
-15.6284
 20
-15.0283
 30
0.000000
  70
    32
  0
VERTEX
  8
レイヤ__1
  5
660
 10
-15.6284
 20
-15.0240
 30
0.000000
  70
    32
  0
VERTEX
  8
レイヤ__1
  5
661
 10
-15.6284
 20
-15.0197
 30
0.000000
  70
    32
  0
VERTEX
  8
レイヤ__1
  5
662
 10
-15.6284
 20
-15.0154
 30
0.000000
  70
    32
  0
VERTEX
  8
レイヤ__1
  5
663
 10
-15.6284
 20
-15.0113
 30
0.000000
  70
    32
  0
VERTEX
  8
レイヤ__1
  5
664
 10
-15.6284
 20
-15.0071
 30
0.000000
  70
    32
  0
VERTEX
  8
レイヤ__1
  5
665
 10
-15.6284
 20
-15.0030
 30
0.000000
  70
    32
  0
VERTEX
  8
レイヤ__1
  5
666
 10
-15.6284
 20
-14.9990
 30
0.000000
  70
    32
  0
VERTEX
  8
レイヤ__1
  5
667
 10
-15.6284
 20
-14.9950
 30
0.000000
  70
    32
  0
VERTEX
  8
レイヤ__1
  5
668
 10
-15.6284
 20
-14.9911
 30
0.000000
  70
    32
  0
VERTEX
  8
レイヤ__1
  5
669
 10
-15.6284
 20
-14.9872
 30
0.000000
  70
    32
  0
VERTEX
  8
レイヤ__1
  5
66A
 10
-15.6284
 20
-14.9834
 30
0.000000
  70
    32
  0
VERTEX
  8
レイヤ__1
  5
66B
 10
-15.6284
 20
-14.9796
 30
0.000000
  70
    32
  0
VERTEX
  8
レイヤ__1
  5
66C
 10
-15.6284
 20
-14.9758
 30
0.000000
  70
    32
  0
VERTEX
  8
レイヤ__1
  5
66D
 10
-15.6284
 20
-14.9721
 30
0.000000
  70
    32
  0
VERTEX
  8
レイヤ__1
  5
66E
 10
-15.6284
 20
-14.9685
 30
0.000000
  70
    32
  0
VERTEX
  8
レイヤ__1
  5
66F
 10
-15.6284
 20
-14.9649
 30
0.000000
  70
    32
  0
VERTEX
  8
レイヤ__1
  5
670
 10
-15.6284
 20
-14.9613
 30
0.000000
  70
    32
  0
VERTEX
  8
レイヤ__1
  5
671
 10
-15.6284
 20
-14.9578
 30
0.000000
  70
    32
  0
VERTEX
  8
レイヤ__1
  5
672
 10
-15.6284
 20
-14.9543
 30
0.000000
  70
    32
  0
VERTEX
  8
レイヤ__1
  5
673
 10
-15.6284
 20
-14.9509
 30
0.000000
  70
    32
  0
VERTEX
  8
レイヤ__1
  5
674
 10
-15.6284
 20
-14.9476
 30
0.000000
  70
    32
  0
VERTEX
  8
レイヤ__1
  5
675
 10
-15.6284
 20
-14.9442
 30
0.000000
  70
    32
  0
VERTEX
  8
レイヤ__1
  5
676
 10
-15.6284
 20
-14.9409
 30
0.000000
  70
    32
  0
VERTEX
  8
レイヤ__1
  5
677
 10
-15.6284
 20
-14.9377
 30
0.000000
  70
    32
  0
VERTEX
  8
レイヤ__1
  5
678
 10
-15.6284
 20
-14.9345
 30
0.000000
  70
    32
  0
VERTEX
  8
レイヤ__1
  5
679
 10
-15.6284
 20
-14.9314
 30
0.000000
  70
    32
  0
VERTEX
  8
レイヤ__1
  5
67A
 10
-15.6284
 20
-14.9283
 30
0.000000
  70
    32
  0
VERTEX
  8
レイヤ__1
  5
67B
 10
-15.6284
 20
-14.9252
 30
0.000000
  70
    32
  0
VERTEX
  8
レイヤ__1
  5
67C
 10
-15.6284
 20
-14.9222
 30
0.000000
  70
    32
  0
VERTEX
  8
レイヤ__1
  5
67D
 10
-15.6284
 20
-14.9192
 30
0.000000
  70
    32
  0
VERTEX
  8
レイヤ__1
  5
67E
 10
-15.6284
 20
-14.9163
 30
0.000000
  70
    32
  0
VERTEX
  8
レイヤ__1
  5
67F
 10
-15.6284
 20
-14.9134
 30
0.000000
  70
    32
  0
VERTEX
  8
レイヤ__1
  5
680
 10
-15.6284
 20
-14.9105
 30
0.000000
  70
    32
  0
VERTEX
  8
レイヤ__1
  5
681
 10
-15.6284
 20
-14.9077
 30
0.000000
  70
    32
  0
VERTEX
  8
レイヤ__1
  5
682
 10
-15.6284
 20
-14.9050
 30
0.000000
  70
    32
  0
VERTEX
  8
レイヤ__1
  5
683
 10
-15.6284
 20
-14.9023
 30
0.000000
  70
    32
  0
VERTEX
  8
レイヤ__1
  5
684
 10
-15.6284
 20
-14.8996
 30
0.000000
  70
    32
  0
VERTEX
  8
レイヤ__1
  5
685
 10
-15.6284
 20
-14.8969
 30
0.000000
  70
    32
  0
VERTEX
  8
レイヤ__1
  5
686
 10
-15.6284
 20
-14.8943
 30
0.000000
  70
    32
  0
VERTEX
  8
レイヤ__1
  5
687
 10
-15.6284
 20
-14.8918
 30
0.000000
  70
    32
  0
VERTEX
  8
レイヤ__1
  5
688
 10
-15.6284
 20
-14.8893
 30
0.000000
  70
    32
  0
VERTEX
  8
レイヤ__1
  5
689
 10
-15.6284
 20
-14.8868
 30
0.000000
  70
    32
  0
VERTEX
  8
レイヤ__1
  5
68A
 10
-15.6284
 20
-14.8844
 30
0.000000
  70
    32
  0
VERTEX
  8
レイヤ__1
  5
68B
 10
-15.6284
 20
-14.8820
 30
0.000000
  70
    32
  0
VERTEX
  8
レイヤ__1
  5
68C
 10
-15.6284
 20
-14.8796
 30
0.000000
  70
    32
  0
VERTEX
  8
レイヤ__1
  5
68D
 10
-15.6284
 20
-14.8773
 30
0.000000
  70
    32
  0
VERTEX
  8
レイヤ__1
  5
68E
 10
-15.6284
 20
-14.8750
 30
0.000000
  70
    32
  0
VERTEX
  8
レイヤ__1
  5
68F
 10
-15.6284
 20
-14.8728
 30
0.000000
  70
    32
  0
VERTEX
  8
レイヤ__1
  5
690
 10
-15.6284
 20
-14.8706
 30
0.000000
  70
    32
  0
VERTEX
  8
レイヤ__1
  5
691
 10
-15.6284
 20
-14.8684
 30
0.000000
  70
    32
  0
VERTEX
  8
レイヤ__1
  5
692
 10
-15.6284
 20
-14.8663
 30
0.000000
  70
    32
  0
VERTEX
  8
レイヤ__1
  5
693
 10
-15.6284
 20
-14.8642
 30
0.000000
  70
    32
  0
VERTEX
  8
レイヤ__1
  5
694
 10
-15.6284
 20
-14.8621
 30
0.000000
  70
    32
  0
VERTEX
  8
レイヤ__1
  5
695
 10
-15.6284
 20
-14.8601
 30
0.000000
  70
    32
  0
VERTEX
  8
レイヤ__1
  5
696
 10
-15.6284
 20
-14.8581
 30
0.000000
  70
    32
  0
VERTEX
  8
レイヤ__1
  5
697
 10
-15.6284
 20
-14.8562
 30
0.000000
  70
    32
  0
VERTEX
  8
レイヤ__1
  5
698
 10
-15.6284
 20
-14.8543
 30
0.000000
  70
    32
  0
VERTEX
  8
レイヤ__1
  5
699
 10
-15.6284
 20
-14.8524
 30
0.000000
  70
    32
  0
VERTEX
  8
レイヤ__1
  5
69A
 10
-15.6284
 20
-14.8506
 30
0.000000
  70
    32
  0
VERTEX
  8
レイヤ__1
  5
69B
 10
-15.6284
 20
-14.8488
 30
0.000000
  70
    32
  0
VERTEX
  8
レイヤ__1
  5
69C
 10
-15.6284
 20
-14.8470
 30
0.000000
  70
    32
  0
VERTEX
  8
レイヤ__1
  5
69D
 10
-15.6284
 20
-14.8453
 30
0.000000
  70
    32
  0
VERTEX
  8
レイヤ__1
  5
69E
 10
-15.6284
 20
-14.8436
 30
0.000000
  70
    32
  0
VERTEX
  8
レイヤ__1
  5
69F
 10
-15.6284
 20
-14.8419
 30
0.000000
  70
    32
  0
VERTEX
  8
レイヤ__1
  5
6A0
 10
-15.6284
 20
-14.8403
 30
0.000000
  70
    32
  0
VERTEX
  8
レイヤ__1
  5
6A1
 10
-15.6284
 20
-14.8387
 30
0.000000
  70
    32
  0
VERTEX
  8
レイヤ__1
  5
6A2
 10
-15.6284
 20
-14.8372
 30
0.000000
  70
    32
  0
VERTEX
  8
レイヤ__1
  5
6A3
 10
-15.6284
 20
-14.8356
 30
0.000000
  70
    32
  0
VERTEX
  8
レイヤ__1
  5
6A4
 10
-15.6284
 20
-14.8341
 30
0.000000
  70
    32
  0
VERTEX
  8
レイヤ__1
  5
6A5
 10
-15.6284
 20
-14.8327
 30
0.000000
  70
    32
  0
VERTEX
  8
レイヤ__1
  5
6A6
 10
-15.6284
 20
-14.8313
 30
0.000000
  70
    32
  0
VERTEX
  8
レイヤ__1
  5
6A7
 10
-15.6284
 20
-14.8299
 30
0.000000
  70
    32
  0
VERTEX
  8
レイヤ__1
  5
6A8
 10
-15.6284
 20
-14.8285
 30
0.000000
  70
    32
  0
VERTEX
  8
レイヤ__1
  5
6A9
 10
-15.6284
 20
-14.8272
 30
0.000000
  70
    32
  0
VERTEX
  8
レイヤ__1
  5
6AA
 10
-15.6284
 20
-14.8259
 30
0.000000
  70
    32
  0
VERTEX
  8
レイヤ__1
  5
6AB
 10
-15.6284
 20
-14.8246
 30
0.000000
  70
    32
  0
VERTEX
  8
レイヤ__1
  5
6AC
 10
-15.6284
 20
-14.8234
 30
0.000000
  70
    32
  0
VERTEX
  8
レイヤ__1
  5
6AD
 10
-15.6284
 20
-14.8222
 30
0.000000
  70
    32
  0
VERTEX
  8
レイヤ__1
  5
6AE
 10
-15.6284
 20
-14.8210
 30
0.000000
  70
    32
  0
VERTEX
  8
レイヤ__1
  5
6AF
 10
-15.6284
 20
-14.8199
 30
0.000000
  70
    32
  0
VERTEX
  8
レイヤ__1
  5
6B0
 10
-15.6284
 20
-14.8187
 30
0.000000
  70
    32
  0
VERTEX
  8
レイヤ__1
  5
6B1
 10
-15.6284
 20
-14.8177
 30
0.000000
  70
    32
  0
VERTEX
  8
レイヤ__1
  5
6B2
 10
-15.6284
 20
-14.8166
 30
0.000000
  70
    32
  0
VERTEX
  8
レイヤ__1
  5
6B3
 10
-15.6284
 20
-14.8156
 30
0.000000
  70
    32
  0
VERTEX
  8
レイヤ__1
  5
6B4
 10
-15.6284
 20
-14.8146
 30
0.000000
  70
    32
  0
VERTEX
  8
レイヤ__1
  5
6B5
 10
-15.6284
 20
-14.8136
 30
0.000000
  70
    32
  0
VERTEX
  8
レイヤ__1
  5
6B6
 10
-15.6284
 20
-14.8127
 30
0.000000
  70
    32
  0
VERTEX
  8
レイヤ__1
  5
6B7
 10
-15.6284
 20
-14.8118
 30
0.000000
  70
    32
  0
VERTEX
  8
レイヤ__1
  5
6B8
 10
-15.6284
 20
-14.8109
 30
0.000000
  70
    32
  0
VERTEX
  8
レイヤ__1
  5
6B9
 10
-15.6284
 20
-14.8100
 30
0.000000
  70
    32
  0
VERTEX
  8
レイヤ__1
  5
6BA
 10
-15.6284
 20
-14.8092
 30
0.000000
  70
    32
  0
VERTEX
  8
レイヤ__1
  5
6BB
 10
-15.6284
 20
-14.8084
 30
0.000000
  70
    32
  0
VERTEX
  8
レイヤ__1
  5
6BC
 10
-15.6284
 20
-14.8076
 30
0.000000
  70
    32
  0
VERTEX
  8
レイヤ__1
  5
6BD
 10
-15.6284
 20
-14.8069
 30
0.000000
  70
    32
  0
VERTEX
  8
レイヤ__1
  5
6BE
 10
-15.6284
 20
-14.8061
 30
0.000000
  70
    32
  0
VERTEX
  8
レイヤ__1
  5
6BF
 10
-15.6284
 20
-14.8054
 30
0.000000
  70
    32
  0
VERTEX
  8
レイヤ__1
  5
6C0
 10
-15.6284
 20
-14.8048
 30
0.000000
  70
    32
  0
VERTEX
  8
レイヤ__1
  5
6C1
 10
-15.6284
 20
-14.8041
 30
0.000000
  70
    32
  0
VERTEX
  8
レイヤ__1
  5
6C2
 10
-15.6284
 20
-14.8035
 30
0.000000
  70
    32
  0
VERTEX
  8
レイヤ__1
  5
6C3
 10
-15.6284
 20
-14.8029
 30
0.000000
  70
    32
  0
VERTEX
  8
レイヤ__1
  5
6C4
 10
-15.6284
 20
-14.8024
 30
0.000000
  70
    32
  0
VERTEX
  8
レイヤ__1
  5
6C5
 10
-15.6284
 20
-14.8018
 30
0.000000
  70
    32
  0
VERTEX
  8
レイヤ__1
  5
6C6
 10
-15.6284
 20
-14.8013
 30
0.000000
  70
    32
  0
VERTEX
  8
レイヤ__1
  5
6C7
 10
-15.6284
 20
-14.8008
 30
0.000000
  70
    32
  0
VERTEX
  8
レイヤ__1
  5
6C8
 10
-15.6284
 20
-14.8003
 30
0.000000
  70
    32
  0
VERTEX
  8
レイヤ__1
  5
6C9
 10
-15.6284
 20
-14.7999
 30
0.000000
  70
    32
  0
VERTEX
  8
レイヤ__1
  5
6CA
 10
-15.6284
 20
-14.7994
 30
0.000000
  70
    32
  0
VERTEX
  8
レイヤ__1
  5
6CB
 10
-15.6284
 20
-14.7990
 30
0.000000
  70
    32
  0
VERTEX
  8
レイヤ__1
  5
6CC
 10
-15.6284
 20
-14.7987
 30
0.000000
  70
    32
  0
VERTEX
  8
レイヤ__1
  5
6CD
 10
-15.6284
 20
-14.7983
 30
0.000000
  70
    32
  0
VERTEX
  8
レイヤ__1
  5
6CE
 10
-15.6284
 20
-14.7980
 30
0.000000
  70
    32
  0
VERTEX
  8
レイヤ__1
  5
6CF
 10
-15.6284
 20
-14.7977
 30
0.000000
  70
    32
  0
VERTEX
  8
レイヤ__1
  5
6D0
 10
-15.6284
 20
-14.7974
 30
0.000000
  70
    32
  0
VERTEX
  8
レイヤ__1
  5
6D1
 10
-15.6284
 20
-14.7971
 30
0.000000
  70
    32
  0
VERTEX
  8
レイヤ__1
  5
6D2
 10
-15.6284
 20
-14.7968
 30
0.000000
  70
    32
  0
VERTEX
  8
レイヤ__1
  5
6D3
 10
-15.6284
 20
-14.7966
 30
0.000000
  70
    32
  0
VERTEX
  8
レイヤ__1
  5
6D4
 10
-15.6284
 20
-14.7964
 30
0.000000
  70
    32
  0
VERTEX
  8
レイヤ__1
  5
6D5
 10
-15.6284
 20
-14.7962
 30
0.000000
  70
    32
  0
VERTEX
  8
レイヤ__1
  5
6D6
 10
-15.6284
 20
-14.7961
 30
0.000000
  70
    32
  0
VERTEX
  8
レイヤ__1
  5
6D7
 10
-15.6284
 20
-14.7959
 30
0.000000
  70
    32
  0
VERTEX
  8
レイヤ__1
  5
6D8
 10
-15.6284
 20
-14.7958
 30
0.000000
  70
    32
  0
VERTEX
  8
レイヤ__1
  5
6D9
 10
-15.6284
 20
-14.7957
 30
0.000000
  70
    32
  0
VERTEX
  8
レイヤ__1
  5
6DA
 10
-15.6284
 20
-14.7956
 30
0.000000
  70
    32
  0
VERTEX
  8
レイヤ__1
  5
6DB
 10
-15.6284
 20
-14.7955
 30
0.000000
  70
    32
  0
VERTEX
  8
レイヤ__1
  5
6DC
 10
-15.6284
 20
-14.7955
 30
0.000000
  70
    32
  0
VERTEX
  8
レイヤ__1
  5
6DD
 10
-15.6284
 20
-14.7954
 30
0.000000
  70
    32
  0
VERTEX
  8
レイヤ__1
  5
6DE
 10
-15.6284
 20
-14.7954
 30
0.000000
  70
    32
  0
SEQEND
  8
レイヤ__1
  5
6DF
  0
POLYLINE
  8
レイヤ__1
  5
6E0
  62
5
  66
     1
 10
0.000000
 20
0.000000
 30
0.000000
  70
     8
  0
VERTEX
  8
レイヤ__1
  5
6E1
 10
-9.42316
 20
-13.7091
 30
0.000000
  70
    32
  0
VERTEX
  8
レイヤ__1
  5
6E2
 10
-9.42154
 20
-13.7002
 30
0.000000
  70
    32
  0
VERTEX
  8
レイヤ__1
  5
6E3
 10
-9.41997
 20
-13.6910
 30
0.000000
  70
    32
  0
VERTEX
  8
レイヤ__1
  5
6E4
 10
-9.41844
 20
-13.6817
 30
0.000000
  70
    32
  0
VERTEX
  8
レイヤ__1
  5
6E5
 10
-9.41698
 20
-13.6721
 30
0.000000
  70
    32
  0
VERTEX
  8
レイヤ__1
  5
6E6
 10
-9.41557
 20
-13.6623
 30
0.000000
  70
    32
  0
VERTEX
  8
レイヤ__1
  5
6E7
 10
-9.41422
 20
-13.6524
 30
0.000000
  70
    32
  0
VERTEX
  8
レイヤ__1
  5
6E8
 10
-9.41293
 20
-13.6422
 30
0.000000
  70
    32
  0
VERTEX
  8
レイヤ__1
  5
6E9
 10
-9.41172
 20
-13.6319
 30
0.000000
  70
    32
  0
VERTEX
  8
レイヤ__1
  5
6EA
 10
-9.41057
 20
-13.6214
 30
0.000000
  70
    32
  0
VERTEX
  8
レイヤ__1
  5
6EB
 10
-9.40950
 20
-13.6107
 30
0.000000
  70
    32
  0
VERTEX
  8
レイヤ__1
  5
6EC
 10
-9.40851
 20
-13.5998
 30
0.000000
  70
    32
  0
VERTEX
  8
レイヤ__1
  5
6ED
 10
-9.40760
 20
-13.5888
 30
0.000000
  70
    32
  0
VERTEX
  8
レイヤ__1
  5
6EE
 10
-9.40678
 20
-13.5776
 30
0.000000
  70
    32
  0
VERTEX
  8
レイヤ__1
  5
6EF
 10
-9.40604
 20
-13.5662
 30
0.000000
  70
    32
  0
VERTEX
  8
レイヤ__1
  5
6F0
 10
-9.40540
 20
-13.5547
 30
0.000000
  70
    32
  0
VERTEX
  8
レイヤ__1
  5
6F1
 10
-9.40485
 20
-13.5430
 30
0.000000
  70
    32
  0
VERTEX
  8
レイヤ__1
  5
6F2
 10
-9.40441
 20
-13.5312
 30
0.000000
  70
    32
  0
VERTEX
  8
レイヤ__1
  5
6F3
 10
-9.40406
 20
-13.5193
 30
0.000000
  70
    32
  0
VERTEX
  8
レイヤ__1
  5
6F4
 10
-9.40382
 20
-13.5072
 30
0.000000
  70
    32
  0
VERTEX
  8
レイヤ__1
  5
6F5
 10
-9.40370
 20
-13.4950
 30
0.000000
  70
    32
  0
VERTEX
  8
レイヤ__1
  5
6F6
 10
-9.40368
 20
-13.4826
 30
0.000000
  70
    32
  0
VERTEX
  8
レイヤ__1
  5
6F7
 10
-9.40379
 20
-13.4701
 30
0.000000
  70
    32
  0
VERTEX
  8
レイヤ__1
  5
6F8
 10
-9.40401
 20
-13.4575
 30
0.000000
  70
    32
  0
VERTEX
  8
レイヤ__1
  5
6F9
 10
-9.40436
 20
-13.4448
 30
0.000000
  70
    32
  0
VERTEX
  8
レイヤ__1
  5
6FA
 10
-9.40483
 20
-13.4320
 30
0.000000
  70
    32
  0
VERTEX
  8
レイヤ__1
  5
6FB
 10
-9.40544
 20
-13.4191
 30
0.000000
  70
    32
  0
VERTEX
  8
レイヤ__1
  5
6FC
 10
-9.40618
 20
-13.4061
 30
0.000000
  70
    32
  0
VERTEX
  8
レイヤ__1
  5
6FD
 10
-9.40705
 20
-13.3930
 30
0.000000
  70
    32
  0
VERTEX
  8
レイヤ__1
  5
6FE
 10
-9.40807
 20
-13.3798
 30
0.000000
  70
    32
  0
VERTEX
  8
レイヤ__1
  5
6FF
 10
-9.40924
 20
-13.3665
 30
0.000000
  70
    32
  0
VERTEX
  8
レイヤ__1
  5
700
 10
-9.41055
 20
-13.3531
 30
0.000000
  70
    32
  0
VERTEX
  8
レイヤ__1
  5
701
 10
-9.41201
 20
-13.3397
 30
0.000000
  70
    32
  0
VERTEX
  8
レイヤ__1
  5
702
 10
-9.41363
 20
-13.3261
 30
0.000000
  70
    32
  0
VERTEX
  8
レイヤ__1
  5
703
 10
-9.41541
 20
-13.3125
 30
0.000000
  70
    32
  0
VERTEX
  8
レイヤ__1
  5
704
 10
-9.41735
 20
-13.2989
 30
0.000000
  70
    32
  0
VERTEX
  8
レイヤ__1
  5
705
 10
-9.41946
 20
-13.2852
 30
0.000000
  70
    32
  0
VERTEX
  8
レイヤ__1
  5
706
 10
-9.42173
 20
-13.2714
 30
0.000000
  70
    32
  0
VERTEX
  8
レイヤ__1
  5
707
 10
-9.42418
 20
-13.2576
 30
0.000000
  70
    32
  0
VERTEX
  8
レイヤ__1
  5
708
 10
-9.42681
 20
-13.2437
 30
0.000000
  70
    32
  0
VERTEX
  8
レイヤ__1
  5
709
 10
-9.42961
 20
-13.2298
 30
0.000000
  70
    32
  0
VERTEX
  8
レイヤ__1
  5
70A
 10
-9.43260
 20
-13.2158
 30
0.000000
  70
    32
  0
VERTEX
  8
レイヤ__1
  5
70B
 10
-9.43577
 20
-13.2019
 30
0.000000
  70
    32
  0
VERTEX
  8
レイヤ__1
  5
70C
 10
-9.43914
 20
-13.1879
 30
0.000000
  70
    32
  0
VERTEX
  8
レイヤ__1
  5
70D
 10
-9.44269
 20
-13.1738
 30
0.000000
  70
    32
  0
VERTEX
  8
レイヤ__1
  5
70E
 10
-9.44645
 20
-13.1598
 30
0.000000
  70
    32
  0
VERTEX
  8
レイヤ__1
  5
70F
 10
-9.45041
 20
-13.1457
 30
0.000000
  70
    32
  0
VERTEX
  8
レイヤ__1
  5
710
 10
-9.45456
 20
-13.1316
 30
0.000000
  70
    32
  0
VERTEX
  8
レイヤ__1
  5
711
 10
-9.45893
 20
-13.1176
 30
0.000000
  70
    32
  0
VERTEX
  8
レイヤ__1
  5
712
 10
-9.46351
 20
-13.1035
 30
0.000000
  70
    32
  0
VERTEX
  8
レイヤ__1
  5
713
 10
-9.46830
 20
-13.0894
 30
0.000000
  70
    32
  0
VERTEX
  8
レイヤ__1
  5
714
 10
-9.47332
 20
-13.0753
 30
0.000000
  70
    32
  0
VERTEX
  8
レイヤ__1
  5
715
 10
-9.47855
 20
-13.0613
 30
0.000000
  70
    32
  0
VERTEX
  8
レイヤ__1
  5
716
 10
-9.48401
 20
-13.0472
 30
0.000000
  70
    32
  0
VERTEX
  8
レイヤ__1
  5
717
 10
-9.48969
 20
-13.0332
 30
0.000000
  70
    32
  0
VERTEX
  8
レイヤ__1
  5
718
 10
-9.49561
 20
-13.0192
 30
0.000000
  70
    32
  0
VERTEX
  8
レイヤ__1
  5
719
 10
-9.50177
 20
-13.0053
 30
0.000000
  70
    32
  0
VERTEX
  8
レイヤ__1
  5
71A
 10
-9.50816
 20
-12.9914
 30
0.000000
  70
    32
  0
VERTEX
  8
レイヤ__1
  5
71B
 10
-9.51479
 20
-12.9775
 30
0.000000
  70
    32
  0
VERTEX
  8
レイヤ__1
  5
71C
 10
-9.52168
 20
-12.9636
 30
0.000000
  70
    32
  0
VERTEX
  8
レイヤ__1
  5
71D
 10
-9.52881
 20
-12.9499
 30
0.000000
  70
    32
  0
VERTEX
  8
レイヤ__1
  5
71E
 10
-9.53619
 20
-12.9361
 30
0.000000
  70
    32
  0
VERTEX
  8
レイヤ__1
  5
71F
 10
-9.54383
 20
-12.9224
 30
0.000000
  70
    32
  0
VERTEX
  8
レイヤ__1
  5
720
 10
-9.55173
 20
-12.9088
 30
0.000000
  70
    32
  0
VERTEX
  8
レイヤ__1
  5
721
 10
-9.55989
 20
-12.8953
 30
0.000000
  70
    32
  0
VERTEX
  8
レイヤ__1
  5
722
 10
-9.56833
 20
-12.8818
 30
0.000000
  70
    32
  0
VERTEX
  8
レイヤ__1
  5
723
 10
-9.57703
 20
-12.8684
 30
0.000000
  70
    32
  0
VERTEX
  8
レイヤ__1
  5
724
 10
-9.58600
 20
-12.8551
 30
0.000000
  70
    32
  0
VERTEX
  8
レイヤ__1
  5
725
 10
-9.59525
 20
-12.8419
 30
0.000000
  70
    32
  0
VERTEX
  8
レイヤ__1
  5
726
 10
-9.60479
 20
-12.8287
 30
0.000000
  70
    32
  0
VERTEX
  8
レイヤ__1
  5
727
 10
-9.61460
 20
-12.8157
 30
0.000000
  70
    32
  0
VERTEX
  8
レイヤ__1
  5
728
 10
-9.62471
 20
-12.8027
 30
0.000000
  70
    32
  0
VERTEX
  8
レイヤ__1
  5
729
 10
-9.63511
 20
-12.7899
 30
0.000000
  70
    32
  0
VERTEX
  8
レイヤ__1
  5
72A
 10
-9.64580
 20
-12.7771
 30
0.000000
  70
    32
  0
VERTEX
  8
レイヤ__1
  5
72B
 10
-9.65679
 20
-12.7645
 30
0.000000
  70
    32
  0
VERTEX
  8
レイヤ__1
  5
72C
 10
-9.66808
 20
-12.7520
 30
0.000000
  70
    32
  0
VERTEX
  8
レイヤ__1
  5
72D
 10
-9.67968
 20
-12.7396
 30
0.000000
  70
    32
  0
VERTEX
  8
レイヤ__1
  5
72E
 10
-9.69158
 20
-12.7274
 30
0.000000
  70
    32
  0
VERTEX
  8
レイヤ__1
  5
72F
 10
-9.70380
 20
-12.7152
 30
0.000000
  70
    32
  0
VERTEX
  8
レイヤ__1
  5
730
 10
-9.71634
 20
-12.7032
 30
0.000000
  70
    32
  0
VERTEX
  8
レイヤ__1
  5
731
 10
-9.72919
 20
-12.6914
 30
0.000000
  70
    32
  0
VERTEX
  8
レイヤ__1
  5
732
 10
-9.74236
 20
-12.6797
 30
0.000000
  70
    32
  0
VERTEX
  8
レイヤ__1
  5
733
 10
-9.75587
 20
-12.6681
 30
0.000000
  70
    32
  0
VERTEX
  8
レイヤ__1
  5
734
 10
-9.76970
 20
-12.6567
 30
0.000000
  70
    32
  0
VERTEX
  8
レイヤ__1
  5
735
 10
-9.78386
 20
-12.6455
 30
0.000000
  70
    32
  0
VERTEX
  8
レイヤ__1
  5
736
 10
-9.79837
 20
-12.6344
 30
0.000000
  70
    32
  0
VERTEX
  8
レイヤ__1
  5
737
 10
-9.81321
 20
-12.6234
 30
0.000000
  70
    32
  0
VERTEX
  8
レイヤ__1
  5
738
 10
-9.82839
 20
-12.6127
 30
0.000000
  70
    32
  0
VERTEX
  8
レイヤ__1
  5
739
 10
-9.84393
 20
-12.6021
 30
0.000000
  70
    32
  0
VERTEX
  8
レイヤ__1
  5
73A
 10
-9.85981
 20
-12.5917
 30
0.000000
  70
    32
  0
VERTEX
  8
レイヤ__1
  5
73B
 10
-9.87605
 20
-12.5815
 30
0.000000
  70
    32
  0
VERTEX
  8
レイヤ__1
  5
73C
 10
-9.89264
 20
-12.5715
 30
0.000000
  70
    32
  0
VERTEX
  8
レイヤ__1
  5
73D
 10
-9.90960
 20
-12.5617
 30
0.000000
  70
    32
  0
VERTEX
  8
レイヤ__1
  5
73E
 10
-9.92692
 20
-12.5521
 30
0.000000
  70
    32
  0
VERTEX
  8
レイヤ__1
  5
73F
 10
-9.94461
 20
-12.5426
 30
0.000000
  70
    32
  0
VERTEX
  8
レイヤ__1
  5
740
 10
-9.96267
 20
-12.5334
 30
0.000000
  70
    32
  0
VERTEX
  8
レイヤ__1
  5
741
 10
-9.98110
 20
-12.5244
 30
0.000000
  70
    32
  0
VERTEX
  8
レイヤ__1
  5
742
 10
-9.99992
 20
-12.5156
 30
0.000000
  70
    32
  0
VERTEX
  8
レイヤ__1
  5
743
 10
-10.0191
 20
-12.5071
 30
0.000000
  70
    32
  0
VERTEX
  8
レイヤ__1
  5
744
 10
-10.0387
 20
-12.4987
 30
0.000000
  70
    32
  0
VERTEX
  8
レイヤ__1
  5
745
 10
-10.0587
 20
-12.4906
 30
0.000000
  70
    32
  0
VERTEX
  8
レイヤ__1
  5
746
 10
-10.0790
 20
-12.4827
 30
0.000000
  70
    32
  0
VERTEX
  8
レイヤ__1
  5
747
 10
-10.0998
 20
-12.4751
 30
0.000000
  70
    32
  0
VERTEX
  8
レイヤ__1
  5
748
 10
-10.1209
 20
-12.4677
 30
0.000000
  70
    32
  0
VERTEX
  8
レイヤ__1
  5
749
 10
-10.1425
 20
-12.4606
 30
0.000000
  70
    32
  0
VERTEX
  8
レイヤ__1
  5
74A
 10
-10.1645
 20
-12.4537
 30
0.000000
  70
    32
  0
VERTEX
  8
レイヤ__1
  5
74B
 10
-10.1869
 20
-12.4471
 30
0.000000
  70
    32
  0
VERTEX
  8
レイヤ__1
  5
74C
 10
-10.2096
 20
-12.4407
 30
0.000000
  70
    32
  0
VERTEX
  8
レイヤ__1
  5
74D
 10
-10.2329
 20
-12.4346
 30
0.000000
  70
    32
  0
VERTEX
  8
レイヤ__1
  5
74E
 10
-10.2565
 20
-12.4288
 30
0.000000
  70
    32
  0
VERTEX
  8
レイヤ__1
  5
74F
 10
-10.2805
 20
-12.4232
 30
0.000000
  70
    32
  0
VERTEX
  8
レイヤ__1
  5
750
 10
-10.3050
 20
-12.4179
 30
0.000000
  70
    32
  0
VERTEX
  8
レイヤ__1
  5
751
 10
-10.3299
 20
-12.4129
 30
0.000000
  70
    32
  0
VERTEX
  8
レイヤ__1
  5
752
 10
-10.3553
 20
-12.4082
 30
0.000000
  70
    32
  0
VERTEX
  8
レイヤ__1
  5
753
 10
-10.3811
 20
-12.4038
 30
0.000000
  70
    32
  0
VERTEX
  8
レイヤ__1
  5
754
 10
-10.4073
 20
-12.3997
 30
0.000000
  70
    32
  0
VERTEX
  8
レイヤ__1
  5
755
 10
-10.4339
 20
-12.3959
 30
0.000000
  70
    32
  0
VERTEX
  8
レイヤ__1
  5
756
 10
-10.4611
 20
-12.3924
 30
0.000000
  70
    32
  0
VERTEX
  8
レイヤ__1
  5
757
 10
-10.4886
 20
-12.3892
 30
0.000000
  70
    32
  0
VERTEX
  8
レイヤ__1
  5
758
 10
-10.5167
 20
-12.3863
 30
0.000000
  70
    32
  0
VERTEX
  8
レイヤ__1
  5
759
 10
-10.5451
 20
-12.3838
 30
0.000000
  70
    32
  0
VERTEX
  8
レイヤ__1
  5
75A
 10
-10.5741
 20
-12.3816
 30
0.000000
  70
    32
  0
VERTEX
  8
レイヤ__1
  5
75B
 10
-10.6035
 20
-12.3797
 30
0.000000
  70
    32
  0
VERTEX
  8
レイヤ__1
  5
75C
 10
-10.6334
 20
-12.3781
 30
0.000000
  70
    32
  0
VERTEX
  8
レイヤ__1
  5
75D
 10
-10.6637
 20
-12.3769
 30
0.000000
  70
    32
  0
VERTEX
  8
レイヤ__1
  5
75E
 10
-10.6946
 20
-12.3760
 30
0.000000
  70
    32
  0
VERTEX
  8
レイヤ__1
  5
75F
 10
-10.7259
 20
-12.3755
 30
0.000000
  70
    32
  0
VERTEX
  8
レイヤ__1
  5
760
 10
-10.7577
 20
-12.3753
 30
0.000000
  70
    32
  0
SEQEND
  8
レイヤ__1
  5
761
  0
POLYLINE
  8
レイヤ__1
  5
762
  62
5
  66
     1
 10
0.000000
 20
0.000000
 30
0.000000
  70
     8
  0
VERTEX
  8
レイヤ__1
  5
763
 10
-5.47695
 20
-13.6059
 30
0.000000
  70
    32
  0
VERTEX
  8
レイヤ__1
  5
764
 10
-5.47704
 20
-13.5878
 30
0.000000
  70
    32
  0
VERTEX
  8
レイヤ__1
  5
765
 10
-5.47731
 20
-13.5698
 30
0.000000
  70
    32
  0
VERTEX
  8
レイヤ__1
  5
766
 10
-5.47777
 20
-13.5519
 30
0.000000
  70
    32
  0
VERTEX
  8
レイヤ__1
  5
767
 10
-5.47841
 20
-13.5341
 30
0.000000
  70
    32
  0
VERTEX
  8
レイヤ__1
  5
768
 10
-5.47923
 20
-13.5163
 30
0.000000
  70
    32
  0
VERTEX
  8
レイヤ__1
  5
769
 10
-5.48024
 20
-13.4986
 30
0.000000
  70
    32
  0
VERTEX
  8
レイヤ__1
  5
76A
 10
-5.48142
 20
-13.4810
 30
0.000000
  70
    32
  0
VERTEX
  8
レイヤ__1
  5
76B
 10
-5.48279
 20
-13.4635
 30
0.000000
  70
    32
  0
VERTEX
  8
レイヤ__1
  5
76C
 10
-5.48435
 20
-13.4461
 30
0.000000
  70
    32
  0
VERTEX
  8
レイヤ__1
  5
76D
 10
-5.48608
 20
-13.4288
 30
0.000000
  70
    32
  0
VERTEX
  8
レイヤ__1
  5
76E
 10
-5.48800
 20
-13.4116
 30
0.000000
  70
    32
  0
VERTEX
  8
レイヤ__1
  5
76F
 10
-5.49010
 20
-13.3944
 30
0.000000
  70
    32
  0
VERTEX
  8
レイヤ__1
  5
770
 10
-5.49238
 20
-13.3774
 30
0.000000
  70
    32
  0
VERTEX
  8
レイヤ__1
  5
771
 10
-5.49485
 20
-13.3604
 30
0.000000
  70
    32
  0
VERTEX
  8
レイヤ__1
  5
772
 10
-5.49749
 20
-13.3435
 30
0.000000
  70
    32
  0
VERTEX
  8
レイヤ__1
  5
773
 10
-5.50032
 20
-13.3268
 30
0.000000
  70
    32
  0
VERTEX
  8
レイヤ__1
  5
774
 10
-5.50334
 20
-13.3101
 30
0.000000
  70
    32
  0
VERTEX
  8
レイヤ__1
  5
775
 10
-5.50653
 20
-13.2935
 30
0.000000
  70
    32
  0
VERTEX
  8
レイヤ__1
  5
776
 10
-5.50991
 20
-13.2770
 30
0.000000
  70
    32
  0
VERTEX
  8
レイヤ__1
  5
777
 10
-5.51347
 20
-13.2606
 30
0.000000
  70
    32
  0
VERTEX
  8
レイヤ__1
  5
778
 10
-5.51722
 20
-13.2443
 30
0.000000
  70
    32
  0
VERTEX
  8
レイヤ__1
  5
779
 10
-5.52114
 20
-13.2281
 30
0.000000
  70
    32
  0
VERTEX
  8
レイヤ__1
  5
77A
 10
-5.52525
 20
-13.2120
 30
0.000000
  70
    32
  0
VERTEX
  8
レイヤ__1
  5
77B
 10
-5.52954
 20
-13.1961
 30
0.000000
  70
    32
  0
VERTEX
  8
レイヤ__1
  5
77C
 10
-5.53402
 20
-13.1802
 30
0.000000
  70
    32
  0
VERTEX
  8
レイヤ__1
  5
77D
 10
-5.53867
 20
-13.1644
 30
0.000000
  70
    32
  0
VERTEX
  8
レイヤ__1
  5
77E
 10
-5.54351
 20
-13.1487
 30
0.000000
  70
    32
  0
VERTEX
  8
レイヤ__1
  5
77F
 10
-5.54853
 20
-13.1331
 30
0.000000
  70
    32
  0
VERTEX
  8
レイヤ__1
  5
780
 10
-5.55374
 20
-13.1177
 30
0.000000
  70
    32
  0
VERTEX
  8
レイヤ__1
  5
781
 10
-5.55913
 20
-13.1023
 30
0.000000
  70
    32
  0
VERTEX
  8
レイヤ__1
  5
782
 10
-5.56469
 20
-13.0871
 30
0.000000
  70
    32
  0
VERTEX
  8
レイヤ__1
  5
783
 10
-5.57045
 20
-13.0719
 30
0.000000
  70
    32
  0
VERTEX
  8
レイヤ__1
  5
784
 10
-5.57638
 20
-13.0569
 30
0.000000
  70
    32
  0
VERTEX
  8
レイヤ__1
  5
785
 10
-5.58250
 20
-13.0420
 30
0.000000
  70
    32
  0
VERTEX
  8
レイヤ__1
  5
786
 10
-5.58880
 20
-13.0272
 30
0.000000
  70
    32
  0
VERTEX
  8
レイヤ__1
  5
787
 10
-5.59528
 20
-13.0125
 30
0.000000
  70
    32
  0
VERTEX
  8
レイヤ__1
  5
788
 10
-5.60195
 20
-12.9980
 30
0.000000
  70
    32
  0
VERTEX
  8
レイヤ__1
  5
789
 10
-5.60880
 20
-12.9835
 30
0.000000
  70
    32
  0
VERTEX
  8
レイヤ__1
  5
78A
 10
-5.61583
 20
-12.9692
 30
0.000000
  70
    32
  0
VERTEX
  8
レイヤ__1
  5
78B
 10
-5.62304
 20
-12.9549
 30
0.000000
  70
    32
  0
VERTEX
  8
レイヤ__1
  5
78C
 10
-5.63043
 20
-12.9409
 30
0.000000
  70
    32
  0
VERTEX
  8
レイヤ__1
  5
78D
 10
-5.63801
 20
-12.9269
 30
0.000000
  70
    32
  0
VERTEX
  8
レイヤ__1
  5
78E
 10
-5.64577
 20
-12.9130
 30
0.000000
  70
    32
  0
VERTEX
  8
レイヤ__1
  5
78F
 10
-5.65372
 20
-12.8993
 30
0.000000
  70
    32
  0
VERTEX
  8
レイヤ__1
  5
790
 10
-5.66184
 20
-12.8857
 30
0.000000
  70
    32
  0
VERTEX
  8
レイヤ__1
  5
791
 10
-5.67015
 20
-12.8722
 30
0.000000
  70
    32
  0
VERTEX
  8
レイヤ__1
  5
792
 10
-5.67864
 20
-12.8588
 30
0.000000
  70
    32
  0
VERTEX
  8
レイヤ__1
  5
793
 10
-5.68732
 20
-12.8456
 30
0.000000
  70
    32
  0
VERTEX
  8
レイヤ__1
  5
794
 10
-5.69617
 20
-12.8325
 30
0.000000
  70
    32
  0
VERTEX
  8
レイヤ__1
  5
795
 10
-5.70521
 20
-12.8195
 30
0.000000
  70
    32
  0
VERTEX
  8
レイヤ__1
  5
796
 10
-5.71443
 20
-12.8066
 30
0.000000
  70
    32
  0
VERTEX
  8
レイヤ__1
  5
797
 10
-5.72384
 20
-12.7939
 30
0.000000
  70
    32
  0
VERTEX
  8
レイヤ__1
  5
798
 10
-5.73342
 20
-12.7813
 30
0.000000
  70
    32
  0
VERTEX
  8
レイヤ__1
  5
799
 10
-5.74319
 20
-12.7689
 30
0.000000
  70
    32
  0
VERTEX
  8
レイヤ__1
  5
79A
 10
-5.75315
 20
-12.7565
 30
0.000000
  70
    32
  0
VERTEX
  8
レイヤ__1
  5
79B
 10
-5.76328
 20
-12.7443
 30
0.000000
  70
    32
  0
VERTEX
  8
レイヤ__1
  5
79C
 10
-5.77360
 20
-12.7323
 30
0.000000
  70
    32
  0
VERTEX
  8
レイヤ__1
  5
79D
 10
-5.78410
 20
-12.7204
 30
0.000000
  70
    32
  0
VERTEX
  8
レイヤ__1
  5
79E
 10
-5.79478
 20
-12.7086
 30
0.000000
  70
    32
  0
VERTEX
  8
レイヤ__1
  5
79F
 10
-5.80564
 20
-12.6969
 30
0.000000
  70
    32
  0
VERTEX
  8
レイヤ__1
  5
7A0
 10
-5.81669
 20
-12.6854
 30
0.000000
  70
    32
  0
VERTEX
  8
レイヤ__1
  5
7A1
 10
-5.82792
 20
-12.6741
 30
0.000000
  70
    32
  0
VERTEX
  8
レイヤ__1
  5
7A2
 10
-5.83934
 20
-12.6628
 30
0.000000
  70
    32
  0
VERTEX
  8
レイヤ__1
  5
7A3
 10
-5.85093
 20
-12.6517
 30
0.000000
  70
    32
  0
VERTEX
  8
レイヤ__1
  5
7A4
 10
-5.86271
 20
-12.6408
 30
0.000000
  70
    32
  0
VERTEX
  8
レイヤ__1
  5
7A5
 10
-5.87467
 20
-12.6300
 30
0.000000
  70
    32
  0
VERTEX
  8
レイヤ__1
  5
7A6
 10
-5.88681
 20
-12.6194
 30
0.000000
  70
    32
  0
VERTEX
  8
レイヤ__1
  5
7A7
 10
-5.89914
 20
-12.6089
 30
0.000000
  70
    32
  0
VERTEX
  8
レイヤ__1
  5
7A8
 10
-5.91165
 20
-12.5985
 30
0.000000
  70
    32
  0
VERTEX
  8
レイヤ__1
  5
7A9
 10
-5.92434
 20
-12.5883
 30
0.000000
  70
    32
  0
VERTEX
  8
レイヤ__1
  5
7AA
 10
-5.93721
 20
-12.5782
 30
0.000000
  70
    32
  0
VERTEX
  8
レイヤ__1
  5
7AB
 10
-5.95027
 20
-12.5683
 30
0.000000
  70
    32
  0
VERTEX
  8
レイヤ__1
  5
7AC
 10
-5.96351
 20
-12.5586
 30
0.000000
  70
    32
  0
VERTEX
  8
レイヤ__1
  5
7AD
 10
-5.97693
 20
-12.5490
 30
0.000000
  70
    32
  0
VERTEX
  8
レイヤ__1
  5
7AE
 10
-5.99053
 20
-12.5395
 30
0.000000
  70
    32
  0
VERTEX
  8
レイヤ__1
  5
7AF
 10
-6.00432
 20
-12.5302
 30
0.000000
  70
    32
  0
VERTEX
  8
レイヤ__1
  5
7B0
 10
-6.01829
 20
-12.5211
 30
0.000000
  70
    32
  0
VERTEX
  8
レイヤ__1
  5
7B1
 10
-6.03244
 20
-12.5121
 30
0.000000
  70
    32
  0
VERTEX
  8
レイヤ__1
  5
7B2
 10
-6.04677
 20
-12.5033
 30
0.000000
  70
    32
  0
VERTEX
  8
レイヤ__1
  5
7B3
 10
-6.06129
 20
-12.4946
 30
0.000000
  70
    32
  0
VERTEX
  8
レイヤ__1
  5
7B4
 10
-6.07599
 20
-12.4861
 30
0.000000
  70
    32
  0
VERTEX
  8
レイヤ__1
  5
7B5
 10
-6.09087
 20
-12.4777
 30
0.000000
  70
    32
  0
VERTEX
  8
レイヤ__1
  5
7B6
 10
-6.10593
 20
-12.4695
 30
0.000000
  70
    32
  0
VERTEX
  8
レイヤ__1
  5
7B7
 10
-6.12118
 20
-12.4615
 30
0.000000
  70
    32
  0
VERTEX
  8
レイヤ__1
  5
7B8
 10
-6.13661
 20
-12.4536
 30
0.000000
  70
    32
  0
VERTEX
  8
レイヤ__1
  5
7B9
 10
-6.15222
 20
-12.4459
 30
0.000000
  70
    32
  0
VERTEX
  8
レイヤ__1
  5
7BA
 10
-6.16802
 20
-12.4384
 30
0.000000
  70
    32
  0
VERTEX
  8
レイヤ__1
  5
7BB
 10
-6.18400
 20
-12.4310
 30
0.000000
  70
    32
  0
VERTEX
  8
レイヤ__1
  5
7BC
 10
-6.20016
 20
-12.4238
 30
0.000000
  70
    32
  0
VERTEX
  8
レイヤ__1
  5
7BD
 10
-6.21650
 20
-12.4168
 30
0.000000
  70
    32
  0
VERTEX
  8
レイヤ__1
  5
7BE
 10
-6.23302
 20
-12.4099
 30
0.000000
  70
    32
  0
VERTEX
  8
レイヤ__1
  5
7BF
 10
-6.24973
 20
-12.4032
 30
0.000000
  70
    32
  0
VERTEX
  8
レイヤ__1
  5
7C0
 10
-6.26662
 20
-12.3967
 30
0.000000
  70
    32
  0
VERTEX
  8
レイヤ__1
  5
7C1
 10
-6.28369
 20
-12.3904
 30
0.000000
  70
    32
  0
VERTEX
  8
レイヤ__1
  5
7C2
 10
-6.30095
 20
-12.3842
 30
0.000000
  70
    32
  0
VERTEX
  8
レイヤ__1
  5
7C3
 10
-6.31839
 20
-12.3782
 30
0.000000
  70
    32
  0
VERTEX
  8
レイヤ__1
  5
7C4
 10
-6.33601
 20
-12.3723
 30
0.000000
  70
    32
  0
VERTEX
  8
レイヤ__1
  5
7C5
 10
-6.35381
 20
-12.3667
 30
0.000000
  70
    32
  0
VERTEX
  8
レイヤ__1
  5
7C6
 10
-6.37180
 20
-12.3612
 30
0.000000
  70
    32
  0
VERTEX
  8
レイヤ__1
  5
7C7
 10
-6.38997
 20
-12.3559
 30
0.000000
  70
    32
  0
VERTEX
  8
レイヤ__1
  5
7C8
 10
-6.40832
 20
-12.3508
 30
0.000000
  70
    32
  0
VERTEX
  8
レイヤ__1
  5
7C9
 10
-6.42685
 20
-12.3459
 30
0.000000
  70
    32
  0
VERTEX
  8
レイヤ__1
  5
7CA
 10
-6.44557
 20
-12.3411
 30
0.000000
  70
    32
  0
VERTEX
  8
レイヤ__1
  5
7CB
 10
-6.46447
 20
-12.3365
 30
0.000000
  70
    32
  0
VERTEX
  8
レイヤ__1
  5
7CC
 10
-6.48355
 20
-12.3322
 30
0.000000
  70
    32
  0
VERTEX
  8
レイヤ__1
  5
7CD
 10
-6.50281
 20
-12.3279
 30
0.000000
  70
    32
  0
VERTEX
  8
レイヤ__1
  5
7CE
 10
-6.52226
 20
-12.3239
 30
0.000000
  70
    32
  0
VERTEX
  8
レイヤ__1
  5
7CF
 10
-6.54189
 20
-12.3201
 30
0.000000
  70
    32
  0
VERTEX
  8
レイヤ__1
  5
7D0
 10
-6.56170
 20
-12.3164
 30
0.000000
  70
    32
  0
VERTEX
  8
レイヤ__1
  5
7D1
 10
-6.58169
 20
-12.3130
 30
0.000000
  70
    32
  0
VERTEX
  8
レイヤ__1
  5
7D2
 10
-6.60187
 20
-12.3097
 30
0.000000
  70
    32
  0
VERTEX
  8
レイヤ__1
  5
7D3
 10
-6.62223
 20
-12.3066
 30
0.000000
  70
    32
  0
VERTEX
  8
レイヤ__1
  5
7D4
 10
-6.64277
 20
-12.3038
 30
0.000000
  70
    32
  0
VERTEX
  8
レイヤ__1
  5
7D5
 10
-6.66349
 20
-12.3011
 30
0.000000
  70
    32
  0
VERTEX
  8
レイヤ__1
  5
7D6
 10
-6.68440
 20
-12.2986
 30
0.000000
  70
    32
  0
VERTEX
  8
レイヤ__1
  5
7D7
 10
-6.70549
 20
-12.2963
 30
0.000000
  70
    32
  0
VERTEX
  8
レイヤ__1
  5
7D8
 10
-6.72676
 20
-12.2941
 30
0.000000
  70
    32
  0
VERTEX
  8
レイヤ__1
  5
7D9
 10
-6.74822
 20
-12.2922
 30
0.000000
  70
    32
  0
VERTEX
  8
レイヤ__1
  5
7DA
 10
-6.76986
 20
-12.2905
 30
0.000000
  70
    32
  0
VERTEX
  8
レイヤ__1
  5
7DB
 10
-6.79168
 20
-12.2890
 30
0.000000
  70
    32
  0
VERTEX
  8
レイヤ__1
  5
7DC
 10
-6.81368
 20
-12.2877
 30
0.000000
  70
    32
  0
VERTEX
  8
レイヤ__1
  5
7DD
 10
-6.83586
 20
-12.2865
 30
0.000000
  70
    32
  0
VERTEX
  8
レイヤ__1
  5
7DE
 10
-6.85823
 20
-12.2856
 30
0.000000
  70
    32
  0
VERTEX
  8
レイヤ__1
  5
7DF
 10
-6.88078
 20
-12.2849
 30
0.000000
  70
    32
  0
VERTEX
  8
レイヤ__1
  5
7E0
 10
-6.90351
 20
-12.2844
 30
0.000000
  70
    32
  0
VERTEX
  8
レイヤ__1
  5
7E1
 10
-6.92643
 20
-12.2841
 30
0.000000
  70
    32
  0
VERTEX
  8
レイヤ__1
  5
7E2
 10
-6.94953
 20
-12.2840
 30
0.000000
  70
    32
  0
SEQEND
  8
レイヤ__1
  5
7E3
  0
POLYLINE
  8
レイヤ__1
  5
7E4
  62
5
  66
     1
 10
0.000000
 20
0.000000
 30
0.000000
  70
     8
  0
VERTEX
  8
レイヤ__1
  5
7E5
 10
-6.94953
 20
-12.2840
 30
0.000000
  70
    32
  0
VERTEX
  8
レイヤ__1
  5
7E6
 10
-6.97250
 20
-12.2841
 30
0.000000
  70
    32
  0
VERTEX
  8
レイヤ__1
  5
7E7
 10
-6.99547
 20
-12.2843
 30
0.000000
  70
    32
  0
VERTEX
  8
レイヤ__1
  5
7E8
 10
-7.01843
 20
-12.2846
 30
0.000000
  70
    32
  0
VERTEX
  8
レイヤ__1
  5
7E9
 10
-7.04139
 20
-12.2851
 30
0.000000
  70
    32
  0
VERTEX
  8
レイヤ__1
  5
7EA
 10
-7.06433
 20
-12.2857
 30
0.000000
  70
    32
  0
VERTEX
  8
レイヤ__1
  5
7EB
 10
-7.08727
 20
-12.2864
 30
0.000000
  70
    32
  0
VERTEX
  8
レイヤ__1
  5
7EC
 10
-7.11019
 20
-12.2873
 30
0.000000
  70
    32
  0
VERTEX
  8
レイヤ__1
  5
7ED
 10
-7.13310
 20
-12.2884
 30
0.000000
  70
    32
  0
VERTEX
  8
レイヤ__1
  5
7EE
 10
-7.15598
 20
-12.2896
 30
0.000000
  70
    32
  0
VERTEX
  8
レイヤ__1
  5
7EF
 10
-7.17885
 20
-12.2909
 30
0.000000
  70
    32
  0
VERTEX
  8
レイヤ__1
  5
7F0
 10
-7.20170
 20
-12.2925
 30
0.000000
  70
    32
  0
VERTEX
  8
レイヤ__1
  5
7F1
 10
-7.22452
 20
-12.2941
 30
0.000000
  70
    32
  0
VERTEX
  8
レイヤ__1
  5
7F2
 10
-7.24732
 20
-12.2960
 30
0.000000
  70
    32
  0
VERTEX
  8
レイヤ__1
  5
7F3
 10
-7.27009
 20
-12.2979
 30
0.000000
  70
    32
  0
VERTEX
  8
レイヤ__1
  5
7F4
 10
-7.29284
 20
-12.3001
 30
0.000000
  70
    32
  0
VERTEX
  8
レイヤ__1
  5
7F5
 10
-7.31555
 20
-12.3024
 30
0.000000
  70
    32
  0
VERTEX
  8
レイヤ__1
  5
7F6
 10
-7.33823
 20
-12.3049
 30
0.000000
  70
    32
  0
VERTEX
  8
レイヤ__1
  5
7F7
 10
-7.36087
 20
-12.3076
 30
0.000000
  70
    32
  0
VERTEX
  8
レイヤ__1
  5
7F8
 10
-7.38347
 20
-12.3105
 30
0.000000
  70
    32
  0
VERTEX
  8
レイヤ__1
  5
7F9
 10
-7.40604
 20
-12.3135
 30
0.000000
  70
    32
  0
VERTEX
  8
レイヤ__1
  5
7FA
 10
-7.42856
 20
-12.3167
 30
0.000000
  70
    32
  0
VERTEX
  8
レイヤ__1
  5
7FB
 10
-7.45105
 20
-12.3201
 30
0.000000
  70
    32
  0
VERTEX
  8
レイヤ__1
  5
7FC
 10
-7.47348
 20
-12.3237
 30
0.000000
  70
    32
  0
VERTEX
  8
レイヤ__1
  5
7FD
 10
-7.49587
 20
-12.3274
 30
0.000000
  70
    32
  0
VERTEX
  8
レイヤ__1
  5
7FE
 10
-7.51821
 20
-12.3314
 30
0.000000
  70
    32
  0
VERTEX
  8
レイヤ__1
  5
7FF
 10
-7.54050
 20
-12.3355
 30
0.000000
  70
    32
  0
VERTEX
  8
レイヤ__1
  5
800
 10
-7.56274
 20
-12.3399
 30
0.000000
  70
    32
  0
VERTEX
  8
レイヤ__1
  5
801
 10
-7.58492
 20
-12.3444
 30
0.000000
  70
    32
  0
VERTEX
  8
レイヤ__1
  5
802
 10
-7.60704
 20
-12.3492
 30
0.000000
  70
    32
  0
VERTEX
  8
レイヤ__1
  5
803
 10
-7.62911
 20
-12.3541
 30
0.000000
  70
    32
  0
VERTEX
  8
レイヤ__1
  5
804
 10
-7.65112
 20
-12.3593
 30
0.000000
  70
    32
  0
VERTEX
  8
レイヤ__1
  5
805
 10
-7.67306
 20
-12.3646
 30
0.000000
  70
    32
  0
VERTEX
  8
レイヤ__1
  5
806
 10
-7.69493
 20
-12.3702
 30
0.000000
  70
    32
  0
VERTEX
  8
レイヤ__1
  5
807
 10
-7.71674
 20
-12.3760
 30
0.000000
  70
    32
  0
VERTEX
  8
レイヤ__1
  5
808
 10
-7.73849
 20
-12.3820
 30
0.000000
  70
    32
  0
VERTEX
  8
レイヤ__1
  5
809
 10
-7.76016
 20
-12.3882
 30
0.000000
  70
    32
  0
VERTEX
  8
レイヤ__1
  5
80A
 10
-7.78176
 20
-12.3946
 30
0.000000
  70
    32
  0
VERTEX
  8
レイヤ__1
  5
80B
 10
-7.80328
 20
-12.4013
 30
0.000000
  70
    32
  0
VERTEX
  8
レイヤ__1
  5
80C
 10
-7.82473
 20
-12.4082
 30
0.000000
  70
    32
  0
VERTEX
  8
レイヤ__1
  5
80D
 10
-7.84609
 20
-12.4153
 30
0.000000
  70
    32
  0
VERTEX
  8
レイヤ__1
  5
80E
 10
-7.86738
 20
-12.4227
 30
0.000000
  70
    32
  0
VERTEX
  8
レイヤ__1
  5
80F
 10
-7.88859
 20
-12.4302
 30
0.000000
  70
    32
  0
VERTEX
  8
レイヤ__1
  5
810
 10
-7.90971
 20
-12.4381
 30
0.000000
  70
    32
  0
VERTEX
  8
レイヤ__1
  5
811
 10
-7.93074
 20
-12.4461
 30
0.000000
  70
    32
  0
VERTEX
  8
レイヤ__1
  5
812
 10
-7.95169
 20
-12.4544
 30
0.000000
  70
    32
  0
VERTEX
  8
レイヤ__1
  5
813
 10
-7.97254
 20
-12.4629
 30
0.000000
  70
    32
  0
VERTEX
  8
レイヤ__1
  5
814
 10
-7.99330
 20
-12.4717
 30
0.000000
  70
    32
  0
VERTEX
  8
レイヤ__1
  5
815
 10
-8.01397
 20
-12.4808
 30
0.000000
  70
    32
  0
VERTEX
  8
レイヤ__1
  5
816
 10
-8.03454
 20
-12.4901
 30
0.000000
  70
    32
  0
VERTEX
  8
レイヤ__1
  5
817
 10
-8.05502
 20
-12.4996
 30
0.000000
  70
    32
  0
VERTEX
  8
レイヤ__1
  5
818
 10
-8.07539
 20
-12.5094
 30
0.000000
  70
    32
  0
VERTEX
  8
レイヤ__1
  5
819
 10
-8.09566
 20
-12.5194
 30
0.000000
  70
    32
  0
VERTEX
  8
レイヤ__1
  5
81A
 10
-8.11582
 20
-12.5298
 30
0.000000
  70
    32
  0
VERTEX
  8
レイヤ__1
  5
81B
 10
-8.13588
 20
-12.5403
 30
0.000000
  70
    32
  0
VERTEX
  8
レイヤ__1
  5
81C
 10
-8.15584
 20
-12.5512
 30
0.000000
  70
    32
  0
VERTEX
  8
レイヤ__1
  5
81D
 10
-8.17568
 20
-12.5623
 30
0.000000
  70
    32
  0
VERTEX
  8
レイヤ__1
  5
81E
 10
-8.19541
 20
-12.5737
 30
0.000000
  70
    32
  0
VERTEX
  8
レイヤ__1
  5
81F
 10
-8.21502
 20
-12.5853
 30
0.000000
  70
    32
  0
VERTEX
  8
レイヤ__1
  5
820
 10
-8.23452
 20
-12.5973
 30
0.000000
  70
    32
  0
VERTEX
  8
レイヤ__1
  5
821
 10
-8.25390
 20
-12.6095
 30
0.000000
  70
    32
  0
VERTEX
  8
レイヤ__1
  5
822
 10
-8.27316
 20
-12.6220
 30
0.000000
  70
    32
  0
VERTEX
  8
レイヤ__1
  5
823
 10
-8.29230
 20
-12.6347
 30
0.000000
  70
    32
  0
VERTEX
  8
レイヤ__1
  5
824
 10
-8.31131
 20
-12.6478
 30
0.000000
  70
    32
  0
VERTEX
  8
レイヤ__1
  5
825
 10
-8.33020
 20
-12.6611
 30
0.000000
  70
    32
  0
VERTEX
  8
レイヤ__1
  5
826
 10
-8.34896
 20
-12.6748
 30
0.000000
  70
    32
  0
VERTEX
  8
レイヤ__1
  5
827
 10
-8.36759
 20
-12.6887
 30
0.000000
  70
    32
  0
VERTEX
  8
レイヤ__1
  5
828
 10
-8.38609
 20
-12.7029
 30
0.000000
  70
    32
  0
VERTEX
  8
レイヤ__1
  5
829
 10
-8.40446
 20
-12.7175
 30
0.000000
  70
    32
  0
VERTEX
  8
レイヤ__1
  5
82A
 10
-8.42269
 20
-12.7323
 30
0.000000
  70
    32
  0
VERTEX
  8
レイヤ__1
  5
82B
 10
-8.44078
 20
-12.7474
 30
0.000000
  70
    32
  0
VERTEX
  8
レイヤ__1
  5
82C
 10
-8.45873
 20
-12.7629
 30
0.000000
  70
    32
  0
VERTEX
  8
レイヤ__1
  5
82D
 10
-8.47654
 20
-12.7786
 30
0.000000
  70
    32
  0
VERTEX
  8
レイヤ__1
  5
82E
 10
-8.49420
 20
-12.7947
 30
0.000000
  70
    32
  0
VERTEX
  8
レイヤ__1
  5
82F
 10
-8.51172
 20
-12.8110
 30
0.000000
  70
    32
  0
VERTEX
  8
レイヤ__1
  5
830
 10
-8.52909
 20
-12.8277
 30
0.000000
  70
    32
  0
VERTEX
  8
レイヤ__1
  5
831
 10
-8.54632
 20
-12.8447
 30
0.000000
  70
    32
  0
VERTEX
  8
レイヤ__1
  5
832
 10
-8.56339
 20
-12.8620
 30
0.000000
  70
    32
  0
VERTEX
  8
レイヤ__1
  5
833
 10
-8.58030
 20
-12.8797
 30
0.000000
  70
    32
  0
VERTEX
  8
レイヤ__1
  5
834
 10
-8.59707
 20
-12.8977
 30
0.000000
  70
    32
  0
VERTEX
  8
レイヤ__1
  5
835
 10
-8.61367
 20
-12.9160
 30
0.000000
  70
    32
  0
VERTEX
  8
レイヤ__1
  5
836
 10
-8.63011
 20
-12.9346
 30
0.000000
  70
    32
  0
VERTEX
  8
レイヤ__1
  5
837
 10
-8.64640
 20
-12.9536
 30
0.000000
  70
    32
  0
VERTEX
  8
レイヤ__1
  5
838
 10
-8.66252
 20
-12.9729
 30
0.000000
  70
    32
  0
VERTEX
  8
レイヤ__1
  5
839
 10
-8.67847
 20
-12.9925
 30
0.000000
  70
    32
  0
VERTEX
  8
レイヤ__1
  5
83A
 10
-8.69426
 20
-13.0125
 30
0.000000
  70
    32
  0
VERTEX
  8
レイヤ__1
  5
83B
 10
-8.70987
 20
-13.0328
 30
0.000000
  70
    32
  0
VERTEX
  8
レイヤ__1
  5
83C
 10
-8.72532
 20
-13.0535
 30
0.000000
  70
    32
  0
VERTEX
  8
レイヤ__1
  5
83D
 10
-8.74059
 20
-13.0745
 30
0.000000
  70
    32
  0
VERTEX
  8
レイヤ__1
  5
83E
 10
-8.75569
 20
-13.0959
 30
0.000000
  70
    32
  0
VERTEX
  8
レイヤ__1
  5
83F
 10
-8.77061
 20
-13.1176
 30
0.000000
  70
    32
  0
VERTEX
  8
レイヤ__1
  5
840
 10
-8.78535
 20
-13.1397
 30
0.000000
  70
    32
  0
VERTEX
  8
レイヤ__1
  5
841
 10
-8.79990
 20
-13.1621
 30
0.000000
  70
    32
  0
VERTEX
  8
レイヤ__1
  5
842
 10
-8.81428
 20
-13.1849
 30
0.000000
  70
    32
  0
VERTEX
  8
レイヤ__1
  5
843
 10
-8.82847
 20
-13.2081
 30
0.000000
  70
    32
  0
VERTEX
  8
レイヤ__1
  5
844
 10
-8.84247
 20
-13.2316
 30
0.000000
  70
    32
  0
VERTEX
  8
レイヤ__1
  5
845
 10
-8.85629
 20
-13.2555
 30
0.000000
  70
    32
  0
VERTEX
  8
レイヤ__1
  5
846
 10
-8.86991
 20
-13.2798
 30
0.000000
  70
    32
  0
VERTEX
  8
レイヤ__1
  5
847
 10
-8.88334
 20
-13.3044
 30
0.000000
  70
    32
  0
VERTEX
  8
レイヤ__1
  5
848
 10
-8.89657
 20
-13.3294
 30
0.000000
  70
    32
  0
VERTEX
  8
レイヤ__1
  5
849
 10
-8.90961
 20
-13.3548
 30
0.000000
  70
    32
  0
VERTEX
  8
レイヤ__1
  5
84A
 10
-8.92245
 20
-13.3806
 30
0.000000
  70
    32
  0
VERTEX
  8
レイヤ__1
  5
84B
 10
-8.93508
 20
-13.4068
 30
0.000000
  70
    32
  0
VERTEX
  8
レイヤ__1
  5
84C
 10
-8.94752
 20
-13.4333
 30
0.000000
  70
    32
  0
VERTEX
  8
レイヤ__1
  5
84D
 10
-8.95975
 20
-13.4602
 30
0.000000
  70
    32
  0
VERTEX
  8
レイヤ__1
  5
84E
 10
-8.97177
 20
-13.4876
 30
0.000000
  70
    32
  0
VERTEX
  8
レイヤ__1
  5
84F
 10
-8.98358
 20
-13.5153
 30
0.000000
  70
    32
  0
VERTEX
  8
レイヤ__1
  5
850
 10
-8.99519
 20
-13.5434
 30
0.000000
  70
    32
  0
VERTEX
  8
レイヤ__1
  5
851
 10
-9.00658
 20
-13.5719
 30
0.000000
  70
    32
  0
VERTEX
  8
レイヤ__1
  5
852
 10
-9.01775
 20
-13.6008
 30
0.000000
  70
    32
  0
VERTEX
  8
レイヤ__1
  5
853
 10
-9.02871
 20
-13.6301
 30
0.000000
  70
    32
  0
VERTEX
  8
レイヤ__1
  5
854
 10
-9.03945
 20
-13.6599
 30
0.000000
  70
    32
  0
VERTEX
  8
レイヤ__1
  5
855
 10
-9.04997
 20
-13.6900
 30
0.000000
  70
    32
  0
VERTEX
  8
レイヤ__1
  5
856
 10
-9.06026
 20
-13.7205
 30
0.000000
  70
    32
  0
VERTEX
  8
レイヤ__1
  5
857
 10
-9.07033
 20
-13.7515
 30
0.000000
  70
    32
  0
VERTEX
  8
レイヤ__1
  5
858
 10
-9.08018
 20
-13.7828
 30
0.000000
  70
    32
  0
VERTEX
  8
レイヤ__1
  5
859
 10
-9.08979
 20
-13.8146
 30
0.000000
  70
    32
  0
VERTEX
  8
レイヤ__1
  5
85A
 10
-9.09918
 20
-13.8468
 30
0.000000
  70
    32
  0
VERTEX
  8
レイヤ__1
  5
85B
 10
-9.10833
 20
-13.8795
 30
0.000000
  70
    32
  0
VERTEX
  8
レイヤ__1
  5
85C
 10
-9.11725
 20
-13.9125
 30
0.000000
  70
    32
  0
VERTEX
  8
レイヤ__1
  5
85D
 10
-9.12593
 20
-13.9460
 30
0.000000
  70
    32
  0
VERTEX
  8
レイヤ__1
  5
85E
 10
-9.13437
 20
-13.9799
 30
0.000000
  70
    32
  0
VERTEX
  8
レイヤ__1
  5
85F
 10
-9.14257
 20
-14.0143
 30
0.000000
  70
    32
  0
VERTEX
  8
レイヤ__1
  5
860
 10
-9.15053
 20
-14.0491
 30
0.000000
  70
    32
  0
VERTEX
  8
レイヤ__1
  5
861
 10
-9.15825
 20
-14.0843
 30
0.000000
  70
    32
  0
VERTEX
  8
レイヤ__1
  5
862
 10
-9.16572
 20
-14.1200
 30
0.000000
  70
    32
  0
VERTEX
  8
レイヤ__1
  5
863
 10
-9.17294
 20
-14.1561
 30
0.000000
  70
    32
  0
VERTEX
  8
レイヤ__1
  5
864
 10
-9.17991
 20
-14.1926
 30
0.000000
  70
    32
  0
SEQEND
  8
レイヤ__1
  5
865
  0
POLYLINE
  8
レイヤ__1
  5
866
  62
5
  66
     1
 10
0.000000
 20
0.000000
 30
0.000000
  70
     8
  0
VERTEX
  8
レイヤ__1
  5
867
 10
-10.9323
 20
-13.3068
 30
0.000000
  70
    32
  0
VERTEX
  8
レイヤ__1
  5
868
 10
-10.9225
 20
-13.3070
 30
0.000000
  70
    32
  0
VERTEX
  8
レイヤ__1
  5
869
 10
-10.9128
 20
-13.3074
 30
0.000000
  70
    32
  0
VERTEX
  8
レイヤ__1
  5
86A
 10
-10.9033
 20
-13.3081
 30
0.000000
  70
    32
  0
VERTEX
  8
レイヤ__1
  5
86B
 10
-10.8940
 20
-13.3091
 30
0.000000
  70
    32
  0
VERTEX
  8
レイヤ__1
  5
86C
 10
-10.8849
 20
-13.3104
 30
0.000000
  70
    32
  0
VERTEX
  8
レイヤ__1
  5
86D
 10
-10.8759
 20
-13.3119
 30
0.000000
  70
    32
  0
VERTEX
  8
レイヤ__1
  5
86E
 10
-10.8671
 20
-13.3137
 30
0.000000
  70
    32
  0
VERTEX
  8
レイヤ__1
  5
86F
 10
-10.8584
 20
-13.3158
 30
0.000000
  70
    32
  0
VERTEX
  8
レイヤ__1
  5
870
 10
-10.8499
 20
-13.3181
 30
0.000000
  70
    32
  0
VERTEX
  8
レイヤ__1
  5
871
 10
-10.8416
 20
-13.3207
 30
0.000000
  70
    32
  0
VERTEX
  8
レイヤ__1
  5
872
 10
-10.8334
 20
-13.3235
 30
0.000000
  70
    32
  0
VERTEX
  8
レイヤ__1
  5
873
 10
-10.8254
 20
-13.3265
 30
0.000000
  70
    32
  0
VERTEX
  8
レイヤ__1
  5
874
 10
-10.8176
 20
-13.3298
 30
0.000000
  70
    32
  0
VERTEX
  8
レイヤ__1
  5
875
 10
-10.8099
 20
-13.3333
 30
0.000000
  70
    32
  0
VERTEX
  8
レイヤ__1
  5
876
 10
-10.8025
 20
-13.3371
 30
0.000000
  70
    32
  0
VERTEX
  8
レイヤ__1
  5
877
 10
-10.7951
 20
-13.3411
 30
0.000000
  70
    32
  0
VERTEX
  8
レイヤ__1
  5
878
 10
-10.7880
 20
-13.3453
 30
0.000000
  70
    32
  0
VERTEX
  8
レイヤ__1
  5
879
 10
-10.7810
 20
-13.3497
 30
0.000000
  70
    32
  0
VERTEX
  8
レイヤ__1
  5
87A
 10
-10.7742
 20
-13.3543
 30
0.000000
  70
    32
  0
VERTEX
  8
レイヤ__1
  5
87B
 10
-10.7675
 20
-13.3591
 30
0.000000
  70
    32
  0
VERTEX
  8
レイヤ__1
  5
87C
 10
-10.7610
 20
-13.3641
 30
0.000000
  70
    32
  0
VERTEX
  8
レイヤ__1
  5
87D
 10
-10.7547
 20
-13.3694
 30
0.000000
  70
    32
  0
VERTEX
  8
レイヤ__1
  5
87E
 10
-10.7486
 20
-13.3748
 30
0.000000
  70
    32
  0
VERTEX
  8
レイヤ__1
  5
87F
 10
-10.7426
 20
-13.3804
 30
0.000000
  70
    32
  0
VERTEX
  8
レイヤ__1
  5
880
 10
-10.7368
 20
-13.3861
 30
0.000000
  70
    32
  0
VERTEX
  8
レイヤ__1
  5
881
 10
-10.7312
 20
-13.3921
 30
0.000000
  70
    32
  0
VERTEX
  8
レイヤ__1
  5
882
 10
-10.7257
 20
-13.3982
 30
0.000000
  70
    32
  0
VERTEX
  8
レイヤ__1
  5
883
 10
-10.7204
 20
-13.4045
 30
0.000000
  70
    32
  0
VERTEX
  8
レイヤ__1
  5
884
 10
-10.7153
 20
-13.4110
 30
0.000000
  70
    32
  0
VERTEX
  8
レイヤ__1
  5
885
 10
-10.7103
 20
-13.4176
 30
0.000000
  70
    32
  0
VERTEX
  8
レイヤ__1
  5
886
 10
-10.7055
 20
-13.4244
 30
0.000000
  70
    32
  0
VERTEX
  8
レイヤ__1
  5
887
 10
-10.7009
 20
-13.4313
 30
0.000000
  70
    32
  0
VERTEX
  8
レイヤ__1
  5
888
 10
-10.6965
 20
-13.4383
 30
0.000000
  70
    32
  0
VERTEX
  8
レイヤ__1
  5
889
 10
-10.6922
 20
-13.4455
 30
0.000000
  70
    32
  0
VERTEX
  8
レイヤ__1
  5
88A
 10
-10.6881
 20
-13.4529
 30
0.000000
  70
    32
  0
VERTEX
  8
レイヤ__1
  5
88B
 10
-10.6842
 20
-13.4604
 30
0.000000
  70
    32
  0
VERTEX
  8
レイヤ__1
  5
88C
 10
-10.6804
 20
-13.4680
 30
0.000000
  70
    32
  0
VERTEX
  8
レイヤ__1
  5
88D
 10
-10.6768
 20
-13.4757
 30
0.000000
  70
    32
  0
VERTEX
  8
レイヤ__1
  5
88E
 10
-10.6734
 20
-13.4835
 30
0.000000
  70
    32
  0
VERTEX
  8
レイヤ__1
  5
88F
 10
-10.6702
 20
-13.4915
 30
0.000000
  70
    32
  0
VERTEX
  8
レイヤ__1
  5
890
 10
-10.6671
 20
-13.4995
 30
0.000000
  70
    32
  0
VERTEX
  8
レイヤ__1
  5
891
 10
-10.6642
 20
-13.5077
 30
0.000000
  70
    32
  0
VERTEX
  8
レイヤ__1
  5
892
 10
-10.6615
 20
-13.5160
 30
0.000000
  70
    32
  0
VERTEX
  8
レイヤ__1
  5
893
 10
-10.6589
 20
-13.5243
 30
0.000000
  70
    32
  0
VERTEX
  8
レイヤ__1
  5
894
 10
-10.6566
 20
-13.5328
 30
0.000000
  70
    32
  0
VERTEX
  8
レイヤ__1
  5
895
 10
-10.6544
 20
-13.5413
 30
0.000000
  70
    32
  0
VERTEX
  8
レイヤ__1
  5
896
 10
-10.6523
 20
-13.5499
 30
0.000000
  70
    32
  0
VERTEX
  8
レイヤ__1
  5
897
 10
-10.6505
 20
-13.5586
 30
0.000000
  70
    32
  0
VERTEX
  8
レイヤ__1
  5
898
 10
-10.6488
 20
-13.5673
 30
0.000000
  70
    32
  0
VERTEX
  8
レイヤ__1
  5
899
 10
-10.6473
 20
-13.5762
 30
0.000000
  70
    32
  0
VERTEX
  8
レイヤ__1
  5
89A
 10
-10.6460
 20
-13.5851
 30
0.000000
  70
    32
  0
VERTEX
  8
レイヤ__1
  5
89B
 10
-10.6448
 20
-13.5940
 30
0.000000
  70
    32
  0
VERTEX
  8
レイヤ__1
  5
89C
 10
-10.6439
 20
-13.6030
 30
0.000000
  70
    32
  0
VERTEX
  8
レイヤ__1
  5
89D
 10
-10.6430
 20
-13.6120
 30
0.000000
  70
    32
  0
VERTEX
  8
レイヤ__1
  5
89E
 10
-10.6424
 20
-13.6211
 30
0.000000
  70
    32
  0
VERTEX
  8
レイヤ__1
  5
89F
 10
-10.6420
 20
-13.6303
 30
0.000000
  70
    32
  0
VERTEX
  8
レイヤ__1
  5
8A0
 10
-10.6417
 20
-13.6394
 30
0.000000
  70
    32
  0
VERTEX
  8
レイヤ__1
  5
8A1
 10
-10.6416
 20
-13.6486
 30
0.000000
  70
    32
  0
VERTEX
  8
レイヤ__1
  5
8A2
 10
-10.6417
 20
-13.6578
 30
0.000000
  70
    32
  0
VERTEX
  8
レイヤ__1
  5
8A3
 10
-10.6419
 20
-13.6671
 30
0.000000
  70
    32
  0
VERTEX
  8
レイヤ__1
  5
8A4
 10
-10.6424
 20
-13.6763
 30
0.000000
  70
    32
  0
VERTEX
  8
レイヤ__1
  5
8A5
 10
-10.6430
 20
-13.6856
 30
0.000000
  70
    32
  0
VERTEX
  8
レイヤ__1
  5
8A6
 10
-10.6438
 20
-13.6949
 30
0.000000
  70
    32
  0
VERTEX
  8
レイヤ__1
  5
8A7
 10
-10.6447
 20
-13.7042
 30
0.000000
  70
    32
  0
VERTEX
  8
レイヤ__1
  5
8A8
 10
-10.6459
 20
-13.7134
 30
0.000000
  70
    32
  0
VERTEX
  8
レイヤ__1
  5
8A9
 10
-10.6472
 20
-13.7227
 30
0.000000
  70
    32
  0
VERTEX
  8
レイヤ__1
  5
8AA
 10
-10.6487
 20
-13.7319
 30
0.000000
  70
    32
  0
VERTEX
  8
レイヤ__1
  5
8AB
 10
-10.6504
 20
-13.7412
 30
0.000000
  70
    32
  0
VERTEX
  8
レイヤ__1
  5
8AC
 10
-10.6522
 20
-13.7504
 30
0.000000
  70
    32
  0
VERTEX
  8
レイヤ__1
  5
8AD
 10
-10.6542
 20
-13.7596
 30
0.000000
  70
    32
  0
VERTEX
  8
レイヤ__1
  5
8AE
 10
-10.6565
 20
-13.7688
 30
0.000000
  70
    32
  0
VERTEX
  8
レイヤ__1
  5
8AF
 10
-10.6588
 20
-13.7779
 30
0.000000
  70
    32
  0
VERTEX
  8
レイヤ__1
  5
8B0
 10
-10.6614
 20
-13.7870
 30
0.000000
  70
    32
  0
VERTEX
  8
レイヤ__1
  5
8B1
 10
-10.6642
 20
-13.7960
 30
0.000000
  70
    32
  0
VERTEX
  8
レイヤ__1
  5
8B2
 10
-10.6671
 20
-13.8050
 30
0.000000
  70
    32
  0
VERTEX
  8
レイヤ__1
  5
8B3
 10
-10.6702
 20
-13.8140
 30
0.000000
  70
    32
  0
VERTEX
  8
レイヤ__1
  5
8B4
 10
-10.6735
 20
-13.8229
 30
0.000000
  70
    32
  0
VERTEX
  8
レイヤ__1
  5
8B5
 10
-10.6770
 20
-13.8317
 30
0.000000
  70
    32
  0
VERTEX
  8
レイヤ__1
  5
8B6
 10
-10.6806
 20
-13.8404
 30
0.000000
  70
    32
  0
VERTEX
  8
レイヤ__1
  5
8B7
 10
-10.6845
 20
-13.8491
 30
0.000000
  70
    32
  0
VERTEX
  8
レイヤ__1
  5
8B8
 10
-10.6885
 20
-13.8577
 30
0.000000
  70
    32
  0
VERTEX
  8
レイヤ__1
  5
8B9
 10
-10.6927
 20
-13.8663
 30
0.000000
  70
    32
  0
VERTEX
  8
レイヤ__1
  5
8BA
 10
-10.6971
 20
-13.8747
 30
0.000000
  70
    32
  0
VERTEX
  8
レイヤ__1
  5
8BB
 10
-10.7016
 20
-13.8831
 30
0.000000
  70
    32
  0
VERTEX
  8
レイヤ__1
  5
8BC
 10
-10.7064
 20
-13.8913
 30
0.000000
  70
    32
  0
VERTEX
  8
レイヤ__1
  5
8BD
 10
-10.7113
 20
-13.8995
 30
0.000000
  70
    32
  0
VERTEX
  8
レイヤ__1
  5
8BE
 10
-10.7164
 20
-13.9076
 30
0.000000
  70
    32
  0
VERTEX
  8
レイヤ__1
  5
8BF
 10
-10.7217
 20
-13.9155
 30
0.000000
  70
    32
  0
VERTEX
  8
レイヤ__1
  5
8C0
 10
-10.7271
 20
-13.9233
 30
0.000000
  70
    32
  0
VERTEX
  8
レイヤ__1
  5
8C1
 10
-10.7328
 20
-13.9311
 30
0.000000
  70
    32
  0
VERTEX
  8
レイヤ__1
  5
8C2
 10
-10.7386
 20
-13.9387
 30
0.000000
  70
    32
  0
VERTEX
  8
レイヤ__1
  5
8C3
 10
-10.7447
 20
-13.9461
 30
0.000000
  70
    32
  0
VERTEX
  8
レイヤ__1
  5
8C4
 10
-10.7509
 20
-13.9535
 30
0.000000
  70
    32
  0
VERTEX
  8
レイヤ__1
  5
8C5
 10
-10.7573
 20
-13.9607
 30
0.000000
  70
    32
  0
VERTEX
  8
レイヤ__1
  5
8C6
 10
-10.7638
 20
-13.9678
 30
0.000000
  70
    32
  0
VERTEX
  8
レイヤ__1
  5
8C7
 10
-10.7706
 20
-13.9747
 30
0.000000
  70
    32
  0
VERTEX
  8
レイヤ__1
  5
8C8
 10
-10.7775
 20
-13.9814
 30
0.000000
  70
    32
  0
VERTEX
  8
レイヤ__1
  5
8C9
 10
-10.7847
 20
-13.9881
 30
0.000000
  70
    32
  0
VERTEX
  8
レイヤ__1
  5
8CA
 10
-10.7920
 20
-13.9945
 30
0.000000
  70
    32
  0
VERTEX
  8
レイヤ__1
  5
8CB
 10
-10.7995
 20
-14.0008
 30
0.000000
  70
    32
  0
VERTEX
  8
レイヤ__1
  5
8CC
 10
-10.8072
 20
-14.0069
 30
0.000000
  70
    32
  0
VERTEX
  8
レイヤ__1
  5
8CD
 10
-10.8150
 20
-14.0129
 30
0.000000
  70
    32
  0
VERTEX
  8
レイヤ__1
  5
8CE
 10
-10.8231
 20
-14.0187
 30
0.000000
  70
    32
  0
VERTEX
  8
レイヤ__1
  5
8CF
 10
-10.8313
 20
-14.0243
 30
0.000000
  70
    32
  0
VERTEX
  8
レイヤ__1
  5
8D0
 10
-10.8397
 20
-14.0297
 30
0.000000
  70
    32
  0
VERTEX
  8
レイヤ__1
  5
8D1
 10
-10.8484
 20
-14.0349
 30
0.000000
  70
    32
  0
VERTEX
  8
レイヤ__1
  5
8D2
 10
-10.8572
 20
-14.0399
 30
0.000000
  70
    32
  0
VERTEX
  8
レイヤ__1
  5
8D3
 10
-10.8661
 20
-14.0447
 30
0.000000
  70
    32
  0
VERTEX
  8
レイヤ__1
  5
8D4
 10
-10.8753
 20
-14.0494
 30
0.000000
  70
    32
  0
VERTEX
  8
レイヤ__1
  5
8D5
 10
-10.8847
 20
-14.0538
 30
0.000000
  70
    32
  0
VERTEX
  8
レイヤ__1
  5
8D6
 10
-10.8942
 20
-14.0580
 30
0.000000
  70
    32
  0
VERTEX
  8
レイヤ__1
  5
8D7
 10
-10.9040
 20
-14.0619
 30
0.000000
  70
    32
  0
VERTEX
  8
レイヤ__1
  5
8D8
 10
-10.9139
 20
-14.0657
 30
0.000000
  70
    32
  0
VERTEX
  8
レイヤ__1
  5
8D9
 10
-10.9240
 20
-14.0692
 30
0.000000
  70
    32
  0
VERTEX
  8
レイヤ__1
  5
8DA
 10
-10.9343
 20
-14.0725
 30
0.000000
  70
    32
  0
VERTEX
  8
レイヤ__1
  5
8DB
 10
-10.9448
 20
-14.0756
 30
0.000000
  70
    32
  0
VERTEX
  8
レイヤ__1
  5
8DC
 10
-10.9555
 20
-14.0784
 30
0.000000
  70
    32
  0
VERTEX
  8
レイヤ__1
  5
8DD
 10
-10.9663
 20
-14.0809
 30
0.000000
  70
    32
  0
VERTEX
  8
レイヤ__1
  5
8DE
 10
-10.9774
 20
-14.0833
 30
0.000000
  70
    32
  0
VERTEX
  8
レイヤ__1
  5
8DF
 10
-10.9886
 20
-14.0853
 30
0.000000
  70
    32
  0
VERTEX
  8
レイヤ__1
  5
8E0
 10
-11.0001
 20
-14.0871
 30
0.000000
  70
    32
  0
VERTEX
  8
レイヤ__1
  5
8E1
 10
-11.0117
 20
-14.0887
 30
0.000000
  70
    32
  0
VERTEX
  8
レイヤ__1
  5
8E2
 10
-11.0235
 20
-14.0899
 30
0.000000
  70
    32
  0
VERTEX
  8
レイヤ__1
  5
8E3
 10
-11.0355
 20
-14.0909
 30
0.000000
  70
    32
  0
VERTEX
  8
レイヤ__1
  5
8E4
 10
-11.0477
 20
-14.0916
 30
0.000000
  70
    32
  0
VERTEX
  8
レイヤ__1
  5
8E5
 10
-11.0601
 20
-14.0921
 30
0.000000
  70
    32
  0
VERTEX
  8
レイヤ__1
  5
8E6
 10
-11.0727
 20
-14.0922
 30
0.000000
  70
    32
  0
SEQEND
  8
レイヤ__1
  5
8E7
  0
POLYLINE
  8
レイヤ__1
  5
8E8
  62
5
  66
     1
 10
0.000000
 20
0.000000
 30
0.000000
  70
     8
  0
VERTEX
  8
レイヤ__1
  5
8E9
 10
-8.01574
 20
-14.2041
 30
0.000000
  70
    32
  0
VERTEX
  8
レイヤ__1
  5
8EA
 10
-8.01225
 20
-14.1858
 30
0.000000
  70
    32
  0
VERTEX
  8
レイヤ__1
  5
8EB
 10
-8.00865
 20
-14.1676
 30
0.000000
  70
    32
  0
VERTEX
  8
レイヤ__1
  5
8EC
 10
-8.00492
 20
-14.1497
 30
0.000000
  70
    32
  0
VERTEX
  8
レイヤ__1
  5
8ED
 10
-8.00107
 20
-14.1320
 30
0.000000
  70
    32
  0
VERTEX
  8
レイヤ__1
  5
8EE
 10
-7.99711
 20
-14.1145
 30
0.000000
  70
    32
  0
VERTEX
  8
レイヤ__1
  5
8EF
 10
-7.99304
 20
-14.0972
 30
0.000000
  70
    32
  0
VERTEX
  8
レイヤ__1
  5
8F0
 10
-7.98885
 20
-14.0801
 30
0.000000
  70
    32
  0
VERTEX
  8
レイヤ__1
  5
8F1
 10
-7.98455
 20
-14.0633
 30
0.000000
  70
    32
  0
VERTEX
  8
レイヤ__1
  5
8F2
 10
-7.98013
 20
-14.0466
 30
0.000000
  70
    32
  0
VERTEX
  8
レイヤ__1
  5
8F3
 10
-7.97561
 20
-14.0301
 30
0.000000
  70
    32
  0
VERTEX
  8
レイヤ__1
  5
8F4
 10
-7.97099
 20
-14.0139
 30
0.000000
  70
    32
  0
VERTEX
  8
レイヤ__1
  5
8F5
 10
-7.96625
 20
-13.9978
 30
0.000000
  70
    32
  0
VERTEX
  8
レイヤ__1
  5
8F6
 10
-7.96142
 20
-13.9819
 30
0.000000
  70
    32
  0
VERTEX
  8
レイヤ__1
  5
8F7
 10
-7.95648
 20
-13.9663
 30
0.000000
  70
    32
  0
VERTEX
  8
レイヤ__1
  5
8F8
 10
-7.95143
 20
-13.9508
 30
0.000000
  70
    32
  0
VERTEX
  8
レイヤ__1
  5
8F9
 10
-7.94629
 20
-13.9355
 30
0.000000
  70
    32
  0
VERTEX
  8
レイヤ__1
  5
8FA
 10
-7.94106
 20
-13.9205
 30
0.000000
  70
    32
  0
VERTEX
  8
レイヤ__1
  5
8FB
 10
-7.93572
 20
-13.9056
 30
0.000000
  70
    32
  0
VERTEX
  8
レイヤ__1
  5
8FC
 10
-7.93029
 20
-13.8909
 30
0.000000
  70
    32
  0
VERTEX
  8
レイヤ__1
  5
8FD
 10
-7.92477
 20
-13.8764
 30
0.000000
  70
    32
  0
VERTEX
  8
レイヤ__1
  5
8FE
 10
-7.91916
 20
-13.8621
 30
0.000000
  70
    32
  0
VERTEX
  8
レイヤ__1
  5
8FF
 10
-7.91345
 20
-13.8480
 30
0.000000
  70
    32
  0
VERTEX
  8
レイヤ__1
  5
900
 10
-7.90766
 20
-13.8341
 30
0.000000
  70
    32
  0
VERTEX
  8
レイヤ__1
  5
901
 10
-7.90178
 20
-13.8204
 30
0.000000
  70
    32
  0
VERTEX
  8
レイヤ__1
  5
902
 10
-7.89582
 20
-13.8068
 30
0.000000
  70
    32
  0
VERTEX
  8
レイヤ__1
  5
903
 10
-7.88977
 20
-13.7935
 30
0.000000
  70
    32
  0
VERTEX
  8
レイヤ__1
  5
904
 10
-7.88364
 20
-13.7803
 30
0.000000
  70
    32
  0
VERTEX
  8
レイヤ__1
  5
905
 10
-7.87742
 20
-13.7673
 30
0.000000
  70
    32
  0
VERTEX
  8
レイヤ__1
  5
906
 10
-7.87113
 20
-13.7545
 30
0.000000
  70
    32
  0
VERTEX
  8
レイヤ__1
  5
907
 10
-7.86476
 20
-13.7419
 30
0.000000
  70
    32
  0
VERTEX
  8
レイヤ__1
  5
908
 10
-7.85832
 20
-13.7294
 30
0.000000
  70
    32
  0
VERTEX
  8
レイヤ__1
  5
909
 10
-7.85180
 20
-13.7172
 30
0.000000
  70
    32
  0
VERTEX
  8
レイヤ__1
  5
90A
 10
-7.84521
 20
-13.7051
 30
0.000000
  70
    32
  0
VERTEX
  8
レイヤ__1
  5
90B
 10
-7.83855
 20
-13.6932
 30
0.000000
  70
    32
  0
VERTEX
  8
レイヤ__1
  5
90C
 10
-7.83181
 20
-13.6815
 30
0.000000
  70
    32
  0
VERTEX
  8
レイヤ__1
  5
90D
 10
-7.82501
 20
-13.6699
 30
0.000000
  70
    32
  0
VERTEX
  8
レイヤ__1
  5
90E
 10
-7.81814
 20
-13.6585
 30
0.000000
  70
    32
  0
VERTEX
  8
レイヤ__1
  5
90F
 10
-7.81121
 20
-13.6473
 30
0.000000
  70
    32
  0
VERTEX
  8
レイヤ__1
  5
910
 10
-7.80421
 20
-13.6363
 30
0.000000
  70
    32
  0
VERTEX
  8
レイヤ__1
  5
911
 10
-7.79715
 20
-13.6254
 30
0.000000
  70
    32
  0
VERTEX
  8
レイヤ__1
  5
912
 10
-7.79003
 20
-13.6148
 30
0.000000
  70
    32
  0
VERTEX
  8
レイヤ__1
  5
913
 10
-7.78285
 20
-13.6042
 30
0.000000
  70
    32
  0
VERTEX
  8
レイヤ__1
  5
914
 10
-7.77562
 20
-13.5939
 30
0.000000
  70
    32
  0
VERTEX
  8
レイヤ__1
  5
915
 10
-7.76832
 20
-13.5837
 30
0.000000
  70
    32
  0
VERTEX
  8
レイヤ__1
  5
916
 10
-7.76098
 20
-13.5737
 30
0.000000
  70
    32
  0
VERTEX
  8
レイヤ__1
  5
917
 10
-7.75358
 20
-13.5638
 30
0.000000
  70
    32
  0
VERTEX
  8
レイヤ__1
  5
918
 10
-7.74613
 20
-13.5541
 30
0.000000
  70
    32
  0
VERTEX
  8
レイヤ__1
  5
919
 10
-7.73863
 20
-13.5446
 30
0.000000
  70
    32
  0
VERTEX
  8
レイヤ__1
  5
91A
 10
-7.73108
 20
-13.5353
 30
0.000000
  70
    32
  0
VERTEX
  8
レイヤ__1
  5
91B
 10
-7.72348
 20
-13.5261
 30
0.000000
  70
    32
  0
VERTEX
  8
レイヤ__1
  5
91C
 10
-7.71584
 20
-13.5170
 30
0.000000
  70
    32
  0
VERTEX
  8
レイヤ__1
  5
91D
 10
-7.70816
 20
-13.5081
 30
0.000000
  70
    32
  0
VERTEX
  8
レイヤ__1
  5
91E
 10
-7.70044
 20
-13.4994
 30
0.000000
  70
    32
  0
VERTEX
  8
レイヤ__1
  5
91F
 10
-7.69267
 20
-13.4908
 30
0.000000
  70
    32
  0
VERTEX
  8
レイヤ__1
  5
920
 10
-7.68487
 20
-13.4824
 30
0.000000
  70
    32
  0
VERTEX
  8
レイヤ__1
  5
921
 10
-7.67702
 20
-13.4741
 30
0.000000
  70
    32
  0
VERTEX
  8
レイヤ__1
  5
922
 10
-7.66915
 20
-13.4660
 30
0.000000
  70
    32
  0
VERTEX
  8
レイヤ__1
  5
923
 10
-7.66124
 20
-13.4581
 30
0.000000
  70
    32
  0
VERTEX
  8
レイヤ__1
  5
924
 10
-7.65329
 20
-13.4503
 30
0.000000
  70
    32
  0
VERTEX
  8
レイヤ__1
  5
925
 10
-7.64532
 20
-13.4426
 30
0.000000
  70
    32
  0
VERTEX
  8
レイヤ__1
  5
926
 10
-7.63731
 20
-13.4351
 30
0.000000
  70
    32
  0
VERTEX
  8
レイヤ__1
  5
927
 10
-7.62928
 20
-13.4278
 30
0.000000
  70
    32
  0
VERTEX
  8
レイヤ__1
  5
928
 10
-7.62122
 20
-13.4205
 30
0.000000
  70
    32
  0
VERTEX
  8
レイヤ__1
  5
929
 10
-7.61314
 20
-13.4135
 30
0.000000
  70
    32
  0
VERTEX
  8
レイヤ__1
  5
92A
 10
-7.60503
 20
-13.4066
 30
0.000000
  70
    32
  0
VERTEX
  8
レイヤ__1
  5
92B
 10
-7.59691
 20
-13.3998
 30
0.000000
  70
    32
  0
VERTEX
  8
レイヤ__1
  5
92C
 10
-7.58876
 20
-13.3932
 30
0.000000
  70
    32
  0
VERTEX
  8
レイヤ__1
  5
92D
 10
-7.58059
 20
-13.3867
 30
0.000000
  70
    32
  0
VERTEX
  8
レイヤ__1
  5
92E
 10
-7.57241
 20
-13.3803
 30
0.000000
  70
    32
  0
VERTEX
  8
レイヤ__1
  5
92F
 10
-7.56421
 20
-13.3741
 30
0.000000
  70
    32
  0
VERTEX
  8
レイヤ__1
  5
930
 10
-7.55600
 20
-13.3680
 30
0.000000
  70
    32
  0
VERTEX
  8
レイヤ__1
  5
931
 10
-7.54777
 20
-13.3621
 30
0.000000
  70
    32
  0
VERTEX
  8
レイヤ__1
  5
932
 10
-7.53953
 20
-13.3563
 30
0.000000
  70
    32
  0
VERTEX
  8
レイヤ__1
  5
933
 10
-7.53129
 20
-13.3506
 30
0.000000
  70
    32
  0
VERTEX
  8
レイヤ__1
  5
934
 10
-7.52304
 20
-13.3451
 30
0.000000
  70
    32
  0
VERTEX
  8
レイヤ__1
  5
935
 10
-7.51478
 20
-13.3397
 30
0.000000
  70
    32
  0
VERTEX
  8
レイヤ__1
  5
936
 10
-7.50651
 20
-13.3344
 30
0.000000
  70
    32
  0
VERTEX
  8
レイヤ__1
  5
937
 10
-7.49825
 20
-13.3293
 30
0.000000
  70
    32
  0
VERTEX
  8
レイヤ__1
  5
938
 10
-7.48998
 20
-13.3243
 30
0.000000
  70
    32
  0
VERTEX
  8
レイヤ__1
  5
939
 10
-7.48171
 20
-13.3194
 30
0.000000
  70
    32
  0
VERTEX
  8
レイヤ__1
  5
93A
 10
-7.47344
 20
-13.3146
 30
0.000000
  70
    32
  0
VERTEX
  8
レイヤ__1
  5
93B
 10
-7.46518
 20
-13.3100
 30
0.000000
  70
    32
  0
VERTEX
  8
レイヤ__1
  5
93C
 10
-7.45692
 20
-13.3055
 30
0.000000
  70
    32
  0
VERTEX
  8
レイヤ__1
  5
93D
 10
-7.44867
 20
-13.3011
 30
0.000000
  70
    32
  0
VERTEX
  8
レイヤ__1
  5
93E
 10
-7.44042
 20
-13.2969
 30
0.000000
  70
    32
  0
VERTEX
  8
レイヤ__1
  5
93F
 10
-7.43219
 20
-13.2928
 30
0.000000
  70
    32
  0
VERTEX
  8
レイヤ__1
  5
940
 10
-7.42397
 20
-13.2888
 30
0.000000
  70
    32
  0
VERTEX
  8
レイヤ__1
  5
941
 10
-7.41575
 20
-13.2849
 30
0.000000
  70
    32
  0
VERTEX
  8
レイヤ__1
  5
942
 10
-7.40756
 20
-13.2811
 30
0.000000
  70
    32
  0
VERTEX
  8
レイヤ__1
  5
943
 10
-7.39937
 20
-13.2774
 30
0.000000
  70
    32
  0
VERTEX
  8
レイヤ__1
  5
944
 10
-7.39121
 20
-13.2739
 30
0.000000
  70
    32
  0
VERTEX
  8
レイヤ__1
  5
945
 10
-7.38306
 20
-13.2705
 30
0.000000
  70
    32
  0
VERTEX
  8
レイヤ__1
  5
946
 10
-7.37494
 20
-13.2672
 30
0.000000
  70
    32
  0
VERTEX
  8
レイヤ__1
  5
947
 10
-7.36684
 20
-13.2640
 30
0.000000
  70
    32
  0
VERTEX
  8
レイヤ__1
  5
948
 10
-7.35876
 20
-13.2609
 30
0.000000
  70
    32
  0
VERTEX
  8
レイヤ__1
  5
949
 10
-7.35070
 20
-13.2580
 30
0.000000
  70
    32
  0
VERTEX
  8
レイヤ__1
  5
94A
 10
-7.34267
 20
-13.2551
 30
0.000000
  70
    32
  0
VERTEX
  8
レイヤ__1
  5
94B
 10
-7.33467
 20
-13.2524
 30
0.000000
  70
    32
  0
VERTEX
  8
レイヤ__1
  5
94C
 10
-7.32670
 20
-13.2497
 30
0.000000
  70
    32
  0
VERTEX
  8
レイヤ__1
  5
94D
 10
-7.31876
 20
-13.2472
 30
0.000000
  70
    32
  0
VERTEX
  8
レイヤ__1
  5
94E
 10
-7.31085
 20
-13.2448
 30
0.000000
  70
    32
  0
VERTEX
  8
レイヤ__1
  5
94F
 10
-7.30298
 20
-13.2425
 30
0.000000
  70
    32
  0
VERTEX
  8
レイヤ__1
  5
950
 10
-7.29514
 20
-13.2402
 30
0.000000
  70
    32
  0
VERTEX
  8
レイヤ__1
  5
951
 10
-7.28734
 20
-13.2381
 30
0.000000
  70
    32
  0
VERTEX
  8
レイヤ__1
  5
952
 10
-7.27958
 20
-13.2361
 30
0.000000
  70
    32
  0
VERTEX
  8
レイヤ__1
  5
953
 10
-7.27186
 20
-13.2342
 30
0.000000
  70
    32
  0
VERTEX
  8
レイヤ__1
  5
954
 10
-7.26419
 20
-13.2324
 30
0.000000
  70
    32
  0
VERTEX
  8
レイヤ__1
  5
955
 10
-7.25655
 20
-13.2307
 30
0.000000
  70
    32
  0
VERTEX
  8
レイヤ__1
  5
956
 10
-7.24896
 20
-13.2291
 30
0.000000
  70
    32
  0
VERTEX
  8
レイヤ__1
  5
957
 10
-7.24142
 20
-13.2276
 30
0.000000
  70
    32
  0
VERTEX
  8
レイヤ__1
  5
958
 10
-7.23393
 20
-13.2261
 30
0.000000
  70
    32
  0
VERTEX
  8
レイヤ__1
  5
959
 10
-7.22648
 20
-13.2248
 30
0.000000
  70
    32
  0
VERTEX
  8
レイヤ__1
  5
95A
 10
-7.21909
 20
-13.2236
 30
0.000000
  70
    32
  0
VERTEX
  8
レイヤ__1
  5
95B
 10
-7.21175
 20
-13.2224
 30
0.000000
  70
    32
  0
VERTEX
  8
レイヤ__1
  5
95C
 10
-7.20446
 20
-13.2214
 30
0.000000
  70
    32
  0
VERTEX
  8
レイヤ__1
  5
95D
 10
-7.19724
 20
-13.2204
 30
0.000000
  70
    32
  0
VERTEX
  8
レイヤ__1
  5
95E
 10
-7.19006
 20
-13.2196
 30
0.000000
  70
    32
  0
VERTEX
  8
レイヤ__1
  5
95F
 10
-7.18295
 20
-13.2188
 30
0.000000
  70
    32
  0
VERTEX
  8
レイヤ__1
  5
960
 10
-7.17590
 20
-13.2181
 30
0.000000
  70
    32
  0
VERTEX
  8
レイヤ__1
  5
961
 10
-7.16891
 20
-13.2175
 30
0.000000
  70
    32
  0
VERTEX
  8
レイヤ__1
  5
962
 10
-7.16198
 20
-13.2169
 30
0.000000
  70
    32
  0
VERTEX
  8
レイヤ__1
  5
963
 10
-7.15512
 20
-13.2165
 30
0.000000
  70
    32
  0
VERTEX
  8
レイヤ__1
  5
964
 10
-7.14833
 20
-13.2161
 30
0.000000
  70
    32
  0
VERTEX
  8
レイヤ__1
  5
965
 10
-7.14161
 20
-13.2159
 30
0.000000
  70
    32
  0
VERTEX
  8
レイヤ__1
  5
966
 10
-7.13495
 20
-13.2157
 30
0.000000
  70
    32
  0
VERTEX
  8
レイヤ__1
  5
967
 10
-7.12837
 20
-13.2155
 30
0.000000
  70
    32
  0
VERTEX
  8
レイヤ__1
  5
968
 10
-7.12186
 20
-13.2155
 30
0.000000
  70
    32
  0
SEQEND
  8
レイヤ__1
  5
969
  0
POLYLINE
  8
レイヤ__1
  5
96A
  62
5
  66
     1
 10
0.000000
 20
0.000000
 30
0.000000
  70
     8
  0
VERTEX
  8
レイヤ__1
  5
96B
 10
-7.12186
 20
-13.2155
 30
0.000000
  70
    32
  0
VERTEX
  8
レイヤ__1
  5
96C
 10
-7.11133
 20
-13.2156
 30
0.000000
  70
    32
  0
VERTEX
  8
レイヤ__1
  5
96D
 10
-7.10092
 20
-13.2157
 30
0.000000
  70
    32
  0
VERTEX
  8
レイヤ__1
  5
96E
 10
-7.09063
 20
-13.2160
 30
0.000000
  70
    32
  0
VERTEX
  8
レイヤ__1
  5
96F
 10
-7.08047
 20
-13.2164
 30
0.000000
  70
    32
  0
VERTEX
  8
レイヤ__1
  5
970
 10
-7.07043
 20
-13.2169
 30
0.000000
  70
    32
  0
VERTEX
  8
レイヤ__1
  5
971
 10
-7.06052
 20
-13.2175
 30
0.000000
  70
    32
  0
VERTEX
  8
レイヤ__1
  5
972
 10
-7.05072
 20
-13.2182
 30
0.000000
  70
    32
  0
VERTEX
  8
レイヤ__1
  5
973
 10
-7.04104
 20
-13.2189
 30
0.000000
  70
    32
  0
VERTEX
  8
レイヤ__1
  5
974
 10
-7.03149
 20
-13.2198
 30
0.000000
  70
    32
  0
VERTEX
  8
レイヤ__1
  5
975
 10
-7.02205
 20
-13.2208
 30
0.000000
  70
    32
  0
VERTEX
  8
レイヤ__1
  5
976
 10
-7.01273
 20
-13.2219
 30
0.000000
  70
    32
  0
VERTEX
  8
レイヤ__1
  5
977
 10
-7.00353
 20
-13.2231
 30
0.000000
  70
    32
  0
VERTEX
  8
レイヤ__1
  5
978
 10
-6.99445
 20
-13.2244
 30
0.000000
  70
    32
  0
VERTEX
  8
レイヤ__1
  5
979
 10
-6.98548
 20
-13.2257
 30
0.000000
  70
    32
  0
VERTEX
  8
レイヤ__1
  5
97A
 10
-6.97663
 20
-13.2272
 30
0.000000
  70
    32
  0
VERTEX
  8
レイヤ__1
  5
97B
 10
-6.96789
 20
-13.2287
 30
0.000000
  70
    32
  0
VERTEX
  8
レイヤ__1
  5
97C
 10
-6.95927
 20
-13.2304
 30
0.000000
  70
    32
  0
VERTEX
  8
レイヤ__1
  5
97D
 10
-6.95076
 20
-13.2321
 30
0.000000
  70
    32
  0
VERTEX
  8
レイヤ__1
  5
97E
 10
-6.94237
 20
-13.2339
 30
0.000000
  70
    32
  0
VERTEX
  8
レイヤ__1
  5
97F
 10
-6.93409
 20
-13.2358
 30
0.000000
  70
    32
  0
VERTEX
  8
レイヤ__1
  5
980
 10
-6.92592
 20
-13.2378
 30
0.000000
  70
    32
  0
VERTEX
  8
レイヤ__1
  5
981
 10
-6.91786
 20
-13.2398
 30
0.000000
  70
    32
  0
VERTEX
  8
レイヤ__1
  5
982
 10
-6.90991
 20
-13.2419
 30
0.000000
  70
    32
  0
VERTEX
  8
レイヤ__1
  5
983
 10
-6.90207
 20
-13.2441
 30
0.000000
  70
    32
  0
VERTEX
  8
レイヤ__1
  5
984
 10
-6.89434
 20
-13.2464
 30
0.000000
  70
    32
  0
VERTEX
  8
レイヤ__1
  5
985
 10
-6.88672
 20
-13.2488
 30
0.000000
  70
    32
  0
VERTEX
  8
レイヤ__1
  5
986
 10
-6.87921
 20
-13.2512
 30
0.000000
  70
    32
  0
VERTEX
  8
レイヤ__1
  5
987
 10
-6.87180
 20
-13.2537
 30
0.000000
  70
    32
  0
VERTEX
  8
レイヤ__1
  5
988
 10
-6.86450
 20
-13.2563
 30
0.000000
  70
    32
  0
VERTEX
  8
レイヤ__1
  5
989
 10
-6.85731
 20
-13.2589
 30
0.000000
  70
    32
  0
VERTEX
  8
レイヤ__1
  5
98A
 10
-6.85022
 20
-13.2616
 30
0.000000
  70
    32
  0
VERTEX
  8
レイヤ__1
  5
98B
 10
-6.84324
 20
-13.2644
 30
0.000000
  70
    32
  0
VERTEX
  8
レイヤ__1
  5
98C
 10
-6.83636
 20
-13.2672
 30
0.000000
  70
    32
  0
VERTEX
  8
レイヤ__1
  5
98D
 10
-6.82959
 20
-13.2701
 30
0.000000
  70
    32
  0
VERTEX
  8
レイヤ__1
  5
98E
 10
-6.82292
 20
-13.2731
 30
0.000000
  70
    32
  0
VERTEX
  8
レイヤ__1
  5
98F
 10
-6.81635
 20
-13.2761
 30
0.000000
  70
    32
  0
VERTEX
  8
レイヤ__1
  5
990
 10
-6.80988
 20
-13.2792
 30
0.000000
  70
    32
  0
VERTEX
  8
レイヤ__1
  5
991
 10
-6.80351
 20
-13.2823
 30
0.000000
  70
    32
  0
VERTEX
  8
レイヤ__1
  5
992
 10
-6.79724
 20
-13.2855
 30
0.000000
  70
    32
  0
VERTEX
  8
レイヤ__1
  5
993
 10
-6.79107
 20
-13.2887
 30
0.000000
  70
    32
  0
VERTEX
  8
レイヤ__1
  5
994
 10
-6.78500
 20
-13.2920
 30
0.000000
  70
    32
  0
VERTEX
  8
レイヤ__1
  5
995
 10
-6.77903
 20
-13.2954
 30
0.000000
  70
    32
  0
VERTEX
  8
レイヤ__1
  5
996
 10
-6.77316
 20
-13.2987
 30
0.000000
  70
    32
  0
VERTEX
  8
レイヤ__1
  5
997
 10
-6.76738
 20
-13.3022
 30
0.000000
  70
    32
  0
VERTEX
  8
レイヤ__1
  5
998
 10
-6.76170
 20
-13.3057
 30
0.000000
  70
    32
  0
VERTEX
  8
レイヤ__1
  5
999
 10
-6.75611
 20
-13.3092
 30
0.000000
  70
    32
  0
VERTEX
  8
レイヤ__1
  5
99A
 10
-6.75062
 20
-13.3128
 30
0.000000
  70
    32
  0
VERTEX
  8
レイヤ__1
  5
99B
 10
-6.74523
 20
-13.3164
 30
0.000000
  70
    32
  0
VERTEX
  8
レイヤ__1
  5
99C
 10
-6.73992
 20
-13.3200
 30
0.000000
  70
    32
  0
VERTEX
  8
レイヤ__1
  5
99D
 10
-6.73471
 20
-13.3237
 30
0.000000
  70
    32
  0
VERTEX
  8
レイヤ__1
  5
99E
 10
-6.72960
 20
-13.3275
 30
0.000000
  70
    32
  0
VERTEX
  8
レイヤ__1
  5
99F
 10
-6.72457
 20
-13.3312
 30
0.000000
  70
    32
  0
VERTEX
  8
レイヤ__1
  5
9A0
 10
-6.71963
 20
-13.3350
 30
0.000000
  70
    32
  0
VERTEX
  8
レイヤ__1
  5
9A1
 10
-6.71479
 20
-13.3389
 30
0.000000
  70
    32
  0
VERTEX
  8
レイヤ__1
  5
9A2
 10
-6.71003
 20
-13.3427
 30
0.000000
  70
    32
  0
VERTEX
  8
レイヤ__1
  5
9A3
 10
-6.70537
 20
-13.3466
 30
0.000000
  70
    32
  0
VERTEX
  8
レイヤ__1
  5
9A4
 10
-6.70079
 20
-13.3506
 30
0.000000
  70
    32
  0
VERTEX
  8
レイヤ__1
  5
9A5
 10
-6.69630
 20
-13.3545
 30
0.000000
  70
    32
  0
VERTEX
  8
レイヤ__1
  5
9A6
 10
-6.69190
 20
-13.3585
 30
0.000000
  70
    32
  0
VERTEX
  8
レイヤ__1
  5
9A7
 10
-6.68758
 20
-13.3625
 30
0.000000
  70
    32
  0
VERTEX
  8
レイヤ__1
  5
9A8
 10
-6.68335
 20
-13.3665
 30
0.000000
  70
    32
  0
VERTEX
  8
レイヤ__1
  5
9A9
 10
-6.67920
 20
-13.3706
 30
0.000000
  70
    32
  0
VERTEX
  8
レイヤ__1
  5
9AA
 10
-6.67514
 20
-13.3746
 30
0.000000
  70
    32
  0
VERTEX
  8
レイヤ__1
  5
9AB
 10
-6.67116
 20
-13.3787
 30
0.000000
  70
    32
  0
VERTEX
  8
レイヤ__1
  5
9AC
 10
-6.66727
 20
-13.3828
 30
0.000000
  70
    32
  0
VERTEX
  8
レイヤ__1
  5
9AD
 10
-6.66346
 20
-13.3869
 30
0.000000
  70
    32
  0
VERTEX
  8
レイヤ__1
  5
9AE
 10
-6.65973
 20
-13.3910
 30
0.000000
  70
    32
  0
VERTEX
  8
レイヤ__1
  5
9AF
 10
-6.65608
 20
-13.3952
 30
0.000000
  70
    32
  0
VERTEX
  8
レイヤ__1
  5
9B0
 10
-6.65251
 20
-13.3993
 30
0.000000
  70
    32
  0
VERTEX
  8
レイヤ__1
  5
9B1
 10
-6.64902
 20
-13.4035
 30
0.000000
  70
    32
  0
VERTEX
  8
レイヤ__1
  5
9B2
 10
-6.64561
 20
-13.4077
 30
0.000000
  70
    32
  0
VERTEX
  8
レイヤ__1
  5
9B3
 10
-6.64228
 20
-13.4118
 30
0.000000
  70
    32
  0
VERTEX
  8
レイヤ__1
  5
9B4
 10
-6.63903
 20
-13.4160
 30
0.000000
  70
    32
  0
VERTEX
  8
レイヤ__1
  5
9B5
 10
-6.63585
 20
-13.4202
 30
0.000000
  70
    32
  0
VERTEX
  8
レイヤ__1
  5
9B6
 10
-6.63275
 20
-13.4244
 30
0.000000
  70
    32
  0
VERTEX
  8
レイヤ__1
  5
9B7
 10
-6.62973
 20
-13.4285
 30
0.000000
  70
    32
  0
VERTEX
  8
レイヤ__1
  5
9B8
 10
-6.62678
 20
-13.4327
 30
0.000000
  70
    32
  0
VERTEX
  8
レイヤ__1
  5
9B9
 10
-6.62390
 20
-13.4369
 30
0.000000
  70
    32
  0
VERTEX
  8
レイヤ__1
  5
9BA
 10
-6.62110
 20
-13.4411
 30
0.000000
  70
    32
  0
VERTEX
  8
レイヤ__1
  5
9BB
 10
-6.61838
 20
-13.4453
 30
0.000000
  70
    32
  0
VERTEX
  8
レイヤ__1
  5
9BC
 10
-6.61572
 20
-13.4494
 30
0.000000
  70
    32
  0
VERTEX
  8
レイヤ__1
  5
9BD
 10
-6.61314
 20
-13.4536
 30
0.000000
  70
    32
  0
VERTEX
  8
レイヤ__1
  5
9BE
 10
-6.61063
 20
-13.4577
 30
0.000000
  70
    32
  0
VERTEX
  8
レイヤ__1
  5
9BF
 10
-6.60819
 20
-13.4618
 30
0.000000
  70
    32
  0
VERTEX
  8
レイヤ__1
  5
9C0
 10
-6.60582
 20
-13.4660
 30
0.000000
  70
    32
  0
VERTEX
  8
レイヤ__1
  5
9C1
 10
-6.60352
 20
-13.4701
 30
0.000000
  70
    32
  0
VERTEX
  8
レイヤ__1
  5
9C2
 10
-6.60129
 20
-13.4742
 30
0.000000
  70
    32
  0
VERTEX
  8
レイヤ__1
  5
9C3
 10
-6.59912
 20
-13.4782
 30
0.000000
  70
    32
  0
VERTEX
  8
レイヤ__1
  5
9C4
 10
-6.59702
 20
-13.4823
 30
0.000000
  70
    32
  0
VERTEX
  8
レイヤ__1
  5
9C5
 10
-6.59499
 20
-13.4863
 30
0.000000
  70
    32
  0
VERTEX
  8
レイヤ__1
  5
9C6
 10
-6.59303
 20
-13.4903
 30
0.000000
  70
    32
  0
VERTEX
  8
レイヤ__1
  5
9C7
 10
-6.59113
 20
-13.4943
 30
0.000000
  70
    32
  0
VERTEX
  8
レイヤ__1
  5
9C8
 10
-6.58930
 20
-13.4983
 30
0.000000
  70
    32
  0
VERTEX
  8
レイヤ__1
  5
9C9
 10
-6.58753
 20
-13.5022
 30
0.000000
  70
    32
  0
VERTEX
  8
レイヤ__1
  5
9CA
 10
-6.58582
 20
-13.5061
 30
0.000000
  70
    32
  0
VERTEX
  8
レイヤ__1
  5
9CB
 10
-6.58418
 20
-13.5100
 30
0.000000
  70
    32
  0
VERTEX
  8
レイヤ__1
  5
9CC
 10
-6.58260
 20
-13.5138
 30
0.000000
  70
    32
  0
VERTEX
  8
レイヤ__1
  5
9CD
 10
-6.58108
 20
-13.5177
 30
0.000000
  70
    32
  0
VERTEX
  8
レイヤ__1
  5
9CE
 10
-6.57962
 20
-13.5214
 30
0.000000
  70
    32
  0
VERTEX
  8
レイヤ__1
  5
9CF
 10
-6.57822
 20
-13.5252
 30
0.000000
  70
    32
  0
VERTEX
  8
レイヤ__1
  5
9D0
 10
-6.57688
 20
-13.5289
 30
0.000000
  70
    32
  0
VERTEX
  8
レイヤ__1
  5
9D1
 10
-6.57560
 20
-13.5326
 30
0.000000
  70
    32
  0
VERTEX
  8
レイヤ__1
  5
9D2
 10
-6.57438
 20
-13.5362
 30
0.000000
  70
    32
  0
VERTEX
  8
レイヤ__1
  5
9D3
 10
-6.57322
 20
-13.5398
 30
0.000000
  70
    32
  0
VERTEX
  8
レイヤ__1
  5
9D4
 10
-6.57211
 20
-13.5433
 30
0.000000
  70
    32
  0
VERTEX
  8
レイヤ__1
  5
9D5
 10
-6.57106
 20
-13.5469
 30
0.000000
  70
    32
  0
VERTEX
  8
レイヤ__1
  5
9D6
 10
-6.57006
 20
-13.5503
 30
0.000000
  70
    32
  0
VERTEX
  8
レイヤ__1
  5
9D7
 10
-6.56912
 20
-13.5537
 30
0.000000
  70
    32
  0
VERTEX
  8
レイヤ__1
  5
9D8
 10
-6.56823
 20
-13.5571
 30
0.000000
  70
    32
  0
VERTEX
  8
レイヤ__1
  5
9D9
 10
-6.56740
 20
-13.5604
 30
0.000000
  70
    32
  0
VERTEX
  8
レイヤ__1
  5
9DA
 10
-6.56662
 20
-13.5637
 30
0.000000
  70
    32
  0
VERTEX
  8
レイヤ__1
  5
9DB
 10
-6.56589
 20
-13.5669
 30
0.000000
  70
    32
  0
VERTEX
  8
レイヤ__1
  5
9DC
 10
-6.56522
 20
-13.5700
 30
0.000000
  70
    32
  0
VERTEX
  8
レイヤ__1
  5
9DD
 10
-6.56459
 20
-13.5731
 30
0.000000
  70
    32
  0
VERTEX
  8
レイヤ__1
  5
9DE
 10
-6.56402
 20
-13.5762
 30
0.000000
  70
    32
  0
VERTEX
  8
レイヤ__1
  5
9DF
 10
-6.56349
 20
-13.5792
 30
0.000000
  70
    32
  0
VERTEX
  8
レイヤ__1
  5
9E0
 10
-6.56302
 20
-13.5821
 30
0.000000
  70
    32
  0
VERTEX
  8
レイヤ__1
  5
9E1
 10
-6.56259
 20
-13.5849
 30
0.000000
  70
    32
  0
VERTEX
  8
レイヤ__1
  5
9E2
 10
-6.56221
 20
-13.5877
 30
0.000000
  70
    32
  0
VERTEX
  8
レイヤ__1
  5
9E3
 10
-6.56188
 20
-13.5905
 30
0.000000
  70
    32
  0
VERTEX
  8
レイヤ__1
  5
9E4
 10
-6.56159
 20
-13.5931
 30
0.000000
  70
    32
  0
VERTEX
  8
レイヤ__1
  5
9E5
 10
-6.56135
 20
-13.5957
 30
0.000000
  70
    32
  0
VERTEX
  8
レイヤ__1
  5
9E6
 10
-6.56116
 20
-13.5983
 30
0.000000
  70
    32
  0
VERTEX
  8
レイヤ__1
  5
9E7
 10
-6.56101
 20
-13.6007
 30
0.000000
  70
    32
  0
VERTEX
  8
レイヤ__1
  5
9E8
 10
-6.56090
 20
-13.6031
 30
0.000000
  70
    32
  0
VERTEX
  8
レイヤ__1
  5
9E9
 10
-6.56084
 20
-13.6054
 30
0.000000
  70
    32
  0
VERTEX
  8
レイヤ__1
  5
9EA
 10
-6.56082
 20
-13.6077
 30
0.000000
  70
    32
  0
SEQEND
  8
レイヤ__1
  5
9EB
  0
POLYLINE
  8
レイヤ__1
  5
9EC
  62
5
  66
     1
 10
0.000000
 20
0.000000
 30
0.000000
  70
     8
  0
VERTEX
  8
レイヤ__1
  5
9ED
 10
-14.5736
 20
-13.7429
 30
0.000000
  70
    32
  0
VERTEX
  8
レイヤ__1
  5
9EE
 10
-14.5868
 20
-13.7402
 30
0.000000
  70
    32
  0
VERTEX
  8
レイヤ__1
  5
9EF
 10
-14.5998
 20
-13.7376
 30
0.000000
  70
    32
  0
VERTEX
  8
レイヤ__1
  5
9F0
 10
-14.6127
 20
-13.7349
 30
0.000000
  70
    32
  0
VERTEX
  8
レイヤ__1
  5
9F1
 10
-14.6255
 20
-13.7323
 30
0.000000
  70
    32
  0
VERTEX
  8
レイヤ__1
  5
9F2
 10
-14.6380
 20
-13.7297
 30
0.000000
  70
    32
  0
VERTEX
  8
レイヤ__1
  5
9F3
 10
-14.6505
 20
-13.7271
 30
0.000000
  70
    32
  0
VERTEX
  8
レイヤ__1
  5
9F4
 10
-14.6627
 20
-13.7246
 30
0.000000
  70
    32
  0
VERTEX
  8
レイヤ__1
  5
9F5
 10
-14.6749
 20
-13.7220
 30
0.000000
  70
    32
  0
VERTEX
  8
レイヤ__1
  5
9F6
 10
-14.6868
 20
-13.7195
 30
0.000000
  70
    32
  0
VERTEX
  8
レイヤ__1
  5
9F7
 10
-14.6987
 20
-13.7170
 30
0.000000
  70
    32
  0
VERTEX
  8
レイヤ__1
  5
9F8
 10
-14.7103
 20
-13.7145
 30
0.000000
  70
    32
  0
VERTEX
  8
レイヤ__1
  5
9F9
 10
-14.7219
 20
-13.7120
 30
0.000000
  70
    32
  0
VERTEX
  8
レイヤ__1
  5
9FA
 10
-14.7332
 20
-13.7096
 30
0.000000
  70
    32
  0
VERTEX
  8
レイヤ__1
  5
9FB
 10
-14.7445
 20
-13.7071
 30
0.000000
  70
    32
  0
VERTEX
  8
レイヤ__1
  5
9FC
 10
-14.7556
 20
-13.7047
 30
0.000000
  70
    32
  0
VERTEX
  8
レイヤ__1
  5
9FD
 10
-14.7665
 20
-13.7023
 30
0.000000
  70
    32
  0
VERTEX
  8
レイヤ__1
  5
9FE
 10
-14.7773
 20
-13.6999
 30
0.000000
  70
    32
  0
VERTEX
  8
レイヤ__1
  5
9FF
 10
-14.7880
 20
-13.6975
 30
0.000000
  70
    32
  0
VERTEX
  8
レイヤ__1
  5
A00
 10
-14.7985
 20
-13.6951
 30
0.000000
  70
    32
  0
VERTEX
  8
レイヤ__1
  5
A01
 10
-14.8088
 20
-13.6928
 30
0.000000
  70
    32
  0
VERTEX
  8
レイヤ__1
  5
A02
 10
-14.8191
 20
-13.6904
 30
0.000000
  70
    32
  0
VERTEX
  8
レイヤ__1
  5
A03
 10
-14.8292
 20
-13.6881
 30
0.000000
  70
    32
  0
VERTEX
  8
レイヤ__1
  5
A04
 10
-14.8391
 20
-13.6858
 30
0.000000
  70
    32
  0
VERTEX
  8
レイヤ__1
  5
A05
 10
-14.8489
 20
-13.6835
 30
0.000000
  70
    32
  0
VERTEX
  8
レイヤ__1
  5
A06
 10
-14.8586
 20
-13.6812
 30
0.000000
  70
    32
  0
VERTEX
  8
レイヤ__1
  5
A07
 10
-14.8682
 20
-13.6789
 30
0.000000
  70
    32
  0
VERTEX
  8
レイヤ__1
  5
A08
 10
-14.8776
 20
-13.6766
 30
0.000000
  70
    32
  0
VERTEX
  8
レイヤ__1
  5
A09
 10
-14.8868
 20
-13.6743
 30
0.000000
  70
    32
  0
VERTEX
  8
レイヤ__1
  5
A0A
 10
-14.8959
 20
-13.6721
 30
0.000000
  70
    32
  0
VERTEX
  8
レイヤ__1
  5
A0B
 10
-14.9049
 20
-13.6698
 30
0.000000
  70
    32
  0
VERTEX
  8
レイヤ__1
  5
A0C
 10
-14.9138
 20
-13.6676
 30
0.000000
  70
    32
  0
VERTEX
  8
レイヤ__1
  5
A0D
 10
-14.9225
 20
-13.6653
 30
0.000000
  70
    32
  0
VERTEX
  8
レイヤ__1
  5
A0E
 10
-14.9311
 20
-13.6631
 30
0.000000
  70
    32
  0
VERTEX
  8
レイヤ__1
  5
A0F
 10
-14.9396
 20
-13.6609
 30
0.000000
  70
    32
  0
VERTEX
  8
レイヤ__1
  5
A10
 10
-14.9479
 20
-13.6587
 30
0.000000
  70
    32
  0
VERTEX
  8
レイヤ__1
  5
A11
 10
-14.9561
 20
-13.6564
 30
0.000000
  70
    32
  0
VERTEX
  8
レイヤ__1
  5
A12
 10
-14.9642
 20
-13.6542
 30
0.000000
  70
    32
  0
VERTEX
  8
レイヤ__1
  5
A13
 10
-14.9721
 20
-13.6520
 30
0.000000
  70
    32
  0
VERTEX
  8
レイヤ__1
  5
A14
 10
-14.9799
 20
-13.6498
 30
0.000000
  70
    32
  0
VERTEX
  8
レイヤ__1
  5
A15
 10
-14.9876
 20
-13.6476
 30
0.000000
  70
    32
  0
VERTEX
  8
レイヤ__1
  5
A16
 10
-14.9952
 20
-13.6455
 30
0.000000
  70
    32
  0
VERTEX
  8
レイヤ__1
  5
A17
 10
-15.0026
 20
-13.6433
 30
0.000000
  70
    32
  0
VERTEX
  8
レイヤ__1
  5
A18
 10
-15.0099
 20
-13.6411
 30
0.000000
  70
    32
  0
VERTEX
  8
レイヤ__1
  5
A19
 10
-15.0171
 20
-13.6389
 30
0.000000
  70
    32
  0
VERTEX
  8
レイヤ__1
  5
A1A
 10
-15.0242
 20
-13.6367
 30
0.000000
  70
    32
  0
VERTEX
  8
レイヤ__1
  5
A1B
 10
-15.0311
 20
-13.6346
 30
0.000000
  70
    32
  0
VERTEX
  8
レイヤ__1
  5
A1C
 10
-15.0379
 20
-13.6324
 30
0.000000
  70
    32
  0
VERTEX
  8
レイヤ__1
  5
A1D
 10
-15.0446
 20
-13.6302
 30
0.000000
  70
    32
  0
VERTEX
  8
レイヤ__1
  5
A1E
 10
-15.0512
 20
-13.6280
 30
0.000000
  70
    32
  0
VERTEX
  8
レイヤ__1
  5
A1F
 10
-15.0577
 20
-13.6259
 30
0.000000
  70
    32
  0
VERTEX
  8
レイヤ__1
  5
A20
 10
-15.0640
 20
-13.6237
 30
0.000000
  70
    32
  0
VERTEX
  8
レイヤ__1
  5
A21
 10
-15.0702
 20
-13.6215
 30
0.000000
  70
    32
  0
VERTEX
  8
レイヤ__1
  5
A22
 10
-15.0763
 20
-13.6193
 30
0.000000
  70
    32
  0
VERTEX
  8
レイヤ__1
  5
A23
 10
-15.0823
 20
-13.6172
 30
0.000000
  70
    32
  0
VERTEX
  8
レイヤ__1
  5
A24
 10
-15.0881
 20
-13.6150
 30
0.000000
  70
    32
  0
VERTEX
  8
レイヤ__1
  5
A25
 10
-15.0939
 20
-13.6128
 30
0.000000
  70
    32
  0
VERTEX
  8
レイヤ__1
  5
A26
 10
-15.0995
 20
-13.6106
 30
0.000000
  70
    32
  0
VERTEX
  8
レイヤ__1
  5
A27
 10
-15.1050
 20
-13.6084
 30
0.000000
  70
    32
  0
VERTEX
  8
レイヤ__1
  5
A28
 10
-15.1104
 20
-13.6063
 30
0.000000
  70
    32
  0
VERTEX
  8
レイヤ__1
  5
A29
 10
-15.1157
 20
-13.6041
 30
0.000000
  70
    32
  0
VERTEX
  8
レイヤ__1
  5
A2A
 10
-15.1209
 20
-13.6019
 30
0.000000
  70
    32
  0
VERTEX
  8
レイヤ__1
  5
A2B
 10
-15.1260
 20
-13.5997
 30
0.000000
  70
    32
  0
VERTEX
  8
レイヤ__1
  5
A2C
 10
-15.1309
 20
-13.5974
 30
0.000000
  70
    32
  0
VERTEX
  8
レイヤ__1
  5
A2D
 10
-15.1358
 20
-13.5952
 30
0.000000
  70
    32
  0
VERTEX
  8
レイヤ__1
  5
A2E
 10
-15.1405
 20
-13.5930
 30
0.000000
  70
    32
  0
VERTEX
  8
レイヤ__1
  5
A2F
 10
-15.1451
 20
-13.5908
 30
0.000000
  70
    32
  0
VERTEX
  8
レイヤ__1
  5
A30
 10
-15.1496
 20
-13.5885
 30
0.000000
  70
    32
  0
VERTEX
  8
レイヤ__1
  5
A31
 10
-15.1540
 20
-13.5863
 30
0.000000
  70
    32
  0
VERTEX
  8
レイヤ__1
  5
A32
 10
-15.1584
 20
-13.5840
 30
0.000000
  70
    32
  0
VERTEX
  8
レイヤ__1
  5
A33
 10
-15.1625
 20
-13.5818
 30
0.000000
  70
    32
  0
VERTEX
  8
レイヤ__1
  5
A34
 10
-15.1666
 20
-13.5795
 30
0.000000
  70
    32
  0
VERTEX
  8
レイヤ__1
  5
A35
 10
-15.1706
 20
-13.5772
 30
0.000000
  70
    32
  0
VERTEX
  8
レイヤ__1
  5
A36
 10
-15.1745
 20
-13.5750
 30
0.000000
  70
    32
  0
VERTEX
  8
レイヤ__1
  5
A37
 10
-15.1783
 20
-13.5727
 30
0.000000
  70
    32
  0
VERTEX
  8
レイヤ__1
  5
A38
 10
-15.1820
 20
-13.5703
 30
0.000000
  70
    32
  0
VERTEX
  8
レイヤ__1
  5
A39
 10
-15.1855
 20
-13.5680
 30
0.000000
  70
    32
  0
VERTEX
  8
レイヤ__1
  5
A3A
 10
-15.1890
 20
-13.5657
 30
0.000000
  70
    32
  0
VERTEX
  8
レイヤ__1
  5
A3B
 10
-15.1924
 20
-13.5634
 30
0.000000
  70
    32
  0
VERTEX
  8
レイヤ__1
  5
A3C
 10
-15.1957
 20
-13.5610
 30
0.000000
  70
    32
  0
VERTEX
  8
レイヤ__1
  5
A3D
 10
-15.1989
 20
-13.5586
 30
0.000000
  70
    32
  0
VERTEX
  8
レイヤ__1
  5
A3E
 10
-15.2019
 20
-13.5563
 30
0.000000
  70
    32
  0
VERTEX
  8
レイヤ__1
  5
A3F
 10
-15.2049
 20
-13.5539
 30
0.000000
  70
    32
  0
VERTEX
  8
レイヤ__1
  5
A40
 10
-15.2078
 20
-13.5515
 30
0.000000
  70
    32
  0
VERTEX
  8
レイヤ__1
  5
A41
 10
-15.2106
 20
-13.5490
 30
0.000000
  70
    32
  0
VERTEX
  8
レイヤ__1
  5
A42
 10
-15.2133
 20
-13.5466
 30
0.000000
  70
    32
  0
VERTEX
  8
レイヤ__1
  5
A43
 10
-15.2159
 20
-13.5441
 30
0.000000
  70
    32
  0
VERTEX
  8
レイヤ__1
  5
A44
 10
-15.2184
 20
-13.5417
 30
0.000000
  70
    32
  0
VERTEX
  8
レイヤ__1
  5
A45
 10
-15.2208
 20
-13.5392
 30
0.000000
  70
    32
  0
VERTEX
  8
レイヤ__1
  5
A46
 10
-15.2231
 20
-13.5367
 30
0.000000
  70
    32
  0
VERTEX
  8
レイヤ__1
  5
A47
 10
-15.2254
 20
-13.5342
 30
0.000000
  70
    32
  0
VERTEX
  8
レイヤ__1
  5
A48
 10
-15.2275
 20
-13.5316
 30
0.000000
  70
    32
  0
VERTEX
  8
レイヤ__1
  5
A49
 10
-15.2295
 20
-13.5291
 30
0.000000
  70
    32
  0
VERTEX
  8
レイヤ__1
  5
A4A
 10
-15.2315
 20
-13.5265
 30
0.000000
  70
    32
  0
VERTEX
  8
レイヤ__1
  5
A4B
 10
-15.2334
 20
-13.5239
 30
0.000000
  70
    32
  0
VERTEX
  8
レイヤ__1
  5
A4C
 10
-15.2352
 20
-13.5213
 30
0.000000
  70
    32
  0
VERTEX
  8
レイヤ__1
  5
A4D
 10
-15.2369
 20
-13.5187
 30
0.000000
  70
    32
  0
VERTEX
  8
レイヤ__1
  5
A4E
 10
-15.2385
 20
-13.5160
 30
0.000000
  70
    32
  0
VERTEX
  8
レイヤ__1
  5
A4F
 10
-15.2400
 20
-13.5134
 30
0.000000
  70
    32
  0
VERTEX
  8
レイヤ__1
  5
A50
 10
-15.2414
 20
-13.5107
 30
0.000000
  70
    32
  0
VERTEX
  8
レイヤ__1
  5
A51
 10
-15.2428
 20
-13.5080
 30
0.000000
  70
    32
  0
VERTEX
  8
レイヤ__1
  5
A52
 10
-15.2440
 20
-13.5052
 30
0.000000
  70
    32
  0
VERTEX
  8
レイヤ__1
  5
A53
 10
-15.2452
 20
-13.5025
 30
0.000000
  70
    32
  0
VERTEX
  8
レイヤ__1
  5
A54
 10
-15.2463
 20
-13.4997
 30
0.000000
  70
    32
  0
VERTEX
  8
レイヤ__1
  5
A55
 10
-15.2474
 20
-13.4969
 30
0.000000
  70
    32
  0
VERTEX
  8
レイヤ__1
  5
A56
 10
-15.2483
 20
-13.4941
 30
0.000000
  70
    32
  0
VERTEX
  8
レイヤ__1
  5
A57
 10
-15.2492
 20
-13.4913
 30
0.000000
  70
    32
  0
VERTEX
  8
レイヤ__1
  5
A58
 10
-15.2500
 20
-13.4884
 30
0.000000
  70
    32
  0
VERTEX
  8
レイヤ__1
  5
A59
 10
-15.2507
 20
-13.4855
 30
0.000000
  70
    32
  0
VERTEX
  8
レイヤ__1
  5
A5A
 10
-15.2513
 20
-13.4826
 30
0.000000
  70
    32
  0
VERTEX
  8
レイヤ__1
  5
A5B
 10
-15.2518
 20
-13.4796
 30
0.000000
  70
    32
  0
VERTEX
  8
レイヤ__1
  5
A5C
 10
-15.2523
 20
-13.4767
 30
0.000000
  70
    32
  0
VERTEX
  8
レイヤ__1
  5
A5D
 10
-15.2527
 20
-13.4737
 30
0.000000
  70
    32
  0
VERTEX
  8
レイヤ__1
  5
A5E
 10
-15.2530
 20
-13.4706
 30
0.000000
  70
    32
  0
VERTEX
  8
レイヤ__1
  5
A5F
 10
-15.2533
 20
-13.4676
 30
0.000000
  70
    32
  0
VERTEX
  8
レイヤ__1
  5
A60
 10
-15.2534
 20
-13.4645
 30
0.000000
  70
    32
  0
VERTEX
  8
レイヤ__1
  5
A61
 10
-15.2535
 20
-13.4614
 30
0.000000
  70
    32
  0
VERTEX
  8
レイヤ__1
  5
A62
 10
-15.2536
 20
-13.4583
 30
0.000000
  70
    32
  0
VERTEX
  8
レイヤ__1
  5
A63
 10
-15.2535
 20
-13.4551
 30
0.000000
  70
    32
  0
VERTEX
  8
レイヤ__1
  5
A64
 10
-15.2534
 20
-13.4519
 30
0.000000
  70
    32
  0
VERTEX
  8
レイヤ__1
  5
A65
 10
-15.2532
 20
-13.4487
 30
0.000000
  70
    32
  0
VERTEX
  8
レイヤ__1
  5
A66
 10
-15.2530
 20
-13.4454
 30
0.000000
  70
    32
  0
VERTEX
  8
レイヤ__1
  5
A67
 10
-15.2527
 20
-13.4422
 30
0.000000
  70
    32
  0
VERTEX
  8
レイヤ__1
  5
A68
 10
-15.2523
 20
-13.4388
 30
0.000000
  70
    32
  0
VERTEX
  8
レイヤ__1
  5
A69
 10
-15.2518
 20
-13.4355
 30
0.000000
  70
    32
  0
VERTEX
  8
レイヤ__1
  5
A6A
 10
-15.2513
 20
-13.4321
 30
0.000000
  70
    32
  0
VERTEX
  8
レイヤ__1
  5
A6B
 10
-15.2507
 20
-13.4287
 30
0.000000
  70
    32
  0
VERTEX
  8
レイヤ__1
  5
A6C
 10
-15.2501
 20
-13.4253
 30
0.000000
  70
    32
  0
SEQEND
  8
レイヤ__1
  5
A6D
  0
POLYLINE
  8
レイヤ__1
  5
A6E
  62
5
  66
     1
 10
0.000000
 20
0.000000
 30
0.000000
  70
     8
  0
VERTEX
  8
レイヤ__1
  5
A6F
 10
-15.2501
 20
-13.4253
 30
0.000000
  70
    32
  0
VERTEX
  8
レイヤ__1
  5
A70
 10
-15.2494
 20
-13.4219
 30
0.000000
  70
    32
  0
VERTEX
  8
レイヤ__1
  5
A71
 10
-15.2486
 20
-13.4185
 30
0.000000
  70
    32
  0
VERTEX
  8
レイヤ__1
  5
A72
 10
-15.2478
 20
-13.4152
 30
0.000000
  70
    32
  0
VERTEX
  8
レイヤ__1
  5
A73
 10
-15.2470
 20
-13.4119
 30
0.000000
  70
    32
  0
VERTEX
  8
レイヤ__1
  5
A74
 10
-15.2461
 20
-13.4086
 30
0.000000
  70
    32
  0
VERTEX
  8
レイヤ__1
  5
A75
 10
-15.2452
 20
-13.4053
 30
0.000000
  70
    32
  0
VERTEX
  8
レイヤ__1
  5
A76
 10
-15.2442
 20
-13.4020
 30
0.000000
  70
    32
  0
VERTEX
  8
レイヤ__1
  5
A77
 10
-15.2432
 20
-13.3987
 30
0.000000
  70
    32
  0
VERTEX
  8
レイヤ__1
  5
A78
 10
-15.2422
 20
-13.3955
 30
0.000000
  70
    32
  0
VERTEX
  8
レイヤ__1
  5
A79
 10
-15.2410
 20
-13.3923
 30
0.000000
  70
    32
  0
VERTEX
  8
レイヤ__1
  5
A7A
 10
-15.2399
 20
-13.3891
 30
0.000000
  70
    32
  0
VERTEX
  8
レイヤ__1
  5
A7B
 10
-15.2387
 20
-13.3859
 30
0.000000
  70
    32
  0
VERTEX
  8
レイヤ__1
  5
A7C
 10
-15.2374
 20
-13.3827
 30
0.000000
  70
    32
  0
VERTEX
  8
レイヤ__1
  5
A7D
 10
-15.2361
 20
-13.3796
 30
0.000000
  70
    32
  0
VERTEX
  8
レイヤ__1
  5
A7E
 10
-15.2348
 20
-13.3764
 30
0.000000
  70
    32
  0
VERTEX
  8
レイヤ__1
  5
A7F
 10
-15.2334
 20
-13.3733
 30
0.000000
  70
    32
  0
VERTEX
  8
レイヤ__1
  5
A80
 10
-15.2320
 20
-13.3702
 30
0.000000
  70
    32
  0
VERTEX
  8
レイヤ__1
  5
A81
 10
-15.2305
 20
-13.3671
 30
0.000000
  70
    32
  0
VERTEX
  8
レイヤ__1
  5
A82
 10
-15.2289
 20
-13.3641
 30
0.000000
  70
    32
  0
VERTEX
  8
レイヤ__1
  5
A83
 10
-15.2274
 20
-13.3610
 30
0.000000
  70
    32
  0
VERTEX
  8
レイヤ__1
  5
A84
 10
-15.2257
 20
-13.3580
 30
0.000000
  70
    32
  0
VERTEX
  8
レイヤ__1
  5
A85
 10
-15.2241
 20
-13.3550
 30
0.000000
  70
    32
  0
VERTEX
  8
レイヤ__1
  5
A86
 10
-15.2223
 20
-13.3520
 30
0.000000
  70
    32
  0
VERTEX
  8
レイヤ__1
  5
A87
 10
-15.2206
 20
-13.3491
 30
0.000000
  70
    32
  0
VERTEX
  8
レイヤ__1
  5
A88
 10
-15.2187
 20
-13.3461
 30
0.000000
  70
    32
  0
VERTEX
  8
レイヤ__1
  5
A89
 10
-15.2169
 20
-13.3432
 30
0.000000
  70
    32
  0
VERTEX
  8
レイヤ__1
  5
A8A
 10
-15.2149
 20
-13.3403
 30
0.000000
  70
    32
  0
VERTEX
  8
レイヤ__1
  5
A8B
 10
-15.2130
 20
-13.3374
 30
0.000000
  70
    32
  0
VERTEX
  8
レイヤ__1
  5
A8C
 10
-15.2110
 20
-13.3345
 30
0.000000
  70
    32
  0
VERTEX
  8
レイヤ__1
  5
A8D
 10
-15.2089
 20
-13.3317
 30
0.000000
  70
    32
  0
VERTEX
  8
レイヤ__1
  5
A8E
 10
-15.2068
 20
-13.3289
 30
0.000000
  70
    32
  0
VERTEX
  8
レイヤ__1
  5
A8F
 10
-15.2046
 20
-13.3261
 30
0.000000
  70
    32
  0
VERTEX
  8
レイヤ__1
  5
A90
 10
-15.2024
 20
-13.3233
 30
0.000000
  70
    32
  0
VERTEX
  8
レイヤ__1
  5
A91
 10
-15.2001
 20
-13.3205
 30
0.000000
  70
    32
  0
VERTEX
  8
レイヤ__1
  5
A92
 10
-15.1978
 20
-13.3178
 30
0.000000
  70
    32
  0
VERTEX
  8
レイヤ__1
  5
A93
 10
-15.1955
 20
-13.3151
 30
0.000000
  70
    32
  0
VERTEX
  8
レイヤ__1
  5
A94
 10
-15.1930
 20
-13.3124
 30
0.000000
  70
    32
  0
VERTEX
  8
レイヤ__1
  5
A95
 10
-15.1906
 20
-13.3097
 30
0.000000
  70
    32
  0
VERTEX
  8
レイヤ__1
  5
A96
 10
-15.1881
 20
-13.3071
 30
0.000000
  70
    32
  0
VERTEX
  8
レイヤ__1
  5
A97
 10
-15.1855
 20
-13.3045
 30
0.000000
  70
    32
  0
VERTEX
  8
レイヤ__1
  5
A98
 10
-15.1829
 20
-13.3019
 30
0.000000
  70
    32
  0
VERTEX
  8
レイヤ__1
  5
A99
 10
-15.1802
 20
-13.2993
 30
0.000000
  70
    32
  0
VERTEX
  8
レイヤ__1
  5
A9A
 10
-15.1775
 20
-13.2967
 30
0.000000
  70
    32
  0
VERTEX
  8
レイヤ__1
  5
A9B
 10
-15.1748
 20
-13.2942
 30
0.000000
  70
    32
  0
VERTEX
  8
レイヤ__1
  5
A9C
 10
-15.1719
 20
-13.2917
 30
0.000000
  70
    32
  0
VERTEX
  8
レイヤ__1
  5
A9D
 10
-15.1691
 20
-13.2892
 30
0.000000
  70
    32
  0
VERTEX
  8
レイヤ__1
  5
A9E
 10
-15.1661
 20
-13.2867
 30
0.000000
  70
    32
  0
VERTEX
  8
レイヤ__1
  5
A9F
 10
-15.1632
 20
-13.2843
 30
0.000000
  70
    32
  0
VERTEX
  8
レイヤ__1
  5
AA0
 10
-15.1602
 20
-13.2819
 30
0.000000
  70
    32
  0
VERTEX
  8
レイヤ__1
  5
AA1
 10
-15.1571
 20
-13.2795
 30
0.000000
  70
    32
  0
VERTEX
  8
レイヤ__1
  5
AA2
 10
-15.1540
 20
-13.2771
 30
0.000000
  70
    32
  0
VERTEX
  8
レイヤ__1
  5
AA3
 10
-15.1508
 20
-13.2748
 30
0.000000
  70
    32
  0
VERTEX
  8
レイヤ__1
  5
AA4
 10
-15.1476
 20
-13.2724
 30
0.000000
  70
    32
  0
VERTEX
  8
レイヤ__1
  5
AA5
 10
-15.1443
 20
-13.2701
 30
0.000000
  70
    32
  0
VERTEX
  8
レイヤ__1
  5
AA6
 10
-15.1409
 20
-13.2679
 30
0.000000
  70
    32
  0
VERTEX
  8
レイヤ__1
  5
AA7
 10
-15.1376
 20
-13.2656
 30
0.000000
  70
    32
  0
VERTEX
  8
レイヤ__1
  5
AA8
 10
-15.1341
 20
-13.2634
 30
0.000000
  70
    32
  0
VERTEX
  8
レイヤ__1
  5
AA9
 10
-15.1306
 20
-13.2612
 30
0.000000
  70
    32
  0
VERTEX
  8
レイヤ__1
  5
AAA
 10
-15.1271
 20
-13.2590
 30
0.000000
  70
    32
  0
VERTEX
  8
レイヤ__1
  5
AAB
 10
-15.1235
 20
-13.2569
 30
0.000000
  70
    32
  0
VERTEX
  8
レイヤ__1
  5
AAC
 10
-15.1199
 20
-13.2548
 30
0.000000
  70
    32
  0
VERTEX
  8
レイヤ__1
  5
AAD
 10
-15.1162
 20
-13.2527
 30
0.000000
  70
    32
  0
VERTEX
  8
レイヤ__1
  5
AAE
 10
-15.1124
 20
-13.2506
 30
0.000000
  70
    32
  0
VERTEX
  8
レイヤ__1
  5
AAF
 10
-15.1086
 20
-13.2486
 30
0.000000
  70
    32
  0
VERTEX
  8
レイヤ__1
  5
AB0
 10
-15.1047
 20
-13.2466
 30
0.000000
  70
    32
  0
VERTEX
  8
レイヤ__1
  5
AB1
 10
-15.1008
 20
-13.2446
 30
0.000000
  70
    32
  0
VERTEX
  8
レイヤ__1
  5
AB2
 10
-15.0969
 20
-13.2426
 30
0.000000
  70
    32
  0
VERTEX
  8
レイヤ__1
  5
AB3
 10
-15.0928
 20
-13.2407
 30
0.000000
  70
    32
  0
VERTEX
  8
レイヤ__1
  5
AB4
 10
-15.0888
 20
-13.2388
 30
0.000000
  70
    32
  0
VERTEX
  8
レイヤ__1
  5
AB5
 10
-15.0846
 20
-13.2369
 30
0.000000
  70
    32
  0
VERTEX
  8
レイヤ__1
  5
AB6
 10
-15.0805
 20
-13.2351
 30
0.000000
  70
    32
  0
VERTEX
  8
レイヤ__1
  5
AB7
 10
-15.0762
 20
-13.2333
 30
0.000000
  70
    32
  0
VERTEX
  8
レイヤ__1
  5
AB8
 10
-15.0719
 20
-13.2315
 30
0.000000
  70
    32
  0
VERTEX
  8
レイヤ__1
  5
AB9
 10
-15.0676
 20
-13.2297
 30
0.000000
  70
    32
  0
VERTEX
  8
レイヤ__1
  5
ABA
 10
-15.0632
 20
-13.2280
 30
0.000000
  70
    32
  0
VERTEX
  8
レイヤ__1
  5
ABB
 10
-15.0587
 20
-13.2263
 30
0.000000
  70
    32
  0
VERTEX
  8
レイヤ__1
  5
ABC
 10
-15.0542
 20
-13.2246
 30
0.000000
  70
    32
  0
VERTEX
  8
レイヤ__1
  5
ABD
 10
-15.0497
 20
-13.2230
 30
0.000000
  70
    32
  0
VERTEX
  8
レイヤ__1
  5
ABE
 10
-15.0450
 20
-13.2213
 30
0.000000
  70
    32
  0
VERTEX
  8
レイヤ__1
  5
ABF
 10
-15.0404
 20
-13.2197
 30
0.000000
  70
    32
  0
VERTEX
  8
レイヤ__1
  5
AC0
 10
-15.0356
 20
-13.2182
 30
0.000000
  70
    32
  0
VERTEX
  8
レイヤ__1
  5
AC1
 10
-15.0309
 20
-13.2167
 30
0.000000
  70
    32
  0
VERTEX
  8
レイヤ__1
  5
AC2
 10
-15.0260
 20
-13.2152
 30
0.000000
  70
    32
  0
VERTEX
  8
レイヤ__1
  5
AC3
 10
-15.0211
 20
-13.2137
 30
0.000000
  70
    32
  0
VERTEX
  8
レイヤ__1
  5
AC4
 10
-15.0162
 20
-13.2122
 30
0.000000
  70
    32
  0
VERTEX
  8
レイヤ__1
  5
AC5
 10
-15.0112
 20
-13.2108
 30
0.000000
  70
    32
  0
VERTEX
  8
レイヤ__1
  5
AC6
 10
-15.0061
 20
-13.2095
 30
0.000000
  70
    32
  0
VERTEX
  8
レイヤ__1
  5
AC7
 10
-15.0010
 20
-13.2081
 30
0.000000
  70
    32
  0
VERTEX
  8
レイヤ__1
  5
AC8
 10
-14.9958
 20
-13.2068
 30
0.000000
  70
    32
  0
VERTEX
  8
レイヤ__1
  5
AC9
 10
-14.9906
 20
-13.2055
 30
0.000000
  70
    32
  0
VERTEX
  8
レイヤ__1
  5
ACA
 10
-14.9853
 20
-13.2042
 30
0.000000
  70
    32
  0
VERTEX
  8
レイヤ__1
  5
ACB
 10
-14.9799
 20
-13.2030
 30
0.000000
  70
    32
  0
VERTEX
  8
レイヤ__1
  5
ACC
 10
-14.9745
 20
-13.2018
 30
0.000000
  70
    32
  0
VERTEX
  8
レイヤ__1
  5
ACD
 10
-14.9691
 20
-13.2007
 30
0.000000
  70
    32
  0
VERTEX
  8
レイヤ__1
  5
ACE
 10
-14.9636
 20
-13.1995
 30
0.000000
  70
    32
  0
VERTEX
  8
レイヤ__1
  5
ACF
 10
-14.9580
 20
-13.1984
 30
0.000000
  70
    32
  0
VERTEX
  8
レイヤ__1
  5
AD0
 10
-14.9524
 20
-13.1974
 30
0.000000
  70
    32
  0
VERTEX
  8
レイヤ__1
  5
AD1
 10
-14.9467
 20
-13.1963
 30
0.000000
  70
    32
  0
VERTEX
  8
レイヤ__1
  5
AD2
 10
-14.9409
 20
-13.1953
 30
0.000000
  70
    32
  0
VERTEX
  8
レイヤ__1
  5
AD3
 10
-14.9351
 20
-13.1944
 30
0.000000
  70
    32
  0
VERTEX
  8
レイヤ__1
  5
AD4
 10
-14.9293
 20
-13.1934
 30
0.000000
  70
    32
  0
VERTEX
  8
レイヤ__1
  5
AD5
 10
-14.9233
 20
-13.1925
 30
0.000000
  70
    32
  0
VERTEX
  8
レイヤ__1
  5
AD6
 10
-14.9174
 20
-13.1917
 30
0.000000
  70
    32
  0
VERTEX
  8
レイヤ__1
  5
AD7
 10
-14.9113
 20
-13.1908
 30
0.000000
  70
    32
  0
VERTEX
  8
レイヤ__1
  5
AD8
 10
-14.9052
 20
-13.1900
 30
0.000000
  70
    32
  0
VERTEX
  8
レイヤ__1
  5
AD9
 10
-14.8991
 20
-13.1893
 30
0.000000
  70
    32
  0
VERTEX
  8
レイヤ__1
  5
ADA
 10
-14.8929
 20
-13.1885
 30
0.000000
  70
    32
  0
VERTEX
  8
レイヤ__1
  5
ADB
 10
-14.8866
 20
-13.1878
 30
0.000000
  70
    32
  0
VERTEX
  8
レイヤ__1
  5
ADC
 10
-14.8803
 20
-13.1872
 30
0.000000
  70
    32
  0
VERTEX
  8
レイヤ__1
  5
ADD
 10
-14.8739
 20
-13.1865
 30
0.000000
  70
    32
  0
VERTEX
  8
レイヤ__1
  5
ADE
 10
-14.8675
 20
-13.1859
 30
0.000000
  70
    32
  0
VERTEX
  8
レイヤ__1
  5
ADF
 10
-14.8610
 20
-13.1854
 30
0.000000
  70
    32
  0
VERTEX
  8
レイヤ__1
  5
AE0
 10
-14.8544
 20
-13.1849
 30
0.000000
  70
    32
  0
VERTEX
  8
レイヤ__1
  5
AE1
 10
-14.8478
 20
-13.1844
 30
0.000000
  70
    32
  0
VERTEX
  8
レイヤ__1
  5
AE2
 10
-14.8411
 20
-13.1839
 30
0.000000
  70
    32
  0
VERTEX
  8
レイヤ__1
  5
AE3
 10
-14.8343
 20
-13.1835
 30
0.000000
  70
    32
  0
VERTEX
  8
レイヤ__1
  5
AE4
 10
-14.8275
 20
-13.1831
 30
0.000000
  70
    32
  0
VERTEX
  8
レイヤ__1
  5
AE5
 10
-14.8207
 20
-13.1828
 30
0.000000
  70
    32
  0
VERTEX
  8
レイヤ__1
  5
AE6
 10
-14.8138
 20
-13.1824
 30
0.000000
  70
    32
  0
VERTEX
  8
レイヤ__1
  5
AE7
 10
-14.8068
 20
-13.1822
 30
0.000000
  70
    32
  0
VERTEX
  8
レイヤ__1
  5
AE8
 10
-14.7997
 20
-13.1819
 30
0.000000
  70
    32
  0
VERTEX
  8
レイヤ__1
  5
AE9
 10
-14.7926
 20
-13.1817
 30
0.000000
  70
    32
  0
VERTEX
  8
レイヤ__1
  5
AEA
 10
-14.7855
 20
-13.1816
 30
0.000000
  70
    32
  0
VERTEX
  8
レイヤ__1
  5
AEB
 10
-14.7783
 20
-13.1814
 30
0.000000
  70
    32
  0
VERTEX
  8
レイヤ__1
  5
AEC
 10
-14.7710
 20
-13.1813
 30
0.000000
  70
    32
  0
VERTEX
  8
レイヤ__1
  5
AED
 10
-14.7636
 20
-13.1813
 30
0.000000
  70
    32
  0
VERTEX
  8
レイヤ__1
  5
AEE
 10
-14.7562
 20
-13.1813
 30
0.000000
  70
    32
  0
SEQEND
  8
レイヤ__1
  5
AEF
  0
POLYLINE
  8
レイヤ__1
  5
AF0
  62
5
  66
     1
 10
0.000000
 20
0.000000
 30
0.000000
  70
     8
  0
VERTEX
  8
レイヤ__1
  5
AF1
 10
-16.3829
 20
-13.3936
 30
0.000000
  70
    32
  0
VERTEX
  8
レイヤ__1
  5
AF2
 10
-16.3871
 20
-13.4170
 30
0.000000
  70
    32
  0
VERTEX
  8
レイヤ__1
  5
AF3
 10
-16.3910
 20
-13.4402
 30
0.000000
  70
    32
  0
VERTEX
  8
レイヤ__1
  5
AF4
 10
-16.3944
 20
-13.4631
 30
0.000000
  70
    32
  0
VERTEX
  8
レイヤ__1
  5
AF5
 10
-16.3975
 20
-13.4857
 30
0.000000
  70
    32
  0
VERTEX
  8
レイヤ__1
  5
AF6
 10
-16.4002
 20
-13.5079
 30
0.000000
  70
    32
  0
VERTEX
  8
レイヤ__1
  5
AF7
 10
-16.4025
 20
-13.5299
 30
0.000000
  70
    32
  0
VERTEX
  8
レイヤ__1
  5
AF8
 10
-16.4045
 20
-13.5516
 30
0.000000
  70
    32
  0
VERTEX
  8
レイヤ__1
  5
AF9
 10
-16.4062
 20
-13.5729
 30
0.000000
  70
    32
  0
VERTEX
  8
レイヤ__1
  5
AFA
 10
-16.4075
 20
-13.5940
 30
0.000000
  70
    32
  0
VERTEX
  8
レイヤ__1
  5
AFB
 10
-16.4084
 20
-13.6148
 30
0.000000
  70
    32
  0
VERTEX
  8
レイヤ__1
  5
AFC
 10
-16.4090
 20
-13.6353
 30
0.000000
  70
    32
  0
VERTEX
  8
レイヤ__1
  5
AFD
 10
-16.4092
 20
-13.6555
 30
0.000000
  70
    32
  0
VERTEX
  8
レイヤ__1
  5
AFE
 10
-16.4092
 20
-13.6754
 30
0.000000
  70
    32
  0
VERTEX
  8
レイヤ__1
  5
AFF
 10
-16.4088
 20
-13.6951
 30
0.000000
  70
    32
  0
VERTEX
  8
レイヤ__1
  5
B00
 10
-16.4080
 20
-13.7144
 30
0.000000
  70
    32
  0
VERTEX
  8
レイヤ__1
  5
B01
 10
-16.4070
 20
-13.7335
 30
0.000000
  70
    32
  0
VERTEX
  8
レイヤ__1
  5
B02
 10
-16.4056
 20
-13.7523
 30
0.000000
  70
    32
  0
VERTEX
  8
レイヤ__1
  5
B03
 10
-16.4039
 20
-13.7709
 30
0.000000
  70
    32
  0
VERTEX
  8
レイヤ__1
  5
B04
 10
-16.4019
 20
-13.7891
 30
0.000000
  70
    32
  0
VERTEX
  8
レイヤ__1
  5
B05
 10
-16.3996
 20
-13.8071
 30
0.000000
  70
    32
  0
VERTEX
  8
レイヤ__1
  5
B06
 10
-16.3970
 20
-13.8248
 30
0.000000
  70
    32
  0
VERTEX
  8
レイヤ__1
  5
B07
 10
-16.3942
 20
-13.8423
 30
0.000000
  70
    32
  0
VERTEX
  8
レイヤ__1
  5
B08
 10
-16.3910
 20
-13.8595
 30
0.000000
  70
    32
  0
VERTEX
  8
レイヤ__1
  5
B09
 10
-16.3875
 20
-13.8765
 30
0.000000
  70
    32
  0
VERTEX
  8
レイヤ__1
  5
B0A
 10
-16.3837
 20
-13.8932
 30
0.000000
  70
    32
  0
VERTEX
  8
レイヤ__1
  5
B0B
 10
-16.3797
 20
-13.9096
 30
0.000000
  70
    32
  0
VERTEX
  8
レイヤ__1
  5
B0C
 10
-16.3754
 20
-13.9258
 30
0.000000
  70
    32
  0
VERTEX
  8
レイヤ__1
  5
B0D
 10
-16.3708
 20
-13.9417
 30
0.000000
  70
    32
  0
VERTEX
  8
レイヤ__1
  5
B0E
 10
-16.3660
 20
-13.9574
 30
0.000000
  70
    32
  0
VERTEX
  8
レイヤ__1
  5
B0F
 10
-16.3609
 20
-13.9728
 30
0.000000
  70
    32
  0
VERTEX
  8
レイヤ__1
  5
B10
 10
-16.3555
 20
-13.9880
 30
0.000000
  70
    32
  0
VERTEX
  8
レイヤ__1
  5
B11
 10
-16.3499
 20
-14.0030
 30
0.000000
  70
    32
  0
VERTEX
  8
レイヤ__1
  5
B12
 10
-16.3440
 20
-14.0177
 30
0.000000
  70
    32
  0
VERTEX
  8
レイヤ__1
  5
B13
 10
-16.3379
 20
-14.0322
 30
0.000000
  70
    32
  0
VERTEX
  8
レイヤ__1
  5
B14
 10
-16.3315
 20
-14.0465
 30
0.000000
  70
    32
  0
VERTEX
  8
レイヤ__1
  5
B15
 10
-16.3249
 20
-14.0605
 30
0.000000
  70
    32
  0
VERTEX
  8
レイヤ__1
  5
B16
 10
-16.3181
 20
-14.0743
 30
0.000000
  70
    32
  0
VERTEX
  8
レイヤ__1
  5
B17
 10
-16.3110
 20
-14.0879
 30
0.000000
  70
    32
  0
VERTEX
  8
レイヤ__1
  5
B18
 10
-16.3037
 20
-14.1012
 30
0.000000
  70
    32
  0
VERTEX
  8
レイヤ__1
  5
B19
 10
-16.2962
 20
-14.1144
 30
0.000000
  70
    32
  0
VERTEX
  8
レイヤ__1
  5
B1A
 10
-16.2885
 20
-14.1273
 30
0.000000
  70
    32
  0
VERTEX
  8
レイヤ__1
  5
B1B
 10
-16.2805
 20
-14.1400
 30
0.000000
  70
    32
  0
VERTEX
  8
レイヤ__1
  5
B1C
 10
-16.2724
 20
-14.1524
 30
0.000000
  70
    32
  0
VERTEX
  8
レイヤ__1
  5
B1D
 10
-16.2640
 20
-14.1647
 30
0.000000
  70
    32
  0
VERTEX
  8
レイヤ__1
  5
B1E
 10
-16.2555
 20
-14.1768
 30
0.000000
  70
    32
  0
VERTEX
  8
レイヤ__1
  5
B1F
 10
-16.2467
 20
-14.1886
 30
0.000000
  70
    32
  0
VERTEX
  8
レイヤ__1
  5
B20
 10
-16.2378
 20
-14.2003
 30
0.000000
  70
    32
  0
VERTEX
  8
レイヤ__1
  5
B21
 10
-16.2287
 20
-14.2117
 30
0.000000
  70
    32
  0
VERTEX
  8
レイヤ__1
  5
B22
 10
-16.2194
 20
-14.2230
 30
0.000000
  70
    32
  0
VERTEX
  8
レイヤ__1
  5
B23
 10
-16.2099
 20
-14.2340
 30
0.000000
  70
    32
  0
VERTEX
  8
レイヤ__1
  5
B24
 10
-16.2002
 20
-14.2449
 30
0.000000
  70
    32
  0
VERTEX
  8
レイヤ__1
  5
B25
 10
-16.1904
 20
-14.2555
 30
0.000000
  70
    32
  0
VERTEX
  8
レイヤ__1
  5
B26
 10
-16.1803
 20
-14.2660
 30
0.000000
  70
    32
  0
VERTEX
  8
レイヤ__1
  5
B27
 10
-16.1702
 20
-14.2763
 30
0.000000
  70
    32
  0
VERTEX
  8
レイヤ__1
  5
B28
 10
-16.1599
 20
-14.2864
 30
0.000000
  70
    32
  0
VERTEX
  8
レイヤ__1
  5
B29
 10
-16.1494
 20
-14.2963
 30
0.000000
  70
    32
  0
VERTEX
  8
レイヤ__1
  5
B2A
 10
-16.1387
 20
-14.3060
 30
0.000000
  70
    32
  0
VERTEX
  8
レイヤ__1
  5
B2B
 10
-16.1280
 20
-14.3156
 30
0.000000
  70
    32
  0
VERTEX
  8
レイヤ__1
  5
B2C
 10
-16.1170
 20
-14.3250
 30
0.000000
  70
    32
  0
VERTEX
  8
レイヤ__1
  5
B2D
 10
-16.1060
 20
-14.3342
 30
0.000000
  70
    32
  0
VERTEX
  8
レイヤ__1
  5
B2E
 10
-16.0948
 20
-14.3432
 30
0.000000
  70
    32
  0
VERTEX
  8
レイヤ__1
  5
B2F
 10
-16.0835
 20
-14.3521
 30
0.000000
  70
    32
  0
VERTEX
  8
レイヤ__1
  5
B30
 10
-16.0720
 20
-14.3608
 30
0.000000
  70
    32
  0
VERTEX
  8
レイヤ__1
  5
B31
 10
-16.0605
 20
-14.3693
 30
0.000000
  70
    32
  0
VERTEX
  8
レイヤ__1
  5
B32
 10
-16.0488
 20
-14.3777
 30
0.000000
  70
    32
  0
VERTEX
  8
レイヤ__1
  5
B33
 10
-16.0370
 20
-14.3859
 30
0.000000
  70
    32
  0
VERTEX
  8
レイヤ__1
  5
B34
 10
-16.0251
 20
-14.3940
 30
0.000000
  70
    32
  0
VERTEX
  8
レイヤ__1
  5
B35
 10
-16.0131
 20
-14.4019
 30
0.000000
  70
    32
  0
VERTEX
  8
レイヤ__1
  5
B36
 10
-16.0010
 20
-14.4096
 30
0.000000
  70
    32
  0
VERTEX
  8
レイヤ__1
  5
B37
 10
-15.9888
 20
-14.4172
 30
0.000000
  70
    32
  0
VERTEX
  8
レイヤ__1
  5
B38
 10
-15.9765
 20
-14.4247
 30
0.000000
  70
    32
  0
VERTEX
  8
レイヤ__1
  5
B39
 10
-15.9641
 20
-14.4320
 30
0.000000
  70
    32
  0
VERTEX
  8
レイヤ__1
  5
B3A
 10
-15.9516
 20
-14.4391
 30
0.000000
  70
    32
  0
VERTEX
  8
レイヤ__1
  5
B3B
 10
-15.9391
 20
-14.4462
 30
0.000000
  70
    32
  0
VERTEX
  8
レイヤ__1
  5
B3C
 10
-15.9264
 20
-14.4530
 30
0.000000
  70
    32
  0
VERTEX
  8
レイヤ__1
  5
B3D
 10
-15.9137
 20
-14.4598
 30
0.000000
  70
    32
  0
VERTEX
  8
レイヤ__1
  5
B3E
 10
-15.9010
 20
-14.4664
 30
0.000000
  70
    32
  0
VERTEX
  8
レイヤ__1
  5
B3F
 10
-15.8882
 20
-14.4729
 30
0.000000
  70
    32
  0
VERTEX
  8
レイヤ__1
  5
B40
 10
-15.8753
 20
-14.4792
 30
0.000000
  70
    32
  0
VERTEX
  8
レイヤ__1
  5
B41
 10
-15.8623
 20
-14.4855
 30
0.000000
  70
    32
  0
VERTEX
  8
レイヤ__1
  5
B42
 10
-15.8494
 20
-14.4916
 30
0.000000
  70
    32
  0
VERTEX
  8
レイヤ__1
  5
B43
 10
-15.8363
 20
-14.4975
 30
0.000000
  70
    32
  0
VERTEX
  8
レイヤ__1
  5
B44
 10
-15.8232
 20
-14.5034
 30
0.000000
  70
    32
  0
VERTEX
  8
レイヤ__1
  5
B45
 10
-15.8101
 20
-14.5092
 30
0.000000
  70
    32
  0
VERTEX
  8
レイヤ__1
  5
B46
 10
-15.7970
 20
-14.5148
 30
0.000000
  70
    32
  0
VERTEX
  8
レイヤ__1
  5
B47
 10
-15.7838
 20
-14.5203
 30
0.000000
  70
    32
  0
VERTEX
  8
レイヤ__1
  5
B48
 10
-15.7706
 20
-14.5257
 30
0.000000
  70
    32
  0
VERTEX
  8
レイヤ__1
  5
B49
 10
-15.7574
 20
-14.5310
 30
0.000000
  70
    32
  0
VERTEX
  8
レイヤ__1
  5
B4A
 10
-15.7442
 20
-14.5362
 30
0.000000
  70
    32
  0
VERTEX
  8
レイヤ__1
  5
B4B
 10
-15.7309
 20
-14.5413
 30
0.000000
  70
    32
  0
VERTEX
  8
レイヤ__1
  5
B4C
 10
-15.7177
 20
-14.5463
 30
0.000000
  70
    32
  0
VERTEX
  8
レイヤ__1
  5
B4D
 10
-15.7044
 20
-14.5512
 30
0.000000
  70
    32
  0
VERTEX
  8
レイヤ__1
  5
B4E
 10
-15.6911
 20
-14.5560
 30
0.000000
  70
    32
  0
VERTEX
  8
レイヤ__1
  5
B4F
 10
-15.6779
 20
-14.5607
 30
0.000000
  70
    32
  0
VERTEX
  8
レイヤ__1
  5
B50
 10
-15.6646
 20
-14.5653
 30
0.000000
  70
    32
  0
VERTEX
  8
レイヤ__1
  5
B51
 10
-15.6514
 20
-14.5698
 30
0.000000
  70
    32
  0
VERTEX
  8
レイヤ__1
  5
B52
 10
-15.6382
 20
-14.5743
 30
0.000000
  70
    32
  0
VERTEX
  8
レイヤ__1
  5
B53
 10
-15.6250
 20
-14.5786
 30
0.000000
  70
    32
  0
VERTEX
  8
レイヤ__1
  5
B54
 10
-15.6118
 20
-14.5829
 30
0.000000
  70
    32
  0
VERTEX
  8
レイヤ__1
  5
B55
 10
-15.5986
 20
-14.5871
 30
0.000000
  70
    32
  0
VERTEX
  8
レイヤ__1
  5
B56
 10
-15.5855
 20
-14.5912
 30
0.000000
  70
    32
  0
VERTEX
  8
レイヤ__1
  5
B57
 10
-15.5725
 20
-14.5952
 30
0.000000
  70
    32
  0
VERTEX
  8
レイヤ__1
  5
B58
 10
-15.5594
 20
-14.5992
 30
0.000000
  70
    32
  0
VERTEX
  8
レイヤ__1
  5
B59
 10
-15.5464
 20
-14.6031
 30
0.000000
  70
    32
  0
VERTEX
  8
レイヤ__1
  5
B5A
 10
-15.5335
 20
-14.6069
 30
0.000000
  70
    32
  0
VERTEX
  8
レイヤ__1
  5
B5B
 10
-15.5206
 20
-14.6107
 30
0.000000
  70
    32
  0
VERTEX
  8
レイヤ__1
  5
B5C
 10
-15.5078
 20
-14.6144
 30
0.000000
  70
    32
  0
VERTEX
  8
レイヤ__1
  5
B5D
 10
-15.4950
 20
-14.6180
 30
0.000000
  70
    32
  0
VERTEX
  8
レイヤ__1
  5
B5E
 10
-15.4823
 20
-14.6216
 30
0.000000
  70
    32
  0
VERTEX
  8
レイヤ__1
  5
B5F
 10
-15.4697
 20
-14.6252
 30
0.000000
  70
    32
  0
VERTEX
  8
レイヤ__1
  5
B60
 10
-15.4571
 20
-14.6286
 30
0.000000
  70
    32
  0
VERTEX
  8
レイヤ__1
  5
B61
 10
-15.4447
 20
-14.6321
 30
0.000000
  70
    32
  0
VERTEX
  8
レイヤ__1
  5
B62
 10
-15.4323
 20
-14.6354
 30
0.000000
  70
    32
  0
VERTEX
  8
レイヤ__1
  5
B63
 10
-15.4200
 20
-14.6388
 30
0.000000
  70
    32
  0
VERTEX
  8
レイヤ__1
  5
B64
 10
-15.4078
 20
-14.6421
 30
0.000000
  70
    32
  0
VERTEX
  8
レイヤ__1
  5
B65
 10
-15.3957
 20
-14.6453
 30
0.000000
  70
    32
  0
VERTEX
  8
レイヤ__1
  5
B66
 10
-15.3836
 20
-14.6485
 30
0.000000
  70
    32
  0
VERTEX
  8
レイヤ__1
  5
B67
 10
-15.3717
 20
-14.6517
 30
0.000000
  70
    32
  0
VERTEX
  8
レイヤ__1
  5
B68
 10
-15.3599
 20
-14.6548
 30
0.000000
  70
    32
  0
VERTEX
  8
レイヤ__1
  5
B69
 10
-15.3482
 20
-14.6579
 30
0.000000
  70
    32
  0
VERTEX
  8
レイヤ__1
  5
B6A
 10
-15.3367
 20
-14.6610
 30
0.000000
  70
    32
  0
VERTEX
  8
レイヤ__1
  5
B6B
 10
-15.3252
 20
-14.6640
 30
0.000000
  70
    32
  0
VERTEX
  8
レイヤ__1
  5
B6C
 10
-15.3139
 20
-14.6670
 30
0.000000
  70
    32
  0
VERTEX
  8
レイヤ__1
  5
B6D
 10
-15.3027
 20
-14.6700
 30
0.000000
  70
    32
  0
VERTEX
  8
レイヤ__1
  5
B6E
 10
-15.2916
 20
-14.6730
 30
0.000000
  70
    32
  0
VERTEX
  8
レイヤ__1
  5
B6F
 10
-15.2807
 20
-14.6760
 30
0.000000
  70
    32
  0
VERTEX
  8
レイヤ__1
  5
B70
 10
-15.2699
 20
-14.6789
 30
0.000000
  70
    32
  0
SEQEND
  8
レイヤ__1
  5
B71
  0
POLYLINE
  8
レイヤ__1
  5
B72
  62
5
  66
     1
 10
0.000000
 20
0.000000
 30
0.000000
  70
     8
  0
VERTEX
  8
レイヤ__1
  5
B73
 10
-14.5867
 20
-12.2836
 30
0.000000
  70
    32
  0
VERTEX
  8
レイヤ__1
  5
B74
 10
-14.6137
 20
-12.2837
 30
0.000000
  70
    32
  0
VERTEX
  8
レイヤ__1
  5
B75
 10
-14.6406
 20
-12.2840
 30
0.000000
  70
    32
  0
VERTEX
  8
レイヤ__1
  5
B76
 10
-14.6672
 20
-12.2844
 30
0.000000
  70
    32
  0
VERTEX
  8
レイヤ__1
  5
B77
 10
-14.6936
 20
-12.2851
 30
0.000000
  70
    32
  0
VERTEX
  8
レイヤ__1
  5
B78
 10
-14.7198
 20
-12.2860
 30
0.000000
  70
    32
  0
VERTEX
  8
レイヤ__1
  5
B79
 10
-14.7457
 20
-12.2870
 30
0.000000
  70
    32
  0
VERTEX
  8
レイヤ__1
  5
B7A
 10
-14.7715
 20
-12.2882
 30
0.000000
  70
    32
  0
VERTEX
  8
レイヤ__1
  5
B7B
 10
-14.7969
 20
-12.2896
 30
0.000000
  70
    32
  0
VERTEX
  8
レイヤ__1
  5
B7C
 10
-14.8222
 20
-12.2912
 30
0.000000
  70
    32
  0
VERTEX
  8
レイヤ__1
  5
B7D
 10
-14.8472
 20
-12.2930
 30
0.000000
  70
    32
  0
VERTEX
  8
レイヤ__1
  5
B7E
 10
-14.8721
 20
-12.2949
 30
0.000000
  70
    32
  0
VERTEX
  8
レイヤ__1
  5
B7F
 10
-14.8967
 20
-12.2971
 30
0.000000
  70
    32
  0
VERTEX
  8
レイヤ__1
  5
B80
 10
-14.9210
 20
-12.2994
 30
0.000000
  70
    32
  0
VERTEX
  8
レイヤ__1
  5
B81
 10
-14.9452
 20
-12.3018
 30
0.000000
  70
    32
  0
VERTEX
  8
レイヤ__1
  5
B82
 10
-14.9691
 20
-12.3045
 30
0.000000
  70
    32
  0
VERTEX
  8
レイヤ__1
  5
B83
 10
-14.9928
 20
-12.3073
 30
0.000000
  70
    32
  0
VERTEX
  8
レイヤ__1
  5
B84
 10
-15.0163
 20
-12.3103
 30
0.000000
  70
    32
  0
VERTEX
  8
レイヤ__1
  5
B85
 10
-15.0396
 20
-12.3135
 30
0.000000
  70
    32
  0
VERTEX
  8
レイヤ__1
  5
B86
 10
-15.0626
 20
-12.3168
 30
0.000000
  70
    32
  0
VERTEX
  8
レイヤ__1
  5
B87
 10
-15.0854
 20
-12.3203
 30
0.000000
  70
    32
  0
VERTEX
  8
レイヤ__1
  5
B88
 10
-15.1081
 20
-12.3239
 30
0.000000
  70
    32
  0
VERTEX
  8
レイヤ__1
  5
B89
 10
-15.1304
 20
-12.3278
 30
0.000000
  70
    32
  0
VERTEX
  8
レイヤ__1
  5
B8A
 10
-15.1526
 20
-12.3318
 30
0.000000
  70
    32
  0
VERTEX
  8
レイヤ__1
  5
B8B
 10
-15.1746
 20
-12.3359
 30
0.000000
  70
    32
  0
VERTEX
  8
レイヤ__1
  5
B8C
 10
-15.1963
 20
-12.3402
 30
0.000000
  70
    32
  0
VERTEX
  8
レイヤ__1
  5
B8D
 10
-15.2179
 20
-12.3447
 30
0.000000
  70
    32
  0
VERTEX
  8
レイヤ__1
  5
B8E
 10
-15.2392
 20
-12.3493
 30
0.000000
  70
    32
  0
VERTEX
  8
レイヤ__1
  5
B8F
 10
-15.2603
 20
-12.3541
 30
0.000000
  70
    32
  0
VERTEX
  8
レイヤ__1
  5
B90
 10
-15.2812
 20
-12.3590
 30
0.000000
  70
    32
  0
VERTEX
  8
レイヤ__1
  5
B91
 10
-15.3018
 20
-12.3641
 30
0.000000
  70
    32
  0
VERTEX
  8
レイヤ__1
  5
B92
 10
-15.3223
 20
-12.3694
 30
0.000000
  70
    32
  0
VERTEX
  8
レイヤ__1
  5
B93
 10
-15.3425
 20
-12.3748
 30
0.000000
  70
    32
  0
VERTEX
  8
レイヤ__1
  5
B94
 10
-15.3626
 20
-12.3803
 30
0.000000
  70
    32
  0
VERTEX
  8
レイヤ__1
  5
B95
 10
-15.3824
 20
-12.3860
 30
0.000000
  70
    32
  0
VERTEX
  8
レイヤ__1
  5
B96
 10
-15.4020
 20
-12.3919
 30
0.000000
  70
    32
  0
VERTEX
  8
レイヤ__1
  5
B97
 10
-15.4214
 20
-12.3979
 30
0.000000
  70
    32
  0
VERTEX
  8
レイヤ__1
  5
B98
 10
-15.4406
 20
-12.4040
 30
0.000000
  70
    32
  0
VERTEX
  8
レイヤ__1
  5
B99
 10
-15.4596
 20
-12.4103
 30
0.000000
  70
    32
  0
VERTEX
  8
レイヤ__1
  5
B9A
 10
-15.4784
 20
-12.4167
 30
0.000000
  70
    32
  0
VERTEX
  8
レイヤ__1
  5
B9B
 10
-15.4969
 20
-12.4233
 30
0.000000
  70
    32
  0
VERTEX
  8
レイヤ__1
  5
B9C
 10
-15.5153
 20
-12.4300
 30
0.000000
  70
    32
  0
VERTEX
  8
レイヤ__1
  5
B9D
 10
-15.5335
 20
-12.4368
 30
0.000000
  70
    32
  0
VERTEX
  8
レイヤ__1
  5
B9E
 10
-15.5514
 20
-12.4438
 30
0.000000
  70
    32
  0
VERTEX
  8
レイヤ__1
  5
B9F
 10
-15.5692
 20
-12.4509
 30
0.000000
  70
    32
  0
VERTEX
  8
レイヤ__1
  5
BA0
 10
-15.5867
 20
-12.4582
 30
0.000000
  70
    32
  0
VERTEX
  8
レイヤ__1
  5
BA1
 10
-15.6041
 20
-12.4656
 30
0.000000
  70
    32
  0
VERTEX
  8
レイヤ__1
  5
BA2
 10
-15.6212
 20
-12.4731
 30
0.000000
  70
    32
  0
VERTEX
  8
レイヤ__1
  5
BA3
 10
-15.6381
 20
-12.4808
 30
0.000000
  70
    32
  0
VERTEX
  8
レイヤ__1
  5
BA4
 10
-15.6548
 20
-12.4886
 30
0.000000
  70
    32
  0
VERTEX
  8
レイヤ__1
  5
BA5
 10
-15.6714
 20
-12.4965
 30
0.000000
  70
    32
  0
VERTEX
  8
レイヤ__1
  5
BA6
 10
-15.6877
 20
-12.5045
 30
0.000000
  70
    32
  0
VERTEX
  8
レイヤ__1
  5
BA7
 10
-15.7038
 20
-12.5127
 30
0.000000
  70
    32
  0
VERTEX
  8
レイヤ__1
  5
BA8
 10
-15.7198
 20
-12.5210
 30
0.000000
  70
    32
  0
VERTEX
  8
レイヤ__1
  5
BA9
 10
-15.7355
 20
-12.5294
 30
0.000000
  70
    32
  0
VERTEX
  8
レイヤ__1
  5
BAA
 10
-15.7510
 20
-12.5379
 30
0.000000
  70
    32
  0
VERTEX
  8
レイヤ__1
  5
BAB
 10
-15.7663
 20
-12.5466
 30
0.000000
  70
    32
  0
VERTEX
  8
レイヤ__1
  5
BAC
 10
-15.7815
 20
-12.5554
 30
0.000000
  70
    32
  0
VERTEX
  8
レイヤ__1
  5
BAD
 10
-15.7964
 20
-12.5643
 30
0.000000
  70
    32
  0
VERTEX
  8
レイヤ__1
  5
BAE
 10
-15.8111
 20
-12.5733
 30
0.000000
  70
    32
  0
VERTEX
  8
レイヤ__1
  5
BAF
 10
-15.8257
 20
-12.5825
 30
0.000000
  70
    32
  0
VERTEX
  8
レイヤ__1
  5
BB0
 10
-15.8400
 20
-12.5917
 30
0.000000
  70
    32
  0
VERTEX
  8
レイヤ__1
  5
BB1
 10
-15.8542
 20
-12.6011
 30
0.000000
  70
    32
  0
VERTEX
  8
レイヤ__1
  5
BB2
 10
-15.8681
 20
-12.6106
 30
0.000000
  70
    32
  0
VERTEX
  8
レイヤ__1
  5
BB3
 10
-15.8819
 20
-12.6201
 30
0.000000
  70
    32
  0
VERTEX
  8
レイヤ__1
  5
BB4
 10
-15.8955
 20
-12.6298
 30
0.000000
  70
    32
  0
VERTEX
  8
レイヤ__1
  5
BB5
 10
-15.9089
 20
-12.6397
 30
0.000000
  70
    32
  0
VERTEX
  8
レイヤ__1
  5
BB6
 10
-15.9220
 20
-12.6496
 30
0.000000
  70
    32
  0
VERTEX
  8
レイヤ__1
  5
BB7
 10
-15.9350
 20
-12.6596
 30
0.000000
  70
    32
  0
VERTEX
  8
レイヤ__1
  5
BB8
 10
-15.9478
 20
-12.6697
 30
0.000000
  70
    32
  0
VERTEX
  8
レイヤ__1
  5
BB9
 10
-15.9604
 20
-12.6799
 30
0.000000
  70
    32
  0
VERTEX
  8
レイヤ__1
  5
BBA
 10
-15.9729
 20
-12.6903
 30
0.000000
  70
    32
  0
VERTEX
  8
レイヤ__1
  5
BBB
 10
-15.9851
 20
-12.7007
 30
0.000000
  70
    32
  0
VERTEX
  8
レイヤ__1
  5
BBC
 10
-15.9971
 20
-12.7113
 30
0.000000
  70
    32
  0
VERTEX
  8
レイヤ__1
  5
BBD
 10
-16.0090
 20
-12.7219
 30
0.000000
  70
    32
  0
VERTEX
  8
レイヤ__1
  5
BBE
 10
-16.0207
 20
-12.7326
 30
0.000000
  70
    32
  0
VERTEX
  8
レイヤ__1
  5
BBF
 10
-16.0321
 20
-12.7434
 30
0.000000
  70
    32
  0
VERTEX
  8
レイヤ__1
  5
BC0
 10
-16.0434
 20
-12.7544
 30
0.000000
  70
    32
  0
VERTEX
  8
レイヤ__1
  5
BC1
 10
-16.0546
 20
-12.7654
 30
0.000000
  70
    32
  0
VERTEX
  8
レイヤ__1
  5
BC2
 10
-16.0655
 20
-12.7765
 30
0.000000
  70
    32
  0
VERTEX
  8
レイヤ__1
  5
BC3
 10
-16.0762
 20
-12.7877
 30
0.000000
  70
    32
  0
VERTEX
  8
レイヤ__1
  5
BC4
 10
-16.0868
 20
-12.7990
 30
0.000000
  70
    32
  0
VERTEX
  8
レイヤ__1
  5
BC5
 10
-16.0971
 20
-12.8104
 30
0.000000
  70
    32
  0
VERTEX
  8
レイヤ__1
  5
BC6
 10
-16.1073
 20
-12.8218
 30
0.000000
  70
    32
  0
VERTEX
  8
レイヤ__1
  5
BC7
 10
-16.1173
 20
-12.8334
 30
0.000000
  70
    32
  0
VERTEX
  8
レイヤ__1
  5
BC8
 10
-16.1272
 20
-12.8450
 30
0.000000
  70
    32
  0
VERTEX
  8
レイヤ__1
  5
BC9
 10
-16.1368
 20
-12.8567
 30
0.000000
  70
    32
  0
VERTEX
  8
レイヤ__1
  5
BCA
 10
-16.1463
 20
-12.8685
 30
0.000000
  70
    32
  0
VERTEX
  8
レイヤ__1
  5
BCB
 10
-16.1555
 20
-12.8804
 30
0.000000
  70
    32
  0
VERTEX
  8
レイヤ__1
  5
BCC
 10
-16.1646
 20
-12.8924
 30
0.000000
  70
    32
  0
VERTEX
  8
レイヤ__1
  5
BCD
 10
-16.1736
 20
-12.9044
 30
0.000000
  70
    32
  0
VERTEX
  8
レイヤ__1
  5
BCE
 10
-16.1823
 20
-12.9165
 30
0.000000
  70
    32
  0
VERTEX
  8
レイヤ__1
  5
BCF
 10
-16.1909
 20
-12.9287
 30
0.000000
  70
    32
  0
VERTEX
  8
レイヤ__1
  5
BD0
 10
-16.1993
 20
-12.9410
 30
0.000000
  70
    32
  0
VERTEX
  8
レイヤ__1
  5
BD1
 10
-16.2075
 20
-12.9533
 30
0.000000
  70
    32
  0
VERTEX
  8
レイヤ__1
  5
BD2
 10
-16.2155
 20
-12.9658
 30
0.000000
  70
    32
  0
VERTEX
  8
レイヤ__1
  5
BD3
 10
-16.2234
 20
-12.9782
 30
0.000000
  70
    32
  0
VERTEX
  8
レイヤ__1
  5
BD4
 10
-16.2310
 20
-12.9908
 30
0.000000
  70
    32
  0
VERTEX
  8
レイヤ__1
  5
BD5
 10
-16.2386
 20
-13.0034
 30
0.000000
  70
    32
  0
VERTEX
  8
レイヤ__1
  5
BD6
 10
-16.2459
 20
-13.0161
 30
0.000000
  70
    32
  0
VERTEX
  8
レイヤ__1
  5
BD7
 10
-16.2531
 20
-13.0289
 30
0.000000
  70
    32
  0
VERTEX
  8
レイヤ__1
  5
BD8
 10
-16.2600
 20
-13.0417
 30
0.000000
  70
    32
  0
VERTEX
  8
レイヤ__1
  5
BD9
 10
-16.2669
 20
-13.0546
 30
0.000000
  70
    32
  0
VERTEX
  8
レイヤ__1
  5
BDA
 10
-16.2735
 20
-13.0675
 30
0.000000
  70
    32
  0
VERTEX
  8
レイヤ__1
  5
BDB
 10
-16.2800
 20
-13.0805
 30
0.000000
  70
    32
  0
VERTEX
  8
レイヤ__1
  5
BDC
 10
-16.2863
 20
-13.0936
 30
0.000000
  70
    32
  0
VERTEX
  8
レイヤ__1
  5
BDD
 10
-16.2924
 20
-13.1067
 30
0.000000
  70
    32
  0
VERTEX
  8
レイヤ__1
  5
BDE
 10
-16.2984
 20
-13.1199
 30
0.000000
  70
    32
  0
VERTEX
  8
レイヤ__1
  5
BDF
 10
-16.3042
 20
-13.1331
 30
0.000000
  70
    32
  0
VERTEX
  8
レイヤ__1
  5
BE0
 10
-16.3098
 20
-13.1464
 30
0.000000
  70
    32
  0
VERTEX
  8
レイヤ__1
  5
BE1
 10
-16.3153
 20
-13.1598
 30
0.000000
  70
    32
  0
VERTEX
  8
レイヤ__1
  5
BE2
 10
-16.3205
 20
-13.1732
 30
0.000000
  70
    32
  0
VERTEX
  8
レイヤ__1
  5
BE3
 10
-16.3257
 20
-13.1866
 30
0.000000
  70
    32
  0
VERTEX
  8
レイヤ__1
  5
BE4
 10
-16.3306
 20
-13.2001
 30
0.000000
  70
    32
  0
VERTEX
  8
レイヤ__1
  5
BE5
 10
-16.3354
 20
-13.2137
 30
0.000000
  70
    32
  0
VERTEX
  8
レイヤ__1
  5
BE6
 10
-16.3401
 20
-13.2273
 30
0.000000
  70
    32
  0
VERTEX
  8
レイヤ__1
  5
BE7
 10
-16.3445
 20
-13.2409
 30
0.000000
  70
    32
  0
VERTEX
  8
レイヤ__1
  5
BE8
 10
-16.3488
 20
-13.2546
 30
0.000000
  70
    32
  0
VERTEX
  8
レイヤ__1
  5
BE9
 10
-16.3530
 20
-13.2683
 30
0.000000
  70
    32
  0
VERTEX
  8
レイヤ__1
  5
BEA
 10
-16.3569
 20
-13.2821
 30
0.000000
  70
    32
  0
VERTEX
  8
レイヤ__1
  5
BEB
 10
-16.3607
 20
-13.2959
 30
0.000000
  70
    32
  0
VERTEX
  8
レイヤ__1
  5
BEC
 10
-16.3644
 20
-13.3097
 30
0.000000
  70
    32
  0
VERTEX
  8
レイヤ__1
  5
BED
 10
-16.3679
 20
-13.3236
 30
0.000000
  70
    32
  0
VERTEX
  8
レイヤ__1
  5
BEE
 10
-16.3712
 20
-13.3375
 30
0.000000
  70
    32
  0
VERTEX
  8
レイヤ__1
  5
BEF
 10
-16.3744
 20
-13.3515
 30
0.000000
  70
    32
  0
VERTEX
  8
レイヤ__1
  5
BF0
 10
-16.3774
 20
-13.3655
 30
0.000000
  70
    32
  0
VERTEX
  8
レイヤ__1
  5
BF1
 10
-16.3802
 20
-13.3795
 30
0.000000
  70
    32
  0
VERTEX
  8
レイヤ__1
  5
BF2
 10
-16.3829
 20
-13.3936
 30
0.000000
  70
    32
  0
SEQEND
  8
レイヤ__1
  5
BF3
  0
POLYLINE
  8
レイヤ__1
  5
BF4
  62
5
  66
     1
 10
0.000000
 20
0.000000
 30
0.000000
  70
     8
  0
VERTEX
  8
レイヤ__1
  5
BF5
 10
-13.1445
 20
-13.5534
 30
0.000000
  70
    32
  0
VERTEX
  8
レイヤ__1
  5
BF6
 10
-13.1445
 20
-13.5379
 30
0.000000
  70
    32
  0
VERTEX
  8
レイヤ__1
  5
BF7
 10
-13.1445
 20
-13.5225
 30
0.000000
  70
    32
  0
VERTEX
  8
レイヤ__1
  5
BF8
 10
-13.1446
 20
-13.5070
 30
0.000000
  70
    32
  0
VERTEX
  8
レイヤ__1
  5
BF9
 10
-13.1447
 20
-13.4916
 30
0.000000
  70
    32
  0
VERTEX
  8
レイヤ__1
  5
BFA
 10
-13.1449
 20
-13.4762
 30
0.000000
  70
    32
  0
VERTEX
  8
レイヤ__1
  5
BFB
 10
-13.1452
 20
-13.4609
 30
0.000000
  70
    32
  0
VERTEX
  8
レイヤ__1
  5
BFC
 10
-13.1455
 20
-13.4455
 30
0.000000
  70
    32
  0
VERTEX
  8
レイヤ__1
  5
BFD
 10
-13.1459
 20
-13.4302
 30
0.000000
  70
    32
  0
VERTEX
  8
レイヤ__1
  5
BFE
 10
-13.1463
 20
-13.4149
 30
0.000000
  70
    32
  0
VERTEX
  8
レイヤ__1
  5
BFF
 10
-13.1469
 20
-13.3996
 30
0.000000
  70
    32
  0
VERTEX
  8
レイヤ__1
  5
C00
 10
-13.1475
 20
-13.3844
 30
0.000000
  70
    32
  0
VERTEX
  8
レイヤ__1
  5
C01
 10
-13.1482
 20
-13.3692
 30
0.000000
  70
    32
  0
VERTEX
  8
レイヤ__1
  5
C02
 10
-13.1490
 20
-13.3541
 30
0.000000
  70
    32
  0
VERTEX
  8
レイヤ__1
  5
C03
 10
-13.1499
 20
-13.3389
 30
0.000000
  70
    32
  0
VERTEX
  8
レイヤ__1
  5
C04
 10
-13.1509
 20
-13.3238
 30
0.000000
  70
    32
  0
VERTEX
  8
レイヤ__1
  5
C05
 10
-13.1519
 20
-13.3088
 30
0.000000
  70
    32
  0
VERTEX
  8
レイヤ__1
  5
C06
 10
-13.1531
 20
-13.2938
 30
0.000000
  70
    32
  0
VERTEX
  8
レイヤ__1
  5
C07
 10
-13.1544
 20
-13.2788
 30
0.000000
  70
    32
  0
VERTEX
  8
レイヤ__1
  5
C08
 10
-13.1558
 20
-13.2639
 30
0.000000
  70
    32
  0
VERTEX
  8
レイヤ__1
  5
C09
 10
-13.1572
 20
-13.2491
 30
0.000000
  70
    32
  0
VERTEX
  8
レイヤ__1
  5
C0A
 10
-13.1588
 20
-13.2342
 30
0.000000
  70
    32
  0
VERTEX
  8
レイヤ__1
  5
C0B
 10
-13.1605
 20
-13.2195
 30
0.000000
  70
    32
  0
VERTEX
  8
レイヤ__1
  5
C0C
 10
-13.1623
 20
-13.2048
 30
0.000000
  70
    32
  0
VERTEX
  8
レイヤ__1
  5
C0D
 10
-13.1643
 20
-13.1901
 30
0.000000
  70
    32
  0
VERTEX
  8
レイヤ__1
  5
C0E
 10
-13.1663
 20
-13.1755
 30
0.000000
  70
    32
  0
VERTEX
  8
レイヤ__1
  5
C0F
 10
-13.1685
 20
-13.1609
 30
0.000000
  70
    32
  0
VERTEX
  8
レイヤ__1
  5
C10
 10
-13.1709
 20
-13.1464
 30
0.000000
  70
    32
  0
VERTEX
  8
レイヤ__1
  5
C11
 10
-13.1733
 20
-13.1320
 30
0.000000
  70
    32
  0
VERTEX
  8
レイヤ__1
  5
C12
 10
-13.1759
 20
-13.1176
 30
0.000000
  70
    32
  0
VERTEX
  8
レイヤ__1
  5
C13
 10
-13.1786
 20
-13.1033
 30
0.000000
  70
    32
  0
VERTEX
  8
レイヤ__1
  5
C14
 10
-13.1815
 20
-13.0891
 30
0.000000
  70
    32
  0
VERTEX
  8
レイヤ__1
  5
C15
 10
-13.1845
 20
-13.0749
 30
0.000000
  70
    32
  0
VERTEX
  8
レイヤ__1
  5
C16
 10
-13.1876
 20
-13.0608
 30
0.000000
  70
    32
  0
VERTEX
  8
レイヤ__1
  5
C17
 10
-13.1909
 20
-13.0468
 30
0.000000
  70
    32
  0
VERTEX
  8
レイヤ__1
  5
C18
 10
-13.1944
 20
-13.0328
 30
0.000000
  70
    32
  0
VERTEX
  8
レイヤ__1
  5
C19
 10
-13.1980
 20
-13.0189
 30
0.000000
  70
    32
  0
VERTEX
  8
レイヤ__1
  5
C1A
 10
-13.2018
 20
-13.0051
 30
0.000000
  70
    32
  0
VERTEX
  8
レイヤ__1
  5
C1B
 10
-13.2057
 20
-12.9914
 30
0.000000
  70
    32
  0
VERTEX
  8
レイヤ__1
  5
C1C
 10
-13.2099
 20
-12.9777
 30
0.000000
  70
    32
  0
VERTEX
  8
レイヤ__1
  5
C1D
 10
-13.2141
 20
-12.9642
 30
0.000000
  70
    32
  0
VERTEX
  8
レイヤ__1
  5
C1E
 10
-13.2186
 20
-12.9507
 30
0.000000
  70
    32
  0
VERTEX
  8
レイヤ__1
  5
C1F
 10
-13.2232
 20
-12.9373
 30
0.000000
  70
    32
  0
VERTEX
  8
レイヤ__1
  5
C20
 10
-13.2280
 20
-12.9239
 30
0.000000
  70
    32
  0
VERTEX
  8
レイヤ__1
  5
C21
 10
-13.2330
 20
-12.9107
 30
0.000000
  70
    32
  0
VERTEX
  8
レイヤ__1
  5
C22
 10
-13.2382
 20
-12.8976
 30
0.000000
  70
    32
  0
VERTEX
  8
レイヤ__1
  5
C23
 10
-13.2435
 20
-12.8845
 30
0.000000
  70
    32
  0
VERTEX
  8
レイヤ__1
  5
C24
 10
-13.2491
 20
-12.8715
 30
0.000000
  70
    32
  0
VERTEX
  8
レイヤ__1
  5
C25
 10
-13.2548
 20
-12.8587
 30
0.000000
  70
    32
  0
VERTEX
  8
レイヤ__1
  5
C26
 10
-13.2608
 20
-12.8459
 30
0.000000
  70
    32
  0
VERTEX
  8
レイヤ__1
  5
C27
 10
-13.2669
 20
-12.8332
 30
0.000000
  70
    32
  0
VERTEX
  8
レイヤ__1
  5
C28
 10
-13.2732
 20
-12.8207
 30
0.000000
  70
    32
  0
VERTEX
  8
レイヤ__1
  5
C29
 10
-13.2798
 20
-12.8082
 30
0.000000
  70
    32
  0
VERTEX
  8
レイヤ__1
  5
C2A
 10
-13.2866
 20
-12.7958
 30
0.000000
  70
    32
  0
VERTEX
  8
レイヤ__1
  5
C2B
 10
-13.2935
 20
-12.7835
 30
0.000000
  70
    32
  0
VERTEX
  8
レイヤ__1
  5
C2C
 10
-13.3007
 20
-12.7714
 30
0.000000
  70
    32
  0
VERTEX
  8
レイヤ__1
  5
C2D
 10
-13.3081
 20
-12.7593
 30
0.000000
  70
    32
  0
VERTEX
  8
レイヤ__1
  5
C2E
 10
-13.3158
 20
-12.7474
 30
0.000000
  70
    32
  0
VERTEX
  8
レイヤ__1
  5
C2F
 10
-13.3236
 20
-12.7355
 30
0.000000
  70
    32
  0
VERTEX
  8
レイヤ__1
  5
C30
 10
-13.3317
 20
-12.7238
 30
0.000000
  70
    32
  0
VERTEX
  8
レイヤ__1
  5
C31
 10
-13.3400
 20
-12.7122
 30
0.000000
  70
    32
  0
VERTEX
  8
レイヤ__1
  5
C32
 10
-13.3486
 20
-12.7007
 30
0.000000
  70
    32
  0
VERTEX
  8
レイヤ__1
  5
C33
 10
-13.3574
 20
-12.6894
 30
0.000000
  70
    32
  0
VERTEX
  8
レイヤ__1
  5
C34
 10
-13.3664
 20
-12.6781
 30
0.000000
  70
    32
  0
VERTEX
  8
レイヤ__1
  5
C35
 10
-13.3757
 20
-12.6670
 30
0.000000
  70
    32
  0
VERTEX
  8
レイヤ__1
  5
C36
 10
-13.3852
 20
-12.6560
 30
0.000000
  70
    32
  0
VERTEX
  8
レイヤ__1
  5
C37
 10
-13.3949
 20
-12.6451
 30
0.000000
  70
    32
  0
VERTEX
  8
レイヤ__1
  5
C38
 10
-13.4050
 20
-12.6343
 30
0.000000
  70
    32
  0
VERTEX
  8
レイヤ__1
  5
C39
 10
-13.4152
 20
-12.6237
 30
0.000000
  70
    32
  0
VERTEX
  8
レイヤ__1
  5
C3A
 10
-13.4258
 20
-12.6132
 30
0.000000
  70
    32
  0
VERTEX
  8
レイヤ__1
  5
C3B
 10
-13.4366
 20
-12.6028
 30
0.000000
  70
    32
  0
VERTEX
  8
レイヤ__1
  5
C3C
 10
-13.4476
 20
-12.5926
 30
0.000000
  70
    32
  0
VERTEX
  8
レイヤ__1
  5
C3D
 10
-13.4590
 20
-12.5825
 30
0.000000
  70
    32
  0
VERTEX
  8
レイヤ__1
  5
C3E
 10
-13.4706
 20
-12.5725
 30
0.000000
  70
    32
  0
VERTEX
  8
レイヤ__1
  5
C3F
 10
-13.4825
 20
-12.5627
 30
0.000000
  70
    32
  0
VERTEX
  8
レイヤ__1
  5
C40
 10
-13.4946
 20
-12.5530
 30
0.000000
  70
    32
  0
VERTEX
  8
レイヤ__1
  5
C41
 10
-13.5071
 20
-12.5434
 30
0.000000
  70
    32
  0
VERTEX
  8
レイヤ__1
  5
C42
 10
-13.5198
 20
-12.5340
 30
0.000000
  70
    32
  0
VERTEX
  8
レイヤ__1
  5
C43
 10
-13.5328
 20
-12.5248
 30
0.000000
  70
    32
  0
VERTEX
  8
レイヤ__1
  5
C44
 10
-13.5461
 20
-12.5157
 30
0.000000
  70
    32
  0
VERTEX
  8
レイヤ__1
  5
C45
 10
-13.5597
 20
-12.5067
 30
0.000000
  70
    32
  0
VERTEX
  8
レイヤ__1
  5
C46
 10
-13.5736
 20
-12.4979
 30
0.000000
  70
    32
  0
VERTEX
  8
レイヤ__1
  5
C47
 10
-13.5878
 20
-12.4892
 30
0.000000
  70
    32
  0
VERTEX
  8
レイヤ__1
  5
C48
 10
-13.6023
 20
-12.4807
 30
0.000000
  70
    32
  0
VERTEX
  8
レイヤ__1
  5
C49
 10
-13.6171
 20
-12.4724
 30
0.000000
  70
    32
  0
VERTEX
  8
レイヤ__1
  5
C4A
 10
-13.6322
 20
-12.4642
 30
0.000000
  70
    32
  0
VERTEX
  8
レイヤ__1
  5
C4B
 10
-13.6476
 20
-12.4561
 30
0.000000
  70
    32
  0
VERTEX
  8
レイヤ__1
  5
C4C
 10
-13.6633
 20
-12.4482
 30
0.000000
  70
    32
  0
VERTEX
  8
レイヤ__1
  5
C4D
 10
-13.6794
 20
-12.4405
 30
0.000000
  70
    32
  0
VERTEX
  8
レイヤ__1
  5
C4E
 10
-13.6957
 20
-12.4330
 30
0.000000
  70
    32
  0
VERTEX
  8
レイヤ__1
  5
C4F
 10
-13.7124
 20
-12.4256
 30
0.000000
  70
    32
  0
VERTEX
  8
レイヤ__1
  5
C50
 10
-13.7295
 20
-12.4184
 30
0.000000
  70
    32
  0
VERTEX
  8
レイヤ__1
  5
C51
 10
-13.7468
 20
-12.4113
 30
0.000000
  70
    32
  0
VERTEX
  8
レイヤ__1
  5
C52
 10
-13.7645
 20
-12.4044
 30
0.000000
  70
    32
  0
VERTEX
  8
レイヤ__1
  5
C53
 10
-13.7825
 20
-12.3977
 30
0.000000
  70
    32
  0
VERTEX
  8
レイヤ__1
  5
C54
 10
-13.8009
 20
-12.3912
 30
0.000000
  70
    32
  0
VERTEX
  8
レイヤ__1
  5
C55
 10
-13.8196
 20
-12.3848
 30
0.000000
  70
    32
  0
VERTEX
  8
レイヤ__1
  5
C56
 10
-13.8387
 20
-12.3786
 30
0.000000
  70
    32
  0
VERTEX
  8
レイヤ__1
  5
C57
 10
-13.8581
 20
-12.3726
 30
0.000000
  70
    32
  0
VERTEX
  8
レイヤ__1
  5
C58
 10
-13.8778
 20
-12.3668
 30
0.000000
  70
    32
  0
VERTEX
  8
レイヤ__1
  5
C59
 10
-13.8980
 20
-12.3611
 30
0.000000
  70
    32
  0
VERTEX
  8
レイヤ__1
  5
C5A
 10
-13.9184
 20
-12.3557
 30
0.000000
  70
    32
  0
VERTEX
  8
レイヤ__1
  5
C5B
 10
-13.9393
 20
-12.3504
 30
0.000000
  70
    32
  0
VERTEX
  8
レイヤ__1
  5
C5C
 10
-13.9605
 20
-12.3453
 30
0.000000
  70
    32
  0
VERTEX
  8
レイヤ__1
  5
C5D
 10
-13.9820
 20
-12.3404
 30
0.000000
  70
    32
  0
VERTEX
  8
レイヤ__1
  5
C5E
 10
-14.0040
 20
-12.3357
 30
0.000000
  70
    32
  0
VERTEX
  8
レイヤ__1
  5
C5F
 10
-14.0263
 20
-12.3312
 30
0.000000
  70
    32
  0
VERTEX
  8
レイヤ__1
  5
C60
 10
-14.0490
 20
-12.3268
 30
0.000000
  70
    32
  0
VERTEX
  8
レイヤ__1
  5
C61
 10
-14.0720
 20
-12.3227
 30
0.000000
  70
    32
  0
VERTEX
  8
レイヤ__1
  5
C62
 10
-14.0955
 20
-12.3188
 30
0.000000
  70
    32
  0
VERTEX
  8
レイヤ__1
  5
C63
 10
-14.1193
 20
-12.3150
 30
0.000000
  70
    32
  0
VERTEX
  8
レイヤ__1
  5
C64
 10
-14.1435
 20
-12.3115
 30
0.000000
  70
    32
  0
VERTEX
  8
レイヤ__1
  5
C65
 10
-14.1682
 20
-12.3082
 30
0.000000
  70
    32
  0
VERTEX
  8
レイヤ__1
  5
C66
 10
-14.1932
 20
-12.3050
 30
0.000000
  70
    32
  0
VERTEX
  8
レイヤ__1
  5
C67
 10
-14.2186
 20
-12.3021
 30
0.000000
  70
    32
  0
VERTEX
  8
レイヤ__1
  5
C68
 10
-14.2444
 20
-12.2994
 30
0.000000
  70
    32
  0
VERTEX
  8
レイヤ__1
  5
C69
 10
-14.2706
 20
-12.2969
 30
0.000000
  70
    32
  0
VERTEX
  8
レイヤ__1
  5
C6A
 10
-14.2972
 20
-12.2946
 30
0.000000
  70
    32
  0
VERTEX
  8
レイヤ__1
  5
C6B
 10
-14.3243
 20
-12.2925
 30
0.000000
  70
    32
  0
VERTEX
  8
レイヤ__1
  5
C6C
 10
-14.3517
 20
-12.2906
 30
0.000000
  70
    32
  0
VERTEX
  8
レイヤ__1
  5
C6D
 10
-14.3796
 20
-12.2890
 30
0.000000
  70
    32
  0
VERTEX
  8
レイヤ__1
  5
C6E
 10
-14.4079
 20
-12.2875
 30
0.000000
  70
    32
  0
VERTEX
  8
レイヤ__1
  5
C6F
 10
-14.4366
 20
-12.2863
 30
0.000000
  70
    32
  0
VERTEX
  8
レイヤ__1
  5
C70
 10
-14.4658
 20
-12.2853
 30
0.000000
  70
    32
  0
VERTEX
  8
レイヤ__1
  5
C71
 10
-14.4953
 20
-12.2845
 30
0.000000
  70
    32
  0
VERTEX
  8
レイヤ__1
  5
C72
 10
-14.5253
 20
-12.2840
 30
0.000000
  70
    32
  0
VERTEX
  8
レイヤ__1
  5
C73
 10
-14.5558
 20
-12.2837
 30
0.000000
  70
    32
  0
VERTEX
  8
レイヤ__1
  5
C74
 10
-14.5867
 20
-12.2836
 30
0.000000
  70
    32
  0
SEQEND
  8
レイヤ__1
  5
C75
  0
POLYLINE
  8
レイヤ__1
  5
C76
  62
5
  66
     1
 10
0.000000
 20
0.000000
 30
0.000000
  70
     8
  0
VERTEX
  8
レイヤ__1
  5
C77
 10
-14.7562
 20
-13.1813
 30
0.000000
  70
    32
  0
VERTEX
  8
レイヤ__1
  5
C78
 10
-14.7473
 20
-13.1813
 30
0.000000
  70
    32
  0
VERTEX
  8
レイヤ__1
  5
C79
 10
-14.7386
 20
-13.1814
 30
0.000000
  70
    32
  0
VERTEX
  8
レイヤ__1
  5
C7A
 10
-14.7300
 20
-13.1816
 30
0.000000
  70
    32
  0
VERTEX
  8
レイヤ__1
  5
C7B
 10
-14.7215
 20
-13.1819
 30
0.000000
  70
    32
  0
VERTEX
  8
レイヤ__1
  5
C7C
 10
-14.7131
 20
-13.1823
 30
0.000000
  70
    32
  0
VERTEX
  8
レイヤ__1
  5
C7D
 10
-14.7048
 20
-13.1828
 30
0.000000
  70
    32
  0
VERTEX
  8
レイヤ__1
  5
C7E
 10
-14.6967
 20
-13.1833
 30
0.000000
  70
    32
  0
VERTEX
  8
レイヤ__1
  5
C7F
 10
-14.6887
 20
-13.1840
 30
0.000000
  70
    32
  0
VERTEX
  8
レイヤ__1
  5
C80
 10
-14.6808
 20
-13.1847
 30
0.000000
  70
    32
  0
VERTEX
  8
レイヤ__1
  5
C81
 10
-14.6731
 20
-13.1855
 30
0.000000
  70
    32
  0
VERTEX
  8
レイヤ__1
  5
C82
 10
-14.6654
 20
-13.1863
 30
0.000000
  70
    32
  0
VERTEX
  8
レイヤ__1
  5
C83
 10
-14.6579
 20
-13.1873
 30
0.000000
  70
    32
  0
VERTEX
  8
レイヤ__1
  5
C84
 10
-14.6505
 20
-13.1883
 30
0.000000
  70
    32
  0
VERTEX
  8
レイヤ__1
  5
C85
 10
-14.6432
 20
-13.1894
 30
0.000000
  70
    32
  0
VERTEX
  8
レイヤ__1
  5
C86
 10
-14.6360
 20
-13.1905
 30
0.000000
  70
    32
  0
VERTEX
  8
レイヤ__1
  5
C87
 10
-14.6290
 20
-13.1918
 30
0.000000
  70
    32
  0
VERTEX
  8
レイヤ__1
  5
C88
 10
-14.6221
 20
-13.1931
 30
0.000000
  70
    32
  0
VERTEX
  8
レイヤ__1
  5
C89
 10
-14.6152
 20
-13.1945
 30
0.000000
  70
    32
  0
VERTEX
  8
レイヤ__1
  5
C8A
 10
-14.6085
 20
-13.1959
 30
0.000000
  70
    32
  0
VERTEX
  8
レイヤ__1
  5
C8B
 10
-14.6019
 20
-13.1974
 30
0.000000
  70
    32
  0
VERTEX
  8
レイヤ__1
  5
C8C
 10
-14.5955
 20
-13.1990
 30
0.000000
  70
    32
  0
VERTEX
  8
レイヤ__1
  5
C8D
 10
-14.5891
 20
-13.2007
 30
0.000000
  70
    32
  0
VERTEX
  8
レイヤ__1
  5
C8E
 10
-14.5828
 20
-13.2024
 30
0.000000
  70
    32
  0
VERTEX
  8
レイヤ__1
  5
C8F
 10
-14.5767
 20
-13.2042
 30
0.000000
  70
    32
  0
VERTEX
  8
レイヤ__1
  5
C90
 10
-14.5706
 20
-13.2060
 30
0.000000
  70
    32
  0
VERTEX
  8
レイヤ__1
  5
C91
 10
-14.5647
 20
-13.2080
 30
0.000000
  70
    32
  0
VERTEX
  8
レイヤ__1
  5
C92
 10
-14.5588
 20
-13.2099
 30
0.000000
  70
    32
  0
VERTEX
  8
レイヤ__1
  5
C93
 10
-14.5531
 20
-13.2120
 30
0.000000
  70
    32
  0
VERTEX
  8
レイヤ__1
  5
C94
 10
-14.5475
 20
-13.2141
 30
0.000000
  70
    32
  0
VERTEX
  8
レイヤ__1
  5
C95
 10
-14.5419
 20
-13.2162
 30
0.000000
  70
    32
  0
VERTEX
  8
レイヤ__1
  5
C96
 10
-14.5365
 20
-13.2184
 30
0.000000
  70
    32
  0
VERTEX
  8
レイヤ__1
  5
C97
 10
-14.5312
 20
-13.2207
 30
0.000000
  70
    32
  0
VERTEX
  8
レイヤ__1
  5
C98
 10
-14.5260
 20
-13.2230
 30
0.000000
  70
    32
  0
VERTEX
  8
レイヤ__1
  5
C99
 10
-14.5208
 20
-13.2254
 30
0.000000
  70
    32
  0
VERTEX
  8
レイヤ__1
  5
C9A
 10
-14.5158
 20
-13.2279
 30
0.000000
  70
    32
  0
VERTEX
  8
レイヤ__1
  5
C9B
 10
-14.5109
 20
-13.2303
 30
0.000000
  70
    32
  0
VERTEX
  8
レイヤ__1
  5
C9C
 10
-14.5061
 20
-13.2329
 30
0.000000
  70
    32
  0
VERTEX
  8
レイヤ__1
  5
C9D
 10
-14.5013
 20
-13.2355
 30
0.000000
  70
    32
  0
VERTEX
  8
レイヤ__1
  5
C9E
 10
-14.4967
 20
-13.2381
 30
0.000000
  70
    32
  0
VERTEX
  8
レイヤ__1
  5
C9F
 10
-14.4921
 20
-13.2408
 30
0.000000
  70
    32
  0
VERTEX
  8
レイヤ__1
  5
CA0
 10
-14.4877
 20
-13.2436
 30
0.000000
  70
    32
  0
VERTEX
  8
レイヤ__1
  5
CA1
 10
-14.4833
 20
-13.2464
 30
0.000000
  70
    32
  0
VERTEX
  8
レイヤ__1
  5
CA2
 10
-14.4790
 20
-13.2492
 30
0.000000
  70
    32
  0
VERTEX
  8
レイヤ__1
  5
CA3
 10
-14.4748
 20
-13.2521
 30
0.000000
  70
    32
  0
VERTEX
  8
レイヤ__1
  5
CA4
 10
-14.4708
 20
-13.2550
 30
0.000000
  70
    32
  0
VERTEX
  8
レイヤ__1
  5
CA5
 10
-14.4667
 20
-13.2580
 30
0.000000
  70
    32
  0
VERTEX
  8
レイヤ__1
  5
CA6
 10
-14.4628
 20
-13.2610
 30
0.000000
  70
    32
  0
VERTEX
  8
レイヤ__1
  5
CA7
 10
-14.4590
 20
-13.2640
 30
0.000000
  70
    32
  0
VERTEX
  8
レイヤ__1
  5
CA8
 10
-14.4552
 20
-13.2671
 30
0.000000
  70
    32
  0
VERTEX
  8
レイヤ__1
  5
CA9
 10
-14.4516
 20
-13.2703
 30
0.000000
  70
    32
  0
VERTEX
  8
レイヤ__1
  5
CAA
 10
-14.4480
 20
-13.2734
 30
0.000000
  70
    32
  0
VERTEX
  8
レイヤ__1
  5
CAB
 10
-14.4445
 20
-13.2766
 30
0.000000
  70
    32
  0
VERTEX
  8
レイヤ__1
  5
CAC
 10
-14.4411
 20
-13.2799
 30
0.000000
  70
    32
  0
VERTEX
  8
レイヤ__1
  5
CAD
 10
-14.4377
 20
-13.2832
 30
0.000000
  70
    32
  0
VERTEX
  8
レイヤ__1
  5
CAE
 10
-14.4345
 20
-13.2865
 30
0.000000
  70
    32
  0
VERTEX
  8
レイヤ__1
  5
CAF
 10
-14.4313
 20
-13.2898
 30
0.000000
  70
    32
  0
VERTEX
  8
レイヤ__1
  5
CB0
 10
-14.4282
 20
-13.2932
 30
0.000000
  70
    32
  0
VERTEX
  8
レイヤ__1
  5
CB1
 10
-14.4251
 20
-13.2966
 30
0.000000
  70
    32
  0
VERTEX
  8
レイヤ__1
  5
CB2
 10
-14.4222
 20
-13.3001
 30
0.000000
  70
    32
  0
VERTEX
  8
レイヤ__1
  5
CB3
 10
-14.4193
 20
-13.3036
 30
0.000000
  70
    32
  0
VERTEX
  8
レイヤ__1
  5
CB4
 10
-14.4165
 20
-13.3071
 30
0.000000
  70
    32
  0
VERTEX
  8
レイヤ__1
  5
CB5
 10
-14.4138
 20
-13.3106
 30
0.000000
  70
    32
  0
VERTEX
  8
レイヤ__1
  5
CB6
 10
-14.4111
 20
-13.3142
 30
0.000000
  70
    32
  0
VERTEX
  8
レイヤ__1
  5
CB7
 10
-14.4085
 20
-13.3178
 30
0.000000
  70
    32
  0
VERTEX
  8
レイヤ__1
  5
CB8
 10
-14.4060
 20
-13.3214
 30
0.000000
  70
    32
  0
VERTEX
  8
レイヤ__1
  5
CB9
 10
-14.4036
 20
-13.3250
 30
0.000000
  70
    32
  0
VERTEX
  8
レイヤ__1
  5
CBA
 10
-14.4012
 20
-13.3287
 30
0.000000
  70
    32
  0
VERTEX
  8
レイヤ__1
  5
CBB
 10
-14.3989
 20
-13.3323
 30
0.000000
  70
    32
  0
VERTEX
  8
レイヤ__1
  5
CBC
 10
-14.3966
 20
-13.3360
 30
0.000000
  70
    32
  0
VERTEX
  8
レイヤ__1
  5
CBD
 10
-14.3944
 20
-13.3398
 30
0.000000
  70
    32
  0
VERTEX
  8
レイヤ__1
  5
CBE
 10
-14.3923
 20
-13.3435
 30
0.000000
  70
    32
  0
VERTEX
  8
レイヤ__1
  5
CBF
 10
-14.3903
 20
-13.3473
 30
0.000000
  70
    32
  0
VERTEX
  8
レイヤ__1
  5
CC0
 10
-14.3883
 20
-13.3510
 30
0.000000
  70
    32
  0
VERTEX
  8
レイヤ__1
  5
CC1
 10
-14.3864
 20
-13.3548
 30
0.000000
  70
    32
  0
VERTEX
  8
レイヤ__1
  5
CC2
 10
-14.3845
 20
-13.3586
 30
0.000000
  70
    32
  0
VERTEX
  8
レイヤ__1
  5
CC3
 10
-14.3827
 20
-13.3625
 30
0.000000
  70
    32
  0
VERTEX
  8
レイヤ__1
  5
CC4
 10
-14.3809
 20
-13.3663
 30
0.000000
  70
    32
  0
VERTEX
  8
レイヤ__1
  5
CC5
 10
-14.3792
 20
-13.3701
 30
0.000000
  70
    32
  0
VERTEX
  8
レイヤ__1
  5
CC6
 10
-14.3776
 20
-13.3740
 30
0.000000
  70
    32
  0
VERTEX
  8
レイヤ__1
  5
CC7
 10
-14.3760
 20
-13.3779
 30
0.000000
  70
    32
  0
VERTEX
  8
レイヤ__1
  5
CC8
 10
-14.3745
 20
-13.3817
 30
0.000000
  70
    32
  0
VERTEX
  8
レイヤ__1
  5
CC9
 10
-14.3730
 20
-13.3856
 30
0.000000
  70
    32
  0
VERTEX
  8
レイヤ__1
  5
CCA
 10
-14.3716
 20
-13.3895
 30
0.000000
  70
    32
  0
VERTEX
  8
レイヤ__1
  5
CCB
 10
-14.3702
 20
-13.3934
 30
0.000000
  70
    32
  0
VERTEX
  8
レイヤ__1
  5
CCC
 10
-14.3689
 20
-13.3973
 30
0.000000
  70
    32
  0
VERTEX
  8
レイヤ__1
  5
CCD
 10
-14.3677
 20
-13.4012
 30
0.000000
  70
    32
  0
VERTEX
  8
レイヤ__1
  5
CCE
 10
-14.3664
 20
-13.4052
 30
0.000000
  70
    32
  0
VERTEX
  8
レイヤ__1
  5
CCF
 10
-14.3653
 20
-13.4091
 30
0.000000
  70
    32
  0
VERTEX
  8
レイヤ__1
  5
CD0
 10
-14.3642
 20
-13.4130
 30
0.000000
  70
    32
  0
VERTEX
  8
レイヤ__1
  5
CD1
 10
-14.3631
 20
-13.4169
 30
0.000000
  70
    32
  0
VERTEX
  8
レイヤ__1
  5
CD2
 10
-14.3621
 20
-13.4208
 30
0.000000
  70
    32
  0
VERTEX
  8
レイヤ__1
  5
CD3
 10
-14.3611
 20
-13.4247
 30
0.000000
  70
    32
  0
VERTEX
  8
レイヤ__1
  5
CD4
 10
-14.3601
 20
-13.4287
 30
0.000000
  70
    32
  0
VERTEX
  8
レイヤ__1
  5
CD5
 10
-14.3592
 20
-13.4326
 30
0.000000
  70
    32
  0
VERTEX
  8
レイヤ__1
  5
CD6
 10
-14.3584
 20
-13.4365
 30
0.000000
  70
    32
  0
VERTEX
  8
レイヤ__1
  5
CD7
 10
-14.3576
 20
-13.4404
 30
0.000000
  70
    32
  0
VERTEX
  8
レイヤ__1
  5
CD8
 10
-14.3568
 20
-13.4443
 30
0.000000
  70
    32
  0
VERTEX
  8
レイヤ__1
  5
CD9
 10
-14.3561
 20
-13.4482
 30
0.000000
  70
    32
  0
VERTEX
  8
レイヤ__1
  5
CDA
 10
-14.3554
 20
-13.4520
 30
0.000000
  70
    32
  0
VERTEX
  8
レイヤ__1
  5
CDB
 10
-14.3547
 20
-13.4559
 30
0.000000
  70
    32
  0
VERTEX
  8
レイヤ__1
  5
CDC
 10
-14.3541
 20
-13.4598
 30
0.000000
  70
    32
  0
VERTEX
  8
レイヤ__1
  5
CDD
 10
-14.3535
 20
-13.4636
 30
0.000000
  70
    32
  0
VERTEX
  8
レイヤ__1
  5
CDE
 10
-14.3530
 20
-13.4675
 30
0.000000
  70
    32
  0
VERTEX
  8
レイヤ__1
  5
CDF
 10
-14.3525
 20
-13.4713
 30
0.000000
  70
    32
  0
VERTEX
  8
レイヤ__1
  5
CE0
 10
-14.3520
 20
-13.4751
 30
0.000000
  70
    32
  0
VERTEX
  8
レイヤ__1
  5
CE1
 10
-14.3515
 20
-13.4789
 30
0.000000
  70
    32
  0
VERTEX
  8
レイヤ__1
  5
CE2
 10
-14.3511
 20
-13.4827
 30
0.000000
  70
    32
  0
VERTEX
  8
レイヤ__1
  5
CE3
 10
-14.3507
 20
-13.4864
 30
0.000000
  70
    32
  0
VERTEX
  8
レイヤ__1
  5
CE4
 10
-14.3503
 20
-13.4902
 30
0.000000
  70
    32
  0
VERTEX
  8
レイヤ__1
  5
CE5
 10
-14.3500
 20
-13.4939
 30
0.000000
  70
    32
  0
VERTEX
  8
レイヤ__1
  5
CE6
 10
-14.3497
 20
-13.4976
 30
0.000000
  70
    32
  0
VERTEX
  8
レイヤ__1
  5
CE7
 10
-14.3494
 20
-13.5013
 30
0.000000
  70
    32
  0
VERTEX
  8
レイヤ__1
  5
CE8
 10
-14.3491
 20
-13.5050
 30
0.000000
  70
    32
  0
VERTEX
  8
レイヤ__1
  5
CE9
 10
-14.3489
 20
-13.5086
 30
0.000000
  70
    32
  0
VERTEX
  8
レイヤ__1
  5
CEA
 10
-14.3487
 20
-13.5122
 30
0.000000
  70
    32
  0
VERTEX
  8
レイヤ__1
  5
CEB
 10
-14.3485
 20
-13.5158
 30
0.000000
  70
    32
  0
VERTEX
  8
レイヤ__1
  5
CEC
 10
-14.3483
 20
-13.5194
 30
0.000000
  70
    32
  0
VERTEX
  8
レイヤ__1
  5
CED
 10
-14.3482
 20
-13.5229
 30
0.000000
  70
    32
  0
VERTEX
  8
レイヤ__1
  5
CEE
 10
-14.3481
 20
-13.5264
 30
0.000000
  70
    32
  0
VERTEX
  8
レイヤ__1
  5
CEF
 10
-14.3480
 20
-13.5299
 30
0.000000
  70
    32
  0
VERTEX
  8
レイヤ__1
  5
CF0
 10
-14.3479
 20
-13.5334
 30
0.000000
  70
    32
  0
VERTEX
  8
レイヤ__1
  5
CF1
 10
-14.3478
 20
-13.5368
 30
0.000000
  70
    32
  0
VERTEX
  8
レイヤ__1
  5
CF2
 10
-14.3477
 20
-13.5402
 30
0.000000
  70
    32
  0
VERTEX
  8
レイヤ__1
  5
CF3
 10
-14.3477
 20
-13.5435
 30
0.000000
  70
    32
  0
VERTEX
  8
レイヤ__1
  5
CF4
 10
-14.3477
 20
-13.5469
 30
0.000000
  70
    32
  0
VERTEX
  8
レイヤ__1
  5
CF5
 10
-14.3476
 20
-13.5501
 30
0.000000
  70
    32
  0
VERTEX
  8
レイヤ__1
  5
CF6
 10
-14.3476
 20
-13.5534
 30
0.000000
  70
    32
  0
SEQEND
  8
レイヤ__1
  5
CF7
  0
POLYLINE
  8
レイヤ__1
  5
CF8
  62
5
  66
     1
 10
0.000000
 20
0.000000
 30
0.000000
  70
     8
  0
VERTEX
  8
レイヤ__1
  5
CF9
 10
-6.68469
 20
-14.8319
 30
0.000000
  70
    32
  0
VERTEX
  8
レイヤ__1
  5
CFA
 10
-6.68584
 20
-14.8384
 30
0.000000
  70
    32
  0
VERTEX
  8
レイヤ__1
  5
CFB
 10
-6.68710
 20
-14.8448
 30
0.000000
  70
    32
  0
VERTEX
  8
レイヤ__1
  5
CFC
 10
-6.68849
 20
-14.8512
 30
0.000000
  70
    32
  0
VERTEX
  8
レイヤ__1
  5
CFD
 10
-6.69000
 20
-14.8576
 30
0.000000
  70
    32
  0
VERTEX
  8
レイヤ__1
  5
CFE
 10
-6.69164
 20
-14.8640
 30
0.000000
  70
    32
  0
VERTEX
  8
レイヤ__1
  5
CFF
 10
-6.69339
 20
-14.8703
 30
0.000000
  70
    32
  0
VERTEX
  8
レイヤ__1
  5
D00
 10
-6.69526
 20
-14.8766
 30
0.000000
  70
    32
  0
VERTEX
  8
レイヤ__1
  5
D01
 10
-6.69725
 20
-14.8829
 30
0.000000
  70
    32
  0
VERTEX
  8
レイヤ__1
  5
D02
 10
-6.69935
 20
-14.8891
 30
0.000000
  70
    32
  0
VERTEX
  8
レイヤ__1
  5
D03
 10
-6.70157
 20
-14.8953
 30
0.000000
  70
    32
  0
VERTEX
  8
レイヤ__1
  5
D04
 10
-6.70390
 20
-14.9015
 30
0.000000
  70
    32
  0
VERTEX
  8
レイヤ__1
  5
D05
 10
-6.70635
 20
-14.9077
 30
0.000000
  70
    32
  0
VERTEX
  8
レイヤ__1
  5
D06
 10
-6.70890
 20
-14.9139
 30
0.000000
  70
    32
  0
VERTEX
  8
レイヤ__1
  5
D07
 10
-6.71157
 20
-14.9200
 30
0.000000
  70
    32
  0
VERTEX
  8
レイヤ__1
  5
D08
 10
-6.71434
 20
-14.9260
 30
0.000000
  70
    32
  0
VERTEX
  8
レイヤ__1
  5
D09
 10
-6.71722
 20
-14.9321
 30
0.000000
  70
    32
  0
VERTEX
  8
レイヤ__1
  5
D0A
 10
-6.72020
 20
-14.9381
 30
0.000000
  70
    32
  0
VERTEX
  8
レイヤ__1
  5
D0B
 10
-6.72330
 20
-14.9441
 30
0.000000
  70
    32
  0
VERTEX
  8
レイヤ__1
  5
D0C
 10
-6.72649
 20
-14.9501
 30
0.000000
  70
    32
  0
VERTEX
  8
レイヤ__1
  5
D0D
 10
-6.72979
 20
-14.9560
 30
0.000000
  70
    32
  0
VERTEX
  8
レイヤ__1
  5
D0E
 10
-6.73318
 20
-14.9619
 30
0.000000
  70
    32
  0
VERTEX
  8
レイヤ__1
  5
D0F
 10
-6.73668
 20
-14.9677
 30
0.000000
  70
    32
  0
VERTEX
  8
レイヤ__1
  5
D10
 10
-6.74028
 20
-14.9736
 30
0.000000
  70
    32
  0
VERTEX
  8
レイヤ__1
  5
D11
 10
-6.74397
 20
-14.9794
 30
0.000000
  70
    32
  0
VERTEX
  8
レイヤ__1
  5
D12
 10
-6.74776
 20
-14.9851
 30
0.000000
  70
    32
  0
VERTEX
  8
レイヤ__1
  5
D13
 10
-6.75165
 20
-14.9908
 30
0.000000
  70
    32
  0
VERTEX
  8
レイヤ__1
  5
D14
 10
-6.75562
 20
-14.9965
 30
0.000000
  70
    32
  0
VERTEX
  8
レイヤ__1
  5
D15
 10
-6.75970
 20
-15.0022
 30
0.000000
  70
    32
  0
VERTEX
  8
レイヤ__1
  5
D16
 10
-6.76386
 20
-15.0078
 30
0.000000
  70
    32
  0
VERTEX
  8
レイヤ__1
  5
D17
 10
-6.76811
 20
-15.0134
 30
0.000000
  70
    32
  0
VERTEX
  8
レイヤ__1
  5
D18
 10
-6.77245
 20
-15.0189
 30
0.000000
  70
    32
  0
VERTEX
  8
レイヤ__1
  5
D19
 10
-6.77688
 20
-15.0244
 30
0.000000
  70
    32
  0
VERTEX
  8
レイヤ__1
  5
D1A
 10
-6.78139
 20
-15.0299
 30
0.000000
  70
    32
  0
VERTEX
  8
レイヤ__1
  5
D1B
 10
-6.78599
 20
-15.0354
 30
0.000000
  70
    32
  0
VERTEX
  8
レイヤ__1
  5
D1C
 10
-6.79068
 20
-15.0408
 30
0.000000
  70
    32
  0
VERTEX
  8
レイヤ__1
  5
D1D
 10
-6.79544
 20
-15.0461
 30
0.000000
  70
    32
  0
VERTEX
  8
レイヤ__1
  5
D1E
 10
-6.80029
 20
-15.0514
 30
0.000000
  70
    32
  0
VERTEX
  8
レイヤ__1
  5
D1F
 10
-6.80522
 20
-15.0567
 30
0.000000
  70
    32
  0
VERTEX
  8
レイヤ__1
  5
D20
 10
-6.81023
 20
-15.0619
 30
0.000000
  70
    32
  0
VERTEX
  8
レイヤ__1
  5
D21
 10
-6.81531
 20
-15.0671
 30
0.000000
  70
    32
  0
VERTEX
  8
レイヤ__1
  5
D22
 10
-6.82047
 20
-15.0723
 30
0.000000
  70
    32
  0
VERTEX
  8
レイヤ__1
  5
D23
 10
-6.82571
 20
-15.0774
 30
0.000000
  70
    32
  0
VERTEX
  8
レイヤ__1
  5
D24
 10
-6.83102
 20
-15.0825
 30
0.000000
  70
    32
  0
VERTEX
  8
レイヤ__1
  5
D25
 10
-6.83640
 20
-15.0875
 30
0.000000
  70
    32
  0
VERTEX
  8
レイヤ__1
  5
D26
 10
-6.84186
 20
-15.0925
 30
0.000000
  70
    32
  0
VERTEX
  8
レイヤ__1
  5
D27
 10
-6.84738
 20
-15.0975
 30
0.000000
  70
    32
  0
VERTEX
  8
レイヤ__1
  5
D28
 10
-6.85297
 20
-15.1024
 30
0.000000
  70
    32
  0
VERTEX
  8
レイヤ__1
  5
D29
 10
-6.85864
 20
-15.1072
 30
0.000000
  70
    32
  0
VERTEX
  8
レイヤ__1
  5
D2A
 10
-6.86436
 20
-15.1120
 30
0.000000
  70
    32
  0
VERTEX
  8
レイヤ__1
  5
D2B
 10
-6.87016
 20
-15.1168
 30
0.000000
  70
    32
  0
VERTEX
  8
レイヤ__1
  5
D2C
 10
-6.87602
 20
-15.1215
 30
0.000000
  70
    32
  0
VERTEX
  8
レイヤ__1
  5
D2D
 10
-6.88194
 20
-15.1262
 30
0.000000
  70
    32
  0
VERTEX
  8
レイヤ__1
  5
D2E
 10
-6.88792
 20
-15.1308
 30
0.000000
  70
    32
  0
VERTEX
  8
レイヤ__1
  5
D2F
 10
-6.89396
 20
-15.1354
 30
0.000000
  70
    32
  0
VERTEX
  8
レイヤ__1
  5
D30
 10
-6.90006
 20
-15.1400
 30
0.000000
  70
    32
  0
VERTEX
  8
レイヤ__1
  5
D31
 10
-6.90623
 20
-15.1445
 30
0.000000
  70
    32
  0
VERTEX
  8
レイヤ__1
  5
D32
 10
-6.91244
 20
-15.1489
 30
0.000000
  70
    32
  0
VERTEX
  8
レイヤ__1
  5
D33
 10
-6.91871
 20
-15.1533
 30
0.000000
  70
    32
  0
VERTEX
  8
レイヤ__1
  5
D34
 10
-6.92504
 20
-15.1577
 30
0.000000
  70
    32
  0
VERTEX
  8
レイヤ__1
  5
D35
 10
-6.93142
 20
-15.1620
 30
0.000000
  70
    32
  0
VERTEX
  8
レイヤ__1
  5
D36
 10
-6.93785
 20
-15.1662
 30
0.000000
  70
    32
  0
VERTEX
  8
レイヤ__1
  5
D37
 10
-6.94434
 20
-15.1704
 30
0.000000
  70
    32
  0
VERTEX
  8
レイヤ__1
  5
D38
 10
-6.95087
 20
-15.1746
 30
0.000000
  70
    32
  0
VERTEX
  8
レイヤ__1
  5
D39
 10
-6.95745
 20
-15.1787
 30
0.000000
  70
    32
  0
VERTEX
  8
レイヤ__1
  5
D3A
 10
-6.96407
 20
-15.1827
 30
0.000000
  70
    32
  0
VERTEX
  8
レイヤ__1
  5
D3B
 10
-6.97075
 20
-15.1867
 30
0.000000
  70
    32
  0
VERTEX
  8
レイヤ__1
  5
D3C
 10
-6.97746
 20
-15.1906
 30
0.000000
  70
    32
  0
VERTEX
  8
レイヤ__1
  5
D3D
 10
-6.98422
 20
-15.1945
 30
0.000000
  70
    32
  0
VERTEX
  8
レイヤ__1
  5
D3E
 10
-6.99103
 20
-15.1984
 30
0.000000
  70
    32
  0
VERTEX
  8
レイヤ__1
  5
D3F
 10
-6.99787
 20
-15.2022
 30
0.000000
  70
    32
  0
VERTEX
  8
レイヤ__1
  5
D40
 10
-7.00475
 20
-15.2059
 30
0.000000
  70
    32
  0
VERTEX
  8
レイヤ__1
  5
D41
 10
-7.01167
 20
-15.2096
 30
0.000000
  70
    32
  0
VERTEX
  8
レイヤ__1
  5
D42
 10
-7.01863
 20
-15.2132
 30
0.000000
  70
    32
  0
VERTEX
  8
レイヤ__1
  5
D43
 10
-7.02563
 20
-15.2168
 30
0.000000
  70
    32
  0
VERTEX
  8
レイヤ__1
  5
D44
 10
-7.03265
 20
-15.2203
 30
0.000000
  70
    32
  0
VERTEX
  8
レイヤ__1
  5
D45
 10
-7.03972
 20
-15.2237
 30
0.000000
  70
    32
  0
VERTEX
  8
レイヤ__1
  5
D46
 10
-7.04681
 20
-15.2271
 30
0.000000
  70
    32
  0
VERTEX
  8
レイヤ__1
  5
D47
 10
-7.05394
 20
-15.2305
 30
0.000000
  70
    32
  0
VERTEX
  8
レイヤ__1
  5
D48
 10
-7.06109
 20
-15.2338
 30
0.000000
  70
    32
  0
VERTEX
  8
レイヤ__1
  5
D49
 10
-7.06827
 20
-15.2370
 30
0.000000
  70
    32
  0
VERTEX
  8
レイヤ__1
  5
D4A
 10
-7.07548
 20
-15.2402
 30
0.000000
  70
    32
  0
VERTEX
  8
レイヤ__1
  5
D4B
 10
-7.08272
 20
-15.2433
 30
0.000000
  70
    32
  0
VERTEX
  8
レイヤ__1
  5
D4C
 10
-7.08998
 20
-15.2463
 30
0.000000
  70
    32
  0
VERTEX
  8
レイヤ__1
  5
D4D
 10
-7.09727
 20
-15.2493
 30
0.000000
  70
    32
  0
VERTEX
  8
レイヤ__1
  5
D4E
 10
-7.10457
 20
-15.2523
 30
0.000000
  70
    32
  0
VERTEX
  8
レイヤ__1
  5
D4F
 10
-7.11190
 20
-15.2551
 30
0.000000
  70
    32
  0
VERTEX
  8
レイヤ__1
  5
D50
 10
-7.11925
 20
-15.2579
 30
0.000000
  70
    32
  0
VERTEX
  8
レイヤ__1
  5
D51
 10
-7.12662
 20
-15.2607
 30
0.000000
  70
    32
  0
VERTEX
  8
レイヤ__1
  5
D52
 10
-7.13400
 20
-15.2634
 30
0.000000
  70
    32
  0
VERTEX
  8
レイヤ__1
  5
D53
 10
-7.14140
 20
-15.2660
 30
0.000000
  70
    32
  0
VERTEX
  8
レイヤ__1
  5
D54
 10
-7.14882
 20
-15.2686
 30
0.000000
  70
    32
  0
VERTEX
  8
レイヤ__1
  5
D55
 10
-7.15624
 20
-15.2711
 30
0.000000
  70
    32
  0
VERTEX
  8
レイヤ__1
  5
D56
 10
-7.16369
 20
-15.2735
 30
0.000000
  70
    32
  0
VERTEX
  8
レイヤ__1
  5
D57
 10
-7.17114
 20
-15.2759
 30
0.000000
  70
    32
  0
VERTEX
  8
レイヤ__1
  5
D58
 10
-7.17860
 20
-15.2782
 30
0.000000
  70
    32
  0
VERTEX
  8
レイヤ__1
  5
D59
 10
-7.18607
 20
-15.2805
 30
0.000000
  70
    32
  0
VERTEX
  8
レイヤ__1
  5
D5A
 10
-7.19355
 20
-15.2827
 30
0.000000
  70
    32
  0
VERTEX
  8
レイヤ__1
  5
D5B
 10
-7.20104
 20
-15.2848
 30
0.000000
  70
    32
  0
VERTEX
  8
レイヤ__1
  5
D5C
 10
-7.20853
 20
-15.2868
 30
0.000000
  70
    32
  0
VERTEX
  8
レイヤ__1
  5
D5D
 10
-7.21602
 20
-15.2888
 30
0.000000
  70
    32
  0
VERTEX
  8
レイヤ__1
  5
D5E
 10
-7.22352
 20
-15.2907
 30
0.000000
  70
    32
  0
VERTEX
  8
レイヤ__1
  5
D5F
 10
-7.23102
 20
-15.2926
 30
0.000000
  70
    32
  0
VERTEX
  8
レイヤ__1
  5
D60
 10
-7.23851
 20
-15.2944
 30
0.000000
  70
    32
  0
VERTEX
  8
レイヤ__1
  5
D61
 10
-7.24601
 20
-15.2961
 30
0.000000
  70
    32
  0
VERTEX
  8
レイヤ__1
  5
D62
 10
-7.25351
 20
-15.2977
 30
0.000000
  70
    32
  0
VERTEX
  8
レイヤ__1
  5
D63
 10
-7.26100
 20
-15.2993
 30
0.000000
  70
    32
  0
VERTEX
  8
レイヤ__1
  5
D64
 10
-7.26848
 20
-15.3008
 30
0.000000
  70
    32
  0
VERTEX
  8
レイヤ__1
  5
D65
 10
-7.27596
 20
-15.3023
 30
0.000000
  70
    32
  0
VERTEX
  8
レイヤ__1
  5
D66
 10
-7.28344
 20
-15.3037
 30
0.000000
  70
    32
  0
VERTEX
  8
レイヤ__1
  5
D67
 10
-7.29090
 20
-15.3050
 30
0.000000
  70
    32
  0
VERTEX
  8
レイヤ__1
  5
D68
 10
-7.29836
 20
-15.3062
 30
0.000000
  70
    32
  0
VERTEX
  8
レイヤ__1
  5
D69
 10
-7.30580
 20
-15.3073
 30
0.000000
  70
    32
  0
VERTEX
  8
レイヤ__1
  5
D6A
 10
-7.31324
 20
-15.3084
 30
0.000000
  70
    32
  0
VERTEX
  8
レイヤ__1
  5
D6B
 10
-7.32065
 20
-15.3095
 30
0.000000
  70
    32
  0
VERTEX
  8
レイヤ__1
  5
D6C
 10
-7.32806
 20
-15.3104
 30
0.000000
  70
    32
  0
VERTEX
  8
レイヤ__1
  5
D6D
 10
-7.33545
 20
-15.3113
 30
0.000000
  70
    32
  0
VERTEX
  8
レイヤ__1
  5
D6E
 10
-7.34282
 20
-15.3121
 30
0.000000
  70
    32
  0
VERTEX
  8
レイヤ__1
  5
D6F
 10
-7.35017
 20
-15.3128
 30
0.000000
  70
    32
  0
VERTEX
  8
レイヤ__1
  5
D70
 10
-7.35751
 20
-15.3134
 30
0.000000
  70
    32
  0
VERTEX
  8
レイヤ__1
  5
D71
 10
-7.36482
 20
-15.3140
 30
0.000000
  70
    32
  0
VERTEX
  8
レイヤ__1
  5
D72
 10
-7.37211
 20
-15.3145
 30
0.000000
  70
    32
  0
VERTEX
  8
レイヤ__1
  5
D73
 10
-7.37938
 20
-15.3149
 30
0.000000
  70
    32
  0
VERTEX
  8
レイヤ__1
  5
D74
 10
-7.38662
 20
-15.3153
 30
0.000000
  70
    32
  0
VERTEX
  8
レイヤ__1
  5
D75
 10
-7.39384
 20
-15.3156
 30
0.000000
  70
    32
  0
VERTEX
  8
レイヤ__1
  5
D76
 10
-7.40103
 20
-15.3157
 30
0.000000
  70
    32
  0
VERTEX
  8
レイヤ__1
  5
D77
 10
-7.40819
 20
-15.3159
 30
0.000000
  70
    32
  0
VERTEX
  8
レイヤ__1
  5
D78
 10
-7.41532
 20
-15.3159
 30
0.000000
  70
    32
  0
SEQEND
  8
レイヤ__1
  5
D79
  0
POLYLINE
  8
レイヤ__1
  5
D7A
  62
5
  66
     1
 10
0.000000
 20
0.000000
 30
0.000000
  70
     8
  0
VERTEX
  8
レイヤ__1
  5
D7B
 10
-7.41532
 20
-15.3159
 30
0.000000
  70
    32
  0
VERTEX
  8
レイヤ__1
  5
D7C
 10
-7.42247
 20
-15.3159
 30
0.000000
  70
    32
  0
VERTEX
  8
レイヤ__1
  5
D7D
 10
-7.42969
 20
-15.3158
 30
0.000000
  70
    32
  0
VERTEX
  8
レイヤ__1
  5
D7E
 10
-7.43697
 20
-15.3157
 30
0.000000
  70
    32
  0
VERTEX
  8
レイヤ__1
  5
D7F
 10
-7.44430
 20
-15.3155
 30
0.000000
  70
    32
  0
VERTEX
  8
レイヤ__1
  5
D80
 10
-7.45169
 20
-15.3152
 30
0.000000
  70
    32
  0
VERTEX
  8
レイヤ__1
  5
D81
 10
-7.45914
 20
-15.3149
 30
0.000000
  70
    32
  0
VERTEX
  8
レイヤ__1
  5
D82
 10
-7.46663
 20
-15.3145
 30
0.000000
  70
    32
  0
VERTEX
  8
レイヤ__1
  5
D83
 10
-7.47418
 20
-15.3140
 30
0.000000
  70
    32
  0
VERTEX
  8
レイヤ__1
  5
D84
 10
-7.48177
 20
-15.3135
 30
0.000000
  70
    32
  0
VERTEX
  8
レイヤ__1
  5
D85
 10
-7.48940
 20
-15.3129
 30
0.000000
  70
    32
  0
VERTEX
  8
レイヤ__1
  5
D86
 10
-7.49708
 20
-15.3122
 30
0.000000
  70
    32
  0
VERTEX
  8
レイヤ__1
  5
D87
 10
-7.50479
 20
-15.3115
 30
0.000000
  70
    32
  0
VERTEX
  8
レイヤ__1
  5
D88
 10
-7.51255
 20
-15.3106
 30
0.000000
  70
    32
  0
VERTEX
  8
レイヤ__1
  5
D89
 10
-7.52033
 20
-15.3097
 30
0.000000
  70
    32
  0
VERTEX
  8
レイヤ__1
  5
D8A
 10
-7.52815
 20
-15.3088
 30
0.000000
  70
    32
  0
VERTEX
  8
レイヤ__1
  5
D8B
 10
-7.53600
 20
-15.3077
 30
0.000000
  70
    32
  0
VERTEX
  8
レイヤ__1
  5
D8C
 10
-7.54387
 20
-15.3065
 30
0.000000
  70
    32
  0
VERTEX
  8
レイヤ__1
  5
D8D
 10
-7.55177
 20
-15.3053
 30
0.000000
  70
    32
  0
VERTEX
  8
レイヤ__1
  5
D8E
 10
-7.55969
 20
-15.3040
 30
0.000000
  70
    32
  0
VERTEX
  8
レイヤ__1
  5
D8F
 10
-7.56763
 20
-15.3025
 30
0.000000
  70
    32
  0
VERTEX
  8
レイヤ__1
  5
D90
 10
-7.57559
 20
-15.3010
 30
0.000000
  70
    32
  0
VERTEX
  8
レイヤ__1
  5
D91
 10
-7.58356
 20
-15.2994
 30
0.000000
  70
    32
  0
VERTEX
  8
レイヤ__1
  5
D92
 10
-7.59154
 20
-15.2977
 30
0.000000
  70
    32
  0
VERTEX
  8
レイヤ__1
  5
D93
 10
-7.59954
 20
-15.2959
 30
0.000000
  70
    32
  0
VERTEX
  8
レイヤ__1
  5
D94
 10
-7.60754
 20
-15.2940
 30
0.000000
  70
    32
  0
VERTEX
  8
レイヤ__1
  5
D95
 10
-7.61554
 20
-15.2920
 30
0.000000
  70
    32
  0
VERTEX
  8
レイヤ__1
  5
D96
 10
-7.62355
 20
-15.2899
 30
0.000000
  70
    32
  0
VERTEX
  8
レイヤ__1
  5
D97
 10
-7.63156
 20
-15.2876
 30
0.000000
  70
    32
  0
VERTEX
  8
レイヤ__1
  5
D98
 10
-7.63956
 20
-15.2853
 30
0.000000
  70
    32
  0
VERTEX
  8
レイヤ__1
  5
D99
 10
-7.64756
 20
-15.2828
 30
0.000000
  70
    32
  0
VERTEX
  8
レイヤ__1
  5
D9A
 10
-7.65556
 20
-15.2803
 30
0.000000
  70
    32
  0
VERTEX
  8
レイヤ__1
  5
D9B
 10
-7.66354
 20
-15.2776
 30
0.000000
  70
    32
  0
VERTEX
  8
レイヤ__1
  5
D9C
 10
-7.67151
 20
-15.2748
 30
0.000000
  70
    32
  0
VERTEX
  8
レイヤ__1
  5
D9D
 10
-7.67946
 20
-15.2719
 30
0.000000
  70
    32
  0
VERTEX
  8
レイヤ__1
  5
D9E
 10
-7.68740
 20
-15.2689
 30
0.000000
  70
    32
  0
VERTEX
  8
レイヤ__1
  5
D9F
 10
-7.69532
 20
-15.2657
 30
0.000000
  70
    32
  0
VERTEX
  8
レイヤ__1
  5
DA0
 10
-7.70322
 20
-15.2624
 30
0.000000
  70
    32
  0
VERTEX
  8
レイヤ__1
  5
DA1
 10
-7.71109
 20
-15.2590
 30
0.000000
  70
    32
  0
VERTEX
  8
レイヤ__1
  5
DA2
 10
-7.71893
 20
-15.2555
 30
0.000000
  70
    32
  0
VERTEX
  8
レイヤ__1
  5
DA3
 10
-7.72675
 20
-15.2518
 30
0.000000
  70
    32
  0
VERTEX
  8
レイヤ__1
  5
DA4
 10
-7.73453
 20
-15.2480
 30
0.000000
  70
    32
  0
VERTEX
  8
レイヤ__1
  5
DA5
 10
-7.74228
 20
-15.2441
 30
0.000000
  70
    32
  0
VERTEX
  8
レイヤ__1
  5
DA6
 10
-7.74999
 20
-15.2400
 30
0.000000
  70
    32
  0
VERTEX
  8
レイヤ__1
  5
DA7
 10
-7.75766
 20
-15.2358
 30
0.000000
  70
    32
  0
VERTEX
  8
レイヤ__1
  5
DA8
 10
-7.76530
 20
-15.2314
 30
0.000000
  70
    32
  0
VERTEX
  8
レイヤ__1
  5
DA9
 10
-7.77288
 20
-15.2269
 30
0.000000
  70
    32
  0
VERTEX
  8
レイヤ__1
  5
DAA
 10
-7.78042
 20
-15.2223
 30
0.000000
  70
    32
  0
VERTEX
  8
レイヤ__1
  5
DAB
 10
-7.78791
 20
-15.2175
 30
0.000000
  70
    32
  0
VERTEX
  8
レイヤ__1
  5
DAC
 10
-7.79535
 20
-15.2126
 30
0.000000
  70
    32
  0
VERTEX
  8
レイヤ__1
  5
DAD
 10
-7.80274
 20
-15.2075
 30
0.000000
  70
    32
  0
VERTEX
  8
レイヤ__1
  5
DAE
 10
-7.81007
 20
-15.2022
 30
0.000000
  70
    32
  0
VERTEX
  8
レイヤ__1
  5
DAF
 10
-7.81734
 20
-15.1968
 30
0.000000
  70
    32
  0
VERTEX
  8
レイヤ__1
  5
DB0
 10
-7.82455
 20
-15.1913
 30
0.000000
  70
    32
  0
VERTEX
  8
レイヤ__1
  5
DB1
 10
-7.83169
 20
-15.1856
 30
0.000000
  70
    32
  0
VERTEX
  8
レイヤ__1
  5
DB2
 10
-7.83877
 20
-15.1797
 30
0.000000
  70
    32
  0
VERTEX
  8
レイヤ__1
  5
DB3
 10
-7.84578
 20
-15.1737
 30
0.000000
  70
    32
  0
VERTEX
  8
レイヤ__1
  5
DB4
 10
-7.85272
 20
-15.1674
 30
0.000000
  70
    32
  0
VERTEX
  8
レイヤ__1
  5
DB5
 10
-7.85959
 20
-15.1611
 30
0.000000
  70
    32
  0
VERTEX
  8
レイヤ__1
  5
DB6
 10
-7.86638
 20
-15.1545
 30
0.000000
  70
    32
  0
VERTEX
  8
レイヤ__1
  5
DB7
 10
-7.87309
 20
-15.1478
 30
0.000000
  70
    32
  0
VERTEX
  8
レイヤ__1
  5
DB8
 10
-7.87972
 20
-15.1409
 30
0.000000
  70
    32
  0
VERTEX
  8
レイヤ__1
  5
DB9
 10
-7.88626
 20
-15.1339
 30
0.000000
  70
    32
  0
VERTEX
  8
レイヤ__1
  5
DBA
 10
-7.89273
 20
-15.1266
 30
0.000000
  70
    32
  0
VERTEX
  8
レイヤ__1
  5
DBB
 10
-7.89910
 20
-15.1192
 30
0.000000
  70
    32
  0
VERTEX
  8
レイヤ__1
  5
DBC
 10
-7.90538
 20
-15.1116
 30
0.000000
  70
    32
  0
VERTEX
  8
レイヤ__1
  5
DBD
 10
-7.91157
 20
-15.1039
 30
0.000000
  70
    32
  0
VERTEX
  8
レイヤ__1
  5
DBE
 10
-7.91766
 20
-15.0959
 30
0.000000
  70
    32
  0
VERTEX
  8
レイヤ__1
  5
DBF
 10
-7.92366
 20
-15.0877
 30
0.000000
  70
    32
  0
VERTEX
  8
レイヤ__1
  5
DC0
 10
-7.92955
 20
-15.0794
 30
0.000000
  70
    32
  0
VERTEX
  8
レイヤ__1
  5
DC1
 10
-7.93535
 20
-15.0709
 30
0.000000
  70
    32
  0
VERTEX
  8
レイヤ__1
  5
DC2
 10
-7.94103
 20
-15.0621
 30
0.000000
  70
    32
  0
VERTEX
  8
レイヤ__1
  5
DC3
 10
-7.94661
 20
-15.0532
 30
0.000000
  70
    32
  0
VERTEX
  8
レイヤ__1
  5
DC4
 10
-7.95208
 20
-15.0441
 30
0.000000
  70
    32
  0
VERTEX
  8
レイヤ__1
  5
DC5
 10
-7.95743
 20
-15.0348
 30
0.000000
  70
    32
  0
VERTEX
  8
レイヤ__1
  5
DC6
 10
-7.96268
 20
-15.0253
 30
0.000000
  70
    32
  0
VERTEX
  8
レイヤ__1
  5
DC7
 10
-7.96780
 20
-15.0156
 30
0.000000
  70
    32
  0
VERTEX
  8
レイヤ__1
  5
DC8
 10
-7.97280
 20
-15.0056
 30
0.000000
  70
    32
  0
VERTEX
  8
レイヤ__1
  5
DC9
 10
-7.97768
 20
-14.9955
 30
0.000000
  70
    32
  0
VERTEX
  8
レイヤ__1
  5
DCA
 10
-7.98244
 20
-14.9852
 30
0.000000
  70
    32
  0
VERTEX
  8
レイヤ__1
  5
DCB
 10
-7.98706
 20
-14.9746
 30
0.000000
  70
    32
  0
VERTEX
  8
レイヤ__1
  5
DCC
 10
-7.99156
 20
-14.9638
 30
0.000000
  70
    32
  0
VERTEX
  8
レイヤ__1
  5
DCD
 10
-7.99593
 20
-14.9529
 30
0.000000
  70
    32
  0
VERTEX
  8
レイヤ__1
  5
DCE
 10
-8.00016
 20
-14.9417
 30
0.000000
  70
    32
  0
VERTEX
  8
レイヤ__1
  5
DCF
 10
-8.00425
 20
-14.9303
 30
0.000000
  70
    32
  0
VERTEX
  8
レイヤ__1
  5
DD0
 10
-8.00821
 20
-14.9186
 30
0.000000
  70
    32
  0
VERTEX
  8
レイヤ__1
  5
DD1
 10
-8.01202
 20
-14.9068
 30
0.000000
  70
    32
  0
VERTEX
  8
レイヤ__1
  5
DD2
 10
-8.01569
 20
-14.8947
 30
0.000000
  70
    32
  0
VERTEX
  8
レイヤ__1
  5
DD3
 10
-8.01921
 20
-14.8824
 30
0.000000
  70
    32
  0
VERTEX
  8
レイヤ__1
  5
DD4
 10
-8.02258
 20
-14.8698
 30
0.000000
  70
    32
  0
VERTEX
  8
レイヤ__1
  5
DD5
 10
-8.02580
 20
-14.8571
 30
0.000000
  70
    32
  0
VERTEX
  8
レイヤ__1
  5
DD6
 10
-8.02886
 20
-14.8441
 30
0.000000
  70
    32
  0
VERTEX
  8
レイヤ__1
  5
DD7
 10
-8.03177
 20
-14.8308
 30
0.000000
  70
    32
  0
VERTEX
  8
レイヤ__1
  5
DD8
 10
-8.03452
 20
-14.8173
 30
0.000000
  70
    32
  0
VERTEX
  8
レイヤ__1
  5
DD9
 10
-8.03710
 20
-14.8036
 30
0.000000
  70
    32
  0
VERTEX
  8
レイヤ__1
  5
DDA
 10
-8.03953
 20
-14.7897
 30
0.000000
  70
    32
  0
VERTEX
  8
レイヤ__1
  5
DDB
 10
-8.04178
 20
-14.7755
 30
0.000000
  70
    32
  0
VERTEX
  8
レイヤ__1
  5
DDC
 10
-8.04387
 20
-14.7610
 30
0.000000
  70
    32
  0
VERTEX
  8
レイヤ__1
  5
DDD
 10
-8.04579
 20
-14.7463
 30
0.000000
  70
    32
  0
VERTEX
  8
レイヤ__1
  5
DDE
 10
-8.04753
 20
-14.7314
 30
0.000000
  70
    32
  0
VERTEX
  8
レイヤ__1
  5
DDF
 10
-8.04909
 20
-14.7162
 30
0.000000
  70
    32
  0
VERTEX
  8
レイヤ__1
  5
DE0
 10
-8.05048
 20
-14.7008
 30
0.000000
  70
    32
  0
VERTEX
  8
レイヤ__1
  5
DE1
 10
-8.05169
 20
-14.6851
 30
0.000000
  70
    32
  0
VERTEX
  8
レイヤ__1
  5
DE2
 10
-8.05271
 20
-14.6691
 30
0.000000
  70
    32
  0
VERTEX
  8
レイヤ__1
  5
DE3
 10
-8.05354
 20
-14.6529
 30
0.000000
  70
    32
  0
VERTEX
  8
レイヤ__1
  5
DE4
 10
-8.05419
 20
-14.6365
 30
0.000000
  70
    32
  0
VERTEX
  8
レイヤ__1
  5
DE5
 10
-8.05464
 20
-14.6197
 30
0.000000
  70
    32
  0
VERTEX
  8
レイヤ__1
  5
DE6
 10
-8.05491
 20
-14.6027
 30
0.000000
  70
    32
  0
VERTEX
  8
レイヤ__1
  5
DE7
 10
-8.05497
 20
-14.5855
 30
0.000000
  70
    32
  0
VERTEX
  8
レイヤ__1
  5
DE8
 10
-8.05484
 20
-14.5679
 30
0.000000
  70
    32
  0
VERTEX
  8
レイヤ__1
  5
DE9
 10
-8.05451
 20
-14.5501
 30
0.000000
  70
    32
  0
VERTEX
  8
レイヤ__1
  5
DEA
 10
-8.05397
 20
-14.5320
 30
0.000000
  70
    32
  0
VERTEX
  8
レイヤ__1
  5
DEB
 10
-8.05323
 20
-14.5137
 30
0.000000
  70
    32
  0
VERTEX
  8
レイヤ__1
  5
DEC
 10
-8.05228
 20
-14.4951
 30
0.000000
  70
    32
  0
VERTEX
  8
レイヤ__1
  5
DED
 10
-8.05112
 20
-14.4762
 30
0.000000
  70
    32
  0
VERTEX
  8
レイヤ__1
  5
DEE
 10
-8.04974
 20
-14.4570
 30
0.000000
  70
    32
  0
VERTEX
  8
レイヤ__1
  5
DEF
 10
-8.04815
 20
-14.4375
 30
0.000000
  70
    32
  0
VERTEX
  8
レイヤ__1
  5
DF0
 10
-8.04635
 20
-14.4177
 30
0.000000
  70
    32
  0
VERTEX
  8
レイヤ__1
  5
DF1
 10
-8.04432
 20
-14.3977
 30
0.000000
  70
    32
  0
VERTEX
  8
レイヤ__1
  5
DF2
 10
-8.04207
 20
-14.3774
 30
0.000000
  70
    32
  0
VERTEX
  8
レイヤ__1
  5
DF3
 10
-8.03959
 20
-14.3567
 30
0.000000
  70
    32
  0
VERTEX
  8
レイヤ__1
  5
DF4
 10
-8.03689
 20
-14.3358
 30
0.000000
  70
    32
  0
VERTEX
  8
レイヤ__1
  5
DF5
 10
-8.03395
 20
-14.3146
 30
0.000000
  70
    32
  0
VERTEX
  8
レイヤ__1
  5
DF6
 10
-8.03078
 20
-14.2931
 30
0.000000
  70
    32
  0
VERTEX
  8
レイヤ__1
  5
DF7
 10
-8.02738
 20
-14.2713
 30
0.000000
  70
    32
  0
VERTEX
  8
レイヤ__1
  5
DF8
 10
-8.02374
 20
-14.2492
 30
0.000000
  70
    32
  0
VERTEX
  8
レイヤ__1
  5
DF9
 10
-8.01986
 20
-14.2268
 30
0.000000
  70
    32
  0
VERTEX
  8
レイヤ__1
  5
DFA
 10
-8.01574
 20
-14.2041
 30
0.000000
  70
    32
  0
SEQEND
  8
レイヤ__1
  5
DFB
  0
POLYLINE
  8
レイヤ__1
  5
DFC
  62
5
  66
     1
 10
0.000000
 20
0.000000
 30
0.000000
  70
     8
  0
VERTEX
  8
レイヤ__1
  5
DFD
 10
-9.17991
 20
-14.1926
 30
0.000000
  70
    32
  0
VERTEX
  8
レイヤ__1
  5
DFE
 10
-9.18494
 20
-14.2203
 30
0.000000
  70
    32
  0
VERTEX
  8
レイヤ__1
  5
DFF
 10
-9.18972
 20
-14.2478
 30
0.000000
  70
    32
  0
VERTEX
  8
レイヤ__1
  5
E00
 10
-9.19425
 20
-14.2752
 30
0.000000
  70
    32
  0
VERTEX
  8
レイヤ__1
  5
E01
 10
-9.19853
 20
-14.3026
 30
0.000000
  70
    32
  0
VERTEX
  8
レイヤ__1
  5
E02
 10
-9.20256
 20
-14.3298
 30
0.000000
  70
    32
  0
VERTEX
  8
レイヤ__1
  5
E03
 10
-9.20635
 20
-14.3569
 30
0.000000
  70
    32
  0
VERTEX
  8
レイヤ__1
  5
E04
 10
-9.20988
 20
-14.3840
 30
0.000000
  70
    32
  0
VERTEX
  8
レイヤ__1
  5
E05
 10
-9.21316
 20
-14.4109
 30
0.000000
  70
    32
  0
VERTEX
  8
レイヤ__1
  5
E06
 10
-9.21619
 20
-14.4377
 30
0.000000
  70
    32
  0
VERTEX
  8
レイヤ__1
  5
E07
 10
-9.21897
 20
-14.4644
 30
0.000000
  70
    32
  0
VERTEX
  8
レイヤ__1
  5
E08
 10
-9.22149
 20
-14.4909
 30
0.000000
  70
    32
  0
VERTEX
  8
レイヤ__1
  5
E09
 10
-9.22376
 20
-14.5174
 30
0.000000
  70
    32
  0
VERTEX
  8
レイヤ__1
  5
E0A
 10
-9.22578
 20
-14.5437
 30
0.000000
  70
    32
  0
VERTEX
  8
レイヤ__1
  5
E0B
 10
-9.22755
 20
-14.5699
 30
0.000000
  70
    32
  0
VERTEX
  8
レイヤ__1
  5
E0C
 10
-9.22906
 20
-14.5960
 30
0.000000
  70
    32
  0
VERTEX
  8
レイヤ__1
  5
E0D
 10
-9.23032
 20
-14.6220
 30
0.000000
  70
    32
  0
VERTEX
  8
レイヤ__1
  5
E0E
 10
-9.23132
 20
-14.6479
 30
0.000000
  70
    32
  0
VERTEX
  8
レイヤ__1
  5
E0F
 10
-9.23207
 20
-14.6736
 30
0.000000
  70
    32
  0
VERTEX
  8
レイヤ__1
  5
E10
 10
-9.23256
 20
-14.6992
 30
0.000000
  70
    32
  0
VERTEX
  8
レイヤ__1
  5
E11
 10
-9.23280
 20
-14.7246
 30
0.000000
  70
    32
  0
VERTEX
  8
レイヤ__1
  5
E12
 10
-9.23278
 20
-14.7500
 30
0.000000
  70
    32
  0
VERTEX
  8
レイヤ__1
  5
E13
 10
-9.23250
 20
-14.7751
 30
0.000000
  70
    32
  0
VERTEX
  8
レイヤ__1
  5
E14
 10
-9.23197
 20
-14.8002
 30
0.000000
  70
    32
  0
VERTEX
  8
レイヤ__1
  5
E15
 10
-9.23118
 20
-14.8251
 30
0.000000
  70
    32
  0
VERTEX
  8
レイヤ__1
  5
E16
 10
-9.23013
 20
-14.8499
 30
0.000000
  70
    32
  0
VERTEX
  8
レイヤ__1
  5
E17
 10
-9.22882
 20
-14.8745
 30
0.000000
  70
    32
  0
VERTEX
  8
レイヤ__1
  5
E18
 10
-9.22725
 20
-14.8990
 30
0.000000
  70
    32
  0
VERTEX
  8
レイヤ__1
  5
E19
 10
-9.22542
 20
-14.9233
 30
0.000000
  70
    32
  0
VERTEX
  8
レイヤ__1
  5
E1A
 10
-9.22333
 20
-14.9475
 30
0.000000
  70
    32
  0
VERTEX
  8
レイヤ__1
  5
E1B
 10
-9.22099
 20
-14.9716
 30
0.000000
  70
    32
  0
VERTEX
  8
レイヤ__1
  5
E1C
 10
-9.21838
 20
-14.9954
 30
0.000000
  70
    32
  0
VERTEX
  8
レイヤ__1
  5
E1D
 10
-9.21551
 20
-15.0192
 30
0.000000
  70
    32
  0
VERTEX
  8
レイヤ__1
  5
E1E
 10
-9.21238
 20
-15.0427
 30
0.000000
  70
    32
  0
VERTEX
  8
レイヤ__1
  5
E1F
 10
-9.20898
 20
-15.0662
 30
0.000000
  70
    32
  0
VERTEX
  8
レイヤ__1
  5
E20
 10
-9.20533
 20
-15.0894
 30
0.000000
  70
    32
  0
VERTEX
  8
レイヤ__1
  5
E21
 10
-9.20141
 20
-15.1125
 30
0.000000
  70
    32
  0
VERTEX
  8
レイヤ__1
  5
E22
 10
-9.19723
 20
-15.1354
 30
0.000000
  70
    32
  0
VERTEX
  8
レイヤ__1
  5
E23
 10
-9.19278
 20
-15.1582
 30
0.000000
  70
    32
  0
VERTEX
  8
レイヤ__1
  5
E24
 10
-9.18807
 20
-15.1808
 30
0.000000
  70
    32
  0
VERTEX
  8
レイヤ__1
  5
E25
 10
-9.18310
 20
-15.2032
 30
0.000000
  70
    32
  0
VERTEX
  8
レイヤ__1
  5
E26
 10
-9.17786
 20
-15.2254
 30
0.000000
  70
    32
  0
VERTEX
  8
レイヤ__1
  5
E27
 10
-9.17235
 20
-15.2475
 30
0.000000
  70
    32
  0
VERTEX
  8
レイヤ__1
  5
E28
 10
-9.16658
 20
-15.2694
 30
0.000000
  70
    32
  0
VERTEX
  8
レイヤ__1
  5
E29
 10
-9.16054
 20
-15.2911
 30
0.000000
  70
    32
  0
VERTEX
  8
レイヤ__1
  5
E2A
 10
-9.15424
 20
-15.3127
 30
0.000000
  70
    32
  0
VERTEX
  8
レイヤ__1
  5
E2B
 10
-9.14767
 20
-15.3340
 30
0.000000
  70
    32
  0
VERTEX
  8
レイヤ__1
  5
E2C
 10
-9.14083
 20
-15.3552
 30
0.000000
  70
    32
  0
VERTEX
  8
レイヤ__1
  5
E2D
 10
-9.13372
 20
-15.3762
 30
0.000000
  70
    32
  0
VERTEX
  8
レイヤ__1
  5
E2E
 10
-9.12635
 20
-15.3970
 30
0.000000
  70
    32
  0
VERTEX
  8
レイヤ__1
  5
E2F
 10
-9.11871
 20
-15.4176
 30
0.000000
  70
    32
  0
VERTEX
  8
レイヤ__1
  5
E30
 10
-9.11079
 20
-15.4380
 30
0.000000
  70
    32
  0
VERTEX
  8
レイヤ__1
  5
E31
 10
-9.10261
 20
-15.4583
 30
0.000000
  70
    32
  0
VERTEX
  8
レイヤ__1
  5
E32
 10
-9.09416
 20
-15.4783
 30
0.000000
  70
    32
  0
VERTEX
  8
レイヤ__1
  5
E33
 10
-9.08543
 20
-15.4981
 30
0.000000
  70
    32
  0
VERTEX
  8
レイヤ__1
  5
E34
 10
-9.07644
 20
-15.5178
 30
0.000000
  70
    32
  0
VERTEX
  8
レイヤ__1
  5
E35
 10
-9.06718
 20
-15.5372
 30
0.000000
  70
    32
  0
VERTEX
  8
レイヤ__1
  5
E36
 10
-9.05764
 20
-15.5564
 30
0.000000
  70
    32
  0
VERTEX
  8
レイヤ__1
  5
E37
 10
-9.04783
 20
-15.5755
 30
0.000000
  70
    32
  0
VERTEX
  8
レイヤ__1
  5
E38
 10
-9.03775
 20
-15.5943
 30
0.000000
  70
    32
  0
VERTEX
  8
レイヤ__1
  5
E39
 10
-9.02739
 20
-15.6129
 30
0.000000
  70
    32
  0
VERTEX
  8
レイヤ__1
  5
E3A
 10
-9.01676
 20
-15.6313
 30
0.000000
  70
    32
  0
VERTEX
  8
レイヤ__1
  5
E3B
 10
-9.00586
 20
-15.6495
 30
0.000000
  70
    32
  0
VERTEX
  8
レイヤ__1
  5
E3C
 10
-8.99468
 20
-15.6674
 30
0.000000
  70
    32
  0
VERTEX
  8
レイヤ__1
  5
E3D
 10
-8.98323
 20
-15.6852
 30
0.000000
  70
    32
  0
VERTEX
  8
レイヤ__1
  5
E3E
 10
-8.97150
 20
-15.7027
 30
0.000000
  70
    32
  0
VERTEX
  8
レイヤ__1
  5
E3F
 10
-8.95950
 20
-15.7200
 30
0.000000
  70
    32
  0
VERTEX
  8
レイヤ__1
  5
E40
 10
-8.94722
 20
-15.7371
 30
0.000000
  70
    32
  0
VERTEX
  8
レイヤ__1
  5
E41
 10
-8.93467
 20
-15.7540
 30
0.000000
  70
    32
  0
VERTEX
  8
レイヤ__1
  5
E42
 10
-8.92184
 20
-15.7707
 30
0.000000
  70
    32
  0
VERTEX
  8
レイヤ__1
  5
E43
 10
-8.90873
 20
-15.7871
 30
0.000000
  70
    32
  0
VERTEX
  8
レイヤ__1
  5
E44
 10
-8.89534
 20
-15.8033
 30
0.000000
  70
    32
  0
VERTEX
  8
レイヤ__1
  5
E45
 10
-8.88167
 20
-15.8192
 30
0.000000
  70
    32
  0
VERTEX
  8
レイヤ__1
  5
E46
 10
-8.86773
 20
-15.8349
 30
0.000000
  70
    32
  0
VERTEX
  8
レイヤ__1
  5
E47
 10
-8.85351
 20
-15.8504
 30
0.000000
  70
    32
  0
VERTEX
  8
レイヤ__1
  5
E48
 10
-8.83901
 20
-15.8657
 30
0.000000
  70
    32
  0
VERTEX
  8
レイヤ__1
  5
E49
 10
-8.82422
 20
-15.8807
 30
0.000000
  70
    32
  0
VERTEX
  8
レイヤ__1
  5
E4A
 10
-8.80916
 20
-15.8954
 30
0.000000
  70
    32
  0
VERTEX
  8
レイヤ__1
  5
E4B
 10
-8.79382
 20
-15.9099
 30
0.000000
  70
    32
  0
VERTEX
  8
レイヤ__1
  5
E4C
 10
-8.77819
 20
-15.9242
 30
0.000000
  70
    32
  0
VERTEX
  8
レイヤ__1
  5
E4D
 10
-8.76229
 20
-15.9382
 30
0.000000
  70
    32
  0
VERTEX
  8
レイヤ__1
  5
E4E
 10
-8.74610
 20
-15.9520
 30
0.000000
  70
    32
  0
VERTEX
  8
レイヤ__1
  5
E4F
 10
-8.72963
 20
-15.9655
 30
0.000000
  70
    32
  0
VERTEX
  8
レイヤ__1
  5
E50
 10
-8.71288
 20
-15.9788
 30
0.000000
  70
    32
  0
VERTEX
  8
レイヤ__1
  5
E51
 10
-8.69584
 20
-15.9918
 30
0.000000
  70
    32
  0
VERTEX
  8
レイヤ__1
  5
E52
 10
-8.67852
 20
-16.0046
 30
0.000000
  70
    32
  0
VERTEX
  8
レイヤ__1
  5
E53
 10
-8.66092
 20
-16.0171
 30
0.000000
  70
    32
  0
VERTEX
  8
レイヤ__1
  5
E54
 10
-8.64303
 20
-16.0293
 30
0.000000
  70
    32
  0
VERTEX
  8
レイヤ__1
  5
E55
 10
-8.62485
 20
-16.0413
 30
0.000000
  70
    32
  0
VERTEX
  8
レイヤ__1
  5
E56
 10
-8.60640
 20
-16.0530
 30
0.000000
  70
    32
  0
VERTEX
  8
レイヤ__1
  5
E57
 10
-8.58765
 20
-16.0645
 30
0.000000
  70
    32
  0
VERTEX
  8
レイヤ__1
  5
E58
 10
-8.56862
 20
-16.0756
 30
0.000000
  70
    32
  0
VERTEX
  8
レイヤ__1
  5
E59
 10
-8.54930
 20
-16.0866
 30
0.000000
  70
    32
  0
VERTEX
  8
レイヤ__1
  5
E5A
 10
-8.52970
 20
-16.0972
 30
0.000000
  70
    32
  0
VERTEX
  8
レイヤ__1
  5
E5B
 10
-8.50980
 20
-16.1075
 30
0.000000
  70
    32
  0
VERTEX
  8
レイヤ__1
  5
E5C
 10
-8.48962
 20
-16.1176
 30
0.000000
  70
    32
  0
VERTEX
  8
レイヤ__1
  5
E5D
 10
-8.46915
 20
-16.1274
 30
0.000000
  70
    32
  0
VERTEX
  8
レイヤ__1
  5
E5E
 10
-8.44840
 20
-16.1370
 30
0.000000
  70
    32
  0
VERTEX
  8
レイヤ__1
  5
E5F
 10
-8.42735
 20
-16.1462
 30
0.000000
  70
    32
  0
VERTEX
  8
レイヤ__1
  5
E60
 10
-8.40601
 20
-16.1552
 30
0.000000
  70
    32
  0
VERTEX
  8
レイヤ__1
  5
E61
 10
-8.38439
 20
-16.1638
 30
0.000000
  70
    32
  0
VERTEX
  8
レイヤ__1
  5
E62
 10
-8.36247
 20
-16.1722
 30
0.000000
  70
    32
  0
VERTEX
  8
レイヤ__1
  5
E63
 10
-8.34026
 20
-16.1803
 30
0.000000
  70
    32
  0
VERTEX
  8
レイヤ__1
  5
E64
 10
-8.31776
 20
-16.1881
 30
0.000000
  70
    32
  0
VERTEX
  8
レイヤ__1
  5
E65
 10
-8.29497
 20
-16.1956
 30
0.000000
  70
    32
  0
VERTEX
  8
レイヤ__1
  5
E66
 10
-8.27189
 20
-16.2028
 30
0.000000
  70
    32
  0
VERTEX
  8
レイヤ__1
  5
E67
 10
-8.24851
 20
-16.2097
 30
0.000000
  70
    32
  0
VERTEX
  8
レイヤ__1
  5
E68
 10
-8.22484
 20
-16.2164
 30
0.000000
  70
    32
  0
VERTEX
  8
レイヤ__1
  5
E69
 10
-8.20088
 20
-16.2227
 30
0.000000
  70
    32
  0
VERTEX
  8
レイヤ__1
  5
E6A
 10
-8.17663
 20
-16.2287
 30
0.000000
  70
    32
  0
VERTEX
  8
レイヤ__1
  5
E6B
 10
-8.15207
 20
-16.2344
 30
0.000000
  70
    32
  0
VERTEX
  8
レイヤ__1
  5
E6C
 10
-8.12723
 20
-16.2398
 30
0.000000
  70
    32
  0
VERTEX
  8
レイヤ__1
  5
E6D
 10
-8.10209
 20
-16.2449
 30
0.000000
  70
    32
  0
VERTEX
  8
レイヤ__1
  5
E6E
 10
-8.07665
 20
-16.2496
 30
0.000000
  70
    32
  0
VERTEX
  8
レイヤ__1
  5
E6F
 10
-8.05092
 20
-16.2541
 30
0.000000
  70
    32
  0
VERTEX
  8
レイヤ__1
  5
E70
 10
-8.02489
 20
-16.2582
 30
0.000000
  70
    32
  0
VERTEX
  8
レイヤ__1
  5
E71
 10
-7.99857
 20
-16.2621
 30
0.000000
  70
    32
  0
VERTEX
  8
レイヤ__1
  5
E72
 10
-7.97194
 20
-16.2656
 30
0.000000
  70
    32
  0
VERTEX
  8
レイヤ__1
  5
E73
 10
-7.94502
 20
-16.2688
 30
0.000000
  70
    32
  0
VERTEX
  8
レイヤ__1
  5
E74
 10
-7.91780
 20
-16.2716
 30
0.000000
  70
    32
  0
VERTEX
  8
レイヤ__1
  5
E75
 10
-7.89029
 20
-16.2742
 30
0.000000
  70
    32
  0
VERTEX
  8
レイヤ__1
  5
E76
 10
-7.86247
 20
-16.2764
 30
0.000000
  70
    32
  0
VERTEX
  8
レイヤ__1
  5
E77
 10
-7.83436
 20
-16.2783
 30
0.000000
  70
    32
  0
VERTEX
  8
レイヤ__1
  5
E78
 10
-7.80594
 20
-16.2798
 30
0.000000
  70
    32
  0
VERTEX
  8
レイヤ__1
  5
E79
 10
-7.77722
 20
-16.2811
 30
0.000000
  70
    32
  0
VERTEX
  8
レイヤ__1
  5
E7A
 10
-7.74821
 20
-16.2820
 30
0.000000
  70
    32
  0
VERTEX
  8
レイヤ__1
  5
E7B
 10
-7.71889
 20
-16.2825
 30
0.000000
  70
    32
  0
VERTEX
  8
レイヤ__1
  5
E7C
 10
-7.68927
 20
-16.2827
 30
0.000000
  70
    32
  0
SEQEND
  8
レイヤ__1
  5
E7D
  0
POLYLINE
  8
レイヤ__1
  5
E7E
  62
5
  66
     1
 10
0.000000
 20
0.000000
 30
0.000000
  70
     8
  0
VERTEX
  8
レイヤ__1
  5
E7F
 10
-7.68927
 20
-16.2827
 30
0.000000
  70
    32
  0
VERTEX
  8
レイヤ__1
  5
E80
 10
-7.67130
 20
-16.2827
 30
0.000000
  70
    32
  0
VERTEX
  8
レイヤ__1
  5
E81
 10
-7.65350
 20
-16.2824
 30
0.000000
  70
    32
  0
VERTEX
  8
レイヤ__1
  5
E82
 10
-7.63586
 20
-16.2820
 30
0.000000
  70
    32
  0
VERTEX
  8
レイヤ__1
  5
E83
 10
-7.61837
 20
-16.2814
 30
0.000000
  70
    32
  0
VERTEX
  8
レイヤ__1
  5
E84
 10
-7.60105
 20
-16.2807
 30
0.000000
  70
    32
  0
VERTEX
  8
レイヤ__1
  5
E85
 10
-7.58389
 20
-16.2797
 30
0.000000
  70
    32
  0
VERTEX
  8
レイヤ__1
  5
E86
 10
-7.56690
 20
-16.2787
 30
0.000000
  70
    32
  0
VERTEX
  8
レイヤ__1
  5
E87
 10
-7.55006
 20
-16.2774
 30
0.000000
  70
    32
  0
VERTEX
  8
レイヤ__1
  5
E88
 10
-7.53338
 20
-16.2760
 30
0.000000
  70
    32
  0
VERTEX
  8
レイヤ__1
  5
E89
 10
-7.51686
 20
-16.2744
 30
0.000000
  70
    32
  0
VERTEX
  8
レイヤ__1
  5
E8A
 10
-7.50050
 20
-16.2727
 30
0.000000
  70
    32
  0
VERTEX
  8
レイヤ__1
  5
E8B
 10
-7.48430
 20
-16.2708
 30
0.000000
  70
    32
  0
VERTEX
  8
レイヤ__1
  5
E8C
 10
-7.46826
 20
-16.2688
 30
0.000000
  70
    32
  0
VERTEX
  8
レイヤ__1
  5
E8D
 10
-7.45237
 20
-16.2666
 30
0.000000
  70
    32
  0
VERTEX
  8
レイヤ__1
  5
E8E
 10
-7.43665
 20
-16.2643
 30
0.000000
  70
    32
  0
VERTEX
  8
レイヤ__1
  5
E8F
 10
-7.42108
 20
-16.2619
 30
0.000000
  70
    32
  0
VERTEX
  8
レイヤ__1
  5
E90
 10
-7.40567
 20
-16.2593
 30
0.000000
  70
    32
  0
VERTEX
  8
レイヤ__1
  5
E91
 10
-7.39041
 20
-16.2566
 30
0.000000
  70
    32
  0
VERTEX
  8
レイヤ__1
  5
E92
 10
-7.37532
 20
-16.2537
 30
0.000000
  70
    32
  0
VERTEX
  8
レイヤ__1
  5
E93
 10
-7.36037
 20
-16.2507
 30
0.000000
  70
    32
  0
VERTEX
  8
レイヤ__1
  5
E94
 10
-7.34559
 20
-16.2476
 30
0.000000
  70
    32
  0
VERTEX
  8
レイヤ__1
  5
E95
 10
-7.33096
 20
-16.2444
 30
0.000000
  70
    32
  0
VERTEX
  8
レイヤ__1
  5
E96
 10
-7.31649
 20
-16.2411
 30
0.000000
  70
    32
  0
VERTEX
  8
レイヤ__1
  5
E97
 10
-7.30217
 20
-16.2376
 30
0.000000
  70
    32
  0
VERTEX
  8
レイヤ__1
  5
E98
 10
-7.28801
 20
-16.2340
 30
0.000000
  70
    32
  0
VERTEX
  8
レイヤ__1
  5
E99
 10
-7.27400
 20
-16.2303
 30
0.000000
  70
    32
  0
VERTEX
  8
レイヤ__1
  5
E9A
 10
-7.26014
 20
-16.2265
 30
0.000000
  70
    32
  0
VERTEX
  8
レイヤ__1
  5
E9B
 10
-7.24644
 20
-16.2226
 30
0.000000
  70
    32
  0
VERTEX
  8
レイヤ__1
  5
E9C
 10
-7.23289
 20
-16.2186
 30
0.000000
  70
    32
  0
VERTEX
  8
レイヤ__1
  5
E9D
 10
-7.21950
 20
-16.2145
 30
0.000000
  70
    32
  0
VERTEX
  8
レイヤ__1
  5
E9E
 10
-7.20625
 20
-16.2102
 30
0.000000
  70
    32
  0
VERTEX
  8
レイヤ__1
  5
E9F
 10
-7.19317
 20
-16.2059
 30
0.000000
  70
    32
  0
VERTEX
  8
レイヤ__1
  5
EA0
 10
-7.18023
 20
-16.2015
 30
0.000000
  70
    32
  0
VERTEX
  8
レイヤ__1
  5
EA1
 10
-7.16744
 20
-16.1970
 30
0.000000
  70
    32
  0
VERTEX
  8
レイヤ__1
  5
EA2
 10
-7.15481
 20
-16.1925
 30
0.000000
  70
    32
  0
VERTEX
  8
レイヤ__1
  5
EA3
 10
-7.14233
 20
-16.1878
 30
0.000000
  70
    32
  0
VERTEX
  8
レイヤ__1
  5
EA4
 10
-7.13000
 20
-16.1831
 30
0.000000
  70
    32
  0
VERTEX
  8
レイヤ__1
  5
EA5
 10
-7.11781
 20
-16.1782
 30
0.000000
  70
    32
  0
VERTEX
  8
レイヤ__1
  5
EA6
 10
-7.10578
 20
-16.1733
 30
0.000000
  70
    32
  0
VERTEX
  8
レイヤ__1
  5
EA7
 10
-7.09390
 20
-16.1684
 30
0.000000
  70
    32
  0
VERTEX
  8
レイヤ__1
  5
EA8
 10
-7.08217
 20
-16.1633
 30
0.000000
  70
    32
  0
VERTEX
  8
レイヤ__1
  5
EA9
 10
-7.07059
 20
-16.1582
 30
0.000000
  70
    32
  0
VERTEX
  8
レイヤ__1
  5
EAA
 10
-7.05916
 20
-16.1530
 30
0.000000
  70
    32
  0
VERTEX
  8
レイヤ__1
  5
EAB
 10
-7.04787
 20
-16.1478
 30
0.000000
  70
    32
  0
VERTEX
  8
レイヤ__1
  5
EAC
 10
-7.03674
 20
-16.1425
 30
0.000000
  70
    32
  0
VERTEX
  8
レイヤ__1
  5
EAD
 10
-7.02575
 20
-16.1371
 30
0.000000
  70
    32
  0
VERTEX
  8
レイヤ__1
  5
EAE
 10
-7.01491
 20
-16.1317
 30
0.000000
  70
    32
  0
VERTEX
  8
レイヤ__1
  5
EAF
 10
-7.00422
 20
-16.1263
 30
0.000000
  70
    32
  0
VERTEX
  8
レイヤ__1
  5
EB0
 10
-6.99367
 20
-16.1208
 30
0.000000
  70
    32
  0
VERTEX
  8
レイヤ__1
  5
EB1
 10
-6.98328
 20
-16.1152
 30
0.000000
  70
    32
  0
VERTEX
  8
レイヤ__1
  5
EB2
 10
-6.97302
 20
-16.1096
 30
0.000000
  70
    32
  0
VERTEX
  8
レイヤ__1
  5
EB3
 10
-6.96292
 20
-16.1040
 30
0.000000
  70
    32
  0
VERTEX
  8
レイヤ__1
  5
EB4
 10
-6.95296
 20
-16.0983
 30
0.000000
  70
    32
  0
VERTEX
  8
レイヤ__1
  5
EB5
 10
-6.94314
 20
-16.0926
 30
0.000000
  70
    32
  0
VERTEX
  8
レイヤ__1
  5
EB6
 10
-6.93347
 20
-16.0869
 30
0.000000
  70
    32
  0
VERTEX
  8
レイヤ__1
  5
EB7
 10
-6.92395
 20
-16.0811
 30
0.000000
  70
    32
  0
VERTEX
  8
レイヤ__1
  5
EB8
 10
-6.91457
 20
-16.0753
 30
0.000000
  70
    32
  0
VERTEX
  8
レイヤ__1
  5
EB9
 10
-6.90533
 20
-16.0695
 30
0.000000
  70
    32
  0
VERTEX
  8
レイヤ__1
  5
EBA
 10
-6.89624
 20
-16.0637
 30
0.000000
  70
    32
  0
VERTEX
  8
レイヤ__1
  5
EBB
 10
-6.88729
 20
-16.0578
 30
0.000000
  70
    32
  0
VERTEX
  8
レイヤ__1
  5
EBC
 10
-6.87849
 20
-16.0519
 30
0.000000
  70
    32
  0
VERTEX
  8
レイヤ__1
  5
EBD
 10
-6.86982
 20
-16.0460
 30
0.000000
  70
    32
  0
VERTEX
  8
レイヤ__1
  5
EBE
 10
-6.86130
 20
-16.0402
 30
0.000000
  70
    32
  0
VERTEX
  8
レイヤ__1
  5
EBF
 10
-6.85293
 20
-16.0343
 30
0.000000
  70
    32
  0
VERTEX
  8
レイヤ__1
  5
EC0
 10
-6.84469
 20
-16.0284
 30
0.000000
  70
    32
  0
VERTEX
  8
レイヤ__1
  5
EC1
 10
-6.83660
 20
-16.0225
 30
0.000000
  70
    32
  0
VERTEX
  8
レイヤ__1
  5
EC2
 10
-6.82864
 20
-16.0165
 30
0.000000
  70
    32
  0
VERTEX
  8
レイヤ__1
  5
EC3
 10
-6.82083
 20
-16.0107
 30
0.000000
  70
    32
  0
VERTEX
  8
レイヤ__1
  5
EC4
 10
-6.81316
 20
-16.0048
 30
0.000000
  70
    32
  0
VERTEX
  8
レイヤ__1
  5
EC5
 10
-6.80563
 20
-15.9989
 30
0.000000
  70
    32
  0
VERTEX
  8
レイヤ__1
  5
EC6
 10
-6.79824
 20
-15.9930
 30
0.000000
  70
    32
  0
VERTEX
  8
レイヤ__1
  5
EC7
 10
-6.79099
 20
-15.9872
 30
0.000000
  70
    32
  0
VERTEX
  8
レイヤ__1
  5
EC8
 10
-6.78388
 20
-15.9813
 30
0.000000
  70
    32
  0
VERTEX
  8
レイヤ__1
  5
EC9
 10
-6.77690
 20
-15.9755
 30
0.000000
  70
    32
  0
VERTEX
  8
レイヤ__1
  5
ECA
 10
-6.77007
 20
-15.9697
 30
0.000000
  70
    32
  0
VERTEX
  8
レイヤ__1
  5
ECB
 10
-6.76338
 20
-15.9640
 30
0.000000
  70
    32
  0
VERTEX
  8
レイヤ__1
  5
ECC
 10
-6.75682
 20
-15.9582
 30
0.000000
  70
    32
  0
VERTEX
  8
レイヤ__1
  5
ECD
 10
-6.75040
 20
-15.9525
 30
0.000000
  70
    32
  0
VERTEX
  8
レイヤ__1
  5
ECE
 10
-6.74412
 20
-15.9469
 30
0.000000
  70
    32
  0
VERTEX
  8
レイヤ__1
  5
ECF
 10
-6.73797
 20
-15.9412
 30
0.000000
  70
    32
  0
VERTEX
  8
レイヤ__1
  5
ED0
 10
-6.73196
 20
-15.9356
 30
0.000000
  70
    32
  0
VERTEX
  8
レイヤ__1
  5
ED1
 10
-6.72609
 20
-15.9301
 30
0.000000
  70
    32
  0
VERTEX
  8
レイヤ__1
  5
ED2
 10
-6.72036
 20
-15.9246
 30
0.000000
  70
    32
  0
VERTEX
  8
レイヤ__1
  5
ED3
 10
-6.71476
 20
-15.9192
 30
0.000000
  70
    32
  0
VERTEX
  8
レイヤ__1
  5
ED4
 10
-6.70929
 20
-15.9138
 30
0.000000
  70
    32
  0
VERTEX
  8
レイヤ__1
  5
ED5
 10
-6.70396
 20
-15.9084
 30
0.000000
  70
    32
  0
VERTEX
  8
レイヤ__1
  5
ED6
 10
-6.69877
 20
-15.9031
 30
0.000000
  70
    32
  0
VERTEX
  8
レイヤ__1
  5
ED7
 10
-6.69371
 20
-15.8979
 30
0.000000
  70
    32
  0
VERTEX
  8
レイヤ__1
  5
ED8
 10
-6.68879
 20
-15.8927
 30
0.000000
  70
    32
  0
VERTEX
  8
レイヤ__1
  5
ED9
 10
-6.68400
 20
-15.8876
 30
0.000000
  70
    32
  0
VERTEX
  8
レイヤ__1
  5
EDA
 10
-6.67934
 20
-15.8826
 30
0.000000
  70
    32
  0
VERTEX
  8
レイヤ__1
  5
EDB
 10
-6.67481
 20
-15.8776
 30
0.000000
  70
    32
  0
VERTEX
  8
レイヤ__1
  5
EDC
 10
-6.67042
 20
-15.8728
 30
0.000000
  70
    32
  0
VERTEX
  8
レイヤ__1
  5
EDD
 10
-6.66616
 20
-15.8679
 30
0.000000
  70
    32
  0
VERTEX
  8
レイヤ__1
  5
EDE
 10
-6.66204
 20
-15.8632
 30
0.000000
  70
    32
  0
VERTEX
  8
レイヤ__1
  5
EDF
 10
-6.65804
 20
-15.8586
 30
0.000000
  70
    32
  0
VERTEX
  8
レイヤ__1
  5
EE0
 10
-6.65418
 20
-15.8540
 30
0.000000
  70
    32
  0
VERTEX
  8
レイヤ__1
  5
EE1
 10
-6.65045
 20
-15.8495
 30
0.000000
  70
    32
  0
VERTEX
  8
レイヤ__1
  5
EE2
 10
-6.64685
 20
-15.8451
 30
0.000000
  70
    32
  0
VERTEX
  8
レイヤ__1
  5
EE3
 10
-6.64338
 20
-15.8409
 30
0.000000
  70
    32
  0
VERTEX
  8
レイヤ__1
  5
EE4
 10
-6.64004
 20
-15.8367
 30
0.000000
  70
    32
  0
VERTEX
  8
レイヤ__1
  5
EE5
 10
-6.63683
 20
-15.8326
 30
0.000000
  70
    32
  0
VERTEX
  8
レイヤ__1
  5
EE6
 10
-6.63375
 20
-15.8286
 30
0.000000
  70
    32
  0
VERTEX
  8
レイヤ__1
  5
EE7
 10
-6.63080
 20
-15.8247
 30
0.000000
  70
    32
  0
VERTEX
  8
レイヤ__1
  5
EE8
 10
-6.62798
 20
-15.8209
 30
0.000000
  70
    32
  0
VERTEX
  8
レイヤ__1
  5
EE9
 10
-6.62529
 20
-15.8172
 30
0.000000
  70
    32
  0
VERTEX
  8
レイヤ__1
  5
EEA
 10
-6.62273
 20
-15.8136
 30
0.000000
  70
    32
  0
VERTEX
  8
レイヤ__1
  5
EEB
 10
-6.62029
 20
-15.8102
 30
0.000000
  70
    32
  0
VERTEX
  8
レイヤ__1
  5
EEC
 10
-6.61799
 20
-15.8069
 30
0.000000
  70
    32
  0
VERTEX
  8
レイヤ__1
  5
EED
 10
-6.61581
 20
-15.8037
 30
0.000000
  70
    32
  0
VERTEX
  8
レイヤ__1
  5
EEE
 10
-6.61375
 20
-15.8006
 30
0.000000
  70
    32
  0
VERTEX
  8
レイヤ__1
  5
EEF
 10
-6.61183
 20
-15.7976
 30
0.000000
  70
    32
  0
VERTEX
  8
レイヤ__1
  5
EF0
 10
-6.61003
 20
-15.7948
 30
0.000000
  70
    32
  0
VERTEX
  8
レイヤ__1
  5
EF1
 10
-6.60836
 20
-15.7921
 30
0.000000
  70
    32
  0
VERTEX
  8
レイヤ__1
  5
EF2
 10
-6.60681
 20
-15.7895
 30
0.000000
  70
    32
  0
VERTEX
  8
レイヤ__1
  5
EF3
 10
-6.60539
 20
-15.7871
 30
0.000000
  70
    32
  0
VERTEX
  8
レイヤ__1
  5
EF4
 10
-6.60409
 20
-15.7848
 30
0.000000
  70
    32
  0
VERTEX
  8
レイヤ__1
  5
EF5
 10
-6.60292
 20
-15.7827
 30
0.000000
  70
    32
  0
VERTEX
  8
レイヤ__1
  5
EF6
 10
-6.60188
 20
-15.7807
 30
0.000000
  70
    32
  0
VERTEX
  8
レイヤ__1
  5
EF7
 10
-6.60095
 20
-15.7788
 30
0.000000
  70
    32
  0
VERTEX
  8
レイヤ__1
  5
EF8
 10
-6.60015
 20
-15.7771
 30
0.000000
  70
    32
  0
VERTEX
  8
レイヤ__1
  5
EF9
 10
-6.59948
 20
-15.7756
 30
0.000000
  70
    32
  0
VERTEX
  8
レイヤ__1
  5
EFA
 10
-6.59893
 20
-15.7742
 30
0.000000
  70
    32
  0
VERTEX
  8
レイヤ__1
  5
EFB
 10
-6.59850
 20
-15.7730
 30
0.000000
  70
    32
  0
VERTEX
  8
レイヤ__1
  5
EFC
 10
-6.59820
 20
-15.7719
 30
0.000000
  70
    32
  0
VERTEX
  8
レイヤ__1
  5
EFD
 10
-6.59801
 20
-15.7710
 30
0.000000
  70
    32
  0
VERTEX
  8
レイヤ__1
  5
EFE
 10
-6.59795
 20
-15.7703
 30
0.000000
  70
    32
  0
SEQEND
  8
レイヤ__1
  5
EFF
  0
LINE
  5
1DF
  8
レイヤ__1
 62
     5
 10
-14.3476358273
 20
-13.553397523199999
 30
0.0
 11
-13.144499591600001
 21
-13.553397523199999
 31
0.0
  0
LINE
  5
1E0
  8
レイヤ__1
 62
     5
 10
-11.6994509424
 20
-14.092213168300001
 30
0.0
 11
-11.556719079500001
 21
-13.306811462800001
 31
0.0
  0
LINE
  5
1E1
  8
レイヤ__1
 62
     5
 10
-11.556719079500001
 20
-13.306811462800001
 30
0.0
 11
-10.932278889299999
 21
-13.306811462800001
 31
0.0
  0
LINE
  5
1E2
  8
レイヤ__1
 62
     5
 10
-13.264498168999999
 20
-16.192634126200002
 30
0.0
 11
-12.086419898400001
 21
-16.192634126200002
 31
0.0
  0
LINE
  5
1E3
  8
レイヤ__1
 62
     5
 10
-12.5612790948
 20
-12.375301904300001
 30
0.0
 11
-13.264498168999999
 21
-16.192634126200002
 31
0.0
  0
LINE
  5
1E4
  8
レイヤ__1
 62
     5
 10
-10.757660748199999
 20
-12.375301904300001
 30
0.0
 11
-12.5612790948
 21
-12.375301904300001
 31
0.0
  0
LINE
  5
1E5
  8
レイヤ__1
 62
     5
 10
-7.2086347282999998
 20
-14.8342127572
 30
0.0
 11
-6.6846935634999998
 21
-14.8319088955
 31
0.0
  0
LINE
  5
1E6
  8
レイヤ__1
 62
     5
 10
-6.5608158937000001
 20
-13.607663180299999
 30
0.0
 11
-5.4769496043999997
 21
-13.605900587400001
 31
0.0
  0
LINE
  5
1E7
  8
レイヤ__1
 62
     5
 10
-6.5979517842999993
 20
-15.770312690600001
 30
0.0
 11
-6.5979517842999993
 21
-16.146994071600002
 31
0.0
  0
ENDBLK
  5
1E8
  8
0
  0
BLOCK
  8
0
  2
*D9
 70
     1
 10
0.0
 20
0.0
 30
0.0
  3
*D9
  1

  0
TEXT
  5
1ED
  8
0
 62
     0
 10
7.8707850408000004
 20
-16.533091731799999
 30
0.0
 40
1.7991665721000001
  1
11
 50
90.0
  0
LINE
  5
1EE
  8
0
 62
     0
 10
14.7599899821
 20
-9.9747584540999998
 30
0.0
 11
8.1882850241999972
 21
-9.9747584540999998
 31
0.0
  0
LINE
  5
1EF
  8
0
 62
     0
 10
18.050664890899998
 20
-20.974758454100002
 30
0.0
 11
8.1882850241999972
 21
-20.974758454100002
 31
0.0
  0
LINE
  5
1F0
  8
0
 62
     0
 10
8.6882850241999972
 20
-9.9747584540999998
 30
0.0
 11
8.6882850241999972
 21
-13.3580918987
 31
0.0
  0
LINE
  5
1F1
  8
0
 62
     0
 10
8.6882850241999972
 20
-9.9747584540999998
 30
0.0
 11
8.6882850241999972
 21
-17.5914250095
 31
0.0
  0
LINE
  5
1F2
  8
0
 62
     0
 10
8.6882850241999972
 20
-20.974758454100002
 30
0.0
 11
8.6882850241999972
 21
-13.3580918987
 31
0.0
  0
LINE
  5
1F3
  8
0
 62
     0
 10
8.6882850241999972
 20
-20.974758454100002
 30
0.0
 11
8.6882850241999972
 21
-17.5914250095
 31
0.0
  0
LINE
  5
1F4
  8
0
 62
     0
 10
8.6882850241999972
 20
-20.974758454100002
 30
0.0
 11
8.6882850241999972
 21
-18.474758454100002
 31
0.0
  0
SOLID
  5
1F5
  8
0
 62
     0
 10
8.6882850241999972
 20
-20.974758454100002
 30
0.0
 11
8.4294659804999998
 21
-20.008832641400002
 31
0.0
 12
8.9471040677999998
 22
-20.008832641400002
 32
0.0
 13
8.6882850241999972
 23
-20.2503140946
 33
0.0
  0
LINE
  5
1F6
  8
0
 62
     0
 10
8.6882850241999972
 20
-9.9747584540999998
 30
0.0
 11
8.6882850241999972
 21
-12.4747584541
 31
0.0
  0
SOLID
  5
1F7
  8
0
 62
     0
 10
8.6882850241999972
 20
-9.9747584540999998
 30
0.0
 11
8.9471040677999998
 21
-10.9406842668
 31
0.0
 12
8.4294659804999998
 22
-10.9406842668
 32
0.0
 13
8.6882850241999972
 23
-10.699202813599999
 33
0.0
  0
ENDBLK
  5
1F8
  8
0
  0
BLOCK
  8
0
  2
*D10
 70
     1
 10
0.0
 20
0.0
 30
0.0
  3
*D10
  1

  0
TEXT
  5
1FC
  8
0
 62
     0
 10
47.381896151999989
 20
-19.503925092999999
 30
0.0
 40
1.7991665721000001
  1
4
 50
90.0
  0
LINE
  5
1FD
  8
0
 62
     0
 10
50.2291062802
 20
-16.974758454100002
 30
0.0
 11
47.699396135299999
 21
-16.974758454100002
 31
0.0
  0
LINE
  5
1FE
  8
0
 62
     0
 10
54.328798183499998
 20
-20.974758454100002
 30
0.0
 11
47.699396135299999
 21
-20.974758454100002
 31
0.0
  0
LINE
  5
1FF
  8
0
 62
     0
 10
48.199396135299992
 20
-16.974758454100002
 30
0.0
 11
48.199396135299992
 21
-17.387258537600001
 31
0.0
  0
LINE
  5
200
  8
0
 62
     0
 10
48.199396135299992
 20
-16.974758454100002
 30
0.0
 11
48.199396135299992
 21
-20.5622583707
 31
0.0
  0
LINE
  5
201
  8
0
 62
     0
 10
48.199396135299992
 20
-20.974758454100002
 30
0.0
 11
48.199396135299992
 21
-17.387258537600001
 31
0.0
  0
LINE
  5
202
  8
0
 62
     0
 10
48.199396135299992
 20
-20.974758454100002
 30
0.0
 11
48.199396135299992
 21
-20.5622583707
 31
0.0
  0
LINE
  5
203
  8
0
 62
     0
 10
48.199396135299992
 20
-20.974758454100002
 30
0.0
 11
48.199396135299992
 21
-23.474758454100002
 31
0.0
  0
SOLID
  5
204
  8
0
 62
     0
 10
48.199396135299992
 20
-20.974758454100002
 30
0.0
 11
48.458215178900012
 21
-21.940684266800002
 31
0.0
 12
47.940577091599991
 22
-21.940684266800002
 32
0.0
 13
48.199396135299992
 23
-21.699202813599999
 33
0.0
  0
LINE
  5
205
  8
0
 62
     0
 10
48.199396135299992
 20
-16.974758454100002
 30
0.0
 11
48.199396135299992
 21
-14.4747584541
 31
0.0
  0
SOLID
  5
206
  8
0
 62
     0
 10
48.199396135299992
 20
-16.974758454100002
 30
0.0
 11
47.940577091599991
 21
-16.008832641400002
 31
0.0
 12
48.458215178900012
 22
-16.008832641400002
 32
0.0
 13
48.199396135299992
 23
-16.2503140946
 33
0.0
  0
ENDBLK
  5
207
  8
0
  0
BLOCK
  8
0
  2
*U11
 70
     1
 10
0.0
 20
0.0
 30
0.0
  3
*U11
  1

  0
TEXT
  5
249
  8
図枠
  6
CONTINUOUS
 10
59.188531375846438
 20
26.127060461209648
 30
0.0
 40
1.3493749797000001
  1
改訂日
  0
ENDBLK
  5
24B
  8
0
  0
BLOCK
  8
0
  2
*U12
 70
     1
 10
0.0
 20
0.0
 30
0.0
  3
*U12
  1

  0
TEXT
  5
24D
  8
改訂
  6
CONTINUOUS
 10
55.26566529813401
 20
23.379661281000001
 30
0.0
 40
1.3493749837999991
  1
1
  0
ENDBLK
  5
24F
  8
0
  0
BLOCK
  8
0
  2
*U13
 70
     1
 10
0.0
 20
0.0
 30
0.0
  3
*U13
  1

  0
TEXT
  5
251
  8
図枠
  6
CONTINUOUS
 10
54.072132250878433
 20
26.14075969958224
 30
0.0
 40
1.3493749797000001
  1
副番
  0
ENDBLK
  5
253
  8
0
  0
BLOCK
  8
0
  2
*U14
 70
     1
 10
0.0
 20
0.0
 30
0.0
  3
*U14
  1

  0
TEXT
  5
255
  8
図枠
  6
CONTINUOUS
 10
90.760452377302556
 20
26.11336122283706
 30
0.0
 40
1.3493749797000001
  1
改訂者
  0
ENDBLK
  5
257
  8
0
  0
BLOCK
  8
0
  2
*U15
 70
     1
 10
0.0
 20
0.0
 30
0.0
  3
*U15
  1

  0
TEXT
  5
259
  8
図枠
  6
CONTINUOUS
 10
95.739903519743663
 20
26.10651160365077
 30
0.0
 40
1.3493749797000001
  1
検認者
  0
ENDBLK
  5
25B
  8
0
  0
BLOCK
  8
0
  2
*U16
 70
     1
 10
0.0
 20
0.0
 30
0.0
  3
*U16
  1

  0
TEXT
  5
25D
  8
図枠
  6
CONTINUOUS
 10
72.22604887717462
 20
26.11336122283706
 30
0.0
 40
1.3493749797000001
  1
改　訂　内　容
  0
ENDBLK
  5
25F
  8
0
  0
BLOCK
  8
0
  2
*U17
 70
     1
 10
0.0
 20
0.0
 30
0.0
  3
*U17
  1

  0
TEXT
  5
261
  8
図枠
  6
CONTINUOUS
 10
55.170921882838073
 20
-55.842111720467507
 30
0.0
 40
1.1687499999999991
  1
尺 　度
  0
ENDBLK
  5
263
  8
0
  0
BLOCK
  8
0
  2
*U18
 70
     1
 10
0.0
 20
0.0
 30
0.0
  3
*U18
  1

  0
TEXT
  5
265
  8
図枠
  6
CONTINUOUS
 10
75.427606539564465
 20
-48.027841188433513
 30
0.0
 40
1.4024999796999991
  1
色
  0
ENDBLK
  5
267
  8
0
  0
BLOCK
  8
0
  2
*U19
 70
     1
 10
0.0
 20
0.0
 30
0.0
  3
*U19
  1

  0
TEXT
  5
269
  8
図枠
  6
CONTINUOUS
 10
44.870840242699998
 20
-65.904154331383253
 30
0.0
 40
2.1589999675999989
  1
株式会社
  0
ENDBLK
  5
26B
  8
0
  0
BLOCK
  8
0
  2
*U20
 70
     1
 10
0.0
 20
0.0
 30
0.0
  3
*U20
  1

  0
TEXT
  5
26D
  8
図枠
  6
CONTINUOUS
 10
44.183120538679439
 20
-48.013602609959392
 30
0.0
 40
1.4024999796999991
  1
材　　質
  0
ENDBLK
  5
26F
  8
0
  0
BLOCK
  8
0
  2
*U21
 70
     1
 10
0.0
 20
0.0
 30
0.0
  3
*U21
  1

  0
TEXT
  5
271
  8
図枠
  6
CONTINUOUS
 10
44.168881960205319
 20
-50.777841188433499
 30
0.0
 40
1.4024999796999991
  1
表面処理
  0
ENDBLK
  5
273
  8
0
  0
BLOCK
  8
0
  2
*U22
 70
     1
 10
0.0
 20
0.0
 30
0.0
  3
*U22
  1

  0
TEXT
  5
275
  8
図枠
  6
CONTINUOUS
 10
44.204478406390599
 20
-53.556318345381719
 30
0.0
 40
1.4024999796999991
  1
一般公差
  0
ENDBLK
  5
277
  8
0
  0
BLOCK
  8
0
  2
*U23
 70
     1
 10
0.0
 20
0.0
 30
0.0
  3
*U23
  1

  0
TEXT
  5
279
  8
図枠
  6
CONTINUOUS
 10
84.534205590542925
 20
-48.125049310260913
 30
0.0
 40
1.6149999797000001
  1
黒・白・薄茶
  0
ENDBLK
  5
27B
  8
0
  0
BLOCK
  8
0
  2
*U24
 70
     1
 10
0.0
 20
0.0
 30
0.0
  3
*U24
  1

  0
TEXT
  5
27D
  8
図枠
  6
CONTINUOUS
 10
71.286350232616755
 20
-50.834795502329953
 30
0.0
 40
1.4024999796999991
  1
シボ加工
  0
ENDBLK
  5
27F
  8
0
  0
BLOCK
  8
0
  2
*U25
 70
     1
 10
0.0
 20
0.0
 30
0.0
  3
*U25
  1

  0
TEXT
  5
281
  8
図枠
  6
CONTINUOUS
 10
61.361540760548223
 20
-53.542079766907612
 30
0.0
 40
1.4024999796999991
  1
指定無き公差はJIS 0408-Bによること
  0
ENDBLK
  5
283
  8
0
  0
BLOCK
  8
0
  2
*U26
 70
     1
 10
0.0
 20
0.0
 30
0.0
  3
*U26
  1

  0
TEXT
  5
285
  8
図枠
  6
CONTINUOUS
 10
50.836705512279693
 20
-60.062448014883749
 30
0.0
 40
1.1687499999999991
  1
園原
  0
ENDBLK
  5
287
  8
0
  0
BLOCK
  8
0
  2
*U27
 70
     1
 10
0.0
 20
0.0
 30
0.0
  3
*U27
  1

  0
TEXT
  5
289
  8
図枠
  6
CONTINUOUS
 10
65.178171248320297
 20
-62.157784309300013
 30
0.0
 40
1.1687499999999991
  1
＊＊＊
  0
ENDBLK
  5
28B
  8
0
  0
BLOCK
  8
0
  2
*U28
 70
     1
 10
0.0
 20
0.0
 30
0.0
  3
*U28
  1

  0
TEXT
  5
28D
  8
図枠
  6
CONTINUOUS
 10
65.178171248320297
 20
-60.032784309299998
 30
0.0
 40
1.1687499999999991
  1
＊＊＊
  0
ENDBLK
  5
28F
  8
0
  0
BLOCK
  8
0
  2
*U29
 70
     1
 10
0.0
 20
0.0
 30
0.0
  3
*U29
  1

  0
TEXT
  5
291
  8
図枠
  6
CONTINUOUS
 10
57.760563380299999
 20
-62.223044461584259
 30
0.0
 40
1.1687499999999991
  1
 検図
  0
ENDBLK
  5
293
  8
0
  0
BLOCK
  8
0
  2
*U30
 70
     1
 10
0.0
 20
0.0
 30
0.0
  3
*U30
  1

  0
TEXT
  5
295
  8
図枠
  6
CONTINUOUS
 10
57.760563380299999
 20
-60.086178979350763
 30
0.0
 40
1.1687499999999991
  1
 照査
  0
ENDBLK
  5
297
  8
0
  0
BLOCK
  8
0
  2
*U31
 70
     1
 10
0.0
 20
0.0
 30
0.0
  3
*U31
  1

  0
TEXT
  5
299
  8
図枠
  6
CONTINUOUS
 10
43.461293075731461
 20
-62.217111720467507
 30
0.0
 40
1.1687499999999991
  1
製図
  0
ENDBLK
  5
29B
  8
0
  0
BLOCK
  8
0
  2
*U32
 70
     1
 10
0.0
 20
0.0
 30
0.0
  3
*U32
  1

  0
TEXT
  5
29D
  8
図枠
  6
CONTINUOUS
 10
42.760563380299999
 20
-60.080246238234011
 30
0.0
 40
1.1687499999999991
  1
 設計
  0
ENDBLK
  5
29F
  8
0
  0
BLOCK
  8
0
  2
*U33
 70
     1
 10
0.0
 20
0.0
 30
0.0
  3
*U33
  1

  0
TEXT
  5
2A1
  8
図枠
  6
CONTINUOUS
 10
45.295509446289849
 20
-55.806515273767012
 30
0.0
 40
1.1687499999999991
  1
日 　付
  0
ENDBLK
  5
2A3
  8
0
  0
BLOCK
  8
0
  2
*U34
 70
     1
 10
0.0
 20
0.0
 30
0.0
  3
*U34
  1

  0
TEXT
  5
2A5
  8
図枠
  6
CONTINUOUS
 10
72.905281019893906
 20
-59.977479534534012
 30
0.0
 40
1.1687499999999991
  1
図面名
  0
ENDBLK
  5
2A7
  8
0
  0
BLOCK
  8
0
  2
*U35
 70
     1
 10
0.0
 20
0.0
 30
0.0
  3
*U35
  1

  0
TEXT
  5
2A9
  8
図枠
  6
CONTINUOUS
 10
72.899348278777154
 20
-64.215614052300495
 30
0.0
 40
1.1687499999999991
  1
図　番
  0
ENDBLK
  5
2AB
  8
0
  0
BLOCK
  8
0
  2
*U36
 70
     1
 10
0.0
 20
0.0
 30
0.0
  3
*U36
  1

  0
TEXT
  5
2AD
  8
図枠
  6
CONTINUOUS
 10
72.872650943751779
 20
-55.739345016767523
 30
0.0
 40
1.1687499999999991
  1
製品名
  0
ENDBLK
  5
2AF
  8
0
  0
BLOCK
  8
0
  2
*U37
 70
     1
 10
0.0
 20
0.0
 30
0.0
  3
*U37
  1

  0
TEXT
  5
2B1
  8
図枠
  6
CONTINUOUS
 10
52.76817759349796
 20
-47.877701615752279
 30
0.0
 40
1.0625
  1
エラストマー樹脂（硬度90°）
  0
ENDBLK
  5
2B3
  8
0
  0
BLOCK
  8
0
  2
*U38
 70
     1
 10
0.0
 20
0.0
 30
0.0
  3
*U38
  1

  0
TEXT
  5
2B5
  8
図枠
  6
CONTINUOUS
 10
84.601737429715243
 20
-65.503073116099998
 30
0.0
 40
1.4993055104999999
  1
SLZ00022
  0
ENDBLK
  5
2B7
  8
0
  0
BLOCK
  8
0
  2
*U39
 70
     1
 10
0.0
 20
0.0
 30
0.0
  3
*U39
  1

  0
TEXT
  5
2B9
  8
図枠
  6
CONTINUOUS
 10
79.076378035689856
 20
-61.412897561381733
 30
0.0
 40
1.4993055104999999
  1
エンドキャップ承認図
  0
ENDBLK
  5
2BB
  8
0
  0
BLOCK
  8
0
  2
*U40
 70
     1
 10
0.0
 20
0.0
 30
0.0
  3
*U40
  1

  0
TEXT
  5
2BD
  8
図枠
  6
CONTINUOUS
 10
81.82764170089672
 20
-57.079179994805578
 30
0.0
 40
1.4993055104999999
  1
フラッシュ棚柱
  0
ENDBLK
  5
2BF
  8
0
  0
BLOCK
  8
0
  2
*U41
 70
     1
 10
0.0
 20
0.0
 30
0.0
  3
*U41
  1

  0
TEXT
  5
2C1
  8
図枠
  6
CONTINUOUS
 10
44.352203608726398
 20
-57.907784309299998
 30
0.0
 40
1.1687499999999991
  1
H20.10.23
  0
ENDBLK
  5
2C3
  8
0
  0
BLOCK
  8
0
  2
*U42
 70
     1
 10
0.0
 20
0.0
 30
0.0
  3
*U42
  1

  0
TEXT
  5
2C5
  8
図枠
  6
CONTINUOUS
 10
50.836705512279693
 20
-62.187448014883763
 30
0.0
 40
1.1687499999999991
  1
園原
  0
ENDBLK
  5
2C7
  8
0
  0
BLOCK
  8
0
  2
*U43
 70
     1
 10
0.0
 20
0.0
 30
0.0
  3
*U43
  1

  0
TEXT
  5
2C9
  8
図枠
  6
CONTINUOUS
 10
56.354503735629962
 20
-57.907784309299998
 30
0.0
 40
1.1687499999999991
  1
2：1
  0
ENDBLK
  5
2CB
  8
0
  0
BLOCK
  8
0
  2
*U44
 70
     1
 10
0.0
 20
0.0
 30
0.0
  3
*U44
  1

  0
TEXT
  5
2CD
  8
ﾚｲﾔ_1
  6
CONTINUOUS
 62
     5
 10
-18.13395512906294
 20
0.4735813118370558
 30
0.0
 40
1.3493749797000001
  1
SPG刻印凹深さ0.2
  0
ENDBLK
  5
2CF
  8
0
  0
ENDSEC
  0
SECTION
  2
ENTITIES
  0
INSERT
  5
2F
  8
0
  6
CONTINUOUS
  2
*U11
 10
0.0
 20
0.0
 30
0.0
  0
LINE
  5
30
  8
図枠
 62
     5
 10
53.760563380299999
 20
20.488732394399999
 30
0.0
 11
100.7605633803
 21
20.488732394399999
 31
0.0
  0
LINE
  5
32
  8
ﾚｲﾔ_1
 10
30.089168134000001
 20
6.0268982190999987
 30
0.0
 11
30.089167910600001
 21
8.5268980403999972
 31
0.0
  0
ARC
  5
33
  8
ﾚｲﾔ_1
 10
28.950973211099999
 20
6.0268981174
 30
0.0
 40
0.6909830056000001
 50
269.99998745189998
 51
0.0000051206
  0
ARC
  5
34
  8
ﾚｲﾔ_1
 10
28.950973211099999
 20
6.0268981174
 30
0.0
 40
1.1381966010999991
 50
270.00000851039999
 51
0.0000051206
  0
LINE
  5
35
  8
ﾚｲﾔ_1
 10
14.5037609916
 20
6.0268982914000002
 30
0.0
 11
14.503761215000001
 21
8.5268981126999996
 31
0.0
  0
ARC
  5
36
  8
ﾚｲﾔ_1
 10
16.450972764300001
 20
6.0268981174
 30
0.0
 40
0.6909830056000001
 50
180.33454721039999
 51
269.99999090210002
  0
LINE
  5
37
  8
ﾚｲﾔ_1
 10
28.950973059799999
 20
5.3359151118000003
 30
0.0
 11
16.450972654499999
 21
5.3359151118000003
 31
0.0
  0
DIMENSION
  5
48
  8
寸法線
  2
*D0
 10
35.950972987699998
 20
4.0268981174
 30
0.0
 11
35.950972987699998
 21
6.2768981174
 31
0.0
 70
   128
  1
<>
 13
28.950973211099999
 23
4.0268981174
 33
0.0
 14
30.950972987699998
 24
8.5268981174
 34
0.0
 50
90.0
  0
LINE
  5
49
  8
ﾚｲﾔ_1
 10
28.950973380200001
 20
4.8887015163000003
 30
0.0
 11
16.450972638100001
 21
4.8887015163000003
 31
0.0
  0
ARC
  5
4A
  8
ﾚｲﾔ_1
 10
16.450972764300001
 20
6.0268981174
 30
0.0
 40
1.1381966010999991
 50
179.43543934249999
 51
269.99999364820002
  0
LINE
  5
4B
  8
ﾚｲﾔ_1
 10
28.950973420899999
 20
4.0796845218999991
 30
0.0
 11
16.4509724107
 21
4.0796845218999991
 31
0.0
  0
ARC
  5
4C
  8
ﾚｲﾔ_1
 10
16.450972764300001
 20
6.0268981174
 30
0.0
 40
1.9472135955000001
 50
180.00000412610001
 51
269.99998959819999
  0
LINE
  5
4D
  8
ﾚｲﾔ_1
 10
15.3127749308
 20
6.0381136471000003
 30
0.0
 11
15.312774708299999
 21
8.5268967197999999
 31
0.0
  0
LINE
  5
4E
  8
ﾚｲﾔ_1
 10
15.759988552299999
 20
6.022863449099999
 30
0.0
 11
15.7599883285
 21
8.5268967597999996
 31
0.0
  0
LINE
  5
4F
  8
図枠
 62
     5
 10
95.760563380300013
 20
20.488732394399999
 30
0.0
 11
95.760563380300013
 21
27.988732394399999
 31
0.0
  0
LINE
  5
50
  8
図枠
 62
     5
 10
90.760563380300013
 20
20.488732394399999
 30
0.0
 11
90.760563380300013
 21
27.988732394399999
 31
0.0
  0
LINE
  5
51
  8
図枠
 62
     5
 10
65.760563380299985
 20
20.488732394399999
 30
0.0
 11
65.760563380299985
 21
27.988732394399999
 31
0.0
  0
LINE
  5
52
  8
図枠
 62
     5
 10
57.760563380299999
 20
20.488732394399999
 30
0.0
 11
57.760563380299999
 21
27.988732394399999
 31
0.0
  0
LINE
  5
53
  8
図枠
 62
     5
 10
53.760563380299999
 20
20.488732394399999
 30
0.0
 11
53.760563380299999
 21
27.988732394399999
 31
0.0
  0
INSERT
  5
55
  8
ﾚｲﾔ_1
  2
CLUMP0
 10
0.0
 20
0.0
 30
0.0
  0
LINE
  5
5D
  8
図枠
 62
     5
 10
53.760563380299999
 20
22.988732394399999
 30
0.0
 11
100.7605633803
 21
22.988732394399999
 31
0.0
  0
LINE
  5
5E
  8
図枠
 62
     5
 10
53.760563380299999
 20
25.488732394399999
 30
0.0
 11
100.7605633803
 21
25.488732394399999
 31
0.0
  0
INSERT
  5
5F
  8
0
  6
CONTINUOUS
  2
*U13
 10
0.0
 20
0.0
 30
0.0
  0
INSERT
  5
60
  8
0
  6
CONTINUOUS
  2
*U14
 10
0.0
 20
0.0
 30
0.0
  0
INSERT
  5
61
  8
0
  6
CONTINUOUS
  2
*U15
 10
0.0
 20
0.0
 30
0.0
  0
INSERT
  5
62
  8
0
  6
CONTINUOUS
  2
*U16
 10
0.0
 20
0.0
 30
0.0
  0
LINE
  5
63
  8
図枠
 10
58.359164063299993
 20
-64.847198418900007
 30
0.0
 11
58.298722538699998
 21
-64.847198418900007
 31
0.0
  0
LINE
  5
64
  8
図枠
 10
61.159164063299997
 20
-64.247198418899998
 30
0.0
 11
61.159164063299997
 21
-64.04719841890001
 31
0.0
  0
LINE
  5
65
  8
図枠
 10
69.442785289300005
 20
-64.127198418900008
 30
0.0
 11
69.384227589199995
 21
-63.923706862700001
 31
0.0
  0
LINE
  5
66
  8
図枠
 10
61.759164063299991
 20
-63.447198418900001
 30
0.0
 11
60.15916406329999
 21
-63.447198418900001
 31
0.0
  0
LINE
  5
67
  8
図枠
 10
68.614932880200001
 20
-65.1671984189
 30
0.0
 11
68.521066213500006
 21
-64.847198418900007
 31
0.0
  0
LINE
  5
68
  8
図枠
 10
66.023406487499997
 20
-64.04719841890001
 30
0.0
 11
66.423406487500003
 21
-63.447198418900001
 31
0.0
  0
LINE
  5
69
  8
図枠
 10
61.759164063299991
 20
-64.247198418899998
 30
0.0
 11
61.759164063299991
 21
-64.847198418900007
 31
0.0
  0
LINE
  5
6A
  8
図枠
 10
68.990399546800006
 20
-66.447198418900001
 30
0.0
 11
70.110399546799997
 21
-66.447198418900001
 31
0.0
  0
LINE
  5
6B
  8
図枠
 10
59.3591640633
 20
-64.247198418899998
 30
0.0
 11
59.3591640633
 21
-64.04719841890001
 31
0.0
  0
LINE
  5
6C
  8
図枠
 10
64.637931484199996
 20
-64.854826780899998
 30
0.0
 11
64.541693161699996
 21
-64.961122125100005
 31
0.0
  0
LINE
  5
6D
  8
図枠
 10
65.568494228399999
 20
-65.386850902500001
 30
0.0
 11
65.497253404399999
 21
-65.456602160100005
 31
0.0
  0
LINE
  5
6E
  8
図枠
 10
69.742060646100001
 20
-65.1671984189
 30
0.0
 11
69.649975920900005
 21
-64.847198418900007
 31
0.0
  0
LINE
  5
6F
  8
図枠
 10
57.8987225387
 20
-64.247198418899998
 30
0.0
 11
57.8987225387
 21
-64.847198418900007
 31
0.0
  0
LINE
  5
70
  8
図枠
 10
62.823406487500002
 20
-65.647198418900004
 30
0.0
 11
62.823406487500002
 21
-66.247198418899998
 31
0.0
  0
POLYLINE
  8
図枠
  5
F00
  66
     1
 10
0.000000
 20
0.000000
 30
0.000000
  70
     8
  0
VERTEX
  8
図枠
  5
F01
 10
65.4973
 20
-65.4566
 30
0.000000
  70
    32
  0
VERTEX
  8
図枠
  5
F02
 10
65.5042
 20
-65.4586
 30
0.000000
  70
    32
  0
VERTEX
  8
図枠
  5
F03
 10
65.5112
 20
-65.4606
 30
0.000000
  70
    32
  0
VERTEX
  8
図枠
  5
F04
 10
65.5183
 20
-65.4625
 30
0.000000
  70
    32
  0
VERTEX
  8
図枠
  5
F05
 10
65.5253
 20
-65.4645
 30
0.000000
  70
    32
  0
VERTEX
  8
図枠
  5
F06
 10
65.5323
 20
-65.4664
 30
0.000000
  70
    32
  0
VERTEX
  8
図枠
  5
F07
 10
65.5393
 20
-65.4683
 30
0.000000
  70
    32
  0
VERTEX
  8
図枠
  5
F08
 10
65.5464
 20
-65.4702
 30
0.000000
  70
    32
  0
VERTEX
  8
図枠
  5
F09
 10
65.5534
 20
-65.4721
 30
0.000000
  70
    32
  0
VERTEX
  8
図枠
  5
F0A
 10
65.5604
 20
-65.4740
 30
0.000000
  70
    32
  0
VERTEX
  8
図枠
  5
F0B
 10
65.5675
 20
-65.4759
 30
0.000000
  70
    32
  0
VERTEX
  8
図枠
  5
F0C
 10
65.5746
 20
-65.4778
 30
0.000000
  70
    32
  0
VERTEX
  8
図枠
  5
F0D
 10
65.5816
 20
-65.4797
 30
0.000000
  70
    32
  0
VERTEX
  8
図枠
  5
F0E
 10
65.5887
 20
-65.4815
 30
0.000000
  70
    32
  0
VERTEX
  8
図枠
  5
F0F
 10
65.5958
 20
-65.4833
 30
0.000000
  70
    32
  0
VERTEX
  8
図枠
  5
F10
 10
65.6029
 20
-65.4852
 30
0.000000
  70
    32
  0
VERTEX
  8
図枠
  5
F11
 10
65.6100
 20
-65.4870
 30
0.000000
  70
    32
  0
VERTEX
  8
図枠
  5
F12
 10
65.6171
 20
-65.4888
 30
0.000000
  70
    32
  0
VERTEX
  8
図枠
  5
F13
 10
65.6242
 20
-65.4906
 30
0.000000
  70
    32
  0
VERTEX
  8
図枠
  5
F14
 10
65.6313
 20
-65.4924
 30
0.000000
  70
    32
  0
VERTEX
  8
図枠
  5
F15
 10
65.6384
 20
-65.4942
 30
0.000000
  70
    32
  0
VERTEX
  8
図枠
  5
F16
 10
65.6455
 20
-65.4960
 30
0.000000
  70
    32
  0
VERTEX
  8
図枠
  5
F17
 10
65.6527
 20
-65.4977
 30
0.000000
  70
    32
  0
VERTEX
  8
図枠
  5
F18
 10
65.6598
 20
-65.4995
 30
0.000000
  70
    32
  0
VERTEX
  8
図枠
  5
F19
 10
65.6669
 20
-65.5012
 30
0.000000
  70
    32
  0
VERTEX
  8
図枠
  5
F1A
 10
65.6741
 20
-65.5029
 30
0.000000
  70
    32
  0
VERTEX
  8
図枠
  5
F1B
 10
65.6812
 20
-65.5047
 30
0.000000
  70
    32
  0
VERTEX
  8
図枠
  5
F1C
 10
65.6884
 20
-65.5064
 30
0.000000
  70
    32
  0
VERTEX
  8
図枠
  5
F1D
 10
65.6956
 20
-65.5081
 30
0.000000
  70
    32
  0
VERTEX
  8
図枠
  5
F1E
 10
65.7027
 20
-65.5098
 30
0.000000
  70
    32
  0
VERTEX
  8
図枠
  5
F1F
 10
65.7099
 20
-65.5115
 30
0.000000
  70
    32
  0
VERTEX
  8
図枠
  5
F20
 10
65.7171
 20
-65.5131
 30
0.000000
  70
    32
  0
VERTEX
  8
図枠
  5
F21
 10
65.7243
 20
-65.5148
 30
0.000000
  70
    32
  0
VERTEX
  8
図枠
  5
F22
 10
65.7315
 20
-65.5165
 30
0.000000
  70
    32
  0
VERTEX
  8
図枠
  5
F23
 10
65.7387
 20
-65.5181
 30
0.000000
  70
    32
  0
VERTEX
  8
図枠
  5
F24
 10
65.7459
 20
-65.5198
 30
0.000000
  70
    32
  0
VERTEX
  8
図枠
  5
F25
 10
65.7531
 20
-65.5214
 30
0.000000
  70
    32
  0
VERTEX
  8
図枠
  5
F26
 10
65.7603
 20
-65.5230
 30
0.000000
  70
    32
  0
VERTEX
  8
図枠
  5
F27
 10
65.7675
 20
-65.5247
 30
0.000000
  70
    32
  0
VERTEX
  8
図枠
  5
F28
 10
65.7747
 20
-65.5263
 30
0.000000
  70
    32
  0
VERTEX
  8
図枠
  5
F29
 10
65.7820
 20
-65.5279
 30
0.000000
  70
    32
  0
VERTEX
  8
図枠
  5
F2A
 10
65.7892
 20
-65.5295
 30
0.000000
  70
    32
  0
VERTEX
  8
図枠
  5
F2B
 10
65.7964
 20
-65.5311
 30
0.000000
  70
    32
  0
VERTEX
  8
図枠
  5
F2C
 10
65.8037
 20
-65.5326
 30
0.000000
  70
    32
  0
VERTEX
  8
図枠
  5
F2D
 10
65.8109
 20
-65.5342
 30
0.000000
  70
    32
  0
VERTEX
  8
図枠
  5
F2E
 10
65.8182
 20
-65.5358
 30
0.000000
  70
    32
  0
VERTEX
  8
図枠
  5
F2F
 10
65.8254
 20
-65.5373
 30
0.000000
  70
    32
  0
VERTEX
  8
図枠
  5
F30
 10
65.8327
 20
-65.5389
 30
0.000000
  70
    32
  0
VERTEX
  8
図枠
  5
F31
 10
65.8400
 20
-65.5404
 30
0.000000
  70
    32
  0
VERTEX
  8
図枠
  5
F32
 10
65.8472
 20
-65.5420
 30
0.000000
  70
    32
  0
VERTEX
  8
図枠
  5
F33
 10
65.8545
 20
-65.5435
 30
0.000000
  70
    32
  0
VERTEX
  8
図枠
  5
F34
 10
65.8618
 20
-65.5450
 30
0.000000
  70
    32
  0
VERTEX
  8
図枠
  5
F35
 10
65.8691
 20
-65.5465
 30
0.000000
  70
    32
  0
VERTEX
  8
図枠
  5
F36
 10
65.8764
 20
-65.5480
 30
0.000000
  70
    32
  0
VERTEX
  8
図枠
  5
F37
 10
65.8837
 20
-65.5495
 30
0.000000
  70
    32
  0
VERTEX
  8
図枠
  5
F38
 10
65.8910
 20
-65.5510
 30
0.000000
  70
    32
  0
VERTEX
  8
図枠
  5
F39
 10
65.8983
 20
-65.5525
 30
0.000000
  70
    32
  0
VERTEX
  8
図枠
  5
F3A
 10
65.9056
 20
-65.5540
 30
0.000000
  70
    32
  0
VERTEX
  8
図枠
  5
F3B
 10
65.9129
 20
-65.5555
 30
0.000000
  70
    32
  0
VERTEX
  8
図枠
  5
F3C
 10
65.9202
 20
-65.5570
 30
0.000000
  70
    32
  0
VERTEX
  8
図枠
  5
F3D
 10
65.9275
 20
-65.5584
 30
0.000000
  70
    32
  0
VERTEX
  8
図枠
  5
F3E
 10
65.9348
 20
-65.5599
 30
0.000000
  70
    32
  0
VERTEX
  8
図枠
  5
F3F
 10
65.9421
 20
-65.5613
 30
0.000000
  70
    32
  0
VERTEX
  8
図枠
  5
F40
 10
65.9495
 20
-65.5628
 30
0.000000
  70
    32
  0
VERTEX
  8
図枠
  5
F41
 10
65.9568
 20
-65.5642
 30
0.000000
  70
    32
  0
VERTEX
  8
図枠
  5
F42
 10
65.9641
 20
-65.5657
 30
0.000000
  70
    32
  0
VERTEX
  8
図枠
  5
F43
 10
65.9715
 20
-65.5671
 30
0.000000
  70
    32
  0
VERTEX
  8
図枠
  5
F44
 10
65.9788
 20
-65.5685
 30
0.000000
  70
    32
  0
VERTEX
  8
図枠
  5
F45
 10
65.9861
 20
-65.5699
 30
0.000000
  70
    32
  0
VERTEX
  8
図枠
  5
F46
 10
65.9935
 20
-65.5713
 30
0.000000
  70
    32
  0
VERTEX
  8
図枠
  5
F47
 10
66.0008
 20
-65.5727
 30
0.000000
  70
    32
  0
VERTEX
  8
図枠
  5
F48
 10
66.0082
 20
-65.5741
 30
0.000000
  70
    32
  0
VERTEX
  8
図枠
  5
F49
 10
66.0156
 20
-65.5755
 30
0.000000
  70
    32
  0
VERTEX
  8
図枠
  5
F4A
 10
66.0229
 20
-65.5769
 30
0.000000
  70
    32
  0
VERTEX
  8
図枠
  5
F4B
 10
66.0303
 20
-65.5783
 30
0.000000
  70
    32
  0
VERTEX
  8
図枠
  5
F4C
 10
66.0376
 20
-65.5797
 30
0.000000
  70
    32
  0
VERTEX
  8
図枠
  5
F4D
 10
66.0450
 20
-65.5811
 30
0.000000
  70
    32
  0
VERTEX
  8
図枠
  5
F4E
 10
66.0524
 20
-65.5825
 30
0.000000
  70
    32
  0
VERTEX
  8
図枠
  5
F4F
 10
66.0598
 20
-65.5838
 30
0.000000
  70
    32
  0
VERTEX
  8
図枠
  5
F50
 10
66.0671
 20
-65.5852
 30
0.000000
  70
    32
  0
VERTEX
  8
図枠
  5
F51
 10
66.0745
 20
-65.5865
 30
0.000000
  70
    32
  0
VERTEX
  8
図枠
  5
F52
 10
66.0819
 20
-65.5879
 30
0.000000
  70
    32
  0
VERTEX
  8
図枠
  5
F53
 10
66.0893
 20
-65.5892
 30
0.000000
  70
    32
  0
VERTEX
  8
図枠
  5
F54
 10
66.0967
 20
-65.5906
 30
0.000000
  70
    32
  0
VERTEX
  8
図枠
  5
F55
 10
66.1041
 20
-65.5919
 30
0.000000
  70
    32
  0
VERTEX
  8
図枠
  5
F56
 10
66.1115
 20
-65.5933
 30
0.000000
  70
    32
  0
VERTEX
  8
図枠
  5
F57
 10
66.1189
 20
-65.5946
 30
0.000000
  70
    32
  0
VERTEX
  8
図枠
  5
F58
 10
66.1263
 20
-65.5959
 30
0.000000
  70
    32
  0
VERTEX
  8
図枠
  5
F59
 10
66.1337
 20
-65.5973
 30
0.000000
  70
    32
  0
VERTEX
  8
図枠
  5
F5A
 10
66.1411
 20
-65.5986
 30
0.000000
  70
    32
  0
VERTEX
  8
図枠
  5
F5B
 10
66.1485
 20
-65.5999
 30
0.000000
  70
    32
  0
VERTEX
  8
図枠
  5
F5C
 10
66.1559
 20
-65.6012
 30
0.000000
  70
    32
  0
VERTEX
  8
図枠
  5
F5D
 10
66.1633
 20
-65.6025
 30
0.000000
  70
    32
  0
VERTEX
  8
図枠
  5
F5E
 10
66.1707
 20
-65.6039
 30
0.000000
  70
    32
  0
VERTEX
  8
図枠
  5
F5F
 10
66.1781
 20
-65.6052
 30
0.000000
  70
    32
  0
VERTEX
  8
図枠
  5
F60
 10
66.1855
 20
-65.6065
 30
0.000000
  70
    32
  0
VERTEX
  8
図枠
  5
F61
 10
66.1929
 20
-65.6078
 30
0.000000
  70
    32
  0
VERTEX
  8
図枠
  5
F62
 10
66.2003
 20
-65.6091
 30
0.000000
  70
    32
  0
VERTEX
  8
図枠
  5
F63
 10
66.2078
 20
-65.6104
 30
0.000000
  70
    32
  0
VERTEX
  8
図枠
  5
F64
 10
66.2152
 20
-65.6117
 30
0.000000
  70
    32
  0
VERTEX
  8
図枠
  5
F65
 10
66.2226
 20
-65.6130
 30
0.000000
  70
    32
  0
VERTEX
  8
図枠
  5
F66
 10
66.2300
 20
-65.6142
 30
0.000000
  70
    32
  0
VERTEX
  8
図枠
  5
F67
 10
66.2375
 20
-65.6155
 30
0.000000
  70
    32
  0
VERTEX
  8
図枠
  5
F68
 10
66.2449
 20
-65.6168
 30
0.000000
  70
    32
  0
VERTEX
  8
図枠
  5
F69
 10
66.2523
 20
-65.6181
 30
0.000000
  70
    32
  0
VERTEX
  8
図枠
  5
F6A
 10
66.2597
 20
-65.6194
 30
0.000000
  70
    32
  0
VERTEX
  8
図枠
  5
F6B
 10
66.2672
 20
-65.6207
 30
0.000000
  70
    32
  0
VERTEX
  8
図枠
  5
F6C
 10
66.2746
 20
-65.6219
 30
0.000000
  70
    32
  0
VERTEX
  8
図枠
  5
F6D
 10
66.2820
 20
-65.6232
 30
0.000000
  70
    32
  0
VERTEX
  8
図枠
  5
F6E
 10
66.2895
 20
-65.6245
 30
0.000000
  70
    32
  0
VERTEX
  8
図枠
  5
F6F
 10
66.2969
 20
-65.6258
 30
0.000000
  70
    32
  0
VERTEX
  8
図枠
  5
F70
 10
66.3043
 20
-65.6270
 30
0.000000
  70
    32
  0
VERTEX
  8
図枠
  5
F71
 10
66.3118
 20
-65.6283
 30
0.000000
  70
    32
  0
VERTEX
  8
図枠
  5
F72
 10
66.3192
 20
-65.6296
 30
0.000000
  70
    32
  0
VERTEX
  8
図枠
  5
F73
 10
66.3267
 20
-65.6308
 30
0.000000
  70
    32
  0
VERTEX
  8
図枠
  5
F74
 10
66.3341
 20
-65.6321
 30
0.000000
  70
    32
  0
VERTEX
  8
図枠
  5
F75
 10
66.3415
 20
-65.6333
 30
0.000000
  70
    32
  0
VERTEX
  8
図枠
  5
F76
 10
66.3490
 20
-65.6346
 30
0.000000
  70
    32
  0
VERTEX
  8
図枠
  5
F77
 10
66.3564
 20
-65.6359
 30
0.000000
  70
    32
  0
VERTEX
  8
図枠
  5
F78
 10
66.3639
 20
-65.6371
 30
0.000000
  70
    32
  0
VERTEX
  8
図枠
  5
F79
 10
66.3713
 20
-65.6384
 30
0.000000
  70
    32
  0
VERTEX
  8
図枠
  5
F7A
 10
66.3787
 20
-65.6397
 30
0.000000
  70
    32
  0
VERTEX
  8
図枠
  5
F7B
 10
66.3862
 20
-65.6409
 30
0.000000
  70
    32
  0
VERTEX
  8
図枠
  5
F7C
 10
66.3936
 20
-65.6422
 30
0.000000
  70
    32
  0
VERTEX
  8
図枠
  5
F7D
 10
66.4011
 20
-65.6434
 30
0.000000
  70
    32
  0
VERTEX
  8
図枠
  5
F7E
 10
66.4085
 20
-65.6447
 30
0.000000
  70
    32
  0
VERTEX
  8
図枠
  5
F7F
 10
66.4160
 20
-65.6459
 30
0.000000
  70
    32
  0
VERTEX
  8
図枠
  5
F80
 10
66.4234
 20
-65.6472
 30
0.000000
  70
    32
  0
SEQEND
  8
図枠
  5
F81
  0
LINE
  5
72
  8
ﾚｲﾔ_1
 62
     5
 10
30.950973211099999
 20
6.0268982961999988
 30
0.0
 11
30.950972987699998
 21
8.5268981174
 31
0.0
  0
ARC
  5
73
  8
ﾚｲﾔ_1
 62
     5
 10
16.450973211099999
 20
6.0268981174
 30
0.0
 40
2.0
 50
180.00000512060001
 51
270.0
  0
ARC
  5
74
  8
ﾚｲﾔ_1
 62
     5
 10
28.950973211099999
 20
6.0268981174
 30
0.0
 40
2.0
 50
270.0
 51
0.0000051206
  0
LINE
  5
75
  8
ﾚｲﾔ_1
 62
     5
 10
28.950973211099999
 20
4.0268981174
 30
0.0
 11
16.450973211099999
 21
4.0268981174
 31
0.0
  0
LINE
  5
76
  8
ﾚｲﾔ_1
 62
     5
 10
14.4509729877
 20
8.5268981174
 30
0.0
 11
14.450973211100001
 21
6.0268979387000003
 31
0.0
  0
LINE
  5
77
  8
ﾚｲﾔ_1
 62
     5
 10
30.950972987699998
 20
8.5268981174
 30
0.0
 11
14.4509729877
 21
8.5268981174
 31
0.0
  0
ARC
  5
78
  8
ﾚｲﾔ_1
 10
28.950973211099999
 20
6.0268981174
 30
0.0
 40
1.9472135955000001
 50
270.00000617429998
 51
359.99999587389999
  0
LINE
  5
79
  8
ﾚｲﾔ_1
 62
     5
 10
30.898186627899999
 20
8.0268980679999995
 30
0.0
 11
30.898186806599998
 21
6.0268979771999991
 31
0.0
  0
LINE
  5
7A
  8
ﾚｲﾔ_1
 10
30.8981849838
 20
6.0268982914000002
 30
0.0
 11
30.8981847604
 21
8.5268981126999996
 31
0.0
  0
LINE
  5
7B
  8
ﾚｲﾔ_1
 10
29.641954563199999
 20
6.0268981791999989
 30
0.0
 11
29.641954339800002
 21
8.5268980003999992
 31
0.0
  0
LINE
  5
7C
  8
図枠
 10
69.742060646100001
 20
-65.1671984189
 30
0.0
 11
70.910399546800008
 21
-65.1671984189
 31
0.0
  0
LINE
  5
7D
  8
図枠
 10
67.310399546799985
 20
-64.127198418900008
 30
0.0
 11
68.309866213500001
 21
-64.127198418900008
 31
0.0
  0
LINE
  5
7E
  8
図枠
 10
67.310399546799985
 20
-65.887198418899999
 30
0.0
 11
68.826132880200007
 21
-65.887198418899999
 31
0.0
  0
LINE
  5
7F
  8
図枠
 10
66.423406487500003
 20
-63.447198418900001
 30
0.0
 11
62.823406487500002
 21
-63.447198418900001
 31
0.0
  0
LINE
  5
80
  8
図枠
 10
58.359164063299993
 20
-65.447198418900001
 30
0.0
 11
59.3591640633
 21
-65.447198418900001
 31
0.0
  0
LINE
  5
81
  8
図枠
 10
61.159164063299997
 20
-64.04719841890001
 30
0.0
 11
61.759164063299991
 21
-63.447198418900001
 31
0.0
  0
ARC
  5
82
  8
図枠
 10
63.823406487500002
 20
-64.04719841890001
 30
0.0
 40
2.2000000000000002
 50
270.0
 51
302.54495885400001
  0
LINE
  5
83
  8
図枠
 10
57.8987225387
 20
-64.847198418900007
 30
0.0
 11
58.298722538699998
 21
-64.847198418900007
 31
0.0
  0
LINE
  5
84
  8
図枠
 10
67.310399546799985
 20
-65.1671984189
 30
0.0
 11
68.614932880200001
 21
-65.1671984189
 31
0.0
  0
POLYLINE
  8
図枠
  5
F82
  66
     1
 10
0.000000
 20
0.000000
 30
0.000000
  70
     8
  0
VERTEX
  8
図枠
  5
F83
 10
62.8234
 20
-64.5049
 30
0.000000
  70
    32
  0
VERTEX
  8
図枠
  5
F84
 10
62.8306
 20
-64.5115
 30
0.000000
  70
    32
  0
VERTEX
  8
図枠
  5
F85
 10
62.8378
 20
-64.5182
 30
0.000000
  70
    32
  0
VERTEX
  8
図枠
  5
F86
 10
62.8450
 20
-64.5248
 30
0.000000
  70
    32
  0
VERTEX
  8
図枠
  5
F87
 10
62.8522
 20
-64.5314
 30
0.000000
  70
    32
  0
VERTEX
  8
図枠
  5
F88
 10
62.8594
 20
-64.5381
 30
0.000000
  70
    32
  0
VERTEX
  8
図枠
  5
F89
 10
62.8666
 20
-64.5447
 30
0.000000
  70
    32
  0
VERTEX
  8
図枠
  5
F8A
 10
62.8738
 20
-64.5514
 30
0.000000
  70
    32
  0
VERTEX
  8
図枠
  5
F8B
 10
62.8810
 20
-64.5580
 30
0.000000
  70
    32
  0
VERTEX
  8
図枠
  5
F8C
 10
62.8883
 20
-64.5646
 30
0.000000
  70
    32
  0
VERTEX
  8
図枠
  5
F8D
 10
62.8955
 20
-64.5713
 30
0.000000
  70
    32
  0
VERTEX
  8
図枠
  5
F8E
 10
62.9027
 20
-64.5779
 30
0.000000
  70
    32
  0
VERTEX
  8
図枠
  5
F8F
 10
62.9099
 20
-64.5845
 30
0.000000
  70
    32
  0
VERTEX
  8
図枠
  5
F90
 10
62.9171
 20
-64.5912
 30
0.000000
  70
    32
  0
VERTEX
  8
図枠
  5
F91
 10
62.9243
 20
-64.5978
 30
0.000000
  70
    32
  0
VERTEX
  8
図枠
  5
F92
 10
62.9315
 20
-64.6044
 30
0.000000
  70
    32
  0
VERTEX
  8
図枠
  5
F93
 10
62.9387
 20
-64.6110
 30
0.000000
  70
    32
  0
VERTEX
  8
図枠
  5
F94
 10
62.9459
 20
-64.6177
 30
0.000000
  70
    32
  0
VERTEX
  8
図枠
  5
F95
 10
62.9532
 20
-64.6243
 30
0.000000
  70
    32
  0
VERTEX
  8
図枠
  5
F96
 10
62.9604
 20
-64.6309
 30
0.000000
  70
    32
  0
VERTEX
  8
図枠
  5
F97
 10
62.9676
 20
-64.6375
 30
0.000000
  70
    32
  0
VERTEX
  8
図枠
  5
F98
 10
62.9748
 20
-64.6441
 30
0.000000
  70
    32
  0
VERTEX
  8
図枠
  5
F99
 10
62.9820
 20
-64.6507
 30
0.000000
  70
    32
  0
VERTEX
  8
図枠
  5
F9A
 10
62.9893
 20
-64.6574
 30
0.000000
  70
    32
  0
VERTEX
  8
図枠
  5
F9B
 10
62.9965
 20
-64.6640
 30
0.000000
  70
    32
  0
VERTEX
  8
図枠
  5
F9C
 10
63.0037
 20
-64.6706
 30
0.000000
  70
    32
  0
VERTEX
  8
図枠
  5
F9D
 10
63.0109
 20
-64.6771
 30
0.000000
  70
    32
  0
VERTEX
  8
図枠
  5
F9E
 10
63.0182
 20
-64.6837
 30
0.000000
  70
    32
  0
VERTEX
  8
図枠
  5
F9F
 10
63.0254
 20
-64.6903
 30
0.000000
  70
    32
  0
VERTEX
  8
図枠
  5
FA0
 10
63.0326
 20
-64.6969
 30
0.000000
  70
    32
  0
VERTEX
  8
図枠
  5
FA1
 10
63.0399
 20
-64.7035
 30
0.000000
  70
    32
  0
VERTEX
  8
図枠
  5
FA2
 10
63.0471
 20
-64.7101
 30
0.000000
  70
    32
  0
VERTEX
  8
図枠
  5
FA3
 10
63.0544
 20
-64.7166
 30
0.000000
  70
    32
  0
VERTEX
  8
図枠
  5
FA4
 10
63.0616
 20
-64.7232
 30
0.000000
  70
    32
  0
VERTEX
  8
図枠
  5
FA5
 10
63.0689
 20
-64.7298
 30
0.000000
  70
    32
  0
VERTEX
  8
図枠
  5
FA6
 10
63.0761
 20
-64.7363
 30
0.000000
  70
    32
  0
VERTEX
  8
図枠
  5
FA7
 10
63.0834
 20
-64.7429
 30
0.000000
  70
    32
  0
VERTEX
  8
図枠
  5
FA8
 10
63.0906
 20
-64.7494
 30
0.000000
  70
    32
  0
VERTEX
  8
図枠
  5
FA9
 10
63.0979
 20
-64.7560
 30
0.000000
  70
    32
  0
VERTEX
  8
図枠
  5
FAA
 10
63.1051
 20
-64.7625
 30
0.000000
  70
    32
  0
VERTEX
  8
図枠
  5
FAB
 10
63.1124
 20
-64.7691
 30
0.000000
  70
    32
  0
VERTEX
  8
図枠
  5
FAC
 10
63.1197
 20
-64.7756
 30
0.000000
  70
    32
  0
VERTEX
  8
図枠
  5
FAD
 10
63.1269
 20
-64.7821
 30
0.000000
  70
    32
  0
VERTEX
  8
図枠
  5
FAE
 10
63.1342
 20
-64.7886
 30
0.000000
  70
    32
  0
VERTEX
  8
図枠
  5
FAF
 10
63.1415
 20
-64.7951
 30
0.000000
  70
    32
  0
VERTEX
  8
図枠
  5
FB0
 10
63.1487
 20
-64.8016
 30
0.000000
  70
    32
  0
VERTEX
  8
図枠
  5
FB1
 10
63.1560
 20
-64.8081
 30
0.000000
  70
    32
  0
VERTEX
  8
図枠
  5
FB2
 10
63.1633
 20
-64.8146
 30
0.000000
  70
    32
  0
VERTEX
  8
図枠
  5
FB3
 10
63.1706
 20
-64.8211
 30
0.000000
  70
    32
  0
VERTEX
  8
図枠
  5
FB4
 10
63.1779
 20
-64.8276
 30
0.000000
  70
    32
  0
VERTEX
  8
図枠
  5
FB5
 10
63.1852
 20
-64.8341
 30
0.000000
  70
    32
  0
VERTEX
  8
図枠
  5
FB6
 10
63.1925
 20
-64.8405
 30
0.000000
  70
    32
  0
VERTEX
  8
図枠
  5
FB7
 10
63.1998
 20
-64.8470
 30
0.000000
  70
    32
  0
VERTEX
  8
図枠
  5
FB8
 10
63.2071
 20
-64.8534
 30
0.000000
  70
    32
  0
VERTEX
  8
図枠
  5
FB9
 10
63.2144
 20
-64.8599
 30
0.000000
  70
    32
  0
VERTEX
  8
図枠
  5
FBA
 10
63.2217
 20
-64.8663
 30
0.000000
  70
    32
  0
VERTEX
  8
図枠
  5
FBB
 10
63.2291
 20
-64.8727
 30
0.000000
  70
    32
  0
VERTEX
  8
図枠
  5
FBC
 10
63.2364
 20
-64.8792
 30
0.000000
  70
    32
  0
VERTEX
  8
図枠
  5
FBD
 10
63.2437
 20
-64.8856
 30
0.000000
  70
    32
  0
VERTEX
  8
図枠
  5
FBE
 10
63.2510
 20
-64.8920
 30
0.000000
  70
    32
  0
VERTEX
  8
図枠
  5
FBF
 10
63.2584
 20
-64.8984
 30
0.000000
  70
    32
  0
VERTEX
  8
図枠
  5
FC0
 10
63.2657
 20
-64.9048
 30
0.000000
  70
    32
  0
VERTEX
  8
図枠
  5
FC1
 10
63.2731
 20
-64.9111
 30
0.000000
  70
    32
  0
VERTEX
  8
図枠
  5
FC2
 10
63.2804
 20
-64.9175
 30
0.000000
  70
    32
  0
VERTEX
  8
図枠
  5
FC3
 10
63.2878
 20
-64.9239
 30
0.000000
  70
    32
  0
VERTEX
  8
図枠
  5
FC4
 10
63.2951
 20
-64.9302
 30
0.000000
  70
    32
  0
VERTEX
  8
図枠
  5
FC5
 10
63.3025
 20
-64.9366
 30
0.000000
  70
    32
  0
VERTEX
  8
図枠
  5
FC6
 10
63.3099
 20
-64.9429
 30
0.000000
  70
    32
  0
VERTEX
  8
図枠
  5
FC7
 10
63.3172
 20
-64.9492
 30
0.000000
  70
    32
  0
VERTEX
  8
図枠
  5
FC8
 10
63.3246
 20
-64.9556
 30
0.000000
  70
    32
  0
VERTEX
  8
図枠
  5
FC9
 10
63.3320
 20
-64.9619
 30
0.000000
  70
    32
  0
VERTEX
  8
図枠
  5
FCA
 10
63.3394
 20
-64.9682
 30
0.000000
  70
    32
  0
VERTEX
  8
図枠
  5
FCB
 10
63.3468
 20
-64.9744
 30
0.000000
  70
    32
  0
VERTEX
  8
図枠
  5
FCC
 10
63.3542
 20
-64.9807
 30
0.000000
  70
    32
  0
VERTEX
  8
図枠
  5
FCD
 10
63.3616
 20
-64.9870
 30
0.000000
  70
    32
  0
VERTEX
  8
図枠
  5
FCE
 10
63.3690
 20
-64.9932
 30
0.000000
  70
    32
  0
VERTEX
  8
図枠
  5
FCF
 10
63.3764
 20
-64.9995
 30
0.000000
  70
    32
  0
VERTEX
  8
図枠
  5
FD0
 10
63.3838
 20
-65.0057
 30
0.000000
  70
    32
  0
VERTEX
  8
図枠
  5
FD1
 10
63.3913
 20
-65.0120
 30
0.000000
  70
    32
  0
VERTEX
  8
図枠
  5
FD2
 10
63.3987
 20
-65.0182
 30
0.000000
  70
    32
  0
VERTEX
  8
図枠
  5
FD3
 10
63.4062
 20
-65.0244
 30
0.000000
  70
    32
  0
VERTEX
  8
図枠
  5
FD4
 10
63.4136
 20
-65.0306
 30
0.000000
  70
    32
  0
VERTEX
  8
図枠
  5
FD5
 10
63.4211
 20
-65.0367
 30
0.000000
  70
    32
  0
VERTEX
  8
図枠
  5
FD6
 10
63.4285
 20
-65.0429
 30
0.000000
  70
    32
  0
VERTEX
  8
図枠
  5
FD7
 10
63.4360
 20
-65.0491
 30
0.000000
  70
    32
  0
VERTEX
  8
図枠
  5
FD8
 10
63.4434
 20
-65.0552
 30
0.000000
  70
    32
  0
VERTEX
  8
図枠
  5
FD9
 10
63.4509
 20
-65.0614
 30
0.000000
  70
    32
  0
VERTEX
  8
図枠
  5
FDA
 10
63.4584
 20
-65.0675
 30
0.000000
  70
    32
  0
VERTEX
  8
図枠
  5
FDB
 10
63.4659
 20
-65.0736
 30
0.000000
  70
    32
  0
VERTEX
  8
図枠
  5
FDC
 10
63.4734
 20
-65.0797
 30
0.000000
  70
    32
  0
VERTEX
  8
図枠
  5
FDD
 10
63.4809
 20
-65.0858
 30
0.000000
  70
    32
  0
VERTEX
  8
図枠
  5
FDE
 10
63.4884
 20
-65.0919
 30
0.000000
  70
    32
  0
VERTEX
  8
図枠
  5
FDF
 10
63.4959
 20
-65.0979
 30
0.000000
  70
    32
  0
VERTEX
  8
図枠
  5
FE0
 10
63.5035
 20
-65.1040
 30
0.000000
  70
    32
  0
VERTEX
  8
図枠
  5
FE1
 10
63.5110
 20
-65.1100
 30
0.000000
  70
    32
  0
VERTEX
  8
図枠
  5
FE2
 10
63.5185
 20
-65.1160
 30
0.000000
  70
    32
  0
VERTEX
  8
図枠
  5
FE3
 10
63.5261
 20
-65.1220
 30
0.000000
  70
    32
  0
VERTEX
  8
図枠
  5
FE4
 10
63.5336
 20
-65.1280
 30
0.000000
  70
    32
  0
VERTEX
  8
図枠
  5
FE5
 10
63.5412
 20
-65.1340
 30
0.000000
  70
    32
  0
VERTEX
  8
図枠
  5
FE6
 10
63.5487
 20
-65.1400
 30
0.000000
  70
    32
  0
VERTEX
  8
図枠
  5
FE7
 10
63.5563
 20
-65.1460
 30
0.000000
  70
    32
  0
VERTEX
  8
図枠
  5
FE8
 10
63.5639
 20
-65.1519
 30
0.000000
  70
    32
  0
VERTEX
  8
図枠
  5
FE9
 10
63.5715
 20
-65.1578
 30
0.000000
  70
    32
  0
VERTEX
  8
図枠
  5
FEA
 10
63.5791
 20
-65.1637
 30
0.000000
  70
    32
  0
VERTEX
  8
図枠
  5
FEB
 10
63.5867
 20
-65.1696
 30
0.000000
  70
    32
  0
VERTEX
  8
図枠
  5
FEC
 10
63.5943
 20
-65.1755
 30
0.000000
  70
    32
  0
VERTEX
  8
図枠
  5
FED
 10
63.6019
 20
-65.1814
 30
0.000000
  70
    32
  0
VERTEX
  8
図枠
  5
FEE
 10
63.6096
 20
-65.1873
 30
0.000000
  70
    32
  0
VERTEX
  8
図枠
  5
FEF
 10
63.6172
 20
-65.1931
 30
0.000000
  70
    32
  0
VERTEX
  8
図枠
  5
FF0
 10
63.6248
 20
-65.1989
 30
0.000000
  70
    32
  0
VERTEX
  8
図枠
  5
FF1
 10
63.6325
 20
-65.2047
 30
0.000000
  70
    32
  0
VERTEX
  8
図枠
  5
FF2
 10
63.6402
 20
-65.2105
 30
0.000000
  70
    32
  0
VERTEX
  8
図枠
  5
FF3
 10
63.6478
 20
-65.2163
 30
0.000000
  70
    32
  0
VERTEX
  8
図枠
  5
FF4
 10
63.6555
 20
-65.2221
 30
0.000000
  70
    32
  0
VERTEX
  8
図枠
  5
FF5
 10
63.6632
 20
-65.2278
 30
0.000000
  70
    32
  0
VERTEX
  8
図枠
  5
FF6
 10
63.6709
 20
-65.2336
 30
0.000000
  70
    32
  0
VERTEX
  8
図枠
  5
FF7
 10
63.6786
 20
-65.2393
 30
0.000000
  70
    32
  0
VERTEX
  8
図枠
  5
FF8
 10
63.6863
 20
-65.2450
 30
0.000000
  70
    32
  0
VERTEX
  8
図枠
  5
FF9
 10
63.6940
 20
-65.2507
 30
0.000000
  70
    32
  0
VERTEX
  8
図枠
  5
FFA
 10
63.7017
 20
-65.2563
 30
0.000000
  70
    32
  0
VERTEX
  8
図枠
  5
FFB
 10
63.7095
 20
-65.2620
 30
0.000000
  70
    32
  0
VERTEX
  8
図枠
  5
FFC
 10
63.7172
 20
-65.2676
 30
0.000000
  70
    32
  0
VERTEX
  8
図枠
  5
FFD
 10
63.7250
 20
-65.2733
 30
0.000000
  70
    32
  0
VERTEX
  8
図枠
  5
FFE
 10
63.7328
 20
-65.2789
 30
0.000000
  70
    32
  0
VERTEX
  8
図枠
  5
FFF
 10
63.7405
 20
-65.2845
 30
0.000000
  70
    32
  0
VERTEX
  8
図枠
  5
1000
 10
63.7483
 20
-65.2900
 30
0.000000
  70
    32
  0
VERTEX
  8
図枠
  5
1001
 10
63.7561
 20
-65.2956
 30
0.000000
  70
    32
  0
VERTEX
  8
図枠
  5
1002
 10
63.7639
 20
-65.3011
 30
0.000000
  70
    32
  0
VERTEX
  8
図枠
  5
1003
 10
63.7717
 20
-65.3066
 30
0.000000
  70
    32
  0
VERTEX
  8
図枠
  5
1004
 10
63.7795
 20
-65.3121
 30
0.000000
  70
    32
  0
VERTEX
  8
図枠
  5
1005
 10
63.7874
 20
-65.3176
 30
0.000000
  70
    32
  0
VERTEX
  8
図枠
  5
1006
 10
63.7952
 20
-65.3231
 30
0.000000
  70
    32
  0
VERTEX
  8
図枠
  5
1007
 10
63.8031
 20
-65.3285
 30
0.000000
  70
    32
  0
VERTEX
  8
図枠
  5
1008
 10
63.8109
 20
-65.3339
 30
0.000000
  70
    32
  0
VERTEX
  8
図枠
  5
1009
 10
63.8188
 20
-65.3394
 30
0.000000
  70
    32
  0
VERTEX
  8
図枠
  5
100A
 10
63.8267
 20
-65.3447
 30
0.000000
  70
    32
  0
VERTEX
  8
図枠
  5
100B
 10
63.8346
 20
-65.3501
 30
0.000000
  70
    32
  0
VERTEX
  8
図枠
  5
100C
 10
63.8425
 20
-65.3555
 30
0.000000
  70
    32
  0
VERTEX
  8
図枠
  5
100D
 10
63.8504
 20
-65.3608
 30
0.000000
  70
    32
  0
VERTEX
  8
図枠
  5
100E
 10
63.8583
 20
-65.3661
 30
0.000000
  70
    32
  0
VERTEX
  8
図枠
  5
100F
 10
63.8662
 20
-65.3714
 30
0.000000
  70
    32
  0
VERTEX
  8
図枠
  5
1010
 10
63.8742
 20
-65.3767
 30
0.000000
  70
    32
  0
VERTEX
  8
図枠
  5
1011
 10
63.8821
 20
-65.3820
 30
0.000000
  70
    32
  0
VERTEX
  8
図枠
  5
1012
 10
63.8901
 20
-65.3872
 30
0.000000
  70
    32
  0
VERTEX
  8
図枠
  5
1013
 10
63.8981
 20
-65.3924
 30
0.000000
  70
    32
  0
VERTEX
  8
図枠
  5
1014
 10
63.9061
 20
-65.3976
 30
0.000000
  70
    32
  0
VERTEX
  8
図枠
  5
1015
 10
63.9140
 20
-65.4028
 30
0.000000
  70
    32
  0
VERTEX
  8
図枠
  5
1016
 10
63.9221
 20
-65.4079
 30
0.000000
  70
    32
  0
VERTEX
  8
図枠
  5
1017
 10
63.9301
 20
-65.4131
 30
0.000000
  70
    32
  0
VERTEX
  8
図枠
  5
1018
 10
63.9381
 20
-65.4182
 30
0.000000
  70
    32
  0
VERTEX
  8
図枠
  5
1019
 10
63.9461
 20
-65.4233
 30
0.000000
  70
    32
  0
VERTEX
  8
図枠
  5
101A
 10
63.9542
 20
-65.4284
 30
0.000000
  70
    32
  0
VERTEX
  8
図枠
  5
101B
 10
63.9623
 20
-65.4334
 30
0.000000
  70
    32
  0
VERTEX
  8
図枠
  5
101C
 10
63.9703
 20
-65.4385
 30
0.000000
  70
    32
  0
VERTEX
  8
図枠
  5
101D
 10
63.9784
 20
-65.4435
 30
0.000000
  70
    32
  0
VERTEX
  8
図枠
  5
101E
 10
63.9865
 20
-65.4485
 30
0.000000
  70
    32
  0
VERTEX
  8
図枠
  5
101F
 10
63.9946
 20
-65.4534
 30
0.000000
  70
    32
  0
VERTEX
  8
図枠
  5
1020
 10
64.0027
 20
-65.4584
 30
0.000000
  70
    32
  0
VERTEX
  8
図枠
  5
1021
 10
64.0109
 20
-65.4633
 30
0.000000
  70
    32
  0
VERTEX
  8
図枠
  5
1022
 10
64.0190
 20
-65.4682
 30
0.000000
  70
    32
  0
SEQEND
  8
図枠
  5
1023
  0
POLYLINE
  8
図枠
  5
1024
  66
     1
 10
0.000000
 20
0.000000
 30
0.000000
  70
     8
  0
VERTEX
  8
図枠
  5
1025
 10
65.0069
 20
-65.9017
 30
0.000000
  70
    32
  0
VERTEX
  8
図枠
  5
1026
 10
65.0177
 20
-65.9052
 30
0.000000
  70
    32
  0
VERTEX
  8
図枠
  5
1027
 10
65.0285
 20
-65.9086
 30
0.000000
  70
    32
  0
VERTEX
  8
図枠
  5
1028
 10
65.0393
 20
-65.9120
 30
0.000000
  70
    32
  0
VERTEX
  8
図枠
  5
1029
 10
65.0500
 20
-65.9154
 30
0.000000
  70
    32
  0
VERTEX
  8
図枠
  5
102A
 10
65.0609
 20
-65.9187
 30
0.000000
  70
    32
  0
VERTEX
  8
図枠
  5
102B
 10
65.0717
 20
-65.9221
 30
0.000000
  70
    32
  0
VERTEX
  8
図枠
  5
102C
 10
65.0825
 20
-65.9254
 30
0.000000
  70
    32
  0
VERTEX
  8
図枠
  5
102D
 10
65.0933
 20
-65.9287
 30
0.000000
  70
    32
  0
VERTEX
  8
図枠
  5
102E
 10
65.1042
 20
-65.9320
 30
0.000000
  70
    32
  0
VERTEX
  8
図枠
  5
102F
 10
65.1150
 20
-65.9353
 30
0.000000
  70
    32
  0
VERTEX
  8
図枠
  5
1030
 10
65.1259
 20
-65.9386
 30
0.000000
  70
    32
  0
VERTEX
  8
図枠
  5
1031
 10
65.1367
 20
-65.9418
 30
0.000000
  70
    32
  0
VERTEX
  8
図枠
  5
1032
 10
65.1476
 20
-65.9451
 30
0.000000
  70
    32
  0
VERTEX
  8
図枠
  5
1033
 10
65.1585
 20
-65.9483
 30
0.000000
  70
    32
  0
VERTEX
  8
図枠
  5
1034
 10
65.1694
 20
-65.9515
 30
0.000000
  70
    32
  0
VERTEX
  8
図枠
  5
1035
 10
65.1803
 20
-65.9547
 30
0.000000
  70
    32
  0
VERTEX
  8
図枠
  5
1036
 10
65.1912
 20
-65.9579
 30
0.000000
  70
    32
  0
VERTEX
  8
図枠
  5
1037
 10
65.2021
 20
-65.9611
 30
0.000000
  70
    32
  0
VERTEX
  8
図枠
  5
1038
 10
65.2130
 20
-65.9642
 30
0.000000
  70
    32
  0
VERTEX
  8
図枠
  5
1039
 10
65.2239
 20
-65.9673
 30
0.000000
  70
    32
  0
VERTEX
  8
図枠
  5
103A
 10
65.2349
 20
-65.9705
 30
0.000000
  70
    32
  0
VERTEX
  8
図枠
  5
103B
 10
65.2458
 20
-65.9736
 30
0.000000
  70
    32
  0
VERTEX
  8
図枠
  5
103C
 10
65.2568
 20
-65.9767
 30
0.000000
  70
    32
  0
VERTEX
  8
図枠
  5
103D
 10
65.2677
 20
-65.9797
 30
0.000000
  70
    32
  0
VERTEX
  8
図枠
  5
103E
 10
65.2787
 20
-65.9828
 30
0.000000
  70
    32
  0
VERTEX
  8
図枠
  5
103F
 10
65.2897
 20
-65.9859
 30
0.000000
  70
    32
  0
VERTEX
  8
図枠
  5
1040
 10
65.3006
 20
-65.9889
 30
0.000000
  70
    32
  0
VERTEX
  8
図枠
  5
1041
 10
65.3116
 20
-65.9919
 30
0.000000
  70
    32
  0
VERTEX
  8
図枠
  5
1042
 10
65.3226
 20
-65.9949
 30
0.000000
  70
    32
  0
VERTEX
  8
図枠
  5
1043
 10
65.3336
 20
-65.9979
 30
0.000000
  70
    32
  0
VERTEX
  8
図枠
  5
1044
 10
65.3446
 20
-66.0009
 30
0.000000
  70
    32
  0
VERTEX
  8
図枠
  5
1045
 10
65.3557
 20
-66.0039
 30
0.000000
  70
    32
  0
VERTEX
  8
図枠
  5
1046
 10
65.3667
 20
-66.0068
 30
0.000000
  70
    32
  0
VERTEX
  8
図枠
  5
1047
 10
65.3777
 20
-66.0098
 30
0.000000
  70
    32
  0
VERTEX
  8
図枠
  5
1048
 10
65.3888
 20
-66.0127
 30
0.000000
  70
    32
  0
VERTEX
  8
図枠
  5
1049
 10
65.3998
 20
-66.0156
 30
0.000000
  70
    32
  0
VERTEX
  8
図枠
  5
104A
 10
65.4109
 20
-66.0186
 30
0.000000
  70
    32
  0
VERTEX
  8
図枠
  5
104B
 10
65.4219
 20
-66.0214
 30
0.000000
  70
    32
  0
VERTEX
  8
図枠
  5
104C
 10
65.4330
 20
-66.0243
 30
0.000000
  70
    32
  0
VERTEX
  8
図枠
  5
104D
 10
65.4440
 20
-66.0272
 30
0.000000
  70
    32
  0
VERTEX
  8
図枠
  5
104E
 10
65.4551
 20
-66.0301
 30
0.000000
  70
    32
  0
VERTEX
  8
図枠
  5
104F
 10
65.4662
 20
-66.0329
 30
0.000000
  70
    32
  0
VERTEX
  8
図枠
  5
1050
 10
65.4773
 20
-66.0358
 30
0.000000
  70
    32
  0
VERTEX
  8
図枠
  5
1051
 10
65.4884
 20
-66.0386
 30
0.000000
  70
    32
  0
VERTEX
  8
図枠
  5
1052
 10
65.4995
 20
-66.0414
 30
0.000000
  70
    32
  0
VERTEX
  8
図枠
  5
1053
 10
65.5106
 20
-66.0442
 30
0.000000
  70
    32
  0
VERTEX
  8
図枠
  5
1054
 10
65.5217
 20
-66.0470
 30
0.000000
  70
    32
  0
VERTEX
  8
図枠
  5
1055
 10
65.5328
 20
-66.0498
 30
0.000000
  70
    32
  0
VERTEX
  8
図枠
  5
1056
 10
65.5440
 20
-66.0526
 30
0.000000
  70
    32
  0
VERTEX
  8
図枠
  5
1057
 10
65.5551
 20
-66.0553
 30
0.000000
  70
    32
  0
VERTEX
  8
図枠
  5
1058
 10
65.5662
 20
-66.0581
 30
0.000000
  70
    32
  0
VERTEX
  8
図枠
  5
1059
 10
65.5774
 20
-66.0608
 30
0.000000
  70
    32
  0
VERTEX
  8
図枠
  5
105A
 10
65.5885
 20
-66.0635
 30
0.000000
  70
    32
  0
VERTEX
  8
図枠
  5
105B
 10
65.5997
 20
-66.0663
 30
0.000000
  70
    32
  0
VERTEX
  8
図枠
  5
105C
 10
65.6108
 20
-66.0690
 30
0.000000
  70
    32
  0
VERTEX
  8
図枠
  5
105D
 10
65.6220
 20
-66.0717
 30
0.000000
  70
    32
  0
VERTEX
  8
図枠
  5
105E
 10
65.6332
 20
-66.0744
 30
0.000000
  70
    32
  0
VERTEX
  8
図枠
  5
105F
 10
65.6443
 20
-66.0771
 30
0.000000
  70
    32
  0
VERTEX
  8
図枠
  5
1060
 10
65.6555
 20
-66.0797
 30
0.000000
  70
    32
  0
VERTEX
  8
図枠
  5
1061
 10
65.6667
 20
-66.0824
 30
0.000000
  70
    32
  0
VERTEX
  8
図枠
  5
1062
 10
65.6779
 20
-66.0851
 30
0.000000
  70
    32
  0
VERTEX
  8
図枠
  5
1063
 10
65.6891
 20
-66.0877
 30
0.000000
  70
    32
  0
VERTEX
  8
図枠
  5
1064
 10
65.7003
 20
-66.0903
 30
0.000000
  70
    32
  0
VERTEX
  8
図枠
  5
1065
 10
65.7115
 20
-66.0930
 30
0.000000
  70
    32
  0
VERTEX
  8
図枠
  5
1066
 10
65.7227
 20
-66.0956
 30
0.000000
  70
    32
  0
VERTEX
  8
図枠
  5
1067
 10
65.7339
 20
-66.0982
 30
0.000000
  70
    32
  0
VERTEX
  8
図枠
  5
1068
 10
65.7451
 20
-66.1008
 30
0.000000
  70
    32
  0
VERTEX
  8
図枠
  5
1069
 10
65.7563
 20
-66.1034
 30
0.000000
  70
    32
  0
VERTEX
  8
図枠
  5
106A
 10
65.7675
 20
-66.1060
 30
0.000000
  70
    32
  0
VERTEX
  8
図枠
  5
106B
 10
65.7788
 20
-66.1086
 30
0.000000
  70
    32
  0
VERTEX
  8
図枠
  5
106C
 10
65.7900
 20
-66.1111
 30
0.000000
  70
    32
  0
VERTEX
  8
図枠
  5
106D
 10
65.8012
 20
-66.1137
 30
0.000000
  70
    32
  0
VERTEX
  8
図枠
  5
106E
 10
65.8125
 20
-66.1163
 30
0.000000
  70
    32
  0
VERTEX
  8
図枠
  5
106F
 10
65.8237
 20
-66.1188
 30
0.000000
  70
    32
  0
VERTEX
  8
図枠
  5
1070
 10
65.8350
 20
-66.1214
 30
0.000000
  70
    32
  0
VERTEX
  8
図枠
  5
1071
 10
65.8462
 20
-66.1239
 30
0.000000
  70
    32
  0
VERTEX
  8
図枠
  5
1072
 10
65.8575
 20
-66.1264
 30
0.000000
  70
    32
  0
VERTEX
  8
図枠
  5
1073
 10
65.8687
 20
-66.1290
 30
0.000000
  70
    32
  0
VERTEX
  8
図枠
  5
1074
 10
65.8800
 20
-66.1315
 30
0.000000
  70
    32
  0
VERTEX
  8
図枠
  5
1075
 10
65.8913
 20
-66.1340
 30
0.000000
  70
    32
  0
VERTEX
  8
図枠
  5
1076
 10
65.9025
 20
-66.1365
 30
0.000000
  70
    32
  0
VERTEX
  8
図枠
  5
1077
 10
65.9138
 20
-66.1390
 30
0.000000
  70
    32
  0
VERTEX
  8
図枠
  5
1078
 10
65.9251
 20
-66.1415
 30
0.000000
  70
    32
  0
VERTEX
  8
図枠
  5
1079
 10
65.9364
 20
-66.1440
 30
0.000000
  70
    32
  0
VERTEX
  8
図枠
  5
107A
 10
65.9477
 20
-66.1465
 30
0.000000
  70
    32
  0
VERTEX
  8
図枠
  5
107B
 10
65.9589
 20
-66.1489
 30
0.000000
  70
    32
  0
VERTEX
  8
図枠
  5
107C
 10
65.9702
 20
-66.1514
 30
0.000000
  70
    32
  0
VERTEX
  8
図枠
  5
107D
 10
65.9815
 20
-66.1539
 30
0.000000
  70
    32
  0
VERTEX
  8
図枠
  5
107E
 10
65.9928
 20
-66.1563
 30
0.000000
  70
    32
  0
VERTEX
  8
図枠
  5
107F
 10
66.0041
 20
-66.1588
 30
0.000000
  70
    32
  0
VERTEX
  8
図枠
  5
1080
 10
66.0154
 20
-66.1612
 30
0.000000
  70
    32
  0
VERTEX
  8
図枠
  5
1081
 10
66.0267
 20
-66.1637
 30
0.000000
  70
    32
  0
VERTEX
  8
図枠
  5
1082
 10
66.0380
 20
-66.1661
 30
0.000000
  70
    32
  0
VERTEX
  8
図枠
  5
1083
 10
66.0493
 20
-66.1685
 30
0.000000
  70
    32
  0
VERTEX
  8
図枠
  5
1084
 10
66.0606
 20
-66.1710
 30
0.000000
  70
    32
  0
VERTEX
  8
図枠
  5
1085
 10
66.0720
 20
-66.1734
 30
0.000000
  70
    32
  0
VERTEX
  8
図枠
  5
1086
 10
66.0833
 20
-66.1758
 30
0.000000
  70
    32
  0
VERTEX
  8
図枠
  5
1087
 10
66.0946
 20
-66.1782
 30
0.000000
  70
    32
  0
VERTEX
  8
図枠
  5
1088
 10
66.1059
 20
-66.1806
 30
0.000000
  70
    32
  0
VERTEX
  8
図枠
  5
1089
 10
66.1172
 20
-66.1831
 30
0.000000
  70
    32
  0
VERTEX
  8
図枠
  5
108A
 10
66.1286
 20
-66.1855
 30
0.000000
  70
    32
  0
VERTEX
  8
図枠
  5
108B
 10
66.1399
 20
-66.1879
 30
0.000000
  70
    32
  0
VERTEX
  8
図枠
  5
108C
 10
66.1512
 20
-66.1903
 30
0.000000
  70
    32
  0
VERTEX
  8
図枠
  5
108D
 10
66.1625
 20
-66.1927
 30
0.000000
  70
    32
  0
VERTEX
  8
図枠
  5
108E
 10
66.1739
 20
-66.1951
 30
0.000000
  70
    32
  0
VERTEX
  8
図枠
  5
108F
 10
66.1852
 20
-66.1974
 30
0.000000
  70
    32
  0
VERTEX
  8
図枠
  5
1090
 10
66.1965
 20
-66.1998
 30
0.000000
  70
    32
  0
VERTEX
  8
図枠
  5
1091
 10
66.2079
 20
-66.2022
 30
0.000000
  70
    32
  0
VERTEX
  8
図枠
  5
1092
 10
66.2192
 20
-66.2046
 30
0.000000
  70
    32
  0
VERTEX
  8
図枠
  5
1093
 10
66.2305
 20
-66.2070
 30
0.000000
  70
    32
  0
VERTEX
  8
図枠
  5
1094
 10
66.2419
 20
-66.2094
 30
0.000000
  70
    32
  0
VERTEX
  8
図枠
  5
1095
 10
66.2532
 20
-66.2117
 30
0.000000
  70
    32
  0
VERTEX
  8
図枠
  5
1096
 10
66.2646
 20
-66.2141
 30
0.000000
  70
    32
  0
VERTEX
  8
図枠
  5
1097
 10
66.2759
 20
-66.2165
 30
0.000000
  70
    32
  0
VERTEX
  8
図枠
  5
1098
 10
66.2872
 20
-66.2188
 30
0.000000
  70
    32
  0
VERTEX
  8
図枠
  5
1099
 10
66.2986
 20
-66.2212
 30
0.000000
  70
    32
  0
VERTEX
  8
図枠
  5
109A
 10
66.3099
 20
-66.2236
 30
0.000000
  70
    32
  0
VERTEX
  8
図枠
  5
109B
 10
66.3213
 20
-66.2259
 30
0.000000
  70
    32
  0
VERTEX
  8
図枠
  5
109C
 10
66.3326
 20
-66.2283
 30
0.000000
  70
    32
  0
VERTEX
  8
図枠
  5
109D
 10
66.3440
 20
-66.2307
 30
0.000000
  70
    32
  0
VERTEX
  8
図枠
  5
109E
 10
66.3553
 20
-66.2330
 30
0.000000
  70
    32
  0
VERTEX
  8
図枠
  5
109F
 10
66.3667
 20
-66.2354
 30
0.000000
  70
    32
  0
VERTEX
  8
図枠
  5
10A0
 10
66.3780
 20
-66.2378
 30
0.000000
  70
    32
  0
VERTEX
  8
図枠
  5
10A1
 10
66.3894
 20
-66.2401
 30
0.000000
  70
    32
  0
VERTEX
  8
図枠
  5
10A2
 10
66.4007
 20
-66.2425
 30
0.000000
  70
    32
  0
VERTEX
  8
図枠
  5
10A3
 10
66.4121
 20
-66.2448
 30
0.000000
  70
    32
  0
VERTEX
  8
図枠
  5
10A4
 10
66.4234
 20
-66.2472
 30
0.000000
  70
    32
  0
SEQEND
  8
図枠
  5
10A5
  0
POLYLINE
  8
図枠
  5
10A6
  66
     1
 10
0.000000
 20
0.000000
 30
0.000000
  70
     8
  0
VERTEX
  8
図枠
  5
10A7
 10
64.1971
 20
-64.6023
 30
0.000000
  70
    32
  0
VERTEX
  8
図枠
  5
10A8
 10
64.1998
 20
-64.6053
 30
0.000000
  70
    32
  0
VERTEX
  8
図枠
  5
10A9
 10
64.2024
 20
-64.6082
 30
0.000000
  70
    32
  0
VERTEX
  8
図枠
  5
10AA
 10
64.2051
 20
-64.6111
 30
0.000000
  70
    32
  0
VERTEX
  8
図枠
  5
10AB
 10
64.2077
 20
-64.6141
 30
0.000000
  70
    32
  0
VERTEX
  8
図枠
  5
10AC
 10
64.2103
 20
-64.6170
 30
0.000000
  70
    32
  0
VERTEX
  8
図枠
  5
10AD
 10
64.2130
 20
-64.6200
 30
0.000000
  70
    32
  0
VERTEX
  8
図枠
  5
10AE
 10
64.2156
 20
-64.6229
 30
0.000000
  70
    32
  0
VERTEX
  8
図枠
  5
10AF
 10
64.2183
 20
-64.6259
 30
0.000000
  70
    32
  0
VERTEX
  8
図枠
  5
10B0
 10
64.2209
 20
-64.6288
 30
0.000000
  70
    32
  0
VERTEX
  8
図枠
  5
10B1
 10
64.2235
 20
-64.6317
 30
0.000000
  70
    32
  0
VERTEX
  8
図枠
  5
10B2
 10
64.2262
 20
-64.6347
 30
0.000000
  70
    32
  0
VERTEX
  8
図枠
  5
10B3
 10
64.2288
 20
-64.6376
 30
0.000000
  70
    32
  0
VERTEX
  8
図枠
  5
10B4
 10
64.2315
 20
-64.6406
 30
0.000000
  70
    32
  0
VERTEX
  8
図枠
  5
10B5
 10
64.2341
 20
-64.6435
 30
0.000000
  70
    32
  0
VERTEX
  8
図枠
  5
10B6
 10
64.2367
 20
-64.6464
 30
0.000000
  70
    32
  0
VERTEX
  8
図枠
  5
10B7
 10
64.2394
 20
-64.6494
 30
0.000000
  70
    32
  0
VERTEX
  8
図枠
  5
10B8
 10
64.2420
 20
-64.6523
 30
0.000000
  70
    32
  0
VERTEX
  8
図枠
  5
10B9
 10
64.2447
 20
-64.6553
 30
0.000000
  70
    32
  0
VERTEX
  8
図枠
  5
10BA
 10
64.2473
 20
-64.6582
 30
0.000000
  70
    32
  0
VERTEX
  8
図枠
  5
10BB
 10
64.2500
 20
-64.6611
 30
0.000000
  70
    32
  0
VERTEX
  8
図枠
  5
10BC
 10
64.2526
 20
-64.6641
 30
0.000000
  70
    32
  0
VERTEX
  8
図枠
  5
10BD
 10
64.2553
 20
-64.6670
 30
0.000000
  70
    32
  0
VERTEX
  8
図枠
  5
10BE
 10
64.2579
 20
-64.6699
 30
0.000000
  70
    32
  0
VERTEX
  8
図枠
  5
10BF
 10
64.2605
 20
-64.6729
 30
0.000000
  70
    32
  0
VERTEX
  8
図枠
  5
10C0
 10
64.2632
 20
-64.6758
 30
0.000000
  70
    32
  0
VERTEX
  8
図枠
  5
10C1
 10
64.2658
 20
-64.6787
 30
0.000000
  70
    32
  0
VERTEX
  8
図枠
  5
10C2
 10
64.2685
 20
-64.6816
 30
0.000000
  70
    32
  0
VERTEX
  8
図枠
  5
10C3
 10
64.2711
 20
-64.6846
 30
0.000000
  70
    32
  0
VERTEX
  8
図枠
  5
10C4
 10
64.2738
 20
-64.6875
 30
0.000000
  70
    32
  0
VERTEX
  8
図枠
  5
10C5
 10
64.2764
 20
-64.6904
 30
0.000000
  70
    32
  0
VERTEX
  8
図枠
  5
10C6
 10
64.2791
 20
-64.6933
 30
0.000000
  70
    32
  0
VERTEX
  8
図枠
  5
10C7
 10
64.2818
 20
-64.6963
 30
0.000000
  70
    32
  0
VERTEX
  8
図枠
  5
10C8
 10
64.2844
 20
-64.6992
 30
0.000000
  70
    32
  0
VERTEX
  8
図枠
  5
10C9
 10
64.2871
 20
-64.7021
 30
0.000000
  70
    32
  0
VERTEX
  8
図枠
  5
10CA
 10
64.2897
 20
-64.7050
 30
0.000000
  70
    32
  0
VERTEX
  8
図枠
  5
10CB
 10
64.2924
 20
-64.7079
 30
0.000000
  70
    32
  0
VERTEX
  8
図枠
  5
10CC
 10
64.2950
 20
-64.7108
 30
0.000000
  70
    32
  0
VERTEX
  8
図枠
  5
10CD
 10
64.2977
 20
-64.7138
 30
0.000000
  70
    32
  0
VERTEX
  8
図枠
  5
10CE
 10
64.3004
 20
-64.7167
 30
0.000000
  70
    32
  0
VERTEX
  8
図枠
  5
10CF
 10
64.3030
 20
-64.7196
 30
0.000000
  70
    32
  0
VERTEX
  8
図枠
  5
10D0
 10
64.3057
 20
-64.7225
 30
0.000000
  70
    32
  0
VERTEX
  8
図枠
  5
10D1
 10
64.3083
 20
-64.7254
 30
0.000000
  70
    32
  0
VERTEX
  8
図枠
  5
10D2
 10
64.3110
 20
-64.7283
 30
0.000000
  70
    32
  0
VERTEX
  8
図枠
  5
10D3
 10
64.3137
 20
-64.7312
 30
0.000000
  70
    32
  0
VERTEX
  8
図枠
  5
10D4
 10
64.3163
 20
-64.7341
 30
0.000000
  70
    32
  0
VERTEX
  8
図枠
  5
10D5
 10
64.3190
 20
-64.7370
 30
0.000000
  70
    32
  0
VERTEX
  8
図枠
  5
10D6
 10
64.3217
 20
-64.7399
 30
0.000000
  70
    32
  0
VERTEX
  8
図枠
  5
10D7
 10
64.3243
 20
-64.7428
 30
0.000000
  70
    32
  0
VERTEX
  8
図枠
  5
10D8
 10
64.3270
 20
-64.7457
 30
0.000000
  70
    32
  0
VERTEX
  8
図枠
  5
10D9
 10
64.3297
 20
-64.7486
 30
0.000000
  70
    32
  0
VERTEX
  8
図枠
  5
10DA
 10
64.3324
 20
-64.7515
 30
0.000000
  70
    32
  0
VERTEX
  8
図枠
  5
10DB
 10
64.3350
 20
-64.7543
 30
0.000000
  70
    32
  0
VERTEX
  8
図枠
  5
10DC
 10
64.3377
 20
-64.7572
 30
0.000000
  70
    32
  0
VERTEX
  8
図枠
  5
10DD
 10
64.3404
 20
-64.7601
 30
0.000000
  70
    32
  0
VERTEX
  8
図枠
  5
10DE
 10
64.3431
 20
-64.7630
 30
0.000000
  70
    32
  0
VERTEX
  8
図枠
  5
10DF
 10
64.3458
 20
-64.7659
 30
0.000000
  70
    32
  0
VERTEX
  8
図枠
  5
10E0
 10
64.3484
 20
-64.7687
 30
0.000000
  70
    32
  0
VERTEX
  8
図枠
  5
10E1
 10
64.3511
 20
-64.7716
 30
0.000000
  70
    32
  0
VERTEX
  8
図枠
  5
10E2
 10
64.3538
 20
-64.7745
 30
0.000000
  70
    32
  0
VERTEX
  8
図枠
  5
10E3
 10
64.3565
 20
-64.7773
 30
0.000000
  70
    32
  0
VERTEX
  8
図枠
  5
10E4
 10
64.3592
 20
-64.7802
 30
0.000000
  70
    32
  0
VERTEX
  8
図枠
  5
10E5
 10
64.3619
 20
-64.7831
 30
0.000000
  70
    32
  0
VERTEX
  8
図枠
  5
10E6
 10
64.3646
 20
-64.7859
 30
0.000000
  70
    32
  0
VERTEX
  8
図枠
  5
10E7
 10
64.3673
 20
-64.7888
 30
0.000000
  70
    32
  0
VERTEX
  8
図枠
  5
10E8
 10
64.3700
 20
-64.7916
 30
0.000000
  70
    32
  0
VERTEX
  8
図枠
  5
10E9
 10
64.3727
 20
-64.7945
 30
0.000000
  70
    32
  0
VERTEX
  8
図枠
  5
10EA
 10
64.3754
 20
-64.7973
 30
0.000000
  70
    32
  0
VERTEX
  8
図枠
  5
10EB
 10
64.3781
 20
-64.8002
 30
0.000000
  70
    32
  0
VERTEX
  8
図枠
  5
10EC
 10
64.3808
 20
-64.8030
 30
0.000000
  70
    32
  0
VERTEX
  8
図枠
  5
10ED
 10
64.3835
 20
-64.8058
 30
0.000000
  70
    32
  0
VERTEX
  8
図枠
  5
10EE
 10
64.3862
 20
-64.8087
 30
0.000000
  70
    32
  0
VERTEX
  8
図枠
  5
10EF
 10
64.3889
 20
-64.8115
 30
0.000000
  70
    32
  0
VERTEX
  8
図枠
  5
10F0
 10
64.3916
 20
-64.8143
 30
0.000000
  70
    32
  0
VERTEX
  8
図枠
  5
10F1
 10
64.3943
 20
-64.8172
 30
0.000000
  70
    32
  0
VERTEX
  8
図枠
  5
10F2
 10
64.3970
 20
-64.8200
 30
0.000000
  70
    32
  0
VERTEX
  8
図枠
  5
10F3
 10
64.3997
 20
-64.8228
 30
0.000000
  70
    32
  0
VERTEX
  8
図枠
  5
10F4
 10
64.4025
 20
-64.8256
 30
0.000000
  70
    32
  0
VERTEX
  8
図枠
  5
10F5
 10
64.4052
 20
-64.8284
 30
0.000000
  70
    32
  0
VERTEX
  8
図枠
  5
10F6
 10
64.4079
 20
-64.8312
 30
0.000000
  70
    32
  0
VERTEX
  8
図枠
  5
10F7
 10
64.4106
 20
-64.8340
 30
0.000000
  70
    32
  0
VERTEX
  8
図枠
  5
10F8
 10
64.4134
 20
-64.8368
 30
0.000000
  70
    32
  0
VERTEX
  8
図枠
  5
10F9
 10
64.4161
 20
-64.8396
 30
0.000000
  70
    32
  0
VERTEX
  8
図枠
  5
10FA
 10
64.4188
 20
-64.8424
 30
0.000000
  70
    32
  0
VERTEX
  8
図枠
  5
10FB
 10
64.4216
 20
-64.8452
 30
0.000000
  70
    32
  0
VERTEX
  8
図枠
  5
10FC
 10
64.4243
 20
-64.8480
 30
0.000000
  70
    32
  0
VERTEX
  8
図枠
  5
10FD
 10
64.4270
 20
-64.8508
 30
0.000000
  70
    32
  0
VERTEX
  8
図枠
  5
10FE
 10
64.4298
 20
-64.8536
 30
0.000000
  70
    32
  0
VERTEX
  8
図枠
  5
10FF
 10
64.4325
 20
-64.8563
 30
0.000000
  70
    32
  0
VERTEX
  8
図枠
  5
1100
 10
64.4353
 20
-64.8591
 30
0.000000
  70
    32
  0
VERTEX
  8
図枠
  5
1101
 10
64.4380
 20
-64.8619
 30
0.000000
  70
    32
  0
VERTEX
  8
図枠
  5
1102
 10
64.4408
 20
-64.8646
 30
0.000000
  70
    32
  0
VERTEX
  8
図枠
  5
1103
 10
64.4435
 20
-64.8674
 30
0.000000
  70
    32
  0
VERTEX
  8
図枠
  5
1104
 10
64.4463
 20
-64.8702
 30
0.000000
  70
    32
  0
VERTEX
  8
図枠
  5
1105
 10
64.4490
 20
-64.8729
 30
0.000000
  70
    32
  0
VERTEX
  8
図枠
  5
1106
 10
64.4518
 20
-64.8757
 30
0.000000
  70
    32
  0
VERTEX
  8
図枠
  5
1107
 10
64.4546
 20
-64.8784
 30
0.000000
  70
    32
  0
VERTEX
  8
図枠
  5
1108
 10
64.4573
 20
-64.8811
 30
0.000000
  70
    32
  0
VERTEX
  8
図枠
  5
1109
 10
64.4601
 20
-64.8839
 30
0.000000
  70
    32
  0
VERTEX
  8
図枠
  5
110A
 10
64.4629
 20
-64.8866
 30
0.000000
  70
    32
  0
VERTEX
  8
図枠
  5
110B
 10
64.4657
 20
-64.8893
 30
0.000000
  70
    32
  0
VERTEX
  8
図枠
  5
110C
 10
64.4684
 20
-64.8920
 30
0.000000
  70
    32
  0
VERTEX
  8
図枠
  5
110D
 10
64.4712
 20
-64.8948
 30
0.000000
  70
    32
  0
VERTEX
  8
図枠
  5
110E
 10
64.4740
 20
-64.8975
 30
0.000000
  70
    32
  0
VERTEX
  8
図枠
  5
110F
 10
64.4768
 20
-64.9002
 30
0.000000
  70
    32
  0
VERTEX
  8
図枠
  5
1110
 10
64.4796
 20
-64.9029
 30
0.000000
  70
    32
  0
VERTEX
  8
図枠
  5
1111
 10
64.4824
 20
-64.9056
 30
0.000000
  70
    32
  0
VERTEX
  8
図枠
  5
1112
 10
64.4852
 20
-64.9083
 30
0.000000
  70
    32
  0
VERTEX
  8
図枠
  5
1113
 10
64.4880
 20
-64.9110
 30
0.000000
  70
    32
  0
VERTEX
  8
図枠
  5
1114
 10
64.4908
 20
-64.9137
 30
0.000000
  70
    32
  0
VERTEX
  8
図枠
  5
1115
 10
64.4936
 20
-64.9163
 30
0.000000
  70
    32
  0
VERTEX
  8
図枠
  5
1116
 10
64.4964
 20
-64.9190
 30
0.000000
  70
    32
  0
VERTEX
  8
図枠
  5
1117
 10
64.4992
 20
-64.9217
 30
0.000000
  70
    32
  0
VERTEX
  8
図枠
  5
1118
 10
64.5020
 20
-64.9243
 30
0.000000
  70
    32
  0
VERTEX
  8
図枠
  5
1119
 10
64.5048
 20
-64.9270
 30
0.000000
  70
    32
  0
VERTEX
  8
図枠
  5
111A
 10
64.5076
 20
-64.9297
 30
0.000000
  70
    32
  0
VERTEX
  8
図枠
  5
111B
 10
64.5104
 20
-64.9323
 30
0.000000
  70
    32
  0
VERTEX
  8
図枠
  5
111C
 10
64.5133
 20
-64.9350
 30
0.000000
  70
    32
  0
VERTEX
  8
図枠
  5
111D
 10
64.5161
 20
-64.9376
 30
0.000000
  70
    32
  0
VERTEX
  8
図枠
  5
111E
 10
64.5189
 20
-64.9402
 30
0.000000
  70
    32
  0
VERTEX
  8
図枠
  5
111F
 10
64.5218
 20
-64.9429
 30
0.000000
  70
    32
  0
VERTEX
  8
図枠
  5
1120
 10
64.5246
 20
-64.9455
 30
0.000000
  70
    32
  0
VERTEX
  8
図枠
  5
1121
 10
64.5274
 20
-64.9481
 30
0.000000
  70
    32
  0
VERTEX
  8
図枠
  5
1122
 10
64.5303
 20
-64.9507
 30
0.000000
  70
    32
  0
VERTEX
  8
図枠
  5
1123
 10
64.5331
 20
-64.9533
 30
0.000000
  70
    32
  0
VERTEX
  8
図枠
  5
1124
 10
64.5360
 20
-64.9559
 30
0.000000
  70
    32
  0
VERTEX
  8
図枠
  5
1125
 10
64.5388
 20
-64.9585
 30
0.000000
  70
    32
  0
VERTEX
  8
図枠
  5
1126
 10
64.5417
 20
-64.9611
 30
0.000000
  70
    32
  0
SEQEND
  8
図枠
  5
1127
  0
LINE
  5
88
  8
図枠
 10
62.823406487500002
 20
-64.167198418899986
 30
0.0
 11
64.823406487499994
 21
-64.167198418899986
 31
0.0
  0
LINE
  5
89
  8
図枠
 10
70.910399546800008
 20
-64.127198418900008
 30
0.0
 11
70.910399546800008
 21
-64.847198418900007
 31
0.0
  0
LINE
  5
8A
  8
図枠
 10
69.384227589199995
 20
-63.923706862700001
 30
0.0
 11
69.710399546800005
 21
-63.447198418900001
 31
0.0
  0
LINE
  5
8B
  8
図枠
 10
60.15916406329999
 20
-64.247198418899998
 30
0.0
 11
59.3591640633
 21
-64.247198418899998
 31
0.0
  0
LINE
  5
8C
  8
図枠
 10
59.959164063300001
 20
-63.447198418900001
 30
0.0
 11
58.359164063299993
 21
-63.447198418900001
 31
0.0
  0
LINE
  5
8D
  8
図枠
 10
59.3591640633
 20
-64.04719841890001
 30
0.0
 11
59.959164063300001
 21
-63.447198418900001
 31
0.0
  0
LINE
  5
8E
  8
図枠
 10
58.359164063299993
 20
-64.247198418899998
 30
0.0
 11
57.8987225387
 21
-64.247198418899998
 31
0.0
  0
ARC
  5
8F
  8
図枠
 10
59.959164063300001
 20
-65.047198418899995
 30
0.0
 40
1.1999999999999991
 50
270.0
 51
0.0
  0
ARC
  5
90
  8
図枠
 10
63.303406487499998
 20
-64.127198418900008
 30
0.0
 40
1.52
 50
270.0
 51
298.08590481520002
  0
LINE
  5
91
  8
図枠
 10
69.649975920900005
 20
-64.847198418900007
 30
0.0
 11
70.910399546800008
 21
-64.847198418900007
 31
0.0
  0
LINE
  5
92
  8
図枠
 10
60.15916406329999
 20
-63.447198418900001
 30
0.0
 11
60.15916406329999
 21
-64.247198418899998
 31
0.0
  0
LINE
  5
93
  8
図枠
 10
70.910399546800008
 20
-65.1671984189
 30
0.0
 11
70.910399546800008
 21
-65.887198418899999
 31
0.0
  0
LINE
  5
94
  8
図枠
 10
66.423406487500003
 20
-65.647198418900004
 30
0.0
 11
66.423406487500003
 21
-66.247198418899998
 31
0.0
  0
LINE
  5
95
  8
図枠
 10
70.729803785900003
 20
-55.234267605600003
 30
0.0
 11
70.729803785900003
 21
-57.538267605599998
 31
0.0
  0
INSERT
  5
96
  8
0
  6
CONTINUOUS
  2
*U17
 10
0.0
 20
0.0
 30
0.0
  0
LINE
  5
97
  8
図枠
 10
53.760563380299999
 20
-56.386267605600011
 30
0.0
 11
60.760563380299992
 21
-56.386267605600011
 31
0.0
  0
LINE
  5
98
  8
図枠
 10
58.760563380299999
 20
-60.636267605599997
 30
0.0
 11
71.760563380299999
 21
-60.636267605599997
 31
0.0
  0
LINE
  5
99
  8
図枠
 10
43.760563380299992
 20
-60.636267605599997
 30
0.0
 11
56.760563380299999
 21
-60.636267605599997
 31
0.0
  0
LINE
  5
9A
  8
図枠
 10
62.760563380299999
 20
-54.261267605599997
 30
0.0
 11
62.760563380299999
 21
-58.511267605599997
 31
0.0
  0
LINE
  5
9B
  8
図枠
 10
52.760563380299999
 20
-54.261267605599997
 30
0.0
 11
52.760563380299999
 21
-58.511267605599997
 31
0.0
  0
LINE
  5
9C
  8
図枠
 10
52.760563380299999
 20
-54.261267605599997
 30
0.0
 11
52.760563380299999
 21
-46.011267605599997
 31
0.0
  0
LINE
  5
9D
  8
図枠
 10
57.760563380299999
 20
-58.511267605599997
 30
0.0
 11
57.760563380299999
 21
-62.761267605599997
 31
0.0
  0
LINE
  5
9E
  8
図枠
 10
58.359164063299993
 20
-65.647198418900004
 30
0.0
 11
58.359164063299993
 21
-66.247198418899998
 31
0.0
  0
ARC
  5
9F
  8
図枠
 10
59.559164063300003
 20
-65.047198418899995
 30
0.0
 40
0.6
 50
270.0
 51
0.0
  0
LINE
  5
A0
  8
図枠
 10
62.823406487500002
 20
-64.376042525900004
 30
0.0
 11
64.423406487500003
 21
-64.376042525900004
 31
0.0
  0
LINE
  5
A1
  8
図枠
 10
61.159164063299997
 20
-65.047198418899995
 30
0.0
 11
61.159164063299997
 21
-64.847198418900007
 31
0.0
  0
LINE
  5
A2
  8
図枠
 10
62.823406487500002
 20
-65.647198418900004
 30
0.0
 11
63.303406487499998
 21
-65.647198418900004
 31
0.0
  0
LINE
  5
A3
  8
図枠
 10
68.110399546799997
 20
-63.447198418900001
 30
0.0
 11
69.710399546800005
 21
-63.447198418900001
 31
0.0
  0
LINE
  5
A4
  8
図枠
 10
66.023406487499997
 20
-64.04719841890001
 30
0.0
 11
66.423406487500003
 21
-63.447198418900001
 31
0.0
  0
LINE
  5
A5
  8
図枠
 10
58.359164063299993
 20
-66.247198418899998
 30
0.0
 11
59.959164063300001
 21
-66.247198418899998
 31
0.0
  0
LINE
  5
A6
  8
図枠
 10
62.823406487500002
 20
-66.247198418899998
 30
0.0
 11
63.823406487500002
 21
-66.247198418899998
 31
0.0
  0
ARC
  5
A7
  8
図枠
 10
63.303406487499998
 20
-64.127198418900008
 30
0.0
 40
1.52
 50
331.39928138329998
 51
358.49204224580001
  0
LINE
  5
A8
  8
図枠
 10
61.759164063299991
 20
-64.247198418899998
 30
0.0
 11
61.159164063299997
 21
-64.247198418899998
 31
0.0
  0
LINE
  5
A9
  8
図枠
 10
60.15916406329999
 20
-64.847198418900007
 30
0.0
 11
60.15916406329999
 21
-65.047198418899995
 31
0.0
  0
LINE
  5
AA
  8
図枠
 10
59.3591640633
 20
-64.847198418900007
 30
0.0
 11
60.15916406329999
 21
-64.847198418900007
 31
0.0
  0
ARC
  5
AB
  8
図枠
 10
63.823406487500002
 20
-64.04719841890001
 30
0.0
 40
2.2000000000000002
 50
322.48761197969998
 51
0.0
  0
LINE
  5
AC
  8
図枠
 10
62.823406487500002
 20
-66.247198418899998
 30
0.0
 11
62.823406487500002
 21
-65.647198418900004
 31
0.0
  0
LINE
  5
AD
  8
図枠
 10
70.110399546799997
 20
-66.447198418900001
 30
0.0
 11
69.949251277800002
 21
-65.887198418899999
 31
0.0
  0
LINE
  5
AE
  8
図枠
 10
42.760563380299999
 20
-46.011267605599997
 30
0.0
 11
100.7605633803
 21
-46.011267605599997
 31
0.0
  0
LINE
  5
AF
  8
図枠
  6
BORDER
 10
65.792563380299995
 20
-54.658267605600003
 30
0.0
 11
65.792563380299995
 21
-58.114267605599998
 31
0.0
  0
LINE
  5
B0
  8
図枠
 10
70.729803785900003
 20
-55.234267605600003
 30
0.0
 11
70.729803785900003
 21
-57.538267605599998
 31
0.0
  0
LINE
  5
B1
  8
図枠
 10
68.425803785900001
 20
-55.810267605600004
 30
0.0
 11
68.425803785900001
 21
-56.962267605599997
 31
0.0
  0
LINE
  5
B2
  8
図枠
 10
68.425803785900001
 20
-56.962267605599997
 30
0.0
 11
70.729803785900003
 21
-57.538267605599998
 31
0.0
  0
LINE
  5
B3
  8
図枠
 10
68.425803785900001
 20
-55.810267605600004
 30
0.0
 11
70.729803785900003
 21
-55.234267605600003
 31
0.0
  0
CIRCLE
  5
B4
  8
図枠
 10
65.792563380299995
 20
-56.386267605600011
 30
0.0
 40
1.1519999999999999
  0
CIRCLE
  5
B5
  8
図枠
 10
65.792563380299995
 20
-56.386267605600011
 30
0.0
 40
0.5760000000000001
  0
LINE
  5
B6
  8
図枠
  6
BORDER
 10
64.064563380300001
 20
-56.386267605600011
 30
0.0
 11
71.456563380299997
 21
-56.386267605600011
 31
0.0
  0
LINE
  5
B7
  8
図枠
 10
62.823406487500002
 20
-63.447198418900001
 30
0.0
 11
62.823406487500002
 21
-64.167198418899986
 31
0.0
  0
LINE
  5
B8
  8
図枠
 10
72.760563380299999
 20
-54.261267605599997
 30
0.0
 11
72.760563380299999
 21
-67.011267605600011
 31
0.0
  0
CIRCLE
  5
B9
  8
図枠
 10
65.792563380299995
 20
-56.386267605600011
 30
0.0
 40
1.1519999999999999
  0
LINE
  5
BA
  8
図枠
 10
68.425803785900001
 20
-55.810267605600004
 30
0.0
 11
70.729803785900003
 21
-55.234267605600003
 31
0.0
  0
LINE
  5
BB
  8
図枠
 10
67.310399546799985
 20
-65.1671984189
 30
0.0
 11
67.310399546799985
 21
-65.887198418899999
 31
0.0
  0
LINE
  5
BC
  8
図枠
 10
59.3591640633
 20
-65.447198418900001
 30
0.0
 11
59.3591640633
 21
-64.847198418900007
 31
0.0
  0
LINE
  5
BD
  8
図枠
 10
69.949251277800002
 20
-65.887198418899999
 30
0.0
 11
70.910399546800008
 21
-65.887198418899999
 31
0.0
  0
LINE
  5
BE
  8
図枠
 10
67.310399546799985
 20
-64.127198418900008
 30
0.0
 11
67.310399546799985
 21
-64.847198418900007
 31
0.0
  0
LINE
  5
BF
  8
図枠
 10
61.159164063299997
 20
-64.847198418900007
 30
0.0
 11
61.759164063299991
 21
-64.847198418900007
 31
0.0
  0
LINE
  5
C0
  8
図枠
 10
68.990399546800006
 20
-66.447198418900001
 30
0.0
 11
68.826132880200007
 21
-65.887198418899999
 31
0.0
  0
LINE
  5
C1
  8
図枠
 10
59.559164063300003
 20
-65.647198418900004
 30
0.0
 11
58.359164063299993
 21
-65.647198418900004
 31
0.0
  0
LINE
  5
C2
  8
図枠
 10
70.729803785900003
 20
-55.234267605600003
 30
0.0
 11
70.729803785900003
 21
-57.538267605599998
 31
0.0
  0
LINE
  5
C3
  8
図枠
 10
68.425803785900001
 20
-56.962267605599997
 30
0.0
 11
70.729803785900003
 21
-57.538267605599998
 31
0.0
  0
LINE
  5
C4
  8
図枠
 10
68.425803785900001
 20
-55.810267605600004
 30
0.0
 11
68.425803785900001
 21
-56.962267605599997
 31
0.0
  0
LINE
  5
C5
  8
図枠
  6
BORDER
 10
65.792563380299995
 20
-54.658267605600003
 30
0.0
 11
65.792563380299995
 21
-58.114267605599998
 31
0.0
  0
LINE
  5
C6
  8
図枠
 10
68.425803785900001
 20
-55.810267605600004
 30
0.0
 11
68.425803785900001
 21
-56.962267605599997
 31
0.0
  0
LINE
  5
C7
  8
図枠
 10
70.729803785900003
 20
-55.234267605600003
 30
0.0
 11
70.729803785900003
 21
-57.538267605599998
 31
0.0
  0
LINE
  5
C8
  8
図枠
  6
BORDER
 10
65.792563380299995
 20
-54.658267605600003
 30
0.0
 11
65.792563380299995
 21
-58.114267605599998
 31
0.0
  0
LINE
  5
C9
  8
図枠
  6
BORDER
 10
65.792563380299995
 20
-54.658267605600003
 30
0.0
 11
65.792563380299995
 21
-58.114267605599998
 31
0.0
  0
LINE
  5
CA
  8
図枠
 10
71.760563380299999
 20
-48.761267605599997
 30
0.0
 11
71.760563380299999
 21
-46.011267605599997
 31
0.0
  0
LINE
  5
CB
  8
図枠
 10
80.760563380299985
 20
-48.761267605599997
 30
0.0
 11
80.760563380299985
 21
-46.011267605599997
 31
0.0
  0
INSERT
  5
CC
  8
0
  6
CONTINUOUS
  2
*U18
 10
0.0
 20
0.0
 30
0.0
  0
CIRCLE
  5
CD
  8
図枠
 10
65.792563380299995
 20
-56.386267605600011
 30
0.0
 40
1.1519999999999999
  0
LINE
  5
CE
  8
図枠
 10
68.425803785900001
 20
-55.810267605600004
 30
0.0
 11
70.729803785900003
 21
-55.234267605600003
 31
0.0
  0
LINE
  5
CF
  8
図枠
 10
68.425803785900001
 20
-56.962267605599997
 30
0.0
 11
70.729803785900003
 21
-57.538267605599998
 31
0.0
  0
INSERT
  5
D0
  8
0
  6
CONTINUOUS
  2
*U19
 10
0.0
 20
0.0
 30
0.0
  0
LINE
  5
D1
  8
図枠
 10
42.760563380299999
 20
-58.511267605599997
 30
0.0
 11
100.7605633803
 21
-58.511267605599997
 31
0.0
  0
LINE
  5
D2
  8
図枠
 10
42.760563380299999
 20
-54.261267605599997
 30
0.0
 11
100.7605633803
 21
-54.261267605599997
 31
0.0
  0
LINE
  5
D3
  8
図枠
 10
43.760563380299992
 20
-56.386267605600011
 30
0.0
 11
51.760563380299999
 21
-56.386267605600011
 31
0.0
  0
LINE
  5
D4
  8
図枠
 10
67.310399546799985
 20
-64.847198418900007
 30
0.0
 11
68.521066213500006
 21
-64.847198418900007
 31
0.0
  0
LINE
  5
D5
  8
図枠
 10
58.359164063299993
 20
-64.847198418900007
 30
0.0
 11
58.359164063299993
 21
-65.447198418900001
 31
0.0
  0
LINE
  5
D6
  8
図枠
 10
58.359164063299993
 20
-63.447198418900001
 30
0.0
 11
58.359164063299993
 21
-64.247198418899998
 31
0.0
  0
LINE
  5
D7
  8
図枠
 10
68.309866213500001
 20
-64.127198418900008
 30
0.0
 11
68.110399546799997
 21
-63.447198418900001
 31
0.0
  0
LINE
  5
D8
  8
図枠
 10
69.442785289300005
 20
-64.127198418900008
 30
0.0
 11
70.910399546800008
 21
-64.127198418900008
 31
0.0
  0
LINE
  5
D9
  8
図枠
 10
64.423406487500003
 20
-64.376042525900004
 30
0.0
 11
64.197132317500007
 21
-64.602316695900001
 31
0.0
  0
LINE
  5
DA
  8
図枠
 10
62.823406487500002
 20
-64.504886632899996
 30
0.0
 11
62.823406487500002
 21
-64.376042525900004
 31
0.0
  0
INSERT
  5
DB
  8
0
  6
CONTINUOUS
  2
*U20
 10
0.0
 20
0.0
 30
0.0
  0
INSERT
  5
DC
  8
0
  6
CONTINUOUS
  2
*U21
 10
0.0
 20
0.0
 30
0.0
  0
INSERT
  5
DD
  8
0
  6
CONTINUOUS
  2
*U22
 10
0.0
 20
0.0
 30
0.0
  0
LINE
  5
DE
  8
図枠
 10
42.760563380299999
 20
-51.511267605599997
 30
0.0
 11
100.7605633803
 21
-51.511267605599997
 31
0.0
  0
LINE
  5
DF
  8
図枠
 10
42.760563380299999
 20
-48.761267605599997
 30
0.0
 11
100.7605633803
 21
-48.761267605599997
 31
0.0
  0
INSERT
  5
E0
  8
0
  6
CONTINUOUS
  2
*U23
 10
0.0
 20
0.0
 30
0.0
  0
INSERT
  5
E1
  8
0
  6
CONTINUOUS
  2
*U24
 10
0.0
 20
0.0
 30
0.0
  0
INSERT
  5
E2
  8
0
  6
CONTINUOUS
  2
*U25
 10
0.0
 20
0.0
 30
0.0
  0
INSERT
  5
E3
  8
0
  6
CONTINUOUS
  2
*U26
 10
0.0
 20
0.0
 30
0.0
  0
INSERT
  5
E4
  8
0
  6
CONTINUOUS
  2
*U27
 10
0.0
 20
0.0
 30
0.0
  0
INSERT
  5
E5
  8
0
  6
CONTINUOUS
  2
*U28
 10
0.0
 20
0.0
 30
0.0
  0
LINE
  5
E6
  8
図枠
 10
68.425803785900001
 20
-55.810267605600004
 30
0.0
 11
68.425803785900001
 21
-56.962267605599997
 31
0.0
  0
CIRCLE
  5
E7
  8
図枠
 10
65.792563380299995
 20
-56.386267605600011
 30
0.0
 40
1.1519999999999999
  0
CIRCLE
  5
E8
  8
図枠
 10
65.792563380299995
 20
-56.386267605600011
 30
0.0
 40
0.5760000000000001
  0
LINE
  5
E9
  8
図枠
 10
68.425803785900001
 20
-56.962267605599997
 30
0.0
 11
70.729803785900003
 21
-57.538267605599998
 31
0.0
  0
LINE
  5
EA
  8
図枠
 10
68.425803785900001
 20
-55.810267605600004
 30
0.0
 11
70.729803785900003
 21
-55.234267605600003
 31
0.0
  0
CIRCLE
  5
EB
  8
図枠
 10
65.792563380299995
 20
-56.386267605600011
 30
0.0
 40
0.5760000000000001
  0
INSERT
  5
EC
  8
0
  6
CONTINUOUS
  2
*U29
 10
0.0
 20
0.0
 30
0.0
  0
INSERT
  5
ED
  8
0
  6
CONTINUOUS
  2
*U30
 10
0.0
 20
0.0
 30
0.0
  0
INSERT
  5
EE
  8
0
  6
CONTINUOUS
  2
*U31
 10
0.0
 20
0.0
 30
0.0
  0
INSERT
  5
EF
  8
0
  6
CONTINUOUS
  2
*U32
 10
0.0
 20
0.0
 30
0.0
  0
LINE
  5
F0
  8
図枠
 10
42.760563380299999
 20
-62.761267605599997
 30
0.0
 11
100.7605633803
 21
-62.761267605599997
 31
0.0
  0
CIRCLE
  5
F1
  8
図枠
 10
65.792563380299995
 20
-56.386267605600011
 30
0.0
 40
0.5760000000000001
  0
INSERT
  5
F2
  8
0
  6
CONTINUOUS
  2
*U33
 10
0.0
 20
0.0
 30
0.0
  0
LINE
  5
F3
  8
図枠
 10
42.760563380299999
 20
-46.011267605599997
 30
0.0
 11
42.760563380299999
 21
-54.261267605599997
 31
0.0
  0
LINE
  5
F4
  8
図枠
 10
42.760563380299999
 20
-54.261267605599997
 30
0.0
 11
42.760563380299999
 21
-67.011267605600011
 31
0.0
  0
LINE
  5
F5
  8
図枠
 10
42.760563380299999
 20
-46.011267605599997
 30
0.0
 11
42.760563380299999
 21
-54.261267605599997
 31
0.0
  0
INSERT
  5
F6
  8
0
  6
CONTINUOUS
  2
*U34
 10
0.0
 20
0.0
 30
0.0
  0
INSERT
  5
F7
  8
0
  6
CONTINUOUS
  2
*U35
 10
0.0
 20
0.0
 30
0.0
  0
INSERT
  5
F8
  8
0
  6
CONTINUOUS
  2
*U36
 10
0.0
 20
0.0
 30
0.0
  0
LINE
  5
F9
  8
ﾚｲﾔ_1
 62
     5
 10
14.450974366500001
 20
-34.394231234899998
 30
0.0
 11
14.4509741431
 21
-31.894231056199999
 31
0.0
  0
LINE
  5
FA
  8
ﾚｲﾔ_1
 62
     5
 10
28.950973785599999
 20
-29.8942286431
 30
0.0
 11
16.450973785599999
 21
-29.894230877399998
 31
0.0
  0
ARC
  5
FB
  8
ﾚｲﾔ_1
 62
     5
 10
28.950974143100002
 20
-31.8942286431
 30
0.0
 40
2.0
 50
0.0000051206
 51
90.000010241200016
  0
ARC
  5
FC
  8
ﾚｲﾔ_1
 62
     5
 10
16.450974143100002
 20
-31.894230877399998
 30
0.0
 40
2.0
 50
90.000010241200016
 51
180.00000512060001
  0
LINE
  5
FD
  8
ﾚｲﾔ_1
 62
     5
 10
30.950974143100002
 20
-31.894228464400001
 30
0.0
 11
30.950974366500009
 21
-34.394228285700009
 31
0.0
  0
LINE
  5
FE
  8
ﾚｲﾔ_1
 62
     5
 10
28.650974813400001
 20
-34.394228696799999
 30
0.0
 11
28.650974527399999
 21
-33.294228670000003
 31
0.0
  0
LINE
  5
FF
  8
ﾚｲﾔ_1
 62
     5
 10
16.750974366499999
 20
-34.394230823800001
 30
0.0
 11
16.750974259300001
 21
-33.294230796999997
 31
0.0
  0
LINE
  5
100
  8
ﾚｲﾔ_1
  6
STITCH
 10
26.8512810844
 20
-11.9747584541
 30
0.0
 11
26.8512810844
 21
-13.4747584541
 31
0.0
  0
LINE
  5
101
  8
ﾚｲﾔ_1
  6
STITCH
 10
26.070951027900001
 20
-14.6944283389
 30
0.0
 11
25.5545262286
 21
-15.210853138199999
 31
0.0
  0
LINE
  5
102
  8
ﾚｲﾔ_1
 62
     5
 10
15.4509742754
 20
-33.381507315599997
 30
0.0
 11
15.4509741431
 21
-31.894230966799999
 31
0.0
  0
LINE
  5
103
  8
ﾚｲﾔ_1
 62
     5
 10
16.7509742678
 20
-33.381507083199999
 30
0.0
 11
15.4509742754
 21
-33.381507315599997
 31
0.0
  0
LINE
  5
104
  8
ﾚｲﾔ_1
 62
     5
 10
15.4509742754
 20
-33.381507315599997
 30
0.0
 11
15.5382499847
 21
-33.294231013800001
 31
0.0
  0
LINE
  5
105
  8
ﾚｲﾔ_1
 62
     5
 10
29.950974264100001
 20
-33.381504723799999
 30
0.0
 11
28.650974550099999
 21
-33.381504956199997
 31
0.0
  0
LINE
  5
106
  8
ﾚｲﾔ_1
 62
     5
 10
29.950974143100002
 20
-31.894228553800001
 30
0.0
 11
29.950974264100001
 21
-33.381504723799999
 31
0.0
  0
LINE
  5
107
  8
ﾚｲﾔ_1
 62
     5
 10
29.863698551799999
 20
-33.294228453199999
 30
0.0
 11
29.950974264100001
 21
-33.381504723799999
 31
0.0
  0
DIMENSION
  5
116
  8
寸法線
  2
*D2
 10
35.450973085100003
 20
-16.974758454100002
 30
0.0
 11
35.450973085100003
 21
-13.4747584541
 31
0.0
 70
   128
  1
<>
 13
30.450973085099999
 23
-16.974758454100002
 33
0.0
 14
29.641955993300002
 24
-9.9747584540999998
 34
0.0
 50
90.0
  0
DIMENSION
  5
11E
  8
寸法線
  2
*D3
 10
28.950974143100002
 20
-31.8942286431
 30
0.0
 11
40.47323519079999
 21
-28.119128030100001
 31
0.0
 70
   132
  1
<>
 15
30.365187705499999
 25
-30.480015080800001
 35
0.0
 40
0.0
  0
LINE
  5
11F
  8
ﾚｲﾔ_1
 10
14.950974366500001
 20
-34.39423119020001
 30
0.0
 11
14.9509741431
 21
-31.894231011500001
 31
0.0
  0
INSERT
  5
120
  8
0
  6
CONTINUOUS
  2
*U37
 10
0.0
 20
0.0
 30
0.0
  0
INSERT
  5
121
  8
0
  6
CONTINUOUS
  2
*U38
 10
0.0
 20
0.0
 30
0.0
  0
INSERT
  5
122
  8
0
  6
CONTINUOUS
  2
*U39
 10
0.0
 20
0.0
 30
0.0
  0
INSERT
  5
123
  8
0
  6
CONTINUOUS
  2
*U40
 10
0.0
 20
0.0
 30
0.0
  0
INSERT
  5
124
  8
0
  6
CONTINUOUS
  2
*U41
 10
0.0
 20
0.0
 30
0.0
  0
INSERT
  5
125
  8
0
  6
CONTINUOUS
  2
*U42
 10
0.0
 20
0.0
 30
0.0
  0
INSERT
  5
126
  8
0
  6
CONTINUOUS
  2
*U43
 10
0.0
 20
0.0
 30
0.0
  0
LINE
  5
127
  8
ﾚｲﾔ_1
 62
     5
 10
19.490004719200002
 20
-16.974758454100002
 30
0.0
 11
20.1364513286
 21
-17.6212050635
 31
0.0
  0
LINE
  5
128
  8
ﾚｲﾔ_1
 62
     5
 10
18.550664890899998
 20
-18.474758454100002
 30
0.0
 11
19.782897938000001
 21
-18.474758454100002
 31
0.0
  0
ARC
  5
129
  8
ﾚｲﾔ_1
 62
     5
 10
19.782897938000001
 20
-17.974758454100002
 30
0.0
 40
0.5
 50
270.0
 51
45.0
  0
LINE
  5
12A
  8
ﾚｲﾔ_1
 62
     5
 10
25.911941256199999
 20
-16.974758454100002
 30
0.0
 11
25.265494646800001
 21
-17.6212050635
 31
0.0
  0
LINE
  5
12B
  8
ﾚｲﾔ_1
 62
     5
 10
26.8512810844
 20
-18.474758454100002
 30
0.0
 11
25.619048037399999
 21
-18.474758454100002
 31
0.0
  0
ARC
  5
12C
  8
ﾚｲﾔ_1
 62
     5
 10
25.619048037399999
 20
-17.974758454100002
 30
0.0
 40
0.5
 50
135.0
 51
270.0
  0
LINE
  5
12D
  8
ﾚｲﾔ_1
 62
     5
 10
19.050664890899998
 20
-20.974758454100002
 30
0.0
 11
26.3512810844
 21
-20.974758454100002
 31
0.0
  0
ARC
  5
12E
  8
ﾚｲﾔ_1
 62
     5
 10
25.050664890899998
 20
-18.474758454100002
 30
0.0
 40
6.5
 50
180.0
 51
202.61986494799999
  0
ARC
  5
12F
  8
ﾚｲﾔ_1
 62
     5
 10
20.3512810844
 20
-18.474758454100002
 30
0.0
 40
6.5
 50
337.38013505200001
 51
0.0
  0
LINE
  5
130
  8
ﾚｲﾔ_1
 10
28.950973874999999
 20
-30.3942286431
 30
0.0
 11
16.450973874999999
 21
-30.394230877399998
 31
0.0
  0
ARC
  5
131
  8
ﾚｲﾔ_1
 10
28.950974143100002
 20
-31.8942286431
 30
0.0
 40
1.5
 50
0.0000051206
 51
90.000010241200016
  0
ARC
  5
132
  8
ﾚｲﾔ_1
 10
16.450974143100002
 20
-31.894230877399998
 30
0.0
 40
1.5
 50
90.000010241200016
 51
180.00000512060001
  0
LINE
  5
133
  8
ﾚｲﾔ_1
 10
30.450974143100002
 20
-31.8942285091
 30
0.0
 11
30.450974366499999
 21
-34.394228330300002
 31
0.0
  0
LINE
  5
134
  8
ﾚｲﾔ_1
 62
     5
 10
16.750974259300001
 20
-33.294230796999997
 30
0.0
 11
15.5382499847
 21
-33.294231013800001
 31
0.0
  0
LINE
  5
135
  8
ﾚｲﾔ_1
 62
     5
 10
15.5382498595
 20
-31.894230769100002
 30
0.0
 11
15.5382499847
 21
-33.294231013800001
 31
0.0
  0
ARC
  5
136
  8
ﾚｲﾔ_1
 62
     5
 10
28.950974143100002
 20
-31.8942286431
 30
0.0
 40
1.0
 50
0.0000051206
 51
89.949291321700002
  0
LINE
  5
137
  8
ﾚｲﾔ_1
 62
     5
 10
28.951859176399999
 20
-30.894229034799999
 30
0.0
 11
16.450088752300001
 21
-30.894231269399999
 31
0.0
  0
LINE
  5
138
  8
ﾚｲﾔ_1
 10
14.4509729877
 20
-16.474758454100002
 30
0.0
 11
30.950972987699998
 21
-16.474758454100002
 31
0.0
  0
ARC
  5
139
  8
ﾚｲﾔ_1
 62
     5
 10
16.450974143100002
 20
-31.894230877399998
 30
0.0
 40
1.0
 50
90.050729160700001
 51
180.00000512060001
  0
LINE
  5
13A
  8
ﾚｲﾔ_1
 62
     5
 10
29.863698551799999
 20
-33.294228453199999
 30
0.0
 11
29.863698426700001
 21
-31.894228417400001
 31
0.0
  0
LINE
  5
13B
  8
ﾚｲﾔ_1
 62
     5
 10
29.863698551799999
 20
-33.294228453199999
 30
0.0
 11
28.650974527399999
 21
-33.294228670000003
 31
0.0
  0
ARC
  5
13C
  8
ﾚｲﾔ_1
 62
     5
 10
28.950974143100002
 20
-31.8942286431
 30
0.0
 40
0.9127242836
 50
0.00001417
 51
89.999999140799986
  0
LINE
  5
13D
  8
ﾚｲﾔ_1
 62
     5
 10
28.950974156800001
 20
-30.981504359599999
 30
0.0
 11
16.450974168799998
 21
-30.981506593900001
 31
0.0
  0
ARC
  5
13E
  8
ﾚｲﾔ_1
 62
     5
 10
16.450974143100002
 20
-31.894230877399998
 30
0.0
 40
0.9127242836
 50
89.999998387600002
 51
179.9999931994
  0
LINE
  5
13F
  8
ﾚｲﾔ_1
 62
     5
 10
30.950974366500009
 20
-34.394228285700009
 30
0.0
 11
14.450974366500001
 21
-34.394231234899998
 31
0.0
  0
LINE
  5
140
  8
ﾚｲﾔ_1
  6
STITCH
 10
26.8512810844
 20
-13.4747584541
 30
0.0
 11
25.876407350299999
 21
-13.4747584541
 31
0.0
  0
LINE
  5
141
  8
ﾚｲﾔ_1
 62
     5
 10
27.351281439400001
 20
-33.2513245134
 30
0.0
 11
18.050665245899999
 21
-33.251326175800003
 31
0.0
  0
LINE
  5
142
  8
ﾚｲﾔ_1
 62
     5
 10
18.550665540899999
 20
-34.39423064830001
 30
0.0
 11
18.550665449
 21
-33.251326086500001
 31
0.0
  0
LINE
  5
143
  8
ﾚｲﾔ_1
 62
     5
 10
19.0506660219
 20
-34.3942305996
 30
0.0
 11
19.050665929899999
 21
-33.251325997100011
 31
0.0
  0
LINE
  5
144
  8
ﾚｲﾔ_1
 62
     5
 10
26.351282215299999
 20
-34.394229887800002
 30
0.0
 11
26.351282123400001
 21
-33.251324692200001
 31
0.0
  0
LINE
  5
145
  8
ﾚｲﾔ_1
 62
     5
 10
26.851281673500001
 20
-34.394229839099999
 30
0.0
 11
26.8512815815
 21
-33.251324602800011
 31
0.0
  0
LINE
  5
146
  8
ﾚｲﾔ_1
 62
     5
 10
18.050665337799991
 20
-34.394230551299998
 30
0.0
 11
18.0506652306
 21
-33.094230680800003
 31
0.0
  0
LINE
  5
147
  8
ﾚｲﾔ_1
 62
     5
 10
27.3512815313
 20
-34.394229719999998
 30
0.0
 11
27.351281424
 21
-33.094229849599998
 31
0.0
  0
LINE
  5
148
  8
ﾚｲﾔ_1
 62
     5
 10
27.351281424
 20
-33.094229849599998
 30
0.0
 11
18.0506652306
 21
-33.094230680800003
 31
0.0
  0
LINE
  5
149
  8
ﾚｲﾔ_1
  6
STITCH
 10
25.876407350299999
 20
-13.4747584541
 30
0.0
 11
24.847419564799999
 21
-14.5037462396
 31
0.0
  0
ARC
  5
14A
  8
ﾚｲﾔ_1
  6
STITCH
 10
25.200972987699998
 20
-14.857299597900001
 30
0.0
 40
0.5
 50
134.99998959320001
 51
315.0000050205
  0
ARC
  5
14B
  8
ﾚｲﾔ_1
  6
STITCH
 10
20.200972987699998
 20
-14.857299597900001
 30
0.0
 40
0.5
 50
224.9999949795
 51
45.000010406799987
  0
LINE
  5
14C
  8
ﾚｲﾔ_1
  6
STITCH
 10
19.525538625100001
 20
-13.4747584541
 30
0.0
 11
20.554526410600001
 21
-14.5037462396
 31
0.0
  0
LINE
  5
14D
  8
ﾚｲﾔ_1
  6
STITCH
 10
19.330994947499999
 20
-14.6944283389
 30
0.0
 11
19.8474197468
 21
-15.210853138199999
 31
0.0
  0
LINE
  5
14E
  8
ﾚｲﾔ_1
 62
     5
 10
14.9509729877
 20
-16.974758454100002
 30
0.0
 11
30.450973085099999
 21
-16.974758454100002
 31
0.0
  0
ARC
  5
14F
  8
ﾚｲﾔ_1
 62
     5
 10
30.450972987699998
 20
-16.474758454100002
 30
0.0
 40
0.5
 50
270.00001115740002
 51
0.0
  0
LINE
  5
150
  8
ﾚｲﾔ_1
  6
STITCH
 10
27.131611329999998
 20
-15.7550883803
 30
0.0
 11
25.911941256199999
 21
-16.974758454100002
 31
0.0
  0
LINE
  5
151
  8
ﾚｲﾔ_1
  6
STITCH
 10
18.2703346453
 20
-15.7550883803
 30
0.0
 11
19.490004719200002
 21
-16.974758454100002
 31
0.0
  0
LINE
  5
152
  8
ﾚｲﾔ_1
  6
STITCH
 10
16.750973032400001
 20
-16.974758454100002
 30
0.0
 11
16.750973032400001
 21
-11.9747584541
 31
0.0
  0
LINE
  5
153
  8
ﾚｲﾔ_1
  6
STITCH
 10
28.650973389899999
 20
-16.974758454100002
 30
0.0
 11
28.650973389899999
 21
-11.9747584541
 31
0.0
  0
LINE
  5
154
  8
ﾚｲﾔ_1
 10
14.503759392199999
 20
-11.8691856451
 30
0.0
 11
30.898186583200001
 21
-11.8691856451
 31
0.0
  0
LINE
  5
155
  8
ﾚｲﾔ_1
 10
14.4509729877
 20
-12.0927924429
 30
0.0
 11
30.950972987699998
 21
-12.0927924429
 31
0.0
  0
LINE
  5
156
  8
ﾚｲﾔ_1
  6
STITCH
 10
15.450973038500001
 20
-16.974758454100002
 30
0.0
 11
15.538248363099999
 21
-11.9747584541
 31
0.0
  0
LINE
  5
157
  8
ﾚｲﾔ_1
  6
STITCH
 10
15.538248363099999
 20
-11.9747584541
 30
0.0
 11
29.863697612199999
 21
-11.9747584541
 31
0.0
  0
LINE
  5
158
  8
ﾚｲﾔ_1
  6
STITCH
 10
29.950972936900001
 20
-16.974758454100002
 30
0.0
 11
29.863697612199999
 21
-11.9747584541
 31
0.0
  0
LINE
  5
159
  8
ﾚｲﾔ_1
 62
     5
 10
56.609128239999997
 20
-14.6944283389
 30
0.0
 11
57.125553039300002
 21
-15.210853138199999
 31
0.0
  0
ARC
  5
15A
  8
ﾚｲﾔ_1
 62
     5
 10
57.629414376899987
 20
-18.474758454100002
 30
0.0
 40
6.5
 50
337.38013505200001
 51
0.0
  0
ARC
  5
15B
  8
ﾚｲﾔ_1
 62
     5
 10
62.328798183499998
 20
-18.474758454100002
 30
0.0
 40
6.5
 50
180.0
 51
202.61986494799999
  0
LINE
  5
15C
  8
ﾚｲﾔ_1
 62
     5
 10
56.328798183500012
 20
-20.974758454100002
 30
0.0
 11
63.629414376899987
 21
-20.974758454100002
 31
0.0
  0
LINE
  5
15D
  8
ﾚｲﾔ_1
  6
STITCH
 10
67.229106229400003
 20
-16.974758454100002
 30
0.0
 11
67.141830904700001
 21
-11.9747584541
 31
0.0
  0
LINE
  5
15E
  8
ﾚｲﾔ_1
  6
STITCH
 10
65.929106682400004
 20
-11.9747584541
 30
0.0
 11
67.141830904700001
 21
-11.9747584541
 31
0.0
  0
LINE
  5
15F
  8
ﾚｲﾔ_1
  6
STITCH
 10
52.816381655599997
 20
-11.9747584541
 30
0.0
 11
54.029106324899999
 21
-11.9747584541
 31
0.0
  0
LINE
  5
160
  8
ﾚｲﾔ_1
  6
STITCH
 10
52.729106330999997
 20
-16.974758454100002
 30
0.0
 11
52.816381655599997
 21
-11.9747584541
 31
0.0
  0
ARC
  5
161
  8
ﾚｲﾔ_1
 62
     5
 10
53.038123274600011
 20
-10.4747584541
 30
0.0
 40
0.5
 50
90.0
 51
153.4349488229
  0
DIMENSION
  5
170
  8
寸法線
  2
*D4
 10
30.950972987699998
 20
-4.1134770941000003
 30
0.0
 11
22.700972987699998
 21
-4.1134770941000003
 31
0.0
 70
   128
  1
<>
 13
30.950972987699998
 23
-12.0927924429
 33
0.0
 14
14.4509729877
 24
-12.0927924429
 34
0.0
  0
DIMENSION
  5
177
  8
寸法線
  2
*D5
 10
16.450974143100002
 20
-31.894230877399998
 30
0.0
 11
4.8289473177999991
 21
-28.287521969
 31
0.0
 70
   132
  1
<>
 15
15.036760580699999
 25
-30.4800173151
 35
0.0
 40
0.0
  0
LINE
  5
178
  8
ﾚｲﾔ_1
 62
     5
 10
15.3127763866
 20
-10.251151656399999
 30
0.0
 11
14.503759392199999
 21
-11.8691856451
 31
0.0
  0
LINE
  5
179
  8
ﾚｲﾔ_1
 62
     5
 10
14.4509729877
 20
-16.474758454100002
 30
0.0
 11
14.4509729877
 21
-12.0927924429
 31
0.0
  0
ARC
  5
17A
  8
ﾚｲﾔ_1
 62
     5
 10
14.9509729877
 20
-12.0927924429
 30
0.0
 40
0.5
 50
153.4349488229
 51
180.0
  0
ARC
  5
17B
  8
ﾚｲﾔ_1
 62
     5
 10
14.9509729877
 20
-16.474758454100002
 30
0.0
 40
0.5
 50
180.0
 51
270.0
  0
ARC
  5
17C
  8
ﾚｲﾔ_1
 62
     5
 10
29.641955993300002
 20
-10.4747584541
 30
0.0
 40
0.5
 50
26.565051177099999
 51
90.0
  0
LINE
  5
17D
  8
ﾚｲﾔ_1
 62
     5
 10
30.089169588800001
 20
-10.251151656399999
 30
0.0
 11
30.898186583200001
 21
-11.8691856451
 31
0.0
  0
LINE
  5
17E
  8
ﾚｲﾔ_1
 62
     5
 10
30.950972987699998
 20
-12.0927924429
 30
0.0
 11
30.950972987699998
 21
-16.474758454100002
 31
0.0
  0
ARC
  5
17F
  8
ﾚｲﾔ_1
 62
     5
 10
30.450972987699998
 20
-12.0927924429
 30
0.0
 40
0.5
 50
360.0
 51
26.565051177099999
  0
LINE
  5
180
  8
ﾚｲﾔ_1
 62
     5
 10
15.7599899821
 20
-9.9747584540999998
 30
0.0
 11
29.641955993300002
 21
-9.9747584540999998
 31
0.0
  0
ARC
  5
181
  8
ﾚｲﾔ_1
 62
     5
 10
15.7599899821
 20
-10.4747584541
 30
0.0
 40
0.5
 50
90.0
 51
153.4349488229
  0
LINE
  5
182
  8
ﾚｲﾔ_1
  6
STITCH
 10
18.550664890899998
 20
-11.9747584541
 30
0.0
 11
18.550664890899998
 21
-13.4747584541
 31
0.0
  0
LINE
  5
183
  8
ﾚｲﾔ_1
  6
STITCH
 10
18.550664890899998
 20
-13.4747584541
 30
0.0
 11
19.525538625100001
 21
-13.4747584541
 31
0.0
  0
ARC
  5
184
  8
ﾚｲﾔ_1
  6
STITCH
 10
18.800664890899998
 20
-15.2247584541
 30
0.0
 40
0.75
 50
45.000001382699999
 51
225.00000438999999
  0
ARC
  5
185
  8
ﾚｲﾔ_1
  6
STITCH
 10
26.6012810844
 20
-15.2247584541
 30
0.0
 40
0.75
 50
314.99999560999998
 51
134.99999861730001
  0
ARC
  5
186
  8
ﾚｲﾔ_1
 62
     5
 10
52.229106280200007
 20
-16.474758454100002
 30
0.0
 40
0.5
 50
180.0
 51
270.0
  0
LINE
  5
187
  8
ﾚｲﾔ_1
 62
     5
 10
54.029106324899999
 20
-11.9747584541
 30
0.0
 11
55.828798183500012
 21
-11.9747584541
 31
0.0
  0
LINE
  5
188
  8
ﾚｲﾔ_1
 62
     5
 10
64.129414376900002
 20
-11.9747584541
 30
0.0
 11
65.929106682400004
 21
-11.9747584541
 31
0.0
  0
LINE
  5
189
  8
ﾚｲﾔ_1
  6
STITCH
 10
55.828798183500012
 20
-11.9747584541
 30
0.0
 11
64.129414376900002
 21
-11.9747584541
 31
0.0
  0
LINE
  5
18A
  8
ﾚｲﾔ_1
 62
     5
 10
55.828798183500012
 20
-11.9747584541
 30
0.0
 11
55.828798183500012
 21
-13.4747584541
 31
0.0
  0
LINE
  5
18B
  8
ﾚｲﾔ_1
 62
     5
 10
55.828798183500012
 20
-13.4747584541
 30
0.0
 11
56.803671917599999
 21
-13.4747584541
 31
0.0
  0
ARC
  5
18C
  8
ﾚｲﾔ_1
 62
     5
 10
56.078798183499998
 20
-15.2247584541
 30
0.0
 40
0.75
 50
45.000001382699999
 51
225.00000438999999
  0
LINE
  5
18D
  8
ﾚｲﾔ_1
 62
     5
 10
65.929106682400004
 20
-16.974758454100002
 30
0.0
 11
65.929106682400004
 21
-11.9747584541
 31
0.0
  0
LINE
  5
18E
  8
ﾚｲﾔ_1
 62
     5
 10
54.029106324899999
 20
-16.974758454100002
 30
0.0
 11
54.029106324899999
 21
-11.9747584541
 31
0.0
  0
LINE
  5
18F
  8
ﾚｲﾔ_1
  6
STITCH
 10
56.768138011700003
 20
-16.974758454100002
 30
0.0
 11
63.190074548699997
 21
-16.974758454100002
 31
0.0
  0
ARC
  5
190
  8
ﾚｲﾔ_1
 62
     5
 10
52.229106280200007
 20
-12.0927924429
 30
0.0
 40
0.5
 50
153.4349488229
 51
180.0
  0
LINE
  5
191
  8
ﾚｲﾔ_1
 62
     5
 10
51.729106280200007
 20
-16.474758454100002
 30
0.0
 11
51.729106280200007
 21
-12.0927924429
 31
0.0
  0
DIMENSION
  5
1A0
  8
寸法線
  2
*D6
 10
55.828798183500012
 20
-29.795864939699999
 30
0.0
 11
59.979106280200007
 21
-29.795864939699999
 31
0.0
 70
   128
  1
<>
 13
55.828798183500012
 23
-18.474758454100002
 33
0.0
 14
64.129414376900002
 24
-18.474758454100002
 34
0.0
 50
180.0
  0
DIMENSION
  5
1A7
  8
寸法線
  2
*D7
 10
62.479106280200007
 20
-14.857299597900001
 30
0.0
 11
53.607061984399991
 21
-22.2259970691
 31
0.0
 70
   132
  1
<>
 15
62.3496967576
 25
-15.340262511000001
 35
0.0
 40
0.0
  0
LINE
  5
1A8
  8
ﾚｲﾔ_1
 62
     5
 10
52.590909679100001
 20
-10.251151656399999
 30
0.0
 11
51.781892684699997
 21
-11.8691856451
 31
0.0
  0
LINE
  5
1A9
  8
ﾚｲﾔ_1
 62
     5
 10
63.190074548699997
 20
-16.974758454100002
 30
0.0
 11
67.729106280199986
 21
-16.974758454100002
 31
0.0
  0
LINE
  5
1AA
  8
ﾚｲﾔ_1
 62
     5
 10
52.229106280200007
 20
-16.974758454100002
 30
0.0
 11
56.768138011700003
 21
-16.974758454100002
 31
0.0
  0
ARC
  5
1AB
  8
ﾚｲﾔ_1
 62
     5
 10
63.879414376899987
 20
-15.2247584541
 30
0.0
 40
0.75
 50
314.99999560999998
 51
134.99999861730001
  0
LINE
  5
1AC
  8
ﾚｲﾔ_1
 62
     5
 10
64.129414376900002
 20
-13.4747584541
 30
0.0
 11
63.154540642800001
 21
-13.4747584541
 31
0.0
  0
LINE
  5
1AD
  8
ﾚｲﾔ_1
 62
     5
 10
64.129414376900002
 20
-11.9747584541
 30
0.0
 11
64.129414376900002
 21
-13.4747584541
 31
0.0
  0
LINE
  5
1AE
  8
ﾚｲﾔ_1
 62
     5
 10
63.349084320400003
 20
-14.6944283389
 30
0.0
 11
62.832659521099991
 21
-15.210853138199999
 31
0.0
  0
LINE
  5
1AF
  8
ﾚｲﾔ_1
 62
     5
 10
63.154540642800001
 20
-13.4747584541
 30
0.0
 11
62.125552857299994
 21
-14.5037462396
 31
0.0
  0
ARC
  5
1B0
  8
ﾚｲﾔ_1
 62
     5
 10
62.479106280200007
 20
-14.857299597900001
 30
0.0
 40
0.5
 50
134.99998959320001
 51
315.0000050205
  0
ARC
  5
1B1
  8
ﾚｲﾔ_1
 62
     5
 10
57.479106280200007
 20
-14.857299597900001
 30
0.0
 40
0.5
 50
224.9999949795
 51
45.000010406799987
  0
LINE
  5
1B2
  8
ﾚｲﾔ_1
 62
     5
 10
56.803671917599999
 20
-13.4747584541
 30
0.0
 11
57.832659703100013
 21
-14.5037462396
 31
0.0
  0
LINE
  5
1B3
  8
ﾚｲﾔ_1
 62
     5
 10
-6.969693992599999
 20
-18.474758454100002
 30
0.0
 11
-8.201927039600001
 21
-18.474758454100002
 31
0.0
  0
ARC
  5
1B4
  8
ﾚｲﾔ_1
 62
     5
 10
-8.201927039600001
 20
-17.974758454100002
 30
0.0
 40
0.5
 50
135.0
 51
270.0
  0
LINE
  5
1B5
  8
ﾚｲﾔ_1
 10
-19.370002089300002
 20
-16.474758454100002
 30
0.0
 11
-2.8700020892999998
 21
-16.474758454100002
 31
0.0
  0
LINE
  5
1B6
  8
ﾚｲﾔ_1
 10
-2.8700020892999998
 20
-12.0927924429
 30
0.0
 11
-19.370002089300002
 21
-12.0927924429
 31
0.0
  0
LINE
  5
1B7
  8
ﾚｲﾔ_1
 10
-2.9227884938000002
 20
-11.8691856451
 30
0.0
 11
-19.317215684800001
 21
-11.8691856451
 31
0.0
  0
LINE
  5
1B8
  8
ﾚｲﾔ_1
 62
     5
 10
-3.3700020892999998
 20
-16.974758454100002
 30
0.0
 11
-18.870002089300002
 21
-16.974758454100002
 31
0.0
  0
LINE
  5
1B9
  8
ﾚｲﾔ_1
 62
     5
 10
-4.1790190837000001
 20
-9.9747584540999998
 30
0.0
 11
-18.060985094999999
 21
-9.9747584540999998
 31
0.0
  0
ARC
  5
1BA
  8
ﾚｲﾔ_1
 62
     5
 10
-13.4696939926
 20
-18.474758454100002
 30
0.0
 40
6.5
 50
337.38013505200001
 51
0.0
  0
INSERT
  5
1BC
  8
ﾚｲﾔ_1
 62
     5
  2
CLUMP1
 10
0.0
 20
0.0
 30
0.0
  0
ARC
  5
1E9
  8
ﾚｲﾔ_1
 62
     5
 10
-18.060985094999999
 20
-10.4747584541
 30
0.0
 40
0.5
 50
90.0
 51
153.4349488229
  0
ARC
  5
1EA
  8
ﾚｲﾔ_1
 62
     5
 10
-18.870002089300002
 20
-16.474758454100002
 30
0.0
 40
0.5
 50
180.0
 51
270.0
  0
DIMENSION
  5
1F9
  8
寸法線
  2
*D9
 10
8.6882850241999972
 20
-9.9747584540999998
 30
0.0
 11
8.6882850241999972
 21
-15.4747584541
 31
0.0
 70
   128
  1
<>
 13
15.7599899821
 23
-9.9747584540999998
 33
0.0
 14
19.050664890899998
 24
-20.974758454100002
 34
0.0
 50
90.0
  0
DIMENSION
  5
208
  8
寸法線
  2
*D10
 10
48.199396135299992
 20
-16.974758454100002
 30
0.0
 11
48.199396135299992
 21
-18.974758454100002
 31
0.0
 70
   128
  1
<>
 13
52.229106280200007
 23
-16.974758454100002
 33
0.0
 14
56.328798183500012
 24
-20.974758454100002
 34
0.0
 50
90.0
  0
LINE
  5
209
  8
ﾚｲﾔ_1
 62
     5
 10
53.038123274600011
 20
-9.9747584540999998
 30
0.0
 11
66.920089285800003
 21
-9.9747584540999998
 31
0.0
  0
LINE
  5
20A
  8
ﾚｲﾔ_1
 62
     5
 10
64.129414376900002
 20
-18.474758454100002
 30
0.0
 11
62.8971813299
 21
-18.474758454100002
 31
0.0
  0
LINE
  5
20B
  8
ﾚｲﾔ_1
 62
     5
 10
64.4097446225
 20
-15.7550883803
 30
0.0
 11
62.543627939300002
 21
-17.6212050635
 31
0.0
  0
LINE
  5
20C
  8
ﾚｲﾔ_1
 62
     5
 10
55.828798183500012
 20
-18.474758454100002
 30
0.0
 11
57.061031230499999
 21
-18.474758454100002
 31
0.0
  0
LINE
  5
20D
  8
ﾚｲﾔ_1
 62
     5
 10
55.548467937799998
 20
-15.7550883803
 30
0.0
 11
57.414584621099991
 21
-17.6212050635
 31
0.0
  0
ARC
  5
20E
  8
ﾚｲﾔ_1
 62
     5
 10
57.061031230499999
 20
-17.974758454100002
 30
0.0
 40
0.5
 50
270.0
 51
45.0
  0
ARC
  5
20F
  8
ﾚｲﾔ_1
 62
     5
 10
62.8971813299
 20
-17.974758454100002
 30
0.0
 40
0.5
 50
135.0
 51
270.0
  0
ARC
  5
210
  8
ﾚｲﾔ_1
 62
     5
 10
67.729106280199986
 20
-12.0927924429
 30
0.0
 40
0.5
 50
360.0
 51
26.565051177099999
  0
LINE
  5
211
  8
ﾚｲﾔ_1
 62
     5
 10
68.2291062802
 20
-12.0927924429
 30
0.0
 11
68.2291062802
 21
-16.474758454100002
 31
0.0
  0
LINE
  5
212
  8
ﾚｲﾔ_1
 62
     5
 10
67.367302881300006
 20
-10.251151656399999
 30
0.0
 11
68.176319875700003
 21
-11.8691856451
 31
0.0
  0
ARC
  5
213
  8
ﾚｲﾔ_1
 62
     5
 10
66.920089285800003
 20
-10.4747584541
 30
0.0
 40
0.5
 50
26.565051177099999
 51
90.0
  0
ARC
  5
214
  8
ﾚｲﾔ_1
 62
     5
 10
67.729106280199986
 20
-16.474758454100002
 30
0.0
 40
0.5
 50
270.0
 51
0.0
  0
INSERT
  5
215
  8
0
  6
CONTINUOUS
  2
*U44
 10
0.0
 20
0.0
 30
0.0
  0
LINE
  5
216
  8
図枠
 62
     5
 10
-36.739436619700001
 20
27.988732394399999
 30
0.0
 11
100.7605633803
 21
27.988732394399999
 31
0.0
  0
LINE
  5
217
  8
図枠
  6
DOT
 10
-39.739436619700001
 20
-69.886267605600011
 30
0.0
 11
103.7605633803
 21
-69.886267605600011
 31
0.0
  0
LINE
  5
218
  8
図枠
  6
DOT
 10
-39.739436619700001
 20
30.863732394399999
 30
0.0
 11
103.7605633803
 21
30.863732394399999
 31
0.0
  0
LINE
  5
219
  8
図枠
 62
     5
 10
-36.739436619700001
 20
-67.011267605600011
 30
0.0
 11
100.7605633803
 21
-67.011267605600011
 31
0.0
  0
LINE
  5
21A
  8
ﾚｲﾔ_1
 62
     5
 10
-20.515579710099999
 20
0.3039525072
 30
0.0
 11
-13.487415121
 21
-11.8691856451
 31
0.0
  0
SOLID
  5
21B
  8
ﾚｲﾔ_1
 62
     5
 10
-13.487415121
 20
-11.8691856451
 30
0.0
 11
-15.8116764001
 21
-9.544924366
 31
0.0
 12
-14.649545760600001
 22
-9.8563163324000005
 32
0.0
 13
-14.649545760600001
 23
-9.8563163324000005
 33
0.0
  0
SOLID
  5
21C
  8
ﾚｲﾔ_1
 62
     5
 10
-13.487415121
 20
-11.8691856451
 30
0.0
 11
-14.3381537942
 21
-8.6941856927999996
 31
0.0
 12
-14.649545760600001
 22
-9.8563163324000005
 32
0.0
 13
-14.649545760600001
 23
-9.8563163324000005
 33
0.0
  0
LINE
  5
21D
  8
ﾚｲﾔ_1
 62
     5
 10
-2.4778985506999991
 20
0.3039525072
 30
0.0
 11
-20.515579710099999
 21
0.3039525072
 31
0.0
  0
LINE
  5
21E
  8
図枠
  6
DOT
 10
-39.737936619700001
 20
-69.886267605600011
 30
0.0
 11
-39.737936619700001
 21
30.863732394399999
 31
0.0
  0
LINE
  5
21F
  8
図枠
 62
     5
 10
-36.739436619700001
 20
-67.011267605600011
 30
0.0
 11
-36.739436619700001
 21
27.988732394399999
 31
0.0
  0
LINE
  5
220
  8
図枠
  6
DOT
 10
103.7605633803
 20
-69.886267605600011
 30
0.0
 11
103.7605633803
 21
30.863732394399999
 31
0.0
  0
LINE
  5
221
  8
図枠
 62
     5
 10
100.7605633803
 20
-67.011267605600011
 30
0.0
 11
100.7605633803
 21
27.988732394399999
 31
0.0
  0
ARC
  5
222
  8
ﾚｲﾔ_1
 62
     5
 10
-18.870002089300002
 20
-12.0927924429
 30
0.0
 40
0.5
 50
153.4349488229
 51
180.0
  0
LINE
  5
223
  8
ﾚｲﾔ_1
 62
     5
 10
-19.370002089300002
 20
-12.0927924429
 30
0.0
 11
-19.370002089300002
 21
-16.474758454100002
 31
0.0
  0
LINE
  5
224
  8
ﾚｲﾔ_1
 62
     5
 10
-18.508198690499999
 20
-10.251151656399999
 30
0.0
 11
-19.317215684800001
 21
-11.8691856451
 31
0.0
  0
LINE
  5
225
  8
ﾚｲﾔ_1
 62
     5
 10
-14.7703101861
 20
-20.974758454100002
 30
0.0
 11
-7.469693992599999
 21
-20.974758454100002
 31
0.0
  0
ARC
  5
226
  8
ﾚｲﾔ_1
 62
     5
 10
-8.7703101860999997
 20
-18.474758454100002
 30
0.0
 40
6.5
 50
180.0
 51
202.61986494799999
  0
LINE
  5
227
  8
ﾚｲﾔ_1
 62
     5
 10
-2.8700020892999998
 20
-16.474758454100002
 30
0.0
 11
-2.8700020892999998
 21
-12.0927924429
 31
0.0
  0
ARC
  5
228
  8
ﾚｲﾔ_1
 62
     5
 10
-3.3700020892999998
 20
-16.474758454100002
 30
0.0
 40
0.5
 50
270.0
 51
0.0
  0
ARC
  5
229
  8
ﾚｲﾔ_1
 62
     5
 10
-3.3700020892999998
 20
-12.0927924429
 30
0.0
 40
0.5
 50
0.0
 51
26.565051177099999
  0
LINE
  5
22A
  8
ﾚｲﾔ_1
 62
     5
 10
-3.7318054882
 20
-10.251151656399999
 30
0.0
 11
-2.9227884938000002
 21
-11.8691856451
 31
0.0
  0
ARC
  5
22B
  8
ﾚｲﾔ_1
 62
     5
 10
-4.1790190837000001
 20
-10.4747584541
 30
0.0
 40
0.5
 50
26.565051177099999
 51
90.0
  0
LINE
  5
22C
  8
ﾚｲﾔ_1
 62
     5
 10
-15.2703101861
 20
-18.474758454100002
 30
0.0
 11
-14.038077139
 21
-18.474758454100002
 31
0.0
  0
LINE
  5
22D
  8
ﾚｲﾔ_1
 62
     5
 10
-14.3309703579
 20
-16.974758454100002
 30
0.0
 11
-13.6845237485
 21
-17.6212050635
 31
0.0
  0
ARC
  5
22E
  8
ﾚｲﾔ_1
 62
     5
 10
-14.038077139
 20
-17.974758454100002
 30
0.0
 40
0.5
 50
270.0
 51
45.0
  0
LINE
  5
22F
  8
ﾚｲﾔ_1
 62
     5
 10
-7.9090338208000004
 20
-16.974758454100002
 30
0.0
 11
-8.5554804301999994
 21
-17.6212050635
 31
0.0
  0
ENDSEC
  0
EOF
