  0
SECTION
  2
HEADER
  9
$ACADVER
  1
AC1009
  9
$INSBASE
 10
0.0
 20
0.0
 30
0.0
  9
$EXTMIN
 10
17003.639755471879
 20
9270.5084763037303
 30
0.0
  9
$EXTMAX
 10
20283.319755471872
 20
11578.188476303731
 30
0.0
  9
$LIMMIN
 10
0.0
 20
0.0
  9
$LIMMAX
 10
0.0
 20
0.0
  9
$ORTHOMODE
 70
     0
  9
$REGENMODE
 70
     1
  9
$FILLMODE
 70
     1
  9
$QTEXTMODE
 70
     0
  9
$MIRRTEXT
 70
     1
  9
$DRAGMODE
 70
     2
  9
$LTSCALE
 40
1.0
  9
$OSMODE
 70
   183
  9
$ATTMODE
 70
     1
  9
$TEXTSIZE
 40
0.35
  9
$TRACEWID
 40
0.05
  9
$TEXTSTYLE
  7
STANDARD
  9
$CLAYER
  8
0
  9
$CELTYPE
  6
CONTINUOUS
  9
$CECOLOR
 62
   256
  9
$DIMSCALE
 40
1.0
  9
$DIMASZ
 40
2.5
  9
$DIMEXO
 40
0.5
  9
$DIMDLI
 40
0.38
  9
$DIMRND
 40
0.0
  9
$DIMDLE
 40
0.0
  9
$DIMEXE
 40
1.0
  9
$DIMTP
 40
0.0
  9
$DIMTM
 40
0.0
  9
$DIMTXT
 40
3.5277777777777768
  9
$DIMCEN
 40
0.09
  9
$DIMTSZ
 40
0.0
  9
$DIMTOL
 70
     0
  9
$DIMLIM
 70
     0
  9
$DIMTIH
 70
     0
  9
$DIMTOH
 70
     0
  9
$DIMSE1
 70
     0
  9
$DIMSE2
 70
     0
  9
$DIMTAD
 70
     1
  9
$DIMZIN
 70
     0
  9
$DIMBLK
  1

  9
$DIMASO
 70
     1
  9
$DIMSHO
 70
     1
  9
$DIMPOST
  1

  9
$DIMAPOST
  1

  9
$DIMALT
 70
     0
  9
$DIMALTD
 70
     3
  9
$DIMALTF
 40
25.399999999999999
  9
$DIMLFAC
 40
1.0
  9
$DIMTOFL
 70
     0
  9
$DIMTVP
 40
0.0
  9
$DIMTIX
 70
     0
  9
$DIMSOXD
 70
     0
  9
$DIMSAH
 70
     0
  9
$DIMBLK1
  1

  9
$DIMBLK2
  1

  9
$DIMSTYLE
  2
STANDARD
  9
$DIMCLRD
 70
     0
  9
$DIMCLRE
 70
     0
  9
$DIMCLRT
 70
     0
  9
$DIMTFAC
 40
1.0
  9
$DIMGAP
 40
0.09
  9
$LUNITS
 70
     2
  9
$LUPREC
 70
     4
  9
$SKETCHINC
 40
0.1
  9
$FILLETRAD
 40
0.0
  9
$AUNITS
 70
     0
  9
$AUPREC
 70
     0
  9
$MENU
  1
acad
  9
$ELEVATION
 40
0.0
  9
$PELEVATION
 40
0.0
  9
$THICKNESS
 40
0.0
  9
$LIMCHECK
 70
     0
  9
$BLIPMODE
 70
     0
  9
$CHAMFERA
 40
0.0
  9
$CHAMFERB
 40
0.0
  9
$SKPOLY
 70
     0
  9
$TDCREATE
 40
2454656.5687615741
  9
$TDUPDATE
 40
2454656.5953211812
  9
$TDINDWG
 40
0.0001546296
  9
$TDUSRTIMER
 40
0.0001546296
  9
$USRTIMER
 70
     1
  9
$ANGBASE
 50
0.0
  9
$ANGDIR
 70
     0
  9
$PDMODE
 70
     0
  9
$PDSIZE
 40
0.0
  9
$PLINEWID
 40
0.0
  9
$COORDS
 70
     1
  9
$SPLFRAME
 70
     0
  9
$SPLINETYPE
 70
     6
  9
$SPLINESEGS
 70
     8
  9
$ATTDIA
 70
     0
  9
$ATTREQ
 70
     1
  9
$HANDLING
 70
     1
  9
$HANDSEED
  5
C24
  9
$SURFTAB1
 70
     6
  9
$SURFTAB2
 70
     6
  9
$SURFTYPE
 70
     6
  9
$SURFU
 70
     6
  9
$SURFV
 70
     6
  9
$UCSNAME
  2

  9
$UCSORG
 10
0.0
 20
0.0
 30
0.0
  9
$UCSXDIR
 10
1.0
 20
0.0
 30
0.0
  9
$UCSYDIR
 10
0.0
 20
1.0
 30
0.0
  9
$PUCSNAME
  2

  9
$PUCSORG
 10
0.0
 20
0.0
 30
0.0
  9
$PUCSXDIR
 10
1.0
 20
0.0
 30
0.0
  9
$PUCSYDIR
 10
0.0
 20
1.0
 30
0.0
  9
$USERI1
 70
     0
  9
$USERI2
 70
     0
  9
$USERI3
 70
     0
  9
$USERI4
 70
     0
  9
$USERI5
 70
     0
  9
$USERR1
 40
0.0
  9
$USERR2
 40
0.0
  9
$USERR3
 40
0.0
  9
$USERR4
 40
0.0
  9
$USERR5
 40
0.0
  9
$WORLDVIEW
 70
     1
  9
$SHADEDGE
 70
     3
  9
$SHADEDIF
 70
    70
  9
$TILEMODE
 70
     1
  9
$MAXACTVP
 70
    64
  9
$PLIMCHECK
 70
     0
  9
$PEXTMIN
 10
1.0000000000000000E+020
 20
1.0000000000000000E+020
 30
1.0000000000000000E+020
  9
$PEXTMAX
 10
-1.0000000000000000E+020
 20
-1.0000000000000000E+020
 30
-1.0000000000000000E+020
  9
$PLIMMIN
 10
0.0
 20
0.0
  9
$PLIMMAX
 10
12.0
 20
9.0
  9
$UNITMODE
 70
     0
  9
$VISRETAIN
 70
     1
  9
$PLINEGEN
 70
     0
  9
$PSLTSCALE
 70
     0
  0
ENDSEC
  0
SECTION
  2
TABLES
  0
TABLE
  2
VPORT
 70
     2
  0
VPORT
  2
*ACTIVE
 70
     0
 10
0.0
 20
0.0
 11
1.0
 21
1.0
 12
18643.479755471872
 22
10424.34847630373
 13
0.0
 23
0.0
 14
1.0
 24
1.0
 15
0.0
 25
0.0
 16
0.0
 26
0.0
 36
1.0
 17
0.0
 27
0.0
 37
0.0
 40
2326.4416260162652
 41
1.6377204884667571
 42
50.0
 43
0.0
 44
0.0
 50
0.0
 51
0.0
 71
     0
 72
   100
 73
     1
 74
     1
 75
     0
 76
     0
 77
     0
 78
     0
  0
ENDTAB
  0
TABLE
  2
LTYPE
 70
    11
  0
LTYPE
  2
CONTINUOUS
 70
     0
  3
Solid line
 72
    65
 73
     0
 40
0.0
  0
LTYPE
  2
DOT
 70
     0
  3

 72
    65
 73
     2
 40
1.0
 49
0.0
 49
-1.0
  0
LTYPE
  2
DASHEDX2
 70
     0
  3

 72
    65
 73
     2
 40
4.0
 49
3.0
 49
-1.0
  0
LTYPE
  2
DASHED
 70
     0
  3

 72
    65
 73
     2
 40
3.0
 49
2.0
 49
-1.0
  0
LTYPE
  2
DASHED2
 70
     0
  3

 72
    65
 73
     2
 40
2.0
 49
1.0
 49
-1.0
  0
LTYPE
  2
CENTERX2
 70
     0
  3

 72
    65
 73
     4
 40
43.0
 49
40.0
 49
-1.0
 49
1.0
 49
-1.0
  0
LTYPE
  2
CENTER
 70
     0
  3

 72
    65
 73
     4
 40
33.0
 49
30.0
 49
-1.0
 49
1.0
 49
-1.0
  0
LTYPE
  2
CENTER2
 70
     0
  3

 72
    65
 73
     4
 40
23.0
 49
20.0
 49
-1.0
 49
1.0
 49
-1.0
  0
LTYPE
  2
PHANTOMX2
 70
     0
  3

 72
    65
 73
     6
 40
45.0
 49
40.0
 49
-1.0
 49
1.0
 49
-1.0
 49
1.0
 49
-1.0
  0
LTYPE
  2
PHANTOM
 70
     0
  3

 72
    65
 73
     6
 40
35.0
 49
30.0
 49
-1.0
 49
1.0
 49
-1.0
 49
1.0
 49
-1.0
  0
LTYPE
  2
PHANTOM2
 70
     0
  3

 72
    65
 73
     6
 40
25.0
 49
20.0
 49
-1.0
 49
1.0
 49
-1.0
 49
1.0
 49
-1.0
  0
ENDTAB
  0
TABLE
  2
LAYER
 70
     6
  0
LAYER
  2
0
 70
     0
 62
     7
  6
CONTINUOUS
  0
LAYER
  2
DEFPOINTS
 70
     0
 62
     7
  6
CONTINUOUS
  0
LAYER
  2
____1
 70
     0
 62
     7
  6
DASHED2
  0
LAYER
  2
______
 70
     0
 62
     7
  6
CONTINUOUS
  0
LAYER
  2
補助線_1
 70
     0
 62
     7
  6
CONTINUOUS
  0
LAYER
  2
UNASSIGNED
 70
     0
 62
     7
  6
CONTINUOUS
  0
ENDTAB
  0
TABLE
  2
STYLE
 70
     2
  0
STYLE
  2
STANDARD
 70
     0
 40
0.0
 41
1.0
 50
0.0
 71
     0
 42
0.35
  3
txt
  4

  0
STYLE
  2
STYLE1
 70
     0
 40
0.0
 41
1.0
 50
0.0
 71
     0
 42
0.35
  3
ＭＳ ゴシック
  4

  0
ENDTAB
  0
TABLE
  2
VIEW
 70
     0
  0
ENDTAB
  0
TABLE
  2
UCS
 70
     0
  0
ENDTAB
  0
TABLE
  2
APPID
 70
     1
  0
APPID
  2
ACAD
 70
     0
  0
ENDTAB
  0
TABLE
  2
DIMSTYLE
 70
     1
  0
DIMSTYLE
  2
STANDARD
 70
     0
  3

  4

  5

  6

  7

 40
1.0
 41
0.18
 42
0.0625
 43
0.38
 44
0.18
 45
0.0
 46
0.0
 47
0.0
 48
0.0
140
0.18
141
0.09
142
0.0
143
25.399999999999999
144
1.0
145
0.0
146
1.0
147
0.09
 71
     0
 72
     0
 73
     1
 74
     1
 75
     0
 76
     0
 77
     0
 78
     0
170
     0
171
     2
172
     0
173
     0
174
     0
175
     0
176
     0
177
     0
178
     0
  0
ENDTAB
  0
ENDSEC
  0
SECTION
  2
BLOCKS
  0
BLOCK
  8
0
  2
$MODEL_SPACE
 70
     0
 10
0.0
 20
0.0
 30
0.0
  3
$MODEL_SPACE
  1

  0
ENDBLK
  5
C12
  8
0
  0
BLOCK
 67
     1
  8
0
  2
$PAPER_SPACE
 70
     0
 10
0.0
 20
0.0
 30
0.0
  3
$PAPER_SPACE
  1

  0
ENDBLK
  5
C10
 67
     1
  8
0
  0
BLOCK
  8
0
  2
*D0
 70
     1
 10
0.0
 20
0.0
 30
0.0
  3
*D0
  1

  0
LINE
  5
2F
  8
____1
  6
CONTINUOUS
 62
     7
 10
18616.869960328899
 20
10241.1981833836
 30
0.0
 11
18616.869960328899
 21
10022.525921323249
 31
0.0
  0
LINE
  5
30
  8
____1
  6
CONTINUOUS
 62
     7
 10
17616.869960328899
 20
10241.1981833836
 30
0.0
 11
17616.869960328899
 21
10022.525921323249
 31
0.0
  0
SOLID
  5
31
  8
____1
  6
CONTINUOUS
 62
     7
 10
17636.869960328899
 20
10026.525921323249
 30
0.0
 11
17636.869960328899
 21
10026.525921323249
 31
0.0
 12
17616.869960328899
 22
10030.525921323249
 32
0.0
 13
17631.869960328899
 23
10030.525921323249
 33
0.0
  0
SOLID
  5
32
  8
____1
  6
CONTINUOUS
 62
     7
 10
17616.869960328899
 20
10030.525921323249
 30
0.0
 11
17631.869960328899
 21
10030.525921323249
 31
0.0
 12
17636.869960328899
 22
10034.52592132324
 32
0.0
 13
17636.869960328899
 23
10034.52592132324
 33
0.0
  0
LINE
  5
33
  8
____1
  6
CONTINUOUS
 62
     7
 10
17616.869960328899
 20
10030.525921323249
 30
0.0
 11
18116.869960328899
 21
10030.525921323249
 31
0.0
  0
SOLID
  5
34
  8
____1
  6
CONTINUOUS
 62
     7
 10
18596.869960328899
 20
10026.525921323249
 30
0.0
 11
18596.869960328899
 21
10026.525921323249
 31
0.0
 12
18601.869960328899
 22
10030.525921323249
 32
0.0
 13
18616.869960328899
 23
10030.525921323249
 33
0.0
  0
SOLID
  5
35
  8
____1
  6
CONTINUOUS
 62
     7
 10
18601.869960328899
 20
10030.525921323249
 30
0.0
 11
18616.869960328899
 21
10030.525921323249
 31
0.0
 12
18596.869960328899
 22
10034.52592132324
 32
0.0
 13
18596.869960328899
 23
10034.52592132324
 33
0.0
  0
LINE
  5
36
  8
____1
  6
CONTINUOUS
 62
     7
 10
18616.869960328899
 20
10030.525921323249
 30
0.0
 11
18116.869960328899
 21
10030.525921323249
 31
0.0
  0
TEXT
  5
38
  8
______
  6
DASHED2
 62
     7
 10
18088.647738954391
 20
10038.641661940361
 30
0.0
 40
28.222221374511719
  1
1000
  7
STYLE1
  0
ENDBLK
  5
39
  8
0
  0
BLOCK
  8
0
  2
C0
 70
     0
 10
0.0
 20
0.0
 30
0.0
  3
C0
  1

  0
LINE
  5
3E
  8
____1
  6
CONTINUOUS
 62
     7
 10
19555.479755471872
 20
9648.3484763037286
 30
0.0
 11
19555.479755471872
 21
9688.3484763037304
 31
0.0
  0
LINE
  5
3F
  8
____1
  6
CONTINUOUS
 62
     7
 10
19083.479755471872
 20
9648.3484763037286
 30
0.0
 11
19083.479755471872
 21
9688.3484763037304
 31
0.0
  0
LINE
  5
40
  8
____1
  6
CONTINUOUS
 62
     7
 10
19155.479755471872
 20
9648.3484763037286
 30
0.0
 11
19155.479755471872
 21
9688.3484763037304
 31
0.0
  0
LINE
  5
41
  8
____1
  6
CONTINUOUS
 62
     7
 10
19995.479755471879
 20
9648.3484763037286
 30
0.0
 11
19995.479755471879
 21
9688.3484763037304
 31
0.0
  0
LINE
  5
42
  8
____1
  6
CONTINUOUS
 62
     7
 10
19923.479755471872
 20
9648.3484763037286
 30
0.0
 11
19923.479755471872
 21
9688.3484763037304
 31
0.0
  0
LINE
  5
43
  8
____1
  6
CONTINUOUS
 62
     7
 10
20243.479755471879
 20
9688.3484763037304
 30
0.0
 11
19083.479755471872
 21
9688.3484763037304
 31
0.0
  0
ENDBLK
  5
44
  8
0
  0
BLOCK
  8
0
  2
C1
 70
     0
 10
0.0
 20
0.0
 30
0.0
  3
C1
  1

  0
LINE
  5
48
  8
____1
  6
CONTINUOUS
 62
     7
 10
19555.479755471872
 20
9688.3484763037304
 30
0.0
 11
19555.479755471872
 21
9728.3484763037286
 31
0.0
  0
LINE
  5
49
  8
____1
  6
CONTINUOUS
 62
     7
 10
19083.479755471872
 20
9688.3484763037304
 30
0.0
 11
19083.479755471872
 21
9728.3484763037286
 31
0.0
  0
LINE
  5
4A
  8
____1
  6
CONTINUOUS
 62
     7
 10
19155.479755471872
 20
9688.3484763037304
 30
0.0
 11
19155.479755471872
 21
9728.3484763037286
 31
0.0
  0
LINE
  5
4B
  8
____1
  6
CONTINUOUS
 62
     7
 10
19995.479755471879
 20
9688.3484763037304
 30
0.0
 11
19995.479755471879
 21
9728.3484763037286
 31
0.0
  0
LINE
  5
4C
  8
____1
  6
CONTINUOUS
 62
     7
 10
19923.479755471872
 20
9688.3484763037304
 30
0.0
 11
19923.479755471872
 21
9728.3484763037286
 31
0.0
  0
LINE
  5
4D
  8
____1
  6
CONTINUOUS
 62
     7
 10
20243.479755471879
 20
9728.3484763037286
 30
0.0
 11
19083.479755471872
 21
9728.3484763037286
 31
0.0
  0
ENDBLK
  5
4E
  8
0
  0
BLOCK
  8
0
  2
C2
 70
     0
 10
0.0
 20
0.0
 30
0.0
  3
C2
  1

  0
TEXT
  5
52
  8
____1
  6
CONTINUOUS
 62
     7
 10
19931.25753409736
 20
9618.3539947516019
 30
0.0
 40
28.222221374511719
  1
数量
  7
STYLE1
  0
TEXT
  5
53
  8
____1
  6
DOT
 62
     7
 10
20048.9242020356
 20
9618.3539947516019
 30
0.0
 40
28.222221374511719
  1
備　　　考
  7
STYLE1
  0
LINE
  5
54
  8
____1
  6
CONTINUOUS
 62
     7
 10
19155.479755471872
 20
9608.3484763037304
 30
0.0
 11
19155.479755471872
 21
9648.3484763037286
 31
0.0
  0
LINE
  5
55
  8
____1
  6
CONTINUOUS
 62
     7
 10
19083.479755471872
 20
9608.3484763037304
 30
0.0
 11
19083.479755471872
 21
9648.3484763037286
 31
0.0
  0
LINE
  5
56
  8
____1
  6
CONTINUOUS
 62
     7
 10
19995.479755471879
 20
9608.3484763037304
 30
0.0
 11
19995.479755471879
 21
9648.3484763037286
 31
0.0
  0
LINE
  5
57
  8
____1
  6
CONTINUOUS
 62
     7
 10
19923.479755471872
 20
9608.3484763037304
 30
0.0
 11
19923.479755471872
 21
9648.3484763037286
 31
0.0
  0
LINE
  5
58
  8
____1
  6
CONTINUOUS
 62
     7
 10
20243.479755471879
 20
9648.3484763037286
 30
0.0
 11
19083.479755471872
 21
9648.3484763037286
 31
0.0
  0
LINE
  5
59
  8
____1
  6
CONTINUOUS
 62
     7
 10
19083.479755471872
 20
9608.3484763037304
 30
0.0
 11
20243.479755471879
 21
9608.3484763037304
 31
0.0
  0
LINE
  5
5A
  8
____1
  6
CONTINUOUS
 62
     7
 10
19555.479755471872
 20
9608.3484763037304
 30
0.0
 11
19555.479755471872
 21
9648.3484763037286
 31
0.0
  0
TEXT
  5
5B
  8
____1
  6
CONTINUOUS
 62
     7
 10
19668.924198220899
 20
9618.3539947516019
 30
0.0
 40
28.222221374511719
  1
材　　　質
  7
STYLE1
  0
TEXT
  5
5C
  8
____1
  6
CONTINUOUS
 62
     7
 10
19284.924198220899
 20
9618.3539947516019
 30
0.0
 40
28.222221374511719
  1
品　　　名
  7
STYLE1
  0
CIRCLE
  5
5D
  8
____1
  6
CONTINUOUS
 62
     7
 10
19550.67975547188
 20
9524.3484763037286
 30
0.0
 40
9.5999999999985448
  0
LINE
  5
5E
  8
____1
  6
CONTINUOUS
 62
     7
 10
19594.567095565391
 20
9514.7484763037264
 30
0.0
 11
19632.967095565389
 21
9505.1484763037297
 31
0.0
  0
LINE
  5
5F
  8
____1
  6
CONTINUOUS
 62
     7
 10
19594.567095565391
 20
9533.9484763037308
 30
0.0
 11
19594.567095565391
 21
9514.7484763037264
 31
0.0
  0
LINE
  5
60
  8
____1
  6
CONTINUOUS
 62
     7
 10
19632.967095565389
 20
9543.5484763037293
 30
0.0
 11
19632.967095565389
 21
9505.1484763037297
 31
0.0
  0
LINE
  5
61
  8
____1
  6
CENTER2
 62
     7
 10
19550.67975547188
 20
9553.1484763037297
 30
0.0
 11
19550.67975547188
 21
9495.5484763037293
 31
0.0
  0
LINE
  5
62
  8
____1
  6
CENTER2
 62
     7
 10
19550.67975547188
 20
9553.1484763037297
 30
0.0
 11
19550.67975547188
 21
9495.5484763037293
 31
0.0
  0
LINE
  5
63
  8
____1
  6
CONTINUOUS
 62
     7
 10
19632.967095565389
 20
9543.5484763037293
 30
0.0
 11
19632.967095565389
 21
9505.1484763037297
 31
0.0
  0
LINE
  5
64
  8
____1
  6
CONTINUOUS
 62
     7
 10
19594.567095565391
 20
9533.9484763037308
 30
0.0
 11
19594.567095565391
 21
9514.7484763037264
 31
0.0
  0
LINE
  5
65
  8
____1
  6
CONTINUOUS
 62
     7
 10
19594.567095565391
 20
9514.7484763037264
 30
0.0
 11
19632.967095565389
 21
9505.1484763037297
 31
0.0
  0
LINE
  5
66
  8
____1
  6
CONTINUOUS
 62
     7
 10
19594.567095565391
 20
9533.9484763037308
 30
0.0
 11
19632.967095565389
 21
9543.5484763037293
 31
0.0
  0
CIRCLE
  5
67
  8
____1
  6
CONTINUOUS
 62
     7
 10
19550.67975547188
 20
9524.3484763037286
 30
0.0
 40
19.19999999999709
  0
CIRCLE
  5
68
  8
____1
  6
CONTINUOUS
 62
     7
 10
19550.67975547188
 20
9524.3484763037286
 30
0.0
 40
9.5999999999985448
  0
CIRCLE
  5
69
  8
____1
  6
CONTINUOUS
 62
     7
 10
19550.67975547188
 20
9524.3484763037286
 30
0.0
 40
19.19999999999709
  0
LINE
  5
6A
  8
____1
  6
CONTINUOUS
 62
     7
 10
19594.567095565391
 20
9533.9484763037308
 30
0.0
 11
19632.967095565389
 21
9543.5484763037293
 31
0.0
  0
LINE
  5
6B
  8
____1
  6
CONTINUOUS
 62
     7
 10
19594.567095565391
 20
9514.7484763037264
 30
0.0
 11
19632.967095565389
 21
9505.1484763037297
 31
0.0
  0
LINE
  5
6C
  8
____1
  6
CONTINUOUS
 62
     7
 10
19594.567095565391
 20
9533.9484763037308
 30
0.0
 11
19594.567095565391
 21
9514.7484763037264
 31
0.0
  0
LINE
  5
6D
  8
____1
  6
CONTINUOUS
 62
     7
 10
19632.967095565389
 20
9543.5484763037293
 30
0.0
 11
19632.967095565389
 21
9505.1484763037297
 31
0.0
  0
LINE
  5
6E
  8
____1
  6
CONTINUOUS
 62
     7
 10
19518.049775863012
 20
9358.3849778989807
 30
0.0
 11
19513.524292463419
 21
9353.8594944993874
 31
0.0
  0
LINE
  5
6F
  8
____1
  6
CENTER2
 62
     7
 10
19521.87975547188
 20
9524.3484763037286
 30
0.0
 11
19645.07975547187
 21
9524.3484763037286
 31
0.0
  0
CIRCLE
  5
70
  8
____1
  6
CONTINUOUS
 62
     7
 10
19550.67975547188
 20
9524.3484763037286
 30
0.0
 40
9.5999999999985448
  0
POLYLINE
  5
71
  8
____1
  6
CONTINUOUS
 62
     7
 66
     1
 10
0.0
 20
0.0
 30
0.0
 70
     8
  0
VERTEX
  5
72
  8
____1
 62
     7
 10
19539.526714201369
 20
9336.7737852135288
 30
0.0
 70
    32
  0
VERTEX
  5
73
  8
____1
 62
     7
 10
19541.763285429031
 20
9336.1704129754653
 30
0.0
 70
    32
  0
VERTEX
  5
74
  8
____1
 62
     7
 10
19544.031381248689
 20
9335.6177933738945
 30
0.0
 70
    32
  0
VERTEX
  5
75
  8
____1
 62
     7
 10
19548.64413261152
 20
9334.6358105736545
 30
0.0
 70
    32
  0
VERTEX
  5
76
  8
____1
 62
     7
 10
19553.328940184681
 20
9333.7698337996753
 30
0.0
 70
    32
  0
VERTEX
  5
77
  8
____1
 62
     7
 10
19558.049775863012
 20
9332.961860038833
 30
0.0
 70
    32
  0
SEQEND
  5
78
  8
____1
 62
     7
  0
POLYLINE
  5
79
  8
____1
  6
CONTINUOUS
 62
     7
 66
     1
 10
0.0
 20
0.0
 30
0.0
 70
     8
  0
VERTEX
  5
7A
  8
____1
 62
     7
 10
19513.524292463419
 20
9353.8594944993874
 30
0.0
 70
    32
  0
VERTEX
  5
7B
  8
____1
 62
     7
 10
19516.900046419571
 20
9350.1589788211168
 30
0.0
 70
    32
  0
VERTEX
  5
7C
  8
____1
 62
     7
 10
19518.631582450838
 20
9348.3790093478165
 30
0.0
 70
    32
  0
VERTEX
  5
7D
  8
____1
 62
     7
 10
19520.41550934597
 20
9346.6833859135204
 30
0.0
 70
    32
  0
SEQEND
  5
7E
  8
____1
 62
     7
  0
POLYLINE
  5
7F
  8
____1
  6
CONTINUOUS
 62
     7
 66
     1
 10
0.0
 20
0.0
 30
0.0
 70
     8
  0
VERTEX
  5
80
  8
____1
 62
     7
 10
19529.720070215819
 20
9327.8711986096823
 30
0.0
 70
    32
  0
VERTEX
  5
81
  8
____1
 62
     7
 10
19533.159602121072
 20
9326.8195171802399
 30
0.0
 70
    32
  0
VERTEX
  5
82
  8
____1
 62
     7
 10
19536.63980654658
 20
9325.8430413940296
 30
0.0
 70
    32
  0
VERTEX
  5
83
  8
____1
 62
     7
 10
19543.698991518238
 20
9324.0727320980404
 30
0.0
 70
    32
  0
VERTEX
  5
84
  8
____1
 62
     7
 10
19550.851142250482
 20
9322.4743214151604
 30
0.0
 70
    32
  0
VERTEX
  5
85
  8
____1
 62
     7
 10
19558.049775863012
 20
9320.961860038833
 30
0.0
 70
    32
  0
SEQEND
  5
86
  8
____1
 62
     7
  0
POLYLINE
  5
87
  8
____1
  6
CONTINUOUS
 62
     7
 66
     1
 10
0.0
 20
0.0
 30
0.0
 70
     8
  0
VERTEX
  5
88
  8
____1
 62
     7
 10
19486.049775863012
 20
9355.8080957591283
 30
0.0
 70
    32
  0
VERTEX
  5
89
  8
____1
 62
     7
 10
19491.793054314148
 20
9350.5574039953572
 30
0.0
 70
    32
  0
VERTEX
  5
8A
  8
____1
 62
     7
 10
19497.630237750851
 20
9345.4803475214267
 30
0.0
 70
    32
  0
VERTEX
  5
8B
  8
____1
 62
     7
 10
19500.613389146802
 20
9343.0611935462239
 30
0.0
 70
    32
  0
VERTEX
  5
8C
  8
____1
 62
     7
 10
19503.655231158718
 20
9340.7505616271701
 30
0.0
 70
    32
  0
VERTEX
  5
8D
  8
____1
 62
     7
 10
19506.767501909831
 20
9338.5701561754922
 30
0.0
 70
    32
  0
VERTEX
  5
8E
  8
____1
 62
     7
 10
19509.961939523309
 20
9336.5416816024244
 30
0.0
 70
    32
  0
VERTEX
  5
8F
  8
____1
 62
     7
 10
19509.96193953964
 20
9336.5416815926237
 30
0.0
 70
    32
  0
SEQEND
  5
90
  8
____1
 62
     7
  0
TEXT
  5
91
  8
____1
  6
CONTINUOUS
 62
     7
 10
19091.25753409736
 20
9618.3539947516019
 30
0.0
 40
28.222221374511719
  1
品番
  7
STYLE1
  0
LINE
  5
92
  8
____1
  6
CONTINUOUS
 62
     7
 10
19594.567095565391
 20
9533.9484763037308
 30
0.0
 11
19594.567095565391
 21
9514.7484763037264
 31
0.0
  0
LINE
  5
93
  8
____1
  6
CONTINUOUS
 62
     7
 10
19464.764927378172
 20
9360.9618600388312
 30
0.0
 11
19464.764927378172
 21
9348.9618600388312
 31
0.0
  0
LINE
  5
94
  8
____1
  6
CONTINUOUS
 62
     7
 10
19594.567095565391
 20
9514.7484763037264
 30
0.0
 11
19632.967095565389
 21
9505.1484763037297
 31
0.0
  0
LINE
  5
95
  8
____1
  6
CONTINUOUS
 62
     7
 10
19486.049775863012
 20
9376.9618600388312
 30
0.0
 11
19486.049775863012
 21
9362.5618600388316
 31
0.0
  0
ARC
  5
96
  8
____1
  6
CONTINUOUS
 62
     7
 10
19428.764927378172
 20
9344.9618600388349
 30
0.0
 40
24.0
 50
-90.0
 51
0.0
  0
LINE
  5
97
  8
____1
  6
CONTINUOUS
 62
     7
 10
19083.479755471872
 20
9568.3484763037286
 30
0.0
 11
19083.479755471872
 21
9304.3484763037286
 31
0.0
  0
TEXT
  5
98
  8
____1
  6
CONTINUOUS
 62
     7
 10
19083.479755471872
 20
9404.1649004340197
 30
0.0
 40
28.222221374511719
  1
 製図
  7
STYLE1
  0
TEXT
  5
99
  8
____1
  6
CONTINUOUS
 62
     7
 10
19083.479755471872
 20
9448.1649004340197
 30
0.0
 40
28.222221374511719
  1
 設計
  7
STYLE1
  0
TEXT
  5
9A
  8
____1
  6
CONTINUOUS
 62
     7
 10
19383.479755471872
 20
9404.1649004340197
 30
0.0
 40
28.222221374511719
  1
 検図
  7
STYLE1
  0
TEXT
  5
9B
  8
____1
  6
CONTINUOUS
 62
     7
 10
19383.479755471872
 20
9448.1649004340197
 30
0.0
 40
28.222221374511719
  1
 照査
  7
STYLE1
  0
LINE
  5
9C
  8
____1
  6
CONTINUOUS
 62
     7
 10
19383.479755471872
 20
9480.3484763037304
 30
0.0
 11
19383.479755471872
 21
9392.3484763037286
 31
0.0
  0
LINE
  5
9D
  8
____1
  6
CONTINUOUS
 62
     7
 10
19083.479755471872
 20
9392.3484763037286
 30
0.0
 11
20243.479755471879
 21
9392.3484763037286
 31
0.0
  0
LINE
  5
9E
  8
____1
  6
CONTINUOUS
 62
     7
 10
19103.479755471872
 20
9436.3484763037286
 30
0.0
 11
19363.479755471872
 21
9436.3484763037286
 31
0.0
  0
LINE
  5
9F
  8
____1
  6
CONTINUOUS
 62
     7
 10
19403.479755471872
 20
9436.3484763037286
 30
0.0
 11
19663.479755471872
 21
9436.3484763037286
 31
0.0
  0
TEXT
  5
A0
  8
____1
  6
CONTINUOUS
 62
     7
 10
19127.035312722852
 20
9536.1649004340197
 30
0.0
 40
28.222221374511719
  1
日　　付
  7
STYLE1
  0
LINE
  5
A1
  8
____1
  6
CONTINUOUS
 62
     7
 10
19103.479755471872
 20
9524.3484763037286
 30
0.0
 11
19263.479755471872
 21
9524.3484763037286
 31
0.0
  0
LINE
  5
A2
  8
____1
  6
CONTINUOUS
 62
     7
 10
19283.479755471872
 20
9568.3484763037286
 30
0.0
 11
19283.479755471872
 21
9480.3484763037231
 31
0.0
  0
LINE
  5
A3
  8
____1
  6
CONTINUOUS
 62
     7
 10
19083.479755471872
 20
9480.3484763037304
 30
0.0
 11
20243.479755471879
 21
9480.3484763037304
 31
0.0
  0
LINE
  5
A4
  8
____1
  6
CONTINUOUS
 62
     7
 10
19483.479755471872
 20
9568.3484763037286
 30
0.0
 11
19483.479755471872
 21
9480.3484763037231
 31
0.0
  0
LINE
  5
A5
  8
____1
  6
CENTER2
 62
     7
 10
19550.67975547188
 20
9553.1484763037297
 30
0.0
 11
19550.67975547188
 21
9495.5484763037293
 31
0.0
  0
LINE
  5
A6
  8
____1
  6
CENTER2
 62
     7
 10
19550.67975547188
 20
9553.1484763037297
 30
0.0
 11
19550.67975547188
 21
9495.5484763037293
 31
0.0
  0
LINE
  5
A7
  8
____1
  6
CONTINUOUS
 62
     7
 10
19647.789637049282
 20
9363.3618600388327
 30
0.0
 11
19647.789637049282
 21
9348.9618600388312
 31
0.0
  0
LINE
  5
A8
  8
____1
  6
CONTINUOUS
 62
     7
 10
19303.479755471872
 20
9524.3484763037286
 30
0.0
 11
19463.479755471872
 21
9524.3484763037286
 31
0.0
  0
TEXT
  5
A9
  8
____1
  6
CONTINUOUS
 62
     7
 10
19327.035312722852
 20
9536.1649004340197
 30
0.0
 40
28.222221374511719
  1
尺　　度
  7
STYLE1
  0
CIRCLE
  5
AA
  8
____1
  6
CONTINUOUS
 62
     7
 10
19550.67975547188
 20
9524.3484763037286
 30
0.0
 40
19.19999999999709
  0
LINE
  5
AB
  8
____1
  6
CONTINUOUS
 62
     7
 10
19594.567095565391
 20
9533.9484763037308
 30
0.0
 11
19632.967095565389
 21
9543.5484763037293
 31
0.0
  0
TEXT
  5
AC
  8
____1
  6
DOT
 62
     7
 10
20085.37975604408
 20
11515.33264309755
 30
0.0
 40
25.39999961853027
  1
改訂者
  7
STYLE1
  0
CIRCLE
  5
AD
  8
____1
  6
CONTINUOUS
 62
     7
 10
19550.67975547188
 20
9524.3484763037286
 30
0.0
 40
9.5999999999985448
  0
LINE
  5
AE
  8
____1
  6
CONTINUOUS
 62
     7
 10
19631.789637049282
 20
9316.961860038833
 30
0.0
 11
19628.56667166785
 21
9328.1618600388301
 31
0.0
  0
LINE
  5
AF
  8
____1
  6
CONTINUOUS
 62
     7
 10
19624.422859034581
 20
9342.5618600388316
 30
0.0
 11
19647.789637049282
 21
9342.5618600388316
 31
0.0
  0
LINE
  5
B0
  8
____1
  6
CONTINUOUS
 62
     7
 10
19486.049775863012
 20
9332.961860038833
 30
0.0
 11
19495.64977586301
 21
9332.961860038833
 31
0.0
  0
LINE
  5
B1
  8
____1
  6
CONTINUOUS
 62
     7
 10
19591.789637049282
 20
9376.9618600388312
 30
0.0
 11
19623.789637049282
 21
9376.9618600388312
 31
0.0
  0
LINE
  5
B2
  8
____1
  6
CONTINUOUS
 62
     7
 10
19396.764927378172
 20
9360.9618600388312
 30
0.0
 11
19387.556096885739
 21
9360.9618600388312
 31
0.0
  0
LINE
  5
B3
  8
____1
  6
CONTINUOUS
 62
     7
 10
19486.049775863012
 20
9332.961860038833
 30
0.0
 11
19486.049775863012
 21
9320.961860038833
 31
0.0
  0
LINE
  5
B4
  8
____1
  6
CONTINUOUS
 62
     7
 10
19396.764927378172
 20
9348.9618600388312
 30
0.0
 11
19395.556096885739
 21
9348.9618600388312
 31
0.0
  0
LINE
  5
B5
  8
____1
  6
CONTINUOUS
 62
     7
 10
19396.764927378172
 20
9332.961860038833
 30
0.0
 11
19396.764927378172
 21
9320.961860038833
 31
0.0
  0
ARC
  5
B6
  8
____1
  6
CONTINUOUS
 62
     7
 10
19495.64977586301
 20
9363.3618600388327
 30
0.0
 40
30.399999999999331
 50
-28.600718616738451
 51
-1.5079577542374809
  0
LINE
  5
B7
  8
____1
  6
CONTINUOUS
 62
     7
 10
19452.764927378172
 20
9348.9618600388312
 30
0.0
 11
19464.764927378172
 21
9348.9618600388312
 31
0.0
  0
ARC
  5
B8
  8
____1
  6
CONTINUOUS
 62
     7
 10
19506.049775863012
 20
9364.9618600388349
 30
0.0
 40
43.999999999999332
 50
-90.0
 51
-57.455041145959207
  0
LINE
  5
B9
  8
____1
  6
CONTINUOUS
 62
     7
 10
19387.556096885739
 20
9348.9618600388312
 30
0.0
 11
19395.556096885739
 21
9348.9618600388312
 31
0.0
  0
ARC
  5
BA
  8
____1
  6
CONTINUOUS
 62
     7
 10
19506.049775863012
 20
9364.9618600388349
 30
0.0
 40
44.0
 50
-37.512388020298822
 51
0.0
  0
LINE
  5
BB
  8
____1
  6
CONTINUOUS
 62
     7
 10
19396.764927378172
 20
9320.961860038833
 30
0.0
 11
19428.764927378172
 21
9320.961860038833
 31
0.0
  0
LINE
  5
BC
  8
____1
  6
CONTINUOUS
 62
     7
 10
19575.789637049282
 20
9328.1618600388301
 30
0.0
 11
19606.104303715951
 21
9328.1618600388301
 31
0.0
  0
ARC
  5
BD
  8
____1
  6
CONTINUOUS
 62
     7
 10
19420.764927378172
 20
9344.9618600388349
 30
0.0
 40
12.0
 50
-90.0
 51
0.0
  0
LINE
  5
BE
  8
____1
  6
CONTINUOUS
 62
     7
 10
19575.789637049282
 20
9342.5618600388316
 30
0.0
 11
19575.789637049282
 21
9328.1618600388301
 31
0.0
  0
LINE
  5
BF
  8
____1
  6
CONTINUOUS
 62
     7
 10
19396.764927378172
 20
9336.961860038833
 30
0.0
 11
19416.764927378172
 21
9336.961860038833
 31
0.0
  0
LINE
  5
C0
  8
____1
  6
CONTINUOUS
 62
     7
 10
19522.340275796509
 20
9348.8092927979505
 30
0.0
 11
19520.41550934597
 21
9346.6833859135204
 31
0.0
  0
LINE
  5
C1
  8
____1
  6
CONTINUOUS
 62
     7
 10
19631.789637049282
 20
9316.961860038833
 30
0.0
 11
19609.38963704928
 21
9316.961860038833
 31
0.0
  0
LINE
  5
C2
  8
____1
  6
CONTINUOUS
 62
     7
 10
19432.764927378172
 20
9348.9618600388312
 30
0.0
 11
19432.764927378172
 21
9344.9618600388349
 31
0.0
  0
LINE
  5
C3
  8
____1
  6
CONTINUOUS
 62
     7
 10
20243.479755471879
 20
9568.3484763037286
 30
0.0
 11
19083.479755471872
 21
9568.3484763037286
 31
0.0
  0
LINE
  5
C4
  8
____1
  6
CONTINUOUS
 62
     7
 10
19632.967095565389
 20
9543.5484763037293
 30
0.0
 11
19632.967095565389
 21
9505.1484763037297
 31
0.0
  0
LINE
  5
C5
  8
____1
  6
CONTINUOUS
 62
     5
 10
19521.205472383532
 20
11502.08941630162
 30
0.0
 11
19501.405472383529
 21
11467.794810311751
 31
0.0
  0
LINE
  5
C6
  8
____1
  6
CONTINUOUS
 62
     7
 10
19464.764927378172
 20
9376.9618600388312
 30
0.0
 11
19432.764927378172
 21
9376.9618600388312
 31
0.0
  0
LINE
  5
C7
  8
____1
  6
CONTINUOUS
 62
     7
 10
19452.764927378172
 20
9344.9618600388349
 30
0.0
 11
19452.764927378172
 21
9348.9618600388312
 31
0.0
  0
LINE
  5
C8
  8
____1
  6
CONTINUOUS
 62
     7
 10
19575.789637049282
 20
9363.3618600388327
 30
0.0
 11
19575.789637049282
 21
9348.9618600388312
 31
0.0
  0
LINE
  5
C9
  8
____1
  6
CONTINUOUS
 62
     7
 10
19432.764927378172
 20
9360.9618600388312
 30
0.0
 11
19416.764927378172
 21
9360.9618600388312
 31
0.0
  0
LINE
  5
CA
  8
____1
  6
CONTINUOUS
 62
     7
 10
19428.764927378172
 20
9376.9618600388312
 30
0.0
 11
19396.764927378172
 21
9376.9618600388312
 31
0.0
  0
LINE
  5
CB
  8
____1
  6
CONTINUOUS
 62
     7
 10
19416.764927378172
 20
9364.9618600388349
 30
0.0
 11
19428.764927378172
 21
9376.9618600388312
 31
0.0
  0
LINE
  5
CC
  8
____1
  6
CONTINUOUS
 62
     7
 10
19396.764927378172
 20
9376.9618600388312
 30
0.0
 11
19396.764927378172
 21
9360.9618600388312
 31
0.0
  0
LINE
  5
CD
  8
____1
  6
CONTINUOUS
 62
     7
 10
19628.56667166785
 20
9328.1618600388301
 30
0.0
 11
19647.789637049282
 21
9328.1618600388301
 31
0.0
  0
LINE
  5
CE
  8
____1
  6
CONTINUOUS
 62
     7
 10
19595.778970382609
 20
9363.3618600388345
 30
0.0
 11
19591.789637049282
 21
9376.9618600388312
 31
0.0
  0
LINE
  5
CF
  8
____1
  6
CONTINUOUS
 62
     7
 10
19575.789637049282
 20
9342.5618600388316
 30
0.0
 11
19601.880303715949
 21
9342.5618600388316
 31
0.0
  0
LINE
  5
D0
  8
____1
  6
CONTINUOUS
 62
     7
 10
19624.422859034581
 20
9342.5618600388316
 30
0.0
 11
19622.581164530911
 21
9348.9618600388312
 31
0.0
  0
ARC
  5
D1
  8
____1
  6
CONTINUOUS
 62
     7
 10
19495.64977586301
 20
9363.3618600388327
 30
0.0
 40
30.399999999999519
 50
-90.0
 51
-61.914095184792771
  0
LINE
  5
D2
  8
____1
  6
CONTINUOUS
 62
     7
 10
19550.049775863012
 20
9364.9618600388349
 30
0.0
 11
19558.049775863012
 21
9376.9618600388312
 31
0.0
  0
LINE
  5
D3
  8
____1
  6
CONTINUOUS
 62
     7
 10
19647.789637049282
 20
9342.5618600388316
 30
0.0
 11
19647.789637049282
 21
9328.1618600388301
 31
0.0
  0
LINE
  5
D4
  8
____1
  6
CONTINUOUS
 62
     7
 10
19558.049775863012
 20
9332.961860038833
 30
0.0
 11
19558.049775863012
 21
9320.961860038833
 31
0.0
  0
LINE
  5
D5
  8
____1
  6
CONTINUOUS
 62
     7
 10
19618.437351897639
 20
9363.3618600388327
 30
0.0
 11
19647.789637049282
 21
9363.3618600388327
 31
0.0
  0
LINE
  5
D6
  8
____1
  6
CONTINUOUS
 62
     7
 10
19618.437351897639
 20
9363.3618600388345
 30
0.0
 11
19617.266197895839
 21
9367.4316911625701
 31
0.0
  0
LINE
  5
D7
  8
____1
  6
CONTINUOUS
 62
     7
 10
19558.049775863012
 20
9376.9618600388312
 30
0.0
 11
19486.049775863012
 21
9376.9618600388312
 31
0.0
  0
TEXT
  5
D8
  8
____1
  6
CONTINUOUS
 62
     7
 10
19126.998450075971
 20
9330.3554793554849
 30
0.0
 40
50.79999923706054
  1
株式会社
  7
STYLE1
  0
LINE
  5
D9
  8
____1
  6
CONTINUOUS
 62
     7
 10
19609.38963704928
 20
9316.961860038833
 30
0.0
 11
19606.104303715951
 21
9328.1618600388301
 31
0.0
  0
LINE
  5
DA
  8
____1
  6
CONTINUOUS
 62
     7
 10
19420.764927378172
 20
9332.961860038833
 30
0.0
 11
19396.764927378172
 21
9332.961860038833
 31
0.0
  0
LINE
  5
DB
  8
____1
  6
CONTINUOUS
 62
     7
 10
19486.049775863012
 20
9362.5618600388316
 30
0.0
 11
19526.049775863012
 21
9362.5618600388316
 31
0.0
  0
LINE
  5
DC
  8
____1
  6
CONTINUOUS
 62
     7
 10
19594.567095565391
 20
9533.9484763037308
 30
0.0
 11
19632.967095565389
 21
9543.5484763037293
 31
0.0
  0
CIRCLE
  5
DD
  8
____1
  6
CONTINUOUS
 62
     7
 10
19550.67975547188
 20
9524.3484763037286
 30
0.0
 40
19.19999999999709
  0
TEXT
  5
DE
  8
____1
  6
DOT
 62
     7
 10
20165.37975604408
 20
11515.33264309755
 30
0.0
 40
25.39999961853027
  1
検認者
  7
STYLE1
  0
LINE
  5
DF
  8
____1
  6
CONTINUOUS
 62
     7
 10
19416.764927378172
 20
9348.9618600388312
 30
0.0
 11
19432.764927378172
 21
9348.9618600388312
 31
0.0
  0
LINE
  5
E0
  8
____1
  6
CONTINUOUS
 62
     7
 10
19575.789637049282
 20
9348.9618600388312
 30
0.0
 11
19600.002970382611
 21
9348.9618600388312
 31
0.0
  0
LINE
  5
E1
  8
____1
  6
CONTINUOUS
 62
     7
 10
19464.764927378172
 20
9360.9618600388312
 30
0.0
 11
19452.764927378172
 21
9360.9618600388312
 31
0.0
  0
LINE
  5
E2
  8
____1
  6
CONTINUOUS
 62
     7
 10
19452.764927378172
 20
9360.9618600388312
 30
0.0
 11
19452.764927378172
 21
9364.9618600388349
 31
0.0
  0
LINE
  5
E3
  8
____1
  6
CONTINUOUS
 62
     7
 10
19575.789637049282
 20
9363.3618600388327
 30
0.0
 11
19595.778970382609
 21
9363.3618600388327
 31
0.0
  0
LINE
  5
E4
  8
____1
  6
CONTINUOUS
 62
     7
 10
19617.266197895839
 20
9367.4316911625701
 30
0.0
 11
19623.789637049282
 21
9376.9618600388312
 31
0.0
  0
LINE
  5
E5
  8
____1
  6
CONTINUOUS
 62
     7
 10
19486.049775863012
 20
9320.961860038833
 30
0.0
 11
19486.049775863012
 21
9332.961860038833
 31
0.0
  0
LINE
  5
E6
  8
____1
  6
CONTINUOUS
 62
     7
 10
19683.479755471872
 20
9568.3484763037286
 30
0.0
 11
19683.479755471872
 21
9304.3484763037286
 31
0.0
  0
TEXT
  5
E7
  8
____1
  6
CONTINUOUS
 62
     7
 10
19696.201976846391
 20
9363.4419955145459
 30
0.0
 40
28.222221374511719
  1
図 番
  7
STYLE1
  0
TEXT
  5
E8
  8
____1
  6
CONTINUOUS
 62
     7
 10
19689.1464219796
 20
9539.4419955145422
 30
0.0
 40
28.222221374511719
  1
製品名
  7
STYLE1
  0
TEXT
  5
E9
  8
____1
  6
CONTINUOUS
 62
     7
 10
19689.1464219796
 20
9451.441995514544
 30
0.0
 40
28.222221374511719
  1
図面名
  7
STYLE1
  0
LINE
  5
EA
  8
____1
  6
CONTINUOUS
 62
     5
 10
19501.405472383529
 20
11428.194810311759
 30
0.0
 11
19541.005472383531
 21
11428.194810311759
 31
0.0
  0
LINE
  5
EB
  8
____1
  6
CONTINUOUS
 62
     5
 10
19491.479755471872
 20
11424.34847630373
 30
0.0
 11
19491.479755471872
 21
11544.34847630373
 31
0.0
  0
LINE
  5
EC
  8
____1
  6
CONTINUOUS
 62
     5
 10
20163.479755471879
 20
11424.34847630373
 30
0.0
 11
20163.479755471879
 21
11544.34847630373
 31
0.0
  0
LINE
  5
ED
  8
____1
  6
CONTINUOUS
 62
     5
 10
19491.479755471872
 20
11504.34847630373
 30
0.0
 11
20243.479755471879
 21
11504.34847630373
 31
0.0
  0
LINE
  5
EE
  8
____1
  6
CONTINUOUS
 62
     5
 10
19491.479755471872
 20
11464.34847630373
 30
0.0
 11
20243.479755471879
 21
11464.34847630373
 31
0.0
  0
LINE
  5
EF
  8
____1
  6
CONTINUOUS
 62
     5
 10
19491.479755471872
 20
11424.34847630373
 30
0.0
 11
20243.479755471879
 21
11424.34847630373
 31
0.0
  0
TEXT
  5
F0
  8
____1
  6
CONTINUOUS
 62
     7
 10
19581.379756997751
 20
11515.33264309755
 30
0.0
 40
25.39999961853027
  1
改訂日
  7
STYLE1
  0
LINE
  5
F1
  8
____1
  6
CONTINUOUS
 62
     5
 10
17043.479755471872
 20
9304.3484763037286
 30
0.0
 11
17043.479755471872
 21
11544.34847630373
 31
0.0
  0
LINE
  5
F2
  8
____1
  6
CONTINUOUS
 62
     5
 10
17043.479755471872
 20
9304.3484763037286
 30
0.0
 11
20243.479755471879
 21
9304.3484763037286
 31
0.0
  0
LINE
  5
F3
  8
____1
  6
CONTINUOUS
 62
     5
 10
20243.479755471879
 20
11544.34847630373
 30
0.0
 11
17043.479755471872
 21
11544.34847630373
 31
0.0
  0
LINE
  5
F4
  8
____1
  6
CONTINUOUS
 62
     5
 10
20243.479755471879
 20
9304.3484763037286
 30
0.0
 11
20243.479755471879
 21
11544.34847630373
 31
0.0
  0
LINE
  5
F5
  8
____1
  6
CONTINUOUS
 62
     7
 10
19486.049775863012
 20
9355.8080957591283
 30
0.0
 11
19486.049775863012
 21
9358.3849778989807
 31
0.0
  0
LINE
  5
F6
  8
____1
  6
CONTINUOUS
 62
     7
 10
19387.556096885739
 20
9360.9618600388312
 30
0.0
 11
19387.556096885739
 21
9348.9618600388312
 31
0.0
  0
LINE
  5
F7
  8
____1
  6
CONTINUOUS
 62
     5
 10
19521.205472383532
 20
11502.08941630162
 30
0.0
 11
19541.005472383531
 21
11467.794810311751
 31
0.0
  0
LINE
  5
F8
  8
____1
  6
CONTINUOUS
 62
     5
 10
19521.205472383532
 20
11462.48941630162
 30
0.0
 11
19501.405472383529
 21
11428.194810311759
 31
0.0
  0
TEXT
  5
F9
  8
____1
  6
DOT
 62
     7
 10
19498.079755853341
 20
11515.33264309755
 30
0.0
 40
25.39999961853027
  1
副番
  7
STYLE1
  0
LINE
  5
FA
  8
____1
  6
DOT
 62
     7
 10
17003.639755471879
 20
9270.5084763037303
 30
0.0
 11
17003.639755471879
 21
11578.188476303731
 31
0.0
  0
LINE
  5
FB
  8
____1
  6
DOT
 62
     7
 10
20283.319755471872
 20
9270.5084763037303
 30
0.0
 11
20283.319755471872
 21
11578.188476303731
 31
0.0
  0
LINE
  5
FC
  8
____1
  6
DOT
 62
     7
 10
17003.639755471879
 20
9270.5084763037303
 30
0.0
 11
20283.319755471872
 21
9270.5084763037303
 31
0.0
  0
LINE
  5
FD
  8
____1
  6
CONTINUOUS
 62
     7
 10
19416.764927378172
 20
9336.961860038833
 30
0.0
 11
19416.764927378172
 21
9348.9618600388312
 31
0.0
  0
LINE
  5
FE
  8
____1
  6
DOT
 62
     7
 10
20283.319755471872
 20
11578.188476303731
 30
0.0
 11
17003.639755471879
 21
11578.188476303731
 31
0.0
  0
LINE
  5
FF
  8
____1
  6
CONTINUOUS
 62
     7
 10
19396.764927378172
 20
9348.9618600388312
 30
0.0
 11
19396.764927378172
 21
9336.961860038833
 31
0.0
  0
LINE
  5
100
  8
____1
  6
CONTINUOUS
 62
     7
 10
19452.764927378172
 20
9364.9618600388349
 30
0.0
 11
19464.764927378172
 21
9376.9618600388312
 31
0.0
  0
LINE
  5
101
  8
____1
  6
CONTINUOUS
 62
     7
 10
19601.880303715949
 20
9342.5618600388316
 30
0.0
 11
19600.002970382611
 21
9348.9618600388312
 31
0.0
  0
LINE
  5
102
  8
____1
  6
CONTINUOUS
 62
     7
 10
19416.764927378172
 20
9360.9618600388312
 30
0.0
 11
19416.764927378172
 21
9364.9618600388349
 31
0.0
  0
LINE
  5
103
  8
____1
  6
CONTINUOUS
 62
     7
 10
19540.951530679718
 20
9338.168810367044
 30
0.0
 11
19539.526714201369
 21
9336.7737852135288
 31
0.0
  0
LINE
  5
104
  8
____1
  6
CONTINUOUS
 62
     7
 10
19550.049775863012
 20
9364.9618600388349
 30
0.0
 11
19558.049775863012
 21
9376.9618600388312
 31
0.0
  0
LINE
  5
105
  8
____1
  6
CONTINUOUS
 62
     7
 10
19432.764927378172
 20
9376.9618600388312
 30
0.0
 11
19432.764927378172
 21
9360.9618600388312
 31
0.0
  0
LINE
  5
106
  8
____1
  6
CONTINUOUS
 62
     7
 10
19622.581164530911
 20
9348.9618600388312
 30
0.0
 11
19647.789637049282
 21
9348.9618600388312
 31
0.0
  0
LINE
  5
107
  8
____1
  6
CONTINUOUS
 62
     7
 10
19486.049775863012
 20
9320.961860038833
 30
0.0
 11
19506.049775863012
 21
9320.961860038833
 31
0.0
  0
LINE
  5
108
  8
____1
  6
CONTINUOUS
 62
     7
 10
19486.049775863012
 20
9358.3849778989807
 30
0.0
 11
19518.049775863012
 21
9358.3849778989807
 31
0.0
  0
TEXT
  5
109
  8
____1
  6
CONTINUOUS
 62
     7
 10
19794.579753945989
 20
11515.33264309755
 30
0.0
 40
25.39999961853027
  1
改　訂　内　容
  7
STYLE1
  0
LINE
  5
10A
  8
____1
  6
CONTINUOUS
 62
     5
 10
19683.479755471872
 20
11424.34847630373
 30
0.0
 11
19683.479755471872
 21
11544.34847630373
 31
0.0
  0
LINE
  5
10B
  8
____1
  6
CONTINUOUS
 62
     5
 10
20083.479755471879
 20
11424.34847630373
 30
0.0
 11
20083.479755471879
 21
11544.34847630373
 31
0.0
  0
LINE
  5
10C
  8
____1
  6
CONTINUOUS
 62
     5
 10
19555.479755471872
 20
11424.34847630373
 30
0.0
 11
19555.479755471872
 21
11544.34847630373
 31
0.0
  0
LINE
  5
10D
  8
____1
  6
CONTINUOUS
 62
     5
 10
19501.405472383529
 20
11467.794810311751
 30
0.0
 11
19541.005472383531
 21
11467.794810311751
 31
0.0
  0
LINE
  5
10E
  8
____1
  6
CONTINUOUS
 62
     5
 10
19521.205472383532
 20
11462.48941630162
 30
0.0
 11
19541.005472383531
 21
11428.194810311759
 31
0.0
  0
ENDBLK
  5
10F
  8
0
  0
BLOCK
  8
0
  2
C3
 70
     0
 10
0.0
 20
0.0
 30
0.0
  3
C3
  1

  0
CIRCLE
  5
113
  8
____1
  6
CONTINUOUS
 62
     7
 10
18708.635895387779
 20
10106.598914991389
 30
0.0
 40
28.0
  0
TEXT
  5
114
  8
____1
  6
DASHED2
 62
     7
 10
18701.580340044151
 20
10096.60354492125
 30
0.0
 40
28.222221374511719
  1
7
  7
STYLE1
  0
LINE
  5
115
  8
______
  6
CONTINUOUS
 62
     7
 10
18661.969228721111
 20
10106.598914991389
 30
0.0
 11
18680.635895387779
 21
10106.598914991389
 31
0.0
  0
LINE
  5
116
  8
______
  6
CONTINUOUS
 62
     7
 10
18215.40549423483
 20
10608.162649477659
 30
0.0
 11
18661.969228721111
 21
10106.598914991389
 31
0.0
  0
SOLID
  5
117
  8
______
 62
     7
 10
18215.40549423483
 20
10608.162649477659
 30
0.0
 11
18219.23151682183
 21
10600.85775035695
 31
0.0
 12
18215.40549423483
 22
10608.162649477659
 32
0.0
 13
18219.395315905778
 23
10603.68143055486
 33
0.0
  0
SOLID
  5
118
  8
______
 62
     7
 10
18219.395315905778
 20
10603.68143055486
 30
0.0
 11
18222.2189961037
 21
10603.517631470921
 31
0.0
 12
18215.40549423483
 22
10608.162649477659
 32
0.0
 13
18215.40549423483
 23
10608.162649477659
 33
0.0
  0
ENDBLK
  5
119
  8
0
  0
BLOCK
  8
0
  2
C4
 70
     0
 10
0.0
 20
0.0
 30
0.0
  3
C4
  1

  0
CIRCLE
  5
11D
  8
____1
  6
CONTINUOUS
 62
     7
 10
18836.700565488689
 20
10106.598914991389
 30
0.0
 40
28.0
  0
TEXT
  5
11E
  8
____1
  6
DASHED2
 62
     7
 10
18829.645010145061
 20
10096.60354492125
 30
0.0
 40
28.222221374511719
  1
1
  7
STYLE1
  0
LINE
  5
11F
  8
______
  6
CONTINUOUS
 62
     7
 10
18790.033898822021
 20
10106.598914991389
 30
0.0
 11
18808.700565488689
 21
10106.598914991389
 31
0.0
  0
LINE
  5
120
  8
______
  6
CONTINUOUS
 62
     7
 10
18436.869960328899
 20
10490.04631082472
 30
0.0
 11
18790.033898822021
 21
10106.598914991389
 31
0.0
  0
SOLID
  5
121
  8
______
 62
     7
 10
18436.869960328899
 20
10490.04631082472
 30
0.0
 11
18440.81856078847
 21
10482.80693554706
 31
0.0
 12
18436.869960328899
 22
10490.04631082472
 32
0.0
 13
18440.934744525832
 23
10485.63297541571
 33
0.0
  0
SOLID
  5
122
  8
______
 62
     7
 10
18440.934744525832
 20
10485.63297541571
 30
0.0
 11
18443.760784394479
 21
10485.51679167835
 31
0.0
 12
18436.869960328899
 22
10490.04631082472
 32
0.0
 13
18436.869960328899
 23
10490.04631082472
 33
0.0
  0
ENDBLK
  5
123
  8
0
  0
BLOCK
  8
0
  2
*D6
 70
     1
 10
0.0
 20
0.0
 30
0.0
  3
*D6
  1

  0
LINE
  5
127
  8
____1
  6
CONTINUOUS
 62
     7
 10
18440.869960328899
 20
10421.6981833836
 30
0.0
 11
18697.006528781221
 21
10421.6981833836
 31
0.0
  0
LINE
  5
128
  8
____1
  6
CONTINUOUS
 62
     7
 10
18440.869960328899
 20
11061.6981833836
 30
0.0
 11
18697.006528781221
 21
11061.6981833836
 31
0.0
  0
SOLID
  5
129
  8
____1
  6
CONTINUOUS
 62
     7
 10
18685.006528781221
 20
11041.6981833836
 30
0.0
 11
18685.006528781221
 21
11041.6981833836
 31
0.0
 12
18686.006528781221
 22
11046.6981833836
 32
0.0
 13
18689.006528781221
 23
11046.6981833836
 33
0.0
  0
SOLID
  5
12A
  8
____1
  6
CONTINUOUS
 62
     7
 10
18693.006528781221
 20
11041.6981833836
 30
0.0
 11
18693.006528781221
 21
11041.6981833836
 31
0.0
 12
18689.006528781221
 22
11046.6981833836
 32
0.0
 13
18692.006528781221
 23
11046.6981833836
 33
0.0
  0
SOLID
  5
12B
  8
____1
  6
CONTINUOUS
 62
     7
 10
18686.006528781221
 20
11046.6981833836
 30
0.0
 11
18692.006528781221
 21
11046.6981833836
 31
0.0
 12
18689.006528781221
 22
11061.6981833836
 32
0.0
 13
18689.006528781221
 23
11061.6981833836
 33
0.0
  0
LINE
  5
12C
  8
____1
  6
CONTINUOUS
 62
     7
 10
18689.006528781221
 20
11061.6981833836
 30
0.0
 11
18689.006528781221
 21
10741.6981833836
 31
0.0
  0
SOLID
  5
12D
  8
____1
  6
CONTINUOUS
 62
     7
 10
18689.006528781221
 20
10421.6981833836
 30
0.0
 11
18689.006528781221
 21
10421.6981833836
 31
0.0
 12
18686.006528781221
 22
10436.6981833836
 32
0.0
 13
18692.006528781221
 23
10436.6981833836
 33
0.0
  0
SOLID
  5
12E
  8
____1
  6
CONTINUOUS
 62
     7
 10
18686.006528781221
 20
10436.6981833836
 30
0.0
 11
18689.006528781221
 21
10436.6981833836
 31
0.0
 12
18685.006528781221
 22
10441.6981833836
 32
0.0
 13
18685.006528781221
 23
10441.6981833836
 33
0.0
  0
SOLID
  5
12F
  8
____1
  6
CONTINUOUS
 62
     7
 10
18689.006528781221
 20
10436.6981833836
 30
0.0
 11
18692.006528781221
 21
10436.6981833836
 31
0.0
 12
18693.006528781221
 22
10441.6981833836
 32
0.0
 13
18693.006528781221
 23
10441.6981833836
 33
0.0
  0
LINE
  5
130
  8
____1
  6
CONTINUOUS
 62
     7
 10
18689.006528781221
 20
10421.6981833836
 30
0.0
 11
18689.006528781221
 21
10741.6981833836
 31
0.0
  0
TEXT
  5
131
  8
______
  6
DASHED2
 62
     7
 10
18680.890788164099
 20
10720.531517352711
 30
0.0
 40
28.222221374511719
  1
640
 50
90.0
  7
STYLE1
  0
ENDBLK
  5
132
  8
0
  0
BLOCK
  8
0
  2
*D7
 70
     1
 10
0.0
 20
0.0
 30
0.0
  3
*D7
  1

  0
LINE
  5
136
  8
____1
  6
CONTINUOUS
 62
     7
 10
18470.869960328899
 20
10395.1981833836
 30
0.0
 11
18774.033533018701
 21
10395.1981833836
 31
0.0
  0
LINE
  5
137
  8
____1
  6
CONTINUOUS
 62
     7
 10
18470.869960328899
 20
11095.1981833836
 30
0.0
 11
18774.033533018701
 21
11095.1981833836
 31
0.0
  0
SOLID
  5
138
  8
____1
  6
CONTINUOUS
 62
     7
 10
18762.033533018701
 20
11075.1981833836
 30
0.0
 11
18762.033533018701
 21
11075.1981833836
 31
0.0
 12
18763.033533018701
 22
11080.1981833836
 32
0.0
 13
18766.033533018701
 23
11080.1981833836
 33
0.0
  0
SOLID
  5
139
  8
____1
  6
CONTINUOUS
 62
     7
 10
18770.033533018701
 20
11075.1981833836
 30
0.0
 11
18770.033533018701
 21
11075.1981833836
 31
0.0
 12
18766.033533018701
 22
11080.1981833836
 32
0.0
 13
18769.033533018701
 23
11080.1981833836
 33
0.0
  0
SOLID
  5
13A
  8
____1
  6
CONTINUOUS
 62
     7
 10
18763.033533018701
 20
11080.1981833836
 30
0.0
 11
18769.033533018701
 21
11080.1981833836
 31
0.0
 12
18766.033533018701
 22
11095.1981833836
 32
0.0
 13
18766.033533018701
 23
11095.1981833836
 33
0.0
  0
LINE
  5
13B
  8
____1
  6
CONTINUOUS
 62
     7
 10
18766.033533018701
 20
11095.1981833836
 30
0.0
 11
18766.033533018701
 21
10745.1981833836
 31
0.0
  0
SOLID
  5
13C
  8
____1
  6
CONTINUOUS
 62
     7
 10
18766.033533018701
 20
10395.1981833836
 30
0.0
 11
18766.033533018701
 21
10395.1981833836
 31
0.0
 12
18763.033533018701
 22
10410.1981833836
 32
0.0
 13
18769.033533018701
 23
10410.1981833836
 33
0.0
  0
SOLID
  5
13D
  8
____1
  6
CONTINUOUS
 62
     7
 10
18763.033533018701
 20
10410.1981833836
 30
0.0
 11
18766.033533018701
 21
10410.1981833836
 31
0.0
 12
18762.033533018701
 22
10415.1981833836
 32
0.0
 13
18762.033533018701
 23
10415.1981833836
 33
0.0
  0
SOLID
  5
13E
  8
____1
  6
CONTINUOUS
 62
     7
 10
18766.033533018701
 20
10410.1981833836
 30
0.0
 11
18769.033533018701
 21
10410.1981833836
 31
0.0
 12
18770.033533018701
 22
10415.1981833836
 32
0.0
 13
18770.033533018701
 23
10415.1981833836
 33
0.0
  0
LINE
  5
13F
  8
____1
  6
CONTINUOUS
 62
     7
 10
18766.033533018701
 20
10395.1981833836
 30
0.0
 11
18766.033533018701
 21
10745.1981833836
 31
0.0
  0
TEXT
  5
140
  8
______
  6
DASHED2
 62
     7
 10
18757.917792401578
 20
10724.03151735272
 30
0.0
 40
28.222221374511719
  1
700
 50
90.0
  7
STYLE1
  0
ENDBLK
  5
141
  8
0
  0
BLOCK
  8
0
  2
*D8
 70
     1
 10
0.0
 20
0.0
 30
0.0
  3
*D8
  1

  0
LINE
  5
149
  8
____1
  6
CONTINUOUS
 62
     7
 10
17612.869960328899
 20
10245.1981833836
 30
0.0
 11
17547.003664763641
 21
10245.1981833836
 31
0.0
  0
LINE
  5
14A
  8
____1
  6
CONTINUOUS
 62
     7
 10
17740.369960328899
 20
10495.1981833836
 30
0.0
 11
17547.003664763641
 21
10495.1981833836
 31
0.0
  0
SOLID
  5
14B
  8
____1
  6
CONTINUOUS
 62
     7
 10
17551.003664763641
 20
10475.1981833836
 30
0.0
 11
17551.003664763641
 21
10475.1981833836
 31
0.0
 12
17552.003664763641
 22
10480.1981833836
 32
0.0
 13
17555.003664763641
 23
10480.1981833836
 33
0.0
  0
SOLID
  5
14C
  8
____1
  6
CONTINUOUS
 62
     7
 10
17559.003664763641
 20
10475.1981833836
 30
0.0
 11
17559.003664763641
 21
10475.1981833836
 31
0.0
 12
17555.003664763641
 22
10480.1981833836
 32
0.0
 13
17558.003664763641
 23
10480.1981833836
 33
0.0
  0
SOLID
  5
14D
  8
____1
  6
CONTINUOUS
 62
     7
 10
17552.003664763641
 20
10480.1981833836
 30
0.0
 11
17558.003664763641
 21
10480.1981833836
 31
0.0
 12
17555.003664763641
 22
10495.1981833836
 32
0.0
 13
17555.003664763641
 23
10495.1981833836
 33
0.0
  0
LINE
  5
14E
  8
____1
  6
CONTINUOUS
 62
     7
 10
17555.003664763641
 20
10495.1981833836
 30
0.0
 11
17555.003664763641
 21
10370.1981833836
 31
0.0
  0
SOLID
  5
14F
  8
____1
  6
CONTINUOUS
 62
     7
 10
17555.003664763641
 20
10245.1981833836
 30
0.0
 11
17555.003664763641
 21
10245.1981833836
 31
0.0
 12
17552.003664763641
 22
10260.1981833836
 32
0.0
 13
17558.003664763641
 23
10260.1981833836
 33
0.0
  0
SOLID
  5
150
  8
____1
  6
CONTINUOUS
 62
     7
 10
17552.003664763641
 20
10260.1981833836
 30
0.0
 11
17555.003664763641
 21
10260.1981833836
 31
0.0
 12
17551.003664763641
 22
10265.1981833836
 32
0.0
 13
17551.003664763641
 23
10265.1981833836
 33
0.0
  0
SOLID
  5
151
  8
____1
  6
CONTINUOUS
 62
     7
 10
17555.003664763641
 20
10260.1981833836
 30
0.0
 11
17558.003664763641
 21
10260.1981833836
 31
0.0
 12
17559.003664763641
 22
10265.1981833836
 32
0.0
 13
17559.003664763641
 23
10265.1981833836
 33
0.0
  0
LINE
  5
152
  8
____1
  6
CONTINUOUS
 62
     7
 10
17555.003664763641
 20
10245.1981833836
 30
0.0
 11
17555.003664763641
 21
10370.1981833836
 31
0.0
  0
TEXT
  5
153
  8
______
  6
DASHED2
 62
     7
 10
17546.887924146518
 20
10349.03151735272
 30
0.0
 40
28.222221374511719
  1
250
 50
90.0
  7
STYLE1
  0
ENDBLK
  5
154
  8
0
  0
BLOCK
  8
0
  2
C5
 70
     0
 10
0.0
 20
0.0
 30
0.0
  3
C5
  1

  0
CIRCLE
  5
158
  8
____1
  6
CONTINUOUS
 62
     7
 10
18570.070550443012
 20
10106.598914991389
 30
0.0
 40
28.0
  0
TEXT
  5
159
  8
____1
  6
DASHED2
 62
     7
 10
18563.01499509938
 20
10096.60354492125
 30
0.0
 40
28.222221374511719
  1
8
  7
STYLE1
  0
LINE
  5
15A
  8
______
  6
CONTINUOUS
 62
     7
 10
18523.40388377634
 20
10106.598914991389
 30
0.0
 11
18542.070550443012
 21
10106.598914991389
 31
0.0
  0
LINE
  5
15B
  8
______
  6
CONTINUOUS
 62
     7
 10
18136.869960328899
 20
10470.891696680619
 30
0.0
 11
18523.40388377634
 21
10106.598914991389
 31
0.0
  0
SOLID
  5
15C
  8
______
 62
     7
 10
18136.869960328899
 20
10470.891696680619
 30
0.0
 11
18141.320109609409
 21
10463.949350435931
 31
0.0
 12
18136.869960328899
 22
10470.891696680619
 32
0.0
 13
18141.236362099498
 23
10466.77653743975
 33
0.0
  0
SOLID
  5
15D
  8
______
 62
     7
 10
18141.236362099498
 20
10466.77653743975
 30
0.0
 11
18144.063549103321
 21
10466.86028494966
 31
0.0
 12
18136.869960328899
 22
10470.891696680619
 32
0.0
 13
18136.869960328899
 23
10470.891696680619
 33
0.0
  0
ENDBLK
  5
15E
  8
0
  0
BLOCK
  8
0
  2
*D10
 70
     1
 10
0.0
 20
0.0
 30
0.0
  3
*D10
  1

  0
LINE
  5
165
  8
____1
  6
CONTINUOUS
 62
     7
 10
18620.869960328899
 20
10245.1981833836
 30
0.0
 11
18844.313480935361
 21
10245.1981833836
 31
0.0
  0
LINE
  5
166
  8
____1
  6
CONTINUOUS
 62
     7
 10
18620.869960328899
 20
11245.1981833836
 30
0.0
 11
18844.313480935361
 21
11245.1981833836
 31
0.0
  0
SOLID
  5
167
  8
____1
  6
CONTINUOUS
 62
     7
 10
18832.313480935361
 20
11225.1981833836
 30
0.0
 11
18832.313480935361
 21
11225.1981833836
 31
0.0
 12
18833.313480935361
 22
11230.1981833836
 32
0.0
 13
18836.313480935361
 23
11230.1981833836
 33
0.0
  0
SOLID
  5
168
  8
____1
  6
CONTINUOUS
 62
     7
 10
18840.313480935361
 20
11225.1981833836
 30
0.0
 11
18840.313480935361
 21
11225.1981833836
 31
0.0
 12
18836.313480935361
 22
11230.1981833836
 32
0.0
 13
18839.313480935361
 23
11230.1981833836
 33
0.0
  0
SOLID
  5
169
  8
____1
  6
CONTINUOUS
 62
     7
 10
18833.313480935361
 20
11230.1981833836
 30
0.0
 11
18839.313480935361
 21
11230.1981833836
 31
0.0
 12
18836.313480935361
 22
11245.1981833836
 32
0.0
 13
18836.313480935361
 23
11245.1981833836
 33
0.0
  0
LINE
  5
16A
  8
____1
  6
CONTINUOUS
 62
     7
 10
18836.313480935361
 20
11245.1981833836
 30
0.0
 11
18836.313480935361
 21
10741.6981833836
 31
0.0
  0
SOLID
  5
16B
  8
____1
  6
CONTINUOUS
 62
     7
 10
18836.313480935361
 20
10245.1981833836
 30
0.0
 11
18836.313480935361
 21
10245.1981833836
 31
0.0
 12
18833.313480935361
 22
10260.1981833836
 32
0.0
 13
18839.313480935361
 23
10260.1981833836
 33
0.0
  0
SOLID
  5
16C
  8
____1
  6
CONTINUOUS
 62
     7
 10
18833.313480935361
 20
10260.1981833836
 30
0.0
 11
18836.313480935361
 21
10260.1981833836
 31
0.0
 12
18832.313480935361
 22
10265.1981833836
 32
0.0
 13
18832.313480935361
 23
10265.1981833836
 33
0.0
  0
SOLID
  5
16D
  8
____1
  6
CONTINUOUS
 62
     7
 10
18836.313480935361
 20
10260.1981833836
 30
0.0
 11
18839.313480935361
 21
10260.1981833836
 31
0.0
 12
18840.313480935361
 22
10265.1981833836
 32
0.0
 13
18840.313480935361
 23
10265.1981833836
 33
0.0
  0
LINE
  5
16E
  8
____1
  6
CONTINUOUS
 62
     7
 10
18836.313480935361
 20
10245.1981833836
 30
0.0
 11
18836.313480935361
 21
10741.6981833836
 31
0.0
  0
TEXT
  5
16F
  8
______
  6
DASHED2
 62
     7
 10
18828.19774031825
 20
10713.475962009081
 30
0.0
 40
28.222221374511719
  1
1000
 50
90.0
  7
STYLE1
  0
ENDBLK
  5
170
  8
0
  0
BLOCK
  8
0
  2
C6
 70
     0
 10
0.0
 20
0.0
 30
0.0
  3
C6
  1

  0
CIRCLE
  5
174
  8
____1
  6
CONTINUOUS
 62
     7
 10
19488.31011058639
 20
10343.07979321257
 30
0.0
 40
28.0
  0
TEXT
  5
175
  8
____1
  6
DASHED2
 62
     7
 10
19481.254555242758
 20
10333.084423142431
 30
0.0
 40
28.222221374511719
  1
9
  7
STYLE1
  0
LINE
  5
176
  8
______
  6
CONTINUOUS
 62
     7
 10
19534.976777253061
 20
10343.07979321257
 30
0.0
 11
19516.31011058639
 21
10343.07979321257
 31
0.0
  0
LINE
  5
177
  8
______
  6
CONTINUOUS
 62
     7
 10
19627.09516742409
 20
10435.1981833836
 30
0.0
 11
19534.976777253061
 21
10343.07979321257
 31
0.0
  0
SOLID
  5
178
  8
______
 62
     7
 10
19627.09516742409
 20
10435.1981833836
 30
0.0
 11
19620.02409961223
 21
10430.95554269648
 31
0.0
 12
19627.09516742409
 22
10435.1981833836
 32
0.0
 13
19622.85252673697
 23
10430.95554269648
 33
0.0
  0
SOLID
  5
179
  8
______
 62
     7
 10
19622.85252673697
 20
10430.95554269648
 30
0.0
 11
19622.85252673697
 21
10428.12711557173
 31
0.0
 12
19627.09516742409
 22
10435.1981833836
 32
0.0
 13
19627.09516742409
 23
10435.1981833836
 33
0.0
  0
ENDBLK
  5
17A
  8
0
  0
BLOCK
  8
0
  2
*D12
 70
     1
 10
0.0
 20
0.0
 30
0.0
  3
*D12
  1

  0
LINE
  5
187
  8
____1
  6
CONTINUOUS
 62
     7
 10
18476.869960328891
 20
9560.6708219062893
 30
0.0
 11
18476.869960328891
 21
9700.6957898228447
 31
0.0
  0
LINE
  5
188
  8
____1
  6
CONTINUOUS
 62
     7
 10
17756.869960328899
 20
9560.6708219062893
 30
0.0
 11
17756.869960328899
 21
9700.6957898228447
 31
0.0
  0
SOLID
  5
189
  8
____1
  6
CONTINUOUS
 62
     7
 10
17776.869960328899
 20
9688.6957898228447
 30
0.0
 11
17776.869960328899
 21
9688.6957898228447
 31
0.0
 12
17756.869960328899
 22
9692.6957898228447
 32
0.0
 13
17771.869960328899
 23
9692.6957898228447
 33
0.0
  0
SOLID
  5
18A
  8
____1
  6
CONTINUOUS
 62
     7
 10
17756.869960328899
 20
9692.6957898228447
 30
0.0
 11
17771.869960328899
 21
9692.6957898228447
 31
0.0
 12
17776.869960328899
 22
9696.6957898228447
 32
0.0
 13
17776.869960328899
 23
9696.6957898228447
 33
0.0
  0
LINE
  5
18B
  8
____1
  6
CONTINUOUS
 62
     7
 10
17756.869960328899
 20
9692.6957898228447
 30
0.0
 11
18116.869960328899
 21
9692.6957898228447
 31
0.0
  0
SOLID
  5
18C
  8
____1
  6
CONTINUOUS
 62
     7
 10
18456.869960328891
 20
9688.6957898228447
 30
0.0
 11
18456.869960328891
 21
9688.6957898228447
 31
0.0
 12
18461.869960328891
 22
9692.6957898228447
 32
0.0
 13
18476.869960328891
 23
9692.6957898228447
 33
0.0
  0
SOLID
  5
18D
  8
____1
  6
CONTINUOUS
 62
     7
 10
18461.869960328891
 20
9692.6957898228447
 30
0.0
 11
18476.869960328891
 21
9692.6957898228447
 31
0.0
 12
18456.869960328891
 22
9696.6957898228447
 32
0.0
 13
18456.869960328891
 23
9696.6957898228447
 33
0.0
  0
LINE
  5
18E
  8
____1
  6
CONTINUOUS
 62
     7
 10
18476.869960328891
 20
9692.6957898228447
 30
0.0
 11
18116.869960328899
 21
9692.6957898228447
 31
0.0
  0
TEXT
  5
18F
  8
______
  6
CENTER2
 62
     7
 10
18095.703294298011
 20
9700.8115304399635
 30
0.0
 40
28.222221374511719
  1
720
  7
STYLE1
  0
ENDBLK
  5
190
  8
0
  0
BLOCK
  8
0
  2
*D13
 70
     1
 10
0.0
 20
0.0
 30
0.0
  3
*D13
  1

  0
LINE
  5
194
  8
____1
  6
CONTINUOUS
 62
     7
 10
18459.369960328891
 20
9546.1708219062912
 30
0.0
 11
18459.369960328891
 21
9433.5113735225495
 31
0.0
  0
LINE
  5
195
  8
____1
  6
CONTINUOUS
 62
     7
 10
17774.369960328899
 20
9546.1708219062912
 30
0.0
 11
17774.369960328899
 21
9433.5113735225495
 31
0.0
  0
SOLID
  5
196
  8
____1
  6
CONTINUOUS
 62
     7
 10
17794.369960328899
 20
9437.5113735225495
 30
0.0
 11
17794.369960328899
 21
9437.5113735225495
 31
0.0
 12
17774.369960328899
 22
9441.5113735225495
 32
0.0
 13
17789.369960328899
 23
9441.5113735225495
 33
0.0
  0
SOLID
  5
197
  8
____1
  6
CONTINUOUS
 62
     7
 10
17774.369960328899
 20
9441.5113735225495
 30
0.0
 11
17789.369960328899
 21
9441.5113735225495
 31
0.0
 12
17794.369960328899
 22
9445.5113735225495
 32
0.0
 13
17794.369960328899
 23
9445.5113735225495
 33
0.0
  0
LINE
  5
198
  8
____1
  6
CONTINUOUS
 62
     7
 10
17774.369960328899
 20
9441.5113735225495
 30
0.0
 11
18116.869960328899
 21
9441.5113735225495
 31
0.0
  0
SOLID
  5
199
  8
____1
  6
CONTINUOUS
 62
     7
 10
18439.369960328891
 20
9437.5113735225495
 30
0.0
 11
18439.369960328891
 21
9437.5113735225495
 31
0.0
 12
18444.369960328891
 22
9441.5113735225495
 32
0.0
 13
18459.369960328891
 23
9441.5113735225495
 33
0.0
  0
SOLID
  5
19A
  8
____1
  6
CONTINUOUS
 62
     7
 10
18444.369960328891
 20
9441.5113735225495
 30
0.0
 11
18459.369960328891
 21
9441.5113735225495
 31
0.0
 12
18439.369960328891
 22
9445.5113735225495
 32
0.0
 13
18439.369960328891
 23
9445.5113735225495
 33
0.0
  0
LINE
  5
19B
  8
____1
  6
CONTINUOUS
 62
     7
 10
18459.369960328891
 20
9441.5113735225495
 30
0.0
 11
18116.869960328899
 21
9441.5113735225495
 31
0.0
  0
TEXT
  5
19C
  8
______
  6
CENTER2
 62
     7
 10
18095.703294298011
 20
9449.6271141396664
 30
0.0
 40
28.222221374511719
  1
685
  7
STYLE1
  0
ENDBLK
  5
19D
  8
0
  0
BLOCK
  8
0
  2
*D14
 70
     1
 10
0.0
 20
0.0
 30
0.0
  3
*D14
  1

  0
LINE
  5
1A1
  8
____1
  6
CONTINUOUS
 62
     7
 10
17867.4910997398
 20
9550.1708219062912
 30
0.0
 11
17867.4910997398
 21
9580.6977703559296
 31
0.0
  0
LINE
  5
1A2
  8
____1
  6
CONTINUOUS
 62
     7
 10
17808.896908778541
 20
9580.6977703559296
 30
0.0
 11
17875.4910997398
 21
9580.6977703559296
 31
0.0
  0
LINE
  5
1A3
  8
____1
  6
CONTINUOUS
 62
     7
 10
17778.369960328899
 20
9550.1708219062912
 30
0.0
 11
17875.4910997398
 21
9550.1708219062912
 31
0.0
  0
SOLID
  5
1A4
  8
____1
  6
CONTINUOUS
 62
     7
 10
17863.4910997398
 20
9530.1708219062912
 30
0.0
 11
17863.4910997398
 21
9530.1708219062912
 31
0.0
 12
17864.4910997398
 22
9535.1708219062912
 32
0.0
 13
17867.4910997398
 23
9535.1708219062912
 33
0.0
  0
SOLID
  5
1A5
  8
____1
  6
CONTINUOUS
 62
     7
 10
17871.4910997398
 20
9530.1708219062912
 30
0.0
 11
17871.4910997398
 21
9530.1708219062912
 31
0.0
 12
17867.4910997398
 22
9535.1708219062912
 32
0.0
 13
17870.4910997398
 23
9535.1708219062912
 33
0.0
  0
SOLID
  5
1A6
  8
____1
  6
CONTINUOUS
 62
     7
 10
17864.4910997398
 20
9535.1708219062912
 30
0.0
 11
17870.4910997398
 21
9535.1708219062912
 31
0.0
 12
17867.4910997398
 22
9550.1708219062912
 32
0.0
 13
17867.4910997398
 23
9550.1708219062912
 33
0.0
  0
LINE
  5
1A7
  8
____1
  6
CONTINUOUS
 62
     7
 10
17867.4910997398
 20
9550.1708219062912
 30
0.0
 11
17867.4910997398
 21
9467.1144430465683
 31
0.0
  0
SOLID
  5
1A8
  8
____1
  6
CONTINUOUS
 62
     7
 10
17867.4910997398
 20
9580.6977703559296
 30
0.0
 11
17867.4910997398
 21
9580.6977703559296
 31
0.0
 12
17864.4910997398
 22
9595.6977703559314
 32
0.0
 13
17870.4910997398
 23
9595.6977703559314
 33
0.0
  0
SOLID
  5
1A9
  8
____1
  6
CONTINUOUS
 62
     7
 10
17864.4910997398
 20
9595.6977703559314
 30
0.0
 11
17867.4910997398
 21
9595.6977703559314
 31
0.0
 12
17863.4910997398
 22
9600.6977703559314
 32
0.0
 13
17863.4910997398
 23
9600.6977703559314
 33
0.0
  0
SOLID
  5
1AA
  8
____1
  6
CONTINUOUS
 62
     7
 10
17867.4910997398
 20
9595.6977703559314
 30
0.0
 11
17870.4910997398
 21
9595.6977703559314
 31
0.0
 12
17871.4910997398
 22
9600.6977703559314
 32
0.0
 13
17871.4910997398
 23
9600.6977703559314
 33
0.0
  0
LINE
  5
1AB
  8
____1
  6
CONTINUOUS
 62
     7
 10
17867.4910997398
 20
9580.6977703559296
 30
0.0
 11
17867.4910997398
 21
9620.6977703559314
 31
0.0
  0
TEXT
  5
1AC
  8
______
  6
CENTER2
 62
     7
 10
17859.375359122689
 20
9481.2255537338242
 30
0.0
 40
28.222221374511719
  1
(30)
 50
90.0
  7
STYLE1
  0
ENDBLK
  5
1AD
  8
0
  0
BLOCK
  8
0
  2
*D15
 70
     1
 10
0.0
 20
0.0
 30
0.0
  3
*D15
  1

  0
LINE
  5
1B5
  8
____1
  6
CONTINUOUS
 62
     7
 10
18466.869960328899
 20
10391.1981833836
 30
0.0
 11
18466.869960328899
 21
10101.173317156579
 31
0.0
  0
LINE
  5
1B6
  8
____1
  6
CONTINUOUS
 62
     7
 10
17766.869960328899
 20
10391.1981833836
 30
0.0
 11
17766.869960328899
 21
10101.173317156579
 31
0.0
  0
SOLID
  5
1B7
  8
____1
  6
CONTINUOUS
 62
     7
 10
17786.869960328899
 20
10105.173317156579
 30
0.0
 11
17786.869960328899
 21
10105.173317156579
 31
0.0
 12
17766.869960328899
 22
10109.173317156579
 32
0.0
 13
17781.869960328899
 23
10109.173317156579
 33
0.0
  0
SOLID
  5
1B8
  8
____1
  6
CONTINUOUS
 62
     7
 10
17766.869960328899
 20
10109.173317156579
 30
0.0
 11
17781.869960328899
 21
10109.173317156579
 31
0.0
 12
17786.869960328899
 22
10113.173317156579
 32
0.0
 13
17786.869960328899
 23
10113.173317156579
 33
0.0
  0
LINE
  5
1B9
  8
____1
  6
CONTINUOUS
 62
     7
 10
17766.869960328899
 20
10109.173317156579
 30
0.0
 11
18116.869960328899
 21
10109.173317156579
 31
0.0
  0
SOLID
  5
1BA
  8
____1
  6
CONTINUOUS
 62
     7
 10
18446.869960328899
 20
10105.173317156579
 30
0.0
 11
18446.869960328899
 21
10105.173317156579
 31
0.0
 12
18451.869960328899
 22
10109.173317156579
 32
0.0
 13
18466.869960328899
 23
10109.173317156579
 33
0.0
  0
SOLID
  5
1BB
  8
____1
  6
CONTINUOUS
 62
     7
 10
18451.869960328899
 20
10109.173317156579
 30
0.0
 11
18466.869960328899
 21
10109.173317156579
 31
0.0
 12
18446.869960328899
 22
10113.173317156579
 32
0.0
 13
18446.869960328899
 23
10113.173317156579
 33
0.0
  0
LINE
  5
1BC
  8
____1
  6
CONTINUOUS
 62
     7
 10
18466.869960328899
 20
10109.173317156579
 30
0.0
 11
18116.869960328899
 21
10109.173317156579
 31
0.0
  0
TEXT
  5
1BD
  8
______
  6
DASHED2
 62
     7
 10
18095.703294298019
 20
10117.2890577737
 30
0.0
 40
28.222221374511719
  1
700
  7
STYLE1
  0
ENDBLK
  5
1BE
  8
0
  0
BLOCK
  8
0
  2
*D16
 70
     1
 10
0.0
 20
0.0
 30
0.0
  3
*D16
  1

  0
LINE
  5
1C2
  8
____1
  6
CONTINUOUS
 62
     7
 10
17739.369960328899
 20
9441.5113735225495
 30
0.0
 11
17774.369960328899
 21
9441.5113735225495
 31
0.0
  0
LINE
  5
1C3
  8
____1
  6
CONTINUOUS
 62
     7
 10
17774.369960328899
 20
9546.1708219062912
 30
0.0
 11
17774.369960328899
 21
9433.5113735225495
 31
0.0
  0
LINE
  5
1C4
  8
____1
  6
CONTINUOUS
 62
     7
 10
17739.369960328899
 20
9546.1708219062912
 30
0.0
 11
17739.369960328899
 21
9433.5113735225495
 31
0.0
  0
SOLID
  5
1C5
  8
____1
  6
CONTINUOUS
 62
     7
 10
17719.369960328899
 20
9437.5113735225495
 30
0.0
 11
17719.369960328899
 21
9437.5113735225495
 31
0.0
 12
17724.369960328899
 22
9441.5113735225495
 32
0.0
 13
17739.369960328899
 23
9441.5113735225495
 33
0.0
  0
SOLID
  5
1C6
  8
____1
  6
CONTINUOUS
 62
     7
 10
17724.369960328899
 20
9441.5113735225495
 30
0.0
 11
17739.369960328899
 21
9441.5113735225495
 31
0.0
 12
17719.369960328899
 22
9445.5113735225495
 32
0.0
 13
17719.369960328899
 23
9445.5113735225495
 33
0.0
  0
LINE
  5
1C7
  8
____1
  6
CONTINUOUS
 62
     7
 10
17739.369960328899
 20
9441.5113735225495
 30
0.0
 11
17699.369960328899
 21
9441.5113735225495
 31
0.0
  0
SOLID
  5
1C8
  8
____1
  6
CONTINUOUS
 62
     7
 10
17794.369960328899
 20
9437.5113735225495
 30
0.0
 11
17794.369960328899
 21
9437.5113735225495
 31
0.0
 12
17774.369960328899
 22
9441.5113735225495
 32
0.0
 13
17789.369960328899
 23
9441.5113735225495
 33
0.0
  0
SOLID
  5
1C9
  8
____1
  6
CONTINUOUS
 62
     7
 10
17774.369960328899
 20
9441.5113735225495
 30
0.0
 11
17789.369960328899
 21
9441.5113735225495
 31
0.0
 12
17794.369960328899
 22
9445.5113735225495
 32
0.0
 13
17794.369960328899
 23
9445.5113735225495
 33
0.0
  0
LINE
  5
1CA
  8
____1
  6
CONTINUOUS
 62
     7
 10
17774.369960328899
 20
9441.5113735225495
 30
0.0
 11
17814.369960328899
 21
9441.5113735225495
 31
0.0
  0
TEXT
  5
1CB
  8
______
  6
CENTER2
 62
     7
 10
17742.758849641639
 20
9449.6271141396664
 30
0.0
 40
28.222221374511719
  1
35
  7
STYLE1
  0
ENDBLK
  5
1CC
  8
0
  0
BLOCK
  8
0
  2
*D17
 70
     1
 10
0.0
 20
0.0
 30
0.0
  3
*D17
  1

  0
LINE
  5
1D4
  8
____1
  6
CONTINUOUS
 62
     7
 10
18476.869960328899
 20
11011.6981833836
 30
0.0
 11
18476.869960328899
 21
11303.752115192639
 31
0.0
  0
LINE
  5
1D5
  8
____1
  6
CONTINUOUS
 62
     7
 10
17756.869960328899
 20
11011.6981833836
 30
0.0
 11
17756.869960328899
 21
11303.752115192639
 31
0.0
  0
SOLID
  5
1D6
  8
____1
  6
CONTINUOUS
 62
     7
 10
17776.869960328899
 20
11291.752115192639
 30
0.0
 11
17776.869960328899
 21
11291.752115192639
 31
0.0
 12
17756.869960328899
 22
11295.752115192639
 32
0.0
 13
17771.869960328899
 23
11295.752115192639
 33
0.0
  0
SOLID
  5
1D7
  8
____1
  6
CONTINUOUS
 62
     7
 10
17756.869960328899
 20
11295.752115192639
 30
0.0
 11
17771.869960328899
 21
11295.752115192639
 31
0.0
 12
17776.869960328899
 22
11299.752115192639
 32
0.0
 13
17776.869960328899
 23
11299.752115192639
 33
0.0
  0
LINE
  5
1D8
  8
____1
  6
CONTINUOUS
 62
     7
 10
17756.869960328899
 20
11295.752115192639
 30
0.0
 11
18116.869960328899
 21
11295.752115192639
 31
0.0
  0
SOLID
  5
1D9
  8
____1
  6
CONTINUOUS
 62
     7
 10
18456.869960328899
 20
11291.752115192639
 30
0.0
 11
18456.869960328899
 21
11291.752115192639
 31
0.0
 12
18461.869960328899
 22
11295.752115192639
 32
0.0
 13
18476.869960328899
 23
11295.752115192639
 33
0.0
  0
SOLID
  5
1DA
  8
____1
  6
CONTINUOUS
 62
     7
 10
18461.869960328899
 20
11295.752115192639
 30
0.0
 11
18476.869960328899
 21
11295.752115192639
 31
0.0
 12
18456.869960328899
 22
11299.752115192639
 32
0.0
 13
18456.869960328899
 23
11299.752115192639
 33
0.0
  0
LINE
  5
1DB
  8
____1
  6
CONTINUOUS
 62
     7
 10
18476.869960328899
 20
11295.752115192639
 30
0.0
 11
18116.869960328899
 21
11295.752115192639
 31
0.0
  0
TEXT
  5
1DC
  8
______
  6
DASHED2
 62
     7
 10
18095.703294298019
 20
11303.86785580976
 30
0.0
 40
28.222221374511719
  1
720
  7
STYLE1
  0
ENDBLK
  5
1DD
  8
0
  0
BLOCK
  8
0
  2
C7
 70
     0
 10
0.0
 20
0.0
 30
0.0
  3
C7
  1

  0
CIRCLE
  5
1E1
  8
____1
  6
CONTINUOUS
 62
     7
 10
17398.901531980089
 20
10881.08812021859
 30
0.0
 40
28.0
  0
TEXT
  5
1E2
  8
____1
  6
DASHED2
 62
     7
 10
17391.845976636461
 20
10871.092750148449
 30
0.0
 40
28.222221374511719
  1
4
  7
STYLE1
  0
LINE
  5
1E3
  8
______
  6
CONTINUOUS
 62
     7
 10
17445.56819864675
 20
10881.08812021859
 30
0.0
 11
17426.901531980089
 21
10881.08812021859
 31
0.0
  0
LINE
  5
1E4
  8
______
  6
CONTINUOUS
 62
     7
 10
17847.87012540931
 20
10939.197260476591
 30
0.0
 11
17445.56819864675
 21
10881.08812021859
 31
0.0
  0
SOLID
  5
1E5
  8
______
 62
     7
 10
17847.87012540931
 20
10939.197260476591
 30
0.0
 11
17839.666379345232
 21
10940.03305382192
 31
0.0
 12
17847.87012540931
 22
10939.197260476591
 32
0.0
 13
17841.931752891382
 23
10938.3395123561
 33
0.0
  0
SOLID
  5
1E6
  8
______
 62
     7
 10
17841.931752891382
 20
10938.3395123561
 30
0.0
 11
17840.23821142556
 21
10936.07413880996
 31
0.0
 12
17847.87012540931
 22
10939.197260476591
 32
0.0
 13
17847.87012540931
 23
10939.197260476591
 33
0.0
  0
ENDBLK
  5
1E7
  8
0
  0
BLOCK
  8
0
  2
C8
 70
     0
 10
0.0
 20
0.0
 30
0.0
  3
C8
  1

  0
CIRCLE
  5
1EB
  8
____1
  6
CONTINUOUS
 62
     7
 10
17398.901531980089
 20
10646.74160227012
 30
0.0
 40
28.0
  0
TEXT
  5
1EC
  8
____1
  6
DASHED2
 62
     7
 10
17391.845976636461
 20
10636.746232199979
 30
0.0
 40
28.222221374511719
  1
6
  7
STYLE1
  0
LINE
  5
1ED
  8
______
  6
CONTINUOUS
 62
     7
 10
17445.56819864675
 20
10646.74160227012
 30
0.0
 11
17426.901531980089
 21
10646.74160227012
 31
0.0
  0
LINE
  5
1EE
  8
______
  6
CONTINUOUS
 62
     7
 10
17827.2699603289
 20
10731.275977270119
 30
0.0
 11
17445.56819864675
 21
10646.74160227012
 31
0.0
  0
SOLID
  5
1EF
  8
______
 62
     7
 10
17827.2699603289
 20
10731.275977270119
 30
0.0
 11
17819.02676119599
 21
10731.498840580951
 31
0.0
 12
17827.2699603289
 22
10731.275977270119
 32
0.0
 13
17821.411902709639
 23
10729.978610348429
 33
0.0
  0
SOLID
  5
1F0
  8
______
 62
     7
 10
17821.411902709639
 20
10729.978610348429
 30
0.0
 11
17819.891672477119
 21
10727.593468834781
 31
0.0
 12
17827.2699603289
 22
10731.275977270119
 32
0.0
 13
17827.2699603289
 23
10731.275977270119
 33
0.0
  0
ENDBLK
  5
1F1
  8
0
  0
BLOCK
  8
0
  2
C9
 70
     0
 10
0.0
 20
0.0
 30
0.0
  3
C9
  1

  0
CIRCLE
  5
1F5
  8
____1
  6
CONTINUOUS
 62
     7
 10
17398.901531980089
 20
10524.46942387206
 30
0.0
 40
28.0
  0
TEXT
  5
1F6
  8
____1
  6
DASHED2
 62
     7
 10
17391.845976636461
 20
10514.47405380192
 30
0.0
 40
28.222221374511719
  1
5
  7
STYLE1
  0
LINE
  5
1F7
  8
______
  6
CONTINUOUS
 62
     7
 10
17445.56819864675
 20
10524.46942387206
 30
0.0
 11
17426.901531980089
 21
10524.46942387206
 31
0.0
  0
LINE
  5
1F8
  8
______
  6
CONTINUOUS
 62
     7
 10
17816.869960328899
 20
10598.1981833836
 30
0.0
 11
17445.56819864675
 21
10524.46942387206
 31
0.0
  0
SOLID
  5
1F9
  8
______
 62
     7
 10
17816.869960328899
 20
10598.1981833836
 30
0.0
 11
17808.633630571141
 21
10598.601757566999
 31
0.0
 12
17816.869960328899
 22
10598.1981833836
 32
0.0
 13
17810.984861526362
 23
10597.029589320509
 33
0.0
  0
SOLID
  5
1FA
  8
______
 62
     7
 10
17810.984861526362
 20
10597.029589320509
 30
0.0
 11
17809.412693279872
 21
10594.67835836531
 31
0.0
 12
17816.869960328899
 22
10598.1981833836
 32
0.0
 13
17816.869960328899
 23
10598.1981833836
 33
0.0
  0
ENDBLK
  5
1FB
  8
0
  0
BLOCK
  8
0
  2
C10
 70
     0
 10
0.0
 20
0.0
 30
0.0
  3
C10
  1

  0
LINE
  5
1FF
  8
____1
  6
CONTINUOUS
 62
     7
 10
19555.479755471872
 20
10008.34847630373
 30
0.0
 11
19555.479755471872
 21
10048.34847630373
 31
0.0
  0
LINE
  5
200
  8
____1
  6
CONTINUOUS
 62
     7
 10
19083.479755471872
 20
10008.34847630373
 30
0.0
 11
19083.479755471872
 21
10048.34847630373
 31
0.0
  0
LINE
  5
201
  8
____1
  6
CONTINUOUS
 62
     7
 10
19155.479755471872
 20
10008.34847630373
 30
0.0
 11
19155.479755471872
 21
10048.34847630373
 31
0.0
  0
LINE
  5
202
  8
____1
  6
CONTINUOUS
 62
     7
 10
19995.479755471879
 20
10008.34847630373
 30
0.0
 11
19995.479755471879
 21
10048.34847630373
 31
0.0
  0
LINE
  5
203
  8
____1
  6
CONTINUOUS
 62
     7
 10
19923.479755471872
 20
10008.34847630373
 30
0.0
 11
19923.479755471872
 21
10048.34847630373
 31
0.0
  0
LINE
  5
204
  8
____1
  6
CONTINUOUS
 62
     7
 10
20243.479755471879
 20
10048.34847630373
 30
0.0
 11
19083.479755471872
 21
10048.34847630373
 31
0.0
  0
ENDBLK
  5
205
  8
0
  0
BLOCK
  8
0
  2
C11
 70
     0
 10
0.0
 20
0.0
 30
0.0
  3
C11
  1

  0
LINE
  5
209
  8
____1
  6
CONTINUOUS
 62
     7
 10
19555.479755471872
 20
9728.3484763037286
 30
0.0
 11
19555.479755471872
 21
9768.3484763037286
 31
0.0
  0
LINE
  5
20A
  8
____1
  6
CONTINUOUS
 62
     7
 10
19083.479755471872
 20
9728.3484763037286
 30
0.0
 11
19083.479755471872
 21
9768.3484763037286
 31
0.0
  0
LINE
  5
20B
  8
____1
  6
CONTINUOUS
 62
     7
 10
19155.479755471872
 20
9728.3484763037286
 30
0.0
 11
19155.479755471872
 21
9768.3484763037286
 31
0.0
  0
LINE
  5
20C
  8
____1
  6
CONTINUOUS
 62
     7
 10
19995.479755471879
 20
9728.3484763037286
 30
0.0
 11
19995.479755471879
 21
9768.3484763037286
 31
0.0
  0
LINE
  5
20D
  8
____1
  6
CONTINUOUS
 62
     7
 10
19923.479755471872
 20
9728.3484763037286
 30
0.0
 11
19923.479755471872
 21
9768.3484763037286
 31
0.0
  0
LINE
  5
20E
  8
____1
  6
CONTINUOUS
 62
     7
 10
20243.479755471879
 20
9768.3484763037286
 30
0.0
 11
19083.479755471872
 21
9768.3484763037286
 31
0.0
  0
ENDBLK
  5
20F
  8
0
  0
BLOCK
  8
0
  2
C12
 70
     0
 10
0.0
 20
0.0
 30
0.0
  3
C12
  1

  0
LINE
  5
213
  8
____1
  6
CONTINUOUS
 62
     7
 10
19555.479755471872
 20
9768.3484763037286
 30
0.0
 11
19555.479755471872
 21
9808.3484763037286
 31
0.0
  0
LINE
  5
214
  8
____1
  6
CONTINUOUS
 62
     7
 10
19083.479755471872
 20
9768.3484763037286
 30
0.0
 11
19083.479755471872
 21
9808.3484763037286
 31
0.0
  0
LINE
  5
215
  8
____1
  6
CONTINUOUS
 62
     7
 10
19155.479755471872
 20
9768.3484763037286
 30
0.0
 11
19155.479755471872
 21
9808.3484763037286
 31
0.0
  0
LINE
  5
216
  8
____1
  6
CONTINUOUS
 62
     7
 10
19995.479755471879
 20
9768.3484763037286
 30
0.0
 11
19995.479755471879
 21
9808.3484763037286
 31
0.0
  0
LINE
  5
217
  8
____1
  6
CONTINUOUS
 62
     7
 10
19923.479755471872
 20
9768.3484763037286
 30
0.0
 11
19923.479755471872
 21
9808.3484763037286
 31
0.0
  0
LINE
  5
218
  8
____1
  6
CONTINUOUS
 62
     7
 10
20243.479755471879
 20
9808.3484763037286
 30
0.0
 11
19083.479755471872
 21
9808.3484763037286
 31
0.0
  0
ENDBLK
  5
219
  8
0
  0
BLOCK
  8
0
  2
C13
 70
     0
 10
0.0
 20
0.0
 30
0.0
  3
C13
  1

  0
LINE
  5
21D
  8
____1
  6
CONTINUOUS
 62
     7
 10
19555.479755471872
 20
9968.3484763037286
 30
0.0
 11
19555.479755471872
 21
10008.34847630373
 31
0.0
  0
LINE
  5
21E
  8
____1
  6
CONTINUOUS
 62
     7
 10
19083.479755471872
 20
9968.3484763037286
 30
0.0
 11
19083.479755471872
 21
10008.34847630373
 31
0.0
  0
LINE
  5
21F
  8
____1
  6
CONTINUOUS
 62
     7
 10
19155.479755471872
 20
9968.3484763037286
 30
0.0
 11
19155.479755471872
 21
10008.34847630373
 31
0.0
  0
LINE
  5
220
  8
____1
  6
CONTINUOUS
 62
     7
 10
19995.479755471879
 20
9968.3484763037286
 30
0.0
 11
19995.479755471879
 21
10008.34847630373
 31
0.0
  0
LINE
  5
221
  8
____1
  6
CONTINUOUS
 62
     7
 10
19923.479755471872
 20
9968.3484763037286
 30
0.0
 11
19923.479755471872
 21
10008.34847630373
 31
0.0
  0
LINE
  5
222
  8
____1
  6
CONTINUOUS
 62
     7
 10
20243.479755471879
 20
10008.34847630373
 30
0.0
 11
19083.479755471872
 21
10008.34847630373
 31
0.0
  0
ENDBLK
  5
223
  8
0
  0
BLOCK
  8
0
  2
C14
 70
     0
 10
0.0
 20
0.0
 30
0.0
  3
C14
  1

  0
LINE
  5
227
  8
____1
  6
CONTINUOUS
 62
     7
 10
19555.479755471872
 20
9848.3484763037286
 30
0.0
 11
19555.479755471872
 21
9888.3484763037286
 31
0.0
  0
LINE
  5
228
  8
____1
  6
CONTINUOUS
 62
     7
 10
19083.479755471872
 20
9848.3484763037286
 30
0.0
 11
19083.479755471872
 21
9888.3484763037286
 31
0.0
  0
LINE
  5
229
  8
____1
  6
CONTINUOUS
 62
     7
 10
19155.479755471872
 20
9848.3484763037286
 30
0.0
 11
19155.479755471872
 21
9888.3484763037286
 31
0.0
  0
LINE
  5
22A
  8
____1
  6
CONTINUOUS
 62
     7
 10
19995.479755471879
 20
9848.3484763037286
 30
0.0
 11
19995.479755471879
 21
9888.3484763037286
 31
0.0
  0
LINE
  5
22B
  8
____1
  6
CONTINUOUS
 62
     7
 10
19923.479755471872
 20
9848.3484763037286
 30
0.0
 11
19923.479755471872
 21
9888.3484763037286
 31
0.0
  0
LINE
  5
22C
  8
____1
  6
CONTINUOUS
 62
     7
 10
20243.479755471879
 20
9888.3484763037286
 30
0.0
 11
19083.479755471872
 21
9888.3484763037286
 31
0.0
  0
ENDBLK
  5
22D
  8
0
  0
BLOCK
  8
0
  2
C15
 70
     0
 10
0.0
 20
0.0
 30
0.0
  3
C15
  1

  0
LINE
  5
231
  8
____1
  6
CONTINUOUS
 62
     7
 10
19555.479755471872
 20
9888.3484763037286
 30
0.0
 11
19555.479755471872
 21
9928.3484763037304
 31
0.0
  0
LINE
  5
232
  8
____1
  6
CONTINUOUS
 62
     7
 10
19083.479755471872
 20
9888.3484763037286
 30
0.0
 11
19083.479755471872
 21
9928.3484763037304
 31
0.0
  0
LINE
  5
233
  8
____1
  6
CONTINUOUS
 62
     7
 10
19155.479755471872
 20
9888.3484763037286
 30
0.0
 11
19155.479755471872
 21
9928.3484763037304
 31
0.0
  0
LINE
  5
234
  8
____1
  6
CONTINUOUS
 62
     7
 10
19995.479755471879
 20
9888.3484763037286
 30
0.0
 11
19995.479755471879
 21
9928.3484763037304
 31
0.0
  0
LINE
  5
235
  8
____1
  6
CONTINUOUS
 62
     7
 10
19923.479755471872
 20
9888.3484763037286
 30
0.0
 11
19923.479755471872
 21
9928.3484763037304
 31
0.0
  0
LINE
  5
236
  8
____1
  6
CONTINUOUS
 62
     7
 10
20243.479755471879
 20
9928.3484763037304
 30
0.0
 11
19083.479755471872
 21
9928.3484763037304
 31
0.0
  0
ENDBLK
  5
237
  8
0
  0
BLOCK
  8
0
  2
C16
 70
     0
 10
0.0
 20
0.0
 30
0.0
  3
C16
  1

  0
LINE
  5
23D
  8
____1
  6
CONTINUOUS
 62
     7
 10
19555.479755471872
 20
9928.3484763037304
 30
0.0
 11
19555.479755471872
 21
9968.3484763037286
 31
0.0
  0
LINE
  5
23E
  8
____1
  6
CONTINUOUS
 62
     7
 10
19083.479755471872
 20
9928.3484763037304
 30
0.0
 11
19083.479755471872
 21
9968.3484763037286
 31
0.0
  0
LINE
  5
23F
  8
____1
  6
CONTINUOUS
 62
     7
 10
19155.479755471872
 20
9928.3484763037304
 30
0.0
 11
19155.479755471872
 21
9968.3484763037286
 31
0.0
  0
LINE
  5
240
  8
____1
  6
CONTINUOUS
 62
     7
 10
19995.479755471879
 20
9928.3484763037304
 30
0.0
 11
19995.479755471879
 21
9968.3484763037286
 31
0.0
  0
LINE
  5
241
  8
____1
  6
CONTINUOUS
 62
     7
 10
19923.479755471872
 20
9928.3484763037304
 30
0.0
 11
19923.479755471872
 21
9968.3484763037286
 31
0.0
  0
LINE
  5
242
  8
____1
  6
CONTINUOUS
 62
     7
 10
20243.479755471879
 20
9968.3484763037286
 30
0.0
 11
19083.479755471872
 21
9968.3484763037286
 31
0.0
  0
ENDBLK
  5
243
  8
0
  0
BLOCK
  8
0
  2
C17
 70
     0
 10
0.0
 20
0.0
 30
0.0
  3
C17
  1

  0
LINE
  5
247
  8
____1
  6
CONTINUOUS
 62
     7
 10
19555.479755471872
 20
9808.3484763037286
 30
0.0
 11
19555.479755471872
 21
9848.3484763037286
 31
0.0
  0
LINE
  5
248
  8
____1
  6
CONTINUOUS
 62
     7
 10
19083.479755471872
 20
9808.3484763037286
 30
0.0
 11
19083.479755471872
 21
9848.3484763037286
 31
0.0
  0
LINE
  5
249
  8
____1
  6
CONTINUOUS
 62
     7
 10
19155.479755471872
 20
9808.3484763037286
 30
0.0
 11
19155.479755471872
 21
9848.3484763037286
 31
0.0
  0
LINE
  5
24A
  8
____1
  6
CONTINUOUS
 62
     7
 10
19995.479755471879
 20
9808.3484763037286
 30
0.0
 11
19995.479755471879
 21
9848.3484763037286
 31
0.0
  0
LINE
  5
24B
  8
____1
  6
CONTINUOUS
 62
     7
 10
19923.479755471872
 20
9808.3484763037286
 30
0.0
 11
19923.479755471872
 21
9848.3484763037286
 31
0.0
  0
LINE
  5
24C
  8
____1
  6
CONTINUOUS
 62
     7
 10
20243.479755471879
 20
9848.3484763037286
 30
0.0
 11
19083.479755471872
 21
9848.3484763037286
 31
0.0
  0
ENDBLK
  5
24D
  8
0
  0
BLOCK
  8
0
  2
C18
 70
     0
 10
0.0
 20
0.0
 30
0.0
  3
C18
  1

  0
ARC
  5
25C
  8
____1
  6
CONTINUOUS
 62
     4
 10
19544.03126254418
 20
11085.757984239101
 30
0.0
 40
3.000000000002685
 50
92.460681020195025
 51
-177.53931898008261
  0
ARC
  5
25D
  8
____1
  6
CONTINUOUS
 62
     4
 10
19576.001755982648
 20
11087.13186534763
 30
0.0
 40
2.9999999999982698
 50
2.4606810198509308
 51
92.460681020125634
  0
LINE
  5
25E
  8
____1
  6
CONTINUOUS
 62
     4
 10
19543.902461190239
 20
11088.75521799896
 30
0.0
 11
19575.872954628721
 21
11090.129099107489
 31
0.0
  0
LINE
  5
25F
  8
____1
  6
CONTINUOUS
 62
     4
 10
19606.2362331246
 20
10894.9990167776
 30
0.0
 11
19605.284963257502
 21
10899.601742669931
 31
0.0
  0
POLYLINE
  5
260
  8
____1
  6
CONTINUOUS
 62
     4
 66
     1
 10
0.0
 20
0.0
 30
0.0
 70
     8
  0
VERTEX
  5
261
  8
____1
 62
     4
 10
19584.936384580291
 20
10890.596863669211
 30
0.0
 70
    32
  0
VERTEX
  5
262
  8
____1
 62
     4
 10
19585.229011928641
 20
10890.59904562207
 30
0.0
 70
    32
  0
VERTEX
  5
263
  8
____1
 62
     4
 10
19585.500199343649
 20
10890.48907784557
 30
0.0
 70
    32
  0
VERTEX
  5
264
  8
____1
 62
     4
 10
19585.708660999691
 20
10890.283701936851
 30
0.0
 70
    32
  0
VERTEX
  5
265
  8
____1
 62
     4
 10
19585.82266049934
 20
10890.014184516251
 30
0.0
 70
    32
  0
VERTEX
  5
266
  8
____1
 62
     4
 10
19585.824842452199
 20
10889.72155716789
 30
0.0
 70
    32
  0
VERTEX
  5
267
  8
____1
 62
     4
 10
19585.714874675701
 20
10889.450369752891
 30
0.0
 70
    32
  0
VERTEX
  5
268
  8
____1
 62
     4
 10
19585.509498766969
 20
10889.24190809685
 30
0.0
 70
    32
  0
VERTEX
  5
269
  8
____1
 62
     4
 10
19585.239981346382
 20
10889.127908597189
 30
0.0
 70
    32
  0
SEQEND
  5
26A
  8
____1
 62
     4
  0
LINE
  5
26B
  8
____1
  6
CONTINUOUS
 62
     4
 10
19584.69155873495
 20
10890.5462642082
 30
0.0
 11
19583.740288867852
 21
10895.14899010053
 31
0.0
  0
ARC
  5
26C
  8
____1
  6
CONTINUOUS
 62
     4
 10
19561.218180714219
 20
11058.47077261688
 30
0.0
 40
9.0000000000011795
 50
11.67721356475702
 51
-168.3227864352524
  0
LINE
  5
26D
  8
____1
  6
CONTINUOUS
 62
     4
 10
19576.200393065559
 20
11040.32763856955
 30
0.0
 11
19576.84806616656
 21
11037.19386774924
 31
0.0
  0
LINE
  5
26E
  8
____1
  6
CONTINUOUS
 62
     4
 10
19552.404450282102
 20
11056.64919202031
 30
0.0
 11
19554.226030878672
 21
11047.83546158818
 31
0.0
  0
LINE
  5
26F
  8
____1
  6
CONTINUOUS
 62
     4
 10
19570.03191114635
 20
11060.29235321345
 30
0.0
 11
19571.853491742921
 21
11051.47862278132
 31
0.0
  0
ARC
  5
270
  8
____1
  6
CONTINUOUS
 62
     4
 10
19608.976775479201
 20
10880.503692441711
 30
0.0
 40
0.7500000000011413
 50
101.6772135651332
 51
-78.322786435683284
  0
LINE
  5
271
  8
____1
  6
CONTINUOUS
 62
     4
 10
19609.069802941482
 20
10881.28876943873
 30
0.0
 11
19606.53982989068
 21
10893.53006170558
 31
0.0
  0
CIRCLE
  5
272
  8
____1
  6
CONTINUOUS
 62
     4
 10
19656.345167424079
 20
10598.198183383611
 30
0.0
 40
5.0000000000017168
  0
LINE
  5
273
  8
____1
  6
CONTINUOUS
 62
     4
 10
19662.25995636138
 20
10623.927840820639
 30
0.0
 11
19640.715281971741
 21
10619.47508825124
 31
0.0
  0
LINE
  5
274
  8
____1
  6
CONTINUOUS
 62
     4
 10
19576.84806616656
 20
11037.19386774924
 30
0.0
 11
19555.303391776932
 21
11032.741115179841
 31
0.0
  0
LINE
  5
275
  8
____1
  6
CONTINUOUS
 62
     4
 10
19554.65571867592
 20
11035.874886000151
 30
0.0
 11
19555.303391776932
 21
11032.741115179841
 31
0.0
  0
LINE
  5
276
  8
____1
  6
CONTINUOUS
 62
     4
 10
19554.226030878672
 20
11047.83546158818
 30
0.0
 11
19554.65571867592
 21
11035.874886000151
 31
0.0
  0
LINE
  5
277
  8
____1
  6
CONTINUOUS
 62
     4
 10
19657.363439454639
 20
10622.915851600321
 30
0.0
 11
19661.551563907149
 21
10627.355402655359
 31
0.0
  0
LINE
  5
278
  8
____1
  6
CONTINUOUS
 62
     4
 10
19641.362955072731
 20
10616.34131743093
 30
0.0
 11
19640.715281971741
 21
10619.47508825124
 31
0.0
  0
LINE
  5
279
  8
____1
  6
CONTINUOUS
 62
     4
 10
19662.907629462381
 20
10620.794070000329
 30
0.0
 11
19662.25995636138
 21
10623.927840820639
 31
0.0
  0
LINE
  5
27A
  8
____1
  6
CONTINUOUS
 62
     4
 10
19647.531436991951
 20
10596.37660278703
 30
0.0
 11
19645.70985639538
 21
10605.19033321916
 31
0.0
  0
LINE
  5
27B
  8
____1
  6
CONTINUOUS
 62
     4
 10
19645.611798878479
 20
10620.48707747156
 30
0.0
 11
19640.00688951751
 21
10622.90265008596
 31
0.0
  0
LINE
  5
27C
  8
____1
  6
CONTINUOUS
 62
     4
 10
19661.551563907149
 20
10627.355402655359
 30
0.0
 11
19609.37339970758
 21
10879.81981436671
 31
0.0
  0
LINE
  5
27D
  8
____1
  6
CONTINUOUS
 62
     4
 10
19645.70985639538
 20
10605.19033321916
 30
0.0
 11
19641.362955072731
 21
10616.34131743093
 31
0.0
  0
LINE
  5
27E
  8
____1
  6
CONTINUOUS
 62
     4
 10
19663.33731725964
 20
10608.8334944123
 30
0.0
 11
19662.907629462381
 21
10620.794070000329
 31
0.0
  0
LINE
  5
27F
  8
____1
  6
CONTINUOUS
 62
     4
 10
19584.719592249199
 20
10895.3513879446
 30
0.0
 11
19584.415995483101
 21
10896.82034301661
 31
0.0
  0
LINE
  5
280
  8
____1
  6
CONTINUOUS
 62
     4
 10
19604.002063110049
 20
10900.868299897889
 30
0.0
 11
19584.415995483101
 21
10896.82034301661
 31
0.0
  0
POLYLINE
  5
281
  8
____1
  6
CONTINUOUS
 62
     4
 66
     1
 10
0.0
 20
0.0
 30
0.0
 70
     8
  0
VERTEX
  5
282
  8
____1
 62
     4
 10
19587.769954397179
 20
10876.88661633035
 30
0.0
 70
    32
  0
VERTEX
  5
283
  8
____1
 62
     4
 10
19588.062581745529
 20
10876.8887982832
 30
0.0
 70
    32
  0
VERTEX
  5
284
  8
____1
 62
     4
 10
19588.333769160541
 20
10876.77883050671
 30
0.0
 70
    32
  0
VERTEX
  5
285
  8
____1
 62
     4
 10
19588.54223081658
 20
10876.573454597979
 30
0.0
 70
    32
  0
VERTEX
  5
286
  8
____1
 62
     4
 10
19588.656230316232
 20
10876.30393717739
 30
0.0
 70
    32
  0
VERTEX
  5
287
  8
____1
 62
     4
 10
19588.658412269091
 20
10876.011309829029
 30
0.0
 70
    32
  0
VERTEX
  5
288
  8
____1
 62
     4
 10
19588.54844449259
 20
10875.740122414019
 30
0.0
 70
    32
  0
VERTEX
  5
289
  8
____1
 62
     4
 10
19588.343068583861
 20
10875.531660757981
 30
0.0
 70
    32
  0
VERTEX
  5
28A
  8
____1
 62
     4
 10
19588.07355116327
 20
10875.417661258331
 30
0.0
 70
    32
  0
VERTEX
  5
28B
  8
____1
 62
     4
 10
19588.07355116327
 20
10875.417661258331
 30
0.0
 70
    32
  0
SEQEND
  5
28C
  8
____1
 62
     4
  0
LINE
  5
28D
  8
____1
  6
CONTINUOUS
 62
     4
 10
19587.525128551839
 20
10876.83601686934
 30
0.0
 11
19584.995155501048
 21
10889.077309136181
 31
0.0
  0
POLYLINE
  5
28E
  8
____1
  6
CONTINUOUS
 62
     4
 66
     1
 10
0.0
 20
0.0
 30
0.0
 70
     8
  0
VERTEX
  5
28F
  8
____1
 62
     4
 10
19605.991407279249
 20
10894.94841731658
 30
0.0
 70
    32
  0
VERTEX
  5
290
  8
____1
 62
     4
 10
19605.721889858662
 20
10894.83441781693
 30
0.0
 70
    32
  0
VERTEX
  5
291
  8
____1
 62
     4
 10
19605.51651394994
 20
10894.625956160889
 30
0.0
 70
    32
  0
VERTEX
  5
292
  8
____1
 62
     4
 10
19605.406546173439
 20
10894.354768745879
 30
0.0
 70
    32
  0
VERTEX
  5
293
  8
____1
 62
     4
 10
19605.408728126291
 20
10894.06214139753
 30
0.0
 70
    32
  0
VERTEX
  5
294
  8
____1
 62
     4
 10
19605.522727625939
 20
10893.792623976929
 30
0.0
 70
    32
  0
VERTEX
  5
295
  8
____1
 62
     4
 10
19605.731189281982
 20
10893.587248068199
 30
0.0
 70
    32
  0
VERTEX
  5
296
  8
____1
 62
     4
 10
19606.00237669699
 20
10893.47728029171
 30
0.0
 70
    32
  0
VERTEX
  5
297
  8
____1
 62
     4
 10
19606.295004045351
 20
10893.479462244561
 30
0.0
 70
    32
  0
VERTEX
  5
298
  8
____1
 62
     4
 10
19606.295004045351
 20
10893.479462244561
 30
0.0
 70
    32
  0
SEQEND
  5
299
  8
____1
 62
     4
  0
LINE
  5
29A
  8
____1
  6
CONTINUOUS
 62
     4
 10
19640.00688951751
 20
10622.90265008596
 30
0.0
 11
19587.82872531793
 21
10875.367061797309
 31
0.0
  0
ARC
  5
29B
  8
____1
  6
CONTINUOUS
 62
     4
 10
19577.762041152961
 20
11046.16967062959
 30
0.0
 40
3.000000000002061
 50
-87.539318980082626
 51
2.4606810198509308
  0
ARC
  5
29C
  8
____1
  6
CONTINUOUS
 62
     4
 10
19545.791547714482
 20
11044.795789521049
 30
0.0
 40
2.9999999999951039
 50
-177.53931898014599
 51
-87.539318979937846
  0
LINE
  5
29D
  8
____1
  6
CONTINUOUS
 62
     4
 10
19578.998989742511
 20
11087.26066670155
 30
0.0
 11
19580.759274912809
 21
11046.298471983509
 31
0.0
  0
LINE
  5
29E
  8
____1
  6
CONTINUOUS
 62
     4
 10
19588.073552272319
 20
10875.41766148754
 30
0.0
 11
19587.82872531793
 21
10875.367061797309
 31
0.0
  0
LINE
  5
29F
  8
____1
  6
CONTINUOUS
 62
     4
 10
19609.37339970758
 20
10879.81981436671
 30
0.0
 11
19609.128571317309
 21
10879.769214379719
 31
0.0
  0
LINE
  5
2A0
  8
____1
  6
CONTINUOUS
 62
     4
 10
19587.76995423442
 20
10876.88661629671
 30
0.0
 11
19587.525128551839
 21
10876.83601686934
 31
0.0
  0
LINE
  5
2A1
  8
____1
  6
CONTINUOUS
 62
     4
 10
19609.069802941482
 20
10881.28876943873
 30
0.0
 11
19608.824977573931
 21
10881.238170076471
 31
0.0
  0
LINE
  5
2A2
  8
____1
  6
CONTINUOUS
 62
     4
 10
19584.719592249199
 20
10895.3513879446
 30
0.0
 11
19583.740288867852
 21
10895.14899010053
 31
0.0
  0
LINE
  5
2A3
  8
____1
  6
CONTINUOUS
 62
     4
 10
19605.284963257502
 20
10899.601742669931
 30
0.0
 11
19604.30565987614
 21
10899.39934482587
 31
0.0
  0
LINE
  5
2A4
  8
____1
  6
CONTINUOUS
 62
     4
 10
19585.239982431041
 20
10889.127908821371
 30
0.0
 11
19584.995155501048
 21
10889.077309136181
 31
0.0
  0
LINE
  5
2A5
  8
____1
  6
CONTINUOUS
 62
     4
 10
19606.53982989068
 20
10893.53006170558
 30
0.0
 11
19606.295066488208
 21
10893.479475149959
 31
0.0
  0
LINE
  5
2A6
  8
____1
  6
CONTINUOUS
 62
     4
 10
19542.79431395463
 20
11044.66698816713
 30
0.0
 11
19541.034028784321
 21
11085.62918288517
 31
0.0
  0
LINE
  5
2A7
  8
____1
  6
CONTINUOUS
 62
     4
 10
19584.936386334171
 20
10890.596864031701
 30
0.0
 11
19584.69155873495
 21
10890.5462642082
 31
0.0
  0
LINE
  5
2A8
  8
____1
  6
CONTINUOUS
 62
     4
 10
19606.2362331246
 20
10894.9990167776
 30
0.0
 11
19605.99140546926
 21
10894.9484169425
 31
0.0
  0
LINE
  5
2A9
  8
____1
  6
CONTINUOUS
 62
     4
 10
19554.429771659132
 20
11042.16423466336
 30
0.0
 11
19545.920349068409
 21
11041.798555761199
 31
0.0
  0
LINE
  5
2AA
  8
____1
  6
CONTINUOUS
 62
     4
 10
19577.89084250688
 20
11043.172436869731
 30
0.0
 11
19575.137550618641
 21
11043.05411852977
 31
0.0
  0
INSERT
  5
2B5
  8
____1
  6
DASHED2
 62
     4
  2
C19
 10
0.0
 20
0.0
 30
0.0
  0
LINE
  5
2B6
  8
____1
  6
CONTINUOUS
 62
     4
 10
19599.105546203311
 20
10899.856310677569
 30
0.0
 11
19570.972245878482
 21
11035.97948068486
 31
0.0
  0
LINE
  5
2B7
  8
____1
  6
DASHED2
 62
     7
 10
19669.250220429982
 20
11060.055708226089
 30
0.0
 11
19670.7488373099
 21
11060.120108903049
 31
0.0
  0
LINE
  5
2B8
  8
____1
  6
DASHED2
 62
     7
 10
19669.287107548898
 20
11094.134858390969
 30
0.0
 11
19671.113774479349
 21
11051.62794658346
 31
0.0
  0
ARC
  5
2B9
  8
____1
  6
DASHED2
 62
     7
 10
19671.113774479349
 20
11051.62794658346
 30
0.0
 40
1.5000000000011859
 50
-177.5393189800707
 51
-87.539318979943815
  0
LINE
  5
2BA
  8
____1
  6
DASHED2
 62
     7
 10
19669.250220429982
 20
11060.055708226089
 30
0.0
 11
19669.679558276392
 21
11050.06492902657
 31
0.0
  0
LINE
  5
2BB
  8
____1
  6
CENTER2
 62
     4
 10
19032.763294357759
 20
11068.281911703951
 30
0.0
 11
19350.589032603879
 21
11091.903743852519
 31
0.0
  0
ARC
  5
2BC
  8
____1
  6
CENTER2
 62
     4
 10
19032.874472539239
 20
11066.786037574229
 30
0.0
 40
1.500000000000772
 50
94.250591628101546
 51
-177.5393189799378
  0
LINE
  5
2BD
  8
____1
  6
CENTER2
 62
     4
 10
19669.26954722172
 20
11095.63475559908
 30
0.0
 11
19350.589032603879
 21
11091.903743852519
 31
0.0
  0
ARC
  5
2BE
  8
____1
  6
CENTER2
 62
     4
 10
19669.287107548898
 20
11094.134858390969
 30
0.0
 40
1.4999999999939171
 50
2.4606810200681291
 51
90.67077041169108
  0
LINE
  5
2BF
  8
____1
  6
CENTER2
 62
     4
 10
19670.785724428821
 20
11094.199259067929
 30
0.0
 11
19672.612391359278
 21
11051.692347260419
 31
0.0
  0
LINE
  5
2C0
  8
____1
  6
CENTER2
 62
     4
 10
19031.375855659309
 20
11066.721636897269
 30
0.0
 11
19033.202522589771
 21
11024.21472508976
 31
0.0
  0
ARC
  5
2C1
  8
____1
  6
CENTER2
 62
     4
 10
19034.701139469689
 20
11024.27912576673
 30
0.0
 40
1.499999999997552
 50
-177.5393189799378
 51
-87.539318979943815
  0
ARC
  5
2C2
  8
____1
  6
CENTER2
 62
     4
 10
19671.113774479349
 20
11051.62794658346
 30
0.0
 40
1.5000000000010301
 50
-87.539318979943815
 51
2.4606810199173639
  0
LINE
  5
2C3
  8
____1
  6
CENTER2
 62
     4
 10
19034.765540146662
 20
11022.780508886801
 30
0.0
 11
19542.797160709841
 21
11044.612359789329
 31
0.0
  0
LINE
  5
2C4
  8
____1
  6
CENTER2
 62
     4
 10
19580.761125133209
 20
11046.243800781211
 30
0.0
 11
19671.178175156321
 21
11050.12932970353
 31
0.0
  0
LINE
  5
2C5
  8
____1
  6
CONTINUOUS
 62
     4
 10
19589.312512389839
 20
10897.83233223694
 30
0.0
 11
19561.17921206501
 21
11033.955502244229
 31
0.0
  0
LINE
  5
2C6
  8
____1
  6
CONTINUOUS
 62
     4
 10
19571.853491742921
 20
11051.47862278132
 30
0.0
 11
19576.200393065559
 21
11040.32763856955
 31
0.0
  0
LINE
  5
2C7
  8
____1
  6
CONTINUOUS
 62
     4
 10
19604.30565987614
 20
10899.39934482587
 30
0.0
 11
19604.002063110049
 21
10900.868299897889
 31
0.0
  0
LINE
  5
2C8
  8
____1
  6
CONTINUOUS
 62
     4
 10
19665.158897856199
 20
10600.019763980181
 30
0.0
 11
19663.33731725964
 21
10608.8334944123
 31
0.0
  0
ARC
  5
2C9
  8
____1
  6
CONTINUOUS
 62
     4
 10
19656.345167424079
 20
10598.198183383611
 30
0.0
 40
8.9999999999983515
 50
-168.32278643522491
 51
11.67721356474765
  0
ENDBLK
  5
2CA
  8
0
  0
BLOCK
  8
0
  2
C19
 70
     0
 10
0.0
 20
0.0
 30
0.0
  3
C19
  1

  0
CIRCLE
  5
2AD
  8
____1
  6
CONTINUOUS
 62
     4
 10
19561.218180714219
 20
11058.47077261688
 30
0.0
 40
8.0
  0
LINE
  5
2AE
  8
____1
  6
CONTINUOUS
 62
     4
 10
19553.218180714219
 20
11063.089574770391
 30
0.0
 11
19553.218180714219
 21
11053.85197046336
 31
0.0
  0
LINE
  5
2AF
  8
____1
  6
CONTINUOUS
 62
     4
 10
19561.218180714219
 20
11067.708376923911
 30
0.0
 11
19553.218180714219
 21
11063.089574770391
 31
0.0
  0
LINE
  5
2B0
  8
____1
  6
CONTINUOUS
 62
     4
 10
19569.21818071423
 20
11063.089574770391
 30
0.0
 11
19561.218180714219
 21
11067.708376923911
 31
0.0
  0
LINE
  5
2B1
  8
____1
  6
CONTINUOUS
 62
     4
 10
19569.21818071423
 20
11053.85197046336
 30
0.0
 11
19569.21818071423
 21
11063.089574770391
 31
0.0
  0
LINE
  5
2B2
  8
____1
  6
CONTINUOUS
 62
     4
 10
19561.218180714219
 20
11049.233168309849
 30
0.0
 11
19569.21818071423
 21
11053.85197046336
 31
0.0
  0
LINE
  5
2B3
  8
____1
  6
CONTINUOUS
 62
     4
 10
19553.218180714219
 20
11053.85197046336
 30
0.0
 11
19561.218180714219
 21
11049.233168309849
 31
0.0
  0
ENDBLK
  5
2B4
  8
0
  0
BLOCK
  8
0
  2
C20
 70
     0
 10
0.0
 20
0.0
 30
0.0
  3
C20
  1

  0
LINE
  5
2D6
  8
____1
  6
DASHED2
 62
     7
 10
17882.7699603289
 20
11055.698183383591
 30
0.0
 11
17882.7699603289
 21
11058.6981833836
 31
0.0
  0
LINE
  5
2D7
  8
____1
  6
DASHED2
 62
     7
 10
18286.769960328911
 20
11055.698183383591
 30
0.0
 11
18286.769960328911
 21
11058.6981833836
 31
0.0
  0
LINE
  5
2D8
  8
____1
  6
DASHED2
 62
     7
 10
18350.969960328901
 20
11055.698183383591
 30
0.0
 11
18350.969960328901
 21
11058.6981833836
 31
0.0
  0
LINE
  5
2D9
  8
____1
  6
DASHED2
 62
     7
 10
18350.969960328901
 20
11055.698183383591
 30
0.0
 11
18430.869960328899
 21
11055.698183383591
 31
0.0
  0
LINE
  5
2DA
  8
____1
  6
DASHED2
 62
     7
 10
17946.969960328901
 20
11055.698183383591
 30
0.0
 11
18286.769960328911
 21
11055.698183383591
 31
0.0
  0
LINE
  5
2DB
  8
____1
  6
CONTINUOUS
 62
     5
 10
17796.869960328899
 20
11061.6981833836
 30
0.0
 11
18436.869960328899
 21
11061.6981833836
 31
0.0
  0
LINE
  5
2DC
  8
____1
  6
CONTINUOUS
 62
     5
 10
17796.869960328899
 20
11061.6981833836
 30
0.0
 11
18436.869960328899
 21
10421.6981833836
 31
0.0
  0
LINE
  5
2DD
  8
____1
  6
CONTINUOUS
 62
     5
 10
18436.869960328899
 20
11061.6981833836
 30
0.0
 11
17796.869960328899
 21
10421.6981833836
 31
0.0
  0
LINE
  5
2DE
  8
____1
  6
CONTINUOUS
 62
     5
 10
18436.869960328899
 20
10421.6981833836
 30
0.0
 11
17796.869960328899
 21
10421.6981833836
 31
0.0
  0
LINE
  5
2DF
  8
____1
  6
DASHED2
 62
     7
 10
18430.869960328899
 20
10427.6981833836
 30
0.0
 11
17802.869960328899
 21
10427.6981833836
 31
0.0
  0
LINE
  5
2E0
  8
____1
  6
DASHED2
 62
     7
 10
17799.869960328899
 20
11058.6981833836
 30
0.0
 11
18433.869960328899
 21
11058.6981833836
 31
0.0
  0
LINE
  5
2E1
  8
____1
  6
DASHED2
 62
     7
 10
18433.869960328899
 20
10424.6981833836
 30
0.0
 11
17799.869960328899
 21
10424.6981833836
 31
0.0
  0
LINE
  5
2E2
  8
____1
  6
CONTINUOUS
 62
     5
 10
18436.869960328899
 20
11061.6981833836
 30
0.0
 11
18436.869960328899
 21
10421.6981833836
 31
0.0
  0
LINE
  5
2E3
  8
____1
  6
DASHED2
 62
     7
 10
18433.869960328899
 20
11058.6981833836
 30
0.0
 11
18433.869960328899
 21
10424.6981833836
 31
0.0
  0
LINE
  5
2E4
  8
____1
  6
DASHED2
 62
     7
 10
18430.869960328899
 20
11055.698183383591
 30
0.0
 11
18430.869960328899
 21
10427.6981833836
 31
0.0
  0
LINE
  5
2E5
  8
____1
  6
CONTINUOUS
 62
     5
 10
17796.869960328899
 20
10421.6981833836
 30
0.0
 11
17796.869960328899
 21
11061.6981833836
 31
0.0
  0
LINE
  5
2E6
  8
____1
  6
DASHED2
 62
     7
 10
17802.869960328899
 20
10427.6981833836
 30
0.0
 11
17802.869960328899
 21
11055.698183383591
 31
0.0
  0
LINE
  5
2E7
  8
____1
  6
DASHED2
 62
     7
 10
17799.869960328899
 20
10424.6981833836
 30
0.0
 11
17799.869960328899
 21
11058.6981833836
 31
0.0
  0
LINE
  5
2E8
  8
____1
  6
DASHED2
 62
     7
 10
17946.969960328901
 20
11055.698183383591
 30
0.0
 11
17946.969960328901
 21
11058.6981833836
 31
0.0
  0
LINE
  5
2E9
  8
____1
  6
DASHED2
 62
     7
 10
17802.869960328899
 20
11055.698183383591
 30
0.0
 11
17882.7699603289
 21
11055.698183383591
 31
0.0
  0
ENDBLK
  5
2EA
  8
0
  0
BLOCK
  8
0
  2
C21
 70
     0
 10
0.0
 20
0.0
 30
0.0
  3
C21
  1

  0
CIRCLE
  5
2EE
  8
____1
  6
CONTINUOUS
 62
     7
 10
17520.406245013139
 20
10106.598914991389
 30
0.0
 40
28.0
  0
TEXT
  5
2EF
  8
____1
  6
DASHED2
 62
     7
 10
17513.350689669511
 20
10096.60354492125
 30
0.0
 40
28.222221374511719
  1
2
  7
STYLE1
  0
LINE
  5
2F0
  8
______
  6
CONTINUOUS
 62
     7
 10
17567.07291167981
 20
10106.598914991389
 30
0.0
 11
17548.406245013139
 21
10106.598914991389
 31
0.0
  0
LINE
  5
2F1
  8
______
  6
CONTINUOUS
 62
     7
 10
17705.672180072019
 20
10245.1981833836
 30
0.0
 11
17567.07291167981
 21
10106.598914991389
 31
0.0
  0
SOLID
  5
2F2
  8
______
 62
     7
 10
17705.672180072019
 20
10245.1981833836
 30
0.0
 11
17698.601112260149
 21
10240.95554269648
 31
0.0
 12
17705.672180072019
 22
10245.1981833836
 32
0.0
 13
17701.429539384899
 23
10240.95554269648
 33
0.0
  0
SOLID
  5
2F3
  8
______
 62
     7
 10
17701.429539384899
 20
10240.95554269648
 30
0.0
 11
17701.429539384899
 21
10238.12711557174
 31
0.0
 12
17705.672180072019
 22
10245.1981833836
 32
0.0
 13
17705.672180072019
 23
10245.1981833836
 33
0.0
  0
ENDBLK
  5
2F4
  8
0
  0
BLOCK
  8
0
  2
*D33
 70
     1
 10
0.0
 20
0.0
 30
0.0
  3
*D33
  1

  0
LINE
  5
314
  8
____1
  6
CONTINUOUS
 62
     7
 10
17616.869960328899
 20
9554.9680645018543
 30
0.0
 11
17616.869960328899
 21
9700.6957898228447
 31
0.0
  0
LINE
  5
315
  8
____1
  6
CONTINUOUS
 62
     7
 10
17756.869960328899
 20
9560.6708219062893
 30
0.0
 11
17756.869960328899
 21
9700.6957898228447
 31
0.0
  0
SOLID
  5
316
  8
____1
  6
CONTINUOUS
 62
     7
 10
17736.869960328899
 20
9688.6957898228447
 30
0.0
 11
17736.869960328899
 21
9688.6957898228447
 31
0.0
 12
17741.869960328899
 22
9692.6957898228447
 32
0.0
 13
17756.869960328899
 23
9692.6957898228447
 33
0.0
  0
SOLID
  5
317
  8
____1
  6
CONTINUOUS
 62
     7
 10
17741.869960328899
 20
9692.6957898228447
 30
0.0
 11
17756.869960328899
 21
9692.6957898228447
 31
0.0
 12
17736.869960328899
 22
9696.6957898228447
 32
0.0
 13
17736.869960328899
 23
9696.6957898228447
 33
0.0
  0
LINE
  5
318
  8
____1
  6
CONTINUOUS
 62
     7
 10
17756.869960328899
 20
9692.6957898228447
 30
0.0
 11
17691.093116826502
 21
9692.6957898228447
 31
0.0
  0
SOLID
  5
319
  8
____1
  6
CONTINUOUS
 62
     7
 10
17636.869960328899
 20
9688.6957898228447
 30
0.0
 11
17636.869960328899
 21
9688.6957898228447
 31
0.0
 12
17616.869960328899
 22
9692.6957898228447
 32
0.0
 13
17631.869960328899
 23
9692.6957898228447
 33
0.0
  0
SOLID
  5
31A
  8
____1
  6
CONTINUOUS
 62
     7
 10
17616.869960328899
 20
9692.6957898228447
 30
0.0
 11
17631.869960328899
 21
9692.6957898228447
 31
0.0
 12
17636.869960328899
 22
9696.6957898228447
 32
0.0
 13
17636.869960328899
 23
9696.6957898228447
 33
0.0
  0
LINE
  5
31B
  8
____1
  6
CONTINUOUS
 62
     7
 10
17616.869960328899
 20
9692.6957898228447
 30
0.0
 11
17691.093116826502
 21
9692.6957898228447
 31
0.0
  0
TEXT
  5
31C
  8
______
  6
CENTER2
 62
     7
 10
17669.92645079561
 20
9700.8115304399635
 30
0.0
 40
28.222221374511719
  1
140
  7
STYLE1
  0
ENDBLK
  5
31D
  8
0
  0
BLOCK
  8
0
  2
*D34
 70
     1
 10
0.0
 20
0.0
 30
0.0
  3
*D34
  1

  0
LINE
  5
321
  8
____1
  6
CONTINUOUS
 62
     7
 10
17739.369960328899
 20
9546.1708219062912
 30
0.0
 11
17739.369960328899
 21
9433.5113735225495
 31
0.0
  0
LINE
  5
322
  8
____1
  6
CONTINUOUS
 62
     7
 10
17618.369960328899
 20
9523.3329174288938
 30
0.0
 11
17618.369960328899
 21
9433.5113735225495
 31
0.0
  0
SOLID
  5
323
  8
____1
  6
CONTINUOUS
 62
     7
 10
17638.369960328899
 20
9437.5113735225495
 30
0.0
 11
17638.369960328899
 21
9437.5113735225495
 31
0.0
 12
17618.369960328899
 22
9441.5113735225495
 32
0.0
 13
17633.369960328899
 23
9441.5113735225495
 33
0.0
  0
SOLID
  5
324
  8
____1
  6
CONTINUOUS
 62
     7
 10
17618.369960328899
 20
9441.5113735225495
 30
0.0
 11
17633.369960328899
 21
9441.5113735225495
 31
0.0
 12
17638.369960328899
 22
9445.5113735225495
 32
0.0
 13
17638.369960328899
 23
9445.5113735225495
 33
0.0
  0
LINE
  5
325
  8
____1
  6
CONTINUOUS
 62
     7
 10
17618.369960328899
 20
9441.5113735225495
 30
0.0
 11
17678.869960328899
 21
9441.5113735225495
 31
0.0
  0
SOLID
  5
326
  8
____1
  6
CONTINUOUS
 62
     7
 10
17719.369960328899
 20
9437.5113735225495
 30
0.0
 11
17719.369960328899
 21
9437.5113735225495
 31
0.0
 12
17724.369960328899
 22
9441.5113735225495
 32
0.0
 13
17739.369960328899
 23
9441.5113735225495
 33
0.0
  0
SOLID
  5
327
  8
____1
  6
CONTINUOUS
 62
     7
 10
17724.369960328899
 20
9441.5113735225495
 30
0.0
 11
17739.369960328899
 21
9441.5113735225495
 31
0.0
 12
17719.369960328899
 22
9445.5113735225495
 32
0.0
 13
17719.369960328899
 23
9445.5113735225495
 33
0.0
  0
LINE
  5
328
  8
____1
  6
CONTINUOUS
 62
     7
 10
17739.369960328899
 20
9441.5113735225495
 30
0.0
 11
17678.869960328899
 21
9441.5113735225495
 31
0.0
  0
TEXT
  5
329
  8
______
  6
CENTER2
 62
     7
 10
17657.703294298011
 20
9449.6271141396664
 30
0.0
 40
28.222221374511719
  1
121
  7
STYLE1
  0
ENDBLK
  5
32A
  8
0
  0
BLOCK
  8
0
  2
C22
 70
     0
 10
0.0
 20
0.0
 30
0.0
  3
C22
  1

  0
LINE
  5
33E
  8
____1
  6
DASHED2
 62
     7
 10
17774.369960328899
 20
9860.1963506610464
 30
0.0
 11
17740.599664641471
 21
9860.1963506610464
 31
0.0
  0
LINE
  5
33F
  8
____1
  6
DASHED2
 62
     7
 10
17750.869960328899
 20
9861.6963506610464
 30
0.0
 11
17750.869960328899
 21
9860.1963506610464
 31
0.0
  0
LINE
  5
340
  8
____1
  6
DASHED2
 62
     7
 10
17734.85694162409
 20
9882.7613058965453
 30
0.0
 11
17716.716203399781
 21
9879.1331360167078
 31
0.0
  0
LINE
  5
341
  8
____1
  6
DASHED2
 62
     7
 10
17716.422027463581
 20
9880.6040066835449
 30
0.0
 11
17716.716203399781
 21
9879.1331360167078
 31
0.0
  0
ARC
  5
342
  8
____1
  6
DASHED2
 62
     7
 10
17740.599664705009
 20
9861.6963506610464
 30
0.0
 40
1.499999999998413
 50
-168.69003835587549
 51
-90.000002426946097
  0
LINE
  5
343
  8
____1
  6
DASHED2
 62
     7
 10
17734.85694162409
 20
9882.7613058965453
 30
0.0
 11
17739.128793841239
 21
9861.4021757094979
 31
0.0
  0
LINE
  5
344
  8
____1
  6
DASHED2
 62
     7
 10
17734.562766781681
 20
9884.2321767821413
 30
0.0
 11
17716.422027463581
 21
9880.6040066835449
 31
0.0
  0
ARC
  5
345
  8
____1
  6
DASHED2
 62
     7
 10
17734.85694162409
 20
9882.7613058965453
 30
0.0
 40
1.5000000000011431
 50
11.31005865895931
 51
101.30995739302151
  0
LINE
  5
346
  8
____1
  6
DASHED2
 62
     7
 10
17774.369960328899
 20
9861.6963506610464
 30
0.0
 11
17774.369960328899
 21
9860.1963506610464
 31
0.0
  0
LINE
  5
347
  8
____1
  6
DASHED2
 62
     7
 10
17762.869960328899
 20
9861.6963506610464
 30
0.0
 11
17762.869960328899
 21
9860.1963506610464
 31
0.0
  0
LINE
  5
348
  8
____1
  6
DASHED2
 62
     7
 10
17774.369960328899
 20
9861.6963506610464
 30
0.0
 11
17740.599664705009
 21
9861.6963506610464
 31
0.0
  0
LINE
  5
349
  8
____1
  6
DASHED2
 62
     7
 10
17736.327811989751
 20
9883.0554833386159
 30
0.0
 11
17740.599664705009
 21
9861.6963506610464
 31
0.0
  0
LINE
  5
34A
  8
____1
  6
DOT
 62
     3
 10
17756.869960328899
 20
9866.6963506610464
 30
0.0
 11
17756.869960328899
 21
9855.1963506610464
 31
0.0
  0
ENDBLK
  5
34B
  8
0
  0
BLOCK
  8
0
  2
*D36
 70
     1
 10
0.0
 20
0.0
 30
0.0
  3
*D36
  1

  0
LINE
  5
379
  8
____1
  6
CONTINUOUS
 62
     7
 10
18615.369960328899
 20
9499.6977703559314
 30
0.0
 11
18615.369960328899
 21
9433.5113735225495
 31
0.0
  0
LINE
  5
37A
  8
____1
  6
CONTINUOUS
 62
     7
 10
18494.369960328899
 20
9546.1708219062912
 30
0.0
 11
18494.369960328899
 21
9433.5113735225495
 31
0.0
  0
SOLID
  5
37B
  8
____1
  6
CONTINUOUS
 62
     7
 10
18514.369960328899
 20
9437.5113735225495
 30
0.0
 11
18514.369960328899
 21
9437.5113735225495
 31
0.0
 12
18494.369960328899
 22
9441.5113735225495
 32
0.0
 13
18509.369960328899
 23
9441.5113735225495
 33
0.0
  0
SOLID
  5
37C
  8
____1
  6
CONTINUOUS
 62
     7
 10
18494.369960328899
 20
9441.5113735225495
 30
0.0
 11
18509.369960328899
 21
9441.5113735225495
 31
0.0
 12
18514.369960328899
 22
9445.5113735225495
 32
0.0
 13
18514.369960328899
 23
9445.5113735225495
 33
0.0
  0
LINE
  5
37D
  8
____1
  6
CONTINUOUS
 62
     7
 10
18494.369960328899
 20
9441.5113735225495
 30
0.0
 11
18554.869960328899
 21
9441.5113735225495
 31
0.0
  0
SOLID
  5
37E
  8
____1
  6
CONTINUOUS
 62
     7
 10
18595.369960328899
 20
9437.5113735225495
 30
0.0
 11
18595.369960328899
 21
9437.5113735225495
 31
0.0
 12
18600.369960328899
 22
9441.5113735225495
 32
0.0
 13
18615.369960328899
 23
9441.5113735225495
 33
0.0
  0
SOLID
  5
37F
  8
____1
  6
CONTINUOUS
 62
     7
 10
18600.369960328899
 20
9441.5113735225495
 30
0.0
 11
18615.369960328899
 21
9441.5113735225495
 31
0.0
 12
18595.369960328899
 22
9445.5113735225495
 32
0.0
 13
18595.369960328899
 23
9445.5113735225495
 33
0.0
  0
LINE
  5
380
  8
____1
  6
CONTINUOUS
 62
     7
 10
18615.369960328899
 20
9441.5113735225495
 30
0.0
 11
18554.869960328899
 21
9441.5113735225495
 31
0.0
  0
TEXT
  5
381
  8
______
  6
CENTER2
 62
     7
 10
18533.703294298011
 20
9449.6271141396664
 30
0.0
 40
28.222221374511719
  1
121
  7
STYLE1
  0
ENDBLK
  5
382
  8
0
  0
BLOCK
  8
0
  2
*D37
 70
     1
 10
0.0
 20
0.0
 30
0.0
  3
*D37
  1

  0
LINE
  5
386
  8
____1
  6
CONTINUOUS
 62
     7
 10
18616.869960328899
 20
9554.9680645018543
 30
0.0
 11
18616.869960328899
 21
9700.6957898228447
 31
0.0
  0
LINE
  5
387
  8
____1
  6
CONTINUOUS
 62
     7
 10
18476.869960328891
 20
9560.6708219062893
 30
0.0
 11
18476.869960328891
 21
9700.6957898228447
 31
0.0
  0
SOLID
  5
388
  8
____1
  6
CONTINUOUS
 62
     7
 10
18496.869960328891
 20
9688.6957898228447
 30
0.0
 11
18496.869960328891
 21
9688.6957898228447
 31
0.0
 12
18476.869960328891
 22
9692.6957898228447
 32
0.0
 13
18491.869960328891
 23
9692.6957898228447
 33
0.0
  0
SOLID
  5
389
  8
____1
  6
CONTINUOUS
 62
     7
 10
18476.869960328891
 20
9692.6957898228447
 30
0.0
 11
18491.869960328891
 21
9692.6957898228447
 31
0.0
 12
18496.869960328891
 22
9696.6957898228447
 32
0.0
 13
18496.869960328891
 23
9696.6957898228447
 33
0.0
  0
LINE
  5
38A
  8
____1
  6
CONTINUOUS
 62
     7
 10
18476.869960328891
 20
9692.6957898228447
 30
0.0
 11
18546.869960328899
 21
9692.6957898228447
 31
0.0
  0
SOLID
  5
38B
  8
____1
  6
CONTINUOUS
 62
     7
 10
18596.869960328899
 20
9688.6957898228447
 30
0.0
 11
18596.869960328899
 21
9688.6957898228447
 31
0.0
 12
18601.869960328899
 22
9692.6957898228447
 32
0.0
 13
18616.869960328899
 23
9692.6957898228447
 33
0.0
  0
SOLID
  5
38C
  8
____1
  6
CONTINUOUS
 62
     7
 10
18601.869960328899
 20
9692.6957898228447
 30
0.0
 11
18616.869960328899
 21
9692.6957898228447
 31
0.0
 12
18596.869960328899
 22
9696.6957898228447
 32
0.0
 13
18596.869960328899
 23
9696.6957898228447
 33
0.0
  0
LINE
  5
38D
  8
____1
  6
CONTINUOUS
 62
     7
 10
18616.869960328899
 20
9692.6957898228447
 30
0.0
 11
18546.869960328899
 21
9692.6957898228447
 31
0.0
  0
TEXT
  5
38E
  8
______
  6
CENTER2
 62
     7
 10
18525.703294298011
 20
9700.8115304399635
 30
0.0
 40
28.222221374511719
  1
140
  7
STYLE1
  0
ENDBLK
  5
38F
  8
0
  0
BLOCK
  8
0
  2
*D38
 70
     1
 10
0.0
 20
0.0
 30
0.0
  3
*D38
  1

  0
LINE
  5
393
  8
____1
  6
CONTINUOUS
 62
     7
 10
18459.369960328891
 20
9441.5113735225495
 30
0.0
 11
18494.369960328899
 21
9441.5113735225495
 31
0.0
  0
LINE
  5
394
  8
____1
  6
CONTINUOUS
 62
     7
 10
18494.369960328899
 20
9546.1708219062912
 30
0.0
 11
18494.369960328899
 21
9433.5113735225495
 31
0.0
  0
LINE
  5
395
  8
____1
  6
CONTINUOUS
 62
     7
 10
18459.369960328891
 20
9546.1708219062912
 30
0.0
 11
18459.369960328891
 21
9433.5113735225495
 31
0.0
  0
SOLID
  5
396
  8
____1
  6
CONTINUOUS
 62
     7
 10
18439.369960328891
 20
9437.5113735225495
 30
0.0
 11
18439.369960328891
 21
9437.5113735225495
 31
0.0
 12
18444.369960328891
 22
9441.5113735225495
 32
0.0
 13
18459.369960328891
 23
9441.5113735225495
 33
0.0
  0
SOLID
  5
397
  8
____1
  6
CONTINUOUS
 62
     7
 10
18444.369960328891
 20
9441.5113735225495
 30
0.0
 11
18459.369960328891
 21
9441.5113735225495
 31
0.0
 12
18439.369960328891
 22
9445.5113735225495
 32
0.0
 13
18439.369960328891
 23
9445.5113735225495
 33
0.0
  0
LINE
  5
398
  8
____1
  6
CONTINUOUS
 62
     7
 10
18459.369960328891
 20
9441.5113735225495
 30
0.0
 11
18419.369960328891
 21
9441.5113735225495
 31
0.0
  0
SOLID
  5
399
  8
____1
  6
CONTINUOUS
 62
     7
 10
18514.369960328899
 20
9437.5113735225495
 30
0.0
 11
18514.369960328899
 21
9437.5113735225495
 31
0.0
 12
18494.369960328899
 22
9441.5113735225495
 32
0.0
 13
18509.369960328899
 23
9441.5113735225495
 33
0.0
  0
SOLID
  5
39A
  8
____1
  6
CONTINUOUS
 62
     7
 10
18494.369960328899
 20
9441.5113735225495
 30
0.0
 11
18509.369960328899
 21
9441.5113735225495
 31
0.0
 12
18514.369960328899
 22
9445.5113735225495
 32
0.0
 13
18514.369960328899
 23
9445.5113735225495
 33
0.0
  0
LINE
  5
39B
  8
____1
  6
CONTINUOUS
 62
     7
 10
18494.369960328899
 20
9441.5113735225495
 30
0.0
 11
18534.369960328899
 21
9441.5113735225495
 31
0.0
  0
TEXT
  5
39C
  8
______
  6
CENTER2
 62
     7
 10
18462.758849641639
 20
9449.6271141396664
 30
0.0
 40
28.222221374511719
  1
35
  7
STYLE1
  0
ENDBLK
  5
39D
  8
0
  0
BLOCK
  8
0
  2
C23
 70
     0
 10
0.0
 20
0.0
 30
0.0
  3
C23
  1

  0
LINE
  5
3DB
  8
____1
  6
CONTINUOUS
 62
     7
 10
17834.869960328899
 20
9923.2232991106866
 30
0.0
 11
17834.869960328899
 21
9901.2232991106866
 31
0.0
  0
LINE
  5
3DC
  8
____1
  6
CENTER2
 62
     7
 10
17834.869960328899
 20
9923.2232991106866
 30
0.0
 11
17836.369960328899
 21
9923.2232991106866
 31
0.0
  0
LINE
  5
3DD
  8
____1
  6
CENTER2
 62
     7
 10
17834.869960328899
 20
9901.2232991106866
 30
0.0
 11
17836.369960328899
 21
9901.2232991106866
 31
0.0
  0
LINE
  5
3DE
  8
____1
  6
CONTINUOUS
 62
     7
 10
17836.369960328899
 20
9923.2232991106866
 30
0.0
 11
17836.369960328899
 21
9901.2232991106866
 31
0.0
  0
ENDBLK
  5
3DF
  8
0
  0
BLOCK
  8
0
  2
C24
 70
     0
 10
0.0
 20
0.0
 30
0.0
  3
C24
  1

  0
LINE
  5
3FF
  8
____1
  6
DASHED2
 62
     7
 10
18459.369960328899
 20
9860.1963506610464
 30
0.0
 11
18493.14025601633
 21
9860.1963506610464
 31
0.0
  0
LINE
  5
400
  8
____1
  6
DASHED2
 62
     7
 10
18482.869960328899
 20
9861.6963506610464
 30
0.0
 11
18482.869960328899
 21
9860.1963506610464
 31
0.0
  0
LINE
  5
401
  8
____1
  6
DASHED2
 62
     7
 10
18498.882979033711
 20
9882.7613058965453
 30
0.0
 11
18517.02371725802
 21
9879.1331360167078
 31
0.0
  0
LINE
  5
402
  8
____1
  6
DASHED2
 62
     7
 10
18517.317893194231
 20
9880.6040066835449
 30
0.0
 11
18517.02371725802
 21
9879.1331360167078
 31
0.0
  0
ARC
  5
403
  8
____1
  6
DASHED2
 62
     7
 10
18493.1402559528
 20
9861.6963506610464
 30
0.0
 40
1.499999999998413
 50
-89.999997573053918
 51
-11.309961644124449
  0
LINE
  5
404
  8
____1
  6
DASHED2
 62
     7
 10
18498.882979033711
 20
9882.7613058965453
 30
0.0
 11
18494.611126816559
 21
9861.4021757094979
 31
0.0
  0
LINE
  5
405
  8
____1
  6
DASHED2
 62
     7
 10
18499.177153876131
 20
9884.2321767821413
 30
0.0
 11
18517.317893194231
 21
9880.6040066835449
 31
0.0
  0
ARC
  5
406
  8
____1
  6
DASHED2
 62
     7
 10
18498.882979033711
 20
9882.7613058965453
 30
0.0
 40
1.5000000000011431
 50
78.690042606978508
 51
168.68994134104059
  0
LINE
  5
407
  8
____1
  6
DASHED2
 62
     7
 10
18459.369960328899
 20
9861.6963506610464
 30
0.0
 11
18459.369960328899
 21
9860.1963506610464
 31
0.0
  0
LINE
  5
408
  8
____1
  6
DASHED2
 62
     7
 10
18470.869960328899
 20
9861.6963506610464
 30
0.0
 11
18470.869960328899
 21
9860.1963506610464
 31
0.0
  0
LINE
  5
409
  8
____1
  6
DASHED2
 62
     7
 10
18459.369960328899
 20
9861.6963506610464
 30
0.0
 11
18493.1402559528
 21
9861.6963506610464
 31
0.0
  0
LINE
  5
40A
  8
____1
  6
DASHED2
 62
     7
 10
18497.41210866805
 20
9883.0554833386159
 30
0.0
 11
18493.1402559528
 21
9861.6963506610464
 31
0.0
  0
LINE
  5
40B
  8
____1
  6
DOT
 62
     3
 10
18476.869960328899
 20
9866.6963506610464
 30
0.0
 11
18476.869960328899
 21
9855.1963506610464
 31
0.0
  0
ENDBLK
  5
40C
  8
0
  0
BLOCK
  8
0
  2
*D41
 70
     1
 10
0.0
 20
0.0
 30
0.0
  3
*D41
  1

  0
LINE
  5
412
  8
____1
  6
CONTINUOUS
 62
     7
 10
18436.869960328899
 20
10417.6981833836
 30
0.0
 11
18436.869960328899
 21
10170.462836651541
 31
0.0
  0
LINE
  5
413
  8
____1
  6
CONTINUOUS
 62
     7
 10
17796.869960328899
 20
10417.6981833836
 30
0.0
 11
17796.869960328899
 21
10170.462836651541
 31
0.0
  0
SOLID
  5
414
  8
____1
  6
CONTINUOUS
 62
     7
 10
17816.869960328899
 20
10174.462836651541
 30
0.0
 11
17816.869960328899
 21
10174.462836651541
 31
0.0
 12
17796.869960328899
 22
10178.462836651541
 32
0.0
 13
17811.869960328899
 23
10178.462836651541
 33
0.0
  0
SOLID
  5
415
  8
____1
  6
CONTINUOUS
 62
     7
 10
17796.869960328899
 20
10178.462836651541
 30
0.0
 11
17811.869960328899
 21
10178.462836651541
 31
0.0
 12
17816.869960328899
 22
10182.462836651541
 32
0.0
 13
17816.869960328899
 23
10182.462836651541
 33
0.0
  0
LINE
  5
416
  8
____1
  6
CONTINUOUS
 62
     7
 10
17796.869960328899
 20
10178.462836651541
 30
0.0
 11
18116.869960328899
 21
10178.462836651541
 31
0.0
  0
SOLID
  5
417
  8
____1
  6
CONTINUOUS
 62
     7
 10
18416.869960328899
 20
10174.462836651541
 30
0.0
 11
18416.869960328899
 21
10174.462836651541
 31
0.0
 12
18421.869960328899
 22
10178.462836651541
 32
0.0
 13
18436.869960328899
 23
10178.462836651541
 33
0.0
  0
SOLID
  5
418
  8
____1
  6
CONTINUOUS
 62
     7
 10
18421.869960328899
 20
10178.462836651541
 30
0.0
 11
18436.869960328899
 21
10178.462836651541
 31
0.0
 12
18416.869960328899
 22
10182.462836651541
 32
0.0
 13
18416.869960328899
 23
10182.462836651541
 33
0.0
  0
LINE
  5
419
  8
____1
  6
CONTINUOUS
 62
     7
 10
18436.869960328899
 20
10178.462836651541
 30
0.0
 11
18116.869960328899
 21
10178.462836651541
 31
0.0
  0
TEXT
  5
41A
  8
______
  6
DASHED2
 62
     7
 10
18095.703294298019
 20
10186.57857726866
 30
0.0
 40
28.222221374511719
  1
640
  7
STYLE1
  0
ENDBLK
  5
41B
  8
0
  0
BLOCK
  8
0
  2
C25
 70
     0
 10
0.0
 20
0.0
 30
0.0
  3
C25
  1

  0
LINE
  5
439
  8
____1
  6
DASHED2
 62
     7
 10
17830.869960328899
 20
9908.0232991106877
 30
0.0
 11
17834.869960328899
 21
9908.0232991106877
 31
0.0
  0
LINE
  5
43A
  8
____1
  6
DASHED2
 62
     7
 10
17834.869960328899
 20
9916.4232991106855
 30
0.0
 11
17830.869960328899
 21
9916.4232991106855
 31
0.0
  0
LINE
  5
43B
  8
____1
  6
CONTINUOUS
 62
     7
 10
17834.869960328899
 20
9907.2232991106848
 30
0.0
 11
17830.869960328899
 21
9907.2232991106848
 31
0.0
  0
LINE
  5
43C
  8
____1
  6
CONTINUOUS
 62
     7
 10
17834.869960328899
 20
9917.2232991106866
 30
0.0
 11
17834.869960328899
 21
9907.2232991106848
 31
0.0
  0
LINE
  5
43D
  8
____1
  6
CONTINUOUS
 62
     7
 10
17834.869960328899
 20
9917.2232991106866
 30
0.0
 11
17830.869960328899
 21
9917.2232991106866
 31
0.0
  0
LINE
  5
43E
  8
____1
  6
CONTINUOUS
 62
     7
 10
17830.869960328899
 20
9907.2232991106848
 30
0.0
 11
17830.869960328899
 21
9917.2232991106866
 31
0.0
  0
ENDBLK
  5
43F
  8
0
  0
BLOCK
  8
0
  2
C26
 70
     0
 10
0.0
 20
0.0
 30
0.0
  3
C26
  1

  0
ARC
  5
443
  8
____1
  6
DASHED2
 62
     7
 10
17843.7699603289
 20
9902.3659807456879
 30
0.0
 40
2.0000000000016538
 50
-93.945186229012478
 51
0.0
  0
LINE
  5
444
  8
____1
  6
DASHED2
 62
     7
 10
17843.63235614567
 20
9900.3707200888402
 30
0.0
 11
17831.2699603289
 21
9901.2232991106866
 31
0.0
  0
LINE
  5
445
  8
____1
  6
DASHED2
 62
     7
 10
17843.63235614567
 20
9924.0758781325349
 30
0.0
 11
17831.2699603289
 21
9923.2232991106866
 31
0.0
  0
ARC
  5
446
  8
____1
  6
DASHED2
 62
     7
 10
17843.7699603289
 20
9922.0806174756854
 30
0.0
 40
2.0000000000016538
 50
0.0
 51
93.945186229012478
  0
LINE
  5
447
  8
____1
  6
DASHED2
 62
     7
 10
17845.7699603289
 20
9903.2232991106848
 30
0.0
 11
17845.7699603289
 21
9922.0806174756854
 31
0.0
  0
LINE
  5
448
  8
____1
  6
DASHED2
 62
     7
 10
17831.2699603289
 20
9901.2232991106866
 30
0.0
 11
17831.2699603289
 21
9923.2232991106866
 31
0.0
  0
LINE
  5
449
  8
____1
  6
DASHED2
 62
     7
 10
17834.469960328901
 20
9901.2232991106866
 30
0.0
 11
17834.469960328901
 21
9923.2232991106866
 31
0.0
  0
ARC
  5
44A
  8
____1
  6
DASHED2
 62
     7
 10
17838.269600953899
 20
9912.2232991106848
 30
0.0
 40
11.000000000002039
 50
129.51876976722249
 51
-129.51876976722249
  0
ARC
  5
44B
  8
____1
  6
DASHED2
 62
     7
 10
17838.269600953899
 20
9912.2232991106848
 30
0.0
 40
11.000000000002171
 50
-47.011554982485869
 51
47.01155498249878
  0
LINE
  5
44C
  8
____1
  6
DOT
 62
     2
 10
17836.469960328901
 20
9912.2232991106848
 30
0.0
 11
17829.2699603289
 21
9912.2232991106848
 31
0.0
  0
ENDBLK
  5
44D
  8
0
  0
BLOCK
  8
0
  2
C27
 70
     0
 10
0.0
 20
0.0
 30
0.0
  3
C27
  1

  0
INSERT
  5
485
  8
____1
  6
CONTINUOUS
 62
     7
  2
C28
 10
0.0
 20
0.0
 30
0.0
  0
ENDBLK
  5
486
  8
0
  0
BLOCK
  8
0
  2
C28
 70
     0
 10
0.0
 20
0.0
 30
0.0
  3
C28
  1

  0
LINE
  5
45D
  8
____1
  6
CONTINUOUS
 62
     7
 10
17836.369960328899
 20
9916.2232991106848
 30
0.0
 11
17821.969960328901
 21
9916.2232991106848
 31
0.0
  0
LINE
  5
45E
  8
____1
  6
CONTINUOUS
 62
     7
 10
17836.369960328899
 20
9915.6232991106863
 30
0.0
 11
17821.369960328899
 21
9915.6232991106863
 31
0.0
  0
LINE
  5
45F
  8
____1
  6
CONTINUOUS
 62
     7
 10
17836.369960328899
 20
9908.8232991106888
 30
0.0
 11
17821.369960328899
 21
9908.8232991106888
 31
0.0
  0
LINE
  5
460
  8
____1
  6
CONTINUOUS
 62
     7
 10
17836.369960328899
 20
9908.2232991106848
 30
0.0
 11
17821.969960328901
 21
9908.2232991106848
 31
0.0
  0
LINE
  5
461
  8
____1
  6
CONTINUOUS
 62
     7
 10
17821.369960328899
 20
9908.8232991106888
 30
0.0
 11
17821.969960328901
 21
9908.2232991106848
 31
0.0
  0
LINE
  5
462
  8
____1
  6
CONTINUOUS
 62
     7
 10
17821.969960328901
 20
9916.2232991106848
 30
0.0
 11
17821.369960328899
 21
9915.6232991106863
 31
0.0
  0
LINE
  5
463
  8
____1
  6
CONTINUOUS
 62
     7
 10
17821.969960328901
 20
9916.2232991106848
 30
0.0
 11
17821.969960328901
 21
9908.2232991106848
 31
0.0
  0
LINE
  5
464
  8
____1
  6
CONTINUOUS
 62
     7
 10
17821.369960328899
 20
9915.6232991106863
 30
0.0
 11
17821.369960328899
 21
9908.8232991106888
 31
0.0
  0
LINE
  5
465
  8
____1
  6
CONTINUOUS
 62
     7
 10
17836.369960328899
 20
9908.4760758604207
 30
0.0
 11
17841.292610059711
 21
9908.4760758604207
 31
0.0
  0
POLYLINE
  5
466
  8
____1
  6
CONTINUOUS
 62
     7
 66
     1
 10
0.0
 20
0.0
 30
0.0
 70
     8
  0
VERTEX
  5
467
  8
____1
 62
     7
 10
17841.292610059711
 20
9908.4760758604207
 30
0.0
 70
    32
  0
VERTEX
  5
468
  8
____1
 62
     7
 10
17841.60453831284
 20
9907.0588073855379
 30
0.0
 70
    32
  0
VERTEX
  5
469
  8
____1
 62
     7
 10
17841.73121790486
 20
9906.3501731480937
 30
0.0
 70
    32
  0
VERTEX
  5
46A
  8
____1
 62
     7
 10
17841.822756055401
 20
9905.6415389106533
 30
0.0
 70
    32
  0
SEQEND
  5
46B
  8
____1
 62
     7
  0
LINE
  5
46C
  8
____1
  6
CONTINUOUS
 62
     7
 10
17841.292610059711
 20
9915.9705223609544
 30
0.0
 11
17836.369960328899
 21
9915.9705223609544
 31
0.0
  0
POLYLINE
  5
46D
  8
____1
  6
CONTINUOUS
 62
     7
 66
     1
 10
0.0
 20
0.0
 30
0.0
 70
     8
  0
VERTEX
  5
46E
  8
____1
 62
     7
 10
17841.292610059711
 20
9915.9705223609544
 30
0.0
 70
    32
  0
VERTEX
  5
46F
  8
____1
 62
     7
 10
17841.60453831284
 20
9917.3877908358354
 30
0.0
 70
    32
  0
VERTEX
  5
470
  8
____1
 62
     7
 10
17841.73121790486
 20
9918.0964250732759
 30
0.0
 70
    32
  0
VERTEX
  5
471
  8
____1
 62
     7
 10
17841.822756055401
 20
9918.8050593107164
 30
0.0
 70
    32
  0
SEQEND
  5
472
  8
____1
 62
     7
  0
POLYLINE
  5
473
  8
____1
  6
CONTINUOUS
 62
     7
 66
     1
 10
0.0
 20
0.0
 30
0.0
 70
     8
  0
VERTEX
  5
474
  8
____1
 62
     7
 10
17841.292610059711
 20
9915.9705223609544
 30
0.0
 70
    32
  0
VERTEX
  5
475
  8
____1
 62
     7
 10
17841.504605861679
 20
9915.033716548387
 30
0.0
 70
    32
  0
VERTEX
  5
476
  8
____1
 62
     7
 10
17841.689538369781
 20
9914.0969107358214
 30
0.0
 70
    32
  0
VERTEX
  5
477
  8
____1
 62
     7
 10
17841.820344290139
 20
9913.1601049232522
 30
0.0
 70
    32
  0
VERTEX
  5
478
  8
____1
 62
     7
 10
17841.869960328899
 20
9912.2232991106848
 30
0.0
 70
    32
  0
VERTEX
  5
479
  8
____1
 62
     7
 10
17841.820344290139
 20
9911.2864932981192
 30
0.0
 70
    32
  0
VERTEX
  5
47A
  8
____1
 62
     7
 10
17841.689538369781
 20
9910.3496874855537
 30
0.0
 70
    32
  0
VERTEX
  5
47B
  8
____1
 62
     7
 10
17841.504605861679
 20
9909.4128816729863
 30
0.0
 70
    32
  0
VERTEX
  5
47C
  8
____1
 62
     7
 10
17841.292610059711
 20
9908.4760758604207
 30
0.0
 70
    32
  0
SEQEND
  5
47D
  8
____1
 62
     7
  0
LINE
  5
47E
  8
____1
  6
CONTINUOUS
 62
     7
 10
17836.369960328899
 20
9904.7232991106848
 30
0.0
 11
17841.292610059711
 21
9904.7232991106848
 31
0.0
  0
LINE
  5
47F
  8
____1
  6
CONTINUOUS
 62
     7
 10
17841.869960328899
 20
9905.7232991106848
 30
0.0
 11
17841.292610059711
 21
9904.7232991106848
 31
0.0
  0
LINE
  5
480
  8
____1
  6
CONTINUOUS
 62
     7
 10
17841.869960328899
 20
9918.7232991106866
 30
0.0
 11
17841.869960328899
 21
9905.7232991106848
 31
0.0
  0
LINE
  5
481
  8
____1
  6
CONTINUOUS
 62
     7
 10
17841.869960328899
 20
9918.7232991106866
 30
0.0
 11
17841.292610059711
 21
9919.7232991106848
 31
0.0
  0
LINE
  5
482
  8
____1
  6
CONTINUOUS
 62
     7
 10
17841.292610059711
 20
9919.7232991106848
 30
0.0
 11
17836.369960328899
 21
9919.7232991106848
 31
0.0
  0
LINE
  5
483
  8
____1
  6
CONTINUOUS
 62
     7
 10
17836.369960328899
 20
9919.7232991106848
 30
0.0
 11
17836.369960328899
 21
9904.7232991106848
 31
0.0
  0
ENDBLK
  5
484
  8
0
  0
BLOCK
  8
0
  2
C29
 70
     0
 10
0.0
 20
0.0
 30
0.0
  3
C29
  1

  0
INSERT
  5
4DB
  8
____1
  6
CONTINUOUS
 62
     7
  2
C30
 10
0.0
 20
0.0
 30
0.0
  0
ENDBLK
  5
4DC
  8
0
  0
BLOCK
  8
0
  2
C30
 70
     0
 10
0.0
 20
0.0
 30
0.0
  3
C30
  1

  0
LINE
  5
4B3
  8
____1
  6
CONTINUOUS
 62
     7
 10
18397.369960328899
 20
9916.2232991106848
 30
0.0
 11
18411.7699603289
 21
9916.2232991106848
 31
0.0
  0
LINE
  5
4B4
  8
____1
  6
CONTINUOUS
 62
     7
 10
18397.369960328899
 20
9915.6232991106863
 30
0.0
 11
18412.369960328899
 21
9915.6232991106863
 31
0.0
  0
LINE
  5
4B5
  8
____1
  6
CONTINUOUS
 62
     7
 10
18397.369960328899
 20
9908.8232991106888
 30
0.0
 11
18412.369960328899
 21
9908.8232991106888
 31
0.0
  0
LINE
  5
4B6
  8
____1
  6
CONTINUOUS
 62
     7
 10
18397.369960328899
 20
9908.2232991106848
 30
0.0
 11
18411.7699603289
 21
9908.2232991106848
 31
0.0
  0
LINE
  5
4B7
  8
____1
  6
CONTINUOUS
 62
     7
 10
18412.369960328899
 20
9908.8232991106888
 30
0.0
 11
18411.7699603289
 21
9908.2232991106848
 31
0.0
  0
LINE
  5
4B8
  8
____1
  6
CONTINUOUS
 62
     7
 10
18411.7699603289
 20
9916.2232991106848
 30
0.0
 11
18412.369960328899
 21
9915.6232991106863
 31
0.0
  0
LINE
  5
4B9
  8
____1
  6
CONTINUOUS
 62
     7
 10
18411.7699603289
 20
9916.2232991106848
 30
0.0
 11
18411.7699603289
 21
9908.2232991106848
 31
0.0
  0
LINE
  5
4BA
  8
____1
  6
CONTINUOUS
 62
     7
 10
18412.369960328899
 20
9915.6232991106863
 30
0.0
 11
18412.369960328899
 21
9908.8232991106888
 31
0.0
  0
LINE
  5
4BB
  8
____1
  6
CONTINUOUS
 62
     7
 10
18397.369960328899
 20
9908.4760758604207
 30
0.0
 11
18392.447310598091
 21
9908.4760758604207
 31
0.0
  0
POLYLINE
  5
4BC
  8
____1
  6
CONTINUOUS
 62
     7
 66
     1
 10
0.0
 20
0.0
 30
0.0
 70
     8
  0
VERTEX
  5
4BD
  8
____1
 62
     7
 10
18392.447310598091
 20
9908.4760758604207
 30
0.0
 70
    32
  0
VERTEX
  5
4BE
  8
____1
 62
     7
 10
18392.135382344961
 20
9907.0588073855379
 30
0.0
 70
    32
  0
VERTEX
  5
4BF
  8
____1
 62
     7
 10
18392.008702752941
 20
9906.3501731480937
 30
0.0
 70
    32
  0
VERTEX
  5
4C0
  8
____1
 62
     7
 10
18391.917164602401
 20
9905.6415389106533
 30
0.0
 70
    32
  0
SEQEND
  5
4C1
  8
____1
 62
     7
  0
LINE
  5
4C2
  8
____1
  6
CONTINUOUS
 62
     7
 10
18392.447310598091
 20
9915.9705223609544
 30
0.0
 11
18397.369960328899
 21
9915.9705223609544
 31
0.0
  0
POLYLINE
  5
4C3
  8
____1
  6
CONTINUOUS
 62
     7
 66
     1
 10
0.0
 20
0.0
 30
0.0
 70
     8
  0
VERTEX
  5
4C4
  8
____1
 62
     7
 10
18392.447310598091
 20
9915.9705223609544
 30
0.0
 70
    32
  0
VERTEX
  5
4C5
  8
____1
 62
     7
 10
18392.135382344961
 20
9917.3877908358354
 30
0.0
 70
    32
  0
VERTEX
  5
4C6
  8
____1
 62
     7
 10
18392.008702752941
 20
9918.0964250732759
 30
0.0
 70
    32
  0
VERTEX
  5
4C7
  8
____1
 62
     7
 10
18391.917164602401
 20
9918.8050593107164
 30
0.0
 70
    32
  0
SEQEND
  5
4C8
  8
____1
 62
     7
  0
POLYLINE
  5
4C9
  8
____1
  6
CONTINUOUS
 62
     7
 66
     1
 10
0.0
 20
0.0
 30
0.0
 70
     8
  0
VERTEX
  5
4CA
  8
____1
 62
     7
 10
18392.447310598091
 20
9915.9705223609544
 30
0.0
 70
    32
  0
VERTEX
  5
4CB
  8
____1
 62
     7
 10
18392.235314796118
 20
9915.033716548387
 30
0.0
 70
    32
  0
VERTEX
  5
4CC
  8
____1
 62
     7
 10
18392.05038228802
 20
9914.0969107358214
 30
0.0
 70
    32
  0
VERTEX
  5
4CD
  8
____1
 62
     7
 10
18391.919576367662
 20
9913.1601049232522
 30
0.0
 70
    32
  0
VERTEX
  5
4CE
  8
____1
 62
     7
 10
18391.869960328899
 20
9912.2232991106848
 30
0.0
 70
    32
  0
VERTEX
  5
4CF
  8
____1
 62
     7
 10
18391.919576367662
 20
9911.2864932981192
 30
0.0
 70
    32
  0
VERTEX
  5
4D0
  8
____1
 62
     7
 10
18392.05038228802
 20
9910.3496874855537
 30
0.0
 70
    32
  0
VERTEX
  5
4D1
  8
____1
 62
     7
 10
18392.235314796118
 20
9909.4128816729863
 30
0.0
 70
    32
  0
VERTEX
  5
4D2
  8
____1
 62
     7
 10
18392.447310598091
 20
9908.4760758604207
 30
0.0
 70
    32
  0
SEQEND
  5
4D3
  8
____1
 62
     7
  0
LINE
  5
4D4
  8
____1
  6
CONTINUOUS
 62
     7
 10
18397.369960328899
 20
9904.7232991106848
 30
0.0
 11
18392.447310598091
 21
9904.7232991106848
 31
0.0
  0
LINE
  5
4D5
  8
____1
  6
CONTINUOUS
 62
     7
 10
18391.869960328899
 20
9905.7232991106848
 30
0.0
 11
18392.447310598091
 21
9904.7232991106848
 31
0.0
  0
LINE
  5
4D6
  8
____1
  6
CONTINUOUS
 62
     7
 10
18391.869960328899
 20
9918.7232991106866
 30
0.0
 11
18391.869960328899
 21
9905.7232991106848
 31
0.0
  0
LINE
  5
4D7
  8
____1
  6
CONTINUOUS
 62
     7
 10
18391.869960328899
 20
9918.7232991106866
 30
0.0
 11
18392.447310598091
 21
9919.7232991106848
 31
0.0
  0
LINE
  5
4D8
  8
____1
  6
CONTINUOUS
 62
     7
 10
18392.447310598091
 20
9919.7232991106848
 30
0.0
 11
18397.369960328899
 21
9919.7232991106848
 31
0.0
  0
LINE
  5
4D9
  8
____1
  6
CONTINUOUS
 62
     7
 10
18397.369960328899
 20
9919.7232991106848
 30
0.0
 11
18397.369960328899
 21
9904.7232991106848
 31
0.0
  0
ENDBLK
  5
4DA
  8
0
  0
BLOCK
  8
0
  2
C31
 70
     0
 10
0.0
 20
0.0
 30
0.0
  3
C31
  1

  0
LINE
  5
4E0
  8
____1
  6
CONTINUOUS
 62
     7
 10
18398.869960328899
 20
9923.2232991106866
 30
0.0
 11
18398.869960328899
 21
9901.2232991106866
 31
0.0
  0
LINE
  5
4E1
  8
____1
  6
CENTER2
 62
     7
 10
18398.869960328899
 20
9923.2232991106866
 30
0.0
 11
18397.369960328899
 21
9923.2232991106866
 31
0.0
  0
LINE
  5
4E2
  8
____1
  6
CENTER2
 62
     7
 10
18398.869960328899
 20
9901.2232991106866
 30
0.0
 11
18397.369960328899
 21
9901.2232991106866
 31
0.0
  0
LINE
  5
4E3
  8
____1
  6
CONTINUOUS
 62
     7
 10
18397.369960328899
 20
9923.2232991106866
 30
0.0
 11
18397.369960328899
 21
9901.2232991106866
 31
0.0
  0
ENDBLK
  5
4E4
  8
0
  0
BLOCK
  8
0
  2
C32
 70
     0
 10
0.0
 20
0.0
 30
0.0
  3
C32
  1

  0
ARC
  5
4FA
  8
____1
  6
DASHED2
 62
     7
 10
18389.969960328901
 20
9902.3659807456879
 30
0.0
 40
2.0000000000016538
 50
180.0
 51
-86.054813770987536
  0
LINE
  5
4FB
  8
____1
  6
DASHED2
 62
     7
 10
18390.107564512131
 20
9900.3707200888402
 30
0.0
 11
18402.469960328901
 21
9901.2232991106866
 31
0.0
  0
LINE
  5
4FC
  8
____1
  6
DASHED2
 62
     7
 10
18390.107564512131
 20
9924.0758781325349
 30
0.0
 11
18402.469960328901
 21
9923.2232991106866
 31
0.0
  0
ARC
  5
4FD
  8
____1
  6
DASHED2
 62
     7
 10
18389.969960328901
 20
9922.0806174756854
 30
0.0
 40
2.0000000000016538
 50
86.054813770987536
 51
180.0
  0
LINE
  5
4FE
  8
____1
  6
DASHED2
 62
     7
 10
18387.969960328901
 20
9903.2232991106848
 30
0.0
 11
18387.969960328901
 21
9922.0806174756854
 31
0.0
  0
LINE
  5
4FF
  8
____1
  6
DASHED2
 62
     7
 10
18402.469960328901
 20
9901.2232991106866
 30
0.0
 11
18402.469960328901
 21
9923.2232991106866
 31
0.0
  0
LINE
  5
500
  8
____1
  6
DASHED2
 62
     7
 10
18399.2699603289
 20
9901.2232991106866
 30
0.0
 11
18399.2699603289
 21
9923.2232991106866
 31
0.0
  0
ARC
  5
501
  8
____1
  6
DASHED2
 62
     7
 10
18395.470319703902
 20
9912.2232991106848
 30
0.0
 40
11.000000000002039
 50
-50.481230232777499
 51
50.481230232777499
  0
ARC
  5
502
  8
____1
  6
DASHED2
 62
     7
 10
18395.470319703902
 20
9912.2232991106848
 30
0.0
 40
11.000000000002171
 50
132.98844501750119
 51
-132.9884450175141
  0
LINE
  5
503
  8
____1
  6
DOT
 62
     2
 10
18397.2699603289
 20
9912.2232991106848
 30
0.0
 11
18404.469960328901
 21
9912.2232991106848
 31
0.0
  0
ENDBLK
  5
504
  8
0
  0
BLOCK
  8
0
  2
C33
 70
     0
 10
0.0
 20
0.0
 30
0.0
  3
C33
  1

  0
LINE
  5
508
  8
____1
  6
DASHED2
 62
     7
 10
18402.869960328899
 20
9908.0232991106877
 30
0.0
 11
18398.869960328899
 21
9908.0232991106877
 31
0.0
  0
LINE
  5
509
  8
____1
  6
DASHED2
 62
     7
 10
18398.869960328899
 20
9916.4232991106855
 30
0.0
 11
18402.869960328899
 21
9916.4232991106855
 31
0.0
  0
LINE
  5
50A
  8
____1
  6
CONTINUOUS
 62
     7
 10
18398.869960328899
 20
9907.2232991106848
 30
0.0
 11
18402.869960328899
 21
9907.2232991106848
 31
0.0
  0
LINE
  5
50B
  8
____1
  6
CONTINUOUS
 62
     7
 10
18398.869960328899
 20
9917.2232991106866
 30
0.0
 11
18398.869960328899
 21
9907.2232991106848
 31
0.0
  0
LINE
  5
50C
  8
____1
  6
CONTINUOUS
 62
     7
 10
18398.869960328899
 20
9917.2232991106866
 30
0.0
 11
18402.869960328899
 21
9917.2232991106866
 31
0.0
  0
LINE
  5
50D
  8
____1
  6
CONTINUOUS
 62
     7
 10
18402.869960328899
 20
9907.2232991106848
 30
0.0
 11
18402.869960328899
 21
9917.2232991106866
 31
0.0
  0
ENDBLK
  5
50E
  8
0
  0
BLOCK
  8
0
  2
C34
 70
     0
 10
0.0
 20
0.0
 30
0.0
  3
C34
  1

  0
LINE
  5
51D
  8
____1
  6
DASHED2
 62
     7
 10
17836.369960328899
 20
10602.1981833836
 30
0.0
 11
17821.969960328901
 21
10602.1981833836
 31
0.0
  0
LINE
  5
51E
  8
____1
  6
DASHED2
 62
     7
 10
17836.369960328899
 20
10601.598183383599
 30
0.0
 11
17821.369960328899
 21
10601.598183383599
 31
0.0
  0
LINE
  5
51F
  8
____1
  6
DASHED2
 62
     7
 10
17836.369960328899
 20
10594.7981833836
 30
0.0
 11
17821.369960328899
 21
10594.7981833836
 31
0.0
  0
LINE
  5
520
  8
____1
  6
DASHED2
 62
     7
 10
17836.369960328899
 20
10594.1981833836
 30
0.0
 11
17821.969960328901
 21
10594.1981833836
 31
0.0
  0
LINE
  5
521
  8
____1
  6
DASHED2
 62
     7
 10
17821.369960328899
 20
10594.7981833836
 30
0.0
 11
17821.969960328901
 21
10594.1981833836
 31
0.0
  0
LINE
  5
522
  8
____1
  6
DASHED2
 62
     7
 10
17821.969960328901
 20
10602.1981833836
 30
0.0
 11
17821.369960328899
 21
10601.598183383599
 31
0.0
  0
LINE
  5
523
  8
____1
  6
DASHED2
 62
     7
 10
17821.969960328901
 20
10602.1981833836
 30
0.0
 11
17821.969960328901
 21
10594.1981833836
 31
0.0
  0
LINE
  5
524
  8
____1
  6
DASHED2
 62
     7
 10
17821.369960328899
 20
10601.598183383599
 30
0.0
 11
17821.369960328899
 21
10594.7981833836
 31
0.0
  0
LINE
  5
525
  8
____1
  6
DASHED2
 62
     7
 10
17836.369960328899
 20
10594.45096013333
 30
0.0
 11
17841.292610059711
 21
10594.45096013333
 31
0.0
  0
POLYLINE
  5
526
  8
____1
  6
DASHED2
 62
     7
 66
     1
 10
0.0
 20
0.0
 30
0.0
 70
     8
  0
VERTEX
  5
527
  8
____1
 62
     7
 10
17841.292610059711
 20
10594.45096013333
 30
0.0
 70
    32
  0
VERTEX
  5
528
  8
____1
 62
     7
 10
17841.60453831284
 20
10593.033691658449
 30
0.0
 70
    32
  0
VERTEX
  5
529
  8
____1
 62
     7
 10
17841.73121790486
 20
10592.325057421011
 30
0.0
 70
    32
  0
VERTEX
  5
52A
  8
____1
 62
     7
 10
17841.822756055401
 20
10591.61642318357
 30
0.0
 70
    32
  0
SEQEND
  5
52B
  8
____1
 62
     7
  0
LINE
  5
52C
  8
____1
  6
DASHED2
 62
     7
 10
17841.292610059711
 20
10601.945406633869
 30
0.0
 11
17836.369960328899
 21
10601.945406633869
 31
0.0
  0
POLYLINE
  5
52D
  8
____1
  6
DASHED2
 62
     7
 66
     1
 10
0.0
 20
0.0
 30
0.0
 70
     8
  0
VERTEX
  5
52E
  8
____1
 62
     7
 10
17841.292610059711
 20
10601.945406633869
 30
0.0
 70
    32
  0
VERTEX
  5
52F
  8
____1
 62
     7
 10
17841.60453831284
 20
10603.36267510875
 30
0.0
 70
    32
  0
VERTEX
  5
530
  8
____1
 62
     7
 10
17841.73121790486
 20
10604.071309346191
 30
0.0
 70
    32
  0
VERTEX
  5
531
  8
____1
 62
     7
 10
17841.822756055401
 20
10604.77994358363
 30
0.0
 70
    32
  0
SEQEND
  5
532
  8
____1
 62
     7
  0
POLYLINE
  5
533
  8
____1
  6
DASHED2
 62
     7
 66
     1
 10
0.0
 20
0.0
 30
0.0
 70
     8
  0
VERTEX
  5
534
  8
____1
 62
     7
 10
17841.292610059711
 20
10601.945406633869
 30
0.0
 70
    32
  0
VERTEX
  5
535
  8
____1
 62
     7
 10
17841.504605861679
 20
10601.0086008213
 30
0.0
 70
    32
  0
VERTEX
  5
536
  8
____1
 62
     7
 10
17841.689538369781
 20
10600.071795008729
 30
0.0
 70
    32
  0
VERTEX
  5
537
  8
____1
 62
     7
 10
17841.820344290139
 20
10599.134989196171
 30
0.0
 70
    32
  0
VERTEX
  5
538
  8
____1
 62
     7
 10
17841.869960328899
 20
10598.1981833836
 30
0.0
 70
    32
  0
VERTEX
  5
539
  8
____1
 62
     7
 10
17841.820344290139
 20
10597.261377571031
 30
0.0
 70
    32
  0
VERTEX
  5
53A
  8
____1
 62
     7
 10
17841.689538369781
 20
10596.32457175846
 30
0.0
 70
    32
  0
VERTEX
  5
53B
  8
____1
 62
     7
 10
17841.504605861679
 20
10595.387765945899
 30
0.0
 70
    32
  0
VERTEX
  5
53C
  8
____1
 62
     7
 10
17841.292610059711
 20
10594.45096013333
 30
0.0
 70
    32
  0
SEQEND
  5
53D
  8
____1
 62
     7
  0
LINE
  5
53E
  8
____1
  6
DASHED2
 62
     7
 10
17836.369960328899
 20
10590.6981833836
 30
0.0
 11
17841.292610059711
 21
10590.6981833836
 31
0.0
  0
LINE
  5
53F
  8
____1
  6
DASHED2
 62
     7
 10
17841.869960328899
 20
10591.6981833836
 30
0.0
 11
17841.292610059711
 21
10590.6981833836
 31
0.0
  0
LINE
  5
540
  8
____1
  6
DASHED2
 62
     7
 10
17841.869960328899
 20
10604.6981833836
 30
0.0
 11
17841.869960328899
 21
10591.6981833836
 31
0.0
  0
LINE
  5
541
  8
____1
  6
DASHED2
 62
     7
 10
17841.869960328899
 20
10604.6981833836
 30
0.0
 11
17841.292610059711
 21
10605.6981833836
 31
0.0
  0
LINE
  5
542
  8
____1
  6
DASHED2
 62
     7
 10
17841.292610059711
 20
10605.6981833836
 30
0.0
 11
17836.369960328899
 21
10605.6981833836
 31
0.0
  0
LINE
  5
543
  8
____1
  6
DASHED2
 62
     7
 10
17836.369960328899
 20
10605.6981833836
 30
0.0
 11
17836.369960328899
 21
10590.6981833836
 31
0.0
  0
ENDBLK
  5
544
  8
0
  0
BLOCK
  8
0
  2
C35
 70
     0
 10
0.0
 20
0.0
 30
0.0
  3
C35
  1

  0
ARC
  5
548
  8
UNASSIGNED
  6
DASHED2
 62
     7
 10
18116.869960328899
 20
10466.1981833836
 30
0.0
 40
2.5
 50
180.0
 51
0.0
  0
LINE
  5
549
  8
UNASSIGNED
  6
DASHED2
 62
     7
 10
18119.369960328899
 20
10445.1981833836
 30
0.0
 11
18119.369960328899
 21
10466.1981833836
 31
0.0
  0
LINE
  5
54A
  8
UNASSIGNED
  6
DASHED2
 62
     7
 10
18114.369960328899
 20
10443.6981833836
 30
0.0
 11
18119.369960328899
 21
10443.6981833836
 31
0.0
  0
LINE
  5
54B
  8
UNASSIGNED
  6
DASHED2
 62
     7
 10
18114.369960328899
 20
10445.1981833836
 30
0.0
 11
18114.369960328899
 21
10443.6981833836
 31
0.0
  0
LINE
  5
54C
  8
UNASSIGNED
  6
DASHED2
 62
     7
 10
18119.369960328899
 20
10443.6981833836
 30
0.0
 11
18119.369960328899
 21
10445.1981833836
 31
0.0
  0
LINE
  5
54D
  8
UNASSIGNED
  6
DASHED2
 62
     7
 10
18114.369960328899
 20
10446.952530532981
 30
0.0
 11
18119.369960328899
 21
10446.952530532981
 31
0.0
  0
LINE
  5
54E
  8
UNASSIGNED
  6
DASHED2
 62
     7
 10
18114.369960328899
 20
10466.1981833836
 30
0.0
 11
18114.369960328899
 21
10445.1981833836
 31
0.0
  0
ARC
  5
54F
  8
UNASSIGNED
  6
DASHED2
 62
     7
 10
18116.869960328899
 20
10466.1981833836
 30
0.0
 40
2.5
 50
0.0
 51
180.0
  0
ENDBLK
  5
550
  8
0
  0
BLOCK
  8
0
  2
C36
 70
     0
 10
0.0
 20
0.0
 30
0.0
  3
C36
  1

  0
ARC
  5
557
  8
____1
  6
DASHED2
 62
     7
 10
17756.869960328899
 20
10488.6981833836
 30
0.0
 40
6.0
 50
180.0
 51
0.0
  0
LINE
  5
558
  8
____1
  6
DASHED2
 62
     7
 10
17762.869960328899
 20
10488.6981833836
 30
0.0
 11
17762.869960328899
 21
10501.6981833836
 31
0.0
  0
ARC
  5
559
  8
____1
  6
DASHED2
 62
     7
 10
17756.869960328899
 20
10501.6981833836
 30
0.0
 40
6.0
 50
0.0
 51
180.0
  0
LINE
  5
55A
  8
____1
  6
DASHED2
 62
     7
 10
17750.869960328899
 20
10488.6981833836
 30
0.0
 11
17750.869960328899
 21
10501.6981833836
 31
0.0
  0
LINE
  5
55B
  8
____1
  6
DOT
 62
     3
 10
17756.869960328899
 20
10497.1981833836
 30
0.0
 11
17756.869960328899
 21
10493.1981833836
 31
0.0
  0
LINE
  5
55C
  8
____1
  6
DOT
 62
     3
 10
17758.869960328899
 20
10495.1981833836
 30
0.0
 11
17754.869960328899
 21
10495.1981833836
 31
0.0
  0
LINE
  5
55D
  8
____1
  6
DASHED2
 62
     7
 10
17740.599664705001
 20
10520.1981833836
 30
0.0
 11
17740.599664705001
 21
10470.1981833836
 31
0.0
  0
LINE
  5
55E
  8
____1
  6
DASHED2
 62
     7
 10
17736.033636354721
 20
10470.1981833836
 30
0.0
 11
17736.033636354721
 21
10520.1981833836
 31
0.0
  0
LINE
  5
55F
  8
____1
  6
DASHED2
 62
     7
 10
17771.369960328899
 20
10470.1981833836
 30
0.0
 11
17716.369017818099
 21
10470.1981833836
 31
0.0
  0
LINE
  5
560
  8
____1
  6
DASHED2
 62
     7
 10
17716.369017818099
 20
10470.1981833836
 30
0.0
 11
17716.369017818099
 21
10520.1981833836
 31
0.0
  0
LINE
  5
561
  8
____1
  6
DASHED2
 62
     7
 10
17771.369960328899
 20
10520.1981833836
 30
0.0
 11
17716.369017818099
 21
10520.1981833836
 31
0.0
  0
ARC
  5
562
  8
____1
  6
DASHED2
 62
     7
 10
17771.369960328899
 20
10473.1981833836
 30
0.0
 40
3.0
 50
-90.0
 51
0.0
  0
ARC
  5
563
  8
____1
  6
DASHED2
 62
     7
 10
17771.369960328899
 20
10517.1981833836
 30
0.0
 40
3.0
 50
0.0
 51
90.0
  0
LINE
  5
564
  8
____1
  6
DASHED2
 62
     7
 10
17774.369960328899
 20
10517.1981833836
 30
0.0
 11
17774.369960328899
 21
10473.1981833836
 31
0.0
  0
LINE
  5
565
  8
____1
  6
DASHED2
 62
     7
 10
17734.85694162409
 20
10470.1981833836
 30
0.0
 11
17734.85694162409
 21
10520.1981833836
 31
0.0
  0
ENDBLK
  5
566
  8
0
  0
BLOCK
  8
0
  2
*D54
 70
     1
 10
0.0
 20
0.0
 30
0.0
  3
*D54
  1

  0
LINE
  5
56A
  8
____1
  6
CONTINUOUS
 62
     7
 10
17740.369960328899
 20
10495.1981833836
 30
0.0
 11
17547.003664763641
 21
10495.1981833836
 31
0.0
  0
LINE
  5
56B
  8
____1
  6
CONTINUOUS
 62
     7
 10
17736.599664705001
 20
10995.1981833836
 30
0.0
 11
17547.003664763641
 21
10995.1981833836
 31
0.0
  0
SOLID
  5
56C
  8
____1
  6
CONTINUOUS
 62
     7
 10
17551.003664763641
 20
10975.1981833836
 30
0.0
 11
17551.003664763641
 21
10975.1981833836
 31
0.0
 12
17552.003664763641
 22
10980.1981833836
 32
0.0
 13
17555.003664763641
 23
10980.1981833836
 33
0.0
  0
SOLID
  5
56D
  8
____1
  6
CONTINUOUS
 62
     7
 10
17559.003664763641
 20
10975.1981833836
 30
0.0
 11
17559.003664763641
 21
10975.1981833836
 31
0.0
 12
17555.003664763641
 22
10980.1981833836
 32
0.0
 13
17558.003664763641
 23
10980.1981833836
 33
0.0
  0
SOLID
  5
56E
  8
____1
  6
CONTINUOUS
 62
     7
 10
17552.003664763641
 20
10980.1981833836
 30
0.0
 11
17558.003664763641
 21
10980.1981833836
 31
0.0
 12
17555.003664763641
 22
10995.1981833836
 32
0.0
 13
17555.003664763641
 23
10995.1981833836
 33
0.0
  0
LINE
  5
56F
  8
____1
  6
CONTINUOUS
 62
     7
 10
17555.003664763641
 20
10995.1981833836
 30
0.0
 11
17555.003664763641
 21
10745.9481833836
 31
0.0
  0
SOLID
  5
570
  8
____1
  6
CONTINUOUS
 62
     7
 10
17555.003664763641
 20
10495.1981833836
 30
0.0
 11
17555.003664763641
 21
10495.1981833836
 31
0.0
 12
17552.003664763641
 22
10510.1981833836
 32
0.0
 13
17558.003664763641
 23
10510.1981833836
 33
0.0
  0
SOLID
  5
571
  8
____1
  6
CONTINUOUS
 62
     7
 10
17552.003664763641
 20
10510.1981833836
 30
0.0
 11
17555.003664763641
 21
10510.1981833836
 31
0.0
 12
17551.003664763641
 22
10515.1981833836
 32
0.0
 13
17551.003664763641
 23
10515.1981833836
 33
0.0
  0
SOLID
  5
572
  8
____1
  6
CONTINUOUS
 62
     7
 10
17555.003664763641
 20
10510.1981833836
 30
0.0
 11
17558.003664763641
 21
10510.1981833836
 31
0.0
 12
17559.003664763641
 22
10515.1981833836
 32
0.0
 13
17559.003664763641
 23
10515.1981833836
 33
0.0
  0
LINE
  5
573
  8
____1
  6
CONTINUOUS
 62
     7
 10
17555.003664763641
 20
10495.1981833836
 30
0.0
 11
17555.003664763641
 21
10745.9481833836
 31
0.0
  0
TEXT
  5
574
  8
______
  6
DASHED2
 62
     7
 10
17546.887924146518
 20
10724.781517352711
 30
0.0
 40
28.222221374511719
  1
500
 50
90.0
  7
STYLE1
  0
ENDBLK
  5
575
  8
0
  0
BLOCK
  8
0
  2
C37
 70
     0
 10
0.0
 20
0.0
 30
0.0
  3
C37
  1

  0
ARC
  5
57E
  8
____1
  6
DASHED2
 62
     7
 10
17756.869960328899
 20
10988.6981833836
 30
0.0
 40
6.0
 50
180.0
 51
0.0
  0
LINE
  5
57F
  8
____1
  6
DASHED2
 62
     7
 10
17762.869960328899
 20
10988.6981833836
 30
0.0
 11
17762.869960328899
 21
11001.6981833836
 31
0.0
  0
ARC
  5
580
  8
____1
  6
DASHED2
 62
     7
 10
17756.869960328899
 20
11001.6981833836
 30
0.0
 40
6.0
 50
0.0
 51
180.0
  0
LINE
  5
581
  8
____1
  6
DASHED2
 62
     7
 10
17750.869960328899
 20
10988.6981833836
 30
0.0
 11
17750.869960328899
 21
11001.6981833836
 31
0.0
  0
LINE
  5
582
  8
____1
  6
DOT
 62
     3
 10
17756.869960328899
 20
10997.1981833836
 30
0.0
 11
17756.869960328899
 21
10993.1981833836
 31
0.0
  0
LINE
  5
583
  8
____1
  6
DOT
 62
     3
 10
17758.869960328899
 20
10995.1981833836
 30
0.0
 11
17754.869960328899
 21
10995.1981833836
 31
0.0
  0
LINE
  5
584
  8
____1
  6
DASHED2
 62
     7
 10
17740.599664705001
 20
11020.1981833836
 30
0.0
 11
17740.599664705001
 21
10970.1981833836
 31
0.0
  0
LINE
  5
585
  8
____1
  6
DASHED2
 62
     7
 10
17736.033636354721
 20
10970.1981833836
 30
0.0
 11
17736.033636354721
 21
11020.1981833836
 31
0.0
  0
LINE
  5
586
  8
____1
  6
DASHED2
 62
     7
 10
17771.369960328899
 20
10970.1981833836
 30
0.0
 11
17716.369017818099
 21
10970.1981833836
 31
0.0
  0
LINE
  5
587
  8
____1
  6
DASHED2
 62
     7
 10
17716.369017818099
 20
10970.1981833836
 30
0.0
 11
17716.369017818099
 21
11020.1981833836
 31
0.0
  0
LINE
  5
588
  8
____1
  6
DASHED2
 62
     7
 10
17771.369960328899
 20
11020.1981833836
 30
0.0
 11
17716.369017818099
 21
11020.1981833836
 31
0.0
  0
ARC
  5
589
  8
____1
  6
DASHED2
 62
     7
 10
17771.369960328899
 20
10973.1981833836
 30
0.0
 40
3.0
 50
-90.0
 51
0.0
  0
ARC
  5
58A
  8
____1
  6
DASHED2
 62
     7
 10
17771.369960328899
 20
11017.1981833836
 30
0.0
 40
3.0
 50
0.0
 51
90.0
  0
LINE
  5
58B
  8
____1
  6
DASHED2
 62
     7
 10
17774.369960328899
 20
11017.1981833836
 30
0.0
 11
17774.369960328899
 21
10973.1981833836
 31
0.0
  0
LINE
  5
58C
  8
____1
  6
DASHED2
 62
     7
 10
17734.85694162409
 20
10970.1981833836
 30
0.0
 11
17734.85694162409
 21
11020.1981833836
 31
0.0
  0
ENDBLK
  5
58D
  8
0
  0
BLOCK
  8
0
  2
*D56
 70
     1
 10
0.0
 20
0.0
 30
0.0
  3
*D56
  1

  0
LINE
  5
591
  8
____1
  6
CONTINUOUS
 62
     7
 10
17616.869960328899
 20
11249.198183383591
 30
0.0
 11
17616.869960328899
 21
11303.752115192639
 31
0.0
  0
LINE
  5
592
  8
____1
  6
CONTINUOUS
 62
     7
 10
17756.869960328899
 20
11011.6981833836
 30
0.0
 11
17756.869960328899
 21
11303.752115192639
 31
0.0
  0
SOLID
  5
593
  8
____1
  6
CONTINUOUS
 62
     7
 10
17736.869960328899
 20
11291.752115192639
 30
0.0
 11
17736.869960328899
 21
11291.752115192639
 31
0.0
 12
17741.869960328899
 22
11295.752115192639
 32
0.0
 13
17756.869960328899
 23
11295.752115192639
 33
0.0
  0
SOLID
  5
594
  8
____1
  6
CONTINUOUS
 62
     7
 10
17741.869960328899
 20
11295.752115192639
 30
0.0
 11
17756.869960328899
 21
11295.752115192639
 31
0.0
 12
17736.869960328899
 22
11299.752115192639
 32
0.0
 13
17736.869960328899
 23
11299.752115192639
 33
0.0
  0
LINE
  5
595
  8
____1
  6
CONTINUOUS
 62
     7
 10
17756.869960328899
 20
11295.752115192639
 30
0.0
 11
17686.869960328899
 21
11295.752115192639
 31
0.0
  0
SOLID
  5
596
  8
____1
  6
CONTINUOUS
 62
     7
 10
17636.869960328899
 20
11291.752115192639
 30
0.0
 11
17636.869960328899
 21
11291.752115192639
 31
0.0
 12
17616.869960328899
 22
11295.752115192639
 32
0.0
 13
17631.869960328899
 23
11295.752115192639
 33
0.0
  0
SOLID
  5
597
  8
____1
  6
CONTINUOUS
 62
     7
 10
17616.869960328899
 20
11295.752115192639
 30
0.0
 11
17631.869960328899
 21
11295.752115192639
 31
0.0
 12
17636.869960328899
 22
11299.752115192639
 32
0.0
 13
17636.869960328899
 23
11299.752115192639
 33
0.0
  0
LINE
  5
598
  8
____1
  6
CONTINUOUS
 62
     7
 10
17616.869960328899
 20
11295.752115192639
 30
0.0
 11
17686.869960328899
 21
11295.752115192639
 31
0.0
  0
TEXT
  5
599
  8
______
  6
DASHED2
 62
     7
 10
17665.703294298019
 20
11303.86785580976
 30
0.0
 40
28.222221374511719
  1
140
  7
STYLE1
  0
ENDBLK
  5
59A
  8
0
  0
BLOCK
  8
0
  2
*D57
 70
     1
 10
0.0
 20
0.0
 30
0.0
  3
*D57
  1

  0
LINE
  5
59E
  8
____1
  6
CONTINUOUS
 62
     7
 10
17582.366417631369
 20
11068.683817411429
 30
0.0
 11
17497.373149248189
 21
11068.683817411429
 31
0.0
  0
SOLID
  5
59F
  8
____1
  6
CONTINUOUS
 62
     7
 10
17751.268477769921
 20
11003.84839108087
 30
0.0
 11
17751.268477769921
 21
11003.84839108087
 31
0.0
 12
17731.163397441789
 22
11007.281428365781
 32
0.0
 13
17745.840033498978
 23
11007.281428365781
 33
0.0
  0
SOLID
  5
5A0
  8
____1
  6
CONTINUOUS
 62
     7
 10
17731.163397441789
 20
11007.281428365781
 30
0.0
 11
17745.840033498978
 21
11007.281428365781
 31
0.0
 12
17737.264771372458
 22
11009.22391032405
 32
0.0
 13
17742.768509893911
 23
11009.22391032405
 33
0.0
  0
SOLID
  5
5A1
  8
____1
  6
CONTINUOUS
 62
     7
 10
17737.264771372458
 20
11009.22391032405
 30
0.0
 11
17742.768509893911
 21
11009.22391032405
 31
0.0
 12
17734.030341038149
 22
11014.75007177776
 32
0.0
 13
17734.030341038149
 23
11014.75007177776
 33
0.0
  0
LINE
  5
5A2
  8
____1
  6
CONTINUOUS
 62
     7
 10
17751.268477769921
 20
11003.84839108087
 30
0.0
 11
17582.366417631369
 21
11068.683817411429
 31
0.0
  0
TEXT
  5
5A3
  8
______
  6
DASHED2
 62
     7
 10
17299.817599626611
 20
11058.688447341299
 30
0.0
 40
28.222221374511719
  1
4－12×25長穴
  7
STYLE1
  0
ENDBLK
  5
5A4
  8
0
  0
BLOCK
  8
0
  2
*D58
 70
     1
 10
0.0
 20
0.0
 30
0.0
  3
*D58
  1

  0
LINE
  5
5A8
  8
____1
  6
CONTINUOUS
 62
     7
 10
17740.369960328899
 20
10995.1981833836
 30
0.0
 11
17547.003664763641
 21
10995.1981833836
 31
0.0
  0
LINE
  5
5A9
  8
____1
  6
CONTINUOUS
 62
     7
 10
17612.869960328899
 20
11245.1981833836
 30
0.0
 11
17547.003664763641
 21
11245.1981833836
 31
0.0
  0
SOLID
  5
5AA
  8
____1
  6
CONTINUOUS
 62
     7
 10
17551.003664763641
 20
11225.1981833836
 30
0.0
 11
17551.003664763641
 21
11225.1981833836
 31
0.0
 12
17552.003664763641
 22
11230.1981833836
 32
0.0
 13
17555.003664763641
 23
11230.1981833836
 33
0.0
  0
SOLID
  5
5AB
  8
____1
  6
CONTINUOUS
 62
     7
 10
17559.003664763641
 20
11225.1981833836
 30
0.0
 11
17559.003664763641
 21
11225.1981833836
 31
0.0
 12
17555.003664763641
 22
11230.1981833836
 32
0.0
 13
17558.003664763641
 23
11230.1981833836
 33
0.0
  0
SOLID
  5
5AC
  8
____1
  6
CONTINUOUS
 62
     7
 10
17552.003664763641
 20
11230.1981833836
 30
0.0
 11
17558.003664763641
 21
11230.1981833836
 31
0.0
 12
17555.003664763641
 22
11245.1981833836
 32
0.0
 13
17555.003664763641
 23
11245.1981833836
 33
0.0
  0
LINE
  5
5AD
  8
____1
  6
CONTINUOUS
 62
     7
 10
17555.003664763641
 20
11245.1981833836
 30
0.0
 11
17555.003664763641
 21
11120.1981833836
 31
0.0
  0
SOLID
  5
5AE
  8
____1
  6
CONTINUOUS
 62
     7
 10
17555.003664763641
 20
10995.1981833836
 30
0.0
 11
17555.003664763641
 21
10995.1981833836
 31
0.0
 12
17552.003664763641
 22
11010.1981833836
 32
0.0
 13
17558.003664763641
 23
11010.1981833836
 33
0.0
  0
SOLID
  5
5AF
  8
____1
  6
CONTINUOUS
 62
     7
 10
17552.003664763641
 20
11010.1981833836
 30
0.0
 11
17555.003664763641
 21
11010.1981833836
 31
0.0
 12
17551.003664763641
 22
11015.1981833836
 32
0.0
 13
17551.003664763641
 23
11015.1981833836
 33
0.0
  0
SOLID
  5
5B0
  8
____1
  6
CONTINUOUS
 62
     7
 10
17555.003664763641
 20
11010.1981833836
 30
0.0
 11
17558.003664763641
 21
11010.1981833836
 31
0.0
 12
17559.003664763641
 22
11015.1981833836
 32
0.0
 13
17559.003664763641
 23
11015.1981833836
 33
0.0
  0
LINE
  5
5B1
  8
____1
  6
CONTINUOUS
 62
     7
 10
17555.003664763641
 20
10995.1981833836
 30
0.0
 11
17555.003664763641
 21
11120.1981833836
 31
0.0
  0
TEXT
  5
5B2
  8
______
  6
DASHED2
 62
     7
 10
17546.887924146518
 20
11099.031517352711
 30
0.0
 40
28.222221374511719
  1
250
 50
90.0
  7
STYLE1
  0
ENDBLK
  5
5B3
  8
0
  0
BLOCK
  8
0
  2
C38
 70
     0
 10
0.0
 20
0.0
 30
0.0
  3
C38
  1

  0
LINE
  5
5C6
  8
____1
  6
DASHED2
 62
     7
 10
18199.48469703865
 20
10635.13272690596
 30
0.0
 11
18174.799174600361
 21
10627.760902927599
 31
0.0
  0
POLYLINE
  5
5C7
  8
____1
  6
DASHED2
 62
     7
 66
     1
 10
0.0
 20
0.0
 30
0.0
 70
     8
  0
VERTEX
  5
5C8
  8
____1
 62
     7
 10
18175.111736997289
 20
10613.976667025399
 30
0.0
 70
    32
  0
VERTEX
  5
5C9
  8
____1
 62
     7
 10
18175.109658022611
 20
10614.4459520008
 30
0.0
 70
    32
  0
VERTEX
  5
5CA
  8
____1
 62
     7
 10
18175.0351722839
 20
10614.890983657629
 30
0.0
 70
    32
  0
VERTEX
  5
5CB
  8
____1
 62
     7
 10
18174.895570964229
 20
10615.26819919662
 30
0.0
 70
    32
  0
VERTEX
  5
5CC
  8
____1
 62
     7
 10
18174.704519213428
 20
10615.54067413259
 30
0.0
 70
    32
  0
VERTEX
  5
5CD
  8
____1
 62
     7
 10
18174.480718507999
 20
10615.681736720369
 30
0.0
 70
    32
  0
VERTEX
  5
5CE
  8
____1
 62
     7
 10
18174.369960328899
 20
10615.6981833836
 30
0.0
 70
    32
  0
SEQEND
  5
5CF
  8
____1
 62
     7
  0
ARC
  5
5D0
  8
____1
  6
DASHED2
 62
     7
 10
18211.869960328899
 20
10611.698183383591
 30
0.0
 40
5.0
 50
-90.0
 51
0.0
  0
ARC
  5
5D1
  8
____1
  6
DASHED2
 62
     7
 10
18200.73469703865
 20
10607.4481833836
 30
0.0
 40
1.25
 50
0.0
 51
180.0
  0
LINE
  5
5D2
  8
____1
  6
DASHED2
 62
     7
 10
18201.98469703865
 20
10606.998183383599
 30
0.0
 11
18201.98469703865
 21
10607.4481833836
 31
0.0
  0
POLYLINE
  5
5D3
  8
____1
  6
DASHED2
 62
     7
 66
     1
 10
0.0
 20
0.0
 30
0.0
 70
     8
  0
VERTEX
  5
5D4
  8
____1
 62
     7
 10
18058.628183660509
 20
10613.976667025399
 30
0.0
 70
    32
  0
VERTEX
  5
5D5
  8
____1
 62
     7
 10
18058.63026263519
 20
10614.4459520008
 30
0.0
 70
    32
  0
VERTEX
  5
5D6
  8
____1
 62
     7
 10
18058.704748373901
 20
10614.890983657629
 30
0.0
 70
    32
  0
VERTEX
  5
5D7
  8
____1
 62
     7
 10
18058.844349693569
 20
10615.26819919662
 30
0.0
 70
    32
  0
VERTEX
  5
5D8
  8
____1
 62
     7
 10
18059.035401444369
 20
10615.54067413259
 30
0.0
 70
    32
  0
VERTEX
  5
5D9
  8
____1
 62
     7
 10
18059.259202149799
 20
10615.681736720369
 30
0.0
 70
    32
  0
VERTEX
  5
5DA
  8
____1
 62
     7
 10
18059.369960328899
 20
10615.6981833836
 30
0.0
 70
    32
  0
SEQEND
  5
5DB
  8
____1
 62
     7
  0
ARC
  5
5DC
  8
____1
  6
DASHED2
 62
     7
 10
18059.369960328899
 20
10614.1981833836
 30
0.0
 40
1.5
 50
0.0
 51
90.0
  0
LINE
  5
5DD
  8
____1
  6
DASHED2
 62
     7
 10
18059.369960328899
 20
10627.6981833836
 30
0.0
 11
18059.369960328899
 21
10615.6981833836
 31
0.0
  0
LINE
  5
5DE
  8
____1
  6
DASHED2
 62
     7
 10
18016.869960328899
 20
10631.698183383591
 30
0.0
 11
18016.869960328899
 21
10611.698183383591
 31
0.0
  0
LINE
  5
5DF
  8
____1
  6
DASHED2
 62
     7
 10
18199.098854039079
 20
10606.813407466179
 30
0.0
 11
18175.111736997282
 21
10613.976667025399
 31
0.0
  0
LINE
  5
5E0
  8
____1
  6
DASHED2
 62
     7
 10
18174.369960328899
 20
10627.6981833836
 30
0.0
 11
18174.369960328899
 21
10615.6981833836
 31
0.0
  0
LINE
  5
5E1
  8
____1
  6
DASHED2
 62
     7
 10
18216.869960328899
 20
10631.698183383591
 30
0.0
 11
18216.869960328899
 21
10611.698183383591
 31
0.0
  0
ARC
  5
5E2
  8
____1
  6
DASHED2
 62
     7
 10
18059.369960328899
 20
10629.1981833836
 30
0.0
 40
1.5
 50
-90.0
 51
0.0
  0
POLYLINE
  5
5E3
  8
____1
  6
DASHED2
 62
     7
 66
     1
 10
0.0
 20
0.0
 30
0.0
 70
     8
  0
VERTEX
  5
5E4
  8
____1
 62
     7
 10
18058.628183660509
 20
10629.419699741789
 30
0.0
 70
    32
  0
VERTEX
  5
5E5
  8
____1
 62
     7
 10
18058.63026263519
 20
10628.950414766399
 30
0.0
 70
    32
  0
VERTEX
  5
5E6
  8
____1
 62
     7
 10
18058.704748373901
 20
10628.505383109559
 30
0.0
 70
    32
  0
VERTEX
  5
5E7
  8
____1
 62
     7
 10
18058.844349693569
 20
10628.12816757057
 30
0.0
 70
    32
  0
VERTEX
  5
5E8
  8
____1
 62
     7
 10
18059.035401444369
 20
10627.855692634599
 30
0.0
 70
    32
  0
VERTEX
  5
5E9
  8
____1
 62
     7
 10
18059.259202149799
 20
10627.714630046819
 30
0.0
 70
    32
  0
VERTEX
  5
5EA
  8
____1
 62
     7
 10
18059.369960328899
 20
10627.6981833836
 30
0.0
 70
    32
  0
SEQEND
  5
5EB
  8
____1
 62
     7
  0
LINE
  5
5EC
  8
____1
  6
DASHED2
 62
     7
 10
18058.940746057429
 20
10615.63546383959
 30
0.0
 11
18034.255223619151
 21
10608.26363986123
 31
0.0
  0
LINE
  5
5ED
  8
____1
  6
DASHED2
 62
     7
 10
18174.369960328899
 20
10615.6981833836
 30
0.0
 11
18059.369960328899
 21
10615.6981833836
 31
0.0
  0
LINE
  5
5EE
  8
____1
  6
DASHED2
 62
     7
 10
18172.869960328899
 20
10614.1981833836
 30
0.0
 11
18060.869960328899
 21
10614.1981833836
 31
0.0
  0
LINE
  5
5EF
  8
____1
  6
DASHED2
 62
     7
 10
18199.48469703865
 20
10608.26363986123
 30
0.0
 11
18174.799174600372
 21
10615.63546383959
 31
0.0
  0
LINE
  5
5F0
  8
____1
  6
DASHED2
 62
     7
 10
18059.369960328899
 20
10627.6981833836
 30
0.0
 11
18174.369960328899
 21
10627.6981833836
 31
0.0
  0
LINE
  5
5F1
  8
____1
  6
DASHED2
 62
     7
 10
18060.869960328899
 20
10629.1981833836
 30
0.0
 11
18172.869960328899
 21
10629.1981833836
 31
0.0
  0
LINE
  5
5F2
  8
____1
  6
DASHED2
 62
     7
 10
18031.455223619148
 20
10636.6981833836
 30
0.0
 11
18021.869960328899
 21
10636.6981833836
 31
0.0
  0
ARC
  5
5F3
  8
____1
  6
DASHED2
 62
     7
 10
18031.455223619148
 20
10636.398183383601
 30
0.0
 40
0.2999999999992724
 50
0.0
 51
90.0
  0
ARC
  5
5F4
  8
____1
  6
DASHED2
 62
     7
 10
18034.555223619151
 20
10636.295503253201
 30
0.0
 40
0.2999999999989409
 50
73.372687562119992
 51
-179.99955041883391
  0
ARC
  5
5F5
  8
____1
  6
DASHED2
 62
     7
 10
18202.284697038649
 20
10636.398183383601
 30
0.0
 40
0.2999999999992724
 50
90.0
 51
180.0
  0
ARC
  5
5F6
  8
____1
  6
DASHED2
 62
     7
 10
18034.555223619151
 20
10607.100863514001
 30
0.0
 40
0.2999999999985377
 50
179.9996745981542
 51
-73.372686758660876
  0
ARC
  5
5F7
  8
____1
  6
DASHED2
 62
     7
 10
18211.869960328899
 20
10631.698183383591
 30
0.0
 40
5.0
 50
0.0
 51
90.0
  0
LINE
  5
5F8
  8
____1
  6
DASHED2
 62
     7
 10
18199.098854184362
 20
10636.58295934439
 30
0.0
 11
18175.111736997282
 21
10629.419699741789
 31
0.0
  0
ARC
  5
5F9
  8
____1
  6
DASHED2
 62
     7
 10
18199.18469703865
 20
10636.295503253201
 30
0.0
 40
0.2999999999970155
 50
0.0
 51
106.62717419191689
  0
LINE
  5
5FA
  8
____1
  6
DASHED2
 62
     7
 10
18202.284697038649
 20
10636.6981833836
 30
0.0
 11
18211.869960328899
 21
10636.6981833836
 31
0.0
  0
LINE
  5
5FB
  8
____1
  6
DASHED2
 62
     7
 10
18201.98469703865
 20
10636.398183383601
 30
0.0
 11
18201.98469703865
 21
10635.9481833836
 31
0.0
  0
ARC
  5
5FC
  8
____1
  6
DASHED2
 62
     7
 10
18202.284697038649
 20
10606.998183383599
 30
0.0
 40
0.2999999999997293
 50
180.0
 51
-89.999900003290264
  0
LINE
  5
5FD
  8
____1
  6
DASHED2
 62
     7
 10
18211.869960328899
 20
10606.6981833836
 30
0.0
 11
18202.284697562231
 21
10606.6981833836
 31
0.0
  0
ARC
  5
5FE
  8
____1
  6
DASHED2
 62
     7
 10
18199.18469703865
 20
10607.100863514001
 30
0.0
 40
0.3000000000011316
 50
-106.62720314799439
 51
-0.0000197171130643
  0
ARC
  5
5FF
  8
____1
  6
DASHED2
 62
     7
 10
18174.369960328899
 20
10629.1981833836
 30
0.0
 40
1.5
 50
180.0
 51
-90.0
  0
POLYLINE
  5
600
  8
____1
  6
DASHED2
 62
     7
 66
     1
 10
0.0
 20
0.0
 30
0.0
 70
     8
  0
VERTEX
  5
601
  8
____1
 62
     7
 10
18175.111736997289
 20
10629.419699741789
 30
0.0
 70
    32
  0
VERTEX
  5
602
  8
____1
 62
     7
 10
18175.109658022611
 20
10628.950414766399
 30
0.0
 70
    32
  0
VERTEX
  5
603
  8
____1
 62
     7
 10
18175.0351722839
 20
10628.505383109559
 30
0.0
 70
    32
  0
VERTEX
  5
604
  8
____1
 62
     7
 10
18174.895570964229
 20
10628.12816757057
 30
0.0
 70
    32
  0
VERTEX
  5
605
  8
____1
 62
     7
 10
18174.704519213428
 20
10627.855692634599
 30
0.0
 70
    32
  0
VERTEX
  5
606
  8
____1
 62
     7
 10
18174.480718507999
 20
10627.714630046819
 30
0.0
 70
    32
  0
VERTEX
  5
607
  8
____1
 62
     7
 10
18174.369960328899
 20
10627.6981833836
 30
0.0
 70
    32
  0
SEQEND
  5
608
  8
____1
 62
     7
  0
ARC
  5
609
  8
____1
  6
DASHED2
 62
     7
 10
18174.369960328899
 20
10614.1981833836
 30
0.0
 40
1.5
 50
90.0
 51
180.0
  0
LINE
  5
60A
  8
____1
  6
DASHED2
 62
     7
 10
18021.869960328899
 20
10606.6981833836
 30
0.0
 11
18031.455223095571
 21
10606.6981833836
 31
0.0
  0
ARC
  5
60B
  8
____1
  6
DASHED2
 62
     7
 10
18031.455223619148
 20
10606.998183383599
 30
0.0
 40
0.2999999999997293
 50
-90.00009999670975
 51
0.0
  0
LINE
  5
60C
  8
____1
  6
DASHED2
 62
     7
 10
18031.755223619151
 20
10606.998183383599
 30
0.0
 11
18031.755223619151
 21
10607.4481833836
 31
0.0
  0
ARC
  5
60D
  8
____1
  6
DASHED2
 62
     7
 10
18033.005223619151
 20
10607.4481833836
 30
0.0
 40
1.25
 50
0.0
 51
180.0
  0
ARC
  5
60E
  8
____1
  6
DASHED2
 62
     7
 10
18021.869960328899
 20
10611.698183383591
 30
0.0
 40
5.0
 50
180.0
 51
-90.0
  0
ARC
  5
60F
  8
____1
  6
DASHED2
 62
     7
 10
18200.73469703865
 20
10635.9481833836
 30
0.0
 40
1.25
 50
180.0
 51
0.0
  0
LINE
  5
610
  8
____1
  6
DASHED2
 62
     7
 10
18034.255223619151
 20
10635.13272690596
 30
0.0
 11
18058.940746057429
 21
10627.760902927599
 31
0.0
  0
LINE
  5
611
  8
____1
  6
DASHED2
 62
     7
 10
18031.755223619151
 20
10636.398183383601
 30
0.0
 11
18031.755223619151
 21
10635.9481833836
 31
0.0
  0
LINE
  5
612
  8
____1
  6
DASHED2
 62
     7
 10
18034.255223619151
 20
10636.29550089919
 30
0.0
 11
18034.255223619151
 21
10607.100865217801
 31
0.0
  0
ARC
  5
613
  8
____1
  6
DASHED2
 62
     7
 10
18033.005223619151
 20
10635.9481833836
 30
0.0
 40
1.25
 50
180.0
 51
0.0
  0
LINE
  5
614
  8
____1
  6
DASHED2
 62
     7
 10
18034.641067167031
 20
10636.582959137269
 30
0.0
 11
18058.628183660509
 21
10629.419699741789
 31
0.0
  0
ARC
  5
615
  8
____1
  6
DASHED2
 62
     7
 10
18021.869960328899
 20
10631.698183383591
 30
0.0
 40
5.0
 50
90.0
 51
180.0
  0
LINE
  5
616
  8
____1
  6
DASHED2
 62
     7
 10
18058.628183660509
 20
10613.976667025399
 30
0.0
 11
18034.641067171058
 21
10606.813407631131
 31
0.0
  0
LINE
  5
617
  8
____1
  6
DASHED2
 62
     7
 10
18199.48469703865
 20
10636.295503253201
 30
0.0
 11
18199.48469703865
 21
10607.10086341076
 31
0.0
  0
ENDBLK
  5
618
  8
0
  0
BLOCK
  8
0
  2
C39
 70
     0
 10
0.0
 20
0.0
 30
0.0
  3
C39
  1

  0
INSERT
  5
623
  8
____1
  6
CONTINUOUS
 62
     7
  2
C40
 10
0.0
 20
0.0
 30
0.0
  0
POLYLINE
  5
624
  8
____1
  6
DASHED2
 62
     7
 66
     1
 10
0.0
 20
0.0
 30
0.0
 70
     8
  0
VERTEX
  5
625
  8
____1
 62
     7
 10
18386.694960328899
 20
10949.197260476591
 30
0.0
 70
    32
  0
VERTEX
  5
626
  8
____1
 62
     7
 10
18386.27747862467
 20
10947.936475252071
 30
0.0
 70
    32
  0
VERTEX
  5
627
  8
____1
 62
     7
 10
18385.94448960213
 20
10946.680004117359
 30
0.0
 70
    32
  0
VERTEX
  5
628
  8
____1
 62
     7
 10
18385.780485942982
 20
10945.43216116226
 30
0.0
 70
    32
  0
VERTEX
  5
629
  8
____1
 62
     7
 10
18385.788257587701
 20
10944.812823405129
 30
0.0
 70
    32
  0
VERTEX
  5
62A
  8
____1
 62
     7
 10
18385.869960328899
 20
10944.197260476591
 30
0.0
 70
    32
  0
VERTEX
  5
62B
  8
____1
 62
     7
 10
18386.038057581489
 20
10943.562073060461
 30
0.0
 70
    32
  0
VERTEX
  5
62C
  8
____1
 62
     7
 10
18386.2705955776
 20
10942.93096061078
 30
0.0
 70
    32
  0
VERTEX
  5
62D
  8
____1
 62
     7
 10
18386.821913883301
 20
10941.67863205852
 30
0.0
 70
    32
  0
VERTEX
  5
62E
  8
____1
 62
     7
 10
18387.309755411799
 20
10940.4356177153
 30
0.0
 70
    32
  0
VERTEX
  5
62F
  8
____1
 62
     7
 10
18387.462947436408
 20
10939.81614802691
 30
0.0
 70
    32
  0
VERTEX
  5
630
  8
____1
 62
     7
 10
18387.5199603289
 20
10939.197260476591
 30
0.0
 70
    32
  0
VERTEX
  5
631
  8
____1
 62
     7
 10
18387.462947436408
 20
10938.578372926269
 30
0.0
 70
    32
  0
VERTEX
  5
632
  8
____1
 62
     7
 10
18387.309755411799
 20
10937.95890323789
 30
0.0
 70
    32
  0
VERTEX
  5
633
  8
____1
 62
     7
 10
18386.821913883301
 20
10936.71588889466
 30
0.0
 70
    32
  0
VERTEX
  5
634
  8
____1
 62
     7
 10
18386.2705955776
 20
10935.463560342399
 30
0.0
 70
    32
  0
VERTEX
  5
635
  8
____1
 62
     7
 10
18386.038057581482
 20
10934.832447892721
 30
0.0
 70
    32
  0
VERTEX
  5
636
  8
____1
 62
     7
 10
18385.869960328899
 20
10934.197260476591
 30
0.0
 70
    32
  0
VERTEX
  5
637
  8
____1
 62
     7
 10
18385.788257587701
 20
10933.58169754805
 30
0.0
 70
    32
  0
VERTEX
  5
638
  8
____1
 62
     7
 10
18385.780485942982
 20
10932.962359790919
 30
0.0
 70
    32
  0
VERTEX
  5
639
  8
____1
 62
     7
 10
18385.94448960213
 20
10931.714516835829
 30
0.0
 70
    32
  0
VERTEX
  5
63A
  8
____1
 62
     7
 10
18386.27747862467
 20
10930.458045701111
 30
0.0
 70
    32
  0
VERTEX
  5
63B
  8
____1
 62
     7
 10
18386.694960328899
 20
10929.197260476591
 30
0.0
 70
    32
  0
SEQEND
  5
63C
  8
____1
 62
     7
  0
POLYLINE
  5
63D
  8
____1
  6
DASHED2
 62
     7
 66
     1
 10
0.0
 20
0.0
 30
0.0
 70
     8
  0
VERTEX
  5
63E
  8
____1
 62
     7
 10
18387.044960328902
 20
10949.197260476591
 30
0.0
 70
    32
  0
VERTEX
  5
63F
  8
____1
 62
     7
 10
18386.627478624669
 20
10947.936475252071
 30
0.0
 70
    32
  0
VERTEX
  5
640
  8
____1
 62
     7
 10
18386.294489602129
 20
10946.680004117359
 30
0.0
 70
    32
  0
VERTEX
  5
641
  8
____1
 62
     7
 10
18386.13048594298
 20
10945.43216116226
 30
0.0
 70
    32
  0
VERTEX
  5
642
  8
____1
 62
     7
 10
18386.1382575877
 20
10944.812823405129
 30
0.0
 70
    32
  0
VERTEX
  5
643
  8
____1
 62
     7
 10
18386.21996032889
 20
10944.197260476591
 30
0.0
 70
    32
  0
VERTEX
  5
644
  8
____1
 62
     7
 10
18386.388057581491
 20
10943.562073060461
 30
0.0
 70
    32
  0
VERTEX
  5
645
  8
____1
 62
     7
 10
18386.620595577599
 20
10942.93096061078
 30
0.0
 70
    32
  0
VERTEX
  5
646
  8
____1
 62
     7
 10
18387.1719138833
 20
10941.67863205852
 30
0.0
 70
    32
  0
VERTEX
  5
647
  8
____1
 62
     7
 10
18387.659755411791
 20
10940.4356177153
 30
0.0
 70
    32
  0
VERTEX
  5
648
  8
____1
 62
     7
 10
18387.81294743641
 20
10939.81614802691
 30
0.0
 70
    32
  0
VERTEX
  5
649
  8
____1
 62
     7
 10
18387.869960328899
 20
10939.197260476591
 30
0.0
 70
    32
  0
VERTEX
  5
64A
  8
____1
 62
     7
 10
18387.81294743641
 20
10938.578372926269
 30
0.0
 70
    32
  0
VERTEX
  5
64B
  8
____1
 62
     7
 10
18387.659755411791
 20
10937.95890323789
 30
0.0
 70
    32
  0
VERTEX
  5
64C
  8
____1
 62
     7
 10
18387.1719138833
 20
10936.71588889466
 30
0.0
 70
    32
  0
VERTEX
  5
64D
  8
____1
 62
     7
 10
18386.620595577599
 20
10935.463560342399
 30
0.0
 70
    32
  0
VERTEX
  5
64E
  8
____1
 62
     7
 10
18386.388057581491
 20
10934.832447892721
 30
0.0
 70
    32
  0
VERTEX
  5
64F
  8
____1
 62
     7
 10
18386.21996032889
 20
10934.197260476591
 30
0.0
 70
    32
  0
VERTEX
  5
650
  8
____1
 62
     7
 10
18386.1382575877
 20
10933.58169754805
 30
0.0
 70
    32
  0
VERTEX
  5
651
  8
____1
 62
     7
 10
18386.13048594298
 20
10932.962359790919
 30
0.0
 70
    32
  0
VERTEX
  5
652
  8
____1
 62
     7
 10
18386.294489602129
 20
10931.714516835829
 30
0.0
 70
    32
  0
VERTEX
  5
653
  8
____1
 62
     7
 10
18386.627478624669
 20
10930.458045701111
 30
0.0
 70
    32
  0
VERTEX
  5
654
  8
____1
 62
     7
 10
18387.044960328902
 20
10929.197260476591
 30
0.0
 70
    32
  0
SEQEND
  5
655
  8
____1
 62
     7
  0
POLYLINE
  5
656
  8
____1
  6
DASHED2
 62
     7
 66
     1
 10
0.0
 20
0.0
 30
0.0
 70
     8
  0
VERTEX
  5
657
  8
____1
 62
     7
 10
18385.869960328899
 20
10944.197260476591
 30
0.0
 70
    32
  0
SEQEND
  5
658
  8
____1
 62
     7
  0
LINE
  5
659
  8
____1
  6
DASHED2
 62
     7
 10
18386.694960328899
 20
10949.197260476591
 30
0.0
 11
18387.044960328902
 21
10949.197260476591
 31
0.0
  0
LINE
  5
65A
  8
____1
  6
DASHED2
 62
     7
 10
18386.694960328899
 20
10929.197260476591
 30
0.0
 11
18387.044960328902
 21
10929.197260476591
 31
0.0
  0
ENDBLK
  5
65B
  8
0
  0
BLOCK
  8
0
  2
C40
 70
     0
 10
0.0
 20
0.0
 30
0.0
  3
C40
  1

  0
LINE
  5
61E
  8
____1
  6
DASHED2
 62
     7
 10
18387.869960328899
 20
10933.197260476591
 30
0.0
 11
18387.869960328899
 21
10945.197260476591
 31
0.0
  0
LINE
  5
61F
  8
____1
  6
DASHED2
 62
     7
 10
18387.869960328899
 20
10933.197260476591
 30
0.0
 11
18388.469960328901
 21
10933.197260476591
 31
0.0
  0
LINE
  5
620
  8
____1
  6
DASHED2
 62
     7
 10
18388.469960328901
 20
10933.197260476591
 30
0.0
 11
18388.469960328901
 21
10945.197260476591
 31
0.0
  0
LINE
  5
621
  8
____1
  6
DASHED2
 62
     7
 10
18387.869960328899
 20
10945.197260476591
 30
0.0
 11
18388.469960328901
 21
10945.197260476591
 31
0.0
  0
ENDBLK
  5
622
  8
0
  0
BLOCK
  8
0
  2
C41
 70
     0
 10
0.0
 20
0.0
 30
0.0
  3
C41
  1

  0
INSERT
  5
666
  8
____1
  6
CONTINUOUS
 62
     7
  2
C42
 10
0.0
 20
0.0
 30
0.0
  0
POLYLINE
  5
667
  8
____1
  6
DASHED2
 62
     7
 66
     1
 10
0.0
 20
0.0
 30
0.0
 70
     8
  0
VERTEX
  5
668
  8
____1
 62
     7
 10
18393.444960328899
 20
10949.197260476591
 30
0.0
 70
    32
  0
VERTEX
  5
669
  8
____1
 62
     7
 10
18393.862442033129
 20
10947.936475252071
 30
0.0
 70
    32
  0
VERTEX
  5
66A
  8
____1
 62
     7
 10
18394.195431055668
 20
10946.680004117359
 30
0.0
 70
    32
  0
VERTEX
  5
66B
  8
____1
 62
     7
 10
18394.359434714821
 20
10945.43216116226
 30
0.0
 70
    32
  0
VERTEX
  5
66C
  8
____1
 62
     7
 10
18394.351663070101
 20
10944.812823405129
 30
0.0
 70
    32
  0
VERTEX
  5
66D
  8
____1
 62
     7
 10
18394.2699603289
 20
10944.197260476591
 30
0.0
 70
    32
  0
VERTEX
  5
66E
  8
____1
 62
     7
 10
18394.10186307631
 20
10943.562073060461
 30
0.0
 70
    32
  0
VERTEX
  5
66F
  8
____1
 62
     7
 10
18393.869325080199
 20
10942.93096061078
 30
0.0
 70
    32
  0
VERTEX
  5
670
  8
____1
 62
     7
 10
18393.318006774502
 20
10941.67863205852
 30
0.0
 70
    32
  0
VERTEX
  5
671
  8
____1
 62
     7
 10
18392.830165246
 20
10940.4356177153
 30
0.0
 70
    32
  0
VERTEX
  5
672
  8
____1
 62
     7
 10
18392.67697322138
 20
10939.81614802691
 30
0.0
 70
    32
  0
VERTEX
  5
673
  8
____1
 62
     7
 10
18392.619960328899
 20
10939.197260476591
 30
0.0
 70
    32
  0
VERTEX
  5
674
  8
____1
 62
     7
 10
18392.67697322138
 20
10938.578372926269
 30
0.0
 70
    32
  0
VERTEX
  5
675
  8
____1
 62
     7
 10
18392.830165246
 20
10937.95890323789
 30
0.0
 70
    32
  0
VERTEX
  5
676
  8
____1
 62
     7
 10
18393.318006774502
 20
10936.71588889466
 30
0.0
 70
    32
  0
VERTEX
  5
677
  8
____1
 62
     7
 10
18393.869325080199
 20
10935.463560342399
 30
0.0
 70
    32
  0
VERTEX
  5
678
  8
____1
 62
     7
 10
18394.10186307631
 20
10934.832447892721
 30
0.0
 70
    32
  0
VERTEX
  5
679
  8
____1
 62
     7
 10
18394.2699603289
 20
10934.197260476591
 30
0.0
 70
    32
  0
VERTEX
  5
67A
  8
____1
 62
     7
 10
18394.351663070101
 20
10933.58169754805
 30
0.0
 70
    32
  0
VERTEX
  5
67B
  8
____1
 62
     7
 10
18394.359434714821
 20
10932.962359790919
 30
0.0
 70
    32
  0
VERTEX
  5
67C
  8
____1
 62
     7
 10
18394.195431055668
 20
10931.714516835829
 30
0.0
 70
    32
  0
VERTEX
  5
67D
  8
____1
 62
     7
 10
18393.862442033129
 20
10930.458045701111
 30
0.0
 70
    32
  0
VERTEX
  5
67E
  8
____1
 62
     7
 10
18393.444960328899
 20
10929.197260476591
 30
0.0
 70
    32
  0
SEQEND
  5
67F
  8
____1
 62
     7
  0
POLYLINE
  5
680
  8
____1
  6
DASHED2
 62
     7
 66
     1
 10
0.0
 20
0.0
 30
0.0
 70
     8
  0
VERTEX
  5
681
  8
____1
 62
     7
 10
18393.094960328901
 20
10949.197260476591
 30
0.0
 70
    32
  0
VERTEX
  5
682
  8
____1
 62
     7
 10
18393.51244203313
 20
10947.936475252071
 30
0.0
 70
    32
  0
VERTEX
  5
683
  8
____1
 62
     7
 10
18393.845431055659
 20
10946.680004117359
 30
0.0
 70
    32
  0
VERTEX
  5
684
  8
____1
 62
     7
 10
18394.009434714819
 20
10945.43216116226
 30
0.0
 70
    32
  0
VERTEX
  5
685
  8
____1
 62
     7
 10
18394.001663070099
 20
10944.812823405129
 30
0.0
 70
    32
  0
VERTEX
  5
686
  8
____1
 62
     7
 10
18393.919960328902
 20
10944.197260476591
 30
0.0
 70
    32
  0
VERTEX
  5
687
  8
____1
 62
     7
 10
18393.751863076312
 20
10943.562073060461
 30
0.0
 70
    32
  0
VERTEX
  5
688
  8
____1
 62
     7
 10
18393.5193250802
 20
10942.93096061078
 30
0.0
 70
    32
  0
VERTEX
  5
689
  8
____1
 62
     7
 10
18392.968006774499
 20
10941.67863205852
 30
0.0
 70
    32
  0
VERTEX
  5
68A
  8
____1
 62
     7
 10
18392.480165246001
 20
10940.4356177153
 30
0.0
 70
    32
  0
VERTEX
  5
68B
  8
____1
 62
     7
 10
18392.326973221388
 20
10939.81614802691
 30
0.0
 70
    32
  0
VERTEX
  5
68C
  8
____1
 62
     7
 10
18392.2699603289
 20
10939.197260476591
 30
0.0
 70
    32
  0
VERTEX
  5
68D
  8
____1
 62
     7
 10
18392.326973221388
 20
10938.578372926269
 30
0.0
 70
    32
  0
VERTEX
  5
68E
  8
____1
 62
     7
 10
18392.480165246001
 20
10937.95890323789
 30
0.0
 70
    32
  0
VERTEX
  5
68F
  8
____1
 62
     7
 10
18392.968006774499
 20
10936.71588889466
 30
0.0
 70
    32
  0
VERTEX
  5
690
  8
____1
 62
     7
 10
18393.5193250802
 20
10935.463560342399
 30
0.0
 70
    32
  0
VERTEX
  5
691
  8
____1
 62
     7
 10
18393.751863076312
 20
10934.832447892721
 30
0.0
 70
    32
  0
VERTEX
  5
692
  8
____1
 62
     7
 10
18393.919960328902
 20
10934.197260476591
 30
0.0
 70
    32
  0
VERTEX
  5
693
  8
____1
 62
     7
 10
18394.001663070099
 20
10933.58169754805
 30
0.0
 70
    32
  0
VERTEX
  5
694
  8
____1
 62
     7
 10
18394.009434714819
 20
10932.962359790919
 30
0.0
 70
    32
  0
VERTEX
  5
695
  8
____1
 62
     7
 10
18393.845431055659
 20
10931.714516835829
 30
0.0
 70
    32
  0
VERTEX
  5
696
  8
____1
 62
     7
 10
18393.51244203313
 20
10930.458045701111
 30
0.0
 70
    32
  0
VERTEX
  5
697
  8
____1
 62
     7
 10
18393.094960328901
 20
10929.197260476591
 30
0.0
 70
    32
  0
SEQEND
  5
698
  8
____1
 62
     7
  0
POLYLINE
  5
699
  8
____1
  6
DASHED2
 62
     7
 66
     1
 10
0.0
 20
0.0
 30
0.0
 70
     8
  0
VERTEX
  5
69A
  8
____1
 62
     7
 10
18394.2699603289
 20
10944.197260476591
 30
0.0
 70
    32
  0
SEQEND
  5
69B
  8
____1
 62
     7
  0
LINE
  5
69C
  8
____1
  6
DASHED2
 62
     7
 10
18393.444960328899
 20
10949.197260476591
 30
0.0
 11
18393.094960328901
 21
10949.197260476591
 31
0.0
  0
LINE
  5
69D
  8
____1
  6
DASHED2
 62
     7
 10
18393.444960328899
 20
10929.197260476591
 30
0.0
 11
18393.094960328901
 21
10929.197260476591
 31
0.0
  0
ENDBLK
  5
69E
  8
0
  0
BLOCK
  8
0
  2
C42
 70
     0
 10
0.0
 20
0.0
 30
0.0
  3
C42
  1

  0
LINE
  5
661
  8
____1
  6
DASHED2
 62
     7
 10
18392.2699603289
 20
10933.197260476591
 30
0.0
 11
18392.2699603289
 21
10945.197260476591
 31
0.0
  0
LINE
  5
662
  8
____1
  6
DASHED2
 62
     7
 10
18392.2699603289
 20
10933.197260476591
 30
0.0
 11
18391.669960328902
 21
10933.197260476591
 31
0.0
  0
LINE
  5
663
  8
____1
  6
DASHED2
 62
     7
 10
18391.669960328902
 20
10933.197260476591
 30
0.0
 11
18391.669960328902
 21
10945.197260476591
 31
0.0
  0
LINE
  5
664
  8
____1
  6
DASHED2
 62
     7
 10
18392.2699603289
 20
10945.197260476591
 30
0.0
 11
18391.669960328902
 21
10945.197260476591
 31
0.0
  0
ENDBLK
  5
665
  8
0
  0
BLOCK
  8
0
  2
C43
 70
     0
 10
0.0
 20
0.0
 30
0.0
  3
C43
  1

  0
LINE
  5
6A2
  8
____1
  6
DASHED2
 62
     7
 10
18380.869795248491
 20
10934.43423141375
 30
0.0
 11
18374.716483084969
 21
10934.43423141375
 31
0.0
  0
LINE
  5
6A3
  8
____1
  6
DASHED2
 62
     7
 10
18374.716483084969
 20
10943.802289539421
 30
0.0
 11
18380.869795248491
 21
10943.802289539421
 31
0.0
  0
LINE
  5
6A4
  8
____1
  6
DASHED2
 62
     7
 10
18380.869795248491
 20
10929.74326047658
 30
0.0
 11
18374.716483084969
 21
10929.74326047658
 31
0.0
  0
LINE
  5
6A5
  8
____1
  6
DASHED2
 62
     7
 10
18373.99479524848
 20
10930.99326047658
 30
0.0
 11
18374.716483084969
 21
10929.74326047658
 31
0.0
  0
LINE
  5
6A6
  8
____1
  6
DASHED2
 62
     7
 10
18373.99479524848
 20
10947.24326047658
 30
0.0
 11
18373.99479524848
 21
10930.99326047658
 31
0.0
  0
LINE
  5
6A7
  8
____1
  6
DASHED2
 62
     7
 10
18373.99479524848
 20
10947.24326047658
 30
0.0
 11
18374.716483084969
 21
10948.493260476591
 31
0.0
  0
LINE
  5
6A8
  8
____1
  6
DASHED2
 62
     7
 10
18374.716483084969
 20
10948.493260476591
 30
0.0
 11
18380.869795248491
 21
10948.493260476591
 31
0.0
  0
LINE
  5
6A9
  8
____1
  6
DASHED2
 62
     7
 10
18380.869795248491
 20
10948.493260476591
 30
0.0
 11
18380.869795248491
 21
10929.74326047658
 31
0.0
  0
POLYLINE
  5
6AA
  8
____1
  6
DASHED2
 62
     7
 66
     1
 10
0.0
 20
0.0
 30
0.0
 70
     8
  0
VERTEX
  5
6AB
  8
____1
 62
     7
 10
18374.716483084969
 20
10934.43423141375
 30
0.0
 70
    32
  0
VERTEX
  5
6AC
  8
____1
 62
     7
 10
18374.32657276855
 20
10932.66264582015
 30
0.0
 70
    32
  0
VERTEX
  5
6AD
  8
____1
 62
     7
 10
18374.168223278539
 20
10931.77685302335
 30
0.0
 70
    32
  0
VERTEX
  5
6AE
  8
____1
 62
     7
 10
18374.053800590362
 20
10930.89106022655
 30
0.0
 70
    32
  0
SEQEND
  5
6AF
  8
____1
 62
     7
  0
POLYLINE
  5
6B0
  8
____1
  6
DASHED2
 62
     7
 66
     1
 10
0.0
 20
0.0
 30
0.0
 70
     8
  0
VERTEX
  5
6B1
  8
____1
 62
     7
 10
18374.716483084969
 20
10943.802289539421
 30
0.0
 70
    32
  0
VERTEX
  5
6B2
  8
____1
 62
     7
 10
18374.32657276855
 20
10945.573875133019
 30
0.0
 70
    32
  0
VERTEX
  5
6B3
  8
____1
 62
     7
 10
18374.168223278539
 20
10946.459667929819
 30
0.0
 70
    32
  0
VERTEX
  5
6B4
  8
____1
 62
     7
 10
18374.053800590362
 20
10947.345460726619
 30
0.0
 70
    32
  0
SEQEND
  5
6B5
  8
____1
 62
     7
  0
POLYLINE
  5
6B6
  8
____1
  6
DASHED2
 62
     7
 66
     1
 10
0.0
 20
0.0
 30
0.0
 70
     8
  0
VERTEX
  5
6B7
  8
____1
 62
     7
 10
18374.716483084969
 20
10943.802289539421
 30
0.0
 70
    32
  0
VERTEX
  5
6B8
  8
____1
 62
     7
 10
18374.45148833251
 20
10942.631282273711
 30
0.0
 70
    32
  0
VERTEX
  5
6B9
  8
____1
 62
     7
 10
18374.220322697391
 20
10941.46027500801
 30
0.0
 70
    32
  0
VERTEX
  5
6BA
  8
____1
 62
     7
 10
18374.056815296939
 20
10940.289267742301
 30
0.0
 70
    32
  0
VERTEX
  5
6BB
  8
____1
 62
     7
 10
18373.99479524848
 20
10939.118260476591
 30
0.0
 70
    32
  0
VERTEX
  5
6BC
  8
____1
 62
     7
 10
18374.056815296932
 20
10937.947253210879
 30
0.0
 70
    32
  0
VERTEX
  5
6BD
  8
____1
 62
     7
 10
18374.22032269738
 20
10936.77624594517
 30
0.0
 70
    32
  0
VERTEX
  5
6BE
  8
____1
 62
     7
 10
18374.45148833251
 20
10935.60523867946
 30
0.0
 70
    32
  0
VERTEX
  5
6BF
  8
____1
 62
     7
 10
18374.716483084969
 20
10934.43423141375
 30
0.0
 70
    32
  0
SEQEND
  5
6C0
  8
____1
 62
     7
  0
ENDBLK
  5
6C1
  8
0
  0
BLOCK
  8
0
  2
C44
 70
     0
 10
0.0
 20
0.0
 30
0.0
  3
C44
  1

  0
LINE
  5
6C5
  8
____1
  6
DASHED2
 62
     7
 10
18374.355960508881
 20
10943.447260476591
 30
0.0
 11
18375.105960508881
 21
10944.197260476591
 31
0.0
  0
LINE
  5
6C6
  8
____1
  6
DASHED2
 62
     7
 10
18375.105960508881
 20
10934.197260476591
 30
0.0
 11
18374.355960508881
 21
10934.947260476591
 31
0.0
  0
LINE
  5
6C7
  8
____1
  6
DASHED2
 62
     7
 10
18375.105960508881
 20
10934.197260476591
 30
0.0
 11
18375.105960508881
 21
10944.197260476591
 31
0.0
  0
LINE
  5
6C8
  8
____1
  6
DASHED2
 62
     7
 10
18374.355960508881
 20
10934.947260476591
 30
0.0
 11
18374.355960508881
 21
10943.447260476591
 31
0.0
  0
LINE
  5
6C9
  8
____1
  6
DASHED2
 62
     7
 10
18394.355960508881
 20
10934.197260476591
 30
0.0
 11
18375.105960508881
 21
10934.197260476591
 31
0.0
  0
LINE
  5
6CA
  8
____1
  6
DASHED2
 62
     7
 10
18394.355960508881
 20
10934.947260476591
 30
0.0
 11
18374.355960508881
 21
10934.947260476591
 31
0.0
  0
LINE
  5
6CB
  8
____1
  6
DASHED2
 62
     7
 10
18394.355960508881
 20
10943.447260476591
 30
0.0
 11
18374.355960508881
 21
10943.447260476591
 31
0.0
  0
LINE
  5
6CC
  8
____1
  6
DASHED2
 62
     7
 10
18394.355960508881
 20
10944.197260476591
 30
0.0
 11
18375.105960508881
 21
10944.197260476591
 31
0.0
  0
POLYLINE
  5
6CD
  8
____1
  6
DASHED2
 62
     7
 66
     1
 10
0.0
 20
0.0
 30
0.0
 70
     8
  0
VERTEX
  5
6CE
  8
____1
 62
     7
 10
18400.509272672389
 20
10934.513231413761
 30
0.0
 70
    32
  0
VERTEX
  5
6CF
  8
____1
 62
     7
 10
18400.774267424851
 20
10935.684238679471
 30
0.0
 70
    32
  0
VERTEX
  5
6D0
  8
____1
 62
     7
 10
18401.005433059981
 20
10936.855245945169
 30
0.0
 70
    32
  0
VERTEX
  5
6D1
  8
____1
 62
     7
 10
18401.168940460429
 20
10938.026253210881
 30
0.0
 70
    32
  0
VERTEX
  5
6D2
  8
____1
 62
     7
 10
18401.230960508881
 20
10939.197260476591
 30
0.0
 70
    32
  0
VERTEX
  5
6D3
  8
____1
 62
     7
 10
18401.168940460429
 20
10940.3682677423
 30
0.0
 70
    32
  0
VERTEX
  5
6D4
  8
____1
 62
     7
 10
18401.005433059981
 20
10941.53927500801
 30
0.0
 70
    32
  0
VERTEX
  5
6D5
  8
____1
 62
     7
 10
18400.774267424851
 20
10942.710282273711
 30
0.0
 70
    32
  0
VERTEX
  5
6D6
  8
____1
 62
     7
 10
18400.509272672389
 20
10943.88128953942
 30
0.0
 70
    32
  0
SEQEND
  5
6D7
  8
____1
 62
     7
  0
POLYLINE
  5
6D8
  8
____1
  6
DASHED2
 62
     7
 66
     1
 10
0.0
 20
0.0
 30
0.0
 70
     8
  0
VERTEX
  5
6D9
  8
____1
 62
     7
 10
18400.509272672389
 20
10934.513231413761
 30
0.0
 70
    32
  0
VERTEX
  5
6DA
  8
____1
 62
     7
 10
18400.899182988811
 20
10932.74164582015
 30
0.0
 70
    32
  0
VERTEX
  5
6DB
  8
____1
 62
     7
 10
18401.057532478819
 20
10931.855853023349
 30
0.0
 70
    32
  0
VERTEX
  5
6DC
  8
____1
 62
     7
 10
18401.17195516701
 20
10930.970060226549
 30
0.0
 70
    32
  0
SEQEND
  5
6DD
  8
____1
 62
     7
  0
POLYLINE
  5
6DE
  8
____1
  6
DASHED2
 62
     7
 66
     1
 10
0.0
 20
0.0
 30
0.0
 70
     8
  0
VERTEX
  5
6DF
  8
____1
 62
     7
 10
18400.509272672389
 20
10943.88128953942
 30
0.0
 70
    32
  0
VERTEX
  5
6E0
  8
____1
 62
     7
 10
18400.899182988811
 20
10945.65287513303
 30
0.0
 70
    32
  0
VERTEX
  5
6E1
  8
____1
 62
     7
 10
18401.057532478819
 20
10946.53866792983
 30
0.0
 70
    32
  0
VERTEX
  5
6E2
  8
____1
 62
     7
 10
18401.17195516701
 20
10947.42446072663
 30
0.0
 70
    32
  0
SEQEND
  5
6E3
  8
____1
 62
     7
  0
LINE
  5
6E4
  8
____1
  6
DASHED2
 62
     7
 10
18394.355960508881
 20
10929.822260476591
 30
0.0
 11
18394.355960508881
 21
10948.572260476591
 31
0.0
  0
LINE
  5
6E5
  8
____1
  6
DASHED2
 62
     7
 10
18400.509272672389
 20
10929.822260476591
 30
0.0
 11
18394.355960508881
 21
10929.822260476591
 31
0.0
  0
LINE
  5
6E6
  8
____1
  6
DASHED2
 62
     7
 10
18401.230960508881
 20
10931.072260476591
 30
0.0
 11
18400.509272672389
 21
10929.822260476591
 31
0.0
  0
LINE
  5
6E7
  8
____1
  6
DASHED2
 62
     7
 10
18401.230960508881
 20
10931.072260476591
 30
0.0
 11
18401.230960508881
 21
10947.322260476591
 31
0.0
  0
LINE
  5
6E8
  8
____1
  6
DASHED2
 62
     7
 10
18401.230960508881
 20
10947.322260476591
 30
0.0
 11
18400.509272672389
 21
10948.572260476591
 31
0.0
  0
LINE
  5
6E9
  8
____1
  6
DASHED2
 62
     7
 10
18394.355960508881
 20
10948.572260476591
 30
0.0
 11
18400.509272672389
 21
10948.572260476591
 31
0.0
  0
LINE
  5
6EA
  8
____1
  6
DASHED2
 62
     7
 10
18400.509272672389
 20
10934.513231413761
 30
0.0
 11
18394.355960508881
 21
10934.513231413761
 31
0.0
  0
LINE
  5
6EB
  8
____1
  6
DASHED2
 62
     7
 10
18394.355960508881
 20
10943.88128953942
 30
0.0
 11
18400.509272672389
 21
10943.88128953942
 31
0.0
  0
ENDBLK
  5
6EC
  8
0
  0
BLOCK
  8
0
  2
C45
 70
     0
 10
0.0
 20
0.0
 30
0.0
  3
C45
  1

  0
LINE
  5
6F0
  8
____1
  6
DASHED2
 62
     7
 10
18384.36979524848
 20
10958.118260476591
 30
0.0
 11
18350.869795248491
 21
10958.118260476591
 31
0.0
  0
LINE
  5
6F1
  8
____1
  6
DASHED2
 62
     7
 10
18381.869795248491
 20
10956.61826047658
 30
0.0
 11
18350.869795248491
 21
10956.61826047658
 31
0.0
  0
LINE
  5
6F2
  8
____1
  6
DASHED2
 62
     7
 10
18350.869795248491
 20
10920.118260476591
 30
0.0
 11
18384.36979524848
 21
10920.118260476591
 31
0.0
  0
LINE
  5
6F3
  8
____1
  6
DASHED2
 62
     7
 10
18350.869795248491
 20
10921.618260476591
 30
0.0
 11
18381.869795248491
 21
10921.618260476591
 31
0.0
  0
LINE
  5
6F4
  8
____1
  6
DASHED2
 62
     7
 10
18350.869795248491
 20
10958.118260476591
 30
0.0
 11
18350.869795248491
 21
10920.118260476591
 31
0.0
  0
LINE
  5
6F5
  8
____1
  6
DASHED2
 62
     7
 10
18380.869795248491
 20
10932.61826047658
 30
0.0
 11
18381.869795248491
 21
10932.61826047658
 31
0.0
  0
LINE
  5
6F6
  8
____1
  6
DASHED2
 62
     7
 10
18384.36979524848
 20
10956.61826047658
 30
0.0
 11
18384.36979524848
 21
10921.618260476591
 31
0.0
  0
LINE
  5
6F7
  8
____1
  6
DASHED2
 62
     7
 10
18380.869795248491
 20
10945.618260476591
 30
0.0
 11
18380.869795248491
 21
10932.61826047658
 31
0.0
  0
ARC
  5
6F8
  8
____1
  6
DASHED2
 62
     7
 10
18383.86979524848
 20
10946.11826047658
 30
0.0
 40
0.5
 50
-90.0
 51
0.0
  0
ARC
  5
6F9
  8
____1
  6
DASHED2
 62
     7
 10
18384.36979524848
 20
10932.61826047658
 30
0.0
 40
1.5
 50
0.0
 51
90.0
  0
LINE
  5
6FA
  8
____1
  6
DASHED2
 62
     7
 10
18380.869795248491
 20
10944.11826047658
 30
0.0
 11
18384.36979524848
 21
10944.11826047658
 31
0.0
  0
ARC
  5
6FB
  8
____1
  6
DASHED2
 62
     7
 10
18383.86979524848
 20
10932.118260476591
 30
0.0
 40
0.5
 50
0.0
 51
90.0
  0
LINE
  5
6FC
  8
____1
  6
DASHED2
 62
     7
 10
18380.869795248491
 20
10945.618260476591
 30
0.0
 11
18381.869795248491
 21
10945.618260476591
 31
0.0
  0
LINE
  5
6FD
  8
____1
  6
DASHED2
 62
     7
 10
18381.869795248491
 20
10945.618260476591
 30
0.0
 11
18383.86979524848
 21
10945.618260476591
 31
0.0
  0
LINE
  5
6FE
  8
____1
  6
DASHED2
 62
     7
 10
18381.869795248491
 20
10932.61826047658
 30
0.0
 11
18383.86979524848
 21
10932.61826047658
 31
0.0
  0
LINE
  5
6FF
  8
____1
  6
DASHED2
 62
     7
 10
18385.869795248491
 20
10956.61826047658
 30
0.0
 11
18385.869795248491
 21
10921.618260476591
 31
0.0
  0
LINE
  5
700
  8
____1
  6
DASHED2
 62
     7
 10
18381.869795248491
 20
10958.118260476591
 30
0.0
 11
18381.869795248491
 21
10920.118260476591
 31
0.0
  0
LINE
  5
701
  8
____1
  6
DASHED2
 62
     7
 10
18384.36979524848
 20
10956.61826047658
 30
0.0
 11
18381.869795248491
 21
10956.61826047658
 31
0.0
  0
ARC
  5
702
  8
____1
  6
DASHED2
 62
     7
 10
18384.36979524848
 20
10956.61826047658
 30
0.0
 40
1.5
 50
0.0
 51
90.0
  0
ARC
  5
703
  8
____1
  6
DASHED2
 62
     7
 10
18384.36979524848
 20
10945.618260476591
 30
0.0
 40
1.5
 50
-90.0
 51
0.0
  0
LINE
  5
704
  8
____1
  6
DASHED2
 62
     7
 10
18380.869795248491
 20
10934.118260476591
 30
0.0
 11
18384.36979524848
 21
10934.118260476591
 31
0.0
  0
LINE
  5
705
  8
____1
  6
DASHED2
 62
     7
 10
18381.869795248491
 20
10921.618260476591
 30
0.0
 11
18384.36979524848
 21
10921.618260476591
 31
0.0
  0
ARC
  5
706
  8
____1
  6
DASHED2
 62
     7
 10
18384.36979524848
 20
10921.618260476591
 30
0.0
 40
1.5
 50
-90.0
 51
0.0
  0
ENDBLK
  5
707
  8
0
  0
BLOCK
  8
0
  2
C46
 70
     0
 10
0.0
 20
0.0
 30
0.0
  3
C46
  1

  0
LINE
  5
70B
  8
____1
  6
DASHED2
 62
     7
 10
17849.370125409321
 20
10920.118260476591
 30
0.0
 11
17882.870125409321
 21
10920.118260476591
 31
0.0
  0
LINE
  5
70C
  8
____1
  6
DASHED2
 62
     7
 10
17851.870125409321
 20
10921.618260476591
 30
0.0
 11
17882.870125409321
 21
10921.618260476591
 31
0.0
  0
LINE
  5
70D
  8
____1
  6
DASHED2
 62
     7
 10
17882.870125409321
 20
10958.118260476591
 30
0.0
 11
17849.370125409321
 21
10958.118260476591
 31
0.0
  0
LINE
  5
70E
  8
____1
  6
DASHED2
 62
     7
 10
17882.870125409321
 20
10956.61826047658
 30
0.0
 11
17851.870125409321
 21
10956.61826047658
 31
0.0
  0
LINE
  5
70F
  8
____1
  6
DASHED2
 62
     7
 10
17882.870125409321
 20
10920.118260476591
 30
0.0
 11
17882.870125409321
 21
10958.118260476591
 31
0.0
  0
LINE
  5
710
  8
____1
  6
DASHED2
 62
     7
 10
17852.870125409321
 20
10945.618260476591
 30
0.0
 11
17851.870125409321
 21
10945.618260476591
 31
0.0
  0
LINE
  5
711
  8
____1
  6
DASHED2
 62
     7
 10
17849.370125409321
 20
10921.618260476591
 30
0.0
 11
17849.370125409321
 21
10956.61826047658
 31
0.0
  0
LINE
  5
712
  8
____1
  6
DASHED2
 62
     7
 10
17852.870125409321
 20
10932.61826047658
 30
0.0
 11
17852.870125409321
 21
10945.618260476591
 31
0.0
  0
ARC
  5
713
  8
____1
  6
DASHED2
 62
     7
 10
17849.870125409321
 20
10932.118260476591
 30
0.0
 40
0.5
 50
90.0
 51
180.0
  0
ARC
  5
714
  8
____1
  6
DASHED2
 62
     7
 10
17849.370125409321
 20
10945.618260476591
 30
0.0
 40
1.5
 50
180.0
 51
-90.0
  0
LINE
  5
715
  8
____1
  6
DASHED2
 62
     7
 10
17852.870125409321
 20
10934.118260476591
 30
0.0
 11
17849.370125409321
 21
10934.118260476591
 31
0.0
  0
ARC
  5
716
  8
____1
  6
DASHED2
 62
     7
 10
17849.870125409321
 20
10946.11826047658
 30
0.0
 40
0.5
 50
180.0
 51
-90.0
  0
LINE
  5
717
  8
____1
  6
DASHED2
 62
     7
 10
17852.870125409321
 20
10932.61826047658
 30
0.0
 11
17851.870125409321
 21
10932.61826047658
 31
0.0
  0
LINE
  5
718
  8
____1
  6
DASHED2
 62
     7
 10
17851.870125409321
 20
10932.61826047658
 30
0.0
 11
17849.870125409321
 21
10932.61826047658
 31
0.0
  0
LINE
  5
719
  8
____1
  6
DASHED2
 62
     7
 10
17851.870125409321
 20
10945.618260476591
 30
0.0
 11
17849.870125409321
 21
10945.618260476591
 31
0.0
  0
LINE
  5
71A
  8
____1
  6
DASHED2
 62
     7
 10
17847.87012540931
 20
10921.618260476591
 30
0.0
 11
17847.87012540931
 21
10956.61826047658
 31
0.0
  0
LINE
  5
71B
  8
____1
  6
DASHED2
 62
     7
 10
17851.870125409321
 20
10920.118260476591
 30
0.0
 11
17851.870125409321
 21
10958.118260476591
 31
0.0
  0
LINE
  5
71C
  8
____1
  6
DASHED2
 62
     7
 10
17849.370125409321
 20
10921.618260476591
 30
0.0
 11
17851.870125409321
 21
10921.618260476591
 31
0.0
  0
ARC
  5
71D
  8
____1
  6
DASHED2
 62
     7
 10
17849.370125409321
 20
10921.618260476591
 30
0.0
 40
1.5
 50
180.0
 51
-90.0
  0
ARC
  5
71E
  8
____1
  6
DASHED2
 62
     7
 10
17849.370125409321
 20
10932.61826047658
 30
0.0
 40
1.5
 50
90.0
 51
180.0
  0
LINE
  5
71F
  8
____1
  6
DASHED2
 62
     7
 10
17852.870125409321
 20
10944.11826047658
 30
0.0
 11
17849.370125409321
 21
10944.11826047658
 31
0.0
  0
LINE
  5
720
  8
____1
  6
DASHED2
 62
     7
 10
17851.870125409321
 20
10956.61826047658
 30
0.0
 11
17849.370125409321
 21
10956.61826047658
 31
0.0
  0
ARC
  5
721
  8
____1
  6
DASHED2
 62
     7
 10
17849.370125409321
 20
10956.61826047658
 30
0.0
 40
1.5
 50
90.0
 51
180.0
  0
ENDBLK
  5
722
  8
0
  0
BLOCK
  8
0
  2
C47
 70
     0
 10
0.0
 20
0.0
 30
0.0
  3
C47
  1

  0
LINE
  5
726
  8
____1
  6
DASHED2
 62
     7
 10
17852.870125409321
 20
10934.43423141375
 30
0.0
 11
17859.023437572829
 21
10934.43423141375
 31
0.0
  0
LINE
  5
727
  8
____1
  6
DASHED2
 62
     7
 10
17859.023437572829
 20
10943.802289539421
 30
0.0
 11
17852.870125409321
 21
10943.802289539421
 31
0.0
  0
LINE
  5
728
  8
____1
  6
DASHED2
 62
     7
 10
17852.870125409321
 20
10929.74326047658
 30
0.0
 11
17859.023437572829
 21
10929.74326047658
 31
0.0
  0
LINE
  5
729
  8
____1
  6
DASHED2
 62
     7
 10
17859.745125409321
 20
10930.99326047658
 30
0.0
 11
17859.023437572829
 21
10929.74326047658
 31
0.0
  0
LINE
  5
72A
  8
____1
  6
DASHED2
 62
     7
 10
17859.745125409321
 20
10947.24326047658
 30
0.0
 11
17859.745125409321
 21
10930.99326047658
 31
0.0
  0
LINE
  5
72B
  8
____1
  6
DASHED2
 62
     7
 10
17859.745125409321
 20
10947.24326047658
 30
0.0
 11
17859.023437572829
 21
10948.493260476591
 31
0.0
  0
LINE
  5
72C
  8
____1
  6
DASHED2
 62
     7
 10
17859.023437572829
 20
10948.493260476591
 30
0.0
 11
17852.870125409321
 21
10948.493260476591
 31
0.0
  0
LINE
  5
72D
  8
____1
  6
DASHED2
 62
     7
 10
17852.870125409321
 20
10948.493260476591
 30
0.0
 11
17852.870125409321
 21
10929.74326047658
 31
0.0
  0
POLYLINE
  5
72E
  8
____1
  6
DASHED2
 62
     7
 66
     1
 10
0.0
 20
0.0
 30
0.0
 70
     8
  0
VERTEX
  5
72F
  8
____1
 62
     7
 10
17859.023437572829
 20
10934.43423141375
 30
0.0
 70
    32
  0
VERTEX
  5
730
  8
____1
 62
     7
 10
17859.41334788924
 20
10932.66264582015
 30
0.0
 70
    32
  0
VERTEX
  5
731
  8
____1
 62
     7
 10
17859.571697379259
 20
10931.77685302335
 30
0.0
 70
    32
  0
VERTEX
  5
732
  8
____1
 62
     7
 10
17859.686120067439
 20
10930.89106022655
 30
0.0
 70
    32
  0
SEQEND
  5
733
  8
____1
 62
     7
  0
POLYLINE
  5
734
  8
____1
  6
DASHED2
 62
     7
 66
     1
 10
0.0
 20
0.0
 30
0.0
 70
     8
  0
VERTEX
  5
735
  8
____1
 62
     7
 10
17859.023437572829
 20
10943.802289539421
 30
0.0
 70
    32
  0
VERTEX
  5
736
  8
____1
 62
     7
 10
17859.41334788924
 20
10945.573875133019
 30
0.0
 70
    32
  0
VERTEX
  5
737
  8
____1
 62
     7
 10
17859.571697379259
 20
10946.459667929819
 30
0.0
 70
    32
  0
VERTEX
  5
738
  8
____1
 62
     7
 10
17859.686120067439
 20
10947.345460726619
 30
0.0
 70
    32
  0
SEQEND
  5
739
  8
____1
 62
     7
  0
POLYLINE
  5
73A
  8
____1
  6
DASHED2
 62
     7
 66
     1
 10
0.0
 20
0.0
 30
0.0
 70
     8
  0
VERTEX
  5
73B
  8
____1
 62
     7
 10
17859.023437572829
 20
10943.802289539421
 30
0.0
 70
    32
  0
VERTEX
  5
73C
  8
____1
 62
     7
 10
17859.288432325291
 20
10942.631282273711
 30
0.0
 70
    32
  0
VERTEX
  5
73D
  8
____1
 62
     7
 10
17859.51959796041
 20
10941.46027500801
 30
0.0
 70
    32
  0
VERTEX
  5
73E
  8
____1
 62
     7
 10
17859.683105360858
 20
10940.289267742301
 30
0.0
 70
    32
  0
VERTEX
  5
73F
  8
____1
 62
     7
 10
17859.745125409321
 20
10939.118260476591
 30
0.0
 70
    32
  0
VERTEX
  5
740
  8
____1
 62
     7
 10
17859.683105360869
 20
10937.947253210879
 30
0.0
 70
    32
  0
VERTEX
  5
741
  8
____1
 62
     7
 10
17859.519597960421
 20
10936.77624594517
 30
0.0
 70
    32
  0
VERTEX
  5
742
  8
____1
 62
     7
 10
17859.288432325291
 20
10935.60523867946
 30
0.0
 70
    32
  0
VERTEX
  5
743
  8
____1
 62
     7
 10
17859.023437572829
 20
10934.43423141375
 30
0.0
 70
    32
  0
SEQEND
  5
744
  8
____1
 62
     7
  0
ENDBLK
  5
745
  8
0
  0
BLOCK
  8
0
  2
C48
 70
     0
 10
0.0
 20
0.0
 30
0.0
  3
C48
  1

  0
LINE
  5
749
  8
____1
  6
DASHED2
 62
     7
 10
17859.38396014892
 20
10943.447260476591
 30
0.0
 11
17858.63396014892
 21
10944.197260476591
 31
0.0
  0
LINE
  5
74A
  8
____1
  6
DASHED2
 62
     7
 10
17858.63396014892
 20
10934.197260476591
 30
0.0
 11
17859.38396014892
 21
10934.947260476591
 31
0.0
  0
LINE
  5
74B
  8
____1
  6
DASHED2
 62
     7
 10
17858.63396014892
 20
10934.197260476591
 30
0.0
 11
17858.63396014892
 21
10944.197260476591
 31
0.0
  0
LINE
  5
74C
  8
____1
  6
DASHED2
 62
     7
 10
17859.38396014892
 20
10934.947260476591
 30
0.0
 11
17859.38396014892
 21
10943.447260476591
 31
0.0
  0
LINE
  5
74D
  8
____1
  6
DASHED2
 62
     7
 10
17839.38396014892
 20
10934.197260476591
 30
0.0
 11
17858.63396014892
 21
10934.197260476591
 31
0.0
  0
LINE
  5
74E
  8
____1
  6
DASHED2
 62
     7
 10
17839.38396014892
 20
10934.947260476591
 30
0.0
 11
17859.38396014892
 21
10934.947260476591
 31
0.0
  0
LINE
  5
74F
  8
____1
  6
DASHED2
 62
     7
 10
17839.38396014892
 20
10943.447260476591
 30
0.0
 11
17859.38396014892
 21
10943.447260476591
 31
0.0
  0
LINE
  5
750
  8
____1
  6
DASHED2
 62
     7
 10
17839.38396014892
 20
10944.197260476591
 30
0.0
 11
17858.63396014892
 21
10944.197260476591
 31
0.0
  0
POLYLINE
  5
751
  8
____1
  6
DASHED2
 62
     7
 66
     1
 10
0.0
 20
0.0
 30
0.0
 70
     8
  0
VERTEX
  5
752
  8
____1
 62
     7
 10
17833.230647985409
 20
10934.513231413761
 30
0.0
 70
    32
  0
VERTEX
  5
753
  8
____1
 62
     7
 10
17832.96565323295
 20
10935.684238679471
 30
0.0
 70
    32
  0
VERTEX
  5
754
  8
____1
 62
     7
 10
17832.73448759782
 20
10936.855245945169
 30
0.0
 70
    32
  0
VERTEX
  5
755
  8
____1
 62
     7
 10
17832.570980197372
 20
10938.026253210881
 30
0.0
 70
    32
  0
VERTEX
  5
756
  8
____1
 62
     7
 10
17832.50896014892
 20
10939.197260476591
 30
0.0
 70
    32
  0
VERTEX
  5
757
  8
____1
 62
     7
 10
17832.570980197372
 20
10940.3682677423
 30
0.0
 70
    32
  0
VERTEX
  5
758
  8
____1
 62
     7
 10
17832.73448759782
 20
10941.53927500801
 30
0.0
 70
    32
  0
VERTEX
  5
759
  8
____1
 62
     7
 10
17832.96565323295
 20
10942.710282273711
 30
0.0
 70
    32
  0
VERTEX
  5
75A
  8
____1
 62
     7
 10
17833.230647985409
 20
10943.88128953942
 30
0.0
 70
    32
  0
SEQEND
  5
75B
  8
____1
 62
     7
  0
POLYLINE
  5
75C
  8
____1
  6
DASHED2
 62
     7
 66
     1
 10
0.0
 20
0.0
 30
0.0
 70
     8
  0
VERTEX
  5
75D
  8
____1
 62
     7
 10
17833.230647985409
 20
10934.513231413761
 30
0.0
 70
    32
  0
VERTEX
  5
75E
  8
____1
 62
     7
 10
17832.84073766899
 20
10932.74164582015
 30
0.0
 70
    32
  0
VERTEX
  5
75F
  8
____1
 62
     7
 10
17832.682388178971
 20
10931.855853023349
 30
0.0
 70
    32
  0
VERTEX
  5
760
  8
____1
 62
     7
 10
17832.567965490791
 20
10930.970060226549
 30
0.0
 70
    32
  0
SEQEND
  5
761
  8
____1
 62
     7
  0
POLYLINE
  5
762
  8
____1
  6
DASHED2
 62
     7
 66
     1
 10
0.0
 20
0.0
 30
0.0
 70
     8
  0
VERTEX
  5
763
  8
____1
 62
     7
 10
17833.230647985409
 20
10943.88128953942
 30
0.0
 70
    32
  0
VERTEX
  5
764
  8
____1
 62
     7
 10
17832.84073766899
 20
10945.65287513303
 30
0.0
 70
    32
  0
VERTEX
  5
765
  8
____1
 62
     7
 10
17832.682388178971
 20
10946.53866792983
 30
0.0
 70
    32
  0
VERTEX
  5
766
  8
____1
 62
     7
 10
17832.567965490791
 20
10947.42446072663
 30
0.0
 70
    32
  0
SEQEND
  5
767
  8
____1
 62
     7
  0
LINE
  5
768
  8
____1
  6
DASHED2
 62
     7
 10
17839.38396014892
 20
10929.822260476591
 30
0.0
 11
17839.38396014892
 21
10948.572260476591
 31
0.0
  0
LINE
  5
769
  8
____1
  6
DASHED2
 62
     7
 10
17833.230647985409
 20
10929.822260476591
 30
0.0
 11
17839.38396014892
 21
10929.822260476591
 31
0.0
  0
LINE
  5
76A
  8
____1
  6
DASHED2
 62
     7
 10
17832.50896014892
 20
10931.072260476591
 30
0.0
 11
17833.230647985409
 21
10929.822260476591
 31
0.0
  0
LINE
  5
76B
  8
____1
  6
DASHED2
 62
     7
 10
17832.50896014892
 20
10931.072260476591
 30
0.0
 11
17832.50896014892
 21
10947.322260476591
 31
0.0
  0
LINE
  5
76C
  8
____1
  6
DASHED2
 62
     7
 10
17832.50896014892
 20
10947.322260476591
 30
0.0
 11
17833.230647985409
 21
10948.572260476591
 31
0.0
  0
LINE
  5
76D
  8
____1
  6
DASHED2
 62
     7
 10
17839.38396014892
 20
10948.572260476591
 30
0.0
 11
17833.230647985409
 21
10948.572260476591
 31
0.0
  0
LINE
  5
76E
  8
____1
  6
DASHED2
 62
     7
 10
17833.230647985409
 20
10934.513231413761
 30
0.0
 11
17839.38396014892
 21
10934.513231413761
 31
0.0
  0
LINE
  5
76F
  8
____1
  6
DASHED2
 62
     7
 10
17839.38396014892
 20
10943.88128953942
 30
0.0
 11
17833.230647985409
 21
10943.88128953942
 31
0.0
  0
ENDBLK
  5
770
  8
0
  0
BLOCK
  8
0
  2
C49
 70
     0
 10
0.0
 20
0.0
 30
0.0
  3
C49
  1

  0
INSERT
  5
77B
  8
____1
  6
CONTINUOUS
 62
     7
  2
C50
 10
0.0
 20
0.0
 30
0.0
  0
POLYLINE
  5
77C
  8
____1
  6
DASHED2
 62
     7
 66
     1
 10
0.0
 20
0.0
 30
0.0
 70
     8
  0
VERTEX
  5
77D
  8
____1
 62
     7
 10
17840.294960328902
 20
10949.197260476591
 30
0.0
 70
    32
  0
VERTEX
  5
77E
  8
____1
 62
     7
 10
17839.877478624669
 20
10947.936475252071
 30
0.0
 70
    32
  0
VERTEX
  5
77F
  8
____1
 62
     7
 10
17839.544489602129
 20
10946.680004117359
 30
0.0
 70
    32
  0
VERTEX
  5
780
  8
____1
 62
     7
 10
17839.38048594298
 20
10945.43216116226
 30
0.0
 70
    32
  0
VERTEX
  5
781
  8
____1
 62
     7
 10
17839.3882575877
 20
10944.812823405129
 30
0.0
 70
    32
  0
VERTEX
  5
782
  8
____1
 62
     7
 10
17839.469960328901
 20
10944.197260476591
 30
0.0
 70
    32
  0
VERTEX
  5
783
  8
____1
 62
     7
 10
17839.638057581491
 20
10943.562073060461
 30
0.0
 70
    32
  0
VERTEX
  5
784
  8
____1
 62
     7
 10
17839.870595577599
 20
10942.93096061078
 30
0.0
 70
    32
  0
VERTEX
  5
785
  8
____1
 62
     7
 10
17840.4219138833
 20
10941.67863205852
 30
0.0
 70
    32
  0
VERTEX
  5
786
  8
____1
 62
     7
 10
17840.909755411802
 20
10940.4356177153
 30
0.0
 70
    32
  0
VERTEX
  5
787
  8
____1
 62
     7
 10
17841.06294743641
 20
10939.81614802691
 30
0.0
 70
    32
  0
VERTEX
  5
788
  8
____1
 62
     7
 10
17841.119960328899
 20
10939.197260476591
 30
0.0
 70
    32
  0
VERTEX
  5
789
  8
____1
 62
     7
 10
17841.06294743641
 20
10938.578372926269
 30
0.0
 70
    32
  0
VERTEX
  5
78A
  8
____1
 62
     7
 10
17840.909755411802
 20
10937.95890323789
 30
0.0
 70
    32
  0
VERTEX
  5
78B
  8
____1
 62
     7
 10
17840.4219138833
 20
10936.71588889466
 30
0.0
 70
    32
  0
VERTEX
  5
78C
  8
____1
 62
     7
 10
17839.870595577599
 20
10935.463560342399
 30
0.0
 70
    32
  0
VERTEX
  5
78D
  8
____1
 62
     7
 10
17839.638057581491
 20
10934.832447892721
 30
0.0
 70
    32
  0
VERTEX
  5
78E
  8
____1
 62
     7
 10
17839.469960328901
 20
10934.197260476591
 30
0.0
 70
    32
  0
VERTEX
  5
78F
  8
____1
 62
     7
 10
17839.3882575877
 20
10933.58169754805
 30
0.0
 70
    32
  0
VERTEX
  5
790
  8
____1
 62
     7
 10
17839.38048594298
 20
10932.962359790919
 30
0.0
 70
    32
  0
VERTEX
  5
791
  8
____1
 62
     7
 10
17839.544489602129
 20
10931.714516835829
 30
0.0
 70
    32
  0
VERTEX
  5
792
  8
____1
 62
     7
 10
17839.877478624669
 20
10930.458045701111
 30
0.0
 70
    32
  0
VERTEX
  5
793
  8
____1
 62
     7
 10
17840.294960328902
 20
10929.197260476591
 30
0.0
 70
    32
  0
SEQEND
  5
794
  8
____1
 62
     7
  0
POLYLINE
  5
795
  8
____1
  6
DASHED2
 62
     7
 66
     1
 10
0.0
 20
0.0
 30
0.0
 70
     8
  0
VERTEX
  5
796
  8
____1
 62
     7
 10
17840.6449603289
 20
10949.197260476591
 30
0.0
 70
    32
  0
VERTEX
  5
797
  8
____1
 62
     7
 10
17840.227478624671
 20
10947.936475252071
 30
0.0
 70
    32
  0
VERTEX
  5
798
  8
____1
 62
     7
 10
17839.894489602131
 20
10946.680004117359
 30
0.0
 70
    32
  0
VERTEX
  5
799
  8
____1
 62
     7
 10
17839.730485942979
 20
10945.43216116226
 30
0.0
 70
    32
  0
VERTEX
  5
79A
  8
____1
 62
     7
 10
17839.738257587702
 20
10944.812823405129
 30
0.0
 70
    32
  0
VERTEX
  5
79B
  8
____1
 62
     7
 10
17839.819960328899
 20
10944.197260476591
 30
0.0
 70
    32
  0
VERTEX
  5
79C
  8
____1
 62
     7
 10
17839.98805758149
 20
10943.562073060461
 30
0.0
 70
    32
  0
VERTEX
  5
79D
  8
____1
 62
     7
 10
17840.220595577601
 20
10942.93096061078
 30
0.0
 70
    32
  0
VERTEX
  5
79E
  8
____1
 62
     7
 10
17840.771913883302
 20
10941.67863205852
 30
0.0
 70
    32
  0
VERTEX
  5
79F
  8
____1
 62
     7
 10
17841.2597554118
 20
10940.4356177153
 30
0.0
 70
    32
  0
VERTEX
  5
7A0
  8
____1
 62
     7
 10
17841.412947436409
 20
10939.81614802691
 30
0.0
 70
    32
  0
VERTEX
  5
7A1
  8
____1
 62
     7
 10
17841.469960328901
 20
10939.197260476591
 30
0.0
 70
    32
  0
VERTEX
  5
7A2
  8
____1
 62
     7
 10
17841.412947436409
 20
10938.578372926269
 30
0.0
 70
    32
  0
VERTEX
  5
7A3
  8
____1
 62
     7
 10
17841.2597554118
 20
10937.95890323789
 30
0.0
 70
    32
  0
VERTEX
  5
7A4
  8
____1
 62
     7
 10
17840.771913883302
 20
10936.71588889466
 30
0.0
 70
    32
  0
VERTEX
  5
7A5
  8
____1
 62
     7
 10
17840.220595577601
 20
10935.463560342399
 30
0.0
 70
    32
  0
VERTEX
  5
7A6
  8
____1
 62
     7
 10
17839.98805758149
 20
10934.832447892721
 30
0.0
 70
    32
  0
VERTEX
  5
7A7
  8
____1
 62
     7
 10
17839.819960328899
 20
10934.197260476591
 30
0.0
 70
    32
  0
VERTEX
  5
7A8
  8
____1
 62
     7
 10
17839.738257587702
 20
10933.58169754805
 30
0.0
 70
    32
  0
VERTEX
  5
7A9
  8
____1
 62
     7
 10
17839.730485942979
 20
10932.962359790919
 30
0.0
 70
    32
  0
VERTEX
  5
7AA
  8
____1
 62
     7
 10
17839.894489602131
 20
10931.714516835829
 30
0.0
 70
    32
  0
VERTEX
  5
7AB
  8
____1
 62
     7
 10
17840.227478624671
 20
10930.458045701111
 30
0.0
 70
    32
  0
VERTEX
  5
7AC
  8
____1
 62
     7
 10
17840.6449603289
 20
10929.197260476591
 30
0.0
 70
    32
  0
SEQEND
  5
7AD
  8
____1
 62
     7
  0
POLYLINE
  5
7AE
  8
____1
  6
DASHED2
 62
     7
 66
     1
 10
0.0
 20
0.0
 30
0.0
 70
     8
  0
VERTEX
  5
7AF
  8
____1
 62
     7
 10
17839.469960328901
 20
10944.197260476591
 30
0.0
 70
    32
  0
SEQEND
  5
7B0
  8
____1
 62
     7
  0
LINE
  5
7B1
  8
____1
  6
DASHED2
 62
     7
 10
17840.294960328902
 20
10949.197260476591
 30
0.0
 11
17840.6449603289
 21
10949.197260476591
 31
0.0
  0
LINE
  5
7B2
  8
____1
  6
DASHED2
 62
     7
 10
17840.294960328902
 20
10929.197260476591
 30
0.0
 11
17840.6449603289
 21
10929.197260476591
 31
0.0
  0
ENDBLK
  5
7B3
  8
0
  0
BLOCK
  8
0
  2
C50
 70
     0
 10
0.0
 20
0.0
 30
0.0
  3
C50
  1

  0
LINE
  5
776
  8
____1
  6
DASHED2
 62
     7
 10
17841.469960328901
 20
10933.197260476591
 30
0.0
 11
17841.469960328901
 21
10945.197260476591
 31
0.0
  0
LINE
  5
777
  8
____1
  6
DASHED2
 62
     7
 10
17841.469960328901
 20
10933.197260476591
 30
0.0
 11
17842.069960328899
 21
10933.197260476591
 31
0.0
  0
LINE
  5
778
  8
____1
  6
DASHED2
 62
     7
 10
17842.069960328899
 20
10933.197260476591
 30
0.0
 11
17842.069960328899
 21
10945.197260476591
 31
0.0
  0
LINE
  5
779
  8
____1
  6
DASHED2
 62
     7
 10
17841.469960328901
 20
10945.197260476591
 30
0.0
 11
17842.069960328899
 21
10945.197260476591
 31
0.0
  0
ENDBLK
  5
77A
  8
0
  0
BLOCK
  8
0
  2
C51
 70
     0
 10
0.0
 20
0.0
 30
0.0
  3
C51
  1

  0
INSERT
  5
7BE
  8
____1
  6
CONTINUOUS
 62
     7
  2
C52
 10
0.0
 20
0.0
 30
0.0
  0
POLYLINE
  5
7BF
  8
____1
  6
DASHED2
 62
     7
 66
     1
 10
0.0
 20
0.0
 30
0.0
 70
     8
  0
VERTEX
  5
7C0
  8
____1
 62
     7
 10
17847.044960328902
 20
10949.197260476591
 30
0.0
 70
    32
  0
VERTEX
  5
7C1
  8
____1
 62
     7
 10
17847.462442033131
 20
10947.936475252071
 30
0.0
 70
    32
  0
VERTEX
  5
7C2
  8
____1
 62
     7
 10
17847.795431055671
 20
10946.680004117359
 30
0.0
 70
    32
  0
VERTEX
  5
7C3
  8
____1
 62
     7
 10
17847.95943471482
 20
10945.43216116226
 30
0.0
 70
    32
  0
VERTEX
  5
7C4
  8
____1
 62
     7
 10
17847.9516630701
 20
10944.812823405129
 30
0.0
 70
    32
  0
VERTEX
  5
7C5
  8
____1
 62
     7
 10
17847.869960328899
 20
10944.197260476591
 30
0.0
 70
    32
  0
VERTEX
  5
7C6
  8
____1
 62
     7
 10
17847.701863076309
 20
10943.562073060461
 30
0.0
 70
    32
  0
VERTEX
  5
7C7
  8
____1
 62
     7
 10
17847.469325080201
 20
10942.93096061078
 30
0.0
 70
    32
  0
VERTEX
  5
7C8
  8
____1
 62
     7
 10
17846.9180067745
 20
10941.67863205852
 30
0.0
 70
    32
  0
VERTEX
  5
7C9
  8
____1
 62
     7
 10
17846.430165246002
 20
10940.4356177153
 30
0.0
 70
    32
  0
VERTEX
  5
7CA
  8
____1
 62
     7
 10
17846.276973221389
 20
10939.81614802691
 30
0.0
 70
    32
  0
VERTEX
  5
7CB
  8
____1
 62
     7
 10
17846.219960328901
 20
10939.197260476591
 30
0.0
 70
    32
  0
VERTEX
  5
7CC
  8
____1
 62
     7
 10
17846.276973221389
 20
10938.578372926269
 30
0.0
 70
    32
  0
VERTEX
  5
7CD
  8
____1
 62
     7
 10
17846.430165246002
 20
10937.95890323789
 30
0.0
 70
    32
  0
VERTEX
  5
7CE
  8
____1
 62
     7
 10
17846.9180067745
 20
10936.71588889466
 30
0.0
 70
    32
  0
VERTEX
  5
7CF
  8
____1
 62
     7
 10
17847.469325080201
 20
10935.463560342399
 30
0.0
 70
    32
  0
VERTEX
  5
7D0
  8
____1
 62
     7
 10
17847.701863076309
 20
10934.832447892721
 30
0.0
 70
    32
  0
VERTEX
  5
7D1
  8
____1
 62
     7
 10
17847.869960328899
 20
10934.197260476591
 30
0.0
 70
    32
  0
VERTEX
  5
7D2
  8
____1
 62
     7
 10
17847.9516630701
 20
10933.58169754805
 30
0.0
 70
    32
  0
VERTEX
  5
7D3
  8
____1
 62
     7
 10
17847.95943471482
 20
10932.962359790919
 30
0.0
 70
    32
  0
VERTEX
  5
7D4
  8
____1
 62
     7
 10
17847.795431055671
 20
10931.714516835829
 30
0.0
 70
    32
  0
VERTEX
  5
7D5
  8
____1
 62
     7
 10
17847.462442033131
 20
10930.458045701111
 30
0.0
 70
    32
  0
VERTEX
  5
7D6
  8
____1
 62
     7
 10
17847.044960328902
 20
10929.197260476591
 30
0.0
 70
    32
  0
SEQEND
  5
7D7
  8
____1
 62
     7
  0
POLYLINE
  5
7D8
  8
____1
  6
DASHED2
 62
     7
 66
     1
 10
0.0
 20
0.0
 30
0.0
 70
     8
  0
VERTEX
  5
7D9
  8
____1
 62
     7
 10
17846.694960328899
 20
10949.197260476591
 30
0.0
 70
    32
  0
VERTEX
  5
7DA
  8
____1
 62
     7
 10
17847.112442033129
 20
10947.936475252071
 30
0.0
 70
    32
  0
VERTEX
  5
7DB
  8
____1
 62
     7
 10
17847.445431055668
 20
10946.680004117359
 30
0.0
 70
    32
  0
VERTEX
  5
7DC
  8
____1
 62
     7
 10
17847.609434714821
 20
10945.43216116226
 30
0.0
 70
    32
  0
VERTEX
  5
7DD
  8
____1
 62
     7
 10
17847.601663070101
 20
10944.812823405129
 30
0.0
 70
    32
  0
VERTEX
  5
7DE
  8
____1
 62
     7
 10
17847.5199603289
 20
10944.197260476591
 30
0.0
 70
    32
  0
VERTEX
  5
7DF
  8
____1
 62
     7
 10
17847.35186307631
 20
10943.562073060461
 30
0.0
 70
    32
  0
VERTEX
  5
7E0
  8
____1
 62
     7
 10
17847.119325080199
 20
10942.93096061078
 30
0.0
 70
    32
  0
VERTEX
  5
7E1
  8
____1
 62
     7
 10
17846.568006774502
 20
10941.67863205852
 30
0.0
 70
    32
  0
VERTEX
  5
7E2
  8
____1
 62
     7
 10
17846.080165246
 20
10940.4356177153
 30
0.0
 70
    32
  0
VERTEX
  5
7E3
  8
____1
 62
     7
 10
17845.926973221391
 20
10939.81614802691
 30
0.0
 70
    32
  0
VERTEX
  5
7E4
  8
____1
 62
     7
 10
17845.869960328899
 20
10939.197260476591
 30
0.0
 70
    32
  0
VERTEX
  5
7E5
  8
____1
 62
     7
 10
17845.926973221391
 20
10938.578372926269
 30
0.0
 70
    32
  0
VERTEX
  5
7E6
  8
____1
 62
     7
 10
17846.080165246
 20
10937.95890323789
 30
0.0
 70
    32
  0
VERTEX
  5
7E7
  8
____1
 62
     7
 10
17846.568006774502
 20
10936.71588889466
 30
0.0
 70
    32
  0
VERTEX
  5
7E8
  8
____1
 62
     7
 10
17847.119325080199
 20
10935.463560342399
 30
0.0
 70
    32
  0
VERTEX
  5
7E9
  8
____1
 62
     7
 10
17847.35186307631
 20
10934.832447892721
 30
0.0
 70
    32
  0
VERTEX
  5
7EA
  8
____1
 62
     7
 10
17847.5199603289
 20
10934.197260476591
 30
0.0
 70
    32
  0
VERTEX
  5
7EB
  8
____1
 62
     7
 10
17847.601663070101
 20
10933.58169754805
 30
0.0
 70
    32
  0
VERTEX
  5
7EC
  8
____1
 62
     7
 10
17847.609434714821
 20
10932.962359790919
 30
0.0
 70
    32
  0
VERTEX
  5
7ED
  8
____1
 62
     7
 10
17847.445431055668
 20
10931.714516835829
 30
0.0
 70
    32
  0
VERTEX
  5
7EE
  8
____1
 62
     7
 10
17847.112442033129
 20
10930.458045701111
 30
0.0
 70
    32
  0
VERTEX
  5
7EF
  8
____1
 62
     7
 10
17846.694960328899
 20
10929.197260476591
 30
0.0
 70
    32
  0
SEQEND
  5
7F0
  8
____1
 62
     7
  0
POLYLINE
  5
7F1
  8
____1
  6
DASHED2
 62
     7
 66
     1
 10
0.0
 20
0.0
 30
0.0
 70
     8
  0
VERTEX
  5
7F2
  8
____1
 62
     7
 10
17847.869960328899
 20
10944.197260476591
 30
0.0
 70
    32
  0
SEQEND
  5
7F3
  8
____1
 62
     7
  0
LINE
  5
7F4
  8
____1
  6
DASHED2
 62
     7
 10
17847.044960328902
 20
10949.197260476591
 30
0.0
 11
17846.694960328899
 21
10949.197260476591
 31
0.0
  0
LINE
  5
7F5
  8
____1
  6
DASHED2
 62
     7
 10
17847.044960328902
 20
10929.197260476591
 30
0.0
 11
17846.694960328899
 21
10929.197260476591
 31
0.0
  0
ENDBLK
  5
7F6
  8
0
  0
BLOCK
  8
0
  2
C52
 70
     0
 10
0.0
 20
0.0
 30
0.0
  3
C52
  1

  0
LINE
  5
7B9
  8
____1
  6
DASHED2
 62
     7
 10
17845.869960328899
 20
10933.197260476591
 30
0.0
 11
17845.869960328899
 21
10945.197260476591
 31
0.0
  0
LINE
  5
7BA
  8
____1
  6
DASHED2
 62
     7
 10
17845.869960328899
 20
10933.197260476591
 30
0.0
 11
17845.2699603289
 21
10933.197260476591
 31
0.0
  0
LINE
  5
7BB
  8
____1
  6
DASHED2
 62
     7
 10
17845.2699603289
 20
10933.197260476591
 30
0.0
 11
17845.2699603289
 21
10945.197260476591
 31
0.0
  0
LINE
  5
7BC
  8
____1
  6
DASHED2
 62
     7
 10
17845.869960328899
 20
10945.197260476591
 30
0.0
 11
17845.2699603289
 21
10945.197260476591
 31
0.0
  0
ENDBLK
  5
7BD
  8
0
  0
BLOCK
  8
0
  2
C53
 70
     0
 10
0.0
 20
0.0
 30
0.0
  3
C53
  1

  0
ARC
  5
7FA
  8
____1
  6
DASHED2
 62
     7
 10
18476.869960328899
 20
10501.6981833836
 30
0.0
 40
6.0
 50
0.0
 51
180.0
  0
LINE
  5
7FB
  8
____1
  6
DASHED2
 62
     7
 10
18470.869960328899
 20
10501.6981833836
 30
0.0
 11
18470.869960328899
 21
10488.6981833836
 31
0.0
  0
ARC
  5
7FC
  8
____1
  6
DASHED2
 62
     7
 10
18476.869960328899
 20
10488.6981833836
 30
0.0
 40
6.0
 50
180.0
 51
0.0
  0
LINE
  5
7FD
  8
____1
  6
DASHED2
 62
     7
 10
18482.869960328899
 20
10501.6981833836
 30
0.0
 11
18482.869960328899
 21
10488.6981833836
 31
0.0
  0
LINE
  5
7FE
  8
____1
  6
DOT
 62
     3
 10
18476.869960328899
 20
10493.1981833836
 30
0.0
 11
18476.869960328899
 21
10497.1981833836
 31
0.0
  0
LINE
  5
7FF
  8
____1
  6
DOT
 62
     3
 10
18474.869960328899
 20
10495.1981833836
 30
0.0
 11
18478.869960328899
 21
10495.1981833836
 31
0.0
  0
LINE
  5
800
  8
____1
  6
DASHED2
 62
     7
 10
18493.1402559528
 20
10470.1981833836
 30
0.0
 11
18493.1402559528
 21
10520.1981833836
 31
0.0
  0
LINE
  5
801
  8
____1
  6
DASHED2
 62
     7
 10
18497.70628430308
 20
10520.1981833836
 30
0.0
 11
18497.70628430308
 21
10470.1981833836
 31
0.0
  0
LINE
  5
802
  8
____1
  6
DASHED2
 62
     7
 10
18462.369960328899
 20
10520.1981833836
 30
0.0
 11
18517.370902839699
 21
10520.1981833836
 31
0.0
  0
LINE
  5
803
  8
____1
  6
DASHED2
 62
     7
 10
18517.370902839699
 20
10520.1981833836
 30
0.0
 11
18517.370902839699
 21
10470.1981833836
 31
0.0
  0
LINE
  5
804
  8
____1
  6
DASHED2
 62
     7
 10
18462.369960328899
 20
10470.1981833836
 30
0.0
 11
18517.370902839699
 21
10470.1981833836
 31
0.0
  0
ARC
  5
805
  8
____1
  6
DASHED2
 62
     7
 10
18462.369960328899
 20
10517.1981833836
 30
0.0
 40
3.0
 50
90.0
 51
180.0
  0
ARC
  5
806
  8
____1
  6
DASHED2
 62
     7
 10
18462.369960328899
 20
10473.1981833836
 30
0.0
 40
3.0
 50
180.0
 51
-90.0
  0
LINE
  5
807
  8
____1
  6
DASHED2
 62
     7
 10
18459.369960328899
 20
10473.1981833836
 30
0.0
 11
18459.369960328899
 21
10517.1981833836
 31
0.0
  0
LINE
  5
808
  8
____1
  6
DASHED2
 62
     7
 10
18498.882979033711
 20
10520.1981833836
 30
0.0
 11
18498.882979033711
 21
10470.1981833836
 31
0.0
  0
ENDBLK
  5
809
  8
0
  0
BLOCK
  8
0
  2
C54
 70
     0
 10
0.0
 20
0.0
 30
0.0
  3
C54
  1

  0
LINE
  5
80D
  8
____1
  6
DASHED2
 62
     7
 10
18397.369960328899
 20
10602.1981833836
 30
0.0
 11
18411.7699603289
 21
10602.1981833836
 31
0.0
  0
LINE
  5
80E
  8
____1
  6
DASHED2
 62
     7
 10
18397.369960328899
 20
10601.598183383599
 30
0.0
 11
18412.369960328899
 21
10601.598183383599
 31
0.0
  0
LINE
  5
80F
  8
____1
  6
DASHED2
 62
     7
 10
18397.369960328899
 20
10594.7981833836
 30
0.0
 11
18412.369960328899
 21
10594.7981833836
 31
0.0
  0
LINE
  5
810
  8
____1
  6
DASHED2
 62
     7
 10
18397.369960328899
 20
10594.1981833836
 30
0.0
 11
18411.7699603289
 21
10594.1981833836
 31
0.0
  0
LINE
  5
811
  8
____1
  6
DASHED2
 62
     7
 10
18412.369960328899
 20
10594.7981833836
 30
0.0
 11
18411.7699603289
 21
10594.1981833836
 31
0.0
  0
LINE
  5
812
  8
____1
  6
DASHED2
 62
     7
 10
18411.7699603289
 20
10602.1981833836
 30
0.0
 11
18412.369960328899
 21
10601.598183383599
 31
0.0
  0
LINE
  5
813
  8
____1
  6
DASHED2
 62
     7
 10
18411.7699603289
 20
10602.1981833836
 30
0.0
 11
18411.7699603289
 21
10594.1981833836
 31
0.0
  0
LINE
  5
814
  8
____1
  6
DASHED2
 62
     7
 10
18412.369960328899
 20
10601.598183383599
 30
0.0
 11
18412.369960328899
 21
10594.7981833836
 31
0.0
  0
LINE
  5
815
  8
____1
  6
DASHED2
 62
     7
 10
18397.369960328899
 20
10594.45096013333
 30
0.0
 11
18392.447310598091
 21
10594.45096013333
 31
0.0
  0
POLYLINE
  5
816
  8
____1
  6
DASHED2
 62
     7
 66
     1
 10
0.0
 20
0.0
 30
0.0
 70
     8
  0
VERTEX
  5
817
  8
____1
 62
     7
 10
18392.447310598091
 20
10594.45096013333
 30
0.0
 70
    32
  0
VERTEX
  5
818
  8
____1
 62
     7
 10
18392.135382344961
 20
10593.033691658449
 30
0.0
 70
    32
  0
VERTEX
  5
819
  8
____1
 62
     7
 10
18392.008702752941
 20
10592.325057421011
 30
0.0
 70
    32
  0
VERTEX
  5
81A
  8
____1
 62
     7
 10
18391.917164602401
 20
10591.61642318357
 30
0.0
 70
    32
  0
SEQEND
  5
81B
  8
____1
 62
     7
  0
LINE
  5
81C
  8
____1
  6
DASHED2
 62
     7
 10
18392.447310598091
 20
10601.945406633869
 30
0.0
 11
18397.369960328899
 21
10601.945406633869
 31
0.0
  0
POLYLINE
  5
81D
  8
____1
  6
DASHED2
 62
     7
 66
     1
 10
0.0
 20
0.0
 30
0.0
 70
     8
  0
VERTEX
  5
81E
  8
____1
 62
     7
 10
18392.447310598091
 20
10601.945406633869
 30
0.0
 70
    32
  0
VERTEX
  5
81F
  8
____1
 62
     7
 10
18392.135382344961
 20
10603.36267510875
 30
0.0
 70
    32
  0
VERTEX
  5
820
  8
____1
 62
     7
 10
18392.008702752941
 20
10604.071309346191
 30
0.0
 70
    32
  0
VERTEX
  5
821
  8
____1
 62
     7
 10
18391.917164602401
 20
10604.77994358363
 30
0.0
 70
    32
  0
SEQEND
  5
822
  8
____1
 62
     7
  0
POLYLINE
  5
823
  8
____1
  6
DASHED2
 62
     7
 66
     1
 10
0.0
 20
0.0
 30
0.0
 70
     8
  0
VERTEX
  5
824
  8
____1
 62
     7
 10
18392.447310598091
 20
10601.945406633869
 30
0.0
 70
    32
  0
VERTEX
  5
825
  8
____1
 62
     7
 10
18392.235314796118
 20
10601.0086008213
 30
0.0
 70
    32
  0
VERTEX
  5
826
  8
____1
 62
     7
 10
18392.05038228802
 20
10600.071795008729
 30
0.0
 70
    32
  0
VERTEX
  5
827
  8
____1
 62
     7
 10
18391.919576367651
 20
10599.134989196171
 30
0.0
 70
    32
  0
VERTEX
  5
828
  8
____1
 62
     7
 10
18391.869960328899
 20
10598.1981833836
 30
0.0
 70
    32
  0
VERTEX
  5
829
  8
____1
 62
     7
 10
18391.919576367651
 20
10597.261377571031
 30
0.0
 70
    32
  0
VERTEX
  5
82A
  8
____1
 62
     7
 10
18392.05038228802
 20
10596.32457175846
 30
0.0
 70
    32
  0
VERTEX
  5
82B
  8
____1
 62
     7
 10
18392.235314796118
 20
10595.387765945899
 30
0.0
 70
    32
  0
VERTEX
  5
82C
  8
____1
 62
     7
 10
18392.447310598091
 20
10594.45096013333
 30
0.0
 70
    32
  0
SEQEND
  5
82D
  8
____1
 62
     7
  0
LINE
  5
82E
  8
____1
  6
DASHED2
 62
     7
 10
18397.369960328899
 20
10590.6981833836
 30
0.0
 11
18392.447310598091
 21
10590.6981833836
 31
0.0
  0
LINE
  5
82F
  8
____1
  6
DASHED2
 62
     7
 10
18391.869960328899
 20
10591.6981833836
 30
0.0
 11
18392.447310598091
 21
10590.6981833836
 31
0.0
  0
LINE
  5
830
  8
____1
  6
DASHED2
 62
     7
 10
18391.869960328899
 20
10604.6981833836
 30
0.0
 11
18391.869960328899
 21
10591.6981833836
 31
0.0
  0
LINE
  5
831
  8
____1
  6
DASHED2
 62
     7
 10
18391.869960328899
 20
10604.6981833836
 30
0.0
 11
18392.447310598091
 21
10605.6981833836
 31
0.0
  0
LINE
  5
832
  8
____1
  6
DASHED2
 62
     7
 10
18392.447310598091
 20
10605.6981833836
 30
0.0
 11
18397.369960328899
 21
10605.6981833836
 31
0.0
  0
LINE
  5
833
  8
____1
  6
DASHED2
 62
     7
 10
18397.369960328899
 20
10605.6981833836
 30
0.0
 11
18397.369960328899
 21
10590.6981833836
 31
0.0
  0
ENDBLK
  5
834
  8
0
  0
BLOCK
  8
0
  2
C55
 70
     0
 10
0.0
 20
0.0
 30
0.0
  3
C55
  1

  0
LINE
  5
838
  8
____1
  6
DASHED2
 62
     7
 10
18398.869960328899
 20
10609.1981833836
 30
0.0
 11
18398.869960328899
 21
10587.1981833836
 31
0.0
  0
LINE
  5
839
  8
____1
  6
DASHED2
 62
     7
 10
18398.869960328899
 20
10609.1981833836
 30
0.0
 11
18397.369960328899
 21
10609.1981833836
 31
0.0
  0
LINE
  5
83A
  8
____1
  6
DASHED2
 62
     7
 10
18398.869960328899
 20
10587.1981833836
 30
0.0
 11
18397.369960328899
 21
10587.1981833836
 31
0.0
  0
LINE
  5
83B
  8
____1
  6
DASHED2
 62
     7
 10
18397.369960328899
 20
10609.1981833836
 30
0.0
 11
18397.369960328899
 21
10587.1981833836
 31
0.0
  0
ENDBLK
  5
83C
  8
0
  0
BLOCK
  8
0
  2
C56
 70
     0
 10
0.0
 20
0.0
 30
0.0
  3
C56
  1

  0
LINE
  5
840
  8
____1
  6
DASHED2
 62
     7
 10
18402.869960328899
 20
10593.83926047659
 30
0.0
 11
18398.869960328899
 21
10593.83926047659
 31
0.0
  0
LINE
  5
841
  8
____1
  6
DASHED2
 62
     7
 10
18398.869960328899
 20
10602.239260476579
 30
0.0
 11
18402.869960328899
 21
10602.239260476579
 31
0.0
  0
LINE
  5
842
  8
____1
  6
DASHED2
 62
     7
 10
18398.869960328899
 20
10593.039260476589
 30
0.0
 11
18402.869960328899
 21
10593.039260476589
 31
0.0
  0
LINE
  5
843
  8
____1
  6
DASHED2
 62
     7
 10
18398.869960328899
 20
10603.039260476589
 30
0.0
 11
18398.869960328899
 21
10593.039260476589
 31
0.0
  0
LINE
  5
844
  8
____1
  6
DASHED2
 62
     7
 10
18398.869960328899
 20
10603.039260476589
 30
0.0
 11
18402.869960328899
 21
10603.039260476589
 31
0.0
  0
LINE
  5
845
  8
____1
  6
DASHED2
 62
     7
 10
18402.869960328899
 20
10593.039260476589
 30
0.0
 11
18402.869960328899
 21
10603.039260476589
 31
0.0
  0
ENDBLK
  5
846
  8
0
  0
BLOCK
  8
0
  2
C57
 70
     0
 10
0.0
 20
0.0
 30
0.0
  3
C57
  1

  0
LINE
  5
84A
  8
____1
  6
DASHED2
 62
     7
 10
18415.369960328899
 20
10560.1981833836
 30
0.0
 11
18415.369960328899
 21
10581.69818371148
 31
0.0
  0
LINE
  5
84B
  8
____1
  6
DASHED2
 62
     7
 10
18415.369960328899
 20
10614.69818473458
 30
0.0
 11
18415.369960328899
 21
10636.1981833836
 31
0.0
  0
LINE
  5
84C
  8
____1
  6
DASHED2
 62
     7
 10
18402.869960328899
 20
10611.6981833836
 30
0.0
 11
18415.369960328899
 21
10611.6981833836
 31
0.0
  0
ARC
  5
84D
  8
____1
  6
DASHED2
 62
     7
 10
18415.369960328899
 20
10610.1981833836
 30
0.0
 40
1.5
 50
0.0
 51
90.0
  0
LINE
  5
84E
  8
____1
  6
DASHED2
 62
     7
 10
18416.869960328899
 20
10610.1981833836
 30
0.0
 11
18416.869960328899
 21
10586.1981833836
 31
0.0
  0
ARC
  5
84F
  8
____1
  6
DASHED2
 62
     7
 10
18404.369960328899
 20
10584.6981833836
 30
0.0
 40
1.5
 50
180.0
 51
-90.0
  0
ARC
  5
850
  8
____1
  6
DASHED2
 62
     7
 10
18402.8040800544
 20
10609.18469463206
 30
0.0
 40
2.000000000001771
 50
99.999983275280897
 51
100.0000000000461
  0
LINE
  5
851
  8
____1
  6
DASHED2
 62
     7
 10
18407.369960328899
 20
10603.09818386698
 30
0.0
 11
18404.369960328899
 21
10603.09818386698
 31
0.0
  0
LINE
  5
852
  8
____1
  6
DASHED2
 62
     7
 10
18402.869960328899
 20
10584.6981833836
 30
0.0
 11
18402.869960328899
 21
10611.6981833836
 31
0.0
  0
LINE
  5
853
  8
____1
  6
DASHED2
 62
     7
 10
18407.369960328899
 20
10593.29818386698
 30
0.0
 11
18404.369960328899
 21
10593.29818386698
 31
0.0
  0
LINE
  5
854
  8
____1
  6
DASHED2
 62
     7
 10
18407.369960328899
 20
10593.29818386698
 30
0.0
 11
18407.369960328899
 21
10603.09818386698
 31
0.0
  0
LINE
  5
855
  8
____1
  6
DASHED2
 62
     7
 10
18404.369960328899
 20
10584.6981833836
 30
0.0
 11
18404.369960328899
 21
10611.6981833836
 31
0.0
  0
ARC
  5
856
  8
____1
  6
DASHED2
 62
     7
 10
18404.869960328899
 20
10603.59818386698
 30
0.0
 40
2.0
 50
180.0
 51
-90.0
  0
LINE
  5
857
  8
____1
  6
DASHED2
 62
     7
 10
18407.369960328899
 20
10601.59818386698
 30
0.0
 11
18404.869960328899
 21
10601.59818386698
 31
0.0
  0
ARC
  5
858
  8
____1
  6
DASHED2
 62
     7
 10
18404.869960328899
 20
10592.79818386698
 30
0.0
 40
2.0
 50
90.0
 51
180.0
  0
ARC
  5
859
  8
____1
  6
DASHED2
 62
     7
 10
18402.109487787449
 20
10583.27244104485
 30
0.0
 40
1.9999999999969089
 50
79.999989335620072
 51
79.999999999935739
  0
LINE
  5
85A
  8
____1
  6
DASHED2
 62
     7
 10
18415.369960328899
 20
10636.1981833836
 30
0.0
 11
18416.869960328899
 21
10636.1981833836
 31
0.0
  0
LINE
  5
85B
  8
____1
  6
DASHED2
 62
     7
 10
18415.369960328899
 20
10560.1981833836
 30
0.0
 11
18416.869960328899
 21
10560.1981833836
 31
0.0
  0
LINE
  5
85C
  8
____1
  6
DASHED2
 62
     7
 10
18407.369960328899
 20
10594.79818386698
 30
0.0
 11
18404.869960328899
 21
10594.79818386698
 31
0.0
  0
ARC
  5
85D
  8
____1
  6
DASHED2
 62
     7
 10
18404.369960328899
 20
10611.6981833836
 30
0.0
 40
1.5
 50
90.0
 51
180.0
  0
ARC
  5
85E
  8
____1
  6
DASHED2
 62
     7
 10
18413.869960328899
 20
10614.698184350371
 30
0.0
 40
1.5000000000006051
 50
-89.843650899634298
 51
0.000014675763111
  0
ARC
  5
85F
  8
____1
  6
DASHED2
 62
     7
 10
18413.869960328899
 20
10614.698184350371
 30
0.0
 40
3.0
 50
-90.0
 51
0.0000077026530108
  0
LINE
  5
860
  8
____1
  6
DASHED2
 62
     7
 10
18416.869960328899
 20
10614.698184753681
 30
0.0
 11
18416.869960328899
 21
10636.1981833836
 31
0.0
  0
LINE
  5
861
  8
____1
  6
DASHED2
 62
     7
 10
18404.369960328899
 20
10613.1981833836
 30
0.0
 11
18413.874053551572
 21
10613.1981833836
 31
0.0
  0
LINE
  5
862
  8
____1
  6
DASHED2
 62
     7
 10
18402.869960328899
 20
10584.6981833836
 30
0.0
 11
18415.369956907729
 21
10584.6981833836
 31
0.0
  0
ARC
  5
863
  8
____1
  6
DASHED2
 62
     7
 10
18415.369960328899
 20
10586.1981833836
 30
0.0
 40
1.50000000000029
 50
-90.000035639630255
 51
0.0
  0
ARC
  5
864
  8
____1
  6
DASHED2
 62
     7
 10
18415.369956907729
 20
10580.6981833836
 30
0.0
 40
4.0
 50
89.999964360265508
 51
90.0
  0
LINE
  5
865
  8
____1
  6
DASHED2
 62
     7
 10
18416.869960328899
 20
10560.1981833836
 30
0.0
 11
18416.869960328899
 21
10581.6981833836
 31
0.0
  0
ARC
  5
866
  8
____1
  6
DASHED2
 62
     7
 10
18413.869960328899
 20
10581.6981833836
 30
0.0
 40
3.0
 50
0.0
 51
90.0
  0
LINE
  5
867
  8
____1
  6
DASHED2
 62
     7
 10
18404.369960328899
 20
10583.1981833836
 30
0.0
 11
18413.86995704826
 21
10583.1981833836
 31
0.0
  0
ARC
  5
868
  8
____1
  6
DASHED2
 62
     7
 10
18413.869960328899
 20
10581.6981833836
 30
0.0
 40
1.4999999999999489
 50
0.0000125240978867
 51
90.000125311153951
  0
ENDBLK
  5
869
  8
0
  0
BLOCK
  8
0
  2
C58
 70
     0
 10
0.0
 20
0.0
 30
0.0
  3
C58
  1

  0
LINE
  5
86D
  8
____1
  6
DASHED2
 62
     7
 10
17818.369960328899
 20
10560.1981833836
 30
0.0
 11
17818.369960328899
 21
10581.69818371148
 31
0.0
  0
LINE
  5
86E
  8
____1
  6
DASHED2
 62
     7
 10
17818.369960328899
 20
10614.69818473458
 30
0.0
 11
17818.369960328899
 21
10636.1981833836
 31
0.0
  0
LINE
  5
86F
  8
____1
  6
DASHED2
 62
     7
 10
17830.869960328899
 20
10611.6981833836
 30
0.0
 11
17818.369960328899
 21
10611.6981833836
 31
0.0
  0
ARC
  5
870
  8
____1
  6
DASHED2
 62
     7
 10
17818.369960328899
 20
10610.1981833836
 30
0.0
 40
1.5
 50
90.0
 51
180.0
  0
LINE
  5
871
  8
____1
  6
DASHED2
 62
     7
 10
17816.869960328899
 20
10610.1981833836
 30
0.0
 11
17816.869960328899
 21
10586.1981833836
 31
0.0
  0
ARC
  5
872
  8
____1
  6
DASHED2
 62
     7
 10
17829.369960328899
 20
10584.6981833836
 30
0.0
 40
1.5
 50
-90.0
 51
0.0
  0
ARC
  5
873
  8
____1
  6
DASHED2
 62
     7
 10
17830.935840603401
 20
10609.18469463206
 30
0.0
 40
2.0000000000011391
 50
80.000000000056474
 51
80.000016724821748
  0
LINE
  5
874
  8
____1
  6
DASHED2
 62
     7
 10
17826.369960328899
 20
10603.09818386698
 30
0.0
 11
17829.369960328899
 21
10603.09818386698
 31
0.0
  0
LINE
  5
875
  8
____1
  6
DASHED2
 62
     7
 10
17830.869960328899
 20
10584.6981833836
 30
0.0
 11
17830.869960328899
 21
10611.6981833836
 31
0.0
  0
LINE
  5
876
  8
____1
  6
DASHED2
 62
     7
 10
17826.369960328899
 20
10593.29818386698
 30
0.0
 11
17829.369960328899
 21
10593.29818386698
 31
0.0
  0
LINE
  5
877
  8
____1
  6
DASHED2
 62
     7
 10
17826.369960328899
 20
10593.29818386698
 30
0.0
 11
17826.369960328899
 21
10603.09818386698
 31
0.0
  0
LINE
  5
878
  8
____1
  6
DASHED2
 62
     7
 10
17829.369960328899
 20
10584.6981833836
 30
0.0
 11
17829.369960328899
 21
10611.6981833836
 31
0.0
  0
ARC
  5
879
  8
____1
  6
DASHED2
 62
     7
 10
17828.869960328899
 20
10603.59818386698
 30
0.0
 40
2.0
 50
-90.0
 51
0.0
  0
LINE
  5
87A
  8
____1
  6
DASHED2
 62
     7
 10
17826.369960328899
 20
10601.59818386698
 30
0.0
 11
17828.869960328899
 21
10601.59818386698
 31
0.0
  0
ARC
  5
87B
  8
____1
  6
DASHED2
 62
     7
 10
17828.869960328899
 20
10592.79818386698
 30
0.0
 40
2.0
 50
0.0
 51
90.0
  0
ARC
  5
87C
  8
____1
  6
DASHED2
 62
     7
 10
17831.630432870352
 20
10583.27244104485
 30
0.0
 40
1.999999999996277
 50
99.999999999961631
 51
100.0000106642773
  0
LINE
  5
87D
  8
____1
  6
DASHED2
 62
     7
 10
17818.369960328899
 20
10636.1981833836
 30
0.0
 11
17816.869960328899
 21
10636.1981833836
 31
0.0
  0
LINE
  5
87E
  8
____1
  6
DASHED2
 62
     7
 10
17818.369960328899
 20
10560.1981833836
 30
0.0
 11
17816.869960328899
 21
10560.1981833836
 31
0.0
  0
LINE
  5
87F
  8
____1
  6
DASHED2
 62
     7
 10
17826.369960328899
 20
10594.79818386698
 30
0.0
 11
17828.869960328899
 21
10594.79818386698
 31
0.0
  0
ARC
  5
880
  8
____1
  6
DASHED2
 62
     7
 10
17829.369960328899
 20
10611.6981833836
 30
0.0
 40
1.5
 50
0.0
 51
90.0
  0
ARC
  5
881
  8
____1
  6
DASHED2
 62
     7
 10
17819.869960328899
 20
10614.698184350371
 30
0.0
 40
1.5000000000006051
 50
179.99998532423689
 51
-90.156349100365702
  0
ARC
  5
882
  8
____1
  6
DASHED2
 62
     7
 10
17819.869960328899
 20
10614.698184350371
 30
0.0
 40
3.0
 50
179.99999229734701
 51
-90.0
  0
LINE
  5
883
  8
____1
  6
DASHED2
 62
     7
 10
17816.869960328899
 20
10614.698184753681
 30
0.0
 11
17816.869960328899
 21
10636.1981833836
 31
0.0
  0
LINE
  5
884
  8
____1
  6
DASHED2
 62
     7
 10
17829.369960328899
 20
10613.1981833836
 30
0.0
 11
17819.865867106229
 21
10613.1981833836
 31
0.0
  0
LINE
  5
885
  8
____1
  6
DASHED2
 62
     7
 10
17830.869960328899
 20
10584.6981833836
 30
0.0
 11
17818.369963750061
 21
10584.6981833836
 31
0.0
  0
ARC
  5
886
  8
____1
  6
DASHED2
 62
     7
 10
17818.369960328899
 20
10586.1981833836
 30
0.0
 40
1.50000000000029
 50
180.0
 51
-89.999964360369731
  0
ARC
  5
887
  8
____1
  6
DASHED2
 62
     7
 10
17818.369963750061
 20
10580.6981833836
 30
0.0
 40
4.0
 50
90.0
 51
90.00003563968238
  0
LINE
  5
888
  8
____1
  6
DASHED2
 62
     7
 10
17816.869960328899
 20
10560.1981833836
 30
0.0
 11
17816.869960328899
 21
10581.6981833836
 31
0.0
  0
ARC
  5
889
  8
____1
  6
DASHED2
 62
     7
 10
17819.869960328899
 20
10581.6981833836
 30
0.0
 40
3.0
 50
90.0
 51
180.0
  0
LINE
  5
88A
  8
____1
  6
DASHED2
 62
     7
 10
17829.369960328899
 20
10583.1981833836
 30
0.0
 11
17819.869963609541
 21
10583.1981833836
 31
0.0
  0
ARC
  5
88B
  8
____1
  6
DASHED2
 62
     7
 10
17819.869960328899
 20
10581.6981833836
 30
0.0
 40
1.4999999999999489
 50
89.999874688846063
 51
179.99998747590209
  0
ENDBLK
  5
88C
  8
0
  0
BLOCK
  8
0
  2
C59
 70
     0
 10
0.0
 20
0.0
 30
0.0
  3
C59
  1

  0
LINE
  5
890
  8
____1
  6
DASHED2
 62
     7
 10
17830.869960328899
 20
10593.83926047659
 30
0.0
 11
17834.869960328899
 21
10593.83926047659
 31
0.0
  0
LINE
  5
891
  8
____1
  6
DASHED2
 62
     7
 10
17834.869960328899
 20
10602.239260476579
 30
0.0
 11
17830.869960328899
 21
10602.239260476579
 31
0.0
  0
LINE
  5
892
  8
____1
  6
DASHED2
 62
     7
 10
17834.869960328899
 20
10593.039260476589
 30
0.0
 11
17830.869960328899
 21
10593.039260476589
 31
0.0
  0
LINE
  5
893
  8
____1
  6
DASHED2
 62
     7
 10
17834.869960328899
 20
10603.039260476589
 30
0.0
 11
17834.869960328899
 21
10593.039260476589
 31
0.0
  0
LINE
  5
894
  8
____1
  6
DASHED2
 62
     7
 10
17834.869960328899
 20
10603.039260476589
 30
0.0
 11
17830.869960328899
 21
10603.039260476589
 31
0.0
  0
LINE
  5
895
  8
____1
  6
DASHED2
 62
     7
 10
17830.869960328899
 20
10593.039260476589
 30
0.0
 11
17830.869960328899
 21
10603.039260476589
 31
0.0
  0
ENDBLK
  5
896
  8
0
  0
BLOCK
  8
0
  2
C60
 70
     0
 10
0.0
 20
0.0
 30
0.0
  3
C60
  1

  0
LINE
  5
89A
  8
____1
  6
DASHED2
 62
     7
 10
17834.869960328899
 20
10609.1981833836
 30
0.0
 11
17834.869960328899
 21
10587.1981833836
 31
0.0
  0
LINE
  5
89B
  8
____1
  6
DASHED2
 62
     7
 10
17834.869960328899
 20
10609.1981833836
 30
0.0
 11
17836.369960328899
 21
10609.1981833836
 31
0.0
  0
LINE
  5
89C
  8
____1
  6
DASHED2
 62
     7
 10
17834.869960328899
 20
10587.1981833836
 30
0.0
 11
17836.369960328899
 21
10587.1981833836
 31
0.0
  0
LINE
  5
89D
  8
____1
  6
DASHED2
 62
     7
 10
17836.369960328899
 20
10609.1981833836
 30
0.0
 11
17836.369960328899
 21
10587.1981833836
 31
0.0
  0
ENDBLK
  5
89E
  8
0
  0
BLOCK
  8
0
  2
C61
 70
     0
 10
0.0
 20
0.0
 30
0.0
  3
C61
  1

  0
LINE
  5
8A4
  8
____1
  6
DASHED2
 62
     7
 10
18402.4696009539
 20
10593.039260476589
 30
0.0
 11
18399.269600953899
 21
10593.039260476589
 31
0.0
  0
LINE
  5
8A5
  8
____1
  6
DASHED2
 62
     7
 10
18402.4696009539
 20
10607.039260476589
 30
0.0
 11
18399.269600953899
 21
10607.039260476589
 31
0.0
  0
LINE
  5
8A6
  8
____1
  6
DASHED2
 62
     7
 10
18402.469960328901
 20
10622.039260476589
 30
0.0
 11
18387.969960328901
 21
10622.039260476589
 31
0.0
  0
LINE
  5
8A7
  8
____1
  6
DASHED2
 62
     7
 10
18387.969960328901
 20
10618.83926047659
 30
0.0
 11
18387.969960328901
 21
10622.039260476589
 31
0.0
  0
LINE
  5
8A8
  8
____1
  6
DASHED2
 62
     7
 10
18384.469960328901
 20
10897.33926047658
 30
0.0
 11
18406.469960328901
 21
10897.33926047658
 31
0.0
  0
LINE
  5
8A9
  8
____1
  6
DASHED2
 62
     7
 10
18384.469960328901
 20
10625.539260476589
 30
0.0
 11
18406.469960328901
 21
10625.539260476589
 31
0.0
  0
LINE
  5
8AA
  8
____1
  6
DASHED2
 62
     7
 10
18389.469960328901
 20
10622.039260476589
 30
0.0
 11
18384.469960328901
 21
10625.539260476589
 31
0.0
  0
LINE
  5
8AB
  8
____1
  6
DASHED2
 62
     7
 10
18400.469960328901
 20
10905.03926047658
 30
0.0
 11
18400.469960328901
 21
10915.197260476591
 31
0.0
  0
LINE
  5
8AC
  8
____1
  6
DASHED2
 62
     7
 10
18390.469960328901
 20
10905.03926047658
 30
0.0
 11
18390.469960328901
 21
10915.197260476591
 31
0.0
  0
LINE
  5
8AD
  8
____1
  6
DASHED2
 62
     7
 10
18391.670319703899
 20
10923.197260476591
 30
0.0
 11
18396.470319703902
 21
10918.39726047659
 31
0.0
  0
LINE
  5
8AE
  8
____1
  6
DASHED2
 62
     7
 10
18388.470319703902
 20
10930.197260476591
 30
0.0
 11
18391.670319703899
 21
10930.197260476591
 31
0.0
  0
LINE
  5
8AF
  8
____1
  6
DASHED2
 62
     7
 10
18388.470319703902
 20
10934.197260476591
 30
0.0
 11
18391.670319703899
 21
10934.197260476591
 31
0.0
  0
LINE
  5
8B0
  8
____1
  6
DASHED2
 62
     7
 10
18402.969960328901
 20
10915.197260476591
 30
0.0
 11
18402.969960328901
 21
10918.39726047659
 31
0.0
  0
LINE
  5
8B1
  8
____1
  6
DASHED2
 62
     7
 10
18388.469960328901
 20
10915.197260476591
 30
0.0
 11
18388.469960328901
 21
10948.197260476591
 31
0.0
  0
LINE
  5
8B2
  8
____1
  6
DASHED2
 62
     7
 10
18388.469960328901
 20
10915.197260476591
 30
0.0
 11
18402.969960328901
 21
10915.197260476591
 31
0.0
  0
LINE
  5
8B3
  8
____1
  6
DASHED2
 62
     7
 10
18388.469960328901
 20
10948.197260476591
 30
0.0
 11
18391.669960328902
 21
10948.197260476591
 31
0.0
  0
LINE
  5
8B4
  8
____1
  6
DASHED2
 62
     7
 10
18391.669960328902
 20
10918.39726047659
 30
0.0
 11
18391.669960328902
 21
10948.197260476591
 31
0.0
  0
LINE
  5
8B5
  8
____1
  6
DASHED2
 62
     7
 10
18402.969960328901
 20
10918.39726047659
 30
0.0
 11
18391.669960328902
 21
10918.39726047659
 31
0.0
  0
LINE
  5
8B6
  8
____1
  6
DASHED2
 62
     7
 10
18382.156647828899
 20
10939.197260476591
 30
0.0
 11
18397.656647828899
 21
10939.197260476591
 31
0.0
  0
LINE
  5
8B7
  8
____1
  6
DASHED2
 62
     7
 10
18388.470319703902
 20
10944.197260476591
 30
0.0
 11
18391.670319703899
 21
10944.197260476591
 31
0.0
  0
LINE
  5
8B8
  8
____1
  6
DASHED2
 62
     7
 10
18401.469960328901
 20
10622.039260476589
 30
0.0
 11
18406.469960328901
 21
10625.539260476589
 31
0.0
  0
LINE
  5
8B9
  8
____1
  6
DASHED2
 62
     7
 10
18384.469960328901
 20
10625.539260476589
 30
0.0
 11
18384.469960328901
 21
10883.33926047658
 31
0.0
  0
LINE
  5
8BA
  8
____1
  6
DASHED2
 62
     7
 10
18405.469960328901
 20
10905.03926047658
 30
0.0
 11
18385.469960328901
 21
10905.03926047658
 31
0.0
  0
LINE
  5
8BB
  8
____1
  6
DASHED2
 62
     7
 10
18385.469960328901
 20
10903.53926047658
 30
0.0
 11
18385.469960328901
 21
10905.03926047658
 31
0.0
  0
LINE
  5
8BC
  8
____1
  6
DASHED2
 62
     7
 10
18406.469960328901
 20
10903.53926047658
 30
0.0
 11
18384.469960328901
 21
10903.53926047658
 31
0.0
  0
LINE
  5
8BD
  8
____1
  6
DASHED2
 62
     7
 10
18405.469960328901
 20
10903.53926047658
 30
0.0
 11
18405.469960328901
 21
10905.03926047658
 31
0.0
  0
LINE
  5
8BE
  8
____1
  6
DASHED2
 62
     7
 10
18399.269600953899
 20
10614.039260476589
 30
0.0
 11
18394.4696009539
 21
10618.83926047659
 31
0.0
  0
LINE
  5
8BF
  8
____1
  6
DASHED2
 62
     7
 10
18406.469960328901
 20
10625.539260476589
 30
0.0
 11
18406.469960328901
 21
10883.33926047658
 31
0.0
  0
LINE
  5
8C0
  8
____1
  6
DASHED2
 62
     7
 10
18384.469960328901
 20
10883.33926047658
 30
0.0
 11
18406.469960328901
 21
10883.33926047658
 31
0.0
  0
LINE
  5
8C1
  8
____1
  6
DASHED2
 62
     7
 10
18384.469960328901
 20
10884.83926047658
 30
0.0
 11
18406.469960328901
 21
10884.83926047658
 31
0.0
  0
ARC
  5
8C2
  8
____1
  6
DASHED2
 62
     7
 10
18384.719960328901
 20
10898.08926047658
 30
0.0
 40
0.75
 50
-90.0
 51
90.0
  0
LINE
  5
8C3
  8
____1
  6
DASHED2
 62
     7
 10
18384.469960328901
 20
10898.83926047658
 30
0.0
 11
18406.469960328901
 21
10898.83926047658
 31
0.0
  0
LINE
  5
8C4
  8
____1
  6
DASHED2
 62
     7
 10
18384.469960328901
 20
10898.83926047658
 30
0.0
 11
18384.469960328901
 21
10903.53926047658
 31
0.0
  0
ARC
  5
8C5
  8
____1
  6
DASHED2
 62
     7
 10
18406.219960328901
 20
10898.08926047658
 30
0.0
 40
0.75
 50
90.0
 51
-90.0
  0
LINE
  5
8C6
  8
____1
  6
DASHED2
 62
     7
 10
18406.469960328901
 20
10898.83926047658
 30
0.0
 11
18406.469960328901
 21
10903.53926047658
 31
0.0
  0
ARC
  5
8C7
  8
____1
  6
DASHED2
 62
     7
 10
18406.219960328901
 20
10884.08926047658
 30
0.0
 40
0.75
 50
90.0
 51
-90.0
  0
LINE
  5
8C8
  8
____1
  6
DASHED2
 62
     7
 10
18406.469960328901
 20
10884.83926047658
 30
0.0
 11
18406.469960328901
 21
10897.33926047658
 31
0.0
  0
LINE
  5
8C9
  8
____1
  6
DASHED2
 62
     7
 10
18408.783272828899
 20
10598.039260476589
 30
0.0
 11
18393.283272828899
 21
10598.039260476589
 31
0.0
  0
ARC
  5
8CA
  8
____1
  6
DASHED2
 62
     7
 10
18384.719960328901
 20
10884.08926047658
 30
0.0
 40
0.75
 50
-90.0
 51
90.0
  0
LINE
  5
8CB
  8
____1
  6
DASHED2
 62
     7
 10
18384.469960328901
 20
10884.83926047658
 30
0.0
 11
18384.469960328901
 21
10897.33926047658
 31
0.0
  0
LINE
  5
8CC
  8
____1
  6
DASHED2
 62
     7
 10
18402.469960328901
 20
10589.039260476589
 30
0.0
 11
18402.469960328901
 21
10622.039260476589
 31
0.0
  0
LINE
  5
8CD
  8
____1
  6
DASHED2
 62
     7
 10
18402.4696009539
 20
10603.039260476589
 30
0.0
 11
18399.269600953899
 21
10603.039260476589
 31
0.0
  0
LINE
  5
8CE
  8
____1
  6
DASHED2
 62
     7
 10
18387.969960328901
 20
10618.83926047659
 30
0.0
 11
18399.2699603289
 21
10618.83926047659
 31
0.0
  0
LINE
  5
8CF
  8
____1
  6
DASHED2
 62
     7
 10
18399.2699603289
 20
10589.039260476589
 30
0.0
 11
18399.2699603289
 21
10618.83926047659
 31
0.0
  0
LINE
  5
8D0
  8
____1
  6
DASHED2
 62
     7
 10
18402.469960328901
 20
10589.039260476589
 30
0.0
 11
18399.2699603289
 21
10589.039260476589
 31
0.0
  0
ENDBLK
  5
8D1
  8
0
  0
BLOCK
  8
0
  2
C62
 70
     0
 10
0.0
 20
0.0
 30
0.0
  3
C62
  1

  0
LINE
  5
8D5
  8
____1
  6
DASHED2
 62
     7
 10
17831.270319703901
 20
10593.039260476589
 30
0.0
 11
17834.470319703902
 21
10593.039260476589
 31
0.0
  0
LINE
  5
8D6
  8
____1
  6
DASHED2
 62
     7
 10
17831.270319703901
 20
10607.039260476589
 30
0.0
 11
17834.470319703902
 21
10607.039260476589
 31
0.0
  0
LINE
  5
8D7
  8
____1
  6
DASHED2
 62
     7
 10
17831.2699603289
 20
10622.039260476589
 30
0.0
 11
17845.7699603289
 21
10622.039260476589
 31
0.0
  0
LINE
  5
8D8
  8
____1
  6
DASHED2
 62
     7
 10
17845.7699603289
 20
10618.83926047659
 30
0.0
 11
17845.7699603289
 21
10622.039260476589
 31
0.0
  0
LINE
  5
8D9
  8
____1
  6
DASHED2
 62
     7
 10
17849.2699603289
 20
10897.33926047658
 30
0.0
 11
17827.2699603289
 21
10897.33926047658
 31
0.0
  0
LINE
  5
8DA
  8
____1
  6
DASHED2
 62
     7
 10
17849.2699603289
 20
10625.539260476589
 30
0.0
 11
17827.2699603289
 21
10625.539260476589
 31
0.0
  0
LINE
  5
8DB
  8
____1
  6
DASHED2
 62
     7
 10
17844.2699603289
 20
10622.039260476589
 30
0.0
 11
17849.2699603289
 21
10625.539260476589
 31
0.0
  0
LINE
  5
8DC
  8
____1
  6
DASHED2
 62
     7
 10
17833.2699603289
 20
10905.03926047658
 30
0.0
 11
17833.2699603289
 21
10915.197260476591
 31
0.0
  0
LINE
  5
8DD
  8
____1
  6
DASHED2
 62
     7
 10
17843.2699603289
 20
10905.03926047658
 30
0.0
 11
17843.2699603289
 21
10915.197260476591
 31
0.0
  0
LINE
  5
8DE
  8
____1
  6
DASHED2
 62
     7
 10
17842.069600953899
 20
10923.197260476591
 30
0.0
 11
17837.269600953899
 21
10918.39726047659
 31
0.0
  0
LINE
  5
8DF
  8
____1
  6
DASHED2
 62
     7
 10
17845.269600953899
 20
10930.197260476591
 30
0.0
 11
17842.069600953899
 21
10930.197260476591
 31
0.0
  0
LINE
  5
8E0
  8
____1
  6
DASHED2
 62
     7
 10
17845.269600953899
 20
10934.197260476591
 30
0.0
 11
17842.069600953899
 21
10934.197260476591
 31
0.0
  0
LINE
  5
8E1
  8
____1
  6
DASHED2
 62
     7
 10
17830.7699603289
 20
10915.197260476591
 30
0.0
 11
17830.7699603289
 21
10918.39726047659
 31
0.0
  0
LINE
  5
8E2
  8
____1
  6
DASHED2
 62
     7
 10
17845.2699603289
 20
10915.197260476591
 30
0.0
 11
17845.2699603289
 21
10948.197260476591
 31
0.0
  0
LINE
  5
8E3
  8
____1
  6
DASHED2
 62
     7
 10
17845.2699603289
 20
10915.197260476591
 30
0.0
 11
17830.7699603289
 21
10915.197260476591
 31
0.0
  0
LINE
  5
8E4
  8
____1
  6
DASHED2
 62
     7
 10
17845.2699603289
 20
10948.197260476591
 30
0.0
 11
17842.069960328899
 21
10948.197260476591
 31
0.0
  0
LINE
  5
8E5
  8
____1
  6
DASHED2
 62
     7
 10
17842.069960328899
 20
10918.39726047659
 30
0.0
 11
17842.069960328899
 21
10948.197260476591
 31
0.0
  0
LINE
  5
8E6
  8
____1
  6
DASHED2
 62
     7
 10
17830.7699603289
 20
10918.39726047659
 30
0.0
 11
17842.069960328899
 21
10918.39726047659
 31
0.0
  0
LINE
  5
8E7
  8
____1
  6
DASHED2
 62
     7
 10
17851.583272828899
 20
10939.197260476591
 30
0.0
 11
17836.083272828899
 21
10939.197260476591
 31
0.0
  0
LINE
  5
8E8
  8
____1
  6
DASHED2
 62
     7
 10
17845.269600953899
 20
10944.197260476591
 30
0.0
 11
17842.069600953899
 21
10944.197260476591
 31
0.0
  0
LINE
  5
8E9
  8
____1
  6
DASHED2
 62
     7
 10
17832.2699603289
 20
10622.039260476589
 30
0.0
 11
17827.2699603289
 21
10625.539260476589
 31
0.0
  0
LINE
  5
8EA
  8
____1
  6
DASHED2
 62
     7
 10
17849.2699603289
 20
10625.539260476589
 30
0.0
 11
17849.2699603289
 21
10883.33926047658
 31
0.0
  0
LINE
  5
8EB
  8
____1
  6
DASHED2
 62
     7
 10
17828.2699603289
 20
10905.03926047658
 30
0.0
 11
17848.2699603289
 21
10905.03926047658
 31
0.0
  0
LINE
  5
8EC
  8
____1
  6
DASHED2
 62
     7
 10
17848.2699603289
 20
10903.53926047658
 30
0.0
 11
17848.2699603289
 21
10905.03926047658
 31
0.0
  0
LINE
  5
8ED
  8
____1
  6
DASHED2
 62
     7
 10
17827.2699603289
 20
10903.53926047658
 30
0.0
 11
17849.2699603289
 21
10903.53926047658
 31
0.0
  0
LINE
  5
8EE
  8
____1
  6
DASHED2
 62
     7
 10
17828.2699603289
 20
10903.53926047658
 30
0.0
 11
17828.2699603289
 21
10905.03926047658
 31
0.0
  0
LINE
  5
8EF
  8
____1
  6
DASHED2
 62
     7
 10
17834.470319703902
 20
10614.039260476589
 30
0.0
 11
17839.270319703901
 21
10618.83926047659
 31
0.0
  0
LINE
  5
8F0
  8
____1
  6
DASHED2
 62
     7
 10
17827.2699603289
 20
10625.539260476589
 30
0.0
 11
17827.2699603289
 21
10883.33926047658
 31
0.0
  0
LINE
  5
8F1
  8
____1
  6
DASHED2
 62
     7
 10
17849.2699603289
 20
10883.33926047658
 30
0.0
 11
17827.2699603289
 21
10883.33926047658
 31
0.0
  0
LINE
  5
8F2
  8
____1
  6
DASHED2
 62
     7
 10
17849.2699603289
 20
10884.83926047658
 30
0.0
 11
17827.2699603289
 21
10884.83926047658
 31
0.0
  0
ARC
  5
8F3
  8
____1
  6
DASHED2
 62
     7
 10
17849.0199603289
 20
10898.08926047658
 30
0.0
 40
0.75
 50
90.0
 51
-90.0
  0
LINE
  5
8F4
  8
____1
  6
DASHED2
 62
     7
 10
17849.2699603289
 20
10898.83926047658
 30
0.0
 11
17827.2699603289
 21
10898.83926047658
 31
0.0
  0
LINE
  5
8F5
  8
____1
  6
DASHED2
 62
     7
 10
17849.2699603289
 20
10898.83926047658
 30
0.0
 11
17849.2699603289
 21
10903.53926047658
 31
0.0
  0
ARC
  5
8F6
  8
____1
  6
DASHED2
 62
     7
 10
17827.5199603289
 20
10898.08926047658
 30
0.0
 40
0.75
 50
-90.0
 51
90.0
  0
LINE
  5
8F7
  8
____1
  6
DASHED2
 62
     7
 10
17827.2699603289
 20
10898.83926047658
 30
0.0
 11
17827.2699603289
 21
10903.53926047658
 31
0.0
  0
ARC
  5
8F8
  8
____1
  6
DASHED2
 62
     7
 10
17827.5199603289
 20
10884.08926047658
 30
0.0
 40
0.75
 50
-90.0
 51
90.0
  0
LINE
  5
8F9
  8
____1
  6
DASHED2
 62
     7
 10
17827.2699603289
 20
10884.83926047658
 30
0.0
 11
17827.2699603289
 21
10897.33926047658
 31
0.0
  0
LINE
  5
8FA
  8
____1
  6
DASHED2
 62
     7
 10
17824.956647828902
 20
10598.039260476589
 30
0.0
 11
17840.456647828902
 21
10598.039260476589
 31
0.0
  0
ARC
  5
8FB
  8
____1
  6
DASHED2
 62
     7
 10
17849.0199603289
 20
10884.08926047658
 30
0.0
 40
0.75
 50
90.0
 51
-90.0
  0
LINE
  5
8FC
  8
____1
  6
DASHED2
 62
     7
 10
17849.2699603289
 20
10884.83926047658
 30
0.0
 11
17849.2699603289
 21
10897.33926047658
 31
0.0
  0
LINE
  5
8FD
  8
____1
  6
DASHED2
 62
     7
 10
17831.2699603289
 20
10589.039260476589
 30
0.0
 11
17831.2699603289
 21
10622.039260476589
 31
0.0
  0
LINE
  5
8FE
  8
____1
  6
DASHED2
 62
     7
 10
17831.270319703901
 20
10603.039260476589
 30
0.0
 11
17834.470319703902
 21
10603.039260476589
 31
0.0
  0
LINE
  5
8FF
  8
____1
  6
DASHED2
 62
     7
 10
17845.7699603289
 20
10618.83926047659
 30
0.0
 11
17834.469960328901
 21
10618.83926047659
 31
0.0
  0
LINE
  5
900
  8
____1
  6
DASHED2
 62
     7
 10
17834.469960328901
 20
10589.039260476589
 30
0.0
 11
17834.469960328901
 21
10618.83926047659
 31
0.0
  0
LINE
  5
901
  8
____1
  6
DASHED2
 62
     7
 10
17831.2699603289
 20
10589.039260476589
 30
0.0
 11
17834.469960328901
 21
10589.039260476589
 31
0.0
  0
ENDBLK
  5
902
  8
0
  0
BLOCK
  8
0
  2
C63
 70
     0
 10
0.0
 20
0.0
 30
0.0
  3
C63
  1

  0
LINE
  5
906
  8
____1
  6
DASHED2
 62
     7
 10
18132.869960328899
 20
10468.144069824029
 30
0.0
 11
18132.869960328899
 21
10479.144069824029
 31
0.0
  0
LINE
  5
907
  8
____1
  6
DASHED2
 62
     7
 10
18132.869960328899
 20
10479.144069824029
 30
0.0
 11
18132.869960328899
 21
10488.644069824029
 31
0.0
  0
LINE
  5
908
  8
____1
  6
DASHED2
 62
     7
 10
18132.869960328899
 20
10458.644069824029
 30
0.0
 11
18132.869960328899
 21
10468.144069824029
 31
0.0
  0
LINE
  5
909
  8
____1
  6
DOT
 62
     2
 10
18098.869960328899
 20
10473.644069824029
 30
0.0
 11
18134.869960328899
 21
10473.644069824029
 31
0.0
  0
LINE
  5
90A
  8
____1
  6
DASHED2
 62
     7
 10
18134.869960328899
 20
10479.144069824029
 30
0.0
 11
18098.869960328899
 21
10479.144069824029
 31
0.0
  0
LINE
  5
90B
  8
____1
  6
DASHED2
 62
     7
 10
18098.869960328899
 20
10468.144069824029
 30
0.0
 11
18134.869960328899
 21
10468.144069824029
 31
0.0
  0
LINE
  5
90C
  8
____1
  6
DASHED2
 62
     7
 10
18098.869960328899
 20
10488.644069824029
 30
0.0
 11
18098.869960328899
 21
10458.644069824029
 31
0.0
  0
LINE
  5
90D
  8
____1
  6
DASHED2
 62
     7
 10
18100.869960328899
 20
10479.144069824029
 30
0.0
 11
18100.869960328899
 21
10468.144069824029
 31
0.0
  0
LINE
  5
90E
  8
____1
  6
DASHED2
 62
     7
 10
18100.869960328899
 20
10468.144069824029
 30
0.0
 11
18100.869960328899
 21
10458.644069824029
 31
0.0
  0
LINE
  5
90F
  8
____1
  6
DASHED2
 62
     7
 10
18100.869960328899
 20
10488.644069824029
 30
0.0
 11
18100.869960328899
 21
10479.144069824029
 31
0.0
  0
ARC
  5
910
  8
____1
  6
DASHED2
 62
     7
 10
18104.869960328899
 20
10490.644069824029
 30
0.0
 40
3.0
 50
90.0
 51
180.0
  0
LINE
  5
911
  8
____1
  6
DASHED2
 62
     7
 10
18128.869960328899
 20
10493.644069824029
 30
0.0
 11
18104.869960328899
 21
10493.644069824029
 31
0.0
  0
ARC
  5
912
  8
____1
  6
DASHED2
 62
     7
 10
18128.869960328899
 20
10490.644069824029
 30
0.0
 40
3.0
 50
0.0
 51
90.0
  0
ARC
  5
913
  8
____1
  6
DASHED2
 62
     7
 10
18128.869960328899
 20
10456.644069824029
 30
0.0
 40
3.0
 50
-90.0
 51
0.0
  0
LINE
  5
914
  8
____1
  6
DASHED2
 62
     7
 10
18104.869960328899
 20
10453.644069824029
 30
0.0
 11
18128.869960328899
 21
10453.644069824029
 31
0.0
  0
ARC
  5
915
  8
____1
  6
DASHED2
 62
     7
 10
18104.869960328899
 20
10456.644069824029
 30
0.0
 40
3.0
 50
180.0
 51
-90.0
  0
LINE
  5
916
  8
____1
  6
DASHED2
 62
     7
 10
18100.869960328899
 20
10488.644069824029
 30
0.0
 11
18098.869960328899
 21
10488.644069824029
 31
0.0
  0
LINE
  5
917
  8
____1
  6
DASHED2
 62
     7
 10
18131.869960328899
 20
10489.644069824029
 30
0.0
 11
18131.869960328899
 21
10490.644069824029
 31
0.0
  0
LINE
  5
918
  8
____1
  6
DASHED2
 62
     7
 10
18134.869960328899
 20
10488.644069824029
 30
0.0
 11
18132.869960328899
 21
10488.644069824029
 31
0.0
  0
ARC
  5
919
  8
____1
  6
DASHED2
 62
     7
 10
18132.869960328899
 20
10489.644069824029
 30
0.0
 40
1.0
 50
180.0
 51
-90.0
  0
LINE
  5
91A
  8
____1
  6
DASHED2
 62
     7
 10
18132.869960328899
 20
10458.644069824029
 30
0.0
 11
18134.869960328899
 21
10458.644069824029
 31
0.0
  0
LINE
  5
91B
  8
____1
  6
DASHED2
 62
     7
 10
18131.869960328899
 20
10456.644069824029
 30
0.0
 11
18131.869960328899
 21
10457.644069824029
 31
0.0
  0
ARC
  5
91C
  8
____1
  6
DASHED2
 62
     7
 10
18132.869960328899
 20
10457.644069824029
 30
0.0
 40
1.0
 50
90.0
 51
180.0
  0
LINE
  5
91D
  8
____1
  6
DASHED2
 62
     7
 10
18101.869960328899
 20
10457.644069824029
 30
0.0
 11
18101.869960328899
 21
10456.644069824029
 31
0.0
  0
LINE
  5
91E
  8
____1
  6
DASHED2
 62
     7
 10
18098.869960328899
 20
10458.644069824029
 30
0.0
 11
18100.869960328899
 21
10458.644069824029
 31
0.0
  0
ARC
  5
91F
  8
____1
  6
DASHED2
 62
     7
 10
18100.869960328899
 20
10457.644069824029
 30
0.0
 40
1.0
 50
0.0
 51
90.0
  0
LINE
  5
920
  8
____1
  6
DASHED2
 62
     7
 10
18101.869960328899
 20
10490.644069824029
 30
0.0
 11
18101.869960328899
 21
10489.644069824029
 31
0.0
  0
ARC
  5
921
  8
____1
  6
DASHED2
 62
     7
 10
18100.869960328899
 20
10489.644069824029
 30
0.0
 40
1.0
 50
-90.0
 51
0.0
  0
LINE
  5
922
  8
____1
  6
DASHED2
 62
     7
 10
18134.869960328899
 20
10458.644069824029
 30
0.0
 11
18134.869960328899
 21
10488.644069824029
 31
0.0
  0
ENDBLK
  5
923
  8
0
  0
BLOCK
  8
0
  2
C64
 70
     0
 10
0.0
 20
0.0
 30
0.0
  3
C64
  1

  0
LINE
  5
927
  8
____1
  6
DASHED2
 62
     7
 10
18101.869960328899
 20
10451.644069824029
 30
0.0
 11
18111.869960328899
 21
10451.644069824029
 31
0.0
  0
LINE
  5
928
  8
____1
  6
DASHED2
 62
     7
 10
18121.869960328899
 20
10451.644069824029
 30
0.0
 11
18131.869960328899
 21
10451.644069824029
 31
0.0
  0
LINE
  5
929
  8
____1
  6
DASHED2
 62
     7
 10
18096.869960328899
 20
10468.644069824029
 30
0.0
 11
18096.869960328899
 21
10478.644069824029
 31
0.0
  0
LINE
  5
92A
  8
____1
  6
DASHED2
 62
     7
 10
18131.869960328899
 20
10468.644069824029
 30
0.0
 11
18136.869960328899
 21
10468.644069824029
 31
0.0
  0
LINE
  5
92B
  8
____1
  6
DASHED2
 62
     7
 10
18101.869960328899
 20
10449.644069824029
 30
0.0
 11
18101.869960328899
 21
10473.644069824029
 31
0.0
  0
LINE
  5
92C
  8
____1
  6
DASHED2
 62
     7
 10
18131.869960328899
 20
10449.644069824029
 30
0.0
 11
18131.869960328899
 21
10473.644069824029
 31
0.0
  0
LINE
  5
92D
  8
____1
  6
DASHED2
 62
     7
 10
18096.869960328899
 20
10473.644069824029
 30
0.0
 11
18101.869960328899
 21
10473.644069824029
 31
0.0
  0
LINE
  5
92E
  8
____1
  6
DASHED2
 62
     7
 10
18131.869960328899
 20
10473.644069824029
 30
0.0
 11
18136.869960328899
 21
10473.644069824029
 31
0.0
  0
LINE
  5
92F
  8
____1
  6
DASHED2
 62
     7
 10
18111.869960328899
 20
10451.644069824029
 30
0.0
 11
18121.869960328899
 21
10451.644069824029
 31
0.0
  0
LINE
  5
930
  8
____1
  6
DASHED2
 62
     7
 10
18121.869960328899
 20
10456.644069824029
 30
0.0
 11
18121.869960328899
 21
10449.644069824029
 31
0.0
  0
LINE
  5
931
  8
____1
  6
DASHED2
 62
     7
 10
18111.869960328899
 20
10456.644069824029
 30
0.0
 11
18111.869960328899
 21
10449.644069824029
 31
0.0
  0
LINE
  5
932
  8
____1
  6
DASHED2
 62
     7
 10
18136.869960328899
 20
10468.644069824029
 30
0.0
 11
18136.869960328899
 21
10478.644069824029
 31
0.0
  0
LINE
  5
933
  8
____1
  6
DASHED2
 62
     7
 10
18096.869960328899
 20
10478.644069824029
 30
0.0
 11
18136.869960328899
 21
10478.644069824029
 31
0.0
  0
LINE
  5
934
  8
____1
  6
DASHED2
 62
     7
 10
18101.869960328899
 20
10449.644069824029
 30
0.0
 11
18131.869960328899
 21
10449.644069824029
 31
0.0
  0
LINE
  5
935
  8
____1
  6
DASHED2
 62
     7
 10
18097.016204218871
 20
10468.644069824029
 30
0.0
 11
18101.869960328899
 21
10468.644069824029
 31
0.0
  0
LINE
  5
936
  8
____1
  6
DASHED2
 62
     7
 10
18101.869960328899
 20
10468.644069824029
 30
0.0
 11
18131.869960328899
 21
10468.644069824029
 31
0.0
  0
ARC
  5
937
  8
____1
  6
DASHED2
 62
     7
 10
18116.869960328899
 20
10456.644069824029
 30
0.0
 40
5.0
 50
0.0
 51
180.0
  0
ENDBLK
  5
938
  8
0
  0
BLOCK
  8
0
  2
*D86
 70
     1
 10
0.0
 20
0.0
 30
0.0
  3
*D86
  1

  0
LINE
  5
94F
  8
____1
  6
CONTINUOUS
 62
     7
 10
19706.34516742409
 20
10130.9368069824
 30
0.0
 11
19756.34516742409
 21
10130.9368069824
 31
0.0
  0
LINE
  5
950
  8
____1
  6
CONTINUOUS
 62
     7
 10
19756.34516742409
 20
10241.1981833836
 30
0.0
 11
19756.34516742409
 21
10122.9368069824
 31
0.0
  0
LINE
  5
951
  8
____1
  6
CONTINUOUS
 62
     7
 10
19706.34516742409
 20
10241.1981833836
 30
0.0
 11
19706.34516742409
 21
10122.9368069824
 31
0.0
  0
LINE
  5
952
  8
____1
  6
CONTINUOUS
 62
     7
 10
19706.34516742409
 20
10130.9368069824
 30
0.0
 11
19666.34516742409
 21
10130.9368069824
 31
0.0
  0
SOLID
  5
953
  8
____1
  6
CONTINUOUS
 62
     7
 10
19776.34516742409
 20
10126.9368069824
 30
0.0
 11
19776.34516742409
 21
10126.9368069824
 31
0.0
 12
19756.34516742409
 22
10130.9368069824
 32
0.0
 13
19771.34516742409
 23
10130.9368069824
 33
0.0
  0
SOLID
  5
954
  8
____1
  6
CONTINUOUS
 62
     7
 10
19756.34516742409
 20
10130.9368069824
 30
0.0
 11
19771.34516742409
 21
10130.9368069824
 31
0.0
 12
19776.34516742409
 22
10134.9368069824
 32
0.0
 13
19776.34516742409
 23
10134.9368069824
 33
0.0
  0
LINE
  5
955
  8
____1
  6
CONTINUOUS
 62
     7
 10
19756.34516742409
 20
10130.9368069824
 30
0.0
 11
19796.34516742409
 21
10130.9368069824
 31
0.0
  0
TEXT
  5
956
  8
______
  6
DASHED2
 62
     7
 10
19717.09890966387
 20
10139.052547599509
 30
0.0
 40
28.222221374511719
  1
50
  7
STYLE1
  0
ENDBLK
  5
957
  8
0
  0
BLOCK
  8
0
  2
*D87
 70
     1
 10
0.0
 20
0.0
 30
0.0
  3
*D87
  1

  0
LINE
  5
95D
  8
____1
  6
CONTINUOUS
 62
     7
 10
18616.869960328899
 20
11249.198183383591
 30
0.0
 11
18616.869960328899
 21
11303.752115192639
 31
0.0
  0
LINE
  5
95E
  8
____1
  6
CONTINUOUS
 62
     7
 10
18476.869960328899
 20
11011.6981833836
 30
0.0
 11
18476.869960328899
 21
11303.752115192639
 31
0.0
  0
SOLID
  5
95F
  8
____1
  6
CONTINUOUS
 62
     7
 10
18496.869960328899
 20
11291.752115192639
 30
0.0
 11
18496.869960328899
 21
11291.752115192639
 31
0.0
 12
18476.869960328899
 22
11295.752115192639
 32
0.0
 13
18491.869960328899
 23
11295.752115192639
 33
0.0
  0
SOLID
  5
960
  8
____1
  6
CONTINUOUS
 62
     7
 10
18476.869960328899
 20
11295.752115192639
 30
0.0
 11
18491.869960328899
 21
11295.752115192639
 31
0.0
 12
18496.869960328899
 22
11299.752115192639
 32
0.0
 13
18496.869960328899
 23
11299.752115192639
 33
0.0
  0
LINE
  5
961
  8
____1
  6
CONTINUOUS
 62
     7
 10
18476.869960328899
 20
11295.752115192639
 30
0.0
 11
18546.869960328899
 21
11295.752115192639
 31
0.0
  0
SOLID
  5
962
  8
____1
  6
CONTINUOUS
 62
     7
 10
18596.869960328899
 20
11291.752115192639
 30
0.0
 11
18596.869960328899
 21
11291.752115192639
 31
0.0
 12
18601.869960328899
 22
11295.752115192639
 32
0.0
 13
18616.869960328899
 23
11295.752115192639
 33
0.0
  0
SOLID
  5
963
  8
____1
  6
CONTINUOUS
 62
     7
 10
18601.869960328899
 20
11295.752115192639
 30
0.0
 11
18616.869960328899
 21
11295.752115192639
 31
0.0
 12
18596.869960328899
 22
11299.752115192639
 32
0.0
 13
18596.869960328899
 23
11299.752115192639
 33
0.0
  0
LINE
  5
964
  8
____1
  6
CONTINUOUS
 62
     7
 10
18616.869960328899
 20
11295.752115192639
 30
0.0
 11
18546.869960328899
 21
11295.752115192639
 31
0.0
  0
TEXT
  5
965
  8
______
  6
DASHED2
 62
     7
 10
18525.703294298019
 20
11303.86785580976
 30
0.0
 40
28.222221374511719
  1
140
  7
STYLE1
  0
ENDBLK
  5
966
  8
0
  0
BLOCK
  8
0
  2
*D88
 70
     1
 10
0.0
 20
0.0
 30
0.0
  3
*D88
  1

  0
LINE
  5
96A
  8
____1
  6
CONTINUOUS
 62
     7
 10
18416.869960328899
 20
10984.43194004153
 30
0.0
 11
18416.869960328899
 21
10977.794374937361
 31
0.0
  0
LINE
  5
96B
  8
____1
  6
CONTINUOUS
 62
     7
 10
17816.869960328899
 20
10984.43194004153
 30
0.0
 11
17816.869960328899
 21
10977.794374937361
 31
0.0
  0
SOLID
  5
96C
  8
____1
  6
CONTINUOUS
 62
     7
 10
17836.869960328899
 20
10981.794374937361
 30
0.0
 11
17836.869960328899
 21
10981.794374937361
 31
0.0
 12
17816.869960328899
 22
10985.794374937361
 32
0.0
 13
17831.869960328899
 23
10985.794374937361
 33
0.0
  0
SOLID
  5
96D
  8
____1
  6
CONTINUOUS
 62
     7
 10
17816.869960328899
 20
10985.794374937361
 30
0.0
 11
17831.869960328899
 21
10985.794374937361
 31
0.0
 12
17836.869960328899
 22
10989.794374937361
 32
0.0
 13
17836.869960328899
 23
10989.794374937361
 33
0.0
  0
LINE
  5
96E
  8
____1
  6
CONTINUOUS
 62
     7
 10
17816.869960328899
 20
10985.794374937361
 30
0.0
 11
18117.619960328899
 21
10985.794374937361
 31
0.0
  0
SOLID
  5
96F
  8
____1
  6
CONTINUOUS
 62
     7
 10
18396.869960328899
 20
10981.794374937361
 30
0.0
 11
18396.869960328899
 21
10981.794374937361
 31
0.0
 12
18401.869960328899
 22
10985.794374937361
 32
0.0
 13
18416.869960328899
 23
10985.794374937361
 33
0.0
  0
SOLID
  5
970
  8
____1
  6
CONTINUOUS
 62
     7
 10
18401.869960328899
 20
10985.794374937361
 30
0.0
 11
18416.869960328899
 21
10985.794374937361
 31
0.0
 12
18396.869960328899
 22
10989.794374937361
 32
0.0
 13
18396.869960328899
 23
10989.794374937361
 33
0.0
  0
LINE
  5
971
  8
____1
  6
CONTINUOUS
 62
     7
 10
18416.869960328899
 20
10985.794374937361
 30
0.0
 11
18117.619960328899
 21
10985.794374937361
 31
0.0
  0
TEXT
  5
972
  8
______
  6
DASHED2
 62
     7
 10
18011.78663017448
 20
10993.910115554479
 30
0.0
 40
28.222221374511719
  1
□600(開口寸法)
  7
STYLE1
  0
ENDBLK
  5
973
  8
0
  0
BLOCK
  8
0
  2
C65
 70
     0
 10
0.0
 20
0.0
 30
0.0
  3
C65
  1

  0
ARC
  5
977
  8
____1
  6
DASHED2
 62
     7
 10
18476.869960328899
 20
11001.6981833836
 30
0.0
 40
6.0
 50
0.0
 51
180.0
  0
LINE
  5
978
  8
____1
  6
DASHED2
 62
     7
 10
18470.869960328899
 20
11001.6981833836
 30
0.0
 11
18470.869960328899
 21
10988.6981833836
 31
0.0
  0
ARC
  5
979
  8
____1
  6
DASHED2
 62
     7
 10
18476.869960328899
 20
10988.6981833836
 30
0.0
 40
6.0
 50
180.0
 51
0.0
  0
LINE
  5
97A
  8
____1
  6
DASHED2
 62
     7
 10
18482.869960328899
 20
11001.6981833836
 30
0.0
 11
18482.869960328899
 21
10988.6981833836
 31
0.0
  0
LINE
  5
97B
  8
____1
  6
DOT
 62
     3
 10
18476.869960328899
 20
10993.1981833836
 30
0.0
 11
18476.869960328899
 21
10997.1981833836
 31
0.0
  0
LINE
  5
97C
  8
____1
  6
DOT
 62
     3
 10
18474.869960328899
 20
10995.1981833836
 30
0.0
 11
18478.869960328899
 21
10995.1981833836
 31
0.0
  0
LINE
  5
97D
  8
____1
  6
DASHED2
 62
     7
 10
18493.1402559528
 20
10970.1981833836
 30
0.0
 11
18493.1402559528
 21
11020.1981833836
 31
0.0
  0
LINE
  5
97E
  8
____1
  6
DASHED2
 62
     7
 10
18497.70628430308
 20
11020.1981833836
 30
0.0
 11
18497.70628430308
 21
10970.1981833836
 31
0.0
  0
LINE
  5
97F
  8
____1
  6
DASHED2
 62
     7
 10
18462.369960328899
 20
11020.1981833836
 30
0.0
 11
18517.370902839699
 21
11020.1981833836
 31
0.0
  0
LINE
  5
980
  8
____1
  6
DASHED2
 62
     7
 10
18517.370902839699
 20
11020.1981833836
 30
0.0
 11
18517.370902839699
 21
10970.1981833836
 31
0.0
  0
LINE
  5
981
  8
____1
  6
DASHED2
 62
     7
 10
18462.369960328899
 20
10970.1981833836
 30
0.0
 11
18517.370902839699
 21
10970.1981833836
 31
0.0
  0
ARC
  5
982
  8
____1
  6
DASHED2
 62
     7
 10
18462.369960328899
 20
11017.1981833836
 30
0.0
 40
3.0
 50
90.0
 51
180.0
  0
ARC
  5
983
  8
____1
  6
DASHED2
 62
     7
 10
18462.369960328899
 20
10973.1981833836
 30
0.0
 40
3.0
 50
180.0
 51
-90.0
  0
LINE
  5
984
  8
____1
  6
DASHED2
 62
     7
 10
18459.369960328899
 20
10973.1981833836
 30
0.0
 11
18459.369960328899
 21
11017.1981833836
 31
0.0
  0
LINE
  5
985
  8
____1
  6
DASHED2
 62
     7
 10
18498.882979033711
 20
11020.1981833836
 30
0.0
 11
18498.882979033711
 21
10970.1981833836
 31
0.0
  0
ENDBLK
  5
986
  8
0
  0
BLOCK
  8
0
  2
C66
 70
     0
 10
0.0
 20
0.0
 30
0.0
  3
C66
  1

  0
CIRCLE
  5
98A
  8
____1
  6
CONTINUOUS
 62
     7
 10
18062.666666666672
 20
11405.15457044126
 30
0.0
 40
28.0
  0
TEXT
  5
98B
  8
____1
  6
DASHED2
 62
     7
 10
18055.61111132304
 20
11395.159200371119
 30
0.0
 40
28.222221374511719
  1
3
  7
STYLE1
  0
LINE
  5
98C
  8
______
  6
CONTINUOUS
 62
     7
 10
18016.0
 20
11405.15457044126
 30
0.0
 11
18034.666666666661
 21
11405.15457044126
 31
0.0
  0
LINE
  5
98D
  8
______
  6
CONTINUOUS
 62
     7
 10
17929.416028050571
 20
11058.6981833836
 30
0.0
 11
18016.0
 21
11405.15457044126
 31
0.0
  0
SOLID
  5
98E
  8
______
 62
     7
 10
17929.416028050571
 20
11058.6981833836
 30
0.0
 11
17933.296002578209
 21
11065.97456968896
 31
0.0
 12
17929.416028050571
 22
11058.6981833836
 32
0.0
 13
17930.87076542795
 23
11064.51915745696
 33
0.0
  0
SOLID
  5
98F
  8
______
 62
     7
 10
17930.87076542795
 20
11064.51915745696
 30
0.0
 11
17929.41535319596
 21
11066.944394607221
 31
0.0
 12
17929.416028050571
 22
11058.6981833836
 32
0.0
 13
17929.416028050571
 23
11058.6981833836
 33
0.0
  0
ENDBLK
  5
990
  8
0
  0
BLOCK
  8
0
  2
C67
 70
     0
 10
0.0
 20
0.0
 30
0.0
  3
C67
  1

  0
LINE
  5
994
  8
____1
  6
DASHED2
 62
     7
 10
18286.86979524848
 20
11046.6981833836
 30
0.0
 11
18350.86979524848
 21
11046.6981833836
 31
0.0
  0
LINE
  5
995
  8
____1
  6
DASHED2
 62
     7
 10
18286.86979524848
 20
11049.6981833836
 30
0.0
 11
18350.86979524848
 21
11049.6981833836
 31
0.0
  0
LINE
  5
996
  8
____1
  6
DASHED2
 62
     7
 10
18286.86979524848
 20
11055.698183383591
 30
0.0
 11
18350.86979524848
 21
11055.698183383591
 31
0.0
  0
LINE
  5
997
  8
____1
  6
DASHED2
 62
     7
 10
18286.86979524848
 20
11058.6981833836
 30
0.0
 11
18350.86979524848
 21
11058.6981833836
 31
0.0
  0
LINE
  5
998
  8
____1
  6
DASHED2
 62
     7
 10
18325.269795248481
 20
11049.6981833836
 30
0.0
 11
18325.269795248481
 21
11055.698183383591
 31
0.0
  0
LINE
  5
999
  8
____1
  6
DASHED2
 62
     7
 10
18338.069795248481
 20
11049.6981833836
 30
0.0
 11
18338.069795248481
 21
11055.698183383591
 31
0.0
  0
LINE
  5
99A
  8
____1
  6
DASHED2
 62
     7
 10
18286.86979524848
 20
11058.6981833836
 30
0.0
 11
18286.86979524848
 21
11046.6981833836
 31
0.0
  0
LINE
  5
99B
  8
____1
  6
DASHED2
 62
     7
 10
18350.86979524848
 20
11058.6981833836
 30
0.0
 11
18350.86979524848
 21
11046.6981833836
 31
0.0
  0
ARC
  5
99C
  8
____1
  6
DASHED2
 62
     7
 10
18341.831846530538
 20
11052.6981833836
 30
0.0
 40
9.9999999999965699
 50
-25.338541490960839
 51
25.338541490960839
  0
ARC
  5
99D
  8
____1
  6
DASHED2
 62
     7
 10
18295.907743966429
 20
11052.6981833836
 30
0.0
 40
9.9999999999965699
 50
154.66145850903911
 51
-154.66145850903911
  0
LINE
  5
99E
  8
____1
  6
DASHED2
 62
     7
 10
18299.66979524849
 20
11049.6981833836
 30
0.0
 11
18299.66979524849
 21
11055.698183383591
 31
0.0
  0
LINE
  5
99F
  8
____1
  6
DASHED2
 62
     7
 10
18312.469795248478
 20
11049.6981833836
 30
0.0
 11
18312.469795248478
 21
11055.698183383591
 31
0.0
  0
ENDBLK
  5
9A0
  8
0
  0
BLOCK
  8
0
  2
C68
 70
     0
 10
0.0
 20
0.0
 30
0.0
  3
C68
  1

  0
LINE
  5
9A4
  8
____1
  6
DASHED2
 62
     7
 10
17882.86979524848
 20
11046.6981833836
 30
0.0
 11
17946.86979524848
 21
11046.6981833836
 31
0.0
  0
LINE
  5
9A5
  8
____1
  6
DASHED2
 62
     7
 10
17882.86979524848
 20
11049.6981833836
 30
0.0
 11
17946.86979524848
 21
11049.6981833836
 31
0.0
  0
LINE
  5
9A6
  8
____1
  6
DASHED2
 62
     7
 10
17882.86979524848
 20
11055.698183383591
 30
0.0
 11
17946.86979524848
 21
11055.698183383591
 31
0.0
  0
LINE
  5
9A7
  8
____1
  6
DASHED2
 62
     7
 10
17882.86979524848
 20
11058.6981833836
 30
0.0
 11
17946.86979524848
 21
11058.6981833836
 31
0.0
  0
LINE
  5
9A8
  8
____1
  6
DASHED2
 62
     7
 10
17921.269795248481
 20
11049.6981833836
 30
0.0
 11
17921.269795248481
 21
11055.698183383591
 31
0.0
  0
LINE
  5
9A9
  8
____1
  6
DASHED2
 62
     7
 10
17934.069795248481
 20
11049.6981833836
 30
0.0
 11
17934.069795248481
 21
11055.698183383591
 31
0.0
  0
LINE
  5
9AA
  8
____1
  6
DASHED2
 62
     7
 10
17882.86979524848
 20
11058.6981833836
 30
0.0
 11
17882.86979524848
 21
11046.6981833836
 31
0.0
  0
LINE
  5
9AB
  8
____1
  6
DASHED2
 62
     7
 10
17946.86979524848
 20
11058.6981833836
 30
0.0
 11
17946.86979524848
 21
11046.6981833836
 31
0.0
  0
ARC
  5
9AC
  8
____1
  6
DASHED2
 62
     7
 10
17937.831846530538
 20
11052.6981833836
 30
0.0
 40
9.9999999999965699
 50
-25.338541490960839
 51
25.338541490960839
  0
ARC
  5
9AD
  8
____1
  6
DASHED2
 62
     7
 10
17891.907743966429
 20
11052.6981833836
 30
0.0
 40
9.9999999999965699
 50
154.66145850903911
 51
-154.66145850903911
  0
LINE
  5
9AE
  8
____1
  6
DASHED2
 62
     7
 10
17895.669795248479
 20
11049.6981833836
 30
0.0
 11
17895.669795248479
 21
11055.698183383591
 31
0.0
  0
LINE
  5
9AF
  8
____1
  6
DASHED2
 62
     7
 10
17908.469795248478
 20
11049.6981833836
 30
0.0
 11
17908.469795248478
 21
11055.698183383591
 31
0.0
  0
ENDBLK
  5
9B0
  8
0
  0
BLOCK
  8
0
  2
*D93
 70
     1
 10
0.0
 20
0.0
 30
0.0
  3
*D93
  1

  0
LINE
  5
9DF
  8
____1
  6
CONTINUOUS
 62
     7
 10
19676.34516742409
 20
10130.9368069824
 30
0.0
 11
19706.34516742409
 21
10130.9368069824
 31
0.0
  0
LINE
  5
9E0
  8
____1
  6
CONTINUOUS
 62
     7
 10
19706.34516742409
 20
10241.1981833836
 30
0.0
 11
19706.34516742409
 21
10122.9368069824
 31
0.0
  0
LINE
  5
9E1
  8
____1
  6
CONTINUOUS
 62
     7
 10
19676.34516742409
 20
10391.1981833836
 30
0.0
 11
19676.34516742409
 21
10122.9368069824
 31
0.0
  0
SOLID
  5
9E2
  8
____1
  6
CONTINUOUS
 62
     7
 10
19675.59516742409
 20
10127.9368069824
 30
0.0
 11
19677.09516742409
 21
10127.9368069824
 31
0.0
 12
19674.09516742409
 22
10128.6868069824
 32
0.0
 13
19678.59516742409
 23
10128.6868069824
 33
0.0
  0
SOLID
  5
9E3
  8
____1
  6
CONTINUOUS
 62
     7
 10
19674.09516742409
 20
10128.6868069824
 30
0.0
 11
19678.59516742409
 21
10128.6868069824
 31
0.0
 12
19673.34516742409
 22
10130.1868069824
 32
0.0
 13
19679.34516742409
 23
10130.1868069824
 33
0.0
  0
SOLID
  5
9E4
  8
____1
  6
CONTINUOUS
 62
     7
 10
19673.34516742409
 20
10130.1868069824
 30
0.0
 11
19679.34516742409
 21
10130.1868069824
 31
0.0
 12
19673.34516742409
 22
10131.6868069824
 32
0.0
 13
19679.34516742409
 23
10131.6868069824
 33
0.0
  0
SOLID
  5
9E5
  8
____1
  6
CONTINUOUS
 62
     7
 10
19673.34516742409
 20
10131.6868069824
 30
0.0
 11
19679.34516742409
 21
10131.6868069824
 31
0.0
 12
19674.09516742409
 22
10133.1868069824
 32
0.0
 13
19678.59516742409
 23
10133.1868069824
 33
0.0
  0
SOLID
  5
9E6
  8
____1
  6
CONTINUOUS
 62
     7
 10
19674.09516742409
 20
10133.1868069824
 30
0.0
 11
19678.59516742409
 21
10133.1868069824
 31
0.0
 12
19675.59516742409
 22
10133.9368069824
 32
0.0
 13
19677.09516742409
 23
10133.9368069824
 33
0.0
  0
LINE
  5
9E7
  8
____1
  6
CONTINUOUS
 62
     7
 10
19676.34516742409
 20
10130.9368069824
 30
0.0
 11
19636.34516742409
 21
10130.9368069824
 31
0.0
  0
SOLID
  5
9E8
  8
____1
  6
CONTINUOUS
 62
     7
 10
19705.59516742409
 20
10127.9368069824
 30
0.0
 11
19707.09516742409
 21
10127.9368069824
 31
0.0
 12
19704.09516742409
 22
10128.6868069824
 32
0.0
 13
19708.59516742409
 23
10128.6868069824
 33
0.0
  0
SOLID
  5
9E9
  8
____1
  6
CONTINUOUS
 62
     7
 10
19704.09516742409
 20
10128.6868069824
 30
0.0
 11
19708.59516742409
 21
10128.6868069824
 31
0.0
 12
19703.34516742409
 22
10130.1868069824
 32
0.0
 13
19709.34516742409
 23
10130.1868069824
 33
0.0
  0
SOLID
  5
9EA
  8
____1
  6
CONTINUOUS
 62
     7
 10
19703.34516742409
 20
10130.1868069824
 30
0.0
 11
19709.34516742409
 21
10130.1868069824
 31
0.0
 12
19703.34516742409
 22
10131.6868069824
 32
0.0
 13
19709.34516742409
 23
10131.6868069824
 33
0.0
  0
SOLID
  5
9EB
  8
____1
  6
CONTINUOUS
 62
     7
 10
19703.34516742409
 20
10131.6868069824
 30
0.0
 11
19709.34516742409
 21
10131.6868069824
 31
0.0
 12
19704.09516742409
 22
10133.1868069824
 32
0.0
 13
19708.59516742409
 23
10133.1868069824
 33
0.0
  0
SOLID
  5
9EC
  8
____1
  6
CONTINUOUS
 62
     7
 10
19704.09516742409
 20
10133.1868069824
 30
0.0
 11
19708.59516742409
 21
10133.1868069824
 31
0.0
 12
19705.59516742409
 22
10133.9368069824
 32
0.0
 13
19707.09516742409
 23
10133.9368069824
 33
0.0
  0
LINE
  5
9ED
  8
____1
  6
CONTINUOUS
 62
     7
 10
19706.34516742409
 20
10130.9368069824
 30
0.0
 11
19746.34516742409
 21
10130.9368069824
 31
0.0
  0
TEXT
  5
9EE
  8
______
  6
DASHED2
 62
     7
 10
19677.234056736841
 20
10139.052547599509
 30
0.0
 40
28.222221374511719
  1
30
  7
STYLE1
  0
ENDBLK
  5
9EF
  8
0
  0
BLOCK
  8
0
  2
*D94
 70
     1
 10
0.0
 20
0.0
 30
0.0
  3
*D94
  1

  0
LINE
  5
9F3
  8
____1
  6
CONTINUOUS
 62
     7
 10
19668.75525657797
 20
10130.94086599091
 30
0.0
 11
19676.34516742409
 21
10130.94086599091
 31
0.0
  0
LINE
  5
9F4
  8
____1
  6
CONTINUOUS
 62
     7
 10
19676.34516742409
 20
10391.346712653991
 30
0.0
 11
19676.34516742409
 21
10122.94086599091
 31
0.0
  0
LINE
  5
9F5
  8
____1
  6
CONTINUOUS
 62
     7
 10
19668.75525657797
 20
10416.20224239211
 30
0.0
 11
19668.75525657797
 21
10122.94086599091
 31
0.0
  0
SOLID
  5
9F6
  8
____1
  6
CONTINUOUS
 62
     7
 10
19668.00525657797
 20
10127.94086599091
 30
0.0
 11
19669.505256577959
 21
10127.94086599091
 31
0.0
 12
19666.505256577959
 22
10128.69086599091
 32
0.0
 13
19671.005256577959
 23
10128.69086599091
 33
0.0
  0
SOLID
  5
9F7
  8
____1
  6
CONTINUOUS
 62
     7
 10
19666.505256577959
 20
10128.69086599091
 30
0.0
 11
19671.005256577959
 21
10128.69086599091
 31
0.0
 12
19665.75525657797
 22
10130.19086599091
 32
0.0
 13
19671.75525657797
 23
10130.19086599091
 33
0.0
  0
SOLID
  5
9F8
  8
____1
  6
CONTINUOUS
 62
     7
 10
19665.75525657797
 20
10130.19086599091
 30
0.0
 11
19671.75525657797
 21
10130.19086599091
 31
0.0
 12
19665.75525657797
 22
10131.69086599091
 32
0.0
 13
19671.75525657797
 23
10131.69086599091
 33
0.0
  0
SOLID
  5
9F9
  8
____1
  6
CONTINUOUS
 62
     7
 10
19665.75525657797
 20
10131.69086599091
 30
0.0
 11
19671.75525657797
 21
10131.69086599091
 31
0.0
 12
19666.505256577959
 22
10133.19086599091
 32
0.0
 13
19671.005256577959
 23
10133.19086599091
 33
0.0
  0
SOLID
  5
9FA
  8
____1
  6
CONTINUOUS
 62
     7
 10
19666.505256577959
 20
10133.19086599091
 30
0.0
 11
19671.005256577959
 21
10133.19086599091
 31
0.0
 12
19668.00525657797
 22
10133.94086599091
 32
0.0
 13
19669.505256577959
 23
10133.94086599091
 33
0.0
  0
LINE
  5
9FB
  8
____1
  6
CONTINUOUS
 62
     7
 10
19668.75525657797
 20
10130.94086599091
 30
0.0
 11
19628.755256577959
 21
10130.94086599091
 31
0.0
  0
SOLID
  5
9FC
  8
____1
  6
CONTINUOUS
 62
     7
 10
19675.59516742409
 20
10127.94086599091
 30
0.0
 11
19677.09516742409
 21
10127.94086599091
 31
0.0
 12
19674.09516742409
 22
10128.69086599091
 32
0.0
 13
19678.59516742409
 23
10128.69086599091
 33
0.0
  0
SOLID
  5
9FD
  8
____1
  6
CONTINUOUS
 62
     7
 10
19674.09516742409
 20
10128.69086599091
 30
0.0
 11
19678.59516742409
 21
10128.69086599091
 31
0.0
 12
19673.34516742409
 22
10130.19086599091
 32
0.0
 13
19679.34516742409
 23
10130.19086599091
 33
0.0
  0
SOLID
  5
9FE
  8
____1
  6
CONTINUOUS
 62
     7
 10
19673.34516742409
 20
10130.19086599091
 30
0.0
 11
19679.34516742409
 21
10130.19086599091
 31
0.0
 12
19673.34516742409
 22
10131.69086599091
 32
0.0
 13
19679.34516742409
 23
10131.69086599091
 33
0.0
  0
SOLID
  5
9FF
  8
____1
  6
CONTINUOUS
 62
     7
 10
19673.34516742409
 20
10131.69086599091
 30
0.0
 11
19679.34516742409
 21
10131.69086599091
 31
0.0
 12
19674.09516742409
 22
10133.19086599091
 32
0.0
 13
19678.59516742409
 23
10133.19086599091
 33
0.0
  0
SOLID
  5
A00
  8
____1
  6
CONTINUOUS
 62
     7
 10
19674.09516742409
 20
10133.19086599091
 30
0.0
 11
19678.59516742409
 21
10133.19086599091
 31
0.0
 12
19675.59516742409
 22
10133.94086599091
 32
0.0
 13
19677.09516742409
 23
10133.94086599091
 33
0.0
  0
LINE
  5
A01
  8
____1
  6
CONTINUOUS
 62
     7
 10
19676.34516742409
 20
10130.94086599091
 30
0.0
 11
19716.34516742409
 21
10130.94086599091
 31
0.0
  0
ENDBLK
  5
A02
  8
0
  0
BLOCK
  8
0
  2
*D95
 70
     1
 10
0.0
 20
0.0
 30
0.0
  3
*D95
  1

  0
LINE
  5
A06
  8
____1
  6
CONTINUOUS
 62
     7
 10
19623.274780794862
 20
10130.9368069824
 30
0.0
 11
19668.755258597041
 21
10130.9368069824
 31
0.0
  0
LINE
  5
A07
  8
____1
  6
CONTINUOUS
 62
     7
 10
19668.755258597041
 20
10416.199781247709
 30
0.0
 11
19668.755258597041
 21
10122.9368069824
 31
0.0
  0
LINE
  5
A08
  8
____1
  6
CONTINUOUS
 62
     7
 10
19623.274780794862
 20
10414.627617593769
 30
0.0
 11
19623.274780794862
 21
10122.9368069824
 31
0.0
  0
SOLID
  5
A09
  8
____1
  6
CONTINUOUS
 62
     7
 10
19603.274780794862
 20
10126.9368069824
 30
0.0
 11
19603.274780794862
 21
10126.9368069824
 31
0.0
 12
19608.274780794862
 22
10130.9368069824
 32
0.0
 13
19623.274780794862
 23
10130.9368069824
 33
0.0
  0
SOLID
  5
A0A
  8
____1
  6
CONTINUOUS
 62
     7
 10
19608.274780794862
 20
10130.9368069824
 30
0.0
 11
19623.274780794862
 21
10130.9368069824
 31
0.0
 12
19603.274780794862
 22
10134.9368069824
 32
0.0
 13
19603.274780794862
 23
10134.9368069824
 33
0.0
  0
LINE
  5
A0B
  8
____1
  6
CONTINUOUS
 62
     7
 10
19623.274780794862
 20
10130.9368069824
 30
0.0
 11
19538.693144284909
 21
10130.9368069824
 31
0.0
  0
LINE
  5
A0C
  8
____1
  6
CONTINUOUS
 62
     7
 10
19668.755258597041
 20
10130.9368069824
 30
0.0
 11
19708.755258597041
 21
10130.9368069824
 31
0.0
  0
TEXT
  5
A0D
  8
______
  6
DASHED2
 62
     7
 10
19552.804254972161
 20
10139.052547599509
 30
0.0
 40
28.222221374511719
  1
45.5
  7
STYLE1
  0
ENDBLK
  5
A0E
  8
0
  0
BLOCK
  8
0
  2
C69
 70
     0
 10
0.0
 20
0.0
 30
0.0
  3
C69
  1

  0
LINE
  5
A25
  8
____1
  6
DASHED2
 62
     7
 10
19636.34891925758
 20
10608.624643228981
 30
0.0
 11
19637.84891925758
 21
10608.624643228981
 31
0.0
  0
LINE
  5
A26
  8
____1
  6
DASHED2
 62
     7
 10
19659.363674379922
 20
10620.16736615849
 30
0.0
 11
19659.365505410511
 21
10618.66736727605
 31
0.0
  0
LINE
  5
A27
  8
____1
  6
DASHED2
 62
     7
 10
19625.847220063421
 20
10633.62646308398
 30
0.0
 11
19668.110942053441
 21
10626.39272771881
 31
0.0
  0
LINE
  5
A28
  8
____1
  6
DASHED2
 62
     7
 10
19669.35788515861
 20
10624.916058572329
 30
0.0
 11
19669.373110761619
 21
10612.44308972095
 31
0.0
  0
LINE
  5
A29
  8
____1
  6
DASHED2
 62
     7
 10
19668.12977647168
 20
10610.963380722809
 30
0.0
 11
19625.8838406752
 21
10603.62648543515
 31
0.0
  0
LINE
  5
A2A
  8
____1
  6
DASHED2
 62
     7
 10
19625.847220063421
 20
10633.62646308398
 30
0.0
 11
19624.347221180979
 21
10633.624632053399
 31
0.0
  0
LINE
  5
A2B
  8
____1
  6
DASHED2
 62
     7
 10
19665.372825062641
 20
10612.674695868631
 30
0.0
 11
19667.872823200039
 21
10612.67774758628
 31
0.0
  0
ARC
  5
A2C
  8
____1
  6
DASHED2
 62
     7
 10
19665.36366990969
 20
10620.17469028085
 30
0.0
 40
6.000000000000405
 50
90.069940233926118
 51
-179.93005976603911
  0
LINE
  5
A2D
  8
____1
  6
DASHED2
 62
     7
 10
19660.865504292949
 20
10618.669198306639
 30
0.0
 11
19660.867335323539
 21
10617.169199424199
 31
0.0
  0
LINE
  5
A2E
  8
____1
  6
DASHED2
 62
     7
 10
19660.86367326236
 20
10620.16919718908
 30
0.0
 11
19660.865504292949
 21
10618.669198306639
 31
0.0
  0
ARC
  5
A2F
  8
____1
  6
DASHED2
 62
     7
 10
19665.367331970869
 20
10617.17469251596
 30
0.0
 40
4.5000000000003073
 50
-179.9300597660507
 51
-89.930059766004447
  0
LINE
  5
A30
  8
____1
  6
DASHED2
 62
     7
 10
19659.365505410511
 20
10618.66736727605
 30
0.0
 11
19659.367336441101
 21
10617.16736839361
 31
0.0
  0
LINE
  5
A31
  8
____1
  6
DASHED2
 62
     7
 10
19625.847220063421
 20
10633.62646308398
 30
0.0
 11
19625.8838406752
 21
10603.62648543515
 31
0.0
  0
LINE
  5
A32
  8
____1
  6
DASHED2
 62
     7
 10
19665.37465609322
 20
10611.174696986191
 30
0.0
 11
19667.874654230629
 21
10611.17774870384
 31
0.0
  0
LINE
  5
A33
  8
____1
  6
DASHED2
 62
     7
 10
19625.8838406752
 20
10603.62648543515
 30
0.0
 11
19624.383841792751
 21
10603.624654404561
 31
0.0
  0
LINE
  5
A34
  8
____1
  6
DASHED2
 62
     7
 10
19624.347221180979
 20
10633.624632053399
 30
0.0
 11
19624.383841792751
 21
10603.624654404561
 31
0.0
  0
LINE
  5
A35
  8
____1
  6
DASHED2
 62
     7
 10
19665.358176817928
 20
10624.674686928171
 30
0.0
 11
19667.85817495533
 21
10624.67773864582
 31
0.0
  0
ARC
  5
A36
  8
____1
  6
DASHED2
 62
     7
 10
19665.367331970869
 20
10617.17469251596
 30
0.0
 40
6.0000000000004112
 50
-179.93005976603911
 51
-89.930059766073882
  0
ARC
  5
A37
  8
____1
  6
DASHED2
 62
     7
 10
19667.85817495533
 20
10624.67773864582
 30
0.0
 40
1.4999999999964611
 50
0.0699402338568177
 51
90.069940233856826
  0
LINE
  5
A38
  8
____1
  6
DASHED2
 62
     7
 10
19667.857886276179
 20
10624.91422754174
 30
0.0
 11
19667.873111879191
 21
10612.44125869036
 31
0.0
  0
LINE
  5
A39
  8
____1
  6
DASHED2
 62
     7
 10
19665.356345787339
 20
10626.174685810611
 30
0.0
 11
19667.856343924741
 21
10626.17773752826
 31
0.0
  0
LINE
  5
A3A
  8
____1
  6
DASHED2
 62
     7
 10
19625.594164286162
 20
10632.14796290692
 30
0.0
 11
19667.857886276179
 21
10624.91422754174
 31
0.0
  0
ARC
  5
A3B
  8
____1
  6
DASHED2
 62
     7
 10
19665.36366990969
 20
10620.17469028085
 30
0.0
 40
4.500000000000302
 50
90.069940233902955
 51
-179.93005976605059
  0
LINE
  5
A3C
  8
____1
  6
DASHED2
 62
     7
 10
19667.873111879191
 20
10612.44125869036
 30
0.0
 11
19625.6271760827
 21
10605.10436340269
 31
0.0
  0
LINE
  5
A3D
  8
____1
  6
DASHED2
 62
     7
 10
19660.865504292949
 20
10618.669198306639
 30
0.0
 11
19659.365505410511
 21
10618.66736727605
 31
0.0
  0
ARC
  5
A3E
  8
____1
  6
DASHED2
 62
     7
 10
19667.857886276179
 20
10624.91422754174
 30
0.0
 40
1.499999999996465
 50
0.0699402339957782
 51
80.287533202240638
  0
ARC
  5
A3F
  8
____1
  6
DASHED2
 62
     7
 10
19667.873111879191
 20
10612.44125869036
 30
0.0
 40
1.4999999999928271
 50
-80.147652734380927
 51
0.0699402339959478
  0
ARC
  5
A40
  8
____1
  6
DASHED2
 62
     7
 10
19667.872823200039
 20
10612.67774758628
 30
0.0
 40
1.500000000000099
 50
-89.930059766143359
 51
0.0699402339959478
  0
ENDBLK
  5
A41
  8
0
  0
BLOCK
  8
0
  2
C70
 70
     0
 10
0.0
 20
0.0
 30
0.0
  3
C70
  1

  0
CIRCLE
  5
A45
  8
____1
  6
CONTINUOUS
 62
     7
 10
19656.34516742409
 20
10598.1981833836
 30
0.0
 40
6.5
  0
LINE
  5
A46
  8
____1
  6
CONTINUOUS
 62
     7
 10
19649.84516742409
 20
10601.950960133339
 30
0.0
 11
19649.84516742409
 21
10594.445406633869
 31
0.0
  0
LINE
  5
A47
  8
____1
  6
CONTINUOUS
 62
     7
 10
19656.34516742409
 20
10605.70373688307
 30
0.0
 11
19649.84516742409
 21
10601.950960133339
 31
0.0
  0
LINE
  5
A48
  8
____1
  6
CONTINUOUS
 62
     7
 10
19662.84516742409
 20
10601.950960133339
 30
0.0
 11
19656.34516742409
 21
10605.70373688307
 31
0.0
  0
LINE
  5
A49
  8
____1
  6
CONTINUOUS
 62
     7
 10
19662.84516742409
 20
10594.445406633869
 30
0.0
 11
19662.84516742409
 21
10601.950960133339
 31
0.0
  0
LINE
  5
A4A
  8
____1
  6
CONTINUOUS
 62
     7
 10
19656.34516742409
 20
10590.692629884141
 30
0.0
 11
19662.84516742409
 21
10594.445406633869
 31
0.0
  0
LINE
  5
A4B
  8
____1
  6
CONTINUOUS
 62
     7
 10
19649.84516742409
 20
10594.445406633869
 30
0.0
 11
19656.34516742409
 21
10590.692629884141
 31
0.0
  0
ENDBLK
  5
A4C
  8
0
  0
BLOCK
  8
0
  2
C71
 70
     0
 10
0.0
 20
0.0
 30
0.0
  3
C71
  1

  0
CIRCLE
  5
A55
  8
____1
  6
CONTINUOUS
 62
     7
 10
19654.96387478062
 20
10947.68482305024
 30
0.0
 40
8.0
  0
LINE
  5
A56
  8
____1
  6
CONTINUOUS
 62
     7
 10
19646.96387478062
 20
10952.30362520376
 30
0.0
 11
19646.96387478062
 21
10943.06602089672
 31
0.0
  0
LINE
  5
A57
  8
____1
  6
CONTINUOUS
 62
     7
 10
19654.96387478062
 20
10956.922427357271
 30
0.0
 11
19646.96387478062
 21
10952.30362520376
 31
0.0
  0
LINE
  5
A58
  8
____1
  6
CONTINUOUS
 62
     7
 10
19662.96387478062
 20
10952.30362520376
 30
0.0
 11
19654.96387478062
 21
10956.922427357271
 31
0.0
  0
LINE
  5
A59
  8
____1
  6
CONTINUOUS
 62
     7
 10
19662.96387478062
 20
10943.06602089672
 30
0.0
 11
19662.96387478062
 21
10952.30362520376
 31
0.0
  0
LINE
  5
A5A
  8
____1
  6
CONTINUOUS
 62
     7
 10
19654.96387478062
 20
10938.447218743209
 30
0.0
 11
19662.96387478062
 21
10943.06602089672
 31
0.0
  0
LINE
  5
A5B
  8
____1
  6
CONTINUOUS
 62
     7
 10
19646.96387478062
 20
10943.06602089672
 30
0.0
 11
19654.96387478062
 21
10938.447218743209
 31
0.0
  0
ENDBLK
  5
A5C
  8
0
  0
BLOCK
  8
0
  2
C72
 70
     0
 10
0.0
 20
0.0
 30
0.0
  3
C72
  1

  0
LINE
  5
A7E
  8
____1
  6
DASHED2
 62
     7
 10
19689.43533051807
 20
10520.1981833836
 30
0.0
 11
19689.43533051807
 21
10470.1981833836
 31
0.0
  0
LINE
  5
A7F
  8
____1
  6
DASHED2
 62
     7
 10
19687.964459851239
 20
10520.1981833836
 30
0.0
 11
19687.964459851239
 21
10470.1981833836
 31
0.0
  0
LINE
  5
A80
  8
____1
  6
DASHED2
 62
     7
 10
19684.04213714847
 20
10470.1981833836
 30
0.0
 11
19684.04213714847
 21
10520.1981833836
 31
0.0
  0
LINE
  5
A81
  8
____1
  6
DASHED2
 62
     7
 10
19708.372115873732
 20
10470.1981833836
 30
0.0
 11
19684.04213714847
 21
10470.1981833836
 31
0.0
  0
LINE
  5
A82
  8
____1
  6
DASHED2
 62
     7
 10
19708.372115873732
 20
10520.1981833836
 30
0.0
 11
19708.372115873732
 21
10470.1981833836
 31
0.0
  0
LINE
  5
A83
  8
____1
  6
DASHED2
 62
     7
 10
19684.04213714847
 20
10520.1981833836
 30
0.0
 11
19708.372115873732
 21
10520.1981833836
 31
0.0
  0
ENDBLK
  5
A84
  8
0
  0
BLOCK
  8
0
  2
C73
 70
     0
 10
0.0
 20
0.0
 30
0.0
  3
C73
  1

  0
ARC
  5
AA3
  8
____1
  6
DASHED2
 62
     7
 10
19633.169408782331
 20
10473.66642313677
 30
0.0
 40
15.000000000004659
 50
-89.930059766046099
 51
90.069940233981754
  0
ARC
  5
AA4
  8
____1
  6
DASHED2
 62
     7
 10
19633.169408782331
 20
10473.66642313677
 30
0.0
 40
5.5000000000028013
 50
-89.930059766042334
 51
90.069940233995666
  0
LINE
  5
AA5
  8
____1
  6
DASHED2
 62
     7
 10
19626.524181300909
 20
10488.65832256312
 30
0.0
 11
19626.535777827969
 21
10479.15832964099
 31
0.0
  0
LINE
  5
AA6
  8
____1
  6
DASHED2
 62
     7
 10
19626.51807786561
 20
10493.65831883793
 30
0.0
 11
19626.524181300909
 21
10488.65832256312
 31
0.0
  0
LINE
  5
AA7
  8
____1
  6
DASHED2
 62
     7
 10
19626.560801912681
 20
10458.65834491428
 30
0.0
 11
19626.56690534798
 21
10453.658348639479
 31
0.0
  0
LINE
  5
AA8
  8
____1
  6
DASHED2
 62
     7
 10
19624.535779318048
 20
10479.155888266871
 30
0.0
 11
19633.162695003499
 21
10479.166419039049
 31
0.0
  0
LINE
  5
AA9
  8
____1
  6
DASHED2
 62
     7
 10
19624.549206875701
 20
10468.1558964623
 30
0.0
 11
19633.176122561152
 21
10468.166427234481
 31
0.0
  0
LINE
  5
AAA
  8
____1
  6
DASHED2
 62
     7
 10
19633.151098476439
 20
10488.66641196118
 30
0.0
 11
19624.524182790981
 21
10488.655881189001
 31
0.0
  0
LINE
  5
AAB
  8
____1
  6
DASHED2
 62
     7
 10
19624.560803402761
 20
10458.65590354017
 30
0.0
 11
19633.187719088211
 21
10458.66643431235
 31
0.0
  0
LINE
  5
AAC
  8
____1
  6
DASHED2
 62
     7
 10
19624.549206875701
 20
10468.1558964623
 30
0.0
 11
19624.566906838059
 21
10453.65590726536
 31
0.0
  0
LINE
  5
AAD
  8
____1
  6
DASHED2
 62
     7
 10
19624.566906838059
 20
10453.65590726536
 30
0.0
 11
19626.56690534798
 21
10453.658348639479
 31
0.0
  0
LINE
  5
AAE
  8
____1
  6
DASHED2
 62
     7
 10
19626.51807786561
 20
10493.65831883793
 30
0.0
 11
19624.51807935569
 21
10493.655877463811
 31
0.0
  0
LINE
  5
AAF
  8
____1
  6
DASHED2
 62
     7
 10
19624.51807935569
 20
10493.655877463811
 30
0.0
 11
19624.535779318048
 21
10479.155888266871
 31
0.0
  0
LINE
  5
AB0
  8
____1
  6
DASHED2
 62
     7
 10
19626.549205385621
 20
10468.158337836419
 30
0.0
 11
19626.560801912681
 21
10458.65834491428
 31
0.0
  0
ENDBLK
  5
AB1
  8
0
  0
BLOCK
  8
0
  2
C74
 70
     0
 10
0.0
 20
0.0
 30
0.0
  3
C74
  1

  0
LINE
  5
AB5
  8
____1
  6
DASHED2
 62
     7
 10
19673.432928924249
 20
10451.715555940509
 30
0.0
 11
19702.14695429385
 21
10459.447035545611
 31
0.0
  0
LINE
  5
AB6
  8
____1
  6
DASHED2
 62
     7
 10
19673.698675097359
 20
10449.71587884359
 30
0.0
 11
19702.666950184699
 21
10457.515817206449
 31
0.0
  0
LINE
  5
AB7
  8
____1
  6
DASHED2
 62
     7
 10
19673.698675097359
 20
10449.71587884359
 30
0.0
 11
19630.698707134041
 21
10449.663389300051
 31
0.0
  0
LINE
  5
AB8
  8
____1
  6
DASHED2
 62
     7
 10
19668.698678822559
 20
10449.709775408301
 30
0.0
 11
19668.696237448439
 21
10451.709773918221
 31
0.0
  0
LINE
  5
AB9
  8
____1
  6
DASHED2
 62
     7
 10
19630.684058889321
 20
10461.663380359591
 30
0.0
 11
19628.684060379401
 21
10461.660938985469
 31
0.0
  0
LINE
  5
ABA
  8
____1
  6
DASHED2
 62
     7
 10
19628.696267249052
 20
10451.66094721099
 30
0.0
 11
19628.669412134692
 21
10473.660930045
 31
0.0
  0
LINE
  5
ABB
  8
____1
  6
DASHED2
 62
     7
 10
19702.14695429385
 20
10459.447035545611
 30
0.0
 11
19702.666950184699
 21
10457.515817206449
 31
0.0
  0
LINE
  5
ABC
  8
____1
  6
DASHED2
 62
     7
 10
19630.669410644608
 20
10473.663371419119
 30
0.0
 11
19630.696265759911
 21
10451.663387809969
 31
0.0
  0
LINE
  5
ABD
  8
____1
  6
DASHED2
 62
     7
 10
19630.669410644608
 20
10473.663371419119
 30
0.0
 11
19628.669412134692
 21
10473.660930045
 31
0.0
  0
LINE
  5
ABE
  8
____1
  6
DASHED2
 62
     7
 10
19631.86688933726
 20
10471.268924851771
 30
0.0
 11
19630.665209955769
 21
10469.670185766079
 31
0.0
  0
ARC
  5
ABF
  8
____1
  6
DASHED2
 62
     7
 10
19633.6694084095
 20
10473.6670334803
 30
0.0
 40
5.0000000000030722
 50
-126.9300597660303
 51
-179.9300597660044
  0
ARC
  5
AC0
  8
____1
  6
DASHED2
 62
     7
 10
19633.6694084095
 20
10473.6670334803
 30
0.0
 40
2.9999999999998059
 50
-126.9300597660248
 51
-179.93005976600429
  0
LINE
  5
AC1
  8
____1
  6
DASHED2
 62
     7
 10
19628.696267249052
 20
10451.66094721099
 30
0.0
 11
19628.669412134692
 21
10473.660930045
 31
0.0
  0
ARC
  5
AC2
  8
____1
  6
DASHED2
 62
     7
 10
19630.696265759911
 20
10451.663387809969
 30
0.0
 40
1.9999999999975411
 50
-179.93008197195209
 51
-89.930059765900097
  0
LINE
  5
AC3
  8
____1
  6
DASHED2
 62
     7
 10
19673.432928924249
 20
10451.715555940509
 30
0.0
 11
19630.696265759911
 21
10451.663387809969
 31
0.0
  0
ENDBLK
  5
AC4
  8
0
  0
BLOCK
  8
0
  2
C75
 70
     0
 10
0.0
 20
0.0
 30
0.0
  3
C75
  1

  0
INSERT
  5
AD3
  8
____1
  6
DASHED2
 62
     7
  2
C76
 10
0.0
 20
0.0
 30
0.0
  0
ENDBLK
  5
AD4
  8
0
  0
BLOCK
  8
0
  2
C76
 70
     0
 10
0.0
 20
0.0
 30
0.0
  3
C76
  1

  0
LINE
  5
ACA
  8
____1
  6
DASHED2
 62
     7
 10
19658.89332104494
 20
10443.6981833836
 30
0.0
 11
19664.51258249328
 21
10443.6981833836
 31
0.0
  0
LINE
  5
ACB
  8
____1
  6
DASHED2
 62
     7
 10
19642.035536699921
 20
10443.6981833836
 30
0.0
 11
19647.654798148262
 21
10443.6981833836
 31
0.0
  0
ARC
  5
ACC
  8
____1
  6
DASHED2
 62
     7
 10
19660.197914256329
 20
10457.1981833836
 30
0.0
 40
5.0000000000002851
 50
-27.15232553757431
 51
152.8477345665323
  0
ARC
  5
ACD
  8
____1
  6
DASHED2
 62
     7
 10
19660.197914256329
 20
10457.1981833836
 30
0.0
 40
10.00000000000057
 50
-27.152325537583351
 51
152.8477345665323
  0
LINE
  5
ACE
  8
____1
  6
DASHED2
 62
     7
 10
19664.646895088121
 20
10454.916392517131
 30
0.0
 11
19658.89332104494
 21
10443.6981833836
 31
0.0
  0
LINE
  5
ACF
  8
____1
  6
DASHED2
 62
     7
 10
19655.748928637269
 20
10459.47996491597
 30
0.0
 11
19647.654798148262
 21
10443.6981833836
 31
0.0
  0
LINE
  5
AD0
  8
____1
  6
DASHED2
 62
     7
 10
19669.09587831355
 20
10452.63460631771
 30
0.0
 11
19664.51258249328
 21
10443.6981833836
 31
0.0
  0
LINE
  5
AD1
  8
____1
  6
DASHED2
 62
     7
 10
19651.29994541184
 20
10461.761751115389
 30
0.0
 11
19642.035536699921
 21
10443.6981833836
 31
0.0
  0
ENDBLK
  5
AD2
  8
0
  0
BLOCK
  8
0
  2
C77
 70
     0
 10
0.0
 20
0.0
 30
0.0
  3
C77
  1

  0
LINE
  5
ADA
  8
____1
  6
DASHED2
 62
     7
 10
19666.2910902449
 20
10883.53687444957
 30
0.0
 11
19644.291240376999
 21
10883.45559843664
 31
0.0
  0
LINE
  5
ADB
  8
____1
  6
DASHED2
 62
     7
 10
19666.239369145758
 20
10897.53677891096
 30
0.0
 11
19644.239519277871
 21
10897.45550289803
 31
0.0
  0
LINE
  5
ADC
  8
____1
  6
DASHED2
 62
     7
 10
19665.210929365421
 20
10905.233032000489
 30
0.0
 11
19645.211065849151
 21
10905.15914471601
 31
0.0
  0
LINE
  5
ADD
  8
____1
  6
DASHED2
 62
     7
 10
19645.21660739549
 20
10903.659154952289
 30
0.0
 11
19645.211065849151
 21
10905.15914471601
 31
0.0
  0
LINE
  5
ADE
  8
____1
  6
DASHED2
 62
     7
 10
19665.21647091175
 20
10903.73304223678
 30
0.0
 11
19665.210929365421
 21
10905.233032000489
 31
0.0
  0
LINE
  5
ADF
  8
____1
  6
DASHED2
 62
     7
 10
19646.112162326888
 20
10938.6392219105
 30
0.0
 11
19644.155769473109
 21
10926.83191370746
 31
0.0
  0
LINE
  5
AE0
  8
____1
  6
DASHED2
 62
     7
 10
19644.155769473109
 20
10926.83191370746
 30
0.0
 11
19644.167591438629
 21
10923.63193554486
 31
0.0
  0
LINE
  5
AE1
  8
____1
  6
DASHED2
 62
     7
 10
19666.167441306508
 20
10923.71321155779
 30
0.0
 11
19644.167591438629
 21
10923.63193554486
 31
0.0
  0
LINE
  5
AE2
  8
____1
  6
DASHED2
 62
     7
 10
19666.233827599419
 20
10899.036768674679
 30
0.0
 11
19666.216464087571
 21
10903.736736601
 31
0.0
  0
LINE
  5
AE3
  8
____1
  6
DASHED2
 62
     7
 10
19666.233827599419
 20
10899.036768674679
 30
0.0
 11
19644.233977731528
 21
10898.955492661749
 31
0.0
  0
POLYLINE
  5
AE4
  8
____1
  6
DASHED2
 62
     7
 66
     1
 10
0.0
 20
0.0
 30
0.0
 70
     8
  0
VERTEX
  5
AE5
  8
____1
 62
     7
 10
19665.983829305471
 20
10899.035845083619
 30
0.0
 70
    32
  0
VERTEX
  5
AE6
  8
____1
 62
     7
 10
19665.697029602368
 20
10898.97769479361
 30
0.0
 70
    32
  0
VERTEX
  5
AE7
  8
____1
 62
     7
 10
19665.45431437932
 20
10898.81421743608
 30
0.0
 70
    32
  0
VERTEX
  5
AE8
  8
____1
 62
     7
 10
19665.292634828809
 20
10898.57030095679
 30
0.0
 70
    32
  0
VERTEX
  5
AE9
  8
____1
 62
     7
 10
19665.236605196769
 20
10898.283079428589
 30
0.0
 70
    32
  0
VERTEX
  5
AEA
  8
____1
 62
     7
 10
19665.294755486779
 20
10897.996279725499
 30
0.0
 70
    32
  0
VERTEX
  5
AEB
  8
____1
 62
     7
 10
19665.45823284431
 20
10897.753564502451
 30
0.0
 70
    32
  0
VERTEX
  5
AEC
  8
____1
 62
     7
 10
19665.702149323599
 20
10897.59188495194
 30
0.0
 70
    32
  0
VERTEX
  5
AED
  8
____1
 62
     7
 10
19665.989370851799
 20
10897.5358553199
 30
0.0
 70
    32
  0
VERTEX
  5
AEE
  8
____1
 62
     7
 10
19665.989370851799
 20
10897.5358553199
 30
0.0
 70
    32
  0
SEQEND
  5
AEF
  8
____1
 62
     7
  0
ARC
  5
AF0
  8
____1
  6
DASHED2
 62
     7
 10
19656.34516742409
 20
10598.1981833836
 30
0.0
 40
8.9999999999987121
 50
-179.78832804047099
 51
0.211671959528937
  0
LINE
  5
AF1
  8
____1
  6
DASHED2
 62
     7
 10
19647.345228841768
 20
10598.16493410558
 30
0.0
 11
19647.311979563761
 21
10607.164872687899
 31
0.0
  0
LINE
  5
AF2
  8
____1
  6
DASHED2
 62
     7
 10
19667.268249582179
 20
10619.03867944698
 30
0.0
 11
19667.256427616659
 21
10622.238657609591
 31
0.0
  0
LINE
  5
AF3
  8
____1
  6
DASHED2
 62
     7
 10
19645.268399714281
 20
10618.957403434049
 30
0.0
 11
19645.256577748769
 21
10622.157381596649
 31
0.0
  0
LINE
  5
AF4
  8
____1
  6
DASHED2
 62
     7
 10
19667.268249582179
 20
10619.03867944698
 30
0.0
 11
19645.268399714281
 21
10618.957403434049
 31
0.0
  0
LINE
  5
AF5
  8
____1
  6
DASHED2
 62
     7
 10
19662.25646173759
 20
10622.220185788459
 30
0.0
 11
19667.243497341871
 21
10625.73863372493
 31
0.0
  0
LINE
  5
AF6
  8
____1
  6
DASHED2
 62
     7
 10
19647.311979563761
 20
10607.164872687899
 30
0.0
 11
19645.268399714281
 21
10618.957403434049
 31
0.0
  0
LINE
  5
AF7
  8
____1
  6
DASHED2
 62
     7
 10
19650.256543627831
 20
10622.17585341777
 30
0.0
 11
19645.243647473981
 21
10625.657357712
 31
0.0
  0
LINE
  5
AF8
  8
____1
  6
DASHED2
 62
     7
 10
19667.243497341871
 20
10625.73863372493
 30
0.0
 11
19645.243647473981
 21
10625.657357712
 31
0.0
  0
LINE
  5
AF9
  8
____1
  6
DASHED2
 62
     7
 10
19667.256427616659
 20
10622.238657609591
 30
0.0
 11
19645.256577748769
 21
10622.157381596649
 31
0.0
  0
LINE
  5
AFA
  8
____1
  6
DASHED2
 62
     7
 10
19665.3118567284
 20
10607.231371243941
 30
0.0
 11
19667.268249582179
 21
10619.03867944698
 31
0.0
  0
LINE
  5
AFB
  8
____1
  6
DASHED2
 62
     7
 10
19665.345106006411
 20
10598.23143266162
 30
0.0
 11
19665.3118567284
 21
10607.231371243941
 31
0.0
  0
LINE
  5
AFC
  8
____1
  6
DASHED2
 62
     7
 10
19645.243647473981
 20
10625.657357712
 30
0.0
 11
19644.291240376999
 21
10883.45559843664
 31
0.0
  0
LINE
  5
AFD
  8
____1
  6
DASHED2
 62
     7
 10
19667.243497341871
 20
10625.73863372493
 30
0.0
 11
19666.2910902449
 21
10883.53687444957
 31
0.0
  0
LINE
  5
AFE
  8
____1
  6
DASHED2
 62
     7
 10
19664.078790213509
 20
10947.70565904885
 30
0.0
 11
19664.112039491531
 21
10938.70572046654
 31
0.0
  0
LINE
  5
AFF
  8
____1
  6
DASHED2
 62
     7
 10
19646.07891304887
 20
10947.639160492819
 30
0.0
 11
19646.112162326888
 21
10938.6392219105
 31
0.0
  0
ARC
  5
B00
  8
____1
  6
DASHED2
 62
     7
 10
19666.03832117777
 20
10884.285945740379
 30
0.0
 40
0.749999999998679
 50
90.21167195950612
 51
-89.788328040494918
  0
ARC
  5
B01
  8
____1
  6
DASHED2
 62
     7
 10
19655.078851631191
 20
10947.672409770839
 30
0.0
 40
8.9999999999987121
 50
154.3776745367731
 51
-179.78832804047099
  0
ARC
  5
B02
  8
____1
  6
DASHED2
 62
     7
 10
19655.078851631191
 20
10947.672409770839
 30
0.0
 40
8.9999999999986748
 50
93.697999525510696
 51
146.30200047449711
  0
ARC
  5
B03
  8
____1
  6
DASHED2
 62
     7
 10
19655.078851631191
 20
10947.672409770839
 30
0.0
 40
8.9999999999992681
 50
32.09144526624997
 51
87.90855473374765
  0
ARC
  5
B04
  8
____1
  6
DASHED2
 62
     7
 10
19655.078851631191
 20
10947.672409770839
 30
0.0
 40
8.9999999999977849
 50
0.211671959528937
 51
28.822945076254449
  0
LINE
  5
B05
  8
____1
  6
DASHED2
 62
     7
 10
19660.210963486348
 20
10905.214560179371
 30
0.0
 11
19660.142704492831
 21
10923.69095383375
 31
0.0
  0
LINE
  5
B06
  8
____1
  6
DASHED2
 62
     7
 10
19650.21103172822
 20
10905.17761653713
 30
0.0
 11
19650.1427727347
 21
10923.654010191511
 31
0.0
  0
LINE
  5
B07
  8
____1
  6
DASHED2
 62
     7
 10
19666.155619341
 20
10926.91318972039
 30
0.0
 11
19666.167441306508
 21
10923.71321155779
 31
0.0
  0
LINE
  5
B08
  8
____1
  6
DASHED2
 62
     7
 10
19666.155619341
 20
10926.91318972039
 30
0.0
 11
19644.155769473109
 21
10926.83191370746
 31
0.0
  0
LINE
  5
B09
  8
____1
  6
DASHED2
 62
     7
 10
19664.112039491531
 20
10938.70572046654
 30
0.0
 11
19666.155619341
 21
10926.91318972039
 31
0.0
  0
LINE
  5
B0A
  8
____1
  6
DASHED2
 62
     7
 10
19666.285548698561
 20
10885.036864213291
 30
0.0
 11
19666.239369145758
 21
10897.53677891096
 31
0.0
  0
LINE
  5
B0B
  8
____1
  6
DASHED2
 62
     7
 10
19644.233977731528
 20
10898.955492661749
 30
0.0
 11
19644.216614219669
 21
10903.65546058807
 31
0.0
  0
POLYLINE
  5
B0C
  8
____1
  6
DASHED2
 62
     7
 66
     1
 10
0.0
 20
0.0
 30
0.0
 70
     8
  0
VERTEX
  5
B0D
  8
____1
 62
     7
 10
19644.48397602548
 20
10898.9564162528
 30
0.0
 70
    32
  0
VERTEX
  5
B0E
  8
____1
 62
     7
 10
19644.77119755368
 20
10898.900386620769
 30
0.0
 70
    32
  0
VERTEX
  5
B0F
  8
____1
 62
     7
 10
19645.015114032969
 20
10898.738707070261
 30
0.0
 70
    32
  0
VERTEX
  5
B10
  8
____1
 62
     7
 10
19645.178591390501
 20
10898.49599184721
 30
0.0
 70
    32
  0
VERTEX
  5
B11
  8
____1
 62
     7
 10
19645.23674168051
 20
10898.20919214411
 30
0.0
 70
    32
  0
VERTEX
  5
B12
  8
____1
 62
     7
 10
19645.18071204847
 20
10897.92197061592
 30
0.0
 70
    32
  0
VERTEX
  5
B13
  8
____1
 62
     7
 10
19645.01903249797
 20
10897.678054136621
 30
0.0
 70
    32
  0
VERTEX
  5
B14
  8
____1
 62
     7
 10
19644.776317274918
 20
10897.514576779089
 30
0.0
 70
    32
  0
VERTEX
  5
B15
  8
____1
 62
     7
 10
19644.489517571819
 20
10897.45642648908
 30
0.0
 70
    32
  0
SEQEND
  5
B16
  8
____1
 62
     7
  0
LINE
  5
B17
  8
____1
  6
DASHED2
 62
     7
 10
19666.216464087571
 20
10903.736736601
 30
0.0
 11
19644.216614219669
 21
10903.65546058807
 31
0.0
  0
LINE
  5
B18
  8
____1
  6
DASHED2
 62
     7
 10
19644.28569883067
 20
10884.955588200361
 30
0.0
 11
19644.239519277871
 21
10897.45550289803
 31
0.0
  0
POLYLINE
  5
B19
  8
____1
  6
DASHED2
 62
     7
 66
     1
 10
0.0
 20
0.0
 30
0.0
 70
     8
  0
VERTEX
  5
B1A
  8
____1
 62
     7
 10
19644.535697124618
 20
10884.956511791421
 30
0.0
 70
    32
  0
VERTEX
  5
B1B
  8
____1
 62
     7
 10
19644.822918652819
 20
10884.900482159381
 30
0.0
 70
    32
  0
VERTEX
  5
B1C
  8
____1
 62
     7
 10
19645.066835132111
 20
10884.73880260887
 30
0.0
 70
    32
  0
VERTEX
  5
B1D
  8
____1
 62
     7
 10
19645.230312489639
 20
10884.49608738582
 30
0.0
 70
    32
  0
VERTEX
  5
B1E
  8
____1
 62
     7
 10
19645.288462779648
 20
10884.20928768273
 30
0.0
 70
    32
  0
VERTEX
  5
B1F
  8
____1
 62
     7
 10
19645.232433147608
 20
10883.92206615453
 30
0.0
 70
    32
  0
VERTEX
  5
B20
  8
____1
 62
     7
 10
19645.070753597101
 20
10883.678149675239
 30
0.0
 70
    32
  0
VERTEX
  5
B21
  8
____1
 62
     7
 10
19644.828038374049
 20
10883.514672317709
 30
0.0
 70
    32
  0
VERTEX
  5
B22
  8
____1
 62
     7
 10
19644.541238670961
 20
10883.4565220277
 30
0.0
 70
    32
  0
VERTEX
  5
B23
  8
____1
 62
     7
 10
19644.541238670961
 20
10883.4565220277
 30
0.0
 70
    32
  0
SEQEND
  5
B24
  8
____1
 62
     7
  0
LINE
  5
B25
  8
____1
  6
DASHED2
 62
     7
 10
19666.285548698561
 20
10885.036864213291
 30
0.0
 11
19644.28569883067
 21
10884.955588200361
 31
0.0
  0
ENDBLK
  5
B26
  8
0
  0
BLOCK
  8
0
  2
C78
 70
     0
 10
0.0
 20
0.0
 30
0.0
  3
C78
  1

  0
LINE
  5
B39
  8
____1
  6
DASHED2
 62
     7
 10
19644.34516742409
 20
11048.6981833836
 30
0.0
 11
19644.34516742409
 21
11046.6981833836
 31
0.0
  0
LINE
  5
B3A
  8
____1
  6
DASHED2
 62
     7
 10
19648.34516742409
 20
11048.6981833836
 30
0.0
 11
19648.34516742409
 21
11046.6981833836
 31
0.0
  0
LINE
  5
B3B
  8
____1
  6
DASHED2
 62
     7
 10
19653.34516742409
 20
11048.6981833836
 30
0.0
 11
19653.34516742409
 21
11046.6981833836
 31
0.0
  0
LINE
  5
B3C
  8
____1
  6
DASHED2
 62
     7
 10
19653.84516742409
 20
11048.6981833836
 30
0.0
 11
19653.84516742409
 21
11046.6981833836
 31
0.0
  0
LINE
  5
B3D
  8
____1
  6
DASHED2
 62
     7
 10
19634.84516742409
 20
11048.6981833836
 30
0.0
 11
19634.84516742409
 21
11046.6981833836
 31
0.0
  0
LINE
  5
B3E
  8
____1
  6
DASHED2
 62
     7
 10
19663.156761140679
 20
11050.12199290741
 30
0.0
 11
19661.50235727397
 21
11048.998183383599
 31
0.0
  0
LINE
  5
B3F
  8
____1
  6
DASHED2
 62
     7
 10
19665.84516742409
 20
11048.6981833836
 30
0.0
 11
19634.84516742409
 21
11048.6981833836
 31
0.0
  0
LINE
  5
B40
  8
____1
  6
DASHED2
 62
     7
 10
19665.84516742409
 20
11046.6981833836
 30
0.0
 11
19634.84516742409
 21
11046.6981833836
 31
0.0
  0
LINE
  5
B41
  8
____1
  6
DASHED2
 62
     7
 10
19644.84516742409
 20
11048.6981833836
 30
0.0
 11
19644.84516742409
 21
11046.6981833836
 31
0.0
  0
LINE
  5
B42
  8
____1
  6
DASHED2
 62
     7
 10
19647.84516742409
 20
11048.6981833836
 30
0.0
 11
19647.84516742409
 21
11046.6981833836
 31
0.0
  0
LINE
  5
B43
  8
____1
  6
DASHED2
 62
     7
 10
19659.84516742409
 20
11048.6981833836
 30
0.0
 11
19659.84516742409
 21
11046.6981833836
 31
0.0
  0
ARC
  5
B44
  8
____1
  6
DASHED2
 62
     7
 10
19665.84516742409
 20
11051.9481833836
 30
0.0
 40
5.25
 50
-90.0
 51
-145.81237266289489
  0
ARC
  5
B45
  8
____1
  6
DASHED2
 62
     7
 10
19665.84516742409
 20
11051.9481833836
 30
0.0
 40
3.25
 50
-90.0
 51
-145.81237266292791
  0
LINE
  5
B46
  8
____1
  6
DASHED2
 62
     7
 10
19638.84516742409
 20
11048.6981833836
 30
0.0
 11
19638.84516742409
 21
11046.6981833836
 31
0.0
  0
LINE
  5
B47
  8
____1
  6
DASHED2
 62
     7
 10
19639.34516742409
 20
11048.6981833836
 30
0.0
 11
19639.34516742409
 21
11046.6981833836
 31
0.0
  0
LINE
  5
B48
  8
____1
  6
DOT
 62
     2
 10
19673.34516742409
 20
11051.9481833836
 30
0.0
 11
19658.34516742409
 21
11051.9481833836
 31
0.0
  0
LINE
  5
B49
  8
____1
  6
DOT
 62
     2
 10
19665.84516742409
 20
11059.4481833836
 30
0.0
 11
19665.84516742409
 21
11044.4481833836
 31
0.0
  0
LINE
  5
B4A
  8
____1
  6
DOT
 62
     2
 10
19641.84516742409
 20
11050.6981833836
 30
0.0
 11
19641.84516742409
 21
11044.6981833836
 31
0.0
  0
LINE
  5
B4B
  8
____1
  6
DOT
 62
     2
 10
19650.84516742409
 20
11050.6981833836
 30
0.0
 11
19650.84516742409
 21
11044.6981833836
 31
0.0
  0
ENDBLK
  5
B4C
  8
0
  0
BLOCK
  8
0
  2
C79
 70
     0
 10
0.0
 20
0.0
 30
0.0
  3
C79
  1

  0
LINE
  5
B62
  8
____1
  6
DASHED2
 62
     7
 10
19689.43533051807
 20
11020.1981833836
 30
0.0
 11
19689.43533051807
 21
10970.1981833836
 31
0.0
  0
LINE
  5
B63
  8
____1
  6
DASHED2
 62
     7
 10
19687.964459851239
 20
11020.1981833836
 30
0.0
 11
19687.964459851239
 21
10970.1981833836
 31
0.0
  0
LINE
  5
B64
  8
____1
  6
DASHED2
 62
     7
 10
19684.04213714847
 20
10970.1981833836
 30
0.0
 11
19684.04213714847
 21
11020.1981833836
 31
0.0
  0
LINE
  5
B65
  8
____1
  6
DASHED2
 62
     7
 10
19708.372115873732
 20
10970.1981833836
 30
0.0
 11
19684.04213714847
 21
10970.1981833836
 31
0.0
  0
LINE
  5
B66
  8
____1
  6
DASHED2
 62
     7
 10
19708.372115873732
 20
11020.1981833836
 30
0.0
 11
19708.372115873732
 21
10970.1981833836
 31
0.0
  0
LINE
  5
B67
  8
____1
  6
DASHED2
 62
     7
 10
19684.04213714847
 20
11020.1981833836
 30
0.0
 11
19708.372115873732
 21
11020.1981833836
 31
0.0
  0
ENDBLK
  5
B68
  8
0
  0
ENDSEC
  0
SECTION
  2
ENTITIES
  0
LINE
  5
2C
  8
____1
  6
CONTINUOUS
 62
     5
 10
17616.869960328899
 20
10245.1981833836
 30
0.0
 11
18615.369960328899
 21
10245.1981833836
 31
0.0
  0
DIMENSION
  5
3A
  8
______
  6
CONTINUOUS
 62
     7
  2
*D0
 10
18616.869960328899
 20
10030.525921323249
 30
0.0
 11
18116.869960328899
 21
10030.525921323249
 31
0.0
 13
17616.869960328899
 23
10245.1981833836
 33
0.0
 14
18616.869960328899
 24
10245.1981833836
 34
0.0
  0
INSERT
  5
45
  8
____1
  6
CONTINUOUS
 62
     7
  2
C0
 10
0.0
 20
0.0
 30
0.0
  0
INSERT
  5
4F
  8
____1
  6
CONTINUOUS
 62
     7
  2
C1
 10
0.0
 20
0.0
 30
0.0
  0
INSERT
  5
110
  8
____1
  6
CONTINUOUS
 62
   254
  2
C2
 10
0.0
 20
0.0
 30
0.0
  0
INSERT
  5
11A
  8
______
  6
CONTINUOUS
 62
     7
  2
C3
 10
0.0
 20
0.0
 30
0.0
  0
INSERT
  5
124
  8
______
  6
CONTINUOUS
 62
     7
  2
C4
 10
0.0
 20
0.0
 30
0.0
  0
DIMENSION
  5
133
  8
______
  6
CONTINUOUS
 62
     7
  2
*D6
 10
18689.006528781221
 20
10421.6981833836
 30
0.0
 11
18689.006528781221
 21
10741.6981833836
 31
0.0
 13
18436.869960328899
 23
11061.6981833836
 33
0.0
 14
18436.869960328899
 24
10421.6981833836
 34
0.0
 50
90.0
  0
DIMENSION
  5
142
  8
______
  6
CONTINUOUS
 62
     7
  2
*D7
 10
18766.033533018701
 20
10395.1981833836
 30
0.0
 11
18766.033533018701
 21
10745.1981833836
 31
0.0
 13
18466.869960328899
 23
11095.1981833836
 33
0.0
 14
18466.869960328899
 24
10395.1981833836
 34
0.0
 50
90.0
  0
LINE
  5
143
  8
____1
  6
DASHED
 62
     7
 10
17618.369960328899
 20
11243.6981833836
 30
0.0
 11
17618.369960328899
 21
10246.6981833836
 31
0.0
  0
LINE
  5
144
  8
____1
  6
CONTINUOUS
 62
     5
 10
17616.869960328899
 20
11245.1981833836
 30
0.0
 11
17616.869960328899
 21
10246.6981833836
 31
0.0
  0
LINE
  5
145
  8
____1
  6
CONTINUOUS
 62
     5
 10
18616.869960328899
 20
10245.1981833836
 30
0.0
 11
18616.869960328899
 21
11243.6981833836
 31
0.0
  0
LINE
  5
146
  8
____1
  6
DASHED
 62
     7
 10
18615.369960328899
 20
10246.6981833836
 30
0.0
 11
18615.369960328899
 21
11243.6981833836
 31
0.0
  0
DIMENSION
  5
155
  8
______
  6
CONTINUOUS
 62
     7
  2
*D8
 10
17555.003664763641
 20
10245.1981833836
 30
0.0
 11
17555.003664763641
 21
10370.1981833836
 31
0.0
 13
17744.369960328899
 23
10495.1981833836
 33
0.0
 14
17616.869960328899
 24
10245.1981833836
 34
0.0
 50
90.0
  0
INSERT
  5
15F
  8
______
  6
CONTINUOUS
 62
     7
  2
C5
 10
0.0
 20
0.0
 30
0.0
  0
LINE
  5
160
  8
____1
  6
CONTINUOUS
 62
     5
 10
19706.34516742409
 20
10245.1981833836
 30
0.0
 11
19706.34516742409
 21
11243.6981833836
 31
0.0
  0
LINE
  5
161
  8
____1
  6
CONTINUOUS
 62
     5
 10
19756.34516742409
 20
10245.1981833836
 30
0.0
 11
19756.34516742409
 21
11243.6981833836
 31
0.0
  0
LINE
  5
162
  8
____1
  6
DASHED
 62
     7
 10
19746.34516742409
 20
10248.498183383599
 30
0.0
 11
19746.34516742409
 21
11243.6981833836
 31
0.0
  0
DIMENSION
  5
171
  8
______
  6
CONTINUOUS
 62
     7
  2
*D10
 10
18836.313480935361
 20
10245.1981833836
 30
0.0
 11
18836.313480935361
 21
10741.6981833836
 31
0.0
 13
18616.869960328899
 23
11245.1981833836
 33
0.0
 14
18616.869960328899
 24
10245.1981833836
 34
0.0
 50
90.0
  0
INSERT
  5
17B
  8
______
  6
CONTINUOUS
 62
     7
  2
C6
 10
0.0
 20
0.0
 30
0.0
  0
LINE
  5
17C
  8
____1
  6
DASHED
 62
     7
 10
17618.369960328899
 20
10246.6981833836
 30
0.0
 11
18615.369960328899
 21
10246.6981833836
 31
0.0
  0
LINE
  5
17D
  8
____1
  6
CONTINUOUS
 62
     5
 10
17766.869960328899
 20
10395.1981833836
 30
0.0
 11
18466.869960328899
 21
10395.1981833836
 31
0.0
  0
LINE
  5
17E
  8
____1
  6
CONTINUOUS
 62
     5
 10
17618.369960328899
 20
10246.6981833836
 30
0.0
 11
17796.869960328899
 21
10425.198183383591
 31
0.0
  0
LINE
  5
17F
  8
____1
  6
DASHED
 62
     7
 10
17767.01848959929
 20
9890.7232991106848
 30
0.0
 11
17815.369960328899
 21
9890.7232991106848
 31
0.0
  0
LINE
  5
180
  8
____1
  6
CONTINUOUS
 62
     5
 10
17767.01848959929
 20
9892.2232991106848
 30
0.0
 11
17815.369960328899
 21
9892.2232991106848
 31
0.0
  0
LINE
  5
181
  8
____1
  6
CONTINUOUS
 62
     5
 10
17767.018489599279
 20
9580.6977703559296
 30
0.0
 11
17815.369960328891
 21
9580.6977703559296
 31
0.0
  0
LINE
  5
182
  8
____1
  6
CONTINUOUS
 62
     5
 10
17767.018489599279
 20
9582.1977703559296
 30
0.0
 11
17815.369960328891
 21
9582.1977703559296
 31
0.0
  0
LINE
  5
183
  8
____1
  6
DASHED2
 62
     7
 10
19626.34516742409
 20
10437.1981833836
 30
0.0
 11
19626.34516742409
 21
11053.1981833836
 31
0.0
  0
LINE
  5
184
  8
____1
  6
CONTINUOUS
 62
     5
 10
19676.34516742409
 20
10395.1981833836
 30
0.0
 11
19676.34516742409
 21
11095.1981833836
 31
0.0
  0
DIMENSION
  5
191
  8
______
  6
CONTINUOUS
 62
     7
  2
*D12
 10
18476.869960328891
 20
9692.6957898228447
 30
0.0
 11
18116.869960328899
 21
9692.6957898228447
 31
0.0
 13
17756.869960328899
 23
9556.6708219062912
 33
0.0
 14
18476.869960328891
 24
9556.6708219062912
 34
0.0
 50
0.0000008537736463
  0
DIMENSION
  5
19E
  8
______
  6
CONTINUOUS
 62
     7
  2
*D13
 10
18459.369960328891
 20
9441.5113735225495
 30
0.0
 11
18116.869960328899
 21
9441.5113735225495
 31
0.0
 13
17774.369960328899
 23
9550.1708219062912
 33
0.0
 14
18459.369960328891
 24
9550.1708219062912
 34
0.0
  0
DIMENSION
  5
1AE
  8
______
  6
CONTINUOUS
 62
     7
  2
*D14
 10
17867.4910997398
 20
9580.6977703559296
 30
0.0
 11
17867.4910997398
 21
9509.4477751083359
 31
0.0
 13
17774.369960328899
 23
9550.1708219062912
 33
0.0
 14
17804.896908778541
 24
9580.6977703559296
 34
0.0
 50
90.0
  0
LINE
  5
1AF
  8
____1
  6
CONTINUOUS
 62
     5
 10
17766.869960328899
 20
9892.2232991106848
 30
0.0
 11
18466.869960328899
 21
9892.2232991106848
 31
0.0
  0
LINE
  5
1B0
  8
____1
  6
CONTINUOUS
 62
     5
 10
17616.869960328899
 20
9812.2232991106848
 30
0.0
 11
18615.369960328899
 21
9812.2232991106848
 31
0.0
  0
LINE
  5
1B1
  8
____1
  6
DASHED
 62
     7
 10
17620.169960328902
 20
9822.2232991106848
 30
0.0
 11
18615.369960328899
 21
9822.2232991106848
 31
0.0
  0
LINE
  5
1B2
  8
____1
  6
CONTINUOUS
 62
     5
 10
17616.869960328899
 20
9862.2232991106866
 30
0.0
 11
18615.369960328899
 21
9862.2232991106866
 31
0.0
  0
DIMENSION
  5
1BF
  8
______
  6
CONTINUOUS
 62
     7
  2
*D15
 10
18466.869960328899
 20
10109.173317156579
 30
0.0
 11
18116.869960328899
 21
10109.173317156579
 31
0.0
 13
17766.869960328899
 23
10395.1981833836
 33
0.0
 14
18466.869960328899
 24
10395.1981833836
 34
0.0
  0
DIMENSION
  5
1CD
  8
______
  6
CONTINUOUS
 62
     7
  2
*D16
 10
17774.369960328899
 20
9441.5113735225495
 30
0.0
 11
17756.869960328899
 21
9441.5113735225495
 31
0.0
 13
17739.369960328899
 23
9550.1708219062912
 33
0.0
 14
17774.369960328899
 24
9550.1708219062912
 34
0.0
  0
LINE
  5
1CE
  8
____1
  6
CONTINUOUS
 62
     5
 10
18616.869960328899
 20
11245.1981833836
 30
0.0
 11
17618.369960328899
 21
11245.1981833836
 31
0.0
  0
LINE
  5
1CF
  8
____1
  6
DASHED
 62
     7
 10
18615.369960328899
 20
11243.6981833836
 30
0.0
 11
17618.369960328899
 21
11243.6981833836
 31
0.0
  0
LINE
  5
1D0
  8
____1
  6
CONTINUOUS
 62
     5
 10
18466.869960328899
 20
11095.1981833836
 30
0.0
 11
17766.869960328899
 21
11095.1981833836
 31
0.0
  0
LINE
  5
1D1
  8
____1
  6
CONTINUOUS
 62
     5
 10
17618.369960328899
 20
11243.6981833836
 30
0.0
 11
17800.369960328899
 21
11061.6981833836
 31
0.0
  0
DIMENSION
  5
1DE
  8
______
  6
CONTINUOUS
 62
     7
  2
*D17
 10
18476.869960328899
 20
11295.752115192639
 30
0.0
 11
18116.869960328899
 21
11295.752115192639
 31
0.0
 13
17756.869960328899
 23
11007.6981833836
 33
0.0
 14
18476.869960328899
 24
11007.6981833836
 34
0.0
  0
INSERT
  5
1E8
  8
______
  6
CONTINUOUS
 62
     7
  2
C7
 10
0.0
 20
0.0
 30
0.0
  0
INSERT
  5
1F2
  8
______
  6
CONTINUOUS
 62
     7
  2
C8
 10
0.0
 20
0.0
 30
0.0
  0
INSERT
  5
1FC
  8
______
  6
CONTINUOUS
 62
     7
  2
C9
 10
0.0
 20
0.0
 30
0.0
  0
INSERT
  5
206
  8
____1
  6
CONTINUOUS
 62
     7
  2
C10
 10
0.0
 20
0.0
 30
0.0
  0
INSERT
  5
210
  8
____1
  6
CONTINUOUS
 62
     7
  2
C11
 10
0.0
 20
0.0
 30
0.0
  0
INSERT
  5
21A
  8
____1
  6
CONTINUOUS
 62
     7
  2
C12
 10
0.0
 20
0.0
 30
0.0
  0
INSERT
  5
224
  8
____1
  6
CONTINUOUS
 62
     7
  2
C13
 10
0.0
 20
0.0
 30
0.0
  0
INSERT
  5
22E
  8
____1
  6
CONTINUOUS
 62
     7
  2
C14
 10
0.0
 20
0.0
 30
0.0
  0
INSERT
  5
238
  8
____1
  6
CONTINUOUS
 62
     7
  2
C15
 10
0.0
 20
0.0
 30
0.0
  0
LINE
  5
239
  8
____1
  6
CONTINUOUS
 62
     5
 10
17734.56276678167
 20
9574.2066480273843
 30
0.0
 11
17716.422027463581
 21
9570.5784779287897
 31
0.0
  0
ARC
  5
23A
  8
____1
  6
CONTINUOUS
 62
     5
 10
17734.85694162409
 20
9572.7357771417901
 30
0.0
 40
1.5000000000011431
 50
11.31005865895931
 51
101.30995739302151
  0
INSERT
  5
244
  8
____1
  6
CONTINUOUS
 62
     7
  2
C16
 10
0.0
 20
0.0
 30
0.0
  0
INSERT
  5
24E
  8
____1
  6
CONTINUOUS
 62
     7
  2
C17
 10
0.0
 20
0.0
 30
0.0
  0
TEXT
  5
24F
  8
____1
  6
CONTINUOUS
 62
     7
 10
19256.701984475782
 20
9938.3539947516038
 30
0.0
 40
28.222221374511719
  1
フックユニット
  7
STYLE1
  0
TEXT
  5
250
  8
____1
  6
CONTINUOUS
 62
     7
 10
19299.035312722852
 20
9658.3539947516001
 30
0.0
 40
28.222221374511719
  1
天　　板
  7
STYLE1
  0
TEXT
  5
251
  8
____1
  6
CONTINUOUS
 62
     7
 10
19299.035312722852
 20
9698.3539947516019
 30
0.0
 40
28.222221374511719
  1
本　　体
  7
STYLE1
  0
TEXT
  5
252
  8
____1
  6
CONTINUOUS
 62
     7
 10
19299.035312722852
 20
9738.3539947516038
 30
0.0
 40
28.222221374511719
  1
丁　　番
  7
STYLE1
  0
TEXT
  5
253
  8
____1
  6
CONTINUOUS
 62
     7
 10
19284.924198220899
 20
10018.3539947516
 30
0.0
 40
28.222221374511719
  1
ブラケット
  7
STYLE1
  0
TEXT
  5
254
  8
____1
  6
CONTINUOUS
 62
     7
 10
19299.035312722852
 20
9978.3539947516019
 30
0.0
 40
28.222221374511719
  1
パッキン
  7
STYLE1
  0
TEXT
  5
255
  8
____1
  6
CONTINUOUS
 62
     7
 10
19200.257537912061
 20
9778.3539947516019
 30
0.0
 40
28.222221374511719
  1
天板側取付金具ユニット
  7
STYLE1
  0
TEXT
  5
256
  8
____1
  6
CONTINUOUS
 62
     7
 10
19200.257537912061
 20
9818.3539947516038
 30
0.0
 40
28.222221374511719
  1
本体側取付金具ユニット
  7
STYLE1
  0
TEXT
  5
257
  8
____1
  6
CONTINUOUS
 62
     7
 10
19270.81309134834
 20
9858.3539947516038
 30
0.0
 40
28.222221374511719
  1
ガスダンパー
  7
STYLE1
  0
TEXT
  5
258
  8
____1
  6
CONTINUOUS
 62
     7
 10
19299.035312722852
 20
9898.3539947516019
 30
0.0
 40
28.222221374511719
  1
取　　手
  7
STYLE1
  0
TEXT
  5
259
  8
____1
  6
CONTINUOUS
 62
     7
 10
19355.25753409736
 20
9492.1075616844391
 30
0.0
 40
28.222221374511719
  1
1：8
  7
STYLE1
  0
INSERT
  5
2CB
  8
____1
  6
DASHED2
 62
   254
  2
C18
 10
0.0
 20
0.0
 30
0.0
  0
LINE
  5
2CC
  8
____1
  6
CONTINUOUS
 62
     5
 10
17766.869960328899
 20
11095.1981833836
 30
0.0
 11
17766.869960328899
 21
10395.1981833836
 31
0.0
  0
LINE
  5
2CD
  8
____1
  6
DASHED2
 62
     7
 10
17808.869960328899
 20
11053.1981833836
 30
0.0
 11
17808.869960328899
 21
10437.1981833836
 31
0.0
  0
LINE
  5
2CE
  8
____1
  6
DASHED2
 62
     7
 10
17816.869960328899
 20
11046.6981833836
 30
0.0
 11
17816.869960328899
 21
10445.1981833836
 31
0.0
  0
LINE
  5
2CF
  8
____1
  6
DASHED2
 62
     7
 10
18416.869960328899
 20
10443.6981833836
 30
0.0
 11
18416.869960328899
 21
11045.1981833836
 31
0.0
  0
LINE
  5
2D0
  8
____1
  6
DASHED2
 62
     7
 10
18424.869960328899
 20
10437.1981833836
 30
0.0
 11
18424.869960328899
 21
11053.1981833836
 31
0.0
  0
LINE
  5
2D1
  8
____1
  6
DASHED
 62
     7
 10
18418.369960328899
 20
10443.6981833836
 30
0.0
 11
18418.369960328899
 21
11045.1981833836
 31
0.0
  0
LINE
  5
2D2
  8
____1
  6
CONTINUOUS
 62
     5
 10
18466.869960328899
 20
10395.1981833836
 30
0.0
 11
18466.869960328899
 21
11095.1981833836
 31
0.0
  0
LINE
  5
2D3
  8
____1
  6
DASHED
 62
     7
 10
17815.369960328899
 20
11046.6981833836
 30
0.0
 11
17815.369960328899
 21
10445.1981833836
 31
0.0
  0
INSERT
  5
2EB
  8
____1
  6
DASHED2
 62
   254
  2
C20
 10
0.0
 20
0.0
 30
0.0
  0
INSERT
  5
2F5
  8
______
  6
CONTINUOUS
 62
     7
  2
C21
 10
0.0
 20
0.0
 30
0.0
  0
LINE
  5
2F6
  8
____1
  6
CONTINUOUS
 62
     5
 10
18416.869960328891
 20
9582.1977703559296
 30
0.0
 11
18416.869960328891
 21
9630.6977703559314
 31
0.0
  0
LINE
  5
2F7
  8
____1
  6
DASHED
 62
     7
 10
19677.84516742409
 20
10443.6981833836
 30
0.0
 11
19677.84516742409
 21
11046.6981833836
 31
0.0
  0
LINE
  5
2F8
  8
____1
  6
DASHED2
 62
     7
 10
19627.84516742409
 20
10437.1981833836
 30
0.0
 11
19627.84516742409
 21
11053.1981833836
 31
0.0
  0
LINE
  5
2F9
  8
____1
  6
DASHED2
 62
     7
 10
19623.838790108661
 20
11057.14691061566
 30
0.0
 11
19614.27446135247
 21
10738.634998259609
 31
0.0
  0
LINE
  5
2FA
  8
____1
  6
CONTINUOUS
 62
     5
 10
19668.662477706119
 20
10420.201151761799
 30
0.0
 11
19667.88490004943
 21
11057.200677172141
 31
0.0
  0
LINE
  5
2FB
  8
____1
  6
DOT
 62
     7
 10
19624.607894429198
 20
10420.078455700759
 30
0.0
 11
19623.830316772499
 21
11057.07798111109
 31
0.0
  0
LINE
  5
2FC
  8
____1
  6
DASHED2
 62
     7
 10
19658.66248515651
 20
10420.18894489121
 30
0.0
 11
19657.884907499811
 21
11057.188470301549
 31
0.0
  0
LINE
  5
2FD
  8
____1
  6
CONTINUOUS
 62
     5
 10
19622.339465919751
 20
11057.191932572139
 30
0.0
 11
19612.773730227422
 21
10738.633166335179
 31
0.0
  0
ARC
  5
2FE
  8
____1
  6
CONTINUOUS
 62
     5
 10
17618.369960328899
 20
9550.9680645018543
 30
0.0
 40
1.499999999998932
 50
101.3099324741564
 51
180.0
  0
LINE
  5
2FF
  8
____1
  6
DASHED
 62
     7
 10
17618.369960328899
 20
9822.2232991106848
 30
0.0
 11
17619.869960328899
 21
9822.2232991106848
 31
0.0
  0
ARC
  5
300
  8
____1
  6
DASHED
 62
     7
 10
17618.369960328899
 20
9813.7232991106848
 30
0.0
 40
1.5
 50
180.0
 51
0.0
  0
LINE
  5
301
  8
____1
  6
DASHED
 62
     7
 10
17619.869960328899
 20
9813.7232991106848
 30
0.0
 11
17619.869960328899
 21
9822.2232991106848
 31
0.0
  0
LINE
  5
302
  8
____1
  6
CONTINUOUS
 62
     5
 10
17618.369960328899
 20
9512.1977703559296
 30
0.0
 11
17619.869960328899
 21
9512.1977703559296
 31
0.0
  0
LINE
  5
303
  8
____1
  6
CONTINUOUS
 62
     5
 10
17616.869960328899
 20
9503.6977903423558
 30
0.0
 11
17616.869960328899
 21
9550.9680645018543
 31
0.0
  0
ARC
  5
304
  8
____1
  6
CONTINUOUS
 62
     5
 10
17618.369960328899
 20
9503.6977703559314
 30
0.0
 40
1.4999999999985469
 50
179.9992365748237
 51
0.0
  0
LINE
  5
305
  8
____1
  6
CONTINUOUS
 62
     5
 10
17618.369960328899
 20
9503.6977703559314
 30
0.0
 11
17618.369960328899
 21
9550.9680645018543
 31
0.0
  0
LINE
  5
306
  8
____1
  6
CONTINUOUS
 62
     5
 10
17618.369960328899
 20
9550.9680645018543
 30
0.0
 11
17767.018489599279
 21
9580.6977703559296
 31
0.0
  0
LINE
  5
307
  8
____1
  6
CONTINUOUS
 62
     5
 10
17618.075786126192
 20
9552.4389355153871
 30
0.0
 11
17766.724315396568
 21
9582.1686413694679
 31
0.0
  0
LINE
  5
308
  8
____1
  6
CONTINUOUS
 62
     5
 10
17619.869960328899
 20
9503.6977703559314
 30
0.0
 11
17619.869960328899
 21
9512.1977703559296
 31
0.0
  0
ARC
  5
309
  8
____1
  6
CONTINUOUS
 62
     5
 10
17767.018489599279
 20
9580.6977703559296
 30
0.0
 40
1.5
 50
90.0
 51
101.3099324741428
  0
LINE
  5
30A
  8
____1
  6
CONTINUOUS
 62
     5
 10
17750.869960328899
 20
9551.6708219062912
 30
0.0
 11
17750.869960328899
 21
9550.1708219062912
 31
0.0
  0
LINE
  5
30B
  8
____1
  6
CONTINUOUS
 62
     5
 10
17734.85694162409
 20
9572.7357771417901
 30
0.0
 11
17716.716203399781
 21
9569.1076072619526
 31
0.0
  0
LINE
  5
30C
  8
____1
  6
CONTINUOUS
 62
     5
 10
17716.422027463581
 20
9570.5784779287897
 30
0.0
 11
17716.716203399781
 21
9569.1076072619526
 31
0.0
  0
ARC
  5
30D
  8
____1
  6
CONTINUOUS
 62
     5
 10
17740.599664705009
 20
9551.6708219062912
 30
0.0
 40
1.50000000000198
 50
-168.6900383559028
 51
-90.000002427085036
  0
LINE
  5
30E
  8
____1
  6
CONTINUOUS
 62
     5
 10
18466.7214310585
 20
9582.1977703559296
 30
0.0
 11
18418.369960328891
 21
9582.1977703559296
 31
0.0
  0
LINE
  5
30F
  8
____1
  6
CONTINUOUS
 62
     5
 10
18466.7214310585
 20
9580.6977703559296
 30
0.0
 11
18418.369960328891
 21
9580.6977703559296
 31
0.0
  0
LINE
  5
310
  8
____1
  6
CONTINUOUS
 62
     5
 10
17774.369960328899
 20
9551.6708219062912
 30
0.0
 11
17774.369960328899
 21
9550.1708219062912
 31
0.0
  0
LINE
  5
311
  8
____1
  6
DASHED
 62
     7
 10
17620.169960328902
 20
9812.2232991106848
 30
0.0
 11
17620.169960328902
 21
9822.2232991106848
 31
0.0
  0
DIMENSION
  5
31E
  8
______
  6
CONTINUOUS
 62
     7
  2
*D33
 10
17616.869960328899
 20
9692.6957898228447
 30
0.0
 11
17691.093116826502
 21
9692.6957898228447
 31
0.0
 13
17756.869960328899
 23
9556.6708219062912
 33
0.0
 14
17616.869960328899
 24
9550.9680645018543
 34
0.0
 50
180.0
  0
DIMENSION
  5
32B
  8
______
  6
CONTINUOUS
 62
     7
  2
*D34
 10
17739.369960328899
 20
9441.5113735225495
 30
0.0
 11
17678.869960328899
 21
9441.5113735225495
 31
0.0
 13
17618.369960328899
 23
9527.3329174288938
 33
0.0
 14
17739.369960328899
 24
9550.1708219062912
 34
0.0
  0
LINE
  5
32C
  8
____1
  6
CONTINUOUS
 62
     5
 10
17762.869960328899
 20
9551.6708219062912
 30
0.0
 11
17762.869960328899
 21
9550.1708219062912
 31
0.0
  0
LINE
  5
32D
  8
____1
  6
CONTINUOUS
 62
     5
 10
17774.369960328899
 20
9551.6708219062912
 30
0.0
 11
17740.599664705001
 21
9551.6708219062912
 31
0.0
  0
LINE
  5
32E
  8
____1
  6
CONTINUOUS
 62
     5
 10
17736.327811989751
 20
9573.0299545838589
 30
0.0
 11
17740.599664705001
 21
9551.6708219062912
 31
0.0
  0
LINE
  5
32F
  8
____1
  6
CENTER2
 62
     3
 10
17756.869960328899
 20
9556.6708219062912
 30
0.0
 11
17756.869960328899
 21
9545.1708219062912
 31
0.0
  0
LINE
  5
330
  8
____1
  6
CONTINUOUS
 62
     5
 10
17734.85694162409
 20
9572.7357771417901
 30
0.0
 11
17739.369960328899
 21
9550.1708219062912
 31
0.0
  0
LINE
  5
331
  8
____1
  6
CONTINUOUS
 62
     5
 10
17774.369960328899
 20
9550.1708219062912
 30
0.0
 11
17739.369960328899
 21
9550.1708219062912
 31
0.0
  0
LINE
  5
332
  8
____1
  6
CONTINUOUS
 62
     7
 10
17616.869960328899
 20
10246.6981833836
 30
0.0
 11
17618.369960328899
 21
10246.6981833836
 31
0.0
  0
LINE
  5
333
  8
____1
  6
CONTINUOUS
 62
     5
 10
17616.869960328899
 20
10246.6981833836
 30
0.0
 11
17618.369960328899
 21
10246.6981833836
 31
0.0
  0
LINE
  5
334
  8
____1
  6
CONTINUOUS
 62
     5
 10
17616.869960328899
 20
10245.1981833836
 30
0.0
 11
17616.869960328899
 21
10246.6981833836
 31
0.0
  0
LINE
  5
335
  8
____1
  6
CONTINUOUS
 62
     5
 10
17616.869960328899
 20
10246.6981833836
 30
0.0
 11
17618.369960328899
 21
10246.6981833836
 31
0.0
  0
ARC
  5
336
  8
____1
  6
CONTINUOUS
 62
     5
 10
17618.369960328899
 20
9860.9935932566095
 30
0.0
 40
1.499999999998932
 50
101.3099324741564
 51
180.0
  0
LINE
  5
337
  8
____1
  6
DASHED
 62
     7
 10
17618.369960328899
 20
9860.9935932566095
 30
0.0
 11
17767.01848959929
 21
9890.7232991106848
 31
0.0
  0
LINE
  5
338
  8
____1
  6
CONTINUOUS
 62
     5
 10
17618.075786126192
 20
9862.4644642701442
 30
0.0
 11
17766.724315396579
 21
9892.1941701242231
 31
0.0
  0
ARC
  5
339
  8
____1
  6
CONTINUOUS
 62
     5
 10
17767.01848959929
 20
9890.7232991106848
 30
0.0
 40
1.5
 50
90.0
 51
101.3099324741292
  0
LINE
  5
33A
  8
____1
  6
DASHED
 62
     7
 10
17618.369960328899
 20
9813.7232991106848
 30
0.0
 11
17618.369960328899
 21
9860.9935932566095
 31
0.0
  0
LINE
  5
33B
  8
____1
  6
CONTINUOUS
 62
     5
 10
17616.869960328899
 20
9813.7232991106848
 30
0.0
 11
17616.869960328899
 21
9860.9935932566095
 31
0.0
  0
INSERT
  5
34C
  8
____1
  6
DASHED2
 62
   254
  2
C22
 10
0.0
 20
0.0
 30
0.0
  0
LINE
  5
34D
  8
____1
  6
CONTINUOUS
 62
     5
 10
17618.369960328899
 20
9862.2232991106866
 30
0.0
 11
17766.869960328899
 21
9892.2232991106848
 31
0.0
  0
LINE
  5
34E
  8
____1
  6
CONTINUOUS
 62
     5
 10
17616.869960328899
 20
9812.2232991106848
 30
0.0
 11
17616.869960328899
 21
9862.2232991106866
 31
0.0
  0
LINE
  5
34F
  8
____1
  6
CONTINUOUS
 62
     5
 10
18482.869960328891
 20
9551.6708219062912
 30
0.0
 11
18482.869960328891
 21
9550.1708219062912
 31
0.0
  0
LINE
  5
350
  8
____1
  6
CONTINUOUS
 62
     5
 10
17799.869960328891
 20
9599.8786290433072
 30
0.0
 11
17798.369960328891
 21
9599.8786290433072
 31
0.0
  0
LINE
  5
351
  8
____1
  6
CONTINUOUS
 62
     5
 10
18424.869960328891
 20
9632.1977703559314
 30
0.0
 11
18418.369960328891
 21
9632.1977703559314
 31
0.0
  0
LINE
  5
352
  8
____1
  6
CONTINUOUS
 62
     5
 10
18418.369960328891
 20
9582.1977703559296
 30
0.0
 11
18418.369960328891
 21
9589.8786290433109
 31
0.0
  0
LINE
  5
353
  8
____1
  6
CONTINUOUS
 62
     5
 10
18424.869960328891
 20
9630.6977703559314
 30
0.0
 11
18418.369960328891
 21
9630.6977703559314
 31
0.0
  0
LINE
  5
354
  8
____1
  6
CONTINUOUS
 62
     5
 10
18418.369960328891
 20
9589.8786290433109
 30
0.0
 11
18418.369960328891
 21
9630.6977703559314
 31
0.0
  0
ARC
  5
355
  8
____1
  6
CONTINUOUS
 62
     5
 10
18615.369960328899
 20
9503.6977703559314
 30
0.0
 40
1.5
 50
-90.0
 51
0.0
  0
LINE
  5
356
  8
____1
  6
DASHED
 62
     7
 10
18613.869960328899
 20
9813.7232991106848
 30
0.0
 11
18613.869960328899
 21
9822.2232991106848
 31
0.0
  0
ARC
  5
357
  8
____1
  6
CONTINUOUS
 62
     5
 10
18615.369960328899
 20
9813.7232991106848
 30
0.0
 40
1.5
 50
-90.0
 51
0.0
  0
ARC
  5
358
  8
____1
  6
DASHED
 62
     7
 10
18615.369960328899
 20
9813.7232991106848
 30
0.0
 40
1.5
 50
180.0
 51
-90.0
  0
ARC
  5
359
  8
____1
  6
CONTINUOUS
 62
     5
 10
17815.369960328891
 20
9582.1977703559296
 30
0.0
 40
1.5
 50
-90.0
 51
0.0
  0
LINE
  5
35A
  8
____1
  6
CONTINUOUS
 62
     5
 10
17815.369960328891
 20
9582.1977703559296
 30
0.0
 11
17815.369960328891
 21
9630.6977703559314
 31
0.0
  0
ARC
  5
35B
  8
____1
  6
CONTINUOUS
 62
     5
 10
17815.369960328891
 20
9630.6977703559314
 30
0.0
 40
1.5
 50
0.0
 51
90.0
  0
LINE
  5
35C
  8
____1
  6
CONTINUOUS
 62
     5
 10
17816.869960328891
 20
9582.1977703559296
 30
0.0
 11
17816.869960328891
 21
9630.6977703559314
 31
0.0
  0
LINE
  5
35D
  8
____1
  6
CONTINUOUS
 62
     5
 10
17808.869960328891
 20
9630.6977703559314
 30
0.0
 11
17815.369960328891
 21
9630.6977703559314
 31
0.0
  0
LINE
  5
35E
  8
____1
  6
CONTINUOUS
 62
     5
 10
17808.869960328891
 20
9630.6977703559314
 30
0.0
 11
17808.869960328891
 21
9632.1977703559314
 31
0.0
  0
LINE
  5
35F
  8
____1
  6
CONTINUOUS
 62
     5
 10
17808.869960328891
 20
9632.1977703559314
 30
0.0
 11
17815.369960328891
 21
9632.1977703559314
 31
0.0
  0
LINE
  5
360
  8
____1
  6
CONTINUOUS
 62
     5
 10
18615.664134531598
 20
9552.4389355153871
 30
0.0
 11
18467.015605261218
 21
9582.1686413694679
 31
0.0
  0
ARC
  5
361
  8
____1
  6
CONTINUOUS
 62
     5
 10
18615.369960328899
 20
9503.6977703559314
 30
0.0
 40
1.5
 50
180.0
 51
-90.0
  0
LINE
  5
362
  8
____1
  6
CONTINUOUS
 62
     5
 10
18616.869960328899
 20
9503.6977703559314
 30
0.0
 11
18616.869960328899
 21
9550.9680645018543
 31
0.0
  0
ARC
  5
363
  8
____1
  6
CONTINUOUS
 62
     5
 10
18615.369960328899
 20
9550.9680645018543
 30
0.0
 40
1.4999999999975051
 50
0.0
 51
78.690067526116053
  0
LINE
  5
364
  8
____1
  6
CONTINUOUS
 62
     5
 10
18615.369960328899
 20
9512.1977703559296
 30
0.0
 11
18613.869960328899
 21
9512.1977703559296
 31
0.0
  0
LINE
  5
365
  8
____1
  6
CONTINUOUS
 62
     5
 10
18613.869960328899
 20
9503.6977703559314
 30
0.0
 11
18613.869960328899
 21
9512.1977703559296
 31
0.0
  0
LINE
  5
366
  8
____1
  6
CONTINUOUS
 62
     5
 10
18424.869960328891
 20
9630.6977703559314
 30
0.0
 11
18424.869960328891
 21
9632.1977703559314
 31
0.0
  0
ARC
  5
367
  8
____1
  6
CONTINUOUS
 62
     5
 10
18418.369960328891
 20
9582.1977703559296
 30
0.0
 40
1.5
 50
180.0
 51
-90.0
  0
LINE
  5
368
  8
____1
  6
DASHED2
 62
     7
 10
18424.869960328899
 20
9942.2232991106866
 30
0.0
 11
18418.369960328899
 21
9942.2232991106866
 31
0.0
  0
ARC
  5
369
  8
____1
  6
DASHED
 62
     7
 10
17815.369960328899
 20
9892.2232991106848
 30
0.0
 40
1.5
 50
-90.0
 51
0.0
  0
ARC
  5
36A
  8
____1
  6
CONTINUOUS
 62
     5
 10
18418.369960328891
 20
9630.6977703559314
 30
0.0
 40
1.5
 50
90.0
 51
180.0
  0
LINE
  5
36B
  8
____1
  6
CONTINUOUS
 62
     5
 10
18615.369960328899
 20
9503.6977703559314
 30
0.0
 11
18615.369960328899
 21
9550.9680645018543
 31
0.0
  0
LINE
  5
36C
  8
____1
  6
CONTINUOUS
 62
     5
 10
18615.369960328899
 20
9550.9680645018543
 30
0.0
 11
18466.7214310585
 21
9580.6977703559296
 31
0.0
  0
ARC
  5
36D
  8
____1
  6
CONTINUOUS
 62
     5
 10
18466.7214310585
 20
9580.6977703559296
 30
0.0
 40
1.5
 50
78.690067525857145
 51
90.0
  0
LINE
  5
36E
  8
____1
  6
DASHED
 62
     7
 10
18615.369960328899
 20
9822.2232991106848
 30
0.0
 11
18613.869960328899
 21
9822.2232991106848
 31
0.0
  0
ARC
  5
36F
  8
____1
  6
CONTINUOUS
 62
     5
 10
17798.369960328891
 20
9591.3786290433109
 30
0.0
 40
1.5
 50
-90.0
 51
-0.000011367181791
  0
LINE
  5
370
  8
____1
  6
CONTINUOUS
 62
     5
 10
17796.869960328891
 20
9633.9247718001607
 30
0.0
 11
17796.869960328891
 21
9591.3786290433109
 31
0.0
  0
ARC
  5
371
  8
____1
  6
CONTINUOUS
 62
     5
 10
17798.369960328891
 20
9633.9247718001607
 30
0.0
 40
1.4999999999995981
 50
91.789910608211358
 51
180.0
  0
LINE
  5
372
  8
____1
  6
CONTINUOUS
 62
     5
 10
17808.869960328891
 20
9630.6977703559314
 30
0.0
 11
17808.869960328891
 21
9632.1977703559314
 31
0.0
  0
LINE
  5
373
  8
____1
  6
CONTINUOUS
 62
     5
 10
17798.323108200329
 20
9635.4240399142891
 30
0.0
 11
18116.869960328891
 21
9645.378629043309
 31
0.0
  0
LINE
  5
374
  8
____1
  6
CONTINUOUS
 62
     5
 10
17798.369960328891
 20
9633.9247718001607
 30
0.0
 11
18116.869960328891
 21
9643.8778968001625
 31
0.0
  0
LINE
  5
375
  8
____1
  6
CONTINUOUS
 62
     5
 10
17815.369960328891
 20
9582.1977703559296
 30
0.0
 11
17815.369960328891
 21
9589.8786290433109
 31
0.0
  0
TEXT
  5
376
  8
____1
  6
CONTINUOUS
 62
     7
 10
17963.120747706249
 20
9367.4359881780638
 30
0.0
 40
33.866664886474609
  1
ブラケット部断面図
  7
STYLE1
  0
DIMENSION
  5
383
  8
______
  6
CONTINUOUS
 62
     7
  2
*D36
 10
18615.369960328899
 20
9441.5113735225495
 30
0.0
 11
18554.869960328899
 21
9441.5113735225495
 31
0.0
 13
18494.369960328899
 23
9550.1708219062912
 33
0.0
 14
18615.369960328899
 24
9503.6977703559314
 34
0.0
  0
DIMENSION
  5
390
  8
______
  6
CONTINUOUS
 62
     7
  2
*D37
 10
18616.869960328899
 20
9692.6957898228447
 30
0.0
 11
18546.869960328899
 21
9692.6957898228447
 31
0.0
 13
18476.869960328891
 23
9556.6708219062912
 33
0.0
 14
18616.869960328899
 24
9550.9680645018543
 34
0.0
  0
DIMENSION
  5
39E
  8
______
  6
CONTINUOUS
 62
     7
  2
*D38
 10
18494.369960328899
 20
9441.5113735225495
 30
0.0
 11
18476.869960328899
 21
9441.5113735225495
 31
0.0
 13
18459.369960328891
 23
9550.1708219062912
 33
0.0
 14
18494.369960328899
 24
9550.1708219062912
 34
0.0
  0
LINE
  5
39F
  8
____1
  6
CONTINUOUS
 62
     5
 10
18470.869960328891
 20
9551.6708219062912
 30
0.0
 11
18470.869960328891
 21
9550.1708219062912
 31
0.0
  0
LINE
  5
3A0
  8
____1
  6
CONTINUOUS
 62
     5
 10
18459.369960328891
 20
9551.6708219062912
 30
0.0
 11
18493.140255952789
 21
9551.6708219062912
 31
0.0
  0
LINE
  5
3A1
  8
____1
  6
CONTINUOUS
 62
     5
 10
18497.412108668039
 20
9573.0299545838589
 30
0.0
 11
18493.140255952789
 21
9551.6708219062912
 31
0.0
  0
LINE
  5
3A2
  8
____1
  6
CENTER2
 62
     3
 10
18476.869960328891
 20
9556.6708219062912
 30
0.0
 11
18476.869960328891
 21
9545.1708219062912
 31
0.0
  0
LINE
  5
3A3
  8
____1
  6
CONTINUOUS
 62
     5
 10
18424.869960328891
 20
9630.6977703559314
 30
0.0
 11
18424.869960328891
 21
9632.1977703559314
 31
0.0
  0
ARC
  5
3A4
  8
____1
  6
CONTINUOUS
 62
     5
 10
18435.369960328891
 20
9591.3786290433109
 30
0.0
 40
1.5
 50
-179.99996273939479
 51
0.0
  0
LINE
  5
3A5
  8
____1
  6
CONTINUOUS
 62
     5
 10
18433.869960328891
 20
9599.8786290433072
 30
0.0
 11
18433.869960328891
 21
9591.3786280678287
 31
0.0
  0
LINE
  5
3A6
  8
____1
  6
DASHED2
 62
     7
 10
18168.59645763701
 20
9908.9503005549159
 30
0.0
 11
18187.937691654861
 21
9942.4503005549159
 31
0.0
  0
LINE
  5
3A7
  8
____1
  6
DASHED2
 62
     7
 10
18059.369960328899
 20
9898.9503005549159
 30
0.0
 11
18174.369960328899
 21
9898.9503005549159
 31
0.0
  0
LINE
  5
3A8
  8
____1
  6
CONTINUOUS
 62
     5
 10
17799.869960328891
 20
9599.8786290433072
 30
0.0
 11
17799.869960328891
 21
9591.3786287457169
 31
0.0
  0
LINE
  5
3A9
  8
____1
  6
CONTINUOUS
 62
     5
 10
18615.369960328899
 20
9503.6977703559314
 30
0.0
 11
18615.369960328899
 21
9550.9680645018543
 31
0.0
  0
LINE
  5
3AA
  8
____1
  6
CONTINUOUS
 62
     5
 10
18498.882979033711
 20
9572.7357771417901
 30
0.0
 11
18494.369960328899
 21
9550.1708219062912
 31
0.0
  0
LINE
  5
3AB
  8
____1
  6
CONTINUOUS
 62
     5
 10
18459.369960328891
 20
9550.1708219062912
 30
0.0
 11
18494.369960328899
 21
9550.1708219062912
 31
0.0
  0
LINE
  5
3AC
  8
____1
  6
CONTINUOUS
 62
     5
 10
17798.369960328891
 20
9633.9247718001607
 30
0.0
 11
17798.369960328891
 21
9591.3786290433127
 31
0.0
  0
ARC
  5
3AD
  8
____1
  6
CONTINUOUS
 62
     5
 10
17798.369960328891
 20
9591.3786290433109
 30
0.0
 40
1.5
 50
180.0
 51
-90.0
  0
LINE
  5
3AE
  8
____1
  6
CONTINUOUS
 62
     5
 10
18498.882979033711
 20
9572.7357771417901
 30
0.0
 11
18517.02371725802
 21
9569.1076072619526
 31
0.0
  0
LINE
  5
3AF
  8
____1
  6
CONTINUOUS
 62
     5
 10
18517.31789319422
 20
9570.5784779287897
 30
0.0
 11
18517.02371725802
 21
9569.1076072619526
 31
0.0
  0
ARC
  5
3B0
  8
____1
  6
CONTINUOUS
 62
     5
 10
18493.140255952789
 20
9551.6708219062912
 30
0.0
 40
1.50000000000198
 50
-89.999997572914964
 51
-11.309961644097189
  0
LINE
  5
3B1
  8
____1
  6
CONTINUOUS
 62
     5
 10
18499.17715387612
 20
9574.2066480273843
 30
0.0
 11
18517.31789319422
 21
9570.5784779287897
 31
0.0
  0
LINE
  5
3B2
  8
____1
  6
CONTINUOUS
 62
     5
 10
18435.416812457472
 20
9635.4240399142891
 30
0.0
 11
18116.869960328891
 21
9645.378629043309
 31
0.0
  0
LINE
  5
3B3
  8
____1
  6
CONTINUOUS
 62
     5
 10
18435.369960328891
 20
9633.9247718001607
 30
0.0
 11
18116.869960328891
 21
9643.8778968001625
 31
0.0
  0
LINE
  5
3B4
  8
____1
  6
CONTINUOUS
 62
     5
 10
17808.869960328891
 20
9630.6977703559314
 30
0.0
 11
17808.869960328891
 21
9632.1977703559314
 31
0.0
  0
LINE
  5
3B5
  8
____1
  6
CONTINUOUS
 62
     5
 10
18459.369960328891
 20
9551.6708219062912
 30
0.0
 11
18459.369960328891
 21
9550.1708219062912
 31
0.0
  0
ARC
  5
3B6
  8
____1
  6
CONTINUOUS
 62
     5
 10
18435.369960328891
 20
9633.9247718001607
 30
0.0
 40
1.5
 50
0.0
 51
88.210089391510863
  0
LINE
  5
3B7
  8
____1
  6
CONTINUOUS
 62
     5
 10
18435.369960328891
 20
9633.9247718001607
 30
0.0
 11
18435.369960328891
 21
9591.3786290433109
 31
0.0
  0
LINE
  5
3B8
  8
____1
  6
CONTINUOUS
 62
     5
 10
18436.869960328891
 20
9633.9247718001607
 30
0.0
 11
18436.869960328891
 21
9591.3786290433109
 31
0.0
  0
LINE
  5
3B9
  8
____1
  6
CONTINUOUS
 62
     5
 10
18433.869960328891
 20
9599.8786290433072
 30
0.0
 11
18435.369960328899
 21
9599.8786290433072
 31
0.0
  0
ARC
  5
3BA
  8
____1
  6
CONTINUOUS
 62
     5
 10
18498.882979033711
 20
9572.7357771417901
 30
0.0
 40
1.5000000000011431
 50
78.690042606978508
 51
168.68994134104059
  0
LINE
  5
3BB
  8
____1
  6
DASHED2
 62
     7
 10
18418.369960328899
 20
9899.9041577980606
 30
0.0
 11
18418.369960328899
 21
9940.7232991106866
 31
0.0
  0
LINE
  5
3BC
  8
____1
  6
DASHED2
 62
     7
 10
17815.369960328899
 20
9892.2232991106848
 30
0.0
 11
17815.369960328899
 21
9940.7232991106866
 31
0.0
  0
LINE
  5
3BD
  8
____1
  6
DASHED2
 62
     7
 10
17808.869960328899
 20
9942.2232991106866
 30
0.0
 11
17815.369960328899
 21
9942.2232991106866
 31
0.0
  0
LINE
  5
3BE
  8
____1
  6
DASHED2
 62
     7
 10
17808.869960328899
 20
9940.7232991106866
 30
0.0
 11
17815.369960328899
 21
9940.7232991106866
 31
0.0
  0
ARC
  5
3BF
  8
____1
  6
DASHED2
 62
     7
 10
17798.369960328899
 20
9901.4041577980624
 30
0.0
 40
1.5
 50
-90.0
 51
0.0
  0
LINE
  5
3C0
  8
____1
  6
DASHED2
 62
     7
 10
18098.869960328899
 20
9941.4503005549122
 30
0.0
 11
18098.869960328899
 21
9920.4503005549141
 31
0.0
  0
ARC
  5
3C1
  8
____1
  6
DASHED
 62
     7
 10
17815.369960328899
 20
9940.7232991106866
 30
0.0
 40
1.5
 50
0.0
 51
90.0
  0
LINE
  5
3C2
  8
____1
  6
DASHED
 62
     7
 10
18615.369960328899
 20
9813.7232991106848
 30
0.0
 11
18615.369960328899
 21
9860.9935932566095
 31
0.0
  0
LINE
  5
3C3
  8
____1
  6
DASHED2
 62
     7
 10
18424.869960328899
 20
9940.7232991106866
 30
0.0
 11
18418.369960328899
 21
9940.7232991106866
 31
0.0
  0
LINE
  5
3C4
  8
____1
  6
CONTINUOUS
 62
     5
 10
18424.869960328899
 20
9940.7232991106866
 30
0.0
 11
18424.869960328899
 21
9942.2232991106866
 31
0.0
  0
LINE
  5
3C5
  8
____1
  6
CONTINUOUS
 62
     5
 10
18466.7214310585
 20
9892.2232991106848
 30
0.0
 11
18418.369960328899
 21
9892.2232991106848
 31
0.0
  0
LINE
  5
3C6
  8
____1
  6
DASHED
 62
     7
 10
17816.869960328899
 20
9892.2232991106848
 30
0.0
 11
17816.869960328899
 21
9940.7232991106866
 31
0.0
  0
LINE
  5
3C7
  8
____1
  6
CONTINUOUS
 62
     5
 10
17808.869960328899
 20
9940.7232991106866
 30
0.0
 11
17808.869960328899
 21
9942.2232991106866
 31
0.0
  0
ARC
  5
3C8
  8
____1
  6
CONTINUOUS
 62
     5
 10
18466.7214310585
 20
9890.7232991106848
 30
0.0
 40
1.5
 50
78.690067525870774
 51
90.0
  0
LINE
  5
3C9
  8
____1
  6
DASHED
 62
     7
 10
18466.7214310585
 20
9890.7232991106848
 30
0.0
 11
18418.369960328899
 21
9890.7232991106848
 31
0.0
  0
ARC
  5
3CA
  8
____1
  6
DASHED
 62
     7
 10
18418.369960328899
 20
9892.2232991106848
 30
0.0
 40
1.5
 50
180.0
 51
-90.0
  0
LINE
  5
3CB
  8
____1
  6
DASHED
 62
     7
 10
18416.869960328899
 20
9892.2232991106848
 30
0.0
 11
18416.869960328899
 21
9940.7232991106866
 31
0.0
  0
ARC
  5
3CC
  8
____1
  6
DASHED
 62
     7
 10
18418.369960328899
 20
9940.7232991106866
 30
0.0
 40
1.5
 50
90.0
 51
180.0
  0
LINE
  5
3CD
  8
____1
  6
CONTINUOUS
 62
     5
 10
18418.369960328899
 20
9892.2232991106848
 30
0.0
 11
18418.369960328899
 21
9899.9041577980606
 31
0.0
  0
LINE
  5
3CE
  8
____1
  6
CONTINUOUS
 62
     5
 10
18615.369960328899
 20
10246.6981833836
 30
0.0
 11
18436.869960328899
 21
10425.1981833836
 31
0.0
  0
LINE
  5
3CF
  8
____1
  6
DASHED
 62
     5
 10
18615.369960328899
 20
10245.1981833836
 30
0.0
 11
18615.369960328899
 21
10246.6981833836
 31
0.0
  0
LINE
  5
3D0
  8
____1
  6
CONTINUOUS
 62
     5
 10
18616.869960328899
 20
10245.1981833836
 30
0.0
 11
18615.369960328899
 21
10245.1981833836
 31
0.0
  0
LINE
  5
3D1
  8
____1
  6
CONTINUOUS
 62
     5
 10
18615.369960328899
 20
10245.1981833836
 30
0.0
 11
18615.369960328899
 21
10246.6981833836
 31
0.0
  0
LINE
  5
3D2
  8
____1
  6
CONTINUOUS
 62
     5
 10
18616.869960328899
 20
9813.7232991106848
 30
0.0
 11
18616.869960328899
 21
9860.9935932566095
 31
0.0
  0
ARC
  5
3D3
  8
____1
  6
CONTINUOUS
 62
     5
 10
18615.369960328899
 20
9860.9935932566095
 30
0.0
 40
1.4999999999975051
 50
0.0
 51
78.690067526116053
  0
LINE
  5
3D4
  8
____1
  6
CONTINUOUS
 62
     5
 10
18615.664134531598
 20
9862.4644642701442
 30
0.0
 11
18467.015605261218
 21
9892.1941701242231
 31
0.0
  0
LINE
  5
3D5
  8
____1
  6
DASHED
 62
     7
 10
18615.369960328899
 20
9860.9935932566095
 30
0.0
 11
18466.7214310585
 21
9890.7232991106848
 31
0.0
  0
LINE
  5
3D6
  8
____1
  6
DASHED2
 62
     7
 10
18096.869960328899
 20
9929.9503005549141
 30
0.0
 11
18096.869960328899
 21
9939.9503005549159
 31
0.0
  0
ARC
  5
3D7
  8
____1
  6
DASHED2
 62
     7
 10
18116.869960328899
 20
9904.9503005549159
 30
0.0
 40
5.0
 50
180.0
 51
0.0
  0
LINE
  5
3D8
  8
____1
  6
DASHED2
 62
     7
 10
18187.937691654861
 20
9942.4503005549159
 30
0.0
 11
18216.869960328899
 21
9942.4503005549159
 31
0.0
  0
INSERT
  5
3E0
  8
____1
  6
CONTINUOUS
 62
     7
  2
C23
 10
0.0
 20
0.0
 30
0.0
  0
LINE
  5
3E1
  8
____1
  6
DASHED2
 62
     7
 10
18065.143463020799
 20
9908.9503005549159
 30
0.0
 11
18168.59645763701
 21
9908.9503005549159
 31
0.0
  0
ARC
  5
3E2
  8
____1
  6
DASHED2
 62
     7
 10
18034.255223619151
 20
9942.4503005549159
 30
0.0
 40
1.5000000000007581
 50
29.999933376150828
 51
90.0
  0
LINE
  5
3E3
  8
____1
  6
DASHED2
 62
     7
 10
18216.869960328899
 20
9943.9503005549159
 30
0.0
 11
18216.869960328899
 21
9942.4503005549159
 31
0.0
  0
LINE
  5
3E4
  8
____1
  6
DASHED2
 62
     7
 10
18174.369960328899
 20
9898.9503005549159
 30
0.0
 11
18199.48469703865
 21
9942.4503005549159
 31
0.0
  0
LINE
  5
3E5
  8
____1
  6
DASHED2
 62
     7
 10
18101.869960328899
 20
9895.2136055500832
 30
0.0
 11
18131.869960328899
 21
9895.2136055500832
 31
0.0
  0
POLYLINE
  5
3E6
  8
____1
  6
DASHED2
 62
     7
 66
     1
 10
0.0
 20
0.0
 30
0.0
 70
     8
  0
VERTEX
  5
3E7
  8
____1
 62
     7
 10
18131.869960328899
 20
9880.8518847032683
 30
0.0
 70
    32
  0
VERTEX
  5
3E8
  8
____1
 62
     7
 10
18131.642076624081
 20
9878.3579980500563
 30
0.0
 70
    32
  0
VERTEX
  5
3E9
  8
____1
 62
     7
 10
18130.96534964069
 20
9875.9398868808366
 30
0.0
 70
    32
  0
VERTEX
  5
3EA
  8
____1
 62
     7
 10
18129.860341385669
 20
9873.6710242798563
 30
0.0
 70
    32
  0
VERTEX
  5
3EB
  8
____1
 62
     7
 10
18128.360626975678
 20
9871.6203484891539
 30
0.0
 70
    32
  0
VERTEX
  5
3EC
  8
____1
 62
     7
 10
18126.511774474198
 20
9869.8501682549359
 30
0.0
 70
    32
  0
VERTEX
  5
3ED
  8
____1
 62
     7
 10
18124.369960328899
 20
9868.4142696078616
 30
0.0
 70
    32
  0
VERTEX
  5
3EE
  8
____1
 62
     7
 10
18122.000262478788
 20
9867.3562816017238
 30
0.0
 70
    32
  0
VERTEX
  5
3EF
  8
____1
 62
     7
 10
18119.47468299391
 20
9866.7083506667223
 30
0.0
 70
    32
  0
VERTEX
  5
3F0
  8
____1
 62
     7
 10
18116.869960328899
 20
9866.4901638564497
 30
0.0
 70
    32
  0
VERTEX
  5
3F1
  8
____1
 62
     7
 10
18114.265237663902
 20
9866.7083506667223
 30
0.0
 70
    32
  0
VERTEX
  5
3F2
  8
____1
 62
     7
 10
18111.73965817902
 20
9867.3562816017238
 30
0.0
 70
    32
  0
VERTEX
  5
3F3
  8
____1
 62
     7
 10
18109.369960328899
 20
9868.4142696078616
 30
0.0
 70
    32
  0
VERTEX
  5
3F4
  8
____1
 62
     7
 10
18107.228146183599
 20
9869.8501682549359
 30
0.0
 70
    32
  0
VERTEX
  5
3F5
  8
____1
 62
     7
 10
18105.379293682119
 20
9871.6203484891539
 30
0.0
 70
    32
  0
VERTEX
  5
3F6
  8
____1
 62
     7
 10
18103.879579272128
 20
9873.6710242798563
 30
0.0
 70
    32
  0
VERTEX
  5
3F7
  8
____1
 62
     7
 10
18102.774571017111
 20
9875.9398868808366
 30
0.0
 70
    32
  0
VERTEX
  5
3F8
  8
____1
 62
     7
 10
18102.09784403372
 20
9878.3579980500563
 30
0.0
 70
    32
  0
VERTEX
  5
3F9
  8
____1
 62
     7
 10
18101.869960328899
 20
9880.8518847032683
 30
0.0
 70
    32
  0
SEQEND
  5
3FA
  8
____1
 62
     7
  0
LINE
  5
3FB
  8
____1
  6
DASHED2
 62
     7
 10
18136.869960328899
 20
9931.9503005549141
 30
0.0
 11
18096.869960328899
 21
9931.9503005549141
 31
0.0
  0
LINE
  5
3FC
  8
____1
  6
DASHED2
 62
     7
 10
18197.752646231082
 20
9942.4503005549159
 30
0.0
 11
18198.185658932969
 21
9943.2003005549159
 31
0.0
  0
INSERT
  5
40D
  8
____1
  6
DASHED2
 62
   254
  2
C24
 10
0.0
 20
0.0
 30
0.0
  0
LINE
  5
40E
  8
____1
  6
DASHED2
 62
     7
 10
18136.869960328899
 20
9939.9503005549159
 30
0.0
 11
18136.869960328899
 21
9929.9503005549141
 31
0.0
  0
LINE
  5
40F
  8
____1
  6
DASHED2
 62
     7
 10
18096.869960328899
 20
9939.9503005549159
 30
0.0
 11
18136.869960328899
 21
9939.9503005549159
 31
0.0
  0
DIMENSION
  5
41C
  8
______
  6
CONTINUOUS
 62
     7
  2
*D41
 10
18436.869960328899
 20
10178.462836651541
 30
0.0
 11
18116.869960328899
 21
10178.462836651541
 31
0.0
 13
17796.869960328899
 23
10421.6981833836
 33
0.0
 14
18436.869960328899
 24
10421.6981833836
 34
0.0
  0
LINE
  5
41D
  8
____1
  6
DASHED2
 62
     7
 10
18169.462483040788
 20
9907.4503005549159
 30
0.0
 11
18189.236729760531
 21
9941.7003005549159
 31
0.0
  0
LINE
  5
41E
  8
____1
  6
DASHED2
 62
     7
 10
18435.369960328899
 20
9943.9503005549159
 30
0.0
 11
18116.869960328899
 21
9953.9034255549141
 31
0.0
  0
LINE
  5
41F
  8
____1
  6
DASHED2
 62
     7
 10
17798.369960328899
 20
9943.9503005549159
 30
0.0
 11
18116.869960328899
 21
9953.9034255549141
 31
0.0
  0
LINE
  5
420
  8
____1
  6
DASHED2
 62
     7
 10
17799.869960328899
 20
9909.9041577980624
 30
0.0
 11
17799.869960328899
 21
9899.9041577980606
 31
0.0
  0
ARC
  5
421
  8
____1
  6
DASHED2
 62
     7
 10
18101.369960328899
 20
9941.4503005549122
 30
0.0
 40
0.5
 50
90.0
 51
180.0
  0
LINE
  5
422
  8
____1
  6
DASHED2
 62
     7
 10
18101.869960328899
 20
9941.9503005549141
 30
0.0
 11
18101.869960328899
 21
9943.9503005549159
 31
0.0
  0
LINE
  5
423
  8
____1
  6
DASHED2
 62
     7
 10
18098.869960328899
 20
9920.4503005549141
 30
0.0
 11
18100.869960328899
 21
9920.4503005549141
 31
0.0
  0
LINE
  5
424
  8
____1
  6
DASHED2
 62
     7
 10
18098.869960328899
 20
9929.9503005549141
 30
0.0
 11
18100.869960328899
 21
9929.9503005549141
 31
0.0
  0
LINE
  5
425
  8
____1
  6
DASHED2
 62
     7
 10
18100.869960328899
 20
9941.4503005549122
 30
0.0
 11
18100.869960328899
 21
9920.4503005549141
 31
0.0
  0
LINE
  5
426
  8
____1
  6
DASHED2
 62
     7
 10
18132.869960328899
 20
9920.4503005549141
 30
0.0
 11
18132.869960328899
 21
9941.4503005549122
 31
0.0
  0
ARC
  5
427
  8
____1
  6
DASHED2
 62
     7
 10
18132.369960328899
 20
9941.4503005549122
 30
0.0
 40
2.5
 50
0.0
 51
90.0
  0
LINE
  5
428
  8
____1
  6
CONTINUOUS
 62
     5
 10
17798.369960328899
 20
9899.9041577980606
 30
0.0
 11
18435.369960328899
 21
9899.9041577980606
 31
0.0
  0
LINE
  5
429
  8
____1
  6
DASHED2
 62
     7
 10
18407.369960328899
 20
9915.6232991106863
 30
0.0
 11
18404.369960328899
 21
9915.6232991106863
 31
0.0
  0
LINE
  5
42A
  8
____1
  6
DASHED2
 62
     7
 10
18134.869960328899
 20
9920.4503005549141
 30
0.0
 11
18134.869960328899
 21
9941.4503005549122
 31
0.0
  0
LINE
  5
42B
  8
____1
  6
DASHED2
 62
     7
 10
18132.869960328899
 20
9920.4503005549141
 30
0.0
 11
18134.869960328899
 21
9920.4503005549141
 31
0.0
  0
LINE
  5
42C
  8
____1
  6
DASHED2
 62
     7
 10
18096.869960328899
 20
9937.9503005549159
 30
0.0
 11
18136.869960328899
 21
9937.9503005549159
 31
0.0
  0
LINE
  5
42D
  8
____1
  6
DASHED2
 62
     7
 10
18131.869960328899
 20
9880.8518847032683
 30
0.0
 11
18131.869960328899
 21
9929.9503005549141
 31
0.0
  0
ARC
  5
42E
  8
____1
  6
DASHED2
 62
     7
 10
18132.369960328899
 20
9941.4503005549122
 30
0.0
 40
0.5
 50
0.0
 51
90.0
  0
LINE
  5
42F
  8
____1
  6
DASHED2
 62
     7
 10
18131.869960328899
 20
9941.9503005549141
 30
0.0
 11
18131.869960328899
 21
9943.9503005549159
 31
0.0
  0
LINE
  5
430
  8
____1
  6
DASHED2
 62
     7
 10
18132.369960328899
 20
9941.9503005549141
 30
0.0
 11
18101.369960328899
 21
9941.9503005549141
 31
0.0
  0
LINE
  5
431
  8
____1
  6
DASHED2
 62
     7
 10
18132.869960328899
 20
9929.9503005549141
 30
0.0
 11
18134.869960328899
 21
9929.9503005549141
 31
0.0
  0
ARC
  5
432
  8
____1
  6
DASHED2
 62
     7
 10
18101.369960328899
 20
9941.4503005549122
 30
0.0
 40
2.5
 50
90.0
 51
180.0
  0
LINE
  5
433
  8
____1
  6
DASHED2
 62
     7
 10
18111.869960328899
 20
9904.9503005549159
 30
0.0
 11
18111.869960328899
 21
9929.9503005549141
 31
0.0
  0
LINE
  5
434
  8
____1
  6
DASHED2
 62
     7
 10
18101.869960328899
 20
9880.8518847032683
 30
0.0
 11
18101.869960328899
 21
9929.9503005549141
 31
0.0
  0
LINE
  5
435
  8
____1
  6
DASHED2
 62
     7
 10
18136.869960328899
 20
9929.9503005549141
 30
0.0
 11
18096.869960328899
 21
9929.9503005549141
 31
0.0
  0
LINE
  5
436
  8
____1
  6
DASHED2
 62
     7
 10
17830.869960328899
 20
9893.7232991106866
 30
0.0
 11
17830.869960328899
 21
9930.7232991106848
 31
0.0
  0
INSERT
  5
440
  8
____1
  6
CONTINUOUS
 62
     7
  2
C25
 10
0.0
 20
0.0
 30
0.0
  0
INSERT
  5
44E
  8
____1
  6
CONTINUOUS
 62
   254
  2
C26
 10
0.0
 20
0.0
 30
0.0
  0
LINE
  5
44F
  8
____1
  6
DASHED2
 62
     7
 10
17816.869960328899
 20
9930.7232991106848
 30
0.0
 11
17830.869960328899
 21
9930.7232991106848
 31
0.0
  0
LINE
  5
450
  8
____1
  6
DASHED2
 62
     7
 10
17826.369960328899
 20
9917.1232991106863
 30
0.0
 11
17828.869960328899
 21
9917.1232991106863
 31
0.0
  0
LINE
  5
451
  8
____1
  6
DASHED2
 62
     7
 10
18045.802229002951
 20
9942.4503005549159
 30
0.0
 11
18016.869960328899
 21
9942.4503005549159
 31
0.0
  0
ARC
  5
452
  8
____1
  6
DASHED2
 62
     7
 10
18199.48469703865
 20
9942.4503005549159
 30
0.0
 40
1.5000000000003191
 50
90.0
 51
150.00000000000699
  0
LINE
  5
453
  8
____1
  6
DASHED2
 62
     7
 10
18060.119960328899
 20
9900.2493386605929
 30
0.0
 11
18065.143463020799
 21
9908.9503005549159
 31
0.0
  0
ARC
  5
454
  8
____1
  6
DASHED2
 62
     7
 10
18059.369960328899
 20
9898.9503005549159
 30
0.0
 40
1.5
 50
0.0
 51
119.99999999999289
  0
LINE
  5
455
  8
____1
  6
DASHED2
 62
     7
 10
18059.369960328899
 20
9898.9503005549159
 30
0.0
 11
18034.255223619151
 21
9942.4503005549159
 31
0.0
  0
LINE
  5
456
  8
____1
  6
DASHED2
 62
     7
 10
18016.869960328899
 20
9943.9503005549159
 30
0.0
 11
18016.869960328899
 21
9942.4503005549159
 31
0.0
  0
ARC
  5
457
  8
____1
  6
DASHED2
 62
     7
 10
18174.369960328899
 20
9898.9503005549159
 30
0.0
 40
1.5
 50
60.000000000007063
 51
180.0
  0
LINE
  5
458
  8
____1
  6
DASHED2
 62
     7
 10
18173.503934925109
 20
9900.4503005549159
 30
0.0
 11
18197.752646231082
 21
9942.4503005549159
 31
0.0
  0
INSERT
  5
487
  8
____1
  6
CONTINUOUS
 62
     7
  2
C27
 10
0.0
 20
0.0
 30
0.0
  0
LINE
  5
488
  8
____1
  6
DASHED2
 62
     7
 10
18034.255223619151
 20
9943.9503005549159
 30
0.0
 11
18016.869960328899
 21
9943.9503005549159
 31
0.0
  0
LINE
  5
489
  8
____1
  6
DASHED2
 62
     7
 10
18035.98727442672
 20
9942.4503005549159
 30
0.0
 11
18035.554261724828
 21
9943.2003005549159
 31
0.0
  0
LINE
  5
48A
  8
____1
  6
DASHED2
 62
     7
 10
18065.143463020799
 20
9908.9503005549159
 30
0.0
 11
18045.802229002951
 21
9942.4503005549159
 31
0.0
  0
LINE
  5
48B
  8
____1
  6
DASHED2
 62
     7
 10
18173.619960328899
 20
9900.2493386605929
 30
0.0
 11
18168.59645763701
 21
9908.9503005549159
 31
0.0
  0
LINE
  5
48C
  8
____1
  6
DASHED2
 62
     7
 10
18199.48469703865
 20
9943.9503005549159
 30
0.0
 11
18216.869960328899
 21
9943.9503005549159
 31
0.0
  0
LINE
  5
48D
  8
____1
  6
DASHED2
 62
     7
 10
17829.369960328899
 20
9893.7232991106866
 30
0.0
 11
17829.369960328899
 21
9930.7232991106848
 31
0.0
  0
LINE
  5
48E
  8
____1
  6
CONTINUOUS
 62
     5
 10
18615.369960328899
 20
9862.2232991106866
 30
0.0
 11
18466.869960328899
 21
9892.2232991106848
 31
0.0
  0
LINE
  5
48F
  8
____1
  6
CONTINUOUS
 62
     5
 10
18615.369960328899
 20
9812.2232991106848
 30
0.0
 11
18615.369960328899
 21
9862.2232991106866
 31
0.0
  0
LINE
  5
490
  8
____1
  6
DASHED2
 62
     7
 10
18060.235985732688
 20
9900.4503005549159
 30
0.0
 11
18173.503934925109
 21
9900.4503005549159
 31
0.0
  0
LINE
  5
491
  8
____1
  6
DASHED2
 62
     7
 10
18060.235985732688
 20
9900.4503005549159
 30
0.0
 11
18035.98727442672
 21
9942.4503005549159
 31
0.0
  0
LINE
  5
492
  8
____1
  6
DASHED2
 62
     7
 10
18064.277437617009
 20
9907.4503005549159
 30
0.0
 11
18169.462483040788
 21
9907.4503005549159
 31
0.0
  0
LINE
  5
493
  8
____1
  6
DASHED2
 62
     7
 10
18404.369960328899
 20
9893.7232991106866
 30
0.0
 11
18404.369960328899
 21
9930.7232991106848
 31
0.0
  0
LINE
  5
494
  8
____1
  6
DASHED2
 62
     7
 10
18416.869960328899
 20
9892.2232991106848
 30
0.0
 11
18404.369960328899
 21
9892.2232991106848
 31
0.0
  0
LINE
  5
495
  8
____1
  6
DASHED2
 62
     7
 10
18415.369960328899
 20
9892.2232991106848
 30
0.0
 11
18415.369960328899
 21
9932.2232991106848
 31
0.0
  0
LINE
  5
496
  8
____1
  6
DASHED2
 62
     7
 10
18407.369960328899
 20
9917.1232991106863
 30
0.0
 11
18407.369960328899
 21
9907.3232991106888
 31
0.0
  0
ARC
  5
497
  8
____1
  6
DASHED2
 62
     7
 10
18404.369960328899
 20
9917.1232991106863
 30
0.0
 40
1.5
 50
180.0
 51
-90.0
  0
LINE
  5
498
  8
____1
  6
DASHED2
 62
     7
 10
18433.869960328899
 20
9909.9041577980624
 30
0.0
 11
18433.869960328899
 21
9899.9041577980606
 31
0.0
  0
LINE
  5
499
  8
____1
  6
CONTINUOUS
 62
     5
 10
17798.32310820034
 20
9945.4495686690461
 30
0.0
 11
18116.869960328899
 21
9955.4041577980643
 31
0.0
  0
LINE
  5
49A
  8
____1
  6
CONTINUOUS
 62
     5
 10
18435.416812457472
 20
9945.4495686690461
 30
0.0
 11
18116.869960328899
 21
9955.4041577980643
 31
0.0
  0
LINE
  5
49B
  8
____1
  6
DASHED2
 62
     7
 10
17798.369960328899
 20
9909.9041577980624
 30
0.0
 11
18435.369960328899
 21
9909.9041577980624
 31
0.0
  0
LINE
  5
49C
  8
____1
  6
CONTINUOUS
 62
     5
 10
18436.869960328899
 20
9943.9503005549159
 30
0.0
 11
18436.869960328899
 21
9901.4041577980624
 31
0.0
  0
LINE
  5
49D
  8
____1
  6
CONTINUOUS
 62
     5
 10
17796.869960328899
 20
9943.9503005549159
 30
0.0
 11
17796.869960328899
 21
9901.4041577980624
 31
0.0
  0
LINE
  5
49E
  8
____1
  6
CONTINUOUS
 62
     5
 10
17815.369960328899
 20
9892.2232991106848
 30
0.0
 11
17815.369960328899
 21
9899.9041577980606
 31
0.0
  0
LINE
  5
49F
  8
____1
  6
DASHED2
 62
     7
 10
17826.369960328899
 20
9907.3232991106888
 30
0.0
 11
17828.869960328899
 21
9907.3232991106888
 31
0.0
  0
LINE
  5
4A0
  8
____1
  6
DASHED2
 62
     7
 10
18407.369960328899
 20
9907.3232991106888
 30
0.0
 11
18404.869960328899
 21
9907.3232991106888
 31
0.0
  0
ARC
  5
4A1
  8
____1
  6
CONTINUOUS
 62
     5
 10
17798.369960328899
 20
9901.4041577980624
 30
0.0
 40
1.5
 50
180.0
 51
-90.0
  0
LINE
  5
4A2
  8
____1
  6
DASHED2
 62
     7
 10
17798.369960328899
 20
9943.9503005549159
 30
0.0
 11
17798.369960328899
 21
9901.4041577980679
 31
0.0
  0
ARC
  5
4A3
  8
____1
  6
CONTINUOUS
 62
     5
 10
18435.369960328899
 20
9901.4041577980624
 30
0.0
 40
1.5
 50
-90.0
 51
0.0
  0
ARC
  5
4A4
  8
____1
  6
DASHED2
 62
     7
 10
18435.369960328899
 20
9901.4041577980624
 30
0.0
 40
1.5
 50
180.0
 51
-90.0
  0
LINE
  5
4A5
  8
____1
  6
DASHED2
 62
     7
 10
18435.369960328899
 20
9943.9503005549159
 30
0.0
 11
18435.369960328899
 21
9901.4041577980624
 31
0.0
  0
LINE
  5
4A6
  8
____1
  6
CONTINUOUS
 62
     5
 10
17808.869960328899
 20
9940.7232991106866
 30
0.0
 11
17808.869960328899
 21
9942.2232991106866
 31
0.0
  0
LINE
  5
4A7
  8
____1
  6
DASHED2
 62
     7
 10
18132.369960328899
 20
9943.9503005549159
 30
0.0
 11
18101.369960328899
 21
9943.9503005549159
 31
0.0
  0
LINE
  5
4A8
  8
____1
  6
DASHED2
 62
     7
 10
18433.869960328899
 20
9909.9041577980624
 30
0.0
 11
18435.369960328899
 21
9909.9041577980624
 31
0.0
  0
ARC
  5
4A9
  8
____1
  6
CONTINUOUS
 62
     5
 10
18435.369960328899
 20
9943.9503005549159
 30
0.0
 40
1.5
 50
0.0
 51
88.210089391649774
  0
LINE
  5
4AA
  8
____1
  6
DASHED2
 62
     7
 10
18121.869960328899
 20
9904.9503005549159
 30
0.0
 11
18121.869960328899
 21
9929.9503005549141
 31
0.0
  0
ARC
  5
4AB
  8
____1
  6
DASHED2
 62
     7
 10
17829.369960328899
 20
9907.3232991106888
 30
0.0
 40
1.5
 50
0.0
 51
90.0
  0
ARC
  5
4AC
  8
____1
  6
DASHED2
 62
     7
 10
17829.369960328899
 20
9930.7232991106848
 30
0.0
 40
1.5
 50
0.0
 51
90.0
  0
LINE
  5
4AD
  8
____1
  6
DASHED2
 62
     7
 10
17808.869960328899
 20
9944.4732991106848
 30
0.0
 11
18424.869960328899
 21
9944.4732991106848
 31
0.0
  0
LINE
  5
4AE
  8
____1
  6
DASHED2
 62
     7
 10
18424.869960328899
 20
9944.4732991106848
 30
0.0
 11
18424.869960328899
 21
9938.4732991106848
 31
0.0
  0
INSERT
  5
4DD
  8
____1
  6
CONTINUOUS
 62
     7
  2
C29
 10
0.0
 20
0.0
 30
0.0
  0
INSERT
  5
4E5
  8
____1
  6
CONTINUOUS
 62
     7
  2
C31
 10
0.0
 20
0.0
 30
0.0
  0
ARC
  5
4E6
  8
____1
  6
DASHED2
 62
     7
 10
18404.369960328899
 20
9930.7232991106848
 30
0.0
 40
1.5
 50
90.0
 51
180.0
  0
ARC
  5
4E7
  8
____1
  6
DASHED2
 62
     7
 10
17829.369960328899
 20
9917.1232991106863
 30
0.0
 40
1.5
 50
-90.0
 51
0.0
  0
LINE
  5
4E8
  8
____1
  6
DASHED2
 62
     7
 10
17826.369960328899
 20
9917.1232991106863
 30
0.0
 11
17826.369960328899
 21
9907.3232991106888
 31
0.0
  0
LINE
  5
4E9
  8
____1
  6
DASHED2
 62
     7
 10
17818.369960328899
 20
9892.2232991106848
 30
0.0
 11
17818.369960328899
 21
9932.2232991106848
 31
0.0
  0
LINE
  5
4EA
  8
____1
  6
DASHED2
 62
     7
 10
17816.869960328899
 20
9892.2232991106848
 30
0.0
 11
17829.369960328899
 21
9892.2232991106848
 31
0.0
  0
ARC
  5
4EB
  8
____1
  6
DASHED2
 62
     7
 10
17829.369960328899
 20
9893.7232991106866
 30
0.0
 40
1.5
 50
-90.0
 51
0.0
  0
LINE
  5
4EC
  8
____1
  6
DASHED2
 62
     7
 10
18436.869960328899
 20
10425.1981833836
 30
0.0
 11
18418.369960328899
 21
10443.6981833836
 31
0.0
  0
LINE
  5
4ED
  8
____1
  6
DASHED2
 62
     7
 10
18416.869960328899
 20
10443.6981833836
 30
0.0
 11
18418.369960328899
 21
10443.6981833836
 31
0.0
  0
LINE
  5
4EE
  8
____1
  6
DASHED2
 62
     7
 10
18064.277437617009
 20
9907.4503005549159
 30
0.0
 11
18044.503190897271
 21
9941.7003005549159
 31
0.0
  0
ARC
  5
4EF
  8
____1
  6
DASHED2
 62
     7
 10
18404.369960328899
 20
9893.7232991106866
 30
0.0
 40
1.5
 50
180.0
 51
-90.0
  0
LINE
  5
4F0
  8
____1
  6
DASHED2
 62
     7
 10
17826.369960328899
 20
9915.6232991106863
 30
0.0
 11
17829.369960328899
 21
9915.6232991106863
 31
0.0
  0
LINE
  5
4F1
  8
____1
  6
DASHED2
 62
     7
 10
17826.369960328899
 20
9908.8232991106888
 30
0.0
 11
17829.369960328899
 21
9908.8232991106888
 31
0.0
  0
LINE
  5
4F2
  8
____1
  6
DASHED2
 62
     7
 10
17816.869960328899
 20
9893.7232991106866
 30
0.0
 11
17830.869960328899
 21
9893.7232991106866
 31
0.0
  0
ARC
  5
4F3
  8
____1
  6
DASHED2
 62
     7
 10
18404.369960328899
 20
9907.3232991106888
 30
0.0
 40
1.5
 50
90.0
 51
180.0
  0
LINE
  5
4F4
  8
____1
  6
DASHED2
 62
     7
 10
18416.869960328899
 20
9932.2232991106848
 30
0.0
 11
18404.369960328899
 21
9932.2232991106848
 31
0.0
  0
LINE
  5
4F5
  8
____1
  6
DASHED2
 62
     7
 10
18416.869960328899
 20
9893.7232991106866
 30
0.0
 11
18402.869960328899
 21
9893.7232991106866
 31
0.0
  0
LINE
  5
4F6
  8
____1
  6
DASHED2
 62
     7
 10
18407.369960328899
 20
9908.8232991106888
 30
0.0
 11
18404.369960328899
 21
9908.8232991106888
 31
0.0
  0
LINE
  5
4F7
  8
____1
  6
DASHED2
 62
     7
 10
18416.869960328899
 20
9930.7232991106848
 30
0.0
 11
18402.869960328899
 21
9930.7232991106848
 31
0.0
  0
INSERT
  5
505
  8
____1
  6
CONTINUOUS
 62
   254
  2
C32
 10
0.0
 20
0.0
 30
0.0
  0
INSERT
  5
50F
  8
____1
  6
CONTINUOUS
 62
     7
  2
C33
 10
0.0
 20
0.0
 30
0.0
  0
LINE
  5
510
  8
____1
  6
DASHED2
 62
     7
 10
18402.869960328899
 20
9893.7232991106866
 30
0.0
 11
18402.869960328899
 21
9930.7232991106848
 31
0.0
  0
LINE
  5
511
  8
____1
  6
DASHED2
 62
     7
 10
18407.369960328899
 20
9917.1232991106863
 30
0.0
 11
18404.869960328899
 21
9917.1232991106863
 31
0.0
  0
LINE
  5
512
  8
____1
  6
CONTINUOUS
 62
     5
 10
18424.869960328899
 20
9940.7232991106866
 30
0.0
 11
18424.869960328899
 21
9942.2232991106866
 31
0.0
  0
LINE
  5
513
  8
____1
  6
DASHED2
 62
     7
 10
18424.869960328899
 20
9938.4732991106848
 30
0.0
 11
17808.869960328899
 21
9938.4732991106848
 31
0.0
  0
LINE
  5
514
  8
____1
  6
DASHED2
 62
     7
 10
17808.869960328899
 20
9938.4732991106848
 30
0.0
 11
17808.869960328899
 21
9944.4732991106848
 31
0.0
  0
ARC
  5
515
  8
____1
  6
CONTINUOUS
 62
     5
 10
17798.369960328899
 20
9943.9503005549159
 30
0.0
 40
1.4999999999995981
 50
91.789910608211358
 51
180.0
  0
LINE
  5
516
  8
____1
  6
DOT
 62
     7
 10
17798.369960328899
 20
9943.9503005549159
 30
0.0
 11
18435.369960328899
 21
9943.9503005549159
 31
0.0
  0
LINE
  5
517
  8
____1
  6
DASHED2
 62
     7
 10
17816.869960328899
 20
9932.2232991106848
 30
0.0
 11
17829.369960328899
 21
9932.2232991106848
 31
0.0
  0
LINE
  5
518
  8
____1
  6
DASHED2
 62
     7
 10
17808.869960328899
 20
9940.7232991106866
 30
0.0
 11
18424.869960328899
 21
9940.7232991106866
 31
0.0
  0
LINE
  5
519
  8
____1
  6
DASHED2
 62
     7
 10
17808.869960328899
 20
9942.2232991106866
 30
0.0
 11
18424.869960328899
 21
9942.2232991106866
 31
0.0
  0
LINE
  5
51A
  8
____1
  6
DASHED2
 62
     7
 10
18416.869960328899
 20
9892.2232991106848
 30
0.0
 11
18416.869960328899
 21
9940.7232991106866
 31
0.0
  0
INSERT
  5
545
  8
____1
  6
CONTINUOUS
 62
     7
  2
C34
 10
0.0
 20
0.0
 30
0.0
  0
INSERT
  5
551
  8
____1
  6
CONTINUOUS
 62
     7
  2
C35
 10
0.0
 20
0.0
 30
0.0
  0
LINE
  5
552
  8
____1
  6
CENTER2
 62
     3
 10
17769.369960328899
 20
10495.1981833836
 30
0.0
 11
17744.369960328899
 21
10495.1981833836
 31
0.0
  0
LINE
  5
553
  8
____1
  6
CENTER2
 62
     3
 10
17756.869960328899
 20
10482.6981833836
 30
0.0
 11
17756.869960328899
 21
10507.6981833836
 31
0.0
  0
LINE
  5
554
  8
____1
  6
CENTER2
 62
     3
 10
17769.369960328899
 20
10995.1981833836
 30
0.0
 11
17744.369960328899
 21
10995.1981833836
 31
0.0
  0
INSERT
  5
567
  8
____1
  6
DASHED2
 62
   254
  2
C36
 10
0.0
 20
0.0
 30
0.0
  0
DIMENSION
  5
576
  8
______
  6
CONTINUOUS
 62
     7
  2
*D54
 10
17555.003664763641
 20
10495.1981833836
 30
0.0
 11
17555.003664763641
 21
10745.9481833836
 31
0.0
 13
17740.599664705001
 23
10995.1981833836
 33
0.0
 14
17744.369960328899
 24
10495.1981833836
 34
0.0
 50
90.0
  0
LINE
  5
577
  8
____1
  6
CONTINUOUS
 62
     5
 10
17618.369960328899
 20
11245.1981833836
 30
0.0
 11
17618.369960328899
 21
11243.6981833836
 31
0.0
  0
LINE
  5
578
  8
____1
  6
CONTINUOUS
 62
     5
 10
17616.869960328899
 20
11245.1981833836
 30
0.0
 11
17618.369960328899
 21
11245.1981833836
 31
0.0
  0
LINE
  5
579
  8
____1
  6
CONTINUOUS
 62
     5
 10
17618.369960328899
 20
11245.1981833836
 30
0.0
 11
17618.369960328899
 21
11243.6981833836
 31
0.0
  0
LINE
  5
57A
  8
____1
  6
CONTINUOUS
 62
     7
 10
17618.369960328899
 20
11245.1981833836
 30
0.0
 11
17618.369960328899
 21
11243.6981833836
 31
0.0
  0
LINE
  5
57B
  8
____1
  6
CENTER2
 62
     3
 10
17756.869960328899
 20
10982.6981833836
 30
0.0
 11
17756.869960328899
 21
11007.6981833836
 31
0.0
  0
INSERT
  5
58E
  8
____1
  6
DASHED2
 62
   254
  2
C37
 10
0.0
 20
0.0
 30
0.0
  0
DIMENSION
  5
59B
  8
______
  6
CONTINUOUS
 62
     7
  2
*D56
 10
17616.869960328899
 20
11295.752115192639
 30
0.0
 11
17686.869960328899
 21
11295.752115192639
 31
0.0
 13
17756.869960328899
 23
11007.6981833836
 33
0.0
 14
17616.869960328899
 24
11245.1981833836
 34
0.0
 50
180.0
  0
DIMENSION
  5
5A5
  8
______
  6
CONTINUOUS
 62
     7
  2
*D57
 10
17756.869960328899
 20
11001.6981833836
 30
0.0
 11
17483.26203856093
 21
11068.683817411429
 31
0.0
 70
   132
 15
17751.268477769921
 25
11003.84839108087
 35
0.0
 40
0.0
  0
DIMENSION
  5
5B4
  8
______
  6
CONTINUOUS
 62
     7
  2
*D58
 10
17555.003664763641
 20
10995.1981833836
 30
0.0
 11
17555.003664763641
 21
11120.1981833836
 31
0.0
 13
17616.869960328899
 23
11245.1981833836
 33
0.0
 14
17744.369960328899
 24
10995.1981833836
 34
0.0
 50
90.0
  0
LINE
  5
5B5
  8
____1
  6
DASHED
 62
     7
 10
17815.369960328899
 20
10443.6981833836
 30
0.0
 11
18416.869960328899
 21
10443.6981833836
 31
0.0
  0
LINE
  5
5B6
  8
____1
  6
CONTINUOUS
 62
     5
 10
18416.869960328899
 20
10445.1981833836
 30
0.0
 11
18416.869960328899
 21
10443.6981833836
 31
0.0
  0
LINE
  5
5B7
  8
____1
  6
CONTINUOUS
 62
     5
 10
18416.869960328899
 20
10443.6981833836
 30
0.0
 11
18418.369960328899
 21
10443.6981833836
 31
0.0
  0
LINE
  5
5B8
  8
____1
  6
CONTINUOUS
 62
     5
 10
17816.869960328899
 20
10445.1981833836
 30
0.0
 11
17815.369960328899
 21
10445.1981833836
 31
0.0
  0
LINE
  5
5B9
  8
____1
  6
CONTINUOUS
 62
     5
 10
17815.369960328899
 20
10445.1981833836
 30
0.0
 11
17815.369960328899
 21
10443.6981833836
 31
0.0
  0
LINE
  5
5BA
  8
____1
  6
DASHED2
 62
     7
 10
17815.369960328899
 20
10445.1981833836
 30
0.0
 11
18416.869960328899
 21
10445.1981833836
 31
0.0
  0
LINE
  5
5BB
  8
____1
  6
DASHED2
 62
     7
 10
17808.869960328899
 20
10437.1981833836
 30
0.0
 11
18424.869960328899
 21
10437.1981833836
 31
0.0
  0
LINE
  5
5BC
  8
____1
  6
DASHED2
 62
     7
 10
18114.369960328899
 20
10443.6981833836
 30
0.0
 11
18119.369960328899
 21
10443.6981833836
 31
0.0
  0
LINE
  5
5BD
  8
____1
  6
DASHED2
 62
     7
 10
17796.869960328899
 20
10425.1981833836
 30
0.0
 11
17815.369960328899
 21
10443.6981833836
 31
0.0
  0
LINE
  5
5BE
  8
____1
  6
CENTER2
 62
     3
 10
18476.869960328899
 20
11007.6981833836
 30
0.0
 11
18476.869960328899
 21
10982.6981833836
 31
0.0
  0
LINE
  5
5BF
  8
____1
  6
CONTINUOUS
 62
     5
 10
18616.869960328899
 20
11243.6981833836
 30
0.0
 11
18615.369960328899
 21
11243.6981833836
 31
0.0
  0
LINE
  5
5C0
  8
____1
  6
DASHED2
 62
     7
 10
17815.369960328899
 20
10445.1981833836
 30
0.0
 11
17815.369960328899
 21
10443.6981833836
 31
0.0
  0
LINE
  5
5C1
  8
____1
  6
CENTER2
 62
     3
 10
18464.369960328899
 20
10495.1981833836
 30
0.0
 11
18489.369960328899
 21
10495.1981833836
 31
0.0
  0
LINE
  5
5C2
  8
____1
  6
CENTER2
 62
     3
 10
18476.869960328899
 20
10507.6981833836
 30
0.0
 11
18476.869960328899
 21
10482.6981833836
 31
0.0
  0
LINE
  5
5C3
  8
____1
  6
CENTER2
 62
     3
 10
18464.369960328899
 20
10995.1981833836
 30
0.0
 11
18489.369960328899
 21
10995.1981833836
 31
0.0
  0
INSERT
  5
619
  8
____1
  6
CONTINUOUS
 62
     7
  2
C38
 10
0.0
 20
0.0
 30
0.0
  0
INSERT
  5
65C
  8
____1
  6
CONTINUOUS
 62
   254
  2
C39
 10
0.0
 20
0.0
 30
0.0
  0
INSERT
  5
69F
  8
____1
  6
CONTINUOUS
 62
   254
  2
C41
 10
0.0
 20
0.0
 30
0.0
  0
INSERT
  5
6C2
  8
____1
  6
CONTINUOUS
 62
     7
  2
C43
 10
0.0
 20
0.0
 30
0.0
  0
INSERT
  5
6ED
  8
____1
  6
CONTINUOUS
 62
     7
  2
C44
 10
0.0
 20
0.0
 30
0.0
  0
INSERT
  5
708
  8
____1
  6
DASHED2
 62
     7
  2
C45
 10
0.0
 20
0.0
 30
0.0
  0
INSERT
  5
723
  8
____1
  6
DASHED2
 62
     7
  2
C46
 10
0.0
 20
0.0
 30
0.0
  0
INSERT
  5
746
  8
____1
  6
CONTINUOUS
 62
     7
  2
C47
 10
0.0
 20
0.0
 30
0.0
  0
INSERT
  5
771
  8
____1
  6
CONTINUOUS
 62
     7
  2
C48
 10
0.0
 20
0.0
 30
0.0
  0
INSERT
  5
7B4
  8
____1
  6
CONTINUOUS
 62
   254
  2
C49
 10
0.0
 20
0.0
 30
0.0
  0
INSERT
  5
7F7
  8
____1
  6
CONTINUOUS
 62
   254
  2
C51
 10
0.0
 20
0.0
 30
0.0
  0
INSERT
  5
80A
  8
____1
  6
DASHED2
 62
   254
  2
C53
 10
0.0
 20
0.0
 30
0.0
  0
INSERT
  5
835
  8
____1
  6
CONTINUOUS
 62
     7
  2
C54
 10
0.0
 20
0.0
 30
0.0
  0
INSERT
  5
83D
  8
____1
  6
CONTINUOUS
 62
     7
  2
C55
 10
0.0
 20
0.0
 30
0.0
  0
INSERT
  5
847
  8
____1
  6
CONTINUOUS
 62
     7
  2
C56
 10
0.0
 20
0.0
 30
0.0
  0
INSERT
  5
86A
  8
____1
  6
CONTINUOUS
 62
     7
  2
C57
 10
0.0
 20
0.0
 30
0.0
  0
INSERT
  5
88D
  8
____1
  6
CONTINUOUS
 62
     7
  2
C58
 10
0.0
 20
0.0
 30
0.0
  0
INSERT
  5
897
  8
____1
  6
CONTINUOUS
 62
     7
  2
C59
 10
0.0
 20
0.0
 30
0.0
  0
INSERT
  5
89F
  8
____1
  6
CONTINUOUS
 62
     7
  2
C60
 10
0.0
 20
0.0
 30
0.0
  0
TEXT
  5
8A0
  8
____1
  6
CONTINUOUS
 62
     7
 10
19697.146427224801
 20
9738.3539947516038
 30
0.0
 40
28.222221374511719
  1
SUS304
  7
STYLE1
  0
TEXT
  5
8A1
  8
____1
  6
CONTINUOUS
 62
     7
 10
19952.424200128251
 20
9738.3539947516038
 30
0.0
 40
28.222221374511719
  1
2
  7
STYLE1
  0
INSERT
  5
8D2
  8
____1
  6
DASHED2
 62
     7
  2
C61
 10
0.0
 20
0.0
 30
0.0
  0
INSERT
  5
903
  8
____1
  6
DASHED2
 62
     7
  2
C62
 10
0.0
 20
0.0
 30
0.0
  0
INSERT
  5
924
  8
____1
  6
CONTINUOUS
 62
   254
  2
C63
 10
0.0
 20
0.0
 30
0.0
  0
INSERT
  5
939
  8
____1
  6
CONTINUOUS
 62
     7
  2
C64
 10
0.0
 20
0.0
 30
0.0
  0
LINE
  5
93A
  8
____1
  6
CONTINUOUS
 62
     5
 10
18615.369960328899
 20
11243.6981833836
 30
0.0
 11
18433.369960328899
 21
11061.6981833836
 31
0.0
  0
LINE
  5
93B
  8
____1
  6
CONTINUOUS
 62
     5
 10
17816.869960328899
 20
11046.6981833836
 30
0.0
 11
17815.369960328899
 21
11046.6981833836
 31
0.0
  0
LINE
  5
93C
  8
____1
  6
CENTER2
 62
     3
 10
17936.86979524848
 20
11041.1981833836
 30
0.0
 11
17936.86979524848
 21
11052.698600050269
 31
0.0
  0
LINE
  5
93D
  8
____1
  6
CONTINUOUS
 62
     5
 10
18616.869960328899
 20
11243.6981833836
 30
0.0
 11
18615.369960328899
 21
11243.6981833836
 31
0.0
  0
LINE
  5
93E
  8
____1
  6
CENTER2
 62
     3
 10
17914.86979524848
 20
11041.1981833836
 30
0.0
 11
17914.86979524848
 21
11052.698600050269
 31
0.0
  0
LINE
  5
93F
  8
____1
  6
CENTER2
 62
     3
 10
17892.86979524848
 20
11041.1981833836
 30
0.0
 11
17892.86979524848
 21
11052.698600050269
 31
0.0
  0
LINE
  5
940
  8
____1
  6
DASHED
 62
     7
 10
18418.369960328899
 20
11046.6981833836
 30
0.0
 11
17816.869960328899
 21
11046.6981833836
 31
0.0
  0
LINE
  5
941
  8
____1
  6
DASHED2
 62
     7
 10
18418.369960328899
 20
11045.198183383591
 30
0.0
 11
17816.869960328899
 21
11045.198183383591
 31
0.0
  0
LINE
  5
942
  8
____1
  6
DASHED2
 62
     7
 10
18424.869960328899
 20
11053.1981833836
 30
0.0
 11
17808.869960328899
 21
11053.1981833836
 31
0.0
  0
LINE
  5
943
  8
____1
  6
CONTINUOUS
 62
     5
 10
18416.869960328899
 20
11045.1981833836
 30
0.0
 11
18418.369960328899
 21
11045.1981833836
 31
0.0
  0
LINE
  5
944
  8
____1
  6
CENTER2
 62
     3
 10
18340.86979524848
 20
11041.1981833836
 30
0.0
 11
18340.86979524848
 21
11052.698600050269
 31
0.0
  0
LINE
  5
945
  8
____1
  6
CENTER2
 62
     3
 10
18318.86979524848
 20
11041.1981833836
 30
0.0
 11
18318.86979524848
 21
11052.698600050269
 31
0.0
  0
LINE
  5
946
  8
____1
  6
CENTER2
 62
     3
 10
18296.86979524848
 20
11041.1981833836
 30
0.0
 11
18296.86979524848
 21
11052.698600050269
 31
0.0
  0
LINE
  5
947
  8
____1
  6
CONTINUOUS
 62
     5
 10
18418.369960328899
 20
11045.1981833836
 30
0.0
 11
18418.369960328899
 21
11046.6981833836
 31
0.0
  0
LINE
  5
948
  8
____1
  6
DASHED2
 62
     7
 10
18433.369960328899
 20
11061.6981833836
 30
0.0
 11
18418.369960328899
 21
11046.6981833836
 31
0.0
  0
LINE
  5
949
  8
____1
  6
DASHED2
 62
     7
 10
17800.369960328899
 20
11061.6981833836
 30
0.0
 11
17815.369960328899
 21
11046.6981833836
 31
0.0
  0
LINE
  5
94A
  8
____1
  6
DASHED2
 62
     7
 10
17816.869960328899
 20
11046.6981833836
 30
0.0
 11
17815.369960328899
 21
11046.6981833836
 31
0.0
  0
LINE
  5
94B
  8
____1
  6
DASHED2
 62
     7
 10
17816.869960328899
 20
11045.198183383591
 30
0.0
 11
17816.869960328899
 21
11046.6981833836
 31
0.0
  0
LINE
  5
94C
  8
____1
  6
DASHED2
 62
     7
 10
18418.369960328899
 20
11045.198183383591
 30
0.0
 11
18418.369960328899
 21
11046.6981833836
 31
0.0
  0
DIMENSION
  5
958
  8
______
  6
CONTINUOUS
 62
     7
  2
*D86
 10
19756.34516742409
 20
10130.9368069824
 30
0.0
 11
19731.210020351129
 21
10130.9368069824
 31
0.0
 13
19706.34516742409
 23
10245.1981833836
 33
0.0
 14
19756.34516742409
 24
10245.1981833836
 34
0.0
  0
TEXT
  5
959
  8
______
  6
CONTINUOUS
 62
     7
 10
19704.331885064788
 20
10081.568635868491
 30
0.0
 40
28.222221374511719
  1
7.6
  7
STYLE1
  0
LINE
  5
95A
  8
____1
  6
CONTINUOUS
 62
     5
 10
18616.869960328899
 20
11245.1981833836
 30
0.0
 11
18616.869960328899
 21
11243.6981833836
 31
0.0
  0
DIMENSION
  5
967
  8
______
  6
CONTINUOUS
 62
     7
  2
*D87
 10
18616.869960328899
 20
11295.752115192639
 30
0.0
 11
18546.869960328899
 21
11295.752115192639
 31
0.0
 13
18476.869960328899
 23
11007.6981833836
 33
0.0
 14
18616.869960328899
 24
11245.1981833836
 34
0.0
  0
DIMENSION
  5
974
  8
______
  6
CONTINUOUS
 62
     7
  2
*D88
 10
18416.869960328899
 20
10985.794374937361
 30
0.0
 11
18117.619960328899
 21
10985.794374937361
 31
0.0
 13
17816.869960328899
 23
10988.43194004153
 33
0.0
 14
18416.869960328899
 24
10988.43194004153
 34
0.0
  0
INSERT
  5
987
  8
____1
  6
DASHED2
 62
   254
  2
C65
 10
0.0
 20
0.0
 30
0.0
  0
INSERT
  5
991
  8
______
  6
CONTINUOUS
 62
     7
  2
C66
 10
0.0
 20
0.0
 30
0.0
  0
INSERT
  5
9A1
  8
____1
  6
CONTINUOUS
 62
     7
  2
C67
 10
0.0
 20
0.0
 30
0.0
  0
INSERT
  5
9B1
  8
____1
  6
CONTINUOUS
 62
     7
  2
C68
 10
0.0
 20
0.0
 30
0.0
  0
TEXT
  5
9B2
  8
____1
  6
CONTINUOUS
 62
     7
 10
19127.035312722852
 20
9492.1075616844391
 30
0.0
 40
28.222221374511719
  1
H18.4.12
  7
STYLE1
  0
TEXT
  5
9B3
  8
____1
  6
CONTINUOUS
 62
     7
 10
19112.424200128251
 20
9658.3539947516001
 30
0.0
 40
28.222221374511719
  1
1
  7
STYLE1
  0
TEXT
  5
9B4
  8
____1
  6
CONTINUOUS
 62
     7
 10
19112.424200128251
 20
9818.3539947516038
 30
0.0
 40
28.222221374511719
  1
5
  7
STYLE1
  0
TEXT
  5
9B5
  8
____1
  6
CONTINUOUS
 62
     7
 10
19112.424200128251
 20
9778.3539947516019
 30
0.0
 40
28.222221374511719
  1
4
  7
STYLE1
  0
TEXT
  5
9B6
  8
____1
  6
DOT
 62
     7
 10
19231.146427224801
 20
9448.1649004340197
 30
0.0
 40
28.222221374511719
  1
永　井
  7
STYLE1
  0
TEXT
  5
9B7
  8
____1
  6
DOT
 62
     7
 10
19231.146427224801
 20
9404.1649004340197
 30
0.0
 40
28.222221374511719
  1
永　井
  7
STYLE1
  0
TEXT
  5
9B8
  8
____1
  6
CONTINUOUS
 62
     7
 10
19112.424200128251
 20
9738.3539947516038
 30
0.0
 40
28.222221374511719
  1
3
  7
STYLE1
  0
TEXT
  5
9B9
  8
____1
  6
CONTINUOUS
 62
     7
 10
19112.424200128251
 20
9698.3539947516019
 30
0.0
 40
28.222221374511719
  1
2
  7
STYLE1
  0
TEXT
  5
9BA
  8
____1
  6
CONTINUOUS
 62
     7
 10
19112.424200128251
 20
9858.3539947516038
 30
0.0
 40
28.222221374511719
  1
6
  7
STYLE1
  0
TEXT
  5
9BB
  8
____1
  6
CONTINUOUS
 62
     7
 10
19112.424200128251
 20
9938.3539947516038
 30
0.0
 40
28.222221374511719
  1
8
  7
STYLE1
  0
TEXT
  5
9BC
  8
____1
  6
CONTINUOUS
 62
     7
 10
19112.424200128251
 20
9898.3539947516019
 30
0.0
 40
28.222221374511719
  1
7
  7
STYLE1
  0
TEXT
  5
9BD
  8
____1
  6
CONTINUOUS
 62
     7
 10
19105.368644784619
 20
10018.3539947516
 30
0.0
 40
28.222221374511719
  1
10
  7
STYLE1
  0
TEXT
  5
9BE
  8
____1
  6
CONTINUOUS
 62
     7
 10
19112.424200128251
 20
9978.3539947516019
 30
0.0
 40
28.222221374511719
  1
9
  7
STYLE1
  0
TEXT
  5
9BF
  8
____1
  6
DOT
 62
     7
 10
19842.146431039499
 20
9424.3526999670594
 30
0.0
 40
33.866664886474609
  1
ＯＭ－６１６０３ＢＫ
  7
STYLE1
  0
TEXT
  5
9C0
  8
____1
  6
DOT
 62
     7
 10
19892.946430276559
 20
9512.3526999670594
 30
0.0
 40
33.866664886474609
  1
らくらくハッチ
  7
STYLE1
  0
TEXT
  5
9C1
  8
____1
  6
DOT
 62
     7
 10
19876.01309592598
 20
9336.3526999670594
 30
0.0
 40
33.866664886474609
  1
ＳＴＲ０００２６
  7
STYLE1
  0
ARC
  5
9C2
  8
____1
  6
DASHED2
 62
     7
 10
19667.983396088071
 20
10931.70070390263
 30
0.0
 40
1.500000000000099
 50
-89.930059766282326
 51
0.0699402338566481
  0
LINE
  5
9C3
  8
____1
  6
DASHED2
 62
     7
 10
19669.444332984611
 20
10963.70251109198
 30
0.0
 11
19669.48339497051
 21
10931.70253493322
 31
0.0
  0
TEXT
  5
9C4
  8
____1
  6
CONTINUOUS
 62
     7
 10
19661.868648599309
 20
9698.3539947516019
 30
0.0
 40
28.222221374511719
  1
SUS304 1.5t
  7
STYLE1
  0
TEXT
  5
9C5
  8
____1
  6
CONTINUOUS
 62
     7
 10
19661.868648599309
 20
9658.3539947516001
 30
0.0
 40
28.222221374511719
  1
SUS304 1.5t
  7
STYLE1
  0
TEXT
  5
9C6
  8
____1
  6
DOT
 62
     7
 10
19531.146427224801
 20
9448.1649004340197
 30
0.0
 40
28.222221374511719
  1
園　原
  7
STYLE1
  0
TEXT
  5
9C7
  8
____1
  6
DOT
 62
     7
 10
19531.146427224801
 20
9404.1649004340197
 30
0.0
 40
28.222221374511719
  1
園　原
  7
STYLE1
  0
TEXT
  5
9C8
  8
____1
  6
CONTINUOUS
 62
     7
 10
19952.424200128251
 20
9658.3539947516001
 30
0.0
 40
28.222221374511719
  1
1
  7
STYLE1
  0
TEXT
  5
9C9
  8
____1
  6
CONTINUOUS
 62
     7
 10
19952.424200128251
 20
9698.3539947516019
 30
0.0
 40
28.222221374511719
  1
1
  7
STYLE1
  0
TEXT
  5
9CA
  8
____1
  6
CONTINUOUS
 62
     7
 10
19697.146427224801
 20
9778.3539947516019
 30
0.0
 40
28.222221374511719
  1
SUS304
  7
STYLE1
  0
TEXT
  5
9CB
  8
____1
  6
CONTINUOUS
 62
     7
 10
19697.146427224801
 20
9818.3539947516038
 30
0.0
 40
28.222221374511719
  1
SUS304
  7
STYLE1
  0
TEXT
  5
9CC
  8
____1
  6
CONTINUOUS
 62
     7
 10
19952.424200128251
 20
9818.3539947516038
 30
0.0
 40
28.222221374511719
  1
2
  7
STYLE1
  0
TEXT
  5
9CD
  8
____1
  6
CONTINUOUS
 62
     7
 10
19952.424200128251
 20
9778.3539947516019
 30
0.0
 40
28.222221374511719
  1
2
  7
STYLE1
  0
LINE
  5
9CE
  8
____1
  6
DASHED
 62
     7
 10
19756.34516742409
 20
10248.498183383599
 30
0.0
 11
19746.34516742409
 21
10248.498183383599
 31
0.0
  0
LINE
  5
9CF
  8
____1
  6
CONTINUOUS
 62
     5
 10
19756.34516742409
 20
10245.1981833836
 30
0.0
 11
19706.34516742409
 21
10245.1981833836
 31
0.0
  0
LINE
  5
9D0
  8
____1
  6
CONTINUOUS
 62
     5
 10
19706.34516742409
 20
10246.6981833836
 30
0.0
 11
19676.34516742409
 21
10395.1981833836
 31
0.0
  0
TEXT
  5
9D1
  8
____1
  6
CONTINUOUS
 62
     7
 10
19952.424200128251
 20
9978.3539947516019
 30
0.0
 40
28.222221374511719
  1
1
  7
STYLE1
  0
TEXT
  5
9D2
  8
____1
  6
CONTINUOUS
 62
     7
 10
19952.424200128251
 20
9858.3539947516038
 30
0.0
 40
28.222221374511719
  1
2
  7
STYLE1
  0
TEXT
  5
9D3
  8
____1
  6
CONTINUOUS
 62
     7
 10
19697.146427224801
 20
9938.3539947516038
 30
0.0
 40
28.222221374511719
  1
SUS304
  7
STYLE1
  0
TEXT
  5
9D4
  8
____1
  6
CONTINUOUS
 62
     7
 10
19952.424200128251
 20
9938.3539947516038
 30
0.0
 40
28.222221374511719
  1
1
  7
STYLE1
  0
TEXT
  5
9D5
  8
____1
  6
CONTINUOUS
 62
     7
 10
19697.146427224801
 20
9898.3539947516019
 30
0.0
 40
28.222221374511719
  1
SUS304
  7
STYLE1
  0
TEXT
  5
9D6
  8
____1
  6
CONTINUOUS
 62
     7
 10
19952.424200128251
 20
9898.3539947516019
 30
0.0
 40
28.222221374511719
  1
1
  7
STYLE1
  0
TEXT
  5
9D7
  8
____1
  6
CONTINUOUS
 62
     7
 10
19584.257537912061
 20
9858.3539947516038
 30
0.0
 40
28.222221374511719
  1
ｽﾄﾛ^Qｸ130mm 反発力10kgf
  7
STYLE1
  0
TEXT
  5
9D8
  8
____1
  6
CONTINUOUS
 62
     7
 10
19661.868648599309
 20
10018.3539947516
 30
0.0
 40
28.222221374511719
  1
SUS304 1.5t
  7
STYLE1
  0
TEXT
  5
9D9
  8
____1
  6
CONTINUOUS
 62
     7
 10
19952.424200128251
 20
10018.3539947516
 30
0.0
 40
28.222221374511719
  1
4
  7
STYLE1
  0
TEXT
  5
9DA
  8
____1
  6
CONTINUOUS
 62
     7
 10
19711.257526467969
 20
9978.3539947516019
 30
0.0
 40
28.222221374511719
  1
EPDM
  7
STYLE1
  0
LINE
  5
9DB
  8
____1
  6
DASHED2
 62
     7
 10
19670.944331867049
 20
10963.70434212257
 30
0.0
 11
19670.983393852948
 21
10931.704365963809
 31
0.0
  0
ARC
  5
9DC
  8
____1
  6
DASHED2
 62
     7
 10
19667.944334102169
 20
10963.700680061391
 30
0.0
 40
3.0000000000002021
 50
0.0699402339261283
 51
90.069940233926118
  0
DIMENSION
  5
9F0
  8
______
  6
CONTINUOUS
 62
     7
  2
*D93
 10
19706.34516742409
 20
10130.9368069824
 30
0.0
 11
19691.34516742409
 21
10130.9368069824
 31
0.0
 13
19676.34516742409
 23
10395.1981833836
 33
0.0
 14
19706.34516742409
 24
10245.1981833836
 34
0.0
  0
DIMENSION
  5
A03
  8
______
  6
CONTINUOUS
 62
     7
  2
*D94
 10
19676.34516742409
 20
10130.94086599091
 30
0.0
 11
19672.550212001031
 21
10130.94086599091
 31
0.0
 13
19668.75525657797
 23
10420.20224239211
 33
0.0
 14
19676.34516742409
 24
10395.346712653991
 34
0.0
  0
DIMENSION
  5
A0F
  8
______
  6
CONTINUOUS
 62
     7
  2
*D95
 10
19668.755258597041
 20
10130.9368069824
 30
0.0
 11
19581.026476346669
 21
10130.9368069824
 31
0.0
 13
19623.274780794862
 23
10418.627617593769
 33
0.0
 14
19668.755258597041
 24
10420.199781247709
 34
0.0
  0
LINE
  5
A11
  8
____1
  6
CONTINUOUS
 62
     5
 10
19706.10400226463
 20
10246.404009180889
 30
0.0
 11
19676.374296410559
 21
10395.05253845128
 31
0.0
  0
ARC
  5
A12
  8
____1
  6
CONTINUOUS
 62
     5
 10
19677.84516742409
 20
10395.346712653991
 30
0.0
 40
1.5
 50
180.0
 51
-168.69006752595249
  0
LINE
  5
A13
  8
____1
  6
DASHED
 62
     7
 10
19754.84516742409
 20
10248.1981833836
 30
0.0
 11
19746.34516742409
 21
10248.1981833836
 31
0.0
  0
LINE
  5
A14
  8
____1
  6
DASHED
 62
     7
 10
19754.84516742409
 20
10246.6981833836
 30
0.0
 11
19707.574873278169
 21
10246.6981833836
 31
0.0
  0
LINE
  5
A15
  8
____1
  6
DASHED
 62
     7
 10
19746.34516742409
 20
10246.6981833836
 30
0.0
 11
19746.34516742409
 21
10248.1981833836
 31
0.0
  0
ARC
  5
A16
  8
____1
  6
CONTINUOUS
 62
     5
 10
19707.574873278169
 20
10246.6981833836
 30
0.0
 40
1.5000000000017859
 50
-168.690067526007
 51
-90.0
  0
LINE
  5
A17
  8
____1
  6
CONTINUOUS
 62
     5
 10
19754.845167710981
 20
10245.1981833836
 30
0.0
 11
19707.574873278169
 21
10245.1981833836
 31
0.0
  0
ARC
  5
A18
  8
____1
  6
DASHED
 62
     7
 10
19754.84516742409
 20
10246.6981833836
 30
0.0
 40
1.5000000000000271
 50
-89.999989041570686
 51
90.0
  0
LINE
  5
A19
  8
______
  6
CONTINUOUS
 62
     7
 10
19672.550212001031
 20
10130.94086599091
 30
0.0
 11
19704.331885064788
 21
10072.95648369537
 31
0.0
  0
LINE
  5
A1A
  8
______
  6
CONTINUOUS
 62
     7
 10
19704.331885064788
 20
10072.95648369537
 30
0.0
 11
19752.273077207639
 21
10072.95648369537
 31
0.0
  0
LINE
  5
A1B
  8
____1
  6
DASHED
 62
     7
 10
19707.574873278169
 20
10246.6981833836
 30
0.0
 11
19677.84516742409
 21
10395.346712653991
 31
0.0
  0
LINE
  5
A1C
  8
____1
  6
CONTINUOUS
 62
     5
 10
19624.618198795939
 20
10418.647386322889
 30
0.0
 11
19667.16430985427
 21
10418.69932184877
 31
0.0
  0
ARC
  5
A1D
  8
____1
  6
DASHED2
 62
     7
 10
19667.16247882368
 20
10420.199320731221
 30
0.0
 40
1.500000000000103
 50
0.0699402339956085
 51
90.069940233995624
  0
ARC
  5
A1E
  8
____1
  6
CONTINUOUS
 62
     5
 10
19667.16247882368
 20
10420.199320731221
 30
0.0
 40
1.500000000000103
 50
-89.930059766004391
 51
0.0699402339956085
  0
LINE
  5
A1F
  8
____1
  6
DASHED2
 62
     7
 10
19624.616367765349
 20
10420.14738520534
 30
0.0
 11
19667.16247882367
 21
10420.199320731221
 31
0.0
  0
ARC
  5
A20
  8
____1
  6
CONTINUOUS
 62
     5
 10
19624.616367765349
 20
10420.14738520534
 30
0.0
 40
1.5000000000027349
 50
-178.1401491577995
 51
-89.930059766004391
  0
LINE
  5
A21
  8
____1
  6
DASHED2
 62
     7
 10
19658.660654125921
 20
10421.68894377365
 30
0.0
 11
19668.660646675529
 21
10421.70115064425
 31
0.0
  0
LINE
  5
A22
  8
____1
  6
CONTINUOUS
 62
     5
 10
19627.84516742409
 20
10437.1981833836
 30
0.0
 11
19626.34516742409
 21
10437.1981833836
 31
0.0
  0
INSERT
  5
A42
  8
____1
  6
DASHED2
 62
     7
  2
C69
 10
0.0
 20
0.0
 30
0.0
  0
INSERT
  5
A4D
  8
____1
  6
DASHED2
 62
     7
  2
C70
 10
0.0
 20
0.0
 30
0.0
  0
ARC
  5
A4E
  8
____1
  6
DASHED2
 62
     7
 10
19621.035792014871
 20
10437.61224687767
 30
0.0
 40
9.0723822757256674
 50
-3.068422799774547
 51
28.21107885447104
  0
LINE
  5
A4F
  8
____1
  6
DASHED2
 62
     7
 10
19627.895167424089
 20
10442.20717529815
 30
0.0
 11
19628.619824821661
 21
10442.163695854289
 31
0.0
  0
LINE
  5
A50
  8
____1
  6
DASHED2
 62
     7
 10
19626.94253361817
 20
10965.1506307744
 30
0.0
 11
19667.942503071579
 21
10965.200678943829
 31
0.0
  0
LINE
  5
A51
  8
____1
  6
DASHED2
 62
     7
 10
19667.98522711865
 20
10930.20070502019
 30
0.0
 11
19626.985257665241
 21
10930.15065685077
 31
0.0
  0
LINE
  5
A52
  8
____1
  6
DASHED2
 62
     7
 10
19625.48342775221
 20
10931.648824702619
 30
0.0
 11
19625.444365766321
 21
10963.64880086138
 31
0.0
  0
INSERT
  5
A5D
  8
____1
  6
DASHED2
 62
     7
  2
C71
 10
0.0
 20
0.0
 30
0.0
  0
POLYLINE
  5
A5E
  8
____1
  6
DASHED2
 62
     7
 66
     1
 10
0.0
 20
0.0
 30
0.0
 70
     8
  0
VERTEX
  5
A5F
  8
____1
 62
     7
 10
19625.16297428661
 20
10441.906232085221
 30
0.0
 70
    32
  0
VERTEX
  5
A60
  8
____1
 62
     7
 10
19624.873990196789
 20
10441.36023252789
 30
0.0
 70
    32
  0
VERTEX
  5
A61
  8
____1
 62
     7
 10
19624.62423728011
 20
10440.80190980883
 30
0.0
 70
    32
  0
VERTEX
  5
A62
  8
____1
 62
     7
 10
19624.478862744829
 20
10440.379279055031
 30
0.0
 70
    32
  0
VERTEX
  5
A63
  8
____1
 62
     7
 10
19624.36497159598
 20
10439.94675884774
 30
0.0
 70
    32
  0
VERTEX
  5
A64
  8
____1
 62
     7
 10
19624.213953143731
 20
10439.057605636979
 30
0.0
 70
    32
  0
VERTEX
  5
A65
  8
____1
 62
     7
 10
19624.135809295669
 20
10438.145561305189
 30
0.0
 70
    32
  0
VERTEX
  5
A66
  8
____1
 62
     7
 10
19624.09516742409
 20
10437.221736981021
 30
0.0
 70
    32
  0
SEQEND
  5
A67
  8
____1
 62
     7
  0
LINE
  5
A68
  8
____1
  6
DASHED2
 62
     7
 10
19636.34516742409
 20
10613.1981833836
 30
0.0
 11
19676.34516742409
 21
10613.1981833836
 31
0.0
  0
LINE
  5
A69
  8
____1
  6
DASHED2
 62
     7
 10
19637.84516742409
 20
10611.6981833836
 30
0.0
 11
19637.84516742409
 21
10584.6981833836
 31
0.0
  0
LINE
  5
A6A
  8
____1
  6
DASHED2
 62
     7
 10
19674.84516742409
 20
10611.6981833836
 30
0.0
 11
19676.34516742409
 21
10611.6981833836
 31
0.0
  0
LINE
  5
A6B
  8
____1
  6
DASHED2
 62
     7
 10
19636.34516742409
 20
10584.6981833836
 30
0.0
 11
19637.84516742409
 21
10584.6981833836
 31
0.0
  0
LINE
  5
A6C
  8
____1
  6
DASHED2
 62
     7
 10
19637.84516742409
 20
10584.6981833836
 30
0.0
 11
19674.84516742409
 21
10584.6981833836
 31
0.0
  0
ARC
  5
A6D
  8
____1
  6
DASHED2
 62
     7
 10
19673.34516742409
 20
10563.1981833836
 30
0.0
 40
3.0
 50
-90.0
 51
0.0
  0
LINE
  5
A6E
  8
____1
  6
DASHED2
 62
     7
 10
19676.34516742409
 20
10633.1981833836
 30
0.0
 11
19676.34516742409
 21
10563.1981833836
 31
0.0
  0
LINE
  5
A6F
  8
____1
  6
DASHED2
 62
     7
 10
19639.34516742409
 20
10560.1981833836
 30
0.0
 11
19673.34516742409
 21
10560.1981833836
 31
0.0
  0
LINE
  5
A70
  8
____1
  6
DASHED2
 62
     7
 10
19623.983428869771
 20
10931.64699367202
 30
0.0
 11
19623.944366883868
 21
10963.64696983079
 31
0.0
  0
LINE
  5
A71
  8
____1
  6
DASHED2
 62
     7
 10
19667.98705814924
 20
10928.70070613775
 30
0.0
 11
19626.987088695831
 21
10928.65065796833
 31
0.0
  0
ARC
  5
A72
  8
____1
  6
DASHED2
 62
     7
 10
19626.983426634652
 20
10931.65065573321
 30
0.0
 40
1.500000000000103
 50
-179.93005976600429
 51
-89.930059766004391
  0
ARC
  5
A73
  8
____1
  6
DASHED2
 62
     7
 10
19626.94436464876
 20
10963.650631891969
 30
0.0
 40
1.4999999999928271
 50
90.069940233995951
 51
-179.93005976586539
  0
ARC
  5
A74
  8
____1
  6
DASHED2
 62
     7
 10
19667.944334102169
 20
10963.700680061391
 30
0.0
 40
1.500000000003741
 50
0.0699402339954389
 51
90.069940233995624
  0
ARC
  5
A75
  8
____1
  6
DASHED2
 62
     7
 10
19667.983396088071
 20
10931.70070390263
 30
0.0
 40
2.999999999992931
 50
-89.930059766143359
 51
0.0699402339957782
  0
ARC
  5
A76
  8
____1
  6
DASHED2
 62
     7
 10
19626.983426634652
 20
10931.65065573321
 30
0.0
 40
3.0000000000002158
 50
-179.93005976586539
 51
-89.930059766004391
  0
ARC
  5
A77
  8
____1
  6
DASHED2
 62
     7
 10
19626.94436464876
 20
10963.650631891969
 30
0.0
 40
3.0000000000002021
 50
90.069940233926118
 51
-179.93005976593491
  0
LINE
  5
A78
  8
____1
  6
DASHED2
 62
     7
 10
19667.98522711865
 20
10930.20070502019
 30
0.0
 11
19626.985257665241
 21
10930.15065685077
 31
0.0
  0
LINE
  5
A79
  8
____1
  6
DASHED2
 62
     7
 10
19626.940702587581
 20
10966.65062965685
 30
0.0
 11
19667.940672041001
 21
10966.70067782628
 31
0.0
  0
LINE
  5
A7A
  8
____1
  6
CONTINUOUS
 62
     5
 10
19676.34516742409
 20
11095.049654113211
 30
0.0
 11
19676.34516742409
 21
11046.6981833836
 31
0.0
  0
LINE
  5
A7B
  8
____1
  6
DASHED
 62
     7
 10
19677.84516742409
 20
11095.049654113211
 30
0.0
 11
19677.84516742409
 21
11046.6981833836
 31
0.0
  0
INSERT
  5
A85
  8
____1
  6
DASHED2
 62
     7
  2
C72
 10
0.0
 20
0.0
 30
0.0
  0
ARC
  5
A86
  8
____1
  6
DASHED2
 62
     7
 10
19639.34516742409
 20
10563.1981833836
 30
0.0
 40
3.0
 50
180.0
 51
-90.0
  0
LINE
  5
A87
  8
____1
  6
DASHED2
 62
     7
 10
19637.84516742409
 20
10611.6981833836
 30
0.0
 11
19674.84516742409
 21
10611.6981833836
 31
0.0
  0
ARC
  5
A88
  8
____1
  6
DASHED2
 62
     7
 10
19673.34516742409
 20
10633.1981833836
 30
0.0
 40
3.0
 50
0.0
 51
90.0
  0
LINE
  5
A89
  8
____1
  6
DASHED2
 62
     7
 10
19639.34516742409
 20
10636.1981833836
 30
0.0
 11
19673.34516742409
 21
10636.1981833836
 31
0.0
  0
LINE
  5
A8A
  8
____1
  6
DASHED2
 62
     7
 10
19636.34516742409
 20
10633.1981833836
 30
0.0
 11
19636.34516742409
 21
10563.1981833836
 31
0.0
  0
LINE
  5
A8B
  8
____1
  6
DASHED2
 62
     7
 10
19627.895167424089
 20
10437.1981833836
 30
0.0
 11
19626.29516742409
 21
10437.1981833836
 31
0.0
  0
ARC
  5
A8C
  8
____1
  6
DASHED2
 62
     7
 10
19639.34516742409
 20
10633.1981833836
 30
0.0
 40
3.0
 50
90.0
 51
180.0
  0
LINE
  5
A8D
  8
____1
  6
DASHED2
 62
     7
 10
19674.84516742409
 20
10611.6981833836
 30
0.0
 11
19674.84516742409
 21
10584.6981833836
 31
0.0
  0
LINE
  5
A8E
  8
____1
  6
DASHED2
 62
     7
 10
19636.34516742409
 20
10583.1981833836
 30
0.0
 11
19676.34516742409
 21
10583.1981833836
 31
0.0
  0
LINE
  5
A8F
  8
____1
  6
DASHED
 62
     7
 10
19676.34516742409
 20
10445.1981833836
 30
0.0
 11
19627.84516742409
 21
10445.1981833836
 31
0.0
  0
ARC
  5
A90
  8
____1
  6
DASHED
 62
     7
 10
19676.34516742409
 20
10443.6981833836
 30
0.0
 40
1.5
 50
0.0
 51
90.0
  0
ARC
  5
A91
  8
____1
  6
DASHED
 62
     7
 10
19627.84516742409
 20
10443.6981833836
 30
0.0
 40
1.5
 50
90.0
 51
180.0
  0
LINE
  5
A92
  8
____1
  6
DASHED
 62
     7
 10
19677.84516742409
 20
10395.346712653991
 30
0.0
 11
19677.84516742409
 21
10443.6981833836
 31
0.0
  0
LINE
  5
A93
  8
____1
  6
CONTINUOUS
 62
     5
 10
19627.84516742409
 20
10437.1981833836
 30
0.0
 11
19626.34516742409
 21
10437.1981833836
 31
0.0
  0
LINE
  5
A94
  8
____1
  6
CONTINUOUS
 62
     5
 10
19676.34516742409
 20
10395.346712653991
 30
0.0
 11
19676.34516742409
 21
10443.6981833836
 31
0.0
  0
LINE
  5
A95
  8
____1
  6
DASHED2
 62
     7
 10
19626.29516742409
 20
10442.20717529815
 30
0.0
 11
19626.29516742409
 21
10437.1981833836
 31
0.0
  0
LINE
  5
A96
  8
____1
  6
DASHED2
 62
     7
 10
19626.29516742409
 20
10442.20717529815
 30
0.0
 11
19625.57077043032
 21
10442.163711478521
 31
0.0
  0
LINE
  5
A97
  8
____1
  6
DASHED2
 62
     7
 10
19624.09516742409
 20
10437.22173698105
 30
0.0
 11
19624.09516742409
 21
10436.1981833836
 31
0.0
  0
ARC
  5
A98
  8
____1
  6
DASHED2
 62
     7
 10
19629.09516742409
 20
10436.1981833836
 30
0.0
 40
1.0
 50
-90.0
 51
0.0
  0
LINE
  5
A99
  8
____1
  6
DASHED2
 62
     7
 10
19629.09516742409
 20
10435.1981833836
 30
0.0
 11
19625.09516742409
 21
10435.1981833836
 31
0.0
  0
ARC
  5
A9A
  8
____1
  6
DASHED2
 62
     7
 10
19625.09516742409
 20
10436.1981833836
 30
0.0
 40
1.0
 50
180.0
 51
-90.0
  0
LINE
  5
A9B
  8
____1
  6
DASHED2
 62
     7
 10
19630.09516742409
 20
10437.12661599762
 30
0.0
 11
19630.09516742409
 21
10436.1981833836
 31
0.0
  0
ARC
  5
A9C
  8
____1
  6
DASHED2
 62
     7
 10
19666.384901166992
 20
11057.19884614154
 30
0.0
 40
1.5000000000001079
 50
-89.930059766004064
 51
0.069940234134569
  0
LINE
  5
A9D
  8
____1
  6
DASHED2
 62
     7
 10
19657.886738530411
 20
11055.688471419109
 30
0.0
 11
19667.88673108002
 21
11055.700678289701
 31
0.0
  0
ARC
  5
A9E
  8
____1
  6
DASHED2
 62
     7
 10
19628.589878676299
 20
10441.66459343156
 30
0.0
 40
0.5000000000018975
 50
28.21107885424837
 51
86.56636963743297
  0
LINE
  5
A9F
  8
____1
  6
DASHED2
 62
     7
 10
19627.895167424089
 20
10442.20717529815
 30
0.0
 11
19627.895167424089
 21
10437.1981833836
 31
0.0
  0
ARC
  5
AA0
  8
____1
  6
DASHED2
 62
     7
 10
19625.600716575689
 20
10441.664609055781
 30
0.0
 40
0.5000000000018975
 50
93.433630362567044
 51
151.1023772631753
  0
INSERT
  5
AB2
  8
____1
  6
DASHED2
 62
     7
  2
C73
 10
0.0
 20
0.0
 30
0.0
  0
INSERT
  5
AC5
  8
____1
  6
DASHED2
 62
     7
  2
C74
 10
0.0
 20
0.0
 30
0.0
  0
INSERT
  5
AD5
  8
____1
  6
DASHED2
 62
     7
  2
C75
 10
0.0
 20
0.0
 30
0.0
  0
LINE
  5
AD6
  8
____1
  6
DASHED2
 62
     7
 10
19668.633795162321
 20
10443.6981833836
 30
0.0
 11
19627.84516742409
 21
10443.6981833836
 31
0.0
  0
LINE
  5
AD7
  8
____1
  6
DASHED2
 62
     7
 10
19626.34516742409
 20
10437.1981833836
 30
0.0
 11
19626.34516742409
 21
10443.6981833836
 31
0.0
  0
INSERT
  5
B27
  8
____1
  6
DASHED2
 62
     7
  2
C77
 10
0.0
 20
0.0
 30
0.0
  0
LINE
  5
B28
  8
____1
  6
DASHED2
 62
     7
 10
19627.84516742409
 20
10437.1981833836
 30
0.0
 11
19627.84516742409
 21
10443.6981833836
 31
0.0
  0
LINE
  5
B29
  8
____1
  6
CONTINUOUS
 62
     5
 10
19623.11715796002
 20
10420.09870297449
 30
0.0
 11
19612.773730227422
 21
10738.633166335179
 31
0.0
  0
LINE
  5
B2A
  8
____1
  6
DASHED2
 62
     7
 10
19624.616367765349
 20
10420.14738520534
 30
0.0
 11
19614.27446135247
 21
10738.634998259609
 31
0.0
  0
LINE
  5
B2B
  8
____1
  6
CONTINUOUS
 62
     5
 10
19676.34516742409
 20
10443.6981833836
 30
0.0
 11
19668.633795162321
 21
10443.6981833836
 31
0.0
  0
LINE
  5
B2C
  8
____1
  6
DASHED2
 62
     7
 10
19676.34516742409
 20
11045.1981833836
 30
0.0
 11
19627.84516742409
 21
11045.1981833836
 31
0.0
  0
LINE
  5
B2D
  8
____1
  6
DASHED2
 62
     7
 10
19667.89772031724
 20
11046.6981833836
 30
0.0
 11
19627.84516742409
 21
11046.6981833836
 31
0.0
  0
LINE
  5
B2E
  8
____1
  6
DASHED2
 62
     7
 10
19676.34516742409
 20
11046.6981833836
 30
0.0
 11
19667.89772031724
 21
11046.6981833836
 31
0.0
  0
LINE
  5
B2F
  8
____1
  6
DASHED2
 62
     7
 10
19627.84516742409
 20
11053.1981833836
 30
0.0
 11
19626.34516742409
 21
11053.1981833836
 31
0.0
  0
ARC
  5
B30
  8
____1
  6
DASHED
 62
     7
 10
19754.84516742409
 20
11243.6981833836
 30
0.0
 40
1.5
 50
-90.0
 51
0.0
  0
LINE
  5
B31
  8
____1
  6
DASHED2
 62
     7
 10
19627.84516742409
 20
11053.1981833836
 30
0.0
 11
19626.34516742409
 21
11053.1981833836
 31
0.0
  0
LINE
  5
B32
  8
____1
  6
DASHED2
 62
     7
 10
19626.34516742409
 20
11053.1981833836
 30
0.0
 11
19626.34516742409
 21
11046.6981833836
 31
0.0
  0
LINE
  5
B33
  8
____1
  6
DASHED2
 62
     7
 10
19627.84516742409
 20
11053.1981833836
 30
0.0
 11
19627.84516742409
 21
11046.6981833836
 31
0.0
  0
LINE
  5
B34
  8
____1
  6
CONTINUOUS
 62
     5
 10
19706.10400226463
 20
11243.99235758631
 30
0.0
 11
19676.374296410559
 21
11095.343828315919
 31
0.0
  0
LINE
  5
B35
  8
____1
  6
DASHED
 62
     7
 10
19707.574873278169
 20
11243.6981833836
 30
0.0
 11
19677.84516742409
 21
11095.049654113211
 31
0.0
  0
ARC
  5
B36
  8
____1
  6
CONTINUOUS
 62
     5
 10
19623.838790108661
 20
11057.14691061566
 30
0.0
 40
1.500000000000103
 50
90.069940233995624
 51
178.2800296256259
  0
INSERT
  5
B4D
  8
____1
  6
CONTINUOUS
 62
   254
  2
C78
 10
0.0
 20
0.0
 30
0.0
  0
LINE
  5
B4E
  8
____1
  6
CONTINUOUS
 62
     5
 10
19754.84516742409
 20
11245.1981833836
 30
0.0
 11
19707.574873278169
 21
11245.1981833836
 31
0.0
  0
LINE
  5
B4F
  8
____1
  6
DASHED
 62
     7
 10
19754.84516742409
 20
11243.6981833836
 30
0.0
 11
19707.574873278169
 21
11243.6981833836
 31
0.0
  0
LINE
  5
B50
  8
____1
  6
DASHED
 62
     7
 10
19746.34516742409
 20
11243.6981833836
 30
0.0
 11
19746.34516742409
 21
11242.1981833836
 31
0.0
  0
LINE
  5
B51
  8
____1
  6
DASHED
 62
     7
 10
19754.84516742409
 20
11242.1981833836
 30
0.0
 11
19746.34516742409
 21
11242.1981833836
 31
0.0
  0
ARC
  5
B52
  8
____1
  6
CONTINUOUS
 62
     5
 10
19707.574873278169
 20
11243.6981833836
 30
0.0
 40
1.5000000000017859
 50
90.0
 51
168.690067526007
  0
ARC
  5
B53
  8
____1
  6
CONTINUOUS
 62
     5
 10
19754.84516742409
 20
11243.6981833836
 30
0.0
 40
1.5
 50
0.0
 51
90.0
  0
ARC
  5
B54
  8
____1
  6
DASHED
 62
     7
 10
19676.34516742409
 20
11046.6981833836
 30
0.0
 40
1.5
 50
-90.0
 51
0.0
  0
LINE
  5
B55
  8
____1
  6
CONTINUOUS
 62
     5
 10
19706.34516742409
 20
11243.6981833836
 30
0.0
 11
19676.34516742409
 21
11095.1981833836
 31
0.0
  0
LINE
  5
B56
  8
____1
  6
CONTINUOUS
 62
     5
 10
19756.34516742409
 20
11243.6981833836
 30
0.0
 11
19706.34516742409
 21
11243.6981833836
 31
0.0
  0
ARC
  5
B57
  8
____1
  6
DASHED
 62
     7
 10
19627.84516742409
 20
11046.6981833836
 30
0.0
 40
1.5
 50
180.0
 51
-90.0
  0
ARC
  5
B58
  8
____1
  6
CONTINUOUS
 62
     5
 10
19677.84516742409
 20
11095.049654113211
 30
0.0
 40
1.5
 50
168.69006752595249
 51
180.0
  0
LINE
  5
B59
  8
____1
  6
DASHED2
 62
     7
 10
19665.841200191149
 20
11055.19818096223
 30
0.0
 11
19623.841231482769
 21
11055.146912105751
 31
0.0
  0
LINE
  5
B5A
  8
____1
  6
DASHED2
 62
     7
 10
19657.886738530411
 20
11055.688471419109
 30
0.0
 11
19657.884907499811
 21
11057.188470301549
 31
0.0
  0
ARC
  5
B5B
  8
____1
  6
DASHED2
 62
     7
 10
19665.84516742409
 20
11051.9481833836
 30
0.0
 40
3.250000000002641
 50
145.88231289682491
 51
90.069940233867285
  0
ARC
  5
B5C
  8
____1
  6
DASHED2
 62
     7
 10
19665.84516742409
 20
11051.9481833836
 30
0.0
 40
5.2500000000003579
 50
145.8823128968213
 51
90.069940233955904
  0
LINE
  5
B5D
  8
____1
  6
DASHED2
 62
     7
 10
19623.841231482769
 20
11055.146912105751
 30
0.0
 11
19623.838790108661
 21
11057.14691061566
 31
0.0
  0
LINE
  5
B5E
  8
____1
  6
DASHED2
 62
     7
 10
19665.83875881703
 20
11057.198179472151
 30
0.0
 11
19623.838790108661
 21
11057.14691061566
 31
0.0
  0
LINE
  5
B5F
  8
____1
  6
DASHED2
 62
     7
 10
19659.841204661381
 20
11055.19085683987
 30
0.0
 11
19659.838763287258
 21
11057.1908553498
 31
0.0
  0
INSERT
  5
B69
  8
____1
  6
DASHED2
 62
     7
  2
C79
 10
0.0
 20
0.0
 30
0.0
  0
LINE
  5
B6A
  8
____1
  6
CONTINUOUS
 62
     5
 10
19623.836959078071
 20
11058.646909498109
 30
0.0
 11
19666.383070136399
 21
11058.69884502399
 31
0.0
  0
ARC
  5
B6B
  8
____1
  6
CONTINUOUS
 62
     5
 10
19666.384901166992
 20
11057.19884614154
 30
0.0
 40
1.500000000000103
 50
0.069940234134569
 51
90.069940233995624
  0
LINE
  5
B6C
  8
____1
  6
DASHED2
 62
     7
 10
19663.154533936569
 20
11053.77109079645
 30
0.0
 11
19661.498759482711
 21
11054.89287997359
 31
0.0
  0
LINE
  5
B6D
  8
____1
  6
DASHED2
 62
     7
 10
19623.838790108661
 20
11057.14691061566
 30
0.0
 11
19666.384901166992
 21
11057.19884614154
 31
0.0
  0
ENDSEC
  0
EOF
