  0
SECTION
  2
HEADER
  9
$ACADVER
  1
AC1006
  9
$DWGCODEPAGE
  3
ansi_932
  9
$INSBASE
 10
0.0
 20
0.0
 30
0.0
  9
$EXTMIN
 10
23986.940624999996
 20
11595.931249999994
  9
$EXTMAX
 10
28501.393749999996
 20
9131.7343749999945
  9
$LIMMIN
 10
0.0
 20
0.0
  9
$LIMMAX
 10
0.0
 20
0.0
  9
$VIEWCTR
 10
6.5912879999999996
 20
4.5791839999999997
  9
$VIEWSIZE
 40
9.1583690000000004
  9
$SNAPMODE
 70
               0
  9
$SNAPUNIT
 10
1.0
 20
1.0
  9
$SNAPBASE
 10
0.0
 20
0.0
  9
$SNAPANG
 50
0.0
  9
$SNAPSTYLE
 70
               0
  9
$SNAPISOPAIR
 70
               0
  9
$GRIDMODE
 70
               0
  9
$GRIDUNIT
 10
0.0
 20
0.0
  9
$ORTHOMODE
 70
               0
  9
$REGENMODE
 70
               1
  9
$FILLMODE
 70
               1
  9
$QTEXTMODE
 70
               0
  9
$MIRRTEXT
 70
               1
  9
$DRAGMODE
 70
               2
  9
$LTSCALE
 40
1.0
  9
$OSMODE
 70
               0
  9
$ATTMODE
 70
               1
  9
$TEXTSIZE
 40
0.2
  9
$TRACEWID
 40
0.05
  9
$TEXTSTYLE
  7
STANDARD
  9
$CLAYER
  8
0
  9
$CELTYPE
  6
CONTINUOUS
  9
$CECOLOR
 62
             256
  9
$DIMSCALE
 40
1.0
  9
$DIMASZ
 40
2.5
  9
$DIMEXO
 40
0.5
  9
$DIMDLI
 40
0.38
  9
$DIMRND
 40
0.0
  9
$DIMDLE
 40
0.0
  9
$DIMEXE
 40
1.0
  9
$DIMTP
 40
0.0
  9
$DIMTM
 40
0.0
  9
$DIMTXT
 40
3.5277777777777777
  9
$DIMCEN
 40
0.09
  9
$DIMTSZ
 40
0.0
  9
$DIMTOL
 70
               0
  9
$DIMLIM
 70
               0
  9
$DIMTIH
 70
               0
  9
$DIMTOH
 70
               0
  9
$DIMSE1
 70
               0
  9
$DIMSE2
 70
               0
  9
$DIMTAD
 70
               1
  9
$DIMZIN
 70
               0
  9
$DIMBLK
  1

  9
$DIMASO
 70
               1
  9
$DIMSHO
 70
               1
  9
$DIMPOST
  1

  9
$DIMAPOST
  1

  9
$DIMALT
 70
               0
  9
$DIMALTD
 70
               3
  9
$DIMALTF
 40
25.399999999999999
  9
$DIMLFAC
 40
1.0
  9
$DIMTOFL
 70
               0
  9
$DIMTVP
 40
0.0
  9
$DIMTIX
 70
               0
  9
$DIMSOXD
 70
               0
  9
$DIMSAH
 70
               0
  9
$DIMBLK1
  1

  9
$DIMBLK2
  1

  9
$LUNITS
 70
               2
  9
$LUPREC
 70
               4
  9
$AXISMODE
 70
               0
  9
$AXISUNIT
 10
0.0
 20
0.0
  9
$SKETCHINC
 40
0.1
  9
$FILLETRAD
 40
0.0
  9
$AUNITS
 70
               0
  9
$AUPREC
 70
               0
  9
$MENU
  1
acad
  9
$ELEVATION
 40
0.0
  9
$THICKNESS
 40
0.0
  9
$LIMCHECK
 70
               0
  9
$BLIPMODE
 70
               1
  9
$CHAMFERA
 40
0.0
  9
$CHAMFERB
 40
0.0
  9
$SKPOLY
 70
               0
  9
$TDCREATE
 40
2454992.465520833
  9
$TDUPDATE
 40
2454992.465520833
  9
$TDINDWG
 40
0.0000000000
  9
$TDUSRTIMER
 40
0.0000000000
  9
$USRTIMER
 70
               1
  9
$ANGBASE
 50
0.0
  9
$ANGDIR
 70
               0
  9
$PDMODE
 70
               0
  9
$PDSIZE
 40
0.0
  9
$PLINEWID
 40
0.0
  9
$COORDS
 70
               0
  9
$SPLFRAME
 70
               0
  9
$SPLINETYPE
 70
               6
  9
$SPLINESEGS
 70
               8
  9
$ATTDIA
 70
               0
  9
$ATTREQ
 70
               1
  9
$HANDLING
 70
               1
  9
$HANDSEED
  5
9EE
  9
$SURFTAB1
 70
               6
  9
$SURFTAB2
 70
               6
  9
$SURFTYPE
 70
               6
  9
$SURFU
 70
               6
  9
$SURFV
 70
               6
  9
$FLATLAND
 70
               0
  9
$UCSNAME
  2

  9
$UCSORG
 10
0.0
 20
0.0
 30
0.0
  9
$UCSXDIR
 10
1.0
 20
0.0
 30
0.0
  9
$UCSYDIR
 10
0.0
 20
1.0
 30
0.0
  9
$USERI1
 70
               0
  9
$USERI2
 70
               0
  9
$USERI3
 70
               0
  9
$USERI4
 70
               0
  9
$USERI5
 70
               0
  9
$USERR1
 40
0.0
  9
$USERR2
 40
0.0
  9
$USERR3
 40
0.0
  9
$USERR4
 40
0.0
  9
$USERR5
 40
0.0
  9
$WORLDVIEW
 70
               1
  0
ENDSEC
  0
SECTION
  2
TABLES
  0
TABLE
  2
VPORT
 70
               1
  0
VPORT
  2
*ACTIVE
 70
               0
 10
0.0
 20
0.0
 11
1.0
 21
1.0
 12
6.5912879999999996
 22
4.5791839999999997
 13
0.0
 23
0.0
 14
1.0
 24
1.0
 15
0.0
 25
0.0
 16
0.0
 26
0.0
 36
1.0
 17
0.0
 27
0.0
 37
0.0
 40
9.1583690000000004
 41
0.688564
 42
50.0
 43
0.0
 44
0.0
 50
0.0
 51
0.0
 71
               0
 72
             100
 73
               1
 74
               1
 75
               0
 76
               0
 77
               0
 78
               0
  0
ENDTAB
  0
TABLE
  2
LTYPE
 70
              11
  0
LTYPE
  2
CONTINUOUS
 70
              64
  3
Solid line
 72
              65
 73
               0
 40
0.0
  0
LTYPE
  2
DOT
 70
              64
  3

 72
              65
 73
               2
 40
1.0
 49
0.0
 49
-1.0
  0
LTYPE
  2
DASHEDX2
 70
              64
  3

 72
              65
 73
               2
 40
4.0
 49
3.0
 49
-1.0
  0
LTYPE
  2
DASHED
 70
              64
  3

 72
              65
 73
               2
 40
3.0
 49
2.0
 49
-1.0
  0
LTYPE
  2
DASHED2
 70
              64
  3

 72
              65
 73
               2
 40
2.0
 49
1.0
 49
-1.0
  0
LTYPE
  2
CENTERX2
 70
              64
  3

 72
              65
 73
               4
 40
43.0
 49
40.0
 49
-1.0
 49
1.0
 49
-1.0
  0
LTYPE
  2
CENTER
 70
              64
  3

 72
              65
 73
               4
 40
33.0
 49
30.0
 49
-1.0
 49
1.0
 49
-1.0
  0
LTYPE
  2
CENTER2
 70
              64
  3

 72
              65
 73
               4
 40
23.0
 49
20.0
 49
-1.0
 49
1.0
 49
-1.0
  0
LTYPE
  2
PHANTOMX2
 70
              64
  3

 72
              65
 73
               6
 40
45.0
 49
40.0
 49
-1.0
 49
1.0
 49
-1.0
 49
1.0
 49
-1.0
  0
LTYPE
  2
PHANTOM
 70
              64
  3

 72
              65
 73
               6
 40
35.0
 49
30.0
 49
-1.0
 49
1.0
 49
-1.0
 49
1.0
 49
-1.0
  0
LTYPE
  2
PHANTOM2
 70
              64
  3

 72
              65
 73
               6
 40
25.0
 49
20.0
 49
-1.0
 49
1.0
 49
-1.0
 49
1.0
 49
-1.0
  0
ENDTAB
  0
TABLE
  2
LAYER
 70
              18
  0
LAYER
  2
0
 70
               0
 62
               7
  6
CONTINUOUS
  0
LAYER
  2
DEFPOINTS
 70
               0
 62
               7
  6
CONTINUOUS
  0
LAYER
  2
____1
 70
               0
 62
               7
  6
DASHED2
  0
LAYER
  2
______
 70
               0
 62
               7
  6
CONTINUOUS
  0
LAYER
  2
補助線_1
 70
               0
 62
               7
  6
CONTINUOUS
  0
LAYER
  2
UNASSIGNED
 70
               0
 62
               7
  6
CONTINUOUS
  0
LAYER
  2
____
 70
               0
 62
               7
  6
DOT
  0
LAYER
  2
___G
 70
               0
 62
               7
  6
DOT
  0
LAYER
  2
CONSTRUCTION
 70
               0
 62
               7
  6
CONTINUOUS
  0
LAYER
  2
DIMENSION
 70
               0
 62
               7
  6
CONTINUOUS
  0
LAYER
  2
FORMAT
 70
               0
 62
               7
  6
CONTINUOUS
  0
LAYER
  2
0_1
 70
               0
 62
               7
  6
CONTINUOUS
  0
LAYER
  2
2
 70
               0
 62
               7
  6
CONTINUOUS
  0
LAYER
  2
3
 70
               0
 62
               7
  6
CONTINUOUS
  0
LAYER
  2
1
 70
               0
 62
               7
  6
CONTINUOUS
  0
LAYER
  2
____2
 70
               0
 62
               5
  6
CONTINUOUS
  0
LAYER
  2
DEFPOINTS_1
 70
               0
 62
               5
  6
CONTINUOUS
  0
LAYER
  2
___C_____1
 70
               0
 62
               7
  6
CONTINUOUS
  0
ENDTAB
  0
TABLE
  2
STYLE
 70
               2
  0
STYLE
  2
STANDARD
 70
               0
 40
0.0
 41
1.0
 50
0.0
 71
               0
 42
0.35
  3
txt
  4

  0
STYLE
  2
STYLE1
 70
               0
 40
0.0
 41
1.0
 50
0.0
 71
               0
 42
0.35
  3
ＭＳ ゴシック
  4

  0
ENDTAB
  0
TABLE
  2
VIEW
 70
               0
  0
ENDTAB
  0
TABLE
  2
UCS
 70
               0
  0
ENDTAB
  0
ENDSEC
  0
SECTION
  2
BLOCKS
  0
BLOCK
  8
0
  2
*D0
 70
              65
 10
0.0
 20
0.0
  0
LINE
  8
____1
  6
CONTINUOUS
 62
               7
 10
25122.458346827083
 20
11255.897822139517
 30
0.0
 11
25222.458346827079
 21
11255.897822139517
 31
0.0
  0
LINE
  8
____1
  6
CONTINUOUS
 62
               7
 10
25222.458346827079
 20
10996.335267846618
 30
0.0
 11
25222.458346827079
 21
11263.897822139517
 31
0.0
  0
LINE
  8
____1
  6
CONTINUOUS
 62
               7
 10
25122.458346827083
 20
11213.835267846616
 30
0.0
 11
25122.458346827083
 21
11263.897822139517
 31
0.0
  0
SOLID
  8
____1
  6
CONTINUOUS
 62
               7
 10
25102.458346827083
 20
11251.897822139517
 30
0.0
 11
25102.458346827083
 21
11251.897822139517
 31
0.0
 12
25107.458346827083
 22
11255.897822139517
 32
0.0
 13
25122.458346827083
 23
11255.897822139517
 33
0.0
  0
SOLID
  8
____1
  6
CONTINUOUS
 62
               7
 10
25107.458346827083
 20
11255.897822139517
 30
0.0
 11
25122.458346827083
 21
11255.897822139517
 31
0.0
 12
25102.458346827083
 22
11259.897822139517
 32
0.0
 13
25102.458346827083
 23
11259.897822139517
 33
0.0
  0
LINE
  8
____1
  6
CONTINUOUS
 62
               7
 10
25122.458346827083
 20
11255.897822139517
 30
0.0
 11
25082.458346827083
 21
11255.897822139517
 31
0.0
  0
SOLID
  8
____1
  6
CONTINUOUS
 62
               7
 10
25242.458346827079
 20
11251.897822139517
 30
0.0
 11
25242.458346827079
 21
11251.897822139517
 31
0.0
 12
25222.458346827079
 22
11255.897822139517
 32
0.0
 13
25237.458346827079
 23
11255.897822139517
 33
0.0
  0
SOLID
  8
____1
  6
CONTINUOUS
 62
               7
 10
25222.458346827079
 20
11255.897822139517
 30
0.0
 11
25237.458346827079
 21
11255.897822139517
 31
0.0
 12
25242.458346827079
 22
11259.897822139517
 32
0.0
 13
25242.458346827079
 23
11259.897822139517
 33
0.0
  0
LINE
  8
____1
  6
CONTINUOUS
 62
               7
 10
25222.458346827079
 20
11255.897822139517
 30
0.0
 11
25262.458346827079
 21
11255.897822139517
 31
0.0
  0
TEXT
  8
______
  6
DASHED2
 62
               7
 10
25151.291680796199
 20
11264.013562756634
 30
0.0
 40
28.222221374511719
  1
100
  7
STYLE1
  0
ENDBLK
  8
0
  0
BLOCK
  8
0
  2
*D1
 70
              65
 10
0.0
 20
0.0
  0
LINE
  8
____1
  6
CONTINUOUS
 62
               7
 10
27361.702202915214
 20
10095.573891445421
 30
0.0
 11
27411.702202915214
 21
10095.573891445421
 31
0.0
  0
LINE
  8
____1
  6
CONTINUOUS
 62
               7
 10
27411.702202915214
 20
10205.835267846624
 30
0.0
 11
27411.702202915214
 21
10087.573891445421
 31
0.0
  0
LINE
  8
____1
  6
CONTINUOUS
 62
               7
 10
27361.702202915214
 20
10205.835267846624
 30
0.0
 11
27361.702202915214
 21
10087.573891445421
 31
0.0
  0
SOLID
  8
____1
  6
CONTINUOUS
 62
               7
 10
27341.702202915214
 20
10091.573891445421
 30
0.0
 11
27341.702202915214
 21
10091.573891445421
 31
0.0
 12
27346.702202915214
 22
10095.573891445421
 32
0.0
 13
27361.702202915214
 23
10095.573891445421
 33
0.0
  0
SOLID
  8
____1
  6
CONTINUOUS
 62
               7
 10
27346.702202915214
 20
10095.573891445421
 30
0.0
 11
27361.702202915214
 21
10095.573891445421
 31
0.0
 12
27341.702202915214
 22
10099.573891445421
 32
0.0
 13
27341.702202915214
 23
10099.573891445421
 33
0.0
  0
LINE
  8
____1
  6
CONTINUOUS
 62
               7
 10
27361.702202915214
 20
10095.573891445421
 30
0.0
 11
27321.702202915214
 21
10095.573891445421
 31
0.0
  0
SOLID
  8
____1
  6
CONTINUOUS
 62
               7
 10
27431.702202915214
 20
10091.573891445421
 30
0.0
 11
27431.702202915214
 21
10091.573891445421
 31
0.0
 12
27411.702202915214
 22
10095.573891445421
 32
0.0
 13
27426.702202915214
 23
10095.573891445421
 33
0.0
  0
SOLID
  8
____1
  6
CONTINUOUS
 62
               7
 10
27411.702202915214
 20
10095.573891445421
 30
0.0
 11
27426.702202915214
 21
10095.573891445421
 31
0.0
 12
27431.702202915214
 22
10099.573891445421
 32
0.0
 13
27431.702202915214
 23
10099.573891445421
 33
0.0
  0
LINE
  8
____1
  6
CONTINUOUS
 62
               7
 10
27411.702202915214
 20
10095.573891445421
 30
0.0
 11
27451.702202915214
 21
10095.573891445421
 31
0.0
  0
TEXT
  8
______
  6
DASHED2
 62
               7
 10
27372.455945154998
 20
10103.689632062538
 30
0.0
 40
28.222221374511719
  1
50
  7
STYLE1
  0
ENDBLK
  8
0
  0
BLOCK
  8
0
  2
*D2
 70
              65
 10
0.0
 20
0.0
  0
LINE
  8
____1
  6
CONTINUOUS
 62
               7
 10
27331.702202915214
 20
10095.573891445421
 30
0.0
 11
27361.702202915214
 21
10095.573891445421
 31
0.0
  0
LINE
  8
____1
  6
CONTINUOUS
 62
               7
 10
27361.702202915214
 20
10205.835267846624
 30
0.0
 11
27361.702202915214
 21
10087.573891445421
 31
0.0
  0
LINE
  8
____1
  6
CONTINUOUS
 62
               7
 10
27331.702202915214
 20
10355.835267846624
 30
0.0
 11
27331.702202915214
 21
10087.573891445421
 31
0.0
  0
SOLID
  8
____1
  6
CONTINUOUS
 62
               7
 10
27311.702202915214
 20
10091.573891445421
 30
0.0
 11
27311.702202915214
 21
10091.573891445421
 31
0.0
 12
27316.702202915214
 22
10095.573891445421
 32
0.0
 13
27331.702202915214
 23
10095.573891445421
 33
0.0
  0
SOLID
  8
____1
  6
CONTINUOUS
 62
               7
 10
27316.702202915214
 20
10095.573891445421
 30
0.0
 11
27331.702202915214
 21
10095.573891445421
 31
0.0
 12
27311.702202915214
 22
10099.573891445421
 32
0.0
 13
27311.702202915214
 23
10099.573891445421
 33
0.0
  0
LINE
  8
____1
  6
CONTINUOUS
 62
               7
 10
27331.702202915214
 20
10095.573891445421
 30
0.0
 11
27291.702202915214
 21
10095.573891445421
 31
0.0
  0
SOLID
  8
____1
  6
CONTINUOUS
 62
               7
 10
27381.702202915214
 20
10091.573891445421
 30
0.0
 11
27381.702202915214
 21
10091.573891445421
 31
0.0
 12
27361.702202915214
 22
10095.573891445421
 32
0.0
 13
27376.702202915214
 23
10095.573891445421
 33
0.0
  0
SOLID
  8
____1
  6
CONTINUOUS
 62
               7
 10
27361.702202915214
 20
10095.573891445421
 30
0.0
 11
27376.702202915214
 21
10095.573891445421
 31
0.0
 12
27381.702202915214
 22
10099.573891445421
 32
0.0
 13
27381.702202915214
 23
10099.573891445421
 33
0.0
  0
LINE
  8
____1
  6
CONTINUOUS
 62
               7
 10
27361.702202915214
 20
10095.573891445421
 30
0.0
 11
27401.702202915214
 21
10095.573891445421
 31
0.0
  0
TEXT
  8
______
  6
DASHED2
 62
               7
 10
27332.591092227958
 20
10103.689632062538
 30
0.0
 40
28.222221374511719
  1
30
  7
STYLE1
  0
ENDBLK
  8
0
  0
BLOCK
  8
0
  2
*D3
 70
              65
 10
0.0
 20
0.0
  0
LINE
  8
____1
  6
CONTINUOUS
 62
               7
 10
27324.112292069087
 20
10095.577950453933
 30
0.0
 11
27331.702202915214
 21
10095.577950453933
 31
0.0
  0
LINE
  8
____1
  6
CONTINUOUS
 62
               7
 10
27331.702202915214
 20
10355.983797117011
 30
0.0
 11
27331.702202915214
 21
10087.577950453933
 31
0.0
  0
LINE
  8
____1
  6
CONTINUOUS
 62
               7
 10
27324.112292069087
 20
10380.839326855134
 30
0.0
 11
27324.112292069087
 21
10087.577950453933
 31
0.0
  0
SOLID
  8
____1
  6
CONTINUOUS
 62
               7
 10
27304.112292069087
 20
10091.577950453933
 30
0.0
 11
27304.112292069087
 21
10091.577950453933
 31
0.0
 12
27309.112292069087
 22
10095.577950453933
 32
0.0
 13
27324.112292069087
 23
10095.577950453933
 33
0.0
  0
SOLID
  8
____1
  6
CONTINUOUS
 62
               7
 10
27309.112292069087
 20
10095.577950453933
 30
0.0
 11
27324.112292069087
 21
10095.577950453933
 31
0.0
 12
27304.112292069087
 22
10099.577950453933
 32
0.0
 13
27304.112292069087
 23
10099.577950453933
 33
0.0
  0
LINE
  8
____1
  6
CONTINUOUS
 62
               7
 10
27324.112292069087
 20
10095.577950453933
 30
0.0
 11
27284.112292069087
 21
10095.577950453933
 31
0.0
  0
SOLID
  8
____1
  6
CONTINUOUS
 62
               7
 10
27351.702202915214
 20
10091.577950453933
 30
0.0
 11
27351.702202915214
 21
10091.577950453933
 31
0.0
 12
27331.702202915214
 22
10095.577950453933
 32
0.0
 13
27346.702202915214
 23
10095.577950453933
 33
0.0
  0
SOLID
  8
____1
  6
CONTINUOUS
 62
               7
 10
27331.702202915214
 20
10095.577950453933
 30
0.0
 11
27346.702202915214
 21
10095.577950453933
 31
0.0
 12
27351.702202915214
 22
10099.577950453933
 32
0.0
 13
27351.702202915214
 23
10099.577950453933
 33
0.0
  0
LINE
  8
____1
  6
CONTINUOUS
 62
               7
 10
27331.702202915214
 20
10095.577950453933
 30
0.0
 11
27371.702202915214
 21
10095.577950453933
 31
0.0
  0
ENDBLK
  8
0
  0
BLOCK
  8
0
  2
*D4
 70
              65
 10
0.0
 20
0.0
  0
LINE
  8
____1
  6
CONTINUOUS
 62
               7
 10
27324.112294088161
 20
10380.836865710735
 30
0.0
 11
27324.112294088161
 21
10087.573891445421
 31
0.0
  0
LINE
  8
____1
  6
CONTINUOUS
 62
               7
 10
27278.631816285982
 20
10379.264702056798
 30
0.0
 11
27278.631816285982
 21
10087.573891445421
 31
0.0
  0
SOLID
  8
____1
  6
CONTINUOUS
 62
               7
 10
27298.631816285982
 20
10091.573891445421
 30
0.0
 11
27298.631816285982
 21
10091.573891445421
 31
0.0
 12
27278.631816285982
 22
10095.573891445421
 32
0.0
 13
27293.631816285982
 23
10095.573891445421
 33
0.0
  0
SOLID
  8
____1
  6
CONTINUOUS
 62
               7
 10
27278.631816285982
 20
10095.573891445421
 30
0.0
 11
27293.631816285982
 21
10095.573891445421
 31
0.0
 12
27298.631816285982
 22
10099.573891445421
 32
0.0
 13
27298.631816285982
 23
10099.573891445421
 33
0.0
  0
LINE
  8
____1
  6
CONTINUOUS
 62
               7
 10
27278.631816285982
 20
10095.573891445421
 30
0.0
 11
27324.112294088161
 21
10095.573891445421
 31
0.0
  0
SOLID
  8
____1
  6
CONTINUOUS
 62
               7
 10
27304.112294088161
 20
10091.573891445421
 30
0.0
 11
27304.112294088161
 21
10091.573891445421
 31
0.0
 12
27309.112294088161
 22
10095.573891445421
 32
0.0
 13
27324.112294088161
 23
10095.573891445421
 33
0.0
  0
SOLID
  8
____1
  6
CONTINUOUS
 62
               7
 10
27309.112294088161
 20
10095.573891445421
 30
0.0
 11
27324.112294088161
 21
10095.573891445421
 31
0.0
 12
27304.112294088161
 22
10099.573891445421
 32
0.0
 13
27304.112294088161
 23
10099.573891445421
 33
0.0
  0
LINE
  8
____1
  6
CONTINUOUS
 62
               7
 10
27324.112294088161
 20
10095.573891445421
 30
0.0
 11
27186.994624432402
 21
10095.573891445421
 31
0.0
  0
TEXT
  8
______
  6
DASHED2
 62
               7
 10
27201.105735119658
 20
10103.689632062538
 30
0.0
 40
28.222221374511719
  1
45.48
  7
STYLE1
  0
ENDBLK
  8
0
  0
BLOCK
  8
0
  2
*D5
 70
              65
 10
0.0
 20
0.0
  0
LINE
  8
____1
  6
CONTINUOUS
 62
               7
 10
25922.458346827079
 20
10798.680454749103
 30
0.0
 11
25922.458346827079
 21
10918.703515624997
 31
0.0
  0
LINE
  8
____1
  6
CONTINUOUS
 62
               7
 10
25322.458346827079
 20
10912.086565563724
 30
0.0
 11
25322.458346827079
 21
10918.703515624997
 31
0.0
  0
SOLID
  8
____1
  6
CONTINUOUS
 62
               7
 10
25342.458346827079
 20
10906.703515624997
 30
0.0
 11
25342.458346827079
 21
10906.703515624997
 31
0.0
 12
25322.458346827079
 22
10910.703515624997
 32
0.0
 13
25337.458346827079
 23
10910.703515624997
 33
0.0
  0
SOLID
  8
____1
  6
CONTINUOUS
 62
               7
 10
25322.458346827079
 20
10910.703515624997
 30
0.0
 11
25337.458346827079
 21
10910.703515624997
 31
0.0
 12
25342.458346827079
 22
10914.703515624997
 32
0.0
 13
25342.458346827079
 23
10914.703515624997
 33
0.0
  0
LINE
  8
____1
  6
CONTINUOUS
 62
               7
 10
25322.458346827079
 20
10910.703515624997
 30
0.0
 11
25629.101888020832
 21
10910.703515624997
 31
0.0
  0
SOLID
  8
____1
  6
CONTINUOUS
 62
               7
 10
25902.458346827079
 20
10906.703515624997
 30
0.0
 11
25902.458346827079
 21
10906.703515624997
 31
0.0
 12
25907.458346827079
 22
10910.703515624997
 32
0.0
 13
25922.458346827079
 23
10910.703515624997
 33
0.0
  0
SOLID
  8
____1
  6
CONTINUOUS
 62
               7
 10
25907.458346827079
 20
10910.703515624997
 30
0.0
 11
25922.458346827079
 21
10910.703515624997
 31
0.0
 12
25902.458346827079
 22
10914.703515624997
 32
0.0
 13
25902.458346827079
 23
10914.703515624997
 33
0.0
  0
LINE
  8
____1
  6
CONTINUOUS
 62
               7
 10
25922.458346827079
 20
10910.703515624997
 30
0.0
 11
25629.101888020832
 21
10910.703515624997
 31
0.0
  0
TEXT
  8
______
  6
DASHED2
 62
               7
 10
25523.268557866413
 20
10918.819256242114
 30
0.0
 40
28.222221374511719
  1
600（開口寸法）
  7
STYLE1
  0
ENDBLK
  8
0
  0
BLOCK
  8
0
  2
*D6
 70
              65
 10
0.0
 20
0.0
  0
LINE
  8
____1
  6
CONTINUOUS
 62
               7
 10
25976.458346827087
 20
11059.835267846618
 30
0.0
 11
26287.081539456503
 21
11059.835267846618
 31
0.0
  0
LINE
  8
____1
  6
CONTINUOUS
 62
               7
 10
25976.458346827087
 20
10359.835267846624
 30
0.0
 11
26287.081539456503
 21
10359.835267846624
 31
0.0
  0
SOLID
  8
____1
  6
CONTINUOUS
 62
               7
 10
26279.081539456503
 20
10359.835267846624
 30
0.0
 11
26279.081539456503
 21
10359.835267846624
 31
0.0
 12
26276.081539456503
 22
10374.835267846624
 32
0.0
 13
26282.081539456503
 23
10374.835267846624
 33
0.0
  0
SOLID
  8
____1
  6
CONTINUOUS
 62
               7
 10
26276.081539456503
 20
10374.835267846624
 30
0.0
 11
26279.081539456503
 21
10374.835267846624
 31
0.0
 12
26275.081539456503
 22
10379.835267846624
 32
0.0
 13
26275.081539456503
 23
10379.835267846624
 33
0.0
  0
SOLID
  8
____1
  6
CONTINUOUS
 62
               7
 10
26279.081539456503
 20
10374.835267846624
 30
0.0
 11
26282.081539456503
 21
10374.835267846624
 31
0.0
 12
26283.081539456503
 22
10379.835267846624
 32
0.0
 13
26283.081539456503
 23
10379.835267846624
 33
0.0
  0
LINE
  8
____1
  6
CONTINUOUS
 62
               7
 10
26279.081539456503
 20
10359.835267846624
 30
0.0
 11
26279.081539456503
 21
10709.835267846622
 31
0.0
  0
SOLID
  8
____1
  6
CONTINUOUS
 62
               7
 10
26275.081539456503
 20
11039.835267846618
 30
0.0
 11
26275.081539456503
 21
11039.835267846618
 31
0.0
 12
26276.081539456503
 22
11044.835267846618
 32
0.0
 13
26279.081539456503
 23
11044.835267846618
 33
0.0
  0
SOLID
  8
____1
  6
CONTINUOUS
 62
               7
 10
26283.081539456503
 20
11039.835267846618
 30
0.0
 11
26283.081539456503
 21
11039.835267846618
 31
0.0
 12
26279.081539456503
 22
11044.835267846618
 32
0.0
 13
26282.081539456503
 23
11044.835267846618
 33
0.0
  0
SOLID
  8
____1
  6
CONTINUOUS
 62
               7
 10
26276.081539456503
 20
11044.835267846618
 30
0.0
 11
26282.081539456503
 21
11044.835267846618
 31
0.0
 12
26279.081539456503
 22
11059.835267846618
 32
0.0
 13
26279.081539456503
 23
11059.835267846618
 33
0.0
  0
LINE
  8
____1
  6
CONTINUOUS
 62
               7
 10
26279.081539456503
 20
11059.835267846618
 30
0.0
 11
26279.081539456503
 21
10709.835267846622
 31
0.0
  0
TEXT
  8
______
  6
DASHED2
 62
               7
 10
26270.965798839388
 20
10688.668601815738
 30
0.0
 40
28.222221374511719
  1
700
 50
90.0
  7
STYLE1
  0
ENDBLK
  8
0
  0
BLOCK
  8
0
  2
*D7
 70
              65
 10
0.0
 20
0.0
  0
LINE
  8
____1
  6
CONTINUOUS
 62
               7
 10
26126.458346827087
 20
11209.835267846616
 30
0.0
 11
26363.600440490041
 21
11209.835267846616
 31
0.0
  0
LINE
  8
____1
  6
CONTINUOUS
 62
               7
 10
26126.458346827087
 20
10209.835267846624
 30
0.0
 11
26363.600440490041
 21
10209.835267846624
 31
0.0
  0
SOLID
  8
____1
  6
CONTINUOUS
 62
               7
 10
26355.600440490041
 20
10209.835267846624
 30
0.0
 11
26355.600440490041
 21
10209.835267846624
 31
0.0
 12
26352.600440490041
 22
10224.835267846624
 32
0.0
 13
26358.600440490041
 23
10224.835267846624
 33
0.0
  0
SOLID
  8
____1
  6
CONTINUOUS
 62
               7
 10
26352.600440490041
 20
10224.835267846624
 30
0.0
 11
26355.600440490041
 21
10224.835267846624
 31
0.0
 12
26351.600440490041
 22
10229.835267846624
 32
0.0
 13
26351.600440490041
 23
10229.835267846624
 33
0.0
  0
SOLID
  8
____1
  6
CONTINUOUS
 62
               7
 10
26355.600440490041
 20
10224.835267846624
 30
0.0
 11
26358.600440490041
 21
10224.835267846624
 31
0.0
 12
26359.600440490041
 22
10229.835267846624
 32
0.0
 13
26359.600440490041
 23
10229.835267846624
 33
0.0
  0
LINE
  8
____1
  6
CONTINUOUS
 62
               7
 10
26355.600440490041
 20
10209.835267846624
 30
0.0
 11
26355.600440490041
 21
10709.835267846622
 31
0.0
  0
SOLID
  8
____1
  6
CONTINUOUS
 62
               7
 10
26351.600440490041
 20
11189.835267846616
 30
0.0
 11
26351.600440490041
 21
11189.835267846616
 31
0.0
 12
26352.600440490041
 22
11194.835267846616
 32
0.0
 13
26355.600440490041
 23
11194.835267846616
 33
0.0
  0
SOLID
  8
____1
  6
CONTINUOUS
 62
               7
 10
26359.600440490041
 20
11189.835267846616
 30
0.0
 11
26359.600440490041
 21
11189.835267846616
 31
0.0
 12
26355.600440490041
 22
11194.835267846616
 32
0.0
 13
26358.600440490041
 23
11194.835267846616
 33
0.0
  0
SOLID
  8
____1
  6
CONTINUOUS
 62
               7
 10
26352.600440490041
 20
11194.835267846616
 30
0.0
 11
26358.600440490041
 21
11194.835267846616
 31
0.0
 12
26355.600440490041
 22
11209.835267846616
 32
0.0
 13
26355.600440490041
 23
11209.835267846616
 33
0.0
  0
LINE
  8
____1
  6
CONTINUOUS
 62
               7
 10
26355.600440490041
 20
11209.835267846616
 30
0.0
 11
26355.600440490041
 21
10709.835267846622
 31
0.0
  0
TEXT
  8
______
  6
DASHED2
 62
               7
 10
26347.484699872926
 20
10681.61304647211
 30
0.0
 40
28.222221374511719
  1
1000
 50
90.0
  7
STYLE1
  0
ENDBLK
  8
0
  0
BLOCK
  8
0
  2
C0
 70
               0
 10
0.0
 20
0.0
  0
CIRCLE
  8
____1
  6
CONTINUOUS
 62
               7
 10
26214.224281885959
 20
10071.235999454411
 30
0.0
 40
28.0
  0
TEXT
  8
____1
  6
DASHED2
 62
               7
 10
26207.168726542332
 20
10061.240629384272
 30
0.0
 40
28.222221374511719
  1
6
  7
STYLE1
  0
LINE
  8
______
  6
CONTINUOUS
 62
               7
 10
26167.557615219292
 20
10071.235999454411
 30
0.0
 11
26186.224281885959
 21
10071.235999454411
 31
0.0
  0
LINE
  8
______
  6
CONTINUOUS
 62
               7
 10
25717.458346827079
 20
10571.33526784662
 30
0.0
 11
26167.557615219292
 21
10071.235999454411
 31
0.0
  0
SOLID
  8
______
 62
               7
 10
25717.458346827079
 20
10571.33526784662
 30
0.0
 11
25721.323556271131
 21
10564.051027601157
 31
0.0
 12
25717.458346827079
 22
10571.33526784662
 32
0.0
 13
25721.472184125021
 23
10566.875546987007
 33
0.0
  0
SOLID
  8
______
 62
               7
 10
25721.472184125021
 20
10566.875546987007
 30
0.0
 11
25724.29670351087
 21
10566.726919133116
 31
0.0
 12
25717.458346827079
 22
10571.33526784662
 32
0.0
 13
25717.458346827079
 23
10571.33526784662
 33
0.0
  0
ENDBLK
  8
0
  0
BLOCK
  8
0
  2
C1
 70
              64
 10
0.0
 20
0.0
  0
LINE
  8
____1
  6
CONTINUOUS
 62
               7
 10
27147.414371631068
 20
9872.7769791666706
 30
0.0
 11
27147.414371631068
 21
9912.7769791666688
 31
0.0
  0
LINE
  8
____1
  6
CONTINUOUS
 62
               7
 10
26675.414371631068
 20
9872.7769791666706
 30
0.0
 11
26675.414371631068
 21
9912.7769791666688
 31
0.0
  0
LINE
  8
____1
  6
CONTINUOUS
 62
               7
 10
26747.414371631068
 20
9872.7769791666706
 30
0.0
 11
26747.414371631068
 21
9912.7769791666688
 31
0.0
  0
LINE
  8
____1
  6
CONTINUOUS
 62
               7
 10
27587.414371631075
 20
9872.7769791666706
 30
0.0
 11
27587.414371631075
 21
9912.7769791666688
 31
0.0
  0
LINE
  8
____1
  6
CONTINUOUS
 62
               7
 10
27515.414371631068
 20
9872.7769791666706
 30
0.0
 11
27515.414371631068
 21
9912.7769791666688
 31
0.0
  0
LINE
  8
____1
  6
CONTINUOUS
 62
               7
 10
27835.414371631068
 20
9912.7769791666688
 30
0.0
 11
26675.414371631068
 21
9912.7769791666688
 31
0.0
  0
ENDBLK
  8
0
  0
BLOCK
  8
0
  2
C2
 70
              64
 10
0.0
 20
0.0
  0
LINE
  8
____1
  6
CONTINUOUS
 62
               7
 10
27147.414371631068
 20
9672.7769791666706
 30
0.0
 11
27147.414371631068
 21
9712.7769791666706
 31
0.0
  0
LINE
  8
____1
  6
CONTINUOUS
 62
               7
 10
26675.414371631068
 20
9672.7769791666706
 30
0.0
 11
26675.414371631068
 21
9712.7769791666706
 31
0.0
  0
LINE
  8
____1
  6
CONTINUOUS
 62
               7
 10
26747.414371631068
 20
9672.7769791666706
 30
0.0
 11
26747.414371631068
 21
9712.7769791666706
 31
0.0
  0
LINE
  8
____1
  6
CONTINUOUS
 62
               7
 10
27587.414371631075
 20
9672.7769791666706
 30
0.0
 11
27587.414371631075
 21
9712.7769791666706
 31
0.0
  0
LINE
  8
____1
  6
CONTINUOUS
 62
               7
 10
27515.414371631068
 20
9672.7769791666706
 30
0.0
 11
27515.414371631068
 21
9712.7769791666706
 31
0.0
  0
LINE
  8
____1
  6
CONTINUOUS
 62
               7
 10
27835.414371631068
 20
9712.7769791666706
 30
0.0
 11
26675.414371631068
 21
9712.7769791666706
 31
0.0
  0
ENDBLK
  8
0
  0
BLOCK
  8
0
  2
C3
 70
              64
 10
0.0
 20
0.0
  0
LINE
  8
____1
  6
CONTINUOUS
 62
               7
 10
27147.414371631068
 20
9632.7769791666706
 30
0.0
 11
27147.414371631068
 21
9672.7769791666706
 31
0.0
  0
LINE
  8
____1
  6
CONTINUOUS
 62
               7
 10
26675.414371631068
 20
9632.7769791666706
 30
0.0
 11
26675.414371631068
 21
9672.7769791666706
 31
0.0
  0
LINE
  8
____1
  6
CONTINUOUS
 62
               7
 10
26747.414371631068
 20
9632.7769791666706
 30
0.0
 11
26747.414371631068
 21
9672.7769791666706
 31
0.0
  0
LINE
  8
____1
  6
CONTINUOUS
 62
               7
 10
27587.414371631075
 20
9632.7769791666706
 30
0.0
 11
27587.414371631075
 21
9672.7769791666706
 31
0.0
  0
LINE
  8
____1
  6
CONTINUOUS
 62
               7
 10
27515.414371631068
 20
9632.7769791666706
 30
0.0
 11
27515.414371631068
 21
9672.7769791666706
 31
0.0
  0
LINE
  8
____1
  6
CONTINUOUS
 62
               7
 10
27835.414371631068
 20
9672.7769791666706
 30
0.0
 11
26675.414371631068
 21
9672.7769791666706
 31
0.0
  0
ENDBLK
  8
0
  0
BLOCK
  8
0
  2
C4
 70
              64
 10
0.0
 20
0.0
  0
LINE
  8
____1
  6
CONTINUOUS
 62
               7
 10
27147.414371631068
 20
9592.7769791666706
 30
0.0
 11
27147.414371631068
 21
9632.7769791666706
 31
0.0
  0
LINE
  8
____1
  6
CONTINUOUS
 62
               7
 10
26675.414371631068
 20
9592.7769791666706
 30
0.0
 11
26675.414371631068
 21
9632.7769791666706
 31
0.0
  0
LINE
  8
____1
  6
CONTINUOUS
 62
               7
 10
26747.414371631068
 20
9592.7769791666706
 30
0.0
 11
26747.414371631068
 21
9632.7769791666706
 31
0.0
  0
LINE
  8
____1
  6
CONTINUOUS
 62
               7
 10
27587.414371631075
 20
9592.7769791666706
 30
0.0
 11
27587.414371631075
 21
9632.7769791666706
 31
0.0
  0
LINE
  8
____1
  6
CONTINUOUS
 62
               7
 10
27515.414371631068
 20
9592.7769791666706
 30
0.0
 11
27515.414371631068
 21
9632.7769791666706
 31
0.0
  0
LINE
  8
____1
  6
CONTINUOUS
 62
               7
 10
27835.414371631068
 20
9632.7769791666706
 30
0.0
 11
26675.414371631068
 21
9632.7769791666706
 31
0.0
  0
ENDBLK
  8
0
  0
BLOCK
  8
0
  2
*D13
 70
              65
 10
0.0
 20
0.0
  0
SOLID
  8
____1
  6
CONTINUOUS
 62
               7
 10
26027.66828460553
 20
10985.230316349163
 30
0.0
 11
26027.66828460553
 21
10985.230316349163
 31
0.0
 12
26034.592762622855
 22
10996.020413354245
 32
0.0
 13
26043.256936863385
 23
10996.020413354245
 33
0.0
  0
SOLID
  8
____1
  6
CONTINUOUS
 62
               7
 10
26034.592762622855
 20
10996.020413354245
 30
0.0
 11
26038.088160162413
 21
10996.020413354245
 31
0.0
 12
26035.117751110571
 22
10996.838478874102
 32
0.0
 13
26038.164628637613
 23
10996.838478874102
 33
0.0
  0
SOLID
  8
____1
  6
CONTINUOUS
 62
               7
 10
26038.088160162413
 20
10996.020413354245
 30
0.0
 11
26043.256936863385
 21
10996.020413354245
 31
0.0
 12
26044.438811216063
 22
10996.838478874102
 32
0.0
 13
26044.438811216063
 23
10996.838478874102
 33
0.0
  0
SOLID
  8
____1
  6
CONTINUOUS
 62
               7
 10
26035.117751110571
 20
10996.838478874102
 30
0.0
 11
26038.164628637613
 21
10996.838478874102
 31
0.0
 12
26038.684092813357
 22
11002.395745837774
 32
0.0
 13
26038.684092813357
 23
11002.395745837774
 33
0.0
  0
LINE
  8
____1
  6
CONTINUOUS
 62
               7
 10
26027.66828460553
 20
10985.230316349163
 30
0.0
 11
26205.537712371155
 21
11169.419500697077
 31
0.0
  0
TEXT
  8
______
  6
DASHED2
 62
               7
 10
26110.295212521287
 20
11084.843342930593
 30
0.0
 40
28.222221374511719
  1
8－φ15穴
 50
46.000000000004015
  7
STYLE1
  0
ENDBLK
  8
0
  0
BLOCK
  8
0
  2
*D14
 70
              65
 10
0.0
 20
0.0
  0
LINE
  8
____1
  6
CONTINUOUS
 62
               7
 10
25972.458346827087
 20
10355.835267846624
 30
0.0
 11
25972.458346827087
 21
10079.100945455486
 31
0.0
  0
LINE
  8
____1
  6
CONTINUOUS
 62
               7
 10
25272.458346827079
 20
10355.83526784662
 30
0.0
 11
25272.458346827079
 21
10079.100945455486
 31
0.0
  0
SOLID
  8
____1
  6
CONTINUOUS
 62
               7
 10
25292.458346827079
 20
10083.100945455486
 30
0.0
 11
25292.458346827079
 21
10083.100945455486
 31
0.0
 12
25272.458346827079
 22
10087.100945455486
 32
0.0
 13
25287.458346827079
 23
10087.100945455486
 33
0.0
  0
SOLID
  8
____1
  6
CONTINUOUS
 62
               7
 10
25272.458346827079
 20
10087.100945455486
 30
0.0
 11
25287.458346827079
 21
10087.100945455486
 31
0.0
 12
25292.458346827079
 22
10091.100945455486
 32
0.0
 13
25292.458346827079
 23
10091.100945455486
 33
0.0
  0
LINE
  8
____1
  6
CONTINUOUS
 62
               7
 10
25272.458346827079
 20
10087.100945455486
 30
0.0
 11
25622.458346827083
 21
10087.100945455486
 31
0.0
  0
SOLID
  8
____1
  6
CONTINUOUS
 62
               7
 10
25952.458346827087
 20
10083.100945455486
 30
0.0
 11
25952.458346827087
 21
10083.100945455486
 31
0.0
 12
25957.458346827087
 22
10087.100945455486
 32
0.0
 13
25972.458346827087
 23
10087.100945455486
 33
0.0
  0
SOLID
  8
____1
  6
CONTINUOUS
 62
               7
 10
25957.458346827087
 20
10087.100945455486
 30
0.0
 11
25972.458346827087
 21
10087.100945455486
 31
0.0
 12
25952.458346827087
 22
10091.100945455486
 32
0.0
 13
25952.458346827087
 23
10091.100945455486
 33
0.0
  0
LINE
  8
____1
  6
CONTINUOUS
 62
               7
 10
25972.458346827087
 20
10087.100945455486
 30
0.0
 11
25622.458346827083
 21
10087.100945455486
 31
0.0
  0
TEXT
  8
______
  6
DASHED2
 62
               7
 10
25601.291680796199
 20
10095.216686072603
 30
0.0
 40
28.222221374511719
  1
700
  7
STYLE1
  0
ENDBLK
  8
0
  0
BLOCK
  8
0
  2
*D15
 70
              65
 10
0.0
 20
0.0
  0
LINE
  8
____1
  6
CONTINUOUS
 62
               7
 10
26122.458346827087
 20
10205.835267846624
 30
0.0
 11
26122.458346827087
 21
10010.023502614091
 31
0.0
  0
LINE
  8
____1
  6
CONTINUOUS
 62
               7
 10
25122.458346827083
 20
10205.835267846624
 30
0.0
 11
25122.458346827083
 21
10010.023502614091
 31
0.0
  0
SOLID
  8
____1
  6
CONTINUOUS
 62
               7
 10
25142.458346827083
 20
10014.023502614091
 30
0.0
 11
25142.458346827083
 21
10014.023502614091
 31
0.0
 12
25122.458346827083
 22
10018.023502614091
 32
0.0
 13
25137.458346827083
 23
10018.023502614091
 33
0.0
  0
SOLID
  8
____1
  6
CONTINUOUS
 62
               7
 10
25122.458346827083
 20
10018.023502614091
 30
0.0
 11
25137.458346827083
 21
10018.023502614091
 31
0.0
 12
25142.458346827083
 22
10022.023502614091
 32
0.0
 13
25142.458346827083
 23
10022.023502614091
 33
0.0
  0
LINE
  8
____1
  6
CONTINUOUS
 62
               7
 10
25122.458346827083
 20
10018.023502614091
 30
0.0
 11
25622.458346827083
 21
10018.023502614091
 31
0.0
  0
SOLID
  8
____1
  6
CONTINUOUS
 62
               7
 10
26102.458346827087
 20
10014.023502614091
 30
0.0
 11
26102.458346827087
 21
10014.023502614091
 31
0.0
 12
26107.458346827087
 22
10018.023502614091
 32
0.0
 13
26122.458346827087
 23
10018.023502614091
 33
0.0
  0
SOLID
  8
____1
  6
CONTINUOUS
 62
               7
 10
26107.458346827087
 20
10018.023502614091
 30
0.0
 11
26122.458346827087
 21
10018.023502614091
 31
0.0
 12
26102.458346827087
 22
10022.023502614091
 32
0.0
 13
26102.458346827087
 23
10022.023502614091
 33
0.0
  0
LINE
  8
____1
  6
CONTINUOUS
 62
               7
 10
26122.458346827087
 20
10018.023502614091
 30
0.0
 11
25622.458346827083
 21
10018.023502614091
 31
0.0
  0
TEXT
  8
______
  6
DASHED2
 62
               7
 10
25594.236125452571
 20
10026.139243231208
 30
0.0
 40
28.222221374511719
  1
1000
  7
STYLE1
  0
ENDBLK
  8
0
  0
BLOCK
  8
0
  2
*D16
 70
              65
 10
0.0
 20
0.0
  0
LINE
  8
____1
  6
CONTINUOUS
 62
               7
 10
25942.458346827087
 20
10382.33526784662
 30
0.0
 11
25942.458346827087
 21
10143.394695455483
 31
0.0
  0
LINE
  8
____1
  6
CONTINUOUS
 62
               7
 10
25302.458346827079
 20
10382.33526784662
 30
0.0
 11
25302.458346827079
 21
10143.394695455483
 31
0.0
  0
SOLID
  8
____1
  6
CONTINUOUS
 62
               7
 10
25322.458346827079
 20
10147.394695455483
 30
0.0
 11
25322.458346827079
 21
10147.394695455483
 31
0.0
 12
25302.458346827079
 22
10151.394695455483
 32
0.0
 13
25317.458346827079
 23
10151.394695455483
 33
0.0
  0
SOLID
  8
____1
  6
CONTINUOUS
 62
               7
 10
25302.458346827079
 20
10151.394695455483
 30
0.0
 11
25317.458346827079
 21
10151.394695455483
 31
0.0
 12
25322.458346827079
 22
10155.394695455483
 32
0.0
 13
25322.458346827079
 23
10155.394695455483
 33
0.0
  0
LINE
  8
____1
  6
CONTINUOUS
 62
               7
 10
25302.458346827079
 20
10151.394695455483
 30
0.0
 11
25622.458346827083
 21
10151.394695455483
 31
0.0
  0
SOLID
  8
____1
  6
CONTINUOUS
 62
               7
 10
25922.458346827087
 20
10147.394695455483
 30
0.0
 11
25922.458346827087
 21
10147.394695455483
 31
0.0
 12
25927.458346827087
 22
10151.394695455483
 32
0.0
 13
25942.458346827087
 23
10151.394695455483
 33
0.0
  0
SOLID
  8
____1
  6
CONTINUOUS
 62
               7
 10
25927.458346827087
 20
10151.394695455483
 30
0.0
 11
25942.458346827087
 21
10151.394695455483
 31
0.0
 12
25922.458346827087
 22
10155.394695455483
 32
0.0
 13
25922.458346827087
 23
10155.394695455483
 33
0.0
  0
LINE
  8
____1
  6
CONTINUOUS
 62
               7
 10
25942.458346827087
 20
10151.394695455483
 30
0.0
 11
25622.458346827083
 21
10151.394695455483
 31
0.0
  0
TEXT
  8
______
  6
DASHED2
 62
               7
 10
25601.291680796199
 20
10159.5104360726
 30
0.0
 40
28.222221374511719
  1
640
  7
STYLE1
  0
ENDBLK
  8
0
  0
BLOCK
  8
0
  2
*D17
 70
              65
 10
0.0
 20
0.0
  0
LINE
  8
____1
  6
CONTINUOUS
 62
               7
 10
26022.458346827087
 20
10996.335267846622
 30
0.0
 11
26022.458346827087
 21
11263.897822139517
 31
0.0
  0
LINE
  8
____1
  6
CONTINUOUS
 62
               7
 10
25222.458346827079
 20
10996.335267846618
 30
0.0
 11
25222.458346827079
 21
11263.897822139517
 31
0.0
  0
SOLID
  8
____1
  6
CONTINUOUS
 62
               7
 10
25242.458346827079
 20
11251.897822139517
 30
0.0
 11
25242.458346827079
 21
11251.897822139517
 31
0.0
 12
25222.458346827079
 22
11255.897822139517
 32
0.0
 13
25237.458346827079
 23
11255.897822139517
 33
0.0
  0
SOLID
  8
____1
  6
CONTINUOUS
 62
               7
 10
25222.458346827079
 20
11255.897822139517
 30
0.0
 11
25237.458346827079
 21
11255.897822139517
 31
0.0
 12
25242.458346827079
 22
11259.897822139517
 32
0.0
 13
25242.458346827079
 23
11259.897822139517
 33
0.0
  0
LINE
  8
____1
  6
CONTINUOUS
 62
               7
 10
25222.458346827079
 20
11255.897822139517
 30
0.0
 11
25623.208346827083
 21
11255.897822139517
 31
0.0
  0
SOLID
  8
____1
  6
CONTINUOUS
 62
               7
 10
26002.458346827087
 20
11251.897822139517
 30
0.0
 11
26002.458346827087
 21
11251.897822139517
 31
0.0
 12
26007.458346827087
 22
11255.897822139517
 32
0.0
 13
26022.458346827087
 23
11255.897822139517
 33
0.0
  0
SOLID
  8
____1
  6
CONTINUOUS
 62
               7
 10
26007.458346827087
 20
11255.897822139517
 30
0.0
 11
26022.458346827087
 21
11255.897822139517
 31
0.0
 12
26002.458346827087
 22
11259.897822139517
 32
0.0
 13
26002.458346827087
 23
11259.897822139517
 33
0.0
  0
LINE
  8
____1
  6
CONTINUOUS
 62
               7
 10
26022.458346827087
 20
11255.897822139517
 30
0.0
 11
25623.208346827083
 21
11255.897822139517
 31
0.0
  0
TEXT
  8
______
  6
DASHED2
 62
               7
 10
25602.041680796199
 20
11264.013562756634
 30
0.0
 40
28.222221374511719
  1
800
  7
STYLE1
  0
ENDBLK
  8
0
  0
BLOCK
  8
0
  2
*D18
 70
              65
 10
0.0
 20
0.0
  0
LINE
  8
____1
  6
CONTINUOUS
 62
               7
 10
25352.458346827079
 20
11126.335267846618
 30
0.0
 11
25352.458346827079
 21
11325.124059118685
 31
0.0
  0
LINE
  8
____1
  6
CONTINUOUS
 62
               7
 10
25122.458346827083
 20
11213.835267846616
 30
0.0
 11
25122.458346827083
 21
11325.124059118685
 31
0.0
  0
SOLID
  8
____1
  6
CONTINUOUS
 62
               7
 10
25142.458346827083
 20
11313.124059118685
 30
0.0
 11
25142.458346827083
 21
11313.124059118685
 31
0.0
 12
25122.458346827083
 22
11317.124059118685
 32
0.0
 13
25137.458346827083
 23
11317.124059118685
 33
0.0
  0
SOLID
  8
____1
  6
CONTINUOUS
 62
               7
 10
25122.458346827083
 20
11317.124059118685
 30
0.0
 11
25137.458346827083
 21
11317.124059118685
 31
0.0
 12
25142.458346827083
 22
11321.124059118685
 32
0.0
 13
25142.458346827083
 23
11321.124059118685
 33
0.0
  0
LINE
  8
____1
  6
CONTINUOUS
 62
               7
 10
25122.458346827083
 20
11317.124059118685
 30
0.0
 11
25237.458346827083
 21
11317.124059118685
 31
0.0
  0
SOLID
  8
____1
  6
CONTINUOUS
 62
               7
 10
25332.458346827079
 20
11313.124059118685
 30
0.0
 11
25332.458346827079
 21
11313.124059118685
 31
0.0
 12
25337.458346827079
 22
11317.124059118685
 32
0.0
 13
25352.458346827079
 23
11317.124059118685
 33
0.0
  0
SOLID
  8
____1
  6
CONTINUOUS
 62
               7
 10
25337.458346827079
 20
11317.124059118685
 30
0.0
 11
25352.458346827079
 21
11317.124059118685
 31
0.0
 12
25332.458346827079
 22
11321.124059118685
 32
0.0
 13
25332.458346827079
 23
11321.124059118685
 33
0.0
  0
LINE
  8
____1
  6
CONTINUOUS
 62
               7
 10
25352.458346827079
 20
11317.124059118685
 30
0.0
 11
25237.458346827083
 21
11317.124059118685
 31
0.0
  0
TEXT
  8
______
  6
DASHED2
 62
               7
 10
25216.291680796199
 20
11325.239799735802
 30
0.0
 40
28.222221374511719
  1
230
  7
STYLE1
  0
ENDBLK
  8
0
  0
BLOCK
  8
0
  2
*D19
 70
              65
 10
0.0
 20
0.0
  0
LINE
  8
____1
  6
CONTINUOUS
 62
               7
 10
25946.458346827087
 20
10386.33526784662
 30
0.0
 11
26210.765784248168
 21
10386.33526784662
 31
0.0
  0
LINE
  8
____1
  6
CONTINUOUS
 62
               7
 10
25946.458346827087
 20
11026.335267846618
 30
0.0
 11
26210.765784248168
 21
11026.335267846618
 31
0.0
  0
SOLID
  8
____1
  6
CONTINUOUS
 62
               7
 10
26198.765784248168
 20
11006.335267846618
 30
0.0
 11
26198.765784248168
 21
11006.335267846618
 31
0.0
 12
26199.765784248168
 22
11011.335267846618
 32
0.0
 13
26202.765784248168
 23
11011.335267846618
 33
0.0
  0
SOLID
  8
____1
  6
CONTINUOUS
 62
               7
 10
26206.765784248168
 20
11006.335267846618
 30
0.0
 11
26206.765784248168
 21
11006.335267846618
 31
0.0
 12
26202.765784248168
 22
11011.335267846618
 32
0.0
 13
26205.765784248168
 23
11011.335267846618
 33
0.0
  0
SOLID
  8
____1
  6
CONTINUOUS
 62
               7
 10
26199.765784248168
 20
11011.335267846618
 30
0.0
 11
26205.765784248168
 21
11011.335267846618
 31
0.0
 12
26202.765784248168
 22
11026.335267846618
 32
0.0
 13
26202.765784248168
 23
11026.335267846618
 33
0.0
  0
LINE
  8
____1
  6
CONTINUOUS
 62
               7
 10
26202.765784248168
 20
11026.335267846618
 30
0.0
 11
26202.765784248168
 21
10709.835267846622
 31
0.0
  0
SOLID
  8
____1
  6
CONTINUOUS
 62
               7
 10
26202.765784248168
 20
10386.33526784662
 30
0.0
 11
26202.765784248168
 21
10386.33526784662
 31
0.0
 12
26199.765784248168
 22
10401.33526784662
 32
0.0
 13
26205.765784248168
 23
10401.33526784662
 33
0.0
  0
SOLID
  8
____1
  6
CONTINUOUS
 62
               7
 10
26199.765784248168
 20
10401.33526784662
 30
0.0
 11
26202.765784248168
 21
10401.33526784662
 31
0.0
 12
26198.765784248168
 22
10406.33526784662
 32
0.0
 13
26198.765784248168
 23
10406.33526784662
 33
0.0
  0
SOLID
  8
____1
  6
CONTINUOUS
 62
               7
 10
26202.765784248168
 20
10401.33526784662
 30
0.0
 11
26205.765784248168
 21
10401.33526784662
 31
0.0
 12
26206.765784248168
 22
10406.33526784662
 32
0.0
 13
26206.765784248168
 23
10406.33526784662
 33
0.0
  0
LINE
  8
____1
  6
CONTINUOUS
 62
               7
 10
26202.765784248168
 20
10386.33526784662
 30
0.0
 11
26202.765784248168
 21
10709.835267846622
 31
0.0
  0
TEXT
  8
______
  6
DASHED2
 62
               7
 10
26194.650043631053
 20
10688.668601815738
 30
0.0
 40
28.222221374511719
  1
640
 50
90.0
  7
STYLE1
  0
ENDBLK
  8
0
  0
BLOCK
  8
0
  2
*D20
 70
              65
 10
0.0
 20
0.0
  0
LINE
  8
____1
  6
CONTINUOUS
 62
               7
 10
25892.458346827079
 20
11126.335267846618
 30
0.0
 11
25892.458346827079
 21
11325.124059118685
 31
0.0
  0
LINE
  8
____1
  6
CONTINUOUS
 62
               7
 10
25352.458346827079
 20
11126.335267846618
 30
0.0
 11
25352.458346827079
 21
11325.124059118685
 31
0.0
  0
SOLID
  8
____1
  6
CONTINUOUS
 62
               7
 10
25372.458346827079
 20
11313.124059118685
 30
0.0
 11
25372.458346827079
 21
11313.124059118685
 31
0.0
 12
25352.458346827079
 22
11317.124059118685
 32
0.0
 13
25367.458346827079
 23
11317.124059118685
 33
0.0
  0
SOLID
  8
____1
  6
CONTINUOUS
 62
               7
 10
25352.458346827079
 20
11317.124059118685
 30
0.0
 11
25367.458346827079
 21
11317.124059118685
 31
0.0
 12
25372.458346827079
 22
11321.124059118685
 32
0.0
 13
25372.458346827079
 23
11321.124059118685
 33
0.0
  0
LINE
  8
____1
  6
CONTINUOUS
 62
               7
 10
25352.458346827079
 20
11317.124059118685
 30
0.0
 11
25623.208346827083
 21
11317.124059118685
 31
0.0
  0
SOLID
  8
____1
  6
CONTINUOUS
 62
               7
 10
25872.458346827079
 20
11313.124059118685
 30
0.0
 11
25872.458346827079
 21
11313.124059118685
 31
0.0
 12
25877.458346827079
 22
11317.124059118685
 32
0.0
 13
25892.458346827079
 23
11317.124059118685
 33
0.0
  0
SOLID
  8
____1
  6
CONTINUOUS
 62
               7
 10
25877.458346827079
 20
11317.124059118685
 30
0.0
 11
25892.458346827079
 21
11317.124059118685
 31
0.0
 12
25872.458346827079
 22
11321.124059118685
 32
0.0
 13
25872.458346827079
 23
11321.124059118685
 33
0.0
  0
LINE
  8
____1
  6
CONTINUOUS
 62
               7
 10
25892.458346827079
 20
11317.124059118685
 30
0.0
 11
25623.208346827083
 21
11317.124059118685
 31
0.0
  0
TEXT
  8
______
  6
DASHED2
 62
               7
 10
25602.041680796199
 20
11325.239799735802
 30
0.0
 40
28.222221374511719
  1
540
  7
STYLE1
  0
ENDBLK
  8
0
  0
BLOCK
  8
0
  2
*D21
 70
              65
 10
0.0
 20
0.0
  0
LINE
  8
____1
  6
CONTINUOUS
 62
               7
 10
26022.458346827087
 20
11255.897822139517
 30
0.0
 11
26122.458346827087
 21
11255.897822139517
 31
0.0
  0
LINE
  8
____1
  6
CONTINUOUS
 62
               7
 10
26122.458346827087
 20
11213.835267846616
 30
0.0
 11
26122.458346827087
 21
11263.897822139517
 31
0.0
  0
LINE
  8
____1
  6
CONTINUOUS
 62
               7
 10
26022.458346827087
 20
10996.335267846622
 30
0.0
 11
26022.458346827087
 21
11263.897822139517
 31
0.0
  0
SOLID
  8
____1
  6
CONTINUOUS
 62
               7
 10
26002.458346827087
 20
11251.897822139517
 30
0.0
 11
26002.458346827087
 21
11251.897822139517
 31
0.0
 12
26007.458346827087
 22
11255.897822139517
 32
0.0
 13
26022.458346827087
 23
11255.897822139517
 33
0.0
  0
SOLID
  8
____1
  6
CONTINUOUS
 62
               7
 10
26007.458346827087
 20
11255.897822139517
 30
0.0
 11
26022.458346827087
 21
11255.897822139517
 31
0.0
 12
26002.458346827087
 22
11259.897822139517
 32
0.0
 13
26002.458346827087
 23
11259.897822139517
 33
0.0
  0
LINE
  8
____1
  6
CONTINUOUS
 62
               7
 10
26022.458346827087
 20
11255.897822139517
 30
0.0
 11
25982.458346827087
 21
11255.897822139517
 31
0.0
  0
SOLID
  8
____1
  6
CONTINUOUS
 62
               7
 10
26142.458346827087
 20
11251.897822139517
 30
0.0
 11
26142.458346827087
 21
11251.897822139517
 31
0.0
 12
26122.458346827087
 22
11255.897822139517
 32
0.0
 13
26137.458346827087
 23
11255.897822139517
 33
0.0
  0
SOLID
  8
____1
  6
CONTINUOUS
 62
               7
 10
26122.458346827087
 20
11255.897822139517
 30
0.0
 11
26137.458346827087
 21
11255.897822139517
 31
0.0
 12
26142.458346827087
 22
11259.897822139517
 32
0.0
 13
26142.458346827087
 23
11259.897822139517
 33
0.0
  0
LINE
  8
____1
  6
CONTINUOUS
 62
               7
 10
26122.458346827087
 20
11255.897822139517
 30
0.0
 11
26162.458346827087
 21
11255.897822139517
 31
0.0
  0
TEXT
  8
______
  6
DASHED2
 62
               7
 10
26051.291680796203
 20
11264.013562756634
 30
0.0
 40
28.222221374511719
  1
100
  7
STYLE1
  0
ENDBLK
  8
0
  0
BLOCK
  8
0
  2
*D22
 70
              65
 10
0.0
 20
0.0
  0
LINE
  8
____1
  6
CONTINUOUS
 62
               7
 10
26122.458346827087
 20
11213.835267846616
 30
0.0
 11
26122.458346827087
 21
11325.124059118685
 31
0.0
  0
LINE
  8
____1
  6
CONTINUOUS
 62
               7
 10
25892.458346827079
 20
11126.335267846618
 30
0.0
 11
25892.458346827079
 21
11325.124059118685
 31
0.0
  0
SOLID
  8
____1
  6
CONTINUOUS
 62
               7
 10
25912.458346827079
 20
11313.124059118685
 30
0.0
 11
25912.458346827079
 21
11313.124059118685
 31
0.0
 12
25892.458346827079
 22
11317.124059118685
 32
0.0
 13
25907.458346827079
 23
11317.124059118685
 33
0.0
  0
SOLID
  8
____1
  6
CONTINUOUS
 62
               7
 10
25892.458346827079
 20
11317.124059118685
 30
0.0
 11
25907.458346827079
 21
11317.124059118685
 31
0.0
 12
25912.458346827079
 22
11321.124059118685
 32
0.0
 13
25912.458346827079
 23
11321.124059118685
 33
0.0
  0
LINE
  8
____1
  6
CONTINUOUS
 62
               7
 10
25892.458346827079
 20
11317.124059118685
 30
0.0
 11
26007.458346827083
 21
11317.124059118685
 31
0.0
  0
SOLID
  8
____1
  6
CONTINUOUS
 62
               7
 10
26102.458346827087
 20
11313.124059118685
 30
0.0
 11
26102.458346827087
 21
11313.124059118685
 31
0.0
 12
26107.458346827087
 22
11317.124059118685
 32
0.0
 13
26122.458346827087
 23
11317.124059118685
 33
0.0
  0
SOLID
  8
____1
  6
CONTINUOUS
 62
               7
 10
26107.458346827087
 20
11317.124059118685
 30
0.0
 11
26122.458346827087
 21
11317.124059118685
 31
0.0
 12
26102.458346827087
 22
11321.124059118685
 32
0.0
 13
26102.458346827087
 23
11321.124059118685
 33
0.0
  0
LINE
  8
____1
  6
CONTINUOUS
 62
               7
 10
26122.458346827087
 20
11317.124059118685
 30
0.0
 11
26007.458346827083
 21
11317.124059118685
 31
0.0
  0
TEXT
  8
______
  6
DASHED2
 62
               7
 10
25986.291680796199
 20
11325.239799735802
 30
0.0
 40
28.222221374511719
  1
230
  7
STYLE1
  0
ENDBLK
  8
0
  0
BLOCK
  8
0
  2
*D23
 70
              65
 10
0.0
 20
0.0
  0
LINE
  8
____1
  6
CONTINUOUS
 62
               7
 10
25118.458346827083
 20
10209.835267846624
 30
0.0
 11
24965.677244589773
 21
10209.835267846624
 31
0.0
  0
LINE
  8
____1
  6
CONTINUOUS
 62
               7
 10
25205.958346827083
 20
10439.83526784662
 30
0.0
 11
24965.677244589773
 21
10439.83526784662
 31
0.0
  0
SOLID
  8
____1
  6
CONTINUOUS
 62
               7
 10
24969.677244589773
 20
10419.83526784662
 30
0.0
 11
24969.677244589773
 21
10419.83526784662
 31
0.0
 12
24970.677244589773
 22
10424.83526784662
 32
0.0
 13
24973.677244589773
 23
10424.83526784662
 33
0.0
  0
SOLID
  8
____1
  6
CONTINUOUS
 62
               7
 10
24977.677244589773
 20
10419.83526784662
 30
0.0
 11
24977.677244589773
 21
10419.83526784662
 31
0.0
 12
24973.677244589773
 22
10424.83526784662
 32
0.0
 13
24976.677244589773
 23
10424.83526784662
 33
0.0
  0
SOLID
  8
____1
  6
CONTINUOUS
 62
               7
 10
24970.677244589773
 20
10424.83526784662
 30
0.0
 11
24976.677244589773
 21
10424.83526784662
 31
0.0
 12
24973.677244589773
 22
10439.83526784662
 32
0.0
 13
24973.677244589773
 23
10439.83526784662
 33
0.0
  0
LINE
  8
____1
  6
CONTINUOUS
 62
               7
 10
24973.677244589773
 20
10439.83526784662
 30
0.0
 11
24973.677244589773
 21
10336.037343000398
 31
0.0
  0
SOLID
  8
____1
  6
CONTINUOUS
 62
               7
 10
24973.677244589773
 20
10209.835267846624
 30
0.0
 11
24973.677244589773
 21
10209.835267846624
 31
0.0
 12
24970.677244589773
 22
10224.835267846624
 32
0.0
 13
24976.677244589773
 23
10224.835267846624
 33
0.0
  0
SOLID
  8
____1
  6
CONTINUOUS
 62
               7
 10
24970.677244589773
 20
10224.835267846624
 30
0.0
 11
24973.677244589773
 21
10224.835267846624
 31
0.0
 12
24969.677244589773
 22
10229.835267846624
 32
0.0
 13
24969.677244589773
 23
10229.835267846624
 33
0.0
  0
SOLID
  8
____1
  6
CONTINUOUS
 62
               7
 10
24973.677244589773
 20
10224.835267846624
 30
0.0
 11
24976.677244589773
 21
10224.835267846624
 31
0.0
 12
24977.677244589773
 22
10229.835267846624
 32
0.0
 13
24977.677244589773
 23
10229.835267846624
 33
0.0
  0
LINE
  8
____1
  6
CONTINUOUS
 62
               7
 10
24973.677244589773
 20
10209.835267846624
 30
0.0
 11
24973.677244589773
 21
10336.037343000398
 31
0.0
  0
TEXT
  8
______
  6
DASHED2
 62
               7
 10
24965.561503972658
 20
10314.870676969515
 30
0.0
 40
28.222221374511719
  1
230
 50
90.0
  7
STYLE1
  0
ENDBLK
  8
0
  0
BLOCK
  8
0
  2
*D24
 70
              65
 10
0.0
 20
0.0
  0
LINE
  8
____1
  6
CONTINUOUS
 62
               7
 10
25205.958346827083
 20
10439.83526784662
 30
0.0
 11
24965.677244589773
 21
10439.83526784662
 31
0.0
  0
LINE
  8
____1
  6
CONTINUOUS
 62
               7
 10
25205.958346827083
 20
10979.835267846622
 30
0.0
 11
24965.677244589773
 21
10979.835267846622
 31
0.0
  0
SOLID
  8
____1
  6
CONTINUOUS
 62
               7
 10
24969.677244589773
 20
10959.835267846622
 30
0.0
 11
24969.677244589773
 21
10959.835267846622
 31
0.0
 12
24970.677244589773
 22
10964.835267846622
 32
0.0
 13
24973.677244589773
 23
10964.835267846622
 33
0.0
  0
SOLID
  8
____1
  6
CONTINUOUS
 62
               7
 10
24977.677244589773
 20
10959.835267846622
 30
0.0
 11
24977.677244589773
 21
10959.835267846622
 31
0.0
 12
24973.677244589773
 22
10964.835267846622
 32
0.0
 13
24976.677244589773
 23
10964.835267846622
 33
0.0
  0
SOLID
  8
____1
  6
CONTINUOUS
 62
               7
 10
24970.677244589773
 20
10964.835267846622
 30
0.0
 11
24976.677244589773
 21
10964.835267846622
 31
0.0
 12
24973.677244589773
 22
10979.835267846622
 32
0.0
 13
24973.677244589773
 23
10979.835267846622
 33
0.0
  0
LINE
  8
____1
  6
CONTINUOUS
 62
               7
 10
24973.677244589773
 20
10979.835267846622
 30
0.0
 11
24973.677244589773
 21
10709.835267846622
 31
0.0
  0
SOLID
  8
____1
  6
CONTINUOUS
 62
               7
 10
24973.677244589773
 20
10439.83526784662
 30
0.0
 11
24973.677244589773
 21
10439.83526784662
 31
0.0
 12
24970.677244589773
 22
10454.83526784662
 32
0.0
 13
24976.677244589773
 23
10454.83526784662
 33
0.0
  0
SOLID
  8
____1
  6
CONTINUOUS
 62
               7
 10
24970.677244589773
 20
10454.83526784662
 30
0.0
 11
24973.677244589773
 21
10454.83526784662
 31
0.0
 12
24969.677244589773
 22
10459.83526784662
 32
0.0
 13
24969.677244589773
 23
10459.83526784662
 33
0.0
  0
SOLID
  8
____1
  6
CONTINUOUS
 62
               7
 10
24973.677244589773
 20
10454.83526784662
 30
0.0
 11
24976.677244589773
 21
10454.83526784662
 31
0.0
 12
24977.677244589773
 22
10459.83526784662
 32
0.0
 13
24977.677244589773
 23
10459.83526784662
 33
0.0
  0
LINE
  8
____1
  6
CONTINUOUS
 62
               7
 10
24973.677244589773
 20
10439.83526784662
 30
0.0
 11
24973.677244589773
 21
10709.835267846622
 31
0.0
  0
TEXT
  8
______
  6
DASHED2
 62
               7
 10
24965.561503972658
 20
10688.668601815738
 30
0.0
 40
28.222221374511719
  1
540
 50
90.0
  7
STYLE1
  0
ENDBLK
  8
0
  0
BLOCK
  8
0
  2
*D25
 70
              65
 10
0.0
 20
0.0
  0
LINE
  8
____1
  6
CONTINUOUS
 62
               7
 10
25205.958346827083
 20
10979.835267846622
 30
0.0
 11
24965.677244589773
 21
10979.835267846622
 31
0.0
  0
LINE
  8
____1
  6
CONTINUOUS
 62
               7
 10
25118.458346827083
 20
11209.835267846616
 30
0.0
 11
24965.677244589773
 21
11209.835267846616
 31
0.0
  0
SOLID
  8
____1
  6
CONTINUOUS
 62
               7
 10
24969.677244589773
 20
11189.835267846616
 30
0.0
 11
24969.677244589773
 21
11189.835267846616
 31
0.0
 12
24970.677244589773
 22
11194.835267846616
 32
0.0
 13
24973.677244589773
 23
11194.835267846616
 33
0.0
  0
SOLID
  8
____1
  6
CONTINUOUS
 62
               7
 10
24977.677244589773
 20
11189.835267846616
 30
0.0
 11
24977.677244589773
 21
11189.835267846616
 31
0.0
 12
24973.677244589773
 22
11194.835267846616
 32
0.0
 13
24976.677244589773
 23
11194.835267846616
 33
0.0
  0
SOLID
  8
____1
  6
CONTINUOUS
 62
               7
 10
24970.677244589773
 20
11194.835267846616
 30
0.0
 11
24976.677244589773
 21
11194.835267846616
 31
0.0
 12
24973.677244589773
 22
11209.835267846616
 32
0.0
 13
24973.677244589773
 23
11209.835267846616
 33
0.0
  0
LINE
  8
____1
  6
CONTINUOUS
 62
               7
 10
24973.677244589773
 20
11209.835267846616
 30
0.0
 11
24973.677244589773
 21
11094.835267846618
 31
0.0
  0
SOLID
  8
____1
  6
CONTINUOUS
 62
               7
 10
24973.677244589773
 20
10979.835267846622
 30
0.0
 11
24973.677244589773
 21
10979.835267846622
 31
0.0
 12
24970.677244589773
 22
10994.835267846622
 32
0.0
 13
24976.677244589773
 23
10994.835267846622
 33
0.0
  0
SOLID
  8
____1
  6
CONTINUOUS
 62
               7
 10
24970.677244589773
 20
10994.835267846622
 30
0.0
 11
24973.677244589773
 21
10994.835267846622
 31
0.0
 12
24969.677244589773
 22
10999.835267846622
 32
0.0
 13
24969.677244589773
 23
10999.835267846622
 33
0.0
  0
SOLID
  8
____1
  6
CONTINUOUS
 62
               7
 10
24973.677244589773
 20
10994.835267846622
 30
0.0
 11
24976.677244589773
 21
10994.835267846622
 31
0.0
 12
24977.677244589773
 22
10999.835267846622
 32
0.0
 13
24977.677244589773
 23
10999.835267846622
 33
0.0
  0
LINE
  8
____1
  6
CONTINUOUS
 62
               7
 10
24973.677244589773
 20
10979.835267846622
 30
0.0
 11
24973.677244589773
 21
11094.835267846618
 31
0.0
  0
TEXT
  8
______
  6
DASHED2
 62
               7
 10
24965.561503972658
 20
11073.668601815734
 30
0.0
 40
28.222221374511719
  1
230
 50
90.0
  7
STYLE1
  0
ENDBLK
  8
0
  0
BLOCK
  8
0
  2
*D26
 70
              65
 10
0.0
 20
0.0
  0
LINE
  8
____1
  6
CONTINUOUS
 62
               7
 10
25335.958346827083
 20
10309.835267846624
 30
0.0
 11
25048.175695558537
 21
10309.835267846624
 31
0.0
  0
LINE
  8
____1
  6
CONTINUOUS
 62
               7
 10
25335.958346827083
 20
11109.835267846618
 30
0.0
 11
25048.175695558537
 21
11109.835267846618
 31
0.0
  0
SOLID
  8
____1
  6
CONTINUOUS
 62
               7
 10
25052.175695558537
 20
11089.835267846618
 30
0.0
 11
25052.175695558537
 21
11089.835267846618
 31
0.0
 12
25053.175695558537
 22
11094.835267846618
 32
0.0
 13
25056.175695558537
 23
11094.835267846618
 33
0.0
  0
SOLID
  8
____1
  6
CONTINUOUS
 62
               7
 10
25060.175695558537
 20
11089.835267846618
 30
0.0
 11
25060.175695558537
 21
11089.835267846618
 31
0.0
 12
25056.175695558537
 22
11094.835267846618
 32
0.0
 13
25059.175695558537
 23
11094.835267846618
 33
0.0
  0
SOLID
  8
____1
  6
CONTINUOUS
 62
               7
 10
25053.175695558537
 20
11094.835267846618
 30
0.0
 11
25059.175695558537
 21
11094.835267846618
 31
0.0
 12
25056.175695558537
 22
11109.835267846618
 32
0.0
 13
25056.175695558537
 23
11109.835267846618
 33
0.0
  0
LINE
  8
____1
  6
CONTINUOUS
 62
               7
 10
25056.175695558537
 20
11109.835267846618
 30
0.0
 11
25056.175695558537
 21
10719.076344939607
 31
0.0
  0
SOLID
  8
____1
  6
CONTINUOUS
 62
               7
 10
25056.175695558537
 20
10309.835267846624
 30
0.0
 11
25056.175695558537
 21
10309.835267846624
 31
0.0
 12
25053.175695558537
 22
10324.835267846624
 32
0.0
 13
25059.175695558537
 23
10324.835267846624
 33
0.0
  0
SOLID
  8
____1
  6
CONTINUOUS
 62
               7
 10
25053.175695558537
 20
10324.835267846624
 30
0.0
 11
25056.175695558537
 21
10324.835267846624
 31
0.0
 12
25052.175695558537
 22
10329.835267846624
 32
0.0
 13
25052.175695558537
 23
10329.835267846624
 33
0.0
  0
SOLID
  8
____1
  6
CONTINUOUS
 62
               7
 10
25056.175695558537
 20
10324.835267846624
 30
0.0
 11
25059.175695558537
 21
10324.835267846624
 31
0.0
 12
25060.175695558537
 22
10329.835267846624
 32
0.0
 13
25060.175695558537
 23
10329.835267846624
 33
0.0
  0
LINE
  8
____1
  6
CONTINUOUS
 62
               7
 10
25056.175695558537
 20
10309.835267846624
 30
0.0
 11
25056.175695558537
 21
10719.076344939607
 31
0.0
  0
TEXT
  8
______
  6
DASHED2
 62
               7
 10
25048.059954941422
 20
10697.909678908723
 30
0.0
 40
28.222221374511719
  1
800
 50
90.0
  7
STYLE1
  0
ENDBLK
  8
0
  0
BLOCK
  8
0
  2
*D27
 70
              65
 10
0.0
 20
0.0
  0
LINE
  8
____1
  6
CONTINUOUS
 62
               7
 10
25056.175695558537
 20
10209.835267846624
 30
0.0
 11
25056.175695558537
 21
10309.835267846624
 31
0.0
  0
LINE
  8
____1
  6
CONTINUOUS
 62
               7
 10
25335.958346827083
 20
10309.835267846624
 30
0.0
 11
25048.175695558537
 21
10309.835267846624
 31
0.0
  0
LINE
  8
____1
  6
CONTINUOUS
 62
               7
 10
25118.458346827083
 20
10209.835267846624
 30
0.0
 11
25048.175695558537
 21
10209.835267846624
 31
0.0
  0
SOLID
  8
____1
  6
CONTINUOUS
 62
               7
 10
25052.175695558537
 20
10189.835267846624
 30
0.0
 11
25052.175695558537
 21
10189.835267846624
 31
0.0
 12
25053.175695558537
 22
10194.835267846624
 32
0.0
 13
25056.175695558537
 23
10194.835267846624
 33
0.0
  0
SOLID
  8
____1
  6
CONTINUOUS
 62
               7
 10
25060.175695558537
 20
10189.835267846624
 30
0.0
 11
25060.175695558537
 21
10189.835267846624
 31
0.0
 12
25056.175695558537
 22
10194.835267846624
 32
0.0
 13
25059.175695558537
 23
10194.835267846624
 33
0.0
  0
SOLID
  8
____1
  6
CONTINUOUS
 62
               7
 10
25053.175695558537
 20
10194.835267846624
 30
0.0
 11
25059.175695558537
 21
10194.835267846624
 31
0.0
 12
25056.175695558537
 22
10209.835267846624
 32
0.0
 13
25056.175695558537
 23
10209.835267846624
 33
0.0
  0
LINE
  8
____1
  6
CONTINUOUS
 62
               7
 10
25056.175695558537
 20
10209.835267846624
 30
0.0
 11
25056.175695558537
 21
10169.835267846624
 31
0.0
  0
SOLID
  8
____1
  6
CONTINUOUS
 62
               7
 10
25056.175695558537
 20
10309.835267846624
 30
0.0
 11
25056.175695558537
 21
10309.835267846624
 31
0.0
 12
25053.175695558537
 22
10324.835267846624
 32
0.0
 13
25059.175695558537
 23
10324.835267846624
 33
0.0
  0
SOLID
  8
____1
  6
CONTINUOUS
 62
               7
 10
25053.175695558537
 20
10324.835267846624
 30
0.0
 11
25056.175695558537
 21
10324.835267846624
 31
0.0
 12
25052.175695558537
 22
10329.835267846624
 32
0.0
 13
25052.175695558537
 23
10329.835267846624
 33
0.0
  0
SOLID
  8
____1
  6
CONTINUOUS
 62
               7
 10
25056.175695558537
 20
10324.835267846624
 30
0.0
 11
25059.175695558537
 21
10324.835267846624
 31
0.0
 12
25060.175695558537
 22
10329.835267846624
 32
0.0
 13
25060.175695558537
 23
10329.835267846624
 33
0.0
  0
LINE
  8
____1
  6
CONTINUOUS
 62
               7
 10
25056.175695558537
 20
10309.835267846624
 30
0.0
 11
25056.175695558537
 21
10349.835267846624
 31
0.0
  0
TEXT
  8
______
  6
DASHED2
 62
               7
 10
25048.059954941422
 20
10238.66860181574
 30
0.0
 40
28.222221374511719
  1
100
 50
90.0
  7
STYLE1
  0
ENDBLK
  8
0
  0
BLOCK
  8
0
  2
*D28
 70
              65
 10
0.0
 20
0.0
  0
LINE
  8
____1
  6
CONTINUOUS
 62
               7
 10
25056.175695558537
 20
11209.835267846616
 30
0.0
 11
25056.175695558537
 21
11109.835267846618
 31
0.0
  0
LINE
  8
____1
  6
CONTINUOUS
 62
               7
 10
25335.958346827083
 20
11109.835267846618
 30
0.0
 11
25048.175695558537
 21
11109.835267846618
 31
0.0
  0
LINE
  8
____1
  6
CONTINUOUS
 62
               7
 10
25118.458346827083
 20
11209.835267846616
 30
0.0
 11
25048.175695558537
 21
11209.835267846616
 31
0.0
  0
SOLID
  8
____1
  6
CONTINUOUS
 62
               7
 10
25056.175695558537
 20
11209.835267846616
 30
0.0
 11
25056.175695558537
 21
11209.835267846616
 31
0.0
 12
25053.175695558537
 22
11224.835267846616
 32
0.0
 13
25059.175695558537
 23
11224.835267846616
 33
0.0
  0
SOLID
  8
____1
  6
CONTINUOUS
 62
               7
 10
25053.175695558537
 20
11224.835267846616
 30
0.0
 11
25056.175695558537
 21
11224.835267846616
 31
0.0
 12
25052.175695558537
 22
11229.835267846616
 32
0.0
 13
25052.175695558537
 23
11229.835267846616
 33
0.0
  0
SOLID
  8
____1
  6
CONTINUOUS
 62
               7
 10
25056.175695558537
 20
11224.835267846616
 30
0.0
 11
25059.175695558537
 21
11224.835267846616
 31
0.0
 12
25060.175695558537
 22
11229.835267846616
 32
0.0
 13
25060.175695558537
 23
11229.835267846616
 33
0.0
  0
LINE
  8
____1
  6
CONTINUOUS
 62
               7
 10
25056.175695558537
 20
11209.835267846616
 30
0.0
 11
25056.175695558537
 21
11249.835267846616
 31
0.0
  0
SOLID
  8
____1
  6
CONTINUOUS
 62
               7
 10
25052.175695558537
 20
11089.835267846618
 30
0.0
 11
25052.175695558537
 21
11089.835267846618
 31
0.0
 12
25053.175695558537
 22
11094.835267846618
 32
0.0
 13
25056.175695558537
 23
11094.835267846618
 33
0.0
  0
SOLID
  8
____1
  6
CONTINUOUS
 62
               7
 10
25060.175695558537
 20
11089.835267846618
 30
0.0
 11
25060.175695558537
 21
11089.835267846618
 31
0.0
 12
25056.175695558537
 22
11094.835267846618
 32
0.0
 13
25059.175695558537
 23
11094.835267846618
 33
0.0
  0
SOLID
  8
____1
  6
CONTINUOUS
 62
               7
 10
25053.175695558537
 20
11094.835267846618
 30
0.0
 11
25059.175695558537
 21
11094.835267846618
 31
0.0
 12
25056.175695558537
 22
11109.835267846618
 32
0.0
 13
25056.175695558537
 23
11109.835267846618
 33
0.0
  0
LINE
  8
____1
  6
CONTINUOUS
 62
               7
 10
25056.175695558537
 20
11109.835267846618
 30
0.0
 11
25056.175695558537
 21
11069.835267846618
 31
0.0
  0
TEXT
  8
______
  6
DASHED2
 62
               7
 10
25048.059954941422
 20
11138.668601815732
 30
0.0
 40
28.222221374511719
  1
100
 50
90.0
  7
STYLE1
  0
ENDBLK
  8
0
  0
BLOCK
  8
0
  2
C5
 70
              64
 10
0.0
 20
0.0
  0
LINE
  8
____1
  6
CONTINUOUS
 62
               7
 10
27147.414371631068
 20
9792.7769791666706
 30
0.0
 11
27147.414371631068
 21
9832.7769791666706
 31
0.0
  0
LINE
  8
____1
  6
CONTINUOUS
 62
               7
 10
26675.414371631068
 20
9792.7769791666706
 30
0.0
 11
26675.414371631068
 21
9832.7769791666706
 31
0.0
  0
LINE
  8
____1
  6
CONTINUOUS
 62
               7
 10
26747.414371631068
 20
9792.7769791666706
 30
0.0
 11
26747.414371631068
 21
9832.7769791666706
 31
0.0
  0
LINE
  8
____1
  6
CONTINUOUS
 62
               7
 10
27587.414371631075
 20
9792.7769791666706
 30
0.0
 11
27587.414371631075
 21
9832.7769791666706
 31
0.0
  0
LINE
  8
____1
  6
CONTINUOUS
 62
               7
 10
27515.414371631068
 20
9792.7769791666706
 30
0.0
 11
27515.414371631068
 21
9832.7769791666706
 31
0.0
  0
LINE
  8
____1
  6
CONTINUOUS
 62
               7
 10
27835.414371631068
 20
9832.7769791666706
 30
0.0
 11
26675.414371631068
 21
9832.7769791666706
 31
0.0
  0
ENDBLK
  8
0
  0
BLOCK
  8
0
  2
C6
 70
              64
 10
0.0
 20
0.0
  0
LINE
  8
____1
  6
CONTINUOUS
 62
               7
 10
27147.414371631068
 20
9712.7769791666706
 30
0.0
 11
27147.414371631068
 21
9752.7769791666706
 31
0.0
  0
LINE
  8
____1
  6
CONTINUOUS
 62
               7
 10
26675.414371631068
 20
9712.7769791666706
 30
0.0
 11
26675.414371631068
 21
9752.7769791666706
 31
0.0
  0
LINE
  8
____1
  6
CONTINUOUS
 62
               7
 10
26747.414371631068
 20
9712.7769791666706
 30
0.0
 11
26747.414371631068
 21
9752.7769791666706
 31
0.0
  0
LINE
  8
____1
  6
CONTINUOUS
 62
               7
 10
27587.414371631075
 20
9712.7769791666706
 30
0.0
 11
27587.414371631075
 21
9752.7769791666706
 31
0.0
  0
LINE
  8
____1
  6
CONTINUOUS
 62
               7
 10
27515.414371631068
 20
9712.7769791666706
 30
0.0
 11
27515.414371631068
 21
9752.7769791666706
 31
0.0
  0
LINE
  8
____1
  6
CONTINUOUS
 62
               7
 10
27835.414371631068
 20
9752.7769791666706
 30
0.0
 11
26675.414371631068
 21
9752.7769791666706
 31
0.0
  0
ENDBLK
  8
0
  0
BLOCK
  8
0
  2
C7
 70
              64
 10
0.0
 20
0.0
  0
LINE
  8
____1
  6
CONTINUOUS
 62
               7
 10
27147.414371631068
 20
9752.7769791666706
 30
0.0
 11
27147.414371631068
 21
9792.7769791666706
 31
0.0
  0
LINE
  8
____1
  6
CONTINUOUS
 62
               7
 10
26675.414371631068
 20
9752.7769791666706
 30
0.0
 11
26675.414371631068
 21
9792.7769791666706
 31
0.0
  0
LINE
  8
____1
  6
CONTINUOUS
 62
               7
 10
26747.414371631068
 20
9752.7769791666706
 30
0.0
 11
26747.414371631068
 21
9792.7769791666706
 31
0.0
  0
LINE
  8
____1
  6
CONTINUOUS
 62
               7
 10
27587.414371631075
 20
9752.7769791666706
 30
0.0
 11
27587.414371631075
 21
9792.7769791666706
 31
0.0
  0
LINE
  8
____1
  6
CONTINUOUS
 62
               7
 10
27515.414371631068
 20
9752.7769791666706
 30
0.0
 11
27515.414371631068
 21
9792.7769791666706
 31
0.0
  0
LINE
  8
____1
  6
CONTINUOUS
 62
               7
 10
27835.414371631068
 20
9792.7769791666706
 30
0.0
 11
26675.414371631068
 21
9792.7769791666706
 31
0.0
  0
ENDBLK
  8
0
  0
BLOCK
  8
0
  2
C8
 70
              64
 10
0.0
 20
0.0
  0
LINE
  8
____1
  6
CONTINUOUS
 62
               7
 10
27147.414371631068
 20
9832.7769791666706
 30
0.0
 11
27147.414371631068
 21
9872.7769791666706
 31
0.0
  0
LINE
  8
____1
  6
CONTINUOUS
 62
               7
 10
26675.414371631068
 20
9832.7769791666706
 30
0.0
 11
26675.414371631068
 21
9872.7769791666706
 31
0.0
  0
LINE
  8
____1
  6
CONTINUOUS
 62
               7
 10
26747.414371631068
 20
9832.7769791666706
 30
0.0
 11
26747.414371631068
 21
9872.7769791666706
 31
0.0
  0
LINE
  8
____1
  6
CONTINUOUS
 62
               7
 10
27587.414371631075
 20
9832.7769791666706
 30
0.0
 11
27587.414371631075
 21
9872.7769791666706
 31
0.0
  0
LINE
  8
____1
  6
CONTINUOUS
 62
               7
 10
27515.414371631068
 20
9832.7769791666706
 30
0.0
 11
27515.414371631068
 21
9872.7769791666706
 31
0.0
  0
LINE
  8
____1
  6
CONTINUOUS
 62
               7
 10
27835.414371631068
 20
9872.7769791666706
 30
0.0
 11
26675.414371631068
 21
9872.7769791666706
 31
0.0
  0
ENDBLK
  8
0
  0
BLOCK
  8
0
  2
C9
 70
               0
 10
0.0
 20
0.0
  0
CIRCLE
  8
____1
  6
CONTINUOUS
 62
               7
 10
26075.658936941189
 20
10071.235999454411
 30
0.0
 40
28.0
  0
TEXT
  8
____1
  6
DASHED2
 62
               7
 10
26068.603381597561
 20
10061.240629384272
 30
0.0
 40
28.222221374511719
  1
7
  7
STYLE1
  0
LINE
  8
______
  6
CONTINUOUS
 62
               7
 10
26028.992270274521
 20
10071.235999454411
 30
0.0
 11
26047.658936941189
 21
10071.235999454411
 31
0.0
  0
LINE
  8
______
  6
CONTINUOUS
 62
               7
 10
25642.458346827083
 20
10435.528781143641
 30
0.0
 11
26028.992270274521
 21
10071.235999454411
 31
0.0
  0
SOLID
  8
______
 62
               7
 10
25642.458346827083
 20
10435.528781143641
 30
0.0
 11
25646.908496107593
 21
10428.586434898949
 31
0.0
 12
25642.458346827083
 22
10435.528781143641
 32
0.0
 13
25646.824748597683
 23
10431.413621902771
 33
0.0
  0
SOLID
  8
______
 62
               7
 10
25646.824748597683
 20
10431.413621902771
 30
0.0
 11
25649.651935601505
 21
10431.497369412682
 31
0.0
 12
25642.458346827083
 22
10435.528781143641
 32
0.0
 13
25642.458346827083
 23
10435.528781143641
 33
0.0
  0
ENDBLK
  8
0
  0
BLOCK
  8
0
  2
C10
 70
               0
 10
0.0
 20
0.0
  0
CIRCLE
  8
____1
  6
CONTINUOUS
 62
               7
 10
25568.255053164849
 20
11409.725204681614
 30
0.0
 40
28.0
  0
TEXT
  8
____1
  6
DASHED2
 62
               7
 10
25561.199497821221
 20
11399.729834611475
 30
0.0
 40
28.222221374511719
  1
3
  7
STYLE1
  0
LINE
  8
______
  6
CONTINUOUS
 62
               7
 10
25521.588386498181
 20
11409.725204681614
 30
0.0
 11
25540.255053164849
 21
11409.725204681614
 31
0.0
  0
LINE
  8
______
  6
CONTINUOUS
 62
               7
 10
25435.004414548752
 20
11023.335267846622
 30
0.0
 11
25521.588386498181
 21
11409.725204681614
 31
0.0
  0
SOLID
  8
______
 62
               7
 10
25435.004414548752
 20
11023.335267846622
 30
0.0
 11
25438.705310022153
 21
11030.70435006186
 31
0.0
 12
25435.004414548752
 22
11023.335267846622
 32
0.0
 13
25436.31638508023
 23
11029.19007214092
 33
0.0
  0
SOLID
  8
______
 62
               7
 10
25436.31638508023
 20
11029.19007214092
 30
0.0
 11
25434.802107159288
 21
11031.578997082845
 31
0.0
 12
25435.004414548752
 22
11023.335267846622
 32
0.0
 13
25435.004414548752
 23
11023.335267846622
 33
0.0
  0
ENDBLK
  8
0
  0
BLOCK
  8
0
  2
C11
 70
               0
 10
0.0
 20
0.0
  0
CIRCLE
  8
____1
  6
CONTINUOUS
 62
               7
 10
25025.994631511323
 20
10071.235999454411
 30
0.0
 40
28.0
  0
TEXT
  8
____1
  6
DASHED2
 62
               7
 10
25018.939076167695
 20
10061.240629384272
 30
0.0
 40
28.222221374511719
  1
2
  7
STYLE1
  0
LINE
  8
______
  6
CONTINUOUS
 62
               7
 10
25072.661298177991
 20
10071.235999454411
 30
0.0
 11
25053.994631511323
 21
10071.235999454411
 31
0.0
  0
LINE
  8
______
  6
CONTINUOUS
 62
               7
 10
25211.260566570203
 20
10209.835267846624
 30
0.0
 11
25072.661298177991
 21
10071.235999454411
 31
0.0
  0
SOLID
  8
______
 62
               7
 10
25211.260566570203
 20
10209.835267846624
 30
0.0
 11
25204.189498758336
 21
10205.592627159505
 31
0.0
 12
25211.260566570203
 22
10209.835267846624
 32
0.0
 13
25207.017925883083
 23
10205.592627159504
 33
0.0
  0
SOLID
  8
______
 62
               7
 10
25207.017925883083
 20
10205.592627159504
 30
0.0
 11
25207.017925883083
 21
10202.764200034759
 31
0.0
 12
25211.260566570203
 22
10209.835267846624
 32
0.0
 13
25211.260566570203
 23
10209.835267846624
 33
0.0
  0
ENDBLK
  8
0
  0
BLOCK
  8
0
  2
C12
 70
               0
 10
0.0
 20
0.0
  0
CIRCLE
  8
____1
  6
CONTINUOUS
 62
               7
 10
24846.713466114794
 20
10605.167269098209
 30
0.0
 40
28.0
  0
TEXT
  8
____1
  6
DOT
 62
               7
 10
24839.657910771166
 20
10595.17189902807
 30
0.0
 40
28.222221374511719
  1
5
  7
STYLE1
  0
LINE
  8
______
  6
CONTINUOUS
 62
               7
 10
24893.380132781462
 20
10605.167269098209
 30
0.0
 11
24874.713466114794
 21
10605.167269098209
 31
0.0
  0
LINE
  8
______
  6
CONTINUOUS
 62
               7
 10
25322.958346827079
 20
10705.179769098209
 30
0.0
 11
24893.380132781462
 21
10605.167269098209
 31
0.0
  0
SOLID
  8
______
 62
               7
 10
25322.958346827079
 20
10705.179769098209
 30
0.0
 11
25314.71322267647
 21
10705.313663612698
 31
0.0
 12
25322.958346827079
 22
10705.179769098209
 32
0.0
 13
25317.114630747619
 23
10703.819260964212
 33
0.0
  0
SOLID
  8
______
 62
               7
 10
25317.114630747619
 20
10703.819260964212
 30
0.0
 11
25315.620228099131
 21
10701.417852893061
 31
0.0
 12
25322.958346827079
 22
10705.179769098209
 32
0.0
 13
25322.958346827079
 23
10705.179769098209
 33
0.0
  0
ENDBLK
  8
0
  0
BLOCK
  8
0
  2
C13
 70
               0
 10
0.0
 20
0.0
  0
CIRCLE
  8
____1
  6
CONTINUOUS
 62
               7
 10
24846.713466114794
 20
10935.711949430102
 30
0.0
 40
28.0
  0
TEXT
  8
____1
  6
CONTINUOUS
 62
               7
 10
24839.657910771166
 20
10925.716579359963
 30
0.0
 40
28.222221374511719
  1
4
  7
STYLE1
  0
LINE
  8
______
  6
CONTINUOUS
 62
               7
 10
24893.380132781462
 20
10935.711949430102
 30
0.0
 11
24874.713466114794
 21
10935.711949430102
 31
0.0
  0
LINE
  8
______
  6
CONTINUOUS
 62
               7
 10
25339.458364730726
 20
10831.817468137553
 30
0.0
 11
24893.380132781462
 21
10935.711949430102
 31
0.0
  0
SOLID
  8
______
 62
               7
 10
25339.458364730726
 20
10831.817468137553
 30
0.0
 11
25332.120570172196
 21
10835.580016611233
 31
0.0
 12
25339.458364730726
 22
10831.817468137553
 32
0.0
 13
25333.614765899936
 23
10833.178479785114
 33
0.0
  0
SOLID
  8
______
 62
               7
 10
25333.614765899936
 20
10833.178479785114
 30
0.0
 11
25331.213229073819
 21
10831.684284057372
 31
0.0
 12
25339.458364730726
 22
10831.817468137553
 32
0.0
 13
25339.458364730726
 23
10831.817468137553
 33
0.0
  0
ENDBLK
  8
0
  0
BLOCK
  8
0
  2
C14
 70
               0
 10
0.0
 20
0.0
  0
CIRCLE
  8
____1
  6
CONTINUOUS
 62
               7
 10
27143.667146077514
 20
10307.716877675592
 30
0.0
 40
28.0
  0
TEXT
  8
____1
  6
DASHED2
 62
               7
 10
27136.611590733886
 20
10297.721507605453
 30
0.0
 40
28.222221374511719
  1
8
  7
STYLE1
  0
LINE
  8
______
  6
CONTINUOUS
 62
               7
 10
27190.333812744182
 20
10307.716877675592
 30
0.0
 11
27171.667146077514
 21
10307.716877675592
 31
0.0
  0
LINE
  8
______
  6
CONTINUOUS
 62
               7
 10
27282.452202915214
 20
10399.835267846624
 30
0.0
 11
27190.333812744182
 21
10307.716877675592
 31
0.0
  0
SOLID
  8
______
 62
               7
 10
27282.452202915214
 20
10399.835267846624
 30
0.0
 11
27275.381135103347
 21
10395.592627159505
 31
0.0
 12
27282.452202915214
 22
10399.835267846624
 32
0.0
 13
27278.209562228094
 23
10395.592627159504
 33
0.0
  0
SOLID
  8
______
 62
               7
 10
27278.209562228094
 20
10395.592627159504
 30
0.0
 11
27278.209562228094
 21
10392.764200034759
 31
0.0
 12
27282.452202915214
 22
10399.835267846624
 32
0.0
 13
27282.452202915214
 23
10399.835267846624
 33
0.0
  0
ENDBLK
  8
0
  0
BLOCK
  8
0
  2
C15
 70
               0
 10
0.0
 20
0.0
  0
CIRCLE
  8
____1
  6
CONTINUOUS
 62
               7
 10
26342.28895198687
 20
10071.235999454411
 30
0.0
 40
28.0
  0
TEXT
  8
____1
  6
DASHED2
 62
               7
 10
26335.233396643242
 20
10061.240629384272
 30
0.0
 40
28.222221374511719
  1
1
  7
STYLE1
  0
LINE
  8
______
  6
CONTINUOUS
 62
               7
 10
26295.622285320202
 20
10071.235999454411
 30
0.0
 11
26314.28895198687
 21
10071.235999454411
 31
0.0
  0
LINE
  8
______
  6
CONTINUOUS
 62
               7
 10
25942.458346827087
 20
10454.68339528774
 30
0.0
 11
26295.622285320202
 21
10071.235999454411
 31
0.0
  0
SOLID
  8
______
 62
               7
 10
25942.458346827087
 20
10454.68339528774
 30
0.0
 11
25946.406947286654
 21
10447.444020010087
 31
0.0
 12
25942.458346827087
 22
10454.68339528774
 32
0.0
 13
25946.523131024016
 23
10450.270059878732
 33
0.0
  0
SOLID
  8
______
 62
               7
 10
25946.523131024016
 20
10450.270059878732
 30
0.0
 11
25949.349170892659
 21
10450.153876141372
 31
0.0
 12
25942.458346827087
 22
10454.68339528774
 32
0.0
 13
25942.458346827087
 23
10454.68339528774
 33
0.0
  0
ENDBLK
  8
0
  0
BLOCK
  8
0
  2
C16
 70
              64
 10
0.0
 20
0.0
  0
CIRCLE
  8
____1
  6
DOT
 62
               4
 10
27236.31160135808
 20
10852.125095563895
 30
0.0
 40
4.2499999999974802
  0
CIRCLE
  8
____1
  6
DOT
 62
               4
 10
27236.31160135808
 20
10852.125095563895
 30
0.0
 40
4.999999999994607
  0
LINE
  8
____1
  6
DOT
 62
               4
 10
27257.421132462277
 20
10860.272960103845
 30
0.0
 11
27244.459465898042
 21
10831.015564459707
 31
0.0
  0
LINE
  8
____1
  6
DOT
 62
               4
 10
27218.407369691991
 20
10880.838132471315
 30
0.0
 11
27255.89340786104
 21
10864.230997185879
 31
0.0
  0
LINE
  8
____1
  6
DOT
 62
               4
 10
27240.501428815998
 20
10829.487839858471
 30
0.0
 11
27203.01539064695
 21
10846.094975143906
 31
0.0
  0
LINE
  8
____1
  6
DOT
 62
               4
 10
27201.487666045716
 20
10850.053012225933
 30
0.0
 11
27214.449332609962
 21
10879.310407870071
 31
0.0
  0
LINE
  8
____1
  6
DOT
 62
               4
 10
27026.302641388422
 20
10454.621024223155
 30
0.0
 11
27065.202308006217
 21
10437.387620597878
 31
0.0
  0
LINE
  8
____1
  6
DOT
 62
               4
 10
27285.535972673224
 20
11039.768937105868
 30
0.0
 11
27324.435639291009
 21
11022.535533480583
 31
0.0
  0
LINE
  8
____1
  6
DOT
 62
               4
 10
27283.576600842931
 20
11039.0476149553
 30
0.0
 11
27145.447118499131
 21
10751.834389366384
 31
0.0
  0
LINE
  8
____1
  6
DOT
 62
               4
 10
27025.520470694246
 20
10456.556909710342
 30
0.0
 11
27145.447118499131
 21
10751.834389366384
 31
0.0
  0
ARC
  8
____1
  6
DOT
 62
               4
 10
27241.716585056402
 20
10832.230720700105
 30
0.0
 40
3.0000000000029279
 50
-113.89439079071036
 51
-23.894390790558791
210
0.0
220
0.0
230
1.0
  0
ARC
  8
____1
  6
DOT
 62
               4
 10
27254.678251620648
 20
10861.488116344241
 30
0.0
 40
2.9999999999922125
 50
-23.894390790611457
 51
66.105609209522427
  0
ARC
  8
____1
  6
DOT
 62
               4
 10
27284.928394553033
 20
11038.397496685049
 30
0.0
 40
1.4999999999964853
 50
66.105609209698926
 51
154.31569860107132
  0
ARC
  8
____1
  6
DOT
 62
               4
 10
27065.809886126404
 20
10438.759061018694
 30
0.0
 40
1.4999999999933487
 50
-113.89439079020217
 51
-23.894390790379074
  0
ARC
  8
____1
  6
DOT
 62
               4
 10
27323.8280611708
 20
11021.164093059771
 30
0.0
 40
1.4999999999972007
 50
-23.894390790273739
 51
66.105609208951108
210
0.0
220
0.0
230
1.0
  0
ARC
  8
____1
  6
DOT
 62
               4
 10
27217.192213451592
 20
10878.095251629673
 30
0.0
 40
3.0000000000053277
 50
66.10560920942352
 51
156.10560920935677
  0
ARC
  8
____1
  6
DOT
 62
               4
 10
27204.230546887364
 20
10848.837855985539
 30
0.0
 40
3.0000000000081068
 50
156.10560920956101
 51
-113.89439079090094
  0
ARC
  8
____1
  6
DOT
 62
               4
 10
27026.910219508623
 20
10455.992464643979
 30
0.0
 40
1.5000000000014442
 50
157.89551981759712
 51
-113.8943907905978
  0
LINE
  8
____1
  6
DOT
 62
               4
 10
27067.18132654723
 20
10438.151482898498
 30
0.0
 11
27240.543760588818
 21
10829.46947410332
 31
0.0
  0
LINE
  8
____1
  6
DOT
 62
               4
 10
27255.935452144098
 20
10864.211982501705
 30
0.0
 11
27325.199501591636
 21
11020.556514939573
 31
0.0
  0
LINE
  8
____1
  6
DOT
 62
               2
 10
27322.033280308828
 20
11018.455030009934
 30
0.0
 11
27320.371125521669
 21
11014.715505683303
 31
0.0
  0
LINE
  8
____1
  6
DOT
 62
               2
 10
27323.071965078561
 20
11015.754190453037
 30
0.0
 11
27319.332440751936
 21
11017.416345240199
 31
0.0
  0
ENDBLK
  8
0
  0
BLOCK
  8
0
  2
C17
 70
              64
 10
0.0
 20
0.0
  0
ARC
  8
____1
  6
DASHED2
 62
               7
 10
27308.702202915214
 20
10612.835267846618
 30
0.0
 40
4.9999999989802966
 50
-101.53695903520067
 51
9.9999999999612079
  0
LINE
  8
____1
  6
DASHED2
 62
               7
 10
27313.626241680275
 20
10613.703508734954
 30
0.0
 11
27307.702202915214
 21
10647.300402081954
 31
0.0
  0
LINE
  8
____1
  6
DASHED2
 62
               7
 10
27307.702202915214
 20
10647.300402081954
 30
0.0
 11
27307.702202915214
 21
10717.936288361052
 31
0.0
  0
ARC
  8
____1
  6
DASHED2
 62
               7
 10
27308.702202915214
 20
10722.835267846618
 30
0.0
 40
4.9999999999997371
 50
-101.5369590328161
 51
10.000000000015964
  0
LINE
  8
____1
  6
DASHED2
 62
               7
 10
27313.626241680275
 20
10723.703508734954
 30
0.0
 11
27307.702202915214
 21
10757.300402081954
 31
0.0
  0
LINE
  8
____1
  6
DASHED2
 62
               7
 10
27307.702202915214
 20
10757.300402081954
 30
0.0
 11
27307.703299768644
 21
10827.062873533807
 31
0.0
  0
ARC
  8
____1
  6
DASHED2
 62
               7
 10
27312.203390526185
 20
10832.835267846618
 30
0.0
 40
5.9999999999989893
 50
-93.000000000006111
 51
84.999999999991516
  0
LINE
  8
____1
  6
DASHED2
 62
               7
 10
27311.889374788727
 20
10826.843490638092
 30
0.0
 11
27307.703299768644
 21
10827.062873533807
 31
0.0
  0
LINE
  8
____1
  6
DASHED2
 62
               7
 10
27312.726324982672
 20
10838.812436035169
 30
0.0
 11
27302.681559500328
 21
10839.69123914265
 31
0.0
  0
ARC
  8
____1
  6
DASHED2
 62
               7
 10
27302.202202915214
 20
10834.212168303147
 30
0.0
 40
5.5
 50
84.999999999977547
 51
180.0
210
0.0
220
0.0
230
1.0
  0
LINE
  8
____1
  6
DASHED2
 62
               7
 10
27329.202202915214
 20
10887.135267846619
 30
0.0
 11
27329.202202915214
 21
10542.535267846619
 31
0.0
  0
LINE
  8
____1
  6
DASHED2
 62
               7
 10
27331.702202915214
 20
10542.535267846619
 30
0.0
 11
27329.202202915214
 21
10542.535267846619
 31
0.0
  0
LINE
  8
____1
  6
CONTINUOUS
 62
               7
 10
27296.702202915214
 20
10832.835267846618
 30
0.0
 11
27296.702202915214
 21
10833.710154481878
 31
0.0
  0
LINE
  8
____1
  6
CONTINUOUS
 62
               7
 10
27296.702202915214
 20
10833.710154481878
 30
0.0
 11
27296.702202915214
 21
10834.212168303147
 31
0.0
  0
LINE
  8
____1
  6
DASHED2
 62
               7
 10
27286.702202915214
 20
10539.835267846618
 30
0.0
 11
27329.202202915214
 21
10539.835267846618
 31
0.0
  0
LINE
  8
____1
  6
DASHED2
 62
               7
 10
27329.202202915214
 20
10889.835267846618
 30
0.0
 11
27329.202202915214
 21
10887.135267846619
 31
0.0
  0
LINE
  8
____1
  6
DASHED2
 62
               7
 10
27331.702202915214
 20
10887.135267846619
 30
0.0
 11
27329.202202915214
 21
10887.135267846619
 31
0.0
  0
LINE
  8
____1
  6
DASHED2
 62
               7
 10
27331.702202915214
 20
10542.535267846619
 30
0.0
 11
27331.702202915214
 21
10887.135267846619
 31
0.0
  0
LINE
  8
____1
  6
DASHED2
 62
               7
 10
27329.202202915214
 20
10539.835267846618
 30
0.0
 11
27329.202202915214
 21
10542.535267846619
 31
0.0
  0
LINE
  8
____1
  6
DASHED2
 62
               7
 10
27286.702202915214
 20
10889.835267846618
 30
0.0
 11
27329.202202915214
 21
10889.835267846618
 31
0.0
  0
LINE
  8
____1
  6
DASHED2
 62
               7
 10
27286.702202915214
 20
10539.835267846618
 30
0.0
 11
27286.702202915214
 21
10889.835267846618
 31
0.0
  0
LINE
  8
____1
  6
DASHED2
 62
               7
 10
27286.702202915214
 20
10887.335267846618
 30
0.0
 11
27329.202202915214
 21
10887.335267846618
 31
0.0
  0
LINE
  8
____1
  6
DASHED2
 62
               7
 10
27286.702202915214
 20
10542.335267846618
 30
0.0
 11
27329.202202915214
 21
10542.335267846618
 31
0.0
  0
LINE
  8
____1
  6
DASHED2
 62
               7
 10
27296.702202915214
 20
10553.335265159742
 30
0.0
 11
27296.702202915214
 21
10834.212168303147
 31
0.0
  0
ARC
  8
____1
  6
DASHED2
 62
               7
 10
27302.202202915214
 20
10553.335267846618
 30
0.0
 40
5.5000000000006564
 50
-179.99997200969349
 51
0.0
  0
LINE
  8
____1
  6
DASHED2
 62
               7
 10
27307.702202915214
 20
10553.335267846618
 30
0.0
 11
27307.702202915214
 21
10607.936288362089
 31
0.0
  0
ENDBLK
  8
0
  0
BLOCK
  8
0
  2
C18
 70
              64
 10
0.0
 20
0.0
  0
LINE
  8
____1
  6
DASHED2
 62
               7
 10
27281.652202915218
 20
10406.84425976117
 30
0.0
 11
27281.652202915218
 21
10401.835267846624
 31
0.0
  0
ARC
  8
____1
  6
DASHED2
 62
               7
 10
27280.95775206681
 20
10406.301693518808
 30
0.0
 40
0.5000000000016796
 50
93.433630362150907
 51
151.10237726317533
  0
LINE
  8
____1
  6
DASHED2
 62
               7
 10
27281.652202915218
 20
10406.84425976117
 30
0.0
 11
27280.927805921448
 21
10406.800795941543
 31
0.0
  0
LINE
  8
____1
  6
DASHED2
 62
               7
 10
27279.452202915214
 20
10401.85882144407
 30
0.0
 11
27279.452202915214
 21
10400.835267846624
 31
0.0
  0
POLYLINE
  8
____1
  6
DASHED2
 62
               7
 66
               1
 10
0.0
 20
0.0
 30
0.0
 70
               8
  0
VERTEX
  8
____1
 62
               7
 10
27280.520009777734
 20
10406.543316548248
 30
0.0
 70
              32
  0
VERTEX
  8
____1
 62
               7
 10
27280.231025687914
 20
10405.997316990914
 30
0.0
 70
              32
  0
VERTEX
  8
____1
 62
               7
 10
27279.981272771234
 20
10405.438994271857
 30
0.0
 70
              32
  0
VERTEX
  8
____1
 62
               7
 10
27279.835898235957
 20
10405.016363518056
 30
0.0
 70
              32
  0
VERTEX
  8
____1
 62
               7
 10
27279.722007087104
 20
10404.58384331076
 30
0.0
 70
              32
  0
VERTEX
  8
____1
 62
               7
 10
27279.570988634852
 20
10403.694690099999
 30
0.0
 70
              32
  0
VERTEX
  8
____1
 62
               7
 10
27279.49284478679
 20
10402.782645768213
 30
0.0
 70
              32
  0
VERTEX
  8
____1
 62
               7
 10
27279.452202915214
 20
10401.858821444041
 30
0.0
 70
              32
  0
SEQEND
  8
____1
 62
               7
  0
LINE
  8
____1
  6
DASHED2
 62
               7
 10
27285.452202915214
 20
10401.763700460642
 30
0.0
 11
27285.452202915214
 21
10400.835267846624
 31
0.0
  0
ARC
  8
____1
  6
DASHED2
 62
               7
 10
27276.39282750605
 20
10402.249331340718
 30
0.0
 40
9.0723822756686143
 50
-3.0684227999204072
 51
28.211078854522601
  0
LINE
  8
____1
  6
DASHED2
 62
               7
 10
27283.252202915217
 20
10406.84425976117
 30
0.0
 11
27283.976860312789
 21
10406.800780317315
 31
0.0
  0
ARC
  8
____1
  6
DASHED2
 62
               7
 10
27283.94691416742
 20
10406.30167789458
 30
0.0
 40
0.5000000000021153
 50
28.211078854051308
 51
86.56636963701682
210
0.0
220
0.0
230
1.0
  0
LINE
  8
____1
  6
DASHED2
 62
               7
 10
27283.252202915217
 20
10406.84425976117
 30
0.0
 11
27283.252202915217
 21
10401.835267846624
 31
0.0
  0
ARC
  8
____1
  6
DASHED2
 62
               7
 10
27284.452202915214
 20
10400.835267846624
 30
0.0
 40
1.0
 50
-90.0
 51
0.0
210
0.0
220
0.0
230
1.0
  0
LINE
  8
____1
  6
DASHED2
 62
               7
 10
27284.452202915214
 20
10399.835267846624
 30
0.0
 11
27280.452202915214
 21
10399.835267846624
 31
0.0
  0
ARC
  8
____1
  6
DASHED2
 62
               7
 10
27280.452202915214
 20
10400.835267846624
 30
0.0
 40
1.0
 50
180.0
 51
-90.0
210
0.0
220
0.0
230
1.0
  0
LINE
  8
____1
  6
DASHED2
 62
               7
 10
27283.252202915217
 20
10401.835267846624
 30
0.0
 11
27281.652202915218
 21
10401.835267846624
 31
0.0
  0
ENDBLK
  8
0
  0
BLOCK
  8
0
  2
C19
 70
              64
 10
0.0
 20
0.0
  0
LINE
  8
____1
  6
DASHED2
 62
               7
 10
27324.908191248818
 20
10847.839665976622
 30
0.0
 11
27324.94725323471
 21
10815.839689817856
 31
0.0
  0
ARC
  8
____1
  6
DASHED2
 62
               7
 10
27323.408192366373
 20
10847.837834946031
 30
0.0
 40
2.9999999999929297
 50
0.069940233961038
 51
90.069940233995609
  0
LINE
  8
____1
  6
DASHED2
 62
               7
 10
27326.408190131249
 20
10847.841497007208
 30
0.0
 11
27326.447252117152
 21
10815.841520848451
 31
0.0
  0
ARC
  8
____1
  6
DASHED2
 62
               7
 10
27323.447254352264
 20
10815.83785878727
 30
0.0
 40
1.5000000000037372
 50
-89.930059765865437
 51
0.0699402338564784
210
0.0
220
0.0
230
1.0
  0
ARC
  8
____1
  6
DASHED2
 62
               7
 10
27323.447254352264
 20
10815.83785878727
 30
0.0
 40
3.000000000003848
 50
-89.930059766143359
 51
0.0699402340302638
210
0.0
220
0.0
230
1.0
  0
ARC
  8
____1
  6
DASHED2
 62
               7
 10
27323.408192366373
 20
10847.837834946031
 30
0.0
 40
1.5000000000037439
 50
0.0699402340649191
 51
90.069940233995538
  0
CIRCLE
  8
____1
  6
DASHED2
 62
               7
 10
27310.427733044809
 20
10831.821977934878
 30
0.0
 40
4.2499999999960636
  0
LINE
  8
____1
  6
DASHED2
 62
               7
 10
27282.40639188237
 20
10849.287785659044
 30
0.0
 11
27323.406361335783
 21
10849.337833828475
 31
0.0
  0
LINE
  8
____1
  6
DASHED2
 62
               7
 10
27323.449085382857
 20
10814.337859904828
 30
0.0
 11
27282.449115929441
 21
10814.287811735407
 31
0.0
  0
LINE
  8
____1
  6
DASHED2
 62
               7
 10
27282.404560851777
 20
10850.787784541493
 30
0.0
 11
27323.404530305193
 21
10850.837832710915
 31
0.0
  0
CIRCLE
  8
____1
  6
DASHED2
 62
               7
 10
27310.427733044809
 20
10831.821977934878
 30
0.0
 40
4.9999999999979341
  0
LINE
  8
____1
  6
DASHED2
 62
               7
 10
27323.450916413436
 20
10812.837861022386
 30
0.0
 11
27282.450946960023
 21
10812.787812852965
 31
0.0
  0
ARC
  8
____1
  6
DASHED2
 62
               7
 10
27282.40822291296
 20
10847.787786776609
 30
0.0
 40
1.4999999999928277
 50
90.069940233995951
 51
-179.93005976586576
  0
ARC
  8
____1
  6
DASHED2
 62
               7
 10
27282.447284898855
 20
10815.787810617849
 30
0.0
 40
3.0000000000038525
 50
-179.93005976590027
 51
-89.930059766212835
  0
ARC
  8
____1
  6
DASHED2
 62
               7
 10
27282.40822291296
 20
10847.787786776609
 30
0.0
 40
3.0000000000002118
 50
90.069940234065101
 51
-179.93005976596959
  0
LINE
  8
____1
  6
DASHED2
 62
               7
 10
27279.447287133968
 20
10815.784148556664
 30
0.0
 11
27279.40822514808
 21
10847.784124715428
 31
0.0
  0
LINE
  8
____1
  6
DASHED2
 62
               7
 10
27280.94728601641
 20
10815.785979587259
 30
0.0
 11
27280.908224030511
 21
10847.785955746016
 31
0.0
  0
ARC
  8
____1
  6
DASHED2
 62
               7
 10
27282.447284898855
 20
10815.787810617849
 30
0.0
 40
1.5000000000000993
 50
-179.93005976600458
 51
-89.930059766143359
210
0.0
220
0.0
230
1.0
  0
LINE
  8
____1
  6
DASHED2
 62
               7
 10
27323.449085382857
 20
10814.337859904828
 30
0.0
 11
27282.449115929441
 21
10814.287811735407
 31
0.0
  0
ENDBLK
  8
0
  0
BLOCK
  8
0
  2
C20
 70
              64
 10
0.0
 20
0.0
  0
LINE
  8
____1
  6
DASHED2
 62
               7
 10
27299.702202915214
 20
11013.335267846622
 30
0.0
 11
27299.702202915214
 21
11011.335267846622
 31
0.0
  0
LINE
  8
____1
  6
DASHED2
 62
               7
 10
27303.702202915214
 20
11013.335267846622
 30
0.0
 11
27303.702202915214
 21
11011.335267846622
 31
0.0
  0
LINE
  8
____1
  6
DASHED2
 62
               7
 10
27308.702202915214
 20
11013.335267846622
 30
0.0
 11
27308.702202915214
 21
11011.335267846622
 31
0.0
  0
LINE
  8
____1
  6
DASHED2
 62
               7
 10
27309.202202915214
 20
11013.335267846622
 30
0.0
 11
27309.202202915214
 21
11011.335267846622
 31
0.0
  0
LINE
  8
____1
  6
DASHED2
 62
               7
 10
27290.202202915214
 20
11013.335267846622
 30
0.0
 11
27290.202202915214
 21
11011.335267846622
 31
0.0
  0
LINE
  8
____1
  6
DASHED2
 62
               7
 10
27318.513796631807
 20
11014.759077370432
 30
0.0
 11
27316.859392765095
 21
11013.635267846623
 31
0.0
  0
LINE
  8
____1
  6
DASHED2
 62
               7
 10
27321.202202915214
 20
11013.335267846622
 30
0.0
 11
27290.202202915214
 21
11013.335267846622
 31
0.0
  0
LINE
  8
____1
  6
DASHED2
 62
               7
 10
27321.202202915214
 20
11011.335267846622
 30
0.0
 11
27290.202202915214
 21
11011.335267846622
 31
0.0
  0
LINE
  8
____1
  6
DASHED2
 62
               7
 10
27300.202202915214
 20
11013.335267846622
 30
0.0
 11
27300.202202915214
 21
11011.335267846622
 31
0.0
  0
LINE
  8
____1
  6
DASHED2
 62
               7
 10
27303.202202915214
 20
11013.335267846622
 30
0.0
 11
27303.202202915214
 21
11011.335267846622
 31
0.0
  0
LINE
  8
____1
  6
DASHED2
 62
               7
 10
27315.202202915214
 20
11013.335267846622
 30
0.0
 11
27315.202202915214
 21
11011.335267846622
 31
0.0
  0
ARC
  8
____1
  6
DASHED2
 62
               7
 10
27321.202202915214
 20
11016.585267846622
 30
0.0
 40
5.25
 50
-90.0
 51
-145.81237266288906
  0
ARC
  8
____1
  6
DASHED2
 62
               7
 10
27321.202202915214
 20
11016.585267846622
 30
0.0
 40
3.25
 50
-90.0
 51
-145.81237266289196
  0
LINE
  8
____1
  6
DASHED2
 62
               7
 10
27294.202202915214
 20
11013.335267846622
 30
0.0
 11
27294.202202915214
 21
11011.335267846622
 31
0.0
  0
LINE
  8
____1
  6
DASHED2
 62
               7
 10
27294.702202915214
 20
11013.335267846622
 30
0.0
 11
27294.702202915214
 21
11011.335267846622
 31
0.0
  0
LINE
  8
____1
  6
DOT
 62
               2
 10
27328.702202915214
 20
11016.585267846622
 30
0.0
 11
27313.702202915214
 21
11016.585267846622
 31
0.0
  0
LINE
  8
____1
  6
DOT
 62
               2
 10
27321.202202915214
 20
11024.085267846622
 30
0.0
 11
27321.202202915214
 21
11009.085267846622
 31
0.0
  0
LINE
  8
____1
  6
DOT
 62
               2
 10
27297.202202915214
 20
11015.335267846622
 30
0.0
 11
27297.202202915214
 21
11009.335267846622
 31
0.0
  0
LINE
  8
____1
  6
DOT
 62
               2
 10
27306.202202915214
 20
11015.335267846622
 30
0.0
 11
27306.202202915214
 21
11009.335267846622
 31
0.0
  0
ENDBLK
  8
0
  0
BLOCK
  8
0
  2
C21
 70
              64
 10
0.0
 20
0.0
  0
CIRCLE
  8
____1
  6
DOT
 62
               4
 10
27160.744959078591
 20
10924.351676350116
 30
0.0
 40
4.2499999999974163
  0
CIRCLE
  8
____1
  6
DOT
 62
               4
 10
27160.744959078591
 20
10924.351676350116
 30
0.0
 40
4.9999999999930953
  0
LINE
  8
____1
  6
DOT
 62
               4
 10
27182.902113449232
 20
10919.76250320064
 30
0.0
 11
27156.155785929132
 21
10902.194521979472
 31
0.0
  0
LINE
  8
____1
  6
DOT
 62
               4
 10
27161.253607475148
 20
10958.185701780274
 30
0.0
 11
27183.762583414766
 21
10923.916969645128
 31
0.0
  0
LINE
  8
____1
  6
DOT
 62
               4
 10
27152.001319484632
 20
10903.054991945006
 30
0.0
 11
27129.492343545018
 21
10937.323724080146
 31
0.0
  0
LINE
  8
____1
  6
DOT
 62
               4
 10
27130.352813510541
 20
10941.478190524633
 30
0.0
 11
27157.09914103066
 21
10959.046171745791
 31
0.0
  0
LINE
  8
____1
  6
DOT
 62
               4
 10
26768.859480621592
 20
10704.03594433234
 30
0.0
 11
26792.217288027387
 21
10668.474910929457
 31
0.0
  0
LINE
  8
____1
  6
DOT
 62
               4
 10
27303.786031023752
 20
11055.395568755595
 30
0.0
 11
27327.143838429536
 21
11019.834535352715
 31
0.0
  0
LINE
  8
____1
  6
DOT
 62
               4
 10
27301.748359680671
 20
11055.850913802591
 30
0.0
 11
27030.034594917746
 21
10889.28915083127
 31
0.0
  0
LINE
  8
____1
  6
DOT
 62
               4
 10
26769.250957335033
 20
10706.086844036654
 30
0.0
 11
27030.034594917746
 21
10889.28915083127
 31
0.0
  0
ARC
  8
____1
  6
DOT
 62
               4
 10
27154.508787689643
 20
10904.701990184485
 30
0.0
 40
3.0000000000044751
 50
-146.70160442007062
 51
-56.701604419944509
210
0.0
220
0.0
230
1.0
  0
ARC
  8
____1
  6
DOT
 62
               4
 10
27181.255115209755
 20
10922.269971405645
 30
0.0
 40
2.9999999999924021
 50
-56.701604420042436
 51
33.298395579987456
  0
ARC
  8
____1
  6
DOT
 62
               4
 10
27302.532296921254
 20
11054.572069635848
 30
0.0
 40
1.4999999999973934
 50
33.298395580343289
 51
121.50848497156903
  0
ARC
  8
____1
  6
DOT
 62
               4
 10
26793.471022129885
 20
10669.298410049203
 30
0.0
 40
1.4999999999963947
 50
-146.70160441971478
 51
-56.701604419789362
  0
ARC
  8
____1
  6
DOT
 62
               4
 10
27325.890104327031
 20
11019.011036232981
 30
0.0
 40
1.4999999999954856
 50
-56.701604419709646
 51
33.298395579726126
210
0.0
220
0.0
230
1.0
  0
ARC
  8
____1
  6
DOT
 62
               4
 10
27158.746139270137
 20
10956.538703540786
 30
0.0
 40
3.000000000002955
 50
33.298395580074569
 51
123.29839557995756
  0
ARC
  8
____1
  6
DOT
 62
               4
 10
27131.999811750036
 20
10938.97072231962
 30
0.0
 40
3.0000000000084697
 50
123.29839558017164
 51
-146.70160442023402
  0
ARC
  8
____1
  6
DOT
 62
               4
 10
26770.113214724097
 20
10704.859443452086
 30
0.0
 40
1.4999999999982809
 50
125.08830618811238
 51
-146.70160441986735
  0
LINE
  8
____1
  6
DOT
 62
               4
 10
26794.294521249634
 20
10668.044675946696
 30
0.0
 11
27152.026948447841
 21
10903.016619608654
 31
0.0
  0
LINE
  8
____1
  6
DOT
 62
               4
 10
27183.787619144437
 20
10923.878207650967
 30
0.0
 11
27326.713603446788
 21
11017.757302130467
 31
0.0
  0
LINE
  8
____1
  6
DOT
 62
               2
 10
27322.913785512148
 20
11017.706510548031
 30
0.0
 11
27319.490620318342
 21
11015.464025145215
 31
0.0
  0
LINE
  8
____1
  6
DOT
 62
               2
 10
27322.32344561665
 20
11014.873685249717
 30
0.0
 11
27320.08096021384
 21
11018.296850443525
 31
0.0
  0
ENDBLK
  8
0
  0
BLOCK
  8
0
  2
C22
 70
              64
 10
0.0
 20
0.0
  0
INSERT
  8
____1
  6
DASHED2
 62
               4
  2
C23
 10
0.0
 20
0.0
 30
0.0
  0
LINE
  8
____1
  6
DOT
 62
               2
 10
27321.271167273459
 20
11014.540287626965
 30
0.0
 11
27321.133238557031
 21
11018.630248066278
 31
0.0
  0
LINE
  8
____1
  6
DOT
 62
               2
 10
27323.247183134903
 20
11016.654232204835
 30
0.0
 11
27319.15722269559
 21
11016.516303488408
 31
0.0
  0
ENDBLK
  8
0
  0
BLOCK
  8
0
  2
C23
 70
              64
 10
0.0
 20
0.0
  0
CIRCLE
  8
____1
  6
DOT
 62
               4
 10
27136.180739326333
 20
11021.126249174027
 30
0.0
 40
4.2499999999986837
  0
CIRCLE
  8
____1
  6
DOT
 62
               4
 10
27136.180739326333
 20
11021.126249174027
 30
0.0
 40
4.9999999999956035
  0
LINE
  8
____1
  6
CENTER2
 62
               4
 10
27152.72977114953
 20
11005.694802523923
 30
0.0
 11
27120.749292676239
 21
11004.577217350818
 31
0.0
  0
LINE
  8
____1
  6
CENTER2
 62
               4
 10
27154.191261393396
 20
11049.772734034681
 30
0.0
 11
27155.623167396425
 21
11008.797745990767
 31
0.0
  0
LINE
  8
____1
  6
CENTER2
 62
               4
 10
27117.64634920939
 20
11007.470613597721
 30
0.0
 11
27116.214443206361
 21
11048.44560164163
 31
0.0
  0
LINE
  8
____1
  6
CENTER2
 62
               4
 10
27119.107839453249
 20
11051.548545108475
 30
0.0
 11
27151.088317926547
 21
11052.666130281565
 31
0.0
  0
LINE
  8
____1
  6
CENTER2
 62
               4
 10
26686.871685087623
 20
11036.443683003314
 30
0.0
 11
26688.357589410043
 21
10993.923495423396
 31
0.0
  0
LINE
  8
____1
  6
CENTER2
 62
               4
 10
27326.481254553521
 20
11058.795386465259
 30
0.0
 11
27327.967158875941
 21
11016.275198885342
 31
0.0
  0
LINE
  8
____1
  6
CENTER2
 62
               4
 10
27324.976631927409
 20
11060.242989438193
 30
0.0
 11
27006.27644916339
 21
11059.066404578056
 31
0.0
  0
LINE
  8
____1
  6
CENTER2
 62
               4
 10
26688.271585225317
 20
11037.992787008476
 30
0.0
 11
27006.27644916339
 21
11059.066404578056
 31
0.0
  0
ARC
  8
____1
  6
CENTER2
 62
               4
 10
27120.64451906626
 20
11007.575387207693
 30
0.0
 40
3.0000000000040417
 50
-177.99856444114124
 51
-87.998564441005996
210
0.0
220
0.0
230
1.0
  0
ARC
  8
____1
  6
CENTER2
 62
               4
 10
27152.624997539555
 20
11008.692972380788
 30
0.0
 40
2.9999999999930074
 50
-87.998564441068154
 51
2.0014355589976471
  0
ARC
  8
____1
  6
CENTER2
 62
               4
 10
27324.982169625087
 20
11058.742999660262
 30
0.0
 40
1.49999999999773
 50
2.0014355592778252
 51
90.211524950604527
  0
ARC
  8
____1
  6
CENTER2
 62
               4
 10
26689.856674338476
 20
10993.975882228389
 30
0.0
 40
1.499999999997603
 50
-177.99856444086106
 51
-87.998564440870766
  0
ARC
  8
____1
  6
CENTER2
 62
               4
 10
27326.468073947508
 20
11016.222812080361
 30
0.0
 40
1.4999999999971585
 50
-87.99856444101934
 51
2.0014355586528843
210
0.0
220
0.0
230
1.0
  0
ARC
  8
____1
  6
CENTER2
 62
               4
 10
27151.193091536526
 20
11049.667960424698
 30
0.0
 40
2.9999999999987148
 50
2.0014355590670854
 51
92.001435559000086
  0
ARC
  8
____1
  6
CENTER2
 62
               4
 10
27119.212613063231
 20
11048.550375251598
 30
0.0
 40
3.0000000000059863
 50
92.00143555906223
 51
-177.99856444121068
  0
ARC
  8
____1
  6
CENTER2
 62
               4
 10
26688.370770016056
 20
11036.496069808309
 30
0.0
 40
1.4999999999965978
 50
93.791346166924058
 51
-177.99856444079163
  0
LINE
  8
____1
  6
CENTER2
 62
               4
 10
26689.909061143469
 20
10992.476797299949
 30
0.0
 11
27117.648315387287
 21
11007.424511384141
 31
0.0
  0
LINE
  8
____1
  6
CENTER2
 62
               4
 10
27155.624424247326
 20
11008.751618989156
 30
0.0
 11
27326.520460752497
 21
11014.723727151913
 31
0.0
  0
ENDBLK
  8
0
  0
BLOCK
  8
0
  2
C24
 70
              64
 10
0.0
 20
0.0
  0
ARC
  8
____1
  6
DASHED2
 62
               7
 10
27320.718846802883
 20
10586.334357083409
 30
0.0
 40
4.5000000000003073
 50
90.069940233949282
 51
-179.93005976605053
  0
LINE
  8
____1
  6
DASHED2
 62
               7
 10
27323.228288772385
 20
10578.600925492925
 30
0.0
 11
27280.982352975901
 21
10571.264030205257
 31
0.0
  0
LINE
  8
____1
  6
DASHED2
 62
               7
 10
27316.220681186143
 20
10584.828865109199
 30
0.0
 11
27314.72068230372
 21
10584.827034078609
 31
0.0
  0
ARC
  8
____1
  6
DASHED2
 62
               7
 10
27323.213063169376
 20
10591.073894344301
 30
0.0
 40
1.4999999999964679
 50
0.0699402340652584
 51
80.287533201978434
  0
ARC
  8
____1
  6
DASHED2
 62
               7
 10
27323.228288772385
 20
10578.600925492925
 30
0.0
 40
1.4999999999928277
 50
-80.14765273397019
 51
0.0699402339959478
210
0.0
220
0.0
230
1.0
  0
ARC
  8
____1
  6
DASHED2
 62
               7
 10
27323.228000093237
 20
10578.837414388847
 30
0.0
 40
1.5000000000001126
 50
-89.930059765726469
 51
0.0699402339262979
  0
ARC
  8
____1
  6
DASHED2
 62
               7
 10
27323.213351848532
 20
10590.837405448383
 30
0.0
 40
1.4999999999982758
 50
0.0699402339961174
 51
90.069940233717787
210
0.0
220
0.0
230
1.0
  0
LINE
  8
____1
  6
DASHED2
 62
               7
 10
27323.213063169376
 20
10591.073894344303
 30
0.0
 11
27323.228288772385
 21
10578.600925492925
 31
0.0
  0
LINE
  8
____1
  6
DASHED2
 62
               7
 10
27320.711522680536
 20
10592.334352613176
 30
0.0
 11
27323.211520817949
 21
10592.337404330823
 31
0.0
  0
LINE
  8
____1
  6
DASHED2
 62
               7
 10
27314.718851273137
 20
10586.327032961055
 30
0.0
 11
27314.72068230372
 21
10584.827034078609
 31
0.0
  0
ARC
  8
____1
  6
DASHED2
 62
               7
 10
27320.722508864063
 20
10583.334359318524
 30
0.0
 40
4.4999999999857536
 50
-179.93005976607364
 51
-89.930059765958063
  0
LINE
  8
____1
  6
DASHED2
 62
               7
 10
27314.72068230372
 20
10584.827034078609
 30
0.0
 11
27314.722513334305
 21
10583.327035196171
 31
0.0
  0
LINE
  8
____1
  6
DASHED2
 62
               7
 10
27320.729832986424
 20
10577.334363788757
 30
0.0
 11
27323.229831123834
 21
10577.337415506405
 31
0.0
  0
LINE
  8
____1
  6
DASHED2
 62
               7
 10
27324.713062051815
 20
10591.075725374892
 30
0.0
 11
27324.72828765482
 21
10578.602756523514
 31
0.0
  0
LINE
  8
____1
  6
DASHED2
 62
               7
 10
27323.484953364888
 20
10577.123047525378
 30
0.0
 11
27281.239017568398
 21
10569.786152237712
 31
0.0
  0
LINE
  8
____1
  6
DASHED2
 62
               7
 10
27281.202396956622
 20
10599.786129886548
 30
0.0
 11
27279.70239807418
 21
10599.784298855961
 31
0.0
  0
LINE
  8
____1
  6
DASHED2
 62
               7
 10
27281.202396956622
 20
10599.786129886548
 30
0.0
 11
27281.239017568398
 21
10569.786152237712
 31
0.0
  0
LINE
  8
____1
  6
DASHED2
 62
               7
 10
27281.202396956622
 20
10599.786129886548
 30
0.0
 11
27323.466118946646
 21
10592.552394521372
 31
0.0
  0
LINE
  8
____1
  6
DASHED2
 62
               7
 10
27281.239017568398
 20
10569.786152237712
 30
0.0
 11
27279.739018685948
 21
10569.78432120712
 31
0.0
  0
LINE
  8
____1
  6
DASHED2
 62
               7
 10
27279.70239807418
 20
10599.784298855961
 30
0.0
 11
27279.739018685948
 21
10569.78432120712
 31
0.0
  0
LINE
  8
____1
  6
DASHED2
 62
               7
 10
27320.713353711119
 20
10590.834353730736
 30
0.0
 11
27323.213351848532
 21
10590.837405448383
 31
0.0
  0
LINE
  8
____1
  6
DASHED2
 62
               7
 10
27320.728001955835
 20
10578.834362671198
 30
0.0
 11
27323.228000093237
 21
10578.837414388847
 31
0.0
  0
ARC
  8
____1
  6
DASHED2
 62
               7
 10
27320.718846802883
 20
10586.334357083409
 30
0.0
 40
5.9999999999985834
 50
90.069940233891415
 51
-179.93005976603888
  0
ARC
  8
____1
  6
DASHED2
 62
               7
 10
27320.722508864063
 20
10583.334359318524
 30
0.0
 40
5.9999999999894946
 50
-179.93005976605636
 51
-89.930059765969631
  0
LINE
  8
____1
  6
DASHED2
 62
               7
 10
27316.220681186143
 20
10584.828865109199
 30
0.0
 11
27316.222512216751
 21
10583.328866226761
 31
0.0
  0
LINE
  8
____1
  6
DASHED2
 62
               7
 10
27316.218850155568
 20
10586.328863991645
 30
0.0
 11
27316.220681186143
 21
10584.828865109199
 31
0.0
  0
LINE
  8
____1
  6
DASHED2
 62
               7
 10
27280.949341179356
 20
10598.307629709479
 30
0.0
 11
27323.213063169376
 21
10591.073894344303
 31
0.0
  0
ENDBLK
  8
0
  0
BLOCK
  8
0
  2
C25
 70
              64
 10
0.0
 20
0.0
  0
LINE
  8
____1
  6
CONTINUOUS
 62
               5
 10
27336.009382592187
 20
10294.83526784662
 30
0.0
 11
27349.309498063936
 21
10271.798792103016
 31
0.0
  0
LINE
  8
____1
  6
CONTINUOUS
 62
               5
 10
27336.009382592187
 20
10324.83526784662
 30
0.0
 11
27338.009382592187
 21
10328.299369461756
 31
0.0
  0
LINE
  8
____1
  6
CENTER2
 62
               3
 10
27325.316605023658
 20
10309.83526784662
 30
0.0
 11
27351.178423205478
 21
10309.83526784662
 31
0.0
  0
LINE
  8
____1
  6
CONTINUOUS
 62
               5
 10
27336.009382592187
 20
10294.83526784662
 30
0.0
 11
27336.009382592187
 21
10324.83526784662
 31
0.0
  0
LINE
  8
____1
  6
DASHED2
 62
               7
 10
27337.509382592187
 20
10295.237191635266
 30
0.0
 11
27337.509382592187
 21
10324.433344057974
 31
0.0
  0
LINE
  8
____1
  6
DASHED2
 62
               7
 10
27336.009382592187
 20
10317.33526784662
 30
0.0
 11
27337.509382592187
 21
10317.33526784662
 31
0.0
  0
LINE
  8
____1
  6
DASHED2
 62
               7
 10
27336.009382592187
 20
10302.33526784662
 30
0.0
 11
27337.509382592187
 21
10302.33526784662
 31
0.0
  0
LINE
  8
____1
  6
DASHED2
 62
               7
 10
27337.509382592187
 20
10324.433344057974
 30
0.0
 11
27339.591148620813
 21
10328.039068589018
 31
0.0
  0
LINE
  8
____1
  6
DASHED2
 62
               7
 10
27337.509382592187
 20
10295.237191635266
 30
0.0
 11
27350.731958756151
 21
10272.335017912332
 31
0.0
  0
INSERT
  8
____1
  6
CONTINUOUS
 62
               5
  2
C26
 10
0.0
 20
0.0
 30
0.0
  0
LINE
  8
____1
  6
DASHED2
 62
               7
 10
27337.509382592187
 20
11124.433344057974
 30
0.0
 11
27350.731958756151
 21
11147.335517780908
 31
0.0
  0
LINE
  8
____1
  6
DASHED2
 62
               7
 10
27337.509382592187
 20
11095.237191635266
 30
0.0
 11
27339.591148620813
 21
11091.631467104222
 31
0.0
  0
LINE
  8
____1
  6
DASHED2
 62
               7
 10
27336.009382592187
 20
11117.33526784662
 30
0.0
 11
27337.509382592187
 21
11117.33526784662
 31
0.0
  0
LINE
  8
____1
  6
DASHED2
 62
               7
 10
27336.009382592187
 20
11102.33526784662
 30
0.0
 11
27337.509382592187
 21
11102.33526784662
 31
0.0
  0
LINE
  8
____1
  6
DASHED2
 62
               7
 10
27337.509382592187
 20
11124.433344057974
 30
0.0
 11
27337.509382592187
 21
11095.237191635266
 31
0.0
  0
LINE
  8
____1
  6
CONTINUOUS
 62
               5
 10
27336.009382592187
 20
11124.83526784662
 30
0.0
 11
27336.009382592187
 21
11094.83526784662
 31
0.0
  0
LINE
  8
____1
  6
CENTER2
 62
               3
 10
27325.316605023658
 20
11109.83526784662
 30
0.0
 11
27351.178423205478
 21
11109.83526784662
 31
0.0
  0
LINE
  8
____1
  6
CONTINUOUS
 62
               5
 10
27336.009382592187
 20
11094.83526784662
 30
0.0
 11
27338.009382592187
 21
11091.371166231484
 31
0.0
  0
LINE
  8
____1
  6
CONTINUOUS
 62
               5
 10
27336.009382592187
 20
11124.83526784662
 30
0.0
 11
27349.309498063936
 21
11147.871743590224
 31
0.0
  0
INSERT
  8
____1
  6
CONTINUOUS
 62
               5
  2
C27
 10
0.0
 20
0.0
 30
0.0
  0
ENDBLK
  8
0
  0
BLOCK
  8
0
  2
C26
 70
              64
 10
0.0
 20
0.0
  0
LINE
  8
____1
  6
CONTINUOUS
 62
               5
 10
27336.009382592187
 20
10454.83526784662
 30
0.0
 11
27336.009382592187
 21
10424.83526784662
 31
0.0
  0
POLYLINE
  8
____1
  6
CONTINUOUS
 62
               5
 66
               1
 10
0.0
 20
0.0
 30
0.0
 70
               8
  0
VERTEX
  8
____1
 62
               5
 10
27341.702202915218
 20
10415.83526784662
 30
0.0
 70
              32
  0
VERTEX
  8
____1
 62
               5
 10
27343.023195854767
 20
10416.199881774326
 30
0.0
 70
              32
  0
VERTEX
  8
____1
 62
               5
 10
27344.304051092302
 20
10417.282644947758
 30
0.0
 70
              32
  0
VERTEX
  8
____1
 62
               5
 10
27345.505850489579
 20
10419.050658155793
 30
0.0
 70
              32
  0
VERTEX
  8
____1
 62
               5
 10
27346.592077980044
 20
10421.450201211765
 30
0.0
 70
              32
  0
VERTEX
  8
____1
 62
               5
 10
27347.52972909106
 20
10424.408365214143
 30
0.0
 70
              32
  0
VERTEX
  8
____1
 62
               5
 10
27348.290313768095
 20
10427.83526784662
 30
0.0
 70
              32
  0
VERTEX
  8
____1
 62
               5
 10
27348.850722030609
 20
10431.626784406804
 30
0.0
 70
              32
  0
VERTEX
  8
____1
 62
               5
 10
27349.193926157128
 20
10435.667711582613
 30
0.0
 70
              32
  0
VERTEX
  8
____1
 62
               5
 10
27349.309498063936
 20
10439.83526784662
 30
0.0
 70
              32
  0
VERTEX
  8
____1
 62
               5
 10
27349.193926157128
 20
10444.002824110627
 30
0.0
 70
              32
  0
VERTEX
  8
____1
 62
               5
 10
27348.850722030609
 20
10448.043751286436
 30
0.0
 70
              32
  0
VERTEX
  8
____1
 62
               5
 10
27348.290313768095
 20
10451.83526784662
 30
0.0
 70
              32
  0
VERTEX
  8
____1
 62
               5
 10
27347.52972909106
 20
10455.262170479096
 30
0.0
 70
              32
  0
VERTEX
  8
____1
 62
               5
 10
27346.592077980044
 20
10458.220334481475
 30
0.0
 70
              32
  0
VERTEX
  8
____1
 62
               5
 10
27345.505850489579
 20
10460.619877537447
 30
0.0
 70
              32
  0
VERTEX
  8
____1
 62
               5
 10
27344.304051092302
 20
10462.387890745482
 30
0.0
 70
              32
  0
VERTEX
  8
____1
 62
               5
 10
27343.023195854767
 20
10463.470653918914
 30
0.0
 70
              32
  0
VERTEX
  8
____1
 62
               5
 10
27341.702202915218
 20
10463.83526784662
 30
0.0
 70
              32
  0
VERTEX
  8
____1
 62
               5
 10
27341.702202915218
 20
10463.83526784662
 30
0.0
 70
              32
  0
SEQEND
  8
____1
 62
               5
  0
LINE
  8
____1
  6
CONTINUOUS
 62
               5
 10
27336.009382592187
 20
10424.83526784662
 30
0.0
 11
27341.702202915218
 21
10415.83526784662
 31
0.0
  0
LINE
  8
____1
  6
CONTINUOUS
 62
               5
 10
27336.009382592187
 20
10454.83526784662
 30
0.0
 11
27341.702202915218
 21
10463.83526784662
 31
0.0
  0
ENDBLK
  8
0
  0
BLOCK
  8
0
  2
C27
 70
              64
 10
0.0
 20
0.0
  0
LINE
  8
____1
  6
CONTINUOUS
 62
               5
 10
27336.009382592187
 20
10964.83526784662
 30
0.0
 11
27336.009382592187
 21
10994.83526784662
 31
0.0
  0
POLYLINE
  8
____1
  6
CONTINUOUS
 62
               5
 66
               1
 10
0.0
 20
0.0
 30
0.0
 70
               8
  0
VERTEX
  8
____1
 62
               5
 10
27341.702202915218
 20
11003.83526784662
 30
0.0
 70
              32
  0
VERTEX
  8
____1
 62
               5
 10
27343.023195854767
 20
11003.470653918914
 30
0.0
 70
              32
  0
VERTEX
  8
____1
 62
               5
 10
27344.304051092302
 20
11002.387890745482
 30
0.0
 70
              32
  0
VERTEX
  8
____1
 62
               5
 10
27345.505850489579
 20
11000.619877537447
 30
0.0
 70
              32
  0
VERTEX
  8
____1
 62
               5
 10
27346.592077980044
 20
10998.220334481475
 30
0.0
 70
              32
  0
VERTEX
  8
____1
 62
               5
 10
27347.52972909106
 20
10995.262170479096
 30
0.0
 70
              32
  0
VERTEX
  8
____1
 62
               5
 10
27348.290313768095
 20
10991.83526784662
 30
0.0
 70
              32
  0
VERTEX
  8
____1
 62
               5
 10
27348.850722030609
 20
10988.043751286436
 30
0.0
 70
              32
  0
VERTEX
  8
____1
 62
               5
 10
27349.193926157128
 20
10984.002824110627
 30
0.0
 70
              32
  0
VERTEX
  8
____1
 62
               5
 10
27349.309498063936
 20
10979.83526784662
 30
0.0
 70
              32
  0
VERTEX
  8
____1
 62
               5
 10
27349.193926157128
 20
10975.667711582613
 30
0.0
 70
              32
  0
VERTEX
  8
____1
 62
               5
 10
27348.850722030609
 20
10971.626784406804
 30
0.0
 70
              32
  0
VERTEX
  8
____1
 62
               5
 10
27348.290313768095
 20
10967.83526784662
 30
0.0
 70
              32
  0
VERTEX
  8
____1
 62
               5
 10
27347.52972909106
 20
10964.408365214143
 30
0.0
 70
              32
  0
VERTEX
  8
____1
 62
               5
 10
27346.592077980044
 20
10961.450201211765
 30
0.0
 70
              32
  0
VERTEX
  8
____1
 62
               5
 10
27345.505850489579
 20
10959.050658155793
 30
0.0
 70
              32
  0
VERTEX
  8
____1
 62
               5
 10
27344.304051092302
 20
10957.282644947758
 30
0.0
 70
              32
  0
VERTEX
  8
____1
 62
               5
 10
27343.023195854767
 20
10956.199881774326
 30
0.0
 70
              32
  0
VERTEX
  8
____1
 62
               5
 10
27341.702202915218
 20
10955.83526784662
 30
0.0
 70
              32
  0
VERTEX
  8
____1
 62
               5
 10
27341.702202915218
 20
10955.83526784662
 30
0.0
 70
              32
  0
SEQEND
  8
____1
 62
               5
  0
LINE
  8
____1
  6
CONTINUOUS
 62
               5
 10
27336.009382592187
 20
10994.83526784662
 30
0.0
 11
27341.702202915218
 21
11003.83526784662
 31
0.0
  0
LINE
  8
____1
  6
CONTINUOUS
 62
               5
 10
27336.009382592187
 20
10964.83526784662
 30
0.0
 11
27341.702202915218
 21
10955.83526784662
 31
0.0
  0
ENDBLK
  8
0
  0
BLOCK
  8
0
  2
C28
 70
              64
 10
0.0
 20
0.0
  0
LINE
  8
____1
  6
DASHED2
 62
               7
 10
27313.243774021536
 20
11020.325555882127
 30
0.0
 11
27313.24194299095
 21
11021.825554764569
 31
0.0
  0
LINE
  8
____1
  6
DASHED2
 62
               7
 10
27279.1958255998
 20
11021.783995078687
 30
0.0
 11
27321.741936658116
 21
11021.835930604566
 31
0.0
  0
ARC
  8
____1
  6
DASHED2
 62
               7
 10
27321.741936658116
 20
11021.835930604566
 30
0.0
 40
1.5000000000110221
 50
-89.930059766143017
 51
0.0699402341340601
210
0.0
220
0.0
230
1.0
  0
ARC
  8
____1
  6
CONTINUOUS
 62
               5
 10
27321.741936658116
 20
11021.835930604566
 30
0.0
 40
1.5000000000000948
 50
0.0699402341340601
 51
90.069940233717688
210
0.0
220
0.0
230
1.0
  0
LINE
  8
____1
  6
DASHED2
 62
               7
 10
27279.973403256488
 20
10384.784469668355
 30
0.0
 11
27322.519514314816
 21
10384.836405194235
 31
0.0
  0
ARC
  8
____1
  6
CONTINUOUS
 62
               5
 10
27322.519514314823
 20
10384.836405194235
 30
0.0
 40
1.5000000000001081
 50
-89.930059765865437
 51
0.0699402339954389
  0
ARC
  8
____1
  6
DASHED2
 62
               7
 10
27322.519514314823
 20
10384.836405194235
 30
0.0
 40
1.5000000000037417
 50
0.0699402339954389
 51
90.069940233995609
  0
LINE
  8
____1
  6
CONTINUOUS
 62
               5
 10
27324.019513197269
 20
10384.838236224825
 30
0.0
 11
27323.241935540569
 21
11021.837761635159
 31
0.0
  0
LINE
  8
____1
  6
CONTINUOUS
 62
               5
 10
27279.975234287085
 20
10383.284470785913
 30
0.0
 11
27322.521345345416
 21
10383.336406311793
 31
0.0
  0
LINE
  8
____1
  6
CONTINUOUS
 62
               5
 10
27279.193994569203
 20
11023.283993961129
 30
0.0
 11
27321.740105627534
 21
11023.335929487008
 31
0.0
  0
LINE
  8
____1
  6
DASHED2
 62
               7
 10
27314.019520647653
 20
10384.826029354232
 30
0.0
 11
27313.24194299095
 21
11021.825554764569
 31
0.0
  0
LINE
  8
____1
  6
CONTINUOUS
 62
               5
 10
27277.696501410897
 20
11021.829017035165
 30
0.0
 11
27268.130765718564
 21
10703.270250798205
 31
0.0
  0
ARC
  8
____1
  6
DASHED2
 62
               7
 10
27279.973403256488
 20
10384.784469668355
 30
0.0
 40
1.4999999999954046
 50
-178.14014915785995
 51
-89.930059765726469
  0
LINE
  8
____1
  6
CONTINUOUS
 62
               5
 10
27278.474193451162
 20
10384.735787437512
 30
0.0
 11
27268.130765718564
 21
10703.270250798205
 31
0.0
  0
LINE
  8
____1
  6
DASHED2
 62
               7
 10
27313.243774021536
 20
11020.325555882127
 30
0.0
 11
27323.243766571159
 21
11020.337762752717
 31
0.0
  0
LINE
  8
____1
  6
DASHED2
 62
               7
 10
27314.017689617071
 20
10386.326028236674
 30
0.0
 11
27324.017682166672
 21
10386.338235107267
 31
0.0
  0
LINE
  8
____1
  6
DASHED2
 62
               7
 10
27279.973403256488
 20
10384.784469668355
 30
0.0
 11
27269.631496843609
 21
10703.272082722637
 31
0.0
  0
LINE
  8
____1
  6
DASHED2
 62
               7
 10
27279.1958255998
 20
11021.783995078687
 30
0.0
 11
27269.631496843609
 21
10703.272082722637
 31
0.0
  0
ARC
  8
____1
  6
CONTINUOUS
 62
               5
 10
27279.1958255998
 20
11021.783995078687
 30
0.0
 40
1.5000000000001126
 50
90.069940234273531
 51
178.28002962562178
  0
ENDBLK
  8
0
  0
BLOCK
  8
0
  2
C29
 70
              64
 10
0.0
 20
0.0
  0
LINE
  8
____1
  6
DASHED2
 62
               7
 10
27328.789964415391
 20
10416.352640403535
 30
0.0
 11
27357.503989784989
 21
10424.084120008629
 31
0.0
  0
LINE
  8
____1
  6
DASHED2
 62
               7
 10
27329.055710588509
 20
10414.352963306614
 30
0.0
 11
27358.023985675834
 21
10422.152901669475
 31
0.0
  0
LINE
  8
____1
  6
DASHED2
 62
               7
 10
27329.055710588509
 20
10414.352963306614
 30
0.0
 11
27286.055742625169
 21
10414.300473763069
 31
0.0
  0
LINE
  8
____1
  6
DASHED2
 62
               7
 10
27324.055714313705
 20
10414.346859871319
 30
0.0
 11
27324.053272939593
 21
10416.346858381243
 31
0.0
  0
LINE
  8
____1
  6
DASHED2
 62
               7
 10
27286.041094380467
 20
10426.300464822607
 30
0.0
 11
27284.04109587054
 21
10426.298023448488
 31
0.0
  0
LINE
  8
____1
  6
DASHED2
 62
               7
 10
27284.053302740187
 20
10416.298031674005
 30
0.0
 11
27284.026447625838
 21
10438.298014508024
 31
0.0
  0
LINE
  8
____1
  6
DASHED2
 62
               7
 10
27357.503989784989
 20
10424.084120008629
 30
0.0
 11
27358.023985675834
 21
10422.152901669475
 31
0.0
  0
LINE
  8
____1
  6
DASHED2
 62
               7
 10
27286.026446135762
 20
10438.300455882139
 30
0.0
 11
27286.053301251053
 21
10416.300472272993
 31
0.0
  0
LINE
  8
____1
  6
DASHED2
 62
               7
 10
27286.026446135762
 20
10438.300455882139
 30
0.0
 11
27284.026447625838
 21
10438.298014508024
 31
0.0
  0
LINE
  8
____1
  6
DASHED2
 62
               7
 10
27287.223924828399
 20
10435.906009314785
 30
0.0
 11
27286.022245446922
 21
10434.307270229097
 31
0.0
  0
ARC
  8
____1
  6
DASHED2
 62
               7
 10
27289.026443900639
 20
10438.304117943318
 30
0.0
 40
4.9999999999987006
 50
-126.93005976596365
 51
-179.93005976600432
  0
ARC
  8
____1
  6
DASHED2
 62
               7
 10
27289.026443900639
 20
10438.304117943318
 30
0.0
 40
3.0000000000012599
 50
-126.93005976600392
 51
-179.93005976600423
  0
LINE
  8
____1
  6
DASHED2
 62
               7
 10
27284.053302740187
 20
10416.298031674005
 30
0.0
 11
27284.026447625838
 21
10438.298014508024
 31
0.0
  0
ARC
  8
____1
  6
DASHED2
 62
               7
 10
27286.053301251053
 20
10416.300472272993
 30
0.0
 40
1.9999999999975442
 50
-179.93008197190008
 51
-89.930059766108656
  0
LINE
  8
____1
  6
DASHED2
 62
               7
 10
27328.789964415391
 20
10416.352640403535
 30
0.0
 11
27286.053301251053
 21
10416.300472272993
 31
0.0
  0
ENDBLK
  8
0
  0
BLOCK
  8
0
  2
C30
 70
              64
 10
0.0
 20
0.0
  0
INSERT
  8
____1
  6
DASHED2
 62
               7
  2
C31
 10
0.0
 20
0.0
 30
0.0
  0
ENDBLK
  8
0
  0
BLOCK
  8
0
  2
C31
 70
              64
 10
0.0
 20
0.0
  0
LINE
  8
____1
  6
DASHED2
 62
               7
 10
27314.250356536068
 20
10408.335267846624
 30
0.0
 11
27319.869617984412
 21
10408.335267846624
 31
0.0
  0
LINE
  8
____1
  6
DASHED2
 62
               7
 10
27297.392572191042
 20
10408.335267846624
 30
0.0
 11
27303.011833639386
 21
10408.335267846624
 31
0.0
  0
ARC
  8
____1
  6
DASHED2
 62
               7
 10
27315.554949747449
 20
10421.835267846622
 30
0.0
 40
5.000000000000286
 50
-27.152325537555768
 51
152.84773456653235
210
0.0
220
0.0
230
1.0
  0
ARC
  8
____1
  6
DASHED2
 62
               7
 10
27315.554949747449
 20
10421.835267846622
 30
0.0
 40
10.000000000001402
 50
-27.152325537564561
 51
152.84773456652309
210
0.0
220
0.0
230
1.0
  0
LINE
  8
____1
  6
DASHED2
 62
               7
 10
27320.003930579245
 20
10419.553476980158
 30
0.0
 11
27314.250356536068
 21
10408.335267846624
 31
0.0
  0
LINE
  8
____1
  6
DASHED2
 62
               7
 10
27311.105964128394
 20
10424.117049378996
 30
0.0
 11
27303.011833639386
 21
10408.335267846624
 31
0.0
  0
LINE
  8
____1
  6
DASHED2
 62
               7
 10
27324.452913804678
 20
10417.271690780735
 30
0.0
 11
27319.869617984412
 21
10408.335267846624
 31
0.0
  0
LINE
  8
____1
  6
DASHED2
 62
               7
 10
27306.656980902968
 20
10426.398835578415
 30
0.0
 11
27297.392572191042
 21
10408.335267846624
 31
0.0
  0
ENDBLK
  8
0
  0
BLOCK
  8
0
  2
C32
 70
              64
 10
0.0
 20
0.0
  0
INSERT
  8
____1
  6
DASHED2
 62
               4
  2
C33
 10
0.0
 20
0.0
 30
0.0
  0
INSERT
  8
____1
  6
DASHED2
 62
               4
  2
C34
 10
0.0
 20
0.0
 30
0.0
  0
ENDBLK
  8
0
  0
BLOCK
  8
0
  2
C33
 70
              64
 10
0.0
 20
0.0
  0
CIRCLE
  8
____1
  6
DOT
 62
               4
 10
27308.702327413954
 20
10722.835824333637
 30
0.0
 40
15.000000000000432
  0
LINE
  8
____1
  6
DOT
 62
               4
 10
27302.893574727779
 20
10730.747317591187
 30
0.0
 11
27312.649505213776
 21
10731.822098352943
 31
0.0
  0
LINE
  8
____1
  6
DOT
 62
               4
 10
27318.45825789994
 20
10723.910605095389
 30
0.0
 11
27314.511080100117
 21
10714.924331076087
 31
0.0
  0
LINE
  8
____1
  6
DOT
 62
               4
 10
27298.94639692796
 20
10721.761043571882
 30
0.0
 11
27302.893574727779
 21
10730.747317591187
 31
0.0
  0
LINE
  8
____1
  6
DOT
 62
               4
 10
27304.75514961412
 20
10713.849550314335
 30
0.0
 11
27298.94639692796
 21
10721.761043571882
 31
0.0
  0
LINE
  8
____1
  6
DOT
 62
               4
 10
27314.511080100117
 20
10714.924331076087
 30
0.0
 11
27304.75514961412
 21
10713.849550314335
 31
0.0
  0
LINE
  8
____1
  6
DOT
 62
               4
 10
27312.649505213776
 20
10731.822098352943
 30
0.0
 11
27318.45825789994
 21
10723.910605095389
 31
0.0
  0
CIRCLE
  8
____1
  6
DOT
 62
               4
 10
27308.702327413954
 20
10722.835824333637
 30
0.0
 40
8.5000000000003588
  0
ENDBLK
  8
0
  0
BLOCK
  8
0
  2
C34
 70
              64
 10
0.0
 20
0.0
  0
CIRCLE
  8
____1
  6
DOT
 62
               4
 10
27160.745293092903
 20
10924.351868347305
 30
0.0
 40
5.2499999999985567
  0
CIRCLE
  8
____1
  6
DOT
 62
               4
 10
27308.702202915214
 20
10722.835267846618
 30
0.0
 40
4.9999999999978595
  0
CIRCLE
  8
____1
  6
DOT
 62
               4
 10
27308.702202915214
 20
10722.835267846618
 30
0.0
 40
4.2499999999998463
  0
LINE
  8
____1
  6
DOT
 62
               4
 10
27318.778129298469
 20
10730.233676480308
 30
0.0
 11
27170.821095293588
 21
10931.749720063359
 31
0.0
  0
ARC
  8
____1
  6
DOT
 62
               4
 10
27308.702327413954
 20
10722.835824333637
 30
0.0
 40
12.500000000002011
 50
-143.71313584591263
 51
36.28684841966151
  0
LINE
  8
____1
  6
DOT
 62
               4
 10
27298.626527561013
 20
10715.437969419974
 30
0.0
 11
27150.669490892215
 21
10916.954016631254
 31
0.0
  0
ARC
  8
____1
  6
DOT
 62
               4
 10
27160.745293092903
 20
10924.351868347305
 30
0.0
 40
12.499999999998867
 50
36.286845779973731
 51
-143.71315161403047
  0
ENDBLK
  8
0
  0
BLOCK
  8
0
  2
C35
 70
              64
 10
0.0
 20
0.0
  0
INSERT
  8
____1
  6
DASHED2
 62
               4
  2
C36
 10
0.0
 20
0.0
 30
0.0
  0
INSERT
  8
____1
  6
DASHED2
 62
               4
  2
C37
 10
0.0
 20
0.0
 30
0.0
  0
ENDBLK
  8
0
  0
BLOCK
  8
0
  2
C36
 70
              64
 10
0.0
 20
0.0
  0
CIRCLE
  8
____1
  6
DOT
 62
               4
 10
27308.702505653175
 20
10612.835751093418
 30
0.0
 40
14.999999999997128
  0
LINE
  8
____1
  6
DOT
 62
               4
 10
27305.860476410682
 20
10622.230228360311
 30
0.0
 11
27315.417347000337
 21
10619.994259249162
 31
0.0
  0
LINE
  8
____1
  6
DOT
 62
               4
 10
27318.259376242819
 20
10610.59978198227
 30
0.0
 11
27311.54453489566
 21
10603.441273826526
 31
0.0
  0
LINE
  8
____1
  6
DOT
 62
               4
 10
27299.145635063524
 20
10615.071720204563
 30
0.0
 11
27305.860476410682
 21
10622.230228360311
 31
0.0
  0
LINE
  8
____1
  6
DOT
 62
               4
 10
27301.987664306009
 20
10605.677242937674
 30
0.0
 11
27299.145635063524
 21
10615.071720204563
 31
0.0
  0
LINE
  8
____1
  6
DOT
 62
               4
 10
27311.54453489566
 20
10603.441273826526
 30
0.0
 11
27301.987664306009
 21
10605.677242937674
 31
0.0
  0
LINE
  8
____1
  6
DOT
 62
               4
 10
27315.417347000337
 20
10619.994259249162
 30
0.0
 11
27318.259376242819
 21
10610.59978198227
 31
0.0
  0
CIRCLE
  8
____1
  6
DOT
 62
               4
 10
27308.702505653175
 20
10612.835751093418
 30
0.0
 40
8.4999999999974243
  0
ENDBLK
  8
0
  0
BLOCK
  8
0
  2
C37
 70
              64
 10
0.0
 20
0.0
  0
CIRCLE
  8
____1
  6
DOT
 62
               4
 10
27236.31181429615
 20
10852.125508092857
 30
0.0
 40
5.2500000000024416
  0
CIRCLE
  8
____1
  6
DOT
 62
               4
 10
27308.702202915218
 20
10612.83526784662
 30
0.0
 40
4.9999999999982885
  0
CIRCLE
  8
____1
  6
DOT
 62
               4
 10
27308.702202915218
 20
10612.83526784662
 30
0.0
 40
4.2499999999978559
  0
LINE
  8
____1
  6
DOT
 62
               4
 10
27320.666993348455
 20
10616.455286172606
 30
0.0
 11
27248.276302146125
 21
10855.74504266071
 31
0.0
  0
ARC
  8
____1
  6
DOT
 62
               4
 10
27308.702505653175
 20
10612.835751093418
 30
0.0
 40
12.500000000001391
 50
-163.16820057516205
 51
16.83178369039172
  0
LINE
  8
____1
  6
DOT
 62
               4
 10
27296.738018951877
 20
10609.216212728572
 30
0.0
 11
27224.347326446175
 21
10848.505973525011
 31
0.0
  0
ARC
  8
____1
  6
DOT
 62
               4
 10
27236.31181429615
 20
10852.125508092857
 30
0.0
 40
12.500000000001288
 50
16.831781050727464
 51
-163.16821634329503
  0
ENDBLK
  8
0
  0
BLOCK
  8
0
  2
C38
 70
              64
 10
0.0
 20
0.0
  0
CIRCLE
  8
____1
  6
CONTINUOUS
 62
               7
 10
27310.427733044813
 20
10831.82197793488
 30
0.0
 40
8.0
  0
LINE
  8
____1
  6
CONTINUOUS
 62
               7
 10
27302.427733044813
 20
10836.440780088396
 30
0.0
 11
27302.427733044813
 21
10827.203175781362
 31
0.0
  0
LINE
  8
____1
  6
CONTINUOUS
 62
               7
 10
27310.427733044813
 20
10841.059582241913
 30
0.0
 11
27302.427733044813
 21
10836.440780088396
 31
0.0
  0
LINE
  8
____1
  6
CONTINUOUS
 62
               7
 10
27318.427733044813
 20
10836.440780088396
 30
0.0
 11
27310.427733044813
 21
10841.059582241913
 31
0.0
  0
LINE
  8
____1
  6
CONTINUOUS
 62
               7
 10
27318.427733044813
 20
10827.203175781362
 30
0.0
 11
27318.427733044813
 21
10836.440780088396
 31
0.0
  0
LINE
  8
____1
  6
CONTINUOUS
 62
               7
 10
27310.427733044813
 20
10822.584373627844
 30
0.0
 11
27318.427733044813
 21
10827.203175781362
 31
0.0
  0
LINE
  8
____1
  6
CONTINUOUS
 62
               7
 10
27302.427733044813
 20
10827.203175781362
 30
0.0
 11
27310.427733044813
 21
10822.584373627844
 31
0.0
  0
ENDBLK
  8
0
  0
BLOCK
  8
0
  2
C39
 70
              64
 10
0.0
 20
0.0
  0
CIRCLE
  8
____1
  6
CONTINUOUS
 62
               7
 10
27302.202202915218
 20
10581.957333268836
 30
0.0
 40
14.999999999998533
  0
CIRCLE
  8
____1
  6
CONTINUOUS
 62
               7
 10
27302.2017611148
 20
10581.956972727408
 30
0.0
 40
8.5000000000009504
  0
LINE
  8
____1
  6
CONTINUOUS
 62
               7
 10
27311.806294487684
 20
10579.935519779052
 30
0.0
 11
27305.253398195404
 21
10572.628476360818
 31
0.0
  0
ARC
  8
____1
  6
CONTINUOUS
 62
               7
 10
27310.427733044813
 20
10831.821977934878
 30
0.0
 40
12.500000000005274
 50
-1.8854931280389879
 51
178.11450947794751
  0
LINE
  8
____1
  6
CONTINUOUS
 62
               7
 10
27295.64886482252
 20
10574.649929309177
 30
0.0
 11
27292.597227741906
 21
10583.97842567577
 31
0.0
  0
LINE
  8
____1
  6
CONTINUOUS
 62
               7
 10
27292.597227741906
 20
10583.97842567577
 30
0.0
 11
27299.150124034182
 21
10591.285469094004
 31
0.0
  0
LINE
  8
____1
  6
CONTINUOUS
 62
               7
 10
27299.150124034182
 20
10591.285469094004
 30
0.0
 11
27308.754657407069
 21
10589.264016145649
 31
0.0
  0
LINE
  8
____1
  6
CONTINUOUS
 62
               7
 10
27305.253398195404
 20
10572.628476360818
 30
0.0
 11
27295.64886482252
 21
10574.649929309177
 31
0.0
  0
LINE
  8
____1
  6
CONTINUOUS
 62
               7
 10
27308.754657407069
 20
10589.264016145649
 30
0.0
 11
27311.806294487684
 21
10579.935519779052
 31
0.0
  0
ARC
  8
____1
  6
CONTINUOUS
 62
               7
 10
27310.427733044813
 20
10831.821977934878
 30
0.0
 40
12.500000000005274
 50
-1.8854931280389879
 51
178.11450947794751
  0
LINE
  8
____1
  6
CONTINUOUS
 62
               7
 10
27289.981780653336
 20
10590.655682522643
 30
0.0
 11
27297.934500811516
 21
10832.23325444136
 31
0.0
  0
LINE
  8
____1
  6
CONTINUOUS
 62
               7
 10
27314.968245119948
 20
10589.833129509685
 30
0.0
 11
27322.920965278121
 21
10831.4107014284
 31
0.0
  0
ENDBLK
  8
0
  0
BLOCK
  8
0
  2
C40
 70
              64
 10
0.0
 20
0.0
  0
TEXT
  8
____1
  6
CONTINUOUS
 62
               7
 10
27361.114376208705
 20
11419.761145960492
 30
0.0
 40
25.399999618530273
  1
取付け穴　形状変更
  7
STYLE1
  0
TEXT
  8
____1
  6
CONTINUOUS
 62
               7
 10
27160.614372394008
 20
11419.761145960492
 30
0.0
 40
25.399999618530273
  1
H21.5.29
  7
STYLE1
  0
TEXT
  8
____1
  6
DOT
 62
               7
 10
27690.014372012538
 20
11419.761145960492
 30
0.0
 40
25.399999618530273
  1
園原
  7
STYLE1
  0
INSERT
  8
____1
  6
CONTINUOUS
 62
               5
  2
C41
 10
0.0
 20
0.0
 30
0.0
  0
ENDBLK
  8
0
  0
BLOCK
  8
0
  2
C41
 70
              64
 10
0.0
 20
0.0
  0
LINE
  8
____1
  6
CONTINUOUS
 62
               5
 10
27113.140088542725
 20
11446.517919164558
 30
0.0
 11
27093.340088542729
 21
11412.223313174694
 31
0.0
  0
LINE
  8
____1
  6
CONTINUOUS
 62
               5
 10
27113.140088542725
 20
11446.517919164558
 30
0.0
 11
27132.940088542728
 21
11412.223313174694
 31
0.0
  0
LINE
  8
____1
  6
CONTINUOUS
 62
               5
 10
27093.340088542729
 20
11412.223313174694
 30
0.0
 11
27132.940088542728
 21
11412.223313174694
 31
0.0
  0
TEXT
  8
____1
  6
CONTINUOUS
 62
               5
 10
27107.540088351994
 20
11417.606646253715
 30
0.0
 40
22.399999618530273
  1
1
  7
STYLE1
  0
ENDBLK
  8
0
  0
BLOCK
  8
0
  2
C42
 70
              64
 10
0.0
 20
0.0
  0
INSERT
  8
____1
  6
DASHED2
 62
               4
  2
C43
 10
0.0
 20
0.0
 30
0.0
  0
INSERT
  8
____1
  6
DASHED2
 62
               4
  2
C44
 10
0.0
 20
0.0
 30
0.0
  0
CIRCLE
  8
____1
  6
CENTER2
 62
               4
 10
27302.202130769143
 20
10834.21160264187
 30
0.0
 40
15.000000000000949
  0
INSERT
  8
____1
  6
DASHED2
 62
               4
  2
C45
 10
0.0
 20
0.0
 30
0.0
  0
ENDBLK
  8
0
  0
BLOCK
  8
0
  2
C43
 70
              64
 10
0.0
 20
0.0
  0
LINE
  8
____1
  6
CENTER2
 62
               4
 10
27295.682007947718
 20
10841.547904961626
 30
0.0
 11
27305.295493537189
 21
10843.526345800899
 31
0.0
  0
LINE
  8
____1
  6
CENTER2
 62
               4
 10
27311.81561635861
 20
10836.190043481136
 30
0.0
 11
27308.722253590564
 21
10826.875300322106
 31
0.0
  0
LINE
  8
____1
  6
CENTER2
 62
               4
 10
27292.588645179676
 20
10832.233161802596
 30
0.0
 11
27295.682007947718
 21
10841.547904961626
 31
0.0
  0
LINE
  8
____1
  6
CENTER2
 62
               4
 10
27299.10876800109
 20
10824.896859482844
 30
0.0
 11
27292.588645179676
 21
10832.233161802596
 31
0.0
  0
LINE
  8
____1
  6
CENTER2
 62
               4
 10
27308.722253590564
 20
10826.875300322106
 30
0.0
 11
27299.10876800109
 21
10824.896859482844
 31
0.0
  0
LINE
  8
____1
  6
CENTER2
 62
               4
 10
27305.295493537189
 20
10843.526345800899
 30
0.0
 11
27311.81561635861
 21
10836.190043481136
 31
0.0
  0
CIRCLE
  8
____1
  6
CENTER2
 62
               4
 10
27302.202130769143
 20
10834.21160264187
 30
0.0
 40
8.5000000000010747
  0
ENDBLK
  8
0
  0
BLOCK
  8
0
  2
C44
 70
              64
 10
0.0
 20
0.0
  0
LINE
  8
____1
  6
CENTER2
 62
               4
 10
27129.605523642203
 20
11028.413602194269
 30
0.0
 11
27139.21900923167
 21
11030.392043033546
 31
0.0
  0
LINE
  8
____1
  6
CENTER2
 62
               4
 10
27145.739132053088
 20
11023.055740713786
 30
0.0
 11
27142.645769285045
 21
11013.740997554753
 31
0.0
  0
LINE
  8
____1
  6
CENTER2
 62
               4
 10
27126.512160874157
 20
11019.098859035246
 30
0.0
 11
27129.605523642203
 21
11028.413602194269
 31
0.0
  0
LINE
  8
____1
  6
CENTER2
 62
               4
 10
27133.032283695575
 20
11011.762556715483
 30
0.0
 11
27126.512160874157
 21
11019.098859035246
 31
0.0
  0
LINE
  8
____1
  6
CENTER2
 62
               4
 10
27142.645769285045
 20
11013.740997554753
 30
0.0
 11
27133.032283695575
 21
11011.762556715483
 31
0.0
  0
LINE
  8
____1
  6
CENTER2
 62
               4
 10
27139.21900923167
 20
11030.392043033546
 30
0.0
 11
27145.739132053088
 21
11023.055740713786
 31
0.0
  0
CIRCLE
  8
____1
  6
CENTER2
 62
               4
 10
27136.125646463628
 20
11021.077299874512
 30
0.0
 40
8.5000000000068212
  0
ENDBLK
  8
0
  0
BLOCK
  8
0
  2
C45
 70
              64
 10
0.0
 20
0.0
  0
CIRCLE
  8
____1
  6
DOT
 62
               4
 10
27136.125646463628
 20
11021.077299874512
 30
0.0
 40
5.2500000000015721
  0
CIRCLE
  8
____1
  6
DOT
 62
               4
 10
27302.202130769143
 20
10834.21160264187
 30
0.0
 40
4.9999999999976286
  0
CIRCLE
  8
____1
  6
DOT
 62
               4
 10
27302.202130769143
 20
10834.21160264187
 30
0.0
 40
4.2499999999959535
  0
LINE
  8
____1
  6
CENTER2
 62
               4
 10
27311.545459138892
 20
10842.515996525035
 30
0.0
 11
27145.468903042191
 21
11029.381127697092
 31
0.0
  0
ARC
  8
____1
  6
CENTER2
 62
               4
 10
27302.202202915214
 20
10834.212168303147
 30
0.0
 40
12.500000000000938
 50
-138.37085889572856
 51
41.629125369878544
  0
LINE
  8
____1
  6
CENTER2
 62
               4
 10
27292.858948971905
 20
10825.908337515433
 30
0.0
 11
27126.782389885058
 21
11012.773472051933
 31
0.0
  0
ARC
  8
____1
  6
CENTER2
 62
               4
 10
27136.125646463628
 20
11021.077299874512
 30
0.0
 40
12.499999999999625
 50
41.629122730194126
 51
-138.37087466381655
  0
ENDBLK
  8
0
  0
BLOCK
  8
0
  2
C46
 70
              64
 10
0.0
 20
0.0
  0
ARC
  8
____1
  6
DASHED2
 62
               7
 10
27288.526444273481
 20
10438.303507599792
 30
0.0
 40
15.000000000002835
 50
-89.930059766073882
 51
90.069940234037333
  0
ARC
  8
____1
  6
DASHED2
 62
               7
 10
27288.526444273481
 20
10438.303507599792
 30
0.0
 40
5.5000000000046025
 50
-89.930059766193935
 51
90.069940234109396
  0
LINE
  8
____1
  6
DASHED2
 62
               7
 10
27281.881216792059
 20
10453.29540702614
 30
0.0
 11
27281.892813319126
 21
10443.795414104012
 31
0.0
  0
LINE
  8
____1
  6
DASHED2
 62
               7
 10
27281.875113356749
 20
10458.295403300948
 30
0.0
 11
27281.881216792059
 21
10453.29540702614
 31
0.0
  0
LINE
  8
____1
  6
DASHED2
 62
               7
 10
27281.917837403827
 20
10423.295429377305
 30
0.0
 11
27281.923940839122
 21
10418.295433102498
 31
0.0
  0
LINE
  8
____1
  6
DASHED2
 62
               7
 10
27279.892814809198
 20
10443.792972729892
 30
0.0
 11
27288.519730494641
 21
10443.803503502073
 31
0.0
  0
LINE
  8
____1
  6
DASHED2
 62
               7
 10
27279.906242366844
 20
10432.792980925316
 30
0.0
 11
27288.533158052291
 21
10432.803511697501
 31
0.0
  0
LINE
  8
____1
  6
DASHED2
 62
               7
 10
27288.508133967574
 20
10453.303496424205
 30
0.0
 11
27279.881218282131
 21
10453.292965652023
 31
0.0
  0
LINE
  8
____1
  6
DASHED2
 62
               7
 10
27279.917838893911
 20
10423.292988003184
 30
0.0
 11
27288.544754579358
 21
10423.30351877537
 31
0.0
  0
LINE
  8
____1
  6
DASHED2
 62
               7
 10
27279.906242366844
 20
10432.792980925316
 30
0.0
 11
27279.923942329202
 21
10418.292991728378
 31
0.0
  0
LINE
  8
____1
  6
DASHED2
 62
               7
 10
27279.923942329202
 20
10418.292991728378
 30
0.0
 11
27281.923940839122
 21
10418.295433102498
 31
0.0
  0
LINE
  8
____1
  6
DASHED2
 62
               7
 10
27281.875113356749
 20
10458.295403300948
 30
0.0
 11
27279.875114846829
 21
10458.292961926833
 31
0.0
  0
LINE
  8
____1
  6
DASHED2
 62
               7
 10
27279.875114846829
 20
10458.292961926833
 30
0.0
 11
27279.892814809198
 21
10443.792972729892
 31
0.0
  0
LINE
  8
____1
  6
DASHED2
 62
               7
 10
27281.906240876764
 20
10432.795422299439
 30
0.0
 11
27281.917837403827
 21
10423.295429377305
 31
0.0
  0
ENDBLK
  8
0
  0
BLOCK
  8
0
  2
C47
 70
              64
 10
0.0
 20
0.0
  0
LINE
  8
____1
  6
DOT
 62
               7
 10
25327.708346827079
 20
9699.6648777117916
 30
0.0
 11
25357.458346827079
 21
9699.6648777117916
 31
0.0
  0
INSERT
  8
____1
  6
DASHED2
 62
               7
  2
C48
 10
0.0
 20
0.0
 30
0.0
  0
INSERT
  8
____1
  6
DASHED2
 62
               7
  2
C49
 10
0.0
 20
0.0
 30
0.0
  0
INSERT
  8
____1
  6
DASHED2
 62
               7
  2
C50
 10
0.0
 20
0.0
 30
0.0
  0
INSERT
  8
____1
  6
DASHED2
 62
               7
  2
C51
 10
0.0
 20
0.0
 30
0.0
  0
INSERT
  8
____1
  6
DASHED2
 62
               7
  2
C52
 10
0.0
 20
0.0
 30
0.0
  0
LINE
  8
____1
  6
DASHED2
 62
               7
 10
25357.708346827079
 20
9713.729832288016
 30
0.0
 11
25357.708346827079
 21
9694.0999231355672
 31
0.0
  0
LINE
  8
____1
  6
DASHED2
 62
               7
 10
25363.94934038457
 20
9699.0074004236776
 30
0.0
 11
25357.708346827079
 21
9699.0074004236776
 31
0.0
  0
LINE
  8
____1
  6
DASHED2
 62
               7
 10
25363.949157448522
 20
9694.0999231355672
 30
0.0
 11
25357.708346827079
 21
9694.0999231355672
 31
0.0
  0
LINE
  8
____1
  6
DASHED2
 62
               7
 10
25363.949157448522
 20
9713.729832288016
 30
0.0
 11
25357.708346827079
 21
9713.729832288016
 31
0.0
  0
LINE
  8
____1
  6
DASHED2
 62
               7
 10
25364.708346827079
 20
9712.4148777117916
 30
0.0
 11
25363.949157448522
 21
9713.729832288016
 31
0.0
  0
LINE
  8
____1
  6
DASHED2
 62
               7
 10
25363.94934038457
 20
9708.822354999902
 30
0.0
 11
25357.708346827079
 21
9708.822354999902
 31
0.0
  0
LINE
  8
____1
  6
DASHED2
 62
               7
 10
25364.708346827079
 20
9712.4148777117916
 30
0.0
 11
25364.708346827079
 21
9703.9148777117916
 31
0.0
  0
LINE
  8
____1
  6
DASHED2
 62
               7
 10
25364.708346827079
 20
9695.4148777117916
 30
0.0
 11
25363.949157448522
 21
9694.0999231355672
 31
0.0
  0
LINE
  8
____1
  6
DASHED2
 62
               7
 10
25364.708346827079
 20
9695.4148777117916
 30
0.0
 11
25364.708346827079
 21
9703.9148777117916
 31
0.0
  0
ARC
  8
____1
  6
DASHED2
 62
               7
 10
25348.463804796829
 20
9703.9148777117916
 30
0.0
 40
16.244542030249008
 50
-17.583976886999036
 51
0.0
  0
ARC
  8
____1
  6
DASHED2
 62
               7
 10
25360.362977052355
 20
9696.5536617796242
 30
0.0
 40
4.3453697747229603
 50
-25.605116760735076
 51
34.379996836904219
  0
ARC
  8
____1
  6
DASHED2
 62
               7
 10
25360.362977052355
 20
9711.276093643959
 30
0.0
 40
4.3453697747229603
 50
-34.37999683694381
 51
25.605116760735076
210
0.0
220
0.0
230
1.0
  0
ARC
  8
____1
  6
DASHED2
 62
               7
 10
25348.463804796829
 20
9703.9148777117916
 30
0.0
 40
16.244542030247906
 50
0.0
 51
17.583976886986804
210
0.0
220
0.0
230
1.0
  0
LINE
  8
____1
  6
DOT
 62
               7
 10
25327.708346827079
 20
9708.1648777117916
 30
0.0
 11
25328.458346827079
 21
9708.9148777117916
 31
0.0
  0
LINE
  8
____1
  6
DOT
 62
               7
 10
25327.708346827079
 20
9708.1648777117916
 30
0.0
 11
25327.708346827079
 21
9699.6648777117916
 31
0.0
  0
LINE
  8
____1
  6
DOT
 62
               7
 10
25328.458346827079
 20
9708.9148777117916
 30
0.0
 11
25328.458346827079
 21
9698.9148777117916
 31
0.0
  0
LINE
  8
____1
  6
DOT
 62
               7
 10
25327.708346827079
 20
9699.6648777117916
 30
0.0
 11
25328.458346827079
 21
9698.9148777117916
 31
0.0
  0
LINE
  8
____1
  6
DOT
 62
               7
 10
25328.458346827079
 20
9708.9148777117916
 30
0.0
 11
25357.458346827079
 21
9708.9148777117916
 31
0.0
  0
LINE
  8
____1
  6
DOT
 62
               7
 10
25328.458346827079
 20
9698.9148777117916
 30
0.0
 11
25357.458346827079
 21
9698.9148777117916
 31
0.0
  0
LINE
  8
____1
  6
DOT
 62
               7
 10
25357.458346827079
 20
9708.1648777117916
 30
0.0
 11
25327.708346827079
 21
9708.1648777117916
 31
0.0
  0
ENDBLK
  8
0
  0
BLOCK
  8
0
  2
C48
 70
              64
 10
0.0
 20
0.0
  0
LINE
  8
____1
  6
DASHED2
 62
               7
 10
25355.208346827079
 20
9688.9148777117916
 30
0.0
 11
25356.708346827079
 21
9688.9148777117916
 31
0.0
  0
LINE
  8
____1
  6
DASHED2
 62
               7
 10
25356.708346827079
 20
9688.9148777117916
 30
0.0
 11
25356.708346827079
 21
9718.9148777117916
 31
0.0
  0
LINE
  8
____1
  6
DASHED2
 62
               7
 10
25355.208346827079
 20
9718.9148777117916
 30
0.0
 11
25356.708346827079
 21
9718.9148777117916
 31
0.0
  0
LINE
  8
____1
  6
DASHED2
 62
               7
 10
25355.208346827079
 20
9688.9148777117916
 30
0.0
 11
25355.208346827079
 21
9718.9148777117916
 31
0.0
  0
LINE
  8
____1
  6
DASHED2
 62
               7
 10
25357.708346827079
 20
9698.9148777117844
 30
0.0
 11
25356.708346827079
 21
9688.9148777117916
 31
0.0
  0
LINE
  8
____1
  6
DASHED2
 62
               7
 10
25357.708346827079
 20
9698.9148777117844
 30
0.0
 11
25357.708346827079
 21
9708.9148777117953
 31
0.0
  0
LINE
  8
____1
  6
DASHED2
 62
               7
 10
25357.708346827079
 20
9708.9148777117953
 30
0.0
 11
25356.708346827079
 21
9718.9148777117916
 31
0.0
  0
ENDBLK
  8
0
  0
BLOCK
  8
0
  2
C49
 70
              64
 10
0.0
 20
0.0
  0
LINE
  8
____1
  6
DASHED2
 62
               7
 10
25352.208346827079
 20
9688.9148777117916
 30
0.0
 11
25350.708346827079
 21
9688.9148777117916
 31
0.0
  0
LINE
  8
____1
  6
DASHED2
 62
               7
 10
25350.708346827079
 20
9688.9148777117916
 30
0.0
 11
25350.708346827079
 21
9718.9148777117916
 31
0.0
  0
LINE
  8
____1
  6
DASHED2
 62
               7
 10
25352.208346827079
 20
9718.9148777117916
 30
0.0
 11
25350.708346827079
 21
9718.9148777117916
 31
0.0
  0
LINE
  8
____1
  6
DASHED2
 62
               7
 10
25352.208346827079
 20
9688.9148777117916
 30
0.0
 11
25352.208346827079
 21
9718.9148777117916
 31
0.0
  0
LINE
  8
____1
  6
DASHED2
 62
               7
 10
25349.708346827079
 20
9698.9148777117844
 30
0.0
 11
25350.708346827079
 21
9688.9148777117916
 31
0.0
  0
LINE
  8
____1
  6
DASHED2
 62
               7
 10
25349.708346827079
 20
9698.9148777117844
 30
0.0
 11
25349.708346827079
 21
9708.9148777117953
 31
0.0
  0
LINE
  8
____1
  6
DASHED2
 62
               7
 10
25349.708346827079
 20
9708.9148777117953
 30
0.0
 11
25350.708346827079
 21
9718.9148777117916
 31
0.0
  0
ENDBLK
  8
0
  0
BLOCK
  8
0
  2
C50
 70
              64
 10
0.0
 20
0.0
  0
LINE
  8
____1
  6
DASHED2
 62
               7
 10
25332.208346827079
 20
9695.4148777117916
 30
0.0
 11
25332.208346827079
 21
9703.9148777117916
 31
0.0
  0
LINE
  8
____1
  6
DASHED2
 62
               7
 10
25331.44934038457
 20
9699.0074004236776
 30
0.0
 11
25329.208346827079
 21
9699.0074004236776
 31
0.0
  0
LINE
  8
____1
  6
DASHED2
 62
               7
 10
25329.208346827079
 20
9694.0999231355672
 30
0.0
 11
25331.449157448522
 21
9694.0999231355672
 31
0.0
  0
LINE
  8
____1
  6
DASHED2
 62
               7
 10
25332.208346827079
 20
9695.4148777117916
 30
0.0
 11
25331.449157448522
 21
9694.0999231355672
 31
0.0
  0
ARC
  8
____1
  6
DASHED2
 62
               7
 10
25327.863162966249
 20
9696.5536617796242
 30
0.0
 40
4.345183860828703
 50
-25.609310670485726
 51
34.381674152432247
  0
ARC
  8
____1
  6
DASHED2
 62
               7
 10
25315.963804796829
 20
9703.9148777117916
 30
0.0
 40
16.24454203024942
 50
-17.583781960927414
 51
0.0
  0
LINE
  8
____1
  6
DASHED2
 62
               7
 10
25332.208346827079
 20
9712.4148777117916
 30
0.0
 11
25332.208346827079
 21
9703.9148777117916
 31
0.0
  0
LINE
  8
____1
  6
DASHED2
 62
               7
 10
25331.44934038457
 20
9708.822354999902
 30
0.0
 11
25329.208346827079
 21
9708.822354999902
 31
0.0
  0
LINE
  8
____1
  6
DASHED2
 62
               7
 10
25329.208346827079
 20
9713.7298322880124
 30
0.0
 11
25331.449157448522
 21
9713.7298322880124
 31
0.0
  0
LINE
  8
____1
  6
DASHED2
 62
               7
 10
25332.208346827079
 20
9712.4148777117916
 30
0.0
 11
25331.449157448522
 21
9713.7298322880124
 31
0.0
  0
ARC
  8
____1
  6
DASHED2
 62
               7
 10
25327.863162966249
 20
9711.276093643959
 30
0.0
 40
4.3451838608271309
 50
-34.381674152471838
 51
25.609310670442468
210
0.0
220
0.0
230
1.0
  0
ARC
  8
____1
  6
DASHED2
 62
               7
 10
25315.963804796829
 20
9703.9148777117916
 30
0.0
 40
16.244542030248322
 50
0.0
 51
17.583781960915182
210
0.0
220
0.0
230
1.0
  0
LINE
  8
____1
  6
DASHED2
 62
               7
 10
25326.208346827079
 20
9712.4148777117916
 30
0.0
 11
25326.208346827079
 21
9703.9148777117916
 31
0.0
  0
LINE
  8
____1
  6
DASHED2
 62
               7
 10
25326.967353269585
 20
9708.822354999902
 30
0.0
 11
25329.208346827079
 21
9708.822354999902
 31
0.0
  0
LINE
  8
____1
  6
DASHED2
 62
               7
 10
25329.208346827079
 20
9713.7298322880124
 30
0.0
 11
25326.96753620563
 21
9713.7298322880124
 31
0.0
  0
LINE
  8
____1
  6
DASHED2
 62
               7
 10
25326.208346827079
 20
9712.4148777117916
 30
0.0
 11
25326.96753620563
 21
9713.7298322880124
 31
0.0
  0
ARC
  8
____1
  6
DASHED2
 62
               7
 10
25330.553530687903
 20
9711.276093643959
 30
0.0
 40
4.3451838608271309
 50
154.39068932955755
 51
-145.61832584750107
  0
ARC
  8
____1
  6
DASHED2
 62
               7
 10
25342.452888857326
 20
9703.9148777117916
 30
0.0
 40
16.244542030248322
 50
162.41621803908481
 51
180.0
  0
LINE
  8
____1
  6
DASHED2
 62
               7
 10
25326.208346827079
 20
9695.4148777117916
 30
0.0
 11
25326.208346827079
 21
9703.9148777117916
 31
0.0
  0
LINE
  8
____1
  6
DASHED2
 62
               7
 10
25326.967353269585
 20
9699.0074004236776
 30
0.0
 11
25329.208346827079
 21
9699.0074004236776
 31
0.0
  0
LINE
  8
____1
  6
DASHED2
 62
               7
 10
25329.208346827079
 20
9694.0999231355672
 30
0.0
 11
25326.96753620563
 21
9694.0999231355672
 31
0.0
  0
LINE
  8
____1
  6
DASHED2
 62
               7
 10
25326.208346827079
 20
9695.4148777117916
 30
0.0
 11
25326.96753620563
 21
9694.0999231355672
 31
0.0
  0
ARC
  8
____1
  6
DASHED2
 62
               7
 10
25330.553530687903
 20
9696.5536617796242
 30
0.0
 40
4.345183860828703
 50
145.61832584754066
 51
-154.39068932951429
210
0.0
220
0.0
230
1.0
  0
ARC
  8
____1
  6
DASHED2
 62
               7
 10
25342.452888857326
 20
9703.9148777117916
 30
0.0
 40
16.24454203024942
 50
180.0
 51
-162.41621803907259
210
0.0
220
0.0
230
1.0
  0
ENDBLK
  8
0
  0
BLOCK
  8
0
  2
C51
 70
              64
 10
0.0
 20
0.0
  0
LINE
  8
____1
  6
DASHED2
 62
               7
 10
25332.208346827079
 20
9713.1150547951256
 30
0.0
 11
25334.708346827079
 21
9713.1150547951256
 31
0.0
  0
LINE
  8
____1
  6
DASHED2
 62
               7
 10
25332.208346827079
 20
9694.7150547951242
 30
0.0
 11
25332.208346827079
 21
9713.1150547951256
 31
0.0
  0
LINE
  8
____1
  6
DASHED2
 62
               7
 10
25334.708346827079
 20
9694.7150547951242
 30
0.0
 11
25332.208346827079
 21
9694.7150547951242
 31
0.0
  0
LINE
  8
____1
  6
DASHED2
 62
               7
 10
25332.20846531666
 20
9704.5703021909576
 30
0.0
 11
25334.708367660409
 21
9703.6604121492601
 31
0.0
  0
LINE
  8
____1
  6
DASHED2
 62
               7
 10
25332.20846531666
 20
9704.1703021909561
 30
0.0
 11
25334.708367660409
 21
9703.2604121492586
 31
0.0
  0
ENDBLK
  8
0
  0
BLOCK
  8
0
  2
C52
 70
              64
 10
0.0
 20
0.0
  0
LINE
  8
____1
  6
DASHED2
 62
               7
 10
25349.708346827079
 20
9710.4148777117916
 30
0.0
 11
25349.708346827079
 21
9697.4148777117916
 31
0.0
  0
LINE
  8
____1
  6
DASHED2
 62
               7
 10
25338.708346827079
 20
9710.4148777117916
 30
0.0
 11
25338.708346827079
 21
9697.4148777117916
 31
0.0
  0
LINE
  8
____1
  6
DASHED2
 62
               7
 10
25349.708346827079
 20
9710.4148777117916
 30
0.0
 11
25338.708346827079
 21
9710.4148777117916
 31
0.0
  0
LINE
  8
____1
  6
DASHED2
 62
               7
 10
25349.708346827079
 20
9697.4148777117916
 30
0.0
 11
25338.708346827079
 21
9697.4148777117916
 31
0.0
  0
LINE
  8
____1
  6
DOT
 62
               7
 10
25349.708346827079
 20
9709.2148777117909
 30
0.0
 11
25338.708346827079
 21
9709.2148777117909
 31
0.0
  0
LINE
  8
____1
  6
DOT
 62
               7
 10
25349.708346827079
 20
9698.6148777117887
 30
0.0
 11
25338.708346827079
 21
9698.6148777117887
 31
0.0
  0
ENDBLK
  8
0
  0
BLOCK
  8
0
  2
C53
 70
              64
 10
0.0
 20
0.0
  0
LINE
  8
____1
  6
DASHED2
 62
               7
 10
25322.958346827079
 20
9674.4173672951256
 30
0.0
 11
25352.458346827079
 21
9674.4173672951256
 31
0.0
  0
ARC
  8
____1
  6
DASHED2
 62
               7
 10
25352.458346827079
 20
9676.9173672951256
 30
0.0
 40
2.5
 50
-90.0
 51
0.0
210
0.0
220
0.0
230
1.0
  0
LINE
  8
____1
  6
DASHED2
 62
               7
 10
25354.958346827079
 20
9719.4173672951256
 30
0.0
 11
25354.958346827079
 21
9676.9173672951256
 31
0.0
  0
LINE
  8
____1
  6
DASHED2
 62
               7
 10
25352.458346827079
 20
9677.1173672951245
 30
0.0
 11
25354.958346827079
 21
9677.1173672951245
 31
0.0
  0
LINE
  8
____1
  6
DASHED2
 62
               7
 10
25354.958346827079
 20
9719.4173672951256
 30
0.0
 11
25322.458346827079
 21
9719.4173672951256
 31
0.0
  0
LINE
  8
____1
  6
DASHED2
 62
               7
 10
25352.458346827079
 20
9677.1173672951245
 30
0.0
 11
25322.458346827079
 21
9677.1173672951245
 31
0.0
  0
LINE
  8
____1
  6
DASHED2
 62
               7
 10
25352.458346827079
 20
9676.9173672951256
 30
0.0
 11
25322.958346827079
 21
9676.9173672951256
 31
0.0
  0
LINE
  8
____1
  6
DASHED2
 62
               7
 10
25352.458346827079
 20
9719.4173672951256
 30
0.0
 11
25352.458346827079
 21
9677.1173672951245
 31
0.0
  0
LINE
  8
____1
  6
DASHED2
 62
               7
 10
25322.958346827079
 20
9676.9173672951256
 30
0.0
 11
25322.958346827079
 21
9674.4173672951256
 31
0.0
  0
LINE
  8
____1
  6
DASHED2
 62
               7
 10
25322.458346827079
 20
9719.4173672951256
 30
0.0
 11
25322.458346827079
 21
9677.1173672951245
 31
0.0
  0
ENDBLK
  8
0
  0
BLOCK
  8
0
  2
C54
 70
              64
 10
0.0
 20
0.0
  0
LINE
  8
____1
  6
DASHED2
 62
               7
 10
25940.958346827079
 20
9726.144368739353
 30
0.0
 11
25622.458346827079
 21
9736.097493739353
 31
0.0
  0
LINE
  8
____1
  6
CONTINUOUS
 62
               5
 10
25941.005198955652
 20
9727.6436368534833
 30
0.0
 11
25622.458346827079
 21
9737.5982259825014
 31
0.0
  0
LINE
  8
____1
  6
DASHED2
 62
               7
 10
25303.958346827079
 20
9692.0982259825014
 30
0.0
 11
25940.958346827087
 21
9692.0982259825014
 31
0.0
  0
LINE
  8
____1
  6
CONTINUOUS
 62
               5
 10
25303.958346827079
 20
9682.0982259825014
 30
0.0
 11
25940.958346827079
 21
9682.0982259825014
 31
0.0
  0
ARC
  8
____1
  6
DASHED2
 62
               7
 10
25940.958346827079
 20
9683.5982259825014
 30
0.0
 40
1.5
 50
180.0
 51
-90.0
210
0.0
220
0.0
230
1.0
  0
LINE
  8
____1
  6
DASHED2
 62
               7
 10
25939.458346827079
 20
9692.0982259825014
 30
0.0
 11
25940.958346827087
 21
9692.0982259825014
 31
0.0
  0
LINE
  8
____1
  6
DOT
 62
               7
 10
25303.958346827079
 20
9726.144368739353
 30
0.0
 11
25940.958346827079
 21
9726.144368739353
 31
0.0
  0
LINE
  8
____1
  6
DASHED2
 62
               7
 10
25303.958346827079
 20
9726.144368739353
 30
0.0
 11
25622.458346827079
 21
9736.097493739353
 31
0.0
  0
LINE
  8
____1
  6
DASHED2
 62
               7
 10
25305.458346827079
 20
9692.0982259825014
 30
0.0
 11
25305.458346827079
 21
9682.0982259825014
 31
0.0
  0
LINE
  8
____1
  6
DASHED2
 62
               7
 10
25939.458346827079
 20
9692.0982259825014
 30
0.0
 11
25939.458346827079
 21
9682.0982259825014
 31
0.0
  0
LINE
  8
____1
  6
CONTINUOUS
 62
               5
 10
25303.911494698514
 20
9727.6436368534833
 30
0.0
 11
25622.458346827079
 21
9737.5982259825014
 31
0.0
  0
LINE
  8
____1
  6
CONTINUOUS
 62
               5
 10
25302.458346827079
 20
9726.144368739353
 30
0.0
 11
25302.458346827079
 21
9683.5982259825014
 31
0.0
  0
ARC
  8
____1
  6
DASHED2
 62
               7
 10
25303.958346827079
 20
9683.5982259825014
 30
0.0
 40
1.5
 50
-90.0
 51
0.0
  0
ARC
  8
____1
  6
CONTINUOUS
 62
               5
 10
25303.958346827079
 20
9683.5982259825014
 30
0.0
 40
1.5
 50
180.0
 51
-90.0
  0
LINE
  8
____1
  6
DASHED2
 62
               7
 10
25303.958346827079
 20
9726.144368739353
 30
0.0
 11
25303.958346827079
 21
9683.598225982505
 31
0.0
  0
ARC
  8
____1
  6
CONTINUOUS
 62
               5
 10
25303.958346827079
 20
9726.144368739353
 30
0.0
 40
1.4999999999995988
 50
91.789910608211358
 51
180.0
  0
LINE
  8
____1
  6
CONTINUOUS
 62
               5
 10
25942.458346827079
 20
9726.144368739353
 30
0.0
 11
25942.458346827079
 21
9683.5982259825014
 31
0.0
  0
ARC
  8
____1
  6
CONTINUOUS
 62
               5
 10
25940.958346827079
 20
9683.5982259825014
 30
0.0
 40
1.5
 50
-90.0
 51
0.0
210
0.0
220
0.0
230
1.0
  0
LINE
  8
____1
  6
DASHED2
 62
               7
 10
25940.958346827079
 20
9726.144368739353
 30
0.0
 11
25940.958346827079
 21
9683.5982259825014
 31
0.0
  0
ARC
  8
____1
  6
CONTINUOUS
 62
               5
 10
25940.958346827079
 20
9726.144368739353
 30
0.0
 40
1.5
 50
0.0
 51
88.210089391510863
  0
ENDBLK
  8
0
  0
BLOCK
  8
0
  2
C55
 70
              64
 10
0.0
 20
0.0
  0
LINE
  8
____1
  6
DASHED2
 62
               7
 10
25675.050869538969
 20
9689.644368739353
 30
0.0
 11
25694.825116258711
 21
9723.894368739353
 31
0.0
  0
LINE
  8
____1
  6
DASHED2
 62
               7
 10
25564.958346827079
 20
9681.144368739353
 30
0.0
 11
25679.958346827079
 21
9681.144368739353
 31
0.0
  0
LINE
  8
____1
  6
DASHED2
 62
               7
 10
25570.731849518976
 20
9691.144368739353
 30
0.0
 11
25674.184844135183
 21
9691.144368739353
 31
0.0
  0
LINE
  8
____1
  6
DASHED2
 62
               7
 10
25569.865824115193
 20
9689.644368739353
 30
0.0
 11
25675.050869538969
 21
9689.644368739353
 31
0.0
  0
ARC
  8
____1
  6
DASHED2
 62
               7
 10
25539.843610117336
 20
9724.644368739353
 30
0.0
 40
1.4999999999976081
 50
29.999933376220312
 51
90.0
  0
LINE
  8
____1
  6
DASHED2
 62
               7
 10
25551.390615501125
 20
9724.644368739353
 30
0.0
 11
25522.458346827079
 21
9724.644368739353
 31
0.0
  0
LINE
  8
____1
  6
DASHED2
 62
               7
 10
25565.824372230869
 20
9682.644368739353
 30
0.0
 11
25541.5756609249
 21
9724.644368739353
 31
0.0
  0
LINE
  8
____1
  6
DASHED2
 62
               7
 10
25565.824372230869
 20
9682.644368739353
 30
0.0
 11
25679.092321423297
 21
9682.644368739353
 31
0.0
  0
ARC
  8
____1
  6
DASHED2
 62
               7
 10
25705.07308353683
 20
9724.644368739353
 30
0.0
 40
1.5000000000034706
 50
90.0
 51
150.00000000007654
210
0.0
220
0.0
230
1.0
  0
LINE
  8
____1
  6
DASHED2
 62
               7
 10
25565.708346827079
 20
9682.44340684503
 30
0.0
 11
25570.731849518976
 21
9691.144368739353
 31
0.0
  0
ARC
  8
____1
  6
DASHED2
 62
               7
 10
25564.958346827079
 20
9681.144368739353
 30
0.0
 40
1.5
 50
0.0
 51
119.99999999999294
  0
LINE
  8
____1
  6
DASHED2
 62
               7
 10
25564.958346827079
 20
9681.144368739353
 30
0.0
 11
25539.843610117332
 21
9724.644368739353
 31
0.0
  0
LINE
  8
____1
  6
DASHED2
 62
               7
 10
25522.458346827079
 20
9726.144368739353
 30
0.0
 11
25522.458346827079
 21
9724.644368739353
 31
0.0
  0
LINE
  8
____1
  6
DASHED2
 62
               7
 10
25693.526078153038
 20
9724.644368739353
 30
0.0
 11
25722.458346827079
 21
9724.644368739353
 31
0.0
  0
LINE
  8
____1
  6
DASHED2
 62
               7
 10
25703.341032729259
 20
9724.644368739353
 30
0.0
 11
25703.77404543115
 21
9725.394368739353
 31
0.0
  0
LINE
  8
____1
  6
DASHED2
 62
               7
 10
25539.843610117336
 20
9726.144368739353
 30
0.0
 11
25522.458346827079
 21
9726.144368739353
 31
0.0
  0
LINE
  8
____1
  6
DASHED2
 62
               7
 10
25541.5756609249
 20
9724.644368739353
 30
0.0
 11
25541.142648223009
 21
9725.394368739353
 31
0.0
  0
LINE
  8
____1
  6
DASHED2
 62
               7
 10
25569.865824115193
 20
9689.644368739353
 30
0.0
 11
25550.091577395448
 21
9723.894368739353
 31
0.0
  0
LINE
  8
____1
  6
DASHED2
 62
               7
 10
25570.731849518976
 20
9691.144368739353
 30
0.0
 11
25551.390615501125
 21
9724.644368739353
 31
0.0
  0
LINE
  8
____1
  6
DASHED2
 62
               7
 10
25679.208346827079
 20
9682.44340684503
 30
0.0
 11
25674.184844135183
 21
9691.144368739353
 31
0.0
  0
LINE
  8
____1
  6
DASHED2
 62
               7
 10
25705.07308353683
 20
9726.144368739353
 30
0.0
 11
25722.458346827079
 21
9726.144368739353
 31
0.0
  0
LINE
  8
____1
  6
DASHED2
 62
               7
 10
25722.458346827079
 20
9726.144368739353
 30
0.0
 11
25722.458346827079
 21
9724.644368739353
 31
0.0
  0
LINE
  8
____1
  6
DASHED2
 62
               7
 10
25679.958346827079
 20
9681.144368739353
 30
0.0
 11
25705.07308353683
 21
9724.644368739353
 31
0.0
  0
ARC
  8
____1
  6
DASHED2
 62
               7
 10
25679.958346827079
 20
9681.144368739353
 30
0.0
 40
1.5
 50
60.000000000007056
 51
180.0
210
0.0
220
0.0
230
1.0
  0
LINE
  8
____1
  6
DASHED2
 62
               7
 10
25679.092321423297
 20
9682.644368739353
 30
0.0
 11
25703.341032729259
 21
9724.644368739353
 31
0.0
  0
LINE
  8
____1
  6
DASHED2
 62
               7
 10
25674.184844135183
 20
9691.144368739353
 30
0.0
 11
25693.526078153038
 21
9724.644368739353
 31
0.0
  0
ENDBLK
  8
0
  0
BLOCK
  8
0
  2
C56
 70
              64
 10
0.0
 20
0.0
  0
LINE
  8
____1
  6
CONTINUOUS
 62
               7
 10
25604.458346827079
 20
9723.644368739353
 30
0.0
 11
25604.458346827079
 21
9702.644368739353
 31
0.0
  0
LINE
  8
____1
  6
CONTINUOUS
 62
               7
 10
25640.458346827079
 20
9702.644368739353
 30
0.0
 11
25640.458346827079
 21
9723.644368739353
 31
0.0
  0
LINE
  8
____1
  6
CONTINUOUS
 62
               7
 10
25638.458346827079
 20
9702.644368739353
 30
0.0
 11
25640.458346827079
 21
9702.644368739353
 31
0.0
  0
ARC
  8
____1
  6
CONTINUOUS
 62
               7
 10
25606.958346827079
 20
9723.644368739353
 30
0.0
 40
0.5
 50
90.0
 51
180.0
210
0.0
220
0.0
230
1.0
  0
LINE
  8
____1
  6
CONTINUOUS
 62
               7
 10
25607.458346827079
 20
9724.144368739353
 30
0.0
 11
25607.458346827079
 21
9726.144368739353
 31
0.0
  0
LINE
  8
____1
  6
CONTINUOUS
 62
               7
 10
25604.458346827079
 20
9702.644368739353
 30
0.0
 11
25606.458346827079
 21
9702.644368739353
 31
0.0
  0
LINE
  8
____1
  6
CONTINUOUS
 62
               7
 10
25604.458346827079
 20
9712.144368739353
 30
0.0
 11
25606.458346827079
 21
9712.144368739353
 31
0.0
  0
LINE
  8
____1
  6
CONTINUOUS
 62
               7
 10
25606.458346827079
 20
9723.644368739353
 30
0.0
 11
25606.458346827079
 21
9702.644368739353
 31
0.0
  0
LINE
  8
____1
  6
CONTINUOUS
 62
               7
 10
25638.458346827079
 20
9702.644368739353
 30
0.0
 11
25638.458346827079
 21
9723.644368739353
 31
0.0
  0
ARC
  8
____1
  6
CONTINUOUS
 62
               7
 10
25637.958346827079
 20
9723.644368739353
 30
0.0
 40
2.5
 50
0.0
 51
90.0
210
0.0
220
0.0
230
1.0
  0
ARC
  8
____1
  6
CONTINUOUS
 62
               7
 10
25637.958346827079
 20
9723.644368739353
 30
0.0
 40
0.5
 50
0.0
 51
90.0
210
0.0
220
0.0
230
1.0
  0
LINE
  8
____1
  6
CONTINUOUS
 62
               7
 10
25637.458346827079
 20
9724.144368739353
 30
0.0
 11
25637.458346827079
 21
9726.144368739353
 31
0.0
  0
LINE
  8
____1
  6
CONTINUOUS
 62
               7
 10
25637.958346827079
 20
9724.144368739353
 30
0.0
 11
25606.958346827079
 21
9724.144368739353
 31
0.0
  0
LINE
  8
____1
  6
CONTINUOUS
 62
               7
 10
25638.458346827079
 20
9712.144368739353
 30
0.0
 11
25640.458346827079
 21
9712.144368739353
 31
0.0
  0
ARC
  8
____1
  6
CONTINUOUS
 62
               7
 10
25606.958346827079
 20
9723.644368739353
 30
0.0
 40
2.5
 50
90.0
 51
180.0
210
0.0
220
0.0
230
1.0
  0
LINE
  8
____1
  6
CONTINUOUS
 62
               7
 10
25637.958346827079
 20
9726.144368739353
 30
0.0
 11
25606.958346827079
 21
9726.144368739353
 31
0.0
  0
ENDBLK
  8
0
  0
BLOCK
  8
0
  2
C57
 70
              64
 10
0.0
 20
0.0
  0
LINE
  8
____1
  6
DASHED2
 62
               7
 10
25638.458346827079
 20
10432.781154287053
 30
0.0
 11
25638.458346827079
 21
10443.781154287053
 31
0.0
  0
LINE
  8
____1
  6
DASHED2
 62
               7
 10
25638.458346827079
 20
10443.781154287053
 30
0.0
 11
25638.458346827079
 21
10453.281154287053
 31
0.0
  0
LINE
  8
____1
  6
DASHED2
 62
               7
 10
25638.458346827079
 20
10423.281154287053
 30
0.0
 11
25638.458346827079
 21
10432.781154287053
 31
0.0
  0
LINE
  8
____1
  6
DOT
 62
               2
 10
25604.458346827079
 20
10438.281154287053
 30
0.0
 11
25640.458346827083
 21
10438.281154287053
 31
0.0
  0
LINE
  8
____1
  6
DASHED2
 62
               7
 10
25640.458346827079
 20
10443.781154287053
 30
0.0
 11
25604.458346827079
 21
10443.781154287053
 31
0.0
  0
LINE
  8
____1
  6
DASHED2
 62
               7
 10
25604.458346827079
 20
10432.781154287053
 30
0.0
 11
25640.458346827079
 21
10432.781154287053
 31
0.0
  0
LINE
  8
____1
  6
DASHED2
 62
               7
 10
25604.458346827079
 20
10453.281154287053
 30
0.0
 11
25604.458346827079
 21
10423.281154287053
 31
0.0
  0
LINE
  8
____1
  6
DASHED2
 62
               7
 10
25606.458346827079
 20
10443.781154287053
 30
0.0
 11
25606.458346827079
 21
10432.781154287053
 31
0.0
  0
LINE
  8
____1
  6
DASHED2
 62
               7
 10
25606.458346827079
 20
10432.781154287053
 30
0.0
 11
25606.458346827079
 21
10423.281154287053
 31
0.0
  0
LINE
  8
____1
  6
DASHED2
 62
               7
 10
25606.458346827079
 20
10453.281154287053
 30
0.0
 11
25606.458346827079
 21
10443.781154287053
 31
0.0
  0
ARC
  8
____1
  6
DASHED2
 62
               7
 10
25610.458346827079
 20
10455.281154287053
 30
0.0
 40
3.0
 50
90.0
 51
180.0
210
0.0
220
0.0
230
1.0
  0
LINE
  8
____1
  6
DASHED2
 62
               7
 10
25634.458346827079
 20
10458.281154287053
 30
0.0
 11
25610.458346827079
 21
10458.281154287053
 31
0.0
  0
ARC
  8
____1
  6
DASHED2
 62
               7
 10
25634.458346827079
 20
10455.281154287053
 30
0.0
 40
3.0
 50
0.0
 51
90.0
210
0.0
220
0.0
230
1.0
  0
ARC
  8
____1
  6
DASHED2
 62
               7
 10
25634.458346827079
 20
10421.281154287053
 30
0.0
 40
3.0
 50
-90.0
 51
0.0
210
0.0
220
0.0
230
1.0
  0
LINE
  8
____1
  6
DASHED2
 62
               7
 10
25610.458346827079
 20
10418.281154287053
 30
0.0
 11
25634.458346827079
 21
10418.281154287053
 31
0.0
  0
ARC
  8
____1
  6
DASHED2
 62
               7
 10
25610.458346827079
 20
10421.281154287053
 30
0.0
 40
3.0
 50
180.0
 51
-90.0
210
0.0
220
0.0
230
1.0
  0
LINE
  8
____1
  6
DASHED2
 62
               7
 10
25606.458346827079
 20
10453.281154287053
 30
0.0
 11
25604.458346827079
 21
10453.281154287053
 31
0.0
  0
LINE
  8
____1
  6
DASHED2
 62
               7
 10
25637.458346827079
 20
10454.281154287053
 30
0.0
 11
25637.458346827079
 21
10455.281154287053
 31
0.0
  0
LINE
  8
____1
  6
DASHED2
 62
               7
 10
25640.458346827079
 20
10453.281154287053
 30
0.0
 11
25638.458346827079
 21
10453.281154287053
 31
0.0
  0
ARC
  8
____1
  6
DASHED2
 62
               7
 10
25638.458346827079
 20
10454.281154287053
 30
0.0
 40
1.0
 50
180.0
 51
-90.0
  0
LINE
  8
____1
  6
DASHED2
 62
               7
 10
25638.458346827079
 20
10423.281154287053
 30
0.0
 11
25640.458346827079
 21
10423.281154287053
 31
0.0
  0
LINE
  8
____1
  6
DASHED2
 62
               7
 10
25637.458346827079
 20
10421.281154287053
 30
0.0
 11
25637.458346827079
 21
10422.281154287053
 31
0.0
  0
ARC
  8
____1
  6
DASHED2
 62
               7
 10
25638.458346827079
 20
10422.281154287053
 30
0.0
 40
1.0
 50
90.0
 51
180.0
  0
LINE
  8
____1
  6
DASHED2
 62
               7
 10
25607.458346827079
 20
10422.281154287053
 30
0.0
 11
25607.458346827079
 21
10421.281154287053
 31
0.0
  0
LINE
  8
____1
  6
DASHED2
 62
               7
 10
25604.458346827079
 20
10423.281154287053
 30
0.0
 11
25606.458346827079
 21
10423.281154287053
 31
0.0
  0
ARC
  8
____1
  6
DASHED2
 62
               7
 10
25606.458346827079
 20
10422.281154287053
 30
0.0
 40
1.0
 50
0.0
 51
90.0
  0
LINE
  8
____1
  6
DASHED2
 62
               7
 10
25607.458346827079
 20
10455.281154287053
 30
0.0
 11
25607.458346827079
 21
10454.281154287053
 31
0.0
  0
ARC
  8
____1
  6
DASHED2
 62
               7
 10
25606.458346827079
 20
10454.281154287053
 30
0.0
 40
1.0
 50
-90.0
 51
0.0
  0
LINE
  8
____1
  6
DASHED2
 62
               7
 10
25640.458346827079
 20
10423.281154287053
 30
0.0
 11
25640.458346827079
 21
10453.281154287053
 31
0.0
  0
ENDBLK
  8
0
  0
BLOCK
  8
0
  2
C58
 70
              64
 10
0.0
 20
0.0
  0
LINE
  8
____1
  6
DASHED2
 62
               7
 10
25602.458346827079
 20
9720.144368739353
 30
0.0
 11
25642.458346827079
 21
9720.144368739353
 31
0.0
  0
LINE
  8
____1
  6
DASHED2
 62
               7
 10
25637.458346827079
 20
9663.0459528877054
 30
0.0
 11
25637.458346827079
 21
9712.144368739353
 31
0.0
  0
LINE
  8
____1
  6
DASHED2
 62
               7
 10
25627.458346827079
 20
9687.144368739353
 30
0.0
 11
25627.458346827079
 21
9712.144368739353
 31
0.0
  0
LINE
  8
____1
  6
DASHED2
 62
               7
 10
25617.458346827079
 20
9687.144368739353
 30
0.0
 11
25617.458346827079
 21
9712.144368739353
 31
0.0
  0
LINE
  8
____1
  6
DASHED2
 62
               7
 10
25607.458346827079
 20
9663.0459528877054
 30
0.0
 11
25607.458346827079
 21
9712.144368739353
 31
0.0
  0
LINE
  8
____1
  6
DASHED2
 62
               7
 10
25642.458346827079
 20
9712.144368739353
 30
0.0
 11
25602.458346827079
 21
9712.144368739353
 31
0.0
  0
LINE
  8
____1
  6
DASHED2
 62
               7
 10
25602.458346827079
 20
9712.144368739353
 30
0.0
 11
25602.458346827079
 21
9722.144368739353
 31
0.0
  0
ARC
  8
____1
  6
DASHED2
 62
               7
 10
25622.458346827079
 20
9687.144368739353
 30
0.0
 40
5.0
 50
180.0
 51
0.0
210
0.0
220
0.0
230
1.0
  0
LINE
  8
____1
  6
DASHED2
 62
               7
 10
25607.458346827079
 20
9677.4076737345222
 30
0.0
 11
25637.458346827079
 21
9677.4076737345222
 31
0.0
  0
POLYLINE
  8
____1
  6
DASHED2
 62
               7
 66
               1
 10
0.0
 20
0.0
 30
0.0
 70
               8
  0
VERTEX
  8
____1
 62
               7
 10
25637.458346827079
 20
9663.0459528877054
 30
0.0
 70
              32
  0
VERTEX
  8
____1
 62
               7
 10
25637.230463122261
 20
9660.5520662344934
 30
0.0
 70
              32
  0
VERTEX
  8
____1
 62
               7
 10
25636.553736138867
 20
9658.1339550652738
 30
0.0
 70
              32
  0
VERTEX
  8
____1
 62
               7
 10
25635.448727883846
 20
9655.8650924642952
 30
0.0
 70
              32
  0
VERTEX
  8
____1
 62
               7
 10
25633.949013473863
 20
9653.8144166735929
 30
0.0
 70
              32
  0
VERTEX
  8
____1
 62
               7
 10
25632.100160972379
 20
9652.0442364393748
 30
0.0
 70
              32
  0
VERTEX
  8
____1
 62
               7
 10
25629.958346827079
 20
9650.6083377923005
 30
0.0
 70
              32
  0
VERTEX
  8
____1
 62
               7
 10
25627.588648976965
 20
9649.5503497861628
 30
0.0
 70
              32
  0
VERTEX
  8
____1
 62
               7
 10
25625.063069492084
 20
9648.9024188511612
 30
0.0
 70
              32
  0
VERTEX
  8
____1
 62
               7
 10
25622.458346827079
 20
9648.6842320408869
 30
0.0
 70
              32
  0
VERTEX
  8
____1
 62
               7
 10
25619.853624162075
 20
9648.9024188511612
 30
0.0
 70
              32
  0
VERTEX
  8
____1
 62
               7
 10
25617.328044677193
 20
9649.5503497861628
 30
0.0
 70
              32
  0
VERTEX
  8
____1
 62
               7
 10
25614.958346827079
 20
9650.6083377923005
 30
0.0
 70
              32
  0
VERTEX
  8
____1
 62
               7
 10
25612.81653268178
 20
9652.0442364393748
 30
0.0
 70
              32
  0
VERTEX
  8
____1
 62
               7
 10
25610.967680180296
 20
9653.8144166735929
 30
0.0
 70
              32
  0
VERTEX
  8
____1
 62
               7
 10
25609.467965770313
 20
9655.865092464297
 30
0.0
 70
              32
  0
VERTEX
  8
____1
 62
               7
 10
25608.362957515292
 20
9658.1339550652738
 30
0.0
 70
              32
  0
VERTEX
  8
____1
 62
               7
 10
25607.686230531897
 20
9660.5520662344934
 30
0.0
 70
              32
  0
VERTEX
  8
____1
 62
               7
 10
25607.458346827079
 20
9663.0459528877054
 30
0.0
 70
              32
  0
SEQEND
  8
____1
 62
               7
  0
LINE
  8
____1
  6
DASHED2
 62
               7
 10
25642.458346827079
 20
9714.144368739353
 30
0.0
 11
25602.458346827079
 21
9714.144368739353
 31
0.0
  0
LINE
  8
____1
  6
DASHED2
 62
               7
 10
25642.458346827079
 20
9722.144368739353
 30
0.0
 11
25642.458346827079
 21
9712.144368739353
 31
0.0
  0
LINE
  8
____1
  6
DASHED2
 62
               7
 10
25602.458346827079
 20
9722.144368739353
 30
0.0
 11
25642.458346827079
 21
9722.144368739353
 31
0.0
  0
ENDBLK
  8
0
  0
BLOCK
  8
0
  2
C59
 70
              64
 10
0.0
 20
0.0
  0
LINE
  8
____1
  6
DASHED2
 62
               7
 10
25388.358346827081
 20
11020.335267846618
 30
0.0
 11
25388.358346827081
 21
11023.335267846618
 31
0.0
  0
LINE
  8
____1
  6
DASHED2
 62
               7
 10
25792.358346827088
 20
11020.335267846618
 30
0.0
 11
25792.358346827088
 21
11023.335267846618
 31
0.0
  0
LINE
  8
____1
  6
DASHED2
 62
               7
 10
25856.558346827085
 20
11020.335267846618
 30
0.0
 11
25856.558346827085
 21
11023.335267846618
 31
0.0
  0
LINE
  8
____1
  6
DASHED2
 62
               7
 10
25856.558346827085
 20
11020.335267846618
 30
0.0
 11
25936.458346827087
 21
11020.335267846618
 31
0.0
  0
LINE
  8
____1
  6
DASHED2
 62
               7
 10
25452.558346827082
 20
11020.335267846618
 30
0.0
 11
25792.358346827088
 21
11020.335267846618
 31
0.0
  0
LINE
  8
____1
  6
CONTINUOUS
 62
               5
 10
25302.458346827079
 20
11026.335267846618
 30
0.0
 11
25942.458346827087
 21
11026.335267846618
 31
0.0
  0
LINE
  8
____1
  6
CONTINUOUS
 62
               5
 10
25302.458346827079
 20
11026.335267846618
 30
0.0
 11
25942.458346827087
 21
10386.33526784662
 31
0.0
  0
LINE
  8
____1
  6
CONTINUOUS
 62
               5
 10
25942.458346827087
 20
11026.335267846618
 30
0.0
 11
25302.458346827079
 21
10386.33526784662
 31
0.0
  0
LINE
  8
____1
  6
CONTINUOUS
 62
               5
 10
25942.458346827087
 20
10386.33526784662
 30
0.0
 11
25302.458346827079
 21
10386.33526784662
 31
0.0
  0
LINE
  8
____1
  6
DASHED2
 62
               7
 10
25936.458346827087
 20
10392.33526784662
 30
0.0
 11
25308.458346827079
 21
10392.33526784662
 31
0.0
  0
LINE
  8
____1
  6
DASHED2
 62
               7
 10
25305.458346827079
 20
11023.335267846618
 30
0.0
 11
25939.458346827087
 21
11023.335267846618
 31
0.0
  0
LINE
  8
____1
  6
DASHED2
 62
               7
 10
25939.458346827087
 20
10389.33526784662
 30
0.0
 11
25305.458346827079
 21
10389.33526784662
 31
0.0
  0
LINE
  8
____1
  6
CONTINUOUS
 62
               5
 10
25942.458346827087
 20
11026.335267846618
 30
0.0
 11
25942.458346827087
 21
10386.33526784662
 31
0.0
  0
LINE
  8
____1
  6
DASHED2
 62
               7
 10
25939.458346827087
 20
11023.335267846618
 30
0.0
 11
25939.458346827087
 21
10389.33526784662
 31
0.0
  0
LINE
  8
____1
  6
DASHED2
 62
               7
 10
25936.458346827087
 20
11020.335267846618
 30
0.0
 11
25936.458346827087
 21
10392.33526784662
 31
0.0
  0
LINE
  8
____1
  6
CONTINUOUS
 62
               5
 10
25302.458346827079
 20
10386.33526784662
 30
0.0
 11
25302.458346827079
 21
11026.335267846618
 31
0.0
  0
LINE
  8
____1
  6
DASHED2
 62
               7
 10
25308.458346827079
 20
10392.33526784662
 30
0.0
 11
25308.458346827079
 21
11020.335267846618
 31
0.0
  0
LINE
  8
____1
  6
DASHED2
 62
               7
 10
25305.458346827079
 20
10389.33526784662
 30
0.0
 11
25305.458346827079
 21
11023.335267846618
 31
0.0
  0
LINE
  8
____1
  6
DASHED2
 62
               7
 10
25452.558346827082
 20
11020.335267846618
 30
0.0
 11
25452.558346827082
 21
11023.335267846618
 31
0.0
  0
LINE
  8
____1
  6
DASHED2
 62
               7
 10
25308.458346827079
 20
11020.335267846618
 30
0.0
 11
25388.358346827081
 21
11020.335267846618
 31
0.0
  0
ENDBLK
  8
0
  0
BLOCK
  8
0
  2
C60
 70
              64
 10
0.0
 20
0.0
  0
INSERT
  8
____1
  6
DASHED2
 62
               7
  2
C61
 10
0.0
 20
0.0
 30
0.0
  0
INSERT
  8
____1
  6
CONTINUOUS
 62
               7
  2
C67
 10
0.0
 20
0.0
 30
0.0
  0
INSERT
  8
____1
  6
CONTINUOUS
 62
               7
  2
C68
 10
0.0
 20
0.0
 30
0.0
  0
INSERT
  8
____1
  6
CONTINUOUS
 62
               7
  2
C69
 10
0.0
 20
0.0
 30
0.0
  0
ENDBLK
  8
0
  0
BLOCK
  8
0
  2
C61
 70
              64
 10
0.0
 20
0.0
  0
LINE
  8
____1
  6
DOT
 62
               7
 10
25327.708346827083
 20
10577.705038664037
 30
0.0
 11
25357.458346827083
 21
10577.705038664037
 31
0.0
  0
INSERT
  8
____1
  6
DASHED2
 62
               7
  2
C62
 10
0.0
 20
0.0
 30
0.0
  0
INSERT
  8
____1
  6
DASHED2
 62
               7
  2
C63
 10
0.0
 20
0.0
 30
0.0
  0
INSERT
  8
____1
  6
DASHED2
 62
               7
  2
C64
 10
0.0
 20
0.0
 30
0.0
  0
INSERT
  8
____1
  6
DASHED2
 62
               7
  2
C65
 10
0.0
 20
0.0
 30
0.0
  0
INSERT
  8
____1
  6
DASHED2
 62
               7
  2
C66
 10
0.0
 20
0.0
 30
0.0
  0
LINE
  8
____1
  6
DASHED2
 62
               7
 10
25357.708346827083
 20
10591.769993240261
 30
0.0
 11
25357.708346827083
 21
10572.140084087812
 31
0.0
  0
LINE
  8
____1
  6
DASHED2
 62
               7
 10
25363.949340384574
 20
10577.047561375923
 30
0.0
 11
25357.708346827083
 21
10577.047561375923
 31
0.0
  0
LINE
  8
____1
  6
DASHED2
 62
               7
 10
25363.949157448526
 20
10572.140084087812
 30
0.0
 11
25357.708346827083
 21
10572.140084087812
 31
0.0
  0
LINE
  8
____1
  6
DASHED2
 62
               7
 10
25363.949157448526
 20
10591.769993240261
 30
0.0
 11
25357.708346827083
 21
10591.769993240261
 31
0.0
  0
LINE
  8
____1
  6
DASHED2
 62
               7
 10
25364.708346827083
 20
10590.455038664037
 30
0.0
 11
25363.949157448526
 21
10591.769993240261
 31
0.0
  0
LINE
  8
____1
  6
DASHED2
 62
               7
 10
25363.949340384574
 20
10586.862515952147
 30
0.0
 11
25357.708346827083
 21
10586.862515952147
 31
0.0
  0
LINE
  8
____1
  6
DASHED2
 62
               7
 10
25364.708346827083
 20
10590.455038664037
 30
0.0
 11
25364.708346827083
 21
10581.955038664037
 31
0.0
  0
LINE
  8
____1
  6
DASHED2
 62
               7
 10
25364.708346827083
 20
10573.455038664037
 30
0.0
 11
25363.949157448526
 21
10572.140084087812
 31
0.0
  0
LINE
  8
____1
  6
DASHED2
 62
               7
 10
25364.708346827083
 20
10573.455038664037
 30
0.0
 11
25364.708346827083
 21
10581.955038664037
 31
0.0
  0
ARC
  8
____1
  6
DASHED2
 62
               7
 10
25348.463804796836
 20
10581.955038664037
 30
0.0
 40
16.244542030245537
 50
-17.583976887002912
 51
0.0
  0
ARC
  8
____1
  6
DASHED2
 62
               7
 10
25360.362977052362
 20
10574.593822731869
 30
0.0
 40
4.3453697747229603
 50
-25.605116760735076
 51
34.379996836931312
  0
ARC
  8
____1
  6
DASHED2
 62
               7
 10
25360.362977052362
 20
10589.316254596204
 30
0.0
 40
4.3453697747229603
 50
-34.379996836970896
 51
25.605116760735076
210
0.0
220
0.0
230
1.0
  0
ARC
  8
____1
  6
DASHED2
 62
               7
 10
25348.463804796836
 20
10581.955038664037
 30
0.0
 40
16.244542030244439
 50
0.0
 51
17.58397688699068
210
0.0
220
0.0
230
1.0
  0
LINE
  8
____1
  6
DOT
 62
               7
 10
25327.708346827083
 20
10586.205038664037
 30
0.0
 11
25328.458346827083
 21
10586.955038664037
 31
0.0
  0
LINE
  8
____1
  6
DOT
 62
               7
 10
25327.708346827083
 20
10586.205038664037
 30
0.0
 11
25327.708346827083
 21
10577.705038664037
 31
0.0
  0
LINE
  8
____1
  6
DOT
 62
               7
 10
25328.458346827083
 20
10586.955038664037
 30
0.0
 11
25328.458346827083
 21
10576.955038664037
 31
0.0
  0
LINE
  8
____1
  6
DOT
 62
               7
 10
25327.708346827083
 20
10577.705038664037
 30
0.0
 11
25328.458346827083
 21
10576.955038664037
 31
0.0
  0
LINE
  8
____1
  6
DOT
 62
               7
 10
25328.458346827083
 20
10586.955038664037
 30
0.0
 11
25357.458346827083
 21
10586.955038664037
 31
0.0
  0
LINE
  8
____1
  6
DOT
 62
               7
 10
25328.458346827083
 20
10576.955038664037
 30
0.0
 11
25357.458346827083
 21
10576.955038664037
 31
0.0
  0
LINE
  8
____1
  6
DOT
 62
               7
 10
25357.458346827083
 20
10586.205038664037
 30
0.0
 11
25327.708346827083
 21
10586.205038664037
 31
0.0
  0
ENDBLK
  8
0
  0
BLOCK
  8
0
  2
C62
 70
              64
 10
0.0
 20
0.0
  0
LINE
  8
____1
  6
DASHED2
 62
               7
 10
25355.208346827083
 20
10566.955038664037
 30
0.0
 11
25356.708346827083
 21
10566.955038664037
 31
0.0
  0
LINE
  8
____1
  6
DASHED2
 62
               7
 10
25356.708346827083
 20
10566.955038664037
 30
0.0
 11
25356.708346827083
 21
10596.955038664037
 31
0.0
  0
LINE
  8
____1
  6
DASHED2
 62
               7
 10
25355.208346827083
 20
10596.955038664037
 30
0.0
 11
25356.708346827083
 21
10596.955038664037
 31
0.0
  0
LINE
  8
____1
  6
DASHED2
 62
               7
 10
25355.208346827083
 20
10566.955038664037
 30
0.0
 11
25355.208346827083
 21
10596.955038664037
 31
0.0
  0
LINE
  8
____1
  6
DASHED2
 62
               7
 10
25357.708346827083
 20
10576.955038664029
 30
0.0
 11
25356.708346827083
 21
10566.955038664037
 31
0.0
  0
LINE
  8
____1
  6
DASHED2
 62
               7
 10
25357.708346827083
 20
10576.955038664029
 30
0.0
 11
25357.708346827083
 21
10586.95503866404
 31
0.0
  0
LINE
  8
____1
  6
DASHED2
 62
               7
 10
25357.708346827083
 20
10586.95503866404
 30
0.0
 11
25356.708346827083
 21
10596.955038664037
 31
0.0
  0
ENDBLK
  8
0
  0
BLOCK
  8
0
  2
C63
 70
              64
 10
0.0
 20
0.0
  0
LINE
  8
____1
  6
DASHED2
 62
               7
 10
25352.208346827083
 20
10566.955038664037
 30
0.0
 11
25350.708346827083
 21
10566.955038664037
 31
0.0
  0
LINE
  8
____1
  6
DASHED2
 62
               7
 10
25350.708346827083
 20
10566.955038664037
 30
0.0
 11
25350.708346827083
 21
10596.955038664037
 31
0.0
  0
LINE
  8
____1
  6
DASHED2
 62
               7
 10
25352.208346827083
 20
10596.955038664037
 30
0.0
 11
25350.708346827083
 21
10596.955038664037
 31
0.0
  0
LINE
  8
____1
  6
DASHED2
 62
               7
 10
25352.208346827083
 20
10566.955038664037
 30
0.0
 11
25352.208346827083
 21
10596.955038664037
 31
0.0
  0
LINE
  8
____1
  6
DASHED2
 62
               7
 10
25349.708346827083
 20
10576.955038664029
 30
0.0
 11
25350.708346827083
 21
10566.955038664037
 31
0.0
  0
LINE
  8
____1
  6
DASHED2
 62
               7
 10
25349.708346827083
 20
10576.955038664029
 30
0.0
 11
25349.708346827083
 21
10586.95503866404
 31
0.0
  0
LINE
  8
____1
  6
DASHED2
 62
               7
 10
25349.708346827083
 20
10586.95503866404
 30
0.0
 11
25350.708346827083
 21
10596.955038664037
 31
0.0
  0
ENDBLK
  8
0
  0
BLOCK
  8
0
  2
C64
 70
              64
 10
0.0
 20
0.0
  0
LINE
  8
____1
  6
DASHED2
 62
               7
 10
25332.208346827083
 20
10573.455038664037
 30
0.0
 11
25332.208346827083
 21
10581.955038664037
 31
0.0
  0
LINE
  8
____1
  6
DASHED2
 62
               7
 10
25331.449340384574
 20
10577.047561375923
 30
0.0
 11
25329.208346827083
 21
10577.047561375923
 31
0.0
  0
LINE
  8
____1
  6
DASHED2
 62
               7
 10
25329.208346827083
 20
10572.140084087812
 30
0.0
 11
25331.449157448526
 21
10572.140084087812
 31
0.0
  0
LINE
  8
____1
  6
DASHED2
 62
               7
 10
25332.208346827083
 20
10573.455038664037
 30
0.0
 11
25331.449157448526
 21
10572.140084087812
 31
0.0
  0
ARC
  8
____1
  6
DASHED2
 62
               7
 10
25327.863162966256
 20
10574.593822731869
 30
0.0
 40
4.345183860825423
 50
-25.60931067050646
 51
34.381674152459333
  0
ARC
  8
____1
  6
DASHED2
 62
               7
 10
25315.963804796836
 20
10581.955038664037
 30
0.0
 40
16.244542030245952
 50
-17.58378196093129
 51
0.0
  0
LINE
  8
____1
  6
DASHED2
 62
               7
 10
25332.208346827083
 20
10590.455038664037
 30
0.0
 11
25332.208346827083
 21
10581.955038664037
 31
0.0
  0
LINE
  8
____1
  6
DASHED2
 62
               7
 10
25331.449340384574
 20
10586.862515952147
 30
0.0
 11
25329.208346827083
 21
10586.862515952147
 31
0.0
  0
LINE
  8
____1
  6
DASHED2
 62
               7
 10
25329.208346827083
 20
10591.769993240257
 30
0.0
 11
25331.449157448526
 21
10591.769993240257
 31
0.0
  0
LINE
  8
____1
  6
DASHED2
 62
               7
 10
25332.208346827083
 20
10590.455038664037
 30
0.0
 11
25331.449157448526
 21
10591.769993240257
 31
0.0
  0
ARC
  8
____1
  6
DASHED2
 62
               7
 10
25327.863162966256
 20
10589.316254596204
 30
0.0
 40
4.3451838608238509
 50
-34.381674152498924
 51
25.609310670463202
210
0.0
220
0.0
230
0.9999999999999999
  0
ARC
  8
____1
  6
DASHED2
 62
               7
 10
25315.963804796836
 20
10581.955038664037
 30
0.0
 40
16.244542030244855
 50
0.0
 51
17.583781960919058
210
0.0
220
0.0
230
1.0
  0
LINE
  8
____1
  6
DASHED2
 62
               7
 10
25326.208346827083
 20
10590.455038664037
 30
0.0
 11
25326.208346827083
 21
10581.955038664037
 31
0.0
  0
LINE
  8
____1
  6
DASHED2
 62
               7
 10
25326.967353269592
 20
10586.862515952147
 30
0.0
 11
25329.208346827083
 21
10586.862515952147
 31
0.0
  0
LINE
  8
____1
  6
DASHED2
 62
               7
 10
25329.208346827083
 20
10591.769993240257
 30
0.0
 11
25326.967536205637
 21
10591.769993240257
 31
0.0
  0
LINE
  8
____1
  6
DASHED2
 62
               7
 10
25326.208346827083
 20
10590.455038664037
 30
0.0
 11
25326.967536205637
 21
10591.769993240257
 31
0.0
  0
ARC
  8
____1
  6
DASHED2
 62
               7
 10
25330.553530687906
 20
10589.316254596204
 30
0.0
 40
4.3451838608238509
 50
154.3906893295368
 51
-145.61832584747401
  0
ARC
  8
____1
  6
DASHED2
 62
               7
 10
25342.45288885733
 20
10581.955038664037
 30
0.0
 40
16.244542030244855
 50
162.41621803908095
 51
180.0
  0
LINE
  8
____1
  6
DASHED2
 62
               7
 10
25326.208346827083
 20
10573.455038664037
 30
0.0
 11
25326.208346827083
 21
10581.955038664037
 31
0.0
  0
LINE
  8
____1
  6
DASHED2
 62
               7
 10
25326.967353269592
 20
10577.047561375923
 30
0.0
 11
25329.208346827083
 21
10577.047561375923
 31
0.0
  0
LINE
  8
____1
  6
DASHED2
 62
               7
 10
25329.208346827083
 20
10572.140084087812
 30
0.0
 11
25326.967536205637
 21
10572.140084087812
 31
0.0
  0
LINE
  8
____1
  6
DASHED2
 62
               7
 10
25326.208346827083
 20
10573.455038664037
 30
0.0
 11
25326.967536205637
 21
10572.140084087812
 31
0.0
  0
ARC
  8
____1
  6
DASHED2
 62
               7
 10
25330.553530687906
 20
10574.593822731869
 30
0.0
 40
4.345183860825423
 50
145.6183258475136
 51
-154.39068932949354
210
0.0
220
0.0
230
1.0
  0
ARC
  8
____1
  6
DASHED2
 62
               7
 10
25342.45288885733
 20
10581.955038664037
 30
0.0
 40
16.244542030245952
 50
180.0
 51
-162.41621803906872
210
0.0
220
0.0
230
1.0
  0
ENDBLK
  8
0
  0
BLOCK
  8
0
  2
C65
 70
              64
 10
0.0
 20
0.0
  0
LINE
  8
____1
  6
DASHED2
 62
               7
 10
25332.208346827083
 20
10591.155215747371
 30
0.0
 11
25334.708346827083
 21
10591.155215747371
 31
0.0
  0
LINE
  8
____1
  6
DASHED2
 62
               7
 10
25332.208346827083
 20
10572.755215747369
 30
0.0
 11
25332.208346827083
 21
10591.155215747371
 31
0.0
  0
LINE
  8
____1
  6
DASHED2
 62
               7
 10
25334.708346827083
 20
10572.755215747369
 30
0.0
 11
25332.208346827083
 21
10572.755215747369
 31
0.0
  0
LINE
  8
____1
  6
DASHED2
 62
               7
 10
25332.208465316668
 20
10582.610463143203
 30
0.0
 11
25334.708367660416
 21
10581.700573101505
 31
0.0
  0
LINE
  8
____1
  6
DASHED2
 62
               7
 10
25332.208465316668
 20
10582.210463143201
 30
0.0
 11
25334.708367660416
 21
10581.300573101504
 31
0.0
  0
ENDBLK
  8
0
  0
BLOCK
  8
0
  2
C66
 70
              64
 10
0.0
 20
0.0
  0
LINE
  8
____1
  6
DASHED2
 62
               7
 10
25349.708346827083
 20
10588.455038664037
 30
0.0
 11
25349.708346827083
 21
10575.455038664037
 31
0.0
  0
LINE
  8
____1
  6
DASHED2
 62
               7
 10
25338.708346827083
 20
10588.455038664037
 30
0.0
 11
25338.708346827083
 21
10575.455038664037
 31
0.0
  0
LINE
  8
____1
  6
DASHED2
 62
               7
 10
25349.708346827083
 20
10588.455038664037
 30
0.0
 11
25338.708346827083
 21
10588.455038664037
 31
0.0
  0
LINE
  8
____1
  6
DASHED2
 62
               7
 10
25349.708346827083
 20
10575.455038664037
 30
0.0
 11
25338.708346827083
 21
10575.455038664037
 31
0.0
  0
LINE
  8
____1
  6
DOT
 62
               7
 10
25349.708346827083
 20
10587.255038664036
 30
0.0
 11
25338.708346827083
 21
10587.255038664036
 31
0.0
  0
LINE
  8
____1
  6
DOT
 62
               7
 10
25349.708346827083
 20
10576.655038664034
 30
0.0
 11
25338.708346827083
 21
10576.655038664034
 31
0.0
  0
ENDBLK
  8
0
  0
BLOCK
  8
0
  2
C67
 70
              64
 10
0.0
 20
0.0
  0
LINE
  8
____1
  6
DOT
 62
               7
 10
25334.208187972916
 20
10826.567468137553
 30
0.0
 11
25332.208187972916
 21
10826.567468137553
 31
0.0
  0
LINE
  8
____1
  6
DOT
 62
               7
 10
25332.208187972916
 20
10837.067468137553
 30
0.0
 11
25334.208187972916
 21
10837.067468137553
 31
0.0
  0
LINE
  8
____1
  6
DASHED2
 62
               7
 10
25332.208187972916
 20
10842.817468137553
 30
0.0
 11
25334.208187972916
 21
10842.817468137553
 31
0.0
  0
LINE
  8
____1
  6
DASHED2
 62
               7
 10
25332.208187972916
 20
10842.817468137553
 30
0.0
 11
25332.208187972916
 21
10820.817468137553
 31
0.0
  0
LINE
  8
____1
  6
DASHED2
 62
               7
 10
25332.208187972916
 20
10820.817468137553
 30
0.0
 11
25334.208187972916
 21
10820.817468137553
 31
0.0
  0
LINE
  8
____1
  6
DASHED2
 62
               7
 10
25334.208187972916
 20
10842.817468137553
 30
0.0
 11
25334.208187972916
 21
10820.817468137553
 31
0.0
  0
ENDBLK
  8
0
  0
BLOCK
  8
0
  2
C68
 70
              64
 10
0.0
 20
0.0
  0
LINE
  8
____1
  6
DASHED2
 62
               7
 10
25338.708364730726
 20
10844.455266262328
 30
0.0
 11
25338.708364730726
 21
10569.45526626233
 31
0.0
  0
LINE
  8
____1
  6
DASHED2
 62
               7
 10
25334.708364730726
 20
10844.455266262328
 30
0.0
 11
25338.708364730726
 21
10844.455266262328
 31
0.0
  0
LINE
  8
____1
  6
DASHED2
 62
               7
 10
25334.708364730726
 20
10569.45526626233
 30
0.0
 11
25334.708364730726
 21
10844.455266262328
 31
0.0
  0
LINE
  8
____1
  6
DASHED2
 62
               7
 10
25338.708364730726
 20
10569.45526626233
 30
0.0
 11
25334.708364730726
 21
10569.45526626233
 31
0.0
  0
ENDBLK
  8
0
  0
BLOCK
  8
0
  2
C69
 70
              64
 10
0.0
 20
0.0
  0
LINE
  8
____1
  6
DOT
 62
               7
 10
25332.208187972916
 20
10836.817468137553
 30
0.0
 11
25347.458187972916
 21
10836.817468137553
 31
0.0
  0
LINE
  8
____1
  6
DOT
 62
               7
 10
25332.208187972916
 20
10836.067468137553
 30
0.0
 11
25348.208187972916
 21
10836.067468137553
 31
0.0
  0
LINE
  8
____1
  6
DOT
 62
               7
 10
25332.208187972916
 20
10827.567468137553
 30
0.0
 11
25348.208187972916
 21
10827.567468137553
 31
0.0
  0
LINE
  8
____1
  6
DOT
 62
               7
 10
25332.208187972916
 20
10826.817468137553
 30
0.0
 11
25347.458187972916
 21
10826.817468137553
 31
0.0
  0
LINE
  8
____1
  6
DOT
 62
               7
 10
25347.458187972916
 20
10836.817468137553
 30
0.0
 11
25348.208187972916
 21
10836.067468137553
 31
0.0
  0
LINE
  8
____1
  6
DOT
 62
               7
 10
25348.208187972916
 20
10827.567468137553
 30
0.0
 11
25348.208187972916
 21
10836.067468137553
 31
0.0
  0
LINE
  8
____1
  6
DOT
 62
               7
 10
25347.458187972916
 20
10826.817468137553
 30
0.0
 11
25348.208187972916
 21
10827.567468137553
 31
0.0
  0
LINE
  8
____1
  6
DOT
 62
               7
 10
25347.458187972916
 20
10826.817468137553
 30
0.0
 11
25347.458187972916
 21
10836.817468137553
 31
0.0
  0
ARC
  8
____1
  6
DASHED2
 62
               7
 10
25342.108187972914
 20
10831.817468137553
 30
0.0
 40
14.999999999997776
 50
-176.75149902696134
 51
-135.57299599919085
  0
ARC
  8
____1
  6
DASHED2
 62
               7
 10
25342.108187972914
 20
10831.817468137553
 30
0.0
 40
15.000000000000346
 50
135.57299599918588
 51
176.75149902694827
  0
LINE
  8
____1
  6
DASHED2
 62
               7
 10
25327.132290670485
 20
10830.967468137555
 30
0.0
 11
25327.722865591484
 21
10830.967468137555
 31
0.0
  0
LINE
  8
____1
  6
DASHED2
 62
               7
 10
25327.722865591484
 20
10832.667468137555
 30
0.0
 11
25327.722865591484
 21
10830.967468137555
 31
0.0
  0
LINE
  8
____1
  6
DASHED2
 62
               7
 10
25327.132290670987
 20
10832.667468137555
 30
0.0
 11
25327.722865591484
 21
10832.667468137555
 31
0.0
  0
LINE
  8
____1
  6
DASHED2
 62
               7
 10
25331.396045330101
 20
10842.317468137553
 30
0.0
 11
25331.396045330101
 21
10821.317468137553
 31
0.0
  0
LINE
  8
____1
  6
DASHED2
 62
               7
 10
25332.208187972916
 20
10821.317468137553
 30
0.0
 11
25331.396045330101
 21
10821.317468137553
 31
0.0
  0
LINE
  8
____1
  6
DASHED2
 62
               7
 10
25331.396045330101
 20
10842.317468137553
 30
0.0
 11
25332.208187972916
 21
10842.317468137553
 31
0.0
  0
LINE
  8
____1
  6
DASHED2
 62
               7
 10
25332.208187972916
 20
10821.317468137553
 30
0.0
 11
25332.208187972916
 21
10842.317468137553
 31
0.0
  0
ENDBLK
  8
0
  0
BLOCK
  8
0
  2
C70
 70
              64
 10
0.0
 20
0.0
  0
LINE
  8
____1
  6
DASHED2
 62
               7
 10
25388.458181746661
 20
11011.335267846618
 30
0.0
 11
25452.458181746661
 21
11011.335267846618
 31
0.0
  0
LINE
  8
____1
  6
DASHED2
 62
               7
 10
25388.458181746661
 20
11014.335267846618
 30
0.0
 11
25452.458181746661
 21
11014.335267846618
 31
0.0
  0
LINE
  8
____1
  6
DASHED2
 62
               7
 10
25388.458181746661
 20
11020.335267846618
 30
0.0
 11
25452.458181746661
 21
11020.335267846618
 31
0.0
  0
LINE
  8
____1
  6
DASHED2
 62
               7
 10
25388.458181746661
 20
11023.335267846618
 30
0.0
 11
25452.458181746661
 21
11023.335267846618
 31
0.0
  0
LINE
  8
____1
  6
DASHED2
 62
               7
 10
25426.858181746655
 20
11014.335267846618
 30
0.0
 11
25426.858181746655
 21
11020.335267846618
 31
0.0
  0
LINE
  8
____1
  6
DASHED2
 62
               7
 10
25439.658181746658
 20
11014.335267846618
 30
0.0
 11
25439.658181746658
 21
11020.335267846618
 31
0.0
  0
LINE
  8
____1
  6
DASHED2
 62
               7
 10
25388.458181746661
 20
11023.335267846618
 30
0.0
 11
25388.458181746661
 21
11011.335267846618
 31
0.0
  0
LINE
  8
____1
  6
DASHED2
 62
               7
 10
25452.458181746661
 20
11023.335267846618
 30
0.0
 11
25452.458181746661
 21
11011.335267846618
 31
0.0
  0
ARC
  8
____1
  6
DASHED2
 62
               7
 10
25443.420233028715
 20
11017.335267846618
 30
0.0
 40
9.9999999999981259
 50
-25.338541490960836
 51
25.338541490979676
210
0.0
220
0.0
230
1.0
  0
ARC
  8
____1
  6
DASHED2
 62
               7
 10
25397.496130464606
 20
11017.335267846618
 30
0.0
 40
9.9999999999981259
 50
154.66145850902032
 51
-154.66145850903916
  0
LINE
  8
____1
  6
DASHED2
 62
               7
 10
25401.258181746663
 20
11014.335267846618
 30
0.0
 11
25401.258181746663
 21
11020.335267846618
 31
0.0
  0
LINE
  8
____1
  6
DASHED2
 62
               7
 10
25414.058181746659
 20
11014.335267846618
 30
0.0
 11
25414.058181746659
 21
11020.335267846618
 31
0.0
  0
ENDBLK
  8
0
  0
BLOCK
  8
0
  2
C71
 70
              64
 10
0.0
 20
0.0
  0
LINE
  8
____1
  6
DASHED2
 62
               7
 10
25343.458364730726
 20
10825.317468137553
 30
0.0
 11
25341.458364730726
 21
10825.317468137553
 31
0.0
  0
LINE
  8
____1
  6
DASHED2
 62
               7
 10
25343.458364730726
 20
10826.817468137553
 30
0.0
 11
25340.958364730726
 21
10826.817468137553
 31
0.0
  0
LINE
  8
____1
  6
DASHED2
 62
               7
 10
25343.458364730726
 20
10836.817468137553
 30
0.0
 11
25340.958364730726
 21
10836.817468137553
 31
0.0
  0
LINE
  8
____1
  6
DASHED2
 62
               7
 10
25343.458364730726
 20
10838.317468137553
 30
0.0
 11
25341.458364730726
 21
10838.317468137553
 31
0.0
  0
ARC
  8
____1
  6
DASHED2
 62
               7
 10
25340.958364730726
 20
10849.317468137553
 30
0.0
 40
1.5
 50
90.0
 51
180.0
210
0.0
220
0.0
230
1.0
  0
LINE
  8
____1
  6
DASHED2
 62
               7
 10
25343.458364730726
 20
10849.317468137553
 30
0.0
 11
25340.958364730726
 21
10849.317468137553
 31
0.0
  0
ARC
  8
____1
  6
DASHED2
 62
               7
 10
25340.958364730726
 20
10825.317468137553
 30
0.0
 40
1.5
 50
90.0
 51
180.0
  0
ARC
  8
____1
  6
DASHED2
 62
               7
 10
25340.958364730726
 20
10814.317468137553
 30
0.0
 40
1.5
 50
180.0
 51
-90.0
210
0.0
220
0.0
230
1.0
  0
LINE
  8
____1
  6
DASHED2
 62
               7
 10
25340.958364730726
 20
10814.317468137553
 30
0.0
 11
25343.458364730726
 21
10814.317468137553
 31
0.0
  0
LINE
  8
____1
  6
DASHED2
 62
               7
 10
25343.458364730726
 20
10812.817468137553
 30
0.0
 11
25343.458364730726
 21
10850.817468137553
 31
0.0
  0
LINE
  8
____1
  6
DASHED2
 62
               7
 10
25339.458364730726
 20
10814.317468137553
 30
0.0
 11
25339.458364730726
 21
10849.317468137553
 31
0.0
  0
ARC
  8
____1
  6
DASHED2
 62
               7
 10
25341.458364730726
 20
10838.817468137553
 30
0.0
 40
0.5
 50
180.0
 51
-90.0
210
0.0
220
0.0
230
1.0
  0
ARC
  8
____1
  6
DASHED2
 62
               7
 10
25340.958364730726
 20
10838.317468137553
 30
0.0
 40
1.5
 50
180.0
 51
-90.0
210
0.0
220
0.0
230
1.0
  0
ARC
  8
____1
  6
DASHED2
 62
               7
 10
25341.458364730726
 20
10824.817468137553
 30
0.0
 40
0.5
 50
90.0
 51
180.0
  0
LINE
  8
____1
  6
DASHED2
 62
               7
 10
25340.958364730726
 20
10814.317468137553
 30
0.0
 11
25340.958364730726
 21
10849.317468137553
 31
0.0
  0
LINE
  8
____1
  6
DASHED2
 62
               7
 10
25374.458364730726
 20
10812.817468137553
 30
0.0
 11
25374.458364730726
 21
10850.817468137553
 31
0.0
  0
LINE
  8
____1
  6
DASHED2
 62
               7
 10
25374.458364730726
 20
10849.317468137553
 30
0.0
 11
25343.458364730726
 21
10849.317468137553
 31
0.0
  0
LINE
  8
____1
  6
DASHED2
 62
               7
 10
25374.458364730726
 20
10850.817468137553
 30
0.0
 11
25340.958364730726
 21
10850.817468137553
 31
0.0
  0
LINE
  8
____1
  6
DASHED2
 62
               7
 10
25343.458364730726
 20
10814.317468137553
 30
0.0
 11
25374.458364730726
 21
10814.317468137553
 31
0.0
  0
LINE
  8
____1
  6
DASHED2
 62
               7
 10
25340.958364730726
 20
10812.817468137553
 30
0.0
 11
25374.458364730726
 21
10812.817468137553
 31
0.0
  0
ENDBLK
  8
0
  0
BLOCK
  8
0
  2
C72
 70
              64
 10
0.0
 20
0.0
  0
LINE
  8
____1
  6
DASHED2
 62
               7
 10
25607.458346827079
 20
10416.281154287053
 30
0.0
 11
25617.458346827079
 21
10416.281154287053
 31
0.0
  0
LINE
  8
____1
  6
DASHED2
 62
               7
 10
25627.458346827079
 20
10416.281154287053
 30
0.0
 11
25637.458346827079
 21
10416.281154287053
 31
0.0
  0
LINE
  8
____1
  6
DASHED2
 62
               7
 10
25602.458346827079
 20
10433.281154287053
 30
0.0
 11
25602.458346827079
 21
10443.281154287053
 31
0.0
  0
LINE
  8
____1
  6
DASHED2
 62
               7
 10
25637.458346827079
 20
10433.281154287053
 30
0.0
 11
25642.458346827079
 21
10433.281154287053
 31
0.0
  0
LINE
  8
____1
  6
DASHED2
 62
               7
 10
25607.458346827079
 20
10414.281154287053
 30
0.0
 11
25607.458346827079
 21
10438.281154287053
 31
0.0
  0
LINE
  8
____1
  6
DASHED2
 62
               7
 10
25637.458346827079
 20
10414.281154287053
 30
0.0
 11
25637.458346827079
 21
10438.281154287053
 31
0.0
  0
LINE
  8
____1
  6
DASHED2
 62
               7
 10
25602.458346827079
 20
10438.281154287053
 30
0.0
 11
25607.458346827079
 21
10438.281154287053
 31
0.0
  0
LINE
  8
____1
  6
DASHED2
 62
               7
 10
25637.458346827079
 20
10438.281154287053
 30
0.0
 11
25642.458346827079
 21
10438.281154287053
 31
0.0
  0
LINE
  8
____1
  6
DASHED2
 62
               7
 10
25617.458346827079
 20
10416.281154287053
 30
0.0
 11
25627.458346827079
 21
10416.281154287053
 31
0.0
  0
LINE
  8
____1
  6
DASHED2
 62
               7
 10
25627.458346827079
 20
10421.281154287053
 30
0.0
 11
25627.458346827079
 21
10414.281154287053
 31
0.0
  0
LINE
  8
____1
  6
DASHED2
 62
               7
 10
25617.458346827079
 20
10421.281154287053
 30
0.0
 11
25617.458346827079
 21
10414.281154287053
 31
0.0
  0
LINE
  8
____1
  6
DASHED2
 62
               7
 10
25642.458346827079
 20
10433.281154287053
 30
0.0
 11
25642.458346827079
 21
10443.281154287053
 31
0.0
  0
LINE
  8
____1
  6
DASHED2
 62
               7
 10
25602.458346827079
 20
10443.281154287053
 30
0.0
 11
25642.458346827079
 21
10443.281154287053
 31
0.0
  0
LINE
  8
____1
  6
DASHED2
 62
               7
 10
25607.458346827079
 20
10414.281154287053
 30
0.0
 11
25637.458346827079
 21
10414.281154287053
 31
0.0
  0
LINE
  8
____1
  6
DASHED2
 62
               7
 10
25602.604590717056
 20
10433.281154287053
 30
0.0
 11
25607.458346827079
 21
10433.281154287053
 31
0.0
  0
LINE
  8
____1
  6
DASHED2
 62
               7
 10
25607.458346827079
 20
10433.281154287053
 30
0.0
 11
25637.458346827079
 21
10433.281154287053
 31
0.0
  0
ARC
  8
____1
  6
DASHED2
 62
               7
 10
25622.458346827079
 20
10421.281154287053
 30
0.0
 40
5.0
 50
0.0
 51
180.0
  0
ENDBLK
  8
0
  0
BLOCK
  8
0
  2
C73
 70
              64
 10
0.0
 20
0.0
  0
LINE
  8
____1
  6
DASHED2
 62
               7
 10
25792.458181746661
 20
11011.335267846618
 30
0.0
 11
25856.458181746661
 21
11011.335267846618
 31
0.0
  0
LINE
  8
____1
  6
DASHED2
 62
               7
 10
25792.458181746661
 20
11014.335267846618
 30
0.0
 11
25856.458181746661
 21
11014.335267846618
 31
0.0
  0
LINE
  8
____1
  6
DASHED2
 62
               7
 10
25792.458181746661
 20
11020.335267846618
 30
0.0
 11
25856.458181746661
 21
11020.335267846618
 31
0.0
  0
LINE
  8
____1
  6
DASHED2
 62
               7
 10
25792.458181746661
 20
11023.335267846618
 30
0.0
 11
25856.458181746661
 21
11023.335267846618
 31
0.0
  0
LINE
  8
____1
  6
DASHED2
 62
               7
 10
25830.858181746655
 20
11014.335267846618
 30
0.0
 11
25830.858181746655
 21
11020.335267846618
 31
0.0
  0
LINE
  8
____1
  6
DASHED2
 62
               7
 10
25843.658181746658
 20
11014.335267846618
 30
0.0
 11
25843.658181746658
 21
11020.335267846618
 31
0.0
  0
LINE
  8
____1
  6
DASHED2
 62
               7
 10
25792.458181746661
 20
11023.335267846618
 30
0.0
 11
25792.458181746661
 21
11011.335267846618
 31
0.0
  0
LINE
  8
____1
  6
DASHED2
 62
               7
 10
25856.458181746661
 20
11023.335267846618
 30
0.0
 11
25856.458181746661
 21
11011.335267846618
 31
0.0
  0
ARC
  8
____1
  6
DASHED2
 62
               7
 10
25847.420233028715
 20
11017.335267846618
 30
0.0
 40
9.9999999999981259
 50
-25.338541490960836
 51
25.338541490979676
210
0.0
220
0.0
230
1.0
  0
ARC
  8
____1
  6
DASHED2
 62
               7
 10
25801.496130464606
 20
11017.335267846618
 30
0.0
 40
9.9999999999981259
 50
154.66145850902032
 51
-154.66145850903916
  0
LINE
  8
____1
  6
DASHED2
 62
               7
 10
25805.258181746663
 20
11014.335267846618
 30
0.0
 11
25805.258181746663
 21
11020.335267846618
 31
0.0
  0
LINE
  8
____1
  6
DASHED2
 62
               7
 10
25818.058181746659
 20
11014.335267846618
 30
0.0
 11
25818.058181746659
 21
11020.335267846618
 31
0.0
  0
ENDBLK
  8
0
  0
BLOCK
  8
0
  2
C74
 70
              64
 10
0.0
 20
0.0
  0
LINE
  8
____1
  6
DASHED2
 62
               7
 10
25322.958346827079
 20
10887.135267846621
 30
0.0
 11
25352.458346827079
 21
10887.135267846621
 31
0.0
  0
LINE
  8
____1
  6
DASHED2
 62
               7
 10
25322.458346827079
 20
10539.835267846618
 30
0.0
 11
25352.458346827079
 21
10539.835267846618
 31
0.0
  0
LINE
  8
____1
  6
DASHED2
 62
               7
 10
25322.458346827079
 20
10539.835267846618
 30
0.0
 11
25322.458346827079
 21
10542.335267846618
 31
0.0
  0
LINE
  8
____1
  6
DASHED2
 62
               7
 10
25322.458346827079
 20
10542.335267846618
 30
0.0
 11
25352.458346827079
 21
10542.335267846618
 31
0.0
  0
LINE
  8
____1
  6
DASHED2
 62
               7
 10
25322.458346827079
 20
10887.335267846618
 30
0.0
 11
25352.458346827079
 21
10887.335267846618
 31
0.0
  0
LINE
  8
____1
  6
DASHED2
 62
               7
 10
25322.458346827079
 20
10887.335267846618
 30
0.0
 11
25322.458346827079
 21
10889.835267846622
 31
0.0
  0
LINE
  8
____1
  6
DASHED2
 62
               7
 10
25322.458346827079
 20
10889.835267846622
 30
0.0
 11
25352.458346827079
 21
10889.835267846622
 31
0.0
  0
ARC
  8
____1
  6
DASHED2
 62
               7
 10
25352.458346827079
 20
10887.335267846618
 30
0.0
 40
2.500000000003638
 50
0.0000396924704228
 51
90.0
210
0.0
220
0.0
230
1.0
  0
ARC
  8
____1
  6
DASHED2
 62
               7
 10
25352.458346827079
 20
10542.335267846618
 30
0.0
 40
2.5
 50
-90.0
 51
0.0
  0
LINE
  8
____1
  6
DASHED2
 62
               7
 10
25354.958346827079
 20
10542.335267846618
 30
0.0
 11
25354.958346827079
 21
10887.335269578529
 31
0.0
  0
LINE
  8
____1
  6
DASHED2
 62
               7
 10
25352.458346827079
 20
10542.335267846618
 30
0.0
 11
25352.458346827079
 21
10887.335267846618
 31
0.0
  0
LINE
  8
____1
  6
DASHED2
 62
               7
 10
25322.958346827079
 20
10542.535267846619
 30
0.0
 11
25322.958346827079
 21
10887.135267846621
 31
0.0
  0
LINE
  8
____1
  6
DASHED2
 62
               7
 10
25322.958346827079
 20
10542.535267846619
 30
0.0
 11
25352.458346827079
 21
10542.535267846619
 31
0.0
  0
ENDBLK
  8
0
  0
BLOCK
  8
0
  2
C75
 70
              64
 10
0.0
 20
0.0
  0
ARC
  8
UNASSIGNED
  6
DASHED2
 62
               7
 10
25622.458346827079
 20
10430.835267846624
 30
0.0
 40
2.5
 50
180.0
 51
0.0
210
0.0
220
0.0
230
1.0
  0
LINE
  8
UNASSIGNED
  6
DASHED2
 62
               7
 10
25624.958346827079
 20
10409.835267846624
 30
0.0
 11
25624.958346827079
 21
10430.835267846624
 31
0.0
  0
LINE
  8
UNASSIGNED
  6
DASHED2
 62
               7
 10
25619.958346827079
 20
10408.335267846624
 30
0.0
 11
25624.958346827079
 21
10408.335267846624
 31
0.0
  0
LINE
  8
UNASSIGNED
  6
DASHED2
 62
               7
 10
25619.958346827079
 20
10409.835267846624
 30
0.0
 11
25619.958346827079
 21
10408.335267846624
 31
0.0
  0
LINE
  8
UNASSIGNED
  6
DASHED2
 62
               7
 10
25624.958346827079
 20
10408.335267846624
 30
0.0
 11
25624.958346827079
 21
10409.835267846624
 31
0.0
  0
LINE
  8
UNASSIGNED
  6
DASHED2
 62
               7
 10
25619.958346827079
 20
10411.589614996004
 30
0.0
 11
25624.958346827079
 21
10411.589614996004
 31
0.0
  0
LINE
  8
UNASSIGNED
  6
DASHED2
 62
               7
 10
25619.958346827079
 20
10430.835267846624
 30
0.0
 11
25619.958346827079
 21
10409.835267846624
 31
0.0
  0
ARC
  8
UNASSIGNED
  6
DASHED2
 62
               7
 10
25622.458346827079
 20
10430.835267846624
 30
0.0
 40
2.5
 50
0.0
 51
180.0
210
0.0
220
0.0
230
1.0
  0
ENDBLK
  8
0
  0
BLOCK
  8
0
  2
C76
 70
              64
 10
0.0
 20
0.0
  0
LINE
  8
____1
  6
DASHED2
 62
               7
 10
25705.07308353683
 20
10599.769811368989
 30
0.0
 11
25680.387561098541
 21
10592.39798739063
 31
0.0
  0
POLYLINE
  8
____1
  6
DASHED2
 62
               7
 66
               1
 10
0.0
 20
0.0
 30
0.0
 70
               8
  0
VERTEX
  8
____1
 62
               7
 10
25680.700123495466
 20
10578.613751488429
 30
0.0
 70
              32
  0
VERTEX
  8
____1
 62
               7
 10
25680.698044520792
 20
10579.08303646382
 30
0.0
 70
              32
  0
VERTEX
  8
____1
 62
               7
 10
25680.623558782077
 20
10579.528068120655
 30
0.0
 70
              32
  0
VERTEX
  8
____1
 62
               7
 10
25680.483957462406
 20
10579.905283659646
 30
0.0
 70
              32
  0
VERTEX
  8
____1
 62
               7
 10
25680.292905711605
 20
10580.177758595617
 30
0.0
 70
              32
  0
VERTEX
  8
____1
 62
               7
 10
25680.069105006176
 20
10580.318821183393
 30
0.0
 70
              32
  0
VERTEX
  8
____1
 62
               7
 10
25679.958346827079
 20
10580.33526784662
 30
0.0
 70
              32
  0
SEQEND
  8
____1
 62
               7
  0
ARC
  8
____1
  6
DASHED2
 62
               7
 10
25717.458346827079
 20
10576.33526784662
 30
0.0
 40
5.0
 50
-90.0
 51
0.0
210
0.0
220
0.0
230
1.0
  0
ARC
  8
____1
  6
DASHED2
 62
               7
 10
25706.32308353683
 20
10572.08526784662
 30
0.0
 40
1.25
 50
0.0
 51
180.0
  0
LINE
  8
____1
  6
DASHED2
 62
               7
 10
25707.57308353683
 20
10571.635267846619
 30
0.0
 11
25707.57308353683
 21
10572.08526784662
 31
0.0
  0
POLYLINE
  8
____1
  6
DASHED2
 62
               7
 66
               1
 10
0.0
 20
0.0
 30
0.0
 70
               8
  0
VERTEX
  8
____1
 62
               7
 10
25564.216570158693
 20
10578.613751488429
 30
0.0
 70
              32
  0
VERTEX
  8
____1
 62
               7
 10
25564.218649133367
 20
10579.08303646382
 30
0.0
 70
              32
  0
VERTEX
  8
____1
 62
               7
 10
25564.293134872081
 20
10579.528068120655
 30
0.0
 70
              32
  0
VERTEX
  8
____1
 62
               7
 10
25564.432736191753
 20
10579.905283659646
 30
0.0
 70
              32
  0
VERTEX
  8
____1
 62
               7
 10
25564.623787942553
 20
10580.177758595617
 30
0.0
 70
              32
  0
VERTEX
  8
____1
 62
               7
 10
25564.847588647983
 20
10580.318821183393
 30
0.0
 70
              32
  0
VERTEX
  8
____1
 62
               7
 10
25564.958346827079
 20
10580.33526784662
 30
0.0
 70
              32
  0
SEQEND
  8
____1
 62
               7
  0
ARC
  8
____1
  6
DASHED2
 62
               7
 10
25564.958346827079
 20
10578.83526784662
 30
0.0
 40
1.5
 50
0.0
 51
90.0
210
0.0
220
0.0
230
1.0
  0
LINE
  8
____1
  6
DASHED2
 62
               7
 10
25564.958346827079
 20
10592.33526784662
 30
0.0
 11
25564.958346827079
 21
10580.33526784662
 31
0.0
  0
LINE
  8
____1
  6
DASHED2
 62
               7
 10
25522.458346827079
 20
10596.33526784662
 30
0.0
 11
25522.458346827079
 21
10576.33526784662
 31
0.0
  0
LINE
  8
____1
  6
DASHED2
 62
               7
 10
25704.687240537263
 20
10571.450491929203
 30
0.0
 11
25680.700123495466
 21
10578.613751488427
 31
0.0
  0
LINE
  8
____1
  6
DASHED2
 62
               7
 10
25679.958346827079
 20
10592.33526784662
 30
0.0
 11
25679.958346827079
 21
10580.33526784662
 31
0.0
  0
LINE
  8
____1
  6
DASHED2
 62
               7
 10
25722.458346827079
 20
10596.33526784662
 30
0.0
 11
25722.458346827079
 21
10576.33526784662
 31
0.0
  0
ARC
  8
____1
  6
DASHED2
 62
               7
 10
25564.958346827079
 20
10593.83526784662
 30
0.0
 40
1.5
 50
-90.0
 51
0.0
  0
POLYLINE
  8
____1
  6
DASHED2
 62
               7
 66
               1
 10
0.0
 20
0.0
 30
0.0
 70
               8
  0
VERTEX
  8
____1
 62
               7
 10
25564.216570158693
 20
10594.056784204811
 30
0.0
 70
              32
  0
VERTEX
  8
____1
 62
               7
 10
25564.218649133367
 20
10593.587499229419
 30
0.0
 70
              32
  0
VERTEX
  8
____1
 62
               7
 10
25564.293134872081
 20
10593.142467572585
 30
0.0
 70
              32
  0
VERTEX
  8
____1
 62
               7
 10
25564.432736191753
 20
10592.765252033594
 30
0.0
 70
              32
  0
VERTEX
  8
____1
 62
               7
 10
25564.623787942553
 20
10592.492777097623
 30
0.0
 70
              32
  0
VERTEX
  8
____1
 62
               7
 10
25564.847588647983
 20
10592.351714509847
 30
0.0
 70
              32
  0
VERTEX
  8
____1
 62
               7
 10
25564.958346827079
 20
10592.33526784662
 30
0.0
 70
              32
  0
SEQEND
  8
____1
 62
               7
  0
LINE
  8
____1
  6
DASHED2
 62
               7
 10
25564.529132555617
 20
10580.27254830261
 30
0.0
 11
25539.843610117328
 21
10572.90072432425
 31
0.0
  0
LINE
  8
____1
  6
DASHED2
 62
               7
 10
25679.958346827079
 20
10580.33526784662
 30
0.0
 11
25564.958346827079
 21
10580.33526784662
 31
0.0
  0
LINE
  8
____1
  6
DASHED2
 62
               7
 10
25678.458346827079
 20
10578.83526784662
 30
0.0
 11
25566.458346827079
 21
10578.83526784662
 31
0.0
  0
LINE
  8
____1
  6
DASHED2
 62
               7
 10
25705.07308353683
 20
10572.90072432425
 30
0.0
 11
25680.387561098549
 21
10580.27254830261
 31
0.0
  0
LINE
  8
____1
  6
DASHED2
 62
               7
 10
25564.958346827079
 20
10592.33526784662
 30
0.0
 11
25679.958346827079
 21
10592.33526784662
 31
0.0
  0
LINE
  8
____1
  6
DASHED2
 62
               7
 10
25566.458346827079
 20
10593.83526784662
 30
0.0
 11
25678.458346827079
 21
10593.83526784662
 31
0.0
  0
LINE
  8
____1
  6
DASHED2
 62
               7
 10
25537.043610117333
 20
10601.33526784662
 30
0.0
 11
25527.458346827079
 21
10601.33526784662
 31
0.0
  0
ARC
  8
____1
  6
DASHED2
 62
               7
 10
25537.043610117333
 20
10601.035267846621
 30
0.0
 40
0.2999999999992724
 50
0.0
 51
90.0
210
0.0
220
0.0
230
1.0
  0
ARC
  8
____1
  6
DASHED2
 62
               7
 10
25540.143610117331
 20
10600.932587716221
 30
0.0
 40
0.2999999999989409
 50
73.372687562119992
 51
-179.99955041883393
  0
ARC
  8
____1
  6
DASHED2
 62
               7
 10
25707.87308353683
 20
10601.035267846621
 30
0.0
 40
0.2999999999992724
 50
90.0
 51
180.0
  0
ARC
  8
____1
  6
DASHED2
 62
               7
 10
25540.143610117331
 20
10571.737947977019
 30
0.0
 40
0.2999999999985377
 50
179.99967459815417
 51
-73.372686758660876
210
0.0
220
0.0
230
1.0
  0
ARC
  8
____1
  6
DASHED2
 62
               7
 10
25717.458346827079
 20
10596.33526784662
 30
0.0
 40
5.0
 50
0.0
 51
90.0
210
0.0
220
0.0
230
1.0
  0
LINE
  8
____1
  6
DASHED2
 62
               7
 10
25704.687240682535
 20
10601.220043807416
 30
0.0
 11
25680.700123495466
 21
10594.056784204813
 31
0.0
  0
ARC
  8
____1
  6
DASHED2
 62
               7
 10
25704.773083536827
 20
10600.932587716221
 30
0.0
 40
0.2999999999970155
 50
0.0
 51
106.62717419191691
210
0.0
220
0.0
230
1.0
  0
LINE
  8
____1
  6
DASHED2
 62
               7
 10
25707.87308353683
 20
10601.33526784662
 30
0.0
 11
25717.458346827079
 21
10601.33526784662
 31
0.0
  0
LINE
  8
____1
  6
DASHED2
 62
               7
 10
25707.57308353683
 20
10601.035267846621
 30
0.0
 11
25707.57308353683
 21
10600.58526784662
 31
0.0
  0
ARC
  8
____1
  6
DASHED2
 62
               7
 10
25707.87308353683
 20
10571.635267846619
 30
0.0
 40
0.2999999999997293
 50
180.0
 51
-89.99990000329025
210
0.0
220
0.0
230
1.0
  0
LINE
  8
____1
  6
DASHED2
 62
               7
 10
25717.458346827079
 20
10571.33526784662
 30
0.0
 11
25707.873084060411
 21
10571.33526784662
 31
0.0
  0
ARC
  8
____1
  6
DASHED2
 62
               7
 10
25704.773083536827
 20
10571.737947977019
 30
0.0
 40
0.3000000000000906
 50
-106.62720314732871
 51
-0.000019717113064
  0
ARC
  8
____1
  6
DASHED2
 62
               7
 10
25679.958346827079
 20
10593.83526784662
 30
0.0
 40
1.5
 50
180.0
 51
-90.0
210
0.0
220
0.0
230
1.0
  0
POLYLINE
  8
____1
  6
DASHED2
 62
               7
 66
               1
 10
0.0
 20
0.0
 30
0.0
 70
               8
  0
VERTEX
  8
____1
 62
               7
 10
25680.700123495466
 20
10594.056784204811
 30
0.0
 70
              32
  0
VERTEX
  8
____1
 62
               7
 10
25680.698044520792
 20
10593.587499229419
 30
0.0
 70
              32
  0
VERTEX
  8
____1
 62
               7
 10
25680.623558782077
 20
10593.142467572585
 30
0.0
 70
              32
  0
VERTEX
  8
____1
 62
               7
 10
25680.483957462406
 20
10592.765252033594
 30
0.0
 70
              32
  0
VERTEX
  8
____1
 62
               7
 10
25680.292905711605
 20
10592.492777097623
 30
0.0
 70
              32
  0
VERTEX
  8
____1
 62
               7
 10
25680.069105006176
 20
10592.351714509847
 30
0.0
 70
              32
  0
VERTEX
  8
____1
 62
               7
 10
25679.958346827079
 20
10592.33526784662
 30
0.0
 70
              32
  0
SEQEND
  8
____1
 62
               7
  0
ARC
  8
____1
  6
DASHED2
 62
               7
 10
25679.958346827079
 20
10578.83526784662
 30
0.0
 40
1.5
 50
90.0
 51
180.0
  0
LINE
  8
____1
  6
DASHED2
 62
               7
 10
25527.458346827079
 20
10571.33526784662
 30
0.0
 11
25537.043609593748
 21
10571.33526784662
 31
0.0
  0
ARC
  8
____1
  6
DASHED2
 62
               7
 10
25537.043610117333
 20
10571.635267846619
 30
0.0
 40
0.2999999999997293
 50
-90.000099997404547
 51
0.0
  0
LINE
  8
____1
  6
DASHED2
 62
               7
 10
25537.343610117336
 20
10571.635267846619
 30
0.0
 11
25537.343610117336
 21
10572.08526784662
 31
0.0
  0
ARC
  8
____1
  6
DASHED2
 62
               7
 10
25538.593610117336
 20
10572.08526784662
 30
0.0
 40
1.25
 50
0.0
 51
180.0
210
0.0
220
0.0
230
1.0
  0
ARC
  8
____1
  6
DASHED2
 62
               7
 10
25527.458346827079
 20
10576.33526784662
 30
0.0
 40
5.0
 50
180.0
 51
-90.0
  0
ARC
  8
____1
  6
DASHED2
 62
               7
 10
25706.32308353683
 20
10600.58526784662
 30
0.0
 40
1.25
 50
180.0
 51
0.0
210
0.0
220
0.0
230
1.0
  0
LINE
  8
____1
  6
DASHED2
 62
               7
 10
25539.843610117328
 20
10599.769811368989
 30
0.0
 11
25564.529132555617
 21
10592.39798739063
 31
0.0
  0
LINE
  8
____1
  6
DASHED2
 62
               7
 10
25537.343610117336
 20
10601.035267846621
 30
0.0
 11
25537.343610117336
 21
10600.58526784662
 31
0.0
  0
LINE
  8
____1
  6
DASHED2
 62
               7
 10
25539.843610117328
 20
10600.932585362219
 30
0.0
 11
25539.843610117328
 21
10571.737949680819
 31
0.0
  0
ARC
  8
____1
  6
DASHED2
 62
               7
 10
25538.593610117336
 20
10600.58526784662
 30
0.0
 40
1.25
 50
180.0
 51
0.0
  0
LINE
  8
____1
  6
DASHED2
 62
               7
 10
25540.229453665212
 20
10601.220043600291
 30
0.0
 11
25564.216570158693
 21
10594.056784204813
 31
0.0
  0
ARC
  8
____1
  6
DASHED2
 62
               7
 10
25527.458346827079
 20
10596.33526784662
 30
0.0
 40
5.0
 50
90.0
 51
180.0
  0
LINE
  8
____1
  6
DASHED2
 62
               7
 10
25564.216570158693
 20
10578.613751488427
 30
0.0
 11
25540.229453669243
 21
10571.450492094153
 31
0.0
  0
LINE
  8
____1
  6
DASHED2
 62
               7
 10
25705.07308353683
 20
10600.932587716221
 30
0.0
 11
25705.07308353683
 21
10571.73794787378
 31
0.0
  0
ENDBLK
  8
0
  0
BLOCK
  8
0
  2
C77
 70
              64
 10
0.0
 20
0.0
  0
INSERT
  8
____1
  6
CONTINUOUS
 62
             254
  2
C78
 10
0.0
 20
0.0
 30
0.0
  0
INSERT
  8
____1
  6
CONTINUOUS
 62
             254
  2
C79
 10
0.0
 20
0.0
 30
0.0
  0
INSERT
  8
____1
  6
CONTINUOUS
 62
             254
  2
C80
 10
0.0
 20
0.0
 30
0.0
  0
INSERT
  8
____1
  6
CONTINUOUS
 62
             254
  2
C81
 10
0.0
 20
0.0
 30
0.0
  0
INSERT
  8
____1
  6
CONTINUOUS
 62
             254
  2
C82
 10
0.0
 20
0.0
 30
0.0
  0
INSERT
  8
____1
  6
CONTINUOUS
 62
             254
  2
C83
 10
0.0
 20
0.0
 30
0.0
  0
INSERT
  8
____1
  6
CONTINUOUS
 62
             254
  2
C84
 10
0.0
 20
0.0
 30
0.0
  0
INSERT
  8
____1
  6
CONTINUOUS
 62
             254
  2
C85
 10
0.0
 20
0.0
 30
0.0
  0
ENDBLK
  8
0
  0
BLOCK
  8
0
  2
C78
 70
              64
 10
0.0
 20
0.0
  0
LINE
  8
____1
  6
CENTER2
 62
               3
 10
25372.45834682709
 20
10309.835267846618
 30
0.0
 11
25332.458346827083
 21
10309.835267846618
 31
0.0
  0
CIRCLE
  8
____1
  6
CONTINUOUS
 62
               5
 10
25352.458346827087
 20
10309.835267846618
 30
0.0
 40
15.0
210
0.0
220
0.0
230
1.0
  0
LINE
  8
____1
  6
CENTER2
 62
               3
 10
25352.458346827087
 20
10264.063115258949
 30
0.0
 11
25352.458346827087
 21
10334.835267846618
 31
0.0
  0
POLYLINE
  8
____1
  6
CONTINUOUS
 62
               5
 66
               1
 10
0.0
 20
0.0
 30
0.0
 70
               8
  0
VERTEX
  8
____1
 62
               5
 10
25378.958346827087
 20
10299.585267846624
 30
0.0
 70
              32
  0
VERTEX
  8
____1
 62
               5
 10
25378.555752281911
 20
10304.490828865713
 30
0.0
 70
              32
  0
VERTEX
  8
____1
 62
               5
 10
25377.360201277912
 20
10309.247336895574
 30
0.0
 70
              32
  0
VERTEX
  8
____1
 62
               5
 10
25375.408020027375
 20
10313.710267846624
 30
0.0
 70
              32
  0
VERTEX
  8
____1
 62
               5
 10
25372.758524569741
 20
10317.744017820269
 30
0.0
 70
              32
  0
VERTEX
  8
____1
 62
               5
 10
25369.492218483781
 20
10321.226023364734
 30
0.0
 70
              32
  0
VERTEX
  8
____1
 62
               5
 10
25365.708346827087
 20
10324.050485503534
 30
0.0
 70
              32
  0
VERTEX
  8
____1
 62
               5
 10
25361.521880625216
 20
10326.131584383826
 30
0.0
 70
              32
  0
VERTEX
  8
____1
 62
               5
 10
25357.060023535261
 20
10327.406086869218
 30
0.0
 70
              32
  0
VERTEX
  8
____1
 62
               5
 10
25352.458346827087
 20
10327.835267846624
 30
0.0
 70
              32
  0
VERTEX
  8
____1
 62
               5
 10
25347.856670118912
 20
10327.406086869218
 30
0.0
 70
              32
  0
VERTEX
  8
____1
 62
               5
 10
25343.394813028957
 20
10326.131584383826
 30
0.0
 70
              32
  0
VERTEX
  8
____1
 62
               5
 10
25339.208346827087
 20
10324.050485503534
 30
0.0
 70
              32
  0
VERTEX
  8
____1
 62
               5
 10
25335.424475170392
 20
10321.226023364734
 30
0.0
 70
              32
  0
VERTEX
  8
____1
 62
               5
 10
25332.158169084432
 20
10317.744017820269
 30
0.0
 70
              32
  0
VERTEX
  8
____1
 62
               5
 10
25329.508673626799
 20
10313.710267846624
 30
0.0
 70
              32
  0
VERTEX
  8
____1
 62
               5
 10
25327.556492376261
 20
10309.247336895574
 30
0.0
 70
              32
  0
VERTEX
  8
____1
 62
               5
 10
25326.360941372262
 20
10304.490828865715
 30
0.0
 70
              32
  0
VERTEX
  8
____1
 62
               5
 10
25325.958346827087
 20
10299.585267846624
 30
0.0
 70
              32
  0
VERTEX
  8
____1
 62
               5
 10
25326.360941372262
 20
10294.679706827534
 30
0.0
 70
              32
  0
VERTEX
  8
____1
 62
               5
 10
25327.556492376261
 20
10289.923198797673
 30
0.0
 70
              32
  0
VERTEX
  8
____1
 62
               5
 10
25329.508673626799
 20
10285.460267846624
 30
0.0
 70
              32
  0
VERTEX
  8
____1
 62
               5
 10
25332.158169084432
 20
10281.426517872978
 30
0.0
 70
              32
  0
VERTEX
  8
____1
 62
               5
 10
25335.424475170392
 20
10277.944512328513
 30
0.0
 70
              32
  0
VERTEX
  8
____1
 62
               5
 10
25339.208346827087
 20
10275.120050189713
 30
0.0
 70
              32
  0
VERTEX
  8
____1
 62
               5
 10
25343.394813028957
 20
10273.038951309421
 30
0.0
 70
              32
  0
VERTEX
  8
____1
 62
               5
 10
25347.856670118912
 20
10271.764448824029
 30
0.0
 70
              32
  0
VERTEX
  8
____1
 62
               5
 10
25352.458346827087
 20
10271.335267846624
 30
0.0
 70
              32
  0
VERTEX
  8
____1
 62
               5
 10
25357.060023535261
 20
10271.764448824029
 30
0.0
 70
              32
  0
VERTEX
  8
____1
 62
               5
 10
25361.521880625216
 20
10273.038951309421
 30
0.0
 70
              32
  0
VERTEX
  8
____1
 62
               5
 10
25365.708346827087
 20
10275.120050189713
 30
0.0
 70
              32
  0
VERTEX
  8
____1
 62
               5
 10
25369.492218483781
 20
10277.944512328513
 30
0.0
 70
              32
  0
VERTEX
  8
____1
 62
               5
 10
25372.758524569741
 20
10281.426517872978
 30
0.0
 70
              32
  0
VERTEX
  8
____1
 62
               5
 10
25375.408020027375
 20
10285.460267846624
 30
0.0
 70
              32
  0
VERTEX
  8
____1
 62
               5
 10
25377.360201277912
 20
10289.923198797673
 30
0.0
 70
              32
  0
VERTEX
  8
____1
 62
               5
 10
25378.555752281911
 20
10294.679706827534
 30
0.0
 70
              32
  0
VERTEX
  8
____1
 62
               5
 10
25378.958346827087
 20
10299.585267846624
 30
0.0
 70
              32
  0
VERTEX
  8
____1
 62
               5
 10
25378.958346827087
 20
10299.585267846624
 30
0.0
 70
              32
  0
SEQEND
  8
____1
 62
               5
  0
CIRCLE
  8
____1
  6
CONTINUOUS
 62
               5
 10
25352.45834682709
 20
10309.835267846622
 30
0.0
 40
7.5
  0
ENDBLK
  8
0
  0
BLOCK
  8
0
  2
C79
 70
              64
 10
0.0
 20
0.0
  0
LINE
  8
____1
  6
CENTER2
 62
               3
 10
25912.458346827087
 20
10309.835267846614
 30
0.0
 11
25872.458346827083
 21
10309.835267846614
 31
0.0
  0
CIRCLE
  8
____1
  6
CONTINUOUS
 62
               5
 10
25892.458346827083
 20
10309.835267846614
 30
0.0
 40
15.0
210
0.0
220
0.0
230
1.0
  0
LINE
  8
____1
  6
CENTER2
 62
               3
 10
25892.458346827083
 20
10264.063115258945
 30
0.0
 11
25892.458346827083
 21
10334.835267846614
 31
0.0
  0
POLYLINE
  8
____1
  6
CONTINUOUS
 62
               5
 66
               1
 10
0.0
 20
0.0
 30
0.0
 70
               8
  0
VERTEX
  8
____1
 62
               5
 10
25918.958346827083
 20
10299.58526784662
 30
0.0
 70
              32
  0
VERTEX
  8
____1
 62
               5
 10
25918.555752281907
 20
10304.49082886571
 30
0.0
 70
              32
  0
VERTEX
  8
____1
 62
               5
 10
25917.360201277908
 20
10309.247336895571
 30
0.0
 70
              32
  0
VERTEX
  8
____1
 62
               5
 10
25915.408020027371
 20
10313.71026784662
 30
0.0
 70
              32
  0
VERTEX
  8
____1
 62
               5
 10
25912.758524569737
 20
10317.744017820265
 30
0.0
 70
              32
  0
VERTEX
  8
____1
 62
               5
 10
25909.492218483778
 20
10321.22602336473
 30
0.0
 70
              32
  0
VERTEX
  8
____1
 62
               5
 10
25905.708346827083
 20
10324.050485503531
 30
0.0
 70
              32
  0
VERTEX
  8
____1
 62
               5
 10
25901.521880625212
 20
10326.131584383822
 30
0.0
 70
              32
  0
VERTEX
  8
____1
 62
               5
 10
25897.060023535258
 20
10327.406086869214
 30
0.0
 70
              32
  0
VERTEX
  8
____1
 62
               5
 10
25892.458346827083
 20
10327.83526784662
 30
0.0
 70
              32
  0
VERTEX
  8
____1
 62
               5
 10
25887.856670118908
 20
10327.406086869214
 30
0.0
 70
              32
  0
VERTEX
  8
____1
 62
               5
 10
25883.394813028954
 20
10326.131584383822
 30
0.0
 70
              32
  0
VERTEX
  8
____1
 62
               5
 10
25879.208346827083
 20
10324.050485503531
 30
0.0
 70
              32
  0
VERTEX
  8
____1
 62
               5
 10
25875.424475170388
 20
10321.22602336473
 30
0.0
 70
              32
  0
VERTEX
  8
____1
 62
               5
 10
25872.158169084429
 20
10317.744017820265
 30
0.0
 70
              32
  0
VERTEX
  8
____1
 62
               5
 10
25869.508673626795
 20
10313.71026784662
 30
0.0
 70
              32
  0
VERTEX
  8
____1
 62
               5
 10
25867.556492376258
 20
10309.247336895571
 30
0.0
 70
              32
  0
VERTEX
  8
____1
 62
               5
 10
25866.360941372259
 20
10304.490828865712
 30
0.0
 70
              32
  0
VERTEX
  8
____1
 62
               5
 10
25865.958346827083
 20
10299.58526784662
 30
0.0
 70
              32
  0
VERTEX
  8
____1
 62
               5
 10
25866.360941372259
 20
10294.67970682753
 30
0.0
 70
              32
  0
VERTEX
  8
____1
 62
               5
 10
25867.556492376258
 20
10289.923198797669
 30
0.0
 70
              32
  0
VERTEX
  8
____1
 62
               5
 10
25869.508673626795
 20
10285.46026784662
 30
0.0
 70
              32
  0
VERTEX
  8
____1
 62
               5
 10
25872.158169084429
 20
10281.426517872975
 30
0.0
 70
              32
  0
VERTEX
  8
____1
 62
               5
 10
25875.424475170388
 20
10277.94451232851
 30
0.0
 70
              32
  0
VERTEX
  8
____1
 62
               5
 10
25879.208346827083
 20
10275.120050189709
 30
0.0
 70
              32
  0
VERTEX
  8
____1
 62
               5
 10
25883.394813028954
 20
10273.038951309418
 30
0.0
 70
              32
  0
VERTEX
  8
____1
 62
               5
 10
25887.856670118908
 20
10271.764448824026
 30
0.0
 70
              32
  0
VERTEX
  8
____1
 62
               5
 10
25892.458346827083
 20
10271.33526784662
 30
0.0
 70
              32
  0
VERTEX
  8
____1
 62
               5
 10
25897.060023535258
 20
10271.764448824026
 30
0.0
 70
              32
  0
VERTEX
  8
____1
 62
               5
 10
25901.521880625212
 20
10273.038951309418
 30
0.0
 70
              32
  0
VERTEX
  8
____1
 62
               5
 10
25905.708346827083
 20
10275.120050189709
 30
0.0
 70
              32
  0
VERTEX
  8
____1
 62
               5
 10
25909.492218483778
 20
10277.94451232851
 30
0.0
 70
              32
  0
VERTEX
  8
____1
 62
               5
 10
25912.758524569737
 20
10281.426517872975
 30
0.0
 70
              32
  0
VERTEX
  8
____1
 62
               5
 10
25915.408020027371
 20
10285.46026784662
 30
0.0
 70
              32
  0
VERTEX
  8
____1
 62
               5
 10
25917.360201277908
 20
10289.923198797669
 30
0.0
 70
              32
  0
VERTEX
  8
____1
 62
               5
 10
25918.555752281907
 20
10294.67970682753
 30
0.0
 70
              32
  0
VERTEX
  8
____1
 62
               5
 10
25918.958346827083
 20
10299.58526784662
 30
0.0
 70
              32
  0
VERTEX
  8
____1
 62
               5
 10
25918.958346827083
 20
10299.58526784662
 30
0.0
 70
              32
  0
SEQEND
  8
____1
 62
               5
  0
CIRCLE
  8
____1
  6
CONTINUOUS
 62
               5
 10
25892.458346827087
 20
10309.835267846618
 30
0.0
 40
7.5
  0
ENDBLK
  8
0
  0
BLOCK
  8
0
  2
C80
 70
              64
 10
0.0
 20
0.0
  0
LINE
  8
____1
  6
CENTER2
 62
               3
 10
25222.458346827083
 20
10419.835267846624
 30
0.0
 11
25222.458346827083
 21
10459.835267846627
 31
0.0
  0
CIRCLE
  8
____1
  6
CONTINUOUS
 62
               5
 10
25222.458346827083
 20
10439.835267846625
 30
0.0
 40
15.0
210
0.0
220
0.0
230
1.0
  0
LINE
  8
____1
  6
CENTER2
 62
               3
 10
25176.686194239413
 20
10439.835267846625
 30
0.0
 11
25247.458346827083
 21
10439.835267846625
 31
0.0
  0
POLYLINE
  8
____1
  6
CONTINUOUS
 62
               5
 66
               1
 10
0.0
 20
0.0
 30
0.0
 70
               8
  0
VERTEX
  8
____1
 62
               5
 10
25212.208346827087
 20
10413.335267846624
 30
0.0
 70
              32
  0
VERTEX
  8
____1
 62
               5
 10
25217.113907846178
 20
10413.737862391799
 30
0.0
 70
              32
  0
VERTEX
  8
____1
 62
               5
 10
25221.870415876037
 20
10414.933413395796
 30
0.0
 70
              32
  0
VERTEX
  8
____1
 62
               5
 10
25226.333346827087
 20
10416.885594646335
 30
0.0
 70
              32
  0
VERTEX
  8
____1
 62
               5
 10
25230.367096800732
 20
10419.535090103971
 30
0.0
 70
              32
  0
VERTEX
  8
____1
 62
               5
 10
25233.849102345197
 20
10422.801396189931
 30
0.0
 70
              32
  0
VERTEX
  8
____1
 62
               5
 10
25236.673564483997
 20
10426.585267846624
 30
0.0
 70
              32
  0
VERTEX
  8
____1
 62
               5
 10
25238.754663364289
 20
10430.771734048494
 30
0.0
 70
              32
  0
VERTEX
  8
____1
 62
               5
 10
25240.029165849683
 20
10435.233591138451
 30
0.0
 70
              32
  0
VERTEX
  8
____1
 62
               5
 10
25240.458346827087
 20
10439.835267846624
 30
0.0
 70
              32
  0
VERTEX
  8
____1
 62
               5
 10
25240.029165849683
 20
10444.436944554796
 30
0.0
 70
              32
  0
VERTEX
  8
____1
 62
               5
 10
25238.754663364289
 20
10448.898801644753
 30
0.0
 70
              32
  0
VERTEX
  8
____1
 62
               5
 10
25236.673564483997
 20
10453.085267846624
 30
0.0
 70
              32
  0
VERTEX
  8
____1
 62
               5
 10
25233.849102345197
 20
10456.869139503317
 30
0.0
 70
              32
  0
VERTEX
  8
____1
 62
               5
 10
25230.367096800732
 20
10460.135445589276
 30
0.0
 70
              32
  0
VERTEX
  8
____1
 62
               5
 10
25226.333346827087
 20
10462.784941046912
 30
0.0
 70
              32
  0
VERTEX
  8
____1
 62
               5
 10
25221.870415876037
 20
10464.737122297451
 30
0.0
 70
              32
  0
VERTEX
  8
____1
 62
               5
 10
25217.113907846178
 20
10465.932673301448
 30
0.0
 70
              32
  0
VERTEX
  8
____1
 62
               5
 10
25212.208346827087
 20
10466.335267846624
 30
0.0
 70
              32
  0
VERTEX
  8
____1
 62
               5
 10
25207.302785807995
 20
10465.932673301448
 30
0.0
 70
              32
  0
VERTEX
  8
____1
 62
               5
 10
25202.546277778136
 20
10464.737122297451
 30
0.0
 70
              32
  0
VERTEX
  8
____1
 62
               5
 10
25198.083346827087
 20
10462.784941046912
 30
0.0
 70
              32
  0
VERTEX
  8
____1
 62
               5
 10
25194.049596853441
 20
10460.135445589276
 30
0.0
 70
              32
  0
VERTEX
  8
____1
 62
               5
 10
25190.567591308976
 20
10456.869139503317
 30
0.0
 70
              32
  0
VERTEX
  8
____1
 62
               5
 10
25187.743129170176
 20
10453.085267846624
 30
0.0
 70
              32
  0
VERTEX
  8
____1
 62
               5
 10
25185.662030289885
 20
10448.898801644753
 30
0.0
 70
              32
  0
VERTEX
  8
____1
 62
               5
 10
25184.387527804491
 20
10444.436944554796
 30
0.0
 70
              32
  0
VERTEX
  8
____1
 62
               5
 10
25183.958346827087
 20
10439.835267846624
 30
0.0
 70
              32
  0
VERTEX
  8
____1
 62
               5
 10
25184.387527804491
 20
10435.233591138451
 30
0.0
 70
              32
  0
VERTEX
  8
____1
 62
               5
 10
25185.662030289885
 20
10430.771734048494
 30
0.0
 70
              32
  0
VERTEX
  8
____1
 62
               5
 10
25187.743129170176
 20
10426.585267846624
 30
0.0
 70
              32
  0
VERTEX
  8
____1
 62
               5
 10
25190.567591308976
 20
10422.801396189931
 30
0.0
 70
              32
  0
VERTEX
  8
____1
 62
               5
 10
25194.049596853441
 20
10419.535090103971
 30
0.0
 70
              32
  0
VERTEX
  8
____1
 62
               5
 10
25198.083346827087
 20
10416.885594646335
 30
0.0
 70
              32
  0
VERTEX
  8
____1
 62
               5
 10
25202.546277778136
 20
10414.933413395796
 30
0.0
 70
              32
  0
VERTEX
  8
____1
 62
               5
 10
25207.302785807995
 20
10413.737862391799
 30
0.0
 70
              32
  0
VERTEX
  8
____1
 62
               5
 10
25212.208346827087
 20
10413.335267846624
 30
0.0
 70
              32
  0
VERTEX
  8
____1
 62
               5
 10
25212.208346827087
 20
10413.335267846624
 30
0.0
 70
              32
  0
SEQEND
  8
____1
 62
               5
  0
CIRCLE
  8
____1
  6
CONTINUOUS
 62
               5
 10
25222.458346827087
 20
10439.835267846624
 30
0.0
 40
7.5
  0
ENDBLK
  8
0
  0
BLOCK
  8
0
  2
C81
 70
              64
 10
0.0
 20
0.0
  0
LINE
  8
____1
  6
CENTER2
 62
               3
 10
25222.458346827087
 20
10959.835267846622
 30
0.0
 11
25222.458346827087
 21
10999.835267846625
 31
0.0
  0
CIRCLE
  8
____1
  6
CONTINUOUS
 62
               5
 10
25222.458346827087
 20
10979.835267846624
 30
0.0
 40
15.0
210
0.0
220
0.0
230
1.0
  0
LINE
  8
____1
  6
CENTER2
 62
               3
 10
25176.686194239417
 20
10979.835267846624
 30
0.0
 11
25247.458346827087
 21
10979.835267846624
 31
0.0
  0
POLYLINE
  8
____1
  6
CONTINUOUS
 62
               5
 66
               1
 10
0.0
 20
0.0
 30
0.0
 70
               8
  0
VERTEX
  8
____1
 62
               5
 10
25212.20834682709
 20
10953.335267846622
 30
0.0
 70
              32
  0
VERTEX
  8
____1
 62
               5
 10
25217.113907846182
 20
10953.737862391798
 30
0.0
 70
              32
  0
VERTEX
  8
____1
 62
               5
 10
25221.870415876041
 20
10954.933413395795
 30
0.0
 70
              32
  0
VERTEX
  8
____1
 62
               5
 10
25226.33334682709
 20
10956.885594646334
 30
0.0
 70
              32
  0
VERTEX
  8
____1
 62
               5
 10
25230.367096800735
 20
10959.535090103969
 30
0.0
 70
              32
  0
VERTEX
  8
____1
 62
               5
 10
25233.849102345201
 20
10962.801396189929
 30
0.0
 70
              32
  0
VERTEX
  8
____1
 62
               5
 10
25236.673564484001
 20
10966.585267846622
 30
0.0
 70
              32
  0
VERTEX
  8
____1
 62
               5
 10
25238.754663364292
 20
10970.771734048492
 30
0.0
 70
              32
  0
VERTEX
  8
____1
 62
               5
 10
25240.029165849686
 20
10975.233591138449
 30
0.0
 70
              32
  0
VERTEX
  8
____1
 62
               5
 10
25240.45834682709
 20
10979.835267846622
 30
0.0
 70
              32
  0
VERTEX
  8
____1
 62
               5
 10
25240.029165849686
 20
10984.436944554795
 30
0.0
 70
              32
  0
VERTEX
  8
____1
 62
               5
 10
25238.754663364292
 20
10988.898801644751
 30
0.0
 70
              32
  0
VERTEX
  8
____1
 62
               5
 10
25236.673564484001
 20
10993.085267846622
 30
0.0
 70
              32
  0
VERTEX
  8
____1
 62
               5
 10
25233.849102345201
 20
10996.869139503315
 30
0.0
 70
              32
  0
VERTEX
  8
____1
 62
               5
 10
25230.367096800735
 20
11000.135445589274
 30
0.0
 70
              32
  0
VERTEX
  8
____1
 62
               5
 10
25226.33334682709
 20
11002.78494104691
 30
0.0
 70
              32
  0
VERTEX
  8
____1
 62
               5
 10
25221.870415876041
 20
11004.737122297449
 30
0.0
 70
              32
  0
VERTEX
  8
____1
 62
               5
 10
25217.113907846182
 20
11005.932673301446
 30
0.0
 70
              32
  0
VERTEX
  8
____1
 62
               5
 10
25212.20834682709
 20
11006.335267846622
 30
0.0
 70
              32
  0
VERTEX
  8
____1
 62
               5
 10
25207.302785807999
 20
11005.932673301446
 30
0.0
 70
              32
  0
VERTEX
  8
____1
 62
               5
 10
25202.546277778139
 20
11004.737122297449
 30
0.0
 70
              32
  0
VERTEX
  8
____1
 62
               5
 10
25198.08334682709
 20
11002.78494104691
 30
0.0
 70
              32
  0
VERTEX
  8
____1
 62
               5
 10
25194.049596853445
 20
11000.135445589274
 30
0.0
 70
              32
  0
VERTEX
  8
____1
 62
               5
 10
25190.56759130898
 20
10996.869139503315
 30
0.0
 70
              32
  0
VERTEX
  8
____1
 62
               5
 10
25187.74312917018
 20
10993.085267846622
 30
0.0
 70
              32
  0
VERTEX
  8
____1
 62
               5
 10
25185.662030289888
 20
10988.898801644751
 30
0.0
 70
              32
  0
VERTEX
  8
____1
 62
               5
 10
25184.387527804494
 20
10984.436944554795
 30
0.0
 70
              32
  0
VERTEX
  8
____1
 62
               5
 10
25183.95834682709
 20
10979.835267846622
 30
0.0
 70
              32
  0
VERTEX
  8
____1
 62
               5
 10
25184.387527804494
 20
10975.233591138449
 30
0.0
 70
              32
  0
VERTEX
  8
____1
 62
               5
 10
25185.662030289888
 20
10970.771734048492
 30
0.0
 70
              32
  0
VERTEX
  8
____1
 62
               5
 10
25187.74312917018
 20
10966.585267846622
 30
0.0
 70
              32
  0
VERTEX
  8
____1
 62
               5
 10
25190.56759130898
 20
10962.801396189929
 30
0.0
 70
              32
  0
VERTEX
  8
____1
 62
               5
 10
25194.049596853445
 20
10959.535090103969
 30
0.0
 70
              32
  0
VERTEX
  8
____1
 62
               5
 10
25198.08334682709
 20
10956.885594646334
 30
0.0
 70
              32
  0
VERTEX
  8
____1
 62
               5
 10
25202.546277778139
 20
10954.933413395795
 30
0.0
 70
              32
  0
VERTEX
  8
____1
 62
               5
 10
25207.302785807999
 20
10953.737862391798
 30
0.0
 70
              32
  0
VERTEX
  8
____1
 62
               5
 10
25212.20834682709
 20
10953.335267846622
 30
0.0
 70
              32
  0
VERTEX
  8
____1
 62
               5
 10
25212.20834682709
 20
10953.335267846622
 30
0.0
 70
              32
  0
SEQEND
  8
____1
 62
               5
  0
CIRCLE
  8
____1
  6
CONTINUOUS
 62
               5
 10
25222.45834682709
 20
10979.835267846622
 30
0.0
 40
7.5
  0
ENDBLK
  8
0
  0
BLOCK
  8
0
  2
C82
 70
              64
 10
0.0
 20
0.0
  0
LINE
  8
____1
  6
CENTER2
 62
               3
 10
26022.458346827087
 20
10459.835267846622
 30
0.0
 11
26022.458346827087
 21
10419.835267846618
 31
0.0
  0
CIRCLE
  8
____1
  6
CONTINUOUS
 62
               5
 10
26022.458346827087
 20
10439.83526784662
 30
0.0
 40
15.0
210
0.0
220
0.0
230
1.0
  0
LINE
  8
____1
  6
CENTER2
 62
               3
 10
26068.230499414756
 20
10439.83526784662
 30
0.0
 11
25997.458346827087
 21
10439.83526784662
 31
0.0
  0
POLYLINE
  8
____1
  6
CONTINUOUS
 62
               5
 66
               1
 10
0.0
 20
0.0
 30
0.0
 70
               8
  0
VERTEX
  8
____1
 62
               5
 10
26032.708346827083
 20
10466.33526784662
 30
0.0
 70
              32
  0
VERTEX
  8
____1
 62
               5
 10
26027.802785807991
 20
10465.932673301444
 30
0.0
 70
              32
  0
VERTEX
  8
____1
 62
               5
 10
26023.046277778132
 20
10464.737122297447
 30
0.0
 70
              32
  0
VERTEX
  8
____1
 62
               5
 10
26018.583346827083
 20
10462.784941046908
 30
0.0
 70
              32
  0
VERTEX
  8
____1
 62
               5
 10
26014.549596853438
 20
10460.135445589272
 30
0.0
 70
              32
  0
VERTEX
  8
____1
 62
               5
 10
26011.067591308973
 20
10456.869139503313
 30
0.0
 70
              32
  0
VERTEX
  8
____1
 62
               5
 10
26008.243129170172
 20
10453.08526784662
 30
0.0
 70
              32
  0
VERTEX
  8
____1
 62
               5
 10
26006.162030289881
 20
10448.898801644749
 30
0.0
 70
              32
  0
VERTEX
  8
____1
 62
               5
 10
26004.887527804487
 20
10444.436944554793
 30
0.0
 70
              32
  0
VERTEX
  8
____1
 62
               5
 10
26004.458346827083
 20
10439.83526784662
 30
0.0
 70
              32
  0
VERTEX
  8
____1
 62
               5
 10
26004.887527804487
 20
10435.233591138447
 30
0.0
 70
              32
  0
VERTEX
  8
____1
 62
               5
 10
26006.162030289881
 20
10430.771734048491
 30
0.0
 70
              32
  0
VERTEX
  8
____1
 62
               5
 10
26008.243129170172
 20
10426.58526784662
 30
0.0
 70
              32
  0
VERTEX
  8
____1
 62
               5
 10
26011.067591308973
 20
10422.801396189927
 30
0.0
 70
              32
  0
VERTEX
  8
____1
 62
               5
 10
26014.549596853438
 20
10419.535090103967
 30
0.0
 70
              32
  0
VERTEX
  8
____1
 62
               5
 10
26018.583346827083
 20
10416.885594646332
 30
0.0
 70
              32
  0
VERTEX
  8
____1
 62
               5
 10
26023.046277778132
 20
10414.933413395793
 30
0.0
 70
              32
  0
VERTEX
  8
____1
 62
               5
 10
26027.802785807991
 20
10413.737862391796
 30
0.0
 70
              32
  0
VERTEX
  8
____1
 62
               5
 10
26032.708346827083
 20
10413.33526784662
 30
0.0
 70
              32
  0
VERTEX
  8
____1
 62
               5
 10
26037.613907846175
 20
10413.737862391796
 30
0.0
 70
              32
  0
VERTEX
  8
____1
 62
               5
 10
26042.370415876034
 20
10414.933413395793
 30
0.0
 70
              32
  0
VERTEX
  8
____1
 62
               5
 10
26046.833346827083
 20
10416.885594646332
 30
0.0
 70
              32
  0
VERTEX
  8
____1
 62
               5
 10
26050.867096800728
 20
10419.535090103967
 30
0.0
 70
              32
  0
VERTEX
  8
____1
 62
               5
 10
26054.349102345193
 20
10422.801396189927
 30
0.0
 70
              32
  0
VERTEX
  8
____1
 62
               5
 10
26057.173564483994
 20
10426.58526784662
 30
0.0
 70
              32
  0
VERTEX
  8
____1
 62
               5
 10
26059.254663364285
 20
10430.771734048491
 30
0.0
 70
              32
  0
VERTEX
  8
____1
 62
               5
 10
26060.529165849679
 20
10435.233591138447
 30
0.0
 70
              32
  0
VERTEX
  8
____1
 62
               5
 10
26060.958346827083
 20
10439.83526784662
 30
0.0
 70
              32
  0
VERTEX
  8
____1
 62
               5
 10
26060.529165849679
 20
10444.436944554793
 30
0.0
 70
              32
  0
VERTEX
  8
____1
 62
               5
 10
26059.254663364285
 20
10448.898801644749
 30
0.0
 70
              32
  0
VERTEX
  8
____1
 62
               5
 10
26057.173564483994
 20
10453.08526784662
 30
0.0
 70
              32
  0
VERTEX
  8
____1
 62
               5
 10
26054.349102345193
 20
10456.869139503313
 30
0.0
 70
              32
  0
VERTEX
  8
____1
 62
               5
 10
26050.867096800728
 20
10460.135445589272
 30
0.0
 70
              32
  0
VERTEX
  8
____1
 62
               5
 10
26046.833346827083
 20
10462.784941046908
 30
0.0
 70
              32
  0
VERTEX
  8
____1
 62
               5
 10
26042.370415876034
 20
10464.737122297447
 30
0.0
 70
              32
  0
VERTEX
  8
____1
 62
               5
 10
26037.613907846175
 20
10465.932673301444
 30
0.0
 70
              32
  0
VERTEX
  8
____1
 62
               5
 10
26032.708346827083
 20
10466.33526784662
 30
0.0
 70
              32
  0
VERTEX
  8
____1
 62
               5
 10
26032.708346827083
 20
10466.33526784662
 30
0.0
 70
              32
  0
SEQEND
  8
____1
 62
               5
  0
CIRCLE
  8
____1
  6
CONTINUOUS
 62
               5
 10
26022.458346827083
 20
10439.835267846622
 30
0.0
 40
7.5
  0
ENDBLK
  8
0
  0
BLOCK
  8
0
  2
C83
 70
              64
 10
0.0
 20
0.0
  0
LINE
  8
____1
  6
CENTER2
 62
               3
 10
25872.458346827083
 20
11109.83526784662
 30
0.0
 11
25912.45834682709
 21
11109.83526784662
 31
0.0
  0
CIRCLE
  8
____1
  6
CONTINUOUS
 62
               5
 10
25892.458346827087
 20
11109.83526784662
 30
0.0
 40
15.0
210
0.0
220
0.0
230
1.0
  0
LINE
  8
____1
  6
CENTER2
 62
               3
 10
25892.458346827087
 20
11155.607420434289
 30
0.0
 11
25892.458346827087
 21
11084.83526784662
 31
0.0
  0
POLYLINE
  8
____1
  6
CONTINUOUS
 62
               5
 66
               1
 10
0.0
 20
0.0
 30
0.0
 70
               8
  0
VERTEX
  8
____1
 62
               5
 10
25865.958346827087
 20
11120.085267846616
 30
0.0
 70
              32
  0
VERTEX
  8
____1
 62
               5
 10
25866.360941372262
 20
11115.179706827526
 30
0.0
 70
              32
  0
VERTEX
  8
____1
 62
               5
 10
25867.556492376261
 20
11110.423198797665
 30
0.0
 70
              32
  0
VERTEX
  8
____1
 62
               5
 10
25869.508673626799
 20
11105.960267846616
 30
0.0
 70
              32
  0
VERTEX
  8
____1
 62
               5
 10
25872.158169084432
 20
11101.926517872971
 30
0.0
 70
              32
  0
VERTEX
  8
____1
 62
               5
 10
25875.424475170392
 20
11098.444512328506
 30
0.0
 70
              32
  0
VERTEX
  8
____1
 62
               5
 10
25879.208346827087
 20
11095.620050189706
 30
0.0
 70
              32
  0
VERTEX
  8
____1
 62
               5
 10
25883.394813028957
 20
11093.538951309414
 30
0.0
 70
              32
  0
VERTEX
  8
____1
 62
               5
 10
25887.856670118912
 20
11092.264448824022
 30
0.0
 70
              32
  0
VERTEX
  8
____1
 62
               5
 10
25892.458346827087
 20
11091.835267846616
 30
0.0
 70
              32
  0
VERTEX
  8
____1
 62
               5
 10
25897.060023535261
 20
11092.264448824022
 30
0.0
 70
              32
  0
VERTEX
  8
____1
 62
               5
 10
25901.521880625216
 20
11093.538951309414
 30
0.0
 70
              32
  0
VERTEX
  8
____1
 62
               5
 10
25905.708346827087
 20
11095.620050189706
 30
0.0
 70
              32
  0
VERTEX
  8
____1
 62
               5
 10
25909.492218483781
 20
11098.444512328506
 30
0.0
 70
              32
  0
VERTEX
  8
____1
 62
               5
 10
25912.758524569741
 20
11101.926517872971
 30
0.0
 70
              32
  0
VERTEX
  8
____1
 62
               5
 10
25915.408020027375
 20
11105.960267846616
 30
0.0
 70
              32
  0
VERTEX
  8
____1
 62
               5
 10
25917.360201277912
 20
11110.423198797665
 30
0.0
 70
              32
  0
VERTEX
  8
____1
 62
               5
 10
25918.555752281911
 20
11115.179706827525
 30
0.0
 70
              32
  0
VERTEX
  8
____1
 62
               5
 10
25918.958346827087
 20
11120.085267846616
 30
0.0
 70
              32
  0
VERTEX
  8
____1
 62
               5
 10
25918.555752281911
 20
11124.990828865706
 30
0.0
 70
              32
  0
VERTEX
  8
____1
 62
               5
 10
25917.360201277912
 20
11129.747336895567
 30
0.0
 70
              32
  0
VERTEX
  8
____1
 62
               5
 10
25915.408020027375
 20
11134.210267846616
 30
0.0
 70
              32
  0
VERTEX
  8
____1
 62
               5
 10
25912.758524569741
 20
11138.244017820261
 30
0.0
 70
              32
  0
VERTEX
  8
____1
 62
               5
 10
25909.492218483781
 20
11141.726023364727
 30
0.0
 70
              32
  0
VERTEX
  8
____1
 62
               5
 10
25905.708346827087
 20
11144.550485503527
 30
0.0
 70
              32
  0
VERTEX
  8
____1
 62
               5
 10
25901.521880625216
 20
11146.631584383818
 30
0.0
 70
              32
  0
VERTEX
  8
____1
 62
               5
 10
25897.060023535261
 20
11147.90608686921
 30
0.0
 70
              32
  0
VERTEX
  8
____1
 62
               5
 10
25892.458346827087
 20
11148.335267846616
 30
0.0
 70
              32
  0
VERTEX
  8
____1
 62
               5
 10
25887.856670118912
 20
11147.90608686921
 30
0.0
 70
              32
  0
VERTEX
  8
____1
 62
               5
 10
25883.394813028957
 20
11146.631584383818
 30
0.0
 70
              32
  0
VERTEX
  8
____1
 62
               5
 10
25879.208346827087
 20
11144.550485503527
 30
0.0
 70
              32
  0
VERTEX
  8
____1
 62
               5
 10
25875.424475170392
 20
11141.726023364727
 30
0.0
 70
              32
  0
VERTEX
  8
____1
 62
               5
 10
25872.158169084432
 20
11138.244017820261
 30
0.0
 70
              32
  0
VERTEX
  8
____1
 62
               5
 10
25869.508673626799
 20
11134.210267846616
 30
0.0
 70
              32
  0
VERTEX
  8
____1
 62
               5
 10
25867.556492376261
 20
11129.747336895567
 30
0.0
 70
              32
  0
VERTEX
  8
____1
 62
               5
 10
25866.360941372262
 20
11124.990828865706
 30
0.0
 70
              32
  0
VERTEX
  8
____1
 62
               5
 10
25865.958346827087
 20
11120.085267846616
 30
0.0
 70
              32
  0
VERTEX
  8
____1
 62
               5
 10
25865.958346827087
 20
11120.085267846616
 30
0.0
 70
              32
  0
SEQEND
  8
____1
 62
               5
  0
CIRCLE
  8
____1
  6
CONTINUOUS
 62
               5
 10
25892.458346827083
 20
11109.835267846616
 30
0.0
 40
7.5
  0
ENDBLK
  8
0
  0
BLOCK
  8
0
  2
C84
 70
              64
 10
0.0
 20
0.0
  0
LINE
  8
____1
  6
CENTER2
 62
               3
 10
25332.458346827087
 20
11109.835267846624
 30
0.0
 11
25372.45834682709
 21
11109.835267846624
 31
0.0
  0
CIRCLE
  8
____1
  6
CONTINUOUS
 62
               5
 10
25352.45834682709
 20
11109.835267846624
 30
0.0
 40
15.0
210
0.0
220
0.0
230
1.0
  0
LINE
  8
____1
  6
CENTER2
 62
               3
 10
25352.45834682709
 20
11155.607420434293
 30
0.0
 11
25352.45834682709
 21
11084.835267846624
 31
0.0
  0
POLYLINE
  8
____1
  6
CONTINUOUS
 62
               5
 66
               1
 10
0.0
 20
0.0
 30
0.0
 70
               8
  0
VERTEX
  8
____1
 62
               5
 10
25325.95834682709
 20
11120.08526784662
 30
0.0
 70
              32
  0
VERTEX
  8
____1
 62
               5
 10
25326.360941372266
 20
11115.17970682753
 30
0.0
 70
              32
  0
VERTEX
  8
____1
 62
               5
 10
25327.556492376265
 20
11110.423198797669
 30
0.0
 70
              32
  0
VERTEX
  8
____1
 62
               5
 10
25329.508673626802
 20
11105.96026784662
 30
0.0
 70
              32
  0
VERTEX
  8
____1
 62
               5
 10
25332.158169084436
 20
11101.926517872975
 30
0.0
 70
              32
  0
VERTEX
  8
____1
 62
               5
 10
25335.424475170395
 20
11098.44451232851
 30
0.0
 70
              32
  0
VERTEX
  8
____1
 62
               5
 10
25339.20834682709
 20
11095.620050189709
 30
0.0
 70
              32
  0
VERTEX
  8
____1
 62
               5
 10
25343.394813028961
 20
11093.538951309418
 30
0.0
 70
              32
  0
VERTEX
  8
____1
 62
               5
 10
25347.856670118916
 20
11092.264448824026
 30
0.0
 70
              32
  0
VERTEX
  8
____1
 62
               5
 10
25352.45834682709
 20
11091.83526784662
 30
0.0
 70
              32
  0
VERTEX
  8
____1
 62
               5
 10
25357.060023535265
 20
11092.264448824026
 30
0.0
 70
              32
  0
VERTEX
  8
____1
 62
               5
 10
25361.52188062522
 20
11093.538951309418
 30
0.0
 70
              32
  0
VERTEX
  8
____1
 62
               5
 10
25365.70834682709
 20
11095.620050189709
 30
0.0
 70
              32
  0
VERTEX
  8
____1
 62
               5
 10
25369.492218483785
 20
11098.44451232851
 30
0.0
 70
              32
  0
VERTEX
  8
____1
 62
               5
 10
25372.758524569745
 20
11101.926517872975
 30
0.0
 70
              32
  0
VERTEX
  8
____1
 62
               5
 10
25375.408020027378
 20
11105.96026784662
 30
0.0
 70
              32
  0
VERTEX
  8
____1
 62
               5
 10
25377.360201277916
 20
11110.423198797669
 30
0.0
 70
              32
  0
VERTEX
  8
____1
 62
               5
 10
25378.555752281914
 20
11115.179706827528
 30
0.0
 70
              32
  0
VERTEX
  8
____1
 62
               5
 10
25378.95834682709
 20
11120.08526784662
 30
0.0
 70
              32
  0
VERTEX
  8
____1
 62
               5
 10
25378.555752281914
 20
11124.99082886571
 30
0.0
 70
              32
  0
VERTEX
  8
____1
 62
               5
 10
25377.360201277916
 20
11129.747336895571
 30
0.0
 70
              32
  0
VERTEX
  8
____1
 62
               5
 10
25375.408020027378
 20
11134.21026784662
 30
0.0
 70
              32
  0
VERTEX
  8
____1
 62
               5
 10
25372.758524569745
 20
11138.244017820265
 30
0.0
 70
              32
  0
VERTEX
  8
____1
 62
               5
 10
25369.492218483785
 20
11141.72602336473
 30
0.0
 70
              32
  0
VERTEX
  8
____1
 62
               5
 10
25365.70834682709
 20
11144.550485503531
 30
0.0
 70
              32
  0
VERTEX
  8
____1
 62
               5
 10
25361.52188062522
 20
11146.631584383822
 30
0.0
 70
              32
  0
VERTEX
  8
____1
 62
               5
 10
25357.060023535265
 20
11147.906086869214
 30
0.0
 70
              32
  0
VERTEX
  8
____1
 62
               5
 10
25352.45834682709
 20
11148.33526784662
 30
0.0
 70
              32
  0
VERTEX
  8
____1
 62
               5
 10
25347.856670118916
 20
11147.906086869214
 30
0.0
 70
              32
  0
VERTEX
  8
____1
 62
               5
 10
25343.394813028961
 20
11146.631584383822
 30
0.0
 70
              32
  0
VERTEX
  8
____1
 62
               5
 10
25339.20834682709
 20
11144.550485503531
 30
0.0
 70
              32
  0
VERTEX
  8
____1
 62
               5
 10
25335.424475170395
 20
11141.72602336473
 30
0.0
 70
              32
  0
VERTEX
  8
____1
 62
               5
 10
25332.158169084436
 20
11138.244017820265
 30
0.0
 70
              32
  0
VERTEX
  8
____1
 62
               5
 10
25329.508673626802
 20
11134.21026784662
 30
0.0
 70
              32
  0
VERTEX
  8
____1
 62
               5
 10
25327.556492376265
 20
11129.747336895571
 30
0.0
 70
              32
  0
VERTEX
  8
____1
 62
               5
 10
25326.360941372266
 20
11124.99082886571
 30
0.0
 70
              32
  0
VERTEX
  8
____1
 62
               5
 10
25325.95834682709
 20
11120.08526784662
 30
0.0
 70
              32
  0
VERTEX
  8
____1
 62
               5
 10
25325.95834682709
 20
11120.08526784662
 30
0.0
 70
              32
  0
SEQEND
  8
____1
 62
               5
  0
CIRCLE
  8
____1
  6
CONTINUOUS
 62
               5
 10
25352.458346827087
 20
11109.83526784662
 30
0.0
 40
7.5
  0
ENDBLK
  8
0
  0
BLOCK
  8
0
  2
C85
 70
              64
 10
0.0
 20
0.0
  0
LINE
  8
____1
  6
CENTER2
 62
               3
 10
26022.45834682709
 20
10999.83526784662
 30
0.0
 11
26022.45834682709
 21
10959.835267846616
 31
0.0
  0
CIRCLE
  8
____1
  6
CONTINUOUS
 62
               5
 10
26022.45834682709
 20
10979.835267846618
 30
0.0
 40
15.0
210
0.0
220
0.0
230
1.0
  0
LINE
  8
____1
  6
CENTER2
 62
               3
 10
26068.23049941476
 20
10979.835267846618
 30
0.0
 11
25997.45834682709
 21
10979.835267846618
 31
0.0
  0
POLYLINE
  8
____1
  6
CONTINUOUS
 62
               5
 66
               1
 10
0.0
 20
0.0
 30
0.0
 70
               8
  0
VERTEX
  8
____1
 62
               5
 10
26032.708346827087
 20
11006.335267846618
 30
0.0
 70
              32
  0
VERTEX
  8
____1
 62
               5
 10
26027.802785807995
 20
11005.932673301442
 30
0.0
 70
              32
  0
VERTEX
  8
____1
 62
               5
 10
26023.046277778136
 20
11004.737122297445
 30
0.0
 70
              32
  0
VERTEX
  8
____1
 62
               5
 10
26018.583346827087
 20
11002.784941046906
 30
0.0
 70
              32
  0
VERTEX
  8
____1
 62
               5
 10
26014.549596853441
 20
11000.135445589271
 30
0.0
 70
              32
  0
VERTEX
  8
____1
 62
               5
 10
26011.067591308976
 20
10996.869139503311
 30
0.0
 70
              32
  0
VERTEX
  8
____1
 62
               5
 10
26008.243129170176
 20
10993.085267846618
 30
0.0
 70
              32
  0
VERTEX
  8
____1
 62
               5
 10
26006.162030289885
 20
10988.898801644747
 30
0.0
 70
              32
  0
VERTEX
  8
____1
 62
               5
 10
26004.887527804491
 20
10984.436944554791
 30
0.0
 70
              32
  0
VERTEX
  8
____1
 62
               5
 10
26004.458346827087
 20
10979.835267846618
 30
0.0
 70
              32
  0
VERTEX
  8
____1
 62
               5
 10
26004.887527804491
 20
10975.233591138445
 30
0.0
 70
              32
  0
VERTEX
  8
____1
 62
               5
 10
26006.162030289885
 20
10970.771734048489
 30
0.0
 70
              32
  0
VERTEX
  8
____1
 62
               5
 10
26008.243129170176
 20
10966.585267846618
 30
0.0
 70
              32
  0
VERTEX
  8
____1
 62
               5
 10
26011.067591308976
 20
10962.801396189925
 30
0.0
 70
              32
  0
VERTEX
  8
____1
 62
               5
 10
26014.549596853441
 20
10959.535090103966
 30
0.0
 70
              32
  0
VERTEX
  8
____1
 62
               5
 10
26018.583346827087
 20
10956.88559464633
 30
0.0
 70
              32
  0
VERTEX
  8
____1
 62
               5
 10
26023.046277778136
 20
10954.933413395791
 30
0.0
 70
              32
  0
VERTEX
  8
____1
 62
               5
 10
26027.802785807995
 20
10953.737862391794
 30
0.0
 70
              32
  0
VERTEX
  8
____1
 62
               5
 10
26032.708346827087
 20
10953.335267846618
 30
0.0
 70
              32
  0
VERTEX
  8
____1
 62
               5
 10
26037.613907846178
 20
10953.737862391794
 30
0.0
 70
              32
  0
VERTEX
  8
____1
 62
               5
 10
26042.370415876037
 20
10954.933413395791
 30
0.0
 70
              32
  0
VERTEX
  8
____1
 62
               5
 10
26046.833346827087
 20
10956.88559464633
 30
0.0
 70
              32
  0
VERTEX
  8
____1
 62
               5
 10
26050.867096800732
 20
10959.535090103966
 30
0.0
 70
              32
  0
VERTEX
  8
____1
 62
               5
 10
26054.349102345197
 20
10962.801396189925
 30
0.0
 70
              32
  0
VERTEX
  8
____1
 62
               5
 10
26057.173564483997
 20
10966.585267846618
 30
0.0
 70
              32
  0
VERTEX
  8
____1
 62
               5
 10
26059.254663364289
 20
10970.771734048489
 30
0.0
 70
              32
  0
VERTEX
  8
____1
 62
               5
 10
26060.529165849683
 20
10975.233591138445
 30
0.0
 70
              32
  0
VERTEX
  8
____1
 62
               5
 10
26060.958346827087
 20
10979.835267846618
 30
0.0
 70
              32
  0
VERTEX
  8
____1
 62
               5
 10
26060.529165849683
 20
10984.436944554791
 30
0.0
 70
              32
  0
VERTEX
  8
____1
 62
               5
 10
26059.254663364289
 20
10988.898801644747
 30
0.0
 70
              32
  0
VERTEX
  8
____1
 62
               5
 10
26057.173564483997
 20
10993.085267846618
 30
0.0
 70
              32
  0
VERTEX
  8
____1
 62
               5
 10
26054.349102345197
 20
10996.869139503311
 30
0.0
 70
              32
  0
VERTEX
  8
____1
 62
               5
 10
26050.867096800732
 20
11000.135445589271
 30
0.0
 70
              32
  0
VERTEX
  8
____1
 62
               5
 10
26046.833346827087
 20
11002.784941046906
 30
0.0
 70
              32
  0
VERTEX
  8
____1
 62
               5
 10
26042.370415876037
 20
11004.737122297445
 30
0.0
 70
              32
  0
VERTEX
  8
____1
 62
               5
 10
26037.613907846178
 20
11005.932673301442
 30
0.0
 70
              32
  0
VERTEX
  8
____1
 62
               5
 10
26032.708346827087
 20
11006.335267846618
 30
0.0
 70
              32
  0
VERTEX
  8
____1
 62
               5
 10
26032.708346827087
 20
11006.335267846618
 30
0.0
 70
              32
  0
SEQEND
  8
____1
 62
               5
  0
CIRCLE
  8
____1
  6
CONTINUOUS
 62
               5
 10
26022.458346827087
 20
10979.83526784662
 30
0.0
 40
7.5
  0
ENDBLK
  8
0
  0
BLOCK
  8
0
  2
C86
 70
              64
 10
0.0
 20
0.0
  0
LINE
  8
____1
  6
CONTINUOUS
 62
               5
 10
25207.458346827087
 20
9670.1101876181492
 30
0.0
 11
25184.421871083483
 21
9656.8100721464034
 31
0.0
  0
LINE
  8
____1
  6
CONTINUOUS
 62
               5
 10
25237.458346827087
 20
9670.1101876181492
 30
0.0
 11
25240.922448442223
 21
9668.1101876181492
 31
0.0
  0
LINE
  8
____1
  6
CENTER2
 62
               3
 10
25222.458346827087
 20
9680.8029651866782
 30
0.0
 11
25222.458346827087
 21
9654.9411470048617
 31
0.0
  0
LINE
  8
____1
  6
CONTINUOUS
 62
               5
 10
25207.458346827087
 20
9670.1101876181492
 30
0.0
 11
25237.458346827087
 21
9670.1101876181492
 31
0.0
  0
LINE
  8
____1
  6
DASHED2
 62
               7
 10
25207.860270615733
 20
9668.6101876181492
 30
0.0
 11
25237.056423038441
 21
9668.6101876181492
 31
0.0
  0
LINE
  8
____1
  6
DASHED2
 62
               7
 10
25229.958346827087
 20
9670.1101876181492
 30
0.0
 11
25229.958346827087
 21
9668.6101876181492
 31
0.0
  0
LINE
  8
____1
  6
DASHED2
 62
               7
 10
25214.958346827087
 20
9670.1101876181492
 30
0.0
 11
25214.958346827087
 21
9668.6101876181492
 31
0.0
  0
LINE
  8
____1
  6
DASHED2
 62
               7
 10
25237.056423038441
 20
9668.6101876181492
 30
0.0
 11
25240.662147569485
 21
9666.5284215895263
 31
0.0
  0
LINE
  8
____1
  6
DASHED2
 62
               7
 10
25207.860270615733
 20
9668.6101876181492
 30
0.0
 11
25184.958096892798
 21
9655.387611454189
 31
0.0
  0
INSERT
  8
____1
  6
CONTINUOUS
 62
               5
  2
C87
 10
0.0
 20
0.0
 30
0.0
  0
LINE
  8
____1
  6
DASHED2
 62
               7
 10
26037.056423038441
 20
9668.6101876181492
 30
0.0
 11
26059.958596761375
 21
9655.387611454189
 31
0.0
  0
LINE
  8
____1
  6
DASHED2
 62
               7
 10
26007.860270615733
 20
9668.6101876181492
 30
0.0
 11
26004.254546084689
 21
9666.5284215895263
 31
0.0
  0
LINE
  8
____1
  6
DASHED2
 62
               7
 10
26029.958346827087
 20
9670.1101876181492
 30
0.0
 11
26029.958346827087
 21
9668.6101876181492
 31
0.0
  0
LINE
  8
____1
  6
DASHED2
 62
               7
 10
26014.958346827087
 20
9670.1101876181492
 30
0.0
 11
26014.958346827087
 21
9668.6101876181492
 31
0.0
  0
LINE
  8
____1
  6
DASHED2
 62
               7
 10
26037.056423038441
 20
9668.6101876181492
 30
0.0
 11
26007.860270615733
 21
9668.6101876181492
 31
0.0
  0
LINE
  8
____1
  6
CONTINUOUS
 62
               5
 10
26037.458346827087
 20
9670.1101876181492
 30
0.0
 11
26007.458346827087
 21
9670.1101876181492
 31
0.0
  0
LINE
  8
____1
  6
CENTER2
 62
               3
 10
26022.458346827087
 20
9680.8029651866782
 30
0.0
 11
26022.458346827087
 21
9654.9411470048617
 31
0.0
  0
LINE
  8
____1
  6
CONTINUOUS
 62
               5
 10
26007.458346827087
 20
9670.1101876181492
 30
0.0
 11
26003.99424521195
 21
9668.1101876181492
 31
0.0
  0
LINE
  8
____1
  6
CONTINUOUS
 62
               5
 10
26037.458346827087
 20
9670.1101876181492
 30
0.0
 11
26060.49482257069
 21
9656.8100721464034
 31
0.0
  0
INSERT
  8
____1
  6
CONTINUOUS
 62
               5
  2
C88
 10
0.0
 20
0.0
 30
0.0
  0
ENDBLK
  8
0
  0
BLOCK
  8
0
  2
C87
 70
              64
 10
0.0
 20
0.0
  0
LINE
  8
____1
  6
CONTINUOUS
 62
               5
 10
25367.458346827087
 20
9670.1101876181492
 30
0.0
 11
25337.458346827087
 21
9670.1101876181492
 31
0.0
  0
POLYLINE
  8
____1
  6
CONTINUOUS
 62
               5
 66
               1
 10
0.0
 20
0.0
 30
0.0
 70
               8
  0
VERTEX
  8
____1
 62
               5
 10
25328.458346827087
 20
9664.4173672951219
 30
0.0
 70
              32
  0
VERTEX
  8
____1
 62
               5
 10
25328.822960754795
 20
9663.0963743555731
 30
0.0
 70
              32
  0
VERTEX
  8
____1
 62
               5
 10
25329.905723928227
 20
9661.8155191180358
 30
0.0
 70
              32
  0
VERTEX
  8
____1
 62
               5
 10
25331.673737136261
 20
9660.6137197207627
 30
0.0
 70
              32
  0
VERTEX
  8
____1
 62
               5
 10
25334.073280192231
 20
9659.527492230296
 30
0.0
 70
              32
  0
VERTEX
  8
____1
 62
               5
 10
25337.03144419461
 20
9658.5898411192793
 30
0.0
 70
              32
  0
VERTEX
  8
____1
 62
               5
 10
25340.458346827087
 20
9657.8292564422445
 30
0.0
 70
              32
  0
VERTEX
  8
____1
 62
               5
 10
25344.249863387271
 20
9657.2688481797304
 30
0.0
 70
              32
  0
VERTEX
  8
____1
 62
               5
 10
25348.290790563082
 20
9656.9256440532117
 30
0.0
 70
              32
  0
VERTEX
  8
____1
 62
               5
 10
25352.458346827087
 20
9656.8100721464034
 30
0.0
 70
              32
  0
VERTEX
  8
____1
 62
               5
 10
25356.625903091091
 20
9656.9256440532117
 30
0.0
 70
              32
  0
VERTEX
  8
____1
 62
               5
 10
25360.666830266902
 20
9657.2688481797304
 30
0.0
 70
              32
  0
VERTEX
  8
____1
 62
               5
 10
25364.458346827087
 20
9657.8292564422445
 30
0.0
 70
              32
  0
VERTEX
  8
____1
 62
               5
 10
25367.885249459563
 20
9658.5898411192793
 30
0.0
 70
              32
  0
VERTEX
  8
____1
 62
               5
 10
25370.843413461942
 20
9659.527492230296
 30
0.0
 70
              32
  0
VERTEX
  8
____1
 62
               5
 10
25373.242956517912
 20
9660.6137197207627
 30
0.0
 70
              32
  0
VERTEX
  8
____1
 62
               5
 10
25375.010969725947
 20
9661.8155191180358
 30
0.0
 70
              32
  0
VERTEX
  8
____1
 62
               5
 10
25376.093732899379
 20
9663.0963743555731
 30
0.0
 70
              32
  0
VERTEX
  8
____1
 62
               5
 10
25376.458346827087
 20
9664.4173672951219
 30
0.0
 70
              32
  0
VERTEX
  8
____1
 62
               5
 10
25376.458346827087
 20
9664.4173672951219
 30
0.0
 70
              32
  0
SEQEND
  8
____1
 62
               5
  0
LINE
  8
____1
  6
CONTINUOUS
 62
               5
 10
25337.458346827087
 20
9670.1101876181492
 30
0.0
 11
25328.458346827087
 21
9664.4173672951219
 31
0.0
  0
LINE
  8
____1
  6
CONTINUOUS
 62
               5
 10
25367.458346827087
 20
9670.1101876181492
 30
0.0
 11
25376.458346827087
 21
9664.4173672951219
 31
0.0
  0
ENDBLK
  8
0
  0
BLOCK
  8
0
  2
C88
 70
              64
 10
0.0
 20
0.0
  0
LINE
  8
____1
  6
CONTINUOUS
 62
               5
 10
25877.458346827087
 20
9670.1101876181492
 30
0.0
 11
25907.458346827087
 21
9670.1101876181492
 31
0.0
  0
POLYLINE
  8
____1
  6
CONTINUOUS
 62
               5
 66
               1
 10
0.0
 20
0.0
 30
0.0
 70
               8
  0
VERTEX
  8
____1
 62
               5
 10
25916.458346827087
 20
9664.4173672951219
 30
0.0
 70
              32
  0
VERTEX
  8
____1
 62
               5
 10
25916.093732899379
 20
9663.0963743555731
 30
0.0
 70
              32
  0
VERTEX
  8
____1
 62
               5
 10
25915.010969725947
 20
9661.8155191180358
 30
0.0
 70
              32
  0
VERTEX
  8
____1
 62
               5
 10
25913.242956517912
 20
9660.6137197207627
 30
0.0
 70
              32
  0
VERTEX
  8
____1
 62
               5
 10
25910.843413461942
 20
9659.527492230296
 30
0.0
 70
              32
  0
VERTEX
  8
____1
 62
               5
 10
25907.885249459563
 20
9658.5898411192793
 30
0.0
 70
              32
  0
VERTEX
  8
____1
 62
               5
 10
25904.458346827087
 20
9657.8292564422445
 30
0.0
 70
              32
  0
VERTEX
  8
____1
 62
               5
 10
25900.666830266902
 20
9657.2688481797304
 30
0.0
 70
              32
  0
VERTEX
  8
____1
 62
               5
 10
25896.625903091091
 20
9656.9256440532117
 30
0.0
 70
              32
  0
VERTEX
  8
____1
 62
               5
 10
25892.458346827087
 20
9656.8100721464034
 30
0.0
 70
              32
  0
VERTEX
  8
____1
 62
               5
 10
25888.290790563082
 20
9656.9256440532117
 30
0.0
 70
              32
  0
VERTEX
  8
____1
 62
               5
 10
25884.249863387271
 20
9657.2688481797304
 30
0.0
 70
              32
  0
VERTEX
  8
____1
 62
               5
 10
25880.458346827087
 20
9657.8292564422445
 30
0.0
 70
              32
  0
VERTEX
  8
____1
 62
               5
 10
25877.03144419461
 20
9658.5898411192793
 30
0.0
 70
              32
  0
VERTEX
  8
____1
 62
               5
 10
25874.073280192231
 20
9659.527492230296
 30
0.0
 70
              32
  0
VERTEX
  8
____1
 62
               5
 10
25871.673737136261
 20
9660.6137197207627
 30
0.0
 70
              32
  0
VERTEX
  8
____1
 62
               5
 10
25869.905723928227
 20
9661.8155191180358
 30
0.0
 70
              32
  0
VERTEX
  8
____1
 62
               5
 10
25868.822960754795
 20
9663.0963743555731
 30
0.0
 70
              32
  0
VERTEX
  8
____1
 62
               5
 10
25868.458346827087
 20
9664.4173672951219
 30
0.0
 70
              32
  0
VERTEX
  8
____1
 62
               5
 10
25868.458346827087
 20
9664.4173672951219
 30
0.0
 70
              32
  0
SEQEND
  8
____1
 62
               5
  0
LINE
  8
____1
  6
CONTINUOUS
 62
               5
 10
25907.458346827087
 20
9670.1101876181492
 30
0.0
 11
25916.458346827087
 21
9664.4173672951219
 31
0.0
  0
LINE
  8
____1
  6
CONTINUOUS
 62
               5
 10
25877.458346827087
 20
9670.1101876181492
 30
0.0
 11
25868.458346827087
 21
9664.4173672951219
 31
0.0
  0
ENDBLK
  8
0
  0
ENDSEC
  0
SECTION
  2
ENTITIES
  0
DIMENSION
  8
______
  6
CONTINUOUS
 62
               7
  5
46
  2
*D0
 10
25222.458346827079
 20
11255.897822139517
 30
0.0
 11
25172.458346827083
 21
11255.897822139517
 31
0.0
 13
25122.458346827083
 23
11209.835267846616
 33
0.0
 14
25222.458346827079
 24
10992.335267846618
 34
0.0
  0
DIMENSION
  8
______
  6
CONTINUOUS
 62
               7
  5
55
  2
*D1
 10
27411.702202915214
 20
10095.573891445421
 30
0.0
 11
27386.567055842253
 21
10095.573891445421
 31
0.0
 13
27361.702202915214
 23
10209.835267846624
 33
0.0
 14
27411.702202915214
 24
10209.835267846624
 34
0.0
  0
DIMENSION
  8
______
  6
CONTINUOUS
 62
               7
  5
63
  2
*D2
 10
27361.702202915214
 20
10095.573891445421
 30
0.0
 11
27346.702202915214
 21
10095.573891445421
 31
0.0
 13
27331.702202915214
 23
10359.835267846624
 33
0.0
 14
27361.702202915214
 24
10209.835267846624
 34
0.0
  0
DIMENSION
  8
______
  6
CONTINUOUS
 62
               7
  5
70
  2
*D3
 10
27331.702202915214
 20
10095.577950453933
 30
0.0
 11
27327.907247492149
 21
10095.577950453933
 31
0.0
 13
27324.112292069087
 23
10384.839326855134
 33
0.0
 14
27331.702202915214
 24
10359.983797117011
 34
0.0
  0
DIMENSION
  8
______
  6
CONTINUOUS
 62
               7
  5
7D
  2
*D4
 10
27324.112294088161
 20
10095.573891445421
 30
0.0
 11
27236.383511837797
 21
10095.573891445421
 31
0.0
 13
27278.631816285982
 23
10383.264702056798
 33
0.0
 14
27324.112294088161
 24
10384.836865710735
 34
0.0
  0
DIMENSION
  8
______
  6
CONTINUOUS
 62
               7
  5
8A
  2
*D5
 10
25922.458346827079
 20
10910.703515624997
 30
0.0
 11
25629.101888020832
 21
10910.703515624997
 31
0.0
 13
25322.458346827079
 23
10908.086565563724
 33
0.0
 14
25922.458346827079
 24
10794.680454749103
 34
0.0
  0
DIMENSION
  8
______
  6
CONTINUOUS
 62
               7
  5
99
  2
*D6
 10
26279.081539456503
 20
11059.835267846618
 30
0.0
 11
26279.081539456503
 21
10709.835267846622
 31
0.0
 13
25972.458346827087
 23
10359.835267846624
 33
0.0
 14
25972.458346827087
 24
11059.835267846618
 34
0.0
 50
90.0
  0
DIMENSION
  8
______
  6
CONTINUOUS
 62
               7
  5
A8
  2
*D7
 10
26355.600440490041
 20
11209.835267846616
 30
0.0
 11
26355.600440490041
 21
10709.835267846622
 31
0.0
 13
26122.458346827087
 23
10209.835267846624
 33
0.0
 14
26122.458346827087
 24
11209.835267846616
 34
0.0
 50
90.0
  0
INSERT
  8
______
  6
CONTINUOUS
 62
               7
  5
B2
  2
C0
 10
0.0
 20
0.0
 30
0.0
  0
LINE
  8
____1
  6
CONTINUOUS
 62
               5
  5
B3
 10
27411.702202915214
 20
10209.835267846624
 30
0.0
 11
27411.702202915214
 21
11208.33526784662
 31
0.0
  0
LINE
  8
____1
  6
DASHED
 62
               7
  5
B4
 10
27401.702202915214
 20
10213.135267846623
 30
0.0
 11
27401.702202915214
 21
11208.33526784662
 31
0.0
  0
LINE
  8
____1
  6
CONTINUOUS
 62
               5
  5
B5
 10
27331.702202915214
 20
10359.835267846624
 30
0.0
 11
27331.702202915214
 21
11059.835267846622
 31
0.0
  0
INSERT
  8
____1
  6
CONTINUOUS
 62
               7
  5
BF
  2
C1
 10
0.0
 20
0.0
 30
0.0
  0
INSERT
  8
____1
  6
CONTINUOUS
 62
               7
  5
C9
  2
C2
 10
0.0
 20
0.0
 30
0.0
  0
INSERT
  8
____1
  6
CONTINUOUS
 62
               7
  5
D3
  2
C3
 10
0.0
 20
0.0
 30
0.0
  0
INSERT
  8
____1
  6
CONTINUOUS
 62
               7
  5
DD
  2
C4
 10
0.0
 20
0.0
 30
0.0
  0
TEXT
  8
____1
  6
CONTINUOUS
 62
               7
  5
DE
 10
26890.969928882045
 20
9682.7824976145439
 30
0.0
 40
28.222221374511719
  1
丁　　番
  7
STYLE1
  0
LINE
  8
____1
  6
DASHED
 62
               7
  5
DF
 10
27333.202202915214
 20
10359.983797117015
 30
0.0
 11
27333.202202915214
 21
10408.335267846624
 31
0.0
  0
DIMENSION
  8
______
  6
CONTINUOUS
 62
               7
  5
E9
  2
*D13
 10
26017.248409048643
 20
10974.44021934408
 30
0.0
 11
26188.706919859436
 21
11123.741424747601
 31
0.0
 70
             131
 15
26027.66828460553
 25
10985.230316349163
 35
0.0
  0
DIMENSION
  8
______
  6
CONTINUOUS
 62
               7
  5
F6
  2
*D14
 10
25972.458346827087
 20
10087.100945455486
 30
0.0
 11
25622.458346827083
 21
10087.100945455486
 31
0.0
 13
25272.458346827079
 23
10359.83526784662
 33
0.0
 14
25972.458346827087
 24
10359.835267846624
 34
0.0
  0
DIMENSION
  8
______
  6
CONTINUOUS
 62
               7
  5
103
  2
*D15
 10
26122.458346827087
 20
10018.023502614091
 30
0.0
 11
25622.458346827083
 21
10018.023502614091
 31
0.0
 13
25122.458346827083
 23
10209.835267846624
 33
0.0
 14
26122.458346827087
 24
10209.835267846624
 34
0.0
  0
DIMENSION
  8
______
  6
CONTINUOUS
 62
               7
  5
110
  2
*D16
 10
25942.458346827087
 20
10151.394695455483
 30
0.0
 11
25622.458346827083
 21
10151.394695455483
 31
0.0
 13
25302.458346827079
 23
10386.33526784662
 33
0.0
 14
25942.458346827087
 24
10386.33526784662
 34
0.0
  0
DIMENSION
  8
______
  6
CONTINUOUS
 62
               7
  5
11D
  2
*D17
 10
26022.458346827087
 20
11255.897822139517
 30
0.0
 11
25623.208346827083
 21
11255.897822139517
 31
0.0
 13
25222.458346827079
 23
10992.335267846618
 33
0.0
 14
26022.458346827087
 24
10992.335267846622
 34
0.0
 50
0.0000008537736463
  0
DIMENSION
  8
______
  6
CONTINUOUS
 62
               7
  5
12A
  2
*D18
 10
25352.458346827079
 20
11317.124059118685
 30
0.0
 11
25237.458346827083
 21
11317.124059118685
 31
0.0
 13
25122.458346827083
 23
11209.835267846616
 33
0.0
 14
25352.458346827079
 24
11122.335267846618
 34
0.0
  0
DIMENSION
  8
______
  6
CONTINUOUS
 62
               7
  5
139
  2
*D19
 10
26202.765784248168
 20
10386.33526784662
 30
0.0
 11
26202.765784248168
 21
10709.835267846622
 31
0.0
 13
25942.458346827087
 23
11026.335267846618
 33
0.0
 14
25942.458346827087
 24
10386.33526784662
 34
0.0
 50
90.0
  0
DIMENSION
  8
______
  6
CONTINUOUS
 62
               7
  5
146
  2
*D20
 10
25892.458346827079
 20
11317.124059118685
 30
0.0
 11
25623.208346827083
 21
11317.124059118685
 31
0.0
 13
25352.458346827079
 23
11122.335267846618
 33
0.0
 14
25892.458346827079
 24
11122.335267846618
 34
0.0
  0
DIMENSION
  8
______
  6
CONTINUOUS
 62
               7
  5
154
  2
*D21
 10
26122.458346827087
 20
11255.897822139517
 30
0.0
 11
26072.458346827087
 21
11255.897822139517
 31
0.0
 13
26022.458346827087
 23
10992.335267846622
 33
0.0
 14
26122.458346827087
 24
11209.835267846616
 34
0.0
  0
DIMENSION
  8
______
  6
CONTINUOUS
 62
               7
  5
161
  2
*D22
 10
26122.458346827087
 20
11317.124059118685
 30
0.0
 11
26007.458346827083
 21
11317.124059118685
 31
0.0
 13
25892.458346827079
 23
11122.335267846618
 33
0.0
 14
26122.458346827087
 24
11209.835267846616
 34
0.0
 50
0.0000008537736463
  0
DIMENSION
  8
______
  6
CONTINUOUS
 62
               7
  5
170
  2
*D23
 10
24973.677244589773
 20
10209.835267846624
 30
0.0
 11
24973.677244589773
 21
10336.037343000398
 31
0.0
 13
25209.958346827083
 23
10439.83526784662
 33
0.0
 14
25122.458346827083
 24
10209.835267846624
 34
0.0
 50
90.0
  0
DIMENSION
  8
______
  6
CONTINUOUS
 62
               7
  5
17F
  2
*D24
 10
24973.677244589773
 20
10439.83526784662
 30
0.0
 11
24973.677244589773
 21
10709.835267846622
 31
0.0
 13
25209.958346827083
 23
10979.835267846622
 33
0.0
 14
25209.958346827083
 24
10439.83526784662
 34
0.0
 50
90.0
  0
DIMENSION
  8
______
  6
CONTINUOUS
 62
               7
  5
18E
  2
*D25
 10
24973.677244589773
 20
10979.835267846622
 30
0.0
 11
24973.677244589773
 21
11094.835267846618
 31
0.0
 13
25122.458346827083
 23
11209.835267846616
 33
0.0
 14
25209.958346827083
 24
10979.835267846622
 34
0.0
 50
90.0
  0
DIMENSION
  8
______
  6
CONTINUOUS
 62
               7
  5
19D
  2
*D26
 10
25056.175695558537
 20
10309.835267846624
 30
0.0
 11
25056.175695558537
 21
10719.076344939607
 31
0.0
 13
25339.958346827083
 23
11109.835267846618
 33
0.0
 14
25339.958346827083
 24
10309.835267846624
 34
0.0
 50
90.0
  0
DIMENSION
  8
______
  6
CONTINUOUS
 62
               7
  5
1AD
  2
*D27
 10
25056.175695558537
 20
10309.835267846624
 30
0.0
 11
25056.175695558537
 21
10259.835267846624
 31
0.0
 13
25122.458346827083
 23
10209.835267846624
 33
0.0
 14
25339.958346827083
 24
10309.835267846624
 34
0.0
 50
90.0
  0
DIMENSION
  8
______
  6
CONTINUOUS
 62
               7
  5
1BD
  2
*D28
 10
25056.175695558537
 20
11109.835267846618
 30
0.0
 11
25056.175695558537
 21
11159.835267846616
 31
0.0
 13
25122.458346827083
 23
11209.835267846616
 33
0.0
 14
25339.958346827083
 24
11109.835267846618
 34
0.0
 50
90.0
  0
TEXT
  8
____1
  6
CONTINUOUS
 62
               7
  5
1BE
 10
26890.969928882045
 20
9602.7824976145439
 30
0.0
 40
28.222221374511719
  1
天　　板
  7
STYLE1
  0
INSERT
  8
____1
  6
CONTINUOUS
 62
               7
  5
1C8
  2
C5
 10
0.0
 20
0.0
 30
0.0
  0
INSERT
  8
____1
  6
CONTINUOUS
 62
               7
  5
1D2
  2
C6
 10
0.0
 20
0.0
 30
0.0
  0
INSERT
  8
____1
  6
CONTINUOUS
 62
               7
  5
1DC
  2
C7
 10
0.0
 20
0.0
 30
0.0
  0
INSERT
  8
____1
  6
CONTINUOUS
 62
               7
  5
1E6
  2
C8
 10
0.0
 20
0.0
 30
0.0
  0
TEXT
  8
____1
  6
CONTINUOUS
 62
               7
  5
1E7
 10
26792.192154071254
 20
9722.7824976145439
 30
0.0
 40
28.222221374511719
  1
天板側取付金具ユニット
  7
STYLE1
  0
TEXT
  8
____1
  6
CONTINUOUS
 62
               7
  5
1E8
 10
26890.969928882045
 20
9882.7824976145421
 30
0.0
 40
28.222221374511719
  1
パッキン
  7
STYLE1
  0
TEXT
  8
____1
  6
CONTINUOUS
 62
               7
  5
1E9
 10
26876.858814380092
 20
9762.7824976145439
 30
0.0
 40
28.222221374511719
  1
三段ステー
  7
STYLE1
  0
LINE
  8
____1
  6
DASHED
 62
               7
  5
1EA
 10
27411.702202915214
 20
10213.135267846623
 30
0.0
 11
27401.702202915214
 21
10213.135267846623
 31
0.0
  0
INSERT
  8
______
  6
CONTINUOUS
 62
               7
  5
1F4
  2
C9
 10
0.0
 20
0.0
 30
0.0
  0
INSERT
  8
______
  6
CONTINUOUS
 62
               7
  5
1FE
  2
C10
 10
0.0
 20
0.0
 30
0.0
  0
INSERT
  8
______
  6
CONTINUOUS
 62
               7
  5
208
  2
C11
 10
0.0
 20
0.0
 30
0.0
  0
INSERT
  8
______
  6
CONTINUOUS
 62
               7
  5
212
  2
C12
 10
0.0
 20
0.0
 30
0.0
  0
INSERT
  8
______
  6
CONTINUOUS
 62
               7
  5
21C
  2
C13
 10
0.0
 20
0.0
 30
0.0
  0
INSERT
  8
______
  6
CONTINUOUS
 62
               7
  5
226
  2
C14
 10
0.0
 20
0.0
 30
0.0
  0
INSERT
  8
______
  6
CONTINUOUS
 62
               7
  5
230
  2
C15
 10
0.0
 20
0.0
 30
0.0
  0
TEXT
  8
____1
  6
CONTINUOUS
 62
               7
  5
231
 10
26947.192150256556
 20
9436.5360645473829
 30
0.0
 40
28.222221374511719
  1
1：8
  7
STYLE1
  0
TEXT
  8
____1
  6
DOT
 62
               7
  5
232
 10
26823.081043383998
 20
9392.5934032969617
 30
0.0
 40
28.222221374511719
  1
永　井
  7
STYLE1
  0
TEXT
  8
____1
  6
DOT
 62
               7
  5
233
 10
26823.081043383998
 20
9348.5934032969617
 30
0.0
 40
28.222221374511719
  1
永　井
  7
STYLE1
  0
TEXT
  8
____1
  6
CONTINUOUS
 62
               7
  5
234
 10
26704.35881628744
 20
9842.7824976145439
 30
0.0
 40
28.222221374511719
  1
7
  7
STYLE1
  0
TEXT
  8
____1
  6
CONTINUOUS
 62
               7
  5
235
 10
26704.35881628744
 20
9762.7824976145439
 30
0.0
 40
28.222221374511719
  1
5
  7
STYLE1
  0
TEXT
  8
____1
  6
CONTINUOUS
 62
               7
  5
236
 10
26704.35881628744
 20
9802.7824976145439
 30
0.0
 40
28.222221374511719
  1
6
  7
STYLE1
  0
TEXT
  8
____1
  6
CONTINUOUS
 62
               7
  5
237
 10
26704.35881628744
 20
9882.7824976145439
 30
0.0
 40
28.222221374511719
  1
8
  7
STYLE1
  0
TEXT
  8
____1
  6
CONTINUOUS
 62
               7
  5
238
 10
26704.35881628744
 20
9722.7824976145439
 30
0.0
 40
28.222221374511719
  1
4
  7
STYLE1
  0
LINE
  8
____1
  6
CONTINUOUS
 62
               5
  5
239
 10
27361.702202915214
 20
10209.835267846624
 30
0.0
 11
27361.702202915214
 21
11208.33526784662
 31
0.0
  0
TEXT
  8
____1
  6
CONTINUOUS
 62
               7
  5
23A
 10
27289.081043383998
 20
9842.7824976145439
 30
0.0
 40
28.222221374511719
  1
SUS304
  7
STYLE1
  0
TEXT
  8
____1
  6
CONTINUOUS
 62
               7
  5
23B
 10
27544.35881628744
 20
9882.7824976145421
 30
0.0
 40
28.222221374511719
  1
1
  7
STYLE1
  0
TEXT
  8
____1
  6
CONTINUOUS
 62
               7
  5
23C
 10
27303.192142627162
 20
9882.7824976145421
 30
0.0
 40
28.222221374511719
  1
EPDM
  7
STYLE1
  0
TEXT
  8
____1
  6
DOT
 62
               7
  5
23D
 10
27123.081043383998
 20
9348.5934032969617
 30
0.0
 40
28.222221374511719
  1
園　原
  7
STYLE1
  0
TEXT
  8
____1
  6
DOT
 62
               7
  5
23E
 10
27123.081043383998
 20
9392.5934032969617
 30
0.0
 40
28.222221374511719
  1
園　原
  7
STYLE1
  0
TEXT
  8
______
  6
CONTINUOUS
 62
               7
  5
23F
 10
27359.688920555916
 20
10046.205720331518
 30
0.0
 40
28.222221374511719
  1
7.6
  7
STYLE1
  0
ARC
  8
____1
  6
DASHED
 62
               7
  5
240
 10
27410.202202915214
 20
10211.335267846624
 30
0.0
 40
1.5000000000000273
 50
-89.999989041570686
 51
90.0
  0
INSERT
  8
____1
  6
DASHED2
 62
             254
  5
25A
  2
C16
 10
0.0
 20
0.0
 30
0.0
  0
INSERT
  8
____1
  6
DASHED2
 62
               7
  5
278
  2
C17
 10
0.0
 20
0.0
 30
0.0
  0
ARC
  8
____1
  6
DASHED
 62
               7
  5
279
 10
27283.202202915214
 20
10408.335267846624
 30
0.0
 40
1.5
 50
90.0
 51
180.0
210
0.0
220
0.0
230
1.0
  0
TEXT
  8
____1
  6
CONTINUOUS
 62
               7
  5
27A
 10
26890.969928882045
 20
9802.7824976145439
 30
0.0
 40
28.222221374511719
  1
取　　手
  7
STYLE1
  0
TEXT
  8
____1
  6
CONTINUOUS
 62
               7
  5
27B
 10
26848.636600634974
 20
9842.7824976145439
 30
0.0
 40
28.222221374511719
  1
フックユニット
  7
STYLE1
  0
INSERT
  8
____1
  6
DASHED2
 62
               7
  5
296
  2
C18
 10
0.0
 20
0.0
 30
0.0
  0
LINE
  8
______
  6
CONTINUOUS
 62
               7
  5
297
 10
27327.907247492149
 20
10095.577950453933
 30
0.0
 11
27359.688920555916
 21
10037.593568158394
 31
0.0
  0
TEXT
  8
____1
  6
CONTINUOUS
 62
               7
  5
298
 10
26704.35881628744
 20
9682.7824976145439
 30
0.0
 40
28.222221374511719
  1
3
  7
STYLE1
  0
TEXT
  8
____1
  6
CONTINUOUS
 62
               7
  5
299
 10
26704.35881628744
 20
9642.7824976145439
 30
0.0
 40
28.222221374511719
  1
2
  7
STYLE1
  0
LINE
  8
____1
  6
DASHED
 62
               7
  5
29A
 10
27410.202202915214
 20
10212.835267846624
 30
0.0
 11
27401.702202915214
 21
10212.835267846624
 31
0.0
  0
LINE
  8
____1
  6
CONTINUOUS
 62
               5
  5
29B
 10
27331.702202915214
 20
10359.983797117011
 30
0.0
 11
27331.702202915214
 21
10408.335267846624
 31
0.0
  0
ARC
  8
____1
  6
CONTINUOUS
 62
               5
  5
29C
 10
27333.202202915214
 20
10359.983797117011
 30
0.0
 40
1.5
 50
180.0
 51
-168.69006752595254
  0
LINE
  8
____1
  6
CONTINUOUS
 62
               5
  5
29D
 10
27283.202202915214
 20
10401.835267846624
 30
0.0
 11
27281.702202915214
 21
10401.835267846624
 31
0.0
  0
ARC
  8
____1
  6
CONTINUOUS
 62
               5
  5
29E
 10
27362.931908769293
 20
10211.335267846624
 30
0.0
 40
1.5000000000017861
 50
-168.69006752600706
 51
-90.0
  0
LINE
  8
____1
  6
DASHED
 62
               7
  5
29F
 10
27362.931908769293
 20
10211.335267846624
 30
0.0
 11
27333.202202915214
 21
10359.983797117015
 31
0.0
  0
LINE
  8
____1
  6
DASHED
 62
               7
  5
2A0
 10
27401.702202915214
 20
10211.335267846624
 30
0.0
 11
27401.702202915214
 21
10212.835267846624
 31
0.0
  0
LINE
  8
____1
  6
DASHED
 62
               7
  5
2A1
 10
27410.202202915214
 20
10211.335267846624
 30
0.0
 11
27362.931908769293
 21
10211.335267846624
 31
0.0
  0
TEXT
  8
____1
  6
CONTINUOUS
 62
               7
  5
2A2
 10
26890.969928882045
 20
9642.7824976145439
 30
0.0
 40
28.222221374511719
  1
本　　体
  7
STYLE1
  0
INSERT
  8
____1
  6
DASHED2
 62
               7
  5
2B9
  2
C19
 10
0.0
 20
0.0
 30
0.0
  0
LINE
  8
____1
  6
DASHED2
 62
               7
  5
2BA
 10
27315.198240152524
 20
11019.82794130289
 30
0.0
 11
27315.195798778408
 21
11021.827939812818
 31
0.0
  0
LINE
  8
____1
  6
CONTINUOUS
 62
               5
  5
2BB
 10
27331.702202915214
 20
10408.335267846624
 30
0.0
 11
27323.990830653474
 21
10408.335267846624
 31
0.0
  0
LINE
  8
____1
  6
DASHED2
 62
               7
  5
2BC
 10
27323.990830653474
 20
10408.335267846624
 30
0.0
 11
27283.202202915214
 21
10408.335267846624
 31
0.0
  0
LINE
  8
____1
  6
DASHED2
 62
               7
  5
2BD
 10
27281.702202915214
 20
10401.835267846624
 30
0.0
 11
27281.702202915214
 21
10408.335267846624
 31
0.0
  0
LINE
  8
____1
  6
DASHED2
 62
               7
  5
2BE
 10
27283.202202915214
 20
10401.835267846624
 30
0.0
 11
27283.202202915214
 21
10408.335267846624
 31
0.0
  0
LINE
  8
______
  6
CONTINUOUS
 62
               7
  5
2BF
 10
27359.688920555916
 20
10037.593568158394
 30
0.0
 11
27407.630112698764
 21
10037.593568158394
 31
0.0
  0
LINE
  8
____1
  6
DASHED2
 62
               7
  5
2C0
 10
27318.511569427716
 20
11018.408175259472
 30
0.0
 11
27316.855794973857
 21
11019.52996443661
 31
0.0
  0
INSERT
  8
____1
  6
CONTINUOUS
 62
             254
  5
2D7
  2
C20
 10
0.0
 20
0.0
 30
0.0
  0
LINE
  8
____1
  6
CONTINUOUS
 62
               5
  5
2D8
 10
27411.702202915214
 20
10209.835267846624
 30
0.0
 11
27361.702202915214
 21
10209.835267846624
 31
0.0
  0
INSERT
  8
____1
  6
DASHED2
 62
             254
  5
2F2
  2
C21
 10
0.0
 20
0.0
 30
0.0
  0
INSERT
  8
____1
  6
DASHED2
 62
             254
  5
310
  2
C22
 10
0.0
 20
0.0
 30
0.0
  0
TEXT
  8
____1
  6
CONTINUOUS
 62
               7
  5
311
 10
27544.35881628744
 20
9602.7824976145439
 30
0.0
 40
28.222221374511719
  1
1
  7
STYLE1
  0
TEXT
  8
____1
  6
CONTINUOUS
 62
               7
  5
312
 10
27544.35881628744
 20
9682.7824976145439
 30
0.0
 40
28.222221374511719
  1
2
  7
STYLE1
  0
TEXT
  8
____1
  6
CONTINUOUS
 62
               7
  5
313
 10
26704.35881628744
 20
9602.7824976145439
 30
0.0
 40
28.222221374511719
  1
1
  7
STYLE1
  0
TEXT
  8
____1
  6
CONTINUOUS
 62
               7
  5
314
 10
26718.969928882045
 20
9436.5360645473829
 30
0.0
 40
28.222221374511719
  1
H18.4.12
  7
STYLE1
  0
TEXT
  8
____1
  6
DOT
 62
               7
  5
315
 10
27484.881046435756
 20
9456.7812028300013
 30
0.0
 40
33.866664886474609
  1
らくらくハッチ
  7
STYLE1
  0
TEXT
  8
____1
  6
DOT
 62
               7
  5
316
 10
27467.94771208517
 20
9368.7812028300013
 30
0.0
 40
33.866664886474609
  1
ＯＭ－６１６０２
  7
STYLE1
  0
TEXT
  8
____1
  6
CONTINUOUS
 62
               7
  5
317
 10
27253.80326475851
 20
9602.7824976145439
 30
0.0
 40
28.222221374511719
  1
SUS304 1.5t
  7
STYLE1
  0
TEXT
  8
____1
  6
CONTINUOUS
 62
               7
  5
318
 10
27289.081043383998
 20
9682.7824976145439
 30
0.0
 40
28.222221374511719
  1
SUS304
  7
STYLE1
  0
TEXT
  8
____1
  6
CONTINUOUS
 62
               7
  5
319
 10
27253.80326475851
 20
9642.7824976145439
 30
0.0
 40
28.222221374511719
  1
SUS304 1.5t
  7
STYLE1
  0
TEXT
  8
____1
  6
CONTINUOUS
 62
               7
  5
31A
 10
27289.081043383998
 20
9722.7824976145439
 30
0.0
 40
28.222221374511719
  1
SUS304
  7
STYLE1
  0
TEXT
  8
____1
  6
CONTINUOUS
 62
               7
  5
31B
 10
27289.081043383998
 20
9762.7824976145439
 30
0.0
 40
28.222221374511719
  1
SUS304
  7
STYLE1
  0
TEXT
  8
____1
  6
CONTINUOUS
 62
               7
  5
31C
 10
27544.35881628744
 20
9642.7824976145439
 30
0.0
 40
28.222221374511719
  1
1
  7
STYLE1
  0
TEXT
  8
____1
  6
CONTINUOUS
 62
               7
  5
31D
 10
27289.081043383998
 20
9802.7824976145439
 30
0.0
 40
28.222221374511719
  1
SUS304
  7
STYLE1
  0
LINE
  8
____1
  6
DASHED
 62
               7
  5
31E
 10
27362.931908769293
 20
11208.33526784662
 30
0.0
 11
27333.202202915214
 21
11059.686738576233
 31
0.0
  0
LINE
  8
____1
  6
CONTINUOUS
 62
               5
  5
31F
 10
27411.702202915214
 20
11208.33526784662
 30
0.0
 11
27361.702202915214
 21
11208.33526784662
 31
0.0
  0
TEXT
  8
____1
  6
CONTINUOUS
 62
               7
  5
320
 10
27544.35881628744
 20
9722.7824976145439
 30
0.0
 40
28.222221374511719
  1
1
  7
STYLE1
  0
TEXT
  8
____1
  6
CONTINUOUS
 62
               7
  5
321
 10
27544.35881628744
 20
9762.7824976145439
 30
0.0
 40
28.222221374511719
  1
1
  7
STYLE1
  0
TEXT
  8
____1
  6
CONTINUOUS
 62
               7
  5
322
 10
27544.35881628744
 20
9842.7824976145439
 30
0.0
 40
28.222221374511719
  1
1
  7
STYLE1
  0
TEXT
  8
____1
  6
CONTINUOUS
 62
               7
  5
323
 10
27544.35881628744
 20
9802.7824976145439
 30
0.0
 40
28.222221374511719
  1
1
  7
STYLE1
  0
LINE
  8
____1
  6
CONTINUOUS
 62
               5
  5
324
 10
27283.202202915214
 20
10401.835267846624
 30
0.0
 11
27281.702202915214
 21
10401.835267846624
 31
0.0
  0
INSERT
  8
____1
  6
CONTINUOUS
 62
               7
  5
343
  2
C24
 10
0.0
 20
0.0
 30
0.0
  0
INSERT
  8
____1
  6
CONTINUOUS
 62
             254
  5
393
  2
C25
 10
0.0
 20
0.0
 30
0.0
  0
INSERT
  8
____1
  6
CONTINUOUS
 62
             254
  5
3AA
  2
C28
 10
0.0
 20
0.0
 30
0.0
  0
ARC
  8
____1
  6
DASHED
 62
               7
  5
3AB
 10
27331.702202915214
 20
10408.335267846624
 30
0.0
 40
1.5
 50
0.0
 51
90.0
210
0.0
220
0.0
230
1.0
  0
LINE
  8
____1
  6
DASHED
 62
               7
  5
3AC
 10
27331.702202915214
 20
10409.835267846624
 30
0.0
 11
27283.202202915214
 21
10409.835267846624
 31
0.0
  0
LINE
  8
____1
  6
DASHED2
 62
               7
  5
3AD
 10
27283.202202915214
 20
10401.835267846624
 30
0.0
 11
27283.202202915214
 21
11017.835267846622
 31
0.0
  0
LINE
  8
____1
  6
DASHED
 62
               7
  5
3AE
 10
27333.202202915214
 20
10408.335267846624
 30
0.0
 11
27333.202202915214
 21
11011.335267846622
 31
0.0
  0
LINE
  8
____1
  6
CONTINUOUS
 62
               5
  5
3AF
 10
27410.202203202105
 20
10209.835267846624
 30
0.0
 11
27362.931908769293
 21
10209.835267846624
 31
0.0
  0
LINE
  8
____1
  6
CONTINUOUS
 62
               5
  5
3B0
 10
27361.461037755755
 20
10211.041093643917
 30
0.0
 11
27331.731331901683
 21
10359.689622914304
 31
0.0
  0
INSERT
  8
____1
  6
DASHED2
 62
               7
  5
3C3
  2
C29
 10
0.0
 20
0.0
 30
0.0
  0
INSERT
  8
____1
  6
DASHED2
 62
               7
  5
3D3
  2
C30
 10
0.0
 20
0.0
 30
0.0
  0
INSERT
  8
____1
  6
DASHED2
 62
               4
  5
3EE
  2
C32
 10
0.0
 20
0.0
 30
0.0
  0
INSERT
  8
____1
  6
DASHED2
 62
               4
  5
409
  2
C35
 10
0.0
 20
0.0
 30
0.0
  0
ARC
  8
____1
  6
DASHED2
 62
               7
  5
40A
 10
27302.202202915218
 20
10581.957333268836
 30
0.0
 40
12.499999999998264
 50
178.11450947796416
 51
-1.8854931280217728
  0
LINE
  8
____1
  6
DASHED2
 62
               7
  5
40B
 10
27289.708970664582
 20
10582.368609248726
 30
0.0
 11
27289.981780653336
 21
10590.655682522643
 31
0.0
  0
LINE
  8
____1
  6
DASHED2
 62
               7
  5
40C
 10
27314.695435147158
 20
10581.546056720716
 30
0.0
 11
27314.968245119944
 21
10589.833129509685
 31
0.0
  0
INSERT
  8
____1
  6
DASHED2
 62
               7
  5
417
  2
C38
 10
0.0
 20
0.0
 30
0.0
  0
INSERT
  8
____1
  6
DASHED2
 62
               7
  5
427
  2
C39
 10
0.0
 20
0.0
 30
0.0
  0
TEXT
  8
____1
  6
CONTINUOUS
 62
               7
  5
428
 10
27173.314373156947
 20
11459.761145960492
 30
0.0
 40
25.399999618530273
  1
改訂日
  7
STYLE1
  0
LINE
  8
____1
  6
CONTINUOUS
 62
               5
  5
429
 10
27835.414371631068
 20
9248.7769791666706
 30
0.0
 11
27835.414371631068
 21
11488.776979166669
 31
0.0
  0
LINE
  8
____1
  6
DASHED2
 62
               7
  5
42A
 10
27321.195794308169
 20
11021.835263935167
 30
0.0
 11
27279.1958255998
 21
11021.783995078687
 31
0.0
  0
LINE
  8
____1
  6
DASHED2
 62
               7
  5
42B
 10
27279.198266973923
 20
11019.783996568767
 30
0.0
 11
27279.1958255998
 21
11021.783995078687
 31
0.0
  0
ARC
  8
____1
  6
DASHED2
 62
               7
  5
42C
 10
27321.202202915243
 20
11016.585267846622
 30
0.0
 40
5.2499999999985576
 50
145.88231289684356
 51
90.069940234114739
210
0.0
220
0.0
230
0.9999999999999999
  0
ARC
  8
____1
  6
DASHED2
 62
               7
  5
42D
 10
27321.202202915243
 20
11016.585267846622
 30
0.0
 40
3.2500000000026592
 50
145.88231289686087
 51
90.069940234123834
210
0.0
220
0.0
230
1.0
  0
LINE
  8
____1
  6
DASHED2
 62
               7
  5
42E
 10
27321.198235682292
 20
11019.835265425249
 30
0.0
 11
27279.198266973923
 21
11019.783996568767
 31
0.0
  0
LINE
  8
____1
  6
CONTINUOUS
 62
               7
  5
42F
 10
27008.699543537365
 20
9281.390362901775
 30
0.0
 11
27008.699543537365
 21
9293.390362901775
 31
0.0
  0
LINE
  8
____1
  6
CONTINUOUS
 62
               7
  5
430
 10
26988.699543537365
 20
9293.390362901775
 30
0.0
 11
26988.699543537365
 21
9281.390362901775
 31
0.0
  0
LINE
  8
____1
  6
DASHED
 62
               7
  5
431
 10
27401.702202915214
 20
11208.33526784662
 30
0.0
 11
27401.702202915214
 21
11206.83526784662
 31
0.0
  0
TEXT
  8
____1
  6
DOT
 62
               7
  5
432
 10
27467.94771208517
 20
9280.7812028300013
 30
0.0
 40
33.866664886474609
  1
ＳＴＲ０００２１
  7
STYLE1
  0
LINE
  8
____1
  6
CONTINUOUS
 62
               5
  5
433
 10
27361.702202915214
 20
10211.335267846624
 30
0.0
 11
27331.702202915214
 21
10359.835267846624
 31
0.0
  0
LINE
  8
____1
  6
CONTINUOUS
 62
               5
  5
434
 10
27283.202202915214
 20
11017.835267846622
 30
0.0
 11
27281.702202915214
 21
11017.835267846622
 31
0.0
  0
ARC
  8
____1
  6
CONTINUOUS
 62
               5
  5
435
 10
27362.931908769293
 20
11208.33526784662
 30
0.0
 40
1.5000000000017861
 50
90.0
 51
168.69006752600706
210
0.0
220
0.0
230
1.0
  0
TEXT
  8
____1
  6
DOT
 62
               7
  5
436
 10
27419.438883965475
 20
9260.8365231107327
 30
0.0
 40
0.8819444179534912
  1
＊＊＊＊＊＊＊＊
  7
STYLE1
  0
TEXT
  8
____1
  6
DOT
 62
               7
  5
437
 10
27419.438883965475
 20
9265.0865231107327
 30
0.0
 40
0.8819444179534912
  1
＊＊＊＊＊＊＊＊
  7
STYLE1
  0
LINE
  8
____1
  6
DASHED
 62
               7
  5
438
 10
27333.202202915214
 20
11059.686738576233
 30
0.0
 11
27333.202202915214
 21
11011.335267846622
 31
0.0
  0
LINE
  8
____1
  6
DASHED
 62
               7
  5
439
 10
27331.702202915214
 20
11009.835267846622
 30
0.0
 11
27283.202202915214
 21
11009.835267846622
 31
0.0
  0
LINE
  8
____1
  6
CONTINUOUS
 62
               5
  5
43A
 10
27410.202202915214
 20
11209.83526784662
 30
0.0
 11
27362.931908769293
 21
11209.83526784662
 31
0.0
  0
LINE
  8
____1
  6
DASHED2
 62
               7
  5
43B
 10
27283.202202915214
 20
11017.835267846622
 30
0.0
 11
27281.702202915214
 21
11017.835267846622
 31
0.0
  0
LINE
  8
____1
  6
DASHED2
 62
               7
  5
43C
 10
27323.256586840329
 20
11011.335267846622
 30
0.0
 11
27283.202202915214
 21
11011.335267846622
 31
0.0
  0
LINE
  8
____1
  6
DASHED2
 62
               7
  5
43D
 10
27283.202202915214
 20
11017.835267846622
 30
0.0
 11
27283.202202915214
 21
11011.335267846622
 31
0.0
  0
LINE
  8
____1
  6
DASHED2
 62
               7
  5
43E
 10
27281.702202915214
 20
11017.835267846622
 30
0.0
 11
27281.702202915214
 21
11011.335267846622
 31
0.0
  0
LINE
  8
____1
  6
CONTINUOUS
 62
               5
  5
43F
 10
27361.702202915214
 20
11208.33526784662
 30
0.0
 11
27331.702202915214
 21
11059.835267846622
 31
0.0
  0
LINE
  8
____1
  6
CONTINUOUS
 62
               5
  5
440
 10
27361.461037755755
 20
11208.629442049327
 30
0.0
 11
27331.731331901683
 21
11059.980912778939
 31
0.0
  0
TEXT
  8
____1
  6
DOT
 62
               7
  5
441
 10
27757.314372203273
 20
11459.761145960492
 30
0.0
 40
25.399999618530273
  1
検認者
  7
STYLE1
  0
LINE
  8
____1
  6
CONTINUOUS
 62
               7
  5
442
 10
27008.699543537365
 20
9293.390362901775
 30
0.0
 11
27024.699543537365
 21
9293.390362901775
 31
0.0
  0
ARC
  8
____1
  6
CONTINUOUS
 62
               5
  5
443
 10
27410.202202915214
 20
11208.33526784662
 30
0.0
 40
1.5
 50
0.0
 51
90.0
210
0.0
220
0.0
230
1.0
  0
ARC
  8
____1
  6
DASHED
 62
               7
  5
444
 10
27331.702202915214
 20
11011.335267846622
 30
0.0
 40
1.5
 50
-90.0
 51
0.0
  0
ARC
  8
____1
  6
DASHED
 62
               7
  5
445
 10
27283.202202915214
 20
11011.335267846622
 30
0.0
 40
1.5
 50
180.0
 51
-90.0
  0
ARC
  8
____1
  6
CONTINUOUS
 62
               5
  5
446
 10
27333.202202915214
 20
11059.686738576233
 30
0.0
 40
1.5
 50
168.69006752595254
 51
180.0
210
0.0
220
0.0
230
1.0
  0
ARC
  8
____1
  6
DASHED
 62
               7
  5
447
 10
27410.202202915214
 20
11208.33526784662
 30
0.0
 40
1.5
 50
-90.0
 51
0.0
210
0.0
220
0.0
230
1.0
  0
LINE
  8
____1
  6
CONTINUOUS
 62
               7
  5
448
 10
27077.984392022208
 20
9265.390362901775
 30
0.0
 11
27077.984392022208
 21
9277.390362901775
 31
0.0
  0
LINE
  8
____1
  6
CONTINUOUS
 62
               7
  5
449
 10
27275.414371631068
 20
9512.7769791666706
 30
0.0
 11
27275.414371631068
 21
9248.7769791666706
 31
0.0
  0
INSERT
  8
____1
  6
CONTINUOUS
 62
             254
  5
458
  2
C40
 10
0.0
 20
0.0
 30
0.0
  0
LINE
  8
____1
  6
DOT
 62
               7
  5
459
 10
27279.964929920345
 20
10384.715540163779
 30
0.0
 11
27279.187352263634
 21
11021.71506557411
 31
0.0
  0
LINE
  8
____1
  6
DASHED2
 62
               7
  5
45A
 10
27281.702202915214
 20
10401.835267846624
 30
0.0
 11
27281.702202915214
 21
11017.835267846622
 31
0.0
  0
LINE
  8
____1
  6
CONTINUOUS
 62
               7
  5
45B
 10
27214.515780690101
 20
9293.390362901775
 30
0.0
 11
27239.724253208475
 21
9293.390362901775
 31
0.0
  0
LINE
  8
____1
  6
CONTINUOUS
 62
               7
  5
45C
 10
27077.984392022208
 20
9265.390362901775
 30
0.0
 11
27097.984392022208
 21
9265.390362901775
 31
0.0
  0
INSERT
  8
____1
  6
DASHED2
 62
               4
  5
482
  2
C42
 10
0.0
 20
0.0
 30
0.0
  0
INSERT
  8
____1
  6
CONTINUOUS
 62
               7
  5
494
  2
C46
 10
0.0
 20
0.0
 30
0.0
  0
LINE
  8
____1
  6
CONTINUOUS
 62
               5
  5
495
 10
27275.414371631068
 20
11368.776979166669
 30
0.0
 11
27275.414371631068
 21
11488.776979166669
 31
0.0
  0
LINE
  8
____1
  6
CONTINUOUS
 62
               5
  5
496
 10
27675.414371631068
 20
11368.776979166669
 30
0.0
 11
27675.414371631068
 21
11488.776979166669
 31
0.0
  0
LINE
  8
____1
  6
CONTINUOUS
 62
               5
  5
497
 10
27147.414371631068
 20
11368.776979166669
 30
0.0
 11
27147.414371631068
 21
11488.776979166669
 31
0.0
  0
LINE
  8
____1
  6
CONTINUOUS
 62
               5
  5
498
 10
27113.140088542725
 20
11406.91791916456
 30
0.0
 11
27132.940088542728
 21
11372.623313174696
 31
0.0
  0
LINE
  8
____1
  6
CONTINUOUS
 62
               5
  5
499
 10
27083.414371631068
 20
11368.776979166669
 30
0.0
 11
27083.414371631068
 21
11488.776979166669
 31
0.0
  0
LINE
  8
____1
  6
CONTINUOUS
 62
               5
  5
49A
 10
27755.414371631068
 20
11368.776979166669
 30
0.0
 11
27755.414371631068
 21
11488.776979166669
 31
0.0
  0
LINE
  8
____1
  6
CONTINUOUS
 62
               5
  5
49B
 10
27083.414371631068
 20
11448.776979166669
 30
0.0
 11
27835.414371631068
 21
11448.776979166669
 31
0.0
  0
LINE
  8
____1
  6
CONTINUOUS
 62
               5
  5
49C
 10
27083.414371631068
 20
11408.776979166669
 30
0.0
 11
27835.414371631068
 21
11408.776979166669
 31
0.0
  0
LINE
  8
____1
  6
CONTINUOUS
 62
               5
  5
49D
 10
27083.414371631068
 20
11368.776979166669
 30
0.0
 11
27835.414371631068
 21
11368.776979166669
 31
0.0
  0
LINE
  8
____1
  6
CONTINUOUS
 62
               7
  5
49E
 10
27056.699543537365
 20
9321.390362901775
 30
0.0
 11
27024.699543537365
 21
9321.390362901775
 31
0.0
  0
LINE
  8
____1
  6
CONTINUOUS
 62
               7
  5
49F
 10
27044.699543537365
 20
9289.390362901775
 30
0.0
 11
27044.699543537365
 21
9293.390362901775
 31
0.0
  0
LINE
  8
____1
  6
CONTINUOUS
 62
               7
  5
4A0
 10
27077.984392022208
 20
9300.2365986220702
 30
0.0
 11
27077.984392022208
 21
9302.8134807619226
 31
0.0
  0
LINE
  8
____1
  6
CONTINUOUS
 62
               7
  5
4A1
 10
26979.490713044939
 20
9305.390362901775
 30
0.0
 11
26979.490713044939
 21
9293.390362901775
 31
0.0
  0
LINE
  8
____1
  6
CONTINUOUS
 62
               5
  5
4A2
 10
27113.140088542725
 20
11406.91791916456
 30
0.0
 11
27093.340088542729
 21
11372.623313174696
 31
0.0
  0
TEXT
  8
____1
  6
DOT
 62
               7
  5
4A3
 10
27090.014372012538
 20
11459.761145960492
 30
0.0
 40
25.399999618530273
  1
副番
  7
STYLE1
  0
LINE
  8
____1
  6
DOT
 62
               7
  5
4A4
 10
27875.254371631065
 20
9214.9369791666704
 30
0.0
 11
27875.254371631065
 21
11522.616979166669
 31
0.0
  0
LINE
  8
____1
  6
CONTINUOUS
 62
               7
  5
4A5
 10
27220.501287827046
 20
9272.5903629017721
 30
0.0
 11
27239.724253208475
 21
9272.5903629017721
 31
0.0
  0
LINE
  8
____1
  6
CONTINUOUS
 62
               7
  5
4A6
 10
27187.713586541806
 20
9307.7903629017765
 30
0.0
 11
27183.724253208475
 21
9321.390362901775
 31
0.0
  0
LINE
  8
____1
  6
CONTINUOUS
 62
               7
  5
4A7
 10
27044.699543537365
 20
9309.390362901775
 30
0.0
 11
27056.699543537365
 21
9321.390362901775
 31
0.0
  0
LINE
  8
____1
  6
DASHED
 62
               7
  5
4A8
 10
27410.202202915214
 20
11206.83526784662
 30
0.0
 11
27401.702202915214
 21
11206.83526784662
 31
0.0
  0
LINE
  8
____1
  6
CONTINUOUS
 62
               5
  5
4A9
 10
27331.702202915214
 20
11059.686738576233
 30
0.0
 11
27331.702202915214
 21
11011.335267846622
 31
0.0
  0
LINE
  8
____1
  6
CONTINUOUS
 62
               7
  5
4AA
 10
27132.886146838911
 20
9282.597313229986
 30
0.0
 11
27131.461330360569
 21
9281.2022880764689
 31
0.0
  0
LINE
  8
____1
  6
CONTINUOUS
 62
               7
  5
4AB
 10
27141.984392022208
 20
9309.390362901775
 30
0.0
 11
27149.984392022208
 21
9321.390362901775
 31
0.0
  0
LINE
  8
____1
  6
DASHED
 62
               7
  5
4AC
 10
27410.202202915214
 20
11208.33526784662
 30
0.0
 11
27362.931908769293
 21
11208.33526784662
 31
0.0
  0
LINE
  8
____1
  6
CONTINUOUS
 62
               5
  5
4AD
 10
27331.702202915214
 20
11011.335267846622
 30
0.0
 11
27323.256586840329
 21
11011.335267846622
 31
0.0
  0
LINE
  8
____1
  6
CONTINUOUS
 62
               7
  5
4AE
 10
27210.371968056828
 20
9307.7903629017728
 30
0.0
 11
27239.724253208475
 21
9307.7903629017728
 31
0.0
  0
LINE
  8
____1
  6
CONTINUOUS
 62
               7
  5
4AF
 10
27210.371968056828
 20
9307.7903629017765
 30
0.0
 11
27209.200814055035
 21
9311.8601940255121
 31
0.0
  0
LINE
  8
____1
  6
CONTINUOUS
 62
               7
  5
4B0
 10
27149.984392022208
 20
9321.390362901775
 30
0.0
 11
27077.984392022208
 21
9321.390362901775
 31
0.0
  0
TEXT
  8
____1
  6
CONTINUOUS
 62
               7
  5
4B1
 10
26718.93306623516
 20
9274.7839822184269
 30
0.0
 40
50.799999237060547
  1
株式会社
  7
STYLE1
  0
LINE
  8
____1
  6
CONTINUOUS
 62
               7
  5
4B2
 10
27201.324253208481
 20
9261.390362901775
 30
0.0
 11
27198.038919875147
 21
9272.5903629017721
 31
0.0
  0
LINE
  8
____1
  6
CONTINUOUS
 62
               7
  5
4B3
 10
27012.699543537365
 20
9277.390362901775
 30
0.0
 11
26988.699543537365
 21
9277.390362901775
 31
0.0
  0
LINE
  8
____1
  6
CONTINUOUS
 62
               7
  5
4B4
 10
27077.984392022208
 20
9306.9903629017736
 30
0.0
 11
27117.984392022208
 21
9306.9903629017736
 31
0.0
  0
LINE
  8
____1
  6
CONTINUOUS
 62
               7
  5
4B5
 10
27186.501711724584
 20
9478.3769791666728
 30
0.0
 11
27224.901711724586
 21
9487.9769791666713
 31
0.0
  0
CIRCLE
  8
____1
  6
CONTINUOUS
 62
               7
  5
4B6
 10
27142.614371631073
 20
9468.7769791666706
 30
0.0
 40
19.19999999999709
  0
CIRCLE
  8
____1
  6
CONTINUOUS
 62
               7
  5
4B7
 10
27142.614371631073
 20
9468.7769791666706
 30
0.0
 40
9.5999999999985448
  0
LINE
  8
____1
  6
CONTINUOUS
 62
               7
  5
4B8
 10
27223.724253208475
 20
9261.390362901775
 30
0.0
 11
27220.501287827046
 21
9272.5903629017721
 31
0.0
  0
LINE
  8
____1
  6
CONTINUOUS
 62
               7
  5
4B9
 10
27167.724253208475
 20
9293.390362901775
 30
0.0
 11
27191.937586541808
 21
9293.390362901775
 31
0.0
  0
LINE
  8
____1
  6
CONTINUOUS
 62
               7
  5
4BA
 10
27056.699543537365
 20
9305.390362901775
 30
0.0
 11
27044.699543537365
 21
9305.390362901775
 31
0.0
  0
LINE
  8
____1
  6
CONTINUOUS
 62
               7
  5
4BB
 10
27044.699543537365
 20
9305.390362901775
 30
0.0
 11
27044.699543537365
 21
9309.390362901775
 31
0.0
  0
LINE
  8
____1
  6
CONTINUOUS
 62
               7
  5
4BC
 10
27167.724253208475
 20
9307.7903629017728
 30
0.0
 11
27187.713586541806
 21
9307.7903629017728
 31
0.0
  0
LINE
  8
____1
  6
CONTINUOUS
 62
               7
  5
4BD
 10
27209.200814055035
 20
9311.8601940255121
 30
0.0
 11
27215.724253208475
 21
9321.390362901775
 31
0.0
  0
LINE
  8
____1
  6
CONTINUOUS
 62
               7
  5
4BE
 10
26988.699543537365
 20
9293.390362901775
 30
0.0
 11
26987.490713044939
 21
9293.390362901775
 31
0.0
  0
LINE
  8
____1
  6
CONTINUOUS
 62
               7
  5
4BF
 10
26988.699543537365
 20
9277.390362901775
 30
0.0
 11
26988.699543537365
 21
9265.390362901775
 31
0.0
  0
TEXT
  8
____1
  6
CONTINUOUS
 62
               7
  5
4C0
 10
27288.13659300558
 20
9307.870498377486
 30
0.0
 40
28.222221374511719
  1
図 番
  7
STYLE1
  0
LINE
  8
____1
  6
CONTINUOUS
 62
               7
  5
4C1
 10
27141.984392022208
 20
9309.390362901775
 30
0.0
 11
27149.984392022208
 21
9321.390362901775
 31
0.0
  0
LINE
  8
____1
  6
CONTINUOUS
 62
               7
  5
4C2
 10
27024.699543537365
 20
9321.390362901775
 30
0.0
 11
27024.699543537365
 21
9305.390362901775
 31
0.0
  0
LINE
  8
____1
  6
CONTINUOUS
 62
               5
  5
4C3
 10
27093.340088542729
 20
11372.623313174696
 30
0.0
 11
27132.940088542728
 21
11372.623313174696
 31
0.0
  0
LINE
  8
____1
  6
CONTINUOUS
 62
               7
  5
4C4
 10
26979.490713044939
 20
9293.390362901775
 30
0.0
 11
26987.490713044939
 21
9293.390362901775
 31
0.0
  0
LINE
  8
____1
  6
CONTINUOUS
 62
               7
  5
4C5
 10
27077.984392022208
 20
9302.8134807619226
 30
0.0
 11
27109.984392022208
 21
9302.8134807619226
 31
0.0
  0
TEXT
  8
____1
  6
CONTINUOUS
 62
               7
  5
4C6
 10
27386.514370105189
 20
11459.761145960492
 30
0.0
 40
25.399999618530273
  1
改　訂　内　容
  7
STYLE1
  0
LINE
  8
____1
  6
CONTINUOUS
 62
               7
  5
4C7
 10
27167.724253208475
 20
9272.5903629017721
 30
0.0
 11
27198.038919875147
 21
9272.5903629017721
 31
0.0
  0
ARC
  8
____1
  6
CONTINUOUS
 62
               7
  5
4C8
 10
27012.699543537365
 20
9289.390362901775
 30
0.0
 40
12.0
 50
-90.0
 51
0.0
210
0.0
220
0.0
230
1.0
  0
LINE
  8
____1
  6
CONTINUOUS
 62
               7
  5
4C9
 10
27167.724253208475
 20
9286.9903629017736
 30
0.0
 11
27167.724253208475
 21
9272.5903629017721
 31
0.0
  0
LINE
  8
____1
  6
CONTINUOUS
 62
               7
  5
4CA
 10
26988.699543537365
 20
9281.390362901775
 30
0.0
 11
27008.699543537365
 21
9281.390362901775
 31
0.0
  0
LINE
  8
____1
  6
CONTINUOUS
 62
               7
  5
4CB
 10
27114.274891955702
 20
9293.2377956608925
 30
0.0
 11
27112.350125505163
 21
9291.1118887764624
 31
0.0
  0
LINE
  8
____1
  6
CONTINUOUS
 62
               7
  5
4CC
 10
27223.724253208475
 20
9261.390362901775
 30
0.0
 11
27201.324253208481
 21
9261.390362901775
 31
0.0
  0
LINE
  8
____1
  6
CONTINUOUS
 62
               7
  5
4CD
 10
27024.699543537365
 20
9293.390362901775
 30
0.0
 11
27024.699543537365
 21
9289.390362901775
 31
0.0
  0
LINE
  8
____1
  6
CONTINUOUS
 62
               7
  5
4CE
 10
27835.414371631068
 20
9512.7769791666706
 30
0.0
 11
26675.414371631068
 21
9512.7769791666706
 31
0.0
  0
LINE
  8
____1
  6
CONTINUOUS
 62
               7
  5
4CF
 10
27224.901711724586
 20
9487.9769791666713
 30
0.0
 11
27224.901711724586
 21
9449.5769791666698
 31
0.0
  0
LINE
  8
____1
  6
CONTINUOUS
 62
               7
  5
4D0
 10
27186.501711724584
 20
9459.1769791666684
 30
0.0
 11
27224.901711724586
 21
9449.5769791666698
 31
0.0
  0
LINE
  8
____1
  6
CONTINUOUS
 62
               7
  5
4D1
 10
27077.984392022208
 20
9321.390362901775
 30
0.0
 11
27077.984392022208
 21
9306.9903629017736
 31
0.0
  0
LINE
  8
____1
  6
CONTINUOUS
 62
               7
  5
4D2
 10
27167.724253208475
 20
9307.7903629017728
 30
0.0
 11
27167.724253208475
 21
9293.390362901775
 31
0.0
  0
LINE
  8
____1
  6
CONTINUOUS
 62
               7
  5
4D3
 10
27024.699543537365
 20
9305.390362901775
 30
0.0
 11
27008.699543537365
 21
9305.390362901775
 31
0.0
  0
LINE
  8
____1
  6
CONTINUOUS
 62
               7
  5
4D4
 10
27020.699543537365
 20
9321.390362901775
 30
0.0
 11
26988.699543537365
 21
9321.390362901775
 31
0.0
  0
LINE
  8
____1
  6
CONTINUOUS
 62
               7
  5
4D5
 10
27008.699543537365
 20
9309.390362901775
 30
0.0
 11
27020.699543537365
 21
9321.390362901775
 31
0.0
  0
LINE
  8
____1
  6
CONTINUOUS
 62
               7
  5
4D6
 10
26988.699543537365
 20
9321.390362901775
 30
0.0
 11
26988.699543537365
 21
9305.390362901775
 31
0.0
  0
TEXT
  8
____1
  6
CONTINUOUS
 62
               7
  5
4D7
 10
26975.414371631068
 20
9392.5934032969617
 30
0.0
 40
28.222221374511719
  1
 照査
  7
STYLE1
  0
LINE
  8
____1
  6
CONTINUOUS
 62
               7
  5
4D8
 10
26975.414371631068
 20
9424.7769791666706
 30
0.0
 11
26975.414371631068
 21
9336.7769791666706
 31
0.0
  0
LINE
  8
____1
  6
CONTINUOUS
 62
               7
  5
4D9
 10
27167.724253208475
 20
9286.9903629017736
 30
0.0
 11
27193.814919875145
 21
9286.9903629017736
 31
0.0
  0
LINE
  8
____1
  6
CONTINUOUS
 62
               7
  5
4DA
 10
27193.814919875145
 20
9286.9903629017736
 30
0.0
 11
27191.937586541808
 21
9293.390362901775
 31
0.0
  0
LINE
  8
____1
  6
CONTINUOUS
 62
               7
  5
4DB
 10
27008.699543537365
 20
9305.390362901775
 30
0.0
 11
27008.699543537365
 21
9309.390362901775
 31
0.0
  0
TEXT
  8
____1
  6
CONTINUOUS
 62
               7
  5
4DC
 10
26718.969928882045
 20
9480.5934032969617
 30
0.0
 40
28.222221374511719
  1
日　　付
  7
STYLE1
  0
LINE
  8
____1
  6
CONTINUOUS
 62
               7
  5
4DD
 10
26695.414371631068
 20
9468.7769791666706
 30
0.0
 11
26855.414371631068
 21
9468.7769791666706
 31
0.0
  0
LINE
  8
____1
  6
CONTINUOUS
 62
               7
  5
4DE
 10
27239.724253208475
 20
9286.9903629017736
 30
0.0
 11
27239.724253208475
 21
9272.5903629017721
 31
0.0
  0
LINE
  8
____1
  6
CONTINUOUS
 62
               7
  5
4DF
 10
27149.984392022208
 20
9277.390362901775
 30
0.0
 11
27149.984392022208
 21
9265.390362901775
 31
0.0
  0
LINE
  8
____1
  6
CONTINUOUS
 62
               7
  5
4E0
 10
27075.414371631068
 20
9512.7769791666706
 30
0.0
 11
27075.414371631068
 21
9424.7769791666669
 31
0.0
  0
LINE
  8
____1
  6
CENTER2
 62
               7
  5
4E1
 10
27142.614371631073
 20
9497.5769791666698
 30
0.0
 11
27142.614371631073
 21
9439.9769791666713
 31
0.0
  0
LINE
  8
____1
  6
CENTER2
 62
               7
  5
4E2
 10
27142.614371631073
 20
9497.5769791666698
 30
0.0
 11
27142.614371631073
 21
9439.9769791666713
 31
0.0
  0
LINE
  8
____1
  6
CONTINUOUS
 62
               7
  5
4E3
 10
27239.724253208475
 20
9307.7903629017728
 30
0.0
 11
27239.724253208475
 21
9293.390362901775
 31
0.0
  0
LINE
  8
____1
  6
CONTINUOUS
 62
               7
  5
4E4
 10
26895.414371631068
 20
9468.7769791666706
 30
0.0
 11
27055.414371631068
 21
9468.7769791666706
 31
0.0
  0
TEXT
  8
____1
  6
CONTINUOUS
 62
               7
  5
4E5
 10
26918.969928882045
 20
9480.5934032969617
 30
0.0
 40
28.222221374511719
  1
尺　　度
  7
STYLE1
  0
CIRCLE
  8
____1
  6
CONTINUOUS
 62
               7
  5
4E6
 10
27142.614371631073
 20
9468.7769791666706
 30
0.0
 40
19.19999999999709
  0
LINE
  8
____1
  6
CONTINUOUS
 62
               7
  5
4E7
 10
27186.501711724584
 20
9478.3769791666728
 30
0.0
 11
27224.901711724586
 21
9487.9769791666713
 31
0.0
  0
TEXT
  8
____1
  6
DOT
 62
               7
  5
4E8
 10
27677.314372203273
 20
11459.761145960492
 30
0.0
 40
25.399999618530273
  1
改訂者
  7
STYLE1
  0
LINE
  8
____1
  6
CONTINUOUS
 62
               7
  5
4E9
 10
27186.501711724584
 20
9478.3769791666728
 30
0.0
 11
27186.501711724584
 21
9459.1769791666684
 31
0.0
  0
LINE
  8
____1
  6
CONTINUOUS
 62
               7
  5
4EA
 10
27224.901711724586
 20
9487.9769791666713
 30
0.0
 11
27224.901711724586
 21
9449.5769791666698
 31
0.0
  0
LINE
  8
____1
  6
CONTINUOUS
 62
               7
  5
4EB
 10
27216.357475193774
 20
9286.9903629017736
 30
0.0
 11
27239.724253208475
 21
9286.9903629017736
 31
0.0
  0
LINE
  8
____1
  6
CONTINUOUS
 62
               7
  5
4EC
 10
27077.984392022208
 20
9277.390362901775
 30
0.0
 11
27087.584392022207
 21
9277.390362901775
 31
0.0
  0
LINE
  8
____1
  6
CONTINUOUS
 62
               7
  5
4ED
 10
27183.724253208475
 20
9321.390362901775
 30
0.0
 11
27215.724253208475
 21
9321.390362901775
 31
0.0
  0
LINE
  8
____1
  6
CONTINUOUS
 62
               7
  5
4EE
 10
26988.699543537365
 20
9305.390362901775
 30
0.0
 11
26979.490713044939
 21
9305.390362901775
 31
0.0
  0
LINE
  8
____1
  6
CONTINUOUS
 62
               7
  5
4EF
 10
27077.984392022208
 20
9277.390362901775
 30
0.0
 11
27077.984392022208
 21
9265.390362901775
 31
0.0
  0
INSERT
  8
____1
  6
DASHED2
 62
               7
  5
54D
  2
C47
 10
0.0
 20
0.0
 30
0.0
  0
LINE
  8
____1
  6
CONTINUOUS
 62
               5
  5
54E
 10
25314.458346827079
 20
9722.9173672951238
 30
0.0
 11
25314.458346827079
 21
9724.4173672951238
 31
0.0
  0
ARC
  8
____1
  6
CONTINUOUS
 62
               7
  5
54F
 10
27087.584392022207
 20
9307.7903629017728
 30
0.0
 40
30.399999999999327
 50
-28.600718616738444
 51
-1.5079577542374811
210
0.0
220
0.0
230
1.0
  0
TEXT
  8
____1
  6
CONTINUOUS
 62
               7
  5
550
 10
27281.081038138789
 20
9483.870498377486
 30
0.0
 40
28.222221374511719
  1
製品名
  7
STYLE1
  0
TEXT
  8
____1
  6
CONTINUOUS
 62
               7
  5
551
 10
27281.081038138789
 20
9395.870498377486
 30
0.0
 40
28.222221374511719
  1
図面名
  7
STYLE1
  0
LINE
  8
____1
  6
CONTINUOUS
 62
               7
  5
552
 10
27186.501711724584
 20
9459.1769791666684
 30
0.0
 11
27224.901711724586
 21
9449.5769791666698
 31
0.0
  0
LINE
  8
____1
  6
CONTINUOUS
 62
               7
  5
553
 10
27186.501711724584
 20
9478.3769791666728
 30
0.0
 11
27186.501711724584
 21
9459.1769791666684
 31
0.0
  0
ARC
  8
____1
  6
CONTINUOUS
 62
               7
  5
554
 10
27097.984392022208
 20
9309.390362901775
 30
0.0
 40
44.0
 50
-37.512388020298822
 51
0.0
210
0.0
220
0.0
230
1.0
  0
LINE
  8
____1
  6
CONTINUOUS
 62
               7
  5
555
 10
26988.699543537365
 20
9265.390362901775
 30
0.0
 11
27020.699543537365
 21
9265.390362901775
 31
0.0
  0
LINE
  8
____1
  6
CENTER2
 62
               7
  5
556
 10
27113.81437163107
 20
9468.7769791666706
 30
0.0
 11
27237.014371631067
 21
9468.7769791666706
 31
0.0
  0
CIRCLE
  8
____1
  6
CONTINUOUS
 62
               7
  5
557
 10
27142.614371631073
 20
9468.7769791666706
 30
0.0
 40
9.5999999999985448
  0
POLYLINE
  8
____1
  6
CONTINUOUS
 62
               7
  5
558
 66
               1
 10
0.0
 20
0.0
 30
0.0
 70
               8
  0
VERTEX
  8
____1
 62
               7
  5
559
 10
27131.461330360569
 20
9281.2022880764689
 30
0.0
 70
              32
  0
VERTEX
  8
____1
 62
               7
  5
55A
 10
27133.697901588217
 20
9280.5989158384073
 30
0.0
 70
              32
  0
VERTEX
  8
____1
 62
               7
  5
55B
 10
27135.96599740789
 20
9280.0462962368365
 30
0.0
 70
              32
  0
VERTEX
  8
____1
 62
               7
  5
55C
 10
27140.578748770713
 20
9279.0643134365964
 30
0.0
 70
              32
  0
VERTEX
  8
____1
 62
               7
  5
55D
 10
27145.263556343878
 20
9278.1983366626191
 30
0.0
 70
              32
  0
VERTEX
  8
____1
 62
               7
  5
55E
 10
27149.984392022208
 20
9277.390362901775
 30
0.0
 70
              32
  0
SEQEND
  8
____1
 62
               7
  5
55F
  0
POLYLINE
  8
____1
  6
CONTINUOUS
 62
               7
  5
560
 66
               1
 10
0.0
 20
0.0
 30
0.0
 70
               8
  0
VERTEX
  8
____1
 62
               7
  5
561
 10
27105.458908622615
 20
9298.2879973623294
 30
0.0
 70
              32
  0
VERTEX
  8
____1
 62
               7
  5
562
 10
27108.83466257876
 20
9294.5874816840587
 30
0.0
 70
              32
  0
VERTEX
  8
____1
 62
               7
  5
563
 10
27110.566198610039
 20
9292.8075122107584
 30
0.0
 70
              32
  0
VERTEX
  8
____1
 62
               7
  5
564
 10
27112.350125505163
 20
9291.1118887764624
 30
0.0
 70
              32
  0
SEQEND
  8
____1
 62
               7
  5
565
  0
POLYLINE
  8
____1
  6
CONTINUOUS
 62
               7
  5
566
 66
               1
 10
0.0
 20
0.0
 30
0.0
 70
               8
  0
VERTEX
  8
____1
 62
               7
  5
567
 10
27121.654686375008
 20
9272.2997014726261
 30
0.0
 70
              32
  0
VERTEX
  8
____1
 62
               7
  5
568
 10
27125.094218280268
 20
9271.2480200431819
 30
0.0
 70
              32
  0
VERTEX
  8
____1
 62
               7
  5
569
 10
27128.57442270578
 20
9270.2715442569715
 30
0.0
 70
              32
  0
VERTEX
  8
____1
 62
               7
  5
56A
 10
27135.633607677431
 20
9268.5012349609824
 30
0.0
 70
              32
  0
VERTEX
  8
____1
 62
               7
  5
56B
 10
27142.785758409675
 20
9266.9028242781023
 30
0.0
 70
              32
  0
VERTEX
  8
____1
 62
               7
  5
56C
 10
27149.984392022208
 20
9265.390362901775
 30
0.0
 70
              32
  0
SEQEND
  8
____1
 62
               7
  5
56D
  0
POLYLINE
  8
____1
  6
CONTINUOUS
 62
               7
  5
56E
 66
               1
 10
0.0
 20
0.0
 30
0.0
 70
               8
  0
VERTEX
  8
____1
 62
               7
  5
56F
 10
27077.984392022208
 20
9300.2365986220702
 30
0.0
 70
              32
  0
VERTEX
  8
____1
 62
               7
  5
570
 10
27083.727670473341
 20
9294.9859068582991
 30
0.0
 70
              32
  0
VERTEX
  8
____1
 62
               7
  5
571
 10
27089.564853910051
 20
9289.9088503843686
 30
0.0
 70
              32
  0
VERTEX
  8
____1
 62
               7
  5
572
 10
27092.548005305987
 20
9287.4896964091658
 30
0.0
 70
              32
  0
VERTEX
  8
____1
 62
               7
  5
573
 10
27095.589847317911
 20
9285.1790644901121
 30
0.0
 70
              32
  0
VERTEX
  8
____1
 62
               7
  5
574
 10
27098.702118069021
 20
9282.9986590384342
 30
0.0
 70
              32
  0
VERTEX
  8
____1
 62
               7
  5
575
 10
27101.89655568251
 20
9280.9701844653664
 30
0.0
 70
              32
  0
VERTEX
  8
____1
 62
               7
  5
576
 10
27101.896555698837
 20
9280.9701844555657
 30
0.0
 70
              32
  0
SEQEND
  8
____1
 62
               7
  5
577
  0
TEXT
  8
____1
  6
CONTINUOUS
 62
               7
  5
578
 10
26683.192150256556
 20
9562.7824976145439
 30
0.0
 40
28.222221374511719
  1
品番
  7
STYLE1
  0
LINE
  8
____1
  6
CONTINUOUS
 62
               7
  5
579
 10
27186.501711724584
 20
9478.3769791666728
 30
0.0
 11
27186.501711724584
 21
9459.1769791666684
 31
0.0
  0
LINE
  8
____1
  6
CONTINUOUS
 62
               7
  5
57A
 10
27056.699543537365
 20
9305.390362901775
 30
0.0
 11
27056.699543537365
 21
9293.390362901775
 31
0.0
  0
LINE
  8
____1
  6
CONTINUOUS
 62
               7
  5
57B
 10
26675.414371631068
 20
9512.7769791666706
 30
0.0
 11
26675.414371631068
 21
9248.7769791666706
 31
0.0
  0
TEXT
  8
____1
  6
CONTINUOUS
 62
               7
  5
57C
 10
26675.414371631068
 20
9348.5934032969617
 30
0.0
 40
28.222221374511719
  1
 製図
  7
STYLE1
  0
TEXT
  8
____1
  6
CONTINUOUS
 62
               7
  5
57D
 10
26675.414371631068
 20
9392.5934032969617
 30
0.0
 40
28.222221374511719
  1
 設計
  7
STYLE1
  0
TEXT
  8
____1
  6
CONTINUOUS
 62
               7
  5
57E
 10
26975.414371631068
 20
9348.5934032969617
 30
0.0
 40
28.222221374511719
  1
 検図
  7
STYLE1
  0
LINE
  8
____1
  6
CONTINUOUS
 62
               5
  5
57F
 10
25930.458346827079
 20
9722.9173672951238
 30
0.0
 11
25930.458346827079
 21
9724.4173672951238
 31
0.0
  0
LINE
  8
____1
  6
CONTINUOUS
 62
               5
  5
580
 10
26120.958346827087
 20
9594.4173672951238
 30
0.0
 11
26120.958346827087
 21
9644.4173672951238
 31
0.0
  0
LINE
  8
____1
  6
DASHED2
 62
               7
  5
581
 10
25930.458346827079
 20
9726.6673672951238
 30
0.0
 11
25930.458346827079
 21
9720.6673672951238
 31
0.0
  0
LINE
  8
____1
  6
DASHED2
 62
               7
  5
582
 10
25314.458346827079
 20
9724.4173672951238
 30
0.0
 11
25930.458346827079
 21
9724.4173672951238
 31
0.0
  0
LINE
  8
____1
  6
DASHED2
 62
               7
  5
583
 10
25314.458346827079
 20
9726.6673672951238
 30
0.0
 11
25930.458346827079
 21
9726.6673672951238
 31
0.0
  0
LINE
  8
____1
  6
CONTINUOUS
 62
               7
  5
584
 10
26675.414371631068
 20
9336.7769791666706
 30
0.0
 11
27835.414371631068
 21
9336.7769791666706
 31
0.0
  0
LINE
  8
____1
  6
CONTINUOUS
 62
               7
  5
585
 10
27216.357475193774
 20
9286.9903629017736
 30
0.0
 11
27214.515780690101
 21
9293.390362901775
 31
0.0
  0
ARC
  8
____1
  6
CONTINUOUS
 62
               7
  5
586
 10
27087.584392022207
 20
9307.7903629017728
 30
0.0
 40
30.399999999999523
 50
-90.0
 51
-61.914095184792771
210
0.0
220
0.0
230
1.0
  0
TEXT
  8
____1
  6
CONTINUOUS
 62
               7
  5
587
 10
27523.192150256556
 20
9562.7824976145439
 30
0.0
 40
28.222221374511719
  1
数量
  7
STYLE1
  0
TEXT
  8
____1
  6
DOT
 62
               7
  5
588
 10
27640.858818194796
 20
9562.7824976145439
 30
0.0
 40
28.222221374511719
  1
備　　　考
  7
STYLE1
  0
LINE
  8
____1
  6
CONTINUOUS
 62
               7
  5
589
 10
26875.414371631068
 20
9512.7769791666706
 30
0.0
 11
26875.414371631068
 21
9424.7769791666669
 31
0.0
  0
LINE
  8
____1
  6
CONTINUOUS
 62
               7
  5
58A
 10
26675.414371631068
 20
9424.7769791666706
 30
0.0
 11
27835.414371631068
 21
9424.7769791666706
 31
0.0
  0
LINE
  8
____1
  6
CONTINUOUS
 62
               7
  5
58B
 10
27587.414371631075
 20
9552.7769791666706
 30
0.0
 11
27587.414371631075
 21
9592.7769791666706
 31
0.0
  0
LINE
  8
____1
  6
CONTINUOUS
 62
               7
  5
58C
 10
27515.414371631068
 20
9552.7769791666706
 30
0.0
 11
27515.414371631068
 21
9592.7769791666706
 31
0.0
  0
LINE
  8
____1
  6
CONTINUOUS
 62
               7
  5
58D
 10
27835.414371631068
 20
9592.7769791666706
 30
0.0
 11
26675.414371631068
 21
9592.7769791666706
 31
0.0
  0
LINE
  8
____1
  6
CONTINUOUS
 62
               7
  5
58E
 10
26675.414371631068
 20
9552.7769791666706
 30
0.0
 11
27835.414371631068
 21
9552.7769791666706
 31
0.0
  0
LINE
  8
____1
  6
CONTINUOUS
 62
               7
  5
58F
 10
27147.414371631068
 20
9552.7769791666706
 30
0.0
 11
27147.414371631068
 21
9592.7769791666706
 31
0.0
  0
TEXT
  8
____1
  6
CONTINUOUS
 62
               7
  5
590
 10
27260.858814380092
 20
9562.7824976145439
 30
0.0
 40
28.222221374511719
  1
材　　　質
  7
STYLE1
  0
TEXT
  8
____1
  6
CONTINUOUS
 62
               7
  5
591
 10
26876.858814380092
 20
9562.7824976145439
 30
0.0
 40
28.222221374511719
  1
品　　　名
  7
STYLE1
  0
CIRCLE
  8
____1
  6
CONTINUOUS
 62
               7
  5
592
 10
27142.614371631073
 20
9468.7769791666706
 30
0.0
 40
9.5999999999985448
  0
LINE
  8
____1
  6
CONTINUOUS
 62
               7
  5
593
 10
27186.501711724584
 20
9459.1769791666684
 30
0.0
 11
27224.901711724586
 21
9449.5769791666698
 31
0.0
  0
LINE
  8
____1
  6
DASHED2
 62
               7
  5
594
 10
25923.958346827079
 20
11009.835267846618
 30
0.0
 11
25322.458346827079
 21
11009.835267846618
 31
0.0
  0
LINE
  8
____1
  6
DASHED
 62
               7
  5
595
 10
26120.958346827087
 20
11208.335267846616
 30
0.0
 11
25123.958346827083
 21
11208.335267846616
 31
0.0
  0
LINE
  8
____1
  6
CONTINUOUS
 62
               5
  5
596
 10
26122.458346827087
 20
11209.835267846616
 30
0.0
 11
25123.958346827083
 21
11209.835267846616
 31
0.0
  0
INSERT
  8
____1
  6
DASHED2
 62
               7
  5
5A4
  2
C53
 10
0.0
 20
0.0
 30
0.0
  0
LINE
  8
____1
  6
CONTINUOUS
 62
               5
  5
5A5
 10
26122.458346827087
 20
9595.9173672951238
 30
0.0
 11
26122.458346827087
 21
9643.1876614410467
 31
0.0
  0
ARC
  8
____1
  6
CONTINUOUS
 62
               5
  5
5A6
 10
26120.958346827087
 20
9643.1876614410467
 30
0.0
 40
1.499999999999289
 50
0.0
 51
78.690067526129667
210
0.0
220
0.0
230
1.0
  0
LINE
  8
____1
  6
CONTINUOUS
 62
               5
  5
5A7
 10
25922.458346827079
 20
10408.335267846624
 30
0.0
 11
25923.958346827079
 21
10408.335267846624
 31
0.0
  0
LINE
  8
____1
  6
DASHED2
 62
               7
  5
5A8
 10
25314.458346827079
 20
9720.6673672951238
 30
0.0
 11
25314.458346827079
 21
9726.6673672951238
 31
0.0
  0
LINE
  8
____1
  6
CONTINUOUS
 62
               5
  5
5A9
 10
25320.958346827079
 20
9674.4173672951238
 30
0.0
 11
25320.958346827079
 21
9682.0982259825014
 31
0.0
  0
LINE
  8
____1
  6
CENTER2
 62
               7
  5
5AA
 10
27142.614371631073
 20
9497.5769791666698
 30
0.0
 11
27142.614371631073
 21
9439.9769791666713
 31
0.0
  0
LINE
  8
____1
  6
CONTINUOUS
 62
               7
  5
5AB
 10
27044.699543537365
 20
9293.390362901775
 30
0.0
 11
27056.699543537365
 21
9293.390362901775
 31
0.0
  0
ARC
  8
____1
  6
CONTINUOUS
 62
               7
  5
5AC
 10
27097.984392022208
 20
9309.390362901775
 30
0.0
 40
43.999999999999332
 50
-90.0
 51
-57.455041145959214
210
0.0
220
0.0
230
0.9999999999999999
  0
LINE
  8
____1
  6
CONTINUOUS
 62
               7
  5
5AD
 10
27186.501711724584
 20
9478.3769791666728
 30
0.0
 11
27186.501711724584
 21
9459.1769791666684
 31
0.0
  0
LINE
  8
____1
  6
CONTINUOUS
 62
               7
  5
5AE
 10
27186.501711724584
 20
9459.1769791666684
 30
0.0
 11
27224.901711724586
 21
9449.5769791666698
 31
0.0
  0
LINE
  8
____1
  6
CONTINUOUS
 62
               7
  5
5AF
 10
27224.901711724586
 20
9487.9769791666713
 30
0.0
 11
27224.901711724586
 21
9449.5769791666698
 31
0.0
  0
LINE
  8
____1
  6
CONTINUOUS
 62
               7
  5
5B0
 10
27109.984392022208
 20
9302.8134807619226
 30
0.0
 11
27105.458908622615
 21
9298.2879973623294
 31
0.0
  0
CIRCLE
  8
____1
  6
CONTINUOUS
 62
               7
  5
5B1
 10
27142.614371631073
 20
9468.7769791666706
 30
0.0
 40
9.5999999999985448
  0
CIRCLE
  8
____1
  6
CONTINUOUS
 62
               7
  5
5B2
 10
27142.614371631073
 20
9468.7769791666706
 30
0.0
 40
19.19999999999709
  0
LINE
  8
____1
  6
CONTINUOUS
 62
               7
  5
5B3
 10
27186.501711724584
 20
9478.3769791666728
 30
0.0
 11
27224.901711724586
 21
9487.9769791666713
 31
0.0
  0
LINE
  8
____1
  6
DASHED
 62
               7
  5
5B4
 10
26120.958346827087
 20
10211.335267846624
 30
0.0
 11
26120.958346827087
 21
11208.33526784662
 31
0.0
  0
LINE
  8
____1
  6
CONTINUOUS
 62
               5
  5
5B5
 10
26122.458346827087
 20
10209.835267846624
 30
0.0
 11
26122.458346827087
 21
11208.33526784662
 31
0.0
  0
LINE
  8
____1
  6
CONTINUOUS
 62
               5
  5
5B6
 10
25272.458346827079
 20
11059.835267846618
 30
0.0
 11
25272.458346827079
 21
10359.83526784662
 31
0.0
  0
LINE
  8
____1
  6
CONTINUOUS
 62
               5
  5
5B7
 10
25972.458346827087
 20
10359.835267846624
 30
0.0
 11
25972.458346827087
 21
11059.835267846622
 31
0.0
  0
INSERT
  8
____1
  6
DASHED2
 62
             254
  5
5CF
  2
C54
 10
0.0
 20
0.0
 30
0.0
  0
ARC
  8
____1
  6
CONTINUOUS
 62
               7
  5
5D0
 10
27020.699543537365
 20
9289.390362901775
 30
0.0
 40
24.0
 50
-90.0
 51
0.0
210
0.0
220
0.0
230
1.0
  0
LINE
  8
____1
  6
CONTINUOUS
 62
               5
  5
5D1
 10
25123.958346827083
 20
10211.335267846624
 30
0.0
 11
25302.458346827079
 21
10389.835267846616
 31
0.0
  0
LINE
  8
____1
  6
CONTINUOUS
 62
               5
  5
5D2
 10
25322.458346827079
 20
10409.83526784662
 30
0.0
 11
25320.958346827079
 21
10409.83526784662
 31
0.0
  0
INSERT
  8
____1
  6
DASHED2
 62
               7
  5
5F0
  2
C55
 10
0.0
 20
0.0
 30
0.0
  0
INSERT
  8
____1
  6
DASHED2
 62
               7
  5
604
  2
C56
 10
0.0
 20
0.0
 30
0.0
  0
LINE
  8
____1
  6
DASHED2
 62
               7
  5
605
 10
25922.458346827079
 20
10408.335267846624
 30
0.0
 11
25922.458346827079
 21
11009.835267846622
 31
0.0
  0
INSERT
  8
____1
  6
CONTINUOUS
 62
             254
  5
626
  2
C57
 10
0.0
 20
0.0
 30
0.0
  0
INSERT
  8
____1
  6
DASHED2
 62
               7
  5
64B
  2
C58
 10
0.0
 20
0.0
 30
0.0
  0
LINE
  8
____1
  6
CONTINUOUS
 62
               5
  5
64C
 10
26120.958346827087
 20
9644.4173672951238
 30
0.0
 11
25972.458346827087
 21
9674.4173672951238
 31
0.0
  0
LINE
  8
____1
  6
CONTINUOUS
 62
               5
  5
64D
 10
26120.958346827087
 20
10211.335267846624
 30
0.0
 11
25942.458346827087
 21
10389.83526784662
 31
0.0
  0
LINE
  8
____1
  6
DASHED2
 62
               7
  5
64E
 10
25930.458346827079
 20
9720.6673672951238
 30
0.0
 11
25314.458346827079
 21
9720.6673672951238
 31
0.0
  0
LINE
  8
____1
  6
CONTINUOUS
 62
               7
  5
64F
 10
26695.414371631068
 20
9380.7769791666706
 30
0.0
 11
26955.414371631068
 21
9380.7769791666706
 31
0.0
  0
LINE
  8
____1
  6
CONTINUOUS
 62
               7
  5
650
 10
26995.414371631068
 20
9380.7769791666706
 30
0.0
 11
27255.414371631068
 21
9380.7769791666706
 31
0.0
  0
LINE
  8
____1
  6
CONTINUOUS
 62
               5
  5
651
 10
25122.458346827083
 20
9644.4173672951238
 30
0.0
 11
26120.958346827087
 21
9644.4173672951238
 31
0.0
  0
LINE
  8
____1
  6
CONTINUOUS
 62
               5
  5
652
 10
25122.458346827083
 20
9594.4173672951238
 30
0.0
 11
26120.958346827087
 21
9594.4173672951238
 31
0.0
  0
LINE
  8
____1
  6
CONTINUOUS
 62
               7
  5
653
 10
26747.414371631068
 20
9552.7769791666706
 30
0.0
 11
26747.414371631068
 21
9592.7769791666706
 31
0.0
  0
LINE
  8
____1
  6
CONTINUOUS
 62
               7
  5
654
 10
26675.414371631068
 20
9552.7769791666706
 30
0.0
 11
26675.414371631068
 21
9592.7769791666706
 31
0.0
  0
LINE
  8
____1
  6
CONTINUOUS
 62
               5
  5
655
 10
25122.458346827083
 20
10209.835267846624
 30
0.0
 11
26120.958346827087
 21
10209.835267846624
 31
0.0
  0
LINE
  8
____1
  6
DASHED
 62
               7
  5
656
 10
25320.958346827079
 20
10408.335267846624
 30
0.0
 11
25922.458346827079
 21
10408.335267846624
 31
0.0
  0
LINE
  8
____1
  6
CONTINUOUS
 62
               5
  5
657
 10
25272.458346827079
 20
10359.835267846624
 30
0.0
 11
25972.458346827087
 21
10359.835267846624
 31
0.0
  0
LINE
  8
____1
  6
DASHED2
 62
               7
  5
658
 10
25314.458346827079
 20
10401.835267846624
 30
0.0
 11
25930.458346827079
 21
10401.835267846624
 31
0.0
  0
LINE
  8
____1
  6
DASHED2
 62
               7
  5
659
 10
25320.958346827079
 20
10409.835267846624
 30
0.0
 11
25922.458346827079
 21
10409.835267846624
 31
0.0
  0
INSERT
  8
____1
  6
DASHED2
 62
             254
  5
671
  2
C59
 10
0.0
 20
0.0
 30
0.0
  0
LINE
  8
____1
  6
CONTINUOUS
 62
               5
  5
672
 10
25972.458346827087
 20
11059.835267846618
 30
0.0
 11
25272.458346827079
 21
11059.835267846618
 31
0.0
  0
LINE
  8
____1
  6
DASHED
 62
               7
  5
673
 10
25923.958346827079
 20
11011.335267846618
 30
0.0
 11
25322.458346827079
 21
11011.335267846618
 31
0.0
  0
LINE
  8
____1
  6
DASHED2
 62
               7
  5
674
 10
25930.458346827079
 20
11017.835267846618
 30
0.0
 11
25314.458346827079
 21
11017.835267846618
 31
0.0
  0
LINE
  8
____1
  6
DASHED
 62
               7
  5
675
 10
26120.958346827087
 20
9595.9173672951238
 30
0.0
 11
26120.958346827087
 21
9643.1876614410467
 31
0.0
  0
ARC
  8
____1
  6
CONTINUOUS
 62
               5
  5
676
 10
26120.958346827087
 20
9595.9173672951238
 30
0.0
 40
1.5
 50
-90.0
 51
0.0
210
0.0
220
0.0
230
1.0
  0
ARC
  8
____1
  6
DASHED
 62
               7
  5
677
 10
26120.958346827087
 20
9595.9173672951238
 30
0.0
 40
1.5
 50
180.0
 51
-90.0
210
0.0
220
0.0
230
1.0
  0
LINE
  8
____1
  6
CONTINUOUS
 62
               5
  5
678
 10
25122.458346827083
 20
9594.4173672951238
 30
0.0
 11
25122.458346827083
 21
9644.4173672951238
 31
0.0
  0
LINE
  8
____1
  6
DASHED
 62
               7
  5
679
 10
25125.758346827079
 20
9594.4173672951238
 30
0.0
 11
25125.758346827079
 21
9604.4173672951238
 31
0.0
  0
LINE
  8
____1
  6
CONTINUOUS
 62
               5
  5
67A
 10
25122.458346827083
 20
10209.835267846624
 30
0.0
 11
25122.458346827083
 21
10211.335267846624
 31
0.0
  0
LINE
  8
____1
  6
CONTINUOUS
 62
               5
  5
67B
 10
25122.458346827083
 20
10211.335267846624
 30
0.0
 11
25123.958346827083
 21
10211.335267846624
 31
0.0
  0
LINE
  8
____1
  6
DASHED
 62
               7
  5
67C
 10
25123.958346827083
 20
9595.9173672951238
 30
0.0
 11
25123.958346827083
 21
9643.1876614410467
 31
0.0
  0
LINE
  8
____1
  6
CONTINUOUS
 62
               5
  5
67D
 10
25922.458346827079
 20
10409.835267846624
 30
0.0
 11
25922.458346827079
 21
10408.335267846624
 31
0.0
  0
LINE
  8
____1
  6
CONTINUOUS
 62
               5
  5
67E
 10
25123.958346827083
 20
9644.4173672951238
 30
0.0
 11
25272.458346827079
 21
9674.4173672951238
 31
0.0
  0
LINE
  8
____1
  6
CENTER2
 62
               7
  5
67F
 10
27142.614371631073
 20
9497.5769791666698
 30
0.0
 11
27142.614371631073
 21
9439.9769791666713
 31
0.0
  0
LINE
  8
____1
  6
CONTINUOUS
 62
               7
  5
680
 10
27224.901711724586
 20
9487.9769791666713
 30
0.0
 11
27224.901711724586
 21
9449.5769791666698
 31
0.0
  0
LINE
  8
____1
  6
DASHED2
 62
               7
  5
681
 10
25320.958346827079
 20
9674.4173672951238
 30
0.0
 11
25320.958346827079
 21
9722.9173672951238
 31
0.0
  0
LINE
  8
____1
  6
CONTINUOUS
 62
               5
  5
682
 10
25123.664172624372
 20
9644.6585324545831
 30
0.0
 11
25272.312701894756
 21
9674.388238308662
 31
0.0
  0
LINE
  8
____1
  6
CONTINUOUS
 62
               7
  5
683
 10
27186.501711724584
 20
9478.3769791666728
 30
0.0
 11
27224.901711724586
 21
9487.9769791666713
 31
0.0
  0
CIRCLE
  8
____1
  6
CONTINUOUS
 62
               7
  5
684
 10
27142.614371631073
 20
9468.7769791666706
 30
0.0
 40
19.19999999999709
  0
LINE
  8
____1
  6
DASHED
 62
               7
  5
685
 10
25322.458346827079
 20
9674.4173672951238
 30
0.0
 11
25322.458346827079
 21
9722.9173672951238
 31
0.0
  0
ARC
  8
____1
  6
DASHED
 62
               7
  5
686
 10
25320.958346827079
 20
9722.9173672951238
 30
0.0
 40
1.5
 50
0.0
 51
90.0
  0
LINE
  8
____1
  6
CONTINUOUS
 62
               5
  5
687
 10
25320.958346827079
 20
10409.835267846624
 30
0.0
 11
25320.958346827079
 21
10408.335267846624
 31
0.0
  0
LINE
  8
____1
  6
DASHED2
 62
               7
  5
688
 10
25302.458346827079
 20
10389.83526784662
 30
0.0
 11
25320.958346827079
 21
10408.335267846624
 31
0.0
  0
LINE
  8
____1
  6
DASHED
 62
               7
  5
689
 10
25272.606876097467
 20
9672.9173672951238
 30
0.0
 11
25320.958346827079
 21
9672.9173672951238
 31
0.0
  0
LINE
  8
____1
  6
CONTINUOUS
 62
               5
  5
68A
 10
25272.606876097467
 20
9674.4173672951238
 30
0.0
 11
25320.958346827079
 21
9674.4173672951238
 31
0.0
  0
LINE
  8
____1
  6
CONTINUOUS
 62
               5
  5
68B
 10
25314.458346827079
 20
9722.9173672951238
 30
0.0
 11
25314.458346827079
 21
9724.4173672951238
 31
0.0
  0
LINE
  8
____1
  6
DASHED2
 62
               7
  5
68C
 10
25314.458346827079
 20
9724.4173672951238
 30
0.0
 11
25320.958346827079
 21
9724.4173672951238
 31
0.0
  0
LINE
  8
____1
  6
DASHED2
 62
               7
  5
68D
 10
25320.958346827079
 20
10409.83526784662
 30
0.0
 11
25320.958346827079
 21
10408.33526784662
 31
0.0
  0
LINE
  8
____1
  6
DASHED
 62
               7
  5
68E
 10
25923.958346827079
 20
10408.335267846624
 30
0.0
 11
25923.958346827079
 21
11009.835267846622
 31
0.0
  0
LINE
  8
____1
  6
DASHED2
 62
               7
  5
68F
 10
25930.458346827079
 20
10401.835267846624
 30
0.0
 11
25930.458346827079
 21
11017.835267846622
 31
0.0
  0
LINE
  8
____1
  6
CONTINUOUS
 62
               5
  5
690
 10
25122.458346827083
 20
11209.835267846616
 30
0.0
 11
25123.958346827083
 21
11209.835267846616
 31
0.0
  0
LINE
  8
____1
  6
CONTINUOUS
 62
               5
  5
691
 10
24635.414371631068
 20
9248.7769791666706
 30
0.0
 11
24635.414371631068
 21
11488.776979166669
 31
0.0
  0
LINE
  8
____1
  6
DOT
 62
               7
  5
692
 10
24595.574371631072
 20
9214.9369791666704
 30
0.0
 11
24595.574371631072
 21
11522.616979166669
 31
0.0
  0
LINE
  8
____1
  6
CONTINUOUS
 62
               5
  5
693
 10
24635.414371631068
 20
9248.7769791666706
 30
0.0
 11
27835.414371631068
 21
9248.7769791666706
 31
0.0
  0
LINE
  8
____1
  6
CONTINUOUS
 62
               5
  5
694
 10
27835.414371631068
 20
11488.776979166669
 30
0.0
 11
24635.414371631068
 21
11488.776979166669
 31
0.0
  0
LINE
  8
____1
  6
DOT
 62
               7
  5
695
 10
24595.574371631072
 20
9214.9369791666704
 30
0.0
 11
27875.254371631065
 21
9214.9369791666704
 31
0.0
  0
LINE
  8
____1
  6
DOT
 62
               7
  5
696
 10
27875.254371631065
 20
11522.616979166669
 30
0.0
 11
24595.574371631072
 21
11522.616979166669
 31
0.0
  0
LINE
  8
____1
  6
DASHED
 62
               7
  5
697
 10
26120.958346827087
 20
9643.1876614410467
 30
0.0
 11
25972.309817556692
 21
9672.9173672951238
 31
0.0
  0
LINE
  8
____1
  6
DASHED2
 62
               7
  5
698
 10
25314.458346827079
 20
9722.9173672951238
 30
0.0
 11
25930.458346827079
 21
9722.9173672951238
 31
0.0
  0
LINE
  8
____1
  6
CONTINUOUS
 62
               5
  5
699
 10
25272.458346827079
 20
9674.4173672951238
 30
0.0
 11
25972.458346827087
 21
9674.4173672951238
 31
0.0
  0
LINE
  8
____1
  6
DASHED2
 62
               7
  5
69A
 10
25922.458346827079
 20
10408.335267846624
 30
0.0
 11
25923.958346827079
 21
10408.335267846624
 31
0.0
  0
LINE
  8
____1
  6
CONTINUOUS
 62
               5
  5
69B
 10
25930.458346827079
 20
9722.9173672951238
 30
0.0
 11
25930.458346827079
 21
9724.4173672951238
 31
0.0
  0
LINE
  8
____1
  6
DASHED
 62
               7
  5
69C
 10
25125.758346827079
 20
9604.4173672951238
 30
0.0
 11
26120.958346827087
 21
9604.4173672951238
 31
0.0
  0
LINE
  8
____1
  6
DASHED
 62
               7
  5
69D
 10
25123.958346827083
 20
10211.335267846624
 30
0.0
 11
26120.958346827087
 21
10211.335267846624
 31
0.0
  0
LINE
  8
____1
  6
CONTINUOUS
 62
               5
  5
69E
 10
25972.309817556692
 20
9674.4173672951238
 30
0.0
 11
25923.958346827079
 21
9674.4173672951238
 31
0.0
  0
LINE
  8
____1
  6
DASHED
 62
               7
  5
69F
 10
25972.309817556692
 20
9672.9173672951238
 30
0.0
 11
25923.958346827079
 21
9672.9173672951238
 31
0.0
  0
LINE
  8
____1
  6
CONTINUOUS
 62
               5
  5
6A0
 10
25923.958346827079
 20
9674.4173672951238
 30
0.0
 11
25923.958346827079
 21
9682.0982259825014
 31
0.0
  0
ARC
  8
____1
  6
DASHED
 62
               7
  5
6A1
 10
25923.958346827079
 20
9722.9173672951238
 30
0.0
 40
1.5
 50
90.0
 51
180.0
210
0.0
220
0.0
230
1.0
  0
LINE
  8
____1
  6
DASHED2
 62
               7
  5
6A2
 10
25923.958346827079
 20
9682.0982259825032
 30
0.0
 11
25923.958346827079
 21
9726.144368739353
 31
0.0
  0
LINE
  8
____1
  6
DASHED2
 62
               7
  5
6A3
 10
25942.458346827087
 20
10389.83526784662
 30
0.0
 11
25923.958346827079
 21
10408.335267846624
 31
0.0
  0
ARC
  8
____1
  6
DASHED
 62
               7
  5
6A4
 10
25923.958346827079
 20
9674.4173672951238
 30
0.0
 40
1.5
 50
180.0
 51
-90.0
  0
ARC
  8
____1
  6
CONTINUOUS
 62
               5
  5
6A5
 10
25972.309817556692
 20
9672.9173672951238
 30
0.0
 40
1.5
 50
78.690067525870774
 51
90.0
210
0.0
220
0.0
230
1.0
  0
LINE
  8
____1
  6
DASHED
 62
               7
  5
6A6
 10
26119.458346827087
 20
9595.9173672951238
 30
0.0
 11
26119.458346827087
 21
9604.4173672951238
 31
0.0
  0
LINE
  8
____1
  6
DASHED
 62
               7
  5
6A7
 10
25123.958346827083
 20
9604.4173672951238
 30
0.0
 11
25125.458346827083
 21
9604.4173672951238
 31
0.0
  0
ARC
  8
____1
  6
DASHED
 62
               7
  5
6A8
 10
25123.958346827083
 20
9595.9173672951238
 30
0.0
 40
1.5
 50
180.0
 51
0.0
  0
LINE
  8
____1
  6
CONTINUOUS
 62
               7
  5
6A9
 10
25122.458346827083
 20
10211.335267846624
 30
0.0
 11
25123.958346827083
 21
10211.335267846624
 31
0.0
  0
LINE
  8
____1
  6
DASHED
 62
               7
  5
6AA
 10
25125.458346827083
 20
9595.9173672951238
 30
0.0
 11
25125.458346827083
 21
9604.4173672951238
 31
0.0
  0
LINE
  8
____1
  6
CONTINUOUS
 62
               5
  5
6AB
 10
25122.458346827083
 20
9595.9173672951238
 30
0.0
 11
25122.458346827083
 21
9643.1876614410467
 31
0.0
  0
ARC
  8
____1
  6
CONTINUOUS
 62
               5
  5
6AC
 10
25123.958346827083
 20
9643.1876614410467
 30
0.0
 40
1.5000000000007161
 50
101.30993247414285
 51
180.0
  0
LINE
  8
____1
  6
CONTINUOUS
 62
               5
  5
6AD
 10
25122.458346827083
 20
10211.335267846624
 30
0.0
 11
25123.958346827083
 21
10211.335267846624
 31
0.0
  0
LINE
  8
____1
  6
CONTINUOUS
 62
               5
  5
6AE
 10
25123.958346827083
 20
11209.835267846616
 30
0.0
 11
25123.958346827083
 21
11208.335267846616
 31
0.0
  0
LINE
  8
____1
  6
CONTINUOUS
 62
               7
  5
6AF
 10
25123.958346827083
 20
11209.835267846616
 30
0.0
 11
25123.958346827083
 21
11208.335267846616
 31
0.0
  0
LINE
  8
____1
  6
CONTINUOUS
 62
               5
  5
6B0
 10
26122.458346827087
 20
10209.835267846624
 30
0.0
 11
26120.958346827087
 21
10209.835267846624
 31
0.0
  0
ARC
  8
____1
  6
DASHED
 62
               7
  5
6B1
 10
25320.958346827079
 20
9674.4173672951238
 30
0.0
 40
1.5
 50
-90.0
 51
0.0
210
0.0
220
0.0
230
1.0
  0
LINE
  8
____1
  6
DASHED
 62
               7
  5
6B2
 10
25123.958346827083
 20
9643.1876614410467
 30
0.0
 11
25272.606876097467
 21
9672.9173672951238
 31
0.0
  0
LINE
  8
____1
  6
DASHED2
 62
               7
  5
6B3
 10
25930.458346827079
 20
9724.4173672951238
 30
0.0
 11
25923.958346827079
 21
9724.4173672951238
 31
0.0
  0
INSERT
  8
____1
  6
DASHED2
 62
               7
  5
73C
  2
C60
 10
0.0
 20
0.0
 30
0.0
  0
ARC
  8
____1
  6
CONTINUOUS
 62
               5
  5
73D
 10
25272.606876097467
 20
9672.9173672951238
 30
0.0
 40
1.5
 50
90.0
 51
101.30993247412923
  0
LINE
  8
____1
  6
DASHED2
 62
               7
  5
73E
 10
25314.458346827079
 20
9722.9173672951238
 30
0.0
 11
25320.958346827079
 21
9722.9173672951238
 31
0.0
  0
LINE
  8
____1
  6
DASHED2
 62
               7
  5
73F
 10
25322.458346827079
 20
11011.335267846618
 30
0.0
 11
25322.458346827079
 21
10409.83526784662
 31
0.0
  0
LINE
  8
____1
  6
DASHED2
 62
               7
  5
740
 10
25314.458346827079
 20
11017.835267846618
 30
0.0
 11
25314.458346827079
 21
10401.83526784662
 31
0.0
  0
INSERT
  8
____1
  6
CONTINUOUS
 62
               7
  5
750
  2
C70
 10
0.0
 20
0.0
 30
0.0
  0
LINE
  8
____1
  6
DASHED2
 62
               7
  5
751
 10
25305.958346827079
 20
11026.335267846618
 30
0.0
 11
25320.958346827079
 21
11011.335267846618
 31
0.0
  0
LINE
  8
____1
  6
CONTINUOUS
 62
               5
  5
752
 10
25123.958346827083
 20
11208.335267846616
 30
0.0
 11
25305.958346827079
 21
11026.335267846618
 31
0.0
  0
LINE
  8
____1
  6
DASHED2
 62
               7
  5
753
 10
25322.458346827079
 20
11009.835267846618
 30
0.0
 11
25322.458346827079
 21
11011.335267846618
 31
0.0
  0
LINE
  8
____1
  6
DASHED2
 62
               7
  5
754
 10
25322.458346827079
 20
11011.335267846618
 30
0.0
 11
25320.958346827079
 21
11011.335267846618
 31
0.0
  0
LINE
  8
____1
  6
CONTINUOUS
 62
               5
  5
755
 10
25322.458346827079
 20
11011.335267846618
 30
0.0
 11
25320.958346827079
 21
11011.335267846618
 31
0.0
  0
INSERT
  8
____1
  6
CONTINUOUS
 62
               7
  5
76D
  2
C71
 10
0.0
 20
0.0
 30
0.0
  0
LINE
  8
____1
  6
CONTINUOUS
 62
               5
  5
76E
 10
25123.958346827083
 20
11209.835267846616
 30
0.0
 11
25123.958346827083
 21
11208.335267846616
 31
0.0
  0
LINE
  8
____1
  6
CONTINUOUS
 62
               5
  5
76F
 10
26120.958346827087
 20
10209.835267846624
 30
0.0
 11
26120.958346827087
 21
10211.335267846624
 31
0.0
  0
LINE
  8
____1
  6
DASHED
 62
               5
  5
770
 10
26120.958346827087
 20
10209.835267846624
 30
0.0
 11
26120.958346827087
 21
10211.335267846624
 31
0.0
  0
INSERT
  8
____1
  6
CONTINUOUS
 62
               7
  5
785
  2
C72
 10
0.0
 20
0.0
 30
0.0
  0
INSERT
  8
____1
  6
CONTINUOUS
 62
               7
  5
795
  2
C73
 10
0.0
 20
0.0
 30
0.0
  0
INSERT
  8
____1
  6
DASHED2
 62
               7
  5
7A6
  2
C74
 10
0.0
 20
0.0
 30
0.0
  0
LINE
  8
____1
  6
DASHED
 62
               7
  5
7A7
 10
25320.958346827079
 20
11011.335267846618
 30
0.0
 11
25320.958346827079
 21
10409.83526784662
 31
0.0
  0
LINE
  8
____1
  6
DASHED2
 62
               7
  5
7A8
 10
25923.958346827079
 20
11009.835267846618
 30
0.0
 11
25923.958346827079
 21
11011.335267846618
 31
0.0
  0
LINE
  8
____1
  6
DASHED2
 62
               7
  5
7A9
 10
25938.958346827079
 20
11026.335267846618
 30
0.0
 11
25923.958346827079
 21
11011.335267846622
 31
0.0
  0
INSERT
  8
____1
  6
CONTINUOUS
 62
               7
  5
7B5
  2
C75
 10
0.0
 20
0.0
 30
0.0
  0
LINE
  8
____1
  6
CONTINUOUS
 62
               5
  5
7B6
 10
26121.25252102979
 20
9644.6585324545831
 30
0.0
 11
25972.603991759403
 21
9674.388238308662
 31
0.0
  0
LINE
  8
____1
  6
DASHED
 62
               7
  5
7B7
 10
26120.958346827087
 20
9604.4173672951238
 30
0.0
 11
26119.458346827087
 21
9604.4173672951238
 31
0.0
  0
LINE
  8
____1
  6
CONTINUOUS
 62
               5
  5
7B8
 10
26120.958346827087
 20
11208.33526784662
 30
0.0
 11
25938.958346827079
 21
11026.335267846618
 31
0.0
  0
LINE
  8
____1
  6
CONTINUOUS
 62
               5
  5
7B9
 10
25922.458346827079
 20
11009.835267846622
 30
0.0
 11
25923.958346827079
 21
11009.835267846622
 31
0.0
  0
LINE
  8
____1
  6
DASHED
 62
               7
  5
7BA
 10
25922.458346827079
 20
9674.4173672951238
 30
0.0
 11
25922.458346827079
 21
9722.9173672951238
 31
0.0
  0
LINE
  8
____1
  6
DASHED2
 62
               7
  5
7BB
 10
25930.458346827079
 20
9722.9173672951238
 30
0.0
 11
25923.958346827079
 21
9722.9173672951238
 31
0.0
  0
LINE
  8
____1
  6
CONTINUOUS
 62
               5
  5
7BC
 10
25923.958346827079
 20
11009.835267846622
 30
0.0
 11
25923.958346827079
 21
11011.335267846622
 31
0.0
  0
LINE
  8
____1
  6
CONTINUOUS
 62
               5
  5
7BD
 10
26122.458346827087
 20
11208.335267846616
 30
0.0
 11
26120.958346827087
 21
11208.335267846616
 31
0.0
  0
LINE
  8
____1
  6
CONTINUOUS
 62
               5
  5
7BE
 10
26122.458346827087
 20
11209.835267846616
 30
0.0
 11
26122.458346827087
 21
11208.335267846616
 31
0.0
  0
LINE
  8
____1
  6
CONTINUOUS
 62
               5
  5
7BF
 10
26122.458346827087
 20
11208.33526784662
 30
0.0
 11
26120.958346827087
 21
11208.33526784662
 31
0.0
  0
INSERT
  8
____1
  6
CONTINUOUS
 62
               7
  5
815
  2
C76
 10
0.0
 20
0.0
 30
0.0
  0
INSERT
  8
____1
  6
CONTINUOUS
 62
             254
  5
999
  2
C77
 10
0.0
 20
0.0
 30
0.0
  0
INSERT
  8
____1
  6
CONTINUOUS
 62
             254
  5
9E9
  2
C86
 10
0.0
 20
0.0
 30
0.0
  0
LINE
  8
____1
  6
DASHED
 62
               7
  5
9EA
 10
25123.958346827083
 20
11208.335267846616
 30
0.0
 11
25123.958346827083
 21
10211.335267846624
 31
0.0
  0
LINE
  8
____1
  6
CONTINUOUS
 62
               5
  5
9EB
 10
25122.458346827083
 20
11209.835267846616
 30
0.0
 11
25122.458346827083
 21
10211.335267846624
 31
0.0
  0
ENDSEC
  0
EOF
