  0
SECTION
  2
HEADER
  9
$ACADVER
  1
AC1006
  9
$DWGCODEPAGE
  3
ansi_932
  9
$INSBASE
 10
0.0
 20
0.0
 30
0.0
  9
$EXTMIN
 10
13128.584895833334
 20
9102.6947916666668
  9
$EXTMAX
 10
17535.551041666669
 20
6697.1692708333321
  9
$LIMMIN
 10
0.0
 20
0.0
  9
$LIMMAX
 10
0.0
 20
0.0
  9
$VIEWCTR
 10
6.5912879999999996
 20
4.5791839999999997
  9
$VIEWSIZE
 40
9.1583690000000004
  9
$SNAPMODE
 70
               0
  9
$SNAPUNIT
 10
1.0
 20
1.0
  9
$SNAPBASE
 10
0.0
 20
0.0
  9
$SNAPANG
 50
0.0
  9
$SNAPSTYLE
 70
               0
  9
$SNAPISOPAIR
 70
               0
  9
$GRIDMODE
 70
               0
  9
$GRIDUNIT
 10
0.0
 20
0.0
  9
$ORTHOMODE
 70
               0
  9
$REGENMODE
 70
               1
  9
$FILLMODE
 70
               1
  9
$QTEXTMODE
 70
               0
  9
$MIRRTEXT
 70
               1
  9
$DRAGMODE
 70
               2
  9
$LTSCALE
 40
1.0
  9
$OSMODE
 70
               0
  9
$ATTMODE
 70
               1
  9
$TEXTSIZE
 40
0.2
  9
$TRACEWID
 40
0.05
  9
$TEXTSTYLE
  7
STANDARD
  9
$CLAYER
  8
0
  9
$CELTYPE
  6
CONTINUOUS
  9
$CECOLOR
 62
             256
  9
$DIMSCALE
 40
1.0
  9
$DIMASZ
 40
2.5
  9
$DIMEXO
 40
0.5
  9
$DIMDLI
 40
0.38
  9
$DIMRND
 40
0.0
  9
$DIMDLE
 40
0.0
  9
$DIMEXE
 40
1.0
  9
$DIMTP
 40
0.0
  9
$DIMTM
 40
0.0
  9
$DIMTXT
 40
3.5277777777777777
  9
$DIMCEN
 40
0.09
  9
$DIMTSZ
 40
0.0
  9
$DIMTOL
 70
               0
  9
$DIMLIM
 70
               0
  9
$DIMTIH
 70
               0
  9
$DIMTOH
 70
               0
  9
$DIMSE1
 70
               0
  9
$DIMSE2
 70
               0
  9
$DIMTAD
 70
               1
  9
$DIMZIN
 70
               0
  9
$DIMBLK
  1

  9
$DIMASO
 70
               1
  9
$DIMSHO
 70
               1
  9
$DIMPOST
  1

  9
$DIMAPOST
  1

  9
$DIMALT
 70
               0
  9
$DIMALTD
 70
               3
  9
$DIMALTF
 40
25.399999999999999
  9
$DIMLFAC
 40
1.0
  9
$DIMTOFL
 70
               0
  9
$DIMTVP
 40
0.0
  9
$DIMTIX
 70
               0
  9
$DIMSOXD
 70
               0
  9
$DIMSAH
 70
               0
  9
$DIMBLK1
  1

  9
$DIMBLK2
  1

  9
$LUNITS
 70
               2
  9
$LUPREC
 70
               4
  9
$AXISMODE
 70
               0
  9
$AXISUNIT
 10
0.0
 20
0.0
  9
$SKETCHINC
 40
0.1
  9
$FILLETRAD
 40
0.0
  9
$AUNITS
 70
               0
  9
$AUPREC
 70
               0
  9
$MENU
  1
acad
  9
$ELEVATION
 40
0.0
  9
$THICKNESS
 40
0.0
  9
$LIMCHECK
 70
               0
  9
$BLIPMODE
 70
               1
  9
$CHAMFERA
 40
0.0
  9
$CHAMFERB
 40
0.0
  9
$SKPOLY
 70
               0
  9
$TDCREATE
 40
2454992.466562500
  9
$TDUPDATE
 40
2454992.466562500
  9
$TDINDWG
 40
0.0000000000
  9
$TDUSRTIMER
 40
0.0000000000
  9
$USRTIMER
 70
               1
  9
$ANGBASE
 50
0.0
  9
$ANGDIR
 70
               0
  9
$PDMODE
 70
               0
  9
$PDSIZE
 40
0.0
  9
$PLINEWID
 40
0.0
  9
$COORDS
 70
               0
  9
$SPLFRAME
 70
               0
  9
$SPLINETYPE
 70
               6
  9
$SPLINESEGS
 70
               8
  9
$ATTDIA
 70
               0
  9
$ATTREQ
 70
               1
  9
$HANDLING
 70
               1
  9
$HANDSEED
  5
A95
  9
$SURFTAB1
 70
               6
  9
$SURFTAB2
 70
               6
  9
$SURFTYPE
 70
               6
  9
$SURFU
 70
               6
  9
$SURFV
 70
               6
  9
$FLATLAND
 70
               0
  9
$UCSNAME
  2

  9
$UCSORG
 10
0.0
 20
0.0
 30
0.0
  9
$UCSXDIR
 10
1.0
 20
0.0
 30
0.0
  9
$UCSYDIR
 10
0.0
 20
1.0
 30
0.0
  9
$USERI1
 70
               0
  9
$USERI2
 70
               0
  9
$USERI3
 70
               0
  9
$USERI4
 70
               0
  9
$USERI5
 70
               0
  9
$USERR1
 40
0.0
  9
$USERR2
 40
0.0
  9
$USERR3
 40
0.0
  9
$USERR4
 40
0.0
  9
$USERR5
 40
0.0
  9
$WORLDVIEW
 70
               1
  0
ENDSEC
  0
SECTION
  2
TABLES
  0
TABLE
  2
VPORT
 70
               1
  0
VPORT
  2
*ACTIVE
 70
               0
 10
0.0
 20
0.0
 11
1.0
 21
1.0
 12
6.5912879999999996
 22
4.5791839999999997
 13
0.0
 23
0.0
 14
1.0
 24
1.0
 15
0.0
 25
0.0
 16
0.0
 26
0.0
 36
1.0
 17
0.0
 27
0.0
 37
0.0
 40
9.1583690000000004
 41
0.688564
 42
50.0
 43
0.0
 44
0.0
 50
0.0
 51
0.0
 71
               0
 72
             100
 73
               1
 74
               1
 75
               0
 76
               0
 77
               0
 78
               0
  0
ENDTAB
  0
TABLE
  2
LTYPE
 70
              11
  0
LTYPE
  2
CONTINUOUS
 70
              64
  3
Solid line
 72
              65
 73
               0
 40
0.0
  0
LTYPE
  2
DOT
 70
              64
  3

 72
              65
 73
               2
 40
1.0
 49
0.0
 49
-1.0
  0
LTYPE
  2
DASHEDX2
 70
              64
  3

 72
              65
 73
               2
 40
4.0
 49
3.0
 49
-1.0
  0
LTYPE
  2
DASHED
 70
              64
  3

 72
              65
 73
               2
 40
3.0
 49
2.0
 49
-1.0
  0
LTYPE
  2
DASHED2
 70
              64
  3

 72
              65
 73
               2
 40
2.0
 49
1.0
 49
-1.0
  0
LTYPE
  2
CENTERX2
 70
              64
  3

 72
              65
 73
               4
 40
43.0
 49
40.0
 49
-1.0
 49
1.0
 49
-1.0
  0
LTYPE
  2
CENTER
 70
              64
  3

 72
              65
 73
               4
 40
33.0
 49
30.0
 49
-1.0
 49
1.0
 49
-1.0
  0
LTYPE
  2
CENTER2
 70
              64
  3

 72
              65
 73
               4
 40
23.0
 49
20.0
 49
-1.0
 49
1.0
 49
-1.0
  0
LTYPE
  2
PHANTOMX2
 70
              64
  3

 72
              65
 73
               6
 40
45.0
 49
40.0
 49
-1.0
 49
1.0
 49
-1.0
 49
1.0
 49
-1.0
  0
LTYPE
  2
PHANTOM
 70
              64
  3

 72
              65
 73
               6
 40
35.0
 49
30.0
 49
-1.0
 49
1.0
 49
-1.0
 49
1.0
 49
-1.0
  0
LTYPE
  2
PHANTOM2
 70
              64
  3

 72
              65
 73
               6
 40
25.0
 49
20.0
 49
-1.0
 49
1.0
 49
-1.0
 49
1.0
 49
-1.0
  0
ENDTAB
  0
TABLE
  2
LAYER
 70
              18
  0
LAYER
  2
0
 70
               0
 62
               7
  6
CONTINUOUS
  0
LAYER
  2
DEFPOINTS
 70
               0
 62
               7
  6
CONTINUOUS
  0
LAYER
  2
____1
 70
               0
 62
               7
  6
DASHED2
  0
LAYER
  2
______
 70
               0
 62
               7
  6
CONTINUOUS
  0
LAYER
  2
補助線_1
 70
               0
 62
               7
  6
CONTINUOUS
  0
LAYER
  2
UNASSIGNED
 70
               0
 62
               7
  6
CONTINUOUS
  0
LAYER
  2
____
 70
               0
 62
               7
  6
DOT
  0
LAYER
  2
___G
 70
               0
 62
               7
  6
DOT
  0
LAYER
  2
CONSTRUCTION
 70
               0
 62
               7
  6
CONTINUOUS
  0
LAYER
  2
DIMENSION
 70
               0
 62
               7
  6
CONTINUOUS
  0
LAYER
  2
FORMAT
 70
               0
 62
               7
  6
CONTINUOUS
  0
LAYER
  2
0_1
 70
               0
 62
               7
  6
CONTINUOUS
  0
LAYER
  2
2
 70
               0
 62
               7
  6
CONTINUOUS
  0
LAYER
  2
3
 70
               0
 62
               7
  6
CONTINUOUS
  0
LAYER
  2
1
 70
               0
 62
               7
  6
CONTINUOUS
  0
LAYER
  2
____2
 70
               0
 62
               5
  6
CONTINUOUS
  0
LAYER
  2
DEFPOINTS_1
 70
               0
 62
               5
  6
CONTINUOUS
  0
LAYER
  2
___C_____1
 70
               0
 62
               7
  6
CONTINUOUS
  0
ENDTAB
  0
TABLE
  2
STYLE
 70
               2
  0
STYLE
  2
STANDARD
 70
               0
 40
0.0
 41
1.0
 50
0.0
 71
               0
 42
0.35
  3
txt
  4

  0
STYLE
  2
STYLE1
 70
               0
 40
0.0
 41
1.0
 50
0.0
 71
               0
 42
0.35
  3
ＭＳ ゴシック
  4

  0
ENDTAB
  0
TABLE
  2
VIEW
 70
               0
  0
ENDTAB
  0
TABLE
  2
UCS
 70
               0
  0
ENDTAB
  0
ENDSEC
  0
SECTION
  2
BLOCKS
  0
BLOCK
  8
0
  2
*D0
 70
              65
 10
0.0
 20
0.0
  0
LINE
  8
____1
  6
CONTINUOUS
 62
               7
 10
15195.357223352994
 20
8458.9757233844994
 30
0.0
 11
15195.357223352994
 21
8726.7656147419766
 31
0.0
  0
LINE
  8
____1
  6
CONTINUOUS
 62
               7
 10
14495.357223352994
 20
8458.9757233844957
 30
0.0
 11
14495.357223352994
 21
8726.7656147419766
 31
0.0
  0
SOLID
  8
____1
  6
CONTINUOUS
 62
               7
 10
14515.357223352994
 20
8714.7656147419766
 30
0.0
 11
14515.357223352994
 21
8714.7656147419766
 31
0.0
 12
14495.357223352994
 22
8718.7656147419766
 32
0.0
 13
14510.357223352994
 23
8718.7656147419766
 33
0.0
  0
SOLID
  8
____1
  6
CONTINUOUS
 62
               7
 10
14495.357223352994
 20
8718.7656147419766
 30
0.0
 11
14510.357223352994
 21
8718.7656147419766
 31
0.0
 12
14515.357223352994
 22
8722.7656147419766
 32
0.0
 13
14515.357223352994
 23
8722.7656147419766
 33
0.0
  0
LINE
  8
____1
  6
CONTINUOUS
 62
               7
 10
14495.357223352994
 20
8718.7656147419766
 30
0.0
 11
14845.357223352994
 21
8718.7656147419766
 31
0.0
  0
SOLID
  8
____1
  6
CONTINUOUS
 62
               7
 10
15175.357223352994
 20
8714.7656147419766
 30
0.0
 11
15175.357223352994
 21
8714.7656147419766
 31
0.0
 12
15180.357223352994
 22
8718.7656147419766
 32
0.0
 13
15195.357223352994
 23
8718.7656147419766
 33
0.0
  0
SOLID
  8
____1
  6
CONTINUOUS
 62
               7
 10
15180.357223352994
 20
8718.7656147419766
 30
0.0
 11
15195.357223352994
 21
8718.7656147419766
 31
0.0
 12
15175.357223352994
 22
8722.7656147419766
 32
0.0
 13
15175.357223352994
 23
8722.7656147419766
 33
0.0
  0
LINE
  8
____1
  6
CONTINUOUS
 62
               7
 10
15195.357223352994
 20
8718.7656147419766
 30
0.0
 11
14845.357223352994
 21
8718.7656147419766
 31
0.0
  0
TEXT
  8
______
  6
DOT
 62
               7
 10
14824.19055732211
 20
8726.8813553590935
 30
0.0
 40
28.222221374511719
  1
700
  7
STYLE1
  0
ENDBLK
  8
0
  0
BLOCK
  8
0
  2
C0
 70
               0
 10
0.0
 20
0.0
  0
CIRCLE
  8
____1
  6
CONTINUOUS
 62
               7
 10
15375.646410448175
 20
7665.2627215259927
 30
0.0
 40
28.0
  0
TEXT
  8
______
  6
CENTER2
 62
               7
 10
15368.590855104547
 20
7655.2673514558528
 30
0.0
 40
28.222221374511719
  1
6
  7
STYLE1
  0
LINE
  8
______
  6
CONTINUOUS
 62
               7
 10
15328.979743781509
 20
7665.2627215259927
 30
0.0
 11
15347.646410448175
 21
7665.2627215259927
 31
0.0
  0
LINE
  8
______
  6
CONTINUOUS
 62
               7
 10
14940.357058272575
 20
8080.9757233844975
 30
0.0
 11
15328.979743781509
 21
7665.2627215259927
 31
0.0
  0
SOLID
  8
______
 62
               7
 10
14940.357058272575
 20
8080.9757233844975
 30
0.0
 11
14944.359273496346
 21
8073.7658500636526
 31
0.0
 12
14940.357058272575
 22
8080.9757233844975
 32
0.0
 13
14944.454481957739
 23
8076.5926743151549
 33
0.0
  0
SOLID
  8
______
 62
               7
 10
14944.454481957739
 20
8076.5926743151549
 30
0.0
 11
14947.281306209239
 21
8076.4974658537622
 31
0.0
 12
14940.357058272575
 22
8080.9757233844975
 32
0.0
 13
14940.357058272575
 23
8080.9757233844975
 33
0.0
  0
ENDBLK
  8
0
  0
BLOCK
  8
0
  2
C1
 70
              64
 10
0.0
 20
0.0
  0
LINE
  8
____1
  6
DASHED2
 62
               7
 10
16353.002767719418
 20
8475.9757233844994
 30
0.0
 11
16353.002767719418
 21
8473.9757233844994
 31
0.0
  0
LINE
  8
____1
  6
DASHED2
 62
               7
 10
16357.002767719418
 20
8475.9757233844994
 30
0.0
 11
16357.002767719418
 21
8473.9757233844994
 31
0.0
  0
LINE
  8
____1
  6
DASHED2
 62
               7
 10
16362.002767719418
 20
8475.9757233844994
 30
0.0
 11
16362.002767719418
 21
8473.9757233844994
 31
0.0
  0
LINE
  8
____1
  6
DASHED2
 62
               7
 10
16362.502767719418
 20
8475.9757233844994
 30
0.0
 11
16362.502767719418
 21
8473.9757233844994
 31
0.0
  0
LINE
  8
____1
  6
DASHED2
 62
               7
 10
16343.502767719418
 20
8475.9757233844994
 30
0.0
 11
16343.502767719418
 21
8473.9757233844994
 31
0.0
  0
LINE
  8
____1
  6
DASHED2
 62
               7
 10
16371.814361436007
 20
8477.39953290831
 30
0.0
 11
16370.159957569294
 21
8476.2757233845005
 31
0.0
  0
LINE
  8
____1
  6
DASHED2
 62
               7
 10
16374.502767719418
 20
8475.9757233844994
 30
0.0
 11
16343.502767719418
 21
8475.9757233844994
 31
0.0
  0
LINE
  8
____1
  6
DASHED2
 62
               7
 10
16374.502767719418
 20
8473.9757233844994
 30
0.0
 11
16343.502767719418
 21
8473.9757233844994
 31
0.0
  0
LINE
  8
____1
  6
DASHED2
 62
               7
 10
16353.502767719418
 20
8475.9757233844994
 30
0.0
 11
16353.502767719418
 21
8473.9757233844994
 31
0.0
  0
LINE
  8
____1
  6
DASHED2
 62
               7
 10
16356.502767719418
 20
8475.9757233844994
 30
0.0
 11
16356.502767719418
 21
8473.9757233844994
 31
0.0
  0
LINE
  8
____1
  6
DASHED2
 62
               7
 10
16368.502767719418
 20
8475.9757233844994
 30
0.0
 11
16368.502767719418
 21
8473.9757233844994
 31
0.0
  0
ARC
  8
____1
  6
DASHED2
 62
               7
 10
16374.502767719418
 20
8479.2257233844994
 30
0.0
 40
5.25
 50
-90.0
 51
-145.81237266291137
  0
ARC
  8
____1
  6
DASHED2
 62
               7
 10
16374.502767719418
 20
8479.2257233844994
 30
0.0
 40
3.25
 50
-90.0
 51
-145.81237266292797
  0
LINE
  8
____1
  6
DASHED2
 62
               7
 10
16347.502767719418
 20
8475.9757233844994
 30
0.0
 11
16347.502767719418
 21
8473.9757233844994
 31
0.0
  0
LINE
  8
____1
  6
DASHED2
 62
               7
 10
16348.002767719418
 20
8475.9757233844994
 30
0.0
 11
16348.002767719418
 21
8473.9757233844994
 31
0.0
  0
LINE
  8
____1
  6
DOT
 62
               2
 10
16382.002767719418
 20
8479.2257233844994
 30
0.0
 11
16367.002767719418
 21
8479.2257233844994
 31
0.0
  0
LINE
  8
____1
  6
DOT
 62
               2
 10
16374.502767719418
 20
8486.7257233844994
 30
0.0
 11
16374.502767719418
 21
8471.7257233844994
 31
0.0
  0
LINE
  8
____1
  6
DOT
 62
               2
 10
16350.502767719418
 20
8477.9757233844994
 30
0.0
 11
16350.502767719418
 21
8471.9757233844994
 31
0.0
  0
LINE
  8
____1
  6
DOT
 62
               2
 10
16359.502767719418
 20
8477.9757233844994
 30
0.0
 11
16359.502767719418
 21
8471.9757233844994
 31
0.0
  0
ENDBLK
  8
0
  0
BLOCK
  8
0
  2
*D3
 70
              65
 10
0.0
 20
0.0
  0
LINE
  8
____1
  6
CONTINUOUS
 62
               7
 10
15149.357223352994
 20
7922.4757233844994
 30
0.0
 11
15455.042680642606
 21
7922.4757233844994
 31
0.0
  0
LINE
  8
____1
  6
CONTINUOUS
 62
               7
 10
15149.357223352994
 20
8522.4757233844975
 30
0.0
 11
15455.042680642606
 21
8522.4757233844975
 31
0.0
  0
SOLID
  8
____1
  6
CONTINUOUS
 62
               7
 10
15443.042680642606
 20
8502.4757233844975
 30
0.0
 11
15443.042680642606
 21
8502.4757233844975
 31
0.0
 12
15444.042680642606
 22
8507.4757233844975
 32
0.0
 13
15447.042680642606
 23
8507.4757233844975
 33
0.0
  0
SOLID
  8
____1
  6
CONTINUOUS
 62
               7
 10
15451.042680642606
 20
8502.4757233844975
 30
0.0
 11
15451.042680642606
 21
8502.4757233844975
 31
0.0
 12
15447.042680642606
 22
8507.4757233844975
 32
0.0
 13
15450.042680642606
 23
8507.4757233844975
 33
0.0
  0
SOLID
  8
____1
  6
CONTINUOUS
 62
               7
 10
15444.042680642606
 20
8507.4757233844975
 30
0.0
 11
15450.042680642606
 21
8507.4757233844975
 31
0.0
 12
15447.042680642606
 22
8522.4757233844975
 32
0.0
 13
15447.042680642606
 23
8522.4757233844975
 33
0.0
  0
LINE
  8
____1
  6
CONTINUOUS
 62
               7
 10
15447.042680642606
 20
8522.4757233844975
 30
0.0
 11
15447.042680642606
 21
8215.9757233844957
 31
0.0
  0
SOLID
  8
____1
  6
CONTINUOUS
 62
               7
 10
15447.042680642606
 20
7922.4757233844994
 30
0.0
 11
15447.042680642606
 21
7922.4757233844994
 31
0.0
 12
15444.042680642606
 22
7937.4757233844994
 32
0.0
 13
15450.042680642606
 23
7937.4757233844994
 33
0.0
  0
SOLID
  8
____1
  6
CONTINUOUS
 62
               7
 10
15444.042680642606
 20
7937.4757233844994
 30
0.0
 11
15447.042680642606
 21
7937.4757233844994
 31
0.0
 12
15443.042680642606
 22
7942.4757233844994
 32
0.0
 13
15443.042680642606
 23
7942.4757233844994
 33
0.0
  0
SOLID
  8
____1
  6
CONTINUOUS
 62
               7
 10
15447.042680642606
 20
7937.4757233844994
 30
0.0
 11
15450.042680642606
 21
7937.4757233844994
 31
0.0
 12
15451.042680642606
 22
7942.4757233844994
 32
0.0
 13
15451.042680642606
 23
7942.4757233844994
 33
0.0
  0
LINE
  8
____1
  6
CONTINUOUS
 62
               7
 10
15447.042680642606
 20
7922.4757233844994
 30
0.0
 11
15447.042680642606
 21
8215.9757233844957
 31
0.0
  0
TEXT
  8
______
  6
DOT
 62
               7
 10
15438.926940025489
 20
8194.8090573536119
 30
0.0
 40
28.222221374511719
  1
600
 50
90.0
  7
STYLE1
  0
ENDBLK
  8
0
  0
BLOCK
  8
0
  2
*D4
 70
              65
 10
0.0
 20
0.0
  0
LINE
  8
____1
  6
CONTINUOUS
 62
               7
 10
15295.357223352994
 20
7768.4757233845012
 30
0.0
 11
15295.357223352994
 21
7580.9636768171331
 31
0.0
  0
LINE
  8
____1
  6
CONTINUOUS
 62
               7
 10
14395.357223352994
 20
7768.4757233845012
 30
0.0
 11
14395.357223352994
 21
7580.9636768171331
 31
0.0
  0
SOLID
  8
____1
  6
CONTINUOUS
 62
               7
 10
14415.357223352994
 20
7584.9636768171331
 30
0.0
 11
14415.357223352994
 21
7584.9636768171331
 31
0.0
 12
14395.357223352994
 22
7588.9636768171331
 32
0.0
 13
14410.357223352994
 23
7588.9636768171331
 33
0.0
  0
SOLID
  8
____1
  6
CONTINUOUS
 62
               7
 10
14395.357223352994
 20
7588.9636768171331
 30
0.0
 11
14410.357223352994
 21
7588.9636768171331
 31
0.0
 12
14415.357223352994
 22
7592.9636768171331
 32
0.0
 13
14415.357223352994
 23
7592.9636768171331
 33
0.0
  0
LINE
  8
____1
  6
CONTINUOUS
 62
               7
 10
14395.357223352994
 20
7588.9636768171331
 30
0.0
 11
14845.357223352994
 21
7588.9636768171331
 31
0.0
  0
SOLID
  8
____1
  6
CONTINUOUS
 62
               7
 10
15275.357223352994
 20
7584.9636768171331
 30
0.0
 11
15275.357223352994
 21
7584.9636768171331
 31
0.0
 12
15280.357223352994
 22
7588.9636768171331
 32
0.0
 13
15295.357223352994
 23
7588.9636768171331
 33
0.0
  0
SOLID
  8
____1
  6
CONTINUOUS
 62
               7
 10
15280.357223352994
 20
7588.9636768171331
 30
0.0
 11
15295.357223352994
 21
7588.9636768171331
 31
0.0
 12
15275.357223352994
 22
7592.9636768171331
 32
0.0
 13
15275.357223352994
 23
7592.9636768171331
 33
0.0
  0
LINE
  8
____1
  6
CONTINUOUS
 62
               7
 10
15295.357223352994
 20
7588.9636768171331
 30
0.0
 11
14845.357223352994
 21
7588.9636768171331
 31
0.0
  0
TEXT
  8
______
  6
DOT
 62
               7
 10
14824.19055732211
 20
7597.0794174342491
 30
0.0
 40
28.222221374511719
  1
900
  7
STYLE1
  0
ENDBLK
  8
0
  0
BLOCK
  8
0
  2
*D5
 70
              65
 10
0.0
 20
0.0
  0
LINE
  8
____1
  6
CONTINUOUS
 62
               7
 10
15095.357223352994
 20
8413.7576191768439
 30
0.0
 11
15095.357223352994
 21
8395.6240657294256
 31
0.0
  0
LINE
  8
____1
  6
CONTINUOUS
 62
               7
 10
14595.357223352994
 20
8413.7576191768439
 30
0.0
 11
14595.357223352994
 21
8395.6240657294256
 31
0.0
  0
SOLID
  8
____1
  6
CONTINUOUS
 62
               7
 10
14615.357223352994
 20
8399.6240657294256
 30
0.0
 11
14615.357223352994
 21
8399.6240657294256
 31
0.0
 12
14595.357223352994
 22
8403.6240657294256
 32
0.0
 13
14610.357223352994
 23
8403.6240657294256
 33
0.0
  0
SOLID
  8
____1
  6
CONTINUOUS
 62
               7
 10
14595.357223352994
 20
8403.6240657294256
 30
0.0
 11
14610.357223352994
 21
8403.6240657294256
 31
0.0
 12
14615.357223352994
 22
8407.6240657294256
 32
0.0
 13
14615.357223352994
 23
8407.6240657294256
 33
0.0
  0
LINE
  8
____1
  6
CONTINUOUS
 62
               7
 10
14595.357223352994
 20
8403.6240657294256
 30
0.0
 11
14845.357223352994
 21
8403.6240657294256
 31
0.0
  0
SOLID
  8
____1
  6
CONTINUOUS
 62
               7
 10
15075.357223352994
 20
8399.6240657294256
 30
0.0
 11
15075.357223352994
 21
8399.6240657294256
 31
0.0
 12
15080.357223352994
 22
8403.6240657294256
 32
0.0
 13
15095.357223352994
 23
8403.6240657294256
 33
0.0
  0
SOLID
  8
____1
  6
CONTINUOUS
 62
               7
 10
15080.357223352994
 20
8403.6240657294256
 30
0.0
 11
15095.357223352994
 21
8403.6240657294256
 31
0.0
 12
15075.357223352994
 22
8407.6240657294256
 32
0.0
 13
15075.357223352994
 23
8407.6240657294256
 33
0.0
  0
LINE
  8
____1
  6
CONTINUOUS
 62
               7
 10
15095.357223352994
 20
8403.6240657294256
 30
0.0
 11
14845.357223352994
 21
8403.6240657294256
 31
0.0
  0
TEXT
  8
______
  6
DOT
 62
               7
 10
14739.523893198575
 20
8411.7398063465425
 30
0.0
 40
28.222221374511719
  1
□500(開口寸法)
  7
STYLE1
  0
ENDBLK
  8
0
  0
BLOCK
  8
0
  2
*D6
 70
              65
 10
0.0
 20
0.0
  0
LINE
  8
____1
  6
CONTINUOUS
 62
               7
 10
15065.357223352994
 20
8588.9757233844975
 30
0.0
 11
15065.357223352994
 21
8781.3316943952595
 31
0.0
  0
LINE
  8
____1
  6
CONTINUOUS
 62
               7
 10
14625.357223352994
 20
8588.9757233844975
 30
0.0
 11
14625.357223352994
 21
8781.3316943952595
 31
0.0
  0
SOLID
  8
____1
  6
CONTINUOUS
 62
               7
 10
14645.357223352994
 20
8769.3316943952595
 30
0.0
 11
14645.357223352994
 21
8769.3316943952595
 31
0.0
 12
14625.357223352994
 22
8773.3316943952595
 32
0.0
 13
14640.357223352994
 23
8773.3316943952595
 33
0.0
  0
SOLID
  8
____1
  6
CONTINUOUS
 62
               7
 10
14625.357223352994
 20
8773.3316943952595
 30
0.0
 11
14640.357223352994
 21
8773.3316943952595
 31
0.0
 12
14645.357223352994
 22
8777.3316943952595
 32
0.0
 13
14645.357223352994
 23
8777.3316943952595
 33
0.0
  0
LINE
  8
____1
  6
CONTINUOUS
 62
               7
 10
14625.357223352994
 20
8773.3316943952595
 30
0.0
 11
14845.357223352994
 21
8773.3316943952595
 31
0.0
  0
SOLID
  8
____1
  6
CONTINUOUS
 62
               7
 10
15045.357223352994
 20
8769.3316943952595
 30
0.0
 11
15045.357223352994
 21
8769.3316943952595
 31
0.0
 12
15050.357223352994
 22
8773.3316943952595
 32
0.0
 13
15065.357223352994
 23
8773.3316943952595
 33
0.0
  0
SOLID
  8
____1
  6
CONTINUOUS
 62
               7
 10
15050.357223352994
 20
8773.3316943952595
 30
0.0
 11
15065.357223352994
 21
8773.3316943952595
 31
0.0
 12
15045.357223352994
 22
8777.3316943952595
 32
0.0
 13
15045.357223352994
 23
8777.3316943952595
 33
0.0
  0
LINE
  8
____1
  6
CONTINUOUS
 62
               7
 10
15065.357223352994
 20
8773.3316943952595
 30
0.0
 11
14845.357223352994
 21
8773.3316943952595
 31
0.0
  0
TEXT
  8
______
  6
DOT
 62
               7
 10
14824.19055732211
 20
8781.4474350123764
 30
0.0
 40
28.222221374511719
  1
440
  7
STYLE1
  0
ENDBLK
  8
0
  0
BLOCK
  8
0
  2
*D7
 70
              65
 10
0.0
 20
0.0
  0
LINE
  8
____1
  6
CONTINUOUS
 62
               7
 10
14495.357223352994
 20
8718.7656147419766
 30
0.0
 11
14395.357223352994
 21
8718.7656147419766
 31
0.0
  0
LINE
  8
____1
  6
CONTINUOUS
 62
               7
 10
14395.357223352994
 20
8676.4757233844975
 30
0.0
 11
14395.357223352994
 21
8726.7656147419766
 31
0.0
  0
LINE
  8
____1
  6
CONTINUOUS
 62
               7
 10
14495.357223352994
 20
8458.9757233844957
 30
0.0
 11
14495.357223352994
 21
8726.7656147419766
 31
0.0
  0
SOLID
  8
____1
  6
CONTINUOUS
 62
               7
 10
14515.357223352994
 20
8714.7656147419766
 30
0.0
 11
14515.357223352994
 21
8714.7656147419766
 31
0.0
 12
14495.357223352994
 22
8718.7656147419766
 32
0.0
 13
14510.357223352994
 23
8718.7656147419766
 33
0.0
  0
SOLID
  8
____1
  6
CONTINUOUS
 62
               7
 10
14495.357223352994
 20
8718.7656147419766
 30
0.0
 11
14510.357223352994
 21
8718.7656147419766
 31
0.0
 12
14515.357223352994
 22
8722.7656147419766
 32
0.0
 13
14515.357223352994
 23
8722.7656147419766
 33
0.0
  0
LINE
  8
____1
  6
CONTINUOUS
 62
               7
 10
14495.357223352994
 20
8718.7656147419766
 30
0.0
 11
14535.357223352994
 21
8718.7656147419766
 31
0.0
  0
SOLID
  8
____1
  6
CONTINUOUS
 62
               7
 10
14375.357223352994
 20
8714.7656147419766
 30
0.0
 11
14375.357223352994
 21
8714.7656147419766
 31
0.0
 12
14380.357223352994
 22
8718.7656147419766
 32
0.0
 13
14395.357223352994
 23
8718.7656147419766
 33
0.0
  0
SOLID
  8
____1
  6
CONTINUOUS
 62
               7
 10
14380.357223352994
 20
8718.7656147419766
 30
0.0
 11
14395.357223352994
 21
8718.7656147419766
 31
0.0
 12
14375.357223352994
 22
8722.7656147419766
 32
0.0
 13
14375.357223352994
 23
8722.7656147419766
 33
0.0
  0
LINE
  8
____1
  6
CONTINUOUS
 62
               7
 10
14395.357223352994
 20
8718.7656147419766
 30
0.0
 11
14355.357223352994
 21
8718.7656147419766
 31
0.0
  0
TEXT
  8
______
  6
DOT
 62
               7
 10
14424.19055732211
 20
8726.8813553590935
 30
0.0
 40
28.222221374511719
  1
100
  7
STYLE1
  0
ENDBLK
  8
0
  0
BLOCK
  8
0
  2
*D8
 70
              65
 10
0.0
 20
0.0
  0
LINE
  8
____1
  6
CONTINUOUS
 62
               7
 10
14334.420154600923
 20
8572.4757233844975
 30
0.0
 11
14334.420154600923
 21
8672.4757233844975
 31
0.0
  0
LINE
  8
____1
  6
CONTINUOUS
 62
               7
 10
14391.357223352994
 20
8672.4757233844975
 30
0.0
 11
14326.420154600923
 21
8672.4757233844975
 31
0.0
  0
LINE
  8
____1
  6
CONTINUOUS
 62
               7
 10
14608.857223352994
 20
8572.4757233844975
 30
0.0
 11
14326.420154600923
 21
8572.4757233844975
 31
0.0
  0
SOLID
  8
____1
  6
CONTINUOUS
 62
               7
 10
14330.420154600923
 20
8552.4757233844975
 30
0.0
 11
14330.420154600923
 21
8552.4757233844975
 31
0.0
 12
14331.420154600923
 22
8557.4757233844975
 32
0.0
 13
14334.420154600923
 23
8557.4757233844975
 33
0.0
  0
SOLID
  8
____1
  6
CONTINUOUS
 62
               7
 10
14338.420154600923
 20
8552.4757233844975
 30
0.0
 11
14338.420154600923
 21
8552.4757233844975
 31
0.0
 12
14334.420154600923
 22
8557.4757233844975
 32
0.0
 13
14337.420154600923
 23
8557.4757233844975
 33
0.0
  0
SOLID
  8
____1
  6
CONTINUOUS
 62
               7
 10
14331.420154600923
 20
8557.4757233844975
 30
0.0
 11
14337.420154600923
 21
8557.4757233844975
 31
0.0
 12
14334.420154600923
 22
8572.4757233844975
 32
0.0
 13
14334.420154600923
 23
8572.4757233844975
 33
0.0
  0
LINE
  8
____1
  6
CONTINUOUS
 62
               7
 10
14334.420154600923
 20
8572.4757233844975
 30
0.0
 11
14334.420154600923
 21
8532.4757233844975
 31
0.0
  0
SOLID
  8
____1
  6
CONTINUOUS
 62
               7
 10
14334.420154600923
 20
8672.4757233844975
 30
0.0
 11
14334.420154600923
 21
8672.4757233844975
 31
0.0
 12
14331.420154600923
 22
8687.4757233844975
 32
0.0
 13
14337.420154600923
 23
8687.4757233844975
 33
0.0
  0
SOLID
  8
____1
  6
CONTINUOUS
 62
               7
 10
14331.420154600923
 20
8687.4757233844975
 30
0.0
 11
14334.420154600923
 21
8687.4757233844975
 31
0.0
 12
14330.420154600923
 22
8692.4757233844975
 32
0.0
 13
14330.420154600923
 23
8692.4757233844975
 33
0.0
  0
SOLID
  8
____1
  6
CONTINUOUS
 62
               7
 10
14334.420154600923
 20
8687.4757233844975
 30
0.0
 11
14337.420154600923
 21
8687.4757233844975
 31
0.0
 12
14338.420154600923
 22
8692.4757233844975
 32
0.0
 13
14338.420154600923
 23
8692.4757233844975
 33
0.0
  0
LINE
  8
____1
  6
CONTINUOUS
 62
               7
 10
14334.420154600923
 20
8672.4757233844975
 30
0.0
 11
14334.420154600923
 21
8712.4757233844975
 31
0.0
  0
TEXT
  8
______
  6
DOT
 62
               7
 10
14326.304413983806
 20
8601.3090573536138
 30
0.0
 40
28.222221374511719
  1
100
 50
90.0
  7
STYLE1
  0
ENDBLK
  8
0
  0
BLOCK
  8
0
  2
*D9
 70
              65
 10
0.0
 20
0.0
  0
LINE
  8
____1
  6
CONTINUOUS
 62
               7
 10
14625.357223352994
 20
8588.9757233844975
 30
0.0
 11
14625.357223352994
 21
8781.3316943952595
 31
0.0
  0
LINE
  8
____1
  6
CONTINUOUS
 62
               7
 10
14395.357223352994
 20
8676.4757233844975
 30
0.0
 11
14395.357223352994
 21
8781.3316943952595
 31
0.0
  0
SOLID
  8
____1
  6
CONTINUOUS
 62
               7
 10
14415.357223352994
 20
8769.3316943952595
 30
0.0
 11
14415.357223352994
 21
8769.3316943952595
 31
0.0
 12
14395.357223352994
 22
8773.3316943952595
 32
0.0
 13
14410.357223352994
 23
8773.3316943952595
 33
0.0
  0
SOLID
  8
____1
  6
CONTINUOUS
 62
               7
 10
14395.357223352994
 20
8773.3316943952595
 30
0.0
 11
14410.357223352994
 21
8773.3316943952595
 31
0.0
 12
14415.357223352994
 22
8777.3316943952595
 32
0.0
 13
14415.357223352994
 23
8777.3316943952595
 33
0.0
  0
LINE
  8
____1
  6
CONTINUOUS
 62
               7
 10
14395.357223352994
 20
8773.3316943952595
 30
0.0
 11
14510.357223352994
 21
8773.3316943952595
 31
0.0
  0
SOLID
  8
____1
  6
CONTINUOUS
 62
               7
 10
14605.357223352994
 20
8769.3316943952595
 30
0.0
 11
14605.357223352994
 21
8769.3316943952595
 31
0.0
 12
14610.357223352994
 22
8773.3316943952595
 32
0.0
 13
14625.357223352994
 23
8773.3316943952595
 33
0.0
  0
SOLID
  8
____1
  6
CONTINUOUS
 62
               7
 10
14610.357223352994
 20
8773.3316943952595
 30
0.0
 11
14625.357223352994
 21
8773.3316943952595
 31
0.0
 12
14605.357223352994
 22
8777.3316943952595
 32
0.0
 13
14605.357223352994
 23
8777.3316943952595
 33
0.0
  0
LINE
  8
____1
  6
CONTINUOUS
 62
               7
 10
14625.357223352994
 20
8773.3316943952595
 30
0.0
 11
14510.357223352994
 21
8773.3316943952595
 31
0.0
  0
TEXT
  8
______
  6
DOT
 62
               7
 10
14489.19055732211
 20
8781.4474350123764
 30
0.0
 40
28.222221374511719
  1
230
  7
STYLE1
  0
ENDBLK
  8
0
  0
BLOCK
  8
0
  2
*D10
 70
              65
 10
0.0
 20
0.0
  0
LINE
  8
____1
  6
CONTINUOUS
 62
               7
 10
14478.857223352994
 20
8002.4757233844975
 30
0.0
 11
14244.279009307376
 21
8002.4757233844975
 31
0.0
  0
LINE
  8
____1
  6
CONTINUOUS
 62
               7
 10
14478.857223352994
 20
8442.4757233844957
 30
0.0
 11
14244.279009307376
 21
8442.4757233844957
 31
0.0
  0
SOLID
  8
____1
  6
CONTINUOUS
 62
               7
 10
14248.279009307376
 20
8422.4757233844957
 30
0.0
 11
14248.279009307376
 21
8422.4757233844957
 31
0.0
 12
14249.279009307376
 22
8427.4757233844957
 32
0.0
 13
14252.279009307376
 23
8427.4757233844957
 33
0.0
  0
SOLID
  8
____1
  6
CONTINUOUS
 62
               7
 10
14256.279009307376
 20
8422.4757233844957
 30
0.0
 11
14256.279009307376
 21
8422.4757233844957
 31
0.0
 12
14252.279009307376
 22
8427.4757233844957
 32
0.0
 13
14255.279009307376
 23
8427.4757233844957
 33
0.0
  0
SOLID
  8
____1
  6
CONTINUOUS
 62
               7
 10
14249.279009307376
 20
8427.4757233844957
 30
0.0
 11
14255.279009307376
 21
8427.4757233844957
 31
0.0
 12
14252.279009307376
 22
8442.4757233844957
 32
0.0
 13
14252.279009307376
 23
8442.4757233844957
 33
0.0
  0
LINE
  8
____1
  6
CONTINUOUS
 62
               7
 10
14252.279009307376
 20
8442.4757233844957
 30
0.0
 11
14252.279009307376
 21
8222.4757233844957
 31
0.0
  0
SOLID
  8
____1
  6
CONTINUOUS
 62
               7
 10
14252.279009307376
 20
8002.4757233844975
 30
0.0
 11
14252.279009307376
 21
8002.4757233844975
 31
0.0
 12
14249.279009307376
 22
8017.4757233844975
 32
0.0
 13
14255.279009307376
 23
8017.4757233844975
 33
0.0
  0
SOLID
  8
____1
  6
CONTINUOUS
 62
               7
 10
14249.279009307376
 20
8017.4757233844975
 30
0.0
 11
14252.279009307376
 21
8017.4757233844975
 31
0.0
 12
14248.279009307376
 22
8022.4757233844975
 32
0.0
 13
14248.279009307376
 23
8022.4757233844975
 33
0.0
  0
SOLID
  8
____1
  6
CONTINUOUS
 62
               7
 10
14252.279009307376
 20
8017.4757233844975
 30
0.0
 11
14255.279009307376
 21
8017.4757233844975
 31
0.0
 12
14256.279009307376
 22
8022.4757233844975
 32
0.0
 13
14256.279009307376
 23
8022.4757233844975
 33
0.0
  0
LINE
  8
____1
  6
CONTINUOUS
 62
               7
 10
14252.279009307376
 20
8002.4757233844975
 30
0.0
 11
14252.279009307376
 21
8222.4757233844957
 31
0.0
  0
TEXT
  8
______
  6
DOT
 62
               7
 10
14244.163268690259
 20
8201.3090573536119
 30
0.0
 40
28.222221374511719
  1
440
 50
90.0
  7
STYLE1
  0
ENDBLK
  8
0
  0
BLOCK
  8
0
  2
*D11
 70
              65
 10
0.0
 20
0.0
  0
LINE
  8
____1
  6
CONTINUOUS
 62
               7
 10
14478.857223352994
 20
8442.4757233844957
 30
0.0
 11
14244.279009307376
 21
8442.4757233844957
 31
0.0
  0
LINE
  8
____1
  6
CONTINUOUS
 62
               7
 10
14391.357223352994
 20
8672.4757233844975
 30
0.0
 11
14244.279009307376
 21
8672.4757233844975
 31
0.0
  0
SOLID
  8
____1
  6
CONTINUOUS
 62
               7
 10
14248.279009307376
 20
8652.4757233844975
 30
0.0
 11
14248.279009307376
 21
8652.4757233844975
 31
0.0
 12
14249.279009307376
 22
8657.4757233844975
 32
0.0
 13
14252.279009307376
 23
8657.4757233844975
 33
0.0
  0
SOLID
  8
____1
  6
CONTINUOUS
 62
               7
 10
14256.279009307376
 20
8652.4757233844975
 30
0.0
 11
14256.279009307376
 21
8652.4757233844975
 31
0.0
 12
14252.279009307376
 22
8657.4757233844975
 32
0.0
 13
14255.279009307376
 23
8657.4757233844975
 33
0.0
  0
SOLID
  8
____1
  6
CONTINUOUS
 62
               7
 10
14249.279009307376
 20
8657.4757233844975
 30
0.0
 11
14255.279009307376
 21
8657.4757233844975
 31
0.0
 12
14252.279009307376
 22
8672.4757233844975
 32
0.0
 13
14252.279009307376
 23
8672.4757233844975
 33
0.0
  0
LINE
  8
____1
  6
CONTINUOUS
 62
               7
 10
14252.279009307376
 20
8672.4757233844975
 30
0.0
 11
14252.279009307376
 21
8557.4757233844957
 31
0.0
  0
SOLID
  8
____1
  6
CONTINUOUS
 62
               7
 10
14252.279009307376
 20
8442.4757233844957
 30
0.0
 11
14252.279009307376
 21
8442.4757233844957
 31
0.0
 12
14249.279009307376
 22
8457.4757233844957
 32
0.0
 13
14255.279009307376
 23
8457.4757233844957
 33
0.0
  0
SOLID
  8
____1
  6
CONTINUOUS
 62
               7
 10
14249.279009307376
 20
8457.4757233844957
 30
0.0
 11
14252.279009307376
 21
8457.4757233844957
 31
0.0
 12
14248.279009307376
 22
8462.4757233844957
 32
0.0
 13
14248.279009307376
 23
8462.4757233844957
 33
0.0
  0
SOLID
  8
____1
  6
CONTINUOUS
 62
               7
 10
14252.279009307376
 20
8457.4757233844957
 30
0.0
 11
14255.279009307376
 21
8457.4757233844957
 31
0.0
 12
14256.279009307376
 22
8462.4757233844957
 32
0.0
 13
14256.279009307376
 23
8462.4757233844957
 33
0.0
  0
LINE
  8
____1
  6
CONTINUOUS
 62
               7
 10
14252.279009307376
 20
8442.4757233844957
 30
0.0
 11
14252.279009307376
 21
8557.4757233844957
 31
0.0
  0
TEXT
  8
______
  6
DOT
 62
               7
 10
14244.163268690259
 20
8536.3090573536119
 30
0.0
 40
28.222221374511719
  1
230
 50
90.0
  7
STYLE1
  0
ENDBLK
  8
0
  0
BLOCK
  8
0
  2
*D12
 70
              65
 10
0.0
 20
0.0
  0
LINE
  8
____1
  6
CONTINUOUS
 62
               7
 10
16385.002767719416
 20
7658.214346983299
 30
0.0
 11
16415.002767719416
 21
7658.214346983299
 31
0.0
  0
LINE
  8
____1
  6
CONTINUOUS
 62
               7
 10
16415.002767719416
 20
7768.4757233845012
 30
0.0
 11
16415.002767719416
 21
7650.214346983299
 31
0.0
  0
LINE
  8
____1
  6
CONTINUOUS
 62
               7
 10
16385.002767719416
 20
7918.4757233845012
 30
0.0
 11
16385.002767719416
 21
7650.214346983299
 31
0.0
  0
SOLID
  8
____1
  6
CONTINUOUS
 62
               7
 10
16365.002767719416
 20
7654.214346983299
 30
0.0
 11
16365.002767719416
 21
7654.214346983299
 31
0.0
 12
16370.002767719416
 22
7658.214346983299
 32
0.0
 13
16385.002767719416
 23
7658.214346983299
 33
0.0
  0
SOLID
  8
____1
  6
CONTINUOUS
 62
               7
 10
16370.002767719416
 20
7658.214346983299
 30
0.0
 11
16385.002767719416
 21
7658.214346983299
 31
0.0
 12
16365.002767719416
 22
7662.214346983299
 32
0.0
 13
16365.002767719416
 23
7662.214346983299
 33
0.0
  0
LINE
  8
____1
  6
CONTINUOUS
 62
               7
 10
16385.002767719416
 20
7658.214346983299
 30
0.0
 11
16345.002767719416
 21
7658.214346983299
 31
0.0
  0
SOLID
  8
____1
  6
CONTINUOUS
 62
               7
 10
16435.002767719416
 20
7654.214346983299
 30
0.0
 11
16435.002767719416
 21
7654.214346983299
 31
0.0
 12
16415.002767719416
 22
7658.214346983299
 32
0.0
 13
16430.002767719416
 23
7658.214346983299
 33
0.0
  0
SOLID
  8
____1
  6
CONTINUOUS
 62
               7
 10
16415.002767719416
 20
7658.214346983299
 30
0.0
 11
16430.002767719416
 21
7658.214346983299
 31
0.0
 12
16435.002767719416
 22
7662.214346983299
 32
0.0
 13
16435.002767719416
 23
7662.214346983299
 33
0.0
  0
LINE
  8
____1
  6
CONTINUOUS
 62
               7
 10
16415.002767719416
 20
7658.214346983299
 30
0.0
 11
16455.002767719416
 21
7658.214346983299
 31
0.0
  0
TEXT
  8
______
  6
DASHED2
 62
               7
 10
16385.89165703216
 20
7666.330087600415
 30
0.0
 40
28.222221374511719
  1
30
  7
STYLE1
  0
ENDBLK
  8
0
  0
BLOCK
  8
0
  2
*D13
 70
              65
 10
0.0
 20
0.0
  0
LINE
  8
____1
  6
CONTINUOUS
 62
               7
 10
16377.41285687329
 20
7658.2184059918109
 30
0.0
 11
16385.002767719416
 21
7658.2184059918109
 31
0.0
  0
LINE
  8
____1
  6
CONTINUOUS
 62
               7
 10
16385.002767719416
 20
7918.6242526548886
 30
0.0
 11
16385.002767719416
 21
7650.2184059918109
 31
0.0
  0
LINE
  8
____1
  6
CONTINUOUS
 62
               7
 10
16377.41285687329
 20
7943.4797823930112
 30
0.0
 11
16377.41285687329
 21
7650.2184059918109
 31
0.0
  0
SOLID
  8
____1
  6
CONTINUOUS
 62
               7
 10
16357.41285687329
 20
7654.2184059918109
 30
0.0
 11
16357.41285687329
 21
7654.2184059918109
 31
0.0
 12
16362.41285687329
 22
7658.2184059918109
 32
0.0
 13
16377.41285687329
 23
7658.2184059918109
 33
0.0
  0
SOLID
  8
____1
  6
CONTINUOUS
 62
               7
 10
16362.41285687329
 20
7658.2184059918109
 30
0.0
 11
16377.41285687329
 21
7658.2184059918109
 31
0.0
 12
16357.41285687329
 22
7662.2184059918109
 32
0.0
 13
16357.41285687329
 23
7662.2184059918109
 33
0.0
  0
LINE
  8
____1
  6
CONTINUOUS
 62
               7
 10
16377.41285687329
 20
7658.2184059918109
 30
0.0
 11
16337.41285687329
 21
7658.2184059918109
 31
0.0
  0
SOLID
  8
____1
  6
CONTINUOUS
 62
               7
 10
16405.002767719416
 20
7654.2184059918109
 30
0.0
 11
16405.002767719416
 21
7654.2184059918109
 31
0.0
 12
16385.002767719416
 22
7658.2184059918109
 32
0.0
 13
16400.002767719416
 23
7658.2184059918109
 33
0.0
  0
SOLID
  8
____1
  6
CONTINUOUS
 62
               7
 10
16385.002767719416
 20
7658.2184059918109
 30
0.0
 11
16400.002767719416
 21
7658.2184059918109
 31
0.0
 12
16405.002767719416
 22
7662.2184059918109
 32
0.0
 13
16405.002767719416
 23
7662.2184059918109
 33
0.0
  0
LINE
  8
____1
  6
CONTINUOUS
 62
               7
 10
16385.002767719416
 20
7658.2184059918109
 30
0.0
 11
16425.002767719416
 21
7658.2184059918109
 31
0.0
  0
ENDBLK
  8
0
  0
BLOCK
  8
0
  2
*D14
 70
              65
 10
0.0
 20
0.0
  0
LINE
  8
____1
  6
CONTINUOUS
 62
               7
 10
16377.412916150257
 20
7943.4424241766565
 30
0.0
 11
16377.412916150257
 21
7650.1794499113421
 31
0.0
  0
LINE
  8
____1
  6
CONTINUOUS
 62
               7
 10
16331.932438348082
 20
7941.870260522719
 30
0.0
 11
16331.932438348082
 21
7650.1794499113421
 31
0.0
  0
SOLID
  8
____1
  6
CONTINUOUS
 62
               7
 10
16351.932438348082
 20
7654.1794499113421
 30
0.0
 11
16351.932438348082
 21
7654.1794499113421
 31
0.0
 12
16331.932438348082
 22
7658.1794499113421
 32
0.0
 13
16346.932438348082
 23
7658.1794499113421
 33
0.0
  0
SOLID
  8
____1
  6
CONTINUOUS
 62
               7
 10
16331.932438348082
 20
7658.1794499113421
 30
0.0
 11
16346.932438348082
 21
7658.1794499113421
 31
0.0
 12
16351.932438348082
 22
7662.1794499113421
 32
0.0
 13
16351.932438348082
 23
7662.1794499113421
 33
0.0
  0
LINE
  8
____1
  6
CONTINUOUS
 62
               7
 10
16331.932438348082
 20
7658.1794499113421
 30
0.0
 11
16377.412916150257
 21
7658.1794499113421
 31
0.0
  0
SOLID
  8
____1
  6
CONTINUOUS
 62
               7
 10
16357.412916150257
 20
7654.1794499113421
 30
0.0
 11
16357.412916150257
 21
7654.1794499113421
 31
0.0
 12
16362.412916150257
 22
7658.1794499113421
 32
0.0
 13
16377.412916150257
 23
7658.1794499113421
 33
0.0
  0
SOLID
  8
____1
  6
CONTINUOUS
 62
               7
 10
16362.412916150257
 20
7658.1794499113421
 30
0.0
 11
16377.412916150257
 21
7658.1794499113421
 31
0.0
 12
16357.412916150257
 22
7662.1794499113421
 32
0.0
 13
16357.412916150257
 23
7662.1794499113421
 33
0.0
  0
LINE
  8
____1
  6
CONTINUOUS
 62
               7
 10
16377.412916150257
 20
7658.1794499113421
 30
0.0
 11
16240.295246494499
 21
7658.1794499113421
 31
0.0
  0
TEXT
  8
______
  6
DASHED2
 62
               7
 10
16254.406357181755
 20
7666.2951905284581
 30
0.0
 40
28.222221374511719
  1
45.48
  7
STYLE1
  0
ENDBLK
  8
0
  0
BLOCK
  8
0
  2
*D15
 70
              65
 10
0.0
 20
0.0
  0
LINE
  8
____1
  6
CONTINUOUS
 62
               7
 10
15299.357223352994
 20
7772.4757233845012
 30
0.0
 11
15526.157719705103
 21
7772.4757233845012
 31
0.0
  0
LINE
  8
____1
  6
CONTINUOUS
 62
               7
 10
15299.357223352994
 20
8672.4757233844975
 30
0.0
 11
15526.157719705103
 21
8672.4757233844975
 31
0.0
  0
SOLID
  8
____1
  6
CONTINUOUS
 62
               7
 10
15514.157719705103
 20
8652.4757233844975
 30
0.0
 11
15514.157719705103
 21
8652.4757233844975
 31
0.0
 12
15515.157719705103
 22
8657.4757233844975
 32
0.0
 13
15518.157719705103
 23
8657.4757233844975
 33
0.0
  0
SOLID
  8
____1
  6
CONTINUOUS
 62
               7
 10
15522.157719705103
 20
8652.4757233844975
 30
0.0
 11
15522.157719705103
 21
8652.4757233844975
 31
0.0
 12
15518.157719705103
 22
8657.4757233844975
 32
0.0
 13
15521.157719705103
 23
8657.4757233844975
 33
0.0
  0
SOLID
  8
____1
  6
CONTINUOUS
 62
               7
 10
15515.157719705103
 20
8657.4757233844975
 30
0.0
 11
15521.157719705103
 21
8657.4757233844975
 31
0.0
 12
15518.157719705103
 22
8672.4757233844975
 32
0.0
 13
15518.157719705103
 23
8672.4757233844975
 33
0.0
  0
LINE
  8
____1
  6
CONTINUOUS
 62
               7
 10
15518.157719705103
 20
8672.4757233844975
 30
0.0
 11
15518.157719705103
 21
8215.9757233844957
 31
0.0
  0
SOLID
  8
____1
  6
CONTINUOUS
 62
               7
 10
15518.157719705103
 20
7772.4757233845012
 30
0.0
 11
15518.157719705103
 21
7772.4757233845012
 31
0.0
 12
15515.157719705103
 22
7787.4757233845012
 32
0.0
 13
15521.157719705103
 23
7787.4757233845012
 33
0.0
  0
SOLID
  8
____1
  6
CONTINUOUS
 62
               7
 10
15515.157719705103
 20
7787.4757233845012
 30
0.0
 11
15518.157719705103
 21
7787.4757233845012
 31
0.0
 12
15514.157719705103
 22
7792.4757233845012
 32
0.0
 13
15514.157719705103
 23
7792.4757233845012
 33
0.0
  0
SOLID
  8
____1
  6
CONTINUOUS
 62
               7
 10
15518.157719705103
 20
7787.4757233845012
 30
0.0
 11
15521.157719705103
 21
7787.4757233845012
 31
0.0
 12
15522.157719705103
 22
7792.4757233845012
 32
0.0
 13
15522.157719705103
 23
7792.4757233845012
 33
0.0
  0
LINE
  8
____1
  6
CONTINUOUS
 62
               7
 10
15518.157719705103
 20
7772.4757233845012
 30
0.0
 11
15518.157719705103
 21
8215.9757233844957
 31
0.0
  0
TEXT
  8
______
  6
DOT
 62
               7
 10
15510.041979087986
 20
8194.8090573536119
 30
0.0
 40
28.222221374511719
  1
900
 50
90.0
  7
STYLE1
  0
ENDBLK
  8
0
  0
BLOCK
  8
0
  2
*D16
 70
              65
 10
0.0
 20
0.0
  0
LINE
  8
____1
  6
CONTINUOUS
 62
               7
 10
15145.357223352994
 20
7918.4757233844994
 30
0.0
 11
15145.357223352994
 21
7645.5220101504674
 31
0.0
  0
LINE
  8
____1
  6
CONTINUOUS
 62
               7
 10
14545.357223352994
 20
7918.4757233844975
 30
0.0
 11
14545.357223352994
 21
7645.5220101504674
 31
0.0
  0
SOLID
  8
____1
  6
CONTINUOUS
 62
               7
 10
14565.357223352994
 20
7649.5220101504674
 30
0.0
 11
14565.357223352994
 21
7649.5220101504674
 31
0.0
 12
14545.357223352994
 22
7653.5220101504674
 32
0.0
 13
14560.357223352994
 23
7653.5220101504674
 33
0.0
  0
SOLID
  8
____1
  6
CONTINUOUS
 62
               7
 10
14545.357223352994
 20
7653.5220101504674
 30
0.0
 11
14560.357223352994
 21
7653.5220101504674
 31
0.0
 12
14565.357223352994
 22
7657.5220101504674
 32
0.0
 13
14565.357223352994
 23
7657.5220101504674
 33
0.0
  0
LINE
  8
____1
  6
CONTINUOUS
 62
               7
 10
14545.357223352994
 20
7653.5220101504674
 30
0.0
 11
14845.357223352994
 21
7653.5220101504674
 31
0.0
  0
SOLID
  8
____1
  6
CONTINUOUS
 62
               7
 10
15125.357223352994
 20
7649.5220101504674
 30
0.0
 11
15125.357223352994
 21
7649.5220101504674
 31
0.0
 12
15130.357223352994
 22
7653.5220101504674
 32
0.0
 13
15145.357223352994
 23
7653.5220101504674
 33
0.0
  0
SOLID
  8
____1
  6
CONTINUOUS
 62
               7
 10
15130.357223352994
 20
7653.5220101504674
 30
0.0
 11
15145.357223352994
 21
7653.5220101504674
 31
0.0
 12
15125.357223352994
 22
7657.5220101504674
 32
0.0
 13
15125.357223352994
 23
7657.5220101504674
 33
0.0
  0
LINE
  8
____1
  6
CONTINUOUS
 62
               7
 10
15145.357223352994
 20
7653.5220101504674
 30
0.0
 11
14845.357223352994
 21
7653.5220101504674
 31
0.0
  0
TEXT
  8
______
  6
DOT
 62
               7
 10
14824.19055732211
 20
7661.6377507675834
 30
0.0
 40
28.222221374511719
  1
600
  7
STYLE1
  0
ENDBLK
  8
0
  0
BLOCK
  8
0
  2
*D17
 70
              65
 10
0.0
 20
0.0
  0
LINE
  8
____1
  6
CONTINUOUS
 62
               7
 10
15115.357058272579
 20
7941.9757233844939
 30
0.0
 11
15115.357058272579
 21
7706.3291512637443
 31
0.0
  0
LINE
  8
____1
  6
CONTINUOUS
 62
               7
 10
14575.357058272579
 20
7941.9757233844939
 30
0.0
 11
14575.357058272579
 21
7706.3291512637443
 31
0.0
  0
SOLID
  8
____1
  6
CONTINUOUS
 62
               7
 10
14595.357058272579
 20
7710.3291512637443
 30
0.0
 11
14595.357058272579
 21
7710.3291512637443
 31
0.0
 12
14575.357058272579
 22
7714.3291512637443
 32
0.0
 13
14590.357058272579
 23
7714.3291512637443
 33
0.0
  0
SOLID
  8
____1
  6
CONTINUOUS
 62
               7
 10
14575.357058272579
 20
7714.3291512637443
 30
0.0
 11
14590.357058272579
 21
7714.3291512637443
 31
0.0
 12
14595.357058272579
 22
7718.3291512637443
 32
0.0
 13
14595.357058272579
 23
7718.3291512637443
 33
0.0
  0
LINE
  8
____1
  6
CONTINUOUS
 62
               7
 10
14575.357058272579
 20
7714.3291512637443
 30
0.0
 11
14845.357223352994
 21
7714.3291512637443
 31
0.0
  0
SOLID
  8
____1
  6
CONTINUOUS
 62
               7
 10
15095.357058272579
 20
7710.3291512637443
 30
0.0
 11
15095.357058272579
 21
7710.3291512637443
 31
0.0
 12
15100.357058272579
 22
7714.3291512637443
 32
0.0
 13
15115.357058272579
 23
7714.3291512637443
 33
0.0
  0
SOLID
  8
____1
  6
CONTINUOUS
 62
               7
 10
15100.357058272579
 20
7714.3291512637443
 30
0.0
 11
15115.357058272579
 21
7714.3291512637443
 31
0.0
 12
15095.357058272579
 22
7718.3291512637443
 32
0.0
 13
15095.357058272579
 23
7718.3291512637443
 33
0.0
  0
LINE
  8
____1
  6
CONTINUOUS
 62
               7
 10
15115.357058272579
 20
7714.3291512637443
 30
0.0
 11
14845.357223352994
 21
7714.3291512637443
 31
0.0
  0
TEXT
  8
______
  6
DOT
 62
               7
 10
14824.19055732211
 20
7722.4448918808603
 30
0.0
 40
28.222221374511719
  1
540
  7
STYLE1
  0
ENDBLK
  8
0
  0
BLOCK
  8
0
  2
*D18
 70
              65
 10
0.0
 20
0.0
  0
LINE
  8
____1
  6
CONTINUOUS
 62
               7
 10
14391.357223352994
 20
7772.4757233845012
 30
0.0
 11
14244.279009307376
 21
7772.4757233845012
 31
0.0
  0
LINE
  8
____1
  6
CONTINUOUS
 62
               7
 10
14478.857223352994
 20
8002.4757233844975
 30
0.0
 11
14244.279009307376
 21
8002.4757233844975
 31
0.0
  0
SOLID
  8
____1
  6
CONTINUOUS
 62
               7
 10
14248.279009307376
 20
7982.4757233844975
 30
0.0
 11
14248.279009307376
 21
7982.4757233844975
 31
0.0
 12
14249.279009307376
 22
7987.4757233844975
 32
0.0
 13
14252.279009307376
 23
7987.4757233844975
 33
0.0
  0
SOLID
  8
____1
  6
CONTINUOUS
 62
               7
 10
14256.279009307376
 20
7982.4757233844975
 30
0.0
 11
14256.279009307376
 21
7982.4757233844975
 31
0.0
 12
14252.279009307376
 22
7987.4757233844975
 32
0.0
 13
14255.279009307376
 23
7987.4757233844975
 33
0.0
  0
SOLID
  8
____1
  6
CONTINUOUS
 62
               7
 10
14249.279009307376
 20
7987.4757233844975
 30
0.0
 11
14255.279009307376
 21
7987.4757233844975
 31
0.0
 12
14252.279009307376
 22
8002.4757233844975
 32
0.0
 13
14252.279009307376
 23
8002.4757233844975
 33
0.0
  0
LINE
  8
____1
  6
CONTINUOUS
 62
               7
 10
14252.279009307376
 20
8002.4757233844975
 30
0.0
 11
14252.279009307376
 21
7887.4757233844975
 31
0.0
  0
SOLID
  8
____1
  6
CONTINUOUS
 62
               7
 10
14252.279009307376
 20
7772.4757233845012
 30
0.0
 11
14252.279009307376
 21
7772.4757233845012
 31
0.0
 12
14249.279009307376
 22
7787.4757233845012
 32
0.0
 13
14255.279009307376
 23
7787.4757233845012
 33
0.0
  0
SOLID
  8
____1
  6
CONTINUOUS
 62
               7
 10
14249.279009307376
 20
7787.4757233845012
 30
0.0
 11
14252.279009307376
 21
7787.4757233845012
 31
0.0
 12
14248.279009307376
 22
7792.4757233845012
 32
0.0
 13
14248.279009307376
 23
7792.4757233845012
 33
0.0
  0
SOLID
  8
____1
  6
CONTINUOUS
 62
               7
 10
14252.279009307376
 20
7787.4757233845012
 30
0.0
 11
14255.279009307376
 21
7787.4757233845012
 31
0.0
 12
14256.279009307376
 22
7792.4757233845012
 32
0.0
 13
14256.279009307376
 23
7792.4757233845012
 33
0.0
  0
LINE
  8
____1
  6
CONTINUOUS
 62
               7
 10
14252.279009307376
 20
7772.4757233845012
 30
0.0
 11
14252.279009307376
 21
7887.4757233844975
 31
0.0
  0
TEXT
  8
______
  6
DOT
 62
               7
 10
14244.163268690259
 20
7866.3090573536138
 30
0.0
 40
28.222221374511719
  1
230
 50
90.0
  7
STYLE1
  0
ENDBLK
  8
0
  0
BLOCK
  8
0
  2
*D19
 70
              65
 10
0.0
 20
0.0
  0
LINE
  8
____1
  6
CONTINUOUS
 62
               7
 10
14608.857223352994
 20
7872.4757233844994
 30
0.0
 11
14326.420154600923
 21
7872.4757233844994
 31
0.0
  0
LINE
  8
____1
  6
CONTINUOUS
 62
               7
 10
14608.857223352994
 20
8572.4757233844975
 30
0.0
 11
14326.420154600923
 21
8572.4757233844975
 31
0.0
  0
SOLID
  8
____1
  6
CONTINUOUS
 62
               7
 10
14330.420154600923
 20
8552.4757233844975
 30
0.0
 11
14330.420154600923
 21
8552.4757233844975
 31
0.0
 12
14331.420154600923
 22
8557.4757233844975
 32
0.0
 13
14334.420154600923
 23
8557.4757233844975
 33
0.0
  0
SOLID
  8
____1
  6
CONTINUOUS
 62
               7
 10
14338.420154600923
 20
8552.4757233844975
 30
0.0
 11
14338.420154600923
 21
8552.4757233844975
 31
0.0
 12
14334.420154600923
 22
8557.4757233844975
 32
0.0
 13
14337.420154600923
 23
8557.4757233844975
 33
0.0
  0
SOLID
  8
____1
  6
CONTINUOUS
 62
               7
 10
14331.420154600923
 20
8557.4757233844975
 30
0.0
 11
14337.420154600923
 21
8557.4757233844975
 31
0.0
 12
14334.420154600923
 22
8572.4757233844975
 32
0.0
 13
14334.420154600923
 23
8572.4757233844975
 33
0.0
  0
LINE
  8
____1
  6
CONTINUOUS
 62
               7
 10
14334.420154600923
 20
8572.4757233844975
 30
0.0
 11
14334.420154600923
 21
8222.4757233844994
 31
0.0
  0
SOLID
  8
____1
  6
CONTINUOUS
 62
               7
 10
14334.420154600923
 20
7872.4757233844994
 30
0.0
 11
14334.420154600923
 21
7872.4757233844994
 31
0.0
 12
14331.420154600923
 22
7887.4757233844994
 32
0.0
 13
14337.420154600923
 23
7887.4757233844994
 33
0.0
  0
SOLID
  8
____1
  6
CONTINUOUS
 62
               7
 10
14331.420154600923
 20
7887.4757233844994
 30
0.0
 11
14334.420154600923
 21
7887.4757233844994
 31
0.0
 12
14330.420154600923
 22
7892.4757233844994
 32
0.0
 13
14330.420154600923
 23
7892.4757233844994
 33
0.0
  0
SOLID
  8
____1
  6
CONTINUOUS
 62
               7
 10
14334.420154600923
 20
7887.4757233844994
 30
0.0
 11
14337.420154600923
 21
7887.4757233844994
 31
0.0
 12
14338.420154600923
 22
7892.4757233844994
 32
0.0
 13
14338.420154600923
 23
7892.4757233844994
 33
0.0
  0
LINE
  8
____1
  6
CONTINUOUS
 62
               7
 10
14334.420154600923
 20
7872.4757233844994
 30
0.0
 11
14334.420154600923
 21
8222.4757233844994
 31
0.0
  0
TEXT
  8
______
  6
DOT
 62
               7
 10
14326.304413983806
 20
8201.3090573536156
 30
0.0
 40
28.222221374511719
  1
700
 50
90.0
  7
STYLE1
  0
ENDBLK
  8
0
  0
BLOCK
  8
0
  2
*D20
 70
              65
 10
0.0
 20
0.0
  0
LINE
  8
____1
  6
CONTINUOUS
 62
               7
 10
14334.420154600923
 20
7872.4757233844994
 30
0.0
 11
14334.420154600923
 21
7772.4757233845012
 31
0.0
  0
LINE
  8
____1
  6
CONTINUOUS
 62
               7
 10
14391.357223352994
 20
7772.4757233845012
 30
0.0
 11
14326.420154600923
 21
7772.4757233845012
 31
0.0
  0
LINE
  8
____1
  6
CONTINUOUS
 62
               7
 10
14608.857223352994
 20
7872.4757233844994
 30
0.0
 11
14326.420154600923
 21
7872.4757233844994
 31
0.0
  0
SOLID
  8
____1
  6
CONTINUOUS
 62
               7
 10
14334.420154600923
 20
7872.4757233844994
 30
0.0
 11
14334.420154600923
 21
7872.4757233844994
 31
0.0
 12
14331.420154600923
 22
7887.4757233844994
 32
0.0
 13
14337.420154600923
 23
7887.4757233844994
 33
0.0
  0
SOLID
  8
____1
  6
CONTINUOUS
 62
               7
 10
14331.420154600923
 20
7887.4757233844994
 30
0.0
 11
14334.420154600923
 21
7887.4757233844994
 31
0.0
 12
14330.420154600923
 22
7892.4757233844994
 32
0.0
 13
14330.420154600923
 23
7892.4757233844994
 33
0.0
  0
SOLID
  8
____1
  6
CONTINUOUS
 62
               7
 10
14334.420154600923
 20
7887.4757233844994
 30
0.0
 11
14337.420154600923
 21
7887.4757233844994
 31
0.0
 12
14338.420154600923
 22
7892.4757233844994
 32
0.0
 13
14338.420154600923
 23
7892.4757233844994
 33
0.0
  0
LINE
  8
____1
  6
CONTINUOUS
 62
               7
 10
14334.420154600923
 20
7872.4757233844994
 30
0.0
 11
14334.420154600923
 21
7912.4757233844994
 31
0.0
  0
SOLID
  8
____1
  6
CONTINUOUS
 62
               7
 10
14330.420154600923
 20
7752.4757233845012
 30
0.0
 11
14330.420154600923
 21
7752.4757233845012
 31
0.0
 12
14331.420154600923
 22
7757.4757233845012
 32
0.0
 13
14334.420154600923
 23
7757.4757233845012
 33
0.0
  0
SOLID
  8
____1
  6
CONTINUOUS
 62
               7
 10
14338.420154600923
 20
7752.4757233845012
 30
0.0
 11
14338.420154600923
 21
7752.4757233845012
 31
0.0
 12
14334.420154600923
 22
7757.4757233845012
 32
0.0
 13
14337.420154600923
 23
7757.4757233845012
 33
0.0
  0
SOLID
  8
____1
  6
CONTINUOUS
 62
               7
 10
14331.420154600923
 20
7757.4757233845012
 30
0.0
 11
14337.420154600923
 21
7757.4757233845012
 31
0.0
 12
14334.420154600923
 22
7772.4757233845012
 32
0.0
 13
14334.420154600923
 23
7772.4757233845012
 33
0.0
  0
LINE
  8
____1
  6
CONTINUOUS
 62
               7
 10
14334.420154600923
 20
7772.4757233845012
 30
0.0
 11
14334.420154600923
 21
7732.4757233845012
 31
0.0
  0
TEXT
  8
______
  6
DOT
 62
               7
 10
14326.304413983806
 20
7801.3090573536156
 30
0.0
 40
28.222221374511719
  1
100
 50
90.0
  7
STYLE1
  0
ENDBLK
  8
0
  0
BLOCK
  8
0
  2
*D21
 70
              65
 10
0.0
 20
0.0
  0
LINE
  8
____1
  6
CONTINUOUS
 62
               7
 10
15295.357223352994
 20
8676.4757233844975
 30
0.0
 11
15295.357223352994
 21
8781.3316943952595
 31
0.0
  0
LINE
  8
____1
  6
CONTINUOUS
 62
               7
 10
15065.357223352994
 20
8588.9757233844975
 30
0.0
 11
15065.357223352994
 21
8781.3316943952595
 31
0.0
  0
SOLID
  8
____1
  6
CONTINUOUS
 62
               7
 10
15085.357223352994
 20
8769.3316943952595
 30
0.0
 11
15085.357223352994
 21
8769.3316943952595
 31
0.0
 12
15065.357223352994
 22
8773.3316943952595
 32
0.0
 13
15080.357223352994
 23
8773.3316943952595
 33
0.0
  0
SOLID
  8
____1
  6
CONTINUOUS
 62
               7
 10
15065.357223352994
 20
8773.3316943952595
 30
0.0
 11
15080.357223352994
 21
8773.3316943952595
 31
0.0
 12
15085.357223352994
 22
8777.3316943952595
 32
0.0
 13
15085.357223352994
 23
8777.3316943952595
 33
0.0
  0
LINE
  8
____1
  6
CONTINUOUS
 62
               7
 10
15065.357223352994
 20
8773.3316943952595
 30
0.0
 11
15180.357223352994
 21
8773.3316943952595
 31
0.0
  0
SOLID
  8
____1
  6
CONTINUOUS
 62
               7
 10
15275.357223352994
 20
8769.3316943952595
 30
0.0
 11
15275.357223352994
 21
8769.3316943952595
 31
0.0
 12
15280.357223352994
 22
8773.3316943952595
 32
0.0
 13
15295.357223352994
 23
8773.3316943952595
 33
0.0
  0
SOLID
  8
____1
  6
CONTINUOUS
 62
               7
 10
15280.357223352994
 20
8773.3316943952595
 30
0.0
 11
15295.357223352994
 21
8773.3316943952595
 31
0.0
 12
15275.357223352994
 22
8777.3316943952595
 32
0.0
 13
15275.357223352994
 23
8777.3316943952595
 33
0.0
  0
LINE
  8
____1
  6
CONTINUOUS
 62
               7
 10
15295.357223352994
 20
8773.3316943952595
 30
0.0
 11
15180.357223352994
 21
8773.3316943952595
 31
0.0
  0
TEXT
  8
______
  6
DOT
 62
               7
 10
15159.19055732211
 20
8781.4474350123764
 30
0.0
 40
28.222221374511719
  1
230
  7
STYLE1
  0
ENDBLK
  8
0
  0
BLOCK
  8
0
  2
*D22
 70
              65
 10
0.0
 20
0.0
  0
LINE
  8
____1
  6
CONTINUOUS
 62
               7
 10
15195.357223352994
 20
8718.7656147419766
 30
0.0
 11
15295.357223352994
 21
8718.7656147419766
 31
0.0
  0
LINE
  8
____1
  6
CONTINUOUS
 62
               7
 10
15295.357223352994
 20
8676.4757233844975
 30
0.0
 11
15295.357223352994
 21
8726.7656147419766
 31
0.0
  0
LINE
  8
____1
  6
CONTINUOUS
 62
               7
 10
15195.357223352994
 20
8458.9757233844994
 30
0.0
 11
15195.357223352994
 21
8726.7656147419766
 31
0.0
  0
SOLID
  8
____1
  6
CONTINUOUS
 62
               7
 10
15175.357223352994
 20
8714.7656147419766
 30
0.0
 11
15175.357223352994
 21
8714.7656147419766
 31
0.0
 12
15180.357223352994
 22
8718.7656147419766
 32
0.0
 13
15195.357223352994
 23
8718.7656147419766
 33
0.0
  0
SOLID
  8
____1
  6
CONTINUOUS
 62
               7
 10
15180.357223352994
 20
8718.7656147419766
 30
0.0
 11
15195.357223352994
 21
8718.7656147419766
 31
0.0
 12
15175.357223352994
 22
8722.7656147419766
 32
0.0
 13
15175.357223352994
 23
8722.7656147419766
 33
0.0
  0
LINE
  8
____1
  6
CONTINUOUS
 62
               7
 10
15195.357223352994
 20
8718.7656147419766
 30
0.0
 11
15155.357223352994
 21
8718.7656147419766
 31
0.0
  0
SOLID
  8
____1
  6
CONTINUOUS
 62
               7
 10
15315.357223352994
 20
8714.7656147419766
 30
0.0
 11
15315.357223352994
 21
8714.7656147419766
 31
0.0
 12
15295.357223352994
 22
8718.7656147419766
 32
0.0
 13
15310.357223352994
 23
8718.7656147419766
 33
0.0
  0
SOLID
  8
____1
  6
CONTINUOUS
 62
               7
 10
15295.357223352994
 20
8718.7656147419766
 30
0.0
 11
15310.357223352994
 21
8718.7656147419766
 31
0.0
 12
15315.357223352994
 22
8722.7656147419766
 32
0.0
 13
15315.357223352994
 23
8722.7656147419766
 33
0.0
  0
LINE
  8
____1
  6
CONTINUOUS
 62
               7
 10
15295.357223352994
 20
8718.7656147419766
 30
0.0
 11
15335.357223352994
 21
8718.7656147419766
 31
0.0
  0
TEXT
  8
______
  6
DOT
 62
               7
 10
15224.19055732211
 20
8726.8813553590935
 30
0.0
 40
28.222221374511719
  1
100
  7
STYLE1
  0
ENDBLK
  8
0
  0
BLOCK
  8
0
  2
*D23
 70
              65
 10
0.0
 20
0.0
  0
LINE
  8
____1
  6
CONTINUOUS
 62
               7
 10
15119.357058272579
 20
7945.9757233844939
 30
0.0
 11
15383.423279600936
 21
7945.9757233844939
 31
0.0
  0
LINE
  8
____1
  6
CONTINUOUS
 62
               7
 10
15119.357058272579
 20
8485.9757233844957
 30
0.0
 11
15383.423279600936
 21
8485.9757233844957
 31
0.0
  0
SOLID
  8
____1
  6
CONTINUOUS
 62
               7
 10
15371.423279600936
 20
8465.9757233844957
 30
0.0
 11
15371.423279600936
 21
8465.9757233844957
 31
0.0
 12
15372.423279600936
 22
8470.9757233844957
 32
0.0
 13
15375.423279600936
 23
8470.9757233844957
 33
0.0
  0
SOLID
  8
____1
  6
CONTINUOUS
 62
               7
 10
15379.423279600936
 20
8465.9757233844957
 30
0.0
 11
15379.423279600936
 21
8465.9757233844957
 31
0.0
 12
15375.423279600936
 22
8470.9757233844957
 32
0.0
 13
15378.423279600936
 23
8470.9757233844957
 33
0.0
  0
SOLID
  8
____1
  6
CONTINUOUS
 62
               7
 10
15372.423279600936
 20
8470.9757233844957
 30
0.0
 11
15378.423279600936
 21
8470.9757233844957
 31
0.0
 12
15375.423279600936
 22
8485.9757233844957
 32
0.0
 13
15375.423279600936
 23
8485.9757233844957
 33
0.0
  0
LINE
  8
____1
  6
CONTINUOUS
 62
               7
 10
15375.423279600936
 20
8485.9757233844957
 30
0.0
 11
15375.423279600936
 21
8215.9757233844957
 31
0.0
  0
SOLID
  8
____1
  6
CONTINUOUS
 62
               7
 10
15375.423279600936
 20
7945.9757233844939
 30
0.0
 11
15375.423279600936
 21
7945.9757233844939
 31
0.0
 12
15372.423279600936
 22
7960.9757233844939
 32
0.0
 13
15378.423279600936
 23
7960.9757233844939
 33
0.0
  0
SOLID
  8
____1
  6
CONTINUOUS
 62
               7
 10
15372.423279600936
 20
7960.9757233844939
 30
0.0
 11
15375.423279600936
 21
7960.9757233844939
 31
0.0
 12
15371.423279600936
 22
7965.9757233844939
 32
0.0
 13
15371.423279600936
 23
7965.9757233844939
 33
0.0
  0
SOLID
  8
____1
  6
CONTINUOUS
 62
               7
 10
15375.423279600936
 20
7960.9757233844939
 30
0.0
 11
15378.423279600936
 21
7960.9757233844939
 31
0.0
 12
15379.423279600936
 22
7965.9757233844939
 32
0.0
 13
15379.423279600936
 23
7965.9757233844939
 33
0.0
  0
LINE
  8
____1
  6
CONTINUOUS
 62
               7
 10
15375.423279600936
 20
7945.9757233844939
 30
0.0
 11
15375.423279600936
 21
8215.9757233844957
 31
0.0
  0
TEXT
  8
______
  6
DOT
 62
               7
 10
15367.30753898382
 20
8194.8090573536119
 30
0.0
 40
28.222221374511719
  1
540
 50
90.0
  7
STYLE1
  0
ENDBLK
  8
0
  0
BLOCK
  8
0
  2
*D24
 70
              65
 10
0.0
 20
0.0
  0
SOLID
  8
____1
  6
CONTINUOUS
 62
               7
 10
15199.407685151551
 20
8448.7879147012009
 30
0.0
 11
15199.407685151551
 21
8448.7879147012009
 31
0.0
 12
15204.349509641928
 22
8461.4122973345729
 32
0.0
 13
15211.597957227475
 23
8461.4122973345729
 33
0.0
  0
SOLID
  8
____1
  6
CONTINUOUS
 62
               7
 10
15204.349509641928
 20
8461.4122973345729
 30
0.0
 11
15207.50860874866
 21
8461.4122973345729
 31
0.0
 12
15205.151154365311
 22
8463.4601785864688
 32
0.0
 13
15207.294380346639
 23
8463.4601785864688
 33
0.0
  0
SOLID
  8
____1
  6
CONTINUOUS
 62
               7
 10
15207.50860874866
 20
8461.4122973345729
 30
0.0
 11
15211.597957227475
 21
8461.4122973345729
 31
0.0
 12
15213.575418649929
 22
8463.4601785864688
 32
0.0
 13
15213.575418649929
 23
8463.4601785864688
 33
0.0
  0
SOLID
  8
____1
  6
CONTINUOUS
 62
               7
 10
15205.151154365311
 20
8463.4601785864688
 30
0.0
 11
15207.294380346639
 21
8463.4601785864688
 31
0.0
 12
15206.842414578798
 22
8467.780671171593
 32
0.0
 13
15206.842414578798
 23
8467.780671171593
 33
0.0
  0
LINE
  8
____1
  6
CONTINUOUS
 62
               7
 10
15199.407685151551
 20
8448.7879147012009
 30
0.0
 11
15348.838851600796
 21
8681.659660742569
 31
0.0
  0
TEXT
  8
______
  6
DOT
 62
               7
 10
15272.03661329549
 20
8580.0443251308207
 30
0.0
 40
28.222221374511719
  1
8－φ15穴
 50
57.312169505262816
  7
STYLE1
  0
ENDBLK
  8
0
  0
BLOCK
  8
0
  2
*D25
 70
              65
 10
0.0
 20
0.0
  0
LINE
  8
____1
  6
CONTINUOUS
 62
               7
 10
16415.002767719416
 20
7658.214346983299
 30
0.0
 11
16465.002767719416
 21
7658.214346983299
 31
0.0
  0
LINE
  8
____1
  6
CONTINUOUS
 62
               7
 10
16465.002767719416
 20
7768.4757233845012
 30
0.0
 11
16465.002767719416
 21
7650.214346983299
 31
0.0
  0
LINE
  8
____1
  6
CONTINUOUS
 62
               7
 10
16415.002767719416
 20
7768.4757233845012
 30
0.0
 11
16415.002767719416
 21
7650.214346983299
 31
0.0
  0
SOLID
  8
____1
  6
CONTINUOUS
 62
               7
 10
16395.002767719416
 20
7654.214346983299
 30
0.0
 11
16395.002767719416
 21
7654.214346983299
 31
0.0
 12
16400.002767719416
 22
7658.214346983299
 32
0.0
 13
16415.002767719416
 23
7658.214346983299
 33
0.0
  0
SOLID
  8
____1
  6
CONTINUOUS
 62
               7
 10
16400.002767719416
 20
7658.214346983299
 30
0.0
 11
16415.002767719416
 21
7658.214346983299
 31
0.0
 12
16395.002767719416
 22
7662.214346983299
 32
0.0
 13
16395.002767719416
 23
7662.214346983299
 33
0.0
  0
LINE
  8
____1
  6
CONTINUOUS
 62
               7
 10
16415.002767719416
 20
7658.214346983299
 30
0.0
 11
16375.002767719416
 21
7658.214346983299
 31
0.0
  0
SOLID
  8
____1
  6
CONTINUOUS
 62
               7
 10
16485.002767719416
 20
7654.214346983299
 30
0.0
 11
16485.002767719416
 21
7654.214346983299
 31
0.0
 12
16465.002767719416
 22
7658.214346983299
 32
0.0
 13
16480.002767719416
 23
7658.214346983299
 33
0.0
  0
SOLID
  8
____1
  6
CONTINUOUS
 62
               7
 10
16465.002767719416
 20
7658.214346983299
 30
0.0
 11
16480.002767719416
 21
7658.214346983299
 31
0.0
 12
16485.002767719416
 22
7662.214346983299
 32
0.0
 13
16485.002767719416
 23
7662.214346983299
 33
0.0
  0
LINE
  8
____1
  6
CONTINUOUS
 62
               7
 10
16465.002767719416
 20
7658.214346983299
 30
0.0
 11
16505.002767719416
 21
7658.214346983299
 31
0.0
  0
TEXT
  8
______
  6
DASHED2
 62
               7
 10
16425.756509959203
 20
7666.330087600415
 30
0.0
 40
28.222221374511719
  1
50
  7
STYLE1
  0
ENDBLK
  8
0
  0
BLOCK
  8
0
  2
C2
 70
               0
 10
0.0
 20
0.0
  0
CIRCLE
  8
____1
  6
CONTINUOUS
 62
               7
 10
15244.645106745429
 20
7671.0384303635892
 30
0.0
 40
28.0
  0
TEXT
  8
______
  6
CENTER2
 62
               7
 10
15237.589551401801
 20
7661.0430602934493
 30
0.0
 40
28.222221374511719
  1
7
  7
STYLE1
  0
LINE
  8
______
  6
CONTINUOUS
 62
               7
 10
15197.978440078763
 20
7671.0384303635892
 30
0.0
 11
15216.645106745429
 21
7671.0384303635892
 31
0.0
  0
LINE
  8
______
  6
CONTINUOUS
 62
               7
 10
14863.357223352994
 20
7987.4129871174118
 30
0.0
 11
15197.978440078763
 21
7671.0384303635892
 31
0.0
  0
SOLID
  8
______
 62
               7
 10
14863.357223352994
 20
7987.4129871174118
 30
0.0
 11
14867.796314538909
 21
7980.463564879331
 31
0.0
 12
14863.357223352994
 22
7987.4129871174118
 32
0.0
 13
14867.717068114478
 23
7983.290881629222
 33
0.0
  0
SOLID
  8
______
 62
               7
 10
14867.717068114478
 20
7983.290881629222
 30
0.0
 11
14870.544384864368
 21
7983.3701280536543
 31
0.0
 12
14863.357223352994
 22
7987.4129871174118
 32
0.0
 13
14863.357223352994
 23
7987.4129871174118
 33
0.0
  0
ENDBLK
  8
0
  0
BLOCK
  8
0
  2
C3
 70
               0
 10
0.0
 20
0.0
  0
CIRCLE
  8
____1
  6
CONTINUOUS
 62
               7
 10
15396.175239620916
 20
7854.272713051836
 30
0.0
 40
28.0
  0
TEXT
  8
______
  6
CENTER2
 62
               7
 10
15389.119684277288
 20
7844.2773429816962
 30
0.0
 40
28.222221374511719
  1
1
  7
STYLE1
  0
LINE
  8
______
  6
CONTINUOUS
 62
               7
 10
15349.50857295425
 20
7854.272713051836
 30
0.0
 11
15368.175239620916
 21
7854.272713051836
 31
0.0
  0
LINE
  8
______
  6
CONTINUOUS
 62
               7
 10
15115.357058272575
 20
8049.8411375310025
 30
0.0
 11
15349.50857295425
 21
7854.272713051836
 31
0.0
  0
SOLID
  8
______
 62
               7
 10
15115.357058272575
 20
8049.8411375310025
 30
0.0
 11
15120.215043722184
 21
8043.1778067294144
 31
0.0
 12
15115.357058272575
 22
8049.8411375310025
 32
0.0
 13
15119.962106378462
 23
8045.9949014562826
 33
0.0
  0
SOLID
  8
______
 62
               7
 10
15119.962106378462
 20
8045.9949014562826
 30
0.0
 11
15122.77920110533
 21
8046.2478388000054
 31
0.0
 12
15115.357058272575
 22
8049.8411375310025
 32
0.0
 13
15115.357058272575
 23
8049.8411375310025
 33
0.0
  0
ENDBLK
  8
0
  0
BLOCK
  8
0
  2
C4
 70
               0
 10
0.0
 20
0.0
  0
CIRCLE
  8
____1
  6
CONTINUOUS
 62
               7
 10
14854.474793253612
 20
8896.8323402415917
 30
0.0
 40
28.0
  0
TEXT
  8
______
  6
CENTER2
 62
               7
 10
14847.419237909984
 20
8886.8369701714528
 30
0.0
 40
28.222221374511719
  1
3
  7
STYLE1
  0
LINE
  8
______
  6
CONTINUOUS
 62
               7
 10
14807.808126586946
 20
8896.8323402415917
 30
0.0
 11
14826.474793253612
 21
8896.8323402415917
 31
0.0
  0
LINE
  8
______
  6
CONTINUOUS
 62
               7
 10
14693.357058272575
 20
8484.4757233844939
 30
0.0
 11
14807.808126586946
 21
8896.8323402415917
 31
0.0
  0
SOLID
  8
______
 62
               7
 10
14693.357058272575
 20
8484.4757233844939
 30
0.0
 11
14697.42375209668
 21
8491.6494254511399
 31
0.0
 12
14693.357058272575
 22
8484.4757233844939
 32
0.0
 13
14694.961718254299
 23
8490.2571649299098
 33
0.0
  0
SOLID
  8
______
 62
               7
 10
14694.961718254299
 20
8490.2571649299098
 30
0.0
 11
14693.569457733071
 21
8492.719198772289
 31
0.0
 12
14693.357058272575
 22
8484.4757233844939
 32
0.0
 13
14693.357058272575
 23
8484.4757233844939
 33
0.0
  0
ENDBLK
  8
0
  0
BLOCK
  8
0
  2
C5
 70
               0
 10
0.0
 20
0.0
  0
CIRCLE
  8
____1
  6
CONTINUOUS
 62
               7
 10
14119.61234264071
 20
8387.7311147750388
 30
0.0
 40
28.0
  0
TEXT
  8
____1
  6
CONTINUOUS
 62
               7
 10
14112.556787297082
 20
8377.7357447048998
 30
0.0
 40
28.222221374511719
  1
4
  7
STYLE1
  0
LINE
  8
______
  6
CONTINUOUS
 62
               7
 10
14166.279009307376
 20
8387.7311147750388
 30
0.0
 11
14147.61234264071
 21
8387.7311147750388
 31
0.0
  0
LINE
  8
______
  6
CONTINUOUS
 62
               7
 10
14612.357241256639
 20
8294.4579236754307
 30
0.0
 11
14166.279009307376
 21
8387.7311147750388
 31
0.0
  0
SOLID
  8
______
 62
               7
 10
14612.357241256639
 20
8294.4579236754307
 30
0.0
 11
14604.935931906322
 21
8298.0529434983109
 31
0.0
 12
14612.357241256639
 22
8294.4579236754307
 32
0.0
 13
14606.484254687672
 23
8295.6859419003486
 33
0.0
  0
SOLID
  8
______
 62
               7
 10
14606.484254687672
 20
8295.6859419003486
 30
0.0
 11
14604.117253089709
 21
8294.1376191189993
 31
0.0
 12
14612.357241256639
 22
8294.4579236754307
 32
0.0
 13
14612.357241256639
 23
8294.4579236754307
 33
0.0
  0
ENDBLK
  8
0
  0
BLOCK
  8
0
  2
C6
 70
               0
 10
0.0
 20
0.0
  0
CIRCLE
  8
____1
  6
CONTINUOUS
 62
               7
 10
14119.61234264071
 20
8067.8077246360863
 30
0.0
 40
28.0
  0
TEXT
  8
____1
  6
DOT
 62
               7
 10
14112.556787297082
 20
8057.8123545659464
 30
0.0
 40
28.222221374511719
  1
5
  7
STYLE1
  0
LINE
  8
______
  6
CONTINUOUS
 62
               7
 10
14166.279009307376
 20
8067.8077246360863
 30
0.0
 11
14147.61234264071
 21
8067.8077246360863
 31
0.0
  0
LINE
  8
______
  6
CONTINUOUS
 62
               7
 10
14595.857223352994
 20
8167.820224636087
 30
0.0
 11
14166.279009307376
 21
8067.8077246360863
 31
0.0
  0
SOLID
  8
______
 62
               7
 10
14595.857223352994
 20
8167.820224636087
 30
0.0
 11
14587.612099202383
 21
8167.9541191505778
 31
0.0
 12
14595.857223352994
 22
8167.820224636087
 32
0.0
 13
14590.013507273536
 23
8166.4597165020905
 33
0.0
  0
SOLID
  8
______
 62
               7
 10
14590.013507273536
 20
8166.4597165020905
 30
0.0
 11
14588.519104625047
 21
8164.0583084309383
 31
0.0
 12
14595.857223352994
 22
8167.820224636087
 32
0.0
 13
14595.857223352994
 23
8167.820224636087
 33
0.0
  0
ENDBLK
  8
0
  0
BLOCK
  8
0
  2
C7
 70
               0
 10
0.0
 20
0.0
  0
CIRCLE
  8
____1
  6
CONTINUOUS
 62
               7
 10
14328.142894823177
 20
7665.2627215259927
 30
0.0
 40
28.0
  0
TEXT
  8
______
  6
CENTER2
 62
               7
 10
14321.087339479549
 20
7655.2673514558528
 30
0.0
 40
28.222221374511719
  1
2
  7
STYLE1
  0
LINE
  8
______
  6
CONTINUOUS
 62
               7
 10
14374.809561489843
 20
7665.2627215259927
 30
0.0
 11
14356.142894823177
 21
7665.2627215259927
 31
0.0
  0
LINE
  8
______
  6
CONTINUOUS
 62
               7
 10
14499.273790043409
 20
7772.4757233844975
 30
0.0
 11
14374.809561489843
 21
7665.2627215259927
 31
0.0
  0
SOLID
  8
______
 62
               7
 10
14499.273790043409
 20
7772.4757233844975
 30
0.0
 11
14491.907199625732
 21
7768.7698704977556
 31
0.0
 12
14499.273790043409
 22
7772.4757233844975
 32
0.0
 13
14494.727817905063
 23
7768.559840684854
 33
0.0
  0
SOLID
  8
______
 62
               7
 10
14494.727817905063
 20
7768.559840684854
 30
0.0
 11
14494.51778809216
 21
7765.7392224055238
 31
0.0
 12
14499.273790043409
 22
7772.4757233844975
 32
0.0
 13
14499.273790043409
 23
7772.4757233844975
 33
0.0
  0
ENDBLK
  8
0
  0
BLOCK
  8
0
  2
C8
 70
               0
 10
0.0
 20
0.0
  0
CIRCLE
  8
____1
  6
CONTINUOUS
 62
               7
 10
16128.377423838872
 20
7801.7670461706184
 30
0.0
 40
28.0
  0
TEXT
  8
____1
  6
DOT
 62
               7
 10
16121.321868495244
 20
7791.7716761004785
 30
0.0
 40
28.222221374511719
  1
8
  7
STYLE1
  0
LINE
  8
______
  6
CONTINUOUS
 62
               7
 10
16175.044090505538
 20
7801.7670461706184
 30
0.0
 11
16156.377423838872
 21
7801.7670461706184
 31
0.0
  0
LINE
  8
______
  6
CONTINUOUS
 62
               7
 10
16335.752767719418
 20
7962.4757233845012
 30
0.0
 11
16175.044090505538
 21
7801.7670461706184
 31
0.0
  0
SOLID
  8
______
 62
               7
 10
16335.752767719418
 20
7962.4757233845012
 30
0.0
 11
16328.681699907553
 21
7958.2330826973821
 31
0.0
 12
16335.752767719418
 22
7962.4757233845012
 32
0.0
 13
16331.510127032298
 23
7958.2330826973821
 33
0.0
  0
SOLID
  8
______
 62
               7
 10
16331.510127032298
 20
7958.2330826973821
 30
0.0
 11
16331.510127032299
 21
7955.4046555726354
 31
0.0
 12
16335.752767719418
 22
7962.4757233845012
 32
0.0
 13
16335.752767719418
 23
7962.4757233845012
 33
0.0
  0
ENDBLK
  8
0
  0
BLOCK
  8
0
  2
C9
 70
              64
 10
0.0
 20
0.0
  0
LINE
  8
____1
  6
CONTINUOUS
 62
               5
 10
15115.357058272579
 20
8485.9757233844957
 30
0.0
 11
14575.357058272579
 21
8485.9757233844957
 31
0.0
  0
LINE
  8
____1
  6
CONTINUOUS
 62
               5
 10
15115.357058272579
 20
7945.9757233844939
 30
0.0
 11
14575.357058272579
 21
7945.9757233844939
 31
0.0
  0
LINE
  8
____1
  6
CONTINUOUS
 62
               5
 10
15115.357058272579
 20
8485.9757233844957
 30
0.0
 11
15115.357058272579
 21
7945.9757233844939
 31
0.0
  0
LINE
  8
____1
  6
CONTINUOUS
 62
               5
 10
14575.357058272579
 20
8485.9757233844957
 30
0.0
 11
14575.357058272579
 21
7945.9757233844939
 31
0.0
  0
ENDBLK
  8
0
  0
BLOCK
  8
0
  2
C10
 70
              64
 10
0.0
 20
0.0
  0
LINE
  8
____1
  6
CONTINUOUS
 62
               7
 10
16352.457190554529
 20
8053.9247595621127
 30
0.0
 11
16362.061125866885
 21
8051.9004671303337
 31
0.0
  0
LINE
  8
____1
  6
CONTINUOUS
 62
               7
 10
16358.554948525658
 20
8035.265963216727
 30
0.0
 11
16348.951013213298
 21
8037.2902556485078
 31
0.0
  0
LINE
  8
____1
  6
CONTINUOUS
 62
               7
 10
16362.061125866885
 20
8051.9004671303337
 30
0.0
 11
16365.110004852451
 21
8042.5710689576372
 31
0.0
  0
ARC
  8
____1
  6
DOT
 62
               7
 10
16355.506511447094
 20
8044.5957218002113
 30
0.0
 40
12.499999999996119
 50
178.0975671873818
 51
-1.9024055216757472
  0
LINE
  8
____1
  6
DOT
 62
               7
 10
16367.999621735407
 20
8044.1807575558305
 30
0.0
 11
16368.274881566058
 21
8052.4677434278019
 31
0.0
  0
LINE
  8
____1
  6
DOT
 62
               7
 10
16343.01340135644
 20
8045.0106919952686
 30
0.0
 11
16343.288661378532
 21
8053.297683630859
 31
0.0
  0
LINE
  8
____1
  6
DASHED2
 62
               7
 10
16343.288661378532
 20
8053.297683630859
 30
0.0
 11
16351.312803383958
 21
8294.8728937769665
 31
0.0
  0
CIRCLE
  8
____1
  6
CONTINUOUS
 62
               7
 10
16355.506511447094
 20
8044.5957218002113
 30
0.0
 40
14.999999999995925
  0
LINE
  8
____1
  6
CONTINUOUS
 62
               7
 10
16365.110004852451
 20
8042.5710689576372
 30
0.0
 11
16358.554948525658
 21
8035.265963216727
 31
0.0
  0
LINE
  8
____1
  6
CONTINUOUS
 62
               7
 10
16345.902134227732
 20
8046.6196538212025
 30
0.0
 11
16352.457190554529
 21
8053.9247595621127
 31
0.0
  0
LINE
  8
____1
  6
CONTINUOUS
 62
               7
 10
16348.951013213298
 20
8037.2902556485078
 30
0.0
 11
16345.902134227732
 21
8046.6196538212025
 31
0.0
  0
INSERT
  8
____1
  6
DASHED2
 62
               7
  2
C11
 10
0.0
 20
0.0
 30
0.0
  0
ARC
  8
____1
  6
DASHED2
 62
               7
 10
16363.80591347772
 20
8294.4579236754344
 30
0.0
 40
12.500000000000753
 50
-1.9024325746636723
 51
178.09757003132427
  0
LINE
  8
____1
  6
DASHED2
 62
               7
 10
16368.274881566058
 20
8052.4677434278019
 30
0.0
 11
16376.299023571484
 21
8294.042953573904
 31
0.0
  0
CIRCLE
  8
____1
  6
CONTINUOUS
 62
               7
 10
16355.506069540095
 20
8044.595361389418
 30
0.0
 40
8.5000000000004192
  0
ENDBLK
  8
0
  0
BLOCK
  8
0
  2
C11
 70
              64
 10
0.0
 20
0.0
  0
LINE
  8
____1
  6
DASHED2
 62
               7
 10
16363.805913477716
 20
8304.2728782516588
 30
0.0
 11
16372.30591347772
 21
8299.3654009635447
 31
0.0
  0
LINE
  8
____1
  6
DASHED2
 62
               7
 10
16372.305913477712
 20
8289.5504463873203
 30
0.0
 11
16363.805913477709
 21
8284.6429690992099
 31
0.0
  0
LINE
  8
____1
  6
DASHED2
 62
               7
 10
16355.30591347772
 20
8299.3654009635484
 30
0.0
 11
16363.805913477716
 21
8304.2728782516588
 31
0.0
  0
LINE
  8
____1
  6
DASHED2
 62
               7
 10
16355.305913477712
 20
8289.5504463873276
 30
0.0
 11
16355.30591347772
 21
8299.3654009635484
 31
0.0
  0
LINE
  8
____1
  6
DASHED2
 62
               7
 10
16363.805913477709
 20
8284.6429690992099
 30
0.0
 11
16355.305913477712
 21
8289.5504463873276
 31
0.0
  0
LINE
  8
____1
  6
DASHED2
 62
               7
 10
16372.30591347772
 20
8299.3654009635447
 30
0.0
 11
16372.305913477712
 21
8289.5504463873203
 31
0.0
  0
CIRCLE
  8
____1
  6
DASHED2
 62
               7
 10
16363.80591347772
 20
8294.4579236754344
 30
0.0
 40
8.5000000000028635
  0
ENDBLK
  8
0
  0
BLOCK
  8
0
  2
C12
 70
              64
 10
0.0
 20
0.0
  0
ARC
  8
____1
  6
DASHED2
 62
               7
 10
16342.414429626526
 20
8000.9216098249226
 30
0.0
 40
5.0000000000014495
 50
-127.09400883340057
 51
179.90599116663236
  0
LINE
  8
____1
  6
DASHED2
 62
               7
 10
16340.605055872667
 20
7998.5286688271399
 30
0.0
 11
16339.39880670343
 21
7996.9333748286226
 31
0.0
  0
LINE
  8
____1
  6
DASHED2
 62
               7
 10
16339.414433664686
 20
8000.9265321137163
 30
0.0
 11
16337.41443635679
 21
8000.9298136395846
 31
0.0
  0
LINE
  8
____1
  6
DASHED2
 62
               7
 10
16339.414433664686
 20
8000.9265321137163
 30
0.0
 11
16339.378336880178
 21
7978.9265617268729
 31
0.0
  0
LINE
  8
____1
  6
DASHED2
 62
               7
 10
16410.851005395132
 20
7986.5057252293054
 30
0.0
 11
16411.365473077989
 21
7984.5730268557099
 31
0.0
  0
LINE
  8
____1
  6
DASHED2
 62
               7
 10
16382.374997474057
 20
7976.8560116128874
 30
0.0
 11
16339.375055354314
 21
7976.9265644189763
 31
0.0
  0
LINE
  8
____1
  6
DASHED2
 62
               7
 10
16382.374997474057
 20
7976.8560116128874
 30
0.0
 11
16411.365473077989
 21
7984.5730268557099
 31
0.0
  0
LINE
  8
____1
  6
DASHED2
 62
               7
 10
16382.114974359178
 20
7978.8564409418586
 30
0.0
 11
16410.851005395132
 21
7986.5057252293054
 31
0.0
  0
LINE
  8
____1
  6
DASHED2
 62
               7
 10
16382.114974359178
 20
7978.8564409418586
 30
0.0
 11
16339.378336880178
 21
7978.9265617268729
 31
0.0
  0
ARC
  8
____1
  6
DASHED2
 62
               7
 10
16339.378336880178
 20
7978.9265617268729
 30
0.0
 40
2.0000000000027911
 50
179.90596896083807
 51
-90.094008833357094
  0
LINE
  8
____1
  6
DASHED2
 62
               7
 10
16337.378339573552
 20
7978.9298440278644
 30
0.0
 11
16337.41443635679
 21
8000.9298136395846
 31
0.0
  0
ARC
  8
____1
  6
DASHED2
 62
               7
 10
16342.414429626526
 20
8000.9216098249226
 30
0.0
 40
2.9999999999990967
 50
-127.09400883326937
 51
179.9059911666775
  0
ENDBLK
  8
0
  0
BLOCK
  8
0
  2
C13
 70
              64
 10
0.0
 20
0.0
  0
LINE
  8
____1
  6
DASHED2
 62
               7
 10
16334.952767719418
 20
7969.4847152990478
 30
0.0
 11
16334.952767719418
 21
7964.4757233845012
 31
0.0
  0
ARC
  8
____1
  6
DASHED2
 62
               7
 10
16334.25831687101
 20
7968.9421490566856
 30
0.0
 40
0.5000000000016796
 50
93.433630362150907
 51
151.10237726317533
  0
LINE
  8
____1
  6
DASHED2
 62
               7
 10
16334.952767719418
 20
7969.4847152990478
 30
0.0
 11
16334.228370725648
 21
7969.4412514794203
 31
0.0
  0
LINE
  8
____1
  6
DASHED2
 62
               7
 10
16332.752767719418
 20
7964.4992769819473
 30
0.0
 11
16332.752767719418
 21
7963.4757233845012
 31
0.0
  0
LINE
  8
____1
  6
DASHED2
 62
               7
 10
16338.752767719418
 20
7964.4041559985199
 30
0.0
 11
16338.752767719418
 21
7963.4757233845012
 31
0.0
  0
ARC
  8
____1
  6
DASHED2
 62
               7
 10
16329.693392310199
 20
7964.8897868785771
 30
0.0
 40
9.0723822757221324
 50
-3.0684227997872475
 51
28.211078854471779
  0
LINE
  8
____1
  6
DASHED2
 62
               7
 10
16336.552767719417
 20
7969.4847152990478
 30
0.0
 11
16337.277425116989
 21
7969.4412358551926
 31
0.0
  0
ARC
  8
____1
  6
DASHED2
 62
               7
 10
16337.247478971627
 20
7968.9421334324579
 30
0.0
 40
0.5000000000016796
 50
28.211078854445443
 51
86.566369637849107
210
0.0
220
0.0
230
1.0
  0
LINE
  8
____1
  6
DASHED2
 62
               7
 10
16336.552767719417
 20
7969.4847152990478
 30
0.0
 11
16336.552767719417
 21
7964.4757233845012
 31
0.0
  0
ARC
  8
____1
  6
DASHED2
 62
               7
 10
16337.752767719418
 20
7963.4757233845012
 30
0.0
 40
1.0
 50
-90.0
 51
0.0
210
0.0
220
0.0
230
1.0
  0
LINE
  8
____1
  6
DASHED2
 62
               7
 10
16337.752767719418
 20
7962.4757233845012
 30
0.0
 11
16333.752767719418
 21
7962.4757233845012
 31
0.0
  0
ARC
  8
____1
  6
DASHED2
 62
               7
 10
16333.752767719418
 20
7963.4757233845012
 30
0.0
 40
1.0
 50
180.0
 51
-90.0
210
0.0
220
0.0
230
1.0
  0
LINE
  8
____1
  6
DASHED2
 62
               7
 10
16336.552767719417
 20
7964.4757233845012
 30
0.0
 11
16334.952767719418
 21
7964.4757233845012
 31
0.0
  0
POLYLINE
  8
____1
  6
DASHED2
 62
               7
 66
               1
 10
0.0
 20
0.0
 30
0.0
 70
               8
  0
VERTEX
  8
____1
 62
               7
 10
16333.820574581934
 20
7969.1837720861258
 30
0.0
 70
              32
  0
VERTEX
  8
____1
 62
               7
 10
16333.531590492115
 20
7968.6377725287903
 30
0.0
 70
              32
  0
VERTEX
  8
____1
 62
               7
 10
16333.281837575434
 20
7968.0794498097348
 30
0.0
 70
              32
  0
VERTEX
  8
____1
 62
               7
 10
16333.136463040151
 20
7967.6568190559356
 30
0.0
 70
              32
  0
VERTEX
  8
____1
 62
               7
 10
16333.022571891303
 20
7967.2242988486378
 30
0.0
 70
              32
  0
VERTEX
  8
____1
 62
               7
 10
16332.871553439054
 20
7966.3351456378768
 30
0.0
 70
              32
  0
VERTEX
  8
____1
 62
               7
 10
16332.793409590988
 20
7965.4231013060908
 30
0.0
 70
              32
  0
VERTEX
  8
____1
 62
               7
 10
16332.752767719418
 20
7964.4992769819182
 30
0.0
 70
              32
  0
SEQEND
  8
____1
 62
               7
  0
ENDBLK
  8
0
  0
BLOCK
  8
0
  2
C14
 70
              64
 10
0.0
 20
0.0
  0
INSERT
  8
____1
  6
DASHED2
 62
               7
  2
C15
 10
0.0
 20
0.0
 30
0.0
  0
ENDBLK
  8
0
  0
BLOCK
  8
0
  2
C15
 70
              64
 10
0.0
 20
0.0
  0
LINE
  8
____1
  6
DASHED2
 62
               7
 10
16367.550921340267
 20
7970.9757233845012
 30
0.0
 11
16373.170182788612
 21
7970.9757233845012
 31
0.0
  0
LINE
  8
____1
  6
DASHED2
 62
               7
 10
16350.693136995245
 20
7970.9757233845012
 30
0.0
 11
16356.312398443586
 21
7970.9757233845012
 31
0.0
  0
ARC
  8
____1
  6
DASHED2
 62
               7
 10
16368.855514551653
 20
7984.4757233844994
 30
0.0
 40
5.000000000000286
 50
-27.152325537574789
 51
152.84773456653235
210
0.0
220
0.0
230
1.0
  0
ARC
  8
____1
  6
DASHED2
 62
               7
 10
16368.855514551653
 20
7984.4757233844994
 30
0.0
 40
10.000000000004638
 50
-27.152325537574075
 51
152.84773456653258
210
0.0
220
0.0
230
1.0
  0
LINE
  8
____1
  6
DASHED2
 62
               7
 10
16373.304495383449
 20
7982.1939325180356
 30
0.0
 11
16367.550921340267
 21
7970.9757233845012
 31
0.0
  0
LINE
  8
____1
  6
DASHED2
 62
               7
 10
16364.406528932594
 20
7986.7575049168736
 30
0.0
 11
16356.312398443586
 21
7970.9757233845012
 31
0.0
  0
LINE
  8
____1
  6
DASHED2
 62
               7
 10
16377.753478608878
 20
7979.9121463186129
 30
0.0
 11
16373.170182788612
 21
7970.9757233845012
 31
0.0
  0
LINE
  8
____1
  6
DASHED2
 62
               7
 10
16359.957545707168
 20
7989.0392911162926
 30
0.0
 11
16350.693136995245
 21
7970.9757233845012
 31
0.0
  0
ENDBLK
  8
0
  0
BLOCK
  8
0
  2
C16
 70
              64
 10
0.0
 20
0.0
  0
TEXT
  8
____1
  6
DOT
 62
               7
 10
16739.91250038147
 20
8952.906666603094
 30
0.0
 40
25.399999618530273
  1
園原
  7
STYLE1
  0
TEXT
  8
____1
  6
CONTINUOUS
 62
               7
 10
16210.512500762938
 20
8952.906666603094
 30
0.0
 40
25.399999618530273
  1
H21.5.29
  7
STYLE1
  0
TEXT
  8
____1
  6
CONTINUOUS
 62
               7
 10
16411.012504577629
 20
8952.906666603094
 30
0.0
 40
25.399999618530273
  1
取付け穴　形状変更
  7
STYLE1
  0
INSERT
  8
____1
  6
CONTINUOUS
 62
               5
  2
C17
 10
0.0
 20
0.0
 30
0.0
  0
ENDBLK
  8
0
  0
BLOCK
  8
0
  2
C17
 70
              64
 10
0.0
 20
0.0
  0
LINE
  8
____1
  6
CONTINUOUS
 62
               5
 10
16163.038216911655
 20
8979.6634398071601
 30
0.0
 11
16143.238216911659
 21
8945.368833817296
 31
0.0
  0
LINE
  8
____1
  6
CONTINUOUS
 62
               5
 10
16163.038216911655
 20
8979.6634398071601
 30
0.0
 11
16182.838216911658
 21
8945.368833817296
 31
0.0
  0
LINE
  8
____1
  6
CONTINUOUS
 62
               5
 10
16143.238216911659
 20
8945.368833817296
 30
0.0
 11
16182.838216911658
 21
8945.368833817296
 31
0.0
  0
TEXT
  8
____1
  6
CONTINUOUS
 62
               5
 10
16157.438216720924
 20
8950.7521668963145
 30
0.0
 40
22.399999618530273
  1
1
  7
STYLE1
  0
ENDBLK
  8
0
  0
BLOCK
  8
0
  2
C18
 70
              64
 10
0.0
 20
0.0
  0
ARC
  8
____1
  6
DASHED2
 62
               7
 10
16355.502767719418
 20
8015.9757233845012
 30
0.0
 40
5.4999999999981668
 50
-176.47768733401395
 51
-3.5538104361286775
  0
LINE
  8
____1
  6
DASHED2
 62
               7
 10
16361.002767719418
 20
8109.9408576198366
 30
0.0
 11
16361.002767719418
 21
8180.5767438989333
 31
0.0
  0
LINE
  8
____1
  6
DASHED2
 62
               7
 10
16382.502767719418
 20
8349.7757233845023
 30
0.0
 11
16382.502767719418
 21
8005.1757233845019
 31
0.0
  0
LINE
  8
____1
  6
CONTINUOUS
 62
               7
 10
16350.002767719418
 20
8296.350610019761
 30
0.0
 11
16350.002767719418
 21
8296.8526238410286
 31
0.0
  0
LINE
  8
____1
  6
DASHED2
 62
               7
 10
16340.002767719418
 20
8002.4757233845012
 30
0.0
 11
16382.502767719418
 21
8002.4757233845012
 31
0.0
  0
LINE
  8
____1
  6
DASHED2
 62
               7
 10
16382.502767719418
 20
8352.4757233844994
 30
0.0
 11
16382.502767719418
 21
8349.7757233845023
 31
0.0
  0
LINE
  8
____1
  6
DASHED2
 62
               7
 10
16385.002767719416
 20
8349.7757233845023
 30
0.0
 11
16382.502767719418
 21
8349.7757233845023
 31
0.0
  0
LINE
  8
____1
  6
DASHED2
 62
               7
 10
16340.002767719418
 20
8352.4757233844994
 30
0.0
 11
16382.502767719418
 21
8352.4757233844994
 31
0.0
  0
LINE
  8
____1
  6
DASHED2
 62
               7
 10
16340.002767719418
 20
8002.4757233845012
 30
0.0
 11
16340.002767719418
 21
8352.4757233844994
 31
0.0
  0
LINE
  8
____1
  6
DASHED2
 62
               7
 10
16366.926806484478
 20
8076.3439642728372
 30
0.0
 11
16361.002767719418
 21
8109.9408576198366
 31
0.0
  0
LINE
  8
____1
  6
DASHED2
 62
               7
 10
16385.002767719416
 20
8005.1757233845019
 30
0.0
 11
16385.002767719416
 21
8349.7757233845023
 31
0.0
  0
LINE
  8
____1
  6
DASHED2
 62
               7
 10
16382.502767719418
 20
8002.4757233845012
 30
0.0
 11
16382.502767719418
 21
8005.1757233845019
 31
0.0
  0
LINE
  8
____1
  6
DASHED2
 62
               7
 10
16340.002767719418
 20
8349.9757233844994
 30
0.0
 11
16382.502767719418
 21
8349.9757233844994
 31
0.0
  0
ARC
  8
____1
  6
DASHED2
 62
               7
 10
16362.002767719418
 20
8185.4757233844994
 30
0.0
 40
4.9999999999997371
 50
-101.5369590328161
 51
10.000000000015964
  0
ARC
  8
____1
  6
DASHED2
 62
               7
 10
16365.503955330389
 20
8295.4757233844994
 30
0.0
 40
5.999999999996982
 50
-92.999999999972317
 51
84.999999999991516
  0
LINE
  8
____1
  6
DASHED2
 62
               7
 10
16365.189939592934
 20
8289.4839461759748
 30
0.0
 11
16361.003864572847
 21
8289.7033290716881
 31
0.0
  0
LINE
  8
____1
  6
DASHED2
 62
               7
 10
16366.026889786875
 20
8301.4528915730498
 30
0.0
 11
16355.982124304528
 21
8302.3316946805335
 31
0.0
  0
ARC
  8
____1
  6
DASHED2
 62
               7
 10
16355.502767719418
 20
8296.8526238410286
 30
0.0
 40
5.5
 50
85.000000000016968
 51
180.0
210
0.0
220
0.0
230
1.0
  0
LINE
  8
____1
  6
DASHED2
 62
               7
 10
16385.002767719416
 20
8005.1757233845019
 30
0.0
 11
16382.502767719418
 21
8005.1757233845019
 31
0.0
  0
LINE
  8
____1
  6
CONTINUOUS
 62
               7
 10
16350.002767719418
 20
8295.4757233844994
 30
0.0
 11
16350.002767719418
 21
8296.350610019761
 31
0.0
  0
LINE
  8
____1
  6
DASHED2
 62
               7
 10
16366.926806484478
 20
8186.3439642728354
 30
0.0
 11
16361.002767719418
 21
8219.9408576198348
 31
0.0
  0
LINE
  8
____1
  6
DASHED2
 62
               7
 10
16361.002767719418
 20
8219.9408576198348
 30
0.0
 11
16361.003864572847
 21
8289.7033290716881
 31
0.0
  0
LINE
  8
____1
  6
DASHED2
 62
               7
 10
16340.002767719418
 20
8004.9757233845012
 30
0.0
 11
16382.502767719418
 21
8004.9757233845012
 31
0.0
  0
ARC
  8
____1
  6
DASHED2
 62
               7
 10
16362.002767719418
 20
8075.4757233845012
 30
0.0
 40
4.9999999989802966
 50
-101.53695903520067
 51
9.9999999999612079
  0
ENDBLK
  8
0
  0
BLOCK
  8
0
  2
C19
 70
              64
 10
0.0
 20
0.0
  0
LINE
  8
____1
  6
CENTER2
 62
               4
 10
16376.275470868748
 20
8523.0111926920454
 30
0.0
 11
16107.793129153384
 21
8511.2375598948584
 31
0.0
  0
POLYLINE
  8
____1
  6
CENTER2
 62
               4
 66
               1
 10
0.0
 20
0.0
 30
0.0
 70
               8
  0
VERTEX
  8
____1
 62
               4
 10
16381.274136483209
 20
8479.2353980388234
 30
0.0
 70
              32
  0
VERTEX
  8
____1
 62
               4
 10
16381.238423953831
 20
8478.7674554227724
 30
0.0
 70
              32
  0
VERTEX
  8
____1
 62
               4
 10
16381.059857099299
 20
8478.3334513270147
 30
0.0
 70
              32
  0
VERTEX
  8
____1
 62
               4
 10
16380.755915287486
 20
8477.9758690963263
 30
0.0
 70
              32
  0
VERTEX
  8
____1
 62
               4
 10
16380.356350460614
 20
8477.7297113708719
 30
0.0
 70
              32
  0
VERTEX
  8
____1
 62
               4
 10
16379.900274807875
 20
8477.6190737839006
 30
0.0
 70
              32
  0
VERTEX
  8
____1
 62
               4
 10
16379.900273583657
 20
8477.6190736846329
 30
0.0
 70
              32
  0
SEQEND
  8
____1
 62
               4
  0
ARC
  8
____1
  6
CENTER2
 62
               4
 10
16174.571104313669
 20
8461.0078072630458
 30
0.0
 40
3.0000000000002309
 50
-175.3643438874027
 51
-85.36434388739147
210
0.0
220
0.0
230
1.0
  0
ARC
  8
____1
  6
CENTER2
 62
               4
 10
16203.152837104653
 20
8504.4599021568956
 30
0.0
 40
3.0000000000079243
 50
4.6356561127011844
 51
94.635656112432599
  0
POLYLINE
  8
____1
  6
CENTER2
 62
               4
 66
               1
 10
0.0
 20
0.0
 30
0.0
 70
               8
  0
VERTEX
  8
____1
 62
               4
 10
16171.015058599953
 20
8504.8638734213509
 30
0.0
 70
              32
  0
VERTEX
  8
____1
 62
               4
 10
16170.249402974112
 20
8504.6992326323161
 30
0.0
 70
              32
  0
VERTEX
  8
____1
 62
               4
 10
16169.552448602872
 20
8504.3420355841681
 30
0.0
 70
              32
  0
VERTEX
  8
____1
 62
               4
 10
16168.971691774861
 20
8503.8166246654437
 30
0.0
 70
              32
  0
VERTEX
  8
____1
 62
               4
 10
16168.546710108161
 20
8503.1588057619738
 30
0.0
 70
              32
  0
VERTEX
  8
____1
 62
               4
 10
16168.306465401045
 20
8502.4134081449283
 30
0.0
 70
              32
  0
VERTEX
  8
____1
 62
               4
 10
16168.267329933278
 20
8501.6312294300824
 30
0.0
 70
              32
  0
VERTEX
  8
____1
 62
               4
 10
16168.267329933278
 20
8501.6312294300769
 30
0.0
 70
              32
  0
SEQEND
  8
____1
 62
               4
  0
ARC
  8
____1
  6
CENTER2
 62
               4
 10
15844.535690631434
 20
8435.714245197576
 30
0.0
 40
1.4999999999989211
 50
-175.36432506200683
 51
-85.364294715528516
210
0.0
220
0.0
230
1.0
  0
POLYLINE
  8
____1
  6
CENTER2
 62
               4
 66
               1
 10
0.0
 20
0.0
 30
0.0
 70
               8
  0
VERTEX
  8
____1
 62
               4
 10
16377.836279687433
 20
8521.6338617303281
 30
0.0
 70
              32
  0
VERTEX
  8
____1
 62
               4
 10
16377.725642850466
 20
8522.089937565006
 30
0.0
 70
              32
  0
VERTEX
  8
____1
 62
               4
 10
16377.479485782087
 20
8522.4895027966759
 30
0.0
 70
              32
  0
VERTEX
  8
____1
 62
               4
 10
16377.121904051228
 20
8522.7934451965284
 30
0.0
 70
              32
  0
VERTEX
  8
____1
 62
               4
 10
16376.687900249119
 20
8522.9720127647688
 30
0.0
 70
              32
  0
VERTEX
  8
____1
 62
               4
 10
16376.275470868743
 20
8523.0111926920472
 30
0.0
 70
              32
  0
SEQEND
  8
____1
 62
               4
  0
POLYLINE
  8
____1
  6
CENTER2
 62
               4
 66
               1
 10
0.0
 20
0.0
 30
0.0
 70
               8
  0
VERTEX
  8
____1
 62
               4
 10
15840.921258316785
 20
8479.6022821438182
 30
0.0
 70
              32
  0
VERTEX
  8
____1
 62
               4
 10
15840.469597837744
 20
8479.4748125853148
 30
0.0
 70
              32
  0
VERTEX
  8
____1
 62
               4
 10
15840.079433455843
 20
8479.2140110673572
 30
0.0
 70
              32
  0
VERTEX
  8
____1
 62
               4
 10
15839.788957179215
 20
8478.8454066596387
 30
0.0
 70
              32
  0
VERTEX
  8
____1
 62
               4
 10
15839.626602849687
 20
8478.4050809298024
 30
0.0
 70
              32
  0
VERTEX
  8
____1
 62
               4
 10
15839.602740471812
 20
8477.9914825165779
 30
0.0
 70
              32
  0
SEQEND
  8
____1
 62
               4
  0
LINE
  8
____1
  6
CENTER2
 62
               4
 10
15844.656920745687
 20
8434.219152137126
 30
0.0
 11
16171.583958097259
 21
8460.7278564444023
 31
0.0
  0
LINE
  8
____1
  6
CENTER2
 62
               4
 10
16171.015058599953
 20
8504.8638734213509
 30
0.0
 11
16202.910379442366
 21
8507.4500884858735
 31
0.0
  0
LINE
  8
____1
  6
CENTER2
 62
               4
 10
16171.580917984686
 20
8460.7653496007497
 30
0.0
 11
16168.267329933278
 21
8501.6312294300769
 31
0.0
  0
LINE
  8
____1
  6
CENTER2
 62
               4
 10
15839.602740471813
 20
8477.9914825165833
 30
0.0
 11
15843.040597506773
 21
8435.5930158751889
 31
0.0
  0
LINE
  8
____1
  6
CENTER2
 62
               4
 10
15840.921258316785
 20
8479.6022821438182
 30
0.0
 11
16107.793129153384
 21
8511.2375598948584
 31
0.0
  0
LINE
  8
____1
  6
CENTER2
 62
               4
 10
16377.836279687433
 20
8521.6338617303281
 30
0.0
 11
16381.274136483209
 21
8479.2353980388234
 31
0.0
  0
LINE
  8
____1
  6
CENTER2
 62
               4
 10
16206.143023433637
 20
8504.7023598191972
 30
0.0
 11
16209.456611485046
 21
8463.8364799898682
 31
0.0
  0
LINE
  8
____1
  6
CENTER2
 62
               4
 10
16206.708882818371
 20
8460.6038359985905
 30
0.0
 11
16174.813561975965
 21
8458.0176209340698
 31
0.0
  0
ARC
  8
____1
  6
CENTER2
 62
               4
 10
16206.466425156072
 20
8463.5940223275684
 30
0.0
 40
2.9999999999987117
 50
-85.36434388732502
 51
4.6356561126805973
210
0.0
220
0.0
230
1.0
  0
LINE
  8
____1
  6
CENTER2
 62
               4
 10
16209.459651597619
 20
8463.7989868335171
 30
0.0
 11
16379.900273583644
 21
8477.6190736846293
 31
0.0
  0
CIRCLE
  8
____1
  6
DOT
 62
               4
 10
16189.46811486492
 20
8475.2583888875342
 30
0.0
 40
5.0000000000003855
  0
CIRCLE
  8
____1
  6
DOT
 62
               4
 10
16189.46811486492
 20
8475.2583888875342
 30
0.0
 40
4.2500000000003313
  0
ENDBLK
  8
0
  0
BLOCK
  8
0
  2
C20
 70
              64
 10
0.0
 20
0.0
  0
INSERT
  8
____1
  6
DASHED2
 62
               4
  2
C21
 10
0.0
 20
0.0
 30
0.0
  0
INSERT
  8
____1
  6
DASHED2
 62
               4
  2
C22
 10
0.0
 20
0.0
 30
0.0
  0
CIRCLE
  8
____1
  6
CENTER2
 62
               4
 10
16363.905151727897
 20
8296.1720755858551
 30
0.0
 40
14.999999999998474
  0
INSERT
  8
____1
  6
DASHED2
 62
               4
  2
C23
 10
0.0
 20
0.0
 30
0.0
  0
ENDBLK
  8
0
  0
BLOCK
  8
0
  2
C21
 70
              64
 10
0.0
 20
0.0
  0
LINE
  8
____1
  6
CENTER2
 62
               4
 10
16357.054725545579
 20
8303.2009442326525
 30
0.0
 11
16366.567117444733
 21
8305.6191530098986
 31
0.0
  0
LINE
  8
____1
  6
CENTER2
 62
               4
 10
16373.417543627045
 20
8298.5902843630975
 30
0.0
 11
16370.755577910213
 21
8289.1432069390539
 31
0.0
  0
LINE
  8
____1
  6
CENTER2
 62
               4
 10
16354.392759828743
 20
8293.7538668086145
 30
0.0
 11
16357.054725545579
 21
8303.2009442326525
 31
0.0
  0
LINE
  8
____1
  6
CENTER2
 62
               4
 10
16361.243186011054
 20
8286.7249981618188
 30
0.0
 11
16354.392759828743
 21
8293.7538668086145
 31
0.0
  0
LINE
  8
____1
  6
CENTER2
 62
               4
 10
16370.755577910213
 20
8289.1432069390539
 30
0.0
 11
16361.243186011054
 21
8286.7249981618188
 31
0.0
  0
LINE
  8
____1
  6
CENTER2
 62
               4
 10
16366.567117444733
 20
8305.6191530098986
 30
0.0
 11
16373.417543627045
 21
8298.5902843630975
 31
0.0
  0
CIRCLE
  8
____1
  6
CENTER2
 62
               4
 10
16363.905151727897
 20
8296.1720755858551
 30
0.0
 40
8.5000000000025082
  0
ENDBLK
  8
0
  0
BLOCK
  8
0
  2
C22
 70
              64
 10
0.0
 20
0.0
  0
LINE
  8
____1
  6
CENTER2
 62
               4
 10
16182.564960933181
 20
8482.235883523932
 30
0.0
 11
16192.077352832332
 21
8484.6540923011817
 31
0.0
  0
LINE
  8
____1
  6
CENTER2
 62
               4
 10
16198.927779014644
 20
8477.6252236543824
 30
0.0
 11
16196.265813297814
 21
8468.178146230337
 31
0.0
  0
LINE
  8
____1
  6
CENTER2
 62
               4
 10
16179.902995216342
 20
8472.7888060998994
 30
0.0
 11
16182.564960933181
 21
8482.235883523932
 31
0.0
  0
LINE
  8
____1
  6
CENTER2
 62
               4
 10
16186.753421398658
 20
8465.7599374530964
 30
0.0
 11
16179.902995216342
 21
8472.7888060998994
 31
0.0
  0
LINE
  8
____1
  6
CENTER2
 62
               4
 10
16196.265813297814
 20
8468.178146230337
 30
0.0
 11
16186.753421398658
 21
8465.7599374530964
 31
0.0
  0
LINE
  8
____1
  6
CENTER2
 62
               4
 10
16192.077352832332
 20
8484.6540923011817
 30
0.0
 11
16198.927779014644
 21
8477.6252236543824
 31
0.0
  0
CIRCLE
  8
____1
  6
CENTER2
 62
               4
 10
16189.415387115498
 20
8475.2070148771345
 30
0.0
 40
8.5000000000039879
  0
ENDBLK
  8
0
  0
BLOCK
  8
0
  2
C23
 70
              64
 10
0.0
 20
0.0
  0
CIRCLE
  8
____1
  6
DOT
 62
               4
 10
16189.415387115498
 20
8475.2070148771345
 30
0.0
 40
5.2500000000033937
  0
CIRCLE
  8
____1
  6
DOT
 62
               4
 10
16363.905151727897
 20
8296.1720755858551
 30
0.0
 40
5.0000000000003855
  0
CIRCLE
  8
____1
  6
DOT
 62
               4
 10
16363.905151727897
 20
8296.1720755858551
 30
0.0
 40
4.2499999999992326
  0
LINE
  8
____1
  6
CENTER2
 62
               4
 10
16372.856915971295
 20
8304.8971348820614
 30
0.0
 11
16198.367105661082
 21
8483.9315054112903
 31
0.0
  0
ARC
  8
____1
  6
CENTER2
 62
               4
 10
16363.905197798573
 20
8296.1726439653321
 30
0.0
 40
12.499999999999373
 50
-135.73647960932959
 51
44.263504656262157
  0
LINE
  8
____1
  6
CENTER2
 62
               4
 10
16354.953482021743
 20
8287.4481505903041
 30
0.0
 11
16180.463668569908
 21
8466.4825243429823
 31
0.0
  0
ARC
  8
____1
  6
CENTER2
 62
               4
 10
16189.415387115498
 20
8475.2070148771345
 30
0.0
 40
12.500000000001737
 50
44.263502016597478
 51
-135.73649537743364
  0
ENDBLK
  8
0
  0
BLOCK
  8
0
  2
C24
 70
              64
 10
0.0
 20
0.0
  0
LINE
  8
____1
  6
DOT
 62
               4
 10
16355.056321118622
 20
8518.4958839843748
 30
0.0
 11
16125.121842193514
 21
8379.38613722433
 31
0.0
  0
ARC
  8
____1
  6
DOT
 62
               4
 10
16379.185982534022
 20
8481.6586290930391
 30
0.0
 40
1.5000000000092393
 50
-56.701426961956862
 51
33.298619953047172
210
0.0
220
0.0
230
1.0
  0
ARC
  8
____1
  6
DOT
 62
               4
 10
16207.809606645082
 20
8367.3420670666783
 30
0.0
 40
3.0000000000015752
 50
-146.70147426855237
 51
-56.701474268495176
210
0.0
220
0.0
230
1.0
  0
ARC
  8
____1
  6
DOT
 62
               4
 10
16212.046840474777
 20
8419.1787900482886
 30
0.0
 40
3.0000000000040945
 50
33.298525731514793
 51
123.29852573131241
  0
ARC
  8
____1
  6
DOT
 62
               4
 10
16185.300552861656
 20
8401.6107480709852
 30
0.0
 40
2.9999999999940186
 50
123.29852573147494
 51
-146.70147426847609
  0
ARC
  8
____1
  6
DOT
 62
               4
 10
15930.349843526405
 20
8186.8449246613491
 30
0.0
 40
1.4999999999979072
 50
-146.70145544329176
 51
-56.701425096582348
210
0.0
220
0.0
230
1.0
  0
ARC
  8
____1
  6
DOT
 62
               4
 10
16355.832775435732
 20
8517.2124827636198
 30
0.0
 40
1.5000000000030906
 50
33.298525731322357
 51
121.17382638136182
  0
ARC
  8
____1
  6
DOT
 62
               4
 10
15906.996636428104
 20
8222.398778331928
 30
0.0
 40
1.500000000008024
 50
125.42322508192858
 51
-146.70147426850514
  0
LINE
  8
____1
  6
DOT
 62
               4
 10
15931.173346570058
 20
8185.5911931362225
 30
0.0
 11
16205.322793528541
 21
8365.6636226968876
 31
0.0
  0
LINE
  8
____1
  6
DOT
 62
               4
 10
16183.653548926286
 20
8404.1182125347095
 30
0.0
 11
16210.399836539409
 21
8421.6862545120257
 31
0.0
  0
LINE
  8
____1
  6
DOT
 62
               4
 10
16205.302142181346
 20
8365.695063131303
 30
0.0
 11
16182.793088397928
 21
8399.9637441356099
 31
0.0
  0
LINE
  8
____1
  6
DOT
 62
               4
 10
15905.74290419624
 20
8221.5752763642413
 30
0.0
 11
15929.09611156511
 21
8186.0214222817285
 31
0.0
  0
LINE
  8
____1
  6
DOT
 62
               4
 10
15906.127219117836
 20
8223.6211177040459
 30
0.0
 11
16125.121842193514
 21
8379.38613722433
 31
0.0
  0
LINE
  8
____1
  6
DOT
 62
               4
 10
16357.086507667602
 20
8518.0359847313048
 30
0.0
 11
16380.439713411663
 21
8482.482133122463
 31
0.0
  0
LINE
  8
____1
  6
DOT
 62
               4
 10
16214.554304938509
 20
8420.8257939836658
 30
0.0
 11
16237.063358721922
 21
8386.5571129793607
 31
0.0
  0
LINE
  8
____1
  6
DOT
 62
               4
 10
16236.202898193569
 20
8382.4026445802574
 30
0.0
 11
16209.456610580457
 21
8364.8346026029485
 31
0.0
  0
ARC
  8
____1
  6
DOT
 62
               4
 10
16234.555894258194
 20
8384.9101090439872
 30
0.0
 40
2.9999999999990563
 50
-56.701474268495176
 51
33.298525731494863
210
0.0
220
0.0
230
1.0
  0
LINE
  8
____1
  6
DOT
 62
               4
 10
16237.08401006912
 20
8386.5256725449417
 30
0.0
 11
16380.009485536853
 21
8480.4048975410969
 31
0.0
  0
CIRCLE
  8
____1
  6
DOT
 62
               4
 10
16214.045733398369
 20
8386.9917673981654
 30
0.0
 40
5.0000000000001066
  0
CIRCLE
  8
____1
  6
DOT
 62
               4
 10
16214.045733398369
 20
8386.9917673981654
 30
0.0
 40
4.2500000000002132
  0
ENDBLK
  8
0
  0
BLOCK
  8
0
  2
C25
 70
              64
 10
0.0
 20
0.0
  0
INSERT
  8
____1
  6
DASHED2
 62
               4
  2
C26
 10
0.0
 20
0.0
 30
0.0
  0
INSERT
  8
____1
  6
DASHED2
 62
               4
  2
C27
 10
0.0
 20
0.0
 30
0.0
  0
ENDBLK
  8
0
  0
BLOCK
  8
0
  2
C26
 70
              64
 10
0.0
 20
0.0
  0
CIRCLE
  8
____1
  6
DOT
 62
               4
 10
16362.002767719419
 20
8185.4757233844994
 30
0.0
 40
14.999999999997623
  0
LINE
  8
____1
  6
DOT
 62
               4
 10
16356.194015033247
 20
8193.3872166420479
 30
0.0
 11
16365.949945519244
 21
8194.4619974038014
 31
0.0
  0
LINE
  8
____1
  6
DOT
 62
               4
 10
16371.758698205407
 20
8186.5505041462484
 30
0.0
 11
16367.811520405585
 21
8177.5642301269472
 31
0.0
  0
LINE
  8
____1
  6
DOT
 62
               4
 10
16352.246837233428
 20
8184.4009426227421
 30
0.0
 11
16356.194015033247
 21
8193.3872166420479
 31
0.0
  0
LINE
  8
____1
  6
DOT
 62
               4
 10
16358.05558991959
 20
8176.4894493651946
 30
0.0
 11
16352.246837233428
 21
8184.4009426227421
 31
0.0
  0
LINE
  8
____1
  6
DOT
 62
               4
 10
16367.811520405585
 20
8177.5642301269472
 30
0.0
 11
16358.05558991959
 21
8176.4894493651946
 31
0.0
  0
LINE
  8
____1
  6
DOT
 62
               4
 10
16365.949945519244
 20
8194.4619974038014
 30
0.0
 11
16371.758698205407
 21
8186.5505041462484
 31
0.0
  0
CIRCLE
  8
____1
  6
DOT
 62
               4
 10
16362.002767719419
 20
8185.4757233844994
 30
0.0
 40
8.4999999999986926
  0
ENDBLK
  8
0
  0
BLOCK
  8
0
  2
C27
 70
              64
 10
0.0
 20
0.0
  0
CIRCLE
  8
____1
  6
DOT
 62
               4
 10
16214.045733398369
 20
8386.9917673981654
 30
0.0
 40
5.2500000000011111
  0
CIRCLE
  8
____1
  6
DOT
 62
               4
 10
16362.002643220681
 20
8185.4751668974786
 30
0.0
 40
4.9999999999978595
  0
CIRCLE
  8
____1
  6
DOT
 62
               4
 10
16362.002643220681
 20
8185.4751668974786
 30
0.0
 40
4.2499999999978542
  0
LINE
  8
____1
  6
DOT
 62
               4
 10
16372.078569603937
 20
8192.87357553117
 30
0.0
 11
16224.121535599053
 21
8394.3896191142194
 31
0.0
  0
ARC
  8
____1
  6
DOT
 62
               4
 10
16362.002767719419
 20
8185.4757233844994
 30
0.0
 40
12.500000000001084
 50
-143.71313584590433
 51
36.286848419649857
  0
LINE
  8
____1
  6
DOT
 62
               4
 10
16351.92696786648
 20
8178.0778684708339
 30
0.0
 11
16203.969931197682
 21
8379.593915682115
 31
0.0
  0
ARC
  8
____1
  6
DOT
 62
               4
 10
16214.045733398369
 20
8386.9917673981654
 30
0.0
 40
12.50000000000141
 50
36.286845779975522
 51
-143.71315161403228
  0
ENDBLK
  8
0
  0
BLOCK
  8
0
  2
C28
 70
              64
 10
0.0
 20
0.0
  0
INSERT
  8
____1
  6
DASHED2
 62
               4
  2
C29
 10
0.0
 20
0.0
 30
0.0
  0
INSERT
  8
____1
  6
DASHED2
 62
               4
  2
C30
 10
0.0
 20
0.0
 30
0.0
  0
ENDBLK
  8
0
  0
BLOCK
  8
0
  2
C29
 70
              64
 10
0.0
 20
0.0
  0
CIRCLE
  8
____1
  6
DOT
 62
               4
 10
16362.002945958644
 20
8075.4756501442798
 30
0.0
 40
14.999999999998588
  0
LINE
  8
____1
  6
DOT
 62
               4
 10
16359.16091671615
 20
8084.8701274111718
 30
0.0
 11
16368.717787305804
 21
8082.634158300023
 31
0.0
  0
LINE
  8
____1
  6
DOT
 62
               4
 10
16371.559816548288
 20
8073.2396810331302
 30
0.0
 11
16364.844975201127
 21
8066.0811728773861
 31
0.0
  0
LINE
  8
____1
  6
DOT
 62
               4
 10
16352.446075368991
 20
8077.7116192554231
 30
0.0
 11
16359.16091671615
 21
8084.8701274111718
 31
0.0
  0
LINE
  8
____1
  6
DOT
 62
               4
 10
16355.288104611474
 20
8068.3171419885348
 30
0.0
 11
16352.446075368991
 21
8077.7116192554231
 31
0.0
  0
LINE
  8
____1
  6
DOT
 62
               4
 10
16364.844975201127
 20
8066.0811728773861
 30
0.0
 11
16355.288104611474
 21
8068.3171419885348
 31
0.0
  0
LINE
  8
____1
  6
DOT
 62
               4
 10
16368.717787305804
 20
8082.634158300023
 30
0.0
 11
16371.559816548288
 21
8073.2396810331302
 31
0.0
  0
CIRCLE
  8
____1
  6
DOT
 62
               4
 10
16362.002945958644
 20
8075.4756501442798
 30
0.0
 40
8.4999999999987512
  0
ENDBLK
  8
0
  0
BLOCK
  8
0
  2
C30
 70
              64
 10
0.0
 20
0.0
  0
CIRCLE
  8
____1
  6
DOT
 62
               4
 10
16289.612254601619
 20
8314.7654071437173
 30
0.0
 40
5.2500000000007194
  0
CIRCLE
  8
____1
  6
DOT
 62
               4
 10
16362.002643220685
 20
8075.4751668974804
 30
0.0
 40
4.9999999999982885
  0
CIRCLE
  8
____1
  6
DOT
 62
               4
 10
16362.002643220685
 20
8075.4751668974804
 30
0.0
 40
4.249999999996426
  0
LINE
  8
____1
  6
DOT
 62
               4
 10
16373.967433653925
 20
8079.0951852234666
 30
0.0
 11
16301.576742451593
 21
8318.3849417115707
 31
0.0
  0
ARC
  8
____1
  6
DOT
 62
               4
 10
16362.002945958644
 20
8075.4756501442798
 30
0.0
 40
12.500000000003395
 50
-163.16820057516048
 51
16.831783690394136
  0
LINE
  8
____1
  6
DOT
 62
               4
 10
16350.038459257345
 20
8071.8561117794325
 30
0.0
 11
16277.647766751643
 21
8311.1458725758712
 31
0.0
  0
ARC
  8
____1
  6
DOT
 62
               4
 10
16289.612254601619
 20
8314.7654071437173
 30
0.0
 40
12.500000000001288
 50
16.831781050727464
 51
-163.16821634329503
  0
ENDBLK
  8
0
  0
BLOCK
  8
0
  2
C31
 70
              64
 10
0.0
 20
0.0
  0
LINE
  8
____1
  6
DOT
 62
               4
 10
16336.880969893109
 20
8501.6959287074096
 30
0.0
 11
16218.992662690436
 21
8260.1928577805738
 31
0.0
  0
ARC
  8
____1
  6
DOT
 62
               4
 10
16377.120826624663
 20
8483.8080043399823
 30
0.0
 40
1.5000000000086002
 50
-23.894298713522335
 51
66.105748201295668
210
0.0
220
0.0
230
1.0
  0
ARC
  8
____1
  6
DOT
 62
               4
 10
16295.017293913579
 20
8294.8711141286913
 30
0.0
 40
3.000000000000048
 50
-113.89434602021599
 51
-23.894346020145214
210
0.0
220
0.0
230
1.0
  0
ARC
  8
____1
  6
DOT
 62
               4
 10
16270.492886470647
 20
8340.7356258951204
 30
0.0
 40
3.000000000005774
 50
66.105653979865238
 51
156.10565397963609
  0
ARC
  8
____1
  6
DOT
 62
               4
 10
16257.531242767875
 20
8311.4782201228663
 30
0.0
 40
2.9999999999926588
 50
156.10565397983027
 51
-113.89434602011346
  0
ARC
  8
____1
  6
DOT
 62
               4
 10
16159.608243237564
 20
7992.8321637243062
 30
0.0
 40
1.4999999999946134
 50
-113.89432719493423
 51
-23.894296848241915
210
0.0
220
0.0
230
1.0
  0
ARC
  8
____1
  6
DOT
 62
               4
 10
16338.228942313319
 20
8501.0379238788955
 30
0.0
 40
1.5000000000018661
 50
66.105653979695973
 51
153.98095462978193
  0
ARC
  8
____1
  6
DOT
 62
               4
 10
16120.716358926205
 20
8010.062083263213
 30
0.0
 40
1.5000000000069926
 50
158.23035333027525
 51
-113.89434602003585
  0
LINE
  8
____1
  6
DOT
 62
               4
 10
16160.979684654567
 20
7992.2245878527256
 30
0.0
 11
16293.836532086529
 21
8292.1129958413694
 31
0.0
  0
LINE
  8
____1
  6
DOT
 62
               4
 10
16254.788360976732
 20
8312.6933742199981
 30
0.0
 11
16267.750004679501
 21
8341.9507799922649
 31
0.0
  0
LINE
  8
____1
  6
DOT
 62
               4
 10
16293.802139816438
 20
8292.1282323375344
 30
0.0
 11
16256.316088670743
 21
8308.7353383317168
 31
0.0
  0
LINE
  8
____1
  6
DOT
 62
               4
 10
16120.108781877641
 20
8008.6906423676373
 30
0.0
 11
16159.000666639602
 21
7991.4607226291009
 31
0.0
  0
LINE
  8
____1
  6
DOT
 62
               4
 10
16119.323335274497
 20
8010.6183971186965
 30
0.0
 11
16218.992662690436
 21
8260.1928577805738
 31
0.0
  0
LINE
  8
____1
  6
DOT
 62
               4
 10
16338.83651936189
 20
8502.4093647744703
 30
0.0
 11
16377.728401417933
 21
8485.1794462347079
 31
0.0
  0
LINE
  8
____1
  6
DOT
 62
               4
 10
16271.708040567783
 20
8343.4785076862754
 30
0.0
 11
16309.194091713476
 21
8326.8714016920949
 31
0.0
  0
LINE
  8
____1
  6
DOT
 62
               4
 10
16310.721819407494
 20
8322.9133658038118
 30
0.0
 11
16297.760175704729
 21
8293.6559600315577
 31
0.0
  0
ARC
  8
____1
  6
DOT
 62
               4
 10
16307.978937616343
 20
8324.1285199009453
 30
0.0
 40
3.000000000000048
 50
-23.894346020131142
 51
66.105653979854793
210
0.0
220
0.0
230
1.0
  0
LINE
  8
____1
  6
DOT
 62
               4
 10
16309.228483983565
 20
8326.8561651959262
 30
0.0
 11
16378.492268021888
 21
8483.2004284237446
 31
0.0
  0
CIRCLE
  8
____1
  6
DOT
 62
               4
 10
16289.612294669989
 20
8314.7654847690792
 30
0.0
 40
4.9999999999992184
  0
CIRCLE
  8
____1
  6
DOT
 62
               4
 10
16289.612294669989
 20
8314.7654847690792
 30
0.0
 40
4.249999999999214
  0
ENDBLK
  8
0
  0
BLOCK
  8
0
  2
C32
 70
              64
 10
0.0
 20
0.0
  0
INSERT
  8
____1
  6
DASHED2
 62
               7
  2
C33
 10
0.0
 20
0.0
 30
0.0
  0
INSERT
  8
____1
  6
DASHED2
 62
               7
  2
C34
 10
0.0
 20
0.0
 30
0.0
  0
INSERT
  8
____1
  6
DOT
 62
               7
  2
C35
 10
0.0
 20
0.0
 30
0.0
  0
INSERT
  8
____1
  6
DASHED2
 62
             254
  2
C36
 10
0.0
 20
0.0
 30
0.0
  0
ENDBLK
  8
0
  0
BLOCK
  8
0
  2
C33
 70
              64
 10
0.0
 20
0.0
  0
CIRCLE
  8
____1
  6
DOT
 62
               7
 10
16363.80591347771
 20
8294.4579236754271
 30
0.0
 40
6.4999999999997913
  0
CIRCLE
  8
____1
  6
DOT
 62
               7
 10
16363.80591347771
 20
8294.4579236754271
 30
0.0
 40
4.99999999999942
  0
LINE
  8
____1
  6
DASHED2
 62
               7
 10
16334.332205393173
 20
8278.4095427057619
 30
0.0
 11
16334.279700979341
 21
8310.4094996320855
 31
0.0
  0
ARC
  8
____1
  6
DASHED2
 62
               7
 10
16376.779643772115
 20
8310.4792320567085
 30
0.0
 40
2.999999999997105
 50
0.0940088333919921
 51
90.094008833391882
  0
ARC
  8
____1
  6
DASHED2
 62
               7
 10
16335.779698960261
 20
8310.4119607764842
 30
0.0
 40
3.000000000000743
 50
90.094008833391882
 51
-179.90599116664279
  0
ARC
  8
____1
  6
DASHED2
 62
               7
 10
16376.832148185948
 20
8278.4792751303848
 30
0.0
 40
2.999999999997105
 50
-89.905991166608075
 51
0.0940088333919921
210
0.0
220
0.0
230
1.0
  0
LINE
  8
____1
  6
DASHED2
 62
               7
 10
16376.837070474745
 20
8275.4792791685431
 30
0.0
 11
16335.837125662891
 21
8275.4120078883188
 31
0.0
  0
LINE
  8
____1
  6
DASHED2
 62
               7
 10
16379.779639733955
 20
8310.4841543455059
 30
0.0
 11
16379.832144147787
 21
8278.4841974191822
 31
0.0
  0
LINE
  8
____1
  6
DASHED2
 62
               7
 10
16335.774776671464
 20
8313.4119567383277
 30
0.0
 11
16376.774721483318
 21
8313.479228018552
 31
0.0
  0
LINE
  8
____1
  6
DASHED2
 62
               7
 10
16332.832207412252
 20
8278.407081561365
 30
0.0
 11
16332.779702998419
 21
8310.4070384876886
 31
0.0
  0
ARC
  8
____1
  6
DASHED2
 62
               7
 10
16335.832203374093
 20
8278.4120038501605
 30
0.0
 40
2.9999999999989209
 50
-179.90599116664279
 51
-89.905991166608075
  0
ARC
  8
____1
  6
DASHED2
 62
               7
 10
16335.779698960261
 20
8310.4119607764842
 30
0.0
 40
1.5000000000003715
 50
90.094008833391882
 51
-179.90599116660803
  0
ARC
  8
____1
  6
DASHED2
 62
               7
 10
16335.832203374093
 20
8278.4120038501605
 30
0.0
 40
1.4999999999985525
 50
-179.90599116660803
 51
-89.905991166608004
210
0.0
220
0.0
230
1.0
  0
LINE
  8
____1
  6
DASHED2
 62
               7
 10
16335.777237815862
 20
8311.911958757406
 30
0.0
 11
16376.777182627717
 21
8311.9792300376303
 31
0.0
  0
LINE
  8
____1
  6
DASHED2
 62
               7
 10
16376.834609330346
 20
8276.9792771494649
 30
0.0
 11
16335.834664518492
 21
8276.9120058692406
 31
0.0
  0
LINE
  8
____1
  6
DASHED2
 62
               7
 10
16378.279641753037
 20
8310.4816932011072
 30
0.0
 11
16378.332146166869
 21
8278.4817362747835
 31
0.0
  0
ARC
  8
____1
  6
DASHED2
 62
               7
 10
16376.779643772115
 20
8310.4792320567085
 30
0.0
 40
1.5000000000003715
 50
0.0940088333918781
 51
90.094008833391882
  0
ARC
  8
____1
  6
DASHED2
 62
               7
 10
16376.832148185948
 20
8278.4792751303848
 30
0.0
 40
1.5000000000003715
 50
-89.905991166608004
 51
0.0940088333918781
210
0.0
220
0.0
230
1.0
  0
LINE
  8
______
  6
DOT
 62
               7
 10
16363.817398818237
 20
8287.457933097794
 30
0.0
 11
16363.794428137186
 21
8301.4579142530602
 31
0.0
  0
LINE
  8
______
  6
DOT
 62
               7
 10
16370.805904055343
 20
8294.4694090159537
 30
0.0
 11
16356.805922900077
 21
8294.4464383349004
 31
0.0
  0
ENDBLK
  8
0
  0
BLOCK
  8
0
  2
C34
 70
              64
 10
0.0
 20
0.0
  0
LINE
  8
____1
  6
DASHED2
 62
               7
 10
16333.254703867329
 20
8020.9074281698558
 30
0.0
 11
16333.278494929851
 21
8006.4074476876158
 31
0.0
  0
LINE
  8
____1
  6
DASHED2
 62
               7
 10
16335.254701175225
 20
8020.9107096957205
 30
0.0
 11
16333.254703867329
 21
8020.9074281698558
 31
0.0
  0
LINE
  8
____1
  6
DASHED2
 62
               7
 10
16333.320334384614
 20
7980.9074820119549
 30
0.0
 11
16335.320331692514
 21
7980.9107635378177
 31
0.0
  0
LINE
  8
____1
  6
DASHED2
 62
               7
 10
16333.296543322103
 20
7995.4074624941932
 30
0.0
 11
16333.320334384614
 21
7980.9074820119549
 31
0.0
  0
LINE
  8
____1
  6
DASHED2
 62
               7
 10
16333.312130569961
 20
7985.9074752816923
 30
0.0
 11
16341.939041070513
 21
7985.9216300157132
 31
0.0
  0
LINE
  8
____1
  6
DASHED2
 62
               7
 10
16341.889818182539
 20
8015.9215896341457
 30
0.0
 11
16333.26290768199
 21
8015.9074349001212
 31
0.0
  0
LINE
  8
____1
  6
DASHED2
 62
               7
 10
16333.296543322103
 20
7995.4074624941932
 30
0.0
 11
16341.923453822659
 21
7995.4216172282149
 31
0.0
  0
LINE
  8
____1
  6
DASHED2
 62
               7
 10
16333.278494929851
 20
8006.4074476876158
 30
0.0
 11
16341.905405430407
 21
8006.4216024216412
 31
0.0
  0
LINE
  8
____1
  6
DASHED2
 62
               7
 10
16335.312127877856
 20
7985.910756807556
 30
0.0
 11
16335.320331692514
 21
7980.9107635378177
 31
0.0
  0
LINE
  8
____1
  6
DASHED2
 62
               7
 10
16335.254701175225
 20
8020.9107096957205
 30
0.0
 11
16335.262904989886
 21
8015.910716425984
 31
0.0
  0
ARC
  8
____1
  6
DASHED2
 62
               7
 10
16341.914429626528
 20
8000.9216098249281
 30
0.0
 40
5.5000000000013669
 50
-89.905991166576541
 51
90.094008833309772
  0
ARC
  8
____1
  6
DASHED2
 62
               7
 10
16341.914429626528
 20
8000.9216098249281
 30
0.0
 40
15.000000000000982
 50
-89.905991166615053
 51
90.094008833398831
  0
LINE
  8
____1
  6
DASHED2
 62
               7
 10
16335.262904989886
 20
8015.910716425984
 30
0.0
 11
16335.27849223774
 21
8006.410729213484
 31
0.0
  0
LINE
  8
____1
  6
DASHED2
 62
               7
 10
16335.296540629999
 20
7995.4107440200578
 30
0.0
 11
16335.312127877856
 21
7985.910756807556
 31
0.0
  0
ENDBLK
  8
0
  0
BLOCK
  8
0
  2
C35
 70
              64
 10
0.0
 20
0.0
  0
LINE
  8
____1
  6
DASHED
 62
               7
 10
16374.497435239886
 20
8482.4757190098298
 30
0.0
 11
16332.497491774078
 21
8482.40680696667
 31
0.0
  0
ARC
  8
____1
  6
DASHED
 62
               7
 10
16374.502767719416
 20
8479.2257233844975
 30
0.0
 40
3.2500000000026228
 50
145.90638149626884
 51
90.094008833381139
210
0.0
220
0.0
230
1.0
  0
ARC
  8
____1
  6
DASHED
 62
               7
 10
16374.502767719416
 20
8479.2257233844975
 30
0.0
 40
5.2499999999976739
 50
145.9063814962899
 51
90.094008833471349
210
0.0
220
0.0
230
1.0
  0
LINE
  8
____1
  6
DASHED
 62
               7
 10
16371.811368709095
 20
8481.0475003651682
 30
0.0
 11
16370.155123164288
 21
8482.168593891729
 31
0.0
  0
LINE
  8
____1
  6
DASHED
 62
               7
 10
16332.497491774078
 20
8482.40680696667
 30
0.0
 11
16332.494210248216
 21
8484.4068042745675
 31
0.0
  0
LINE
  8
____1
  6
DASHED
 62
               7
 10
16374.494153714013
 20
8484.4757163177201
 30
0.0
 11
16332.494210248216
 21
8484.4068042745675
 31
0.0
  0
LINE
  8
____1
  6
DASHED
 62
               7
 10
16368.497443316195
 20
8482.4658744322332
 30
0.0
 11
16368.49416179033
 21
8484.4658717401271
 31
0.0
  0
ENDBLK
  8
0
  0
BLOCK
  8
0
  2
C36
 70
              64
 10
0.0
 20
0.0
  0
ARC
  8
____1
  6
DASHED2
 62
               7
 10
16375.03176919772
 20
8484.4765984184687
 30
0.0
 40
1.5000000000003684
 50
-89.906136692827431
 51
0.0940088333223979
210
0.0
220
0.0
230
1.0
  0
ARC
  8
____1
  6
CONTINUOUS
 62
               5
 10
16375.03176919772
 20
8484.4765984184687
 30
0.0
 40
1.4999999999988105
 50
0.0940088333223979
 51
90.09410305509752
210
0.0
220
0.0
230
1.0
  0
LINE
  8
____1
  6
DASHED2
 62
               7
 10
16332.494210248216
 20
8484.4068042745675
 30
0.0
 11
16375.031765387857
 21
8484.4765984122168
 31
0.0
  0
LINE
  8
____1
  6
DASHED2
 62
               7
 10
16375.034226532256
 20
8482.9766004313005
 30
0.0
 11
16366.534241783551
 21
8482.9626539526271
 31
0.0
  0
LINE
  8
____1
  6
DASHED2
 62
               7
 10
16367.161605110685
 20
8100.6024297485428
 30
0.0
 11
16366.531780639152
 21
8484.4626519335434
 31
0.0
  0
ARC
  8
____1
  6
DASHED2
 62
               7
 10
16375.912858892358
 20
7947.4773212486107
 30
0.0
 40
1.499999999997643
 50
0.0940088331139573
 51
90.094008833392053
210
0.0
220
0.0
230
1.0
  0
ARC
  8
____1
  6
CONTINUOUS
 62
               5
 10
16375.912858892358
 20
7947.4773212486107
 30
0.0
 40
1.5000000000003715
 50
-89.905972341109958
 51
0.0940088333918781
210
0.0
220
0.0
230
1.0
  0
LINE
  8
____1
  6
DOT
 62
               7
 10
16332.494210248216
 20
8484.4068042745675
 30
0.0
 11
16333.375299942854
 21
7947.4075271047086
 31
0.0
  0
ARC
  8
____1
  6
CONTINUOUS
 62
               5
 10
16333.375299942854
 20
7947.4075271047086
 30
0.0
 40
1.5000000000040188
 50
-177.78129181601028
 51
-89.905991166677893
  0
LINE
  8
____1
  6
DASHED2
 62
               7
 10
16333.375299942854
 20
7947.4075271047086
 30
0.0
 11
16375.912858892358
 21
7947.4773212486107
 31
0.0
  0
LINE
  8
____1
  6
DASHED2
 62
               7
 10
16333.375299942854
 20
7947.4075271047086
 30
0.0
 11
16322.971262225034
 21
8215.9464297638497
 31
0.0
  0
LINE
  8
____1
  6
DASHED2
 62
               7
 10
16367.410409189399
 20
7948.9633727446062
 30
0.0
 11
16367.412870333805
 21
7947.4633747636844
 31
0.0
  0
LINE
  8
____1
  6
DASHED2
 62
               7
 10
16367.410409189406
 20
7948.9633727446062
 30
0.0
 11
16367.193236595353
 21
8081.3239334617838
 31
0.0
  0
LINE
  8
____1
  6
CONTINUOUS
 62
               5
 10
16377.412918169344
 20
7947.4424241766583
 30
0.0
 11
16376.531767173234
 21
8484.4790628596184
 31
0.0
  0
ARC
  8
____1
  6
CONTINUOUS
 62
               5
 10
16332.494210248216
 20
8484.4068042745675
 30
0.0
 40
1.5000000000003744
 50
90.094008833461373
 51
177.96930948287741
  0
LINE
  8
____1
  6
CONTINUOUS
 62
               5
 10
16330.995152263649
 20
8484.4599564984765
 30
0.0
 11
16321.472386731866
 21
8215.8883586351931
 31
0.0
  0
LINE
  8
____1
  6
DASHED2
 62
               7
 10
16332.494210248216
 20
8484.4068042745675
 30
0.0
 11
16322.971444716433
 21
8215.835206411286
 31
0.0
  0
LINE
  8
____1
  6
CONTINUOUS
 62
               5
 10
16332.491749103816
 20
8485.9068022554893
 30
0.0
 11
16375.029305586606
 21
8485.9765963953396
 31
0.0
  0
LINE
  8
____1
  6
CONTINUOUS
 62
               5
 10
16331.876424449683
 20
7947.349455976052
 30
0.0
 11
16321.472386731866
 21
8215.8883586351931
 31
0.0
  0
LINE
  8
____1
  6
CONTINUOUS
 62
               5
 10
16333.377761087251
 20
7945.9075291237823
 30
0.0
 11
16375.915320529599
 21
7945.9773232684965
 31
0.0
  0
LINE
  8
____1
  6
DASHED2
 62
               7
 10
16367.410409189406
 20
7948.9633727446062
 30
0.0
 11
16375.910397747959
 21
7948.9773192295297
 31
0.0
  0
ENDBLK
  8
0
  0
BLOCK
  8
0
  2
C37
 70
              64
 10
0.0
 20
0.0
  0
LINE
  8
____1
  6
DASHED2
 62
               7
 10
16369.629136372103
 20
8097.4672130438748
 30
0.0
 11
16368.129138391185
 21
8097.4647518994771
 31
0.0
  0
LINE
  8
____1
  6
DASHED2
 62
               7
 10
16374.138974892459
 20
8091.4746045533839
 30
0.0
 11
16376.638971527329
 21
8091.478706460719
 31
0.0
  0
LINE
  8
____1
  6
DASHED2
 62
               7
 10
16374.119285737279
 20
8103.4745884007561
 30
0.0
 11
16376.619282372149
 21
8103.4786903080894
 31
0.0
  0
LINE
  8
____1
  6
DASHED2
 62
               7
 10
16333.104574059025
 20
8112.4073050060624
 30
0.0
 11
16333.153796946997
 21
8082.4073453876372
 31
0.0
  0
LINE
  8
____1
  6
DASHED2
 62
               7
 10
16334.604572039947
 20
8112.409766150462
 30
0.0
 11
16376.871329021707
 21
8105.1937854112248
 31
0.0
  0
LINE
  8
____1
  6
DASHED2
 62
               7
 10
16368.129138391185
 20
8097.4647518994771
 30
0.0
 11
16368.131599535584
 21
8095.9647539185571
 31
0.0
  0
ARC
  8
____1
  6
DASHED2
 62
               7
 10
16374.131591459263
 20
8095.9745984961501
 30
0.0
 40
4.4999999999974793
 50
-179.9059911665849
 51
-89.905991166608146
  0
ARC
  8
____1
  6
DASHED2
 62
               7
 10
16374.126669170466
 20
8098.9745944579936
 30
0.0
 40
4.4999999999983702
 50
90.094008833276135
 51
-179.90599116658495
  0
LINE
  8
____1
  6
DASHED2
 62
               7
 10
16368.126677246786
 20
8098.9647498804006
 30
0.0
 11
16368.129138391185
 21
8097.4647518994771
 31
0.0
  0
LINE
  8
____1
  6
DASHED2
 62
               7
 10
16374.141436036858
 20
8089.9746065724648
 30
0.0
 11
16376.641432671728
 21
8089.9787084797936
 31
0.0
  0
LINE
  8
____1
  6
DASHED2
 62
               7
 10
16376.896644941186
 20
8089.7644476884916
 30
0.0
 11
16334.653794927915
 21
8082.4098065320359
 31
0.0
  0
LINE
  8
____1
  6
DASHED2
 62
               7
 10
16334.653794927915
 20
8082.4098065320359
 30
0.0
 11
16333.153796946997
 21
8082.4073453876372
 31
0.0
  0
LINE
  8
____1
  6
DASHED2
 62
               7
 10
16334.604572039947
 20
8112.409766150462
 30
0.0
 11
16334.653794927915
 21
8082.4098065320359
 31
0.0
  0
POLYLINE
  8
____1
  6
DASHED2
 62
               7
 66
               1
 10
0.0
 20
0.0
 30
0.0
 70
               8
  0
VERTEX
  8
____1
 62
               7
 10
16376.641432671728
 20
8089.9787084797972
 30
0.0
 70
              32
  0
VERTEX
  8
____1
 62
               7
 10
16377.104837082379
 20
8090.0528841419791
 30
0.0
 70
              32
  0
VERTEX
  8
____1
 62
               7
 10
16377.522639326626
 20
8090.266629227006
 30
0.0
 70
              32
  0
VERTEX
  8
____1
 62
               7
 10
16377.853942009804
 20
8090.5990208767089
 30
0.0
 70
              32
  0
VERTEX
  8
____1
 62
               7
 10
16378.066314916958
 20
8091.0175222805037
 30
0.0
 70
              32
  0
VERTEX
  8
____1
 62
               7
 10
16378.138969508249
 20
8091.4811676051168
 30
0.0
 70
              32
  0
SEQEND
  8
____1
 62
               7
  0
ARC
  8
____1
  6
DASHED2
 62
               7
 10
16376.639359549832
 20
8091.2422177069302
 30
0.0
 40
1.500000000000367
 50
-80.1235841346694
 51
0.0940088332876578
210
0.0
220
0.0
230
1.0
  0
LINE
  8
____1
  6
DASHED2
 62
               7
 10
16378.11889233056
 20
8103.7176402062723
 30
0.0
 11
16378.139357530754
 21
8091.2446788513262
 31
0.0
  0
LINE
  8
____1
  6
DASHED2
 62
               7
 10
16376.639359549832
 20
8091.2422177069302
 30
0.0
 11
16334.396509536562
 21
8083.8875765504717
 31
0.0
  0
LINE
  8
____1
  6
DASHED2
 62
               7
 10
16376.618894349638
 20
8103.7151790618764
 30
0.0
 11
16376.639359549832
 21
8091.2422177069302
 31
0.0
  0
ARC
  8
____1
  6
DASHED2
 62
               7
 10
16376.618894349638
 20
8103.7151790618727
 30
0.0
 40
1.5000000000003728
 50
0.0940088334266182
 51
80.311601801319242
  0
LINE
  8
____1
  6
DASHED2
 62
               7
 10
16334.604572039947
 20
8112.409766150462
 30
0.0
 11
16333.104574059025
 21
8112.4073050060624
 31
0.0
  0
LINE
  8
____1
  6
DASHED2
 62
               7
 10
16334.352137367885
 20
8110.9311598011118
 30
0.0
 11
16376.618894349638
 21
8103.7151790618764
 31
0.0
  0
LINE
  8
____1
  6
DASHED2
 62
               7
 10
16374.11682459288
 20
8104.974586381677
 30
0.0
 11
16376.61682122775
 21
8104.9786882890076
 31
0.0
  0
POLYLINE
  8
____1
  6
DASHED2
 62
               7
 66
               1
 10
0.0
 20
0.0
 30
0.0
 70
               8
  0
VERTEX
  8
____1
 62
               7
 10
16376.616821227743
 20
8104.9786882890103
 30
0.0
 70
              32
  0
VERTEX
  8
____1
 62
               7
 10
16377.080466552356
 20
8104.9060336977182
 30
0.0
 70
              32
  0
VERTEX
  8
____1
 62
               7
 10
16377.498967956149
 20
8104.6936607905636
 30
0.0
 70
              32
  0
VERTEX
  8
____1
 62
               7
 10
16377.831359605852
 20
8104.3623581073871
 30
0.0
 70
              32
  0
VERTEX
  8
____1
 62
               7
 10
16378.04510469088
 20
8103.9445558631396
 30
0.0
 70
              32
  0
VERTEX
  8
____1
 62
               7
 10
16378.119280353061
 20
8103.4811514524899
 30
0.0
 70
              32
  0
SEQEND
  8
____1
 62
               7
  0
LINE
  8
____1
  6
DASHED2
 62
               7
 10
16369.629136372103
 20
8097.4672130438748
 30
0.0
 11
16369.631597516502
 21
8095.9672150629522
 31
0.0
  0
ARC
  8
____1
  6
DASHED2
 62
               7
 10
16374.131591459263
 20
8095.9745984961501
 30
0.0
 40
5.9999999999942064
 50
-179.90599116662537
 51
-89.905991166608089
  0
ARC
  8
____1
  6
DASHED2
 62
               7
 10
16374.126669170466
 20
8098.9745944579936
 30
0.0
 40
5.9999999999978328
 50
90.094008833305082
 51
-179.90599116662537
  0
ENDBLK
  8
0
  0
BLOCK
  8
0
  2
C38
 70
              64
 10
0.0
 20
0.0
  0
LINE
  8
____1
  6
CONTINUOUS
 62
               7
 10
16197.312500000002
 20
7365.9025000000001
 30
0.0
 11
16197.312500000002
 21
7405.9025000000001
 31
0.0
  0
LINE
  8
____1
  6
CONTINUOUS
 62
               7
 10
15725.312500000002
 20
7365.9025000000001
 30
0.0
 11
15725.312500000002
 21
7405.9025000000001
 31
0.0
  0
LINE
  8
____1
  6
CONTINUOUS
 62
               7
 10
15797.312500000002
 20
7365.9025000000001
 30
0.0
 11
15797.312500000002
 21
7405.9025000000001
 31
0.0
  0
LINE
  8
____1
  6
CONTINUOUS
 62
               7
 10
16637.312500000007
 20
7365.9025000000001
 30
0.0
 11
16637.312500000007
 21
7405.9025000000001
 31
0.0
  0
LINE
  8
____1
  6
CONTINUOUS
 62
               7
 10
16565.3125
 20
7365.9025000000001
 30
0.0
 11
16565.3125
 21
7405.9025000000001
 31
0.0
  0
LINE
  8
____1
  6
CONTINUOUS
 62
               7
 10
16885.3125
 20
7405.9025000000001
 30
0.0
 11
15725.312500000002
 21
7405.9025000000001
 31
0.0
  0
ENDBLK
  8
0
  0
BLOCK
  8
0
  2
C39
 70
              64
 10
0.0
 20
0.0
  0
LINE
  8
____1
  6
CONTINUOUS
 62
               7
 10
16197.312500000002
 20
7405.9025000000001
 30
0.0
 11
16197.312500000002
 21
7445.9025000000001
 31
0.0
  0
LINE
  8
____1
  6
CONTINUOUS
 62
               7
 10
15725.312500000002
 20
7405.9025000000001
 30
0.0
 11
15725.312500000002
 21
7445.9025000000001
 31
0.0
  0
LINE
  8
____1
  6
CONTINUOUS
 62
               7
 10
15797.312500000002
 20
7405.9025000000001
 30
0.0
 11
15797.312500000002
 21
7445.9025000000001
 31
0.0
  0
LINE
  8
____1
  6
CONTINUOUS
 62
               7
 10
16637.312500000007
 20
7405.9025000000001
 30
0.0
 11
16637.312500000007
 21
7445.9025000000001
 31
0.0
  0
LINE
  8
____1
  6
CONTINUOUS
 62
               7
 10
16565.3125
 20
7405.9025000000001
 30
0.0
 11
16565.3125
 21
7445.9025000000001
 31
0.0
  0
LINE
  8
____1
  6
CONTINUOUS
 62
               7
 10
16885.3125
 20
7445.9025000000001
 30
0.0
 11
15725.312500000002
 21
7445.9025000000001
 31
0.0
  0
ENDBLK
  8
0
  0
BLOCK
  8
0
  2
C40
 70
              64
 10
0.0
 20
0.0
  0
LINE
  8
____1
  6
CONTINUOUS
 62
               7
 10
16197.312500000002
 20
7205.9025000000001
 30
0.0
 11
16197.312500000002
 21
7245.9025000000001
 31
0.0
  0
LINE
  8
____1
  6
CONTINUOUS
 62
               7
 10
15725.312500000002
 20
7205.9025000000001
 30
0.0
 11
15725.312500000002
 21
7245.9025000000001
 31
0.0
  0
LINE
  8
____1
  6
CONTINUOUS
 62
               7
 10
15797.312500000002
 20
7205.9025000000001
 30
0.0
 11
15797.312500000002
 21
7245.9025000000001
 31
0.0
  0
LINE
  8
____1
  6
CONTINUOUS
 62
               7
 10
16637.312500000007
 20
7205.9025000000001
 30
0.0
 11
16637.312500000007
 21
7245.9025000000001
 31
0.0
  0
LINE
  8
____1
  6
CONTINUOUS
 62
               7
 10
16565.3125
 20
7205.9025000000001
 30
0.0
 11
16565.3125
 21
7245.9025000000001
 31
0.0
  0
LINE
  8
____1
  6
CONTINUOUS
 62
               7
 10
16885.3125
 20
7245.9025000000001
 30
0.0
 11
15725.312500000002
 21
7245.9025000000001
 31
0.0
  0
ENDBLK
  8
0
  0
BLOCK
  8
0
  2
C41
 70
              64
 10
0.0
 20
0.0
  0
LINE
  8
____1
  6
CONTINUOUS
 62
               7
 10
16197.312500000002
 20
7325.9025000000001
 30
0.0
 11
16197.312500000002
 21
7365.9025000000001
 31
0.0
  0
LINE
  8
____1
  6
CONTINUOUS
 62
               7
 10
15725.312500000002
 20
7325.9025000000001
 30
0.0
 11
15725.312500000002
 21
7365.9025000000001
 31
0.0
  0
LINE
  8
____1
  6
CONTINUOUS
 62
               7
 10
15797.312500000002
 20
7325.9025000000001
 30
0.0
 11
15797.312500000002
 21
7365.9025000000001
 31
0.0
  0
LINE
  8
____1
  6
CONTINUOUS
 62
               7
 10
16637.312500000007
 20
7325.9025000000001
 30
0.0
 11
16637.312500000007
 21
7365.9025000000001
 31
0.0
  0
LINE
  8
____1
  6
CONTINUOUS
 62
               7
 10
16565.3125
 20
7325.9025000000001
 30
0.0
 11
16565.3125
 21
7365.9025000000001
 31
0.0
  0
LINE
  8
____1
  6
CONTINUOUS
 62
               7
 10
16885.3125
 20
7365.9025000000001
 30
0.0
 11
15725.312500000002
 21
7365.9025000000001
 31
0.0
  0
ENDBLK
  8
0
  0
BLOCK
  8
0
  2
C42
 70
              64
 10
0.0
 20
0.0
  0
LINE
  8
____1
  6
CONTINUOUS
 62
               7
 10
16197.312500000002
 20
7285.9025000000001
 30
0.0
 11
16197.312500000002
 21
7325.9025000000001
 31
0.0
  0
LINE
  8
____1
  6
CONTINUOUS
 62
               7
 10
15725.312500000002
 20
7285.9025000000001
 30
0.0
 11
15725.312500000002
 21
7325.9025000000001
 31
0.0
  0
LINE
  8
____1
  6
CONTINUOUS
 62
               7
 10
15797.312500000002
 20
7285.9025000000001
 30
0.0
 11
15797.312500000002
 21
7325.9025000000001
 31
0.0
  0
LINE
  8
____1
  6
CONTINUOUS
 62
               7
 10
16637.312500000007
 20
7285.9025000000001
 30
0.0
 11
16637.312500000007
 21
7325.9025000000001
 31
0.0
  0
LINE
  8
____1
  6
CONTINUOUS
 62
               7
 10
16565.3125
 20
7285.9025000000001
 30
0.0
 11
16565.3125
 21
7325.9025000000001
 31
0.0
  0
LINE
  8
____1
  6
CONTINUOUS
 62
               7
 10
16885.3125
 20
7325.9025000000001
 30
0.0
 11
15725.312500000002
 21
7325.9025000000001
 31
0.0
  0
ENDBLK
  8
0
  0
BLOCK
  8
0
  2
C43
 70
              64
 10
0.0
 20
0.0
  0
LINE
  8
____1
  6
CONTINUOUS
 62
               7
 10
16197.312500000002
 20
7165.9025000000001
 30
0.0
 11
16197.312500000002
 21
7205.9025000000001
 31
0.0
  0
LINE
  8
____1
  6
CONTINUOUS
 62
               7
 10
15725.312500000002
 20
7165.9025000000001
 30
0.0
 11
15725.312500000002
 21
7205.9025000000001
 31
0.0
  0
LINE
  8
____1
  6
CONTINUOUS
 62
               7
 10
15797.312500000002
 20
7165.9025000000001
 30
0.0
 11
15797.312500000002
 21
7205.9025000000001
 31
0.0
  0
LINE
  8
____1
  6
CONTINUOUS
 62
               7
 10
16637.312500000007
 20
7165.9025000000001
 30
0.0
 11
16637.312500000007
 21
7205.9025000000001
 31
0.0
  0
LINE
  8
____1
  6
CONTINUOUS
 62
               7
 10
16565.3125
 20
7165.9025000000001
 30
0.0
 11
16565.3125
 21
7205.9025000000001
 31
0.0
  0
LINE
  8
____1
  6
CONTINUOUS
 62
               7
 10
16885.3125
 20
7205.9025000000001
 30
0.0
 11
15725.312500000002
 21
7205.9025000000001
 31
0.0
  0
ENDBLK
  8
0
  0
BLOCK
  8
0
  2
C44
 70
              64
 10
0.0
 20
0.0
  0
LINE
  8
____1
  6
CONTINUOUS
 62
               7
 10
16197.312500000002
 20
7125.9025000000001
 30
0.0
 11
16197.312500000002
 21
7165.9025000000001
 31
0.0
  0
LINE
  8
____1
  6
CONTINUOUS
 62
               7
 10
15725.312500000002
 20
7125.9025000000001
 30
0.0
 11
15725.312500000002
 21
7165.9025000000001
 31
0.0
  0
LINE
  8
____1
  6
CONTINUOUS
 62
               7
 10
15797.312500000002
 20
7125.9025000000001
 30
0.0
 11
15797.312500000002
 21
7165.9025000000001
 31
0.0
  0
LINE
  8
____1
  6
CONTINUOUS
 62
               7
 10
16637.312500000007
 20
7125.9025000000001
 30
0.0
 11
16637.312500000007
 21
7165.9025000000001
 31
0.0
  0
LINE
  8
____1
  6
CONTINUOUS
 62
               7
 10
16565.3125
 20
7125.9025000000001
 30
0.0
 11
16565.3125
 21
7165.9025000000001
 31
0.0
  0
LINE
  8
____1
  6
CONTINUOUS
 62
               7
 10
16885.3125
 20
7165.9025000000001
 30
0.0
 11
15725.312500000002
 21
7165.9025000000001
 31
0.0
  0
ENDBLK
  8
0
  0
BLOCK
  8
0
  2
C45
 70
              64
 10
0.0
 20
0.0
  0
LINE
  8
____1
  6
CONTINUOUS
 62
               7
 10
16197.312500000002
 20
7245.9025000000001
 30
0.0
 11
16197.312500000002
 21
7285.9025000000001
 31
0.0
  0
LINE
  8
____1
  6
CONTINUOUS
 62
               7
 10
15725.312500000002
 20
7245.9025000000001
 30
0.0
 11
15725.312500000002
 21
7285.9025000000001
 31
0.0
  0
LINE
  8
____1
  6
CONTINUOUS
 62
               7
 10
15797.312500000002
 20
7245.9025000000001
 30
0.0
 11
15797.312500000002
 21
7285.9025000000001
 31
0.0
  0
LINE
  8
____1
  6
CONTINUOUS
 62
               7
 10
16637.312500000007
 20
7245.9025000000001
 30
0.0
 11
16637.312500000007
 21
7285.9025000000001
 31
0.0
  0
LINE
  8
____1
  6
CONTINUOUS
 62
               7
 10
16565.3125
 20
7245.9025000000001
 30
0.0
 11
16565.3125
 21
7285.9025000000001
 31
0.0
  0
LINE
  8
____1
  6
CONTINUOUS
 62
               7
 10
16885.3125
 20
7285.9025000000001
 30
0.0
 11
15725.312500000002
 21
7285.9025000000001
 31
0.0
  0
ENDBLK
  8
0
  0
BLOCK
  8
0
  2
C46
 70
              64
 10
0.0
 20
0.0
  0
INSERT
  8
____1
  6
CONTINUOUS
 62
             254
  2
C47
 10
0.0
 20
0.0
 30
0.0
  0
INSERT
  8
____1
  6
CONTINUOUS
 62
             254
  2
C48
 10
0.0
 20
0.0
 30
0.0
  0
ENDBLK
  8
0
  0
BLOCK
  8
0
  2
C47
 70
              64
 10
0.0
 20
0.0
  0
LINE
  8
____1
  6
DASHED2
 62
               7
 10
15017.357058272579
 20
8473.9757233844957
 30
0.0
 11
15029.357058272579
 21
8473.9757233844957
 31
0.0
  0
LINE
  8
____1
  6
DASHED2
 62
               7
 10
14991.357058272579
 20
8473.9757233844957
 30
0.0
 11
15003.357058272579
 21
8473.9757233844957
 31
0.0
  0
LINE
  8
____1
  6
DASHED2
 62
               7
 10
14965.357058272579
 20
8473.9757233844957
 30
0.0
 11
14977.357058272579
 21
8473.9757233844957
 31
0.0
  0
LINE
  8
____1
  6
DASHED2
 62
               7
 10
15029.357058272579
 20
8473.9757233844957
 30
0.0
 11
15029.357058272579
 21
8484.4757233844957
 31
0.0
  0
LINE
  8
____1
  6
DASHED2
 62
               7
 10
15017.357058272579
 20
8473.9757233844957
 30
0.0
 11
15017.357058272579
 21
8484.4757233844957
 31
0.0
  0
LINE
  8
____1
  6
DASHED2
 62
               7
 10
15003.357058272579
 20
8473.9757233844957
 30
0.0
 11
15003.357058272579
 21
8484.4757233844957
 31
0.0
  0
LINE
  8
____1
  6
DASHED2
 62
               7
 10
14991.357058272579
 20
8473.9757233844957
 30
0.0
 11
14991.357058272579
 21
8484.4757233844957
 31
0.0
  0
LINE
  8
____1
  6
DASHED2
 62
               7
 10
14977.357058272579
 20
8473.9757233844957
 30
0.0
 11
14977.357058272579
 21
8484.4757233844957
 31
0.0
  0
LINE
  8
____1
  6
DASHED2
 62
               7
 10
14965.357058272579
 20
8473.9757233844957
 30
0.0
 11
14965.357058272579
 21
8484.4757233844957
 31
0.0
  0
LINE
  8
____1
  6
DASHED2
 62
               7
 10
14965.357058272579
 20
8484.4757233844957
 30
0.0
 11
15029.357058272579
 21
8484.4757233844957
 31
0.0
  0
LINE
  8
____1
  6
DASHED2
 62
               7
 10
14965.357058272579
 20
8482.4757233844957
 30
0.0
 11
15029.357058272579
 21
8482.4757233844957
 31
0.0
  0
LINE
  8
____1
  6
DASHED2
 62
               7
 10
14965.357058272579
 20
8475.9757233844957
 30
0.0
 11
14977.357058272579
 21
8475.9757233844957
 31
0.0
  0
LINE
  8
____1
  6
DASHED2
 62
               7
 10
14991.357058272579
 20
8475.9757233844957
 30
0.0
 11
15003.357058272579
 21
8475.9757233844957
 31
0.0
  0
LINE
  8
____1
  6
DASHED2
 62
               7
 10
15017.357058272579
 20
8475.9757233844957
 30
0.0
 11
15029.357058272579
 21
8475.9757233844957
 31
0.0
  0
LINE
  8
____1
  6
DOT
 62
               2
 10
14965.357058272579
 20
8479.2257233844957
 30
0.0
 11
15029.357058272579
 21
8479.2257233844957
 31
0.0
  0
ENDBLK
  8
0
  0
BLOCK
  8
0
  2
C48
 70
              64
 10
0.0
 20
0.0
  0
LINE
  8
____1
  6
DASHED2
 62
               7
 10
15003.55705827258
 20
8482.4757233844957
 30
0.0
 11
15017.157058272578
 21
8482.4757233844957
 31
0.0
  0
LINE
  8
____1
  6
DASHED2
 62
               7
 10
14977.55705827258
 20
8482.4757233844957
 30
0.0
 11
14991.157058272578
 21
8482.4757233844957
 31
0.0
  0
LINE
  8
____1
  6
DASHED2
 62
               7
 10
14977.55705827258
 20
8484.4757233844957
 30
0.0
 11
14991.157058272578
 21
8484.4757233844957
 31
0.0
  0
LINE
  8
____1
  6
DASHED2
 62
               7
 10
15003.55705827258
 20
8484.4757233844957
 30
0.0
 11
15017.157058272578
 21
8484.4757233844957
 31
0.0
  0
LINE
  8
____1
  6
DASHED2
 62
               7
 10
14965.357058272579
 20
8473.9757233844957
 30
0.0
 11
14965.357058272579
 21
8475.9757233844957
 31
0.0
  0
LINE
  8
____1
  6
DASHED2
 62
               7
 10
14965.357058272579
 20
8473.9757233844957
 30
0.0
 11
15029.357058272579
 21
8473.9757233844957
 31
0.0
  0
LINE
  8
____1
  6
DASHED2
 62
               7
 10
15029.357058272579
 20
8473.9757233844957
 30
0.0
 11
15029.357058272579
 21
8475.9757233844957
 31
0.0
  0
LINE
  8
____1
  6
DASHED2
 62
               7
 10
14965.357058272579
 20
8475.9757233844957
 30
0.0
 11
15029.357058272579
 21
8475.9757233844957
 31
0.0
  0
LINE
  8
____1
  6
DASHED2
 62
               7
 10
15017.157058272578
 20
8473.9757233844957
 30
0.0
 11
15017.157058272578
 21
8484.4757233844957
 31
0.0
  0
LINE
  8
____1
  6
DASHED2
 62
               7
 10
15003.55705827258
 20
8473.9757233844957
 30
0.0
 11
15003.55705827258
 21
8484.4757233844957
 31
0.0
  0
LINE
  8
____1
  6
DASHED2
 62
               7
 10
14991.157058272578
 20
8473.9757233844957
 30
0.0
 11
14991.157058272578
 21
8484.4757233844975
 31
0.0
  0
LINE
  8
____1
  6
DASHED2
 62
               7
 10
14977.55705827258
 20
8473.9757233844957
 30
0.0
 11
14977.55705827258
 21
8484.4757233844975
 31
0.0
  0
LINE
  8
____1
  6
DOT
 62
               2
 10
14965.357058272579
 20
8479.2257233844957
 30
0.0
 11
15029.357058272579
 21
8479.2257233844957
 31
0.0
  0
LINE
  8
____1
  6
DOT
 62
               2
 10
14975.357058272579
 20
8471.9757233844957
 30
0.0
 11
14975.357058272579
 21
8477.9757233844957
 31
0.0
  0
LINE
  8
____1
  6
DOT
 62
               2
 10
14997.357058272579
 20
8471.9757233844957
 30
0.0
 11
14997.357058272579
 21
8477.9757233844957
 31
0.0
  0
LINE
  8
____1
  6
DOT
 62
               2
 10
15019.357058272579
 20
8471.9757233844957
 30
0.0
 11
15019.357058272579
 21
8477.9757233844957
 31
0.0
  0
ENDBLK
  8
0
  0
BLOCK
  8
0
  2
C49
 70
              64
 10
0.0
 20
0.0
  0
LINE
  8
____1
  6
DASHED2
 62
               7
 10
14861.357223352994
 20
7995.4216098249308
 30
0.0
 11
14861.357223352994
 21
8006.4216098249308
 31
0.0
  0
LINE
  8
____1
  6
DASHED2
 62
               7
 10
14861.357223352994
 20
8006.4216098249308
 30
0.0
 11
14861.357223352994
 21
8015.9216098249308
 31
0.0
  0
LINE
  8
____1
  6
DASHED2
 62
               7
 10
14861.357223352994
 20
7985.9216098249308
 30
0.0
 11
14861.357223352994
 21
7995.4216098249308
 31
0.0
  0
LINE
  8
____1
  6
DOT
 62
               2
 10
14827.357223352994
 20
8000.9216098249308
 30
0.0
 11
14863.357223352994
 21
8000.9216098249308
 31
0.0
  0
LINE
  8
____1
  6
DASHED2
 62
               7
 10
14863.357223352994
 20
8006.4216098249308
 30
0.0
 11
14827.357223352994
 21
8006.4216098249308
 31
0.0
  0
LINE
  8
____1
  6
DASHED2
 62
               7
 10
14827.357223352994
 20
7995.4216098249308
 30
0.0
 11
14863.357223352994
 21
7995.4216098249308
 31
0.0
  0
LINE
  8
____1
  6
DASHED2
 62
               7
 10
14827.357223352994
 20
8015.9216098249308
 30
0.0
 11
14827.357223352994
 21
7985.9216098249308
 31
0.0
  0
LINE
  8
____1
  6
DASHED2
 62
               7
 10
14829.357223352994
 20
8006.4216098249308
 30
0.0
 11
14829.357223352994
 21
7995.4216098249308
 31
0.0
  0
LINE
  8
____1
  6
DASHED2
 62
               7
 10
14829.357223352994
 20
7995.4216098249308
 30
0.0
 11
14829.357223352994
 21
7985.9216098249308
 31
0.0
  0
LINE
  8
____1
  6
DASHED2
 62
               7
 10
14829.357223352994
 20
8015.9216098249308
 30
0.0
 11
14829.357223352994
 21
8006.4216098249308
 31
0.0
  0
ARC
  8
____1
  6
DASHED2
 62
               7
 10
14833.357223352994
 20
8017.9216098249308
 30
0.0
 40
3.0
 50
90.0
 51
180.0
210
0.0
220
0.0
230
1.0
  0
LINE
  8
____1
  6
DASHED2
 62
               7
 10
14857.357223352994
 20
8020.9216098249308
 30
0.0
 11
14833.357223352994
 21
8020.9216098249308
 31
0.0
  0
ARC
  8
____1
  6
DASHED2
 62
               7
 10
14857.357223352994
 20
8017.9216098249308
 30
0.0
 40
3.0
 50
0.0
 51
90.0
210
0.0
220
0.0
230
1.0
  0
ARC
  8
____1
  6
DASHED2
 62
               7
 10
14857.357223352994
 20
7983.9216098249308
 30
0.0
 40
3.0
 50
-90.0
 51
0.0
210
0.0
220
0.0
230
1.0
  0
LINE
  8
____1
  6
DASHED2
 62
               7
 10
14833.357223352994
 20
7980.9216098249308
 30
0.0
 11
14857.357223352994
 21
7980.9216098249308
 31
0.0
  0
ARC
  8
____1
  6
DASHED2
 62
               7
 10
14833.357223352994
 20
7983.9216098249308
 30
0.0
 40
3.0
 50
180.0
 51
-90.0
210
0.0
220
0.0
230
1.0
  0
LINE
  8
____1
  6
DASHED2
 62
               7
 10
14829.357223352994
 20
8015.9216098249308
 30
0.0
 11
14827.357223352994
 21
8015.9216098249308
 31
0.0
  0
LINE
  8
____1
  6
DASHED2
 62
               7
 10
14860.357223352994
 20
8016.9216098249308
 30
0.0
 11
14860.357223352994
 21
8017.9216098249308
 31
0.0
  0
LINE
  8
____1
  6
DASHED2
 62
               7
 10
14863.357223352994
 20
8015.9216098249308
 30
0.0
 11
14861.357223352994
 21
8015.9216098249308
 31
0.0
  0
ARC
  8
____1
  6
DASHED2
 62
               7
 10
14861.357223352994
 20
8016.9216098249308
 30
0.0
 40
1.0
 50
180.0
 51
-90.0
  0
LINE
  8
____1
  6
DASHED2
 62
               7
 10
14861.357223352994
 20
7985.9216098249308
 30
0.0
 11
14863.357223352994
 21
7985.9216098249308
 31
0.0
  0
LINE
  8
____1
  6
DASHED2
 62
               7
 10
14860.357223352994
 20
7983.9216098249308
 30
0.0
 11
14860.357223352994
 21
7984.9216098249308
 31
0.0
  0
ARC
  8
____1
  6
DASHED2
 62
               7
 10
14861.357223352994
 20
7984.9216098249308
 30
0.0
 40
1.0
 50
90.0
 51
180.0
  0
LINE
  8
____1
  6
DASHED2
 62
               7
 10
14830.357223352994
 20
7984.9216098249308
 30
0.0
 11
14830.357223352994
 21
7983.9216098249308
 31
0.0
  0
LINE
  8
____1
  6
DASHED2
 62
               7
 10
14827.357223352994
 20
7985.9216098249308
 30
0.0
 11
14829.357223352994
 21
7985.9216098249308
 31
0.0
  0
ARC
  8
____1
  6
DASHED2
 62
               7
 10
14829.357223352994
 20
7984.9216098249308
 30
0.0
 40
1.0
 50
0.0
 51
90.0
  0
LINE
  8
____1
  6
DASHED2
 62
               7
 10
14830.357223352994
 20
8017.9216098249308
 30
0.0
 11
14830.357223352994
 21
8016.9216098249308
 31
0.0
  0
ARC
  8
____1
  6
DASHED2
 62
               7
 10
14829.357223352994
 20
8016.9216098249308
 30
0.0
 40
1.0
 50
-90.0
 51
0.0
  0
LINE
  8
____1
  6
DASHED2
 62
               7
 10
14863.357223352994
 20
7985.9216098249308
 30
0.0
 11
14863.357223352994
 21
8015.9216098249308
 31
0.0
  0
ENDBLK
  8
0
  0
BLOCK
  8
0
  2
C50
 70
              64
 10
0.0
 20
0.0
  0
LINE
  8
____1
  6
DASHED2
 62
               7
 10
14830.357223352994
 20
7978.9216098249308
 30
0.0
 11
14840.357223352994
 21
7978.9216098249308
 31
0.0
  0
LINE
  8
____1
  6
DASHED2
 62
               7
 10
14850.357223352994
 20
7978.9216098249308
 30
0.0
 11
14860.357223352994
 21
7978.9216098249308
 31
0.0
  0
LINE
  8
____1
  6
DASHED2
 62
               7
 10
14825.357223352994
 20
7995.9216098249308
 30
0.0
 11
14825.357223352994
 21
8005.9216098249308
 31
0.0
  0
LINE
  8
____1
  6
DASHED2
 62
               7
 10
14860.357223352994
 20
7995.9216098249308
 30
0.0
 11
14865.357223352994
 21
7995.9216098249308
 31
0.0
  0
LINE
  8
____1
  6
DASHED2
 62
               7
 10
14830.357223352994
 20
7976.9216098249308
 30
0.0
 11
14830.357223352994
 21
8000.9216098249308
 31
0.0
  0
LINE
  8
____1
  6
DASHED2
 62
               7
 10
14860.357223352994
 20
7976.9216098249308
 30
0.0
 11
14860.357223352994
 21
8000.9216098249308
 31
0.0
  0
LINE
  8
____1
  6
DASHED2
 62
               7
 10
14825.357223352994
 20
8000.9216098249308
 30
0.0
 11
14830.357223352994
 21
8000.9216098249308
 31
0.0
  0
LINE
  8
____1
  6
DASHED2
 62
               7
 10
14860.357223352994
 20
8000.9216098249308
 30
0.0
 11
14865.357223352994
 21
8000.9216098249308
 31
0.0
  0
LINE
  8
____1
  6
DASHED2
 62
               7
 10
14840.357223352994
 20
7978.9216098249308
 30
0.0
 11
14850.357223352994
 21
7978.9216098249308
 31
0.0
  0
LINE
  8
____1
  6
DASHED2
 62
               7
 10
14850.357223352994
 20
7983.9216098249308
 30
0.0
 11
14850.357223352994
 21
7976.9216098249308
 31
0.0
  0
LINE
  8
____1
  6
DASHED2
 62
               7
 10
14840.357223352994
 20
7983.9216098249308
 30
0.0
 11
14840.357223352994
 21
7976.9216098249308
 31
0.0
  0
LINE
  8
____1
  6
DASHED2
 62
               7
 10
14865.357223352994
 20
7995.9216098249308
 30
0.0
 11
14865.357223352994
 21
8005.9216098249308
 31
0.0
  0
LINE
  8
____1
  6
DASHED2
 62
               7
 10
14825.357223352994
 20
8005.9216098249308
 30
0.0
 11
14865.357223352994
 21
8005.9216098249308
 31
0.0
  0
LINE
  8
____1
  6
DASHED2
 62
               7
 10
14830.357223352994
 20
7976.9216098249308
 30
0.0
 11
14860.357223352994
 21
7976.9216098249308
 31
0.0
  0
LINE
  8
____1
  6
DASHED2
 62
               7
 10
14825.50346724297
 20
7995.9216098249308
 30
0.0
 11
14830.357223352994
 21
7995.9216098249308
 31
0.0
  0
LINE
  8
____1
  6
DASHED2
 62
               7
 10
14830.357223352994
 20
7995.9216098249308
 30
0.0
 11
14860.357223352994
 21
7995.9216098249308
 31
0.0
  0
ARC
  8
____1
  6
DASHED2
 62
               7
 10
14845.357223352994
 20
7983.9216098249308
 30
0.0
 40
5.0
 50
0.0
 51
180.0
  0
ENDBLK
  8
0
  0
BLOCK
  8
0
  2
C51
 70
              64
 10
0.0
 20
0.0
  0
LINE
  8
____1
  6
DASHED2
 62
               7
 10
14622.357241256639
 20
8285.9579236754307
 30
0.0
 11
14622.357241256639
 21
8294.4579236754307
 31
0.0
  0
LINE
  8
____1
  6
DASHED2
 62
               7
 10
14621.59823481413
 20
8289.5504463873203
 30
0.0
 11
14619.357241256639
 21
8289.5504463873203
 31
0.0
  0
LINE
  8
____1
  6
DASHED2
 62
               7
 10
14619.357241256639
 20
8284.6429690992063
 30
0.0
 11
14621.598051878083
 21
8284.6429690992063
 31
0.0
  0
LINE
  8
____1
  6
DASHED2
 62
               7
 10
14622.357241256639
 20
8285.9579236754307
 30
0.0
 11
14621.598051878083
 21
8284.6429690992063
 31
0.0
  0
ARC
  8
____1
  6
DASHED2
 62
               7
 10
14618.012057395812
 20
8287.0967077432633
 30
0.0
 40
4.3451838608270634
 50
-25.609310670496093
 51
34.381674152498924
  0
ARC
  8
____1
  6
DASHED2
 62
               7
 10
14606.112699226391
 20
8294.4579236754307
 30
0.0
 40
16.244542030246588
 50
-17.583781960917118
 51
0.0
  0
LINE
  8
____1
  6
DASHED2
 62
               7
 10
14622.357241256639
 20
8302.9579236754307
 30
0.0
 11
14622.357241256639
 21
8294.4579236754307
 31
0.0
  0
LINE
  8
____1
  6
DASHED2
 62
               7
 10
14621.59823481413
 20
8299.3654009635411
 30
0.0
 11
14619.357241256639
 21
8299.3654009635411
 31
0.0
  0
LINE
  8
____1
  6
DASHED2
 62
               7
 10
14619.357241256639
 20
8304.2728782516551
 30
0.0
 11
14621.598051878083
 21
8304.2728782516551
 31
0.0
  0
LINE
  8
____1
  6
DASHED2
 62
               7
 10
14622.357241256639
 20
8302.9579236754307
 30
0.0
 11
14621.598051878083
 21
8304.2728782516551
 31
0.0
  0
ARC
  8
____1
  6
DASHED2
 62
               7
 10
14618.012057395812
 20
8301.8191396075981
 30
0.0
 40
4.3451838608270634
 50
-34.381674152498924
 51
25.609310670496093
210
0.0
220
0.0
230
1.0
  0
ARC
  8
____1
  6
DASHED2
 62
               7
 10
14606.112699226391
 20
8294.4579236754307
 30
0.0
 40
16.244542030246588
 50
0.0
 51
17.583781960917118
210
0.0
220
0.0
230
1.0
  0
LINE
  8
____1
  6
DASHED2
 62
               7
 10
14616.357241256639
 20
8302.9579236754307
 30
0.0
 11
14616.357241256639
 21
8294.4579236754307
 31
0.0
  0
LINE
  8
____1
  6
DASHED2
 62
               7
 10
14617.116247699147
 20
8299.3654009635411
 30
0.0
 11
14619.357241256639
 21
8299.3654009635411
 31
0.0
  0
LINE
  8
____1
  6
DASHED2
 62
               7
 10
14619.357241256639
 20
8304.2728782516551
 30
0.0
 11
14617.116430635193
 21
8304.2728782516551
 31
0.0
  0
LINE
  8
____1
  6
DASHED2
 62
               7
 10
14616.357241256639
 20
8302.9579236754307
 30
0.0
 11
14617.116430635193
 21
8304.2728782516551
 31
0.0
  0
ARC
  8
____1
  6
DASHED2
 62
               7
 10
14620.702425117464
 20
8301.8191396075981
 30
0.0
 40
4.3451838608270634
 50
154.39068932950391
 51
-145.61832584750107
  0
ARC
  8
____1
  6
DASHED2
 62
               7
 10
14632.601783286886
 20
8294.4579236754307
 30
0.0
 40
16.244542030246588
 50
162.41621803908288
 51
180.0
  0
LINE
  8
____1
  6
DASHED2
 62
               7
 10
14616.357241256639
 20
8285.9579236754307
 30
0.0
 11
14616.357241256639
 21
8294.4579236754307
 31
0.0
  0
LINE
  8
____1
  6
DASHED2
 62
               7
 10
14617.116247699147
 20
8289.5504463873203
 30
0.0
 11
14619.357241256639
 21
8289.5504463873203
 31
0.0
  0
LINE
  8
____1
  6
DASHED2
 62
               7
 10
14619.357241256639
 20
8284.6429690992063
 30
0.0
 11
14617.116430635193
 21
8284.6429690992063
 31
0.0
  0
LINE
  8
____1
  6
DASHED2
 62
               7
 10
14616.357241256639
 20
8285.9579236754307
 30
0.0
 11
14617.116430635193
 21
8284.6429690992063
 31
0.0
  0
ARC
  8
____1
  6
DASHED2
 62
               7
 10
14620.702425117464
 20
8287.0967077432633
 30
0.0
 40
4.3451838608270634
 50
145.61832584750107
 51
-154.39068932950391
210
0.0
220
0.0
230
1.0
  0
ARC
  8
____1
  6
DASHED2
 62
               7
 10
14632.601783286886
 20
8294.4579236754307
 30
0.0
 40
16.244542030246588
 50
180.0
 51
-162.41621803908288
210
0.0
220
0.0
230
1.0
  0
ENDBLK
  8
0
  0
BLOCK
  8
0
  2
C52
 70
              64
 10
0.0
 20
0.0
  0
LINE
  8
____1
  6
DOT
 62
               7
 10
14605.107064498827
 20
8299.4579236754307
 30
0.0
 11
14620.357064498827
 21
8299.4579236754307
 31
0.0
  0
LINE
  8
____1
  6
DOT
 62
               7
 10
14605.107064498827
 20
8298.7079236754307
 30
0.0
 11
14621.107064498827
 21
8298.7079236754307
 31
0.0
  0
LINE
  8
____1
  6
DOT
 62
               7
 10
14605.107064498827
 20
8290.2079236754307
 30
0.0
 11
14621.107064498827
 21
8290.2079236754307
 31
0.0
  0
LINE
  8
____1
  6
DOT
 62
               7
 10
14605.107064498827
 20
8289.4579236754307
 30
0.0
 11
14620.357064498827
 21
8289.4579236754307
 31
0.0
  0
LINE
  8
____1
  6
DOT
 62
               7
 10
14620.357064498827
 20
8299.4579236754307
 30
0.0
 11
14621.107064498827
 21
8298.7079236754307
 31
0.0
  0
LINE
  8
____1
  6
DOT
 62
               7
 10
14621.107064498827
 20
8290.2079236754307
 30
0.0
 11
14621.107064498827
 21
8298.7079236754307
 31
0.0
  0
LINE
  8
____1
  6
DOT
 62
               7
 10
14620.357064498827
 20
8289.4579236754307
 30
0.0
 11
14621.107064498827
 21
8290.2079236754307
 31
0.0
  0
LINE
  8
____1
  6
DOT
 62
               7
 10
14620.357064498827
 20
8289.4579236754307
 30
0.0
 11
14620.357064498827
 21
8299.4579236754307
 31
0.0
  0
ARC
  8
____1
  6
DASHED2
 62
               7
 10
14615.007064498826
 20
8294.4579236754307
 30
0.0
 40
14.999999999999591
 50
-176.75149902696177
 51
-135.57299599919571
  0
ARC
  8
____1
  6
DASHED2
 62
               7
 10
14615.007064498826
 20
8294.4579236754307
 30
0.0
 40
15.000000000000346
 50
135.57299599918588
 51
176.75149902694827
  0
LINE
  8
____1
  6
DASHED2
 62
               7
 10
14600.031167196395
 20
8293.6079236754322
 30
0.0
 11
14600.621742117395
 21
8293.6079236754322
 31
0.0
  0
LINE
  8
____1
  6
DASHED2
 62
               7
 10
14600.621742117397
 20
8295.3079236754329
 30
0.0
 11
14600.621742117395
 21
8293.6079236754322
 31
0.0
  0
LINE
  8
____1
  6
DASHED2
 62
               7
 10
14600.031167196896
 20
8295.3079236754329
 30
0.0
 11
14600.621742117397
 21
8295.3079236754329
 31
0.0
  0
LINE
  8
____1
  6
DASHED2
 62
               7
 10
14604.294921856012
 20
8304.9579236754307
 30
0.0
 11
14604.294921856012
 21
8283.9579236754307
 31
0.0
  0
LINE
  8
____1
  6
DASHED2
 62
               7
 10
14605.107064498827
 20
8283.9579236754307
 30
0.0
 11
14604.294921856012
 21
8283.9579236754307
 31
0.0
  0
LINE
  8
____1
  6
DASHED2
 62
               7
 10
14604.294921856013
 20
8304.9579236754307
 30
0.0
 11
14605.107064498827
 21
8304.9579236754307
 31
0.0
  0
LINE
  8
____1
  6
DASHED2
 62
               7
 10
14605.107064498827
 20
8283.9579236754307
 30
0.0
 11
14605.107064498827
 21
8304.9579236754307
 31
0.0
  0
ENDBLK
  8
0
  0
BLOCK
  8
0
  2
C53
 70
              64
 10
0.0
 20
0.0
  0
LINE
  8
____1
  6
DASHED2
 62
               7
 10
14616.357241256639
 20
8287.9579236754307
 30
0.0
 11
14614.357241256639
 21
8287.9579236754307
 31
0.0
  0
LINE
  8
____1
  6
DASHED2
 62
               7
 10
14616.357241256639
 20
8289.4579236754307
 30
0.0
 11
14613.857241256639
 21
8289.4579236754307
 31
0.0
  0
LINE
  8
____1
  6
DASHED2
 62
               7
 10
14616.357241256639
 20
8299.4579236754307
 30
0.0
 11
14613.857241256639
 21
8299.4579236754307
 31
0.0
  0
LINE
  8
____1
  6
DASHED2
 62
               7
 10
14616.357241256639
 20
8300.9579236754307
 30
0.0
 11
14614.357241256639
 21
8300.9579236754307
 31
0.0
  0
ARC
  8
____1
  6
DASHED2
 62
               7
 10
14613.857241256639
 20
8311.9579236754307
 30
0.0
 40
1.5
 50
90.0
 51
180.0
210
0.0
220
0.0
230
1.0
  0
LINE
  8
____1
  6
DASHED2
 62
               7
 10
14616.357241256639
 20
8311.9579236754307
 30
0.0
 11
14613.857241256639
 21
8311.9579236754307
 31
0.0
  0
ARC
  8
____1
  6
DASHED2
 62
               7
 10
14613.857241256639
 20
8287.9579236754307
 30
0.0
 40
1.5
 50
90.0
 51
180.0
  0
ARC
  8
____1
  6
DASHED2
 62
               7
 10
14613.857241256639
 20
8276.9579236754307
 30
0.0
 40
1.5
 50
180.0
 51
-90.0
210
0.0
220
0.0
230
1.0
  0
LINE
  8
____1
  6
DASHED2
 62
               7
 10
14613.857241256639
 20
8276.9579236754307
 30
0.0
 11
14616.357241256639
 21
8276.9579236754307
 31
0.0
  0
LINE
  8
____1
  6
DASHED2
 62
               7
 10
14616.357241256639
 20
8275.4579236754307
 30
0.0
 11
14616.357241256639
 21
8313.4579236754307
 31
0.0
  0
LINE
  8
____1
  6
DASHED2
 62
               7
 10
14612.357241256639
 20
8276.9579236754307
 30
0.0
 11
14612.357241256639
 21
8311.9579236754307
 31
0.0
  0
ARC
  8
____1
  6
DASHED2
 62
               7
 10
14614.357241256639
 20
8301.4579236754307
 30
0.0
 40
0.5
 50
180.0
 51
-90.0
210
0.0
220
0.0
230
1.0
  0
ARC
  8
____1
  6
DASHED2
 62
               7
 10
14613.857241256639
 20
8300.9579236754307
 30
0.0
 40
1.5
 50
180.0
 51
-90.0
210
0.0
220
0.0
230
1.0
  0
ARC
  8
____1
  6
DASHED2
 62
               7
 10
14614.357241256639
 20
8287.4579236754307
 30
0.0
 40
0.5
 50
90.0
 51
180.0
  0
LINE
  8
____1
  6
DASHED2
 62
               7
 10
14613.857241256639
 20
8276.9579236754307
 30
0.0
 11
14613.857241256639
 21
8311.9579236754307
 31
0.0
  0
LINE
  8
____1
  6
DASHED2
 62
               7
 10
14647.357241256639
 20
8275.4579236754307
 30
0.0
 11
14647.357241256639
 21
8313.4579236754307
 31
0.0
  0
LINE
  8
____1
  6
DASHED2
 62
               7
 10
14647.357241256639
 20
8311.9579236754307
 30
0.0
 11
14616.357241256639
 21
8311.9579236754307
 31
0.0
  0
LINE
  8
____1
  6
DASHED2
 62
               7
 10
14647.357241256639
 20
8313.4579236754307
 30
0.0
 11
14613.857241256639
 21
8313.4579236754307
 31
0.0
  0
LINE
  8
____1
  6
DASHED2
 62
               7
 10
14616.357241256639
 20
8276.9579236754307
 30
0.0
 11
14647.357241256639
 21
8276.9579236754307
 31
0.0
  0
LINE
  8
____1
  6
DASHED2
 62
               7
 10
14613.857241256639
 20
8275.4579236754307
 30
0.0
 11
14647.357241256639
 21
8275.4579236754307
 31
0.0
  0
ENDBLK
  8
0
  0
BLOCK
  8
0
  2
C54
 70
              64
 10
0.0
 20
0.0
  0
LINE
  8
____1
  6
DASHED2
 62
               7
 10
14595.857223352994
 20
8349.7757233844986
 30
0.0
 11
14625.357223352994
 21
8349.7757233844986
 31
0.0
  0
LINE
  8
____1
  6
DASHED2
 62
               7
 10
14595.357223352994
 20
8002.4757233844975
 30
0.0
 11
14625.357223352994
 21
8002.4757233844975
 31
0.0
  0
LINE
  8
____1
  6
DASHED2
 62
               7
 10
14595.357223352994
 20
8002.4757233844975
 30
0.0
 11
14595.357223352994
 21
8004.9757233844975
 31
0.0
  0
LINE
  8
____1
  6
DASHED2
 62
               7
 10
14595.357223352994
 20
8004.9757233844975
 30
0.0
 11
14625.357223352994
 21
8004.9757233844975
 31
0.0
  0
LINE
  8
____1
  6
DASHED2
 62
               7
 10
14595.357223352994
 20
8349.9757233844957
 30
0.0
 11
14625.357223352994
 21
8349.9757233844957
 31
0.0
  0
LINE
  8
____1
  6
DASHED2
 62
               7
 10
14595.357223352994
 20
8349.9757233844957
 30
0.0
 11
14595.357223352994
 21
8352.4757233844994
 31
0.0
  0
LINE
  8
____1
  6
DASHED2
 62
               7
 10
14595.357223352994
 20
8352.4757233844994
 30
0.0
 11
14625.357223352994
 21
8352.4757233844994
 31
0.0
  0
ARC
  8
____1
  6
DASHED2
 62
               7
 10
14625.357223352994
 20
8349.9757233844957
 30
0.0
 40
2.500000000003638
 50
0.0000396924704228
 51
90.0
210
0.0
220
0.0
230
1.0
  0
ARC
  8
____1
  6
DASHED2
 62
               7
 10
14625.357223352994
 20
8004.9757233844975
 30
0.0
 40
2.5
 50
-90.0
 51
0.0
  0
LINE
  8
____1
  6
DASHED2
 62
               7
 10
14627.857223352994
 20
8004.9757233844975
 30
0.0
 11
14627.857223352994
 21
8349.9757251164065
 31
0.0
  0
LINE
  8
____1
  6
DASHED2
 62
               7
 10
14625.357223352994
 20
8004.9757233844975
 30
0.0
 11
14625.357223352994
 21
8349.9757233844957
 31
0.0
  0
LINE
  8
____1
  6
DASHED2
 62
               7
 10
14595.857223352994
 20
8005.1757233844983
 30
0.0
 11
14595.857223352994
 21
8349.7757233844986
 31
0.0
  0
LINE
  8
____1
  6
DASHED2
 62
               7
 10
14595.857223352994
 20
8005.1757233844983
 30
0.0
 11
14625.357223352994
 21
8005.1757233844983
 31
0.0
  0
ENDBLK
  8
0
  0
BLOCK
  8
0
  2
C55
 70
              64
 10
0.0
 20
0.0
  0
LINE
  8
____1
  6
DOT
 62
               7
 10
14600.607223352994
 20
8040.3454942019143
 30
0.0
 11
14630.357223352994
 21
8040.3454942019143
 31
0.0
  0
INSERT
  8
____1
  6
DASHED2
 62
               7
  2
C56
 10
0.0
 20
0.0
 30
0.0
  0
INSERT
  8
____1
  6
DASHED2
 62
               7
  2
C57
 10
0.0
 20
0.0
 30
0.0
  0
INSERT
  8
____1
  6
DASHED2
 62
               7
  2
C58
 10
0.0
 20
0.0
 30
0.0
  0
INSERT
  8
____1
  6
DASHED2
 62
               7
  2
C59
 10
0.0
 20
0.0
 30
0.0
  0
INSERT
  8
____1
  6
DASHED2
 62
               7
  2
C60
 10
0.0
 20
0.0
 30
0.0
  0
LINE
  8
____1
  6
DASHED2
 62
               7
 10
14630.607223352994
 20
8054.4104487781387
 30
0.0
 11
14630.607223352994
 21
8034.7805396256899
 31
0.0
  0
LINE
  8
____1
  6
DASHED2
 62
               7
 10
14636.848216910486
 20
8039.6880169138003
 30
0.0
 11
14630.607223352994
 21
8039.6880169138003
 31
0.0
  0
LINE
  8
____1
  6
DASHED2
 62
               7
 10
14636.848033974438
 20
8034.7805396256899
 30
0.0
 11
14630.607223352994
 21
8034.7805396256899
 31
0.0
  0
LINE
  8
____1
  6
DASHED2
 62
               7
 10
14636.848033974438
 20
8054.4104487781387
 30
0.0
 11
14630.607223352994
 21
8054.4104487781387
 31
0.0
  0
LINE
  8
____1
  6
DASHED2
 62
               7
 10
14637.607223352994
 20
8053.0954942019143
 30
0.0
 11
14636.848033974438
 21
8054.4104487781387
 31
0.0
  0
LINE
  8
____1
  6
DASHED2
 62
               7
 10
14636.848216910486
 20
8049.5029714900247
 30
0.0
 11
14630.607223352994
 21
8049.5029714900247
 31
0.0
  0
LINE
  8
____1
  6
DASHED2
 62
               7
 10
14637.607223352994
 20
8053.0954942019143
 30
0.0
 11
14637.607223352994
 21
8044.5954942019143
 31
0.0
  0
LINE
  8
____1
  6
DASHED2
 62
               7
 10
14637.607223352994
 20
8036.0954942019143
 30
0.0
 11
14636.848033974438
 21
8034.7805396256899
 31
0.0
  0
LINE
  8
____1
  6
DASHED2
 62
               7
 10
14637.607223352994
 20
8036.0954942019143
 30
0.0
 11
14637.607223352994
 21
8044.5954942019143
 31
0.0
  0
ARC
  8
____1
  6
DASHED2
 62
               7
 10
14621.362681322746
 20
8044.5954942019143
 30
0.0
 40
16.244542030249008
 50
-17.583976886999036
 51
0.0
  0
ARC
  8
____1
  6
DASHED2
 62
               7
 10
14633.261853578273
 20
8037.2342782697469
 30
0.0
 40
4.3453697747213207
 50
-25.605116760745442
 51
34.379996836931312
  0
ARC
  8
____1
  6
DASHED2
 62
               7
 10
14633.261853578273
 20
8051.9567101340817
 30
0.0
 40
4.3453697747213207
 50
-34.379996836970896
 51
25.605116760745442
210
0.0
220
0.0
230
1.0
  0
ARC
  8
____1
  6
DASHED2
 62
               7
 10
14621.362681322746
 20
8044.5954942019143
 30
0.0
 40
16.244542030247906
 50
0.0
 51
17.583976886986804
210
0.0
220
0.0
230
1.0
  0
LINE
  8
____1
  6
DOT
 62
               7
 10
14600.607223352994
 20
8048.8454942019143
 30
0.0
 11
14601.357223352994
 21
8049.5954942019143
 31
0.0
  0
LINE
  8
____1
  6
DOT
 62
               7
 10
14600.607223352994
 20
8048.8454942019143
 30
0.0
 11
14600.607223352994
 21
8040.3454942019143
 31
0.0
  0
LINE
  8
____1
  6
DOT
 62
               7
 10
14601.357223352994
 20
8049.5954942019143
 30
0.0
 11
14601.357223352994
 21
8039.5954942019143
 31
0.0
  0
LINE
  8
____1
  6
DOT
 62
               7
 10
14600.607223352994
 20
8040.3454942019143
 30
0.0
 11
14601.357223352994
 21
8039.5954942019143
 31
0.0
  0
LINE
  8
____1
  6
DOT
 62
               7
 10
14601.357223352994
 20
8049.5954942019143
 30
0.0
 11
14630.357223352994
 21
8049.5954942019143
 31
0.0
  0
LINE
  8
____1
  6
DOT
 62
               7
 10
14601.357223352994
 20
8039.5954942019143
 30
0.0
 11
14630.357223352994
 21
8039.5954942019143
 31
0.0
  0
LINE
  8
____1
  6
DOT
 62
               7
 10
14630.357223352994
 20
8048.8454942019143
 30
0.0
 11
14600.607223352994
 21
8048.8454942019143
 31
0.0
  0
ENDBLK
  8
0
  0
BLOCK
  8
0
  2
C56
 70
              64
 10
0.0
 20
0.0
  0
LINE
  8
____1
  6
DASHED2
 62
               7
 10
14628.107223352994
 20
8029.5954942019143
 30
0.0
 11
14629.607223352994
 21
8029.5954942019143
 31
0.0
  0
LINE
  8
____1
  6
DASHED2
 62
               7
 10
14629.607223352994
 20
8029.5954942019143
 30
0.0
 11
14629.607223352994
 21
8059.5954942019143
 31
0.0
  0
LINE
  8
____1
  6
DASHED2
 62
               7
 10
14628.107223352994
 20
8059.5954942019143
 30
0.0
 11
14629.607223352994
 21
8059.5954942019143
 31
0.0
  0
LINE
  8
____1
  6
DASHED2
 62
               7
 10
14628.107223352994
 20
8029.5954942019143
 30
0.0
 11
14628.107223352994
 21
8059.5954942019143
 31
0.0
  0
LINE
  8
____1
  6
DASHED2
 62
               7
 10
14630.607223352994
 20
8039.5954942019071
 30
0.0
 11
14629.607223352994
 21
8029.5954942019143
 31
0.0
  0
LINE
  8
____1
  6
DASHED2
 62
               7
 10
14630.607223352994
 20
8039.5954942019071
 30
0.0
 11
14630.607223352994
 21
8049.595494201918
 31
0.0
  0
LINE
  8
____1
  6
DASHED2
 62
               7
 10
14630.607223352994
 20
8049.595494201918
 30
0.0
 11
14629.607223352994
 21
8059.5954942019143
 31
0.0
  0
ENDBLK
  8
0
  0
BLOCK
  8
0
  2
C57
 70
              64
 10
0.0
 20
0.0
  0
LINE
  8
____1
  6
DASHED2
 62
               7
 10
14625.107223352994
 20
8029.5954942019143
 30
0.0
 11
14623.607223352994
 21
8029.5954942019143
 31
0.0
  0
LINE
  8
____1
  6
DASHED2
 62
               7
 10
14623.607223352994
 20
8029.5954942019143
 30
0.0
 11
14623.607223352994
 21
8059.5954942019143
 31
0.0
  0
LINE
  8
____1
  6
DASHED2
 62
               7
 10
14625.107223352994
 20
8059.5954942019143
 30
0.0
 11
14623.607223352994
 21
8059.5954942019143
 31
0.0
  0
LINE
  8
____1
  6
DASHED2
 62
               7
 10
14625.107223352994
 20
8029.5954942019143
 30
0.0
 11
14625.107223352994
 21
8059.5954942019143
 31
0.0
  0
LINE
  8
____1
  6
DASHED2
 62
               7
 10
14622.607223352994
 20
8039.5954942019071
 30
0.0
 11
14623.607223352994
 21
8029.5954942019143
 31
0.0
  0
LINE
  8
____1
  6
DASHED2
 62
               7
 10
14622.607223352994
 20
8039.5954942019071
 30
0.0
 11
14622.607223352994
 21
8049.595494201918
 31
0.0
  0
LINE
  8
____1
  6
DASHED2
 62
               7
 10
14622.607223352994
 20
8049.595494201918
 30
0.0
 11
14623.607223352994
 21
8059.5954942019143
 31
0.0
  0
ENDBLK
  8
0
  0
BLOCK
  8
0
  2
C58
 70
              64
 10
0.0
 20
0.0
  0
LINE
  8
____1
  6
DASHED2
 62
               7
 10
14605.107223352994
 20
8036.0954942019143
 30
0.0
 11
14605.107223352994
 21
8044.5954942019143
 31
0.0
  0
LINE
  8
____1
  6
DASHED2
 62
               7
 10
14604.348216910485
 20
8039.6880169138003
 30
0.0
 11
14602.107223352994
 21
8039.6880169138003
 31
0.0
  0
LINE
  8
____1
  6
DASHED2
 62
               7
 10
14602.107223352994
 20
8034.7805396256899
 30
0.0
 11
14604.348033974438
 21
8034.7805396256899
 31
0.0
  0
LINE
  8
____1
  6
DASHED2
 62
               7
 10
14605.107223352994
 20
8036.0954942019143
 30
0.0
 11
14604.348033974438
 21
8034.7805396256899
 31
0.0
  0
ARC
  8
____1
  6
DASHED2
 62
               7
 10
14600.762039492167
 20
8037.2342782697469
 30
0.0
 40
4.3451838608270634
 50
-25.609310670496093
 51
34.381674152459333
  0
ARC
  8
____1
  6
DASHED2
 62
               7
 10
14588.862681322746
 20
8044.5954942019143
 30
0.0
 40
16.244542030247686
 50
-17.58378196092935
 51
0.0
  0
LINE
  8
____1
  6
DASHED2
 62
               7
 10
14605.107223352994
 20
8053.0954942019143
 30
0.0
 11
14605.107223352994
 21
8044.5954942019143
 31
0.0
  0
LINE
  8
____1
  6
DASHED2
 62
               7
 10
14604.348216910485
 20
8049.5029714900247
 30
0.0
 11
14602.107223352994
 21
8049.5029714900247
 31
0.0
  0
LINE
  8
____1
  6
DASHED2
 62
               7
 10
14602.107223352994
 20
8054.4104487781351
 30
0.0
 11
14604.348033974438
 21
8054.4104487781351
 31
0.0
  0
LINE
  8
____1
  6
DASHED2
 62
               7
 10
14605.107223352994
 20
8053.0954942019143
 30
0.0
 11
14604.348033974438
 21
8054.4104487781351
 31
0.0
  0
ARC
  8
____1
  6
DASHED2
 62
               7
 10
14600.762039492167
 20
8051.9567101340817
 30
0.0
 40
4.3451838608254905
 50
-34.381674152498924
 51
25.609310670452835
210
0.0
220
0.0
230
1.0
  0
ARC
  8
____1
  6
DASHED2
 62
               7
 10
14588.862681322746
 20
8044.5954942019143
 30
0.0
 40
16.244542030246588
 50
0.0
 51
17.583781960917118
210
0.0
220
0.0
230
1.0
  0
LINE
  8
____1
  6
DASHED2
 62
               7
 10
14599.107223352994
 20
8053.0954942019143
 30
0.0
 11
14599.107223352994
 21
8044.5954942019143
 31
0.0
  0
LINE
  8
____1
  6
DASHED2
 62
               7
 10
14599.866229795502
 20
8049.5029714900247
 30
0.0
 11
14602.107223352994
 21
8049.5029714900247
 31
0.0
  0
LINE
  8
____1
  6
DASHED2
 62
               7
 10
14602.107223352994
 20
8054.4104487781351
 30
0.0
 11
14599.866412731548
 21
8054.4104487781351
 31
0.0
  0
LINE
  8
____1
  6
DASHED2
 62
               7
 10
14599.107223352994
 20
8053.0954942019143
 30
0.0
 11
14599.866412731548
 21
8054.4104487781351
 31
0.0
  0
ARC
  8
____1
  6
DASHED2
 62
               7
 10
14603.452407213819
 20
8051.9567101340817
 30
0.0
 40
4.3451838608254905
 50
154.39068932954717
 51
-145.61832584750107
  0
ARC
  8
____1
  6
DASHED2
 62
               7
 10
14615.35176538324
 20
8044.5954942019143
 30
0.0
 40
16.244542030246588
 50
162.41621803908288
 51
180.0
  0
LINE
  8
____1
  6
DASHED2
 62
               7
 10
14599.107223352994
 20
8036.0954942019143
 30
0.0
 11
14599.107223352994
 21
8044.5954942019143
 31
0.0
  0
LINE
  8
____1
  6
DASHED2
 62
               7
 10
14599.866229795502
 20
8039.6880169138003
 30
0.0
 11
14602.107223352994
 21
8039.6880169138003
 31
0.0
  0
LINE
  8
____1
  6
DASHED2
 62
               7
 10
14602.107223352994
 20
8034.7805396256899
 30
0.0
 11
14599.866412731548
 21
8034.7805396256899
 31
0.0
  0
LINE
  8
____1
  6
DASHED2
 62
               7
 10
14599.107223352994
 20
8036.0954942019143
 30
0.0
 11
14599.866412731548
 21
8034.7805396256899
 31
0.0
  0
ARC
  8
____1
  6
DASHED2
 62
               7
 10
14603.452407213819
 20
8037.2342782697469
 30
0.0
 40
4.3451838608270634
 50
145.61832584754066
 51
-154.39068932950391
210
0.0
220
0.0
230
1.0
  0
ARC
  8
____1
  6
DASHED2
 62
               7
 10
14615.35176538324
 20
8044.5954942019143
 30
0.0
 40
16.244542030247686
 50
180.0
 51
-162.41621803907066
210
0.0
220
0.0
230
1.0
  0
ENDBLK
  8
0
  0
BLOCK
  8
0
  2
C59
 70
              64
 10
0.0
 20
0.0
  0
LINE
  8
____1
  6
DASHED2
 62
               7
 10
14605.107223352994
 20
8053.7956712852483
 30
0.0
 11
14607.607223352994
 21
8053.7956712852483
 31
0.0
  0
LINE
  8
____1
  6
DASHED2
 62
               7
 10
14605.107223352994
 20
8035.3956712852469
 30
0.0
 11
14605.107223352994
 21
8053.7956712852483
 31
0.0
  0
LINE
  8
____1
  6
DASHED2
 62
               7
 10
14607.607223352994
 20
8035.3956712852469
 30
0.0
 11
14605.107223352994
 21
8035.3956712852469
 31
0.0
  0
LINE
  8
____1
  6
DASHED2
 62
               7
 10
14605.107341842579
 20
8045.2509186810803
 30
0.0
 11
14607.607244186327
 21
8044.3410286393828
 31
0.0
  0
LINE
  8
____1
  6
DASHED2
 62
               7
 10
14605.107341842579
 20
8044.8509186810788
 30
0.0
 11
14607.607244186327
 21
8043.9410286393813
 31
0.0
  0
ENDBLK
  8
0
  0
BLOCK
  8
0
  2
C60
 70
              64
 10
0.0
 20
0.0
  0
LINE
  8
____1
  6
DASHED2
 62
               7
 10
14622.607223352994
 20
8051.0954942019143
 30
0.0
 11
14622.607223352994
 21
8038.0954942019143
 31
0.0
  0
LINE
  8
____1
  6
DASHED2
 62
               7
 10
14611.607223352994
 20
8051.0954942019143
 30
0.0
 11
14611.607223352994
 21
8038.0954942019143
 31
0.0
  0
LINE
  8
____1
  6
DASHED2
 62
               7
 10
14622.607223352994
 20
8051.0954942019143
 30
0.0
 11
14611.607223352994
 21
8051.0954942019143
 31
0.0
  0
LINE
  8
____1
  6
DASHED2
 62
               7
 10
14622.607223352994
 20
8038.0954942019143
 30
0.0
 11
14611.607223352994
 21
8038.0954942019143
 31
0.0
  0
LINE
  8
____1
  6
DOT
 62
               7
 10
14622.607223352994
 20
8049.8954942019136
 30
0.0
 11
14611.607223352994
 21
8049.8954942019136
 31
0.0
  0
LINE
  8
____1
  6
DOT
 62
               7
 10
14622.607223352994
 20
8039.2954942019114
 30
0.0
 11
14611.607223352994
 21
8039.2954942019114
 31
0.0
  0
ENDBLK
  8
0
  0
BLOCK
  8
0
  2
C61
 70
              64
 10
0.0
 20
0.0
  0
LINE
  8
____1
  6
DASHED2
 62
               7
 10
14927.971794982326
 20
8109.410266906867
 30
0.0
 11
14903.286272544045
 21
8102.0384429285077
 31
0.0
  0
POLYLINE
  8
____1
  6
DASHED2
 62
               7
 66
               1
 10
0.0
 20
0.0
 30
0.0
 70
               8
  0
VERTEX
  8
____1
 62
               7
 10
14903.598834940962
 20
8088.2542070263053
 30
0.0
 70
              32
  0
VERTEX
  8
____1
 62
               7
 10
14903.596755966286
 20
8088.7234920016981
 30
0.0
 70
              32
  0
VERTEX
  8
____1
 62
               7
 10
14903.522270227573
 20
8089.1685236585336
 30
0.0
 70
              32
  0
VERTEX
  8
____1
 62
               7
 10
14903.382668907901
 20
8089.5457391975224
 30
0.0
 70
              32
  0
VERTEX
  8
____1
 62
               7
 10
14903.191617157099
 20
8089.8182141334946
 30
0.0
 70
              32
  0
VERTEX
  8
____1
 62
               7
 10
14902.967816451672
 20
8089.9592767212716
 30
0.0
 70
              32
  0
VERTEX
  8
____1
 62
               7
 10
14902.857058272575
 20
8089.9757233844975
 30
0.0
 70
              32
  0
SEQEND
  8
____1
 62
               7
  0
ARC
  8
____1
  6
DASHED2
 62
               7
 10
14940.357058272575
 20
8085.9757233844975
 30
0.0
 40
5.0
 50
-90.0
 51
0.0
210
0.0
220
0.0
230
1.0
  0
ARC
  8
____1
  6
DASHED2
 62
               7
 10
14929.221794982326
 20
8081.7257233844975
 30
0.0
 40
1.25
 50
0.0
 51
180.0
  0
LINE
  8
____1
  6
DASHED2
 62
               7
 10
14930.471794982326
 20
8081.2757233844968
 30
0.0
 11
14930.471794982326
 21
8081.7257233844975
 31
0.0
  0
POLYLINE
  8
____1
  6
DASHED2
 62
               7
 66
               1
 10
0.0
 20
0.0
 30
0.0
 70
               8
  0
VERTEX
  8
____1
 62
               7
 10
14787.115281604189
 20
8088.2542070263053
 30
0.0
 70
              32
  0
VERTEX
  8
____1
 62
               7
 10
14787.117360578864
 20
8088.7234920016981
 30
0.0
 70
              32
  0
VERTEX
  8
____1
 62
               7
 10
14787.191846317577
 20
8089.1685236585336
 30
0.0
 70
              32
  0
VERTEX
  8
____1
 62
               7
 10
14787.331447637249
 20
8089.5457391975224
 30
0.0
 70
              32
  0
VERTEX
  8
____1
 62
               7
 10
14787.522499388051
 20
8089.8182141334946
 30
0.0
 70
              32
  0
VERTEX
  8
____1
 62
               7
 10
14787.746300093479
 20
8089.9592767212716
 30
0.0
 70
              32
  0
VERTEX
  8
____1
 62
               7
 10
14787.857058272575
 20
8089.9757233844975
 30
0.0
 70
              32
  0
SEQEND
  8
____1
 62
               7
  0
ARC
  8
____1
  6
DASHED2
 62
               7
 10
14787.857058272575
 20
8088.4757233844975
 30
0.0
 40
1.5
 50
0.0
 51
90.0
210
0.0
220
0.0
230
1.0
  0
LINE
  8
____1
  6
DASHED2
 62
               7
 10
14787.857058272575
 20
8101.9757233844975
 30
0.0
 11
14787.857058272575
 21
8089.9757233844975
 31
0.0
  0
LINE
  8
____1
  6
DASHED2
 62
               7
 10
14745.357058272581
 20
8105.9757233844975
 30
0.0
 11
14745.357058272581
 21
8085.9757233844975
 31
0.0
  0
LINE
  8
____1
  6
DASHED2
 62
               7
 10
14927.585951982759
 20
8081.0909474670807
 30
0.0
 11
14903.598834940962
 21
8088.2542070263044
 31
0.0
  0
LINE
  8
____1
  6
DASHED2
 62
               7
 10
14902.857058272575
 20
8101.9757233844975
 30
0.0
 11
14902.857058272575
 21
8089.9757233844975
 31
0.0
  0
LINE
  8
____1
  6
DASHED2
 62
               7
 10
14945.357058272575
 20
8105.9757233844975
 30
0.0
 11
14945.357058272575
 21
8085.9757233844975
 31
0.0
  0
ARC
  8
____1
  6
DASHED2
 62
               7
 10
14787.857058272575
 20
8103.4757233844975
 30
0.0
 40
1.5
 50
-90.0
 51
0.0
  0
POLYLINE
  8
____1
  6
DASHED2
 62
               7
 66
               1
 10
0.0
 20
0.0
 30
0.0
 70
               8
  0
VERTEX
  8
____1
 62
               7
 10
14787.115281604189
 20
8103.6972397426898
 30
0.0
 70
              32
  0
VERTEX
  8
____1
 62
               7
 10
14787.117360578864
 20
8103.227954767297
 30
0.0
 70
              32
  0
VERTEX
  8
____1
 62
               7
 10
14787.191846317577
 20
8102.7829231104615
 30
0.0
 70
              32
  0
VERTEX
  8
____1
 62
               7
 10
14787.331447637249
 20
8102.4057075714727
 30
0.0
 70
              32
  0
VERTEX
  8
____1
 62
               7
 10
14787.522499388051
 20
8102.1332326355005
 30
0.0
 70
              32
  0
VERTEX
  8
____1
 62
               7
 10
14787.746300093479
 20
8101.9921700477234
 30
0.0
 70
              32
  0
VERTEX
  8
____1
 62
               7
 10
14787.857058272575
 20
8101.9757233844975
 30
0.0
 70
              32
  0
SEQEND
  8
____1
 62
               7
  0
LINE
  8
____1
  6
DASHED2
 62
               7
 10
14787.427844001113
 20
8089.9130038404874
 30
0.0
 11
14762.742321562831
 21
8082.5411798621262
 31
0.0
  0
LINE
  8
____1
  6
DASHED2
 62
               7
 10
14902.857058272575
 20
8089.9757233844975
 30
0.0
 11
14787.857058272575
 21
8089.9757233844975
 31
0.0
  0
LINE
  8
____1
  6
DASHED2
 62
               7
 10
14901.357058272579
 20
8088.4757233844975
 30
0.0
 11
14789.357058272579
 21
8088.4757233844975
 31
0.0
  0
LINE
  8
____1
  6
DASHED2
 62
               7
 10
14927.971794982326
 20
8082.541179862128
 30
0.0
 11
14903.286272544045
 21
8089.9130038404874
 31
0.0
  0
LINE
  8
____1
  6
DASHED2
 62
               7
 10
14787.857058272575
 20
8101.9757233844975
 30
0.0
 11
14902.857058272575
 21
8101.9757233844975
 31
0.0
  0
LINE
  8
____1
  6
DASHED2
 62
               7
 10
14789.357058272575
 20
8103.4757233844975
 30
0.0
 11
14901.357058272575
 21
8103.4757233844975
 31
0.0
  0
LINE
  8
____1
  6
DASHED2
 62
               7
 10
14759.942321562829
 20
8110.9757233844975
 30
0.0
 11
14750.357058272581
 21
8110.9757233844975
 31
0.0
  0
ARC
  8
____1
  6
DASHED2
 62
               7
 10
14759.942321562829
 20
8110.6757233844965
 30
0.0
 40
0.3000000000010914
 50
0.0
 51
90.0
210
0.0
220
0.0
230
0.9999999999999999
  0
POLYLINE
  8
____1
  6
DASHED2
 62
               7
 66
               1
 10
0.0
 20
0.0
 30
0.0
 70
               8
  0
VERTEX
  8
____1
 62
               7
 10
14763.128165110709
 20
8110.8604991381681
 30
0.0
 70
              32
  0
VERTEX
  8
____1
 62
               7
 10
14762.899760112738
 20
8110.8370058138416
 30
0.0
 70
              32
  0
VERTEX
  8
____1
 62
               7
 10
14762.754865678759
 20
8110.6588868019762
 30
0.0
 70
              32
  0
VERTEX
  8
____1
 62
               7
 10
14762.742321562839
 20
8110.5730409000962
 30
0.0
 70
              32
  0
SEQEND
  8
____1
 62
               7
  0
ARC
  8
____1
  6
DASHED2
 62
               7
 10
14930.771794982329
 20
8110.6757233844965
 30
0.0
 40
0.3000000000010914
 50
90.0
 51
180.0
  0
ARC
  8
____1
  6
DASHED2
 62
               7
 10
14763.042321562831
 20
8081.3784035148965
 30
0.0
 40
0.2999999999985377
 50
179.99967459815417
 51
-73.372686758660876
210
0.0
220
0.0
230
1.0
  0
ARC
  8
____1
  6
DASHED2
 62
               7
 10
14940.357058272575
 20
8105.9757233844975
 30
0.0
 40
5.0
 50
0.0
 51
90.0
210
0.0
220
0.0
230
1.0
  0
LINE
  8
____1
  6
DASHED2
 62
               7
 10
14927.585952128031
 20
8110.8604993452936
 30
0.0
 11
14903.598834940962
 21
8103.6972397426889
 31
0.0
  0
POLYLINE
  8
____1
  6
DASHED2
 62
               7
 66
               1
 10
0.0
 20
0.0
 30
0.0
 70
               8
  0
VERTEX
  8
____1
 62
               7
 10
14927.585952128033
 20
8110.8604993452946
 30
0.0
 70
              32
  0
VERTEX
  8
____1
 62
               7
 10
14927.814357069317
 20
8110.8370054698635
 30
0.0
 70
              32
  0
VERTEX
  8
____1
 62
               7
 10
14927.959251073524
 20
8110.6588861083901
 30
0.0
 70
              32
  0
VERTEX
  8
____1
 62
               7
 10
14927.971794982326
 20
8110.5730432540968
 30
0.0
 70
              32
  0
SEQEND
  8
____1
 62
               7
  0
LINE
  8
____1
  6
DASHED2
 62
               7
 10
14930.771794982329
 20
8110.9757233844975
 30
0.0
 11
14940.357058272575
 21
8110.9757233844975
 31
0.0
  0
LINE
  8
____1
  6
DASHED2
 62
               7
 10
14930.471794982326
 20
8110.6757233844965
 30
0.0
 11
14930.471794982326
 21
8110.2257233844975
 31
0.0
  0
ARC
  8
____1
  6
DASHED2
 62
               7
 10
14930.771794982329
 20
8081.2757233844968
 30
0.0
 40
0.2999999999997293
 50
180.0
 51
-89.99990000329025
210
0.0
220
0.0
230
1.0
  0
LINE
  8
____1
  6
DASHED2
 62
               7
 10
14940.357058272575
 20
8080.9757233844975
 30
0.0
 11
14930.771795505911
 21
8080.9757233844975
 31
0.0
  0
ARC
  8
____1
  6
DASHED2
 62
               7
 10
14927.671794982327
 20
8081.3784035148965
 30
0.0
 40
0.3000000000011316
 50
-106.62720314799446
 51
-0.0000197171130643
  0
ARC
  8
____1
  6
DASHED2
 62
               7
 10
14902.857058272575
 20
8103.4757233844975
 30
0.0
 40
1.5
 50
180.0
 51
-90.0
210
0.0
220
0.0
230
1.0
  0
POLYLINE
  8
____1
  6
DASHED2
 62
               7
 66
               1
 10
0.0
 20
0.0
 30
0.0
 70
               8
  0
VERTEX
  8
____1
 62
               7
 10
14903.598834940962
 20
8103.6972397426898
 30
0.0
 70
              32
  0
VERTEX
  8
____1
 62
               7
 10
14903.596755966286
 20
8103.227954767297
 30
0.0
 70
              32
  0
VERTEX
  8
____1
 62
               7
 10
14903.522270227573
 20
8102.7829231104615
 30
0.0
 70
              32
  0
VERTEX
  8
____1
 62
               7
 10
14903.382668907901
 20
8102.4057075714727
 30
0.0
 70
              32
  0
VERTEX
  8
____1
 62
               7
 10
14903.191617157099
 20
8102.1332326355005
 30
0.0
 70
              32
  0
VERTEX
  8
____1
 62
               7
 10
14902.967816451672
 20
8101.9921700477234
 30
0.0
 70
              32
  0
VERTEX
  8
____1
 62
               7
 10
14902.857058272575
 20
8101.9757233844975
 30
0.0
 70
              32
  0
SEQEND
  8
____1
 62
               7
  0
ARC
  8
____1
  6
DASHED2
 62
               7
 10
14902.857058272575
 20
8088.4757233844975
 30
0.0
 40
1.5
 50
90.0
 51
180.0
  0
LINE
  8
____1
  6
DASHED2
 62
               7
 10
14750.357058272581
 20
8080.9757233844975
 30
0.0
 11
14759.942321039247
 21
8080.9757233844975
 31
0.0
  0
ARC
  8
____1
  6
DASHED2
 62
               7
 10
14759.942321562829
 20
8081.2757233844968
 30
0.0
 40
0.2999999999997293
 50
-90.00009999670975
 51
0.0
  0
LINE
  8
____1
  6
DASHED2
 62
               7
 10
14760.242321562831
 20
8081.2757233844968
 30
0.0
 11
14760.242321562831
 21
8081.7257233844975
 31
0.0
  0
ARC
  8
____1
  6
DASHED2
 62
               7
 10
14761.492321562831
 20
8081.7257233844975
 30
0.0
 40
1.25
 50
0.0
 51
180.0
210
0.0
220
0.0
230
1.0
  0
ARC
  8
____1
  6
DASHED2
 62
               7
 10
14750.357058272581
 20
8085.9757233844975
 30
0.0
 40
5.0
 50
180.0
 51
-90.0
  0
ARC
  8
____1
  6
DASHED2
 62
               7
 10
14929.221794982326
 20
8110.2257233844975
 30
0.0
 40
1.25
 50
180.0
 51
0.0
210
0.0
220
0.0
230
1.0
  0
LINE
  8
____1
  6
DASHED2
 62
               7
 10
14762.742321562831
 20
8109.410266906867
 30
0.0
 11
14787.427844001113
 21
8102.0384429285077
 31
0.0
  0
LINE
  8
____1
  6
DASHED2
 62
               7
 10
14760.242321562831
 20
8110.6757233844965
 30
0.0
 11
14760.242321562831
 21
8110.2257233844975
 31
0.0
  0
LINE
  8
____1
  6
DASHED2
 62
               7
 10
14762.742321562831
 20
8110.5730409000971
 30
0.0
 11
14762.742321562831
 21
8081.3784052186966
 31
0.0
  0
ARC
  8
____1
  6
DASHED2
 62
               7
 10
14761.492321562831
 20
8110.2257233844975
 30
0.0
 40
1.25
 50
180.0
 51
0.0
  0
LINE
  8
____1
  6
DASHED2
 62
               7
 10
14763.128165110707
 20
8110.860499138169
 30
0.0
 11
14787.115281604189
 21
8103.6972397426889
 31
0.0
  0
ARC
  8
____1
  6
DASHED2
 62
               7
 10
14750.357058272581
 20
8105.9757233844975
 30
0.0
 40
5.0
 50
90.0
 51
180.0
  0
LINE
  8
____1
  6
DASHED2
 62
               7
 10
14787.115281604196
 20
8088.2542070263044
 30
0.0
 11
14763.128165114742
 21
8081.0909476320303
 31
0.0
  0
LINE
  8
____1
  6
DASHED2
 62
               7
 10
14927.971794982326
 20
8110.5730432540968
 30
0.0
 11
14927.971794982326
 21
8081.3784034116579
 31
0.0
  0
ENDBLK
  8
0
  0
BLOCK
  8
0
  2
C62
 70
              64
 10
0.0
 20
0.0
  0
INSERT
  8
____1
  6
CONTINUOUS
 62
             254
  2
C63
 10
0.0
 20
0.0
 30
0.0
  0
INSERT
  8
____1
  6
CONTINUOUS
 62
             254
  2
C64
 10
0.0
 20
0.0
 30
0.0
  0
ENDBLK
  8
0
  0
BLOCK
  8
0
  2
C63
 70
              64
 10
0.0
 20
0.0
  0
LINE
  8
____1
  6
DASHED2
 62
               7
 10
14713.357058272579
 20
8473.9757233844957
 30
0.0
 11
14725.357058272579
 21
8473.9757233844957
 31
0.0
  0
LINE
  8
____1
  6
DASHED2
 62
               7
 10
14687.357058272579
 20
8473.9757233844957
 30
0.0
 11
14699.357058272579
 21
8473.9757233844957
 31
0.0
  0
LINE
  8
____1
  6
DASHED2
 62
               7
 10
14661.357058272579
 20
8473.9757233844957
 30
0.0
 11
14673.357058272579
 21
8473.9757233844957
 31
0.0
  0
LINE
  8
____1
  6
DASHED2
 62
               7
 10
14725.357058272579
 20
8473.9757233844957
 30
0.0
 11
14725.357058272579
 21
8484.4757233844957
 31
0.0
  0
LINE
  8
____1
  6
DASHED2
 62
               7
 10
14713.357058272579
 20
8473.9757233844957
 30
0.0
 11
14713.357058272579
 21
8484.4757233844957
 31
0.0
  0
LINE
  8
____1
  6
DASHED2
 62
               7
 10
14699.357058272579
 20
8473.9757233844957
 30
0.0
 11
14699.357058272579
 21
8484.4757233844957
 31
0.0
  0
LINE
  8
____1
  6
DASHED2
 62
               7
 10
14687.357058272579
 20
8473.9757233844957
 30
0.0
 11
14687.357058272579
 21
8484.4757233844957
 31
0.0
  0
LINE
  8
____1
  6
DASHED2
 62
               7
 10
14673.357058272579
 20
8473.9757233844957
 30
0.0
 11
14673.357058272579
 21
8484.4757233844957
 31
0.0
  0
LINE
  8
____1
  6
DASHED2
 62
               7
 10
14661.357058272579
 20
8473.9757233844957
 30
0.0
 11
14661.357058272579
 21
8484.4757233844957
 31
0.0
  0
LINE
  8
____1
  6
DASHED2
 62
               7
 10
14661.357058272579
 20
8484.4757233844957
 30
0.0
 11
14725.357058272579
 21
8484.4757233844957
 31
0.0
  0
LINE
  8
____1
  6
DASHED2
 62
               7
 10
14661.357058272579
 20
8482.4757233844957
 30
0.0
 11
14725.357058272579
 21
8482.4757233844957
 31
0.0
  0
LINE
  8
____1
  6
DASHED2
 62
               7
 10
14661.357058272579
 20
8475.9757233844957
 30
0.0
 11
14673.357058272579
 21
8475.9757233844957
 31
0.0
  0
LINE
  8
____1
  6
DASHED2
 62
               7
 10
14687.357058272579
 20
8475.9757233844957
 30
0.0
 11
14699.357058272579
 21
8475.9757233844957
 31
0.0
  0
LINE
  8
____1
  6
DASHED2
 62
               7
 10
14713.357058272579
 20
8475.9757233844957
 30
0.0
 11
14725.357058272579
 21
8475.9757233844957
 31
0.0
  0
LINE
  8
____1
  6
DOT
 62
               2
 10
14661.357058272579
 20
8479.2257233844957
 30
0.0
 11
14725.357058272579
 21
8479.2257233844957
 31
0.0
  0
ENDBLK
  8
0
  0
BLOCK
  8
0
  2
C64
 70
              64
 10
0.0
 20
0.0
  0
LINE
  8
____1
  6
DASHED2
 62
               7
 10
14699.557058272578
 20
8482.4757233844957
 30
0.0
 11
14713.15705827258
 21
8482.4757233844957
 31
0.0
  0
LINE
  8
____1
  6
DASHED2
 62
               7
 10
14673.55705827258
 20
8482.4757233844957
 30
0.0
 11
14687.157058272578
 21
8482.4757233844957
 31
0.0
  0
LINE
  8
____1
  6
DASHED2
 62
               7
 10
14673.55705827258
 20
8484.4757233844957
 30
0.0
 11
14687.157058272578
 21
8484.4757233844957
 31
0.0
  0
LINE
  8
____1
  6
DASHED2
 62
               7
 10
14699.557058272578
 20
8484.4757233844957
 30
0.0
 11
14713.15705827258
 21
8484.4757233844957
 31
0.0
  0
LINE
  8
____1
  6
DASHED2
 62
               7
 10
14661.357058272579
 20
8473.9757233844957
 30
0.0
 11
14661.357058272579
 21
8475.9757233844957
 31
0.0
  0
LINE
  8
____1
  6
DASHED2
 62
               7
 10
14661.357058272579
 20
8473.9757233844957
 30
0.0
 11
14725.357058272579
 21
8473.9757233844957
 31
0.0
  0
LINE
  8
____1
  6
DASHED2
 62
               7
 10
14725.357058272579
 20
8473.9757233844957
 30
0.0
 11
14725.357058272579
 21
8475.9757233844957
 31
0.0
  0
LINE
  8
____1
  6
DASHED2
 62
               7
 10
14661.357058272579
 20
8475.9757233844957
 30
0.0
 11
14725.357058272579
 21
8475.9757233844957
 31
0.0
  0
LINE
  8
____1
  6
DASHED2
 62
               7
 10
14713.157058272578
 20
8473.9757233844957
 30
0.0
 11
14713.157058272578
 21
8484.4757233844957
 31
0.0
  0
LINE
  8
____1
  6
DASHED2
 62
               7
 10
14699.55705827258
 20
8473.9757233844957
 30
0.0
 11
14699.55705827258
 21
8484.4757233844957
 31
0.0
  0
LINE
  8
____1
  6
DASHED2
 62
               7
 10
14687.157058272578
 20
8473.9757233844957
 30
0.0
 11
14687.157058272578
 21
8484.4757233844975
 31
0.0
  0
LINE
  8
____1
  6
DASHED2
 62
               7
 10
14673.55705827258
 20
8473.9757233844957
 30
0.0
 11
14673.55705827258
 21
8484.4757233844975
 31
0.0
  0
LINE
  8
____1
  6
DOT
 62
               2
 10
14661.357058272579
 20
8479.2257233844957
 30
0.0
 11
14725.357058272579
 21
8479.2257233844957
 31
0.0
  0
LINE
  8
____1
  6
DOT
 62
               2
 10
14671.357058272579
 20
8471.9757233844957
 30
0.0
 11
14671.357058272579
 21
8477.9757233844957
 31
0.0
  0
LINE
  8
____1
  6
DOT
 62
               2
 10
14693.357058272579
 20
8471.9757233844957
 30
0.0
 11
14693.357058272579
 21
8477.9757233844957
 31
0.0
  0
LINE
  8
____1
  6
DOT
 62
               2
 10
14715.357058272579
 20
8471.9757233844957
 30
0.0
 11
14715.357058272579
 21
8477.9757233844957
 31
0.0
  0
ENDBLK
  8
0
  0
BLOCK
  8
0
  2
C65
 70
              64
 10
0.0
 20
0.0
  0
LINE
  8
____1
  6
DOT
 62
               7
 10
14607.107064498827
 20
8289.2079236754307
 30
0.0
 11
14605.107064498827
 21
8289.2079236754307
 31
0.0
  0
LINE
  8
____1
  6
DOT
 62
               7
 10
14605.107064498827
 20
8299.7079236754307
 30
0.0
 11
14607.107064498827
 21
8299.7079236754307
 31
0.0
  0
LINE
  8
____1
  6
DASHED2
 62
               7
 10
14605.107064498827
 20
8305.4579236754307
 30
0.0
 11
14607.107064498827
 21
8305.4579236754307
 31
0.0
  0
LINE
  8
____1
  6
DASHED2
 62
               7
 10
14605.107064498827
 20
8305.4579236754307
 30
0.0
 11
14605.107064498827
 21
8283.4579236754307
 31
0.0
  0
LINE
  8
____1
  6
DASHED2
 62
               7
 10
14605.107064498827
 20
8283.4579236754307
 30
0.0
 11
14607.107064498827
 21
8283.4579236754307
 31
0.0
  0
LINE
  8
____1
  6
DASHED2
 62
               7
 10
14607.107064498827
 20
8305.4579236754307
 30
0.0
 11
14607.107064498827
 21
8283.4579236754307
 31
0.0
  0
ENDBLK
  8
0
  0
BLOCK
  8
0
  2
C66
 70
              64
 10
0.0
 20
0.0
  0
LINE
  8
____1
  6
DASHED2
 62
               7
 10
14611.607241256639
 20
8307.0957218002059
 30
0.0
 11
14611.607241256639
 21
8032.0957218002077
 31
0.0
  0
LINE
  8
____1
  6
DASHED2
 62
               7
 10
14607.607241256639
 20
8307.0957218002059
 30
0.0
 11
14611.607241256639
 21
8307.0957218002059
 31
0.0
  0
LINE
  8
____1
  6
DASHED2
 62
               7
 10
14607.607241256639
 20
8032.0957218002077
 30
0.0
 11
14607.607241256639
 21
8307.0957218002059
 31
0.0
  0
LINE
  8
____1
  6
DASHED2
 62
               7
 10
14611.607241256639
 20
8032.0957218002077
 30
0.0
 11
14607.607241256639
 21
8032.0957218002077
 31
0.0
  0
ENDBLK
  8
0
  0
BLOCK
  8
0
  2
C67
 70
              64
 10
0.0
 20
0.0
  0
INSERT
  8
____1
  6
DASHED2
 62
             254
  2
C68
 10
0.0
 20
0.0
 30
0.0
  0
INSERT
  8
____1
  6
DASHED2
 62
               7
  2
C69
 10
0.0
 20
0.0
 30
0.0
  0
ENDBLK
  8
0
  0
BLOCK
  8
0
  2
C68
 70
              64
 10
0.0
 20
0.0
  0
LINE
  8
____1
  6
DASHED2
 62
               7
 10
14576.857223352994
 20
7368.0357041053248
 30
0.0
 11
14845.38340196265
 21
7372.7228459878825
 31
0.0
  0
LINE
  8
____1
  6
CONTINUOUS
 62
               5
 10
15113.857223352994
 20
7321.5097499999974
 30
0.0
 11
14576.857223352994
 21
7321.5097499999974
 31
0.0
  0
LINE
  8
____1
  6
CONTINUOUS
 62
               5
 10
15115.357223352994
 20
7369.5097499999974
 30
0.0
 11
14575.357223352994
 21
7369.5097499999974
 31
0.0
  0
LINE
  8
____1
  6
CONTINUOUS
 62
               5
 10
14575.357223352994
 20
7369.5097499999974
 30
0.0
 11
14575.357223352994
 21
7323.0097499999974
 31
0.0
  0
LINE
  8
____1
  6
DASHED2
 62
               7
 10
14576.857223352994
 20
7368.0357041053248
 30
0.0
 11
14576.857223352994
 21
7321.5097499999974
 31
0.0
  0
LINE
  8
____1
  6
CONTINUOUS
 62
               5
 10
15115.357223352994
 20
7323.0097499999974
 30
0.0
 11
15115.357223352994
 21
7369.5097499999974
 31
0.0
  0
LINE
  8
____1
  6
DASHED2
 62
               7
 10
15113.857223352994
 20
7321.5097499999974
 30
0.0
 11
15113.857223352994
 21
7368.0357041053248
 31
0.0
  0
LINE
  8
____1
  6
DASHED2
 62
               7
 10
14578.357223352994
 20
7331.5097499999974
 30
0.0
 11
14578.357223352994
 21
7323.0097499999974
 31
0.0
  0
ARC
  8
____1
  6
DASHED2
 62
               7
 10
14576.857223352994
 20
7323.0097499999974
 30
0.0
 40
1.5
 50
-90.0
 51
0.0
  0
ARC
  8
____1
  6
CONTINUOUS
 62
               5
 10
14576.857223352994
 20
7323.0097499999974
 30
0.0
 40
1.5
 50
180.0
 51
-90.0
210
0.0
220
0.0
230
1.0
  0
ARC
  8
____1
  6
CONTINUOUS
 62
               5
 10
15113.857223352994
 20
7323.0097499999974
 30
0.0
 40
1.5
 50
-90.0
 51
0.0
  0
LINE
  8
____1
  6
DASHED2
 62
               7
 10
15112.357223352994
 20
7323.0097499999974
 30
0.0
 11
15112.357223352994
 21
7331.5097499999974
 31
0.0
  0
ARC
  8
____1
  6
DASHED2
 62
               7
 10
15113.857223352994
 20
7323.0097499999974
 30
0.0
 40
1.5
 50
180.0
 51
-90.0
  0
LINE
  8
____1
  6
CONTINUOUS
 62
               5
 10
15115.357223352994
 20
7369.5097499999974
 30
0.0
 11
14845.334107891007
 21
7374.2230210125053
 31
0.0
  0
LINE
  8
____1
  6
DASHED2
 62
               7
 10
15113.857223352994
 20
7368.0357041053248
 30
0.0
 11
14845.307929281351
 21
7372.723249469771
 31
0.0
  0
LINE
  8
____1
  6
DOT
 62
               2
 10
15115.296139930464
 20
7366.0102830669493
 30
0.0
 11
15115.392128165871
 21
7371.5094453903112
 31
0.0
  0
LINE
  8
____1
  6
DASHED2
 62
               7
 10
14576.857223352994
 20
7331.5097499999974
 30
0.0
 11
15113.857223352994
 21
7331.5097499999974
 31
0.0
  0
ARC
  8
____1
  6
DASHED2
 62
               7
 10
14829.857223352994
 20
7365.5097499999974
 30
0.0
 40
2.5
 50
90.0
 51
180.0
210
0.0
220
0.0
230
1.0
  0
ARC
  8
____1
  6
DASHED2
 62
               7
 10
14829.857223352994
 20
7365.5097499999974
 30
0.0
 40
0.5
 50
90.0
 51
180.0
210
0.0
220
0.0
230
1.0
  0
LINE
  8
____1
  6
DASHED2
 62
               7
 10
14830.357223352994
 20
7366.0097499999974
 30
0.0
 11
14830.357223352994
 21
7368.0097499999974
 31
0.0
  0
LINE
  8
____1
  6
DASHED2
 62
               7
 10
14827.357223352994
 20
7344.5097499999974
 30
0.0
 11
14829.357223352994
 21
7344.5097499999974
 31
0.0
  0
LINE
  8
____1
  6
DASHED2
 62
               7
 10
14827.357223352994
 20
7354.0097499999974
 30
0.0
 11
14829.357223352994
 21
7354.0097499999974
 31
0.0
  0
LINE
  8
____1
  6
DASHED2
 62
               7
 10
14829.357223352994
 20
7365.5097499999974
 30
0.0
 11
14829.357223352994
 21
7344.5097499999974
 31
0.0
  0
LINE
  8
____1
  6
DASHED2
 62
               7
 10
14827.357223352994
 20
7365.5097499999974
 30
0.0
 11
14827.357223352994
 21
7344.5097499999974
 31
0.0
  0
LINE
  8
____1
  6
DASHED2
 62
               7
 10
14833.507223352995
 20
7368.4097499999989
 30
0.0
 11
14833.507223352995
 21
7368.0097499999974
 31
0.0
  0
LINE
  8
____1
  6
DASHED2
 62
               7
 10
14837.207223352993
 20
7368.4097499999989
 30
0.0
 11
14833.507223352995
 21
7368.4097499999989
 31
0.0
  0
LINE
  8
____1
  6
DASHED2
 62
               7
 10
14837.207223352993
 20
7368.4097499999989
 30
0.0
 11
14837.207223352993
 21
7368.0097499999974
 31
0.0
  0
LINE
  8
____1
  6
DASHED2
 62
               7
 10
14860.857223352994
 20
7368.0097499999974
 30
0.0
 11
14829.857223352994
 21
7368.0097499999974
 31
0.0
  0
LINE
  8
____1
  6
DASHED2
 62
               7
 10
14833.507223352995
 20
7366.4097499999989
 30
0.0
 11
14833.507223352995
 21
7366.0097499999974
 31
0.0
  0
LINE
  8
____1
  6
DASHED2
 62
               7
 10
14833.507223352995
 20
7366.4097499999989
 30
0.0
 11
14837.207223352993
 21
7366.4097499999989
 31
0.0
  0
LINE
  8
____1
  6
DASHED2
 62
               7
 10
14837.207223352993
 20
7366.4097499999989
 30
0.0
 11
14837.207223352993
 21
7366.0097499999974
 31
0.0
  0
LINE
  8
____1
  6
DASHED2
 62
               7
 10
14853.507223352995
 20
7366.4097499999989
 30
0.0
 11
14853.507223352995
 21
7366.0097499999974
 31
0.0
  0
LINE
  8
____1
  6
DASHED2
 62
               7
 10
14860.357223352994
 20
7366.0097499999974
 30
0.0
 11
14860.357223352994
 21
7368.0097499999974
 31
0.0
  0
LINE
  8
____1
  6
DASHED2
 62
               7
 10
14863.357223352994
 20
7344.5097499999974
 30
0.0
 11
14863.357223352994
 21
7365.5097499999974
 31
0.0
  0
LINE
  8
____1
  6
DASHED2
 62
               7
 10
14861.357223352994
 20
7344.5097499999974
 30
0.0
 11
14861.357223352994
 21
7365.5097499999974
 31
0.0
  0
LINE
  8
____1
  6
DASHED2
 62
               7
 10
14857.207223352993
 20
7366.4097499999989
 30
0.0
 11
14853.507223352995
 21
7366.4097499999989
 31
0.0
  0
LINE
  8
____1
  6
DASHED2
 62
               7
 10
14857.207223352993
 20
7366.4097499999989
 30
0.0
 11
14857.207223352993
 21
7366.0097499999974
 31
0.0
  0
LINE
  8
____1
  6
DASHED2
 62
               7
 10
14857.207223352993
 20
7368.4097499999989
 30
0.0
 11
14857.207223352993
 21
7368.0097499999974
 31
0.0
  0
LINE
  8
____1
  6
DASHED2
 62
               7
 10
14857.207223352993
 20
7368.4097499999989
 30
0.0
 11
14853.507223352995
 21
7368.4097499999989
 31
0.0
  0
LINE
  8
____1
  6
DASHED2
 62
               7
 10
14853.507223352995
 20
7368.0097499999974
 30
0.0
 11
14853.507223352995
 21
7368.4097499999989
 31
0.0
  0
ARC
  8
____1
  6
DASHED2
 62
               7
 10
14860.857223352994
 20
7365.5097499999974
 30
0.0
 40
2.5
 50
0.0
 51
90.0
210
0.0
220
0.0
230
1.0
  0
LINE
  8
____1
  6
CONTINUOUS
 62
               5
 10
14575.357223352994
 20
7369.5097499999974
 30
0.0
 11
14845.357223352994
 21
7374.2226175306168
 31
0.0
  0
LINE
  8
____1
  6
DASHED2
 62
               7
 10
14830.357223352994
 20
7362.0097499999974
 30
0.0
 11
14840.357223352994
 21
7362.0097499999974
 31
0.0
  0
LINE
  8
____1
  6
DASHED2
 62
               7
 10
14840.357223352994
 20
7362.0097499999974
 30
0.0
 11
14850.357223352994
 21
7362.0097499999974
 31
0.0
  0
LINE
  8
____1
  6
DASHED2
 62
               7
 10
14860.357223352994
 20
7362.0097499999974
 30
0.0
 11
14865.357223352994
 21
7362.0097499999974
 31
0.0
  0
LINE
  8
____1
  6
DASHED2
 62
               7
 10
14850.357223352994
 20
7362.0097499999974
 30
0.0
 11
14860.357223352994
 21
7362.0097499999974
 31
0.0
  0
LINE
  8
____1
  6
DASHED2
 62
               7
 10
14830.357223352994
 20
7354.0097499999974
 30
0.0
 11
14825.357223352994
 21
7354.0097499999974
 31
0.0
  0
LINE
  8
____1
  6
DASHED2
 62
               7
 10
14865.357223352994
 20
7354.0097499999974
 30
0.0
 11
14860.357223352994
 21
7354.0097499999974
 31
0.0
  0
POLYLINE
  8
____1
  6
DASHED2
 62
               7
 66
               1
 10
0.0
 20
0.0
 30
0.0
 70
               8
  0
VERTEX
  8
____1
 62
               7
 10
14860.357223352994
 20
7304.911334148348
 30
0.0
 70
              32
  0
VERTEX
  8
____1
 62
               7
 10
14860.129339648178
 20
7302.4174474951369
 30
0.0
 70
              32
  0
VERTEX
  8
____1
 62
               7
 10
14859.452612664783
 20
7299.9993363259155
 30
0.0
 70
              32
  0
VERTEX
  8
____1
 62
               7
 10
14858.347604409761
 20
7297.7304737249387
 30
0.0
 70
              32
  0
VERTEX
  8
____1
 62
               7
 10
14856.847889999779
 20
7295.6797979342364
 30
0.0
 70
              32
  0
VERTEX
  8
____1
 62
               7
 10
14854.999037498292
 20
7293.9096177000165
 30
0.0
 70
              32
  0
VERTEX
  8
____1
 62
               7
 10
14852.857223352994
 20
7292.4737190529422
 30
0.0
 70
              32
  0
VERTEX
  8
____1
 62
               7
 10
14850.487525502878
 20
7291.4157310468054
 30
0.0
 70
              32
  0
VERTEX
  8
____1
 62
               7
 10
14847.961946017998
 20
7290.7678001118038
 30
0.0
 70
              32
  0
VERTEX
  8
____1
 62
               7
 10
14845.357223352994
 20
7290.5496133015295
 30
0.0
 70
              32
  0
VERTEX
  8
____1
 62
               7
 10
14842.75250068799
 20
7290.7678001118038
 30
0.0
 70
              32
  0
VERTEX
  8
____1
 62
               7
 10
14840.22692120311
 20
7291.4157310468054
 30
0.0
 70
              32
  0
VERTEX
  8
____1
 62
               7
 10
14837.857223352994
 20
7292.4737190529422
 30
0.0
 70
              32
  0
VERTEX
  8
____1
 62
               7
 10
14835.715409207696
 20
7293.9096177000165
 30
0.0
 70
              32
  0
VERTEX
  8
____1
 62
               7
 10
14833.866556706209
 20
7295.6797979342364
 30
0.0
 70
              32
  0
VERTEX
  8
____1
 62
               7
 10
14832.366842296227
 20
7297.7304737249387
 30
0.0
 70
              32
  0
VERTEX
  8
____1
 62
               7
 10
14831.261834041205
 20
7299.9993363259164
 30
0.0
 70
              32
  0
VERTEX
  8
____1
 62
               7
 10
14830.58510705781
 20
7302.4174474951369
 30
0.0
 70
              32
  0
VERTEX
  8
____1
 62
               7
 10
14830.357223352994
 20
7304.911334148348
 30
0.0
 70
              32
  0
SEQEND
  8
____1
 62
               7
  0
LINE
  8
____1
  6
DASHED2
 62
               7
 10
14830.357223352994
 20
7304.911334148348
 30
0.0
 11
14830.357223352994
 21
7364.0097499999974
 31
0.0
  0
LINE
  8
____1
  6
DASHED2
 62
               7
 10
14860.357223352994
 20
7304.911334148348
 30
0.0
 11
14860.357223352994
 21
7364.0097499999974
 31
0.0
  0
LINE
  8
____1
  6
DASHED2
 62
               7
 10
14830.357223352994
 20
7319.2730549951666
 30
0.0
 11
14860.357223352994
 21
7319.2730549951666
 31
0.0
  0
LINE
  8
____1
  6
DASHED2
 62
               7
 10
14825.357223352994
 20
7354.0097499999974
 30
0.0
 11
14825.357223352994
 21
7364.0097499999974
 31
0.0
  0
LINE
  8
____1
  6
DASHED2
 62
               7
 10
14825.357223352994
 20
7364.0097499999974
 30
0.0
 11
14865.357223352994
 21
7364.0097499999974
 31
0.0
  0
LINE
  8
____1
  6
DASHED2
 62
               7
 10
14865.357223352994
 20
7364.0097499999974
 30
0.0
 11
14865.357223352994
 21
7354.0097499999974
 31
0.0
  0
LINE
  8
____1
  6
DASHED2
 62
               7
 10
14840.357223352994
 20
7329.0097499999974
 30
0.0
 11
14840.357223352994
 21
7364.0097499999974
 31
0.0
  0
LINE
  8
____1
  6
DASHED2
 62
               7
 10
14850.357223352994
 20
7329.0097499999974
 30
0.0
 11
14850.357223352994
 21
7364.0097499999974
 31
0.0
  0
ARC
  8
____1
  6
DASHED2
 62
               7
 10
14845.357223352994
 20
7329.0097499999974
 30
0.0
 40
5.0
 50
179.99999999997917
 51
0.0000000000208441
210
0.0
220
0.0
230
1.0
  0
LINE
  8
____1
  6
DASHED2
 62
               7
 10
14865.357223352994
 20
7356.0097499999974
 30
0.0
 11
14825.357223352994
 21
7356.0097499999974
 31
0.0
  0
LINE
  8
____1
  6
DASHED2
 62
               7
 10
14825.357223352994
 20
7362.0097499999974
 30
0.0
 11
14830.357223352994
 21
7362.0097499999974
 31
0.0
  0
LINE
  8
____1
  6
DASHED2
 62
               7
 10
14850.357223352994
 20
7354.0097499999974
 30
0.0
 11
14840.357223352994
 21
7354.0097499999974
 31
0.0
  0
LINE
  8
____1
  6
DASHED2
 62
               7
 10
14860.357223352994
 20
7354.0097499999974
 30
0.0
 11
14850.357223352994
 21
7354.0097499999974
 31
0.0
  0
LINE
  8
____1
  6
DASHED2
 62
               7
 10
14840.357223352994
 20
7354.0097499999974
 30
0.0
 11
14830.357223352994
 21
7354.0097499999974
 31
0.0
  0
ARC
  8
____1
  6
DASHED2
 62
               7
 10
14860.857223352994
 20
7365.5097499999974
 30
0.0
 40
0.5
 50
0.0
 51
90.0
210
0.0
220
0.0
230
1.0
  0
LINE
  8
____1
  6
DASHED2
 62
               7
 10
14860.857223352994
 20
7366.0097499999974
 30
0.0
 11
14829.857223352994
 21
7366.0097499999974
 31
0.0
  0
LINE
  8
____1
  6
DASHED2
 62
               7
 10
14861.357223352994
 20
7354.0097499999974
 30
0.0
 11
14863.357223352994
 21
7354.0097499999974
 31
0.0
  0
LINE
  8
____1
  6
DASHED2
 62
               7
 10
14861.357223352994
 20
7344.5097499999974
 30
0.0
 11
14863.357223352994
 21
7344.5097499999974
 31
0.0
  0
ENDBLK
  8
0
  0
BLOCK
  8
0
  2
C69
 70
              64
 10
0.0
 20
0.0
  0
LINE
  8
____1
  6
DASHED2
 62
               7
 10
14926.239909255173
 20
7366.5097499999974
 30
0.0
 11
14926.672921957064
 21
7367.2597499999974
 31
0.0
  0
LINE
  8
____1
  6
DASHED2
 62
               7
 10
14916.424954678949
 20
7366.5097499999974
 30
0.0
 11
14945.357223352994
 21
7366.5097499999974
 31
0.0
  0
ARC
  8
____1
  6
DASHED2
 62
               7
 10
14927.971960062745
 20
7366.5097499999974
 30
0.0
 40
1.5000000000034706
 50
90.0
 51
150.00000000007654
210
0.0
220
0.0
230
1.0
  0
LINE
  8
____1
  6
DASHED2
 62
               7
 10
14788.723248756776
 20
7324.5097499999974
 30
0.0
 11
14901.991197949212
 21
7324.5097499999974
 31
0.0
  0
LINE
  8
____1
  6
DASHED2
 62
               7
 10
14792.764700641108
 20
7331.5097499999974
 30
0.0
 11
14897.94974606488
 21
7331.5097499999974
 31
0.0
  0
LINE
  8
____1
  6
DASHED2
 62
               7
 10
14933.607223352994
 20
7366.5097499999974
 30
0.0
 11
14933.607223352994
 21
7366.8597499999996
 31
0.0
  0
LINE
  8
____1
  6
DASHED2
 62
               7
 10
14933.607223352994
 20
7366.8597499999996
 30
0.0
 11
14937.107223352994
 21
7366.8597499999996
 31
0.0
  0
LINE
  8
____1
  6
DASHED2
 62
               7
 10
14937.107223352994
 20
7366.5097499999974
 30
0.0
 11
14937.107223352994
 21
7366.8597499999996
 31
0.0
  0
LINE
  8
____1
  6
DASHED2
 62
               7
 10
14937.107223352994
 20
7368.0097499999974
 30
0.0
 11
14937.107223352994
 21
7368.3597499999996
 31
0.0
  0
LINE
  8
____1
  6
DASHED2
 62
               7
 10
14933.607223352994
 20
7368.3597499999996
 30
0.0
 11
14937.107223352994
 21
7368.3597499999996
 31
0.0
  0
LINE
  8
____1
  6
DASHED2
 62
               7
 10
14933.607223352994
 20
7368.0097499999974
 30
0.0
 11
14933.607223352994
 21
7368.3597499999996
 31
0.0
  0
LINE
  8
____1
  6
DASHED2
 62
               7
 10
14788.723248756776
 20
7324.5097499999974
 30
0.0
 11
14764.474537450815
 21
7366.5097499999974
 31
0.0
  0
LINE
  8
____1
  6
DASHED2
 62
               7
 10
14757.107223352994
 20
7368.3597499999996
 30
0.0
 11
14753.607223352994
 21
7368.3597499999996
 31
0.0
  0
LINE
  8
____1
  6
DASHED2
 62
               7
 10
14753.607223352994
 20
7368.0097499999974
 30
0.0
 11
14753.607223352994
 21
7368.3597499999996
 31
0.0
  0
LINE
  8
____1
  6
DASHED2
 62
               7
 10
14793.63072604489
 20
7333.0097499999974
 30
0.0
 11
14774.289492027036
 21
7366.5097499999974
 31
0.0
  0
LINE
  8
____1
  6
DASHED2
 62
               7
 10
14792.764700641108
 20
7331.5097499999974
 30
0.0
 11
14772.990453921362
 21
7365.7597499999974
 31
0.0
  0
LINE
  8
____1
  6
DASHED2
 62
               7
 10
14764.474537450815
 20
7366.5097499999974
 30
0.0
 11
14764.041524748924
 21
7367.2597499999974
 31
0.0
  0
LINE
  8
____1
  6
DASHED2
 62
               7
 10
14762.742486643243
 20
7368.0097499999974
 30
0.0
 11
14745.357223352994
 21
7368.0097499999974
 31
0.0
  0
LINE
  8
____1
  6
DASHED2
 62
               7
 10
14745.357223352994
 20
7368.0097499999974
 30
0.0
 11
14745.357223352994
 21
7366.5097499999974
 31
0.0
  0
LINE
  8
____1
  6
DASHED2
 62
               7
 10
14787.857223352994
 20
7323.0097499999974
 30
0.0
 11
14762.742486643243
 21
7366.5097499999974
 31
0.0
  0
ARC
  8
____1
  6
DASHED2
 62
               7
 10
14787.857223352994
 20
7323.0097499999974
 30
0.0
 40
1.5
 50
0.0
 51
119.99999999999294
  0
LINE
  8
____1
  6
DASHED2
 62
               7
 10
14788.607223352994
 20
7324.3087881056745
 30
0.0
 11
14793.63072604489
 21
7333.0097499999974
 31
0.0
  0
ARC
  8
____1
  6
DASHED2
 62
               7
 10
14762.742486643243
 20
7366.5097499999974
 30
0.0
 40
1.5000000000039093
 50
29.999933376081355
 51
90.0
  0
LINE
  8
____1
  6
DASHED2
 62
               7
 10
14774.289492027036
 20
7366.5097499999974
 30
0.0
 11
14745.357223352994
 21
7366.5097499999974
 31
0.0
  0
LINE
  8
____1
  6
DASHED2
 62
               7
 10
14757.107223352994
 20
7366.8597499999996
 30
0.0
 11
14753.607223352994
 21
7366.8597499999996
 31
0.0
  0
LINE
  8
____1
  6
DASHED2
 62
               7
 10
14757.107223352994
 20
7368.0097499999974
 30
0.0
 11
14757.107223352994
 21
7368.3597499999996
 31
0.0
  0
LINE
  8
____1
  6
DASHED2
 62
               7
 10
14753.607223352994
 20
7366.5097499999974
 30
0.0
 11
14753.607223352994
 21
7366.8597499999996
 31
0.0
  0
LINE
  8
____1
  6
DASHED2
 62
               7
 10
14757.107223352994
 20
7366.5097499999974
 30
0.0
 11
14757.107223352994
 21
7366.8597499999996
 31
0.0
  0
LINE
  8
____1
  6
DASHED2
 62
               7
 10
14793.63072604489
 20
7333.0097499999974
 30
0.0
 11
14897.083720661098
 21
7333.0097499999974
 31
0.0
  0
LINE
  8
____1
  6
DASHED2
 62
               7
 10
14787.857223352994
 20
7323.0097499999974
 30
0.0
 11
14902.857223352994
 21
7323.0097499999974
 31
0.0
  0
ARC
  8
____1
  6
DASHED2
 62
               7
 10
14902.857223352994
 20
7323.0097499999974
 30
0.0
 40
1.5
 50
60.000000000007056
 51
180.0
210
0.0
220
0.0
230
1.0
  0
LINE
  8
____1
  6
DASHED2
 62
               7
 10
14902.107223352994
 20
7324.3087881056745
 30
0.0
 11
14897.083720661098
 21
7333.0097499999974
 31
0.0
  0
LINE
  8
____1
  6
DASHED2
 62
               7
 10
14897.94974606488
 20
7331.5097499999974
 30
0.0
 11
14917.723992784626
 21
7365.7597499999974
 31
0.0
  0
LINE
  8
____1
  6
DASHED2
 62
               7
 10
14902.857223352994
 20
7323.0097499999974
 30
0.0
 11
14927.971960062745
 21
7366.5097499999974
 31
0.0
  0
LINE
  8
____1
  6
DASHED2
 62
               7
 10
14897.083720661098
 20
7333.0097499999974
 30
0.0
 11
14916.424954678949
 21
7366.5097499999974
 31
0.0
  0
LINE
  8
____1
  6
DASHED2
 62
               7
 10
14901.991197949212
 20
7324.5097499999974
 30
0.0
 11
14926.239909255173
 21
7366.5097499999974
 31
0.0
  0
LINE
  8
____1
  6
DASHED2
 62
               7
 10
14945.357223352994
 20
7368.0097499999974
 30
0.0
 11
14945.357223352994
 21
7366.5097499999974
 31
0.0
  0
LINE
  8
____1
  6
DASHED2
 62
               7
 10
14927.971960062745
 20
7368.0097499999974
 30
0.0
 11
14945.357223352994
 21
7368.0097499999974
 31
0.0
  0
ENDBLK
  8
0
  0
BLOCK
  8
0
  2
C70
 70
              64
 10
0.0
 20
0.0
  0
LINE
  8
____1
  6
DASHED2
 62
               7
 10
16390.809947396388
 20
7857.8776471731426
 30
0.0
 11
16404.032523560352
 21
7834.9754734502085
 31
0.0
  0
LINE
  8
____1
  6
DASHED2
 62
               7
 10
16390.809947396388
 20
7887.0737995958507
 30
0.0
 11
16392.891713425015
 21
7890.6795241268946
 31
0.0
  0
LINE
  8
____1
  6
DASHED2
 62
               7
 10
16389.309947396388
 20
7864.9757233844966
 30
0.0
 11
16390.809947396388
 21
7864.9757233844966
 31
0.0
  0
LINE
  8
____1
  6
DASHED2
 62
               7
 10
16389.309947396388
 20
7879.9757233844966
 30
0.0
 11
16390.809947396388
 21
7879.9757233844966
 31
0.0
  0
LINE
  8
____1
  6
DASHED2
 62
               7
 10
16390.809947396388
 20
7857.8776471731426
 30
0.0
 11
16390.809947396388
 21
7887.0737995958507
 31
0.0
  0
LINE
  8
____1
  6
CONTINUOUS
 62
               5
 10
16389.309947396388
 20
7857.4757233844966
 30
0.0
 11
16389.309947396388
 21
7887.4757233844966
 31
0.0
  0
LINE
  8
____1
  6
CENTER2
 62
               3
 10
16378.617169827865
 20
7872.4757233844966
 30
0.0
 11
16404.47898800968
 21
7872.4757233844966
 31
0.0
  0
LINE
  8
____1
  6
CONTINUOUS
 62
               5
 10
16389.309947396388
 20
7887.4757233844966
 30
0.0
 11
16391.309947396388
 21
7890.9398249996329
 31
0.0
  0
LINE
  8
____1
  6
CONTINUOUS
 62
               5
 10
16389.309947396388
 20
7857.4757233844966
 30
0.0
 11
16402.610062868138
 21
7834.439247640893
 31
0.0
  0
INSERT
  8
____1
  6
CONTINUOUS
 62
               5
  2
C71
 10
0.0
 20
0.0
 30
0.0
  0
INSERT
  8
____1
  6
CONTINUOUS
 62
               5
  2
C72
 10
0.0
 20
0.0
 30
0.0
  0
LINE
  8
____1
  6
DASHED2
 62
               7
 10
16390.809947396388
 20
8587.0737995958589
 30
0.0
 11
16404.032523560352
 21
8609.975973318793
 31
0.0
  0
LINE
  8
____1
  6
DASHED2
 62
               7
 10
16390.809947396388
 20
8557.8776471731508
 30
0.0
 11
16392.891713425015
 21
8554.2719226421068
 31
0.0
  0
LINE
  8
____1
  6
DASHED2
 62
               7
 10
16389.309947396388
 20
8579.9757233845048
 30
0.0
 11
16390.809947396388
 21
8579.9757233845048
 31
0.0
  0
LINE
  8
____1
  6
DASHED2
 62
               7
 10
16389.309947396388
 20
8564.9757233845048
 30
0.0
 11
16390.809947396388
 21
8564.9757233845048
 31
0.0
  0
LINE
  8
____1
  6
DASHED2
 62
               7
 10
16390.809947396388
 20
8587.0737995958589
 30
0.0
 11
16390.809947396388
 21
8557.8776471731508
 31
0.0
  0
LINE
  8
____1
  6
CONTINUOUS
 62
               5
 10
16389.309947396388
 20
8587.4757233845048
 30
0.0
 11
16389.309947396388
 21
8557.4757233845048
 31
0.0
  0
LINE
  8
____1
  6
CENTER2
 62
               3
 10
16378.617169827865
 20
8572.4757233845048
 30
0.0
 11
16404.47898800968
 21
8572.4757233845048
 31
0.0
  0
LINE
  8
____1
  6
CONTINUOUS
 62
               5
 10
16389.309947396388
 20
8557.4757233845048
 30
0.0
 11
16391.309947396388
 21
8554.0116217693685
 31
0.0
  0
LINE
  8
____1
  6
CONTINUOUS
 62
               5
 10
16389.309947396388
 20
8587.4757233845048
 30
0.0
 11
16402.610062868138
 21
8610.5121991281085
 31
0.0
  0
ENDBLK
  8
0
  0
BLOCK
  8
0
  2
C71
 70
              64
 10
0.0
 20
0.0
  0
LINE
  8
____1
  6
CONTINUOUS
 62
               5
 10
16389.309947396388
 20
8427.4757233845048
 30
0.0
 11
16389.309947396388
 21
8457.4757233845048
 31
0.0
  0
POLYLINE
  8
____1
  6
CONTINUOUS
 62
               5
 66
               1
 10
0.0
 20
0.0
 30
0.0
 70
               8
  0
VERTEX
  8
____1
 62
               5
 10
16395.002767719423
 20
8466.4757233845048
 30
0.0
 70
              32
  0
VERTEX
  8
____1
 62
               5
 10
16396.323760658972
 20
8466.1111094567987
 30
0.0
 70
              32
  0
VERTEX
  8
____1
 62
               5
 10
16397.604615896507
 20
8465.0283462833668
 30
0.0
 70
              32
  0
VERTEX
  8
____1
 62
               5
 10
16398.806415293784
 20
8463.2603330753318
 30
0.0
 70
              32
  0
VERTEX
  8
____1
 62
               5
 10
16399.892642784249
 20
8460.8607900193601
 30
0.0
 70
              32
  0
VERTEX
  8
____1
 62
               5
 10
16400.830293895266
 20
8457.9026260169812
 30
0.0
 70
              32
  0
VERTEX
  8
____1
 62
               5
 10
16401.5908785723
 20
8454.4757233845048
 30
0.0
 70
              32
  0
VERTEX
  8
____1
 62
               5
 10
16402.151286834815
 20
8450.6842068243204
 30
0.0
 70
              32
  0
VERTEX
  8
____1
 62
               5
 10
16402.494490961333
 20
8446.6432796485115
 30
0.0
 70
              32
  0
VERTEX
  8
____1
 62
               5
 10
16402.610062868142
 20
8442.4757233845048
 30
0.0
 70
              32
  0
VERTEX
  8
____1
 62
               5
 10
16402.494490961333
 20
8438.3081671204982
 30
0.0
 70
              32
  0
VERTEX
  8
____1
 62
               5
 10
16402.151286834815
 20
8434.2672399446892
 30
0.0
 70
              32
  0
VERTEX
  8
____1
 62
               5
 10
16401.5908785723
 20
8430.4757233845048
 30
0.0
 70
              32
  0
VERTEX
  8
____1
 62
               5
 10
16400.830293895266
 20
8427.0488207520284
 30
0.0
 70
              32
  0
VERTEX
  8
____1
 62
               5
 10
16399.892642784249
 20
8424.0906567496495
 30
0.0
 70
              32
  0
VERTEX
  8
____1
 62
               5
 10
16398.806415293784
 20
8421.6911136936778
 30
0.0
 70
              32
  0
VERTEX
  8
____1
 62
               5
 10
16397.604615896507
 20
8419.9231004856429
 30
0.0
 70
              32
  0
VERTEX
  8
____1
 62
               5
 10
16396.323760658972
 20
8418.840337312211
 30
0.0
 70
              32
  0
VERTEX
  8
____1
 62
               5
 10
16395.002767719423
 20
8418.4757233845048
 30
0.0
 70
              32
  0
VERTEX
  8
____1
 62
               5
 10
16395.002767719423
 20
8418.4757233845048
 30
0.0
 70
              32
  0
SEQEND
  8
____1
 62
               5
  0
LINE
  8
____1
  6
CONTINUOUS
 62
               5
 10
16389.309947396388
 20
8457.4757233845048
 30
0.0
 11
16395.002767719423
 21
8466.4757233845048
 31
0.0
  0
LINE
  8
____1
  6
CONTINUOUS
 62
               5
 10
16389.309947396388
 20
8427.4757233845048
 30
0.0
 11
16395.002767719423
 21
8418.4757233845048
 31
0.0
  0
ENDBLK
  8
0
  0
BLOCK
  8
0
  2
C72
 70
              64
 10
0.0
 20
0.0
  0
LINE
  8
____1
  6
CONTINUOUS
 62
               5
 10
16389.309947396388
 20
8017.4757233844966
 30
0.0
 11
16389.309947396388
 21
7987.4757233844966
 31
0.0
  0
POLYLINE
  8
____1
  6
CONTINUOUS
 62
               5
 66
               1
 10
0.0
 20
0.0
 30
0.0
 70
               8
  0
VERTEX
  8
____1
 62
               5
 10
16395.002767719423
 20
7978.4757233844966
 30
0.0
 70
              32
  0
VERTEX
  8
____1
 62
               5
 10
16396.323760658972
 20
7978.8403373122037
 30
0.0
 70
              32
  0
VERTEX
  8
____1
 62
               5
 10
16397.604615896507
 20
7979.9231004856347
 30
0.0
 70
              32
  0
VERTEX
  8
____1
 62
               5
 10
16398.806415293784
 20
7981.6911136936706
 30
0.0
 70
              32
  0
VERTEX
  8
____1
 62
               5
 10
16399.892642784249
 20
7984.0906567496413
 30
0.0
 70
              32
  0
VERTEX
  8
____1
 62
               5
 10
16400.830293895266
 20
7987.0488207520202
 30
0.0
 70
              32
  0
VERTEX
  8
____1
 62
               5
 10
16401.5908785723
 20
7990.4757233844966
 30
0.0
 70
              32
  0
VERTEX
  8
____1
 62
               5
 10
16402.151286834815
 20
7994.267239944681
 30
0.0
 70
              32
  0
VERTEX
  8
____1
 62
               5
 10
16402.494490961333
 20
7998.3081671204909
 30
0.0
 70
              32
  0
VERTEX
  8
____1
 62
               5
 10
16402.610062868142
 20
8002.4757233844966
 30
0.0
 70
              32
  0
VERTEX
  8
____1
 62
               5
 10
16402.494490961333
 20
8006.6432796485033
 30
0.0
 70
              32
  0
VERTEX
  8
____1
 62
               5
 10
16402.151286834815
 20
8010.6842068243132
 30
0.0
 70
              32
  0
VERTEX
  8
____1
 62
               5
 10
16401.5908785723
 20
8014.4757233844966
 30
0.0
 70
              32
  0
VERTEX
  8
____1
 62
               5
 10
16400.830293895266
 20
8017.902626016974
 30
0.0
 70
              32
  0
VERTEX
  8
____1
 62
               5
 10
16399.892642784249
 20
8020.860790019352
 30
0.0
 70
              32
  0
VERTEX
  8
____1
 62
               5
 10
16398.806415293784
 20
8023.2603330753236
 30
0.0
 70
              32
  0
VERTEX
  8
____1
 62
               5
 10
16397.604615896507
 20
8025.0283462833586
 30
0.0
 70
              32
  0
VERTEX
  8
____1
 62
               5
 10
16396.323760658972
 20
8026.1111094567896
 30
0.0
 70
              32
  0
VERTEX
  8
____1
 62
               5
 10
16395.002767719423
 20
8026.4757233844966
 30
0.0
 70
              32
  0
VERTEX
  8
____1
 62
               5
 10
16395.002767719423
 20
8026.4757233844966
 30
0.0
 70
              32
  0
SEQEND
  8
____1
 62
               5
  0
LINE
  8
____1
  6
CONTINUOUS
 62
               5
 10
16389.309947396388
 20
7987.4757233844966
 30
0.0
 11
16395.002767719423
 21
7978.4757233844966
 31
0.0
  0
LINE
  8
____1
  6
CONTINUOUS
 62
               5
 10
16389.309947396388
 20
8017.4757233844966
 30
0.0
 11
16395.002767719423
 21
8026.4757233844966
 31
0.0
  0
ENDBLK
  8
0
  0
BLOCK
  8
0
  2
C73
 70
              64
 10
0.0
 20
0.0
  0
LINE
  8
____1
  6
DASHED2
 62
               7
 10
14607.607223352992
 20
7333.2162604166642
 30
0.0
 11
14607.607223352992
 21
7358.2162604166642
 31
0.0
  0
LINE
  8
____1
  6
DASHED2
 62
               7
 10
14611.607223352992
 20
7333.2162604166642
 30
0.0
 11
14607.607223352992
 21
7333.2162604166642
 31
0.0
  0
LINE
  8
____1
  6
DASHED2
 62
               7
 10
14611.607223352992
 20
7358.2162604166642
 30
0.0
 11
14611.607223352992
 21
7333.2162604166642
 31
0.0
  0
LINE
  8
____1
  6
DASHED2
 62
               7
 10
14607.607223352992
 20
7358.2162604166642
 30
0.0
 11
14611.607223352992
 21
7358.2162604166642
 31
0.0
  0
ENDBLK
  8
0
  0
BLOCK
  8
0
  2
C74
 70
              64
 10
0.0
 20
0.0
  0
LINE
  8
____1
  6
DOT
 62
               7
 10
14600.607223352992
 20
7341.4662604166642
 30
0.0
 11
14630.357223352992
 21
7341.4662604166642
 31
0.0
  0
INSERT
  8
____1
  6
DASHED2
 62
               7
  2
C75
 10
0.0
 20
0.0
 30
0.0
  0
INSERT
  8
____1
  6
DASHED2
 62
               7
  2
C76
 10
0.0
 20
0.0
 30
0.0
  0
INSERT
  8
____1
  6
DASHED2
 62
               7
  2
C77
 10
0.0
 20
0.0
 30
0.0
  0
INSERT
  8
____1
  6
DASHED2
 62
               7
  2
C78
 10
0.0
 20
0.0
 30
0.0
  0
INSERT
  8
____1
  6
DASHED2
 62
               7
  2
C79
 10
0.0
 20
0.0
 30
0.0
  0
LINE
  8
____1
  6
DASHED2
 62
               7
 10
14630.607223352992
 20
7355.5312149928886
 30
0.0
 11
14630.607223352992
 21
7335.9013058404398
 31
0.0
  0
LINE
  8
____1
  6
DASHED2
 62
               7
 10
14636.848216910485
 20
7340.8087831285502
 30
0.0
 11
14630.607223352992
 21
7340.8087831285502
 31
0.0
  0
LINE
  8
____1
  6
DASHED2
 62
               7
 10
14636.848033974436
 20
7335.9013058404398
 30
0.0
 11
14630.607223352992
 21
7335.9013058404398
 31
0.0
  0
LINE
  8
____1
  6
DASHED2
 62
               7
 10
14636.848033974436
 20
7355.5312149928886
 30
0.0
 11
14630.607223352992
 21
7355.5312149928886
 31
0.0
  0
LINE
  8
____1
  6
DASHED2
 62
               7
 10
14637.607223352992
 20
7354.2162604166642
 30
0.0
 11
14636.848033974436
 21
7355.5312149928886
 31
0.0
  0
LINE
  8
____1
  6
DASHED2
 62
               7
 10
14636.848216910485
 20
7350.6237377047746
 30
0.0
 11
14630.607223352992
 21
7350.6237377047746
 31
0.0
  0
LINE
  8
____1
  6
DASHED2
 62
               7
 10
14637.607223352992
 20
7354.2162604166642
 30
0.0
 11
14637.607223352992
 21
7345.7162604166642
 31
0.0
  0
LINE
  8
____1
  6
DASHED2
 62
               7
 10
14637.607223352992
 20
7337.2162604166642
 30
0.0
 11
14636.848033974436
 21
7335.9013058404398
 31
0.0
  0
LINE
  8
____1
  6
DASHED2
 62
               7
 10
14637.607223352992
 20
7337.2162604166642
 30
0.0
 11
14637.607223352992
 21
7345.7162604166642
 31
0.0
  0
ARC
  8
____1
  6
DASHED2
 62
               7
 10
14621.362681322744
 20
7345.7162604166642
 30
0.0
 40
16.244542030249008
 50
-17.583976886999036
 51
0.0
  0
ARC
  8
____1
  6
DASHED2
 62
               7
 10
14633.261853578271
 20
7338.3550444844968
 30
0.0
 40
4.3453697747213207
 50
-25.605116760745442
 51
34.379996836931312
  0
ARC
  8
____1
  6
DASHED2
 62
               7
 10
14633.261853578271
 20
7353.0774763488316
 30
0.0
 40
4.3453697747213207
 50
-34.379996836970896
 51
25.605116760745442
210
0.0
220
0.0
230
1.0
  0
ARC
  8
____1
  6
DASHED2
 62
               7
 10
14621.362681322744
 20
7345.7162604166642
 30
0.0
 40
16.244542030247906
 50
0.0
 51
17.583976886986804
210
0.0
220
0.0
230
1.0
  0
LINE
  8
____1
  6
DOT
 62
               7
 10
14600.607223352992
 20
7349.9662604166642
 30
0.0
 11
14601.357223352992
 21
7350.7162604166642
 31
0.0
  0
LINE
  8
____1
  6
DOT
 62
               7
 10
14600.607223352992
 20
7349.9662604166642
 30
0.0
 11
14600.607223352992
 21
7341.4662604166642
 31
0.0
  0
LINE
  8
____1
  6
DOT
 62
               7
 10
14601.357223352992
 20
7350.7162604166642
 30
0.0
 11
14601.357223352992
 21
7340.7162604166642
 31
0.0
  0
LINE
  8
____1
  6
DOT
 62
               7
 10
14600.607223352992
 20
7341.4662604166642
 30
0.0
 11
14601.357223352992
 21
7340.7162604166642
 31
0.0
  0
LINE
  8
____1
  6
DOT
 62
               7
 10
14601.357223352992
 20
7350.7162604166642
 30
0.0
 11
14630.357223352992
 21
7350.7162604166642
 31
0.0
  0
LINE
  8
____1
  6
DOT
 62
               7
 10
14601.357223352992
 20
7340.7162604166642
 30
0.0
 11
14630.357223352992
 21
7340.7162604166642
 31
0.0
  0
LINE
  8
____1
  6
DOT
 62
               7
 10
14630.357223352992
 20
7349.9662604166642
 30
0.0
 11
14600.607223352992
 21
7349.9662604166642
 31
0.0
  0
ENDBLK
  8
0
  0
BLOCK
  8
0
  2
C75
 70
              64
 10
0.0
 20
0.0
  0
LINE
  8
____1
  6
DASHED2
 62
               7
 10
14628.107223352992
 20
7330.7162604166642
 30
0.0
 11
14629.607223352992
 21
7330.7162604166642
 31
0.0
  0
LINE
  8
____1
  6
DASHED2
 62
               7
 10
14629.607223352992
 20
7330.7162604166642
 30
0.0
 11
14629.607223352992
 21
7360.7162604166642
 31
0.0
  0
LINE
  8
____1
  6
DASHED2
 62
               7
 10
14628.107223352992
 20
7360.7162604166642
 30
0.0
 11
14629.607223352992
 21
7360.7162604166642
 31
0.0
  0
LINE
  8
____1
  6
DASHED2
 62
               7
 10
14628.107223352992
 20
7330.7162604166642
 30
0.0
 11
14628.107223352992
 21
7360.7162604166642
 31
0.0
  0
LINE
  8
____1
  6
DASHED2
 62
               7
 10
14630.607223352992
 20
7340.716260416657
 30
0.0
 11
14629.607223352992
 21
7330.7162604166642
 31
0.0
  0
LINE
  8
____1
  6
DASHED2
 62
               7
 10
14630.607223352992
 20
7340.716260416657
 30
0.0
 11
14630.607223352992
 21
7350.7162604166679
 31
0.0
  0
LINE
  8
____1
  6
DASHED2
 62
               7
 10
14630.607223352992
 20
7350.7162604166679
 30
0.0
 11
14629.607223352992
 21
7360.7162604166642
 31
0.0
  0
ENDBLK
  8
0
  0
BLOCK
  8
0
  2
C76
 70
              64
 10
0.0
 20
0.0
  0
LINE
  8
____1
  6
DASHED2
 62
               7
 10
14625.107223352992
 20
7330.7162604166642
 30
0.0
 11
14623.607223352992
 21
7330.7162604166642
 31
0.0
  0
LINE
  8
____1
  6
DASHED2
 62
               7
 10
14623.607223352992
 20
7330.7162604166642
 30
0.0
 11
14623.607223352992
 21
7360.7162604166642
 31
0.0
  0
LINE
  8
____1
  6
DASHED2
 62
               7
 10
14625.107223352992
 20
7360.7162604166642
 30
0.0
 11
14623.607223352992
 21
7360.7162604166642
 31
0.0
  0
LINE
  8
____1
  6
DASHED2
 62
               7
 10
14625.107223352992
 20
7330.7162604166642
 30
0.0
 11
14625.107223352992
 21
7360.7162604166642
 31
0.0
  0
LINE
  8
____1
  6
DASHED2
 62
               7
 10
14622.607223352992
 20
7340.716260416657
 30
0.0
 11
14623.607223352992
 21
7330.7162604166642
 31
0.0
  0
LINE
  8
____1
  6
DASHED2
 62
               7
 10
14622.607223352992
 20
7340.716260416657
 30
0.0
 11
14622.607223352992
 21
7350.7162604166679
 31
0.0
  0
LINE
  8
____1
  6
DASHED2
 62
               7
 10
14622.607223352992
 20
7350.7162604166679
 30
0.0
 11
14623.607223352992
 21
7360.7162604166642
 31
0.0
  0
ENDBLK
  8
0
  0
BLOCK
  8
0
  2
C77
 70
              64
 10
0.0
 20
0.0
  0
LINE
  8
____1
  6
DASHED2
 62
               7
 10
14605.107223352992
 20
7337.2162604166642
 30
0.0
 11
14605.107223352992
 21
7345.7162604166642
 31
0.0
  0
LINE
  8
____1
  6
DASHED2
 62
               7
 10
14604.348216910483
 20
7340.8087831285502
 30
0.0
 11
14602.107223352992
 21
7340.8087831285502
 31
0.0
  0
LINE
  8
____1
  6
DASHED2
 62
               7
 10
14602.107223352992
 20
7335.9013058404398
 30
0.0
 11
14604.348033974436
 21
7335.9013058404398
 31
0.0
  0
LINE
  8
____1
  6
DASHED2
 62
               7
 10
14605.107223352992
 20
7337.2162604166642
 30
0.0
 11
14604.348033974436
 21
7335.9013058404398
 31
0.0
  0
ARC
  8
____1
  6
DASHED2
 62
               7
 10
14600.762039492165
 20
7338.3550444844968
 30
0.0
 40
4.3451838608270634
 50
-25.609310670496093
 51
34.381674152459333
  0
ARC
  8
____1
  6
DASHED2
 62
               7
 10
14588.862681322744
 20
7345.7162604166642
 30
0.0
 40
16.244542030247686
 50
-17.58378196092935
 51
0.0
  0
LINE
  8
____1
  6
DASHED2
 62
               7
 10
14605.107223352992
 20
7354.2162604166642
 30
0.0
 11
14605.107223352992
 21
7345.7162604166642
 31
0.0
  0
LINE
  8
____1
  6
DASHED2
 62
               7
 10
14604.348216910483
 20
7350.6237377047746
 30
0.0
 11
14602.107223352992
 21
7350.6237377047746
 31
0.0
  0
LINE
  8
____1
  6
DASHED2
 62
               7
 10
14602.107223352992
 20
7355.531214992885
 30
0.0
 11
14604.348033974436
 21
7355.531214992885
 31
0.0
  0
LINE
  8
____1
  6
DASHED2
 62
               7
 10
14605.107223352992
 20
7354.2162604166642
 30
0.0
 11
14604.348033974436
 21
7355.531214992885
 31
0.0
  0
ARC
  8
____1
  6
DASHED2
 62
               7
 10
14600.762039492165
 20
7353.0774763488316
 30
0.0
 40
4.3451838608254905
 50
-34.381674152498924
 51
25.609310670452835
210
0.0
220
0.0
230
1.0
  0
ARC
  8
____1
  6
DASHED2
 62
               7
 10
14588.862681322744
 20
7345.7162604166642
 30
0.0
 40
16.244542030246588
 50
0.0
 51
17.583781960917118
210
0.0
220
0.0
230
1.0
  0
LINE
  8
____1
  6
DASHED2
 62
               7
 10
14599.107223352992
 20
7354.2162604166642
 30
0.0
 11
14599.107223352992
 21
7345.7162604166642
 31
0.0
  0
LINE
  8
____1
  6
DASHED2
 62
               7
 10
14599.8662297955
 20
7350.6237377047746
 30
0.0
 11
14602.107223352992
 21
7350.6237377047746
 31
0.0
  0
LINE
  8
____1
  6
DASHED2
 62
               7
 10
14602.107223352992
 20
7355.531214992885
 30
0.0
 11
14599.866412731546
 21
7355.531214992885
 31
0.0
  0
LINE
  8
____1
  6
DASHED2
 62
               7
 10
14599.107223352992
 20
7354.2162604166642
 30
0.0
 11
14599.866412731546
 21
7355.531214992885
 31
0.0
  0
ARC
  8
____1
  6
DASHED2
 62
               7
 10
14603.452407213817
 20
7353.0774763488316
 30
0.0
 40
4.3451838608254905
 50
154.39068932954717
 51
-145.61832584750107
  0
ARC
  8
____1
  6
DASHED2
 62
               7
 10
14615.351765383239
 20
7345.7162604166642
 30
0.0
 40
16.244542030246588
 50
162.41621803908288
 51
180.0
  0
LINE
  8
____1
  6
DASHED2
 62
               7
 10
14599.107223352992
 20
7337.2162604166642
 30
0.0
 11
14599.107223352992
 21
7345.7162604166642
 31
0.0
  0
LINE
  8
____1
  6
DASHED2
 62
               7
 10
14599.8662297955
 20
7340.8087831285502
 30
0.0
 11
14602.107223352992
 21
7340.8087831285502
 31
0.0
  0
LINE
  8
____1
  6
DASHED2
 62
               7
 10
14602.107223352992
 20
7335.9013058404398
 30
0.0
 11
14599.866412731546
 21
7335.9013058404398
 31
0.0
  0
LINE
  8
____1
  6
DASHED2
 62
               7
 10
14599.107223352992
 20
7337.2162604166642
 30
0.0
 11
14599.866412731546
 21
7335.9013058404398
 31
0.0
  0
ARC
  8
____1
  6
DASHED2
 62
               7
 10
14603.452407213817
 20
7338.3550444844968
 30
0.0
 40
4.3451838608270634
 50
145.61832584754066
 51
-154.39068932950391
210
0.0
220
0.0
230
1.0
  0
ARC
  8
____1
  6
DASHED2
 62
               7
 10
14615.351765383239
 20
7345.7162604166642
 30
0.0
 40
16.244542030247686
 50
180.0
 51
-162.41621803907066
210
0.0
220
0.0
230
1.0
  0
ENDBLK
  8
0
  0
BLOCK
  8
0
  2
C78
 70
              64
 10
0.0
 20
0.0
  0
LINE
  8
____1
  6
DASHED2
 62
               7
 10
14605.107223352992
 20
7354.9164374999982
 30
0.0
 11
14607.607223352992
 21
7354.9164374999982
 31
0.0
  0
LINE
  8
____1
  6
DASHED2
 62
               7
 10
14605.107223352992
 20
7336.5164374999968
 30
0.0
 11
14605.107223352992
 21
7354.9164374999982
 31
0.0
  0
LINE
  8
____1
  6
DASHED2
 62
               7
 10
14607.607223352992
 20
7336.5164374999968
 30
0.0
 11
14605.107223352992
 21
7336.5164374999968
 31
0.0
  0
LINE
  8
____1
  6
DASHED2
 62
               7
 10
14605.107341842577
 20
7346.3716848958302
 30
0.0
 11
14607.607244186325
 21
7345.4617948541327
 31
0.0
  0
LINE
  8
____1
  6
DASHED2
 62
               7
 10
14605.107341842577
 20
7345.9716848958287
 30
0.0
 11
14607.607244186325
 21
7345.0617948541312
 31
0.0
  0
ENDBLK
  8
0
  0
BLOCK
  8
0
  2
C79
 70
              64
 10
0.0
 20
0.0
  0
LINE
  8
____1
  6
DASHED2
 62
               7
 10
14622.607223352992
 20
7352.2162604166642
 30
0.0
 11
14622.607223352992
 21
7339.2162604166642
 31
0.0
  0
LINE
  8
____1
  6
DASHED2
 62
               7
 10
14611.607223352992
 20
7352.2162604166642
 30
0.0
 11
14611.607223352992
 21
7339.2162604166642
 31
0.0
  0
LINE
  8
____1
  6
DASHED2
 62
               7
 10
14622.607223352992
 20
7352.2162604166642
 30
0.0
 11
14611.607223352992
 21
7352.2162604166642
 31
0.0
  0
LINE
  8
____1
  6
DASHED2
 62
               7
 10
14622.607223352992
 20
7339.2162604166642
 30
0.0
 11
14611.607223352992
 21
7339.2162604166642
 31
0.0
  0
LINE
  8
____1
  6
DOT
 62
               7
 10
14622.607223352992
 20
7351.0162604166635
 30
0.0
 11
14611.607223352992
 21
7351.0162604166635
 31
0.0
  0
LINE
  8
____1
  6
DOT
 62
               7
 10
14622.607223352992
 20
7340.4162604166613
 30
0.0
 11
14611.607223352992
 21
7340.4162604166613
 31
0.0
  0
ENDBLK
  8
0
  0
BLOCK
  8
0
  2
C80
 70
              64
 10
0.0
 20
0.0
  0
LINE
  8
____1
  6
DASHED2
 62
               7
 10
14595.857223352992
 20
7316.2187499999982
 30
0.0
 11
14625.357223352992
 21
7316.2187499999982
 31
0.0
  0
ARC
  8
____1
  6
DASHED2
 62
               7
 10
14625.357223352992
 20
7318.7187499999982
 30
0.0
 40
2.5
 50
-90.0
 51
0.0
210
0.0
220
0.0
230
1.0
  0
LINE
  8
____1
  6
DASHED2
 62
               7
 10
14627.857223352992
 20
7361.2187499999982
 30
0.0
 11
14627.857223352992
 21
7318.7187499999982
 31
0.0
  0
LINE
  8
____1
  6
DASHED2
 62
               7
 10
14625.357223352992
 20
7318.9187499999971
 30
0.0
 11
14627.857223352992
 21
7318.9187499999971
 31
0.0
  0
LINE
  8
____1
  6
DASHED2
 62
               7
 10
14627.857223352992
 20
7361.2187499999982
 30
0.0
 11
14595.357223352992
 21
7361.2187499999982
 31
0.0
  0
LINE
  8
____1
  6
DASHED2
 62
               7
 10
14625.357223352992
 20
7318.9187499999971
 30
0.0
 11
14595.357223352992
 21
7318.9187499999971
 31
0.0
  0
LINE
  8
____1
  6
DASHED2
 62
               7
 10
14625.357223352992
 20
7318.7187499999982
 30
0.0
 11
14595.857223352992
 21
7318.7187499999982
 31
0.0
  0
LINE
  8
____1
  6
DASHED2
 62
               7
 10
14625.357223352992
 20
7361.2187499999982
 30
0.0
 11
14625.357223352992
 21
7318.9187499999971
 31
0.0
  0
LINE
  8
____1
  6
DASHED2
 62
               7
 10
14595.857223352992
 20
7318.7187499999982
 30
0.0
 11
14595.857223352992
 21
7316.2187499999982
 31
0.0
  0
LINE
  8
____1
  6
DASHED2
 62
               7
 10
14595.357223352992
 20
7361.2187499999982
 30
0.0
 11
14595.357223352992
 21
7318.9187499999971
 31
0.0
  0
ENDBLK
  8
0
  0
BLOCK
  8
0
  2
C81
 70
              64
 10
0.0
 20
0.0
  0
LINE
  8
____1
  6
DASHED2
 62
               7
 10
14587.357223352994
 20
7364.7187499999964
 30
0.0
 11
15103.357223352994
 21
7364.7187499999964
 31
0.0
  0
LINE
  8
UNASSIGNED
  6
DASHED2
 62
               7
 10
15096.857223352994
 20
7322.7187499999982
 30
0.0
 11
15096.857223352994
 21
7364.7187499999964
 31
0.0
  0
ARC
  8
UNASSIGNED
  6
DASHED
 62
               7
 10
15096.857223352994
 20
7364.7187499999964
 30
0.0
 40
1.5
 50
90.0
 51
180.0
210
0.0
220
0.0
230
1.0
  0
LINE
  8
UNASSIGNED
  6
CONTINUOUS
 62
               5
 10
15294.151397555705
 20
7286.4599151594557
 30
0.0
 11
15145.50286828531
 21
7316.1896210135346
 31
0.0
  0
LINE
  8
UNASSIGNED
  6
DASHED2
 62
               7
 10
15103.357223352994
 20
7366.2187499999964
 30
0.0
 11
15096.857223352994
 21
7366.2187499999964
 31
0.0
  0
LINE
  8
____1
  6
DASHED2
 62
               7
 10
15103.357223352994
 20
7364.7187499999964
 30
0.0
 11
15103.357223352994
 21
7366.2187499999964
 31
0.0
  0
LINE
  8
____1
  6
CONTINUOUS
 62
               5
 10
15293.857223352994
 20
7286.2187499999982
 30
0.0
 11
15145.357223352994
 21
7316.2187499999982
 31
0.0
  0
LINE
  8
____1
  6
CONTINUOUS
 62
               5
 10
14545.357223352994
 20
7316.2187499999982
 30
0.0
 11
15145.357223352994
 21
7316.2187499999982
 31
0.0
  0
LINE
  8
____1
  6
DASHED2
 62
               7
 10
14587.357223352994
 20
7366.2187499999964
 30
0.0
 11
15103.357223352994
 21
7366.2187499999964
 31
0.0
  0
LINE
  8
UNASSIGNED
  6
CONTINUOUS
 62
               5
 10
14545.505752623383
 20
7316.2187499999982
 30
0.0
 11
14593.857223352994
 21
7316.2187499999982
 31
0.0
  0
LINE
  8
UNASSIGNED
  6
CONTINUOUS
 62
               5
 10
14396.563049150285
 20
7286.4599151594557
 30
0.0
 11
14545.211578420676
 21
7316.1896210135346
 31
0.0
  0
ARC
  8
UNASSIGNED
  6
DASHED
 62
               7
 10
14593.857223352992
 20
7364.7187499999964
 30
0.0
 40
1.5
 50
0.0
 51
90.0
  0
LINE
  8
UNASSIGNED
  6
DASHED
 62
               7
 10
14396.857223352992
 20
7284.9890441459193
 30
0.0
 11
14545.505752623383
 21
7314.7187499999982
 31
0.0
  0
LINE
  8
UNASSIGNED
  6
DASHED
 62
               7
 10
14545.505752623383
 20
7314.7187499999982
 30
0.0
 11
14593.857223352992
 21
7314.7187499999982
 31
0.0
  0
LINE
  8
UNASSIGNED
  6
CONTINUOUS
 62
               5
 10
15145.208694082607
 20
7316.2187499999982
 30
0.0
 11
15096.857223352994
 21
7316.2187499999982
 31
0.0
  0
ARC
  8
UNASSIGNED
  6
CONTINUOUS
 62
               5
 10
15145.208694082607
 20
7314.7187499999982
 30
0.0
 40
1.5
 50
78.690067526129667
 51
90.0
210
0.0
220
0.0
230
1.0
  0
LINE
  8
UNASSIGNED
  6
DASHED
 62
               7
 10
15293.857223352994
 20
7284.9890441459193
 30
0.0
 11
15145.208694082607
 21
7314.7187499999982
 31
0.0
  0
LINE
  8
UNASSIGNED
  6
DASHED
 62
               7
 10
15145.208694082607
 20
7314.7187499999982
 30
0.0
 11
15096.857223352994
 21
7314.7187499999982
 31
0.0
  0
ARC
  8
UNASSIGNED
  6
DASHED
 62
               7
 10
15096.857223352994
 20
7316.2187499999982
 30
0.0
 40
1.5
 50
180.0
 51
-90.0
  0
LINE
  8
UNASSIGNED
  6
DASHED
 62
               7
 10
15095.357223352994
 20
7316.2187499999982
 30
0.0
 11
15095.357223352994
 21
7364.7187499999964
 31
0.0
  0
ARC
  8
UNASSIGNED
  6
DASHED
 62
               7
 10
14593.857223352992
 20
7316.2187499999982
 30
0.0
 40
1.5
 50
-90.0
 51
0.0
210
0.0
220
0.0
230
1.0
  0
LINE
  8
UNASSIGNED
  6
DASHED
 62
               7
 10
14595.357223352992
 20
7316.2187499999982
 30
0.0
 11
14595.357223352992
 21
7364.7187499999964
 31
0.0
  0
LINE
  8
UNASSIGNED
  6
CONTINUOUS
 62
               5
 10
15096.857223352994
 20
7316.2187499999982
 30
0.0
 11
15096.857223352994
 21
7322.7187499999982
 31
0.0
  0
ARC
  8
UNASSIGNED
  6
CONTINUOUS
 62
               5
 10
14545.505752623383
 20
7314.7187499999982
 30
0.0
 40
1.5
 50
90.0
 51
101.3099324740066
  0
LINE
  8
UNASSIGNED
  6
CONTINUOUS
 62
               5
 10
14587.357223352992
 20
7364.7187499999964
 30
0.0
 11
14587.357223352992
 21
7366.2187499999964
 31
0.0
  0
LINE
  8
____1
  6
CONTINUOUS
 62
               5
 10
14593.857223352994
 20
7316.2187499999982
 30
0.0
 11
14593.857223352994
 21
7322.7187499999982
 31
0.0
  0
LINE
  8
____1
  6
DASHED
 62
               7
 10
14398.657223352995
 20
7236.2187499999982
 30
0.0
 11
14398.657223352995
 21
7246.2187499999982
 31
0.0
  0
LINE
  8
____1
  6
CONTINUOUS
 62
               5
 10
14395.357223352994
 20
7236.2187499999982
 30
0.0
 11
14395.357223352994
 21
7286.2187499999982
 31
0.0
  0
LINE
  8
____1
  6
CONTINUOUS
 62
               5
 10
15293.857223352994
 20
7236.2187499999982
 30
0.0
 11
15293.857223352994
 21
7286.2187499999982
 31
0.0
  0
LINE
  8
UNASSIGNED
  6
DASHED
 62
               7
 10
15292.357223352994
 20
7237.7187499999982
 30
0.0
 11
15292.357223352994
 21
7246.2187499999982
 31
0.0
  0
LINE
  8
UNASSIGNED
  6
DASHED
 62
               7
 10
15293.857223352994
 20
7237.7187499999982
 30
0.0
 11
15293.857223352994
 21
7284.9890441459193
 31
0.0
  0
LINE
  8
____1
  6
CONTINUOUS
 62
               5
 10
14395.357223352994
 20
7286.2187499999982
 30
0.0
 11
15293.857223352994
 21
7286.2187499999982
 31
0.0
  0
LINE
  8
____1
  6
DASHED
 62
               7
 10
14398.657223352995
 20
7246.2187499999982
 30
0.0
 11
15293.857223352994
 21
7246.2187499999982
 31
0.0
  0
LINE
  8
____1
  6
CONTINUOUS
 62
               5
 10
14395.357223352994
 20
7236.2187499999982
 30
0.0
 11
15293.857223352994
 21
7236.2187499999982
 31
0.0
  0
ARC
  8
UNASSIGNED
  6
CONTINUOUS
 62
               5
 10
14396.857223352992
 20
7284.9890441459193
 30
0.0
 40
1.5000000000000024
 50
101.3099324740066
 51
180.0
  0
LINE
  8
UNASSIGNED
  6
CONTINUOUS
 62
               5
 10
14395.357223352992
 20
7237.7187499999982
 30
0.0
 11
14395.357223352992
 21
7284.9890441459193
 31
0.0
  0
ARC
  8
UNASSIGNED
  6
CONTINUOUS
 62
               5
 10
15293.857223352994
 20
7237.7187499999982
 30
0.0
 40
1.5
 50
-90.0
 51
0.0
210
0.0
220
0.0
230
1.0
  0
ARC
  8
UNASSIGNED
  6
DASHED
 62
               7
 10
15293.857223352994
 20
7237.7187499999982
 30
0.0
 40
1.5
 50
180.0
 51
-90.0
210
0.0
220
0.0
230
1.0
  0
LINE
  8
UNASSIGNED
  6
CONTINUOUS
 62
               5
 10
15295.357223352994
 20
7237.7187499999982
 30
0.0
 11
15295.357223352994
 21
7284.9890441459193
 31
0.0
  0
ARC
  8
UNASSIGNED
  6
CONTINUOUS
 62
               5
 10
15293.857223352994
 20
7284.9890441459193
 30
0.0
 40
1.5000000000007161
 50
0.0
 51
78.690067525857145
210
0.0
220
0.0
230
1.0
  0
LINE
  8
UNASSIGNED
  6
DASHED
 62
               7
 10
15293.857223352994
 20
7246.2187499999982
 30
0.0
 11
15292.357223352994
 21
7246.2187499999982
 31
0.0
  0
LINE
  8
UNASSIGNED
  6
DASHED
 62
               7
 10
14396.857223352992
 20
7246.2187499999982
 30
0.0
 11
14398.357223352992
 21
7246.2187499999982
 31
0.0
  0
ARC
  8
UNASSIGNED
  6
DASHED
 62
               7
 10
14396.857223352992
 20
7237.7187499999982
 30
0.0
 40
1.5
 50
180.0
 51
0.0
  0
LINE
  8
UNASSIGNED
  6
DASHED
 62
               7
 10
14398.357223352992
 20
7237.7187499999982
 30
0.0
 11
14398.357223352992
 21
7246.2187499999982
 31
0.0
  0
LINE
  8
UNASSIGNED
  6
DASHED
 62
               7
 10
14396.857223352992
 20
7237.7187499999982
 30
0.0
 11
14396.857223352992
 21
7284.9890441459193
 31
0.0
  0
LINE
  8
UNASSIGNED
  6
DASHED2
 62
               7
 10
14593.857223352992
 20
7316.2187499999982
 30
0.0
 11
14593.857223352992
 21
7364.7187499999964
 31
0.0
  0
LINE
  8
____1
  6
CONTINUOUS
 62
               5
 10
14396.857223352994
 20
7286.2187499999982
 30
0.0
 11
14545.357223352994
 21
7316.2187499999982
 31
0.0
  0
LINE
  8
UNASSIGNED
  6
DASHED2
 62
               7
 10
14587.357223352994
 20
7366.2187499999964
 30
0.0
 11
14593.857223352992
 21
7366.2187499999964
 31
0.0
  0
LINE
  8
UNASSIGNED
  6
DASHED2
 62
               7
 10
14587.357223352994
 20
7364.7187499999964
 30
0.0
 11
14593.857223352992
 21
7364.7187499999964
 31
0.0
  0
LINE
  8
____1
  6
DASHED2
 62
               7
 10
14587.357223352994
 20
7364.7187499999964
 30
0.0
 11
14587.357223352994
 21
7366.2187499999964
 31
0.0
  0
LINE
  8
UNASSIGNED
  6
DASHED2
 62
               7
 10
15103.357223352994
 20
7364.7187499999964
 30
0.0
 11
15096.857223352994
 21
7364.7187499999964
 31
0.0
  0
ENDBLK
  8
0
  0
BLOCK
  8
0
  2
C82
 70
              64
 10
0.0
 20
0.0
  0
INSERT
  8
____1
  6
CONTINUOUS
 62
             254
  2
C83
 10
0.0
 20
0.0
 30
0.0
  0
INSERT
  8
____1
  6
CONTINUOUS
 62
             254
  2
C84
 10
0.0
 20
0.0
 30
0.0
  0
INSERT
  8
____1
  6
CONTINUOUS
 62
             254
  2
C85
 10
0.0
 20
0.0
 30
0.0
  0
INSERT
  8
____1
  6
CONTINUOUS
 62
             254
  2
C86
 10
0.0
 20
0.0
 30
0.0
  0
INSERT
  8
____1
  6
CONTINUOUS
 62
             254
  2
C87
 10
0.0
 20
0.0
 30
0.0
  0
INSERT
  8
____1
  6
CONTINUOUS
 62
             254
  2
C88
 10
0.0
 20
0.0
 30
0.0
  0
INSERT
  8
____1
  6
CONTINUOUS
 62
             254
  2
C89
 10
0.0
 20
0.0
 30
0.0
  0
INSERT
  8
____1
  6
CONTINUOUS
 62
             254
  2
C90
 10
0.0
 20
0.0
 30
0.0
  0
ENDBLK
  8
0
  0
BLOCK
  8
0
  2
C83
 70
              64
 10
0.0
 20
0.0
  0
LINE
  8
____1
  6
CENTER2
 62
               3
 10
14645.357223352994
 20
7872.4757233844966
 30
0.0
 11
14605.357223352987
 21
7872.4757233844966
 31
0.0
  0
CIRCLE
  8
____1
  6
CONTINUOUS
 62
               5
 10
14625.35722335299
 20
7872.4757233844966
 30
0.0
 40
15.0
210
0.0
220
0.0
230
1.0
  0
LINE
  8
____1
  6
CENTER2
 62
               3
 10
14625.35722335299
 20
7826.7035707968271
 30
0.0
 11
14625.35722335299
 21
7897.4757233844966
 31
0.0
  0
POLYLINE
  8
____1
  6
CONTINUOUS
 62
               5
 66
               1
 10
0.0
 20
0.0
 30
0.0
 70
               8
  0
VERTEX
  8
____1
 62
               5
 10
14651.85722335299
 20
7862.2257233845021
 30
0.0
 70
              32
  0
VERTEX
  8
____1
 62
               5
 10
14651.454628807815
 20
7867.1312844035929
 30
0.0
 70
              32
  0
VERTEX
  8
____1
 62
               5
 10
14650.259077803817
 20
7871.887792433452
 30
0.0
 70
              32
  0
VERTEX
  8
____1
 62
               5
 10
14648.306896553278
 20
7876.3507233845021
 30
0.0
 70
              32
  0
VERTEX
  8
____1
 62
               5
 10
14645.657401095643
 20
7880.3844733581473
 30
0.0
 70
              32
  0
VERTEX
  8
____1
 62
               5
 10
14642.391095009683
 20
7883.8664789026134
 30
0.0
 70
              32
  0
VERTEX
  8
____1
 62
               5
 10
14638.60722335299
 20
7886.6909410414128
 30
0.0
 70
              32
  0
VERTEX
  8
____1
 62
               5
 10
14634.42075715112
 20
7888.7720399217042
 30
0.0
 70
              32
  0
VERTEX
  8
____1
 62
               5
 10
14629.958900061163
 20
7890.0465424070971
 30
0.0
 70
              32
  0
VERTEX
  8
____1
 62
               5
 10
14625.35722335299
 20
7890.4757233845021
 30
0.0
 70
              32
  0
VERTEX
  8
____1
 62
               5
 10
14620.755546644818
 20
7890.0465424070971
 30
0.0
 70
              32
  0
VERTEX
  8
____1
 62
               5
 10
14616.293689554861
 20
7888.7720399217042
 30
0.0
 70
              32
  0
VERTEX
  8
____1
 62
               5
 10
14612.10722335299
 20
7886.6909410414128
 30
0.0
 70
              32
  0
VERTEX
  8
____1
 62
               5
 10
14608.323351696297
 20
7883.8664789026134
 30
0.0
 70
              32
  0
VERTEX
  8
____1
 62
               5
 10
14605.057045610338
 20
7880.3844733581473
 30
0.0
 70
              32
  0
VERTEX
  8
____1
 62
               5
 10
14602.407550152702
 20
7876.3507233845021
 30
0.0
 70
              32
  0
VERTEX
  8
____1
 62
               5
 10
14600.455368902163
 20
7871.887792433452
 30
0.0
 70
              32
  0
VERTEX
  8
____1
 62
               5
 10
14599.259817898166
 20
7867.1312844035929
 30
0.0
 70
              32
  0
VERTEX
  8
____1
 62
               5
 10
14598.85722335299
 20
7862.2257233845021
 30
0.0
 70
              32
  0
VERTEX
  8
____1
 62
               5
 10
14599.259817898166
 20
7857.3201623654113
 30
0.0
 70
              32
  0
VERTEX
  8
____1
 62
               5
 10
14600.455368902163
 20
7852.5636543355522
 30
0.0
 70
              32
  0
VERTEX
  8
____1
 62
               5
 10
14602.407550152702
 20
7848.1007233845021
 30
0.0
 70
              32
  0
VERTEX
  8
____1
 62
               5
 10
14605.057045610338
 20
7844.0669734108578
 30
0.0
 70
              32
  0
VERTEX
  8
____1
 62
               5
 10
14608.323351696297
 20
7840.5849678663908
 30
0.0
 70
              32
  0
VERTEX
  8
____1
 62
               5
 10
14612.10722335299
 20
7837.7605057275914
 30
0.0
 70
              32
  0
VERTEX
  8
____1
 62
               5
 10
14616.293689554861
 20
7835.6794068473
 30
0.0
 70
              32
  0
VERTEX
  8
____1
 62
               5
 10
14620.755546644818
 20
7834.404904361907
 30
0.0
 70
              32
  0
VERTEX
  8
____1
 62
               5
 10
14625.35722335299
 20
7833.9757233845021
 30
0.0
 70
              32
  0
VERTEX
  8
____1
 62
               5
 10
14629.958900061163
 20
7834.404904361907
 30
0.0
 70
              32
  0
VERTEX
  8
____1
 62
               5
 10
14634.42075715112
 20
7835.6794068473
 30
0.0
 70
              32
  0
VERTEX
  8
____1
 62
               5
 10
14638.60722335299
 20
7837.7605057275914
 30
0.0
 70
              32
  0
VERTEX
  8
____1
 62
               5
 10
14642.391095009683
 20
7840.5849678663908
 30
0.0
 70
              32
  0
VERTEX
  8
____1
 62
               5
 10
14645.657401095643
 20
7844.0669734108578
 30
0.0
 70
              32
  0
VERTEX
  8
____1
 62
               5
 10
14648.306896553278
 20
7848.1007233845021
 30
0.0
 70
              32
  0
VERTEX
  8
____1
 62
               5
 10
14650.259077803817
 20
7852.5636543355522
 30
0.0
 70
              32
  0
VERTEX
  8
____1
 62
               5
 10
14651.454628807815
 20
7857.3201623654113
 30
0.0
 70
              32
  0
VERTEX
  8
____1
 62
               5
 10
14651.85722335299
 20
7862.2257233845021
 30
0.0
 70
              32
  0
VERTEX
  8
____1
 62
               5
 10
14651.85722335299
 20
7862.2257233845021
 30
0.0
 70
              32
  0
SEQEND
  8
____1
 62
               5
  0
CIRCLE
  8
____1
  6
CONTINUOUS
 62
               5
 10
14625.357223352994
 20
7872.4757233845003
 30
0.0
 40
7.5
  0
ENDBLK
  8
0
  0
BLOCK
  8
0
  2
C84
 70
              64
 10
0.0
 20
0.0
  0
LINE
  8
____1
  6
CENTER2
 62
               3
 10
14605.35722335299
 20
8572.4757233844994
 30
0.0
 11
14645.357223352998
 21
8572.4757233844994
 31
0.0
  0
CIRCLE
  8
____1
  6
CONTINUOUS
 62
               5
 10
14625.357223352994
 20
8572.4757233844994
 30
0.0
 40
15.0
210
0.0
220
0.0
230
1.0
  0
LINE
  8
____1
  6
CENTER2
 62
               3
 10
14625.357223352994
 20
8618.2478759721689
 30
0.0
 11
14625.357223352994
 21
8547.4757233844994
 31
0.0
  0
POLYLINE
  8
____1
  6
CONTINUOUS
 62
               5
 66
               1
 10
0.0
 20
0.0
 30
0.0
 70
               8
  0
VERTEX
  8
____1
 62
               5
 10
14598.857223352994
 20
8582.7257233844939
 30
0.0
 70
              32
  0
VERTEX
  8
____1
 62
               5
 10
14599.25981789817
 20
8577.820162365404
 30
0.0
 70
              32
  0
VERTEX
  8
____1
 62
               5
 10
14600.455368902167
 20
8573.0636543355431
 30
0.0
 70
              32
  0
VERTEX
  8
____1
 62
               5
 10
14602.407550152706
 20
8568.6007233844939
 30
0.0
 70
              32
  0
VERTEX
  8
____1
 62
               5
 10
14605.057045610341
 20
8564.5669734108487
 30
0.0
 70
              32
  0
VERTEX
  8
____1
 62
               5
 10
14608.323351696301
 20
8561.0849678663835
 30
0.0
 70
              32
  0
VERTEX
  8
____1
 62
               5
 10
14612.107223352994
 20
8558.2605057275832
 30
0.0
 70
              32
  0
VERTEX
  8
____1
 62
               5
 10
14616.293689554865
 20
8556.1794068472918
 30
0.0
 70
              32
  0
VERTEX
  8
____1
 62
               5
 10
14620.755546644821
 20
8554.9049043618998
 30
0.0
 70
              32
  0
VERTEX
  8
____1
 62
               5
 10
14625.357223352994
 20
8554.4757233844939
 30
0.0
 70
              32
  0
VERTEX
  8
____1
 62
               5
 10
14629.958900061167
 20
8554.9049043618998
 30
0.0
 70
              32
  0
VERTEX
  8
____1
 62
               5
 10
14634.420757151123
 20
8556.1794068472918
 30
0.0
 70
              32
  0
VERTEX
  8
____1
 62
               5
 10
14638.607223352994
 20
8558.2605057275832
 30
0.0
 70
              32
  0
VERTEX
  8
____1
 62
               5
 10
14642.391095009687
 20
8561.0849678663835
 30
0.0
 70
              32
  0
VERTEX
  8
____1
 62
               5
 10
14645.657401095646
 20
8564.5669734108487
 30
0.0
 70
              32
  0
VERTEX
  8
____1
 62
               5
 10
14648.306896553282
 20
8568.6007233844939
 30
0.0
 70
              32
  0
VERTEX
  8
____1
 62
               5
 10
14650.259077803821
 20
8573.0636543355431
 30
0.0
 70
              32
  0
VERTEX
  8
____1
 62
               5
 10
14651.454628807818
 20
8577.8201623654022
 30
0.0
 70
              32
  0
VERTEX
  8
____1
 62
               5
 10
14651.857223352994
 20
8582.7257233844939
 30
0.0
 70
              32
  0
VERTEX
  8
____1
 62
               5
 10
14651.454628807818
 20
8587.6312844035838
 30
0.0
 70
              32
  0
VERTEX
  8
____1
 62
               5
 10
14650.259077803821
 20
8592.3877924334447
 30
0.0
 70
              32
  0
VERTEX
  8
____1
 62
               5
 10
14648.306896553282
 20
8596.8507233844939
 30
0.0
 70
              32
  0
VERTEX
  8
____1
 62
               5
 10
14645.657401095646
 20
8600.8844733581391
 30
0.0
 70
              32
  0
VERTEX
  8
____1
 62
               5
 10
14642.391095009687
 20
8604.3664789026043
 30
0.0
 70
              32
  0
VERTEX
  8
____1
 62
               5
 10
14638.607223352994
 20
8607.1909410414046
 30
0.0
 70
              32
  0
VERTEX
  8
____1
 62
               5
 10
14634.420757151123
 20
8609.272039921696
 30
0.0
 70
              32
  0
VERTEX
  8
____1
 62
               5
 10
14629.958900061167
 20
8610.5465424070881
 30
0.0
 70
              32
  0
VERTEX
  8
____1
 62
               5
 10
14625.357223352994
 20
8610.9757233844939
 30
0.0
 70
              32
  0
VERTEX
  8
____1
 62
               5
 10
14620.755546644821
 20
8610.5465424070881
 30
0.0
 70
              32
  0
VERTEX
  8
____1
 62
               5
 10
14616.293689554865
 20
8609.272039921696
 30
0.0
 70
              32
  0
VERTEX
  8
____1
 62
               5
 10
14612.107223352994
 20
8607.1909410414046
 30
0.0
 70
              32
  0
VERTEX
  8
____1
 62
               5
 10
14608.323351696301
 20
8604.3664789026043
 30
0.0
 70
              32
  0
VERTEX
  8
____1
 62
               5
 10
14605.057045610341
 20
8600.8844733581391
 30
0.0
 70
              32
  0
VERTEX
  8
____1
 62
               5
 10
14602.407550152706
 20
8596.8507233844939
 30
0.0
 70
              32
  0
VERTEX
  8
____1
 62
               5
 10
14600.455368902167
 20
8592.3877924334447
 30
0.0
 70
              32
  0
VERTEX
  8
____1
 62
               5
 10
14599.25981789817
 20
8587.6312844035838
 30
0.0
 70
              32
  0
VERTEX
  8
____1
 62
               5
 10
14598.857223352994
 20
8582.7257233844939
 30
0.0
 70
              32
  0
VERTEX
  8
____1
 62
               5
 10
14598.857223352994
 20
8582.7257233844939
 30
0.0
 70
              32
  0
SEQEND
  8
____1
 62
               5
  0
CIRCLE
  8
____1
  6
CONTINUOUS
 62
               5
 10
14625.35722335299
 20
8572.4757233844957
 30
0.0
 40
7.5
  0
ENDBLK
  8
0
  0
BLOCK
  8
0
  2
C85
 70
              64
 10
0.0
 20
0.0
  0
LINE
  8
____1
  6
CENTER2
 62
               3
 10
15085.357223352994
 20
7872.4757233844966
 30
0.0
 11
15045.357223352987
 21
7872.4757233844966
 31
0.0
  0
CIRCLE
  8
____1
  6
CONTINUOUS
 62
               5
 10
15065.35722335299
 20
7872.4757233844966
 30
0.0
 40
15.0
210
0.0
220
0.0
230
1.0
  0
LINE
  8
____1
  6
CENTER2
 62
               3
 10
15065.35722335299
 20
7826.7035707968271
 30
0.0
 11
15065.35722335299
 21
7897.4757233844966
 31
0.0
  0
POLYLINE
  8
____1
  6
CONTINUOUS
 62
               5
 66
               1
 10
0.0
 20
0.0
 30
0.0
 70
               8
  0
VERTEX
  8
____1
 62
               5
 10
15091.85722335299
 20
7862.2257233845021
 30
0.0
 70
              32
  0
VERTEX
  8
____1
 62
               5
 10
15091.454628807815
 20
7867.1312844035929
 30
0.0
 70
              32
  0
VERTEX
  8
____1
 62
               5
 10
15090.259077803817
 20
7871.887792433452
 30
0.0
 70
              32
  0
VERTEX
  8
____1
 62
               5
 10
15088.306896553278
 20
7876.3507233845021
 30
0.0
 70
              32
  0
VERTEX
  8
____1
 62
               5
 10
15085.657401095643
 20
7880.3844733581473
 30
0.0
 70
              32
  0
VERTEX
  8
____1
 62
               5
 10
15082.391095009683
 20
7883.8664789026134
 30
0.0
 70
              32
  0
VERTEX
  8
____1
 62
               5
 10
15078.60722335299
 20
7886.6909410414128
 30
0.0
 70
              32
  0
VERTEX
  8
____1
 62
               5
 10
15074.42075715112
 20
7888.7720399217042
 30
0.0
 70
              32
  0
VERTEX
  8
____1
 62
               5
 10
15069.958900061163
 20
7890.0465424070971
 30
0.0
 70
              32
  0
VERTEX
  8
____1
 62
               5
 10
15065.35722335299
 20
7890.4757233845021
 30
0.0
 70
              32
  0
VERTEX
  8
____1
 62
               5
 10
15060.755546644818
 20
7890.0465424070971
 30
0.0
 70
              32
  0
VERTEX
  8
____1
 62
               5
 10
15056.293689554861
 20
7888.7720399217042
 30
0.0
 70
              32
  0
VERTEX
  8
____1
 62
               5
 10
15052.10722335299
 20
7886.6909410414128
 30
0.0
 70
              32
  0
VERTEX
  8
____1
 62
               5
 10
15048.323351696297
 20
7883.8664789026134
 30
0.0
 70
              32
  0
VERTEX
  8
____1
 62
               5
 10
15045.057045610338
 20
7880.3844733581473
 30
0.0
 70
              32
  0
VERTEX
  8
____1
 62
               5
 10
15042.407550152702
 20
7876.3507233845021
 30
0.0
 70
              32
  0
VERTEX
  8
____1
 62
               5
 10
15040.455368902163
 20
7871.887792433452
 30
0.0
 70
              32
  0
VERTEX
  8
____1
 62
               5
 10
15039.259817898166
 20
7867.1312844035929
 30
0.0
 70
              32
  0
VERTEX
  8
____1
 62
               5
 10
15038.85722335299
 20
7862.2257233845021
 30
0.0
 70
              32
  0
VERTEX
  8
____1
 62
               5
 10
15039.259817898166
 20
7857.3201623654113
 30
0.0
 70
              32
  0
VERTEX
  8
____1
 62
               5
 10
15040.455368902163
 20
7852.5636543355522
 30
0.0
 70
              32
  0
VERTEX
  8
____1
 62
               5
 10
15042.407550152702
 20
7848.1007233845021
 30
0.0
 70
              32
  0
VERTEX
  8
____1
 62
               5
 10
15045.057045610338
 20
7844.0669734108578
 30
0.0
 70
              32
  0
VERTEX
  8
____1
 62
               5
 10
15048.323351696297
 20
7840.5849678663908
 30
0.0
 70
              32
  0
VERTEX
  8
____1
 62
               5
 10
15052.10722335299
 20
7837.7605057275914
 30
0.0
 70
              32
  0
VERTEX
  8
____1
 62
               5
 10
15056.293689554861
 20
7835.6794068473
 30
0.0
 70
              32
  0
VERTEX
  8
____1
 62
               5
 10
15060.755546644818
 20
7834.404904361907
 30
0.0
 70
              32
  0
VERTEX
  8
____1
 62
               5
 10
15065.35722335299
 20
7833.9757233845021
 30
0.0
 70
              32
  0
VERTEX
  8
____1
 62
               5
 10
15069.958900061163
 20
7834.404904361907
 30
0.0
 70
              32
  0
VERTEX
  8
____1
 62
               5
 10
15074.42075715112
 20
7835.6794068473
 30
0.0
 70
              32
  0
VERTEX
  8
____1
 62
               5
 10
15078.60722335299
 20
7837.7605057275914
 30
0.0
 70
              32
  0
VERTEX
  8
____1
 62
               5
 10
15082.391095009683
 20
7840.5849678663908
 30
0.0
 70
              32
  0
VERTEX
  8
____1
 62
               5
 10
15085.657401095643
 20
7844.0669734108578
 30
0.0
 70
              32
  0
VERTEX
  8
____1
 62
               5
 10
15088.306896553278
 20
7848.1007233845021
 30
0.0
 70
              32
  0
VERTEX
  8
____1
 62
               5
 10
15090.259077803817
 20
7852.5636543355522
 30
0.0
 70
              32
  0
VERTEX
  8
____1
 62
               5
 10
15091.454628807815
 20
7857.3201623654113
 30
0.0
 70
              32
  0
VERTEX
  8
____1
 62
               5
 10
15091.85722335299
 20
7862.2257233845021
 30
0.0
 70
              32
  0
VERTEX
  8
____1
 62
               5
 10
15091.85722335299
 20
7862.2257233845021
 30
0.0
 70
              32
  0
SEQEND
  8
____1
 62
               5
  0
CIRCLE
  8
____1
  6
CONTINUOUS
 62
               5
 10
15065.357223352994
 20
7872.4757233845003
 30
0.0
 40
7.5
  0
ENDBLK
  8
0
  0
BLOCK
  8
0
  2
C86
 70
              64
 10
0.0
 20
0.0
  0
LINE
  8
____1
  6
CENTER2
 62
               3
 10
14495.35722335299
 20
7982.4757233844939
 30
0.0
 11
14495.35722335299
 21
8022.4757233845012
 31
0.0
  0
CIRCLE
  8
____1
  6
CONTINUOUS
 62
               5
 10
14495.35722335299
 20
8002.4757233844975
 30
0.0
 40
15.0
210
0.0
220
0.0
230
1.0
  0
LINE
  8
____1
  6
CENTER2
 62
               3
 10
14449.585070765321
 20
8002.4757233844975
 30
0.0
 11
14520.35722335299
 21
8002.4757233844975
 31
0.0
  0
POLYLINE
  8
____1
  6
CONTINUOUS
 62
               5
 66
               1
 10
0.0
 20
0.0
 30
0.0
 70
               8
  0
VERTEX
  8
____1
 62
               5
 10
14485.107223352996
 20
7975.9757233844975
 30
0.0
 70
              32
  0
VERTEX
  8
____1
 62
               5
 10
14490.012784372086
 20
7976.3783179296743
 30
0.0
 70
              32
  0
VERTEX
  8
____1
 62
               5
 10
14494.769292401947
 20
7977.5738689336713
 30
0.0
 70
              32
  0
VERTEX
  8
____1
 62
               5
 10
14499.232223352996
 20
7979.5260501842104
 30
0.0
 70
              32
  0
VERTEX
  8
____1
 62
               5
 10
14503.265973326641
 20
7982.175545641845
 30
0.0
 70
              32
  0
VERTEX
  8
____1
 62
               5
 10
14506.747978871106
 20
7985.4418517278045
 30
0.0
 70
              32
  0
VERTEX
  8
____1
 62
               5
 10
14509.572441009906
 20
7989.2257233844975
 30
0.0
 70
              32
  0
VERTEX
  8
____1
 62
               5
 10
14511.653539890198
 20
7993.4121895863673
 30
0.0
 70
              32
  0
VERTEX
  8
____1
 62
               5
 10
14512.92804237559
 20
7997.8740466763238
 30
0.0
 70
              32
  0
VERTEX
  8
____1
 62
               5
 10
14513.357223352996
 20
8002.4757233844975
 30
0.0
 70
              32
  0
VERTEX
  8
____1
 62
               5
 10
14512.92804237559
 20
8007.0774000926713
 30
0.0
 70
              32
  0
VERTEX
  8
____1
 62
               5
 10
14511.653539890198
 20
8011.5392571826278
 30
0.0
 70
              32
  0
VERTEX
  8
____1
 62
               5
 10
14509.572441009906
 20
8015.7257233844975
 30
0.0
 70
              32
  0
VERTEX
  8
____1
 62
               5
 10
14506.747978871106
 20
8019.5095950411906
 30
0.0
 70
              32
  0
VERTEX
  8
____1
 62
               5
 10
14503.265973326641
 20
8022.7759011271501
 30
0.0
 70
              32
  0
VERTEX
  8
____1
 62
               5
 10
14499.232223352996
 20
8025.4253965847847
 30
0.0
 70
              32
  0
VERTEX
  8
____1
 62
               5
 10
14494.769292401947
 20
8027.3775778353238
 30
0.0
 70
              32
  0
VERTEX
  8
____1
 62
               5
 10
14490.012784372087
 20
8028.5731288393208
 30
0.0
 70
              32
  0
VERTEX
  8
____1
 62
               5
 10
14485.107223352996
 20
8028.9757233844975
 30
0.0
 70
              32
  0
VERTEX
  8
____1
 62
               5
 10
14480.201662333906
 20
8028.5731288393208
 30
0.0
 70
              32
  0
VERTEX
  8
____1
 62
               5
 10
14475.445154304045
 20
8027.3775778353238
 30
0.0
 70
              32
  0
VERTEX
  8
____1
 62
               5
 10
14470.982223352996
 20
8025.4253965847847
 30
0.0
 70
              32
  0
VERTEX
  8
____1
 62
               5
 10
14466.948473379351
 20
8022.7759011271501
 30
0.0
 70
              32
  0
VERTEX
  8
____1
 62
               5
 10
14463.466467834885
 20
8019.5095950411906
 30
0.0
 70
              32
  0
VERTEX
  8
____1
 62
               5
 10
14460.642005696085
 20
8015.7257233844975
 30
0.0
 70
              32
  0
VERTEX
  8
____1
 62
               5
 10
14458.560906815794
 20
8011.5392571826278
 30
0.0
 70
              32
  0
VERTEX
  8
____1
 62
               5
 10
14457.286404330402
 20
8007.0774000926713
 30
0.0
 70
              32
  0
VERTEX
  8
____1
 62
               5
 10
14456.857223352996
 20
8002.4757233844975
 30
0.0
 70
              32
  0
VERTEX
  8
____1
 62
               5
 10
14457.286404330402
 20
7997.8740466763238
 30
0.0
 70
              32
  0
VERTEX
  8
____1
 62
               5
 10
14458.560906815794
 20
7993.4121895863673
 30
0.0
 70
              32
  0
VERTEX
  8
____1
 62
               5
 10
14460.642005696085
 20
7989.2257233844975
 30
0.0
 70
              32
  0
VERTEX
  8
____1
 62
               5
 10
14463.466467834885
 20
7985.4418517278045
 30
0.0
 70
              32
  0
VERTEX
  8
____1
 62
               5
 10
14466.948473379351
 20
7982.175545641845
 30
0.0
 70
              32
  0
VERTEX
  8
____1
 62
               5
 10
14470.982223352996
 20
7979.5260501842104
 30
0.0
 70
              32
  0
VERTEX
  8
____1
 62
               5
 10
14475.445154304045
 20
7977.5738689336713
 30
0.0
 70
              32
  0
VERTEX
  8
____1
 62
               5
 10
14480.201662333906
 20
7976.3783179296743
 30
0.0
 70
              32
  0
VERTEX
  8
____1
 62
               5
 10
14485.107223352996
 20
7975.9757233844975
 30
0.0
 70
              32
  0
VERTEX
  8
____1
 62
               5
 10
14485.107223352996
 20
7975.9757233844975
 30
0.0
 70
              32
  0
SEQEND
  8
____1
 62
               5
  0
CIRCLE
  8
____1
  6
CONTINUOUS
 62
               5
 10
14495.357223352994
 20
8002.4757233844939
 30
0.0
 40
7.5
  0
ENDBLK
  8
0
  0
BLOCK
  8
0
  2
C87
 70
              64
 10
0.0
 20
0.0
  0
LINE
  8
____1
  6
CENTER2
 62
               3
 10
14495.35722335299
 20
8422.4757233844939
 30
0.0
 11
14495.35722335299
 21
8462.4757233845012
 31
0.0
  0
CIRCLE
  8
____1
  6
CONTINUOUS
 62
               5
 10
14495.35722335299
 20
8442.4757233844975
 30
0.0
 40
15.0
210
0.0
220
0.0
230
1.0
  0
LINE
  8
____1
  6
CENTER2
 62
               3
 10
14449.585070765321
 20
8442.4757233844975
 30
0.0
 11
14520.35722335299
 21
8442.4757233844975
 31
0.0
  0
POLYLINE
  8
____1
  6
CONTINUOUS
 62
               5
 66
               1
 10
0.0
 20
0.0
 30
0.0
 70
               8
  0
VERTEX
  8
____1
 62
               5
 10
14485.107223352996
 20
8415.9757233844975
 30
0.0
 70
              32
  0
VERTEX
  8
____1
 62
               5
 10
14490.012784372086
 20
8416.3783179296734
 30
0.0
 70
              32
  0
VERTEX
  8
____1
 62
               5
 10
14494.769292401947
 20
8417.5738689336704
 30
0.0
 70
              32
  0
VERTEX
  8
____1
 62
               5
 10
14499.232223352996
 20
8419.5260501842095
 30
0.0
 70
              32
  0
VERTEX
  8
____1
 62
               5
 10
14503.265973326641
 20
8422.175545641845
 30
0.0
 70
              32
  0
VERTEX
  8
____1
 62
               5
 10
14506.747978871106
 20
8425.4418517278045
 30
0.0
 70
              32
  0
VERTEX
  8
____1
 62
               5
 10
14509.572441009906
 20
8429.2257233844975
 30
0.0
 70
              32
  0
VERTEX
  8
____1
 62
               5
 10
14511.653539890198
 20
8433.4121895863682
 30
0.0
 70
              32
  0
VERTEX
  8
____1
 62
               5
 10
14512.92804237559
 20
8437.8740466763247
 30
0.0
 70
              32
  0
VERTEX
  8
____1
 62
               5
 10
14513.357223352996
 20
8442.4757233844975
 30
0.0
 70
              32
  0
VERTEX
  8
____1
 62
               5
 10
14512.92804237559
 20
8447.0774000926704
 30
0.0
 70
              32
  0
VERTEX
  8
____1
 62
               5
 10
14511.653539890198
 20
8451.5392571826269
 30
0.0
 70
              32
  0
VERTEX
  8
____1
 62
               5
 10
14509.572441009906
 20
8455.7257233844975
 30
0.0
 70
              32
  0
VERTEX
  8
____1
 62
               5
 10
14506.747978871106
 20
8459.5095950411906
 30
0.0
 70
              32
  0
VERTEX
  8
____1
 62
               5
 10
14503.265973326641
 20
8462.7759011271501
 30
0.0
 70
              32
  0
VERTEX
  8
____1
 62
               5
 10
14499.232223352996
 20
8465.4253965847856
 30
0.0
 70
              32
  0
VERTEX
  8
____1
 62
               5
 10
14494.769292401947
 20
8467.3775778353247
 30
0.0
 70
              32
  0
VERTEX
  8
____1
 62
               5
 10
14490.012784372087
 20
8468.5731288393217
 30
0.0
 70
              32
  0
VERTEX
  8
____1
 62
               5
 10
14485.107223352996
 20
8468.9757233844975
 30
0.0
 70
              32
  0
VERTEX
  8
____1
 62
               5
 10
14480.201662333906
 20
8468.5731288393217
 30
0.0
 70
              32
  0
VERTEX
  8
____1
 62
               5
 10
14475.445154304045
 20
8467.3775778353247
 30
0.0
 70
              32
  0
VERTEX
  8
____1
 62
               5
 10
14470.982223352996
 20
8465.4253965847856
 30
0.0
 70
              32
  0
VERTEX
  8
____1
 62
               5
 10
14466.948473379351
 20
8462.7759011271501
 30
0.0
 70
              32
  0
VERTEX
  8
____1
 62
               5
 10
14463.466467834885
 20
8459.5095950411906
 30
0.0
 70
              32
  0
VERTEX
  8
____1
 62
               5
 10
14460.642005696085
 20
8455.7257233844975
 30
0.0
 70
              32
  0
VERTEX
  8
____1
 62
               5
 10
14458.560906815794
 20
8451.5392571826269
 30
0.0
 70
              32
  0
VERTEX
  8
____1
 62
               5
 10
14457.286404330402
 20
8447.0774000926704
 30
0.0
 70
              32
  0
VERTEX
  8
____1
 62
               5
 10
14456.857223352996
 20
8442.4757233844975
 30
0.0
 70
              32
  0
VERTEX
  8
____1
 62
               5
 10
14457.286404330402
 20
8437.8740466763247
 30
0.0
 70
              32
  0
VERTEX
  8
____1
 62
               5
 10
14458.560906815794
 20
8433.4121895863682
 30
0.0
 70
              32
  0
VERTEX
  8
____1
 62
               5
 10
14460.642005696085
 20
8429.2257233844975
 30
0.0
 70
              32
  0
VERTEX
  8
____1
 62
               5
 10
14463.466467834885
 20
8425.4418517278045
 30
0.0
 70
              32
  0
VERTEX
  8
____1
 62
               5
 10
14466.948473379351
 20
8422.175545641845
 30
0.0
 70
              32
  0
VERTEX
  8
____1
 62
               5
 10
14470.982223352996
 20
8419.5260501842095
 30
0.0
 70
              32
  0
VERTEX
  8
____1
 62
               5
 10
14475.445154304045
 20
8417.5738689336704
 30
0.0
 70
              32
  0
VERTEX
  8
____1
 62
               5
 10
14480.201662333906
 20
8416.3783179296734
 30
0.0
 70
              32
  0
VERTEX
  8
____1
 62
               5
 10
14485.107223352996
 20
8415.9757233844975
 30
0.0
 70
              32
  0
VERTEX
  8
____1
 62
               5
 10
14485.107223352996
 20
8415.9757233844975
 30
0.0
 70
              32
  0
SEQEND
  8
____1
 62
               5
  0
CIRCLE
  8
____1
  6
CONTINUOUS
 62
               5
 10
14495.357223352994
 20
8442.4757233844939
 30
0.0
 40
7.5
  0
ENDBLK
  8
0
  0
BLOCK
  8
0
  2
C88
 70
              64
 10
0.0
 20
0.0
  0
LINE
  8
____1
  6
CENTER2
 62
               3
 10
15195.35722335299
 20
8462.4757233844994
 30
0.0
 11
15195.35722335299
 21
8422.4757233844921
 31
0.0
  0
CIRCLE
  8
____1
  6
CONTINUOUS
 62
               5
 10
15195.35722335299
 20
8442.4757233844957
 30
0.0
 40
15.0
210
0.0
220
0.0
230
1.0
  0
LINE
  8
____1
  6
CENTER2
 62
               3
 10
15241.12937594066
 20
8442.4757233844957
 30
0.0
 11
15170.35722335299
 21
8442.4757233844957
 31
0.0
  0
POLYLINE
  8
____1
  6
CONTINUOUS
 62
               5
 66
               1
 10
0.0
 20
0.0
 30
0.0
 70
               8
  0
VERTEX
  8
____1
 62
               5
 10
15205.607223352987
 20
8468.9757233844957
 30
0.0
 70
              32
  0
VERTEX
  8
____1
 62
               5
 10
15200.701662333897
 20
8468.5731288393199
 30
0.0
 70
              32
  0
VERTEX
  8
____1
 62
               5
 10
15195.945154304036
 20
8467.3775778353229
 30
0.0
 70
              32
  0
VERTEX
  8
____1
 62
               5
 10
15191.482223352987
 20
8465.4253965847838
 30
0.0
 70
              32
  0
VERTEX
  8
____1
 62
               5
 10
15187.448473379342
 20
8462.7759011271482
 30
0.0
 70
              32
  0
VERTEX
  8
____1
 62
               5
 10
15183.966467834876
 20
8459.5095950411887
 30
0.0
 70
              32
  0
VERTEX
  8
____1
 62
               5
 10
15181.142005696076
 20
8455.7257233844957
 30
0.0
 70
              32
  0
VERTEX
  8
____1
 62
               5
 10
15179.060906815785
 20
8451.5392571826251
 30
0.0
 70
              32
  0
VERTEX
  8
____1
 62
               5
 10
15177.786404330393
 20
8447.0774000926685
 30
0.0
 70
              32
  0
VERTEX
  8
____1
 62
               5
 10
15177.357223352987
 20
8442.4757233844957
 30
0.0
 70
              32
  0
VERTEX
  8
____1
 62
               5
 10
15177.786404330393
 20
8437.8740466763229
 30
0.0
 70
              32
  0
VERTEX
  8
____1
 62
               5
 10
15179.060906815785
 20
8433.4121895863664
 30
0.0
 70
              32
  0
VERTEX
  8
____1
 62
               5
 10
15181.142005696076
 20
8429.2257233844957
 30
0.0
 70
              32
  0
VERTEX
  8
____1
 62
               5
 10
15183.966467834876
 20
8425.4418517278027
 30
0.0
 70
              32
  0
VERTEX
  8
____1
 62
               5
 10
15187.448473379342
 20
8422.1755456418432
 30
0.0
 70
              32
  0
VERTEX
  8
____1
 62
               5
 10
15191.482223352987
 20
8419.5260501842076
 30
0.0
 70
              32
  0
VERTEX
  8
____1
 62
               5
 10
15195.945154304036
 20
8417.5738689336686
 30
0.0
 70
              32
  0
VERTEX
  8
____1
 62
               5
 10
15200.701662333895
 20
8416.3783179296715
 30
0.0
 70
              32
  0
VERTEX
  8
____1
 62
               5
 10
15205.607223352987
 20
8415.9757233844957
 30
0.0
 70
              32
  0
VERTEX
  8
____1
 62
               5
 10
15210.512784372077
 20
8416.3783179296715
 30
0.0
 70
              32
  0
VERTEX
  8
____1
 62
               5
 10
15215.269292401937
 20
8417.5738689336686
 30
0.0
 70
              32
  0
VERTEX
  8
____1
 62
               5
 10
15219.732223352987
 20
8419.5260501842076
 30
0.0
 70
              32
  0
VERTEX
  8
____1
 62
               5
 10
15223.765973326632
 20
8422.1755456418432
 30
0.0
 70
              32
  0
VERTEX
  8
____1
 62
               5
 10
15227.247978871097
 20
8425.4418517278027
 30
0.0
 70
              32
  0
VERTEX
  8
____1
 62
               5
 10
15230.072441009897
 20
8429.2257233844957
 30
0.0
 70
              32
  0
VERTEX
  8
____1
 62
               5
 10
15232.153539890189
 20
8433.4121895863664
 30
0.0
 70
              32
  0
VERTEX
  8
____1
 62
               5
 10
15233.428042375581
 20
8437.8740466763229
 30
0.0
 70
              32
  0
VERTEX
  8
____1
 62
               5
 10
15233.857223352987
 20
8442.4757233844957
 30
0.0
 70
              32
  0
VERTEX
  8
____1
 62
               5
 10
15233.428042375581
 20
8447.0774000926685
 30
0.0
 70
              32
  0
VERTEX
  8
____1
 62
               5
 10
15232.153539890189
 20
8451.5392571826251
 30
0.0
 70
              32
  0
VERTEX
  8
____1
 62
               5
 10
15230.072441009897
 20
8455.7257233844957
 30
0.0
 70
              32
  0
VERTEX
  8
____1
 62
               5
 10
15227.247978871097
 20
8459.5095950411887
 30
0.0
 70
              32
  0
VERTEX
  8
____1
 62
               5
 10
15223.765973326632
 20
8462.7759011271482
 30
0.0
 70
              32
  0
VERTEX
  8
____1
 62
               5
 10
15219.732223352987
 20
8465.4253965847838
 30
0.0
 70
              32
  0
VERTEX
  8
____1
 62
               5
 10
15215.269292401937
 20
8467.3775778353229
 30
0.0
 70
              32
  0
VERTEX
  8
____1
 62
               5
 10
15210.512784372077
 20
8468.5731288393199
 30
0.0
 70
              32
  0
VERTEX
  8
____1
 62
               5
 10
15205.607223352987
 20
8468.9757233844957
 30
0.0
 70
              32
  0
VERTEX
  8
____1
 62
               5
 10
15205.607223352987
 20
8468.9757233844957
 30
0.0
 70
              32
  0
SEQEND
  8
____1
 62
               5
  0
CIRCLE
  8
____1
  6
CONTINUOUS
 62
               5
 10
15195.357223352987
 20
8442.4757233844994
 30
0.0
 40
7.5
  0
ENDBLK
  8
0
  0
BLOCK
  8
0
  2
C89
 70
              64
 10
0.0
 20
0.0
  0
LINE
  8
____1
  6
CENTER2
 62
               3
 10
15195.35722335299
 20
8022.4757233845003
 30
0.0
 11
15195.35722335299
 21
7982.475723384493
 31
0.0
  0
CIRCLE
  8
____1
  6
CONTINUOUS
 62
               5
 10
15195.35722335299
 20
8002.4757233844966
 30
0.0
 40
15.0
210
0.0
220
0.0
230
1.0
  0
LINE
  8
____1
  6
CENTER2
 62
               3
 10
15241.12937594066
 20
8002.4757233844966
 30
0.0
 11
15170.35722335299
 21
8002.4757233844966
 31
0.0
  0
POLYLINE
  8
____1
  6
CONTINUOUS
 62
               5
 66
               1
 10
0.0
 20
0.0
 30
0.0
 70
               8
  0
VERTEX
  8
____1
 62
               5
 10
15205.607223352987
 20
8028.9757233844966
 30
0.0
 70
              32
  0
VERTEX
  8
____1
 62
               5
 10
15200.701662333897
 20
8028.5731288393199
 30
0.0
 70
              32
  0
VERTEX
  8
____1
 62
               5
 10
15195.945154304036
 20
8027.3775778353229
 30
0.0
 70
              32
  0
VERTEX
  8
____1
 62
               5
 10
15191.482223352987
 20
8025.4253965847838
 30
0.0
 70
              32
  0
VERTEX
  8
____1
 62
               5
 10
15187.448473379342
 20
8022.7759011271492
 30
0.0
 70
              32
  0
VERTEX
  8
____1
 62
               5
 10
15183.966467834876
 20
8019.5095950411896
 30
0.0
 70
              32
  0
VERTEX
  8
____1
 62
               5
 10
15181.142005696076
 20
8015.7257233844966
 30
0.0
 70
              32
  0
VERTEX
  8
____1
 62
               5
 10
15179.060906815785
 20
8011.5392571826269
 30
0.0
 70
              32
  0
VERTEX
  8
____1
 62
               5
 10
15177.786404330393
 20
8007.0774000926704
 30
0.0
 70
              32
  0
VERTEX
  8
____1
 62
               5
 10
15177.357223352987
 20
8002.4757233844966
 30
0.0
 70
              32
  0
VERTEX
  8
____1
 62
               5
 10
15177.786404330393
 20
7997.8740466763229
 30
0.0
 70
              32
  0
VERTEX
  8
____1
 62
               5
 10
15179.060906815785
 20
7993.4121895863664
 30
0.0
 70
              32
  0
VERTEX
  8
____1
 62
               5
 10
15181.142005696076
 20
7989.2257233844966
 30
0.0
 70
              32
  0
VERTEX
  8
____1
 62
               5
 10
15183.966467834876
 20
7985.4418517278036
 30
0.0
 70
              32
  0
VERTEX
  8
____1
 62
               5
 10
15187.448473379342
 20
7982.1755456418441
 30
0.0
 70
              32
  0
VERTEX
  8
____1
 62
               5
 10
15191.482223352987
 20
7979.5260501842095
 30
0.0
 70
              32
  0
VERTEX
  8
____1
 62
               5
 10
15195.945154304036
 20
7977.5738689336704
 30
0.0
 70
              32
  0
VERTEX
  8
____1
 62
               5
 10
15200.701662333895
 20
7976.3783179296734
 30
0.0
 70
              32
  0
VERTEX
  8
____1
 62
               5
 10
15205.607223352987
 20
7975.9757233844966
 30
0.0
 70
              32
  0
VERTEX
  8
____1
 62
               5
 10
15210.512784372077
 20
7976.3783179296734
 30
0.0
 70
              32
  0
VERTEX
  8
____1
 62
               5
 10
15215.269292401937
 20
7977.5738689336704
 30
0.0
 70
              32
  0
VERTEX
  8
____1
 62
               5
 10
15219.732223352987
 20
7979.5260501842095
 30
0.0
 70
              32
  0
VERTEX
  8
____1
 62
               5
 10
15223.765973326632
 20
7982.1755456418441
 30
0.0
 70
              32
  0
VERTEX
  8
____1
 62
               5
 10
15227.247978871097
 20
7985.4418517278036
 30
0.0
 70
              32
  0
VERTEX
  8
____1
 62
               5
 10
15230.072441009897
 20
7989.2257233844966
 30
0.0
 70
              32
  0
VERTEX
  8
____1
 62
               5
 10
15232.153539890189
 20
7993.4121895863664
 30
0.0
 70
              32
  0
VERTEX
  8
____1
 62
               5
 10
15233.428042375581
 20
7997.8740466763229
 30
0.0
 70
              32
  0
VERTEX
  8
____1
 62
               5
 10
15233.857223352987
 20
8002.4757233844966
 30
0.0
 70
              32
  0
VERTEX
  8
____1
 62
               5
 10
15233.428042375581
 20
8007.0774000926704
 30
0.0
 70
              32
  0
VERTEX
  8
____1
 62
               5
 10
15232.153539890189
 20
8011.5392571826269
 30
0.0
 70
              32
  0
VERTEX
  8
____1
 62
               5
 10
15230.072441009897
 20
8015.7257233844966
 30
0.0
 70
              32
  0
VERTEX
  8
____1
 62
               5
 10
15227.247978871097
 20
8019.5095950411896
 30
0.0
 70
              32
  0
VERTEX
  8
____1
 62
               5
 10
15223.765973326632
 20
8022.7759011271492
 30
0.0
 70
              32
  0
VERTEX
  8
____1
 62
               5
 10
15219.732223352987
 20
8025.4253965847838
 30
0.0
 70
              32
  0
VERTEX
  8
____1
 62
               5
 10
15215.269292401937
 20
8027.3775778353229
 30
0.0
 70
              32
  0
VERTEX
  8
____1
 62
               5
 10
15210.512784372077
 20
8028.5731288393199
 30
0.0
 70
              32
  0
VERTEX
  8
____1
 62
               5
 10
15205.607223352987
 20
8028.9757233844966
 30
0.0
 70
              32
  0
VERTEX
  8
____1
 62
               5
 10
15205.607223352987
 20
8028.9757233844966
 30
0.0
 70
              32
  0
SEQEND
  8
____1
 62
               5
  0
CIRCLE
  8
____1
  6
CONTINUOUS
 62
               5
 10
15195.357223352987
 20
8002.4757233845003
 30
0.0
 40
7.5
  0
ENDBLK
  8
0
  0
BLOCK
  8
0
  2
C90
 70
              64
 10
0.0
 20
0.0
  0
LINE
  8
____1
  6
CENTER2
 62
               3
 10
15045.35722335299
 20
8572.4757233844994
 30
0.0
 11
15085.357223352994
 21
8572.4757233844994
 31
0.0
  0
CIRCLE
  8
____1
  6
CONTINUOUS
 62
               5
 10
15065.35722335299
 20
8572.4757233844994
 30
0.0
 40
15.0
210
0.0
220
0.0
230
1.0
  0
LINE
  8
____1
  6
CENTER2
 62
               3
 10
15065.35722335299
 20
8618.2478759721689
 30
0.0
 11
15065.35722335299
 21
8547.4757233844994
 31
0.0
  0
POLYLINE
  8
____1
  6
CONTINUOUS
 62
               5
 66
               1
 10
0.0
 20
0.0
 30
0.0
 70
               8
  0
VERTEX
  8
____1
 62
               5
 10
15038.857223352994
 20
8582.7257233844921
 30
0.0
 70
              32
  0
VERTEX
  8
____1
 62
               5
 10
15039.25981789817
 20
8577.8201623654022
 30
0.0
 70
              32
  0
VERTEX
  8
____1
 62
               5
 10
15040.455368902167
 20
8573.0636543355413
 30
0.0
 70
              32
  0
VERTEX
  8
____1
 62
               5
 10
15042.407550152706
 20
8568.6007233844921
 30
0.0
 70
              32
  0
VERTEX
  8
____1
 62
               5
 10
15045.057045610341
 20
8564.5669734108469
 30
0.0
 70
              32
  0
VERTEX
  8
____1
 62
               5
 10
15048.323351696301
 20
8561.0849678663817
 30
0.0
 70
              32
  0
VERTEX
  8
____1
 62
               5
 10
15052.107223352994
 20
8558.2605057275814
 30
0.0
 70
              32
  0
VERTEX
  8
____1
 62
               5
 10
15056.293689554865
 20
8556.17940684729
 30
0.0
 70
              32
  0
VERTEX
  8
____1
 62
               5
 10
15060.755546644821
 20
8554.9049043618979
 30
0.0
 70
              32
  0
VERTEX
  8
____1
 62
               5
 10
15065.357223352994
 20
8554.4757233844921
 30
0.0
 70
              32
  0
VERTEX
  8
____1
 62
               5
 10
15069.958900061167
 20
8554.9049043618979
 30
0.0
 70
              32
  0
VERTEX
  8
____1
 62
               5
 10
15074.420757151123
 20
8556.17940684729
 30
0.0
 70
              32
  0
VERTEX
  8
____1
 62
               5
 10
15078.607223352994
 20
8558.2605057275814
 30
0.0
 70
              32
  0
VERTEX
  8
____1
 62
               5
 10
15082.391095009687
 20
8561.0849678663817
 30
0.0
 70
              32
  0
VERTEX
  8
____1
 62
               5
 10
15085.657401095646
 20
8564.5669734108469
 30
0.0
 70
              32
  0
VERTEX
  8
____1
 62
               5
 10
15088.306896553282
 20
8568.6007233844921
 30
0.0
 70
              32
  0
VERTEX
  8
____1
 62
               5
 10
15090.259077803821
 20
8573.0636543355413
 30
0.0
 70
              32
  0
VERTEX
  8
____1
 62
               5
 10
15091.454628807818
 20
8577.8201623654004
 30
0.0
 70
              32
  0
VERTEX
  8
____1
 62
               5
 10
15091.857223352994
 20
8582.7257233844921
 30
0.0
 70
              32
  0
VERTEX
  8
____1
 62
               5
 10
15091.454628807818
 20
8587.631284403582
 30
0.0
 70
              32
  0
VERTEX
  8
____1
 62
               5
 10
15090.259077803821
 20
8592.3877924334429
 30
0.0
 70
              32
  0
VERTEX
  8
____1
 62
               5
 10
15088.306896553282
 20
8596.8507233844921
 30
0.0
 70
              32
  0
VERTEX
  8
____1
 62
               5
 10
15085.657401095646
 20
8600.8844733581373
 30
0.0
 70
              32
  0
VERTEX
  8
____1
 62
               5
 10
15082.391095009687
 20
8604.3664789026025
 30
0.0
 70
              32
  0
VERTEX
  8
____1
 62
               5
 10
15078.607223352994
 20
8607.1909410414028
 30
0.0
 70
              32
  0
VERTEX
  8
____1
 62
               5
 10
15074.420757151123
 20
8609.2720399216942
 30
0.0
 70
              32
  0
VERTEX
  8
____1
 62
               5
 10
15069.958900061167
 20
8610.5465424070862
 30
0.0
 70
              32
  0
VERTEX
  8
____1
 62
               5
 10
15065.357223352994
 20
8610.9757233844921
 30
0.0
 70
              32
  0
VERTEX
  8
____1
 62
               5
 10
15060.755546644821
 20
8610.5465424070862
 30
0.0
 70
              32
  0
VERTEX
  8
____1
 62
               5
 10
15056.293689554865
 20
8609.2720399216942
 30
0.0
 70
              32
  0
VERTEX
  8
____1
 62
               5
 10
15052.107223352994
 20
8607.1909410414028
 30
0.0
 70
              32
  0
VERTEX
  8
____1
 62
               5
 10
15048.323351696301
 20
8604.3664789026025
 30
0.0
 70
              32
  0
VERTEX
  8
____1
 62
               5
 10
15045.057045610341
 20
8600.8844733581373
 30
0.0
 70
              32
  0
VERTEX
  8
____1
 62
               5
 10
15042.407550152706
 20
8596.8507233844921
 30
0.0
 70
              32
  0
VERTEX
  8
____1
 62
               5
 10
15040.455368902167
 20
8592.3877924334429
 30
0.0
 70
              32
  0
VERTEX
  8
____1
 62
               5
 10
15039.25981789817
 20
8587.631284403582
 30
0.0
 70
              32
  0
VERTEX
  8
____1
 62
               5
 10
15038.857223352994
 20
8582.7257233844921
 30
0.0
 70
              32
  0
VERTEX
  8
____1
 62
               5
 10
15038.857223352994
 20
8582.7257233844921
 30
0.0
 70
              32
  0
SEQEND
  8
____1
 62
               5
  0
CIRCLE
  8
____1
  6
CONTINUOUS
 62
               5
 10
15065.357223352987
 20
8572.4757233844957
 30
0.0
 40
7.5
  0
ENDBLK
  8
0
  0
BLOCK
  8
0
  2
C91
 70
              64
 10
0.0
 20
0.0
  0
INSERT
  8
____1
  6
CONTINUOUS
 62
               5
  2
C92
 10
0.0
 20
0.0
 30
0.0
  0
LINE
  8
____1
  6
CONTINUOUS
 62
               5
 10
14480.35722335299
 20
7311.9115703230254
 30
0.0
 11
14457.320747609387
 21
7298.6114548512778
 31
0.0
  0
LINE
  8
____1
  6
CONTINUOUS
 62
               5
 10
14510.35722335299
 20
7311.9115703230254
 30
0.0
 11
14513.821324968127
 21
7309.9115703230254
 31
0.0
  0
LINE
  8
____1
  6
CENTER2
 62
               3
 10
14495.35722335299
 20
7322.6043478915544
 30
0.0
 11
14495.35722335299
 21
7296.7425297097361
 31
0.0
  0
LINE
  8
____1
  6
CONTINUOUS
 62
               5
 10
14480.35722335299
 20
7311.9115703230254
 30
0.0
 11
14510.35722335299
 21
7311.9115703230254
 31
0.0
  0
LINE
  8
____1
  6
DASHED2
 62
               7
 10
14480.759147141636
 20
7310.4115703230254
 30
0.0
 11
14509.955299564344
 21
7310.4115703230254
 31
0.0
  0
LINE
  8
____1
  6
DASHED2
 62
               7
 10
14502.85722335299
 20
7311.9115703230254
 30
0.0
 11
14502.85722335299
 21
7310.4115703230254
 31
0.0
  0
LINE
  8
____1
  6
DASHED2
 62
               7
 10
14487.85722335299
 20
7311.9115703230254
 30
0.0
 11
14487.85722335299
 21
7310.4115703230254
 31
0.0
  0
LINE
  8
____1
  6
DASHED2
 62
               7
 10
14509.955299564344
 20
7310.4115703230254
 30
0.0
 11
14513.561024095388
 21
7308.3298042944007
 31
0.0
  0
LINE
  8
____1
  6
DASHED2
 62
               7
 10
14480.759147141636
 20
7310.4115703230254
 30
0.0
 11
14457.856973418702
 21
7297.1889941590634
 31
0.0
  0
INSERT
  8
____1
  6
CONTINUOUS
 62
               5
  2
C93
 10
0.0
 20
0.0
 30
0.0
  0
LINE
  8
____1
  6
CONTINUOUS
 62
               5
 10
15210.35722335299
 20
7311.9115703230254
 30
0.0
 11
15233.393699096594
 21
7298.6114548512778
 31
0.0
  0
LINE
  8
____1
  6
CONTINUOUS
 62
               5
 10
15180.35722335299
 20
7311.9115703230254
 30
0.0
 11
15176.893121737854
 21
7309.9115703230254
 31
0.0
  0
LINE
  8
____1
  6
CENTER2
 62
               3
 10
15195.35722335299
 20
7322.6043478915544
 30
0.0
 11
15195.35722335299
 21
7296.7425297097361
 31
0.0
  0
LINE
  8
____1
  6
CONTINUOUS
 62
               5
 10
15210.35722335299
 20
7311.9115703230254
 30
0.0
 11
15180.35722335299
 21
7311.9115703230254
 31
0.0
  0
LINE
  8
____1
  6
DASHED2
 62
               7
 10
15209.955299564344
 20
7310.4115703230254
 30
0.0
 11
15180.759147141636
 21
7310.4115703230254
 31
0.0
  0
LINE
  8
____1
  6
DASHED2
 62
               7
 10
15187.85722335299
 20
7311.9115703230254
 30
0.0
 11
15187.85722335299
 21
7310.4115703230254
 31
0.0
  0
LINE
  8
____1
  6
DASHED2
 62
               7
 10
15202.85722335299
 20
7311.9115703230254
 30
0.0
 11
15202.85722335299
 21
7310.4115703230254
 31
0.0
  0
LINE
  8
____1
  6
DASHED2
 62
               7
 10
15180.759147141636
 20
7310.4115703230254
 30
0.0
 11
15177.153422610592
 21
7308.3298042944007
 31
0.0
  0
LINE
  8
____1
  6
DASHED2
 62
               7
 10
15209.955299564344
 20
7310.4115703230254
 30
0.0
 11
15232.857473287278
 21
7297.1889941590634
 31
0.0
  0
ENDBLK
  8
0
  0
BLOCK
  8
0
  2
C92
 70
              64
 10
0.0
 20
0.0
  0
LINE
  8
____1
  6
CONTINUOUS
 62
               5
 10
14640.35722335299
 20
7311.9115703230254
 30
0.0
 11
14610.35722335299
 21
7311.9115703230254
 31
0.0
  0
POLYLINE
  8
____1
  6
CONTINUOUS
 62
               5
 66
               1
 10
0.0
 20
0.0
 30
0.0
 70
               8
  0
VERTEX
  8
____1
 62
               5
 10
14601.35722335299
 20
7306.2187499999964
 30
0.0
 70
              32
  0
VERTEX
  8
____1
 62
               5
 10
14601.721837280696
 20
7304.8977570604466
 30
0.0
 70
              32
  0
VERTEX
  8
____1
 62
               5
 10
14602.804600454128
 20
7303.6169018229102
 30
0.0
 70
              32
  0
VERTEX
  8
____1
 62
               5
 10
14604.572613662163
 20
7302.4151024256362
 30
0.0
 70
              32
  0
VERTEX
  8
____1
 62
               5
 10
14606.972156718135
 20
7301.3288749351705
 30
0.0
 70
              32
  0
VERTEX
  8
____1
 62
               5
 10
14609.930320720514
 20
7300.3912238241537
 30
0.0
 70
              32
  0
VERTEX
  8
____1
 62
               5
 10
14613.35722335299
 20
7299.6306391471189
 30
0.0
 70
              32
  0
VERTEX
  8
____1
 62
               5
 10
14617.148739913175
 20
7299.0702308846039
 30
0.0
 70
              32
  0
VERTEX
  8
____1
 62
               5
 10
14621.189667088984
 20
7298.7270267580852
 30
0.0
 70
              32
  0
VERTEX
  8
____1
 62
               5
 10
14625.35722335299
 20
7298.6114548512769
 30
0.0
 70
              32
  0
VERTEX
  8
____1
 62
               5
 10
14629.524779616997
 20
7298.7270267580852
 30
0.0
 70
              32
  0
VERTEX
  8
____1
 62
               5
 10
14633.565706792806
 20
7299.0702308846039
 30
0.0
 70
              32
  0
VERTEX
  8
____1
 62
               5
 10
14637.35722335299
 20
7299.6306391471189
 30
0.0
 70
              32
  0
VERTEX
  8
____1
 62
               5
 10
14640.784125985467
 20
7300.3912238241537
 30
0.0
 70
              32
  0
VERTEX
  8
____1
 62
               5
 10
14643.742289987846
 20
7301.3288749351714
 30
0.0
 70
              32
  0
VERTEX
  8
____1
 62
               5
 10
14646.141833043817
 20
7302.4151024256371
 30
0.0
 70
              32
  0
VERTEX
  8
____1
 62
               5
 10
14647.909846251852
 20
7303.6169018229111
 30
0.0
 70
              32
  0
VERTEX
  8
____1
 62
               5
 10
14648.992609425284
 20
7304.8977570604466
 30
0.0
 70
              32
  0
VERTEX
  8
____1
 62
               5
 10
14649.35722335299
 20
7306.2187499999964
 30
0.0
 70
              32
  0
VERTEX
  8
____1
 62
               5
 10
14649.35722335299
 20
7306.2187499999964
 30
0.0
 70
              32
  0
SEQEND
  8
____1
 62
               5
  0
LINE
  8
____1
  6
CONTINUOUS
 62
               5
 10
14610.35722335299
 20
7311.9115703230254
 30
0.0
 11
14601.35722335299
 21
7306.2187499999964
 31
0.0
  0
LINE
  8
____1
  6
CONTINUOUS
 62
               5
 10
14640.35722335299
 20
7311.9115703230254
 30
0.0
 11
14649.35722335299
 21
7306.2187499999964
 31
0.0
  0
ENDBLK
  8
0
  0
BLOCK
  8
0
  2
C93
 70
              64
 10
0.0
 20
0.0
  0
LINE
  8
____1
  6
CONTINUOUS
 62
               5
 10
15050.35722335299
 20
7311.9115703230254
 30
0.0
 11
15080.35722335299
 21
7311.9115703230254
 31
0.0
  0
POLYLINE
  8
____1
  6
CONTINUOUS
 62
               5
 66
               1
 10
0.0
 20
0.0
 30
0.0
 70
               8
  0
VERTEX
  8
____1
 62
               5
 10
15089.35722335299
 20
7306.2187499999964
 30
0.0
 70
              32
  0
VERTEX
  8
____1
 62
               5
 10
15088.992609425284
 20
7304.8977570604466
 30
0.0
 70
              32
  0
VERTEX
  8
____1
 62
               5
 10
15087.909846251852
 20
7303.6169018229102
 30
0.0
 70
              32
  0
VERTEX
  8
____1
 62
               5
 10
15086.141833043817
 20
7302.4151024256362
 30
0.0
 70
              32
  0
VERTEX
  8
____1
 62
               5
 10
15083.742289987846
 20
7301.3288749351705
 30
0.0
 70
              32
  0
VERTEX
  8
____1
 62
               5
 10
15080.784125985467
 20
7300.3912238241537
 30
0.0
 70
              32
  0
VERTEX
  8
____1
 62
               5
 10
15077.35722335299
 20
7299.6306391471189
 30
0.0
 70
              32
  0
VERTEX
  8
____1
 62
               5
 10
15073.565706792806
 20
7299.0702308846039
 30
0.0
 70
              32
  0
VERTEX
  8
____1
 62
               5
 10
15069.524779616997
 20
7298.7270267580852
 30
0.0
 70
              32
  0
VERTEX
  8
____1
 62
               5
 10
15065.35722335299
 20
7298.6114548512769
 30
0.0
 70
              32
  0
VERTEX
  8
____1
 62
               5
 10
15061.189667088984
 20
7298.7270267580852
 30
0.0
 70
              32
  0
VERTEX
  8
____1
 62
               5
 10
15057.148739913175
 20
7299.0702308846039
 30
0.0
 70
              32
  0
VERTEX
  8
____1
 62
               5
 10
15053.35722335299
 20
7299.6306391471189
 30
0.0
 70
              32
  0
VERTEX
  8
____1
 62
               5
 10
15049.930320720514
 20
7300.3912238241537
 30
0.0
 70
              32
  0
VERTEX
  8
____1
 62
               5
 10
15046.972156718135
 20
7301.3288749351714
 30
0.0
 70
              32
  0
VERTEX
  8
____1
 62
               5
 10
15044.572613662163
 20
7302.4151024256371
 30
0.0
 70
              32
  0
VERTEX
  8
____1
 62
               5
 10
15042.804600454128
 20
7303.6169018229111
 30
0.0
 70
              32
  0
VERTEX
  8
____1
 62
               5
 10
15041.721837280696
 20
7304.8977570604466
 30
0.0
 70
              32
  0
VERTEX
  8
____1
 62
               5
 10
15041.35722335299
 20
7306.2187499999964
 30
0.0
 70
              32
  0
VERTEX
  8
____1
 62
               5
 10
15041.35722335299
 20
7306.2187499999964
 30
0.0
 70
              32
  0
SEQEND
  8
____1
 62
               5
  0
LINE
  8
____1
  6
CONTINUOUS
 62
               5
 10
15080.35722335299
 20
7311.9115703230254
 30
0.0
 11
15089.35722335299
 21
7306.2187499999964
 31
0.0
  0
LINE
  8
____1
  6
CONTINUOUS
 62
               5
 10
15050.35722335299
 20
7311.9115703230254
 30
0.0
 11
15041.35722335299
 21
7306.2187499999964
 31
0.0
  0
ENDBLK
  8
0
  0
ENDSEC
  0
SECTION
  2
ENTITIES
  0
DIMENSION
  8
______
  6
CONTINUOUS
 62
               7
  5
45
  2
*D0
 10
15195.357223352994
 20
8718.7656147419766
 30
0.0
 11
14845.357223352994
 21
8718.7656147419766
 31
0.0
 13
14495.357223352994
 23
8454.9757233844957
 33
0.0
 14
15195.357223352994
 24
8454.9757233844994
 34
0.0
  0
INSERT
  8
______
  6
CONTINUOUS
 62
               7
  5
50
  2
C0
 10
0.0
 20
0.0
 30
0.0
  0
LINE
  8
____1
  6
CONTINUOUS
 62
               5
  5
51
 10
16385.002767719416
 20
7970.9757233845012
 30
0.0
 11
16377.37430555235
 21
7970.9757233845012
 31
0.0
  0
INSERT
  8
____1
  6
CONTINUOUS
 62
             254
  5
68
  2
C1
 10
0.0
 20
0.0
 30
0.0
  0
DIMENSION
  8
______
  6
CONTINUOUS
 62
               7
  5
77
  2
*D3
 10
15447.042680642606
 20
7922.4757233844994
 30
0.0
 11
15447.042680642606
 21
8215.9757233844957
 31
0.0
 13
15145.357223352994
 23
8522.4757233844975
 33
0.0
 14
15145.357223352994
 24
7922.4757233844994
 34
0.0
 50
90.0
  0
DIMENSION
  8
______
  6
CONTINUOUS
 62
               7
  5
84
  2
*D4
 10
15295.357223352994
 20
7588.9636768171331
 30
0.0
 11
14845.357223352994
 21
7588.9636768171331
 31
0.0
 13
14395.357223352994
 23
7772.4757233845012
 33
0.0
 14
15295.357223352994
 24
7772.4757233845012
 34
0.0
  0
DIMENSION
  8
______
  6
CONTINUOUS
 62
               7
  5
91
  2
*D5
 10
15095.357223352994
 20
8403.6240657294256
 30
0.0
 11
14845.357223352994
 21
8403.6240657294256
 31
0.0
 13
14595.357223352994
 23
8417.7576191768439
 33
0.0
 14
15095.357223352994
 24
8417.7576191768439
 34
0.0
  0
DIMENSION
  8
______
  6
CONTINUOUS
 62
               7
  5
9E
  2
*D6
 10
15065.357223352994
 20
8773.3316943952595
 30
0.0
 11
14845.357223352994
 21
8773.3316943952595
 31
0.0
 13
14625.357223352994
 23
8584.9757233844975
 33
0.0
 14
15065.357223352994
 24
8584.9757233844975
 34
0.0
  0
DIMENSION
  8
______
  6
CONTINUOUS
 62
               7
  5
AC
  2
*D7
 10
14395.357223352994
 20
8718.7656147419766
 30
0.0
 11
14445.357223352994
 21
8718.7656147419766
 31
0.0
 13
14495.357223352994
 23
8454.9757233844957
 33
0.0
 14
14395.357223352994
 24
8672.4757233844975
 34
0.0
 50
180.0
  0
DIMENSION
  8
______
  6
CONTINUOUS
 62
               7
  5
BC
  2
*D8
 10
14334.420154600923
 20
8672.4757233844975
 30
0.0
 11
14334.420154600923
 21
8622.4757233844975
 31
0.0
 13
14612.857223352994
 23
8572.4757233844975
 33
0.0
 14
14395.357223352994
 24
8672.4757233844975
 34
0.0
 50
90.0
  0
DIMENSION
  8
______
  6
CONTINUOUS
 62
               7
  5
C9
  2
*D9
 10
14625.357223352994
 20
8773.3316943952595
 30
0.0
 11
14510.357223352994
 21
8773.3316943952595
 31
0.0
 13
14395.357223352994
 23
8672.4757233844975
 33
0.0
 14
14625.357223352994
 24
8584.9757233844975
 34
0.0
  0
DIMENSION
  8
______
  6
CONTINUOUS
 62
               7
  5
D8
  2
*D10
 10
14252.279009307376
 20
8002.4757233844975
 30
0.0
 11
14252.279009307376
 21
8222.4757233844957
 31
0.0
 13
14482.857223352994
 23
8442.4757233844957
 33
0.0
 14
14482.857223352994
 24
8002.4757233844975
 34
0.0
 50
90.0
  0
DIMENSION
  8
______
  6
CONTINUOUS
 62
               7
  5
E7
  2
*D11
 10
14252.279009307376
 20
8442.4757233844957
 30
0.0
 11
14252.279009307376
 21
8557.4757233844957
 31
0.0
 13
14395.357223352994
 23
8672.4757233844975
 33
0.0
 14
14482.857223352994
 24
8442.4757233844957
 34
0.0
 50
90.0
  0
DIMENSION
  8
______
  6
CONTINUOUS
 62
               7
  5
F5
  2
*D12
 10
16415.002767719416
 20
7658.214346983299
 30
0.0
 11
16400.002767719416
 21
7658.214346983299
 31
0.0
 13
16385.002767719416
 23
7922.4757233845012
 33
0.0
 14
16415.002767719416
 24
7772.4757233845012
 34
0.0
  0
DIMENSION
  8
______
  6
CONTINUOUS
 62
               7
  5
102
  2
*D13
 10
16385.002767719416
 20
7658.2184059918109
 30
0.0
 11
16381.207812296352
 21
7658.2184059918109
 31
0.0
 13
16377.41285687329
 23
7947.4797823930112
 33
0.0
 14
16385.002767719416
 24
7922.6242526548886
 34
0.0
 50
0.0000008537736463
  0
DIMENSION
  8
______
  6
CONTINUOUS
 62
               7
  5
10F
  2
*D14
 10
16377.412916150257
 20
7658.1794499113421
 30
0.0
 11
16289.684133899895
 21
7658.1794499113421
 31
0.0
 13
16331.932438348082
 23
7945.870260522719
 33
0.0
 14
16377.412916150257
 24
7947.4424241766565
 34
0.0
  0
DIMENSION
  8
______
  6
CONTINUOUS
 62
               7
  5
11E
  2
*D15
 10
15518.157719705103
 20
7772.4757233845012
 30
0.0
 11
15518.157719705103
 21
8215.9757233844957
 31
0.0
 13
15295.357223352994
 23
8672.4757233844975
 33
0.0
 14
15295.357223352994
 24
7772.4757233845012
 34
0.0
 50
90.0
  0
DIMENSION
  8
______
  6
CONTINUOUS
 62
               7
  5
12B
  2
*D16
 10
15145.357223352994
 20
7653.5220101504674
 30
0.0
 11
14845.357223352994
 21
7653.5220101504674
 31
0.0
 13
14545.357223352994
 23
7922.4757233844975
 33
0.0
 14
15145.357223352994
 24
7922.4757233844994
 34
0.0
  0
DIMENSION
  8
______
  6
CONTINUOUS
 62
               7
  5
138
  2
*D17
 10
15115.357058272579
 20
7714.3291512637443
 30
0.0
 11
14845.357223352994
 21
7714.3291512637443
 31
0.0
 13
14575.357058272579
 23
7945.9757233844939
 33
0.0
 14
15115.357058272579
 24
7945.9757233844939
 34
0.0
  0
DIMENSION
  8
______
  6
CONTINUOUS
 62
               7
  5
147
  2
*D18
 10
14252.279009307376
 20
7772.4757233845012
 30
0.0
 11
14252.279009307376
 21
7887.4757233844975
 31
0.0
 13
14482.857223352994
 23
8002.4757233844975
 33
0.0
 14
14395.357223352994
 24
7772.4757233845012
 34
0.0
 50
90.0
  0
DIMENSION
  8
______
  6
CONTINUOUS
 62
               7
  5
156
  2
*D19
 10
14334.420154600923
 20
7872.4757233844994
 30
0.0
 11
14334.420154600923
 21
8222.4757233844994
 31
0.0
 13
14612.857223352994
 23
8572.4757233844975
 33
0.0
 14
14612.857223352994
 24
7872.4757233844994
 34
0.0
 50
90.0
  0
DIMENSION
  8
______
  6
CONTINUOUS
 62
               7
  5
166
  2
*D20
 10
14334.420154600923
 20
7772.4757233845012
 30
0.0
 11
14334.420154600923
 21
7822.4757233844994
 31
0.0
 13
14612.857223352994
 23
7872.4757233844994
 33
0.0
 14
14395.357223352994
 24
7772.4757233845012
 34
0.0
 50
90.0
  0
DIMENSION
  8
______
  6
CONTINUOUS
 62
               7
  5
173
  2
*D21
 10
15295.357223352994
 20
8773.3316943952595
 30
0.0
 11
15180.357223352994
 21
8773.3316943952595
 31
0.0
 13
15065.357223352994
 23
8584.9757233844975
 33
0.0
 14
15295.357223352994
 24
8672.4757233844975
 34
0.0
  0
DIMENSION
  8
______
  6
CONTINUOUS
 62
               7
  5
181
  2
*D22
 10
15295.357223352994
 20
8718.7656147419766
 30
0.0
 11
15245.357223352994
 21
8718.7656147419766
 31
0.0
 13
15195.357223352994
 23
8454.9757233844994
 33
0.0
 14
15295.357223352994
 24
8672.4757233844975
 34
0.0
  0
DIMENSION
  8
______
  6
CONTINUOUS
 62
               7
  5
190
  2
*D23
 10
15375.423279600936
 20
7945.9757233844939
 30
0.0
 11
15375.423279600936
 21
8215.9757233844957
 31
0.0
 13
15115.357058272579
 23
8485.9757233844957
 33
0.0
 14
15115.357058272579
 24
7945.9757233844939
 34
0.0
 50
90.0
  0
DIMENSION
  8
______
  6
CONTINUOUS
 62
               7
  5
19A
  2
*D24
 10
15191.306761554437
 20
8436.1635320678197
 30
0.0
 11
15352.272553315614
 21
8628.2164425332321
 31
0.0
 70
             131
 15
15199.407685151551
 25
8448.7879147012009
 35
0.0
  0
DIMENSION
  8
______
  6
CONTINUOUS
 62
               7
  5
1A8
  2
*D25
 10
16465.002767719416
 20
7658.214346983299
 30
0.0
 11
16439.867620646459
 21
7658.214346983299
 31
0.0
 13
16415.002767719416
 23
7772.4757233845012
 33
0.0
 14
16465.002767719416
 24
7772.4757233845012
 34
0.0
  0
LINE
  8
____1
  6
DOT
 62
               7
  5
1A9
 10
16361.002767719418
 20
8030.6389611807554
 30
0.0
 11
16361.002767719418
 21
8058.5524824196682
 31
0.0
  0
LINE
  8
____1
  6
DASHED2
 62
               7
  5
1AA
 10
16350.002767719418
 20
8058.5495314943373
 30
0.0
 11
16350.002767719418
 21
8296.8526238410286
 31
0.0
  0
INSERT
  8
______
  6
CONTINUOUS
 62
               7
  5
1B4
  2
C2
 10
0.0
 20
0.0
 30
0.0
  0
INSERT
  8
______
  6
CONTINUOUS
 62
               7
  5
1BE
  2
C3
 10
0.0
 20
0.0
 30
0.0
  0
INSERT
  8
______
  6
CONTINUOUS
 62
               7
  5
1C8
  2
C4
 10
0.0
 20
0.0
 30
0.0
  0
INSERT
  8
______
  6
CONTINUOUS
 62
               7
  5
1D2
  2
C5
 10
0.0
 20
0.0
 30
0.0
  0
INSERT
  8
______
  6
CONTINUOUS
 62
               7
  5
1DC
  2
C6
 10
0.0
 20
0.0
 30
0.0
  0
INSERT
  8
______
  6
CONTINUOUS
 62
               7
  5
1E6
  2
C7
 10
0.0
 20
0.0
 30
0.0
  0
INSERT
  8
______
  6
CONTINUOUS
 62
               7
  5
1F0
  2
C8
 10
0.0
 20
0.0
 30
0.0
  0
INSERT
  8
____1
  6
CONTINUOUS
 62
               5
  5
1F8
  2
C9
 10
0.0
 20
0.0
 30
0.0
  0
LINE
  8
____1
  6
CONTINUOUS
 62
               5
  5
1F9
 10
16414.761602559956
 20
8671.2698975872081
 30
0.0
 11
16385.031896705877
 21
8522.6213683168171
 31
0.0
  0
LINE
  8
____1
  6
DASHED
 62
               7
  5
1FA
 10
16416.232473573495
 20
8670.9757233845012
 30
0.0
 11
16386.502767719416
 21
8522.3271941141102
 31
0.0
  0
LINE
  8
____1
  6
CONTINUOUS
 62
               5
  5
1FB
 10
16385.002767719416
 20
8522.3271941141102
 30
0.0
 11
16385.002767719416
 21
8473.9757233844994
 31
0.0
  0
LINE
  8
____1
  6
DASHED
 62
               7
  5
1FC
 10
16386.502767719416
 20
8522.3271941141102
 30
0.0
 11
16386.502767719416
 21
8473.9757233844994
 31
0.0
  0
ARC
  8
____1
  6
DASHED
 62
               7
  5
1FD
 10
16463.502767719416
 20
8670.9757233845012
 30
0.0
 40
1.5
 50
-90.0
 51
0.0
210
0.0
220
0.0
230
1.0
  0
LINE
  8
____1
  6
CONTINUOUS
 62
               5
  5
1FE
 10
16465.002767719416
 20
8670.9757233845012
 30
0.0
 11
16415.002767719416
 21
8670.9757233845012
 31
0.0
  0
LINE
  8
____1
  6
DASHED2
 62
               7
  5
1FF
 10
16385.002767719416
 20
7970.9757233845012
 30
0.0
 11
16336.502767719418
 21
7970.9757233845012
 31
0.0
  0
LINE
  8
____1
  6
CONTINUOUS
 62
               5
  5
200
 10
16415.002767719416
 20
8670.9757233845012
 30
0.0
 11
16385.002767719416
 21
8522.4757233845012
 31
0.0
  0
LINE
  8
____1
  6
CONTINUOUS
 62
               5
  5
201
 10
16463.502767719416
 20
8672.4757233845012
 30
0.0
 11
16416.232473573495
 21
8672.4757233845012
 31
0.0
  0
LINE
  8
____1
  6
DASHED
 62
               7
  5
202
 10
16463.502767719416
 20
8670.9757233845012
 30
0.0
 11
16416.232473573495
 21
8670.9757233845012
 31
0.0
  0
INSERT
  8
____1
  6
DASHED2
 62
               7
  5
21F
  2
C10
 10
0.0
 20
0.0
 30
0.0
  0
INSERT
  8
____1
  6
DASHED2
 62
               7
  5
22F
  2
C12
 10
0.0
 20
0.0
 30
0.0
  0
ARC
  8
____1
  6
DOT
 62
               7
  5
230
 10
16355.502767719418
 20
8030.9757233845012
 30
0.0
 40
5.5000000000006564
 50
-179.99997200969349
 51
-176.47768733403285
  0
ARC
  8
____1
  6
DOT
 62
               7
  5
231
 10
16355.502767719418
 20
8030.9757233845012
 30
0.0
 40
5.500000000001366
 50
-3.5538104361286775
 51
0.0
  0
LINE
  8
____1
  6
DASHED2
 62
               7
  5
232
 10
16377.37430555235
 20
7970.9757233845012
 30
0.0
 11
16336.502767719418
 21
7970.9757233845012
 31
0.0
  0
LINE
  8
____1
  6
DASHED
 62
               7
  5
233
 10
16455.002767719416
 20
8670.9757233845012
 30
0.0
 11
16455.002767719416
 21
8669.4757233845012
 31
0.0
  0
LINE
  8
____1
  6
DASHED
 62
               7
  5
234
 10
16463.502767719416
 20
8669.4757233845012
 30
0.0
 11
16455.002767719416
 21
8669.4757233845012
 31
0.0
  0
LINE
  8
____1
  6
DASHED2
 62
               7
  5
235
 10
16336.502767719418
 20
7964.4757233845012
 30
0.0
 11
16336.502767719418
 21
7970.9757233845012
 31
0.0
  0
ARC
  8
____1
  6
DASHED2
 62
               7
  5
236
 10
16336.502767719418
 20
7970.9757233845012
 30
0.0
 40
1.5
 50
90.0
 51
180.0
210
0.0
220
0.0
230
1.0
  0
LINE
  8
____1
  6
DASHED
 62
               7
  5
237
 10
16385.002767719416
 20
7972.4757233845012
 30
0.0
 11
16336.502767719418
 21
7972.4757233845012
 31
0.0
  0
LINE
  8
____1
  6
DASHED
 62
               7
  5
238
 10
16386.502767719416
 20
7922.6242526548922
 30
0.0
 11
16386.502767719416
 21
7970.9757233845012
 31
0.0
  0
LINE
  8
____1
  6
CONTINUOUS
 62
               5
  5
239
 10
16336.502767719418
 20
7964.4757233845012
 30
0.0
 11
16335.002767719418
 21
7964.4757233845012
 31
0.0
  0
LINE
  8
____1
  6
CONTINUOUS
 62
               5
  5
23A
 10
16385.002767719416
 20
7922.6242526548886
 30
0.0
 11
16385.002767719416
 21
7970.9757233845012
 31
0.0
  0
INSERT
  8
____1
  6
DOT
 62
               7
  5
255
  2
C13
 10
0.0
 20
0.0
 30
0.0
  0
INSERT
  8
____1
  6
DASHED2
 62
               7
  5
265
  2
C14
 10
0.0
 20
0.0
 30
0.0
  0
LINE
  8
____1
  6
DASHED2
 62
               7
  5
266
 10
16376.549000686513
 20
8473.9757233844994
 30
0.0
 11
16336.502767719418
 21
8473.9757233844994
 31
0.0
  0
LINE
  8
____1
  6
CONTINUOUS
 62
               5
  5
267
 10
15295.357223352994
 20
8670.9757233844975
 30
0.0
 11
15293.857223352994
 21
8670.9757233844975
 31
0.0
  0
LINE
  8
____1
  6
CONTINUOUS
 62
               5
  5
268
 10
15295.357223352994
 20
8670.9757233844994
 30
0.0
 11
15293.857223352994
 21
8670.9757233844994
 31
0.0
  0
LINE
  8
____1
  6
CONTINUOUS
 62
               5
  5
269
 10
15295.357223352994
 20
8672.4757233844975
 30
0.0
 11
15295.357223352994
 21
8670.9757233844975
 31
0.0
  0
INSERT
  8
____1
  6
CONTINUOUS
 62
             254
  5
278
  2
C16
 10
0.0
 20
0.0
 30
0.0
  0
LINE
  8
____1
  6
DASHED2
 62
               7
  5
279
 10
16335.002767719418
 20
7964.4757233845012
 30
0.0
 11
16335.002767719418
 21
7970.9757233845012
 31
0.0
  0
ARC
  8
____1
  6
CONTINUOUS
 62
               5
  5
27A
 10
16386.502767719416
 20
7922.6242526548886
 30
0.0
 40
1.5
 50
180.0
 51
-168.69006752600706
  0
ARC
  8
____1
  6
DASHED
 62
               7
  5
27B
 10
16385.002767719416
 20
7970.9757233845012
 30
0.0
 40
1.5
 50
0.0
 51
90.0
210
0.0
220
0.0
230
1.0
  0
INSERT
  8
____1
  6
DASHED2
 62
               7
  5
297
  2
C18
 10
0.0
 20
0.0
 30
0.0
  0
LINE
  8
____1
  6
DOT
 62
               7
  5
298
 10
16350.002767719418
 20
8030.6419121060826
 30
0.0
 11
16350.002767719418
 21
8058.5495314943373
 31
0.0
  0
LINE
  8
____1
  6
CONTINUOUS
 62
               5
  5
299
 10
16133.312500000002
 20
8901.9025000000056
 30
0.0
 11
16133.312500000002
 21
9021.9025000000056
 31
0.0
  0
LINE
  8
____1
  6
CONTINUOUS
 62
               5
  5
29A
 10
16805.3125
 20
8901.9025000000056
 30
0.0
 11
16805.3125
 21
9021.9025000000056
 31
0.0
  0
LINE
  8
____1
  6
CONTINUOUS
 62
               5
  5
29B
 10
16133.312500000002
 20
8981.9025000000056
 30
0.0
 11
16885.3125
 21
8981.9025000000056
 31
0.0
  0
LINE
  8
____1
  6
CONTINUOUS
 62
               5
  5
29C
 10
16133.312500000002
 20
8941.9025000000056
 30
0.0
 11
16885.3125
 21
8941.9025000000056
 31
0.0
  0
LINE
  8
____1
  6
CONTINUOUS
 62
               5
  5
29D
 10
16133.312500000002
 20
8901.9025000000056
 30
0.0
 11
16885.3125
 21
8901.9025000000056
 31
0.0
  0
TEXT
  8
____1
  6
CONTINUOUS
 62
               7
  5
29E
 10
16223.212501525881
 20
8992.8866667938291
 30
0.0
 40
25.399999618530273
  1
改訂日
  7
STYLE1
  0
LINE
  8
____1
  6
CONTINUOUS
 62
               5
  5
29F
 10
16163.038216911658
 20
8940.0434399978967
 30
0.0
 11
16143.238216911663
 21
8905.7488340080326
 31
0.0
  0
LINE
  8
____1
  6
DASHED2
 62
               7
  5
2A0
 10
16361.002767719418
 20
8058.5524824196691
 30
0.0
 11
16361.002767719418
 21
8070.5767438999719
 31
0.0
  0
INSERT
  8
____1
  6
DASHED2
 62
               4
  5
2D7
  2
C19
 10
0.0
 20
0.0
 30
0.0
  0
INSERT
  8
____1
  6
DASHED2
 62
               4
  5
2FD
  2
C20
 10
0.0
 20
0.0
 30
0.0
  0
INSERT
  8
____1
  6
DASHED2
 62
               4
  5
315
  2
C24
 10
0.0
 20
0.0
 30
0.0
  0
INSERT
  8
____1
  6
DASHED2
 62
               4
  5
330
  2
C25
 10
0.0
 20
0.0
 30
0.0
  0
INSERT
  8
____1
  6
DASHED2
 62
               4
  5
34B
  2
C28
 10
0.0
 20
0.0
 30
0.0
  0
INSERT
  8
____1
  6
DASHED2
 62
               4
  5
363
  2
C31
 10
0.0
 20
0.0
 30
0.0
  0
ARC
  8
____1
  6
CONTINUOUS
 62
               5
  5
364
 10
16416.232473573495
 20
8670.9757233845012
 30
0.0
 40
1.5000000000017861
 50
90.0
 51
168.69006752600706
210
0.0
220
0.0
230
1.0
  0
ARC
  8
____1
  6
DASHED
 62
               7
  5
365
 10
16463.502767719416
 20
7773.9757233845012
 30
0.0
 40
1.5000000000000273
 50
-89.999989041570686
 51
90.0
  0
ARC
  8
____1
  6
CONTINUOUS
 62
               5
  5
366
 10
16416.232473573495
 20
7773.9757233845012
 30
0.0
 40
1.5000000000017861
 50
-168.69006752600706
 51
-90.0
  0
LINE
  8
____1
  6
CONTINUOUS
 62
               5
  5
367
 10
16463.502768006307
 20
7772.4757233845012
 30
0.0
 11
16416.232473573495
 21
7772.4757233845012
 31
0.0
  0
LINE
  8
______
  6
CONTINUOUS
 62
               7
  5
368
 10
16412.989485360122
 20
7600.2340236962718
 30
0.0
 11
16460.930677502969
 21
7600.2340236962718
 31
0.0
  0
LINE
  8
______
  6
CONTINUOUS
 62
               7
  5
369
 10
16381.207812296352
 20
7658.2184059918109
 30
0.0
 11
16412.989485360122
 21
7600.2340236962718
 31
0.0
  0
ARC
  8
____1
  6
CONTINUOUS
 62
               5
  5
36A
 10
16463.502767719416
 20
8670.9757233845012
 30
0.0
 40
1.5
 50
0.0
 51
90.0
210
0.0
220
0.0
230
1.0
  0
LINE
  8
____1
  6
DASHED2
 62
               7
  5
36B
 10
16335.002767719418
 20
7964.4757233845012
 30
0.0
 11
16335.002767719418
 21
8480.4757233844994
 31
0.0
  0
LINE
  8
____1
  6
DASHED2
 62
               7
  5
36C
 10
16336.502767719418
 20
7964.4757233845012
 30
0.0
 11
16336.502767719418
 21
8480.4757233844994
 31
0.0
  0
LINE
  8
____1
  6
CONTINUOUS
 62
               5
  5
36D
 10
16385.002767719416
 20
7922.4757233845012
 30
0.0
 11
16385.002767719416
 21
8522.4757233845012
 31
0.0
  0
LINE
  8
____1
  6
DASHED
 62
               7
  5
36E
 10
16386.502767719416
 20
7970.9757233845012
 30
0.0
 11
16386.502767719416
 21
8473.9757233844994
 31
0.0
  0
TEXT
  8
____1
  6
DOT
 62
               7
  5
36F
 10
16172.979171752932
 20
6881.7189241302913
 30
0.0
 40
28.222221374511719
  1
園　原
  7
STYLE1
  0
TEXT
  8
____1
  6
CONTINUOUS
 62
               7
  5
370
 10
15997.09027862549
 20
6969.6615853807125
 30
0.0
 40
28.222221374511719
  1
1：8
  7
STYLE1
  0
TEXT
  8
____1
  6
CONTINUOUS
 62
               7
  5
371
 10
16338.979171752932
 20
7335.9080184478735
 30
0.0
 40
28.222221374511719
  1
SUS304
  7
STYLE1
  0
TEXT
  8
____1
  6
CONTINUOUS
 62
               7
  5
372
 10
16338.979171752932
 20
7375.9080184478735
 30
0.0
 40
28.222221374511719
  1
SUS304
  7
STYLE1
  0
TEXT
  8
____1
  6
CONTINUOUS
 62
               7
  5
373
 10
16353.090270996096
 20
7415.9080184478735
 30
0.0
 40
28.222221374511719
  1
EPDM
  7
STYLE1
  0
TEXT
  8
____1
  6
CONTINUOUS
 62
               7
  5
374
 10
16594.256944656372
 20
7335.9080184478735
 30
0.0
 40
28.222221374511719
  1
1
  7
STYLE1
  0
TEXT
  8
____1
  6
DOT
 62
               7
  5
375
 10
16517.845840454102
 20
6813.9067236633309
 30
0.0
 40
33.866664886474609
  1
ＳＴＲ０００１９
  7
STYLE1
  0
ARC
  8
____1
  6
DASHED
 62
               7
  5
376
 10
16385.002767719416
 20
8473.9757233844994
 30
0.0
 40
1.5
 50
-90.0
 51
0.0
  0
INSERT
  8
____1
  6
DASHED2
 62
             254
  5
3C8
  2
C32
 10
0.0
 20
0.0
 30
0.0
  0
INSERT
  8
____1
  6
DASHED2
 62
               7
  5
3F4
  2
C37
 10
0.0
 20
0.0
 30
0.0
  0
LINE
  8
____1
  6
DASHED2
 62
               7
  5
3F5
 10
16336.502767719418
 20
8480.4757233844994
 30
0.0
 11
16336.502767719418
 21
8473.9757233844994
 31
0.0
  0
LINE
  8
____1
  6
DASHED2
 62
               7
  5
3F6
 10
16336.502767719418
 20
8480.4757233844994
 30
0.0
 11
16335.002767719418
 21
8480.4757233844994
 31
0.0
  0
LINE
  8
____1
  6
DASHED2
 62
               7
  5
3F7
 10
16335.002767719418
 20
8480.4757233844994
 30
0.0
 11
16335.002767719418
 21
8473.9757233844994
 31
0.0
  0
LINE
  8
____1
  6
DASHED2
 62
               7
  5
3F8
 10
16385.002767719416
 20
8472.4757233844994
 30
0.0
 11
16336.502767719418
 21
8472.4757233844994
 31
0.0
  0
LINE
  8
____1
  6
CONTINUOUS
 62
               5
  5
3F9
 10
16385.002767719416
 20
8473.9757233844994
 30
0.0
 11
16376.549000686509
 21
8473.9757233844994
 31
0.0
  0
TEXT
  8
____1
  6
CONTINUOUS
 62
               7
  5
3FA
 10
16594.256944656372
 20
7215.9080184478735
 30
0.0
 40
28.222221374511719
  1
2
  7
STYLE1
  0
TEXT
  8
____1
  6
CONTINUOUS
 62
               7
  5
3FB
 10
16594.256944656372
 20
7175.9080184478735
 30
0.0
 40
28.222221374511719
  1
1
  7
STYLE1
  0
TEXT
  8
____1
  6
CONTINUOUS
 62
               7
  5
3FC
 10
16594.256944656372
 20
7135.9080184478735
 30
0.0
 40
28.222221374511719
  1
1
  7
STYLE1
  0
TEXT
  8
____1
  6
DOT
 62
               7
  5
3FD
 10
16534.779174804688
 20
6989.9067236633309
 30
0.0
 40
33.866664886474609
  1
らくらくハッチ
  7
STYLE1
  0
LINE
  8
____1
  6
DASHED
 62
               7
  5
3FE
 10
16465.002767719416
 20
7775.7757233845005
 30
0.0
 11
16455.002767719416
 21
7775.7757233845005
 31
0.0
  0
TEXT
  8
____1
  6
CONTINUOUS
 62
               7
  5
3FF
 10
16436.412498474121
 20
8992.8866667938291
 30
0.0
 40
25.399999618530273
  1
改　訂　内　容
  7
STYLE1
  0
LINE
  8
____1
  6
CONTINUOUS
 62
               5
  5
400
 10
16325.312500000002
 20
8901.9025000000056
 30
0.0
 11
16325.312500000002
 21
9021.9025000000056
 31
0.0
  0
LINE
  8
____1
  6
CONTINUOUS
 62
               5
  5
401
 10
16725.3125
 20
8901.9025000000056
 30
0.0
 11
16725.3125
 21
9021.9025000000056
 31
0.0
  0
LINE
  8
____1
  6
CONTINUOUS
 62
               5
  5
402
 10
16197.312500000002
 20
8901.9025000000056
 30
0.0
 11
16197.312500000002
 21
9021.9025000000056
 31
0.0
  0
LINE
  8
____1
  6
CONTINUOUS
 62
               5
  5
403
 10
16163.038216911658
 20
8940.0434399978967
 30
0.0
 11
16182.838216911661
 21
8905.7488340080326
 31
0.0
  0
TEXT
  8
____1
  6
CONTINUOUS
 62
               7
  5
404
 10
15754.256944656374
 20
7175.9080184478735
 30
0.0
 40
28.222221374511719
  1
2
  7
STYLE1
  0
TEXT
  8
____1
  6
CONTINUOUS
 62
               7
  5
405
 10
15754.256944656374
 20
7135.9080184478735
 30
0.0
 40
28.222221374511719
  1
1
  7
STYLE1
  0
TEXT
  8
____1
  6
CONTINUOUS
 62
               7
  5
406
 10
15754.256944656374
 20
7415.9080184478735
 30
0.0
 40
28.222221374511719
  1
8
  7
STYLE1
  0
TEXT
  8
____1
  6
CONTINUOUS
 62
               7
  5
407
 10
15754.256944656374
 20
7375.9080184478735
 30
0.0
 40
28.222221374511719
  1
7
  7
STYLE1
  0
TEXT
  8
____1
  6
CONTINUOUS
 62
               7
  5
408
 10
15940.868057250978
 20
7415.9080184478735
 30
0.0
 40
28.222221374511719
  1
パッキン
  7
STYLE1
  0
TEXT
  8
____1
  6
CONTINUOUS
 62
               7
  5
409
 10
15926.756942749025
 20
7295.9080184478735
 30
0.0
 40
28.222221374511719
  1
３段ステー
  7
STYLE1
  0
TEXT
  8
____1
  6
DOT
 62
               7
  5
40A
 10
15872.979171752932
 20
6925.7189241302913
 30
0.0
 40
28.222221374511719
  1
永　井
  7
STYLE1
  0
TEXT
  8
____1
  6
DOT
 62
               7
  5
40B
 10
16139.912500381472
 20
8992.8866667938291
 30
0.0
 40
25.399999618530273
  1
副番
  7
STYLE1
  0
LINE
  8
____1
  6
DASHED2
 62
               7
  5
40C
 10
16361.002767719418
 20
8015.9757227487589
 30
0.0
 11
16361.002767719418
 21
8030.6389611807554
 31
0.0
  0
LINE
  8
____1
  6
DASHED2
 62
               7
  5
40D
 10
16350.002767719418
 20
8015.9757194917702
 30
0.0
 11
16350.002767719418
 21
8030.6419121060826
 31
0.0
  0
LINE
  8
____1
  6
CONTINUOUS
 62
               5
  5
40E
 10
16143.238216911663
 20
8905.7488340080326
 30
0.0
 11
16182.838216911661
 21
8905.7488340080326
 31
0.0
  0
TEXT
  8
____1
  6
DOT
 62
               7
  5
40F
 10
16727.212500572205
 20
8992.8866667938291
 30
0.0
 40
25.399999618530273
  1
改訂者
  7
STYLE1
  0
LINE
  8
____1
  6
DASHED
 62
               7
  5
410
 10
16463.502767719416
 20
7775.4757233845012
 30
0.0
 11
16455.002767719416
 21
7775.4757233845012
 31
0.0
  0
LINE
  8
____1
  6
DASHED
 62
               7
  5
411
 10
16463.502767719416
 20
7773.9757233845012
 30
0.0
 11
16416.232473573495
 21
7773.9757233845012
 31
0.0
  0
LINE
  8
____1
  6
DASHED
 62
               7
  5
412
 10
16455.002767719416
 20
7773.9757233845012
 30
0.0
 11
16455.002767719416
 21
7775.4757233845012
 31
0.0
  0
INSERT
  8
____1
  6
CONTINUOUS
 62
               7
  5
41C
  2
C38
 10
0.0
 20
0.0
 30
0.0
  0
INSERT
  8
____1
  6
CONTINUOUS
 62
               7
  5
426
  2
C39
 10
0.0
 20
0.0
 30
0.0
  0
TEXT
  8
____1
  6
CONTINUOUS
 62
               7
  5
427
 10
15842.090282440187
 20
7255.9080184478735
 30
0.0
 40
28.222221374511719
  1
天板側取付金具ユニット
  7
STYLE1
  0
TEXT
  8
____1
  6
CONTINUOUS
 62
               7
  5
428
 10
15768.868057250978
 20
6969.6615853807125
 30
0.0
 40
28.222221374511719
  1
H18.4.17
  7
STYLE1
  0
INSERT
  8
____1
  6
CONTINUOUS
 62
               7
  5
432
  2
C40
 10
0.0
 20
0.0
 30
0.0
  0
TEXT
  8
______
  6
CONTINUOUS
 62
               7
  5
433
 10
16412.989485360122
 20
7608.8461758693957
 30
0.0
 40
28.222221374511719
  1
7.6
  7
STYLE1
  0
TEXT
  8
____1
  6
DOT
 62
               7
  5
434
 10
16517.845840454102
 20
6901.9067236633309
 30
0.0
 40
33.866664886474609
  1
ＯＭ－６１５０２
  7
STYLE1
  0
TEXT
  8
____1
  6
CONTINUOUS
 62
               7
  5
435
 10
16338.979171752932
 20
7255.9080184478735
 30
0.0
 40
28.222221374511719
  1
SUS304
  7
STYLE1
  0
TEXT
  8
____1
  6
CONTINUOUS
 62
               7
  5
436
 10
16338.979171752932
 20
7215.9080184478735
 30
0.0
 40
28.222221374511719
  1
SUS304
  7
STYLE1
  0
TEXT
  8
____1
  6
CONTINUOUS
 62
               7
  5
437
 10
16303.701393127443
 20
7175.9080184478735
 30
0.0
 40
28.222221374511719
  1
SUS304 1.5t
  7
STYLE1
  0
LINE
  8
____1
  6
CONTINUOUS
 62
               5
  5
438
 10
15295.357223352994
 20
7772.4757233845012
 30
0.0
 11
15293.857223352994
 21
7772.4757233845012
 31
0.0
  0
LINE
  8
____1
  6
CONTINUOUS
 62
               7
  5
439
 10
16191.882520391142
 20
6842.5158837351046
 30
0.0
 11
16199.882520391142
 21
6854.5158837351046
 31
0.0
  0
LINE
  8
____1
  6
CONTINUOUS
 62
               7
  5
43A
 10
16074.597671906298
 20
6854.5158837351046
 30
0.0
 11
16074.597671906298
 21
6838.5158837351046
 31
0.0
  0
LINE
  8
____1
  6
CONTINUOUS
 62
               7
  5
43B
 10
16264.413909059034
 20
6826.5158837351046
 30
0.0
 11
16289.622381577408
 21
6826.5158837351046
 31
0.0
  0
LINE
  8
____1
  6
CONTINUOUS
 62
               7
  5
43C
 10
16127.882520391142
 20
6798.5158837351046
 30
0.0
 11
16147.882520391142
 21
6798.5158837351046
 31
0.0
  0
LINE
  8
____1
  6
CONTINUOUS
 62
               7
  5
43D
 10
16127.882520391142
 20
6835.9390015952522
 30
0.0
 11
16159.882520391142
 21
6835.9390015952522
 31
0.0
  0
LINE
  8
____1
  6
CONTINUOUS
 62
               7
  5
43E
 10
16127.882520391142
 20
6833.3621194553998
 30
0.0
 11
16127.882520391142
 21
6835.9390015952522
 31
0.0
  0
TEXT
  8
____1
  6
CONTINUOUS
 62
               7
  5
43F
 10
16594.256944656372
 20
7375.9080184478735
 30
0.0
 40
28.222221374511719
  1
1
  7
STYLE1
  0
ARC
  8
____1
  6
DASHED
 62
               7
  5
440
 10
16336.502767719418
 20
8473.9757233844994
 30
0.0
 40
1.5
 50
180.0
 51
-90.0
  0
ARC
  8
____1
  6
CONTINUOUS
 62
               5
  5
441
 10
16386.502767719416
 20
8522.3271941141102
 30
0.0
 40
1.5
 50
168.69006752600706
 51
180.0
210
0.0
220
0.0
230
1.0
  0
TEXT
  8
____1
  6
CONTINUOUS
 62
               7
  5
442
 10
16594.256944656372
 20
7295.9080184478735
 30
0.0
 40
28.222221374511719
  1
1
  7
STYLE1
  0
TEXT
  8
____1
  6
CONTINUOUS
 62
               7
  5
443
 10
16338.979171752932
 20
7295.9080184478735
 30
0.0
 40
28.222221374511719
  1
SUS304
  7
STYLE1
  0
TEXT
  8
____1
  6
CONTINUOUS
 62
               7
  5
444
 10
16303.701393127443
 20
7135.9080184478735
 30
0.0
 40
28.222221374511719
  1
SUS304 1.5t
  7
STYLE1
  0
TEXT
  8
____1
  6
DOT
 62
               7
  5
445
 10
16172.979171752932
 20
6925.7189241302913
 30
0.0
 40
28.222221374511719
  1
園　原
  7
STYLE1
  0
TEXT
  8
____1
  6
CONTINUOUS
 62
               7
  5
446
 10
16594.256944656372
 20
7255.9080184478735
 30
0.0
 40
28.222221374511719
  1
1
  7
STYLE1
  0
LINE
  8
____1
  6
CONTINUOUS
 62
               7
  5
447
 10
16289.622381577408
 20
6820.1158837351031
 30
0.0
 11
16289.622381577408
 21
6805.7158837351017
 31
0.0
  0
LINE
  8
____1
  6
CONTINUOUS
 62
               7
  5
448
 10
16199.882520391142
 20
6810.5158837351046
 30
0.0
 11
16199.882520391142
 21
6798.5158837351046
 31
0.0
  0
LINE
  8
____1
  6
CONTINUOUS
 62
               7
  5
449
 10
16260.270096425762
 20
6840.9158837351024
 30
0.0
 11
16289.622381577408
 21
6840.9158837351024
 31
0.0
  0
LINE
  8
____1
  6
CONTINUOUS
 62
               7
  5
44A
 10
16260.270096425762
 20
6840.915883735106
 30
0.0
 11
16259.098942423969
 21
6844.9857148588417
 31
0.0
  0
LINE
  8
____1
  6
CONTINUOUS
 62
               7
  5
44B
 10
16199.882520391142
 20
6854.5158837351046
 30
0.0
 11
16127.882520391142
 21
6854.5158837351046
 31
0.0
  0
LINE
  8
____1
  6
CONTINUOUS
 62
               5
  5
44C
 10
16465.002767719416
 20
7772.4757233845012
 30
0.0
 11
16415.002767719416
 21
7772.4757233845012
 31
0.0
  0
TEXT
  8
____1
  6
CONTINUOUS
 62
               7
  5
44D
 10
15754.256944656374
 20
7335.9080184478735
 30
0.0
 40
28.222221374511719
  1
6
  7
STYLE1
  0
TEXT
  8
____1
  6
CONTINUOUS
 62
               7
  5
44E
 10
15754.256944656374
 20
7295.9080184478735
 30
0.0
 40
28.222221374511719
  1
5
  7
STYLE1
  0
TEXT
  8
____1
  6
CONTINUOUS
 62
               7
  5
44F
 10
15754.256944656374
 20
7255.9080184478735
 30
0.0
 40
28.222221374511719
  1
4
  7
STYLE1
  0
TEXT
  8
____1
  6
CONTINUOUS
 62
               7
  5
450
 10
15754.256944656374
 20
7215.9080184478735
 30
0.0
 40
28.222221374511719
  1
3
  7
STYLE1
  0
CIRCLE
  8
____1
  6
CONTINUOUS
 62
               7
  5
451
 10
16192.512500000006
 20
7001.9025000000001
 30
0.0
 40
19.19999999999709
  0
LINE
  8
____1
  6
CONTINUOUS
 62
               7
  5
452
 10
16058.597671906298
 20
6826.5158837351046
 30
0.0
 11
16074.597671906298
 21
6826.5158837351046
 31
0.0
  0
LINE
  8
____1
  6
CONTINUOUS
 62
               7
  5
453
 10
16217.622381577408
 20
6826.5158837351046
 30
0.0
 11
16241.835714910741
 21
6826.5158837351046
 31
0.0
  0
LINE
  8
____1
  6
CONTINUOUS
 62
               7
  5
454
 10
16106.597671906298
 20
6838.5158837351046
 30
0.0
 11
16094.597671906298
 21
6838.5158837351046
 31
0.0
  0
LINE
  8
____1
  6
CONTINUOUS
 62
               7
  5
455
 10
16094.597671906298
 20
6838.5158837351046
 30
0.0
 11
16094.597671906298
 21
6842.5158837351046
 31
0.0
  0
LINE
  8
____1
  6
CONTINUOUS
 62
               7
  5
456
 10
16217.622381577408
 20
6840.9158837351024
 30
0.0
 11
16237.611714910739
 21
6840.9158837351024
 31
0.0
  0
LINE
  8
____1
  6
CONTINUOUS
 62
               7
  5
457
 10
16259.098942423969
 20
6844.9857148588417
 30
0.0
 11
16265.622381577408
 21
6854.5158837351046
 31
0.0
  0
TEXT
  8
____1
  6
DOT
 62
               7
  5
458
 10
15872.979171752932
 20
6881.7189241302913
 30
0.0
 40
28.222221374511719
  1
永　井
  7
STYLE1
  0
TEXT
  8
____1
  6
CONTINUOUS
 62
               7
  5
459
 10
15940.868057250978
 20
7215.9080184478735
 30
0.0
 40
28.222221374511719
  1
丁　　番
  7
STYLE1
  0
TEXT
  8
____1
  6
DOT
 62
               7
  5
45A
 10
16807.212500572205
 20
8992.8866667938291
 30
0.0
 40
25.399999618530273
  1
検認者
  7
STYLE1
  0
TEXT
  8
____1
  6
CONTINUOUS
 62
               7
  5
45B
 10
15940.868057250978
 20
7135.9080184478735
 30
0.0
 40
28.222221374511719
  1
天　　板
  7
STYLE1
  0
TEXT
  8
____1
  6
CONTINUOUS
 62
               7
  5
45C
 10
15940.868057250978
 20
7335.9080184478735
 30
0.0
 40
28.222221374511719
  1
取　　手
  7
STYLE1
  0
TEXT
  8
____1
  6
CONTINUOUS
 62
               7
  5
45D
 10
15898.534729003908
 20
7375.9080184478735
 30
0.0
 40
28.222221374511719
  1
フックユニット
  7
STYLE1
  0
INSERT
  8
____1
  6
CONTINUOUS
 62
               7
  5
467
  2
C41
 10
0.0
 20
0.0
 30
0.0
  0
INSERT
  8
____1
  6
CONTINUOUS
 62
               7
  5
471
  2
C42
 10
0.0
 20
0.0
 30
0.0
  0
LINE
  8
____1
  6
CONTINUOUS
 62
               7
  5
472
 10
16217.622381577408
 20
6805.7158837351017
 30
0.0
 11
16247.937048244081
 21
6805.7158837351017
 31
0.0
  0
ARC
  8
____1
  6
CONTINUOUS
 62
               7
  5
473
 10
16062.597671906298
 20
6822.5158837351046
 30
0.0
 40
12.0
 50
-90.0
 51
0.0
210
0.0
220
0.0
230
1.0
  0
LINE
  8
____1
  6
CONTINUOUS
 62
               7
  5
474
 10
16217.622381577408
 20
6820.1158837351031
 30
0.0
 11
16217.622381577408
 21
6805.7158837351017
 31
0.0
  0
LINE
  8
____1
  6
CONTINUOUS
 62
               7
  5
475
 10
16038.597671906298
 20
6814.5158837351046
 30
0.0
 11
16058.597671906298
 21
6814.5158837351046
 31
0.0
  0
LINE
  8
____1
  6
CONTINUOUS
 62
               7
  5
476
 10
16164.173020324635
 20
6826.3633164942221
 30
0.0
 11
16162.248253874097
 21
6824.2374096097919
 31
0.0
  0
INSERT
  8
____1
  6
CONTINUOUS
 62
               7
  5
480
  2
C43
 10
0.0
 20
0.0
 30
0.0
  0
INSERT
  8
____1
  6
CONTINUOUS
 62
               7
  5
48A
  2
C44
 10
0.0
 20
0.0
 30
0.0
  0
INSERT
  8
____1
  6
CONTINUOUS
 62
               7
  5
494
  2
C45
 10
0.0
 20
0.0
 30
0.0
  0
LINE
  8
____1
  6
DASHED
 62
               5
  5
495
 10
15293.857223352994
 20
7772.4757233845012
 30
0.0
 11
15293.857223352994
 21
7773.9757233845012
 31
0.0
  0
LINE
  8
____1
  6
CONTINUOUS
 62
               5
  5
496
 10
15293.857223352994
 20
7772.4757233845012
 30
0.0
 11
15293.857223352994
 21
7773.9757233845012
 31
0.0
  0
LINE
  8
____1
  6
CONTINUOUS
 62
               7
  5
497
 10
16094.597671906298
 20
6822.5158837351046
 30
0.0
 11
16094.597671906298
 21
6826.5158837351046
 31
0.0
  0
LINE
  8
____1
  6
CONTINUOUS
 62
               7
  5
498
 10
16217.622381577408
 20
6840.9158837351024
 30
0.0
 11
16217.622381577408
 21
6826.5158837351046
 31
0.0
  0
LINE
  8
____1
  6
CONTINUOUS
 62
               7
  5
499
 10
16074.597671906298
 20
6838.5158837351046
 30
0.0
 11
16058.597671906298
 21
6838.5158837351046
 31
0.0
  0
LINE
  8
____1
  6
CONTINUOUS
 62
               7
  5
49A
 10
16070.597671906298
 20
6854.5158837351046
 30
0.0
 11
16038.597671906298
 21
6854.5158837351046
 31
0.0
  0
LINE
  8
____1
  6
CONTINUOUS
 62
               7
  5
49B
 10
16058.597671906298
 20
6842.5158837351046
 30
0.0
 11
16070.597671906298
 21
6854.5158837351046
 31
0.0
  0
LINE
  8
____1
  6
CONTINUOUS
 62
               7
  5
49C
 10
16038.597671906298
 20
6854.5158837351046
 30
0.0
 11
16038.597671906298
 21
6838.5158837351046
 31
0.0
  0
LINE
  8
____1
  6
CONTINUOUS
 62
               7
  5
49D
 10
16270.39941619598
 20
6805.7158837351017
 30
0.0
 11
16289.622381577408
 21
6805.7158837351017
 31
0.0
  0
LINE
  8
____1
  6
CONTINUOUS
 62
               7
  5
49E
 10
16029.388841413873
 20
6838.5158837351046
 30
0.0
 11
16029.388841413873
 21
6826.5158837351046
 31
0.0
  0
LINE
  8
____1
  6
CONTINUOUS
 62
               7
  5
49F
 10
16058.597671906298
 20
6814.5158837351046
 30
0.0
 11
16058.597671906298
 21
6826.5158837351046
 31
0.0
  0
TEXT
  8
____1
  6
CONTINUOUS
 62
               7
  5
4A0
 10
16594.256944656372
 20
7415.9080184478735
 30
0.0
 40
28.222221374511719
  1
1
  7
STYLE1
  0
LINE
  8
____1
  6
CONTINUOUS
 62
               7
  5
4A1
 10
16094.597671906298
 20
6842.5158837351046
 30
0.0
 11
16106.597671906298
 21
6854.5158837351046
 31
0.0
  0
LINE
  8
____1
  6
CONTINUOUS
 62
               7
  5
4A2
 10
16243.713048244079
 20
6820.1158837351031
 30
0.0
 11
16241.835714910741
 21
6826.5158837351046
 31
0.0
  0
LINE
  8
____1
  6
CONTINUOUS
 62
               7
  5
4A3
 10
16058.597671906298
 20
6838.5158837351046
 30
0.0
 11
16058.597671906298
 21
6842.5158837351046
 31
0.0
  0
LINE
  8
____1
  6
CONTINUOUS
 62
               7
  5
4A4
 10
16182.784275207845
 20
6815.7228340633155
 30
0.0
 11
16181.359458729503
 21
6814.3278089097985
 31
0.0
  0
LINE
  8
____1
  6
CONTINUOUS
 62
               7
  5
4A5
 10
16191.882520391142
 20
6842.5158837351046
 30
0.0
 11
16199.882520391142
 21
6854.5158837351046
 31
0.0
  0
LINE
  8
____1
  6
CONTINUOUS
 62
               7
  5
4A6
 10
16125.312500000002
 20
7045.9025000000001
 30
0.0
 11
16125.312500000002
 21
6957.9024999999965
 31
0.0
  0
LINE
  8
____1
  6
CENTER2
 62
               7
  5
4A7
 10
16192.512500000006
 20
7030.7024999999994
 30
0.0
 11
16192.512500000006
 21
6973.1025000000009
 31
0.0
  0
LINE
  8
____1
  6
CENTER2
 62
               7
  5
4A8
 10
16192.512500000006
 20
7030.7024999999994
 30
0.0
 11
16192.512500000006
 21
6973.1025000000009
 31
0.0
  0
LINE
  8
____1
  6
CONTINUOUS
 62
               7
  5
4A9
 10
16289.622381577408
 20
6840.9158837351024
 30
0.0
 11
16289.622381577408
 21
6826.5158837351046
 31
0.0
  0
LINE
  8
____1
  6
CONTINUOUS
 62
               7
  5
4AA
 10
15945.312500000002
 20
7001.9025000000001
 30
0.0
 11
16105.312500000002
 21
7001.9025000000001
 31
0.0
  0
TEXT
  8
____1
  6
CONTINUOUS
 62
               7
  5
4AB
 10
15768.831194604094
 20
6807.9095030517565
 30
0.0
 40
50.799999237060547
  1
株式会社
  7
STYLE1
  0
LINE
  8
____1
  6
CONTINUOUS
 62
               7
  5
4AC
 10
16251.222381577414
 20
6794.5158837351046
 30
0.0
 11
16247.937048244081
 21
6805.7158837351017
 31
0.0
  0
LINE
  8
____1
  6
CONTINUOUS
 62
               7
  5
4AD
 10
16062.597671906298
 20
6810.5158837351046
 30
0.0
 11
16038.597671906298
 21
6810.5158837351046
 31
0.0
  0
LINE
  8
____1
  6
CONTINUOUS
 62
               7
  5
4AE
 10
16127.882520391142
 20
6840.1158837351031
 30
0.0
 11
16167.882520391142
 21
6840.1158837351031
 31
0.0
  0
LINE
  8
____1
  6
CONTINUOUS
 62
               7
  5
4AF
 10
16236.399840093518
 20
7011.5025000000023
 30
0.0
 11
16274.799840093519
 21
7021.1025000000009
 31
0.0
  0
LINE
  8
____1
  6
CONTINUOUS
 62
               7
  5
4B0
 10
16266.255603562708
 20
6820.1158837351031
 30
0.0
 11
16289.622381577408
 21
6820.1158837351031
 31
0.0
  0
LINE
  8
____1
  6
CONTINUOUS
 62
               7
  5
4B1
 10
16127.882520391142
 20
6810.5158837351046
 30
0.0
 11
16137.48252039114
 21
6810.5158837351046
 31
0.0
  0
LINE
  8
____1
  6
CONTINUOUS
 62
               7
  5
4B2
 10
16233.622381577408
 20
6854.5158837351046
 30
0.0
 11
16265.622381577408
 21
6854.5158837351046
 31
0.0
  0
LINE
  8
____1
  6
CONTINUOUS
 62
               7
  5
4B3
 10
16038.597671906298
 20
6838.5158837351046
 30
0.0
 11
16029.388841413873
 21
6838.5158837351046
 31
0.0
  0
LINE
  8
____1
  6
CONTINUOUS
 62
               7
  5
4B4
 10
16127.882520391142
 20
6810.5158837351046
 30
0.0
 11
16127.882520391142
 21
6798.5158837351046
 31
0.0
  0
LINE
  8
____1
  6
CONTINUOUS
 62
               7
  5
4B5
 10
16038.597671906298
 20
6826.5158837351046
 30
0.0
 11
16037.388841413873
 21
6826.5158837351046
 31
0.0
  0
LINE
  8
____1
  6
CONTINUOUS
 62
               7
  5
4B6
 10
16038.597671906298
 20
6810.5158837351046
 30
0.0
 11
16038.597671906298
 21
6798.5158837351046
 31
0.0
  0
LINE
  8
____1
  6
CONTINUOUS
 62
               7
  5
4B7
 10
16127.882520391142
 20
6798.5158837351046
 30
0.0
 11
16127.882520391142
 21
6810.5158837351046
 31
0.0
  0
LINE
  8
____1
  6
CONTINUOUS
 62
               7
  5
4B8
 10
16325.312500000002
 20
7045.9025000000001
 30
0.0
 11
16325.312500000002
 21
6781.9025000000001
 31
0.0
  0
TEXT
  8
____1
  6
CONTINUOUS
 62
               7
  5
4B9
 10
15940.868057250978
 20
7175.9080184478735
 30
0.0
 40
28.222221374511719
  1
本　　体
  7
STYLE1
  0
TEXT
  8
____1
  6
CONTINUOUS
 62
               7
  5
4BA
 10
16330.979166507723
 20
7016.9960192108156
 30
0.0
 40
28.222221374511719
  1
製品名
  7
STYLE1
  0
TEXT
  8
____1
  6
CONTINUOUS
 62
               7
  5
4BB
 10
16330.979166507723
 20
6928.9960192108156
 30
0.0
 40
28.222221374511719
  1
図面名
  7
STYLE1
  0
LINE
  8
____1
  6
CONTINUOUS
 62
               7
  5
4BC
 10
16029.388841413873
 20
6826.5158837351046
 30
0.0
 11
16037.388841413873
 21
6826.5158837351046
 31
0.0
  0
ARC
  8
____1
  6
CONTINUOUS
 62
               7
  5
4BD
 10
16147.882520391142
 20
6842.5158837351046
 30
0.0
 40
44.0
 50
-37.512388020298822
 51
0.0
210
0.0
220
0.0
230
1.0
  0
LINE
  8
____1
  6
CONTINUOUS
 62
               7
  5
4BE
 10
16038.597671906298
 20
6798.5158837351046
 30
0.0
 11
16070.597671906298
 21
6798.5158837351046
 31
0.0
  0
CIRCLE
  8
____1
  6
CONTINUOUS
 62
               7
  5
4BF
 10
16192.512500000006
 20
7001.9025000000001
 30
0.0
 40
9.5999999999985448
  0
POLYLINE
  8
____1
  6
CONTINUOUS
 62
               7
  5
4C0
 66
               1
 10
0.0
 20
0.0
 30
0.0
 70
               8
  0
VERTEX
  8
____1
 62
               7
  5
4C1
 10
16181.359458729503
 20
6814.3278089097985
 30
0.0
 70
              32
  0
VERTEX
  8
____1
 62
               7
  5
4C2
 10
16183.596029957151
 20
6813.7244366717368
 30
0.0
 70
              32
  0
VERTEX
  8
____1
 62
               7
  5
4C3
 10
16185.864125776823
 20
6813.1718170701652
 30
0.0
 70
              32
  0
VERTEX
  8
____1
 62
               7
  5
4C4
 10
16190.476877139648
 20
6812.189834269926
 30
0.0
 70
              32
  0
VERTEX
  8
____1
 62
               7
  5
4C5
 10
16195.16168471281
 20
6811.3238574959496
 30
0.0
 70
              32
  0
VERTEX
  8
____1
 62
               7
  5
4C6
 10
16199.882520391142
 20
6810.5158837351046
 30
0.0
 70
              32
  0
SEQEND
  8
____1
 62
               7
  5
4C7
  0
POLYLINE
  8
____1
  6
CONTINUOUS
 62
               7
  5
4C8
 66
               1
 10
0.0
 20
0.0
 30
0.0
 70
               8
  0
VERTEX
  8
____1
 62
               7
  5
4C9
 10
16155.357036991549
 20
6831.413518195659
 30
0.0
 70
              32
  0
VERTEX
  8
____1
 62
               7
  5
4CA
 10
16158.732790947692
 20
6827.7130025173865
 30
0.0
 70
              32
  0
VERTEX
  8
____1
 62
               7
  5
4CB
 10
16160.46432697897
 20
6825.9330330440871
 30
0.0
 70
              32
  0
VERTEX
  8
____1
 62
               7
  5
4CC
 10
16162.248253874097
 20
6824.2374096097919
 30
0.0
 70
              32
  0
SEQEND
  8
____1
 62
               7
  5
4CD
  0
POLYLINE
  8
____1
  6
CONTINUOUS
 62
               7
  5
4CE
 66
               1
 10
0.0
 20
0.0
 30
0.0
 70
               8
  0
VERTEX
  8
____1
 62
               7
  5
4CF
 10
16171.552814743942
 20
6805.4252223059557
 30
0.0
 70
              32
  0
VERTEX
  8
____1
 62
               7
  5
4D0
 10
16174.9923466492
 20
6804.3735408765115
 30
0.0
 70
              32
  0
VERTEX
  8
____1
 62
               7
  5
4D1
 10
16178.472551074712
 20
6803.3970650903029
 30
0.0
 70
              32
  0
VERTEX
  8
____1
 62
               7
  5
4D2
 10
16185.531736046367
 20
6801.6267557943129
 30
0.0
 70
              32
  0
VERTEX
  8
____1
 62
               7
  5
4D3
 10
16192.68388677861
 20
6800.0283451114319
 30
0.0
 70
              32
  0
VERTEX
  8
____1
 62
               7
  5
4D4
 10
16199.882520391142
 20
6798.5158837351046
 30
0.0
 70
              32
  0
SEQEND
  8
____1
 62
               7
  5
4D5
  0
POLYLINE
  8
____1
  6
CONTINUOUS
 62
               7
  5
4D6
 66
               1
 10
0.0
 20
0.0
 30
0.0
 70
               8
  0
VERTEX
  8
____1
 62
               7
  5
4D7
 10
16127.882520391142
 20
6833.3621194553998
 30
0.0
 70
              32
  0
VERTEX
  8
____1
 62
               7
  5
4D8
 10
16133.625798842277
 20
6828.1114276916305
 30
0.0
 70
              32
  0
VERTEX
  8
____1
 62
               7
  5
4D9
 10
16139.462982278983
 20
6823.0343712176982
 30
0.0
 70
              32
  0
VERTEX
  8
____1
 62
               7
  5
4DA
 10
16142.446133674923
 20
6820.6152172424945
 30
0.0
 70
              32
  0
VERTEX
  8
____1
 62
               7
  5
4DB
 10
16145.487975686847
 20
6818.3045853234398
 30
0.0
 70
              32
  0
VERTEX
  8
____1
 62
               7
  5
4DC
 10
16148.600246437956
 20
6816.1241798717638
 30
0.0
 70
              32
  0
VERTEX
  8
____1
 62
               7
  5
4DD
 10
16151.794684051443
 20
6814.095705298696
 30
0.0
 70
              32
  0
VERTEX
  8
____1
 62
               7
  5
4DE
 10
16151.794684067771
 20
6814.0957052888953
 30
0.0
 70
              32
  0
SEQEND
  8
____1
 62
               7
  5
4DF
  0
LINE
  8
____1
  6
CONTINUOUS
 62
               7
  5
4E0
 10
16273.622381577408
 20
6794.5158837351046
 30
0.0
 11
16251.222381577414
 21
6794.5158837351046
 31
0.0
  0
LINE
  8
____1
  6
CONTINUOUS
 62
               7
  5
4E1
 10
16074.597671906298
 20
6826.5158837351046
 30
0.0
 11
16074.597671906298
 21
6822.5158837351046
 31
0.0
  0
LINE
  8
____1
  6
CONTINUOUS
 62
               7
  5
4E2
 10
16885.3125
 20
7045.9025000000001
 30
0.0
 11
15725.312500000002
 21
7045.9025000000001
 31
0.0
  0
LINE
  8
____1
  6
CONTINUOUS
 62
               7
  5
4E3
 10
16274.799840093519
 20
7021.1025000000009
 30
0.0
 11
16274.799840093519
 21
6982.7024999999994
 31
0.0
  0
LINE
  8
____1
  6
CONTINUOUS
 62
               7
  5
4E4
 10
16106.597671906298
 20
6854.5158837351046
 30
0.0
 11
16074.597671906298
 21
6854.5158837351046
 31
0.0
  0
ARC
  8
____1
  6
CONTINUOUS
 62
               7
  5
4E5
 10
16070.597671906298
 20
6822.5158837351046
 30
0.0
 40
24.0
 50
-90.0
 51
0.0
210
0.0
220
0.0
230
1.0
  0
LINE
  8
____1
  6
CONTINUOUS
 62
               7
  5
4E6
 10
15725.312500000002
 20
7045.9025000000001
 30
0.0
 11
15725.312500000002
 21
6781.9025000000001
 31
0.0
  0
TEXT
  8
____1
  6
CONTINUOUS
 62
               7
  5
4E7
 10
15725.312500000002
 20
6881.7189241302913
 30
0.0
 40
28.222221374511719
  1
 製図
  7
STYLE1
  0
TEXT
  8
____1
  6
CONTINUOUS
 62
               7
  5
4E8
 10
15725.312500000002
 20
6925.7189241302913
 30
0.0
 40
28.222221374511719
  1
 設計
  7
STYLE1
  0
TEXT
  8
____1
  6
CONTINUOUS
 62
               7
  5
4E9
 10
16025.312500000002
 20
6881.7189241302913
 30
0.0
 40
28.222221374511719
  1
 検図
  7
STYLE1
  0
TEXT
  8
____1
  6
CONTINUOUS
 62
               7
  5
4EA
 10
16025.312500000002
 20
6925.7189241302913
 30
0.0
 40
28.222221374511719
  1
 照査
  7
STYLE1
  0
LINE
  8
____1
  6
CONTINUOUS
 62
               7
  5
4EB
 10
16025.312500000002
 20
6957.9025000000001
 30
0.0
 11
16025.312500000002
 21
6869.9025000000001
 31
0.0
  0
LINE
  8
____1
  6
CONTINUOUS
 62
               7
  5
4EC
 10
16237.611714910739
 20
6840.915883735106
 30
0.0
 11
16233.622381577408
 21
6854.5158837351046
 31
0.0
  0
LINE
  8
____1
  6
CONTINUOUS
 62
               7
  5
4ED
 10
16217.622381577408
 20
6820.1158837351031
 30
0.0
 11
16243.713048244079
 21
6820.1158837351031
 31
0.0
  0
LINE
  8
____1
  6
CONTINUOUS
 62
               7
  5
4EE
 10
16038.597671906298
 20
6826.5158837351046
 30
0.0
 11
16038.597671906298
 21
6814.5158837351046
 31
0.0
  0
ARC
  8
____1
  6
CONTINUOUS
 62
               7
  5
4EF
 10
16137.48252039114
 20
6840.9158837351024
 30
0.0
 40
30.399999999999523
 50
-90.0
 51
-61.914095184792771
210
0.0
220
0.0
230
1.0
  0
TEXT
  8
____1
  6
CONTINUOUS
 62
               7
  5
4F0
 10
15768.868057250978
 20
7013.7189241302913
 30
0.0
 40
28.222221374511719
  1
日　　付
  7
STYLE1
  0
LINE
  8
____1
  6
CONTINUOUS
 62
               7
  5
4F1
 10
15745.312500000002
 20
7001.9025000000001
 30
0.0
 11
15905.312500000002
 21
7001.9025000000001
 31
0.0
  0
LINE
  8
____1
  6
CONTINUOUS
 62
               7
  5
4F2
 10
15925.312500000002
 20
7045.9025000000001
 30
0.0
 11
15925.312500000002
 21
6957.9024999999965
 31
0.0
  0
LINE
  8
____1
  6
CONTINUOUS
 62
               7
  5
4F3
 10
15725.312500000002
 20
6957.9025000000001
 30
0.0
 11
16885.3125
 21
6957.9025000000001
 31
0.0
  0
LINE
  8
____1
  6
CONTINUOUS
 62
               7
  5
4F4
 10
16565.3125
 20
7085.9025000000001
 30
0.0
 11
16565.3125
 21
7125.9025000000001
 31
0.0
  0
LINE
  8
____1
  6
CONTINUOUS
 62
               7
  5
4F5
 10
16885.3125
 20
7125.9025000000001
 30
0.0
 11
15725.312500000002
 21
7125.9025000000001
 31
0.0
  0
LINE
  8
____1
  6
CONTINUOUS
 62
               7
  5
4F6
 10
15725.312500000002
 20
7085.9025000000001
 30
0.0
 11
16885.3125
 21
7085.9025000000001
 31
0.0
  0
LINE
  8
____1
  6
CONTINUOUS
 62
               7
  5
4F7
 10
16197.312500000002
 20
7085.9025000000001
 30
0.0
 11
16197.312500000002
 21
7125.9025000000001
 31
0.0
  0
TEXT
  8
____1
  6
CONTINUOUS
 62
               7
  5
4F8
 10
16310.756942749025
 20
7095.9080184478735
 30
0.0
 40
28.222221374511719
  1
材　　　質
  7
STYLE1
  0
TEXT
  8
____1
  6
CONTINUOUS
 62
               7
  5
4F9
 10
15968.868057250978
 20
7013.7189241302913
 30
0.0
 40
28.222221374511719
  1
尺　　度
  7
STYLE1
  0
CIRCLE
  8
____1
  6
CONTINUOUS
 62
               7
  5
4FA
 10
16192.512500000006
 20
7001.9025000000001
 30
0.0
 40
19.19999999999709
  0
LINE
  8
____1
  6
CONTINUOUS
 62
               7
  5
4FB
 10
16236.399840093518
 20
7011.5025000000023
 30
0.0
 11
16274.799840093519
 21
7021.1025000000009
 31
0.0
  0
CIRCLE
  8
____1
  6
CONTINUOUS
 62
               7
  5
4FC
 10
16192.512500000006
 20
7001.9025000000001
 30
0.0
 40
9.5999999999985448
  0
LINE
  8
____1
  6
CONTINUOUS
 62
               7
  5
4FD
 10
16273.622381577408
 20
6794.5158837351046
 30
0.0
 11
16270.39941619598
 21
6805.7158837351017
 31
0.0
  0
LINE
  8
____1
  6
CENTER2
 62
               7
  5
4FE
 10
16192.512500000006
 20
7030.7024999999994
 30
0.0
 11
16192.512500000006
 21
6973.1025000000009
 31
0.0
  0
LINE
  8
____1
  6
CENTER2
 62
               7
  5
4FF
 10
16192.512500000006
 20
7030.7024999999994
 30
0.0
 11
16192.512500000006
 21
6973.1025000000009
 31
0.0
  0
LINE
  8
____1
  6
CONTINUOUS
 62
               7
  5
500
 10
16274.799840093519
 20
7021.1025000000009
 30
0.0
 11
16274.799840093519
 21
6982.7024999999994
 31
0.0
  0
LINE
  8
____1
  6
CONTINUOUS
 62
               7
  5
501
 10
16236.399840093518
 20
7011.5025000000023
 30
0.0
 11
16236.399840093518
 21
6992.302499999998
 31
0.0
  0
LINE
  8
____1
  6
CONTINUOUS
 62
               7
  5
502
 10
16236.399840093518
 20
6992.302499999998
 30
0.0
 11
16274.799840093519
 21
6982.7024999999994
 31
0.0
  0
LINE
  8
____1
  6
CONTINUOUS
 62
               7
  5
503
 10
16236.399840093518
 20
7011.5025000000023
 30
0.0
 11
16274.799840093519
 21
7021.1025000000009
 31
0.0
  0
CIRCLE
  8
____1
  6
CONTINUOUS
 62
               7
  5
504
 10
16192.512500000006
 20
7001.9025000000001
 30
0.0
 40
19.19999999999709
  0
ARC
  8
____1
  6
CONTINUOUS
 62
               7
  5
505
 10
16137.48252039114
 20
6840.9158837351024
 30
0.0
 40
30.399999999999327
 50
-28.600718616738444
 51
-1.5079577542374811
210
0.0
220
0.0
230
1.0
  0
LINE
  8
____1
  6
CONTINUOUS
 62
               7
  5
506
 10
16094.597671906298
 20
6826.5158837351046
 30
0.0
 11
16106.597671906298
 21
6826.5158837351046
 31
0.0
  0
TEXT
  8
____1
  6
CONTINUOUS
 62
               7
  5
507
 10
16338.034721374514
 20
6840.9960192108156
 30
0.0
 40
28.222221374511719
  1
図 番
  7
STYLE1
  0
LINE
  8
____1
  6
CONTINUOUS
 62
               7
  5
508
 10
16236.399840093518
 20
6992.302499999998
 30
0.0
 11
16274.799840093519
 21
6982.7024999999994
 31
0.0
  0
LINE
  8
____1
  6
CONTINUOUS
 62
               7
  5
509
 10
16236.399840093518
 20
7011.5025000000023
 30
0.0
 11
16236.399840093518
 21
6992.302499999998
 31
0.0
  0
LINE
  8
____1
  6
CONTINUOUS
 62
               7
  5
50A
 10
16274.799840093519
 20
7021.1025000000009
 30
0.0
 11
16274.799840093519
 21
6982.7024999999994
 31
0.0
  0
LINE
  8
____1
  6
CONTINUOUS
 62
               7
  5
50B
 10
16159.882520391142
 20
6835.9390015952522
 30
0.0
 11
16155.357036991549
 21
6831.413518195659
 31
0.0
  0
LINE
  8
____1
  6
CENTER2
 62
               7
  5
50C
 10
16163.712500000003
 20
7001.9025000000001
 30
0.0
 11
16286.9125
 21
7001.9025000000001
 31
0.0
  0
LINE
  8
____1
  6
DASHED2
 62
               7
  5
50D
 10
15113.857058272579
 20
8484.4757233844957
 30
0.0
 11
14576.857058272579
 21
8484.4757233844957
 31
0.0
  0
LINE
  8
____1
  6
CONTINUOUS
 62
               5
  5
50E
 10
14575.357058272579
 20
8485.9757233844957
 30
0.0
 11
15115.357058272579
 21
7945.9757233844975
 31
0.0
  0
LINE
  8
____1
  6
CONTINUOUS
 62
               5
  5
50F
 10
15115.357058272579
 20
8485.9757233844957
 30
0.0
 11
14575.357058272579
 21
7945.9757233844975
 31
0.0
  0
LINE
  8
____1
  6
DASHED2
 62
               7
  5
510
 10
15113.857058272579
 20
7947.4757233844975
 30
0.0
 11
14576.857058272579
 21
7947.4757233844975
 31
0.0
  0
LINE
  8
____1
  6
DASHED2
 62
               7
  5
511
 10
15112.357058272579
 20
7948.9757233844975
 30
0.0
 11
14578.357058272579
 21
7948.9757233844975
 31
0.0
  0
TEXT
  8
____1
  6
CONTINUOUS
 62
               7
  5
512
 10
15733.09027862549
 20
7095.9080184478735
 30
0.0
 40
28.222221374511719
  1
品番
  7
STYLE1
  0
LINE
  8
____1
  6
CONTINUOUS
 62
               7
  5
513
 10
16236.399840093518
 20
7011.5025000000023
 30
0.0
 11
16236.399840093518
 21
6992.302499999998
 31
0.0
  0
LINE
  8
____1
  6
CONTINUOUS
 62
               7
  5
514
 10
16106.597671906298
 20
6838.5158837351046
 30
0.0
 11
16106.597671906298
 21
6826.5158837351046
 31
0.0
  0
LINE
  8
____1
  6
CONTINUOUS
 62
               7
  5
515
 10
16236.399840093518
 20
6992.302499999998
 30
0.0
 11
16274.799840093519
 21
6982.7024999999994
 31
0.0
  0
LINE
  8
____1
  6
CONTINUOUS
 62
               7
  5
516
 10
16127.882520391142
 20
6854.5158837351046
 30
0.0
 11
16127.882520391142
 21
6840.1158837351031
 31
0.0
  0
INSERT
  8
____1
  6
CONTINUOUS
 62
             254
  5
541
  2
C46
 10
0.0
 20
0.0
 30
0.0
  0
LINE
  8
____1
  6
DASHED2
 62
               7
  5
542
 10
15112.357058272579
 20
8482.9757233844957
 30
0.0
 11
15029.457058272581
 21
8482.9757233844957
 31
0.0
  0
LINE
  8
____1
  6
DASHED2
 62
               7
  5
543
 10
14725.457058272579
 20
8484.4757233844957
 30
0.0
 11
14725.457058272579
 21
8482.9757233844957
 31
0.0
  0
INSERT
  8
____1
  6
CONTINUOUS
 62
             254
  5
564
  2
C49
 10
0.0
 20
0.0
 30
0.0
  0
INSERT
  8
____1
  6
CONTINUOUS
 62
               7
  5
579
  2
C50
 10
0.0
 20
0.0
 30
0.0
  0
LINE
  8
____1
  6
DASHED2
 62
               7
  5
57A
 10
14965.257058272577
 20
8484.4757233844957
 30
0.0
 11
14965.257058272577
 21
8482.9757233844957
 31
0.0
  0
LINE
  8
____1
  6
DASHED2
 62
               7
  5
57B
 10
14965.257058272577
 20
8482.9757233844957
 30
0.0
 11
14725.457058272579
 21
8482.9757233844957
 31
0.0
  0
LINE
  8
____1
  6
CONTINUOUS
 62
               7
  5
57C
 10
15725.312500000002
 20
6869.9025000000001
 30
0.0
 11
16885.3125
 21
6869.9025000000001
 31
0.0
  0
LINE
  8
____1
  6
CONTINUOUS
 62
               7
  5
57D
 10
15745.312500000002
 20
6913.9025000000001
 30
0.0
 11
16005.312500000002
 21
6913.9025000000001
 31
0.0
  0
LINE
  8
____1
  6
CONTINUOUS
 62
               7
  5
57E
 10
16266.255603562708
 20
6820.1158837351031
 30
0.0
 11
16264.413909059034
 21
6826.5158837351046
 31
0.0
  0
TEXT
  8
____1
  6
CONTINUOUS
 62
               7
  5
57F
 10
16573.090278625488
 20
7095.9080184478735
 30
0.0
 40
28.222221374511719
  1
数量
  7
STYLE1
  0
TEXT
  8
____1
  6
DOT
 62
               7
  5
580
 10
16690.756946563728
 20
7095.9080184478735
 30
0.0
 40
28.222221374511719
  1
備　　　考
  7
STYLE1
  0
LINE
  8
____1
  6
CONTINUOUS
 62
               7
  5
581
 10
15797.312500000002
 20
7085.9025000000001
 30
0.0
 11
15797.312500000002
 21
7125.9025000000001
 31
0.0
  0
LINE
  8
____1
  6
CONTINUOUS
 62
               7
  5
582
 10
15725.312500000002
 20
7085.9025000000001
 30
0.0
 11
15725.312500000002
 21
7125.9025000000001
 31
0.0
  0
LINE
  8
____1
  6
CONTINUOUS
 62
               7
  5
583
 10
16637.312500000007
 20
7085.9025000000001
 30
0.0
 11
16637.312500000007
 21
7125.9025000000001
 31
0.0
  0
INSERT
  8
____1
  6
CONTINUOUS
 62
               7
  5
59F
  2
C51
 10
0.0
 20
0.0
 30
0.0
  0
LINE
  8
____1
  6
CENTER2
 62
               3
  5
5A0
 10
14618.311960762316
 20
8294.4579236754307
 30
0.0
 11
14602.571115691893
 21
8294.4579236754307
 31
0.0
  0
INSERT
  8
____1
  6
CONTINUOUS
 62
               7
  5
5B5
  2
C52
 10
0.0
 20
0.0
 30
0.0
  0
INSERT
  8
____1
  6
CONTINUOUS
 62
               7
  5
5CD
  2
C53
 10
0.0
 20
0.0
 30
0.0
  0
INSERT
  8
____1
  6
DASHED2
 62
               7
  5
5DE
  2
C54
 10
0.0
 20
0.0
 30
0.0
  0
TEXT
  8
____1
  6
CONTINUOUS
 62
               7
  5
5DF
 10
15926.756942749025
 20
7095.9080184478735
 30
0.0
 40
28.222221374511719
  1
品　　　名
  7
STYLE1
  0
CIRCLE
  8
____1
  6
CONTINUOUS
 62
               7
  5
5E0
 10
16192.512500000006
 20
7001.9025000000001
 30
0.0
 40
9.5999999999985448
  0
LINE
  8
____1
  6
CONTINUOUS
 62
               7
  5
5E1
 10
16236.399840093518
 20
6992.302499999998
 30
0.0
 11
16274.799840093519
 21
6982.7024999999994
 31
0.0
  0
LINE
  8
____1
  6
CONTINUOUS
 62
               7
  5
5E2
 10
16236.399840093518
 20
7011.5025000000023
 30
0.0
 11
16236.399840093518
 21
6992.302499999998
 31
0.0
  0
LINE
  8
____1
  6
CONTINUOUS
 62
               7
  5
5E3
 10
16274.799840093519
 20
7021.1025000000009
 30
0.0
 11
16274.799840093519
 21
6982.7024999999994
 31
0.0
  0
LINE
  8
____1
  6
DASHED2
 62
               7
  5
5E4
 10
15103.357223352994
 20
7964.4757233844994
 30
0.0
 11
15103.357223352994
 21
8480.4757233844994
 31
0.0
  0
LINE
  8
____1
  6
CONTINUOUS
 62
               5
  5
5E5
 10
15096.857223352994
 20
8472.4757233844957
 30
0.0
 11
15096.857223352994
 21
8473.9757233844957
 31
0.0
  0
LINE
  8
____1
  6
DASHED2
 62
               7
  5
5E6
 10
14847.857223352994
 20
7972.4757233844994
 30
0.0
 11
14847.857223352994
 21
7993.4757233844994
 31
0.0
  0
LINE
  8
____1
  6
DASHED2
 62
               7
  5
5E7
 10
15108.857223352987
 20
8485.9757233844957
 30
0.0
 11
15096.857223352994
 21
8473.9757233844994
 31
0.0
  0
LINE
  8
____1
  6
DASHED2
 62
               7
  5
5E8
 10
14842.857223352994
 20
7972.4757233844994
 30
0.0
 11
14842.857223352994
 21
7970.9757233844994
 31
0.0
  0
LINE
  8
____1
  6
CONTINUOUS
 62
               5
  5
5E9
 10
15145.357223352994
 20
7922.4757233844994
 30
0.0
 11
15145.357223352994
 21
8522.4757233845012
 31
0.0
  0
LINE
  8
____1
  6
CONTINUOUS
 62
               5
  5
5EA
 10
14595.357223352994
 20
8473.9757233844957
 30
0.0
 11
14593.857223352994
 21
8473.9757233844957
 31
0.0
  0
CIRCLE
  8
____1
  6
CONTINUOUS
 62
               7
  5
5EB
 10
16192.512500000006
 20
7001.9025000000001
 30
0.0
 40
9.5999999999985448
  0
CIRCLE
  8
____1
  6
CONTINUOUS
 62
               7
  5
5EC
 10
16192.512500000006
 20
7001.9025000000001
 30
0.0
 40
19.19999999999709
  0
ARC
  8
____1
  6
CONTINUOUS
 62
               7
  5
5ED
 10
16147.882520391142
 20
6842.5158837351046
 30
0.0
 40
43.999999999999332
 50
-90.0
 51
-57.455041145959214
210
0.0
220
0.0
230
0.9999999999999999
  0
LINE
  8
____1
  6
DASHED2
 62
               7
  5
5EE
 10
15095.357223352994
 20
7970.9757233844994
 30
0.0
 11
15096.857223352994
 21
7970.9757233844994
 31
0.0
  0
LINE
  8
____1
  6
DASHED2
 62
               7
  5
5EF
 10
15095.357223352994
 20
7970.9757233844994
 30
0.0
 11
15096.857223352994
 21
7970.9757233844994
 31
0.0
  0
LINE
  8
____1
  6
CONTINUOUS
 62
               7
  5
5F0
 10
16236.399840093518
 20
7011.5025000000023
 30
0.0
 11
16274.799840093519
 21
7021.1025000000009
 31
0.0
  0
INSERT
  8
____1
  6
DASHED2
 62
               7
  5
64E
  2
C55
 10
0.0
 20
0.0
 30
0.0
  0
INSERT
  8
____1
  6
DASHED2
 62
               7
  5
6AE
  2
C61
 10
0.0
 20
0.0
 30
0.0
  0
ARC
  8
____1
  6
DASHED2
 62
               7
  5
6AF
 10
14845.357223352994
 20
7993.4757233844994
 30
0.0
 40
2.5
 50
180.0
 51
0.0
210
0.0
220
0.0
230
1.0
  0
LINE
  8
____1
  6
CONTINUOUS
 62
               5
  5
6B0
 10
15095.357223352994
 20
7972.4757233844994
 30
0.0
 11
15095.357223352994
 21
7970.9757233844994
 31
0.0
  0
LINE
  8
____1
  6
DASHED2
 62
               7
  5
6B1
 10
14842.857223352994
 20
7970.9757233844994
 30
0.0
 11
14847.857223352994
 21
7970.9757233844994
 31
0.0
  0
LINE
  8
____1
  6
DASHED2
 62
               7
  5
6B2
 10
14593.857223352994
 20
7972.4757233844994
 30
0.0
 11
14593.857223352994
 21
7970.9757233844994
 31
0.0
  0
LINE
  8
____1
  6
DASHED2
 62
               7
  5
6B3
 10
14575.357058272579
 20
7952.4755583040842
 30
0.0
 11
14593.857223352994
 21
7970.9757233844994
 31
0.0
  0
LINE
  8
____1
  6
DASHED2
 62
               7
  5
6B4
 10
14661.257058272578
 20
8482.9757233844957
 30
0.0
 11
14578.357058272579
 21
8482.9757233844957
 31
0.0
  0
LINE
  8
____1
  6
DASHED2
 62
               7
  5
6B5
 10
14576.857058272579
 20
8484.4757233844957
 30
0.0
 11
14576.857058272579
 21
7947.4757233844975
 31
0.0
  0
LINE
  8
____1
  6
DASHED2
 62
               7
  5
6B6
 10
14578.357058272579
 20
8482.9757233844957
 30
0.0
 11
14578.357058272579
 21
7948.9757233844975
 31
0.0
  0
LINE
  8
____1
  6
DASHED2
 62
               7
  5
6B7
 10
14661.257058272578
 20
8484.4757233844957
 30
0.0
 11
14661.257058272578
 21
8482.9757233844957
 31
0.0
  0
INSERT
  8
____1
  6
CONTINUOUS
 62
             254
  5
6E2
  2
C62
 10
0.0
 20
0.0
 30
0.0
  0
LINE
  8
____1
  6
CONTINUOUS
 62
               5
  5
6E3
 10
14595.357223352994
 20
7972.4757233844975
 30
0.0
 11
14593.857223352994
 21
7972.4757233844975
 31
0.0
  0
LINE
  8
____1
  6
CONTINUOUS
 62
               5
  5
6E4
 10
14593.857223352994
 20
7972.4757233844975
 30
0.0
 11
14593.857223352994
 21
7970.9757233844975
 31
0.0
  0
LINE
  8
____1
  6
DASHED2
 62
               7
  5
6E5
 10
15096.857223352994
 20
8472.4757233844957
 30
0.0
 11
14595.357223352994
 21
8472.4757233844957
 31
0.0
  0
LINE
  8
____1
  6
DASHED2
 62
               7
  5
6E6
 10
14593.857223352994
 20
7972.4757233844994
 30
0.0
 11
15095.357223352994
 21
7972.4757233844994
 31
0.0
  0
LINE
  8
____1
  6
DASHED2
 62
               7
  5
6E7
 10
14587.357223352994
 20
7964.4757233844994
 30
0.0
 11
15103.357223352994
 21
7964.4757233844994
 31
0.0
  0
LINE
  8
____1
  6
DASHED2
 62
               7
  5
6E8
 10
15103.357223352994
 20
8480.4757233844957
 30
0.0
 11
14587.357223352994
 21
8480.4757233844957
 31
0.0
  0
LINE
  8
____1
  6
DASHED
 62
               7
  5
6E9
 10
15096.857223352994
 20
8473.9757233844957
 30
0.0
 11
14595.357223352994
 21
8473.9757233844957
 31
0.0
  0
LINE
  8
____1
  6
DASHED2
 62
               7
  5
6EA
 10
15112.357058272579
 20
8482.9757233844957
 30
0.0
 11
15112.357058272579
 21
7948.9757233844975
 31
0.0
  0
LINE
  8
____1
  6
CONTINUOUS
 62
               7
  5
6EB
 10
16045.312500000002
 20
6913.9025000000001
 30
0.0
 11
16305.312500000002
 21
6913.9025000000001
 31
0.0
  0
LINE
  8
____1
  6
DASHED
 62
               7
  5
6EC
 10
14593.857223352994
 20
7970.9757233844994
 30
0.0
 11
15095.357223352994
 21
7970.9757233844994
 31
0.0
  0
LINE
  8
____1
  6
CONTINUOUS
 62
               5
  5
6ED
 10
14395.357223352994
 20
8672.4757233844975
 30
0.0
 11
14396.857223352994
 21
8672.4757233844975
 31
0.0
  0
LINE
  8
____1
  6
DASHED2
 62
               7
  5
6EE
 10
15113.857058272579
 20
8484.4757233844957
 30
0.0
 11
15113.857058272579
 21
7947.4757233844975
 31
0.0
  0
LINE
  8
____1
  6
DASHED2
 62
               7
  5
6EF
 10
15029.457058272581
 20
8484.4757233844957
 30
0.0
 11
15029.457058272581
 21
8482.9757233844957
 31
0.0
  0
INSERT
  8
____1
  6
CONTINUOUS
 62
               7
  5
6F9
  2
C65
 10
0.0
 20
0.0
 30
0.0
  0
INSERT
  8
____1
  6
CONTINUOUS
 62
               7
  5
701
  2
C66
 10
0.0
 20
0.0
 30
0.0
  0
LINE
  8
____1
  6
CONTINUOUS
 62
               5
  5
702
 10
14395.357223352994
 20
8672.4757233844975
 30
0.0
 11
14395.357223352994
 21
7773.9757233845012
 31
0.0
  0
LINE
  8
____1
  6
CONTINUOUS
 62
               7
  5
703
 10
14396.857223352994
 20
8672.4757233844975
 30
0.0
 11
14396.857223352994
 21
8670.9757233844975
 31
0.0
  0
LINE
  8
____1
  6
CONTINUOUS
 62
               5
  5
704
 10
14396.857223352994
 20
8672.4757233844975
 30
0.0
 11
14396.857223352994
 21
8670.9757233844975
 31
0.0
  0
LINE
  8
____1
  6
CONTINUOUS
 62
               5
  5
705
 10
14396.857223352994
 20
8672.4757233844975
 30
0.0
 11
14396.857223352994
 21
8670.9757233844975
 31
0.0
  0
LINE
  8
____1
  6
CONTINUOUS
 62
               5
  5
706
 10
14396.857223352994
 20
8670.9757233844975
 30
0.0
 11
14581.857223352992
 21
8485.9757233844975
 31
0.0
  0
LINE
  8
____1
  6
DASHED2
 62
               7
  5
707
 10
14847.857223352994
 20
7970.9757233844994
 30
0.0
 11
14847.857223352994
 21
7972.4757233844994
 31
0.0
  0
LINE
  8
____1
  6
DASHED2
 62
               7
  5
708
 10
14842.857223352994
 20
7993.4757233844994
 30
0.0
 11
14842.857223352994
 21
7972.4757233844994
 31
0.0
  0
LINE
  8
____1
  6
DASHED2
 62
               7
  5
709
 10
15115.357058272579
 20
7952.4758884649164
 30
0.0
 11
15096.857223352994
 21
7970.9757233844994
 31
0.0
  0
LINE
  8
____1
  6
CONTINUOUS
 62
               5
  5
70A
 10
15095.357223352994
 20
8472.4757233844994
 30
0.0
 11
15096.857223352994
 21
8472.4757233844994
 31
0.0
  0
LINE
  8
____1
  6
DASHED2
 62
               7
  5
70B
 10
15095.357223352994
 20
7970.9757233844994
 30
0.0
 11
15095.357223352994
 21
8472.4757233844994
 31
0.0
  0
LINE
  8
____1
  6
DASHED2
 62
               7
  5
70C
 10
14595.857223352992
 20
7316.2187499999982
 30
0.0
 11
14630.357223352992
 21
7316.2187499999982
 31
0.0
  0
INSERT
  8
____1
  6
DASHED2
 62
             254
  5
795
  2
C67
 10
0.0
 20
0.0
 30
0.0
  0
LINE
  8
____1
  6
DASHED2
 62
               7
  5
796
 10
15103.357223352994
 20
7362.4687499999964
 30
0.0
 11
14587.357223352992
 21
7362.4687499999964
 31
0.0
  0
LINE
  8
____1
  6
DASHED2
 62
               7
  5
797
 10
14587.357223352992
 20
7368.4687499999964
 30
0.0
 11
15103.357223352994
 21
7368.4687499999964
 31
0.0
  0
LINE
  8
____1
  6
DASHED2
 62
               7
  5
798
 10
14587.357223352992
 20
7362.4687499999964
 30
0.0
 11
14587.357223352992
 21
7368.4687499999964
 31
0.0
  0
LINE
  8
____1
  6
CONTINUOUS
 62
               5
  5
799
 10
13685.312500000002
 20
6781.9025000000001
 30
0.0
 11
16885.3125
 21
6781.9025000000001
 31
0.0
  0
LINE
  8
____1
  6
CONTINUOUS
 62
               5
  5
79A
 10
16885.3125
 20
9021.9025000000056
 30
0.0
 11
13685.312500000002
 21
9021.9025000000056
 31
0.0
  0
LINE
  8
____1
  6
CONTINUOUS
 62
               5
  5
79B
 10
14545.357223352994
 20
8522.4757233844975
 30
0.0
 11
14545.357223352994
 21
7922.4757233844975
 31
0.0
  0
LINE
  8
____1
  6
DASHED
 62
               7
  5
79C
 10
14593.857223352994
 20
8473.9757233844957
 30
0.0
 11
14593.857223352994
 21
7972.4757233844975
 31
0.0
  0
LINE
  8
____1
  6
CONTINUOUS
 62
               5
  5
79D
 10
14395.357223352994
 20
7772.4757233845012
 30
0.0
 11
14395.357223352994
 21
7773.9757233845012
 31
0.0
  0
LINE
  8
____1
  6
CONTINUOUS
 62
               5
  5
79E
 10
14395.357223352994
 20
7773.9757233845012
 30
0.0
 11
14396.857223352994
 21
7773.9757233845012
 31
0.0
  0
LINE
  8
____1
  6
DASHED2
 62
               7
  5
79F
 10
15096.857223352994
 20
8472.4757233844994
 30
0.0
 11
15096.857223352994
 21
8473.9757233844994
 31
0.0
  0
LINE
  8
____1
  6
DASHED2
 62
               7
  5
7A0
 10
14842.857223352994
 20
7974.2300705338821
 30
0.0
 11
14847.857223352994
 21
7974.2300705338821
 31
0.0
  0
ARC
  8
____1
  6
DASHED2
 62
               7
  5
7A1
 10
14845.357223352994
 20
7993.4757233844994
 30
0.0
 40
2.5
 50
0.0
 51
180.0
210
0.0
220
0.0
230
1.0
  0
LINE
  8
____1
  6
DASHED
 62
               7
  5
7A2
 10
15096.857223352994
 20
7970.9757233844994
 30
0.0
 11
15096.857223352994
 21
8472.4757233844994
 31
0.0
  0
LINE
  8
____1
  6
CONTINUOUS
 62
               7
  5
7A3
 10
14395.357223352994
 20
7773.9757233845012
 30
0.0
 11
14396.857223352994
 21
7773.9757233845012
 31
0.0
  0
LINE
  8
____1
  6
CONTINUOUS
 62
               5
  5
7A4
 10
16414.761602559956
 20
7773.6815491817943
 30
0.0
 11
16385.031896705877
 21
7922.3300784521816
 31
0.0
  0
LINE
  8
____1
  6
DASHED
 62
               7
  5
7A5
 10
16416.232473573495
 20
7773.9757233845012
 30
0.0
 11
16386.502767719416
 21
7922.6242526548922
 31
0.0
  0
LINE
  8
____1
  6
CONTINUOUS
 62
               5
  5
7A6
 10
16415.002767719416
 20
7773.9757233845012
 30
0.0
 11
16385.002767719416
 21
7922.4757233845012
 31
0.0
  0
LINE
  8
____1
  6
CONTINUOUS
 62
               5
  5
7A7
 10
16465.002767719416
 20
7772.4757233845012
 30
0.0
 11
16465.002767719416
 21
8670.9757233845012
 31
0.0
  0
LINE
  8
____1
  6
DASHED2
 62
               7
  5
7A8
 10
14581.857223352992
 20
8485.9757233844975
 30
0.0
 11
14593.857223352994
 21
8473.9757233844957
 31
0.0
  0
LINE
  8
____1
  6
DASHED2
 62
               7
  5
7A9
 10
14595.357223352994
 20
8472.4757233844957
 30
0.0
 11
14595.357223352994
 21
8473.9757233844957
 31
0.0
  0
LINE
  8
____1
  6
DASHED2
 62
               7
  5
7AA
 10
14595.357223352994
 20
8473.9757233844957
 30
0.0
 11
14593.857223352994
 21
8473.9757233844957
 31
0.0
  0
LINE
  8
____1
  6
DASHED2
 62
               7
  5
7AB
 10
14595.357223352994
 20
8473.9757233844957
 30
0.0
 11
14595.357223352994
 21
7972.4757233844975
 31
0.0
  0
LINE
  8
____1
  6
DASHED2
 62
               7
  5
7AC
 10
14587.357223352994
 20
8480.4757233844957
 30
0.0
 11
14587.357223352994
 21
7964.4757233844975
 31
0.0
  0
LINE
  8
____1
  6
DASHED
 62
               7
  5
7AD
 10
16455.002767719416
 20
7775.7757233845005
 30
0.0
 11
16455.002767719416
 21
8670.9757233845012
 31
0.0
  0
LINE
  8
____1
  6
CONTINUOUS
 62
               5
  5
7AE
 10
16415.002767719416
 20
7772.4757233845012
 30
0.0
 11
16415.002767719416
 21
8670.9757233845012
 31
0.0
  0
LINE
  8
____1
  6
CONTINUOUS
 62
               5
  5
7AF
 10
14396.857223352994
 20
7773.9757233845012
 30
0.0
 11
14575.357058272579
 21
7952.4755583040842
 31
0.0
  0
LINE
  8
____1
  6
CONTINUOUS
 62
               5
  5
7B0
 10
13685.312500000002
 20
6781.9025000000001
 30
0.0
 11
13685.312500000002
 21
9021.9025000000056
 31
0.0
  0
LINE
  8
____1
  6
DOT
 62
               7
  5
7B1
 10
13645.472500000005
 20
6748.0625
 30
0.0
 11
13645.472500000005
 21
9055.7425000000057
 31
0.0
  0
LINE
  8
____1
  6
DOT
 62
               7
  5
7B2
 10
13645.472500000005
 20
6748.0625
 30
0.0
 11
16925.152499999997
 21
6748.0625
 31
0.0
  0
LINE
  8
____1
  6
DOT
 62
               7
  5
7B3
 10
16925.152499999997
 20
9055.7425000000057
 30
0.0
 11
13645.472500000005
 21
9055.7425000000057
 31
0.0
  0
LINE
  8
____1
  6
CONTINUOUS
 62
               5
  5
7B4
 10
15145.357223352994
 20
8522.4757233844975
 30
0.0
 11
14545.357223352994
 21
8522.4757233844975
 31
0.0
  0
LINE
  8
____1
  6
CONTINUOUS
 62
               5
  5
7B5
 10
14545.357223352994
 20
7922.4757233844994
 30
0.0
 11
15145.357223352994
 21
7922.4757233844994
 31
0.0
  0
LINE
  8
____1
  6
DASHED
 62
               7
  5
7B6
 10
15293.857223352994
 20
7773.9757233845012
 30
0.0
 11
15293.857223352994
 21
8670.9757233844994
 31
0.0
  0
LINE
  8
____1
  6
CONTINUOUS
 62
               5
  5
7B7
 10
15295.357223352994
 20
7772.4757233845012
 30
0.0
 11
15295.357223352994
 21
8670.9757233844994
 31
0.0
  0
INSERT
  8
____1
  6
CONTINUOUS
 62
             254
  5
807
  2
C70
 10
0.0
 20
0.0
 30
0.0
  0
LINE
  8
____1
  6
CONTINUOUS
 62
               5
  5
808
 10
16885.3125
 20
6781.9025000000001
 30
0.0
 11
16885.3125
 21
9021.9025000000056
 31
0.0
  0
LINE
  8
____1
  6
DOT
 62
               7
  5
809
 10
16925.152499999997
 20
6748.0625
 30
0.0
 11
16925.152499999997
 21
9055.7425000000057
 31
0.0
  0
LINE
  8
____1
  6
DASHED
 62
               7
  5
80A
 10
14396.857223352994
 20
8670.9757233844975
 30
0.0
 11
14396.857223352994
 21
7773.9757233845012
 31
0.0
  0
INSERT
  8
____1
  6
DASHED2
 62
               7
  5
812
  2
C73
 10
0.0
 20
0.0
 30
0.0
  0
INSERT
  8
____1
  6
DASHED2
 62
               7
  5
870
  2
C74
 10
0.0
 20
0.0
 30
0.0
  0
INSERT
  8
____1
  6
DASHED2
 62
               7
  5
87E
  2
C80
 10
0.0
 20
0.0
 30
0.0
  0
LINE
  8
____1
  6
DASHED2
 62
               7
  5
87F
 10
14630.357223352992
 20
7318.9187499999971
 30
0.0
 11
14630.357223352992
 21
7318.7187499999982
 31
0.0
  0
LINE
  8
____1
  6
DASHED2
 62
               7
  5
880
 10
15103.357223352994
 20
7368.4687499999964
 30
0.0
 11
15103.357223352994
 21
7362.4687499999964
 31
0.0
  0
LINE
  8
____1
  6
CONTINUOUS
 62
               5
  5
881
 10
14395.357223352994
 20
7773.9757233845012
 30
0.0
 11
14396.857223352994
 21
7773.9757233845012
 31
0.0
  0
LINE
  8
____1
  6
CONTINUOUS
 62
               5
  5
882
 10
15293.857223352994
 20
8670.9757233844994
 30
0.0
 11
15108.857223352987
 21
8485.9757233844975
 31
0.0
  0
LINE
  8
____1
  6
CONTINUOUS
 62
               5
  5
883
 10
15293.857223352994
 20
7773.9757233845012
 30
0.0
 11
15115.357058272579
 21
7952.4758884649164
 31
0.0
  0
INSERT
  8
____1
  6
CONTINUOUS
 62
             254
  5
8BA
  2
C81
 10
0.0
 20
0.0
 30
0.0
  0
LINE
  8
____1
  6
DASHED
 62
               7
  5
8BB
 10
15293.857223352994
 20
8670.9757233844975
 30
0.0
 11
14396.857223352994
 21
8670.9757233844975
 31
0.0
  0
LINE
  8
____1
  6
CONTINUOUS
 62
               5
  5
8BC
 10
15295.357223352994
 20
8672.4757233844975
 30
0.0
 11
14396.857223352994
 21
8672.4757233844975
 31
0.0
  0
LINE
  8
____1
  6
DASHED
 62
               7
  5
8BD
 10
14396.857223352994
 20
7773.9757233845012
 30
0.0
 11
15293.857223352994
 21
7773.9757233845012
 31
0.0
  0
LINE
  8
____1
  6
CONTINUOUS
 62
               5
  5
8BE
 10
14395.357223352994
 20
7772.4757233845012
 30
0.0
 11
15293.857223352994
 21
7772.4757233845012
 31
0.0
  0
INSERT
  8
____1
  6
CONTINUOUS
 62
             254
  5
A42
  2
C82
 10
0.0
 20
0.0
 30
0.0
  0
INSERT
  8
____1
  6
CONTINUOUS
 62
             254
  5
A92
  2
C91
 10
0.0
 20
0.0
 30
0.0
  0
ENDSEC
  0
EOF
