  0
SECTION
  2
HEADER
  9
$ACADVER
  1
AC1018
  9
$ACADMAINTVER
 70
     0
  9
$DWGCODEPAGE
  3
ANSI_932
  9
$INSBASE
 10
0.0
 20
0.0
 30
0.0
  9
$EXTMIN
 10
-997.578383492485
 20
-740.338595478197
 30
-0.0015258207003583
  9
$EXTMAX
 10
1052.346726370942
 20
702.0494355277642
 30
0.0000000349246037
  9
$LIMMIN
 10
0.0
 20
0.0
  9
$LIMMAX
 10
0.0
 20
0.0
  9
$ORTHOMODE
 70
     1
  9
$REGENMODE
 70
     1
  9
$FILLMODE
 70
     1
  9
$QTEXTMODE
 70
     0
  9
$MIRRTEXT
 70
     1
  9
$LTSCALE
 40
1.0
  9
$ATTMODE
 70
     1
  9
$TEXTSIZE
 40
0.35
  9
$TRACEWID
 40
0.05
  9
$TEXTSTYLE
  7
STANDARD
  9
$CLAYER
  8
0
  9
$CELTYPE
  6
CONTINUOUS
  9
$CECOLOR
 62
   256
  9
$CELTSCALE
 40
1.0
  9
$DISPSILH
 70
     0
  9
$DIMSCALE
 40
1.0
  9
$DIMASZ
 40
1.931851652578135
  9
$DIMEXO
 40
2.0
  9
$DIMDLI
 40
0.38
  9
$DIMRND
 40
0.0
  9
$DIMDLE
 40
0.0
  9
$DIMEXE
 40
1.0
  9
$DIMTP
 40
0.0
  9
$DIMTM
 40
0.0
  9
$DIMTXT
 40
4.233333333333331
  9
$DIMCEN
 40
0.09
  9
$DIMTSZ
 40
0.0
  9
$DIMTOL
 70
     0
  9
$DIMLIM
 70
     0
  9
$DIMTIH
 70
     0
  9
$DIMTOH
 70
     0
  9
$DIMSE1
 70
     0
  9
$DIMSE2
 70
     0
  9
$DIMTAD
 70
     1
  9
$DIMZIN
 70
     0
  9
$DIMBLK
  1

  9
$DIMASO
 70
     1
  9
$DIMSHO
 70
     1
  9
$DIMPOST
  1

  9
$DIMAPOST
  1

  9
$DIMALT
 70
     0
  9
$DIMALTD
 70
     4
  9
$DIMALTF
 40
25.4
  9
$DIMLFAC
 40
1.0
  9
$DIMTOFL
 70
     0
  9
$DIMTVP
 40
0.0
  9
$DIMTIX
 70
     0
  9
$DIMSOXD
 70
     0
  9
$DIMSAH
 70
     0
  9
$DIMBLK1
  1

  9
$DIMBLK2
  1

  9
$DIMSTYLE
  2
Standard
  9
$DIMCLRD
 70
     0
  9
$DIMCLRE
 70
     0
  9
$DIMCLRT
 70
     0
  9
$DIMTFAC
 40
1.0
  9
$DIMGAP
 40
0.09
  9
$DIMJUST
 70
     0
  9
$DIMSD1
 70
     0
  9
$DIMSD2
 70
     0
  9
$DIMTOLJ
 70
     1
  9
$DIMTZIN
 70
     0
  9
$DIMALTZ
 70
     0
  9
$DIMALTTZ
 70
     0
  9
$DIMUPT
 70
     0
  9
$DIMDEC
 70
     4
  9
$DIMTDEC
 70
     4
  9
$DIMALTU
 70
     2
  9
$DIMALTTD
 70
     2
  9
$DIMTXSTY
  7
STANDARD
  9
$DIMAUNIT
 70
     0
  9
$DIMADEC
 70
     0
  9
$DIMALTRND
 40
0.0
  9
$DIMAZIN
 70
     0
  9
$DIMDSEP
 70
    46
  9
$DIMATFIT
 70
     3
  9
$DIMFRAC
 70
     0
  9
$DIMLDRBLK
  1

  9
$DIMLUNIT
 70
     2
  9
$DIMLWD
 70
    -2
  9
$DIMLWE
 70
    -2
  9
$DIMTMOVE
 70
     0
  9
$LUNITS
 70
     2
  9
$LUPREC
 70
     4
  9
$SKETCHINC
 40
0.1
  9
$FILLETRAD
 40
0.0
  9
$AUNITS
 70
     0
  9
$AUPREC
 70
     0
  9
$MENU
  1
acad
  9
$ELEVATION
 40
0.0
  9
$PELEVATION
 40
0.0
  9
$THICKNESS
 40
0.0
  9
$LIMCHECK
 70
     0
  9
$CHAMFERA
 40
0.0
  9
$CHAMFERB
 40
0.0
  9
$CHAMFERC
 40
0.0
  9
$CHAMFERD
 40
0.0
  9
$SKPOLY
 70
     0
  9
$TDCREATE
 40
2455085.431296296
  9
$TDUCREATE
 40
2455085.056296297
  9
$TDUPDATE
 40
2455085.447003935
  9
$TDUUPDATE
 40
2455085.072003935
  9
$TDINDWG
 40
0.0017022917
  9
$TDUSRTIMER
 40
0.0017022917
  9
$USRTIMER
 70
     1
  9
$ANGBASE
 50
0.0
  9
$ANGDIR
 70
     0
  9
$PDMODE
 70
     0
  9
$PDSIZE
 40
0.0
  9
$PLINEWID
 40
0.0
  9
$SPLFRAME
 70
     0
  9
$SPLINETYPE
 70
     6
  9
$SPLINESEGS
 70
     8
  9
$HANDSEED
  5
DD9
  9
$SURFTAB1
 70
     6
  9
$SURFTAB2
 70
     6
  9
$SURFTYPE
 70
     6
  9
$SURFU
 70
     6
  9
$SURFV
 70
     6
  9
$UCSBASE
  2

  9
$UCSNAME
  2

  9
$UCSORG
 10
0.0
 20
0.0
 30
0.0
  9
$UCSXDIR
 10
1.0
 20
0.0
 30
0.0
  9
$UCSYDIR
 10
0.0
 20
1.0
 30
0.0
  9
$UCSORTHOREF
  2

  9
$UCSORTHOVIEW
 70
     0
  9
$UCSORGTOP
 10
0.0
 20
0.0
 30
0.0
  9
$UCSORGBOTTOM
 10
0.0
 20
0.0
 30
0.0
  9
$UCSORGLEFT
 10
0.0
 20
0.0
 30
0.0
  9
$UCSORGRIGHT
 10
0.0
 20
0.0
 30
0.0
  9
$UCSORGFRONT
 10
0.0
 20
0.0
 30
0.0
  9
$UCSORGBACK
 10
0.0
 20
0.0
 30
0.0
  9
$PUCSBASE
  2

  9
$PUCSNAME
  2

  9
$PUCSORG
 10
0.0
 20
0.0
 30
0.0
  9
$PUCSXDIR
 10
1.0
 20
0.0
 30
0.0
  9
$PUCSYDIR
 10
0.0
 20
1.0
 30
0.0
  9
$PUCSORTHOREF
  2

  9
$PUCSORTHOVIEW
 70
     0
  9
$PUCSORGTOP
 10
0.0
 20
0.0
 30
0.0
  9
$PUCSORGBOTTOM
 10
0.0
 20
0.0
 30
0.0
  9
$PUCSORGLEFT
 10
0.0
 20
0.0
 30
0.0
  9
$PUCSORGRIGHT
 10
0.0
 20
0.0
 30
0.0
  9
$PUCSORGFRONT
 10
0.0
 20
0.0
 30
0.0
  9
$PUCSORGBACK
 10
0.0
 20
0.0
 30
0.0
  9
$USERI1
 70
     0
  9
$USERI2
 70
     0
  9
$USERI3
 70
     0
  9
$USERI4
 70
     0
  9
$USERI5
 70
     0
  9
$USERR1
 40
0.0
  9
$USERR2
 40
0.0
  9
$USERR3
 40
0.0
  9
$USERR4
 40
0.0
  9
$USERR5
 40
0.0
  9
$WORLDVIEW
 70
     1
  9
$SHADEDGE
 70
     3
  9
$SHADEDIF
 70
    70
  9
$TILEMODE
 70
     1
  9
$MAXACTVP
 70
    64
  9
$PINSBASE
 10
0.0
 20
0.0
 30
0.0
  9
$PLIMCHECK
 70
     0
  9
$PEXTMIN
 10
1.000000000000000E+20
 20
1.000000000000000E+20
 30
1.000000000000000E+20
  9
$PEXTMAX
 10
-1.000000000000000E+20
 20
-1.000000000000000E+20
 30
-1.000000000000000E+20
  9
$PLIMMIN
 10
0.0
 20
0.0
  9
$PLIMMAX
 10
12.0
 20
9.0
  9
$UNITMODE
 70
     0
  9
$VISRETAIN
 70
     1
  9
$PLINEGEN
 70
     0
  9
$PSLTSCALE
 70
     1
  9
$TREEDEPTH
 70
  3020
  9
$CMLSTYLE
  2
Standard
  9
$CMLJUST
 70
     0
  9
$CMLSCALE
 40
1.0
  9
$PROXYGRAPHICS
 70
     1
  9
$MEASUREMENT
 70
     0
  9
$CELWEIGHT
370
    -1
  9
$ENDCAPS
280
     0
  9
$JOINSTYLE
280
     0
  9
$LWDISPLAY
290
     0
  9
$INSUNITS
 70
     0
  9
$HYPERLINKBASE
  1

  9
$STYLESHEET
  1

  9
$XEDIT
290
     1
  9
$CEPSNTYPE
380
     0
  9
$PSTYLEMODE
290
     1
  9
$FINGERPRINTGUID
  2
{C9060581-F21C-40A4-B168-A18FBC8A01E4}
  9
$VERSIONGUID
  2
{9759DB86-9796-40AC-9969-95F0278CAE54}
  9
$EXTNAMES
290
     1
  9
$PSVPSCALE
 40
0.0
  9
$OLESTARTUP
290
     0
  9
$SORTENTS
280
   127
  9
$INDEXCTL
280
     0
  9
$HIDETEXT
280
     0
  9
$XCLIPFRAME
290
     0
  9
$HALOGAP
280
     0
  9
$OBSCOLOR
 70
   257
  9
$OBSLTYPE
280
     0
  9
$INTERSECTIONDISPLAY
280
     0
  9
$INTERSECTIONCOLOR
 70
   257
  9
$DIMASSOC
280
     1
  9
$PROJECTNAME
  1

  0
ENDSEC
  0
SECTION
  2
CLASSES
  0
CLASS
  1
ACDBDICTIONARYWDFLT
  2
AcDbDictionaryWithDefault
  3
ObjectDBX Classes
 90
        0
 91
        1
280
     0
281
     0
  0
ENDSEC
  0
SECTION
  2
TABLES
  0
TABLE
  2
VPORT
  5
76E
330
0
100
AcDbSymbolTable
 70
     2
  0
VPORT
  5
DD8
330
76E
100
AcDbSymbolTableRecord
100
AcDbViewportTableRecord
  2
*Active
 70
     0
 10
0.0
 20
0.0
 11
1.0
 21
1.0
 12
27.38417143922843
 22
-19.1445799752164
 13
0.0
 23
0.0
 14
1.0
 24
1.0
 15
0.0
 25
0.0
 16
0.0
 26
0.0
 36
1.0
 17
0.0
 27
0.0
 37
0.0
 40
1455.040557593733
 41
1.644216691068814
 42
50.0
 43
0.0
 44
0.0
 50
0.0
 51
0.0
 71
     0
 72
   100
 73
     1
 74
     1
 75
     0
 76
     0
 77
     0
 78
     0
281
     0
 65
     1
110
0.0
120
0.0
130
0.0
111
1.0
121
0.0
131
0.0
112
0.0
122
1.0
132
0.0
 79
     0
146
0.0
  0
ENDTAB
  0
TABLE
  2
LTYPE
  5
76B
330
0
100
AcDbSymbolTable
 70
    11
  0
LTYPE
  5
779
330
76B
100
AcDbSymbolTableRecord
100
AcDbLinetypeTableRecord
  2
ByBlock
 70
     0
  3

 72
    65
 73
     0
 40
0.0
  0
LTYPE
  5
77A
330
76B
100
AcDbSymbolTableRecord
100
AcDbLinetypeTableRecord
  2
ByLayer
 70
     0
  3

 72
    65
 73
     0
 40
0.0
  0
LTYPE
  5
77B
330
76B
100
AcDbSymbolTableRecord
100
AcDbLinetypeTableRecord
  2
CONTINUOUS
 70
     0
  3
Solid line
 72
    65
 73
     0
 40
0.0
  0
LTYPE
  5
78B
330
76B
100
AcDbSymbolTableRecord
100
AcDbLinetypeTableRecord
  2
DOT
 70
     0
  3

 72
    65
 73
     2
 40
1.0
 49
0.0
 74
     0
 49
-1.0
 74
     0
  0
LTYPE
  5
78C
330
76B
100
AcDbSymbolTableRecord
100
AcDbLinetypeTableRecord
  2
DASHEDX2
 70
     0
  3

 72
    65
 73
     2
 40
4.0
 49
3.0
 74
     0
 49
-1.0
 74
     0
  0
LTYPE
  5
78D
330
76B
100
AcDbSymbolTableRecord
100
AcDbLinetypeTableRecord
  2
DASHED
 70
     0
  3

 72
    65
 73
     2
 40
3.0
 49
2.0
 74
     0
 49
-1.0
 74
     0
  0
LTYPE
  5
78E
330
76B
100
AcDbSymbolTableRecord
100
AcDbLinetypeTableRecord
  2
DASHED2
 70
     0
  3

 72
    65
 73
     2
 40
2.0
 49
1.0
 74
     0
 49
-1.0
 74
     0
  0
LTYPE
  5
78F
330
76B
100
AcDbSymbolTableRecord
100
AcDbLinetypeTableRecord
  2
CENTERX2
 70
     0
  3

 72
    65
 73
     4
 40
43.0
 49
40.0
 74
     0
 49
-1.0
 74
     0
 49
1.0
 74
     0
 49
-1.0
 74
     0
  0
LTYPE
  5
790
330
76B
100
AcDbSymbolTableRecord
100
AcDbLinetypeTableRecord
  2
CENTER
 70
     0
  3

 72
    65
 73
     4
 40
33.0
 49
30.0
 74
     0
 49
-1.0
 74
     0
 49
1.0
 74
     0
 49
-1.0
 74
     0
  0
LTYPE
  5
791
330
76B
100
AcDbSymbolTableRecord
100
AcDbLinetypeTableRecord
  2
CENTER2
 70
     0
  3

 72
    65
 73
     4
 40
23.0
 49
20.0
 74
     0
 49
-1.0
 74
     0
 49
1.0
 74
     0
 49
-1.0
 74
     0
  0
LTYPE
  5
792
330
76B
100
AcDbSymbolTableRecord
100
AcDbLinetypeTableRecord
  2
PHANTOMX2
 70
     0
  3

 72
    65
 73
     6
 40
45.0
 49
40.0
 74
     0
 49
-1.0
 74
     0
 49
1.0
 74
     0
 49
-1.0
 74
     0
 49
1.0
 74
     0
 49
-1.0
 74
     0
  0
LTYPE
  5
793
330
76B
100
AcDbSymbolTableRecord
100
AcDbLinetypeTableRecord
  2
PHANTOM
 70
     0
  3

 72
    65
 73
     6
 40
35.0
 49
30.0
 74
     0
 49
-1.0
 74
     0
 49
1.0
 74
     0
 49
-1.0
 74
     0
 49
1.0
 74
     0
 49
-1.0
 74
     0
  0
LTYPE
  5
794
330
76B
100
AcDbSymbolTableRecord
100
AcDbLinetypeTableRecord
  2
PHANTOM2
 70
     0
  3

 72
    65
 73
     6
 40
25.0
 49
20.0
 74
     0
 49
-1.0
 74
     0
 49
1.0
 74
     0
 49
-1.0
 74
     0
 49
1.0
 74
     0
 49
-1.0
 74
     0
  0
ENDTAB
  0
TABLE
  2
LAYER
  5
768
330
0
100
AcDbSymbolTable
 70
    16
  0
LAYER
  5
776
330
768
100
AcDbSymbolTableRecord
100
AcDbLayerTableRecord
  2
0
 70
     0
 62
     7
  6
CONTINUOUS
370
    -3
390
775
  0
LAYER
  5
795
330
768
100
AcDbSymbolTableRecord
100
AcDbLayerTableRecord
  2
DEFPOINTS
 70
     0
 62
     7
  6
CONTINUOUS
290
     0
370
    -3
390
775
  0
LAYER
  5
796
330
768
100
AcDbSymbolTableRecord
100
AcDbLayerTableRecord
  2
____1
 70
     0
 62
     7
  6
DASHED2
370
    -3
390
775
  0
LAYER
  5
797
330
768
100
AcDbSymbolTableRecord
100
AcDbLayerTableRecord
  2
______
 70
     0
 62
     7
  6
CONTINUOUS
370
    -3
390
775
  0
LAYER
  5
798
330
768
100
AcDbSymbolTableRecord
100
AcDbLayerTableRecord
  2
寸法線_1
 70
     0
 62
     7
  6
CONTINUOUS
370
    -3
390
775
  0
LAYER
  5
799
330
768
100
AcDbSymbolTableRecord
100
AcDbLayerTableRecord
  2
CONSTRUCTION
 70
     0
 62
     7
  6
CONTINUOUS
370
    -3
390
775
  0
LAYER
  5
79A
330
768
100
AcDbSymbolTableRecord
100
AcDbLayerTableRecord
  2
DIMENSION
 70
     0
 62
     7
  6
CONTINUOUS
370
    -3
390
775
  0
LAYER
  5
79B
330
768
100
AcDbSymbolTableRecord
100
AcDbLayerTableRecord
  2
FORMAT
 70
     0
 62
     7
  6
CONTINUOUS
370
    -3
390
775
  0
LAYER
  5
79C
330
768
100
AcDbSymbolTableRecord
100
AcDbLayerTableRecord
  2
0_1
 70
     0
 62
     7
  6
CONTINUOUS
370
    -3
390
775
  0
LAYER
  5
79D
330
768
100
AcDbSymbolTableRecord
100
AcDbLayerTableRecord
  2
2
 70
     0
 62
     7
  6
CONTINUOUS
370
    -3
390
775
  0
LAYER
  5
79E
330
768
100
AcDbSymbolTableRecord
100
AcDbLayerTableRecord
  2
3
 70
     0
 62
     7
  6
CONTINUOUS
370
    -3
390
775
  0
LAYER
  5
79F
330
768
100
AcDbSymbolTableRecord
100
AcDbLayerTableRecord
  2
1
 70
     0
 62
     7
  6
CONTINUOUS
370
    -3
390
775
  0
LAYER
  5
7A0
330
768
100
AcDbSymbolTableRecord
100
AcDbLayerTableRecord
  2
____2
 70
     0
 62
     5
  6
CONTINUOUS
370
    -3
390
775
  0
LAYER
  5
7A1
330
768
100
AcDbSymbolTableRecord
100
AcDbLayerTableRecord
  2
DEFPOINTS_1
 70
     0
 62
     5
  6
CONTINUOUS
370
    -3
390
775
  0
LAYER
  5
7A2
330
768
100
AcDbSymbolTableRecord
100
AcDbLayerTableRecord
  2
____
 70
     0
 62
     7
  6
DOT
370
    -3
390
775
  0
LAYER
  5
7A3
330
768
100
AcDbSymbolTableRecord
100
AcDbLayerTableRecord
  2
___G
 70
     0
 62
     7
  6
DOT
370
    -3
390
775
  0
ENDTAB
  0
TABLE
  2
STYLE
  5
769
330
0
100
AcDbSymbolTable
 70
     3
  0
STYLE
  5
777
330
769
100
AcDbSymbolTableRecord
100
AcDbTextStyleTableRecord
  2
STANDARD
 70
     0
 40
0.0
 41
1.0
 50
0.0
 71
     0
 42
0.35
  3
txt
  4

  0
STYLE
  5
7A4
330
769
100
AcDbSymbolTableRecord
100
AcDbTextStyleTableRecord
  2
STYLE1
 70
     0
 40
0.0
 41
1.0
 50
0.0
 71
     0
 42
0.35
  3
ＭＳ ゴシック
  4

  0
STYLE
  5
7A5
330
769
100
AcDbSymbolTableRecord
100
AcDbTextStyleTableRecord
  2
社名
 70
     0
 40
1.5
 41
1.0
 50
0.0
 71
     0
 42
2.5
  3

  4

  0
ENDTAB
  0
TABLE
  2
VIEW
  5
76C
330
0
100
AcDbSymbolTable
 70
     0
  0
ENDTAB
  0
TABLE
  2
UCS
  5
76D
330
0
100
AcDbSymbolTable
 70
     0
  0
ENDTAB
  0
TABLE
  2
APPID
  5
76F
330
0
100
AcDbSymbolTable
 70
     1
  0
APPID
  5
778
330
76F
100
AcDbSymbolTableRecord
100
AcDbRegAppTableRecord
  2
ACAD
 70
     0
  0
ENDTAB
  0
TABLE
  2
DIMSTYLE
  5
770
330
0
100
AcDbSymbolTable
 70
     1
100
AcDbDimStyleTable
 71
     0
  0
DIMSTYLE
105
DB6
330
770
100
AcDbSymbolTableRecord
100
AcDbDimStyleTableRecord
  2
Standard
 70
     0
340
777
  0
ENDTAB
  0
TABLE
  2
BLOCK_RECORD
  5
767
330
0
100
AcDbSymbolTable
 70
    50
  0
BLOCK_RECORD
  5
786
330
767
100
AcDbSymbolTableRecord
100
AcDbBlockTableRecord
  2
*Model_Space
340
789
  0
BLOCK_RECORD
  5
782
330
767
100
AcDbSymbolTableRecord
100
AcDbBlockTableRecord
  2
*Paper_Space
340
785
  0
BLOCK_RECORD
  5
7A9
330
767
100
AcDbSymbolTableRecord
100
AcDbBlockTableRecord
  2
*D0
340
0
  0
BLOCK_RECORD
  5
7B8
330
767
100
AcDbSymbolTableRecord
100
AcDbBlockTableRecord
  2
C0
340
0
  0
BLOCK_RECORD
  5
7C1
330
767
100
AcDbSymbolTableRecord
100
AcDbBlockTableRecord
  2
C1
340
0
102
{BLKREFS
331
36C
102
}
  0
BLOCK_RECORD
  5
A1C
330
767
100
AcDbSymbolTableRecord
100
AcDbBlockTableRecord
  2
C2
340
0
102
{BLKREFS
331
3C7
102
}
  0
BLOCK_RECORD
  5
A22
330
767
100
AcDbSymbolTableRecord
100
AcDbBlockTableRecord
  2
C3
340
0
102
{BLKREFS
331
A23
102
}
  0
BLOCK_RECORD
  5
A38
330
767
100
AcDbSymbolTableRecord
100
AcDbBlockTableRecord
  2
C4
340
0
102
{BLKREFS
331
A39
102
}
  0
BLOCK_RECORD
  5
A76
330
767
100
AcDbSymbolTableRecord
100
AcDbBlockTableRecord
  2
*D6
340
0
  0
BLOCK_RECORD
  5
A82
330
767
100
AcDbSymbolTableRecord
100
AcDbBlockTableRecord
  2
*D7
340
0
  0
BLOCK_RECORD
  5
A8E
330
767
100
AcDbSymbolTableRecord
100
AcDbBlockTableRecord
  2
*D8
340
0
  0
BLOCK_RECORD
  5
A9C
330
767
100
AcDbSymbolTableRecord
100
AcDbBlockTableRecord
  2
*D9
340
0
  0
BLOCK_RECORD
  5
AAA
330
767
100
AcDbSymbolTableRecord
100
AcDbBlockTableRecord
  2
C5
340
0
  0
BLOCK_RECORD
  5
AB3
330
767
100
AcDbSymbolTableRecord
100
AcDbBlockTableRecord
  2
C6
340
0
102
{BLKREFS
331
435
102
}
  0
BLOCK_RECORD
  5
AB8
330
767
100
AcDbSymbolTableRecord
100
AcDbBlockTableRecord
  2
C7
340
0
102
{BLKREFS
331
455
102
}
  0
BLOCK_RECORD
  5
ACE
330
767
100
AcDbSymbolTableRecord
100
AcDbBlockTableRecord
  2
C8
340
0
102
{BLKREFS
331
46C
102
}
  0
BLOCK_RECORD
  5
AE4
330
767
100
AcDbSymbolTableRecord
100
AcDbBlockTableRecord
  2
*D14
340
0
  0
BLOCK_RECORD
  5
AF2
330
767
100
AcDbSymbolTableRecord
100
AcDbBlockTableRecord
  2
*D15
340
0
  0
BLOCK_RECORD
  5
B01
330
767
100
AcDbSymbolTableRecord
100
AcDbBlockTableRecord
  2
*D16
340
0
  0
BLOCK_RECORD
  5
B0D
330
767
100
AcDbSymbolTableRecord
100
AcDbBlockTableRecord
  2
C9
340
0
102
{BLKREFS
331
4B5
102
}
  0
BLOCK_RECORD
  5
B1C
330
767
100
AcDbSymbolTableRecord
100
AcDbBlockTableRecord
  2
C10
340
0
102
{BLKREFS
331
4D1
102
}
  0
BLOCK_RECORD
  5
B37
330
767
100
AcDbSymbolTableRecord
100
AcDbBlockTableRecord
  2
C11
340
0
  0
BLOCK_RECORD
  5
B40
330
767
100
AcDbSymbolTableRecord
100
AcDbBlockTableRecord
  2
C12
340
0
102
{BLKREFS
331
699
102
}
  0
BLOCK_RECORD
  5
B42
330
767
100
AcDbSymbolTableRecord
100
AcDbBlockTableRecord
  2
C13
340
0
102
{BLKREFS
331
B43
102
}
  0
BLOCK_RECORD
  5
B44
330
767
100
AcDbSymbolTableRecord
100
AcDbBlockTableRecord
  2
C17
340
0
102
{BLKREFS
331
B45
102
}
  0
BLOCK_RECORD
  5
B46
330
767
100
AcDbSymbolTableRecord
100
AcDbBlockTableRecord
  2
C28
340
0
102
{BLKREFS
331
B47
102
}
  0
BLOCK_RECORD
  5
B4A
330
767
100
AcDbSymbolTableRecord
100
AcDbBlockTableRecord
  2
C14
340
0
102
{BLKREFS
331
B4B
102
}
  0
BLOCK_RECORD
  5
B4C
330
767
100
AcDbSymbolTableRecord
100
AcDbBlockTableRecord
  2
C15
340
0
102
{BLKREFS
331
B4D
102
}
  0
BLOCK_RECORD
  5
B4E
330
767
100
AcDbSymbolTableRecord
100
AcDbBlockTableRecord
  2
C16
340
0
102
{BLKREFS
331
B4F
102
}
  0
BLOCK_RECORD
  5
BB2
330
767
100
AcDbSymbolTableRecord
100
AcDbBlockTableRecord
  2
C18
340
0
102
{BLKREFS
331
BB3
102
}
  0
BLOCK_RECORD
  5
BB4
330
767
100
AcDbSymbolTableRecord
100
AcDbBlockTableRecord
  2
C19
340
0
102
{BLKREFS
331
BB5
102
}
  0
BLOCK_RECORD
  5
BBB
330
767
100
AcDbSymbolTableRecord
100
AcDbBlockTableRecord
  2
C20
340
0
102
{BLKREFS
331
BBC
102
}
  0
BLOCK_RECORD
  5
BBD
330
767
100
AcDbSymbolTableRecord
100
AcDbBlockTableRecord
  2
C21
340
0
102
{BLKREFS
331
BBE
102
}
  0
BLOCK_RECORD
  5
BBF
330
767
100
AcDbSymbolTableRecord
100
AcDbBlockTableRecord
  2
C22
340
0
102
{BLKREFS
331
BC0
102
}
  0
BLOCK_RECORD
  5
BC3
330
767
100
AcDbSymbolTableRecord
100
AcDbBlockTableRecord
  2
C23
340
0
102
{BLKREFS
331
BC4
102
}
  0
BLOCK_RECORD
  5
BD7
330
767
100
AcDbSymbolTableRecord
100
AcDbBlockTableRecord
  2
C24
340
0
102
{BLKREFS
331
BD8
102
}
  0
BLOCK_RECORD
  5
BD9
330
767
100
AcDbSymbolTableRecord
100
AcDbBlockTableRecord
  2
C25
340
0
102
{BLKREFS
331
BDA
102
}
  0
BLOCK_RECORD
  5
BDB
330
767
100
AcDbSymbolTableRecord
100
AcDbBlockTableRecord
  2
C26
340
0
102
{BLKREFS
331
BDC
102
}
  0
BLOCK_RECORD
  5
BDD
330
767
100
AcDbSymbolTableRecord
100
AcDbBlockTableRecord
  2
C27
340
0
102
{BLKREFS
331
BDE
102
}
  0
BLOCK_RECORD
  5
CFC
330
767
100
AcDbSymbolTableRecord
100
AcDbBlockTableRecord
  2
C29
340
0
102
{BLKREFS
331
746
102
}
  0
BLOCK_RECORD
  5
CFE
330
767
100
AcDbSymbolTableRecord
100
AcDbBlockTableRecord
  2
C30
340
0
102
{BLKREFS
331
CFF
102
}
  0
BLOCK_RECORD
  5
D00
330
767
100
AcDbSymbolTableRecord
100
AcDbBlockTableRecord
  2
C34
340
0
102
{BLKREFS
331
D01
102
}
  0
BLOCK_RECORD
  5
D02
330
767
100
AcDbSymbolTableRecord
100
AcDbBlockTableRecord
  2
C35
340
0
102
{BLKREFS
331
D03
102
}
  0
BLOCK_RECORD
  5
D07
330
767
100
AcDbSymbolTableRecord
100
AcDbBlockTableRecord
  2
C31
340
0
102
{BLKREFS
331
D08
102
}
  0
BLOCK_RECORD
  5
D1A
330
767
100
AcDbSymbolTableRecord
100
AcDbBlockTableRecord
  2
C32
340
0
102
{BLKREFS
331
D1B
102
}
  0
BLOCK_RECORD
  5
D3A
330
767
100
AcDbSymbolTableRecord
100
AcDbBlockTableRecord
  2
C33
340
0
102
{BLKREFS
331
D3B
102
}
  0
BLOCK_RECORD
  5
D83
330
767
100
AcDbSymbolTableRecord
100
AcDbBlockTableRecord
  2
C36
340
0
102
{BLKREFS
331
D84
102
}
  0
BLOCK_RECORD
  5
D85
330
767
100
AcDbSymbolTableRecord
100
AcDbBlockTableRecord
  2
C37
340
0
102
{BLKREFS
331
D86
102
}
  0
BLOCK_RECORD
  5
D87
330
767
100
AcDbSymbolTableRecord
100
AcDbBlockTableRecord
  2
C38
340
0
102
{BLKREFS
331
D88
102
}
  0
BLOCK_RECORD
  5
D89
330
767
100
AcDbSymbolTableRecord
100
AcDbBlockTableRecord
  2
C39
340
0
102
{BLKREFS
331
D8A
102
}
  0
BLOCK_RECORD
  5
DA8
330
767
100
AcDbSymbolTableRecord
100
AcDbBlockTableRecord
  2
C40
340
0
  0
BLOCK_RECORD
  5
DB1
330
767
100
AcDbSymbolTableRecord
100
AcDbBlockTableRecord
  2
C41
340
0
102
{BLKREFS
331
759
102
}
  0
ENDTAB
  0
ENDSEC
  0
SECTION
  2
BLOCKS
  0
BLOCK
  5
787
330
786
100
AcDbEntity
  8
0
100
AcDbBlockBegin
  2
*Model_Space
 70
     0
 10
0.0
 20
0.0
 30
0.0
  3
*Model_Space
  1

  0
ENDBLK
  5
788
330
786
100
AcDbEntity
  8
0
100
AcDbBlockEnd
  0
BLOCK
  5
783
330
782
100
AcDbEntity
 67
     1
  8
0
100
AcDbBlockBegin
  2
*Paper_Space
 70
     0
 10
0.0
 20
0.0
 30
0.0
  3
*Paper_Space
  1

  0
ENDBLK
  5
784
330
782
100
AcDbEntity
 67
     1
  8
0
100
AcDbBlockEnd
  0
BLOCK
  5
7AA
330
7A9
100
AcDbEntity
  8
0
100
AcDbBlockBegin
  2
*D0
 70
     1
 10
0.0
 20
0.0
 30
0.0
  3
*D0
  1

  0
LINE
  5
7AB
330
7A9
100
AcDbEntity
  8
____1
  6
Continuous
 62
     7
100
AcDbLine
 10
242.9723958333336
 20
246.6762500000001
 30
0.0
 11
242.9723958333336
 21
282.6762499999997
 31
0.0
  0
LINE
  5
7AC
330
7A9
100
AcDbEntity
  8
____1
  6
Continuous
 62
     7
100
AcDbLine
 10
242.9723958333336
 20
282.6762499999997
 30
0.0
 11
242.9723958333336
 21
282.6762499999997
 31
0.0
  0
LINE
  5
7AD
330
7A9
100
AcDbEntity
  8
____1
  6
Continuous
 62
     7
100
AcDbLine
 10
242.9723958333336
 20
246.6762500000001
 30
0.0
 11
242.9723958333336
 21
246.6762500000001
 31
0.0
  0
SOLID
  5
7AE
330
7A9
100
AcDbEntity
  8
____1
  6
Continuous
 62
     7
100
AcDbTrace
 10
240.3842052777611
 20
237.0169921112061
 30
0.0
 11
240.3842052777611
 21
237.0169921112061
 31
0.0
 12
241.0312529166542
 22
239.4318065834046
 32
0.0
 13
242.9723958333336
 23
239.4318065834046
 33
0.0
  0
SOLID
  5
7AF
330
7A9
100
AcDbEntity
  8
____1
  6
Continuous
 62
     7
100
AcDbTrace
 10
245.5605863889061
 20
237.0169921112061
 30
0.0
 11
245.5605863889061
 21
237.0169921112061
 31
0.0
 12
242.9723958333336
 22
239.4318065834046
 32
0.0
 13
244.913538750013
 23
239.4318065834046
 33
0.0
  0
SOLID
  5
7B0
330
7A9
100
AcDbEntity
  8
____1
  6
Continuous
 62
     7
100
AcDbTrace
 10
241.0312529166542
 20
239.4318065834046
 30
0.0
 11
244.913538750013
 21
239.4318065834046
 31
0.0
 12
242.9723958333336
 22
246.6762500000001
 32
0.0
 13
242.9723958333336
 23
246.6762500000001
 33
0.0
  0
LINE
  5
7B1
330
7A9
100
AcDbEntity
  8
____1
  6
Continuous
 62
     7
100
AcDbLine
 10
242.9723958333336
 20
246.6762500000001
 30
0.0
 11
242.9723958333336
 21
221.6762500000001
 31
0.0
  0
SOLID
  5
7B2
330
7A9
100
AcDbEntity
  8
____1
  6
Continuous
 62
     7
100
AcDbTrace
 10
242.9723958333336
 20
282.6762499999997
 30
0.0
 11
242.9723958333336
 21
282.6762499999997
 31
0.0
 12
241.0312529166542
 22
289.9206934165952
 32
0.0
 13
244.913538750013
 23
289.9206934165952
 33
0.0
  0
SOLID
  5
7B3
330
7A9
100
AcDbEntity
  8
____1
  6
Continuous
 62
     7
100
AcDbTrace
 10
241.0312529166542
 20
289.9206934165952
 30
0.0
 11
242.9723958333336
 21
289.9206934165952
 31
0.0
 12
240.3842052777611
 22
292.3355078887937
 32
0.0
 13
240.3842052777611
 23
292.3355078887937
 33
0.0
  0
SOLID
  5
7B4
330
7A9
100
AcDbEntity
  8
____1
  6
Continuous
 62
     7
100
AcDbTrace
 10
242.9723958333336
 20
289.9206934165952
 30
0.0
 11
244.913538750013
 21
289.9206934165952
 31
0.0
 12
245.5605863889061
 22
292.3355078887937
 32
0.0
 13
245.5605863889061
 23
292.3355078887937
 33
0.0
  0
LINE
  5
7B5
330
7A9
100
AcDbEntity
  8
____1
  6
Continuous
 62
     7
100
AcDbLine
 10
242.9723958333336
 20
282.6762499999997
 30
0.0
 11
242.9723958333336
 21
307.6762499999997
 31
0.0
  0
TEXT
  5
7B6
330
7A9
100
AcDbEntity
  8
寸法線_1
  6
DASHED2
 62
     7
100
AcDbText
 10
234.8855903704964
 20
254.092916984558
 30
0.0
 40
21.16666603088379
  1
36
 50
90.0
  7
STYLE1
100
AcDbText
  0
ENDBLK
  5
7B7
330
7A9
100
AcDbEntity
  8
0
100
AcDbBlockEnd
  0
BLOCK
  5
7B9
330
7B8
100
AcDbEntity
  8
0
100
AcDbBlockBegin
  2
C0
 70
     0
 10
0.0
 20
0.0
 30
0.0
  3
C0
  1

  0
CIRCLE
  5
7BA
330
7B8
100
AcDbEntity
  8
____1
  6
Continuous
 62
     7
100
AcDbCircle
 10
-77.91666666666644
 20
44.87926655505311
 30
0.0
 40
20.0
  0
TEXT
  5
7BB
330
7B8
100
AcDbEntity
  8
____1
  6
DASHED2
 62
     7
100
AcDbText
 10
-53.95833317438739
 20
21.88273900244844
 30
0.0
 40
21.16666603088379
  1
3
  7
STYLE1
100
AcDbText
  0
LINE
  5
7BC
330
7B8
100
AcDbEntity
  8
寸法線_1
  6
Continuous
 62
     7
100
AcDbLine
 10
-81.99999999999979
 20
29.37926655505311
 30
0.0
 11
-68.66666666666644
 21
29.37926655505311
 31
0.0
  0
LINE
  5
7BD
330
7B8
100
AcDbEntity
  8
寸法線_1
  6
Continuous
 62
     7
100
AcDbLine
 10
-407.1440104955149
 20
217.1012485400334
 30
0.0
 11
-81.99999999999979
 21
29.37926655505311
 31
0.0
  0
SOLID
  5
7BE
330
7B8
100
AcDbEntity
  8
寸法線_1
 62
     7
100
AcDbTrace
 10
-407.1440104955149
 20
217.1012485400334
 30
0.0
 11
-403.3081807474308
 21
213.3923387487981
 31
0.0
 12
-407.1440104955149
 22
217.1012485400334
 32
0.0
 13
-403.7818524748847
 23
215.1601057017645
 33
0.0
  0
SOLID
  5
7BF
330
7B8
100
AcDbEntity
  8
寸法線_1
 62
     7
100
AcDbTrace
 10
-403.7818524748847
 20
215.1601057017645
 30
0.0
 11
-402.0140855219183
 21
215.6337774292182
 31
0.0
 12
-407.1440104955149
 22
217.1012485400334
 32
0.0
 13
-407.1440104955149
 23
217.1012485400334
 33
0.0
  0
ENDBLK
  5
7C0
330
7B8
100
AcDbEntity
  8
0
100
AcDbBlockEnd
  0
BLOCK
  5
7C2
330
7C1
100
AcDbEntity
  8
0
100
AcDbBlockBegin
  2
C1
 70
     0
 10
0.0
 20
0.0
 30
0.0
  3
C1
  1

  0
ARC
  5
7C3
330
7C1
100
AcDbEntity
  8
____1
  6
DASHED2
 62
     7
100
AcDbCircle
 10
-336.7709335724385
 20
-261.0483203124996
 30
0.0
 40
53.32692307692315
100
AcDbArc
 50
331.4152494673343
 51
0.0
  0
LINE
  5
7C4
330
7C1
100
AcDbEntity
  8
____1
  6
DASHED2
 62
     7
100
AcDbLine
 10
-284.4440104955164
 20
-163.5483203124993
 30
0.0
 11
-271.9440104955163
 21
-163.5483203124993
 31
0.0
  0
ARC
  5
7C5
330
7C1
100
AcDbEntity
  8
____1
  6
DASHED2
 62
     7
100
AcDbCircle
 10
-284.4440104955164
 20
-164.5483203124993
 30
0.0
 40
1.0
100
AcDbArc
 50
90.0
 51
180.0
  0
LINE
  5
7C6
330
7C1
100
AcDbEntity
  8
____1
  6
DASHED2
 62
     7
100
AcDbLine
 10
-273.4440104955163
 20
-168.5483203124989
 30
0.0
 11
-270.9440104955163
 21
-168.5483203124989
 31
0.0
  0
ARC
  5
7C7
330
7C1
100
AcDbEntity
  8
____1
  6
DASHED2
 62
     7
100
AcDbCircle
 10
-271.9440104955163
 20
-164.5483203124993
 30
0.0
 40
1.0
100
AcDbArc
 50
0.0
 51
90.0
  0
LINE
  5
7C8
330
7C1
100
AcDbEntity
  8
____1
  6
DASHED2
 62
     7
100
AcDbLine
 10
-270.9440104955163
 20
-164.5483203124993
 30
0.0
 11
-270.9440104955163
 21
-168.5483203124989
 31
0.0
  0
LINE
  5
7C9
330
7C1
100
AcDbEntity
  8
____1
  6
DASHED2
 62
     7
100
AcDbLine
 10
-281.4440104955163
 20
-166.5483203124993
 30
0.0
 11
-273.4440104955163
 21
-166.5483203124993
 31
0.0
  0
LINE
  5
7CA
330
7C1
100
AcDbEntity
  8
____1
  6
DASHED2
 62
     7
100
AcDbLine
 10
-273.4440104955163
 20
-166.5483203124993
 30
0.0
 11
-273.4440104955163
 21
-168.5483203124989
 31
0.0
  0
LINE
  5
7CB
330
7C1
100
AcDbEntity
  8
2
  6
DASHED2
 62
     7
100
AcDbLine
 10
-258.7440112380016
 20
-140.7483184848223
 30
0.0
 11
-258.7440111300036
 21
-141.5483184848222
 31
0.0
  0
ARC
  5
7CC
330
7C1
100
AcDbEntity
  8
____1
  6
DASHED2
 62
     7
100
AcDbCircle
 10
-258.5440111300036
 20
-141.5483184578228
 30
0.0
 40
0.1999999999998181
100
AcDbArc
 50
180.0000077347833
 51
270.0
  0
LINE
  5
7CD
330
7C1
100
AcDbEntity
  8
____1
  6
DASHED2
 62
     7
100
AcDbLine
 10
-262.9440104955155
 20
-140.0483184578228
 30
0.0
 11
-262.9440104955155
 21
-155.0483184578229
 31
0.0
  0
LINE
  5
7CE
330
7C1
100
AcDbEntity
  8
____1
  6
DASHED2
 62
     7
100
AcDbLine
 10
-453.9440104955153
 20
-155.0483184578228
 30
0.0
 11
-453.9440104955153
 21
-156.2483184578228
 31
0.0
  0
LINE
  5
7CF
330
7C1
100
AcDbEntity
  8
____1
  6
DASHED2
 62
     7
100
AcDbLine
 10
-465.6440104955152
 20
-155.0483184578228
 30
0.0
 11
-453.9440104955153
 21
-155.0483184578228
 31
0.0
  0
LINE
  5
7D0
330
7C1
100
AcDbEntity
  8
____1
  6
DASHED2
 62
     7
100
AcDbLine
 10
-465.6440104955152
 20
-156.2483184578228
 30
0.0
 11
-453.9440104955153
 21
-156.2483184578228
 31
0.0
  0
ARC
  5
7D1
330
7C1
100
AcDbEntity
  8
____1
  6
DASHED2
 62
     7
100
AcDbCircle
 10
-465.6440104955152
 20
-156.5483184578228
 30
0.0
 40
0.3000000000001819
100
AcDbArc
 50
90.0
 51
180.0
  0
LINE
  5
7D2
330
7C1
100
AcDbEntity
  8
2
  6
DASHED2
 62
     7
100
AcDbLine
 10
-259.9440104955154
 20
-150.4483184578227
 30
0.0
 11
-259.9440104955154
 21
-158.2483184578228
 31
0.0
  0
LINE
  5
7D3
330
7C1
100
AcDbEntity
  8
____1
  6
DASHED2
 62
     7
100
AcDbLine
 10
-258.1440104955151
 20
-154.9483189138722
 30
0.0
 11
-258.1440104955151
 21
-153.9483184578228
 31
0.0
  0
LINE
  5
7D4
330
7C1
100
AcDbEntity
  8
____1
  6
DASHED2
 62
     7
100
AcDbLine
 10
-258.9440104955154
 20
-153.9483184578228
 30
0.0
 11
-258.1440104955151
 21
-153.9483184578228
 31
0.0
  0
LINE
  5
7D5
330
7C1
100
AcDbEntity
  8
2
  6
DASHED2
 62
     7
100
AcDbLine
 10
-258.9440104955154
 20
-150.4483184578227
 30
0.0
 11
-258.9440104955154
 21
-153.9483184578228
 31
0.0
  0
LINE
  5
7D6
330
7C1
100
AcDbEntity
  8
____1
  6
DASHED2
 62
     7
100
AcDbLine
 10
-259.7440104955154
 20
-158.4483184578228
 30
0.0
 11
-258.9502629886626
 21
-158.4483184578228
 31
0.0
  0
ARC
  5
7D7
330
7C1
100
AcDbEntity
  8
____1
  6
DASHED2
 62
     7
100
AcDbCircle
 10
-467.4440104955155
 20
-158.5483184578228
 30
0.0
 40
0.3000000000000114
100
AcDbArc
 50
270.0
 51
0.0
  0
ARC
  5
7D8
330
7C1
100
AcDbEntity
  8
____1
  6
DASHED2
 62
     7
100
AcDbCircle
 10
-467.4440104955155
 20
-158.5483184578228
 30
0.0
 40
1.5
100
AcDbArc
 50
270.0
 51
0.0
  0
LINE
  5
7D9
330
7C1
100
AcDbEntity
  8
____1
  6
DASHED2
 62
     7
100
AcDbLine
 10
-467.1440104955151
 20
-158.5483185820635
 30
0.0
 11
-467.1440104955151
 21
-156.5483184578228
 31
0.0
  0
LINE
  5
7DA
330
7C1
100
AcDbEntity
  8
____1
  6
DASHED2
 62
     7
100
AcDbLine
 10
-285.4440104955163
 20
-164.5483203124993
 30
0.0
 11
-285.4440104955163
 21
-259.0483203124996
 31
0.0
  0
LINE
  5
7DB
330
7C1
100
AcDbEntity
  8
____1
  6
DASHED2
 62
     7
100
AcDbLine
 10
-290.9440104955154
 20
-259.0483203124996
 30
0.0
 11
-285.4440104955163
 21
-259.0483203124996
 31
0.0
  0
LINE
  5
7DC
330
7C1
100
AcDbEntity
  8
____1
  6
DASHED2
 62
     7
100
AcDbLine
 10
-258.7440104955153
 20
-150.2483184578228
 30
0.0
 11
-257.1440104955152
 21
-150.2483184578228
 31
0.0
  0
LINE
  5
7DD
330
7C1
100
AcDbEntity
  8
____1
  6
DASHED2
 62
     7
100
AcDbLine
 10
-260.1440104955154
 20
-150.2483184578228
 30
0.0
 11
-261.5440104955153
 21
-150.2483184578228
 31
0.0
  0
ARC
  5
7DE
330
7C1
100
AcDbEntity
  8
____1
  6
DASHED2
 62
     7
100
AcDbCircle
 10
-260.1440104955154
 20
-150.4483184578227
 30
0.0
 40
0.1999999999998181
100
AcDbArc
 50
0.0
 51
90.0
  0
ARC
  5
7DF
330
7C1
100
AcDbEntity
  8
____1
  6
DASHED2
 62
     7
100
AcDbCircle
 10
-257.1440104955152
 20
-150.0483184578228
 30
0.0
 40
0.2000000000000455
100
AcDbArc
 50
270.0
 51
0.0
  0
ARC
  5
7E0
330
7C1
100
AcDbEntity
  8
____1
  6
DASHED2
 62
     7
100
AcDbCircle
 10
-261.5440104955153
 20
-150.0483184578228
 30
0.0
 40
0.2000000000000455
100
AcDbArc
 50
180.0
 51
270.0
  0
ARC
  5
7E1
330
7C1
100
AcDbEntity
  8
____1
  6
DASHED2
 62
     7
100
AcDbCircle
 10
-258.7440104955153
 20
-150.4483184578227
 30
0.0
 40
0.2000000000000455
100
AcDbArc
 50
90.0
 51
180.0
  0
LINE
  5
7E2
330
7C1
100
AcDbEntity
  8
2
  6
DASHED2
 62
     7
100
AcDbLine
 10
-260.7440104955153
 20
-149.0483184578228
 30
0.0
 11
-260.7440104955153
 21
-147.2483186231949
 31
0.0
  0
ARC
  5
7E3
330
7C1
100
AcDbEntity
  8
____1
  6
DASHED2
 62
     7
100
AcDbCircle
 10
-260.5440104955155
 20
-149.0483184578228
 30
0.0
 40
0.2000000000000455
100
AcDbArc
 50
180.0
 51
270.0
  0
ARC
  5
7E4
330
7C1
100
AcDbEntity
  8
____1
  6
DASHED2
 62
     7
100
AcDbCircle
 10
-261.2440104955153
 20
-141.2483184578228
 30
0.0
 40
0.5000000000000561
100
AcDbArc
 50
180.0000271387096
 51
359.9999927866705
  0
POLYLINE
  5
7E5
330
7C1
100
AcDbEntity
  8
____1
  6
DASHED2
 62
     7
100
AcDb3dPolyline
 66
     1
 10
0.0
 20
0.0
 30
0.0
 70
     8
  0
VERTEX
  5
7E6
330
7E5
100
AcDbEntity
  8
____1
 62
     7
100
AcDbVertex
100
AcDb3dPolylineVertex
 10
-258.7440112380015
 20
-140.7483184848223
 30
0.0
 70
    32
  0
VERTEX
  5
7E7
330
7E5
100
AcDbEntity
  8
____1
 62
     7
100
AcDbVertex
100
AcDb3dPolylineVertex
 10
-258.6854326133304
 20
-140.606897120677
 30
0.0
 70
    32
  0
VERTEX
  5
7E8
330
7E5
100
AcDbEntity
  8
____1
 62
     7
100
AcDbVertex
100
AcDb3dPolylineVertex
 10
-258.544011265001
 20
-140.5483184578226
 30
0.0
 70
    32
  0
VERTEX
  5
7E9
330
7E5
100
AcDbEntity
  8
____1
 62
     7
100
AcDbVertex
100
AcDb3dPolylineVertex
 10
-258.5440112380015
 20
-140.5483184578226
 30
0.0
 70
    32
  0
SEQEND
  5
7EA
330
7E5
100
AcDbEntity
  8
____1
 62
     7
  0
ARC
  5
7EB
330
7C1
100
AcDbEntity
  8
____1
  6
DASHED2
 62
     7
100
AcDbCircle
 10
-465.6440104955152
 20
-156.5483184578228
 30
0.0
 40
1.5
100
AcDbArc
 50
90.0
 51
180.0
  0
ARC
  5
7EC
330
7C1
100
AcDbEntity
  8
____1
  6
DASHED2
 62
     7
100
AcDbCircle
 10
-467.4440104955155
 20
-173.5483184578228
 30
0.0
 40
0.3000000000000114
100
AcDbArc
 50
270.0
 51
0.0
  0
ARC
  5
7ED
330
7C1
100
AcDbEntity
  8
____1
  6
DASHED2
 62
     7
100
AcDbCircle
 10
-467.4440104955155
 20
-173.5483184578228
 30
0.0
 40
1.5
100
AcDbArc
 50
270.0
 51
0.0
  0
LINE
  5
7EE
330
7C1
100
AcDbEntity
  8
____1
  6
DASHED2
 62
     7
100
AcDbLine
 10
-465.9440104955153
 20
-173.5483184578228
 30
0.0
 11
-465.9440104955153
 21
-156.5483184578228
 31
0.0
  0
LINE
  5
7EF
330
7C1
100
AcDbEntity
  8
____1
  6
DASHED2
 62
     7
100
AcDbLine
 10
-467.1440104955151
 20
-173.5483184578228
 30
0.0
 11
-467.1440104955151
 21
-158.5483185820635
 31
0.0
  0
LINE
  5
7F0
330
7C1
100
AcDbEntity
  8
____1
  6
DASHED2
 62
     7
100
AcDbLine
 10
-257.2430486011917
 20
-142.1983184578227
 30
0.0
 11
-257.9440104955152
 21
-143.4124200729608
 31
0.0
  0
ARC
  5
7F1
330
7C1
100
AcDbEntity
  8
____1
  6
DASHED2
 62
     7
100
AcDbCircle
 10
-261.2440104955153
 20
-147.2483184578228
 30
0.0
 40
0.5000000000000561
100
AcDbArc
 50
359.9999810497842
 51
179.9999728612642
  0
LINE
  5
7F2
330
7C1
100
AcDbEntity
  8
____1
  6
DASHED2
 62
     7
100
AcDbLine
 10
-266.0262099891679
 20
-138.8786850400983
 30
0.0
 11
-260.4440104955151
 21
-137.9483184578228
 31
0.0
  0
ARC
  5
7F3
330
7C1
100
AcDbEntity
  8
____1
  6
DASHED2
 62
     7
100
AcDbCircle
 10
-260.5440107385109
 20
-139.1483184578227
 30
0.0
 40
0.2000000000000473
100
AcDbArc
 50
90.0
 51
180.0000077347833
  0
LINE
  5
7F4
330
7C1
100
AcDbEntity
  8
2
  6
DASHED2
 62
     7
100
AcDbLine
 10
-260.7440107385109
 20
-139.1483184848222
 30
0.0
 11
-260.7440104955153
 21
-141.2483185297118
 31
0.0
  0
ARC
  5
7F5
330
7C1
100
AcDbEntity
  8
____1
  6
DASHED2
 62
     7
100
AcDbCircle
 10
-290.9440104955154
 20
-260.0483203124996
 30
0.0
 40
1.0
100
AcDbArc
 50
90.0
 51
180.0
  0
ARC
  5
7F6
330
7C1
100
AcDbEntity
  8
____1
  6
DASHED2
 62
     7
100
AcDbCircle
 10
-290.9440104955154
 20
-260.0483203124996
 30
0.0
 40
1.000000000000015
100
AcDbArc
 50
90.00000999576705
 51
269.9999938833819
  0
LINE
  5
7F7
330
7C1
100
AcDbEntity
  8
____1
  6
DASHED2
 62
     7
100
AcDbLine
 10
-290.9440106022706
 20
-261.0483203124996
 30
0.0
 11
-285.4440104955155
 21
-261.0483203124996
 31
0.0
  0
ARC
  5
7F8
330
7C1
100
AcDbEntity
  8
____1
  6
DASHED2
 62
     7
100
AcDbCircle
 10
-336.7709335724383
 20
-261.0483203124996
 30
0.0
 40
51.32692307692281
100
AcDbArc
 50
331.415249467332
 51
0.0
  0
ARC
  5
7F9
330
7C1
100
AcDbEntity
  8
____1
  6
DASHED2
 62
     7
100
AcDbCircle
 10
-289.9440104955155
 20
-286.5630219568457
 30
0.0
 40
2.0
100
AcDbArc
 50
151.4152494673318
 51
180.0
  0
LINE
  5
7FA
330
7C1
100
AcDbEntity
  8
2
  6
DASHED2
 62
     7
100
AcDbLine
 10
-258.5440104955155
 20
-146.7483184578228
 30
0.0
 11
-257.9440104955152
 21
-146.7483184578228
 31
0.0
  0
LINE
  5
7FB
330
7C1
100
AcDbEntity
  8
2
  6
DASHED2
 62
     7
100
AcDbLine
 10
-258.7440104955153
 20
-147.7483184578228
 30
0.0
 11
-258.7440104955153
 21
-146.9483184578227
 31
0.0
  0
ARC
  5
7FC
330
7C1
100
AcDbEntity
  8
____1
  6
DASHED2
 62
     7
100
AcDbCircle
 10
-258.5440104955155
 20
-147.7483184578228
 30
0.0
 40
0.1999999999998181
100
AcDbArc
 50
180.0
 51
270.0
  0
ARC
  5
7FD
330
7C1
100
AcDbEntity
  8
2
  6
DASHED2
 62
     7
100
AcDbCircle
 10
-256.4440104955151
 20
-138.4483186209523
 30
0.0
 40
0.5000000000000007
100
AcDbArc
 50
359.9999899764973
 51
89.99999698823843
  0
LINE
  5
7FE
330
7C1
100
AcDbEntity
  8
2
  6
DASHED2
 62
     7
100
AcDbLine
 10
-261.7440104955154
 20
-150.0483184578228
 30
0.0
 11
-261.7440104955154
 21
-147.2483186231949
 31
0.0
  0
ARC
  5
7FF
330
7C1
100
AcDbEntity
  8
____1
  6
DASHED2
 62
     7
100
AcDbCircle
 10
-265.9440104955152
 20
-139.3718820020143
 30
0.0
 40
0.5
100
AcDbArc
 50
99.46232220803421
 51
180.0
  0
ARC
  5
800
330
7C1
100
AcDbEntity
  8
____1
  6
DASHED2
 62
     7
100
AcDbCircle
 10
-261.9440104955154
 20
-139.4148709638824
 30
0.0
 40
0.2000000000000455
100
AcDbArc
 50
0.0
 51
99.46232220805773
  0
LINE
  5
801
330
7C1
100
AcDbEntity
  8
____1
  6
DASHED2
 62
     7
100
AcDbLine
 10
-265.4440104955152
 20
-139.7954455462057
 30
0.0
 11
-261.9768902929767
 21
-139.2175921791159
 31
0.0
  0
LINE
  5
802
330
7C1
100
AcDbEntity
  8
____1
  6
DASHED2
 62
     7
100
AcDbLine
 10
-258.7440106586679
 20
-149.0983184578226
 30
0.0
 11
-258.7440106586679
 21
-139.0983184578227
 31
0.0
  0
LINE
  5
803
330
7C1
100
AcDbEntity
  8
____1
  6
DASHED2
 62
     7
100
AcDbLine
 10
-260.7440106586679
 20
-139.0983184578227
 30
0.0
 11
-260.7440106586679
 21
-149.0983184578226
 31
0.0
  0
LINE
  5
804
330
7C1
100
AcDbEntity
  8
2
  6
DASHED2
 62
     7
100
AcDbLine
 10
-260.4440104955151
 20
-137.9483184578228
 30
0.0
 11
-256.4440104955151
 21
-137.9483184578228
 31
0.0
  0
LINE
  5
805
330
7C1
100
AcDbEntity
  8
2
  6
DASHED2
 62
     7
100
AcDbLine
 10
-261.7440104955154
 20
-139.4148709638824
 30
0.0
 11
-261.7440104955154
 21
-141.2483186946527
 31
0.0
  0
LINE
  5
806
330
7C1
100
AcDbEntity
  8
2
  6
DASHED2
 62
     7
100
AcDbLine
 10
-265.4440104955152
 20
-139.7954455462057
 30
0.0
 11
-265.4440104955152
 21
-139.9483184578228
 31
0.0
  0
LINE
  5
807
330
7C1
100
AcDbEntity
  8
2
  6
DASHED2
 62
     7
100
AcDbLine
 10
-266.2440104955149
 20
-139.9483184578228
 30
0.0
 11
-265.4440104955152
 21
-139.9483184578228
 31
0.0
  0
ARC
  5
808
330
7C1
100
AcDbEntity
  8
____1
  6
DASHED2
 62
     7
100
AcDbCircle
 10
-266.1440104955151
 20
-154.9483189138722
 30
0.0
 40
8.000000000000136
100
AcDbArc
 50
334.0555238599102
 51
0.0000018032216342
  0
ARC
  5
809
330
7C1
100
AcDbEntity
  8
____1
  6
DASHED2
 62
     7
100
AcDbCircle
 10
-280.4440104955153
 20
-155.5483184578228
 30
0.0
 40
1.5
100
AcDbArc
 50
180.0
 51
270.0
  0
LINE
  5
80A
330
7C1
100
AcDbEntity
  8
2
  6
DASHED2
 62
     7
100
AcDbLine
 10
-273.9440104955153
 20
-155.5483184578228
 30
0.0
 11
-267.4440104955153
 21
-155.5483184578228
 31
0.0
  0
LINE
  5
80B
330
7C1
100
AcDbEntity
  8
2
  6
DASHED2
 62
     7
100
AcDbLine
 10
-267.4440104955153
 20
-155.0483184578228
 30
0.0
 11
-262.7440104955155
 21
-155.0483184578228
 31
0.0
  0
LINE
  5
80C
330
7C1
100
AcDbEntity
  8
____1
  6
DASHED2
 62
     7
100
AcDbLine
 10
-258.9440104955153
 20
-153.9483184578228
 30
0.0
 11
-257.9440104955153
 21
-153.9483184578228
 31
0.0
  0
LINE
  5
80D
330
7C1
100
AcDbEntity
  8
____1
  6
DASHED2
 62
     7
100
AcDbLine
 10
-258.9440104955153
 20
-153.9483184578228
 30
0.0
 11
-258.9440104955153
 21
-152.9483180012324
 31
0.0
  0
ARC
  5
80E
330
7C1
100
AcDbEntity
  8
____1
  6
DASHED2
 62
     7
100
AcDbCircle
 10
-259.7440104955154
 20
-158.2483184578228
 30
0.0
 40
0.2000000000000455
100
AcDbArc
 50
180.0
 51
270.0
  0
LINE
  5
80F
330
7C1
100
AcDbEntity
  8
____1
  6
DASHED2
 62
     7
100
AcDbLine
 10
-258.5440104955155
 20
-147.9483184578227
 30
0.0
 11
-257.9440104955152
 21
-147.9483184578227
 31
0.0
  0
LINE
  5
810
330
7C1
100
AcDbEntity
  8
2
  6
DASHED2
 62
     7
100
AcDbLine
 10
-257.9440104955152
 20
-147.9483184578227
 30
0.0
 11
-257.9440104955152
 21
-149.0483183862465
 31
0.0
  0
ARC
  5
811
330
7C1
100
AcDbEntity
  8
____1
  6
DASHED2
 62
     7
100
AcDbCircle
 10
-258.1440104955151
 20
-149.0483184578228
 30
0.0
 40
0.2000000000000455
100
AcDbArc
 50
270.0
 51
0.000020505106258
  0
LINE
  5
812
330
7C1
100
AcDbEntity
  8
2
  6
DASHED2
 62
     7
100
AcDbLine
 10
-260.5440104955155
 20
-149.2483184578228
 30
0.0
 11
-258.1440104955151
 21
-149.2483184578228
 31
0.0
  0
ARC
  5
813
330
7C1
100
AcDbEntity
  8
____1
  6
DASHED2
 62
     7
100
AcDbCircle
 10
-261.2440104955155
 20
-151.3483184578227
 30
0.0
 40
1.0
100
AcDbArc
 50
0.0
 51
90.0
  0
LINE
  5
814
330
7C1
100
AcDbEntity
  8
2
  6
DASHED2
 62
     7
100
AcDbLine
 10
-261.7440104955155
 20
-150.5483184578228
 30
0.0
 11
-261.7440104955155
 21
-155.0483184578228
 31
0.0
  0
LINE
  5
815
330
7C1
100
AcDbEntity
  8
2
  6
DASHED2
 62
     7
100
AcDbLine
 10
-262.7440104955155
 20
-155.0483184578228
 30
0.0
 11
-261.7440104955155
 21
-155.0483184578228
 31
0.0
  0
LINE
  5
816
330
7C1
100
AcDbEntity
  8
2
  6
DASHED2
 62
     7
100
AcDbLine
 10
-267.4440104955153
 20
-158.5483184578228
 30
0.0
 11
-262.7440104955155
 21
-158.5483184578228
 31
0.0
  0
ARC
  5
817
330
7C1
100
AcDbEntity
  8
____1
  6
DASHED2
 62
     7
100
AcDbCircle
 10
-269.4440104955153
 20
-160.5483184578228
 30
0.0
 40
0.5000000000000129
100
AcDbArc
 50
180.0
 51
269.9999869791181
  0
LINE
  5
818
330
7C1
100
AcDbEntity
  8
2
  6
DASHED2
 62
     7
100
AcDbLine
 10
-260.2440104955155
 20
-151.3483184578227
 30
0.0
 11
-260.2440104955155
 21
-161.0483184578228
 31
0.0
  0
LINE
  5
819
330
7C1
100
AcDbEntity
  8
____1
  6
DASHED2
 62
     7
100
AcDbLine
 10
-261.7148234367384
 20
-162.1737785196935
 30
0.0
 11
-261.4440104955153
 21
-161.0483184578228
 31
0.0
  0
LINE
  5
81A
330
7C1
100
AcDbEntity
  8
____1
  6
DASHED2
 62
     7
100
AcDbLine
 10
-263.1731975542932
 20
-162.1737785196935
 30
0.0
 11
-263.4440104955153
 21
-161.0483184578228
 31
0.0
  0
ARC
  5
81B
330
7C1
100
AcDbEntity
  8
____1
  6
DASHED2
 62
     7
100
AcDbCircle
 10
-262.4440104955153
 20
-161.9983184578228
 30
0.0
 40
0.7500000000001953
100
AcDbArc
 50
193.5295869825488
 51
346.4704136307124
  0
LINE
  5
81C
330
7C1
100
AcDbEntity
  8
2
  6
DASHED2
 62
     7
100
AcDbLine
 10
-269.444010609144
 20
-161.0483184578228
 30
0.0
 11
-263.4440104955153
 21
-161.0483184578228
 31
0.0
  0
ARC
  5
81D
330
7C1
100
AcDbEntity
  8
____1
  6
DASHED2
 62
     7
100
AcDbCircle
 10
-266.2440104955149
 20
-139.7483184578228
 30
0.0
 40
0.2000000000000455
100
AcDbArc
 50
180.0
 51
270.0
  0
LINE
  5
81E
330
7C1
100
AcDbEntity
  8
2
  6
DASHED2
 62
     7
100
AcDbLine
 10
-257.9440104955152
 20
-143.4124200729608
 30
0.0
 11
-257.9440104955152
 21
-146.7483184578228
 31
0.0
  0
LINE
  5
81F
330
7C1
100
AcDbEntity
  8
2
  6
DASHED2
 62
     7
100
AcDbLine
 10
-258.5440112380015
 20
-140.5483184578228
 30
0.0
 11
-256.9440104955152
 21
-140.5483184578228
 31
0.0
  0
ARC
  5
820
330
7C1
100
AcDbEntity
  8
____1
  6
DASHED2
 62
     7
100
AcDbCircle
 10
-257.5028562223272
 20
-142.0483184578228
 30
0.0
 40
0.3000000000000351
100
AcDbArc
 50
330.000000000034
 51
90.0
  0
LINE
  5
821
330
7C1
100
AcDbEntity
  8
2
  6
DASHED2
 62
     7
100
AcDbLine
 10
-258.5440111300036
 20
-141.7483184578226
 30
0.0
 11
-257.5028562223272
 21
-141.7483184578226
 31
0.0
  0
LINE
  5
822
330
7C1
100
AcDbEntity
  8
2
  6
DASHED2
 62
     7
100
AcDbLine
 10
-262.7440104955155
 20
-155.0483184578228
 30
0.0
 11
-262.7440104955155
 21
-158.5483184578228
 31
0.0
  0
LINE
  5
823
330
7C1
100
AcDbEntity
  8
____1
  6
DASHED2
 62
     7
100
AcDbLine
 10
-269.9440104955153
 20
-157.0483184578228
 30
0.0
 11
-269.9440104955153
 21
-160.5483184578228
 31
0.0
  0
LINE
  5
824
330
7C1
100
AcDbEntity
  8
____1
  6
DASHED2
 62
     7
100
AcDbLine
 10
-277.9440104955153
 20
-157.0483184578228
 30
0.0
 11
-269.9440104955153
 21
-160.5483184578228
 31
0.0
  0
LINE
  5
825
330
7C1
100
AcDbEntity
  8
____1
  6
DASHED2
 62
     7
100
AcDbLine
 10
-267.4440104955153
 20
-155.0483184578228
 30
0.0
 11
-267.4440104955153
 21
-158.5483184578228
 31
0.0
  0
LINE
  5
826
330
7C1
100
AcDbEntity
  8
2
  6
DASHED2
 62
     7
100
AcDbLine
 10
-281.9440104955153
 20
-155.0483184578228
 30
0.0
 11
-273.9440104955153
 21
-155.0483184578228
 31
0.0
  0
LINE
  5
827
330
7C1
100
AcDbEntity
  8
2
  6
DASHED2
 62
     7
100
AcDbLine
 10
-256.9440106440124
 20
-139.1483184308232
 30
0.0
 11
-256.9440104955152
 21
-140.5483184578228
 31
0.0
  0
ARC
  5
828
330
7C1
100
AcDbEntity
  8
____1
  6
DASHED2
 62
     7
100
AcDbCircle
 10
-257.1440106440125
 20
-139.1483184578227
 30
0.0
 40
0.2000000000000473
100
AcDbArc
 50
0.0000077347832965
 51
90.0
  0
LINE
  5
829
330
7C1
100
AcDbEntity
  8
2
  6
DASHED2
 62
     7
100
AcDbLine
 10
-260.5440107385109
 20
-138.9483184578228
 30
0.0
 11
-257.1440106440125
 21
-138.9483184578228
 31
0.0
  0
LINE
  5
82A
330
7C1
100
AcDbEntity
  8
2
  6
DASHED2
 62
     7
100
AcDbLine
 10
-256.9440104955152
 20
-143.6803692653919
 30
0.0
 11
-256.9440104955152
 21
-150.0483184578228
 31
0.0
  0
ARC
  5
82B
330
7C1
100
AcDbEntity
  8
____1
  6
DASHED2
 62
     7
100
AcDbCircle
 10
-258.5440104955155
 20
-146.9483184578227
 30
0.0
 40
0.1999999999998181
100
AcDbArc
 50
90.0
 51
180.0
  0
ARC
  5
82C
330
7C1
100
AcDbEntity
  8
____1
  6
DASHED2
 62
     7
100
AcDbCircle
 10
-254.2440104955151
 20
-168.3483205353496
 30
0.0
 40
0.1999999999998181
100
AcDbArc
 50
180.0
 51
270.0
  0
LINE
  5
82D
330
7C1
100
AcDbEntity
  8
2
  6
DASHED2
 62
     7
100
AcDbLine
 10
-253.0440101307929
 20
-168.5483205353494
 30
0.0
 11
-254.2440104955151
 21
-168.5483205353494
 31
0.0
  0
ARC
  5
82E
330
7C1
100
AcDbEntity
  8
____1
  6
DASHED2
 62
     7
100
AcDbCircle
 10
-270.1440104955151
 20
-168.3483202656917
 30
0.0
 40
0.1999999999998181
100
AcDbArc
 50
270.0
 51
0.0
  0
LINE
  5
82F
330
7C1
100
AcDbEntity
  8
2
  6
DASHED2
 62
     7
100
AcDbLine
 10
-269.9440104955152
 20
-162.5483182656915
 30
0.0
 11
-269.9440104955152
 21
-168.3483202656917
 31
0.0
  0
ARC
  5
830
330
7C1
100
AcDbEntity
  8
____1
  6
DASHED2
 62
     7
100
AcDbCircle
 10
-268.2440104955151
 20
-168.3483202656917
 30
0.0
 40
0.2000000000000455
100
AcDbArc
 50
180.0
 51
270.0
  0
LINE
  5
831
330
7C1
100
AcDbEntity
  8
2
  6
DASHED2
 62
     7
100
AcDbLine
 10
-255.6440104955152
 20
-168.5483205353494
 30
0.0
 11
-268.2440104955151
 21
-168.5483202656915
 31
0.0
  0
LINE
  5
832
330
7C1
100
AcDbEntity
  8
2
  6
DASHED2
 62
     7
100
AcDbLine
 10
-246.9440105217977
 20
-138.5483206984792
 30
0.0
 11
-251.5440105217979
 21
-138.5483206984792
 31
0.0
  0
ARC
  5
833
330
7C1
100
AcDbEntity
  8
____1
  6
DASHED2
 62
     7
100
AcDbCircle
 10
-244.4440105217977
 20
-138.4905549853387
 30
0.0
 40
0.5000000000000331
100
AcDbArc
 50
0.0
 51
82.98349822719792
  0
LINE
  5
834
330
7C1
100
AcDbEntity
  8
2
  6
DASHED2
 62
     7
100
AcDbLine
 10
-243.9440105217977
 20
-138.4905549853387
 30
0.0
 11
-243.9440105217977
 21
-138.848320698479
 31
0.0
  0
LINE
  5
835
330
7C1
100
AcDbEntity
  8
____1
  6
DASHED2
 62
     7
100
AcDbLine
 10
-250.4440104955152
 20
-137.248320698479
 30
0.0
 11
-244.3829329208829
 21
-137.9942994799117
 31
0.0
  0
LINE
  5
836
330
7C1
100
AcDbEntity
  8
____1
  6
DASHED2
 62
     7
100
AcDbLine
 10
-260.7440106586679
 20
-139.0983184578227
 30
0.0
 11
-258.7440106586679
 21
-139.0983184578227
 31
0.0
  0
LINE
  5
837
330
7C1
100
AcDbEntity
  8
____1
  6
DASHED2
 62
     7
100
AcDbLine
 10
-260.7440106586679
 20
-149.0983184578226
 30
0.0
 11
-258.7440106586679
 21
-149.0983184578226
 31
0.0
  0
LINE
  5
838
330
7C1
100
AcDbEntity
  8
____1
  6
DASHED2
 62
     7
100
AcDbLine
 10
-273.9440104955153
 20
-155.0483184578228
 30
0.0
 11
-273.9440104955153
 21
-155.5483184578228
 31
0.0
  0
LINE
  5
839
330
7C1
100
AcDbEntity
  8
2
  6
DASHED2
 62
     7
100
AcDbLine
 10
-280.4440104955153
 20
-157.0483184578228
 30
0.0
 11
-269.9440104955153
 21
-157.0483184578228
 31
0.0
  0
LINE
  5
83A
330
7C1
100
AcDbEntity
  8
____1
  6
DASHED2
 62
     7
100
AcDbLine
 10
-281.9440104955153
 20
-155.0483184578228
 30
0.0
 11
-281.9440104955153
 21
-155.5483184578228
 31
0.0
  0
ARC
  5
83B
330
7C1
100
AcDbEntity
  8
____1
  6
DASHED2
 62
     7
100
AcDbCircle
 10
-244.144010521798
 20
-138.848320698479
 30
0.0
 40
0.2000000000000455
100
AcDbArc
 50
270.0
 51
0.0
  0
ARC
  5
83C
330
7C1
100
AcDbEntity
  8
____1
  6
DASHED2
 62
     7
100
AcDbCircle
 10
-251.5440105217979
 20
-138.848320698479
 30
0.0
 40
0.2999999999999545
100
AcDbArc
 50
90.0
 51
180.0
  0
LINE
  5
83D
330
7C1
100
AcDbEntity
  8
2
  6
DASHED2
 62
     7
100
AcDbLine
 10
-253.0440105217977
 20
-138.5483206984792
 30
0.0
 11
-254.2440105217977
 21
-138.5483206984792
 31
0.0
  0
ARC
  5
83E
330
7C1
100
AcDbEntity
  8
____1
  6
DASHED2
 62
     7
100
AcDbCircle
 10
-254.2440105217977
 20
-138.7483206984792
 30
0.0
 40
0.2000000000000455
100
AcDbArc
 50
90.0
 51
180.0
  0
LINE
  5
83F
330
7C1
100
AcDbEntity
  8
2
  6
DASHED2
 62
     7
100
AcDbLine
 10
-254.4440105217977
 20
-138.7483206984792
 30
0.0
 11
-254.4440104955152
 21
-168.3483205353496
 31
0.0
  0
ARC
  5
840
330
7C1
100
AcDbEntity
  8
____1
  6
DASHED2
 62
     7
100
AcDbCircle
 10
-255.0640116826501
 20
-152.9483180012324
 30
0.0
 40
3.879998812865266
100
AcDbArc
 50
137.9249712067071
 51
180.0
  0
ARC
  5
841
330
7C1
100
AcDbEntity
  8
____1
  6
DASHED2
 62
     7
100
AcDbCircle
 10
-257.1440104955161
 20
-150.5483184578228
 30
0.0
 40
0.2000000000000455
100
AcDbArc
 50
0.0
 51
90.0
  0
LINE
  5
842
330
7C1
100
AcDbEntity
  8
____1
  6
DASHED2
 62
     7
100
AcDbLine
 10
-257.9440104955153
 20
-150.3483184578227
 30
0.0
 11
-257.1440104955161
 21
-150.3483184578227
 31
0.0
  0
ARC
  5
843
330
7C1
100
AcDbEntity
  8
____1
  6
DASHED2
 62
     7
100
AcDbCircle
 10
-261.5440104955157
 20
-150.5483184578228
 30
0.0
 40
0.1999999999998181
100
AcDbArc
 50
90.0
 51
180.0
  0
LINE
  5
844
330
7C1
100
AcDbEntity
  8
____1
  6
DASHED2
 62
     7
100
AcDbLine
 10
-261.2440104955155
 20
-150.3483184578227
 30
0.0
 11
-261.5440104955157
 21
-150.3483184578227
 31
0.0
  0
LINE
  5
845
330
7C1
100
AcDbEntity
  8
2
  6
DASHED2
 62
     7
100
AcDbLine
 10
-252.3440104955152
 20
-169.5483205353496
 30
0.0
 11
-279.6440104955149
 21
-169.5483205353494
 31
0.0
  0
LINE
  5
846
330
7C1
100
AcDbEntity
  8
2
  6
DASHED2
 62
     7
100
AcDbLine
 10
-278.6440104955149
 20
-167.0483205353496
 30
0.0
 11
-278.6440104955149
 21
-168.3483205353494
 31
0.0
  0
ARC
  5
847
330
7C1
100
AcDbEntity
  8
____1
  6
DASHED2
 62
     7
100
AcDbCircle
 10
-279.1440104955149
 20
-167.0483205353496
 30
0.0
 40
0.5
100
AcDbArc
 50
0.0
 51
90.0
  0
ARC
  5
848
330
7C1
100
AcDbEntity
  8
____1
  6
DASHED2
 62
     7
100
AcDbCircle
 10
-278.4440104955151
 20
-168.3483205353494
 30
0.0
 40
0.2000000000000455
100
AcDbArc
 50
180.0
 51
270.0
  0
LINE
  5
849
330
7C1
100
AcDbEntity
  8
2
  6
DASHED2
 62
     7
100
AcDbLine
 10
-279.1440104955149
 20
-166.5483205353496
 30
0.0
 11
-279.6440104955149
 21
-166.5483205353496
 31
0.0
  0
LINE
  5
84A
330
7C1
100
AcDbEntity
  8
2
  6
DASHED2
 62
     7
100
AcDbLine
 10
-270.1440104955151
 20
-168.5483202656915
 30
0.0
 11
-278.4440104955151
 21
-168.5483205353494
 31
0.0
  0
ARC
  5
84B
330
7C1
100
AcDbEntity
  8
____1
  6
DASHED2
 62
     7
100
AcDbCircle
 10
-267.4440104955152
 20
-162.5483185353494
 30
0.0
 40
0.5000000000002282
100
AcDbArc
 50
269.9999968161705
 51
90.00000096508106
  0
LINE
  5
84C
330
7C1
100
AcDbEntity
  8
2
  6
DASHED2
 62
     7
100
AcDbLine
 10
-269.4440104955152
 20
-162.0483182656915
 30
0.0
 11
-267.4440104955152
 21
-162.0483185353494
 31
0.0
  0
LINE
  5
84D
330
7C1
100
AcDbEntity
  8
2
  6
DASHED2
 62
     7
100
AcDbLine
 10
-268.2440104839827
 20
-163.0483182656915
 30
0.0
 11
-267.4440104955152
 21
-163.0483185353497
 31
0.0
  0
ARC
  5
84E
330
7C1
100
AcDbEntity
  8
____1
  6
DASHED2
 62
     7
100
AcDbCircle
 10
-269.4440104955152
 20
-162.5483182656915
 30
0.0
 40
0.5
100
AcDbArc
 50
90.0
 51
180.0
  0
LINE
  5
84F
330
7C1
100
AcDbEntity
  8
2
  6
DASHED2
 62
     7
100
AcDbLine
 10
-261.4440104955162
 20
-161.0483184578228
 30
0.0
 11
-260.2440104955155
 21
-161.0483184578228
 31
0.0
  0
LINE
  5
850
330
7C1
100
AcDbEntity
  8
____1
  6
DASHED2
 62
     7
100
AcDbLine
 10
-256.9440104955153
 20
-150.5483184578228
 30
0.0
 11
-256.9440104955153
 21
-160.0483184578228
 31
0.0
  0
ARC
  5
851
330
7C1
100
AcDbEntity
  8
____1
  6
DASHED2
 62
     7
100
AcDbCircle
 10
-257.9440104955153
 20
-160.0483184578228
 30
0.0
 40
0.9999999999999763
100
AcDbArc
 50
284.4775121859303
 51
0.0
  0
LINE
  5
852
330
7C1
100
AcDbEntity
  8
____1
  6
DASHED2
 62
     7
100
AcDbLine
 10
-257.9440104955153
 20
-153.9483184578228
 30
0.0
 11
-257.9440104955153
 21
-160.8229151270642
 31
0.0
  0
POLYLINE
  5
853
330
7C1
100
AcDbEntity
  8
____1
  6
DASHED2
 62
     7
100
AcDb3dPolyline
 66
     1
 10
0.0
 20
0.0
 30
0.0
 70
     8
  0
VERTEX
  5
854
330
853
100
AcDbEntity
  8
____1
 62
     7
100
AcDbVertex
100
AcDb3dPolylineVertex
 10
-257.6940104955153
 20
-161.0165642943746
 30
0.0
 70
    32
  0
VERTEX
  5
855
330
853
100
AcDbEntity
  8
____1
 62
     7
100
AcDbVertex
100
AcDb3dPolylineVertex
 10
-257.8455857958324
 20
-160.9952011054999
 30
0.0
 70
    32
  0
VERTEX
  5
856
330
853
100
AcDbEntity
  8
____1
 62
     7
100
AcDbVertex
100
AcDb3dPolylineVertex
 10
-257.9376596628259
 20
-160.8729151270642
 30
0.0
 70
    32
  0
VERTEX
  5
857
330
853
100
AcDbEntity
  8
____1
 62
     7
100
AcDbVertex
100
AcDb3dPolylineVertex
 10
-257.9440104955156
 20
-160.822915127064
 30
0.0
 70
    32
  0
SEQEND
  5
858
330
853
100
AcDbEntity
  8
____1
 62
     7
  0
LINE
  5
859
330
7C1
100
AcDbEntity
  8
2
  6
DASHED2
 62
     7
100
AcDbLine
 10
-255.6440104955152
 20
-162.0483185353494
 30
0.0
 11
-257.4440104955152
 21
-162.0483185353494
 31
0.0
  0
LINE
  5
85A
330
7C1
100
AcDbEntity
  8
2
  6
DASHED2
 62
     7
100
AcDbLine
 10
-255.6440104955152
 20
-163.0483185353497
 30
0.0
 11
-257.4440104955152
 21
-163.0483185353497
 31
0.0
  0
ARC
  5
85B
330
7C1
100
AcDbEntity
  8
____1
  6
DASHED2
 62
     7
100
AcDbCircle
 10
-257.4440104955152
 20
-162.5483185353497
 30
0.0
 40
0.5000000000000066
100
AcDbArc
 50
90.00000926417881
 51
269.9999949911407
  0
ARC
  5
85C
330
7C1
100
AcDbEntity
  8
____1
  6
DASHED2
 62
     7
100
AcDbCircle
 10
-255.6440103545794
 20
-163.2483185353494
 30
0.0
 40
0.1999999999998181
100
AcDbArc
 50
0.0
 51
90.0
  0
ARC
  5
85D
330
7C1
100
AcDbEntity
  8
____1
  6
DASHED2
 62
     7
100
AcDbCircle
 10
-255.6440103545794
 20
-163.2483185353494
 30
0.0
 40
0.1999999999998181
100
AcDbArc
 50
0.0
 51
90.0
  0
LINE
  5
85E
330
7C1
100
AcDbEntity
  8
____1
  6
DASHED2
 62
     7
100
AcDbLine
 10
-254.4440105209984
 20
-138.6983206169144
 30
0.0
 11
-254.4440105209984
 21
-168.3983206169144
 31
0.0
  0
LINE
  5
85F
330
7C1
100
AcDbEntity
  8
____1
  6
DASHED2
 62
     7
100
AcDbLine
 10
-252.8440105209986
 20
-138.6983206169144
 30
0.0
 11
-254.4440105209984
 21
-138.6983206169144
 31
0.0
  0
LINE
  5
860
330
7C1
100
AcDbEntity
  8
____1
  6
DASHED2
 62
     7
100
AcDbLine
 10
-252.8440105209986
 20
-168.3983206169144
 30
0.0
 11
-252.8440105209986
 21
-138.6983206169144
 31
0.0
  0
LINE
  5
861
330
7C1
100
AcDbEntity
  8
____1
  6
DASHED2
 62
     7
100
AcDbLine
 10
-254.4440105209984
 20
-168.3983206169144
 30
0.0
 11
-252.8440105209986
 21
-168.3983206169144
 31
0.0
  0
ARC
  5
862
330
7C1
100
AcDbEntity
  8
____1
  6
DASHED2
 62
     7
100
AcDbCircle
 10
-279.6440104955149
 20
-167.0483205353496
 30
0.0
 40
0.5
100
AcDbArc
 50
90.0
 51
180.0
  0
LINE
  5
863
330
7C1
100
AcDbEntity
  8
____1
  6
DASHED2
 62
     7
100
AcDbLine
 10
-346.9440105217976
 20
-168.848334457163
 30
0.0
 11
-346.9440105217976
 21
-175.4483184357094
 31
0.0
  0
LINE
  5
864
330
7C1
100
AcDbEntity
  8
____1
  6
DASHED2
 62
     7
100
AcDbLine
 10
-320.9440105217977
 20
-158.9483184357095
 30
0.0
 11
-318.9440105217977
 21
-158.9483184357095
 31
0.0
  0
LINE
  5
865
330
7C1
100
AcDbEntity
  8
____1
  6
DASHED2
 62
     7
100
AcDbLine
 10
-346.9440105217975
 20
-158.9483184357094
 30
0.0
 11
-320.9440105217977
 21
-158.9483184357095
 31
0.0
  0
LINE
  5
866
330
7C1
100
AcDbEntity
  8
____1
  6
DASHED2
 62
     7
100
AcDbLine
 10
-346.9440105217975
 20
-156.9483184357093
 30
0.0
 11
-320.9440105217977
 21
-156.9483184357086
 31
0.0
  0
LINE
  5
867
330
7C1
100
AcDbEntity
  8
____1
  6
DASHED2
 62
     7
100
AcDbLine
 10
-320.9440105217977
 20
-139.948318457823
 30
0.0
 11
-320.9440105217977
 21
-138.948318457823
 31
0.0
  0
LINE
  5
868
330
7C1
100
AcDbEntity
  8
____1
  6
DASHED2
 62
     7
100
AcDbLine
 10
-330.9090897523061
 20
-148.9483184578229
 30
0.0
 11
-327.6940105217978
 21
-148.9483184578229
 31
0.0
  0
LINE
  5
869
330
7C1
100
AcDbEntity
  8
____1
  6
DASHED2
 62
     7
100
AcDbLine
 10
-327.3940105217977
 20
-141.948318457823
 30
0.0
 11
-327.3940105217977
 21
-148.6483184578227
 31
0.0
  0
LINE
  5
86A
330
7C1
100
AcDbEntity
  8
____1
  6
DASHED2
 62
     7
100
AcDbLine
 10
-336.9541211374614
 20
-149.6587883068341
 30
0.0
 11
-337.2233766777317
 21
-141.948318457823
 31
0.0
  0
LINE
  5
86B
330
7C1
100
AcDbEntity
  8
____1
  6
DASHED2
 62
     7
100
AcDbLine
 10
-322.9440105217979
 20
-175.4483184357094
 30
0.0
 11
-322.9440105217977
 21
-156.9483184357086
 31
0.0
  0
LINE
  5
86C
330
7C1
100
AcDbEntity
  8
____1
  6
DASHED2
 62
     7
100
AcDbLine
 10
-344.9440105217975
 20
-156.9483184357095
 30
0.0
 11
-344.9440105217976
 21
-175.4483184357094
 31
0.0
  0
LINE
  5
86D
330
7C1
100
AcDbEntity
  8
2
  6
DASHED2
 62
     7
100
AcDbLine
 10
-250.4440104955152
 20
-137.248320698479
 30
0.0
 11
-254.9440105217977
 21
-137.248320698479
 31
0.0
  0
ARC
  5
86E
330
7C1
100
AcDbEntity
  8
____1
  6
DASHED2
 62
     7
100
AcDbCircle
 10
-253.0440105217977
 20
-138.7483206984792
 30
0.0
 40
0.1999999999998181
100
AcDbArc
 50
0.0
 51
90.0
  0
LINE
  5
86F
330
7C1
100
AcDbEntity
  8
2
  6
DASHED2
 62
     7
100
AcDbLine
 10
-252.8440105217978
 20
-138.7483206984792
 30
0.0
 11
-252.8440105217978
 21
-140.0483204825412
 31
0.0
  0
ARC
  5
870
330
7C1
100
AcDbEntity
  8
____1
  6
DASHED2
 62
     7
100
AcDbCircle
 10
-252.3440105217978
 20
-140.0483206984789
 30
0.0
 40
0.5000000000000468
100
AcDbArc
 50
179.9999752553635
 51
0.0000258580231443
  0
LINE
  5
871
330
7C1
100
AcDbEntity
  8
2
  6
DASHED2
 62
     7
100
AcDbLine
 10
-251.8440105217978
 20
-138.848320698479
 30
0.0
 11
-251.8440105217978
 21
-140.048320924133
 31
0.0
  0
LINE
  5
872
330
7C1
100
AcDbEntity
  8
____1
  6
DASHED2
 62
     7
100
AcDbLine
 10
-338.1440105217976
 20
-154.9483184357086
 30
0.0
 11
-338.1440105217976
 21
-156.9483184357095
 31
0.0
  0
LINE
  5
873
330
7C1
100
AcDbEntity
  8
____1
  6
DASHED2
 62
     7
100
AcDbLine
 10
-348.9440105217975
 20
-154.9483184357093
 30
0.0
 11
-348.9440105217975
 21
-158.9483184357094
 31
0.0
  0
LINE
  5
874
330
7C1
100
AcDbEntity
  8
____1
  6
DASHED2
 62
     7
100
AcDbLine
 10
-318.9440105217977
 20
-158.9483184357095
 30
0.0
 11
-318.9440105217977
 21
-154.9483184357095
 31
0.0
  0
LINE
  5
875
330
7C1
100
AcDbEntity
  8
____1
  6
DASHED2
 62
     7
100
AcDbLine
 10
-318.9440105217977
 20
-154.9483184357095
 30
0.0
 11
-348.9440105217975
 21
-154.9483184357093
 31
0.0
  0
LINE
  5
876
330
7C1
100
AcDbEntity
  8
____1
  6
DASHED2
 62
     7
100
AcDbLine
 10
-331.7440105217977
 20
-154.9483184357086
 30
0.0
 11
-331.7440105217977
 21
-158.9483184357095
 31
0.0
  0
LINE
  5
877
330
7C1
100
AcDbEntity
  8
2
  6
DASHED2
 62
     7
100
AcDbLine
 10
-255.4440104955152
 20
-137.7483205711293
 30
0.0
 11
-255.4440104955152
 21
-161.8483185353496
 31
0.0
  0
ARC
  5
878
330
7C1
100
AcDbEntity
  8
2
  6
DASHED2
 62
     7
100
AcDbCircle
 10
-254.9440104955152
 20
-137.748320698479
 30
0.0
 40
0.5000000000000007
100
AcDbArc
 50
90.00000301176156
 51
179.9999854067707
  0
ARC
  5
879
330
7C1
100
AcDbEntity
  8
____1
  6
DASHED2
 62
     7
100
AcDbCircle
 10
-255.6440104955152
 20
-168.3483205353496
 30
0.0
 40
0.1999999999998181
100
AcDbArc
 50
270.0
 51
359.9999624594805
  0
ARC
  5
87A
330
7C1
100
AcDbEntity
  8
____1
  6
DASHED2
 62
     7
100
AcDbCircle
 10
-255.6440104955152
 20
-161.8483185353496
 30
0.0
 40
0.1999999999998181
100
AcDbArc
 50
270.0
 51
0.0
  0
ARC
  5
87B
330
7C1
100
AcDbEntity
  8
____1
  6
DASHED2
 62
     7
100
AcDbCircle
 10
-279.6440104955149
 20
-169.0483205353494
 30
0.0
 40
0.5
100
AcDbArc
 50
180.0
 51
270.0
  0
LINE
  5
87C
330
7C1
100
AcDbEntity
  8
____1
  6
DASHED2
 62
     7
100
AcDbLine
 10
-346.9440105217977
 20
-138.9483184578228
 30
0.0
 11
-346.9440105217977
 21
-139.9483184578228
 31
0.0
  0
LINE
  5
87D
330
7C1
100
AcDbEntity
  8
____1
  6
DASHED2
 62
     7
100
AcDbLine
 10
-346.9440105217977
 20
-138.9483184578228
 30
0.0
 11
-320.9440105217977
 21
-138.948318457823
 31
0.0
  0
LINE
  5
87E
330
7C1
100
AcDbEntity
  8
____1
  6
DASHED2
 62
     7
100
AcDbLine
 10
-346.9440105217977
 20
-139.9483184578228
 30
0.0
 11
-320.9440105217977
 21
-139.948318457823
 31
0.0
  0
LINE
  5
87F
330
7C1
100
AcDbEntity
  8
____1
  6
DASHED2
 62
     7
100
AcDbLine
 10
-323.4440105217978
 20
-141.948318457823
 30
0.0
 11
-344.4440105217978
 21
-141.948318457823
 31
0.0
  0
LINE
  5
880
330
7C1
100
AcDbEntity
  8
____1
  6
DASHED2
 62
     7
100
AcDbLine
 10
-323.4440105217978
 20
-141.948318457823
 30
0.0
 11
-323.4440105217978
 21
-139.948318457823
 31
0.0
  0
LINE
  5
881
330
7C1
100
AcDbEntity
  8
____1
  6
DASHED2
 62
     7
100
AcDbLine
 10
-346.9440105217975
 20
-158.9483184357094
 30
0.0
 11
-346.9440105217976
 21
-168.848334457163
 31
0.0
  0
LINE
  5
882
330
7C1
100
AcDbEntity
  8
____1
  6
DASHED2
 62
     7
100
AcDbLine
 10
-320.9440105217977
 20
-156.9483184357086
 30
0.0
 11
-320.9440105217977
 21
-154.9483184357095
 31
0.0
  0
LINE
  5
883
330
7C1
100
AcDbEntity
  8
____1
  6
DASHED2
 62
     7
100
AcDbLine
 10
-330.9338999061341
 20
-149.6587883068341
 30
0.0
 11
-330.6646443658638
 21
-141.948318457823
 31
0.0
  0
ARC
  5
884
330
7C1
100
AcDbEntity
  8
____1
  6
DASHED2
 62
     7
100
AcDbCircle
 10
-341.9440105217976
 20
-175.4483184357094
 30
0.0
 40
2.999999999999971
100
AcDbArc
 50
180.0
 51
270.0
  0
LINE
  5
885
330
7C1
100
AcDbEntity
  8
____1
  6
DASHED2
 62
     7
100
AcDbLine
 10
-341.9440105217976
 20
-178.4483184357093
 30
0.0
 11
-325.9440105217978
 21
-178.4483184357094
 31
0.0
  0
ARC
  5
886
330
7C1
100
AcDbEntity
  8
____1
  6
DASHED2
 62
     7
100
AcDbCircle
 10
-268.2440104385546
 20
-163.2483182656916
 30
0.0
 40
0.1999999999998181
100
AcDbArc
 50
90.00001301419874
 51
180.0
  0
LINE
  5
887
330
7C1
100
AcDbEntity
  8
2
  6
DASHED2
 62
     7
100
AcDbLine
 10
-268.4440104385544
 20
-163.2483182656916
 30
0.0
 11
-268.4440104955152
 21
-168.3483202656917
 31
0.0
  0
ARC
  5
888
330
7C1
100
AcDbEntity
  8
____1
  6
DASHED2
 62
     7
100
AcDbCircle
 10
-252.3440104955152
 20
-167.0483212234467
 30
0.0
 40
0.5000000000000468
100
AcDbArc
 50
359.9999741419769
 51
180.0000247446364
  0
LINE
  5
889
330
7C1
100
AcDbEntity
  8
2
  6
DASHED2
 62
     7
100
AcDbLine
 10
-252.8440104955151
 20
-168.3483205353494
 30
0.0
 11
-252.8440104955151
 21
-167.0483214393844
 31
0.0
  0
LINE
  5
88A
330
7C1
100
AcDbEntity
  8
2
  6
DASHED2
 62
     7
100
AcDbLine
 10
-251.8440104955153
 20
-169.0483205353496
 30
0.0
 11
-251.8440104955153
 21
-167.0483209977926
 31
0.0
  0
ARC
  5
88B
330
7C1
100
AcDbEntity
  8
____1
  6
DASHED2
 62
     7
100
AcDbCircle
 10
-325.9440105217978
 20
-175.4483184357094
 30
0.0
 40
4.999999999999943
100
AcDbArc
 50
270.0
 51
0.0
  0
ARC
  5
88C
330
7C1
100
AcDbEntity
  8
____1
  6
DASHED2
 62
     7
100
AcDbCircle
 10
-336.0440105217979
 20
-174.6483184578227
 30
0.0
 40
0.3000000000001819
100
AcDbArc
 50
180.0
 51
270.0
  0
ARC
  5
88D
330
7C1
100
AcDbEntity
  8
____1
  6
DASHED2
 62
     7
100
AcDbCircle
 10
-331.8440105217978
 20
-174.6483184578227
 30
0.0
 40
0.2999999999999545
100
AcDbArc
 50
270.0
 51
0.0
  0
ARC
  5
88E
330
7C1
100
AcDbEntity
  8
____1
  6
DASHED2
 62
     7
100
AcDbCircle
 10
-336.6543038893557
 20
-149.6483184578227
 30
0.0
 40
0.3000000000001819
100
AcDbArc
 50
182.0000000001081
 51
270.0
  0
ARC
  5
88F
330
7C1
100
AcDbEntity
  8
____1
  6
DASHED2
 62
     7
100
AcDbCircle
 10
-326.9440105217977
 20
-158.698318457823
 30
0.0
 40
0.5
100
AcDbArc
 50
270.0
 51
0.0
  0
LINE
  5
890
330
7C1
100
AcDbEntity
  8
2
  6
DASHED2
 62
     7
100
AcDbLine
 10
-255.4440103545796
 20
-163.2483185353494
 30
0.0
 11
-255.4440104955152
 21
-168.3483206663907
 31
0.0
  0
ARC
  5
891
330
7C1
100
AcDbEntity
  8
____1
  6
DASHED2
 62
     7
100
AcDbCircle
 10
-253.0440104955151
 20
-168.3483205353494
 30
0.0
 40
0.1999999999998181
100
AcDbArc
 50
270.0001044852008
 51
0.0
  0
LINE
  5
892
330
7C1
100
AcDbEntity
  8
____1
  6
DASHED2
 62
     7
100
AcDbLine
 10
-348.9440105217975
 20
-158.9483184357094
 30
0.0
 11
-346.9440105217975
 21
-158.9483184357094
 31
0.0
  0
LINE
  5
893
330
7C1
100
AcDbEntity
  8
____1
  6
DASHED2
 62
     7
100
AcDbLine
 10
-320.9440105217977
 20
-168.848334457163
 30
0.0
 11
-320.9440105217977
 21
-158.9483184357095
 31
0.0
  0
LINE
  5
894
330
7C1
100
AcDbEntity
  8
____1
  6
DASHED2
 62
     7
100
AcDbLine
 10
-320.9440105217979
 20
-175.4483184357094
 30
0.0
 11
-320.9440105217977
 21
-168.848334457163
 31
0.0
  0
LINE
  5
895
330
7C1
100
AcDbEntity
  8
____1
  6
DASHED2
 62
     7
100
AcDbLine
 10
-336.3440105217977
 20
-156.698318457823
 30
0.0
 11
-340.9440105217978
 21
-156.698318457823
 31
0.0
  0
LINE
  5
896
330
7C1
100
AcDbEntity
  8
____1
  6
DASHED2
 62
     7
100
AcDbLine
 10
-336.3440105217977
 20
-159.1983184578229
 30
0.0
 11
-340.9440105217978
 21
-159.1983184578229
 31
0.0
  0
ARC
  5
897
330
7C1
100
AcDbEntity
  8
____1
  6
DASHED2
 62
     7
100
AcDbCircle
 10
-340.1940105217978
 20
-148.6483184578227
 30
0.0
 40
0.3000000000001819
100
AcDbArc
 50
180.0
 51
270.0
  0
LINE
  5
898
330
7C1
100
AcDbEntity
  8
____1
  6
DASHED2
 62
     7
100
AcDbLine
 10
-340.4940105217978
 20
-141.948318457823
 30
0.0
 11
-340.4940105217978
 21
-148.6483184578227
 31
0.0
  0
LINE
  5
899
330
7C1
100
AcDbEntity
  8
____1
  6
DASHED2
 62
     7
100
AcDbLine
 10
-336.9789312912895
 20
-148.9483184578229
 30
0.0
 11
-340.1940105217978
 21
-148.9483184578229
 31
0.0
  0
LINE
  5
89A
330
7C1
100
AcDbEntity
  8
____1
  6
DASHED2
 62
     7
100
AcDbLine
 10
-346.9440105217975
 20
-154.9483184357093
 30
0.0
 11
-346.9440105217975
 21
-156.9483184357093
 31
0.0
  0
ARC
  5
89B
330
7C1
100
AcDbEntity
  8
____1
  6
DASHED2
 62
     7
100
AcDbCircle
 10
-266.1440104915015
 20
-165.2867960889077
 30
0.0
 40
0.2000000000000096
100
AcDbArc
 50
225.0000000000115
 51
0.0000138547363879
  0
ARC
  5
89C
330
7C1
100
AcDbEntity
  8
____1
  6
DASHED2
 62
     7
100
AcDbCircle
 10
-258.7440104915016
 20
-165.2867960889077
 30
0.0
 40
0.2000000000000096
100
AcDbArc
 50
179.9999649992344
 51
314.9999999999886
  0
ARC
  5
89D
330
7C1
100
AcDbEntity
  8
____1
  6
DASHED2
 62
     7
100
AcDbCircle
 10
-256.1940104915014
 20
-161.5483184578228
 30
0.0
 40
0.5
100
AcDbArc
 50
0.0
 51
90.0
  0
LINE
  5
89E
330
7C1
100
AcDbEntity
  8
____1
  6
DASHED2
 62
     7
100
AcDbLine
 10
-255.6940104915014
 20
-161.8483184578228
 30
0.0
 11
-255.6940104915014
 21
-161.5483184578228
 31
0.0
  0
ARC
  5
89F
330
7C1
100
AcDbEntity
  8
____1
  6
DASHED2
 62
     7
100
AcDbCircle
 10
-325.9440105217978
 20
-175.4483184357094
 30
0.0
 40
2.999999999999971
100
AcDbArc
 50
270.0
 51
0.0
  0
LINE
  5
8A0
330
7C1
100
AcDbEntity
  8
____1
  6
DASHED2
 62
     7
100
AcDbLine
 10
-331.5440105217978
 20
-149.9483184578229
 30
0.0
 11
-331.5440105217979
 21
-174.6483184578227
 31
0.0
  0
LINE
  5
8A1
330
7C1
100
AcDbEntity
  8
____1
  6
DASHED2
 62
     7
100
AcDbLine
 10
-336.3440105217977
 20
-149.9483184578229
 30
0.0
 11
-336.3440105217978
 21
-174.6483184578227
 31
0.0
  0
LINE
  5
8A2
330
7C1
100
AcDbEntity
  8
____1
  6
DASHED2
 62
     7
100
AcDbLine
 10
-329.7440105217977
 20
-154.9483184357086
 30
0.0
 11
-329.7440105217977
 21
-156.9483184357095
 31
0.0
  0
LINE
  5
8A3
330
7C1
100
AcDbEntity
  8
____1
  6
DASHED2
 62
     7
100
AcDbLine
 10
-336.1440105217976
 20
-154.9483184357086
 30
0.0
 11
-336.1440105217976
 21
-158.9483184357095
 31
0.0
  0
LINE
  5
8A4
330
7C1
100
AcDbEntity
  8
2
  6
DASHED2
 62
     7
100
AcDbLine
 10
-280.1440104955148
 20
-167.0483205353496
 30
0.0
 11
-280.1440104955148
 21
-169.0483205353494
 31
0.0
  0
LINE
  5
8A5
330
7C1
100
AcDbEntity
  8
____1
  6
DASHED2
 62
     7
100
AcDbLine
 10
-323.4440105217978
 20
-137.948318457823
 30
0.0
 11
-344.4440105217978
 21
-137.9483184578228
 31
0.0
  0
ARC
  5
8A6
330
7C1
100
AcDbEntity
  8
____1
  6
DASHED2
 62
     7
100
AcDbCircle
 10
-252.3440104955152
 20
-169.0483205353496
 30
0.0
 40
0.5
100
AcDbArc
 50
270.0
 51
0.0
  0
LINE
  5
8A7
330
7C1
100
AcDbEntity
  8
2
  6
DASHED2
 62
     7
100
AcDbLine
 10
-244.144010521798
 20
-139.0483206984792
 30
0.0
 11
-246.4440105217977
 21
-139.0483206984792
 31
0.0
  0
ARC
  5
8A8
330
7C1
100
AcDbEntity
  8
____1
  6
DASHED2
 62
     7
100
AcDbCircle
 10
-281.4440104955163
 20
-168.5483203124993
 30
0.0
 40
2.0
100
AcDbArc
 50
90.0
 51
180.0
  0
ARC
  5
8A9
330
7C1
100
AcDbEntity
  8
____1
  6
DASHED2
 62
     7
100
AcDbCircle
 10
-327.6940105217978
 20
-148.6483184578227
 30
0.0
 40
0.3000000000001819
100
AcDbArc
 50
270.0
 51
0.0
  0
LINE
  5
8AA
330
7C1
100
AcDbEntity
  8
____1
  6
DASHED2
 62
     7
100
AcDbLine
 10
-344.4440105217978
 20
-141.948318457823
 30
0.0
 11
-344.4440105217978
 21
-139.9483184578228
 31
0.0
  0
ARC
  5
8AB
330
7C1
100
AcDbEntity
  8
____1
  6
DASHED2
 62
     7
100
AcDbCircle
 10
-331.2337171542399
 20
-149.6483184578227
 30
0.0
 40
0.3000000000000873
100
AcDbArc
 50
270.0
 51
357.9999999998927
  0
LINE
  5
8AC
330
7C1
100
AcDbEntity
  8
____1
  6
DASHED2
 62
     7
100
AcDbLine
 10
-331.2337171542399
 20
-149.9483184578229
 30
0.0
 11
-336.6543038893557
 21
-149.9483184578229
 31
0.0
  0
LINE
  5
8AD
330
7C1
100
AcDbEntity
  8
____1
  6
DASHED2
 62
     7
100
AcDbLine
 10
-341.4440105217977
 20
-145.948318457823
 30
0.0
 11
-326.4440105217979
 21
-145.948318457823
 31
0.0
  0
LINE
  5
8AE
330
7C1
100
AcDbEntity
  8
____1
  6
DASHED2
 62
     7
100
AcDbLine
 10
-266.2854318477388
 20
-165.428217445145
 30
0.0
 11
-266.7046707411518
 21
-165.008978551732
 31
0.0
  0
ARC
  5
8AF
330
7C1
100
AcDbEntity
  8
____1
  6
DASHED2
 62
     7
100
AcDbCircle
 10
-257.8440104915016
 20
-162.3483184578228
 30
0.0
 40
0.2999999999999545
100
AcDbArc
 50
90.0
 51
180.0
  0
LINE
  5
8B0
330
7C1
100
AcDbEntity
  8
____1
  6
DASHED2
 62
     7
100
AcDbLine
 10
-258.1440104915015
 20
-162.3483184578228
 30
0.0
 11
-258.1440104915015
 21
-162.9285145551041
 31
0.0
  0
ARC
  5
8B1
330
7C1
100
AcDbEntity
  8
____1
  6
DASHED2
 62
     7
100
AcDbCircle
 10
-259.2440104915016
 20
-163.9483184578227
 30
0.0
 40
1.500000000000041
100
AcDbArc
 50
315.0000114533794
 51
42.83342806606607
  0
LINE
  5
8B2
330
7C1
100
AcDbEntity
  8
____1
  6
DASHED2
 62
     7
100
AcDbLine
 10
-258.6025891352642
 20
-165.428217445145
 30
0.0
 11
-258.1833501076966
 21
-165.0089784175774
 31
0.0
  0
LINE
  5
8B3
330
7C1
100
AcDbEntity
  8
____1
  6
DASHED2
 62
     7
100
AcDbLine
 10
-258.9440104915015
 20
-163.5483184578228
 30
0.0
 11
-265.9440104915015
 21
-163.5483184578228
 31
0.0
  0
LINE
  5
8B4
330
7C1
100
AcDbEntity
  8
____1
  6
DASHED2
 62
     7
100
AcDbLine
 10
-258.9440104915015
 20
-164.5483184578228
 30
0.0
 11
-265.9440104915015
 21
-164.5483184578228
 31
0.0
  0
LINE
  5
8B5
330
7C1
100
AcDbEntity
  8
____1
  6
DASHED2
 62
     7
100
AcDbLine
 10
-265.9440104915015
 20
-164.5483184578228
 30
0.0
 11
-265.9440104915015
 21
-165.2867960405455
 31
0.0
  0
LINE
  5
8B6
330
7C1
100
AcDbEntity
  8
____1
  6
DASHED2
 62
     7
100
AcDbLine
 10
-258.9440104915015
 20
-164.5483184578228
 30
0.0
 11
-258.9440104915015
 21
-165.2867959667319
 31
0.0
  0
LINE
  5
8B7
330
7C1
100
AcDbEntity
  8
____1
  6
DASHED2
 62
     7
100
AcDbLine
 10
-267.0440104987049
 20
-162.0483184578228
 30
0.0
 11
-268.9940103806764
 21
-162.0483184578228
 31
0.0
  0
LINE
  5
8B8
330
7C1
100
AcDbEntity
  8
____1
  6
DASHED2
 62
     7
100
AcDbLine
 10
-341.4440105217979
 20
-157.1983184578229
 30
0.0
 11
-341.4440105217979
 21
-158.698318457823
 31
0.0
  0
ARC
  5
8B9
330
7C1
100
AcDbEntity
  8
____1
  6
DASHED2
 62
     7
100
AcDbCircle
 10
-340.9440105217978
 20
-158.698318457823
 30
0.0
 40
0.5
100
AcDbArc
 50
180.0
 51
270.0
  0
ARC
  5
8BA
330
7C1
100
AcDbEntity
  8
____1
  6
DASHED2
 62
     7
100
AcDbCircle
 10
-340.9440105217978
 20
-157.1983184578229
 30
0.0
 40
0.5
100
AcDbArc
 50
90.0
 51
180.0
  0
LINE
  5
8BB
330
7C1
100
AcDbEntity
  8
____1
  6
DASHED2
 62
     7
100
AcDbLine
 10
-341.9440105217976
 20
-180.4483184357093
 30
0.0
 11
-325.9440105217978
 21
-180.4483184357094
 31
0.0
  0
ARC
  5
8BC
330
7C1
100
AcDbEntity
  8
____1
  6
DASHED2
 62
     7
100
AcDbCircle
 10
-341.9440105217976
 20
-175.4483184357094
 30
0.0
 40
4.999999999999943
100
AcDbArc
 50
180.0
 51
270.0
  0
ARC
  5
8BD
330
7C1
100
AcDbEntity
  8
____1
  6
DASHED2
 62
     7
100
AcDbCircle
 10
-267.0440104915015
 20
-162.3483184578228
 30
0.0
 40
0.2999999999999545
100
AcDbArc
 50
0.0
 51
90.0
  0
ARC
  5
8BE
330
7C1
100
AcDbEntity
  8
____1
  6
DASHED2
 62
     7
100
AcDbCircle
 10
-268.9940104915016
 20
-161.8483184578228
 30
0.0
 40
0.1999999999999625
100
AcDbArc
 50
180.0
 51
270.0000317490724
  0
LINE
  5
8BF
330
7C1
100
AcDbEntity
  8
____1
  6
DASHED2
 62
     7
100
AcDbLine
 10
-255.8940095883125
 20
-162.0483184578228
 30
0.0
 11
-257.8440104842981
 21
-162.0483184578228
 31
0.0
  0
ARC
  5
8C0
330
7C1
100
AcDbEntity
  8
____1
  6
DASHED2
 62
     7
100
AcDbCircle
 10
-255.8940104915014
 20
-161.8483184578226
 30
0.0
 40
0.1999999999999248
100
AcDbArc
 50
270.000258744574
 51
0.0
  0
LINE
  5
8C1
330
7C1
100
AcDbEntity
  8
____1
  6
DASHED2
 62
     7
100
AcDbLine
 10
-265.6940104915015
 20
-163.5483184578228
 30
0.0
 11
-259.1940104915015
 21
-163.5483184578228
 31
0.0
  0
LINE
  5
8C2
330
7C1
100
AcDbEntity
  8
____1
  6
DASHED2
 62
     7
100
AcDbLine
 10
-259.1940104915015
 20
-163.5483184578228
 30
0.0
 11
-259.1940104915015
 21
-161.0483184578228
 31
0.0
  0
LINE
  5
8C3
330
7C1
100
AcDbEntity
  8
____1
  6
DASHED2
 62
     7
100
AcDbLine
 10
-259.1940104915015
 20
-161.0483184578228
 30
0.0
 11
-265.6940104915015
 21
-161.0483184578228
 31
0.0
  0
LINE
  5
8C4
330
7C1
100
AcDbEntity
  8
____1
  6
DASHED2
 62
     7
100
AcDbLine
 10
-265.6940104915015
 20
-161.0483184578228
 30
0.0
 11
-265.6940104915015
 21
-163.5483184578228
 31
0.0
  0
ARC
  5
8C5
330
7C1
100
AcDbEntity
  8
____1
  6
DASHED2
 62
     7
100
AcDbCircle
 10
-246.9440105217977
 20
-139.0483206984792
 30
0.0
 40
0.5
100
AcDbArc
 50
0.0
 51
90.0
  0
ARC
  5
8C6
330
7C1
100
AcDbEntity
  8
____1
  6
DASHED2
 62
     7
100
AcDbCircle
 10
-268.6940104915015
 20
-161.5483184578228
 30
0.0
 40
0.5
100
AcDbArc
 50
90.0
 51
180.0
  0
LINE
  5
8C7
330
7C1
100
AcDbEntity
  8
2
  6
DASHED2
 62
     7
100
AcDbLine
 10
-266.4440104955152
 20
-139.3718820020143
 30
0.0
 11
-266.4440104955152
 21
-139.7483184578228
 31
0.0
  0
LINE
  5
8C8
330
7C1
100
AcDbEntity
  8
2
  6
DASHED2
 62
     7
100
AcDbLine
 10
-255.9440104955152
 20
-138.4483186209523
 30
0.0
 11
-255.9440104955152
 21
-141.9483184578228
 31
0.0
  0
LINE
  5
8C9
330
7C1
100
AcDbEntity
  8
____1
  6
DASHED2
 62
     7
100
AcDbLine
 10
-255.9440104955152
 20
-141.9483184578228
 30
0.0
 11
-256.9440104955152
 21
-143.6803692653919
 31
0.0
  0
LINE
  5
8CA
330
7C1
100
AcDbEntity
  8
____1
  6
DASHED2
 62
     7
100
AcDbLine
 10
-323.4440105217978
 20
-137.948318457823
 30
0.0
 11
-320.9440105217977
 21
-138.948318457823
 31
0.0
  0
LINE
  5
8CB
330
7C1
100
AcDbEntity
  8
____1
  6
DASHED2
 62
     7
100
AcDbLine
 10
-344.4440105217978
 20
-137.9483184578228
 30
0.0
 11
-346.9440105217977
 21
-138.9483184578228
 31
0.0
  0
LINE
  5
8CC
330
7C1
100
AcDbEntity
  8
____1
  6
DASHED2
 62
     7
100
AcDbLine
 10
-289.9440104955145
 20
-440.5483203124994
 30
0.0
 11
-304.9440104955155
 21
-440.5483203124994
 31
0.0
  0
LINE
  5
8CD
330
7C1
100
AcDbEntity
  8
____1
  6
DASHED2
 62
     7
100
AcDbLine
 10
-366.698776012207
 20
-440.5483203124997
 30
0.0
 11
-369.5272031369536
 21
-440.5483203124997
 31
0.0
  0
LINE
  5
8CE
330
7C1
100
AcDbEntity
  8
____1
  6
DASHED2
 62
     7
100
AcDbLine
 10
-369.5272031369536
 20
-433.5483203124995
 30
0.0
 11
-369.5272031369536
 21
-440.5483203124997
 31
0.0
  0
LINE
  5
8CF
330
7C1
100
AcDbEntity
  8
____1
  6
DASHED2
 62
     7
100
AcDbLine
 10
-422.1892448657398
 20
-433.5483203124995
 30
0.0
 11
-437.4201974701412
 21
-433.5483203124995
 31
0.0
  0
LINE
  5
8D0
330
7C1
100
AcDbEntity
  8
____1
  6
DASHED2
 62
     7
100
AcDbLine
 10
-440.9440089934808
 20
-448.5483198053899
 30
0.0
 11
-437.9440089934809
 21
-448.5483197673568
 31
0.0
  0
LINE
  5
8D1
330
7C1
100
AcDbEntity
  8
____1
  6
DASHED2
 62
     7
100
AcDbLine
 10
-437.9440089934809
 20
-448.5483197673568
 30
0.0
 11
-437.4201974701412
 21
-433.5483203124995
 31
0.0
  0
ARC
  5
8D2
330
7C1
100
AcDbEntity
  8
____1
  6
DASHED2
 62
     7
100
AcDbCircle
 10
-291.4106771621824
 20
-426.5483203124993
 30
0.0
 40
1.133333333333212
100
AcDbArc
 50
118.0724869358415
 51
241.9275130641585
  0
LINE
  5
8D3
330
7C1
100
AcDbEntity
  8
____1
  6
DASHED2
 62
     7
100
AcDbLine
 10
-289.9440104955145
 20
-424.9483203124993
 30
0.0
 11
-283.4440104955163
 21
-424.9483203124993
 31
0.0
  0
LINE
  5
8D4
330
7C1
100
AcDbEntity
  8
____1
  6
DASHED2
 62
     7
100
AcDbLine
 10
-289.9440104955145
 20
-422.9483203124994
 30
0.0
 11
-283.4440104955145
 21
-422.9483203124994
 31
0.0
  0
LINE
  5
8D5
330
7C1
100
AcDbEntity
  8
____1
  6
DASHED2
 62
     7
100
AcDbLine
 10
-289.9440104955145
 20
-424.9483203124993
 30
0.0
 11
-289.9440104955145
 21
-440.5483203124994
 31
0.0
  0
LINE
  5
8D6
330
7C1
100
AcDbEntity
  8
____1
  6
DASHED2
 62
     7
100
AcDbLine
 10
-308.9440104389737
 20
-433.5483203124995
 30
0.0
 11
-308.9440104389737
 21
-440.5483203124997
 31
0.0
  0
LINE
  5
8D7
330
7C1
100
AcDbEntity
  8
____1
  6
DASHED2
 62
     7
100
AcDbLine
 10
-336.0440105217979
 20
-174.9483184578229
 30
0.0
 11
-331.8440105217978
 21
-174.9483184578229
 31
0.0
  0
LINE
  5
8D8
330
7C1
100
AcDbEntity
  8
____1
  6
DASHED2
 62
     7
100
AcDbLine
 10
-331.5440105217978
 20
-159.1983184578229
 30
0.0
 11
-326.9440105217977
 21
-159.1983184578229
 31
0.0
  0
LINE
  5
8D9
330
7C1
100
AcDbEntity
  8
____1
  6
DASHED2
 62
     7
100
AcDbLine
 10
-326.4440105217977
 20
-157.1983184578229
 30
0.0
 11
-326.4440105217977
 21
-158.698318457823
 31
0.0
  0
ARC
  5
8DA
330
7C1
100
AcDbEntity
  8
____1
  6
DASHED2
 62
     7
100
AcDbCircle
 10
-326.9440105217977
 20
-157.1983184578229
 30
0.0
 40
0.5
100
AcDbArc
 50
0.0
 51
90.0
  0
LINE
  5
8DB
330
7C1
100
AcDbEntity
  8
____1
  6
DASHED2
 62
     7
100
AcDbLine
 10
-331.5440105217978
 20
-156.698318457823
 30
0.0
 11
-326.9440105217977
 21
-156.698318457823
 31
0.0
  0
LINE
  5
8DC
330
7C1
100
AcDbEntity
  8
____1
  6
DASHED2
 62
     7
100
AcDbLine
 10
-269.1940104915015
 20
-161.5483184578228
 30
0.0
 11
-269.1940104915015
 21
-161.8483184578228
 31
0.0
  0
ARC
  5
8DD
330
7C1
100
AcDbEntity
  8
____1
  6
DASHED2
 62
     7
100
AcDbCircle
 10
-258.6440104915015
 20
-161.3483184578228
 30
0.0
 40
0.3000000000000114
100
AcDbArc
 50
90.0
 51
180.0
  0
LINE
  5
8DE
330
7C1
100
AcDbEntity
  8
____1
  6
DASHED2
 62
     7
100
AcDbLine
 10
-256.1940104915014
 20
-161.0483184578228
 30
0.0
 11
-258.6440104915015
 21
-161.0483184578228
 31
0.0
  0
LINE
  5
8DF
330
7C1
100
AcDbEntity
  8
____1
  6
DASHED2
 62
     7
100
AcDbLine
 10
-258.9440104915015
 20
-161.3483184578228
 30
0.0
 11
-258.9440104915015
 21
-163.5483184578228
 31
0.0
  0
ARC
  5
8E0
330
7C1
100
AcDbEntity
  8
____1
  6
DASHED2
 62
     7
100
AcDbCircle
 10
-266.2440104915016
 20
-161.3483184578228
 30
0.0
 40
0.3000000000000114
100
AcDbArc
 50
0.0
 51
90.0
  0
LINE
  5
8E1
330
7C1
100
AcDbEntity
  8
____1
  6
DASHED2
 62
     7
100
AcDbLine
 10
-265.9440104915015
 20
-161.3483184578228
 30
0.0
 11
-265.9440104915015
 21
-163.5483184578228
 31
0.0
  0
LINE
  5
8E2
330
7C1
100
AcDbEntity
  8
____1
  6
DASHED2
 62
     7
100
AcDbLine
 10
-266.2440104915016
 20
-161.0483184578228
 30
0.0
 11
-268.6940104915015
 21
-161.0483184578228
 31
0.0
  0
LINE
  5
8E3
330
7C1
100
AcDbEntity
  8
____1
  6
DASHED2
 62
     7
100
AcDbLine
 10
-266.7440104915016
 20
-162.3483184578228
 30
0.0
 11
-266.7440104915016
 21
-162.9285145551041
 31
0.0
  0
ARC
  5
8E4
330
7C1
100
AcDbEntity
  8
____1
  6
DASHED2
 62
     7
100
AcDbCircle
 10
-265.6440104915015
 20
-163.9483184578227
 30
0.0
 40
1.500000000000015
100
AcDbArc
 50
137.1665719339339
 51
224.9999957935161
  0
LINE
  5
8E5
330
7C1
100
AcDbEntity
  8
____1
  6
DASHED2
 62
     7
100
AcDbLine
 10
-290.9440104955153
 20
-440.5483203124994
 30
0.0
 11
-290.9440104955153
 21
-448.5483203124994
 31
0.0
  0
LINE
  5
8E6
330
7C1
100
AcDbEntity
  8
____1
  6
DASHED2
 62
     7
100
AcDbLine
 10
-304.9440104955155
 20
-440.5483203124994
 30
0.0
 11
-304.9440104955155
 21
-433.5483203124993
 31
0.0
  0
LINE
  5
8E7
330
7C1
100
AcDbEntity
  8
____1
  6
DASHED2
 62
     7
100
AcDbLine
 10
-289.9440104955145
 20
-440.5483203124994
 30
0.0
 11
-283.4440104955163
 21
-424.9483203124993
 31
0.0
  0
LINE
  5
8E8
330
7C1
100
AcDbEntity
  8
____1
  6
DASHED2
 62
     7
100
AcDbLine
 10
-441.4678205181483
 20
-433.5483203124995
 30
0.0
 11
-479.9440104389736
 21
-433.5483203124995
 31
0.0
  0
LINE
  5
8E9
330
7C1
100
AcDbEntity
  8
____1
  6
DASHED2
 62
     7
100
AcDbLine
 10
-369.5272031369536
 20
-433.5483203124995
 30
0.0
 11
-419.3608177409936
 21
-433.5483203124995
 31
0.0
  0
LINE
  5
8EA
330
7C1
100
AcDbEntity
  8
____1
  6
DASHED2
 62
     7
100
AcDbLine
 10
-422.1892448657398
 20
-433.5483203124995
 30
0.0
 11
-422.1892448657398
 21
-440.5483203124997
 31
0.0
  0
LINE
  5
8EB
330
7C1
100
AcDbEntity
  8
____1
  6
DASHED2
 62
     7
100
AcDbLine
 10
-419.3608177409936
 20
-440.5483203124997
 30
0.0
 11
-422.1892448657398
 21
-440.5483203124997
 31
0.0
  0
LINE
  5
8EC
330
7C1
100
AcDbEntity
  8
____1
  6
DASHED2
 62
     7
100
AcDbLine
 10
-419.3608177409936
 20
-433.5483203124995
 30
0.0
 11
-419.3608177409936
 21
-440.5483203124997
 31
0.0
  0
LINE
  5
8ED
330
7C1
100
AcDbEntity
  8
____1
  6
DASHED2
 62
     7
100
AcDbLine
 10
-366.698776012207
 20
-433.5483203124995
 30
0.0
 11
-366.698776012207
 21
-440.5483203124997
 31
0.0
  0
LINE
  5
8EE
330
7C1
100
AcDbEntity
  8
____1
  6
DASHED2
 62
     7
100
AcDbLine
 10
-308.9440104389737
 20
-433.5483203124995
 30
0.0
 11
-366.6987760122074
 21
-433.5483203124995
 31
0.0
  0
ARC
  5
8EF
330
7C1
100
AcDbEntity
  8
____1
  6
DASHED2
 62
     7
100
AcDbCircle
 10
-297.4440104389736
 20
-426.5483203124993
 30
0.0
 40
5.0
100
AcDbArc
 50
270.0
 51
0.0000000000039083
  0
ARC
  5
8F0
330
7C1
100
AcDbEntity
  8
____1
  6
DASHED2
 62
     7
100
AcDbCircle
 10
-292.1940104389737
 20
-426.2983203124994
 30
0.0
 40
0.25
100
AcDbArc
 50
0.0
 51
180.0
  0
LINE
  5
8F1
330
7C1
100
AcDbEntity
  8
____1
  6
DASHED2
 62
     7
100
AcDbLine
 10
-292.4440104389736
 20
-426.5483203124992
 30
0.0
 11
-292.4440104389736
 21
-426.2983203124994
 31
0.0
  0
LINE
  5
8F2
330
7C1
100
AcDbEntity
  8
____1
  6
DASHED2
 62
     7
100
AcDbLine
 10
-295.7440104389716
 20
-437.0483203124995
 30
0.0
 11
-291.9440104389732
 21
-429.7983203124994
 31
0.0
  0
LINE
  5
8F3
330
7C1
100
AcDbEntity
  8
____1
  6
DASHED2
 62
     7
100
AcDbLine
 10
-295.7440104389716
 20
-437.0483203124995
 30
0.0
 11
-299.7440104389715
 21
-437.0483203124995
 31
0.0
  0
LINE
  5
8F4
330
7C1
100
AcDbEntity
  8
____1
  6
DASHED2
 62
     7
100
AcDbLine
 10
-306.9440104389737
 20
-433.5483203124995
 30
0.0
 11
-306.9440104389737
 21
-440.5483203124997
 31
0.0
  0
LINE
  5
8F5
330
7C1
100
AcDbEntity
  8
____1
  6
DASHED2
 62
     7
100
AcDbLine
 10
-306.9440104389737
 20
-440.5483203124997
 30
0.0
 11
-308.9440104389737
 21
-440.5483203124997
 31
0.0
  0
ARC
  5
8F6
330
7C1
100
AcDbEntity
  8
____1
  6
DASHED2
 62
     7
100
AcDbCircle
 10
-292.9440104955152
 20
-447.5483203124993
 30
0.0
 40
1.0
100
AcDbArc
 50
180.0
 51
270.0
  0
LINE
  5
8F7
330
7C1
100
AcDbEntity
  8
____1
  6
DASHED2
 62
     7
100
AcDbLine
 10
-293.9440104955151
 20
-440.5483203124994
 30
0.0
 11
-293.9440104955151
 21
-447.5483203124993
 31
0.0
  0
LINE
  5
8F8
330
7C1
100
AcDbEntity
  8
____1
  6
DASHED2
 62
     7
100
AcDbLine
 10
-292.9440104955152
 20
-448.5483203124994
 30
0.0
 11
-290.9440104955153
 21
-448.5483203124994
 31
0.0
  0
LINE
  5
8F9
330
7C1
100
AcDbEntity
  8
____1
  6
DASHED2
 62
     7
100
AcDbLine
 10
-291.9440104955155
 20
-427.5483203124994
 30
0.0
 11
-291.9440104955155
 21
-430.0137283515065
 31
0.0
  0
LINE
  5
8FA
330
7C1
100
AcDbEntity
  8
____1
  6
DASHED2
 62
     7
100
AcDbLine
 10
-440.9440089934808
 20
-448.5483198053899
 30
0.0
 11
-441.4678205181483
 21
-433.5483203124995
 31
0.0
  0
LINE
  5
8FB
330
7C1
100
AcDbEntity
  8
____1
  6
DASHED2
 62
     7
100
AcDbLine
 10
-481.9440104389736
 20
-433.5483203124995
 30
0.0
 11
-481.9440104389736
 21
-440.5483203124997
 31
0.0
  0
LINE
  5
8FC
330
7C1
100
AcDbEntity
  8
____1
  6
DASHED2
 62
     7
100
AcDbLine
 10
-479.9440104389736
 20
-440.5483203124997
 30
0.0
 11
-481.9440104389736
 21
-440.5483203124997
 31
0.0
  0
LINE
  5
8FD
330
7C1
100
AcDbEntity
  8
____1
  6
DASHED2
 62
     7
100
AcDbLine
 10
-479.9440104389736
 20
-433.5483203124995
 30
0.0
 11
-479.9440104389736
 21
-440.5483203124997
 31
0.0
  0
LINE
  5
8FE
330
7C1
100
AcDbEntity
  8
____1
  6
DASHED2
 62
     7
100
AcDbLine
 10
-705.9940112896347
 20
-162.0483184578228
 30
0.0
 11
-704.0440103936492
 21
-162.0483184578228
 31
0.0
  0
ARC
  5
8FF
330
7C1
100
AcDbEntity
  8
____1
  6
DASHED2
 62
     7
100
AcDbCircle
 10
-692.8940103864457
 20
-161.8483184578228
 30
0.0
 40
0.1999999999999625
100
AcDbArc
 50
269.9999682509114
 51
0.0
  0
ARC
  5
900
330
7C1
100
AcDbEntity
  8
____1
  6
DASHED2
 62
     7
100
AcDbCircle
 10
-693.1940103864458
 20
-161.5483184578228
 30
0.0
 40
0.5
100
AcDbArc
 50
0.0
 51
90.0
  0
LINE
  5
901
330
7C1
100
AcDbEntity
  8
____1
  6
DASHED2
 62
     7
100
AcDbLine
 10
-706.1940103864458
 20
-161.8483184578228
 30
0.0
 11
-706.1940103864458
 21
-161.5483184578228
 31
0.0
  0
ARC
  5
902
330
7C1
100
AcDbEntity
  8
____1
  6
DASHED2
 62
     7
100
AcDbCircle
 10
-705.6940103864458
 20
-161.5483184578228
 30
0.0
 40
0.5
100
AcDbArc
 50
90.0
 51
180.0
  0
LINE
  5
903
330
7C1
100
AcDbEntity
  8
____1
  6
DASHED2
 62
     7
100
AcDbLine
 10
-705.9440103824321
 20
-141.9483184578228
 30
0.0
 11
-704.9440103824321
 21
-143.6803692653919
 31
0.0
  0
LINE
  5
904
330
7C1
100
AcDbEntity
  8
2
  6
DASHED2
 62
     7
100
AcDbLine
 10
-705.9440103824321
 20
-138.4483186209523
 30
0.0
 11
-705.9440103824321
 21
-141.9483184578228
 31
0.0
  0
LINE
  5
905
330
7C1
100
AcDbEntity
  8
2
  6
DASHED2
 62
     7
100
AcDbLine
 10
-695.4440103824321
 20
-139.3718820020143
 30
0.0
 11
-695.4440103824321
 21
-139.7483184578228
 31
0.0
  0
LINE
  5
906
330
7C1
100
AcDbEntity
  8
2
  6
DASHED2
 62
     7
100
AcDbLine
 10
-681.7440103824324
 20
-167.0483205353496
 30
0.0
 11
-681.7440103824324
 21
-169.0483205353494
 31
0.0
  0
ARC
  5
907
330
7C1
100
AcDbEntity
  8
____1
  6
DASHED2
 62
     7
100
AcDbCircle
 10
-714.9440103561494
 20
-139.0483206984792
 30
0.0
 40
0.5
100
AcDbArc
 50
90.0
 51
180.0
  0
LINE
  5
908
330
7C1
100
AcDbEntity
  8
____1
  6
DASHED2
 62
     7
100
AcDbLine
 10
-703.7440103864457
 20
-162.3483184578228
 30
0.0
 11
-703.7440103864457
 21
-162.9285145551041
 31
0.0
  0
ARC
  5
909
330
7C1
100
AcDbEntity
  8
____1
  6
DASHED2
 62
     7
100
AcDbCircle
 10
-704.0440103864455
 20
-162.3483184578228
 30
0.0
 40
0.2999999999999545
100
AcDbArc
 50
0.0
 51
90.0
  0
LINE
  5
90A
330
7C1
100
AcDbEntity
  8
____1
  6
DASHED2
 62
     7
100
AcDbLine
 10
-695.6025890302084
 20
-165.428217445145
 30
0.0
 11
-695.1833501367955
 21
-165.008978551732
 31
0.0
  0
ARC
  5
90B
330
7C1
100
AcDbEntity
  8
____1
  6
DASHED2
 62
     7
100
AcDbCircle
 10
-696.2440103864458
 20
-163.9483184578227
 30
0.0
 40
1.499999999999974
100
AcDbArc
 50
315.0000042064824
 51
42.83342806606607
  0
LINE
  5
90C
330
7C1
100
AcDbEntity
  8
____1
  6
DASHED2
 62
     7
100
AcDbLine
 10
-695.1440103864457
 20
-162.3483184578228
 30
0.0
 11
-695.1440103864457
 21
-162.9285145551041
 31
0.0
  0
LINE
  5
90D
330
7C1
100
AcDbEntity
  8
____1
  6
DASHED2
 62
     7
100
AcDbLine
 10
-295.6311069716224
 20
-437.0483203124993
 30
0.0
 11
-291.9440104955155
 21
-430.0137283515065
 31
0.0
  0
LINE
  5
90E
330
7C1
100
AcDbEntity
  8
____1
  6
DASHED2
 62
     7
100
AcDbLine
 10
-299.744010438972
 20
-434.5483203124993
 30
0.0
 11
-299.7440104389715
 21
-437.0483203124995
 31
0.0
  0
ARC
  5
90F
330
7C1
100
AcDbEntity
  8
____1
  6
DASHED2
 62
     7
100
AcDbCircle
 10
-300.744010438972
 20
-434.5483203124993
 30
0.0
 40
1.0
100
AcDbArc
 50
0.0000000000130276
 51
90.0
  0
LINE
  5
910
330
7C1
100
AcDbEntity
  8
____1
  6
DASHED2
 62
     7
100
AcDbLine
 10
-300.744010438972
 20
-433.5483203124995
 30
0.0
 11
-306.9440104389737
 21
-433.5483203124995
 31
0.0
  0
LINE
  5
911
330
7C1
100
AcDbEntity
  8
____1
  6
DASHED2
 62
     7
100
AcDbLine
 10
-291.9440104389736
 20
-426.2983203124994
 30
0.0
 11
-291.9440104389732
 21
-429.7983203124994
 31
0.0
  0
LINE
  5
912
330
7C1
100
AcDbEntity
  8
____1
  6
DASHED2
 62
     7
100
AcDbLine
 10
-304.9440104955155
 20
-433.5483203124993
 30
0.0
 11
-301.0764022897209
 21
-433.5483203124993
 31
0.0
  0
LINE
  5
913
330
7C1
100
AcDbEntity
  8
____1
  6
DASHED2
 62
     7
100
AcDbLine
 10
-299.9440104955155
 20
-437.0483203124993
 30
0.0
 11
-295.6311069716224
 21
-437.0483203124993
 31
0.0
  0
LINE
  5
914
330
7C1
100
AcDbEntity
  8
____1
  6
DASHED2
 62
     7
100
AcDbLine
 10
-299.9440104955155
 20
-437.0483203124993
 30
0.0
 11
-300.0777727549665
 21
-434.4959843562564
 31
0.0
  0
ARC
  5
915
330
7C1
100
AcDbEntity
  8
____1
  6
DASHED2
 62
     7
100
AcDbCircle
 10
-301.0764022897209
 20
-434.5483203124993
 30
0.0
 40
1.0
100
AcDbArc
 50
2.999999999993096
 51
90.0
  0
ARC
  5
916
330
7C1
100
AcDbEntity
  8
____1
  6
DASHED2
 62
     7
100
AcDbCircle
 10
-297.9440104121749
 20
-426.5483203124993
 30
0.0
 40
5.0
100
AcDbArc
 50
270.0
 51
270.0000030709536
  0
ARC
  5
917
330
7C1
100
AcDbEntity
  8
____1
  6
DASHED2
 62
     7
100
AcDbCircle
 10
-706.2440103824321
 20
-161.8483185353496
 30
0.0
 40
0.1999999999998181
100
AcDbArc
 50
180.0
 51
270.0
  0
ARC
  5
918
330
7C1
100
AcDbEntity
  8
____1
  6
DASHED2
 62
     7
100
AcDbCircle
 10
-706.2440103824321
 20
-168.3483205353496
 30
0.0
 40
0.1999999999998181
100
AcDbArc
 50
180.0000375405195
 51
270.0
  0
ARC
  5
919
330
7C1
100
AcDbEntity
  8
____1
  6
DASHED2
 62
     7
100
AcDbCircle
 10
-694.8440103864458
 20
-162.3483184578228
 30
0.0
 40
0.2999999999999545
100
AcDbArc
 50
90.0
 51
180.0
  0
LINE
  5
91A
330
7C1
100
AcDbEntity
  8
____1
  6
DASHED2
 62
     7
100
AcDbLine
 10
-694.8440103792424
 20
-162.0483184578228
 30
0.0
 11
-692.894010497271
 21
-162.0483184578228
 31
0.0
  0
LINE
  5
91B
330
7C1
100
AcDbEntity
  8
____1
  6
DASHED2
 62
     7
100
AcDbLine
 10
-702.9440103864458
 20
-164.5483184578228
 30
0.0
 11
-702.9440103864458
 21
-165.2867959667319
 31
0.0
  0
ARC
  5
91C
330
7C1
100
AcDbEntity
  8
____1
  6
DASHED2
 62
     7
100
AcDbCircle
 10
-496.2440104955153
 20
-156.5483184578228
 30
0.0
 40
1.5
100
AcDbArc
 50
0.0
 51
90.0
  0
ARC
  5
91D
330
7C1
100
AcDbEntity
  8
____1
  6
DASHED2
 62
     7
100
AcDbCircle
 10
-494.4440104955154
 20
-173.5483184578228
 30
0.0
 40
0.3000000000000114
100
AcDbArc
 50
180.0
 51
270.0
  0
ARC
  5
91E
330
7C1
100
AcDbEntity
  8
____1
  6
DASHED2
 62
     7
100
AcDbCircle
 10
-494.4440104955154
 20
-173.5483184578228
 30
0.0
 40
1.5
100
AcDbArc
 50
180.0
 51
270.0
  0
LINE
  5
91F
330
7C1
100
AcDbEntity
  8
____1
  6
DASHED2
 62
     7
100
AcDbLine
 10
-495.9440104955155
 20
-173.5483184578228
 30
0.0
 11
-495.9440104955155
 21
-156.5483184578228
 31
0.0
  0
LINE
  5
920
330
7C1
100
AcDbEntity
  8
____1
  6
DASHED2
 62
     7
100
AcDbLine
 10
-494.7440104955155
 20
-173.5483184578228
 30
0.0
 11
-494.7440104955155
 21
-158.5483185170718
 31
0.0
  0
LINE
  5
921
330
7C1
100
AcDbEntity
  8
____1
  6
DASHED2
 62
     7
100
AcDbLine
 10
-696.1940103864458
 20
-161.0483184578228
 30
0.0
 11
-696.1940103864458
 21
-163.5483184578228
 31
0.0
  0
LINE
  5
922
330
7C1
100
AcDbEntity
  8
____1
  6
DASHED2
 62
     7
100
AcDbLine
 10
-702.6940103864458
 20
-161.0483184578228
 30
0.0
 11
-696.1940103864458
 21
-161.0483184578228
 31
0.0
  0
LINE
  5
923
330
7C1
100
AcDbEntity
  8
2
  6
DASHED2
 62
     7
100
AcDbLine
 10
-683.2440103824324
 20
-167.0483205353496
 30
0.0
 11
-683.2440103824324
 21
-168.3483205353494
 31
0.0
  0
LINE
  5
924
330
7C1
100
AcDbEntity
  8
2
  6
DASHED2
 62
     7
100
AcDbLine
 10
-709.5440103824318
 20
-169.5483205353496
 30
0.0
 11
-682.2440103824324
 21
-169.5483205353494
 31
0.0
  0
ARC
  5
925
330
7C1
100
AcDbEntity
  8
____1
  6
DASHED2
 62
     7
100
AcDbCircle
 10
-682.2440103824324
 20
-169.0483205353494
 30
0.0
 40
0.5
100
AcDbArc
 50
270.0
 51
0.0
  0
LINE
  5
926
330
7C1
100
AcDbEntity
  8
____1
  6
DASHED2
 62
     7
100
AcDbLine
 10
-507.9440104955153
 20
-156.2483184578228
 30
0.0
 11
-496.2440104955153
 21
-156.2483184578228
 31
0.0
  0
ARC
  5
927
330
7C1
100
AcDbEntity
  8
____1
  6
DASHED2
 62
     7
100
AcDbCircle
 10
-496.2440104955153
 20
-156.5483184578228
 30
0.0
 40
0.2999999999999545
100
AcDbArc
 50
0.0
 51
90.0
  0
LINE
  5
928
330
7C1
100
AcDbEntity
  8
____1
  6
DASHED2
 62
     7
100
AcDbLine
 10
-702.6940103864458
 20
-163.5483184578228
 30
0.0
 11
-702.6940103864458
 21
-161.0483184578228
 31
0.0
  0
LINE
  5
929
330
7C1
100
AcDbEntity
  8
____1
  6
DASHED2
 62
     7
100
AcDbLine
 10
-696.1940103864458
 20
-163.5483184578228
 30
0.0
 11
-702.6940103864458
 21
-163.5483184578228
 31
0.0
  0
ARC
  5
92A
330
7C1
100
AcDbEntity
  8
____1
  6
DASHED2
 62
     7
100
AcDbCircle
 10
-705.9940103864459
 20
-161.8483184578226
 30
0.0
 40
0.1999999999999248
100
AcDbArc
 50
180.0
 51
269.999741255426
  0
ARC
  5
92B
330
7C1
100
AcDbEntity
  8
____1
  6
DASHED2
 62
     7
100
AcDbCircle
 10
-703.2440103864457
 20
-161.3483184578228
 30
0.0
 40
0.2999999999999545
100
AcDbArc
 50
0.0
 51
90.0
  0
LINE
  5
92C
330
7C1
100
AcDbEntity
  8
____1
  6
DASHED2
 62
     7
100
AcDbLine
 10
-692.6940103864458
 20
-161.5483184578228
 30
0.0
 11
-692.6940103864458
 21
-161.8483184578228
 31
0.0
  0
LINE
  5
92D
330
7C1
100
AcDbEntity
  8
2
  6
DASHED2
 62
     7
100
AcDbLine
 10
-708.8440107471542
 20
-168.5483205353494
 30
0.0
 11
-707.6440103824319
 21
-168.5483205353494
 31
0.0
  0
ARC
  5
92E
330
7C1
100
AcDbEntity
  8
____1
  6
DASHED2
 62
     7
100
AcDbCircle
 10
-707.6440103824319
 20
-168.3483205353496
 30
0.0
 40
0.1999999999998181
100
AcDbArc
 50
270.0
 51
0.0
  0
ARC
  5
92F
330
7C1
100
AcDbEntity
  8
____1
  6
DASHED2
 62
     7
100
AcDbCircle
 10
-682.2440103824324
 20
-167.0483205353496
 30
0.0
 40
0.5
100
AcDbArc
 50
0.0
 51
90.0
  0
LINE
  5
930
330
7C1
100
AcDbEntity
  8
____1
  6
DASHED2
 62
     7
100
AcDbLine
 10
-707.4440103569487
 20
-168.3983206169144
 30
0.0
 11
-709.0440103569486
 21
-168.3983206169144
 31
0.0
  0
LINE
  5
931
330
7C1
100
AcDbEntity
  8
____1
  6
DASHED2
 62
     7
100
AcDbLine
 10
-709.0440103569486
 20
-168.3983206169144
 30
0.0
 11
-709.0440103569486
 21
-138.6983206169144
 31
0.0
  0
ARC
  5
932
330
7C1
100
AcDbEntity
  8
____1
  6
DASHED2
 62
     7
100
AcDbCircle
 10
-708.844010382432
 20
-168.3483205353494
 30
0.0
 40
0.1999999999998181
100
AcDbArc
 50
180.0
 51
269.9998955147992
  0
LINE
  5
933
330
7C1
100
AcDbEntity
  8
2
  6
DASHED2
 62
     7
100
AcDbLine
 10
-706.4440105233676
 20
-163.2483185353494
 30
0.0
 11
-706.444010382432
 21
-168.3483206663907
 31
0.0
  0
ARC
  5
934
330
7C1
100
AcDbEntity
  8
____1
  6
DASHED2
 62
     7
100
AcDbCircle
 10
-706.2440105233679
 20
-163.2483185353494
 30
0.0
 40
0.1999999999998181
100
AcDbArc
 50
90.0
 51
180.0
  0
ARC
  5
935
330
7C1
100
AcDbEntity
  8
____1
  6
DASHED2
 62
     7
100
AcDbCircle
 10
-703.1440103864457
 20
-165.2867960889077
 30
0.0
 40
0.2000000000000096
100
AcDbArc
 50
225.0000000000115
 51
0.0000350007656343
  0
ARC
  5
936
330
7C1
100
AcDbEntity
  8
____1
  6
DASHED2
 62
     7
100
AcDbCircle
 10
-695.7440103864457
 20
-165.2867960889077
 30
0.0
 40
0.2000000000000096
100
AcDbArc
 50
179.9999861452636
 51
314.9999999999886
  0
ARC
  5
937
330
7C1
100
AcDbEntity
  8
____1
  6
DASHED2
 62
     7
100
AcDbCircle
 10
-680.4440103824307
 20
-168.5483203124993
 30
0.0
 40
2.0
100
AcDbArc
 50
0.0
 51
90.0
  0
LINE
  5
938
330
7C1
100
AcDbEntity
  8
2
  6
DASHED2
 62
     7
100
AcDbLine
 10
-717.7440103561492
 20
-139.0483206984792
 30
0.0
 11
-715.4440103561494
 21
-139.0483206984792
 31
0.0
  0
ARC
  5
939
330
7C1
100
AcDbEntity
  8
____1
  6
DASHED2
 62
     7
100
AcDbCircle
 10
-709.5440103824318
 20
-169.0483205353496
 30
0.0
 40
0.5
100
AcDbArc
 50
180.0
 51
270.0
  0
LINE
  5
93A
330
7C1
100
AcDbEntity
  8
2
  6
DASHED2
 62
     7
100
AcDbLine
 10
-709.0440103824318
 20
-168.3483205353494
 30
0.0
 11
-709.0440103824318
 21
-167.0483214393844
 31
0.0
  0
ARC
  5
93B
330
7C1
100
AcDbEntity
  8
____1
  6
DASHED2
 62
     7
100
AcDbCircle
 10
-709.5440103824318
 20
-167.0483212234467
 30
0.0
 40
0.5000000000000468
100
AcDbArc
 50
359.9999752553636
 51
180.0000258580231
  0
LINE
  5
93C
330
7C1
100
AcDbEntity
  8
2
  6
DASHED2
 62
     7
100
AcDbLine
 10
-693.4440104393927
 20
-163.2483182656916
 30
0.0
 11
-693.4440103824321
 21
-168.3483202656917
 31
0.0
  0
ARC
  5
93D
330
7C1
100
AcDbEntity
  8
____1
  6
DASHED2
 62
     7
100
AcDbCircle
 10
-693.6440104393926
 20
-163.2483182656916
 30
0.0
 40
0.1999999999998181
100
AcDbArc
 50
0.0
 51
89.99998698580126
  0
ARC
  5
93E
330
7C1
100
AcDbEntity
  8
____1
  6
DASHED2
 62
     7
100
AcDbCircle
 10
-692.4440103824321
 20
-162.5483182656915
 30
0.0
 40
0.5
100
AcDbArc
 50
0.0
 51
90.0
  0
ARC
  5
93F
330
7C1
100
AcDbEntity
  8
____1
  6
DASHED2
 62
     7
100
AcDbCircle
 10
-494.4440104955154
 20
-158.5483184578228
 30
0.0
 40
0.3000000000000114
100
AcDbArc
 50
180.0
 51
270.0
  0
ARC
  5
940
330
7C1
100
AcDbEntity
  8
____1
  6
DASHED2
 62
     7
100
AcDbCircle
 10
-494.4440104955154
 20
-158.5483184578228
 30
0.0
 40
1.5
100
AcDbArc
 50
180.0
 51
270.0
  0
LINE
  5
941
330
7C1
100
AcDbEntity
  8
____1
  6
DASHED2
 62
     7
100
AcDbLine
 10
-494.7440104955155
 20
-158.5483185170718
 30
0.0
 11
-494.7440104955155
 21
-156.5483184578228
 31
0.0
  0
LINE
  5
942
330
7C1
100
AcDbEntity
  8
____1
  6
DASHED2
 62
     7
100
AcDbLine
 10
-507.9440104955153
 20
-156.2483184578228
 30
0.0
 11
-507.9440104955153
 21
-155.0483184578228
 31
0.0
  0
LINE
  5
943
330
7C1
100
AcDbEntity
  8
____1
  6
DASHED2
 62
     7
100
AcDbLine
 10
-507.9440104955153
 20
-155.0483184578228
 30
0.0
 11
-496.2440104955153
 21
-155.0483184578228
 31
0.0
  0
ARC
  5
944
330
7C1
100
AcDbEntity
  8
____1
  6
DASHED2
 62
     7
100
AcDbCircle
 10
-683.4440103824321
 20
-168.3483205353494
 30
0.0
 40
0.2000000000000455
100
AcDbArc
 50
270.0
 51
0.0
  0
ARC
  5
945
330
7C1
100
AcDbEntity
  8
____1
  6
DASHED2
 62
     7
100
AcDbCircle
 10
-682.7440103824324
 20
-167.0483205353496
 30
0.0
 40
0.5
100
AcDbArc
 50
90.0
 51
180.0
  0
LINE
  5
946
330
7C1
100
AcDbEntity
  8
2
  6
DASHED2
 62
     7
100
AcDbLine
 10
-700.1440103824319
 20
-150.5483184578228
 30
0.0
 11
-700.1440103824319
 21
-155.0483184578228
 31
0.0
  0
ARC
  5
947
330
7C1
100
AcDbEntity
  8
____1
  6
DASHED2
 62
     7
100
AcDbCircle
 10
-700.6440103824319
 20
-151.3483184578227
 30
0.0
 40
1.0
100
AcDbArc
 50
90.0
 51
180.0
  0
LINE
  5
948
330
7C1
100
AcDbEntity
  8
____1
  6
DASHED2
 62
     7
100
AcDbLine
 10
-700.6440103824319
 20
-150.3483184578227
 30
0.0
 11
-700.3440103824316
 21
-150.3483184578227
 31
0.0
  0
ARC
  5
949
330
7C1
100
AcDbEntity
  8
____1
  6
DASHED2
 62
     7
100
AcDbCircle
 10
-700.3440103824316
 20
-150.5483184578228
 30
0.0
 40
0.1999999999998181
100
AcDbArc
 50
0.0
 51
90.0
  0
LINE
  5
94A
330
7C1
100
AcDbEntity
  8
____1
  6
DASHED2
 62
     7
100
AcDbLine
 10
-703.9440103824319
 20
-150.3483184578227
 30
0.0
 11
-704.7440103824311
 21
-150.3483184578227
 31
0.0
  0
ARC
  5
94B
330
7C1
100
AcDbEntity
  8
2
  6
DASHED2
 62
     7
100
AcDbCircle
 10
-706.9440103824319
 20
-137.748320698479
 30
0.0
 40
0.5000000000000007
100
AcDbArc
 50
0.0000145932292268
 51
89.99999698823843
  0
LINE
  5
94C
330
7C1
100
AcDbEntity
  8
2
  6
DASHED2
 62
     7
100
AcDbLine
 10
-706.444010382432
 20
-137.7483205711293
 30
0.0
 11
-706.444010382432
 21
-161.8483185353496
 31
0.0
  0
LINE
  5
94D
330
7C1
100
AcDbEntity
  8
2
  6
DASHED2
 62
     7
100
AcDbLine
 10
-707.4440103561494
 20
-138.7483206984792
 30
0.0
 11
-707.4440103824321
 21
-168.3483205353496
 31
0.0
  0
LINE
  5
94E
330
7C1
100
AcDbEntity
  8
____1
  6
DASHED2
 62
     7
100
AcDbLine
 10
-695.9440103864458
 20
-164.5483184578228
 30
0.0
 11
-695.9440103864458
 21
-165.2867960405455
 31
0.0
  0
LINE
  5
94F
330
7C1
100
AcDbEntity
  8
____1
  6
DASHED2
 62
     7
100
AcDbLine
 10
-702.9440103864458
 20
-164.5483184578228
 30
0.0
 11
-695.9440103864458
 21
-164.5483184578228
 31
0.0
  0
LINE
  5
950
330
7C1
100
AcDbEntity
  8
____1
  6
DASHED2
 62
     7
100
AcDbLine
 10
-702.9440103864458
 20
-163.5483184578228
 30
0.0
 11
-695.9440103864458
 21
-163.5483184578228
 31
0.0
  0
LINE
  5
951
330
7C1
100
AcDbEntity
  8
____1
  6
DASHED2
 62
     7
100
AcDbLine
 10
-703.2854317426828
 20
-165.428217445145
 30
0.0
 11
-703.7046707702505
 21
-165.0089784175774
 31
0.0
  0
ARC
  5
952
330
7C1
100
AcDbEntity
  8
____1
  6
DASHED2
 62
     7
100
AcDbCircle
 10
-702.6440103864457
 20
-163.9483184578227
 30
0.0
 40
1.500000000000041
100
AcDbArc
 50
137.1665719339339
 51
224.9999885466206
  0
ARC
  5
953
330
7C1
100
AcDbEntity
  8
____1
  6
DASHED2
 62
     7
100
AcDbCircle
 10
-709.5440103561494
 20
-140.0483206984789
 30
0.0
 40
0.5000000000000468
100
AcDbArc
 50
179.9999741419768
 51
0.0000247446364423
  0
LINE
  5
954
330
7C1
100
AcDbEntity
  8
2
  6
DASHED2
 62
     7
100
AcDbLine
 10
-709.0440103561494
 20
-138.7483206984792
 30
0.0
 11
-709.0440103561494
 21
-140.0483204825412
 31
0.0
  0
ARC
  5
955
330
7C1
100
AcDbEntity
  8
____1
  6
DASHED2
 62
     7
100
AcDbCircle
 10
-708.8440103561496
 20
-138.7483206984792
 30
0.0
 40
0.1999999999998181
100
AcDbArc
 50
90.0
 51
180.0
  0
LINE
  5
956
330
7C1
100
AcDbEntity
  8
2
  6
DASHED2
 62
     7
100
AcDbLine
 10
-711.4440103824321
 20
-137.248320698479
 30
0.0
 11
-706.9440103561494
 21
-137.248320698479
 31
0.0
  0
LINE
  5
957
330
7C1
100
AcDbEntity
  8
____1
  6
DASHED2
 62
     7
100
AcDbLine
 10
-711.4440103824321
 20
-137.248320698479
 30
0.0
 11
-717.5050879570642
 21
-137.9942994799117
 31
0.0
  0
LINE
  5
958
330
7C1
100
AcDbEntity
  8
____1
  6
DASHED2
 62
     7
100
AcDbLine
 10
-695.6440103864458
 20
-161.0483184578228
 30
0.0
 11
-693.1940103864458
 21
-161.0483184578228
 31
0.0
  0
LINE
  5
959
330
7C1
100
AcDbEntity
  8
____1
  6
DASHED2
 62
     7
100
AcDbLine
 10
-695.9440103864458
 20
-161.3483184578228
 30
0.0
 11
-695.9440103864458
 21
-163.5483184578228
 31
0.0
  0
ARC
  5
95A
330
7C1
100
AcDbEntity
  8
____1
  6
DASHED2
 62
     7
100
AcDbCircle
 10
-695.6440103864458
 20
-161.3483184578228
 30
0.0
 40
0.3000000000000114
100
AcDbArc
 50
90.0
 51
180.0
  0
LINE
  5
95B
330
7C1
100
AcDbEntity
  8
____1
  6
DASHED2
 62
     7
100
AcDbLine
 10
-702.9440103864458
 20
-161.3483184578228
 30
0.0
 11
-702.9440103864458
 21
-163.5483184578228
 31
0.0
  0
LINE
  5
95C
330
7C1
100
AcDbEntity
  8
____1
  6
DASHED2
 62
     7
100
AcDbLine
 10
-705.6940103864458
 20
-161.0483184578228
 30
0.0
 11
-703.2440103864457
 21
-161.0483184578228
 31
0.0
  0
LINE
  5
95D
330
7C1
100
AcDbEntity
  8
2
  6
DASHED2
 62
     7
100
AcDbLine
 10
-691.9440103824321
 20
-162.5483182656915
 30
0.0
 11
-691.9440103824321
 21
-168.3483202656917
 31
0.0
  0
ARC
  5
95E
330
7C1
100
AcDbEntity
  8
____1
  6
DASHED2
 62
     7
100
AcDbCircle
 10
-691.7440103824319
 20
-168.3483202656917
 30
0.0
 40
0.1999999999998181
100
AcDbArc
 50
180.0
 51
270.0
  0
LINE
  5
95F
330
7C1
100
AcDbEntity
  8
2
  6
DASHED2
 62
     7
100
AcDbLine
 10
-703.1440103824319
 20
-147.7483184578228
 30
0.0
 11
-703.1440103824319
 21
-146.9483184578227
 31
0.0
  0
LINE
  5
960
330
7C1
100
AcDbEntity
  8
2
  6
DASHED2
 62
     7
100
AcDbLine
 10
-703.3440103824317
 20
-146.7483184578228
 30
0.0
 11
-703.9440103824321
 21
-146.7483184578228
 31
0.0
  0
ARC
  5
961
330
7C1
100
AcDbEntity
  8
____1
  6
DASHED2
 62
     7
100
AcDbCircle
 10
-703.3440103824317
 20
-146.9483184578227
 30
0.0
 40
0.1999999999998181
100
AcDbArc
 50
0.0
 51
90.0
  0
LINE
  5
962
330
7C1
100
AcDbEntity
  8
2
  6
DASHED2
 62
     7
100
AcDbLine
 10
-704.9440103824321
 20
-143.6803692653919
 30
0.0
 11
-704.9440103824321
 21
-150.0483184578228
 31
0.0
  0
LINE
  5
963
330
7C1
100
AcDbEntity
  8
2
  6
DASHED2
 62
     7
100
AcDbLine
 10
-701.3440101394364
 20
-138.9483184578228
 30
0.0
 11
-704.7440102339347
 21
-138.9483184578228
 31
0.0
  0
LINE
  5
964
330
7C1
100
AcDbEntity
  8
____1
  6
DASHED2
 62
     7
100
AcDbLine
 10
-709.0440103569486
 20
-138.6983206169144
 30
0.0
 11
-707.4440103569487
 21
-138.6983206169144
 31
0.0
  0
LINE
  5
965
330
7C1
100
AcDbEntity
  8
____1
  6
DASHED2
 62
     7
100
AcDbLine
 10
-707.4440103569487
 20
-138.6983206169144
 30
0.0
 11
-707.4440103569487
 21
-168.3983206169144
 31
0.0
  0
LINE
  5
966
330
7C1
100
AcDbEntity
  8
2
  6
DASHED2
 62
     7
100
AcDbLine
 10
-679.944010382432
 20
-155.0483184578228
 30
0.0
 11
-687.944010382432
 21
-155.0483184578228
 31
0.0
  0
ARC
  5
967
330
7C1
100
AcDbEntity
  8
____1
  6
DASHED2
 62
     7
100
AcDbCircle
 10
-706.2440105233679
 20
-163.2483185353494
 30
0.0
 40
0.1999999999998181
100
AcDbArc
 50
90.0
 51
180.0
  0
ARC
  5
968
330
7C1
100
AcDbEntity
  8
____1
  6
DASHED2
 62
     7
100
AcDbCircle
 10
-704.4440103824321
 20
-162.5483185353497
 30
0.0
 40
0.5000000000000066
100
AcDbArc
 50
270.0000050088593
 51
89.99999073582118
  0
LINE
  5
969
330
7C1
100
AcDbEntity
  8
2
  6
DASHED2
 62
     7
100
AcDbLine
 10
-706.2440103824321
 20
-163.0483185353497
 30
0.0
 11
-704.4440103824321
 21
-163.0483185353497
 31
0.0
  0
LINE
  5
96A
330
7C1
100
AcDbEntity
  8
2
  6
DASHED2
 62
     7
100
AcDbLine
 10
-706.2440103824321
 20
-162.0483185353494
 30
0.0
 11
-704.4440103824321
 21
-162.0483185353494
 31
0.0
  0
LINE
  5
96B
330
7C1
100
AcDbEntity
  8
2
  6
DASHED2
 62
     7
100
AcDbLine
 10
-710.0440103824317
 20
-169.0483205353496
 30
0.0
 11
-710.0440103824317
 21
-167.0483209977926
 31
0.0
  0
LINE
  5
96C
330
7C1
100
AcDbEntity
  8
____1
  6
DASHED2
 62
     7
100
AcDbLine
 10
-703.9440103824319
 20
-153.9483184578228
 30
0.0
 11
-703.9440103824319
 21
-160.8229151270642
 31
0.0
  0
ARC
  5
96D
330
7C1
100
AcDbEntity
  8
____1
  6
DASHED2
 62
     7
100
AcDbCircle
 10
-703.9440103824319
 20
-160.0483184578228
 30
0.0
 40
0.9999999999999763
100
AcDbArc
 50
180.0
 51
255.5224878140696
  0
LINE
  5
96E
330
7C1
100
AcDbEntity
  8
____1
  6
DASHED2
 62
     7
100
AcDbLine
 10
-704.944010382432
 20
-150.5483184578228
 30
0.0
 11
-704.944010382432
 21
-160.0483184578228
 31
0.0
  0
LINE
  5
96F
330
7C1
100
AcDbEntity
  8
2
  6
DASHED2
 62
     7
100
AcDbLine
 10
-700.4440103824312
 20
-161.0483184578228
 30
0.0
 11
-701.6440103824319
 21
-161.0483184578228
 31
0.0
  0
LINE
  5
970
330
7C1
100
AcDbEntity
  8
2
  6
DASHED2
 62
     7
100
AcDbLine
 10
-692.4440102688032
 20
-161.0483184578228
 30
0.0
 11
-698.444010382432
 21
-161.0483184578228
 31
0.0
  0
LINE
  5
971
330
7C1
100
AcDbEntity
  8
2
  6
DASHED2
 62
     7
100
AcDbLine
 10
-693.6440103939645
 20
-163.0483182656915
 30
0.0
 11
-694.4440103824319
 21
-163.0483185353497
 31
0.0
  0
LINE
  5
972
330
7C1
100
AcDbEntity
  8
2
  6
DASHED2
 62
     7
100
AcDbLine
 10
-692.4440103824321
 20
-162.0483182656915
 30
0.0
 11
-694.4440103824319
 21
-162.0483185353494
 31
0.0
  0
ARC
  5
973
330
7C1
100
AcDbEntity
  8
____1
  6
DASHED2
 62
     7
100
AcDbCircle
 10
-694.4440103824319
 20
-162.5483185353494
 30
0.0
 40
0.5000000000002282
100
AcDbArc
 50
89.99999903491895
 51
270.0000031838295
  0
LINE
  5
974
330
7C1
100
AcDbEntity
  8
2
  6
DASHED2
 62
     7
100
AcDbLine
 10
-691.7440103824319
 20
-168.5483202656915
 30
0.0
 11
-683.4440103824321
 21
-168.5483205353494
 31
0.0
  0
LINE
  5
975
330
7C1
100
AcDbEntity
  8
2
  6
DASHED2
 62
     7
100
AcDbLine
 10
-682.7440103824324
 20
-166.5483205353496
 30
0.0
 11
-682.2440103824324
 21
-166.5483205353496
 31
0.0
  0
LINE
  5
976
330
7C1
100
AcDbEntity
  8
2
  6
DASHED2
 62
     7
100
AcDbLine
 10
-694.4440103824319
 20
-158.5483184578228
 30
0.0
 11
-699.1440103824319
 21
-158.5483184578228
 31
0.0
  0
LINE
  5
977
330
7C1
100
AcDbEntity
  8
2
  6
DASHED2
 62
     7
100
AcDbLine
 10
-699.1440103824319
 20
-155.0483184578228
 30
0.0
 11
-700.1440103824319
 21
-155.0483184578228
 31
0.0
  0
LINE
  5
978
330
7C1
100
AcDbEntity
  8
____1
  6
DASHED2
 62
     7
100
AcDbLine
 10
-701.7440103824319
 20
-150.2483184578228
 30
0.0
 11
-700.344010382432
 21
-150.2483184578228
 31
0.0
  0
LINE
  5
979
330
7C1
100
AcDbEntity
  8
____1
  6
DASHED2
 62
     7
100
AcDbLine
 10
-703.1440103824319
 20
-150.2483184578228
 30
0.0
 11
-704.7440103824319
 21
-150.2483184578228
 31
0.0
  0
LINE
  5
97A
330
7C1
100
AcDbEntity
  8
2
  6
DASHED2
 62
     7
100
AcDbLine
 10
-701.3440103824317
 20
-149.2483184578228
 30
0.0
 11
-703.7440103824319
 21
-149.2483184578228
 31
0.0
  0
ARC
  5
97B
330
7C1
100
AcDbEntity
  8
____1
  6
DASHED2
 62
     7
100
AcDbCircle
 10
-703.7440103824319
 20
-149.0483184578228
 30
0.0
 40
0.2000000000000455
100
AcDbArc
 50
179.9999794948937
 51
270.0
  0
LINE
  5
97C
330
7C1
100
AcDbEntity
  8
2
  6
DASHED2
 62
     7
100
AcDbLine
 10
-703.9440103824321
 20
-147.9483184578227
 30
0.0
 11
-703.9440103824321
 21
-149.0483183862465
 31
0.0
  0
ARC
  5
97D
330
7C1
100
AcDbEntity
  8
____1
  6
DASHED2
 62
     7
100
AcDbCircle
 10
-704.7440103824311
 20
-150.5483184578228
 30
0.0
 40
0.2000000000000455
100
AcDbArc
 50
90.0
 51
180.0
  0
ARC
  5
97E
330
7C1
100
AcDbEntity
  8
____1
  6
DASHED2
 62
     7
100
AcDbCircle
 10
-706.8240091952972
 20
-152.9483180012324
 30
0.0
 40
3.879998812865323
100
AcDbArc
 50
0.0
 51
42.07502879329232
  0
LINE
  5
97F
330
7C1
100
AcDbEntity
  8
____1
  6
DASHED2
 62
     7
100
AcDbLine
 10
-702.9440103824319
 20
-153.9483184578228
 30
0.0
 11
-702.9440103824319
 21
-152.9483180012324
 31
0.0
  0
ARC
  5
980
330
7C1
100
AcDbEntity
  8
____1
  6
DASHED2
 62
     7
100
AcDbCircle
 10
-707.6440103561496
 20
-138.7483206984792
 30
0.0
 40
0.2000000000000455
100
AcDbArc
 50
0.0
 51
90.0
  0
LINE
  5
981
330
7C1
100
AcDbEntity
  8
2
  6
DASHED2
 62
     7
100
AcDbLine
 10
-708.8440103561496
 20
-138.5483206984792
 30
0.0
 11
-707.6440103561496
 21
-138.5483206984792
 31
0.0
  0
ARC
  5
982
330
7C1
100
AcDbEntity
  8
____1
  6
DASHED2
 62
     7
100
AcDbCircle
 10
-710.3440103561494
 20
-138.848320698479
 30
0.0
 40
0.2999999999999545
100
AcDbArc
 50
0.0
 51
90.0
  0
ARC
  5
983
330
7C1
100
AcDbEntity
  8
____1
  6
DASHED2
 62
     7
100
AcDbCircle
 10
-717.7440103561492
 20
-138.848320698479
 30
0.0
 40
0.2000000000000455
100
AcDbArc
 50
180.0
 51
270.0
  0
LINE
  5
984
330
7C1
100
AcDbEntity
  8
2
  6
DASHED2
 62
     7
100
AcDbLine
 10
-710.0440103561494
 20
-138.848320698479
 30
0.0
 11
-710.0440103561494
 21
-140.048320924133
 31
0.0
  0
LINE
  5
985
330
7C1
100
AcDbEntity
  8
2
  6
DASHED2
 62
     7
100
AcDbLine
 10
-681.444010382432
 20
-157.0483184578228
 30
0.0
 11
-691.944010382432
 21
-157.0483184578228
 31
0.0
  0
LINE
  5
986
330
7C1
100
AcDbEntity
  8
____1
  6
DASHED2
 62
     7
100
AcDbLine
 10
-687.944010382432
 20
-155.0483184578228
 30
0.0
 11
-687.944010382432
 21
-155.5483184578228
 31
0.0
  0
LINE
  5
987
330
7C1
100
AcDbEntity
  8
____1
  6
DASHED2
 62
     7
100
AcDbLine
 10
-701.1440102192795
 20
-149.0983184578226
 30
0.0
 11
-703.1440102192795
 21
-149.0983184578226
 31
0.0
  0
LINE
  5
988
330
7C1
100
AcDbEntity
  8
____1
  6
DASHED2
 62
     7
100
AcDbLine
 10
-701.1440102192795
 20
-139.0983184578227
 30
0.0
 11
-703.1440102192795
 21
-139.0983184578227
 31
0.0
  0
LINE
  5
989
330
7C1
100
AcDbEntity
  8
____1
  6
DASHED2
 62
     7
100
AcDbLine
 10
-701.1440102192795
 20
-139.0983184578227
 30
0.0
 11
-701.1440102192795
 21
-149.0983184578226
 31
0.0
  0
LINE
  5
98A
330
7C1
100
AcDbEntity
  8
2
  6
DASHED2
 62
     7
100
AcDbLine
 10
-717.9440103561494
 20
-138.4905549853387
 30
0.0
 11
-717.9440103561494
 21
-138.848320698479
 31
0.0
  0
ARC
  5
98B
330
7C1
100
AcDbEntity
  8
____1
  6
DASHED2
 62
     7
100
AcDbCircle
 10
-717.4440103561494
 20
-138.4905549853387
 30
0.0
 40
0.5000000000000331
100
AcDbArc
 50
97.0165017728021
 51
180.0
  0
LINE
  5
98C
330
7C1
100
AcDbEntity
  8
2
  6
DASHED2
 62
     7
100
AcDbLine
 10
-714.9440103561494
 20
-138.5483206984792
 30
0.0
 11
-710.3440103561494
 21
-138.5483206984792
 31
0.0
  0
LINE
  5
98D
330
7C1
100
AcDbEntity
  8
2
  6
DASHED2
 62
     7
100
AcDbLine
 10
-706.2440103824321
 20
-168.5483205353494
 30
0.0
 11
-693.6440103824319
 21
-168.5483202656915
 31
0.0
  0
ARC
  5
98E
330
7C1
100
AcDbEntity
  8
____1
  6
DASHED2
 62
     7
100
AcDbCircle
 10
-693.6440103824319
 20
-168.3483202656917
 30
0.0
 40
0.2000000000000455
100
AcDbArc
 50
270.0
 51
0.0
  0
ARC
  5
98F
330
7C1
100
AcDbEntity
  8
2
  6
DASHED2
 62
     7
100
AcDbCircle
 10
-705.4440103824321
 20
-138.4483186209523
 30
0.0
 40
0.5000000000000007
100
AcDbArc
 50
90.00000301176156
 51
180.0000100235027
  0
ARC
  5
990
330
7C1
100
AcDbEntity
  8
____1
  6
DASHED2
 62
     7
100
AcDbCircle
 10
-703.3440103824317
 20
-147.7483184578228
 30
0.0
 40
0.1999999999998181
100
AcDbArc
 50
270.0
 51
0.0
  0
LINE
  5
991
330
7C1
100
AcDbEntity
  8
____1
  6
DASHED2
 62
     7
100
AcDbLine
 10
-677.4440103824307
 20
-163.5483203124993
 30
0.0
 11
-689.944010382431
 21
-163.5483203124993
 31
0.0
  0
ARC
  5
992
330
7C1
100
AcDbEntity
  8
____1
  6
DASHED2
 62
     7
100
AcDbCircle
 10
-625.1170873055087
 20
-261.0483203124996
 30
0.0
 40
53.32692307692309
100
AcDbArc
 50
180.0
 51
208.5847505326657
  0
ARC
  5
993
330
7C1
100
AcDbEntity
  8
____1
  6
DASHED2
 62
     7
100
AcDbCircle
 10
-671.9440103824317
 20
-286.5630219568457
 30
0.0
 40
2.0
100
AcDbArc
 50
0.0
 51
28.58475053266818
  0
ARC
  5
994
330
7C1
100
AcDbEntity
  8
____1
  6
DASHED2
 62
     7
100
AcDbCircle
 10
-625.1170873055087
 20
-261.0483203124996
 30
0.0
 40
51.32692307692298
100
AcDbArc
 50
180.0
 51
208.5847505326678
  0
LINE
  5
995
330
7C1
100
AcDbEntity
  8
____1
  6
DASHED2
 62
     7
100
AcDbLine
 10
-670.9440102756767
 20
-261.0483203124996
 30
0.0
 11
-676.4440103824317
 21
-261.0483203124996
 31
0.0
  0
ARC
  5
996
330
7C1
100
AcDbEntity
  8
____1
  6
DASHED2
 62
     7
100
AcDbCircle
 10
-704.7440102339347
 20
-139.1483184578227
 30
0.0
 40
0.2000000000000473
100
AcDbArc
 50
90.0
 51
179.9999922652167
  0
LINE
  5
997
330
7C1
100
AcDbEntity
  8
2
  6
DASHED2
 62
     7
100
AcDbLine
 10
-704.9440102339348
 20
-139.1483184308232
 30
0.0
 11
-704.9440103824321
 21
-140.5483184578228
 31
0.0
  0
LINE
  5
998
330
7C1
100
AcDbEntity
  8
2
  6
DASHED2
 62
     7
100
AcDbLine
 10
-701.1440101394362
 20
-139.1483184848222
 30
0.0
 11
-701.1440103824319
 21
-141.2483185297118
 31
0.0
  0
LINE
  5
999
330
7C1
100
AcDbEntity
  8
____1
  6
DASHED2
 62
     7
100
AcDbLine
 10
-694.4440103824319
 20
-155.0483184578228
 30
0.0
 11
-694.4440103824319
 21
-158.5483184578228
 31
0.0
  0
LINE
  5
99A
330
7C1
100
AcDbEntity
  8
____1
  6
DASHED2
 62
     7
100
AcDbLine
 10
-683.944010382432
 20
-157.0483184578228
 30
0.0
 11
-691.944010382432
 21
-160.5483184578228
 31
0.0
  0
LINE
  5
99B
330
7C1
100
AcDbEntity
  8
____1
  6
DASHED2
 62
     7
100
AcDbLine
 10
-691.944010382432
 20
-157.0483184578228
 30
0.0
 11
-691.944010382432
 21
-160.5483184578228
 31
0.0
  0
LINE
  5
99C
330
7C1
100
AcDbEntity
  8
2
  6
DASHED2
 62
     7
100
AcDbLine
 10
-699.1440103824319
 20
-155.0483184578228
 30
0.0
 11
-699.1440103824319
 21
-158.5483184578228
 31
0.0
  0
POLYLINE
  5
99D
330
7C1
100
AcDbEntity
  8
____1
  6
DASHED2
 62
     7
100
AcDb3dPolyline
 66
     1
 10
0.0
 20
0.0
 30
0.0
 70
     8
  0
VERTEX
  5
99E
330
99D
100
AcDbEntity
  8
____1
 62
     7
100
AcDbVertex
100
AcDb3dPolylineVertex
 10
-704.194010382432
 20
-161.0165642943746
 30
0.0
 70
    32
  0
VERTEX
  5
99F
330
99D
100
AcDbEntity
  8
____1
 62
     7
100
AcDbVertex
100
AcDb3dPolylineVertex
 10
-704.0424350821151
 20
-160.9952011054999
 30
0.0
 70
    32
  0
VERTEX
  5
9A0
330
99D
100
AcDbEntity
  8
____1
 62
     7
100
AcDbVertex
100
AcDb3dPolylineVertex
 10
-703.9503612151214
 20
-160.8729151270642
 30
0.0
 70
    32
  0
VERTEX
  5
9A1
330
99D
100
AcDbEntity
  8
____1
 62
     7
100
AcDbVertex
100
AcDb3dPolylineVertex
 10
-703.9440103824319
 20
-160.822915127064
 30
0.0
 70
    32
  0
SEQEND
  5
9A2
330
99D
100
AcDbEntity
  8
____1
 62
     7
  0
ARC
  5
9A3
330
7C1
100
AcDbEntity
  8
____1
  6
DASHED2
 62
     7
100
AcDbCircle
 10
-695.6440103824323
 20
-139.7483184578228
 30
0.0
 40
0.2000000000000455
100
AcDbArc
 50
270.0
 51
0.0
  0
POLYLINE
  5
9A4
330
7C1
100
AcDbEntity
  8
____1
  6
DASHED2
 62
     7
100
AcDb3dPolyline
 66
     1
 10
0.0
 20
0.0
 30
0.0
 70
     8
  0
VERTEX
  5
9A5
330
9A4
100
AcDbEntity
  8
____1
 62
     7
100
AcDbVertex
100
AcDb3dPolylineVertex
 10
-703.1440096399457
 20
-140.7483184848223
 30
0.0
 70
    32
  0
VERTEX
  5
9A6
330
9A4
100
AcDbEntity
  8
____1
 62
     7
100
AcDbVertex
100
AcDb3dPolylineVertex
 10
-703.2025882646169
 20
-140.606897120677
 30
0.0
 70
    32
  0
VERTEX
  5
9A7
330
9A4
100
AcDbEntity
  8
____1
 62
     7
100
AcDbVertex
100
AcDb3dPolylineVertex
 10
-703.3440096129464
 20
-140.5483184578226
 30
0.0
 70
    32
  0
VERTEX
  5
9A8
330
9A4
100
AcDbEntity
  8
____1
 62
     7
100
AcDbVertex
100
AcDb3dPolylineVertex
 10
-703.3440096399456
 20
-140.5483184578226
 30
0.0
 70
    32
  0
SEQEND
  5
9A9
330
9A4
100
AcDbEntity
  8
____1
 62
     7
  0
LINE
  5
9AA
330
7C1
100
AcDbEntity
  8
____1
  6
DASHED2
 62
     7
100
AcDbLine
 10
-680.4440103824307
 20
-166.5483203124993
 30
0.0
 11
-688.4440103824308
 21
-166.5483203124993
 31
0.0
  0
LINE
  5
9AB
330
7C1
100
AcDbEntity
  8
____1
  6
DASHED2
 62
     7
100
AcDbLine
 10
-690.944010382431
 20
-164.5483203124993
 30
0.0
 11
-690.944010382431
 21
-168.5483203124989
 31
0.0
  0
ARC
  5
9AC
330
7C1
100
AcDbEntity
  8
____1
  6
DASHED2
 62
     7
100
AcDbCircle
 10
-689.944010382431
 20
-164.5483203124993
 30
0.0
 40
1.0
100
AcDbArc
 50
90.0
 51
180.0
  0
ARC
  5
9AD
330
7C1
100
AcDbEntity
  8
____1
  6
DASHED2
 62
     7
100
AcDbCircle
 10
-699.4440103824319
 20
-161.9983184578228
 30
0.0
 40
0.7500000000001953
100
AcDbArc
 50
193.5295863692876
 51
346.4704130174511
  0
LINE
  5
9AE
330
7C1
100
AcDbEntity
  8
____1
  6
DASHED2
 62
     7
100
AcDbLine
 10
-698.7148233236541
 20
-162.1737785196935
 30
0.0
 11
-698.444010382432
 21
-161.0483184578228
 31
0.0
  0
LINE
  5
9AF
330
7C1
100
AcDbEntity
  8
____1
  6
DASHED2
 62
     7
100
AcDbLine
 10
-700.1731974412088
 20
-162.1737785196935
 30
0.0
 11
-700.444010382432
 21
-161.0483184578228
 31
0.0
  0
LINE
  5
9B0
330
7C1
100
AcDbEntity
  8
2
  6
DASHED2
 62
     7
100
AcDbLine
 10
-701.6440103824319
 20
-151.3483184578227
 30
0.0
 11
-701.6440103824319
 21
-161.0483184578228
 31
0.0
  0
ARC
  5
9B1
330
7C1
100
AcDbEntity
  8
____1
  6
DASHED2
 62
     7
100
AcDbCircle
 10
-692.444010382432
 20
-160.5483184578228
 30
0.0
 40
0.5000000000000129
100
AcDbArc
 50
270.0000130208819
 51
0.0
  0
ARC
  5
9B2
330
7C1
100
AcDbEntity
  8
____1
  6
DASHED2
 62
     7
100
AcDbCircle
 10
-670.9440103824317
 20
-260.0483203124996
 30
0.0
 40
1.0
100
AcDbArc
 50
0.0
 51
90.0
  0
LINE
  5
9B3
330
7C1
100
AcDbEntity
  8
____1
  6
DASHED2
 62
     7
100
AcDbLine
 10
-670.9440103824317
 20
-259.0483203124996
 30
0.0
 11
-676.4440103824307
 21
-259.0483203124996
 31
0.0
  0
LINE
  5
9B4
330
7C1
100
AcDbEntity
  8
2
  6
DASHED2
 62
     7
100
AcDbLine
 10
-701.1440103824319
 20
-149.0483184578228
 30
0.0
 11
-701.1440103824319
 21
-147.2483186231949
 31
0.0
  0
ARC
  5
9B5
330
7C1
100
AcDbEntity
  8
____1
  6
DASHED2
 62
     7
100
AcDbCircle
 10
-703.1440103824319
 20
-150.4483184578227
 30
0.0
 40
0.2000000000000455
100
AcDbArc
 50
0.0
 51
90.0
  0
ARC
  5
9B6
330
7C1
100
AcDbEntity
  8
____1
  6
DASHED2
 62
     7
100
AcDbCircle
 10
-700.344010382432
 20
-150.0483184578228
 30
0.0
 40
0.2000000000000455
100
AcDbArc
 50
270.0
 51
0.0
  0
ARC
  5
9B7
330
7C1
100
AcDbEntity
  8
____1
  6
DASHED2
 62
     7
100
AcDbCircle
 10
-704.7440103824319
 20
-150.0483184578228
 30
0.0
 40
0.2000000000000455
100
AcDbArc
 50
180.0
 51
270.0
  0
ARC
  5
9B8
330
7C1
100
AcDbEntity
  8
____1
  6
DASHED2
 62
     7
100
AcDbCircle
 10
-701.7440103824319
 20
-150.4483184578227
 30
0.0
 40
0.1999999999998181
100
AcDbArc
 50
90.0
 51
180.0
  0
ARC
  5
9B9
330
7C1
100
AcDbEntity
  8
____1
  6
DASHED2
 62
     7
100
AcDbCircle
 10
-670.9440103824317
 20
-260.0483203124996
 30
0.0
 40
1.000000000000015
100
AcDbArc
 50
270.000006116618
 51
89.99999000423294
  0
LINE
  5
9BA
330
7C1
100
AcDbEntity
  8
____1
  6
DASHED2
 62
     7
100
AcDbLine
 10
-676.4440103824307
 20
-164.5483203124993
 30
0.0
 11
-676.4440103824307
 21
-259.0483203124996
 31
0.0
  0
LINE
  5
9BB
330
7C1
100
AcDbEntity
  8
____1
  6
DASHED2
 62
     7
100
AcDbLine
 10
-698.9440103824318
 20
-140.0483184578228
 30
0.0
 11
-698.9440103824318
 21
-155.0483184578229
 31
0.0
  0
LINE
  5
9BC
330
7C1
100
AcDbEntity
  8
2
  6
DASHED2
 62
     7
100
AcDbLine
 10
-687.944010382432
 20
-155.5483184578228
 30
0.0
 11
-694.4440103824319
 21
-155.5483184578228
 31
0.0
  0
ARC
  5
9BD
330
7C1
100
AcDbEntity
  8
____1
  6
DASHED2
 62
     7
100
AcDbCircle
 10
-681.444010382432
 20
-155.5483184578228
 30
0.0
 40
1.5
100
AcDbArc
 50
270.0
 51
0.0
  0
LINE
  5
9BE
330
7C1
100
AcDbEntity
  8
____1
  6
DASHED2
 62
     7
100
AcDbLine
 10
-679.944010382432
 20
-155.0483184578228
 30
0.0
 11
-679.944010382432
 21
-155.5483184578228
 31
0.0
  0
LINE
  5
9BF
330
7C1
100
AcDbEntity
  8
____1
  6
DASHED2
 62
     7
100
AcDbLine
 10
-703.3440103824317
 20
-147.9483184578227
 30
0.0
 11
-703.9440103824321
 21
-147.9483184578227
 31
0.0
  0
ARC
  5
9C0
330
7C1
100
AcDbEntity
  8
____1
  6
DASHED2
 62
     7
100
AcDbCircle
 10
-702.1440103824319
 20
-158.2483184578228
 30
0.0
 40
0.2000000000000455
100
AcDbArc
 50
270.0
 51
0.0
  0
LINE
  5
9C1
330
7C1
100
AcDbEntity
  8
____1
  6
DASHED2
 62
     7
100
AcDbLine
 10
-702.1440103824319
 20
-158.4483184578228
 30
0.0
 11
-702.9377578892846
 21
-158.4483184578228
 31
0.0
  0
LINE
  5
9C2
330
7C1
100
AcDbEntity
  8
____1
  6
DASHED2
 62
     7
100
AcDbLine
 10
-702.9440103824319
 20
-153.9483184578228
 30
0.0
 11
-703.9440103824319
 21
-153.9483184578228
 31
0.0
  0
LINE
  5
9C3
330
7C1
100
AcDbEntity
  8
2
  6
DASHED2
 62
     7
100
AcDbLine
 10
-694.4440103824319
 20
-155.0483184578228
 30
0.0
 11
-699.1440103824319
 21
-155.0483184578228
 31
0.0
  0
LINE
  5
9C4
330
7C1
100
AcDbEntity
  8
____1
  6
DASHED2
 62
     7
100
AcDbLine
 10
-688.4440103824308
 20
-168.5483203124989
 30
0.0
 11
-690.944010382431
 21
-168.5483203124989
 31
0.0
  0
ARC
  5
9C5
330
7C1
100
AcDbEntity
  8
____1
  6
DASHED2
 62
     7
100
AcDbCircle
 10
-677.4440103824307
 20
-164.5483203124993
 30
0.0
 40
1.0
100
AcDbArc
 50
0.0
 51
90.0
  0
LINE
  5
9C6
330
7C1
100
AcDbEntity
  8
____1
  6
DASHED2
 62
     7
100
AcDbLine
 10
-703.7440103824319
 20
-154.9483189138722
 30
0.0
 11
-703.7440103824319
 21
-153.9483184578228
 31
0.0
  0
LINE
  5
9C7
330
7C1
100
AcDbEntity
  8
2
  6
DASHED2
 62
     7
100
AcDbLine
 10
-701.944010382432
 20
-150.4483184578227
 30
0.0
 11
-701.944010382432
 21
-158.2483184578228
 31
0.0
  0
ARC
  5
9C8
330
7C1
100
AcDbEntity
  8
____1
  6
DASHED2
 62
     7
100
AcDbCircle
 10
-695.7440103824319
 20
-154.9483189138722
 30
0.0
 40
8.000000000000136
100
AcDbArc
 50
179.9999981967783
 51
205.9444761400897
  0
LINE
  5
9C9
330
7C1
100
AcDbEntity
  8
2
  6
DASHED2
 62
     7
100
AcDbLine
 10
-700.1440103824319
 20
-139.4148709638824
 30
0.0
 11
-700.1440103824319
 21
-141.2483186946527
 31
0.0
  0
LINE
  5
9CA
330
7C1
100
AcDbEntity
  8
2
  6
DASHED2
 62
     7
100
AcDbLine
 10
-701.4440103824321
 20
-137.9483184578228
 30
0.0
 11
-705.4440103824321
 21
-137.9483184578228
 31
0.0
  0
ARC
  5
9CB
330
7C1
100
AcDbEntity
  8
____1
  6
DASHED2
 62
     7
100
AcDbCircle
 10
-703.3440097479435
 20
-141.5483184578228
 30
0.0
 40
0.1999999999998181
100
AcDbArc
 50
270.0
 51
359.9999922652167
  0
LINE
  5
9CC
330
7C1
100
AcDbEntity
  8
____1
  6
DASHED2
 62
     7
100
AcDbLine
 10
-703.1440102192795
 20
-149.0983184578226
 30
0.0
 11
-703.1440102192795
 21
-139.0983184578227
 31
0.0
  0
LINE
  5
9CD
330
7C1
100
AcDbEntity
  8
____1
  6
DASHED2
 62
     7
100
AcDbLine
 10
-696.4440103824321
 20
-139.7954455462057
 30
0.0
 11
-699.9111305849705
 21
-139.2175921791159
 31
0.0
  0
ARC
  5
9CE
330
7C1
100
AcDbEntity
  8
____1
  6
DASHED2
 62
     7
100
AcDbCircle
 10
-700.6440103824319
 20
-141.2483184578228
 30
0.0
 40
0.5000000000000561
100
AcDbArc
 50
180.0000072133294
 51
359.9999728612903
  0
ARC
  5
9CF
330
7C1
100
AcDbEntity
  8
____1
  6
DASHED2
 62
     7
100
AcDbCircle
 10
-701.3440103824317
 20
-149.0483184578228
 30
0.0
 40
0.2000000000000455
100
AcDbArc
 50
270.0
 51
0.0
  0
LINE
  5
9D0
330
7C1
100
AcDbEntity
  8
____1
  6
DASHED2
 62
     7
100
AcDbLine
 10
-670.944010382432
 20
-440.5483203124994
 30
0.0
 11
-670.944010382432
 21
-448.5483203124994
 31
0.0
  0
LINE
  5
9D1
330
7C1
100
AcDbEntity
  8
____1
  6
DASHED2
 62
     7
100
AcDbLine
 10
-668.944010382432
 20
-448.5483203124994
 30
0.0
 11
-670.944010382432
 21
-448.5483203124994
 31
0.0
  0
LINE
  5
9D2
330
7C1
100
AcDbEntity
  8
____1
  6
DASHED2
 62
     7
100
AcDbLine
 10
-667.944010382432
 20
-440.5483203124994
 30
0.0
 11
-667.944010382432
 21
-447.5483203124993
 31
0.0
  0
ARC
  5
9D3
330
7C1
100
AcDbEntity
  8
____1
  6
DASHED2
 62
     7
100
AcDbCircle
 10
-668.944010382432
 20
-447.5483203124993
 30
0.0
 40
1.0
100
AcDbArc
 50
270.0
 51
0.0
  0
ARC
  5
9D4
330
7C1
100
AcDbEntity
  8
____1
  6
DASHED2
 62
     7
100
AcDbCircle
 10
-660.8116185882262
 20
-434.5483203124993
 30
0.0
 40
1.0
100
AcDbArc
 50
90.0
 51
177.0000000000069
  0
LINE
  5
9D5
330
7C1
100
AcDbEntity
  8
____1
  6
DASHED2
 62
     7
100
AcDbLine
 10
-523.9440114270522
 20
-448.5483208576418
 30
0.0
 11
-520.9440114270522
 21
-448.5483208196085
 31
0.0
  0
LINE
  5
9D6
330
7C1
100
AcDbEntity
  8
____1
  6
DASHED2
 62
     7
100
AcDbLine
 10
-520.9440114270522
 20
-448.5483208196085
 30
0.0
 11
-520.420200247763
 21
-433.5483203124995
 31
0.0
  0
LINE
  5
9D7
330
7C1
100
AcDbEntity
  8
____1
  6
DASHED2
 62
     7
100
AcDbLine
 10
-523.9440114270522
 20
-448.5483208576418
 30
0.0
 11
-524.467823369261
 21
-433.5483203124995
 31
0.0
  0
LINE
  5
9D8
330
7C1
100
AcDbEntity
  8
2
  6
DASHED2
 62
     7
100
AcDbLine
 10
-695.6440103824323
 20
-139.9483184578228
 30
0.0
 11
-696.4440103824321
 21
-139.9483184578228
 31
0.0
  0
LINE
  5
9D9
330
7C1
100
AcDbEntity
  8
2
  6
DASHED2
 62
     7
100
AcDbLine
 10
-696.4440103824321
 20
-139.7954455462057
 30
0.0
 11
-696.4440103824321
 21
-139.9483184578228
 31
0.0
  0
ARC
  5
9DA
330
7C1
100
AcDbEntity
  8
____1
  6
DASHED2
 62
     7
100
AcDbCircle
 10
-699.9440103824319
 20
-139.4148709638824
 30
0.0
 40
0.2000000000000455
100
AcDbArc
 50
80.53767779194226
 51
180.0
  0
ARC
  5
9DB
330
7C1
100
AcDbEntity
  8
____1
  6
DASHED2
 62
     7
100
AcDbCircle
 10
-695.9440103824321
 20
-139.3718820020143
 30
0.0
 40
0.5
100
AcDbArc
 50
0.0
 51
80.53767779196581
  0
LINE
  5
9DC
330
7C1
100
AcDbEntity
  8
2
  6
DASHED2
 62
     7
100
AcDbLine
 10
-700.1440103824319
 20
-150.0483184578228
 30
0.0
 11
-700.1440103824319
 21
-147.2483186231949
 31
0.0
  0
LINE
  5
9DD
330
7C1
100
AcDbEntity
  8
2
  6
DASHED2
 62
     7
100
AcDbLine
 10
-703.1440096399457
 20
-140.7483184848223
 30
0.0
 11
-703.1440097479435
 21
-141.5483184848222
 31
0.0
  0
LINE
  5
9DE
330
7C1
100
AcDbEntity
  8
____1
  6
DASHED2
 62
     7
100
AcDbLine
 10
-688.4440103824308
 20
-166.5483203124993
 30
0.0
 11
-688.4440103824308
 21
-168.5483203124989
 31
0.0
  0
ARC
  5
9DF
330
7C1
100
AcDbEntity
  8
____1
  6
DASHED2
 62
     7
100
AcDbCircle
 10
-700.6440103824319
 20
-147.2483184578228
 30
0.0
 40
0.5000000000000561
100
AcDbArc
 50
0.0000271387357239
 51
180.0000189502158
  0
LINE
  5
9E0
330
7C1
100
AcDbEntity
  8
____1
  6
DASHED2
 62
     7
100
AcDbLine
 10
-704.6449722767555
 20
-142.1983184578227
 30
0.0
 11
-703.9440103824321
 21
-143.4124200729608
 31
0.0
  0
LINE
  5
9E1
330
7C1
100
AcDbEntity
  8
2
  6
DASHED2
 62
     7
100
AcDbLine
 10
-703.3440097479435
 20
-141.7483184578226
 30
0.0
 11
-704.3851646556199
 21
-141.7483184578226
 31
0.0
  0
LINE
  5
9E2
330
7C1
100
AcDbEntity
  8
2
  6
DASHED2
 62
     7
100
AcDbLine
 10
-702.9440103824319
 20
-150.4483184578227
 30
0.0
 11
-702.9440103824319
 21
-153.9483184578228
 31
0.0
  0
LINE
  5
9E3
330
7C1
100
AcDbEntity
  8
____1
  6
DASHED2
 62
     7
100
AcDbLine
 10
-702.9440103824319
 20
-153.9483184578228
 30
0.0
 11
-703.7440103824319
 21
-153.9483184578228
 31
0.0
  0
ARC
  5
9E4
330
7C1
100
AcDbEntity
  8
____1
  6
DASHED2
 62
     7
100
AcDbCircle
 10
-704.3851646556199
 20
-142.0483184578228
 30
0.0
 40
0.3000000000000351
100
AcDbArc
 50
90.0
 51
209.999999999966
  0
LINE
  5
9E5
330
7C1
100
AcDbEntity
  8
2
  6
DASHED2
 62
     7
100
AcDbLine
 10
-703.3440096399456
 20
-140.5483184578228
 30
0.0
 11
-704.9440103824321
 21
-140.5483184578228
 31
0.0
  0
LINE
  5
9E6
330
7C1
100
AcDbEntity
  8
2
  6
DASHED2
 62
     7
100
AcDbLine
 10
-703.9440103824321
 20
-143.4124200729608
 30
0.0
 11
-703.9440103824321
 21
-146.7483184578228
 31
0.0
  0
ARC
  5
9E7
330
7C1
100
AcDbEntity
  8
____1
  6
DASHED2
 62
     7
100
AcDbCircle
 10
-701.3440101394364
 20
-139.1483184578227
 30
0.0
 40
0.2000000000000473
100
AcDbArc
 50
359.9999922652167
 51
90.0
  0
LINE
  5
9E8
330
7C1
100
AcDbEntity
  8
____1
  6
DASHED2
 62
     7
100
AcDbLine
 10
-695.8618108887795
 20
-138.8786850400983
 30
0.0
 11
-701.4440103824321
 21
-137.9483184578228
 31
0.0
  0
ARC
  5
9E9
330
7C1
100
AcDbEntity
  8
____1
  6
DASHED2
 62
     7
100
AcDbCircle
 10
-669.6940104389734
 20
-426.2983203124994
 30
0.0
 40
0.25
100
AcDbArc
 50
0.0
 51
180.0
  0
LINE
  5
9EA
330
7C1
100
AcDbEntity
  8
____1
  6
DASHED2
 62
     7
100
AcDbLine
 10
-595.1892448657396
 20
-433.5483203124995
 30
0.0
 11
-652.9440105520571
 21
-433.5483203124995
 31
0.0
  0
LINE
  5
9EB
330
7C1
100
AcDbEntity
  8
____1
  6
DASHED2
 62
     7
100
AcDbLine
 10
-592.360817740993
 20
-440.5483203124997
 30
0.0
 11
-595.1892448657396
 21
-440.5483203124997
 31
0.0
  0
LINE
  5
9EC
330
7C1
100
AcDbEntity
  8
____1
  6
DASHED2
 62
     7
100
AcDbLine
 10
-595.1892448657396
 20
-433.5483203124995
 30
0.0
 11
-595.1892448657396
 21
-440.5483203124997
 31
0.0
  0
LINE
  5
9ED
330
7C1
100
AcDbEntity
  8
____1
  6
DASHED2
 62
     7
100
AcDbLine
 10
-524.4678233692608
 20
-433.5483203124995
 30
0.0
 11
-539.6987760122073
 21
-433.5483203124995
 31
0.0
  0
LINE
  5
9EE
330
7C1
100
AcDbEntity
  8
____1
  6
DASHED2
 62
     7
100
AcDbLine
 10
-671.9440103824328
 20
-424.9483203124993
 30
0.0
 11
-671.9440103824328
 21
-440.5483203124994
 31
0.0
  0
LINE
  5
9EF
330
7C1
100
AcDbEntity
  8
____1
  6
DASHED2
 62
     7
100
AcDbLine
 10
-671.9440103824328
 20
-422.9483203124994
 30
0.0
 11
-678.4440103824327
 21
-422.9483203124994
 31
0.0
  0
LINE
  5
9F0
330
7C1
100
AcDbEntity
  8
____1
  6
DASHED2
 62
     7
100
AcDbLine
 10
-671.9440103824328
 20
-424.9483203124993
 30
0.0
 11
-678.4440103824309
 21
-424.9483203124993
 31
0.0
  0
ARC
  5
9F1
330
7C1
100
AcDbEntity
  8
____1
  6
DASHED2
 62
     7
100
AcDbCircle
 10
-670.4773437157647
 20
-426.5483203124993
 30
0.0
 40
1.133333333333261
100
AcDbArc
 50
298.0724869358401
 51
61.92751306415718
  0
LINE
  5
9F2
330
7C1
100
AcDbEntity
  8
____1
  6
DASHED2
 62
     7
100
AcDbLine
 10
-669.9440103824318
 20
-427.5483203124994
 30
0.0
 11
-669.9440103824318
 21
-430.0137283515065
 31
0.0
  0
LINE
  5
9F3
330
7C1
100
AcDbEntity
  8
____1
  6
DASHED2
 62
     7
100
AcDbLine
 10
-669.4440104389736
 20
-426.5483203124992
 30
0.0
 11
-669.4440104389736
 21
-426.2983203124994
 31
0.0
  0
ARC
  5
9F4
330
7C1
100
AcDbEntity
  8
____1
  6
DASHED2
 62
     7
100
AcDbCircle
 10
-664.4440104389736
 20
-426.5483203124993
 30
0.0
 40
5.0
100
AcDbArc
 50
179.9999999999961
 51
270.0
  0
LINE
  5
9F5
330
7C1
100
AcDbEntity
  8
____1
  6
DASHED2
 62
     7
100
AcDbLine
 10
-666.2569139063247
 20
-437.0483203124993
 30
0.0
 11
-669.9440103824318
 21
-430.0137283515065
 31
0.0
  0
LINE
  5
9F6
330
7C1
100
AcDbEntity
  8
____1
  6
DASHED2
 62
     7
100
AcDbLine
 10
-671.9440103824328
 20
-440.5483203124994
 30
0.0
 11
-678.4440103824309
 21
-424.9483203124993
 31
0.0
  0
LINE
  5
9F7
330
7C1
100
AcDbEntity
  8
____1
  6
DASHED2
 62
     7
100
AcDbLine
 10
-656.9440103824318
 20
-440.5483203124994
 30
0.0
 11
-656.9440103824318
 21
-433.5483203124993
 31
0.0
  0
LINE
  5
9F8
330
7C1
100
AcDbEntity
  8
____1
  6
DASHED2
 62
     7
100
AcDbLine
 10
-654.9440104389734
 20
-440.5483203124997
 30
0.0
 11
-652.9440104389736
 21
-440.5483203124997
 31
0.0
  0
ARC
  5
9F9
330
7C1
100
AcDbEntity
  8
____1
  6
DASHED2
 62
     7
100
AcDbCircle
 10
-661.1440104389751
 20
-434.5483203124993
 30
0.0
 40
1.0
100
AcDbArc
 50
90.0
 51
179.9999999999869
  0
LINE
  5
9FA
330
7C1
100
AcDbEntity
  8
____1
  6
DASHED2
 62
     7
100
AcDbLine
 10
-662.1440104389752
 20
-434.5483203124993
 30
0.0
 11
-662.1440104389757
 21
-437.0483203124995
 31
0.0
  0
LINE
  5
9FB
330
7C1
100
AcDbEntity
  8
____1
  6
DASHED2
 62
     7
100
AcDbLine
 10
-666.1440104389757
 20
-437.0483203124995
 30
0.0
 11
-662.1440104389757
 21
-437.0483203124995
 31
0.0
  0
LINE
  5
9FC
330
7C1
100
AcDbEntity
  8
____1
  6
DASHED2
 62
     7
100
AcDbLine
 10
-666.1440104389757
 20
-437.0483203124995
 30
0.0
 11
-669.9440104389741
 21
-429.7983203124994
 31
0.0
  0
LINE
  5
9FD
330
7C1
100
AcDbEntity
  8
____1
  6
DASHED2
 62
     7
100
AcDbLine
 10
-652.9440104389736
 20
-433.5483203124995
 30
0.0
 11
-652.9440104389736
 21
-440.5483203124997
 31
0.0
  0
LINE
  5
9FE
330
7C1
100
AcDbEntity
  8
____1
  6
DASHED2
 62
     7
100
AcDbLine
 10
-654.9440104389734
 20
-433.5483203124995
 30
0.0
 11
-654.9440104389734
 21
-440.5483203124997
 31
0.0
  0
ARC
  5
9FF
330
7C1
100
AcDbEntity
  8
____1
  6
DASHED2
 62
     7
100
AcDbCircle
 10
-663.9440104657722
 20
-426.5483203124993
 30
0.0
 40
5.0
100
AcDbArc
 50
269.9999969290464
 51
270.0
  0
LINE
  5
A00
330
7C1
100
AcDbEntity
  8
____1
  6
DASHED2
 62
     7
100
AcDbLine
 10
-669.9440104389736
 20
-426.2983203124994
 30
0.0
 11
-669.9440104389741
 21
-429.7983203124994
 31
0.0
  0
LINE
  5
A01
330
7C1
100
AcDbEntity
  8
____1
  6
DASHED2
 62
     7
100
AcDbLine
 10
-661.1440104389751
 20
-433.5483203124995
 30
0.0
 11
-654.9440104389734
 21
-433.5483203124995
 31
0.0
  0
LINE
  5
A02
330
7C1
100
AcDbEntity
  8
____1
  6
DASHED2
 62
     7
100
AcDbLine
 10
-494.4440104955154
 20
-158.8483184578228
 30
0.0
 11
-467.4440104955155
 21
-158.8483184578228
 31
0.0
  0
LINE
  5
A03
330
7C1
100
AcDbEntity
  8
____1
  6
DASHED2
 62
     7
100
AcDbLine
 10
-467.4440104955155
 20
-175.0483184578228
 30
0.0
 11
-494.4440104955154
 21
-175.0483184578228
 31
0.0
  0
LINE
  5
A04
330
7C1
100
AcDbEntity
  8
____1
  6
DASHED2
 62
     7
100
AcDbLine
 10
-467.4440104955155
 20
-173.8483184578228
 30
0.0
 11
-494.4440104955154
 21
-173.8483184578228
 31
0.0
  0
LINE
  5
A05
330
7C1
100
AcDbEntity
  8
____1
  6
DASHED2
 62
     7
100
AcDbLine
 10
-262.9440104955155
 20
-140.0483184578228
 30
0.0
 11
-694.8817709121827
 21
-140.0483184578228
 31
0.0
  0
LINE
  5
A06
330
7C1
100
AcDbEntity
  8
____1
  6
DASHED2
 62
     7
100
AcDbLine
 10
-481.9440104389736
 20
-433.5483203124995
 30
0.0
 11
-520.420200247763
 21
-433.5483203124995
 31
0.0
  0
LINE
  5
A07
330
7C1
100
AcDbEntity
  8
____1
  6
DASHED2
 62
     7
100
AcDbLine
 10
-698.9440104955153
 20
-155.0483184578229
 30
0.0
 11
-262.9440104955155
 21
-155.0483184578229
 31
0.0
  0
LINE
  5
A08
330
7C1
100
AcDbEntity
  8
____1
  6
DASHED2
 62
     7
100
AcDbLine
 10
-698.9440104955153
 20
-152.0483184578229
 30
0.0
 11
-262.9440104955155
 21
-152.0483184578229
 31
0.0
  0
LINE
  5
A09
330
7C1
100
AcDbEntity
  8
____1
  6
DASHED2
 62
     7
100
AcDbLine
 10
-292.1940105269964
 20
-426.0483203124993
 30
0.0
 11
-669.6940104640344
 21
-426.0483203124993
 31
0.0
  0
LINE
  5
A0A
330
7C1
100
AcDbEntity
  8
____1
  6
DASHED2
 62
     7
100
AcDbLine
 10
-297.4440104389736
 20
-431.5483203124994
 30
0.0
 11
-664.4440104139121
 21
-431.5483203124994
 31
0.0
  0
LINE
  5
A0B
330
7C1
100
AcDbEntity
  8
____1
  6
DASHED2
 62
     7
100
AcDbLine
 10
-494.4440104955154
 20
-160.0483184578228
 30
0.0
 11
-467.4440104955155
 21
-160.0483184578228
 31
0.0
  0
LINE
  5
A0C
330
7C1
100
AcDbEntity
  8
____1
  6
DASHED2
 62
     7
100
AcDbLine
 10
-678.4440103824309
 20
-168.5483203124993
 30
0.0
 11
-678.4440103824309
 21
-424.9483203124993
 31
0.0
  0
LINE
  5
A0D
330
7C1
100
AcDbEntity
  8
____1
  6
DASHED2
 62
     7
100
AcDbLine
 10
-671.9440103824328
 20
-286.5630219568438
 30
0.0
 11
-671.9440103824328
 21
-422.9483203124994
 31
0.0
  0
LINE
  5
A0E
330
7C1
100
AcDbEntity
  8
____1
  6
DASHED2
 62
     7
100
AcDbLine
 10
-669.9440103824318
 20
-286.5630219568457
 30
0.0
 11
-669.9440103824318
 21
-425.5483203124994
 31
0.0
  0
LINE
  5
A0F
330
7C1
100
AcDbEntity
  8
____1
  6
DASHED2
 62
     7
100
AcDbLine
 10
-289.9440104955145
 20
-286.5630219568438
 30
0.0
 11
-289.9440104955145
 21
-422.9483203124994
 31
0.0
  0
LINE
  5
A10
330
7C1
100
AcDbEntity
  8
____1
  6
DASHED2
 62
     7
100
AcDbLine
 10
-283.4440104955163
 20
-168.5483203124993
 30
0.0
 11
-283.4440104955163
 21
-424.9483203124993
 31
0.0
  0
LINE
  5
A11
330
7C1
100
AcDbEntity
  8
____1
  6
DASHED2
 62
     7
100
AcDbLine
 10
-291.9440104955155
 20
-286.5630219568457
 30
0.0
 11
-291.9440104955155
 21
-425.5483203124994
 31
0.0
  0
LINE
  5
A12
330
7C1
100
AcDbEntity
  8
____1
  6
DASHED2
 62
     7
100
AcDbLine
 10
-542.5272031369536
 20
-433.5483203124995
 30
0.0
 11
-542.5272031369536
 21
-440.5483203124997
 31
0.0
  0
LINE
  5
A13
330
7C1
100
AcDbEntity
  8
____1
  6
DASHED2
 62
     7
100
AcDbLine
 10
-542.5272031369536
 20
-433.5483203124995
 30
0.0
 11
-592.360817740993
 21
-433.5483203124995
 31
0.0
  0
LINE
  5
A14
330
7C1
100
AcDbEntity
  8
____1
  6
DASHED2
 62
     7
100
AcDbLine
 10
-539.6987760122073
 20
-440.5483203124997
 30
0.0
 11
-542.5272031369536
 21
-440.5483203124997
 31
0.0
  0
LINE
  5
A15
330
7C1
100
AcDbEntity
  8
____1
  6
DASHED2
 62
     7
100
AcDbLine
 10
-539.6987760122073
 20
-433.5483203124995
 30
0.0
 11
-539.6987760122073
 21
-440.5483203124997
 31
0.0
  0
LINE
  5
A16
330
7C1
100
AcDbEntity
  8
____1
  6
DASHED2
 62
     7
100
AcDbLine
 10
-592.360817740993
 20
-433.5483203124995
 30
0.0
 11
-592.360817740993
 21
-440.5483203124997
 31
0.0
  0
LINE
  5
A17
330
7C1
100
AcDbEntity
  8
____1
  6
DASHED2
 62
     7
100
AcDbLine
 10
-661.9440103824318
 20
-437.0483203124993
 30
0.0
 11
-661.8102481229807
 21
-434.4959843562564
 31
0.0
  0
LINE
  5
A18
330
7C1
100
AcDbEntity
  8
____1
  6
DASHED2
 62
     7
100
AcDbLine
 10
-661.9440103824318
 20
-437.0483203124993
 30
0.0
 11
-666.2569139063247
 21
-437.0483203124993
 31
0.0
  0
LINE
  5
A19
330
7C1
100
AcDbEntity
  8
____1
  6
DASHED2
 62
     7
100
AcDbLine
 10
-656.9440103824318
 20
-433.5483203124993
 30
0.0
 11
-660.8116185882262
 21
-433.5483203124993
 31
0.0
  0
LINE
  5
A1A
330
7C1
100
AcDbEntity
  8
____1
  6
DASHED2
 62
     7
100
AcDbLine
 10
-671.9440103824328
 20
-440.5483203124994
 30
0.0
 11
-656.9440103824318
 21
-440.5483203124994
 31
0.0
  0
ENDBLK
  5
A1B
330
7C1
100
AcDbEntity
  8
0
100
AcDbBlockEnd
  0
BLOCK
  5
A1D
330
A1C
100
AcDbEntity
  8
0
100
AcDbBlockBegin
  2
C2
 70
     0
 10
0.0
 20
0.0
 30
0.0
  3
C2
  1

  0
ARC
  5
A1E
330
A1C
100
AcDbEntity
  8
____1
  6
DASHED2
 62
     7
100
AcDbCircle
 10
-663.4440104955102
 20
447.1762496081788
 30
0.0
 40
6.500000000000052
100
AcDbArc
 50
89.99999271183424
 51
135.0000000000028
  0
ARC
  5
A1F
330
A1C
100
AcDbEntity
  8
____1
  6
DASHED2
 62
     7
100
AcDbCircle
 10
-651.4440104955101
 20
435.1762496081788
 30
0.0
 40
24.99999999999977
100
AcDbArc
 50
90.00000398488111
 51
135.0000000000033
  0
LINE
  5
A20
330
A1C
100
AcDbEntity
  8
____1
  6
DASHED2
 62
     7
100
AcDbLine
 10
-705.9440104955053
 20
489.6762496081863
 30
0.0
 11
-695.4440104955055
 21
479.1762496081858
 31
0.0
  0
ARC
  5
A21
330
A1C
100
AcDbEntity
  8
____1
  6
DASHED2
 62
     7
100
AcDbCircle
 10
-651.4440104955101
 20
435.1762496081716
 30
0.0
 40
25.00000000000005
100
AcDbArc
 50
135.0000000000029
 51
180.0000009111291
  0
INSERT
  5
A23
330
A1C
100
AcDbEntity
  8
____1
  6
DASHED2
 62
     7
100
AcDbBlockReference
  2
C3
 10
0.0
 20
0.0
 30
0.0
  0
ARC
  5
A24
330
A1C
100
AcDbEntity
  8
____1
  6
DASHED2
 62
     7
100
AcDbCircle
 10
-310.4440104955141
 20
94.17624960818221
 30
0.0
 40
25.0
100
AcDbArc
 50
269.9999958257355
 51
315.0000000000037
  0
ARC
  5
A25
330
A1C
100
AcDbEntity
  8
____1
  6
DASHED2
 62
     7
100
AcDbCircle
 10
-298.4440104955142
 20
82.1762496081822
 30
0.0
 40
6.500000000000056
100
AcDbArc
 50
269.9999925085584
 51
315.000000000003
  0
ARC
  5
A26
330
A1C
100
AcDbEntity
  8
____1
  6
DASHED2
 62
     7
100
AcDbCircle
 10
-298.4440104955149
 20
82.1762496081892
 30
0.0
 40
6.500000000000132
100
AcDbArc
 50
315.0000000000028
 51
359.9999865333668
  0
LINE
  5
A27
330
A1C
100
AcDbEntity
  8
____1
  6
DASHED2
 62
     7
100
AcDbLine
 10
-255.9440104955144
 20
39.6762496081749
 30
0.0
 11
-266.4440104955144
 21
50.17624960817493
 31
0.0
  0
LINE
  5
A28
330
A1C
100
AcDbEntity
  8
____1
  6
DASHED2
 62
     7
100
AcDbLine
 10
-255.9440104955139
 20
39.67624960817519
 30
0.0
 11
-266.4440104955137
 21
50.17624960817544
 31
0.0
  0
ARC
  5
A29
330
A1C
100
AcDbEntity
  8
____1
  6
DASHED2
 62
     7
100
AcDbCircle
 10
-310.4440104955148
 20
94.17624960818919
 30
0.0
 40
25.0
100
AcDbArc
 50
315.0000000000028
 51
0.0000009111292677
  0
ARC
  5
A2A
330
A1C
100
AcDbEntity
  8
____1
  6
DASHED2
 62
     7
100
AcDbCircle
 10
-310.4440104955212
 20
435.1762496081788
 30
0.0
 40
24.99999999999993
100
AcDbArc
 50
45.00000000000285
 51
90.00000781778064
  0
ARC
  5
A2B
330
A1C
100
AcDbEntity
  8
____1
  6
DASHED2
 62
     7
100
AcDbCircle
 10
-298.4440104955212
 20
447.1762496081788
 30
0.0
 40
6.500000000000052
100
AcDbArc
 50
45.00000000000214
 51
90.00001081848353
  0
LINE
  5
A2C
330
A1C
100
AcDbEntity
  8
____1
  6
DASHED2
 62
     7
100
AcDbLine
 10
-255.9440104955144
 20
489.6762496081759
 30
0.0
 11
-266.4440104955144
 21
479.1762496081759
 31
0.0
  0
ARC
  5
A2D
330
A1C
100
AcDbEntity
  8
____1
  6
DASHED2
 62
     7
100
AcDbCircle
 10
-310.4440104955147
 20
435.1762496081786
 30
0.0
 40
25.0
100
AcDbArc
 50
0.0000039848811469
 51
45.0000000000034
  0
LINE
  5
A2E
330
A1C
100
AcDbEntity
  8
____1
  6
DASHED2
 62
     7
100
AcDbLine
 10
-255.9440104955144
 20
489.6762496081759
 30
0.0
 11
-266.4440104955144
 21
479.1762496081761
 31
0.0
  0
ARC
  5
A2F
330
A1C
100
AcDbEntity
  8
____1
  6
DASHED2
 62
     7
100
AcDbCircle
 10
-298.4440104955146
 20
447.1762496081786
 30
0.0
 40
6.500000000000052
100
AcDbArc
 50
359.9999927118342
 51
45.00000000000285
  0
LINE
  5
A30
330
A1C
100
AcDbEntity
  8
____1
  6
DASHED2
 62
     7
100
AcDbLine
 10
-255.9440104955144
 20
489.6762496081759
 30
0.0
 11
-705.9440104955152
 21
489.6762496081759
 31
0.0
  0
LINE
  5
A31
330
A1C
100
AcDbEntity
  8
____1
  6
DASHED2
 62
     7
100
AcDbLine
 10
-266.4440104955144
 20
479.1762496081759
 30
0.0
 11
-695.4440104955148
 21
479.1762496081759
 31
0.0
  0
LINE
  5
A32
330
A1C
100
AcDbEntity
  8
____1
  6
DASHED2
 62
     7
100
AcDbLine
 10
-651.4440100979477
 20
69.17624960818227
 30
0.0
 11
-310.4440123168807
 21
69.17624960818227
 31
0.0
  0
LINE
  5
A33
330
A1C
100
AcDbEntity
  8
____1
  6
DASHED2
 62
     7
100
AcDbLine
 10
-663.444010495503
 20
75.6762496081822
 30
0.0
 11
-298.4440113453911
 21
75.6762496081822
 31
0.0
  0
LINE
  5
A34
330
A1C
100
AcDbEntity
  8
____1
  6
DASHED2
 62
     7
100
AcDbLine
 10
-310.4440139066713
 20
460.1762496081784
 30
0.0
 11
-651.444012234242
 21
460.1762496081784
 31
0.0
  0
LINE
  5
A35
330
A1C
100
AcDbEntity
  8
____1
  6
DASHED2
 62
     7
100
AcDbLine
 10
-298.4440117228393
 20
453.6762496081788
 30
0.0
 11
-663.4440096686939
 21
453.6762496081788
 31
0.0
  0
LINE
  5
A36
330
A1C
100
AcDbEntity
  8
____1
  6
DASHED2
 62
     7
100
AcDbLine
 10
-705.9440104955147
 20
39.6762496081849
 30
0.0
 11
-255.9440104955139
 21
39.67624960817519
 31
0.0
  0
LINE
  5
A37
330
A1C
100
AcDbEntity
  8
____1
  6
DASHED2
 62
     7
100
AcDbLine
 10
-695.4440104955144
 20
50.17624960818471
 30
0.0
 11
-266.4440104955139
 21
50.17624960817544
 31
0.0
  0
INSERT
  5
A39
330
A1C
100
AcDbEntity
  8
____1
  6
DASHED2
 62
     7
100
AcDbBlockReference
  2
C4
 10
0.0
 20
0.0
 30
0.0
  0
LINE
  5
A3A
330
A1C
100
AcDbEntity
  8
____1
  6
DASHED2
 62
     7
100
AcDbLine
 10
-705.9440104955148
 20
39.67624960818503
 30
0.0
 11
-705.9440104955053
 21
489.6762496081863
 31
0.0
  0
LINE
  5
A3B
330
A1C
100
AcDbEntity
  8
____1
  6
DASHED2
 62
     7
100
AcDbLine
 10
-695.4440104955146
 20
50.17624960818483
 30
0.0
 11
-695.4440104955055
 21
479.1762496081856
 31
0.0
  0
LINE
  5
A3C
330
A1C
100
AcDbEntity
  8
____1
  6
DASHED2
 62
     7
100
AcDbLine
 10
-676.4440104955101
 20
435.1762492106166
 30
0.0
 11
-676.4440104955101
 21
94.17624786945031
 31
0.0
  0
LINE
  5
A3D
330
A1C
100
AcDbEntity
  8
____1
  6
DASHED2
 62
     7
100
AcDbLine
 10
-669.9440104955101
 20
447.1762496081717
 30
0.0
 11
-669.9440104955101
 21
82.17624841307474
 31
0.0
  0
LINE
  5
A3E
330
A1C
100
AcDbEntity
  8
____1
  6
DASHED2
 62
     7
100
AcDbLine
 10
-255.9440104955144
 20
489.6762496081759
 30
0.0
 11
-255.9440104955144
 21
39.6762496081749
 31
0.0
  0
LINE
  5
A3F
330
A1C
100
AcDbEntity
  8
____1
  6
DASHED2
 62
     7
100
AcDbLine
 10
-266.4440104955144
 20
479.1762496081761
 30
0.0
 11
-266.4440104955144
 21
50.17624960817514
 31
0.0
  0
LINE
  5
A40
330
A1C
100
AcDbEntity
  8
____1
  6
DASHED2
 62
     7
100
AcDbLine
 10
-285.4440104955149
 20
94.17625000574437
 30
0.0
 11
-285.4440104955147
 21
435.1762513469106
 31
0.0
  0
LINE
  5
A41
330
A1C
100
AcDbEntity
  8
____1
  6
DASHED2
 62
     7
100
AcDbLine
 10
-291.9440104955149
 20
82.17624808044822
 30
0.0
 11
-291.9440104955146
 21
447.1762487813625
 31
0.0
  0
ARC
  5
A42
330
A1C
100
AcDbEntity
  8
____1
  6
DASHED2
 62
     7
100
AcDbCircle
 10
-651.4440104955101
 20
94.17624960818228
 30
0.0
 40
25.00000000000006
100
AcDbArc
 50
180.0000039848811
 51
225.0000000000033
  0
ARC
  5
A43
330
A1C
100
AcDbEntity
  8
____1
  6
DASHED2
 62
     7
100
AcDbCircle
 10
-663.4440104955102
 20
82.17624960818227
 30
0.0
 40
6.499999999999996
100
AcDbArc
 50
180.0000105345545
 51
225.0000000000034
  0
LINE
  5
A44
330
A1C
100
AcDbEntity
  8
____1
  6
DASHED2
 62
     7
100
AcDbLine
 10
-705.9440104955148
 20
39.67624960818503
 30
0.0
 11
-695.4440104955146
 21
50.17624960818483
 31
0.0
  0
LINE
  5
A45
330
A1C
100
AcDbEntity
  8
____1
  6
DASHED2
 62
     7
100
AcDbLine
 10
-705.9440104955147
 20
39.6762496081849
 30
0.0
 11
-695.4440104955144
 21
50.17624960818471
 31
0.0
  0
ARC
  5
A46
330
A1C
100
AcDbEntity
  8
____1
  6
DASHED2
 62
     7
100
AcDbCircle
 10
-651.444010495503
 20
94.17624960818221
 30
0.0
 40
24.99999999999996
100
AcDbArc
 50
225.0000000000027
 51
270.0000009111293
  0
ARC
  5
A47
330
A1C
100
AcDbEntity
  8
____1
  6
DASHED2
 62
     7
100
AcDbCircle
 10
-663.444010495503
 20
82.1762496081822
 30
0.0
 40
6.500000000000052
100
AcDbArc
 50
225.0000000000021
 51
270.0
  0
LINE
  5
A48
330
A1C
100
AcDbEntity
  8
____1
  6
DASHED2
 62
     7
100
AcDbLine
 10
-705.9440104955152
 20
489.6762496081759
 30
0.0
 11
-695.4440104955152
 21
479.1762496081759
 31
0.0
  0
ARC
  5
A49
330
A1C
100
AcDbEntity
  8
____1
  6
DASHED2
 62
     7
100
AcDbCircle
 10
-663.4440104955102
 20
447.1762496081717
 30
0.0
 40
6.500000000000132
100
AcDbArc
 50
135.0000000000028
 51
180.0
  0
ENDBLK
  5
A4A
330
A1C
100
AcDbEntity
  8
0
100
AcDbBlockEnd
  0
BLOCK
  5
A4B
330
A22
100
AcDbEntity
  8
0
100
AcDbBlockBegin
  2
C3
 70
     0
 10
0.0
 20
0.0
 30
0.0
  3
C3
  1

  0
LINE
  5
A4C
330
A22
100
AcDbEntity
  8
____1
  6
DASHED2
 62
     7
100
AcDbLine
 10
-336.4940105217978
 20
249.0371319134243
 30
0.0
 11
-336.4940105217978
 21
297.3762496081832
 31
0.0
  0
LINE
  5
A4D
330
A22
100
AcDbEntity
  8
____1
  6
DASHED2
 62
     7
100
AcDbLine
 10
-331.3940105217977
 20
249.0371319134243
 30
0.0
 11
-331.3940105217977
 21
297.3762496081832
 31
0.0
  0
LINE
  5
A4E
330
A22
100
AcDbEntity
  8
____1
  6
DASHED2
 62
     7
100
AcDbLine
 10
-331.3940105217977
 20
297.3762496081832
 30
0.0
 11
-336.4940105217978
 21
297.3762496081832
 31
0.0
  0
LINE
  5
A4F
330
A22
100
AcDbEntity
  8
____1
  6
DASHED2
 62
     7
100
AcDbLine
 10
-323.4440105217978
 20
219.6762496081832
 30
0.0
 11
-323.4440105217978
 21
309.6762496081832
 31
0.0
  0
LINE
  5
A50
330
A22
100
AcDbEntity
  8
____1
  6
DASHED2
 62
     7
100
AcDbLine
 10
-344.4440105217978
 20
309.6762496081832
 30
0.0
 11
-344.4440105217978
 21
219.6762496081832
 31
0.0
  0
LINE
  5
A51
330
A22
100
AcDbEntity
  8
____1
  6
DASHED2
 62
     7
100
AcDbLine
 10
-320.9440105217977
 20
219.6762496081832
 30
0.0
 11
-320.9440105217977
 21
309.6762496081832
 31
0.0
  0
LINE
  5
A52
330
A22
100
AcDbEntity
  8
____1
  6
DASHED2
 62
     7
100
AcDbLine
 10
-342.4940105217978
 20
240.376249608183
 30
0.0
 11
-342.4940105217978
 21
240.8762496081831
 31
0.0
  0
ARC
  5
A53
330
A22
100
AcDbEntity
  8
____1
  6
DASHED2
 62
     7
100
AcDbCircle
 10
-323.9440105217977
 20
219.6762496081832
 30
0.0
 40
0.5
100
AcDbArc
 50
270.0
 51
0.0
  0
LINE
  5
A54
330
A22
100
AcDbEntity
  8
____1
  6
DASHED2
 62
     7
100
AcDbLine
 10
-343.9440105217977
 20
219.1762496081832
 30
0.0
 11
-323.9440105217977
 21
219.1762496081832
 31
0.0
  0
ARC
  5
A55
330
A22
100
AcDbEntity
  8
____1
  6
DASHED2
 62
     7
100
AcDbCircle
 10
-343.9440105217977
 20
219.6762496081832
 30
0.0
 40
0.5
100
AcDbArc
 50
180.0
 51
270.0
  0
ARC
  5
A56
330
A22
100
AcDbEntity
  8
____1
  6
DASHED2
 62
     7
100
AcDbCircle
 10
-323.9440105217977
 20
219.6762496081832
 30
0.0
 40
3.0
100
AcDbArc
 50
270.0
 51
0.0
  0
ARC
  5
A57
330
A22
100
AcDbEntity
  8
____1
  6
DASHED2
 62
     7
100
AcDbCircle
 10
-323.9440105217977
 20
309.6762496081832
 30
0.0
 40
0.4999999999999434
100
AcDbArc
 50
0.0
 51
90.0
  0
LINE
  5
A58
330
A22
100
AcDbEntity
  8
____1
  6
DASHED2
 62
     7
100
AcDbLine
 10
-323.9440105217977
 20
310.1762496081831
 30
0.0
 11
-343.9440105217977
 21
310.1762496081831
 31
0.0
  0
LINE
  5
A59
330
A22
100
AcDbEntity
  8
____1
  6
DASHED2
 62
     7
100
AcDbLine
 10
-346.9440105217977
 20
309.6762496081832
 30
0.0
 11
-346.9440105217977
 21
219.6762496081832
 31
0.0
  0
ARC
  5
A5A
330
A22
100
AcDbEntity
  8
____1
  6
DASHED2
 62
     7
100
AcDbCircle
 10
-343.9440105217977
 20
309.6762496081832
 30
0.0
 40
0.4999999999999434
100
AcDbArc
 50
90.0
 51
180.0
  0
ARC
  5
A5B
330
A22
100
AcDbEntity
  8
____1
  6
DASHED2
 62
     7
100
AcDbCircle
 10
-323.9440105217977
 20
309.6762496081832
 30
0.0
 40
2.999999999999943
100
AcDbArc
 50
0.0
 51
90.0
  0
LINE
  5
A5C
330
A22
100
AcDbEntity
  8
____1
  6
DASHED2
 62
     7
100
AcDbLine
 10
-323.9440105217977
 20
312.6762496081831
 30
0.0
 11
-343.9440105217977
 21
312.6762496081831
 31
0.0
  0
ARC
  5
A5D
330
A22
100
AcDbEntity
  8
____1
  6
DASHED2
 62
     7
100
AcDbCircle
 10
-343.9440105217977
 20
309.6762496081832
 30
0.0
 40
2.999999999999943
100
AcDbArc
 50
90.0
 51
180.0
  0
LINE
  5
A5E
330
A22
100
AcDbEntity
  8
____1
  6
DASHED2
 62
     7
100
AcDbLine
 10
-343.9440105217977
 20
216.6762496081832
 30
0.0
 11
-323.9440105217977
 21
216.6762496081832
 31
0.0
  0
ARC
  5
A5F
330
A22
100
AcDbEntity
  8
____1
  6
DASHED2
 62
     7
100
AcDbCircle
 10
-343.9440105217977
 20
219.6762496081832
 30
0.0
 40
3.0
100
AcDbArc
 50
180.0
 51
270.0
  0
LINE
  5
A60
330
A22
100
AcDbEntity
  8
____1
  6
DASHED2
 62
     7
100
AcDbLine
 10
-325.3940105217977
 20
240.376249608183
 30
0.0
 11
-325.3940105217977
 21
240.8762496081831
 31
0.0
  0
ARC
  5
A61
330
A22
100
AcDbEntity
  8
____1
  6
DASHED2
 62
     7
100
AcDbCircle
 10
-333.9440105217978
 20
240.376249608183
 30
0.0
 40
8.550000000000016
100
AcDbArc
 50
180.0000017404146
 51
359.9999986721923
  0
ARC
  5
A62
330
A22
100
AcDbEntity
  8
____1
  6
DASHED2
 62
     7
100
AcDbCircle
 10
-333.9440105217978
 20
240.8762496081831
 30
0.0
 40
8.549999999999952
100
AcDbArc
 50
107.3522610682155
 51
72.64773893178449
  0
ENDBLK
  5
A63
330
A22
100
AcDbEntity
  8
0
100
AcDbBlockEnd
  0
BLOCK
  5
A64
330
A38
100
AcDbEntity
  8
0
100
AcDbBlockBegin
  2
C4
 70
     0
 10
0.0
 20
0.0
 30
0.0
  3
C4
  1

  0
LINE
  5
A65
330
A38
100
AcDbEntity
  8
____1
  6
DASHED2
 62
     7
100
AcDbLine
 10
-706.4440104955162
 20
39.17624958189332
 30
0.0
 11
-255.4440104955153
 21
39.17624958189311
 31
0.0
  0
LINE
  5
A66
330
A38
100
AcDbEntity
  8
____1
  6
DASHED2
 62
     7
100
AcDbLine
 10
-712.9440104692332
 20
27.6762496081759
 30
0.0
 11
-248.9440105217977
 21
27.67624960817567
 31
0.0
  0
LINE
  5
A67
330
A38
100
AcDbEntity
  8
____1
  6
DASHED2
 62
     7
100
AcDbLine
 10
-248.9440105217977
 20
501.6762496081756
 30
0.0
 11
-712.9440104692328
 21
501.6762496081756
 31
0.0
  0
LINE
  5
A68
330
A38
100
AcDbEntity
  8
____1
  6
DASHED2
 62
     7
100
AcDbLine
 10
-255.4440104955145
 20
490.1762496344581
 30
0.0
 11
-706.4440104955154
 21
490.1762496344581
 31
0.0
  0
LINE
  5
A69
330
A38
100
AcDbEntity
  8
____1
  6
DASHED2
 62
     7
100
AcDbLine
 10
-706.4440104955154
 20
490.1762496344588
 30
0.0
 11
-706.4440104955159
 21
39.17624958189353
 31
0.0
  0
LINE
  5
A6A
330
A38
100
AcDbEntity
  8
____1
  6
DASHED2
 62
     7
100
AcDbLine
 10
-717.9440104692328
 20
496.6762496081757
 30
0.0
 11
-717.9440104692332
 21
32.6762496081759
 31
0.0
  0
LINE
  5
A6B
330
A38
100
AcDbEntity
  8
____1
  6
DASHED2
 62
     7
100
AcDbLine
 10
-255.4440104955152
 20
39.17624958189264
 30
0.0
 11
-255.4440104955152
 21
490.1762496344581
 31
0.0
  0
LINE
  5
A6C
330
A38
100
AcDbEntity
  8
____1
  6
DASHED2
 62
     7
100
AcDbLine
 10
-243.9440105217977
 20
32.67624960817567
 30
0.0
 11
-243.9440105217977
 21
496.6762496081757
 31
0.0
  0
ARC
  5
A6D
330
A38
100
AcDbEntity
  8
____1
  6
DASHED2
 62
     7
100
AcDbCircle
 10
-712.9440104692332
 20
32.6762496081759
 30
0.0
 40
5.0
100
AcDbArc
 50
180.0
 51
270.0
  0
LINE
  5
A6E
330
A38
100
AcDbEntity
  8
____1
  6
DASHED2
 62
     7
100
AcDbLine
 10
-716.4795443751661
 20
29.14071570224324
 30
0.0
 11
-706.4440104955159
 21
39.17624958189334
 31
0.0
  0
ARC
  5
A6F
330
A38
100
AcDbEntity
  8
____1
  6
DASHED2
 62
     7
100
AcDbCircle
 10
-712.9440104692328
 20
496.6762496081757
 30
0.0
 40
5.0
100
AcDbArc
 50
90.0
 51
180.0
  0
LINE
  5
A70
330
A38
100
AcDbEntity
  8
____1
  6
DASHED2
 62
     7
100
AcDbLine
 10
-716.4795443751655
 20
500.2117835141082
 30
0.0
 11
-706.4440104955154
 21
490.1762496344581
 31
0.0
  0
LINE
  5
A71
330
A38
100
AcDbEntity
  8
____1
  6
DASHED2
 62
     7
100
AcDbLine
 10
-245.4084766158651
 20
29.14071570224301
 30
0.0
 11
-255.444010495515
 21
39.17624958189303
 31
0.0
  0
ARC
  5
A72
330
A38
100
AcDbEntity
  8
____1
  6
DASHED2
 62
     7
100
AcDbCircle
 10
-248.9440105217977
 20
32.67624960817567
 30
0.0
 40
5.0
100
AcDbArc
 50
270.0
 51
0.0
  0
LINE
  5
A73
330
A38
100
AcDbEntity
  8
____1
  6
DASHED2
 62
     7
100
AcDbLine
 10
-245.4084766158651
 20
500.2117835141082
 30
0.0
 11
-255.4440104955152
 21
490.1762496344581
 31
0.0
  0
ARC
  5
A74
330
A38
100
AcDbEntity
  8
____1
  6
DASHED2
 62
     7
100
AcDbCircle
 10
-248.9440105217977
 20
496.6762496081757
 30
0.0
 40
5.0
100
AcDbArc
 50
0.0
 51
90.0
  0
ENDBLK
  5
A75
330
A38
100
AcDbEntity
  8
0
100
AcDbBlockEnd
  0
BLOCK
  5
A77
330
A76
100
AcDbEntity
  8
0
100
AcDbBlockBegin
  2
*D6
 70
     1
 10
0.0
 20
0.0
 30
0.0
  3
*D6
  1

  0
LINE
  5
A78
330
A76
100
AcDbEntity
  8
____1
  6
Continuous
 62
     7
100
AcDbLine
 10
-405.9440104955149
 20
341.6762485400334
 30
0.0
 11
-405.9440104955149
 21
394.6762485400335
 31
0.0
  0
LINE
  5
A79
330
A76
100
AcDbEntity
  8
____1
  6
Continuous
 62
     7
100
AcDbLine
 10
-555.9440104955149
 20
341.6762485400334
 30
0.0
 11
-555.9440104955149
 21
394.6762485400335
 31
0.0
  0
SOLID
  5
A7A
330
A76
100
AcDbEntity
  8
____1
  6
Continuous
 62
     7
100
AcDbTrace
 10
-546.2847526067211
 20
387.0880579844609
 30
0.0
 11
-546.2847526067211
 21
387.0880579844609
 31
0.0
 12
-555.9440104955149
 22
389.6762485400333
 32
0.0
 13
-548.6995670789196
 23
389.6762485400333
 33
0.0
  0
SOLID
  5
A7B
330
A76
100
AcDbEntity
  8
____1
  6
Continuous
 62
     7
100
AcDbTrace
 10
-555.9440104955149
 20
389.6762485400333
 30
0.0
 11
-548.6995670789196
 21
389.6762485400333
 31
0.0
 12
-546.2847526067211
 22
392.264439095606
 32
0.0
 13
-546.2847526067211
 23
392.264439095606
 33
0.0
  0
LINE
  5
A7C
330
A76
100
AcDbEntity
  8
____1
  6
Continuous
 62
     7
100
AcDbLine
 10
-555.9440104955149
 20
389.6762485400333
 30
0.0
 11
-480.9440104955149
 21
389.6762485400333
 31
0.0
  0
SOLID
  5
A7D
330
A76
100
AcDbEntity
  8
____1
  6
Continuous
 62
     7
100
AcDbTrace
 10
-415.6032683843088
 20
387.0880579844609
 30
0.0
 11
-415.6032683843088
 21
387.0880579844609
 31
0.0
 12
-413.1884539121105
 22
389.6762485400333
 32
0.0
 13
-405.9440104955149
 23
389.6762485400333
 33
0.0
  0
SOLID
  5
A7E
330
A76
100
AcDbEntity
  8
____1
  6
Continuous
 62
     7
100
AcDbTrace
 10
-413.1884539121105
 20
389.6762485400333
 30
0.0
 11
-405.9440104955149
 21
389.6762485400333
 31
0.0
 12
-415.6032683843088
 22
392.264439095606
 32
0.0
 13
-415.6032683843088
 23
392.264439095606
 33
0.0
  0
LINE
  5
A7F
330
A76
100
AcDbEntity
  8
____1
  6
Continuous
 62
     7
100
AcDbLine
 10
-405.9440104955149
 20
389.6762485400333
 30
0.0
 11
-480.9440104955149
 21
389.6762485400333
 31
0.0
  0
TEXT
  5
A80
330
A76
100
AcDbEntity
  8
寸法線_1
  6
DASHED2
 62
     7
100
AcDbText
 10
-496.8190100186778
 20
397.7630540028707
 30
0.0
 40
21.16666603088379
  1
150
  7
STYLE1
100
AcDbText
  0
ENDBLK
  5
A81
330
A76
100
AcDbEntity
  8
0
100
AcDbBlockEnd
  0
BLOCK
  5
A83
330
A82
100
AcDbEntity
  8
0
100
AcDbBlockBegin
  2
*D7
 70
     1
 10
0.0
 20
0.0
 30
0.0
  3
*D7
  1

  0
LINE
  5
A84
330
A82
100
AcDbEntity
  8
____1
  6
Continuous
 62
     7
100
AcDbLine
 10
-710.0440104955157
 20
-230.6858313428833
 30
0.0
 11
-710.0440104955157
 21
-283.6858313428832
 31
0.0
  0
LINE
  5
A85
330
A82
100
AcDbEntity
  8
____1
  6
Continuous
 62
     7
100
AcDbLine
 10
-251.8440104955153
 20
-230.6858313428833
 30
0.0
 11
-251.8440104955153
 21
-283.6858313428832
 31
0.0
  0
SOLID
  5
A86
330
A82
100
AcDbEntity
  8
____1
  6
Continuous
 62
     7
100
AcDbTrace
 10
-261.5032683843092
 20
-281.2740218984557
 30
0.0
 11
-261.5032683843092
 21
-281.2740218984557
 31
0.0
 12
-259.0884539121106
 22
-278.6858313428833
 32
0.0
 13
-251.8440104955153
 23
-278.6858313428833
 33
0.0
  0
SOLID
  5
A87
330
A82
100
AcDbEntity
  8
____1
  6
Continuous
 62
     7
100
AcDbTrace
 10
-259.0884539121106
 20
-278.6858313428833
 30
0.0
 11
-251.8440104955153
 21
-278.6858313428833
 31
0.0
 12
-261.5032683843092
 22
-276.0976407873108
 32
0.0
 13
-261.5032683843092
 23
-276.0976407873108
 33
0.0
  0
LINE
  5
A88
330
A82
100
AcDbEntity
  8
____1
  6
Continuous
 62
     7
100
AcDbLine
 10
-251.8440104955153
 20
-278.6858313428833
 30
0.0
 11
-480.9440104955155
 21
-278.6858313428833
 31
0.0
  0
SOLID
  5
A89
330
A82
100
AcDbEntity
  8
____1
  6
Continuous
 62
     7
100
AcDbTrace
 10
-700.3847526067218
 20
-281.2740218984557
 30
0.0
 11
-700.3847526067218
 21
-281.2740218984557
 31
0.0
 12
-710.0440104955157
 22
-278.6858313428833
 32
0.0
 13
-702.7995670789202
 23
-278.6858313428833
 33
0.0
  0
SOLID
  5
A8A
330
A82
100
AcDbEntity
  8
____1
  6
Continuous
 62
     7
100
AcDbTrace
 10
-710.0440104955157
 20
-278.6858313428833
 30
0.0
 11
-702.7995670789202
 21
-278.6858313428833
 31
0.0
 12
-700.3847526067218
 22
-276.0976407873108
 32
0.0
 13
-700.3847526067218
 23
-276.0976407873108
 33
0.0
  0
LINE
  5
A8B
330
A82
100
AcDbEntity
  8
____1
  6
Continuous
 62
     7
100
AcDbLine
 10
-710.0440104955157
 20
-278.6858313428833
 30
0.0
 11
-480.9440104955155
 21
-278.6858313428833
 31
0.0
  0
TEXT
  5
A8C
330
A82
100
AcDbEntity
  8
寸法線_1
  6
DASHED2
 62
     7
100
AcDbText
 10
-507.4023430341202
 20
-270.599025880046
 30
0.0
 40
21.16666603088379
  1
458.2
  7
STYLE1
100
AcDbText
  0
ENDBLK
  5
A8D
330
A82
100
AcDbEntity
  8
0
100
AcDbBlockEnd
  0
BLOCK
  5
A8F
330
A8E
100
AcDbEntity
  8
0
100
AcDbBlockBegin
  2
*D8
 70
     1
 10
0.0
 20
0.0
 30
0.0
  3
*D8
  1

  0
LINE
  5
A90
330
A8E
100
AcDbEntity
  8
____1
  6
Continuous
 62
     7
100
AcDbLine
 10
-367.6528645833329
 20
284.6762489802424
 30
0.0
 11
-367.6528645833329
 21
284.6762489802424
 31
0.0
  0
LINE
  5
A91
330
A8E
100
AcDbEntity
  8
____1
  6
Continuous
 62
     7
100
AcDbLine
 10
-367.6528645833329
 20
244.6762489802424
 30
0.0
 11
-367.6528645833329
 21
244.6762489802424
 31
0.0
  0
SOLID
  5
A92
330
A8E
100
AcDbEntity
  8
____1
  6
Continuous
 62
     7
100
AcDbTrace
 10
-367.6528645833329
 20
244.6762489802424
 30
0.0
 11
-367.6528645833329
 21
244.6762489802424
 31
0.0
 12
-369.5940075000124
 22
251.9206923968378
 32
0.0
 13
-365.7117216666537
 23
251.9206923968378
 33
0.0
  0
SOLID
  5
A93
330
A8E
100
AcDbEntity
  8
____1
  6
Continuous
 62
     7
100
AcDbTrace
 10
-369.5940075000124
 20
251.9206923968378
 30
0.0
 11
-367.6528645833329
 21
251.9206923968378
 31
0.0
 12
-370.2410551389057
 22
254.3355068690363
 32
0.0
 13
-370.2410551389057
 23
254.3355068690363
 33
0.0
  0
SOLID
  5
A94
330
A8E
100
AcDbEntity
  8
____1
  6
Continuous
 62
     7
100
AcDbTrace
 10
-367.6528645833329
 20
251.9206923968378
 30
0.0
 11
-365.7117216666537
 21
251.9206923968378
 31
0.0
 12
-365.0646740277605
 22
254.3355068690363
 32
0.0
 13
-365.0646740277605
 23
254.3355068690363
 33
0.0
  0
LINE
  5
A95
330
A8E
100
AcDbEntity
  8
____1
  6
Continuous
 62
     7
100
AcDbLine
 10
-367.6528645833329
 20
244.6762489802424
 30
0.0
 11
-367.6528645833329
 21
335.8140618642175
 31
0.0
  0
SOLID
  5
A96
330
A8E
100
AcDbEntity
  8
____1
  6
Continuous
 62
     7
100
AcDbTrace
 10
-370.2410551389057
 20
275.0169910914484
 30
0.0
 11
-370.2410551389057
 21
275.0169910914484
 31
0.0
 12
-369.5940075000124
 22
277.4318055636469
 32
0.0
 13
-367.6528645833329
 23
277.4318055636469
 33
0.0
  0
SOLID
  5
A97
330
A8E
100
AcDbEntity
  8
____1
  6
Continuous
 62
     7
100
AcDbTrace
 10
-365.0646740277605
 20
275.0169910914484
 30
0.0
 11
-365.0646740277605
 21
275.0169910914484
 31
0.0
 12
-367.6528645833329
 22
277.4318055636469
 32
0.0
 13
-365.7117216666537
 23
277.4318055636469
 33
0.0
  0
SOLID
  5
A98
330
A8E
100
AcDbEntity
  8
____1
  6
Continuous
 62
     7
100
AcDbTrace
 10
-369.5940075000124
 20
277.4318055636469
 30
0.0
 11
-365.7117216666537
 21
277.4318055636469
 31
0.0
 12
-367.6528645833329
 22
284.6762489802424
 32
0.0
 13
-367.6528645833329
 23
284.6762489802424
 33
0.0
  0
LINE
  5
A99
330
A8E
100
AcDbEntity
  8
____1
  6
Continuous
 62
     7
100
AcDbLine
 10
-367.6528645833329
 20
284.6762489802424
 30
0.0
 11
-367.6528645833329
 21
244.6762489802424
 31
0.0
  0
TEXT
  5
A9A
330
A8E
100
AcDbEntity
  8
寸法線_1
  6
DASHED2
 62
     7
100
AcDbText
 10
-375.7396700461704
 20
304.0640628178918
 30
0.0
 40
21.16666603088379
  1
40
 50
90.0
  7
STYLE1
100
AcDbText
  0
ENDBLK
  5
A9B
330
A8E
100
AcDbEntity
  8
0
100
AcDbBlockEnd
  0
BLOCK
  5
A9D
330
A9C
100
AcDbEntity
  8
0
100
AcDbBlockBegin
  2
*D9
 70
     1
 10
0.0
 20
0.0
 30
0.0
  3
*D9
  1

  0
LINE
  5
A9E
330
A9C
100
AcDbEntity
  8
____1
  6
Continuous
 62
     7
100
AcDbLine
 10
-557.9440104955149
 20
339.6762485400333
 30
0.0
 11
-610.9440104955149
 21
339.6762485400333
 31
0.0
  0
LINE
  5
A9F
330
A9C
100
AcDbEntity
  8
____1
  6
Continuous
 62
     7
100
AcDbLine
 10
-557.9440104955149
 20
189.6762485400333
 30
0.0
 11
-610.9440104955149
 21
189.6762485400333
 31
0.0
  0
SOLID
  5
AA0
330
A9C
100
AcDbEntity
  8
____1
  6
Continuous
 62
     7
100
AcDbTrace
 10
-605.9440104955149
 20
189.6762485400333
 30
0.0
 11
-605.9440104955149
 21
189.6762485400333
 31
0.0
 12
-607.8851534121942
 22
196.9206919566288
 32
0.0
 13
-604.0028675788355
 23
196.9206919566288
 33
0.0
  0
SOLID
  5
AA1
330
A9C
100
AcDbEntity
  8
____1
  6
Continuous
 62
     7
100
AcDbTrace
 10
-607.8851534121942
 20
196.9206919566288
 30
0.0
 11
-605.9440104955149
 21
196.9206919566288
 31
0.0
 12
-608.5322010510877
 22
199.3355064288271
 32
0.0
 13
-608.5322010510877
 23
199.3355064288271
 33
0.0
  0
SOLID
  5
AA2
330
A9C
100
AcDbEntity
  8
____1
  6
Continuous
 62
     7
100
AcDbTrace
 10
-605.9440104955149
 20
196.9206919566288
 30
0.0
 11
-604.0028675788355
 21
196.9206919566288
 31
0.0
 12
-603.3558199399424
 22
199.3355064288271
 32
0.0
 13
-603.3558199399424
 23
199.3355064288271
 33
0.0
  0
LINE
  5
AA3
330
A9C
100
AcDbEntity
  8
____1
  6
Continuous
 62
     7
100
AcDbLine
 10
-605.9440104955149
 20
189.6762485400333
 30
0.0
 11
-605.9440104955149
 21
264.6762485400333
 31
0.0
  0
SOLID
  5
AA4
330
A9C
100
AcDbEntity
  8
____1
  6
Continuous
 62
     7
100
AcDbTrace
 10
-608.5322010510877
 20
330.0169906512394
 30
0.0
 11
-608.5322010510877
 21
330.0169906512394
 31
0.0
 12
-607.8851534121942
 22
332.4318051234379
 32
0.0
 13
-605.9440104955149
 23
332.4318051234379
 33
0.0
  0
SOLID
  5
AA5
330
A9C
100
AcDbEntity
  8
____1
  6
Continuous
 62
     7
100
AcDbTrace
 10
-603.3558199399424
 20
330.0169906512394
 30
0.0
 11
-603.3558199399424
 21
330.0169906512394
 31
0.0
 12
-605.9440104955149
 22
332.4318051234379
 32
0.0
 13
-604.0028675788355
 23
332.4318051234379
 33
0.0
  0
SOLID
  5
AA6
330
A9C
100
AcDbEntity
  8
____1
  6
Continuous
 62
     7
100
AcDbTrace
 10
-607.8851534121942
 20
332.4318051234379
 30
0.0
 11
-604.0028675788355
 21
332.4318051234379
 31
0.0
 12
-605.9440104955149
 22
339.6762485400333
 32
0.0
 13
-605.9440104955149
 23
339.6762485400333
 33
0.0
  0
LINE
  5
AA7
330
A9C
100
AcDbEntity
  8
____1
  6
Continuous
 62
     7
100
AcDbLine
 10
-605.9440104955149
 20
339.6762485400333
 30
0.0
 11
-605.9440104955149
 21
264.6762485400333
 31
0.0
  0
TEXT
  5
AA8
330
A9C
100
AcDbEntity
  8
寸法線_1
  6
DASHED2
 62
     7
100
AcDbText
 10
-614.0308159583522
 20
248.8012490168705
 30
0.0
 40
21.16666603088379
  1
150
 50
90.0
  7
STYLE1
100
AcDbText
  0
ENDBLK
  5
AA9
330
A9C
100
AcDbEntity
  8
0
100
AcDbBlockEnd
  0
BLOCK
  5
AAB
330
AAA
100
AcDbEntity
  8
0
100
AcDbBlockBegin
  2
C5
 70
     0
 10
0.0
 20
0.0
 30
0.0
  3
C5
  1

  0
CIRCLE
  5
AAC
330
AAA
100
AcDbEntity
  8
____1
  6
Continuous
 62
     7
100
AcDbCircle
 10
-77.91666666666644
 20
427.4644531250001
 30
0.0
 40
20.0
  0
TEXT
  5
AAD
330
AAA
100
AcDbEntity
  8
____1
  6
CENTER2
 62
     7
100
AcDbText
 10
-53.95833317438739
 20
404.4679255723956
 30
0.0
 40
21.16666603088379
  1
4
  7
STYLE1
100
AcDbText
  0
LINE
  5
AAE
330
AAA
100
AcDbEntity
  8
寸法線_1
  6
Continuous
 62
     7
100
AcDbLine
 10
-81.99999999999979
 20
411.9644531250001
 30
0.0
 11
-68.66666666666644
 21
411.9644531250001
 31
0.0
  0
LINE
  5
AAF
330
AAA
100
AcDbEntity
  8
寸法線_1
  6
Continuous
 62
     7
100
AcDbLine
 10
-478.7940104955151
 20
265.1762485400332
 30
0.0
 11
-81.99999999999979
 21
411.9644531250001
 31
0.0
  0
SOLID
  5
AB0
330
AAA
100
AcDbEntity
  8
寸法線_1
 62
     7
100
AcDbTrace
 10
-478.7940104955151
 20
265.1762485400332
 30
0.0
 11
-473.4901848020265
 21
265.7585154108904
 31
0.0
 12
-478.7940104955151
 22
265.1762485400332
 32
0.0
 13
-475.1528865126156
 23
266.523229688901
 33
0.0
  0
SOLID
  5
AB1
330
AAA
100
AcDbEntity
  8
寸法線_1
 62
     7
100
AcDbTrace
 10
-475.1528865126156
 20
266.523229688901
 30
0.0
 11
-474.3881722346048
 21
268.18593139949
 31
0.0
 12
-478.7940104955151
 22
265.1762485400332
 32
0.0
 13
-478.7940104955151
 23
265.1762485400332
 33
0.0
  0
ENDBLK
  5
AB2
330
AAA
100
AcDbEntity
  8
0
100
AcDbBlockEnd
  0
BLOCK
  5
AB4
330
AB3
100
AcDbEntity
  8
0
100
AcDbBlockBegin
  2
C6
 70
     0
 10
0.0
 20
0.0
 30
0.0
  3
C6
  1

  0
LINE
  5
AB5
330
AB3
100
AcDbEntity
  8
____1
  6
Continuous
 62
     5
100
AcDbLine
 10
-485.6440105145241
 20
-448.5483203124998
 30
0.0
 11
-485.6440105145241
 21
-448.2598758934551
 31
0.0
  0
LINE
  5
AB6
330
AB3
100
AcDbEntity
  8
____1
  6
Continuous
 62
     5
100
AcDbLine
 10
-476.2440105145244
 20
-448.5483203124998
 30
0.0
 11
-485.6440105145241
 21
-448.5483203124998
 31
0.0
  0
ENDBLK
  5
AB7
330
AB3
100
AcDbEntity
  8
0
100
AcDbBlockEnd
  0
BLOCK
  5
AB9
330
AB8
100
AcDbEntity
  8
0
100
AcDbBlockBegin
  2
C7
 70
     0
 10
0.0
 20
0.0
 30
0.0
  3
C7
  1

  0
LINE
  5
ABA
330
AB8
100
AcDbEntity
  8
____1
  6
Continuous
 62
     5
100
AcDbLine
 10
-685.0440104955149
 20
-422.8483203124993
 30
0.0
 11
-683.8440104955146
 21
-422.8483203124993
 31
0.0
  0
LINE
  5
ABB
330
AB8
100
AcDbEntity
  8
____1
  6
Continuous
 62
     5
100
AcDbLine
 10
-708.8440104955155
 20
-228.6054615068361
 30
0.0
 11
-683.8440104955146
 21
-414.4054612176419
 31
0.0
  0
LINE
  5
ABC
330
AB8
100
AcDbEntity
  8
____1
  6
DASHED2
 62
     7
100
AcDbLine
 10
-683.8440104955146
 20
-451.3483203124994
 30
0.0
 11
-683.8440104955146
 21
-458.3483203124989
 31
0.0
  0
LINE
  5
ABD
330
AB8
100
AcDbEntity
  8
____1
  6
Continuous
 62
     5
100
AcDbLine
 10
-683.8440104955146
 20
-414.4054612176419
 30
0.0
 11
-683.8440104955146
 21
-451.3483203124994
 31
0.0
  0
LINE
  5
ABE
330
AB8
100
AcDbEntity
  8
____1
  6
Continuous
 62
     5
100
AcDbLine
 10
-683.8440104955146
 20
-458.3483203124989
 30
0.0
 11
-683.8440104955146
 21
-464.3483203124985
 31
0.0
  0
LINE
  5
ABF
330
AB8
100
AcDbEntity
  8
____1
  6
Continuous
 62
     5
100
AcDbLine
 10
-685.0440104955149
 20
-458.3483203124989
 30
0.0
 11
-680.5440104955149
 21
-458.3483203124989
 31
0.0
  0
LINE
  5
AC0
330
AB8
100
AcDbEntity
  8
____1
  6
Continuous
 62
     5
100
AcDbLine
 10
-680.5440104955149
 20
-451.3483203124994
 30
0.0
 11
-680.5440104955149
 21
-458.3483203124989
 31
0.0
  0
LINE
  5
AC1
330
AB8
100
AcDbEntity
  8
____1
  6
Continuous
 62
     5
100
AcDbLine
 10
-685.0440104955149
 20
-451.3483203124994
 30
0.0
 11
-680.5440104955149
 21
-451.3483203124994
 31
0.0
  0
LINE
  5
AC2
330
AB8
100
AcDbEntity
  8
____1
  6
Continuous
 62
     5
100
AcDbLine
 10
-685.0440104955149
 20
-464.3483203124985
 30
0.0
 11
-683.8440104955146
 21
-464.3483203124985
 31
0.0
  0
LINE
  5
AC3
330
AB8
100
AcDbEntity
  8
____1
  6
Continuous
 62
     5
100
AcDbLine
 10
-685.0440104955149
 20
-434.3483203124998
 30
0.0
 11
-683.8440104955146
 21
-434.3483203124998
 31
0.0
  0
LINE
  5
AC4
330
AB8
100
AcDbEntity
  8
____1
  6
Continuous
 62
     5
100
AcDbLine
 10
-685.0440104955149
 20
-414.4858310536907
 30
0.0
 11
-685.0440104955149
 21
-464.3483203124985
 31
0.0
  0
LINE
  5
AC5
330
AB8
100
AcDbEntity
  8
____1
  6
Continuous
 62
     5
100
AcDbLine
 10
-710.0440104955157
 20
-228.6858313428833
 30
0.0
 11
-685.0440104955149
 21
-414.4858310536907
 31
0.0
  0
LINE
  5
AC6
330
AB8
100
AcDbEntity
  8
____1
  6
Continuous
 62
     5
100
AcDbLine
 10
-708.8440104955155
 20
-171.1483205353498
 30
0.0
 11
-708.8440104955155
 21
-228.6054615068361
 31
0.0
  0
LINE
  5
AC7
330
AB8
100
AcDbEntity
  8
____1
  6
Continuous
 62
     5
100
AcDbLine
 10
-710.0440104955157
 20
-171.1483205353498
 30
0.0
 11
-710.0440104955157
 21
-228.6858313428833
 31
0.0
  0
ARC
  5
AC8
330
AB8
100
AcDbEntity
  8
____1
  6
Continuous
 62
     5
100
AcDbCircle
 10
-708.444010495516
 20
-171.1483205353498
 30
0.0
 40
0.3999999999991815
100
AcDbArc
 50
90.0
 51
180.0
  0
ARC
  5
AC9
330
AB8
100
AcDbEntity
  8
____1
  6
Continuous
 62
     5
100
AcDbCircle
 10
-708.444010495516
 20
-171.1483205353498
 30
0.0
 40
1.599999999999454
100
AcDbArc
 50
90.0
 51
180.0
  0
LINE
  5
ACA
330
AB8
100
AcDbEntity
  8
2
  6
Continuous
 62
     5
100
AcDbLine
 10
-708.444010495516
 20
-169.5483205353496
 30
0.0
 11
-690.0440104955158
 21
-169.5483205353496
 31
0.0
  0
LINE
  5
ACB
330
AB8
100
AcDbEntity
  8
____1
  6
Continuous
 62
     5
100
AcDbLine
 10
-708.444010495516
 20
-170.7483205353497
 30
0.0
 11
-690.0440104955158
 21
-170.7483205353497
 31
0.0
  0
LINE
  5
ACC
330
AB8
100
AcDbEntity
  8
____1
  6
Continuous
 62
     5
100
AcDbLine
 10
-690.0440104955158
 20
-169.5483205353496
 30
0.0
 11
-690.0440104955158
 21
-170.7483205353497
 31
0.0
  0
ENDBLK
  5
ACD
330
AB8
100
AcDbEntity
  8
0
100
AcDbBlockEnd
  0
BLOCK
  5
ACF
330
ACE
100
AcDbEntity
  8
0
100
AcDbBlockBegin
  2
C8
 70
     0
 10
0.0
 20
0.0
 30
0.0
  3
C8
  1

  0
LINE
  5
AD0
330
ACE
100
AcDbEntity
  8
____1
  6
Continuous
 62
     5
100
AcDbLine
 10
-276.8440104955163
 20
-422.8483203124993
 30
0.0
 11
-278.0440104955165
 21
-422.8483203124993
 31
0.0
  0
LINE
  5
AD1
330
ACE
100
AcDbEntity
  8
____1
  6
Continuous
 62
     5
100
AcDbLine
 10
-253.0440104955155
 20
-228.6054615068361
 30
0.0
 11
-278.0440104955165
 21
-414.4054612176421
 31
0.0
  0
LINE
  5
AD2
330
ACE
100
AcDbEntity
  8
____1
  6
DASHED2
 62
     7
100
AcDbLine
 10
-278.0440104955165
 20
-451.3483203124994
 30
0.0
 11
-278.0440104955165
 21
-458.348320312499
 31
0.0
  0
LINE
  5
AD3
330
ACE
100
AcDbEntity
  8
____1
  6
Continuous
 62
     5
100
AcDbLine
 10
-278.0440104955165
 20
-414.4054612176421
 30
0.0
 11
-278.0440104955165
 21
-451.3483203124994
 31
0.0
  0
LINE
  5
AD4
330
ACE
100
AcDbEntity
  8
____1
  6
Continuous
 62
     5
100
AcDbLine
 10
-278.0440104955165
 20
-458.348320312499
 30
0.0
 11
-278.0440104955165
 21
-464.3483203124985
 31
0.0
  0
LINE
  5
AD5
330
ACE
100
AcDbEntity
  8
____1
  6
Continuous
 62
     5
100
AcDbLine
 10
-276.8440104955163
 20
-458.348320312499
 30
0.0
 11
-281.3440104955163
 21
-458.348320312499
 31
0.0
  0
LINE
  5
AD6
330
ACE
100
AcDbEntity
  8
____1
  6
Continuous
 62
     5
100
AcDbLine
 10
-281.3440104955163
 20
-451.3483203124994
 30
0.0
 11
-281.3440104955163
 21
-458.348320312499
 31
0.0
  0
LINE
  5
AD7
330
ACE
100
AcDbEntity
  8
____1
  6
Continuous
 62
     5
100
AcDbLine
 10
-276.8440104955163
 20
-451.3483203124994
 30
0.0
 11
-281.3440104955163
 21
-451.3483203124994
 31
0.0
  0
LINE
  5
AD8
330
ACE
100
AcDbEntity
  8
____1
  6
Continuous
 62
     5
100
AcDbLine
 10
-276.8440104955163
 20
-464.3483203124985
 30
0.0
 11
-278.0440104955165
 21
-464.3483203124985
 31
0.0
  0
LINE
  5
AD9
330
ACE
100
AcDbEntity
  8
____1
  6
Continuous
 62
     5
100
AcDbLine
 10
-276.8440104955163
 20
-434.3483203125
 30
0.0
 11
-278.0440104955165
 21
-434.3483203125
 31
0.0
  0
LINE
  5
ADA
330
ACE
100
AcDbEntity
  8
____1
  6
Continuous
 62
     5
100
AcDbLine
 10
-276.8440104955163
 20
-414.4858310536908
 30
0.0
 11
-276.8440104955163
 21
-464.3483203124985
 31
0.0
  0
LINE
  5
ADB
330
ACE
100
AcDbEntity
  8
____1
  6
Continuous
 62
     5
100
AcDbLine
 10
-251.8440104955153
 20
-228.6858313428833
 30
0.0
 11
-276.8440104955163
 21
-414.4858310536908
 31
0.0
  0
LINE
  5
ADC
330
ACE
100
AcDbEntity
  8
____1
  6
Continuous
 62
     5
100
AcDbLine
 10
-253.0440104955155
 20
-171.1483205353497
 30
0.0
 11
-253.0440104955155
 21
-228.6054615068361
 31
0.0
  0
LINE
  5
ADD
330
ACE
100
AcDbEntity
  8
____1
  6
Continuous
 62
     5
100
AcDbLine
 10
-251.8440104955153
 20
-171.1483205353497
 30
0.0
 11
-251.8440104955153
 21
-228.6858313428833
 31
0.0
  0
ARC
  5
ADE
330
ACE
100
AcDbEntity
  8
____1
  6
Continuous
 62
     5
100
AcDbCircle
 10
-253.4440104955147
 20
-171.1483205353497
 30
0.0
 40
0.3999999999991815
100
AcDbArc
 50
0.0
 51
90.0
  0
ARC
  5
ADF
330
ACE
100
AcDbEntity
  8
____1
  6
Continuous
 62
     5
100
AcDbCircle
 10
-253.4440104955147
 20
-171.1483205353497
 30
0.0
 40
1.599999999999454
100
AcDbArc
 50
0.0
 51
90.0
  0
LINE
  5
AE0
330
ACE
100
AcDbEntity
  8
2
  6
Continuous
 62
     5
100
AcDbLine
 10
-253.4440104955147
 20
-169.5483205353494
 30
0.0
 11
-271.8440104955154
 21
-169.5483205353494
 31
0.0
  0
LINE
  5
AE1
330
ACE
100
AcDbEntity
  8
____1
  6
Continuous
 62
     5
100
AcDbLine
 10
-253.4440104955147
 20
-170.7483205353496
 30
0.0
 11
-271.8440104955154
 21
-170.7483205353496
 31
0.0
  0
LINE
  5
AE2
330
ACE
100
AcDbEntity
  8
____1
  6
Continuous
 62
     5
100
AcDbLine
 10
-271.8440104955154
 20
-169.5483205353494
 30
0.0
 11
-271.8440104955154
 21
-170.7483205353496
 31
0.0
  0
ENDBLK
  5
AE3
330
ACE
100
AcDbEntity
  8
0
100
AcDbBlockEnd
  0
BLOCK
  5
AE5
330
AE4
100
AcDbEntity
  8
0
100
AcDbBlockBegin
  2
*D14
 70
     1
 10
0.0
 20
0.0
 30
0.0
  3
*D14
  1

  0
LINE
  5
AE6
330
AE4
100
AcDbEntity
  8
____1
  6
Continuous
 62
     7
100
AcDbLine
 10
-272.4440104955162
 20
-464.7483203124996
 30
0.0
 11
-140.6343715184639
 21
-464.7483203124996
 31
0.0
  0
LINE
  5
AE7
330
AE4
100
AcDbEntity
  8
____1
  6
Continuous
 62
     7
100
AcDbLine
 10
-251.4440104955147
 20
-169.5483205353497
 30
0.0
 11
-140.6343715184639
 21
-169.5483205353497
 31
0.0
  0
SOLID
  5
AE8
330
AE4
100
AcDbEntity
  8
____1
  6
Continuous
 62
     7
100
AcDbTrace
 10
-148.2225620740364
 20
-179.2075784241436
 30
0.0
 11
-148.2225620740364
 21
-179.2075784241436
 31
0.0
 12
-147.5755144351433
 22
-176.7927639519452
 32
0.0
 13
-145.6343715184639
 23
-176.7927639519452
 33
0.0
  0
SOLID
  5
AE9
330
AE4
100
AcDbEntity
  8
____1
  6
Continuous
 62
     7
100
AcDbTrace
 10
-143.0461809628914
 20
-179.2075784241436
 30
0.0
 11
-143.0461809628914
 21
-179.2075784241436
 31
0.0
 12
-145.6343715184639
 22
-176.7927639519452
 32
0.0
 13
-143.6932286017845
 23
-176.7927639519452
 33
0.0
  0
SOLID
  5
AEA
330
AE4
100
AcDbEntity
  8
____1
  6
Continuous
 62
     7
100
AcDbTrace
 10
-147.5755144351433
 20
-176.7927639519452
 30
0.0
 11
-143.6932286017845
 21
-176.7927639519452
 31
0.0
 12
-145.6343715184639
 22
-169.5483205353497
 32
0.0
 13
-145.6343715184639
 23
-169.5483205353497
 33
0.0
  0
LINE
  5
AEB
330
AE4
100
AcDbEntity
  8
____1
  6
Continuous
 62
     7
100
AcDbLine
 10
-145.6343715184639
 20
-169.5483205353497
 30
0.0
 11
-145.6343715184639
 21
-311.4208508170805
 31
0.0
  0
SOLID
  5
AEC
330
AE4
100
AcDbEntity
  8
____1
  6
Continuous
 62
     7
100
AcDbTrace
 10
-145.6343715184639
 20
-464.7483203124996
 30
0.0
 11
-145.6343715184639
 21
-464.7483203124996
 31
0.0
 12
-147.5755144351433
 22
-457.5038768959039
 32
0.0
 13
-143.6932286017845
 23
-457.5038768959039
 33
0.0
  0
SOLID
  5
AED
330
AE4
100
AcDbEntity
  8
____1
  6
Continuous
 62
     7
100
AcDbTrace
 10
-147.5755144351433
 20
-457.5038768959039
 30
0.0
 11
-145.6343715184639
 21
-457.5038768959039
 31
0.0
 12
-148.2225620740364
 22
-455.0890624237054
 32
0.0
 13
-148.2225620740364
 23
-455.0890624237054
 33
0.0
  0
SOLID
  5
AEE
330
AE4
100
AcDbEntity
  8
____1
  6
Continuous
 62
     7
100
AcDbTrace
 10
-145.6343715184639
 20
-457.5038768959039
 30
0.0
 11
-143.6932286017845
 21
-457.5038768959039
 31
0.0
 12
-143.0461809628914
 22
-455.0890624237054
 32
0.0
 13
-143.0461809628914
 23
-455.0890624237054
 33
0.0
  0
LINE
  5
AEF
330
AE4
100
AcDbEntity
  8
____1
  6
Continuous
 62
     7
100
AcDbLine
 10
-145.6343715184639
 20
-464.7483203124996
 30
0.0
 11
-145.6343715184639
 21
-311.4208508170805
 31
0.0
  0
TEXT
  5
AF0
330
AE4
100
AcDbEntity
  8
寸法線_1
  6
DASHED2
 62
     7
100
AcDbText
 10
-153.721176981301
 20
-337.8791833556852
 30
0.0
 40
21.16666603088379
  1
295.2
 50
90.0
  7
STYLE1
100
AcDbText
  0
ENDBLK
  5
AF1
330
AE4
100
AcDbEntity
  8
0
100
AcDbBlockEnd
  0
BLOCK
  5
AF3
330
AF2
100
AcDbEntity
  8
0
100
AcDbBlockBegin
  2
*D15
 70
     1
 10
0.0
 20
0.0
 30
0.0
  3
*D15
  1

  0
LINE
  5
AF4
330
AF2
100
AcDbEntity
  8
____1
  6
Continuous
 62
     7
100
AcDbLine
 10
-205.5914409154381
 20
-449.7483203124996
 30
0.0
 11
-205.5914409154381
 21
-464.7483203124996
 31
0.0
  0
LINE
  5
AF5
330
AF2
100
AcDbEntity
  8
____1
  6
Continuous
 62
     7
100
AcDbLine
 10
-272.4440104955162
 20
-464.7483203124996
 30
0.0
 11
-200.5914409154381
 21
-464.7483203124996
 31
0.0
  0
LINE
  5
AF6
330
AF2
100
AcDbEntity
  8
____1
  6
Continuous
 62
     7
100
AcDbLine
 10
-276.144010495516
 20
-449.7483203124996
 30
0.0
 11
-200.5914409154381
 21
-449.7483203124996
 31
0.0
  0
SOLID
  5
AF7
330
AF2
100
AcDbEntity
  8
____1
  6
Continuous
 62
     7
100
AcDbTrace
 10
-205.5914409154381
 20
-449.7483203124996
 30
0.0
 11
-205.5914409154381
 21
-449.7483203124996
 31
0.0
 12
-207.5325838321174
 22
-442.503876895904
 32
0.0
 13
-203.6502979987587
 23
-442.503876895904
 33
0.0
  0
SOLID
  5
AF8
330
AF2
100
AcDbEntity
  8
____1
  6
Continuous
 62
     7
100
AcDbTrace
 10
-207.5325838321174
 20
-442.503876895904
 30
0.0
 11
-205.5914409154381
 21
-442.503876895904
 31
0.0
 12
-208.1796314710105
 22
-440.0890624237056
 32
0.0
 13
-208.1796314710105
 23
-440.0890624237056
 33
0.0
  0
SOLID
  5
AF9
330
AF2
100
AcDbEntity
  8
____1
  6
Continuous
 62
     7
100
AcDbTrace
 10
-205.5914409154381
 20
-442.503876895904
 30
0.0
 11
-203.6502979987587
 21
-442.503876895904
 31
0.0
 12
-203.0032503598656
 22
-440.0890624237056
 32
0.0
 13
-203.0032503598656
 23
-440.0890624237056
 33
0.0
  0
LINE
  5
AFA
330
AF2
100
AcDbEntity
  8
____1
  6
Continuous
 62
     7
100
AcDbLine
 10
-205.5914409154381
 20
-449.7483203124996
 30
0.0
 11
-205.5914409154381
 21
-424.7483203124996
 31
0.0
  0
SOLID
  5
AFB
330
AF2
100
AcDbEntity
  8
____1
  6
Continuous
 62
     7
100
AcDbTrace
 10
-208.1796314710105
 20
-474.4075782012934
 30
0.0
 11
-208.1796314710105
 21
-474.4075782012934
 31
0.0
 12
-207.5325838321174
 22
-471.9927637290949
 32
0.0
 13
-205.5914409154381
 23
-471.9927637290949
 33
0.0
  0
SOLID
  5
AFC
330
AF2
100
AcDbEntity
  8
____1
  6
Continuous
 62
     7
100
AcDbTrace
 10
-203.0032503598656
 20
-474.4075782012934
 30
0.0
 11
-203.0032503598656
 21
-474.4075782012934
 31
0.0
 12
-205.5914409154381
 22
-471.9927637290949
 32
0.0
 13
-203.6502979987587
 23
-471.9927637290949
 33
0.0
  0
SOLID
  5
AFD
330
AF2
100
AcDbEntity
  8
____1
  6
Continuous
 62
     7
100
AcDbTrace
 10
-207.5325838321174
 20
-471.9927637290949
 30
0.0
 11
-203.6502979987587
 21
-471.9927637290949
 31
0.0
 12
-205.5914409154381
 22
-464.7483203124996
 32
0.0
 13
-205.5914409154381
 23
-464.7483203124996
 33
0.0
  0
LINE
  5
AFE
330
AF2
100
AcDbEntity
  8
____1
  6
Continuous
 62
     7
100
AcDbLine
 10
-205.5914409154381
 20
-464.7483203124996
 30
0.0
 11
-205.5914409154381
 21
-489.7483203124996
 31
0.0
  0
TEXT
  5
AFF
330
AF2
100
AcDbEntity
  8
寸法線_1
  6
DASHED2
 62
     7
100
AcDbText
 10
-213.6782463782753
 20
-467.8316533279413
 30
0.0
 40
21.16666603088379
  1
15
 50
90.0
  7
STYLE1
100
AcDbText
  0
ENDBLK
  5
B00
330
AF2
100
AcDbEntity
  8
0
100
AcDbBlockEnd
  0
BLOCK
  5
B02
330
B01
100
AcDbEntity
  8
0
100
AcDbBlockBegin
  2
*D16
 70
     1
 10
0.0
 20
0.0
 30
0.0
  3
*D16
  1

  0
LINE
  5
B03
330
B01
100
AcDbEntity
  8
____1
  6
Continuous
 62
     7
100
AcDbLine
 10
-687.4440104955168
 20
-466.7483203124996
 30
0.0
 11
-687.4440104955168
 21
-519.7483203124996
 31
0.0
  0
LINE
  5
B04
330
B01
100
AcDbEntity
  8
____1
  6
Continuous
 62
     7
100
AcDbLine
 10
-274.4440104955162
 20
-466.7483203124996
 30
0.0
 11
-274.4440104955162
 21
-519.7483203124996
 31
0.0
  0
SOLID
  5
B05
330
B01
100
AcDbEntity
  8
____1
  6
Continuous
 62
     7
100
AcDbTrace
 10
-284.1032683843101
 20
-517.3365108680719
 30
0.0
 11
-284.1032683843101
 21
-517.3365108680719
 31
0.0
 12
-281.6884539121117
 22
-514.7483203124996
 32
0.0
 13
-274.4440104955162
 23
-514.7483203124996
 33
0.0
  0
SOLID
  5
B06
330
B01
100
AcDbEntity
  8
____1
  6
Continuous
 62
     7
100
AcDbTrace
 10
-281.6884539121117
 20
-514.7483203124996
 30
0.0
 11
-274.4440104955162
 21
-514.7483203124996
 31
0.0
 12
-284.1032683843101
 22
-512.160129756927
 32
0.0
 13
-284.1032683843101
 23
-512.160129756927
 33
0.0
  0
LINE
  5
B07
330
B01
100
AcDbEntity
  8
____1
  6
Continuous
 62
     7
100
AcDbLine
 10
-274.4440104955162
 20
-514.7483203124996
 30
0.0
 11
-480.9440104955164
 21
-514.7483203124996
 31
0.0
  0
SOLID
  5
B08
330
B01
100
AcDbEntity
  8
____1
  6
Continuous
 62
     7
100
AcDbTrace
 10
-677.7847526067226
 20
-517.3365108680719
 30
0.0
 11
-677.7847526067226
 21
-517.3365108680719
 31
0.0
 12
-687.4440104955168
 22
-514.7483203124996
 32
0.0
 13
-680.1995670789213
 23
-514.7483203124996
 33
0.0
  0
SOLID
  5
B09
330
B01
100
AcDbEntity
  8
____1
  6
Continuous
 62
     7
100
AcDbTrace
 10
-687.4440104955168
 20
-514.7483203124996
 30
0.0
 11
-680.1995670789213
 21
-514.7483203124996
 31
0.0
 12
-677.7847526067226
 22
-512.160129756927
 32
0.0
 13
-677.7847526067226
 23
-512.160129756927
 33
0.0
  0
LINE
  5
B0A
330
B01
100
AcDbEntity
  8
____1
  6
Continuous
 62
     7
100
AcDbLine
 10
-687.4440104955168
 20
-514.7483203124996
 30
0.0
 11
-480.9440104955164
 21
-514.7483203124996
 31
0.0
  0
TEXT
  5
B0B
330
B01
100
AcDbEntity
  8
寸法線_1
  6
DASHED2
 62
     7
100
AcDbText
 10
-496.8190100186792
 20
-506.6615148496624
 30
0.0
 40
21.16666603088379
  1
413
  7
STYLE1
100
AcDbText
  0
ENDBLK
  5
B0C
330
B01
100
AcDbEntity
  8
0
100
AcDbBlockEnd
  0
BLOCK
  5
B0E
330
B0D
100
AcDbEntity
  8
0
100
AcDbBlockBegin
  2
C9
 70
     0
 10
0.0
 20
0.0
 30
0.0
  3
C9
  1

  0
LINE
  5
B0F
330
B0D
100
AcDbEntity
  8
____1
  6
Continuous
 62
     5
100
AcDbLine
 10
-407.1440105145239
 20
-464.5483203124999
 30
0.0
 11
-407.1440105145239
 21
-450.0483203124996
 31
0.0
  0
ARC
  5
B10
330
B0D
100
AcDbEntity
  8
____1
  6
DASHED2
 62
     7
100
AcDbCircle
 10
-407.4440105145241
 20
-450.0483203124996
 30
0.0
 40
1.5
100
AcDbArc
 50
0.0
 51
90.0
  0
LINE
  5
B11
330
B0D
100
AcDbEntity
  8
____1
  6
Continuous
 62
     5
100
AcDbLine
 10
-405.944010514524
 20
-464.5483203124999
 30
0.0
 11
-405.944010514524
 21
-448.5483203124998
 31
0.0
  0
LINE
  5
B12
330
B0D
100
AcDbEntity
  8
____1
  6
Continuous
 62
     5
100
AcDbLine
 10
-407.1440105145239
 20
-464.5483203124999
 30
0.0
 11
-405.944010514524
 21
-464.5483203124999
 31
0.0
  0
ARC
  5
B13
330
B0D
100
AcDbEntity
  8
____1
  6
Continuous
 62
     5
100
AcDbCircle
 10
-407.4440105145241
 20
-450.0483203124996
 30
0.0
 40
0.3000000000001819
100
AcDbArc
 50
0.0
 51
90.0
  0
ARC
  5
B14
330
B0D
100
AcDbEntity
  8
____1
  6
DASHED2
 62
     7
100
AcDbCircle
 10
-554.4440105145245
 20
-450.0483203124996
 30
0.0
 40
1.5
100
AcDbArc
 50
90.0
 51
180.0
  0
LINE
  5
B15
330
B0D
100
AcDbEntity
  8
____1
  6
Continuous
 62
     5
100
AcDbLine
 10
-555.9440105145244
 20
-448.5483203124998
 30
0.0
 11
-555.9440105145244
 21
-464.5483203124999
 31
0.0
  0
LINE
  5
B16
330
B0D
100
AcDbEntity
  8
____1
  6
Continuous
 62
     5
100
AcDbLine
 10
-555.9440105145244
 20
-464.5483203124999
 30
0.0
 11
-554.7440105145247
 21
-464.5483203124999
 31
0.0
  0
ARC
  5
B17
330
B0D
100
AcDbEntity
  8
____1
  6
Continuous
 62
     5
100
AcDbCircle
 10
-554.4440105145245
 20
-450.0483203124996
 30
0.0
 40
0.2999999999999545
100
AcDbArc
 50
90.0
 51
180.0
  0
LINE
  5
B18
330
B0D
100
AcDbEntity
  8
____1
  6
Continuous
 62
     5
100
AcDbLine
 10
-554.7440105145246
 20
-450.0483203124996
 30
0.0
 11
-554.7440105145246
 21
-464.5483203124999
 31
0.0
  0
LINE
  5
B19
330
B0D
100
AcDbEntity
  8
____1
  6
Continuous
 62
     5
100
AcDbLine
 10
-405.944010514524
 20
-449.7483203124996
 30
0.0
 11
-555.9440105145244
 21
-449.7483203124996
 31
0.0
  0
LINE
  5
B1A
330
B0D
100
AcDbEntity
  8
____1
  6
Continuous
 62
     5
100
AcDbLine
 10
-405.944010514524
 20
-448.5483203124998
 30
0.0
 11
-555.9440105145244
 21
-448.5483203124998
 31
0.0
  0
ENDBLK
  5
B1B
330
B0D
100
AcDbEntity
  8
0
100
AcDbBlockEnd
  0
BLOCK
  5
B1D
330
B1C
100
AcDbEntity
  8
0
100
AcDbBlockBegin
  2
C10
 70
     0
 10
0.0
 20
0.0
 30
0.0
  3
C10
  1

  0
LINE
  5
B1E
330
B1C
100
AcDbEntity
  8
____1
  6
DASHED2
 62
     7
100
AcDbLine
 10
-637.4440104955167
 20
-463.5483203124993
 30
0.0
 11
-324.444010495515
 21
-463.5483203124993
 31
0.0
  0
LINE
  5
B1F
330
B1C
100
AcDbEntity
  8
____1
  6
Continuous
 62
     5
100
AcDbLine
 10
-687.4440104955168
 20
-464.7483203124996
 30
0.0
 11
-274.4440104955162
 21
-464.7483203124996
 31
0.0
  0
LINE
  5
B20
330
B1C
100
AcDbEntity
  8
____1
  6
DASHED2
 62
     7
100
AcDbLine
 10
-278.144010495516
 20
-450.9483203124993
 30
0.0
 11
-683.7440104955151
 21
-450.9483203124993
 31
0.0
  0
LINE
  5
B21
330
B1C
100
AcDbEntity
  8
____1
  6
Continuous
 62
     5
100
AcDbLine
 10
-278.144010495516
 20
-449.7483203124996
 30
0.0
 11
-683.7440104955151
 21
-449.7483203124996
 31
0.0
  0
LINE
  5
B22
330
B1C
100
AcDbEntity
  8
____1
  6
DASHED2
 62
     7
100
AcDbLine
 10
-482.9440105145241
 20
-449.7483203124996
 30
0.0
 11
-482.9440105145241
 21
-452.4483203124994
 31
0.0
  0
ARC
  5
B23
330
B1C
100
AcDbEntity
  8
____1
  6
DASHED2
 62
     7
100
AcDbCircle
 10
-477.0940105145248
 20
-451.9483203124994
 30
0.0
 40
1.0
100
AcDbArc
 50
90.0
 51
180.0
  0
LINE
  5
B24
330
B1C
100
AcDbEntity
  8
____1
  6
DASHED2
 62
     7
100
AcDbLine
 10
-478.0940105145248
 20
-451.9483203124994
 30
0.0
 11
-478.0940105145248
 21
-452.4483203124994
 31
0.0
  0
ARC
  5
B25
330
B1C
100
AcDbEntity
  8
____1
  6
DASHED2
 62
     7
100
AcDbCircle
 10
-484.7940105145245
 20
-451.9483203124994
 30
0.0
 40
1.0
100
AcDbArc
 50
0.0
 51
90.0
  0
LINE
  5
B26
330
B1C
100
AcDbEntity
  8
____1
  6
DASHED2
 62
     7
100
AcDbLine
 10
-483.7940105145245
 20
-451.9483203124994
 30
0.0
 11
-483.7940105145245
 21
-452.4483203124994
 31
0.0
  0
LINE
  5
B27
330
B1C
100
AcDbEntity
  8
____1
  6
DASHED2
 62
     7
100
AcDbLine
 10
-478.0940105145248
 20
-452.4483203124994
 30
0.0
 11
-483.7940105145245
 21
-452.4483203124994
 31
0.0
  0
LINE
  5
B28
330
B1C
100
AcDbEntity
  8
____1
  6
DASHED2
 62
     7
100
AcDbLine
 10
-482.5940105145248
 20
-449.7483203124996
 30
0.0
 11
-482.5940105145248
 21
-452.4483203124994
 31
0.0
  0
LINE
  5
B29
330
B1C
100
AcDbEntity
  8
____1
  6
DASHED2
 62
     7
100
AcDbLine
 10
-479.2940105145246
 20
-449.7483203124996
 30
0.0
 11
-479.2940105145246
 21
-452.4483203124994
 31
0.0
  0
LINE
  5
B2A
330
B1C
100
AcDbEntity
  8
____1
  6
DASHED2
 62
     7
100
AcDbLine
 10
-478.9440105145241
 20
-449.7483203124996
 30
0.0
 11
-478.9440105145241
 21
-452.4483203124994
 31
0.0
  0
LINE
  5
B2B
330
B1C
100
AcDbEntity
  8
____1
  6
DASHED2
 62
     7
100
AcDbLine
 10
-637.4440104955167
 20
-464.7483203124996
 30
0.0
 11
-637.4440104955167
 21
-463.5483203124993
 31
0.0
  0
LINE
  5
B2C
330
B1C
100
AcDbEntity
  8
____1
  6
CENTER2
 62
     3
100
AcDbLine
 10
-480.9440105145241
 20
-442.2081953124996
 30
0.0
 11
-480.9440105145241
 21
-459.006111979166
 31
0.0
  0
LINE
  5
B2D
330
B1C
100
AcDbEntity
  8
____1
  6
Continuous
 62
     5
100
AcDbLine
 10
-683.7440104955151
 20
-453.7483203124996
 30
0.0
 11
-687.444010495516
 21
-453.7483203124996
 31
0.0
  0
LINE
  5
B2E
330
B1C
100
AcDbEntity
  8
____1
  6
Continuous
 62
     5
100
AcDbLine
 10
-683.7440104955151
 20
-453.7483203124996
 30
0.0
 11
-683.7440104955151
 21
-449.7483203124996
 31
0.0
  0
LINE
  5
B2F
330
B1C
100
AcDbEntity
  8
____1
  6
DASHED2
 62
     7
100
AcDbLine
 10
-686.2440104955151
 20
-464.7483203124996
 30
0.0
 11
-686.2440104955151
 21
-453.7483203124996
 31
0.0
  0
LINE
  5
B30
330
B1C
100
AcDbEntity
  8
____1
  6
Continuous
 62
     5
100
AcDbLine
 10
-687.444010495516
 20
-464.7483203124996
 30
0.0
 11
-687.444010495516
 21
-453.7483203124996
 31
0.0
  0
LINE
  5
B31
330
B1C
100
AcDbEntity
  8
____1
  6
Continuous
 62
     5
100
AcDbLine
 10
-274.4440104955162
 20
-464.7483203124996
 30
0.0
 11
-274.4440104955162
 21
-453.7483203124996
 31
0.0
  0
LINE
  5
B32
330
B1C
100
AcDbEntity
  8
____1
  6
DASHED2
 62
     7
100
AcDbLine
 10
-324.444010495515
 20
-464.7483203124996
 30
0.0
 11
-324.444010495515
 21
-463.5483203124993
 31
0.0
  0
LINE
  5
B33
330
B1C
100
AcDbEntity
  8
____1
  6
DASHED2
 62
     7
100
AcDbLine
 10
-275.644010495516
 20
-464.7483203124996
 30
0.0
 11
-275.644010495516
 21
-453.7483203124996
 31
0.0
  0
LINE
  5
B34
330
B1C
100
AcDbEntity
  8
____1
  6
Continuous
 62
     5
100
AcDbLine
 10
-278.144010495516
 20
-453.7483203124996
 30
0.0
 11
-274.4440104955162
 21
-453.7483203124996
 31
0.0
  0
LINE
  5
B35
330
B1C
100
AcDbEntity
  8
____1
  6
Continuous
 62
     5
100
AcDbLine
 10
-278.144010495516
 20
-453.7483203124996
 30
0.0
 11
-278.144010495516
 21
-449.7483203124996
 31
0.0
  0
ENDBLK
  5
B36
330
B1C
100
AcDbEntity
  8
0
100
AcDbBlockEnd
  0
BLOCK
  5
B38
330
B37
100
AcDbEntity
  8
0
100
AcDbBlockBegin
  2
C11
 70
     0
 10
0.0
 20
0.0
 30
0.0
  3
C11
  1

  0
CIRCLE
  5
B39
330
B37
100
AcDbEntity
  8
____1
  6
Continuous
 62
     7
100
AcDbCircle
 10
-77.91666666666644
 20
-179.6269270869086
 30
0.0
 40
20.0
  0
TEXT
  5
B3A
330
B37
100
AcDbEntity
  8
____1
  6
DASHED2
 62
     7
100
AcDbText
 10
-53.95833317438739
 20
-202.6234546395133
 30
0.0
 40
21.16666603088379
  1
2
  7
STYLE1
100
AcDbText
  0
LINE
  5
B3B
330
B37
100
AcDbEntity
  8
寸法線_1
  6
Continuous
 62
     7
100
AcDbLine
 10
-81.99999999999979
 20
-195.1269270869086
 30
0.0
 11
-68.66666666666644
 21
-195.1269270869086
 31
0.0
  0
LINE
  5
B3C
330
B37
100
AcDbEntity
  8
寸法線_1
  6
Continuous
 62
     7
100
AcDbLine
 10
-337.8213932255905
 20
-450.9483203124993
 30
0.0
 11
-81.99999999999979
 21
-195.1269270869086
 31
0.0
  0
SOLID
  5
B3D
330
B37
100
AcDbEntity
  8
寸法線_1
 62
     7
100
AcDbTrace
 10
-337.8213932255905
 20
-450.9483203124993
 30
0.0
 11
-333.2460756782851
 21
-448.2031297841159
 31
0.0
 12
-337.8213932255905
 22
-450.9483203124993
 32
0.0
 13
-335.0762026972073
 23
-448.2031297841159
 33
0.0
  0
SOLID
  5
B3E
330
B37
100
AcDbEntity
  8
寸法線_1
 62
     7
100
AcDbTrace
 10
-335.0762026972073
 20
-448.2031297841159
 30
0.0
 11
-335.0762026972073
 21
-446.3730027651938
 31
0.0
 12
-337.8213932255905
 22
-450.9483203124993
 32
0.0
 13
-337.8213932255905
 23
-450.9483203124993
 33
0.0
  0
ENDBLK
  5
B3F
330
B37
100
AcDbEntity
  8
0
100
AcDbBlockEnd
  0
BLOCK
  5
B41
330
B40
100
AcDbEntity
  8
0
100
AcDbBlockBegin
  2
C12
 70
     0
 10
0.0
 20
0.0
 30
0.0
  3
C12
  1

  0
INSERT
  5
B43
330
B40
100
AcDbEntity
  8
____1
  6
DASHED2
 62
   254
100
AcDbBlockReference
  2
C13
 10
0.0
 20
0.0
 30
0.0
  0
INSERT
  5
B45
330
B40
100
AcDbEntity
  8
____1
  6
DASHED2
 62
     7
100
AcDbBlockReference
  2
C17
 10
0.0
 20
0.0
 30
0.0
  0
INSERT
  5
B47
330
B40
100
AcDbEntity
  8
____1
  6
DASHED2
 62
     7
100
AcDbBlockReference
  2
C28
 10
0.0
 20
0.0
 30
0.0
  0
ENDBLK
  5
B48
330
B40
100
AcDbEntity
  8
0
100
AcDbBlockEnd
  0
BLOCK
  5
B49
330
B42
100
AcDbEntity
  8
0
100
AcDbBlockBegin
  2
C13
 70
     0
 10
0.0
 20
0.0
 30
0.0
  3
C13
  1

  0
INSERT
  5
B4B
330
B42
100
AcDbEntity
  8
____1
  6
DASHED2
 62
   254
100
AcDbBlockReference
  2
C14
 10
0.0
 20
0.0
 30
0.0
  0
INSERT
  5
B4D
330
B42
100
AcDbEntity
  8
____1
  6
DASHED2
 62
   254
100
AcDbBlockReference
  2
C15
 10
0.0
 20
0.0
 30
0.0
  0
INSERT
  5
B4F
330
B42
100
AcDbEntity
  8
____1
  6
Continuous
 62
   254
100
AcDbBlockReference
  2
C16
 10
0.0
 20
0.0
 30
0.0
  0
ENDBLK
  5
B50
330
B42
100
AcDbEntity
  8
0
100
AcDbBlockEnd
  0
BLOCK
  5
B98
330
B44
100
AcDbEntity
  8
0
100
AcDbBlockBegin
  2
C17
 70
     0
 10
0.0
 20
0.0
 30
0.0
  3
C17
  1

  0
LINE
  5
B99
330
B44
100
AcDbEntity
  8
____1
  6
DASHED2
 62
     7
100
AcDbLine
 10
259.916797009827
 20
78.17625000000544
 30
0.0
 11
259.916797009827
 21
246.6762500000001
 31
0.0
  0
LINE
  5
B9A
330
B44
100
AcDbEntity
  8
____1
  6
DASHED2
 62
     7
100
AcDbLine
 10
261.916797009827
 20
78.17625000000544
 30
0.0
 11
261.916797009827
 21
246.6762500000001
 31
0.0
  0
LINE
  5
B9B
330
B44
100
AcDbEntity
  8
____1
  6
DASHED2
 62
     7
100
AcDbLine
 10
153.4667970098272
 20
142.4262500001791
 30
0.0
 11
172.9667970098272
 21
142.4262500001791
 31
0.0
  0
ARC
  5
B9C
330
B44
100
AcDbEntity
  8
____1
  6
DASHED2
 62
     7
100
AcDbCircle
 10
153.4667970098272
 20
141.9262500001791
 30
0.0
 40
0.500000000000057
100
AcDbArc
 50
90.0
 51
180.0
  0
LINE
  5
B9D
330
B44
100
AcDbEntity
  8
____1
  6
DASHED2
 62
     7
100
AcDbLine
 10
154.9667970098272
 20
135.390132215603
 30
0.0
 11
154.9667970098272
 21
140.4262500001791
 31
0.0
  0
ARC
  5
B9E
330
B44
100
AcDbEntity
  8
____1
  6
DASHED2
 62
     7
100
AcDbCircle
 10
154.4667970098272
 20
135.390132215603
 30
0.0
 40
0.5
100
AcDbArc
 50
217.71597634559
 51
0.0
  0
LINE
  5
B9F
330
B44
100
AcDbEntity
  8
____1
  6
DASHED2
 62
     7
100
AcDbLine
 10
154.9667970098272
 20
140.4262500001791
 30
0.0
 11
174.4667970098272
 21
140.4262500001791
 31
0.0
  0
LINE
  5
BA0
330
B44
100
AcDbEntity
  8
____1
  6
DASHED2
 62
     7
100
AcDbLine
 10
152.9667970098271
 20
139.7817788618745
 30
0.0
 11
128.4950726628717
 21
171.4262500001791
 31
0.0
  0
LINE
  5
BA1
330
B44
100
AcDbEntity
  8
____1
  6
DASHED2
 62
     7
100
AcDbLine
 10
154.0712705177709
 20
135.0842583950792
 30
0.0
 11
126.203339431032
 21
171.1203761796555
 31
0.0
  0
TEXT
  5
BA2
330
B44
100
AcDbEntity
  8
____1
  6
DASHED2
 62
     7
100
AcDbText
 10
146.9254360990365
 20
161.1137500001791
 30
0.0
 40
15.0
  1
UP
 50
90.0
100
AcDbText
  0
LINE
  5
BA3
330
B44
100
AcDbEntity
  8
____1
  6
DASHED2
 62
     7
100
AcDbLine
 10
128.4950726628717
 20
171.4262500001791
 30
0.0
 11
152.9667970098271
 21
203.0707211384829
 31
0.0
  0
LINE
  5
BA4
330
B44
100
AcDbEntity
  8
____1
  6
DASHED2
 62
     7
100
AcDbLine
 10
126.203339431032
 20
171.7321238207018
 30
0.0
 11
154.0712705177709
 21
207.768241605278
 31
0.0
  0
LINE
  5
BA5
330
B44
100
AcDbEntity
  8
____1
  6
DASHED2
 62
     7
100
AcDbLine
 10
172.9667970098272
 20
142.4262500001791
 30
0.0
 11
172.9667970098272
 21
200.4262500001783
 31
0.0
  0
LINE
  5
BA6
330
B44
100
AcDbEntity
  8
____1
  6
DASHED2
 62
     7
100
AcDbLine
 10
174.9667970098272
 20
140.9262500001791
 30
0.0
 11
174.9667970098272
 21
201.9262500001782
 31
0.0
  0
TEXT
  5
BA7
330
B44
100
AcDbEntity
  8
____1
  6
DASHED2
 62
     7
100
AcDbText
 10
167.9667970098271
 20
143.3012498090596
 30
0.0
 40
20.0
  1
そと側
 50
90.0
100
AcDbText
  0
LINE
  5
BA8
330
B44
100
AcDbEntity
  8
____1
  6
DASHED2
 62
     7
100
AcDbLine
 10
154.9667970098272
 20
202.4262500001783
 30
0.0
 11
154.9667970098272
 21
207.4623677847544
 31
0.0
  0
ARC
  5
BA9
330
B44
100
AcDbEntity
  8
____1
  6
DASHED2
 62
     7
100
AcDbCircle
 10
154.4667970098272
 20
207.4623677847544
 30
0.0
 40
0.5
100
AcDbArc
 50
0.0
 51
142.28402365441
  0
LINE
  5
BAA
330
B44
100
AcDbEntity
  8
____1
  6
DASHED2
 62
     7
100
AcDbLine
 10
174.4667970098272
 20
202.4262500001783
 30
0.0
 11
154.9667970098272
 21
202.4262500001783
 31
0.0
  0
ARC
  5
BAB
330
B44
100
AcDbEntity
  8
____1
  6
DASHED2
 62
     7
100
AcDbCircle
 10
174.4667970098272
 20
201.9262500001782
 30
0.0
 40
0.5
100
AcDbArc
 50
0.0
 51
90.0
  0
LINE
  5
BAC
330
B44
100
AcDbEntity
  8
____1
  6
DASHED2
 62
     7
100
AcDbLine
 10
172.9667970098272
 20
200.4262500001783
 30
0.0
 11
153.4667970098272
 21
200.4262500001783
 31
0.0
  0
LINE
  5
BAD
330
B44
100
AcDbEntity
  8
____1
  6
DASHED2
 62
     7
100
AcDbLine
 10
152.9667970098271
 20
200.9262500001783
 30
0.0
 11
152.9667970098271
 21
203.0707211384829
 31
0.0
  0
ARC
  5
BAE
330
B44
100
AcDbEntity
  8
____1
  6
DASHED2
 62
     7
100
AcDbCircle
 10
153.4667970098272
 20
200.9262500001783
 30
0.0
 40
0.5
100
AcDbArc
 50
180.0
 51
270.0
  0
ARC
  5
BAF
330
B44
100
AcDbEntity
  8
____1
  6
DASHED2
 62
     7
100
AcDbCircle
 10
126.5988659230883
 20
171.4262500001791
 30
0.0
 40
0.5000000000000994
100
AcDbArc
 50
142.2840236544924
 51
217.71597634559
  0
ARC
  5
BB0
330
B44
100
AcDbEntity
  8
____1
  6
DASHED2
 62
     7
100
AcDbCircle
 10
174.4667970098272
 20
140.9262500001791
 30
0.0
 40
0.5
100
AcDbArc
 50
270.0
 51
0.0
  0
LINE
  5
BB1
330
B44
100
AcDbEntity
  8
____1
  6
DASHED2
 62
     7
100
AcDbLine
 10
152.9667970098271
 20
139.7817788618745
 30
0.0
 11
152.9667970098271
 21
141.9262500001791
 31
0.0
  0
INSERT
  5
BB3
330
B44
100
AcDbEntity
  8
____1
  6
DASHED2
 62
     7
100
AcDbBlockReference
  2
C18
 10
0.0
 20
0.0
 30
0.0
  0
INSERT
  5
BB5
330
B44
100
AcDbEntity
  8
____1
  6
DASHED2
 62
     7
100
AcDbBlockReference
  2
C19
 10
0.0
 20
0.0
 30
0.0
  0
LINE
  5
BB6
330
B44
100
AcDbEntity
  8
____1
  6
DASHED2
 62
     7
100
AcDbLine
 10
252.4667970098271
 20
69.67624999999362
 30
0.0
 11
280.4667970098271
 21
69.67624999999362
 31
0.0
  0
LINE
  5
BB7
330
B44
100
AcDbEntity
  8
____1
  6
DASHED2
 62
     7
100
AcDbLine
 10
280.4667970098271
 20
69.67624999999362
 30
0.0
 11
280.4667970098271
 21
73.57624999999416
 31
0.0
  0
LINE
  5
BB8
330
B44
100
AcDbEntity
  8
____1
  6
DASHED2
 62
     7
100
AcDbLine
 10
192.4667970098272
 20
69.67624999999362
 30
0.0
 11
220.4667970098271
 21
69.67624999999362
 31
0.0
  0
LINE
  5
BB9
330
B44
100
AcDbEntity
  8
____1
  6
DASHED2
 62
     7
100
AcDbLine
 10
132.4667970098267
 20
73.57624999999416
 30
0.0
 11
160.4667970098272
 21
73.57624999999416
 31
0.0
  0
LINE
  5
BBA
330
B44
100
AcDbEntity
  8
____1
  6
DASHED2
 62
     7
100
AcDbLine
 10
192.4667970098267
 20
73.57624999999416
 30
0.0
 11
220.4667970098271
 21
73.57624999999416
 31
0.0
  0
INSERT
  5
BBC
330
B44
100
AcDbEntity
  8
____1
  6
DASHED2
 62
     7
100
AcDbBlockReference
  2
C20
 10
0.0
 20
0.0
 30
0.0
  0
INSERT
  5
BBE
330
B44
100
AcDbEntity
  8
____1
  6
DASHED2
 62
     7
100
AcDbBlockReference
  2
C21
 10
0.0
 20
0.0
 30
0.0
  0
INSERT
  5
BC0
330
B44
100
AcDbEntity
  8
____1
  6
DASHED2
 62
     7
100
AcDbBlockReference
  2
C22
 10
0.0
 20
0.0
 30
0.0
  0
LINE
  5
BC1
330
B44
100
AcDbEntity
  8
____1
  6
DASHED2
 62
     7
100
AcDbLine
 10
179.9667970098272
 20
78.17625000000544
 30
0.0
 11
179.9667970098272
 21
178.702102379168
 31
0.0
  0
ARC
  5
BC2
330
B44
100
AcDbEntity
  8
____1
  6
DASHED2
 62
     7
100
AcDbCircle
 10
179.9667970098272
 20
204.67625
 30
0.0
 40
25.97414762083179
100
AcDbArc
 50
270.0
 51
0.0
  0
INSERT
  5
BC4
330
B44
100
AcDbEntity
  8
____1
  6
DASHED2
 62
     7
100
AcDbBlockReference
  2
C23
 10
0.0
 20
0.0
 30
0.0
  0
LINE
  5
BC5
330
B44
100
AcDbEntity
  8
____1
  6
DASHED2
 62
     7
100
AcDbLine
 10
252.4667970098266
 20
73.57624999999416
 30
0.0
 11
280.4667970098271
 21
73.57624999999416
 31
0.0
  0
LINE
  5
BC6
330
B44
100
AcDbEntity
  8
____1
  6
DASHED2
 62
     7
100
AcDbLine
 10
205.9409446306589
 20
204.67625
 30
0.0
 11
205.9409446306589
 21
246.67625
 31
0.0
  0
LINE
  5
BC7
330
B44
100
AcDbEntity
  8
____1
  6
DASHED2
 62
     7
100
AcDbLine
 10
359.4667970098273
 20
67.17624999999362
 30
0.0
 11
359.4667970098273
 21
246.6762500000001
 31
0.0
  0
LINE
  5
BC8
330
B44
100
AcDbEntity
  8
____1
  6
DASHED2
 62
     7
100
AcDbLine
 10
367.4667970098271
 20
97.08905009839808
 30
0.0
 11
367.4667970098271
 21
246.6762500000003
 31
0.0
  0
LINE
  5
BC9
330
B44
100
AcDbEntity
  8
____1
  6
DASHED2
 62
     7
100
AcDbLine
 10
353.6007717408692
 20
282.176249999998
 30
0.0
 11
343.8667970098273
 21
282.176249999998
 31
0.0
  0
LINE
  5
BCA
330
B44
100
AcDbEntity
  8
____1
  6
DASHED2
 62
     7
100
AcDbLine
 10
353.6007717408714
 20
247.1762499999982
 30
0.0
 11
343.8667970098273
 21
247.1762499999982
 31
0.0
  0
LINE
  5
BCB
330
B44
100
AcDbEntity
  8
____1
  6
DASHED2
 62
     7
100
AcDbLine
 10
261.916797009827
 20
78.17625000000453
 30
0.0
 11
341.8667970098272
 21
78.17625000000453
 31
0.0
  0
ARC
  5
BCC
330
B44
100
AcDbEntity
  8
____1
  6
DASHED2
 62
     7
100
AcDbCircle
 10
179.9667970098272
 20
324.6762499999999
 30
0.0
 40
25.97414762083169
100
AcDbArc
 50
359.9999983285405
 51
90.0
  0
LINE
  5
BCD
330
B44
100
AcDbEntity
  8
____1
  6
DASHED2
 62
     7
100
AcDbLine
 10
261.916797009827
 20
282.6762499999997
 30
0.0
 11
261.916797009827
 21
451.4762499999961
 31
0.0
  0
LINE
  5
BCE
330
B44
100
AcDbEntity
  8
____1
  6
DASHED2
 62
     7
100
AcDbLine
 10
259.916797009827
 20
282.6762499999997
 30
0.0
 11
259.916797009827
 21
451.4762499999961
 31
0.0
  0
LINE
  5
BCF
330
B44
100
AcDbEntity
  8
____1
  6
DASHED2
 62
     7
100
AcDbLine
 10
341.8667970098272
 20
282.1121401727372
 30
0.0
 11
341.8667970098272
 21
451.4762499999971
 31
0.0
  0
LINE
  5
BD0
330
B44
100
AcDbEntity
  8
____1
  6
DASHED2
 62
     7
100
AcDbLine
 10
343.8667970098273
 20
278.6762499999998
 30
0.0
 11
343.8667970098273
 21
451.4762499999971
 31
0.0
  0
LINE
  5
BD1
330
B44
100
AcDbEntity
  8
____1
  6
DASHED2
 62
     7
100
AcDbLine
 10
359.4667970098273
 20
282.6762499999997
 30
0.0
 11
359.4667970098273
 21
461.9762500000005
 31
0.0
  0
LINE
  5
BD2
330
B44
100
AcDbEntity
  8
____1
  6
DASHED2
 62
     7
100
AcDbLine
 10
367.4667970098271
 20
282.6762499999997
 30
0.0
 11
367.4667970098271
 21
432.2634497539016
 31
0.0
  0
LINE
  5
BD3
330
B44
100
AcDbEntity
  8
____1
  6
DASHED2
 62
     7
100
AcDbLine
 10
205.9409446306589
 20
282.6762499999997
 30
0.0
 11
205.9409446306589
 21
324.6762492422699
 31
0.0
  0
LINE
  5
BD4
330
B44
100
AcDbEntity
  8
____1
  6
DASHED2
 62
     7
100
AcDbLine
 10
261.916797009827
 20
451.4762499999971
 30
0.0
 11
341.8667970098272
 21
451.4762499999971
 31
0.0
  0
LINE
  5
BD5
330
B44
100
AcDbEntity
  8
____1
  6
DASHED2
 62
     7
100
AcDbLine
 10
87.86679700982759
 20
78.17625000001084
 30
0.0
 11
267.966797009826
 21
78.17625000001084
 31
0.0
  0
LINE
  5
BD6
330
B44
100
AcDbEntity
  8
____1
  6
DASHED2
 62
     7
100
AcDbLine
 10
252.4667970098271
 20
69.67624999999362
 30
0.0
 11
252.4667970098271
 21
73.57624999999416
 31
0.0
  0
INSERT
  5
BD8
330
B44
100
AcDbEntity
  8
____1
  6
DASHED2
 62
     7
100
AcDbBlockReference
  2
C24
 10
0.0
 20
0.0
 30
0.0
  0
INSERT
  5
BDA
330
B44
100
AcDbEntity
  8
____1
  6
DASHED2
 62
     7
100
AcDbBlockReference
  2
C25
 10
0.0
 20
0.0
 30
0.0
  0
INSERT
  5
BDC
330
B44
100
AcDbEntity
  8
____1
  6
DASHED2
 62
     7
100
AcDbBlockReference
  2
C26
 10
0.0
 20
0.0
 30
0.0
  0
INSERT
  5
BDE
330
B44
100
AcDbEntity
  8
____1
  6
DASHED2
 62
     7
100
AcDbBlockReference
  2
C27
 10
0.0
 20
0.0
 30
0.0
  0
LINE
  5
BDF
330
B44
100
AcDbEntity
  8
____1
  6
DASHED2
 62
     7
100
AcDbLine
 10
192.4667970098272
 20
69.67624999999362
 30
0.0
 11
192.4667970098272
 21
73.57624999999416
 31
0.0
  0
LINE
  5
BE0
330
B44
100
AcDbEntity
  8
____1
  6
DASHED2
 62
     7
100
AcDbLine
 10
132.4667970098271
 20
69.67624999999362
 30
0.0
 11
160.4667970098272
 21
69.67624999999362
 31
0.0
  0
LINE
  5
BE1
330
B44
100
AcDbEntity
  8
____1
  6
DASHED2
 62
     7
100
AcDbLine
 10
160.4667970098272
 20
69.67624999999362
 30
0.0
 11
160.4667970098272
 21
73.57624999999416
 31
0.0
  0
LINE
  5
BE2
330
B44
100
AcDbEntity
  8
____1
  6
DASHED2
 62
     7
100
AcDbLine
 10
132.4667970098271
 20
69.67624999999362
 30
0.0
 11
132.4667970098271
 21
73.57624999999416
 31
0.0
  0
LINE
  5
BE3
330
B44
100
AcDbEntity
  8
____1
  6
DASHED2
 62
     7
100
AcDbLine
 10
220.4667970098271
 20
69.67624999999362
 30
0.0
 11
220.4667970098271
 21
73.57624999999416
 31
0.0
  0
LINE
  5
BE4
330
B44
100
AcDbEntity
  8
____1
  6
DASHED2
 62
     7
100
AcDbLine
 10
359.4667970098272
 20
430.1762499999979
 30
0.0
 11
343.8667970098273
 21
430.1762499999979
 31
0.0
  0
LINE
  5
BE5
330
B44
100
AcDbEntity
  8
____1
  6
DASHED2
 62
     7
100
AcDbLine
 10
359.4667970098272
 20
393.176249999998
 30
0.0
 11
343.8667970098273
 21
393.176249999998
 31
0.0
  0
LINE
  5
BE6
330
B44
100
AcDbEntity
  8
____1
  6
DASHED2
 62
     7
100
AcDbLine
 10
179.9667970098272
 20
350.6503976208316
 30
0.0
 11
179.9667970098272
 21
451.4762499999971
 31
0.0
  0
ARC
  5
BE7
330
B44
100
AcDbEntity
  8
____1
  6
DASHED2
 62
     7
100
AcDbCircle
 10
366.4667970098274
 20
80.17624999999993
 30
0.0
 40
1.0
100
AcDbArc
 50
270.0
 51
0.0
  0
LINE
  5
BE8
330
B44
100
AcDbEntity
  8
____1
  6
DASHED2
 62
     7
100
AcDbLine
 10
359.4667970098273
 20
99.17624999999993
 30
0.0
 11
366.4667970098274
 21
99.17624999999993
 31
0.0
  0
ARC
  5
BE9
330
B44
100
AcDbEntity
  8
____1
  6
DASHED2
 62
     7
100
AcDbCircle
 10
366.4667970098274
 20
98.17624999999992
 30
0.0
 40
1.0
100
AcDbArc
 50
0.0
 51
90.0
  0
LINE
  5
BEA
330
B44
100
AcDbEntity
  8
____1
  6
DASHED2
 62
     7
100
AcDbLine
 10
367.4667970098274
 20
80.17624999999993
 30
0.0
 11
367.4667970098274
 21
98.17624999999992
 31
0.0
  0
LINE
  5
BEB
330
B44
100
AcDbEntity
  8
____1
  6
DASHED2
 62
     7
100
AcDbLine
 10
359.4667970098273
 20
79.17624999999993
 30
0.0
 11
366.4667970098274
 21
79.17624999999993
 31
0.0
  0
LINE
  5
BEC
330
B44
100
AcDbEntity
  8
____1
  6
DASHED2
 62
     7
100
AcDbLine
 10
367.4667975169362
 20
224.6762490684637
 30
0.0
 11
359.4667970098273
 21
224.9556150390152
 31
0.0
  0
LINE
  5
BED
330
B44
100
AcDbEntity
  8
____1
  6
DASHED2
 62
     7
100
AcDbLine
 10
367.4667975549695
 20
221.6762490684637
 30
0.0
 11
359.4667970098273
 21
221.3968826904017
 31
0.0
  0
LINE
  5
BEE
330
B44
100
AcDbEntity
  8
____1
  6
DASHED2
 62
     7
100
AcDbLine
 10
367.4667970098272
 20
307.676251482998
 30
0.0
 11
359.4667970098273
 21
307.9556176389321
 31
0.0
  0
LINE
  5
BEF
330
B44
100
AcDbEntity
  8
____1
  6
DASHED2
 62
     7
100
AcDbLine
 10
367.4667970098272
 20
304.6762515197435
 30
0.0
 11
359.4667970098273
 21
304.3968853638097
 31
0.0
  0
LINE
  5
BF0
330
B44
100
AcDbEntity
  8
____1
  6
DASHED2
 62
     7
100
AcDbLine
 10
359.4667970098273
 20
74.87624985229918
 30
0.0
 11
367.4667970098271
 21
74.87624985229918
 31
0.0
  0
LINE
  5
BF1
330
B44
100
AcDbEntity
  8
____1
  6
DASHED2
 62
     7
100
AcDbLine
 10
367.4667970098271
 20
76.87624985229918
 30
0.0
 11
367.4667970098271
 21
74.87624985229918
 31
0.0
  0
LINE
  5
BF2
330
B44
100
AcDbEntity
  8
____1
  6
DASHED2
 62
     7
100
AcDbLine
 10
359.4667970098273
 20
77.87624985229918
 30
0.0
 11
366.4667970098272
 21
77.87624985229918
 31
0.0
  0
ARC
  5
BF3
330
B44
100
AcDbEntity
  8
____1
  6
DASHED2
 62
     7
100
AcDbCircle
 10
366.4667970098272
 20
76.87624985229918
 30
0.0
 40
1.0
100
AcDbArc
 50
0.0
 51
90.0
  0
LINE
  5
BF4
330
B44
100
AcDbEntity
  8
____1
  6
DASHED2
 62
     7
100
AcDbLine
 10
312.4667970098266
 20
73.57624999999416
 30
0.0
 11
340.4667970098271
 21
73.57624999999416
 31
0.0
  0
LINE
  5
BF5
330
B44
100
AcDbEntity
  8
____1
  6
DASHED2
 62
     7
100
AcDbLine
 10
359.4667970098272
 20
319.1762499999981
 30
0.0
 11
343.8667970098273
 21
319.1762499999981
 31
0.0
  0
LINE
  5
BF6
330
B44
100
AcDbEntity
  8
____1
  6
DASHED2
 62
     7
100
AcDbLine
 10
359.4667970098272
 20
173.1762499999981
 30
0.0
 11
343.8667970098273
 21
173.1762499999981
 31
0.0
  0
LINE
  5
BF7
330
B44
100
AcDbEntity
  8
____1
  6
DASHED2
 62
     7
100
AcDbLine
 10
359.4667970098272
 20
134.1762499999981
 30
0.0
 11
343.8667970098273
 21
134.1762499999981
 31
0.0
  0
LINE
  5
BF8
330
B44
100
AcDbEntity
  8
____1
  6
DASHED2
 62
     7
100
AcDbLine
 10
359.4667970098272
 20
136.1762499999981
 30
0.0
 11
343.8667970098273
 21
136.1762499999981
 31
0.0
  0
LINE
  5
BF9
330
B44
100
AcDbEntity
  8
____1
  6
DASHED2
 62
     7
100
AcDbLine
 10
359.4667970098272
 20
97.17624999999815
 30
0.0
 11
343.8667970098273
 21
97.17624999999815
 31
0.0
  0
LINE
  5
BFA
330
B44
100
AcDbEntity
  8
____1
  6
DASHED2
 62
     7
100
AcDbLine
 10
343.8667970098273
 20
78.17625000000453
 30
0.0
 11
359.4667970098273
 21
78.17625000000453
 31
0.0
  0
LINE
  5
BFB
330
B44
100
AcDbEntity
  8
____1
  6
DASHED2
 62
     7
100
AcDbLine
 10
343.8667970098273
 20
78.17625000000544
 30
0.0
 11
343.8667970098273
 21
250.6762500000002
 31
0.0
  0
LINE
  5
BFC
330
B44
100
AcDbEntity
  8
____1
  6
DASHED2
 62
     7
100
AcDbLine
 10
341.8667970098272
 20
78.17625000000544
 30
0.0
 11
341.8667970098272
 21
247.2403598272627
 31
0.0
  0
LINE
  5
BFD
330
B44
100
AcDbEntity
  8
____1
  6
DASHED2
 62
     7
100
AcDbLine
 10
87.86679700982707
 20
67.17624999999362
 30
0.0
 11
359.4667970098273
 21
67.17624999999362
 31
0.0
  0
LINE
  5
BFE
330
B44
100
AcDbEntity
  8
____1
  6
DASHED2
 62
     7
100
AcDbLine
 10
87.86679700982764
 20
451.4762500000006
 30
0.0
 11
267.966797009826
 21
451.4762500000006
 31
0.0
  0
LINE
  5
BFF
330
B44
100
AcDbEntity
  8
____1
  6
DASHED2
 62
     7
100
AcDbLine
 10
87.86679700982753
 20
453.4762500000005
 30
0.0
 11
359.4667970098273
 21
453.4762500000005
 31
0.0
  0
LINE
  5
C00
330
B44
100
AcDbEntity
  8
____1
  6
DASHED2
 62
     7
100
AcDbLine
 10
87.86679700982753
 20
461.9762500000005
 30
0.0
 11
359.4667970098273
 21
461.9762500000005
 31
0.0
  0
LINE
  5
C01
330
B44
100
AcDbEntity
  8
____1
  6
DASHED2
 62
     7
100
AcDbLine
 10
359.4667970098272
 20
321.1762499999981
 30
0.0
 11
343.8667970098273
 21
321.1762499999981
 31
0.0
  0
LINE
  5
C02
330
B44
100
AcDbEntity
  8
____1
  6
DASHED2
 62
     7
100
AcDbLine
 10
359.4667970098272
 20
284.1762499999981
 30
0.0
 11
343.8667970098273
 21
284.1762499999981
 31
0.0
  0
LINE
  5
C03
330
B44
100
AcDbEntity
  8
____1
  6
DASHED2
 62
     7
100
AcDbLine
 10
359.4667970098272
 20
245.1762499999982
 30
0.0
 11
343.8667970098273
 21
245.1762499999982
 31
0.0
  0
LINE
  5
C04
330
B44
100
AcDbEntity
  8
____1
  6
DASHED2
 62
     7
100
AcDbLine
 10
312.4667970098272
 20
69.67624999999362
 30
0.0
 11
312.4667970098272
 21
73.57624999999416
 31
0.0
  0
LINE
  5
C05
330
B44
100
AcDbEntity
  8
____1
  6
DASHED2
 62
     7
100
AcDbLine
 10
340.4667970098271
 20
69.67624999999362
 30
0.0
 11
340.4667970098271
 21
73.57624999999416
 31
0.0
  0
LINE
  5
C06
330
B44
100
AcDbEntity
  8
____1
  6
DASHED2
 62
     7
100
AcDbLine
 10
312.4667970098272
 20
69.67624999999362
 30
0.0
 11
340.4667970098271
 21
69.67624999999362
 31
0.0
  0
LINE
  5
C07
330
B44
100
AcDbEntity
  8
____1
  6
DASHED2
 62
     7
100
AcDbLine
 10
359.4667970098272
 20
99.17624999999816
 30
0.0
 11
343.8667970098273
 21
99.17624999999816
 31
0.0
  0
LINE
  5
C08
330
B44
100
AcDbEntity
  8
____1
  6
DASHED2
 62
     7
100
AcDbLine
 10
359.4667970098272
 20
208.1762499999982
 30
0.0
 11
343.8667970098273
 21
208.1762499999982
 31
0.0
  0
LINE
  5
C09
330
B44
100
AcDbEntity
  8
____1
  6
DASHED2
 62
     7
100
AcDbLine
 10
359.4667970098272
 20
210.1762499999982
 30
0.0
 11
343.8667970098273
 21
210.1762499999982
 31
0.0
  0
LINE
  5
C0A
330
B44
100
AcDbEntity
  8
____1
  6
DASHED2
 62
     7
100
AcDbLine
 10
359.4667970098272
 20
171.1762499999981
 30
0.0
 11
343.8667970098273
 21
171.1762499999981
 31
0.0
  0
LINE
  5
C0B
330
B44
100
AcDbEntity
  8
____1
  6
DASHED2
 62
     7
100
AcDbLine
 10
359.4667970098273
 20
438.6762499309276
 30
0.0
 11
364.1768977264555
 21
436.9619134696791
 31
0.0
  0
ARC
  5
C0C
330
B44
100
AcDbEntity
  8
____1
  6
DASHED2
 62
     7
100
AcDbCircle
 10
362.466797009827
 20
432.2634503657496
 30
0.0
 40
5.00000000000015
100
AcDbArc
 50
359.9999929887383
 51
69.99999999999797
  0
LINE
  5
C0D
330
B44
100
AcDbEntity
  8
____1
  6
DASHED2
 62
     7
100
AcDbLine
 10
359.4667970098273
 20
454.4762500000005
 30
0.0
 11
367.4667970098271
 21
454.4762500000005
 31
0.0
  0
LINE
  5
C0E
330
B44
100
AcDbEntity
  8
____1
  6
DASHED2
 62
     7
100
AcDbLine
 10
367.4667970098271
 20
452.4762500000005
 30
0.0
 11
367.4667970098271
 21
454.4762500000005
 31
0.0
  0
LINE
  5
C0F
330
B44
100
AcDbEntity
  8
____1
  6
DASHED2
 62
     7
100
AcDbLine
 10
359.4667970098273
 20
451.4762500000006
 30
0.0
 11
366.4667970098272
 21
451.4762500000006
 31
0.0
  0
ARC
  5
C10
330
B44
100
AcDbEntity
  8
____1
  6
DASHED2
 62
     7
100
AcDbCircle
 10
366.4667970098272
 20
452.4762500000005
 30
0.0
 40
1.0
100
AcDbArc
 50
270.0
 51
0.0
  0
LINE
  5
C11
330
B44
100
AcDbEntity
  8
____1
  6
DASHED2
 62
     7
100
AcDbLine
 10
359.4667970098272
 20
395.1762499999979
 30
0.0
 11
343.8667970098273
 21
395.1762499999979
 31
0.0
  0
LINE
  5
C12
330
B44
100
AcDbEntity
  8
____1
  6
DASHED2
 62
     7
100
AcDbLine
 10
359.4667970098272
 20
356.1762499999979
 30
0.0
 11
343.8667970098273
 21
356.1762499999979
 31
0.0
  0
LINE
  5
C13
330
B44
100
AcDbEntity
  8
____1
  6
DASHED2
 62
     7
100
AcDbLine
 10
359.4667970098272
 20
358.1762499999979
 30
0.0
 11
343.8667970098273
 21
358.1762499999979
 31
0.0
  0
LINE
  5
C14
330
B44
100
AcDbEntity
  8
____1
  6
DASHED2
 62
     7
100
AcDbLine
 10
343.8667970098273
 20
451.4762499999971
 30
0.0
 11
359.4667970098273
 21
451.4762499999971
 31
0.0
  0
LINE
  5
C15
330
B44
100
AcDbEntity
  8
____1
  6
DASHED2
 62
     7
100
AcDbLine
 10
359.4667970098272
 20
432.1762499999978
 30
0.0
 11
343.8667970098273
 21
432.1762499999978
 31
0.0
  0
ENDBLK
  5
C16
330
B44
100
AcDbEntity
  8
0
100
AcDbBlockEnd
  0
BLOCK
  5
CCB
330
B46
100
AcDbEntity
  8
0
100
AcDbBlockBegin
  2
C28
 70
     0
 10
0.0
 20
0.0
 30
0.0
  3
C28
  1

  0
LINE
  5
CCC
330
B46
100
AcDbEntity
  8
____1
  6
PHANTOM2
 62
     7
100
AcDbLine
 10
53.566797172957
 20
310.1762496081831
 30
0.0
 11
54.566797172957
 21
312.6762496081831
 31
0.0
  0
LINE
  5
CCD
330
B46
100
AcDbEntity
  8
____1
  6
PHANTOM2
 62
     7
100
AcDbLine
 10
55.566797172957
 20
312.6762496081831
 30
0.0
 11
54.566797172957
 21
312.6762496081831
 31
0.0
  0
LINE
  5
CCE
330
B46
100
AcDbEntity
  8
____1
  6
DASHED2
 62
     7
100
AcDbLine
 10
58.86679717295696
 20
36.57625043124826
 30
0.0
 11
84.86679769717687
 21
36.57625043124826
 31
0.0
  0
LINE
  5
CCF
330
B46
100
AcDbEntity
  8
2
  6
DASHED2
 62
     7
100
AcDbLine
 10
84.86679701513471
 20
38.17624958349112
 30
0.0
 11
84.86679769554219
 21
38.17624958349112
 31
0.0
  0
LINE
  5
CD0
330
B46
100
AcDbEntity
  8
____1
  6
DASHED2
 62
     7
100
AcDbLine
 10
84.86679701273418
 20
36.57625043124826
 30
0.0
 11
84.86679769717687
 21
36.57625043124826
 31
0.0
  0
LINE
  5
CD1
330
B46
100
AcDbEntity
  8
____1
  6
DASHED2
 62
     7
100
AcDbLine
 10
58.86679717295685
 20
38.17625043124829
 30
0.0
 11
84.86679701513471
 21
38.17625043124829
 31
0.0
  0
ARC
  5
CD2
330
B46
100
AcDbEntity
  8
____1
  6
DASHED2
 62
     7
100
AcDbCircle
 10
58.36679717295696
 20
36.07624960817557
 30
0.0
 40
0.500000000000048
100
AcDbArc
 50
359.9999915771666
 51
0.0000450550247663
  0
LINE
  5
CD3
330
B46
100
AcDbEntity
  8
____1
  6
DASHED2
 62
     7
100
AcDbLine
 10
55.566797172957
 20
34.17624958189291
 30
0.0
 11
56.31277595438978
 21
28.11517200726065
 31
0.0
  0
LINE
  5
CD4
330
B46
100
AcDbEntity
  8
2
  6
DASHED2
 62
     7
100
AcDbLine
 10
57.36679717295707
 20
35.57624960817557
 30
0.0
 11
58.36679739861101
 21
35.57624960817557
 31
0.0
  0
LINE
  5
CD5
330
B46
100
AcDbEntity
  8
2
  6
DASHED2
 62
     7
100
AcDbLine
 10
58.86679717295696
 20
38.17624960657727
 30
0.0
 11
84.86679769554219
 21
38.17624958349112
 31
0.0
  0
LINE
  5
CD6
330
B46
100
AcDbEntity
  8
2
  6
DASHED2
 62
     7
100
AcDbLine
 10
56.80903145981658
 20
27.67624960817547
 30
0.0
 11
57.16679717295703
 21
27.67624960817547
 31
0.0
  0
LINE
  5
CD7
330
B46
100
AcDbEntity
  8
2
  6
DASHED2
 62
     7
100
AcDbLine
 10
87.36679700982763
 20
35.57624958189299
 30
0.0
 11
85.36679747227076
 21
35.57624958189299
 31
0.0
  0
ARC
  5
CD8
330
B46
100
AcDbEntity
  8
____1
  6
DASHED2
 62
     7
100
AcDbCircle
 10
87.36679700982763
 20
36.076249581893
 30
0.0
 40
0.5000000000000197
100
AcDbArc
 50
270.0
 51
0.0000569435599595
  0
ARC
  5
CD9
330
B46
100
AcDbEntity
  8
____1
  6
DASHED2
 62
     7
100
AcDbCircle
 10
85.36679769792481
 20
36.076249581893
 30
0.0
 40
0.5000000000000157
100
AcDbArc
 50
180.3378442432286
 51
270.0000258580232
  0
ARC
  5
CDA
330
B46
100
AcDbEntity
  8
____1
  6
DASHED2
 62
     7
100
AcDbCircle
 10
57.16679717295703
 20
27.87624960817574
 30
0.0
 40
0.2000000000000194
100
AcDbArc
 50
270.0
 51
359.9999187175206
  0
ARC
  5
CDB
330
B46
100
AcDbEntity
  8
____1
  6
DASHED2
 62
     7
100
AcDbCircle
 10
58.36679717295696
 20
36.07624960817557
 30
0.0
 40
0.5
100
AcDbArc
 50
269.9999741419769
 51
359.9999613954814
  0
ARC
  5
CDC
330
B46
100
AcDbEntity
  8
____1
  6
DASHED2
 62
     7
100
AcDbCircle
 10
56.80903145981658
 20
28.17624960817547
 30
0.0
 40
0.4999999999999203
100
AcDbArc
 50
187.0165017728036
 51
270.0
  0
LINE
  5
CDD
330
B46
100
AcDbEntity
  8
____1
  6
DASHED2
 62
     7
100
AcDbLine
 10
58.86679717295696
 20
71.57625043124827
 30
0.0
 11
84.86679764482637
 21
71.57625043124827
 31
0.0
  0
LINE
  5
CDE
330
B46
100
AcDbEntity
  8
____1
  6
DASHED2
 62
     7
100
AcDbLine
 10
84.21679743424958
 20
36.57625043124826
 30
0.0
 11
84.21679743424958
 21
38.17625043124829
 31
0.0
  0
LINE
  5
CDF
330
B46
100
AcDbEntity
  8
____1
  6
PHANTOM2
 62
     7
100
AcDbLine
 10
53.566797172957
 20
296.8762499986005
 30
0.0
 11
53.566797172957
 21
232.4762499986004
 31
0.0
  0
LINE
  5
CE0
330
B46
100
AcDbEntity
  8
____1
  6
PHANTOM2
 62
     7
100
AcDbLine
 10
53.566797172957
 20
219.1762496081832
 30
0.0
 11
54.566797172957
 21
216.6762496081832
 31
0.0
  0
LINE
  5
CE1
330
B46
100
AcDbEntity
  8
____1
  6
PHANTOM2
 62
     7
100
AcDbLine
 10
54.566797172957
 20
216.6762496081832
 30
0.0
 11
55.566797172957
 21
216.6762496081832
 31
0.0
  0
LINE
  5
CE2
330
B46
100
AcDbEntity
  8
____1
  6
DASHED2
 62
     7
100
AcDbLine
 10
58.86679717295685
 20
36.0762492712876
 30
0.0
 11
58.86679717295702
 21
493.2762496291235
 31
0.0
  0
LINE
  5
CE3
330
B46
100
AcDbEntity
  8
____1
  6
DASHED2
 62
     7
100
AcDbLine
 10
56.47777536587823
 20
27.80172404131976
 30
0.0
 11
56.4777753658784
 21
501.4762494679811
 31
0.0
  0
LINE
  5
CE4
330
B46
100
AcDbEntity
  8
____1
  6
DASHED2
 62
     7
100
AcDbLine
 10
84.86679701197958
 20
36.07330129647714
 30
0.0
 11
84.86679769792477
 21
493.2762495818928
 31
0.0
  0
LINE
  5
CE5
330
B46
100
AcDbEntity
  8
____1
  6
DASHED2
 62
     7
100
AcDbLine
 10
87.86679700982736
 20
36.0762500788193
 30
0.0
 11
87.86679700982753
 21
493.2762499211806
 31
0.0
  0
LINE
  5
CE6
330
B46
100
AcDbEntity
  8
____1
  6
DASHED2
 62
     7
100
AcDbLine
 10
55.5667971729569
 20
34.17624958189223
 30
0.0
 11
55.56679717295706
 21
495.1762495818926
 31
0.0
  0
LINE
  5
CE7
330
B46
100
AcDbEntity
  8
____1
  6
DASHED2
 62
     7
100
AcDbLine
 10
57.36679717295697
 20
27.87624932444636
 30
0.0
 11
57.36679717295714
 21
501.4762494679811
 31
0.0
  0
LINE
  5
CE8
330
B46
100
AcDbEntity
  8
____1
  6
DASHED2
 62
     7
100
AcDbLine
 10
55.56679717295706
 20
495.1762495818932
 30
0.0
 11
56.31277595438984
 21
501.2373271565253
 31
0.0
  0
ARC
  5
CE9
330
B46
100
AcDbEntity
  8
____1
  6
DASHED2
 62
     7
100
AcDbCircle
 10
57.1667971729571
 20
501.4762495556102
 30
0.0
 40
0.2000000000000647
100
AcDbArc
 50
359.9999748961353
 51
90.0
  0
ARC
  5
CEA
330
B46
100
AcDbEntity
  8
____1
  6
DASHED2
 62
     7
100
AcDbCircle
 10
56.80903145981663
 20
501.1762495556105
 30
0.0
 40
0.4999999999999203
100
AcDbArc
 50
90.0
 51
172.9834982271964
  0
LINE
  5
CEB
330
B46
100
AcDbEntity
  8
2
  6
DASHED2
 62
     7
100
AcDbLine
 10
56.80903145981663
 20
501.6762495556105
 30
0.0
 11
57.1667971729571
 21
501.6762495556105
 31
0.0
  0
LINE
  5
CEC
330
B46
100
AcDbEntity
  8
2
  6
DASHED2
 62
     7
100
AcDbLine
 10
58.86679717295702
 20
491.1762495572087
 30
0.0
 11
84.86679769554219
 21
491.1762495802947
 31
0.0
  0
ARC
  5
CED
330
B46
100
AcDbEntity
  8
____1
  6
DASHED2
 62
     7
100
AcDbCircle
 10
87.36679700982769
 20
493.2762495818928
 30
0.0
 40
0.5000000000000016
100
AcDbArc
 50
0.0000388795042803
 51
90.0
  0
LINE
  5
CEE
330
B46
100
AcDbEntity
  8
2
  6
DASHED2
 62
     7
100
AcDbLine
 10
87.36679700982769
 20
493.7762495818928
 30
0.0
 11
85.36679747227083
 21
493.7762495818928
 31
0.0
  0
LINE
  5
CEF
330
B46
100
AcDbEntity
  8
____1
  6
DASHED2
 62
     7
100
AcDbLine
 10
59.51679743424964
 20
491.1762495687518
 30
0.0
 11
59.51679743424964
 21
492.7762495687516
 31
0.0
  0
ARC
  5
CF0
330
B46
100
AcDbEntity
  8
____1
  6
DASHED2
 62
     7
100
AcDbCircle
 10
58.36679717295702
 20
493.2762495556104
 30
0.0
 40
0.5000000000000055
100
AcDbArc
 50
0.0000084228204265
 51
90.00002585802315
  0
ARC
  5
CF1
330
B46
100
AcDbEntity
  8
____1
  6
DASHED2
 62
     7
100
AcDbCircle
 10
85.36679769792486
 20
493.2762495818928
 30
0.0
 40
0.5000000000001183
100
AcDbArc
 50
89.99997414197684
 51
179.9999922188907
  0
LINE
  5
CF2
330
B46
100
AcDbEntity
  8
2
  6
DASHED2
 62
     7
100
AcDbLine
 10
57.36679717295714
 20
493.7762495556103
 30
0.0
 11
58.36679739861107
 21
493.7762495556103
 31
0.0
  0
LINE
  5
CF3
330
B46
100
AcDbEntity
  8
____1
  6
DASHED2
 62
     7
100
AcDbLine
 10
58.86679717295696
 20
457.7762495687515
 30
0.0
 11
84.86679764482643
 21
457.7762495687515
 31
0.0
  0
LINE
  5
CF4
330
B46
100
AcDbEntity
  8
____1
  6
DASHED2
 62
     7
100
AcDbLine
 10
84.21679743424961
 20
492.7762495687516
 30
0.0
 11
84.21679743424961
 21
491.1762495687518
 31
0.0
  0
LINE
  5
CF5
330
B46
100
AcDbEntity
  8
____1
  6
DASHED2
 62
     7
100
AcDbLine
 10
58.86679717295702
 20
492.7762495687516
 30
0.0
 11
84.86679769717687
 21
492.7762495687516
 31
0.0
  0
LINE
  5
CF6
330
B46
100
AcDbEntity
  8
____1
  6
DASHED2
 62
     7
100
AcDbLine
 10
58.86679717295702
 20
491.1762495687518
 30
0.0
 11
84.8667976947741
 21
491.1762495687518
 31
0.0
  0
ARC
  5
CF7
330
B46
100
AcDbEntity
  8
____1
  6
DASHED2
 62
     7
100
AcDbCircle
 10
58.36679717295702
 20
493.2762495556104
 30
0.0
 40
0.5000000000000469
100
AcDbArc
 50
359.9999771586368
 51
0.0000084228204265
  0
LINE
  5
CF8
330
B46
100
AcDbEntity
  8
____1
  6
PHANTOM2
 62
     7
100
AcDbLine
 10
55.566797172957
 20
216.6762496081832
 30
0.0
 11
55.566797172957
 21
312.6762496081831
 31
0.0
  0
LINE
  5
CF9
330
B46
100
AcDbEntity
  8
____1
  6
PHANTOM2
 62
     7
100
AcDbLine
 10
54.566797172957
 20
216.6762496081832
 30
0.0
 11
54.566797172957
 21
312.6762496081831
 31
0.0
  0
LINE
  5
CFA
330
B46
100
AcDbEntity
  8
____1
  6
PHANTOM2
 62
     7
100
AcDbLine
 10
53.566797172957
 20
310.1762496081831
 30
0.0
 11
53.566797172957
 21
219.1762496081832
 31
0.0
  0
ENDBLK
  5
CFB
330
B46
100
AcDbEntity
  8
0
100
AcDbBlockEnd
  0
BLOCK
  5
B51
330
B4A
100
AcDbEntity
  8
0
100
AcDbBlockBegin
  2
C14
 70
     0
 10
0.0
 20
0.0
 30
0.0
  3
C14
  1

  0
LINE
  5
B52
330
B4A
100
AcDbEntity
  8
____1
  6
Continuous
 62
     5
100
AcDbLine
 10
368.666797009827
 20
282.6762499999997
 30
0.0
 11
368.666797009827
 21
283.0762500000001
 31
0.0
  0
LINE
  5
B53
330
B4A
100
AcDbEntity
  8
____1
  6
Continuous
 62
     5
100
AcDbLine
 10
368.666797009827
 20
246.2762500000004
 30
0.0
 11
368.666797009827
 21
246.6762500000002
 31
0.0
  0
LINE
  5
B54
330
B4A
100
AcDbEntity
  8
____1
  6
Continuous
 62
     5
100
AcDbLine
 10
383.6667970098271
 20
244.67625
 30
0.0
 11
370.2667970098274
 21
244.67625
 31
0.0
  0
LINE
  5
B55
330
B4A
100
AcDbEntity
  8
____1
  6
Continuous
 62
     5
100
AcDbLine
 10
370.2667970098274
 20
284.6762499999999
 30
0.0
 11
383.6667970098271
 21
284.6762499999999
 31
0.0
  0
LINE
  5
B56
330
B4A
100
AcDbEntity
  8
____1
  6
Continuous
 62
     5
100
AcDbLine
 10
383.6667970098271
 20
284.6762499999999
 30
0.0
 11
383.6667970098271
 21
275.67625
 31
0.0
  0
LINE
  5
B57
330
B4A
100
AcDbEntity
  8
____1
  6
Continuous
 62
     5
100
AcDbLine
 10
372.666797009827
 20
275.67625
 30
0.0
 11
383.6667970098271
 21
275.67625
 31
0.0
  0
LINE
  5
B58
330
B4A
100
AcDbEntity
  8
____1
  6
Continuous
 62
     5
100
AcDbLine
 10
383.6667970098271
 20
253.67625
 30
0.0
 11
383.6667970098271
 21
244.67625
 31
0.0
  0
LINE
  5
B59
330
B4A
100
AcDbEntity
  8
____1
  6
Continuous
 62
     5
100
AcDbLine
 10
383.6667970098271
 20
253.67625
 30
0.0
 11
372.666797009827
 21
253.67625
 31
0.0
  0
ARC
  5
B5A
330
B4A
100
AcDbEntity
  8
____1
  6
Continuous
 62
     5
100
AcDbCircle
 10
370.2667970098274
 20
246.2762500000004
 30
0.0
 40
1.600000000000362
100
AcDbArc
 50
180.0
 51
270.0
  0
ARC
  5
B5B
330
B4A
100
AcDbEntity
  8
____1
  6
Continuous
 62
     5
100
AcDbCircle
 10
370.2667970098274
 20
283.0762500000001
 30
0.0
 40
1.599999999999852
100
AcDbArc
 50
90.0
 51
180.0
  0
LINE
  5
B5C
330
B4A
100
AcDbEntity
  8
____1
  6
Continuous
 62
     5
100
AcDbLine
 10
372.666797009827
 20
284.6762499999999
 30
0.0
 11
372.666797009827
 21
275.67625
 31
0.0
  0
LINE
  5
B5D
330
B4A
100
AcDbEntity
  8
____1
  6
Continuous
 62
     5
100
AcDbLine
 10
372.666797009827
 20
253.67625
 30
0.0
 11
372.666797009827
 21
244.67625
 31
0.0
  0
ARC
  5
B5E
330
B4A
100
AcDbEntity
  8
____1
  6
Continuous
 62
     5
100
AcDbCircle
 10
370.2667970098274
 20
246.2762500000004
 30
0.0
 40
0.4000000000005457
100
AcDbArc
 50
180.0
 51
270.0
  0
ARC
  5
B5F
330
B4A
100
AcDbEntity
  8
____1
  6
Continuous
 62
     5
100
AcDbCircle
 10
370.2667970098274
 20
283.0762500000001
 30
0.0
 40
0.400000000000091
100
AcDbArc
 50
90.0
 51
180.0
  0
LINE
  5
B60
330
B4A
100
AcDbEntity
  8
____1
  6
Continuous
 62
     5
100
AcDbLine
 10
370.2667970098274
 20
283.4762500000002
 30
0.0
 11
372.666797009827
 21
283.4762500000002
 31
0.0
  0
LINE
  5
B61
330
B4A
100
AcDbEntity
  8
____1
  6
Continuous
 62
     5
100
AcDbLine
 10
372.666797009827
 20
245.8762500000002
 30
0.0
 11
370.2667970098274
 21
245.8762500000002
 31
0.0
  0
LINE
  5
B62
330
B4A
100
AcDbEntity
  8
____1
  6
Continuous
 62
     5
100
AcDbLine
 10
369.8667970098268
 20
280.1762499999997
 30
0.0
 11
369.8667970098268
 21
283.0762500000001
 31
0.0
  0
LINE
  5
B63
330
B4A
100
AcDbEntity
  8
____1
  6
Continuous
 62
     5
100
AcDbLine
 10
369.8667970098268
 20
246.2762500000004
 30
0.0
 11
369.8667970098268
 21
249.1762500000002
 31
0.0
  0
LINE
  5
B64
330
B4A
100
AcDbEntity
  8
____1
  6
DASHED2
 62
     7
100
AcDbLine
 10
369.8667970098268
 20
280.1762499999997
 30
0.0
 11
369.8667970098268
 21
249.1762500000002
 31
0.0
  0
ENDBLK
  5
B65
330
B4A
100
AcDbEntity
  8
0
100
AcDbBlockEnd
  0
BLOCK
  5
B66
330
B4C
100
AcDbEntity
  8
0
100
AcDbBlockBegin
  2
C15
 70
     0
 10
0.0
 20
0.0
 30
0.0
  3
C15
  1

  0
ARC
  5
B67
330
B4C
100
AcDbEntity
  8
____1
  6
Continuous
 62
     5
100
AcDbCircle
 10
378.4667970098269
 20
334.6762499999999
 30
0.0
 40
5.0
100
AcDbArc
 50
0.0
 51
90.0
  0
LINE
  5
B68
330
B4C
100
AcDbEntity
  8
____1
  6
Continuous
 62
     5
100
AcDbLine
 10
383.4667970098269
 20
334.6762499999999
 30
0.0
 11
383.4667970098269
 21
286.8262500000001
 31
0.0
  0
ARC
  5
B69
330
B4C
100
AcDbEntity
  8
____1
  6
Continuous
 62
     5
100
AcDbCircle
 10
381.4667970098269
 20
286.8262500000001
 30
0.0
 40
2.0
100
AcDbArc
 50
270.0
 51
0.0
  0
LINE
  5
B6A
330
B4C
100
AcDbEntity
  8
____1
  6
Continuous
 62
     5
100
AcDbLine
 10
383.4667970098269
 20
242.5262500000001
 30
0.0
 11
383.4667970098269
 21
194.6762500000002
 31
0.0
  0
LINE
  5
B6B
330
B4C
100
AcDbEntity
  8
____1
  6
Continuous
 62
     5
100
AcDbLine
 10
367.4667970098271
 20
244.5262500000001
 30
0.0
 11
381.4667970098269
 21
244.5262500000001
 31
0.0
  0
ARC
  5
B6C
330
B4C
100
AcDbEntity
  8
____1
  6
Continuous
 62
     5
100
AcDbCircle
 10
381.4667970098269
 20
242.5262500000001
 30
0.0
 40
2.0
100
AcDbArc
 50
0.0
 51
90.0
  0
LINE
  5
B6D
330
B4C
100
AcDbEntity
  8
____1
  6
Continuous
 62
     5
100
AcDbLine
 10
367.4667970098271
 20
284.82625
 30
0.0
 11
381.4667970098269
 21
284.82625
 31
0.0
  0
ARC
  5
B6E
330
B4C
100
AcDbEntity
  8
____1
  6
Continuous
 62
     5
100
AcDbCircle
 10
378.4667970098269
 20
194.6762500000002
 30
0.0
 40
5.0
100
AcDbArc
 50
270.0
 51
0.0
  0
LINE
  5
B6F
330
B4C
100
AcDbEntity
  8
____1
  6
Continuous
 62
     5
100
AcDbLine
 10
367.4667970098271
 20
189.6762500000002
 30
0.0
 11
378.4667970098269
 21
189.6762500000002
 31
0.0
  0
LINE
  5
B70
330
B4C
100
AcDbEntity
  8
____1
  6
Continuous
 62
     5
100
AcDbLine
 10
367.4667970098271
 20
339.6762499999999
 30
0.0
 11
378.4667970098269
 21
339.6762499999999
 31
0.0
  0
LINE
  5
B71
330
B4C
100
AcDbEntity
  8
____1
  6
Continuous
 62
     5
100
AcDbLine
 10
368.666797009827
 20
244.5262500000001
 30
0.0
 11
368.666797009827
 21
246.6762500000001
 31
0.0
  0
LINE
  5
B72
330
B4C
100
AcDbEntity
  8
____1
  6
Continuous
 62
     5
100
AcDbLine
 10
368.666797009827
 20
282.6762499999997
 30
0.0
 11
368.666797009827
 21
284.8262499999998
 31
0.0
  0
LINE
  5
B73
330
B4C
100
AcDbEntity
  8
____1
  6
Continuous
 62
     5
100
AcDbLine
 10
367.4667970098271
 20
339.6762500000001
 30
0.0
 11
367.4667970098271
 21
282.6762499999997
 31
0.0
  0
LINE
  5
B74
330
B4C
100
AcDbEntity
  8
____1
  6
Continuous
 62
     5
100
AcDbLine
 10
367.4667970098271
 20
246.6762500000002
 30
0.0
 11
367.4667970098271
 21
189.6762500000002
 31
0.0
  0
LINE
  5
B75
330
B4C
100
AcDbEntity
  8
____1
  6
DASHED2
 62
     7
100
AcDbLine
 10
368.666797009827
 20
246.6762500000001
 30
0.0
 11
368.666797009827
 21
282.6762499999997
 31
0.0
  0
LINE
  5
B76
330
B4C
100
AcDbEntity
  8
____1
  6
DASHED2
 62
     7
100
AcDbLine
 10
367.4667970098271
 20
282.6762499999997
 30
0.0
 11
367.4667970098271
 21
246.6762500000002
 31
0.0
  0
LINE
  5
B77
330
B4C
100
AcDbEntity
  8
____1
  6
DASHED2
 62
     7
100
AcDbLine
 10
368.6667970098271
 20
339.6762500000001
 30
0.0
 11
368.6667970098271
 21
282.6762499999997
 31
0.0
  0
LINE
  5
B78
330
B4C
100
AcDbEntity
  8
____1
  6
DASHED2
 62
     7
100
AcDbLine
 10
368.6667970098271
 20
246.6762500000002
 30
0.0
 11
368.6667970098271
 21
189.6762500000002
 31
0.0
  0
ENDBLK
  5
B79
330
B4C
100
AcDbEntity
  8
0
100
AcDbBlockEnd
  0
BLOCK
  5
B7A
330
B4E
100
AcDbEntity
  8
0
100
AcDbBlockBegin
  2
C16
 70
     0
 10
0.0
 20
0.0
 30
0.0
  3
C16
  1

  0
LINE
  5
B7B
330
B4E
100
AcDbEntity
  8
____1
  6
Continuous
 62
     5
100
AcDbLine
 10
369.8667970098268
 20
280.1762499999997
 30
0.0
 11
369.8667970098268
 21
282.6762499999997
 31
0.0
  0
LINE
  5
B7C
330
B4E
100
AcDbEntity
  8
____1
  6
Continuous
 62
     5
100
AcDbLine
 10
352.8667970098277
 20
250.6762500000002
 30
0.0
 11
352.8667970098277
 21
247.6762500000002
 31
0.0
  0
LINE
  5
B7D
330
B4E
100
AcDbEntity
  8
____1
  6
Continuous
 62
     5
100
AcDbLine
 10
341.3667970098278
 20
250.6762500000002
 30
0.0
 11
352.8667970098277
 21
250.6762500000002
 31
0.0
  0
LINE
  5
B7E
330
B4E
100
AcDbEntity
  8
____1
  6
Continuous
 62
     5
100
AcDbLine
 10
382.8667970098268
 20
275.67625
 30
0.0
 11
382.8667970098268
 21
253.67625
 31
0.0
  0
LINE
  5
B7F
330
B4E
100
AcDbEntity
  8
____1
  6
Continuous
 62
     5
100
AcDbLine
 10
369.8667970098268
 20
249.1762500000002
 30
0.0
 11
372.666797009827
 21
249.1762500000002
 31
0.0
  0
LINE
  5
B80
330
B4E
100
AcDbEntity
  8
____1
  6
Continuous
 62
     5
100
AcDbLine
 10
369.8667970098268
 20
280.1762499999997
 30
0.0
 11
372.666797009827
 21
280.1762499999997
 31
0.0
  0
LINE
  5
B81
330
B4E
100
AcDbEntity
  8
____1
  6
Continuous
 62
     5
100
AcDbLine
 10
341.3667970098278
 20
250.6762500000002
 30
0.0
 11
341.3667970098278
 21
247.6762500000002
 31
0.0
  0
LINE
  5
B82
330
B4E
100
AcDbEntity
  8
____1
  6
Continuous
 62
     5
100
AcDbLine
 10
352.8667970098277
 20
278.6762499999998
 30
0.0
 11
352.8667970098277
 21
281.6762499999997
 31
0.0
  0
LINE
  5
B83
330
B4E
100
AcDbEntity
  8
____1
  6
Continuous
 62
     5
100
AcDbLine
 10
341.3667970098278
 20
278.6762499999998
 30
0.0
 11
341.3667970098278
 21
281.6762499999997
 31
0.0
  0
LINE
  5
B84
330
B4E
100
AcDbEntity
  8
____1
  6
Continuous
 62
     5
100
AcDbLine
 10
341.3667970098278
 20
278.6762499999998
 30
0.0
 11
352.8667970098277
 21
278.6762499999998
 31
0.0
  0
LINE
  5
B85
330
B4E
100
AcDbEntity
  8
____1
  6
Continuous
 62
     7
100
AcDbLine
 10
332.8043075281694
 20
280.6762499999997
 30
0.0
 11
332.8043075281694
 21
248.6762500000002
 31
0.0
  0
ARC
  5
B86
330
B4E
100
AcDbEntity
  8
____1
  6
Continuous
 62
     5
100
AcDbCircle
 10
353.8667970098277
 20
247.6762500000002
 30
0.0
 40
1.0
100
AcDbArc
 50
180.0
 51
270.0
  0
LINE
  5
B87
330
B4E
100
AcDbEntity
  8
____1
  6
Continuous
 62
     5
100
AcDbLine
 10
87.86679700982748
 20
246.6762499999997
 30
0.0
 11
340.3667970098278
 21
246.6762500000002
 31
0.0
  0
LINE
  5
B88
330
B4E
100
AcDbEntity
  8
____1
  6
Continuous
 62
     5
100
AcDbLine
 10
87.86679700982748
 20
282.6762499999997
 30
0.0
 11
340.3667970098278
 21
282.6762499999997
 31
0.0
  0
LINE
  5
B89
330
B4E
100
AcDbEntity
  8
寸法線_1
  6
CENTER2
 62
     3
100
AcDbLine
 10
105.8667970098275
 20
257.6762499999997
 30
0.0
 11
105.8667970098275
 21
251.6762499999997
 31
0.0
  0
LINE
  5
B8A
330
B4E
100
AcDbEntity
  8
寸法線_1
  6
CENTER2
 62
     3
100
AcDbLine
 10
102.8667970098275
 20
254.6762499999997
 30
0.0
 11
108.8667970098275
 21
254.6762499999997
 31
0.0
  0
LINE
  5
B8B
330
B4E
100
AcDbEntity
  8
____1
  6
Continuous
 62
     5
100
AcDbLine
 10
87.86679700982748
 20
282.6762499999993
 30
0.0
 11
87.86679700982748
 21
246.6762500000006
 31
0.0
  0
CIRCLE
  5
B8C
330
B4E
100
AcDbEntity
  8
____1
  6
Continuous
 62
     5
100
AcDbCircle
 10
120.8667970098274
 20
274.6762499999998
 30
0.0
 40
2.0
  0
CIRCLE
  5
B8D
330
B4E
100
AcDbEntity
  8
____1
  6
Continuous
 62
     5
100
AcDbCircle
 10
105.8667970098275
 20
254.6762499999997
 30
0.0
 40
2.0
  0
LINE
  5
B8E
330
B4E
100
AcDbEntity
  8
寸法線_1
  6
CENTER2
 62
     3
100
AcDbLine
 10
120.8667970098274
 20
277.6762499999998
 30
0.0
 11
120.8667970098274
 21
271.6762499999997
 31
0.0
  0
LINE
  5
B8F
330
B4E
100
AcDbEntity
  8
寸法線_1
  6
CENTER2
 62
     3
100
AcDbLine
 10
117.8667970098274
 20
274.6762499999998
 30
0.0
 11
123.8667970098275
 21
274.6762499999998
 31
0.0
  0
LINE
  5
B90
330
B4E
100
AcDbEntity
  8
____1
  6
Continuous
 62
     7
100
AcDbLine
 10
147.004307817361
 20
280.6762499999997
 30
0.0
 11
147.004307817361
 21
248.6762500000002
 31
0.0
  0
LINE
  5
B91
330
B4E
100
AcDbEntity
  8
____1
  6
Continuous
 62
     5
100
AcDbLine
 10
353.8667970098277
 20
282.6762499999997
 30
0.0
 11
369.8667970098268
 21
282.6762499999997
 31
0.0
  0
LINE
  5
B92
330
B4E
100
AcDbEntity
  8
____1
  6
Continuous
 62
     5
100
AcDbLine
 10
353.8667970098277
 20
246.6762500000002
 30
0.0
 11
369.8667970098268
 21
246.6762500000002
 31
0.0
  0
ARC
  5
B93
330
B4E
100
AcDbEntity
  8
____1
  6
Continuous
 62
     5
100
AcDbCircle
 10
340.3667970098278
 20
247.6762500000002
 30
0.0
 40
1.0
100
AcDbArc
 50
270.0
 51
0.0
  0
ARC
  5
B94
330
B4E
100
AcDbEntity
  8
____1
  6
Continuous
 62
     5
100
AcDbCircle
 10
340.3667970098278
 20
281.6762499999997
 30
0.0
 40
1.0
100
AcDbArc
 50
0.0
 51
90.0
  0
ARC
  5
B95
330
B4E
100
AcDbEntity
  8
____1
  6
Continuous
 62
     5
100
AcDbCircle
 10
353.8667970098277
 20
281.6762499999997
 30
0.0
 40
1.0
100
AcDbArc
 50
90.0
 51
180.0
  0
LINE
  5
B96
330
B4E
100
AcDbEntity
  8
____1
  6
Continuous
 62
     5
100
AcDbLine
 10
369.8667970098268
 20
249.1762500000002
 30
0.0
 11
369.8667970098268
 21
246.6762500000002
 31
0.0
  0
ENDBLK
  5
B97
330
B4E
100
AcDbEntity
  8
0
100
AcDbBlockEnd
  0
BLOCK
  5
C17
330
BB2
100
AcDbEntity
  8
0
100
AcDbBlockBegin
  2
C18
 70
     0
 10
0.0
 20
0.0
 30
0.0
  3
C18
  1

  0
ARC
  5
C18
330
BB2
100
AcDbEntity
  8
____1
  6
DASHED2
 62
     7
100
AcDbCircle
 10
217.9664345095928
 20
119.17625
 30
0.0
 40
8.500000000000419
100
AcDbArc
 50
42.75632703059083
 51
65.23899263469946
  0
ARC
  5
C19
330
BB2
100
AcDbEntity
  8
____1
  6
DASHED2
 62
     7
100
AcDbCircle
 10
217.9664345095928
 20
119.17625
 30
0.0
 40
6.999999999999986
100
AcDbArc
 50
44.21321070173912
 51
63.78108700240345
  0
ARC
  5
C1A
330
BB2
100
AcDbEntity
  8
____1
  6
DASHED2
 62
     7
100
AcDbCircle
 10
217.9664345095928
 20
119.17625
 30
0.0
 40
10.00000000000051
100
AcDbArc
 50
41.73917047726631
 51
66.25685896824328
  0
ARC
  5
C1B
330
BB2
100
AcDbEntity
  8
____1
  6
DASHED2
 62
     7
100
AcDbCircle
 10
217.9664345095928
 20
119.17625
 30
0.0
 40
11.49999999999986
100
AcDbArc
 50
40.98854197555597
 51
67.00800961575918
  0
ARC
  5
C1C
330
BB2
100
AcDbEntity
  8
____1
  6
DASHED2
 62
     7
100
AcDbCircle
 10
217.9664345095928
 20
119.17625
 30
0.0
 40
12.99999999999993
100
AcDbArc
 50
40.41172578577181
 51
67.58522622452526
  0
ARC
  5
C1D
330
BB2
100
AcDbEntity
  8
____1
  6
DASHED2
 62
     7
100
AcDbCircle
 10
217.9664345095928
 20
119.17625
 30
0.0
 40
14.50000000000047
100
AcDbArc
 50
39.95457212209147
 51
68.04269679284316
  0
ARC
  5
C1E
330
BB2
100
AcDbEntity
  8
____1
  6
DASHED2
 62
     7
100
AcDbCircle
 10
217.9664345095928
 20
119.17625
 30
0.0
 40
16.00000000000021
100
AcDbArc
 50
39.58332169847258
 51
68.41420431265435
  0
ARC
  5
C1F
330
BB2
100
AcDbEntity
  8
____1
  6
DASHED2
 62
     7
100
AcDbCircle
 10
217.9664345095928
 20
119.17625
 30
0.0
 40
17.50000000000019
100
AcDbArc
 50
39.27582895979878
 51
68.72190983539771
  0
LINE
  5
C20
330
BB2
100
AcDbEntity
  8
____1
  6
DASHED2
 62
     7
100
AcDbLine
 10
225.4282667153886
 20
125.8336564118503
 30
0.0
 11
226.6471032953725
 21
126.7191930218973
 31
0.0
  0
LINE
  5
C21
330
BB2
100
AcDbEntity
  8
____1
  6
DASHED2
 62
     7
100
AcDbLine
 10
222.9836834110765
 20
124.0575626780159
 30
0.0
 11
224.2075386563612
 21
124.9467455618383
 31
0.0
  0
LINE
  5
C22
330
BB2
100
AcDbEntity
  8
____1
  6
DASHED2
 62
     7
100
AcDbLine
 10
227.8647079795989
 20
127.6038346072869
 30
0.0
 11
229.0814652874904
 21
128.4878605377312
 31
0.0
  0
LINE
  5
C23
330
BB2
100
AcDbEntity
  8
____1
  6
DASHED2
 62
     7
100
AcDbLine
 10
230.2976146486466
 20
129.3714447690177
 30
0.0
 11
231.513312987523
 21
130.2547013134367
 31
0.0
  0
LINE
  5
C24
330
BB2
100
AcDbEntity
  8
____1
  6
DASHED2
 62
     7
100
AcDbLine
 10
221.5265251885482
 20
126.8947831739665
 30
0.0
 11
221.0590485684505
 21
125.4560380762773
 31
0.0
  0
LINE
  5
C25
330
BB2
100
AcDbEntity
  8
____1
  6
DASHED2
 62
     7
100
AcDbLine
 10
222.4583626094144
 20
129.7626838634892
 30
0.0
 11
221.9928056454988
 21
128.3298468600301
 31
0.0
  0
LINE
  5
C26
330
BB2
100
AcDbEntity
  8
____1
  6
DASHED2
 62
     7
100
AcDbLine
 10
223.3882100196036
 20
132.6244599299148
 30
0.0
 11
222.9234483742775
 21
131.1940706653835
 31
0.0
  0
LINE
  5
C27
330
BB2
100
AcDbEntity
  8
____1
  6
DASHED2
 62
     7
100
AcDbLine
 10
224.3170957206617
 20
135.4832761599787
 30
0.0
 11
223.8527391272601
 21
134.0541335170878
 31
0.0
  0
ENDBLK
  5
C28
330
BB2
100
AcDbEntity
  8
0
100
AcDbBlockEnd
  0
BLOCK
  5
C29
330
BB4
100
AcDbEntity
  8
0
100
AcDbBlockBegin
  2
C19
 70
     0
 10
0.0
 20
0.0
 30
0.0
  3
C19
  1

  0
ARC
  5
C2A
330
BB4
100
AcDbEntity
  8
____1
  6
DASHED2
 62
     7
100
AcDbCircle
 10
217.9664345095928
 20
119.17625
 30
0.0
 40
8.499999999999872
100
AcDbArc
 50
294.7563270305888
 51
317.2389926346972
  0
ARC
  5
C2B
330
BB4
100
AcDbEntity
  8
____1
  6
DASHED2
 62
     7
100
AcDbCircle
 10
217.9664345095928
 20
119.17625
 30
0.0
 40
7.00000000000024
100
AcDbArc
 50
296.2132107017376
 51
315.781087002401
  0
ARC
  5
C2C
330
BB4
100
AcDbEntity
  8
____1
  6
DASHED2
 62
     7
100
AcDbCircle
 10
217.9664345095928
 20
119.17625
 30
0.0
 40
9.999999999999856
100
AcDbArc
 50
293.7391704772663
 51
318.2568589682417
  0
ARC
  5
C2D
330
BB4
100
AcDbEntity
  8
____1
  6
DASHED2
 62
     7
100
AcDbCircle
 10
217.9664345095928
 20
119.17625
 30
0.0
 40
11.50000000000003
100
AcDbArc
 50
292.9885419755564
 51
319.0080096157589
  0
ARC
  5
C2E
330
BB4
100
AcDbEntity
  8
____1
  6
DASHED2
 62
     7
100
AcDbCircle
 10
217.9664345095928
 20
119.17625
 30
0.0
 40
12.99999999999986
100
AcDbArc
 50
292.4117257857692
 51
319.5852262245253
  0
ARC
  5
C2F
330
BB4
100
AcDbEntity
  8
____1
  6
DASHED2
 62
     7
100
AcDbCircle
 10
217.9664345095928
 20
119.17625
 30
0.0
 40
14.49999999999977
100
AcDbArc
 50
291.95457212209
 51
320.0426967928436
  0
ARC
  5
C30
330
BB4
100
AcDbEntity
  8
____1
  6
DASHED2
 62
     7
100
AcDbCircle
 10
217.9664345095928
 20
119.17625
 30
0.0
 40
16.00000000000003
100
AcDbArc
 50
291.5833216984726
 51
320.4142043126533
  0
ARC
  5
C31
330
BB4
100
AcDbEntity
  8
____1
  6
DASHED2
 62
     7
100
AcDbCircle
 10
217.9664345095928
 20
119.17625
 30
0.0
 40
17.5000000000001
100
AcDbArc
 50
291.2758289597979
 51
320.7219098353968
  0
LINE
  5
C32
330
BB4
100
AcDbEntity
  8
____1
  6
DASHED2
 62
     7
100
AcDbLine
 10
221.992171298443
 20
110.0223741374543
 30
0.0
 11
222.4577254452652
 21
108.5895458041163
 31
0.0
  0
LINE
  5
C33
330
BB4
100
AcDbEntity
  8
____1
  6
DASHED2
 62
     7
100
AcDbLine
 10
221.0584235645264
 20
112.8961541660042
 30
0.0
 11
221.5258946709153
 21
111.4574260377662
 31
0.0
  0
LINE
  5
C34
330
BB4
100
AcDbEntity
  8
____1
  6
DASHED2
 62
     7
100
AcDbLine
 10
222.9228090497787
 20
107.1581656510948
 30
0.0
 11
223.3875689853334
 21
105.7277816486989
 31
0.0
  0
LINE
  5
C35
330
BB4
100
AcDbEntity
  8
____1
  6
DASHED2
 62
     7
100
AcDbLine
 10
223.8520967058986
 20
104.2981123305549
 30
0.0
 11
224.3164521512826
 21
102.8689732208981
 31
0.0
  0
LINE
  5
C36
330
BB4
100
AcDbEntity
  8
____1
  6
DASHED2
 62
     7
100
AcDbLine
 10
224.2070672596204
 20
113.4052446387754
 30
0.0
 11
222.983197579259
 21
114.2944380102949
 31
0.0
  0
LINE
  5
C37
330
BB4
100
AcDbEntity
  8
____1
  6
DASHED2
 62
     7
100
AcDbLine
 10
226.6466492994368
 20
111.6327845362907
 30
0.0
 11
225.4278053442069
 21
112.5183265047676
 31
0.0
  0
LINE
  5
C38
330
BB4
100
AcDbEntity
  8
____1
  6
DASHED2
 62
     7
100
AcDbLine
 10
229.0810214236637
 20
109.8641096590495
 30
0.0
 11
227.8642596395326
 21
110.7481388416722
 31
0.0
  0
LINE
  5
C39
330
BB4
100
AcDbEntity
  8
____1
  6
DASHED2
 62
     7
100
AcDbLine
 10
231.5128757606977
 20
108.0972640612795
 30
0.0
 11
230.2971744162721
 21
108.980522789358
 31
0.0
  0
ENDBLK
  5
C3A
330
BB4
100
AcDbEntity
  8
0
100
AcDbBlockEnd
  0
BLOCK
  5
C3B
330
BBB
100
AcDbEntity
  8
0
100
AcDbBlockBegin
  2
C20
 70
     0
 10
0.0
 20
0.0
 30
0.0
  3
C20
  1

  0
ARC
  5
C3C
330
BBB
100
AcDbEntity
  8
____1
  6
DASHED2
 62
     7
100
AcDbCircle
 10
217.9664345095928
 20
119.17625
 30
0.0
 40
8.499999999999987
100
AcDbArc
 50
150.7563270305887
 51
173.2389926346993
  0
ARC
  5
C3D
330
BBB
100
AcDbEntity
  8
____1
  6
DASHED2
 62
     7
100
AcDbCircle
 10
217.9664345095928
 20
119.17625
 30
0.0
 40
6.999999999999959
100
AcDbArc
 50
152.2132107017361
 51
171.7810870024048
  0
ARC
  5
C3E
330
BBB
100
AcDbEntity
  8
____1
  6
DASHED2
 62
     7
100
AcDbCircle
 10
217.9664345095928
 20
119.17625
 30
0.0
 40
10.00000000000009
100
AcDbArc
 50
149.7391704772662
 51
174.2568589682428
  0
ARC
  5
C3F
330
BBB
100
AcDbEntity
  8
____1
  6
DASHED2
 62
     7
100
AcDbCircle
 10
217.9664345095928
 20
119.17625
 30
0.0
 40
11.49999999999994
100
AcDbArc
 50
148.9885419755551
 51
175.0080096157602
  0
ARC
  5
C40
330
BBB
100
AcDbEntity
  8
____1
  6
DASHED2
 62
     7
100
AcDbCircle
 10
217.9664345095928
 20
119.17625
 30
0.0
 40
12.99999999999992
100
AcDbArc
 50
148.4117257857708
 51
175.5852262245259
  0
ARC
  5
C41
330
BBB
100
AcDbEntity
  8
____1
  6
DASHED2
 62
     7
100
AcDbCircle
 10
217.9664345095928
 20
119.17625
 30
0.0
 40
14.49999999999996
100
AcDbArc
 50
147.9545721220894
 51
176.0426967928434
  0
ARC
  5
C42
330
BBB
100
AcDbEntity
  8
____1
  6
DASHED2
 62
     7
100
AcDbCircle
 10
217.9664345095928
 20
119.17625
 30
0.0
 40
16.00000000000006
100
AcDbArc
 50
147.5833216984705
 51
176.4142043126544
  0
ARC
  5
C43
330
BBB
100
AcDbEntity
  8
____1
  6
DASHED2
 62
     7
100
AcDbCircle
 10
217.9664345095928
 20
119.17625
 30
0.0
 40
17.50000000000007
100
AcDbArc
 50
147.2758289597975
 51
176.7219098353981
  0
LINE
  5
C44
330
BBB
100
AcDbEntity
  8
____1
  6
DASHED2
 62
     7
100
AcDbLine
 10
209.3290317992118
 20
124.2156224231007
 30
0.0
 11
208.1101952192281
 21
125.1011590331477
 31
0.0
  0
LINE
  5
C45
330
BBB
100
AcDbEntity
  8
____1
  6
DASHED2
 62
     7
100
AcDbLine
 10
211.773615103524
 20
122.4395286892663
 30
0.0
 11
210.5497598582392
 21
123.3287115730877
 31
0.0
  0
LINE
  5
C46
330
BBB
100
AcDbEntity
  8
____1
  6
DASHED2
 62
     7
100
AcDbLine
 10
206.8925905350016
 20
125.9858006185363
 30
0.0
 11
205.67583322711
 21
126.8698265489816
 31
0.0
  0
LINE
  5
C47
330
BBB
100
AcDbEntity
  8
____1
  6
DASHED2
 62
     7
100
AcDbLine
 10
204.4596838659539
 20
127.753410780268
 30
0.0
 11
203.2439855270776
 21
128.6366673246871
 31
0.0
  0
LINE
  5
C48
330
BBB
100
AcDbEntity
  8
____1
  6
DASHED2
 62
     7
100
AcDbLine
 10
209.5255447169389
 20
120.1769395164197
 30
0.0
 11
211.0383308374667
 21
120.1769395164197
 31
0.0
  0
LINE
  5
C49
330
BBB
100
AcDbEntity
  8
____1
  6
DASHED2
 62
     7
100
AcDbLine
 10
206.5100554790384
 20
120.1769395164197
 30
0.0
 11
208.016629461667
 21
120.1769395164197
 31
0.0
  0
LINE
  5
C4A
330
BBB
100
AcDbEntity
  8
____1
  6
DASHED2
 62
     7
100
AcDbLine
 10
203.5010060509633
 20
120.1769395164197
 30
0.0
 11
205.0050063285733
 21
120.1769395164197
 31
0.0
  0
LINE
  5
C4B
330
BBB
100
AcDbEntity
  8
____1
  6
DASHED2
 62
     7
100
AcDbLine
 10
200.4950687790115
 20
120.1769395164197
 30
0.0
 11
201.9977582810593
 21
120.1769395164197
 31
0.0
  0
ENDBLK
  5
C4C
330
BBB
100
AcDbEntity
  8
0
100
AcDbBlockEnd
  0
BLOCK
  5
C4D
330
BBD
100
AcDbEntity
  8
0
100
AcDbBlockBegin
  2
C21
 70
     0
 10
0.0
 20
0.0
 30
0.0
  3
C21
  1

  0
ARC
  5
C4E
330
BBD
100
AcDbEntity
  8
____1
  6
DASHED2
 62
     7
100
AcDbCircle
 10
217.9664345095928
 20
119.17625
 30
0.0
 40
8.499999999999618
100
AcDbArc
 50
222.7563270305861
 51
245.2389926346965
  0
ARC
  5
C4F
330
BBD
100
AcDbEntity
  8
____1
  6
DASHED2
 62
     7
100
AcDbCircle
 10
217.9664345095928
 20
119.17625
 30
0.0
 40
7.000000000000013
100
AcDbArc
 50
224.2132107017381
 51
243.781087002403
  0
ARC
  5
C50
330
BBD
100
AcDbEntity
  8
____1
  6
DASHED2
 62
     7
100
AcDbCircle
 10
217.9664345095928
 20
119.17625
 30
0.0
 40
9.999999999999703
100
AcDbArc
 50
221.7391704772661
 51
246.2568589682409
  0
ARC
  5
C51
330
BBD
100
AcDbEntity
  8
____1
  6
DASHED2
 62
     7
100
AcDbCircle
 10
217.9664345095928
 20
119.17625
 30
0.0
 40
11.49999999999988
100
AcDbArc
 50
220.9885419755558
 51
247.0080096157589
  0
ARC
  5
C52
330
BBD
100
AcDbEntity
  8
____1
  6
DASHED2
 62
     7
100
AcDbCircle
 10
217.9664345095928
 20
119.17625
 30
0.0
 40
12.99999999999999
100
AcDbArc
 50
220.4117257857686
 51
247.5852262245246
  0
ARC
  5
C53
330
BBD
100
AcDbEntity
  8
____1
  6
DASHED2
 62
     7
100
AcDbCircle
 10
217.9664345095928
 20
119.17625
 30
0.0
 40
14.49999999999965
100
AcDbArc
 50
219.9545721220912
 51
248.0426967928416
  0
ARC
  5
C54
330
BBD
100
AcDbEntity
  8
____1
  6
DASHED2
 62
     7
100
AcDbCircle
 10
217.9664345095928
 20
119.17625
 30
0.0
 40
16.00000000000028
100
AcDbArc
 50
219.5833216984726
 51
248.4142043126538
  0
ARC
  5
C55
330
BBD
100
AcDbEntity
  8
____1
  6
DASHED2
 62
     7
100
AcDbCircle
 10
217.9664345095928
 20
119.17625
 30
0.0
 40
17.50000000000021
100
AcDbArc
 50
219.2758289597986
 51
248.7219098353975
  0
LINE
  5
C56
330
BBD
100
AcDbEntity
  8
____1
  6
DASHED2
 62
     7
100
AcDbLine
 10
210.5046023037969
 20
112.5188435881496
 30
0.0
 11
209.285765723813
 21
111.6333069781026
 31
0.0
  0
LINE
  5
C57
330
BBD
100
AcDbEntity
  8
____1
  6
DASHED2
 62
     7
100
AcDbLine
 10
212.9491856081089
 20
114.294937321984
 30
0.0
 11
211.7253303628241
 21
113.4057544381626
 31
0.0
  0
LINE
  5
C58
330
BBD
100
AcDbEntity
  8
____1
  6
DASHED2
 62
     7
100
AcDbLine
 10
208.0681610395866
 20
110.7486653927139
 30
0.0
 11
206.8514037316949
 21
109.8646394622687
 31
0.0
  0
LINE
  5
C59
330
BBD
100
AcDbEntity
  8
____1
  6
DASHED2
 62
     7
100
AcDbLine
 10
205.6352543705389
 20
108.9810552309822
 30
0.0
 11
204.4195560316625
 21
108.0977986865632
 31
0.0
  0
LINE
  5
C5A
330
BBD
100
AcDbEntity
  8
____1
  6
DASHED2
 62
     7
100
AcDbLine
 10
214.4063438306373
 20
111.4577168260343
 30
0.0
 11
214.8738204507349
 21
112.8964619237226
 31
0.0
  0
LINE
  5
C5B
330
BBD
100
AcDbEntity
  8
____1
  6
DASHED2
 62
     7
100
AcDbLine
 10
213.4745064097713
 20
108.5898161365107
 30
0.0
 11
213.9400633736867
 21
110.0226531399707
 31
0.0
  0
LINE
  5
C5C
330
BBD
100
AcDbEntity
  8
____1
  6
DASHED2
 62
     7
100
AcDbLine
 10
212.5446589995818
 20
105.7280400700861
 30
0.0
 11
213.009420644908
 21
107.1584293346163
 31
0.0
  0
LINE
  5
C5D
330
BBD
100
AcDbEntity
  8
____1
  6
DASHED2
 62
     7
100
AcDbLine
 10
211.6157732985237
 20
102.8692238400213
 30
0.0
 11
212.0801298919253
 21
104.2983664829121
 31
0.0
  0
ENDBLK
  5
C5E
330
BBD
100
AcDbEntity
  8
0
100
AcDbBlockEnd
  0
BLOCK
  5
C5F
330
BBF
100
AcDbEntity
  8
0
100
AcDbBlockBegin
  2
C22
 70
     0
 10
0.0
 20
0.0
 30
0.0
  3
C22
  1

  0
ARC
  5
C60
330
BBF
100
AcDbEntity
  8
____1
  6
DASHED2
 62
     7
100
AcDbCircle
 10
217.9664345095928
 20
119.17625
 30
0.0
 40
8.499999999999769
100
AcDbArc
 50
258.7563270305877
 51
281.238992634697
  0
ARC
  5
C61
330
BBF
100
AcDbEntity
  8
____1
  6
DASHED2
 62
     7
100
AcDbCircle
 10
217.9664345095928
 20
119.17625
 30
0.0
 40
7.000000000000222
100
AcDbArc
 50
260.2132107017374
 51
279.7810870024022
  0
ARC
  5
C62
330
BBF
100
AcDbEntity
  8
____1
  6
DASHED2
 62
     7
100
AcDbCircle
 10
217.9664345095928
 20
119.17625
 30
0.0
 40
9.999999999999893
100
AcDbArc
 50
257.7391704772665
 51
282.2568589682411
  0
ARC
  5
C63
330
BBF
100
AcDbEntity
  8
____1
  6
DASHED2
 62
     7
100
AcDbCircle
 10
217.9664345095928
 20
119.17625
 30
0.0
 40
11.50000000000008
100
AcDbArc
 50
256.9885419755562
 51
283.0080096157587
  0
ARC
  5
C64
330
BBF
100
AcDbEntity
  8
____1
  6
DASHED2
 62
     7
100
AcDbCircle
 10
217.9664345095928
 20
119.17625
 30
0.0
 40
13.00000000000015
100
AcDbArc
 50
256.4117257857698
 51
283.5852262245243
  0
ARC
  5
C65
330
BBF
100
AcDbEntity
  8
____1
  6
DASHED2
 62
     7
100
AcDbCircle
 10
217.9664345095928
 20
119.17625
 30
0.0
 40
14.49999999999979
100
AcDbArc
 50
255.9545721220908
 51
284.0426967928423
  0
ARC
  5
C66
330
BBF
100
AcDbEntity
  8
____1
  6
DASHED2
 62
     7
100
AcDbCircle
 10
217.9664345095928
 20
119.17625
 30
0.0
 40
15.99999999999957
100
AcDbArc
 50
255.5833216984717
 51
284.4142043126535
  0
ARC
  5
C67
330
BBF
100
AcDbEntity
  8
____1
  6
DASHED2
 62
     7
100
AcDbCircle
 10
217.9664345095928
 20
119.17625
 30
0.0
 40
17.49999999999951
100
AcDbArc
 50
255.2758289597982
 51
284.7219098353973
  0
LINE
  5
C68
330
BBF
100
AcDbEntity
  8
____1
  6
DASHED2
 62
     7
100
AcDbLine
 10
215.8428107533327
 20
109.4043401487047
 30
0.0
 11
215.3772566065105
 21
107.9715118153658
 31
0.0
  0
LINE
  5
C69
330
BBF
100
AcDbEntity
  8
____1
  6
DASHED2
 62
     7
100
AcDbLine
 10
216.7765584872493
 20
112.2781201772545
 30
0.0
 11
216.3090873808604
 21
110.8393920490157
 31
0.0
  0
LINE
  5
C6A
330
BBF
100
AcDbEntity
  8
____1
  6
DASHED2
 62
     7
100
AcDbLine
 10
214.9121730019971
 20
106.5401316623451
 30
0.0
 11
214.4474130664423
 21
105.1097476599493
 31
0.0
  0
LINE
  5
C6B
330
BBF
100
AcDbEntity
  8
____1
  6
DASHED2
 62
     7
100
AcDbLine
 10
213.9828853458771
 20
103.6800783418043
 30
0.0
 11
213.5185299004932
 21
102.2509392321485
 31
0.0
  0
LINE
  5
C6C
330
BBF
100
AcDbEntity
  8
____1
  6
DASHED2
 62
     7
100
AcDbLine
 10
219.6231006177894
 20
110.8392566927009
 30
0.0
 11
219.1556239976917
 21
112.2780017903892
 31
0.0
  0
LINE
  5
C6D
330
BBF
100
AcDbEntity
  8
____1
  6
DASHED2
 62
     7
100
AcDbLine
 10
220.5549380386556
 20
107.9713560031773
 30
0.0
 11
220.08938107474
 21
109.4041930066373
 31
0.0
  0
LINE
  5
C6E
330
BBF
100
AcDbEntity
  8
____1
  6
DASHED2
 62
     7
100
AcDbLine
 10
221.4847854488448
 20
105.1095799367526
 30
0.0
 11
221.0200238035188
 21
106.5399692012829
 31
0.0
  0
LINE
  5
C6F
330
BBF
100
AcDbEntity
  8
____1
  6
DASHED2
 62
     7
100
AcDbLine
 10
222.413671149903
 20
102.2507637066887
 30
0.0
 11
221.9493145565013
 21
103.6799063495796
 31
0.0
  0
ENDBLK
  5
C70
330
BBF
100
AcDbEntity
  8
0
100
AcDbBlockEnd
  0
BLOCK
  5
C71
330
BC3
100
AcDbEntity
  8
0
100
AcDbBlockBegin
  2
C23
 70
     0
 10
0.0
 20
0.0
 30
0.0
  3
C23
  1

  0
ARC
  5
C72
330
BC3
100
AcDbEntity
  8
____1
  6
DASHED2
 62
     7
100
AcDbCircle
 10
217.9664345095928
 20
119.17625
 30
0.0
 40
8.500000000000099
100
AcDbArc
 50
186.7563270305877
 51
209.2389926346973
  0
ARC
  5
C73
330
BC3
100
AcDbEntity
  8
____1
  6
DASHED2
 62
     7
100
AcDbCircle
 10
217.9664345095928
 20
119.17625
 30
0.0
 40
7.000000000000206
100
AcDbArc
 50
188.2132107017381
 51
207.7810870024054
  0
ARC
  5
C74
330
BC3
100
AcDbEntity
  8
____1
  6
DASHED2
 62
     7
100
AcDbCircle
 10
217.9664345095928
 20
119.17625
 30
0.0
 40
9.999999999999911
100
AcDbArc
 50
185.7391704772667
 51
210.256858968241
  0
ARC
  5
C75
330
BC3
100
AcDbEntity
  8
____1
  6
DASHED2
 62
     7
100
AcDbCircle
 10
217.9664345095928
 20
119.17625
 30
0.0
 40
11.50000000000007
100
AcDbArc
 50
184.9885419755561
 51
211.0080096157592
  0
ARC
  5
C76
330
BC3
100
AcDbEntity
  8
____1
  6
DASHED2
 62
     7
100
AcDbCircle
 10
217.9664345095928
 20
119.17625
 30
0.0
 40
12.99999999999997
100
AcDbArc
 50
184.4117257857701
 51
211.5852262245241
  0
ARC
  5
C77
330
BC3
100
AcDbEntity
  8
____1
  6
DASHED2
 62
     7
100
AcDbCircle
 10
217.9664345095928
 20
119.17625
 30
0.0
 40
14.4999999999998
100
AcDbArc
 50
183.9545721220908
 51
212.0426967928414
  0
ARC
  5
C78
330
BC3
100
AcDbEntity
  8
____1
  6
DASHED2
 62
     7
100
AcDbCircle
 10
217.9664345095928
 20
119.17625
 30
0.0
 40
16.00000000000002
100
AcDbArc
 50
183.583321698472
 51
212.4142043126539
  0
ARC
  5
C79
330
BC3
100
AcDbEntity
  8
____1
  6
DASHED2
 62
     7
100
AcDbCircle
 10
217.9664345095928
 20
119.17625
 30
0.0
 40
17.50000000000017
100
AcDbArc
 50
183.2758289597984
 51
212.7219098353978
  0
LINE
  5
C7A
330
BC3
100
AcDbEntity
  8
____1
  6
DASHED2
 62
     7
100
AcDbLine
 10
208.0165601385265
 20
118.17625
 30
0.0
 11
206.5099952722032
 21
118.17625
 31
0.0
  0
LINE
  5
C7B
330
BC3
100
AcDbEntity
  8
____1
  6
DASHED2
 62
     7
100
AcDbLine
 10
211.0382312793172
 20
118.17625
 30
0.0
 11
209.5254630015256
 21
118.17625
 31
0.0
  0
LINE
  5
C7C
330
BC3
100
AcDbEntity
  8
____1
  6
DASHED2
 62
     7
100
AcDbLine
 10
205.004953112777
 20
118.17625
 30
0.0
 11
203.5009583681033
 21
118.17625
 31
0.0
  0
LINE
  5
C7D
330
BC3
100
AcDbEntity
  8
____1
  6
DASHED2
 62
     7
100
AcDbLine
 10
201.9977150869214
 20
118.17625
 30
0.0
 11
200.4950292999367
 21
118.17625
 31
0.0
  0
LINE
  5
C7E
330
BC3
100
AcDbEntity
  8
____1
  6
DASHED2
 62
     7
100
AcDbLine
 10
210.5494206798145
 20
115.0243942885285
 30
0.0
 11
211.7732903601759
 21
115.9135876600471
 31
0.0
  0
LINE
  5
C7F
330
BC3
100
AcDbEntity
  8
____1
  6
DASHED2
 62
     7
100
AcDbLine
 10
208.1098386399981
 20
113.2519341860438
 30
0.0
 11
209.328682595228
 21
114.1374761545207
 31
0.0
  0
LINE
  5
C80
330
BC3
100
AcDbEntity
  8
____1
  6
DASHED2
 62
     7
100
AcDbLine
 10
205.6754665157713
 20
111.4832593088026
 30
0.0
 11
206.8922282999024
 21
112.3672884914253
 31
0.0
  0
LINE
  5
C81
330
BC3
100
AcDbEntity
  8
____1
  6
DASHED2
 62
     7
100
AcDbLine
 10
203.2436121787373
 20
109.7164137110326
 30
0.0
 11
204.4593135231628
 21
110.5996724391111
 31
0.0
  0
ENDBLK
  5
C82
330
BC3
100
AcDbEntity
  8
0
100
AcDbBlockEnd
  0
BLOCK
  5
C83
330
BD7
100
AcDbEntity
  8
0
100
AcDbBlockBegin
  2
C24
 70
     0
 10
0.0
 20
0.0
 30
0.0
  3
C24
  1

  0
ARC
  5
C84
330
BD7
100
AcDbEntity
  8
____1
  6
DASHED2
 62
     7
100
AcDbCircle
 10
217.9664345095928
 20
119.17625
 30
0.0
 40
8.499999999999927
100
AcDbArc
 50
330.7563270305881
 51
353.2389926346994
  0
ARC
  5
C85
330
BD7
100
AcDbEntity
  8
____1
  6
DASHED2
 62
     7
100
AcDbCircle
 10
217.9664345095928
 20
119.17625
 30
0.0
 40
6.999999999999902
100
AcDbArc
 50
332.2132107017359
 51
351.7810870024048
  0
ARC
  5
C86
330
BD7
100
AcDbEntity
  8
____1
  6
DASHED2
 62
     7
100
AcDbCircle
 10
217.9664345095928
 20
119.17625
 30
0.0
 40
9.999999999999923
100
AcDbArc
 50
329.7391704772656
 51
354.2568589682428
  0
ARC
  5
C87
330
BD7
100
AcDbEntity
  8
____1
  6
DASHED2
 62
     7
100
AcDbCircle
 10
217.9664345095928
 20
119.17625
 30
0.0
 40
11.49999999999994
100
AcDbArc
 50
328.9885419755547
 51
355.0080096157602
  0
ARC
  5
C88
330
BD7
100
AcDbEntity
  8
____1
  6
DASHED2
 62
     7
100
AcDbCircle
 10
217.9664345095928
 20
119.17625
 30
0.0
 40
12.99999999999992
100
AcDbArc
 50
328.4117257857705
 51
355.5852262245259
  0
ARC
  5
C89
330
BD7
100
AcDbEntity
  8
____1
  6
DASHED2
 62
     7
100
AcDbCircle
 10
217.9664345095928
 20
119.17625
 30
0.0
 40
14.49999999999996
100
AcDbArc
 50
327.9545721220925
 51
356.0426967928434
  0
ARC
  5
C8A
330
BD7
100
AcDbEntity
  8
____1
  6
DASHED2
 62
     7
100
AcDbCircle
 10
217.9664345095928
 20
119.17625
 30
0.0
 40
15.99999999999989
100
AcDbArc
 50
327.5833216984733
 51
356.4142043126544
  0
ARC
  5
C8B
330
BD7
100
AcDbEntity
  8
____1
  6
DASHED2
 62
     7
100
AcDbCircle
 10
217.9664345095928
 20
119.17625
 30
0.0
 40
17.49999999999989
100
AcDbArc
 50
327.2758289597975
 51
356.7219098353981
  0
LINE
  5
C8C
330
BD7
100
AcDbEntity
  8
____1
  6
DASHED2
 62
     7
100
AcDbLine
 10
226.6038372199735
 20
114.1368775768992
 30
0.0
 11
227.8226737999573
 21
113.2513409668522
 31
0.0
  0
LINE
  5
C8D
330
BD7
100
AcDbEntity
  8
____1
  6
DASHED2
 62
     7
100
AcDbLine
 10
224.1592539156616
 20
115.9129713107336
 30
0.0
 11
225.3831091609462
 21
115.0237884269122
 31
0.0
  0
LINE
  5
C8E
330
BD7
100
AcDbEntity
  8
____1
  6
DASHED2
 62
     7
100
AcDbLine
 10
229.0402784841838
 20
112.3666993814636
 30
0.0
 11
230.2570357920756
 21
111.4826734510193
 31
0.0
  0
LINE
  5
C8F
330
BD7
100
AcDbEntity
  8
____1
  6
DASHED2
 62
     7
100
AcDbLine
 10
231.4731851532315
 20
110.5990892197328
 30
0.0
 11
232.688883492108
 21
109.7158326753129
 31
0.0
  0
LINE
  5
C90
330
BD7
100
AcDbEntity
  8
____1
  6
DASHED2
 62
     7
100
AcDbLine
 10
226.4073243022464
 20
118.1755604835803
 30
0.0
 11
224.8945381817188
 21
118.1755604835803
 31
0.0
  0
LINE
  5
C91
330
BD7
100
AcDbEntity
  8
____1
  6
DASHED2
 62
     7
100
AcDbLine
 10
229.4228135401472
 20
118.1755604835803
 30
0.0
 11
227.9162395575184
 21
118.1755604835803
 31
0.0
  0
LINE
  5
C92
330
BD7
100
AcDbEntity
  8
____1
  6
DASHED2
 62
     7
100
AcDbLine
 10
232.4318629682223
 20
118.1755604835803
 30
0.0
 11
230.9278626906123
 21
118.1755604835803
 31
0.0
  0
LINE
  5
C93
330
BD7
100
AcDbEntity
  8
____1
  6
DASHED2
 62
     7
100
AcDbLine
 10
235.4378002401739
 20
118.1755604835803
 30
0.0
 11
233.9351107381261
 21
118.1755604835803
 31
0.0
  0
ENDBLK
  5
C94
330
BD7
100
AcDbEntity
  8
0
100
AcDbBlockEnd
  0
BLOCK
  5
C95
330
BD9
100
AcDbEntity
  8
0
100
AcDbBlockBegin
  2
C25
 70
     0
 10
0.0
 20
0.0
 30
0.0
  3
C25
  1

  0
ARC
  5
C96
330
BD9
100
AcDbEntity
  8
____1
  6
DASHED2
 62
     7
100
AcDbCircle
 10
217.9664345095928
 20
119.17625
 30
0.0
 40
8.49999999999995
100
AcDbArc
 50
6.756327030587896
 51
29.23899263469785
  0
ARC
  5
C97
330
BD9
100
AcDbEntity
  8
____1
  6
DASHED2
 62
     7
100
AcDbCircle
 10
217.9664345095928
 20
119.17625
 30
0.0
 40
7.000000000000157
100
AcDbArc
 50
8.213210701738299
 51
27.78108700240558
  0
ARC
  5
C98
330
BD9
100
AcDbEntity
  8
____1
  6
DASHED2
 62
     7
100
AcDbCircle
 10
217.9664345095928
 20
119.17625
 30
0.0
 40
9.999999999999863
100
AcDbArc
 50
5.739170477266794
 51
30.25685896824111
  0
ARC
  5
C99
330
BD9
100
AcDbEntity
  8
____1
  6
DASHED2
 62
     7
100
AcDbCircle
 10
217.9664345095928
 20
119.17625
 30
0.0
 40
11.50000000000003
100
AcDbArc
 50
4.988541975556115
 51
31.00800961575938
  0
ARC
  5
C9A
330
BD9
100
AcDbEntity
  8
____1
  6
DASHED2
 62
     7
100
AcDbCircle
 10
217.9664345095928
 20
119.17625
 30
0.0
 40
12.99999999999987
100
AcDbArc
 50
4.411725785770178
 51
31.58522622452445
  0
ARC
  5
C9B
330
BD9
100
AcDbEntity
  8
____1
  6
DASHED2
 62
     7
100
AcDbCircle
 10
217.9664345095928
 20
119.17625
 30
0.0
 40
14.4999999999998
100
AcDbArc
 50
3.95457212209083
 51
32.04269679284144
  0
ARC
  5
C9C
330
BD9
100
AcDbEntity
  8
____1
  6
DASHED2
 62
     7
100
AcDbCircle
 10
217.9664345095928
 20
119.17625
 30
0.0
 40
15.99999999999992
100
AcDbArc
 50
3.583321698471997
 51
32.41420431265409
  0
ARC
  5
C9D
330
BD9
100
AcDbEntity
  8
____1
  6
DASHED2
 62
     7
100
AcDbCircle
 10
217.9664345095928
 20
119.17625
 30
0.0
 40
17.50000000000007
100
AcDbArc
 50
3.275828959798428
 51
32.72190983539803
  0
LINE
  5
C9E
330
BD9
100
AcDbEntity
  8
____1
  6
DASHED2
 62
     7
100
AcDbLine
 10
227.916308880659
 20
120.17625
 30
0.0
 11
229.4228737469822
 21
120.17625
 31
0.0
  0
LINE
  5
C9F
330
BD9
100
AcDbEntity
  8
____1
  6
DASHED2
 62
     7
100
AcDbLine
 10
224.8946377398682
 20
120.17625
 30
0.0
 11
226.4074060176599
 21
120.17625
 31
0.0
  0
LINE
  5
CA0
330
BD9
100
AcDbEntity
  8
____1
  6
DASHED2
 62
     7
100
AcDbLine
 10
230.9279159064085
 20
120.17625
 30
0.0
 11
232.4319106510822
 21
120.17625
 31
0.0
  0
LINE
  5
CA1
330
BD9
100
AcDbEntity
  8
____1
  6
DASHED2
 62
     7
100
AcDbLine
 10
233.935153932264
 20
120.17625
 30
0.0
 11
235.4378397192488
 21
120.17625
 31
0.0
  0
LINE
  5
CA2
330
BD9
100
AcDbEntity
  8
____1
  6
DASHED2
 62
     7
100
AcDbLine
 10
225.3834483393709
 20
123.3281057114713
 30
0.0
 11
224.1595786590095
 21
122.4389123399528
 31
0.0
  0
LINE
  5
CA3
330
BD9
100
AcDbEntity
  8
____1
  6
DASHED2
 62
     7
100
AcDbLine
 10
227.8230303791873
 20
125.1005658139561
 30
0.0
 11
226.6041864239575
 21
124.2150238454792
 31
0.0
  0
LINE
  5
CA4
330
BD9
100
AcDbEntity
  8
____1
  6
DASHED2
 62
     7
100
AcDbLine
 10
230.2574025034143
 20
126.8692406911982
 30
0.0
 11
229.0406407192831
 21
125.9852115085746
 31
0.0
  0
LINE
  5
CA5
330
BD9
100
AcDbEntity
  8
____1
  6
DASHED2
 62
     7
100
AcDbLine
 10
232.6892568404481
 20
128.6360862889673
 30
0.0
 11
231.4735554960227
 21
127.7528275608888
 31
0.0
  0
ENDBLK
  5
CA6
330
BD9
100
AcDbEntity
  8
0
100
AcDbBlockEnd
  0
BLOCK
  5
CA7
330
BDB
100
AcDbEntity
  8
0
100
AcDbBlockBegin
  2
C26
 70
     0
 10
0.0
 20
0.0
 30
0.0
  3
C26
  1

  0
ARC
  5
CA8
330
BDB
100
AcDbEntity
  8
____1
  6
DASHED2
 62
     7
100
AcDbCircle
 10
217.9664345095928
 20
119.17625
 30
0.0
 40
8.499999999999801
100
AcDbArc
 50
78.75632703058923
 51
101.2389926346981
  0
ARC
  5
CA9
330
BDB
100
AcDbEntity
  8
____1
  6
DASHED2
 62
     7
100
AcDbCircle
 10
217.9664345095928
 20
119.17625
 30
0.0
 40
7.00000000000025
100
AcDbArc
 50
80.21321070173867
 51
99.78108700240362
  0
ARC
  5
CAA
330
BDB
100
AcDbEntity
  8
____1
  6
DASHED2
 62
     7
100
AcDbCircle
 10
217.9664345095928
 20
119.17625
 30
0.0
 40
9.999999999999927
100
AcDbArc
 50
77.73917047726678
 51
102.256858968242
  0
ARC
  5
CAB
330
BDB
100
AcDbEntity
  8
____1
  6
DASHED2
 62
     7
100
AcDbCircle
 10
217.9664345095928
 20
119.17625
 30
0.0
 40
11.50000000000012
100
AcDbArc
 50
76.98854197555696
 51
103.0080096157595
  0
ARC
  5
CAC
330
BDB
100
AcDbEntity
  8
____1
  6
DASHED2
 62
     7
100
AcDbCircle
 10
217.9664345095928
 20
119.17625
 30
0.0
 40
13.00000000000019
100
AcDbArc
 50
76.4117257857705
 51
103.585226224525
  0
ARC
  5
CAD
330
BDB
100
AcDbEntity
  8
____1
  6
DASHED2
 62
     7
100
AcDbCircle
 10
217.9664345095928
 20
119.17625
 30
0.0
 40
14.4999999999998
100
AcDbArc
 50
75.95457212209106
 51
104.0426967928425
  0
ARC
  5
CAE
330
BDB
100
AcDbEntity
  8
____1
  6
DASHED2
 62
     7
100
AcDbCircle
 10
217.9664345095928
 20
119.17625
 30
0.0
 40
16.00000000000049
100
AcDbArc
 50
75.58332169847234
 51
104.4142043126533
  0
ARC
  5
CAF
330
BDB
100
AcDbEntity
  8
____1
  6
DASHED2
 62
     7
100
AcDbCircle
 10
217.9664345095928
 20
119.17625
 30
0.0
 40
17.50000000000043
100
AcDbArc
 50
75.2758289597984
 51
104.7219098353971
  0
LINE
  5
CB0
330
BDB
100
AcDbEntity
  8
____1
  6
DASHED2
 62
     7
100
AcDbLine
 10
220.0900582658527
 20
128.9481598512952
 30
0.0
 11
220.5556124126748
 21
130.3809881846341
 31
0.0
  0
LINE
  5
CB1
330
BDB
100
AcDbEntity
  8
____1
  6
DASHED2
 62
     7
100
AcDbLine
 10
219.1563105319361
 20
126.0743798227454
 30
0.0
 11
219.6237816383249
 21
127.5131079509842
 31
0.0
  0
LINE
  5
CB2
330
BDB
100
AcDbEntity
  8
____1
  6
DASHED2
 62
     7
100
AcDbLine
 10
221.0206960171883
 20
131.8123683376548
 30
0.0
 11
221.4854559527432
 21
133.2427523400506
 31
0.0
  0
LINE
  5
CB3
330
BDB
100
AcDbEntity
  8
____1
  6
DASHED2
 62
     7
100
AcDbLine
 10
221.9499836733083
 20
134.6724216581956
 30
0.0
 11
222.4143391186924
 21
136.1015607678514
 31
0.0
  0
LINE
  5
CB4
330
BDB
100
AcDbEntity
  8
____1
  6
DASHED2
 62
     7
100
AcDbLine
 10
216.309768401396
 20
127.513243307299
 30
0.0
 11
216.7772450214936
 21
126.0744982096107
 31
0.0
  0
LINE
  5
CB5
330
BDB
100
AcDbEntity
  8
____1
  6
DASHED2
 62
     7
100
AcDbLine
 10
215.37793098053
 20
130.3811439968225
 30
0.0
 11
215.8434879444454
 21
128.9483069933626
 31
0.0
  0
LINE
  5
CB6
330
BDB
100
AcDbEntity
  8
____1
  6
DASHED2
 62
     7
100
AcDbLine
 10
214.4480835703406
 20
133.2429200632473
 30
0.0
 11
214.9128452156667
 21
131.812530798717
 31
0.0
  0
LINE
  5
CB7
330
BDB
100
AcDbEntity
  8
____1
  6
DASHED2
 62
     7
100
AcDbLine
 10
213.5191978692824
 20
136.1017362933121
 30
0.0
 11
213.9835544626841
 21
134.6725936504213
 31
0.0
  0
ENDBLK
  5
CB8
330
BDB
100
AcDbEntity
  8
0
100
AcDbBlockEnd
  0
BLOCK
  5
CB9
330
BDD
100
AcDbEntity
  8
0
100
AcDbBlockBegin
  2
C27
 70
     0
 10
0.0
 20
0.0
 30
0.0
  3
C27
  1

  0
ARC
  5
CBA
330
BDD
100
AcDbEntity
  8
____1
  6
DASHED2
 62
     7
100
AcDbCircle
 10
217.9664345095928
 20
119.17625
 30
0.0
 40
8.499999999999998
100
AcDbArc
 50
114.7563270305891
 51
137.238992634698
  0
ARC
  5
CBB
330
BDD
100
AcDbEntity
  8
____1
  6
DASHED2
 62
     7
100
AcDbCircle
 10
217.9664345095928
 20
119.17625
 30
0.0
 40
7.000000000000281
100
AcDbArc
 50
116.213210701738
 51
135.7810870024013
  0
ARC
  5
CBC
330
BDD
100
AcDbEntity
  8
____1
  6
DASHED2
 62
     7
100
AcDbCircle
 10
217.9664345095928
 20
119.17625
 30
0.0
 40
9.999999999999984
100
AcDbArc
 50
113.7391704772671
 51
138.2568589682424
  0
ARC
  5
CBD
330
BDD
100
AcDbEntity
  8
____1
  6
DASHED2
 62
     7
100
AcDbCircle
 10
217.9664345095928
 20
119.17625
 30
0.0
 40
11.50000000000008
100
AcDbArc
 50
112.9885419755566
 51
139.008009615759
  0
ARC
  5
CBE
330
BDD
100
AcDbEntity
  8
____1
  6
DASHED2
 62
     7
100
AcDbCircle
 10
217.9664345095928
 20
119.17625
 30
0.0
 40
12.99999999999999
100
AcDbArc
 50
112.41172578577
 51
139.5852262245258
  0
ARC
  5
CBF
330
BDD
100
AcDbEntity
  8
____1
  6
DASHED2
 62
     7
100
AcDbCircle
 10
217.9664345095928
 20
119.17625
 30
0.0
 40
14.50000000000035
100
AcDbArc
 50
111.9545721220906
 51
140.0426967928408
  0
ARC
  5
CC0
330
BDD
100
AcDbEntity
  8
____1
  6
DASHED2
 62
     7
100
AcDbCircle
 10
217.9664345095928
 20
119.17625
 30
0.0
 40
16.00000000000012
100
AcDbArc
 50
111.5833216984715
 51
140.4142043126535
  0
ARC
  5
CC1
330
BDD
100
AcDbEntity
  8
____1
  6
DASHED2
 62
     7
100
AcDbCircle
 10
217.9664345095928
 20
119.17625
 30
0.0
 40
17.5000000000001
100
AcDbArc
 50
111.2758289597981
 51
140.7219098353968
  0
LINE
  5
CC2
330
BDD
100
AcDbEntity
  8
____1
  6
DASHED2
 62
     7
100
AcDbLine
 10
213.9406977207424
 20
128.3301258625455
 30
0.0
 11
213.4751435739203
 21
129.7629541958836
 31
0.0
  0
LINE
  5
CC3
330
BDD
100
AcDbEntity
  8
____1
  6
DASHED2
 62
     7
100
AcDbLine
 10
214.8744454546591
 20
125.4563458339958
 30
0.0
 11
214.4069743482701
 21
126.8950739622337
 31
0.0
  0
LINE
  5
CC4
330
BDD
100
AcDbEntity
  8
____1
  6
DASHED2
 62
     7
100
AcDbLine
 10
213.0100599694069
 20
131.1943343489051
 30
0.0
 11
212.545300033852
 21
132.624718351301
 31
0.0
  0
LINE
  5
CC5
330
BDD
100
AcDbEntity
  8
____1
  6
DASHED2
 62
     7
100
AcDbLine
 10
212.0807723132869
 20
134.054387669446
 30
0.0
 11
211.6164168679029
 21
135.4835267791018
 31
0.0
  0
LINE
  5
CC6
330
BDD
100
AcDbEntity
  8
____1
  6
DASHED2
 62
     7
100
AcDbLine
 10
211.725801759565
 20
124.9472553612245
 30
0.0
 11
212.9496714399266
 21
124.0580619897059
 31
0.0
  0
LINE
  5
CC7
330
BDD
100
AcDbEntity
  8
____1
  6
DASHED2
 62
     7
100
AcDbLine
 10
209.2862197197487
 20
126.7197154637092
 30
0.0
 11
210.5050636749785
 21
125.8341734952323
 31
0.0
  0
LINE
  5
CC8
330
BDD
100
AcDbEntity
  8
____1
  6
DASHED2
 62
     7
100
AcDbLine
 10
206.8518475955218
 20
128.4883903409504
 30
0.0
 11
208.0686093796528
 21
127.6043611583277
 31
0.0
  0
LINE
  5
CC9
330
BDD
100
AcDbEntity
  8
____1
  6
DASHED2
 62
     7
100
AcDbLine
 10
204.4199932584877
 20
130.2552359387205
 30
0.0
 11
205.6356946029131
 21
129.3719772106419
 31
0.0
  0
ENDBLK
  5
CCA
330
BDD
100
AcDbEntity
  8
0
100
AcDbBlockEnd
  0
BLOCK
  5
CFD
330
CFC
100
AcDbEntity
  8
0
100
AcDbBlockBegin
  2
C29
 70
     0
 10
0.0
 20
0.0
 30
0.0
  3
C29
  1

  0
INSERT
  5
CFF
330
CFC
100
AcDbEntity
  8
____1
  6
Continuous
 62
   254
100
AcDbBlockReference
  2
C30
 10
0.0
 20
0.0
 30
0.0
  0
INSERT
  5
D01
330
CFC
100
AcDbEntity
  8
____1
  6
Continuous
 62
   254
100
AcDbBlockReference
  2
C34
 10
0.0
 20
0.0
 30
0.0
  0
INSERT
  5
D03
330
CFC
100
AcDbEntity
  8
____1
  6
CENTER2
 62
   254
100
AcDbBlockReference
  2
C35
 10
0.0
 20
0.0
 30
0.0
  0
ENDBLK
  5
D04
330
CFC
100
AcDbEntity
  8
0
100
AcDbBlockEnd
  0
BLOCK
  5
D05
330
CFE
100
AcDbEntity
  8
0
100
AcDbBlockBegin
  2
C30
 70
     0
 10
0.0
 20
0.0
 30
0.0
  3
C30
  1

  0
CIRCLE
  5
D06
330
CFE
100
AcDbEntity
  8
____1
  6
DASHED2
 62
     7
100
AcDbCircle
 10
-480.9440104955149
 20
264.6762485400334
 30
0.0
 40
2.25
  0
INSERT
  5
D08
330
CFE
100
AcDbEntity
  8
____1
  6
CENTER2
 62
   254
100
AcDbBlockReference
  2
C31
 10
0.0
 20
0.0
 30
0.0
  0
CIRCLE
  5
D09
330
CFE
100
AcDbEntity
  8
____1
  6
DASHED2
 62
     7
100
AcDbCircle
 10
-480.9440104955149
 20
264.6762485400333
 30
0.0
 40
2.0
  0
CIRCLE
  5
D0A
330
CFE
100
AcDbEntity
  8
____1
  6
DASHED2
 62
     7
100
AcDbCircle
 10
-480.9440104955149
 20
264.6762485400333
 30
0.0
 40
1.650000000000544
  0
ENDBLK
  5
D0B
330
CFE
100
AcDbEntity
  8
0
100
AcDbBlockEnd
  0
BLOCK
  5
D6E
330
D00
100
AcDbEntity
  8
0
100
AcDbBlockBegin
  2
C34
 70
     0
 10
0.0
 20
0.0
 30
0.0
  3
C34
  1

  0
LINE
  5
D6F
330
D00
100
AcDbEntity
  8
____1
  6
Continuous
 62
     5
100
AcDbLine
 10
-555.9440104955149
 20
339.6762485400333
 30
0.0
 11
-555.9440104955149
 21
189.6762485400333
 31
0.0
  0
LINE
  5
D70
330
D00
100
AcDbEntity
  8
____1
  6
Continuous
 62
     5
100
AcDbLine
 10
-405.9440104955149
 20
339.6762485400334
 30
0.0
 11
-405.9440104955149
 21
189.6762485400334
 31
0.0
  0
LINE
  5
D71
330
D00
100
AcDbEntity
  8
____1
  6
Continuous
 62
     5
100
AcDbLine
 10
-405.9440104955149
 20
189.6762485400334
 30
0.0
 11
-555.9440104955149
 21
189.6762485400333
 31
0.0
  0
LINE
  5
D72
330
D00
100
AcDbEntity
  8
____1
  6
Continuous
 62
     5
100
AcDbLine
 10
-405.9440104955149
 20
339.6762485400334
 30
0.0
 11
-555.9440104955149
 21
339.6762485400333
 31
0.0
  0
LINE
  5
D73
330
D00
100
AcDbEntity
  8
____1
  6
DASHED2
 62
     7
100
AcDbLine
 10
-407.1440104955149
 20
339.6762485400334
 30
0.0
 11
-407.1440104955149
 21
284.8262485400336
 31
0.0
  0
LINE
  5
D74
330
D00
100
AcDbEntity
  8
____1
  6
DASHED2
 62
     7
100
AcDbLine
 10
-407.1440104955149
 20
244.5262485400333
 30
0.0
 11
-407.1440104955149
 21
189.6762485400334
 31
0.0
  0
LINE
  5
D75
330
D00
100
AcDbEntity
  8
____1
  6
DASHED2
 62
     7
100
AcDbLine
 10
-405.9440104955149
 20
284.8262485400336
 30
0.0
 11
-407.1440104955149
 21
284.8262485400336
 31
0.0
  0
LINE
  5
D76
330
D00
100
AcDbEntity
  8
____1
  6
DASHED2
 62
     7
100
AcDbLine
 10
-405.9440104955149
 20
244.5262485400333
 30
0.0
 11
-407.1440104955149
 21
244.5262485400333
 31
0.0
  0
LINE
  5
D77
330
D00
100
AcDbEntity
  8
____1
  6
DASHED2
 62
     7
100
AcDbLine
 10
-554.7440104955152
 20
284.8262485400335
 30
0.0
 11
-555.9440104955149
 21
284.8262485400335
 31
0.0
  0
LINE
  5
D78
330
D00
100
AcDbEntity
  8
____1
  6
DASHED2
 62
     7
100
AcDbLine
 10
-554.7440104955152
 20
244.5262485400333
 30
0.0
 11
-555.9440104955149
 21
244.5262485400333
 31
0.0
  0
LINE
  5
D79
330
D00
100
AcDbEntity
  8
____1
  6
DASHED2
 62
     7
100
AcDbLine
 10
-554.7440104955152
 20
339.6762485400333
 30
0.0
 11
-554.7440104955152
 21
284.8262485400335
 31
0.0
  0
LINE
  5
D7A
330
D00
100
AcDbEntity
  8
寸法線_1
  6
DASHED2
 62
     7
100
AcDbLine
 10
-477.9440104955149
 20
264.6762485400334
 30
0.0
 11
-483.944010495515
 21
264.6762485400334
 31
0.0
  0
LINE
  5
D7B
330
D00
100
AcDbEntity
  8
寸法線_1
  6
DASHED2
 62
     7
100
AcDbLine
 10
-480.9440104955149
 20
261.6762485400335
 30
0.0
 11
-480.9440104955149
 21
267.6762485400335
 31
0.0
  0
LINE
  5
D7C
330
D00
100
AcDbEntity
  8
____1
  6
DASHED2
 62
     7
100
AcDbLine
 10
-554.7440104955152
 20
244.5262485400333
 30
0.0
 11
-554.7440104955152
 21
189.6762485400333
 31
0.0
  0
CIRCLE
  5
D7D
330
D00
100
AcDbEntity
  8
____1
  6
DASHED2
 62
     7
100
AcDbCircle
 10
-480.9440104955149
 20
264.6762485400333
 30
0.0
 40
2.850000000000362
  0
ENDBLK
  5
D7E
330
D00
100
AcDbEntity
  8
0
100
AcDbBlockEnd
  0
BLOCK
  5
D7F
330
D02
100
AcDbEntity
  8
0
100
AcDbBlockBegin
  2
C35
 70
     0
 10
0.0
 20
0.0
 30
0.0
  3
C35
  1

  0
LINE
  5
D80
330
D02
100
AcDbEntity
  8
____1
  6
CENTER2
 62
     3
100
AcDbLine
 10
-480.9440104955149
 20
270.3792055292804
 30
0.0
 11
-480.9440104955149
 21
258.973291550786
 31
0.0
  0
LINE
  5
D81
330
D02
100
AcDbEntity
  8
____1
  6
CENTER2
 62
     3
100
AcDbLine
 10
-486.6469674847623
 20
264.6762485400333
 30
0.0
 11
-475.2410535062677
 21
264.6762485400333
 31
0.0
  0
CIRCLE
  5
D82
330
D02
100
AcDbEntity
  8
____1
  6
Continuous
 62
     5
100
AcDbCircle
 10
-480.9440104955149
 20
264.6762485400333
 30
0.0
 40
4.700000000000044
  0
INSERT
  5
D84
330
D02
100
AcDbEntity
  8
____1
  6
Continuous
 62
     5
100
AcDbBlockReference
  2
C36
 10
0.0
 20
0.0
 30
0.0
  0
INSERT
  5
D86
330
D02
100
AcDbEntity
  8
____1
  6
Continuous
 62
     5
100
AcDbBlockReference
  2
C37
 10
0.0
 20
0.0
 30
0.0
  0
INSERT
  5
D88
330
D02
100
AcDbEntity
  8
____1
  6
Continuous
 62
     5
100
AcDbBlockReference
  2
C38
 10
0.0
 20
0.0
 30
0.0
  0
INSERT
  5
D8A
330
D02
100
AcDbEntity
  8
____1
  6
Continuous
 62
     5
100
AcDbBlockReference
  2
C39
 10
0.0
 20
0.0
 30
0.0
  0
ENDBLK
  5
D8B
330
D02
100
AcDbEntity
  8
0
100
AcDbBlockEnd
  0
BLOCK
  5
D0C
330
D07
100
AcDbEntity
  8
0
100
AcDbBlockBegin
  2
C31
 70
     0
 10
0.0
 20
0.0
 30
0.0
  3
C31
  1

  0
LINE
  5
D0D
330
D07
100
AcDbEntity
  8
____1
  6
DASHED2
 62
     7
100
AcDbLine
 10
-275.6440104765054
 20
246.676248980243
 30
0.0
 11
-275.6440104765054
 21
253.6762489802424
 31
0.0
  0
LINE
  5
D0E
330
D07
100
AcDbEntity
  8
____1
  6
DASHED2
 62
     7
100
AcDbLine
 10
-274.4440104765056
 20
246.676248980243
 30
0.0
 11
-274.4440104765056
 21
253.6762489802424
 31
0.0
  0
LINE
  5
D0F
330
D07
100
AcDbEntity
  8
____1
  6
Continuous
 62
     5
100
AcDbLine
 10
-686.2440103132861
 20
244.6762489802424
 30
0.0
 11
-555.9440104955149
 21
244.6762489802424
 31
0.0
  0
LINE
  5
D10
330
D07
100
AcDbEntity
  8
____1
  6
Continuous
 62
     5
100
AcDbLine
 10
-687.4440104765075
 20
282.6762489802417
 30
0.0
 11
-687.4440104765075
 21
283.4762489802425
 31
0.0
  0
LINE
  5
D11
330
D07
100
AcDbEntity
  8
____1
  6
Continuous
 62
     5
100
AcDbLine
 10
-686.2440104765076
 20
282.6762489802417
 30
0.0
 11
-686.2440104765076
 21
283.4762489802425
 31
0.0
  0
LINE
  5
D12
330
D07
100
AcDbEntity
  8
____1
  6
Continuous
 62
     5
100
AcDbLine
 10
-687.4440104765075
 20
245.8762489802422
 30
0.0
 11
-687.4440104765075
 21
246.676248980243
 31
0.0
  0
LINE
  5
D13
330
D07
100
AcDbEntity
  8
____1
  6
Continuous
 62
     5
100
AcDbLine
 10
-686.2440104765076
 20
245.8762489802422
 30
0.0
 11
-686.2440104765076
 21
246.676248980243
 31
0.0
  0
LINE
  5
D14
330
D07
100
AcDbEntity
  8
____1
  6
DASHED2
 62
     7
100
AcDbLine
 10
-686.2440104765076
 20
246.676248980243
 30
0.0
 11
-686.2440104765076
 21
253.6762489802424
 31
0.0
  0
LINE
  5
D15
330
D07
100
AcDbEntity
  8
____1
  6
DASHED2
 62
     7
100
AcDbLine
 10
-687.4440104765075
 20
246.676248980243
 30
0.0
 11
-687.4440104765075
 21
253.6762489802424
 31
0.0
  0
LINE
  5
D16
330
D07
100
AcDbEntity
  8
____1
  6
DASHED2
 62
     7
100
AcDbLine
 10
-686.2440104765076
 20
275.6762489802424
 30
0.0
 11
-686.2440104765076
 21
282.6762489802417
 31
0.0
  0
LINE
  5
D17
330
D07
100
AcDbEntity
  8
____1
  6
DASHED2
 62
     7
100
AcDbLine
 10
-687.4440104765075
 20
275.6762489802424
 30
0.0
 11
-687.4440104765075
 21
282.6762489802417
 31
0.0
  0
LINE
  5
D18
330
D07
100
AcDbEntity
  8
____1
  6
DASHED2
 62
     7
100
AcDbLine
 10
-686.2440104765076
 20
253.6762489802424
 30
0.0
 11
-687.4440104765075
 21
253.6762489802424
 31
0.0
  0
LINE
  5
D19
330
D07
100
AcDbEntity
  8
____1
  6
DASHED2
 62
     7
100
AcDbLine
 10
-687.4440104765075
 20
275.6762489802424
 30
0.0
 11
-686.2440104765076
 21
275.6762489802424
 31
0.0
  0
INSERT
  5
D1B
330
D07
100
AcDbEntity
  8
____1
  6
DASHED2
 62
   254
100
AcDbBlockReference
  2
C32
 10
0.0
 20
0.0
 30
0.0
  0
LINE
  5
D1C
330
D07
100
AcDbEntity
  8
____1
  6
Continuous
 62
     5
100
AcDbLine
 10
-275.6440104765054
 20
283.4762489802425
 30
0.0
 11
-278.1440104765063
 21
283.4762489802425
 31
0.0
  0
LINE
  5
D1D
330
D07
100
AcDbEntity
  8
____1
  6
Continuous
 62
     5
100
AcDbLine
 10
-274.4440104765056
 20
245.8762489802422
 30
0.0
 11
-274.4440104765056
 21
246.676248980243
 31
0.0
  0
LINE
  5
D1E
330
D07
100
AcDbEntity
  8
____1
  6
Continuous
 62
     5
100
AcDbLine
 10
-275.6440104765054
 20
245.8762489802422
 30
0.0
 11
-275.6440104765054
 21
246.676248980243
 31
0.0
  0
LINE
  5
D1F
330
D07
100
AcDbEntity
  8
____1
  6
Continuous
 62
     5
100
AcDbLine
 10
-275.6440104765054
 20
282.6762489802417
 30
0.0
 11
-275.6440104765054
 21
283.4762489802425
 31
0.0
  0
LINE
  5
D20
330
D07
100
AcDbEntity
  8
____1
  6
Continuous
 62
     5
100
AcDbLine
 10
-274.4440104765056
 20
282.6762489802417
 30
0.0
 11
-274.4440104765056
 21
283.4762489802425
 31
0.0
  0
ARC
  5
D21
330
D07
100
AcDbEntity
  8
____1
  6
Continuous
 62
     5
100
AcDbCircle
 10
-275.6440104765054
 20
283.4762489802425
 30
0.0
 40
1.199999999999817
100
AcDbArc
 50
0.0
 51
90.0
  0
ARC
  5
D22
330
D07
100
AcDbEntity
  8
____1
  6
Continuous
 62
     5
100
AcDbCircle
 10
-275.6440104765054
 20
245.8762489802422
 30
0.0
 40
1.199999999999817
100
AcDbArc
 50
270.0
 51
0.0
  0
LINE
  5
D23
330
D07
100
AcDbEntity
  8
____1
  6
Continuous
 62
     5
100
AcDbLine
 10
-278.1440104765063
 20
245.8762489802422
 30
0.0
 11
-275.6440104765054
 21
245.8762489802422
 31
0.0
  0
LINE
  5
D24
330
D07
100
AcDbEntity
  8
____1
  6
Continuous
 62
     5
100
AcDbLine
 10
-278.1440104765063
 20
244.6762489802424
 30
0.0
 11
-278.1440104765063
 21
284.6762489802424
 31
0.0
  0
LINE
  5
D25
330
D07
100
AcDbEntity
  8
____1
  6
DASHED2
 62
     7
100
AcDbLine
 10
-275.6440104765063
 20
253.6762489802424
 30
0.0
 11
-274.4440104765056
 21
253.6762489802424
 31
0.0
  0
LINE
  5
D26
330
D07
100
AcDbEntity
  8
____1
  6
DASHED2
 62
     7
100
AcDbLine
 10
-274.4440104765056
 20
275.6762489802424
 30
0.0
 11
-275.6440104765054
 21
275.6762489802424
 31
0.0
  0
LINE
  5
D27
330
D07
100
AcDbEntity
  8
____1
  6
DASHED2
 62
     7
100
AcDbLine
 10
-274.4440104765056
 20
275.6762489802424
 30
0.0
 11
-274.4440104765056
 21
282.6762489802417
 31
0.0
  0
LINE
  5
D28
330
D07
100
AcDbEntity
  8
____1
  6
DASHED2
 62
     7
100
AcDbLine
 10
-275.6440104765054
 20
275.6762489802424
 30
0.0
 11
-275.6440104765054
 21
282.6762489802417
 31
0.0
  0
LINE
  5
D29
330
D07
100
AcDbEntity
  8
____1
  6
Continuous
 62
     5
100
AcDbLine
 10
-275.6440104765054
 20
284.6762489802424
 30
0.0
 11
-405.9440104955149
 21
284.6762489802424
 31
0.0
  0
LINE
  5
D2A
330
D07
100
AcDbEntity
  8
____1
  6
DASHED2
 62
     7
100
AcDbLine
 10
-278.1440104765063
 20
283.4762489802425
 30
0.0
 11
-683.7440104765077
 21
283.4762489802425
 31
0.0
  0
LINE
  5
D2B
330
D07
100
AcDbEntity
  8
____1
  6
DASHED2
 62
     7
100
AcDbLine
 10
-683.7440104765077
 20
245.8762489802422
 30
0.0
 11
-278.1440104765063
 21
245.8762489802422
 31
0.0
  0
LINE
  5
D2C
330
D07
100
AcDbEntity
  8
____1
  6
DASHED2
 62
     7
100
AcDbLine
 10
-634.4440104765075
 20
252.6762489802425
 30
0.0
 11
-327.4440102377678
 21
252.6762489802425
 31
0.0
  0
LINE
  5
D2D
330
D07
100
AcDbEntity
  8
____1
  6
DASHED2
 62
     7
100
AcDbLine
 10
-634.4440104765075
 20
276.6762489802424
 30
0.0
 11
-327.4440102377678
 21
276.6762489802424
 31
0.0
  0
LINE
  5
D2E
330
D07
100
AcDbEntity
  8
____1
  6
Continuous
 62
     5
100
AcDbLine
 10
-683.7440104765077
 20
245.8762489802422
 30
0.0
 11
-686.2440104765076
 21
245.8762489802422
 31
0.0
  0
LINE
  5
D2F
330
D07
100
AcDbEntity
  8
____1
  6
Continuous
 62
     5
100
AcDbLine
 10
-686.2440104765076
 20
283.4762489802425
 30
0.0
 11
-683.7440104765077
 21
283.4762489802425
 31
0.0
  0
ARC
  5
D30
330
D07
100
AcDbEntity
  8
____1
  6
Continuous
 62
     5
100
AcDbCircle
 10
-686.2440104765076
 20
245.8762489802422
 30
0.0
 40
1.199999999999817
100
AcDbArc
 50
180.0
 51
270.0000077932553
  0
ARC
  5
D31
330
D07
100
AcDbEntity
  8
____1
  6
Continuous
 62
     5
100
AcDbCircle
 10
-686.2440104765076
 20
283.4762489802425
 30
0.0
 40
1.199999999999842
100
AcDbArc
 50
90.00001142359975
 51
180.0
  0
LINE
  5
D32
330
D07
100
AcDbEntity
  8
____1
  6
CENTER2
 62
     3
100
AcDbLine
 10
-485.9440104955149
 20
264.6762485400333
 30
0.0
 11
-475.944010495515
 21
264.6762485400333
 31
0.0
  0
LINE
  5
D33
330
D07
100
AcDbEntity
  8
____1
  6
CENTER2
 62
     3
100
AcDbLine
 10
-480.9440104955149
 20
269.6762485400333
 30
0.0
 11
-480.9440104955149
 21
259.6762485400333
 31
0.0
  0
LINE
  5
D34
330
D07
100
AcDbEntity
  8
____1
  6
DASHED2
 62
     7
100
AcDbLine
 10
-324.4440107157609
 20
284.6762489802424
 30
0.0
 11
-324.4440107157609
 21
279.6762489802424
 31
0.0
  0
ARC
  5
D35
330
D07
100
AcDbEntity
  8
____1
  6
DASHED2
 62
     7
100
AcDbCircle
 10
-634.4440104765075
 20
279.6762489802424
 30
0.0
 40
3.0
100
AcDbArc
 50
180.0
 51
270.0
  0
LINE
  5
D36
330
D07
100
AcDbEntity
  8
____1
  6
DASHED2
 62
     7
100
AcDbLine
 10
-637.4440104765075
 20
284.6762489802424
 30
0.0
 11
-637.4440104765075
 21
279.6762489802424
 31
0.0
  0
LINE
  5
D37
330
D07
100
AcDbEntity
  8
____1
  6
DASHED2
 62
     7
100
AcDbLine
 10
-637.4440104765075
 20
244.6762489802424
 30
0.0
 11
-637.4440104765075
 21
249.6762489802424
 31
0.0
  0
ARC
  5
D38
330
D07
100
AcDbEntity
  8
____1
  6
DASHED2
 62
     7
100
AcDbCircle
 10
-634.4440104765075
 20
249.6762489802424
 30
0.0
 40
3.0
100
AcDbArc
 50
90.0
 51
180.0
  0
LINE
  5
D39
330
D07
100
AcDbEntity
  8
____1
  6
Continuous
 62
     5
100
AcDbLine
 10
-683.7440104765077
 20
244.6762489802424
 30
0.0
 11
-683.7440104765077
 21
284.6762489802424
 31
0.0
  0
INSERT
  5
D3B
330
D07
100
AcDbEntity
  8
____1
  6
DASHED2
 62
   254
100
AcDbBlockReference
  2
C33
 10
0.0
 20
0.0
 30
0.0
  0
LINE
  5
D3C
330
D07
100
AcDbEntity
  8
____1
  6
Continuous
 62
     5
100
AcDbLine
 10
-555.9440104955149
 20
284.6762489802424
 30
0.0
 11
-686.244010715763
 21
284.6762489802424
 31
0.0
  0
LINE
  5
D3D
330
D07
100
AcDbEntity
  8
____1
  6
DASHED2
 62
     7
100
AcDbLine
 10
-324.4440107157609
 20
244.6762489802424
 30
0.0
 11
-324.4440107157609
 21
249.6762489802424
 31
0.0
  0
ARC
  5
D3E
330
D07
100
AcDbEntity
  8
____1
  6
DASHED2
 62
     7
100
AcDbCircle
 10
-327.4440107157609
 20
249.6762489802424
 30
0.0
 40
3.000000000000038
100
AcDbArc
 50
0.0
 51
89.99999087100375
  0
ARC
  5
D3F
330
D07
100
AcDbEntity
  8
____1
  6
DASHED2
 62
     7
100
AcDbCircle
 10
-327.4440107157609
 20
279.6762489802424
 30
0.0
 40
3.000000000000038
100
AcDbArc
 50
270.0000091289962
 51
0.0
  0
LINE
  5
D40
330
D07
100
AcDbEntity
  8
____1
  6
DASHED2
 62
     7
100
AcDbLine
 10
-405.9440104955149
 20
284.6762489802424
 30
0.0
 11
-555.9440104955149
 21
284.6762489802424
 31
0.0
  0
LINE
  5
D41
330
D07
100
AcDbEntity
  8
____1
  6
DASHED2
 62
     7
100
AcDbLine
 10
-555.9440104955149
 20
244.6762489802424
 30
0.0
 11
-405.9440104955155
 21
244.6762489802424
 31
0.0
  0
LINE
  5
D42
330
D07
100
AcDbEntity
  8
____1
  6
Continuous
 62
     5
100
AcDbLine
 10
-405.9440104955155
 20
244.6762489802424
 30
0.0
 11
-275.6440104765054
 21
244.6762489802424
 31
0.0
  0
ENDBLK
  5
D43
330
D07
100
AcDbEntity
  8
0
100
AcDbBlockEnd
  0
BLOCK
  5
D44
330
D1A
100
AcDbEntity
  8
0
100
AcDbBlockBegin
  2
C32
 70
     0
 10
0.0
 20
0.0
 30
0.0
  3
C32
  1

  0
LINE
  5
D45
330
D1A
100
AcDbEntity
  8
____1
  6
DASHED2
 62
     7
100
AcDbLine
 10
-278.1440105145223
 20
249.1762489802424
 30
0.0
 11
-281.4440105145225
 21
249.1762489802424
 31
0.0
  0
LINE
  5
D46
330
D1A
100
AcDbEntity
  8
____1
  6
DASHED2
 62
     7
100
AcDbLine
 10
-278.1440105145223
 20
280.1762489802424
 30
0.0
 11
-281.4440105145225
 21
280.1762489802424
 31
0.0
  0
LINE
  5
D47
330
D1A
100
AcDbEntity
  8
____1
  6
DASHED2
 62
     7
100
AcDbLine
 10
-278.1440105145223
 20
278.9762489802423
 30
0.0
 11
-281.4440105145225
 21
278.9762489802423
 31
0.0
  0
LINE
  5
D48
330
D1A
100
AcDbEntity
  8
____1
  6
DASHED2
 62
     7
100
AcDbLine
 10
-278.1440105145223
 20
250.3762489802424
 30
0.0
 11
-281.4440105145225
 21
250.3762489802424
 31
0.0
  0
LINE
  5
D49
330
D1A
100
AcDbEntity
  8
____1
  6
DASHED2
 62
     7
100
AcDbLine
 10
-281.444010514522
 20
250.3762489802423
 30
0.0
 11
-281.444010514522
 21
249.1762489802424
 31
0.0
  0
LINE
  5
D4A
330
D1A
100
AcDbEntity
  8
____1
  6
DASHED2
 62
     7
100
AcDbLine
 10
-281.444010514522
 20
280.1762489802424
 30
0.0
 11
-281.444010514522
 21
278.9762489802423
 31
0.0
  0
LINE
  5
D4B
330
D1A
100
AcDbEntity
  8
____1
  6
Continuous
 62
     5
100
AcDbLine
 10
-271.944010514522
 20
251.6762489802431
 30
0.0
 11
-271.944010514522
 21
277.6762489802417
 31
0.0
  0
ARC
  5
D4C
330
D1A
100
AcDbEntity
  8
____1
  6
Continuous
 62
     5
100
AcDbCircle
 10
-266.944010514522
 20
251.6762489802431
 30
0.0
 40
5.0
100
AcDbArc
 50
180.0
 51
270.0
  0
LINE
  5
D4D
330
D1A
100
AcDbEntity
  8
____1
  6
Continuous
 62
     5
100
AcDbLine
 10
-278.1440105145223
 20
282.6762489802417
 30
0.0
 11
-251.944010514522
 21
282.6762489802417
 31
0.0
  0
LINE
  5
D4E
330
D1A
100
AcDbEntity
  8
____1
  6
Continuous
 62
     5
100
AcDbLine
 10
-251.944010514522
 20
246.676248980243
 30
0.0
 11
-278.1440105145223
 21
246.676248980243
 31
0.0
  0
LINE
  5
D4F
330
D1A
100
AcDbEntity
  8
____1
  6
DASHED2
 62
     7
100
AcDbLine
 10
-276.944010514522
 20
282.6762489802417
 30
0.0
 11
-276.944010514522
 21
246.676248980243
 31
0.0
  0
LINE
  5
D50
330
D1A
100
AcDbEntity
  8
____1
  6
CENTER2
 62
     3
100
AcDbLine
 10
-244.8693681015868
 20
274.6762489802424
 30
0.0
 11
-262.3081740717364
 21
274.6762489802424
 31
0.0
  0
LINE
  5
D51
330
D1A
100
AcDbEntity
  8
____1
  6
CENTER2
 62
     3
100
AcDbLine
 10
-244.8693681015868
 20
254.6762489802425
 30
0.0
 11
-262.3081740717364
 21
254.6762489802425
 31
0.0
  0
ARC
  5
D52
330
D1A
100
AcDbEntity
  8
____1
  6
DASHED2
 62
     7
100
AcDbCircle
 10
-278.1440105145223
 20
278.9762489802423
 30
0.0
 40
1.200000000000044
100
AcDbArc
 50
0.0
 51
90.0
  0
ARC
  5
D53
330
D1A
100
AcDbEntity
  8
____1
  6
DASHED2
 62
     7
100
AcDbCircle
 10
-278.1440105145223
 20
250.3762489802424
 30
0.0
 40
1.200000000000044
100
AcDbArc
 50
270.0
 51
0.0
  0
LINE
  5
D54
330
D1A
100
AcDbEntity
  8
____1
  6
Continuous
 62
     5
100
AcDbLine
 10
-251.944010514522
 20
282.6762489802417
 30
0.0
 11
-251.944010514522
 21
246.676248980243
 31
0.0
  0
LINE
  5
D55
330
D1A
100
AcDbEntity
  8
____1
  6
DASHED2
 62
     7
100
AcDbLine
 10
-253.1440105145218
 20
282.6762489802417
 30
0.0
 11
-253.1440105145218
 21
246.6762489802429
 31
0.0
  0
ARC
  5
D56
330
D1A
100
AcDbEntity
  8
____1
  6
Continuous
 62
     5
100
AcDbCircle
 10
-266.944010514522
 20
277.6762489802417
 30
0.0
 40
5.0
100
AcDbArc
 50
90.0
 51
180.0
  0
LINE
  5
D57
330
D1A
100
AcDbEntity
  8
____1
  6
Continuous
 62
     5
100
AcDbLine
 10
-278.1440105145223
 20
282.6762489802417
 30
0.0
 11
-278.1440105145223
 21
246.676248980243
 31
0.0
  0
ENDBLK
  5
D58
330
D1A
100
AcDbEntity
  8
0
100
AcDbBlockEnd
  0
BLOCK
  5
D59
330
D3A
100
AcDbEntity
  8
0
100
AcDbBlockBegin
  2
C33
 70
     0
 10
0.0
 20
0.0
 30
0.0
  3
C33
  1

  0
LINE
  5
D5A
330
D3A
100
AcDbEntity
  8
____1
  6
DASHED2
 62
     7
100
AcDbLine
 10
-683.7440104765077
 20
249.1762489802424
 30
0.0
 11
-680.4440104765075
 21
249.1762489802424
 31
0.0
  0
LINE
  5
D5B
330
D3A
100
AcDbEntity
  8
____1
  6
DASHED2
 62
     7
100
AcDbLine
 10
-683.7440104765077
 20
280.1762489802424
 30
0.0
 11
-680.4440104765075
 21
280.1762489802424
 31
0.0
  0
LINE
  5
D5C
330
D3A
100
AcDbEntity
  8
____1
  6
DASHED2
 62
     7
100
AcDbLine
 10
-683.7440104765077
 20
278.9762489802423
 30
0.0
 11
-680.4440104765075
 21
278.9762489802423
 31
0.0
  0
LINE
  5
D5D
330
D3A
100
AcDbEntity
  8
____1
  6
DASHED2
 62
     7
100
AcDbLine
 10
-683.7440104765077
 20
250.3762489802424
 30
0.0
 11
-680.4440104765075
 21
250.3762489802424
 31
0.0
  0
LINE
  5
D5E
330
D3A
100
AcDbEntity
  8
____1
  6
DASHED2
 62
     7
100
AcDbLine
 10
-680.4440104765078
 20
250.3762489802423
 30
0.0
 11
-680.4440104765078
 21
249.1762489802424
 31
0.0
  0
LINE
  5
D5F
330
D3A
100
AcDbEntity
  8
____1
  6
DASHED2
 62
     7
100
AcDbLine
 10
-680.4440104765078
 20
280.1762489802424
 30
0.0
 11
-680.4440104765078
 21
278.9762489802423
 31
0.0
  0
LINE
  5
D60
330
D3A
100
AcDbEntity
  8
____1
  6
Continuous
 62
     5
100
AcDbLine
 10
-689.9440104765078
 20
251.6762489802431
 30
0.0
 11
-689.9440104765078
 21
277.6762489802417
 31
0.0
  0
ARC
  5
D61
330
D3A
100
AcDbEntity
  8
____1
  6
Continuous
 62
     5
100
AcDbCircle
 10
-694.944010476508
 20
251.6762489802431
 30
0.0
 40
5.0
100
AcDbArc
 50
270.0
 51
0.0
  0
LINE
  5
D62
330
D3A
100
AcDbEntity
  8
____1
  6
Continuous
 62
     5
100
AcDbLine
 10
-683.7440104765077
 20
282.6762489802417
 30
0.0
 11
-709.9440104765078
 21
282.6762489802417
 31
0.0
  0
LINE
  5
D63
330
D3A
100
AcDbEntity
  8
____1
  6
Continuous
 62
     5
100
AcDbLine
 10
-709.9440104765078
 20
246.676248980243
 30
0.0
 11
-683.7440104765077
 21
246.676248980243
 31
0.0
  0
LINE
  5
D64
330
D3A
100
AcDbEntity
  8
____1
  6
DASHED2
 62
     7
100
AcDbLine
 10
-684.9440104765078
 20
282.6762489802417
 30
0.0
 11
-684.9440104765078
 21
246.676248980243
 31
0.0
  0
LINE
  5
D65
330
D3A
100
AcDbEntity
  8
____1
  6
CENTER2
 62
     3
100
AcDbLine
 10
-717.018652889443
 20
274.6762489802424
 30
0.0
 11
-699.5798469192936
 21
274.6762489802424
 31
0.0
  0
LINE
  5
D66
330
D3A
100
AcDbEntity
  8
____1
  6
CENTER2
 62
     3
100
AcDbLine
 10
-717.018652889443
 20
254.6762489802425
 30
0.0
 11
-699.5798469192936
 21
254.6762489802425
 31
0.0
  0
ARC
  5
D67
330
D3A
100
AcDbEntity
  8
____1
  6
DASHED2
 62
     7
100
AcDbCircle
 10
-683.7440104765077
 20
278.9762489802423
 30
0.0
 40
1.200000000000044
100
AcDbArc
 50
90.0
 51
180.0
  0
ARC
  5
D68
330
D3A
100
AcDbEntity
  8
____1
  6
DASHED2
 62
     7
100
AcDbCircle
 10
-683.7440104765077
 20
250.3762489802424
 30
0.0
 40
1.200000000000044
100
AcDbArc
 50
180.0
 51
270.0
  0
LINE
  5
D69
330
D3A
100
AcDbEntity
  8
____1
  6
Continuous
 62
     5
100
AcDbLine
 10
-709.9440104765078
 20
282.6762489802417
 30
0.0
 11
-709.9440104765078
 21
246.676248980243
 31
0.0
  0
LINE
  5
D6A
330
D3A
100
AcDbEntity
  8
____1
  6
DASHED2
 62
     7
100
AcDbLine
 10
-708.7440104765081
 20
282.6762489802417
 30
0.0
 11
-708.7440104765081
 21
246.6762489802429
 31
0.0
  0
ARC
  5
D6B
330
D3A
100
AcDbEntity
  8
____1
  6
Continuous
 62
     5
100
AcDbCircle
 10
-694.944010476508
 20
277.6762489802417
 30
0.0
 40
5.0
100
AcDbArc
 50
0.0
 51
90.0
  0
LINE
  5
D6C
330
D3A
100
AcDbEntity
  8
____1
  6
Continuous
 62
     5
100
AcDbLine
 10
-683.7440104765077
 20
282.6762489802417
 30
0.0
 11
-683.7440104765077
 21
246.676248980243
 31
0.0
  0
ENDBLK
  5
D6D
330
D3A
100
AcDbEntity
  8
0
100
AcDbBlockEnd
  0
BLOCK
  5
D8C
330
D83
100
AcDbEntity
  8
0
100
AcDbBlockBegin
  2
C36
 70
     0
 10
0.0
 20
0.0
 30
0.0
  3
C36
  1

  0
LINE
  5
D8D
330
D83
100
AcDbEntity
  8
____1
  6
Continuous
 62
     5
100
AcDbLine
 10
-481.4440104955149
 20
266.8262485400333
 30
0.0
 11
-480.9440104955149
 21
266.8262485400333
 31
0.0
  0
LINE
  5
D8E
330
D83
100
AcDbEntity
  8
____1
  6
Continuous
 62
     5
100
AcDbLine
 10
-483.0940104955151
 20
265.1762485400332
 30
0.0
 11
-483.0940104955151
 21
264.6762485400333
 31
0.0
  0
ARC
  5
D8F
330
D83
100
AcDbEntity
  8
____1
  6
Continuous
 62
     5
100
AcDbCircle
 10
-482.444010495515
 20
266.1762485400333
 30
0.0
 40
1.0
100
AcDbArc
 50
270.0
 51
0.0
  0
LINE
  5
D90
330
D83
100
AcDbEntity
  8
____1
  6
Continuous
 62
     5
100
AcDbLine
 10
-483.0940104955151
 20
265.1762485400332
 30
0.0
 11
-482.444010495515
 21
265.1762485400332
 31
0.0
  0
LINE
  5
D91
330
D83
100
AcDbEntity
  8
____1
  6
Continuous
 62
     5
100
AcDbLine
 10
-481.4440104955149
 20
266.8262485400333
 30
0.0
 11
-481.4440104955149
 21
266.1762485400333
 31
0.0
  0
ENDBLK
  5
D92
330
D83
100
AcDbEntity
  8
0
100
AcDbBlockEnd
  0
BLOCK
  5
D93
330
D85
100
AcDbEntity
  8
0
100
AcDbBlockBegin
  2
C37
 70
     0
 10
0.0
 20
0.0
 30
0.0
  3
C37
  1

  0
LINE
  5
D94
330
D85
100
AcDbEntity
  8
____1
  6
Continuous
 62
     5
100
AcDbLine
 10
-483.0940104955151
 20
264.1762485400333
 30
0.0
 11
-483.0940104955151
 21
264.6762485400333
 31
0.0
  0
LINE
  5
D95
330
D85
100
AcDbEntity
  8
____1
  6
Continuous
 62
     5
100
AcDbLine
 10
-481.4440104955149
 20
262.5262485400333
 30
0.0
 11
-480.9440104955149
 21
262.5262485400333
 31
0.0
  0
ARC
  5
D96
330
D85
100
AcDbEntity
  8
____1
  6
Continuous
 62
     5
100
AcDbCircle
 10
-482.444010495515
 20
263.1762485400333
 30
0.0
 40
1.0
100
AcDbArc
 50
0.0
 51
90.0
  0
LINE
  5
D97
330
D85
100
AcDbEntity
  8
____1
  6
Continuous
 62
     5
100
AcDbLine
 10
-481.4440104955149
 20
262.5262485400333
 30
0.0
 11
-481.4440104955149
 21
263.1762485400333
 31
0.0
  0
LINE
  5
D98
330
D85
100
AcDbEntity
  8
____1
  6
Continuous
 62
     5
100
AcDbLine
 10
-483.0940104955151
 20
264.1762485400333
 30
0.0
 11
-482.444010495515
 21
264.1762485400333
 31
0.0
  0
ENDBLK
  5
D99
330
D85
100
AcDbEntity
  8
0
100
AcDbBlockEnd
  0
BLOCK
  5
D9A
330
D87
100
AcDbEntity
  8
0
100
AcDbBlockBegin
  2
C38
 70
     0
 10
0.0
 20
0.0
 30
0.0
  3
C38
  1

  0
LINE
  5
D9B
330
D87
100
AcDbEntity
  8
____1
  6
Continuous
 62
     5
100
AcDbLine
 10
-480.4440104955149
 20
262.5262485400333
 30
0.0
 11
-480.9440104955149
 21
262.5262485400333
 31
0.0
  0
LINE
  5
D9C
330
D87
100
AcDbEntity
  8
____1
  6
Continuous
 62
     5
100
AcDbLine
 10
-478.7940104955151
 20
264.1762485400333
 30
0.0
 11
-478.7940104955151
 21
264.6762485400333
 31
0.0
  0
ARC
  5
D9D
330
D87
100
AcDbEntity
  8
____1
  6
Continuous
 62
     5
100
AcDbCircle
 10
-479.444010495515
 20
263.1762485400333
 30
0.0
 40
1.0
100
AcDbArc
 50
90.0
 51
180.0
  0
LINE
  5
D9E
330
D87
100
AcDbEntity
  8
____1
  6
Continuous
 62
     5
100
AcDbLine
 10
-478.7940104955151
 20
264.1762485400333
 30
0.0
 11
-479.444010495515
 21
264.1762485400333
 31
0.0
  0
LINE
  5
D9F
330
D87
100
AcDbEntity
  8
____1
  6
Continuous
 62
     5
100
AcDbLine
 10
-480.4440104955149
 20
262.5262485400333
 30
0.0
 11
-480.4440104955149
 21
263.1762485400333
 31
0.0
  0
ENDBLK
  5
DA0
330
D87
100
AcDbEntity
  8
0
100
AcDbBlockEnd
  0
BLOCK
  5
DA1
330
D89
100
AcDbEntity
  8
0
100
AcDbBlockBegin
  2
C39
 70
     0
 10
0.0
 20
0.0
 30
0.0
  3
C39
  1

  0
LINE
  5
DA2
330
D89
100
AcDbEntity
  8
____1
  6
Continuous
 62
     5
100
AcDbLine
 10
-478.7940104955151
 20
265.1762485400332
 30
0.0
 11
-478.7940104955151
 21
264.6762485400333
 31
0.0
  0
LINE
  5
DA3
330
D89
100
AcDbEntity
  8
____1
  6
Continuous
 62
     5
100
AcDbLine
 10
-480.4440104955149
 20
266.8262485400333
 30
0.0
 11
-480.9440104955149
 21
266.8262485400333
 31
0.0
  0
ARC
  5
DA4
330
D89
100
AcDbEntity
  8
____1
  6
Continuous
 62
     5
100
AcDbCircle
 10
-479.444010495515
 20
266.1762485400333
 30
0.0
 40
1.0
100
AcDbArc
 50
180.0
 51
270.0
  0
LINE
  5
DA5
330
D89
100
AcDbEntity
  8
____1
  6
Continuous
 62
     5
100
AcDbLine
 10
-480.4440104955149
 20
266.8262485400333
 30
0.0
 11
-480.4440104955149
 21
266.1762485400333
 31
0.0
  0
LINE
  5
DA6
330
D89
100
AcDbEntity
  8
____1
  6
Continuous
 62
     5
100
AcDbLine
 10
-478.7940104955151
 20
265.1762485400332
 30
0.0
 11
-479.444010495515
 21
265.1762485400332
 31
0.0
  0
ENDBLK
  5
DA7
330
D89
100
AcDbEntity
  8
0
100
AcDbBlockEnd
  0
BLOCK
  5
DA9
330
DA8
100
AcDbEntity
  8
0
100
AcDbBlockBegin
  2
C40
 70
     0
 10
0.0
 20
0.0
 30
0.0
  3
C40
  1

  0
CIRCLE
  5
DAA
330
DA8
100
AcDbEntity
  8
____1
  6
Continuous
 62
     7
100
AcDbCircle
 10
-77.91666666666644
 20
-44.49999999999989
 30
0.0
 40
20.0
  0
TEXT
  5
DAB
330
DA8
100
AcDbEntity
  8
____1
  6
DASHED2
 62
     7
100
AcDbText
 10
-53.95833317438739
 20
-67.49652755260456
 30
0.0
 40
21.16666603088379
  1
1
  7
STYLE1
100
AcDbText
  0
LINE
  5
DAC
330
DA8
100
AcDbEntity
  8
寸法線_1
  6
Continuous
 62
     7
100
AcDbLine
 10
-81.99999999999979
 20
-59.99999999999989
 30
0.0
 11
-68.66666666666644
 21
-59.99999999999989
 31
0.0
  0
LINE
  5
DAD
330
DA8
100
AcDbEntity
  8
寸法線_1
  6
Continuous
 62
     7
100
AcDbLine
 10
-251.8440104955153
 20
-199.9170759391165
 30
0.0
 11
-81.99999999999979
 21
-59.99999999999989
 31
0.0
  0
SOLID
  5
DAE
330
DA8
100
AcDbEntity
  8
寸法線_1
 62
     7
100
AcDbTrace
 10
-251.8440104955153
 20
-199.9170759391165
 30
0.0
 11
-247.0259059915506
 21
-197.6245946012028
 31
0.0
 12
-251.8440104955153
 22
-199.9170759391165
 32
0.0
 13
-248.8475510817603
 23
-197.4486000822425
 33
0.0
  0
SOLID
  5
DAF
330
DA8
100
AcDbEntity
  8
寸法線_1
 62
     7
100
AcDbTrace
 10
-248.8475510817603
 20
-197.4486000822425
 30
0.0
 11
-248.6715565628
 21
-195.6269549920328
 31
0.0
 12
-251.8440104955153
 22
-199.9170759391165
 32
0.0
 13
-251.8440104955153
 23
-199.9170759391165
 33
0.0
  0
ENDBLK
  5
DB0
330
DA8
100
AcDbEntity
  8
0
100
AcDbBlockEnd
  0
BLOCK
  5
DB2
330
DB1
100
AcDbEntity
  8
0
100
AcDbBlockBegin
  2
C41
 70
     0
 10
0.0
 20
0.0
 30
0.0
  3
C41
  1

  0
LINE
  5
DB3
330
DB1
100
AcDbEntity
  8
____1
  6
DASHED2
 62
     7
100
AcDbLine
 10
367.4667970098271
 20
259.97625
 30
0.0
 11
367.1783525907823
 21
259.97625
 31
0.0
  0
LINE
  5
DB4
330
DB1
100
AcDbEntity
  8
____1
  6
DASHED2
 62
     7
100
AcDbLine
 10
367.4667970098271
 20
269.37625
 30
0.0
 11
367.4667970098271
 21
259.97625
 31
0.0
  0
ENDBLK
  5
DB5
330
DB1
100
AcDbEntity
  8
0
100
AcDbBlockEnd
  0
ENDSEC
  0
SECTION
  2
ENTITIES
  0
LINE
  5
36
330
786
100
AcDbEntity
  8
___G
  6
Continuous
 62
     7
100
AcDbLine
 10
477.3841666666667
 20
-504.1445833333333
 30
0.0
 11
477.3841666666667
 21
-479.1445833333333
 31
0.0
  0
LINE
  5
37
330
786
100
AcDbEntity
  8
___G
  6
Continuous
 62
     7
100
AcDbLine
 10
432.3841666666669
 20
-504.1445833333333
 30
0.0
 11
432.3841666666669
 21
-479.1445833333333
 31
0.0
  0
LINE
  5
38
330
786
100
AcDbEntity
  8
___G
  6
Continuous
 62
     7
100
AcDbLine
 10
1027.384166666666
 20
-404.1445833333332
 30
0.0
 11
432.3841666666669
 21
-404.1445833333332
 31
0.0
  0
LINE
  5
39
330
786
100
AcDbEntity
  8
___G
  6
Continuous
 62
     7
100
AcDbLine
 10
477.3841666666667
 20
-429.1445833333333
 30
0.0
 11
477.3841666666667
 21
-404.1445833333332
 31
0.0
  0
LINE
  5
3A
330
786
100
AcDbEntity
  8
___G
  6
Continuous
 62
     7
100
AcDbLine
 10
432.3841666666669
 20
-429.1445833333333
 30
0.0
 11
432.3841666666669
 21
-404.1445833333332
 31
0.0
  0
LINE
  5
3B
330
786
100
AcDbEntity
  8
___G
  6
Continuous
 62
     7
100
AcDbLine
 10
1027.384166666666
 20
-454.1445833333333
 30
0.0
 11
432.3841666666669
 21
-454.1445833333333
 31
0.0
  0
LINE
  5
3C
330
786
100
AcDbEntity
  8
___G
  6
Continuous
 62
     7
100
AcDbLine
 10
477.3841666666667
 20
-479.1445833333333
 30
0.0
 11
477.3841666666667
 21
-454.1445833333333
 31
0.0
  0
LINE
  5
3D
330
786
100
AcDbEntity
  8
___G
  6
Continuous
 62
     7
100
AcDbLine
 10
432.3841666666669
 20
-479.1445833333333
 30
0.0
 11
432.3841666666669
 21
-454.1445833333333
 31
0.0
  0
LINE
  5
3E
330
786
100
AcDbEntity
  8
___G
  6
Continuous
 62
     7
100
AcDbLine
 10
1027.384166666666
 20
-429.1445833333333
 30
0.0
 11
432.3841666666669
 21
-429.1445833333333
 31
0.0
  0
LINE
  5
3F
330
786
100
AcDbEntity
  8
___G
  6
Continuous
 62
     7
100
AcDbLine
 10
477.3841666666667
 20
-454.1445833333333
 30
0.0
 11
477.3841666666667
 21
-429.1445833333333
 31
0.0
  0
LINE
  5
40
330
786
100
AcDbEntity
  8
___G
  6
Continuous
 62
     7
100
AcDbLine
 10
432.3841666666669
 20
-454.1445833333333
 30
0.0
 11
432.3841666666669
 21
-429.1445833333333
 31
0.0
  0
POLYLINE
  5
41
330
786
100
AcDbEntity
  8
___G
  6
Continuous
 62
     7
100
AcDb3dPolyline
 66
     1
 10
0.0
 20
0.0
 30
0.0
 70
     8
  0
VERTEX
  5
42
330
41
100
AcDbEntity
  8
___G
 62
     7
100
AcDbVertex
100
AcDb3dPolylineVertex
 10
553.9904294111295
 20
-686.9823211737077
 30
0.0
 70
    32
  0
VERTEX
  5
43
330
41
100
AcDbEntity
  8
___G
 62
     7
100
AcDbVertex
100
AcDb3dPolylineVertex
 10
557.5799784430865
 20
-690.2640035260641
 30
0.0
 70
    32
  0
VERTEX
  5
44
330
41
100
AcDbEntity
  8
___G
 62
     7
100
AcDbVertex
100
AcDb3dPolylineVertex
 10
561.2282180910296
 20
-693.4371638222721
 30
0.0
 70
    32
  0
VERTEX
  5
45
330
41
100
AcDbEntity
  8
___G
 62
     7
100
AcDbVertex
100
AcDb3dPolylineVertex
 10
563.0926877134917
 20
-694.9491350567736
 30
0.0
 70
    32
  0
VERTEX
  5
46
330
41
100
AcDbEntity
  8
___G
 62
     7
100
AcDbVertex
100
AcDb3dPolylineVertex
 10
564.9938389709452
 20
-696.3932800061829
 30
0.0
 70
    32
  0
VERTEX
  5
47
330
41
100
AcDbEntity
  8
___G
 62
     7
100
AcDbVertex
100
AcDb3dPolylineVertex
 10
566.939008190388
 20
-697.7560334134805
 30
0.0
 70
    32
  0
VERTEX
  5
48
330
41
100
AcDbEntity
  8
___G
 62
     7
100
AcDbVertex
100
AcDb3dPolylineVertex
 10
568.9355316988187
 20
-699.0238300216481
 30
0.0
 70
    32
  0
VERTEX
  5
49
330
41
100
AcDbEntity
  8
___G
 62
     7
100
AcDbVertex
100
AcDb3dPolylineVertex
 10
568.9355317090196
 20
-699.0238300277743
 30
0.0
 70
    32
  0
SEQEND
  5
4A
330
41
100
AcDbEntity
  8
___G
 62
     7
  0
POLYLINE
  5
4B
330
786
100
AcDbEntity
  8
___G
  6
Continuous
 62
     7
100
AcDb3dPolyline
 66
     1
 10
0.0
 20
0.0
 30
0.0
 70
     8
  0
VERTEX
  5
4C
330
4B
100
AcDbEntity
  8
___G
 62
     7
100
AcDbVertex
100
AcDb3dPolylineVertex
 10
581.2843633816312
 20
-704.4428818921118
 30
0.0
 70
    32
  0
VERTEX
  5
4D
330
4B
100
AcDbEntity
  8
___G
 62
     7
100
AcDbVertex
100
AcDb3dPolylineVertex
 10
585.6091985883622
 20
-705.7104801518942
 30
0.0
 70
    32
  0
VERTEX
  5
4E
330
4B
100
AcDbEntity
  8
___G
 62
     7
100
AcDbVertex
100
AcDb3dPolylineVertex
 10
590.0211891956447
 20
-706.816923461888
 30
0.0
 70
    32
  0
VERTEX
  5
4F
330
4B
100
AcDbEntity
  8
___G
 62
     7
100
AcDbVertex
100
AcDb3dPolylineVertex
 10
594.4912834032952
 20
-707.8159301386892
 30
0.0
 70
    32
  0
VERTEX
  5
50
330
4B
100
AcDbEntity
  8
___G
 62
     7
100
AcDbVertex
100
AcDb3dPolylineVertex
 10
598.9904294111295
 20
-708.7612184988942
 30
0.0
 70
    32
  0
SEQEND
  5
51
330
4B
100
AcDbEntity
  8
___G
 62
     7
  0
POLYLINE
  5
52
330
786
100
AcDbEntity
  8
___G
  6
Continuous
 62
     7
100
AcDb3dPolyline
 66
     1
 10
0.0
 20
0.0
 30
0.0
 70
     8
  0
VERTEX
  5
53
330
52
100
AcDbEntity
  8
___G
 62
     7
100
AcDbVertex
100
AcDb3dPolylineVertex
 10
571.1620022863827
 20
-688.2001969610468
 30
0.0
 70
    32
  0
VERTEX
  5
54
330
52
100
AcDbEntity
  8
___G
 62
     7
100
AcDbVertex
100
AcDb3dPolylineVertex
 10
573.2718485089738
 20
-690.5130192599663
 30
0.0
 70
    32
  0
VERTEX
  5
55
330
52
100
AcDbEntity
  8
___G
 62
     7
100
AcDbVertex
100
AcDb3dPolylineVertex
 10
574.3540585285237
 20
-691.6255001807785
 30
0.0
 70
    32
  0
VERTEX
  5
56
330
52
100
AcDbEntity
  8
___G
 62
     7
100
AcDbVertex
100
AcDb3dPolylineVertex
 10
575.4690128379791
 20
-692.6852648272137
 30
0.0
 70
    32
  0
SEQEND
  5
57
330
52
100
AcDbEntity
  8
___G
 62
     7
  0
POLYLINE
  5
58
330
786
100
AcDbEntity
  8
___G
  6
Continuous
 62
     7
100
AcDb3dPolyline
 66
     1
 10
0.0
 20
0.0
 30
0.0
 70
     8
  0
VERTEX
  5
59
330
58
100
AcDbEntity
  8
___G
 62
     7
100
AcDbVertex
100
AcDb3dPolylineVertex
 10
587.4135158726069
 20
-698.8787652647093
 30
0.0
 70
    32
  0
VERTEX
  5
5A
330
58
100
AcDbEntity
  8
___G
 62
     7
100
AcDbVertex
100
AcDb3dPolylineVertex
 10
590.2289327771812
 20
-699.6012601644799
 30
0.0
 70
    32
  0
VERTEX
  5
5B
330
58
100
AcDbEntity
  8
___G
 62
     7
100
AcDbVertex
100
AcDb3dPolylineVertex
 10
593.1119023789465
 20
-700.2149994146293
 30
0.0
 70
    32
  0
VERTEX
  5
5C
330
58
100
AcDbEntity
  8
___G
 62
     7
100
AcDbVertex
100
AcDb3dPolylineVertex
 10
596.0399071121726
 20
-700.7562348983652
 30
0.0
 70
    32
  0
VERTEX
  5
5D
330
58
100
AcDbEntity
  8
___G
 62
     7
100
AcDbVertex
100
AcDb3dPolylineVertex
 10
598.9904294111295
 20
-701.2612184988942
 30
0.0
 70
    32
  0
SEQEND
  5
5E
330
58
100
AcDbEntity
  8
___G
 62
     7
  0
CIRCLE
  5
5F
330
786
100
AcDbEntity
  8
___G
  6
Continuous
 62
     7
100
AcDbCircle
 10
594.3841666666667
 20
-581.6445833333334
 30
0.0
 40
6.0
  0
LINE
  5
60
330
786
100
AcDbEntity
  8
___G
  6
CENTER2
 62
     7
100
AcDbLine
 10
576.3841666666666
 20
-581.6445833333334
 30
0.0
 11
653.3841666666667
 21
-581.6445833333334
 31
0.0
  0
LINE
  5
61
330
786
100
AcDbEntity
  8
___G
  6
Continuous
 62
     7
100
AcDbLine
 10
573.9904294111295
 20
-685.3717698363009
 30
0.0
 11
571.1620022863827
 21
-688.2001969610468
 31
0.0
  0
LINE
  5
62
330
786
100
AcDbEntity
  8
___G
  6
Continuous
 62
     7
100
AcDbLine
 10
645.8137542251145
 20
-569.6445833333332
 30
0.0
 11
645.8137542251145
 21
-593.6445833333334
 31
0.0
  0
LINE
  5
63
330
786
100
AcDbEntity
  8
___G
  6
Continuous
 62
     7
100
AcDbLine
 10
621.8137542251144
 20
-575.6445833333335
 30
0.0
 11
621.8137542251144
 21
-587.6445833333336
 31
0.0
  0
LINE
  5
64
330
786
100
AcDbEntity
  8
___G
  6
Continuous
 62
     7
100
AcDbLine
 10
621.8137542251144
 20
-587.6445833333336
 30
0.0
 11
645.8137542251145
 21
-593.6445833333334
 31
0.0
  0
LINE
  5
65
330
786
100
AcDbEntity
  8
___G
  6
Continuous
 62
     7
100
AcDbLine
 10
621.8137542251144
 20
-575.6445833333335
 30
0.0
 11
645.8137542251145
 21
-569.6445833333332
 31
0.0
  0
TEXT
  5
67
330
786
100
AcDbEntity
  8
___G
  6
Continuous
 62
     7
100
AcDbText
 10
450.4744445768992
 20
-497.8911343034106
 30
0.0
 40
17.63888835906982
  1
1
  7
STYLE1
100
AcDbText
  0
TEXT
  5
68
330
786
100
AcDbEntity
  8
___G
  6
Continuous
 62
     7
100
AcDbText
 10
450.4744445768992
 20
-472.8911343034106
 30
0.0
 40
17.63888835906982
  1
2
  7
STYLE1
100
AcDbText
  0
TEXT
  5
69
330
786
100
AcDbEntity
  8
___G
  6
Continuous
 62
     7
100
AcDbText
 10
508.1480574099225
 20
-447.8911343034106
 30
0.0
 40
17.63888835906982
  1
460吊り金具 Ｃ
  7
STYLE1
100
AcDbText
  0
TEXT
  5
6A
330
786
100
AcDbEntity
  8
___G
  6
Continuous
 62
     7
100
AcDbText
 10
521.3772248713175
 20
-497.8911343034106
 30
0.0
 40
17.63888835906982
  1
吊り金具 Ａ
  7
STYLE1
100
AcDbText
  0
TEXT
  5
6B
330
786
100
AcDbEntity
  8
___G
  6
Continuous
 62
     7
100
AcDbText
 10
508.1480574099225
 20
-472.8911343034106
 30
0.0
 40
17.63888835906982
  1
460吊り金具 Ｂ
  7
STYLE1
100
AcDbText
  0
TEXT
  5
6C
330
786
100
AcDbEntity
  8
___G
  6
Continuous
 62
     7
100
AcDbText
 10
534.6063899485272
 20
-422.8911343034106
 30
0.0
 40
17.63888835906982
  1
組立ねじ
  7
STYLE1
100
AcDbText
  0
TEXT
  5
6D
330
786
100
AcDbEntity
  8
___G
  6
Continuous
 62
     7
100
AcDbText
 10
450.4744445768992
 20
-422.8911343034106
 30
0.0
 40
17.63888835906982
  1
4
  7
STYLE1
100
AcDbText
  0
TEXT
  5
6E
330
786
100
AcDbEntity
  8
___G
  6
Continuous
 62
     7
100
AcDbText
 10
437.2452783075971
 20
-522.8911343034106
 30
0.0
 40
17.63888835906982
  1
品番
  7
STYLE1
100
AcDbText
  0
LINE
  5
6F
330
786
100
AcDbEntity
  8
___G
  6
Continuous
 62
     7
100
AcDbLine
 10
477.3841666666667
 20
-529.1445833333332
 30
0.0
 11
477.3841666666667
 21
-504.1445833333333
 31
0.0
  0
LINE
  5
70
330
786
100
AcDbEntity
  8
___G
  6
Continuous
 62
     7
100
AcDbLine
 10
432.3841666666669
 20
-529.1445833333332
 30
0.0
 11
432.3841666666669
 21
-504.1445833333333
 31
0.0
  0
LINE
  5
71
330
786
100
AcDbEntity
  8
___G
  6
Continuous
 62
     7
100
AcDbLine
 10
1027.384166666668
 20
-504.1445833333333
 30
0.0
 11
432.3841666666669
 21
-504.1445833333333
 31
0.0
  0
LINE
  5
72
330
786
100
AcDbEntity
  8
___G
  6
Continuous
 62
     7
100
AcDbLine
 10
432.3841666666669
 20
-529.1445833333332
 30
0.0
 11
1027.384166666666
 21
-529.1445833333332
 31
0.0
  0
TEXT
  5
73
330
786
100
AcDbEntity
  8
___G
  6
Continuous
 62
     7
100
AcDbText
 10
525.7869433848066
 20
-522.8911343034106
 30
0.0
 40
17.63888835906982
  1
品　　　名
  7
STYLE1
100
AcDbText
  0
LINE
  5
74
330
786
100
AcDbEntity
  8
___G
  6
Continuous
 62
     7
100
AcDbLine
 10
1027.384166666666
 20
-479.1445833333333
 30
0.0
 11
432.3841666666669
 21
-479.1445833333333
 31
0.0
  0
CIRCLE
  5
75
330
786
100
AcDbEntity
  8
___G
  6
Continuous
 62
     7
100
AcDbCircle
 10
594.3841666666667
 20
-581.6445833333334
 30
0.0
 40
12.0
  0
TEXT
  5
76
330
786
100
AcDbEntity
  8
___G
  6
Continuous
 62
     7
100
AcDbText
 10
454.6063899485272
 20
-574.2593182518996
 30
0.0
 40
17.63888835906982
  1
尺　　度
  7
STYLE1
100
AcDbText
  0
LINE
  5
77
330
786
100
AcDbEntity
  8
___G
  6
Continuous
 62
     7
100
AcDbLine
 10
439.8841666666667
 20
-581.6445833333334
 30
0.0
 11
539.8841666666668
 21
-581.6445833333334
 31
0.0
  0
LINE
  5
78
330
786
100
AcDbEntity
  8
___G
  6
Continuous
 62
     7
100
AcDbLine
 10
655.0778426525468
 20
-682.2612184988943
 30
0.0
 11
655.0778426525468
 21
-691.2612184988942
 31
0.0
  0
LINE
  5
79
330
786
100
AcDbEntity
  8
___G
  6
CENTER2
 62
     7
100
AcDbLine
 10
594.3841666666667
 20
-563.6445833333335
 30
0.0
 11
594.3841666666667
 21
-599.6445833333336
 31
0.0
  0
LINE
  5
7A
330
786
100
AcDbEntity
  8
___G
  6
CENTER2
 62
     7
100
AcDbLine
 10
594.3841666666667
 20
-563.6445833333335
 30
0.0
 11
594.3841666666667
 21
-599.6445833333336
 31
0.0
  0
LINE
  5
7B
330
786
100
AcDbEntity
  8
___G
  6
Continuous
 62
     7
100
AcDbLine
 10
552.3841666666668
 20
-554.1445833333332
 30
0.0
 11
552.3841666666668
 21
-609.1445833333335
 31
0.0
  0
LINE
  5
7C
330
786
100
AcDbEntity
  8
___G
  6
Continuous
 62
     7
100
AcDbLine
 10
302.3841666666669
 20
-609.1445833333335
 30
0.0
 11
1027.384166666666
 21
-609.1445833333335
 31
0.0
  0
LINE
  5
7D
330
786
100
AcDbEntity
  8
___G
  6
Continuous
 62
     7
100
AcDbLine
 10
427.3841666666667
 20
-554.1445833333332
 30
0.0
 11
427.3841666666667
 21
-609.1445833333335
 31
0.0
  0
LINE
  5
7E
330
786
100
AcDbEntity
  8
___G
  6
Continuous
 62
     7
100
AcDbLine
 10
314.8841666666669
 20
-581.6445833333334
 30
0.0
 11
414.8841666666667
 21
-581.6445833333334
 31
0.0
  0
TEXT
  5
7F
330
786
100
AcDbEntity
  8
___G
  6
Continuous
 62
     7
100
AcDbText
 10
329.6063899485272
 20
-574.2593182518996
 30
0.0
 40
17.63888835906982
  1
日　　付
  7
STYLE1
100
AcDbText
  0
TEXT
  5
80
330
786
100
AcDbEntity
  8
___G
  6
Continuous
 62
     7
100
AcDbText
 10
450.4744445768992
 20
-447.8911343034106
 30
0.0
 40
17.63888835906982
  1
3
  7
STYLE1
100
AcDbText
  0
LINE
  5
81
330
786
100
AcDbEntity
  8
___G
  6
Continuous
 62
     7
100
AcDbLine
 10
662.3841666666667
 20
-454.1445833333333
 30
0.0
 11
662.3841666666667
 21
-429.1445833333333
 31
0.0
  0
LINE
  5
82
330
786
100
AcDbEntity
  8
___G
  6
Continuous
 62
     7
100
AcDbLine
 10
872.3841666666714
 20
-454.1445833333333
 30
0.0
 11
872.3841666666714
 21
-429.1445833333333
 31
0.0
  0
LINE
  5
83
330
786
100
AcDbEntity
  8
___G
  6
Continuous
 62
     7
100
AcDbLine
 10
827.3841666666667
 20
-454.1445833333333
 30
0.0
 11
827.3841666666667
 21
-429.1445833333333
 31
0.0
  0
LINE
  5
84
330
786
100
AcDbEntity
  8
___G
  6
Continuous
 62
     7
100
AcDbLine
 10
662.3841666666667
 20
-479.1445833333333
 30
0.0
 11
662.3841666666667
 21
-454.1445833333333
 31
0.0
  0
LINE
  5
85
330
786
100
AcDbEntity
  8
___G
  6
Continuous
 62
     7
100
AcDbLine
 10
872.3841666666714
 20
-479.1445833333333
 30
0.0
 11
872.3841666666714
 21
-454.1445833333333
 31
0.0
  0
LINE
  5
86
330
786
100
AcDbEntity
  8
___G
  6
Continuous
 62
     7
100
AcDbLine
 10
827.3841666666667
 20
-479.1445833333333
 30
0.0
 11
827.3841666666667
 21
-454.1445833333333
 31
0.0
  0
LINE
  5
87
330
786
100
AcDbEntity
  8
___G
  6
Continuous
 62
     7
100
AcDbLine
 10
662.3841666666667
 20
-429.1445833333333
 30
0.0
 11
662.3841666666667
 21
-404.1445833333332
 31
0.0
  0
LINE
  5
88
330
786
100
AcDbEntity
  8
___G
  6
Continuous
 62
     7
100
AcDbLine
 10
872.3841666666714
 20
-429.1445833333333
 30
0.0
 11
872.3841666666714
 21
-404.1445833333332
 31
0.0
  0
LINE
  5
89
330
786
100
AcDbEntity
  8
___G
  6
Continuous
 62
     7
100
AcDbLine
 10
827.3841666666667
 20
-429.1445833333333
 30
0.0
 11
827.3841666666667
 21
-404.1445833333332
 31
0.0
  0
LINE
  5
8A
330
786
100
AcDbEntity
  8
___G
  6
Continuous
 62
     7
100
AcDbLine
 10
662.3841666666667
 20
-504.1445833333333
 30
0.0
 11
662.3841666666667
 21
-479.1445833333333
 31
0.0
  0
LINE
  5
8B
330
786
100
AcDbEntity
  8
___G
  6
Continuous
 62
     7
100
AcDbLine
 10
872.3841666666714
 20
-504.1445833333333
 30
0.0
 11
872.3841666666714
 21
-479.1445833333333
 31
0.0
  0
LINE
  5
8C
330
786
100
AcDbEntity
  8
___G
  6
Continuous
 62
     7
100
AcDbLine
 10
827.3841666666667
 20
-504.1445833333333
 30
0.0
 11
827.3841666666667
 21
-479.1445833333333
 31
0.0
  0
LINE
  5
8D
330
786
100
AcDbEntity
  8
___G
  6
Continuous
 62
     7
100
AcDbLine
 10
621.8137542251144
 20
-575.6445833333335
 30
0.0
 11
621.8137542251144
 21
-587.6445833333336
 31
0.0
  0
LINE
  5
8E
330
786
100
AcDbEntity
  8
___G
  6
Continuous
 62
     7
100
AcDbLine
 10
1027.384166666666
 20
-554.1445833333332
 30
0.0
 11
302.3841666666669
 21
-554.1445833333332
 31
0.0
  0
LINE
  5
8F
330
786
100
AcDbEntity
  8
___G
  6
Continuous
 62
     7
100
AcDbLine
 10
520.6873991080994
 20
-691.2612184988942
 30
0.0
 11
520.6873991080994
 21
-693.7612184988942
 31
0.0
  0
LINE
  5
90
330
786
100
AcDbEntity
  8
___G
  6
Continuous
 62
     7
100
AcDbLine
 10
645.0778426525467
 20
-711.2612184988941
 30
0.0
 11
631.0778426525468
 21
-711.2612184988941
 31
0.0
  0
LINE
  5
91
330
786
100
AcDbEntity
  8
___G
  6
Continuous
 62
     7
100
AcDbLine
 10
576.6719918695618
 20
-691.3565730244438
 30
0.0
 11
575.4690128379783
 21
-692.6852648272137
 31
0.0
  0
LINE
  5
92
330
786
100
AcDbEntity
  8
___G
  6
Continuous
 62
     7
100
AcDbLine
 10
498.1873991080995
 20
-698.7612184988941
 30
0.0
 11
510.6873991080995
 21
-698.7612184988941
 31
0.0
  0
LINE
  5
93
330
786
100
AcDbEntity
  8
___G
  6
Continuous
 62
     7
100
AcDbLine
 10
610.0778426525468
 20
-695.2612184988942
 30
0.0
 11
610.0778426525468
 21
-704.2612184988942
 31
0.0
  0
ARC
  5
94
330
786
100
AcDbEntity
  8
___G
  6
Continuous
 62
     7
100
AcDbCircle
 10
513.1873991080993
 20
-693.7612184988942
 30
0.0
 40
7.5
100
AcDbArc
 50
270.0
 51
0.0
  0
LINE
  5
95
330
786
100
AcDbEntity
  8
___G
  6
Continuous
 62
     7
100
AcDbLine
 10
610.0778426525468
 20
-704.2612184988942
 30
0.0
 11
629.0245093192136
 21
-704.2612184988942
 31
0.0
  0
LINE
  5
96
330
786
100
AcDbEntity
  8
___G
  6
Continuous
 62
     7
100
AcDbLine
 10
498.1873991080995
 20
-708.7612184988942
 30
0.0
 11
518.1873991080995
 21
-708.7612184988942
 31
0.0
  0
ARC
  5
97
330
786
100
AcDbEntity
  8
___G
  6
Continuous
 62
     7
100
AcDbCircle
 10
566.4904294111295
 20
-681.2612184988942
 30
0.0
 40
27.5
100
AcDbArc
 50
322.4876119797
 51
0.0
  0
LINE
  5
98
330
786
100
AcDbEntity
  8
___G
  6
Continuous
 62
     7
100
AcDbLine
 10
492.4318800503336
 20
-691.2612184988942
 30
0.0
 11
497.4318800503336
 21
-691.2612184988942
 31
0.0
  0
CIRCLE
  5
99
330
786
100
AcDbEntity
  8
___G
  6
Continuous
 62
     7
100
AcDbCircle
 10
594.3841666666667
 20
-581.6445833333334
 30
0.0
 40
12.0
  0
CIRCLE
  5
9A
330
786
100
AcDbEntity
  8
___G
  6
Continuous
 62
     7
100
AcDbCircle
 10
594.3841666666667
 20
-581.6445833333334
 30
0.0
 40
6.0
  0
CIRCLE
  5
9B
330
786
100
AcDbEntity
  8
___G
  6
Continuous
 62
     7
100
AcDbCircle
 10
594.3841666666667
 20
-581.6445833333334
 30
0.0
 40
12.0
  0
LINE
  5
9C
330
786
100
AcDbEntity
  8
___G
  6
Continuous
 62
     7
100
AcDbLine
 10
621.8137542251144
 20
-575.6445833333335
 30
0.0
 11
645.8137542251145
 21
-569.6445833333332
 31
0.0
  0
LINE
  5
9D
330
786
100
AcDbEntity
  8
___G
  6
Continuous
 62
     7
100
AcDbLine
 10
621.8137542251144
 20
-587.6445833333336
 30
0.0
 11
645.8137542251145
 21
-593.6445833333334
 31
0.0
  0
LINE
  5
9E
330
786
100
AcDbEntity
  8
___G
  6
Continuous
 62
     7
100
AcDbLine
 10
621.8137542251144
 20
-575.6445833333335
 30
0.0
 11
621.8137542251144
 21
-587.6445833333336
 31
0.0
  0
LINE
  5
9F
330
786
100
AcDbEntity
  8
___G
  6
Continuous
 62
     7
100
AcDbLine
 10
645.8137542251145
 20
-569.6445833333332
 30
0.0
 11
645.8137542251145
 21
-593.6445833333334
 31
0.0
  0
LINE
  5
A0
330
786
100
AcDbEntity
  8
___G
  6
CENTER2
 62
     7
100
AcDbLine
 10
594.3841666666667
 20
-563.6445833333335
 30
0.0
 11
594.3841666666667
 21
-599.6445833333336
 31
0.0
  0
LINE
  5
A1
330
786
100
AcDbEntity
  8
___G
  6
CENTER2
 62
     7
100
AcDbLine
 10
594.3841666666667
 20
-563.6445833333335
 30
0.0
 11
594.3841666666667
 21
-599.6445833333336
 31
0.0
  0
LINE
  5
A2
330
786
100
AcDbEntity
  8
___G
  6
Continuous
 62
     7
100
AcDbLine
 10
645.8137542251145
 20
-569.6445833333332
 30
0.0
 11
645.8137542251145
 21
-593.6445833333334
 31
0.0
  0
LINE
  5
A3
330
786
100
AcDbEntity
  8
___G
  6
Continuous
 62
     7
100
AcDbLine
 10
621.8137542251144
 20
-575.6445833333335
 30
0.0
 11
621.8137542251144
 21
-587.6445833333336
 31
0.0
  0
LINE
  5
A4
330
786
100
AcDbEntity
  8
___G
  6
Continuous
 62
     7
100
AcDbLine
 10
621.8137542251144
 20
-587.6445833333336
 30
0.0
 11
645.8137542251145
 21
-593.6445833333334
 31
0.0
  0
CIRCLE
  5
A5
330
786
100
AcDbEntity
  8
___G
  6
Continuous
 62
     7
100
AcDbCircle
 10
594.3841666666667
 20
-581.6445833333334
 30
0.0
 40
6.0
  0
LINE
  5
A6
330
786
100
AcDbEntity
  8
___G
  6
Continuous
 62
     7
100
AcDbLine
 10
621.8137542251144
 20
-575.6445833333335
 30
0.0
 11
645.8137542251145
 21
-569.6445833333332
 31
0.0
  0
LINE
  5
A7
330
786
100
AcDbEntity
  8
___G
  6
Continuous
 62
     7
100
AcDbLine
 10
621.8137542251144
 20
-575.6445833333335
 30
0.0
 11
645.8137542251145
 21
-569.6445833333332
 31
0.0
  0
LINE
  5
A8
330
786
100
AcDbEntity
  8
___G
  6
Continuous
 62
     7
100
AcDbLine
 10
553.9904294111295
 20
-682.7612184988943
 30
0.0
 11
578.9904294111295
 21
-682.7612184988943
 31
0.0
  0
LINE
  5
A9
330
786
100
AcDbEntity
  8
___G
  6
Continuous
 62
     7
100
AcDbLine
 10
513.1873991080993
 20
-701.2612184988942
 30
0.0
 11
498.1873991080995
 21
-701.2612184988942
 31
0.0
  0
LINE
  5
AA
330
786
100
AcDbEntity
  8
___G
  6
Continuous
 62
     7
100
AcDbLine
 10
631.0778426525468
 20
-711.2612184988941
 30
0.0
 11
629.0245093192136
 21
-704.2612184988942
 31
0.0
  0
TEXT
  5
AB
330
786
100
AcDbEntity
  8
___G
  6
Continuous
 62
     7
100
AcDbText
 10
329.5833507942228
 20
-702.8902064259848
 30
0.0
 40
31.74999952316284
  1
株式会社
  7
STYLE1
100
AcDbText
  0
LINE
  5
AC
330
786
100
AcDbEntity
  8
___G
  6
Continuous
 62
     7
100
AcDbLine
 10
598.9904294111295
 20
-673.7612184988943
 30
0.0
 11
553.9904294111295
 21
-673.7612184988943
 31
0.0
  0
LINE
  5
AD
330
786
100
AcDbEntity
  8
___G
  6
Continuous
 62
     7
100
AcDbLine
 10
636.7326644327676
 20
-682.2612184988943
 30
0.0
 11
636.0006931816473
 21
-679.7175740465585
 31
0.0
  0
LINE
  5
AE
330
786
100
AcDbEntity
  8
___G
  6
Continuous
 62
     7
100
AcDbLine
 10
636.7326644327676
 20
-682.2612184988943
 30
0.0
 11
655.0778426525468
 21
-682.2612184988943
 31
0.0
  0
LINE
  5
AF
330
786
100
AcDbEntity
  8
___G
  6
Continuous
 62
     7
100
AcDbLine
 10
598.9904294111295
 20
-701.2612184988942
 30
0.0
 11
598.9904294111295
 21
-708.7612184988942
 31
0.0
  0
LINE
  5
B0
330
786
100
AcDbEntity
  8
___G
  6
Continuous
 62
     7
100
AcDbLine
 10
655.0778426525468
 20
-695.2612184988942
 30
0.0
 11
655.0778426525468
 21
-704.2612184988942
 31
0.0
  0
LINE
  5
B1
330
786
100
AcDbEntity
  8
___G
  6
Continuous
 62
     7
100
AcDbLine
 10
593.9904294111295
 20
-681.2612184988942
 30
0.0
 11
598.9904294111295
 21
-673.7612184988943
 31
0.0
  0
LINE
  5
B2
330
786
100
AcDbEntity
  8
___G
  6
Continuous
 62
     7
100
AcDbLine
 10
502.3841666666667
 20
-636.6445833333328
 30
0.0
 11
664.8841666666667
 21
-636.6445833333328
 31
0.0
  0
LINE
  5
B3
330
786
100
AcDbEntity
  8
___G
  6
Continuous
 62
     7
100
AcDbLine
 10
314.8841666666669
 20
-636.6445833333328
 30
0.0
 11
477.3841666666667
 21
-636.6445833333328
 31
0.0
  0
LINE
  5
B4
330
786
100
AcDbEntity
  8
___G
  6
Continuous
 62
     7
100
AcDbLine
 10
302.3841666666669
 20
-664.1445833333331
 30
0.0
 11
1027.384166666666
 21
-664.1445833333331
 31
0.0
  0
LINE
  5
B5
330
786
100
AcDbEntity
  8
___G
  6
Continuous
 62
     7
100
AcDbLine
 10
489.8841666666667
 20
-609.1445833333335
 30
0.0
 11
489.8841666666667
 21
-664.1445833333331
 31
0.0
  0
TEXT
  5
B6
330
786
100
AcDbEntity
  8
___G
  6
Continuous
 62
     7
100
AcDbText
 10
489.8841666666667
 20
-629.2593182518992
 30
0.0
 40
17.63888835906982
  1
 照査
  7
STYLE1
100
AcDbText
  0
TEXT
  5
B7
330
786
100
AcDbEntity
  8
___G
  6
Continuous
 62
     7
100
AcDbText
 10
489.8841666666667
 20
-656.7593182519003
 30
0.0
 40
17.63888835906982
  1
 検図
  7
STYLE1
100
AcDbText
  0
TEXT
  5
B8
330
786
100
AcDbEntity
  8
___G
  6
Continuous
 62
     7
100
AcDbText
 10
302.3841666666669
 20
-629.2593182518992
 30
0.0
 40
17.63888835906982
  1
 設計
  7
STYLE1
100
AcDbText
  0
TEXT
  5
B9
330
786
100
AcDbEntity
  8
___G
  6
Continuous
 62
     7
100
AcDbText
 10
302.3841666666669
 20
-656.7593182519003
 30
0.0
 40
17.63888835906982
  1
 製図
  7
STYLE1
100
AcDbText
  0
LINE
  5
BA
330
786
100
AcDbEntity
  8
___G
  6
Continuous
 62
     7
100
AcDbLine
 10
302.3841666666669
 20
-554.1445833333332
 30
0.0
 11
302.3841666666669
 21
-719.1445833333331
 31
0.0
  0
ARC
  5
BB
330
786
100
AcDbEntity
  8
___G
  6
Continuous
 62
     7
100
AcDbCircle
 10
518.1873991080995
 20
-693.7612184988942
 30
0.0
 40
15.0
100
AcDbArc
 50
270.0
 51
0.0
  0
LINE
  5
BC
330
786
100
AcDbEntity
  8
___G
  6
Continuous
 62
     7
100
AcDbLine
 10
553.9904294111295
 20
-673.7612184988943
 30
0.0
 11
553.9904294111295
 21
-682.7612184988943
 31
0.0
  0
LINE
  5
BD
330
786
100
AcDbEntity
  8
___G
  6
Continuous
 62
     7
100
AcDbLine
 10
621.8137542251144
 20
-587.6445833333336
 30
0.0
 11
645.8137542251145
 21
-593.6445833333334
 31
0.0
  0
LINE
  5
BE
330
786
100
AcDbEntity
  8
___G
  6
Continuous
 62
     7
100
AcDbLine
 10
540.6873991080995
 20
-683.7612184988943
 30
0.0
 11
540.6873991080995
 21
-691.2612184988942
 31
0.0
  0
LINE
  5
BF
330
786
100
AcDbEntity
  8
___G
  6
Continuous
 62
     7
100
AcDbLine
 10
645.8137542251145
 20
-569.6445833333332
 30
0.0
 11
645.8137542251145
 21
-593.6445833333334
 31
0.0
  0
LINE
  5
C0
330
786
100
AcDbEntity
  8
___G
  6
Continuous
 62
     7
100
AcDbLine
 10
553.9904294111295
 20
-686.9823211737077
 30
0.0
 11
553.9904294111295
 21
-685.3717698363009
 31
0.0
  0
LINE
  5
C1
330
786
100
AcDbEntity
  8
___G
  6
Continuous
 62
     5
100
AcDbLine
 10
1027.384166666666
 20
-719.1445833333331
 30
0.0
 11
1027.384166666666
 21
680.8554166666664
 31
0.0
  0
LINE
  5
C2
330
786
100
AcDbEntity
  8
___G
  6
Continuous
 62
     5
100
AcDbLine
 10
1027.384166666666
 20
680.8554166666664
 30
0.0
 11
-972.6158333333343
 21
680.8554166666664
 31
0.0
  0
LINE
  5
C3
330
786
100
AcDbEntity
  8
___G
  6
Continuous
 62
     5
100
AcDbLine
 10
-972.6158333333343
 20
-719.1445833333331
 30
0.0
 11
1027.384166666666
 21
-719.1445833333331
 31
0.0
  0
LINE
  5
C4
330
786
100
AcDbEntity
  8
___G
  6
Continuous
 62
     5
100
AcDbLine
 10
-972.6158333333335
 20
-719.1445833333331
 30
0.0
 11
-972.6158333333335
 21
680.8554166666664
 31
0.0
  0
TEXT
  5
C5
330
786
100
AcDbEntity
  8
___G
  6
Continuous
 62
     7
100
AcDbText
 10
613.5716676203412
 20
662.7205209128061
 30
0.0
 40
15.87499976158142
  1
改訂日
  7
STYLE1
100
AcDbText
  0
LINE
  5
C6
330
786
100
AcDbEntity
  8
___G
  6
Continuous
 62
     5
100
AcDbLine
 10
557.3841666666668
 20
605.8554166666664
 30
0.0
 11
1027.384166666666
 21
605.8554166666664
 31
0.0
  0
LINE
  5
C7
330
786
100
AcDbEntity
  8
___G
  6
Continuous
 62
     5
100
AcDbLine
 10
557.3841666666668
 20
630.8554166666664
 30
0.0
 11
1027.384166666666
 21
630.8554166666664
 31
0.0
  0
LINE
  5
C8
330
786
100
AcDbEntity
  8
___G
  6
Continuous
 62
     5
100
AcDbLine
 10
557.3841666666668
 20
655.8554166666664
 30
0.0
 11
1027.384166666666
 21
655.8554166666664
 31
0.0
  0
LINE
  5
C9
330
786
100
AcDbEntity
  8
___G
  6
Continuous
 62
     5
100
AcDbLine
 10
977.3841666666667
 20
605.8554166666664
 30
0.0
 11
977.3841666666667
 21
680.8554166666664
 31
0.0
  0
LINE
  5
CA
330
786
100
AcDbEntity
  8
___G
  6
Continuous
 62
     5
100
AcDbLine
 10
557.3841666666668
 20
605.8554166666664
 30
0.0
 11
557.3841666666668
 21
680.8554166666664
 31
0.0
  0
ARC
  5
CB
330
786
100
AcDbEntity
  8
___G
  6
Continuous
 62
     7
100
AcDbCircle
 10
566.4904294111295
 20
-681.2612184988942
 30
0.0
 40
27.50000000000018
100
AcDbArc
 50
270.0
 51
302.5449588540445
  0
LINE
  5
CC
330
786
100
AcDbEntity
  8
___G
  6
Continuous
 62
     7
100
AcDbLine
 10
533.1873991080994
 20
-691.2612184988942
 30
0.0
 11
540.6873991080995
 21
-691.2612184988942
 31
0.0
  0
ARC
  5
CD
330
786
100
AcDbEntity
  8
___G
  6
Continuous
 62
     7
100
AcDbCircle
 10
559.9904294111295
 20
-682.2612184988943
 30
0.0
 40
19.0000000000005
100
AcDbArc
 50
331.3992813832602
 51
358.4920422457612
  0
LINE
  5
CE
330
786
100
AcDbEntity
  8
___G
  6
Continuous
 62
     7
100
AcDbLine
 10
498.1873991080995
 20
-701.2612184988942
 30
0.0
 11
498.1873991080995
 21
-708.7612184988942
 31
0.0
  0
LINE
  5
CF
330
786
100
AcDbEntity
  8
___G
  6
Continuous
 62
     7
100
AcDbLine
 10
498.1873991080995
 20
-691.2612184988942
 30
0.0
 11
497.4318800503336
 21
-691.2612184988942
 31
0.0
  0
LINE
  5
D0
330
786
100
AcDbEntity
  8
___G
  6
Continuous
 62
     7
100
AcDbLine
 10
553.9904294111295
 20
-701.2612184988942
 30
0.0
 11
553.9904294111295
 21
-708.7612184988942
 31
0.0
  0
LINE
  5
D1
330
786
100
AcDbEntity
  8
___G
  6
Continuous
 62
     7
100
AcDbLine
 10
498.1873991080995
 20
-683.7612184988943
 30
0.0
 11
492.4318800503336
 21
-683.7612184988943
 31
0.0
  0
LINE
  5
D2
330
786
100
AcDbEntity
  8
___G
  6
Continuous
 62
     7
100
AcDbLine
 10
620.0778426525467
 20
-673.7612184988943
 30
0.0
 11
640.0778426525468
 21
-673.7612184988943
 31
0.0
  0
LINE
  5
D3
330
786
100
AcDbEntity
  8
___G
  6
Continuous
 62
     7
100
AcDbLine
 10
553.9904294111295
 20
-701.2612184988942
 30
0.0
 11
559.9904294111295
 21
-701.2612184988942
 31
0.0
  0
LINE
  5
D4
330
786
100
AcDbEntity
  8
___G
  6
Continuous
 62
     7
100
AcDbLine
 10
640.4736063933581
 20
-695.2612184988942
 30
0.0
 11
655.0778426525468
 21
-695.2612184988942
 31
0.0
  0
LINE
  5
D5
330
786
100
AcDbEntity
  8
___G
  6
Continuous
 62
     7
100
AcDbLine
 10
645.0778426525467
 20
-711.2612184988941
 30
0.0
 11
643.0634892891522
 21
-704.2612184988942
 31
0.0
  0
CIRCLE
  5
D6
330
786
100
AcDbEntity
  8
___G
  6
Continuous
 62
     7
100
AcDbCircle
 10
594.3841666666667
 20
-581.6445833333334
 30
0.0
 40
6.0
  0
TEXT
  5
D7
330
786
100
AcDbEntity
  8
___G
  6
DOT
 62
     7
100
AcDbText
 10
928.5716670242946
 20
662.7205209128061
 30
0.0
 40
15.87499976158142
  1
改訂者
  7
STYLE1
100
AcDbText
  0
CIRCLE
  5
D8
330
786
100
AcDbEntity
  8
___G
  6
Continuous
 62
     7
100
AcDbCircle
 10
594.3841666666667
 20
-581.6445833333334
 30
0.0
 40
12.0
  0
LINE
  5
D9
330
786
100
AcDbEntity
  8
___G
  6
Continuous
 62
     5
100
AcDbLine
 10
563.5877397364533
 20
633.0093754216822
 30
0.0
 11
588.3377397364541
 21
633.0093754216822
 31
0.0
  0
LINE
  5
DA
330
786
100
AcDbEntity
  8
___G
  6
Continuous
 62
     5
100
AcDbLine
 10
597.3841666666666
 20
605.8554166666664
 30
0.0
 11
597.3841666666666
 21
680.8554166666664
 31
0.0
  0
LINE
  5
DB
330
786
100
AcDbEntity
  8
___G
  6
Continuous
 62
     5
100
AcDbLine
 10
927.3841666666667
 20
605.8554166666664
 30
0.0
 11
927.3841666666667
 21
680.8554166666664
 31
0.0
  0
LINE
  5
DC
330
786
100
AcDbEntity
  8
___G
  6
Continuous
 62
     5
100
AcDbLine
 10
677.3841666666667
 20
605.8554166666664
 30
0.0
 11
677.3841666666667
 21
680.8554166666664
 31
0.0
  0
TEXT
  5
DD
330
786
100
AcDbEntity
  8
___G
  6
Continuous
 62
     7
100
AcDbText
 10
746.8216657129925
 20
662.7205209128061
 30
0.0
 40
15.87499976158142
  1
改　訂　内　容
  7
STYLE1
100
AcDbText
  0
LINE
  5
DE
330
786
100
AcDbEntity
  8
___G
  6
Continuous
 62
     7
100
AcDbLine
 10
553.9904294111295
 20
-685.3717698363009
 30
0.0
 11
573.9904294111295
 21
-685.3717698363009
 31
0.0
  0
LINE
  5
DF
330
786
100
AcDbEntity
  8
___G
  6
Continuous
 62
     7
100
AcDbLine
 10
553.9904294111295
 20
-708.7612184988942
 30
0.0
 11
566.4904294111295
 21
-708.7612184988942
 31
0.0
  0
LINE
  5
E0
330
786
100
AcDbEntity
  8
___G
  6
Continuous
 62
     7
100
AcDbLine
 10
639.322547328561
 20
-691.2612184988942
 30
0.0
 11
655.0778426525468
 21
-691.2612184988942
 31
0.0
  0
LINE
  5
E1
330
786
100
AcDbEntity
  8
___G
  6
Continuous
 62
     7
100
AcDbLine
 10
520.6873991080994
 20
-673.7612184988943
 30
0.0
 11
520.6873991080994
 21
-683.7612184988943
 31
0.0
  0
LINE
  5
E2
330
786
100
AcDbEntity
  8
___G
  6
Continuous
 62
     7
100
AcDbLine
 10
593.9904294111295
 20
-681.2612184988942
 30
0.0
 11
598.9904294111295
 21
-673.7612184988943
 31
0.0
  0
LINE
  5
E3
330
786
100
AcDbEntity
  8
___G
  6
Continuous
 62
     7
100
AcDbLine
 10
588.304026171568
 20
-698.0068745437622
 30
0.0
 11
587.413515872606
 21
-698.8787652647093
 31
0.0
  0
ARC
  5
E4
330
786
100
AcDbEntity
  8
___G
  6
Continuous
 62
     7
100
AcDbCircle
 10
559.9904294111295
 20
-682.2612184988943
 30
0.0
 40
18.9999999999997
100
AcDbArc
 50
270.0
 51
298.0859048152074
  0
LINE
  5
E5
330
786
100
AcDbEntity
  8
___G
  6
Continuous
 62
     7
100
AcDbLine
 10
640.4736063933581
 20
-695.2612184988942
 30
0.0
 11
639.322547328561
 21
-691.2612184988942
 31
0.0
  0
LINE
  5
E6
330
786
100
AcDbEntity
  8
___G
  6
Continuous
 62
     7
100
AcDbLine
 10
610.0778426525468
 20
-695.2612184988942
 30
0.0
 11
626.3845093192141
 21
-695.2612184988942
 31
0.0
  0
LINE
  5
E7
330
786
100
AcDbEntity
  8
___G
  6
Continuous
 62
     7
100
AcDbLine
 10
622.5711759858797
 20
-682.2612184988943
 30
0.0
 11
620.0778426525467
 21
-673.7612184988943
 31
0.0
  0
LINE
  5
E8
330
786
100
AcDbEntity
  8
___G
  6
Continuous
 62
     7
100
AcDbLine
 10
643.0634892891522
 20
-704.2612184988942
 30
0.0
 11
655.0778426525468
 21
-704.2612184988942
 31
0.0
  0
LINE
  5
E9
330
786
100
AcDbEntity
  8
___G
  6
Continuous
 62
     7
100
AcDbLine
 10
498.1873991080995
 20
-673.7612184988943
 30
0.0
 11
498.1873991080995
 21
-683.7612184988943
 31
0.0
  0
LINE
  5
EA
330
786
100
AcDbEntity
  8
___G
  6
Continuous
 62
     7
100
AcDbLine
 10
510.6873991080995
 20
-681.2612184988942
 30
0.0
 11
518.1873991080995
 21
-673.7612184988943
 31
0.0
  0
LINE
  5
EB
330
786
100
AcDbEntity
  8
___G
  6
Continuous
 62
     7
100
AcDbLine
 10
518.1873991080995
 20
-673.7612184988943
 30
0.0
 11
498.1873991080995
 21
-673.7612184988943
 31
0.0
  0
LINE
  5
EC
330
786
100
AcDbEntity
  8
___G
  6
Continuous
 62
     7
100
AcDbLine
 10
520.6873991080994
 20
-683.7612184988943
 30
0.0
 11
510.6873991080995
 21
-683.7612184988943
 31
0.0
  0
LINE
  5
ED
330
786
100
AcDbEntity
  8
___G
  6
Continuous
 62
     7
100
AcDbLine
 10
610.0778426525468
 20
-682.2612184988943
 30
0.0
 11
610.0778426525468
 21
-691.2612184988942
 31
0.0
  0
LINE
  5
EE
330
786
100
AcDbEntity
  8
___G
  6
Continuous
 62
     7
100
AcDbLine
 10
533.1873991080994
 20
-693.7612184988942
 30
0.0
 11
533.1873991080994
 21
-691.2612184988942
 31
0.0
  0
LINE
  5
EF
330
786
100
AcDbEntity
  8
___G
  6
Continuous
 62
     7
100
AcDbLine
 10
540.6873991080995
 20
-673.7612184988943
 30
0.0
 11
520.6873991080994
 21
-673.7612184988943
 31
0.0
  0
LINE
  5
F0
330
786
100
AcDbEntity
  8
___G
  6
Continuous
 62
     5
100
AcDbLine
 10
575.9627397364532
 20
654.4435041653473
 30
0.0
 11
563.5877397364533
 21
633.0093754216822
 31
0.0
  0
LINE
  5
F1
330
786
100
AcDbEntity
  8
___G
  6
Continuous
 62
     7
100
AcDbLine
 10
492.4318800503336
 20
-683.7612184988943
 30
0.0
 11
492.4318800503336
 21
-691.2612184988942
 31
0.0
  0
LINE
  5
F2
330
786
100
AcDbEntity
  8
___G
  6
Continuous
 62
     7
100
AcDbLine
 10
872.3841666666707
 20
-529.1445833333332
 30
0.0
 11
872.3841666666707
 21
-504.1445833333333
 31
0.0
  0
TEXT
  5
F3
330
786
100
AcDbEntity
  8
___G
  6
Continuous
 62
     7
100
AcDbText
 10
700.7869457689922
 20
-522.8911343034106
 30
0.0
 40
17.63888835906982
  1
材　　　質
  7
STYLE1
100
AcDbText
  0
TEXT
  5
F4
330
786
100
AcDbEntity
  8
___G
  6
DOT
 62
     7
100
AcDbText
 10
905.786945768996
 20
-522.8911343034106
 30
0.0
 40
17.63888835906982
  1
備　　　考
  7
STYLE1
100
AcDbText
  0
TEXT
  5
F5
330
786
100
AcDbEntity
  8
___G
  6
Continuous
 62
     7
100
AcDbText
 10
832.2452783075972
 20
-522.8911343034106
 30
0.0
 40
17.63888835906982
  1
数量
  7
STYLE1
100
AcDbText
  0
DIMENSION
  5
105
330
786
100
AcDbEntity
  8
寸法線_1
  6
Continuous
 62
     7
100
AcDbDimension
  2
*D0
 10
242.9723958333336
 20
282.6762499999997
 30
0.0
 11
242.9723958333336
 21
264.6762499999999
 31
0.0
 71
     5
 42
-1.0
100
AcDbAlignedDimension
 13
242.9723958333336
 23
246.6762500000001
 33
0.0
 14
242.9723958333336
 24
282.6762499999997
 34
0.0
 50
90.0
100
AcDbRotatedDimension
  0
INSERT
  5
36C
330
786
100
AcDbEntity
  8
____1
  6
DASHED2
 62
     7
100
AcDbBlockReference
  2
C1
 10
0.0
 20
0.0
 30
0.0
  0
INSERT
  5
3C7
330
786
100
AcDbEntity
  8
____1
  6
DASHED2
 62
     7
100
AcDbBlockReference
  2
C2
 10
0.0
 20
0.0
 30
0.0
  0
TEXT
  5
3C8
330
786
100
AcDbEntity
  8
___G
  6
DOT
 62
     7
100
AcDbText
 10
582.1758365122478
 20
-656.7593182519003
 30
0.0
 40
17.63888835906982
  1
＊＊＊
  7
STYLE1
100
AcDbText
  0
TEXT
  5
3C9
330
786
100
AcDbEntity
  8
___G
  6
DOT
 62
     7
100
AcDbText
 10
582.1758365122478
 20
-629.2593182518992
 30
0.0
 40
17.63888835906982
  1
＊＊＊
  7
STYLE1
100
AcDbText
  0
TEXT
  5
3CA
330
786
100
AcDbEntity
  8
___G
  6
Continuous
 62
     7
100
AcDbText
 10
472.2452783075971
 20
-601.7951549703885
 30
0.0
 40
17.63888835906982
  1
1：5
  7
STYLE1
100
AcDbText
  0
LINE
  5
3CB
330
786
100
AcDbEntity
  8
___G
  6
Continuous
 62
     5
100
AcDbLine
 10
563.5877397364533
 20
608.2593754216832
 30
0.0
 11
588.3377397364541
 21
608.2593754216832
 31
0.0
  0
TEXT
  5
3CC
330
786
100
AcDbEntity
  8
___G
  6
Continuous
 62
     7
100
AcDbText
 10
680.9258332339924
 20
-627.2111338265736
 30
0.0
 40
17.63888835906982
  1
図面名
  7
STYLE1
100
AcDbText
  0
TEXT
  5
3CD
330
786
100
AcDbEntity
  8
___G
  6
Continuous
 62
     7
100
AcDbText
 10
680.9258332339924
 20
-572.2111338265737
 30
0.0
 40
17.63888835906982
  1
製品名
  7
STYLE1
100
AcDbText
  0
TEXT
  5
3CE
330
786
100
AcDbEntity
  8
___G
  6
Continuous
 62
     7
100
AcDbText
 10
685.3355550257368
 20
-682.2111338265735
 30
0.0
 40
17.63888835906982
  1
図 番
  7
STYLE1
100
AcDbText
  0
LINE
  5
3CF
330
786
100
AcDbEntity
  8
___G
  6
Continuous
 62
     7
100
AcDbLine
 10
677.3841666666667
 20
-554.1445833333332
 30
0.0
 11
677.3841666666667
 21
-719.1445833333331
 31
0.0
  0
LINE
  5
3D0
330
786
100
AcDbEntity
  8
___G
  6
Continuous
 62
     7
100
AcDbLine
 10
553.9904294111295
 20
-708.7612184988942
 30
0.0
 11
553.9904294111295
 21
-701.2612184988942
 31
0.0
  0
LINE
  5
3D1
330
786
100
AcDbEntity
  8
___G
  6
Continuous
 62
     7
100
AcDbLine
 10
636.0006931816473
 20
-679.7175740465585
 30
0.0
 11
640.0778426525468
 21
-673.7612184988943
 31
0.0
  0
LINE
  5
3D2
330
786
100
AcDbEntity
  8
___G
  6
Continuous
 62
     7
100
AcDbLine
 10
610.0778426525468
 20
-682.2612184988943
 30
0.0
 11
622.5711759858797
 21
-682.2612184988943
 31
0.0
  0
LINE
  5
3D3
330
786
100
AcDbEntity
  8
___G
  6
Continuous
 62
     7
100
AcDbLine
 10
533.1873991080994
 20
-683.7612184988943
 30
0.0
 11
533.1873991080994
 21
-681.2612184988942
 31
0.0
  0
LINE
  5
3D4
330
786
100
AcDbEntity
  8
___G
  6
Continuous
 62
     7
100
AcDbLine
 10
540.6873991080995
 20
-683.7612184988943
 30
0.0
 11
533.1873991080994
 21
-683.7612184988943
 31
0.0
  0
LINE
  5
3D5
330
786
100
AcDbEntity
  8
___G
  6
Continuous
 62
     7
100
AcDbLine
 10
610.0778426525468
 20
-691.2612184988942
 30
0.0
 11
625.21117598588
 21
-691.2612184988942
 31
0.0
  0
LINE
  5
3D6
330
786
100
AcDbEntity
  8
___G
  6
Continuous
 62
     7
100
AcDbLine
 10
510.6873991080995
 20
-691.2612184988942
 30
0.0
 11
520.6873991080994
 21
-691.2612184988942
 31
0.0
  0
TEXT
  5
3D7
330
786
100
AcDbEntity
  8
___G
  6
DOT
 62
     7
100
AcDbText
 10
978.5716670242946
 20
662.7205209128061
 30
0.0
 40
15.87499976158142
  1
検認者
  7
STYLE1
100
AcDbText
  0
LINE
  5
3D8
330
786
100
AcDbEntity
  8
___G
  6
Continuous
 62
     5
100
AcDbLine
 10
575.9627397364532
 20
629.6935041653482
 30
0.0
 11
588.3377397364541
 21
608.2593754216832
 31
0.0
  0
TEXT
  5
3DA
330
786
100
AcDbEntity
  8
___G
  6
Continuous
 62
     7
100
AcDbText
 10
845.4744445768996
 20
-472.8911343034106
 30
0.0
 40
17.63888835906982
  1
1
  7
STYLE1
100
AcDbText
  0
TEXT
  5
3DB
330
786
100
AcDbEntity
  8
___G
  6
Continuous
 62
     7
100
AcDbText
 10
845.4744445768996
 20
-447.8911343034106
 30
0.0
 40
17.63888835906982
  1
1
  7
STYLE1
100
AcDbText
  0
TEXT
  5
3DC
330
786
100
AcDbEntity
  8
___G
  6
Continuous
 62
     7
100
AcDbText
 10
845.4744445768996
 20
-497.8911343034106
 30
0.0
 40
17.63888835906982
  1
2
  7
STYLE1
100
AcDbText
  0
TEXT
  5
3DE
330
786
100
AcDbEntity
  8
____
  6
Continuous
 62
     7
100
AcDbText
 10
571.9939901657876
 20
634.6985595692203
 30
0.0
 40
15.87499980926514
  1
1
  7
STYLE1
100
AcDbText
  0
DIMENSION
  5
3EB
330
786
100
AcDbEntity
  8
寸法線_1
  6
Continuous
 62
     7
100
AcDbDimension
  2
*D6
 10
-405.9440104955149
 20
389.6762485400333
 30
0.0
 11
-480.9440104955149
 21
389.6762485400333
 31
0.0
 71
     5
 42
-1.0
100
AcDbAlignedDimension
 13
-555.9440104955149
 23
339.6762485400333
 33
0.0
 14
-405.9440104955149
 24
339.6762485400334
 34
0.0
100
AcDbRotatedDimension
  0
DIMENSION
  5
3F8
330
786
100
AcDbEntity
  8
寸法線_1
  6
Continuous
 62
     7
100
AcDbDimension
  2
*D7
 10
-710.0440104955157
 20
-278.6858313428833
 30
0.0
 11
-480.9440104955155
 21
-278.6858313428833
 31
0.0
 71
     5
 42
-1.0
100
AcDbAlignedDimension
 13
-251.8440104955153
 23
-228.6858313428833
 33
0.0
 14
-710.0440104955157
 24
-228.6858313428833
 34
0.0
 50
180.0
100
AcDbRotatedDimension
  0
DIMENSION
  5
407
330
786
100
AcDbEntity
  8
寸法線_1
  6
Continuous
 62
     7
100
AcDbDimension
  2
*D8
 10
-367.6528645833329
 20
284.6762489802424
 30
0.0
 11
-367.6528645833329
 21
314.6473958333336
 31
0.0
 71
     5
 42
-1.0
100
AcDbAlignedDimension
 13
-367.6528645833329
 23
244.6762489802424
 33
0.0
 14
-367.6528645833329
 24
284.6762489802424
 34
0.0
 50
90.0
100
AcDbRotatedDimension
  0
DIMENSION
  5
416
330
786
100
AcDbEntity
  8
寸法線_1
  6
Continuous
 62
     7
100
AcDbDimension
  2
*D9
 10
-605.9440104955149
 20
339.6762485400333
 30
0.0
 11
-605.9440104955149
 21
264.6762485400333
 31
0.0
 71
     5
 42
-1.0
100
AcDbAlignedDimension
 13
-555.9440104955149
 23
189.6762485400333
 33
0.0
 14
-555.9440104955149
 24
339.6762485400333
 34
0.0
 50
90.0
100
AcDbRotatedDimension
  0
LINE
  5
421
330
786
100
AcDbEntity
  8
___G
  6
Continuous
 62
     7
100
AcDbLine
 10
510.6873991080995
 20
-683.7612184988943
 30
0.0
 11
510.6873991080995
 21
-681.2612184988942
 31
0.0
  0
LINE
  5
422
330
786
100
AcDbEntity
  8
___G
  6
Continuous
 62
     7
100
AcDbLine
 10
626.3845093192141
 20
-695.2612184988942
 30
0.0
 11
625.21117598588
 21
-691.2612184988942
 31
0.0
  0
LINE
  5
423
330
786
100
AcDbEntity
  8
___G
  6
Continuous
 62
     7
100
AcDbLine
 10
533.1873991080994
 20
-681.2612184988942
 30
0.0
 11
540.6873991080995
 21
-673.7612184988943
 31
0.0
  0
LINE
  5
424
330
786
100
AcDbEntity
  8
___G
  6
Continuous
 62
     7
100
AcDbLine
 10
498.1873991080995
 20
-691.2612184988942
 30
0.0
 11
498.1873991080995
 21
-698.7612184988941
 31
0.0
  0
LINE
  5
425
330
786
100
AcDbEntity
  8
___G
  6
DOT
 62
     7
100
AcDbLine
 10
1052.284166666666
 20
702.0054166666665
 30
0.0
 11
-997.5158333333338
 21
702.0054166666665
 31
0.0
  0
LINE
  5
426
330
786
100
AcDbEntity
  8
___G
  6
Continuous
 62
     7
100
AcDbLine
 10
510.6873991080995
 20
-698.7612184988941
 30
0.0
 11
510.6873991080995
 21
-691.2612184988942
 31
0.0
  0
LINE
  5
427
330
786
100
AcDbEntity
  8
___G
  6
DOT
 62
     7
100
AcDbLine
 10
-997.5158333333338
 20
-740.2945833333326
 30
0.0
 11
1052.284166666666
 21
-740.2945833333326
 31
0.0
  0
LINE
  5
428
330
786
100
AcDbEntity
  8
___G
  6
DOT
 62
     7
100
AcDbLine
 10
1052.284166666666
 20
-740.2945833333326
 30
0.0
 11
1052.284166666666
 21
702.0054166666665
 31
0.0
  0
LINE
  5
429
330
786
100
AcDbEntity
  8
___G
  6
DOT
 62
     7
100
AcDbLine
 10
-997.5158333333338
 20
-740.2945833333326
 30
0.0
 11
-997.5158333333338
 21
702.0054166666665
 31
0.0
  0
TEXT
  5
42A
330
786
100
AcDbEntity
  8
___G
  6
DOT
 62
     7
100
AcDbText
 10
561.5091669050855
 20
662.7205209128061
 30
0.0
 40
15.87499976158142
  1
副番
  7
STYLE1
100
AcDbText
  0
LINE
  5
42B
330
786
100
AcDbEntity
  8
___G
  6
Continuous
 62
     5
100
AcDbLine
 10
575.9627397364532
 20
629.6935041653482
 30
0.0
 11
563.5877397364533
 21
608.2593754216832
 31
0.0
  0
LINE
  5
42C
330
786
100
AcDbEntity
  8
___G
  6
Continuous
 62
     5
100
AcDbLine
 10
575.9627397364532
 20
654.4435041653473
 30
0.0
 11
588.3377397364541
 21
633.0093754216822
 31
0.0
  0
LINE
  5
42D
330
786
100
AcDbEntity
  8
___G
  6
Continuous
 62
     7
100
AcDbLine
 10
662.3841666666667
 20
-529.1445833333332
 30
0.0
 11
662.3841666666667
 21
-504.1445833333333
 31
0.0
  0
LINE
  5
42E
330
786
100
AcDbEntity
  8
___G
  6
Continuous
 62
     7
100
AcDbLine
 10
827.3841666666667
 20
-529.1445833333332
 30
0.0
 11
827.3841666666667
 21
-504.1445833333333
 31
0.0
  0
ARC
  5
42F
330
786
100
AcDbEntity
  8
____1
  6
Continuous
 62
     5
100
AcDbCircle
 10
-480.9440105145241
 20
-452.1483203124997
 30
0.0
 40
6.099999999999919
100
AcDbArc
 50
39.60192708110817
 51
140.3980729188922
  0
INSERT
  5
435
330
786
100
AcDbEntity
  8
____1
  6
Continuous
 62
     5
100
AcDbBlockReference
  2
C6
 10
0.0
 20
0.0
 30
0.0
  0
LINE
  5
436
330
786
100
AcDbEntity
  8
____1
  6
Continuous
 62
     5
100
AcDbLine
 10
-476.2440105145244
 20
-448.5483203124998
 30
0.0
 11
-476.2440105145244
 21
-448.2598758934551
 31
0.0
  0
LINE
  5
437
330
786
100
AcDbEntity
  8
____1
  6
CENTER2
 62
     3
100
AcDbLine
 10
-480.9440105145241
 20
-445.0077142518936
 30
0.0
 11
-480.9440105145241
 21
-456.0143809185603
 31
0.0
  0
LINE
  5
438
330
786
100
AcDbEntity
  8
____1
  6
DASHED2
 62
     7
100
AcDbLine
 10
-479.3440105145243
 20
-454.5483203124996
 30
0.0
 11
-478.9440105145241
 21
-454.1483203124998
 31
0.0
  0
LINE
  5
439
330
786
100
AcDbEntity
  8
____1
  6
DASHED2
 62
     7
100
AcDbLine
 10
-482.5440105145243
 20
-454.5483203124996
 30
0.0
 11
-482.9440105145241
 21
-454.1483203124998
 31
0.0
  0
LINE
  5
43A
330
786
100
AcDbEntity
  8
____1
  6
DASHED2
 62
     7
100
AcDbLine
 10
-482.9440105145241
 20
-454.1483203124998
 30
0.0
 11
-478.9440105145241
 21
-454.1483203124998
 31
0.0
  0
LINE
  5
43B
330
786
100
AcDbEntity
  8
____1
  6
DASHED2
 62
     7
100
AcDbLine
 10
-479.3440105145243
 20
-454.5483203124996
 30
0.0
 11
-482.5440105145241
 21
-454.5483203124996
 31
0.0
  0
LINE
  5
43C
330
786
100
AcDbEntity
  8
____1
  6
DASHED2
 62
     7
100
AcDbLine
 10
-482.9440105145241
 20
-454.1483203124998
 30
0.0
 11
-482.9440105145241
 21
-448.5483203124998
 31
0.0
  0
LINE
  5
43D
330
786
100
AcDbEntity
  8
____1
  6
DASHED2
 62
     7
100
AcDbLine
 10
-478.9440105145241
 20
-454.1483203124998
 30
0.0
 11
-478.9440105145241
 21
-448.5483203124998
 31
0.0
  0
LINE
  5
43E
330
786
100
AcDbEntity
  8
____1
  6
DASHED2
 62
     7
100
AcDbLine
 10
-479.3440105145243
 20
-454.5483203124996
 30
0.0
 11
-479.3440105145243
 21
-448.5483203124998
 31
0.0
  0
INSERT
  5
455
330
786
100
AcDbEntity
  8
____1
  6
Continuous
 62
   254
100
AcDbBlockReference
  2
C7
 10
0.0
 20
0.0
 30
0.0
  0
INSERT
  5
46C
330
786
100
AcDbEntity
  8
____1
  6
Continuous
 62
   254
100
AcDbBlockReference
  2
C8
 10
0.0
 20
0.0
 30
0.0
  0
TEXT
  5
46D
330
786
100
AcDbEntity
  8
___G
  6
Continuous
 62
     7
100
AcDbText
 10
700.7869457689922
 20
-422.8911343034106
 30
0.0
 40
17.63888835906982
  1
M4　トラス
  7
STYLE1
100
AcDbText
  0
TEXT
  5
46E
330
786
100
AcDbEntity
  8
___G
  6
Continuous
 62
     7
100
AcDbText
 10
696.3772248713175
 20
-447.8911343034106
 30
0.0
 40
17.63888835906982
  1
SPCC　1.2ｔ
  7
STYLE1
100
AcDbText
  0
TEXT
  5
46F
330
786
100
AcDbEntity
  8
___G
  6
Continuous
 62
     7
100
AcDbText
 10
696.3772248713175
 20
-472.8911343034106
 30
0.0
 40
17.63888835906982
  1
SPCC　1.2ｔ
  7
STYLE1
100
AcDbText
  0
TEXT
  5
470
330
786
100
AcDbEntity
  8
___G
  6
DOT
 62
     7
100
AcDbText
 10
840.0508307902022
 20
-644.1419435437519
 30
0.0
 40
21.16666555404663
  1
補強金具
  7
STYLE1
100
AcDbText
  0
TEXT
  5
471
330
786
100
AcDbEntity
  8
___G
  6
DOT
 62
     7
100
AcDbText
 10
797.7175044504802
 20
-589.1419435437516
 30
0.0
 40
21.16666555404663
  1
ＦＳＯＰ　４６０
  7
STYLE1
100
AcDbText
  0
TEXT
  5
472
330
786
100
AcDbEntity
  8
___G
  6
DOT
 62
     7
100
AcDbText
 10
840.0508307902022
 20
-699.1419435437522
 30
0.0
 40
21.16666555404663
  1
STY00153
  7
STYLE1
100
AcDbText
  0
TEXT
  5
473
330
786
100
AcDbEntity
  8
___G
  6
Continuous
 62
     7
100
AcDbText
 10
696.3772248713175
 20
-497.8911343034106
 30
0.0
 40
17.63888835906982
  1
SPCC　1.2ｔ
  7
STYLE1
100
AcDbText
  0
TEXT
  5
474
330
786
100
AcDbEntity
  8
___G
  6
Continuous
 62
     7
100
AcDbText
 10
329.6063899485272
 20
-601.7951549703885
 30
0.0
 40
17.63888835906982
  1
H21.1.23
  7
STYLE1
100
AcDbText
  0
TEXT
  5
475
330
786
100
AcDbEntity
  8
___G
  6
DOT
 62
     7
100
AcDbText
 10
403.4952783075969
 20
-656.7593182519003
 30
0.0
 40
17.63888835906982
  1
園原
  7
STYLE1
100
AcDbText
  0
TEXT
  5
476
330
786
100
AcDbEntity
  8
___G
  6
DOT
 62
     7
100
AcDbText
 10
403.4952783075969
 20
-629.2593182518992
 30
0.0
 40
17.63888835906982
  1
園原
  7
STYLE1
100
AcDbText
  0
TEXT
  5
477
330
786
100
AcDbEntity
  8
___G
  6
Continuous
 62
     7
100
AcDbText
 10
845.4744445768996
 20
-422.8911343034106
 30
0.0
 40
17.63888835906982
  1
1
  7
STYLE1
100
AcDbText
  0
TEXT
  5
478
330
786
100
AcDbEntity
  8
___G
  6
Continuous
 62
     7
100
AcDbText
 10
876.2836933987509
 20
-447.8911343034106
 30
0.0
 40
17.63888835906982
  1
ｸﾛﾒｰﾄめっき
  7
STYLE1
100
AcDbText
  0
LINE
  5
479
330
786
100
AcDbEntity
  8
____1
  6
DASHED2
 62
     7
100
AcDbLine
 10
-482.5440105145243
 20
-454.5483203124996
 30
0.0
 11
-482.5440105145243
 21
-448.5483203124998
 31
0.0
  0
DIMENSION
  5
488
330
786
100
AcDbEntity
  8
寸法線_1
  6
Continuous
 62
     7
100
AcDbDimension
  2
*D14
 10
-145.6343715184639
 20
-464.7483203124996
 30
0.0
 11
-145.6343715184639
 21
-311.4208508170805
 31
0.0
 71
     5
 42
-1.0
100
AcDbAlignedDimension
 13
-253.4440104955147
 23
-169.5483205353497
 33
0.0
 14
-274.4440104955162
 24
-464.7483203124996
 34
0.0
 50
90.0
100
AcDbRotatedDimension
  0
DIMENSION
  5
498
330
786
100
AcDbEntity
  8
寸法線_1
  6
Continuous
 62
     7
100
AcDbDimension
  2
*D15
 10
-205.5914409154381
 20
-464.7483203124996
 30
0.0
 11
-205.5914409154381
 21
-457.2483203124996
 31
0.0
 71
     5
 42
-1.0
100
AcDbAlignedDimension
 13
-278.144010495516
 23
-449.7483203124996
 33
0.0
 14
-274.4440104955162
 24
-464.7483203124996
 34
0.0
 50
90.0
100
AcDbRotatedDimension
  0
DIMENSION
  5
4A5
330
786
100
AcDbEntity
  8
寸法線_1
  6
Continuous
 62
     7
100
AcDbDimension
  2
*D16
 10
-687.4440104955168
 20
-514.7483203124996
 30
0.0
 11
-480.9440104955164
 21
-514.7483203124996
 31
0.0
 71
     5
 42
-1.0
100
AcDbAlignedDimension
 13
-274.4440104955162
 23
-464.7483203124996
 33
0.0
 14
-687.4440104955168
 24
-464.7483203124996
 34
0.0
 50
180.0
100
AcDbRotatedDimension
  0
INSERT
  5
4B5
330
786
100
AcDbEntity
  8
____1
  6
DASHED2
 62
   254
100
AcDbBlockReference
  2
C9
 10
0.0
 20
0.0
 30
0.0
  0
INSERT
  5
4D1
330
786
100
AcDbEntity
  8
____1
  6
Continuous
 62
   254
100
AcDbBlockReference
  2
C10
 10
0.0
 20
0.0
 30
0.0
  0
INSERT
  5
699
330
786
100
AcDbEntity
  8
____1
  6
DASHED2
 62
   254
100
AcDbBlockReference
  2
C12
 10
0.0
 20
0.0
 30
0.0
  0
INSERT
  5
746
330
786
100
AcDbEntity
  8
____1
  6
Continuous
 62
   254
100
AcDbBlockReference
  2
C29
 10
0.0
 20
0.0
 30
0.0
  0
LINE
  5
751
330
786
100
AcDbEntity
  8
____1
  6
DASHED2
 62
     7
100
AcDbLine
 10
90.06679714465434
 20
282.6762499999993
 30
0.0
 11
90.06679714465445
 21
246.6762499999997
 31
0.0
  0
LINE
  5
752
330
786
100
AcDbEntity
  8
____1
  6
DASHED2
 62
     7
100
AcDbLine
 10
367.1783525907823
 20
259.97625
 30
0.0
 11
367.1783525907823
 21
269.37625
 31
0.0
  0
ARC
  5
753
330
786
100
AcDbEntity
  8
____1
  6
DASHED2
 62
     7
100
AcDbCircle
 10
371.0667970098271
 20
264.67625
 30
0.0
 40
6.099999999999999
100
AcDbArc
 50
129.6019270811082
 51
230.3980729188918
  0
INSERT
  5
759
330
786
100
AcDbEntity
  8
____1
  6
DASHED2
 62
     7
100
AcDbBlockReference
  2
C41
 10
0.0
 20
0.0
 30
0.0
  0
LINE
  5
75A
330
786
100
AcDbEntity
  8
____1
  6
DASHED2
 62
     7
100
AcDbLine
 10
367.4667970098271
 20
269.37625
 30
0.0
 11
367.1783525907823
 21
269.37625
 31
0.0
  0
LINE
  5
75B
330
786
100
AcDbEntity
  8
____1
  6
DASHED2
 62
     7
100
AcDbLine
 10
373.4667970098271
 20
263.07625
 30
0.0
 11
367.4667970098271
 21
263.07625
 31
0.0
  0
LINE
  5
75C
330
786
100
AcDbEntity
  8
____1
  6
DASHED2
 62
     7
100
AcDbLine
 10
373.4667970098271
 20
266.27625
 30
0.0
 11
367.4667970098271
 21
266.27625
 31
0.0
  0
LINE
  5
75D
330
786
100
AcDbEntity
  8
____1
  6
DASHED2
 62
     7
100
AcDbLine
 10
373.0667970098272
 20
266.67625
 30
0.0
 11
367.4667970098271
 21
266.67625
 31
0.0
  0
LINE
  5
75E
330
786
100
AcDbEntity
  8
____1
  6
DASHED2
 62
     7
100
AcDbLine
 10
373.0667970098272
 20
262.67625
 30
0.0
 11
367.4667970098271
 21
262.67625
 31
0.0
  0
LINE
  5
75F
330
786
100
AcDbEntity
  8
____1
  6
DASHED2
 62
     7
100
AcDbLine
 10
373.4667970098271
 20
266.27625
 30
0.0
 11
373.4667970098271
 21
263.07625
 31
0.0
  0
LINE
  5
760
330
786
100
AcDbEntity
  8
____1
  6
DASHED2
 62
     7
100
AcDbLine
 10
373.0667970098272
 20
262.67625
 30
0.0
 11
373.0667970098272
 21
266.67625
 31
0.0
  0
LINE
  5
761
330
786
100
AcDbEntity
  8
____1
  6
DASHED2
 62
     7
100
AcDbLine
 10
373.4667970098271
 20
263.07625
 30
0.0
 11
373.0667970098272
 21
262.67625
 31
0.0
  0
LINE
  5
762
330
786
100
AcDbEntity
  8
____1
  6
DASHED2
 62
     7
100
AcDbLine
 10
373.4667970098271
 20
266.27625
 30
0.0
 11
373.0667970098272
 21
266.67625
 31
0.0
  0
LINE
  5
763
330
786
100
AcDbEntity
  8
____1
  6
DASHED2
 62
     7
100
AcDbLine
 10
363.9261909492209
 20
264.67625
 30
0.0
 11
374.9328576158877
 21
264.67625
 31
0.0
  0
LINE
  5
764
330
786
100
AcDbEntity
  8
____1
  6
Continuous
 62
     5
100
AcDbLine
 10
-485.6440105145241
 20
-448.2598758934551
 30
0.0
 11
-476.2440105145244
 21
-448.2598758934551
 31
0.0
  0
CIRCLE
  5
DB8
330
786
100
AcDbEntity
  8
____1
  6
Continuous
 62
     7
100
AcDbCircle
 10
-48.66666666666644
 20
411.9644531250001
 30
0.0
 40
20.0
  0
TEXT
  5
DB9
330
786
100
AcDbEntity
  8
____1
  6
CENTER2
 62
     7
100
AcDbText
 10
-53.95833317438739
 20
404.4679255723956
 30
0.0
 40
21.16666603088379
  1
4
  7
STYLE1
100
AcDbText
  0
LINE
  5
DBA
330
786
100
AcDbEntity
  8
寸法線_1
  6
Continuous
 62
     7
100
AcDbLine
 10
-81.99999999999979
 20
411.9644531250001
 30
0.0
 11
-68.66666666666644
 21
411.9644531250001
 31
0.0
  0
LINE
  5
DBB
330
786
100
AcDbEntity
  8
寸法線_1
  6
Continuous
 62
     7
100
AcDbLine
 10
-478.7940104955151
 20
265.1762485400332
 30
0.0
 11
-81.99999999999979
 21
411.9644531250001
 31
0.0
  0
SOLID
  5
DBC
330
786
100
AcDbEntity
  8
寸法線_1
 62
     7
100
AcDbTrace
 10
-478.7940104955151
 20
265.1762485400332
 30
0.0
 11
-473.4901848020265
 21
265.7585154108904
 31
0.0
 12
-478.7940104955151
 22
265.1762485400332
 32
0.0
 13
-475.1528865126156
 23
266.523229688901
 33
0.0
  0
SOLID
  5
DBD
330
786
100
AcDbEntity
  8
寸法線_1
 62
     7
100
AcDbTrace
 10
-475.1528865126156
 20
266.523229688901
 30
0.0
 11
-474.3881722346048
 21
268.18593139949
 31
0.0
 12
-478.7940104955151
 22
265.1762485400332
 32
0.0
 13
-478.7940104955151
 23
265.1762485400332
 33
0.0
  0
CIRCLE
  5
DBE
330
786
100
AcDbEntity
  8
____1
  6
Continuous
 62
     7
100
AcDbCircle
 10
-48.66666666666644
 20
29.37926655505311
 30
0.0
 40
20.0
  0
TEXT
  5
DBF
330
786
100
AcDbEntity
  8
____1
  6
DASHED2
 62
     7
100
AcDbText
 10
-53.95833317438739
 20
21.88273900244844
 30
0.0
 40
21.16666603088379
  1
3
  7
STYLE1
100
AcDbText
  0
LINE
  5
DC0
330
786
100
AcDbEntity
  8
寸法線_1
  6
Continuous
 62
     7
100
AcDbLine
 10
-81.99999999999979
 20
29.37926655505311
 30
0.0
 11
-68.66666666666644
 21
29.37926655505311
 31
0.0
  0
LINE
  5
DC1
330
786
100
AcDbEntity
  8
寸法線_1
  6
Continuous
 62
     7
100
AcDbLine
 10
-407.1440104955149
 20
217.1012485400334
 30
0.0
 11
-81.99999999999979
 21
29.37926655505311
 31
0.0
  0
SOLID
  5
DC2
330
786
100
AcDbEntity
  8
寸法線_1
 62
     7
100
AcDbTrace
 10
-407.1440104955149
 20
217.1012485400334
 30
0.0
 11
-403.3081807474308
 21
213.3923387487981
 31
0.0
 12
-407.1440104955149
 22
217.1012485400334
 32
0.0
 13
-403.7818524748847
 23
215.1601057017645
 33
0.0
  0
SOLID
  5
DC3
330
786
100
AcDbEntity
  8
寸法線_1
 62
     7
100
AcDbTrace
 10
-403.7818524748847
 20
215.1601057017645
 30
0.0
 11
-402.0140855219183
 21
215.6337774292182
 31
0.0
 12
-407.1440104955149
 22
217.1012485400334
 32
0.0
 13
-407.1440104955149
 23
217.1012485400334
 33
0.0
  0
CIRCLE
  5
DC4
330
786
100
AcDbEntity
  8
____1
  6
Continuous
 62
     7
100
AcDbCircle
 10
-48.66666666666644
 20
-59.99999999999989
 30
0.0
 40
20.0
  0
TEXT
  5
DC5
330
786
100
AcDbEntity
  8
____1
  6
DASHED2
 62
     7
100
AcDbText
 10
-53.95833317438739
 20
-67.49652755260456
 30
0.0
 40
21.16666603088379
  1
1
  7
STYLE1
100
AcDbText
  0
LINE
  5
DC6
330
786
100
AcDbEntity
  8
寸法線_1
  6
Continuous
 62
     7
100
AcDbLine
 10
-81.99999999999979
 20
-59.99999999999989
 30
0.0
 11
-68.66666666666644
 21
-59.99999999999989
 31
0.0
  0
LINE
  5
DC7
330
786
100
AcDbEntity
  8
寸法線_1
  6
Continuous
 62
     7
100
AcDbLine
 10
-251.8440104955153
 20
-199.9170759391165
 30
0.0
 11
-81.99999999999979
 21
-59.99999999999989
 31
0.0
  0
SOLID
  5
DC8
330
786
100
AcDbEntity
  8
寸法線_1
 62
     7
100
AcDbTrace
 10
-251.8440104955153
 20
-199.9170759391165
 30
0.0
 11
-247.0259059915506
 21
-197.6245946012028
 31
0.0
 12
-251.8440104955153
 22
-199.9170759391165
 32
0.0
 13
-248.8475510817603
 23
-197.4486000822425
 33
0.0
  0
SOLID
  5
DC9
330
786
100
AcDbEntity
  8
寸法線_1
 62
     7
100
AcDbTrace
 10
-248.8475510817603
 20
-197.4486000822425
 30
0.0
 11
-248.6715565628
 21
-195.6269549920328
 31
0.0
 12
-251.8440104955153
 22
-199.9170759391165
 32
0.0
 13
-251.8440104955153
 23
-199.9170759391165
 33
0.0
  0
CIRCLE
  5
DCA
330
786
100
AcDbEntity
  8
____1
  6
Continuous
 62
     7
100
AcDbCircle
 10
-48.66666666666644
 20
-195.1269270869086
 30
0.0
 40
20.0
  0
TEXT
  5
DCB
330
786
100
AcDbEntity
  8
____1
  6
DASHED2
 62
     7
100
AcDbText
 10
-53.95833317438739
 20
-202.6234546395133
 30
0.0
 40
21.16666603088379
  1
2
  7
STYLE1
100
AcDbText
  0
LINE
  5
DCC
330
786
100
AcDbEntity
  8
寸法線_1
  6
Continuous
 62
     7
100
AcDbLine
 10
-81.99999999999979
 20
-195.1269270869086
 30
0.0
 11
-68.66666666666644
 21
-195.1269270869086
 31
0.0
  0
LINE
  5
DCD
330
786
100
AcDbEntity
  8
寸法線_1
  6
Continuous
 62
     7
100
AcDbLine
 10
-337.8213932255905
 20
-450.9483203124993
 30
0.0
 11
-81.99999999999979
 21
-195.1269270869086
 31
0.0
  0
SOLID
  5
DCE
330
786
100
AcDbEntity
  8
寸法線_1
 62
     7
100
AcDbTrace
 10
-337.8213932255905
 20
-450.9483203124993
 30
0.0
 11
-333.2460756782851
 21
-448.2031297841159
 31
0.0
 12
-337.8213932255905
 22
-450.9483203124993
 32
0.0
 13
-335.0762026972073
 23
-448.2031297841159
 33
0.0
  0
SOLID
  5
DCF
330
786
100
AcDbEntity
  8
寸法線_1
 62
     7
100
AcDbTrace
 10
-335.0762026972073
 20
-448.2031297841159
 30
0.0
 11
-335.0762026972073
 21
-446.3730027651938
 31
0.0
 12
-337.8213932255905
 22
-450.9483203124993
 32
0.0
 13
-337.8213932255905
 23
-450.9483203124993
 33
0.0
  0
TEXT
  5
DD6
330
786
100
AcDbEntity
  8
___G
  6
Continuous
 62
     7
100
AcDbText
 10
876.2836933987509
 20
-472.8911343034106
 30
0.0
 40
17.63888835906982
  1
ｸﾛﾒｰﾄめっき
  7
STYLE1
100
AcDbText
  0
TEXT
  5
DD7
330
786
100
AcDbEntity
  8
___G
  6
Continuous
 62
     7
100
AcDbText
 10
876.2836933987502
 20
-497.8911343034106
 30
0.0
 40
17.63888835906982
  1
ｸﾛﾒｰﾄめっき
  7
STYLE1
100
AcDbText
  0
ENDSEC
  0
SECTION
  2
OBJECTS
  0
DICTIONARY
  5
772
330
0
100
AcDbDictionary
281
     1
  3
ACAD_COLOR
350
781
  3
ACAD_GROUP
350
773
  3
ACAD_LAYOUT
350
77F
  3
ACAD_MATERIAL
350
780
  3
ACAD_MLINESTYLE
350
77C
  3
ACAD_PLOTSETTINGS
350
77E
  3
ACAD_PLOTSTYLENAME
350
774
  0
DICTIONARY
  5
781
102
{ACAD_REACTORS
330
772
102
}
330
772
100
AcDbDictionary
281
     1
  0
DICTIONARY
  5
773
102
{ACAD_REACTORS
330
772
102
}
330
772
100
AcDbDictionary
281
     1
  0
DICTIONARY
  5
77F
102
{ACAD_REACTORS
330
772
102
}
330
772
100
AcDbDictionary
281
     1
  3
Model
350
789
  3
レイアウト1
350
785
  0
DICTIONARY
  5
780
102
{ACAD_REACTORS
330
772
102
}
330
772
100
AcDbDictionary
281
     1
  0
DICTIONARY
  5
77C
102
{ACAD_REACTORS
330
772
102
}
330
772
100
AcDbDictionary
281
     1
  3
Standard
350
77D
  0
DICTIONARY
  5
77E
102
{ACAD_REACTORS
330
772
102
}
330
772
100
AcDbDictionary
281
     1
  0
ACDBDICTIONARYWDFLT
  5
774
102
{ACAD_REACTORS
330
772
102
}
330
772
100
AcDbDictionary
281
     1
  3
Normal
350
775
100
AcDbDictionaryWithDefault
340
775
  0
LAYOUT
  5
789
102
{ACAD_REACTORS
330
77F
102
}
330
77F
100
AcDbPlotSettings
  1

  2
Microsoft XPS Document Writer
  4

  6

 40
0.0
 41
0.0
 42
0.0
 43
0.0
 44
0.0
 45
0.0
 46
0.0
 47
0.0
 48
0.0
 49
0.0
140
0.0
141
0.0
142
1.0
143
1.0
 70
  1712
 72
     0
 73
     0
 74
     0
  7
monochrome.ctb
 75
     0
147
1.0
 76
     0
 77
     2
 78
   300
148
0.0
149
0.0
100
AcDbLayout
  1
Model
 70
     1
 71
     0
 10
0.0
 20
0.0
 11
12.0
 21
9.0
 12
0.0
 22
0.0
 32
0.0
 14
0.0
 24
0.0
 34
0.0
 15
0.0
 25
0.0
 35
0.0
146
0.0
 13
0.0
 23
0.0
 33
0.0
 16
1.0
 26
0.0
 36
0.0
 17
0.0
 27
1.0
 37
0.0
 76
     0
330
786
  0
LAYOUT
  5
785
102
{ACAD_REACTORS
330
77F
102
}
330
77F
100
AcDbPlotSettings
  1

  2
Microsoft XPS Document Writer
  4

  6

 40
0.0
 41
0.0
 42
0.0
 43
0.0
 44
0.0
 45
0.0
 46
0.0
 47
0.0
 48
0.0
 49
0.0
140
0.0
141
0.0
142
1.0
143
1.0
 70
   688
 72
     0
 73
     0
 74
     5
  7
monochrome.ctb
 75
    16
147
1.0
 76
     0
 77
     2
 78
   300
148
0.0
149
0.0
100
AcDbLayout
  1
レイアウト1
 70
     1
 71
     1
 10
0.0
 20
0.0
 11
12.0
 21
9.0
 12
0.0
 22
0.0
 32
0.0
 14
1.000000000000000E+20
 24
1.000000000000000E+20
 34
1.000000000000000E+20
 15
-1.000000000000000E+20
 25
-1.000000000000000E+20
 35
-1.000000000000000E+20
146
0.0
 13
0.0
 23
0.0
 33
0.0
 16
1.0
 26
0.0
 36
0.0
 17
0.0
 27
1.0
 37
0.0
 76
     0
330
782
  0
MLINESTYLE
  5
77D
102
{ACAD_REACTORS
330
77C
102
}
330
77C
100
AcDbMlineStyle
  2
STANDARD
 70
     0
  3

 62
   256
 51
90.0
 52
90.0
 71
     2
 49
0.5
 62
   256
  6
BYLAYER
 49
-0.5
 62
   256
  6
BYLAYER
  0
ACDBPLACEHOLDER
  5
775
102
{ACAD_REACTORS
330
774
102
}
330
774
  0
ENDSEC
  0
EOF
